  0
SECTION
  2
HEADER
  9
$ACADVER
  1
AC1015
  9
$ACADMAINTVER
 70
    20
  9
$DWGCODEPAGE
  3
ANSI_932
  9
$INSBASE
 10
0.0
 20
0.0
 30
0.0
  9
$EXTMIN
 10
-25.79999999999998
 20
-41.5
 30
0.0
  9
$EXTMAX
 10
109.9083333333333
 20
80.13516066507133
 30
0.0
  9
$LIMMIN
 10
0.0
 20
0.0
  9
$LIMMAX
 10
420.0
 20
297.0
  9
$ORTHOMODE
 70
     0
  9
$REGENMODE
 70
     1
  9
$FILLMODE
 70
     1
  9
$QTEXTMODE
 70
     0
  9
$MIRRTEXT
 70
     1
  9
$LTSCALE
 40
1.0
  9
$ATTMODE
 70
     1
  9
$TEXTSIZE
 40
3.5
  9
$TRACEWID
 40
1.0
  9
$TEXTSTYLE
  7
simplex
  9
$CLAYER
  8
0
  9
$CELTYPE
  6
ByLayer
  9
$CECOLOR
 62
   256
  9
$CELTSCALE
 40
1.0
  9
$DISPSILH
 70
     0
  9
$DIMSCALE
 40
0.0
  9
$DIMASZ
 40
3.5
  9
$DIMEXO
 40
0.0
  9
$DIMDLI
 40
0.38
  9
$DIMRND
 40
0.0
  9
$DIMDLE
 40
0.0
  9
$DIMEXE
 40
1.5
  9
$DIMTP
 40
0.0
  9
$DIMTM
 40
0.0
  9
$DIMTXT
 40
3.5
  9
$DIMCEN
 40
0.09
  9
$DIMTSZ
 40
0.0
  9
$DIMTOL
 70
     0
  9
$DIMLIM
 70
     0
  9
$DIMTIH
 70
     0
  9
$DIMTOH
 70
     0
  9
$DIMSE1
 70
     0
  9
$DIMSE2
 70
     0
  9
$DIMTAD
 70
     1
  9
$DIMZIN
 70
     8
  9
$DIMBLK
  1

  9
$DIMASO
 70
     1
  9
$DIMSHO
 70
     1
  9
$DIMPOST
  1

  9
$DIMAPOST
  1

  9
$DIMALT
 70
     0
  9
$DIMALTD
 70
     2
  9
$DIMALTF
 40
25.4
  9
$DIMLFAC
 40
1.0
  9
$DIMTOFL
 70
     0
  9
$DIMTVP
 40
0.0
  9
$DIMTIX
 70
     0
  9
$DIMSOXD
 70
     0
  9
$DIMSAH
 70
     0
  9
$DIMBLK1
  1

  9
$DIMBLK2
  1

  9
$DIMSTYLE
  2
コピー - ISO-25
  9
$DIMCLRD
 70
   256
  9
$DIMCLRE
 70
   256
  9
$DIMCLRT
 70
   256
  9
$DIMTFAC
 40
1.0
  9
$DIMGAP
 40
2.299999999999998
  9
$DIMJUST
 70
     0
  9
$DIMSD1
 70
     0
  9
$DIMSD2
 70
     0
  9
$DIMTOLJ
 70
     1
  9
$DIMTZIN
 70
     8
  9
$DIMALTZ
 70
     0
  9
$DIMALTTZ
 70
     0
  9
$DIMUPT
 70
     0
  9
$DIMDEC
 70
     2
  9
$DIMTDEC
 70
     2
  9
$DIMALTU
 70
     2
  9
$DIMALTTD
 70
     2
  9
$DIMTXSTY
  7
simplex
  9
$DIMAUNIT
 70
     0
  9
$DIMADEC
 70
     0
  9
$DIMALTRND
 40
0.0
  9
$DIMAZIN
 70
     0
  9
$DIMDSEP
 70
    46
  9
$DIMATFIT
 70
     3
  9
$DIMFRAC
 70
     0
  9
$DIMLDRBLK
  1

  9
$DIMLUNIT
 70
     2
  9
$DIMLWD
 70
    -1
  9
$DIMLWE
 70
    -1
  9
$DIMTMOVE
 70
     0
  9
$LUNITS
 70
     2
  9
$LUPREC
 70
     4
  9
$SKETCHINC
 40
1.0
  9
$FILLETRAD
 40
0.8
  9
$AUNITS
 70
     0
  9
$AUPREC
 70
     0
  9
$MENU
  1
.
  9
$ELEVATION
 40
0.0
  9
$PELEVATION
 40
0.0
  9
$THICKNESS
 40
0.0
  9
$LIMCHECK
 70
     0
  9
$CHAMFERA
 40
10.0
  9
$CHAMFERB
 40
10.0
  9
$CHAMFERC
 40
20.0
  9
$CHAMFERD
 40
0.0
  9
$SKPOLY
 70
     0
  9
$TDCREATE
 40
2455489.391063368
  9
$TDUCREATE
 40
2455489.057730035
  9
$TDUPDATE
 40
2458948.464685127
  9
$TDUUPDATE
 40
2458948.131351794
  9
$TDINDWG
 40
2.555635938
  9
$TDUSRTIMER
 40
2.555583021
  9
$USRTIMER
 70
     1
  9
$ANGBASE
 50
0.0
  9
$ANGDIR
 70
     0
  9
$PDMODE
 70
     0
  9
$PDSIZE
 40
0.0
  9
$PLINEWID
 40
0.0
  9
$SPLFRAME
 70
     0
  9
$SPLINETYPE
 70
     6
  9
$SPLINESEGS
 70
     8
  9
$HANDSEED
  5
88759
  9
$SURFTAB1
 70
     6
  9
$SURFTAB2
 70
     6
  9
$SURFTYPE
 70
     6
  9
$SURFU
 70
     6
  9
$SURFV
 70
     6
  9
$UCSBASE
  2

  9
$UCSNAME
  2

  9
$UCSORG
 10
0.0
 20
0.0
 30
0.0
  9
$UCSXDIR
 10
1.0
 20
0.0
 30
0.0
  9
$UCSYDIR
 10
0.0
 20
1.0
 30
0.0
  9
$UCSORTHOREF
  2

  9
$UCSORTHOVIEW
 70
     0
  9
$UCSORGTOP
 10
0.0
 20
0.0
 30
0.0
  9
$UCSORGBOTTOM
 10
0.0
 20
0.0
 30
0.0
  9
$UCSORGLEFT
 10
0.0
 20
0.0
 30
0.0
  9
$UCSORGRIGHT
 10
0.0
 20
0.0
 30
0.0
  9
$UCSORGFRONT
 10
0.0
 20
0.0
 30
0.0
  9
$UCSORGBACK
 10
0.0
 20
0.0
 30
0.0
  9
$PUCSBASE
  2

  9
$PUCSNAME
  2

  9
$PUCSORG
 10
0.0
 20
0.0
 30
0.0
  9
$PUCSXDIR
 10
1.0
 20
0.0
 30
0.0
  9
$PUCSYDIR
 10
0.0
 20
1.0
 30
0.0
  9
$PUCSORTHOREF
  2

  9
$PUCSORTHOVIEW
 70
     0
  9
$PUCSORGTOP
 10
0.0
 20
0.0
 30
0.0
  9
$PUCSORGBOTTOM
 10
0.0
 20
0.0
 30
0.0
  9
$PUCSORGLEFT
 10
0.0
 20
0.0
 30
0.0
  9
$PUCSORGRIGHT
 10
0.0
 20
0.0
 30
0.0
  9
$PUCSORGFRONT
 10
0.0
 20
0.0
 30
0.0
  9
$PUCSORGBACK
 10
0.0
 20
0.0
 30
0.0
  9
$USERI1
 70
     0
  9
$USERI2
 70
     0
  9
$USERI3
 70
     0
  9
$USERI4
 70
     0
  9
$USERI5
 70
     0
  9
$USERR1
 40
0.0
  9
$USERR2
 40
0.0
  9
$USERR3
 40
0.0
  9
$USERR4
 40
0.0
  9
$USERR5
 40
0.0
  9
$WORLDVIEW
 70
     1
  9
$SHADEDGE
 70
     3
  9
$SHADEDIF
 70
    70
  9
$TILEMODE
 70
     1
  9
$MAXACTVP
 70
    64
  9
$PINSBASE
 10
0.0
 20
0.0
 30
0.0
  9
$PLIMCHECK
 70
     0
  9
$PEXTMIN
 10
26.66999878883364
 20
20.31999878883365
 30
0.0
  9
$PEXTMAX
 10
240.0299890995025
 20
182.8799890995025
 30
0.0
  9
$PLIMMIN
 10
-6.350006103515625
 20
-6.349999904632567
  9
$PLIMMAX
 10
273.0499877929688
 20
209.5499939918518
  9
$UNITMODE
 70
     0
  9
$VISRETAIN
 70
     1
  9
$PLINEGEN
 70
     0
  9
$PSLTSCALE
 70
     1
  9
$TREEDEPTH
 70
  3020
  9
$CMLSTYLE
  2
Standard
  9
$CMLJUST
 70
     0
  9
$CMLSCALE
 40
20.0
  9
$PROXYGRAPHICS
 70
     1
  9
$MEASUREMENT
 70
     1
  9
$CELWEIGHT
370
    -1
  9
$ENDCAPS
280
     0
  9
$JOINSTYLE
280
     0
  9
$LWDISPLAY
290
     0
  9
$INSUNITS
 70
     4
  9
$HYPERLINKBASE
  1

  9
$STYLESHEET
  1

  9
$XEDIT
290
     1
  9
$CEPSNTYPE
380
     0
  9
$PSTYLEMODE
290
     1
  9
$FINGERPRINTGUID
  2
{0D2100A2-4343-4663-A095-8B4632EA2AEE}
  9
$VERSIONGUID
  2
{8080A73E-45D9-47EE-BE65-AAAEA25D2A18}
  9
$EXTNAMES
290
     1
  9
$PSVPSCALE
 40
0.0
  9
$OLESTARTUP
290
     0
  0
ENDSEC
  0
SECTION
  2
CLASSES
  0
CLASS
  1
ACDBDICTIONARYWDFLT
  2
AcDbDictionaryWithDefault
  3
ObjectDBX Classes
 90
        0
280
     0
281
     0
  0
CLASS
  1
ACDBPLACEHOLDER
  2
AcDbPlaceHolder
  3
ObjectDBX Classes
 90
    32768
280
     0
281
     0
  0
CLASS
  1
LAYOUT
  2
AcDbLayout
  3
ObjectDBX Classes
 90
    32768
280
     0
281
     0
  0
CLASS
  1
DICTIONARYVAR
  2
AcDbDictionaryVar
  3
ObjectDBX Classes
 90
        0
280
     0
281
     0
  0
CLASS
  1
TABLESTYLE
  2
AcDbTableStyle
  3
ObjectDBX Classes
 90
     4095
280
     0
281
     0
  0
CLASS
  1
SORTENTSTABLE
  2
AcDbSortentsTable
  3
ObjectDBX Classes
 90
        0
280
     0
281
     0
  0
CLASS
  1
DIMASSOC
  2
AcDbDimAssoc
  3
"AcDbDimAssoc|Product Desc:     AcDim ARX App For Dimension|Company:          Autodesk, Inc.|WEB Address:      www.autodesk.com"
 90
        0
280
     0
281
     0
  0
CLASS
  1
ACAD_EVALUATION_GRAPH
  2
AcDbEvalGraph
  3
ObjectDBX Classes
 90
    33921
280
     0
281
     0
  0
CLASS
  1
ACAECUSTOBJ
  2
AcAeEditorObj
  3
AcAeEditorObj
 90
    33792
280
     0
281
     0
  0
CLASS
  1
ACDB_DYNAMICBLOCKPURGEPREVENTER_VERSION
  2
AcDbDynamicBlockPurgePreventer
  3
ObjectDBX Classes
 90
    33921
280
     0
281
     0
  0
CLASS
  1
MATERIAL
  2
AcDbMaterial
  3
ObjectDBX Classes
 90
     1153
280
     0
281
     0
  0
CLASS
  1
VISUALSTYLE
  2
AcDbVisualStyle
  3
ObjectDBX Classes
 90
     4095
280
     0
281
     0
  0
CLASS
  1
SCALE
  2
AcDbScale
  3
ObjectDBX Classes
 90
     1153
280
     0
281
     0
  0
CLASS
  1
MLEADERSTYLE
  2
AcDbMLeaderStyle
  3
ACDB_MLEADERSTYLE_CLASS
 90
     4095
280
     0
281
     0
  0
CLASS
  1
ACDBSECTIONVIEWSTYLE
  2
AcDbSectionViewStyle
  3
ObjectDBX Classes
 90
     1025
280
     0
281
     0
  0
CLASS
  1
ACDBDETAILVIEWSTYLE
  2
AcDbDetailViewStyle
  3
ObjectDBX Classes
 90
     1025
280
     0
281
     0
  0
CLASS
  1
CELLSTYLEMAP
  2
AcDbCellStyleMap
  3
ObjectDBX Classes
 90
     1152
280
     0
281
     0
  0
CLASS
  1
ACDBPLACEHOLDER
  2
AcDbPlaceHolder
  3
ObjectDBX Classes
 90
    32768
280
     0
281
     0
  0
CLASS
  1
LAYOUT
  2
AcDbLayout
  3
ObjectDBX Classes
 90
    32768
280
     0
281
     0
  0
CLASS
  1
ACDBPLACEHOLDER
  2
AcDbPlaceHolder
  3
ObjectDBX Classes
 90
    32768
280
     0
281
     0
  0
CLASS
  1
LAYOUT
  2
AcDbLayout
  3
ObjectDBX Classes
 90
    32768
280
     0
281
     0
  0
CLASS
  1
ACDBPLACEHOLDER
  2
AcDbPlaceHolder
  3
ObjectDBX Classes
 90
    32768
280
     0
281
     0
  0
CLASS
  1
LAYOUT
  2
AcDbLayout
  3
ObjectDBX Classes
 90
    32768
280
     0
281
     0
  0
CLASS
  1
ACDBPLACEHOLDER
  2
AcDbPlaceHolder
  3
ObjectDBX Classes
 90
    32768
280
     0
281
     0
  0
CLASS
  1
LAYOUT
  2
AcDbLayout
  3
ObjectDBX Classes
 90
    32768
280
     0
281
     0
  0
CLASS
  1
ACDBPLACEHOLDER
  2
AcDbPlaceHolder
  3
ObjectDBX Classes
 90
        0
280
     0
281
     0
  0
CLASS
  1
LAYOUT
  2
AcDbLayout
  3
ObjectDBX Classes
 90
        0
280
     0
281
     0
  0
ENDSEC
  0
SECTION
  2
TABLES
  0
TABLE
  2
VPORT
  5
8
102
{ACAD_XDICTIONARY
360
885BC
102
}
330
0
100
AcDbSymbolTable
 70
     1
  0
VPORT
  5
4A360
330
8
100
AcDbSymbolTableRecord
100
AcDbViewportTableRecord
  2
*Active
 70
     0
 10
0.0
 20
0.0
 11
1.0
 21
1.0
 12
47.14512979796682
 22
17.96061080971248
 13
0.0
 23
0.0
 14
10.0
 24
10.0
 15
10.0
 25
10.0
 16
0.0
 26
0.0
 36
1.0
 17
0.0
 27
0.0
 37
0.0
 40
138.5416688489248
 41
1.705156950672645
 42
50.0
 43
0.0
 44
0.0
 50
0.0
 51
0.0
 71
     0
 72
  1000
 73
     1
 74
     1
 75
     0
 76
     0
 77
     0
 78
     0
281
     0
 65
     1
110
0.0
120
0.0
130
0.0
111
1.0
121
0.0
131
0.0
112
0.0
122
1.0
132
0.0
 79
     0
146
0.0
1001
ACAD_NAV_VCDISPLAY
1070
     3
  0
ENDTAB
  0
TABLE
  2
LTYPE
  5
5
330
0
100
AcDbSymbolTable
 70
     3
  0
LTYPE
  5
14
330
5
100
AcDbSymbolTableRecord
100
AcDbLinetypeTableRecord
  2
ByBlock
 70
     0
  3

 72
    65
 73
     0
 40
0.0
  0
LTYPE
  5
15
330
5
100
AcDbSymbolTableRecord
100
AcDbLinetypeTableRecord
  2
ByLayer
 70
     0
  3

 72
    65
 73
     0
 40
0.0
  0
LTYPE
  5
16
330
5
100
AcDbSymbolTableRecord
100
AcDbLinetypeTableRecord
  2
Continuous
 70
     0
  3
Solid line
 72
    65
 73
     0
 40
0.0
  0
LTYPE
  5
4A76E
330
5
100
AcDbSymbolTableRecord
100
AcDbLinetypeTableRecord
  2
CENTER2
 70
     0
  3
Center (.5x) ___ _ ___ _ ___ _ ___ _ ___ _ ___
 72
    65
 73
     4
 40
28.575
 49
19.05
 74
     0
 49
-3.174999999999998
 74
     0
 49
3.174999999999998
 74
     0
 49
-3.174999999999998
 74
     0
  0
LTYPE
  5
87B53
330
5
100
AcDbSymbolTableRecord
100
AcDbLinetypeTableRecord
  2
HIDDEN
 70
     0
  3
Hidden __ __ __ __ __ __ __ __ __ __ __ __ __ _
 72
    65
 73
     2
 40
9.524999999999996
 49
6.349999999999997
 74
     0
 49
-3.174999999999998
 74
     0
  0
ENDTAB
  0
TABLE
  2
LAYER
  5
2
102
{ACAD_XDICTIONARY
360
E2
102
}
330
0
100
AcDbSymbolTable
 70
    11
  0
LAYER
  5
10
102
{ACAD_XDICTIONARY
360
4A86C
102
}
330
2
100
AcDbSymbolTableRecord
100
AcDbLayerTableRecord
  2
0
 70
     0
 62
     7
  6
Continuous
370
    -3
390
F
  0
LAYER
  5
31B6
330
2
100
AcDbSymbolTableRecord
100
AcDbLayerTableRecord
  2
Defpoints
 70
     0
 62
     7
  6
Continuous
290
     0
370
    -3
390
F
  0
LAYER
  5
4A772
102
{ACAD_XDICTIONARY
360
4A773
102
}
330
2
100
AcDbSymbolTableRecord
100
AcDbLayerTableRecord
  2
1
 70
     0
 62
     4
  6
Continuous
370
    50
390
F
1001
AcAecLayerStandard
1000

1000
Contour
  0
LAYER
  5
4A774
102
{ACAD_XDICTIONARY
360
4A775
102
}
330
2
100
AcDbSymbolTableRecord
100
AcDbLayerTableRecord
  2
2
 70
     0
 62
     7
  6
Continuous
370
    25
390
F
1001
AcAecLayerStandard
1000

1000
Dimension milling
  0
LAYER
  5
4A776
102
{ACAD_XDICTIONARY
360
4A777
102
}
330
2
100
AcDbSymbolTableRecord
100
AcDbLayerTableRecord
  2
4
 70
     0
 62
     2
  6
CENTER2
370
    25
390
F
1001
AcAecLayerStandard
1000

1000
Center line
  0
LAYER
  5
4A778
102
{ACAD_XDICTIONARY
360
4A779
102
}
330
2
100
AcDbSymbolTableRecord
100
AcDbLayerTableRecord
  2
cut
 70
     0
 62
     1
  6
Continuous
370
    25
390
F
1001
AcAecLayerStandard
1000

1000
contour
  0
LAYER
  5
4A77A
102
{ACAD_XDICTIONARY
360
4A77B
102
}
330
2
100
AcDbSymbolTableRecord
100
AcDbLayerTableRecord
  2
nocut
 70
     0
 62
     7
  6
Continuous
370
    25
390
F
1001
AcAecLayerStandard
1000

1000
contour
  0
LAYER
  5
4A77C
102
{ACAD_XDICTIONARY
360
4A77D
102
}
330
2
100
AcDbSymbolTableRecord
100
AcDbLayerTableRecord
  2
sk1
 70
     0
 62
     4
  6
Continuous
370
    50
390
F
1001
AcAecLayerStandard
1000

1000
sk1 Contour
  0
LAYER
  5
4A77E
102
{ACAD_XDICTIONARY
360
4A77F
102
}
330
2
100
AcDbSymbolTableRecord
100
AcDbLayerTableRecord
  2
sk2
 70
     0
 62
     7
  6
Continuous
370
    25
390
F
1001
AcAecLayerStandard
1000

1000
sk2 dimension
  0
LAYER
  5
4A782
102
{ACAD_XDICTIONARY
360
4A783
102
}
330
2
100
AcDbSymbolTableRecord
100
AcDbLayerTableRecord
  2
sk6
 70
     0
 62
     5
  6
Continuous
370
    35
390
F
1001
AcAecLayerStandard
1000

1000
sk6 text
  0
LAYER
  5
87B52
102
{ACAD_XDICTIONARY
360
885BA
102
}
330
2
100
AcDbSymbolTableRecord
100
AcDbLayerTableRecord
  2
sk3
 70
     0
 62
     1
  6
HIDDEN
370
    35
390
F
1001
AcAecLayerStandard
1000

1000

  0
ENDTAB
  0
TABLE
  2
STYLE
  5
3
330
0
100
AcDbSymbolTable
 70
     2
  0
STYLE
  5
11
330
3
100
AcDbSymbolTableRecord
100
AcDbTextStyleTableRecord
  2
Standard
 70
     0
 40
0.0
 41
1.0
 50
0.0
 71
     0
 42
2.5
  3
txt.shx
  4
@extfont2.shx
  0
STYLE
  5
24A
330
3
100
AcDbSymbolTableRecord
100
AcDbTextStyleTableRecord
  2
simplex
 70
     0
 40
3.5
 41
1.0
 50
0.0
 71
     0
 42
3.5
  3
txt.shx
  4

  0
ENDTAB
  0
TABLE
  2
VIEW
  5
6
330
0
100
AcDbSymbolTable
 70
     0
  0
ENDTAB
  0
TABLE
  2
UCS
  5
7
330
0
100
AcDbSymbolTable
 70
     0
  0
ENDTAB
  0
TABLE
  2
APPID
  5
9
330
0
100
AcDbSymbolTable
 70
    28
  0
APPID
  5
12
330
9
100
AcDbSymbolTableRecord
100
AcDbRegAppTableRecord
  2
ACAD
 70
     0
  0
APPID
  5
D2
330
9
100
AcDbSymbolTableRecord
100
AcDbRegAppTableRecord
  2
AcAecLayerStandard
 70
     0
  0
APPID
  5
E6
330
9
100
AcDbSymbolTableRecord
100
AcDbRegAppTableRecord
  2
ACAD_DSTYLE_DIMTEXT_FILL
 70
     0
  0
APPID
  5
4C84
330
9
100
AcDbSymbolTableRecord
100
AcDbRegAppTableRecord
  2
ACAD_EXEMPT_FROM_CAD_STANDARDS
 70
     0
  0
APPID
  5
3493E
330
9
100
AcDbSymbolTableRecord
100
AcDbRegAppTableRecord
  2
DCO15
 70
     0
  0
APPID
  5
3BAB0
330
9
100
AcDbSymbolTableRecord
100
AcDbRegAppTableRecord
  2
ACAD_DSTYLE_DIMEXT_ENABLED
 70
     0
  0
APPID
  5
3BAB1
330
9
100
AcDbSymbolTableRecord
100
AcDbRegAppTableRecord
  2
ACAD_DSTYLE_DIMEXT_LENGTH
 70
     0
  0
APPID
  5
3BEB4
330
9
100
AcDbSymbolTableRecord
100
AcDbRegAppTableRecord
  2
ACAUTHENVIRON
 70
     0
  0
APPID
  5
3BEB7
330
9
100
AcDbSymbolTableRecord
100
AcDbRegAppTableRecord
  2
AcDbDynamicBlockTrueName
 70
     0
  0
APPID
  5
3BEB8
330
9
100
AcDbSymbolTableRecord
100
AcDbRegAppTableRecord
  2
AcDbDynamicBlockGUID
 70
     0
  0
APPID
  5
3BEBA
330
9
100
AcDbSymbolTableRecord
100
AcDbRegAppTableRecord
  2
AcDbBlockRepETag
 70
     0
  0
APPID
  5
4A453
330
9
100
AcDbSymbolTableRecord
100
AcDbRegAppTableRecord
  2
ACAD_PSEXT
 70
     0
  0
APPID
  5
4A454
330
9
100
AcDbSymbolTableRecord
100
AcDbRegAppTableRecord
  2
AcadAnnotative
 70
     0
  0
APPID
  5
4A455
330
9
100
AcDbSymbolTableRecord
100
AcDbRegAppTableRecord
  2
ACAD_DSTYLE_DIMJAG
 70
     0
  0
APPID
  5
4A456
330
9
100
AcDbSymbolTableRecord
100
AcDbRegAppTableRecord
  2
ACAD_DSTYLE_DIMTALN
 70
     0
  0
APPID
  5
4A457
330
9
100
AcDbSymbolTableRecord
100
AcDbRegAppTableRecord
  2
ACAD_NAV_VCDISPLAY
 70
     0
  0
APPID
  5
4A787
330
9
100
AcDbSymbolTableRecord
100
AcDbRegAppTableRecord
  2
ACAD_DSTYLE_DIMINSPECT
 70
     0
  0
APPID
  5
4A788
330
9
100
AcDbSymbolTableRecord
100
AcDbRegAppTableRecord
  2
GENIUS_GENDTOL_13
 70
     0
  0
APPID
  5
4A789
330
9
100
AcDbSymbolTableRecord
100
AcDbRegAppTableRecord
  2
ZWMCAD_GENSTANDARDFRAME_13_
 70
     0
  0
APPID
  5
4A78A
330
9
100
AcDbSymbolTableRecord
100
AcDbRegAppTableRecord
  2
ZW_RECESS_XDATA
 70
     0
  0
APPID
  5
4A78B
330
9
100
AcDbSymbolTableRecord
100
AcDbRegAppTableRecord
  2
ZW_FAC_XDATA
 70
     0
  0
APPID
  5
4A78C
330
9
100
AcDbSymbolTableRecord
100
AcDbRegAppTableRecord
  2
ZW_FLC_XDATA
 70
     0
  0
APPID
  5
4A78D
330
9
100
AcDbSymbolTableRecord
100
AcDbRegAppTableRecord
  2
ZW_SUPERPART
 70
     0
  0
APPID
  5
4A78E
330
9
100
AcDbSymbolTableRecord
100
AcDbRegAppTableRecord
  2
ZW_SUPERSYMBOL
 70
     0
  0
APPID
  5
4A78F
330
9
100
AcDbSymbolTableRecord
100
AcDbRegAppTableRecord
  2
ZW_SUPERSHAFT
 70
     0
  0
APPID
  5
4A790
330
9
100
AcDbSymbolTableRecord
100
AcDbRegAppTableRecord
  2
ZWMCAD_GENFRAME_13_
 70
     0
  0
APPID
  5
4A791
330
9
100
AcDbSymbolTableRecord
100
AcDbRegAppTableRecord
  2
ACAD_MLEADERVER
 70
     0
  0
APPID
  5
4A792
330
9
100
AcDbSymbolTableRecord
100
AcDbRegAppTableRecord
  2
ACAD_DSTYLE_DIMRADIAL_EXTENSION
 70
     0
  0
ENDTAB
  0
TABLE
  2
DIMSTYLE
  5
A
330
0
100
AcDbSymbolTable
 70
     2
100
AcDbDimStyleTable
 71
     2
340
1BF
340
3527
  0
DIMSTYLE
105
1BF
102
{ACAD_REACTORS
330
883CE
330
883D2
330
883D3
330
883C3
330
883CB
330
883C6
330
88680
102
}
330
A
100
AcDbSymbolTableRecord
100
AcDbDimStyleTableRecord
  2
コピー - ISO-25
 70
     0
 40
0.0
 41
3.5
 42
0.0
 44
1.5
 73
     0
 74
     0
 77
     1
 78
     8
140
3.5
147
2.299999999999998
176
   256
177
   256
271
     2
178
   256
271
     2
272
     2
284
     8
340
24A
371
    -1
372
    -1
  0
DIMSTYLE
105
3527
330
A
100
AcDbSymbolTableRecord
100
AcDbDimStyleTableRecord
  2
STANDARD
 70
     0
 41
3.0
 47
0.001
 48
0.001
 71
     1
 73
     0
 74
     0
 77
     1
 78
     8
140
4.0
271
     3
272
     3
284
     8
340
11
341
34B1
342
34B1
343
34B1
344
34B1
  0
ENDTAB
  0
TABLE
  2
BLOCK_RECORD
  5
1
330
0
100
AcDbSymbolTable
 70
    11
  0
BLOCK_RECORD
  5
1F
102
{ACAD_XDICTIONARY
360
31EE
102
}
330
1
100
AcDbSymbolTableRecord
100
AcDbBlockTableRecord
  2
*Model_Space
340
22
  0
BLOCK_RECORD
  5
55
330
1
100
AcDbSymbolTableRecord
100
AcDbBlockTableRecord
  2
*Paper_Space
340
56
  0
BLOCK_RECORD
  5
50
330
1
100
AcDbSymbolTableRecord
100
AcDbBlockTableRecord
  2
*Paper_Space000000
340
51
  0
BLOCK_RECORD
  5
34B1
330
1
100
AcDbSymbolTableRecord
100
AcDbBlockTableRecord
  2
_OPEN
340
0
  0
BLOCK_RECORD
  5
4A6D6
102
{ACAD_XDICTIONARY
360
4A6D7
102
}
330
1
100
AcDbSymbolTableRecord
100
AcDbBlockTableRecord
  2
zero block
340
0
102
{BLKREFS
331
880DD
331
882D3
331
4A793
331
87B7F
331
87D7D
102
}
1001
AcDbDynamicBlockGUID
1000
{A89DF4EB-B2CB-439E-AC69-1EAC9F242D1C}
1001
AcDbBlockRepETag
1070
     1
1071
        7
1001
ACAD
1000
DesignCenter Data
1002
{
1070
     1
1070
     4
1002
}
  0
BLOCK_RECORD
  5
87D73
330
1
100
AcDbSymbolTableRecord
100
AcDbBlockTableRecord
  2
_None
340
0
102
{BLKREFS
331
87FA2
331
87FBD
331
87FC5
331
88042
331
88238
331
884B1
331
884F0
331
88512
331
885AA
331
87D72
331
87F63
102
}
  0
BLOCK_RECORD
  5
88466
330
1
100
AcDbSymbolTableRecord
100
AcDbBlockTableRecord
  2
*D354444
340
0
  0
BLOCK_RECORD
  5
88473
330
1
100
AcDbSymbolTableRecord
100
AcDbBlockTableRecord
  2
*D365555
340
0
  0
BLOCK_RECORD
  5
8847F
330
1
100
AcDbSymbolTableRecord
100
AcDbBlockTableRecord
  2
*D376666
340
0
  0
BLOCK_RECORD
  5
8848B
330
1
100
AcDbSymbolTableRecord
100
AcDbBlockTableRecord
  2
*D387777
340
0
  0
BLOCK_RECORD
  5
884A1
330
1
100
AcDbSymbolTableRecord
100
AcDbBlockTableRecord
  2
*D409988
340
0
  0
BLOCK_RECORD
  5
884AD
330
1
100
AcDbSymbolTableRecord
100
AcDbBlockTableRecord
  2
*D41101099
340
0
  0
BLOCK_RECORD
  5
88683
330
1
100
AcDbSymbolTableRecord
100
AcDbBlockTableRecord
  2
*D131010
340
0
  0
ENDTAB
  0
ENDSEC
  0
SECTION
  2
BLOCKS
  0
BLOCK
  5
20
330
1F
100
AcDbEntity
  8
0
100
AcDbBlockBegin
  2
*Model_Space
 70
     0
 10
0.0
 20
0.0
 30
0.0
  3
*Model_Space
  1

  0
ENDBLK
  5
21
330
1F
100
AcDbEntity
  8
0
100
AcDbBlockEnd
  0
BLOCK
  5
57
330
55
100
AcDbEntity
 67
     1
  8
0
100
AcDbBlockBegin
  2
*Paper_Space
 70
     0
 10
0.0
 20
0.0
 30
0.0
  3
*Paper_Space
  1

  0
ENDBLK
  5
58
330
55
100
AcDbEntity
 67
     1
  8
0
100
AcDbBlockEnd
  0
BLOCK
  5
52
330
50
100
AcDbEntity
  8
0
100
AcDbBlockBegin
  2
*Paper_Space000000
 70
     0
 10
0.0
 20
0.0
 30
0.0
  3
*Paper_Space000000
  1

  0
VIEWPORT
  5
6B
102
{ACAD_XDICTIONARY
360
87B05
102
}
330
50
100
AcDbEntity
  8
0
100
AcDbViewport
 10
264.3775031494645
 20
160.4455827878762
 30
0.0
 40
567.6219612953822
 41
282.2272140146125
 68
     1
 69
    -1
 12
264.3775031494645
 22
160.4455827878762
 13
0.0
 23
0.0
 14
10.0
 24
10.0
 15
10.0
 25
10.0
 16
0.0
 26
0.0
 36
1.0
 17
0.0
 27
0.0
 37
0.0
 42
50.0
 43
0.0
 44
0.0
 45
282.2272140146125
 50
0.0
 51
0.0
 72
  1000
 90
    32864
  1

281
     0
 71
     1
 74
     0
110
0.0
120
0.0
130
0.0
111
1.0
121
0.0
131
0.0
112
0.0
122
1.0
132
0.0
 79
     0
146
0.0
1001
ACAD
1000
MVIEW
1002
{
1070
    16
1010
0.0
1020
0.0
1030
0.0
1010
0.0
1020
0.0
1030
1.0
1040
0.0
1040
282.2272140146125
1040
264.3775031494645
1040
160.4455827878762
1040
50.0
1040
0.0
1040
0.0
1070
     0
1070
  1000
1070
     0
1070
     3
1070
     0
1070
     0
1070
     0
1070
     0
1040
0.0
1040
0.0
1040
0.0
1040
10.0
1040
10.0
1040
10.0
1040
10.0
1070
     0
1002
{
1002
}
1002
}
  0
VIEWPORT
  5
6D
102
{ACAD_XDICTIONARY
360
87B07
102
}
330
50
100
AcDbEntity
  8
0
100
AcDbViewport
 10
133.3499939441681
 20
101.5999939441681
 30
0.0
 40
213.3599903106689
 41
162.5599903106689
 68
     2
 69
    -1
 12
210.0
 22
148.5
 13
0.0
 23
0.0
 14
10.0
 24
10.0
 15
10.0
 25
10.0
 16
0.0
 26
0.0
 36
1.0
 17
0.0
 27
0.0
 37
0.0
 42
50.0
 43
0.0
 44
0.0
 45
324.0677920111345
 50
0.0
 51
0.0
 72
   100
 90
    32864
  1

281
     0
 71
     1
 74
     0
110
0.0
120
0.0
130
0.0
111
1.0
121
0.0
131
0.0
112
0.0
122
1.0
132
0.0
 79
     0
146
0.0
1001
ACAD
1000
MVIEW
1002
{
1070
    16
1010
0.0
1020
0.0
1030
0.0
1010
0.0
1020
0.0
1030
1.0
1040
0.0
1040
324.0677920111345
1040
210.0
1040
148.5
1040
50.0
1040
0.0
1040
0.0
1070
     0
1070
   100
1070
     0
1070
     3
1070
     0
1070
     0
1070
     0
1070
     0
1040
0.0
1040
0.0
1040
0.0
1040
10.0
1040
10.0
1040
10.0
1040
10.0
1070
     0
1002
{
1002
}
1002
}
  0
ENDBLK
  5
53
330
50
100
AcDbEntity
  8
0
100
AcDbBlockEnd
  0
BLOCK
  5
34B2
330
34B1
100
AcDbEntity
  8
0
100
AcDbBlockBegin
  2
_OPEN
 70
     0
 10
0.0
 20
0.0
 30
0.0
  3
_OPEN
  1

  0
LINE
  5
34B3
330
34B1
100
AcDbEntity
  8
0
  6
ByBlock
 62
     0
100
AcDbLine
 10
0.0
 20
0.0
 30
0.0
 11
-1.0
 21
0.1766666667
 31
0.0
  0
LINE
  5
34B4
330
34B1
100
AcDbEntity
  8
0
  6
ByBlock
 62
     0
100
AcDbLine
 10
-1.0
 20
-0.1766666667
 30
0.0
 11
0.0
 21
0.0
 31
0.0
  0
LINE
  5
34B5
330
34B1
100
AcDbEntity
  8
0
  6
ByBlock
 62
     0
100
AcDbLine
 10
-1.0
 20
0.0
 30
0.0
 11
0.0
 21
0.0
 31
0.0
  0
ENDBLK
  5
34B6
330
34B1
100
AcDbEntity
  8
0
  6
ByBlock
 62
     0
100
AcDbBlockEnd
  0
BLOCK
  5
4A6D9
330
4A6D6
100
AcDbEntity
  8
0
100
AcDbBlockBegin
  2
zero block
 70
     0
 10
0.0
 20
0.0
 30
0.0
  3
zero block
  1

  0
HATCH
  5
4A6DA
330
4A6D6
100
AcDbEntity
  8
0
 62
     7
100
AcDbHatch
 10
0.0
 20
0.0
 30
0.0
210
0.0
220
0.0
230
1.0
  2
SOLID
 70
     1
 71
     0
 91
        2
 92
        7
 72
     1
 73
     1
 93
        3
 10
0.0
 20
0.9999999999999875
 42
0.4142135623730915
 10
-1.0
 20
0.0
 42
0.0
 10
0.0
 20
0.0
 42
0.0
 97
        0
 92
        7
 72
     1
 73
     1
 93
        3
 10
1.000000000000007
 20
0.0
 42
0.0
 10
0.0
 20
0.0
 42
0.0
 10
0.0
 20
-1.0
 42
0.4142135623730974
 97
        0
 75
     0
 76
     1
 47
0.0090601366782909
 98
        2
 10
-0.380591363650975
 20
0.4885804701532896
 10
0.4350764810977559
 20
-0.4536738423704725
1001
AcDbBlockRepETag
1070
     1
1071
        0
1005
4A6DA
  0
LINE
  5
4A6DB
330
4A6D6
100
AcDbEntity
  8
0
 62
     7
 48
0.2
100
AcDbLine
 10
-1.0
 20
0.0
 30
0.0
 11
1.000000000000007
 21
0.0
 31
0.0
1001
AcDbBlockRepETag
1070
     1
1071
        1
1005
4A6DB
  0
LINE
  5
4A6DC
330
4A6D6
100
AcDbEntity
  8
0
 62
     7
 48
0.2
100
AcDbLine
 10
0.0
 20
-1.0
 30
0.0
 11
0.0
 21
0.9999999999999875
 31
0.0
1001
AcDbBlockRepETag
1070
     1
1071
        2
1005
4A6DC
  0
ARC
  5
4A6DD
330
4A6D6
100
AcDbEntity
  8
0
 62
     7
 48
0.2
100
AcDbCircle
 10
0.0
 20
0.0
 30
0.0
 40
1.0
100
AcDbArc
 50
270.0
 51
0.0
1001
AcDbBlockRepETag
1070
     1
1071
        3
1005
4A6DD
  0
ARC
  5
4A6DE
330
4A6D6
100
AcDbEntity
  8
0
 62
     7
 48
0.2
100
AcDbCircle
 10
0.0
 20
0.0
 30
0.0
 40
1.0
100
AcDbArc
 50
0.0
 51
90.0
1001
AcDbBlockRepETag
1070
     1
1071
        4
1005
4A6DE
  0
ARC
  5
4A6DF
330
4A6D6
100
AcDbEntity
  8
0
 62
     7
 48
0.2
100
AcDbCircle
 10
0.0
 20
0.0
 30
0.0
 40
1.0
100
AcDbArc
 50
180.0
 51
270.0
1001
AcDbBlockRepETag
1070
     1
1071
        5
1005
4A6DF
  0
ARC
  5
4A6E0
330
4A6D6
100
AcDbEntity
  8
0
 62
     7
 48
0.2
100
AcDbCircle
 10
0.0
 20
0.0
 30
0.0
 40
1.0
100
AcDbArc
 50
90.0
 51
180.0
1001
AcDbBlockRepETag
1070
     1
1071
        6
1005
4A6E0
  0
ENDBLK
  5
4A6E1
330
4A6D6
100
AcDbEntity
  8
0
100
AcDbBlockEnd
  0
BLOCK
  5
87D74
330
87D73
100
AcDbEntity
  8
0
100
AcDbBlockBegin
  2
_None
 70
     0
 10
0.0
 20
0.0
 30
0.0
  3
_None
  1

  0
ENDBLK
  5
87D75
330
87D73
100
AcDbEntity
  8
0
100
AcDbBlockEnd
  0
BLOCK
  5
88471
330
88466
100
AcDbEntity
  8
0
100
AcDbBlockBegin
  2
*D354444
 70
     1
 10
0.0
 20
0.0
 30
0.0
  3
*D354444
  1

  0
LINE
  5
88571
330
88466
100
AcDbEntity
  8
sk2
100
AcDbLine
 10
0.0
 20
-11.03050037180003
 30
0.0
 11
0.0
 21
-41.5
 31
0.0
  0
LINE
  5
88572
330
88466
100
AcDbEntity
  8
sk2
100
AcDbLine
 10
21.80000000000001
 20
-9.000000000000012
 30
0.0
 11
21.80000000000001
 21
-41.5
 31
0.0
  0
LINE
  5
88573
330
88466
100
AcDbEntity
  8
sk2
100
AcDbLine
 10
21.80000000000001
 20
-40.0
 30
0.0
 11
61.4
 21
-40.0
 31
0.0
  0
LINE
  5
88574
330
88466
100
AcDbEntity
  8
sk2
100
AcDbLine
 10
3.5
 20
-40.0
 30
0.0
 11
18.30000000000001
 21
-40.0
 31
0.0
  0
SOLID
  5
88575
330
88466
100
AcDbEntity
  8
sk2
100
AcDbTrace
 10
3.5
 20
-39.41666666666666
 30
0.0
 11
3.5
 21
-40.58333333333332
 31
0.0
 12
0.0
 22
-40.0
 32
0.0
 13
0.0
 23
-40.0
 33
0.0
  0
SOLID
  5
88576
330
88466
100
AcDbEntity
  8
sk2
100
AcDbTrace
 10
18.30000000000001
 20
-40.58333333333332
 30
0.0
 11
18.30000000000001
 21
-39.41666666666666
 31
0.0
 12
21.80000000000001
 22
-40.0
 32
0.0
 13
21.80000000000001
 23
-40.0
 33
0.0
  0
MTEXT
  5
88577
330
88466
100
AcDbEntity
  8
sk2
100
AcDbMText
 10
43.34999999999999
 20
-35.95000000000001
 30
0.0
 40
3.5
 41
0.0
 71
     5
 72
     1
  1
\A1;21.8 [.858"]
  7
simplex
 73
     1
 44
1.0
1001
ACAD
1000
MTEXTBEGIN
1070
    73
1070
     1
1070
    44
1040
1.0
1070
    74
1070
     0
1000
MTEXTEND
  0
POINT
  5
88578
330
88466
100
AcDbEntity
  8
Defpoints
 62
     0
100
AcDbPoint
 10
0.0
 20
-11.03050037180003
 30
0.0
  0
POINT
  5
88579
330
88466
100
AcDbEntity
  8
Defpoints
 62
     0
100
AcDbPoint
 10
21.80000000000001
 20
-9.000000000000012
 30
0.0
  0
POINT
  5
8857A
330
88466
100
AcDbEntity
  8
Defpoints
 62
     0
100
AcDbPoint
 10
21.80000000000001
 20
-40.0
 30
0.0
  0
ENDBLK
  5
88472
330
88466
100
AcDbEntity
  8
0
100
AcDbBlockEnd
  0
BLOCK
  5
8847D
330
88473
100
AcDbEntity
  8
0
100
AcDbBlockBegin
  2
*D365555
 70
     1
 10
0.0
 20
0.0
 30
0.0
  3
*D365555
  1

  0
LINE
  5
8857B
330
88473
100
AcDbEntity
  8
sk2
100
AcDbLine
 10
1.5
 20
22.22499999999993
 30
0.0
 11
-21.49999999999999
 21
22.22499999999993
 31
0.0
  0
LINE
  5
8857C
330
88473
100
AcDbEntity
  8
sk2
100
AcDbLine
 10
1.5
 20
-22.22500000000001
 30
0.0
 11
-21.49999999999999
 21
-22.22500000000001
 31
0.0
  0
LINE
  5
8857D
330
88473
100
AcDbEntity
  8
sk2
100
AcDbLine
 10
-19.99999999999998
 20
18.72499999999992
 30
0.0
 11
-19.99999999999998
 21
-18.72500000000001
 31
0.0
  0
SOLID
  5
8857E
330
88473
100
AcDbEntity
  8
sk2
100
AcDbTrace
 10
-19.41666666666665
 20
18.72499999999992
 30
0.0
 11
-20.58333333333332
 21
18.72499999999992
 31
0.0
 12
-19.99999999999998
 22
22.22499999999993
 32
0.0
 13
-19.99999999999998
 23
22.22499999999993
 33
0.0
  0
SOLID
  5
8857F
330
88473
100
AcDbEntity
  8
sk2
100
AcDbTrace
 10
-20.58333333333332
 20
-18.72500000000001
 30
0.0
 11
-19.41666666666665
 21
-18.72500000000001
 31
0.0
 12
-19.99999999999998
 22
-22.22500000000001
 32
0.0
 13
-19.99999999999998
 23
-22.22500000000001
 33
0.0
  0
MTEXT
  5
88580
330
88473
100
AcDbEntity
  8
sk2
100
AcDbMText
 10
-24.04999999999998
 20
0.0
 30
0.0
 40
3.5
 41
0.0
 71
     5
 72
     1
  1
\A1;%%C44.45 [%%c1.750"]
  7
simplex
 11
0.0
 21
1.0
 31
0.0
 73
     1
 44
1.0
1001
ACAD
1000
MTEXTBEGIN
1070
    73
1070
     1
1070
    44
1040
1.0
1070
    74
1070
     0
1000
MTEXTEND
  0
POINT
  5
88581
330
88473
100
AcDbEntity
  8
Defpoints
 62
     0
100
AcDbPoint
 10
1.5
 20
22.22499999999993
 30
0.0
  0
POINT
  5
88582
330
88473
100
AcDbEntity
  8
Defpoints
 62
     0
100
AcDbPoint
 10
1.5
 20
-22.22500000000001
 30
0.0
  0
POINT
  5
88583
330
88473
100
AcDbEntity
  8
Defpoints
 62
     0
100
AcDbPoint
 10
-19.99999999999998
 20
-22.22500000000001
 30
0.0
  0
ENDBLK
  5
8847E
330
88473
100
AcDbEntity
  8
0
100
AcDbBlockEnd
  0
BLOCK
  5
88489
330
8847F
100
AcDbEntity
  8
0
100
AcDbBlockBegin
  2
*D376666
 70
     1
 10
0.0
 20
0.0
 30
0.0
  3
*D376666
  1

  0
LINE
  5
88584
330
8847F
100
AcDbEntity
  8
sk2
100
AcDbLine
 10
3.5
 20
9.5249999989
 30
0.0
 11
-11.5
 21
9.5249999989
 31
0.0
  0
LINE
  5
88585
330
8847F
100
AcDbEntity
  8
sk2
100
AcDbLine
 10
3.5
 20
-9.5249999989
 30
0.0
 11
-11.5
 21
-9.5249999989
 31
0.0
  0
LINE
  5
88586
330
8847F
100
AcDbEntity
  8
sk2
100
AcDbLine
 10
-10.0
 20
6.0249999989
 30
0.0
 11
-10.0
 21
-6.0249999989
 31
0.0
  0
SOLID
  5
88587
330
8847F
100
AcDbEntity
  8
sk2
100
AcDbTrace
 10
-9.416666666666666
 20
6.0249999989
 30
0.0
 11
-10.58333333333333
 21
6.0249999989
 31
0.0
 12
-10.0
 22
9.5249999989
 32
0.0
 13
-10.0
 23
9.5249999989
 33
0.0
  0
SOLID
  5
88588
330
8847F
100
AcDbEntity
  8
sk2
100
AcDbTrace
 10
-10.58333333333333
 20
-6.0249999989
 30
0.0
 11
-9.416666666666666
 21
-6.0249999989
 31
0.0
 12
-10.0
 22
-9.5249999989
 32
0.0
 13
-10.0
 23
-9.5249999989
 33
0.0
  0
MTEXT
  5
88589
330
8847F
100
AcDbEntity
  8
sk2
100
AcDbMText
 10
-14.05
 20
0.0000000000000071
 30
0.0
 40
3.5
 41
0.0
 71
     5
 72
     1
  1
\A1;%%C19.05 [%%c.750"]
  7
simplex
 11
0.0
 21
1.0
 31
0.0
 73
     1
 44
1.0
1001
ACAD
1000
MTEXTBEGIN
1070
    73
1070
     1
1070
    44
1040
1.0
1070
    74
1070
     0
1000
MTEXTEND
  0
POINT
  5
8858A
330
8847F
100
AcDbEntity
  8
Defpoints
 62
     0
100
AcDbPoint
 10
3.5
 20
9.5249999989
 30
0.0
  0
POINT
  5
8858B
330
8847F
100
AcDbEntity
  8
Defpoints
 62
     0
100
AcDbPoint
 10
3.5
 20
-9.5249999989
 30
0.0
  0
POINT
  5
8858C
330
8847F
100
AcDbEntity
  8
Defpoints
 62
     0
100
AcDbPoint
 10
-10.0
 20
-9.5249999989
 30
0.0
  0
ENDBLK
  5
8848A
330
8847F
100
AcDbEntity
  8
0
100
AcDbBlockEnd
  0
BLOCK
  5
88495
330
8848B
100
AcDbEntity
  8
0
100
AcDbBlockBegin
  2
*D387777
 70
     1
 10
0.0
 20
0.0
 30
0.0
  3
*D387777
  1

  0
LINE
  5
88724
330
8848B
100
AcDbEntity
  8
2
100
AcDbLine
 10
0.0
 20
20.72499999999992
 30
0.0
 11
0.0
 21
61.5
 31
0.0
  0
LINE
  5
88725
330
8848B
100
AcDbEntity
  8
2
100
AcDbLine
 10
53.97499999999997
 20
24.59999999879999
 30
0.0
 11
53.97499999999997
 21
61.5
 31
0.0
  0
LINE
  5
88726
330
8848B
100
AcDbEntity
  8
2
100
AcDbLine
 10
3.5
 20
60.0
 30
0.0
 11
50.47499999999997
 21
60.0
 31
0.0
  0
SOLID
  5
88727
330
8848B
100
AcDbEntity
  8
2
100
AcDbTrace
 10
3.5
 20
60.58333333333333
 30
0.0
 11
3.5
 21
59.41666666666666
 31
0.0
 12
0.0
 22
60.0
 32
0.0
 13
0.0
 23
60.0
 33
0.0
  0
SOLID
  5
88728
330
8848B
100
AcDbEntity
  8
2
100
AcDbTrace
 10
50.47499999999997
 20
59.41666666666666
 30
0.0
 11
50.47499999999997
 21
60.58333333333333
 31
0.0
 12
53.97499999999997
 22
60.0
 32
0.0
 13
53.97499999999997
 23
60.0
 33
0.0
  0
MTEXT
  5
88729
330
8848B
100
AcDbEntity
  8
2
100
AcDbMText
 10
26.98749999999999
 20
64.05
 30
0.0
 40
3.5
 41
0.0
 71
     5
 72
     1
  1
\A1;53.975 [2.125"]
  7
simplex
 73
     1
 44
1.0
1001
ACAD
1000
MTEXTBEGIN
1070
    73
1070
     1
1070
    44
1040
1.0
1070
    74
1070
     0
1000
MTEXTEND
  0
POINT
  5
8872A
330
8848B
100
AcDbEntity
  8
Defpoints
 62
     0
100
AcDbPoint
 10
0.0
 20
20.72499999999992
 30
0.0
  0
POINT
  5
8872B
330
8848B
100
AcDbEntity
  8
Defpoints
 62
     0
100
AcDbPoint
 10
53.97499999999997
 20
24.59999999879999
 30
0.0
  0
POINT
  5
8872C
330
8848B
100
AcDbEntity
  8
Defpoints
 62
     0
100
AcDbPoint
 10
53.97499999999997
 20
60.0
 30
0.0
  0
ENDBLK
  5
88496
330
8848B
100
AcDbEntity
  8
0
100
AcDbBlockEnd
  0
BLOCK
  5
884AB
330
884A1
100
AcDbEntity
  8
0
100
AcDbBlockBegin
  2
*D409988
 70
     1
 10
0.0
 20
0.0
 30
0.0
  3
*D409988
  1

  0
LINE
  5
8871A
330
884A1
100
AcDbEntity
  8
2
100
AcDbLine
 10
45.77499999999997
 20
25.39999999879999
 30
0.0
 11
45.77499999999997
 21
51.5
 31
0.0
  0
LINE
  5
8871B
330
884A1
100
AcDbEntity
  8
2
100
AcDbLine
 10
53.97499999999999
 20
24.59999999879999
 30
0.0
 11
53.97499999999999
 21
51.5
 31
0.0
  0
LINE
  5
8871C
330
884A1
100
AcDbEntity
  8
2
100
AcDbLine
 10
57.47499999999998
 20
50.0
 30
0.0
 11
109.9083333333333
 21
50.0
 31
0.0
  0
LINE
  5
8871D
330
884A1
100
AcDbEntity
  8
2
100
AcDbLine
 10
42.27499999999997
 20
50.0
 30
0.0
 11
38.77499999999997
 21
50.0
 31
0.0
  0
SOLID
  5
8871E
330
884A1
100
AcDbEntity
  8
2
100
AcDbTrace
 10
42.27499999999997
 20
49.41666666666666
 30
0.0
 11
42.27499999999997
 21
50.58333333333333
 31
0.0
 12
45.77499999999997
 22
50.0
 32
0.0
 13
45.77499999999997
 23
50.0
 33
0.0
  0
SOLID
  5
8871F
330
884A1
100
AcDbEntity
  8
2
100
AcDbTrace
 10
57.47499999999998
 20
50.58333333333333
 30
0.0
 11
57.47499999999998
 21
49.41666666666666
 31
0.0
 12
53.97499999999999
 22
50.0
 32
0.0
 13
53.97499999999999
 23
50.0
 33
0.0
  0
MTEXT
  5
88720
330
884A1
100
AcDbEntity
  8
2
100
AcDbMText
 10
85.44166666666667
 20
54.05
 30
0.0
 40
3.5
 41
0.0
 71
     5
 72
     1
  1
\A1;8.2 [.323"](MAX)
  7
simplex
 73
     1
 44
1.0
1001
ACAD
1000
MTEXTBEGIN
1070
    73
1070
     1
1070
    44
1040
1.0
1070
    74
1070
     0
1000
MTEXTEND
  0
POINT
  5
88721
330
884A1
100
AcDbEntity
  8
Defpoints
 62
     0
100
AcDbPoint
 10
45.77499999999997
 20
25.39999999879999
 30
0.0
  0
POINT
  5
88722
330
884A1
100
AcDbEntity
  8
Defpoints
 62
     0
100
AcDbPoint
 10
53.97499999999999
 20
24.59999999879999
 30
0.0
  0
POINT
  5
88723
330
884A1
100
AcDbEntity
  8
Defpoints
 62
     0
100
AcDbPoint
 10
53.97499999999999
 20
50.0
 30
0.0
  0
ENDBLK
  5
884AC
330
884A1
100
AcDbEntity
  8
0
100
AcDbBlockEnd
  0
BLOCK
  5
884B6
330
884AD
100
AcDbEntity
  8
0
100
AcDbBlockBegin
  2
*D41101099
 70
     1
 10
0.0
 20
0.0
 30
0.0
  3
*D41101099
  1

  0
LINE
  5
885A7
330
884AD
100
AcDbEntity
  8
2
100
AcDbLine
 10
53.17499999999999
 20
25.39999999879999
 30
0.0
 11
71.5
 21
25.39999999879999
 31
0.0
  0
LINE
  5
885A8
330
884AD
100
AcDbEntity
  8
2
100
AcDbLine
 10
70.0
 20
21.89999999879999
 30
0.0
 11
70.0
 21
-25.39999999879999
 31
0.0
  0
SOLID
  5
885A9
330
884AD
100
AcDbEntity
  8
2
100
AcDbTrace
 10
70.58333333333333
 20
21.89999999879999
 30
0.0
 11
69.41666666666667
 21
21.89999999879999
 31
0.0
 12
70.0
 22
25.39999999879999
 32
0.0
 13
70.0
 23
25.39999999879999
 33
0.0
  0
INSERT
  5
885AA
330
884AD
100
AcDbEntity
  8
2
100
AcDbBlockReference
  2
_None
 10
70.0
 20
-25.39999999879999
 30
0.0
 41
3.5
 42
3.5
 43
3.5
 50
270.0
  0
MTEXT
  5
885AB
330
884AD
100
AcDbEntity
  8
2
100
AcDbMText
 10
65.95
 20
-1.75
 30
0.0
 40
3.5
 41
0.0
 71
     5
 72
     1
  1
\A1;%%C50.8 [%%c2.000"]
  7
simplex
 11
0.0
 21
1.0
 31
0.0
 73
     1
 44
1.0
1001
ACAD
1000
MTEXTBEGIN
1070
    73
1070
     1
1070
    44
1040
1.0
1070
    74
1070
     0
1000
MTEXTEND
  0
POINT
  5
885AC
330
884AD
100
AcDbEntity
  8
Defpoints
 62
     0
100
AcDbPoint
 10
53.17499999999999
 20
25.39999999879999
 30
0.0
  0
POINT
  5
885AD
330
884AD
100
AcDbEntity
  8
Defpoints
 62
     0
100
AcDbPoint
 10
53.17499999999999
 20
-25.39999999879999
 30
0.0
  0
POINT
  5
885AE
330
884AD
100
AcDbEntity
  8
Defpoints
 62
     0
100
AcDbPoint
 10
70.0
 20
-25.39999999879999
 30
0.0
  0
ENDBLK
  5
884B7
330
884AD
100
AcDbEntity
  8
0
100
AcDbBlockEnd
  0
BLOCK
  5
8868B
330
88683
100
AcDbEntity
  8
0
100
AcDbBlockBegin
  2
*D131010
 70
     1
 10
0.0
 20
0.0
 30
0.0
  3
*D131010
  1

  0
LINE
  5
886A9
330
88683
100
AcDbEntity
  8
2
100
AcDbLine
 10
97.30124607508344
 20
38.39838825367573
 30
0.0
 11
57.2790272124627
 21
25.88333964182738
 31
0.0
  0
MTEXT
  5
886AA
330
88683
100
AcDbEntity
  8
2
100
AcDbMText
 10
77.75165340366815
 20
36.52857431653571
 30
0.0
 40
3.5
 41
0.0
 71
     5
 72
     1
  1
\A1;R0.8 [R.031"]
  7
simplex
 11
0.9544249331308607
 21
0.2984510797738082
 31
0.0
 73
     1
 44
1.0
1001
ACAD
1000
MTEXTBEGIN
1070
    73
1070
     1
1070
    44
1040
1.0
1070
    74
1070
     0
1000
MTEXTEND
  0
SOLID
  5
886AB
330
88683
100
AcDbEntity
  8
2
100
AcDbTrace
 10
57.10493074926129
 20
26.44008751948705
 30
0.0
 11
57.45312367566407
 21
25.32659176416772
 31
0.0
 12
53.93853994650466
 22
24.83876086261905
 32
0.0
 13
53.93853994650466
 23
24.83876086261905
 33
0.0
  0
LINE
  5
886AC
330
88683
100
AcDbEntity
  8
2
100
AcDbLine
 10
53.08499999999998
 20
24.59999999880001
 30
0.0
 11
53.26499999999999
 21
24.59999999880001
 31
0.0
  0
LINE
  5
886AD
330
88683
100
AcDbEntity
  8
2
100
AcDbLine
 10
53.17499999999999
 20
24.5099999988
 30
0.0
 11
53.17499999999999
 21
24.68999999880001
 31
0.0
  0
POINT
  5
886AE
330
88683
100
AcDbEntity
  8
Defpoints
 62
     0
100
AcDbPoint
 10
53.93853994650466
 20
24.83876086261905
 30
0.0
  0
POINT
  5
886AF
330
88683
100
AcDbEntity
  8
Defpoints
 62
     0
100
AcDbPoint
 10
53.17499999999999
 20
24.59999999880001
 30
0.0
  0
ENDBLK
  5
8868C
330
88683
100
AcDbEntity
  8
0
100
AcDbBlockEnd
  0
ENDSEC
  0
SECTION
  2
ENTITIES
  0
INSERT
  5
4A793
330
1F
100
AcDbEntity
  8
0
100
AcDbBlockReference
  2
zero block
 10
0.0
 20
0.0
 30
0.0
 50
180.0
  0
MTEXT
  5
882D2
330
1F
100
AcDbEntity
  8
sk6
100
AcDbMText
 10
-2.107214901651474
 20
80.13516066507133
 30
0.0
 40
3.5
 41
50.575
 71
     1
 72
     1
  1
WWX400UR2_0004AA
 73
     1
 44
0.9
1001
ACAD
1000
MTEXTBEGIN
1070
    73
1070
     1
1070
    44
1040
0.9
1070
    74
1070
     0
1000
MTEXTEND
1000
ACAD_MTEXT_DEFINED_HEIGHT_BEGIN
1070
    46
1040
3.48901801050149
1000
ACAD_MTEXT_DEFINED_HEIGHT_END
  0
LINE
  5
882D4
330
1F
100
AcDbEntity
  8
4
100
AcDbLine
 10
56.82126537683846
 20
0.0
 30
0.0
 11
-2.907861614760518
 21
0.0
 31
0.0
  0
LINE
  5
882D5
330
1F
100
AcDbEntity
  8
nocut
100
AcDbLine
 10
52.18679557699999
 20
0.0
 30
0.0
 11
0.0
 21
0.0
 31
0.0
  0
LINE
  5
882D6
330
1F
100
AcDbEntity
  8
cut
100
AcDbLine
 10
42.90734271959997
 20
24.3273994894
 30
0.0
 11
43.12312841679999
 21
24.42840626280001
 31
0.0
  0
LINE
  5
882D7
330
1F
100
AcDbEntity
  8
cut
100
AcDbLine
 10
42.37376227049998
 20
24.08036518169998
 30
0.0
 11
42.90734271959997
 21
24.3273994894
 31
0.0
  0
LWPOLYLINE
  5
882D8
330
1F
100
AcDbEntity
  8
cut
100
AcDbPolyline
 90
        7
 70
     0
 43
0.0
 10
39.16755536990002
 20
22.65460644230001
 10
39.29939983460002
 20
22.7157931194
 10
39.30663194459999
 20
22.71907502509998
 10
39.31392813459999
 20
22.72234426739999
 10
39.3212884047
 20
22.72560084609998
 10
39.3287127548
 20
22.72884476129997
 10
39.336201185
 20
22.73207601309997
  0
LINE
  5
882D9
330
1F
100
AcDbEntity
  8
cut
100
AcDbLine
 10
41.84425389560003
 20
23.8383102791
 30
0.0
 11
42.37376227049998
 21
24.08036518169998
 31
0.0
  0
LWPOLYLINE
  5
882DA
330
1F
100
AcDbEntity
  8
cut
100
AcDbPolyline
 90
        3
 70
     0
 43
0.0
 10
39.72511306550013
 20
22.89369837449996
 10
39.75691971380001
 20
22.90798638239997
 10
39.91507823080002
 20
22.98005510439998
  0
LINE
  5
882DB
330
1F
100
AcDbEntity
  8
cut
100
AcDbLine
 10
41.33262702499999
 20
23.60729452019996
 30
0.0
 11
41.84425389560003
 21
23.8383102791
 31
0.0
  0
LINE
  5
882DC
330
1F
100
AcDbEntity
  8
cut
100
AcDbLine
 10
39.91507823080002
 20
22.98005510439998
 30
0.0
 11
39.97839202750001
 21
23.0085466967
 31
0.0
  0
LINE
  5
882DD
330
1F
100
AcDbEntity
  8
cut
100
AcDbLine
 10
40.8091889687
 20
23.37384098299998
 30
0.0
 11
41.33262702499999
 21
23.60729452019996
 31
0.0
  0
LINE
  5
882DE
330
1F
100
AcDbEntity
  8
cut
100
AcDbLine
 10
39.97839202750001
 20
23.0085466967
 30
0.0
 11
40.04194750589999
 21
23.03673477739997
 31
0.0
  0
LINE
  5
882DF
330
1F
100
AcDbEntity
  8
cut
100
AcDbLine
 10
40.28192162749997
 20
23.1415642796
 30
0.0
 11
40.8091889687
 21
23.37384098299998
 31
0.0
  0
LINE
  5
882E0
330
1F
100
AcDbEntity
  8
cut
100
AcDbLine
 10
40.04194750589999
 20
23.03673477739997
 30
0.0
 11
40.28192162749997
 21
23.1415642796
 31
0.0
  0
LWPOLYLINE
  5
882E1
330
1F
100
AcDbEntity
  8
cut
100
AcDbPolyline
 90
        3
 70
     0
 43
0.0
 10
39.33619984100005
 20
22.73207543590002
 10
39.40121841120009
 20
22.75881121039998
 10
39.43378815740004
 20
22.77204570679996
  0
LWPOLYLINE
  5
882E2
330
1F
100
AcDbEntity
  8
cut
100
AcDbPolyline
 90
        8
 70
     0
 43
0.0
 10
39.43378815740004
 20
22.77204570679996
 10
39.4991287254
 20
22.79809650989998
 10
39.5317392407
 20
22.81121563309998
 10
39.56424347690012
 20
22.82453339029999
 10
39.59666779049999
 20
22.83798933269998
 10
39.62897102220001
 20
22.85162922570001
 10
39.66113537860002
 20
22.86549107229999
 10
39.72511306550013
 20
22.89369837449996
  0
LINE
  5
882E3
330
1F
100
AcDbEntity
  8
cut
100
AcDbLine
 10
38.1720911532
 20
22.17459921489998
 30
0.0
 11
38.19439526920002
 21
22.18695751619999
 31
0.0
  0
LINE
  5
882E4
330
1F
100
AcDbEntity
  8
cut
100
AcDbLine
 10
44.3652308492
 20
25.04316936359996
 30
0.0
 11
44.6183866780001
 21
25.17412957899998
 31
0.0
  0
LINE
  5
882E5
330
1F
100
AcDbEntity
  8
cut
100
AcDbLine
 10
38.19315485969998
 20
22.18634720149998
 30
0.0
 11
38.21444460180001
 21
22.19725776599998
 31
0.0
  0
LINE
  5
882E6
330
1F
100
AcDbEntity
  8
cut
100
AcDbLine
 10
44.15290406540001
 20
24.9346108057
 30
0.0
 11
44.3652308492
 21
25.04316936359996
 31
0.0
  0
LINE
  5
882E7
330
1F
100
AcDbEntity
  8
cut
100
AcDbLine
 10
43.92504208029999
 20
24.81952816719996
 30
0.0
 11
44.15290406540001
 21
24.9346108057
 31
0.0
  0
LINE
  5
882E8
330
1F
100
AcDbEntity
  8
cut
100
AcDbLine
 10
43.73426642330002
 20
24.72438105829998
 30
0.0
 11
43.92504208029999
 21
24.81952816719996
 31
0.0
  0
LWPOLYLINE
  5
882E9
330
1F
100
AcDbEntity
  8
cut
100
AcDbPolyline
 90
        9
 70
     0
 43
0.0
 10
38.2144445232
 20
22.19725772709999
 10
38.3292768509
 20
22.25384543359997
 10
38.44533957260009
 20
22.3106007269
 10
38.56263268819999
 20
22.3675236069
 10
38.68115611810001
 20
22.424617098
 10
38.80090994200001
 20
22.4818781759
 10
38.92189439870011
 20
22.53929776729998
 10
39.04410956790002
 20
22.596872848
 10
39.16755536990002
 20
22.65460644230001
  0
LINE
  5
882EA
330
1F
100
AcDbEntity
  8
cut
100
AcDbLine
 10
43.54141661470001
 20
24.62944529640001
 30
0.0
 11
43.73426642330002
 21
24.72438105829998
 31
0.0
  0
LINE
  5
882EB
330
1F
100
AcDbEntity
  8
cut
100
AcDbLine
 10
43.35104895509998
 20
24.53706842279999
 30
0.0
 11
43.54141661470001
 21
24.62944529640001
 31
0.0
  0
LINE
  5
882EC
330
1F
100
AcDbEntity
  8
cut
100
AcDbLine
 10
43.2125792736
 20
24.47077993550002
 30
0.0
 11
43.35104895509998
 21
24.53706842279999
 31
0.0
  0
LINE
  5
882ED
330
1F
100
AcDbEntity
  8
cut
100
AcDbLine
 10
43.12312841679999
 20
24.42840626280001
 30
0.0
 11
43.2125792736
 21
24.47077993550002
 31
0.0
  0
LWPOLYLINE
  5
882EE
330
1F
100
AcDbEntity
  8
cut
100
AcDbPolyline
 90
        8
 70
     0
 43
0.0
 10
38.04999371000003
 20
22.08548579140002
 10
38.06633481310001
 20
22.0998535903
 10
38.08319524539999
 20
22.11377950840001
 10
38.10056886170002
 20
22.12724826009997
 10
38.1184448004
 20
22.14024227549999
 10
38.13679333420001
 20
22.15273484769998
 10
38.1555800189
 20
22.1646969858
 10
38.1747785611
 20
22.17610513910002
  0
LWPOLYLINE
  5
882EF
330
1F
100
AcDbEntity
  8
cut
100
AcDbPolyline
 90
        8
 70
     0
 43
0.0
 10
38.0341763432
 20
22.07068851229999
 10
38.05205001100001
 20
22.08730877029998
 10
38.07078470970001
 20
22.10359331570002
 10
38.09009668299996
 20
22.11923304659999
 10
38.1100220879
 20
22.13420231689998
 10
38.13052476729999
 20
22.14852677259998
 10
38.15125348229998
 20
22.16201380609996
 10
38.1720911532
 20
22.17459921489998
  0
LINE
  5
882F0
330
1F
100
AcDbEntity
  8
cut
100
AcDbLine
 10
47.5261524231
 20
10.92333321919997
 30
0.0
 11
47.3789012039
 21
10.98176511149999
 31
0.0
  0
LINE
  5
882F1
330
1F
100
AcDbEntity
  8
cut
100
AcDbLine
 10
47.3789012039
 20
10.98176511149999
 30
0.0
 11
47.36349551359999
 21
10.98799245399997
 31
0.0
  0
LINE
  5
882F2
330
1F
100
AcDbEntity
  8
cut
100
AcDbLine
 10
47.36349551359999
 20
10.98799245399997
 30
0.0
 11
47.34830724829999
 21
10.99425724609997
 31
0.0
  0
LINE
  5
882F3
330
1F
100
AcDbEntity
  8
nocut
100
AcDbLine
 10
10.25847854240001
 20
22.17942325789997
 30
0.0
 11
13.9480915368
 21
21.52884493859998
 31
0.0
  0
LINE
  5
882F4
330
1F
100
AcDbEntity
  8
cut
100
AcDbLine
 10
47.34830724829999
 20
10.99425724609997
 30
0.0
 11
47.08440344889999
 21
11.10462735089999
 31
0.0
  0
LINE
  5
882F5
330
1F
100
AcDbEntity
  8
cut
100
AcDbLine
 10
47.08440344889999
 20
11.10462735089999
 30
0.0
 11
46.81829537929999
 21
11.2167302632
 31
0.0
  0
LINE
  5
882F6
330
1F
100
AcDbEntity
  8
cut
100
AcDbLine
 10
46.81829537929999
 20
11.2167302632
 30
0.0
 11
46.5499897271001
 21
11.33057644959999
 31
0.0
  0
LINE
  5
882F7
330
1F
100
AcDbEntity
  8
cut
100
AcDbLine
 10
46.5499897271001
 20
11.33057644959999
 30
0.0
 11
46.29967979929999
 21
11.43753223489998
 31
0.0
  0
LINE
  5
882F8
330
1F
100
AcDbEntity
  8
cut
100
AcDbLine
 10
46.29967979929999
 20
11.43753223489998
 30
0.0
 11
46.05003270830002
 21
11.54491153719997
 31
0.0
  0
LINE
  5
882F9
330
1F
100
AcDbEntity
  8
cut
100
AcDbLine
 10
46.05003270830002
 20
11.54491153719997
 30
0.0
 11
45.7997857367
 21
11.65322355269996
 31
0.0
  0
LINE
  5
882FA
330
1F
100
AcDbEntity
  8
cut
100
AcDbLine
 10
45.7997857367
 20
11.65322355269996
 30
0.0
 11
45.55002339269996
 21
11.76196381709999
 31
0.0
  0
LINE
  5
882FB
330
1F
100
AcDbEntity
  8
cut
100
AcDbLine
 10
45.55002339269996
 20
11.76196381709999
 30
0.0
 11
45.30460924679996
 21
11.86942529819999
 31
0.0
  0
LINE
  5
882FC
330
1F
100
AcDbEntity
  8
cut
100
AcDbLine
 10
45.30460924679996
 20
11.86942529819999
 30
0.0
 11
45.06311457330006
 21
11.97580189059997
 31
0.0
  0
LINE
  5
882FD
330
1F
100
AcDbEntity
  8
cut
100
AcDbLine
 10
45.06311457330006
 20
11.97580189059997
 30
0.0
 11
44.82242103319999
 21
12.08249644239999
 31
0.0
  0
LINE
  5
882FE
330
1F
100
AcDbEntity
  8
cut
100
AcDbLine
 10
44.82242103319999
 20
12.08249644239999
 30
0.0
 11
44.52394247350002
 21
12.21567603519998
 31
0.0
  0
LINE
  5
882FF
330
1F
100
AcDbEntity
  8
cut
100
AcDbLine
 10
44.52394247350002
 20
12.21567603519998
 30
0.0
 11
44.19436313109994
 21
12.36359175649998
 31
0.0
  0
LINE
  5
88300
330
1F
100
AcDbEntity
  8
cut
100
AcDbLine
 10
44.19436313109994
 20
12.36359175649998
 30
0.0
 11
43.95041695530003
 21
12.47380473389999
 31
0.0
  0
LINE
  5
88301
330
1F
100
AcDbEntity
  8
cut
100
AcDbLine
 10
43.95041695530003
 20
12.47380473389999
 30
0.0
 11
43.58478110679999
 21
12.64011036369999
 31
0.0
  0
LINE
  5
88302
330
1F
100
AcDbEntity
  8
cut
100
AcDbLine
 10
43.58478110679999
 20
12.64011036369999
 30
0.0
 11
43.49489866659996
 21
12.6812623962
 31
0.0
  0
LWPOLYLINE
  5
88303
330
1F
100
AcDbEntity
  8
cut
100
AcDbPolyline
 90
        8
 70
     0
 43
0.0
 10
48.40095802940004
 20
10.54572211619999
 10
48.28305863620002
 20
10.5998821042
 10
48.16083000979996
 20
10.65489029169999
 10
48.0370276524
 20
10.7095009396
 10
47.9116539477
 20
10.76369288410002
 10
47.78471604669999
 20
10.81740263349999
 10
47.656216333
 20
10.87060902389999
 10
47.5261524231
 20
10.92333321919997
  0
LINE
  5
88304
330
1F
100
AcDbEntity
  8
cut
100
AcDbLine
 10
43.49489866659996
 20
12.6812623962
 30
0.0
 11
43.40470433909994
 21
12.72307273929996
 31
0.0
  0
LINE
  5
88305
330
1F
100
AcDbEntity
  8
cut
100
AcDbLine
 10
48.5228018471
 20
10.48860961910001
 30
0.0
 11
48.40095802940004
 21
10.54572211619999
 31
0.0
  0
LINE
  5
88306
330
1F
100
AcDbEntity
  8
cut
100
AcDbLine
 10
43.40470433909994
 20
12.72307273929996
 30
0.0
 11
43.31269831720002
 21
12.76649357259999
 31
0.0
  0
LINE
  5
88307
330
1F
100
AcDbEntity
  8
cut
100
AcDbLine
 10
43.31269831720002
 20
12.76649357259999
 30
0.0
 11
43.21846038789998
 21
12.81183874719998
 31
0.0
  0
LINE
  5
88308
330
1F
100
AcDbEntity
  8
cut
100
AcDbLine
 10
43.21846038789998
 20
12.81183874719998
 30
0.0
 11
43.12198527760003
 21
12.85923006209999
 31
0.0
  0
LINE
  5
88309
330
1F
100
AcDbEntity
  8
cut
100
AcDbLine
 10
43.12198527760003
 20
12.85923006209999
 30
0.0
 11
43.02400076569995
 21
12.90829944649997
 31
0.0
  0
LINE
  5
8830A
330
1F
100
AcDbEntity
  8
cut
100
AcDbLine
 10
43.02400076569995
 20
12.90829944649997
 30
0.0
 11
42.9249467105
 21
12.95882152789998
 31
0.0
  0
LINE
  5
8830B
330
1F
100
AcDbEntity
  8
cut
100
AcDbLine
 10
42.9249467105
 20
12.95882152789998
 30
0.0
 11
42.82555952260003
 21
13.0103973119
 31
0.0
  0
LINE
  5
8830C
330
1F
100
AcDbEntity
  8
cut
100
AcDbLine
 10
42.82555952260003
 20
13.0103973119
 30
0.0
 11
42.72651327720001
 21
13.06264785099998
 31
0.0
  0
LINE
  5
8830D
330
1F
100
AcDbEntity
  8
cut
100
AcDbLine
 10
42.72651327720001
 20
13.06264785099998
 30
0.0
 11
42.62824022659997
 21
13.115325123
 31
0.0
  0
LINE
  5
8830E
330
1F
100
AcDbEntity
  8
cut
100
AcDbLine
 10
42.62824022659997
 20
13.115325123
 30
0.0
 11
42.53133137699999
 21
13.16808415570001
 31
0.0
  0
LINE
  5
8830F
330
1F
100
AcDbEntity
  8
cut
100
AcDbLine
 10
42.53133137699999
 20
13.16808415570001
 30
0.0
 11
42.43656070010001
 21
13.22044663660001
 31
0.0
  0
LINE
  5
88310
330
1F
100
AcDbEntity
  8
cut
100
AcDbLine
 10
42.43656070010001
 20
13.22044663660001
 30
0.0
 11
42.34432961809999
 21
13.27214874509997
 31
0.0
  0
LINE
  5
88311
330
1F
100
AcDbEntity
  8
cut
100
AcDbLine
 10
42.34432961809999
 20
13.27214874509997
 30
0.0
 11
42.25533725849999
 21
13.32271936559997
 31
0.0
  0
LWPOLYLINE
  5
88312
330
1F
100
AcDbEntity
  8
cut
100
AcDbPolyline
 90
        3
 70
     0
 43
0.0
 10
42.25533725849999
 20
13.32271936559997
 10
42.16877478459998
 20
13.3725416319
 10
42.12633437619999
 20
13.39720258829999
  0
LWPOLYLINE
  5
88313
330
1F
100
AcDbEntity
  8
cut
100
AcDbPolyline
 90
       19
 70
     0
 43
0.0
 10
37.84175959670003
 20
21.72509704809997
 10
37.84697664750002
 20
21.7479199462
 10
37.85286089190001
 20
21.76997767320001
 10
37.85936203060001
 20
21.79149748759997
 10
37.86644897159999
 20
21.81239527379998
 10
37.874152807
 20
21.8327551475
 10
37.88244264080001
 20
21.85270551369999
 10
37.8912925857
 20
21.87224464689998
 10
37.90072852900003
 20
21.89137427259999
 10
37.91079723670001
 20
21.91022797179997
 10
37.92147861819996
 20
21.92881825050001
 10
37.93279276409999
 20
21.9471326028
 10
37.94484671220005
 20
21.96526709199998
 10
37.9576311404
 20
21.98324781609998
 10
37.97115537080001
 20
22.00104867709999
 10
37.98555440709999
 20
22.01868744469997
 10
38.00089150489998
 20
22.03624110039997
 10
38.01710340860001
 20
22.05363266269996
 10
38.03413535459998
 20
22.07064895599998
  0
LWPOLYLINE
  5
88314
330
1F
100
AcDbEntity
  8
cut
100
AcDbPolyline
 90
       18
 70
     0
 43
0.0
 10
37.84636130269999
 20
21.74540508079997
 10
37.85160759030004
 20
21.76557764640001
 10
37.85749985130003
 20
21.78561283689999
 10
37.86403295870002
 20
21.80548578969998
 10
37.87120015620003
 20
21.8251659037
 10
37.87899343800012
 20
21.84462350379996
 10
37.8873998011
 20
21.86383262079997
 10
37.89640499260003
 20
21.88276821149999
 10
37.90599850860003
 20
21.90141129399998
 10
37.91618484030002
 20
21.91976712949998
 10
37.92697222710009
 20
21.93784704050001
 10
37.93836606880001
 20
21.95565613879999
 10
37.95036040549999
 20
21.97317469549998
 10
37.96294643740001
 20
21.99037677099997
 10
37.97611292760001
 20
22.00723573509999
 10
37.98983889120009
 20
22.02372219429998
 10
38.0041009066
 20
22.0398060641
 10
38.0188801692001
 20
22.05546261199996
  0
LINE
  5
88315
330
1F
100
AcDbEntity
  8
nocut
100
AcDbLine
 10
22.59743599220002
 20
21.90648347309997
 30
0.0
 11
31.78722890500001
 21
24.36888106269996
 31
0.0
  0
LINE
  5
88316
330
1F
100
AcDbEntity
  8
nocut
100
AcDbLine
 10
1.5
 20
22.22499999879999
 30
0.0
 11
9.737534009400008
 21
22.22499999879999
 31
0.0
  0
LINE
  5
88317
330
1F
100
AcDbEntity
  8
cut
100
AcDbLine
 10
42.12633437619999
 20
13.39720258829999
 30
0.0
 11
42.04188938229996
 21
13.44670589699996
 31
0.0
  0
LINE
  5
88318
330
1F
100
AcDbEntity
  8
cut
100
AcDbLine
 10
42.04188938229996
 20
13.44670589699996
 30
0.0
 11
41.95760477190001
 21
13.49670182910001
 31
0.0
  0
LWPOLYLINE
  5
88319
330
1F
100
AcDbEntity
  8
cut
100
AcDbPolyline
 90
        3
 70
     0
 43
0.0
 10
41.95760477190001
 20
13.49670182910001
 10
41.87193952510003
 20
13.54810759899997
 10
41.8286937428
 20
13.57427732559998
  0
LWPOLYLINE
  5
8831A
330
1F
100
AcDbEntity
  8
cut
100
AcDbPolyline
 90
       25
 70
     0
 43
0.0
 10
41.82869376889999
 20
13.57427730979999
 10
41.79934677290001
 20
13.59261457539998
 10
41.77061960440002
 20
13.61147961410001
 10
41.7425122634
 20
13.630872426
 10
41.71503412170003
 20
13.65079310369999
 10
41.68817580749996
 20
13.67124155449998
 10
41.66190920529999
 20
13.69221750009999
 10
41.63620999459999
 20
13.7137092809
 10
41.611102496
 20
13.73572855649997
 10
41.586631555
 20
13.75831002709998
 10
41.5627962853
 20
13.78145879569999
 10
41.53959757319995
 20
13.80516975939998
 10
41.51708292310002
 20
13.82946231
 10
41.49526052739997
 20
13.85436232489997
 10
41.4741221936
 20
13.87984392679997
 10
41.45369084909996
 20
13.90584887570001
 10
41.4339782646
 20
13.93238242939998
 10
41.4149726694
 20
13.95943933009997
 10
41.39666167829999
 20
13.98694556419998
 10
41.37904391429997
 20
14.01489882239998
 10
41.36212075449996
 20
14.0433014141
 10
41.34588394449997
 20
14.07208625409999
 10
41.33033073269999
 20
14.10123098069998
 10
41.31546387060001
 20
14.1307579557
 10
41.30128335819998
 20
14.16066717899998
  0
LWPOLYLINE
  5
8831B
330
1F
100
AcDbEntity
  8
cut
100
AcDbPolyline
 90
        5
 70
     0
 43
0.0
 10
37.8312927663
 20
21.51568320929996
 10
37.82923477020001
 20
21.53852226320001
 10
37.8279787555
 20
21.56155836689999
 10
37.82752472209995
 20
21.58479152029997
 10
37.82752370270001
 20
21.58742109369999
  0
LWPOLYLINE
  5
8831C
330
1F
100
AcDbEntity
  8
cut
100
AcDbPolyline
 90
        7
 70
     0
 43
0.0
 10
37.82751964170001
 20
21.5874210998
 10
37.8276468345
 20
21.60056644769998
 10
37.82838117110001
 20
21.6215873596
 10
37.82976652830001
 20
21.64251703969998
 10
37.83180016120002
 20
21.6633465525
 10
37.83447889589999
 20
21.68406234669999
 10
37.83779945139997
 20
21.70464971719997
  0
LWPOLYLINE
  5
8831D
330
1F
100
AcDbEntity
  8
cut
100
AcDbPolyline
 90
        7
 70
     0
 43
0.0
 10
37.82752370270001
 20
21.58742109369999
 10
37.82786558350004
 20
21.60832839879998
 10
37.82900842630005
 20
21.63206232699998
 10
37.83097451040001
 20
21.65567327879998
 10
37.8337983138
 20
21.67915157659999
 10
37.83744535850002
 20
21.70250689789998
 10
37.84183346999999
 20
21.7254482491
  0
LINE
  5
8831E
330
1F
100
AcDbEntity
  8
nocut
100
AcDbLine
 10
32.14927886299999
 20
24.41976386599999
 30
0.0
 11
42.45754892269996
 21
24.59969538919998
 31
0.0
  0
LINE
  5
8831F
330
1F
100
AcDbEntity
  8
nocut
100
AcDbLine
 10
42.49245373549999
 20
24.59999999879999
 30
0.0
 11
46.186795577
 21
24.59999999879999
 31
0.0
  0
LWPOLYLINE
  5
88320
330
1F
100
AcDbEntity
  8
cut
100
AcDbPolyline
 90
       28
 70
     0
 43
0.0
 10
49.38479050859999
 20
10.52308588479999
 10
49.3577473781
 20
10.50772219659999
 10
49.32987307889999
 20
10.49327036419998
 10
49.3011676112
 20
10.47973038769996
 10
49.2715397684
 20
10.4670493887
 10
49.24108075690003
 20
10.45528024559997
 10
49.21006419610001
 20
10.44458159299999
 10
49.17853396970002
 20
10.4349819659
 10
49.1464461939
 20
10.42645282929997
 10
49.11394283699997
 20
10.41906721329997
 10
49.08101196620004
 20
10.41282734379997
 10
49.04766551440002
 20
10.40773099489997
 10
49.01408124760002
 20
10.40384451859996
 10
48.98023125990002
 20
10.4011826482
 10
48.94614345719997
 20
10.39973065050001
 10
48.91207932380002
 20
10.39951067759997
 10
48.8780643667
 20
10.400542466
 10
48.84407307889995
 20
10.40280627929997
 10
48.81029042429997
 20
10.40626506090002
 10
48.77672887280003
 20
10.41092420340002
 10
48.74337595450001
 20
10.41677831419998
 10
48.71037922389999
 20
10.42377415929996
 10
48.67769053440003
 20
10.43193138519996
 10
48.64535803249999
 20
10.44123034539996
 10
48.61367371280003
 20
10.45155886649997
 10
48.58273490690002
 20
10.46287955739998
 10
48.55244428319998
 20
10.47522980899999
 10
48.52280184170002
 20
10.4886096216
  0
LINE
  5
88321
330
1F
100
AcDbEntity
  8
cut
100
AcDbLine
 10
45.54167657439998
 20
25.39999999879999
 30
0.0
 11
53.17499999999999
 21
25.39999999879999
 31
0.0
  0
LWPOLYLINE
  5
88322
330
1F
100
AcDbEntity
  8
cut
100
AcDbPolyline
 90
       13
 70
     0
 43
0.0
 10
37.91601181659999
 20
21.2443586417
 10
37.90462534630001
 20
21.26646217229999
 10
37.89402483459998
 20
21.28870860480001
 10
37.88421028159999
 20
21.31109793929997
 10
37.87518026750002
 20
21.33366067890001
 10
37.86693621199999
 20
21.35636632050001
 10
37.85948237489999
 20
21.37912335419998
 10
37.85282275730003
 20
21.4019338137
 10
37.84695335810005
 20
21.4247956653
 10
37.84186643299998
 20
21.4476112985
 10
37.83755940080005
 20
21.4703481766
 10
37.83403484280004
 20
21.49303883629998
 10
37.83129275909999
 20
21.51568327769997
  0
LINE
  5
88323
330
1F
100
AcDbEntity
  8
cut
100
AcDbLine
 10
38.8119609286
 20
19.43151818079997
 30
0.0
 11
38.5028020581
 21
20.06384603329997
 31
0.0
  0
LINE
  5
88324
330
1F
100
AcDbEntity
  8
cut
100
AcDbLine
 10
39.04269725999995
 20
18.9569846782
 30
0.0
 11
38.8119609286
 21
19.43151818079997
 31
0.0
  0
LINE
  5
88325
330
1F
100
AcDbEntity
  8
cut
100
AcDbLine
 10
38.5028020581
 20
20.06384603320002
 30
0.0
 11
38.4951242817
 21
20.07966473699998
 31
0.0
  0
LINE
  5
88326
330
1F
100
AcDbEntity
  8
cut
100
AcDbLine
 10
39.2725100532
 20
18.4818837371
 30
0.0
 11
39.04269725999995
 21
18.9569846782
 31
0.0
  0
LINE
  5
88327
330
1F
100
AcDbEntity
  8
cut
100
AcDbLine
 10
39.50142558679999
 20
18.00604822759997
 30
0.0
 11
39.2725100532
 21
18.4818837371
 31
0.0
  0
LINE
  5
88328
330
1F
100
AcDbEntity
  8
cut
100
AcDbLine
 10
39.7294753731
 20
17.52937241759997
 30
0.0
 11
39.50142558679999
 21
18.00604822759997
 31
0.0
  0
LINE
  5
88329
330
1F
100
AcDbEntity
  8
cut
100
AcDbLine
 10
39.95662540440008
 20
17.05189385189999
 30
0.0
 11
39.7294753731
 21
17.52937241759997
 31
0.0
  0
LINE
  5
8832A
330
1F
100
AcDbEntity
  8
cut
100
AcDbLine
 10
38.4951242817
 20
20.07966473699998
 30
0.0
 11
38.48747656350003
 21
20.09574348849998
 31
0.0
  0
LWPOLYLINE
  5
8832B
330
1F
100
AcDbEntity
  8
cut
100
AcDbPolyline
 90
        9
 70
     0
 43
0.0
 10
38.42441603670002
 20
20.23140501809997
 10
38.36720413780012
 20
20.35237075480001
 10
38.30822321229999
 20
20.47497948500001
 10
38.2475168272
 20
20.59925995169999
 10
38.18504141560001
 20
20.72518341189999
 10
38.12066627719998
 20
20.8526636371
 10
38.054347845
 20
20.9816718841
 10
37.98612968589998
 20
21.11223689609998
 10
37.91601179990002
 20
21.24435867289998
  0
LINE
  5
8832C
330
1F
100
AcDbEntity
  8
cut
100
AcDbLine
 10
40.1827969448
 20
16.57366697469997
 30
0.0
 11
39.95662540440008
 21
17.05189385189999
 31
0.0
  0
LINE
  5
8832D
330
1F
100
AcDbEntity
  8
cut
100
AcDbLine
 10
40.59535829769996
 20
15.69332888719999
 30
0.0
 11
40.1827969448
 21
16.57366697469997
 31
0.0
  0
LINE
  5
8832E
330
1F
100
AcDbEntity
  8
cut
100
AcDbLine
 10
38.48747656350003
 20
20.09574348849998
 30
0.0
 11
38.42441603670002
 21
20.23140501809997
 31
0.0
  0
LINE
  5
8832F
330
1F
100
AcDbEntity
  8
cut
100
AcDbLine
 10
40.95450881799999
 20
14.91812405369999
 30
0.0
 11
40.59535829769996
 21
15.69332888719999
 31
0.0
  0
LINE
  5
88330
330
1F
100
AcDbEntity
  8
cut
100
AcDbLine
 10
41.3012834343
 20
14.1606670139
 30
0.0
 11
40.95450881799999
 21
14.91812405369999
 31
0.0
  0
LINE
  5
88331
330
1F
100
AcDbEntity
  8
cut
100
AcDbLine
 10
52.89965254880002
 20
15.14984994719999
 30
0.0
 11
52.79063255670002
 21
14.98772969719997
 31
0.0
  0
LINE
  5
88332
330
1F
100
AcDbEntity
  8
cut
100
AcDbLine
 10
52.79063255670002
 20
14.98772969719997
 30
0.0
 11
52.68104148669999
 21
14.8257102746
 31
0.0
  0
LINE
  5
88333
330
1F
100
AcDbEntity
  8
cut
100
AcDbLine
 10
52.68104148669999
 20
14.8257102746
 30
0.0
 11
52.57090757930001
 21
14.66386606669997
 31
0.0
  0
LINE
  5
88334
330
1F
100
AcDbEntity
  8
cut
100
AcDbLine
 10
52.57090757930001
 20
14.66386606669997
 30
0.0
 11
52.46029239729995
 21
14.50230974379997
 31
0.0
  0
LINE
  5
88335
330
1F
100
AcDbEntity
  8
cut
100
AcDbLine
 10
52.46029239729995
 20
14.50230974379997
 30
0.0
 11
52.34926089970002
 21
14.34114510879997
 31
0.0
  0
LINE
  5
88336
330
1F
100
AcDbEntity
  8
cut
100
AcDbLine
 10
52.3492608998
 20
14.34114510899997
 30
0.0
 11
52.18591387190002
 21
14.10586984759999
 31
0.0
  0
LWPOLYLINE
  5
88337
330
1F
100
AcDbEntity
  8
cut
100
AcDbPolyline
 90
       22
 70
     0
 43
0.0
 10
52.18591387190002
 20
14.10586984759999
 10
52.0214037872
 20
13.87120832189999
 10
51.93871214330004
 20
13.75410537169998
 10
51.8557415722
 20
13.63721665039998
 10
51.77249549709998
 20
13.52054586449998
 10
51.68897049479999
 20
13.40408930769997
 10
51.60516722190005
 20
13.28789197849998
 10
51.52108844870003
 20
13.17195868619998
 10
51.43673140490006
 20
13.05628462159999
 10
51.35208843710009
 20
12.94090035579999
 10
51.2671652561
 20
12.82580731669998
 10
51.1819561510001
 20
12.71100407640001
 10
51.09643633590002
 20
12.59651692309999
 10
51.01062128580003
 20
12.48236044379997
 10
50.92449552559997
 20
12.36852005149999
 10
50.83798784449999
 20
12.25497827299998
 10
50.75110270670001
 20
12.14173903009999
 10
50.66383564789997
 20
12.02879840090001
 10
50.57610206429997
 20
11.91612714779999
 10
50.4878737546
 20
11.80371552469999
 10
50.3991789199
 20
11.6915732775
 10
50.31001756040001
 20
11.57970040629997
  0
LWPOLYLINE
  5
88338
330
1F
100
AcDbEntity
  8
cut
100
AcDbPolyline
 90
       13
 70
     0
 43
0.0
 10
49.59644732240002
 20
10.70679279419998
 10
49.5827380504
 20
10.68974966369999
 10
49.56829643790001
 20
10.6729728451
 10
49.55312248499999
 20
10.65646233849998
 10
49.53720584710009
 20
10.64018767689999
 10
49.52055686870003
 20
10.6241793271
 10
49.50320658370009
 20
10.60852869049998
 10
49.48515233860002
 20
10.59323785579998
 10
49.46639678700001
 20
10.57830473429997
 10
49.44697892339998
 20
10.56381445980001
 10
49.42691174589999
 20
10.54979541049999
 10
49.4061822564
 20
10.53621920820002
 10
49.384790455
 20
10.52308585309999
  0
LWPOLYLINE
  5
88339
330
1F
100
AcDbEntity
  8
cut
100
AcDbPolyline
 90
        7
 70
     0
 43
0.0
 10
50.31001756190002
 20
11.57970040819999
 10
50.30570464530001
 20
11.57434426840002
 10
50.30133090420008
 20
11.56897221179998
 10
50.2968963387001
 20
11.56358423840002
 10
50.29240094880001
 20
11.55818034809996
 10
50.2878447346001
 20
11.55276054090002
 10
50.2009390914001
 20
11.45042937829998
  0
LWPOLYLINE
  5
8833A
330
1F
100
AcDbEntity
  8
cut
100
AcDbPolyline
 90
        9
 70
     0
 43
0.0
 10
50.2009390914001
 20
11.45042937829998
 10
50.12015201079996
 20
11.3544011821
 10
50.04086645510003
 20
11.25924022949997
 10
49.96309123280003
 20
11.16493518179997
 10
49.88681753539998
 20
11.07149737750002
 10
49.81201893639999
 20
10.97896083269996
 10
49.73868662710009
 20
10.88733688579999
 10
49.66682941620003
 20
10.79661419829998
 10
49.59644730370001
 20
10.70679277019997
  0
LINE
  5
8833B
330
1F
100
AcDbEntity
  8
cut
100
AcDbLine
 10
53.4298886929
 20
15.95158550719999
 30
0.0
 11
53.29639262250001
 21
15.74764679519996
 31
0.0
  0
LINE
  5
8833C
330
1F
100
AcDbEntity
  8
cut
100
AcDbLine
 10
53.29639262250001
 20
15.74764679519996
 30
0.0
 11
53.1522051009
 21
15.528975111
 31
0.0
  0
LINE
  5
8833D
330
1F
100
AcDbEntity
  8
cut
100
AcDbLine
 10
53.1522051009
 20
15.528975111
 30
0.0
 11
53.04423806280005
 21
15.36628935009998
 31
0.0
  0
LWPOLYLINE
  5
8833E
330
1F
100
AcDbEntity
  8
cut
100
AcDbPolyline
 90
        3
 70
     0
 43
0.0
 10
53.04423806280005
 20
15.36628935009998
 10
52.93587657869998
 20
15.20392283799999
 10
52.89965254880002
 20
15.14984994719999
  0
LINE
  5
8833F
330
1F
100
AcDbEntity
  8
nocut
100
AcDbLine
 10
52.18679557699999
 20
18.59999999879998
 30
0.0
 11
52.18679557699999
 21
0.0
 31
0.0
  0
LINE
  5
88340
330
1F
100
AcDbEntity
  8
cut
100
AcDbLine
 10
53.95441059070001
 20
23.2028159132
 30
0.0
 11
53.97499999999997
 21
24.59999999879999
 31
0.0
  0
LINE
  5
88341
330
1F
100
AcDbEntity
  8
cut
100
AcDbLine
 10
53.6506733082
 20
16.96763473179997
 30
0.0
 11
53.64230007050007
 21
16.66388979209998
 31
0.0
  0
LINE
  5
88342
330
1F
100
AcDbEntity
  8
cut
100
AcDbLine
 10
53.95441059070001
 20
23.2028159132
 30
0.0
 11
53.95391606179996
 21
23.18488903559998
 31
0.0
  0
LINE
  5
88343
330
1F
100
AcDbEntity
  8
cut
100
AcDbLine
 10
53.66040668450001
 20
17.27137309509999
 30
0.0
 11
53.6506733082
 21
16.96763473179997
 31
0.0
  0
LWPOLYLINE
  5
88344
330
1F
100
AcDbEntity
  8
cut
100
AcDbPolyline
 90
       25
 70
     0
 43
0.0
 10
53.6423000708001
 20
16.66388980289998
 10
53.64108074540006
 20
16.6309444664
 10
53.63917301690008
 20
16.59831349160001
 10
53.63657688510006
 20
16.56599687849999
 10
53.6332813843
 20
16.5340024521
 10
53.62929748039999
 20
16.50232238729999
 10
53.62465807030009
 20
16.47093320969999
 10
53.61936733749995
 20
16.43984158660002
 10
53.61342109870006
 20
16.40904085069999
 10
53.60683970140008
 20
16.37848752489999
 10
53.59963037880003
 20
16.34817064250001
 10
53.59178589769999
 20
16.31810117029999
 10
53.58330490530002
 20
16.28826853219997
 10
53.5741960716
 20
16.2586652474
 10
53.56445072670002
 20
16.22929879679996
 10
53.5540415076
 20
16.2001810466
 10
53.54296488290001
 20
16.1712955473
 10
53.53122438420001
 20
16.1426587483
 10
53.51880324280003
 20
16.11433186429997
 10
53.50569811670002
 20
16.0863136598
 10
53.49191234790001
 20
16.05860537009997
 10
53.47743919420003
 20
16.03127191609997
 10
53.46227640799997
 20
16.00433493789999
 10
53.44642623670011
 20
15.97777279519997
 10
53.42988868040001
 20
15.95158548820001
  0
LINE
  5
88345
330
1F
100
AcDbEntity
  8
cut
100
AcDbLine
 10
53.95391606179996
 20
23.18488903559998
 30
0.0
 11
53.95326409600008
 21
23.16689804309996
 31
0.0
  0
LINE
  5
88346
330
1F
100
AcDbEntity
  8
cut
100
AcDbLine
 10
53.67341667609998
 20
17.62475728949997
 30
0.0
 11
53.66040668450001
 21
17.27137309509999
 31
0.0
  0
LINE
  5
88347
330
1F
100
AcDbEntity
  8
cut
100
AcDbLine
 10
53.68789713790004
 20
17.97101652730001
 30
0.0
 11
53.67341667609998
 21
17.62475728949997
 31
0.0
  0
LINE
  5
88348
330
1F
100
AcDbEntity
  8
cut
100
AcDbLine
 10
53.95326409600008
 20
23.16689804309996
 30
0.0
 11
53.95245469319999
 21
23.1488429357
 31
0.0
  0
LINE
  5
88349
330
1F
100
AcDbEntity
  8
cut
100
AcDbLine
 10
53.7039002006
 20
18.31318484329998
 30
0.0
 11
53.68789713790004
 21
17.97101652730001
 31
0.0
  0
LINE
  5
8834A
330
1F
100
AcDbEntity
  8
cut
100
AcDbLine
 10
53.95245469319999
 20
23.1488429357
 30
0.0
 11
53.91093599620012
 21
22.31113147629998
 31
0.0
  0
LINE
  5
8834B
330
1F
100
AcDbEntity
  8
cut
100
AcDbLine
 10
53.91093599620012
 20
22.31113147629998
 30
0.0
 11
53.86280302319999
 21
21.35684419509999
 31
0.0
  0
LINE
  5
8834C
330
1F
100
AcDbEntity
  8
cut
100
AcDbLine
 10
53.86280302319999
 20
21.35684419509999
 30
0.0
 11
53.810471982
 21
20.33947852949996
 31
0.0
  0
LINE
  5
8834D
330
1F
100
AcDbEntity
  8
cut
100
AcDbLine
 10
53.810471982
 20
20.33947852949996
 30
0.0
 11
53.75689947030011
 21
19.31798493329998
 31
0.0
  0
LINE
  5
8834E
330
1F
100
AcDbEntity
  8
cut
100
AcDbLine
 10
53.75689947030011
 20
19.31798493329998
 30
0.0
 11
53.7039002006
 21
18.31318484329998
 31
0.0
  0
ARC
  5
8834F
330
1F
100
AcDbEntity
  8
nocut
100
AcDbCircle
 10
17.4210550901
 20
41.22499999879996
 30
0.0
 40
20.0
100
AcDbArc
 50
259.9999999999998
 51
284.9999999999996
  0
ARC
  5
88350
330
1F
100
AcDbEntity
  8
nocut
100
AcDbCircle
 10
46.186795577
 20
18.59999999879998
 30
0.0
 40
6.0
100
AcDbArc
 50
0.0
 51
90.0
  0
ARC
  5
88351
330
1F
100
AcDbEntity
  8
nocut
100
AcDbCircle
 10
9.737534009400008
 20
19.22499999879998
 30
0.0
 40
3.0
100
AcDbArc
 50
79.9999999999998
 51
90.0
  0
ARC
  5
88352
330
1F
100
AcDbEntity
  8
cut
100
AcDbCircle
 10
45.54167657439998
 20
23.39999999879998
 30
0.0
 40
2.0
100
AcDbArc
 50
90.0
 51
117.4933040433
  0
ARC
  5
88353
330
1F
100
AcDbEntity
  8
nocut
100
AcDbCircle
 10
42.49245373549999
 20
22.59999999879999
 30
0.0
 40
2.0
100
AcDbArc
 50
90.0
 51
91.00000000000015
  0
ARC
  5
88354
330
1F
100
AcDbEntity
  8
nocut
100
AcDbCircle
 10
1.5
 20
20.72499999879998
 30
0.0
 40
1.5
100
AcDbArc
 50
90.0
 51
180.0
  0
ARC
  5
88355
330
1F
100
AcDbEntity
  8
nocut
100
AcDbCircle
 10
32.17545747260004
 20
22.91999232320001
 30
0.0
 40
1.5
100
AcDbArc
 50
91.00000000000015
 51
104.9999999999995
  0
ARC
  5
88356
102
{ACAD_REACTORS
330
883D5
102
}
330
1F
100
AcDbEntity
  8
cut
100
AcDbCircle
 10
53.17499999999999
 20
24.59999999879999
 30
0.0
 40
0.8
100
AcDbArc
 50
0.0
 51
90.0
  0
LINE
  5
88357
330
1F
100
AcDbEntity
  8
nocut
100
AcDbLine
 10
0.0
 20
20.72499999879998
 30
0.0
 11
0.0
 21
0.0
 31
0.0
  0
LINE
  5
88358
102
{ACAD_REACTORS
330
883C5
102
}
330
1F
100
AcDbEntity
  8
1
100
AcDbLine
 10
0.0
 20
-20.72500000000001
 30
0.0
 11
0.0
 21
-4.469999999999997
 31
0.0
  0
LINE
  5
88359
330
1F
100
AcDbEntity
  8
1
100
AcDbLine
 10
0.0
 20
4.469999999999997
 30
0.0
 11
0.0
 21
20.72499999999992
 31
0.0
  0
LINE
  5
8835A
330
1F
100
AcDbEntity
  8
1
100
AcDbLine
 10
4.75999999999999
 20
2.969999999999998
 30
0.0
 11
4.75999999999999
 21
-2.969999999999998
 31
0.0
  0
LINE
  5
8835B
330
1F
100
AcDbEntity
  8
1
100
AcDbLine
 10
0.5
 20
-3.969999999999998
 30
0.0
 11
0.0
 21
-4.469999999999997
 31
0.0
  0
LINE
  5
8835C
330
1F
100
AcDbEntity
  8
1
100
AcDbLine
 10
4.75999999999999
 20
-2.969999999999998
 30
0.0
 11
3.75999999999999
 21
-3.969999999999998
 31
0.0
  0
LINE
  5
8835D
330
1F
100
AcDbEntity
  8
1
100
AcDbLine
 10
42.49245373559997
 20
-24.60000000000001
 30
0.0
 11
46.186795577
 21
-24.60000000000001
 31
0.0
  0
LINE
  5
8835E
330
1F
100
AcDbEntity
  8
1
100
AcDbLine
 10
42.45754892269996
 20
-24.5996953903
 30
0.0
 11
42.49245373559997
 21
-24.60000000000001
 31
0.0
  0
LINE
  5
8835F
330
1F
100
AcDbEntity
  8
1
100
AcDbLine
 10
32.14927886299999
 20
-24.4197638671
 30
0.0
 11
42.45754892269996
 21
-24.5996953903
 31
0.0
  0
LINE
  5
88360
330
1F
100
AcDbEntity
  8
1
100
AcDbLine
 10
31.78722890500001
 20
-24.3688810638
 30
0.0
 11
22.59743599219999
 21
-21.90648347420002
 31
0.0
  0
LINE
  5
88361
330
1F
100
AcDbEntity
  8
1
100
AcDbLine
 10
0.0
 20
4.469999999999997
 30
0.0
 11
0.5
 21
3.969999999999998
 31
0.0
  0
LINE
  5
88362
102
{ACAD_REACTORS
330
883C8
102
}
330
1F
100
AcDbEntity
  8
1
100
AcDbLine
 10
9.737534009400008
 20
-22.22500000000001
 30
0.0
 11
1.5
 21
-22.22500000000001
 31
0.0
  0
LINE
  5
88363
330
1F
100
AcDbEntity
  8
1
100
AcDbLine
 10
3.75999999999999
 20
3.969999999999998
 30
0.0
 11
4.75999999999999
 21
2.969999999999998
 31
0.0
  0
LINE
  5
88364
330
1F
100
AcDbEntity
  8
1
100
AcDbLine
 10
13.9480915368
 20
-21.52884493970002
 30
0.0
 11
10.25847854239998
 21
-22.17942325900002
 31
0.0
  0
LINE
  5
88365
330
1F
100
AcDbEntity
  8
1
100
AcDbLine
 10
3.75999999999999
 20
-3.969999999999998
 30
0.0
 11
0.5
 21
-3.969999999999998
 31
0.0
  0
LINE
  5
88366
330
1F
100
AcDbEntity
  8
1
100
AcDbLine
 10
0.5
 20
3.969999999999998
 30
0.0
 11
3.75999999999999
 21
3.969999999999998
 31
0.0
  0
ARC
  5
88367
330
1F
100
AcDbEntity
  8
1
100
AcDbCircle
 10
17.42105509019998
 20
-41.22500000000004
 30
0.0
 40
20.0
100
AcDbArc
 50
75.00000000000047
 51
100.0000000000001
  0
ARC
  5
88368
330
1F
100
AcDbEntity
  8
1
100
AcDbCircle
 10
46.186795577
 20
-18.60000000000001
 30
0.0
 40
6.0
100
AcDbArc
 50
270.0
 51
0.0
  0
ARC
  5
88369
330
1F
100
AcDbEntity
  8
1
100
AcDbCircle
 10
9.737534009400008
 20
-19.22500000000001
 30
0.0
 40
3.0
100
AcDbArc
 50
270.0
 51
280.0000000000002
  0
ARC
  5
8836A
330
1F
100
AcDbEntity
  8
1
100
AcDbCircle
 10
32.1754574727
 20
-22.91999232440002
 30
0.0
 40
1.5
100
AcDbArc
 50
255.0000000000005
 51
268.9999999999998
  0
ARC
  5
8836B
102
{ACAD_REACTORS
330
883C8
330
883D0
102
}
330
1F
100
AcDbEntity
  8
1
100
AcDbCircle
 10
1.5
 20
20.72499999999992
 30
0.0
 40
1.5
100
AcDbArc
 50
90.0
 51
180.0
  0
ARC
  5
8836C
330
1F
100
AcDbEntity
  8
1
100
AcDbCircle
 10
1.5
 20
-20.72500000000001
 30
0.0
 40
1.5
100
AcDbArc
 50
180.0
 51
270.0
  0
LINE
  5
8836D
330
1F
100
AcDbEntity
  8
sk1
100
AcDbLine
 10
0.4500000000000173
 20
-3.76249999999996
 30
0.0
 11
0.4500000000000173
 21
3.9089189847501
 31
0.0
  0
LINE
  5
8836E
330
1F
100
AcDbEntity
  8
sk3
100
AcDbLine
 10
1.000000338000005
 20
10.03050000000001
 30
0.0
 11
1.000000338000005
 21
4.378388831647924
 31
0.0
  0
LINE
  5
8836F
330
1F
100
AcDbEntity
  8
sk3
100
AcDbLine
 10
3.5
 20
-10.03049999999996
 30
0.0
 11
3.5
 21
-4.762500000000017
 31
0.0
  0
LINE
  5
88370
330
1F
100
AcDbEntity
  8
sk3
100
AcDbLine
 10
3.5
 20
4.762500000000031
 30
0.0
 11
3.5
 21
10.03050000000001
 31
0.0
  0
LINE
  5
88371
330
1F
100
AcDbEntity
  8
sk3
100
AcDbLine
 10
12.99234536937808
 20
9.5249999989
 30
0.0
 11
12.99234536937808
 21
4.762500000000031
 31
0.0
  0
LINE
  5
88372
330
1F
100
AcDbEntity
  8
sk3
100
AcDbLine
 10
12.9923453693782
 20
-4.762500000000017
 30
0.0
 11
12.9923453693782
 21
-9.5249999989
 31
0.0
  0
LINE
  5
88373
102
{ACAD_REACTORS
330
883C5
102
}
330
1F
100
AcDbEntity
  8
sk3
100
AcDbLine
 10
1.000000338000005
 20
-10.03049999999996
 30
0.0
 11
0.0000000000000284
 21
-11.0305003718
 31
0.0
  0
LINE
  5
88374
330
1F
100
AcDbEntity
  8
sk3
100
AcDbLine
 10
12.99234536937808
 20
9.5249999989
 30
0.0
 11
18.13926112070004
 21
11.9250462296
 31
0.0
  0
LINE
  5
88375
330
1F
100
AcDbEntity
  8
sk3
100
AcDbLine
 10
1.000000338000005
 20
10.03050000000001
 30
0.0
 11
0.0000000000000284
 21
11.03050037180003
 31
0.0
  0
LINE
  5
88376
330
1F
100
AcDbEntity
  8
sk3
100
AcDbLine
 10
21.80000000000001
 20
9.0
 30
0.0
 11
21.80000000000001
 21
4.762500000000031
 31
0.0
  0
LINE
  5
88377
330
1F
100
AcDbEntity
  8
sk3
100
AcDbLine
 10
21.80000000000001
 20
-9.000000000000012
 30
0.0
 11
21.80000000000001
 21
-4.762500000000017
 31
0.0
  0
LINE
  5
88378
330
1F
100
AcDbEntity
  8
sk3
100
AcDbLine
 10
32.8916198096
 20
8.5
 30
0.0
 11
34.33926112070003
 21
9.175046229600027
 31
0.0
  0
LINE
  5
88379
330
1F
100
AcDbEntity
  8
sk3
100
AcDbLine
 10
12.9923453693782
 20
-9.5249999989
 30
0.0
 11
18.13926112070004
 21
-11.92504622959994
 31
0.0
  0
LINE
  5
8837A
330
1F
100
AcDbEntity
  8
sk3
100
AcDbLine
 10
26.30000000000001
 20
-11.59999999999995
 30
0.0
 11
26.30000000000001
 21
-9.000000000000012
 31
0.0
  0
LINE
  5
8837B
330
1F
100
AcDbEntity
  8
sk3
100
AcDbLine
 10
26.30000000000001
 20
9.0
 30
0.0
 11
26.30000000000001
 21
11.60000000000003
 31
0.0
  0
LINE
  5
8837C
330
1F
100
AcDbEntity
  8
sk3
100
AcDbLine
 10
18.47735573009998
 20
-12.00000000000001
 30
0.0
 11
25.90000000000003
 21
-12.00000000000001
 31
0.0
  0
LINE
  5
8837D
330
1F
100
AcDbEntity
  8
sk3
100
AcDbLine
 10
32.20000000000005
 20
8.600000000000022
 30
0.0
 11
32.20000000000005
 21
5.162500000000021
 31
0.0
  0
LINE
  5
8837E
330
1F
100
AcDbEntity
  8
sk3
100
AcDbLine
 10
32.20000000000005
 20
-5.162499999999949
 30
0.0
 11
32.20000000000005
 21
-8.599999999999951
 31
0.0
  0
LINE
  5
8837F
330
1F
100
AcDbEntity
  8
sk3
100
AcDbLine
 10
32.8916198096
 20
8.5
 30
0.0
 11
32.8916198096
 21
7.13499999999999
 31
0.0
  0
LINE
  5
88380
330
1F
100
AcDbEntity
  8
sk3
100
AcDbLine
 10
32.8916198096
 20
-7.13499999999999
 30
0.0
 11
32.8916198096
 21
-8.500000000000012
 31
0.0
  0
LINE
  5
88381
330
1F
100
AcDbEntity
  8
sk3
100
AcDbLine
 10
26.5886752347713
 20
-9.000000000000012
 30
0.0
 11
26.30000007930005
 21
-9.500000045799991
 31
0.0
  0
LINE
  5
88382
330
1F
100
AcDbEntity
  8
sk3
100
AcDbLine
 10
1.000000338000005
 20
-10.03049999999996
 30
0.0
 11
3.5
 21
-10.03049999999996
 31
0.0
  0
LINE
  5
88383
330
1F
100
AcDbEntity
  8
sk3
100
AcDbLine
 10
34.67735573009998
 20
-9.250000000000012
 30
0.0
 11
36.20000000000004
 21
-9.250000000000012
 31
0.0
  0
LINE
  5
88384
330
1F
100
AcDbEntity
  8
sk3
100
AcDbLine
 10
32.20000000000005
 20
-8.500000000000012
 30
0.0
 11
32.8916198096
 21
-8.500000000000012
 31
0.0
  0
LINE
  5
88385
330
1F
100
AcDbEntity
  8
sk3
100
AcDbLine
 10
37.0
 20
-7.5
 30
0.0
 11
42.0
 21
-7.5
 31
0.0
  0
LINE
  5
88386
330
1F
100
AcDbEntity
  8
sk3
100
AcDbLine
 10
41.22500000000002
 20
-7.13499999999999
 30
0.0
 11
32.20000000000005
 21
-7.13499999999999
 31
0.0
  0
LINE
  5
88387
330
1F
100
AcDbEntity
  8
sk3
100
AcDbLine
 10
32.8916198096
 20
-8.500000000000012
 30
0.0
 11
34.33926112070003
 21
-9.175046229599972
 31
0.0
  0
LINE
  5
88388
330
1F
100
AcDbEntity
  8
sk3
100
AcDbLine
 10
37.0
 20
-8.450000000000017
 30
0.0
 11
37.0
 21
-7.13499999999999
 31
0.0
  0
LINE
  5
88389
330
1F
100
AcDbEntity
  8
sk3
100
AcDbLine
 10
37.0
 20
7.13499999999999
 30
0.0
 11
37.0
 21
8.450000000000057
 31
0.0
  0
LINE
  5
8838A
330
1F
100
AcDbEntity
  8
sk3
100
AcDbLine
 10
31.80000000000001
 20
-9.000000000000012
 30
0.0
 11
32.20000000000005
 21
-8.599999999999951
 31
0.0
  0
LINE
  5
8838B
330
1F
100
AcDbEntity
  8
sk3
100
AcDbLine
 10
31.80000000000001
 20
-4.762500000000017
 30
0.0
 11
13.00414015979999
 21
-4.762500000000017
 31
0.0
  0
LINE
  5
8838C
330
1F
100
AcDbEntity
  8
sk3
100
AcDbLine
 10
13.00414015979999
 20
-4.762500000000017
 30
0.0
 11
1.450000000000045
 21
-4.762500000000017
 31
0.0
  0
LINE
  5
8838D
330
1F
100
AcDbEntity
  8
sk3
100
AcDbLine
 10
42.80000015020005
 20
-4.250000000000013
 30
0.0
 11
47.68679557699999
 21
-4.250000000000013
 31
0.0
  0
LINE
  5
8838E
330
1F
100
AcDbEntity
  8
sk3
100
AcDbLine
 10
26.5886752347713
 20
9.0
 30
0.0
 11
26.30000007930005
 21
9.500000045799977
 31
0.0
  0
LINE
  5
8838F
330
1F
100
AcDbEntity
  8
sk3
100
AcDbLine
 10
41.72500000000002
 20
-6.634999999999963
 30
0.0
 11
41.72500000000002
 21
6.351070647634755
 31
0.0
  0
LINE
  5
88390
330
1F
100
AcDbEntity
  8
sk3
100
AcDbLine
 10
47.68679557699999
 20
4.25
 30
0.0
 11
48.186795577
 21
4.75
 31
0.0
  0
LINE
  5
88391
330
1F
100
AcDbEntity
  8
sk3
100
AcDbLine
 10
42.80000015020005
 20
-4.250000000000013
 30
0.0
 11
42.40000000000003
 21
-4.650000164400012
 31
0.0
  0
LINE
  5
88392
330
1F
100
AcDbEntity
  8
sk3
100
AcDbLine
 10
31.80000000000001
 20
9.0
 30
0.0
 11
32.20000000000005
 21
8.600000000000022
 31
0.0
  0
LINE
  5
88393
330
1F
100
AcDbEntity
  8
sk3
100
AcDbLine
 10
42.40000000000003
 20
-7.099999999999949
 30
0.0
 11
42.40000000000003
 21
7.100000000000008
 31
0.0
  0
LINE
  5
88394
330
1F
100
AcDbEntity
  8
sk3
100
AcDbLine
 10
42.80000015020005
 20
4.25
 30
0.0
 11
42.80000015020005
 21
-4.250000000000013
 31
0.0
  0
LINE
  5
88395
330
1F
100
AcDbEntity
  8
sk3
100
AcDbLine
 10
42.80000015020005
 20
4.25
 30
0.0
 11
47.68679557699999
 21
4.25
 31
0.0
  0
LINE
  5
88396
330
1F
100
AcDbEntity
  8
sk3
100
AcDbLine
 10
31.80000000000001
 20
4.762500000000031
 30
0.0
 11
13.00414015979999
 21
4.762500000000031
 31
0.0
  0
LINE
  5
88397
330
1F
100
AcDbEntity
  8
sk3
100
AcDbLine
 10
13.00414015979999
 20
4.762500000000031
 30
0.0
 11
1.450000000000045
 21
4.762500000000031
 31
0.0
  0
LINE
  5
88398
330
1F
100
AcDbEntity
  8
sk3
100
AcDbLine
 10
47.68679557699999
 20
-4.250000000000013
 30
0.0
 11
48.186795577
 21
-4.750000000000011
 31
0.0
  0
LINE
  5
88399
330
1F
100
AcDbEntity
  8
sk3
100
AcDbLine
 10
48.5064561251
 20
-10.73009457889996
 30
0.0
 11
51.86713502880002
 21
-15.93647125039989
 31
0.0
  0
LINE
  5
8839A
330
1F
100
AcDbEntity
  8
sk3
100
AcDbLine
 10
47.68679557699999
 20
4.25
 30
0.0
 11
47.68679557699999
 21
-4.250000000000013
 31
0.0
  0
LINE
  5
8839B
330
1F
100
AcDbEntity
  8
sk3
100
AcDbLine
 10
48.186795577
 20
9.645447481100019
 30
0.0
 11
48.186795577
 21
-9.645447481100019
 31
0.0
  0
LINE
  5
8839C
330
1F
100
AcDbEntity
  8
sk3
100
AcDbLine
 10
41.22500000000002
 20
7.13499999999999
 30
0.0
 11
32.20000000000005
 21
7.13499999999999
 31
0.0
  0
LINE
  5
8839D
330
1F
100
AcDbEntity
  8
sk3
100
AcDbLine
 10
37.0
 20
7.5
 30
0.0
 11
42.0
 21
7.5
 31
0.0
  0
LINE
  5
8839E
330
1F
100
AcDbEntity
  8
sk3
100
AcDbLine
 10
32.20000000000005
 20
8.5
 30
0.0
 11
32.8916198096
 21
8.5
 31
0.0
  0
LINE
  5
8839F
330
1F
100
AcDbEntity
  8
sk3
100
AcDbLine
 10
34.67735573009998
 20
9.25
 30
0.0
 11
36.20000000000004
 21
9.25
 31
0.0
  0
LINE
  5
883A0
330
1F
100
AcDbEntity
  8
sk3
100
AcDbLine
 10
42.80000015020005
 20
4.25
 30
0.0
 11
42.40000000000003
 21
4.650000164400026
 31
0.0
  0
LINE
  5
883A1
330
1F
100
AcDbEntity
  8
sk3
100
AcDbLine
 10
1.000000338000005
 20
10.03050000000001
 30
0.0
 11
3.5
 21
10.03050000000001
 31
0.0
  0
LINE
  5
883A2
330
1F
100
AcDbEntity
  8
sk3
100
AcDbLine
 10
25.90000000000003
 20
12.0
 30
0.0
 11
18.47735573009998
 21
12.0
 31
0.0
  0
ARC
  5
883A3
330
1F
100
AcDbEntity
  8
sk3
100
AcDbCircle
 10
50.186795577
 20
-9.645447481100019
 30
0.0
 40
2.0
100
AcDbArc
 50
180.0
 51
212.8419534016011
  0
ARC
  5
883A4
330
1F
100
AcDbEntity
  8
sk3
100
AcDbCircle
 10
50.186795577
 20
-17.0211183482
 30
0.0
 40
2.0
100
AcDbArc
 50
0.0
 51
32.84195340160059
  0
ARC
  5
883A5
330
1F
100
AcDbEntity
  8
sk3
100
AcDbCircle
 10
34.67735573009998
 20
8.450000000000057
 30
0.0
 40
0.8
100
AcDbArc
 50
90.0
 51
114.9999999999997
  0
ARC
  5
883A6
330
1F
100
AcDbEntity
  8
sk3
100
AcDbCircle
 10
34.67735573009998
 20
-8.450000000000017
 30
0.0
 40
0.8
100
AcDbArc
 50
245.0000000000003
 51
270.0
  0
ARC
  5
883A7
330
1F
100
AcDbEntity
  8
sk3
100
AcDbCircle
 10
36.20000000000004
 20
-8.450000000000017
 30
0.0
 40
0.8
100
AcDbArc
 50
270.0
 51
0.0
  0
ARC
  5
883A8
330
1F
100
AcDbEntity
  8
sk3
100
AcDbCircle
 10
36.20000000000004
 20
8.450000000000057
 30
0.0
 40
0.8
100
AcDbArc
 50
0.0
 51
90.0
  0
ARC
  5
883A9
330
1F
100
AcDbEntity
  8
sk3
100
AcDbCircle
 10
18.47735573009998
 20
-11.19999999999999
 30
0.0
 40
0.8
100
AcDbArc
 50
245.0000000000003
 51
270.0
  0
ARC
  5
883AA
330
1F
100
AcDbEntity
  8
sk3
100
AcDbCircle
 10
18.47735573009998
 20
11.20000000000003
 30
0.0
 40
0.8
100
AcDbArc
 50
90.0
 51
114.9999999999997
  0
ARC
  5
883AB
330
1F
100
AcDbEntity
  8
sk3
100
AcDbCircle
 10
31.80000000000001
 20
-5.162499999999949
 30
0.0
 40
0.4
100
AcDbArc
 50
0.0
 51
90.0
  0
ARC
  5
883AC
330
1F
100
AcDbEntity
  8
sk3
100
AcDbCircle
 10
31.80000000000001
 20
5.162500000000021
 30
0.0
 40
0.4
100
AcDbArc
 50
270.0
 51
0.0
  0
ARC
  5
883AD
330
1F
100
AcDbEntity
  8
sk3
100
AcDbCircle
 10
25.90000000000003
 20
11.60000000000003
 30
0.0
 40
0.4
100
AcDbArc
 50
0.0
 51
90.0
  0
ARC
  5
883AE
330
1F
100
AcDbEntity
  8
sk3
100
AcDbCircle
 10
25.90000000000003
 20
-11.59999999999995
 30
0.0
 40
0.4
100
AcDbArc
 50
270.0
 51
0.0
  0
ARC
  5
883AF
330
1F
100
AcDbEntity
  8
sk3
100
AcDbCircle
 10
42.0
 20
-7.099999999999949
 30
0.0
 40
0.4
100
AcDbArc
 50
270.0
 51
0.0
  0
ARC
  5
883B0
330
1F
100
AcDbEntity
  8
sk3
100
AcDbCircle
 10
42.0
 20
7.100000000000008
 30
0.0
 40
0.4
100
AcDbArc
 50
0.0
 51
90.0
  0
LINE
  5
883B1
330
1F
100
AcDbEntity
  8
sk3
100
AcDbLine
 10
32.20000000000005
 20
5.162500000000021
 30
0.0
 11
32.20000000000005
 21
-5.162499999999949
 31
0.0
  0
LINE
  5
883B2
330
1F
100
AcDbEntity
  8
sk3
100
AcDbLine
 10
1.450000000000045
 20
3.969999999999998
 30
0.0
 11
1.450000000000045
 21
4.762500000000031
 31
0.0
  0
LINE
  5
883B3
330
1F
100
AcDbEntity
  8
sk1
100
AcDbLine
 10
1.450000000000045
 20
-3.969999999999998
 30
0.0
 11
1.450000000000045
 21
3.969999999999998
 31
0.0
  0
LINE
  5
883B4
330
1F
100
AcDbEntity
  8
sk3
100
AcDbLine
 10
1.450000000000045
 20
-4.762500000000017
 30
0.0
 11
1.450000000000045
 21
-3.969999999999998
 31
0.0
  0
LINE
  5
883B5
330
1F
100
AcDbEntity
  8
sk3
100
AcDbLine
 10
0.5215585447176636
 20
3.969999999999998
 30
0.0
 11
1.450000000000045
 21
4.762500000000031
 31
0.0
  0
LINE
  5
883B6
330
1F
100
AcDbEntity
  8
sk1
100
AcDbLine
 10
0.4500000000000173
 20
3.9089189847501
 30
0.0
 11
0.5215585447176636
 21
3.969999999999998
 31
0.0
  0
LINE
  5
883B7
330
1F
100
AcDbEntity
  8
sk3
100
AcDbLine
 10
1.450000000000045
 20
-4.762500000000017
 30
0.0
 11
1.450000000000045
 21
-4.762500000000017
 31
0.0
  0
LINE
  5
883B8
330
1F
100
AcDbEntity
  8
sk1
100
AcDbLine
 10
0.6575000000000557
 20
-3.969999999999998
 30
0.0
 11
0.4500000000000173
 21
-3.76249999999996
 31
0.0
  0
LINE
  5
883B9
330
1F
100
AcDbEntity
  8
sk3
100
AcDbLine
 10
1.450000000000045
 20
-4.762500000000017
 30
0.0
 11
0.6575000000000557
 21
-3.969999999999998
 31
0.0
  0
LINE
  5
883BA
330
1F
100
AcDbEntity
  8
sk3
100
AcDbLine
 10
31.80000000000001
 20
9.0
 30
0.0
 11
21.80000000000001
 21
9.0
 31
0.0
  0
LINE
  5
883BB
102
{ACAD_REACTORS
330
883C5
102
}
330
1F
100
AcDbEntity
  8
sk3
100
AcDbLine
 10
31.80000000000001
 20
-9.000000000000012
 30
0.0
 11
21.80000000000001
 21
-9.000000000000012
 31
0.0
  0
LINE
  5
883BC
330
1F
100
AcDbEntity
  8
sk3
100
AcDbLine
 10
31.80000000000001
 20
9.0
 30
0.0
 11
31.80000000000001
 21
4.762500000000001
 31
0.0
  0
LINE
  5
883BD
330
1F
100
AcDbEntity
  8
sk3
100
AcDbLine
 10
31.80000000000001
 20
-4.762500000000017
 30
0.0
 11
31.80000000000001
 21
-9.000000000000012
 31
0.0
  0
LINE
  5
883BE
330
1F
100
AcDbEntity
  8
sk3
100
AcDbLine
 10
41.22500000000002
 20
-7.13499999999999
 30
0.0
 11
41.22500000000002
 21
7.13499999999999
 31
0.0
  0
LINE
  5
883BF
330
1F
100
AcDbEntity
  8
sk3
100
AcDbLine
 10
41.72500000000002
 20
6.351070647634755
 30
0.0
 11
41.22500000000002
 21
7.13499999999999
 31
0.0
  0
LINE
  5
883C0
330
1F
100
AcDbEntity
  8
sk3
100
AcDbLine
 10
41.22500000000002
 20
-7.13499999999999
 30
0.0
 11
41.72500000000002
 21
-6.634999999999963
 31
0.0
  0
LINE
  5
883C1
330
1F
100
AcDbEntity
  8
sk3
100
AcDbLine
 10
1.000000338000005
 20
-4.312500337999964
 30
0.0
 11
1.000000338000005
 21
-10.03049999999996
 31
0.0
  0
ARC
  5
883C2
330
1F
100
AcDbEntity
  8
sk3
100
AcDbCircle
 10
50.186795577
 20
9.645447481100019
 30
0.0
 40
2.0
100
AcDbArc
 50
147.4545464920229
 51
180.0
  0
DIMENSION
  5
883C3
102
{ACAD_XDICTIONARY
360
883C4
102
}
102
{ACAD_REACTORS
330
883C5
102
}
330
1F
100
AcDbEntity
  8
sk2
100
AcDbDimension
  2
*D354444
 10
21.80000000000001
 20
-40.0
 30
0.0
 11
43.34999999999999
 21
-35.95000000000001
 31
0.0
 70
    32
 71
     5
 42
21.8
  3
コピー - ISO-25
100
AcDbAlignedDimension
 13
0.0
 23
-11.03050037180003
 33
0.0
 14
21.80000000000001
 24
-9.000000000000012
 34
0.0
 50
0.0
100
AcDbRotatedDimension
1001
ACAD
1000
DSTYLE
1002
{
1070
   170
1070
     1
1070
   171
1070
     3
1070
   143
1040
0.0393700787401575
1070
   285
1070
     4
1070
     4
1000
"
1070
   271
1070
     8
1070
    40
1040
1.0
1002
}
1001
ACAD_DSTYLE_DIMINSPECT
1070
   393
1070
     0
1070
   394
1070
     0
1070
   395
1000

1070
   396
1000

  0
DIMENSION
  5
883C6
102
{ACAD_XDICTIONARY
360
883C7
102
}
102
{ACAD_REACTORS
330
883C8
102
}
330
1F
100
AcDbEntity
  8
sk2
100
AcDbDimension
  2
*D365555
 10
-19.99999999999998
 20
-22.22500000000001
 30
0.0
 11
-19.99999999999998
 21
0.0
 31
0.0
 70
   160
  1
%%C<>
 71
     5
 42
44.45
  3
コピー - ISO-25
100
AcDbAlignedDimension
 13
1.5
 23
22.22499999999993
 33
0.0
 14
1.5
 24
-22.22500000000001
 34
0.0
 50
90.0
100
AcDbRotatedDimension
1001
ACAD
1000
DSTYLE
1002
{
1070
   170
1070
     1
1070
   171
1070
     3
1070
   143
1040
0.0393700787401575
1070
   285
1070
     4
1070
     4
1000
%%c[]"
1070
   271
1070
     8
1070
    40
1040
1.0
1002
}
1001
ACAD_DSTYLE_DIMINSPECT
1070
   393
1070
     0
1070
   394
1070
     0
1070
   395
1000

1070
   396
1000

  0
LINE
  5
883C9
102
{ACAD_REACTORS
330
883CD
102
}
330
1F
100
AcDbEntity
  8
sk3
100
AcDbLine
 10
3.5
 20
9.5249999989
 30
0.0
 11
12.99234536937808
 21
9.5249999989
 31
0.0
  0
LINE
  5
883CA
102
{ACAD_REACTORS
330
883CD
102
}
330
1F
100
AcDbEntity
  8
sk3
100
AcDbLine
 10
3.5
 20
-9.5249999989
 30
0.0
 11
12.9923453693782
 21
-9.5249999989
 31
0.0
  0
DIMENSION
  5
883CB
102
{ACAD_XDICTIONARY
360
883CC
102
}
102
{ACAD_REACTORS
330
883CD
102
}
330
1F
100
AcDbEntity
  8
sk2
100
AcDbDimension
  2
*D376666
 10
-10.0
 20
-9.5249999989
 30
0.0
 11
-10.0
 21
0.0000000000000071
 31
0.0
 70
   160
  1
%%C<>
 71
     5
 42
19.0499999978
  3
コピー - ISO-25
100
AcDbAlignedDimension
 13
3.5
 23
9.5249999989
 33
0.0
 14
3.5
 24
-9.5249999989
 34
0.0
 50
90.0
100
AcDbRotatedDimension
1001
ACAD
1000
DSTYLE
1002
{
1070
   170
1070
     1
1070
   171
1070
     3
1070
   143
1040
0.0393700787401575
1070
   285
1070
     4
1070
     4
1000
%%c[]"
1070
   271
1070
     8
1070
    40
1040
1.0
1002
}
1001
ACAD_DSTYLE_DIMINSPECT
1070
   393
1070
     0
1070
   394
1070
     0
1070
   395
1000

1070
   396
1000

  0
DIMENSION
  5
883CE
102
{ACAD_XDICTIONARY
360
883CF
102
}
102
{ACAD_REACTORS
330
883D0
102
}
330
1F
100
AcDbEntity
  8
2
100
AcDbDimension
  2
*D387777
 10
53.97499999999997
 20
60.0
 30
0.0
 11
26.98749999999999
 21
64.05
 31
0.0
 70
    32
 71
     5
 42
53.975
  3
コピー - ISO-25
100
AcDbAlignedDimension
 13
0.0
 23
20.72499999999992
 33
0.0
 14
53.97499999999997
 24
24.59999999879999
 34
0.0
 50
0.0
100
AcDbRotatedDimension
1001
ACAD
1000
DSTYLE
1002
{
1070
   170
1070
     1
1070
   171
1070
     3
1070
   143
1040
0.0393700787401575
1070
   285
1070
     4
1070
     4
1000
"
1070
   271
1070
     8
1070
    40
1040
1.0
1002
}
1001
ACAD_DSTYLE_DIMINSPECT
1070
   393
1070
     0
1070
   394
1070
     0
1070
   395
1000

1070
   396
1000

  0
DIMENSION
  5
883D2
330
1F
100
AcDbEntity
  8
2
100
AcDbDimension
  2
*D409988
 10
53.97499999999999
 20
50.0
 30
0.0
 11
85.44166666666667
 21
50.0
 31
0.0
 70
   160
  1
<>(MAX)
 71
     5
 42
8.200000000000001
  3
コピー - ISO-25
100
AcDbAlignedDimension
 13
45.77499999999997
 23
25.39999999879999
 33
0.0
 14
53.97499999999999
 24
24.59999999879999
 34
0.0
 50
0.0
100
AcDbRotatedDimension
1001
ACAD
1000
DSTYLE
1002
{
1070
   170
1070
     1
1070
   171
1070
     3
1070
   143
1040
0.0393700787401575
1070
   285
1070
     4
1070
     4
1000
"
1070
   271
1070
     8
1070
    40
1040
1.0
1002
}
1001
ACAD_DSTYLE_DIMINSPECT
1070
   396
1000

1070
   395
1000

1070
   394
1070
     0
1070
   393
1070
     0
1001
GENIUS_GENDTOL_13
1070
  1000
1000

1070
  1001
1000

1070
  1002
1000

1070
  1040
1040
8.199999999999999
1001
ZWMCAD_GENSTANDARDFRAME_13_
1070
   410
1000
GB
1070
   411
1000
ZwmFrameMain_
  0
DIMENSION
  5
883D3
102
{ACAD_XDICTIONARY
360
883D4
102
}
330
1F
100
AcDbEntity
  8
2
100
AcDbDimension
  2
*D41101099
 10
70.0
 20
-25.39999999879999
 30
0.0
 11
65.95
 21
-1.75
 31
0.0
 70
    32
  1
%%C<>
 71
     5
 42
50.7999999976
  3
コピー - ISO-25
100
AcDbAlignedDimension
 13
53.17499999999999
 23
25.39999999879999
 33
0.0
 14
53.17499999999999
 24
-25.39999999879999
 34
0.0
 50
90.0
100
AcDbRotatedDimension
1001
ACAD
1000
DSTYLE
1002
{
1070
   170
1070
     1
1070
   171
1070
     3
1070
   143
1040
0.0393700787401575
1070
   285
1070
     4
1070
     4
1000
%%c[]"
1070
   344
1005
87D73
1070
   271
1070
     8
1070
   173
1070
     1
1070
    40
1040
1.0
1070
    76
1070
     1
1002
}
1001
ACAD_DSTYLE_DIMINSPECT
1070
   393
1070
     0
1070
   394
1070
     0
1070
   395
1000

1070
   396
1000

  0
LINE
  5
883D6
330
1F
100
AcDbEntity
  8
1
100
AcDbLine
 10
39.88665419419999
 20
22.17827321909989
 30
0.0
 11
42.17631613359997
 21
23.47733910029993
 31
0.0
  0
LINE
  5
883D7
330
1F
100
AcDbEntity
  8
1
100
AcDbLine
 10
38.5772125772
 20
22.09493040389988
 30
0.0
 11
39.3512323219
 21
22.3783787574999
 31
0.0
  0
LINE
  5
883D8
330
1F
100
AcDbEntity
  8
1
100
AcDbLine
 10
38.3940278337
 20
22.36046230749987
 30
0.0
 11
38.29672293509998
 21
23.48989333269988
 31
0.0
  0
LINE
  5
883D9
330
1F
100
AcDbEntity
  8
1
100
AcDbLine
 10
38.72112911319999
 20
17.40367105229991
 30
0.0
 11
38.08894601009999
 21
18.61466572159988
 31
0.0
  0
LINE
  5
883DA
330
1F
100
AcDbEntity
  8
1
100
AcDbLine
 10
38.70745306610002
 20
18.33208859369991
 30
0.0
 11
40.31565146849999
 21
15.13963803119988
 31
0.0
  0
LINE
  5
883DB
330
1F
100
AcDbEntity
  8
1
100
AcDbLine
 10
51.86713502880002
 20
12.87069305739989
 30
0.0
 11
51.86713502880002
 21
9.387903075399904
 31
0.0
  0
LINE
  5
883DC
330
1F
100
AcDbEntity
  8
1
100
AcDbLine
 10
52.18679557700003
 20
13.42111674569987
 30
0.0
 11
52.18679557700003
 21
-18.5999976791001
 31
0.0
  0
LINE
  5
883DD
330
1F
100
AcDbEntity
  8
1
100
AcDbLine
 10
47.45816646389999
 20
16.39528756459988
 30
0.0
 11
47.27001523000001
 21
16.39528756459988
 31
0.0
  0
LINE
  5
883DE
330
1F
100
AcDbEntity
  8
1
100
AcDbLine
 10
45.73504025800001
 20
16.57731755059986
 30
0.0
 11
45.54688902410001
 21
16.57731755059986
 31
0.0
  0
LINE
  5
883DF
330
1F
100
AcDbEntity
  8
1
100
AcDbLine
 10
45.93479300479995
 20
16.67536103139987
 30
0.0
 11
46.12294423869997
 21
16.67536103139987
 31
0.0
  0
LINE
  5
883E0
330
1F
100
AcDbEntity
  8
1
100
AcDbLine
 10
48.08996043549999
 20
17.1945243082999
 30
0.0
 11
48.27811166940001
 21
17.1945243082999
 31
0.0
  0
LINE
  5
883E1
330
1F
100
AcDbEntity
  8
1
100
AcDbLine
 10
48.47650857629997
 20
17.80476348599985
 30
0.0
 11
48.28835734239999
 21
17.80476348599985
 31
0.0
  0
LINE
  5
883E2
330
1F
100
AcDbEntity
  8
1
100
AcDbLine
 10
48.30366268470001
 20
17.19425267269993
 30
0.0
 11
48.27811167930002
 21
17.19450742089988
 31
0.0
  0
LINE
  5
883E3
330
1F
100
AcDbEntity
  8
1
100
AcDbLine
 10
13.9480915368
 20
21.52884493969988
 30
0.0
 11
10.25847854240001
 21
22.17942325899988
 31
0.0
  0
LINE
  5
883E4
330
1F
100
AcDbEntity
  8
1
100
AcDbLine
 10
38.70745306610002
 20
18.33208859369991
 30
0.0
 11
38.3462881855
 21
18.41962104509987
 31
0.0
  0
LINE
  5
883E5
330
1F
100
AcDbEntity
  8
1
100
AcDbLine
 10
38.72112911319999
 20
17.40367105229991
 30
0.0
 11
27.68939167720005
 21
21.49537261899987
 31
0.0
  0
LINE
  5
883E6
330
1F
100
AcDbEntity
  8
1
100
AcDbLine
 10
39.2648069121
 20
22.00849551559988
 30
0.0
 11
39.88665419419999
 21
22.17827321909989
 31
0.0
  0
LINE
  5
883E7
330
1F
100
AcDbEntity
  8
1
100
AcDbLine
 10
38.50280337730001
 20
18.91021738939987
 30
0.0
 11
37.64941945750003
 21
18.91021738939987
 31
0.0
  0
LINE
  5
883E8
330
1F
100
AcDbEntity
  8
1
100
AcDbLine
 10
48.20741432720001
 20
18.93417645069992
 30
0.0
 11
48.01926309330003
 21
18.93417645069992
 31
0.0
  0
LINE
  5
883E9
330
1F
100
AcDbEntity
  8
1
100
AcDbLine
 10
38.47985955200002
 20
18.95663638509985
 30
0.0
 11
37.59923596040002
 21
18.95663638509985
 31
0.0
  0
LINE
  5
883EA
330
1F
100
AcDbEntity
  8
1
100
AcDbLine
 10
47.19566926830004
 20
19.29822591269989
 30
0.0
 11
47.38382050220002
 21
19.29822591269989
 31
0.0
  0
LINE
  5
883EB
330
1F
100
AcDbEntity
  8
1
100
AcDbLine
 10
46.6644351754
 20
19.7266497570999
 30
0.0
 11
46.47628394149999
 21
19.7266497570999
 31
0.0
  0
LINE
  5
883EC
330
1F
100
AcDbEntity
  8
1
100
AcDbLine
 10
37.011008785
 20
20.09970835919991
 30
0.0
 11
37.91601181779999
 21
20.09970835919991
 31
0.0
  0
LINE
  5
883ED
330
1F
100
AcDbEntity
  8
1
100
AcDbLine
 10
37.28689387119999
 20
21.15196065239986
 30
0.0
 11
38.21444452349999
 21
21.15196065239986
 31
0.0
  0
LINE
  5
883EE
330
1F
100
AcDbEntity
  8
1
100
AcDbLine
 10
39.29223262220003
 20
21.7950076970999
 30
0.0
 11
38.39890959060003
 21
21.7950076970999
 31
0.0
  0
LINE
  5
883EF
330
1F
100
AcDbEntity
  8
1
100
AcDbLine
 10
39.33620128760001
 20
21.82070236239987
 30
0.0
 11
38.44542493189999
 21
21.82070236239987
 31
0.0
  0
LINE
  5
883F0
330
1F
100
AcDbEntity
  8
1
100
AcDbLine
 10
9.737534009400008
 20
22.22499999999993
 30
0.0
 11
1.5
 21
22.22499999999993
 31
0.0
  0
LINE
  5
883F1
330
1F
100
AcDbEntity
  8
1
100
AcDbLine
 10
45.20310205610002
 20
18.77933427139989
 30
0.0
 11
45.22865306149998
 21
18.77907952309989
 31
0.0
  0
LINE
  5
883F2
330
1F
100
AcDbEntity
  8
1
100
AcDbLine
 10
39.2648069121
 20
22.00849551559988
 30
0.0
 11
38.5772125772
 21
22.09493040389988
 31
0.0
  0
LINE
  5
883F3
330
1F
100
AcDbEntity
  8
1
100
AcDbLine
 10
39.3512323219
 20
22.3783787574999
 30
0.0
 11
39.65089242090003
 21
22.29659468349986
 31
0.0
  0
LINE
  5
883F4
330
1F
100
AcDbEntity
  8
1
100
AcDbLine
 10
31.78722890500001
 20
24.36888106379992
 30
0.0
 11
24.76131109250002
 21
22.48629205979991
 31
0.0
  0
LINE
  5
883F5
330
1F
100
AcDbEntity
  8
1
100
AcDbLine
 10
22.59743599220002
 20
21.9064834741999
 30
0.0
 11
24.76131109250002
 21
22.48629205979991
 31
0.0
  0
LINE
  5
883F6
330
1F
100
AcDbEntity
  8
1
100
AcDbLine
 10
23.3166633539
 20
22.09902546019988
 30
0.0
 11
23.43048478770001
 21
22.12937473459989
 31
0.0
  0
LINE
  5
883F7
330
1F
100
AcDbEntity
  8
1
100
AcDbLine
 10
32.14927886300002
 20
24.41976386709993
 30
0.0
 11
38.97328287400004
 21
24.5388773001999
 31
0.0
  0
LINE
  5
883F8
330
1F
100
AcDbEntity
  8
1
100
AcDbLine
 10
44.68243834659999
 20
24.84495198079988
 30
0.0
 11
44.12987666430001
 21
24.84495198079988
 31
0.0
  0
LINE
  5
883F9
330
1F
100
AcDbEntity
  8
1
100
AcDbLine
 10
45.40567270540001
 20
25.02847440549989
 30
0.0
 11
44.85457377900003
 21
25.02847440549989
 31
0.0
  0
ARC
  5
883FA
330
1F
100
AcDbEntity
  8
1
100
AcDbCircle
 10
17.4210550901
 20
41.22499999999992
 30
0.0
 40
20.0
100
AcDbArc
 50
259.9999999999998
 51
284.9999999999996
  0
ARC
  5
883FB
330
1F
100
AcDbEntity
  8
1
100
AcDbCircle
 10
9.737534009400008
 20
19.22499999999992
 30
0.0
 40
3.0
100
AcDbArc
 50
79.9999999999998
 51
90.0
  0
ARC
  5
883FC
330
1F
100
AcDbEntity
  8
1
100
AcDbCircle
 10
32.1754574727
 20
22.91999232439987
 30
0.0
 40
1.5
100
AcDbArc
 50
91.00000000000015
 51
104.9999999999995
  0
SPLINE
  5
883FD
330
1F
100
AcDbEntity
  8
1
100
AcDbSpline
210
0.0
220
0.0
230
1.0
 70
     8
 71
     3
 72
    15
 73
    11
 74
     0
 42
0.000000001
 43
0.0000000001
 40
0.0
 40
0.0
 40
0.0
 40
0.0
 40
0.1246319798
 40
0.2493704956
 40
0.3743240854
 40
0.4994808715
 40
0.6247524623
 40
0.7500038154000001
 40
0.8751023577999998
 40
1.0
 40
1.0
 40
1.0
 40
1.0
 10
45.2031020544
 20
18.77934792089992
 30
0.0
 10
45.16787054509999
 20
18.77934336359989
 30
0.0
 10
45.09684663680002
 20
18.76773027079987
 30
0.0
 10
45.00179827150003
 20
18.7172749562999
 30
0.0
 10
44.92754733580002
 20
18.63906651939989
 30
0.0
 10
44.88189057529999
 20
18.54123197839989
 30
0.0
 10
44.86949727330002
 20
18.43390350729989
 30
0.0
 10
44.8916637327
 20
18.32815680869989
 30
0.0
 10
44.94600354080001
 20
18.23499540709987
 30
0.0
 10
45.00028875009996
 20
18.18749189809985
 30
0.0
 10
45.03025616450002
 20
18.16882345799986
 30
0.0
  0
SPLINE
  5
883FE
330
1F
100
AcDbEntity
  8
1
100
AcDbSpline
210
0.0
220
0.0
230
1.0
 70
     8
 71
     3
 72
    11
 73
     7
 74
     0
 42
0.000000001
 43
0.0000000001
 40
0.0
 40
0.0
 40
0.0
 40
0.0
 40
0.2502957087
 40
0.5003447114
 40
0.7502204848999999
 40
1.0
 40
1.0
 40
1.0
 40
1.0
 10
44.28059656470003
 20
20.49047123819987
 30
0.0
 10
44.43771917350001
 20
20.64025270669988
 30
0.0
 10
44.78113615519997
 20
20.9105308841999
 30
0.0
 10
45.3627140786
 20
21.21065606969985
 30
0.0
 10
45.99012655950002
 20
21.39527903929992
 30
0.0
 10
46.42459067240003
 20
21.43678850089988
 30
0.0
 10
46.64121901820002
 20
21.43679237839991
 30
0.0
  0
SPLINE
  5
883FF
330
1F
100
AcDbEntity
  8
1
100
AcDbSpline
210
0.0
220
0.0
230
1.0
 70
     8
 71
     3
 72
    15
 73
    11
 74
     0
 42
0.000000001
 43
0.0000000001
 40
0.0
 40
0.0
 40
0.0
 40
0.0
 40
0.125166986
 40
0.2504123886
 40
0.375675383
 40
0.5008506778
 40
0.6258731463000001
 40
0.7507162053
 40
0.8754020968
 40
1.0
 40
1.0
 40
1.0
 40
1.0
 10
45.29935041360002
 20
17.03941049329985
 30
0.0
 10
45.28435822279996
 20
17.01459221229989
 30
0.0
 10
45.26082621669996
 20
16.96070040319991
 30
0.0
 10
45.24786682479995
 20
16.87367009919985
 30
0.0
 10
45.25795191349999
 20
16.78620234089989
 30
0.0
 10
45.29044042909998
 20
16.70443375619989
 30
0.0
 10
45.34306251540002
 20
16.63403399189987
 30
0.0
 10
45.41219509940001
 20
16.5799145765999
 30
0.0
 10
45.49294976150004
 20
16.54584599289991
 30
0.0
 10
45.55098907180002
 20
16.5380982985999
 30
0.0
 10
45.57985229189996
 20
16.5380954189999
 30
0.0
  0
SPLINE
  5
88400
330
1F
100
AcDbEntity
  8
1
100
AcDbSpline
210
0.0
220
0.0
230
1.0
 70
     8
 71
     3
 72
    11
 73
     7
 74
     0
 42
0.000000001
 43
0.0000000001
 40
0.0
 40
0.0
 40
0.0
 40
0.0
 40
0.2504859563
 40
0.5005933966000004
 40
0.7503892657
 40
1.0
 40
1.0
 40
1.0
 40
1.0
 10
46.84232956539999
 20
16.24693718689987
 30
0.0
 10
46.80731922870001
 20
16.31116988619989
 30
0.0
 10
46.71974985259999
 20
16.43079502199988
 30
0.0
 10
46.54611164869999
 20
16.56863138919989
 30
0.0
 10
46.34244437080003
 20
16.65557329019988
 30
0.0
 10
46.19584301179997
 20
16.67536416199989
 30
0.0
 10
46.12294424029999
 20
16.6753601267999
 30
0.0
  0
SPLINE
  5
88401
330
1F
100
AcDbEntity
  8
1
100
AcDbSpline
210
0.0
220
0.0
230
1.0
 70
     8
 71
     3
 72
    11
 73
     7
 74
     0
 42
0.000000001
 43
0.0000000001
 40
0.0
 40
0.0
 40
0.0
 40
0.0
 40
0.2504935785
 40
0.5005896042
 40
0.7503899451999999
 40
1.0
 40
1.0
 40
1.0
 40
1.0
 10
46.84232956539999
 20
16.24693718689987
 30
0.0
 10
46.85633647949997
 20
16.22123900789991
 30
0.0
 10
46.89136859520002
 20
16.17337961229988
 30
0.0
 10
46.96083977750001
 20
16.1182419853999
 30
0.0
 10
47.0423169982
 20
16.0834530467999
 30
0.0
 10
47.10096829109999
 20
16.07554037029986
 30
0.0
 10
47.1301326202
 20
16.07553870139988
 30
0.0
  0
SPLINE
  5
88402
330
1F
100
AcDbEntity
  8
1
100
AcDbSpline
210
0.0
220
0.0
230
1.0
 70
     8
 71
     3
 72
    15
 73
    11
 74
     0
 42
0.000000001
 43
0.0000000001
 40
0.0
 40
0.0
 40
0.0
 40
0.0
 40
0.1250209474
 40
0.2501187901000001
 40
0.3752638838
 40
0.5003962751
 40
0.6254685447
 40
0.7504422493999999
 40
0.8752831175
 40
1.0
 40
1.0
 40
1.0
 40
1.0
 10
45.29935041360002
 20
17.03941049329985
 30
0.0
 10
45.32703646240004
 20
17.08524236339993
 30
0.0
 10
45.37360289569999
 20
17.18260357319987
 30
0.0
 10
45.41383651029994
 20
17.33920584459987
 30
0.0
 10
45.42312779169995
 20
17.5007327750999
 30
0.0
 10
45.401070175
 20
17.66099147779989
 30
0.0
 10
45.348524276
 20
17.81391324699991
 30
0.0
 10
45.26745134970002
 20
17.95369256499988
 30
0.0
 10
45.16100224300001
 20
18.07498682649988
 30
0.0
 10
45.07559344449997
 20
18.14058023749989
 30
0.0
 10
45.03025616450002
 20
18.16882345799986
 30
0.0
  0
SPLINE
  5
88403
330
1F
100
AcDbEntity
  8
1
100
AcDbSpline
210
0.0
220
0.0
230
1.0
 70
     8
 71
     3
 72
    15
 73
    11
 74
     0
 42
0.000000001
 43
0.0000000001
 40
0.0
 40
0.0
 40
0.0
 40
0.0
 40
0.124687747
 40
0.249398149
 40
0.3742089634
 40
0.4991378462
 40
0.6241979897
 40
0.7493833238
 40
0.8746593125
 40
1.0
 40
1.0
 40
1.0
 40
1.0
 10
45.2286530627
 20
18.7790634318999
 30
0.0
 10
45.28121132259996
 20
18.7790673919999
 30
0.0
 10
45.3866209179
 20
18.78928179779986
 30
0.0
 10
45.53865285859999
 20
18.83471988349988
 30
0.0
 10
45.67928202430002
 20
18.90855203159988
 30
0.0
 10
45.80324153800001
 20
19.00806907329986
 30
0.0
 10
45.90598101470003
 20
19.1295734683999
 30
0.0
 10
45.98369956729999
 20
19.26859992109992
 30
0.0
 10
46.03354542589999
 20
19.41993670089989
 30
0.0
 10
46.04696606700002
 20
19.52549111089992
 30
0.0
 10
46.04859827700003
 20
19.57829937949988
 30
0.0
  0
SPLINE
  5
88404
330
1F
100
AcDbEntity
  8
1
100
AcDbSpline
210
0.0
220
0.0
230
1.0
 70
     8
 71
     3
 72
    23
 73
    19
 74
     0
 42
0.000000001
 43
0.0000000001
 40
0.0
 40
0.0
 40
0.0
 40
0.0
 40
0.0624815365
 40
0.125009786
 40
0.1875836344
 40
0.2501907101
 40
0.3128192477
 40
0.3754545861
 40
0.4380816968
 40
0.5006862211
 40
0.5632557804000001
 40
0.6257810618000002
 40
0.6882566418000004
 40
0.7506814691
 40
0.8130589636999998
 40
0.8753967229999998
 40
0.9377058548
 40
1.0
 40
1.0
 40
1.0
 40
1.0
 10
44.28059656470003
 20
20.49047123819987
 30
0.0
 10
44.15704949689995
 20
20.37269658179993
 30
0.0
 10
43.92707558310002
 20
20.11821570839989
 30
0.0
 10
43.6426725318
 20
19.68977222359992
 30
0.0
 10
43.42455987779998
 20
19.22357340639992
 30
0.0
 10
43.27767778660001
 20
18.73002557319991
 30
0.0
 10
43.20523599
 20
18.22003139319987
 30
0.0
 10
43.20884654579997
 20
17.70487800009989
 30
0.0
 10
43.2884267947
 20
17.19596089789992
 30
0.0
 10
43.44222084689999
 20
16.70454043009989
 30
0.0
 10
43.66682921990002
 20
16.24149114099988
 30
0.0
 10
43.95728664740002
 20
15.81706220839989
 30
0.0
 10
44.30716966109994
 20
15.44065134499989
 30
0.0
 10
44.70874170259996
 20
15.12059652579984
 30
0.0
 10
45.15310569680003
 20
14.86399095489987
 30
0.0
 10
45.63046454330002
 20
14.67652351479991
 30
0.0
 10
46.13009728119997
 20
14.56235571079988
 30
0.0
 10
46.47104190190001
 20
14.5367915195999
 30
0.0
 10
46.64121901810003
 20
14.53679456559986
 30
0.0
  0
SPLINE
  5
88405
330
1F
100
AcDbEntity
  8
1
100
AcDbSpline
210
0.0
220
0.0
230
1.0
 70
     8
 71
     3
 72
    11
 73
     7
 74
     0
 42
0.000000001
 43
0.0000000001
 40
0.0
 40
0.0
 40
0.0
 40
0.0
 40
0.2493775058
 40
0.4991131391
 40
0.7493607763
 40
1.0
 40
1.0
 40
1.0
 40
1.0
 10
46.37663212070001
 20
19.8980482425999
 30
0.0
 10
46.3347726888
 20
19.89805063779989
 30
0.0
 10
46.25010576349999
 20
19.88152303819989
 30
0.0
 10
46.14242100700002
 20
19.8107853298999
 30
0.0
 10
46.06888364259996
 20
19.70475995599987
 30
0.0
 10
46.04989800310002
 20
19.62035051659991
 30
0.0
 10
46.04859827700003
 20
19.57829937949988
 30
0.0
  0
SPLINE
  5
88406
330
1F
100
AcDbEntity
  8
1
100
AcDbSpline
210
0.0
220
0.0
230
1.0
 70
     8
 71
     3
 72
     9
 73
     5
 74
     0
 42
0.000000001
 43
0.0000000001
 40
0.0
 40
0.0
 40
0.0
 40
0.0
 40
0.499821115
 40
1.0
 40
1.0
 40
1.0
 40
1.0
 10
47.38382050060002
 20
19.29822681719987
 30
0.0
 10
47.45099385490003
 20
19.29823053539992
 30
0.0
 10
47.58591041129997
 20
19.3149548457999
 30
0.0
 10
47.71256605499996
 20
19.36434758279991
 30
0.0
 10
47.77172448290001
 20
19.39626939349991
 30
0.0
  0
SPLINE
  5
88407
330
1F
100
AcDbEntity
  8
1
100
AcDbSpline
210
0.0
220
0.0
230
1.0
 70
     8
 71
     3
 72
     9
 73
     5
 74
     0
 42
0.000000001
 43
0.0000000001
 40
0.0
 40
0.0
 40
0.0
 40
0.0
 40
0.4998129734
 40
1.0
 40
1.0
 40
1.0
 40
1.0
 10
47.9269124489
 20
19.43549152509986
 30
0.0
 10
47.90003898970002
 20
19.43549420619986
 30
0.0
 10
47.84606276229999
 20
19.42880047069987
 30
0.0
 10
47.79539225099995
 20
19.40904049029991
 30
0.0
 10
47.77172448290001
 20
19.39626939349991
 30
0.0
  0
SPLINE
  5
88408
330
1F
100
AcDbEntity
  8
1
100
AcDbSpline
210
0.0
220
0.0
230
1.0
 70
     8
 71
     3
 72
    23
 73
    19
 74
     0
 42
0.000000001
 43
0.0000000001
 40
0.0
 40
0.0
 40
0.0
 40
0.0
 40
0.0622941452
 40
0.124603277
 40
0.1869410363
 40
0.2493185309
 40
0.3117433582
 40
0.3742189382
 40
0.4367442196
 40
0.4993137789000003
 40
0.5619183032000003
 40
0.6245454139
 40
0.6871807523000001
 40
0.7498092899
 40
0.8124163656
 40
0.8749902140000001
 40
0.9375184634999998
 40
1.0
 40
1.0
 40
1.0
 40
1.0
 10
46.7115709851
 20
21.43679237839991
 30
0.0
 10
46.88174810130002
 20
21.43679542449993
 30
0.0
 10
47.22269272209999
 20
21.4112312331999
 30
0.0
 10
47.72232545999997
 20
21.29706342919988
 30
0.0
 10
48.19968430650003
 20
21.1095959890999
 30
0.0
 10
48.64404830069998
 20
20.85299041819992
 30
0.0
 10
49.04562034209999
 20
20.53293559899989
 30
0.0
 10
49.39550335580003
 20
20.15652473569987
 30
0.0
 10
49.68596078340002
 20
19.73209580309988
 30
0.0
 10
49.9105691564
 20
19.26904651399986
 30
0.0
 10
50.06436320849996
 20
18.77762604609991
 30
0.0
 10
50.14394345739997
 20
18.26870894389988
 30
0.0
 10
50.14755401330001
 20
17.7535555507999
 30
0.0
 10
50.07511221660003
 20
17.24356137089991
 30
0.0
 10
49.92823012539997
 20
16.7500135376999
 30
0.0
 10
49.7101174714
 20
16.2838147204999
 30
0.0
 10
49.42571442020002
 20
15.85537123559989
 30
0.0
 10
49.1957405064
 20
15.60089036219985
 30
0.0
 10
49.07219343859996
 20
15.48311570589989
 30
0.0
  0
SPLINE
  5
88409
330
1F
100
AcDbEntity
  8
1
100
AcDbSpline
210
0.0
220
0.0
230
1.0
 70
     8
 71
     3
 72
    11
 73
     7
 74
     0
 42
0.000000001
 43
0.0000000001
 40
0.0
 40
0.0
 40
0.0
 40
0.0
 40
0.2497795151
 40
0.4996552886
 40
0.7497042913
 40
1.0
 40
1.0
 40
1.0
 40
1.0
 10
46.7115709851
 20
14.53679456559986
 30
0.0
 10
46.92819933090001
 20
14.53679844319988
 30
0.0
 10
47.36266344379997
 20
14.5783079047999
 30
0.0
 10
47.99007592459997
 20
14.76293087429992
 30
0.0
 10
48.57165384810002
 20
15.06305605979988
 30
0.0
 10
48.91507082980002
 20
15.33333423729989
 30
0.0
 10
49.07219343859996
 20
15.48311570589989
 30
0.0
  0
SPLINE
  5
8840A
330
1F
100
AcDbEntity
  8
1
100
AcDbSpline
210
0.0
220
0.0
230
1.0
 70
     8
 71
     3
 72
    23
 73
    19
 74
     0
 42
0.000000001
 43
0.0000000001
 40
0.0
 40
0.0
 40
0.0
 40
0.0
 40
0.0624815365
 40
0.125009786
 40
0.1875836344
 40
0.2501907101
 40
0.3128192477
 40
0.3754545861
 40
0.4380816968
 40
0.5006862211
 40
0.5632557804000001
 40
0.6257810618000002
 40
0.6882566418000004
 40
0.7506814691
 40
0.8130589636999998
 40
0.8753967229999998
 40
0.9377058548
 40
1.0
 40
1.0
 40
1.0
 40
1.0
 10
44.35094853169997
 20
20.49047123819987
 30
0.0
 10
44.22740146380002
 20
20.37269658179993
 30
0.0
 10
43.99742755009996
 20
20.11821570839989
 30
0.0
 10
43.71302449879999
 20
19.68977222359992
 30
0.0
 10
43.49491184479999
 20
19.22357340639992
 30
0.0
 10
43.34802975359997
 20
18.73002557319991
 30
0.0
 10
43.27558795700002
 20
18.22003139319987
 30
0.0
 10
43.27919851279999
 20
17.70487800009989
 30
0.0
 10
43.35877876169999
 20
17.19596089789992
 30
0.0
 10
43.51257281380003
 20
16.70454043009989
 30
0.0
 10
43.7371811868
 20
16.24149114099988
 30
0.0
 10
44.02763861439999
 20
15.81706220839989
 30
0.0
 10
44.37752162809998
 20
15.44065134499989
 30
0.0
 10
44.7790936695
 20
15.12059652579984
 30
0.0
 10
45.22345766369999
 20
14.86399095489987
 30
0.0
 10
45.7008165102
 20
14.67652351479991
 30
0.0
 10
46.20044924820001
 20
14.56235571079988
 30
0.0
 10
46.5413938689
 20
14.5367915195999
 30
0.0
 10
46.7115709851
 20
14.53679456559986
 30
0.0
  0
SPLINE
  5
8840B
330
1F
100
AcDbEntity
  8
1
100
AcDbSpline
210
0.0
220
0.0
230
1.0
 70
     8
 71
     3
 72
    11
 73
     7
 74
     0
 42
0.000000001
 43
0.0000000001
 40
0.0
 40
0.0
 40
0.0
 40
0.0
 40
0.2502957087
 40
0.5003447114
 40
0.7502204848999999
 40
1.0
 40
1.0
 40
1.0
 40
1.0
 10
44.35094853169997
 20
20.49047123819987
 30
0.0
 10
44.50807114039998
 20
20.64025270669988
 30
0.0
 10
44.85148812220001
 20
20.9105308841999
 30
0.0
 10
45.4330660456
 20
21.21065606969985
 30
0.0
 10
46.06047852650003
 20
21.39527903929992
 30
0.0
 10
46.49494263939999
 20
21.43678850089988
 30
0.0
 10
46.7115709851
 20
21.43679237839991
 30
0.0
  0
SPLINE
  5
8840C
330
1F
100
AcDbEntity
  8
1
100
AcDbSpline
210
0.0
220
0.0
230
1.0
 70
     8
 71
     3
 72
    27
 73
    23
 74
     0
 42
0.000000001
 43
0.0000000001
 40
0.0
 40
0.0
 40
0.0
 40
0.0
 40
0.0625074728
 40
0.0938203153
 40
0.1251494236
 40
0.1877681189
 40
0.2504154853
 40
0.2817794735
 40
0.31314113
 40
0.3757697751
 40
0.4383537825000002
 40
0.500877437
 40
0.5633342347000001
 40
0.6257278561000002
 40
0.6880715559999999
 40
0.7192690352
 40
0.7504622803000001
 40
0.8127734918999999
 40
0.8751071954
 40
0.9063274461
 40
0.9375594031
 40
1.0
 40
1.0
 40
1.0
 40
1.0
 10
45.14473172990004
 20
19.69292942619991
 30
0.0
 10
45.03379275
 20
19.58717377809985
 30
0.0
 10
44.8823878771
 20
19.41139678319992
 30
0.0
 10
44.71816928339999
 20
19.15175047449993
 30
0.0
 10
44.57987758319999
 20
18.87700049789988
 30
0.0
 10
44.4584026348
 20
18.51000742679993
 30
0.0
 10
44.4105976668
 20
18.12630929349985
 30
0.0
 10
44.41748818829998
 20
17.81853970459987
 30
0.0
 10
44.45428644040001
 20
17.5129545825999
 30
0.0
 10
44.5560239225
 20
17.13999693399985
 30
0.0
 10
44.76249795199999
 20
16.72534021979989
 30
0.0
 10
45.04547870689997
 20
16.3590326967999
 30
0.0
 10
45.3941469677
 20
16.05527719439989
 30
0.0
 10
45.79499441430002
 20
15.82573709209988
 30
0.0
 10
46.16016516450002
 20
15.70359362979987
 30
0.0
 10
46.46178035579999
 20
15.6503395445999
 30
0.0
 10
46.76709889380001
 20
15.62701343259989
 30
0.0
 10
47.15087750909996
 20
15.65459239009989
 30
0.0
 10
47.52180662599999
 20
15.75705247409992
 30
0.0
 10
47.80194297479999
 20
15.88124131339988
 30
0.0
 10
48.06869266750002
 20
16.03238901189986
 30
0.0
 10
48.2512127232
 20
16.17501501629989
 30
0.0
 10
48.36203301090002
 20
16.28065751779987
 30
0.0
  0
SPLINE
  5
8840D
330
1F
100
AcDbEntity
  8
1
100
AcDbSpline
210
0.0
220
0.0
230
1.0
 70
     8
 71
     3
 72
    15
 73
    11
 74
     0
 42
0.000000001
 43
0.0000000001
 40
0.0
 40
0.0
 40
0.0
 40
0.0
 40
0.1250209474
 40
0.2501187901000001
 40
0.3752638838
 40
0.5003962751
 40
0.6254685447
 40
0.7504422493999999
 40
0.8752831175
 40
1.0
 40
1.0
 40
1.0
 40
1.0
 10
48.20741432720001
 20
18.93417645069992
 30
0.0
 10
48.17972827840002
 20
18.88834458069989
 30
0.0
 10
48.1331618451
 20
18.79098337089989
 30
0.0
 10
48.09292823049997
 20
18.63438109949989
 30
0.0
 10
48.08363694909997
 20
18.47285416899986
 30
0.0
 10
48.10569456580004
 20
18.31259546629992
 30
0.0
 10
48.15824046479995
 20
18.15967369699992
 30
0.0
 10
48.23931339109996
 20
18.01989437909988
 30
0.0
 10
48.34576249790001
 20
17.89860011749989
 30
0.0
 10
48.43117129630002
 20
17.83300670659987
 30
0.0
 10
48.47650857629997
 20
17.80476348599985
 30
0.0
  0
SPLINE
  5
8840E
330
1F
100
AcDbEntity
  8
1
100
AcDbSpline
210
0.0
220
0.0
230
1.0
 70
     8
 71
     3
 72
     9
 73
     5
 74
     0
 42
0.000000001
 43
0.0000000001
 40
0.0
 40
0.0
 40
0.0
 40
0.0
 40
0.5005321124000001
 40
1.0
 40
1.0
 40
1.0
 40
1.0
 10
46.47628394149999
 20
19.7266497570999
 30
0.0
 10
46.45596626209999
 20
19.76392615929991
 30
0.0
 10
46.40034547189997
 20
19.83115852139987
 30
0.0
 10
46.32319064939998
 20
19.87196837669985
 30
0.0
 10
46.28262466119998
 20
19.88417832299991
 30
0.0
  0
SPLINE
  5
8840F
330
1F
100
AcDbEntity
  8
1
100
AcDbSpline
210
0.0
220
0.0
230
1.0
 70
     8
 71
     3
 72
    11
 73
     7
 74
     0
 42
0.000000001
 43
0.0000000001
 40
0.0
 40
0.0
 40
0.0
 40
0.0
 40
0.2496127695
 40
0.4994091955
 40
0.7495097544
 40
1.0
 40
1.0
 40
1.0
 40
1.0
 10
47.19566926689997
 20
19.29823033169988
 30
0.0
 10
47.12276995699999
 20
19.2982291865999
 30
0.0
 10
46.9761661359
 20
19.31800716979991
 30
0.0
 10
46.7725045156
 20
19.40496140479992
 30
0.0
 10
46.59886269779994
 20
19.54278981669991
 30
0.0
 10
46.51129485080002
 20
19.6624160073999
 30
0.0
 10
46.47628394149999
 20
19.7266497570999
 30
0.0
  0
SPLINE
  5
88410
330
1F
100
AcDbEntity
  8
1
100
AcDbSpline
210
0.0
220
0.0
230
1.0
 70
     8
 71
     3
 72
    15
 73
    11
 74
     0
 42
0.000000001
 43
0.0000000001
 40
0.0
 40
0.0
 40
0.0
 40
0.0
 40
0.125083882
 40
0.2502676605
 40
0.3754718748
 40
0.5006365208
 40
0.6256963814000001
 40
0.7506124061000003
 40
0.8753736452
 40
1.0
 40
1.0
 40
1.0
 40
1.0
 10
48.01926309330003
 20
18.93417645069992
 30
0.0
 10
48.03220125550001
 20
18.95559446429992
 30
0.0
 10
48.05327187119996
 20
19.0015725709999
 30
0.0
 10
48.0684876926
 20
19.07575805839993
 30
0.0
 10
48.06663349080003
 20
19.15151774399989
 30
0.0
 10
48.04778580720003
 20
19.22488524799986
 30
0.0
 10
48.01292244040002
 20
19.29207260339991
 30
0.0
 10
47.96383276750001
 20
19.34959808589993
 30
0.0
 10
47.9031045417
 20
19.39446250719989
 30
0.0
 10
47.8568170308
 20
19.41441776599988
 30
0.0
 10
47.83294621369996
 20
19.42161077399989
 30
0.0
  0
SPLINE
  5
88411
330
1F
100
AcDbEntity
  8
1
100
AcDbSpline
210
0.0
220
0.0
230
1.0
 70
     8
 71
     3
 72
    15
 73
    11
 74
     0
 42
0.000000001
 43
0.0000000001
 40
0.0
 40
0.0
 40
0.0
 40
0.0
 40
0.1247131547
 40
0.2495590043
 40
0.3745310196
 40
0.499603722
 40
0.6247365494000002
 40
0.7498799493000004
 40
0.8749827895999999
 40
1.0
 40
1.0
 40
1.0
 40
1.0
 10
48.28835734239999
 20
17.80476348599985
 30
0.0
 10
48.2430213662
 20
17.83300589439989
 30
0.0
 10
48.1576131676
 20
17.89860071659991
 30
0.0
 10
48.05116011290002
 20
18.01989170459991
 30
0.0
 10
47.97008854740002
 20
18.15967396409992
 30
0.0
 10
47.91754043419999
 20
18.31259477139987
 30
0.0
 10
47.8954852264
 20
18.4728536137999
 30
0.0
 10
47.9047739703
 20
18.63438255999991
 30
0.0
 10
47.9450125773
 20
18.79098369869986
 30
0.0
 10
47.9915778407
 20
18.88834589869988
 30
0.0
 10
48.01926309330003
 20
18.93417645069992
 30
0.0
  0
SPLINE
  5
88412
330
1F
100
AcDbEntity
  8
1
100
AcDbSpline
210
0.0
220
0.0
230
1.0
 70
     8
 71
     3
 72
    15
 73
    11
 74
     0
 42
0.000000001
 43
0.0000000001
 40
0.0
 40
0.0
 40
0.0
 40
0.0
 40
0.125166986
 40
0.2504123886
 40
0.375675383
 40
0.5008506778
 40
0.6258731463000001
 40
0.7507162053
 40
0.8754020968
 40
1.0
 40
1.0
 40
1.0
 40
1.0
 10
48.20741432720001
 20
18.93417645069992
 30
0.0
 10
48.22240651800001
 20
18.95899473179987
 30
0.0
 10
48.24593852409996
 20
19.01288654079987
 30
0.0
 10
48.25889791599999
 20
19.09991684479992
 30
0.0
 10
48.24881282729999
 20
19.18738460319987
 30
0.0
 10
48.2163243118
 20
19.26915318789993
 30
0.0
 10
48.16370222540001
 20
19.33955295209989
 30
0.0
 10
48.0945696414
 20
19.39367236749992
 30
0.0
 10
48.01381497939999
 20
19.42774095109992
 30
0.0
 10
47.95577566909996
 20
19.43548864539993
 30
0.0
 10
47.9269124489
 20
19.43549152509986
 30
0.0
  0
SPLINE
  5
88413
330
1F
100
AcDbEntity
  8
1
100
AcDbSpline
210
0.0
220
0.0
230
1.0
 70
     8
 71
     3
 72
    15
 73
    11
 74
     0
 42
0.000000001
 43
0.0000000001
 40
0.0
 40
0.0
 40
0.0
 40
0.0
 40
0.1253359462
 40
0.250617198
 40
0.3757998060999999
 40
0.5008600919
 40
0.6257885647000001
 40
0.7505981798
 40
0.8753097770999998
 40
1.0
 40
1.0
 40
1.0
 40
1.0
 10
47.27001523000001
 20
16.39528756459988
 30
0.0
 10
47.27164738009996
 20
16.44809389479987
 30
0.0
 10
47.28506974340001
 20
16.55364812249992
 30
0.0
 10
47.33490998040003
 20
16.70498612389987
 30
0.0
 10
47.41263179769997
 20
16.8440123587999
 30
0.0
 10
47.5153681264
 20
16.96551780649987
 30
0.0
 10
47.63932802400003
 20
17.06503387649987
 30
0.0
 10
47.779956259
 20
17.13886748619991
 30
0.0
 10
47.93198991229999
 20
17.18430538769992
 30
0.0
 10
48.03740109400003
 20
17.19451800309987
 30
0.0
 10
48.08996045639997
 20
17.19452326969987
 30
0.0
  0
SPLINE
  5
88414
330
1F
100
AcDbEntity
  8
1
100
AcDbSpline
210
0.0
220
0.0
230
1.0
 70
     8
 71
     3
 72
    11
 73
     7
 74
     0
 42
0.000000001
 43
0.0000000001
 40
0.0
 40
0.0
 40
0.0
 40
0.0
 40
0.2504859563
 40
0.5005933966000004
 40
0.7503892657
 40
1.0
 40
1.0
 40
1.0
 40
1.0
 10
46.6644351754
 20
19.7266497570999
 30
0.0
 10
46.6994455121
 20
19.66241705779988
 30
0.0
 10
46.78701488820002
 20
19.54279192209988
 30
0.0
 10
46.96065309209996
 20
19.40495555479988
 30
0.0
 10
47.16432037000001
 20
19.31801365379989
 30
0.0
 10
47.31092172900003
 20
19.29822278199988
 30
0.0
 10
47.38382050060002
 20
19.29822681719987
 30
0.0
  0
SPLINE
  5
88415
330
1F
100
AcDbEntity
  8
1
100
AcDbSpline
210
0.0
220
0.0
230
1.0
 70
     8
 71
     3
 72
     9
 73
     5
 74
     0
 42
0.000000001
 43
0.0000000001
 40
0.0
 40
0.0
 40
0.0
 40
0.0
 40
0.5001875763000001
 40
1.0
 40
1.0
 40
1.0
 40
1.0
 10
45.54688902410001
 20
16.57731755059986
 30
0.0
 10
45.60604843779997
 20
16.60923989309988
 30
0.0
 10
45.7327035788
 20
16.65863388809988
 30
0.0
 10
45.86762086759995
 20
16.67535555719986
 30
0.0
 10
45.93479300610002
 20
16.67535661239988
 30
0.0
  0
SPLINE
  5
88416
330
1F
100
AcDbEntity
  8
1
100
AcDbSpline
210
0.0
220
0.0
230
1.0
 70
     8
 71
     3
 72
    15
 73
    11
 74
     0
 42
0.000000001
 43
0.0000000001
 40
0.0
 40
0.0
 40
0.0
 40
0.0
 40
0.1246319798
 40
0.2493704956
 40
0.3743240854
 40
0.4994808715
 40
0.6247524623
 40
0.7500038154000001
 40
0.8751023577999998
 40
1.0
 40
1.0
 40
1.0
 40
1.0
 10
48.30366268650003
 20
17.19423902309985
 30
0.0
 10
48.33889419580003
 20
17.19424358039988
 30
0.0
 10
48.40991810400003
 20
17.20585667329989
 30
0.0
 10
48.5049664693
 20
17.25631198769993
 30
0.0
 10
48.57921740500001
 20
17.33452042459989
 30
0.0
 10
48.62487416549999
 20
17.43235496559988
 30
0.0
 10
48.63726746760001
 20
17.53968343669989
 30
0.0
 10
48.61510100820003
 20
17.64543013529989
 30
0.0
 10
48.56076120009999
 20
17.73859153699989
 30
0.0
 10
48.50647599069997
 20
17.78609504599986
 30
0.0
 10
48.47650857629997
 20
17.80476348599985
 30
0.0
  0
SPLINE
  5
88417
330
1F
100
AcDbEntity
  8
1
100
AcDbSpline
210
0.0
220
0.0
230
1.0
 70
     8
 71
     3
 72
    15
 73
    11
 74
     0
 42
0.000000001
 43
0.0000000001
 40
0.0
 40
0.0
 40
0.0
 40
0.0
 40
0.1246497633
 40
0.249392428
 40
0.3743526624
 40
0.4995113989
 40
0.6247782701000001
 40
0.750021851
 40
0.875107298
 40
1.0
 40
1.0
 40
1.0
 40
1.0
 10
48.12451325400002
 20
17.1943651312999
 30
0.0
 10
48.15936702650003
 20
17.19533477049988
 30
0.0
 10
48.22930230439999
 20
17.20862962209988
 30
0.0
 10
48.32218530409999
 20
17.26063764509986
 30
0.0
 10
48.3941623402
 20
17.3393701735999
 30
0.0
 10
48.43782327759999
 20
17.43683032259986
 30
0.0
 10
48.448823218
 20
17.54313047059987
 30
0.0
 10
48.4259953014
 20
17.64753069669986
 30
0.0
 10
48.37178093330003
 20
17.73940203239989
 30
0.0
 10
48.3180095253
 20
17.78629142199993
 30
0.0
 10
48.28835734239999
 20
17.80476348599985
 30
0.0
  0
SPLINE
  5
88418
330
1F
100
AcDbEntity
  8
1
100
AcDbSpline
210
0.0
220
0.0
230
1.0
 70
     8
 71
     3
 72
    15
 73
    11
 74
     0
 42
0.000000001
 43
0.0000000001
 40
0.0
 40
0.0
 40
0.0
 40
0.0
 40
0.124687747
 40
0.249398149
 40
0.3742089634
 40
0.4991378462
 40
0.6241979897
 40
0.7493833238
 40
0.8746593125
 40
1.0
 40
1.0
 40
1.0
 40
1.0
 10
48.27811167810003
 20
17.19452351219986
 30
0.0
 10
48.22555341830003
 20
17.19451955199993
 30
0.0
 10
48.12014382289999
 20
17.1843051462999
 30
0.0
 10
47.96811188220002
 20
17.13886706049989
 30
0.0
 10
47.8274827166
 20
17.06503491239989
 30
0.0
 10
47.70352320279998
 20
16.96551787069991
 30
0.0
 10
47.60078372619999
 20
16.84401347569992
 30
0.0
 10
47.5230651736
 20
16.70498702289991
 30
0.0
 10
47.47321931490003
 20
16.55365024309988
 30
0.0
 10
47.45979867389999
 20
16.44809583309985
 30
0.0
 10
47.45816646389999
 20
16.39528756459988
 30
0.0
  0
SPLINE
  5
88419
330
1F
100
AcDbEntity
  8
1
100
AcDbSpline
210
0.0
220
0.0
230
1.0
 70
     8
 71
     3
 72
    11
 73
     7
 74
     0
 42
0.000000001
 43
0.0000000001
 40
0.0
 40
0.0
 40
0.0
 40
0.0
 40
0.2504935785
 40
0.5005896042
 40
0.7503899451999999
 40
1.0
 40
1.0
 40
1.0
 40
1.0
 10
46.6644351754
 20
19.7266497570999
 30
0.0
 10
46.65042826130002
 20
19.75234793609992
 30
0.0
 10
46.61539614569999
 20
19.80020733179988
 30
0.0
 10
46.54592496340001
 20
19.85534495869991
 30
0.0
 10
46.4644477427
 20
19.89013389719987
 30
0.0
 10
46.40579644979999
 20
19.8980465737999
 30
0.0
 10
46.37663212070001
 20
19.8980482425999
 30
0.0
  0
SPLINE
  5
8841A
330
1F
100
AcDbEntity
  8
1
100
AcDbSpline
210
0.0
220
0.0
230
1.0
 70
     8
 71
     3
 72
    11
 73
     7
 74
     0
 42
0.000000001
 43
0.0000000001
 40
0.0
 40
0.0
 40
0.0
 40
0.0
 40
0.2493775058
 40
0.4991131391
 40
0.7493607763
 40
1.0
 40
1.0
 40
1.0
 40
1.0
 10
47.1301326202
 20
16.07553870139988
 30
0.0
 10
47.1719920521
 20
16.07553630619988
 30
0.0
 10
47.25665897740003
 20
16.09206390579989
 30
0.0
 10
47.36434373380001
 20
16.16280161409988
 30
0.0
 10
47.43788109830004
 20
16.26882698809989
 30
0.0
 10
47.4568667377
 20
16.35323642739986
 30
0.0
 10
47.45816646389999
 20
16.39528756459988
 30
0.0
  0
SPLINE
  5
8841B
330
1F
100
AcDbEntity
  8
1
100
AcDbSpline
210
0.0
220
0.0
230
1.0
 70
     8
 71
     3
 72
    11
 73
     7
 74
     0
 42
0.000000001
 43
0.0000000001
 40
0.0
 40
0.0
 40
0.0
 40
0.0
 40
0.2494335363
 40
0.4992645071
 40
0.7494786777
 40
1.0
 40
1.0
 40
1.0
 40
1.0
 10
47.03610709499996
 20
16.08940339269988
 30
0.0
 10
47.0687141434
 20
16.09921540109992
 30
0.0
 10
47.13131204970003
 20
16.12936517789991
 30
0.0
 10
47.20644662400002
 20
16.20117716849991
 30
0.0
 10
47.25610755229999
 20
16.29263906969988
 30
0.0
 10
47.26895867749997
 20
16.36110402989989
 30
0.0
 10
47.27001523000001
 20
16.39528756459988
 30
0.0
  0
SPLINE
  5
8841C
330
1F
100
AcDbEntity
  8
1
100
AcDbSpline
210
0.0
220
0.0
230
1.0
 70
     8
 71
     3
 72
     9
 73
     5
 74
     0
 42
0.000000001
 43
0.0000000001
 40
0.0
 40
0.0
 40
0.0
 40
0.0
 40
0.499821115
 40
1.0
 40
1.0
 40
1.0
 40
1.0
 10
46.12294424029999
 20
16.6753601267999
 30
0.0
 10
46.05577088590002
 20
16.67535640859991
 30
0.0
 10
45.92085432949999
 20
16.65863209829986
 30
0.0
 10
45.79419868580004
 20
16.60923936119987
 30
0.0
 10
45.73504025800001
 20
16.57731755059986
 30
0.0
  0
SPLINE
  5
8841D
330
1F
100
AcDbEntity
  8
1
100
AcDbSpline
210
0.0
220
0.0
230
1.0
 70
     8
 71
     3
 72
    27
 73
    23
 74
     0
 42
0.000000001
 43
0.0000000001
 40
0.0
 40
0.0
 40
0.0
 40
0.0
 40
0.0624405969
 40
0.0936725539
 40
0.1248928046
 40
0.1872265081
 40
0.2495377197
 40
0.2807309648
 40
0.3119284439999999
 40
0.3742721439
 40
0.4366657653
 40
0.499122563
 40
0.5616462175
 40
0.6242302249
 40
0.68685887
 40
0.7182205265000004
 40
0.7495845147
 40
0.8122318810999999
 40
0.8748505763999999
 40
0.9061796847
 40
0.9374925272
 40
1.0
 40
1.0
 40
1.0
 40
1.0
 10
45.14473172990004
 20
19.69292942619991
 30
0.0
 10
45.25555201769996
 20
19.79857192779987
 30
0.0
 10
45.43807207340001
 20
19.94119793209991
 30
0.0
 10
45.70482176610002
 20
20.09234563059989
 30
0.0
 10
45.98495811490002
 20
20.21653446989986
 30
0.0
 10
46.3558872318
 20
20.31899455389988
 30
0.0
 10
46.73966584700003
 20
20.34657351139988
 30
0.0
 10
47.04498438509995
 20
20.32324739939987
 30
0.0
 10
47.34659957629997
 20
20.26999331419991
 30
0.0
 10
47.71177032649999
 20
20.14784985189989
 30
0.0
 10
48.11261777310003
 20
19.91830974969987
 30
0.0
 10
48.46128603389999
 20
19.61455424719988
 30
0.0
 10
48.74426678880002
 20
19.24824672419989
 30
0.0
 10
48.95074081840002
 20
18.83359001009985
 30
0.0
 10
49.05247830040003
 20
18.46063236139987
 30
0.0
 10
49.0892765525
 20
18.1550472393999
 30
0.0
 10
49.09616707410001
 20
17.84727765049992
 30
0.0
 10
49.04836210610003
 20
17.46357951729989
 30
0.0
 10
48.92688715759999
 20
17.09658644609989
 30
0.0
 10
48.78859545740002
 20
16.8218364694999
 30
0.0
 10
48.62437686369998
 20
16.56219016079986
 30
0.0
 10
48.47297199080003
 20
16.38641316599991
 30
0.0
 10
48.36203301090002
 20
16.28065751779987
 30
0.0
  0
SPLINE
  5
8841E
330
1F
100
AcDbEntity
  8
1
100
AcDbSpline
210
0.0
220
0.0
230
1.0
 70
     8
 71
     3
 72
     9
 73
     5
 74
     0
 42
0.000000001
 43
0.0000000001
 40
0.0
 40
0.0
 40
0.0
 40
0.0
 40
0.4998129734
 40
1.0
 40
1.0
 40
1.0
 40
1.0
 10
45.57985229189996
 20
16.5380954189999
 30
0.0
 10
45.60672575109999
 20
16.5380927378999
 30
0.0
 10
45.66070197859999
 20
16.54478647329991
 30
0.0
 10
45.7113724898
 20
16.56454645369986
 30
0.0
 10
45.73504025800001
 20
16.57731755059986
 30
0.0
  0
SPLINE
  5
8841F
330
1F
100
AcDbEntity
  8
1
100
AcDbSpline
210
0.0
220
0.0
230
1.0
 70
     8
 71
     3
 72
     8
 73
     4
 74
     0
 42
0.000000001
 43
0.0000000001
 40
0.0
 40
0.0
 40
0.0
 40
0.0
 40
1.0
 40
1.0
 40
1.0
 40
1.0
 10
45.48565519070002
 20
16.55190761979987
 30
0.0
 10
45.50681803330003
 20
16.55827117699989
 30
0.0
 10
45.52744083279995
 20
16.56682333189987
 30
0.0
 10
45.54688902410001
 20
16.57731755059986
 30
0.0
  0
SPLINE
  5
88420
330
1F
100
AcDbEntity
  8
1
100
AcDbSpline
210
0.0
220
0.0
230
1.0
 70
     8
 71
     3
 72
     9
 73
     5
 74
     0
 42
0.000000001
 43
0.0000000001
 40
0.0
 40
0.0
 40
0.0
 40
0.0
 40
0.2522341359
 40
1.0
 40
1.0
 40
1.0
 40
1.0
 10
53.975
 20
23.97110906259987
 30
0.0
 10
53.9741048559
 20
23.8634204638999
 30
0.0
 10
53.9697380318
 20
23.43648868109989
 30
0.0
 10
53.96206691089997
 20
23.00959020969988
 30
0.0
 10
53.95441085750002
 20
22.69042055519988
 30
0.0
  0
SPLINE
  5
88421
330
1F
100
AcDbEntity
  8
1
100
AcDbSpline
210
0.0
220
0.0
230
1.0
 70
     8
 71
     3
 72
    15
 73
    11
 74
     0
 42
0.000000001
 43
0.0000000001
 40
0.0
 40
0.0
 40
0.0
 40
0.0
 40
0.1258924535
 40
0.2515401712
 40
0.3767876565999999
 40
0.5015666941
 40
0.6260387418
 40
0.7504306982
 40
0.8750014558
 40
1.0
 40
1.0
 40
1.0
 40
1.0
 10
53.975
 20
23.97110906259987
 30
0.0
 10
53.9754176929
 20
24.02135880979991
 30
0.0
 10
53.96679705290001
 20
24.12210093939993
 30
0.0
 10
53.9257756785
 20
24.26768626039991
 30
0.0
 10
53.8584281369
 20
24.40267149959989
 30
0.0
 10
53.76721760169999
 20
24.52223490819992
 30
0.0
 10
53.6552712098
 20
24.6221534060999
 30
0.0
 10
53.52639670569999
 20
24.69888905439991
 30
0.0
 10
53.38507971560003
 20
24.74964026429991
 30
0.0
 10
53.28589068549999
 20
24.7648332557999
 30
0.0
 10
53.23607515029999
 20
24.7676422416999
 30
0.0
  0
SPLINE
  5
88422
330
1F
100
AcDbEntity
  8
1
100
AcDbSpline
210
0.0
220
0.0
230
1.0
 70
     8
 71
     3
 72
     9
 73
     5
 74
     0
 42
0.000000001
 43
0.0000000001
 40
0.0
 40
0.0
 40
0.0
 40
0.0
 40
0.2501259225
 40
1.0
 40
1.0
 40
1.0
 40
1.0
 10
51.9538434035
 20
24.83900881629991
 30
0.0
 10
52.06075414169998
 20
24.83313576879989
 30
0.0
 10
52.48817752919999
 20
24.80957767169988
 30
0.0
 10
52.91558407869995
 20
24.78571401199993
 30
0.0
 10
53.23607515029999
 20
24.7676422416999
 30
0.0
  0
SPLINE
  5
88423
330
1F
100
AcDbEntity
  8
1
100
AcDbSpline
210
0.0
220
0.0
230
1.0
 70
     8
 71
     3
 72
     9
 73
     5
 74
     0
 42
0.000000001
 43
0.0000000001
 40
0.0
 40
0.0
 40
0.0
 40
0.0
 40
0.2480569001
 40
1.0
 40
1.0
 40
1.0
 40
1.0
 10
45.45120954380002
 20
25.02781848999993
 30
0.0
 10
45.98448987830002
 20
25.01246934159992
 30
0.0
 10
48.13432254550001
 20
24.9506607609999
 30
0.0
 10
50.2841387534
 20
24.88828084429993
 30
0.0
 10
51.90067432529996
 20
24.84124195189988
 30
0.0
  0
SPLINE
  5
88424
330
1F
100
AcDbEntity
  8
1
100
AcDbSpline
210
0.0
220
0.0
230
1.0
 70
     8
 71
     3
 72
    11
 73
     7
 74
     0
 42
0.000000001
 43
0.0000000001
 40
0.0
 40
0.0
 40
0.0
 40
0.0
 40
0.1243927804
 40
0.2489616172
 40
0.4986709456
 40
1.0
 40
1.0
 40
1.0
 40
1.0
 10
44.12987666430001
 20
24.84495198079988
 30
0.0
 10
44.0428949545
 20
24.79894153409988
 30
0.0
 10
43.868680137
 20
24.7070982829999
 30
0.0
 10
43.51993426310002
 20
24.52274418179992
 30
0.0
 10
42.90769459419997
 20
24.19881922499995
 30
0.0
 10
42.38284727790002
 20
23.92042665239985
 30
0.0
 10
42.03260965840001
 20
23.73439691649988
 30
0.0
  0
LINE
  5
88425
330
1F
100
AcDbEntity
  8
1
100
AcDbLine
 10
38.88531855250001
 20
22.05620042309989
 30
0.0
 11
38.44542493189999
 21
21.82070236239987
 31
0.0
  0
SPLINE
  5
88426
330
1F
100
AcDbEntity
  8
1
100
AcDbSpline
210
0.0
220
0.0
230
1.0
 70
     8
 71
     3
 72
     9
 73
     5
 74
     0
 42
0.000000001
 43
0.0000000001
 40
0.0
 40
0.0
 40
0.0
 40
0.0
 40
0.2498038891
 40
1.0
 40
1.0
 40
1.0
 40
1.0
 10
38.39890959060003
 20
21.7950076970999
 30
0.0
 10
38.30596726970004
 20
21.74206629039993
 30
0.0
 10
37.93425460380003
 20
21.52952327279988
 30
0.0
 10
37.56391413110001
 20
21.31458003169986
 30
0.0
 10
37.28689387119999
 20
21.15196065239986
 30
0.0
  0
SPLINE
  5
88427
330
1F
100
AcDbEntity
  8
1
100
AcDbSpline
210
0.0
220
0.0
230
1.0
 70
     8
 71
     3
 72
     9
 73
     5
 74
     0
 42
0.000000001
 43
0.0000000001
 40
0.0
 40
0.0
 40
0.0
 40
0.0
 40
0.5004301092
 40
1.0
 40
1.0
 40
1.0
 40
1.0
 10
37.28689387119999
 20
21.15196065239986
 30
0.0
 10
37.24297752500002
 20
21.12618041169988
 30
0.0
 10
37.1600672184
 20
21.06591592869991
 30
0.0
 10
37.09052127110002
 20
20.99063036029988
 30
0.0
 10
37.05981239509998
 20
20.95011711009989
 30
0.0
  0
SPLINE
  5
88428
330
1F
100
AcDbEntity
  8
1
100
AcDbSpline
210
0.0
220
0.0
230
1.0
 70
     8
 71
     3
 72
     9
 73
     5
 74
     0
 42
0.000000001
 43
0.0000000001
 40
0.0
 40
0.0
 40
0.0
 40
0.0
 40
0.2515004559
 40
1.0
 40
1.0
 40
1.0
 40
1.0
 10
37.02202458439999
 20
20.03453734589989
 30
0.0
 10
37.06762734770001
 20
19.94607292699989
 30
0.0
 10
37.24950027880004
 20
19.59461026729987
 30
0.0
 10
37.4335890678
 20
19.24429404599989
 30
0.0
 10
37.57264312960001
 20
18.98275747989989
 30
0.0
  0
SPLINE
  5
88429
330
1F
100
AcDbEntity
  8
1
100
AcDbSpline
210
0.0
220
0.0
230
1.0
 70
     8
 71
     3
 72
    15
 73
    11
 74
     0
 42
0.000000001
 43
0.0000000001
 40
0.0
 40
0.0
 40
0.0
 40
0.0
 40
0.0306359217
 40
0.0613061577
 40
0.1228067265
 40
0.2463734984
 40
0.370617462
 40
0.4954753158
 40
0.7468074912000004
 40
1.0
 40
1.0
 40
1.0
 40
1.0
 10
53.42988868449999
 20
15.57763485249991
 30
0.0
 10
53.40093155189999
 20
15.52727521209989
 30
0.0
 10
53.3432596616
 20
15.42634179659991
 30
0.0
 10
53.22738058240004
 20
15.22435709799988
 30
0.0
 10
53.02368174499997
 20
14.86960087999991
 30
0.0
 10
52.73093210310003
 20
14.36137476329988
 30
0.0
 10
52.37731811319997
 20
13.74956608729987
 30
0.0
 10
51.90128767950003
 20
12.92869074719989
 30
0.0
 10
51.30054689060003
 20
11.89748800389988
 30
0.0
 10
50.81701997590002
 20
11.07200311459986
 30
0.0
 10
50.57392767079999
 20
10.65799580179987
 30
0.0
  0
SPLINE
  5
8842A
330
1F
100
AcDbEntity
  8
1
100
AcDbSpline
210
0.0
220
0.0
230
1.0
 70
     8
 71
     3
 72
    10
 73
     6
 74
     0
 42
0.000000001
 43
0.0000000001
 40
0.0
 40
0.0
 40
0.0
 40
0.0
 40
0.2505092191
 40
0.5018287925
 40
1.0
 40
1.0
 40
1.0
 40
1.0
 10
44.85457283759997
 20
25.02847395009985
 30
0.0
 10
44.79162095770003
 20
25.02847325249993
 30
0.0
 10
44.66533634040001
 20
25.02041144609993
 30
0.0
 10
44.41815386790003
 20
24.97276025189993
 30
0.0
 10
44.24053688799999
 20
24.90348757789992
 30
0.0
 10
44.12987666430001
 20
24.84495198079988
 30
0.0
  0
SPLINE
  5
8842B
330
1F
100
AcDbEntity
  8
1
100
AcDbSpline
210
0.0
220
0.0
230
1.0
 70
     8
 71
     3
 72
    19
 73
    15
 74
     0
 42
0.000000001
 43
0.0000000001
 40
0.0
 40
0.0
 40
0.0
 40
0.0
 40
0.1285278102
 40
0.1921761412
 40
0.2551174715
 40
0.2862537972
 40
0.3171555476
 40
0.378871176
 40
0.4406651169
 40
0.5025328695
 40
0.6264851799
 40
0.7507192069
 40
0.8752268375999998
 40
1.0
 40
1.0
 40
1.0
 40
1.0
 10
53.6423000706
 20
16.33010775369986
 30
0.0
 10
53.6490217419
 20
16.60060826029986
 30
0.0
 10
53.66156748439999
 20
17.00500770039993
 30
0.0
 10
53.68329219630002
 20
17.54165830669986
 30
0.0
 10
53.69886684339998
 20
17.87334916419986
 30
0.0
 10
53.71248323099999
 20
18.13611083249988
 30
0.0
 10
53.72694997279999
 20
18.39624241459991
 30
0.0
 10
53.74501130470003
 20
18.72081559859988
 30
0.0
 10
53.7664472344
 20
19.11049332879993
 30
0.0
 10
53.7948615075
 20
19.63100934509988
 30
0.0
 10
53.8299811161
 20
20.28280738619988
 30
0.0
 10
53.8714817564
 20
21.06632557489986
 30
0.0
 10
53.9123544185
 20
21.85160722079986
 30
0.0
 10
53.939159958
 20
22.37572228709993
 30
0.0
 10
53.95245472290003
 20
22.63806514399989
 30
0.0
  0
SPLINE
  5
8842C
330
1F
100
AcDbEntity
  8
1
100
AcDbSpline
210
0.0
220
0.0
230
1.0
 70
     8
 71
     3
 72
     8
 73
     4
 74
     0
 42
0.000000001
 43
0.0000000001
 40
0.0
 40
0.0
 40
0.0
 40
0.0
 40
1.0
 40
1.0
 40
1.0
 40
1.0
 10
53.95441085750002
 20
22.69042055519988
 30
0.0
 10
53.95399206230003
 20
22.6729615968999
 30
0.0
 10
53.9533386118
 20
22.65550674239985
 30
0.0
 10
53.95245472290003
 20
22.63806514399989
 30
0.0
  0
SPLINE
  5
8842D
330
1F
100
AcDbEntity
  8
1
100
AcDbSpline
210
0.0
220
0.0
230
1.0
 70
     8
 71
     3
 72
     8
 73
     4
 74
     0
 42
0.000000001
 43
0.0000000001
 40
0.0
 40
0.0
 40
0.0
 40
0.0
 40
1.0
 40
1.0
 40
1.0
 40
1.0
 10
51.9538434035
 20
24.83900881629991
 30
0.0
 10
51.93613145720002
 20
24.83998180649988
 30
0.0
 10
51.91840547150002
 20
24.84072600069989
 30
0.0
 10
51.90067432529996
 20
24.84124195189988
 30
0.0
  0
SPLINE
  5
8842E
330
1F
100
AcDbEntity
  8
1
100
AcDbSpline
210
0.0
220
0.0
230
1.0
 70
     8
 71
     3
 72
     8
 73
     4
 74
     0
 42
0.000000001
 43
0.0000000001
 40
0.0
 40
0.0
 40
0.0
 40
0.0
 40
1.0
 40
1.0
 40
1.0
 40
1.0
 10
38.44542493189999
 20
21.82070236239987
 30
0.0
 10
38.42980990560003
 20
21.81233953859988
 30
0.0
 10
38.41430116640001
 20
21.8037749805999
 30
0.0
 10
38.39890959060003
 20
21.7950076970999
 30
0.0
  0
SPLINE
  5
8842F
330
1F
100
AcDbEntity
  8
1
100
AcDbSpline
210
0.0
220
0.0
230
1.0
 70
     8
 71
     3
 72
    10
 73
     6
 74
     0
 42
0.000000001
 43
0.0000000001
 40
0.0
 40
0.0
 40
0.0
 40
0.0
 40
0.4913957237
 40
0.7453944948000001
 40
1.0
 40
1.0
 40
1.0
 40
1.0
 10
53.42988868449999
 20
15.57763485249991
 30
0.0
 10
53.49428060279999
 20
15.68961948499988
 30
0.0
 10
53.57099769930002
 20
15.87261748129988
 30
0.0
 10
53.62860109020002
 20
16.12953904119986
 30
0.0
 10
53.64063742729999
 20
16.26319792629989
 30
0.0
 10
53.6423000706
 20
16.33010775369986
 30
0.0
  0
SPLINE
  5
88430
330
1F
100
AcDbEntity
  8
1
100
AcDbSpline
210
0.0
220
0.0
230
1.0
 70
     8
 71
     3
 72
     8
 73
     4
 74
     0
 42
0.000000001
 43
0.0000000001
 40
0.0
 40
0.0
 40
0.0
 40
0.0
 40
1.0
 40
1.0
 40
1.0
 40
1.0
 10
45.45120954380002
 20
25.02781848999993
 30
0.0
 10
45.43603534529995
 20
25.02825524149985
 30
0.0
 10
45.4208532983
 20
25.02847419289995
 30
0.0
 10
45.40567281569996
 20
25.02847412389987
 30
0.0
  0
SPLINE
  5
88431
330
1F
100
AcDbEntity
  8
1
100
AcDbSpline
210
0.0
220
0.0
230
1.0
 70
     8
 71
     3
 72
    15
 73
    11
 74
     0
 42
0.000000001
 43
0.0000000001
 40
0.0
 40
0.0
 40
0.0
 40
0.0
 40
0.1307097702
 40
0.2579501229
 40
0.3197389433
 40
0.3810848311
 40
0.5040899717000002
 40
0.6274928586000002
 40
0.7512842554000001
 40
1.0
 40
1.0
 40
1.0
 40
1.0
 10
44.68243834659999
 20
24.84495198079988
 30
0.0
 10
44.4479325739
 20
24.7159974808999
 30
0.0
 10
43.98591723610002
 20
24.46010613999991
 30
0.0
 10
43.41513155460001
 20
24.13950974599989
 30
0.0
 10
42.96961323419997
 20
23.8859214610999
 30
0.0
 10
42.53182489599999
 20
23.63628384589988
 30
0.0
 10
41.98424474870001
 20
23.32451420249988
 30
0.0
 10
41.325419005
 20
22.94972626699992
 30
0.0
 10
40.44262299470003
 20
22.44810794259986
 30
0.0
 10
39.77924412979999
 20
22.07176882269989
 30
0.0
 10
39.33620128760001
 20
21.82070236239987
 30
0.0
  0
SPLINE
  5
88432
330
1F
100
AcDbEntity
  8
1
100
AcDbSpline
210
0.0
220
0.0
230
1.0
 70
     8
 71
     3
 72
     9
 73
     5
 74
     0
 42
0.000000001
 43
0.0000000001
 40
0.0
 40
0.0
 40
0.0
 40
0.0
 40
0.2535458222
 40
1.0
 40
1.0
 40
1.0
 40
1.0
 10
38.21444452349999
 20
21.15196065239986
 30
0.0
 10
38.305752611
 20
21.20594031889989
 30
0.0
 10
38.66566703080002
 20
21.4191946394999
 30
0.0
 10
39.02472777859998
 20
21.63389019899986
 30
0.0
 10
39.29223262220003
 20
21.7950076970999
 30
0.0
  0
SPLINE
  5
88433
330
1F
100
AcDbEntity
  8
1
100
AcDbSpline
210
0.0
220
0.0
230
1.0
 70
     8
 71
     3
 72
    15
 73
    11
 74
     0
 42
0.000000001
 43
0.0000000001
 40
0.0
 40
0.0
 40
0.0
 40
0.0
 40
0.1239252112
 40
0.2482162967
 40
0.3727394318
 40
0.4974826061
 40
0.6225706944000004
 40
0.7480585612000003
 40
0.8739133854
 40
1.0
 40
1.0
 40
1.0
 40
1.0
 10
38.21444452349999
 20
21.15196065239986
 30
0.0
 10
38.1716743316
 20
21.12667569939988
 30
0.0
 10
38.09066310509999
 20
21.06765472349987
 30
0.0
 10
37.98811999509999
 20
20.95776404979991
 30
0.0
 10
37.90801126189999
 20
20.83013265889987
 30
0.0
 10
37.8533561912
 20
20.68938576749987
 30
0.0
 10
37.82595923000001
 20
20.54052531689986
 30
0.0
 10
37.8267529327
 20
20.3887160831999
 30
0.0
 10
37.85568667790002
 20
20.2393386081999
 30
0.0
 10
37.89312394490004
 20
20.14478191749988
 30
0.0
 10
37.91601181779999
 20
20.09970835919991
 30
0.0
  0
SPLINE
  5
88434
330
1F
100
AcDbEntity
  8
1
100
AcDbSpline
210
0.0
220
0.0
230
1.0
 70
     8
 71
     3
 72
     9
 73
     5
 74
     0
 42
0.000000001
 43
0.0000000001
 40
0.0
 40
0.0
 40
0.0
 40
0.0
 40
0.2466164488
 40
1.0
 40
1.0
 40
1.0
 40
1.0
 10
38.47985955200002
 20
18.95663638509985
 30
0.0
 10
38.43463470020001
 20
19.0511520196999
 30
0.0
 10
38.25007153910002
 20
19.43383513189987
 30
0.0
 10
38.06093391349998
 20
19.81431030009987
 30
0.0
 10
37.91601181779999
 20
20.09970835919991
 30
0.0
  0
SPLINE
  5
88435
330
1F
100
AcDbEntity
  8
1
100
AcDbSpline
210
0.0
220
0.0
230
1.0
 70
     8
 71
     3
 72
     9
 73
     5
 74
     0
 42
0.000000001
 43
0.0000000001
 40
0.0
 40
0.0
 40
0.0
 40
0.0
 40
0.247846572
 40
1.0
 40
1.0
 40
1.0
 40
1.0
 10
40.42301476469996
 20
15.11677665019989
 30
0.0
 10
40.26560678540002
 20
15.4307945099999
 30
0.0
 10
39.62910206089997
 20
16.6970764567999
 30
0.0
 10
38.98750030880001
 20
17.9607927782999
 30
0.0
 10
38.50280337730001
 20
18.91021738939987
 30
0.0
  0
SPLINE
  5
88436
330
1F
100
AcDbEntity
  8
1
100
AcDbSpline
210
0.0
220
0.0
230
1.0
 70
     8
 71
     3
 72
     9
 73
     5
 74
     0
 42
0.000000001
 43
0.0000000001
 40
0.0
 40
0.0
 40
0.0
 40
0.0
 40
0.4994823716
 40
1.0
 40
1.0
 40
1.0
 40
1.0
 10
45.40567281569996
 20
25.02847412389987
 30
0.0
 10
45.28044289450003
 20
25.0284735546999
 30
0.0
 10
45.02862076400003
 20
24.99846616729987
 30
0.0
 10
44.79239891279997
 20
24.90541919089988
 30
0.0
 10
44.68243834659999
 20
24.84495198079988
 30
0.0
  0
SPLINE
  5
88437
330
1F
100
AcDbEntity
  8
1
100
AcDbSpline
210
0.0
220
0.0
230
1.0
 70
     8
 71
     3
 72
     8
 73
     4
 74
     0
 42
0.000000001
 43
0.0000000001
 40
0.0
 40
0.0
 40
0.0
 40
0.0
 40
1.0
 40
1.0
 40
1.0
 40
1.0
 10
38.47985955200002
 20
18.95663638509985
 30
0.0
 10
38.48730934960001
 20
18.94106701729988
 30
0.0
 10
38.49495544690001
 20
18.92558991959989
 30
0.0
 10
38.50280337730001
 20
18.91021738939987
 30
0.0
  0
SPLINE
  5
88438
330
1F
100
AcDbEntity
  8
1
100
AcDbSpline
210
0.0
220
0.0
230
1.0
 70
     8
 71
     3
 72
     8
 73
     4
 74
     0
 42
0.000000001
 43
0.0000000001
 40
0.0
 40
0.0
 40
0.0
 40
0.0
 40
1.0
 40
1.0
 40
1.0
 40
1.0
 10
39.29223262220003
 20
21.7950076970999
 30
0.0
 10
39.30677409580003
 20
21.80376599029991
 30
0.0
 10
39.32143249220003
 20
21.81233308329986
 30
0.0
 10
39.33620128760001
 20
21.82070236239987
 30
0.0
  0
SPLINE
  5
88439
330
1F
100
AcDbEntity
  8
1
100
AcDbSpline
210
0.0
220
0.0
230
1.0
 70
     8
 71
     3
 72
     9
 73
     5
 74
     0
 42
0.000000001
 43
0.0000000001
 40
0.0
 40
0.0
 40
0.0
 40
0.0
 40
0.2526948946
 40
1.0
 40
1.0
 40
1.0
 40
1.0
 10
47.6985523339
 20
12.70606369619988
 30
0.0
 10
47.57641080450002
 20
12.78234118559989
 30
0.0
 10
47.0874148564
 20
13.07508971979992
 30
0.0
 10
46.57690943149995
 20
13.33175418549991
 30
0.0
 10
46.18679557700002
 20
13.5025540390999
 30
0.0
  0
SPLINE
  5
8843A
330
1F
100
AcDbEntity
  8
1
100
AcDbSpline
210
0.0
220
0.0
230
1.0
 70
     8
 71
     3
 72
    21
 73
    17
 74
     0
 42
0.000000001
 43
0.0000000001
 40
0.0
 40
0.0
 40
0.0
 40
0.0
 40
0.0225715186
 40
0.0359819629
 40
0.0509773367
 40
0.0859998102
 40
0.1279431743
 40
0.1767168708
 40
0.2319770409
 40
0.2932044135
 40
0.3597638606
 40
0.4309537784000001
 40
0.5060449415
 40
0.6650369813000001
 40
0.8312850127
 40
1.0
 40
1.0
 40
1.0
 40
1.0
 10
52.18679557700003
 20
8.729122095599862
 30
0.0
 10
52.18679557700003
 20
8.774950398499882
 30
0.0
 10
52.1733970971
 20
8.848004373899883
 30
0.0
 10
52.13930682099999
 20
8.945702322999876
 30
0.0
 10
52.0860901984
 20
9.063192303599931
 30
0.0
 10
51.99018416340003
 20
9.22396519299987
 30
0.0
 10
51.83868166270002
 20
9.429753267299886
 30
0.0
 10
51.6463217596
 20
9.655495802599901
 30
0.0
 10
51.41512904060002
 20
9.898845464299897
 30
0.0
 10
51.14776579409999
 20
10.15712987809986
 30
0.0
 10
50.8474818542
 20
10.42749303489985
 30
0.0
 10
50.5178727752
 20
10.7070516356999
 30
0.0
 10
50.03501594349995
 20
11.09574948629991
 30
0.0
 10
49.38456239959998
 20
11.58360218589992
 30
0.0
 10
48.56043008189999
 20
12.15542750239986
 30
0.0
 10
47.98910111250001
 20
12.52461573579985
 30
0.0
 10
47.6985523339
 20
12.70606369619988
 30
0.0
  0
SPLINE
  5
8843B
330
1F
100
AcDbEntity
  8
1
100
AcDbSpline
210
0.0
220
0.0
230
1.0
 70
     8
 71
     3
 72
     9
 73
     5
 74
     0
 42
0.000000001
 43
0.0000000001
 40
0.0
 40
0.0
 40
0.0
 40
0.0
 40
0.2480457386
 40
1.0
 40
1.0
 40
1.0
 40
1.0
 10
41.12341093099999
 20
24.39226547409989
 30
0.0
 10
41.23373585220003
 20
24.39091752349988
 30
0.0
 10
41.67854566719999
 20
24.38869968339988
 30
0.0
 10
42.12342111259999
 20
24.39933639499988
 30
0.0
 10
42.45754892270002
 20
24.41460658149988
 30
0.0
  0
SPLINE
  5
8843C
330
1F
100
AcDbEntity
  8
1
100
AcDbSpline
210
0.0
220
0.0
230
1.0
 70
     8
 71
     3
 72
    15
 73
    11
 74
     0
 42
0.000000001
 43
0.0000000001
 40
0.0
 40
0.0
 40
0.0
 40
0.0
 40
0.3797638157
 40
0.5415308668
 40
0.6819483040000001
 40
0.7993138831000001
 40
0.8921701901
 40
0.9593452542000001
 40
0.9830252628
 40
1.0
 40
1.0
 40
1.0
 40
1.0
 10
40.1303750502
 20
24.48038202379992
 30
0.0
 10
39.98382389520001
 20
24.48619824589993
 30
0.0
 10
39.77490242049999
 20
24.49595612949993
 30
0.0
 10
39.51192599450003
 20
24.51038234159991
 30
0.0
 10
39.35016788330003
 20
24.51980177859993
 30
0.0
 10
39.21498754880003
 20
24.52784138199992
 30
0.0
 10
39.108031251
 20
24.53394524059986
 30
0.0
 10
39.0371652278
 20
24.53750286129993
 30
0.0
 10
38.99554195729999
 20
24.53881539449993
 30
0.0
 10
38.97983759830004
 20
24.53899173449993
 30
0.0
 10
38.97328287599999
 20
24.5388772992999
 30
0.0
  0
SPLINE
  5
8843D
330
1F
100
AcDbEntity
  8
1
100
AcDbSpline
210
0.0
220
0.0
230
1.0
 70
     8
 71
     3
 72
    15
 73
    11
 74
     0
 42
0.000000001
 43
0.0000000001
 40
0.0
 40
0.0
 40
0.0
 40
0.0
 40
0.0687752327
 40
0.1512207992
 40
0.2497601117
 40
0.3657008821
 40
0.4994058653000001
 40
0.6504587223
 40
0.8178219254000001
 40
1.0
 40
1.0
 40
1.0
 40
1.0
 10
41.70756484580002
 20
24.18414620679988
 30
0.0
 10
41.67877223629999
 20
24.20772970079987
 30
0.0
 10
41.60930981040002
 20
24.25212806479989
 30
0.0
 10
41.48479085689999
 20
24.3056111376999
 30
0.0
 10
41.33056599579997
 20
24.35165077619986
 30
0.0
 10
41.14603500820002
 20
24.39045981139988
 30
0.0
 10
40.93146294500002
 20
24.4223846387999
 30
0.0
 10
40.68806585219999
 20
24.44783281179993
 30
0.0
 10
40.41783632689996
 20
24.4673489726999
 30
0.0
 10
40.22888448750001
 20
24.47647251269991
 30
0.0
 10
40.1303750502
 20
24.48038202379992
 30
0.0
  0
LINE
  5
8843E
330
1F
100
AcDbEntity
  8
1
100
AcDbLine
 10
41.8491794509
 20
24.06798043229988
 30
0.0
 11
41.70756484580002
 21
24.18414620679988
 31
0.0
  0
LINE
  5
8843F
330
1F
100
AcDbEntity
  8
1
100
AcDbLine
 10
31.11170076990004
 20
17.03536966299988
 30
0.0
 11
31.78722890500001
 21
16.92537379149986
 31
0.0
  0
SPLINE
  5
88440
330
1F
100
AcDbEntity
  8
1
100
AcDbSpline
210
0.0
220
0.0
230
1.0
 70
     8
 71
     3
 72
     9
 73
     5
 74
     0
 42
0.000000001
 43
0.0000000001
 40
0.0
 40
0.0
 40
0.0
 40
0.0
 40
0.262081796
 40
1.0
 40
1.0
 40
1.0
 40
1.0
 10
25.12356646410002
 20
17.15636974509989
 30
0.0
 10
25.07010085180002
 20
17.17951076539988
 30
0.0
 10
24.86852795840003
 20
17.27317416929988
 30
0.0
 10
24.676859745
 20
17.38923837109992
 30
0.0
 10
24.54642598830004
 20
17.4887069306999
 30
0.0
  0
SPLINE
  5
88441
330
1F
100
AcDbEntity
  8
1
100
AcDbSpline
210
0.0
220
0.0
230
1.0
 70
     8
 71
     3
 72
     9
 73
     5
 74
     0
 42
0.000000001
 43
0.0000000001
 40
0.0
 40
0.0
 40
0.0
 40
0.0
 40
0.5174587757
 40
1.0
 40
1.0
 40
1.0
 40
1.0
 10
26.18561432880003
 20
16.86985917289992
 30
0.0
 10
25.99720262279999
 20
16.89567816609993
 30
0.0
 10
25.63558216160001
 20
16.96689168789989
 30
0.0
 10
25.28631611009999
 20
17.08592833979988
 30
0.0
 10
25.12356646410002
 20
17.15636974509989
 30
0.0
  0
SPLINE
  5
88442
330
1F
100
AcDbEntity
  8
1
100
AcDbSpline
210
0.0
220
0.0
230
1.0
 70
     8
 71
     3
 72
    12
 73
     8
 74
     0
 42
0.000000001
 43
0.0000000001
 40
0.0
 40
0.0
 40
0.0
 40
0.0
 40
0.2589256374
 40
0.5130144176
 40
0.7607832839000001
 40
0.8816609401999999
 40
1.0
 40
1.0
 40
1.0
 40
1.0
 10
31.11170076990004
 20
17.03536966299988
 30
0.0
 10
30.69151593470002
 20
16.95940294509991
 30
0.0
 10
29.85334237980001
 20
16.83835206779987
 30
0.0
 10
28.6010587564
 20
16.74737254729992
 30
0.0
 10
27.57292012900001
 20
16.74868953339991
 30
0.0
 10
26.77126733580002
 20
16.80006481109991
 30
0.0
 10
26.3789612471
 20
16.84336226759986
 30
0.0
 10
26.18561432880003
 20
16.86985917289992
 30
0.0
  0
SPLINE
  5
88443
330
1F
100
AcDbEntity
  8
1
100
AcDbSpline
210
0.0
220
0.0
230
1.0
 70
     8
 71
     3
 72
     9
 73
     5
 74
     0
 42
0.000000001
 43
0.0000000001
 40
0.0
 40
0.0
 40
0.0
 40
0.0
 40
0.2378826207999999
 40
1.0
 40
1.0
 40
1.0
 40
1.0
 10
37.85638111759999
 20
22.09300019939987
 30
0.0
 10
37.89065853779999
 20
22.09784679979988
 30
0.0
 10
38.03513939250001
 20
22.11533748849986
 30
0.0
 10
38.18114462830003
 20
22.12064969289993
 30
0.0
 10
38.29200142070003
 20
22.11725630629992
 30
0.0
  0
SPLINE
  5
88444
330
1F
100
AcDbEntity
  8
1
100
AcDbSpline
210
0.0
220
0.0
230
1.0
 70
     8
 71
     3
 72
     9
 73
     5
 74
     0
 42
0.000000001
 43
0.0000000001
 40
0.0
 40
0.0
 40
0.0
 40
0.0
 40
0.2587499668
 40
1.0
 40
1.0
 40
1.0
 40
1.0
 10
32.14927886300002
 20
16.85800432099991
 30
0.0
 10
32.11817957240004
 20
16.86446942269988
 30
0.0
 10
31.99785839220002
 20
16.88882077189989
 30
0.0
 10
31.87703365840003
 20
16.9106982389999
 30
0.0
 10
31.78722890500001
 20
16.92537379149986
 30
0.0
  0
LINE
  5
88445
330
1F
100
AcDbEntity
  8
1
100
AcDbLine
 10
42.49245373559999
 20
14.6752523768999
 30
0.0
 11
42.45754892270002
 21
14.68276835529987
 31
0.0
  0
LINE
  5
88446
330
1F
100
AcDbEntity
  8
1
100
AcDbLine
 10
42.45754892270002
 20
24.41460658149988
 30
0.0
 11
42.49245373559999
 21
24.41593620079989
 31
0.0
  0
SPLINE
  5
88447
330
1F
100
AcDbEntity
  8
1
100
AcDbSpline
210
0.0
220
0.0
230
1.0
 70
     8
 71
     3
 72
     9
 73
     5
 74
     0
 42
0.000000001
 43
0.0000000001
 40
0.0
 40
0.0
 40
0.0
 40
0.0
 40
0.4972788001
 40
1.0
 40
1.0
 40
1.0
 40
1.0
 10
46.18679557700002
 20
13.5025540390999
 30
0.0
 10
45.63065297729997
 20
13.74604468539992
 30
0.0
 10
44.487132406
 20
14.18003931589989
 30
0.0
 10
43.30624627840001
 20
14.49878552379989
 30
0.0
 10
42.70643391350001
 20
14.62885995759986
 30
0.0
  0
SPLINE
  5
88448
330
1F
100
AcDbEntity
  8
1
100
AcDbSpline
210
0.0
220
0.0
230
1.0
 70
     8
 71
     3
 72
     9
 73
     5
 74
     0
 42
0.000000001
 43
0.0000000001
 40
0.0
 40
0.0
 40
0.0
 40
0.0
 40
0.2599558668
 40
1.0
 40
1.0
 40
1.0
 40
1.0
 10
42.49245373559999
 20
24.41593620079989
 30
0.0
 10
42.55744341790003
 20
24.41791743059987
 30
0.0
 10
42.80741261889999
 20
24.42660293289988
 30
0.0
 10
43.05723888919999
 20
24.43939736799992
 30
0.0
 10
43.24196233700003
 20
24.45118277069987
 30
0.0
  0
LINE
  5
88449
330
1F
100
AcDbEntity
  8
1
100
AcDbLine
 10
43.24196233700003
 20
24.45118277069987
 30
0.0
 11
43.40447920439999
 21
24.46164767829988
 31
0.0
  0
SPLINE
  5
8844A
330
1F
100
AcDbEntity
  8
1
100
AcDbSpline
210
0.0
220
0.0
230
1.0
 70
     8
 71
     3
 72
     9
 73
     5
 74
     0
 42
0.000000001
 43
0.0000000001
 40
0.0
 40
0.0
 40
0.0
 40
0.0
 40
0.2507080102
 40
1.0
 40
1.0
 40
1.0
 40
1.0
 10
39.88381913130002
 20
15.2314505076999
 30
0.0
 10
39.7847310617
 20
15.41194158349988
 30
0.0
 10
39.39152562450002
 20
16.13297859289993
 30
0.0
 10
39.00590988220003
 20
16.8581518957999
 30
0.0
 10
38.72112911319999
 20
17.40367105229991
 30
0.0
  0
SPLINE
  5
8844B
330
1F
100
AcDbEntity
  8
1
100
AcDbSpline
210
0.0
220
0.0
230
1.0
 70
     8
 71
     3
 72
    21
 73
    17
 74
     0
 42
0.000000001
 43
0.0000000001
 40
0.0
 40
0.0
 40
0.0
 40
0.0
 40
0.0617287409
 40
0.1235277967
 40
0.1854486844
 40
0.247529866
 40
0.3097969794
 40
0.372258737
 40
0.4349076739
 40
0.4977221352
 40
0.6233720186000001
 40
0.7491329118000003
 40
0.8120801995999999
 40
0.8748964798999999
 40
0.9375441356999999
 40
1.0
 40
1.0
 40
1.0
 40
1.0
 10
38.08894601009999
 20
18.61466572159988
 30
0.0
 10
38.00199548860002
 20
18.65701373399987
 30
0.0
 10
37.83419851400004
 20
18.75520919349988
 30
0.0
 10
37.60751291840001
 20
18.93863046689991
 30
0.0
 10
37.41037000409999
 20
19.15431332929991
 30
0.0
 10
37.2469087241
 20
19.39735468129988
 30
0.0
 10
37.12040185260001
 20
19.6624556853999
 30
0.0
 10
37.03349830410002
 20
19.94394328639988
 30
0.0
 10
36.98780725080002
 20
20.23588181759989
 30
0.0
 10
36.9830989182
 20
20.63041906659988
 30
0.0
 10
37.08321930490001
 20
21.11974536289991
 30
0.0
 10
37.31765194259998
 20
21.56112487659989
 30
0.0
 10
37.57354215330003
 20
21.86234932419985
 30
0.0
 10
37.7960670139
 20
22.05799743739989
 30
0.0
 10
38.04407540209999
 20
22.21854413999991
 30
0.0
 10
38.2233728371
 20
22.29985136249992
 30
0.0
 10
38.3152592914
 20
22.33350082839992
 30
0.0
  0
SPLINE
  5
8844C
330
1F
100
AcDbEntity
  8
1
100
AcDbSpline
210
0.0
220
0.0
230
1.0
 70
     8
 71
     3
 72
     9
 73
     5
 74
     0
 42
0.000000001
 43
0.0000000001
 40
0.0
 40
0.0
 40
0.0
 40
0.0
 40
0.255880785
 40
1.0
 40
1.0
 40
1.0
 40
1.0
 10
38.29200142070003
 20
22.11725630629992
 30
0.0
 10
38.3163963051
 20
22.11650956569987
 30
0.0
 10
38.4116943569
 20
22.1124156399999
 30
0.0
 10
38.50679153660002
 20
22.10378276709987
 30
0.0
 10
38.5772125772
 20
22.09493040389988
 30
0.0
  0
SPLINE
  5
8844D
330
1F
100
AcDbEntity
  8
1
100
AcDbSpline
210
0.0
220
0.0
230
1.0
 70
     8
 71
     3
 72
     9
 73
     5
 74
     0
 42
0.000000001
 43
0.0000000001
 40
0.0
 40
0.0
 40
0.0
 40
0.0
 40
0.253755228
 40
1.0
 40
1.0
 40
1.0
 40
1.0
 10
37.71510617100001
 20
21.98380088109992
 30
0.0
 10
37.7550116491
 20
21.98631689369991
 30
0.0
 10
37.9124538236
 20
21.99310406579987
 30
0.0
 10
38.07041777680002
 20
21.9876341263999
 30
0.0
 10
38.18749797660002
 20
21.97672571049988
 30
0.0
  0
SPLINE
  5
8844E
330
1F
100
AcDbEntity
  8
1
100
AcDbSpline
210
0.0
220
0.0
230
1.0
 70
     8
 71
     3
 72
     9
 73
     5
 74
     0
 42
0.000000001
 43
0.0000000001
 40
0.0
 40
0.0
 40
0.0
 40
0.0
 40
0.2496114024
 40
1.0
 40
1.0
 40
1.0
 40
1.0
 10
38.16194835390002
 20
18.47471694389987
 30
0.0
 10
38.17702789250001
 20
18.46933155189988
 30
0.0
 10
38.23772006220004
 20
18.44854910079989
 30
0.0
 10
38.29950583350001
 20
18.43095928459986
 30
0.0
 10
38.3462881855
 20
18.41962104509987
 30
0.0
  0
SPLINE
  5
8844F
330
1F
100
AcDbEntity
  8
1
100
AcDbSpline
210
0.0
220
0.0
230
1.0
 70
     8
 71
     3
 72
     9
 73
     5
 74
     0
 42
0.000000001
 43
0.0000000001
 40
0.0
 40
0.0
 40
0.0
 40
0.0
 40
0.5434105486
 40
1.0
 40
1.0
 40
1.0
 40
1.0
 10
42.17631613359997
 20
23.47733910029993
 30
0.0
 10
42.1648750641
 20
23.4988192938999
 30
0.0
 10
42.14506479650004
 20
23.53902964469985
 30
0.0
 10
42.12848810839999
 20
23.58071502429989
 30
0.0
 10
42.12201986779999
 20
23.60011385539992
 30
0.0
  0
SPLINE
  5
88450
330
1F
100
AcDbEntity
  8
1
100
AcDbSpline
210
0.0
220
0.0
230
1.0
 70
     8
 71
     3
 72
     9
 73
     5
 74
     0
 42
0.000000001
 43
0.0000000001
 40
0.0
 40
0.0
 40
0.0
 40
0.0
 40
0.2478133777
 40
1.0
 40
1.0
 40
1.0
 40
1.0
 10
42.12201986779999
 20
23.60011385539992
 30
0.0
 10
42.09622154959999
 20
23.63670368159991
 30
0.0
 10
41.99531523959999
 20
23.78658488679993
 30
0.0
 10
41.90737571999997
 20
23.94518194019993
 30
0.0
 10
41.8491794509
 20
24.06798043229988
 30
0.0
  0
SPLINE
  5
88451
330
1F
100
AcDbEntity
  8
1
100
AcDbSpline
210
0.0
220
0.0
230
1.0
 70
     8
 71
     3
 72
     8
 73
     4
 74
     0
 42
0.000000001
 43
0.0000000001
 40
0.0
 40
0.0
 40
0.0
 40
0.0
 40
1.0
 40
1.0
 40
1.0
 40
1.0
 10
38.34708734520001
 20
22.11545956569991
 30
0.0
 10
38.29323204700001
 20
22.06998391799989
 30
0.0
 10
38.24001108630003
 20
22.02374486599986
 30
0.0
 10
38.18749797660002
 20
21.97672571049988
 30
0.0
  0
SPLINE
  5
88452
330
1F
100
AcDbEntity
  8
1
100
AcDbSpline
210
0.0
220
0.0
230
1.0
 70
     8
 71
     3
 72
     8
 73
     4
 74
     0
 42
0.000000001
 43
0.0000000001
 40
0.0
 40
0.0
 40
0.0
 40
0.0
 40
1.0
 40
1.0
 40
1.0
 40
1.0
 10
38.3152592914
 20
22.33350082839992
 30
0.0
 10
38.34131856120001
 20
22.34304391629992
 30
0.0
 10
38.36758617700002
 20
22.35203646279986
 30
0.0
 10
38.3940278337
 20
22.36046230749987
 30
0.0
  0
SPLINE
  5
88453
330
1F
100
AcDbEntity
  8
1
100
AcDbSpline
210
0.0
220
0.0
230
1.0
 70
     8
 71
     3
 72
     9
 73
     5
 74
     0
 42
0.000000001
 43
0.0000000001
 40
0.0
 40
0.0
 40
0.0
 40
0.0
 40
0.2499764648
 40
1.0
 40
1.0
 40
1.0
 40
1.0
 10
31.78722890500001
 20
22.92839237029992
 30
0.0
 10
31.44507220720001
 20
22.81100941719984
 30
0.0
 10
30.07697588140002
 20
22.33951529139991
 30
0.0
 10
28.7116228745
 20
21.8600488270999
 30
0.0
 10
27.68939167720005
 20
21.49537261899987
 30
0.0
  0
SPLINE
  5
88454
330
1F
100
AcDbEntity
  8
1
100
AcDbSpline
210
0.0
220
0.0
230
1.0
 70
     8
 71
     3
 72
     9
 73
     5
 74
     0
 42
0.000000001
 43
0.0000000001
 40
0.0
 40
0.0
 40
0.0
 40
0.0
 40
0.496670855
 40
1.0
 40
1.0
 40
1.0
 40
1.0
 10
26.31823030430002
 20
20.96121717349986
 30
0.0
 10
26.5422441975
 20
21.05704750219986
 30
0.0
 10
26.99688301860002
 20
21.24161647299986
 30
0.0
 10
27.4568302571
 20
21.4124074178999
 30
0.0
 10
27.68939167720005
 20
21.49537261899987
 30
0.0
  0
SPLINE
  5
88455
330
1F
100
AcDbEntity
  8
1
100
AcDbSpline
210
0.0
220
0.0
230
1.0
 70
     8
 71
     3
 72
     9
 73
     5
 74
     0
 42
0.000000001
 43
0.0000000001
 40
0.0
 40
0.0
 40
0.0
 40
0.0
 40
0.250706327
 40
1.0
 40
1.0
 40
1.0
 40
1.0
 10
31.78722890500001
 20
22.92839237029992
 30
0.0
 10
31.81652093330004
 20
22.93844152269993
 30
0.0
 10
31.93453158950001
 20
22.97500927849991
 30
0.0
 10
32.05704968590001
 20
22.99713389009986
 30
0.0
 10
32.14927886300002
 20
23.00488834049987
 30
0.0
  0
SPLINE
  5
88456
330
1F
100
AcDbEntity
  8
1
100
AcDbSpline
210
0.0
220
0.0
230
1.0
 70
     8
 71
     3
 72
     9
 73
     5
 74
     0
 42
0.000000001
 43
0.0000000001
 40
0.0
 40
0.0
 40
0.0
 40
0.0
 40
0.2481869223
 40
1.0
 40
1.0
 40
1.0
 40
1.0
 10
26.05349212630003
 20
20.84310426889989
 30
0.0
 10
26.07523587950002
 20
20.8532231565999
 30
0.0
 10
26.16301242740002
 20
20.89363665439988
 30
0.0
 10
26.2514357291
 20
20.93264331969989
 30
0.0
 10
26.31823030430002
 20
20.96121717349986
 30
0.0
  0
SPLINE
  5
88457
330
1F
100
AcDbEntity
  8
1
100
AcDbSpline
210
0.0
220
0.0
230
1.0
 70
     8
 71
     3
 72
     9
 73
     5
 74
     0
 42
0.000000001
 43
0.0000000001
 40
0.0
 40
0.0
 40
0.0
 40
0.0
 40
0.2506609598
 40
1.0
 40
1.0
 40
1.0
 40
1.0
 10
43.2419445529
 20
24.45118741729989
 30
0.0
 10
43.23956730139996
 20
24.44354614329987
 30
0.0
 10
43.23000988580003
 20
24.4130845564999
 30
0.0
 10
43.22015809150002
 20
24.38271530749991
 30
0.0
 10
43.21260895029996
 20
24.36001446309986
 30
0.0
  0
SPLINE
  5
88458
330
1F
100
AcDbEntity
  8
1
100
AcDbSpline
210
0.0
220
0.0
230
1.0
 70
     8
 71
     3
 72
    23
 73
    19
 74
     0
 42
0.000000001
 43
0.0000000001
 40
0.0
 40
0.0
 40
0.0
 40
0.0
 40
0.0597401121
 40
0.0883010794
 40
0.116043974
 40
0.1693276598
 40
0.2204115132
 40
0.2703492705
 40
0.3203842625
 40
0.3717973949
 40
0.4257400966
 40
0.483113509
 40
0.5445179704
 40
0.6102626211
 40
0.6804062838
 40
0.7548072757
 40
0.8331699197999999
 40
1.0
 40
1.0
 40
1.0
 40
1.0
 10
24.54642598830004
 20
17.4887069306999
 30
0.0
 10
24.47372692140002
 20
17.54414711469987
 30
0.0
 10
24.37099070070002
 20
17.63274351959991
 30
0.0
 10
24.24956281669998
 20
17.76252037749988
 30
0.0
 10
24.14435779660002
 20
17.89329810459988
 30
0.0
 10
24.03643564040002
 20
18.06546144449989
 30
0.0
 10
23.9477193923
 20
18.28574412789989
 30
0.0
 10
23.9033783164
 20
18.51412907229992
 30
0.0
 10
23.9044769832
 20
18.74727393949992
 30
0.0
 10
23.95085277940001
 20
18.98187903579987
 30
0.0
 10
24.04126552759999
 20
19.21512923479987
 30
0.0
 10
24.17379286270004
 20
19.4448641119999
 30
0.0
 10
24.34613027840001
 20
19.6694347956999
 30
0.0
 10
24.55569418880003
 20
19.88752303519989
 30
0.0
 10
24.79964676669999
 20
20.09802445449993
 30
0.0
 10
25.07493159430001
 20
20.30002360949989
 30
0.0
 10
25.48804766950002
 20
20.56235709689987
 30
0.0
 10
25.82201340450001
 20
20.73538104569992
 30
0.0
 10
26.05349212630003
 20
20.84310426889989
 30
0.0
  0
SPLINE
  5
88459
330
1F
100
AcDbEntity
  8
1
100
AcDbSpline
210
0.0
220
0.0
230
1.0
 70
     8
 71
     3
 72
    18
 73
    14
 74
     0
 42
0.000000001
 43
0.0000000001
 40
0.0
 40
0.0
 40
0.0
 40
0.0
 40
0.1725361323
 40
0.3370738029
 40
0.4903318937
 40
0.6293134415
 40
0.7514076779000001
 40
0.8054609394999998
 40
0.8545615173000001
 40
0.8985796054999999
 40
0.9374395208000001
 40
0.9711795662999998
 40
1.0
 40
1.0
 40
1.0
 40
1.0
 10
26.31823031810004
 20
20.96121717989986
 30
0.0
 10
26.2449000901
 20
20.73791520359988
 30
0.0
 10
26.1081982371
 20
20.29946896809987
 30
0.0
 10
25.93034981340001
 20
19.65550650979988
 30
0.0
 10
25.78679383779999
 20
19.04987999079988
 30
0.0
 10
25.68046690279999
 20
18.4953764058999
 30
0.0
 10
25.62225747029998
 20
18.06973029519993
 30
0.0
 10
25.59788611630003
 20
17.76378135269989
 30
0.0
 10
25.59080355099999
 20
17.56334456179992
 30
0.0
 10
25.59408271970003
 20
17.38348722049989
 30
0.0
 10
25.607729788
 20
17.22504586049992
 30
0.0
 10
25.63165336720003
 20
17.08878146329989
 30
0.0
 10
25.65625262099999
 20
17.00682072909991
 30
0.0
 10
25.67084446180002
 20
16.97037302689991
 30
0.0
  0
SPLINE
  5
8845A
330
1F
100
AcDbEntity
  8
1
100
AcDbSpline
210
0.0
220
0.0
230
1.0
 70
     8
 71
     3
 72
     9
 73
     5
 74
     0
 42
0.000000001
 43
0.0000000001
 40
0.0
 40
0.0
 40
0.0
 40
0.0
 40
0.5273662933
 40
1.0
 40
1.0
 40
1.0
 40
1.0
 10
38.18749797660002
 20
21.97672571049988
 30
0.0
 10
38.11795725810004
 20
21.99605317069991
 30
0.0
 10
37.98368938900001
 20
22.02465586139989
 30
0.0
 10
37.84699016529998
 20
22.03656085589991
 30
0.0
 10
37.78232727040003
 20
22.03828108989986
 30
0.0
  0
SPLINE
  5
8845B
330
1F
100
AcDbEntity
  8
1
100
AcDbSpline
210
0.0
220
0.0
230
1.0
 70
     8
 71
     3
 72
     9
 73
     5
 74
     0
 42
0.000000001
 43
0.0000000001
 40
0.0
 40
0.0
 40
0.0
 40
0.0
 40
0.2552357536
 40
1.0
 40
1.0
 40
1.0
 40
1.0
 10
37.20295265210001
 20
21.09489697009987
 30
0.0
 10
37.1967558771
 20
21.10091865199992
 30
0.0
 10
37.17260817049999
 20
21.12464541689987
 30
0.0
 10
37.14899372299999
 20
21.14891663449988
 30
0.0
 10
37.1317590946
 20
21.16731933169986
 30
0.0
  0
SPLINE
  5
8845C
330
1F
100
AcDbEntity
  8
1
100
AcDbSpline
210
0.0
220
0.0
230
1.0
 70
     8
 71
     3
 72
    22
 73
    18
 74
     0
 42
0.000000001
 43
0.0000000001
 40
0.0
 40
0.0
 40
0.0
 40
0.0
 40
0.1204559639
 40
0.2423629286
 40
0.3655100617
 40
0.4275120575
 40
0.4897831747
 40
0.5523306131
 40
0.6151871286999999
 40
0.6784379879000002
 40
0.7422401954000001
 40
0.7745103284
 40
0.8069607621999999
 40
0.8395044224999999
 40
0.8720182856999999
 40
0.9364658343
 40
1.0
 40
1.0
 40
1.0
 40
1.0
 10
37.16057523200002
 20
15.8082186816999
 30
0.0
 10
37.26425763200001
 20
15.8393081967999
 30
0.0
 10
37.47409828540003
 20
15.8978696752999
 30
0.0
 10
37.79395334590001
 20
15.9729327452999
 30
0.0
 10
38.0656187541
 20
16.02231706609991
 30
0.0
 10
38.28624821279999
 20
16.05025372649989
 30
0.0
 10
38.4536699505
 20
16.06365003399988
 30
0.0
 10
38.62242215290002
 20
16.06684084569987
 30
0.0
 10
38.79187924650003
 20
16.05545102849989
 30
0.0
 10
38.95990360900004
 20
16.02231131869986
 30
0.0
 10
39.09346370680001
 20
15.96583702409988
 30
0.0
 10
39.18688526470001
 20
15.89702210449992
 30
0.0
 10
39.24734965979999
 20
15.8332382414999
 30
0.0
 10
39.295556426
 20
15.75954293959991
 30
0.0
 10
39.3429429687
 20
15.65279917799991
 30
0.0
 10
39.37449164910001
 20
15.51075627439987
 30
0.0
 10
39.38020590470003
 20
15.39557628159987
 30
0.0
 10
39.37986706730001
 20
15.33848469129988
 30
0.0
  0
SPLINE
  5
8845D
330
1F
100
AcDbEntity
  8
1
100
AcDbSpline
210
0.0
220
0.0
230
1.0
 70
     8
 71
     3
 72
     9
 73
     5
 74
     0
 42
0.000000001
 43
0.0000000001
 40
0.0
 40
0.0
 40
0.0
 40
0.0
 40
0.4981203275000003
 40
1.0
 40
1.0
 40
1.0
 40
1.0
 10
39.3512323219
 20
22.3783787574999
 30
0.0
 10
39.19628805090002
 20
22.42066658219989
 30
0.0
 10
38.87158798040002
 20
22.46219986649989
 30
0.0
 10
38.54835688
 20
22.40913848049992
 30
0.0
 10
38.3940278337
 20
22.36046230749987
 30
0.0
  0
SPLINE
  5
8845E
330
1F
100
AcDbEntity
  8
1
100
AcDbSpline
210
0.0
220
0.0
230
1.0
 70
     8
 71
     3
 72
     9
 73
     5
 74
     0
 42
0.000000001
 43
0.0000000001
 40
0.0
 40
0.0
 40
0.0
 40
0.0
 40
0.2668514854
 40
1.0
 40
1.0
 40
1.0
 40
1.0
 10
37.68250263480002
 20
21.38293116709987
 30
0.0
 10
37.65227218030001
 20
21.39979430429987
 30
0.0
 10
37.53826565119999
 20
21.46165967389989
 30
0.0
 10
37.42120189040003
 20
21.51809240809986
 30
0.0
 10
37.33340942270004
 20
21.5546588925999
 30
0.0
  0
ELLIPSE
  5
8845F
330
1F
100
AcDbEntity
  8
1
100
AcDbEllipse
 10
99.65925841610001
 20
-1.8614319138001
 30
0.0
 11
107.7461591712
 21
-25.36183078670003
 31
0.0
210
0.0
220
0.0
230
1.0
 40
0.0321113184
 41
2.137991097199996
 42
2.255469779699998
  0
ELLIPSE
  5
88460
330
1F
100
AcDbEntity
  8
1
100
AcDbEllipse
 10
91.74261266530001
 20
-0.0000000000000995
 30
0.0
 11
103.5447714761
 21
-24.3730312038
 31
0.0
210
0.0
220
0.0
230
1.0
 40
0.0321983336
 41
2.071704783899993
 42
2.074052520799993
  0
ELLIPSE
  5
88461
330
1F
100
AcDbEntity
  8
1
100
AcDbEllipse
 10
49.68119139880002
 20
0.0391389067999199
 30
0.0
 11
42.85083431159999
 21
1.9328624337
 31
0.0
210
0.0
220
0.0
230
1.0
 40
0.5749898312
 41
1.728610806199999
 42
1.813679355299995
  0
ELLIPSE
  5
88462
330
1F
100
AcDbEntity
  8
1
100
AcDbEllipse
 10
76.77731978280002
 20
0.1969731127998813
 30
0.0
 11
132.2113010418006
 21
2.230495583500009
 31
0.0
210
0.0
220
0.0
230
1.0
 40
0.1890481088999999
 41
1.8629335219
 42
1.9119189927
  0
ELLIPSE
  5
88463
330
1F
100
AcDbEntity
  8
1
100
AcDbEllipse
 10
41.9303477616
 20
21.77736916699992
 30
0.0
 11
2.286221126400003
 21
-0.5370990483000017
 31
0.0
210
0.0
220
0.0
230
1.0
 40
0.0708788454
 41
3.236972159179551
 42
3.623304479079711
  0
ELLIPSE
  5
88464
330
1F
100
AcDbEntity
  8
1
100
AcDbEllipse
 10
33.83719418680002
 20
17.18562594949988
 30
0.0
 11
14.247018706
 21
8.632728382000001
 31
0.0
210
0.0
220
0.0
230
1.0
 40
0.091700064
 41
0.8958026518000002
 42
1.095644978300003
  0
LINE
  5
88465
330
1F
100
AcDbEntity
  8
sk3
100
AcDbLine
 10
48.5064561251
 20
10.73009457889996
 30
0.0
 11
49.15726622787244
 21
11.73833209094564
 31
0.0
  0
LINE
  5
88610
330
1F
100
AcDbEntity
  8
sk3
100
AcDbLine
 10
18.30000000004254
 20
-4.762500000000015
 30
0.0
 11
18.30000000004254
 21
-11.80000000000001
 31
0.0
  0
LINE
  5
88611
330
1F
100
AcDbEntity
  8
sk3
100
AcDbLine
 10
18.30000000004254
 20
4.762500000000015
 30
0.0
 11
18.30000000004254
 21
11.80000000000001
 31
0.0
  0
LINE
  5
88612
330
1F
100
AcDbEntity
  8
sk3
100
AcDbLine
 10
34.50000000004774
 20
9.05
 30
0.0
 11
34.50000000004774
 21
7.13499999999999
 31
0.0
  0
LINE
  5
88613
330
1F
100
AcDbEntity
  8
sk3
100
AcDbLine
 10
34.50000000004774
 20
-9.05
 30
0.0
 11
34.50000000004774
 21
-7.13499999999999
 31
0.0
  0
DIMENSION
  5
88680
330
1F
100
AcDbEntity
  8
2
100
AcDbDimension
  2
*D131010
 10
53.17499999999999
 20
24.59999999880001
 30
0.0
 11
72.94095621187906
 21
30.78086427572716
 31
0.0
 70
   164
 71
     5
 42
0.8
  3
コピー - ISO-25
100
AcDbRadialDimension
 15
53.93853994650466
 25
24.83876086261905
 35
0.0
 40
0.0
1001
ACAD
1000
DSTYLE
1002
{
1070
   170
1070
     1
1070
   171
1070
     3
1070
   143
1040
0.0393700787401575
1070
   285
1070
     4
1070
     4
1000
"
1070
   271
1070
     8
1070
    40
1040
1.0
1002
}
1001
ACAD_DSTYLE_DIMRADIAL_EXTENSION
1070
   387
1070
     1
1070
   388
1040
0.0
1070
   390
1040
1.570796326794896
1001
ACAD_DSTYLE_DIMINSPECT
1070
   396
1000

1070
   395
1000

1070
   394
1070
     1
1070
   393
1070
     0
1001
ZWMCAD_GENSTANDARDFRAME_13_
1070
   410
1000
GB
1070
   411
1000
ZwmFrameMain_
  0
VIEWPORT
  5
71
102
{ACAD_XDICTIONARY
360
87B09
102
}
330
55
100
AcDbEntity
 67
     1
  8
0
100
AcDbViewport
 10
150.1652135264906
 20
103.6581106594891
 30
0.0
 40
339.1973820494347
 41
168.6522697578383
 68
     1
 69
    -1
 12
150.1652135264906
 22
103.6581106594891
 13
0.0
 23
0.0
 14
10.0
 24
10.0
 15
10.0
 25
10.0
 16
0.0
 26
0.0
 36
1.0
 17
0.0
 27
0.0
 37
0.0
 42
50.0
 43
0.0
 44
0.0
 45
168.6522697578383
 50
0.0
 51
0.0
 72
  1000
 90
    32864
  1

281
     0
 71
     1
 74
     0
110
0.0
120
0.0
130
0.0
111
1.0
121
0.0
131
0.0
112
0.0
122
1.0
132
0.0
 79
     0
146
0.0
1001
ACAD
1000
MVIEW
1002
{
1070
    16
1010
0.0
1020
0.0
1030
0.0
1010
0.0
1020
0.0
1030
1.0
1040
0.0
1040
168.6522697578383
1040
150.1652135264906
1040
103.6581106594891
1040
50.0
1040
0.0
1040
0.0
1070
     0
1070
  1000
1070
     0
1070
     3
1070
     0
1070
     0
1070
     0
1070
     0
1040
0.0
1040
0.0
1040
0.0
1040
10.0
1040
10.0
1040
10.0
1040
10.0
1070
     0
1002
{
1002
}
1002
}
  0
VIEWPORT
  5
73
102
{ACAD_XDICTIONARY
360
87B0B
102
}
330
55
100
AcDbEntity
 67
     1
  8
0
100
AcDbViewport
 10
133.3499939441681
 20
101.5999939441681
 30
0.0
 40
213.3599903106689
 41
162.5599903106689
 68
     2
 69
    -1
 12
210.0
 22
148.5
 13
0.0
 23
0.0
 14
10.0
 24
10.0
 15
10.0
 25
10.0
 16
0.0
 26
0.0
 36
1.0
 17
0.0
 27
0.0
 37
0.0
 42
50.0
 43
0.0
 44
0.0
 45
324.0677920111345
 50
0.0
 51
0.0
 72
   100
 90
    32864
  1

281
     0
 71
     1
 74
     0
110
0.0
120
0.0
130
0.0
111
1.0
121
0.0
131
0.0
112
0.0
122
1.0
132
0.0
 79
     0
146
0.0
1001
ACAD
1000
MVIEW
1002
{
1070
    16
1010
0.0
1020
0.0
1030
0.0
1010
0.0
1020
0.0
1030
1.0
1040
0.0
1040
324.0677920111345
1040
210.0
1040
148.5
1040
50.0
1040
0.0
1040
0.0
1070
     0
1070
   100
1070
     0
1070
     3
1070
     0
1070
     0
1070
     0
1070
     0
1040
0.0
1040
0.0
1040
0.0
1040
10.0
1040
10.0
1040
10.0
1040
10.0
1070
     0
1002
{
1002
}
1002
}
  0
ENDSEC
  0
SECTION
  2
OBJECTS
  0
DICTIONARY
  5
C
330
0
100
AcDbDictionary
281
     1
  3
ACAD_2007HEADERVARS_RT
350
88731
  3
ACAD_CIP_PREVIOUS_PRODUCT_INFO
350
4A3C3
  3
ACAD_COLOR
350
85
  3
ACAD_DETAILVIEWSTYLE
350
4A3BB
  3
ACAD_GROUP
350
D
  3
ACAD_LAYOUT
350
1A
  3
ACAD_MATERIAL
350
84
  3
ACAD_MLEADERSTYLE
350
4A3B7
  3
ACAD_MLINESTYLE
350
17
  3
ACAD_PLOTSETTINGS
350
19
  3
ACAD_PLOTSTYLENAME
350
E
  3
ACAD_SCALELIST
350
4A3A5
  3
ACAD_SECTIONVIEWSTYLE
350
4A3B9
  3
ACAD_TABLESTYLE
350
A1
  3
ACAD_VISUALSTYLE
350
4A38C
  3
ACDB_RECOMPOSE_DATA
350
87AFB
  3
ACDBHEADERROUNDTRIPXREC
350
8872E
  3
AcDbVariableDictionary
350
5E
  3
ASE_INDEX_DICTIONARY
350
349E9
  3
DWGPROPS
350
88734
  0
DICTIONARY
  5
885BC
330
8
100
AcDbDictionary
280
     1
281
     1
  3
ACAD_XREC_ROUNDTRIP
360
8873A
  0
DICTIONARY
  5
E2
330
2
100
AcDbDictionary
280
     1
281
     1
  3
ACAD_LAYERFILTERS
360
4A339
  3
ACAD_LAYERSTATES
360
3759A
  3
ACLYDICTIONARY
360
4A338
  0
DICTIONARY
  5
4A86C
330
10
100
AcDbDictionary
280
     1
281
     1
  3
ADSK_XREC_LAYER_RECONCILED
360
4A86D
  0
DICTIONARY
  5
4A773
330
4A772
100
AcDbDictionary
280
     1
281
     1
  3
ADSK_XREC_LAYER_RECONCILED
360
4A86E
  0
DICTIONARY
  5
4A775
330
4A774
100
AcDbDictionary
280
     1
281
     1
  3
ADSK_XREC_LAYER_RECONCILED
360
4A86F
  0
DICTIONARY
  5
4A777
330
4A776
100
AcDbDictionary
280
     1
281
     1
  3
ADSK_XREC_LAYER_RECONCILED
360
4A870
  0
DICTIONARY
  5
4A779
330
4A778
100
AcDbDictionary
280
     1
281
     1
  3
ADSK_XREC_LAYER_RECONCILED
360
4A871
  0
DICTIONARY
  5
4A77B
330
4A77A
100
AcDbDictionary
280
     1
281
     1
  3
ADSK_XREC_LAYER_RECONCILED
360
4A872
  0
DICTIONARY
  5
4A77D
330
4A77C
100
AcDbDictionary
280
     1
281
     1
  3
ADSK_XREC_LAYER_RECONCILED
360
4A873
  0
DICTIONARY
  5
4A77F
330
4A77E
100
AcDbDictionary
280
     1
281
     1
  3
ADSK_XREC_LAYER_RECONCILED
360
4A874
  0
DICTIONARY
  5
4A783
330
4A782
100
AcDbDictionary
280
     1
281
     1
  3
ADSK_XREC_LAYER_RECONCILED
360
4A876
  0
DICTIONARY
  5
885BA
330
87B52
100
AcDbDictionary
280
     1
281
     1
  3
ACAD_XREC_ROUNDTRIP
360
88739
  0
DICTIONARY
  5
31EE
330
1F
100
AcDbDictionary
280
     1
281
     1
  3
ACAD_SORTENTS
360
31EF
  0
DICTIONARY
  5
4A6D7
330
4A6D6
100
AcDbDictionary
280
     1
281
     1
  3
ACAD_SORTENTS
360
4A6D8
  0
DICTIONARY
  5
87B05
330
6B
100
AcDbDictionary
280
     1
281
     1
  3
ACAD_XREC_ROUNDTRIP
360
88737
  0
DICTIONARY
  5
87B07
330
6D
100
AcDbDictionary
280
     1
281
     1
  3
ACAD_XREC_ROUNDTRIP
360
88738
  0
DICTIONARY
  5
883C4
330
883C3
100
AcDbDictionary
280
     1
281
     1
  3
ACAD_DIMASSOC
360
883C5
  0
DICTIONARY
  5
883C7
330
883C6
100
AcDbDictionary
280
     1
281
     1
  3
ACAD_DIMASSOC
360
883C8
  0
DICTIONARY
  5
883CC
330
883CB
100
AcDbDictionary
280
     1
281
     1
  3
ACAD_DIMASSOC
360
883CD
  0
DICTIONARY
  5
883CF
330
883CE
100
AcDbDictionary
280
     1
281
     1
  3
ACAD_DIMASSOC
360
883D0
  0
DICTIONARY
  5
883D4
330
883D3
100
AcDbDictionary
280
     1
281
     1
  3
ACAD_DIMASSOC
360
883D5
  0
DICTIONARY
  5
87B09
330
71
100
AcDbDictionary
280
     1
281
     1
  3
ACAD_XREC_ROUNDTRIP
360
88735
  0
DICTIONARY
  5
87B0B
330
73
100
AcDbDictionary
280
     1
281
     1
  3
ACAD_XREC_ROUNDTRIP
360
88736
  0
DICTIONARY
  5
88731
102
{ACAD_REACTORS
330
C
102
}
330
C
100
AcDbDictionary
281
     1
  3
DIMTFILL
350
88732
  3
DIMTFILLCLR
350
88733
  0
XRECORD
  5
4A3C3
102
{ACAD_REACTORS
330
C
102
}
330
C
100
AcDbXrecord
280
     1
300
ACDLT
300
2020
300

  0
DICTIONARY
  5
85
102
{ACAD_REACTORS
330
C
102
}
330
C
100
AcDbDictionary
281
     1
  0
DICTIONARY
  5
4A3BB
102
{ACAD_REACTORS
330
C
102
}
330
C
100
AcDbDictionary
281
     1
  3
Metric50
350
4A3BC
  0
DICTIONARY
  5
D
102
{ACAD_REACTORS
330
C
102
}
330
C
100
AcDbDictionary
281
     1
  0
DICTIONARY
  5
1A
102
{ACAD_REACTORS
330
C
102
}
330
C
100
AcDbDictionary
281
     1
  3
Model
350
22
  3
レイアウト1
350
51
  3
レイアウト2
350
56
  0
DICTIONARY
  5
84
102
{ACAD_REACTORS
330
C
102
}
330
C
100
AcDbDictionary
281
     1
  3
ByBlock
350
4A37C
  3
ByLayer
350
4A374
  3
Global
350
4A384
  0
DICTIONARY
  5
4A3B7
102
{ACAD_REACTORS
330
C
102
}
330
C
100
AcDbDictionary
281
     1
  3
Standard
350
4A3B8
  0
DICTIONARY
  5
17
102
{ACAD_REACTORS
330
C
102
}
330
C
100
AcDbDictionary
281
     1
  3
Standard
350
18
  0
DICTIONARY
  5
19
102
{ACAD_REACTORS
330
C
102
}
330
C
100
AcDbDictionary
281
     1
  0
ACDBDICTIONARYWDFLT
  5
E
102
{ACAD_REACTORS
330
C
102
}
330
C
100
AcDbDictionary
281
     1
  3
Normal
350
F
100
AcDbDictionaryWithDefault
340
F
  0
DICTIONARY
  5
4A3A5
102
{ACAD_REACTORS
330
C
102
}
330
C
100
AcDbDictionary
281
     1
  3
A0
350
4A3A6
  3
A1
350
4A3A7
  3
A2
350
4A3A8
  3
A3
350
4A3A9
  3
A4
350
4A3AA
  3
A5
350
4A3AB
  3
A6
350
4A3AC
  3
A7
350
4A3AD
  3
A8
350
4A3AE
  3
A9
350
4A3AF
  3
B0
350
4A3B0
  3
B1
350
4A3B1
  3
B2
350
4A3B2
  3
B3
350
4A3B3
  3
B4
350
4A3B4
  3
B5
350
4A3B5
  3
B6
350
4A3B6
  0
DICTIONARY
  5
4A3B9
102
{ACAD_REACTORS
330
C
102
}
330
C
100
AcDbDictionary
281
     1
  3
Metric50
350
4A3BA
  0
DICTIONARY
  5
A1
102
{ACAD_REACTORS
330
C
102
}
330
C
100
AcDbDictionary
281
     1
  3
Standard
350
A2
  0
DICTIONARY
  5
4A38C
102
{ACAD_REACTORS
330
C
102
}
330
C
100
AcDbDictionary
281
     1
  3
2dWireframe
350
4A392
  3
Basic
350
4A391
  3
Brighten
350
4A398
  3
ColorChange
350
4A39C
  3
Conceptual
350
4A395
  3
Dim
350
4A397
  3
EdgeColorOff
350
4A3A4
  3
Facepattern
350
4A39B
  3
Flat
350
4A38D
  3
FlatWithEdges
350
4A38E
  3
Gouraud
350
4A38F
  3
GouraudWithEdges
350
4A390
  3
Hidden
350
4A394
  3
JitterOff
350
4A3A2
  3
Linepattern
350
4A39A
  3
OverhangOff
350
4A3A3
  3
Realistic
350
4A396
  3
Shaded
350
4A3A1
  3
Shaded with edges
350
4A3A0
  3
Shades of Gray
350
4A39D
  3
Sketchy
350
4A39E
  3
Thicken
350
4A399
  3
Wireframe
350
4A393
  3
X-Ray
350
4A39F
  0
XRECORD
  5
87AFB
102
{ACAD_REACTORS
330
C
102
}
330
C
100
AcDbXrecord
280
     1
 90
        1
330
A2
  0
DICTIONARY
  5
8872E
102
{ACAD_REACTORS
330
C
102
}
330
C
100
AcDbDictionary
281
     1
  3
COLORDICT
350
8872F
  3
MATERIALDICT
350
88730
  0
DICTIONARY
  5
5E
102
{ACAD_REACTORS
330
C
102
}
330
C
100
AcDbDictionary
281
     1
  3
CANNOSCALE
350
8872D
  3
CMLEADERSTYLE
350
4A6CE
  3
CTABLESTYLE
350
B8
  3
CVIEWDETAILSTYLE
350
4A6CF
  3
CVIEWSECTIONSTYLE
350
4A6D0
  3
DIMASSOC
350
5F
  3
HIDETEXT
350
63
  3
INDEXCTL
350
4A879
  3
LAYEREVAL
350
4A6D4
  3
LAYERNOTIFY
350
4A6D5
  3
LIGHTINGUNITS
350
4A6D3
  3
MSLTSCALE
350
4A6D1
  3
PROJECTNAME
350
31CE
  3
SORTENTS
350
4A878
  3
XCLIPFRAME
350
87AF9
  0
DICTIONARY
  5
349E9
102
{ACAD_REACTORS
330
C
102
}
330
C
100
AcDbDictionary
281
     1
  3
ASEBlockHierarchyIndexRecord
350
349EA
1001
DCO15
1040
1842496176.844
  0
XRECORD
  5
88734
102
{ACAD_REACTORS
330
C
102
}
330
C
100
AcDbXrecord
280
     1
  1
DWGPROPS COOKIE
  2

  3

  4

  6

  7

  8
zhangnw
  9

300
=
301
=
302
=
303
=
304
=
305
=
306
=
307
=
308
=
309
=
 40
0.0
 41
2455489.391063368
 42
2458948.464685127
  1

 90
        0
  0
XRECORD
  5
8873A
102
{ACAD_REACTORS
330
885BC
102
}
330
885BC
100
AcDbXrecord
280
     1
102
VTR_0.000_0.000_1.000_1.000_VISUALSTYLE
340
4A392
102
VTR_0.000_0.000_1.000_1.000_GRIDDISPLAY
 70
     3
102
VTR_0.000_0.000_1.000_1.000_GRIDMAJOR
 70
     5
102
VTR_0.000_0.000_1.000_1.000_DEFAULTLIGHTING
280
     1
102
VTR_0.000_0.000_1.000_1.000_DEFAULTLIGHTINGTYPE
 70
     1
102
VTR_0.000_0.000_1.000_1.000_BRIGHTNESS
141
0.0
102
VTR_0.000_0.000_1.000_1.000_CONTRAST
142
0.0
  0
DICTIONARY
  5
4A339
102
{ACAD_REACTORS
330
E2
102
}
330
E2
100
AcDbDictionary
281
     1
  0
DICTIONARY
  5
3759A
102
{ACAD_REACTORS
330
E2
102
}
330
E2
100
AcDbDictionary
281
     1
  0
DICTIONARY
  5
4A338
102
{ACAD_REACTORS
330
E2
102
}
330
E2
100
AcDbDictionary
281
     1
1001
ACAD
1000
<All
  0
XRECORD
  5
4A86D
102
{ACAD_REACTORS
330
4A86C
102
}
330
4A86C
100
AcDbXrecord
280
     1
290
     1
  0
XRECORD
  5
4A86E
102
{ACAD_REACTORS
330
4A773
102
}
330
4A773
100
AcDbXrecord
280
     1
290
     1
  0
XRECORD
  5
4A86F
102
{ACAD_REACTORS
330
4A775
102
}
330
4A775
100
AcDbXrecord
280
     1
290
     1
  0
XRECORD
  5
4A870
102
{ACAD_REACTORS
330
4A777
102
}
330
4A777
100
AcDbXrecord
280
     1
290
     1
  0
XRECORD
  5
4A871
102
{ACAD_REACTORS
330
4A779
102
}
330
4A779
100
AcDbXrecord
280
     1
290
     1
  0
XRECORD
  5
4A872
102
{ACAD_REACTORS
330
4A77B
102
}
330
4A77B
100
AcDbXrecord
280
     1
290
     1
  0
XRECORD
  5
4A873
102
{ACAD_REACTORS
330
4A77D
102
}
330
4A77D
100
AcDbXrecord
280
     1
290
     1
  0
XRECORD
  5
4A874
102
{ACAD_REACTORS
330
4A77F
102
}
330
4A77F
100
AcDbXrecord
280
     1
290
     1
  0
XRECORD
  5
4A876
102
{ACAD_REACTORS
330
4A783
102
}
330
4A783
100
AcDbXrecord
280
     1
290
     1
  0
XRECORD
  5
88739
102
{ACAD_REACTORS
330
885BA
102
}
330
885BA
100
AcDbXrecord
280
     1
102
MATERIAL
340
4A384
  0
SORTENTSTABLE
  5
31EF
102
{ACAD_REACTORS
330
31EE
102
}
330
31EE
100
AcDbSortentsTable
330
1F
  0
SORTENTSTABLE
  5
4A6D8
102
{ACAD_REACTORS
330
4A6D7
102
}
330
4A6D7
100
AcDbSortentsTable
330
4A6D6
  0
XRECORD
  5
88737
102
{ACAD_REACTORS
330
87B05
102
}
330
87B05
100
AcDbXrecord
280
     1
102
GRIDDISPLAY
 70
     0
102
GRIDMAJOR
 70
     5
102
DEFAULTLIGHTING
280
     1
102
DEFAULTLIGHTINGTYPE
 70
     1
102
BRIGHTNESS
141
0.0
102
CONTRAST
142
0.0
  0
XRECORD
  5
88738
102
{ACAD_REACTORS
330
87B07
102
}
330
87B07
100
AcDbXrecord
280
     1
102
GRIDDISPLAY
 70
     0
102
GRIDMAJOR
 70
     5
102
DEFAULTLIGHTING
280
     1
102
DEFAULTLIGHTINGTYPE
 70
     1
102
BRIGHTNESS
141
0.0
102
CONTRAST
142
0.0
  0
DIMASSOC
  5
883C5
102
{ACAD_REACTORS
330
883C4
102
}
330
883C4
100
AcDbDimAssoc
330
883C3
 90
        3
 70
     0
 71
     0
  1
AcDbOsnapPointRef
 72
     6
331
88373
 73
     2
 91
        0
 40
1.0
 10
0.0
 20
0.0
 30
0.0
332
88358
 74
     2
 92
        0
 75
     0
  1
AcDbOsnapPointRef
 72
     1
331
883BB
 73
     2
 91
        0
 40
1.0
 10
0.0
 20
0.0
 30
1.999999999999998E+50
 75
     0
  0
DIMASSOC
  5
883C8
102
{ACAD_REACTORS
330
883C7
102
}
330
883C7
100
AcDbDimAssoc
330
883C6
 90
        3
 70
     0
 71
     0
  1
AcDbOsnapPointRef
 72
    13
331
8836B
 73
     2
 91
        0
 40
1.570796326794896
 10
0.0
 20
0.0
 30
1.999999999999998E+50
 75
     0
  1
AcDbOsnapPointRef
 72
     1
331
88362
 73
     2
 91
        0
 40
1.0
 10
0.0
 20
0.0
 30
1.999999999999998E+50
 75
     0
  0
DIMASSOC
  5
883CD
102
{ACAD_REACTORS
330
883CC
102
}
330
883CC
100
AcDbDimAssoc
330
883CB
 90
        3
 70
     0
 71
     0
  1
AcDbOsnapPointRef
 72
    13
331
883C9
 73
     2
 91
        0
 40
0.0
 10
0.0
 20
0.0
 30
1.999999999999998E+50
 75
     0
  1
AcDbOsnapPointRef
 72
    13
331
883CA
 73
     2
 91
        0
 40
0.0
 10
0.0
 20
0.0
 30
1.999999999999998E+50
 75
     0
  0
DIMASSOC
  5
883D0
102
{ACAD_REACTORS
330
883CF
102
}
330
883CF
100
AcDbDimAssoc
330
883CE
 90
        1
 70
     0
 71
     0
  1
AcDbOsnapPointRef
 72
     1
331
8836B
 73
     2
 91
        0
 40
3.141592653589792
 10
0.0
 20
0.0
 30
1.999999999999998E+50
 75
     0
  0
DIMASSOC
  5
883D5
102
{ACAD_REACTORS
330
883D4
102
}
330
883D4
100
AcDbDimAssoc
330
883D3
 90
        1
 70
     0
 71
     0
  1
AcDbOsnapPointRef
 72
     1
331
88356
 73
     2
 91
        0
 40
1.570796326794896
 10
0.0
 20
0.0
 30
1.999999999999998E+50
 75
     0
  0
XRECORD
  5
88735
102
{ACAD_REACTORS
330
87B09
102
}
330
87B09
100
AcDbXrecord
280
     1
102
GRIDDISPLAY
 70
     0
102
GRIDMAJOR
 70
     5
102
DEFAULTLIGHTING
280
     1
102
DEFAULTLIGHTINGTYPE
 70
     1
102
BRIGHTNESS
141
0.0
102
CONTRAST
142
0.0
  0
XRECORD
  5
88736
102
{ACAD_REACTORS
330
87B0B
102
}
330
87B0B
100
AcDbXrecord
280
     1
102
GRIDDISPLAY
 70
     0
102
GRIDMAJOR
 70
     5
102
DEFAULTLIGHTING
280
     1
102
DEFAULTLIGHTINGTYPE
 70
     1
102
BRIGHTNESS
141
0.0
102
CONTRAST
142
0.0
  0
XRECORD
  5
88732
102
{ACAD_REACTORS
330
88731
102
}
330
88731
100
AcDbXrecord
280
     1
 70
     1
  0
XRECORD
  5
88733
102
{ACAD_REACTORS
330
88731
102
}
330
88731
100
AcDbXrecord
280
     1
1004
1800000001000000000000C1000000000000000000000000
  0
ACDBDETAILVIEWSTYLE
  5
4A3BC
102
{ACAD_XDICTIONARY
360
87B40
102
}
102
{ACAD_REACTORS
330
4A3BB
102
}
330
4A3BB
100
AcDbModelDocViewStyle
 70
     0
  3
Metric50
290
     0
100
AcDbDetailViewStyle
 70
     0
 71
     0
 90
        3
 71
     1
340
11
 40
5.0
340
0
 40
5.0
300

 40
0.0
280
     1
 71
     2
340
16
 90
       25
 71
     3
340
11
 40
5.0
 90
        0
 40
15.0
 90
        1
300
%<\AcVar ViewDetailId>% (%<\AcVar ViewScale \f "%sn">%)
 71
     4
340
16
 90
       25
340
16
 90
       25
280
     0
  0
LAYOUT
  5
22
102
{ACAD_REACTORS
330
1A
102
}
330
1A
100
AcDbPlotSettings
  1

  2
none_device
  4
ANSI_A_(8.50_x_11.00_Inches)
  6

 40
6.349999904632567
 41
19.04999923706055
 42
6.350006103515625
 43
19.04998779296875
 44
215.8999938964844
 45
279.3999938964844
 46
0.0
 47
0.0
 48
0.0
 49
0.0
140
0.0
141
0.0
142
1.0
143
78.436453180766
 70
 11952
 72
     0
 73
     1
 74
     0
  7

 75
     0
147
0.0127491741332998
148
0.0
149
0.0
100
AcDbLayout
  1
Model
 70
     1
 71
     0
 10
0.0
 20
0.0
 11
12.0
 21
9.0
 12
0.0
 22
0.0
 32
0.0
 14
0.0
 24
0.0
 34
0.0
 15
0.0
 25
0.0
 35
0.0
146
0.0
 13
0.0
 23
0.0
 33
0.0
 16
1.0
 26
0.0
 36
0.0
 17
0.0
 27
1.0
 37
0.0
 76
     0
330
1F
331
4A360
  0
LAYOUT
  5
51
102
{ACAD_REACTORS
330
1A
102
}
330
1A
100
AcDbPlotSettings
  1

  2
none_device
  4
Letter_(8.50_x_11.00_Inches)
  6

 40
6.349999904632567
 41
6.349999904632567
 42
6.350006103515625
 43
6.350006103515625
 44
215.8999938964844
 45
279.3999938964844
 46
0.0
 47
0.0
 48
0.0
 49
0.0
140
0.0
141
0.0
142
1.0
143
1.0
 70
   688
 72
     1
 73
     1
 74
     5
  7

 75
    16
147
1.0
148
0.0
149
0.0
100
AcDbLayout
  1
レイアウト1
 70
     1
 71
     1
 10
-6.350006103515625
 20
-6.349999904632567
 11
273.0499877929688
 21
209.5499939918518
 12
0.0
 22
0.0
 32
0.0
 14
26.66999878883364
 24
20.31999878883365
 34
0.0
 15
240.0299890995025
 25
182.8799890995025
 35
0.0
146
0.0
 13
0.0
 23
0.0
 33
0.0
 16
1.0
 26
0.0
 36
0.0
 17
0.0
 27
1.0
 37
0.0
 76
     0
330
50
331
6B
  0
LAYOUT
  5
56
102
{ACAD_REACTORS
330
1A
102
}
330
1A
100
AcDbPlotSettings
  1

  2
none_device
  4
Letter_(8.50_x_11.00_Inches)
  6

 40
6.349999904632567
 41
6.349999904632567
 42
6.350006103515625
 43
6.350006103515625
 44
215.8999938964844
 45
279.3999938964844
 46
0.0
 47
0.0
 48
0.0
 49
0.0
140
0.0
141
0.0
142
1.0
143
1.0
 70
   688
 72
     1
 73
     1
 74
     5
  7

 75
    16
147
1.0
148
0.0
149
0.0
100
AcDbLayout
  1
レイアウト2
 70
     1
 71
     2
 10
-6.350006103515625
 20
-6.349999904632567
 11
273.0499877929688
 21
209.5499939918518
 12
0.0
 22
0.0
 32
0.0
 14
26.66999878883364
 24
20.31999878883365
 34
0.0
 15
240.0299890995025
 25
182.8799890995025
 35
0.0
146
0.0
 13
0.0
 23
0.0
 33
0.0
 16
1.0
 26
0.0
 36
0.0
 17
0.0
 27
1.0
 37
0.0
 76
     0
330
55
331
71
  0
MATERIAL
  5
4A37C
102
{ACAD_XDICTIONARY
360
4A37D
102
}
102
{ACAD_REACTORS
330
84
102
}
330
84
100
AcDbMaterial
  1
ByBlock
 72
     0
 73
     2
 43
0.0008202099737533
 43
0.0
 43
0.0
 43
0.0
 43
0.0
 43
0.0008202099737533
 43
0.0
 43
0.0
 43
0.0
 43
0.0
 43
1.0
 43
0.0
 43
0.0
 43
0.0
 43
0.0
 43
1.0
 77
     0
 78
     2
 47
0.0008202099737533
 47
0.0
 47
0.0
 47
0.0
 47
0.0
 47
0.0008202099737533
 47
0.0
 47
0.0
 47
0.0
 47
0.0
 47
1.0
 47
0.0
 47
0.0
 47
0.0
 47
0.0
 47
1.0
171
     0
172
     2
 49
0.0008202099737533
 49
0.0
 49
0.0
 49
0.0
 49
0.0
 49
0.0008202099737533
 49
0.0
 49
0.0
 49
0.0
 49
0.0
 49
1.0
 49
0.0
 49
0.0
 49
0.0
 49
0.0
 49
1.0
175
     0
176
     2
142
0.0008202099737533
142
0.0
142
0.0
142
0.0
142
0.0
142
0.0008202099737533
142
0.0
142
0.0
142
0.0
142
0.0
142
1.0
142
0.0
142
0.0
142
0.0
142
0.0
142
1.0
179
     0
270
     2
144
0.0008202099737533
144
0.0
144
0.0
144
0.0
144
0.0
144
0.0008202099737533
144
0.0
144
0.0
144
0.0
144
0.0
144
1.0
144
0.0
144
0.0
144
0.0
144
0.0
144
1.0
274
     2
147
0.0008202099737533
147
0.0
147
0.0
147
0.0
147
0.0
147
0.0008202099737533
147
0.0
147
0.0
147
0.0
147
0.0
147
1.0
147
0.0
147
0.0
147
0.0
147
0.0
147
1.0
  0
MATERIAL
  5
4A374
102
{ACAD_XDICTIONARY
360
4A375
102
}
102
{ACAD_REACTORS
330
84
102
}
330
84
100
AcDbMaterial
  1
ByLayer
 72
     0
 73
     2
 43
0.0008202099737533
 43
0.0
 43
0.0
 43
0.0
 43
0.0
 43
0.0008202099737533
 43
0.0
 43
0.0
 43
0.0
 43
0.0
 43
1.0
 43
0.0
 43
0.0
 43
0.0
 43
0.0
 43
1.0
 77
     0
 78
     2
 47
0.0008202099737533
 47
0.0
 47
0.0
 47
0.0
 47
0.0
 47
0.0008202099737533
 47
0.0
 47
0.0
 47
0.0
 47
0.0
 47
1.0
 47
0.0
 47
0.0
 47
0.0
 47
0.0
 47
1.0
171
     0
172
     2
 49
0.0008202099737533
 49
0.0
 49
0.0
 49
0.0
 49
0.0
 49
0.0008202099737533
 49
0.0
 49
0.0
 49
0.0
 49
0.0
 49
1.0
 49
0.0
 49
0.0
 49
0.0
 49
0.0
 49
1.0
175
     0
176
     2
142
0.0008202099737533
142
0.0
142
0.0
142
0.0
142
0.0
142
0.0008202099737533
142
0.0
142
0.0
142
0.0
142
0.0
142
1.0
142
0.0
142
0.0
142
0.0
142
0.0
142
1.0
179
     0
270
     2
144
0.0008202099737533
144
0.0
144
0.0
144
0.0
144
0.0
144
0.0008202099737533
144
0.0
144
0.0
144
0.0
144
0.0
144
1.0
144
0.0
144
0.0
144
0.0
144
0.0
144
1.0
274
     2
147
0.0008202099737533
147
0.0
147
0.0
147
0.0
147
0.0
147
0.0008202099737533
147
0.0
147
0.0
147
0.0
147
0.0
147
1.0
147
0.0
147
0.0
147
0.0
147
0.0
147
1.0
  0
MATERIAL
  5
4A384
102
{ACAD_XDICTIONARY
360
4A385
102
}
102
{ACAD_REACTORS
330
84
102
}
330
84
100
AcDbMaterial
  1
Global
 72
     0
 73
     2
 43
0.0008202099737533
 43
0.0
 43
0.0
 43
0.0
 43
0.0
 43
0.0008202099737533
 43
0.0
 43
0.0
 43
0.0
 43
0.0
 43
1.0
 43
0.0
 43
0.0
 43
0.0
 43
0.0
 43
1.0
 77
     0
 78
     2
 47
0.0008202099737533
 47
0.0
 47
0.0
 47
0.0
 47
0.0
 47
0.0008202099737533
 47
0.0
 47
0.0
 47
0.0
 47
0.0
 47
1.0
 47
0.0
 47
0.0
 47
0.0
 47
0.0
 47
1.0
171
     0
172
     2
 49
0.0008202099737533
 49
0.0
 49
0.0
 49
0.0
 49
0.0
 49
0.0008202099737533
 49
0.0
 49
0.0
 49
0.0
 49
0.0
 49
1.0
 49
0.0
 49
0.0
 49
0.0
 49
0.0
 49
1.0
175
     0
176
     2
142
0.0008202099737533
142
0.0
142
0.0
142
0.0
142
0.0
142
0.0008202099737533
142
0.0
142
0.0
142
0.0
142
0.0
142
1.0
142
0.0
142
0.0
142
0.0
142
0.0
142
1.0
179
     0
270
     2
144
0.0008202099737533
144
0.0
144
0.0
144
0.0
144
0.0
144
0.0008202099737533
144
0.0
144
0.0
144
0.0
144
0.0
144
1.0
144
0.0
144
0.0
144
0.0
144
0.0
144
1.0
274
     2
147
0.0008202099737533
147
0.0
147
0.0
147
0.0
147
0.0
147
0.0008202099737533
147
0.0
147
0.0
147
0.0
147
0.0
147
1.0
147
0.0
147
0.0
147
0.0
147
0.0
147
1.0
  0
MLEADERSTYLE
  5
4A3B8
102
{ACAD_XDICTIONARY
360
885C1
102
}
102
{ACAD_REACTORS
330
4A3B7
102
}
330
4A3B7
100
AcDbMLeaderStyle
170
     2
171
     1
172
     0
 90
        2
 40
0.0
 41
0.0
173
     1
 91
-1056964608
340
14
 92
       -2
290
     1
 42
2.0
291
     1
 43
0.36
  3
Standard
 44
4.0
300

342
11
174
     1
178
     6
175
     1
176
     0
 93
-1056964608
 45
4.0
292
     0
297
     0
 46
4.0
 94
-1056964608
 47
1.0
 49
1.0
140
1.0
293
     1
141
0.0
294
     1
177
     0
142
1.0
295
     0
296
     0
143
0.125
1001
ACAD_MLEADERVER
1070
     2
  0
MLINESTYLE
  5
18
102
{ACAD_REACTORS
330
17
102
}
330
17
100
AcDbMlineStyle
  2
STANDARD
 70
     0
  3

 62
   256
 51
90.0
 52
90.0
 71
     2
 49
0.5
 62
   256
  6
BYLAYER
 49
-0.5
 62
   256
  6
BYLAYER
  0
ACDBPLACEHOLDER
  5
F
102
{ACAD_REACTORS
330
E
102
}
330
E
  0
SCALE
  5
4A3A6
102
{ACAD_REACTORS
330
4A3A5
102
}
330
4A3A5
100
AcDbScale
 70
     0
300
1:1
140
1.0
141
1.0
290
     1
  0
SCALE
  5
4A3A7
102
{ACAD_REACTORS
330
4A3A5
102
}
330
4A3A5
100
AcDbScale
 70
     0
300
1:2
140
1.0
141
2.0
290
     0
  0
SCALE
  5
4A3A8
102
{ACAD_REACTORS
330
4A3A5
102
}
330
4A3A5
100
AcDbScale
 70
     0
300
1:4
140
1.0
141
4.0
290
     0
  0
SCALE
  5
4A3A9
102
{ACAD_REACTORS
330
4A3A5
102
}
330
4A3A5
100
AcDbScale
 70
     0
300
1:5
140
1.0
141
5.0
290
     0
  0
SCALE
  5
4A3AA
102
{ACAD_REACTORS
330
4A3A5
102
}
330
4A3A5
100
AcDbScale
 70
     0
300
1:8
140
1.0
141
8.0
290
     0
  0
SCALE
  5
4A3AB
102
{ACAD_REACTORS
330
4A3A5
102
}
330
4A3A5
100
AcDbScale
 70
     0
300
1:10
140
1.0
141
10.0
290
     0
  0
SCALE
  5
4A3AC
102
{ACAD_REACTORS
330
4A3A5
102
}
330
4A3A5
100
AcDbScale
 70
     0
300
1:16
140
1.0
141
16.0
290
     0
  0
SCALE
  5
4A3AD
102
{ACAD_REACTORS
330
4A3A5
102
}
330
4A3A5
100
AcDbScale
 70
     0
300
1:20
140
1.0
141
20.0
290
     0
  0
SCALE
  5
4A3AE
102
{ACAD_REACTORS
330
4A3A5
102
}
330
4A3A5
100
AcDbScale
 70
     0
300
1:30
140
1.0
141
30.0
290
     0
  0
SCALE
  5
4A3AF
102
{ACAD_REACTORS
330
4A3A5
102
}
330
4A3A5
100
AcDbScale
 70
     0
300
1:40
140
1.0
141
40.0
290
     0
  0
SCALE
  5
4A3B0
102
{ACAD_REACTORS
330
4A3A5
102
}
330
4A3A5
100
AcDbScale
 70
     0
300
1:50
140
1.0
141
50.0
290
     0
  0
SCALE
  5
4A3B1
102
{ACAD_REACTORS
330
4A3A5
102
}
330
4A3A5
100
AcDbScale
 70
     0
300
1:100
140
1.0
141
100.0
290
     0
  0
SCALE
  5
4A3B2
102
{ACAD_REACTORS
330
4A3A5
102
}
330
4A3A5
100
AcDbScale
 70
     0
300
2:1
140
2.0
141
1.0
290
     0
  0
SCALE
  5
4A3B3
102
{ACAD_REACTORS
330
4A3A5
102
}
330
4A3A5
100
AcDbScale
 70
     0
300
4:1
140
4.0
141
1.0
290
     0
  0
SCALE
  5
4A3B4
102
{ACAD_REACTORS
330
4A3A5
102
}
330
4A3A5
100
AcDbScale
 70
     0
300
8:1
140
8.0
141
1.0
290
     0
  0
SCALE
  5
4A3B5
102
{ACAD_REACTORS
330
4A3A5
102
}
330
4A3A5
100
AcDbScale
 70
     0
300
10:1
140
10.0
141
1.0
290
     0
  0
SCALE
  5
4A3B6
102
{ACAD_REACTORS
330
4A3A5
102
}
330
4A3A5
100
AcDbScale
 70
     0
300
100:1
140
100.0
141
1.0
290
     0
  0
ACDBSECTIONVIEWSTYLE
  5
4A3BA
102
{ACAD_XDICTIONARY
360
87B3E
102
}
102
{ACAD_REACTORS
330
4A3B9
102
}
330
4A3B9
100
AcDbModelDocViewStyle
 70
     0
  3
Metric50
290
     0
100
AcDbSectionViewStyle
 70
     0
 71
     0
 90
      102
 71
     1
340
11
 40
5.0
340
0
340
0
 40
5.0
300
I, O, Q, S, X, Z
 40
10.0
 90
        0
 40
2.5
 90
        0
 71
     2
340
16
 90
       25
340
16
 90
       50
 40
5.0
 40
2.5
 40
5.0
 71
     3
340
11
 40
5.0
 90
        0
 40
15.0
 90
        1
300
%<\AcVar ViewSectionStartId>%-%<\AcVar ViewSectionEndId>% (%<\AcVar ViewScale \f "%sn">%)
 71
     4
300
ANSI31
 40
1.0
 90
        0
290
     0
290
     0
 90
        6
 40
0.0
 40
1.570796326794896
 40
0.2617993877991494
 40
1.308996938995747
 40
-0.2617993877991494
 40
1.832595714594044
  0
TABLESTYLE
  5
A2
102
{ACAD_XDICTIONARY
360
4CD9A
102
}
102
{ACAD_REACTORS
330
A1
102
}
330
A1
100
AcDbTableStyle
  3
Standard
 70
     0
 71
     0
 40
1.5
 41
1.5
280
     0
281
     0
  7
Standard
140
4.5
170
     2
 62
     0
 63
   257
283
     0
274
    -2
284
     1
 64
     0
275
    -2
285
     1
 65
     0
276
    -2
286
     1
 66
     0
277
    -2
287
     1
 67
     0
278
    -2
288
     1
 68
     0
279
    -2
289
     1
 69
     0
  7
Standard
140
6.0
170
     5
 62
     0
 63
   257
283
     0
274
    -2
284
     1
 64
     0
275
    -2
285
     1
 65
     0
276
    -2
286
     1
 66
     0
277
    -2
287
     1
 67
     0
278
    -2
288
     1
 68
     0
279
    -2
289
     1
 69
     0
  7
Standard
140
4.5
170
     5
 62
     0
 63
   257
283
     0
274
    -2
284
     1
 64
     0
275
    -2
285
     1
 65
     0
276
    -2
286
     1
 66
     0
277
    -2
287
     1
 67
     0
278
    -2
288
     1
 68
     0
279
    -2
289
     1
 69
     0
  0
VISUALSTYLE
  5
4A392
102
{ACAD_XDICTIONARY
360
87B18
102
}
102
{ACAD_REACTORS
330
4A38C
102
}
330
4A38C
100
AcDbVisualStyle
  2

 70
     4
 71
     0
 72
     2
 73
     0
 90
        0
 40
-0.6
 41
-30.0
 62
     5
 63
     7
 74
     1
 91
        4
 64
     7
 65
   257
 75
     1
175
     1
 42
1.0
 92
        0
 66
   257
 43
1.0
 76
     1
 77
     6
 78
     2
 67
     7
 79
     5
170
     0
171
     0
290
     0
174
     0
 93
        1
 44
0.0
173
     0
291
     0
 45
0.0
1001
ACAD
1000
AcDbSavedByObjectVersion
1070
     0
  0
VISUALSTYLE
  5
4A391
102
{ACAD_XDICTIONARY
360
87B16
102
}
102
{ACAD_REACTORS
330
4A38C
102
}
330
4A38C
100
AcDbVisualStyle
  2

 70
     7
 71
     1
 72
     0
 73
     1
 90
        0
 40
-0.6
 41
-30.0
 62
     5
 63
     7
 74
     0
 91
        4
 64
     7
 65
   257
 75
     1
175
     1
 42
1.0
 92
        8
 66
     7
 43
1.0
 76
     1
 77
     6
 78
     2
 67
     7
 79
     5
170
     0
171
     0
290
     0
174
     0
 93
        1
 44
0.0
173
     0
291
     1
 45
0.0
1001
ACAD
1000
AcDbSavedByObjectVersion
1070
     0
  0
VISUALSTYLE
  5
4A398
102
{ACAD_XDICTIONARY
360
87B24
102
}
102
{ACAD_REACTORS
330
4A38C
102
}
330
4A38C
100
AcDbVisualStyle
  2

 70
    12
 71
     2
 72
     2
 73
     0
 90
        0
 40
-0.6
 41
-30.0
 62
     5
 63
     7
 74
     1
 91
        4
 64
     7
 65
   257
 75
     1
175
     1
 42
1.0
 92
        8
 66
     7
 43
1.0
 76
     1
 77
     6
 78
     2
 67
     7
 79
     5
170
     0
171
     0
290
     0
174
     0
 93
        1
 44
50.0
173
     0
291
     1
 45
0.0
1001
ACAD
1000
AcDbSavedByObjectVersion
1070
     0
  0
VISUALSTYLE
  5
4A39C
102
{ACAD_XDICTIONARY
360
87B2C
102
}
102
{ACAD_REACTORS
330
4A38C
102
}
330
4A38C
100
AcDbVisualStyle
  2

 70
    16
 71
     2
 72
     2
 73
     3
 90
        0
 40
-0.6
 41
-30.0
 62
     5
 63
     8
 74
     1
 91
        4
 64
     7
 65
   257
 75
     1
175
     1
 42
1.0
 92
        8
 66
     8
 43
1.0
 76
     1
 77
     6
 78
     2
 67
     7
 79
     5
170
     0
171
     0
290
     0
174
     0
 93
        1
 44
0.0
173
     0
291
     1
 45
0.0
1001
ACAD
1000
AcDbSavedByObjectVersion
1070
     0
  0
VISUALSTYLE
  5
4A395
102
{ACAD_XDICTIONARY
360
87B1E
102
}
102
{ACAD_REACTORS
330
4A38C
102
}
330
4A38C
100
AcDbVisualStyle
  2

 70
     9
 71
     3
 72
     2
 73
     0
 90
        0
 40
-0.6
 41
-30.0
 62
     5
 63
     7
 74
     2
 91
        2
 64
     7
 65
   257
 75
     1
175
     1
 42
179.0
 92
        8
 66
     7
 43
1.0
 76
     1
 77
     6
 78
     2
 67
     7
 79
     3
170
     0
171
     0
290
     0
174
     0
 93
        1
 44
0.0
173
     0
291
     0
 45
0.0
1001
ACAD
1000
AcDbSavedByObjectVersion
1070
     0
  0
VISUALSTYLE
  5
4A397
102
{ACAD_XDICTIONARY
360
87B22
102
}
102
{ACAD_REACTORS
330
4A38C
102
}
330
4A38C
100
AcDbVisualStyle
  2

 70
    11
 71
     2
 72
     2
 73
     0
 90
        0
 40
-0.6
 41
-30.0
 62
     5
 63
     7
 74
     1
 91
        4
 64
     7
 65
   257
 75
     1
175
     1
 42
1.0
 92
        8
 66
     7
 43
1.0
 76
     1
 77
     6
 78
     2
 67
     7
 79
     5
170
     0
171
     0
290
     0
174
     0
 93
        1
 44
-50.0
173
     0
291
     1
 45
0.0
1001
ACAD
1000
AcDbSavedByObjectVersion
1070
     0
  0
VISUALSTYLE
  5
4A3A4
102
{ACAD_XDICTIONARY
360
87B3C
102
}
102
{ACAD_REACTORS
330
4A38C
102
}
330
4A38C
100
AcDbVisualStyle
  2

 70
    22
 71
     2
 72
     2
 73
     0
 90
        0
 40
-0.6
 41
-30.0
 62
     5
 63
     7
 74
     1
 91
        4
 64
     7
 65
   257
 75
     1
175
     1
 42
1.0
 92
        8
 66
     7
 43
1.0
 76
     1
 77
     6
 78
     2
 67
     7
 79
     5
170
     0
171
     0
290
     0
174
     0
 93
        1
 44
0.0
173
     0
291
     1
 45
0.0
1001
ACAD
1000
AcDbSavedByObjectVersion
1070
     0
  0
VISUALSTYLE
  5
4A39B
102
{ACAD_XDICTIONARY
360
87B2A
102
}
102
{ACAD_REACTORS
330
4A38C
102
}
330
4A38C
100
AcDbVisualStyle
  2

 70
    15
 71
     2
 72
     2
 73
     0
 90
        0
 40
-0.6
 41
-30.0
 62
     5
 63
     7
 74
     1
 91
        4
 64
     7
 65
   257
 75
     1
175
     1
 42
1.0
 92
        8
 66
     7
 43
1.0
 76
     1
 77
     6
 78
     2
 67
     7
 79
     5
170
     0
171
     0
290
     0
174
     0
 93
        1
 44
0.0
173
     0
291
     1
 45
0.0
1001
ACAD
1000
AcDbSavedByObjectVersion
1070
     0
  0
VISUALSTYLE
  5
4A38D
102
{ACAD_XDICTIONARY
360
87B0E
102
}
102
{ACAD_REACTORS
330
4A38C
102
}
330
4A38C
100
AcDbVisualStyle
  2

 70
     0
 71
     2
 72
     1
 73
     1
 90
        2
 40
-0.6
 41
30.0
 62
     5
 63
     7
 74
     0
 91
        0
 64
     7
 65
   257
 75
     1
175
     1
 42
1.0
 92
        8
 66
     7
 43
1.0
 76
     1
 77
     6
 78
     2
 67
     7
 79
     5
170
     0
171
     0
290
     0
174
     0
 93
       13
 44
0.0
173
     0
291
     1
 45
0.0
1001
ACAD
1000
AcDbSavedByObjectVersion
1070
     0
  0
VISUALSTYLE
  5
4A38E
102
{ACAD_XDICTIONARY
360
87B10
102
}
102
{ACAD_REACTORS
330
4A38C
102
}
330
4A38C
100
AcDbVisualStyle
  2

 70
     1
 71
     2
 72
     1
 73
     1
 90
        2
 40
-0.6
 41
30.0
 62
     5
 63
     7
 74
     1
 91
        0
 64
     7
 65
   257
 75
     1
175
     1
 42
1.0
 92
        0
 66
   257
 43
1.0
 76
     1
 77
     6
 78
     2
 67
     7
 79
     5
170
     0
171
     0
290
     0
174
     0
 93
       13
 44
0.0
173
     0
291
     1
 45
0.0
1001
ACAD
1000
AcDbSavedByObjectVersion
1070
     0
  0
VISUALSTYLE
  5
4A38F
102
{ACAD_XDICTIONARY
360
87B12
102
}
102
{ACAD_REACTORS
330
4A38C
102
}
330
4A38C
100
AcDbVisualStyle
  2

 70
     2
 71
     2
 72
     2
 73
     1
 90
        2
 40
-0.6
 41
30.0
 62
     5
 63
     7
 74
     0
 91
        0
 64
     7
 65
   257
 75
     1
175
     1
 42
1.0
 92
        0
 66
     7
 43
1.0
 76
     1
 77
     6
 78
     2
 67
     7
 79
     5
170
     0
171
     0
290
     0
174
     0
 93
       13
 44
0.0
173
     0
291
     1
 45
0.0
1001
ACAD
1000
AcDbSavedByObjectVersion
1070
     0
  0
VISUALSTYLE
  5
4A390
102
{ACAD_XDICTIONARY
360
87B14
102
}
102
{ACAD_REACTORS
330
4A38C
102
}
330
4A38C
100
AcDbVisualStyle
  2

 70
     3
 71
     2
 72
     2
 73
     1
 90
        2
 40
-0.6
 41
30.0
 62
     5
 63
     7
 74
     1
 91
        0
 64
     7
 65
   257
 75
     1
175
     1
 42
1.0
 92
        0
 66
   257
 43
1.0
 76
     1
 77
     6
 78
     2
 67
     7
 79
     5
170
     0
171
     0
290
     0
174
     0
 93
       13
 44
0.0
173
     0
291
     1
 45
0.0
1001
ACAD
1000
AcDbSavedByObjectVersion
1070
     0
  0
VISUALSTYLE
  5
4A394
102
{ACAD_XDICTIONARY
360
87B1C
102
}
102
{ACAD_REACTORS
330
4A38C
102
}
330
4A38C
100
AcDbVisualStyle
  2

 70
     6
 71
     1
 72
     2
 73
     2
 90
        0
 40
-0.6
 41
-30.0
 62
     5
 63
     7
 74
     2
 91
        2
 64
     7
 65
   257
 75
     2
175
     1
 42
40.0
 92
        0
 66
   257
 43
1.0
 76
     1
 77
     6
 78
     2
 67
     7
 79
     3
170
     0
171
     0
290
     0
174
     0
 93
        1
 44
0.0
173
     0
291
     0
 45
0.0
1001
ACAD
1000
AcDbSavedByObjectVersion
1070
     0
  0
VISUALSTYLE
  5
4A3A2
102
{ACAD_XDICTIONARY
360
87B38
102
}
102
{ACAD_REACTORS
330
4A38C
102
}
330
4A38C
100
AcDbVisualStyle
  2

 70
    20
 71
     2
 72
     2
 73
     0
 90
        0
 40
-0.6
 41
-30.0
 62
     5
 63
     7
 74
     1
 91
        4
 64
     7
 65
   257
 75
     1
175
     1
 42
1.0
 92
       10
 66
     7
 43
1.0
 76
     1
 77
     6
 78
     2
 67
     7
 79
     5
170
     0
171
     0
290
     0
174
     0
 93
        1
 44
0.0
173
     0
291
     1
 45
0.0
1001
ACAD
1000
AcDbSavedByObjectVersion
1070
     0
  0
VISUALSTYLE
  5
4A39A
102
{ACAD_XDICTIONARY
360
87B28
102
}
102
{ACAD_REACTORS
330
4A38C
102
}
330
4A38C
100
AcDbVisualStyle
  2

 70
    14
 71
     2
 72
     2
 73
     0
 90
        0
 40
-0.6
 41
-30.0
 62
     5
 63
     7
 74
     1
 91
        4
 64
     7
 65
   257
 75
     7
175
     7
 42
1.0
 92
        8
 66
     7
 43
1.0
 76
     1
 77
     6
 78
     2
 67
     7
 79
     5
170
     0
171
     0
290
     0
174
     0
 93
        1
 44
0.0
173
     0
291
     1
 45
0.0
1001
ACAD
1000
AcDbSavedByObjectVersion
1070
     0
  0
VISUALSTYLE
  5
4A3A3
102
{ACAD_XDICTIONARY
360
87B3A
102
}
102
{ACAD_REACTORS
330
4A38C
102
}
330
4A38C
100
AcDbVisualStyle
  2

 70
    21
 71
     2
 72
     2
 73
     0
 90
        0
 40
-0.6
 41
-30.0
 62
     5
 63
     7
 74
     1
 91
        4
 64
     7
 65
   257
 75
     1
175
     1
 42
1.0
 92
        9
 66
     7
 43
1.0
 76
     1
 77
     6
 78
     2
 67
     7
 79
     5
170
     0
171
     0
290
     0
174
     0
 93
        1
 44
0.0
173
     0
291
     1
 45
0.0
1001
ACAD
1000
AcDbSavedByObjectVersion
1070
     0
  0
VISUALSTYLE
  5
4A396
102
{ACAD_XDICTIONARY
360
87B20
102
}
102
{ACAD_REACTORS
330
4A38C
102
}
330
4A38C
100
AcDbVisualStyle
  2

 70
     8
 71
     2
 72
     3
 73
     0
 90
        2
 40
-0.6
 41
30.0
 62
     5
 63
     7
 74
     0
 91
        0
 64
     7
 65
   257
 75
     1
175
     1
 42
1.0
 92
        8
 66
   257
 43
1.0
 76
     1
 77
     6
 78
     2
 67
     7
 79
     3
170
     0
171
     0
290
     0
174
     0
 93
       13
 44
0.0
173
     0
291
     0
 45
0.0
1001
ACAD
1000
AcDbSavedByObjectVersion
1070
     0
  0
VISUALSTYLE
  5
4A3A1
102
{ACAD_XDICTIONARY
360
87B36
102
}
102
{ACAD_REACTORS
330
4A38C
102
}
330
4A38C
100
AcDbVisualStyle
  2

 70
    27
 71
     2
 72
     2
 73
     1
 90
        2
 40
-0.6
 41
30.0
 62
     5
 63
     7
 74
     0
 91
        4
 64
     7
 65
   257
 75
     1
175
     1
 42
1.0
 92
        8
 66
   257
 43
1.0
 76
     1
 77
     6
 78
     2
 67
     8
 79
     3
170
     0
171
     0
290
     0
174
     0
 93
        5
 44
0.0
173
     0
291
     0
 45
0.0
1001
ACAD
1000
AcDbSavedByObjectVersion
1070
     0
  0
VISUALSTYLE
  5
4A3A0
102
{ACAD_XDICTIONARY
360
87B34
102
}
102
{ACAD_REACTORS
330
4A38C
102
}
330
4A38C
100
AcDbVisualStyle
  2

 70
    26
 71
     2
 72
     2
 73
     1
 90
        2
 40
-0.6
 41
30.0
 62
     5
 63
     7
 74
     1
 91
        2
 64
     7
 65
   257
 75
     2
175
     1
 42
1.0
 92
        8
 66
   257
 43
1.0
 76
     1
 77
     6
 78
     2
 67
     7
 79
     3
170
     0
171
     0
290
     0
174
     0
 93
        5
 44
0.0
173
     0
291
     0
 45
0.0
1001
ACAD
1000
AcDbSavedByObjectVersion
1070
     0
  0
VISUALSTYLE
  5
4A39D
102
{ACAD_XDICTIONARY
360
87B2E
102
}
102
{ACAD_REACTORS
330
4A38C
102
}
330
4A38C
100
AcDbVisualStyle
  2

 70
    23
 71
     2
 72
     2
 73
     3
 90
        0
 40
-0.6
 41
-30.0
 62
     5
 63
     7
 74
     2
 91
        2
 64
     7
 65
     7
 75
     1
175
     1
 42
40.0
 92
        8
 66
     7
 43
1.0
 76
     1
 77
     6
 78
     2
 67
     7
 79
     3
170
     0
171
     0
290
     0
174
     0
 93
        1
 44
0.0
173
     0
291
     0
 45
0.0
1001
ACAD
1000
AcDbSavedByObjectVersion
1070
     0
  0
VISUALSTYLE
  5
4A39E
102
{ACAD_XDICTIONARY
360
87B30
102
}
102
{ACAD_REACTORS
330
4A38C
102
}
330
4A38C
100
AcDbVisualStyle
  2

 70
    24
 71
     1
 72
     2
 73
     2
 90
        0
 40
-0.6
 41
-30.0
 62
     5
 63
     7
 74
     2
 91
        2
 64
     7
 65
     7
 75
     1
175
     1
 42
40.0
 92
       11
 66
     7
 43
1.0
 76
     1
 77
     6
 78
     2
 67
     7
 79
     6
170
     0
171
     0
290
     0
174
     0
 93
        1
 44
0.0
173
     0
291
     0
 45
0.0
1001
ACAD
1000
AcDbSavedByObjectVersion
1070
     0
  0
VISUALSTYLE
  5
4A399
102
{ACAD_XDICTIONARY
360
87B26
102
}
102
{ACAD_REACTORS
330
4A38C
102
}
330
4A38C
100
AcDbVisualStyle
  2

 70
    13
 71
     2
 72
     2
 73
     0
 90
        0
 40
-0.6
 41
-30.0
 62
     5
 63
     7
 74
     1
 91
        4
 64
     7
 65
   257
 75
     1
175
     1
 42
1.0
 92
       12
 66
     7
 43
1.0
 76
     1
 77
     6
 78
     2
 67
     7
 79
     5
170
     0
171
     0
290
     0
174
     0
 93
        1
 44
0.0
173
     0
291
     1
 45
0.0
1001
ACAD
1000
AcDbSavedByObjectVersion
1070
     0
  0
VISUALSTYLE
  5
4A393
102
{ACAD_XDICTIONARY
360
87B1A
102
}
102
{ACAD_REACTORS
330
4A38C
102
}
330
4A38C
100
AcDbVisualStyle
  2

 70
     5
 71
     0
 72
     2
 73
     0
 90
        0
 40
-0.6
 41
-30.0
 62
     5
 63
     7
 74
     1
 91
        4
 64
     7
 65
   257
 75
     1
175
     1
 42
1.0
 92
        0
 66
   257
 43
1.0
 76
     1
 77
     6
 78
     2
 67
     7
 79
     3
170
     0
171
     0
290
     0
174
     0
 93
        1
 44
0.0
173
     0
291
     0
 45
0.0
1001
ACAD
1000
AcDbSavedByObjectVersion
1070
     0
  0
VISUALSTYLE
  5
4A39F
102
{ACAD_XDICTIONARY
360
87B32
102
}
102
{ACAD_REACTORS
330
4A38C
102
}
330
4A38C
100
AcDbVisualStyle
  2

 70
    25
 71
     2
 72
     2
 73
     1
 90
        1
 40
0.5
 41
-30.0
 62
     5
 63
     7
 74
     1
 91
        0
 64
     7
 65
   257
 75
     1
175
     1
 42
1.0
 92
        8
 66
     7
 43
1.0
 76
     1
 77
     6
 78
     2
 67
     7
 79
     3
170
     0
171
     0
290
     0
174
     0
 93
       13
 44
0.0
173
     0
291
     0
 45
0.0
1001
ACAD
1000
AcDbSavedByObjectVersion
1070
     0
  0
XRECORD
  5
8872F
102
{ACAD_REACTORS
330
8872E
102
}
330
8872E
100
AcDbXrecord
280
     1
340
85
  0
XRECORD
  5
88730
102
{ACAD_REACTORS
330
8872E
102
}
330
8872E
100
AcDbXrecord
280
     1
340
84
  0
DICTIONARYVAR
  5
8872D
102
{ACAD_REACTORS
330
5E
102
}
330
5E
100
DictionaryVariables
280
   100
  1
1:1
  0
DICTIONARYVAR
  5
4A6CE
102
{ACAD_REACTORS
330
5E
102
}
330
5E
100
DictionaryVariables
280
     0
  1
STANDARD
  0
DICTIONARYVAR
  5
B8
102
{ACAD_REACTORS
330
5E
102
}
330
5E
100
DictionaryVariables
280
     0
  1
STANDARD
  0
DICTIONARYVAR
  5
4A6CF
102
{ACAD_REACTORS
330
5E
102
}
330
5E
100
DictionaryVariables
280
     0
  1
Metric50
  0
DICTIONARYVAR
  5
4A6D0
102
{ACAD_REACTORS
330
5E
102
}
330
5E
100
DictionaryVariables
280
     0
  1
Metric50
  0
DICTIONARYVAR
  5
5F
102
{ACAD_REACTORS
330
5E
102
}
330
5E
100
DictionaryVariables
280
     0
  1
2
  0
DICTIONARYVAR
  5
63
102
{ACAD_REACTORS
330
5E
102
}
330
5E
100
DictionaryVariables
280
     0
  1
1
  0
DICTIONARYVAR
  5
4A879
102
{ACAD_REACTORS
330
5E
102
}
330
5E
100
DictionaryVariables
280
     0
  1
0
  0
DICTIONARYVAR
  5
4A6D4
102
{ACAD_REACTORS
330
5E
102
}
330
5E
100
DictionaryVariables
280
     0
  1
1
  0
DICTIONARYVAR
  5
4A6D5
102
{ACAD_REACTORS
330
5E
102
}
330
5E
100
DictionaryVariables
280
     0
  1
15
  0
DICTIONARYVAR
  5
4A6D3
102
{ACAD_REACTORS
330
5E
102
}
330
5E
100
DictionaryVariables
280
     0
  1
0
  0
DICTIONARYVAR
  5
4A6D1
102
{ACAD_REACTORS
330
5E
102
}
330
5E
100
DictionaryVariables
280
     0
  1
0
  0
DICTIONARYVAR
  5
31CE
102
{ACAD_REACTORS
330
5E
102
}
330
5E
100
DictionaryVariables
280
     0
  1

  0
DICTIONARYVAR
  5
4A878
102
{ACAD_REACTORS
330
5E
102
}
330
5E
100
DictionaryVariables
280
     0
  1
127
  0
DICTIONARYVAR
  5
87AF9
102
{ACAD_REACTORS
330
5E
102
}
330
5E
100
DictionaryVariables
280
     0
  1
2
  0
XRECORD
  5
349EA
102
{ACAD_REACTORS
330
349E9
102
}
330
349E9
100
AcDbXrecord
280
     1
330
0
330
0
330
0
330
0
330
0
330
0
330
0
330
0
330
0
330
0
330
0
330
0
330
0
330
0
330
0
330
0
330
0
330
0
330
0
330
0
330
0
330
0
330
0
330
0
330
0
330
0
330
0
330
0
330
0
330
0
330
0
330
0
330
0
330
0
330
0
330
0
330
0
330
0
330
0
330
0
330
0
330
0
330
0
330
0
330
0
330
0
330
0
330
0
330
0
330
0
330
0
330
0
330
0
330
0
330
0
330
0
330
0
330
0
330
0
330
0
330
0
330
0
330
0
330
0
330
0
330
0
330
0
330
0
330
0
330
0
330
0
330
0
330
0
330
0
330
0
330
0
330
0
330
0
330
0
330
0
330
0
330
0
330
0
330
0
330
0
330
0
330
0
330
0
330
0
330
0
330
0
330
0
330
0
330
0
330
0
330
0
330
0
330
0
330
0
330
0
330
0
330
0
330
0
330
0
330
0
330
0
330
0
330
0
330
0
330
0
  0
DICTIONARY
  5
87B40
330
4A3BC
100
AcDbDictionary
280
     1
281
     1
  3
ACAD_XREC_ROUNDTRIP
360
87B41
  0
DICTIONARY
  5
4A37D
330
4A37C
100
AcDbDictionary
280
     1
281
     1
  3
ACAD_XREC_ROUNDTRIP
360
8873B
  0
DICTIONARY
  5
4A375
330
4A374
100
AcDbDictionary
280
     1
281
     1
  3
ACAD_XREC_ROUNDTRIP
360
8873C
  0
DICTIONARY
  5
4A385
330
4A384
100
AcDbDictionary
280
     1
281
     1
  3
ACAD_XREC_ROUNDTRIP
360
8873D
  0
DICTIONARY
  5
885C1
330
4A3B8
100
AcDbDictionary
280
     1
281
     1
  3
ACAD_XREC_ROUNDTRIP
360
8873E
  0
DICTIONARY
  5
87B3E
330
4A3BA
100
AcDbDictionary
280
     1
281
     1
  3
ACAD_XREC_ROUNDTRIP
360
87B3F
  0
DICTIONARY
  5
4CD9A
330
A2
100
AcDbDictionary
280
     1
281
     1
  3
ACAD_ROUNDTRIP_2008_TABLESTYLE_CELLSTYLEMAP
360
88740
  3
ACAD_XREC_ROUNDTRIP
360
8873F
  0
DICTIONARY
  5
87B18
330
4A392
100
AcDbDictionary
280
     1
281
     1
  3
ACAD_XREC_ROUNDTRIP
360
88741
  0
DICTIONARY
  5
87B16
330
4A391
100
AcDbDictionary
280
     1
281
     1
  3
ACAD_XREC_ROUNDTRIP
360
88742
  0
DICTIONARY
  5
87B24
330
4A398
100
AcDbDictionary
280
     1
281
     1
  3
ACAD_XREC_ROUNDTRIP
360
88743
  0
DICTIONARY
  5
87B2C
330
4A39C
100
AcDbDictionary
280
     1
281
     1
  3
ACAD_XREC_ROUNDTRIP
360
88744
  0
DICTIONARY
  5
87B1E
330
4A395
100
AcDbDictionary
280
     1
281
     1
  3
ACAD_XREC_ROUNDTRIP
360
88745
  0
DICTIONARY
  5
87B22
330
4A397
100
AcDbDictionary
280
     1
281
     1
  3
ACAD_XREC_ROUNDTRIP
360
88746
  0
DICTIONARY
  5
87B3C
330
4A3A4
100
AcDbDictionary
280
     1
281
     1
  3
ACAD_XREC_ROUNDTRIP
360
88747
  0
DICTIONARY
  5
87B2A
330
4A39B
100
AcDbDictionary
280
     1
281
     1
  3
ACAD_XREC_ROUNDTRIP
360
88748
  0
DICTIONARY
  5
87B0E
330
4A38D
100
AcDbDictionary
280
     1
281
     1
  3
ACAD_XREC_ROUNDTRIP
360
88749
  0
DICTIONARY
  5
87B10
330
4A38E
100
AcDbDictionary
280
     1
281
     1
  3
ACAD_XREC_ROUNDTRIP
360
8874A
  0
DICTIONARY
  5
87B12
330
4A38F
100
AcDbDictionary
280
     1
281
     1
  3
ACAD_XREC_ROUNDTRIP
360
8874B
  0
DICTIONARY
  5
87B14
330
4A390
100
AcDbDictionary
280
     1
281
     1
  3
ACAD_XREC_ROUNDTRIP
360
8874C
  0
DICTIONARY
  5
87B1C
330
4A394
100
AcDbDictionary
280
     1
281
     1
  3
ACAD_XREC_ROUNDTRIP
360
8874D
  0
DICTIONARY
  5
87B38
330
4A3A2
100
AcDbDictionary
280
     1
281
     1
  3
ACAD_XREC_ROUNDTRIP
360
8874E
  0
DICTIONARY
  5
87B28
330
4A39A
100
AcDbDictionary
280
     1
281
     1
  3
ACAD_XREC_ROUNDTRIP
360
8874F
  0
DICTIONARY
  5
87B3A
330
4A3A3
100
AcDbDictionary
280
     1
281
     1
  3
ACAD_XREC_ROUNDTRIP
360
88750
  0
DICTIONARY
  5
87B20
330
4A396
100
AcDbDictionary
280
     1
281
     1
  3
ACAD_XREC_ROUNDTRIP
360
88751
  0
DICTIONARY
  5
87B36
330
4A3A1
100
AcDbDictionary
280
     1
281
     1
  3
ACAD_XREC_ROUNDTRIP
360
88752
  0
DICTIONARY
  5
87B34
330
4A3A0
100
AcDbDictionary
280
     1
281
     1
  3
ACAD_XREC_ROUNDTRIP
360
88753
  0
DICTIONARY
  5
87B2E
330
4A39D
100
AcDbDictionary
280
     1
281
     1
  3
ACAD_XREC_ROUNDTRIP
360
88754
  0
DICTIONARY
  5
87B30
330
4A39E
100
AcDbDictionary
280
     1
281
     1
  3
ACAD_XREC_ROUNDTRIP
360
88755
  0
DICTIONARY
  5
87B26
330
4A399
100
AcDbDictionary
280
     1
281
     1
  3
ACAD_XREC_ROUNDTRIP
360
88756
  0
DICTIONARY
  5
87B1A
330
4A393
100
AcDbDictionary
280
     1
281
     1
  3
ACAD_XREC_ROUNDTRIP
360
88757
  0
DICTIONARY
  5
87B32
330
4A39F
100
AcDbDictionary
280
     1
281
     1
  3
ACAD_XREC_ROUNDTRIP
360
88758
  0
XRECORD
  5
87B41
102
{ACAD_REACTORS
330
87B40
102
}
330
87B40
100
AcDbXrecord
280
     1
102
DISPLAYNAME
  1
Metric50
102
FLAGS
 90
        0
  0
XRECORD
  5
8873B
102
{ACAD_REACTORS
330
4A37D
102
}
330
4A37D
100
AcDbXrecord
280
     1
102
MATERIAL
148
0.0
149
0.0
149
0.0
 93
        0
 94
      127
282
     0
 72
     0
 77
     0
171
     0
175
     0
179
     0
273
     0
  0
XRECORD
  5
8873C
102
{ACAD_REACTORS
330
4A375
102
}
330
4A375
100
AcDbXrecord
280
     1
102
MATERIAL
148
0.0
149
0.0
149
0.0
 93
        0
 94
      127
282
     0
 72
     0
 77
     0
171
     0
175
     0
179
     0
273
     0
  0
XRECORD
  5
8873D
102
{ACAD_REACTORS
330
4A385
102
}
330
4A385
100
AcDbXrecord
280
     1
102
MATERIAL
148
0.0
149
0.0
149
0.0
 93
        0
 94
      127
282
     0
 72
     0
 77
     0
171
     0
175
     0
179
     0
273
     0
  0
XRECORD
  5
8873E
102
{ACAD_REACTORS
330
885C1
102
}
330
885C1
100
AcDbXrecord
280
     1
102
ACAD_ROUNDTRIP_2010_MLEADER_STYLE
  0
XRECORD
  5
87B3F
102
{ACAD_REACTORS
330
87B3E
102
}
330
87B3E
100
AcDbXrecord
280
     1
102
DISPLAYNAME
  1
Metric50
102
FLAGS
 90
        0
  0
CELLSTYLEMAP
  5
88740
102
{ACAD_REACTORS
330
4CD9A
102
}
330
4CD9A
100
AcDbCellStyleMap
 90
        3
300
CELLSTYLE
  1
TABLEFORMAT_BEGIN
 90
        5
170
     1
 91
        0
 92
    32768
 62
   257
 93
        1
300
CONTENTFORMAT
  1
CONTENTFORMAT_BEGIN
 90
        0
 91
        0
 92
        4
 93
        0
300

 40
0.0
140
1.0
 94
        5
 62
     0
340
11
144
6.0
309
CONTENTFORMAT_END
171
     1
301
MARGIN
  1
CELLMARGIN_BEGIN
 40
1.5
 40
1.5
 40
1.5
 40
1.5
 40
0.18
 40
0.18
309
CELLMARGIN_END
 94
        6
 95
        1
302
GRIDFORMAT
  1
GRIDFORMAT_BEGIN
 90
        0
 91
        1
 62
     0
 92
       -2
340
0
 93
        0
 40
0.045
309
GRIDFORMAT_END
 95
        2
302
GRIDFORMAT
  1
GRIDFORMAT_BEGIN
 90
        0
 91
        1
 62
     0
 92
       -2
340
0
 93
        0
 40
0.045
309
GRIDFORMAT_END
 95
        4
302
GRIDFORMAT
  1
GRIDFORMAT_BEGIN
 90
        0
 91
        1
 62
     0
 92
       -2
340
0
 93
        0
 40
0.045
309
GRIDFORMAT_END
 95
        8
302
GRIDFORMAT
  1
GRIDFORMAT_BEGIN
 90
        0
 91
        1
 62
     0
 92
       -2
340
0
 93
        0
 40
0.045
309
GRIDFORMAT_END
 95
       16
302
GRIDFORMAT
  1
GRIDFORMAT_BEGIN
 90
        0
 91
        1
 62
     0
 92
       -2
340
0
 93
        0
 40
0.045
309
GRIDFORMAT_END
 95
       32
302
GRIDFORMAT
  1
GRIDFORMAT_BEGIN
 90
        0
 91
        1
 62
     0
 92
       -2
340
0
 93
        0
 40
0.045
309
GRIDFORMAT_END
309
TABLEFORMAT_END
  1
CELLSTYLE_BEGIN
 90
        1
 91
        1
300
_TITLE
309
CELLSTYLE_END
300
CELLSTYLE
  1
TABLEFORMAT_BEGIN
 90
        5
170
     1
 91
        0
 92
        0
 62
   257
 93
        1
300
CONTENTFORMAT
  1
CONTENTFORMAT_BEGIN
 90
        0
 91
        0
 92
        4
 93
        0
300

 40
0.0
140
1.0
 94
        5
 62
     0
340
11
144
4.5
309
CONTENTFORMAT_END
171
     1
301
MARGIN
  1
CELLMARGIN_BEGIN
 40
1.5
 40
1.5
 40
1.5
 40
1.5
 40
0.18
 40
0.18
309
CELLMARGIN_END
 94
        6
 95
        1
302
GRIDFORMAT
  1
GRIDFORMAT_BEGIN
 90
        0
 91
        1
 62
     0
 92
       -2
340
0
 93
        0
 40
0.045
309
GRIDFORMAT_END
 95
        2
302
GRIDFORMAT
  1
GRIDFORMAT_BEGIN
 90
        0
 91
        1
 62
     0
 92
       -2
340
0
 93
        0
 40
0.045
309
GRIDFORMAT_END
 95
        4
302
GRIDFORMAT
  1
GRIDFORMAT_BEGIN
 90
        0
 91
        1
 62
     0
 92
       -2
340
0
 93
        0
 40
0.045
309
GRIDFORMAT_END
 95
        8
302
GRIDFORMAT
  1
GRIDFORMAT_BEGIN
 90
        0
 91
        1
 62
     0
 92
       -2
340
0
 93
        0
 40
0.045
309
GRIDFORMAT_END
 95
       16
302
GRIDFORMAT
  1
GRIDFORMAT_BEGIN
 90
        0
 91
        1
 62
     0
 92
       -2
340
0
 93
        0
 40
0.045
309
GRIDFORMAT_END
 95
       32
302
GRIDFORMAT
  1
GRIDFORMAT_BEGIN
 90
        0
 91
        1
 62
     0
 92
       -2
340
0
 93
        0
 40
0.045
309
GRIDFORMAT_END
309
TABLEFORMAT_END
  1
CELLSTYLE_BEGIN
 90
        2
 91
        1
300
_HEADER
309
CELLSTYLE_END
300
CELLSTYLE
  1
TABLEFORMAT_BEGIN
 90
        5
170
     1
 91
        0
 92
        0
 62
   257
 93
        1
300
CONTENTFORMAT
  1
CONTENTFORMAT_BEGIN
 90
        0
 91
        0
 92
        4
 93
        0
300

 40
0.0
140
1.0
 94
        2
 62
     0
340
11
144
4.5
309
CONTENTFORMAT_END
171
     1
301
MARGIN
  1
CELLMARGIN_BEGIN
 40
1.5
 40
1.5
 40
1.5
 40
1.5
 40
0.18
 40
0.18
309
CELLMARGIN_END
 94
        6
 95
        1
302
GRIDFORMAT
  1
GRIDFORMAT_BEGIN
 90
        0
 91
        1
 62
     0
 92
       -2
340
0
 93
        0
 40
0.045
309
GRIDFORMAT_END
 95
        2
302
GRIDFORMAT
  1
GRIDFORMAT_BEGIN
 90
        0
 91
        1
 62
     0
 92
       -2
340
0
 93
        0
 40
0.045
309
GRIDFORMAT_END
 95
        4
302
GRIDFORMAT
  1
GRIDFORMAT_BEGIN
 90
        0
 91
        1
 62
     0
 92
       -2
340
0
 93
        0
 40
0.045
309
GRIDFORMAT_END
 95
        8
302
GRIDFORMAT
  1
GRIDFORMAT_BEGIN
 90
        0
 91
        1
 62
     0
 92
       -2
340
0
 93
        0
 40
0.045
309
GRIDFORMAT_END
 95
       16
302
GRIDFORMAT
  1
GRIDFORMAT_BEGIN
 90
        0
 91
        1
 62
     0
 92
       -2
340
0
 93
        0
 40
0.045
309
GRIDFORMAT_END
 95
       32
302
GRIDFORMAT
  1
GRIDFORMAT_BEGIN
 90
        0
 91
        1
 62
     0
 92
       -2
340
0
 93
        0
 40
0.045
309
GRIDFORMAT_END
309
TABLEFORMAT_END
  1
CELLSTYLE_BEGIN
 90
        3
 91
        2
300
_DATA
309
CELLSTYLE_END
  0
XRECORD
  5
8873F
102
{ACAD_REACTORS
330
4CD9A
102
}
330
4CD9A
100
AcDbXrecord
280
     1
102
ACAD_ROUNDTRIP_PRE2007_TABLESTYLE
 90
        4
 91
        0
  1

 92
        4
 93
        0
  2

 94
        4
 95
        0
  3

  0
XRECORD
  5
88741
102
{ACAD_REACTORS
330
87B18
102
}
330
87B18
100
AcDbXrecord
280
     1
102
RTVSPropertyOp0
 70
     1
102
RTVSPropertyOp1
 70
     1
102
RTVSPropertyOp2
 70
     1
102
RTVSPropertyOp3
 70
     1
102
RTVSPropertyOp4
 70
     1
102
RTVSPropertyOp5
 70
     1
102
RTVSPropertyOp6
 70
     1
102
RTVSPropertyOp7
 70
     1
102
RTVSPropertyOp8
 70
     1
102
RTVSPropertyOp9
 70
     1
102
RTVSPropertyOp10
 70
     1
102
RTVSPropertyOp11
 70
     1
102
RTVSPropertyOp12
 70
     1
102
RTVSPropertyOp13
 70
     1
102
RTVSPropertyOp14
 70
     1
102
RTVSPropertyOp15
 70
     1
102
RTVSPropertyOp16
 70
     1
102
RTVSPropertyOp17
 70
     1
102
RTVSPropertyOp18
 70
     1
102
RTVSPropertyOp19
 70
     1
102
RTVSPropertyOp20
 70
     1
102
RTVSPropertyOp21
 70
     1
102
RTVSPropertyOp22
 70
     1
102
RTVSPropertyOp23
 70
     1
102
RTVSPropertyOp24
 70
     1
102
RTVSPropertyOp25
 70
     1
102
RTVSPropertyOp26
 70
     1
102
RTVSPropertyOp27
 70
     1
102
RTVSPropertyOp28
 70
     1
102
RTVSPropertyOp29
 70
     1
102
RTVSPropertyOp30
 70
     1
102
RTVSPropertyOp31
 70
     1
102
RTVSPropertyOp32
 70
     1
102
RTVSPropertyOp33
 70
     1
102
RTVSPropertyOp34
 70
     1
102
RTVSPropertyOp35
 70
     1
102
RTVSPropertyOp36
 70
     1
102
RTVSPropertyOp37
 70
     1
102
RTVSPropertyOp38
 70
     1
102
RTVSPropertyOp39
 70
     1
102
RTVSPropertyOp40
 70
     1
102
RTVSPropertyOp41
 70
     1
102
RTVSPropertyOp42
 70
     1
102
RTVSPropertyOp43
 70
     1
102
RTVSPropertyOp44
 70
     1
102
RTVSPropertyOp45
 70
     1
102
RTVSPropertyOp46
 70
     1
102
RTVSPropertyOp47
 70
     1
102
RTVSPropertyOp48
 70
     1
102
RTVSPropertyOp49
 70
     1
102
RTVSPropertyOp50
 70
     1
102
RTVSPropertyOp51
 70
     0
102
RTVSPropertyOp52
 70
     0
102
RTVSPropertyOp53
 70
     1
102
RTVSPropertyOp54
 70
     1
102
RTVSPropertyOp55
 70
     1
102
RTVSPropertyOp56
 70
     1
102
RTVSPropertyOp57
 70
     1
102
RTVSPost2010Prop28
280
     1
102
RTVSPost2010PropOp28
 70
     1
102
RTVSPost2010Prop29
280
     1
102
RTVSPost2010PropOp29
 70
     1
102
RTVSPost2010Prop30
280
     0
102
RTVSPost2010PropOp30
 70
     1
102
RTVSPost2010Prop31
280
     0
102
RTVSPost2010PropOp31
 70
     1
102
RTVSPost2010Prop32
280
     0
102
RTVSPost2010PropOp32
 70
     1
102
RTVSPost2010Prop33
280
     0
102
RTVSPost2010PropOp33
 70
     1
102
RTVSPost2010Prop34
280
     0
102
RTVSPost2010PropOp34
 70
     1
102
RTVSPost2010Prop35
280
     0
102
RTVSPost2010PropOp35
 70
     1
102
RTVSPost2010Prop36
280
     0
102
RTVSPost2010PropOp36
 70
     1
102
RTVSPost2010Prop37
 90
       50
102
RTVSPost2010PropOp37
 70
     1
102
RTVSPost2010Prop38
140
0.0
102
RTVSPost2010PropOp38
 70
     1
102
RTVSPost2010Prop39
140
1.0
102
RTVSPost2010PropOp39
 70
     1
102
RTVSPost2010Prop40
 90
        0
102
RTVSPost2010PropOp40
 70
     1
102
RTVSPost2010Prop41ColorIndex
 90
       18
102
RTVSPost2010Prop41ColorRGB
 90
        0
102
RTVSPost2010PropOp41
 70
     1
102
RTVSPost2010Prop42
 90
       50
102
RTVSPost2010PropOp42
 70
     1
102
RTVSPost2010Prop43
 90
        3
102
RTVSPost2010PropOp43
 70
     1
102
RTVSPost2010Prop44ColorIndex
 90
        5
102
RTVSPost2010Prop44ColorRGB
 90
      255
102
RTVSPost2010PropOp44
 70
     1
102
RTVSPost2010Prop45
280
     0
102
RTVSPost2010PropOp45
 70
     1
102
RTVSPost2010Prop46
 90
       50
102
RTVSPost2010PropOp46
 70
     1
102
RTVSPost2010Prop47
 90
       50
102
RTVSPost2010PropOp47
 70
     1
102
RTVSPost2010Prop48
 90
       50
102
RTVSPost2010PropOp48
 70
     1
102
RTVSPost2010Prop49
280
     0
102
RTVSPost2010PropOp49
 70
     1
102
RTVSPost2010Prop50
 90
       50
102
RTVSPost2010PropOp50
 70
     1
102
RTVSPost2010Prop51ColorIndex
 90
      256
102
RTVSPost2010Prop51ColorRGB
 90
-16777216
102
RTVSPost2010PropOp51
 70
     0
102
RTVSPost2010Prop52
140
1.0
102
RTVSPost2010PropOp52
 70
     0
102
RTVSPost2010Prop53
 90
        2
102
RTVSPost2010PropOp53
 70
     1
102
RTVSPost2010Prop54
  1
strokes_ogs.tif
102
RTVSPost2010PropOp54
 70
     1
102
RTVSPost2010Prop55
280
     0
102
RTVSPost2010PropOp55
 70
     1
102
RTVSPost2010Prop56
140
1.0
102
RTVSPost2010PropOp56
 70
     1
102
RTVSPost2010Prop57
140
1.0
102
RTVSPost2010PropOp57
 70
     1
  0
XRECORD
  5
88742
102
{ACAD_REACTORS
330
87B16
102
}
330
87B16
100
AcDbXrecord
280
     1
102
RTVSPropertyOp0
 70
     1
102
RTVSPropertyOp1
 70
     1
102
RTVSPropertyOp2
 70
     1
102
RTVSPropertyOp3
 70
     1
102
RTVSPropertyOp4
 70
     1
102
RTVSPropertyOp5
 70
     1
102
RTVSPropertyOp6
 70
     1
102
RTVSPropertyOp7
 70
     1
102
RTVSPropertyOp8
 70
     1
102
RTVSPropertyOp9
 70
     1
102
RTVSPropertyOp10
 70
     1
102
RTVSPropertyOp11
 70
     1
102
RTVSPropertyOp12
 70
     1
102
RTVSPropertyOp13
 70
     1
102
RTVSPropertyOp14
 70
     1
102
RTVSPropertyOp15
 70
     1
102
RTVSPropertyOp16
 70
     1
102
RTVSPropertyOp17
 70
     1
102
RTVSPropertyOp18
 70
     1
102
RTVSPropertyOp19
 70
     1
102
RTVSPropertyOp20
 70
     1
102
RTVSPropertyOp21
 70
     1
102
RTVSPropertyOp22
 70
     1
102
RTVSPropertyOp23
 70
     1
102
RTVSPropertyOp24
 70
     1
102
RTVSPropertyOp25
 70
     1
102
RTVSPropertyOp26
 70
     1
102
RTVSPropertyOp27
 70
     1
102
RTVSPropertyOp28
 70
     1
102
RTVSPropertyOp29
 70
     1
102
RTVSPropertyOp30
 70
     1
102
RTVSPropertyOp31
 70
     1
102
RTVSPropertyOp32
 70
     1
102
RTVSPropertyOp33
 70
     1
102
RTVSPropertyOp34
 70
     1
102
RTVSPropertyOp35
 70
     1
102
RTVSPropertyOp36
 70
     1
102
RTVSPropertyOp37
 70
     1
102
RTVSPropertyOp38
 70
     1
102
RTVSPropertyOp39
 70
     1
102
RTVSPropertyOp40
 70
     1
102
RTVSPropertyOp41
 70
     1
102
RTVSPropertyOp42
 70
     1
102
RTVSPropertyOp43
 70
     1
102
RTVSPropertyOp44
 70
     1
102
RTVSPropertyOp45
 70
     1
102
RTVSPropertyOp46
 70
     1
102
RTVSPropertyOp47
 70
     1
102
RTVSPropertyOp48
 70
     1
102
RTVSPropertyOp49
 70
     1
102
RTVSPropertyOp50
 70
     1
102
RTVSPropertyOp51
 70
     0
102
RTVSPropertyOp52
 70
     0
102
RTVSPropertyOp53
 70
     1
102
RTVSPropertyOp54
 70
     1
102
RTVSPropertyOp55
 70
     1
102
RTVSPropertyOp56
 70
     1
102
RTVSPropertyOp57
 70
     1
102
RTVSPost2010Prop28
280
     0
102
RTVSPost2010PropOp28
 70
     1
102
RTVSPost2010Prop29
280
     1
102
RTVSPost2010PropOp29
 70
     1
102
RTVSPost2010Prop30
280
     1
102
RTVSPost2010PropOp30
 70
     1
102
RTVSPost2010Prop31
280
     0
102
RTVSPost2010PropOp31
 70
     1
102
RTVSPost2010Prop32
280
     0
102
RTVSPost2010PropOp32
 70
     1
102
RTVSPost2010Prop33
280
     0
102
RTVSPost2010PropOp33
 70
     1
102
RTVSPost2010Prop34
280
     0
102
RTVSPost2010PropOp34
 70
     1
102
RTVSPost2010Prop35
280
     0
102
RTVSPost2010PropOp35
 70
     1
102
RTVSPost2010Prop36
280
     0
102
RTVSPost2010PropOp36
 70
     1
102
RTVSPost2010Prop37
 90
       50
102
RTVSPost2010PropOp37
 70
     1
102
RTVSPost2010Prop38
140
0.0
102
RTVSPost2010PropOp38
 70
     1
102
RTVSPost2010Prop39
140
1.0
102
RTVSPost2010PropOp39
 70
     1
102
RTVSPost2010Prop40
 90
        0
102
RTVSPost2010PropOp40
 70
     1
102
RTVSPost2010Prop41ColorIndex
 90
       18
102
RTVSPost2010Prop41ColorRGB
 90
        0
102
RTVSPost2010PropOp41
 70
     1
102
RTVSPost2010Prop42
 90
       50
102
RTVSPost2010PropOp42
 70
     1
102
RTVSPost2010Prop43
 90
        3
102
RTVSPost2010PropOp43
 70
     1
102
RTVSPost2010Prop44ColorIndex
 90
        5
102
RTVSPost2010Prop44ColorRGB
 90
      255
102
RTVSPost2010PropOp44
 70
     1
102
RTVSPost2010Prop45
280
     0
102
RTVSPost2010PropOp45
 70
     1
102
RTVSPost2010Prop46
 90
       50
102
RTVSPost2010PropOp46
 70
     1
102
RTVSPost2010Prop47
 90
       50
102
RTVSPost2010PropOp47
 70
     1
102
RTVSPost2010Prop48
 90
       50
102
RTVSPost2010PropOp48
 70
     1
102
RTVSPost2010Prop49
280
     0
102
RTVSPost2010PropOp49
 70
     1
102
RTVSPost2010Prop50
 90
       50
102
RTVSPost2010PropOp50
 70
     1
102
RTVSPost2010Prop51ColorIndex
 90
      256
102
RTVSPost2010Prop51ColorRGB
 90
-16777216
102
RTVSPost2010PropOp51
 70
     0
102
RTVSPost2010Prop52
140
1.0
102
RTVSPost2010PropOp52
 70
     0
102
RTVSPost2010Prop53
 90
        2
102
RTVSPost2010PropOp53
 70
     1
102
RTVSPost2010Prop54
  1
strokes_ogs.tif
102
RTVSPost2010PropOp54
 70
     1
102
RTVSPost2010Prop55
280
     0
102
RTVSPost2010PropOp55
 70
     1
102
RTVSPost2010Prop56
140
1.0
102
RTVSPost2010PropOp56
 70
     1
102
RTVSPost2010Prop57
140
1.0
102
RTVSPost2010PropOp57
 70
     1
  0
XRECORD
  5
88743
102
{ACAD_REACTORS
330
87B24
102
}
330
87B24
100
AcDbXrecord
280
     1
102
RTVSPropertyOp0
 70
     1
102
RTVSPropertyOp1
 70
     1
102
RTVSPropertyOp2
 70
     1
102
RTVSPropertyOp3
 70
     1
102
RTVSPropertyOp4
 70
     1
102
RTVSPropertyOp5
 70
     1
102
RTVSPropertyOp6
 70
     1
102
RTVSPropertyOp7
 70
     1
102
RTVSPropertyOp8
 70
     1
102
RTVSPropertyOp9
 70
     1
102
RTVSPropertyOp10
 70
     1
102
RTVSPropertyOp11
 70
     1
102
RTVSPropertyOp12
 70
     1
102
RTVSPropertyOp13
 70
     1
102
RTVSPropertyOp14
 70
     1
102
RTVSPropertyOp15
 70
     1
102
RTVSPropertyOp16
 70
     1
102
RTVSPropertyOp17
 70
     1
102
RTVSPropertyOp18
 70
     1
102
RTVSPropertyOp19
 70
     1
102
RTVSPropertyOp20
 70
     1
102
RTVSPropertyOp21
 70
     1
102
RTVSPropertyOp22
 70
     1
102
RTVSPropertyOp23
 70
     1
102
RTVSPropertyOp24
 70
     1
102
RTVSPropertyOp25
 70
     1
102
RTVSPropertyOp26
 70
     1
102
RTVSPropertyOp27
 70
     1
102
RTVSPropertyOp28
 70
     1
102
RTVSPropertyOp29
 70
     1
102
RTVSPropertyOp30
 70
     1
102
RTVSPropertyOp31
 70
     1
102
RTVSPropertyOp32
 70
     1
102
RTVSPropertyOp33
 70
     1
102
RTVSPropertyOp34
 70
     1
102
RTVSPropertyOp35
 70
     1
102
RTVSPropertyOp36
 70
     1
102
RTVSPropertyOp37
 70
     1
102
RTVSPropertyOp38
 70
     1
102
RTVSPropertyOp39
 70
     1
102
RTVSPropertyOp40
 70
     1
102
RTVSPropertyOp41
 70
     1
102
RTVSPropertyOp42
 70
     1
102
RTVSPropertyOp43
 70
     1
102
RTVSPropertyOp44
 70
     1
102
RTVSPropertyOp45
 70
     1
102
RTVSPropertyOp46
 70
     1
102
RTVSPropertyOp47
 70
     1
102
RTVSPropertyOp48
 70
     1
102
RTVSPropertyOp49
 70
     1
102
RTVSPropertyOp50
 70
     1
102
RTVSPropertyOp51
 70
     0
102
RTVSPropertyOp52
 70
     0
102
RTVSPropertyOp53
 70
     1
102
RTVSPropertyOp54
 70
     1
102
RTVSPropertyOp55
 70
     1
102
RTVSPropertyOp56
 70
     1
102
RTVSPropertyOp57
 70
     1
102
RTVSPost2010Prop28
280
     0
102
RTVSPost2010PropOp28
 70
     1
102
RTVSPost2010Prop29
280
     1
102
RTVSPost2010PropOp29
 70
     1
102
RTVSPost2010Prop30
280
     1
102
RTVSPost2010PropOp30
 70
     1
102
RTVSPost2010Prop31
280
     0
102
RTVSPost2010PropOp31
 70
     1
102
RTVSPost2010Prop32
280
     0
102
RTVSPost2010PropOp32
 70
     1
102
RTVSPost2010Prop33
280
     0
102
RTVSPost2010PropOp33
 70
     1
102
RTVSPost2010Prop34
280
     0
102
RTVSPost2010PropOp34
 70
     1
102
RTVSPost2010Prop35
280
     0
102
RTVSPost2010PropOp35
 70
     1
102
RTVSPost2010Prop36
280
     0
102
RTVSPost2010PropOp36
 70
     1
102
RTVSPost2010Prop37
 90
       50
102
RTVSPost2010PropOp37
 70
     1
102
RTVSPost2010Prop38
140
0.0
102
RTVSPost2010PropOp38
 70
     1
102
RTVSPost2010Prop39
140
1.0
102
RTVSPost2010PropOp39
 70
     1
102
RTVSPost2010Prop40
 90
        0
102
RTVSPost2010PropOp40
 70
     1
102
RTVSPost2010Prop41ColorIndex
 90
       18
102
RTVSPost2010Prop41ColorRGB
 90
        0
102
RTVSPost2010PropOp41
 70
     1
102
RTVSPost2010Prop42
 90
       50
102
RTVSPost2010PropOp42
 70
     1
102
RTVSPost2010Prop43
 90
        3
102
RTVSPost2010PropOp43
 70
     1
102
RTVSPost2010Prop44ColorIndex
 90
        5
102
RTVSPost2010Prop44ColorRGB
 90
      255
102
RTVSPost2010PropOp44
 70
     1
102
RTVSPost2010Prop45
280
     0
102
RTVSPost2010PropOp45
 70
     1
102
RTVSPost2010Prop46
 90
       50
102
RTVSPost2010PropOp46
 70
     1
102
RTVSPost2010Prop47
 90
       50
102
RTVSPost2010PropOp47
 70
     1
102
RTVSPost2010Prop48
 90
       50
102
RTVSPost2010PropOp48
 70
     1
102
RTVSPost2010Prop49
280
     0
102
RTVSPost2010PropOp49
 70
     1
102
RTVSPost2010Prop50
 90
       50
102
RTVSPost2010PropOp50
 70
     1
102
RTVSPost2010Prop51ColorIndex
 90
      256
102
RTVSPost2010Prop51ColorRGB
 90
-16777216
102
RTVSPost2010PropOp51
 70
     0
102
RTVSPost2010Prop52
140
1.0
102
RTVSPost2010PropOp52
 70
     0
102
RTVSPost2010Prop53
 90
        2
102
RTVSPost2010PropOp53
 70
     1
102
RTVSPost2010Prop54
  1
strokes_ogs.tif
102
RTVSPost2010PropOp54
 70
     1
102
RTVSPost2010Prop55
280
     0
102
RTVSPost2010PropOp55
 70
     1
102
RTVSPost2010Prop56
140
1.0
102
RTVSPost2010PropOp56
 70
     1
102
RTVSPost2010Prop57
140
1.0
102
RTVSPost2010PropOp57
 70
     1
  0
XRECORD
  5
88744
102
{ACAD_REACTORS
330
87B2C
102
}
330
87B2C
100
AcDbXrecord
280
     1
102
RTVSPropertyOp0
 70
     1
102
RTVSPropertyOp1
 70
     1
102
RTVSPropertyOp2
 70
     1
102
RTVSPropertyOp3
 70
     1
102
RTVSPropertyOp4
 70
     1
102
RTVSPropertyOp5
 70
     1
102
RTVSPropertyOp6
 70
     1
102
RTVSPropertyOp7
 70
     1
102
RTVSPropertyOp8
 70
     1
102
RTVSPropertyOp9
 70
     1
102
RTVSPropertyOp10
 70
     1
102
RTVSPropertyOp11
 70
     1
102
RTVSPropertyOp12
 70
     1
102
RTVSPropertyOp13
 70
     1
102
RTVSPropertyOp14
 70
     1
102
RTVSPropertyOp15
 70
     1
102
RTVSPropertyOp16
 70
     1
102
RTVSPropertyOp17
 70
     1
102
RTVSPropertyOp18
 70
     1
102
RTVSPropertyOp19
 70
     1
102
RTVSPropertyOp20
 70
     1
102
RTVSPropertyOp21
 70
     1
102
RTVSPropertyOp22
 70
     1
102
RTVSPropertyOp23
 70
     1
102
RTVSPropertyOp24
 70
     1
102
RTVSPropertyOp25
 70
     1
102
RTVSPropertyOp26
 70
     1
102
RTVSPropertyOp27
 70
     1
102
RTVSPropertyOp28
 70
     1
102
RTVSPropertyOp29
 70
     1
102
RTVSPropertyOp30
 70
     1
102
RTVSPropertyOp31
 70
     1
102
RTVSPropertyOp32
 70
     1
102
RTVSPropertyOp33
 70
     1
102
RTVSPropertyOp34
 70
     1
102
RTVSPropertyOp35
 70
     1
102
RTVSPropertyOp36
 70
     1
102
RTVSPropertyOp37
 70
     1
102
RTVSPropertyOp38
 70
     1
102
RTVSPropertyOp39
 70
     1
102
RTVSPropertyOp40
 70
     1
102
RTVSPropertyOp41
 70
     1
102
RTVSPropertyOp42
 70
     1
102
RTVSPropertyOp43
 70
     1
102
RTVSPropertyOp44
 70
     1
102
RTVSPropertyOp45
 70
     1
102
RTVSPropertyOp46
 70
     1
102
RTVSPropertyOp47
 70
     1
102
RTVSPropertyOp48
 70
     1
102
RTVSPropertyOp49
 70
     1
102
RTVSPropertyOp50
 70
     1
102
RTVSPropertyOp51
 70
     0
102
RTVSPropertyOp52
 70
     0
102
RTVSPropertyOp53
 70
     1
102
RTVSPropertyOp54
 70
     1
102
RTVSPropertyOp55
 70
     1
102
RTVSPropertyOp56
 70
     1
102
RTVSPropertyOp57
 70
     1
102
RTVSPost2010Prop28
280
     0
102
RTVSPost2010PropOp28
 70
     1
102
RTVSPost2010Prop29
280
     1
102
RTVSPost2010PropOp29
 70
     1
102
RTVSPost2010Prop30
280
     1
102
RTVSPost2010PropOp30
 70
     1
102
RTVSPost2010Prop31
280
     0
102
RTVSPost2010PropOp31
 70
     1
102
RTVSPost2010Prop32
280
     0
102
RTVSPost2010PropOp32
 70
     1
102
RTVSPost2010Prop33
280
     0
102
RTVSPost2010PropOp33
 70
     1
102
RTVSPost2010Prop34
280
     0
102
RTVSPost2010PropOp34
 70
     1
102
RTVSPost2010Prop35
280
     0
102
RTVSPost2010PropOp35
 70
     1
102
RTVSPost2010Prop36
280
     0
102
RTVSPost2010PropOp36
 70
     1
102
RTVSPost2010Prop37
 90
       50
102
RTVSPost2010PropOp37
 70
     1
102
RTVSPost2010Prop38
140
0.0
102
RTVSPost2010PropOp38
 70
     1
102
RTVSPost2010Prop39
140
1.0
102
RTVSPost2010PropOp39
 70
     1
102
RTVSPost2010Prop40
 90
        0
102
RTVSPost2010PropOp40
 70
     1
102
RTVSPost2010Prop41ColorIndex
 90
       18
102
RTVSPost2010Prop41ColorRGB
 90
        0
102
RTVSPost2010PropOp41
 70
     1
102
RTVSPost2010Prop42
 90
       50
102
RTVSPost2010PropOp42
 70
     1
102
RTVSPost2010Prop43
 90
        3
102
RTVSPost2010PropOp43
 70
     1
102
RTVSPost2010Prop44ColorIndex
 90
        5
102
RTVSPost2010Prop44ColorRGB
 90
      255
102
RTVSPost2010PropOp44
 70
     1
102
RTVSPost2010Prop45
280
     0
102
RTVSPost2010PropOp45
 70
     1
102
RTVSPost2010Prop46
 90
       50
102
RTVSPost2010PropOp46
 70
     1
102
RTVSPost2010Prop47
 90
       50
102
RTVSPost2010PropOp47
 70
     1
102
RTVSPost2010Prop48
 90
       50
102
RTVSPost2010PropOp48
 70
     1
102
RTVSPost2010Prop49
280
     0
102
RTVSPost2010PropOp49
 70
     1
102
RTVSPost2010Prop50
 90
       50
102
RTVSPost2010PropOp50
 70
     1
102
RTVSPost2010Prop51ColorIndex
 90
      256
102
RTVSPost2010Prop51ColorRGB
 90
-16777216
102
RTVSPost2010PropOp51
 70
     0
102
RTVSPost2010Prop52
140
1.0
102
RTVSPost2010PropOp52
 70
     0
102
RTVSPost2010Prop53
 90
        2
102
RTVSPost2010PropOp53
 70
     1
102
RTVSPost2010Prop54
  1
strokes_ogs.tif
102
RTVSPost2010PropOp54
 70
     1
102
RTVSPost2010Prop55
280
     0
102
RTVSPost2010PropOp55
 70
     1
102
RTVSPost2010Prop56
140
1.0
102
RTVSPost2010PropOp56
 70
     1
102
RTVSPost2010Prop57
140
1.0
102
RTVSPost2010PropOp57
 70
     1
  0
XRECORD
  5
88745
102
{ACAD_REACTORS
330
87B1E
102
}
330
87B1E
100
AcDbXrecord
280
     1
102
RTVSPropertyOp0
 70
     1
102
RTVSPropertyOp1
 70
     1
102
RTVSPropertyOp2
 70
     1
102
RTVSPropertyOp3
 70
     1
102
RTVSPropertyOp4
 70
     1
102
RTVSPropertyOp5
 70
     1
102
RTVSPropertyOp6
 70
     1
102
RTVSPropertyOp7
 70
     1
102
RTVSPropertyOp8
 70
     1
102
RTVSPropertyOp9
 70
     1
102
RTVSPropertyOp10
 70
     1
102
RTVSPropertyOp11
 70
     1
102
RTVSPropertyOp12
 70
     1
102
RTVSPropertyOp13
 70
     1
102
RTVSPropertyOp14
 70
     1
102
RTVSPropertyOp15
 70
     1
102
RTVSPropertyOp16
 70
     1
102
RTVSPropertyOp17
 70
     1
102
RTVSPropertyOp18
 70
     1
102
RTVSPropertyOp19
 70
     1
102
RTVSPropertyOp20
 70
     1
102
RTVSPropertyOp21
 70
     1
102
RTVSPropertyOp22
 70
     1
102
RTVSPropertyOp23
 70
     1
102
RTVSPropertyOp24
 70
     1
102
RTVSPropertyOp25
 70
     1
102
RTVSPropertyOp26
 70
     1
102
RTVSPropertyOp27
 70
     1
102
RTVSPropertyOp28
 70
     1
102
RTVSPropertyOp29
 70
     1
102
RTVSPropertyOp30
 70
     1
102
RTVSPropertyOp31
 70
     1
102
RTVSPropertyOp32
 70
     1
102
RTVSPropertyOp33
 70
     1
102
RTVSPropertyOp34
 70
     1
102
RTVSPropertyOp35
 70
     1
102
RTVSPropertyOp36
 70
     1
102
RTVSPropertyOp37
 70
     1
102
RTVSPropertyOp38
 70
     1
102
RTVSPropertyOp39
 70
     1
102
RTVSPropertyOp40
 70
     1
102
RTVSPropertyOp41
 70
     1
102
RTVSPropertyOp42
 70
     1
102
RTVSPropertyOp43
 70
     1
102
RTVSPropertyOp44
 70
     1
102
RTVSPropertyOp45
 70
     1
102
RTVSPropertyOp46
 70
     1
102
RTVSPropertyOp47
 70
     1
102
RTVSPropertyOp48
 70
     1
102
RTVSPropertyOp49
 70
     1
102
RTVSPropertyOp50
 70
     1
102
RTVSPropertyOp51
 70
     0
102
RTVSPropertyOp52
 70
     0
102
RTVSPropertyOp53
 70
     1
102
RTVSPropertyOp54
 70
     1
102
RTVSPropertyOp55
 70
     1
102
RTVSPropertyOp56
 70
     1
102
RTVSPropertyOp57
 70
     1
102
RTVSPost2010Prop28
280
     0
102
RTVSPost2010PropOp28
 70
     1
102
RTVSPost2010Prop29
280
     1
102
RTVSPost2010PropOp29
 70
     1
102
RTVSPost2010Prop30
280
     1
102
RTVSPost2010PropOp30
 70
     1
102
RTVSPost2010Prop31
280
     0
102
RTVSPost2010PropOp31
 70
     1
102
RTVSPost2010Prop32
280
     0
102
RTVSPost2010PropOp32
 70
     1
102
RTVSPost2010Prop33
280
     0
102
RTVSPost2010PropOp33
 70
     1
102
RTVSPost2010Prop34
280
     0
102
RTVSPost2010PropOp34
 70
     1
102
RTVSPost2010Prop35
280
     0
102
RTVSPost2010PropOp35
 70
     1
102
RTVSPost2010Prop36
280
     0
102
RTVSPost2010PropOp36
 70
     1
102
RTVSPost2010Prop37
 90
       50
102
RTVSPost2010PropOp37
 70
     1
102
RTVSPost2010Prop38
140
0.0
102
RTVSPost2010PropOp38
 70
     1
102
RTVSPost2010Prop39
140
1.0
102
RTVSPost2010PropOp39
 70
     1
102
RTVSPost2010Prop40
 90
        0
102
RTVSPost2010PropOp40
 70
     1
102
RTVSPost2010Prop41ColorIndex
 90
       18
102
RTVSPost2010Prop41ColorRGB
 90
        0
102
RTVSPost2010PropOp41
 70
     1
102
RTVSPost2010Prop42
 90
       50
102
RTVSPost2010PropOp42
 70
     1
102
RTVSPost2010Prop43
 90
        3
102
RTVSPost2010PropOp43
 70
     1
102
RTVSPost2010Prop44ColorIndex
 90
        5
102
RTVSPost2010Prop44ColorRGB
 90
      255
102
RTVSPost2010PropOp44
 70
     1
102
RTVSPost2010Prop45
280
     0
102
RTVSPost2010PropOp45
 70
     1
102
RTVSPost2010Prop46
 90
       50
102
RTVSPost2010PropOp46
 70
     1
102
RTVSPost2010Prop47
 90
       50
102
RTVSPost2010PropOp47
 70
     1
102
RTVSPost2010Prop48
 90
       50
102
RTVSPost2010PropOp48
 70
     1
102
RTVSPost2010Prop49
280
     0
102
RTVSPost2010PropOp49
 70
     1
102
RTVSPost2010Prop50
 90
       50
102
RTVSPost2010PropOp50
 70
     1
102
RTVSPost2010Prop51ColorIndex
 90
      256
102
RTVSPost2010Prop51ColorRGB
 90
-16777216
102
RTVSPost2010PropOp51
 70
     0
102
RTVSPost2010Prop52
140
1.0
102
RTVSPost2010PropOp52
 70
     0
102
RTVSPost2010Prop53
 90
        2
102
RTVSPost2010PropOp53
 70
     1
102
RTVSPost2010Prop54
  1
strokes_ogs.tif
102
RTVSPost2010PropOp54
 70
     1
102
RTVSPost2010Prop55
280
     0
102
RTVSPost2010PropOp55
 70
     1
102
RTVSPost2010Prop56
140
1.0
102
RTVSPost2010PropOp56
 70
     1
102
RTVSPost2010Prop57
140
1.0
102
RTVSPost2010PropOp57
 70
     1
  0
XRECORD
  5
88746
102
{ACAD_REACTORS
330
87B22
102
}
330
87B22
100
AcDbXrecord
280
     1
102
RTVSPropertyOp0
 70
     1
102
RTVSPropertyOp1
 70
     1
102
RTVSPropertyOp2
 70
     1
102
RTVSPropertyOp3
 70
     1
102
RTVSPropertyOp4
 70
     1
102
RTVSPropertyOp5
 70
     1
102
RTVSPropertyOp6
 70
     1
102
RTVSPropertyOp7
 70
     1
102
RTVSPropertyOp8
 70
     1
102
RTVSPropertyOp9
 70
     1
102
RTVSPropertyOp10
 70
     1
102
RTVSPropertyOp11
 70
     1
102
RTVSPropertyOp12
 70
     1
102
RTVSPropertyOp13
 70
     1
102
RTVSPropertyOp14
 70
     1
102
RTVSPropertyOp15
 70
     1
102
RTVSPropertyOp16
 70
     1
102
RTVSPropertyOp17
 70
     1
102
RTVSPropertyOp18
 70
     1
102
RTVSPropertyOp19
 70
     1
102
RTVSPropertyOp20
 70
     1
102
RTVSPropertyOp21
 70
     1
102
RTVSPropertyOp22
 70
     1
102
RTVSPropertyOp23
 70
     1
102
RTVSPropertyOp24
 70
     1
102
RTVSPropertyOp25
 70
     1
102
RTVSPropertyOp26
 70
     1
102
RTVSPropertyOp27
 70
     1
102
RTVSPropertyOp28
 70
     1
102
RTVSPropertyOp29
 70
     1
102
RTVSPropertyOp30
 70
     1
102
RTVSPropertyOp31
 70
     1
102
RTVSPropertyOp32
 70
     1
102
RTVSPropertyOp33
 70
     1
102
RTVSPropertyOp34
 70
     1
102
RTVSPropertyOp35
 70
     1
102
RTVSPropertyOp36
 70
     1
102
RTVSPropertyOp37
 70
     1
102
RTVSPropertyOp38
 70
     1
102
RTVSPropertyOp39
 70
     1
102
RTVSPropertyOp40
 70
     1
102
RTVSPropertyOp41
 70
     1
102
RTVSPropertyOp42
 70
     1
102
RTVSPropertyOp43
 70
     1
102
RTVSPropertyOp44
 70
     1
102
RTVSPropertyOp45
 70
     1
102
RTVSPropertyOp46
 70
     1
102
RTVSPropertyOp47
 70
     1
102
RTVSPropertyOp48
 70
     1
102
RTVSPropertyOp49
 70
     1
102
RTVSPropertyOp50
 70
     1
102
RTVSPropertyOp51
 70
     0
102
RTVSPropertyOp52
 70
     0
102
RTVSPropertyOp53
 70
     1
102
RTVSPropertyOp54
 70
     1
102
RTVSPropertyOp55
 70
     1
102
RTVSPropertyOp56
 70
     1
102
RTVSPropertyOp57
 70
     1
102
RTVSPost2010Prop28
280
     0
102
RTVSPost2010PropOp28
 70
     1
102
RTVSPost2010Prop29
280
     1
102
RTVSPost2010PropOp29
 70
     1
102
RTVSPost2010Prop30
280
     1
102
RTVSPost2010PropOp30
 70
     1
102
RTVSPost2010Prop31
280
     0
102
RTVSPost2010PropOp31
 70
     1
102
RTVSPost2010Prop32
280
     0
102
RTVSPost2010PropOp32
 70
     1
102
RTVSPost2010Prop33
280
     0
102
RTVSPost2010PropOp33
 70
     1
102
RTVSPost2010Prop34
280
     0
102
RTVSPost2010PropOp34
 70
     1
102
RTVSPost2010Prop35
280
     0
102
RTVSPost2010PropOp35
 70
     1
102
RTVSPost2010Prop36
280
     0
102
RTVSPost2010PropOp36
 70
     1
102
RTVSPost2010Prop37
 90
       50
102
RTVSPost2010PropOp37
 70
     1
102
RTVSPost2010Prop38
140
0.0
102
RTVSPost2010PropOp38
 70
     1
102
RTVSPost2010Prop39
140
1.0
102
RTVSPost2010PropOp39
 70
     1
102
RTVSPost2010Prop40
 90
        0
102
RTVSPost2010PropOp40
 70
     1
102
RTVSPost2010Prop41ColorIndex
 90
       18
102
RTVSPost2010Prop41ColorRGB
 90
        0
102
RTVSPost2010PropOp41
 70
     1
102
RTVSPost2010Prop42
 90
       50
102
RTVSPost2010PropOp42
 70
     1
102
RTVSPost2010Prop43
 90
        3
102
RTVSPost2010PropOp43
 70
     1
102
RTVSPost2010Prop44ColorIndex
 90
        5
102
RTVSPost2010Prop44ColorRGB
 90
      255
102
RTVSPost2010PropOp44
 70
     1
102
RTVSPost2010Prop45
280
     0
102
RTVSPost2010PropOp45
 70
     1
102
RTVSPost2010Prop46
 90
       50
102
RTVSPost2010PropOp46
 70
     1
102
RTVSPost2010Prop47
 90
       50
102
RTVSPost2010PropOp47
 70
     1
102
RTVSPost2010Prop48
 90
       50
102
RTVSPost2010PropOp48
 70
     1
102
RTVSPost2010Prop49
280
     0
102
RTVSPost2010PropOp49
 70
     1
102
RTVSPost2010Prop50
 90
       50
102
RTVSPost2010PropOp50
 70
     1
102
RTVSPost2010Prop51ColorIndex
 90
      256
102
RTVSPost2010Prop51ColorRGB
 90
-16777216
102
RTVSPost2010PropOp51
 70
     0
102
RTVSPost2010Prop52
140
1.0
102
RTVSPost2010PropOp52
 70
     0
102
RTVSPost2010Prop53
 90
        2
102
RTVSPost2010PropOp53
 70
     1
102
RTVSPost2010Prop54
  1
strokes_ogs.tif
102
RTVSPost2010PropOp54
 70
     1
102
RTVSPost2010Prop55
280
     0
102
RTVSPost2010PropOp55
 70
     1
102
RTVSPost2010Prop56
140
1.0
102
RTVSPost2010PropOp56
 70
     1
102
RTVSPost2010Prop57
140
1.0
102
RTVSPost2010PropOp57
 70
     1
  0
XRECORD
  5
88747
102
{ACAD_REACTORS
330
87B3C
102
}
330
87B3C
100
AcDbXrecord
280
     1
102
RTVSPropertyOp0
 70
     0
102
RTVSPropertyOp1
 70
     0
102
RTVSPropertyOp2
 70
     0
102
RTVSPropertyOp3
 70
     0
102
RTVSPropertyOp4
 70
     0
102
RTVSPropertyOp5
 70
     0
102
RTVSPropertyOp6
 70
     0
102
RTVSPropertyOp7
 70
     0
102
RTVSPropertyOp8
 70
     0
102
RTVSPropertyOp9
 70
     0
102
RTVSPropertyOp10
 70
     0
102
RTVSPropertyOp11
 70
     0
102
RTVSPropertyOp12
 70
     0
102
RTVSPropertyOp13
 70
     0
102
RTVSPropertyOp14
 70
     2
102
RTVSPropertyOp15
 70
     0
102
RTVSPropertyOp16
 70
     0
102
RTVSPropertyOp17
 70
     0
102
RTVSPropertyOp18
 70
     0
102
RTVSPropertyOp19
 70
     0
102
RTVSPropertyOp20
 70
     0
102
RTVSPropertyOp21
 70
     0
102
RTVSPropertyOp22
 70
     0
102
RTVSPropertyOp23
 70
     0
102
RTVSPropertyOp24
 70
     0
102
RTVSPropertyOp25
 70
     0
102
RTVSPropertyOp26
 70
     0
102
RTVSPropertyOp27
 70
     0
102
RTVSPropertyOp28
 70
     1
102
RTVSPropertyOp29
 70
     1
102
RTVSPropertyOp30
 70
     1
102
RTVSPropertyOp31
 70
     1
102
RTVSPropertyOp32
 70
     1
102
RTVSPropertyOp33
 70
     1
102
RTVSPropertyOp34
 70
     1
102
RTVSPropertyOp35
 70
     1
102
RTVSPropertyOp36
 70
     1
102
RTVSPropertyOp37
 70
     0
102
RTVSPropertyOp38
 70
     0
102
RTVSPropertyOp39
 70
     0
102
RTVSPropertyOp40
 70
     0
102
RTVSPropertyOp41
 70
     0
102
RTVSPropertyOp42
 70
     0
102
RTVSPropertyOp43
 70
     0
102
RTVSPropertyOp44
 70
     0
102
RTVSPropertyOp45
 70
     1
102
RTVSPropertyOp46
 70
     0
102
RTVSPropertyOp47
 70
     0
102
RTVSPropertyOp48
 70
     0
102
RTVSPropertyOp49
 70
     1
102
RTVSPropertyOp50
 70
     0
102
RTVSPropertyOp51
 70
     0
102
RTVSPropertyOp52
 70
     0
102
RTVSPropertyOp53
 70
     0
102
RTVSPropertyOp54
 70
     0
102
RTVSPropertyOp55
 70
     1
102
RTVSPropertyOp56
 70
     0
102
RTVSPropertyOp57
 70
     0
102
RTVSPost2010Prop28
280
     0
102
RTVSPost2010PropOp28
 70
     1
102
RTVSPost2010Prop29
280
     1
102
RTVSPost2010PropOp29
 70
     1
102
RTVSPost2010Prop30
280
     1
102
RTVSPost2010PropOp30
 70
     1
102
RTVSPost2010Prop31
280
     0
102
RTVSPost2010PropOp31
 70
     1
102
RTVSPost2010Prop32
280
     0
102
RTVSPost2010PropOp32
 70
     1
102
RTVSPost2010Prop33
280
     0
102
RTVSPost2010PropOp33
 70
     1
102
RTVSPost2010Prop34
280
     0
102
RTVSPost2010PropOp34
 70
     1
102
RTVSPost2010Prop35
280
     0
102
RTVSPost2010PropOp35
 70
     1
102
RTVSPost2010Prop36
280
     0
102
RTVSPost2010PropOp36
 70
     1
102
RTVSPost2010Prop37
 90
       50
102
RTVSPost2010PropOp37
 70
     0
102
RTVSPost2010Prop38
140
0.0
102
RTVSPost2010PropOp38
 70
     0
102
RTVSPost2010Prop39
140
1.0
102
RTVSPost2010PropOp39
 70
     0
102
RTVSPost2010Prop40
 90
        0
102
RTVSPost2010PropOp40
 70
     0
102
RTVSPost2010Prop41ColorIndex
 90
       18
102
RTVSPost2010Prop41ColorRGB
 90
        0
102
RTVSPost2010PropOp41
 70
     0
102
RTVSPost2010Prop42
 90
       50
102
RTVSPost2010PropOp42
 70
     0
102
RTVSPost2010Prop43
 90
        3
102
RTVSPost2010PropOp43
 70
     0
102
RTVSPost2010Prop44ColorIndex
 90
        5
102
RTVSPost2010Prop44ColorRGB
 90
      255
102
RTVSPost2010PropOp44
 70
     0
102
RTVSPost2010Prop45
280
     0
102
RTVSPost2010PropOp45
 70
     1
102
RTVSPost2010Prop46
 90
       50
102
RTVSPost2010PropOp46
 70
     0
102
RTVSPost2010Prop47
 90
       50
102
RTVSPost2010PropOp47
 70
     0
102
RTVSPost2010Prop48
 90
       50
102
RTVSPost2010PropOp48
 70
     0
102
RTVSPost2010Prop49
280
     0
102
RTVSPost2010PropOp49
 70
     1
102
RTVSPost2010Prop50
 90
       50
102
RTVSPost2010PropOp50
 70
     0
102
RTVSPost2010Prop51ColorIndex
 90
      256
102
RTVSPost2010Prop51ColorRGB
 90
-16777216
102
RTVSPost2010PropOp51
 70
     0
102
RTVSPost2010Prop52
140
1.0
102
RTVSPost2010PropOp52
 70
     0
102
RTVSPost2010Prop53
 90
        2
102
RTVSPost2010PropOp53
 70
     0
102
RTVSPost2010Prop54
  1
strokes_ogs.tif
102
RTVSPost2010PropOp54
 70
     0
102
RTVSPost2010Prop55
280
     0
102
RTVSPost2010PropOp55
 70
     1
102
RTVSPost2010Prop56
140
1.0
102
RTVSPost2010PropOp56
 70
     0
102
RTVSPost2010Prop57
140
1.0
102
RTVSPost2010PropOp57
 70
     0
  0
XRECORD
  5
88748
102
{ACAD_REACTORS
330
87B2A
102
}
330
87B2A
100
AcDbXrecord
280
     1
102
RTVSPropertyOp0
 70
     1
102
RTVSPropertyOp1
 70
     1
102
RTVSPropertyOp2
 70
     1
102
RTVSPropertyOp3
 70
     1
102
RTVSPropertyOp4
 70
     1
102
RTVSPropertyOp5
 70
     1
102
RTVSPropertyOp6
 70
     1
102
RTVSPropertyOp7
 70
     1
102
RTVSPropertyOp8
 70
     1
102
RTVSPropertyOp9
 70
     1
102
RTVSPropertyOp10
 70
     1
102
RTVSPropertyOp11
 70
     1
102
RTVSPropertyOp12
 70
     1
102
RTVSPropertyOp13
 70
     1
102
RTVSPropertyOp14
 70
     1
102
RTVSPropertyOp15
 70
     1
102
RTVSPropertyOp16
 70
     1
102
RTVSPropertyOp17
 70
     1
102
RTVSPropertyOp18
 70
     1
102
RTVSPropertyOp19
 70
     1
102
RTVSPropertyOp20
 70
     1
102
RTVSPropertyOp21
 70
     1
102
RTVSPropertyOp22
 70
     1
102
RTVSPropertyOp23
 70
     1
102
RTVSPropertyOp24
 70
     1
102
RTVSPropertyOp25
 70
     1
102
RTVSPropertyOp26
 70
     1
102
RTVSPropertyOp27
 70
     1
102
RTVSPropertyOp28
 70
     1
102
RTVSPropertyOp29
 70
     1
102
RTVSPropertyOp30
 70
     1
102
RTVSPropertyOp31
 70
     1
102
RTVSPropertyOp32
 70
     1
102
RTVSPropertyOp33
 70
     1
102
RTVSPropertyOp34
 70
     1
102
RTVSPropertyOp35
 70
     1
102
RTVSPropertyOp36
 70
     1
102
RTVSPropertyOp37
 70
     1
102
RTVSPropertyOp38
 70
     1
102
RTVSPropertyOp39
 70
     1
102
RTVSPropertyOp40
 70
     1
102
RTVSPropertyOp41
 70
     1
102
RTVSPropertyOp42
 70
     1
102
RTVSPropertyOp43
 70
     1
102
RTVSPropertyOp44
 70
     1
102
RTVSPropertyOp45
 70
     1
102
RTVSPropertyOp46
 70
     1
102
RTVSPropertyOp47
 70
     1
102
RTVSPropertyOp48
 70
     1
102
RTVSPropertyOp49
 70
     1
102
RTVSPropertyOp50
 70
     1
102
RTVSPropertyOp51
 70
     0
102
RTVSPropertyOp52
 70
     0
102
RTVSPropertyOp53
 70
     1
102
RTVSPropertyOp54
 70
     1
102
RTVSPropertyOp55
 70
     1
102
RTVSPropertyOp56
 70
     1
102
RTVSPropertyOp57
 70
     1
102
RTVSPost2010Prop28
280
     0
102
RTVSPost2010PropOp28
 70
     1
102
RTVSPost2010Prop29
280
     1
102
RTVSPost2010PropOp29
 70
     1
102
RTVSPost2010Prop30
280
     1
102
RTVSPost2010PropOp30
 70
     1
102
RTVSPost2010Prop31
280
     0
102
RTVSPost2010PropOp31
 70
     1
102
RTVSPost2010Prop32
280
     0
102
RTVSPost2010PropOp32
 70
     1
102
RTVSPost2010Prop33
280
     0
102
RTVSPost2010PropOp33
 70
     1
102
RTVSPost2010Prop34
280
     0
102
RTVSPost2010PropOp34
 70
     1
102
RTVSPost2010Prop35
280
     0
102
RTVSPost2010PropOp35
 70
     1
102
RTVSPost2010Prop36
280
     0
102
RTVSPost2010PropOp36
 70
     1
102
RTVSPost2010Prop37
 90
       50
102
RTVSPost2010PropOp37
 70
     1
102
RTVSPost2010Prop38
140
0.0
102
RTVSPost2010PropOp38
 70
     1
102
RTVSPost2010Prop39
140
1.0
102
RTVSPost2010PropOp39
 70
     1
102
RTVSPost2010Prop40
 90
        0
102
RTVSPost2010PropOp40
 70
     1
102
RTVSPost2010Prop41ColorIndex
 90
       18
102
RTVSPost2010Prop41ColorRGB
 90
        0
102
RTVSPost2010PropOp41
 70
     1
102
RTVSPost2010Prop42
 90
       50
102
RTVSPost2010PropOp42
 70
     1
102
RTVSPost2010Prop43
 90
        3
102
RTVSPost2010PropOp43
 70
     1
102
RTVSPost2010Prop44ColorIndex
 90
        5
102
RTVSPost2010Prop44ColorRGB
 90
      255
102
RTVSPost2010PropOp44
 70
     1
102
RTVSPost2010Prop45
280
     0
102
RTVSPost2010PropOp45
 70
     1
102
RTVSPost2010Prop46
 90
       50
102
RTVSPost2010PropOp46
 70
     1
102
RTVSPost2010Prop47
 90
       50
102
RTVSPost2010PropOp47
 70
     1
102
RTVSPost2010Prop48
 90
       50
102
RTVSPost2010PropOp48
 70
     1
102
RTVSPost2010Prop49
280
     0
102
RTVSPost2010PropOp49
 70
     1
102
RTVSPost2010Prop50
 90
       50
102
RTVSPost2010PropOp50
 70
     1
102
RTVSPost2010Prop51ColorIndex
 90
      256
102
RTVSPost2010Prop51ColorRGB
 90
-16777216
102
RTVSPost2010PropOp51
 70
     0
102
RTVSPost2010Prop52
140
1.0
102
RTVSPost2010PropOp52
 70
     0
102
RTVSPost2010Prop53
 90
        2
102
RTVSPost2010PropOp53
 70
     1
102
RTVSPost2010Prop54
  1
strokes_ogs.tif
102
RTVSPost2010PropOp54
 70
     1
102
RTVSPost2010Prop55
280
     0
102
RTVSPost2010PropOp55
 70
     1
102
RTVSPost2010Prop56
140
1.0
102
RTVSPost2010PropOp56
 70
     1
102
RTVSPost2010Prop57
140
1.0
102
RTVSPost2010PropOp57
 70
     1
  0
XRECORD
  5
88749
102
{ACAD_REACTORS
330
87B0E
102
}
330
87B0E
100
AcDbXrecord
280
     1
102
RTVSPropertyOp0
 70
     1
102
RTVSPropertyOp1
 70
     1
102
RTVSPropertyOp2
 70
     1
102
RTVSPropertyOp3
 70
     1
102
RTVSPropertyOp4
 70
     1
102
RTVSPropertyOp5
 70
     1
102
RTVSPropertyOp6
 70
     1
102
RTVSPropertyOp7
 70
     1
102
RTVSPropertyOp8
 70
     1
102
RTVSPropertyOp9
 70
     1
102
RTVSPropertyOp10
 70
     1
102
RTVSPropertyOp11
 70
     1
102
RTVSPropertyOp12
 70
     1
102
RTVSPropertyOp13
 70
     1
102
RTVSPropertyOp14
 70
     1
102
RTVSPropertyOp15
 70
     1
102
RTVSPropertyOp16
 70
     1
102
RTVSPropertyOp17
 70
     1
102
RTVSPropertyOp18
 70
     1
102
RTVSPropertyOp19
 70
     1
102
RTVSPropertyOp20
 70
     1
102
RTVSPropertyOp21
 70
     1
102
RTVSPropertyOp22
 70
     1
102
RTVSPropertyOp23
 70
     1
102
RTVSPropertyOp24
 70
     1
102
RTVSPropertyOp25
 70
     1
102
RTVSPropertyOp26
 70
     1
102
RTVSPropertyOp27
 70
     1
102
RTVSPropertyOp28
 70
     1
102
RTVSPropertyOp29
 70
     1
102
RTVSPropertyOp30
 70
     1
102
RTVSPropertyOp31
 70
     1
102
RTVSPropertyOp32
 70
     1
102
RTVSPropertyOp33
 70
     1
102
RTVSPropertyOp34
 70
     1
102
RTVSPropertyOp35
 70
     1
102
RTVSPropertyOp36
 70
     1
102
RTVSPropertyOp37
 70
     1
102
RTVSPropertyOp38
 70
     1
102
RTVSPropertyOp39
 70
     1
102
RTVSPropertyOp40
 70
     1
102
RTVSPropertyOp41
 70
     1
102
RTVSPropertyOp42
 70
     1
102
RTVSPropertyOp43
 70
     1
102
RTVSPropertyOp44
 70
     1
102
RTVSPropertyOp45
 70
     1
102
RTVSPropertyOp46
 70
     1
102
RTVSPropertyOp47
 70
     1
102
RTVSPropertyOp48
 70
     1
102
RTVSPropertyOp49
 70
     1
102
RTVSPropertyOp50
 70
     1
102
RTVSPropertyOp51
 70
     0
102
RTVSPropertyOp52
 70
     0
102
RTVSPropertyOp53
 70
     1
102
RTVSPropertyOp54
 70
     1
102
RTVSPropertyOp55
 70
     1
102
RTVSPropertyOp56
 70
     1
102
RTVSPropertyOp57
 70
     1
102
RTVSPost2010Prop28
280
     0
102
RTVSPost2010PropOp28
 70
     1
102
RTVSPost2010Prop29
280
     1
102
RTVSPost2010PropOp29
 70
     1
102
RTVSPost2010Prop30
280
     1
102
RTVSPost2010PropOp30
 70
     1
102
RTVSPost2010Prop31
280
     0
102
RTVSPost2010PropOp31
 70
     1
102
RTVSPost2010Prop32
280
     0
102
RTVSPost2010PropOp32
 70
     1
102
RTVSPost2010Prop33
280
     0
102
RTVSPost2010PropOp33
 70
     1
102
RTVSPost2010Prop34
280
     0
102
RTVSPost2010PropOp34
 70
     1
102
RTVSPost2010Prop35
280
     0
102
RTVSPost2010PropOp35
 70
     1
102
RTVSPost2010Prop36
280
     0
102
RTVSPost2010PropOp36
 70
     1
102
RTVSPost2010Prop37
 90
       50
102
RTVSPost2010PropOp37
 70
     1
102
RTVSPost2010Prop38
140
0.0
102
RTVSPost2010PropOp38
 70
     1
102
RTVSPost2010Prop39
140
1.0
102
RTVSPost2010PropOp39
 70
     1
102
RTVSPost2010Prop40
 90
        0
102
RTVSPost2010PropOp40
 70
     1
102
RTVSPost2010Prop41ColorIndex
 90
       18
102
RTVSPost2010Prop41ColorRGB
 90
        0
102
RTVSPost2010PropOp41
 70
     1
102
RTVSPost2010Prop42
 90
       50
102
RTVSPost2010PropOp42
 70
     1
102
RTVSPost2010Prop43
 90
        3
102
RTVSPost2010PropOp43
 70
     1
102
RTVSPost2010Prop44ColorIndex
 90
        5
102
RTVSPost2010Prop44ColorRGB
 90
      255
102
RTVSPost2010PropOp44
 70
     1
102
RTVSPost2010Prop45
280
     0
102
RTVSPost2010PropOp45
 70
     1
102
RTVSPost2010Prop46
 90
       50
102
RTVSPost2010PropOp46
 70
     1
102
RTVSPost2010Prop47
 90
       50
102
RTVSPost2010PropOp47
 70
     1
102
RTVSPost2010Prop48
 90
       50
102
RTVSPost2010PropOp48
 70
     1
102
RTVSPost2010Prop49
280
     0
102
RTVSPost2010PropOp49
 70
     1
102
RTVSPost2010Prop50
 90
       50
102
RTVSPost2010PropOp50
 70
     1
102
RTVSPost2010Prop51ColorIndex
 90
      256
102
RTVSPost2010Prop51ColorRGB
 90
-16777216
102
RTVSPost2010PropOp51
 70
     0
102
RTVSPost2010Prop52
140
1.0
102
RTVSPost2010PropOp52
 70
     0
102
RTVSPost2010Prop53
 90
        2
102
RTVSPost2010PropOp53
 70
     1
102
RTVSPost2010Prop54
  1
strokes_ogs.tif
102
RTVSPost2010PropOp54
 70
     1
102
RTVSPost2010Prop55
280
     0
102
RTVSPost2010PropOp55
 70
     1
102
RTVSPost2010Prop56
140
1.0
102
RTVSPost2010PropOp56
 70
     1
102
RTVSPost2010Prop57
140
1.0
102
RTVSPost2010PropOp57
 70
     1
  0
XRECORD
  5
8874A
102
{ACAD_REACTORS
330
87B10
102
}
330
87B10
100
AcDbXrecord
280
     1
102
RTVSPropertyOp0
 70
     1
102
RTVSPropertyOp1
 70
     1
102
RTVSPropertyOp2
 70
     1
102
RTVSPropertyOp3
 70
     1
102
RTVSPropertyOp4
 70
     1
102
RTVSPropertyOp5
 70
     1
102
RTVSPropertyOp6
 70
     1
102
RTVSPropertyOp7
 70
     1
102
RTVSPropertyOp8
 70
     1
102
RTVSPropertyOp9
 70
     1
102
RTVSPropertyOp10
 70
     1
102
RTVSPropertyOp11
 70
     1
102
RTVSPropertyOp12
 70
     1
102
RTVSPropertyOp13
 70
     1
102
RTVSPropertyOp14
 70
     1
102
RTVSPropertyOp15
 70
     1
102
RTVSPropertyOp16
 70
     1
102
RTVSPropertyOp17
 70
     1
102
RTVSPropertyOp18
 70
     1
102
RTVSPropertyOp19
 70
     1
102
RTVSPropertyOp20
 70
     1
102
RTVSPropertyOp21
 70
     1
102
RTVSPropertyOp22
 70
     1
102
RTVSPropertyOp23
 70
     1
102
RTVSPropertyOp24
 70
     1
102
RTVSPropertyOp25
 70
     1
102
RTVSPropertyOp26
 70
     1
102
RTVSPropertyOp27
 70
     1
102
RTVSPropertyOp28
 70
     1
102
RTVSPropertyOp29
 70
     1
102
RTVSPropertyOp30
 70
     1
102
RTVSPropertyOp31
 70
     1
102
RTVSPropertyOp32
 70
     1
102
RTVSPropertyOp33
 70
     1
102
RTVSPropertyOp34
 70
     1
102
RTVSPropertyOp35
 70
     1
102
RTVSPropertyOp36
 70
     1
102
RTVSPropertyOp37
 70
     1
102
RTVSPropertyOp38
 70
     1
102
RTVSPropertyOp39
 70
     1
102
RTVSPropertyOp40
 70
     1
102
RTVSPropertyOp41
 70
     1
102
RTVSPropertyOp42
 70
     1
102
RTVSPropertyOp43
 70
     1
102
RTVSPropertyOp44
 70
     1
102
RTVSPropertyOp45
 70
     1
102
RTVSPropertyOp46
 70
     1
102
RTVSPropertyOp47
 70
     1
102
RTVSPropertyOp48
 70
     1
102
RTVSPropertyOp49
 70
     1
102
RTVSPropertyOp50
 70
     1
102
RTVSPropertyOp51
 70
     0
102
RTVSPropertyOp52
 70
     0
102
RTVSPropertyOp53
 70
     1
102
RTVSPropertyOp54
 70
     1
102
RTVSPropertyOp55
 70
     1
102
RTVSPropertyOp56
 70
     1
102
RTVSPropertyOp57
 70
     1
102
RTVSPost2010Prop28
280
     0
102
RTVSPost2010PropOp28
 70
     1
102
RTVSPost2010Prop29
280
     1
102
RTVSPost2010PropOp29
 70
     1
102
RTVSPost2010Prop30
280
     1
102
RTVSPost2010PropOp30
 70
     1
102
RTVSPost2010Prop31
280
     0
102
RTVSPost2010PropOp31
 70
     1
102
RTVSPost2010Prop32
280
     0
102
RTVSPost2010PropOp32
 70
     1
102
RTVSPost2010Prop33
280
     0
102
RTVSPost2010PropOp33
 70
     1
102
RTVSPost2010Prop34
280
     0
102
RTVSPost2010PropOp34
 70
     1
102
RTVSPost2010Prop35
280
     0
102
RTVSPost2010PropOp35
 70
     1
102
RTVSPost2010Prop36
280
     0
102
RTVSPost2010PropOp36
 70
     1
102
RTVSPost2010Prop37
 90
       50
102
RTVSPost2010PropOp37
 70
     1
102
RTVSPost2010Prop38
140
0.0
102
RTVSPost2010PropOp38
 70
     1
102
RTVSPost2010Prop39
140
1.0
102
RTVSPost2010PropOp39
 70
     1
102
RTVSPost2010Prop40
 90
        0
102
RTVSPost2010PropOp40
 70
     1
102
RTVSPost2010Prop41ColorIndex
 90
       18
102
RTVSPost2010Prop41ColorRGB
 90
        0
102
RTVSPost2010PropOp41
 70
     1
102
RTVSPost2010Prop42
 90
       50
102
RTVSPost2010PropOp42
 70
     1
102
RTVSPost2010Prop43
 90
        3
102
RTVSPost2010PropOp43
 70
     1
102
RTVSPost2010Prop44ColorIndex
 90
        5
102
RTVSPost2010Prop44ColorRGB
 90
      255
102
RTVSPost2010PropOp44
 70
     1
102
RTVSPost2010Prop45
280
     0
102
RTVSPost2010PropOp45
 70
     1
102
RTVSPost2010Prop46
 90
       50
102
RTVSPost2010PropOp46
 70
     1
102
RTVSPost2010Prop47
 90
       50
102
RTVSPost2010PropOp47
 70
     1
102
RTVSPost2010Prop48
 90
       50
102
RTVSPost2010PropOp48
 70
     1
102
RTVSPost2010Prop49
280
     0
102
RTVSPost2010PropOp49
 70
     1
102
RTVSPost2010Prop50
 90
       50
102
RTVSPost2010PropOp50
 70
     1
102
RTVSPost2010Prop51ColorIndex
 90
      256
102
RTVSPost2010Prop51ColorRGB
 90
-16777216
102
RTVSPost2010PropOp51
 70
     0
102
RTVSPost2010Prop52
140
1.0
102
RTVSPost2010PropOp52
 70
     0
102
RTVSPost2010Prop53
 90
        2
102
RTVSPost2010PropOp53
 70
     1
102
RTVSPost2010Prop54
  1
strokes_ogs.tif
102
RTVSPost2010PropOp54
 70
     1
102
RTVSPost2010Prop55
280
     0
102
RTVSPost2010PropOp55
 70
     1
102
RTVSPost2010Prop56
140
1.0
102
RTVSPost2010PropOp56
 70
     1
102
RTVSPost2010Prop57
140
1.0
102
RTVSPost2010PropOp57
 70
     1
  0
XRECORD
  5
8874B
102
{ACAD_REACTORS
330
87B12
102
}
330
87B12
100
AcDbXrecord
280
     1
102
RTVSPropertyOp0
 70
     1
102
RTVSPropertyOp1
 70
     1
102
RTVSPropertyOp2
 70
     1
102
RTVSPropertyOp3
 70
     1
102
RTVSPropertyOp4
 70
     1
102
RTVSPropertyOp5
 70
     1
102
RTVSPropertyOp6
 70
     1
102
RTVSPropertyOp7
 70
     1
102
RTVSPropertyOp8
 70
     1
102
RTVSPropertyOp9
 70
     1
102
RTVSPropertyOp10
 70
     1
102
RTVSPropertyOp11
 70
     1
102
RTVSPropertyOp12
 70
     1
102
RTVSPropertyOp13
 70
     1
102
RTVSPropertyOp14
 70
     1
102
RTVSPropertyOp15
 70
     1
102
RTVSPropertyOp16
 70
     1
102
RTVSPropertyOp17
 70
     1
102
RTVSPropertyOp18
 70
     1
102
RTVSPropertyOp19
 70
     1
102
RTVSPropertyOp20
 70
     1
102
RTVSPropertyOp21
 70
     1
102
RTVSPropertyOp22
 70
     1
102
RTVSPropertyOp23
 70
     1
102
RTVSPropertyOp24
 70
     1
102
RTVSPropertyOp25
 70
     1
102
RTVSPropertyOp26
 70
     1
102
RTVSPropertyOp27
 70
     1
102
RTVSPropertyOp28
 70
     1
102
RTVSPropertyOp29
 70
     1
102
RTVSPropertyOp30
 70
     1
102
RTVSPropertyOp31
 70
     1
102
RTVSPropertyOp32
 70
     1
102
RTVSPropertyOp33
 70
     1
102
RTVSPropertyOp34
 70
     1
102
RTVSPropertyOp35
 70
     1
102
RTVSPropertyOp36
 70
     1
102
RTVSPropertyOp37
 70
     1
102
RTVSPropertyOp38
 70
     1
102
RTVSPropertyOp39
 70
     1
102
RTVSPropertyOp40
 70
     1
102
RTVSPropertyOp41
 70
     1
102
RTVSPropertyOp42
 70
     1
102
RTVSPropertyOp43
 70
     1
102
RTVSPropertyOp44
 70
     1
102
RTVSPropertyOp45
 70
     1
102
RTVSPropertyOp46
 70
     1
102
RTVSPropertyOp47
 70
     1
102
RTVSPropertyOp48
 70
     1
102
RTVSPropertyOp49
 70
     1
102
RTVSPropertyOp50
 70
     1
102
RTVSPropertyOp51
 70
     0
102
RTVSPropertyOp52
 70
     0
102
RTVSPropertyOp53
 70
     1
102
RTVSPropertyOp54
 70
     1
102
RTVSPropertyOp55
 70
     1
102
RTVSPropertyOp56
 70
     1
102
RTVSPropertyOp57
 70
     1
102
RTVSPost2010Prop28
280
     0
102
RTVSPost2010PropOp28
 70
     1
102
RTVSPost2010Prop29
280
     1
102
RTVSPost2010PropOp29
 70
     1
102
RTVSPost2010Prop30
280
     1
102
RTVSPost2010PropOp30
 70
     1
102
RTVSPost2010Prop31
280
     0
102
RTVSPost2010PropOp31
 70
     1
102
RTVSPost2010Prop32
280
     0
102
RTVSPost2010PropOp32
 70
     1
102
RTVSPost2010Prop33
280
     0
102
RTVSPost2010PropOp33
 70
     1
102
RTVSPost2010Prop34
280
     0
102
RTVSPost2010PropOp34
 70
     1
102
RTVSPost2010Prop35
280
     0
102
RTVSPost2010PropOp35
 70
     1
102
RTVSPost2010Prop36
280
     0
102
RTVSPost2010PropOp36
 70
     1
102
RTVSPost2010Prop37
 90
       50
102
RTVSPost2010PropOp37
 70
     1
102
RTVSPost2010Prop38
140
0.0
102
RTVSPost2010PropOp38
 70
     1
102
RTVSPost2010Prop39
140
1.0
102
RTVSPost2010PropOp39
 70
     1
102
RTVSPost2010Prop40
 90
        0
102
RTVSPost2010PropOp40
 70
     1
102
RTVSPost2010Prop41ColorIndex
 90
       18
102
RTVSPost2010Prop41ColorRGB
 90
        0
102
RTVSPost2010PropOp41
 70
     1
102
RTVSPost2010Prop42
 90
       50
102
RTVSPost2010PropOp42
 70
     1
102
RTVSPost2010Prop43
 90
        3
102
RTVSPost2010PropOp43
 70
     1
102
RTVSPost2010Prop44ColorIndex
 90
        5
102
RTVSPost2010Prop44ColorRGB
 90
      255
102
RTVSPost2010PropOp44
 70
     1
102
RTVSPost2010Prop45
280
     0
102
RTVSPost2010PropOp45
 70
     1
102
RTVSPost2010Prop46
 90
       50
102
RTVSPost2010PropOp46
 70
     1
102
RTVSPost2010Prop47
 90
       50
102
RTVSPost2010PropOp47
 70
     1
102
RTVSPost2010Prop48
 90
       50
102
RTVSPost2010PropOp48
 70
     1
102
RTVSPost2010Prop49
280
     0
102
RTVSPost2010PropOp49
 70
     1
102
RTVSPost2010Prop50
 90
       50
102
RTVSPost2010PropOp50
 70
     1
102
RTVSPost2010Prop51ColorIndex
 90
      256
102
RTVSPost2010Prop51ColorRGB
 90
-16777216
102
RTVSPost2010PropOp51
 70
     0
102
RTVSPost2010Prop52
140
1.0
102
RTVSPost2010PropOp52
 70
     0
102
RTVSPost2010Prop53
 90
        2
102
RTVSPost2010PropOp53
 70
     1
102
RTVSPost2010Prop54
  1
strokes_ogs.tif
102
RTVSPost2010PropOp54
 70
     1
102
RTVSPost2010Prop55
280
     0
102
RTVSPost2010PropOp55
 70
     1
102
RTVSPost2010Prop56
140
1.0
102
RTVSPost2010PropOp56
 70
     1
102
RTVSPost2010Prop57
140
1.0
102
RTVSPost2010PropOp57
 70
     1
  0
XRECORD
  5
8874C
102
{ACAD_REACTORS
330
87B14
102
}
330
87B14
100
AcDbXrecord
280
     1
102
RTVSPropertyOp0
 70
     1
102
RTVSPropertyOp1
 70
     1
102
RTVSPropertyOp2
 70
     1
102
RTVSPropertyOp3
 70
     1
102
RTVSPropertyOp4
 70
     1
102
RTVSPropertyOp5
 70
     1
102
RTVSPropertyOp6
 70
     1
102
RTVSPropertyOp7
 70
     1
102
RTVSPropertyOp8
 70
     1
102
RTVSPropertyOp9
 70
     1
102
RTVSPropertyOp10
 70
     1
102
RTVSPropertyOp11
 70
     1
102
RTVSPropertyOp12
 70
     1
102
RTVSPropertyOp13
 70
     1
102
RTVSPropertyOp14
 70
     1
102
RTVSPropertyOp15
 70
     1
102
RTVSPropertyOp16
 70
     1
102
RTVSPropertyOp17
 70
     1
102
RTVSPropertyOp18
 70
     1
102
RTVSPropertyOp19
 70
     1
102
RTVSPropertyOp20
 70
     1
102
RTVSPropertyOp21
 70
     1
102
RTVSPropertyOp22
 70
     1
102
RTVSPropertyOp23
 70
     1
102
RTVSPropertyOp24
 70
     1
102
RTVSPropertyOp25
 70
     1
102
RTVSPropertyOp26
 70
     1
102
RTVSPropertyOp27
 70
     1
102
RTVSPropertyOp28
 70
     1
102
RTVSPropertyOp29
 70
     1
102
RTVSPropertyOp30
 70
     1
102
RTVSPropertyOp31
 70
     1
102
RTVSPropertyOp32
 70
     1
102
RTVSPropertyOp33
 70
     1
102
RTVSPropertyOp34
 70
     1
102
RTVSPropertyOp35
 70
     1
102
RTVSPropertyOp36
 70
     1
102
RTVSPropertyOp37
 70
     1
102
RTVSPropertyOp38
 70
     1
102
RTVSPropertyOp39
 70
     1
102
RTVSPropertyOp40
 70
     1
102
RTVSPropertyOp41
 70
     1
102
RTVSPropertyOp42
 70
     1
102
RTVSPropertyOp43
 70
     1
102
RTVSPropertyOp44
 70
     1
102
RTVSPropertyOp45
 70
     1
102
RTVSPropertyOp46
 70
     1
102
RTVSPropertyOp47
 70
     1
102
RTVSPropertyOp48
 70
     1
102
RTVSPropertyOp49
 70
     1
102
RTVSPropertyOp50
 70
     1
102
RTVSPropertyOp51
 70
     0
102
RTVSPropertyOp52
 70
     0
102
RTVSPropertyOp53
 70
     1
102
RTVSPropertyOp54
 70
     1
102
RTVSPropertyOp55
 70
     1
102
RTVSPropertyOp56
 70
     1
102
RTVSPropertyOp57
 70
     1
102
RTVSPost2010Prop28
280
     0
102
RTVSPost2010PropOp28
 70
     1
102
RTVSPost2010Prop29
280
     1
102
RTVSPost2010PropOp29
 70
     1
102
RTVSPost2010Prop30
280
     1
102
RTVSPost2010PropOp30
 70
     1
102
RTVSPost2010Prop31
280
     0
102
RTVSPost2010PropOp31
 70
     1
102
RTVSPost2010Prop32
280
     0
102
RTVSPost2010PropOp32
 70
     1
102
RTVSPost2010Prop33
280
     0
102
RTVSPost2010PropOp33
 70
     1
102
RTVSPost2010Prop34
280
     0
102
RTVSPost2010PropOp34
 70
     1
102
RTVSPost2010Prop35
280
     0
102
RTVSPost2010PropOp35
 70
     1
102
RTVSPost2010Prop36
280
     0
102
RTVSPost2010PropOp36
 70
     1
102
RTVSPost2010Prop37
 90
       50
102
RTVSPost2010PropOp37
 70
     1
102
RTVSPost2010Prop38
140
0.0
102
RTVSPost2010PropOp38
 70
     1
102
RTVSPost2010Prop39
140
1.0
102
RTVSPost2010PropOp39
 70
     1
102
RTVSPost2010Prop40
 90
        0
102
RTVSPost2010PropOp40
 70
     1
102
RTVSPost2010Prop41ColorIndex
 90
       18
102
RTVSPost2010Prop41ColorRGB
 90
        0
102
RTVSPost2010PropOp41
 70
     1
102
RTVSPost2010Prop42
 90
       50
102
RTVSPost2010PropOp42
 70
     1
102
RTVSPost2010Prop43
 90
        3
102
RTVSPost2010PropOp43
 70
     1
102
RTVSPost2010Prop44ColorIndex
 90
        5
102
RTVSPost2010Prop44ColorRGB
 90
      255
102
RTVSPost2010PropOp44
 70
     1
102
RTVSPost2010Prop45
280
     0
102
RTVSPost2010PropOp45
 70
     1
102
RTVSPost2010Prop46
 90
       50
102
RTVSPost2010PropOp46
 70
     1
102
RTVSPost2010Prop47
 90
       50
102
RTVSPost2010PropOp47
 70
     1
102
RTVSPost2010Prop48
 90
       50
102
RTVSPost2010PropOp48
 70
     1
102
RTVSPost2010Prop49
280
     0
102
RTVSPost2010PropOp49
 70
     1
102
RTVSPost2010Prop50
 90
       50
102
RTVSPost2010PropOp50
 70
     1
102
RTVSPost2010Prop51ColorIndex
 90
      256
102
RTVSPost2010Prop51ColorRGB
 90
-16777216
102
RTVSPost2010PropOp51
 70
     0
102
RTVSPost2010Prop52
140
1.0
102
RTVSPost2010PropOp52
 70
     0
102
RTVSPost2010Prop53
 90
        2
102
RTVSPost2010PropOp53
 70
     1
102
RTVSPost2010Prop54
  1
strokes_ogs.tif
102
RTVSPost2010PropOp54
 70
     1
102
RTVSPost2010Prop55
280
     0
102
RTVSPost2010PropOp55
 70
     1
102
RTVSPost2010Prop56
140
1.0
102
RTVSPost2010PropOp56
 70
     1
102
RTVSPost2010Prop57
140
1.0
102
RTVSPost2010PropOp57
 70
     1
  0
XRECORD
  5
8874D
102
{ACAD_REACTORS
330
87B1C
102
}
330
87B1C
100
AcDbXrecord
280
     1
102
RTVSPropertyOp0
 70
     1
102
RTVSPropertyOp1
 70
     1
102
RTVSPropertyOp2
 70
     1
102
RTVSPropertyOp3
 70
     1
102
RTVSPropertyOp4
 70
     1
102
RTVSPropertyOp5
 70
     1
102
RTVSPropertyOp6
 70
     1
102
RTVSPropertyOp7
 70
     1
102
RTVSPropertyOp8
 70
     1
102
RTVSPropertyOp9
 70
     1
102
RTVSPropertyOp10
 70
     1
102
RTVSPropertyOp11
 70
     1
102
RTVSPropertyOp12
 70
     1
102
RTVSPropertyOp13
 70
     1
102
RTVSPropertyOp14
 70
     1
102
RTVSPropertyOp15
 70
     1
102
RTVSPropertyOp16
 70
     1
102
RTVSPropertyOp17
 70
     1
102
RTVSPropertyOp18
 70
     1
102
RTVSPropertyOp19
 70
     1
102
RTVSPropertyOp20
 70
     1
102
RTVSPropertyOp21
 70
     1
102
RTVSPropertyOp22
 70
     1
102
RTVSPropertyOp23
 70
     1
102
RTVSPropertyOp24
 70
     1
102
RTVSPropertyOp25
 70
     1
102
RTVSPropertyOp26
 70
     1
102
RTVSPropertyOp27
 70
     1
102
RTVSPropertyOp28
 70
     1
102
RTVSPropertyOp29
 70
     1
102
RTVSPropertyOp30
 70
     1
102
RTVSPropertyOp31
 70
     1
102
RTVSPropertyOp32
 70
     1
102
RTVSPropertyOp33
 70
     1
102
RTVSPropertyOp34
 70
     1
102
RTVSPropertyOp35
 70
     1
102
RTVSPropertyOp36
 70
     1
102
RTVSPropertyOp37
 70
     1
102
RTVSPropertyOp38
 70
     1
102
RTVSPropertyOp39
 70
     1
102
RTVSPropertyOp40
 70
     1
102
RTVSPropertyOp41
 70
     1
102
RTVSPropertyOp42
 70
     1
102
RTVSPropertyOp43
 70
     1
102
RTVSPropertyOp44
 70
     1
102
RTVSPropertyOp45
 70
     1
102
RTVSPropertyOp46
 70
     1
102
RTVSPropertyOp47
 70
     1
102
RTVSPropertyOp48
 70
     1
102
RTVSPropertyOp49
 70
     1
102
RTVSPropertyOp50
 70
     1
102
RTVSPropertyOp51
 70
     0
102
RTVSPropertyOp52
 70
     0
102
RTVSPropertyOp53
 70
     1
102
RTVSPropertyOp54
 70
     1
102
RTVSPropertyOp55
 70
     1
102
RTVSPropertyOp56
 70
     1
102
RTVSPropertyOp57
 70
     1
102
RTVSPost2010Prop28
280
     0
102
RTVSPost2010PropOp28
 70
     1
102
RTVSPost2010Prop29
280
     1
102
RTVSPost2010PropOp29
 70
     1
102
RTVSPost2010Prop30
280
     1
102
RTVSPost2010PropOp30
 70
     1
102
RTVSPost2010Prop31
280
     0
102
RTVSPost2010PropOp31
 70
     1
102
RTVSPost2010Prop32
280
     0
102
RTVSPost2010PropOp32
 70
     1
102
RTVSPost2010Prop33
280
     0
102
RTVSPost2010PropOp33
 70
     1
102
RTVSPost2010Prop34
280
     0
102
RTVSPost2010PropOp34
 70
     1
102
RTVSPost2010Prop35
280
     0
102
RTVSPost2010PropOp35
 70
     1
102
RTVSPost2010Prop36
280
     0
102
RTVSPost2010PropOp36
 70
     1
102
RTVSPost2010Prop37
 90
       50
102
RTVSPost2010PropOp37
 70
     1
102
RTVSPost2010Prop38
140
0.0
102
RTVSPost2010PropOp38
 70
     1
102
RTVSPost2010Prop39
140
1.0
102
RTVSPost2010PropOp39
 70
     1
102
RTVSPost2010Prop40
 90
        0
102
RTVSPost2010PropOp40
 70
     1
102
RTVSPost2010Prop41ColorIndex
 90
       18
102
RTVSPost2010Prop41ColorRGB
 90
        0
102
RTVSPost2010PropOp41
 70
     1
102
RTVSPost2010Prop42
 90
       50
102
RTVSPost2010PropOp42
 70
     1
102
RTVSPost2010Prop43
 90
        3
102
RTVSPost2010PropOp43
 70
     1
102
RTVSPost2010Prop44ColorIndex
 90
        5
102
RTVSPost2010Prop44ColorRGB
 90
      255
102
RTVSPost2010PropOp44
 70
     1
102
RTVSPost2010Prop45
280
     0
102
RTVSPost2010PropOp45
 70
     1
102
RTVSPost2010Prop46
 90
       50
102
RTVSPost2010PropOp46
 70
     1
102
RTVSPost2010Prop47
 90
       50
102
RTVSPost2010PropOp47
 70
     1
102
RTVSPost2010Prop48
 90
       50
102
RTVSPost2010PropOp48
 70
     1
102
RTVSPost2010Prop49
280
     0
102
RTVSPost2010PropOp49
 70
     1
102
RTVSPost2010Prop50
 90
       50
102
RTVSPost2010PropOp50
 70
     1
102
RTVSPost2010Prop51ColorIndex
 90
      256
102
RTVSPost2010Prop51ColorRGB
 90
-16777216
102
RTVSPost2010PropOp51
 70
     0
102
RTVSPost2010Prop52
140
1.0
102
RTVSPost2010PropOp52
 70
     0
102
RTVSPost2010Prop53
 90
        2
102
RTVSPost2010PropOp53
 70
     1
102
RTVSPost2010Prop54
  1
strokes_ogs.tif
102
RTVSPost2010PropOp54
 70
     1
102
RTVSPost2010Prop55
280
     0
102
RTVSPost2010PropOp55
 70
     1
102
RTVSPost2010Prop56
140
1.0
102
RTVSPost2010PropOp56
 70
     1
102
RTVSPost2010Prop57
140
1.0
102
RTVSPost2010PropOp57
 70
     1
  0
XRECORD
  5
8874E
102
{ACAD_REACTORS
330
87B38
102
}
330
87B38
100
AcDbXrecord
280
     1
102
RTVSPropertyOp0
 70
     0
102
RTVSPropertyOp1
 70
     0
102
RTVSPropertyOp2
 70
     0
102
RTVSPropertyOp3
 70
     0
102
RTVSPropertyOp4
 70
     0
102
RTVSPropertyOp5
 70
     0
102
RTVSPropertyOp6
 70
     0
102
RTVSPropertyOp7
 70
     0
102
RTVSPropertyOp8
 70
     0
102
RTVSPropertyOp9
 70
     0
102
RTVSPropertyOp10
 70
     0
102
RTVSPropertyOp11
 70
     0
102
RTVSPropertyOp12
 70
     0
102
RTVSPropertyOp13
 70
     0
102
RTVSPropertyOp14
 70
     2
102
RTVSPropertyOp15
 70
     0
102
RTVSPropertyOp16
 70
     0
102
RTVSPropertyOp17
 70
     0
102
RTVSPropertyOp18
 70
     0
102
RTVSPropertyOp19
 70
     0
102
RTVSPropertyOp20
 70
     0
102
RTVSPropertyOp21
 70
     0
102
RTVSPropertyOp22
 70
     0
102
RTVSPropertyOp23
 70
     0
102
RTVSPropertyOp24
 70
     0
102
RTVSPropertyOp25
 70
     0
102
RTVSPropertyOp26
 70
     0
102
RTVSPropertyOp27
 70
     0
102
RTVSPropertyOp28
 70
     1
102
RTVSPropertyOp29
 70
     1
102
RTVSPropertyOp30
 70
     1
102
RTVSPropertyOp31
 70
     1
102
RTVSPropertyOp32
 70
     1
102
RTVSPropertyOp33
 70
     1
102
RTVSPropertyOp34
 70
     1
102
RTVSPropertyOp35
 70
     1
102
RTVSPropertyOp36
 70
     1
102
RTVSPropertyOp37
 70
     0
102
RTVSPropertyOp38
 70
     0
102
RTVSPropertyOp39
 70
     0
102
RTVSPropertyOp40
 70
     0
102
RTVSPropertyOp41
 70
     0
102
RTVSPropertyOp42
 70
     0
102
RTVSPropertyOp43
 70
     0
102
RTVSPropertyOp44
 70
     0
102
RTVSPropertyOp45
 70
     1
102
RTVSPropertyOp46
 70
     0
102
RTVSPropertyOp47
 70
     0
102
RTVSPropertyOp48
 70
     0
102
RTVSPropertyOp49
 70
     1
102
RTVSPropertyOp50
 70
     0
102
RTVSPropertyOp51
 70
     0
102
RTVSPropertyOp52
 70
     0
102
RTVSPropertyOp53
 70
     0
102
RTVSPropertyOp54
 70
     0
102
RTVSPropertyOp55
 70
     1
102
RTVSPropertyOp56
 70
     0
102
RTVSPropertyOp57
 70
     0
102
RTVSPost2010Prop28
280
     0
102
RTVSPost2010PropOp28
 70
     1
102
RTVSPost2010Prop29
280
     1
102
RTVSPost2010PropOp29
 70
     1
102
RTVSPost2010Prop30
280
     1
102
RTVSPost2010PropOp30
 70
     1
102
RTVSPost2010Prop31
280
     0
102
RTVSPost2010PropOp31
 70
     1
102
RTVSPost2010Prop32
280
     0
102
RTVSPost2010PropOp32
 70
     1
102
RTVSPost2010Prop33
280
     0
102
RTVSPost2010PropOp33
 70
     1
102
RTVSPost2010Prop34
280
     0
102
RTVSPost2010PropOp34
 70
     1
102
RTVSPost2010Prop35
280
     0
102
RTVSPost2010PropOp35
 70
     1
102
RTVSPost2010Prop36
280
     0
102
RTVSPost2010PropOp36
 70
     1
102
RTVSPost2010Prop37
 90
       50
102
RTVSPost2010PropOp37
 70
     0
102
RTVSPost2010Prop38
140
0.0
102
RTVSPost2010PropOp38
 70
     0
102
RTVSPost2010Prop39
140
1.0
102
RTVSPost2010PropOp39
 70
     0
102
RTVSPost2010Prop40
 90
        0
102
RTVSPost2010PropOp40
 70
     0
102
RTVSPost2010Prop41ColorIndex
 90
       18
102
RTVSPost2010Prop41ColorRGB
 90
        0
102
RTVSPost2010PropOp41
 70
     0
102
RTVSPost2010Prop42
 90
       50
102
RTVSPost2010PropOp42
 70
     0
102
RTVSPost2010Prop43
 90
        3
102
RTVSPost2010PropOp43
 70
     0
102
RTVSPost2010Prop44ColorIndex
 90
        5
102
RTVSPost2010Prop44ColorRGB
 90
      255
102
RTVSPost2010PropOp44
 70
     0
102
RTVSPost2010Prop45
280
     0
102
RTVSPost2010PropOp45
 70
     1
102
RTVSPost2010Prop46
 90
       50
102
RTVSPost2010PropOp46
 70
     0
102
RTVSPost2010Prop47
 90
       50
102
RTVSPost2010PropOp47
 70
     0
102
RTVSPost2010Prop48
 90
       50
102
RTVSPost2010PropOp48
 70
     0
102
RTVSPost2010Prop49
280
     0
102
RTVSPost2010PropOp49
 70
     1
102
RTVSPost2010Prop50
 90
       50
102
RTVSPost2010PropOp50
 70
     0
102
RTVSPost2010Prop51ColorIndex
 90
      256
102
RTVSPost2010Prop51ColorRGB
 90
-16777216
102
RTVSPost2010PropOp51
 70
     0
102
RTVSPost2010Prop52
140
1.0
102
RTVSPost2010PropOp52
 70
     0
102
RTVSPost2010Prop53
 90
        2
102
RTVSPost2010PropOp53
 70
     0
102
RTVSPost2010Prop54
  1
strokes_ogs.tif
102
RTVSPost2010PropOp54
 70
     0
102
RTVSPost2010Prop55
280
     0
102
RTVSPost2010PropOp55
 70
     1
102
RTVSPost2010Prop56
140
1.0
102
RTVSPost2010PropOp56
 70
     0
102
RTVSPost2010Prop57
140
1.0
102
RTVSPost2010PropOp57
 70
     0
  0
XRECORD
  5
8874F
102
{ACAD_REACTORS
330
87B28
102
}
330
87B28
100
AcDbXrecord
280
     1
102
RTVSPropertyOp0
 70
     1
102
RTVSPropertyOp1
 70
     1
102
RTVSPropertyOp2
 70
     1
102
RTVSPropertyOp3
 70
     1
102
RTVSPropertyOp4
 70
     1
102
RTVSPropertyOp5
 70
     1
102
RTVSPropertyOp6
 70
     1
102
RTVSPropertyOp7
 70
     1
102
RTVSPropertyOp8
 70
     1
102
RTVSPropertyOp9
 70
     1
102
RTVSPropertyOp10
 70
     1
102
RTVSPropertyOp11
 70
     1
102
RTVSPropertyOp12
 70
     1
102
RTVSPropertyOp13
 70
     1
102
RTVSPropertyOp14
 70
     1
102
RTVSPropertyOp15
 70
     1
102
RTVSPropertyOp16
 70
     1
102
RTVSPropertyOp17
 70
     1
102
RTVSPropertyOp18
 70
     1
102
RTVSPropertyOp19
 70
     1
102
RTVSPropertyOp20
 70
     1
102
RTVSPropertyOp21
 70
     1
102
RTVSPropertyOp22
 70
     1
102
RTVSPropertyOp23
 70
     1
102
RTVSPropertyOp24
 70
     1
102
RTVSPropertyOp25
 70
     1
102
RTVSPropertyOp26
 70
     1
102
RTVSPropertyOp27
 70
     1
102
RTVSPropertyOp28
 70
     1
102
RTVSPropertyOp29
 70
     1
102
RTVSPropertyOp30
 70
     1
102
RTVSPropertyOp31
 70
     1
102
RTVSPropertyOp32
 70
     1
102
RTVSPropertyOp33
 70
     1
102
RTVSPropertyOp34
 70
     1
102
RTVSPropertyOp35
 70
     1
102
RTVSPropertyOp36
 70
     1
102
RTVSPropertyOp37
 70
     1
102
RTVSPropertyOp38
 70
     1
102
RTVSPropertyOp39
 70
     1
102
RTVSPropertyOp40
 70
     1
102
RTVSPropertyOp41
 70
     1
102
RTVSPropertyOp42
 70
     1
102
RTVSPropertyOp43
 70
     1
102
RTVSPropertyOp44
 70
     1
102
RTVSPropertyOp45
 70
     1
102
RTVSPropertyOp46
 70
     1
102
RTVSPropertyOp47
 70
     1
102
RTVSPropertyOp48
 70
     1
102
RTVSPropertyOp49
 70
     1
102
RTVSPropertyOp50
 70
     1
102
RTVSPropertyOp51
 70
     0
102
RTVSPropertyOp52
 70
     0
102
RTVSPropertyOp53
 70
     1
102
RTVSPropertyOp54
 70
     1
102
RTVSPropertyOp55
 70
     1
102
RTVSPropertyOp56
 70
     1
102
RTVSPropertyOp57
 70
     1
102
RTVSPost2010Prop28
280
     0
102
RTVSPost2010PropOp28
 70
     1
102
RTVSPost2010Prop29
280
     1
102
RTVSPost2010PropOp29
 70
     1
102
RTVSPost2010Prop30
280
     1
102
RTVSPost2010PropOp30
 70
     1
102
RTVSPost2010Prop31
280
     0
102
RTVSPost2010PropOp31
 70
     1
102
RTVSPost2010Prop32
280
     0
102
RTVSPost2010PropOp32
 70
     1
102
RTVSPost2010Prop33
280
     0
102
RTVSPost2010PropOp33
 70
     1
102
RTVSPost2010Prop34
280
     0
102
RTVSPost2010PropOp34
 70
     1
102
RTVSPost2010Prop35
280
     0
102
RTVSPost2010PropOp35
 70
     1
102
RTVSPost2010Prop36
280
     0
102
RTVSPost2010PropOp36
 70
     1
102
RTVSPost2010Prop37
 90
       50
102
RTVSPost2010PropOp37
 70
     1
102
RTVSPost2010Prop38
140
0.0
102
RTVSPost2010PropOp38
 70
     1
102
RTVSPost2010Prop39
140
1.0
102
RTVSPost2010PropOp39
 70
     1
102
RTVSPost2010Prop40
 90
        0
102
RTVSPost2010PropOp40
 70
     1
102
RTVSPost2010Prop41ColorIndex
 90
       18
102
RTVSPost2010Prop41ColorRGB
 90
        0
102
RTVSPost2010PropOp41
 70
     1
102
RTVSPost2010Prop42
 90
       50
102
RTVSPost2010PropOp42
 70
     1
102
RTVSPost2010Prop43
 90
        3
102
RTVSPost2010PropOp43
 70
     1
102
RTVSPost2010Prop44ColorIndex
 90
        5
102
RTVSPost2010Prop44ColorRGB
 90
      255
102
RTVSPost2010PropOp44
 70
     1
102
RTVSPost2010Prop45
280
     0
102
RTVSPost2010PropOp45
 70
     1
102
RTVSPost2010Prop46
 90
       50
102
RTVSPost2010PropOp46
 70
     1
102
RTVSPost2010Prop47
 90
       50
102
RTVSPost2010PropOp47
 70
     1
102
RTVSPost2010Prop48
 90
       50
102
RTVSPost2010PropOp48
 70
     1
102
RTVSPost2010Prop49
280
     0
102
RTVSPost2010PropOp49
 70
     1
102
RTVSPost2010Prop50
 90
       50
102
RTVSPost2010PropOp50
 70
     1
102
RTVSPost2010Prop51ColorIndex
 90
      256
102
RTVSPost2010Prop51ColorRGB
 90
-16777216
102
RTVSPost2010PropOp51
 70
     0
102
RTVSPost2010Prop52
140
1.0
102
RTVSPost2010PropOp52
 70
     0
102
RTVSPost2010Prop53
 90
        2
102
RTVSPost2010PropOp53
 70
     1
102
RTVSPost2010Prop54
  1
strokes_ogs.tif
102
RTVSPost2010PropOp54
 70
     1
102
RTVSPost2010Prop55
280
     0
102
RTVSPost2010PropOp55
 70
     1
102
RTVSPost2010Prop56
140
1.0
102
RTVSPost2010PropOp56
 70
     1
102
RTVSPost2010Prop57
140
1.0
102
RTVSPost2010PropOp57
 70
     1
  0
XRECORD
  5
88750
102
{ACAD_REACTORS
330
87B3A
102
}
330
87B3A
100
AcDbXrecord
280
     1
102
RTVSPropertyOp0
 70
     0
102
RTVSPropertyOp1
 70
     0
102
RTVSPropertyOp2
 70
     0
102
RTVSPropertyOp3
 70
     0
102
RTVSPropertyOp4
 70
     0
102
RTVSPropertyOp5
 70
     0
102
RTVSPropertyOp6
 70
     0
102
RTVSPropertyOp7
 70
     0
102
RTVSPropertyOp8
 70
     0
102
RTVSPropertyOp9
 70
     0
102
RTVSPropertyOp10
 70
     0
102
RTVSPropertyOp11
 70
     0
102
RTVSPropertyOp12
 70
     0
102
RTVSPropertyOp13
 70
     0
102
RTVSPropertyOp14
 70
     2
102
RTVSPropertyOp15
 70
     0
102
RTVSPropertyOp16
 70
     0
102
RTVSPropertyOp17
 70
     0
102
RTVSPropertyOp18
 70
     0
102
RTVSPropertyOp19
 70
     0
102
RTVSPropertyOp20
 70
     0
102
RTVSPropertyOp21
 70
     0
102
RTVSPropertyOp22
 70
     0
102
RTVSPropertyOp23
 70
     0
102
RTVSPropertyOp24
 70
     0
102
RTVSPropertyOp25
 70
     0
102
RTVSPropertyOp26
 70
     0
102
RTVSPropertyOp27
 70
     0
102
RTVSPropertyOp28
 70
     1
102
RTVSPropertyOp29
 70
     1
102
RTVSPropertyOp30
 70
     1
102
RTVSPropertyOp31
 70
     1
102
RTVSPropertyOp32
 70
     1
102
RTVSPropertyOp33
 70
     1
102
RTVSPropertyOp34
 70
     1
102
RTVSPropertyOp35
 70
     1
102
RTVSPropertyOp36
 70
     1
102
RTVSPropertyOp37
 70
     0
102
RTVSPropertyOp38
 70
     0
102
RTVSPropertyOp39
 70
     0
102
RTVSPropertyOp40
 70
     0
102
RTVSPropertyOp41
 70
     0
102
RTVSPropertyOp42
 70
     0
102
RTVSPropertyOp43
 70
     0
102
RTVSPropertyOp44
 70
     0
102
RTVSPropertyOp45
 70
     1
102
RTVSPropertyOp46
 70
     0
102
RTVSPropertyOp47
 70
     0
102
RTVSPropertyOp48
 70
     0
102
RTVSPropertyOp49
 70
     1
102
RTVSPropertyOp50
 70
     0
102
RTVSPropertyOp51
 70
     0
102
RTVSPropertyOp52
 70
     0
102
RTVSPropertyOp53
 70
     0
102
RTVSPropertyOp54
 70
     0
102
RTVSPropertyOp55
 70
     1
102
RTVSPropertyOp56
 70
     0
102
RTVSPropertyOp57
 70
     0
102
RTVSPost2010Prop28
280
     0
102
RTVSPost2010PropOp28
 70
     1
102
RTVSPost2010Prop29
280
     1
102
RTVSPost2010PropOp29
 70
     1
102
RTVSPost2010Prop30
280
     1
102
RTVSPost2010PropOp30
 70
     1
102
RTVSPost2010Prop31
280
     0
102
RTVSPost2010PropOp31
 70
     1
102
RTVSPost2010Prop32
280
     0
102
RTVSPost2010PropOp32
 70
     1
102
RTVSPost2010Prop33
280
     0
102
RTVSPost2010PropOp33
 70
     1
102
RTVSPost2010Prop34
280
     0
102
RTVSPost2010PropOp34
 70
     1
102
RTVSPost2010Prop35
280
     0
102
RTVSPost2010PropOp35
 70
     1
102
RTVSPost2010Prop36
280
     0
102
RTVSPost2010PropOp36
 70
     1
102
RTVSPost2010Prop37
 90
       50
102
RTVSPost2010PropOp37
 70
     0
102
RTVSPost2010Prop38
140
0.0
102
RTVSPost2010PropOp38
 70
     0
102
RTVSPost2010Prop39
140
1.0
102
RTVSPost2010PropOp39
 70
     0
102
RTVSPost2010Prop40
 90
        0
102
RTVSPost2010PropOp40
 70
     0
102
RTVSPost2010Prop41ColorIndex
 90
       18
102
RTVSPost2010Prop41ColorRGB
 90
        0
102
RTVSPost2010PropOp41
 70
     0
102
RTVSPost2010Prop42
 90
       50
102
RTVSPost2010PropOp42
 70
     0
102
RTVSPost2010Prop43
 90
        3
102
RTVSPost2010PropOp43
 70
     0
102
RTVSPost2010Prop44ColorIndex
 90
        5
102
RTVSPost2010Prop44ColorRGB
 90
      255
102
RTVSPost2010PropOp44
 70
     0
102
RTVSPost2010Prop45
280
     0
102
RTVSPost2010PropOp45
 70
     1
102
RTVSPost2010Prop46
 90
       50
102
RTVSPost2010PropOp46
 70
     0
102
RTVSPost2010Prop47
 90
       50
102
RTVSPost2010PropOp47
 70
     0
102
RTVSPost2010Prop48
 90
       50
102
RTVSPost2010PropOp48
 70
     0
102
RTVSPost2010Prop49
280
     0
102
RTVSPost2010PropOp49
 70
     1
102
RTVSPost2010Prop50
 90
       50
102
RTVSPost2010PropOp50
 70
     0
102
RTVSPost2010Prop51ColorIndex
 90
      256
102
RTVSPost2010Prop51ColorRGB
 90
-16777216
102
RTVSPost2010PropOp51
 70
     0
102
RTVSPost2010Prop52
140
1.0
102
RTVSPost2010PropOp52
 70
     0
102
RTVSPost2010Prop53
 90
        2
102
RTVSPost2010PropOp53
 70
     0
102
RTVSPost2010Prop54
  1
strokes_ogs.tif
102
RTVSPost2010PropOp54
 70
     0
102
RTVSPost2010Prop55
280
     0
102
RTVSPost2010PropOp55
 70
     1
102
RTVSPost2010Prop56
140
1.0
102
RTVSPost2010PropOp56
 70
     0
102
RTVSPost2010Prop57
140
1.0
102
RTVSPost2010PropOp57
 70
     0
  0
XRECORD
  5
88751
102
{ACAD_REACTORS
330
87B20
102
}
330
87B20
100
AcDbXrecord
280
     1
102
RTVSPropertyOp0
 70
     1
102
RTVSPropertyOp1
 70
     1
102
RTVSPropertyOp2
 70
     1
102
RTVSPropertyOp3
 70
     1
102
RTVSPropertyOp4
 70
     1
102
RTVSPropertyOp5
 70
     1
102
RTVSPropertyOp6
 70
     1
102
RTVSPropertyOp7
 70
     1
102
RTVSPropertyOp8
 70
     1
102
RTVSPropertyOp9
 70
     1
102
RTVSPropertyOp10
 70
     1
102
RTVSPropertyOp11
 70
     1
102
RTVSPropertyOp12
 70
     1
102
RTVSPropertyOp13
 70
     1
102
RTVSPropertyOp14
 70
     1
102
RTVSPropertyOp15
 70
     1
102
RTVSPropertyOp16
 70
     1
102
RTVSPropertyOp17
 70
     1
102
RTVSPropertyOp18
 70
     1
102
RTVSPropertyOp19
 70
     1
102
RTVSPropertyOp20
 70
     1
102
RTVSPropertyOp21
 70
     1
102
RTVSPropertyOp22
 70
     1
102
RTVSPropertyOp23
 70
     1
102
RTVSPropertyOp24
 70
     1
102
RTVSPropertyOp25
 70
     1
102
RTVSPropertyOp26
 70
     1
102
RTVSPropertyOp27
 70
     1
102
RTVSPropertyOp28
 70
     1
102
RTVSPropertyOp29
 70
     1
102
RTVSPropertyOp30
 70
     1
102
RTVSPropertyOp31
 70
     1
102
RTVSPropertyOp32
 70
     1
102
RTVSPropertyOp33
 70
     1
102
RTVSPropertyOp34
 70
     1
102
RTVSPropertyOp35
 70
     1
102
RTVSPropertyOp36
 70
     1
102
RTVSPropertyOp37
 70
     1
102
RTVSPropertyOp38
 70
     1
102
RTVSPropertyOp39
 70
     1
102
RTVSPropertyOp40
 70
     1
102
RTVSPropertyOp41
 70
     1
102
RTVSPropertyOp42
 70
     1
102
RTVSPropertyOp43
 70
     1
102
RTVSPropertyOp44
 70
     1
102
RTVSPropertyOp45
 70
     1
102
RTVSPropertyOp46
 70
     1
102
RTVSPropertyOp47
 70
     1
102
RTVSPropertyOp48
 70
     1
102
RTVSPropertyOp49
 70
     1
102
RTVSPropertyOp50
 70
     1
102
RTVSPropertyOp51
 70
     0
102
RTVSPropertyOp52
 70
     0
102
RTVSPropertyOp53
 70
     1
102
RTVSPropertyOp54
 70
     1
102
RTVSPropertyOp55
 70
     1
102
RTVSPropertyOp56
 70
     1
102
RTVSPropertyOp57
 70
     1
102
RTVSPost2010Prop28
280
     0
102
RTVSPost2010PropOp28
 70
     1
102
RTVSPost2010Prop29
280
     1
102
RTVSPost2010PropOp29
 70
     1
102
RTVSPost2010Prop30
280
     1
102
RTVSPost2010PropOp30
 70
     1
102
RTVSPost2010Prop31
280
     0
102
RTVSPost2010PropOp31
 70
     1
102
RTVSPost2010Prop32
280
     0
102
RTVSPost2010PropOp32
 70
     1
102
RTVSPost2010Prop33
280
     0
102
RTVSPost2010PropOp33
 70
     1
102
RTVSPost2010Prop34
280
     0
102
RTVSPost2010PropOp34
 70
     1
102
RTVSPost2010Prop35
280
     0
102
RTVSPost2010PropOp35
 70
     1
102
RTVSPost2010Prop36
280
     0
102
RTVSPost2010PropOp36
 70
     1
102
RTVSPost2010Prop37
 90
       50
102
RTVSPost2010PropOp37
 70
     1
102
RTVSPost2010Prop38
140
0.0
102
RTVSPost2010PropOp38
 70
     1
102
RTVSPost2010Prop39
140
1.0
102
RTVSPost2010PropOp39
 70
     1
102
RTVSPost2010Prop40
 90
        0
102
RTVSPost2010PropOp40
 70
     1
102
RTVSPost2010Prop41ColorIndex
 90
       18
102
RTVSPost2010Prop41ColorRGB
 90
        0
102
RTVSPost2010PropOp41
 70
     1
102
RTVSPost2010Prop42
 90
       50
102
RTVSPost2010PropOp42
 70
     1
102
RTVSPost2010Prop43
 90
        3
102
RTVSPost2010PropOp43
 70
     1
102
RTVSPost2010Prop44ColorIndex
 90
        5
102
RTVSPost2010Prop44ColorRGB
 90
      255
102
RTVSPost2010PropOp44
 70
     1
102
RTVSPost2010Prop45
280
     0
102
RTVSPost2010PropOp45
 70
     1
102
RTVSPost2010Prop46
 90
       50
102
RTVSPost2010PropOp46
 70
     1
102
RTVSPost2010Prop47
 90
       50
102
RTVSPost2010PropOp47
 70
     1
102
RTVSPost2010Prop48
 90
       50
102
RTVSPost2010PropOp48
 70
     1
102
RTVSPost2010Prop49
280
     0
102
RTVSPost2010PropOp49
 70
     1
102
RTVSPost2010Prop50
 90
       50
102
RTVSPost2010PropOp50
 70
     1
102
RTVSPost2010Prop51ColorIndex
 90
      256
102
RTVSPost2010Prop51ColorRGB
 90
-16777216
102
RTVSPost2010PropOp51
 70
     0
102
RTVSPost2010Prop52
140
1.0
102
RTVSPost2010PropOp52
 70
     0
102
RTVSPost2010Prop53
 90
        2
102
RTVSPost2010PropOp53
 70
     1
102
RTVSPost2010Prop54
  1
strokes_ogs.tif
102
RTVSPost2010PropOp54
 70
     1
102
RTVSPost2010Prop55
280
     0
102
RTVSPost2010PropOp55
 70
     1
102
RTVSPost2010Prop56
140
1.0
102
RTVSPost2010PropOp56
 70
     1
102
RTVSPost2010Prop57
140
1.0
102
RTVSPost2010PropOp57
 70
     1
  0
XRECORD
  5
88752
102
{ACAD_REACTORS
330
87B36
102
}
330
87B36
100
AcDbXrecord
280
     1
102
RTVSPropertyOp0
 70
     1
102
RTVSPropertyOp1
 70
     1
102
RTVSPropertyOp2
 70
     1
102
RTVSPropertyOp3
 70
     1
102
RTVSPropertyOp4
 70
     1
102
RTVSPropertyOp5
 70
     1
102
RTVSPropertyOp6
 70
     1
102
RTVSPropertyOp7
 70
     1
102
RTVSPropertyOp8
 70
     1
102
RTVSPropertyOp9
 70
     1
102
RTVSPropertyOp10
 70
     1
102
RTVSPropertyOp11
 70
     1
102
RTVSPropertyOp12
 70
     1
102
RTVSPropertyOp13
 70
     1
102
RTVSPropertyOp14
 70
     1
102
RTVSPropertyOp15
 70
     1
102
RTVSPropertyOp16
 70
     1
102
RTVSPropertyOp17
 70
     1
102
RTVSPropertyOp18
 70
     1
102
RTVSPropertyOp19
 70
     1
102
RTVSPropertyOp20
 70
     1
102
RTVSPropertyOp21
 70
     1
102
RTVSPropertyOp22
 70
     1
102
RTVSPropertyOp23
 70
     1
102
RTVSPropertyOp24
 70
     1
102
RTVSPropertyOp25
 70
     1
102
RTVSPropertyOp26
 70
     1
102
RTVSPropertyOp27
 70
     1
102
RTVSPropertyOp28
 70
     1
102
RTVSPropertyOp29
 70
     1
102
RTVSPropertyOp30
 70
     1
102
RTVSPropertyOp31
 70
     1
102
RTVSPropertyOp32
 70
     1
102
RTVSPropertyOp33
 70
     1
102
RTVSPropertyOp34
 70
     1
102
RTVSPropertyOp35
 70
     1
102
RTVSPropertyOp36
 70
     1
102
RTVSPropertyOp37
 70
     1
102
RTVSPropertyOp38
 70
     1
102
RTVSPropertyOp39
 70
     1
102
RTVSPropertyOp40
 70
     1
102
RTVSPropertyOp41
 70
     1
102
RTVSPropertyOp42
 70
     1
102
RTVSPropertyOp43
 70
     1
102
RTVSPropertyOp44
 70
     1
102
RTVSPropertyOp45
 70
     1
102
RTVSPropertyOp46
 70
     1
102
RTVSPropertyOp47
 70
     1
102
RTVSPropertyOp48
 70
     1
102
RTVSPropertyOp49
 70
     1
102
RTVSPropertyOp50
 70
     1
102
RTVSPropertyOp51
 70
     0
102
RTVSPropertyOp52
 70
     0
102
RTVSPropertyOp53
 70
     1
102
RTVSPropertyOp54
 70
     1
102
RTVSPropertyOp55
 70
     1
102
RTVSPropertyOp56
 70
     1
102
RTVSPropertyOp57
 70
     1
102
RTVSPost2010Prop28
280
     0
102
RTVSPost2010PropOp28
 70
     1
102
RTVSPost2010Prop29
280
     1
102
RTVSPost2010PropOp29
 70
     1
102
RTVSPost2010Prop30
280
     1
102
RTVSPost2010PropOp30
 70
     1
102
RTVSPost2010Prop31
280
     0
102
RTVSPost2010PropOp31
 70
     1
102
RTVSPost2010Prop32
280
     0
102
RTVSPost2010PropOp32
 70
     1
102
RTVSPost2010Prop33
280
     0
102
RTVSPost2010PropOp33
 70
     1
102
RTVSPost2010Prop34
280
     0
102
RTVSPost2010PropOp34
 70
     1
102
RTVSPost2010Prop35
280
     0
102
RTVSPost2010PropOp35
 70
     1
102
RTVSPost2010Prop36
280
     0
102
RTVSPost2010PropOp36
 70
     1
102
RTVSPost2010Prop37
 90
       50
102
RTVSPost2010PropOp37
 70
     1
102
RTVSPost2010Prop38
140
0.0
102
RTVSPost2010PropOp38
 70
     1
102
RTVSPost2010Prop39
140
1.0
102
RTVSPost2010PropOp39
 70
     1
102
RTVSPost2010Prop40
 90
        0
102
RTVSPost2010PropOp40
 70
     1
102
RTVSPost2010Prop41ColorIndex
 90
       18
102
RTVSPost2010Prop41ColorRGB
 90
        0
102
RTVSPost2010PropOp41
 70
     1
102
RTVSPost2010Prop42
 90
       50
102
RTVSPost2010PropOp42
 70
     1
102
RTVSPost2010Prop43
 90
        3
102
RTVSPost2010PropOp43
 70
     1
102
RTVSPost2010Prop44ColorIndex
 90
        5
102
RTVSPost2010Prop44ColorRGB
 90
      255
102
RTVSPost2010PropOp44
 70
     1
102
RTVSPost2010Prop45
280
     0
102
RTVSPost2010PropOp45
 70
     1
102
RTVSPost2010Prop46
 90
       50
102
RTVSPost2010PropOp46
 70
     1
102
RTVSPost2010Prop47
 90
       50
102
RTVSPost2010PropOp47
 70
     1
102
RTVSPost2010Prop48
 90
       50
102
RTVSPost2010PropOp48
 70
     1
102
RTVSPost2010Prop49
280
     0
102
RTVSPost2010PropOp49
 70
     1
102
RTVSPost2010Prop50
 90
       50
102
RTVSPost2010PropOp50
 70
     1
102
RTVSPost2010Prop51ColorIndex
 90
      256
102
RTVSPost2010Prop51ColorRGB
 90
-16777216
102
RTVSPost2010PropOp51
 70
     0
102
RTVSPost2010Prop52
140
1.0
102
RTVSPost2010PropOp52
 70
     0
102
RTVSPost2010Prop53
 90
        2
102
RTVSPost2010PropOp53
 70
     1
102
RTVSPost2010Prop54
  1
strokes_ogs.tif
102
RTVSPost2010PropOp54
 70
     1
102
RTVSPost2010Prop55
280
     0
102
RTVSPost2010PropOp55
 70
     1
102
RTVSPost2010Prop56
140
1.0
102
RTVSPost2010PropOp56
 70
     1
102
RTVSPost2010Prop57
140
1.0
102
RTVSPost2010PropOp57
 70
     1
  0
XRECORD
  5
88753
102
{ACAD_REACTORS
330
87B34
102
}
330
87B34
100
AcDbXrecord
280
     1
102
RTVSPropertyOp0
 70
     1
102
RTVSPropertyOp1
 70
     1
102
RTVSPropertyOp2
 70
     1
102
RTVSPropertyOp3
 70
     1
102
RTVSPropertyOp4
 70
     1
102
RTVSPropertyOp5
 70
     1
102
RTVSPropertyOp6
 70
     1
102
RTVSPropertyOp7
 70
     1
102
RTVSPropertyOp8
 70
     1
102
RTVSPropertyOp9
 70
     1
102
RTVSPropertyOp10
 70
     1
102
RTVSPropertyOp11
 70
     1
102
RTVSPropertyOp12
 70
     1
102
RTVSPropertyOp13
 70
     1
102
RTVSPropertyOp14
 70
     1
102
RTVSPropertyOp15
 70
     1
102
RTVSPropertyOp16
 70
     1
102
RTVSPropertyOp17
 70
     1
102
RTVSPropertyOp18
 70
     1
102
RTVSPropertyOp19
 70
     1
102
RTVSPropertyOp20
 70
     1
102
RTVSPropertyOp21
 70
     1
102
RTVSPropertyOp22
 70
     1
102
RTVSPropertyOp23
 70
     1
102
RTVSPropertyOp24
 70
     1
102
RTVSPropertyOp25
 70
     1
102
RTVSPropertyOp26
 70
     1
102
RTVSPropertyOp27
 70
     1
102
RTVSPropertyOp28
 70
     1
102
RTVSPropertyOp29
 70
     1
102
RTVSPropertyOp30
 70
     1
102
RTVSPropertyOp31
 70
     1
102
RTVSPropertyOp32
 70
     1
102
RTVSPropertyOp33
 70
     1
102
RTVSPropertyOp34
 70
     1
102
RTVSPropertyOp35
 70
     1
102
RTVSPropertyOp36
 70
     1
102
RTVSPropertyOp37
 70
     1
102
RTVSPropertyOp38
 70
     1
102
RTVSPropertyOp39
 70
     1
102
RTVSPropertyOp40
 70
     1
102
RTVSPropertyOp41
 70
     1
102
RTVSPropertyOp42
 70
     1
102
RTVSPropertyOp43
 70
     1
102
RTVSPropertyOp44
 70
     1
102
RTVSPropertyOp45
 70
     1
102
RTVSPropertyOp46
 70
     1
102
RTVSPropertyOp47
 70
     1
102
RTVSPropertyOp48
 70
     1
102
RTVSPropertyOp49
 70
     1
102
RTVSPropertyOp50
 70
     1
102
RTVSPropertyOp51
 70
     0
102
RTVSPropertyOp52
 70
     0
102
RTVSPropertyOp53
 70
     1
102
RTVSPropertyOp54
 70
     1
102
RTVSPropertyOp55
 70
     1
102
RTVSPropertyOp56
 70
     1
102
RTVSPropertyOp57
 70
     1
102
RTVSPost2010Prop28
280
     0
102
RTVSPost2010PropOp28
 70
     1
102
RTVSPost2010Prop29
280
     1
102
RTVSPost2010PropOp29
 70
     1
102
RTVSPost2010Prop30
280
     1
102
RTVSPost2010PropOp30
 70
     1
102
RTVSPost2010Prop31
280
     0
102
RTVSPost2010PropOp31
 70
     1
102
RTVSPost2010Prop32
280
     0
102
RTVSPost2010PropOp32
 70
     1
102
RTVSPost2010Prop33
280
     0
102
RTVSPost2010PropOp33
 70
     1
102
RTVSPost2010Prop34
280
     0
102
RTVSPost2010PropOp34
 70
     1
102
RTVSPost2010Prop35
280
     0
102
RTVSPost2010PropOp35
 70
     1
102
RTVSPost2010Prop36
280
     0
102
RTVSPost2010PropOp36
 70
     1
102
RTVSPost2010Prop37
 90
       50
102
RTVSPost2010PropOp37
 70
     1
102
RTVSPost2010Prop38
140
0.0
102
RTVSPost2010PropOp38
 70
     1
102
RTVSPost2010Prop39
140
1.0
102
RTVSPost2010PropOp39
 70
     1
102
RTVSPost2010Prop40
 90
        0
102
RTVSPost2010PropOp40
 70
     1
102
RTVSPost2010Prop41ColorIndex
 90
       18
102
RTVSPost2010Prop41ColorRGB
 90
        0
102
RTVSPost2010PropOp41
 70
     1
102
RTVSPost2010Prop42
 90
       50
102
RTVSPost2010PropOp42
 70
     1
102
RTVSPost2010Prop43
 90
        3
102
RTVSPost2010PropOp43
 70
     1
102
RTVSPost2010Prop44ColorIndex
 90
        5
102
RTVSPost2010Prop44ColorRGB
 90
      255
102
RTVSPost2010PropOp44
 70
     1
102
RTVSPost2010Prop45
280
     0
102
RTVSPost2010PropOp45
 70
     1
102
RTVSPost2010Prop46
 90
       50
102
RTVSPost2010PropOp46
 70
     1
102
RTVSPost2010Prop47
 90
       50
102
RTVSPost2010PropOp47
 70
     1
102
RTVSPost2010Prop48
 90
       50
102
RTVSPost2010PropOp48
 70
     1
102
RTVSPost2010Prop49
280
     0
102
RTVSPost2010PropOp49
 70
     1
102
RTVSPost2010Prop50
 90
       50
102
RTVSPost2010PropOp50
 70
     1
102
RTVSPost2010Prop51ColorIndex
 90
      256
102
RTVSPost2010Prop51ColorRGB
 90
-16777216
102
RTVSPost2010PropOp51
 70
     0
102
RTVSPost2010Prop52
140
1.0
102
RTVSPost2010PropOp52
 70
     0
102
RTVSPost2010Prop53
 90
        2
102
RTVSPost2010PropOp53
 70
     1
102
RTVSPost2010Prop54
  1
strokes_ogs.tif
102
RTVSPost2010PropOp54
 70
     1
102
RTVSPost2010Prop55
280
     0
102
RTVSPost2010PropOp55
 70
     1
102
RTVSPost2010Prop56
140
1.0
102
RTVSPost2010PropOp56
 70
     1
102
RTVSPost2010Prop57
140
1.0
102
RTVSPost2010PropOp57
 70
     1
  0
XRECORD
  5
88754
102
{ACAD_REACTORS
330
87B2E
102
}
330
87B2E
100
AcDbXrecord
280
     1
102
RTVSPropertyOp0
 70
     1
102
RTVSPropertyOp1
 70
     1
102
RTVSPropertyOp2
 70
     1
102
RTVSPropertyOp3
 70
     1
102
RTVSPropertyOp4
 70
     1
102
RTVSPropertyOp5
 70
     1
102
RTVSPropertyOp6
 70
     1
102
RTVSPropertyOp7
 70
     1
102
RTVSPropertyOp8
 70
     1
102
RTVSPropertyOp9
 70
     1
102
RTVSPropertyOp10
 70
     1
102
RTVSPropertyOp11
 70
     1
102
RTVSPropertyOp12
 70
     1
102
RTVSPropertyOp13
 70
     1
102
RTVSPropertyOp14
 70
     1
102
RTVSPropertyOp15
 70
     1
102
RTVSPropertyOp16
 70
     1
102
RTVSPropertyOp17
 70
     1
102
RTVSPropertyOp18
 70
     1
102
RTVSPropertyOp19
 70
     1
102
RTVSPropertyOp20
 70
     1
102
RTVSPropertyOp21
 70
     1
102
RTVSPropertyOp22
 70
     1
102
RTVSPropertyOp23
 70
     1
102
RTVSPropertyOp24
 70
     1
102
RTVSPropertyOp25
 70
     1
102
RTVSPropertyOp26
 70
     1
102
RTVSPropertyOp27
 70
     1
102
RTVSPropertyOp28
 70
     1
102
RTVSPropertyOp29
 70
     1
102
RTVSPropertyOp30
 70
     1
102
RTVSPropertyOp31
 70
     1
102
RTVSPropertyOp32
 70
     1
102
RTVSPropertyOp33
 70
     1
102
RTVSPropertyOp34
 70
     1
102
RTVSPropertyOp35
 70
     1
102
RTVSPropertyOp36
 70
     1
102
RTVSPropertyOp37
 70
     1
102
RTVSPropertyOp38
 70
     1
102
RTVSPropertyOp39
 70
     1
102
RTVSPropertyOp40
 70
     1
102
RTVSPropertyOp41
 70
     1
102
RTVSPropertyOp42
 70
     1
102
RTVSPropertyOp43
 70
     1
102
RTVSPropertyOp44
 70
     1
102
RTVSPropertyOp45
 70
     1
102
RTVSPropertyOp46
 70
     1
102
RTVSPropertyOp47
 70
     1
102
RTVSPropertyOp48
 70
     1
102
RTVSPropertyOp49
 70
     1
102
RTVSPropertyOp50
 70
     1
102
RTVSPropertyOp51
 70
     0
102
RTVSPropertyOp52
 70
     0
102
RTVSPropertyOp53
 70
     1
102
RTVSPropertyOp54
 70
     1
102
RTVSPropertyOp55
 70
     1
102
RTVSPropertyOp56
 70
     1
102
RTVSPropertyOp57
 70
     1
102
RTVSPost2010Prop28
280
     0
102
RTVSPost2010PropOp28
 70
     1
102
RTVSPost2010Prop29
280
     1
102
RTVSPost2010PropOp29
 70
     1
102
RTVSPost2010Prop30
280
     1
102
RTVSPost2010PropOp30
 70
     1
102
RTVSPost2010Prop31
280
     0
102
RTVSPost2010PropOp31
 70
     1
102
RTVSPost2010Prop32
280
     0
102
RTVSPost2010PropOp32
 70
     1
102
RTVSPost2010Prop33
280
     0
102
RTVSPost2010PropOp33
 70
     1
102
RTVSPost2010Prop34
280
     0
102
RTVSPost2010PropOp34
 70
     1
102
RTVSPost2010Prop35
280
     0
102
RTVSPost2010PropOp35
 70
     1
102
RTVSPost2010Prop36
280
     0
102
RTVSPost2010PropOp36
 70
     1
102
RTVSPost2010Prop37
 90
       50
102
RTVSPost2010PropOp37
 70
     1
102
RTVSPost2010Prop38
140
0.0
102
RTVSPost2010PropOp38
 70
     1
102
RTVSPost2010Prop39
140
1.0
102
RTVSPost2010PropOp39
 70
     1
102
RTVSPost2010Prop40
 90
        0
102
RTVSPost2010PropOp40
 70
     1
102
RTVSPost2010Prop41ColorIndex
 90
       18
102
RTVSPost2010Prop41ColorRGB
 90
        0
102
RTVSPost2010PropOp41
 70
     1
102
RTVSPost2010Prop42
 90
       50
102
RTVSPost2010PropOp42
 70
     1
102
RTVSPost2010Prop43
 90
        3
102
RTVSPost2010PropOp43
 70
     1
102
RTVSPost2010Prop44ColorIndex
 90
        5
102
RTVSPost2010Prop44ColorRGB
 90
      255
102
RTVSPost2010PropOp44
 70
     1
102
RTVSPost2010Prop45
280
     0
102
RTVSPost2010PropOp45
 70
     1
102
RTVSPost2010Prop46
 90
       50
102
RTVSPost2010PropOp46
 70
     1
102
RTVSPost2010Prop47
 90
       50
102
RTVSPost2010PropOp47
 70
     1
102
RTVSPost2010Prop48
 90
       50
102
RTVSPost2010PropOp48
 70
     1
102
RTVSPost2010Prop49
280
     0
102
RTVSPost2010PropOp49
 70
     1
102
RTVSPost2010Prop50
 90
       50
102
RTVSPost2010PropOp50
 70
     1
102
RTVSPost2010Prop51ColorIndex
 90
      256
102
RTVSPost2010Prop51ColorRGB
 90
-16777216
102
RTVSPost2010PropOp51
 70
     0
102
RTVSPost2010Prop52
140
1.0
102
RTVSPost2010PropOp52
 70
     0
102
RTVSPost2010Prop53
 90
        2
102
RTVSPost2010PropOp53
 70
     1
102
RTVSPost2010Prop54
  1
strokes_ogs.tif
102
RTVSPost2010PropOp54
 70
     1
102
RTVSPost2010Prop55
280
     0
102
RTVSPost2010PropOp55
 70
     1
102
RTVSPost2010Prop56
140
1.0
102
RTVSPost2010PropOp56
 70
     1
102
RTVSPost2010Prop57
140
1.0
102
RTVSPost2010PropOp57
 70
     1
  0
XRECORD
  5
88755
102
{ACAD_REACTORS
330
87B30
102
}
330
87B30
100
AcDbXrecord
280
     1
102
RTVSPropertyOp0
 70
     1
102
RTVSPropertyOp1
 70
     1
102
RTVSPropertyOp2
 70
     1
102
RTVSPropertyOp3
 70
     1
102
RTVSPropertyOp4
 70
     1
102
RTVSPropertyOp5
 70
     1
102
RTVSPropertyOp6
 70
     1
102
RTVSPropertyOp7
 70
     1
102
RTVSPropertyOp8
 70
     1
102
RTVSPropertyOp9
 70
     1
102
RTVSPropertyOp10
 70
     1
102
RTVSPropertyOp11
 70
     1
102
RTVSPropertyOp12
 70
     1
102
RTVSPropertyOp13
 70
     1
102
RTVSPropertyOp14
 70
     1
102
RTVSPropertyOp15
 70
     1
102
RTVSPropertyOp16
 70
     1
102
RTVSPropertyOp17
 70
     1
102
RTVSPropertyOp18
 70
     1
102
RTVSPropertyOp19
 70
     1
102
RTVSPropertyOp20
 70
     1
102
RTVSPropertyOp21
 70
     1
102
RTVSPropertyOp22
 70
     1
102
RTVSPropertyOp23
 70
     1
102
RTVSPropertyOp24
 70
     1
102
RTVSPropertyOp25
 70
     1
102
RTVSPropertyOp26
 70
     1
102
RTVSPropertyOp27
 70
     1
102
RTVSPropertyOp28
 70
     1
102
RTVSPropertyOp29
 70
     1
102
RTVSPropertyOp30
 70
     1
102
RTVSPropertyOp31
 70
     1
102
RTVSPropertyOp32
 70
     1
102
RTVSPropertyOp33
 70
     1
102
RTVSPropertyOp34
 70
     1
102
RTVSPropertyOp35
 70
     1
102
RTVSPropertyOp36
 70
     1
102
RTVSPropertyOp37
 70
     1
102
RTVSPropertyOp38
 70
     1
102
RTVSPropertyOp39
 70
     1
102
RTVSPropertyOp40
 70
     1
102
RTVSPropertyOp41
 70
     1
102
RTVSPropertyOp42
 70
     1
102
RTVSPropertyOp43
 70
     1
102
RTVSPropertyOp44
 70
     1
102
RTVSPropertyOp45
 70
     1
102
RTVSPropertyOp46
 70
     1
102
RTVSPropertyOp47
 70
     1
102
RTVSPropertyOp48
 70
     1
102
RTVSPropertyOp49
 70
     1
102
RTVSPropertyOp50
 70
     1
102
RTVSPropertyOp51
 70
     0
102
RTVSPropertyOp52
 70
     0
102
RTVSPropertyOp53
 70
     1
102
RTVSPropertyOp54
 70
     1
102
RTVSPropertyOp55
 70
     1
102
RTVSPropertyOp56
 70
     1
102
RTVSPropertyOp57
 70
     1
102
RTVSPost2010Prop28
280
     0
102
RTVSPost2010PropOp28
 70
     1
102
RTVSPost2010Prop29
280
     1
102
RTVSPost2010PropOp29
 70
     1
102
RTVSPost2010Prop30
280
     1
102
RTVSPost2010PropOp30
 70
     1
102
RTVSPost2010Prop31
280
     0
102
RTVSPost2010PropOp31
 70
     1
102
RTVSPost2010Prop32
280
     0
102
RTVSPost2010PropOp32
 70
     1
102
RTVSPost2010Prop33
280
     0
102
RTVSPost2010PropOp33
 70
     1
102
RTVSPost2010Prop34
280
     0
102
RTVSPost2010PropOp34
 70
     1
102
RTVSPost2010Prop35
280
     0
102
RTVSPost2010PropOp35
 70
     1
102
RTVSPost2010Prop36
280
     0
102
RTVSPost2010PropOp36
 70
     1
102
RTVSPost2010Prop37
 90
       50
102
RTVSPost2010PropOp37
 70
     1
102
RTVSPost2010Prop38
140
0.0
102
RTVSPost2010PropOp38
 70
     1
102
RTVSPost2010Prop39
140
1.0
102
RTVSPost2010PropOp39
 70
     1
102
RTVSPost2010Prop40
 90
        0
102
RTVSPost2010PropOp40
 70
     1
102
RTVSPost2010Prop41ColorIndex
 90
       18
102
RTVSPost2010Prop41ColorRGB
 90
        0
102
RTVSPost2010PropOp41
 70
     1
102
RTVSPost2010Prop42
 90
       50
102
RTVSPost2010PropOp42
 70
     1
102
RTVSPost2010Prop43
 90
        3
102
RTVSPost2010PropOp43
 70
     1
102
RTVSPost2010Prop44ColorIndex
 90
        5
102
RTVSPost2010Prop44ColorRGB
 90
      255
102
RTVSPost2010PropOp44
 70
     1
102
RTVSPost2010Prop45
280
     0
102
RTVSPost2010PropOp45
 70
     1
102
RTVSPost2010Prop46
 90
       50
102
RTVSPost2010PropOp46
 70
     1
102
RTVSPost2010Prop47
 90
       50
102
RTVSPost2010PropOp47
 70
     1
102
RTVSPost2010Prop48
 90
       50
102
RTVSPost2010PropOp48
 70
     1
102
RTVSPost2010Prop49
280
     0
102
RTVSPost2010PropOp49
 70
     1
102
RTVSPost2010Prop50
 90
       50
102
RTVSPost2010PropOp50
 70
     1
102
RTVSPost2010Prop51ColorIndex
 90
      256
102
RTVSPost2010Prop51ColorRGB
 90
-16777216
102
RTVSPost2010PropOp51
 70
     0
102
RTVSPost2010Prop52
140
1.0
102
RTVSPost2010PropOp52
 70
     0
102
RTVSPost2010Prop53
 90
        2
102
RTVSPost2010PropOp53
 70
     1
102
RTVSPost2010Prop54
  1
strokes_ogs.tif
102
RTVSPost2010PropOp54
 70
     1
102
RTVSPost2010Prop55
280
     0
102
RTVSPost2010PropOp55
 70
     1
102
RTVSPost2010Prop56
140
1.0
102
RTVSPost2010PropOp56
 70
     1
102
RTVSPost2010Prop57
140
1.0
102
RTVSPost2010PropOp57
 70
     1
  0
XRECORD
  5
88756
102
{ACAD_REACTORS
330
87B26
102
}
330
87B26
100
AcDbXrecord
280
     1
102
RTVSPropertyOp0
 70
     1
102
RTVSPropertyOp1
 70
     1
102
RTVSPropertyOp2
 70
     1
102
RTVSPropertyOp3
 70
     1
102
RTVSPropertyOp4
 70
     1
102
RTVSPropertyOp5
 70
     1
102
RTVSPropertyOp6
 70
     1
102
RTVSPropertyOp7
 70
     1
102
RTVSPropertyOp8
 70
     1
102
RTVSPropertyOp9
 70
     1
102
RTVSPropertyOp10
 70
     1
102
RTVSPropertyOp11
 70
     1
102
RTVSPropertyOp12
 70
     1
102
RTVSPropertyOp13
 70
     1
102
RTVSPropertyOp14
 70
     1
102
RTVSPropertyOp15
 70
     1
102
RTVSPropertyOp16
 70
     1
102
RTVSPropertyOp17
 70
     1
102
RTVSPropertyOp18
 70
     1
102
RTVSPropertyOp19
 70
     1
102
RTVSPropertyOp20
 70
     1
102
RTVSPropertyOp21
 70
     1
102
RTVSPropertyOp22
 70
     1
102
RTVSPropertyOp23
 70
     1
102
RTVSPropertyOp24
 70
     1
102
RTVSPropertyOp25
 70
     1
102
RTVSPropertyOp26
 70
     1
102
RTVSPropertyOp27
 70
     1
102
RTVSPropertyOp28
 70
     1
102
RTVSPropertyOp29
 70
     1
102
RTVSPropertyOp30
 70
     1
102
RTVSPropertyOp31
 70
     1
102
RTVSPropertyOp32
 70
     1
102
RTVSPropertyOp33
 70
     1
102
RTVSPropertyOp34
 70
     1
102
RTVSPropertyOp35
 70
     1
102
RTVSPropertyOp36
 70
     1
102
RTVSPropertyOp37
 70
     1
102
RTVSPropertyOp38
 70
     1
102
RTVSPropertyOp39
 70
     1
102
RTVSPropertyOp40
 70
     1
102
RTVSPropertyOp41
 70
     1
102
RTVSPropertyOp42
 70
     1
102
RTVSPropertyOp43
 70
     1
102
RTVSPropertyOp44
 70
     1
102
RTVSPropertyOp45
 70
     1
102
RTVSPropertyOp46
 70
     1
102
RTVSPropertyOp47
 70
     1
102
RTVSPropertyOp48
 70
     1
102
RTVSPropertyOp49
 70
     1
102
RTVSPropertyOp50
 70
     1
102
RTVSPropertyOp51
 70
     0
102
RTVSPropertyOp52
 70
     0
102
RTVSPropertyOp53
 70
     1
102
RTVSPropertyOp54
 70
     1
102
RTVSPropertyOp55
 70
     1
102
RTVSPropertyOp56
 70
     1
102
RTVSPropertyOp57
 70
     1
102
RTVSPost2010Prop28
280
     0
102
RTVSPost2010PropOp28
 70
     1
102
RTVSPost2010Prop29
280
     1
102
RTVSPost2010PropOp29
 70
     1
102
RTVSPost2010Prop30
280
     1
102
RTVSPost2010PropOp30
 70
     1
102
RTVSPost2010Prop31
280
     0
102
RTVSPost2010PropOp31
 70
     1
102
RTVSPost2010Prop32
280
     0
102
RTVSPost2010PropOp32
 70
     1
102
RTVSPost2010Prop33
280
     0
102
RTVSPost2010PropOp33
 70
     1
102
RTVSPost2010Prop34
280
     0
102
RTVSPost2010PropOp34
 70
     1
102
RTVSPost2010Prop35
280
     0
102
RTVSPost2010PropOp35
 70
     1
102
RTVSPost2010Prop36
280
     0
102
RTVSPost2010PropOp36
 70
     1
102
RTVSPost2010Prop37
 90
       50
102
RTVSPost2010PropOp37
 70
     1
102
RTVSPost2010Prop38
140
0.0
102
RTVSPost2010PropOp38
 70
     1
102
RTVSPost2010Prop39
140
1.0
102
RTVSPost2010PropOp39
 70
     1
102
RTVSPost2010Prop40
 90
        0
102
RTVSPost2010PropOp40
 70
     1
102
RTVSPost2010Prop41ColorIndex
 90
       18
102
RTVSPost2010Prop41ColorRGB
 90
        0
102
RTVSPost2010PropOp41
 70
     1
102
RTVSPost2010Prop42
 90
       50
102
RTVSPost2010PropOp42
 70
     1
102
RTVSPost2010Prop43
 90
        3
102
RTVSPost2010PropOp43
 70
     1
102
RTVSPost2010Prop44ColorIndex
 90
        5
102
RTVSPost2010Prop44ColorRGB
 90
      255
102
RTVSPost2010PropOp44
 70
     1
102
RTVSPost2010Prop45
280
     0
102
RTVSPost2010PropOp45
 70
     1
102
RTVSPost2010Prop46
 90
       50
102
RTVSPost2010PropOp46
 70
     1
102
RTVSPost2010Prop47
 90
       50
102
RTVSPost2010PropOp47
 70
     1
102
RTVSPost2010Prop48
 90
       50
102
RTVSPost2010PropOp48
 70
     1
102
RTVSPost2010Prop49
280
     0
102
RTVSPost2010PropOp49
 70
     1
102
RTVSPost2010Prop50
 90
       50
102
RTVSPost2010PropOp50
 70
     1
102
RTVSPost2010Prop51ColorIndex
 90
      256
102
RTVSPost2010Prop51ColorRGB
 90
-16777216
102
RTVSPost2010PropOp51
 70
     0
102
RTVSPost2010Prop52
140
1.0
102
RTVSPost2010PropOp52
 70
     0
102
RTVSPost2010Prop53
 90
        2
102
RTVSPost2010PropOp53
 70
     1
102
RTVSPost2010Prop54
  1
strokes_ogs.tif
102
RTVSPost2010PropOp54
 70
     1
102
RTVSPost2010Prop55
280
     0
102
RTVSPost2010PropOp55
 70
     1
102
RTVSPost2010Prop56
140
1.0
102
RTVSPost2010PropOp56
 70
     1
102
RTVSPost2010Prop57
140
1.0
102
RTVSPost2010PropOp57
 70
     1
  0
XRECORD
  5
88757
102
{ACAD_REACTORS
330
87B1A
102
}
330
87B1A
100
AcDbXrecord
280
     1
102
RTVSPropertyOp0
 70
     1
102
RTVSPropertyOp1
 70
     1
102
RTVSPropertyOp2
 70
     1
102
RTVSPropertyOp3
 70
     1
102
RTVSPropertyOp4
 70
     1
102
RTVSPropertyOp5
 70
     1
102
RTVSPropertyOp6
 70
     1
102
RTVSPropertyOp7
 70
     1
102
RTVSPropertyOp8
 70
     1
102
RTVSPropertyOp9
 70
     1
102
RTVSPropertyOp10
 70
     1
102
RTVSPropertyOp11
 70
     1
102
RTVSPropertyOp12
 70
     1
102
RTVSPropertyOp13
 70
     1
102
RTVSPropertyOp14
 70
     1
102
RTVSPropertyOp15
 70
     1
102
RTVSPropertyOp16
 70
     1
102
RTVSPropertyOp17
 70
     1
102
RTVSPropertyOp18
 70
     1
102
RTVSPropertyOp19
 70
     1
102
RTVSPropertyOp20
 70
     1
102
RTVSPropertyOp21
 70
     1
102
RTVSPropertyOp22
 70
     1
102
RTVSPropertyOp23
 70
     1
102
RTVSPropertyOp24
 70
     1
102
RTVSPropertyOp25
 70
     1
102
RTVSPropertyOp26
 70
     1
102
RTVSPropertyOp27
 70
     1
102
RTVSPropertyOp28
 70
     1
102
RTVSPropertyOp29
 70
     1
102
RTVSPropertyOp30
 70
     1
102
RTVSPropertyOp31
 70
     1
102
RTVSPropertyOp32
 70
     1
102
RTVSPropertyOp33
 70
     1
102
RTVSPropertyOp34
 70
     1
102
RTVSPropertyOp35
 70
     1
102
RTVSPropertyOp36
 70
     1
102
RTVSPropertyOp37
 70
     1
102
RTVSPropertyOp38
 70
     1
102
RTVSPropertyOp39
 70
     1
102
RTVSPropertyOp40
 70
     1
102
RTVSPropertyOp41
 70
     1
102
RTVSPropertyOp42
 70
     1
102
RTVSPropertyOp43
 70
     1
102
RTVSPropertyOp44
 70
     1
102
RTVSPropertyOp45
 70
     1
102
RTVSPropertyOp46
 70
     1
102
RTVSPropertyOp47
 70
     1
102
RTVSPropertyOp48
 70
     1
102
RTVSPropertyOp49
 70
     1
102
RTVSPropertyOp50
 70
     1
102
RTVSPropertyOp51
 70
     0
102
RTVSPropertyOp52
 70
     0
102
RTVSPropertyOp53
 70
     1
102
RTVSPropertyOp54
 70
     1
102
RTVSPropertyOp55
 70
     1
102
RTVSPropertyOp56
 70
     1
102
RTVSPropertyOp57
 70
     1
102
RTVSPost2010Prop28
280
     0
102
RTVSPost2010PropOp28
 70
     1
102
RTVSPost2010Prop29
280
     1
102
RTVSPost2010PropOp29
 70
     1
102
RTVSPost2010Prop30
280
     1
102
RTVSPost2010PropOp30
 70
     1
102
RTVSPost2010Prop31
280
     0
102
RTVSPost2010PropOp31
 70
     1
102
RTVSPost2010Prop32
280
     0
102
RTVSPost2010PropOp32
 70
     1
102
RTVSPost2010Prop33
280
     0
102
RTVSPost2010PropOp33
 70
     1
102
RTVSPost2010Prop34
280
     0
102
RTVSPost2010PropOp34
 70
     1
102
RTVSPost2010Prop35
280
     0
102
RTVSPost2010PropOp35
 70
     1
102
RTVSPost2010Prop36
280
     0
102
RTVSPost2010PropOp36
 70
     1
102
RTVSPost2010Prop37
 90
       50
102
RTVSPost2010PropOp37
 70
     1
102
RTVSPost2010Prop38
140
0.0
102
RTVSPost2010PropOp38
 70
     1
102
RTVSPost2010Prop39
140
1.0
102
RTVSPost2010PropOp39
 70
     1
102
RTVSPost2010Prop40
 90
        0
102
RTVSPost2010PropOp40
 70
     1
102
RTVSPost2010Prop41ColorIndex
 90
       18
102
RTVSPost2010Prop41ColorRGB
 90
        0
102
RTVSPost2010PropOp41
 70
     1
102
RTVSPost2010Prop42
 90
       50
102
RTVSPost2010PropOp42
 70
     1
102
RTVSPost2010Prop43
 90
        3
102
RTVSPost2010PropOp43
 70
     1
102
RTVSPost2010Prop44ColorIndex
 90
        5
102
RTVSPost2010Prop44ColorRGB
 90
      255
102
RTVSPost2010PropOp44
 70
     1
102
RTVSPost2010Prop45
280
     0
102
RTVSPost2010PropOp45
 70
     1
102
RTVSPost2010Prop46
 90
       50
102
RTVSPost2010PropOp46
 70
     1
102
RTVSPost2010Prop47
 90
       50
102
RTVSPost2010PropOp47
 70
     1
102
RTVSPost2010Prop48
 90
       50
102
RTVSPost2010PropOp48
 70
     1
102
RTVSPost2010Prop49
280
     0
102
RTVSPost2010PropOp49
 70
     1
102
RTVSPost2010Prop50
 90
       50
102
RTVSPost2010PropOp50
 70
     1
102
RTVSPost2010Prop51ColorIndex
 90
      256
102
RTVSPost2010Prop51ColorRGB
 90
-16777216
102
RTVSPost2010PropOp51
 70
     0
102
RTVSPost2010Prop52
140
1.0
102
RTVSPost2010PropOp52
 70
     0
102
RTVSPost2010Prop53
 90
        2
102
RTVSPost2010PropOp53
 70
     1
102
RTVSPost2010Prop54
  1
strokes_ogs.tif
102
RTVSPost2010PropOp54
 70
     1
102
RTVSPost2010Prop55
280
     0
102
RTVSPost2010PropOp55
 70
     1
102
RTVSPost2010Prop56
140
1.0
102
RTVSPost2010PropOp56
 70
     1
102
RTVSPost2010Prop57
140
1.0
102
RTVSPost2010PropOp57
 70
     1
  0
XRECORD
  5
88758
102
{ACAD_REACTORS
330
87B32
102
}
330
87B32
100
AcDbXrecord
280
     1
102
RTVSPropertyOp0
 70
     1
102
RTVSPropertyOp1
 70
     1
102
RTVSPropertyOp2
 70
     1
102
RTVSPropertyOp3
 70
     1
102
RTVSPropertyOp4
 70
     1
102
RTVSPropertyOp5
 70
     1
102
RTVSPropertyOp6
 70
     1
102
RTVSPropertyOp7
 70
     1
102
RTVSPropertyOp8
 70
     1
102
RTVSPropertyOp9
 70
     1
102
RTVSPropertyOp10
 70
     1
102
RTVSPropertyOp11
 70
     1
102
RTVSPropertyOp12
 70
     1
102
RTVSPropertyOp13
 70
     1
102
RTVSPropertyOp14
 70
     1
102
RTVSPropertyOp15
 70
     1
102
RTVSPropertyOp16
 70
     1
102
RTVSPropertyOp17
 70
     1
102
RTVSPropertyOp18
 70
     1
102
RTVSPropertyOp19
 70
     1
102
RTVSPropertyOp20
 70
     1
102
RTVSPropertyOp21
 70
     1
102
RTVSPropertyOp22
 70
     1
102
RTVSPropertyOp23
 70
     1
102
RTVSPropertyOp24
 70
     1
102
RTVSPropertyOp25
 70
     1
102
RTVSPropertyOp26
 70
     1
102
RTVSPropertyOp27
 70
     1
102
RTVSPropertyOp28
 70
     1
102
RTVSPropertyOp29
 70
     1
102
RTVSPropertyOp30
 70
     1
102
RTVSPropertyOp31
 70
     1
102
RTVSPropertyOp32
 70
     1
102
RTVSPropertyOp33
 70
     1
102
RTVSPropertyOp34
 70
     1
102
RTVSPropertyOp35
 70
     1
102
RTVSPropertyOp36
 70
     1
102
RTVSPropertyOp37
 70
     1
102
RTVSPropertyOp38
 70
     1
102
RTVSPropertyOp39
 70
     1
102
RTVSPropertyOp40
 70
     1
102
RTVSPropertyOp41
 70
     1
102
RTVSPropertyOp42
 70
     1
102
RTVSPropertyOp43
 70
     1
102
RTVSPropertyOp44
 70
     1
102
RTVSPropertyOp45
 70
     1
102
RTVSPropertyOp46
 70
     1
102
RTVSPropertyOp47
 70
     1
102
RTVSPropertyOp48
 70
     1
102
RTVSPropertyOp49
 70
     1
102
RTVSPropertyOp50
 70
     1
102
RTVSPropertyOp51
 70
     0
102
RTVSPropertyOp52
 70
     0
102
RTVSPropertyOp53
 70
     1
102
RTVSPropertyOp54
 70
     1
102
RTVSPropertyOp55
 70
     1
102
RTVSPropertyOp56
 70
     1
102
RTVSPropertyOp57
 70
     1
102
RTVSPost2010Prop28
280
     0
102
RTVSPost2010PropOp28
 70
     1
102
RTVSPost2010Prop29
280
     1
102
RTVSPost2010PropOp29
 70
     1
102
RTVSPost2010Prop30
280
     1
102
RTVSPost2010PropOp30
 70
     1
102
RTVSPost2010Prop31
280
     0
102
RTVSPost2010PropOp31
 70
     1
102
RTVSPost2010Prop32
280
     0
102
RTVSPost2010PropOp32
 70
     1
102
RTVSPost2010Prop33
280
     0
102
RTVSPost2010PropOp33
 70
     1
102
RTVSPost2010Prop34
280
     0
102
RTVSPost2010PropOp34
 70
     1
102
RTVSPost2010Prop35
280
     0
102
RTVSPost2010PropOp35
 70
     1
102
RTVSPost2010Prop36
280
     0
102
RTVSPost2010PropOp36
 70
     1
102
RTVSPost2010Prop37
 90
       50
102
RTVSPost2010PropOp37
 70
     1
102
RTVSPost2010Prop38
140
0.0
102
RTVSPost2010PropOp38
 70
     1
102
RTVSPost2010Prop39
140
1.0
102
RTVSPost2010PropOp39
 70
     1
102
RTVSPost2010Prop40
 90
        0
102
RTVSPost2010PropOp40
 70
     1
102
RTVSPost2010Prop41ColorIndex
 90
       18
102
RTVSPost2010Prop41ColorRGB
 90
        0
102
RTVSPost2010PropOp41
 70
     1
102
RTVSPost2010Prop42
 90
       50
102
RTVSPost2010PropOp42
 70
     1
102
RTVSPost2010Prop43
 90
        3
102
RTVSPost2010PropOp43
 70
     1
102
RTVSPost2010Prop44ColorIndex
 90
        5
102
RTVSPost2010Prop44ColorRGB
 90
      255
102
RTVSPost2010PropOp44
 70
     1
102
RTVSPost2010Prop45
280
     0
102
RTVSPost2010PropOp45
 70
     1
102
RTVSPost2010Prop46
 90
       50
102
RTVSPost2010PropOp46
 70
     1
102
RTVSPost2010Prop47
 90
       50
102
RTVSPost2010PropOp47
 70
     1
102
RTVSPost2010Prop48
 90
       50
102
RTVSPost2010PropOp48
 70
     1
102
RTVSPost2010Prop49
280
     0
102
RTVSPost2010PropOp49
 70
     1
102
RTVSPost2010Prop50
 90
       50
102
RTVSPost2010PropOp50
 70
     1
102
RTVSPost2010Prop51ColorIndex
 90
      256
102
RTVSPost2010Prop51ColorRGB
 90
-16777216
102
RTVSPost2010PropOp51
 70
     0
102
RTVSPost2010Prop52
140
1.0
102
RTVSPost2010PropOp52
 70
     0
102
RTVSPost2010Prop53
 90
        2
102
RTVSPost2010PropOp53
 70
     1
102
RTVSPost2010Prop54
  1
strokes_ogs.tif
102
RTVSPost2010PropOp54
 70
     1
102
RTVSPost2010Prop55
280
     0
102
RTVSPost2010PropOp55
 70
     1
102
RTVSPost2010Prop56
140
1.0
102
RTVSPost2010PropOp56
 70
     1
102
RTVSPost2010Prop57
140
1.0
102
RTVSPost2010PropOp57
 70
     1
  0
ENDSEC
  0
EOF
