  0
SECTION
  2
HEADER
  9
$ACADVER
  1
AC1015
  9
$ACADMAINTVER
 70
    20
  9
$DWGCODEPAGE
  3
ANSI_932
  9
$INSBASE
 10
0.0
 20
0.0
 30
0.0
  9
$EXTMIN
 10
-25.8
 20
-41.5
 30
0.0
  9
$EXTMAX
 10
109.9083333333333
 20
78.72652469530081
 30
0.0
  9
$LIMMIN
 10
0.0
 20
0.0
  9
$LIMMAX
 10
420.0
 20
297.0
  9
$ORTHOMODE
 70
     1
  9
$REGENMODE
 70
     1
  9
$FILLMODE
 70
     1
  9
$QTEXTMODE
 70
     0
  9
$MIRRTEXT
 70
     1
  9
$LTSCALE
 40
1.0
  9
$ATTMODE
 70
     1
  9
$TEXTSIZE
 40
3.5
  9
$TRACEWID
 40
1.0
  9
$TEXTSTYLE
  7
simplex
  9
$CLAYER
  8
0
  9
$CELTYPE
  6
ByLayer
  9
$CECOLOR
 62
   256
  9
$CELTSCALE
 40
1.0
  9
$DISPSILH
 70
     0
  9
$DIMSCALE
 40
0.0
  9
$DIMASZ
 40
3.5
  9
$DIMEXO
 40
0.0
  9
$DIMDLI
 40
0.38
  9
$DIMRND
 40
0.0
  9
$DIMDLE
 40
0.0
  9
$DIMEXE
 40
1.5
  9
$DIMTP
 40
0.0
  9
$DIMTM
 40
0.0
  9
$DIMTXT
 40
3.5
  9
$DIMCEN
 40
0.09
  9
$DIMTSZ
 40
0.0
  9
$DIMTOL
 70
     0
  9
$DIMLIM
 70
     0
  9
$DIMTIH
 70
     0
  9
$DIMTOH
 70
     0
  9
$DIMSE1
 70
     0
  9
$DIMSE2
 70
     0
  9
$DIMTAD
 70
     1
  9
$DIMZIN
 70
     8
  9
$DIMBLK
  1

  9
$DIMASO
 70
     1
  9
$DIMSHO
 70
     1
  9
$DIMPOST
  1

  9
$DIMAPOST
  1

  9
$DIMALT
 70
     0
  9
$DIMALTD
 70
     2
  9
$DIMALTF
 40
25.4
  9
$DIMLFAC
 40
1.0
  9
$DIMTOFL
 70
     0
  9
$DIMTVP
 40
0.0
  9
$DIMTIX
 70
     0
  9
$DIMSOXD
 70
     0
  9
$DIMSAH
 70
     0
  9
$DIMBLK1
  1

  9
$DIMBLK2
  1

  9
$DIMSTYLE
  2
コピー - ISO-25
  9
$DIMCLRD
 70
   256
  9
$DIMCLRE
 70
   256
  9
$DIMCLRT
 70
   256
  9
$DIMTFAC
 40
1.0
  9
$DIMGAP
 40
2.299999999999998
  9
$DIMJUST
 70
     0
  9
$DIMSD1
 70
     0
  9
$DIMSD2
 70
     0
  9
$DIMTOLJ
 70
     1
  9
$DIMTZIN
 70
     8
  9
$DIMALTZ
 70
     0
  9
$DIMALTTZ
 70
     0
  9
$DIMUPT
 70
     0
  9
$DIMDEC
 70
     2
  9
$DIMTDEC
 70
     2
  9
$DIMALTU
 70
     2
  9
$DIMALTTD
 70
     2
  9
$DIMTXSTY
  7
simplex
  9
$DIMAUNIT
 70
     0
  9
$DIMADEC
 70
     0
  9
$DIMALTRND
 40
0.0
  9
$DIMAZIN
 70
     0
  9
$DIMDSEP
 70
    46
  9
$DIMATFIT
 70
     3
  9
$DIMFRAC
 70
     0
  9
$DIMLDRBLK
  1

  9
$DIMLUNIT
 70
     2
  9
$DIMLWD
 70
    -1
  9
$DIMLWE
 70
    -1
  9
$DIMTMOVE
 70
     0
  9
$LUNITS
 70
     2
  9
$LUPREC
 70
     4
  9
$SKETCHINC
 40
1.0
  9
$FILLETRAD
 40
0.8
  9
$AUNITS
 70
     0
  9
$AUPREC
 70
     0
  9
$MENU
  1
.
  9
$ELEVATION
 40
0.0
  9
$PELEVATION
 40
0.0
  9
$THICKNESS
 40
0.0
  9
$LIMCHECK
 70
     0
  9
$CHAMFERA
 40
10.0
  9
$CHAMFERB
 40
10.0
  9
$CHAMFERC
 40
20.0
  9
$CHAMFERD
 40
0.0
  9
$SKPOLY
 70
     0
  9
$TDCREATE
 40
2455489.391063368
  9
$TDUCREATE
 40
2455489.057730035
  9
$TDUPDATE
 40
2458948.465651806
  9
$TDUUPDATE
 40
2458948.132318472
  9
$TDINDWG
 40
2.564560405
  9
$TDUSRTIMER
 40
2.564508310
  9
$USRTIMER
 70
     1
  9
$ANGBASE
 50
0.0
  9
$ANGDIR
 70
     0
  9
$PDMODE
 70
     0
  9
$PDSIZE
 40
0.0
  9
$PLINEWID
 40
0.0
  9
$SPLFRAME
 70
     0
  9
$SPLINETYPE
 70
     6
  9
$SPLINESEGS
 70
     8
  9
$HANDSEED
  5
8827D
  9
$SURFTAB1
 70
     6
  9
$SURFTAB2
 70
     6
  9
$SURFTYPE
 70
     6
  9
$SURFU
 70
     6
  9
$SURFV
 70
     6
  9
$UCSBASE
  2

  9
$UCSNAME
  2

  9
$UCSORG
 10
0.0
 20
0.0
 30
0.0
  9
$UCSXDIR
 10
1.0
 20
0.0
 30
0.0
  9
$UCSYDIR
 10
0.0
 20
1.0
 30
0.0
  9
$UCSORTHOREF
  2

  9
$UCSORTHOVIEW
 70
     0
  9
$UCSORGTOP
 10
0.0
 20
0.0
 30
0.0
  9
$UCSORGBOTTOM
 10
0.0
 20
0.0
 30
0.0
  9
$UCSORGLEFT
 10
0.0
 20
0.0
 30
0.0
  9
$UCSORGRIGHT
 10
0.0
 20
0.0
 30
0.0
  9
$UCSORGFRONT
 10
0.0
 20
0.0
 30
0.0
  9
$UCSORGBACK
 10
0.0
 20
0.0
 30
0.0
  9
$PUCSBASE
  2

  9
$PUCSNAME
  2

  9
$PUCSORG
 10
0.0
 20
0.0
 30
0.0
  9
$PUCSXDIR
 10
1.0
 20
0.0
 30
0.0
  9
$PUCSYDIR
 10
0.0
 20
1.0
 30
0.0
  9
$PUCSORTHOREF
  2

  9
$PUCSORTHOVIEW
 70
     0
  9
$PUCSORGTOP
 10
0.0
 20
0.0
 30
0.0
  9
$PUCSORGBOTTOM
 10
0.0
 20
0.0
 30
0.0
  9
$PUCSORGLEFT
 10
0.0
 20
0.0
 30
0.0
  9
$PUCSORGRIGHT
 10
0.0
 20
0.0
 30
0.0
  9
$PUCSORGFRONT
 10
0.0
 20
0.0
 30
0.0
  9
$PUCSORGBACK
 10
0.0
 20
0.0
 30
0.0
  9
$USERI1
 70
     0
  9
$USERI2
 70
     0
  9
$USERI3
 70
     0
  9
$USERI4
 70
     0
  9
$USERI5
 70
     0
  9
$USERR1
 40
0.0
  9
$USERR2
 40
0.0
  9
$USERR3
 40
0.0
  9
$USERR4
 40
0.0
  9
$USERR5
 40
0.0
  9
$WORLDVIEW
 70
     1
  9
$SHADEDGE
 70
     3
  9
$SHADEDIF
 70
    70
  9
$TILEMODE
 70
     1
  9
$MAXACTVP
 70
    64
  9
$PINSBASE
 10
0.0
 20
0.0
 30
0.0
  9
$PLIMCHECK
 70
     0
  9
$PEXTMIN
 10
26.66999878883364
 20
20.31999878883365
 30
0.0
  9
$PEXTMAX
 10
240.0299890995025
 20
182.8799890995025
 30
0.0
  9
$PLIMMIN
 10
-6.350006103515625
 20
-6.349999904632567
  9
$PLIMMAX
 10
273.0499877929688
 20
209.5499939918518
  9
$UNITMODE
 70
     0
  9
$VISRETAIN
 70
     1
  9
$PLINEGEN
 70
     0
  9
$PSLTSCALE
 70
     1
  9
$TREEDEPTH
 70
  3020
  9
$CMLSTYLE
  2
Standard
  9
$CMLJUST
 70
     0
  9
$CMLSCALE
 40
20.0
  9
$PROXYGRAPHICS
 70
     1
  9
$MEASUREMENT
 70
     1
  9
$CELWEIGHT
370
    -1
  9
$ENDCAPS
280
     0
  9
$JOINSTYLE
280
     0
  9
$LWDISPLAY
290
     0
  9
$INSUNITS
 70
     4
  9
$HYPERLINKBASE
  1

  9
$STYLESHEET
  1

  9
$XEDIT
290
     1
  9
$CEPSNTYPE
380
     0
  9
$PSTYLEMODE
290
     1
  9
$FINGERPRINTGUID
  2
{13CFD1BA-FE1A-4459-91A9-94A271F2928E}
  9
$VERSIONGUID
  2
{A4BFA59D-7D6C-42C5-9F3B-1646CF4A6481}
  9
$EXTNAMES
290
     1
  9
$PSVPSCALE
 40
0.0
  9
$OLESTARTUP
290
     0
  0
ENDSEC
  0
SECTION
  2
CLASSES
  0
CLASS
  1
ACDBDICTIONARYWDFLT
  2
AcDbDictionaryWithDefault
  3
ObjectDBX Classes
 90
        0
280
     0
281
     0
  0
CLASS
  1
ACDBPLACEHOLDER
  2
AcDbPlaceHolder
  3
ObjectDBX Classes
 90
    32768
280
     0
281
     0
  0
CLASS
  1
LAYOUT
  2
AcDbLayout
  3
ObjectDBX Classes
 90
    32768
280
     0
281
     0
  0
CLASS
  1
DICTIONARYVAR
  2
AcDbDictionaryVar
  3
ObjectDBX Classes
 90
        0
280
     0
281
     0
  0
CLASS
  1
TABLESTYLE
  2
AcDbTableStyle
  3
ObjectDBX Classes
 90
     4095
280
     0
281
     0
  0
CLASS
  1
SORTENTSTABLE
  2
AcDbSortentsTable
  3
ObjectDBX Classes
 90
        0
280
     0
281
     0
  0
CLASS
  1
DIMASSOC
  2
AcDbDimAssoc
  3
"AcDbDimAssoc|Product Desc:     AcDim ARX App For Dimension|Company:          Autodesk, Inc.|WEB Address:      www.autodesk.com"
 90
        0
280
     0
281
     0
  0
CLASS
  1
ACAD_EVALUATION_GRAPH
  2
AcDbEvalGraph
  3
ObjectDBX Classes
 90
    33921
280
     0
281
     0
  0
CLASS
  1
ACAECUSTOBJ
  2
AcAeEditorObj
  3
AcAeEditorObj
 90
    33792
280
     0
281
     0
  0
CLASS
  1
ACDB_DYNAMICBLOCKPURGEPREVENTER_VERSION
  2
AcDbDynamicBlockPurgePreventer
  3
ObjectDBX Classes
 90
    33921
280
     0
281
     0
  0
CLASS
  1
MATERIAL
  2
AcDbMaterial
  3
ObjectDBX Classes
 90
     1153
280
     0
281
     0
  0
CLASS
  1
VISUALSTYLE
  2
AcDbVisualStyle
  3
ObjectDBX Classes
 90
     4095
280
     0
281
     0
  0
CLASS
  1
SCALE
  2
AcDbScale
  3
ObjectDBX Classes
 90
     1153
280
     0
281
     0
  0
CLASS
  1
MLEADERSTYLE
  2
AcDbMLeaderStyle
  3
ACDB_MLEADERSTYLE_CLASS
 90
     4095
280
     0
281
     0
  0
CLASS
  1
ACDBSECTIONVIEWSTYLE
  2
AcDbSectionViewStyle
  3
ObjectDBX Classes
 90
     1025
280
     0
281
     0
  0
CLASS
  1
ACDBDETAILVIEWSTYLE
  2
AcDbDetailViewStyle
  3
ObjectDBX Classes
 90
     1025
280
     0
281
     0
  0
CLASS
  1
CELLSTYLEMAP
  2
AcDbCellStyleMap
  3
ObjectDBX Classes
 90
     1152
280
     0
281
     0
  0
CLASS
  1
ACDBPLACEHOLDER
  2
AcDbPlaceHolder
  3
ObjectDBX Classes
 90
    32768
280
     0
281
     0
  0
CLASS
  1
LAYOUT
  2
AcDbLayout
  3
ObjectDBX Classes
 90
    32768
280
     0
281
     0
  0
CLASS
  1
ACDBPLACEHOLDER
  2
AcDbPlaceHolder
  3
ObjectDBX Classes
 90
    32768
280
     0
281
     0
  0
CLASS
  1
LAYOUT
  2
AcDbLayout
  3
ObjectDBX Classes
 90
    32768
280
     0
281
     0
  0
CLASS
  1
ACDBPLACEHOLDER
  2
AcDbPlaceHolder
  3
ObjectDBX Classes
 90
    32768
280
     0
281
     0
  0
CLASS
  1
LAYOUT
  2
AcDbLayout
  3
ObjectDBX Classes
 90
    32768
280
     0
281
     0
  0
CLASS
  1
ACDBPLACEHOLDER
  2
AcDbPlaceHolder
  3
ObjectDBX Classes
 90
    32768
280
     0
281
     0
  0
CLASS
  1
LAYOUT
  2
AcDbLayout
  3
ObjectDBX Classes
 90
    32768
280
     0
281
     0
  0
CLASS
  1
ACDBPLACEHOLDER
  2
AcDbPlaceHolder
  3
ObjectDBX Classes
 90
        0
280
     0
281
     0
  0
CLASS
  1
LAYOUT
  2
AcDbLayout
  3
ObjectDBX Classes
 90
        0
280
     0
281
     0
  0
ENDSEC
  0
SECTION
  2
TABLES
  0
TABLE
  2
VPORT
  5
8
102
{ACAD_XDICTIONARY
360
88083
102
}
330
0
100
AcDbSymbolTable
 70
     1
  0
VPORT
  5
4A360
330
8
100
AcDbSymbolTableRecord
100
AcDbViewportTableRecord
  2
*Active
 70
     0
 10
0.0
 20
0.0
 11
1.0
 21
1.0
 12
52.61706323273791
 22
4.75074463652518
 13
0.0
 23
0.0
 14
10.0
 24
10.0
 15
10.0
 25
10.0
 16
0.0
 26
0.0
 36
1.0
 17
0.0
 27
0.0
 37
0.0
 40
170.7221595100011
 41
1.705156950672645
 42
50.0
 43
0.0
 44
0.0
 50
0.0
 51
0.0
 71
     0
 72
  1000
 73
     1
 74
     1
 75
     0
 76
     0
 77
     0
 78
     0
281
     0
 65
     1
110
0.0
120
0.0
130
0.0
111
1.0
121
0.0
131
0.0
112
0.0
122
1.0
132
0.0
 79
     0
146
0.0
1001
ACAD_NAV_VCDISPLAY
1070
     3
  0
ENDTAB
  0
TABLE
  2
LTYPE
  5
5
330
0
100
AcDbSymbolTable
 70
     3
  0
LTYPE
  5
14
330
5
100
AcDbSymbolTableRecord
100
AcDbLinetypeTableRecord
  2
ByBlock
 70
     0
  3

 72
    65
 73
     0
 40
0.0
  0
LTYPE
  5
15
330
5
100
AcDbSymbolTableRecord
100
AcDbLinetypeTableRecord
  2
ByLayer
 70
     0
  3

 72
    65
 73
     0
 40
0.0
  0
LTYPE
  5
16
330
5
100
AcDbSymbolTableRecord
100
AcDbLinetypeTableRecord
  2
Continuous
 70
     0
  3
Solid line
 72
    65
 73
     0
 40
0.0
  0
LTYPE
  5
4A76E
330
5
100
AcDbSymbolTableRecord
100
AcDbLinetypeTableRecord
  2
CENTER2
 70
     0
  3
Center (.5x) ___ _ ___ _ ___ _ ___ _ ___ _ ___
 72
    65
 73
     4
 40
28.575
 49
19.05
 74
     0
 49
-3.174999999999998
 74
     0
 49
3.174999999999998
 74
     0
 49
-3.174999999999998
 74
     0
  0
LTYPE
  5
87B53
330
5
100
AcDbSymbolTableRecord
100
AcDbLinetypeTableRecord
  2
HIDDEN
 70
     0
  3
Hidden __ __ __ __ __ __ __ __ __ __ __ __ __ _
 72
    65
 73
     2
 40
9.524999999999996
 49
6.349999999999997
 74
     0
 49
-3.174999999999998
 74
     0
  0
ENDTAB
  0
TABLE
  2
LAYER
  5
2
102
{ACAD_XDICTIONARY
360
E2
102
}
330
0
100
AcDbSymbolTable
 70
    11
  0
LAYER
  5
10
102
{ACAD_XDICTIONARY
360
4A86C
102
}
330
2
100
AcDbSymbolTableRecord
100
AcDbLayerTableRecord
  2
0
 70
     0
 62
     7
  6
Continuous
370
    -3
390
F
  0
LAYER
  5
31B6
330
2
100
AcDbSymbolTableRecord
100
AcDbLayerTableRecord
  2
Defpoints
 70
     0
 62
     7
  6
Continuous
290
     0
370
    -3
390
F
  0
LAYER
  5
4A772
102
{ACAD_XDICTIONARY
360
4A773
102
}
330
2
100
AcDbSymbolTableRecord
100
AcDbLayerTableRecord
  2
1
 70
     0
 62
     4
  6
Continuous
370
    50
390
F
1001
AcAecLayerStandard
1000

1000
Contour
  0
LAYER
  5
4A774
102
{ACAD_XDICTIONARY
360
4A775
102
}
330
2
100
AcDbSymbolTableRecord
100
AcDbLayerTableRecord
  2
2
 70
     0
 62
     7
  6
Continuous
370
    25
390
F
1001
AcAecLayerStandard
1000

1000
Dimension milling
  0
LAYER
  5
4A776
102
{ACAD_XDICTIONARY
360
4A777
102
}
330
2
100
AcDbSymbolTableRecord
100
AcDbLayerTableRecord
  2
4
 70
     0
 62
     2
  6
CENTER2
370
    25
390
F
1001
AcAecLayerStandard
1000

1000
Center line
  0
LAYER
  5
4A778
102
{ACAD_XDICTIONARY
360
4A779
102
}
330
2
100
AcDbSymbolTableRecord
100
AcDbLayerTableRecord
  2
cut
 70
     0
 62
     1
  6
Continuous
370
    25
390
F
1001
AcAecLayerStandard
1000

1000
contour
  0
LAYER
  5
4A77A
102
{ACAD_XDICTIONARY
360
4A77B
102
}
330
2
100
AcDbSymbolTableRecord
100
AcDbLayerTableRecord
  2
nocut
 70
     0
 62
     7
  6
Continuous
370
    25
390
F
1001
AcAecLayerStandard
1000

1000
contour
  0
LAYER
  5
4A77C
102
{ACAD_XDICTIONARY
360
4A77D
102
}
330
2
100
AcDbSymbolTableRecord
100
AcDbLayerTableRecord
  2
sk1
 70
     0
 62
     4
  6
Continuous
370
    50
390
F
1001
AcAecLayerStandard
1000

1000
sk1 Contour
  0
LAYER
  5
4A77E
102
{ACAD_XDICTIONARY
360
4A77F
102
}
330
2
100
AcDbSymbolTableRecord
100
AcDbLayerTableRecord
  2
sk2
 70
     0
 62
     7
  6
Continuous
370
    25
390
F
1001
AcAecLayerStandard
1000

1000
sk2 dimension
  0
LAYER
  5
4A782
102
{ACAD_XDICTIONARY
360
4A783
102
}
330
2
100
AcDbSymbolTableRecord
100
AcDbLayerTableRecord
  2
sk6
 70
     0
 62
     5
  6
Continuous
370
    35
390
F
1001
AcAecLayerStandard
1000

1000
sk6 text
  0
LAYER
  5
87B52
102
{ACAD_XDICTIONARY
360
88081
102
}
330
2
100
AcDbSymbolTableRecord
100
AcDbLayerTableRecord
  2
sk3
 70
     0
 62
     1
  6
HIDDEN
370
    35
390
F
1001
AcAecLayerStandard
1000

1000

  0
ENDTAB
  0
TABLE
  2
STYLE
  5
3
330
0
100
AcDbSymbolTable
 70
     2
  0
STYLE
  5
11
330
3
100
AcDbSymbolTableRecord
100
AcDbTextStyleTableRecord
  2
Standard
 70
     0
 40
0.0
 41
1.0
 50
0.0
 71
     0
 42
2.5
  3
txt.shx
  4
@extfont2.shx
  0
STYLE
  5
24A
330
3
100
AcDbSymbolTableRecord
100
AcDbTextStyleTableRecord
  2
simplex
 70
     0
 40
3.5
 41
1.0
 50
0.0
 71
     0
 42
3.5
  3
txt.shx
  4

  0
ENDTAB
  0
TABLE
  2
VIEW
  5
6
330
0
100
AcDbSymbolTable
 70
     0
  0
ENDTAB
  0
TABLE
  2
UCS
  5
7
330
0
100
AcDbSymbolTable
 70
     0
  0
ENDTAB
  0
TABLE
  2
APPID
  5
9
330
0
100
AcDbSymbolTable
 70
    28
  0
APPID
  5
12
330
9
100
AcDbSymbolTableRecord
100
AcDbRegAppTableRecord
  2
ACAD
 70
     0
  0
APPID
  5
D2
330
9
100
AcDbSymbolTableRecord
100
AcDbRegAppTableRecord
  2
AcAecLayerStandard
 70
     0
  0
APPID
  5
E6
330
9
100
AcDbSymbolTableRecord
100
AcDbRegAppTableRecord
  2
ACAD_DSTYLE_DIMTEXT_FILL
 70
     0
  0
APPID
  5
4C84
330
9
100
AcDbSymbolTableRecord
100
AcDbRegAppTableRecord
  2
ACAD_EXEMPT_FROM_CAD_STANDARDS
 70
     0
  0
APPID
  5
3493E
330
9
100
AcDbSymbolTableRecord
100
AcDbRegAppTableRecord
  2
DCO15
 70
     0
  0
APPID
  5
3BAB0
330
9
100
AcDbSymbolTableRecord
100
AcDbRegAppTableRecord
  2
ACAD_DSTYLE_DIMEXT_ENABLED
 70
     0
  0
APPID
  5
3BAB1
330
9
100
AcDbSymbolTableRecord
100
AcDbRegAppTableRecord
  2
ACAD_DSTYLE_DIMEXT_LENGTH
 70
     0
  0
APPID
  5
3BEB4
330
9
100
AcDbSymbolTableRecord
100
AcDbRegAppTableRecord
  2
ACAUTHENVIRON
 70
     0
  0
APPID
  5
3BEB7
330
9
100
AcDbSymbolTableRecord
100
AcDbRegAppTableRecord
  2
AcDbDynamicBlockTrueName
 70
     0
  0
APPID
  5
3BEB8
330
9
100
AcDbSymbolTableRecord
100
AcDbRegAppTableRecord
  2
AcDbDynamicBlockGUID
 70
     0
  0
APPID
  5
3BEBA
330
9
100
AcDbSymbolTableRecord
100
AcDbRegAppTableRecord
  2
AcDbBlockRepETag
 70
     0
  0
APPID
  5
4A453
330
9
100
AcDbSymbolTableRecord
100
AcDbRegAppTableRecord
  2
ACAD_PSEXT
 70
     0
  0
APPID
  5
4A454
330
9
100
AcDbSymbolTableRecord
100
AcDbRegAppTableRecord
  2
AcadAnnotative
 70
     0
  0
APPID
  5
4A455
330
9
100
AcDbSymbolTableRecord
100
AcDbRegAppTableRecord
  2
ACAD_DSTYLE_DIMJAG
 70
     0
  0
APPID
  5
4A456
330
9
100
AcDbSymbolTableRecord
100
AcDbRegAppTableRecord
  2
ACAD_DSTYLE_DIMTALN
 70
     0
  0
APPID
  5
4A457
330
9
100
AcDbSymbolTableRecord
100
AcDbRegAppTableRecord
  2
ACAD_NAV_VCDISPLAY
 70
     0
  0
APPID
  5
4A787
330
9
100
AcDbSymbolTableRecord
100
AcDbRegAppTableRecord
  2
ACAD_DSTYLE_DIMINSPECT
 70
     0
  0
APPID
  5
4A788
330
9
100
AcDbSymbolTableRecord
100
AcDbRegAppTableRecord
  2
GENIUS_GENDTOL_13
 70
     0
  0
APPID
  5
4A789
330
9
100
AcDbSymbolTableRecord
100
AcDbRegAppTableRecord
  2
ZWMCAD_GENSTANDARDFRAME_13_
 70
     0
  0
APPID
  5
4A78A
330
9
100
AcDbSymbolTableRecord
100
AcDbRegAppTableRecord
  2
ZW_RECESS_XDATA
 70
     0
  0
APPID
  5
4A78B
330
9
100
AcDbSymbolTableRecord
100
AcDbRegAppTableRecord
  2
ZW_FAC_XDATA
 70
     0
  0
APPID
  5
4A78C
330
9
100
AcDbSymbolTableRecord
100
AcDbRegAppTableRecord
  2
ZW_FLC_XDATA
 70
     0
  0
APPID
  5
4A78D
330
9
100
AcDbSymbolTableRecord
100
AcDbRegAppTableRecord
  2
ZW_SUPERPART
 70
     0
  0
APPID
  5
4A78E
330
9
100
AcDbSymbolTableRecord
100
AcDbRegAppTableRecord
  2
ZW_SUPERSYMBOL
 70
     0
  0
APPID
  5
4A78F
330
9
100
AcDbSymbolTableRecord
100
AcDbRegAppTableRecord
  2
ZW_SUPERSHAFT
 70
     0
  0
APPID
  5
4A790
330
9
100
AcDbSymbolTableRecord
100
AcDbRegAppTableRecord
  2
ZWMCAD_GENFRAME_13_
 70
     0
  0
APPID
  5
4A791
330
9
100
AcDbSymbolTableRecord
100
AcDbRegAppTableRecord
  2
ACAD_MLEADERVER
 70
     0
  0
APPID
  5
4A792
330
9
100
AcDbSymbolTableRecord
100
AcDbRegAppTableRecord
  2
ACAD_DSTYLE_DIMRADIAL_EXTENSION
 70
     0
  0
ENDTAB
  0
TABLE
  2
DIMSTYLE
  5
A
330
0
100
AcDbSymbolTable
 70
     2
100
AcDbDimStyleTable
 71
    15
340
1BF
340
3527
340
880A8
340
880AD
340
880B3
340
880B8
340
880BE
340
880C3
340
880C9
340
880CE
340
880D4
340
880DC
340
880E2
340
880E7
340
880ED
  0
DIMSTYLE
105
1BF
102
{ACAD_REACTORS
330
87F15
330
87F12
330
87F0E
330
87F06
330
87F0B
330
87F03
330
8818D
102
}
330
A
100
AcDbSymbolTableRecord
100
AcDbDimStyleTableRecord
  2
コピー - ISO-25
 70
     0
 40
0.0
 41
3.5
 42
0.0
 44
1.5
 73
     0
 74
     0
 77
     1
 78
     8
140
3.5
147
2.299999999999998
176
   256
177
   256
271
     2
178
   256
271
     2
272
     2
284
     8
340
24A
371
    -1
372
    -1
  0
DIMSTYLE
105
3527
330
A
100
AcDbSymbolTableRecord
100
AcDbDimStyleTableRecord
  2
STANDARD
 70
     0
 41
3.0
 47
0.001
 48
0.001
 71
     1
 73
     0
 74
     0
 77
     1
 78
     8
140
4.0
271
     3
272
     3
284
     8
340
11
341
34B1
342
34B1
343
34B1
344
34B1
  0
ENDTAB
  0
TABLE
  2
BLOCK_RECORD
  5
1
330
0
100
AcDbSymbolTable
 70
    11
  0
BLOCK_RECORD
  5
1F
102
{ACAD_XDICTIONARY
360
31EE
102
}
330
1
100
AcDbSymbolTableRecord
100
AcDbBlockTableRecord
  2
*Model_Space
340
22
  0
BLOCK_RECORD
  5
55
330
1
100
AcDbSymbolTableRecord
100
AcDbBlockTableRecord
  2
*Paper_Space
340
56
  0
BLOCK_RECORD
  5
50
330
1
100
AcDbSymbolTableRecord
100
AcDbBlockTableRecord
  2
*Paper_Space000000
340
51
  0
BLOCK_RECORD
  5
34B1
330
1
100
AcDbSymbolTableRecord
100
AcDbBlockTableRecord
  2
_OPEN
340
0
  0
BLOCK_RECORD
  5
4A6D6
102
{ACAD_XDICTIONARY
360
4A6D7
102
}
330
1
100
AcDbSymbolTableRecord
100
AcDbBlockTableRecord
  2
zero block
340
0
102
{BLKREFS
331
87B7F
331
87D7D
331
4A793
102
}
1001
AcDbDynamicBlockGUID
1000
{A89DF4EB-B2CB-439E-AC69-1EAC9F242D1C}
1001
AcDbBlockRepETag
1070
     1
1071
        7
1001
ACAD
1000
DesignCenter Data
1002
{
1070
     1
1070
     4
1002
}
  0
BLOCK_RECORD
  5
87D73
330
1
100
AcDbSymbolTableRecord
100
AcDbBlockTableRecord
  2
_None
340
0
102
{BLKREFS
331
87D72
331
87F63
331
87FA2
331
87FBD
331
87FC5
331
88042
102
}
  0
BLOCK_RECORD
  5
87F18
330
1
100
AcDbSymbolTableRecord
100
AcDbBlockTableRecord
  2
*D205444
340
0
  0
BLOCK_RECORD
  5
87F25
330
1
100
AcDbSymbolTableRecord
100
AcDbBlockTableRecord
  2
*D216555
340
0
  0
BLOCK_RECORD
  5
87F31
330
1
100
AcDbSymbolTableRecord
100
AcDbBlockTableRecord
  2
*D227666
340
0
  0
BLOCK_RECORD
  5
87F3D
330
1
100
AcDbSymbolTableRecord
100
AcDbBlockTableRecord
  2
*D238777
340
0
  0
BLOCK_RECORD
  5
87F53
330
1
100
AcDbSymbolTableRecord
100
AcDbBlockTableRecord
  2
*D2510988
340
0
  0
BLOCK_RECORD
  5
87F5F
330
1
100
AcDbSymbolTableRecord
100
AcDbBlockTableRecord
  2
*D26111099
340
0
  0
BLOCK_RECORD
  5
88190
330
1
100
AcDbSymbolTableRecord
100
AcDbBlockTableRecord
  2
*D131010
340
0
  0
ENDTAB
  0
ENDSEC
  0
SECTION
  2
BLOCKS
  0
BLOCK
  5
20
330
1F
100
AcDbEntity
  8
0
100
AcDbBlockBegin
  2
*Model_Space
 70
     0
 10
0.0
 20
0.0
 30
0.0
  3
*Model_Space
  1

  0
ENDBLK
  5
21
330
1F
100
AcDbEntity
  8
0
100
AcDbBlockEnd
  0
BLOCK
  5
57
330
55
100
AcDbEntity
 67
     1
  8
0
100
AcDbBlockBegin
  2
*Paper_Space
 70
     0
 10
0.0
 20
0.0
 30
0.0
  3
*Paper_Space
  1

  0
ENDBLK
  5
58
330
55
100
AcDbEntity
 67
     1
  8
0
100
AcDbBlockEnd
  0
BLOCK
  5
52
330
50
100
AcDbEntity
  8
0
100
AcDbBlockBegin
  2
*Paper_Space000000
 70
     0
 10
0.0
 20
0.0
 30
0.0
  3
*Paper_Space000000
  1

  0
VIEWPORT
  5
6B
102
{ACAD_XDICTIONARY
360
87B05
102
}
330
50
100
AcDbEntity
  8
0
100
AcDbViewport
 10
264.3775031494645
 20
160.4455827878762
 30
0.0
 40
567.6219612953822
 41
282.2272140146125
 68
     1
 69
    -1
 12
264.3775031494645
 22
160.4455827878762
 13
0.0
 23
0.0
 14
10.0
 24
10.0
 15
10.0
 25
10.0
 16
0.0
 26
0.0
 36
1.0
 17
0.0
 27
0.0
 37
0.0
 42
50.0
 43
0.0
 44
0.0
 45
282.2272140146125
 50
0.0
 51
0.0
 72
  1000
 90
    32864
  1

281
     0
 71
     1
 74
     0
110
0.0
120
0.0
130
0.0
111
1.0
121
0.0
131
0.0
112
0.0
122
1.0
132
0.0
 79
     0
146
0.0
1001
ACAD
1000
MVIEW
1002
{
1070
    16
1010
0.0
1020
0.0
1030
0.0
1010
0.0
1020
0.0
1030
1.0
1040
0.0
1040
282.2272140146125
1040
264.3775031494645
1040
160.4455827878762
1040
50.0
1040
0.0
1040
0.0
1070
     0
1070
  1000
1070
     0
1070
     3
1070
     0
1070
     0
1070
     0
1070
     0
1040
0.0
1040
0.0
1040
0.0
1040
10.0
1040
10.0
1040
10.0
1040
10.0
1070
     0
1002
{
1002
}
1002
}
  0
VIEWPORT
  5
6D
102
{ACAD_XDICTIONARY
360
87B07
102
}
330
50
100
AcDbEntity
  8
0
100
AcDbViewport
 10
133.3499939441681
 20
101.5999939441681
 30
0.0
 40
213.3599903106689
 41
162.5599903106689
 68
     2
 69
    -1
 12
210.0
 22
148.5
 13
0.0
 23
0.0
 14
10.0
 24
10.0
 15
10.0
 25
10.0
 16
0.0
 26
0.0
 36
1.0
 17
0.0
 27
0.0
 37
0.0
 42
50.0
 43
0.0
 44
0.0
 45
324.0677920111345
 50
0.0
 51
0.0
 72
   100
 90
    32864
  1

281
     0
 71
     1
 74
     0
110
0.0
120
0.0
130
0.0
111
1.0
121
0.0
131
0.0
112
0.0
122
1.0
132
0.0
 79
     0
146
0.0
1001
ACAD
1000
MVIEW
1002
{
1070
    16
1010
0.0
1020
0.0
1030
0.0
1010
0.0
1020
0.0
1030
1.0
1040
0.0
1040
324.0677920111345
1040
210.0
1040
148.5
1040
50.0
1040
0.0
1040
0.0
1070
     0
1070
   100
1070
     0
1070
     3
1070
     0
1070
     0
1070
     0
1070
     0
1040
0.0
1040
0.0
1040
0.0
1040
10.0
1040
10.0
1040
10.0
1040
10.0
1070
     0
1002
{
1002
}
1002
}
  0
ENDBLK
  5
53
330
50
100
AcDbEntity
  8
0
100
AcDbBlockEnd
  0
BLOCK
  5
34B2
330
34B1
100
AcDbEntity
  8
0
100
AcDbBlockBegin
  2
_OPEN
 70
     0
 10
0.0
 20
0.0
 30
0.0
  3
_OPEN
  1

  0
LINE
  5
34B3
330
34B1
100
AcDbEntity
  8
0
  6
ByBlock
 62
     0
100
AcDbLine
 10
0.0
 20
0.0
 30
0.0
 11
-1.0
 21
0.1766666667
 31
0.0
  0
LINE
  5
34B4
330
34B1
100
AcDbEntity
  8
0
  6
ByBlock
 62
     0
100
AcDbLine
 10
-1.0
 20
-0.1766666667
 30
0.0
 11
0.0
 21
0.0
 31
0.0
  0
LINE
  5
34B5
330
34B1
100
AcDbEntity
  8
0
  6
ByBlock
 62
     0
100
AcDbLine
 10
-1.0
 20
0.0
 30
0.0
 11
0.0
 21
0.0
 31
0.0
  0
ENDBLK
  5
34B6
330
34B1
100
AcDbEntity
  8
0
  6
ByBlock
 62
     0
100
AcDbBlockEnd
  0
BLOCK
  5
4A6D9
330
4A6D6
100
AcDbEntity
  8
0
100
AcDbBlockBegin
  2
zero block
 70
     0
 10
0.0
 20
0.0
 30
0.0
  3
zero block
  1

  0
HATCH
  5
4A6DA
330
4A6D6
100
AcDbEntity
  8
0
 62
     7
100
AcDbHatch
 10
0.0
 20
0.0
 30
0.0
210
0.0
220
0.0
230
1.0
  2
SOLID
 70
     1
 71
     0
 91
        2
 92
        7
 72
     1
 73
     1
 93
        3
 10
0.0
 20
0.9999999999999875
 42
0.4142135623730915
 10
-1.0
 20
0.0
 42
0.0
 10
0.0
 20
0.0
 42
0.0
 97
        0
 92
        7
 72
     1
 73
     1
 93
        3
 10
1.000000000000007
 20
0.0
 42
0.0
 10
0.0
 20
0.0
 42
0.0
 10
0.0
 20
-1.0
 42
0.4142135623730974
 97
        0
 75
     0
 76
     1
 47
0.0090601366782909
 98
        2
 10
-0.380591363650975
 20
0.4885804701532896
 10
0.4350764810977559
 20
-0.4536738423704725
1001
AcDbBlockRepETag
1070
     1
1071
        0
1005
4A6DA
  0
LINE
  5
4A6DB
330
4A6D6
100
AcDbEntity
  8
0
 62
     7
 48
0.2
100
AcDbLine
 10
-1.0
 20
0.0
 30
0.0
 11
1.000000000000007
 21
0.0
 31
0.0
1001
AcDbBlockRepETag
1070
     1
1071
        1
1005
4A6DB
  0
LINE
  5
4A6DC
330
4A6D6
100
AcDbEntity
  8
0
 62
     7
 48
0.2
100
AcDbLine
 10
0.0
 20
-1.0
 30
0.0
 11
0.0
 21
0.9999999999999875
 31
0.0
1001
AcDbBlockRepETag
1070
     1
1071
        2
1005
4A6DC
  0
ARC
  5
4A6DD
330
4A6D6
100
AcDbEntity
  8
0
 62
     7
 48
0.2
100
AcDbCircle
 10
0.0
 20
0.0
 30
0.0
 40
1.0
100
AcDbArc
 50
270.0
 51
0.0
1001
AcDbBlockRepETag
1070
     1
1071
        3
1005
4A6DD
  0
ARC
  5
4A6DE
330
4A6D6
100
AcDbEntity
  8
0
 62
     7
 48
0.2
100
AcDbCircle
 10
0.0
 20
0.0
 30
0.0
 40
1.0
100
AcDbArc
 50
0.0
 51
90.0
1001
AcDbBlockRepETag
1070
     1
1071
        4
1005
4A6DE
  0
ARC
  5
4A6DF
330
4A6D6
100
AcDbEntity
  8
0
 62
     7
 48
0.2
100
AcDbCircle
 10
0.0
 20
0.0
 30
0.0
 40
1.0
100
AcDbArc
 50
180.0
 51
270.0
1001
AcDbBlockRepETag
1070
     1
1071
        5
1005
4A6DF
  0
ARC
  5
4A6E0
330
4A6D6
100
AcDbEntity
  8
0
 62
     7
 48
0.2
100
AcDbCircle
 10
0.0
 20
0.0
 30
0.0
 40
1.0
100
AcDbArc
 50
90.0
 51
180.0
1001
AcDbBlockRepETag
1070
     1
1071
        6
1005
4A6E0
  0
ENDBLK
  5
4A6E1
330
4A6D6
100
AcDbEntity
  8
0
100
AcDbBlockEnd
  0
BLOCK
  5
87D74
330
87D73
100
AcDbEntity
  8
0
100
AcDbBlockBegin
  2
_None
 70
     0
 10
0.0
 20
0.0
 30
0.0
  3
_None
  1

  0
ENDBLK
  5
87D75
330
87D73
100
AcDbEntity
  8
0
100
AcDbBlockEnd
  0
BLOCK
  5
87F23
330
87F18
100
AcDbEntity
  8
0
100
AcDbBlockBegin
  2
*D205444
 70
     1
 10
0.0
 20
0.0
 30
0.0
  3
*D205444
  1

  0
LINE
  5
88009
330
87F18
100
AcDbEntity
  8
sk2
100
AcDbLine
 10
0.0
 20
-11.03050037180003
 30
0.0
 11
0.0
 21
-41.5
 31
0.0
  0
LINE
  5
8800A
330
87F18
100
AcDbEntity
  8
sk2
100
AcDbLine
 10
21.80000000000003
 20
-9.000000000000012
 30
0.0
 11
21.80000000000003
 21
-41.5
 31
0.0
  0
LINE
  5
8800B
330
87F18
100
AcDbEntity
  8
sk2
100
AcDbLine
 10
21.80000000000003
 20
-40.0
 30
0.0
 11
61.40000000000002
 21
-40.0
 31
0.0
  0
LINE
  5
8800C
330
87F18
100
AcDbEntity
  8
sk2
100
AcDbLine
 10
3.5
 20
-40.0
 30
0.0
 11
18.30000000000002
 21
-40.0
 31
0.0
  0
SOLID
  5
8800D
330
87F18
100
AcDbEntity
  8
sk2
100
AcDbTrace
 10
3.5
 20
-39.41666666666666
 30
0.0
 11
3.5
 21
-40.58333333333332
 31
0.0
 12
0.0
 22
-40.0
 32
0.0
 13
0.0
 23
-40.0
 33
0.0
  0
SOLID
  5
8800E
330
87F18
100
AcDbEntity
  8
sk2
100
AcDbTrace
 10
18.30000000000002
 20
-40.58333333333332
 30
0.0
 11
18.30000000000002
 21
-39.41666666666666
 31
0.0
 12
21.80000000000003
 22
-40.0
 32
0.0
 13
21.80000000000003
 23
-40.0
 33
0.0
  0
MTEXT
  5
8800F
330
87F18
100
AcDbEntity
  8
sk2
100
AcDbMText
 10
43.34999999999999
 20
-35.95000000000001
 30
0.0
 40
3.5
 41
0.0
 71
     5
 72
     1
  1
\A1;21.8 [.858"]
  7
simplex
 73
     1
 44
1.0
1001
ACAD
1000
MTEXTBEGIN
1070
    73
1070
     1
1070
    44
1040
1.0
1070
    74
1070
     0
1000
MTEXTEND
  0
POINT
  5
88010
330
87F18
100
AcDbEntity
  8
Defpoints
 62
     0
100
AcDbPoint
 10
0.0
 20
-11.03050037180003
 30
0.0
  0
POINT
  5
88011
330
87F18
100
AcDbEntity
  8
Defpoints
 62
     0
100
AcDbPoint
 10
21.80000000000003
 20
-9.000000000000012
 30
0.0
  0
POINT
  5
88012
330
87F18
100
AcDbEntity
  8
Defpoints
 62
     0
100
AcDbPoint
 10
21.80000000000003
 20
-40.0
 30
0.0
  0
ENDBLK
  5
87F24
330
87F18
100
AcDbEntity
  8
0
100
AcDbBlockEnd
  0
BLOCK
  5
87F2F
330
87F25
100
AcDbEntity
  8
0
100
AcDbBlockBegin
  2
*D216555
 70
     1
 10
0.0
 20
0.0
 30
0.0
  3
*D216555
  1

  0
LINE
  5
88013
330
87F25
100
AcDbEntity
  8
sk2
100
AcDbLine
 10
1.5
 20
22.22499999999993
 30
0.0
 11
-21.5
 21
22.22499999999993
 31
0.0
  0
LINE
  5
88014
330
87F25
100
AcDbEntity
  8
sk2
100
AcDbLine
 10
1.5
 20
-22.22500000000001
 30
0.0
 11
-21.5
 21
-22.22500000000001
 31
0.0
  0
LINE
  5
88015
330
87F25
100
AcDbEntity
  8
sk2
100
AcDbLine
 10
-20.0
 20
18.72499999999992
 30
0.0
 11
-20.0
 21
-18.72500000000001
 31
0.0
  0
SOLID
  5
88016
330
87F25
100
AcDbEntity
  8
sk2
100
AcDbTrace
 10
-19.41666666666667
 20
18.72499999999992
 30
0.0
 11
-20.58333333333333
 21
18.72499999999992
 31
0.0
 12
-20.0
 22
22.22499999999993
 32
0.0
 13
-20.0
 23
22.22499999999993
 33
0.0
  0
SOLID
  5
88017
330
87F25
100
AcDbEntity
  8
sk2
100
AcDbTrace
 10
-20.58333333333333
 20
-18.72500000000001
 30
0.0
 11
-19.41666666666667
 21
-18.72500000000001
 31
0.0
 12
-20.0
 22
-22.22500000000001
 32
0.0
 13
-20.0
 23
-22.22500000000001
 33
0.0
  0
MTEXT
  5
88018
330
87F25
100
AcDbEntity
  8
sk2
100
AcDbMText
 10
-24.05
 20
0.0
 30
0.0
 40
3.5
 41
0.0
 71
     5
 72
     1
  1
\A1;%%C44.45 [%%c1.750"]
  7
simplex
 11
0.0
 21
1.0
 31
0.0
 73
     1
 44
1.0
1001
ACAD
1000
MTEXTBEGIN
1070
    73
1070
     1
1070
    44
1040
1.0
1070
    74
1070
     0
1000
MTEXTEND
  0
POINT
  5
88019
330
87F25
100
AcDbEntity
  8
Defpoints
 62
     0
100
AcDbPoint
 10
1.5
 20
22.22499999999993
 30
0.0
  0
POINT
  5
8801A
330
87F25
100
AcDbEntity
  8
Defpoints
 62
     0
100
AcDbPoint
 10
1.5
 20
-22.22500000000001
 30
0.0
  0
POINT
  5
8801B
330
87F25
100
AcDbEntity
  8
Defpoints
 62
     0
100
AcDbPoint
 10
-20.0
 20
-22.22500000000001
 30
0.0
  0
ENDBLK
  5
87F30
330
87F25
100
AcDbEntity
  8
0
100
AcDbBlockEnd
  0
BLOCK
  5
87F3B
330
87F31
100
AcDbEntity
  8
0
100
AcDbBlockBegin
  2
*D227666
 70
     1
 10
0.0
 20
0.0
 30
0.0
  3
*D227666
  1

  0
LINE
  5
8801C
330
87F31
100
AcDbEntity
  8
sk2
100
AcDbLine
 10
3.5
 20
9.5249999989
 30
0.0
 11
-11.5
 21
9.5249999989
 31
0.0
  0
LINE
  5
8801D
330
87F31
100
AcDbEntity
  8
sk2
100
AcDbLine
 10
3.5
 20
-9.5249999989
 30
0.0
 11
-11.5
 21
-9.5249999989
 31
0.0
  0
LINE
  5
8801E
330
87F31
100
AcDbEntity
  8
sk2
100
AcDbLine
 10
-10.0
 20
6.0249999989
 30
0.0
 11
-10.0
 21
-6.0249999989
 31
0.0
  0
SOLID
  5
8801F
330
87F31
100
AcDbEntity
  8
sk2
100
AcDbTrace
 10
-9.416666666666666
 20
6.0249999989
 30
0.0
 11
-10.58333333333333
 21
6.0249999989
 31
0.0
 12
-10.0
 22
9.5249999989
 32
0.0
 13
-10.0
 23
9.5249999989
 33
0.0
  0
SOLID
  5
88020
330
87F31
100
AcDbEntity
  8
sk2
100
AcDbTrace
 10
-10.58333333333333
 20
-6.0249999989
 30
0.0
 11
-9.416666666666666
 21
-6.0249999989
 31
0.0
 12
-10.0
 22
-9.5249999989
 32
0.0
 13
-10.0
 23
-9.5249999989
 33
0.0
  0
MTEXT
  5
88021
330
87F31
100
AcDbEntity
  8
sk2
100
AcDbMText
 10
-14.05
 20
0.0000000000000071
 30
0.0
 40
3.5
 41
0.0
 71
     5
 72
     1
  1
\A1;%%C19.05 [%%c.750"]
  7
simplex
 11
0.0
 21
1.0
 31
0.0
 73
     1
 44
1.0
1001
ACAD
1000
MTEXTBEGIN
1070
    73
1070
     1
1070
    44
1040
1.0
1070
    74
1070
     0
1000
MTEXTEND
  0
POINT
  5
88022
330
87F31
100
AcDbEntity
  8
Defpoints
 62
     0
100
AcDbPoint
 10
3.5
 20
9.5249999989
 30
0.0
  0
POINT
  5
88023
330
87F31
100
AcDbEntity
  8
Defpoints
 62
     0
100
AcDbPoint
 10
3.5
 20
-9.5249999989
 30
0.0
  0
POINT
  5
88024
330
87F31
100
AcDbEntity
  8
Defpoints
 62
     0
100
AcDbPoint
 10
-10.0
 20
-9.5249999989
 30
0.0
  0
ENDBLK
  5
87F3C
330
87F31
100
AcDbEntity
  8
0
100
AcDbBlockEnd
  0
BLOCK
  5
87F47
330
87F3D
100
AcDbEntity
  8
0
100
AcDbBlockBegin
  2
*D238777
 70
     1
 10
0.0
 20
0.0
 30
0.0
  3
*D238777
  1

  0
LINE
  5
8823E
330
87F3D
100
AcDbEntity
  8
2
100
AcDbLine
 10
0.0
 20
20.72499999999992
 30
0.0
 11
0.0
 21
61.5
 31
0.0
  0
LINE
  5
8823F
330
87F3D
100
AcDbEntity
  8
2
100
AcDbLine
 10
53.97499999999998
 20
24.59999999879999
 30
0.0
 11
53.97499999999998
 21
61.5
 31
0.0
  0
LINE
  5
88240
330
87F3D
100
AcDbEntity
  8
2
100
AcDbLine
 10
3.5
 20
60.0
 30
0.0
 11
50.47499999999998
 21
60.0
 31
0.0
  0
SOLID
  5
88241
330
87F3D
100
AcDbEntity
  8
2
100
AcDbTrace
 10
3.5
 20
60.58333333333333
 30
0.0
 11
3.5
 21
59.41666666666666
 31
0.0
 12
0.0
 22
60.0
 32
0.0
 13
0.0
 23
60.0
 33
0.0
  0
SOLID
  5
88242
330
87F3D
100
AcDbEntity
  8
2
100
AcDbTrace
 10
50.47499999999998
 20
59.41666666666666
 30
0.0
 11
50.47499999999998
 21
60.58333333333333
 31
0.0
 12
53.97499999999998
 22
60.0
 32
0.0
 13
53.97499999999998
 23
60.0
 33
0.0
  0
MTEXT
  5
88243
330
87F3D
100
AcDbEntity
  8
2
100
AcDbMText
 10
26.98749999999999
 20
64.05
 30
0.0
 40
3.5
 41
0.0
 71
     5
 72
     1
  1
\A1;53.975 [2.125"]
  7
simplex
 73
     1
 44
1.0
1001
ACAD
1000
MTEXTBEGIN
1070
    73
1070
     1
1070
    44
1040
1.0
1070
    74
1070
     0
1000
MTEXTEND
  0
POINT
  5
88244
330
87F3D
100
AcDbEntity
  8
Defpoints
 62
     0
100
AcDbPoint
 10
0.0
 20
20.72499999999992
 30
0.0
  0
POINT
  5
88245
330
87F3D
100
AcDbEntity
  8
Defpoints
 62
     0
100
AcDbPoint
 10
53.97499999999998
 20
24.59999999879999
 30
0.0
  0
POINT
  5
88246
330
87F3D
100
AcDbEntity
  8
Defpoints
 62
     0
100
AcDbPoint
 10
53.97499999999998
 20
60.0
 30
0.0
  0
ENDBLK
  5
87F48
330
87F3D
100
AcDbEntity
  8
0
100
AcDbBlockEnd
  0
BLOCK
  5
87F5D
330
87F53
100
AcDbEntity
  8
0
100
AcDbBlockBegin
  2
*D2510988
 70
     1
 10
0.0
 20
0.0
 30
0.0
  3
*D2510988
  1

  0
LINE
  5
88247
330
87F53
100
AcDbEntity
  8
2
100
AcDbLine
 10
45.77499999999999
 20
25.39999999879999
 30
0.0
 11
45.77499999999999
 21
51.5
 31
0.0
  0
LINE
  5
88248
330
87F53
100
AcDbEntity
  8
2
100
AcDbLine
 10
53.97499999999999
 20
24.59999999879999
 30
0.0
 11
53.97499999999999
 21
51.5
 31
0.0
  0
LINE
  5
88249
330
87F53
100
AcDbEntity
  8
2
100
AcDbLine
 10
57.47499999999998
 20
50.0
 30
0.0
 11
109.9083333333333
 21
50.0
 31
0.0
  0
LINE
  5
8824A
330
87F53
100
AcDbEntity
  8
2
100
AcDbLine
 10
42.27499999999999
 20
50.0
 30
0.0
 11
38.77499999999999
 21
50.0
 31
0.0
  0
SOLID
  5
8824B
330
87F53
100
AcDbEntity
  8
2
100
AcDbTrace
 10
42.27499999999999
 20
49.41666666666666
 30
0.0
 11
42.27499999999999
 21
50.58333333333333
 31
0.0
 12
45.77499999999999
 22
50.0
 32
0.0
 13
45.77499999999999
 23
50.0
 33
0.0
  0
SOLID
  5
8824C
330
87F53
100
AcDbEntity
  8
2
100
AcDbTrace
 10
57.47499999999998
 20
50.58333333333333
 30
0.0
 11
57.47499999999998
 21
49.41666666666666
 31
0.0
 12
53.97499999999999
 22
50.0
 32
0.0
 13
53.97499999999999
 23
50.0
 33
0.0
  0
MTEXT
  5
8824D
330
87F53
100
AcDbEntity
  8
2
100
AcDbMText
 10
85.44166666666667
 20
54.05
 30
0.0
 40
3.5
 41
0.0
 71
     5
 72
     1
  1
\A1;8.2 [.323"](MAX)
  7
simplex
 73
     1
 44
1.0
1001
ACAD
1000
MTEXTBEGIN
1070
    73
1070
     1
1070
    44
1040
1.0
1070
    74
1070
     0
1000
MTEXTEND
  0
POINT
  5
8824E
330
87F53
100
AcDbEntity
  8
Defpoints
 62
     0
100
AcDbPoint
 10
45.77499999999999
 20
25.39999999879999
 30
0.0
  0
POINT
  5
8824F
330
87F53
100
AcDbEntity
  8
Defpoints
 62
     0
100
AcDbPoint
 10
53.97499999999999
 20
24.59999999879999
 30
0.0
  0
POINT
  5
88250
330
87F53
100
AcDbEntity
  8
Defpoints
 62
     0
100
AcDbPoint
 10
53.97499999999999
 20
50.0
 30
0.0
  0
ENDBLK
  5
87F5E
330
87F53
100
AcDbEntity
  8
0
100
AcDbBlockEnd
  0
BLOCK
  5
87F68
330
87F5F
100
AcDbEntity
  8
0
100
AcDbBlockBegin
  2
*D26111099
 70
     1
 10
0.0
 20
0.0
 30
0.0
  3
*D26111099
  1

  0
LINE
  5
8803F
330
87F5F
100
AcDbEntity
  8
2
100
AcDbLine
 10
53.17499999999999
 20
25.39999999879999
 30
0.0
 11
71.50000000000002
 21
25.39999999879999
 31
0.0
  0
LINE
  5
88040
330
87F5F
100
AcDbEntity
  8
2
100
AcDbLine
 10
70.00000000000001
 20
21.89999999879999
 30
0.0
 11
70.00000000000001
 21
-25.39999999879999
 31
0.0
  0
SOLID
  5
88041
330
87F5F
100
AcDbEntity
  8
2
100
AcDbTrace
 10
70.58333333333334
 20
21.89999999879999
 30
0.0
 11
69.41666666666669
 21
21.89999999879999
 31
0.0
 12
70.00000000000001
 22
25.39999999879999
 32
0.0
 13
70.00000000000001
 23
25.39999999879999
 33
0.0
  0
INSERT
  5
88042
330
87F5F
100
AcDbEntity
  8
2
100
AcDbBlockReference
  2
_None
 10
70.00000000000001
 20
-25.39999999879999
 30
0.0
 41
3.5
 42
3.5
 43
3.5
 50
270.0
  0
MTEXT
  5
88043
330
87F5F
100
AcDbEntity
  8
2
100
AcDbMText
 10
65.95000000000002
 20
-1.749999999999999
 30
0.0
 40
3.5
 41
0.0
 71
     5
 72
     1
  1
\A1;%%C50.8 [%%c2.000"]
  7
simplex
 11
0.0
 21
1.0
 31
0.0
 73
     1
 44
1.0
1001
ACAD
1000
MTEXTBEGIN
1070
    73
1070
     1
1070
    44
1040
1.0
1070
    74
1070
     0
1000
MTEXTEND
  0
POINT
  5
88044
330
87F5F
100
AcDbEntity
  8
Defpoints
 62
     0
100
AcDbPoint
 10
53.17499999999999
 20
25.39999999879999
 30
0.0
  0
POINT
  5
88045
330
87F5F
100
AcDbEntity
  8
Defpoints
 62
     0
100
AcDbPoint
 10
53.17499999999999
 20
-25.39999999879999
 30
0.0
  0
POINT
  5
88046
330
87F5F
100
AcDbEntity
  8
Defpoints
 62
     0
100
AcDbPoint
 10
70.00000000000001
 20
-25.39999999879999
 30
0.0
  0
ENDBLK
  5
87F69
330
87F5F
100
AcDbEntity
  8
0
100
AcDbBlockEnd
  0
BLOCK
  5
88198
330
88190
100
AcDbEntity
  8
0
100
AcDbBlockBegin
  2
*D131010
 70
     1
 10
0.0
 20
0.0
 30
0.0
  3
*D131010
  1

  0
LINE
  5
881AF
330
88190
100
AcDbEntity
  8
2
100
AcDbLine
 10
96.3674302483961
 20
41.09045421778828
 30
0.0
 11
57.19217628121348
 21
26.13371924483425
 31
0.0
  0
MTEXT
  5
881B0
330
88190
100
AcDbEntity
  8
2
100
AcDbMText
 10
76.97015106612686
 20
38.01989431723557
 30
0.0
 40
3.5
 41
0.0
 71
     5
 72
     1
  1
\A1;R0.8 [R.031"]
  7
simplex
 11
0.9342270421426698
 21
0.3566788944265671
 31
0.0
 73
     1
 44
1.0
1001
ACAD
1000
MTEXTBEGIN
1070
    73
1070
     1
1070
    44
1040
1.0
1070
    74
1070
     0
1000
MTEXTEND
  0
SOLID
  5
881B1
330
88190
100
AcDbEntity
  8
2
100
AcDbTrace
 10
56.98411359279798
 20
26.67868501941747
 30
0.0
 11
57.40023896962897
 21
25.58875347025102
 31
0.0
 12
53.92238163371413
 22
24.88534311434126
 32
0.0
 13
53.92238163371413
 23
24.88534311434126
 33
0.0
  0
LINE
  5
881B2
330
88190
100
AcDbEntity
  8
2
100
AcDbLine
 10
53.08499999999998
 20
24.59999999880001
 30
0.0
 11
53.26499999999999
 21
24.59999999880001
 31
0.0
  0
LINE
  5
881B3
330
88190
100
AcDbEntity
  8
2
100
AcDbLine
 10
53.17499999999999
 20
24.5099999988
 30
0.0
 11
53.17499999999999
 21
24.68999999880001
 31
0.0
  0
POINT
  5
881B4
330
88190
100
AcDbEntity
  8
Defpoints
 62
     0
100
AcDbPoint
 10
53.92238163371413
 20
24.88534311434126
 30
0.0
  0
POINT
  5
881B5
330
88190
100
AcDbEntity
  8
Defpoints
 62
     0
100
AcDbPoint
 10
53.17499999999999
 20
24.59999999880001
 30
0.0
  0
ENDBLK
  5
88199
330
88190
100
AcDbEntity
  8
0
100
AcDbBlockEnd
  0
ENDSEC
  0
SECTION
  2
ENTITIES
  0
INSERT
  5
4A793
330
1F
100
AcDbEntity
  8
0
100
AcDbBlockReference
  2
zero block
 10
0.0
 20
0.0
 30
0.0
 50
180.0
  0
MTEXT
  5
87D7C
330
1F
100
AcDbEntity
  8
sk6
100
AcDbMText
 10
-1.491230159603688
 20
78.72652469530081
 30
0.0
 40
3.5
 41
50.575
 71
     1
 72
     1
  1
WWX400UR2_0003AA
 73
     1
 44
0.9
1001
ACAD
1000
MTEXTBEGIN
1070
    73
1070
     1
1070
    44
1040
0.9
1070
    74
1070
     0
1000
MTEXTEND
1000
ACAD_MTEXT_DEFINED_HEIGHT_BEGIN
1070
    46
1040
3.48901801050149
1000
ACAD_MTEXT_DEFINED_HEIGHT_END
  0
LINE
  5
87D7E
330
1F
100
AcDbEntity
  8
4
100
AcDbLine
 10
56.82126537683846
 20
0.0
 30
0.0
 11
-2.907861614760518
 21
0.0
 31
0.0
  0
LINE
  5
87D7F
330
1F
100
AcDbEntity
  8
nocut
100
AcDbLine
 10
52.18679557699999
 20
0.0
 30
0.0
 11
0.0
 21
0.0
 31
0.0
  0
LINE
  5
87D80
330
1F
100
AcDbEntity
  8
cut
100
AcDbLine
 10
42.90734271959997
 20
24.3273994894
 30
0.0
 11
43.12312841679999
 21
24.42840626280001
 31
0.0
  0
LINE
  5
87D81
330
1F
100
AcDbEntity
  8
cut
100
AcDbLine
 10
42.37376227049999
 20
24.08036518169998
 30
0.0
 11
42.90734271959997
 21
24.3273994894
 31
0.0
  0
LWPOLYLINE
  5
87D82
330
1F
100
AcDbEntity
  8
cut
100
AcDbPolyline
 90
        7
 70
     0
 43
0.0
 10
39.16755536990003
 20
22.65460644230001
 10
39.29939983460001
 20
22.7157931194
 10
39.3066319446
 20
22.71907502509998
 10
39.31392813459998
 20
22.72234426739999
 10
39.32128840470002
 20
22.72560084609998
 10
39.32871275480001
 20
22.72884476129997
 10
39.33620118500001
 20
22.73207601309997
  0
LINE
  5
87D83
330
1F
100
AcDbEntity
  8
cut
100
AcDbLine
 10
41.84425389560003
 20
23.8383102791
 30
0.0
 11
42.37376227049999
 21
24.08036518169998
 31
0.0
  0
LWPOLYLINE
  5
87D84
330
1F
100
AcDbEntity
  8
cut
100
AcDbPolyline
 90
        3
 70
     0
 43
0.0
 10
39.72511306550011
 20
22.89369837449996
 10
39.75691971380003
 20
22.90798638239997
 10
39.91507823080004
 20
22.98005510439998
  0
LINE
  5
87D85
330
1F
100
AcDbEntity
  8
cut
100
AcDbLine
 10
41.33262702499997
 20
23.60729452019996
 30
0.0
 11
41.84425389560003
 21
23.8383102791
 31
0.0
  0
LINE
  5
87D86
330
1F
100
AcDbEntity
  8
cut
100
AcDbLine
 10
39.91507823080004
 20
22.98005510439998
 30
0.0
 11
39.97839202749999
 21
23.0085466967
 31
0.0
  0
LINE
  5
87D87
330
1F
100
AcDbEntity
  8
cut
100
AcDbLine
 10
40.8091889687
 20
23.37384098299998
 30
0.0
 11
41.33262702499997
 21
23.60729452019996
 31
0.0
  0
LINE
  5
87D88
330
1F
100
AcDbEntity
  8
cut
100
AcDbLine
 10
39.97839202749999
 20
23.0085466967
 30
0.0
 11
40.0419475059
 21
23.03673477739997
 31
0.0
  0
LINE
  5
87D89
330
1F
100
AcDbEntity
  8
cut
100
AcDbLine
 10
40.28192162749998
 20
23.1415642796
 30
0.0
 11
40.8091889687
 21
23.37384098299998
 31
0.0
  0
LINE
  5
87D8A
330
1F
100
AcDbEntity
  8
cut
100
AcDbLine
 10
40.0419475059
 20
23.03673477739997
 30
0.0
 11
40.28192162749998
 21
23.1415642796
 31
0.0
  0
LWPOLYLINE
  5
87D8B
330
1F
100
AcDbEntity
  8
cut
100
AcDbPolyline
 90
        3
 70
     0
 43
0.0
 10
39.33619984100004
 20
22.73207543590002
 10
39.4012184112001
 20
22.75881121039998
 10
39.43378815740003
 20
22.77204570679996
  0
LWPOLYLINE
  5
87D8C
330
1F
100
AcDbEntity
  8
cut
100
AcDbPolyline
 90
        8
 70
     0
 43
0.0
 10
39.43378815740003
 20
22.77204570679996
 10
39.4991287254
 20
22.79809650989998
 10
39.53173924070003
 20
22.81121563309998
 10
39.5642434769001
 20
22.82453339029999
 10
39.59666779049998
 20
22.83798933269998
 10
39.62897102220002
 20
22.85162922570001
 10
39.66113537860001
 20
22.86549107229999
 10
39.72511306550011
 20
22.89369837449996
  0
LINE
  5
87D8D
330
1F
100
AcDbEntity
  8
cut
100
AcDbLine
 10
38.17209115319999
 20
22.17459921489998
 30
0.0
 11
38.19439526920003
 21
22.18695751619999
 31
0.0
  0
LINE
  5
87D8E
330
1F
100
AcDbEntity
  8
cut
100
AcDbLine
 10
44.36523084919999
 20
25.04316936359996
 30
0.0
 11
44.61838667800011
 21
25.17412957899998
 31
0.0
  0
LINE
  5
87D8F
330
1F
100
AcDbEntity
  8
cut
100
AcDbLine
 10
38.1931548597
 20
22.18634720149998
 30
0.0
 11
38.2144446018
 21
22.19725776599998
 31
0.0
  0
LINE
  5
87D90
330
1F
100
AcDbEntity
  8
cut
100
AcDbLine
 10
44.15290406539997
 20
24.9346108057
 30
0.0
 11
44.36523084919999
 21
25.04316936359996
 31
0.0
  0
LINE
  5
87D91
330
1F
100
AcDbEntity
  8
cut
100
AcDbLine
 10
43.9250420803
 20
24.81952816719996
 30
0.0
 11
44.15290406539997
 21
24.9346108057
 31
0.0
  0
LINE
  5
87D92
330
1F
100
AcDbEntity
  8
cut
100
AcDbLine
 10
43.73426642330002
 20
24.72438105829998
 30
0.0
 11
43.9250420803
 21
24.81952816719996
 31
0.0
  0
LWPOLYLINE
  5
87D93
330
1F
100
AcDbEntity
  8
cut
100
AcDbPolyline
 90
        9
 70
     0
 43
0.0
 10
38.2144445232
 20
22.19725772709999
 10
38.3292768509
 20
22.25384543359997
 10
38.44533957260008
 20
22.3106007269
 10
38.56263268820001
 20
22.3675236069
 10
38.68115611809999
 20
22.424617098
 10
38.80090994199999
 20
22.4818781759
 10
38.92189439870011
 20
22.53929776729998
 10
39.04410956790001
 20
22.596872848
 10
39.16755536990003
 20
22.65460644230001
  0
LINE
  5
87D94
330
1F
100
AcDbEntity
  8
cut
100
AcDbLine
 10
43.54141661469999
 20
24.62944529640001
 30
0.0
 11
43.73426642330002
 21
24.72438105829998
 31
0.0
  0
LINE
  5
87D95
330
1F
100
AcDbEntity
  8
cut
100
AcDbLine
 10
43.35104895510001
 20
24.53706842279999
 30
0.0
 11
43.54141661469999
 21
24.62944529640001
 31
0.0
  0
LINE
  5
87D96
330
1F
100
AcDbEntity
  8
cut
100
AcDbLine
 10
43.2125792736
 20
24.47077993550001
 30
0.0
 11
43.35104895510001
 21
24.53706842279999
 31
0.0
  0
LINE
  5
87D97
330
1F
100
AcDbEntity
  8
cut
100
AcDbLine
 10
43.12312841679999
 20
24.42840626280001
 30
0.0
 11
43.2125792736
 21
24.47077993550001
 31
0.0
  0
LWPOLYLINE
  5
87D98
330
1F
100
AcDbEntity
  8
cut
100
AcDbPolyline
 90
        8
 70
     0
 43
0.0
 10
38.04999371000001
 20
22.08548579140002
 10
38.06633481310004
 20
22.0998535903
 10
38.08319524539998
 20
22.11377950840001
 10
38.10056886170004
 20
22.12724826009997
 10
38.11844480039999
 20
22.14024227549999
 10
38.1367933342
 20
22.15273484769998
 10
38.15558001889998
 20
22.1646969858
 10
38.17477856109999
 20
22.17610513910002
  0
LWPOLYLINE
  5
87D99
330
1F
100
AcDbEntity
  8
cut
100
AcDbPolyline
 90
        8
 70
     0
 43
0.0
 10
38.0341763432
 20
22.07068851229999
 10
38.05205001100002
 20
22.08730877029998
 10
38.07078470969999
 20
22.10359331570002
 10
38.09009668299997
 20
22.11923304659999
 10
38.11002208790002
 20
22.13420231689998
 10
38.13052476729998
 20
22.14852677259998
 10
38.15125348229999
 20
22.16201380609996
 10
38.17209115319999
 20
22.17459921489998
  0
LINE
  5
87D9A
330
1F
100
AcDbEntity
  8
cut
100
AcDbLine
 10
47.52615242309999
 20
10.92333321919997
 30
0.0
 11
47.3789012039
 21
10.98176511149999
 31
0.0
  0
LINE
  5
87D9B
330
1F
100
AcDbEntity
  8
cut
100
AcDbLine
 10
47.3789012039
 20
10.98176511149999
 30
0.0
 11
47.36349551359999
 21
10.98799245399997
 31
0.0
  0
LINE
  5
87D9C
330
1F
100
AcDbEntity
  8
cut
100
AcDbLine
 10
47.36349551359999
 20
10.98799245399997
 30
0.0
 11
47.3483072483
 21
10.99425724609997
 31
0.0
  0
LINE
  5
87D9D
330
1F
100
AcDbEntity
  8
nocut
100
AcDbLine
 10
10.2584785424
 20
22.17942325789997
 30
0.0
 11
13.94809153680002
 21
21.52884493859998
 31
0.0
  0
LINE
  5
87D9E
330
1F
100
AcDbEntity
  8
cut
100
AcDbLine
 10
47.3483072483
 20
10.99425724609997
 30
0.0
 11
47.0844034489
 21
11.10462735089999
 31
0.0
  0
LINE
  5
87D9F
330
1F
100
AcDbEntity
  8
cut
100
AcDbLine
 10
47.0844034489
 20
11.10462735089999
 30
0.0
 11
46.81829537929997
 21
11.2167302632
 31
0.0
  0
LINE
  5
87DA0
330
1F
100
AcDbEntity
  8
cut
100
AcDbLine
 10
46.81829537929997
 20
11.2167302632
 30
0.0
 11
46.5499897271001
 21
11.33057644959999
 31
0.0
  0
LINE
  5
87DA1
330
1F
100
AcDbEntity
  8
cut
100
AcDbLine
 10
46.5499897271001
 20
11.33057644959999
 30
0.0
 11
46.29967979929999
 21
11.43753223489998
 31
0.0
  0
LINE
  5
87DA2
330
1F
100
AcDbEntity
  8
cut
100
AcDbLine
 10
46.29967979929999
 20
11.43753223489998
 30
0.0
 11
46.05003270830002
 21
11.54491153719997
 31
0.0
  0
LINE
  5
87DA3
330
1F
100
AcDbEntity
  8
cut
100
AcDbLine
 10
46.05003270830002
 20
11.54491153719997
 30
0.0
 11
45.7997857367
 21
11.65322355269996
 31
0.0
  0
LINE
  5
87DA4
330
1F
100
AcDbEntity
  8
cut
100
AcDbLine
 10
45.7997857367
 20
11.65322355269996
 30
0.0
 11
45.55002339269999
 21
11.76196381709999
 31
0.0
  0
LINE
  5
87DA5
330
1F
100
AcDbEntity
  8
cut
100
AcDbLine
 10
45.55002339269999
 20
11.76196381709999
 30
0.0
 11
45.30460924679998
 21
11.86942529819999
 31
0.0
  0
LINE
  5
87DA6
330
1F
100
AcDbEntity
  8
cut
100
AcDbLine
 10
45.30460924679998
 20
11.86942529819999
 30
0.0
 11
45.06311457330006
 21
11.97580189059997
 31
0.0
  0
LINE
  5
87DA7
330
1F
100
AcDbEntity
  8
cut
100
AcDbLine
 10
45.06311457330006
 20
11.97580189059997
 30
0.0
 11
44.82242103319999
 21
12.08249644239999
 31
0.0
  0
LINE
  5
87DA8
330
1F
100
AcDbEntity
  8
cut
100
AcDbLine
 10
44.82242103319999
 20
12.08249644239999
 30
0.0
 11
44.52394247350004
 21
12.21567603519998
 31
0.0
  0
LINE
  5
87DA9
330
1F
100
AcDbEntity
  8
cut
100
AcDbLine
 10
44.52394247350004
 20
12.21567603519998
 30
0.0
 11
44.1943631311
 21
12.36359175649998
 31
0.0
  0
LINE
  5
87DAA
330
1F
100
AcDbEntity
  8
cut
100
AcDbLine
 10
44.1943631311
 20
12.36359175649998
 30
0.0
 11
43.95041695530003
 21
12.47380473389999
 31
0.0
  0
LINE
  5
87DAB
330
1F
100
AcDbEntity
  8
cut
100
AcDbLine
 10
43.95041695530003
 20
12.47380473389999
 30
0.0
 11
43.5847811068
 21
12.64011036369999
 31
0.0
  0
LINE
  5
87DAC
330
1F
100
AcDbEntity
  8
cut
100
AcDbLine
 10
43.5847811068
 20
12.64011036369999
 30
0.0
 11
43.49489866659998
 21
12.6812623962
 31
0.0
  0
LWPOLYLINE
  5
87DAD
330
1F
100
AcDbEntity
  8
cut
100
AcDbPolyline
 90
        8
 70
     0
 43
0.0
 10
48.40095802940004
 20
10.54572211619999
 10
48.28305863620001
 20
10.5998821042
 10
48.16083000979997
 20
10.65489029169999
 10
48.0370276524
 20
10.7095009396
 10
47.9116539477
 20
10.76369288410002
 10
47.78471604670001
 20
10.81740263349999
 10
47.65621633299999
 20
10.87060902389999
 10
47.52615242309999
 20
10.92333321919997
  0
LINE
  5
87DAE
330
1F
100
AcDbEntity
  8
cut
100
AcDbLine
 10
43.49489866659998
 20
12.6812623962
 30
0.0
 11
43.40470433909998
 21
12.72307273929996
 31
0.0
  0
LINE
  5
87DAF
330
1F
100
AcDbEntity
  8
cut
100
AcDbLine
 10
48.52280184709998
 20
10.48860961910001
 30
0.0
 11
48.40095802940004
 21
10.54572211619999
 31
0.0
  0
LINE
  5
87DB0
330
1F
100
AcDbEntity
  8
cut
100
AcDbLine
 10
43.40470433909998
 20
12.72307273929996
 30
0.0
 11
43.31269831720002
 21
12.76649357259999
 31
0.0
  0
LINE
  5
87DB1
330
1F
100
AcDbEntity
  8
cut
100
AcDbLine
 10
43.31269831720002
 20
12.76649357259999
 30
0.0
 11
43.21846038789998
 21
12.81183874719998
 31
0.0
  0
LINE
  5
87DB2
330
1F
100
AcDbEntity
  8
cut
100
AcDbLine
 10
43.21846038789998
 20
12.81183874719998
 30
0.0
 11
43.12198527760002
 21
12.85923006209999
 31
0.0
  0
LINE
  5
87DB3
330
1F
100
AcDbEntity
  8
cut
100
AcDbLine
 10
43.12198527760002
 20
12.85923006209999
 30
0.0
 11
43.02400076569997
 21
12.90829944649997
 31
0.0
  0
LINE
  5
87DB4
330
1F
100
AcDbEntity
  8
cut
100
AcDbLine
 10
43.02400076569997
 20
12.90829944649997
 30
0.0
 11
42.9249467105
 21
12.95882152789998
 31
0.0
  0
LINE
  5
87DB5
330
1F
100
AcDbEntity
  8
cut
100
AcDbLine
 10
42.9249467105
 20
12.95882152789998
 30
0.0
 11
42.82555952260003
 21
13.0103973119
 31
0.0
  0
LINE
  5
87DB6
330
1F
100
AcDbEntity
  8
cut
100
AcDbLine
 10
42.82555952260003
 20
13.0103973119
 30
0.0
 11
42.72651327720002
 21
13.06264785099998
 31
0.0
  0
LINE
  5
87DB7
330
1F
100
AcDbEntity
  8
cut
100
AcDbLine
 10
42.72651327720002
 20
13.06264785099998
 30
0.0
 11
42.62824022659997
 21
13.115325123
 31
0.0
  0
LINE
  5
87DB8
330
1F
100
AcDbEntity
  8
cut
100
AcDbLine
 10
42.62824022659997
 20
13.115325123
 30
0.0
 11
42.53133137699999
 21
13.16808415570001
 31
0.0
  0
LINE
  5
87DB9
330
1F
100
AcDbEntity
  8
cut
100
AcDbLine
 10
42.53133137699999
 20
13.16808415570001
 30
0.0
 11
42.43656070010003
 21
13.22044663660001
 31
0.0
  0
LINE
  5
87DBA
330
1F
100
AcDbEntity
  8
cut
100
AcDbLine
 10
42.43656070010003
 20
13.22044663660001
 30
0.0
 11
42.34432961809999
 21
13.27214874509997
 31
0.0
  0
LINE
  5
87DBB
330
1F
100
AcDbEntity
  8
cut
100
AcDbLine
 10
42.34432961809999
 20
13.27214874509997
 30
0.0
 11
42.2553372585
 21
13.32271936559997
 31
0.0
  0
LWPOLYLINE
  5
87DBC
330
1F
100
AcDbEntity
  8
cut
100
AcDbPolyline
 90
        3
 70
     0
 43
0.0
 10
42.2553372585
 20
13.32271936559997
 10
42.16877478459998
 20
13.3725416319
 10
42.1263343762
 20
13.39720258829999
  0
LWPOLYLINE
  5
87DBD
330
1F
100
AcDbEntity
  8
cut
100
AcDbPolyline
 90
       19
 70
     0
 43
0.0
 10
37.84175959670001
 20
21.72509704809997
 10
37.8469766475
 20
21.7479199462
 10
37.85286089189999
 20
21.76997767320001
 10
37.8593620306
 20
21.79149748759997
 10
37.86644897160001
 20
21.81239527379998
 10
37.87415280699999
 20
21.8327551475
 10
37.88244264079999
 20
21.85270551369999
 10
37.89129258570003
 20
21.87224464689998
 10
37.90072852900003
 20
21.89137427259999
 10
37.91079723669999
 20
21.91022797179997
 10
37.92147861819997
 20
21.92881825050001
 10
37.9327927641
 20
21.9471326028
 10
37.94484671220003
 20
21.96526709199998
 10
37.95763114040001
 20
21.98324781609998
 10
37.97115537079999
 20
22.00104867709999
 10
37.9855544071
 20
22.01868744469997
 10
38.0008915049
 20
22.03624110039997
 10
38.01710340860002
 20
22.05363266269996
 10
38.03413535460001
 20
22.07064895599998
  0
LWPOLYLINE
  5
87DBE
330
1F
100
AcDbEntity
  8
cut
100
AcDbPolyline
 90
       18
 70
     0
 43
0.0
 10
37.84636130269998
 20
21.74540508079997
 10
37.85160759030005
 20
21.76557764640001
 10
37.85749985130003
 20
21.78561283689999
 10
37.86403295870004
 20
21.80548578969998
 10
37.87120015620003
 20
21.8251659037
 10
37.87899343800011
 20
21.84462350379996
 10
37.88739980110003
 20
21.86383262079997
 10
37.89640499260004
 20
21.88276821149999
 10
37.90599850860001
 20
21.90141129399998
 10
37.91618484030001
 20
21.91976712949998
 10
37.92697222710008
 20
21.93784704050001
 10
37.93836606880002
 20
21.95565613879999
 10
37.95036040549998
 20
21.97317469549998
 10
37.9629464374
 20
21.99037677099997
 10
37.97611292760003
 20
22.00723573509999
 10
37.98983889120008
 20
22.02372219429998
 10
38.00410090660001
 20
22.0398060641
 10
38.0188801692001
 20
22.05546261199996
  0
LINE
  5
87DBF
330
1F
100
AcDbEntity
  8
nocut
100
AcDbLine
 10
22.59743599220003
 20
21.90648347309997
 30
0.0
 11
31.78722890500002
 21
24.36888106269996
 31
0.0
  0
LINE
  5
87DC0
330
1F
100
AcDbEntity
  8
nocut
100
AcDbLine
 10
1.5
 20
22.22499999879999
 30
0.0
 11
9.737534009400024
 21
22.22499999879999
 31
0.0
  0
LINE
  5
87DC1
330
1F
100
AcDbEntity
  8
cut
100
AcDbLine
 10
42.1263343762
 20
13.39720258829999
 30
0.0
 11
42.04188938229996
 21
13.44670589699996
 31
0.0
  0
LINE
  5
87DC2
330
1F
100
AcDbEntity
  8
cut
100
AcDbLine
 10
42.04188938229996
 20
13.44670589699996
 30
0.0
 11
41.95760477189999
 21
13.49670182910001
 31
0.0
  0
LWPOLYLINE
  5
87DC3
330
1F
100
AcDbEntity
  8
cut
100
AcDbPolyline
 90
        3
 70
     0
 43
0.0
 10
41.95760477189999
 20
13.49670182910001
 10
41.87193952510002
 20
13.54810759899997
 10
41.8286937428
 20
13.57427732559998
  0
LWPOLYLINE
  5
87DC4
330
1F
100
AcDbEntity
  8
cut
100
AcDbPolyline
 90
       25
 70
     0
 43
0.0
 10
41.82869376890001
 20
13.57427730979999
 10
41.79934677289997
 20
13.59261457539998
 10
41.77061960440001
 20
13.61147961410001
 10
41.7425122634
 20
13.630872426
 10
41.71503412169999
 20
13.65079310369999
 10
41.68817580749997
 20
13.67124155449998
 10
41.6619092053
 20
13.69221750009999
 10
41.63620999459999
 20
13.7137092809
 10
41.611102496
 20
13.73572855649997
 10
41.58663155500001
 20
13.75831002709998
 10
41.56279628530002
 20
13.78145879569999
 10
41.53959757319997
 20
13.80516975939998
 10
41.51708292310003
 20
13.82946231
 10
41.49526052739999
 20
13.85436232489997
 10
41.47412219360002
 20
13.87984392679997
 10
41.45369084909996
 20
13.90584887570001
 10
41.43397826460001
 20
13.93238242939998
 10
41.4149726694
 20
13.95943933009997
 10
41.39666167829999
 20
13.98694556419998
 10
41.3790439143
 20
14.01489882239998
 10
41.36212075449999
 20
14.0433014141
 10
41.34588394449997
 20
14.07208625409999
 10
41.33033073269998
 20
14.10123098069999
 10
41.31546387060001
 20
14.1307579557
 10
41.30128335819995
 20
14.16066717899998
  0
LWPOLYLINE
  5
87DC5
330
1F
100
AcDbEntity
  8
cut
100
AcDbPolyline
 90
        5
 70
     0
 43
0.0
 10
37.83129276630003
 20
21.51568320929996
 10
37.82923477020002
 20
21.53852226320001
 10
37.82797875550001
 20
21.56155836689999
 10
37.82752472209997
 20
21.58479152029997
 10
37.82752370269999
 20
21.58742109369999
  0
LWPOLYLINE
  5
87DC6
330
1F
100
AcDbEntity
  8
cut
100
AcDbPolyline
 90
        7
 70
     0
 43
0.0
 10
37.82751964170002
 20
21.5874210998
 10
37.82764683450003
 20
21.60056644769998
 10
37.82838117109999
 20
21.6215873596
 10
37.82976652830003
 20
21.64251703969998
 10
37.83180016120004
 20
21.6633465525
 10
37.83447889589998
 20
21.68406234669999
 10
37.8377994514
 20
21.70464971719997
  0
LWPOLYLINE
  5
87DC7
330
1F
100
AcDbEntity
  8
cut
100
AcDbPolyline
 90
        7
 70
     0
 43
0.0
 10
37.82752370269999
 20
21.58742109369999
 10
37.82786558350004
 20
21.60832839879998
 10
37.82900842630005
 20
21.63206232699998
 10
37.8309745104
 20
21.65567327879998
 10
37.83379831380003
 20
21.67915157659999
 10
37.83744535850003
 20
21.70250689789998
 10
37.84183347
 20
21.7254482491
  0
LINE
  5
87DC8
330
1F
100
AcDbEntity
  8
nocut
100
AcDbLine
 10
32.14927886299999
 20
24.41976386599999
 30
0.0
 11
42.45754892269999
 21
24.59969538919998
 31
0.0
  0
LINE
  5
87DC9
330
1F
100
AcDbEntity
  8
nocut
100
AcDbLine
 10
42.49245373549998
 20
24.59999999879999
 30
0.0
 11
46.18679557700001
 21
24.59999999879999
 31
0.0
  0
LWPOLYLINE
  5
87DCA
330
1F
100
AcDbEntity
  8
cut
100
AcDbPolyline
 90
       28
 70
     0
 43
0.0
 10
49.38479050859999
 20
10.52308588479999
 10
49.3577473781
 20
10.50772219659999
 10
49.3298730789
 20
10.49327036419998
 10
49.3011676112
 20
10.47973038769996
 10
49.27153976839999
 20
10.4670493887
 10
49.24108075690004
 20
10.45528024559997
 10
49.21006419610002
 20
10.44458159299999
 10
49.17853396970001
 20
10.4349819659
 10
49.14644619389999
 20
10.42645282929997
 10
49.11394283699998
 20
10.41906721329997
 10
49.08101196620004
 20
10.41282734379997
 10
49.04766551440005
 20
10.40773099489997
 10
49.01408124760003
 20
10.40384451859996
 10
48.9802312599
 20
10.4011826482
 10
48.94614345719999
 20
10.39973065050001
 10
48.91207932380003
 20
10.39951067759997
 10
48.8780643667
 20
10.400542466
 10
48.84407307889997
 20
10.40280627929997
 10
48.81029042429999
 20
10.40626506090002
 10
48.77672887280003
 20
10.41092420340002
 10
48.7433759545
 20
10.41677831419998
 10
48.71037922389998
 20
10.42377415929996
 10
48.67769053440004
 20
10.43193138519996
 10
48.64535803249999
 20
10.44123034539996
 10
48.61367371280003
 20
10.45155886649997
 10
48.58273490690002
 20
10.46287955739998
 10
48.55244428319998
 20
10.47522980899999
 10
48.52280184170003
 20
10.4886096216
  0
LINE
  5
87DCB
330
1F
100
AcDbEntity
  8
cut
100
AcDbLine
 10
45.54167657439999
 20
25.39999999879999
 30
0.0
 11
53.17499999999999
 21
25.39999999879999
 31
0.0
  0
LWPOLYLINE
  5
87DCC
330
1F
100
AcDbEntity
  8
cut
100
AcDbPolyline
 90
       13
 70
     0
 43
0.0
 10
37.91601181659998
 20
21.2443586417
 10
37.90462534630002
 20
21.26646217229999
 10
37.89402483459999
 20
21.28870860480001
 10
37.88421028159998
 20
21.31109793929997
 10
37.8751802675
 20
21.33366067890001
 10
37.866936212
 20
21.35636632050001
 10
37.8594823749
 20
21.37912335419998
 10
37.85282275730003
 20
21.4019338137
 10
37.84695335810004
 20
21.4247956653
 10
37.84186643299996
 20
21.4476112985
 10
37.83755940080003
 20
21.4703481766
 10
37.83403484280003
 20
21.49303883629998
 10
37.83129275910001
 20
21.51568327769997
  0
LINE
  5
87DCD
330
1F
100
AcDbEntity
  8
cut
100
AcDbLine
 10
38.81196092860001
 20
19.43151818079997
 30
0.0
 11
38.50280205809999
 21
20.06384603329997
 31
0.0
  0
LINE
  5
87DCE
330
1F
100
AcDbEntity
  8
cut
100
AcDbLine
 10
39.04269725999997
 20
18.9569846782
 30
0.0
 11
38.81196092860001
 21
19.43151818079997
 31
0.0
  0
LINE
  5
87DCF
330
1F
100
AcDbEntity
  8
cut
100
AcDbLine
 10
38.50280205809999
 20
20.06384603320002
 30
0.0
 11
38.4951242817
 21
20.07966473699998
 31
0.0
  0
LINE
  5
87DD0
330
1F
100
AcDbEntity
  8
cut
100
AcDbLine
 10
39.27251005320001
 20
18.4818837371
 30
0.0
 11
39.04269725999997
 21
18.9569846782
 31
0.0
  0
LINE
  5
87DD1
330
1F
100
AcDbEntity
  8
cut
100
AcDbLine
 10
39.50142558680001
 20
18.00604822759997
 30
0.0
 11
39.27251005320001
 21
18.4818837371
 31
0.0
  0
LINE
  5
87DD2
330
1F
100
AcDbEntity
  8
cut
100
AcDbLine
 10
39.72947537310002
 20
17.52937241759997
 30
0.0
 11
39.50142558680001
 21
18.00604822759997
 31
0.0
  0
LINE
  5
87DD3
330
1F
100
AcDbEntity
  8
cut
100
AcDbLine
 10
39.9566254044001
 20
17.05189385189999
 30
0.0
 11
39.72947537310002
 21
17.52937241759997
 31
0.0
  0
LINE
  5
87DD4
330
1F
100
AcDbEntity
  8
cut
100
AcDbLine
 10
38.4951242817
 20
20.07966473699998
 30
0.0
 11
38.48747656350004
 21
20.09574348849998
 31
0.0
  0
LWPOLYLINE
  5
87DD5
330
1F
100
AcDbEntity
  8
cut
100
AcDbPolyline
 90
        9
 70
     0
 43
0.0
 10
38.4244160367
 20
20.23140501809997
 10
38.3672041378001
 20
20.35237075480001
 10
38.30822321230001
 20
20.47497948500001
 10
38.24751682720002
 20
20.59925995169999
 10
38.1850414156
 20
20.72518341189999
 10
38.1206662772
 20
20.8526636371
 10
38.05434784500001
 20
20.9816718841
 10
37.9861296859
 20
21.11223689609998
 10
37.91601179990001
 20
21.24435867289998
  0
LINE
  5
87DD6
330
1F
100
AcDbEntity
  8
cut
100
AcDbLine
 10
40.18279694479999
 20
16.57366697469997
 30
0.0
 11
39.9566254044001
 21
17.05189385189999
 31
0.0
  0
LINE
  5
87DD7
330
1F
100
AcDbEntity
  8
cut
100
AcDbLine
 10
40.59535829769997
 20
15.69332888719999
 30
0.0
 11
40.18279694479999
 21
16.57366697469997
 31
0.0
  0
LINE
  5
87DD8
330
1F
100
AcDbEntity
  8
cut
100
AcDbLine
 10
38.48747656350004
 20
20.09574348849998
 30
0.0
 11
38.4244160367
 21
20.23140501809997
 31
0.0
  0
LINE
  5
87DD9
330
1F
100
AcDbEntity
  8
cut
100
AcDbLine
 10
40.95450881799997
 20
14.91812405369999
 30
0.0
 11
40.59535829769997
 21
15.69332888719999
 31
0.0
  0
LINE
  5
87DDA
330
1F
100
AcDbEntity
  8
cut
100
AcDbLine
 10
41.3012834343
 20
14.1606670139
 30
0.0
 11
40.95450881799997
 21
14.91812405369999
 31
0.0
  0
LINE
  5
87DDB
330
1F
100
AcDbEntity
  8
cut
100
AcDbLine
 10
52.89965254880002
 20
15.14984994719999
 30
0.0
 11
52.79063255670003
 21
14.98772969719997
 31
0.0
  0
LINE
  5
87DDC
330
1F
100
AcDbEntity
  8
cut
100
AcDbLine
 10
52.79063255670003
 20
14.98772969719997
 30
0.0
 11
52.68104148670001
 21
14.8257102746
 31
0.0
  0
LINE
  5
87DDD
330
1F
100
AcDbEntity
  8
cut
100
AcDbLine
 10
52.68104148670001
 20
14.8257102746
 30
0.0
 11
52.57090757930003
 21
14.66386606669997
 31
0.0
  0
LINE
  5
87DDE
330
1F
100
AcDbEntity
  8
cut
100
AcDbLine
 10
52.57090757930003
 20
14.66386606669997
 30
0.0
 11
52.46029239729995
 21
14.50230974379997
 31
0.0
  0
LINE
  5
87DDF
330
1F
100
AcDbEntity
  8
cut
100
AcDbLine
 10
52.46029239729995
 20
14.50230974379997
 30
0.0
 11
52.34926089970001
 21
14.34114510879997
 31
0.0
  0
LINE
  5
87DE0
330
1F
100
AcDbEntity
  8
cut
100
AcDbLine
 10
52.3492608998
 20
14.34114510899997
 30
0.0
 11
52.18591387190004
 21
14.10586984759999
 31
0.0
  0
LWPOLYLINE
  5
87DE1
330
1F
100
AcDbEntity
  8
cut
100
AcDbPolyline
 90
       22
 70
     0
 43
0.0
 10
52.18591387190004
 20
14.10586984759999
 10
52.02140378719999
 20
13.87120832189999
 10
51.93871214330004
 20
13.75410537169998
 10
51.85574157219999
 20
13.63721665039998
 10
51.77249549709998
 20
13.52054586449998
 10
51.68897049479999
 20
13.40408930769997
 10
51.60516722190003
 20
13.28789197849998
 10
51.52108844870003
 20
13.17195868619998
 10
51.43673140490007
 20
13.05628462159999
 10
51.35208843710008
 20
12.94090035579999
 10
51.2671652561
 20
12.82580731669998
 10
51.1819561510001
 20
12.71100407640001
 10
51.09643633590001
 20
12.59651692309999
 10
51.01062128580004
 20
12.48236044379997
 10
50.92449552559999
 20
12.36852005149999
 10
50.83798784449999
 20
12.25497827299998
 10
50.75110270670002
 20
12.14173903009999
 10
50.6638356479
 20
12.02879840090001
 10
50.57610206429997
 20
11.91612714779999
 10
50.48787375459999
 20
11.80371552469999
 10
50.3991789199
 20
11.6915732775
 10
50.31001756040001
 20
11.57970040629997
  0
LWPOLYLINE
  5
87DE2
330
1F
100
AcDbEntity
  8
cut
100
AcDbPolyline
 90
       13
 70
     0
 43
0.0
 10
49.59644732240004
 20
10.70679279419998
 10
49.58273805040001
 20
10.68974966369999
 10
49.56829643790003
 20
10.6729728451
 10
49.55312248499997
 20
10.65646233849998
 10
49.5372058471001
 20
10.64018767689999
 10
49.5205568687
 20
10.6241793271
 10
49.5032065837001
 20
10.60852869049998
 10
49.48515233860003
 20
10.59323785579998
 10
49.46639678700003
 20
10.57830473429997
 10
49.44697892339998
 20
10.56381445980001
 10
49.4269117459
 20
10.54979541049999
 10
49.40618225639997
 20
10.53621920820002
 10
49.38479045499999
 20
10.52308585309999
  0
LWPOLYLINE
  5
87DE3
330
1F
100
AcDbEntity
  8
cut
100
AcDbPolyline
 90
        7
 70
     0
 43
0.0
 10
50.31001756190001
 20
11.57970040819999
 10
50.30570464530002
 20
11.57434426840002
 10
50.30133090420011
 20
11.56897221179998
 10
50.29689633870011
 20
11.56358423840002
 10
50.29240094879999
 20
11.55818034809996
 10
50.2878447346001
 20
11.55276054090002
 10
50.20093909140008
 20
11.45042937829998
  0
LWPOLYLINE
  5
87DE4
330
1F
100
AcDbEntity
  8
cut
100
AcDbPolyline
 90
        9
 70
     0
 43
0.0
 10
50.20093909140008
 20
11.45042937829998
 10
50.1201520108
 20
11.3544011821
 10
50.04086645510001
 20
11.25924022949997
 10
49.96309123280003
 20
11.16493518179997
 10
49.88681753539999
 20
11.07149737750002
 10
49.81201893639997
 20
10.97896083269996
 10
49.7386866271001
 20
10.88733688579999
 10
49.66682941620003
 20
10.79661419829998
 10
49.59644730370002
 20
10.70679277019997
  0
LINE
  5
87DE5
330
1F
100
AcDbEntity
  8
cut
100
AcDbLine
 10
53.4298886929
 20
15.95158550719999
 30
0.0
 11
53.29639262249999
 21
15.74764679519996
 31
0.0
  0
LINE
  5
87DE6
330
1F
100
AcDbEntity
  8
cut
100
AcDbLine
 10
53.29639262249999
 20
15.74764679519996
 30
0.0
 11
53.15220510090002
 21
15.528975111
 31
0.0
  0
LINE
  5
87DE7
330
1F
100
AcDbEntity
  8
cut
100
AcDbLine
 10
53.15220510090002
 20
15.528975111
 30
0.0
 11
53.04423806280003
 21
15.36628935009998
 31
0.0
  0
LWPOLYLINE
  5
87DE8
330
1F
100
AcDbEntity
  8
cut
100
AcDbPolyline
 90
        3
 70
     0
 43
0.0
 10
53.04423806280003
 20
15.36628935009998
 10
52.93587657870002
 20
15.20392283799999
 10
52.89965254880002
 20
15.14984994719999
  0
LINE
  5
87DE9
330
1F
100
AcDbEntity
  8
nocut
100
AcDbLine
 10
52.18679557699999
 20
18.59999999879998
 30
0.0
 11
52.18679557699999
 21
0.0
 31
0.0
  0
LINE
  5
87DEA
330
1F
100
AcDbEntity
  8
cut
100
AcDbLine
 10
53.9544105907
 20
23.2028159132
 30
0.0
 11
53.97499999999998
 21
24.59999999879999
 31
0.0
  0
LINE
  5
87DEB
330
1F
100
AcDbEntity
  8
cut
100
AcDbLine
 10
53.6506733082
 20
16.96763473179997
 30
0.0
 11
53.6423000705001
 21
16.66388979209998
 31
0.0
  0
LINE
  5
87DEC
330
1F
100
AcDbEntity
  8
cut
100
AcDbLine
 10
53.9544105907
 20
23.2028159132
 30
0.0
 11
53.95391606179996
 21
23.18488903559998
 31
0.0
  0
LINE
  5
87DED
330
1F
100
AcDbEntity
  8
cut
100
AcDbLine
 10
53.66040668450001
 20
17.27137309509999
 30
0.0
 11
53.6506733082
 21
16.96763473179997
 31
0.0
  0
LWPOLYLINE
  5
87DEE
330
1F
100
AcDbEntity
  8
cut
100
AcDbPolyline
 90
       25
 70
     0
 43
0.0
 10
53.64230007080011
 20
16.66388980289998
 10
53.64108074540009
 20
16.6309444664
 10
53.6391730169001
 20
16.59831349160001
 10
53.63657688510007
 20
16.56599687849999
 10
53.63328138430002
 20
16.5340024521
 10
53.62929748040001
 20
16.50232238729999
 10
53.6246580703001
 20
16.47093320969999
 10
53.61936733749998
 20
16.43984158660002
 10
53.61342109870006
 20
16.40904085069999
 10
53.60683970140009
 20
16.37848752489999
 10
53.59963037880006
 20
16.34817064250001
 10
53.5917858977
 20
16.31810117029999
 10
53.58330490530001
 20
16.28826853219997
 10
53.5741960716
 20
16.2586652474
 10
53.5644507267
 20
16.22929879679996
 10
53.55404150760001
 20
16.2001810466
 10
53.5429648829
 20
16.1712955473
 10
53.53122438420003
 20
16.1426587483
 10
53.51880324280003
 20
16.11433186429997
 10
53.5056981167
 20
16.0863136598
 10
53.4919123479
 20
16.05860537009997
 10
53.47743919420004
 20
16.03127191609997
 10
53.46227640799999
 20
16.00433493789999
 10
53.44642623670011
 20
15.97777279519997
 10
53.42988868039999
 20
15.95158548820001
  0
LINE
  5
87DEF
330
1F
100
AcDbEntity
  8
cut
100
AcDbLine
 10
53.95391606179996
 20
23.18488903559998
 30
0.0
 11
53.95326409600007
 21
23.16689804309996
 31
0.0
  0
LINE
  5
87DF0
330
1F
100
AcDbEntity
  8
cut
100
AcDbLine
 10
53.67341667609998
 20
17.62475728949997
 30
0.0
 11
53.66040668450001
 21
17.27137309509999
 31
0.0
  0
LINE
  5
87DF1
330
1F
100
AcDbEntity
  8
cut
100
AcDbLine
 10
53.68789713790007
 20
17.97101652730001
 30
0.0
 11
53.67341667609998
 21
17.62475728949997
 31
0.0
  0
LINE
  5
87DF2
330
1F
100
AcDbEntity
  8
cut
100
AcDbLine
 10
53.95326409600007
 20
23.16689804309996
 30
0.0
 11
53.95245469319998
 21
23.1488429357
 31
0.0
  0
LINE
  5
87DF3
330
1F
100
AcDbEntity
  8
cut
100
AcDbLine
 10
53.70390020060002
 20
18.31318484329998
 30
0.0
 11
53.68789713790007
 21
17.97101652730001
 31
0.0
  0
LINE
  5
87DF4
330
1F
100
AcDbEntity
  8
cut
100
AcDbLine
 10
53.95245469319998
 20
23.1488429357
 30
0.0
 11
53.91093599620012
 21
22.31113147629998
 31
0.0
  0
LINE
  5
87DF5
330
1F
100
AcDbEntity
  8
cut
100
AcDbLine
 10
53.91093599620012
 20
22.31113147629998
 30
0.0
 11
53.86280302320002
 21
21.35684419509999
 31
0.0
  0
LINE
  5
87DF6
330
1F
100
AcDbEntity
  8
cut
100
AcDbLine
 10
53.86280302320002
 20
21.35684419509999
 30
0.0
 11
53.81047198199998
 21
20.33947852949996
 31
0.0
  0
LINE
  5
87DF7
330
1F
100
AcDbEntity
  8
cut
100
AcDbLine
 10
53.81047198199998
 20
20.33947852949996
 30
0.0
 11
53.75689947030011
 21
19.31798493329998
 31
0.0
  0
LINE
  5
87DF8
330
1F
100
AcDbEntity
  8
cut
100
AcDbLine
 10
53.75689947030011
 20
19.31798493329998
 30
0.0
 11
53.70390020060002
 21
18.31318484329998
 31
0.0
  0
ARC
  5
87DF9
330
1F
100
AcDbEntity
  8
nocut
100
AcDbCircle
 10
17.42105509010001
 20
41.22499999879996
 30
0.0
 40
20.0
100
AcDbArc
 50
259.9999999999998
 51
284.9999999999996
  0
ARC
  5
87DFA
330
1F
100
AcDbEntity
  8
nocut
100
AcDbCircle
 10
46.18679557700001
 20
18.59999999879998
 30
0.0
 40
6.0
100
AcDbArc
 50
0.0
 51
90.0
  0
ARC
  5
87DFB
330
1F
100
AcDbEntity
  8
nocut
100
AcDbCircle
 10
9.737534009400024
 20
19.22499999879998
 30
0.0
 40
3.0
100
AcDbArc
 50
79.9999999999998
 51
90.0
  0
ARC
  5
87DFC
330
1F
100
AcDbEntity
  8
cut
100
AcDbCircle
 10
45.54167657439999
 20
23.39999999879998
 30
0.0
 40
2.0
100
AcDbArc
 50
90.0
 51
117.4933040433
  0
ARC
  5
87DFD
330
1F
100
AcDbEntity
  8
nocut
100
AcDbCircle
 10
42.49245373549998
 20
22.59999999879999
 30
0.0
 40
2.0
100
AcDbArc
 50
90.0
 51
91.00000000000015
  0
ARC
  5
87DFE
330
1F
100
AcDbEntity
  8
nocut
100
AcDbCircle
 10
1.5
 20
20.72499999879998
 30
0.0
 40
1.5
100
AcDbArc
 50
90.0
 51
180.0
  0
ARC
  5
87DFF
330
1F
100
AcDbEntity
  8
nocut
100
AcDbCircle
 10
32.17545747260003
 20
22.91999232320001
 30
0.0
 40
1.5
100
AcDbArc
 50
91.00000000000015
 51
104.9999999999995
  0
ARC
  5
87E00
102
{ACAD_REACTORS
330
87F17
102
}
330
1F
100
AcDbEntity
  8
cut
100
AcDbCircle
 10
53.17499999999999
 20
24.59999999879999
 30
0.0
 40
0.8
100
AcDbArc
 50
0.0
 51
90.0
  0
LINE
  5
87E01
330
1F
100
AcDbEntity
  8
nocut
100
AcDbLine
 10
0.0
 20
20.72499999879998
 30
0.0
 11
0.0
 21
0.0
 31
0.0
  0
LINE
  5
87E02
102
{ACAD_REACTORS
330
87F05
102
}
330
1F
100
AcDbEntity
  8
1
100
AcDbLine
 10
0.0
 20
-20.72500000000001
 30
0.0
 11
0.0
 21
-4.469999999999997
 31
0.0
  0
LINE
  5
87E03
330
1F
100
AcDbEntity
  8
1
100
AcDbLine
 10
0.0
 20
4.469999999999997
 30
0.0
 11
0.0
 21
20.72499999999992
 31
0.0
  0
LINE
  5
87E04
330
1F
100
AcDbEntity
  8
1
100
AcDbLine
 10
4.75999999999999
 20
2.969999999999998
 30
0.0
 11
4.75999999999999
 21
-2.969999999999998
 31
0.0
  0
LINE
  5
87E05
330
1F
100
AcDbEntity
  8
1
100
AcDbLine
 10
0.5
 20
-3.969999999999998
 30
0.0
 11
0.0
 21
-4.469999999999997
 31
0.0
  0
LINE
  5
87E06
330
1F
100
AcDbEntity
  8
1
100
AcDbLine
 10
4.75999999999999
 20
-2.969999999999998
 30
0.0
 11
3.75999999999999
 21
-3.969999999999998
 31
0.0
  0
LINE
  5
87E07
330
1F
100
AcDbEntity
  8
1
100
AcDbLine
 10
39.88665419429999
 20
22.17827321919994
 30
0.0
 11
42.1763161336
 21
23.47733910039997
 31
0.0
  0
LINE
  5
87E08
330
1F
100
AcDbEntity
  8
1
100
AcDbLine
 10
38.5772125772
 20
22.09493040399991
 30
0.0
 11
39.35123232189996
 21
22.37837875759995
 31
0.0
  0
LINE
  5
87E09
330
1F
100
AcDbEntity
  8
1
100
AcDbLine
 10
42.49245373559999
 20
-24.60000000000001
 30
0.0
 11
46.18679557700001
 21
-24.60000000000001
 31
0.0
  0
LINE
  5
87E0A
330
1F
100
AcDbEntity
  8
1
100
AcDbLine
 10
42.45754892269999
 20
-24.5996953903
 30
0.0
 11
42.49245373559999
 21
-24.60000000000001
 31
0.0
  0
LINE
  5
87E0B
330
1F
100
AcDbEntity
  8
1
100
AcDbLine
 10
32.14927886299999
 20
-24.4197638671
 30
0.0
 11
42.45754892269999
 21
-24.5996953903
 31
0.0
  0
LINE
  5
87E0C
330
1F
100
AcDbEntity
  8
1
100
AcDbLine
 10
31.787228905
 20
-24.3688810638
 30
0.0
 11
22.59743599219998
 21
-21.90648347420002
 31
0.0
  0
LINE
  5
87E0D
330
1F
100
AcDbEntity
  8
1
100
AcDbLine
 10
0.0
 20
4.469999999999997
 30
0.0
 11
0.5
 21
3.969999999999998
 31
0.0
  0
LINE
  5
87E0E
102
{ACAD_REACTORS
330
87F08
102
}
330
1F
100
AcDbEntity
  8
1
100
AcDbLine
 10
9.737534009400024
 20
-22.22500000000001
 30
0.0
 11
1.5
 21
-22.22500000000001
 31
0.0
  0
LINE
  5
87E0F
330
1F
100
AcDbEntity
  8
1
100
AcDbLine
 10
3.75999999999999
 20
3.969999999999998
 30
0.0
 11
4.75999999999999
 21
2.969999999999998
 31
0.0
  0
LINE
  5
87E10
330
1F
100
AcDbEntity
  8
1
100
AcDbLine
 10
13.94809153680002
 20
-21.52884493970002
 30
0.0
 11
10.2584785424
 21
-22.17942325900002
 31
0.0
  0
LINE
  5
87E11
330
1F
100
AcDbEntity
  8
1
100
AcDbLine
 10
40.4759925901
 20
14.82134328419994
 30
0.0
 11
40.43598357229996
 21
14.78358760709994
 31
0.0
  0
LINE
  5
87E12
330
1F
100
AcDbEntity
  8
1
100
AcDbLine
 10
3.75999999999999
 20
-3.969999999999998
 30
0.0
 11
0.5
 21
-3.969999999999998
 31
0.0
  0
LINE
  5
87E13
330
1F
100
AcDbEntity
  8
1
100
AcDbLine
 10
38.39402783380002
 20
22.36046230749991
 30
0.0
 11
38.29672293520001
 21
23.48989333269995
 31
0.0
  0
LINE
  5
87E14
330
1F
100
AcDbEntity
  8
1
100
AcDbLine
 10
0.5
 20
3.969999999999998
 30
0.0
 11
3.75999999999999
 21
3.969999999999998
 31
0.0
  0
LINE
  5
87E15
330
1F
100
AcDbEntity
  8
1
100
AcDbLine
 10
38.72112911320001
 20
17.40367105239997
 30
0.0
 11
38.08894601010003
 21
18.61466572159993
 31
0.0
  0
LINE
  5
87E16
330
1F
100
AcDbEntity
  8
1
100
AcDbLine
 10
38.70745306619996
 20
18.33208859379995
 30
0.0
 11
40.4759925901
 21
14.82134328419994
 31
0.0
  0
LINE
  5
87E17
330
1F
100
AcDbEntity
  8
1
100
AcDbLine
 10
51.86713502879997
 20
12.87069305739999
 30
0.0
 11
51.86713502879997
 21
8.244897498699982
 31
0.0
  0
LINE
  5
87E18
330
1F
100
AcDbEntity
  8
1
100
AcDbLine
 10
52.18679557699999
 20
13.42111674579999
 30
0.0
 11
52.18679557699999
 21
-18.59999811960001
 31
0.0
  0
LINE
  5
87E19
330
1F
100
AcDbEntity
  8
1
100
AcDbLine
 10
47.4581664639
 20
16.39528756459995
 30
0.0
 11
47.27001522999997
 21
16.39528756459995
 31
0.0
  0
LINE
  5
87E1A
330
1F
100
AcDbEntity
  8
1
100
AcDbLine
 10
45.73504025800001
 20
16.57731755059991
 30
0.0
 11
45.54688902409998
 21
16.57731755059991
 31
0.0
  0
LINE
  5
87E1B
330
1F
100
AcDbEntity
  8
1
100
AcDbLine
 10
45.93479300479995
 20
16.67536103139996
 30
0.0
 11
46.12294423869998
 21
16.67536103139996
 31
0.0
  0
LINE
  5
87E1C
330
1F
100
AcDbEntity
  8
1
100
AcDbLine
 10
48.08996043560004
 20
17.19452430829993
 30
0.0
 11
48.27811166950001
 21
17.19452430829993
 31
0.0
  0
LINE
  5
87E1D
330
1F
100
AcDbEntity
  8
1
100
AcDbLine
 10
48.47650857629999
 20
17.80476348609994
 30
0.0
 11
48.28835734249999
 21
17.80476348609994
 31
0.0
  0
LINE
  5
87E1E
330
1F
100
AcDbEntity
  8
1
100
AcDbLine
 10
48.30366268479997
 20
17.19425267269992
 30
0.0
 11
48.27811167939997
 21
17.19450742099992
 31
0.0
  0
LINE
  5
87E1F
330
1F
100
AcDbEntity
  8
1
100
AcDbLine
 10
13.94809153680002
 20
21.52884493979994
 30
0.0
 11
10.2584785424
 21
22.17942325909993
 31
0.0
  0
LINE
  5
87E20
330
1F
100
AcDbEntity
  8
1
100
AcDbLine
 10
38.70745306619996
 20
18.33208859379995
 30
0.0
 11
38.34628818559999
 21
18.41962104509994
 31
0.0
  0
LINE
  5
87E21
330
1F
100
AcDbEntity
  8
1
100
AcDbLine
 10
38.72112911320001
 20
17.40367105239997
 30
0.0
 11
27.68939167730001
 21
21.49537261899995
 31
0.0
  0
LINE
  5
87E22
330
1F
100
AcDbEntity
  8
1
100
AcDbLine
 10
39.26480691220003
 20
22.00849551559993
 30
0.0
 11
39.88665419429999
 21
22.17827321919994
 31
0.0
  0
LINE
  5
87E23
330
1F
100
AcDbEntity
  8
1
100
AcDbLine
 10
38.5028033773
 20
18.91021738939992
 30
0.0
 11
37.64941945749998
 21
18.91021738939992
 31
0.0
  0
LINE
  5
87E24
330
1F
100
AcDbEntity
  8
1
100
AcDbLine
 10
48.20741432720001
 20
18.93417645079998
 30
0.0
 11
48.01926309339997
 21
18.93417645079998
 31
0.0
  0
LINE
  5
87E25
330
1F
100
AcDbEntity
  8
1
100
AcDbLine
 10
38.47985955200001
 20
18.95663638509998
 30
0.0
 11
37.59923596040001
 21
18.95663638509998
 31
0.0
  0
LINE
  5
87E26
330
1F
100
AcDbEntity
  8
1
100
AcDbLine
 10
47.19566926829998
 20
19.29822591269995
 30
0.0
 11
47.38382050219996
 21
19.29822591269995
 31
0.0
  0
LINE
  5
87E27
330
1F
100
AcDbEntity
  8
1
100
AcDbLine
 10
46.6644351755
 20
19.72664975709999
 30
0.0
 11
46.4762839416
 21
19.72664975709999
 31
0.0
  0
LINE
  5
87E28
330
1F
100
AcDbEntity
  8
1
100
AcDbLine
 10
37.01100878510003
 20
20.09970835919998
 30
0.0
 11
37.91601181789999
 21
20.09970835919998
 31
0.0
  0
LINE
  5
87E29
330
1F
100
AcDbEntity
  8
1
100
AcDbLine
 10
37.2868938713
 20
21.15196065239993
 30
0.0
 11
38.21444452349998
 21
21.15196065239993
 31
0.0
  0
LINE
  5
87E2A
330
1F
100
AcDbEntity
  8
1
100
AcDbLine
 10
39.29223262230001
 20
21.79500769719995
 30
0.0
 11
38.3989095907
 21
21.79500769719995
 31
0.0
  0
LINE
  5
87E2B
330
1F
100
AcDbEntity
  8
1
100
AcDbLine
 10
39.33620128769998
 20
21.82070236249991
 30
0.0
 11
38.44542493189995
 21
21.82070236249991
 31
0.0
  0
LINE
  5
87E2C
330
1F
100
AcDbEntity
  8
1
100
AcDbLine
 10
9.737534009400024
 20
22.22499999999993
 30
0.0
 11
1.5
 21
22.22499999999993
 31
0.0
  0
LINE
  5
87E2D
330
1F
100
AcDbEntity
  8
1
100
AcDbLine
 10
45.20310205610011
 20
18.77933427139995
 30
0.0
 11
45.22865306149999
 21
18.77907952319994
 31
0.0
  0
LINE
  5
87E2E
330
1F
100
AcDbEntity
  8
1
100
AcDbLine
 10
39.26480691220003
 20
22.00849551559993
 30
0.0
 11
38.5772125772
 21
22.09493040399991
 31
0.0
  0
LINE
  5
87E2F
330
1F
100
AcDbEntity
  8
1
100
AcDbLine
 10
39.35123232189996
 20
22.37837875759995
 30
0.0
 11
39.65089242090001
 21
22.29659468359991
 31
0.0
  0
LINE
  5
87E30
330
1F
100
AcDbEntity
  8
1
100
AcDbLine
 10
31.787228905
 20
24.36888106379992
 30
0.0
 11
25.59234432749999
 21
22.70896674409994
 31
0.0
  0
LINE
  5
87E31
330
1F
100
AcDbEntity
  8
1
100
AcDbLine
 10
32.14927886299999
 20
24.41976386709999
 30
0.0
 11
38.97328287400003
 21
24.53887730019996
 31
0.0
  0
LINE
  5
87E32
330
1F
100
AcDbEntity
  8
1
100
AcDbLine
 10
44.68243834659996
 20
24.84495198079992
 30
0.0
 11
44.12987666439995
 21
24.84495198079992
 31
0.0
  0
LINE
  5
87E33
330
1F
100
AcDbEntity
  8
1
100
AcDbLine
 10
45.40567270539999
 20
25.02847440559995
 30
0.0
 11
44.85457377900003
 21
25.02847440559995
 31
0.0
  0
ARC
  5
87E34
330
1F
100
AcDbEntity
  8
1
100
AcDbCircle
 10
17.42105509019997
 20
41.22499999999992
 30
0.0
 40
20.0
100
AcDbArc
 50
259.9999999999998
 51
283.5302911286002
  0
ARC
  5
87E35
330
1F
100
AcDbEntity
  8
1
100
AcDbCircle
 10
17.42105509019997
 20
-41.22500000000004
 30
0.0
 40
20.0
100
AcDbArc
 50
75.00000000000047
 51
100.0000000000001
  0
ARC
  5
87E36
330
1F
100
AcDbEntity
  8
1
100
AcDbCircle
 10
46.18679557700001
 20
-18.60000000000001
 30
0.0
 40
6.0
100
AcDbArc
 50
270.0
 51
0.0
  0
ARC
  5
87E37
330
1F
100
AcDbEntity
  8
1
100
AcDbCircle
 10
9.737534009400024
 20
-19.22500000000001
 30
0.0
 40
3.0
100
AcDbArc
 50
270.0
 51
280.0000000000002
  0
ARC
  5
87E38
330
1F
100
AcDbEntity
  8
1
100
AcDbCircle
 10
9.737534009400024
 20
19.22499999999994
 30
0.0
 40
3.0
100
AcDbArc
 50
79.9999999999998
 51
90.0
  0
ARC
  5
87E39
330
1F
100
AcDbEntity
  8
1
100
AcDbCircle
 10
32.17545747269999
 20
22.91999232439993
 30
0.0
 40
1.5
100
AcDbArc
 50
91.00000000000015
 51
104.9999999999995
  0
ARC
  5
87E3A
330
1F
100
AcDbEntity
  8
1
100
AcDbCircle
 10
32.17545747269999
 20
-22.91999232440002
 30
0.0
 40
1.5
100
AcDbArc
 50
255.0000000000005
 51
268.9999999999998
  0
ARC
  5
87E3B
102
{ACAD_REACTORS
330
87F08
330
87F10
102
}
330
1F
100
AcDbEntity
  8
1
100
AcDbCircle
 10
1.5
 20
20.72499999999992
 30
0.0
 40
1.5
100
AcDbArc
 50
90.0
 51
180.0
  0
ARC
  5
87E3C
330
1F
100
AcDbEntity
  8
1
100
AcDbCircle
 10
1.5
 20
-20.72500000000001
 30
0.0
 40
1.5
100
AcDbArc
 50
180.0
 51
270.0
  0
SPLINE
  5
87E3D
330
1F
100
AcDbEntity
  8
1
100
AcDbSpline
210
0.0
220
0.0
230
1.0
 70
     8
 71
     3
 72
    15
 73
    11
 74
     0
 42
0.000000001
 43
0.0000000001
 40
0.0
 40
0.0
 40
0.0
 40
0.0
 40
0.1246319798
 40
0.2493704956
 40
0.3743240854
 40
0.4994808715
 40
0.6247524623
 40
0.7500038154000001
 40
0.8751023577999998
 40
1.0
 40
1.0
 40
1.0
 40
1.0
 10
45.20310205439995
 20
18.77934792099998
 30
0.0
 10
45.16787054509999
 20
18.77934336369994
 30
0.0
 10
45.09684663679997
 20
18.76773027079991
 30
0.0
 10
45.00179827149999
 20
18.71727495639994
 30
0.0
 10
44.92754733589999
 20
18.63906651939995
 30
0.0
 10
44.88189057529996
 20
18.54123197839993
 30
0.0
 10
44.86949727329998
 20
18.43390350739993
 30
0.0
 10
44.89166373270002
 20
18.32815680879994
 30
0.0
 10
44.94600354080001
 20
18.23499540709994
 30
0.0
 10
45.00028875019999
 20
18.18749189809998
 30
0.0
 10
45.03025616459995
 20
18.16882345809996
 30
0.0
  0
SPLINE
  5
87E3E
330
1F
100
AcDbEntity
  8
1
100
AcDbSpline
210
0.0
220
0.0
230
1.0
 70
     8
 71
     3
 72
    11
 73
     7
 74
     0
 42
0.000000001
 43
0.0000000001
 40
0.0
 40
0.0
 40
0.0
 40
0.0
 40
0.2502957087
 40
0.5003447114
 40
0.7502204848999999
 40
1.0
 40
1.0
 40
1.0
 40
1.0
 10
44.28059656469999
 20
20.49047123819993
 30
0.0
 10
44.43771917349995
 20
20.6402527067999
 30
0.0
 10
44.78113615519997
 20
20.91053088429994
 30
0.0
 10
45.36271407869999
 20
21.21065606969991
 30
0.0
 10
45.99012655949997
 20
21.39527903929992
 30
0.0
 10
46.42459067239999
 20
21.43678850089994
 30
0.0
 10
46.64121901819997
 20
21.43679237839991
 30
0.0
  0
SPLINE
  5
87E3F
330
1F
100
AcDbEntity
  8
1
100
AcDbSpline
210
0.0
220
0.0
230
1.0
 70
     8
 71
     3
 72
    15
 73
    11
 74
     0
 42
0.000000001
 43
0.0000000001
 40
0.0
 40
0.0
 40
0.0
 40
0.0
 40
0.125166986
 40
0.2504123886
 40
0.375675383
 40
0.5008506778
 40
0.6258731463000001
 40
0.7507162053
 40
0.8754020968
 40
1.0
 40
1.0
 40
1.0
 40
1.0
 10
45.29935041369999
 20
17.03941049339993
 30
0.0
 10
45.28435822289998
 20
17.01459221229993
 30
0.0
 10
45.26082621679996
 20
16.96070040329994
 30
0.0
 10
45.24786682479995
 20
16.8736700992999
 30
0.0
 10
45.25795191359999
 20
16.78620234089993
 30
0.0
 10
45.2904404291
 20
16.70443375619995
 30
0.0
 10
45.34306251549999
 20
16.63403399199991
 30
0.0
 10
45.4121950995001
 20
16.57991457659992
 30
0.0
 10
45.49294976149997
 20
16.54584599299994
 30
0.0
 10
45.55098907179996
 20
16.53809829869995
 30
0.0
 10
45.57985229199998
 20
16.53809541899993
 30
0.0
  0
SPLINE
  5
87E40
330
1F
100
AcDbEntity
  8
1
100
AcDbSpline
210
0.0
220
0.0
230
1.0
 70
     8
 71
     3
 72
    11
 73
     7
 74
     0
 42
0.000000001
 43
0.0000000001
 40
0.0
 40
0.0
 40
0.0
 40
0.0
 40
0.2504859563
 40
0.5005933966000004
 40
0.7503892657
 40
1.0
 40
1.0
 40
1.0
 40
1.0
 10
46.8423295655
 20
16.24693718699991
 30
0.0
 10
46.80731922879997
 20
16.31116988619995
 30
0.0
 10
46.7197498527
 20
16.43079502199993
 30
0.0
 10
46.54611164879999
 20
16.56863138929994
 30
0.0
 10
46.34244437089996
 20
16.65557329029994
 30
0.0
 10
46.19584301189997
 20
16.67536416209995
 30
0.0
 10
46.12294424029996
 20
16.67536012689994
 30
0.0
  0
SPLINE
  5
87E41
330
1F
100
AcDbEntity
  8
1
100
AcDbSpline
210
0.0
220
0.0
230
1.0
 70
     8
 71
     3
 72
    11
 73
     7
 74
     0
 42
0.000000001
 43
0.0000000001
 40
0.0
 40
0.0
 40
0.0
 40
0.0
 40
0.2504935785
 40
0.5005896042
 40
0.7503899451999999
 40
1.0
 40
1.0
 40
1.0
 40
1.0
 10
46.8423295655
 20
16.24693718699991
 30
0.0
 10
46.85633647959998
 20
16.22123900799994
 30
0.0
 10
46.89136859520012
 20
16.17337961229994
 30
0.0
 10
46.96083977749998
 20
16.1182419853999
 30
0.0
 10
47.04231699820001
 20
16.08345304689995
 30
0.0
 10
47.10096829110002
 20
16.07554037029999
 30
0.0
 10
47.13013262019996
 20
16.07553870149991
 30
0.0
  0
SPLINE
  5
87E42
330
1F
100
AcDbEntity
  8
1
100
AcDbSpline
210
0.0
220
0.0
230
1.0
 70
     8
 71
     3
 72
    15
 73
    11
 74
     0
 42
0.000000001
 43
0.0000000001
 40
0.0
 40
0.0
 40
0.0
 40
0.0
 40
0.1250209474
 40
0.2501187901000001
 40
0.3752638838
 40
0.5003962751
 40
0.6254685447
 40
0.7504422493999999
 40
0.8752831175
 40
1.0
 40
1.0
 40
1.0
 40
1.0
 10
45.29935041369999
 20
17.03941049339993
 30
0.0
 10
45.32703646249998
 20
17.08524236339993
 30
0.0
 10
45.37360289580003
 20
17.18260357319991
 30
0.0
 10
45.41383651039995
 20
17.33920584459994
 30
0.0
 10
45.42312779169999
 20
17.50073277509997
 30
0.0
 10
45.40107017510003
 20
17.66099147779994
 30
0.0
 10
45.34852427599996
 20
17.8139132469999
 30
0.0
 10
45.26745134969996
 20
17.95369256499994
 30
0.0
 10
45.16100224299997
 20
18.07498682659991
 30
0.0
 10
45.07559344459997
 20
18.14058023749993
 30
0.0
 10
45.03025616459995
 20
18.16882345809996
 30
0.0
  0
SPLINE
  5
87E43
330
1F
100
AcDbEntity
  8
1
100
AcDbSpline
210
0.0
220
0.0
230
1.0
 70
     8
 71
     3
 72
    15
 73
    11
 74
     0
 42
0.000000001
 43
0.0000000001
 40
0.0
 40
0.0
 40
0.0
 40
0.0
 40
0.124687747
 40
0.249398149
 40
0.3742089634
 40
0.4991378462
 40
0.6241979897
 40
0.7493833238
 40
0.8746593125
 40
1.0
 40
1.0
 40
1.0
 40
1.0
 10
45.2286530627
 20
18.77906343189994
 30
0.0
 10
45.28121132259999
 20
18.77906739199994
 30
0.0
 10
45.38662091789997
 20
18.78928179779999
 30
0.0
 10
45.53865285869996
 20
18.83471988359994
 30
0.0
 10
45.6792820243
 20
18.90855203169993
 30
0.0
 10
45.80324153799996
 20
19.00806907339992
 30
0.0
 10
45.90598101470003
 20
19.12957346839988
 30
0.0
 10
45.98369956729999
 20
19.26859992119996
 30
0.0
 10
46.033545426
 20
19.41993670099994
 30
0.0
 10
46.04696606699998
 20
19.52549111099998
 30
0.0
 10
46.04859827700011
 20
19.57829937949995
 30
0.0
  0
SPLINE
  5
87E44
330
1F
100
AcDbEntity
  8
1
100
AcDbSpline
210
0.0
220
0.0
230
1.0
 70
     8
 71
     3
 72
    23
 73
    19
 74
     0
 42
0.000000001
 43
0.0000000001
 40
0.0
 40
0.0
 40
0.0
 40
0.0
 40
0.0624815365
 40
0.125009786
 40
0.1875836344
 40
0.2501907101
 40
0.3128192477
 40
0.3754545861
 40
0.4380816968
 40
0.5006862211
 40
0.5632557804000001
 40
0.6257810618000002
 40
0.6882566418000004
 40
0.7506814691
 40
0.8130589636999998
 40
0.8753967229999998
 40
0.9377058548
 40
1.0
 40
1.0
 40
1.0
 40
1.0
 10
44.28059656469999
 20
20.49047123819993
 30
0.0
 10
44.15704949689995
 20
20.37269658179994
 30
0.0
 10
43.92707558309996
 20
20.11821570849995
 30
0.0
 10
43.64267253179996
 20
19.6897722235999
 30
0.0
 10
43.42455987789999
 20
19.22357340639999
 30
0.0
 10
43.27767778670001
 20
18.73002557319991
 30
0.0
 10
43.20523599000002
 20
18.22003139329992
 30
0.0
 10
43.20884654589997
 20
17.70487800019994
 30
0.0
 10
43.2884267948
 20
17.19596089799997
 30
0.0
 10
43.44222084689995
 20
16.70454043009994
 30
0.0
 10
43.66682921989998
 20
16.24149114099994
 30
0.0
 10
43.9572866475
 20
15.81706220839994
 30
0.0
 10
44.30716966119997
 20
15.44065134499993
 30
0.0
 10
44.70874170260002
 20
15.12059652579998
 30
0.0
 10
45.15310569679996
 20
14.86399095499992
 30
0.0
 10
45.63046454329998
 20
14.67652351489994
 30
0.0
 10
46.13009728119997
 20
14.56235571089992
 30
0.0
 10
46.4710419020001
 20
14.53679151959994
 30
0.0
 10
46.64121901819997
 20
14.53679456569992
 30
0.0
  0
SPLINE
  5
87E45
330
1F
100
AcDbEntity
  8
1
100
AcDbSpline
210
0.0
220
0.0
230
1.0
 70
     8
 71
     3
 72
    11
 73
     7
 74
     0
 42
0.000000001
 43
0.0000000001
 40
0.0
 40
0.0
 40
0.0
 40
0.0
 40
0.2493775058
 40
0.4991131391
 40
0.7493607763
 40
1.0
 40
1.0
 40
1.0
 40
1.0
 10
46.37663212069996
 20
19.89804824269994
 30
0.0
 10
46.3347726888
 20
19.89805063789994
 30
0.0
 10
46.2501057635
 20
19.88152303829991
 30
0.0
 10
46.1424210071
 20
19.81078532999994
 30
0.0
 10
46.0688836426
 20
19.70475995599992
 30
0.0
 10
46.0498980031
 20
19.62035051669994
 30
0.0
 10
46.04859827700011
 20
19.57829937949995
 30
0.0
  0
SPLINE
  5
87E46
330
1F
100
AcDbEntity
  8
1
100
AcDbSpline
210
0.0
220
0.0
230
1.0
 70
     8
 71
     3
 72
     9
 73
     5
 74
     0
 42
0.000000001
 43
0.0000000001
 40
0.0
 40
0.0
 40
0.0
 40
0.0
 40
0.499821115
 40
1.0
 40
1.0
 40
1.0
 40
1.0
 10
47.3838205006
 20
19.29822681729992
 30
0.0
 10
47.45099385499996
 20
19.29823053549997
 30
0.0
 10
47.58591041139999
 20
19.31495484579997
 30
0.0
 10
47.71256605510003
 20
19.36434758289995
 30
0.0
 10
47.77172448289998
 20
19.39626939349998
 30
0.0
  0
SPLINE
  5
87E47
330
1F
100
AcDbEntity
  8
1
100
AcDbSpline
210
0.0
220
0.0
230
1.0
 70
     8
 71
     3
 72
     9
 73
     5
 74
     0
 42
0.000000001
 43
0.0000000001
 40
0.0
 40
0.0
 40
0.0
 40
0.0
 40
0.4998129734
 40
1.0
 40
1.0
 40
1.0
 40
1.0
 10
47.9269124489
 20
19.4354915250999
 30
0.0
 10
47.90003898979995
 20
19.43549420619999
 30
0.0
 10
47.84606276229999
 20
19.42880047079997
 30
0.0
 10
47.79539225099997
 20
19.40904049039994
 30
0.0
 10
47.77172448289998
 20
19.39626939349998
 30
0.0
  0
SPLINE
  5
87E48
330
1F
100
AcDbEntity
  8
1
100
AcDbSpline
210
0.0
220
0.0
230
1.0
 70
     8
 71
     3
 72
    23
 73
    19
 74
     0
 42
0.000000001
 43
0.0000000001
 40
0.0
 40
0.0
 40
0.0
 40
0.0
 40
0.0622941452
 40
0.124603277
 40
0.1869410363
 40
0.2493185309
 40
0.3117433582
 40
0.3742189382
 40
0.4367442196
 40
0.4993137789000003
 40
0.5619183032000003
 40
0.6245454139
 40
0.6871807523000001
 40
0.7498092899
 40
0.8124163656
 40
0.8749902140000001
 40
0.9375184634999998
 40
1.0
 40
1.0
 40
1.0
 40
1.0
 10
46.71157098519997
 20
21.43679237839991
 30
0.0
 10
46.88174810139996
 20
21.43679542449991
 30
0.0
 10
47.22269272209998
 20
21.41123123329994
 30
0.0
 10
47.72232545999999
 20
21.2970634292999
 30
0.0
 10
48.19968430650003
 20
21.10959598919995
 30
0.0
 10
48.6440483007
 20
20.85299041829999
 30
0.0
 10
49.04562034219999
 20
20.53293559909992
 30
0.0
 10
49.39550335589998
 20
20.15652473569993
 30
0.0
 10
49.6859607834
 20
19.73209580309995
 30
0.0
 10
49.91056915639997
 20
19.26904651399994
 30
0.0
 10
50.06436320859997
 20
18.77762604609991
 30
0.0
 10
50.14394345749998
 20
18.26870894399994
 30
0.0
 10
50.14755401330003
 20
17.75355555079997
 30
0.0
 10
50.07511221670002
 20
17.24356137089992
 30
0.0
 10
49.92823012549997
 20
16.75001353769994
 30
0.0
 10
49.7101174715
 20
16.28381472049994
 30
0.0
 10
49.4257144202
 20
15.85537123569993
 30
0.0
 10
49.19574050639996
 20
15.60089036229988
 30
0.0
 10
49.07219343859999
 20
15.48311570589993
 30
0.0
  0
SPLINE
  5
87E49
330
1F
100
AcDbEntity
  8
1
100
AcDbSpline
210
0.0
220
0.0
230
1.0
 70
     8
 71
     3
 72
    11
 73
     7
 74
     0
 42
0.000000001
 43
0.0000000001
 40
0.0
 40
0.0
 40
0.0
 40
0.0
 40
0.2497795151
 40
0.4996552886
 40
0.7497042913
 40
1.0
 40
1.0
 40
1.0
 40
1.0
 10
46.71157098510003
 20
14.53679456569992
 30
0.0
 10
46.9281993309
 20
14.53679844319994
 30
0.0
 10
47.36266344379997
 20
14.57830790479991
 30
0.0
 10
47.99007592469997
 20
14.76293087439998
 30
0.0
 10
48.5716538481
 20
15.06305605989993
 30
0.0
 10
48.91507082979996
 20
15.33333423739994
 30
0.0
 10
49.07219343859999
 20
15.48311570589993
 30
0.0
  0
SPLINE
  5
87E4A
330
1F
100
AcDbEntity
  8
1
100
AcDbSpline
210
0.0
220
0.0
230
1.0
 70
     8
 71
     3
 72
    23
 73
    19
 74
     0
 42
0.000000001
 43
0.0000000001
 40
0.0
 40
0.0
 40
0.0
 40
0.0
 40
0.0624815365
 40
0.125009786
 40
0.1875836344
 40
0.2501907101
 40
0.3128192477
 40
0.3754545861
 40
0.4380816968
 40
0.5006862211
 40
0.5632557804000001
 40
0.6257810618000002
 40
0.6882566418000004
 40
0.7506814691
 40
0.8130589636999998
 40
0.8753967229999998
 40
0.9377058548
 40
1.0
 40
1.0
 40
1.0
 40
1.0
 10
44.35094853169995
 20
20.49047123819993
 30
0.0
 10
44.22740146389997
 20
20.37269658179994
 30
0.0
 10
43.9974275501
 20
20.11821570849995
 30
0.0
 10
43.7130244988
 20
19.6897722235999
 30
0.0
 10
43.49491184479997
 20
19.22357340639999
 30
0.0
 10
43.34802975359997
 20
18.73002557319991
 30
0.0
 10
43.27558795699999
 20
18.22003139329992
 30
0.0
 10
43.27919851279996
 20
17.70487800019994
 30
0.0
 10
43.35877876179996
 20
17.19596089799997
 30
0.0
 10
43.51257281389997
 20
16.70454043009994
 30
0.0
 10
43.73718118689999
 20
16.24149114099994
 30
0.0
 10
44.02763861439999
 20
15.81706220839994
 30
0.0
 10
44.37752162809998
 20
15.44065134499993
 30
0.0
 10
44.77909366959996
 20
15.12059652579998
 30
0.0
 10
45.22345766379999
 20
14.86399095499992
 30
0.0
 10
45.70081651029996
 20
14.67652351489994
 30
0.0
 10
46.20044924819999
 20
14.56235571089992
 30
0.0
 10
46.54139386889997
 20
14.53679151959994
 30
0.0
 10
46.71157098510003
 20
14.53679456569992
 30
0.0
  0
SPLINE
  5
87E4B
330
1F
100
AcDbEntity
  8
1
100
AcDbSpline
210
0.0
220
0.0
230
1.0
 70
     8
 71
     3
 72
    11
 73
     7
 74
     0
 42
0.000000001
 43
0.0000000001
 40
0.0
 40
0.0
 40
0.0
 40
0.0
 40
0.2502957087
 40
0.5003447114
 40
0.7502204848999999
 40
1.0
 40
1.0
 40
1.0
 40
1.0
 10
44.35094853169995
 20
20.49047123819993
 30
0.0
 10
44.50807114049997
 20
20.6402527067999
 30
0.0
 10
44.85148812220002
 20
20.91053088429994
 30
0.0
 10
45.43306604560004
 20
21.21065606969991
 30
0.0
 10
46.06047852650003
 20
21.39527903929992
 30
0.0
 10
46.49494263939994
 20
21.43678850089994
 30
0.0
 10
46.71157098519997
 20
21.43679237839991
 30
0.0
  0
SPLINE
  5
87E4C
330
1F
100
AcDbEntity
  8
1
100
AcDbSpline
210
0.0
220
0.0
230
1.0
 70
     8
 71
     3
 72
    27
 73
    23
 74
     0
 42
0.000000001
 43
0.0000000001
 40
0.0
 40
0.0
 40
0.0
 40
0.0
 40
0.0625074728
 40
0.0938203153
 40
0.1251494236
 40
0.1877681189
 40
0.2504154853
 40
0.2817794735
 40
0.31314113
 40
0.3757697751
 40
0.4383537825000002
 40
0.500877437
 40
0.5633342347000001
 40
0.6257278561000002
 40
0.6880715559999999
 40
0.7192690352
 40
0.7504622803000001
 40
0.8127734918999999
 40
0.8751071954
 40
0.9063274461
 40
0.9375594031
 40
1.0
 40
1.0
 40
1.0
 40
1.0
 10
45.14473172999998
 20
19.69292942629994
 30
0.0
 10
45.03379275010003
 20
19.58717377809991
 30
0.0
 10
44.88238787720002
 20
19.41139678329999
 30
0.0
 10
44.71816928349997
 20
19.15175047459999
 30
0.0
 10
44.57987758319997
 20
18.87700049799993
 30
0.0
 10
44.4584026348
 20
18.51000742679994
 30
0.0
 10
44.41059766680008
 20
18.1263092935999
 30
0.0
 10
44.41748818829998
 20
17.81853970469991
 30
0.0
 10
44.45428644039998
 20
17.51295458269995
 30
0.0
 10
44.55602392250002
 20
17.13999693399999
 30
0.0
 10
44.762497952
 20
16.72534021989992
 30
0.0
 10
45.04547870699997
 20
16.35903269689993
 30
0.0
 10
45.39414696779995
 20
16.05527719439995
 30
0.0
 10
45.7949944143
 20
15.82573709219991
 30
0.0
 10
46.16016516459997
 20
15.70359362989991
 30
0.0
 10
46.4617803558
 20
15.65033954459994
 30
0.0
 10
46.76709889379997
 20
15.62701343269994
 30
0.0
 10
47.15087750909996
 20
15.65459239019992
 30
0.0
 10
47.52180662599996
 20
15.75705247419994
 30
0.0
 10
47.80194297479999
 20
15.88124131339994
 30
0.0
 10
48.06869266750012
 20
16.03238901189991
 30
0.0
 10
48.25121272319996
 20
16.17501501629995
 30
0.0
 10
48.36203301099995
 20
16.28065751789991
 30
0.0
  0
SPLINE
  5
87E4D
330
1F
100
AcDbEntity
  8
1
100
AcDbSpline
210
0.0
220
0.0
230
1.0
 70
     8
 71
     3
 72
    15
 73
    11
 74
     0
 42
0.000000001
 43
0.0000000001
 40
0.0
 40
0.0
 40
0.0
 40
0.0
 40
0.1250209474
 40
0.2501187901000001
 40
0.3752638838
 40
0.5003962751
 40
0.6254685447
 40
0.7504422493999999
 40
0.8752831175
 40
1.0
 40
1.0
 40
1.0
 40
1.0
 10
48.20741432720001
 20
18.93417645079998
 30
0.0
 10
48.17972827849996
 20
18.88834458069988
 30
0.0
 10
48.13316184520012
 20
18.79098337089994
 30
0.0
 10
48.09292823049999
 20
18.63438109949995
 30
0.0
 10
48.08363694920003
 20
18.47285416899991
 30
0.0
 10
48.10569456579997
 20
18.31259546629992
 30
0.0
 10
48.15824046490003
 20
18.15967369709994
 30
0.0
 10
48.23931339119997
 20
18.01989437909994
 30
0.0
 10
48.34576249790003
 20
17.89860011759994
 30
0.0
 10
48.43117129639996
 20
17.83300670659992
 30
0.0
 10
48.47650857629999
 20
17.80476348609994
 30
0.0
  0
SPLINE
  5
87E4E
330
1F
100
AcDbEntity
  8
1
100
AcDbSpline
210
0.0
220
0.0
230
1.0
 70
     8
 71
     3
 72
     9
 73
     5
 74
     0
 42
0.000000001
 43
0.0000000001
 40
0.0
 40
0.0
 40
0.0
 40
0.0
 40
0.5005321124000001
 40
1.0
 40
1.0
 40
1.0
 40
1.0
 10
46.4762839416
 20
19.72664975709999
 30
0.0
 10
46.45596626219999
 20
19.7639261592999
 30
0.0
 10
46.40034547199998
 20
19.83115852139993
 30
0.0
 10
46.32319064939999
 20
19.87196837669999
 30
0.0
 10
46.28262466119998
 20
19.88417832309994
 30
0.0
  0
SPLINE
  5
87E4F
330
1F
100
AcDbEntity
  8
1
100
AcDbSpline
210
0.0
220
0.0
230
1.0
 70
     8
 71
     3
 72
    11
 73
     7
 74
     0
 42
0.000000001
 43
0.0000000001
 40
0.0
 40
0.0
 40
0.0
 40
0.0
 40
0.2496127695
 40
0.4994091955
 40
0.7495097544
 40
1.0
 40
1.0
 40
1.0
 40
1.0
 10
47.19566926699997
 20
19.29823033169994
 30
0.0
 10
47.12276995709999
 20
19.29822918659991
 30
0.0
 10
46.97616613589999
 20
19.31800716989997
 30
0.0
 10
46.77250451569995
 20
19.40496140489998
 30
0.0
 10
46.59886269779994
 20
19.54278981669998
 30
0.0
 10
46.51129485079997
 20
19.66241600749994
 30
0.0
 10
46.4762839416
 20
19.72664975709999
 30
0.0
  0
SPLINE
  5
87E50
330
1F
100
AcDbEntity
  8
1
100
AcDbSpline
210
0.0
220
0.0
230
1.0
 70
     8
 71
     3
 72
    15
 73
    11
 74
     0
 42
0.000000001
 43
0.0000000001
 40
0.0
 40
0.0
 40
0.0
 40
0.0
 40
0.125083882
 40
0.2502676605
 40
0.3754718748
 40
0.5006365208
 40
0.6256963814000001
 40
0.7506124061000003
 40
0.8753736452
 40
1.0
 40
1.0
 40
1.0
 40
1.0
 10
48.01926309339997
 20
18.93417645079998
 30
0.0
 10
48.03220125560001
 20
18.95559446439998
 30
0.0
 10
48.05327187119998
 20
19.00157257099994
 30
0.0
 10
48.06848769260001
 20
19.07575805839993
 30
0.0
 10
48.06663349089998
 20
19.15151774399993
 30
0.0
 10
48.04778580729998
 20
19.22488524809996
 30
0.0
 10
48.01292244039998
 20
19.29207260339991
 30
0.0
 10
47.96383276760002
 20
19.34959808589994
 30
0.0
 10
47.90310454169999
 20
19.39446250729993
 30
0.0
 10
47.8568170308
 20
19.41441776599994
 30
0.0
 10
47.83294621369996
 20
19.42161077399993
 30
0.0
  0
SPLINE
  5
87E51
330
1F
100
AcDbEntity
  8
1
100
AcDbSpline
210
0.0
220
0.0
230
1.0
 70
     8
 71
     3
 72
    15
 73
    11
 74
     0
 42
0.000000001
 43
0.0000000001
 40
0.0
 40
0.0
 40
0.0
 40
0.0
 40
0.1247131547
 40
0.2495590043
 40
0.3745310196
 40
0.499603722
 40
0.6247365494000002
 40
0.7498799493000004
 40
0.8749827895999999
 40
1.0
 40
1.0
 40
1.0
 40
1.0
 10
48.28835734249999
 20
17.80476348609994
 30
0.0
 10
48.24302136619998
 20
17.83300589439999
 30
0.0
 10
48.15761316760002
 20
17.89860071659991
 30
0.0
 10
48.05116011289999
 20
18.01989170459998
 30
0.0
 10
47.97008854739998
 20
18.15967396419998
 30
0.0
 10
47.91754043420001
 20
18.31259477149993
 30
0.0
 10
47.89548522649999
 20
18.47285361389996
 30
0.0
 10
47.90477397029998
 20
18.63438256009994
 30
0.0
 10
47.94501257740003
 20
18.79098369879996
 30
0.0
 10
47.99157784080001
 20
18.88834589869995
 30
0.0
 10
48.01926309339997
 20
18.93417645079998
 30
0.0
  0
SPLINE
  5
87E52
330
1F
100
AcDbEntity
  8
1
100
AcDbSpline
210
0.0
220
0.0
230
1.0
 70
     8
 71
     3
 72
    15
 73
    11
 74
     0
 42
0.000000001
 43
0.0000000001
 40
0.0
 40
0.0
 40
0.0
 40
0.0
 40
0.125166986
 40
0.2504123886
 40
0.375675383
 40
0.5008506778
 40
0.6258731463000001
 40
0.7507162053
 40
0.8754020968
 40
1.0
 40
1.0
 40
1.0
 40
1.0
 10
48.20741432720001
 20
18.93417645079998
 30
0.0
 10
48.22240651799997
 20
18.95899473179994
 30
0.0
 10
48.24593852419997
 20
19.01288654089993
 30
0.0
 10
48.25889791609999
 20
19.09991684489994
 30
0.0
 10
48.24881282729997
 20
19.18738460319993
 30
0.0
 10
48.21632431180002
 20
19.26915318789994
 30
0.0
 10
48.16370222539998
 20
19.33955295209996
 30
0.0
 10
48.0945696414
 20
19.39367236749992
 30
0.0
 10
48.01381497939996
 20
19.4277409510999
 30
0.0
 10
47.95577566909996
 20
19.43548864549997
 30
0.0
 10
47.9269124489
 20
19.4354915250999
 30
0.0
  0
SPLINE
  5
87E53
330
1F
100
AcDbEntity
  8
1
100
AcDbSpline
210
0.0
220
0.0
230
1.0
 70
     8
 71
     3
 72
    15
 73
    11
 74
     0
 42
0.000000001
 43
0.0000000001
 40
0.0
 40
0.0
 40
0.0
 40
0.0
 40
0.1253359462
 40
0.250617198
 40
0.3757998060999999
 40
0.5008600919
 40
0.6257885647000001
 40
0.7505981798
 40
0.8753097770999998
 40
1.0
 40
1.0
 40
1.0
 40
1.0
 10
47.27001522999997
 20
16.39528756459995
 30
0.0
 10
47.27164738009999
 20
16.44809389489991
 30
0.0
 10
47.2850697434
 20
16.55364812249992
 30
0.0
 10
47.33490998039997
 20
16.70498612389993
 30
0.0
 10
47.41263179769997
 20
16.84401235879994
 30
0.0
 10
47.51536812639996
 20
16.96551780649993
 30
0.0
 10
47.63932802410001
 20
17.06503387649994
 30
0.0
 10
47.779956259
 20
17.13886748629994
 30
0.0
 10
47.93198991229997
 20
17.18430538779998
 30
0.0
 10
48.03740109400003
 20
17.19451800309993
 30
0.0
 10
48.08996045639997
 20
17.19452326979991
 30
0.0
  0
SPLINE
  5
87E54
330
1F
100
AcDbEntity
  8
1
100
AcDbSpline
210
0.0
220
0.0
230
1.0
 70
     8
 71
     3
 72
    11
 73
     7
 74
     0
 42
0.000000001
 43
0.0000000001
 40
0.0
 40
0.0
 40
0.0
 40
0.0
 40
0.2504859563
 40
0.5005933966000004
 40
0.7503892657
 40
1.0
 40
1.0
 40
1.0
 40
1.0
 10
46.6644351755
 20
19.72664975709999
 30
0.0
 10
46.6994455122
 20
19.66241705789993
 30
0.0
 10
46.78701488819998
 20
19.54279192209995
 30
0.0
 10
46.96065309220002
 20
19.40495555489994
 30
0.0
 10
47.16432036999999
 20
19.31801365389995
 30
0.0
 10
47.31092172909995
 20
19.29822278209993
 30
0.0
 10
47.3838205006
 20
19.29822681729992
 30
0.0
  0
SPLINE
  5
87E55
330
1F
100
AcDbEntity
  8
1
100
AcDbSpline
210
0.0
220
0.0
230
1.0
 70
     8
 71
     3
 72
     9
 73
     5
 74
     0
 42
0.000000001
 43
0.0000000001
 40
0.0
 40
0.0
 40
0.0
 40
0.0
 40
0.5001875763000001
 40
1.0
 40
1.0
 40
1.0
 40
1.0
 10
45.54688902409998
 20
16.57731755059991
 30
0.0
 10
45.60604843779997
 20
16.60923989319994
 30
0.0
 10
45.73270357889996
 20
16.65863388819991
 30
0.0
 10
45.86762086760002
 20
16.67535555729991
 30
0.0
 10
45.93479300619999
 20
16.67535661239994
 30
0.0
  0
SPLINE
  5
87E56
330
1F
100
AcDbEntity
  8
1
100
AcDbSpline
210
0.0
220
0.0
230
1.0
 70
     8
 71
     3
 72
    15
 73
    11
 74
     0
 42
0.000000001
 43
0.0000000001
 40
0.0
 40
0.0
 40
0.0
 40
0.0
 40
0.1246319798
 40
0.2493704956
 40
0.3743240854
 40
0.4994808715
 40
0.6247524623
 40
0.7500038154000001
 40
0.8751023577999998
 40
1.0
 40
1.0
 40
1.0
 40
1.0
 10
48.30366268650003
 20
17.19423902309991
 30
0.0
 10
48.3388941958
 20
17.19424358049993
 30
0.0
 10
48.40991810409999
 20
17.20585667329993
 30
0.0
 10
48.50496646939999
 20
17.25631198779999
 30
0.0
 10
48.57921740499996
 20
17.33452042469993
 30
0.0
 10
48.6248741656
 20
17.43235496569993
 30
0.0
 10
48.63726746760001
 20
17.53968343679995
 30
0.0
 10
48.6151010082
 20
17.64543013539993
 30
0.0
 10
48.5607612001
 20
17.73859153699994
 30
0.0
 10
48.50647599079998
 20
17.78609504599998
 30
0.0
 10
48.47650857629999
 20
17.80476348609994
 30
0.0
  0
SPLINE
  5
87E57
330
1F
100
AcDbEntity
  8
1
100
AcDbSpline
210
0.0
220
0.0
230
1.0
 70
     8
 71
     3
 72
    15
 73
    11
 74
     0
 42
0.000000001
 43
0.0000000001
 40
0.0
 40
0.0
 40
0.0
 40
0.0
 40
0.1246497633
 40
0.249392428
 40
0.3743526624
 40
0.4995113989
 40
0.6247782701000001
 40
0.750021851
 40
0.875107298
 40
1.0
 40
1.0
 40
1.0
 40
1.0
 10
48.12451325399996
 20
17.19436513139995
 30
0.0
 10
48.15936702649999
 20
17.19533477049995
 30
0.0
 10
48.22930230439996
 20
17.20862962219991
 30
0.0
 10
48.3221853042
 20
17.26063764519991
 30
0.0
 10
48.39416234029996
 20
17.33937017369995
 30
0.0
 10
48.43782327760003
 20
17.4368303226999
 30
0.0
 10
48.448823218
 20
17.54313047069993
 30
0.0
 10
48.4259953015
 20
17.6475306967999
 30
0.0
 10
48.37178093330003
 20
17.73940203239994
 30
0.0
 10
48.31800952529995
 20
17.78629142199995
 30
0.0
 10
48.28835734249999
 20
17.80476348609994
 30
0.0
  0
SPLINE
  5
87E58
330
1F
100
AcDbEntity
  8
1
100
AcDbSpline
210
0.0
220
0.0
230
1.0
 70
     8
 71
     3
 72
    15
 73
    11
 74
     0
 42
0.000000001
 43
0.0000000001
 40
0.0
 40
0.0
 40
0.0
 40
0.0
 40
0.124687747
 40
0.249398149
 40
0.3742089634
 40
0.4991378462
 40
0.6241979897
 40
0.7493833238
 40
0.8746593125
 40
1.0
 40
1.0
 40
1.0
 40
1.0
 10
48.27811167820001
 20
17.19452351219991
 30
0.0
 10
48.22555341830003
 20
17.19451955209996
 30
0.0
 10
48.12014382299999
 20
17.18430514629995
 30
0.0
 10
47.96811188229995
 20
17.13886706049995
 30
0.0
 10
47.8274827166
 20
17.06503491249994
 30
0.0
 10
47.7035232029
 20
16.96551787079997
 30
0.0
 10
47.60078372619996
 20
16.84401347569994
 30
0.0
 10
47.5230651736
 20
16.70498702299994
 30
0.0
 10
47.47321931490001
 20
16.55365024319991
 30
0.0
 10
47.45979867389997
 20
16.44809583319987
 30
0.0
 10
47.4581664639
 20
16.39528756459995
 30
0.0
  0
SPLINE
  5
87E59
330
1F
100
AcDbEntity
  8
1
100
AcDbSpline
210
0.0
220
0.0
230
1.0
 70
     8
 71
     3
 72
    11
 73
     7
 74
     0
 42
0.000000001
 43
0.0000000001
 40
0.0
 40
0.0
 40
0.0
 40
0.0
 40
0.2504935785
 40
0.5005896042
 40
0.7503899451999999
 40
1.0
 40
1.0
 40
1.0
 40
1.0
 10
46.6644351755
 20
19.72664975709999
 30
0.0
 10
46.65042826139996
 20
19.75234793619998
 30
0.0
 10
46.61539614569996
 20
19.80020733179994
 30
0.0
 10
46.54592496340007
 20
19.85534495869998
 30
0.0
 10
46.46444774269999
 20
19.89013389729992
 30
0.0
 10
46.40579644979999
 20
19.89804657379994
 30
0.0
 10
46.37663212069996
 20
19.89804824269994
 30
0.0
  0
SPLINE
  5
87E5A
330
1F
100
AcDbEntity
  8
1
100
AcDbSpline
210
0.0
220
0.0
230
1.0
 70
     8
 71
     3
 72
    11
 73
     7
 74
     0
 42
0.000000001
 43
0.0000000001
 40
0.0
 40
0.0
 40
0.0
 40
0.0
 40
0.2493775058
 40
0.4991131391
 40
0.7493607763
 40
1.0
 40
1.0
 40
1.0
 40
1.0
 10
47.13013262019996
 20
16.07553870149991
 30
0.0
 10
47.1719920521
 20
16.07553630629992
 30
0.0
 10
47.25665897739999
 20
16.09206390589993
 30
0.0
 10
47.36434373380002
 20
16.16280161419992
 30
0.0
 10
47.43788109830002
 20
16.26882698809994
 30
0.0
 10
47.45686673779995
 20
16.35323642749992
 30
0.0
 10
47.4581664639
 20
16.39528756459995
 30
0.0
  0
SPLINE
  5
87E5B
330
1F
100
AcDbEntity
  8
1
100
AcDbSpline
210
0.0
220
0.0
230
1.0
 70
     8
 71
     3
 72
    11
 73
     7
 74
     0
 42
0.000000001
 43
0.0000000001
 40
0.0
 40
0.0
 40
0.0
 40
0.0
 40
0.2494335363
 40
0.4992645071
 40
0.7494786777
 40
1.0
 40
1.0
 40
1.0
 40
1.0
 10
47.03610709499999
 20
16.08940339269992
 30
0.0
 10
47.0687141435
 20
16.09921540109992
 30
0.0
 10
47.13131204970001
 20
16.12936517799994
 30
0.0
 10
47.20644662409997
 20
16.20117716859994
 30
0.0
 10
47.25610755239999
 20
16.29263906979993
 30
0.0
 10
47.26895867749997
 20
16.36110402999993
 30
0.0
 10
47.27001522999997
 20
16.39528756459995
 30
0.0
  0
SPLINE
  5
87E5C
330
1F
100
AcDbEntity
  8
1
100
AcDbSpline
210
0.0
220
0.0
230
1.0
 70
     8
 71
     3
 72
     9
 73
     5
 74
     0
 42
0.000000001
 43
0.0000000001
 40
0.0
 40
0.0
 40
0.0
 40
0.0
 40
0.499821115
 40
1.0
 40
1.0
 40
1.0
 40
1.0
 10
46.12294424029996
 20
16.67536012689994
 30
0.0
 10
46.05577088599996
 20
16.67535640869994
 30
0.0
 10
45.9208543296
 20
16.65863209829992
 30
0.0
 10
45.79419868589996
 20
16.60923936119991
 30
0.0
 10
45.73504025800001
 20
16.57731755059991
 30
0.0
  0
SPLINE
  5
87E5D
330
1F
100
AcDbEntity
  8
1
100
AcDbSpline
210
0.0
220
0.0
230
1.0
 70
     8
 71
     3
 72
    27
 73
    23
 74
     0
 42
0.000000001
 43
0.0000000001
 40
0.0
 40
0.0
 40
0.0
 40
0.0
 40
0.0624405969
 40
0.0936725539
 40
0.1248928046
 40
0.1872265081
 40
0.2495377197
 40
0.2807309648
 40
0.3119284439999999
 40
0.3742721439
 40
0.4366657653
 40
0.499122563
 40
0.5616462175
 40
0.6242302249
 40
0.68685887
 40
0.7182205265000004
 40
0.7495845147
 40
0.8122318810999999
 40
0.8748505763999999
 40
0.9061796847
 40
0.9374925272
 40
1.0
 40
1.0
 40
1.0
 40
1.0
 10
45.14473172999998
 20
19.69292942629994
 30
0.0
 10
45.25555201769996
 20
19.79857192779993
 30
0.0
 10
45.43807207339996
 20
19.94119793219995
 30
0.0
 10
45.70482176609999
 20
20.09234563069994
 30
0.0
 10
45.98495811490001
 20
20.21653446999991
 30
0.0
 10
46.35588723179996
 20
20.31899455399993
 30
0.0
 10
46.73966584709996
 20
20.34657351149994
 30
0.0
 10
47.04498438509999
 20
20.32324739949993
 30
0.0
 10
47.34659957639997
 20
20.26999331419998
 30
0.0
 10
47.71177032659998
 20
20.14784985199995
 30
0.0
 10
48.11261777310001
 20
19.91830974969996
 30
0.0
 10
48.46128603389996
 20
19.61455424729992
 30
0.0
 10
48.74426678889996
 20
19.24824672429991
 30
0.0
 10
48.9507408184
 20
18.83359001009998
 30
0.0
 10
49.05247830049997
 20
18.46063236149992
 30
0.0
 10
49.08927655260001
 20
18.15504723949995
 30
0.0
 10
49.09616707409998
 20
17.84727765059996
 30
0.0
 10
49.0483621061
 20
17.46357951729992
 30
0.0
 10
48.92688715769999
 20
17.09658644619992
 30
0.0
 10
48.78859545740003
 20
16.82183646959994
 30
0.0
 10
48.62437686369998
 20
16.56219016089991
 30
0.0
 10
48.47297199089997
 20
16.38641316599998
 30
0.0
 10
48.36203301099995
 20
16.28065751789991
 30
0.0
  0
SPLINE
  5
87E5E
330
1F
100
AcDbEntity
  8
1
100
AcDbSpline
210
0.0
220
0.0
230
1.0
 70
     8
 71
     3
 72
     9
 73
     5
 74
     0
 42
0.000000001
 43
0.0000000001
 40
0.0
 40
0.0
 40
0.0
 40
0.0
 40
0.4998129734
 40
1.0
 40
1.0
 40
1.0
 40
1.0
 10
45.57985229199998
 20
16.53809541899993
 30
0.0
 10
45.60672575119999
 20
16.53809273789994
 30
0.0
 10
45.66070197860002
 20
16.54478647339994
 30
0.0
 10
45.7113724899
 20
16.56454645379995
 30
0.0
 10
45.73504025800001
 20
16.57731755059991
 30
0.0
  0
SPLINE
  5
87E5F
330
1F
100
AcDbEntity
  8
1
100
AcDbSpline
210
0.0
220
0.0
230
1.0
 70
     8
 71
     3
 72
     8
 73
     4
 74
     0
 42
0.000000001
 43
0.0000000001
 40
0.0
 40
0.0
 40
0.0
 40
0.0
 40
1.0
 40
1.0
 40
1.0
 40
1.0
 10
45.48565519069994
 20
16.55190761979993
 30
0.0
 10
45.50681803339997
 20
16.55827117709995
 30
0.0
 10
45.52744083279995
 20
16.56682333189991
 30
0.0
 10
45.54688902409998
 20
16.57731755059991
 30
0.0
  0
SPLINE
  5
87E60
330
1F
100
AcDbEntity
  8
1
100
AcDbSpline
210
0.0
220
0.0
230
1.0
 70
     8
 71
     3
 72
     9
 73
     5
 74
     0
 42
0.000000001
 43
0.0000000001
 40
0.0
 40
0.0
 40
0.0
 40
0.0
 40
0.2522341359
 40
1.0
 40
1.0
 40
1.0
 40
1.0
 10
53.97499999999998
 20
23.97110906259991
 30
0.0
 10
53.97410485589997
 20
23.86342046399997
 30
0.0
 10
53.96973803179999
 20
23.43648868109989
 30
0.0
 10
53.96206691089999
 20
23.00959020979994
 30
0.0
 10
53.95441085760002
 20
22.69042055529992
 30
0.0
  0
SPLINE
  5
87E61
102
{ACAD_REACTORS
330
87F14
102
}
330
1F
100
AcDbEntity
  8
1
100
AcDbSpline
210
0.0
220
0.0
230
1.0
 70
     8
 71
     3
 72
    15
 73
    11
 74
     0
 42
0.000000001
 43
0.0000000001
 40
0.0
 40
0.0
 40
0.0
 40
0.0
 40
0.1258924535
 40
0.2515401712
 40
0.3767876565999999
 40
0.5015666941
 40
0.6260387418
 40
0.7504306982
 40
0.8750014558
 40
1.0
 40
1.0
 40
1.0
 40
1.0
 10
53.97499999999998
 20
23.97110906259991
 30
0.0
 10
53.9754176929
 20
24.02135880989995
 30
0.0
 10
53.96679705290002
 20
24.12210093939999
 30
0.0
 10
53.9257756785
 20
24.26768626039991
 30
0.0
 10
53.85842813699999
 20
24.40267149959995
 30
0.0
 10
53.76721760179997
 20
24.52223490819989
 30
0.0
 10
53.65527120989998
 20
24.62215340609994
 30
0.0
 10
53.52639670570001
 20
24.69888905449997
 30
0.0
 10
53.38507971560002
 20
24.74964026439996
 30
0.0
 10
53.28589068560003
 20
24.76483325579996
 30
0.0
 10
53.23607515029994
 20
24.76764224179996
 30
0.0
  0
SPLINE
  5
87E62
330
1F
100
AcDbEntity
  8
1
100
AcDbSpline
210
0.0
220
0.0
230
1.0
 70
     8
 71
     3
 72
     9
 73
     5
 74
     0
 42
0.000000001
 43
0.0000000001
 40
0.0
 40
0.0
 40
0.0
 40
0.0
 40
0.2501259225
 40
1.0
 40
1.0
 40
1.0
 40
1.0
 10
51.9538434036
 20
24.83900881629991
 30
0.0
 10
52.06075414179998
 20
24.83313576889995
 30
0.0
 10
52.4881775293
 20
24.80957767169993
 30
0.0
 10
52.91558407869998
 20
24.78571401199995
 30
0.0
 10
53.23607515029994
 20
24.76764224179996
 30
0.0
  0
SPLINE
  5
87E63
330
1F
100
AcDbEntity
  8
1
100
AcDbSpline
210
0.0
220
0.0
230
1.0
 70
     8
 71
     3
 72
     9
 73
     5
 74
     0
 42
0.000000001
 43
0.0000000001
 40
0.0
 40
0.0
 40
0.0
 40
0.0
 40
0.2480569001
 40
1.0
 40
1.0
 40
1.0
 40
1.0
 10
45.45120954389996
 20
25.02781848999993
 30
0.0
 10
45.98448987830001
 20
25.01246934169998
 30
0.0
 10
48.13432254550001
 20
24.95066076109994
 30
0.0
 10
50.2841387535
 20
24.88828084439999
 30
0.0
 10
51.90067432529996
 20
24.84124195189993
 30
0.0
  0
SPLINE
  5
87E64
330
1F
100
AcDbEntity
  8
1
100
AcDbSpline
210
0.0
220
0.0
230
1.0
 70
     8
 71
     3
 72
    11
 73
     7
 74
     0
 42
0.000000001
 43
0.0000000001
 40
0.0
 40
0.0
 40
0.0
 40
0.0
 40
0.1243927804
 40
0.2489616172
 40
0.4986709456
 40
1.0
 40
1.0
 40
1.0
 40
1.0
 10
44.12987666439995
 20
24.84495198079992
 30
0.0
 10
44.04289495450011
 20
24.79894153409994
 30
0.0
 10
43.868680137
 20
24.70709828299995
 30
0.0
 10
43.51993426309998
 20
24.52274418179991
 30
0.0
 10
42.9076945942
 20
24.19881922499995
 30
0.0
 10
42.38284727790001
 20
23.9204266524999
 30
0.0
 10
42.03260965849993
 20
23.73439691649993
 30
0.0
  0
LINE
  5
87E65
330
1F
100
AcDbEntity
  8
1
100
AcDbLine
 10
38.88531855260001
 20
22.05620042309995
 30
0.0
 11
38.44542493189995
 21
21.82070236249991
 31
0.0
  0
SPLINE
  5
87E66
330
1F
100
AcDbEntity
  8
1
100
AcDbSpline
210
0.0
220
0.0
230
1.0
 70
     8
 71
     3
 72
     9
 73
     5
 74
     0
 42
0.000000001
 43
0.0000000001
 40
0.0
 40
0.0
 40
0.0
 40
0.0
 40
0.2498038891
 40
1.0
 40
1.0
 40
1.0
 40
1.0
 10
38.3989095907
 20
21.79500769719995
 30
0.0
 10
38.30596726979998
 20
21.74206629049999
 30
0.0
 10
37.93425460389996
 20
21.52952327289991
 30
0.0
 10
37.56391413109999
 20
21.31458003169992
 30
0.0
 10
37.2868938713
 20
21.15196065239993
 30
0.0
  0
SPLINE
  5
87E67
330
1F
100
AcDbEntity
  8
1
100
AcDbSpline
210
0.0
220
0.0
230
1.0
 70
     8
 71
     3
 72
     9
 73
     5
 74
     0
 42
0.000000001
 43
0.0000000001
 40
0.0
 40
0.0
 40
0.0
 40
0.0
 40
0.5004301092
 40
1.0
 40
1.0
 40
1.0
 40
1.0
 10
37.2868938713
 20
21.15196065239993
 30
0.0
 10
37.242977525
 20
21.12618041179992
 30
0.0
 10
37.16006721840003
 20
21.06591592869998
 30
0.0
 10
37.0905212711
 20
20.99063036039993
 30
0.0
 10
37.05981239510001
 20
20.95011711019994
 30
0.0
  0
SPLINE
  5
87E68
330
1F
100
AcDbEntity
  8
1
100
AcDbSpline
210
0.0
220
0.0
230
1.0
 70
     8
 71
     3
 72
     9
 73
     5
 74
     0
 42
0.000000001
 43
0.0000000001
 40
0.0
 40
0.0
 40
0.0
 40
0.0
 40
0.2515004559
 40
1.0
 40
1.0
 40
1.0
 40
1.0
 10
37.02202458450003
 20
20.03453734589994
 30
0.0
 10
37.06762734779996
 20
19.94607292709995
 30
0.0
 10
37.24950027889999
 20
19.59461026729993
 30
0.0
 10
37.43358906779999
 20
19.24429404599993
 30
0.0
 10
37.57264312970001
 20
18.98275747989993
 30
0.0
  0
SPLINE
  5
87E69
330
1F
100
AcDbEntity
  8
1
100
AcDbSpline
210
0.0
220
0.0
230
1.0
 70
     8
 71
     3
 72
     9
 73
     5
 74
     0
 42
0.000000001
 43
0.0000000001
 40
0.0
 40
0.0
 40
0.0
 40
0.0
 40
0.247868202
 40
1.0
 40
1.0
 40
1.0
 40
1.0
 10
50.28322841720002
 20
10.16473521479999
 30
0.0
 10
50.2600984477
 20
10.12773095459998
 30
0.0
 10
50.16660198470002
 20
9.978554004999992
 30
0.0
 10
50.0723891212
 20
9.82982615649999
 30
0.0
 10
50.00114290419999
 20
9.718210292399987
 30
0.0
  0
SPLINE
  5
87E6A
330
1F
100
AcDbEntity
  8
1
100
AcDbSpline
210
0.0
220
0.0
230
1.0
 70
     8
 71
     3
 72
    16
 73
    12
 74
     0
 42
0.000000001
 43
0.0000000001
 40
0.0
 40
0.0
 40
0.0
 40
0.0
 40
0.0305927372
 40
0.0612266983
 40
0.1226682936
 40
0.1843161348
 40
0.2461555142
 40
0.3703661929
 40
0.495228143
 40
0.7466478075000002
 40
1.0
 40
1.0
 40
1.0
 40
1.0
 10
53.42988868449999
 20
15.57763485249992
 30
0.0
 10
53.39832461099998
 20
15.52274145499992
 30
0.0
 10
53.33545583050001
 20
15.41270741499991
 30
0.0
 10
53.20909295959999
 20
15.19248530059992
 30
0.0
 10
53.05062557240002
 20
14.91657646869994
 30
0.0
 10
52.85965319209999
 20
14.58485243659993
 30
0.0
 10
52.6034947581
 20
14.14074440119995
 30
0.0
 10
52.28127573220003
 20
13.58369381539991
 30
0.0
 10
51.7612097225
 20
12.68777395859997
 30
0.0
 10
51.10457857650001
 20
11.5620601368
 30
0.0
 10
50.57585779849997
 20
10.66093438549998
 30
0.0
 10
50.31001895799995
 20
10.20892107489999
 30
0.0
  0
SPLINE
  5
87E6B
330
1F
100
AcDbEntity
  8
1
100
AcDbSpline
210
0.0
220
0.0
230
1.0
 70
     8
 71
     3
 72
    10
 73
     6
 74
     0
 42
0.000000001
 43
0.0000000001
 40
0.0
 40
0.0
 40
0.0
 40
0.0
 40
0.2505092191
 40
0.5018287925
 40
1.0
 40
1.0
 40
1.0
 40
1.0
 10
44.85457283770002
 20
25.02847395019991
 30
0.0
 10
44.7916209577
 20
25.02847325259998
 30
0.0
 10
44.66533634039996
 20
25.02041144619997
 30
0.0
 10
44.4181538679
 20
24.97276025189999
 30
0.0
 10
44.2405368881
 20
24.90348757799997
 30
0.0
 10
44.12987666439995
 20
24.84495198079992
 30
0.0
  0
SPLINE
  5
87E6C
330
1F
100
AcDbEntity
  8
1
100
AcDbSpline
210
0.0
220
0.0
230
1.0
 70
     8
 71
     3
 72
    19
 73
    15
 74
     0
 42
0.000000001
 43
0.0000000001
 40
0.0
 40
0.0
 40
0.0
 40
0.0
 40
0.1285278102
 40
0.1921761412
 40
0.2551174715
 40
0.2862537972
 40
0.3171555476
 40
0.378871176
 40
0.4406651169
 40
0.5025328695
 40
0.6264851799
 40
0.7507192069
 40
0.8752268375999998
 40
1.0
 40
1.0
 40
1.0
 40
1.0
 10
53.6423000706
 20
16.33010775379991
 30
0.0
 10
53.6490217419
 20
16.60060826039991
 30
0.0
 10
53.66156748449999
 20
17.00500770039994
 30
0.0
 10
53.68329219639999
 20
17.5416583067
 30
0.0
 10
53.69886684339999
 20
17.87334916429991
 30
0.0
 10
53.71248323110002
 20
18.13611083259994
 30
0.0
 10
53.72694997279997
 20
18.39624241459997
 30
0.0
 10
53.74501130479997
 20
18.72081559869993
 30
0.0
 10
53.7664472345
 20
19.11049332889999
 30
0.0
 10
53.7948615076
 20
19.63100934509994
 30
0.0
 10
53.82998111619999
 20
20.28280738619995
 30
0.0
 10
53.8714817565
 20
21.06632557489994
 30
0.0
 10
53.91235441860001
 20
21.85160722079992
 30
0.0
 10
53.93915995799996
 20
22.37572228719996
 30
0.0
 10
53.9524547229
 20
22.63806514399995
 30
0.0
  0
SPLINE
  5
87E6D
330
1F
100
AcDbEntity
  8
1
100
AcDbSpline
210
0.0
220
0.0
230
1.0
 70
     8
 71
     3
 72
     8
 73
     4
 74
     0
 42
0.000000001
 43
0.0000000001
 40
0.0
 40
0.0
 40
0.0
 40
0.0
 40
1.0
 40
1.0
 40
1.0
 40
1.0
 10
53.95441085760002
 20
22.69042055529992
 30
0.0
 10
53.95399206240004
 20
22.67296159689994
 30
0.0
 10
53.95333861189996
 20
22.65550674249994
 30
0.0
 10
53.9524547229
 20
22.63806514399995
 30
0.0
  0
SPLINE
  5
87E6E
330
1F
100
AcDbEntity
  8
1
100
AcDbSpline
210
0.0
220
0.0
230
1.0
 70
     8
 71
     3
 72
     8
 73
     4
 74
     0
 42
0.000000001
 43
0.0000000001
 40
0.0
 40
0.0
 40
0.0
 40
0.0
 40
1.0
 40
1.0
 40
1.0
 40
1.0
 10
51.9538434036
 20
24.83900881629991
 30
0.0
 10
51.93613145719996
 20
24.83998180649992
 30
0.0
 10
51.91840547159997
 20
24.84072600069993
 30
0.0
 10
51.90067432529996
 20
24.84124195189993
 30
0.0
  0
SPLINE
  5
87E6F
330
1F
100
AcDbEntity
  8
1
100
AcDbSpline
210
0.0
220
0.0
230
1.0
 70
     8
 71
     3
 72
     8
 73
     4
 74
     0
 42
0.000000001
 43
0.0000000001
 40
0.0
 40
0.0
 40
0.0
 40
0.0
 40
1.0
 40
1.0
 40
1.0
 40
1.0
 10
50.28322841720002
 20
10.16473521479999
 30
0.0
 10
50.29235799200002
 20
10.17934107769999
 30
0.0
 10
50.30128708740001
 20
10.19407402789998
 30
0.0
 10
50.31001895799995
 20
10.20892107489999
 30
0.0
  0
SPLINE
  5
87E70
330
1F
100
AcDbEntity
  8
1
100
AcDbSpline
210
0.0
220
0.0
230
1.0
 70
     8
 71
     3
 72
     8
 73
     4
 74
     0
 42
0.000000001
 43
0.0000000001
 40
0.0
 40
0.0
 40
0.0
 40
0.0
 40
1.0
 40
1.0
 40
1.0
 40
1.0
 10
38.44542493189995
 20
21.82070236249991
 30
0.0
 10
38.4298099057
 20
21.81233953869993
 30
0.0
 10
38.41430116650001
 20
21.80377498069994
 30
0.0
 10
38.3989095907
 20
21.79500769719995
 30
0.0
  0
SPLINE
  5
87E71
330
1F
100
AcDbEntity
  8
1
100
AcDbSpline
210
0.0
220
0.0
230
1.0
 70
     8
 71
     3
 72
    10
 73
     6
 74
     0
 42
0.000000001
 43
0.0000000001
 40
0.0
 40
0.0
 40
0.0
 40
0.0
 40
0.4913957237
 40
0.7453944948000001
 40
1.0
 40
1.0
 40
1.0
 40
1.0
 10
53.42988868449999
 20
15.57763485249992
 30
0.0
 10
53.49428060279997
 20
15.68961948509992
 30
0.0
 10
53.5709976993
 20
15.87261748129995
 30
0.0
 10
53.62860109029998
 20
16.1295390412999
 30
0.0
 10
53.64063742729998
 20
16.26319792639995
 30
0.0
 10
53.6423000706
 20
16.33010775379991
 30
0.0
  0
SPLINE
  5
87E72
330
1F
100
AcDbEntity
  8
1
100
AcDbSpline
210
0.0
220
0.0
230
1.0
 70
     8
 71
     3
 72
     8
 73
     4
 74
     0
 42
0.000000001
 43
0.0000000001
 40
0.0
 40
0.0
 40
0.0
 40
0.0
 40
1.0
 40
1.0
 40
1.0
 40
1.0
 10
45.45120954389996
 20
25.02781848999993
 30
0.0
 10
45.43603534539999
 20
25.02825524159995
 30
0.0
 10
45.4208532983
 20
25.02847419289995
 30
0.0
 10
45.40567281569996
 20
25.02847412389997
 30
0.0
  0
SPLINE
  5
87E73
330
1F
100
AcDbEntity
  8
1
100
AcDbSpline
210
0.0
220
0.0
230
1.0
 70
     8
 71
     3
 72
    15
 73
    11
 74
     0
 42
0.000000001
 43
0.0000000001
 40
0.0
 40
0.0
 40
0.0
 40
0.0
 40
0.1307097702
 40
0.2579501229
 40
0.3197389433
 40
0.3810848311
 40
0.5040899717000002
 40
0.6274928586000002
 40
0.7512842554000001
 40
1.0
 40
1.0
 40
1.0
 40
1.0
 10
44.68243834659996
 20
24.84495198079992
 30
0.0
 10
44.44793257389996
 20
24.71599748099996
 30
0.0
 10
43.98591723619996
 20
24.46010613999995
 30
0.0
 10
43.41513155470001
 20
24.13950974599996
 30
0.0
 10
42.96961323429996
 20
23.88592146119994
 30
0.0
 10
42.53182489609999
 20
23.63628384589994
 30
0.0
 10
41.98424474880001
 20
23.32451420259994
 30
0.0
 10
41.32541900499997
 20
22.94972626699992
 30
0.0
 10
40.44262299470001
 20
22.44810794269991
 30
0.0
 10
39.77924412979998
 20
22.07176882279994
 30
0.0
 10
39.33620128769998
 20
21.82070236249991
 30
0.0
  0
SPLINE
  5
87E74
330
1F
100
AcDbEntity
  8
1
100
AcDbSpline
210
0.0
220
0.0
230
1.0
 70
     8
 71
     3
 72
     9
 73
     5
 74
     0
 42
0.000000001
 43
0.0000000001
 40
0.0
 40
0.0
 40
0.0
 40
0.0
 40
0.2535458222
 40
1.0
 40
1.0
 40
1.0
 40
1.0
 10
38.21444452349998
 20
21.15196065239993
 30
0.0
 10
38.30575261099996
 20
21.20594031899994
 30
0.0
 10
38.66566703080004
 20
21.4191946394999
 30
0.0
 10
39.0247277786
 20
21.63389019899994
 30
0.0
 10
39.29223262230001
 20
21.79500769719995
 30
0.0
  0
SPLINE
  5
87E75
330
1F
100
AcDbEntity
  8
1
100
AcDbSpline
210
0.0
220
0.0
230
1.0
 70
     8
 71
     3
 72
    15
 73
    11
 74
     0
 42
0.000000001
 43
0.0000000001
 40
0.0
 40
0.0
 40
0.0
 40
0.0
 40
0.1239252112
 40
0.2482162967
 40
0.3727394318
 40
0.4974826061
 40
0.6225706944000004
 40
0.7480585612000003
 40
0.8739133854
 40
1.0
 40
1.0
 40
1.0
 40
1.0
 10
38.21444452349998
 20
21.15196065239993
 30
0.0
 10
38.17167433160001
 20
21.12667569949991
 30
0.0
 10
38.09066310520002
 20
21.0676547235999
 30
0.0
 10
37.98811999510004
 20
20.95776404989994
 30
0.0
 10
37.9080112619
 20
20.83013265889999
 30
0.0
 10
37.85335619130002
 20
20.6893857676
 30
0.0
 10
37.82595923000001
 20
20.54052531699991
 30
0.0
 10
37.82675293270003
 20
20.38871608329994
 30
0.0
 10
37.85568667800001
 20
20.23933860819992
 30
0.0
 10
37.89312394489999
 20
20.14478191749994
 30
0.0
 10
37.91601181789999
 20
20.09970835919998
 30
0.0
  0
SPLINE
  5
87E76
330
1F
100
AcDbEntity
  8
1
100
AcDbSpline
210
0.0
220
0.0
230
1.0
 70
     8
 71
     3
 72
     9
 73
     5
 74
     0
 42
0.000000001
 43
0.0000000001
 40
0.0
 40
0.0
 40
0.0
 40
0.0
 40
0.2466164488
 40
1.0
 40
1.0
 40
1.0
 40
1.0
 10
38.47985955200001
 20
18.95663638509998
 30
0.0
 10
38.4346347002
 20
19.05115201969995
 30
0.0
 10
38.25007153909998
 20
19.43383513199991
 30
0.0
 10
38.0609339135
 20
19.81431030019989
 30
0.0
 10
37.91601181789999
 20
20.09970835919998
 30
0.0
  0
SPLINE
  5
87E77
330
1F
100
AcDbEntity
  8
1
100
AcDbSpline
210
0.0
220
0.0
230
1.0
 70
     8
 71
     3
 72
     9
 73
     5
 74
     0
 42
0.000000001
 43
0.0000000001
 40
0.0
 40
0.0
 40
0.0
 40
0.0
 40
0.2467400614
 40
1.0
 40
1.0
 40
1.0
 40
1.0
 10
41.05596253809999
 20
13.84915546869996
 30
0.0
 10
40.84837017829999
 20
14.26661285019995
 30
0.0
 10
40.00416439660003
 20
15.95707934349993
 30
0.0
 10
39.14997092059998
 20
17.64254525649997
 30
0.0
 10
38.5028033773
 20
18.91021738939992
 30
0.0
  0
LINE
  5
87E78
330
1F
100
AcDbEntity
  8
1
100
AcDbLine
 10
46.18767394229997
 20
12.11000871149998
 30
0.0
 11
46.16323163849997
 21
12.1122466283
 31
0.0
  0
SPLINE
  5
87E79
330
1F
100
AcDbEntity
  8
1
100
AcDbSpline
210
0.0
220
0.0
230
1.0
 70
     8
 71
     3
 72
     9
 73
     5
 74
     0
 42
0.000000001
 43
0.0000000001
 40
0.0
 40
0.0
 40
0.0
 40
0.0
 40
0.4994823716
 40
1.0
 40
1.0
 40
1.0
 40
1.0
 10
45.40567281569996
 20
25.02847412389997
 30
0.0
 10
45.28044289449996
 20
25.02847355479993
 30
0.0
 10
45.02862076409996
 20
24.99846616739997
 30
0.0
 10
44.79239891290002
 20
24.90541919089992
 30
0.0
 10
44.68243834659996
 20
24.84495198079992
 30
0.0
  0
SPLINE
  5
87E7A
330
1F
100
AcDbEntity
  8
1
100
AcDbSpline
210
0.0
220
0.0
230
1.0
 70
     8
 71
     3
 72
     8
 73
     4
 74
     0
 42
0.000000001
 43
0.0000000001
 40
0.0
 40
0.0
 40
0.0
 40
0.0
 40
1.0
 40
1.0
 40
1.0
 40
1.0
 10
38.47985955200001
 20
18.95663638509998
 30
0.0
 10
38.48730934960001
 20
18.94106701729993
 30
0.0
 10
38.49495544689997
 20
18.92558991969993
 30
0.0
 10
38.5028033773
 20
18.91021738939992
 30
0.0
  0
SPLINE
  5
87E7B
330
1F
100
AcDbEntity
  8
1
100
AcDbSpline
210
0.0
220
0.0
230
1.0
 70
     8
 71
     3
 72
     8
 73
     4
 74
     0
 42
0.000000001
 43
0.0000000001
 40
0.0
 40
0.0
 40
0.0
 40
0.0
 40
1.0
 40
1.0
 40
1.0
 40
1.0
 10
39.29223262230001
 20
21.79500769719995
 30
0.0
 10
39.30677409580004
 20
21.80376599029998
 30
0.0
 10
39.32143249220003
 20
21.81233308339992
 30
0.0
 10
39.33620128769998
 20
21.82070236249991
 30
0.0
  0
SPLINE
  5
87E7C
330
1F
100
AcDbEntity
  8
1
100
AcDbSpline
210
0.0
220
0.0
230
1.0
 70
     8
 71
     3
 72
     9
 73
     5
 74
     0
 42
0.000000001
 43
0.0000000001
 40
0.0
 40
0.0
 40
0.0
 40
0.0
 40
0.2519247598
 40
1.0
 40
1.0
 40
1.0
 40
1.0
 10
46.98746627089997
 20
11.65802361789998
 30
0.0
 10
46.92151475560002
 20
11.69744455829999
 30
0.0
 10
46.65838123839995
 20
11.85166755659999
 30
0.0
 10
46.39003338069996
 20
11.99697922109997
 30
0.0
 10
46.18679557700001
 20
12.10066098369998
 30
0.0
  0
SPLINE
  5
87E7D
330
1F
100
AcDbEntity
  8
1
100
AcDbSpline
210
0.0
220
0.0
230
1.0
 70
     8
 71
     3
 72
    22
 73
    18
 74
     0
 42
0.000000001
 43
0.0000000001
 40
0.0
 40
0.0
 40
0.0
 40
0.0
 40
0.0065079488
 40
0.0146160847
 40
0.0245938186
 40
0.0365932008
 40
0.0506974871
 40
0.0669457983
 40
0.1058713669
 40
0.1531503952
 40
0.2082591474
 40
0.2704625925
 40
0.338886799
 40
0.4905818874000003
 40
0.655758188
 40
0.8275010984999997
 40
1.0
 40
1.0
 40
1.0
 40
1.0
 10
52.18679557699999
 20
7.784760459599977
 30
0.0
 10
52.18679557699999
 20
7.798934396199982
 30
0.0
 10
52.18129029749999
 20
7.830736377699976
 30
0.0
 10
52.16146184330002
 20
7.880691147099978
 30
0.0
 10
52.12924242459997
 20
7.937919006399994
 30
0.0
 10
52.08436025900001
 20
8.002515958599985
 30
0.0
 10
52.02665826449997
 20
8.074549309999994
 30
0.0
 10
51.9263236759
 20
8.187304951399994
 30
0.0
 10
51.7677967154
 20
8.344599454499983
 30
0.0
 10
51.53865360340002
 20
8.550170889099987
 30
0.0
 10
51.26317967639995
 20
8.779654331399996
 30
0.0
 10
50.94529392470001
 20
9.029891336299867
 30
0.0
 10
50.45380353389997
 20
9.39944061689998
 30
0.0
 10
49.76920137529997
 20
9.884990343199872
 30
0.0
 10
48.8850799314
 20
10.47743348559999
 30
0.0
 10
47.94982536979996
 20
11.07445128639999
 30
0.0
 10
47.30994311109999
 20
11.4652708023
 30
0.0
 10
46.98746627089997
 20
11.65802361789998
 30
0.0
  0
SPLINE
  5
87E7E
330
1F
100
AcDbEntity
  8
1
100
AcDbSpline
210
0.0
220
0.0
230
1.0
 70
     8
 71
     3
 72
     9
 73
     5
 74
     0
 42
0.000000001
 43
0.0000000001
 40
0.0
 40
0.0
 40
0.0
 40
0.0
 40
0.2480456834
 40
1.0
 40
1.0
 40
1.0
 40
1.0
 10
41.12340602119997
 20
24.39226553459993
 30
0.0
 10
41.23373132330001
 20
24.39091755469994
 30
0.0
 10
41.6785427745
 20
24.38869962299995
 30
0.0
 10
42.12341985880001
 20
24.39933633779995
 30
0.0
 10
42.45754892269999
 20
24.41460658159993
 30
0.0
  0
SPLINE
  5
87E7F
330
1F
100
AcDbEntity
  8
1
100
AcDbSpline
210
0.0
220
0.0
230
1.0
 70
     8
 71
     3
 72
    15
 73
    11
 74
     0
 42
0.000000001
 43
0.0000000001
 40
0.0
 40
0.0
 40
0.0
 40
0.0
 40
0.3797638143
 40
0.5415308639000001
 40
0.6819483029000001
 40
0.7993138840000002
 40
0.8921701887000001
 40
0.9593452562999999
 40
0.9830252618000001
 40
1.0
 40
1.0
 40
1.0
 40
1.0
 10
40.13037505029998
 20
24.48038202389995
 30
0.0
 10
39.98382389590002
 20
24.48619824589993
 30
0.0
 10
39.77490242239999
 20
24.49595612939994
 30
0.0
 10
39.511925997
 20
24.51038234159992
 30
0.0
 10
39.35016788510002
 20
24.51980177809995
 30
0.0
 10
39.21498755009999
 20
24.52784138379994
 30
0.0
 10
39.10803125099997
 20
24.53394523749993
 30
0.0
 10
39.03716522859999
 20
24.53750286549999
 30
0.0
 10
38.9955419576
 20
24.53881539149997
 30
0.0
 10
38.9798375994
 20
24.53899173719995
 30
0.0
 10
38.97328287670003
 20
24.53887729909992
 30
0.0
  0
SPLINE
  5
87E80
330
1F
100
AcDbEntity
  8
1
100
AcDbSpline
210
0.0
220
0.0
230
1.0
 70
     8
 71
     3
 72
    15
 73
    11
 74
     0
 42
0.000000001
 43
0.0000000001
 40
0.0
 40
0.0
 40
0.0
 40
0.0
 40
0.068775249
 40
0.1512208116
 40
0.2497600963
 40
0.3657008446
 40
0.4994058379000001
 40
0.6504586997999999
 40
0.8178219065
 40
1.0
 40
1.0
 40
1.0
 40
1.0
 10
41.7075648458
 20
24.18414620689994
 30
0.0
 10
41.67877222949999
 20
24.20772970649998
 30
0.0
 10
41.60930979829999
 20
24.25212807509992
 30
0.0
 10
41.48479084999997
 20
24.30561113919994
 30
0.0
 10
41.33056601779999
 20
24.35165077159992
 30
0.0
 10
41.14603505079999
 20
24.39045980099991
 30
0.0
 10
40.93146299249997
 20
24.42238463459997
 30
0.0
 10
40.68806588949995
 20
24.44783280799994
 30
0.0
 10
40.41783634939998
 20
24.46734897179994
 30
0.0
 10
40.22888449779999
 20
24.47647251239994
 30
0.0
 10
40.13037505029998
 20
24.48038202389995
 30
0.0
  0
LINE
  5
87E81
330
1F
100
AcDbEntity
  8
1
100
AcDbLine
 10
41.84917945089996
 20
24.06798043239994
 30
0.0
 11
41.7075648458
 21
24.18414620689994
 31
0.0
  0
SPLINE
  5
87E82
330
1F
100
AcDbEntity
  8
1
100
AcDbSpline
210
0.0
220
0.0
230
1.0
 70
     8
 71
     3
 72
     9
 73
     5
 74
     0
 42
0.000000001
 43
0.0000000001
 40
0.0
 40
0.0
 40
0.0
 40
0.0
 40
0.2480237532
 40
1.0
 40
1.0
 40
1.0
 40
1.0
 10
28.98029986849998
 20
16.78052493119993
 30
0.0
 10
29.21243380060002
 20
16.72816271019992
 30
0.0
 10
30.14828926949999
 20
16.51669562039991
 30
0.0
 10
31.08384914080001
 20
16.30392116489993
 30
0.0
 10
31.787228905
 20
16.14331246079992
 30
0.0
  0
SPLINE
  5
87E83
330
1F
100
AcDbEntity
  8
1
100
AcDbSpline
210
0.0
220
0.0
230
1.0
 70
     8
 71
     3
 72
     9
 73
     5
 74
     0
 42
0.000000001
 43
0.0000000001
 40
0.0
 40
0.0
 40
0.0
 40
0.0
 40
0.2378826207999999
 40
1.0
 40
1.0
 40
1.0
 40
1.0
 10
37.85638111760004
 20
22.09300019949991
 30
0.0
 10
37.89065853789999
 20
22.09784679989994
 30
0.0
 10
38.0351393925
 20
22.11533748859991
 30
0.0
 10
38.18114462830003
 20
22.12064969299999
 30
0.0
 10
38.29200142079999
 20
22.1172563064
 30
0.0
  0
SPLINE
  5
87E84
330
1F
100
AcDbEntity
  8
1
100
AcDbSpline
210
0.0
220
0.0
230
1.0
 70
     8
 71
     3
 72
     9
 73
     5
 74
     0
 42
0.000000001
 43
0.0000000001
 40
0.0
 40
0.0
 40
0.0
 40
0.0
 40
0.5257512876
 40
1.0
 40
1.0
 40
1.0
 40
1.0
 10
23.90000000000002
 20
22.23507360919997
 30
0.0
 10
23.67243140970002
 20
22.17357579879992
 30
0.0
 10
23.23878991189999
 20
22.05952455119998
 30
0.0
 10
22.80378115570001
 20
21.95086113259994
 30
0.0
 10
22.59743599219998
 20
21.89950736569992
 30
0.0
  0
SPLINE
  5
87E85
330
1F
100
AcDbEntity
  8
1
100
AcDbSpline
210
0.0
220
0.0
230
1.0
 70
     8
 71
     3
 72
    11
 73
     7
 74
     0
 42
0.000000001
 43
0.0000000001
 40
0.0
 40
0.0
 40
0.0
 40
0.0
 40
0.1978267639
 40
0.4386168883
 40
0.7103736298000002
 40
1.0
 40
1.0
 40
1.0
 40
1.0
 10
25.59234432749999
 20
22.70896674409994
 30
0.0
 10
25.48040267299997
 20
22.67897206819994
 30
0.0
 10
25.23303167830004
 20
22.60942612489994
 30
0.0
 10
24.83297346240004
 20
22.49483861549995
 30
0.0
 10
24.38086060359997
 20
22.36666307849994
 30
0.0
 10
24.06379298260002
 20
22.27933679059994
 30
0.0
 10
23.90000000000002
 20
22.23507360919997
 30
0.0
  0
SPLINE
  5
87E86
330
1F
100
AcDbEntity
  8
1
100
AcDbSpline
210
0.0
220
0.0
230
1.0
 70
     8
 71
     3
 72
     9
 73
     5
 74
     0
 42
0.000000001
 43
0.0000000001
 40
0.0
 40
0.0
 40
0.0
 40
0.0
 40
0.2620817627
 40
1.0
 40
1.0
 40
1.0
 40
1.0
 10
25.12356646420001
 20
17.15636974519994
 30
0.0
 10
25.07010085869997
 20
17.17951076249991
 30
0.0
 10
24.86852796470002
 20
17.27317416549995
 30
0.0
 10
24.67685975179997
 20
17.38923836799996
 30
0.0
 10
24.54642598790002
 20
17.48870693049994
 30
0.0
  0
SPLINE
  5
87E87
330
1F
100
AcDbEntity
  8
1
100
AcDbSpline
210
0.0
220
0.0
230
1.0
 70
     8
 71
     3
 72
     9
 73
     5
 74
     0
 42
0.000000001
 43
0.0000000001
 40
0.0
 40
0.0
 40
0.0
 40
0.0
 40
0.5174587757
 40
1.0
 40
1.0
 40
1.0
 40
1.0
 10
26.1856143289
 20
16.86985917299996
 30
0.0
 10
25.99720262290002
 20
16.89567816619998
 30
0.0
 10
25.63558216169999
 20
16.96689168799993
 30
0.0
 10
25.28631611020002
 20
17.08592833989992
 30
0.0
 10
25.12356646420001
 20
17.15636974519994
 30
0.0
  0
SPLINE
  5
87E88
330
1F
100
AcDbEntity
  8
1
100
AcDbSpline
210
0.0
220
0.0
230
1.0
 70
     8
 71
     3
 72
    10
 73
     6
 74
     0
 42
0.000000001
 43
0.0000000001
 40
0.0
 40
0.0
 40
0.0
 40
0.0
 40
0.5096306974
 40
0.7577353489
 40
1.0
 40
1.0
 40
1.0
 40
1.0
 10
28.98029986849998
 20
16.78052493119993
 30
0.0
 10
28.50548570209999
 20
16.75285781709995
 30
0.0
 10
27.79717864790003
 20
16.74072299869995
 30
0.0
 10
26.8650020464
 20
16.79080013369993
 30
0.0
 10
26.40961730189999
 20
16.83916105979992
 30
0.0
 10
26.1856143289
 20
16.86985917299996
 30
0.0
  0
SPLINE
  5
87E89
330
1F
100
AcDbEntity
  8
1
100
AcDbSpline
210
0.0
220
0.0
230
1.0
 70
     8
 71
     3
 72
     9
 73
     5
 74
     0
 42
0.000000001
 43
0.0000000001
 40
0.0
 40
0.0
 40
0.0
 40
0.0
 40
0.5512046699000001
 40
1.0
 40
1.0
 40
1.0
 40
1.0
 10
22.59743599219998
 20
21.89950736569992
 30
0.0
 10
22.50626632539998
 20
21.87681768519992
 30
0.0
 10
22.3405659912
 20
21.83685959609999
 30
0.0
 10
22.17461554430002
 20
21.79796948689999
 30
0.0
 10
22.10024316349997
 20
21.78007266729993
 30
0.0
  0
SPLINE
  5
87E8A
330
1F
100
AcDbEntity
  8
1
100
AcDbSpline
210
0.0
220
0.0
230
1.0
 70
     8
 71
     3
 72
     9
 73
     5
 74
     0
 42
0.000000001
 43
0.0000000001
 40
0.0
 40
0.0
 40
0.0
 40
0.0
 40
0.2593590347
 40
1.0
 40
1.0
 40
1.0
 40
1.0
 10
32.14927886299999
 20
16.05728657549993
 30
0.0
 10
32.11804206029997
 20
16.06498707739992
 30
0.0
 10
31.9975405819
 20
16.09442114659994
 30
0.0
 10
31.87679580310002
 20
16.12286088669994
 30
0.0
 10
31.787228905
 20
16.14331246079992
 30
0.0
  0
LINE
  5
87E8B
330
1F
100
AcDbEntity
  8
1
100
AcDbLine
 10
42.49245373559999
 20
13.49091388969998
 30
0.0
 11
42.46288032089997
 21
13.49834107969998
 31
0.0
  0
LINE
  5
87E8C
330
1F
100
AcDbEntity
  8
1
100
AcDbLine
 10
42.46288032089997
 20
13.49834107969998
 30
0.0
 11
42.45754892269999
 21
13.49967202229999
 31
0.0
  0
LINE
  5
87E8D
330
1F
100
AcDbEntity
  8
1
100
AcDbLine
 10
42.45754892269999
 20
24.41460658159993
 30
0.0
 11
42.49245373559999
 21
24.41593620079994
 31
0.0
  0
SPLINE
  5
87E8E
330
1F
100
AcDbEntity
  8
1
100
AcDbSpline
210
0.0
220
0.0
230
1.0
 70
     8
 71
     3
 72
     9
 73
     5
 74
     0
 42
0.000000001
 43
0.0000000001
 40
0.0
 40
0.0
 40
0.0
 40
0.0
 40
0.4975526109000001
 40
1.0
 40
1.0
 40
1.0
 40
1.0
 10
46.18679557700001
 20
12.10066098369998
 30
0.0
 10
45.6027226791
 20
12.39862576419999
 30
0.0
 10
44.3946465472
 20
12.93264951139998
 30
0.0
 10
43.13443159259999
 20
13.3287746343
 30
0.0
 10
42.49245373559999
 20
13.49091388969998
 30
0.0
  0
SPLINE
  5
87E8F
330
1F
100
AcDbEntity
  8
1
100
AcDbSpline
210
0.0
220
0.0
230
1.0
 70
     8
 71
     3
 72
     9
 73
     5
 74
     0
 42
0.000000001
 43
0.0000000001
 40
0.0
 40
0.0
 40
0.0
 40
0.0
 40
0.2599558668
 40
1.0
 40
1.0
 40
1.0
 40
1.0
 10
42.49245373559999
 20
24.41593620079994
 30
0.0
 10
42.55744341789998
 20
24.41791743069993
 30
0.0
 10
42.80741261900003
 20
24.42660293289995
 30
0.0
 10
43.05723888929996
 20
24.43939736809995
 30
0.0
 10
43.24196233709996
 20
24.45118277079993
 30
0.0
  0
LINE
  5
87E90
330
1F
100
AcDbEntity
  8
1
100
AcDbLine
 10
43.24196233709996
 20
24.45118277079993
 30
0.0
 11
43.40447919729998
 21
24.46164767789995
 31
0.0
  0
SPLINE
  5
87E91
330
1F
100
AcDbEntity
  8
1
100
AcDbSpline
210
0.0
220
0.0
230
1.0
 70
     8
 71
     3
 72
     9
 73
     5
 74
     0
 42
0.000000001
 43
0.0000000001
 40
0.0
 40
0.0
 40
0.0
 40
0.0
 40
0.4997059282
 40
1.0
 40
1.0
 40
1.0
 40
1.0
 10
40.46387963749999
 20
14.18903900059992
 30
0.0
 10
40.16448658149999
 20
14.71948100789991
 30
0.0
 10
39.57560962330003
 20
15.7867959992999
 30
0.0
 10
39.00333672490003
 20
16.86308097379995
 30
0.0
 10
38.72112911320001
 20
17.40367105239997
 30
0.0
  0
SPLINE
  5
87E92
330
1F
100
AcDbEntity
  8
1
100
AcDbSpline
210
0.0
220
0.0
230
1.0
 70
     8
 71
     3
 72
     9
 73
     5
 74
     0
 42
0.000000001
 43
0.0000000001
 40
0.0
 40
0.0
 40
0.0
 40
0.0
 40
0.249610447
 40
1.0
 40
1.0
 40
1.0
 40
1.0
 10
40.44558119689996
 20
14.00118858419998
 30
0.0
 10
40.44617610420004
 20
14.01688627299995
 30
0.0
 10
40.44948392000002
 20
14.07973641689997
 30
0.0
 10
40.45651415789997
 20
14.14239198149994
 30
0.0
 10
40.46387963749999
 20
14.18903900059992
 30
0.0
  0
SPLINE
  5
87E93
330
1F
100
AcDbEntity
  8
1
100
AcDbSpline
210
0.0
220
0.0
230
1.0
 70
     8
 71
     3
 72
    21
 73
    17
 74
     0
 42
0.000000001
 43
0.0000000001
 40
0.0
 40
0.0
 40
0.0
 40
0.0
 40
0.0617287409
 40
0.1235277967
 40
0.1854486844
 40
0.247529866
 40
0.3097969794
 40
0.372258737
 40
0.4349076739
 40
0.4977221352
 40
0.6233720186000001
 40
0.7491329118000003
 40
0.8120801995999999
 40
0.8748964798999999
 40
0.9375441356999999
 40
1.0
 40
1.0
 40
1.0
 40
1.0
 10
38.08894601010003
 20
18.61466572159993
 30
0.0
 10
38.0019954886
 20
18.65701373409992
 30
0.0
 10
37.834198514
 20
18.75520919349994
 30
0.0
 10
37.60751291849998
 20
18.93863046699995
 30
0.0
 10
37.41037000410003
 20
19.15431332929991
 30
0.0
 10
37.24690872409997
 20
19.39735468139994
 30
0.0
 10
37.12040185260004
 20
19.66245568549995
 30
0.0
 10
37.03349830420002
 20
19.94394328639996
 30
0.0
 10
36.98780725080003
 20
20.23588181769995
 30
0.0
 10
36.98309891819999
 20
20.63041906669994
 30
0.0
 10
37.08321930490003
 20
21.11974536299995
 30
0.0
 10
37.31765194259999
 20
21.56112487659993
 30
0.0
 10
37.5735421533
 20
21.8623493242999
 30
0.0
 10
37.7960670139
 20
22.05799743749992
 30
0.0
 10
38.04407540209998
 20
22.21854414009994
 30
0.0
 10
38.2233728371
 20
22.29985136259998
 30
0.0
 10
38.3152592915
 20
22.33350082839992
 30
0.0
  0
SPLINE
  5
87E94
330
1F
100
AcDbEntity
  8
1
100
AcDbSpline
210
0.0
220
0.0
230
1.0
 70
     8
 71
     3
 72
     8
 73
     4
 74
     0
 42
0.000000001
 43
0.0000000001
 40
0.0
 40
0.0
 40
0.0
 40
0.0
 40
1.0
 40
1.0
 40
1.0
 40
1.0
 10
40.43598357229996
 20
14.78358760709994
 30
0.0
 10
40.36818307449999
 20
14.71960568869993
 30
0.0
 10
40.30420191049997
 20
14.65133997829993
 30
0.0
 10
40.24458463920002
 20
14.57967147509994
 30
0.0
  0
SPLINE
  5
87E95
330
1F
100
AcDbEntity
  8
1
100
AcDbSpline
210
0.0
220
0.0
230
1.0
 70
     8
 71
     3
 72
     8
 73
     4
 74
     0
 42
0.000000001
 43
0.0000000001
 40
0.0
 40
0.0
 40
0.0
 40
0.0
 40
1.0
 40
1.0
 40
1.0
 40
1.0
 10
38.34708734529995
 20
22.11545956579994
 30
0.0
 10
38.29323204700003
 20
22.06998391809995
 30
0.0
 10
38.2400110864
 20
22.0237448660999
 30
0.0
 10
38.1874979766
 20
21.97672571049993
 30
0.0
  0
SPLINE
  5
87E96
330
1F
100
AcDbEntity
  8
1
100
AcDbSpline
210
0.0
220
0.0
230
1.0
 70
     8
 71
     3
 72
     9
 73
     5
 74
     0
 42
0.000000001
 43
0.0000000001
 40
0.0
 40
0.0
 40
0.0
 40
0.0
 40
0.255880785
 40
1.0
 40
1.0
 40
1.0
 40
1.0
 10
38.29200142079999
 20
22.1172563064
 30
0.0
 10
38.31639630510002
 20
22.11650956569994
 30
0.0
 10
38.41169435689997
 20
22.11241564009994
 30
0.0
 10
38.50679153659998
 20
22.10378276719993
 30
0.0
 10
38.5772125772
 20
22.09493040399991
 30
0.0
  0
SPLINE
  5
87E97
330
1F
100
AcDbEntity
  8
1
100
AcDbSpline
210
0.0
220
0.0
230
1.0
 70
     8
 71
     3
 72
     9
 73
     5
 74
     0
 42
0.000000001
 43
0.0000000001
 40
0.0
 40
0.0
 40
0.0
 40
0.0
 40
0.253755228
 40
1.0
 40
1.0
 40
1.0
 40
1.0
 10
37.71510617099996
 20
21.98380088119998
 30
0.0
 10
37.75501164920003
 20
21.98631689369998
 30
0.0
 10
37.91245382360003
 20
21.99310406579991
 30
0.0
 10
38.07041777689997
 20
21.98763412639995
 30
0.0
 10
38.1874979766
 20
21.97672571049993
 30
0.0
  0
SPLINE
  5
87E98
330
1F
100
AcDbEntity
  8
1
100
AcDbSpline
210
0.0
220
0.0
230
1.0
 70
     8
 71
     3
 72
     9
 73
     5
 74
     0
 42
0.000000001
 43
0.0000000001
 40
0.0
 40
0.0
 40
0.0
 40
0.0
 40
0.2496114024
 40
1.0
 40
1.0
 40
1.0
 40
1.0
 10
38.1619483539
 20
18.47471694389995
 30
0.0
 10
38.17702789260001
 20
18.46933155199993
 30
0.0
 10
38.23772006219999
 20
18.44854910079994
 30
0.0
 10
38.29950583360001
 20
18.43095928469991
 30
0.0
 10
38.34628818559999
 20
18.41962104509994
 30
0.0
  0
SPLINE
  5
87E99
330
1F
100
AcDbEntity
  8
1
100
AcDbSpline
210
0.0
220
0.0
230
1.0
 70
     8
 71
     3
 72
     9
 73
     5
 74
     0
 42
0.000000001
 43
0.0000000001
 40
0.0
 40
0.0
 40
0.0
 40
0.0
 40
0.5434105486
 40
1.0
 40
1.0
 40
1.0
 40
1.0
 10
42.1763161336
 20
23.47733910039997
 30
0.0
 10
42.16487506419999
 20
23.49881929399993
 30
0.0
 10
42.14506479649999
 20
23.5390296447999
 30
0.0
 10
42.12848810849997
 20
23.58071502429995
 30
0.0
 10
42.12201986790002
 20
23.60011385549997
 30
0.0
  0
SPLINE
  5
87E9A
330
1F
100
AcDbEntity
  8
1
100
AcDbSpline
210
0.0
220
0.0
230
1.0
 70
     8
 71
     3
 72
     9
 73
     5
 74
     0
 42
0.000000001
 43
0.0000000001
 40
0.0
 40
0.0
 40
0.0
 40
0.0
 40
0.2478133777
 40
1.0
 40
1.0
 40
1.0
 40
1.0
 10
42.12201986790002
 20
23.60011385549997
 30
0.0
 10
42.0962215496
 20
23.63670368169997
 30
0.0
 10
41.99531523959996
 20
23.78658488689999
 30
0.0
 10
41.90737571999997
 20
23.94518194029999
 30
0.0
 10
41.84917945089996
 20
24.06798043239994
 30
0.0
  0
SPLINE
  5
87E9B
330
1F
100
AcDbEntity
  8
1
100
AcDbSpline
210
0.0
220
0.0
230
1.0
 70
     8
 71
     3
 72
     9
 73
     5
 74
     0
 42
0.000000001
 43
0.0000000001
 40
0.0
 40
0.0
 40
0.0
 40
0.0
 40
0.4966707473
 40
1.0
 40
1.0
 40
1.0
 40
1.0
 10
26.3182303045
 20
20.96121717359991
 30
0.0
 10
26.54224414900002
 20
21.05704748149994
 30
0.0
 10
26.99688297000002
 20
21.24161645249992
 30
0.0
 10
27.45683020740002
 20
21.41240740019994
 30
0.0
 10
27.68939167730001
 20
21.49537261899995
 30
0.0
  0
SPLINE
  5
87E9C
330
1F
100
AcDbEntity
  8
1
100
AcDbSpline
210
0.0
220
0.0
230
1.0
 70
     8
 71
     3
 72
     9
 73
     5
 74
     0
 42
0.000000001
 43
0.0000000001
 40
0.0
 40
0.0
 40
0.0
 40
0.0
 40
0.2481865596
 40
1.0
 40
1.0
 40
1.0
 40
1.0
 10
26.05349212630001
 20
20.84310426899994
 30
0.0
 10
26.07523584779996
 20
20.8532231417999
 30
0.0
 10
26.16301239400004
 20
20.89363664339995
 30
0.0
 10
26.25143569699999
 20
20.93264330599994
 30
0.0
 10
26.3182303045
 20
20.96121717359991
 30
0.0
  0
SPLINE
  5
87E9D
330
1F
100
AcDbEntity
  8
1
100
AcDbSpline
210
0.0
220
0.0
230
1.0
 70
     8
 71
     3
 72
     8
 73
     4
 74
     0
 42
0.000000001
 43
0.0000000001
 40
0.0
 40
0.0
 40
0.0
 40
0.0
 40
1.0
 40
1.0
 40
1.0
 40
1.0
 10
38.3152592915
 20
22.33350082839992
 30
0.0
 10
38.34131856130003
 20
22.3430439162999
 30
0.0
 10
38.36758617709996
 20
22.35203646279999
 30
0.0
 10
38.39402783380002
 20
22.36046230749991
 30
0.0
  0
SPLINE
  5
87E9E
330
1F
100
AcDbEntity
  8
1
100
AcDbSpline
210
0.0
220
0.0
230
1.0
 70
     8
 71
     3
 72
     9
 73
     5
 74
     0
 42
0.000000001
 43
0.0000000001
 40
0.0
 40
0.0
 40
0.0
 40
0.0
 40
0.250706327
 40
1.0
 40
1.0
 40
1.0
 40
1.0
 10
31.787228905
 20
22.92839237039995
 30
0.0
 10
31.81652093340002
 20
22.93844152269993
 30
0.0
 10
31.93453158950003
 20
22.97500927859994
 30
0.0
 10
32.05704968599999
 20
22.99713389009995
 30
0.0
 10
32.14927886299999
 20
23.00488834049994
 30
0.0
  0
SPLINE
  5
87E9F
330
1F
100
AcDbEntity
  8
1
100
AcDbSpline
210
0.0
220
0.0
230
1.0
 70
     8
 71
     3
 72
    23
 73
    19
 74
     0
 42
0.000000001
 43
0.0000000001
 40
0.0
 40
0.0
 40
0.0
 40
0.0
 40
0.0597398015
 40
0.0883006505
 40
0.1160434382
 40
0.1693270715
 40
0.2204109601
 40
0.2703488173
 40
0.320383858
 40
0.3717970386
 40
0.4257397768
 40
0.4831132239000003
 40
0.5445177286999999
 40
0.6102624123
 40
0.6804061158
 40
0.7548071425
 40
0.8331698454999999
 40
1.0
 40
1.0
 40
1.0
 40
1.0
 10
24.54642598790002
 20
17.48870693049994
 30
0.0
 10
24.4737272983
 20
17.54414682539995
 30
0.0
 10
24.37099155380001
 20
17.63274276279995
 30
0.0
 10
24.24956410569997
 20
17.76251890589994
 30
0.0
 10
24.14435920849998
 20
17.89329617769993
 30
0.0
 10
24.03643676029999
 20
18.06545913149999
 30
0.0
 10
23.9477203023
 20
18.28574181369994
 30
0.0
 10
23.90337805439999
 20
18.51412687669997
 30
0.0
 10
23.90447729990002
 20
18.7472720233
 30
0.0
 10
23.95085176510004
 20
18.98187758589992
 30
0.0
 10
24.04126528549999
 20
19.21512772579992
 30
0.0
 10
24.1737918052
 20
19.44486323169993
 30
0.0
 10
24.34612975900002
 20
19.66943376609994
 30
0.0
 10
24.555693331
 20
19.88752254359994
 30
0.0
 10
24.79964625060002
 20
20.09802385379995
 30
0.0
 10
25.07493106099999
 20
20.3000233585999
 30
0.0
 10
25.48804743979999
 20
20.56235686949995
 30
0.0
 10
25.82201330130001
 20
20.73538099769991
 30
0.0
 10
26.05349212630001
 20
20.84310426899994
 30
0.0
  0
SPLINE
  5
87EA0
330
1F
100
AcDbEntity
  8
1
100
AcDbSpline
210
0.0
220
0.0
230
1.0
 70
     8
 71
     3
 72
     9
 73
     5
 74
     0
 42
0.000000001
 43
0.0000000001
 40
0.0
 40
0.0
 40
0.0
 40
0.0
 40
0.2506609598
 40
1.0
 40
1.0
 40
1.0
 40
1.0
 10
43.24194455299998
 20
24.45118741729989
 30
0.0
 10
43.23956730149999
 20
24.4435461433999
 30
0.0
 10
43.23000988590009
 20
24.41308455659994
 30
0.0
 10
43.22015809159997
 20
24.38271530759997
 30
0.0
 10
43.21260895039999
 20
24.36001446319992
 30
0.0
  0
SPLINE
  5
87EA1
330
1F
100
AcDbEntity
  8
1
100
AcDbSpline
210
0.0
220
0.0
230
1.0
 70
     8
 71
     3
 72
    35
 73
    31
 74
     0
 42
0.000000001
 43
0.0000000001
 40
0.0
 40
0.0
 40
0.0
 40
0.0
 40
0.055378503
 40
0.1129585119
 40
0.172273355
 40
0.2329766062
 40
0.2948117444
 40
0.3575849572999999
 40
0.4211451657
 40
0.4853740758
 40
0.517719025
 40
0.5502088818999999
 40
0.5828485973
 40
0.6156592057000001
 40
0.6321572462000003
 40
0.6487299687000001
 40
0.6653951553999999
 40
0.6821681541000002
 40
0.6990491763
 40
0.7160056847
 40
0.7329747825
 40
0.7498902637000004
 40
0.7667048484000001
 40
0.7833918773999999
 40
0.8163191615
 40
0.8486422748
 40
0.8803244540999999
 40
0.9113339245999998
 40
0.9416388382
 40
1.0
 40
1.0
 40
1.0
 40
1.0
 10
35.69676267350001
 20
15.18066686989994
 30
0.0
 10
35.77978660639998
 20
15.23381074819993
 30
0.0
 10
35.95451396490002
 20
15.33387005579992
 30
0.0
 10
36.23058755270001
 20
15.46770792689997
 30
0.0
 10
36.52211580180001
 20
15.59031484629993
 30
0.0
 10
36.8258773382
 20
15.70244907209998
 30
0.0
 10
37.13973667410001
 20
15.80421707429993
 30
0.0
 10
37.46225615200002
 20
15.89496044439994
 30
0.0
 10
37.79251725270003
 20
15.97281684889995
 30
0.0
 10
38.07320479369997
 20
16.02368887859991
 30
0.0
 10
38.3012690092
 20
16.05189011779994
 30
0.0
 10
38.4743948987
 20
16.06478199269992
 30
0.0
 10
38.64886735770001
 20
16.06632666299995
 30
0.0
 10
38.79460242340001
 20
16.0539289667999
 30
0.0
 10
38.90980987760004
 20
16.03136245599998
 30
0.0
 10
38.99489273209999
 20
16.00631617149993
 30
0.0
 10
39.07697816420002
 20
15.97120601369994
 30
0.0
 10
39.153595774
 20
15.92405392259989
 30
0.0
 10
39.22131310420004
 20
15.86386256259993
 30
0.0
 10
39.27685952279997
 20
15.79183449309995
 30
0.0
 10
39.31885825920003
 20
15.71120840149992
 30
0.0
 10
39.34821919299999
 20
15.62558501579991
 30
0.0
 10
39.36697342459998
 20
15.53764766909991
 30
0.0
 10
39.38056175810004
 20
15.42005174379994
 30
0.0
 10
39.38105232010004
 20
15.27377803999992
 30
0.0
 10
39.3644417284
 20
15.10186158359994
 30
0.0
 10
39.33581292049998
 20
14.93504561769994
 30
0.0
 10
39.29810386390001
 20
14.77376901559991
 30
0.0
 10
39.23880541650003
 20
14.56910004989993
 30
0.0
 10
39.18402576520004
 20
14.42073905049994
 30
0.0
 10
39.14326212260001
 20
14.32518544809996
 30
0.0
  0
SPLINE
  5
87EA2
330
1F
100
AcDbEntity
  8
1
100
AcDbSpline
210
0.0
220
0.0
230
1.0
 70
     8
 71
     3
 72
    18
 73
    14
 74
     0
 42
0.000000001
 43
0.0000000001
 40
0.0
 40
0.0
 40
0.0
 40
0.0
 40
0.1725361323
 40
0.3370738029
 40
0.4903318937
 40
0.6293134415
 40
0.7514076779000001
 40
0.8054609394999998
 40
0.8545615173000001
 40
0.8985796054999999
 40
0.9374395208000001
 40
0.9711795662999998
 40
1.0
 40
1.0
 40
1.0
 40
1.0
 10
26.31823031810002
 20
20.96121717999992
 30
0.0
 10
26.24490009019998
 20
20.73791520359995
 30
0.0
 10
26.10819823709995
 20
20.29946896819993
 30
0.0
 10
25.93034981340001
 20
19.65550650989992
 30
0.0
 10
25.78679383779998
 20
19.04987999079992
 30
0.0
 10
25.68046690280001
 20
18.49537640599995
 30
0.0
 10
25.62225747039999
 20
18.06973029529999
 30
0.0
 10
25.59788611640001
 20
17.76378135269993
 30
0.0
 10
25.59080355110002
 20
17.56334456189998
 30
0.0
 10
25.5940827198
 20
17.38348722049994
 30
0.0
 10
25.60772978810004
 20
17.22504586059997
 30
0.0
 10
25.63165336720003
 20
17.08878146329993
 30
0.0
 10
25.65625262099998
 20
17.00682072909991
 30
0.0
 10
25.67084446179997
 20
16.97037302699995
 30
0.0
  0
SPLINE
  5
87EA3
330
1F
100
AcDbEntity
  8
1
100
AcDbSpline
210
0.0
220
0.0
230
1.0
 70
     8
 71
     3
 72
     9
 73
     5
 74
     0
 42
0.000000001
 43
0.0000000001
 40
0.0
 40
0.0
 40
0.0
 40
0.0
 40
0.2552357536
 40
1.0
 40
1.0
 40
1.0
 40
1.0
 10
37.20295265209997
 20
21.0948969700999
 30
0.0
 10
37.19675587709999
 20
21.10091865209995
 30
0.0
 10
37.1726081705
 20
21.12464541699991
 30
0.0
 10
37.14899372300001
 20
21.14891663459994
 30
0.0
 10
37.13175909470003
 20
21.16731933169997
 30
0.0
  0
SPLINE
  5
87EA4
330
1F
100
AcDbEntity
  8
1
100
AcDbSpline
210
0.0
220
0.0
230
1.0
 70
     8
 71
     3
 72
     9
 73
     5
 74
     0
 42
0.000000001
 43
0.0000000001
 40
0.0
 40
0.0
 40
0.0
 40
0.0
 40
0.2668514854
 40
1.0
 40
1.0
 40
1.0
 40
1.0
 10
37.68250263479997
 20
21.38293116719991
 30
0.0
 10
37.65227218039998
 20
21.39979430439998
 30
0.0
 10
37.53826565120001
 20
21.46165967389995
 30
0.0
 10
37.42120189039999
 20
21.51809240809992
 30
0.0
 10
37.3334094227
 20
21.55465889269995
 30
0.0
  0
SPLINE
  5
87EA5
330
1F
100
AcDbEntity
  8
1
100
AcDbSpline
210
0.0
220
0.0
230
1.0
 70
     8
 71
     3
 72
     9
 73
     5
 74
     0
 42
0.000000001
 43
0.0000000001
 40
0.0
 40
0.0
 40
0.0
 40
0.0
 40
0.5273662933
 40
1.0
 40
1.0
 40
1.0
 40
1.0
 10
38.1874979766
 20
21.97672571049993
 30
0.0
 10
38.11795725809999
 20
21.99605317079994
 30
0.0
 10
37.98368938900003
 20
22.02465586149994
 30
0.0
 10
37.8469901653
 20
22.03656085589992
 30
0.0
 10
37.78232727050001
 20
22.03828108989997
 30
0.0
  0
SPLINE
  5
87EA6
330
1F
100
AcDbEntity
  8
1
100
AcDbSpline
210
0.0
220
0.0
230
1.0
 70
     8
 71
     3
 72
     9
 73
     5
 74
     0
 42
0.000000001
 43
0.0000000001
 40
0.0
 40
0.0
 40
0.0
 40
0.0
 40
0.2499764648
 40
1.0
 40
1.0
 40
1.0
 40
1.0
 10
31.787228905
 20
22.92839237039995
 30
0.0
 10
31.4450722072
 20
22.81100941719991
 30
0.0
 10
30.07697588150002
 20
22.33951529139995
 30
0.0
 10
28.71162287450001
 20
21.86004882719995
 30
0.0
 10
27.68939167730001
 20
21.49537261899995
 30
0.0
  0
SPLINE
  5
87EA7
330
1F
100
AcDbEntity
  8
1
100
AcDbSpline
210
0.0
220
0.0
230
1.0
 70
     8
 71
     3
 72
     9
 73
     5
 74
     0
 42
0.000000001
 43
0.0000000001
 40
0.0
 40
0.0
 40
0.0
 40
0.0
 40
0.4981203275000003
 40
1.0
 40
1.0
 40
1.0
 40
1.0
 10
39.35123232189996
 20
22.37837875759995
 30
0.0
 10
39.19628805099997
 20
22.42066658219996
 30
0.0
 10
38.87158798040001
 20
22.46219986659993
 30
0.0
 10
38.54835688
 20
22.40913848059999
 30
0.0
 10
38.39402783380002
 20
22.36046230749991
 30
0.0
  0
ELLIPSE
  5
87EA8
330
1F
100
AcDbEntity
  8
1
100
AcDbEllipse
 10
96.51874336380005
 20
-1.71480606690001
 30
0.0
 11
98.39772045579998
 21
-25.5074944451
 31
0.0
210
0.0
220
0.0
230
1.0
 40
0.0137118423
 41
2.156010729100018
 42
2.287438502700009
  0
ELLIPSE
  5
87EA9
330
1F
100
AcDbEntity
  8
1
100
AcDbEllipse
 10
49.68119139879997
 20
0.0391389068000052
 30
0.0
 11
42.85083431159999
 21
1.9328624337
 31
0.0
210
0.0
220
0.0
230
1.0
 40
0.5749898312
 41
1.728610806199999
 42
1.813679355299995
  0
ELLIPSE
  5
87EAA
330
1F
100
AcDbEntity
  8
1
100
AcDbEllipse
 10
76.77731978290002
 20
0.1969731128999825
 30
0.0
 11
132.2113010418004
 21
2.230495583500005
 31
0.0
210
0.0
220
0.0
230
1.0
 40
0.1890481089
 41
1.8629335219
 42
1.9119189927
  0
ELLIPSE
  5
87EAB
330
1F
100
AcDbEntity
  8
1
100
AcDbEllipse
 10
41.93034776169999
 20
21.77736916709996
 30
0.0
 11
2.286221126400002
 21
-0.5370990483000018
 31
0.0
210
0.0
220
0.0
230
1.0
 40
0.0708788454
 41
3.236972159179528
 42
3.623304479079568
  0
ELLIPSE
  5
87EAC
330
1F
100
AcDbEntity
  8
1
100
AcDbEllipse
 10
33.83719418689999
 20
17.18562594959997
 30
0.0
 11
14.247018706
 21
8.632728382000001
 31
0.0
210
0.0
220
0.0
230
1.0
 40
0.091700064
 41
0.8958026518000156
 42
1.095644978300011
  0
LINE
  5
87EAD
330
1F
100
AcDbEntity
  8
sk1
100
AcDbLine
 10
0.4500000000000173
 20
-3.76249999999996
 30
0.0
 11
0.4500000000000173
 21
3.9089189847501
 31
0.0
  0
LINE
  5
87EAE
330
1F
100
AcDbEntity
  8
sk3
100
AcDbLine
 10
1.000000338000005
 20
10.03050000000001
 30
0.0
 11
1.000000338000005
 21
4.378388831647924
 31
0.0
  0
LINE
  5
87EAF
330
1F
100
AcDbEntity
  8
sk3
100
AcDbLine
 10
3.5
 20
-10.03049999999996
 30
0.0
 11
3.5
 21
-4.762500000000017
 31
0.0
  0
LINE
  5
87EB0
330
1F
100
AcDbEntity
  8
sk3
100
AcDbLine
 10
3.5
 20
4.762500000000031
 30
0.0
 11
3.5
 21
10.03050000000001
 31
0.0
  0
LINE
  5
87EB1
330
1F
100
AcDbEntity
  8
sk3
100
AcDbLine
 10
12.9923453693781
 20
9.5249999989
 30
0.0
 11
12.9923453693781
 21
4.762500000000031
 31
0.0
  0
LINE
  5
87EB2
330
1F
100
AcDbEntity
  8
sk3
100
AcDbLine
 10
12.99234536937821
 20
-4.762500000000017
 30
0.0
 11
12.99234536937821
 21
-9.5249999989
 31
0.0
  0
LINE
  5
87EB3
102
{ACAD_REACTORS
330
87F05
102
}
330
1F
100
AcDbEntity
  8
sk3
100
AcDbLine
 10
1.000000338000005
 20
-10.03049999999996
 30
0.0
 11
0.0000000000000284
 21
-11.0305003718
 31
0.0
  0
LINE
  5
87EB4
330
1F
100
AcDbEntity
  8
sk3
100
AcDbLine
 10
12.9923453693781
 20
9.5249999989
 30
0.0
 11
18.13926112071968
 21
11.92504622960915
 31
0.0
  0
LINE
  5
87EB5
330
1F
100
AcDbEntity
  8
sk3
100
AcDbLine
 10
1.000000338000005
 20
10.03050000000001
 30
0.0
 11
0.0000000000000284
 21
11.03050037180003
 31
0.0
  0
LINE
  5
87EB6
330
1F
100
AcDbEntity
  8
sk3
100
AcDbLine
 10
21.80000000000003
 20
9.0
 30
0.0
 11
21.80000000000003
 21
4.762500000000031
 31
0.0
  0
LINE
  5
87EB7
330
1F
100
AcDbEntity
  8
sk3
100
AcDbLine
 10
21.80000000000003
 20
-9.000000000000012
 30
0.0
 11
21.80000000000003
 21
-4.762500000000017
 31
0.0
  0
LINE
  5
87EB8
330
1F
100
AcDbEntity
  8
sk3
100
AcDbLine
 10
32.89161980960003
 20
8.5
 30
0.0
 11
34.33926112072864
 21
9.175046229613366
 31
0.0
  0
LINE
  5
87EB9
330
1F
100
AcDbEntity
  8
sk3
100
AcDbLine
 10
12.99234536937821
 20
-9.5249999989
 30
0.0
 11
18.13926112070005
 21
-11.92504622959994
 31
0.0
  0
LINE
  5
87EBA
330
1F
100
AcDbEntity
  8
sk3
100
AcDbLine
 10
26.30000000000003
 20
-11.59999999999995
 30
0.0
 11
26.30000000000003
 21
-9.000000000000012
 31
0.0
  0
LINE
  5
87EBB
330
1F
100
AcDbEntity
  8
sk3
100
AcDbLine
 10
26.30000000000003
 20
9.0
 30
0.0
 11
26.30000000000003
 21
11.60000000000003
 31
0.0
  0
LINE
  5
87EBC
330
1F
100
AcDbEntity
  8
sk3
100
AcDbLine
 10
18.4773557301
 20
-12.00000000000001
 30
0.0
 11
25.90000000000005
 21
-12.00000000000001
 31
0.0
  0
LINE
  5
87EBD
330
1F
100
AcDbEntity
  8
sk3
100
AcDbLine
 10
32.20000000000006
 20
8.600000000000022
 30
0.0
 11
32.20000000000006
 21
5.162500000000021
 31
0.0
  0
LINE
  5
87EBE
330
1F
100
AcDbEntity
  8
sk3
100
AcDbLine
 10
32.20000000000006
 20
-5.162499999999949
 30
0.0
 11
32.20000000000006
 21
-8.599999999999951
 31
0.0
  0
LINE
  5
87EBF
330
1F
100
AcDbEntity
  8
sk3
100
AcDbLine
 10
32.89161980960003
 20
8.5
 30
0.0
 11
32.89161980960003
 21
7.13499999999999
 31
0.0
  0
LINE
  5
87EC0
330
1F
100
AcDbEntity
  8
sk3
100
AcDbLine
 10
32.89161980960003
 20
-7.13499999999999
 30
0.0
 11
32.89161980960003
 21
-8.500000000000012
 31
0.0
  0
LINE
  5
87EC1
330
1F
100
AcDbEntity
  8
sk3
100
AcDbLine
 10
26.58867523477132
 20
-9.000000000000012
 30
0.0
 11
26.30000007930006
 21
-9.500000045799991
 31
0.0
  0
LINE
  5
87EC2
330
1F
100
AcDbEntity
  8
sk3
100
AcDbLine
 10
1.000000338000005
 20
-10.03049999999996
 30
0.0
 11
3.5
 21
-10.03049999999996
 31
0.0
  0
LINE
  5
87EC3
330
1F
100
AcDbEntity
  8
sk3
100
AcDbLine
 10
34.67735573009999
 20
-9.250000000000012
 30
0.0
 11
36.20000000000006
 21
-9.250000000000012
 31
0.0
  0
LINE
  5
87EC4
330
1F
100
AcDbEntity
  8
sk3
100
AcDbLine
 10
32.20000000000006
 20
-8.500000000000012
 30
0.0
 11
32.89161980960003
 21
-8.500000000000012
 31
0.0
  0
LINE
  5
87EC5
330
1F
100
AcDbEntity
  8
sk3
100
AcDbLine
 10
37.00000000000001
 20
-7.5
 30
0.0
 11
42.00000000000001
 21
-7.5
 31
0.0
  0
LINE
  5
87EC6
330
1F
100
AcDbEntity
  8
sk3
100
AcDbLine
 10
41.22500000000004
 20
-7.13499999999999
 30
0.0
 11
32.20000000000006
 21
-7.13499999999999
 31
0.0
  0
LINE
  5
87EC7
330
1F
100
AcDbEntity
  8
sk3
100
AcDbLine
 10
32.89161980960003
 20
-8.500000000000012
 30
0.0
 11
34.33926112070004
 21
-9.175046229599972
 31
0.0
  0
LINE
  5
87EC8
330
1F
100
AcDbEntity
  8
sk3
100
AcDbLine
 10
37.00000000000001
 20
-8.450000000000017
 30
0.0
 11
37.00000000000001
 21
-7.13499999999999
 31
0.0
  0
LINE
  5
87EC9
330
1F
100
AcDbEntity
  8
sk3
100
AcDbLine
 10
37.00000000000001
 20
7.13499999999999
 30
0.0
 11
37.00000000000001
 21
8.450000000000057
 31
0.0
  0
LINE
  5
87ECA
330
1F
100
AcDbEntity
  8
sk3
100
AcDbLine
 10
31.80000000000003
 20
-9.000000000000012
 30
0.0
 11
32.20000000000006
 21
-8.599999999999951
 31
0.0
  0
LINE
  5
87ECB
330
1F
100
AcDbEntity
  8
sk3
100
AcDbLine
 10
31.80000000000003
 20
-4.762500000000017
 30
0.0
 11
13.0041401598
 21
-4.762500000000017
 31
0.0
  0
LINE
  5
87ECC
330
1F
100
AcDbEntity
  8
sk3
100
AcDbLine
 10
13.0041401598
 20
-4.762500000000017
 30
0.0
 11
1.450000000000045
 21
-4.762500000000017
 31
0.0
  0
LINE
  5
87ECD
330
1F
100
AcDbEntity
  8
sk3
100
AcDbLine
 10
42.80000015020006
 20
-4.250000000000013
 30
0.0
 11
47.68679557699999
 21
-4.250000000000013
 31
0.0
  0
LINE
  5
87ECE
330
1F
100
AcDbEntity
  8
sk3
100
AcDbLine
 10
26.58867523477132
 20
9.0
 30
0.0
 11
26.30000007930006
 21
9.500000045799977
 31
0.0
  0
LINE
  5
87ECF
330
1F
100
AcDbEntity
  8
sk3
100
AcDbLine
 10
41.72500000000002
 20
-6.634999999999963
 30
0.0
 11
41.72500000000002
 21
6.351070647634755
 31
0.0
  0
LINE
  5
87ED0
330
1F
100
AcDbEntity
  8
sk3
100
AcDbLine
 10
47.68679557699999
 20
4.25
 30
0.0
 11
48.18679557700001
 21
4.75
 31
0.0
  0
LINE
  5
87ED1
330
1F
100
AcDbEntity
  8
sk3
100
AcDbLine
 10
42.80000015020006
 20
-4.250000000000013
 30
0.0
 11
42.40000000000004
 21
-4.650000164400012
 31
0.0
  0
LINE
  5
87ED2
330
1F
100
AcDbEntity
  8
sk3
100
AcDbLine
 10
31.80000000000003
 20
9.0
 30
0.0
 11
32.20000000000006
 21
8.600000000000022
 31
0.0
  0
LINE
  5
87ED3
330
1F
100
AcDbEntity
  8
sk3
100
AcDbLine
 10
42.40000000000004
 20
-7.099999999999949
 30
0.0
 11
42.40000000000004
 21
7.100000000000008
 31
0.0
  0
LINE
  5
87ED4
330
1F
100
AcDbEntity
  8
sk3
100
AcDbLine
 10
42.80000015020006
 20
4.25
 30
0.0
 11
42.80000015020006
 21
-4.250000000000013
 31
0.0
  0
LINE
  5
87ED5
330
1F
100
AcDbEntity
  8
sk3
100
AcDbLine
 10
42.80000015020006
 20
4.25
 30
0.0
 11
47.68679557699999
 21
4.25
 31
0.0
  0
LINE
  5
87ED6
330
1F
100
AcDbEntity
  8
sk3
100
AcDbLine
 10
31.80000000000003
 20
4.762500000000031
 30
0.0
 11
13.0041401598
 21
4.762500000000031
 31
0.0
  0
LINE
  5
87ED7
330
1F
100
AcDbEntity
  8
sk3
100
AcDbLine
 10
13.0041401598
 20
4.762500000000031
 30
0.0
 11
1.450000000000045
 21
4.762500000000031
 31
0.0
  0
LINE
  5
87ED8
330
1F
100
AcDbEntity
  8
sk3
100
AcDbLine
 10
47.68679557699999
 20
-4.250000000000013
 30
0.0
 11
48.18679557700001
 21
-4.750000000000011
 31
0.0
  0
LINE
  5
87ED9
330
1F
100
AcDbEntity
  8
sk3
100
AcDbLine
 10
48.5064561251
 20
-10.73009457889996
 30
0.0
 11
51.86713502880003
 21
-15.93647125039989
 31
0.0
  0
LINE
  5
87EDA
330
1F
100
AcDbEntity
  8
sk3
100
AcDbLine
 10
47.68679557699999
 20
4.25
 30
0.0
 11
47.68679557699999
 21
-4.250000000000013
 31
0.0
  0
LINE
  5
87EDB
330
1F
100
AcDbEntity
  8
sk3
100
AcDbLine
 10
48.18679557700001
 20
9.645447481100019
 30
0.0
 11
48.18679557700001
 21
-9.645447481100019
 31
0.0
  0
LINE
  5
87EDC
330
1F
100
AcDbEntity
  8
sk3
100
AcDbLine
 10
41.22500000000004
 20
7.13499999999999
 30
0.0
 11
32.20000000000006
 21
7.13499999999999
 31
0.0
  0
LINE
  5
87EDD
330
1F
100
AcDbEntity
  8
sk3
100
AcDbLine
 10
37.00000000000001
 20
7.5
 30
0.0
 11
42.00000000000001
 21
7.5
 31
0.0
  0
LINE
  5
87EDE
330
1F
100
AcDbEntity
  8
sk3
100
AcDbLine
 10
32.20000000000006
 20
8.5
 30
0.0
 11
32.89161980960003
 21
8.5
 31
0.0
  0
LINE
  5
87EDF
330
1F
100
AcDbEntity
  8
sk3
100
AcDbLine
 10
34.67735573009999
 20
9.25
 30
0.0
 11
36.20000000000006
 21
9.25
 31
0.0
  0
LINE
  5
87EE0
330
1F
100
AcDbEntity
  8
sk3
100
AcDbLine
 10
42.80000015020006
 20
4.25
 30
0.0
 11
42.40000000000004
 21
4.650000164400026
 31
0.0
  0
LINE
  5
87EE1
330
1F
100
AcDbEntity
  8
sk3
100
AcDbLine
 10
1.000000338000005
 20
10.03050000000001
 30
0.0
 11
3.5
 21
10.03050000000001
 31
0.0
  0
LINE
  5
87EE2
330
1F
100
AcDbEntity
  8
sk3
100
AcDbLine
 10
25.90000000000005
 20
12.0
 30
0.0
 11
18.4773557301
 21
12.0
 31
0.0
  0
ARC
  5
87EE3
330
1F
100
AcDbEntity
  8
sk3
100
AcDbCircle
 10
50.186795577
 20
-9.645447481100019
 30
0.0
 40
2.0
100
AcDbArc
 50
180.0
 51
212.8419534016001
  0
ARC
  5
87EE4
330
1F
100
AcDbEntity
  8
sk3
100
AcDbCircle
 10
50.186795577
 20
-17.0211183482
 30
0.0
 40
2.0
100
AcDbArc
 50
0.0
 51
32.84195340160115
  0
ARC
  5
87EE5
330
1F
100
AcDbEntity
  8
sk3
100
AcDbCircle
 10
34.67735573009999
 20
8.450000000000057
 30
0.0
 40
0.8
100
AcDbArc
 50
90.0
 51
114.9999999999997
  0
ARC
  5
87EE6
330
1F
100
AcDbEntity
  8
sk3
100
AcDbCircle
 10
34.67735573009999
 20
-8.450000000000017
 30
0.0
 40
0.8
100
AcDbArc
 50
245.0000000000003
 51
270.0
  0
ARC
  5
87EE7
330
1F
100
AcDbEntity
  8
sk3
100
AcDbCircle
 10
36.20000000000006
 20
-8.450000000000017
 30
0.0
 40
0.8
100
AcDbArc
 50
270.0
 51
0.0
  0
ARC
  5
87EE8
330
1F
100
AcDbEntity
  8
sk3
100
AcDbCircle
 10
36.20000000000006
 20
8.450000000000057
 30
0.0
 40
0.8
100
AcDbArc
 50
0.0
 51
90.0
  0
ARC
  5
87EE9
330
1F
100
AcDbEntity
  8
sk3
100
AcDbCircle
 10
18.4773557301
 20
-11.19999999999999
 30
0.0
 40
0.8
100
AcDbArc
 50
245.0000000000003
 51
270.0
  0
ARC
  5
87EEA
330
1F
100
AcDbEntity
  8
sk3
100
AcDbCircle
 10
18.4773557301
 20
11.20000000000003
 30
0.0
 40
0.8
100
AcDbArc
 50
90.0
 51
114.9999999999997
  0
ARC
  5
87EEB
330
1F
100
AcDbEntity
  8
sk3
100
AcDbCircle
 10
31.80000000000003
 20
-5.162499999999949
 30
0.0
 40
0.4
100
AcDbArc
 50
0.0
 51
90.0
  0
ARC
  5
87EEC
330
1F
100
AcDbEntity
  8
sk3
100
AcDbCircle
 10
31.80000000000003
 20
5.162500000000021
 30
0.0
 40
0.4
100
AcDbArc
 50
270.0
 51
0.0
  0
ARC
  5
87EED
330
1F
100
AcDbEntity
  8
sk3
100
AcDbCircle
 10
25.90000000000005
 20
11.60000000000003
 30
0.0
 40
0.4
100
AcDbArc
 50
0.0
 51
90.0
  0
ARC
  5
87EEE
330
1F
100
AcDbEntity
  8
sk3
100
AcDbCircle
 10
25.90000000000005
 20
-11.59999999999995
 30
0.0
 40
0.4
100
AcDbArc
 50
270.0
 51
0.0
  0
ARC
  5
87EEF
330
1F
100
AcDbEntity
  8
sk3
100
AcDbCircle
 10
42.00000000000001
 20
-7.099999999999949
 30
0.0
 40
0.4
100
AcDbArc
 50
270.0
 51
0.0
  0
ARC
  5
87EF0
330
1F
100
AcDbEntity
  8
sk3
100
AcDbCircle
 10
42.00000000000001
 20
7.100000000000008
 30
0.0
 40
0.4
100
AcDbArc
 50
0.0
 51
90.0
  0
LINE
  5
87EF1
330
1F
100
AcDbEntity
  8
sk3
100
AcDbLine
 10
32.20000000000006
 20
5.162500000000021
 30
0.0
 11
32.20000000000006
 21
-5.162499999999949
 31
0.0
  0
LINE
  5
87EF2
330
1F
100
AcDbEntity
  8
sk3
100
AcDbLine
 10
1.450000000000045
 20
3.969999999999998
 30
0.0
 11
1.450000000000045
 21
4.762500000000031
 31
0.0
  0
LINE
  5
87EF3
330
1F
100
AcDbEntity
  8
sk1
100
AcDbLine
 10
1.450000000000045
 20
-3.969999999999998
 30
0.0
 11
1.450000000000045
 21
3.969999999999998
 31
0.0
  0
LINE
  5
87EF4
330
1F
100
AcDbEntity
  8
sk3
100
AcDbLine
 10
1.450000000000045
 20
-4.762500000000017
 30
0.0
 11
1.450000000000045
 21
-3.969999999999998
 31
0.0
  0
LINE
  5
87EF5
330
1F
100
AcDbEntity
  8
sk3
100
AcDbLine
 10
0.5215585447176636
 20
3.969999999999998
 30
0.0
 11
1.450000000000045
 21
4.762500000000031
 31
0.0
  0
LINE
  5
87EF6
330
1F
100
AcDbEntity
  8
sk1
100
AcDbLine
 10
0.4500000000000173
 20
3.9089189847501
 30
0.0
 11
0.5215585447176636
 21
3.969999999999998
 31
0.0
  0
LINE
  5
87EF7
330
1F
100
AcDbEntity
  8
sk3
100
AcDbLine
 10
1.450000000000045
 20
-4.762500000000017
 30
0.0
 11
1.450000000000045
 21
-4.762500000000017
 31
0.0
  0
LINE
  5
87EF8
330
1F
100
AcDbEntity
  8
sk1
100
AcDbLine
 10
0.6575000000000557
 20
-3.969999999999998
 30
0.0
 11
0.4500000000000173
 21
-3.76249999999996
 31
0.0
  0
LINE
  5
87EF9
330
1F
100
AcDbEntity
  8
sk3
100
AcDbLine
 10
1.450000000000045
 20
-4.762500000000017
 30
0.0
 11
0.6575000000000557
 21
-3.969999999999998
 31
0.0
  0
LINE
  5
87EFA
330
1F
100
AcDbEntity
  8
sk3
100
AcDbLine
 10
31.80000000000003
 20
9.0
 30
0.0
 11
21.80000000000003
 21
9.0
 31
0.0
  0
LINE
  5
87EFB
102
{ACAD_REACTORS
330
87F05
102
}
330
1F
100
AcDbEntity
  8
sk3
100
AcDbLine
 10
31.80000000000003
 20
-9.000000000000012
 30
0.0
 11
21.80000000000003
 21
-9.000000000000012
 31
0.0
  0
LINE
  5
87EFC
330
1F
100
AcDbEntity
  8
sk3
100
AcDbLine
 10
31.80000000000003
 20
9.0
 30
0.0
 11
31.80000000000003
 21
4.762500000000001
 31
0.0
  0
LINE
  5
87EFD
330
1F
100
AcDbEntity
  8
sk3
100
AcDbLine
 10
31.80000000000003
 20
-4.762500000000017
 30
0.0
 11
31.80000000000003
 21
-9.000000000000012
 31
0.0
  0
LINE
  5
87EFE
330
1F
100
AcDbEntity
  8
sk3
100
AcDbLine
 10
41.22500000000004
 20
-7.13499999999999
 30
0.0
 11
41.22500000000004
 21
7.13499999999999
 31
0.0
  0
LINE
  5
87EFF
330
1F
100
AcDbEntity
  8
sk3
100
AcDbLine
 10
41.72500000000002
 20
6.351070647634755
 30
0.0
 11
41.22500000000004
 21
7.13499999999999
 31
0.0
  0
LINE
  5
87F00
330
1F
100
AcDbEntity
  8
sk3
100
AcDbLine
 10
41.22500000000004
 20
-7.13499999999999
 30
0.0
 11
41.72500000000002
 21
-6.634999999999963
 31
0.0
  0
LINE
  5
87F01
330
1F
100
AcDbEntity
  8
sk3
100
AcDbLine
 10
1.000000338000005
 20
-4.312500337999964
 30
0.0
 11
1.000000338000005
 21
-10.03049999999996
 31
0.0
  0
ARC
  5
87F02
330
1F
100
AcDbEntity
  8
sk3
100
AcDbCircle
 10
50.186795577
 20
9.645447481100019
 30
0.0
 40
2.0
100
AcDbArc
 50
147.4545464920229
 51
180.0
  0
DIMENSION
  5
87F03
102
{ACAD_XDICTIONARY
360
87F04
102
}
102
{ACAD_REACTORS
330
87F05
102
}
330
1F
100
AcDbEntity
  8
sk2
100
AcDbDimension
  2
*D205444
 10
21.80000000000003
 20
-40.0
 30
0.0
 11
43.34999999999999
 21
-35.95000000000001
 31
0.0
 70
    32
 71
     5
 42
21.8
  3
コピー - ISO-25
100
AcDbAlignedDimension
 13
0.0
 23
-11.03050037180003
 33
0.0
 14
21.80000000000003
 24
-9.000000000000012
 34
0.0
 50
0.0
100
AcDbRotatedDimension
1001
ACAD
1000
DSTYLE
1002
{
1070
   170
1070
     1
1070
   171
1070
     3
1070
   143
1040
0.0393700787401575
1070
   285
1070
     4
1070
     4
1000
"
1070
   271
1070
     8
1070
    40
1040
1.0
1002
}
1001
ACAD_DSTYLE_DIMINSPECT
1070
   393
1070
     0
1070
   394
1070
     0
1070
   395
1000

1070
   396
1000

  0
DIMENSION
  5
87F06
102
{ACAD_XDICTIONARY
360
87F07
102
}
102
{ACAD_REACTORS
330
87F08
102
}
330
1F
100
AcDbEntity
  8
sk2
100
AcDbDimension
  2
*D216555
 10
-20.0
 20
-22.22500000000001
 30
0.0
 11
-20.0
 21
0.0
 31
0.0
 70
   160
  1
%%C<>
 71
     5
 42
44.45
  3
コピー - ISO-25
100
AcDbAlignedDimension
 13
1.5
 23
22.22499999999993
 33
0.0
 14
1.5
 24
-22.22500000000001
 34
0.0
 50
90.0
100
AcDbRotatedDimension
1001
ACAD
1000
DSTYLE
1002
{
1070
   170
1070
     1
1070
   171
1070
     3
1070
   143
1040
0.0393700787401575
1070
   285
1070
     4
1070
     4
1000
%%c[]"
1070
   271
1070
     8
1070
    40
1040
1.0
1002
}
1001
ACAD_DSTYLE_DIMINSPECT
1070
   393
1070
     0
1070
   394
1070
     0
1070
   395
1000

1070
   396
1000

  0
LINE
  5
87F09
102
{ACAD_REACTORS
330
87F0D
102
}
330
1F
100
AcDbEntity
  8
sk3
100
AcDbLine
 10
3.5
 20
9.5249999989
 30
0.0
 11
12.9923453693781
 21
9.5249999989
 31
0.0
  0
LINE
  5
87F0A
102
{ACAD_REACTORS
330
87F0D
102
}
330
1F
100
AcDbEntity
  8
sk3
100
AcDbLine
 10
3.5
 20
-9.5249999989
 30
0.0
 11
12.99234536937821
 21
-9.5249999989
 31
0.0
  0
DIMENSION
  5
87F0B
102
{ACAD_XDICTIONARY
360
87F0C
102
}
102
{ACAD_REACTORS
330
87F0D
102
}
330
1F
100
AcDbEntity
  8
sk2
100
AcDbDimension
  2
*D227666
 10
-10.0
 20
-9.5249999989
 30
0.0
 11
-10.0
 21
0.0000000000000071
 31
0.0
 70
   160
  1
%%C<>
 71
     5
 42
19.0499999978
  3
コピー - ISO-25
100
AcDbAlignedDimension
 13
3.5
 23
9.5249999989
 33
0.0
 14
3.5
 24
-9.5249999989
 34
0.0
 50
90.0
100
AcDbRotatedDimension
1001
ACAD
1000
DSTYLE
1002
{
1070
   170
1070
     1
1070
   171
1070
     3
1070
   143
1040
0.0393700787401575
1070
   285
1070
     4
1070
     4
1000
%%c[]"
1070
   271
1070
     8
1070
    40
1040
1.0
1002
}
1001
ACAD_DSTYLE_DIMINSPECT
1070
   393
1070
     0
1070
   394
1070
     0
1070
   395
1000

1070
   396
1000

  0
DIMENSION
  5
87F0E
102
{ACAD_XDICTIONARY
360
87F0F
102
}
102
{ACAD_REACTORS
330
87F10
102
}
330
1F
100
AcDbEntity
  8
2
100
AcDbDimension
  2
*D238777
 10
53.97499999999998
 20
60.0
 30
0.0
 11
26.98749999999999
 21
64.05
 31
0.0
 70
    32
 71
     5
 42
53.975
  3
コピー - ISO-25
100
AcDbAlignedDimension
 13
0.0
 23
20.72499999999992
 33
0.0
 14
53.97499999999998
 24
24.59999999879999
 34
0.0
 50
0.0
100
AcDbRotatedDimension
1001
ACAD
1000
DSTYLE
1002
{
1070
   170
1070
     1
1070
   171
1070
     3
1070
   143
1040
0.0393700787401575
1070
   285
1070
     4
1070
     4
1000
"
1070
   271
1070
     8
1070
    40
1040
1.0
1002
}
1001
ACAD_DSTYLE_DIMINSPECT
1070
   393
1070
     0
1070
   394
1070
     0
1070
   395
1000

1070
   396
1000

  0
DIMENSION
  5
87F12
102
{ACAD_XDICTIONARY
360
87F13
102
}
330
1F
100
AcDbEntity
  8
2
100
AcDbDimension
  2
*D2510988
 10
53.97499999999999
 20
50.0
 30
0.0
 11
85.44166666666667
 21
50.0
 31
0.0
 70
   160
  1
<>(MAX)
 71
     5
 42
8.200000000000001
  3
コピー - ISO-25
100
AcDbAlignedDimension
 13
45.77499999999999
 23
25.39999999879999
 33
0.0
 14
53.97499999999999
 24
24.59999999879999
 34
0.0
 50
0.0
100
AcDbRotatedDimension
1001
ACAD
1000
DSTYLE
1002
{
1070
   170
1070
     1
1070
   171
1070
     3
1070
   143
1040
0.0393700787401575
1070
   285
1070
     4
1070
     4
1000
"
1070
   271
1070
     8
1070
    40
1040
1.0
1002
}
1001
ACAD_DSTYLE_DIMINSPECT
1070
   396
1000

1070
   395
1000

1070
   394
1070
     0
1070
   393
1070
     0
1001
GENIUS_GENDTOL_13
1070
  1000
1000

1070
  1001
1000

1070
  1002
1000

1070
  1040
1040
8.199999999999999
1001
ZWMCAD_GENSTANDARDFRAME_13_
1070
   410
1000
GB
1070
   411
1000
ZwmFrameMain_
  0
DIMENSION
  5
87F15
102
{ACAD_XDICTIONARY
360
87F16
102
}
330
1F
100
AcDbEntity
  8
2
100
AcDbDimension
  2
*D26111099
 10
70.00000000000001
 20
-25.39999999879998
 30
0.0
 11
65.95000000000002
 21
-1.749999999999999
 31
0.0
 70
    32
  1
%%C<>
 71
     5
 42
50.7999999976
  3
コピー - ISO-25
100
AcDbAlignedDimension
 13
53.17499999999999
 23
25.39999999879999
 33
0.0
 14
53.17499999999999
 24
-25.39999999879999
 34
0.0
 50
90.0
100
AcDbRotatedDimension
1001
ACAD_DSTYLE_DIMINSPECT
1070
   393
1070
     0
1070
   394
1070
     0
1070
   395
1000

1070
   396
1000

1001
ACAD
1000
DSTYLE
1002
{
1070
    76
1070
     1
1070
   342
1005
0
1070
   343
1005
0
1070
   173
1070
     1
1070
   344
1005
87D73
1070
   170
1070
     1
1070
   171
1070
     3
1070
   143
1040
0.0393700787401575
1070
   285
1070
     4
1070
     4
1000
%%c[]"
1070
   271
1070
     8
1070
    40
1040
1.0
1002
}
  0
LINE
  5
880BD
330
1F
100
AcDbEntity
  8
sk3
100
AcDbLine
 10
18.30000000004254
 20
-4.762500000000015
 30
0.0
 11
18.30000000004254
 21
-11.80000000000001
 31
0.0
  0
LINE
  5
880DB
330
1F
100
AcDbEntity
  8
sk3
100
AcDbLine
 10
18.30000000004254
 20
4.762500000000015
 30
0.0
 11
18.30000000004254
 21
11.80000000000001
 31
0.0
  0
LINE
  5
880EC
330
1F
100
AcDbEntity
  8
sk3
100
AcDbLine
 10
34.50000000004774
 20
9.05
 30
0.0
 11
34.50000000004774
 21
7.13499999999999
 31
0.0
  0
LINE
  5
880F3
330
1F
100
AcDbEntity
  8
sk3
100
AcDbLine
 10
34.50000000004774
 20
-9.05
 30
0.0
 11
34.50000000004774
 21
-7.13499999999999
 31
0.0
  0
DIMENSION
  5
8818D
330
1F
100
AcDbEntity
  8
2
100
AcDbDimension
  2
*D131010
 10
53.17499999999999
 20
24.59999999880001
 30
0.0
 11
73.90935108901214
 21
32.51617571355929
 31
0.0
 70
   164
 71
     5
 42
0.8
  3
コピー - ISO-25
100
AcDbRadialDimension
 15
53.92238163371413
 25
24.88534311434126
 35
0.0
 40
0.0
1001
ACAD
1000
DSTYLE
1002
{
1070
   170
1070
     1
1070
   171
1070
     3
1070
   143
1040
0.0393700787401575
1070
   285
1070
     4
1070
     4
1000
"
1070
   271
1070
     8
1070
    40
1040
1.0
1002
}
1001
ACAD_DSTYLE_DIMRADIAL_EXTENSION
1070
   387
1070
     1
1070
   388
1040
0.0
1070
   390
1040
1.570796326794896
1001
ACAD_DSTYLE_DIMINSPECT
1070
   396
1000

1070
   395
1000

1070
   394
1070
     1
1070
   393
1070
     0
1001
ZWMCAD_GENSTANDARDFRAME_13_
1070
   410
1000
GB
1070
   411
1000
ZwmFrameMain_
  0
VIEWPORT
  5
71
102
{ACAD_XDICTIONARY
360
87B09
102
}
330
55
100
AcDbEntity
 67
     1
  8
0
100
AcDbViewport
 10
150.1652135264906
 20
103.6581106594891
 30
0.0
 40
339.1973820494347
 41
168.6522697578383
 68
     1
 69
    -1
 12
150.1652135264906
 22
103.6581106594891
 13
0.0
 23
0.0
 14
10.0
 24
10.0
 15
10.0
 25
10.0
 16
0.0
 26
0.0
 36
1.0
 17
0.0
 27
0.0
 37
0.0
 42
50.0
 43
0.0
 44
0.0
 45
168.6522697578383
 50
0.0
 51
0.0
 72
  1000
 90
    32864
  1

281
     0
 71
     1
 74
     0
110
0.0
120
0.0
130
0.0
111
1.0
121
0.0
131
0.0
112
0.0
122
1.0
132
0.0
 79
     0
146
0.0
1001
ACAD
1000
MVIEW
1002
{
1070
    16
1010
0.0
1020
0.0
1030
0.0
1010
0.0
1020
0.0
1030
1.0
1040
0.0
1040
168.6522697578383
1040
150.1652135264906
1040
103.6581106594891
1040
50.0
1040
0.0
1040
0.0
1070
     0
1070
  1000
1070
     0
1070
     3
1070
     0
1070
     0
1070
     0
1070
     0
1040
0.0
1040
0.0
1040
0.0
1040
10.0
1040
10.0
1040
10.0
1040
10.0
1070
     0
1002
{
1002
}
1002
}
  0
VIEWPORT
  5
73
102
{ACAD_XDICTIONARY
360
87B0B
102
}
330
55
100
AcDbEntity
 67
     1
  8
0
100
AcDbViewport
 10
133.3499939441681
 20
101.5999939441681
 30
0.0
 40
213.3599903106689
 41
162.5599903106689
 68
     2
 69
    -1
 12
210.0
 22
148.5
 13
0.0
 23
0.0
 14
10.0
 24
10.0
 15
10.0
 25
10.0
 16
0.0
 26
0.0
 36
1.0
 17
0.0
 27
0.0
 37
0.0
 42
50.0
 43
0.0
 44
0.0
 45
324.0677920111345
 50
0.0
 51
0.0
 72
   100
 90
    32864
  1

281
     0
 71
     1
 74
     0
110
0.0
120
0.0
130
0.0
111
1.0
121
0.0
131
0.0
112
0.0
122
1.0
132
0.0
 79
     0
146
0.0
1001
ACAD
1000
MVIEW
1002
{
1070
    16
1010
0.0
1020
0.0
1030
0.0
1010
0.0
1020
0.0
1030
1.0
1040
0.0
1040
324.0677920111345
1040
210.0
1040
148.5
1040
50.0
1040
0.0
1040
0.0
1070
     0
1070
   100
1070
     0
1070
     3
1070
     0
1070
     0
1070
     0
1070
     0
1040
0.0
1040
0.0
1040
0.0
1040
10.0
1040
10.0
1040
10.0
1040
10.0
1070
     0
1002
{
1002
}
1002
}
  0
ENDSEC
  0
SECTION
  2
OBJECTS
  0
DICTIONARY
  5
C
330
0
100
AcDbDictionary
281
     1
  3
ACAD_2007HEADERVARS_RT
350
88255
  3
ACAD_CIP_PREVIOUS_PRODUCT_INFO
350
4A3C3
  3
ACAD_COLOR
350
85
  3
ACAD_DETAILVIEWSTYLE
350
4A3BB
  3
ACAD_GROUP
350
D
  3
ACAD_LAYOUT
350
1A
  3
ACAD_MATERIAL
350
84
  3
ACAD_MLEADERSTYLE
350
4A3B7
  3
ACAD_MLINESTYLE
350
17
  3
ACAD_PLOTSETTINGS
350
19
  3
ACAD_PLOTSTYLENAME
350
E
  3
ACAD_SCALELIST
350
4A3A5
  3
ACAD_SECTIONVIEWSTYLE
350
4A3B9
  3
ACAD_TABLESTYLE
350
A1
  3
ACAD_VISUALSTYLE
350
4A38C
  3
ACDB_RECOMPOSE_DATA
350
8814C
  3
ACDBHEADERROUNDTRIPXREC
350
88252
  3
AcDbVariableDictionary
350
5E
  3
ASE_INDEX_DICTIONARY
350
349E9
  3
DWGPROPS
350
88258
  0
DICTIONARY
  5
88083
330
8
100
AcDbDictionary
280
     1
281
     1
  3
ACAD_XREC_ROUNDTRIP
360
8825E
  0
DICTIONARY
  5
E2
330
2
100
AcDbDictionary
280
     1
281
     1
  3
ACAD_LAYERFILTERS
360
4A339
  3
ACAD_LAYERSTATES
360
3759A
  3
ACLYDICTIONARY
360
4A338
  0
DICTIONARY
  5
4A86C
330
10
100
AcDbDictionary
280
     1
281
     1
  3
ADSK_XREC_LAYER_RECONCILED
360
4A86D
  0
DICTIONARY
  5
4A773
330
4A772
100
AcDbDictionary
280
     1
281
     1
  3
ADSK_XREC_LAYER_RECONCILED
360
4A86E
  0
DICTIONARY
  5
4A775
330
4A774
100
AcDbDictionary
280
     1
281
     1
  3
ADSK_XREC_LAYER_RECONCILED
360
4A86F
  0
DICTIONARY
  5
4A777
330
4A776
100
AcDbDictionary
280
     1
281
     1
  3
ADSK_XREC_LAYER_RECONCILED
360
4A870
  0
DICTIONARY
  5
4A779
330
4A778
100
AcDbDictionary
280
     1
281
     1
  3
ADSK_XREC_LAYER_RECONCILED
360
4A871
  0
DICTIONARY
  5
4A77B
330
4A77A
100
AcDbDictionary
280
     1
281
     1
  3
ADSK_XREC_LAYER_RECONCILED
360
4A872
  0
DICTIONARY
  5
4A77D
330
4A77C
100
AcDbDictionary
280
     1
281
     1
  3
ADSK_XREC_LAYER_RECONCILED
360
4A873
  0
DICTIONARY
  5
4A77F
330
4A77E
100
AcDbDictionary
280
     1
281
     1
  3
ADSK_XREC_LAYER_RECONCILED
360
4A874
  0
DICTIONARY
  5
4A783
330
4A782
100
AcDbDictionary
280
     1
281
     1
  3
ADSK_XREC_LAYER_RECONCILED
360
4A876
  0
DICTIONARY
  5
88081
330
87B52
100
AcDbDictionary
280
     1
281
     1
  3
ACAD_XREC_ROUNDTRIP
360
8825D
  0
DICTIONARY
  5
31EE
330
1F
100
AcDbDictionary
280
     1
281
     1
  3
ACAD_SORTENTS
360
31EF
  0
DICTIONARY
  5
4A6D7
330
4A6D6
100
AcDbDictionary
280
     1
281
     1
  3
ACAD_SORTENTS
360
4A6D8
  0
DICTIONARY
  5
87B05
330
6B
100
AcDbDictionary
280
     1
281
     1
  3
ACAD_XREC_ROUNDTRIP
360
8825B
  0
DICTIONARY
  5
87B07
330
6D
100
AcDbDictionary
280
     1
281
     1
  3
ACAD_XREC_ROUNDTRIP
360
8825C
  0
DICTIONARY
  5
87F04
330
87F03
100
AcDbDictionary
280
     1
281
     1
  3
ACAD_DIMASSOC
360
87F05
  0
DICTIONARY
  5
87F07
330
87F06
100
AcDbDictionary
280
     1
281
     1
  3
ACAD_DIMASSOC
360
87F08
  0
DICTIONARY
  5
87F0C
330
87F0B
100
AcDbDictionary
280
     1
281
     1
  3
ACAD_DIMASSOC
360
87F0D
  0
DICTIONARY
  5
87F0F
330
87F0E
100
AcDbDictionary
280
     1
281
     1
  3
ACAD_DIMASSOC
360
87F10
  0
DICTIONARY
  5
87F13
330
87F12
100
AcDbDictionary
280
     1
281
     1
  3
ACAD_DIMASSOC
360
87F14
  0
DICTIONARY
  5
87F16
330
87F15
100
AcDbDictionary
280
     1
281
     1
  3
ACAD_DIMASSOC
360
87F17
  0
DICTIONARY
  5
87B09
330
71
100
AcDbDictionary
280
     1
281
     1
  3
ACAD_XREC_ROUNDTRIP
360
88259
  0
DICTIONARY
  5
87B0B
330
73
100
AcDbDictionary
280
     1
281
     1
  3
ACAD_XREC_ROUNDTRIP
360
8825A
  0
DICTIONARY
  5
88255
102
{ACAD_REACTORS
330
C
102
}
330
C
100
AcDbDictionary
281
     1
  3
DIMTFILL
350
88256
  3
DIMTFILLCLR
350
88257
  0
XRECORD
  5
4A3C3
102
{ACAD_REACTORS
330
C
102
}
330
C
100
AcDbXrecord
280
     1
300
ACDLT
300
2020
300

  0
DICTIONARY
  5
85
102
{ACAD_REACTORS
330
C
102
}
330
C
100
AcDbDictionary
281
     1
  0
DICTIONARY
  5
4A3BB
102
{ACAD_REACTORS
330
C
102
}
330
C
100
AcDbDictionary
281
     1
  3
Metric50
350
4A3BC
  0
DICTIONARY
  5
D
102
{ACAD_REACTORS
330
C
102
}
330
C
100
AcDbDictionary
281
     1
  0
DICTIONARY
  5
1A
102
{ACAD_REACTORS
330
C
102
}
330
C
100
AcDbDictionary
281
     1
  3
Model
350
22
  3
レイアウト1
350
51
  3
レイアウト2
350
56
  0
DICTIONARY
  5
84
102
{ACAD_REACTORS
330
C
102
}
330
C
100
AcDbDictionary
281
     1
  3
ByBlock
350
4A37C
  3
ByLayer
350
4A374
  3
Global
350
4A384
  0
DICTIONARY
  5
4A3B7
102
{ACAD_REACTORS
330
C
102
}
330
C
100
AcDbDictionary
281
     1
  3
Standard
350
4A3B8
  0
DICTIONARY
  5
17
102
{ACAD_REACTORS
330
C
102
}
330
C
100
AcDbDictionary
281
     1
  3
Standard
350
18
  0
DICTIONARY
  5
19
102
{ACAD_REACTORS
330
C
102
}
330
C
100
AcDbDictionary
281
     1
  0
ACDBDICTIONARYWDFLT
  5
E
102
{ACAD_REACTORS
330
C
102
}
330
C
100
AcDbDictionary
281
     1
  3
Normal
350
F
100
AcDbDictionaryWithDefault
340
F
  0
DICTIONARY
  5
4A3A5
102
{ACAD_REACTORS
330
C
102
}
330
C
100
AcDbDictionary
281
     1
  3
A0
350
4A3A6
  3
A1
350
4A3A7
  3
A2
350
4A3A8
  3
A3
350
4A3A9
  3
A4
350
4A3AA
  3
A5
350
4A3AB
  3
A6
350
4A3AC
  3
A7
350
4A3AD
  3
A8
350
4A3AE
  3
A9
350
4A3AF
  3
B0
350
4A3B0
  3
B1
350
4A3B1
  3
B2
350
4A3B2
  3
B3
350
4A3B3
  3
B4
350
4A3B4
  3
B5
350
4A3B5
  3
B6
350
4A3B6
  0
DICTIONARY
  5
4A3B9
102
{ACAD_REACTORS
330
C
102
}
330
C
100
AcDbDictionary
281
     1
  3
Metric50
350
4A3BA
  0
DICTIONARY
  5
A1
102
{ACAD_REACTORS
330
C
102
}
330
C
100
AcDbDictionary
281
     1
  3
Standard
350
A2
  0
DICTIONARY
  5
4A38C
102
{ACAD_REACTORS
330
C
102
}
330
C
100
AcDbDictionary
281
     1
  3
2dWireframe
350
4A392
  3
Basic
350
4A391
  3
Brighten
350
4A398
  3
ColorChange
350
4A39C
  3
Conceptual
350
4A395
  3
Dim
350
4A397
  3
EdgeColorOff
350
4A3A4
  3
Facepattern
350
4A39B
  3
Flat
350
4A38D
  3
FlatWithEdges
350
4A38E
  3
Gouraud
350
4A38F
  3
GouraudWithEdges
350
4A390
  3
Hidden
350
4A394
  3
JitterOff
350
4A3A2
  3
Linepattern
350
4A39A
  3
OverhangOff
350
4A3A3
  3
Realistic
350
4A396
  3
Shaded
350
4A3A1
  3
Shaded with edges
350
4A3A0
  3
Shades of Gray
350
4A39D
  3
Sketchy
350
4A39E
  3
Thicken
350
4A399
  3
Wireframe
350
4A393
  3
X-Ray
350
4A39F
  0
XRECORD
  5
8814C
102
{ACAD_REACTORS
330
C
102
}
330
C
100
AcDbXrecord
280
     1
 90
        1
330
A2
  0
DICTIONARY
  5
88252
102
{ACAD_REACTORS
330
C
102
}
330
C
100
AcDbDictionary
281
     1
  3
COLORDICT
350
88253
  3
MATERIALDICT
350
88254
  0
DICTIONARY
  5
5E
102
{ACAD_REACTORS
330
C
102
}
330
C
100
AcDbDictionary
281
     1
  3
CANNOSCALE
350
88251
  3
CMLEADERSTYLE
350
4A6CE
  3
CTABLESTYLE
350
B8
  3
CVIEWDETAILSTYLE
350
4A6CF
  3
CVIEWSECTIONSTYLE
350
4A6D0
  3
DIMASSOC
350
5F
  3
HIDETEXT
350
63
  3
INDEXCTL
350
4A879
  3
LAYEREVAL
350
4A6D4
  3
LAYERNOTIFY
350
4A6D5
  3
LIGHTINGUNITS
350
4A6D3
  3
MSLTSCALE
350
4A6D1
  3
PROJECTNAME
350
31CE
  3
SORTENTS
350
4A878
  3
XCLIPFRAME
350
87AF9
  0
DICTIONARY
  5
349E9
102
{ACAD_REACTORS
330
C
102
}
330
C
100
AcDbDictionary
281
     1
  3
ASEBlockHierarchyIndexRecord
350
349EA
1001
DCO15
1040
1842496176.844
  0
XRECORD
  5
88258
102
{ACAD_REACTORS
330
C
102
}
330
C
100
AcDbXrecord
280
     1
  1
DWGPROPS COOKIE
  2

  3

  4

  6

  7

  8
zhangnw
  9

300
=
301
=
302
=
303
=
304
=
305
=
306
=
307
=
308
=
309
=
 40
0.0
 41
2455489.391063368
 42
2458948.465651805
  1

 90
        0
  0
XRECORD
  5
8825E
102
{ACAD_REACTORS
330
88083
102
}
330
88083
100
AcDbXrecord
280
     1
102
VTR_0.000_0.000_1.000_1.000_VISUALSTYLE
340
4A392
102
VTR_0.000_0.000_1.000_1.000_GRIDDISPLAY
 70
     3
102
VTR_0.000_0.000_1.000_1.000_GRIDMAJOR
 70
     5
102
VTR_0.000_0.000_1.000_1.000_DEFAULTLIGHTING
280
     1
102
VTR_0.000_0.000_1.000_1.000_DEFAULTLIGHTINGTYPE
 70
     1
102
VTR_0.000_0.000_1.000_1.000_BRIGHTNESS
141
0.0
102
VTR_0.000_0.000_1.000_1.000_CONTRAST
142
0.0
  0
DICTIONARY
  5
4A339
102
{ACAD_REACTORS
330
E2
102
}
330
E2
100
AcDbDictionary
281
     1
  0
DICTIONARY
  5
3759A
102
{ACAD_REACTORS
330
E2
102
}
330
E2
100
AcDbDictionary
281
     1
  0
DICTIONARY
  5
4A338
102
{ACAD_REACTORS
330
E2
102
}
330
E2
100
AcDbDictionary
281
     1
1001
ACAD
1000
<All
  0
XRECORD
  5
4A86D
102
{ACAD_REACTORS
330
4A86C
102
}
330
4A86C
100
AcDbXrecord
280
     1
290
     1
  0
XRECORD
  5
4A86E
102
{ACAD_REACTORS
330
4A773
102
}
330
4A773
100
AcDbXrecord
280
     1
290
     1
  0
XRECORD
  5
4A86F
102
{ACAD_REACTORS
330
4A775
102
}
330
4A775
100
AcDbXrecord
280
     1
290
     1
  0
XRECORD
  5
4A870
102
{ACAD_REACTORS
330
4A777
102
}
330
4A777
100
AcDbXrecord
280
     1
290
     1
  0
XRECORD
  5
4A871
102
{ACAD_REACTORS
330
4A779
102
}
330
4A779
100
AcDbXrecord
280
     1
290
     1
  0
XRECORD
  5
4A872
102
{ACAD_REACTORS
330
4A77B
102
}
330
4A77B
100
AcDbXrecord
280
     1
290
     1
  0
XRECORD
  5
4A873
102
{ACAD_REACTORS
330
4A77D
102
}
330
4A77D
100
AcDbXrecord
280
     1
290
     1
  0
XRECORD
  5
4A874
102
{ACAD_REACTORS
330
4A77F
102
}
330
4A77F
100
AcDbXrecord
280
     1
290
     1
  0
XRECORD
  5
4A876
102
{ACAD_REACTORS
330
4A783
102
}
330
4A783
100
AcDbXrecord
280
     1
290
     1
  0
XRECORD
  5
8825D
102
{ACAD_REACTORS
330
88081
102
}
330
88081
100
AcDbXrecord
280
     1
102
MATERIAL
340
4A384
  0
SORTENTSTABLE
  5
31EF
102
{ACAD_REACTORS
330
31EE
102
}
330
31EE
100
AcDbSortentsTable
330
1F
  0
SORTENTSTABLE
  5
4A6D8
102
{ACAD_REACTORS
330
4A6D7
102
}
330
4A6D7
100
AcDbSortentsTable
330
4A6D6
  0
XRECORD
  5
8825B
102
{ACAD_REACTORS
330
87B05
102
}
330
87B05
100
AcDbXrecord
280
     1
102
GRIDDISPLAY
 70
     0
102
GRIDMAJOR
 70
     5
102
DEFAULTLIGHTING
280
     1
102
DEFAULTLIGHTINGTYPE
 70
     1
102
BRIGHTNESS
141
0.0
102
CONTRAST
142
0.0
  0
XRECORD
  5
8825C
102
{ACAD_REACTORS
330
87B07
102
}
330
87B07
100
AcDbXrecord
280
     1
102
GRIDDISPLAY
 70
     0
102
GRIDMAJOR
 70
     5
102
DEFAULTLIGHTING
280
     1
102
DEFAULTLIGHTINGTYPE
 70
     1
102
BRIGHTNESS
141
0.0
102
CONTRAST
142
0.0
  0
DIMASSOC
  5
87F05
102
{ACAD_REACTORS
330
87F04
102
}
330
87F04
100
AcDbDimAssoc
330
87F03
 90
        3
 70
     0
 71
     0
  1
AcDbOsnapPointRef
 72
     6
331
87EB3
 73
     2
 91
        0
 40
1.0
 10
0.0
 20
0.0
 30
0.0
332
87E02
 74
     2
 92
        0
 75
     0
  1
AcDbOsnapPointRef
 72
     1
331
87EFB
 73
     2
 91
        0
 40
1.0
 10
0.0
 20
0.0
 30
1.999999999999998E+50
 75
     0
  0
DIMASSOC
  5
87F08
102
{ACAD_REACTORS
330
87F07
102
}
330
87F07
100
AcDbDimAssoc
330
87F06
 90
        3
 70
     0
 71
     0
  1
AcDbOsnapPointRef
 72
    13
331
87E3B
 73
     2
 91
        0
 40
1.570796326794896
 10
0.0
 20
0.0
 30
1.999999999999998E+50
 75
     0
  1
AcDbOsnapPointRef
 72
     1
331
87E0E
 73
     2
 91
        0
 40
1.0
 10
0.0
 20
0.0
 30
1.999999999999998E+50
 75
     0
  0
DIMASSOC
  5
87F0D
102
{ACAD_REACTORS
330
87F0C
102
}
330
87F0C
100
AcDbDimAssoc
330
87F0B
 90
        3
 70
     0
 71
     0
  1
AcDbOsnapPointRef
 72
    13
331
87F09
 73
     2
 91
        0
 40
0.0
 10
0.0
 20
0.0
 30
1.999999999999998E+50
 75
     0
  1
AcDbOsnapPointRef
 72
    13
331
87F0A
 73
     2
 91
        0
 40
0.0
 10
0.0
 20
0.0
 30
1.999999999999998E+50
 75
     0
  0
DIMASSOC
  5
87F10
102
{ACAD_REACTORS
330
87F0F
102
}
330
87F0F
100
AcDbDimAssoc
330
87F0E
 90
        1
 70
     0
 71
     0
  1
AcDbOsnapPointRef
 72
     1
331
87E3B
 73
     2
 91
        0
 40
3.141592653589792
 10
0.0
 20
0.0
 30
1.999999999999998E+50
 75
     0
  0
DIMASSOC
  5
87F14
102
{ACAD_REACTORS
330
87F13
102
}
330
87F13
100
AcDbDimAssoc
330
87F12
 90
        2
 70
     0
 71
     0
  1
AcDbOsnapPointRef
 72
    13
331
87E61
 73
     2
 91
        0
 40
0.0
 10
0.0
 20
0.0
 30
1.999999999999998E+50
 75
     0
  0
DIMASSOC
  5
87F17
102
{ACAD_REACTORS
330
87F16
102
}
330
87F16
100
AcDbDimAssoc
330
87F15
 90
        1
 70
     0
 71
     0
  1
AcDbOsnapPointRef
 72
     1
331
87E00
 73
     2
 91
        0
 40
1.570796326794896
 10
0.0
 20
0.0
 30
1.999999999999998E+50
 75
     0
  0
XRECORD
  5
88259
102
{ACAD_REACTORS
330
87B09
102
}
330
87B09
100
AcDbXrecord
280
     1
102
GRIDDISPLAY
 70
     0
102
GRIDMAJOR
 70
     5
102
DEFAULTLIGHTING
280
     1
102
DEFAULTLIGHTINGTYPE
 70
     1
102
BRIGHTNESS
141
0.0
102
CONTRAST
142
0.0
  0
XRECORD
  5
8825A
102
{ACAD_REACTORS
330
87B0B
102
}
330
87B0B
100
AcDbXrecord
280
     1
102
GRIDDISPLAY
 70
     0
102
GRIDMAJOR
 70
     5
102
DEFAULTLIGHTING
280
     1
102
DEFAULTLIGHTINGTYPE
 70
     1
102
BRIGHTNESS
141
0.0
102
CONTRAST
142
0.0
  0
XRECORD
  5
88256
102
{ACAD_REACTORS
330
88255
102
}
330
88255
100
AcDbXrecord
280
     1
 70
     1
  0
XRECORD
  5
88257
102
{ACAD_REACTORS
330
88255
102
}
330
88255
100
AcDbXrecord
280
     1
1004
1800000001000000000000C1000000000000000000000000
  0
ACDBDETAILVIEWSTYLE
  5
4A3BC
102
{ACAD_XDICTIONARY
360
87B40
102
}
102
{ACAD_REACTORS
330
4A3BB
102
}
330
4A3BB
100
AcDbModelDocViewStyle
 70
     0
  3
Metric50
290
     0
100
AcDbDetailViewStyle
 70
     0
 71
     0
 90
        3
 71
     1
340
11
 40
5.0
340
0
 40
5.0
300

 40
0.0
280
     1
 71
     2
340
16
 90
       25
 71
     3
340
11
 40
5.0
 90
        0
 40
15.0
 90
        1
300
%<\AcVar ViewDetailId>% (%<\AcVar ViewScale \f "%sn">%)
 71
     4
340
16
 90
       25
340
16
 90
       25
280
     0
  0
LAYOUT
  5
22
102
{ACAD_REACTORS
330
1A
102
}
330
1A
100
AcDbPlotSettings
  1

  2
None
  4
ANSI_A_(8.50_x_11.00_Inches)
  6

 40
6.349999904632567
 41
19.04999923706055
 42
6.350006103515625
 43
19.04998779296875
 44
215.8999938964844
 45
279.3999938964844
 46
0.0
 47
0.0
 48
0.0
 49
0.0
140
0.0
141
0.0
142
1.0
143
78.436453180766
 70
 11952
 72
     0
 73
     1
 74
     0
  7

 75
     0
147
0.0127491741332998
148
0.0
149
0.0
100
AcDbLayout
  1
Model
 70
     1
 71
     0
 10
0.0
 20
0.0
 11
12.0
 21
9.0
 12
0.0
 22
0.0
 32
0.0
 14
0.0
 24
0.0
 34
0.0
 15
0.0
 25
0.0
 35
0.0
146
0.0
 13
0.0
 23
0.0
 33
0.0
 16
1.0
 26
0.0
 36
0.0
 17
0.0
 27
1.0
 37
0.0
 76
     0
330
1F
331
4A360
  0
LAYOUT
  5
51
102
{ACAD_REACTORS
330
1A
102
}
330
1A
100
AcDbPlotSettings
  1

  2
none_device
  4
Letter_(8.50_x_11.00_Inches)
  6

 40
6.349999904632567
 41
6.349999904632567
 42
6.350006103515625
 43
6.350006103515625
 44
215.8999938964844
 45
279.3999938964844
 46
0.0
 47
0.0
 48
0.0
 49
0.0
140
0.0
141
0.0
142
1.0
143
1.0
 70
   688
 72
     1
 73
     1
 74
     5
  7

 75
    16
147
1.0
148
0.0
149
0.0
100
AcDbLayout
  1
レイアウト1
 70
     1
 71
     1
 10
-6.350006103515625
 20
-6.349999904632567
 11
273.0499877929688
 21
209.5499939918518
 12
0.0
 22
0.0
 32
0.0
 14
26.66999878883364
 24
20.31999878883365
 34
0.0
 15
240.0299890995025
 25
182.8799890995025
 35
0.0
146
0.0
 13
0.0
 23
0.0
 33
0.0
 16
1.0
 26
0.0
 36
0.0
 17
0.0
 27
1.0
 37
0.0
 76
     0
330
50
331
6B
  0
LAYOUT
  5
56
102
{ACAD_REACTORS
330
1A
102
}
330
1A
100
AcDbPlotSettings
  1

  2
none_device
  4
Letter_(8.50_x_11.00_Inches)
  6

 40
6.349999904632567
 41
6.349999904632567
 42
6.350006103515625
 43
6.350006103515625
 44
215.8999938964844
 45
279.3999938964844
 46
0.0
 47
0.0
 48
0.0
 49
0.0
140
0.0
141
0.0
142
1.0
143
1.0
 70
   688
 72
     1
 73
     1
 74
     5
  7

 75
    16
147
1.0
148
0.0
149
0.0
100
AcDbLayout
  1
レイアウト2
 70
     1
 71
     2
 10
-6.350006103515625
 20
-6.349999904632567
 11
273.0499877929688
 21
209.5499939918518
 12
0.0
 22
0.0
 32
0.0
 14
26.66999878883364
 24
20.31999878883365
 34
0.0
 15
240.0299890995025
 25
182.8799890995025
 35
0.0
146
0.0
 13
0.0
 23
0.0
 33
0.0
 16
1.0
 26
0.0
 36
0.0
 17
0.0
 27
1.0
 37
0.0
 76
     0
330
55
331
71
  0
MATERIAL
  5
4A37C
102
{ACAD_XDICTIONARY
360
4A37D
102
}
102
{ACAD_REACTORS
330
84
102
}
330
84
100
AcDbMaterial
  1
ByBlock
 72
     0
 73
     2
 43
0.0008202099737533
 43
0.0
 43
0.0
 43
0.0
 43
0.0
 43
0.0008202099737533
 43
0.0
 43
0.0
 43
0.0
 43
0.0
 43
1.0
 43
0.0
 43
0.0
 43
0.0
 43
0.0
 43
1.0
 77
     0
 78
     2
 47
0.0008202099737533
 47
0.0
 47
0.0
 47
0.0
 47
0.0
 47
0.0008202099737533
 47
0.0
 47
0.0
 47
0.0
 47
0.0
 47
1.0
 47
0.0
 47
0.0
 47
0.0
 47
0.0
 47
1.0
171
     0
172
     2
 49
0.0008202099737533
 49
0.0
 49
0.0
 49
0.0
 49
0.0
 49
0.0008202099737533
 49
0.0
 49
0.0
 49
0.0
 49
0.0
 49
1.0
 49
0.0
 49
0.0
 49
0.0
 49
0.0
 49
1.0
175
     0
176
     2
142
0.0008202099737533
142
0.0
142
0.0
142
0.0
142
0.0
142
0.0008202099737533
142
0.0
142
0.0
142
0.0
142
0.0
142
1.0
142
0.0
142
0.0
142
0.0
142
0.0
142
1.0
179
     0
270
     2
144
0.0008202099737533
144
0.0
144
0.0
144
0.0
144
0.0
144
0.0008202099737533
144
0.0
144
0.0
144
0.0
144
0.0
144
1.0
144
0.0
144
0.0
144
0.0
144
0.0
144
1.0
274
     2
147
0.0008202099737533
147
0.0
147
0.0
147
0.0
147
0.0
147
0.0008202099737533
147
0.0
147
0.0
147
0.0
147
0.0
147
1.0
147
0.0
147
0.0
147
0.0
147
0.0
147
1.0
  0
MATERIAL
  5
4A374
102
{ACAD_XDICTIONARY
360
4A375
102
}
102
{ACAD_REACTORS
330
84
102
}
330
84
100
AcDbMaterial
  1
ByLayer
 72
     0
 73
     2
 43
0.0008202099737533
 43
0.0
 43
0.0
 43
0.0
 43
0.0
 43
0.0008202099737533
 43
0.0
 43
0.0
 43
0.0
 43
0.0
 43
1.0
 43
0.0
 43
0.0
 43
0.0
 43
0.0
 43
1.0
 77
     0
 78
     2
 47
0.0008202099737533
 47
0.0
 47
0.0
 47
0.0
 47
0.0
 47
0.0008202099737533
 47
0.0
 47
0.0
 47
0.0
 47
0.0
 47
1.0
 47
0.0
 47
0.0
 47
0.0
 47
0.0
 47
1.0
171
     0
172
     2
 49
0.0008202099737533
 49
0.0
 49
0.0
 49
0.0
 49
0.0
 49
0.0008202099737533
 49
0.0
 49
0.0
 49
0.0
 49
0.0
 49
1.0
 49
0.0
 49
0.0
 49
0.0
 49
0.0
 49
1.0
175
     0
176
     2
142
0.0008202099737533
142
0.0
142
0.0
142
0.0
142
0.0
142
0.0008202099737533
142
0.0
142
0.0
142
0.0
142
0.0
142
1.0
142
0.0
142
0.0
142
0.0
142
0.0
142
1.0
179
     0
270
     2
144
0.0008202099737533
144
0.0
144
0.0
144
0.0
144
0.0
144
0.0008202099737533
144
0.0
144
0.0
144
0.0
144
0.0
144
1.0
144
0.0
144
0.0
144
0.0
144
0.0
144
1.0
274
     2
147
0.0008202099737533
147
0.0
147
0.0
147
0.0
147
0.0
147
0.0008202099737533
147
0.0
147
0.0
147
0.0
147
0.0
147
1.0
147
0.0
147
0.0
147
0.0
147
0.0
147
1.0
  0
MATERIAL
  5
4A384
102
{ACAD_XDICTIONARY
360
4A385
102
}
102
{ACAD_REACTORS
330
84
102
}
330
84
100
AcDbMaterial
  1
Global
 72
     0
 73
     2
 43
0.0008202099737533
 43
0.0
 43
0.0
 43
0.0
 43
0.0
 43
0.0008202099737533
 43
0.0
 43
0.0
 43
0.0
 43
0.0
 43
1.0
 43
0.0
 43
0.0
 43
0.0
 43
0.0
 43
1.0
 77
     0
 78
     2
 47
0.0008202099737533
 47
0.0
 47
0.0
 47
0.0
 47
0.0
 47
0.0008202099737533
 47
0.0
 47
0.0
 47
0.0
 47
0.0
 47
1.0
 47
0.0
 47
0.0
 47
0.0
 47
0.0
 47
1.0
171
     0
172
     2
 49
0.0008202099737533
 49
0.0
 49
0.0
 49
0.0
 49
0.0
 49
0.0008202099737533
 49
0.0
 49
0.0
 49
0.0
 49
0.0
 49
1.0
 49
0.0
 49
0.0
 49
0.0
 49
0.0
 49
1.0
175
     0
176
     2
142
0.0008202099737533
142
0.0
142
0.0
142
0.0
142
0.0
142
0.0008202099737533
142
0.0
142
0.0
142
0.0
142
0.0
142
1.0
142
0.0
142
0.0
142
0.0
142
0.0
142
1.0
179
     0
270
     2
144
0.0008202099737533
144
0.0
144
0.0
144
0.0
144
0.0
144
0.0008202099737533
144
0.0
144
0.0
144
0.0
144
0.0
144
1.0
144
0.0
144
0.0
144
0.0
144
0.0
144
1.0
274
     2
147
0.0008202099737533
147
0.0
147
0.0
147
0.0
147
0.0
147
0.0008202099737533
147
0.0
147
0.0
147
0.0
147
0.0
147
1.0
147
0.0
147
0.0
147
0.0
147
0.0
147
1.0
  0
MLEADERSTYLE
  5
4A3B8
102
{ACAD_XDICTIONARY
360
88088
102
}
102
{ACAD_REACTORS
330
4A3B7
102
}
330
4A3B7
100
AcDbMLeaderStyle
170
     2
171
     1
172
     0
 90
        2
 40
0.0
 41
0.0
173
     1
 91
-1056964608
340
14
 92
       -2
290
     1
 42
2.0
291
     1
 43
0.36
  3
Standard
 44
4.0
300

342
11
174
     1
178
     6
175
     1
176
     0
 93
-1056964608
 45
4.0
292
     0
297
     0
 46
4.0
 94
-1056964608
 47
1.0
 49
1.0
140
1.0
293
     1
141
0.0
294
     1
177
     0
142
1.0
295
     0
296
     0
143
0.125
1001
ACAD_MLEADERVER
1070
     2
  0
MLINESTYLE
  5
18
102
{ACAD_REACTORS
330
17
102
}
330
17
100
AcDbMlineStyle
  2
STANDARD
 70
     0
  3

 62
   256
 51
90.0
 52
90.0
 71
     2
 49
0.5
 62
   256
  6
BYLAYER
 49
-0.5
 62
   256
  6
BYLAYER
  0
ACDBPLACEHOLDER
  5
F
102
{ACAD_REACTORS
330
E
102
}
330
E
  0
SCALE
  5
4A3A6
102
{ACAD_REACTORS
330
4A3A5
102
}
330
4A3A5
100
AcDbScale
 70
     0
300
1:1
140
1.0
141
1.0
290
     1
  0
SCALE
  5
4A3A7
102
{ACAD_REACTORS
330
4A3A5
102
}
330
4A3A5
100
AcDbScale
 70
     0
300
1:2
140
1.0
141
2.0
290
     0
  0
SCALE
  5
4A3A8
102
{ACAD_REACTORS
330
4A3A5
102
}
330
4A3A5
100
AcDbScale
 70
     0
300
1:4
140
1.0
141
4.0
290
     0
  0
SCALE
  5
4A3A9
102
{ACAD_REACTORS
330
4A3A5
102
}
330
4A3A5
100
AcDbScale
 70
     0
300
1:5
140
1.0
141
5.0
290
     0
  0
SCALE
  5
4A3AA
102
{ACAD_REACTORS
330
4A3A5
102
}
330
4A3A5
100
AcDbScale
 70
     0
300
1:8
140
1.0
141
8.0
290
     0
  0
SCALE
  5
4A3AB
102
{ACAD_REACTORS
330
4A3A5
102
}
330
4A3A5
100
AcDbScale
 70
     0
300
1:10
140
1.0
141
10.0
290
     0
  0
SCALE
  5
4A3AC
102
{ACAD_REACTORS
330
4A3A5
102
}
330
4A3A5
100
AcDbScale
 70
     0
300
1:16
140
1.0
141
16.0
290
     0
  0
SCALE
  5
4A3AD
102
{ACAD_REACTORS
330
4A3A5
102
}
330
4A3A5
100
AcDbScale
 70
     0
300
1:20
140
1.0
141
20.0
290
     0
  0
SCALE
  5
4A3AE
102
{ACAD_REACTORS
330
4A3A5
102
}
330
4A3A5
100
AcDbScale
 70
     0
300
1:30
140
1.0
141
30.0
290
     0
  0
SCALE
  5
4A3AF
102
{ACAD_REACTORS
330
4A3A5
102
}
330
4A3A5
100
AcDbScale
 70
     0
300
1:40
140
1.0
141
40.0
290
     0
  0
SCALE
  5
4A3B0
102
{ACAD_REACTORS
330
4A3A5
102
}
330
4A3A5
100
AcDbScale
 70
     0
300
1:50
140
1.0
141
50.0
290
     0
  0
SCALE
  5
4A3B1
102
{ACAD_REACTORS
330
4A3A5
102
}
330
4A3A5
100
AcDbScale
 70
     0
300
1:100
140
1.0
141
100.0
290
     0
  0
SCALE
  5
4A3B2
102
{ACAD_REACTORS
330
4A3A5
102
}
330
4A3A5
100
AcDbScale
 70
     0
300
2:1
140
2.0
141
1.0
290
     0
  0
SCALE
  5
4A3B3
102
{ACAD_REACTORS
330
4A3A5
102
}
330
4A3A5
100
AcDbScale
 70
     0
300
4:1
140
4.0
141
1.0
290
     0
  0
SCALE
  5
4A3B4
102
{ACAD_REACTORS
330
4A3A5
102
}
330
4A3A5
100
AcDbScale
 70
     0
300
8:1
140
8.0
141
1.0
290
     0
  0
SCALE
  5
4A3B5
102
{ACAD_REACTORS
330
4A3A5
102
}
330
4A3A5
100
AcDbScale
 70
     0
300
10:1
140
10.0
141
1.0
290
     0
  0
SCALE
  5
4A3B6
102
{ACAD_REACTORS
330
4A3A5
102
}
330
4A3A5
100
AcDbScale
 70
     0
300
100:1
140
100.0
141
1.0
290
     0
  0
ACDBSECTIONVIEWSTYLE
  5
4A3BA
102
{ACAD_XDICTIONARY
360
87B3E
102
}
102
{ACAD_REACTORS
330
4A3B9
102
}
330
4A3B9
100
AcDbModelDocViewStyle
 70
     0
  3
Metric50
290
     0
100
AcDbSectionViewStyle
 70
     0
 71
     0
 90
      102
 71
     1
340
11
 40
5.0
340
0
340
0
 40
5.0
300
I, O, Q, S, X, Z
 40
10.0
 90
        0
 40
2.5
 90
        0
 71
     2
340
16
 90
       25
340
16
 90
       50
 40
5.0
 40
2.5
 40
5.0
 71
     3
340
11
 40
5.0
 90
        0
 40
15.0
 90
        1
300
%<\AcVar ViewSectionStartId>%-%<\AcVar ViewSectionEndId>% (%<\AcVar ViewScale \f "%sn">%)
 71
     4
300
ANSI31
 40
1.0
 90
        0
290
     0
290
     0
 90
        6
 40
0.0
 40
1.570796326794896
 40
0.2617993877991494
 40
1.308996938995747
 40
-0.2617993877991494
 40
1.832595714594044
  0
TABLESTYLE
  5
A2
102
{ACAD_XDICTIONARY
360
4CD9A
102
}
102
{ACAD_REACTORS
330
A1
102
}
330
A1
100
AcDbTableStyle
  3
Standard
 70
     0
 71
     0
 40
1.5
 41
1.5
280
     0
281
     0
  7
Standard
140
4.5
170
     2
 62
     0
 63
   257
283
     0
274
    -2
284
     1
 64
     0
275
    -2
285
     1
 65
     0
276
    -2
286
     1
 66
     0
277
    -2
287
     1
 67
     0
278
    -2
288
     1
 68
     0
279
    -2
289
     1
 69
     0
  7
Standard
140
6.0
170
     5
 62
     0
 63
   257
283
     0
274
    -2
284
     1
 64
     0
275
    -2
285
     1
 65
     0
276
    -2
286
     1
 66
     0
277
    -2
287
     1
 67
     0
278
    -2
288
     1
 68
     0
279
    -2
289
     1
 69
     0
  7
Standard
140
4.5
170
     5
 62
     0
 63
   257
283
     0
274
    -2
284
     1
 64
     0
275
    -2
285
     1
 65
     0
276
    -2
286
     1
 66
     0
277
    -2
287
     1
 67
     0
278
    -2
288
     1
 68
     0
279
    -2
289
     1
 69
     0
  0
VISUALSTYLE
  5
4A392
102
{ACAD_XDICTIONARY
360
87B18
102
}
102
{ACAD_REACTORS
330
4A38C
102
}
330
4A38C
100
AcDbVisualStyle
  2

 70
     4
 71
     0
 72
     2
 73
     0
 90
        0
 40
-0.6
 41
-30.0
 62
     5
 63
     7
 74
     1
 91
        4
 64
     7
 65
   257
 75
     1
175
     1
 42
1.0
 92
        0
 66
   257
 43
1.0
 76
     1
 77
     6
 78
     2
 67
     7
 79
     5
170
     0
171
     0
290
     0
174
     0
 93
        1
 44
0.0
173
     0
291
     0
 45
0.0
1001
ACAD
1000
AcDbSavedByObjectVersion
1070
     0
  0
VISUALSTYLE
  5
4A391
102
{ACAD_XDICTIONARY
360
87B16
102
}
102
{ACAD_REACTORS
330
4A38C
102
}
330
4A38C
100
AcDbVisualStyle
  2

 70
     7
 71
     1
 72
     0
 73
     1
 90
        0
 40
-0.6
 41
-30.0
 62
     5
 63
     7
 74
     0
 91
        4
 64
     7
 65
   257
 75
     1
175
     1
 42
1.0
 92
        8
 66
     7
 43
1.0
 76
     1
 77
     6
 78
     2
 67
     7
 79
     5
170
     0
171
     0
290
     0
174
     0
 93
        1
 44
0.0
173
     0
291
     1
 45
0.0
1001
ACAD
1000
AcDbSavedByObjectVersion
1070
     0
  0
VISUALSTYLE
  5
4A398
102
{ACAD_XDICTIONARY
360
87B24
102
}
102
{ACAD_REACTORS
330
4A38C
102
}
330
4A38C
100
AcDbVisualStyle
  2

 70
    12
 71
     2
 72
     2
 73
     0
 90
        0
 40
-0.6
 41
-30.0
 62
     5
 63
     7
 74
     1
 91
        4
 64
     7
 65
   257
 75
     1
175
     1
 42
1.0
 92
        8
 66
     7
 43
1.0
 76
     1
 77
     6
 78
     2
 67
     7
 79
     5
170
     0
171
     0
290
     0
174
     0
 93
        1
 44
50.0
173
     0
291
     1
 45
0.0
1001
ACAD
1000
AcDbSavedByObjectVersion
1070
     0
  0
VISUALSTYLE
  5
4A39C
102
{ACAD_XDICTIONARY
360
87B2C
102
}
102
{ACAD_REACTORS
330
4A38C
102
}
330
4A38C
100
AcDbVisualStyle
  2

 70
    16
 71
     2
 72
     2
 73
     3
 90
        0
 40
-0.6
 41
-30.0
 62
     5
 63
     8
 74
     1
 91
        4
 64
     7
 65
   257
 75
     1
175
     1
 42
1.0
 92
        8
 66
     8
 43
1.0
 76
     1
 77
     6
 78
     2
 67
     7
 79
     5
170
     0
171
     0
290
     0
174
     0
 93
        1
 44
0.0
173
     0
291
     1
 45
0.0
1001
ACAD
1000
AcDbSavedByObjectVersion
1070
     0
  0
VISUALSTYLE
  5
4A395
102
{ACAD_XDICTIONARY
360
87B1E
102
}
102
{ACAD_REACTORS
330
4A38C
102
}
330
4A38C
100
AcDbVisualStyle
  2

 70
     9
 71
     3
 72
     2
 73
     0
 90
        0
 40
-0.6
 41
-30.0
 62
     5
 63
     7
 74
     2
 91
        2
 64
     7
 65
   257
 75
     1
175
     1
 42
179.0
 92
        8
 66
     7
 43
1.0
 76
     1
 77
     6
 78
     2
 67
     7
 79
     3
170
     0
171
     0
290
     0
174
     0
 93
        1
 44
0.0
173
     0
291
     0
 45
0.0
1001
ACAD
1000
AcDbSavedByObjectVersion
1070
     0
  0
VISUALSTYLE
  5
4A397
102
{ACAD_XDICTIONARY
360
87B22
102
}
102
{ACAD_REACTORS
330
4A38C
102
}
330
4A38C
100
AcDbVisualStyle
  2

 70
    11
 71
     2
 72
     2
 73
     0
 90
        0
 40
-0.6
 41
-30.0
 62
     5
 63
     7
 74
     1
 91
        4
 64
     7
 65
   257
 75
     1
175
     1
 42
1.0
 92
        8
 66
     7
 43
1.0
 76
     1
 77
     6
 78
     2
 67
     7
 79
     5
170
     0
171
     0
290
     0
174
     0
 93
        1
 44
-50.0
173
     0
291
     1
 45
0.0
1001
ACAD
1000
AcDbSavedByObjectVersion
1070
     0
  0
VISUALSTYLE
  5
4A3A4
102
{ACAD_XDICTIONARY
360
87B3C
102
}
102
{ACAD_REACTORS
330
4A38C
102
}
330
4A38C
100
AcDbVisualStyle
  2

 70
    22
 71
     2
 72
     2
 73
     0
 90
        0
 40
-0.6
 41
-30.0
 62
     5
 63
     7
 74
     1
 91
        4
 64
     7
 65
   257
 75
     1
175
     1
 42
1.0
 92
        8
 66
     7
 43
1.0
 76
     1
 77
     6
 78
     2
 67
     7
 79
     5
170
     0
171
     0
290
     0
174
     0
 93
        1
 44
0.0
173
     0
291
     1
 45
0.0
1001
ACAD
1000
AcDbSavedByObjectVersion
1070
     0
  0
VISUALSTYLE
  5
4A39B
102
{ACAD_XDICTIONARY
360
87B2A
102
}
102
{ACAD_REACTORS
330
4A38C
102
}
330
4A38C
100
AcDbVisualStyle
  2

 70
    15
 71
     2
 72
     2
 73
     0
 90
        0
 40
-0.6
 41
-30.0
 62
     5
 63
     7
 74
     1
 91
        4
 64
     7
 65
   257
 75
     1
175
     1
 42
1.0
 92
        8
 66
     7
 43
1.0
 76
     1
 77
     6
 78
     2
 67
     7
 79
     5
170
     0
171
     0
290
     0
174
     0
 93
        1
 44
0.0
173
     0
291
     1
 45
0.0
1001
ACAD
1000
AcDbSavedByObjectVersion
1070
     0
  0
VISUALSTYLE
  5
4A38D
102
{ACAD_XDICTIONARY
360
87B0E
102
}
102
{ACAD_REACTORS
330
4A38C
102
}
330
4A38C
100
AcDbVisualStyle
  2

 70
     0
 71
     2
 72
     1
 73
     1
 90
        2
 40
-0.6
 41
30.0
 62
     5
 63
     7
 74
     0
 91
        0
 64
     7
 65
   257
 75
     1
175
     1
 42
1.0
 92
        8
 66
     7
 43
1.0
 76
     1
 77
     6
 78
     2
 67
     7
 79
     5
170
     0
171
     0
290
     0
174
     0
 93
       13
 44
0.0
173
     0
291
     1
 45
0.0
1001
ACAD
1000
AcDbSavedByObjectVersion
1070
     0
  0
VISUALSTYLE
  5
4A38E
102
{ACAD_XDICTIONARY
360
87B10
102
}
102
{ACAD_REACTORS
330
4A38C
102
}
330
4A38C
100
AcDbVisualStyle
  2

 70
     1
 71
     2
 72
     1
 73
     1
 90
        2
 40
-0.6
 41
30.0
 62
     5
 63
     7
 74
     1
 91
        0
 64
     7
 65
   257
 75
     1
175
     1
 42
1.0
 92
        0
 66
   257
 43
1.0
 76
     1
 77
     6
 78
     2
 67
     7
 79
     5
170
     0
171
     0
290
     0
174
     0
 93
       13
 44
0.0
173
     0
291
     1
 45
0.0
1001
ACAD
1000
AcDbSavedByObjectVersion
1070
     0
  0
VISUALSTYLE
  5
4A38F
102
{ACAD_XDICTIONARY
360
87B12
102
}
102
{ACAD_REACTORS
330
4A38C
102
}
330
4A38C
100
AcDbVisualStyle
  2

 70
     2
 71
     2
 72
     2
 73
     1
 90
        2
 40
-0.6
 41
30.0
 62
     5
 63
     7
 74
     0
 91
        0
 64
     7
 65
   257
 75
     1
175
     1
 42
1.0
 92
        0
 66
     7
 43
1.0
 76
     1
 77
     6
 78
     2
 67
     7
 79
     5
170
     0
171
     0
290
     0
174
     0
 93
       13
 44
0.0
173
     0
291
     1
 45
0.0
1001
ACAD
1000
AcDbSavedByObjectVersion
1070
     0
  0
VISUALSTYLE
  5
4A390
102
{ACAD_XDICTIONARY
360
87B14
102
}
102
{ACAD_REACTORS
330
4A38C
102
}
330
4A38C
100
AcDbVisualStyle
  2

 70
     3
 71
     2
 72
     2
 73
     1
 90
        2
 40
-0.6
 41
30.0
 62
     5
 63
     7
 74
     1
 91
        0
 64
     7
 65
   257
 75
     1
175
     1
 42
1.0
 92
        0
 66
   257
 43
1.0
 76
     1
 77
     6
 78
     2
 67
     7
 79
     5
170
     0
171
     0
290
     0
174
     0
 93
       13
 44
0.0
173
     0
291
     1
 45
0.0
1001
ACAD
1000
AcDbSavedByObjectVersion
1070
     0
  0
VISUALSTYLE
  5
4A394
102
{ACAD_XDICTIONARY
360
87B1C
102
}
102
{ACAD_REACTORS
330
4A38C
102
}
330
4A38C
100
AcDbVisualStyle
  2

 70
     6
 71
     1
 72
     2
 73
     2
 90
        0
 40
-0.6
 41
-30.0
 62
     5
 63
     7
 74
     2
 91
        2
 64
     7
 65
   257
 75
     2
175
     1
 42
40.0
 92
        0
 66
   257
 43
1.0
 76
     1
 77
     6
 78
     2
 67
     7
 79
     3
170
     0
171
     0
290
     0
174
     0
 93
        1
 44
0.0
173
     0
291
     0
 45
0.0
1001
ACAD
1000
AcDbSavedByObjectVersion
1070
     0
  0
VISUALSTYLE
  5
4A3A2
102
{ACAD_XDICTIONARY
360
87B38
102
}
102
{ACAD_REACTORS
330
4A38C
102
}
330
4A38C
100
AcDbVisualStyle
  2

 70
    20
 71
     2
 72
     2
 73
     0
 90
        0
 40
-0.6
 41
-30.0
 62
     5
 63
     7
 74
     1
 91
        4
 64
     7
 65
   257
 75
     1
175
     1
 42
1.0
 92
       10
 66
     7
 43
1.0
 76
     1
 77
     6
 78
     2
 67
     7
 79
     5
170
     0
171
     0
290
     0
174
     0
 93
        1
 44
0.0
173
     0
291
     1
 45
0.0
1001
ACAD
1000
AcDbSavedByObjectVersion
1070
     0
  0
VISUALSTYLE
  5
4A39A
102
{ACAD_XDICTIONARY
360
87B28
102
}
102
{ACAD_REACTORS
330
4A38C
102
}
330
4A38C
100
AcDbVisualStyle
  2

 70
    14
 71
     2
 72
     2
 73
     0
 90
        0
 40
-0.6
 41
-30.0
 62
     5
 63
     7
 74
     1
 91
        4
 64
     7
 65
   257
 75
     7
175
     7
 42
1.0
 92
        8
 66
     7
 43
1.0
 76
     1
 77
     6
 78
     2
 67
     7
 79
     5
170
     0
171
     0
290
     0
174
     0
 93
        1
 44
0.0
173
     0
291
     1
 45
0.0
1001
ACAD
1000
AcDbSavedByObjectVersion
1070
     0
  0
VISUALSTYLE
  5
4A3A3
102
{ACAD_XDICTIONARY
360
87B3A
102
}
102
{ACAD_REACTORS
330
4A38C
102
}
330
4A38C
100
AcDbVisualStyle
  2

 70
    21
 71
     2
 72
     2
 73
     0
 90
        0
 40
-0.6
 41
-30.0
 62
     5
 63
     7
 74
     1
 91
        4
 64
     7
 65
   257
 75
     1
175
     1
 42
1.0
 92
        9
 66
     7
 43
1.0
 76
     1
 77
     6
 78
     2
 67
     7
 79
     5
170
     0
171
     0
290
     0
174
     0
 93
        1
 44
0.0
173
     0
291
     1
 45
0.0
1001
ACAD
1000
AcDbSavedByObjectVersion
1070
     0
  0
VISUALSTYLE
  5
4A396
102
{ACAD_XDICTIONARY
360
87B20
102
}
102
{ACAD_REACTORS
330
4A38C
102
}
330
4A38C
100
AcDbVisualStyle
  2

 70
     8
 71
     2
 72
     3
 73
     0
 90
        2
 40
-0.6
 41
30.0
 62
     5
 63
     7
 74
     0
 91
        0
 64
     7
 65
   257
 75
     1
175
     1
 42
1.0
 92
        8
 66
   257
 43
1.0
 76
     1
 77
     6
 78
     2
 67
     7
 79
     3
170
     0
171
     0
290
     0
174
     0
 93
       13
 44
0.0
173
     0
291
     0
 45
0.0
1001
ACAD
1000
AcDbSavedByObjectVersion
1070
     0
  0
VISUALSTYLE
  5
4A3A1
102
{ACAD_XDICTIONARY
360
87B36
102
}
102
{ACAD_REACTORS
330
4A38C
102
}
330
4A38C
100
AcDbVisualStyle
  2

 70
    27
 71
     2
 72
     2
 73
     1
 90
        2
 40
-0.6
 41
30.0
 62
     5
 63
     7
 74
     0
 91
        4
 64
     7
 65
   257
 75
     1
175
     1
 42
1.0
 92
        8
 66
   257
 43
1.0
 76
     1
 77
     6
 78
     2
 67
     8
 79
     3
170
     0
171
     0
290
     0
174
     0
 93
        5
 44
0.0
173
     0
291
     0
 45
0.0
1001
ACAD
1000
AcDbSavedByObjectVersion
1070
     0
  0
VISUALSTYLE
  5
4A3A0
102
{ACAD_XDICTIONARY
360
87B34
102
}
102
{ACAD_REACTORS
330
4A38C
102
}
330
4A38C
100
AcDbVisualStyle
  2

 70
    26
 71
     2
 72
     2
 73
     1
 90
        2
 40
-0.6
 41
30.0
 62
     5
 63
     7
 74
     1
 91
        2
 64
     7
 65
   257
 75
     2
175
     1
 42
1.0
 92
        8
 66
   257
 43
1.0
 76
     1
 77
     6
 78
     2
 67
     7
 79
     3
170
     0
171
     0
290
     0
174
     0
 93
        5
 44
0.0
173
     0
291
     0
 45
0.0
1001
ACAD
1000
AcDbSavedByObjectVersion
1070
     0
  0
VISUALSTYLE
  5
4A39D
102
{ACAD_XDICTIONARY
360
87B2E
102
}
102
{ACAD_REACTORS
330
4A38C
102
}
330
4A38C
100
AcDbVisualStyle
  2

 70
    23
 71
     2
 72
     2
 73
     3
 90
        0
 40
-0.6
 41
-30.0
 62
     5
 63
     7
 74
     2
 91
        2
 64
     7
 65
     7
 75
     1
175
     1
 42
40.0
 92
        8
 66
     7
 43
1.0
 76
     1
 77
     6
 78
     2
 67
     7
 79
     3
170
     0
171
     0
290
     0
174
     0
 93
        1
 44
0.0
173
     0
291
     0
 45
0.0
1001
ACAD
1000
AcDbSavedByObjectVersion
1070
     0
  0
VISUALSTYLE
  5
4A39E
102
{ACAD_XDICTIONARY
360
87B30
102
}
102
{ACAD_REACTORS
330
4A38C
102
}
330
4A38C
100
AcDbVisualStyle
  2

 70
    24
 71
     1
 72
     2
 73
     2
 90
        0
 40
-0.6
 41
-30.0
 62
     5
 63
     7
 74
     2
 91
        2
 64
     7
 65
     7
 75
     1
175
     1
 42
40.0
 92
       11
 66
     7
 43
1.0
 76
     1
 77
     6
 78
     2
 67
     7
 79
     6
170
     0
171
     0
290
     0
174
     0
 93
        1
 44
0.0
173
     0
291
     0
 45
0.0
1001
ACAD
1000
AcDbSavedByObjectVersion
1070
     0
  0
VISUALSTYLE
  5
4A399
102
{ACAD_XDICTIONARY
360
87B26
102
}
102
{ACAD_REACTORS
330
4A38C
102
}
330
4A38C
100
AcDbVisualStyle
  2

 70
    13
 71
     2
 72
     2
 73
     0
 90
        0
 40
-0.6
 41
-30.0
 62
     5
 63
     7
 74
     1
 91
        4
 64
     7
 65
   257
 75
     1
175
     1
 42
1.0
 92
       12
 66
     7
 43
1.0
 76
     1
 77
     6
 78
     2
 67
     7
 79
     5
170
     0
171
     0
290
     0
174
     0
 93
        1
 44
0.0
173
     0
291
     1
 45
0.0
1001
ACAD
1000
AcDbSavedByObjectVersion
1070
     0
  0
VISUALSTYLE
  5
4A393
102
{ACAD_XDICTIONARY
360
87B1A
102
}
102
{ACAD_REACTORS
330
4A38C
102
}
330
4A38C
100
AcDbVisualStyle
  2

 70
     5
 71
     0
 72
     2
 73
     0
 90
        0
 40
-0.6
 41
-30.0
 62
     5
 63
     7
 74
     1
 91
        4
 64
     7
 65
   257
 75
     1
175
     1
 42
1.0
 92
        0
 66
   257
 43
1.0
 76
     1
 77
     6
 78
     2
 67
     7
 79
     3
170
     0
171
     0
290
     0
174
     0
 93
        1
 44
0.0
173
     0
291
     0
 45
0.0
1001
ACAD
1000
AcDbSavedByObjectVersion
1070
     0
  0
VISUALSTYLE
  5
4A39F
102
{ACAD_XDICTIONARY
360
87B32
102
}
102
{ACAD_REACTORS
330
4A38C
102
}
330
4A38C
100
AcDbVisualStyle
  2

 70
    25
 71
     2
 72
     2
 73
     1
 90
        1
 40
0.5
 41
-30.0
 62
     5
 63
     7
 74
     1
 91
        0
 64
     7
 65
   257
 75
     1
175
     1
 42
1.0
 92
        8
 66
     7
 43
1.0
 76
     1
 77
     6
 78
     2
 67
     7
 79
     3
170
     0
171
     0
290
     0
174
     0
 93
       13
 44
0.0
173
     0
291
     0
 45
0.0
1001
ACAD
1000
AcDbSavedByObjectVersion
1070
     0
  0
XRECORD
  5
88253
102
{ACAD_REACTORS
330
88252
102
}
330
88252
100
AcDbXrecord
280
     1
340
85
  0
XRECORD
  5
88254
102
{ACAD_REACTORS
330
88252
102
}
330
88252
100
AcDbXrecord
280
     1
340
84
  0
DICTIONARYVAR
  5
88251
102
{ACAD_REACTORS
330
5E
102
}
330
5E
100
DictionaryVariables
280
   100
  1
1:1
  0
DICTIONARYVAR
  5
4A6CE
102
{ACAD_REACTORS
330
5E
102
}
330
5E
100
DictionaryVariables
280
     0
  1
STANDARD
  0
DICTIONARYVAR
  5
B8
102
{ACAD_REACTORS
330
5E
102
}
330
5E
100
DictionaryVariables
280
     0
  1
STANDARD
  0
DICTIONARYVAR
  5
4A6CF
102
{ACAD_REACTORS
330
5E
102
}
330
5E
100
DictionaryVariables
280
     0
  1
Metric50
  0
DICTIONARYVAR
  5
4A6D0
102
{ACAD_REACTORS
330
5E
102
}
330
5E
100
DictionaryVariables
280
     0
  1
Metric50
  0
DICTIONARYVAR
  5
5F
102
{ACAD_REACTORS
330
5E
102
}
330
5E
100
DictionaryVariables
280
     0
  1
2
  0
DICTIONARYVAR
  5
63
102
{ACAD_REACTORS
330
5E
102
}
330
5E
100
DictionaryVariables
280
     0
  1
1
  0
DICTIONARYVAR
  5
4A879
102
{ACAD_REACTORS
330
5E
102
}
330
5E
100
DictionaryVariables
280
     0
  1
0
  0
DICTIONARYVAR
  5
4A6D4
102
{ACAD_REACTORS
330
5E
102
}
330
5E
100
DictionaryVariables
280
     0
  1
1
  0
DICTIONARYVAR
  5
4A6D5
102
{ACAD_REACTORS
330
5E
102
}
330
5E
100
DictionaryVariables
280
     0
  1
15
  0
DICTIONARYVAR
  5
4A6D3
102
{ACAD_REACTORS
330
5E
102
}
330
5E
100
DictionaryVariables
280
     0
  1
0
  0
DICTIONARYVAR
  5
4A6D1
102
{ACAD_REACTORS
330
5E
102
}
330
5E
100
DictionaryVariables
280
     0
  1
0
  0
DICTIONARYVAR
  5
31CE
102
{ACAD_REACTORS
330
5E
102
}
330
5E
100
DictionaryVariables
280
     0
  1

  0
DICTIONARYVAR
  5
4A878
102
{ACAD_REACTORS
330
5E
102
}
330
5E
100
DictionaryVariables
280
     0
  1
127
  0
DICTIONARYVAR
  5
87AF9
102
{ACAD_REACTORS
330
5E
102
}
330
5E
100
DictionaryVariables
280
     0
  1
2
  0
XRECORD
  5
349EA
102
{ACAD_REACTORS
330
349E9
102
}
330
349E9
100
AcDbXrecord
280
     1
330
0
330
0
330
0
330
0
330
0
330
0
330
0
330
0
330
0
330
0
330
0
330
0
330
0
330
0
330
0
330
0
330
0
330
0
330
0
330
0
330
0
330
0
330
0
330
0
330
0
330
0
330
0
330
0
330
0
330
0
330
0
330
0
330
0
330
0
330
0
330
0
330
0
330
0
330
0
330
0
330
0
330
0
330
0
330
0
330
0
330
0
330
0
330
0
330
0
330
0
330
0
330
0
330
0
330
0
330
0
330
0
330
0
330
0
330
0
330
0
330
0
330
0
330
0
330
0
330
0
330
0
330
0
330
0
330
0
330
0
330
0
330
0
330
0
330
0
330
0
330
0
330
0
330
0
330
0
330
0
330
0
330
0
330
0
330
0
330
0
330
0
330
0
330
0
330
0
330
0
330
0
330
0
330
0
330
0
330
0
330
0
330
0
330
0
330
0
330
0
330
0
330
0
330
0
330
0
330
0
330
0
330
0
330
0
330
0
330
0
  0
DICTIONARY
  5
87B40
330
4A3BC
100
AcDbDictionary
280
     1
281
     1
  3
ACAD_XREC_ROUNDTRIP
360
87B41
  0
DICTIONARY
  5
4A37D
330
4A37C
100
AcDbDictionary
280
     1
281
     1
  3
ACAD_XREC_ROUNDTRIP
360
8825F
  0
DICTIONARY
  5
4A375
330
4A374
100
AcDbDictionary
280
     1
281
     1
  3
ACAD_XREC_ROUNDTRIP
360
88260
  0
DICTIONARY
  5
4A385
330
4A384
100
AcDbDictionary
280
     1
281
     1
  3
ACAD_XREC_ROUNDTRIP
360
88261
  0
DICTIONARY
  5
88088
330
4A3B8
100
AcDbDictionary
280
     1
281
     1
  3
ACAD_XREC_ROUNDTRIP
360
88262
  0
DICTIONARY
  5
87B3E
330
4A3BA
100
AcDbDictionary
280
     1
281
     1
  3
ACAD_XREC_ROUNDTRIP
360
87B3F
  0
DICTIONARY
  5
4CD9A
330
A2
100
AcDbDictionary
280
     1
281
     1
  3
ACAD_ROUNDTRIP_2008_TABLESTYLE_CELLSTYLEMAP
360
88264
  3
ACAD_XREC_ROUNDTRIP
360
88263
  0
DICTIONARY
  5
87B18
330
4A392
100
AcDbDictionary
280
     1
281
     1
  3
ACAD_XREC_ROUNDTRIP
360
88265
  0
DICTIONARY
  5
87B16
330
4A391
100
AcDbDictionary
280
     1
281
     1
  3
ACAD_XREC_ROUNDTRIP
360
88266
  0
DICTIONARY
  5
87B24
330
4A398
100
AcDbDictionary
280
     1
281
     1
  3
ACAD_XREC_ROUNDTRIP
360
88267
  0
DICTIONARY
  5
87B2C
330
4A39C
100
AcDbDictionary
280
     1
281
     1
  3
ACAD_XREC_ROUNDTRIP
360
88268
  0
DICTIONARY
  5
87B1E
330
4A395
100
AcDbDictionary
280
     1
281
     1
  3
ACAD_XREC_ROUNDTRIP
360
88269
  0
DICTIONARY
  5
87B22
330
4A397
100
AcDbDictionary
280
     1
281
     1
  3
ACAD_XREC_ROUNDTRIP
360
8826A
  0
DICTIONARY
  5
87B3C
330
4A3A4
100
AcDbDictionary
280
     1
281
     1
  3
ACAD_XREC_ROUNDTRIP
360
8826B
  0
DICTIONARY
  5
87B2A
330
4A39B
100
AcDbDictionary
280
     1
281
     1
  3
ACAD_XREC_ROUNDTRIP
360
8826C
  0
DICTIONARY
  5
87B0E
330
4A38D
100
AcDbDictionary
280
     1
281
     1
  3
ACAD_XREC_ROUNDTRIP
360
8826D
  0
DICTIONARY
  5
87B10
330
4A38E
100
AcDbDictionary
280
     1
281
     1
  3
ACAD_XREC_ROUNDTRIP
360
8826E
  0
DICTIONARY
  5
87B12
330
4A38F
100
AcDbDictionary
280
     1
281
     1
  3
ACAD_XREC_ROUNDTRIP
360
8826F
  0
DICTIONARY
  5
87B14
330
4A390
100
AcDbDictionary
280
     1
281
     1
  3
ACAD_XREC_ROUNDTRIP
360
88270
  0
DICTIONARY
  5
87B1C
330
4A394
100
AcDbDictionary
280
     1
281
     1
  3
ACAD_XREC_ROUNDTRIP
360
88271
  0
DICTIONARY
  5
87B38
330
4A3A2
100
AcDbDictionary
280
     1
281
     1
  3
ACAD_XREC_ROUNDTRIP
360
88272
  0
DICTIONARY
  5
87B28
330
4A39A
100
AcDbDictionary
280
     1
281
     1
  3
ACAD_XREC_ROUNDTRIP
360
88273
  0
DICTIONARY
  5
87B3A
330
4A3A3
100
AcDbDictionary
280
     1
281
     1
  3
ACAD_XREC_ROUNDTRIP
360
88274
  0
DICTIONARY
  5
87B20
330
4A396
100
AcDbDictionary
280
     1
281
     1
  3
ACAD_XREC_ROUNDTRIP
360
88275
  0
DICTIONARY
  5
87B36
330
4A3A1
100
AcDbDictionary
280
     1
281
     1
  3
ACAD_XREC_ROUNDTRIP
360
88276
  0
DICTIONARY
  5
87B34
330
4A3A0
100
AcDbDictionary
280
     1
281
     1
  3
ACAD_XREC_ROUNDTRIP
360
88277
  0
DICTIONARY
  5
87B2E
330
4A39D
100
AcDbDictionary
280
     1
281
     1
  3
ACAD_XREC_ROUNDTRIP
360
88278
  0
DICTIONARY
  5
87B30
330
4A39E
100
AcDbDictionary
280
     1
281
     1
  3
ACAD_XREC_ROUNDTRIP
360
88279
  0
DICTIONARY
  5
87B26
330
4A399
100
AcDbDictionary
280
     1
281
     1
  3
ACAD_XREC_ROUNDTRIP
360
8827A
  0
DICTIONARY
  5
87B1A
330
4A393
100
AcDbDictionary
280
     1
281
     1
  3
ACAD_XREC_ROUNDTRIP
360
8827B
  0
DICTIONARY
  5
87B32
330
4A39F
100
AcDbDictionary
280
     1
281
     1
  3
ACAD_XREC_ROUNDTRIP
360
8827C
  0
XRECORD
  5
87B41
102
{ACAD_REACTORS
330
87B40
102
}
330
87B40
100
AcDbXrecord
280
     1
102
DISPLAYNAME
  1
Metric50
102
FLAGS
 90
        0
  0
XRECORD
  5
8825F
102
{ACAD_REACTORS
330
4A37D
102
}
330
4A37D
100
AcDbXrecord
280
     1
102
MATERIAL
148
0.0
149
0.0
149
0.0
 93
        0
 94
      127
282
     0
 72
     0
 77
     0
171
     0
175
     0
179
     0
273
     0
  0
XRECORD
  5
88260
102
{ACAD_REACTORS
330
4A375
102
}
330
4A375
100
AcDbXrecord
280
     1
102
MATERIAL
148
0.0
149
0.0
149
0.0
 93
        0
 94
      127
282
     0
 72
     0
 77
     0
171
     0
175
     0
179
     0
273
     0
  0
XRECORD
  5
88261
102
{ACAD_REACTORS
330
4A385
102
}
330
4A385
100
AcDbXrecord
280
     1
102
MATERIAL
148
0.0
149
0.0
149
0.0
 93
        0
 94
      127
282
     0
 72
     0
 77
     0
171
     0
175
     0
179
     0
273
     0
  0
XRECORD
  5
88262
102
{ACAD_REACTORS
330
88088
102
}
330
88088
100
AcDbXrecord
280
     1
102
ACAD_ROUNDTRIP_2010_MLEADER_STYLE
  0
XRECORD
  5
87B3F
102
{ACAD_REACTORS
330
87B3E
102
}
330
87B3E
100
AcDbXrecord
280
     1
102
DISPLAYNAME
  1
Metric50
102
FLAGS
 90
        0
  0
CELLSTYLEMAP
  5
88264
102
{ACAD_REACTORS
330
4CD9A
102
}
330
4CD9A
100
AcDbCellStyleMap
 90
        3
300
CELLSTYLE
  1
TABLEFORMAT_BEGIN
 90
        5
170
     1
 91
        0
 92
    32768
 62
   257
 93
        1
300
CONTENTFORMAT
  1
CONTENTFORMAT_BEGIN
 90
        0
 91
        0
 92
        4
 93
        0
300

 40
0.0
140
1.0
 94
        5
 62
     0
340
11
144
6.0
309
CONTENTFORMAT_END
171
     1
301
MARGIN
  1
CELLMARGIN_BEGIN
 40
1.5
 40
1.5
 40
1.5
 40
1.5
 40
0.18
 40
0.18
309
CELLMARGIN_END
 94
        6
 95
        1
302
GRIDFORMAT
  1
GRIDFORMAT_BEGIN
 90
        0
 91
        1
 62
     0
 92
       -2
340
0
 93
        0
 40
0.045
309
GRIDFORMAT_END
 95
        2
302
GRIDFORMAT
  1
GRIDFORMAT_BEGIN
 90
        0
 91
        1
 62
     0
 92
       -2
340
0
 93
        0
 40
0.045
309
GRIDFORMAT_END
 95
        4
302
GRIDFORMAT
  1
GRIDFORMAT_BEGIN
 90
        0
 91
        1
 62
     0
 92
       -2
340
0
 93
        0
 40
0.045
309
GRIDFORMAT_END
 95
        8
302
GRIDFORMAT
  1
GRIDFORMAT_BEGIN
 90
        0
 91
        1
 62
     0
 92
       -2
340
0
 93
        0
 40
0.045
309
GRIDFORMAT_END
 95
       16
302
GRIDFORMAT
  1
GRIDFORMAT_BEGIN
 90
        0
 91
        1
 62
     0
 92
       -2
340
0
 93
        0
 40
0.045
309
GRIDFORMAT_END
 95
       32
302
GRIDFORMAT
  1
GRIDFORMAT_BEGIN
 90
        0
 91
        1
 62
     0
 92
       -2
340
0
 93
        0
 40
0.045
309
GRIDFORMAT_END
309
TABLEFORMAT_END
  1
CELLSTYLE_BEGIN
 90
        1
 91
        1
300
_TITLE
309
CELLSTYLE_END
300
CELLSTYLE
  1
TABLEFORMAT_BEGIN
 90
        5
170
     1
 91
        0
 92
        0
 62
   257
 93
        1
300
CONTENTFORMAT
  1
CONTENTFORMAT_BEGIN
 90
        0
 91
        0
 92
        4
 93
        0
300

 40
0.0
140
1.0
 94
        5
 62
     0
340
11
144
4.5
309
CONTENTFORMAT_END
171
     1
301
MARGIN
  1
CELLMARGIN_BEGIN
 40
1.5
 40
1.5
 40
1.5
 40
1.5
 40
0.18
 40
0.18
309
CELLMARGIN_END
 94
        6
 95
        1
302
GRIDFORMAT
  1
GRIDFORMAT_BEGIN
 90
        0
 91
        1
 62
     0
 92
       -2
340
0
 93
        0
 40
0.045
309
GRIDFORMAT_END
 95
        2
302
GRIDFORMAT
  1
GRIDFORMAT_BEGIN
 90
        0
 91
        1
 62
     0
 92
       -2
340
0
 93
        0
 40
0.045
309
GRIDFORMAT_END
 95
        4
302
GRIDFORMAT
  1
GRIDFORMAT_BEGIN
 90
        0
 91
        1
 62
     0
 92
       -2
340
0
 93
        0
 40
0.045
309
GRIDFORMAT_END
 95
        8
302
GRIDFORMAT
  1
GRIDFORMAT_BEGIN
 90
        0
 91
        1
 62
     0
 92
       -2
340
0
 93
        0
 40
0.045
309
GRIDFORMAT_END
 95
       16
302
GRIDFORMAT
  1
GRIDFORMAT_BEGIN
 90
        0
 91
        1
 62
     0
 92
       -2
340
0
 93
        0
 40
0.045
309
GRIDFORMAT_END
 95
       32
302
GRIDFORMAT
  1
GRIDFORMAT_BEGIN
 90
        0
 91
        1
 62
     0
 92
       -2
340
0
 93
        0
 40
0.045
309
GRIDFORMAT_END
309
TABLEFORMAT_END
  1
CELLSTYLE_BEGIN
 90
        2
 91
        1
300
_HEADER
309
CELLSTYLE_END
300
CELLSTYLE
  1
TABLEFORMAT_BEGIN
 90
        5
170
     1
 91
        0
 92
        0
 62
   257
 93
        1
300
CONTENTFORMAT
  1
CONTENTFORMAT_BEGIN
 90
        0
 91
        0
 92
        4
 93
        0
300

 40
0.0
140
1.0
 94
        2
 62
     0
340
11
144
4.5
309
CONTENTFORMAT_END
171
     1
301
MARGIN
  1
CELLMARGIN_BEGIN
 40
1.5
 40
1.5
 40
1.5
 40
1.5
 40
0.18
 40
0.18
309
CELLMARGIN_END
 94
        6
 95
        1
302
GRIDFORMAT
  1
GRIDFORMAT_BEGIN
 90
        0
 91
        1
 62
     0
 92
       -2
340
0
 93
        0
 40
0.045
309
GRIDFORMAT_END
 95
        2
302
GRIDFORMAT
  1
GRIDFORMAT_BEGIN
 90
        0
 91
        1
 62
     0
 92
       -2
340
0
 93
        0
 40
0.045
309
GRIDFORMAT_END
 95
        4
302
GRIDFORMAT
  1
GRIDFORMAT_BEGIN
 90
        0
 91
        1
 62
     0
 92
       -2
340
0
 93
        0
 40
0.045
309
GRIDFORMAT_END
 95
        8
302
GRIDFORMAT
  1
GRIDFORMAT_BEGIN
 90
        0
 91
        1
 62
     0
 92
       -2
340
0
 93
        0
 40
0.045
309
GRIDFORMAT_END
 95
       16
302
GRIDFORMAT
  1
GRIDFORMAT_BEGIN
 90
        0
 91
        1
 62
     0
 92
       -2
340
0
 93
        0
 40
0.045
309
GRIDFORMAT_END
 95
       32
302
GRIDFORMAT
  1
GRIDFORMAT_BEGIN
 90
        0
 91
        1
 62
     0
 92
       -2
340
0
 93
        0
 40
0.045
309
GRIDFORMAT_END
309
TABLEFORMAT_END
  1
CELLSTYLE_BEGIN
 90
        3
 91
        2
300
_DATA
309
CELLSTYLE_END
  0
XRECORD
  5
88263
102
{ACAD_REACTORS
330
4CD9A
102
}
330
4CD9A
100
AcDbXrecord
280
     1
102
ACAD_ROUNDTRIP_PRE2007_TABLESTYLE
 90
        4
 91
        0
  1

 92
        4
 93
        0
  2

 94
        4
 95
        0
  3

  0
XRECORD
  5
88265
102
{ACAD_REACTORS
330
87B18
102
}
330
87B18
100
AcDbXrecord
280
     1
102
RTVSPropertyOp0
 70
     1
102
RTVSPropertyOp1
 70
     1
102
RTVSPropertyOp2
 70
     1
102
RTVSPropertyOp3
 70
     1
102
RTVSPropertyOp4
 70
     1
102
RTVSPropertyOp5
 70
     1
102
RTVSPropertyOp6
 70
     1
102
RTVSPropertyOp7
 70
     1
102
RTVSPropertyOp8
 70
     1
102
RTVSPropertyOp9
 70
     1
102
RTVSPropertyOp10
 70
     1
102
RTVSPropertyOp11
 70
     1
102
RTVSPropertyOp12
 70
     1
102
RTVSPropertyOp13
 70
     1
102
RTVSPropertyOp14
 70
     1
102
RTVSPropertyOp15
 70
     1
102
RTVSPropertyOp16
 70
     1
102
RTVSPropertyOp17
 70
     1
102
RTVSPropertyOp18
 70
     1
102
RTVSPropertyOp19
 70
     1
102
RTVSPropertyOp20
 70
     1
102
RTVSPropertyOp21
 70
     1
102
RTVSPropertyOp22
 70
     1
102
RTVSPropertyOp23
 70
     1
102
RTVSPropertyOp24
 70
     1
102
RTVSPropertyOp25
 70
     1
102
RTVSPropertyOp26
 70
     1
102
RTVSPropertyOp27
 70
     1
102
RTVSPropertyOp28
 70
     1
102
RTVSPropertyOp29
 70
     1
102
RTVSPropertyOp30
 70
     1
102
RTVSPropertyOp31
 70
     1
102
RTVSPropertyOp32
 70
     1
102
RTVSPropertyOp33
 70
     1
102
RTVSPropertyOp34
 70
     1
102
RTVSPropertyOp35
 70
     1
102
RTVSPropertyOp36
 70
     1
102
RTVSPropertyOp37
 70
     1
102
RTVSPropertyOp38
 70
     1
102
RTVSPropertyOp39
 70
     1
102
RTVSPropertyOp40
 70
     1
102
RTVSPropertyOp41
 70
     1
102
RTVSPropertyOp42
 70
     1
102
RTVSPropertyOp43
 70
     1
102
RTVSPropertyOp44
 70
     1
102
RTVSPropertyOp45
 70
     1
102
RTVSPropertyOp46
 70
     1
102
RTVSPropertyOp47
 70
     1
102
RTVSPropertyOp48
 70
     1
102
RTVSPropertyOp49
 70
     1
102
RTVSPropertyOp50
 70
     1
102
RTVSPropertyOp51
 70
     0
102
RTVSPropertyOp52
 70
     0
102
RTVSPropertyOp53
 70
     1
102
RTVSPropertyOp54
 70
     1
102
RTVSPropertyOp55
 70
     1
102
RTVSPropertyOp56
 70
     1
102
RTVSPropertyOp57
 70
     1
102
RTVSPost2010Prop28
280
     1
102
RTVSPost2010PropOp28
 70
     1
102
RTVSPost2010Prop29
280
     1
102
RTVSPost2010PropOp29
 70
     1
102
RTVSPost2010Prop30
280
     0
102
RTVSPost2010PropOp30
 70
     1
102
RTVSPost2010Prop31
280
     0
102
RTVSPost2010PropOp31
 70
     1
102
RTVSPost2010Prop32
280
     0
102
RTVSPost2010PropOp32
 70
     1
102
RTVSPost2010Prop33
280
     0
102
RTVSPost2010PropOp33
 70
     1
102
RTVSPost2010Prop34
280
     0
102
RTVSPost2010PropOp34
 70
     1
102
RTVSPost2010Prop35
280
     0
102
RTVSPost2010PropOp35
 70
     1
102
RTVSPost2010Prop36
280
     0
102
RTVSPost2010PropOp36
 70
     1
102
RTVSPost2010Prop37
 90
       50
102
RTVSPost2010PropOp37
 70
     1
102
RTVSPost2010Prop38
140
0.0
102
RTVSPost2010PropOp38
 70
     1
102
RTVSPost2010Prop39
140
1.0
102
RTVSPost2010PropOp39
 70
     1
102
RTVSPost2010Prop40
 90
        0
102
RTVSPost2010PropOp40
 70
     1
102
RTVSPost2010Prop41ColorIndex
 90
       18
102
RTVSPost2010Prop41ColorRGB
 90
        0
102
RTVSPost2010PropOp41
 70
     1
102
RTVSPost2010Prop42
 90
       50
102
RTVSPost2010PropOp42
 70
     1
102
RTVSPost2010Prop43
 90
        3
102
RTVSPost2010PropOp43
 70
     1
102
RTVSPost2010Prop44ColorIndex
 90
        5
102
RTVSPost2010Prop44ColorRGB
 90
      255
102
RTVSPost2010PropOp44
 70
     1
102
RTVSPost2010Prop45
280
     0
102
RTVSPost2010PropOp45
 70
     1
102
RTVSPost2010Prop46
 90
       50
102
RTVSPost2010PropOp46
 70
     1
102
RTVSPost2010Prop47
 90
       50
102
RTVSPost2010PropOp47
 70
     1
102
RTVSPost2010Prop48
 90
       50
102
RTVSPost2010PropOp48
 70
     1
102
RTVSPost2010Prop49
280
     0
102
RTVSPost2010PropOp49
 70
     1
102
RTVSPost2010Prop50
 90
       50
102
RTVSPost2010PropOp50
 70
     1
102
RTVSPost2010Prop51ColorIndex
 90
      256
102
RTVSPost2010Prop51ColorRGB
 90
-16777216
102
RTVSPost2010PropOp51
 70
     0
102
RTVSPost2010Prop52
140
1.0
102
RTVSPost2010PropOp52
 70
     0
102
RTVSPost2010Prop53
 90
        2
102
RTVSPost2010PropOp53
 70
     1
102
RTVSPost2010Prop54
  1
strokes_ogs.tif
102
RTVSPost2010PropOp54
 70
     1
102
RTVSPost2010Prop55
280
     0
102
RTVSPost2010PropOp55
 70
     1
102
RTVSPost2010Prop56
140
1.0
102
RTVSPost2010PropOp56
 70
     1
102
RTVSPost2010Prop57
140
1.0
102
RTVSPost2010PropOp57
 70
     1
  0
XRECORD
  5
88266
102
{ACAD_REACTORS
330
87B16
102
}
330
87B16
100
AcDbXrecord
280
     1
102
RTVSPropertyOp0
 70
     1
102
RTVSPropertyOp1
 70
     1
102
RTVSPropertyOp2
 70
     1
102
RTVSPropertyOp3
 70
     1
102
RTVSPropertyOp4
 70
     1
102
RTVSPropertyOp5
 70
     1
102
RTVSPropertyOp6
 70
     1
102
RTVSPropertyOp7
 70
     1
102
RTVSPropertyOp8
 70
     1
102
RTVSPropertyOp9
 70
     1
102
RTVSPropertyOp10
 70
     1
102
RTVSPropertyOp11
 70
     1
102
RTVSPropertyOp12
 70
     1
102
RTVSPropertyOp13
 70
     1
102
RTVSPropertyOp14
 70
     1
102
RTVSPropertyOp15
 70
     1
102
RTVSPropertyOp16
 70
     1
102
RTVSPropertyOp17
 70
     1
102
RTVSPropertyOp18
 70
     1
102
RTVSPropertyOp19
 70
     1
102
RTVSPropertyOp20
 70
     1
102
RTVSPropertyOp21
 70
     1
102
RTVSPropertyOp22
 70
     1
102
RTVSPropertyOp23
 70
     1
102
RTVSPropertyOp24
 70
     1
102
RTVSPropertyOp25
 70
     1
102
RTVSPropertyOp26
 70
     1
102
RTVSPropertyOp27
 70
     1
102
RTVSPropertyOp28
 70
     1
102
RTVSPropertyOp29
 70
     1
102
RTVSPropertyOp30
 70
     1
102
RTVSPropertyOp31
 70
     1
102
RTVSPropertyOp32
 70
     1
102
RTVSPropertyOp33
 70
     1
102
RTVSPropertyOp34
 70
     1
102
RTVSPropertyOp35
 70
     1
102
RTVSPropertyOp36
 70
     1
102
RTVSPropertyOp37
 70
     1
102
RTVSPropertyOp38
 70
     1
102
RTVSPropertyOp39
 70
     1
102
RTVSPropertyOp40
 70
     1
102
RTVSPropertyOp41
 70
     1
102
RTVSPropertyOp42
 70
     1
102
RTVSPropertyOp43
 70
     1
102
RTVSPropertyOp44
 70
     1
102
RTVSPropertyOp45
 70
     1
102
RTVSPropertyOp46
 70
     1
102
RTVSPropertyOp47
 70
     1
102
RTVSPropertyOp48
 70
     1
102
RTVSPropertyOp49
 70
     1
102
RTVSPropertyOp50
 70
     1
102
RTVSPropertyOp51
 70
     0
102
RTVSPropertyOp52
 70
     0
102
RTVSPropertyOp53
 70
     1
102
RTVSPropertyOp54
 70
     1
102
RTVSPropertyOp55
 70
     1
102
RTVSPropertyOp56
 70
     1
102
RTVSPropertyOp57
 70
     1
102
RTVSPost2010Prop28
280
     0
102
RTVSPost2010PropOp28
 70
     1
102
RTVSPost2010Prop29
280
     1
102
RTVSPost2010PropOp29
 70
     1
102
RTVSPost2010Prop30
280
     1
102
RTVSPost2010PropOp30
 70
     1
102
RTVSPost2010Prop31
280
     0
102
RTVSPost2010PropOp31
 70
     1
102
RTVSPost2010Prop32
280
     0
102
RTVSPost2010PropOp32
 70
     1
102
RTVSPost2010Prop33
280
     0
102
RTVSPost2010PropOp33
 70
     1
102
RTVSPost2010Prop34
280
     0
102
RTVSPost2010PropOp34
 70
     1
102
RTVSPost2010Prop35
280
     0
102
RTVSPost2010PropOp35
 70
     1
102
RTVSPost2010Prop36
280
     0
102
RTVSPost2010PropOp36
 70
     1
102
RTVSPost2010Prop37
 90
       50
102
RTVSPost2010PropOp37
 70
     1
102
RTVSPost2010Prop38
140
0.0
102
RTVSPost2010PropOp38
 70
     1
102
RTVSPost2010Prop39
140
1.0
102
RTVSPost2010PropOp39
 70
     1
102
RTVSPost2010Prop40
 90
        0
102
RTVSPost2010PropOp40
 70
     1
102
RTVSPost2010Prop41ColorIndex
 90
       18
102
RTVSPost2010Prop41ColorRGB
 90
        0
102
RTVSPost2010PropOp41
 70
     1
102
RTVSPost2010Prop42
 90
       50
102
RTVSPost2010PropOp42
 70
     1
102
RTVSPost2010Prop43
 90
        3
102
RTVSPost2010PropOp43
 70
     1
102
RTVSPost2010Prop44ColorIndex
 90
        5
102
RTVSPost2010Prop44ColorRGB
 90
      255
102
RTVSPost2010PropOp44
 70
     1
102
RTVSPost2010Prop45
280
     0
102
RTVSPost2010PropOp45
 70
     1
102
RTVSPost2010Prop46
 90
       50
102
RTVSPost2010PropOp46
 70
     1
102
RTVSPost2010Prop47
 90
       50
102
RTVSPost2010PropOp47
 70
     1
102
RTVSPost2010Prop48
 90
       50
102
RTVSPost2010PropOp48
 70
     1
102
RTVSPost2010Prop49
280
     0
102
RTVSPost2010PropOp49
 70
     1
102
RTVSPost2010Prop50
 90
       50
102
RTVSPost2010PropOp50
 70
     1
102
RTVSPost2010Prop51ColorIndex
 90
      256
102
RTVSPost2010Prop51ColorRGB
 90
-16777216
102
RTVSPost2010PropOp51
 70
     0
102
RTVSPost2010Prop52
140
1.0
102
RTVSPost2010PropOp52
 70
     0
102
RTVSPost2010Prop53
 90
        2
102
RTVSPost2010PropOp53
 70
     1
102
RTVSPost2010Prop54
  1
strokes_ogs.tif
102
RTVSPost2010PropOp54
 70
     1
102
RTVSPost2010Prop55
280
     0
102
RTVSPost2010PropOp55
 70
     1
102
RTVSPost2010Prop56
140
1.0
102
RTVSPost2010PropOp56
 70
     1
102
RTVSPost2010Prop57
140
1.0
102
RTVSPost2010PropOp57
 70
     1
  0
XRECORD
  5
88267
102
{ACAD_REACTORS
330
87B24
102
}
330
87B24
100
AcDbXrecord
280
     1
102
RTVSPropertyOp0
 70
     1
102
RTVSPropertyOp1
 70
     1
102
RTVSPropertyOp2
 70
     1
102
RTVSPropertyOp3
 70
     1
102
RTVSPropertyOp4
 70
     1
102
RTVSPropertyOp5
 70
     1
102
RTVSPropertyOp6
 70
     1
102
RTVSPropertyOp7
 70
     1
102
RTVSPropertyOp8
 70
     1
102
RTVSPropertyOp9
 70
     1
102
RTVSPropertyOp10
 70
     1
102
RTVSPropertyOp11
 70
     1
102
RTVSPropertyOp12
 70
     1
102
RTVSPropertyOp13
 70
     1
102
RTVSPropertyOp14
 70
     1
102
RTVSPropertyOp15
 70
     1
102
RTVSPropertyOp16
 70
     1
102
RTVSPropertyOp17
 70
     1
102
RTVSPropertyOp18
 70
     1
102
RTVSPropertyOp19
 70
     1
102
RTVSPropertyOp20
 70
     1
102
RTVSPropertyOp21
 70
     1
102
RTVSPropertyOp22
 70
     1
102
RTVSPropertyOp23
 70
     1
102
RTVSPropertyOp24
 70
     1
102
RTVSPropertyOp25
 70
     1
102
RTVSPropertyOp26
 70
     1
102
RTVSPropertyOp27
 70
     1
102
RTVSPropertyOp28
 70
     1
102
RTVSPropertyOp29
 70
     1
102
RTVSPropertyOp30
 70
     1
102
RTVSPropertyOp31
 70
     1
102
RTVSPropertyOp32
 70
     1
102
RTVSPropertyOp33
 70
     1
102
RTVSPropertyOp34
 70
     1
102
RTVSPropertyOp35
 70
     1
102
RTVSPropertyOp36
 70
     1
102
RTVSPropertyOp37
 70
     1
102
RTVSPropertyOp38
 70
     1
102
RTVSPropertyOp39
 70
     1
102
RTVSPropertyOp40
 70
     1
102
RTVSPropertyOp41
 70
     1
102
RTVSPropertyOp42
 70
     1
102
RTVSPropertyOp43
 70
     1
102
RTVSPropertyOp44
 70
     1
102
RTVSPropertyOp45
 70
     1
102
RTVSPropertyOp46
 70
     1
102
RTVSPropertyOp47
 70
     1
102
RTVSPropertyOp48
 70
     1
102
RTVSPropertyOp49
 70
     1
102
RTVSPropertyOp50
 70
     1
102
RTVSPropertyOp51
 70
     0
102
RTVSPropertyOp52
 70
     0
102
RTVSPropertyOp53
 70
     1
102
RTVSPropertyOp54
 70
     1
102
RTVSPropertyOp55
 70
     1
102
RTVSPropertyOp56
 70
     1
102
RTVSPropertyOp57
 70
     1
102
RTVSPost2010Prop28
280
     0
102
RTVSPost2010PropOp28
 70
     1
102
RTVSPost2010Prop29
280
     1
102
RTVSPost2010PropOp29
 70
     1
102
RTVSPost2010Prop30
280
     1
102
RTVSPost2010PropOp30
 70
     1
102
RTVSPost2010Prop31
280
     0
102
RTVSPost2010PropOp31
 70
     1
102
RTVSPost2010Prop32
280
     0
102
RTVSPost2010PropOp32
 70
     1
102
RTVSPost2010Prop33
280
     0
102
RTVSPost2010PropOp33
 70
     1
102
RTVSPost2010Prop34
280
     0
102
RTVSPost2010PropOp34
 70
     1
102
RTVSPost2010Prop35
280
     0
102
RTVSPost2010PropOp35
 70
     1
102
RTVSPost2010Prop36
280
     0
102
RTVSPost2010PropOp36
 70
     1
102
RTVSPost2010Prop37
 90
       50
102
RTVSPost2010PropOp37
 70
     1
102
RTVSPost2010Prop38
140
0.0
102
RTVSPost2010PropOp38
 70
     1
102
RTVSPost2010Prop39
140
1.0
102
RTVSPost2010PropOp39
 70
     1
102
RTVSPost2010Prop40
 90
        0
102
RTVSPost2010PropOp40
 70
     1
102
RTVSPost2010Prop41ColorIndex
 90
       18
102
RTVSPost2010Prop41ColorRGB
 90
        0
102
RTVSPost2010PropOp41
 70
     1
102
RTVSPost2010Prop42
 90
       50
102
RTVSPost2010PropOp42
 70
     1
102
RTVSPost2010Prop43
 90
        3
102
RTVSPost2010PropOp43
 70
     1
102
RTVSPost2010Prop44ColorIndex
 90
        5
102
RTVSPost2010Prop44ColorRGB
 90
      255
102
RTVSPost2010PropOp44
 70
     1
102
RTVSPost2010Prop45
280
     0
102
RTVSPost2010PropOp45
 70
     1
102
RTVSPost2010Prop46
 90
       50
102
RTVSPost2010PropOp46
 70
     1
102
RTVSPost2010Prop47
 90
       50
102
RTVSPost2010PropOp47
 70
     1
102
RTVSPost2010Prop48
 90
       50
102
RTVSPost2010PropOp48
 70
     1
102
RTVSPost2010Prop49
280
     0
102
RTVSPost2010PropOp49
 70
     1
102
RTVSPost2010Prop50
 90
       50
102
RTVSPost2010PropOp50
 70
     1
102
RTVSPost2010Prop51ColorIndex
 90
      256
102
RTVSPost2010Prop51ColorRGB
 90
-16777216
102
RTVSPost2010PropOp51
 70
     0
102
RTVSPost2010Prop52
140
1.0
102
RTVSPost2010PropOp52
 70
     0
102
RTVSPost2010Prop53
 90
        2
102
RTVSPost2010PropOp53
 70
     1
102
RTVSPost2010Prop54
  1
strokes_ogs.tif
102
RTVSPost2010PropOp54
 70
     1
102
RTVSPost2010Prop55
280
     0
102
RTVSPost2010PropOp55
 70
     1
102
RTVSPost2010Prop56
140
1.0
102
RTVSPost2010PropOp56
 70
     1
102
RTVSPost2010Prop57
140
1.0
102
RTVSPost2010PropOp57
 70
     1
  0
XRECORD
  5
88268
102
{ACAD_REACTORS
330
87B2C
102
}
330
87B2C
100
AcDbXrecord
280
     1
102
RTVSPropertyOp0
 70
     1
102
RTVSPropertyOp1
 70
     1
102
RTVSPropertyOp2
 70
     1
102
RTVSPropertyOp3
 70
     1
102
RTVSPropertyOp4
 70
     1
102
RTVSPropertyOp5
 70
     1
102
RTVSPropertyOp6
 70
     1
102
RTVSPropertyOp7
 70
     1
102
RTVSPropertyOp8
 70
     1
102
RTVSPropertyOp9
 70
     1
102
RTVSPropertyOp10
 70
     1
102
RTVSPropertyOp11
 70
     1
102
RTVSPropertyOp12
 70
     1
102
RTVSPropertyOp13
 70
     1
102
RTVSPropertyOp14
 70
     1
102
RTVSPropertyOp15
 70
     1
102
RTVSPropertyOp16
 70
     1
102
RTVSPropertyOp17
 70
     1
102
RTVSPropertyOp18
 70
     1
102
RTVSPropertyOp19
 70
     1
102
RTVSPropertyOp20
 70
     1
102
RTVSPropertyOp21
 70
     1
102
RTVSPropertyOp22
 70
     1
102
RTVSPropertyOp23
 70
     1
102
RTVSPropertyOp24
 70
     1
102
RTVSPropertyOp25
 70
     1
102
RTVSPropertyOp26
 70
     1
102
RTVSPropertyOp27
 70
     1
102
RTVSPropertyOp28
 70
     1
102
RTVSPropertyOp29
 70
     1
102
RTVSPropertyOp30
 70
     1
102
RTVSPropertyOp31
 70
     1
102
RTVSPropertyOp32
 70
     1
102
RTVSPropertyOp33
 70
     1
102
RTVSPropertyOp34
 70
     1
102
RTVSPropertyOp35
 70
     1
102
RTVSPropertyOp36
 70
     1
102
RTVSPropertyOp37
 70
     1
102
RTVSPropertyOp38
 70
     1
102
RTVSPropertyOp39
 70
     1
102
RTVSPropertyOp40
 70
     1
102
RTVSPropertyOp41
 70
     1
102
RTVSPropertyOp42
 70
     1
102
RTVSPropertyOp43
 70
     1
102
RTVSPropertyOp44
 70
     1
102
RTVSPropertyOp45
 70
     1
102
RTVSPropertyOp46
 70
     1
102
RTVSPropertyOp47
 70
     1
102
RTVSPropertyOp48
 70
     1
102
RTVSPropertyOp49
 70
     1
102
RTVSPropertyOp50
 70
     1
102
RTVSPropertyOp51
 70
     0
102
RTVSPropertyOp52
 70
     0
102
RTVSPropertyOp53
 70
     1
102
RTVSPropertyOp54
 70
     1
102
RTVSPropertyOp55
 70
     1
102
RTVSPropertyOp56
 70
     1
102
RTVSPropertyOp57
 70
     1
102
RTVSPost2010Prop28
280
     0
102
RTVSPost2010PropOp28
 70
     1
102
RTVSPost2010Prop29
280
     1
102
RTVSPost2010PropOp29
 70
     1
102
RTVSPost2010Prop30
280
     1
102
RTVSPost2010PropOp30
 70
     1
102
RTVSPost2010Prop31
280
     0
102
RTVSPost2010PropOp31
 70
     1
102
RTVSPost2010Prop32
280
     0
102
RTVSPost2010PropOp32
 70
     1
102
RTVSPost2010Prop33
280
     0
102
RTVSPost2010PropOp33
 70
     1
102
RTVSPost2010Prop34
280
     0
102
RTVSPost2010PropOp34
 70
     1
102
RTVSPost2010Prop35
280
     0
102
RTVSPost2010PropOp35
 70
     1
102
RTVSPost2010Prop36
280
     0
102
RTVSPost2010PropOp36
 70
     1
102
RTVSPost2010Prop37
 90
       50
102
RTVSPost2010PropOp37
 70
     1
102
RTVSPost2010Prop38
140
0.0
102
RTVSPost2010PropOp38
 70
     1
102
RTVSPost2010Prop39
140
1.0
102
RTVSPost2010PropOp39
 70
     1
102
RTVSPost2010Prop40
 90
        0
102
RTVSPost2010PropOp40
 70
     1
102
RTVSPost2010Prop41ColorIndex
 90
       18
102
RTVSPost2010Prop41ColorRGB
 90
        0
102
RTVSPost2010PropOp41
 70
     1
102
RTVSPost2010Prop42
 90
       50
102
RTVSPost2010PropOp42
 70
     1
102
RTVSPost2010Prop43
 90
        3
102
RTVSPost2010PropOp43
 70
     1
102
RTVSPost2010Prop44ColorIndex
 90
        5
102
RTVSPost2010Prop44ColorRGB
 90
      255
102
RTVSPost2010PropOp44
 70
     1
102
RTVSPost2010Prop45
280
     0
102
RTVSPost2010PropOp45
 70
     1
102
RTVSPost2010Prop46
 90
       50
102
RTVSPost2010PropOp46
 70
     1
102
RTVSPost2010Prop47
 90
       50
102
RTVSPost2010PropOp47
 70
     1
102
RTVSPost2010Prop48
 90
       50
102
RTVSPost2010PropOp48
 70
     1
102
RTVSPost2010Prop49
280
     0
102
RTVSPost2010PropOp49
 70
     1
102
RTVSPost2010Prop50
 90
       50
102
RTVSPost2010PropOp50
 70
     1
102
RTVSPost2010Prop51ColorIndex
 90
      256
102
RTVSPost2010Prop51ColorRGB
 90
-16777216
102
RTVSPost2010PropOp51
 70
     0
102
RTVSPost2010Prop52
140
1.0
102
RTVSPost2010PropOp52
 70
     0
102
RTVSPost2010Prop53
 90
        2
102
RTVSPost2010PropOp53
 70
     1
102
RTVSPost2010Prop54
  1
strokes_ogs.tif
102
RTVSPost2010PropOp54
 70
     1
102
RTVSPost2010Prop55
280
     0
102
RTVSPost2010PropOp55
 70
     1
102
RTVSPost2010Prop56
140
1.0
102
RTVSPost2010PropOp56
 70
     1
102
RTVSPost2010Prop57
140
1.0
102
RTVSPost2010PropOp57
 70
     1
  0
XRECORD
  5
88269
102
{ACAD_REACTORS
330
87B1E
102
}
330
87B1E
100
AcDbXrecord
280
     1
102
RTVSPropertyOp0
 70
     1
102
RTVSPropertyOp1
 70
     1
102
RTVSPropertyOp2
 70
     1
102
RTVSPropertyOp3
 70
     1
102
RTVSPropertyOp4
 70
     1
102
RTVSPropertyOp5
 70
     1
102
RTVSPropertyOp6
 70
     1
102
RTVSPropertyOp7
 70
     1
102
RTVSPropertyOp8
 70
     1
102
RTVSPropertyOp9
 70
     1
102
RTVSPropertyOp10
 70
     1
102
RTVSPropertyOp11
 70
     1
102
RTVSPropertyOp12
 70
     1
102
RTVSPropertyOp13
 70
     1
102
RTVSPropertyOp14
 70
     1
102
RTVSPropertyOp15
 70
     1
102
RTVSPropertyOp16
 70
     1
102
RTVSPropertyOp17
 70
     1
102
RTVSPropertyOp18
 70
     1
102
RTVSPropertyOp19
 70
     1
102
RTVSPropertyOp20
 70
     1
102
RTVSPropertyOp21
 70
     1
102
RTVSPropertyOp22
 70
     1
102
RTVSPropertyOp23
 70
     1
102
RTVSPropertyOp24
 70
     1
102
RTVSPropertyOp25
 70
     1
102
RTVSPropertyOp26
 70
     1
102
RTVSPropertyOp27
 70
     1
102
RTVSPropertyOp28
 70
     1
102
RTVSPropertyOp29
 70
     1
102
RTVSPropertyOp30
 70
     1
102
RTVSPropertyOp31
 70
     1
102
RTVSPropertyOp32
 70
     1
102
RTVSPropertyOp33
 70
     1
102
RTVSPropertyOp34
 70
     1
102
RTVSPropertyOp35
 70
     1
102
RTVSPropertyOp36
 70
     1
102
RTVSPropertyOp37
 70
     1
102
RTVSPropertyOp38
 70
     1
102
RTVSPropertyOp39
 70
     1
102
RTVSPropertyOp40
 70
     1
102
RTVSPropertyOp41
 70
     1
102
RTVSPropertyOp42
 70
     1
102
RTVSPropertyOp43
 70
     1
102
RTVSPropertyOp44
 70
     1
102
RTVSPropertyOp45
 70
     1
102
RTVSPropertyOp46
 70
     1
102
RTVSPropertyOp47
 70
     1
102
RTVSPropertyOp48
 70
     1
102
RTVSPropertyOp49
 70
     1
102
RTVSPropertyOp50
 70
     1
102
RTVSPropertyOp51
 70
     0
102
RTVSPropertyOp52
 70
     0
102
RTVSPropertyOp53
 70
     1
102
RTVSPropertyOp54
 70
     1
102
RTVSPropertyOp55
 70
     1
102
RTVSPropertyOp56
 70
     1
102
RTVSPropertyOp57
 70
     1
102
RTVSPost2010Prop28
280
     0
102
RTVSPost2010PropOp28
 70
     1
102
RTVSPost2010Prop29
280
     1
102
RTVSPost2010PropOp29
 70
     1
102
RTVSPost2010Prop30
280
     1
102
RTVSPost2010PropOp30
 70
     1
102
RTVSPost2010Prop31
280
     0
102
RTVSPost2010PropOp31
 70
     1
102
RTVSPost2010Prop32
280
     0
102
RTVSPost2010PropOp32
 70
     1
102
RTVSPost2010Prop33
280
     0
102
RTVSPost2010PropOp33
 70
     1
102
RTVSPost2010Prop34
280
     0
102
RTVSPost2010PropOp34
 70
     1
102
RTVSPost2010Prop35
280
     0
102
RTVSPost2010PropOp35
 70
     1
102
RTVSPost2010Prop36
280
     0
102
RTVSPost2010PropOp36
 70
     1
102
RTVSPost2010Prop37
 90
       50
102
RTVSPost2010PropOp37
 70
     1
102
RTVSPost2010Prop38
140
0.0
102
RTVSPost2010PropOp38
 70
     1
102
RTVSPost2010Prop39
140
1.0
102
RTVSPost2010PropOp39
 70
     1
102
RTVSPost2010Prop40
 90
        0
102
RTVSPost2010PropOp40
 70
     1
102
RTVSPost2010Prop41ColorIndex
 90
       18
102
RTVSPost2010Prop41ColorRGB
 90
        0
102
RTVSPost2010PropOp41
 70
     1
102
RTVSPost2010Prop42
 90
       50
102
RTVSPost2010PropOp42
 70
     1
102
RTVSPost2010Prop43
 90
        3
102
RTVSPost2010PropOp43
 70
     1
102
RTVSPost2010Prop44ColorIndex
 90
        5
102
RTVSPost2010Prop44ColorRGB
 90
      255
102
RTVSPost2010PropOp44
 70
     1
102
RTVSPost2010Prop45
280
     0
102
RTVSPost2010PropOp45
 70
     1
102
RTVSPost2010Prop46
 90
       50
102
RTVSPost2010PropOp46
 70
     1
102
RTVSPost2010Prop47
 90
       50
102
RTVSPost2010PropOp47
 70
     1
102
RTVSPost2010Prop48
 90
       50
102
RTVSPost2010PropOp48
 70
     1
102
RTVSPost2010Prop49
280
     0
102
RTVSPost2010PropOp49
 70
     1
102
RTVSPost2010Prop50
 90
       50
102
RTVSPost2010PropOp50
 70
     1
102
RTVSPost2010Prop51ColorIndex
 90
      256
102
RTVSPost2010Prop51ColorRGB
 90
-16777216
102
RTVSPost2010PropOp51
 70
     0
102
RTVSPost2010Prop52
140
1.0
102
RTVSPost2010PropOp52
 70
     0
102
RTVSPost2010Prop53
 90
        2
102
RTVSPost2010PropOp53
 70
     1
102
RTVSPost2010Prop54
  1
strokes_ogs.tif
102
RTVSPost2010PropOp54
 70
     1
102
RTVSPost2010Prop55
280
     0
102
RTVSPost2010PropOp55
 70
     1
102
RTVSPost2010Prop56
140
1.0
102
RTVSPost2010PropOp56
 70
     1
102
RTVSPost2010Prop57
140
1.0
102
RTVSPost2010PropOp57
 70
     1
  0
XRECORD
  5
8826A
102
{ACAD_REACTORS
330
87B22
102
}
330
87B22
100
AcDbXrecord
280
     1
102
RTVSPropertyOp0
 70
     1
102
RTVSPropertyOp1
 70
     1
102
RTVSPropertyOp2
 70
     1
102
RTVSPropertyOp3
 70
     1
102
RTVSPropertyOp4
 70
     1
102
RTVSPropertyOp5
 70
     1
102
RTVSPropertyOp6
 70
     1
102
RTVSPropertyOp7
 70
     1
102
RTVSPropertyOp8
 70
     1
102
RTVSPropertyOp9
 70
     1
102
RTVSPropertyOp10
 70
     1
102
RTVSPropertyOp11
 70
     1
102
RTVSPropertyOp12
 70
     1
102
RTVSPropertyOp13
 70
     1
102
RTVSPropertyOp14
 70
     1
102
RTVSPropertyOp15
 70
     1
102
RTVSPropertyOp16
 70
     1
102
RTVSPropertyOp17
 70
     1
102
RTVSPropertyOp18
 70
     1
102
RTVSPropertyOp19
 70
     1
102
RTVSPropertyOp20
 70
     1
102
RTVSPropertyOp21
 70
     1
102
RTVSPropertyOp22
 70
     1
102
RTVSPropertyOp23
 70
     1
102
RTVSPropertyOp24
 70
     1
102
RTVSPropertyOp25
 70
     1
102
RTVSPropertyOp26
 70
     1
102
RTVSPropertyOp27
 70
     1
102
RTVSPropertyOp28
 70
     1
102
RTVSPropertyOp29
 70
     1
102
RTVSPropertyOp30
 70
     1
102
RTVSPropertyOp31
 70
     1
102
RTVSPropertyOp32
 70
     1
102
RTVSPropertyOp33
 70
     1
102
RTVSPropertyOp34
 70
     1
102
RTVSPropertyOp35
 70
     1
102
RTVSPropertyOp36
 70
     1
102
RTVSPropertyOp37
 70
     1
102
RTVSPropertyOp38
 70
     1
102
RTVSPropertyOp39
 70
     1
102
RTVSPropertyOp40
 70
     1
102
RTVSPropertyOp41
 70
     1
102
RTVSPropertyOp42
 70
     1
102
RTVSPropertyOp43
 70
     1
102
RTVSPropertyOp44
 70
     1
102
RTVSPropertyOp45
 70
     1
102
RTVSPropertyOp46
 70
     1
102
RTVSPropertyOp47
 70
     1
102
RTVSPropertyOp48
 70
     1
102
RTVSPropertyOp49
 70
     1
102
RTVSPropertyOp50
 70
     1
102
RTVSPropertyOp51
 70
     0
102
RTVSPropertyOp52
 70
     0
102
RTVSPropertyOp53
 70
     1
102
RTVSPropertyOp54
 70
     1
102
RTVSPropertyOp55
 70
     1
102
RTVSPropertyOp56
 70
     1
102
RTVSPropertyOp57
 70
     1
102
RTVSPost2010Prop28
280
     0
102
RTVSPost2010PropOp28
 70
     1
102
RTVSPost2010Prop29
280
     1
102
RTVSPost2010PropOp29
 70
     1
102
RTVSPost2010Prop30
280
     1
102
RTVSPost2010PropOp30
 70
     1
102
RTVSPost2010Prop31
280
     0
102
RTVSPost2010PropOp31
 70
     1
102
RTVSPost2010Prop32
280
     0
102
RTVSPost2010PropOp32
 70
     1
102
RTVSPost2010Prop33
280
     0
102
RTVSPost2010PropOp33
 70
     1
102
RTVSPost2010Prop34
280
     0
102
RTVSPost2010PropOp34
 70
     1
102
RTVSPost2010Prop35
280
     0
102
RTVSPost2010PropOp35
 70
     1
102
RTVSPost2010Prop36
280
     0
102
RTVSPost2010PropOp36
 70
     1
102
RTVSPost2010Prop37
 90
       50
102
RTVSPost2010PropOp37
 70
     1
102
RTVSPost2010Prop38
140
0.0
102
RTVSPost2010PropOp38
 70
     1
102
RTVSPost2010Prop39
140
1.0
102
RTVSPost2010PropOp39
 70
     1
102
RTVSPost2010Prop40
 90
        0
102
RTVSPost2010PropOp40
 70
     1
102
RTVSPost2010Prop41ColorIndex
 90
       18
102
RTVSPost2010Prop41ColorRGB
 90
        0
102
RTVSPost2010PropOp41
 70
     1
102
RTVSPost2010Prop42
 90
       50
102
RTVSPost2010PropOp42
 70
     1
102
RTVSPost2010Prop43
 90
        3
102
RTVSPost2010PropOp43
 70
     1
102
RTVSPost2010Prop44ColorIndex
 90
        5
102
RTVSPost2010Prop44ColorRGB
 90
      255
102
RTVSPost2010PropOp44
 70
     1
102
RTVSPost2010Prop45
280
     0
102
RTVSPost2010PropOp45
 70
     1
102
RTVSPost2010Prop46
 90
       50
102
RTVSPost2010PropOp46
 70
     1
102
RTVSPost2010Prop47
 90
       50
102
RTVSPost2010PropOp47
 70
     1
102
RTVSPost2010Prop48
 90
       50
102
RTVSPost2010PropOp48
 70
     1
102
RTVSPost2010Prop49
280
     0
102
RTVSPost2010PropOp49
 70
     1
102
RTVSPost2010Prop50
 90
       50
102
RTVSPost2010PropOp50
 70
     1
102
RTVSPost2010Prop51ColorIndex
 90
      256
102
RTVSPost2010Prop51ColorRGB
 90
-16777216
102
RTVSPost2010PropOp51
 70
     0
102
RTVSPost2010Prop52
140
1.0
102
RTVSPost2010PropOp52
 70
     0
102
RTVSPost2010Prop53
 90
        2
102
RTVSPost2010PropOp53
 70
     1
102
RTVSPost2010Prop54
  1
strokes_ogs.tif
102
RTVSPost2010PropOp54
 70
     1
102
RTVSPost2010Prop55
280
     0
102
RTVSPost2010PropOp55
 70
     1
102
RTVSPost2010Prop56
140
1.0
102
RTVSPost2010PropOp56
 70
     1
102
RTVSPost2010Prop57
140
1.0
102
RTVSPost2010PropOp57
 70
     1
  0
XRECORD
  5
8826B
102
{ACAD_REACTORS
330
87B3C
102
}
330
87B3C
100
AcDbXrecord
280
     1
102
RTVSPropertyOp0
 70
     0
102
RTVSPropertyOp1
 70
     0
102
RTVSPropertyOp2
 70
     0
102
RTVSPropertyOp3
 70
     0
102
RTVSPropertyOp4
 70
     0
102
RTVSPropertyOp5
 70
     0
102
RTVSPropertyOp6
 70
     0
102
RTVSPropertyOp7
 70
     0
102
RTVSPropertyOp8
 70
     0
102
RTVSPropertyOp9
 70
     0
102
RTVSPropertyOp10
 70
     0
102
RTVSPropertyOp11
 70
     0
102
RTVSPropertyOp12
 70
     0
102
RTVSPropertyOp13
 70
     0
102
RTVSPropertyOp14
 70
     2
102
RTVSPropertyOp15
 70
     0
102
RTVSPropertyOp16
 70
     0
102
RTVSPropertyOp17
 70
     0
102
RTVSPropertyOp18
 70
     0
102
RTVSPropertyOp19
 70
     0
102
RTVSPropertyOp20
 70
     0
102
RTVSPropertyOp21
 70
     0
102
RTVSPropertyOp22
 70
     0
102
RTVSPropertyOp23
 70
     0
102
RTVSPropertyOp24
 70
     0
102
RTVSPropertyOp25
 70
     0
102
RTVSPropertyOp26
 70
     0
102
RTVSPropertyOp27
 70
     0
102
RTVSPropertyOp28
 70
     1
102
RTVSPropertyOp29
 70
     1
102
RTVSPropertyOp30
 70
     1
102
RTVSPropertyOp31
 70
     1
102
RTVSPropertyOp32
 70
     1
102
RTVSPropertyOp33
 70
     1
102
RTVSPropertyOp34
 70
     1
102
RTVSPropertyOp35
 70
     1
102
RTVSPropertyOp36
 70
     1
102
RTVSPropertyOp37
 70
     0
102
RTVSPropertyOp38
 70
     0
102
RTVSPropertyOp39
 70
     0
102
RTVSPropertyOp40
 70
     0
102
RTVSPropertyOp41
 70
     0
102
RTVSPropertyOp42
 70
     0
102
RTVSPropertyOp43
 70
     0
102
RTVSPropertyOp44
 70
     0
102
RTVSPropertyOp45
 70
     1
102
RTVSPropertyOp46
 70
     0
102
RTVSPropertyOp47
 70
     0
102
RTVSPropertyOp48
 70
     0
102
RTVSPropertyOp49
 70
     1
102
RTVSPropertyOp50
 70
     0
102
RTVSPropertyOp51
 70
     0
102
RTVSPropertyOp52
 70
     0
102
RTVSPropertyOp53
 70
     0
102
RTVSPropertyOp54
 70
     0
102
RTVSPropertyOp55
 70
     1
102
RTVSPropertyOp56
 70
     0
102
RTVSPropertyOp57
 70
     0
102
RTVSPost2010Prop28
280
     0
102
RTVSPost2010PropOp28
 70
     1
102
RTVSPost2010Prop29
280
     1
102
RTVSPost2010PropOp29
 70
     1
102
RTVSPost2010Prop30
280
     1
102
RTVSPost2010PropOp30
 70
     1
102
RTVSPost2010Prop31
280
     0
102
RTVSPost2010PropOp31
 70
     1
102
RTVSPost2010Prop32
280
     0
102
RTVSPost2010PropOp32
 70
     1
102
RTVSPost2010Prop33
280
     0
102
RTVSPost2010PropOp33
 70
     1
102
RTVSPost2010Prop34
280
     0
102
RTVSPost2010PropOp34
 70
     1
102
RTVSPost2010Prop35
280
     0
102
RTVSPost2010PropOp35
 70
     1
102
RTVSPost2010Prop36
280
     0
102
RTVSPost2010PropOp36
 70
     1
102
RTVSPost2010Prop37
 90
       50
102
RTVSPost2010PropOp37
 70
     0
102
RTVSPost2010Prop38
140
0.0
102
RTVSPost2010PropOp38
 70
     0
102
RTVSPost2010Prop39
140
1.0
102
RTVSPost2010PropOp39
 70
     0
102
RTVSPost2010Prop40
 90
        0
102
RTVSPost2010PropOp40
 70
     0
102
RTVSPost2010Prop41ColorIndex
 90
       18
102
RTVSPost2010Prop41ColorRGB
 90
        0
102
RTVSPost2010PropOp41
 70
     0
102
RTVSPost2010Prop42
 90
       50
102
RTVSPost2010PropOp42
 70
     0
102
RTVSPost2010Prop43
 90
        3
102
RTVSPost2010PropOp43
 70
     0
102
RTVSPost2010Prop44ColorIndex
 90
        5
102
RTVSPost2010Prop44ColorRGB
 90
      255
102
RTVSPost2010PropOp44
 70
     0
102
RTVSPost2010Prop45
280
     0
102
RTVSPost2010PropOp45
 70
     1
102
RTVSPost2010Prop46
 90
       50
102
RTVSPost2010PropOp46
 70
     0
102
RTVSPost2010Prop47
 90
       50
102
RTVSPost2010PropOp47
 70
     0
102
RTVSPost2010Prop48
 90
       50
102
RTVSPost2010PropOp48
 70
     0
102
RTVSPost2010Prop49
280
     0
102
RTVSPost2010PropOp49
 70
     1
102
RTVSPost2010Prop50
 90
       50
102
RTVSPost2010PropOp50
 70
     0
102
RTVSPost2010Prop51ColorIndex
 90
      256
102
RTVSPost2010Prop51ColorRGB
 90
-16777216
102
RTVSPost2010PropOp51
 70
     0
102
RTVSPost2010Prop52
140
1.0
102
RTVSPost2010PropOp52
 70
     0
102
RTVSPost2010Prop53
 90
        2
102
RTVSPost2010PropOp53
 70
     0
102
RTVSPost2010Prop54
  1
strokes_ogs.tif
102
RTVSPost2010PropOp54
 70
     0
102
RTVSPost2010Prop55
280
     0
102
RTVSPost2010PropOp55
 70
     1
102
RTVSPost2010Prop56
140
1.0
102
RTVSPost2010PropOp56
 70
     0
102
RTVSPost2010Prop57
140
1.0
102
RTVSPost2010PropOp57
 70
     0
  0
XRECORD
  5
8826C
102
{ACAD_REACTORS
330
87B2A
102
}
330
87B2A
100
AcDbXrecord
280
     1
102
RTVSPropertyOp0
 70
     1
102
RTVSPropertyOp1
 70
     1
102
RTVSPropertyOp2
 70
     1
102
RTVSPropertyOp3
 70
     1
102
RTVSPropertyOp4
 70
     1
102
RTVSPropertyOp5
 70
     1
102
RTVSPropertyOp6
 70
     1
102
RTVSPropertyOp7
 70
     1
102
RTVSPropertyOp8
 70
     1
102
RTVSPropertyOp9
 70
     1
102
RTVSPropertyOp10
 70
     1
102
RTVSPropertyOp11
 70
     1
102
RTVSPropertyOp12
 70
     1
102
RTVSPropertyOp13
 70
     1
102
RTVSPropertyOp14
 70
     1
102
RTVSPropertyOp15
 70
     1
102
RTVSPropertyOp16
 70
     1
102
RTVSPropertyOp17
 70
     1
102
RTVSPropertyOp18
 70
     1
102
RTVSPropertyOp19
 70
     1
102
RTVSPropertyOp20
 70
     1
102
RTVSPropertyOp21
 70
     1
102
RTVSPropertyOp22
 70
     1
102
RTVSPropertyOp23
 70
     1
102
RTVSPropertyOp24
 70
     1
102
RTVSPropertyOp25
 70
     1
102
RTVSPropertyOp26
 70
     1
102
RTVSPropertyOp27
 70
     1
102
RTVSPropertyOp28
 70
     1
102
RTVSPropertyOp29
 70
     1
102
RTVSPropertyOp30
 70
     1
102
RTVSPropertyOp31
 70
     1
102
RTVSPropertyOp32
 70
     1
102
RTVSPropertyOp33
 70
     1
102
RTVSPropertyOp34
 70
     1
102
RTVSPropertyOp35
 70
     1
102
RTVSPropertyOp36
 70
     1
102
RTVSPropertyOp37
 70
     1
102
RTVSPropertyOp38
 70
     1
102
RTVSPropertyOp39
 70
     1
102
RTVSPropertyOp40
 70
     1
102
RTVSPropertyOp41
 70
     1
102
RTVSPropertyOp42
 70
     1
102
RTVSPropertyOp43
 70
     1
102
RTVSPropertyOp44
 70
     1
102
RTVSPropertyOp45
 70
     1
102
RTVSPropertyOp46
 70
     1
102
RTVSPropertyOp47
 70
     1
102
RTVSPropertyOp48
 70
     1
102
RTVSPropertyOp49
 70
     1
102
RTVSPropertyOp50
 70
     1
102
RTVSPropertyOp51
 70
     0
102
RTVSPropertyOp52
 70
     0
102
RTVSPropertyOp53
 70
     1
102
RTVSPropertyOp54
 70
     1
102
RTVSPropertyOp55
 70
     1
102
RTVSPropertyOp56
 70
     1
102
RTVSPropertyOp57
 70
     1
102
RTVSPost2010Prop28
280
     0
102
RTVSPost2010PropOp28
 70
     1
102
RTVSPost2010Prop29
280
     1
102
RTVSPost2010PropOp29
 70
     1
102
RTVSPost2010Prop30
280
     1
102
RTVSPost2010PropOp30
 70
     1
102
RTVSPost2010Prop31
280
     0
102
RTVSPost2010PropOp31
 70
     1
102
RTVSPost2010Prop32
280
     0
102
RTVSPost2010PropOp32
 70
     1
102
RTVSPost2010Prop33
280
     0
102
RTVSPost2010PropOp33
 70
     1
102
RTVSPost2010Prop34
280
     0
102
RTVSPost2010PropOp34
 70
     1
102
RTVSPost2010Prop35
280
     0
102
RTVSPost2010PropOp35
 70
     1
102
RTVSPost2010Prop36
280
     0
102
RTVSPost2010PropOp36
 70
     1
102
RTVSPost2010Prop37
 90
       50
102
RTVSPost2010PropOp37
 70
     1
102
RTVSPost2010Prop38
140
0.0
102
RTVSPost2010PropOp38
 70
     1
102
RTVSPost2010Prop39
140
1.0
102
RTVSPost2010PropOp39
 70
     1
102
RTVSPost2010Prop40
 90
        0
102
RTVSPost2010PropOp40
 70
     1
102
RTVSPost2010Prop41ColorIndex
 90
       18
102
RTVSPost2010Prop41ColorRGB
 90
        0
102
RTVSPost2010PropOp41
 70
     1
102
RTVSPost2010Prop42
 90
       50
102
RTVSPost2010PropOp42
 70
     1
102
RTVSPost2010Prop43
 90
        3
102
RTVSPost2010PropOp43
 70
     1
102
RTVSPost2010Prop44ColorIndex
 90
        5
102
RTVSPost2010Prop44ColorRGB
 90
      255
102
RTVSPost2010PropOp44
 70
     1
102
RTVSPost2010Prop45
280
     0
102
RTVSPost2010PropOp45
 70
     1
102
RTVSPost2010Prop46
 90
       50
102
RTVSPost2010PropOp46
 70
     1
102
RTVSPost2010Prop47
 90
       50
102
RTVSPost2010PropOp47
 70
     1
102
RTVSPost2010Prop48
 90
       50
102
RTVSPost2010PropOp48
 70
     1
102
RTVSPost2010Prop49
280
     0
102
RTVSPost2010PropOp49
 70
     1
102
RTVSPost2010Prop50
 90
       50
102
RTVSPost2010PropOp50
 70
     1
102
RTVSPost2010Prop51ColorIndex
 90
      256
102
RTVSPost2010Prop51ColorRGB
 90
-16777216
102
RTVSPost2010PropOp51
 70
     0
102
RTVSPost2010Prop52
140
1.0
102
RTVSPost2010PropOp52
 70
     0
102
RTVSPost2010Prop53
 90
        2
102
RTVSPost2010PropOp53
 70
     1
102
RTVSPost2010Prop54
  1
strokes_ogs.tif
102
RTVSPost2010PropOp54
 70
     1
102
RTVSPost2010Prop55
280
     0
102
RTVSPost2010PropOp55
 70
     1
102
RTVSPost2010Prop56
140
1.0
102
RTVSPost2010PropOp56
 70
     1
102
RTVSPost2010Prop57
140
1.0
102
RTVSPost2010PropOp57
 70
     1
  0
XRECORD
  5
8826D
102
{ACAD_REACTORS
330
87B0E
102
}
330
87B0E
100
AcDbXrecord
280
     1
102
RTVSPropertyOp0
 70
     1
102
RTVSPropertyOp1
 70
     1
102
RTVSPropertyOp2
 70
     1
102
RTVSPropertyOp3
 70
     1
102
RTVSPropertyOp4
 70
     1
102
RTVSPropertyOp5
 70
     1
102
RTVSPropertyOp6
 70
     1
102
RTVSPropertyOp7
 70
     1
102
RTVSPropertyOp8
 70
     1
102
RTVSPropertyOp9
 70
     1
102
RTVSPropertyOp10
 70
     1
102
RTVSPropertyOp11
 70
     1
102
RTVSPropertyOp12
 70
     1
102
RTVSPropertyOp13
 70
     1
102
RTVSPropertyOp14
 70
     1
102
RTVSPropertyOp15
 70
     1
102
RTVSPropertyOp16
 70
     1
102
RTVSPropertyOp17
 70
     1
102
RTVSPropertyOp18
 70
     1
102
RTVSPropertyOp19
 70
     1
102
RTVSPropertyOp20
 70
     1
102
RTVSPropertyOp21
 70
     1
102
RTVSPropertyOp22
 70
     1
102
RTVSPropertyOp23
 70
     1
102
RTVSPropertyOp24
 70
     1
102
RTVSPropertyOp25
 70
     1
102
RTVSPropertyOp26
 70
     1
102
RTVSPropertyOp27
 70
     1
102
RTVSPropertyOp28
 70
     1
102
RTVSPropertyOp29
 70
     1
102
RTVSPropertyOp30
 70
     1
102
RTVSPropertyOp31
 70
     1
102
RTVSPropertyOp32
 70
     1
102
RTVSPropertyOp33
 70
     1
102
RTVSPropertyOp34
 70
     1
102
RTVSPropertyOp35
 70
     1
102
RTVSPropertyOp36
 70
     1
102
RTVSPropertyOp37
 70
     1
102
RTVSPropertyOp38
 70
     1
102
RTVSPropertyOp39
 70
     1
102
RTVSPropertyOp40
 70
     1
102
RTVSPropertyOp41
 70
     1
102
RTVSPropertyOp42
 70
     1
102
RTVSPropertyOp43
 70
     1
102
RTVSPropertyOp44
 70
     1
102
RTVSPropertyOp45
 70
     1
102
RTVSPropertyOp46
 70
     1
102
RTVSPropertyOp47
 70
     1
102
RTVSPropertyOp48
 70
     1
102
RTVSPropertyOp49
 70
     1
102
RTVSPropertyOp50
 70
     1
102
RTVSPropertyOp51
 70
     0
102
RTVSPropertyOp52
 70
     0
102
RTVSPropertyOp53
 70
     1
102
RTVSPropertyOp54
 70
     1
102
RTVSPropertyOp55
 70
     1
102
RTVSPropertyOp56
 70
     1
102
RTVSPropertyOp57
 70
     1
102
RTVSPost2010Prop28
280
     0
102
RTVSPost2010PropOp28
 70
     1
102
RTVSPost2010Prop29
280
     1
102
RTVSPost2010PropOp29
 70
     1
102
RTVSPost2010Prop30
280
     1
102
RTVSPost2010PropOp30
 70
     1
102
RTVSPost2010Prop31
280
     0
102
RTVSPost2010PropOp31
 70
     1
102
RTVSPost2010Prop32
280
     0
102
RTVSPost2010PropOp32
 70
     1
102
RTVSPost2010Prop33
280
     0
102
RTVSPost2010PropOp33
 70
     1
102
RTVSPost2010Prop34
280
     0
102
RTVSPost2010PropOp34
 70
     1
102
RTVSPost2010Prop35
280
     0
102
RTVSPost2010PropOp35
 70
     1
102
RTVSPost2010Prop36
280
     0
102
RTVSPost2010PropOp36
 70
     1
102
RTVSPost2010Prop37
 90
       50
102
RTVSPost2010PropOp37
 70
     1
102
RTVSPost2010Prop38
140
0.0
102
RTVSPost2010PropOp38
 70
     1
102
RTVSPost2010Prop39
140
1.0
102
RTVSPost2010PropOp39
 70
     1
102
RTVSPost2010Prop40
 90
        0
102
RTVSPost2010PropOp40
 70
     1
102
RTVSPost2010Prop41ColorIndex
 90
       18
102
RTVSPost2010Prop41ColorRGB
 90
        0
102
RTVSPost2010PropOp41
 70
     1
102
RTVSPost2010Prop42
 90
       50
102
RTVSPost2010PropOp42
 70
     1
102
RTVSPost2010Prop43
 90
        3
102
RTVSPost2010PropOp43
 70
     1
102
RTVSPost2010Prop44ColorIndex
 90
        5
102
RTVSPost2010Prop44ColorRGB
 90
      255
102
RTVSPost2010PropOp44
 70
     1
102
RTVSPost2010Prop45
280
     0
102
RTVSPost2010PropOp45
 70
     1
102
RTVSPost2010Prop46
 90
       50
102
RTVSPost2010PropOp46
 70
     1
102
RTVSPost2010Prop47
 90
       50
102
RTVSPost2010PropOp47
 70
     1
102
RTVSPost2010Prop48
 90
       50
102
RTVSPost2010PropOp48
 70
     1
102
RTVSPost2010Prop49
280
     0
102
RTVSPost2010PropOp49
 70
     1
102
RTVSPost2010Prop50
 90
       50
102
RTVSPost2010PropOp50
 70
     1
102
RTVSPost2010Prop51ColorIndex
 90
      256
102
RTVSPost2010Prop51ColorRGB
 90
-16777216
102
RTVSPost2010PropOp51
 70
     0
102
RTVSPost2010Prop52
140
1.0
102
RTVSPost2010PropOp52
 70
     0
102
RTVSPost2010Prop53
 90
        2
102
RTVSPost2010PropOp53
 70
     1
102
RTVSPost2010Prop54
  1
strokes_ogs.tif
102
RTVSPost2010PropOp54
 70
     1
102
RTVSPost2010Prop55
280
     0
102
RTVSPost2010PropOp55
 70
     1
102
RTVSPost2010Prop56
140
1.0
102
RTVSPost2010PropOp56
 70
     1
102
RTVSPost2010Prop57
140
1.0
102
RTVSPost2010PropOp57
 70
     1
  0
XRECORD
  5
8826E
102
{ACAD_REACTORS
330
87B10
102
}
330
87B10
100
AcDbXrecord
280
     1
102
RTVSPropertyOp0
 70
     1
102
RTVSPropertyOp1
 70
     1
102
RTVSPropertyOp2
 70
     1
102
RTVSPropertyOp3
 70
     1
102
RTVSPropertyOp4
 70
     1
102
RTVSPropertyOp5
 70
     1
102
RTVSPropertyOp6
 70
     1
102
RTVSPropertyOp7
 70
     1
102
RTVSPropertyOp8
 70
     1
102
RTVSPropertyOp9
 70
     1
102
RTVSPropertyOp10
 70
     1
102
RTVSPropertyOp11
 70
     1
102
RTVSPropertyOp12
 70
     1
102
RTVSPropertyOp13
 70
     1
102
RTVSPropertyOp14
 70
     1
102
RTVSPropertyOp15
 70
     1
102
RTVSPropertyOp16
 70
     1
102
RTVSPropertyOp17
 70
     1
102
RTVSPropertyOp18
 70
     1
102
RTVSPropertyOp19
 70
     1
102
RTVSPropertyOp20
 70
     1
102
RTVSPropertyOp21
 70
     1
102
RTVSPropertyOp22
 70
     1
102
RTVSPropertyOp23
 70
     1
102
RTVSPropertyOp24
 70
     1
102
RTVSPropertyOp25
 70
     1
102
RTVSPropertyOp26
 70
     1
102
RTVSPropertyOp27
 70
     1
102
RTVSPropertyOp28
 70
     1
102
RTVSPropertyOp29
 70
     1
102
RTVSPropertyOp30
 70
     1
102
RTVSPropertyOp31
 70
     1
102
RTVSPropertyOp32
 70
     1
102
RTVSPropertyOp33
 70
     1
102
RTVSPropertyOp34
 70
     1
102
RTVSPropertyOp35
 70
     1
102
RTVSPropertyOp36
 70
     1
102
RTVSPropertyOp37
 70
     1
102
RTVSPropertyOp38
 70
     1
102
RTVSPropertyOp39
 70
     1
102
RTVSPropertyOp40
 70
     1
102
RTVSPropertyOp41
 70
     1
102
RTVSPropertyOp42
 70
     1
102
RTVSPropertyOp43
 70
     1
102
RTVSPropertyOp44
 70
     1
102
RTVSPropertyOp45
 70
     1
102
RTVSPropertyOp46
 70
     1
102
RTVSPropertyOp47
 70
     1
102
RTVSPropertyOp48
 70
     1
102
RTVSPropertyOp49
 70
     1
102
RTVSPropertyOp50
 70
     1
102
RTVSPropertyOp51
 70
     0
102
RTVSPropertyOp52
 70
     0
102
RTVSPropertyOp53
 70
     1
102
RTVSPropertyOp54
 70
     1
102
RTVSPropertyOp55
 70
     1
102
RTVSPropertyOp56
 70
     1
102
RTVSPropertyOp57
 70
     1
102
RTVSPost2010Prop28
280
     0
102
RTVSPost2010PropOp28
 70
     1
102
RTVSPost2010Prop29
280
     1
102
RTVSPost2010PropOp29
 70
     1
102
RTVSPost2010Prop30
280
     1
102
RTVSPost2010PropOp30
 70
     1
102
RTVSPost2010Prop31
280
     0
102
RTVSPost2010PropOp31
 70
     1
102
RTVSPost2010Prop32
280
     0
102
RTVSPost2010PropOp32
 70
     1
102
RTVSPost2010Prop33
280
     0
102
RTVSPost2010PropOp33
 70
     1
102
RTVSPost2010Prop34
280
     0
102
RTVSPost2010PropOp34
 70
     1
102
RTVSPost2010Prop35
280
     0
102
RTVSPost2010PropOp35
 70
     1
102
RTVSPost2010Prop36
280
     0
102
RTVSPost2010PropOp36
 70
     1
102
RTVSPost2010Prop37
 90
       50
102
RTVSPost2010PropOp37
 70
     1
102
RTVSPost2010Prop38
140
0.0
102
RTVSPost2010PropOp38
 70
     1
102
RTVSPost2010Prop39
140
1.0
102
RTVSPost2010PropOp39
 70
     1
102
RTVSPost2010Prop40
 90
        0
102
RTVSPost2010PropOp40
 70
     1
102
RTVSPost2010Prop41ColorIndex
 90
       18
102
RTVSPost2010Prop41ColorRGB
 90
        0
102
RTVSPost2010PropOp41
 70
     1
102
RTVSPost2010Prop42
 90
       50
102
RTVSPost2010PropOp42
 70
     1
102
RTVSPost2010Prop43
 90
        3
102
RTVSPost2010PropOp43
 70
     1
102
RTVSPost2010Prop44ColorIndex
 90
        5
102
RTVSPost2010Prop44ColorRGB
 90
      255
102
RTVSPost2010PropOp44
 70
     1
102
RTVSPost2010Prop45
280
     0
102
RTVSPost2010PropOp45
 70
     1
102
RTVSPost2010Prop46
 90
       50
102
RTVSPost2010PropOp46
 70
     1
102
RTVSPost2010Prop47
 90
       50
102
RTVSPost2010PropOp47
 70
     1
102
RTVSPost2010Prop48
 90
       50
102
RTVSPost2010PropOp48
 70
     1
102
RTVSPost2010Prop49
280
     0
102
RTVSPost2010PropOp49
 70
     1
102
RTVSPost2010Prop50
 90
       50
102
RTVSPost2010PropOp50
 70
     1
102
RTVSPost2010Prop51ColorIndex
 90
      256
102
RTVSPost2010Prop51ColorRGB
 90
-16777216
102
RTVSPost2010PropOp51
 70
     0
102
RTVSPost2010Prop52
140
1.0
102
RTVSPost2010PropOp52
 70
     0
102
RTVSPost2010Prop53
 90
        2
102
RTVSPost2010PropOp53
 70
     1
102
RTVSPost2010Prop54
  1
strokes_ogs.tif
102
RTVSPost2010PropOp54
 70
     1
102
RTVSPost2010Prop55
280
     0
102
RTVSPost2010PropOp55
 70
     1
102
RTVSPost2010Prop56
140
1.0
102
RTVSPost2010PropOp56
 70
     1
102
RTVSPost2010Prop57
140
1.0
102
RTVSPost2010PropOp57
 70
     1
  0
XRECORD
  5
8826F
102
{ACAD_REACTORS
330
87B12
102
}
330
87B12
100
AcDbXrecord
280
     1
102
RTVSPropertyOp0
 70
     1
102
RTVSPropertyOp1
 70
     1
102
RTVSPropertyOp2
 70
     1
102
RTVSPropertyOp3
 70
     1
102
RTVSPropertyOp4
 70
     1
102
RTVSPropertyOp5
 70
     1
102
RTVSPropertyOp6
 70
     1
102
RTVSPropertyOp7
 70
     1
102
RTVSPropertyOp8
 70
     1
102
RTVSPropertyOp9
 70
     1
102
RTVSPropertyOp10
 70
     1
102
RTVSPropertyOp11
 70
     1
102
RTVSPropertyOp12
 70
     1
102
RTVSPropertyOp13
 70
     1
102
RTVSPropertyOp14
 70
     1
102
RTVSPropertyOp15
 70
     1
102
RTVSPropertyOp16
 70
     1
102
RTVSPropertyOp17
 70
     1
102
RTVSPropertyOp18
 70
     1
102
RTVSPropertyOp19
 70
     1
102
RTVSPropertyOp20
 70
     1
102
RTVSPropertyOp21
 70
     1
102
RTVSPropertyOp22
 70
     1
102
RTVSPropertyOp23
 70
     1
102
RTVSPropertyOp24
 70
     1
102
RTVSPropertyOp25
 70
     1
102
RTVSPropertyOp26
 70
     1
102
RTVSPropertyOp27
 70
     1
102
RTVSPropertyOp28
 70
     1
102
RTVSPropertyOp29
 70
     1
102
RTVSPropertyOp30
 70
     1
102
RTVSPropertyOp31
 70
     1
102
RTVSPropertyOp32
 70
     1
102
RTVSPropertyOp33
 70
     1
102
RTVSPropertyOp34
 70
     1
102
RTVSPropertyOp35
 70
     1
102
RTVSPropertyOp36
 70
     1
102
RTVSPropertyOp37
 70
     1
102
RTVSPropertyOp38
 70
     1
102
RTVSPropertyOp39
 70
     1
102
RTVSPropertyOp40
 70
     1
102
RTVSPropertyOp41
 70
     1
102
RTVSPropertyOp42
 70
     1
102
RTVSPropertyOp43
 70
     1
102
RTVSPropertyOp44
 70
     1
102
RTVSPropertyOp45
 70
     1
102
RTVSPropertyOp46
 70
     1
102
RTVSPropertyOp47
 70
     1
102
RTVSPropertyOp48
 70
     1
102
RTVSPropertyOp49
 70
     1
102
RTVSPropertyOp50
 70
     1
102
RTVSPropertyOp51
 70
     0
102
RTVSPropertyOp52
 70
     0
102
RTVSPropertyOp53
 70
     1
102
RTVSPropertyOp54
 70
     1
102
RTVSPropertyOp55
 70
     1
102
RTVSPropertyOp56
 70
     1
102
RTVSPropertyOp57
 70
     1
102
RTVSPost2010Prop28
280
     0
102
RTVSPost2010PropOp28
 70
     1
102
RTVSPost2010Prop29
280
     1
102
RTVSPost2010PropOp29
 70
     1
102
RTVSPost2010Prop30
280
     1
102
RTVSPost2010PropOp30
 70
     1
102
RTVSPost2010Prop31
280
     0
102
RTVSPost2010PropOp31
 70
     1
102
RTVSPost2010Prop32
280
     0
102
RTVSPost2010PropOp32
 70
     1
102
RTVSPost2010Prop33
280
     0
102
RTVSPost2010PropOp33
 70
     1
102
RTVSPost2010Prop34
280
     0
102
RTVSPost2010PropOp34
 70
     1
102
RTVSPost2010Prop35
280
     0
102
RTVSPost2010PropOp35
 70
     1
102
RTVSPost2010Prop36
280
     0
102
RTVSPost2010PropOp36
 70
     1
102
RTVSPost2010Prop37
 90
       50
102
RTVSPost2010PropOp37
 70
     1
102
RTVSPost2010Prop38
140
0.0
102
RTVSPost2010PropOp38
 70
     1
102
RTVSPost2010Prop39
140
1.0
102
RTVSPost2010PropOp39
 70
     1
102
RTVSPost2010Prop40
 90
        0
102
RTVSPost2010PropOp40
 70
     1
102
RTVSPost2010Prop41ColorIndex
 90
       18
102
RTVSPost2010Prop41ColorRGB
 90
        0
102
RTVSPost2010PropOp41
 70
     1
102
RTVSPost2010Prop42
 90
       50
102
RTVSPost2010PropOp42
 70
     1
102
RTVSPost2010Prop43
 90
        3
102
RTVSPost2010PropOp43
 70
     1
102
RTVSPost2010Prop44ColorIndex
 90
        5
102
RTVSPost2010Prop44ColorRGB
 90
      255
102
RTVSPost2010PropOp44
 70
     1
102
RTVSPost2010Prop45
280
     0
102
RTVSPost2010PropOp45
 70
     1
102
RTVSPost2010Prop46
 90
       50
102
RTVSPost2010PropOp46
 70
     1
102
RTVSPost2010Prop47
 90
       50
102
RTVSPost2010PropOp47
 70
     1
102
RTVSPost2010Prop48
 90
       50
102
RTVSPost2010PropOp48
 70
     1
102
RTVSPost2010Prop49
280
     0
102
RTVSPost2010PropOp49
 70
     1
102
RTVSPost2010Prop50
 90
       50
102
RTVSPost2010PropOp50
 70
     1
102
RTVSPost2010Prop51ColorIndex
 90
      256
102
RTVSPost2010Prop51ColorRGB
 90
-16777216
102
RTVSPost2010PropOp51
 70
     0
102
RTVSPost2010Prop52
140
1.0
102
RTVSPost2010PropOp52
 70
     0
102
RTVSPost2010Prop53
 90
        2
102
RTVSPost2010PropOp53
 70
     1
102
RTVSPost2010Prop54
  1
strokes_ogs.tif
102
RTVSPost2010PropOp54
 70
     1
102
RTVSPost2010Prop55
280
     0
102
RTVSPost2010PropOp55
 70
     1
102
RTVSPost2010Prop56
140
1.0
102
RTVSPost2010PropOp56
 70
     1
102
RTVSPost2010Prop57
140
1.0
102
RTVSPost2010PropOp57
 70
     1
  0
XRECORD
  5
88270
102
{ACAD_REACTORS
330
87B14
102
}
330
87B14
100
AcDbXrecord
280
     1
102
RTVSPropertyOp0
 70
     1
102
RTVSPropertyOp1
 70
     1
102
RTVSPropertyOp2
 70
     1
102
RTVSPropertyOp3
 70
     1
102
RTVSPropertyOp4
 70
     1
102
RTVSPropertyOp5
 70
     1
102
RTVSPropertyOp6
 70
     1
102
RTVSPropertyOp7
 70
     1
102
RTVSPropertyOp8
 70
     1
102
RTVSPropertyOp9
 70
     1
102
RTVSPropertyOp10
 70
     1
102
RTVSPropertyOp11
 70
     1
102
RTVSPropertyOp12
 70
     1
102
RTVSPropertyOp13
 70
     1
102
RTVSPropertyOp14
 70
     1
102
RTVSPropertyOp15
 70
     1
102
RTVSPropertyOp16
 70
     1
102
RTVSPropertyOp17
 70
     1
102
RTVSPropertyOp18
 70
     1
102
RTVSPropertyOp19
 70
     1
102
RTVSPropertyOp20
 70
     1
102
RTVSPropertyOp21
 70
     1
102
RTVSPropertyOp22
 70
     1
102
RTVSPropertyOp23
 70
     1
102
RTVSPropertyOp24
 70
     1
102
RTVSPropertyOp25
 70
     1
102
RTVSPropertyOp26
 70
     1
102
RTVSPropertyOp27
 70
     1
102
RTVSPropertyOp28
 70
     1
102
RTVSPropertyOp29
 70
     1
102
RTVSPropertyOp30
 70
     1
102
RTVSPropertyOp31
 70
     1
102
RTVSPropertyOp32
 70
     1
102
RTVSPropertyOp33
 70
     1
102
RTVSPropertyOp34
 70
     1
102
RTVSPropertyOp35
 70
     1
102
RTVSPropertyOp36
 70
     1
102
RTVSPropertyOp37
 70
     1
102
RTVSPropertyOp38
 70
     1
102
RTVSPropertyOp39
 70
     1
102
RTVSPropertyOp40
 70
     1
102
RTVSPropertyOp41
 70
     1
102
RTVSPropertyOp42
 70
     1
102
RTVSPropertyOp43
 70
     1
102
RTVSPropertyOp44
 70
     1
102
RTVSPropertyOp45
 70
     1
102
RTVSPropertyOp46
 70
     1
102
RTVSPropertyOp47
 70
     1
102
RTVSPropertyOp48
 70
     1
102
RTVSPropertyOp49
 70
     1
102
RTVSPropertyOp50
 70
     1
102
RTVSPropertyOp51
 70
     0
102
RTVSPropertyOp52
 70
     0
102
RTVSPropertyOp53
 70
     1
102
RTVSPropertyOp54
 70
     1
102
RTVSPropertyOp55
 70
     1
102
RTVSPropertyOp56
 70
     1
102
RTVSPropertyOp57
 70
     1
102
RTVSPost2010Prop28
280
     0
102
RTVSPost2010PropOp28
 70
     1
102
RTVSPost2010Prop29
280
     1
102
RTVSPost2010PropOp29
 70
     1
102
RTVSPost2010Prop30
280
     1
102
RTVSPost2010PropOp30
 70
     1
102
RTVSPost2010Prop31
280
     0
102
RTVSPost2010PropOp31
 70
     1
102
RTVSPost2010Prop32
280
     0
102
RTVSPost2010PropOp32
 70
     1
102
RTVSPost2010Prop33
280
     0
102
RTVSPost2010PropOp33
 70
     1
102
RTVSPost2010Prop34
280
     0
102
RTVSPost2010PropOp34
 70
     1
102
RTVSPost2010Prop35
280
     0
102
RTVSPost2010PropOp35
 70
     1
102
RTVSPost2010Prop36
280
     0
102
RTVSPost2010PropOp36
 70
     1
102
RTVSPost2010Prop37
 90
       50
102
RTVSPost2010PropOp37
 70
     1
102
RTVSPost2010Prop38
140
0.0
102
RTVSPost2010PropOp38
 70
     1
102
RTVSPost2010Prop39
140
1.0
102
RTVSPost2010PropOp39
 70
     1
102
RTVSPost2010Prop40
 90
        0
102
RTVSPost2010PropOp40
 70
     1
102
RTVSPost2010Prop41ColorIndex
 90
       18
102
RTVSPost2010Prop41ColorRGB
 90
        0
102
RTVSPost2010PropOp41
 70
     1
102
RTVSPost2010Prop42
 90
       50
102
RTVSPost2010PropOp42
 70
     1
102
RTVSPost2010Prop43
 90
        3
102
RTVSPost2010PropOp43
 70
     1
102
RTVSPost2010Prop44ColorIndex
 90
        5
102
RTVSPost2010Prop44ColorRGB
 90
      255
102
RTVSPost2010PropOp44
 70
     1
102
RTVSPost2010Prop45
280
     0
102
RTVSPost2010PropOp45
 70
     1
102
RTVSPost2010Prop46
 90
       50
102
RTVSPost2010PropOp46
 70
     1
102
RTVSPost2010Prop47
 90
       50
102
RTVSPost2010PropOp47
 70
     1
102
RTVSPost2010Prop48
 90
       50
102
RTVSPost2010PropOp48
 70
     1
102
RTVSPost2010Prop49
280
     0
102
RTVSPost2010PropOp49
 70
     1
102
RTVSPost2010Prop50
 90
       50
102
RTVSPost2010PropOp50
 70
     1
102
RTVSPost2010Prop51ColorIndex
 90
      256
102
RTVSPost2010Prop51ColorRGB
 90
-16777216
102
RTVSPost2010PropOp51
 70
     0
102
RTVSPost2010Prop52
140
1.0
102
RTVSPost2010PropOp52
 70
     0
102
RTVSPost2010Prop53
 90
        2
102
RTVSPost2010PropOp53
 70
     1
102
RTVSPost2010Prop54
  1
strokes_ogs.tif
102
RTVSPost2010PropOp54
 70
     1
102
RTVSPost2010Prop55
280
     0
102
RTVSPost2010PropOp55
 70
     1
102
RTVSPost2010Prop56
140
1.0
102
RTVSPost2010PropOp56
 70
     1
102
RTVSPost2010Prop57
140
1.0
102
RTVSPost2010PropOp57
 70
     1
  0
XRECORD
  5
88271
102
{ACAD_REACTORS
330
87B1C
102
}
330
87B1C
100
AcDbXrecord
280
     1
102
RTVSPropertyOp0
 70
     1
102
RTVSPropertyOp1
 70
     1
102
RTVSPropertyOp2
 70
     1
102
RTVSPropertyOp3
 70
     1
102
RTVSPropertyOp4
 70
     1
102
RTVSPropertyOp5
 70
     1
102
RTVSPropertyOp6
 70
     1
102
RTVSPropertyOp7
 70
     1
102
RTVSPropertyOp8
 70
     1
102
RTVSPropertyOp9
 70
     1
102
RTVSPropertyOp10
 70
     1
102
RTVSPropertyOp11
 70
     1
102
RTVSPropertyOp12
 70
     1
102
RTVSPropertyOp13
 70
     1
102
RTVSPropertyOp14
 70
     1
102
RTVSPropertyOp15
 70
     1
102
RTVSPropertyOp16
 70
     1
102
RTVSPropertyOp17
 70
     1
102
RTVSPropertyOp18
 70
     1
102
RTVSPropertyOp19
 70
     1
102
RTVSPropertyOp20
 70
     1
102
RTVSPropertyOp21
 70
     1
102
RTVSPropertyOp22
 70
     1
102
RTVSPropertyOp23
 70
     1
102
RTVSPropertyOp24
 70
     1
102
RTVSPropertyOp25
 70
     1
102
RTVSPropertyOp26
 70
     1
102
RTVSPropertyOp27
 70
     1
102
RTVSPropertyOp28
 70
     1
102
RTVSPropertyOp29
 70
     1
102
RTVSPropertyOp30
 70
     1
102
RTVSPropertyOp31
 70
     1
102
RTVSPropertyOp32
 70
     1
102
RTVSPropertyOp33
 70
     1
102
RTVSPropertyOp34
 70
     1
102
RTVSPropertyOp35
 70
     1
102
RTVSPropertyOp36
 70
     1
102
RTVSPropertyOp37
 70
     1
102
RTVSPropertyOp38
 70
     1
102
RTVSPropertyOp39
 70
     1
102
RTVSPropertyOp40
 70
     1
102
RTVSPropertyOp41
 70
     1
102
RTVSPropertyOp42
 70
     1
102
RTVSPropertyOp43
 70
     1
102
RTVSPropertyOp44
 70
     1
102
RTVSPropertyOp45
 70
     1
102
RTVSPropertyOp46
 70
     1
102
RTVSPropertyOp47
 70
     1
102
RTVSPropertyOp48
 70
     1
102
RTVSPropertyOp49
 70
     1
102
RTVSPropertyOp50
 70
     1
102
RTVSPropertyOp51
 70
     0
102
RTVSPropertyOp52
 70
     0
102
RTVSPropertyOp53
 70
     1
102
RTVSPropertyOp54
 70
     1
102
RTVSPropertyOp55
 70
     1
102
RTVSPropertyOp56
 70
     1
102
RTVSPropertyOp57
 70
     1
102
RTVSPost2010Prop28
280
     0
102
RTVSPost2010PropOp28
 70
     1
102
RTVSPost2010Prop29
280
     1
102
RTVSPost2010PropOp29
 70
     1
102
RTVSPost2010Prop30
280
     1
102
RTVSPost2010PropOp30
 70
     1
102
RTVSPost2010Prop31
280
     0
102
RTVSPost2010PropOp31
 70
     1
102
RTVSPost2010Prop32
280
     0
102
RTVSPost2010PropOp32
 70
     1
102
RTVSPost2010Prop33
280
     0
102
RTVSPost2010PropOp33
 70
     1
102
RTVSPost2010Prop34
280
     0
102
RTVSPost2010PropOp34
 70
     1
102
RTVSPost2010Prop35
280
     0
102
RTVSPost2010PropOp35
 70
     1
102
RTVSPost2010Prop36
280
     0
102
RTVSPost2010PropOp36
 70
     1
102
RTVSPost2010Prop37
 90
       50
102
RTVSPost2010PropOp37
 70
     1
102
RTVSPost2010Prop38
140
0.0
102
RTVSPost2010PropOp38
 70
     1
102
RTVSPost2010Prop39
140
1.0
102
RTVSPost2010PropOp39
 70
     1
102
RTVSPost2010Prop40
 90
        0
102
RTVSPost2010PropOp40
 70
     1
102
RTVSPost2010Prop41ColorIndex
 90
       18
102
RTVSPost2010Prop41ColorRGB
 90
        0
102
RTVSPost2010PropOp41
 70
     1
102
RTVSPost2010Prop42
 90
       50
102
RTVSPost2010PropOp42
 70
     1
102
RTVSPost2010Prop43
 90
        3
102
RTVSPost2010PropOp43
 70
     1
102
RTVSPost2010Prop44ColorIndex
 90
        5
102
RTVSPost2010Prop44ColorRGB
 90
      255
102
RTVSPost2010PropOp44
 70
     1
102
RTVSPost2010Prop45
280
     0
102
RTVSPost2010PropOp45
 70
     1
102
RTVSPost2010Prop46
 90
       50
102
RTVSPost2010PropOp46
 70
     1
102
RTVSPost2010Prop47
 90
       50
102
RTVSPost2010PropOp47
 70
     1
102
RTVSPost2010Prop48
 90
       50
102
RTVSPost2010PropOp48
 70
     1
102
RTVSPost2010Prop49
280
     0
102
RTVSPost2010PropOp49
 70
     1
102
RTVSPost2010Prop50
 90
       50
102
RTVSPost2010PropOp50
 70
     1
102
RTVSPost2010Prop51ColorIndex
 90
      256
102
RTVSPost2010Prop51ColorRGB
 90
-16777216
102
RTVSPost2010PropOp51
 70
     0
102
RTVSPost2010Prop52
140
1.0
102
RTVSPost2010PropOp52
 70
     0
102
RTVSPost2010Prop53
 90
        2
102
RTVSPost2010PropOp53
 70
     1
102
RTVSPost2010Prop54
  1
strokes_ogs.tif
102
RTVSPost2010PropOp54
 70
     1
102
RTVSPost2010Prop55
280
     0
102
RTVSPost2010PropOp55
 70
     1
102
RTVSPost2010Prop56
140
1.0
102
RTVSPost2010PropOp56
 70
     1
102
RTVSPost2010Prop57
140
1.0
102
RTVSPost2010PropOp57
 70
     1
  0
XRECORD
  5
88272
102
{ACAD_REACTORS
330
87B38
102
}
330
87B38
100
AcDbXrecord
280
     1
102
RTVSPropertyOp0
 70
     0
102
RTVSPropertyOp1
 70
     0
102
RTVSPropertyOp2
 70
     0
102
RTVSPropertyOp3
 70
     0
102
RTVSPropertyOp4
 70
     0
102
RTVSPropertyOp5
 70
     0
102
RTVSPropertyOp6
 70
     0
102
RTVSPropertyOp7
 70
     0
102
RTVSPropertyOp8
 70
     0
102
RTVSPropertyOp9
 70
     0
102
RTVSPropertyOp10
 70
     0
102
RTVSPropertyOp11
 70
     0
102
RTVSPropertyOp12
 70
     0
102
RTVSPropertyOp13
 70
     0
102
RTVSPropertyOp14
 70
     2
102
RTVSPropertyOp15
 70
     0
102
RTVSPropertyOp16
 70
     0
102
RTVSPropertyOp17
 70
     0
102
RTVSPropertyOp18
 70
     0
102
RTVSPropertyOp19
 70
     0
102
RTVSPropertyOp20
 70
     0
102
RTVSPropertyOp21
 70
     0
102
RTVSPropertyOp22
 70
     0
102
RTVSPropertyOp23
 70
     0
102
RTVSPropertyOp24
 70
     0
102
RTVSPropertyOp25
 70
     0
102
RTVSPropertyOp26
 70
     0
102
RTVSPropertyOp27
 70
     0
102
RTVSPropertyOp28
 70
     1
102
RTVSPropertyOp29
 70
     1
102
RTVSPropertyOp30
 70
     1
102
RTVSPropertyOp31
 70
     1
102
RTVSPropertyOp32
 70
     1
102
RTVSPropertyOp33
 70
     1
102
RTVSPropertyOp34
 70
     1
102
RTVSPropertyOp35
 70
     1
102
RTVSPropertyOp36
 70
     1
102
RTVSPropertyOp37
 70
     0
102
RTVSPropertyOp38
 70
     0
102
RTVSPropertyOp39
 70
     0
102
RTVSPropertyOp40
 70
     0
102
RTVSPropertyOp41
 70
     0
102
RTVSPropertyOp42
 70
     0
102
RTVSPropertyOp43
 70
     0
102
RTVSPropertyOp44
 70
     0
102
RTVSPropertyOp45
 70
     1
102
RTVSPropertyOp46
 70
     0
102
RTVSPropertyOp47
 70
     0
102
RTVSPropertyOp48
 70
     0
102
RTVSPropertyOp49
 70
     1
102
RTVSPropertyOp50
 70
     0
102
RTVSPropertyOp51
 70
     0
102
RTVSPropertyOp52
 70
     0
102
RTVSPropertyOp53
 70
     0
102
RTVSPropertyOp54
 70
     0
102
RTVSPropertyOp55
 70
     1
102
RTVSPropertyOp56
 70
     0
102
RTVSPropertyOp57
 70
     0
102
RTVSPost2010Prop28
280
     0
102
RTVSPost2010PropOp28
 70
     1
102
RTVSPost2010Prop29
280
     1
102
RTVSPost2010PropOp29
 70
     1
102
RTVSPost2010Prop30
280
     1
102
RTVSPost2010PropOp30
 70
     1
102
RTVSPost2010Prop31
280
     0
102
RTVSPost2010PropOp31
 70
     1
102
RTVSPost2010Prop32
280
     0
102
RTVSPost2010PropOp32
 70
     1
102
RTVSPost2010Prop33
280
     0
102
RTVSPost2010PropOp33
 70
     1
102
RTVSPost2010Prop34
280
     0
102
RTVSPost2010PropOp34
 70
     1
102
RTVSPost2010Prop35
280
     0
102
RTVSPost2010PropOp35
 70
     1
102
RTVSPost2010Prop36
280
     0
102
RTVSPost2010PropOp36
 70
     1
102
RTVSPost2010Prop37
 90
       50
102
RTVSPost2010PropOp37
 70
     0
102
RTVSPost2010Prop38
140
0.0
102
RTVSPost2010PropOp38
 70
     0
102
RTVSPost2010Prop39
140
1.0
102
RTVSPost2010PropOp39
 70
     0
102
RTVSPost2010Prop40
 90
        0
102
RTVSPost2010PropOp40
 70
     0
102
RTVSPost2010Prop41ColorIndex
 90
       18
102
RTVSPost2010Prop41ColorRGB
 90
        0
102
RTVSPost2010PropOp41
 70
     0
102
RTVSPost2010Prop42
 90
       50
102
RTVSPost2010PropOp42
 70
     0
102
RTVSPost2010Prop43
 90
        3
102
RTVSPost2010PropOp43
 70
     0
102
RTVSPost2010Prop44ColorIndex
 90
        5
102
RTVSPost2010Prop44ColorRGB
 90
      255
102
RTVSPost2010PropOp44
 70
     0
102
RTVSPost2010Prop45
280
     0
102
RTVSPost2010PropOp45
 70
     1
102
RTVSPost2010Prop46
 90
       50
102
RTVSPost2010PropOp46
 70
     0
102
RTVSPost2010Prop47
 90
       50
102
RTVSPost2010PropOp47
 70
     0
102
RTVSPost2010Prop48
 90
       50
102
RTVSPost2010PropOp48
 70
     0
102
RTVSPost2010Prop49
280
     0
102
RTVSPost2010PropOp49
 70
     1
102
RTVSPost2010Prop50
 90
       50
102
RTVSPost2010PropOp50
 70
     0
102
RTVSPost2010Prop51ColorIndex
 90
      256
102
RTVSPost2010Prop51ColorRGB
 90
-16777216
102
RTVSPost2010PropOp51
 70
     0
102
RTVSPost2010Prop52
140
1.0
102
RTVSPost2010PropOp52
 70
     0
102
RTVSPost2010Prop53
 90
        2
102
RTVSPost2010PropOp53
 70
     0
102
RTVSPost2010Prop54
  1
strokes_ogs.tif
102
RTVSPost2010PropOp54
 70
     0
102
RTVSPost2010Prop55
280
     0
102
RTVSPost2010PropOp55
 70
     1
102
RTVSPost2010Prop56
140
1.0
102
RTVSPost2010PropOp56
 70
     0
102
RTVSPost2010Prop57
140
1.0
102
RTVSPost2010PropOp57
 70
     0
  0
XRECORD
  5
88273
102
{ACAD_REACTORS
330
87B28
102
}
330
87B28
100
AcDbXrecord
280
     1
102
RTVSPropertyOp0
 70
     1
102
RTVSPropertyOp1
 70
     1
102
RTVSPropertyOp2
 70
     1
102
RTVSPropertyOp3
 70
     1
102
RTVSPropertyOp4
 70
     1
102
RTVSPropertyOp5
 70
     1
102
RTVSPropertyOp6
 70
     1
102
RTVSPropertyOp7
 70
     1
102
RTVSPropertyOp8
 70
     1
102
RTVSPropertyOp9
 70
     1
102
RTVSPropertyOp10
 70
     1
102
RTVSPropertyOp11
 70
     1
102
RTVSPropertyOp12
 70
     1
102
RTVSPropertyOp13
 70
     1
102
RTVSPropertyOp14
 70
     1
102
RTVSPropertyOp15
 70
     1
102
RTVSPropertyOp16
 70
     1
102
RTVSPropertyOp17
 70
     1
102
RTVSPropertyOp18
 70
     1
102
RTVSPropertyOp19
 70
     1
102
RTVSPropertyOp20
 70
     1
102
RTVSPropertyOp21
 70
     1
102
RTVSPropertyOp22
 70
     1
102
RTVSPropertyOp23
 70
     1
102
RTVSPropertyOp24
 70
     1
102
RTVSPropertyOp25
 70
     1
102
RTVSPropertyOp26
 70
     1
102
RTVSPropertyOp27
 70
     1
102
RTVSPropertyOp28
 70
     1
102
RTVSPropertyOp29
 70
     1
102
RTVSPropertyOp30
 70
     1
102
RTVSPropertyOp31
 70
     1
102
RTVSPropertyOp32
 70
     1
102
RTVSPropertyOp33
 70
     1
102
RTVSPropertyOp34
 70
     1
102
RTVSPropertyOp35
 70
     1
102
RTVSPropertyOp36
 70
     1
102
RTVSPropertyOp37
 70
     1
102
RTVSPropertyOp38
 70
     1
102
RTVSPropertyOp39
 70
     1
102
RTVSPropertyOp40
 70
     1
102
RTVSPropertyOp41
 70
     1
102
RTVSPropertyOp42
 70
     1
102
RTVSPropertyOp43
 70
     1
102
RTVSPropertyOp44
 70
     1
102
RTVSPropertyOp45
 70
     1
102
RTVSPropertyOp46
 70
     1
102
RTVSPropertyOp47
 70
     1
102
RTVSPropertyOp48
 70
     1
102
RTVSPropertyOp49
 70
     1
102
RTVSPropertyOp50
 70
     1
102
RTVSPropertyOp51
 70
     0
102
RTVSPropertyOp52
 70
     0
102
RTVSPropertyOp53
 70
     1
102
RTVSPropertyOp54
 70
     1
102
RTVSPropertyOp55
 70
     1
102
RTVSPropertyOp56
 70
     1
102
RTVSPropertyOp57
 70
     1
102
RTVSPost2010Prop28
280
     0
102
RTVSPost2010PropOp28
 70
     1
102
RTVSPost2010Prop29
280
     1
102
RTVSPost2010PropOp29
 70
     1
102
RTVSPost2010Prop30
280
     1
102
RTVSPost2010PropOp30
 70
     1
102
RTVSPost2010Prop31
280
     0
102
RTVSPost2010PropOp31
 70
     1
102
RTVSPost2010Prop32
280
     0
102
RTVSPost2010PropOp32
 70
     1
102
RTVSPost2010Prop33
280
     0
102
RTVSPost2010PropOp33
 70
     1
102
RTVSPost2010Prop34
280
     0
102
RTVSPost2010PropOp34
 70
     1
102
RTVSPost2010Prop35
280
     0
102
RTVSPost2010PropOp35
 70
     1
102
RTVSPost2010Prop36
280
     0
102
RTVSPost2010PropOp36
 70
     1
102
RTVSPost2010Prop37
 90
       50
102
RTVSPost2010PropOp37
 70
     1
102
RTVSPost2010Prop38
140
0.0
102
RTVSPost2010PropOp38
 70
     1
102
RTVSPost2010Prop39
140
1.0
102
RTVSPost2010PropOp39
 70
     1
102
RTVSPost2010Prop40
 90
        0
102
RTVSPost2010PropOp40
 70
     1
102
RTVSPost2010Prop41ColorIndex
 90
       18
102
RTVSPost2010Prop41ColorRGB
 90
        0
102
RTVSPost2010PropOp41
 70
     1
102
RTVSPost2010Prop42
 90
       50
102
RTVSPost2010PropOp42
 70
     1
102
RTVSPost2010Prop43
 90
        3
102
RTVSPost2010PropOp43
 70
     1
102
RTVSPost2010Prop44ColorIndex
 90
        5
102
RTVSPost2010Prop44ColorRGB
 90
      255
102
RTVSPost2010PropOp44
 70
     1
102
RTVSPost2010Prop45
280
     0
102
RTVSPost2010PropOp45
 70
     1
102
RTVSPost2010Prop46
 90
       50
102
RTVSPost2010PropOp46
 70
     1
102
RTVSPost2010Prop47
 90
       50
102
RTVSPost2010PropOp47
 70
     1
102
RTVSPost2010Prop48
 90
       50
102
RTVSPost2010PropOp48
 70
     1
102
RTVSPost2010Prop49
280
     0
102
RTVSPost2010PropOp49
 70
     1
102
RTVSPost2010Prop50
 90
       50
102
RTVSPost2010PropOp50
 70
     1
102
RTVSPost2010Prop51ColorIndex
 90
      256
102
RTVSPost2010Prop51ColorRGB
 90
-16777216
102
RTVSPost2010PropOp51
 70
     0
102
RTVSPost2010Prop52
140
1.0
102
RTVSPost2010PropOp52
 70
     0
102
RTVSPost2010Prop53
 90
        2
102
RTVSPost2010PropOp53
 70
     1
102
RTVSPost2010Prop54
  1
strokes_ogs.tif
102
RTVSPost2010PropOp54
 70
     1
102
RTVSPost2010Prop55
280
     0
102
RTVSPost2010PropOp55
 70
     1
102
RTVSPost2010Prop56
140
1.0
102
RTVSPost2010PropOp56
 70
     1
102
RTVSPost2010Prop57
140
1.0
102
RTVSPost2010PropOp57
 70
     1
  0
XRECORD
  5
88274
102
{ACAD_REACTORS
330
87B3A
102
}
330
87B3A
100
AcDbXrecord
280
     1
102
RTVSPropertyOp0
 70
     0
102
RTVSPropertyOp1
 70
     0
102
RTVSPropertyOp2
 70
     0
102
RTVSPropertyOp3
 70
     0
102
RTVSPropertyOp4
 70
     0
102
RTVSPropertyOp5
 70
     0
102
RTVSPropertyOp6
 70
     0
102
RTVSPropertyOp7
 70
     0
102
RTVSPropertyOp8
 70
     0
102
RTVSPropertyOp9
 70
     0
102
RTVSPropertyOp10
 70
     0
102
RTVSPropertyOp11
 70
     0
102
RTVSPropertyOp12
 70
     0
102
RTVSPropertyOp13
 70
     0
102
RTVSPropertyOp14
 70
     2
102
RTVSPropertyOp15
 70
     0
102
RTVSPropertyOp16
 70
     0
102
RTVSPropertyOp17
 70
     0
102
RTVSPropertyOp18
 70
     0
102
RTVSPropertyOp19
 70
     0
102
RTVSPropertyOp20
 70
     0
102
RTVSPropertyOp21
 70
     0
102
RTVSPropertyOp22
 70
     0
102
RTVSPropertyOp23
 70
     0
102
RTVSPropertyOp24
 70
     0
102
RTVSPropertyOp25
 70
     0
102
RTVSPropertyOp26
 70
     0
102
RTVSPropertyOp27
 70
     0
102
RTVSPropertyOp28
 70
     1
102
RTVSPropertyOp29
 70
     1
102
RTVSPropertyOp30
 70
     1
102
RTVSPropertyOp31
 70
     1
102
RTVSPropertyOp32
 70
     1
102
RTVSPropertyOp33
 70
     1
102
RTVSPropertyOp34
 70
     1
102
RTVSPropertyOp35
 70
     1
102
RTVSPropertyOp36
 70
     1
102
RTVSPropertyOp37
 70
     0
102
RTVSPropertyOp38
 70
     0
102
RTVSPropertyOp39
 70
     0
102
RTVSPropertyOp40
 70
     0
102
RTVSPropertyOp41
 70
     0
102
RTVSPropertyOp42
 70
     0
102
RTVSPropertyOp43
 70
     0
102
RTVSPropertyOp44
 70
     0
102
RTVSPropertyOp45
 70
     1
102
RTVSPropertyOp46
 70
     0
102
RTVSPropertyOp47
 70
     0
102
RTVSPropertyOp48
 70
     0
102
RTVSPropertyOp49
 70
     1
102
RTVSPropertyOp50
 70
     0
102
RTVSPropertyOp51
 70
     0
102
RTVSPropertyOp52
 70
     0
102
RTVSPropertyOp53
 70
     0
102
RTVSPropertyOp54
 70
     0
102
RTVSPropertyOp55
 70
     1
102
RTVSPropertyOp56
 70
     0
102
RTVSPropertyOp57
 70
     0
102
RTVSPost2010Prop28
280
     0
102
RTVSPost2010PropOp28
 70
     1
102
RTVSPost2010Prop29
280
     1
102
RTVSPost2010PropOp29
 70
     1
102
RTVSPost2010Prop30
280
     1
102
RTVSPost2010PropOp30
 70
     1
102
RTVSPost2010Prop31
280
     0
102
RTVSPost2010PropOp31
 70
     1
102
RTVSPost2010Prop32
280
     0
102
RTVSPost2010PropOp32
 70
     1
102
RTVSPost2010Prop33
280
     0
102
RTVSPost2010PropOp33
 70
     1
102
RTVSPost2010Prop34
280
     0
102
RTVSPost2010PropOp34
 70
     1
102
RTVSPost2010Prop35
280
     0
102
RTVSPost2010PropOp35
 70
     1
102
RTVSPost2010Prop36
280
     0
102
RTVSPost2010PropOp36
 70
     1
102
RTVSPost2010Prop37
 90
       50
102
RTVSPost2010PropOp37
 70
     0
102
RTVSPost2010Prop38
140
0.0
102
RTVSPost2010PropOp38
 70
     0
102
RTVSPost2010Prop39
140
1.0
102
RTVSPost2010PropOp39
 70
     0
102
RTVSPost2010Prop40
 90
        0
102
RTVSPost2010PropOp40
 70
     0
102
RTVSPost2010Prop41ColorIndex
 90
       18
102
RTVSPost2010Prop41ColorRGB
 90
        0
102
RTVSPost2010PropOp41
 70
     0
102
RTVSPost2010Prop42
 90
       50
102
RTVSPost2010PropOp42
 70
     0
102
RTVSPost2010Prop43
 90
        3
102
RTVSPost2010PropOp43
 70
     0
102
RTVSPost2010Prop44ColorIndex
 90
        5
102
RTVSPost2010Prop44ColorRGB
 90
      255
102
RTVSPost2010PropOp44
 70
     0
102
RTVSPost2010Prop45
280
     0
102
RTVSPost2010PropOp45
 70
     1
102
RTVSPost2010Prop46
 90
       50
102
RTVSPost2010PropOp46
 70
     0
102
RTVSPost2010Prop47
 90
       50
102
RTVSPost2010PropOp47
 70
     0
102
RTVSPost2010Prop48
 90
       50
102
RTVSPost2010PropOp48
 70
     0
102
RTVSPost2010Prop49
280
     0
102
RTVSPost2010PropOp49
 70
     1
102
RTVSPost2010Prop50
 90
       50
102
RTVSPost2010PropOp50
 70
     0
102
RTVSPost2010Prop51ColorIndex
 90
      256
102
RTVSPost2010Prop51ColorRGB
 90
-16777216
102
RTVSPost2010PropOp51
 70
     0
102
RTVSPost2010Prop52
140
1.0
102
RTVSPost2010PropOp52
 70
     0
102
RTVSPost2010Prop53
 90
        2
102
RTVSPost2010PropOp53
 70
     0
102
RTVSPost2010Prop54
  1
strokes_ogs.tif
102
RTVSPost2010PropOp54
 70
     0
102
RTVSPost2010Prop55
280
     0
102
RTVSPost2010PropOp55
 70
     1
102
RTVSPost2010Prop56
140
1.0
102
RTVSPost2010PropOp56
 70
     0
102
RTVSPost2010Prop57
140
1.0
102
RTVSPost2010PropOp57
 70
     0
  0
XRECORD
  5
88275
102
{ACAD_REACTORS
330
87B20
102
}
330
87B20
100
AcDbXrecord
280
     1
102
RTVSPropertyOp0
 70
     1
102
RTVSPropertyOp1
 70
     1
102
RTVSPropertyOp2
 70
     1
102
RTVSPropertyOp3
 70
     1
102
RTVSPropertyOp4
 70
     1
102
RTVSPropertyOp5
 70
     1
102
RTVSPropertyOp6
 70
     1
102
RTVSPropertyOp7
 70
     1
102
RTVSPropertyOp8
 70
     1
102
RTVSPropertyOp9
 70
     1
102
RTVSPropertyOp10
 70
     1
102
RTVSPropertyOp11
 70
     1
102
RTVSPropertyOp12
 70
     1
102
RTVSPropertyOp13
 70
     1
102
RTVSPropertyOp14
 70
     1
102
RTVSPropertyOp15
 70
     1
102
RTVSPropertyOp16
 70
     1
102
RTVSPropertyOp17
 70
     1
102
RTVSPropertyOp18
 70
     1
102
RTVSPropertyOp19
 70
     1
102
RTVSPropertyOp20
 70
     1
102
RTVSPropertyOp21
 70
     1
102
RTVSPropertyOp22
 70
     1
102
RTVSPropertyOp23
 70
     1
102
RTVSPropertyOp24
 70
     1
102
RTVSPropertyOp25
 70
     1
102
RTVSPropertyOp26
 70
     1
102
RTVSPropertyOp27
 70
     1
102
RTVSPropertyOp28
 70
     1
102
RTVSPropertyOp29
 70
     1
102
RTVSPropertyOp30
 70
     1
102
RTVSPropertyOp31
 70
     1
102
RTVSPropertyOp32
 70
     1
102
RTVSPropertyOp33
 70
     1
102
RTVSPropertyOp34
 70
     1
102
RTVSPropertyOp35
 70
     1
102
RTVSPropertyOp36
 70
     1
102
RTVSPropertyOp37
 70
     1
102
RTVSPropertyOp38
 70
     1
102
RTVSPropertyOp39
 70
     1
102
RTVSPropertyOp40
 70
     1
102
RTVSPropertyOp41
 70
     1
102
RTVSPropertyOp42
 70
     1
102
RTVSPropertyOp43
 70
     1
102
RTVSPropertyOp44
 70
     1
102
RTVSPropertyOp45
 70
     1
102
RTVSPropertyOp46
 70
     1
102
RTVSPropertyOp47
 70
     1
102
RTVSPropertyOp48
 70
     1
102
RTVSPropertyOp49
 70
     1
102
RTVSPropertyOp50
 70
     1
102
RTVSPropertyOp51
 70
     0
102
RTVSPropertyOp52
 70
     0
102
RTVSPropertyOp53
 70
     1
102
RTVSPropertyOp54
 70
     1
102
RTVSPropertyOp55
 70
     1
102
RTVSPropertyOp56
 70
     1
102
RTVSPropertyOp57
 70
     1
102
RTVSPost2010Prop28
280
     0
102
RTVSPost2010PropOp28
 70
     1
102
RTVSPost2010Prop29
280
     1
102
RTVSPost2010PropOp29
 70
     1
102
RTVSPost2010Prop30
280
     1
102
RTVSPost2010PropOp30
 70
     1
102
RTVSPost2010Prop31
280
     0
102
RTVSPost2010PropOp31
 70
     1
102
RTVSPost2010Prop32
280
     0
102
RTVSPost2010PropOp32
 70
     1
102
RTVSPost2010Prop33
280
     0
102
RTVSPost2010PropOp33
 70
     1
102
RTVSPost2010Prop34
280
     0
102
RTVSPost2010PropOp34
 70
     1
102
RTVSPost2010Prop35
280
     0
102
RTVSPost2010PropOp35
 70
     1
102
RTVSPost2010Prop36
280
     0
102
RTVSPost2010PropOp36
 70
     1
102
RTVSPost2010Prop37
 90
       50
102
RTVSPost2010PropOp37
 70
     1
102
RTVSPost2010Prop38
140
0.0
102
RTVSPost2010PropOp38
 70
     1
102
RTVSPost2010Prop39
140
1.0
102
RTVSPost2010PropOp39
 70
     1
102
RTVSPost2010Prop40
 90
        0
102
RTVSPost2010PropOp40
 70
     1
102
RTVSPost2010Prop41ColorIndex
 90
       18
102
RTVSPost2010Prop41ColorRGB
 90
        0
102
RTVSPost2010PropOp41
 70
     1
102
RTVSPost2010Prop42
 90
       50
102
RTVSPost2010PropOp42
 70
     1
102
RTVSPost2010Prop43
 90
        3
102
RTVSPost2010PropOp43
 70
     1
102
RTVSPost2010Prop44ColorIndex
 90
        5
102
RTVSPost2010Prop44ColorRGB
 90
      255
102
RTVSPost2010PropOp44
 70
     1
102
RTVSPost2010Prop45
280
     0
102
RTVSPost2010PropOp45
 70
     1
102
RTVSPost2010Prop46
 90
       50
102
RTVSPost2010PropOp46
 70
     1
102
RTVSPost2010Prop47
 90
       50
102
RTVSPost2010PropOp47
 70
     1
102
RTVSPost2010Prop48
 90
       50
102
RTVSPost2010PropOp48
 70
     1
102
RTVSPost2010Prop49
280
     0
102
RTVSPost2010PropOp49
 70
     1
102
RTVSPost2010Prop50
 90
       50
102
RTVSPost2010PropOp50
 70
     1
102
RTVSPost2010Prop51ColorIndex
 90
      256
102
RTVSPost2010Prop51ColorRGB
 90
-16777216
102
RTVSPost2010PropOp51
 70
     0
102
RTVSPost2010Prop52
140
1.0
102
RTVSPost2010PropOp52
 70
     0
102
RTVSPost2010Prop53
 90
        2
102
RTVSPost2010PropOp53
 70
     1
102
RTVSPost2010Prop54
  1
strokes_ogs.tif
102
RTVSPost2010PropOp54
 70
     1
102
RTVSPost2010Prop55
280
     0
102
RTVSPost2010PropOp55
 70
     1
102
RTVSPost2010Prop56
140
1.0
102
RTVSPost2010PropOp56
 70
     1
102
RTVSPost2010Prop57
140
1.0
102
RTVSPost2010PropOp57
 70
     1
  0
XRECORD
  5
88276
102
{ACAD_REACTORS
330
87B36
102
}
330
87B36
100
AcDbXrecord
280
     1
102
RTVSPropertyOp0
 70
     1
102
RTVSPropertyOp1
 70
     1
102
RTVSPropertyOp2
 70
     1
102
RTVSPropertyOp3
 70
     1
102
RTVSPropertyOp4
 70
     1
102
RTVSPropertyOp5
 70
     1
102
RTVSPropertyOp6
 70
     1
102
RTVSPropertyOp7
 70
     1
102
RTVSPropertyOp8
 70
     1
102
RTVSPropertyOp9
 70
     1
102
RTVSPropertyOp10
 70
     1
102
RTVSPropertyOp11
 70
     1
102
RTVSPropertyOp12
 70
     1
102
RTVSPropertyOp13
 70
     1
102
RTVSPropertyOp14
 70
     1
102
RTVSPropertyOp15
 70
     1
102
RTVSPropertyOp16
 70
     1
102
RTVSPropertyOp17
 70
     1
102
RTVSPropertyOp18
 70
     1
102
RTVSPropertyOp19
 70
     1
102
RTVSPropertyOp20
 70
     1
102
RTVSPropertyOp21
 70
     1
102
RTVSPropertyOp22
 70
     1
102
RTVSPropertyOp23
 70
     1
102
RTVSPropertyOp24
 70
     1
102
RTVSPropertyOp25
 70
     1
102
RTVSPropertyOp26
 70
     1
102
RTVSPropertyOp27
 70
     1
102
RTVSPropertyOp28
 70
     1
102
RTVSPropertyOp29
 70
     1
102
RTVSPropertyOp30
 70
     1
102
RTVSPropertyOp31
 70
     1
102
RTVSPropertyOp32
 70
     1
102
RTVSPropertyOp33
 70
     1
102
RTVSPropertyOp34
 70
     1
102
RTVSPropertyOp35
 70
     1
102
RTVSPropertyOp36
 70
     1
102
RTVSPropertyOp37
 70
     1
102
RTVSPropertyOp38
 70
     1
102
RTVSPropertyOp39
 70
     1
102
RTVSPropertyOp40
 70
     1
102
RTVSPropertyOp41
 70
     1
102
RTVSPropertyOp42
 70
     1
102
RTVSPropertyOp43
 70
     1
102
RTVSPropertyOp44
 70
     1
102
RTVSPropertyOp45
 70
     1
102
RTVSPropertyOp46
 70
     1
102
RTVSPropertyOp47
 70
     1
102
RTVSPropertyOp48
 70
     1
102
RTVSPropertyOp49
 70
     1
102
RTVSPropertyOp50
 70
     1
102
RTVSPropertyOp51
 70
     0
102
RTVSPropertyOp52
 70
     0
102
RTVSPropertyOp53
 70
     1
102
RTVSPropertyOp54
 70
     1
102
RTVSPropertyOp55
 70
     1
102
RTVSPropertyOp56
 70
     1
102
RTVSPropertyOp57
 70
     1
102
RTVSPost2010Prop28
280
     0
102
RTVSPost2010PropOp28
 70
     1
102
RTVSPost2010Prop29
280
     1
102
RTVSPost2010PropOp29
 70
     1
102
RTVSPost2010Prop30
280
     1
102
RTVSPost2010PropOp30
 70
     1
102
RTVSPost2010Prop31
280
     0
102
RTVSPost2010PropOp31
 70
     1
102
RTVSPost2010Prop32
280
     0
102
RTVSPost2010PropOp32
 70
     1
102
RTVSPost2010Prop33
280
     0
102
RTVSPost2010PropOp33
 70
     1
102
RTVSPost2010Prop34
280
     0
102
RTVSPost2010PropOp34
 70
     1
102
RTVSPost2010Prop35
280
     0
102
RTVSPost2010PropOp35
 70
     1
102
RTVSPost2010Prop36
280
     0
102
RTVSPost2010PropOp36
 70
     1
102
RTVSPost2010Prop37
 90
       50
102
RTVSPost2010PropOp37
 70
     1
102
RTVSPost2010Prop38
140
0.0
102
RTVSPost2010PropOp38
 70
     1
102
RTVSPost2010Prop39
140
1.0
102
RTVSPost2010PropOp39
 70
     1
102
RTVSPost2010Prop40
 90
        0
102
RTVSPost2010PropOp40
 70
     1
102
RTVSPost2010Prop41ColorIndex
 90
       18
102
RTVSPost2010Prop41ColorRGB
 90
        0
102
RTVSPost2010PropOp41
 70
     1
102
RTVSPost2010Prop42
 90
       50
102
RTVSPost2010PropOp42
 70
     1
102
RTVSPost2010Prop43
 90
        3
102
RTVSPost2010PropOp43
 70
     1
102
RTVSPost2010Prop44ColorIndex
 90
        5
102
RTVSPost2010Prop44ColorRGB
 90
      255
102
RTVSPost2010PropOp44
 70
     1
102
RTVSPost2010Prop45
280
     0
102
RTVSPost2010PropOp45
 70
     1
102
RTVSPost2010Prop46
 90
       50
102
RTVSPost2010PropOp46
 70
     1
102
RTVSPost2010Prop47
 90
       50
102
RTVSPost2010PropOp47
 70
     1
102
RTVSPost2010Prop48
 90
       50
102
RTVSPost2010PropOp48
 70
     1
102
RTVSPost2010Prop49
280
     0
102
RTVSPost2010PropOp49
 70
     1
102
RTVSPost2010Prop50
 90
       50
102
RTVSPost2010PropOp50
 70
     1
102
RTVSPost2010Prop51ColorIndex
 90
      256
102
RTVSPost2010Prop51ColorRGB
 90
-16777216
102
RTVSPost2010PropOp51
 70
     0
102
RTVSPost2010Prop52
140
1.0
102
RTVSPost2010PropOp52
 70
     0
102
RTVSPost2010Prop53
 90
        2
102
RTVSPost2010PropOp53
 70
     1
102
RTVSPost2010Prop54
  1
strokes_ogs.tif
102
RTVSPost2010PropOp54
 70
     1
102
RTVSPost2010Prop55
280
     0
102
RTVSPost2010PropOp55
 70
     1
102
RTVSPost2010Prop56
140
1.0
102
RTVSPost2010PropOp56
 70
     1
102
RTVSPost2010Prop57
140
1.0
102
RTVSPost2010PropOp57
 70
     1
  0
XRECORD
  5
88277
102
{ACAD_REACTORS
330
87B34
102
}
330
87B34
100
AcDbXrecord
280
     1
102
RTVSPropertyOp0
 70
     1
102
RTVSPropertyOp1
 70
     1
102
RTVSPropertyOp2
 70
     1
102
RTVSPropertyOp3
 70
     1
102
RTVSPropertyOp4
 70
     1
102
RTVSPropertyOp5
 70
     1
102
RTVSPropertyOp6
 70
     1
102
RTVSPropertyOp7
 70
     1
102
RTVSPropertyOp8
 70
     1
102
RTVSPropertyOp9
 70
     1
102
RTVSPropertyOp10
 70
     1
102
RTVSPropertyOp11
 70
     1
102
RTVSPropertyOp12
 70
     1
102
RTVSPropertyOp13
 70
     1
102
RTVSPropertyOp14
 70
     1
102
RTVSPropertyOp15
 70
     1
102
RTVSPropertyOp16
 70
     1
102
RTVSPropertyOp17
 70
     1
102
RTVSPropertyOp18
 70
     1
102
RTVSPropertyOp19
 70
     1
102
RTVSPropertyOp20
 70
     1
102
RTVSPropertyOp21
 70
     1
102
RTVSPropertyOp22
 70
     1
102
RTVSPropertyOp23
 70
     1
102
RTVSPropertyOp24
 70
     1
102
RTVSPropertyOp25
 70
     1
102
RTVSPropertyOp26
 70
     1
102
RTVSPropertyOp27
 70
     1
102
RTVSPropertyOp28
 70
     1
102
RTVSPropertyOp29
 70
     1
102
RTVSPropertyOp30
 70
     1
102
RTVSPropertyOp31
 70
     1
102
RTVSPropertyOp32
 70
     1
102
RTVSPropertyOp33
 70
     1
102
RTVSPropertyOp34
 70
     1
102
RTVSPropertyOp35
 70
     1
102
RTVSPropertyOp36
 70
     1
102
RTVSPropertyOp37
 70
     1
102
RTVSPropertyOp38
 70
     1
102
RTVSPropertyOp39
 70
     1
102
RTVSPropertyOp40
 70
     1
102
RTVSPropertyOp41
 70
     1
102
RTVSPropertyOp42
 70
     1
102
RTVSPropertyOp43
 70
     1
102
RTVSPropertyOp44
 70
     1
102
RTVSPropertyOp45
 70
     1
102
RTVSPropertyOp46
 70
     1
102
RTVSPropertyOp47
 70
     1
102
RTVSPropertyOp48
 70
     1
102
RTVSPropertyOp49
 70
     1
102
RTVSPropertyOp50
 70
     1
102
RTVSPropertyOp51
 70
     0
102
RTVSPropertyOp52
 70
     0
102
RTVSPropertyOp53
 70
     1
102
RTVSPropertyOp54
 70
     1
102
RTVSPropertyOp55
 70
     1
102
RTVSPropertyOp56
 70
     1
102
RTVSPropertyOp57
 70
     1
102
RTVSPost2010Prop28
280
     0
102
RTVSPost2010PropOp28
 70
     1
102
RTVSPost2010Prop29
280
     1
102
RTVSPost2010PropOp29
 70
     1
102
RTVSPost2010Prop30
280
     1
102
RTVSPost2010PropOp30
 70
     1
102
RTVSPost2010Prop31
280
     0
102
RTVSPost2010PropOp31
 70
     1
102
RTVSPost2010Prop32
280
     0
102
RTVSPost2010PropOp32
 70
     1
102
RTVSPost2010Prop33
280
     0
102
RTVSPost2010PropOp33
 70
     1
102
RTVSPost2010Prop34
280
     0
102
RTVSPost2010PropOp34
 70
     1
102
RTVSPost2010Prop35
280
     0
102
RTVSPost2010PropOp35
 70
     1
102
RTVSPost2010Prop36
280
     0
102
RTVSPost2010PropOp36
 70
     1
102
RTVSPost2010Prop37
 90
       50
102
RTVSPost2010PropOp37
 70
     1
102
RTVSPost2010Prop38
140
0.0
102
RTVSPost2010PropOp38
 70
     1
102
RTVSPost2010Prop39
140
1.0
102
RTVSPost2010PropOp39
 70
     1
102
RTVSPost2010Prop40
 90
        0
102
RTVSPost2010PropOp40
 70
     1
102
RTVSPost2010Prop41ColorIndex
 90
       18
102
RTVSPost2010Prop41ColorRGB
 90
        0
102
RTVSPost2010PropOp41
 70
     1
102
RTVSPost2010Prop42
 90
       50
102
RTVSPost2010PropOp42
 70
     1
102
RTVSPost2010Prop43
 90
        3
102
RTVSPost2010PropOp43
 70
     1
102
RTVSPost2010Prop44ColorIndex
 90
        5
102
RTVSPost2010Prop44ColorRGB
 90
      255
102
RTVSPost2010PropOp44
 70
     1
102
RTVSPost2010Prop45
280
     0
102
RTVSPost2010PropOp45
 70
     1
102
RTVSPost2010Prop46
 90
       50
102
RTVSPost2010PropOp46
 70
     1
102
RTVSPost2010Prop47
 90
       50
102
RTVSPost2010PropOp47
 70
     1
102
RTVSPost2010Prop48
 90
       50
102
RTVSPost2010PropOp48
 70
     1
102
RTVSPost2010Prop49
280
     0
102
RTVSPost2010PropOp49
 70
     1
102
RTVSPost2010Prop50
 90
       50
102
RTVSPost2010PropOp50
 70
     1
102
RTVSPost2010Prop51ColorIndex
 90
      256
102
RTVSPost2010Prop51ColorRGB
 90
-16777216
102
RTVSPost2010PropOp51
 70
     0
102
RTVSPost2010Prop52
140
1.0
102
RTVSPost2010PropOp52
 70
     0
102
RTVSPost2010Prop53
 90
        2
102
RTVSPost2010PropOp53
 70
     1
102
RTVSPost2010Prop54
  1
strokes_ogs.tif
102
RTVSPost2010PropOp54
 70
     1
102
RTVSPost2010Prop55
280
     0
102
RTVSPost2010PropOp55
 70
     1
102
RTVSPost2010Prop56
140
1.0
102
RTVSPost2010PropOp56
 70
     1
102
RTVSPost2010Prop57
140
1.0
102
RTVSPost2010PropOp57
 70
     1
  0
XRECORD
  5
88278
102
{ACAD_REACTORS
330
87B2E
102
}
330
87B2E
100
AcDbXrecord
280
     1
102
RTVSPropertyOp0
 70
     1
102
RTVSPropertyOp1
 70
     1
102
RTVSPropertyOp2
 70
     1
102
RTVSPropertyOp3
 70
     1
102
RTVSPropertyOp4
 70
     1
102
RTVSPropertyOp5
 70
     1
102
RTVSPropertyOp6
 70
     1
102
RTVSPropertyOp7
 70
     1
102
RTVSPropertyOp8
 70
     1
102
RTVSPropertyOp9
 70
     1
102
RTVSPropertyOp10
 70
     1
102
RTVSPropertyOp11
 70
     1
102
RTVSPropertyOp12
 70
     1
102
RTVSPropertyOp13
 70
     1
102
RTVSPropertyOp14
 70
     1
102
RTVSPropertyOp15
 70
     1
102
RTVSPropertyOp16
 70
     1
102
RTVSPropertyOp17
 70
     1
102
RTVSPropertyOp18
 70
     1
102
RTVSPropertyOp19
 70
     1
102
RTVSPropertyOp20
 70
     1
102
RTVSPropertyOp21
 70
     1
102
RTVSPropertyOp22
 70
     1
102
RTVSPropertyOp23
 70
     1
102
RTVSPropertyOp24
 70
     1
102
RTVSPropertyOp25
 70
     1
102
RTVSPropertyOp26
 70
     1
102
RTVSPropertyOp27
 70
     1
102
RTVSPropertyOp28
 70
     1
102
RTVSPropertyOp29
 70
     1
102
RTVSPropertyOp30
 70
     1
102
RTVSPropertyOp31
 70
     1
102
RTVSPropertyOp32
 70
     1
102
RTVSPropertyOp33
 70
     1
102
RTVSPropertyOp34
 70
     1
102
RTVSPropertyOp35
 70
     1
102
RTVSPropertyOp36
 70
     1
102
RTVSPropertyOp37
 70
     1
102
RTVSPropertyOp38
 70
     1
102
RTVSPropertyOp39
 70
     1
102
RTVSPropertyOp40
 70
     1
102
RTVSPropertyOp41
 70
     1
102
RTVSPropertyOp42
 70
     1
102
RTVSPropertyOp43
 70
     1
102
RTVSPropertyOp44
 70
     1
102
RTVSPropertyOp45
 70
     1
102
RTVSPropertyOp46
 70
     1
102
RTVSPropertyOp47
 70
     1
102
RTVSPropertyOp48
 70
     1
102
RTVSPropertyOp49
 70
     1
102
RTVSPropertyOp50
 70
     1
102
RTVSPropertyOp51
 70
     0
102
RTVSPropertyOp52
 70
     0
102
RTVSPropertyOp53
 70
     1
102
RTVSPropertyOp54
 70
     1
102
RTVSPropertyOp55
 70
     1
102
RTVSPropertyOp56
 70
     1
102
RTVSPropertyOp57
 70
     1
102
RTVSPost2010Prop28
280
     0
102
RTVSPost2010PropOp28
 70
     1
102
RTVSPost2010Prop29
280
     1
102
RTVSPost2010PropOp29
 70
     1
102
RTVSPost2010Prop30
280
     1
102
RTVSPost2010PropOp30
 70
     1
102
RTVSPost2010Prop31
280
     0
102
RTVSPost2010PropOp31
 70
     1
102
RTVSPost2010Prop32
280
     0
102
RTVSPost2010PropOp32
 70
     1
102
RTVSPost2010Prop33
280
     0
102
RTVSPost2010PropOp33
 70
     1
102
RTVSPost2010Prop34
280
     0
102
RTVSPost2010PropOp34
 70
     1
102
RTVSPost2010Prop35
280
     0
102
RTVSPost2010PropOp35
 70
     1
102
RTVSPost2010Prop36
280
     0
102
RTVSPost2010PropOp36
 70
     1
102
RTVSPost2010Prop37
 90
       50
102
RTVSPost2010PropOp37
 70
     1
102
RTVSPost2010Prop38
140
0.0
102
RTVSPost2010PropOp38
 70
     1
102
RTVSPost2010Prop39
140
1.0
102
RTVSPost2010PropOp39
 70
     1
102
RTVSPost2010Prop40
 90
        0
102
RTVSPost2010PropOp40
 70
     1
102
RTVSPost2010Prop41ColorIndex
 90
       18
102
RTVSPost2010Prop41ColorRGB
 90
        0
102
RTVSPost2010PropOp41
 70
     1
102
RTVSPost2010Prop42
 90
       50
102
RTVSPost2010PropOp42
 70
     1
102
RTVSPost2010Prop43
 90
        3
102
RTVSPost2010PropOp43
 70
     1
102
RTVSPost2010Prop44ColorIndex
 90
        5
102
RTVSPost2010Prop44ColorRGB
 90
      255
102
RTVSPost2010PropOp44
 70
     1
102
RTVSPost2010Prop45
280
     0
102
RTVSPost2010PropOp45
 70
     1
102
RTVSPost2010Prop46
 90
       50
102
RTVSPost2010PropOp46
 70
     1
102
RTVSPost2010Prop47
 90
       50
102
RTVSPost2010PropOp47
 70
     1
102
RTVSPost2010Prop48
 90
       50
102
RTVSPost2010PropOp48
 70
     1
102
RTVSPost2010Prop49
280
     0
102
RTVSPost2010PropOp49
 70
     1
102
RTVSPost2010Prop50
 90
       50
102
RTVSPost2010PropOp50
 70
     1
102
RTVSPost2010Prop51ColorIndex
 90
      256
102
RTVSPost2010Prop51ColorRGB
 90
-16777216
102
RTVSPost2010PropOp51
 70
     0
102
RTVSPost2010Prop52
140
1.0
102
RTVSPost2010PropOp52
 70
     0
102
RTVSPost2010Prop53
 90
        2
102
RTVSPost2010PropOp53
 70
     1
102
RTVSPost2010Prop54
  1
strokes_ogs.tif
102
RTVSPost2010PropOp54
 70
     1
102
RTVSPost2010Prop55
280
     0
102
RTVSPost2010PropOp55
 70
     1
102
RTVSPost2010Prop56
140
1.0
102
RTVSPost2010PropOp56
 70
     1
102
RTVSPost2010Prop57
140
1.0
102
RTVSPost2010PropOp57
 70
     1
  0
XRECORD
  5
88279
102
{ACAD_REACTORS
330
87B30
102
}
330
87B30
100
AcDbXrecord
280
     1
102
RTVSPropertyOp0
 70
     1
102
RTVSPropertyOp1
 70
     1
102
RTVSPropertyOp2
 70
     1
102
RTVSPropertyOp3
 70
     1
102
RTVSPropertyOp4
 70
     1
102
RTVSPropertyOp5
 70
     1
102
RTVSPropertyOp6
 70
     1
102
RTVSPropertyOp7
 70
     1
102
RTVSPropertyOp8
 70
     1
102
RTVSPropertyOp9
 70
     1
102
RTVSPropertyOp10
 70
     1
102
RTVSPropertyOp11
 70
     1
102
RTVSPropertyOp12
 70
     1
102
RTVSPropertyOp13
 70
     1
102
RTVSPropertyOp14
 70
     1
102
RTVSPropertyOp15
 70
     1
102
RTVSPropertyOp16
 70
     1
102
RTVSPropertyOp17
 70
     1
102
RTVSPropertyOp18
 70
     1
102
RTVSPropertyOp19
 70
     1
102
RTVSPropertyOp20
 70
     1
102
RTVSPropertyOp21
 70
     1
102
RTVSPropertyOp22
 70
     1
102
RTVSPropertyOp23
 70
     1
102
RTVSPropertyOp24
 70
     1
102
RTVSPropertyOp25
 70
     1
102
RTVSPropertyOp26
 70
     1
102
RTVSPropertyOp27
 70
     1
102
RTVSPropertyOp28
 70
     1
102
RTVSPropertyOp29
 70
     1
102
RTVSPropertyOp30
 70
     1
102
RTVSPropertyOp31
 70
     1
102
RTVSPropertyOp32
 70
     1
102
RTVSPropertyOp33
 70
     1
102
RTVSPropertyOp34
 70
     1
102
RTVSPropertyOp35
 70
     1
102
RTVSPropertyOp36
 70
     1
102
RTVSPropertyOp37
 70
     1
102
RTVSPropertyOp38
 70
     1
102
RTVSPropertyOp39
 70
     1
102
RTVSPropertyOp40
 70
     1
102
RTVSPropertyOp41
 70
     1
102
RTVSPropertyOp42
 70
     1
102
RTVSPropertyOp43
 70
     1
102
RTVSPropertyOp44
 70
     1
102
RTVSPropertyOp45
 70
     1
102
RTVSPropertyOp46
 70
     1
102
RTVSPropertyOp47
 70
     1
102
RTVSPropertyOp48
 70
     1
102
RTVSPropertyOp49
 70
     1
102
RTVSPropertyOp50
 70
     1
102
RTVSPropertyOp51
 70
     0
102
RTVSPropertyOp52
 70
     0
102
RTVSPropertyOp53
 70
     1
102
RTVSPropertyOp54
 70
     1
102
RTVSPropertyOp55
 70
     1
102
RTVSPropertyOp56
 70
     1
102
RTVSPropertyOp57
 70
     1
102
RTVSPost2010Prop28
280
     0
102
RTVSPost2010PropOp28
 70
     1
102
RTVSPost2010Prop29
280
     1
102
RTVSPost2010PropOp29
 70
     1
102
RTVSPost2010Prop30
280
     1
102
RTVSPost2010PropOp30
 70
     1
102
RTVSPost2010Prop31
280
     0
102
RTVSPost2010PropOp31
 70
     1
102
RTVSPost2010Prop32
280
     0
102
RTVSPost2010PropOp32
 70
     1
102
RTVSPost2010Prop33
280
     0
102
RTVSPost2010PropOp33
 70
     1
102
RTVSPost2010Prop34
280
     0
102
RTVSPost2010PropOp34
 70
     1
102
RTVSPost2010Prop35
280
     0
102
RTVSPost2010PropOp35
 70
     1
102
RTVSPost2010Prop36
280
     0
102
RTVSPost2010PropOp36
 70
     1
102
RTVSPost2010Prop37
 90
       50
102
RTVSPost2010PropOp37
 70
     1
102
RTVSPost2010Prop38
140
0.0
102
RTVSPost2010PropOp38
 70
     1
102
RTVSPost2010Prop39
140
1.0
102
RTVSPost2010PropOp39
 70
     1
102
RTVSPost2010Prop40
 90
        0
102
RTVSPost2010PropOp40
 70
     1
102
RTVSPost2010Prop41ColorIndex
 90
       18
102
RTVSPost2010Prop41ColorRGB
 90
        0
102
RTVSPost2010PropOp41
 70
     1
102
RTVSPost2010Prop42
 90
       50
102
RTVSPost2010PropOp42
 70
     1
102
RTVSPost2010Prop43
 90
        3
102
RTVSPost2010PropOp43
 70
     1
102
RTVSPost2010Prop44ColorIndex
 90
        5
102
RTVSPost2010Prop44ColorRGB
 90
      255
102
RTVSPost2010PropOp44
 70
     1
102
RTVSPost2010Prop45
280
     0
102
RTVSPost2010PropOp45
 70
     1
102
RTVSPost2010Prop46
 90
       50
102
RTVSPost2010PropOp46
 70
     1
102
RTVSPost2010Prop47
 90
       50
102
RTVSPost2010PropOp47
 70
     1
102
RTVSPost2010Prop48
 90
       50
102
RTVSPost2010PropOp48
 70
     1
102
RTVSPost2010Prop49
280
     0
102
RTVSPost2010PropOp49
 70
     1
102
RTVSPost2010Prop50
 90
       50
102
RTVSPost2010PropOp50
 70
     1
102
RTVSPost2010Prop51ColorIndex
 90
      256
102
RTVSPost2010Prop51ColorRGB
 90
-16777216
102
RTVSPost2010PropOp51
 70
     0
102
RTVSPost2010Prop52
140
1.0
102
RTVSPost2010PropOp52
 70
     0
102
RTVSPost2010Prop53
 90
        2
102
RTVSPost2010PropOp53
 70
     1
102
RTVSPost2010Prop54
  1
strokes_ogs.tif
102
RTVSPost2010PropOp54
 70
     1
102
RTVSPost2010Prop55
280
     0
102
RTVSPost2010PropOp55
 70
     1
102
RTVSPost2010Prop56
140
1.0
102
RTVSPost2010PropOp56
 70
     1
102
RTVSPost2010Prop57
140
1.0
102
RTVSPost2010PropOp57
 70
     1
  0
XRECORD
  5
8827A
102
{ACAD_REACTORS
330
87B26
102
}
330
87B26
100
AcDbXrecord
280
     1
102
RTVSPropertyOp0
 70
     1
102
RTVSPropertyOp1
 70
     1
102
RTVSPropertyOp2
 70
     1
102
RTVSPropertyOp3
 70
     1
102
RTVSPropertyOp4
 70
     1
102
RTVSPropertyOp5
 70
     1
102
RTVSPropertyOp6
 70
     1
102
RTVSPropertyOp7
 70
     1
102
RTVSPropertyOp8
 70
     1
102
RTVSPropertyOp9
 70
     1
102
RTVSPropertyOp10
 70
     1
102
RTVSPropertyOp11
 70
     1
102
RTVSPropertyOp12
 70
     1
102
RTVSPropertyOp13
 70
     1
102
RTVSPropertyOp14
 70
     1
102
RTVSPropertyOp15
 70
     1
102
RTVSPropertyOp16
 70
     1
102
RTVSPropertyOp17
 70
     1
102
RTVSPropertyOp18
 70
     1
102
RTVSPropertyOp19
 70
     1
102
RTVSPropertyOp20
 70
     1
102
RTVSPropertyOp21
 70
     1
102
RTVSPropertyOp22
 70
     1
102
RTVSPropertyOp23
 70
     1
102
RTVSPropertyOp24
 70
     1
102
RTVSPropertyOp25
 70
     1
102
RTVSPropertyOp26
 70
     1
102
RTVSPropertyOp27
 70
     1
102
RTVSPropertyOp28
 70
     1
102
RTVSPropertyOp29
 70
     1
102
RTVSPropertyOp30
 70
     1
102
RTVSPropertyOp31
 70
     1
102
RTVSPropertyOp32
 70
     1
102
RTVSPropertyOp33
 70
     1
102
RTVSPropertyOp34
 70
     1
102
RTVSPropertyOp35
 70
     1
102
RTVSPropertyOp36
 70
     1
102
RTVSPropertyOp37
 70
     1
102
RTVSPropertyOp38
 70
     1
102
RTVSPropertyOp39
 70
     1
102
RTVSPropertyOp40
 70
     1
102
RTVSPropertyOp41
 70
     1
102
RTVSPropertyOp42
 70
     1
102
RTVSPropertyOp43
 70
     1
102
RTVSPropertyOp44
 70
     1
102
RTVSPropertyOp45
 70
     1
102
RTVSPropertyOp46
 70
     1
102
RTVSPropertyOp47
 70
     1
102
RTVSPropertyOp48
 70
     1
102
RTVSPropertyOp49
 70
     1
102
RTVSPropertyOp50
 70
     1
102
RTVSPropertyOp51
 70
     0
102
RTVSPropertyOp52
 70
     0
102
RTVSPropertyOp53
 70
     1
102
RTVSPropertyOp54
 70
     1
102
RTVSPropertyOp55
 70
     1
102
RTVSPropertyOp56
 70
     1
102
RTVSPropertyOp57
 70
     1
102
RTVSPost2010Prop28
280
     0
102
RTVSPost2010PropOp28
 70
     1
102
RTVSPost2010Prop29
280
     1
102
RTVSPost2010PropOp29
 70
     1
102
RTVSPost2010Prop30
280
     1
102
RTVSPost2010PropOp30
 70
     1
102
RTVSPost2010Prop31
280
     0
102
RTVSPost2010PropOp31
 70
     1
102
RTVSPost2010Prop32
280
     0
102
RTVSPost2010PropOp32
 70
     1
102
RTVSPost2010Prop33
280
     0
102
RTVSPost2010PropOp33
 70
     1
102
RTVSPost2010Prop34
280
     0
102
RTVSPost2010PropOp34
 70
     1
102
RTVSPost2010Prop35
280
     0
102
RTVSPost2010PropOp35
 70
     1
102
RTVSPost2010Prop36
280
     0
102
RTVSPost2010PropOp36
 70
     1
102
RTVSPost2010Prop37
 90
       50
102
RTVSPost2010PropOp37
 70
     1
102
RTVSPost2010Prop38
140
0.0
102
RTVSPost2010PropOp38
 70
     1
102
RTVSPost2010Prop39
140
1.0
102
RTVSPost2010PropOp39
 70
     1
102
RTVSPost2010Prop40
 90
        0
102
RTVSPost2010PropOp40
 70
     1
102
RTVSPost2010Prop41ColorIndex
 90
       18
102
RTVSPost2010Prop41ColorRGB
 90
        0
102
RTVSPost2010PropOp41
 70
     1
102
RTVSPost2010Prop42
 90
       50
102
RTVSPost2010PropOp42
 70
     1
102
RTVSPost2010Prop43
 90
        3
102
RTVSPost2010PropOp43
 70
     1
102
RTVSPost2010Prop44ColorIndex
 90
        5
102
RTVSPost2010Prop44ColorRGB
 90
      255
102
RTVSPost2010PropOp44
 70
     1
102
RTVSPost2010Prop45
280
     0
102
RTVSPost2010PropOp45
 70
     1
102
RTVSPost2010Prop46
 90
       50
102
RTVSPost2010PropOp46
 70
     1
102
RTVSPost2010Prop47
 90
       50
102
RTVSPost2010PropOp47
 70
     1
102
RTVSPost2010Prop48
 90
       50
102
RTVSPost2010PropOp48
 70
     1
102
RTVSPost2010Prop49
280
     0
102
RTVSPost2010PropOp49
 70
     1
102
RTVSPost2010Prop50
 90
       50
102
RTVSPost2010PropOp50
 70
     1
102
RTVSPost2010Prop51ColorIndex
 90
      256
102
RTVSPost2010Prop51ColorRGB
 90
-16777216
102
RTVSPost2010PropOp51
 70
     0
102
RTVSPost2010Prop52
140
1.0
102
RTVSPost2010PropOp52
 70
     0
102
RTVSPost2010Prop53
 90
        2
102
RTVSPost2010PropOp53
 70
     1
102
RTVSPost2010Prop54
  1
strokes_ogs.tif
102
RTVSPost2010PropOp54
 70
     1
102
RTVSPost2010Prop55
280
     0
102
RTVSPost2010PropOp55
 70
     1
102
RTVSPost2010Prop56
140
1.0
102
RTVSPost2010PropOp56
 70
     1
102
RTVSPost2010Prop57
140
1.0
102
RTVSPost2010PropOp57
 70
     1
  0
XRECORD
  5
8827B
102
{ACAD_REACTORS
330
87B1A
102
}
330
87B1A
100
AcDbXrecord
280
     1
102
RTVSPropertyOp0
 70
     1
102
RTVSPropertyOp1
 70
     1
102
RTVSPropertyOp2
 70
     1
102
RTVSPropertyOp3
 70
     1
102
RTVSPropertyOp4
 70
     1
102
RTVSPropertyOp5
 70
     1
102
RTVSPropertyOp6
 70
     1
102
RTVSPropertyOp7
 70
     1
102
RTVSPropertyOp8
 70
     1
102
RTVSPropertyOp9
 70
     1
102
RTVSPropertyOp10
 70
     1
102
RTVSPropertyOp11
 70
     1
102
RTVSPropertyOp12
 70
     1
102
RTVSPropertyOp13
 70
     1
102
RTVSPropertyOp14
 70
     1
102
RTVSPropertyOp15
 70
     1
102
RTVSPropertyOp16
 70
     1
102
RTVSPropertyOp17
 70
     1
102
RTVSPropertyOp18
 70
     1
102
RTVSPropertyOp19
 70
     1
102
RTVSPropertyOp20
 70
     1
102
RTVSPropertyOp21
 70
     1
102
RTVSPropertyOp22
 70
     1
102
RTVSPropertyOp23
 70
     1
102
RTVSPropertyOp24
 70
     1
102
RTVSPropertyOp25
 70
     1
102
RTVSPropertyOp26
 70
     1
102
RTVSPropertyOp27
 70
     1
102
RTVSPropertyOp28
 70
     1
102
RTVSPropertyOp29
 70
     1
102
RTVSPropertyOp30
 70
     1
102
RTVSPropertyOp31
 70
     1
102
RTVSPropertyOp32
 70
     1
102
RTVSPropertyOp33
 70
     1
102
RTVSPropertyOp34
 70
     1
102
RTVSPropertyOp35
 70
     1
102
RTVSPropertyOp36
 70
     1
102
RTVSPropertyOp37
 70
     1
102
RTVSPropertyOp38
 70
     1
102
RTVSPropertyOp39
 70
     1
102
RTVSPropertyOp40
 70
     1
102
RTVSPropertyOp41
 70
     1
102
RTVSPropertyOp42
 70
     1
102
RTVSPropertyOp43
 70
     1
102
RTVSPropertyOp44
 70
     1
102
RTVSPropertyOp45
 70
     1
102
RTVSPropertyOp46
 70
     1
102
RTVSPropertyOp47
 70
     1
102
RTVSPropertyOp48
 70
     1
102
RTVSPropertyOp49
 70
     1
102
RTVSPropertyOp50
 70
     1
102
RTVSPropertyOp51
 70
     0
102
RTVSPropertyOp52
 70
     0
102
RTVSPropertyOp53
 70
     1
102
RTVSPropertyOp54
 70
     1
102
RTVSPropertyOp55
 70
     1
102
RTVSPropertyOp56
 70
     1
102
RTVSPropertyOp57
 70
     1
102
RTVSPost2010Prop28
280
     0
102
RTVSPost2010PropOp28
 70
     1
102
RTVSPost2010Prop29
280
     1
102
RTVSPost2010PropOp29
 70
     1
102
RTVSPost2010Prop30
280
     1
102
RTVSPost2010PropOp30
 70
     1
102
RTVSPost2010Prop31
280
     0
102
RTVSPost2010PropOp31
 70
     1
102
RTVSPost2010Prop32
280
     0
102
RTVSPost2010PropOp32
 70
     1
102
RTVSPost2010Prop33
280
     0
102
RTVSPost2010PropOp33
 70
     1
102
RTVSPost2010Prop34
280
     0
102
RTVSPost2010PropOp34
 70
     1
102
RTVSPost2010Prop35
280
     0
102
RTVSPost2010PropOp35
 70
     1
102
RTVSPost2010Prop36
280
     0
102
RTVSPost2010PropOp36
 70
     1
102
RTVSPost2010Prop37
 90
       50
102
RTVSPost2010PropOp37
 70
     1
102
RTVSPost2010Prop38
140
0.0
102
RTVSPost2010PropOp38
 70
     1
102
RTVSPost2010Prop39
140
1.0
102
RTVSPost2010PropOp39
 70
     1
102
RTVSPost2010Prop40
 90
        0
102
RTVSPost2010PropOp40
 70
     1
102
RTVSPost2010Prop41ColorIndex
 90
       18
102
RTVSPost2010Prop41ColorRGB
 90
        0
102
RTVSPost2010PropOp41
 70
     1
102
RTVSPost2010Prop42
 90
       50
102
RTVSPost2010PropOp42
 70
     1
102
RTVSPost2010Prop43
 90
        3
102
RTVSPost2010PropOp43
 70
     1
102
RTVSPost2010Prop44ColorIndex
 90
        5
102
RTVSPost2010Prop44ColorRGB
 90
      255
102
RTVSPost2010PropOp44
 70
     1
102
RTVSPost2010Prop45
280
     0
102
RTVSPost2010PropOp45
 70
     1
102
RTVSPost2010Prop46
 90
       50
102
RTVSPost2010PropOp46
 70
     1
102
RTVSPost2010Prop47
 90
       50
102
RTVSPost2010PropOp47
 70
     1
102
RTVSPost2010Prop48
 90
       50
102
RTVSPost2010PropOp48
 70
     1
102
RTVSPost2010Prop49
280
     0
102
RTVSPost2010PropOp49
 70
     1
102
RTVSPost2010Prop50
 90
       50
102
RTVSPost2010PropOp50
 70
     1
102
RTVSPost2010Prop51ColorIndex
 90
      256
102
RTVSPost2010Prop51ColorRGB
 90
-16777216
102
RTVSPost2010PropOp51
 70
     0
102
RTVSPost2010Prop52
140
1.0
102
RTVSPost2010PropOp52
 70
     0
102
RTVSPost2010Prop53
 90
        2
102
RTVSPost2010PropOp53
 70
     1
102
RTVSPost2010Prop54
  1
strokes_ogs.tif
102
RTVSPost2010PropOp54
 70
     1
102
RTVSPost2010Prop55
280
     0
102
RTVSPost2010PropOp55
 70
     1
102
RTVSPost2010Prop56
140
1.0
102
RTVSPost2010PropOp56
 70
     1
102
RTVSPost2010Prop57
140
1.0
102
RTVSPost2010PropOp57
 70
     1
  0
XRECORD
  5
8827C
102
{ACAD_REACTORS
330
87B32
102
}
330
87B32
100
AcDbXrecord
280
     1
102
RTVSPropertyOp0
 70
     1
102
RTVSPropertyOp1
 70
     1
102
RTVSPropertyOp2
 70
     1
102
RTVSPropertyOp3
 70
     1
102
RTVSPropertyOp4
 70
     1
102
RTVSPropertyOp5
 70
     1
102
RTVSPropertyOp6
 70
     1
102
RTVSPropertyOp7
 70
     1
102
RTVSPropertyOp8
 70
     1
102
RTVSPropertyOp9
 70
     1
102
RTVSPropertyOp10
 70
     1
102
RTVSPropertyOp11
 70
     1
102
RTVSPropertyOp12
 70
     1
102
RTVSPropertyOp13
 70
     1
102
RTVSPropertyOp14
 70
     1
102
RTVSPropertyOp15
 70
     1
102
RTVSPropertyOp16
 70
     1
102
RTVSPropertyOp17
 70
     1
102
RTVSPropertyOp18
 70
     1
102
RTVSPropertyOp19
 70
     1
102
RTVSPropertyOp20
 70
     1
102
RTVSPropertyOp21
 70
     1
102
RTVSPropertyOp22
 70
     1
102
RTVSPropertyOp23
 70
     1
102
RTVSPropertyOp24
 70
     1
102
RTVSPropertyOp25
 70
     1
102
RTVSPropertyOp26
 70
     1
102
RTVSPropertyOp27
 70
     1
102
RTVSPropertyOp28
 70
     1
102
RTVSPropertyOp29
 70
     1
102
RTVSPropertyOp30
 70
     1
102
RTVSPropertyOp31
 70
     1
102
RTVSPropertyOp32
 70
     1
102
RTVSPropertyOp33
 70
     1
102
RTVSPropertyOp34
 70
     1
102
RTVSPropertyOp35
 70
     1
102
RTVSPropertyOp36
 70
     1
102
RTVSPropertyOp37
 70
     1
102
RTVSPropertyOp38
 70
     1
102
RTVSPropertyOp39
 70
     1
102
RTVSPropertyOp40
 70
     1
102
RTVSPropertyOp41
 70
     1
102
RTVSPropertyOp42
 70
     1
102
RTVSPropertyOp43
 70
     1
102
RTVSPropertyOp44
 70
     1
102
RTVSPropertyOp45
 70
     1
102
RTVSPropertyOp46
 70
     1
102
RTVSPropertyOp47
 70
     1
102
RTVSPropertyOp48
 70
     1
102
RTVSPropertyOp49
 70
     1
102
RTVSPropertyOp50
 70
     1
102
RTVSPropertyOp51
 70
     0
102
RTVSPropertyOp52
 70
     0
102
RTVSPropertyOp53
 70
     1
102
RTVSPropertyOp54
 70
     1
102
RTVSPropertyOp55
 70
     1
102
RTVSPropertyOp56
 70
     1
102
RTVSPropertyOp57
 70
     1
102
RTVSPost2010Prop28
280
     0
102
RTVSPost2010PropOp28
 70
     1
102
RTVSPost2010Prop29
280
     1
102
RTVSPost2010PropOp29
 70
     1
102
RTVSPost2010Prop30
280
     1
102
RTVSPost2010PropOp30
 70
     1
102
RTVSPost2010Prop31
280
     0
102
RTVSPost2010PropOp31
 70
     1
102
RTVSPost2010Prop32
280
     0
102
RTVSPost2010PropOp32
 70
     1
102
RTVSPost2010Prop33
280
     0
102
RTVSPost2010PropOp33
 70
     1
102
RTVSPost2010Prop34
280
     0
102
RTVSPost2010PropOp34
 70
     1
102
RTVSPost2010Prop35
280
     0
102
RTVSPost2010PropOp35
 70
     1
102
RTVSPost2010Prop36
280
     0
102
RTVSPost2010PropOp36
 70
     1
102
RTVSPost2010Prop37
 90
       50
102
RTVSPost2010PropOp37
 70
     1
102
RTVSPost2010Prop38
140
0.0
102
RTVSPost2010PropOp38
 70
     1
102
RTVSPost2010Prop39
140
1.0
102
RTVSPost2010PropOp39
 70
     1
102
RTVSPost2010Prop40
 90
        0
102
RTVSPost2010PropOp40
 70
     1
102
RTVSPost2010Prop41ColorIndex
 90
       18
102
RTVSPost2010Prop41ColorRGB
 90
        0
102
RTVSPost2010PropOp41
 70
     1
102
RTVSPost2010Prop42
 90
       50
102
RTVSPost2010PropOp42
 70
     1
102
RTVSPost2010Prop43
 90
        3
102
RTVSPost2010PropOp43
 70
     1
102
RTVSPost2010Prop44ColorIndex
 90
        5
102
RTVSPost2010Prop44ColorRGB
 90
      255
102
RTVSPost2010PropOp44
 70
     1
102
RTVSPost2010Prop45
280
     0
102
RTVSPost2010PropOp45
 70
     1
102
RTVSPost2010Prop46
 90
       50
102
RTVSPost2010PropOp46
 70
     1
102
RTVSPost2010Prop47
 90
       50
102
RTVSPost2010PropOp47
 70
     1
102
RTVSPost2010Prop48
 90
       50
102
RTVSPost2010PropOp48
 70
     1
102
RTVSPost2010Prop49
280
     0
102
RTVSPost2010PropOp49
 70
     1
102
RTVSPost2010Prop50
 90
       50
102
RTVSPost2010PropOp50
 70
     1
102
RTVSPost2010Prop51ColorIndex
 90
      256
102
RTVSPost2010Prop51ColorRGB
 90
-16777216
102
RTVSPost2010PropOp51
 70
     0
102
RTVSPost2010Prop52
140
1.0
102
RTVSPost2010PropOp52
 70
     0
102
RTVSPost2010Prop53
 90
        2
102
RTVSPost2010PropOp53
 70
     1
102
RTVSPost2010Prop54
  1
strokes_ogs.tif
102
RTVSPost2010PropOp54
 70
     1
102
RTVSPost2010Prop55
280
     0
102
RTVSPost2010PropOp55
 70
     1
102
RTVSPost2010Prop56
140
1.0
102
RTVSPost2010PropOp56
 70
     1
102
RTVSPost2010Prop57
140
1.0
102
RTVSPost2010PropOp57
 70
     1
  0
ENDSEC
  0
EOF
