  0
SECTION
  2
HEADER
  9
$ACADVER
  1
AC1009
  9
$INSBASE
 10
0.0
 20
0.0
 30
0.0
  9
$EXTMIN
 10
-106.127861
 20
-36.090388768702852
 30
0.0
  9
$EXTMAX
 10
89.770076943597417
 20
85.017178564364215
 30
0.0
  9
$LIMMIN
 10
0.0
 20
0.0
  9
$LIMMAX
 10
420.0
 20
297.0
  9
$ORTHOMODE
 70
     0
  9
$REGENMODE
 70
     1
  9
$FILLMODE
 70
     1
  9
$QTEXTMODE
 70
     0
  9
$MIRRTEXT
 70
     1
  9
$DRAGMODE
 70
     2
  9
$LTSCALE
 40
1.0
  9
$OSMODE
 70
   289
  9
$ATTMODE
 70
     1
  9
$TEXTSIZE
 40
3.5
  9
$TRACEWID
 40
1.0
  9
$TEXTSTYLE
  7
SIMPLEX
  9
$CLAYER
  8
0
  9
$CELTYPE
  6
BYLAYER
  9
$CECOLOR
 62
   256
  9
$DIMSCALE
 40
0.0
  9
$DIMASZ
 40
3.5
  9
$DIMEXO
 40
0.0
  9
$DIMDLI
 40
0.38
  9
$DIMRND
 40
0.0
  9
$DIMDLE
 40
0.0
  9
$DIMEXE
 40
1.5
  9
$DIMTP
 40
0.0
  9
$DIMTM
 40
0.0
  9
$DIMTXT
 40
3.5
  9
$DIMCEN
 40
0.09
  9
$DIMTSZ
 40
0.0
  9
$DIMTOL
 70
     0
  9
$DIMLIM
 70
     0
  9
$DIMTIH
 70
     0
  9
$DIMTOH
 70
     0
  9
$DIMSE1
 70
     0
  9
$DIMSE2
 70
     0
  9
$DIMTAD
 70
     1
  9
$DIMZIN
 70
     8
  9
$DIMBLK
  1

  9
$DIMASO
 70
     1
  9
$DIMSHO
 70
     1
  9
$DIMPOST
  1

  9
$DIMAPOST
  1

  9
$DIMALT
 70
     0
  9
$DIMALTD
 70
     2
  9
$DIMALTF
 40
25.399999999999999
  9
$DIMLFAC
 40
1.0
  9
$DIMTOFL
 70
     0
  9
$DIMTVP
 40
0.0
  9
$DIMTIX
 70
     0
  9
$DIMSOXD
 70
     0
  9
$DIMSAH
 70
     0
  9
$DIMBLK1
  1

  9
$DIMBLK2
  1

  9
$DIMSTYLE
  2
\M+18352\M+18373\M+1815B_-_ISO-25
  9
$DIMCLRD
 70
   256
  9
$DIMCLRE
 70
   256
  9
$DIMCLRT
 70
   256
  9
$DIMTFAC
 40
1.0
  9
$DIMGAP
 40
2.299999999999998
  9
$LUNITS
 70
     2
  9
$LUPREC
 70
     4
  9
$SKETCHINC
 40
1.0
  9
$FILLETRAD
 40
0.8
  9
$AUNITS
 70
     0
  9
$AUPREC
 70
     0
  9
$MENU
  1
.
  9
$ELEVATION
 40
0.0
  9
$PELEVATION
 40
0.0
  9
$THICKNESS
 40
0.0
  9
$LIMCHECK
 70
     0
  9
$BLIPMODE
 70
     0
  9
$CHAMFERA
 40
10.0
  9
$CHAMFERB
 40
10.0
  9
$SKPOLY
 70
     0
  9
$TDCREATE
 40
2455489.3910633679
  9
$TDUPDATE
 40
2458479.506872802
  9
$TDINDWG
 40
2.1457190277999998
  9
$TDUSRTIMER
 40
2.1456668287
  9
$USRTIMER
 70
     1
  9
$ANGBASE
 50
0.0
  9
$ANGDIR
 70
     0
  9
$PDMODE
 70
     0
  9
$PDSIZE
 40
0.0
  9
$PLINEWID
 40
0.0
  9
$COORDS
 70
     2
  9
$SPLFRAME
 70
     0
  9
$SPLINETYPE
 70
     6
  9
$SPLINESEGS
 70
     8
  9
$ATTDIA
 70
     0
  9
$ATTREQ
 70
     1
  9
$HANDLING
 70
     1
  9
$HANDSEED
  5
4DFF4
  9
$SURFTAB1
 70
     6
  9
$SURFTAB2
 70
     6
  9
$SURFTYPE
 70
     6
  9
$SURFU
 70
     6
  9
$SURFV
 70
     6
  9
$UCSNAME
  2

  9
$UCSORG
 10
0.0
 20
0.0
 30
0.0
  9
$UCSXDIR
 10
1.0
 20
0.0
 30
0.0
  9
$UCSYDIR
 10
0.0
 20
1.0
 30
0.0
  9
$PUCSNAME
  2

  9
$PUCSORG
 10
0.0
 20
0.0
 30
0.0
  9
$PUCSXDIR
 10
1.0
 20
0.0
 30
0.0
  9
$PUCSYDIR
 10
0.0
 20
1.0
 30
0.0
  9
$USERI1
 70
     0
  9
$USERI2
 70
     0
  9
$USERI3
 70
     0
  9
$USERI4
 70
     0
  9
$USERI5
 70
     0
  9
$USERR1
 40
0.0
  9
$USERR2
 40
0.0
  9
$USERR3
 40
0.0
  9
$USERR4
 40
0.0
  9
$USERR5
 40
0.0
  9
$WORLDVIEW
 70
     1
  9
$SHADEDGE
 70
     3
  9
$SHADEDIF
 70
    70
  9
$TILEMODE
 70
     1
  9
$MAXACTVP
 70
    64
  9
$PLIMCHECK
 70
     0
  9
$PEXTMIN
 10
26.669998788833642
 20
20.319998788833651
 30
0.0
  9
$PEXTMAX
 10
240.0299890995025
 20
182.8799890995025
 30
0.0
  9
$PLIMMIN
 10
-6.350006103515625
 20
-6.3499999046325666
  9
$PLIMMAX
 10
273.04998779296881
 20
209.54999399185181
  9
$UNITMODE
 70
     0
  9
$VISRETAIN
 70
     1
  9
$PLINEGEN
 70
     0
  9
$PSLTSCALE
 70
     1
  0
ENDSEC
  0
SECTION
  2
TABLES
  0
TABLE
  2
VPORT
 70
     2
  0
VPORT
  2
*ACTIVE
 70
     0
 10
0.0
 20
0.0
 11
1.0
 21
1.0
 12
-23.233513980156861
 22
12.88552410713794
 13
0.0
 23
0.0
 14
10.0
 24
10.0
 15
10.0
 25
10.0
 16
0.0
 26
0.0
 36
1.0
 17
0.0
 27
0.0
 37
0.0
 40
270.56804121433493
 41
1.3814432989690719
 42
50.0
 43
0.0
 44
0.0
 50
0.0
 51
0.0
 71
     0
 72
  1000
 73
     1
 74
     1
 75
     0
 76
     0
 77
     0
 78
     0
  0
ENDTAB
  0
TABLE
  2
LTYPE
 70
     4
  0
LTYPE
  2
CONTINUOUS
 70
     0
  3
Solid line
 72
    65
 73
     0
 40
0.0
  0
LTYPE
  2
HIDDEN
 70
     0
  3
Hidden __ __ __ __ __ __ __ __ __ __ __ __ __ _
 72
    65
 73
     2
 40
9.5249999999999968
 49
6.349999999999997
 49
-3.174999999999998
  0
LTYPE
  2
CENTER
 70
     0
  3
Center ____ _ ____ _ ____ _ ____ _ ____ _ ____
 72
    65
 73
     4
 40
50.799999999999997
 49
31.75
 49
-6.349999999999997
 49
6.349999999999997
 49
-6.349999999999997
  0
LTYPE
  2
PHANTOM
 70
     0
  3
_____ _ _ _____ _ _ _____ _ _ _____
 72
    65
 73
     6
 40
0.8
 49
0.45
 49
-0.05
 49
0.1
 49
-0.05
 49
0.1
 49
-0.05
  0
ENDTAB
  0
TABLE
  2
LAYER
 70
    14
  0
LAYER
  2
0
 70
     0
 62
     7
  6
CONTINUOUS
  0
LAYER
  2
1
 70
     0
 62
     4
  6
CONTINUOUS
  0
LAYER
  2
2
 70
     0
 62
     7
  6
CONTINUOUS
  0
LAYER
  2
3
 70
     0
 62
     1
  6
HIDDEN
  0
LAYER
  2
4
 70
     0
 62
     2
  6
CENTER
  0
LAYER
  2
6
 70
     0
 62
     5
  6
CONTINUOUS
  0
LAYER
  2
CUT
 70
     0
 62
     1
  6
CONTINUOUS
  0
LAYER
  2
NOCUT
 70
     0
 62
     7
  6
CONTINUOUS
  0
LAYER
  2
SK1
 70
     0
 62
     4
  6
CONTINUOUS
  0
LAYER
  2
SK2
 70
     0
 62
     7
  6
CONTINUOUS
  0
LAYER
  2
SK3
 70
     0
 62
     1
  6
HIDDEN
  0
LAYER
  2
SK4
 70
     0
 62
     2
  6
CENTER
  0
LAYER
  2
SK6
 70
     0
 62
     5
  6
CONTINUOUS
  0
LAYER
  2
DEFPOINTS
 70
     0
 62
     7
  6
CONTINUOUS
  0
ENDTAB
  0
TABLE
  2
STYLE
 70
    12
  0
STYLE
  2
STANDARD
 70
     0
 40
0.0
 41
1.0
 50
0.0
 71
     0
 42
2.5
  3
txt.shx
  4
@extfont2.shx
  0
STYLE
  2

 70
     1
 40
0.0
 41
1.0
 50
0.0
 71
     0
 42
2.5
  3
ltypeshp.shx
  4

  0
STYLE
  2
SIMPLEX
 70
     0
 40
3.5
 41
1.0
 50
0.0
 71
     0
 42
3.5
  3
txt.shx
  4

  0
STYLE
  2
MX_NOTE_STANDARD
 70
     0
 40
0.0
 41
1.0
 50
0.0
 71
     0
 42
4.2000000000000002
  3
txt.shx
  4
extfont.shx
  0
STYLE
  2
TEXTSTYLE_2
 70
     0
 40
0.0
 41
0.775
 50
0.0
 71
     0
 42
0.2
  3
gdt
  4

  0
STYLE
  2
TEXTSTYLE_3
 70
     0
 40
0.0
 41
0.75
 50
0.0
 71
     0
 42
0.2
  3
txt
  4

  0
STYLE
  2
TEXTSTYLE_13
 70
     0
 40
0.0
 41
1.0
 50
0.0
 71
     0
 42
0.2
  3
txt
  4

  0
STYLE
  2
TEXTSTYLE_14
 70
     0
 40
0.0
 41
1.0
 50
0.0
 71
     0
 42
0.2
  3
txt
  4

  0
STYLE
  2
TEXTSTYLE_4
 70
     0
 40
0.0
 41
0.75
 50
0.0
 71
     0
 42
0.2
  3
txt
  4

  0
STYLE
  2
TEXTSTYLE_17
 70
     0
 40
0.0
 41
1.0
 50
0.0
 71
     0
 42
0.2
  3
txt
  4

  0
STYLE
  2
TEXTSTYLE_12
 70
     0
 40
0.0
 41
1.0
 50
0.0
 71
     0
 42
0.2
  3
txt
  4

  0
STYLE
  2
TEXTSTYLE_20
 70
     0
 40
0.0
 41
0.6
 50
0.0
 71
     0
 42
0.2
  3
txt
  4

  0
ENDTAB
  0
TABLE
  2
VIEW
 70
     0
  0
ENDTAB
  0
TABLE
  2
UCS
 70
     0
  0
ENDTAB
  0
TABLE
  2
APPID
 70
    11
  0
APPID
  2
ACAD
 70
     0
  0
APPID
  2
ACAECLAYERSTANDARD
 70
     0
  0
APPID
  2
ACAD_DSTYLE_DIMTEXT_FILL
 70
     0
  0
APPID
  2
ACAD_EXEMPT_FROM_CAD_STANDARDS
 70
     0
  0
APPID
  2
DCO15
 70
     0
  0
APPID
  2
ACAD_DSTYLE_DIMEXT_ENABLED
 70
     0
  0
APPID
  2
ACAD_DSTYLE_DIMEXT_LENGTH
 70
     0
  0
APPID
  2
ACAUTHENVIRON
 70
     0
  0
APPID
  2
ACDBDYNAMICBLOCKTRUENAME
 70
     0
  0
APPID
  2
ACDBDYNAMICBLOCKGUID
 70
     0
  0
APPID
  2
ACDBBLOCKREPETAG
 70
     0
  0
ENDTAB
  0
TABLE
  2
DIMSTYLE
 70
    11
  0
DIMSTYLE
  2
ISO-25
 70
     0
  3

  4

  5

  6

  7

 40
1.0
 41
2.5
 42
0.625
 43
3.75
 44
1.25
 45
0.0
 46
0.0
 47
0.0
 48
0.0
140
2.5
141
2.5
142
0.0
143
0.03937007874016
144
1.0
145
0.0
146
1.0
147
0.625
 71
     0
 72
     0
 73
     0
 74
     0
 75
     0
 76
     0
 77
     1
 78
     8
170
     0
171
     3
172
     1
173
     0
174
     0
175
     0
176
     0
177
     0
178
     0
  0
DIMSTYLE
  2
\M+18352\M+18373\M+1815B_-_ISO-25
 70
     0
  3

  4

  5

  6

  7

 40
0.0
 41
3.5
 42
0.0
 43
0.38
 44
1.5
 45
0.0
 46
0.0
 47
0.0
 48
0.0
140
3.5
141
0.09
142
0.0
143
25.399999999999999
144
1.0
145
0.0
146
1.0
147
2.299999999999998
 71
     0
 72
     0
 73
     0
 74
     0
 75
     0
 76
     0
 77
     1
 78
     8
170
     0
171
     2
172
     0
173
     0
174
     0
175
     0
176
   256
177
   256
178
   256
  0
DIMSTYLE
  2
MXDIMSTYLE
 70
     0
  3

  4

  5

  6
OPEN30
  7
OPEN30
 40
1.0
 41
2.5
 42
0.5
 43
3.75
 44
1.5
 45
0.0
 46
0.0
 47
0.0
 48
0.0
140
4.2000000000000002
141
2.5
142
0.0
143
0.03937
144
1.0
145
0.0
146
1.0
147
1.0
 71
     0
 72
     0
 73
     0
 74
     0
 75
     0
 76
     0
 77
     1
 78
     8
170
     0
171
     4
172
     1
173
     1
174
     0
175
     0
176
     0
177
     0
178
     0
  0
DIMSTYLE
  2
STANDARD
 70
     0
  3

  4

  5
OPEN
  6
OPEN
  7
OPEN
 40
1.0
 41
3.0
 42
0.0625
 43
0.38
 44
0.18
 45
0.0
 46
0.0
 47
0.001
 48
0.001
140
4.0
141
0.09
142
0.0
143
25.399999999999999
144
1.0
145
0.0
146
1.0
147
0.09
 71
     1
 72
     0
 73
     0
 74
     0
 75
     0
 76
     0
 77
     1
 78
     8
170
     0
171
     2
172
     0
173
     0
174
     0
175
     0
176
     0
177
     0
178
     0
  0
DIMSTYLE
  2
DIMSTYLE_1
 70
     0
  3

  4

  5
OPEN
  6
OPEN
  7
OPEN
 40
1.0
 41
3.0
 42
0.0625
 43
0.38
 44
0.18
 45
0.0
 46
0.0
 47
0.0
 48
0.0
140
4.0
141
0.09
142
0.0
143
25.399999999999999
144
1.0
145
0.0
146
1.0
147
0.09
 71
     0
 72
     0
 73
     0
 74
     0
 75
     0
 76
     0
 77
     1
 78
     8
170
     0
171
     2
172
     0
173
     0
174
     0
175
     0
176
     0
177
     0
178
     0
  0
DIMSTYLE
  2
DIMSTYLE_2
 70
     0
  3

  4

  5
OPEN
  6
OPEN
  7
OPEN
 40
1.0
 41
3.0
 42
0.0625
 43
0.38
 44
0.18
 45
0.0
 46
0.0
 47
0.001
 48
0.001
140
4.0
141
0.09
142
0.0
143
25.399999999999999
144
1.0
145
0.0
146
1.0
147
0.09
 71
     0
 72
     0
 73
     0
 74
     0
 75
     0
 76
     0
 77
     1
 78
     8
170
     0
171
     2
172
     0
173
     0
174
     0
175
     0
176
     0
177
     0
178
     0
  0
DIMSTYLE
  2
DIMSTYLE_3
 70
     0
  3

  4

  5
OPEN
  6
OPEN
  7
OPEN
 40
1.0
 41
3.0
 42
0.0625
 43
0.38
 44
0.18
 45
0.0
 46
0.0
 47
-0.1
 48
0.3
140
4.0
141
0.09
142
0.0
143
25.399999999999999
144
1.0
145
0.0
146
0.5
147
0.09
 71
     1
 72
     0
 73
     0
 74
     0
 75
     0
 76
     0
 77
     1
 78
     8
170
     0
171
     2
172
     0
173
     0
174
     0
175
     0
176
     0
177
     0
178
     0
  0
DIMSTYLE
  2
DIMSTYLE_4
 70
     0
  3

  4

  5
OPEN
  6
OPEN
  7
OPEN
 40
1.0
 41
3.0
 42
0.0625
 43
0.38
 44
0.18
 45
0.0
 46
0.0
 47
0.1
 48
0.1
140
4.0
141
0.09
142
0.0
143
25.399999999999999
144
1.0
145
0.0
146
1.0
147
0.09
 71
     1
 72
     0
 73
     0
 74
     0
 75
     0
 76
     0
 77
     1
 78
     8
170
     0
171
     2
172
     0
173
     0
174
     0
175
     0
176
     0
177
     0
178
     0
  0
DIMSTYLE
  2
DIMSTYLE_5
 70
     0
  3

  4

  5
OPEN
  6
OPEN
  7
OPEN
 40
1.0
 41
3.0
 42
0.0625
 43
0.38
 44
0.18
 45
0.0
 46
0.0
 47
0.001
 48
0.001
140
4.0
141
0.09
142
0.0
143
25.399999999999999
144
1.0
145
0.0
146
1.0
147
0.09
 71
     0
 72
     0
 73
     0
 74
     0
 75
     0
 76
     0
 77
     1
 78
     8
170
     0
171
     2
172
     0
173
     0
174
     0
175
     0
176
     0
177
     0
178
     0
  0
DIMSTYLE
  2
DIMSTYLE_6
 70
     0
  3

  4

  5
OPEN
  6
OPEN
  7
OPEN
 40
1.0
 41
3.0
 42
0.0
 43
0.38
 44
1.0
 45
0.0
 46
0.0
 47
0.05
 48
0.05
140
4.0
141
0.09
142
0.0
143
25.399999999999999
144
1.0
145
0.0
146
1.0
147
1.0
 71
     1
 72
     0
 73
     0
 74
     0
 75
     0
 76
     0
 77
     1
 78
     8
170
     0
171
     2
172
     0
173
     0
174
     0
175
     0
176
     0
177
     0
178
     0
  0
DIMSTYLE
  2
DIMSTYLE
 70
     0
  3

  4

  5

  6

  7

 40
1.0
 41
1.0
 42
0.0
 43
0.38
 44
2.54
 45
0.0
 46
0.0
 47
0.0
 48
0.0
140
4.0
141
0.09
142
0.0
143
25.399999999999999
144
1.0
145
0.0
146
1.0
147
2.0
 71
     0
 72
     0
 73
     0
 74
     0
 75
     0
 76
     0
 77
     0
 78
     0
170
     0
171
     2
172
     0
173
     1
174
     0
175
     0
176
     0
177
     0
178
     0
  0
ENDTAB
  0
ENDSEC
  0
SECTION
  2
BLOCKS
  0
BLOCK
  8
0
  2
$MODEL_SPACE
 70
     0
 10
0.0
 20
0.0
 30
0.0
  3
$MODEL_SPACE
  1

  0
ENDBLK
  5
21
  8
0
  0
BLOCK
 67
     1
  8
0
  2
$PAPER_SPACE
 70
     0
 10
0.0
 20
0.0
 30
0.0
  3
$PAPER_SPACE
  1

  0
ENDBLK
  5
53
 67
     1
  8
0
  0
BLOCK
  8
0
  2
ZERO_BLOCK
 70
     0
 10
0.0
 20
0.0
 30
0.0
  3
ZERO_BLOCK
  1

  0
INSERT
  5
3BEAB
  8
0
  6
CONTINUOUS
 62
     7
  2
*U17
 10
0.0
 20
0.0
 30
0.0
1001
ACDBBLOCKREPETAG
1070
     1
1071
        0
1005
3BEAB
1001
ACAD
1002
{
1000
R14_HATCH_DATA
1000
3BEAB
1011
1.0
1021
-0.0
1031
0.0
1021
0.0
1031
0.0
1011
0.0
1021
-0.0
1031
0.0
1021
1.0
1031
0.0
1011
0.0
1021
-0.0
1031
0.0
1021
0.0
1031
1.0
1040
0.0
1010
0.0
1020
0.0
1030
1.0
1000
SOLID
1070
     1
1070
     0
1071
        2
1071
        7
1070
     1
1070
     1
1071
        3
1040
0.0
1040
0.9999999999999875
1040
0.4142135623730915
1040
-1.0
1040
0.0
1040
0.0
1040
0.0
1040
0.0
1040
0.0
1071
        0
1071
        7
1070
     1
1070
     1
1071
        3
1040
1.0000000000000071
1040
0.0
1040
0.0
1040
0.0
1040
0.0
1040
0.0
1040
0.0
1040
-1.0
1040
0.4142135623730974
1071
        0
1070
     0
1070
     1
1040
0.0090601366782909
1071
        2
1040
-0.380591363650975
1040
0.4885804701532896
1040
0.0
1040
0.4350764810977559
1040
-0.4536738423704725
1040
0.0
1002
}
  0
LINE
  5
3BEAC
  8
0
 62
     7
 10
-1.0
 20
0.0
 30
0.0
 11
1.0000000000000071
 21
0.0
 31
0.0
1001
ACDBBLOCKREPETAG
1070
     1
1071
        1
1005
3BEAC
  0
LINE
  5
3BEAD
  8
0
 62
     7
 10
0.0
 20
-1.0
 30
0.0
 11
0.0
 21
0.9999999999999875
 31
0.0
1001
ACDBBLOCKREPETAG
1070
     1
1071
        2
1005
3BEAD
  0
ARC
  5
3BEAE
  8
0
 62
     7
 10
0.0
 20
0.0
 30
0.0
 40
1.0
 50
270.0
 51
0.0
1001
ACDBBLOCKREPETAG
1070
     1
1071
        3
1005
3BEAE
  0
ARC
  5
3BEAF
  8
0
 62
     7
 10
0.0
 20
0.0
 30
0.0
 40
1.0
 50
0.0
 51
90.0
1001
ACDBBLOCKREPETAG
1070
     1
1071
        4
1005
3BEAF
  0
ARC
  5
3BEB0
  8
0
 62
     7
 10
0.0
 20
0.0
 30
0.0
 40
1.0
 50
180.0
 51
270.0
1001
ACDBBLOCKREPETAG
1070
     1
1071
        5
1005
3BEB0
  0
ARC
  5
3BEB1
  8
0
 62
     7
 10
0.0
 20
0.0
 30
0.0
 40
1.0
 50
90.0
 51
180.0
1001
ACDBBLOCKREPETAG
1070
     1
1071
        6
1005
3BEB1
  0
ENDBLK
  5
68B
  8
0
  0
BLOCK
  8
0
  6
BYBLOCK
 62
     0
  2
_OPEN30
 70
     2
 10
0.0
 20
0.0
 30
0.0
  3
_OPEN30
  1

  0
LINE
  5
699
  8
0
  6
BYBLOCK
 62
     0
 10
-1.0
 20
0.267949
 30
0.0
 11
0.0
 21
0.0
 31
0.0
  0
LINE
  5
69A
  8
0
  6
BYBLOCK
 62
     0
 10
0.0
 20
0.0
 30
0.0
 11
-1.0
 21
-0.267949
 31
0.0
  0
LINE
  5
69B
  8
0
  6
BYBLOCK
 62
     0
 10
0.0
 20
0.0
 30
0.0
 11
-1.0
 21
0.0
 31
0.0
  0
ENDBLK
  5
69C
  8
0
  6
BYBLOCK
 62
     0
  0
BLOCK
  8
0
  2
_NONE
 70
     0
 10
0.0
 20
0.0
 30
0.0
  3
_NONE
  1

  0
ENDBLK
  5
32F3
  8
0
  0
BLOCK
  8
0
  2
_OPEN
 70
     0
 10
0.0
 20
0.0
 30
0.0
  3
_OPEN
  1

  0
LINE
  5
34B3
  8
0
  6
BYBLOCK
 62
     0
 10
0.0
 20
0.0
 30
0.0
 11
-1.0
 21
0.1766666667
 31
0.0
  0
LINE
  5
34B4
  8
0
  6
BYBLOCK
 62
     0
 10
-1.0
 20
-0.1766666667
 30
0.0
 11
0.0
 21
0.0
 31
0.0
  0
LINE
  5
34B5
  8
0
  6
BYBLOCK
 62
     0
 10
-1.0
 20
0.0
 30
0.0
 11
0.0
 21
0.0
 31
0.0
  0
ENDBLK
  5
34B6
  8
0
  6
BYBLOCK
 62
     0
  0
BLOCK
  8
0
  2
*D5
 70
     1
 10
0.0
 20
0.0
 30
0.0
  3
*D5
  1

  0
LINE
  5
4AA4E
  8
2
 10
27.019026509527091
 20
9.9999999999999734
 30
0.0
 11
60.591673254603613
 21
9.9999999999999591
 31
0.0
  0
LINE
  5
4AA4F
  8
2
 10
59.091673254603599
 20
6.4999999999999591
 30
0.0
 11
59.091673254603599
 21
-10.00000000000003
 31
0.0
  0
SOLID
  5
4AA50
  8
2
 10
58.508339921270249
 20
6.4999999999999591
 30
0.0
 11
59.67500658793692
 21
6.4999999999999591
 31
0.0
 12
59.091673254603599
 22
9.9999999999999627
 32
0.0
 13
59.091673254603599
 23
9.9999999999999627
 33
0.0
  0
INSERT
  5
4AA51
  8
0
  2
*U18
 10
0.0
 20
0.0
 30
0.0
  0
POINT
  5
4AA52
  8
DEFPOINTS
 62
     0
 10
27.019026509527091
 20
9.9999999999999734
 30
0.0
  0
POINT
  5
4AA53
  8
DEFPOINTS
 62
     0
 10
31.999999999985711
 20
-10.00000000000003
 30
0.0
  0
POINT
  5
4AA54
  8
DEFPOINTS
 62
     0
 10
59.091673254603599
 20
-10.00000000000003
 30
0.0
  0
ENDBLK
  5
4A96A
  8
0
  0
BLOCK
  8
0
  2
*D6
 70
     1
 10
0.0
 20
0.0
 30
0.0
  3
*D6
  1

  0
LINE
  5
4B9DF
  8
2
 10
-83.012988157487356
 20
-6.7970751611870233
 30
0.0
 11
-94.410451731430726
 21
-16.360682642440061
 31
0.0
  0
LINE
  5
4B9E0
  8
2
 10
-89.440864254353784
 20
0.8633692700034528
 30
0.0
 11
-100.8383278282971
 21
-8.7002382112495802
 31
0.0
  0
LINE
  5
4B9E1
  8
2
 10
-91.011628432849307
 20
-18.077656778826551
 30
0.0
 11
-88.761871798946302
 21
-20.758812329742891
 31
0.0
  0
LINE
  5
4B9E2
  8
2
 10
-101.9390177975217
 20
-5.0549012458033831
 30
0.0
 11
-104.1887744314246
 21
-2.3737456948870408
 31
0.0
  0
SOLID
  5
4B9E3
  8
2
 10
-90.564769174363235
 20
-17.702697339842729
 30
0.0
 11
-91.458487691335336
 21
-18.45261621781038
 31
0.0
 12
-93.261385066752254
 22
-15.39650122791021
 32
0.0
 13
-93.261385066752254
 23
-15.39650122791021
 33
0.0
  0
SOLID
  5
4B9E4
  8
2
 10
-101.4921585390356
 20
-4.6799418068195626
 30
0.0
 11
-102.3858770560077
 21
-5.4298606847872151
 31
0.0
 12
-99.689261163618696
 22
-7.7360567967197271
 32
0.0
 13
-99.689261163618696
 23
-7.7360567967197271
 33
0.0
  0
INSERT
  5
4B9E5
  8
0
  2
*U19
 10
0.0
 20
0.0
 30
0.0
  0
POINT
  5
4B9E6
  8
DEFPOINTS
 62
     0
 10
-83.012988157487356
 20
-6.7970751611870233
 30
0.0
  0
POINT
  5
4B9E7
  8
DEFPOINTS
 62
     0
 10
-89.440864254353784
 20
0.8633692700034528
 30
0.0
  0
POINT
  5
4B9E8
  8
DEFPOINTS
 62
     0
 10
-99.689261163618696
 20
-7.7360567967197271
 30
0.0
  0
ENDBLK
  5
4B87A
  8
0
  0
BLOCK
  8
0
  2
*D7
 70
     1
 10
0.0
 20
0.0
 30
0.0
  3
*D7
  1

  0
LINE
  5
4B9E9
  8
SK2
 10
28.0
 20
11.069094648183411
 30
0.0
 11
28.000000000000011
 21
58.815938686682813
 31
0.0
  0
LINE
  5
4B9EA
  8
SK2
 10
-17.999999999999879
 20
2.999999926794906
 30
0.0
 11
-17.999999999999879
 21
58.815938686682813
 31
0.0
  0
LINE
  5
4B9EB
  8
SK2
 10
24.500000000000011
 20
57.315938686682841
 30
0.0
 11
-14.499999999999879
 21
57.315938686682841
 31
0.0
  0
SOLID
  5
4B9EC
  8
SK2
 10
24.500000000000011
 20
57.89927202001617
 30
0.0
 11
24.500000000000011
 21
56.732605353349499
 31
0.0
 12
28.000000000000011
 22
57.315938686682841
 32
0.0
 13
28.000000000000011
 23
57.315938686682841
 33
0.0
  0
SOLID
  5
4B9ED
  8
SK2
 10
-14.499999999999879
 20
57.89927202001617
 30
0.0
 11
-14.499999999999879
 21
56.732605353349499
 31
0.0
 12
-17.999999999999879
 22
57.315938686682841
 32
0.0
 13
-17.999999999999879
 23
57.315938686682841
 33
0.0
  0
INSERT
  5
4B9EE
  8
0
  2
*U20
 10
0.0
 20
0.0
 30
0.0
  0
POINT
  5
4B9EF
  8
DEFPOINTS
 62
     0
 10
28.0
 20
11.069094648183411
 30
0.0
  0
POINT
  5
4B9F0
  8
DEFPOINTS
 62
     0
 10
-17.999999999999879
 20
2.999999926794906
 30
0.0
  0
POINT
  5
4B9F1
  8
DEFPOINTS
 62
     0
 10
-17.999999999999879
 20
57.315938686682841
 30
0.0
  0
ENDBLK
  5
4B886
  8
0
  0
BLOCK
  8
0
  2
*D8
 70
     1
 10
0.0
 20
0.0
 30
0.0
  3
*D8
  1

  0
LINE
  5
4D40B
  8
2
 10
44.450001000000043
 20
9.8413709999999952
 30
0.0
 11
44.450001000000043
 21
-36.090388768702852
 31
0.0
  0
LINE
  5
4D40C
  8
2
 10
40.450001000000029
 20
3.4600419999999859
 30
0.0
 11
40.450001000000029
 21
-36.090388768702852
 31
0.0
  0
LINE
  5
4D40D
  8
2
 10
47.950001000000007
 20
-34.590388768702837
 30
0.0
 11
51.450001000000043
 21
-34.590388768702837
 31
0.0
  0
LINE
  5
4D40E
  8
2
 10
36.95000100000005
 20
-34.590388768702837
 30
0.0
 11
-9.6499989999999727
 21
-34.590388768702837
 31
0.0
  0
SOLID
  5
4D40F
  8
2
 10
47.950001000000007
 20
-34.007055435369502
 30
0.0
 11
47.950001000000007
 21
-35.17372210203618
 31
0.0
 12
44.450001000000043
 22
-34.590388768702837
 32
0.0
 13
44.450001000000043
 23
-34.590388768702837
 33
0.0
  0
SOLID
  5
4D410
  8
2
 10
36.95000100000005
 20
-34.007055435369502
 30
0.0
 11
36.95000100000005
 21
-35.17372210203618
 31
0.0
 12
40.450001000000029
 22
-34.590388768702837
 32
0.0
 13
40.450001000000029
 23
-34.590388768702837
 33
0.0
  0
INSERT
  5
4D411
  8
0
  2
*U21
 10
0.0
 20
0.0
 30
0.0
  0
POINT
  5
4D412
  8
DEFPOINTS
 62
     0
 10
44.450001000000043
 20
9.8413709999999952
 30
0.0
  0
POINT
  5
4D413
  8
DEFPOINTS
 62
     0
 10
40.450001000000029
 20
3.4600419999999859
 30
0.0
  0
POINT
  5
4D414
  8
DEFPOINTS
 62
     0
 10
40.450001000000029
 20
-34.590388768702837
 30
0.0
  0
ENDBLK
  5
4D360
  8
0
  0
BLOCK
  8
0
  2
*D9
 70
     1
 10
0.0
 20
0.0
 30
0.0
  3
*D9
  1

  0
LINE
  5
4D612
  8
2
 10
29.449999999305241
 20
12.555349998900001
 30
0.0
 11
29.449999999305241
 21
43.446855264307558
 31
0.0
  0
LINE
  5
4D613
  8
2
 10
44.44999999930522
 20
30.64348299889997
 30
0.0
 11
44.44999999930522
 21
43.446855264307558
 31
0.0
  0
LINE
  5
4D614
  8
2
 10
40.949999999305213
 20
41.946855264307551
 30
0.0
 11
32.949999999305241
 21
41.946855264307551
 31
0.0
  0
LINE
  5
4D615
  8
2
 10
29.449999999305241
 20
41.946855264307551
 30
0.0
 11
-10.270930121004159
 21
41.946855264307551
 31
0.0
  0
SOLID
  5
4D616
  8
2
 10
40.949999999305213
 20
42.530188597640887
 30
0.0
 11
40.949999999305213
 21
41.363521930974223
 31
0.0
 12
44.44999999930522
 22
41.946855264307551
 32
0.0
 13
44.44999999930522
 23
41.946855264307551
 33
0.0
  0
SOLID
  5
4D617
  8
2
 10
32.949999999305241
 20
42.530188597640887
 30
0.0
 11
32.949999999305241
 21
41.363521930974223
 31
0.0
 12
29.449999999305241
 22
41.946855264307551
 32
0.0
 13
29.449999999305241
 23
41.946855264307551
 33
0.0
  0
INSERT
  5
4D618
  8
0
  2
*U27
 10
0.0
 20
0.0
 30
0.0
  0
POINT
  5
4D619
  8
DEFPOINTS
 62
     0
 10
29.449999999305241
 20
12.555349998900001
 30
0.0
  0
POINT
  5
4D61A
  8
DEFPOINTS
 62
     0
 10
44.44999999930522
 20
30.64348299889997
 30
0.0
  0
POINT
  5
4D61B
  8
DEFPOINTS
 62
     0
 10
44.44999999930522
 20
41.946855264307551
 30
0.0
  0
ENDBLK
  5
4D36D
  8
0
  0
BLOCK
  8
0
  2
*D10
 70
     1
 10
0.0
 20
0.0
 30
0.0
  3
*D10
  1

  0
LINE
  5
4D6A4
  8
2
 10
38.100001000000027
 20
15.87499999999997
 30
0.0
 11
78.091399295788051
 21
15.874999999999959
 31
0.0
  0
LINE
  5
4D6A5
  8
2
 10
76.591399295788051
 20
12.374999999999959
 30
0.0
 11
76.591399295788051
 21
-15.87500000000002
 31
0.0
  0
SOLID
  5
4D6A6
  8
2
 10
76.008065962454722
 20
12.374999999999959
 30
0.0
 11
77.17473262912138
 21
12.374999999999959
 31
0.0
 12
76.591399295788051
 22
15.874999999999959
 32
0.0
 13
76.591399295788051
 23
15.874999999999959
 33
0.0
  0
TEXT
  8
2
  40
3.5
  5
4D6CE
  72
0
  71
0
 10
65.5414
 20
-17.2701
 30
0.000000
  1
%%C31.75 [%%C1.250"]
  7
SIMPLEX
  0
POINT
  5
4D6A8
  8
DEFPOINTS
 62
     0
 10
38.100001000000027
 20
15.87499999999997
 30
0.0
  0
POINT
  5
4D6A9
  8
DEFPOINTS
 62
     0
 10
38.100001000000027
 20
-15.875000000000011
 30
0.0
  0
POINT
  5
4D6AA
  8
DEFPOINTS
 62
     0
 10
76.591399295788051
 20
-15.87500000000002
 30
0.0
  0
ENDBLK
  5
4D377
  8
0
  0
BLOCK
  8
0
  2
*D11
 70
     1
 10
0.0
 20
0.0
 30
0.0
  3
*D11
  1

  0
LINE
  5
4D6AB
  8
2
 10
44.450001000000043
 20
9.4499999999999886
 30
0.0
 11
63.200052000000021
 21
9.4499999999999833
 31
0.0
  0
LINE
  5
4D6AC
  8
2
 10
61.700052000000021
 20
5.9499999999999842
 30
0.0
 11
61.700052000000021
 21
-9.4500000000000206
 31
0.0
  0
SOLID
  5
4D6AD
  8
2
 10
61.116718666666678
 20
5.9499999999999842
 30
0.0
 11
62.283385333333349
 21
5.9499999999999833
 31
0.0
 12
61.700052000000021
 22
9.4499999999999833
 32
0.0
 13
61.700052000000021
 23
9.4499999999999833
 33
0.0
  0
TEXT
  8
2
  40
3.5
  5
4D6CF
  72
0
  71
0
 10
50.6501
 20
-7.94500
 30
0.000000
  1
(%%C18.9 [%%C.744"])
  7
SIMPLEX
  0
POINT
  5
4D6AF
  8
DEFPOINTS
 62
     0
 10
44.450001000000043
 20
9.4499999999999886
 30
0.0
  0
POINT
  5
4D6B0
  8
DEFPOINTS
 62
     0
 10
44.450001000000043
 20
-9.4500000000000153
 30
0.0
  0
POINT
  5
4D6B1
  8
DEFPOINTS
 62
     0
 10
61.700052000000021
 20
-9.4500000000000206
 30
0.0
  0
ENDBLK
  5
4D381
  8
0
  0
BLOCK
  8
0
  2
*D12
 70
     1
 10
0.0
 20
0.0
 30
0.0
  3
*D12
  1

  0
LINE
  5
4D42D
  8
SK2
 10
-81.349998999999954
 20
-15.87500099999999
 30
0.0
 11
-101.827861
 21
-15.87500099999999
 31
0.0
  0
LINE
  5
4D42E
  8
SK2
 10
-81.349998999999954
 20
15.874999000000001
 30
0.0
 11
-101.827861
 21
15.87499900000001
 31
0.0
  0
LINE
  5
4D42F
  8
SK2
 10
-100.327861
 20
-12.37500099999999
 30
0.0
 11
-100.327861
 21
12.37499900000001
 31
0.0
  0
SOLID
  5
4D430
  8
SK2
 10
-100.9111943333333
 20
-12.37500099999999
 30
0.0
 11
-99.744527666666656
 21
-12.37500099999999
 31
0.0
 12
-100.327861
 22
-15.87500099999999
 32
0.0
 13
-100.327861
 23
-15.87500099999999
 33
0.0
  0
SOLID
  5
4D431
  8
SK2
 10
-100.9111943333333
 20
12.37499900000001
 30
0.0
 11
-99.744527666666656
 21
12.37499900000001
 31
0.0
 12
-100.327861
 22
15.87499900000001
 32
0.0
 13
-100.327861
 23
15.87499900000001
 33
0.0
  0
INSERT
  5
4D432
  8
0
  2
*U22
 10
0.0
 20
0.0
 30
0.0
  0
POINT
  5
4D433
  8
DEFPOINTS
 62
     0
 10
-81.349998999999954
 20
-15.87500099999999
 30
0.0
  0
POINT
  5
4D434
  8
DEFPOINTS
 62
     0
 10
-81.349998999999954
 20
15.874999000000001
 30
0.0
  0
POINT
  5
4D435
  8
DEFPOINTS
 62
     0
 10
-100.327861
 20
15.87499900000001
 30
0.0
  0
ENDBLK
  5
4D38D
  8
0
  0
BLOCK
  8
0
  2
*D13
 70
     1
 10
0.0
 20
0.0
 30
0.0
  3
*D13
  1

  0
LINE
  5
4D436
  8
SK2
 10
-82.550010999999984
 20
14.67501099999998
 30
0.0
 11
-82.550010999999984
 21
66.490267095920274
 31
0.0
  0
LINE
  5
4D437
  8
SK2
 10
44.44998899995754
 20
9.2926159475596677
 30
0.0
 11
44.44998899995754
 21
66.490267095920274
 31
0.0
  0
LINE
  5
4D438
  8
SK2
 10
-79.050010999999984
 20
64.990267095920274
 30
0.0
 11
40.949988999957533
 21
64.990267095920274
 31
0.0
  0
SOLID
  5
4D439
  8
SK2
 10
-79.050010999999984
 20
65.573600429253602
 30
0.0
 11
-79.050010999999984
 21
64.406933762586931
 31
0.0
 12
-82.550010999999984
 22
64.990267095920274
 32
0.0
 13
-82.550010999999984
 23
64.990267095920274
 33
0.0
  0
SOLID
  5
4D43A
  8
SK2
 10
40.949988999957533
 20
65.573600429253602
 30
0.0
 11
40.949988999957533
 21
64.406933762586931
 31
0.0
 12
44.44998899995754
 22
64.990267095920274
 32
0.0
 13
44.44998899995754
 23
64.990267095920274
 33
0.0
  0
INSERT
  5
4D43B
  8
0
  2
*U23
 10
0.0
 20
0.0
 30
0.0
  0
POINT
  5
4D43C
  8
DEFPOINTS
 62
     0
 10
-82.550010999999984
 20
14.67501099999998
 30
0.0
  0
POINT
  5
4D43D
  8
DEFPOINTS
 62
     0
 10
44.44998899995754
 20
9.2926159475596677
 30
0.0
  0
POINT
  5
4D43E
  8
DEFPOINTS
 62
     0
 10
44.44998899995754
 20
64.990267095920274
 30
0.0
  0
ENDBLK
  5
4D399
  8
0
  0
BLOCK
  8
0
  2
*D14
 70
     1
 10
0.0
 20
0.0
 30
0.0
  3
*D14
  1

  0
LINE
  5
4D43F
  8
2
 10
0.0
 20
15.87499899999999
 30
0.0
 11
0.0000000000000024
 21
55.470022999999969
 31
0.0
  0
LINE
  5
4D440
  8
2
 10
44.450000000000017
 20
9.3872642552640144
 30
0.0
 11
44.450000000000017
 21
55.470022999999969
 31
0.0
  0
LINE
  5
4D441
  8
2
 10
3.5000000000000009
 20
53.970022999999962
 30
0.0
 11
40.950000000000053
 21
53.970022999999962
 31
0.0
  0
SOLID
  5
4D442
  8
2
 10
3.5000000000000009
 20
54.553356333333298
 30
0.0
 11
3.5000000000000009
 21
53.386689666666634
 31
0.0
 12
0.0000000000000023
 22
53.970022999999962
 32
0.0
 13
0.0000000000000023
 23
53.970022999999962
 33
0.0
  0
SOLID
  5
4D443
  8
2
 10
40.950000000000053
 20
54.553356333333298
 30
0.0
 11
40.950000000000053
 21
53.386689666666634
 31
0.0
 12
44.450000000000017
 22
53.970022999999962
 32
0.0
 13
44.450000000000017
 23
53.970022999999962
 33
0.0
  0
INSERT
  5
4D444
  8
0
  2
*U24
 10
0.0
 20
0.0
 30
0.0
  0
POINT
  5
4D445
  8
DEFPOINTS
 62
     0
 10
0.0
 20
15.87499899999999
 30
0.0
  0
POINT
  5
4D446
  8
DEFPOINTS
 62
     0
 10
44.450000000000017
 20
9.3872642552640144
 30
0.0
  0
POINT
  5
4D447
  8
DEFPOINTS
 62
     0
 10
44.450000000000017
 20
53.970022999999962
 30
0.0
  0
ENDBLK
  5
4D3A5
  8
0
  0
BLOCK
  8
0
  2
*D15
 70
     1
 10
0.0
 20
0.0
 30
0.0
  3
*D15
  1

  0
LINE
  5
4D44F
  8
2
 10
44.450001000000043
 20
10.678971999999931
 30
0.0
 11
44.450001000000043
 21
32.068411999999981
 31
0.0
  0
LINE
  5
4D450
  8
2
 10
38.350001000000042
 20
15.87499999999997
 30
0.0
 11
38.350001000000042
 21
32.068411999999981
 31
0.0
  0
LINE
  5
4D451
  8
2
 10
47.950001000000007
 20
30.568411999999981
 30
0.0
 11
51.450001000000043
 21
30.568411999999981
 31
0.0
  0
LINE
  5
4D452
  8
2
 10
34.85000100000002
 20
30.568411999999981
 30
0.0
 11
-15.833332333333329
 21
30.568411999999981
 31
0.0
  0
SOLID
  5
4D453
  8
2
 10
47.950001000000007
 20
31.151745333333309
 30
0.0
 11
47.950001000000007
 21
29.985078666666649
 31
0.0
 12
44.450001000000043
 22
30.568411999999981
 32
0.0
 13
44.450001000000043
 23
30.568411999999981
 33
0.0
  0
SOLID
  5
4D454
  8
2
 10
34.85000100000002
 20
31.151745333333309
 30
0.0
 11
34.85000100000002
 21
29.985078666666649
 31
0.0
 12
38.350001000000042
 22
30.568411999999981
 32
0.0
 13
38.350001000000042
 23
30.568411999999981
 33
0.0
  0
INSERT
  5
4D455
  8
0
  2
*U25
 10
0.0
 20
0.0
 30
0.0
  0
POINT
  5
4D456
  8
DEFPOINTS
 62
     0
 10
44.450001000000043
 20
10.678971999999931
 30
0.0
  0
POINT
  5
4D457
  8
DEFPOINTS
 62
     0
 10
38.350001000000042
 20
15.87499999999997
 30
0.0
  0
POINT
  5
4D458
  8
DEFPOINTS
 62
     0
 10
38.350001000000042
 20
30.568411999999981
 30
0.0
  0
ENDBLK
  5
4D3B2
  8
0
  0
BLOCK
  8
0
  2
*D16
 70
     1
 10
0.0
 20
0.0
 30
0.0
  3
*D16
  1

  0
LINE
  5
4D54A
  8
2
 10
89.770076943597417
 20
45.350331392178823
 30
0.0
 11
46.196941322036402
 21
15.13758507674922
 31
0.0
  0
INSERT
  5
4D54B
  8
0
  2
*U26
 10
0.0
 20
0.0
 30
0.0
  0
SOLID
  5
4D54C
  8
2
 10
45.864554726966631
 20
15.616956466379129
 30
0.0
 11
46.529327917106151
 21
14.658213687119311
 31
0.0
 12
43.320712984256929
 22
13.143265506330669
 32
0.0
 13
43.320712984256929
 23
13.143265506330669
 33
0.0
  0
LINE
  5
4D54D
  8
2
 10
38.01241300000008
 20
9.5249999999999915
 30
0.0
 11
38.192413000000073
 21
9.5249999999999915
 31
0.0
  0
LINE
  5
4D54E
  8
2
 10
38.10241300000007
 20
9.4349999999999916
 30
0.0
 11
38.102413000000077
 21
9.6149999999999913
 31
0.0
  0
POINT
  5
4D54F
  8
DEFPOINTS
 62
     0
 10
43.320712984256929
 20
13.143265506330669
 30
0.0
  0
POINT
  5
4D550
  8
DEFPOINTS
 62
     0
 10
38.10241300000007
 20
9.5249999999999915
 30
0.0
  0
ENDBLK
  5
4D3F9
  8
0
  0
BLOCK
  8
0
  2
*U17
 70
     1
 10
0.0
 20
0.0
 30
0.0
  3
*U17
  1

  0
SOLID
  5
4D630
  8
0
  6
CONTINUOUS
 62
     7
 10
0.0
 20
0.9999999999999875
 30
0.0
 11
-0.309016994374945
 21
0.9510565162951419
 31
0.0
 12
0.0
 22
0.9510565162951419
 32
0.0
 13
0.0
 23
0.9510565162951419
 33
0.0
210
0.0
220
0.0
230
1.0
  0
SOLID
  5
4D631
  8
0
  6
CONTINUOUS
 62
     7
 10
-0.309016994374945
 20
0.9510565162951419
 30
0.0
 11
-0.587785252292469
 21
0.8090169943749378
 31
0.0
 12
0.0
 22
0.8090169943749378
 32
0.0
 13
0.0
 23
0.8090169943749378
 33
0.0
210
0.0
220
0.0
230
1.0
  0
SOLID
  5
4D632
  8
0
  6
CONTINUOUS
 62
     7
 10
0.309016994374945
 20
0.9510565162951419
 30
0.0
 11
0.0
 21
0.9510565162951419
 31
0.0
 12
0.0
 22
0.8090169943749378
 32
0.0
 13
0.0
 23
0.8090169943749378
 33
0.0
210
0.0
220
0.0
230
-1.0
  0
SOLID
  5
4D633
  8
0
  6
CONTINUOUS
 62
     7
 10
-0.587785252292469
 20
0.8090169943749378
 30
0.0
 11
-0.8090169943749428
 21
0.5877852522924668
 31
0.0
 12
0.0
 22
0.5877852522924668
 32
0.0
 13
0.0
 23
0.5877852522924668
 33
0.0
  0
SOLID
  5
4D634
  8
0
  6
CONTINUOUS
 62
     7
 10
0.587785252292469
 20
0.8090169943749378
 30
0.0
 11
0.0
 21
0.8090169943749378
 31
0.0
 12
0.0
 22
0.5877852522924668
 32
0.0
 13
0.0
 23
0.5877852522924668
 33
0.0
210
0.0
220
0.0
230
-1.0
  0
SOLID
  5
4D635
  8
0
  6
CONTINUOUS
 62
     7
 10
-0.8090169943749428
 20
0.5877852522924668
 30
0.0
 11
-0.9510565162951502
 21
0.3090169943749446
 31
0.0
 12
0.0
 22
0.3090169943749446
 32
0.0
 13
0.0
 23
0.3090169943749446
 33
0.0
210
0.0
220
0.0
230
1.0
  0
SOLID
  5
4D636
  8
0
  6
CONTINUOUS
 62
     7
 10
0.8090169943749428
 20
0.5877852522924668
 30
0.0
 11
0.0
 21
0.5877852522924668
 31
0.0
 12
0.0
 22
0.3090169943749446
 32
0.0
 13
0.0
 23
0.3090169943749446
 33
0.0
210
0.0
220
0.0
230
-1.0
  0
SOLID
  5
4D637
  8
0
  6
CONTINUOUS
 62
     7
 10
-0.9510565162951502
 20
0.3090169943749446
 30
0.0
 11
-1.0
 21
0.0
 31
0.0
 12
0.0
 22
0.0
 32
0.0
 13
0.0
 23
0.0
 33
0.0
210
0.0
220
0.0
230
1.0
  0
SOLID
  5
4D638
  8
0
  6
CONTINUOUS
 62
     7
 10
0.9510565162951502
 20
0.3090169943749446
 30
0.0
 11
0.0
 21
0.3090169943749446
 31
0.0
 12
0.0
 22
0.0
 32
0.0
 13
0.0
 23
0.0
 33
0.0
210
0.0
220
0.0
230
-1.0
  0
SOLID
  5
4D639
  8
0
  6
CONTINUOUS
 62
     7
 10
-1.0
 20
0.0
 30
0.0
 11
-1.0
 21
0.0
 31
0.0
 12
0.0
 22
0.0
 32
0.0
 13
0.0
 23
0.0
 33
0.0
210
0.0
220
0.0
230
1.0
  0
SOLID
  5
4D63A
  8
0
  6
CONTINUOUS
 62
     7
 10
0.0
 20
0.0
 30
0.0
 11
0.0
 21
0.0
 31
0.0
 12
1.0000000000000071
 22
0.0
 32
0.0
 13
1.0000000000000071
 23
0.0
 33
0.0
210
0.0
220
0.0
230
1.0
  0
SOLID
  5
4D63B
  8
0
  6
CONTINUOUS
 62
     7
 10
0.0
 20
0.0
 30
0.0
 11
-0.0000000000000002
 21
-0.3090169943749488
 31
0.0
 12
0.9510565162951603
 22
-0.3090169943749488
 32
0.0
 13
0.9510565162951603
 23
-0.3090169943749488
 33
0.0
210
0.0
220
0.0
230
1.0
  0
SOLID
  5
4D63C
  8
0
  6
CONTINUOUS
 62
     7
 10
0.0
 20
0.0
 30
0.0
 11
-1.0000000000000071
 21
0.0
 31
0.0
 12
-0.9510565162951603
 22
-0.3090169943749488
 32
0.0
 13
-0.9510565162951603
 23
-0.3090169943749488
 33
0.0
210
0.0
220
0.0
230
-1.0
  0
SOLID
  5
4D63D
  8
0
  6
CONTINUOUS
 62
     7
 10
-0.0000000000000002
 20
-0.3090169943749488
 30
0.0
 11
-0.0000000000000003
 21
-0.5877852522924756
 31
0.0
 12
0.8090169943749527
 22
-0.5877852522924756
 32
0.0
 13
0.8090169943749527
 23
-0.5877852522924756
 33
0.0
210
0.0
220
0.0
230
1.0
  0
SOLID
  5
4D63E
  8
0
  6
CONTINUOUS
 62
     7
 10
0.0000000000000002
 20
-0.3090169943749488
 30
0.0
 11
-0.9510565162951603
 21
-0.3090169943749488
 31
0.0
 12
-0.8090169943749527
 22
-0.5877852522924756
 32
0.0
 13
-0.8090169943749527
 23
-0.5877852522924756
 33
0.0
210
0.0
220
0.0
230
-1.0
  0
SOLID
  5
4D63F
  8
0
  6
CONTINUOUS
 62
     7
 10
-0.0000000000000003
 20
-0.5877852522924756
 30
0.0
 11
-0.0000000000000005
 21
-0.8090169943749501
 31
0.0
 12
0.5877852522924768
 22
-0.8090169943749501
 32
0.0
 13
0.5877852522924768
 23
-0.8090169943749501
 33
0.0
210
0.0
220
0.0
230
1.0
  0
SOLID
  5
4D640
  8
0
  6
CONTINUOUS
 62
     7
 10
0.0000000000000003
 20
-0.5877852522924756
 30
0.0
 11
-0.8090169943749527
 21
-0.5877852522924756
 31
0.0
 12
-0.5877852522924768
 22
-0.8090169943749501
 32
0.0
 13
-0.5877852522924768
 23
-0.8090169943749501
 33
0.0
210
0.0
220
0.0
230
-1.0
  0
SOLID
  5
4D641
  8
0
  6
CONTINUOUS
 62
     7
 10
-0.0000000000000005
 20
-0.8090169943749501
 30
0.0
 11
-0.0000000000000005
 21
-0.9510565162951555
 31
0.0
 12
0.3090169943749488
 22
-0.9510565162951555
 32
0.0
 13
0.3090169943749488
 23
-0.9510565162951555
 33
0.0
210
0.0
220
0.0
230
1.0
  0
SOLID
  5
4D642
  8
0
  6
CONTINUOUS
 62
     7
 10
0.0000000000000005
 20
-0.8090169943749501
 30
0.0
 11
-0.5877852522924768
 21
-0.8090169943749501
 31
0.0
 12
-0.3090169943749488
 22
-0.9510565162951555
 32
0.0
 13
-0.3090169943749488
 23
-0.9510565162951555
 33
0.0
210
0.0
220
0.0
230
-1.0
  0
SOLID
  5
4D643
  8
0
  6
CONTINUOUS
 62
     7
 10
0.0000000000000005
 20
-0.9510565162951555
 30
0.0
 11
-0.3090169943749488
 21
-0.9510565162951555
 31
0.0
 12
0.0000000000000006
 22
-1.0
 32
0.0
 13
0.0000000000000006
 23
-1.0
 33
0.0
210
0.0
220
0.0
230
-1.0
  0
LINE
  5
4D644
  8
0
  6
CONTINUOUS
 62
     7
 10
0.0
 20
0.9999999999999875
 30
0.0
 11
-0.309016994374945
 21
0.9510565162951419
 31
0.0
  0
LINE
  5
4D645
  8
0
  6
CONTINUOUS
 62
     7
 10
0.0
 20
0.9510565162951419
 30
0.0
 11
0.0
 21
0.9999999999999875
 31
0.0
  0
LINE
  5
4D646
  8
0
  6
CONTINUOUS
 62
     7
 10
-0.309016994374945
 20
0.9510565162951419
 30
0.0
 11
-0.587785252292469
 21
0.8090169943749378
 31
0.0
  0
LINE
  5
4D647
  8
0
  6
CONTINUOUS
 62
     7
 10
0.0
 20
0.9510565162951419
 30
0.0
 11
0.0
 21
0.8090169943749378
 31
0.0
  0
LINE
  5
4D648
  8
0
  6
CONTINUOUS
 62
     7
 10
-0.587785252292469
 20
0.8090169943749378
 30
0.0
 11
-0.8090169943749428
 21
0.5877852522924668
 31
0.0
  0
LINE
  5
4D649
  8
0
  6
CONTINUOUS
 62
     7
 10
0.0
 20
0.8090169943749378
 30
0.0
 11
0.0
 21
0.5877852522924668
 31
0.0
  0
LINE
  5
4D64A
  8
0
  6
CONTINUOUS
 62
     7
 10
-0.8090169943749428
 20
0.5877852522924668
 30
0.0
 11
-0.9510565162951502
 21
0.3090169943749446
 31
0.0
  0
LINE
  5
4D64B
  8
0
  6
CONTINUOUS
 62
     7
 10
0.0
 20
0.5877852522924668
 30
0.0
 11
0.0
 21
0.3090169943749446
 31
0.0
  0
LINE
  5
4D64C
  8
0
  6
CONTINUOUS
 62
     7
 10
-0.9510565162951502
 20
0.3090169943749446
 30
0.0
 11
-1.0
 21
0.0
 31
0.0
  0
LINE
  5
4D64D
  8
0
  6
CONTINUOUS
 62
     7
 10
0.0
 20
0.3090169943749446
 30
0.0
 11
0.0
 21
0.0
 31
0.0
  0
LINE
  5
4D64E
  8
0
  6
CONTINUOUS
 62
     7
 10
-1.0
 20
0.0
 30
0.0
 11
0.0
 21
0.0
 31
0.0
  0
LINE
  5
4D64F
  8
0
  6
CONTINUOUS
 62
     7
 10
0.0
 20
0.0
 30
0.0
 11
1.0000000000000071
 21
0.0
 31
0.0
  0
LINE
  5
4D650
  8
0
  6
CONTINUOUS
 62
     7
 10
0.0
 20
0.0
 30
0.0
 11
-0.0000000000000002
 21
-0.3090169943749488
 31
0.0
  0
LINE
  5
4D651
  8
0
  6
CONTINUOUS
 62
     7
 10
1.0000000000000071
 20
0.0
 30
0.0
 11
0.9510565162951603
 21
-0.3090169943749488
 31
0.0
  0
LINE
  5
4D652
  8
0
  6
CONTINUOUS
 62
     7
 10
-0.0000000000000002
 20
-0.3090169943749488
 30
0.0
 11
-0.0000000000000003
 21
-0.5877852522924756
 31
0.0
  0
LINE
  5
4D653
  8
0
  6
CONTINUOUS
 62
     7
 10
0.9510565162951603
 20
-0.3090169943749488
 30
0.0
 11
0.8090169943749527
 21
-0.5877852522924756
 31
0.0
  0
LINE
  5
4D654
  8
0
  6
CONTINUOUS
 62
     7
 10
-0.0000000000000003
 20
-0.5877852522924756
 30
0.0
 11
-0.0000000000000005
 21
-0.8090169943749501
 31
0.0
  0
LINE
  5
4D655
  8
0
  6
CONTINUOUS
 62
     7
 10
0.8090169943749527
 20
-0.5877852522924756
 30
0.0
 11
0.5877852522924768
 21
-0.8090169943749501
 31
0.0
  0
LINE
  5
4D656
  8
0
  6
CONTINUOUS
 62
     7
 10
-0.0000000000000005
 20
-0.8090169943749501
 30
0.0
 11
-0.0000000000000005
 21
-0.9510565162951555
 31
0.0
  0
LINE
  5
4D657
  8
0
  6
CONTINUOUS
 62
     7
 10
0.5877852522924768
 20
-0.8090169943749501
 30
0.0
 11
0.3090169943749488
 21
-0.9510565162951555
 31
0.0
  0
LINE
  5
4D658
  8
0
  6
CONTINUOUS
 62
     7
 10
0.3090169943749488
 20
-0.9510565162951555
 30
0.0
 11
-0.0000000000000006
 21
-1.0
 31
0.0
  0
LINE
  5
4D659
  8
0
  6
CONTINUOUS
 62
     7
 10
-0.0000000000000006
 20
-1.0
 30
0.0
 11
-0.0000000000000005
 21
-0.9510565162951555
 31
0.0
  0
ENDBLK
  5
4D65B
  8
0
  0
BLOCK
  8
0
  2
*U18
 70
     1
 10
0.0
 20
0.0
 30
0.0
  3
*U18
  1

  0
TEXT
  5
4D65D
  8
2
 10
56.791673254603587
 20
-8.2883057791620285
 30
0.0
 40
3.5
  1
\U+220520
 50
90.0
  7
SIMPLEX
  0
ENDBLK
  5
4D65F
  8
0
  0
BLOCK
  8
0
  2
*U19
 70
     1
 10
0.0
 20
0.0
 30
0.0
  3
*U19
  1

  0
TEXT
  5
4D661
  8
2
 10
-96.02577893245531
 20
-8.5238601053346734
 30
0.0
 40
3.5
  1
10
 50
310.00000000000199
  7
SIMPLEX
  0
ENDBLK
  5
4D663
  8
0
  0
BLOCK
  8
0
  2
*U20
 70
     1
 10
0.0
 20
0.0
 30
0.0
  3
*U20
  1

  0
TEXT
  5
4D665
  8
SK2
 10
1.2733431517975351
 20
59.61593868668281
 30
0.0
 40
3.5
  1
46
  7
SIMPLEX
  0
ENDBLK
  5
4D667
  8
0
  0
BLOCK
  8
0
  2
*U21
 70
     1
 10
0.0
 20
0.0
 30
0.0
  3
*U21
  1

  0
TEXT
  5
4D6B3
  8
2
 10
-7.3499989999999746
 20
-32.29038876870284
 30
0.0
 40
3.5
  1
4 [.157"](MAX)
  7
SIMPLEX
  0
ENDBLK
  5
4D6B5
  8
0
  0
BLOCK
  8
0
  2
*U22
 70
     1
 10
0.0
 20
0.0
 30
0.0
  3
*U22
  1

  0
TEXT
  5
4D6B7
  8
SK2
 10
-102.627861
 20
-21.875001000000012
 30
0.0
 40
3.5
  1
\U+220531.75 [\U+22051.250"]
 50
90.0
  7
SIMPLEX
  0
ENDBLK
  5
4D6B9
  8
0
  0
BLOCK
  8
0
  2
*U23
 70
     1
 10
0.0
 20
0.0
 30
0.0
  3
*U23
  1

  0
TEXT
  5
4D6BB
  8
SK2
 10
-35.09167766668785
 20
67.290267095920271
 30
0.0
 40
3.5
  1
127 [5.000"]
  7
SIMPLEX
  0
ENDBLK
  5
4D6BD
  8
0
  0
BLOCK
  8
0
  2
*U24
 70
     1
 10
0.0
 20
0.0
 30
0.0
  3
*U24
  1

  0
TEXT
  5
4D6BF
  8
2
 10
3.266666666666687
 20
56.270022999999981
 30
0.0
 40
3.5
  1
44.45 [1.750"]
  7
SIMPLEX
  0
ENDBLK
  5
4D6C1
  8
0
  0
BLOCK
  8
0
  2
*U25
 70
     1
 10
0.0
 20
0.0
 30
0.0
  3
*U25
  1

  0
TEXT
  5
4D6C3
  8
2
 10
-13.53333233333333
 20
32.868411999999978
 30
0.0
 40
3.5
  1
6.1 [.240"](MAX)
  7
SIMPLEX
  0
ENDBLK
  5
4D6C5
  8
0
  0
BLOCK
  8
0
  2
*U26
 70
     1
 10
0.0
 20
0.0
 30
0.0
  3
*U26
  1

  0
TEXT
  5
4D6C7
  8
2
 10
50.616576953109771
 20
21.000876809069911
 30
0.0
 40
3.5
  1
(R6.35 [R.250"])
 50
34.7366701742719
  7
SIMPLEX
  0
ENDBLK
  5
4D6C9
  8
0
  0
BLOCK
  8
0
  2
*U27
 70
     1
 10
0.0
 20
0.0
 30
0.0
  3
*U27
  1

  0
TEXT
  5
4D6CB
  8
2
 10
-7.9709301210041694
 20
44.246855264307563
 30
0.0
 40
3.5
  1
15 [.591"]
  7
SIMPLEX
  0
ENDBLK
  5
4D6CD
  8
0
  0
ENDSEC
  0
SECTION
  2
ENTITIES
  0
INSERT
  5
68C
  8
0
  2
ZERO_BLOCK
 10
0.0
 20
0.0
 30
0.0
  0
LINE
  5
4D2EC
  8
1
 10
0.4999999998201174
 20
-15.374999998911671
 30
0.0
 11
0.4999999998201174
 21
15.37499999891166
 31
0.0
  0
LINE
  5
4D2EE
  8
1
 10
42.964099999999974
 20
-8.4841736095506413
 30
0.0
 11
39.950001000000043
 21
-6.6442200000000167
 31
0.0
  0
LINE
  5
4D2F5
  8
1
 10
0.0
 20
-15.875000000000011
 30
0.0
 11
0.0
 21
15.87499899999999
 31
0.0
  0
LINE
  5
4D2F6
  8
SK1
 10
-81.349998999999954
 20
15.874999000000001
 30
0.0
 11
0.0
 21
15.87499899999999
 31
0.0
  0
LINE
  5
4D2F7
  8
SK1
 10
-81.349998999999954
 20
-15.875
 30
0.0
 11
0.0
 21
-15.875000000000011
 31
0.0
  0
LINE
  5
4D2F8
  8
SK1
 10
-81.350062999999977
 20
0.0000160000000022
 30
0.0
 11
-81.350049999999953
 21
-15.874984
 31
0.0
  0
LINE
  5
4D2F9
  8
SK1
 10
-82.550010999999984
 20
14.67501099999998
 30
0.0
 11
-82.549986999999987
 21
-14.675010999999991
 31
0.0
  0
LINE
  5
4D2FA
  8
SK1
 10
-81.350059999999985
 20
15.875009
 30
0.0
 11
-81.350047999999944
 21
0.0000399999999985
 31
0.0
  0
LINE
  5
4D2FB
  8
SK1
 10
-19.05001499999997
 20
-8.3766860000000065
 30
0.0
 11
-37.31002399999997
 21
-8.3767010000000113
 31
0.0
  0
LINE
  5
4D2FC
  8
SK1
 10
-81.350269999999966
 20
-8.3766669999999976
 30
0.0
 11
-82.550354999999954
 21
-8.026961
 31
0.0
  0
LINE
  5
4D2FD
  8
SK1
 10
-69.850062999999977
 20
0.0000260000000054
 30
0.0
 11
-69.850055999999995
 21
-8.3767129999999952
 31
0.0
  0
LINE
  5
4D2FE
  8
SK1
 10
-60.120066999999949
 20
0.000072000000003
 30
0.0
 11
-60.120059999999953
 21
-8.3766669999999976
 31
0.0
  0
LINE
  5
4D2FF
  8
SK1
 10
-47.039988999999991
 20
0.0000679999999846
 30
0.0
 11
-47.039981999999952
 21
-8.3766570000000087
 31
0.0
  0
LINE
  5
4D300
  8
SK1
 10
-37.310031999999978
 20
0.0000529999999941
 30
0.0
 11
-37.31002399999997
 21
-8.3766860000000065
 31
0.0
  0
LINE
  5
4D301
  8
SK1
 10
-19.050021999999949
 20
0.0000689999999821
 30
0.0
 11
-19.05001499999997
 21
-8.3766700000000043
 31
0.0
  0
LINE
  5
4D302
  8
SK1
 10
-47.040004999999937
 20
-8.3767090000000195
 30
0.0
 11
-60.120082999999973
 21
-8.3767199999999917
 31
0.0
  0
LINE
  5
4D303
  8
SK1
 10
-69.850055999999995
 20
-8.3767289999999974
 30
0.0
 11
-81.350055999999938
 21
-8.3767380000000031
 31
0.0
  0
LINE
  5
4D304
  8
SK1
 10
-37.310015
 20
8.3767999999999851
 30
0.0
 11
-19.050004999999999
 21
8.3768149999999792
 31
0.0
  0
LINE
  5
4D305
  8
SK1
 10
-82.550317999999947
 20
8.0269310000000011
 30
0.0
 11
-81.350232999999932
 21
8.3766389999999973
 31
0.0
  0
LINE
  5
4D306
  8
SK1
 10
-69.850053999999943
 20
8.3767579999999953
 30
0.0
 11
-69.850047999999958
 21
0.0000490000000042
 31
0.0
  0
LINE
  5
4D307
  8
SK1
 10
-60.11981499999996
 20
8.3767939999999861
 30
0.0
 11
-60.119807999999978
 21
0.000070000000008
 31
0.0
  0
LINE
  5
4D308
  8
SK1
 10
-47.039980999999948
 20
8.3768049999999903
 30
0.0
 11
-47.039973999999972
 21
0.000095999999985
 31
0.0
  0
LINE
  5
4D309
  8
SK1
 10
-37.310015
 20
8.3767849999999822
 30
0.0
 11
-37.310007999999989
 21
0.0000749999999954
 31
0.0
  0
LINE
  5
4D30A
  8
SK1
 10
-19.050004999999999
 20
8.3767989999999912
 30
0.0
 11
-19.049998999999961
 21
0.0000899999999859
 31
0.0
  0
LINE
  5
4D30B
  8
SK1
 10
-60.119829999999979
 20
8.3767819999999915
 30
0.0
 11
-47.039995999999967
 21
8.3767919999999805
 31
0.0
  0
LINE
  5
4D30C
  8
SK1
 10
-81.350053999999943
 20
8.3767639999999943
 30
0.0
 11
-69.850053999999943
 21
8.3767739999999815
 31
0.0
  0
LINE
  5
4D30D
  8
SK1
 10
-77.550010999999984
 20
15.875026999999999
 30
0.0
 11
-77.550004999999999
 21
8.3767679999999984
 31
0.0
  0
LINE
  5
4D30E
  8
SK1
 10
-77.550006999999994
 20
-8.3767199999999917
 30
0.0
 11
-77.550000999999952
 21
-15.874980999999989
 31
0.0
  0
LINE
  5
4D30F
  8
SK1
 10
-82.550001999999964
 20
-14.674999
 30
0.0
 11
-81.349998999999954
 21
-15.87500099999999
 31
0.0
  0
LINE
  5
4D310
  8
SK1
 10
-82.550010999999984
 20
14.67501099999998
 30
0.0
 11
-81.349998999999954
 21
15.874995999999991
 31
0.0
  0
CIRCLE
  5
4D312
  8
2
 10
40.450001000000029
 20
3.4600419999999859
 30
0.0
 40
0.8
  0
CIRCLE
  5
4D313
  8
2
 10
44.450001000000043
 20
9.4499999999999886
 30
0.0
 40
0.8
  0
CIRCLE
  5
4D314
  8
2
 10
38.350001000000042
 20
15.87499999999997
 30
0.0
 40
0.8
  0
CIRCLE
  5
4D315
  8
2
 10
29.449999999305241
 20
12.555349998900001
 30
0.0
 40
0.8
  0
ARC
  5
4D316
  8
SK1
 10
-83.334479999999985
 20
0.0000090000000057
 30
0.0
 40
15.874641
 50
328.15112000000011
 51
31.848808000001078
  0
ARC
  5
4D317
  8
SK1
 10
-46.634277999999917
 20
-0.0000060000000133
 30
0.0
 40
15.875538000000001
 50
148.1531160000016
 51
211.84681200000051
  0
ARC
  5
4D318
  8
SK1
 10
-32.534667999999947
 20
0.0000089999999915
 30
0.0
 40
15.874641
 50
328.15112000000011
 51
31.848808000001078
  0
ARC
  5
4D319
  8
SK1
 10
-60.524657999999988
 20
0.0000239999999962
 30
0.0
 40
15.874641
 50
328.15112000000011
 51
31.848808000001078
  0
ARC
  5
4D31A
  8
SK1
 10
-23.82446299999998
 20
-0.000021000000018
 30
0.0
 40
15.875538000000001
 50
148.1531160000016
 51
211.84681200000051
  0
POLYLINE
  5
4D32C
  8
1
 66
     1
 10
0.0
 20
0.0
 30
0.0
  0
VERTEX
  5
4D668
  8
1
 10
4.042473585417091
 20
15.02997286088584
 30
0.0
  0
VERTEX
  5
4D669
  8
1
 10
4.5144000000000233
 20
14.37851399999998
 30
0.0
  0
VERTEX
  5
4D66A
  8
1
 10
4.7076510000000518
 20
14.10651399999999
 30
0.0
  0
VERTEX
  5
4D66B
  8
1
 10
4.8981310000000331
 20
13.832223999999981
 30
0.0
  0
VERTEX
  5
4D66C
  8
1
 10
5.0852650000000459
 20
13.55555099999998
 30
0.0
  0
VERTEX
  5
4D66D
  8
1
 10
5.2684800000000651
 20
13.276402999999981
 30
0.0
  0
VERTEX
  5
4D66E
  8
1
 10
5.447204000000057
 20
12.994686999999979
 30
0.0
  0
VERTEX
  5
4D66F
  8
1
 10
5.6208630000000399
 20
12.710309999999989
 30
0.0
  0
VERTEX
  5
4D670
  8
1
 10
5.788883999999995
 20
12.42317899999999
 30
0.0
  0
VERTEX
  5
4D671
  8
1
 10
5.9506930000000011
 20
12.133201999999979
 30
0.0
  0
VERTEX
  5
4D672
  8
1
 10
6.105717000000026
 20
11.840283999999979
 30
0.0
  0
SEQEND
  5
4D673
  8
1
  0
POLYLINE
  5
4D32D
  8
1
 66
     1
 10
0.0
 20
0.0
 30
0.0
  0
VERTEX
  5
4D674
  8
1
 10
6.105717000000026
 20
11.840283999999979
 30
0.0
  0
VERTEX
  5
4D675
  8
1
 10
6.3651720000000269
 20
11.30981699999999
 30
0.0
  0
VERTEX
  5
4D676
  8
1
 10
6.6053670000000571
 20
10.77107499999998
 30
0.0
  0
VERTEX
  5
4D677
  8
1
 10
6.8305160000000447
 20
10.225455999999991
 30
0.0
  0
VERTEX
  5
4D678
  8
1
 10
7.044831000000042
 20
9.6743599999999912
 30
0.0
  0
VERTEX
  5
4D679
  8
1
 10
7.2525270000000432
 20
9.1191849999999874
 30
0.0
  0
VERTEX
  5
4D67A
  8
1
 10
7.457816000000034
 20
8.5613299999999821
 30
0.0
  0
VERTEX
  5
4D67B
  8
1
 10
7.6649110000000169
 20
8.0021949999999862
 30
0.0
  0
VERTEX
  5
4D67C
  8
1
 10
7.8780270000000314
 20
7.4431779999999872
 30
0.0
  0
VERTEX
  5
4D67D
  8
1
 10
8.1013760000000161
 20
6.8856769999999861
 30
0.0
  0
VERTEX
  5
4D67E
  8
1
 10
8.3391720000000191
 20
6.3310929999999948
 30
0.0
  0
SEQEND
  5
4D67F
  8
1
  0
POLYLINE
  5
4D32E
  8
1
 66
     1
 10
0.0
 20
0.0
 30
0.0
  0
VERTEX
  5
4D680
  8
1
 10
8.3391720000000191
 20
6.3310929999999948
 30
0.0
  0
VERTEX
  5
4D681
  8
1
 10
8.6011230000000278
 20
5.76507699999999
 30
0.0
  0
VERTEX
  5
4D682
  8
1
 10
8.8755240000000413
 20
5.2023899999999941
 30
0.0
  0
VERTEX
  5
4D683
  8
1
 10
9.1551110000000335
 20
4.6417999999999884
 30
0.0
  0
VERTEX
  5
4D684
  8
1
 10
9.4326160000000527
 20
4.0820759999999856
 30
0.0
  0
VERTEX
  5
4D685
  8
1
 10
9.7007750000000197
 20
3.5219889999999898
 30
0.0
  0
VERTEX
  5
4D686
  8
1
 10
9.9523220000000361
 20
2.9603059999999881
 30
0.0
  0
VERTEX
  5
4D687
  8
1
 10
10.17999200000002
 20
2.3957969999999871
 30
0.0
  0
VERTEX
  5
4D688
  8
1
 10
10.37651700000003
 20
1.827230999999983
 30
0.0
  0
VERTEX
  5
4D689
  8
1
 10
10.53463400000004
 20
1.2533769999999851
 30
0.0
  0
VERTEX
  5
4D68A
  8
1
 10
10.647075000000029
 20
0.6730049999999892
 30
0.0
  0
SEQEND
  5
4D68B
  8
1
  0
POLYLINE
  5
4D32F
  8
1
 66
     1
 10
0.0
 20
0.0
 30
0.0
  0
VERTEX
  5
4D68C
  8
1
 10
10.647075000000029
 20
0.6730049999999892
 30
0.0
  0
VERTEX
  5
4D68D
  8
1
 10
10.71799900000002
 20
-0.0823610000000059
 30
0.0
  0
VERTEX
  5
4D68E
  8
1
 10
10.717641000000009
 20
-0.8486000000000045
 30
0.0
  0
VERTEX
  5
4D68F
  8
1
 10
10.66185800000005
 20
-1.6238300000000101
 30
0.0
  0
VERTEX
  5
4D690
  8
1
 10
10.566507
 20
-2.406170000000003
 30
0.0
  0
VERTEX
  5
4D691
  8
1
 10
10.44744600000001
 20
-3.1937350000000171
 30
0.0
  0
VERTEX
  5
4D692
  8
1
 10
10.32053100000001
 20
-3.9846460000000121
 30
0.0
  0
VERTEX
  5
4D693
  8
1
 10
10.20162100000004
 20
-4.777019000000009
 30
0.0
  0
VERTEX
  5
4D694
  8
1
 10
10.10657200000003
 20
-5.5689720000000156
 30
0.0
  0
VERTEX
  5
4D695
  8
1
 10
10.051240999999999
 20
-6.3586220000000111
 30
0.0
  0
VERTEX
  5
4D696
  8
1
 10
10.05148700000001
 20
-7.1440890000000081
 30
0.0
  0
SEQEND
  5
4D697
  8
1
  0
POLYLINE
  5
4D330
  8
1
 66
     1
 10
0.0
 20
0.0
 30
0.0
  0
VERTEX
  5
4D698
  8
1
 10
10.05148700000001
 20
-7.1440890000000081
 30
0.0
  0
VERTEX
  5
4D699
  8
1
 10
10.113639000000029
 20
-7.8787760000000171
 30
0.0
  0
VERTEX
  5
4D69A
  8
1
 10
10.23349100000001
 20
-8.6070800000000087
 30
0.0
  0
VERTEX
  5
4D69B
  8
1
 10
10.405318000000021
 20
-9.3280010000000111
 30
0.0
  0
VERTEX
  5
4D69C
  8
1
 10
10.62339900000006
 20
-10.040542000000009
 30
0.0
  0
VERTEX
  5
4D69D
  8
1
 10
10.882011000000031
 20
-10.74370400000001
 30
0.0
  0
VERTEX
  5
4D69E
  8
1
 10
11.175431
 20
-11.436489999999999
 30
0.0
  0
VERTEX
  5
4D69F
  8
1
 10
11.49793600000004
 20
-12.117902000000001
 30
0.0
  0
VERTEX
  5
4D6A0
  8
1
 10
11.843804000000031
 20
-12.786941000000001
 30
0.0
  0
VERTEX
  5
4D6A1
  8
1
 10
12.207312
 20
-13.442610000000011
 30
0.0
  0
VERTEX
  5
4D6A2
  8
1
 10
12.646020753455209
 20
-14.192011141615041
 30
0.0
  0
SEQEND
  5
4D6A3
  8
1
  0
DIMENSION
  5
4D332
  8
2
  2
*D8
 10
40.450001000000029
 20
-34.590388768702837
 30
0.0
 11
11.90000100000003
 21
-34.590388768702837
 31
0.0
 70
   128
  1
<>(MAX)
 13
44.450001000000043
 23
9.8413709999999952
 33
0.0
 14
40.450001000000029
 24
3.4600419999999859
 34
0.0
 50
180.0
1001
ACAD
1000
DSTYLE
1002
{
1070
     4
1000
"
1070
    40
1040
1.0
1070
   143
1040
0.03937
1070
   170
1070
     1
1070
   171
1070
     3
1070
   271
1070
     8
1070
   285
1070
     4
1002
}
  0
DIMENSION
  5
4D333
  8
2
  2
*D9
 10
44.44999999930522
 20
41.946855264307551
 30
0.0
 11
4.8624032123291618
 21
41.946855264307551
 31
0.0
 70
   128
 13
29.449999999305241
 23
12.555349998900001
 33
0.0
 14
44.44999999930522
 24
30.64348299889997
 34
0.0
1001
ACAD
1000
DSTYLE
1002
{
1070
     4
1000
"
1070
    40
1040
1.0
1070
   143
1040
0.03937
1070
   170
1070
     1
1070
   171
1070
     3
1070
   271
1070
     8
1070
   285
1070
     4
1002
}
  0
DIMENSION
  5
4D334
  8
2
  2
*D10
 10
76.591399295788051
 20
-15.87500000000002
 30
0.0
 11
76.591399295788051
 21
-11.07506350727726
 31
0.0
 70
   128
  1
%%C<>
 13
38.100001000000027
 23
15.87499999999997
 33
0.0
 14
38.100001000000027
 24
-15.875000000000011
 34
0.0
 50
270.0
1001
ACAD
1000
DSTYLE
1002
{
1070
    76
1070
     1
1070
     7
1000
NONE
1070
   173
1070
     1
1070
     6
1000

1070
     4
1000
%%C[]"
1070
    40
1040
1.0
1070
   143
1040
0.03937
1070
   170
1070
     1
1070
   171
1070
     3
1070
   271
1070
     8
1070
   285
1070
     4
1002
}
  0
DIMENSION
  5
4D335
  8
2
  2
*D11
 10
61.700052000000021
 20
-9.4500000000000206
 30
0.0
 11
61.700052000000021
 21
-1.750000000000008
 31
0.0
 70
   128
  1
(%%C<>)
 13
44.450001000000043
 23
9.4499999999999886
 33
0.0
 14
44.450001000000043
 24
-9.4500000000000153
 34
0.0
 50
270.0
1001
ACAD
1000
DSTYLE
1002
{
1070
    76
1070
     1
1070
     7
1000
NONE
1070
   173
1070
     1
1070
     6
1000

1070
     4
1000
%%C[]"
1070
    40
1040
1.0
1070
   143
1040
0.03937
1070
   170
1070
     1
1070
   171
1070
     3
1070
   271
1070
     8
1070
   285
1070
     4
1002
}
  0
DIMENSION
  5
4D336
  8
SK2
  2
*D12
 10
-100.327861
 20
15.87499900000001
 30
0.0
 11
-100.327861
 21
-0.0000010000000073
 31
0.0
 70
   128
  1
%%C<>
 13
-81.349998999999954
 23
-15.87500099999999
 33
0.0
 14
-81.349998999999954
 24
15.874999000000001
 34
0.0
 50
90.0
1001
ACAD
1000
DSTYLE
1002
{
1070
     4
1000
%%C[]"
1070
    40
1040
1.0
1070
   143
1040
0.03937
1070
   170
1070
     1
1070
   171
1070
     3
1070
   271
1070
     8
1070
   285
1070
     4
1002
}
  0
DIMENSION
  5
4D337
  8
SK2
  2
*D13
 10
44.44998899995754
 20
64.990267095920274
 30
0.0
 11
-19.050011000021179
 21
64.990267095920274
 31
0.0
 70
   128
 13
-82.550010999999984
 23
14.67501099999998
 33
0.0
 14
44.44998899995754
 24
9.2926159475596677
 34
0.0
1001
ACAD
1000
DSTYLE
1002
{
1070
     4
1000
"
1070
    40
1040
1.0
1070
   143
1040
0.03937
1070
   170
1070
     1
1070
   171
1070
     3
1070
   271
1070
     8
1070
   285
1070
     4
1002
}
  0
DIMENSION
  5
4D338
  8
2
  2
*D14
 10
44.450000000000017
 20
53.970022999999962
 30
0.0
 11
22.225000000000019
 21
53.970022999999962
 31
0.0
 70
   128
 13
0.0
 23
15.87499899999999
 33
0.0
 14
44.450000000000017
 24
9.3872642552640144
 34
0.0
1001
ACAD
1000
DSTYLE
1002
{
1070
     4
1000
"
1070
    40
1040
1.0
1070
   143
1040
0.03937
1070
   170
1070
     1
1070
   171
1070
     3
1070
   271
1070
     8
1070
   285
1070
     4
1002
}
  0
LINE
  5
4D339
  8
SK4
 10
-89.042034601068977
 20
0.0
 30
0.0
 11
0.0
 21
0.0
 31
0.0
  0
LINE
  5
4D33A
  8
4
 10
0.0
 20
0.0
 30
0.0
 11
48.21815199999952
 21
-0.0000000000000142
 31
0.0
  0
TEXT
  5
4D33C
  8
SK6
 10
-52.330181107021858
 20
80.017178564364144
 30
0.0
 40
5.0
  1
BRP6UPR202W20
  7
SIMPLEX
  0
DIMENSION
  5
4D33D
  8
2
  2
*D16
 10
38.10241300000007
 20
9.5249999999999915
 30
0.0
 11
69.903556924792156
 21
31.57528121650218
 31
0.0
 70
   132
  1
(<>)
 15
43.320712984256929
 25
13.143265506330669
 35
0.0
 40
0.0
1001
ACAD
1000
DSTYLE
1002
{
1070
     4
1000
"
1070
    40
1040
1.0
1070
   143
1040
0.03937
1070
   170
1070
     1
1070
   171
1070
     3
1070
   271
1070
     8
1070
   285
1070
     4
1002
}
  0
DIMENSION
  5
4D340
  8
2
  2
*D15
 10
38.350001000000042
 20
30.568411999999981
 30
0.0
 11
7.7583343333333428
 21
34.618411999999978
 31
0.0
 70
     0
  1
<>(MAX)
 13
44.450001000000043
 23
10.678971999999931
 33
0.0
 14
38.350001000000042
 24
15.87499999999997
 34
0.0
 50
180.0
1001
ACAD
1000
DSTYLE
1002
{
1070
     4
1000
"
1070
    40
1040
1.0
1070
   143
1040
0.03937
1070
   170
1070
     1
1070
   171
1070
     3
1070
   271
1070
     8
1070
   285
1070
     4
1002
}
  0
LINE
  5
4D341
  8
SK1
 10
-19.050015000019471
 20
-8.3766466780733122
 30
0.0
 11
-37.31011673511091
 21
8.3767236019400997
 31
0.0
  0
LINE
  5
4D342
  8
SK1
 10
-37.31002399999997
 20
-8.3766860000000065
 30
0.0
 11
-19.050004999999999
 21
8.3768149999999792
 31
0.0
  0
LINE
  5
4D343
  8
SK1
 10
-47.040058042030353
 20
-8.3767170639464723
 30
0.0
 11
-60.11981499999996
 21
8.3767939999999861
 31
0.0
  0
LINE
  5
4D344
  8
SK1
 10
-60.11994226162777
 20
-8.3767336553615301
 30
0.0
 11
-47.039980999862919
 21
8.3766410427480178
 31
0.0
  0
LINE
  5
4D345
  8
SK1
 10
-69.84988004203035
 20
-8.3767320639464469
 30
0.0
 11
-81.350053999999943
 21
8.3767639999999943
 31
0.0
  0
LINE
  5
4D346
  8
SK1
 10
-81.350269999999966
 20
-8.3766669999999976
 30
0.0
 11
-69.850053999999943
 21
8.3767579999999953
 31
0.0
  0
LINE
  5
4D4E3
  8
1
 10
35.041351999999932
 20
3.4270949999999778
 30
0.0
 11
36.654764999999941
 21
3.342215999999977
 31
0.0
  0
LINE
  5
4D4E4
  8
1
 10
31.960163999999541
 20
6.7154019999999823
 30
0.0
 11
32.023715999999943
 21
7.688715999999987
 31
0.0
  0
LINE
  5
4D4E5
  8
1
 10
32.314105000000033
 20
12.136128999999981
 30
0.0
 11
32.341477922123381
 21
12.55534999889997
 31
0.0
  0
LINE
  5
4D4E9
  8
1
 10
39.950001000000043
 20
-6.6442200000000167
 30
0.0
 11
39.950001000000043
 21
3.4497289999999898
 31
0.0
  0
LINE
  5
4D50F
  8
1
 10
38.124164000000022
 20
1.8352579999999801
 30
0.0
 11
39.950001000000043
 21
1.8352579999999801
 31
0.0
  0
POLYLINE
  5
4D515
  8
1
 10
38.124164000000022
 20
6.365257499999986
 30
0.0
 66
     1
 70
     8
  0
VERTEX
  8
1
  5
4D6D0
 10
38.1242
 20
6.36526
 30
0.000000
  70
    32
  0
VERTEX
  8
1
  5
4D6D1
 10
38.2708
 20
6.36887
 30
0.000000
  70
    32
  0
VERTEX
  8
1
  5
4D6D2
 10
38.4171
 20
6.37970
 30
0.000000
  70
    32
  0
VERTEX
  8
1
  5
4D6D3
 10
38.5627
 20
6.39773
 30
0.000000
  70
    32
  0
VERTEX
  8
1
  5
4D6D4
 10
38.7072
 20
6.42290
 30
0.000000
  70
    32
  0
VERTEX
  8
1
  5
4D6D5
 10
38.8503
 20
6.45516
 30
0.000000
  70
    32
  0
VERTEX
  8
1
  5
4D6D6
 10
38.9917
 20
6.49444
 30
0.000000
  70
    32
  0
VERTEX
  8
1
  5
4D6D7
 10
39.1310
 20
6.54063
 30
0.000000
  70
    32
  0
VERTEX
  8
1
  5
4D6D8
 10
39.2678
 20
6.59362
 30
0.000000
  70
    32
  0
VERTEX
  8
1
  5
4D6D9
 10
39.4019
 20
6.65329
 30
0.000000
  70
    32
  0
VERTEX
  8
1
  5
4D6DA
 10
39.5330
 20
6.71949
 30
0.000000
  70
    32
  0
VERTEX
  8
1
  5
4D6DB
 10
39.6606
 20
6.79207
 30
0.000000
  70
    32
  0
VERTEX
  8
1
  5
4D6DC
 10
39.7845
 20
6.87085
 30
0.000000
  70
    32
  0
VERTEX
  8
1
  5
4D6DD
 10
39.9045
 20
6.95564
 30
0.000000
  70
    32
  0
VERTEX
  8
1
  5
4D6DE
 10
40.0201
 20
7.04623
 30
0.000000
  70
    32
  0
VERTEX
  8
1
  5
4D6DF
 10
40.1312
 20
7.14240
 30
0.000000
  70
    32
  0
VERTEX
  8
1
  5
4D6E0
 10
40.2374
 20
7.24394
 30
0.000000
  70
    32
  0
VERTEX
  8
1
  5
4D6E1
 10
40.3386
 20
7.35058
 30
0.000000
  70
    32
  0
VERTEX
  8
1
  5
4D6E2
 10
40.4344
 20
7.46208
 30
0.000000
  70
    32
  0
VERTEX
  8
1
  5
4D6E3
 10
40.5246
 20
7.57816
 30
0.000000
  70
    32
  0
VERTEX
  8
1
  5
4D6E4
 10
40.6091
 20
7.69855
 30
0.000000
  70
    32
  0
VERTEX
  8
1
  5
4D6E5
 10
40.6876
 20
7.82295
 30
0.000000
  70
    32
  0
VERTEX
  8
1
  5
4D6E6
 10
40.7599
 20
7.95107
 30
0.000000
  70
    32
  0
VERTEX
  8
1
  5
4D6E7
 10
40.8258
 20
8.08259
 30
0.000000
  70
    32
  0
VERTEX
  8
1
  5
4D6E8
 10
40.8853
 20
8.21721
 30
0.000000
  70
    32
  0
VERTEX
  8
1
  5
4D6E9
 10
40.9380
 20
8.35459
 30
0.000000
  70
    32
  0
VERTEX
  8
1
  5
4D6EA
 10
40.9841
 20
8.49440
 30
0.000000
  70
    32
  0
VERTEX
  8
1
  5
4D6EB
 10
41.0232
 20
8.63632
 30
0.000000
  70
    32
  0
VERTEX
  8
1
  5
4D6EC
 10
41.0553
 20
8.77999
 30
0.000000
  70
    32
  0
VERTEX
  8
1
  5
4D6ED
 10
41.0804
 20
8.92507
 30
0.000000
  70
    32
  0
VERTEX
  8
1
  5
4D6EE
 10
41.0984
 20
9.07121
 30
0.000000
  70
    32
  0
VERTEX
  8
1
  5
4D6EF
 10
41.1091
 20
9.21805
 30
0.000000
  70
    32
  0
VERTEX
  8
1
  5
4D6F0
 10
41.1127
 20
9.36526
 30
0.000000
  70
    32
  0
VERTEX
  8
1
  5
4D6F1
 10
41.1091
 20
9.51246
 30
0.000000
  70
    32
  0
VERTEX
  8
1
  5
4D6F2
 10
41.0984
 20
9.65931
 30
0.000000
  70
    32
  0
VERTEX
  8
1
  5
4D6F3
 10
41.0804
 20
9.80545
 30
0.000000
  70
    32
  0
VERTEX
  8
1
  5
4D6F4
 10
41.0553
 20
9.95053
 30
0.000000
  70
    32
  0
VERTEX
  8
1
  5
4D6F5
 10
41.0232
 20
10.0942
 30
0.000000
  70
    32
  0
VERTEX
  8
1
  5
4D6F6
 10
40.9841
 20
10.2361
 30
0.000000
  70
    32
  0
VERTEX
  8
1
  5
4D6F7
 10
40.9380
 20
10.3759
 30
0.000000
  70
    32
  0
VERTEX
  8
1
  5
4D6F8
 10
40.8853
 20
10.5133
 30
0.000000
  70
    32
  0
VERTEX
  8
1
  5
4D6F9
 10
40.8258
 20
10.6479
 30
0.000000
  70
    32
  0
VERTEX
  8
1
  5
4D6FA
 10
40.7599
 20
10.7794
 30
0.000000
  70
    32
  0
VERTEX
  8
1
  5
4D6FB
 10
40.6876
 20
10.9076
 30
0.000000
  70
    32
  0
VERTEX
  8
1
  5
4D6FC
 10
40.6091
 20
11.0320
 30
0.000000
  70
    32
  0
VERTEX
  8
1
  5
4D6FD
 10
40.5246
 20
11.1524
 30
0.000000
  70
    32
  0
VERTEX
  8
1
  5
4D6FE
 10
40.4344
 20
11.2684
 30
0.000000
  70
    32
  0
VERTEX
  8
1
  5
4D6FF
 10
40.3386
 20
11.3799
 30
0.000000
  70
    32
  0
VERTEX
  8
1
  5
4D700
 10
40.2374
 20
11.4866
 30
0.000000
  70
    32
  0
VERTEX
  8
1
  5
4D701
 10
40.1312
 20
11.5881
 30
0.000000
  70
    32
  0
VERTEX
  8
1
  5
4D702
 10
40.0201
 20
11.6843
 30
0.000000
  70
    32
  0
VERTEX
  8
1
  5
4D703
 10
39.9045
 20
11.7749
 30
0.000000
  70
    32
  0
VERTEX
  8
1
  5
4D704
 10
39.7845
 20
11.8597
 30
0.000000
  70
    32
  0
VERTEX
  8
1
  5
4D705
 10
39.6606
 20
11.9384
 30
0.000000
  70
    32
  0
VERTEX
  8
1
  5
4D706
 10
39.5330
 20
12.0110
 30
0.000000
  70
    32
  0
VERTEX
  8
1
  5
4D707
 10
39.4019
 20
12.0772
 30
0.000000
  70
    32
  0
VERTEX
  8
1
  5
4D708
 10
39.2678
 20
12.1369
 30
0.000000
  70
    32
  0
VERTEX
  8
1
  5
4D709
 10
39.1310
 20
12.1899
 30
0.000000
  70
    32
  0
VERTEX
  8
1
  5
4D70A
 10
38.9917
 20
12.2361
 30
0.000000
  70
    32
  0
VERTEX
  8
1
  5
4D70B
 10
38.8503
 20
12.2754
 30
0.000000
  70
    32
  0
VERTEX
  8
1
  5
4D70C
 10
38.7072
 20
12.3076
 30
0.000000
  70
    32
  0
VERTEX
  8
1
  5
4D70D
 10
38.5627
 20
12.3328
 30
0.000000
  70
    32
  0
VERTEX
  8
1
  5
4D70E
 10
38.4171
 20
12.3508
 30
0.000000
  70
    32
  0
VERTEX
  8
1
  5
4D70F
 10
38.2708
 20
12.3616
 30
0.000000
  70
    32
  0
VERTEX
  8
1
  5
4D710
 10
38.1242
 20
12.3653
 30
0.000000
  70
    32
  0
VERTEX
  8
1
  5
4D711
 10
37.9775
 20
12.3616
 30
0.000000
  70
    32
  0
VERTEX
  8
1
  5
4D712
 10
37.8312
 20
12.3508
 30
0.000000
  70
    32
  0
VERTEX
  8
1
  5
4D713
 10
37.6856
 20
12.3328
 30
0.000000
  70
    32
  0
VERTEX
  8
1
  5
4D714
 10
37.5411
 20
12.3076
 30
0.000000
  70
    32
  0
VERTEX
  8
1
  5
4D715
 10
37.3980
 20
12.2754
 30
0.000000
  70
    32
  0
VERTEX
  8
1
  5
4D716
 10
37.2566
 20
12.2361
 30
0.000000
  70
    32
  0
VERTEX
  8
1
  5
4D717
 10
37.1173
 20
12.1899
 30
0.000000
  70
    32
  0
VERTEX
  8
1
  5
4D718
 10
36.9805
 20
12.1369
 30
0.000000
  70
    32
  0
VERTEX
  8
1
  5
4D719
 10
36.8464
 20
12.0772
 30
0.000000
  70
    32
  0
VERTEX
  8
1
  5
4D71A
 10
36.7154
 20
12.0110
 30
0.000000
  70
    32
  0
VERTEX
  8
1
  5
4D71B
 10
36.5877
 20
11.9384
 30
0.000000
  70
    32
  0
VERTEX
  8
1
  5
4D71C
 10
36.4638
 20
11.8597
 30
0.000000
  70
    32
  0
VERTEX
  8
1
  5
4D71D
 10
36.3439
 20
11.7749
 30
0.000000
  70
    32
  0
VERTEX
  8
1
  5
4D71E
 10
36.2282
 20
11.6843
 30
0.000000
  70
    32
  0
VERTEX
  8
1
  5
4D71F
 10
36.1172
 20
11.5881
 30
0.000000
  70
    32
  0
VERTEX
  8
1
  5
4D720
 10
36.0109
 20
11.4866
 30
0.000000
  70
    32
  0
VERTEX
  8
1
  5
4D721
 10
35.9098
 20
11.3799
 30
0.000000
  70
    32
  0
VERTEX
  8
1
  5
4D722
 10
35.8140
 20
11.2684
 30
0.000000
  70
    32
  0
VERTEX
  8
1
  5
4D723
 10
35.7237
 20
11.1524
 30
0.000000
  70
    32
  0
VERTEX
  8
1
  5
4D724
 10
35.6392
 20
11.0320
 30
0.000000
  70
    32
  0
VERTEX
  8
1
  5
4D725
 10
35.5608
 20
10.9076
 30
0.000000
  70
    32
  0
VERTEX
  8
1
  5
4D726
 10
35.4885
 20
10.7794
 30
0.000000
  70
    32
  0
VERTEX
  8
1
  5
4D727
 10
35.4225
 20
10.6479
 30
0.000000
  70
    32
  0
VERTEX
  8
1
  5
4D728
 10
35.3631
 20
10.5133
 30
0.000000
  70
    32
  0
VERTEX
  8
1
  5
4D729
 10
35.3103
 20
10.3759
 30
0.000000
  70
    32
  0
VERTEX
  8
1
  5
4D72A
 10
35.2643
 20
10.2361
 30
0.000000
  70
    32
  0
VERTEX
  8
1
  5
4D72B
 10
35.2251
 20
10.0942
 30
0.000000
  70
    32
  0
VERTEX
  8
1
  5
4D72C
 10
35.1930
 20
9.95053
 30
0.000000
  70
    32
  0
VERTEX
  8
1
  5
4D72D
 10
35.1679
 20
9.80545
 30
0.000000
  70
    32
  0
VERTEX
  8
1
  5
4D72E
 10
35.1500
 20
9.65931
 30
0.000000
  70
    32
  0
VERTEX
  8
1
  5
4D72F
 10
35.1392
 20
9.51246
 30
0.000000
  70
    32
  0
VERTEX
  8
1
  5
4D730
 10
35.1356
 20
9.36526
 30
0.000000
  70
    32
  0
VERTEX
  8
1
  5
4D731
 10
35.1392
 20
9.21805
 30
0.000000
  70
    32
  0
VERTEX
  8
1
  5
4D732
 10
35.1500
 20
9.07121
 30
0.000000
  70
    32
  0
VERTEX
  8
1
  5
4D733
 10
35.1679
 20
8.92507
 30
0.000000
  70
    32
  0
VERTEX
  8
1
  5
4D734
 10
35.1930
 20
8.77999
 30
0.000000
  70
    32
  0
VERTEX
  8
1
  5
4D735
 10
35.2251
 20
8.63632
 30
0.000000
  70
    32
  0
VERTEX
  8
1
  5
4D736
 10
35.2643
 20
8.49440
 30
0.000000
  70
    32
  0
VERTEX
  8
1
  5
4D737
 10
35.3103
 20
8.35459
 30
0.000000
  70
    32
  0
VERTEX
  8
1
  5
4D738
 10
35.3631
 20
8.21721
 30
0.000000
  70
    32
  0
VERTEX
  8
1
  5
4D739
 10
35.4225
 20
8.08259
 30
0.000000
  70
    32
  0
VERTEX
  8
1
  5
4D73A
 10
35.4885
 20
7.95107
 30
0.000000
  70
    32
  0
VERTEX
  8
1
  5
4D73B
 10
35.5608
 20
7.82295
 30
0.000000
  70
    32
  0
VERTEX
  8
1
  5
4D73C
 10
35.6392
 20
7.69855
 30
0.000000
  70
    32
  0
VERTEX
  8
1
  5
4D73D
 10
35.7237
 20
7.57816
 30
0.000000
  70
    32
  0
VERTEX
  8
1
  5
4D73E
 10
35.8140
 20
7.46208
 30
0.000000
  70
    32
  0
VERTEX
  8
1
  5
4D73F
 10
35.9098
 20
7.35058
 30
0.000000
  70
    32
  0
VERTEX
  8
1
  5
4D740
 10
36.0109
 20
7.24394
 30
0.000000
  70
    32
  0
VERTEX
  8
1
  5
4D741
 10
36.1172
 20
7.14240
 30
0.000000
  70
    32
  0
VERTEX
  8
1
  5
4D742
 10
36.2282
 20
7.04623
 30
0.000000
  70
    32
  0
VERTEX
  8
1
  5
4D743
 10
36.3439
 20
6.95564
 30
0.000000
  70
    32
  0
VERTEX
  8
1
  5
4D744
 10
36.4638
 20
6.87085
 30
0.000000
  70
    32
  0
VERTEX
  8
1
  5
4D745
 10
36.5877
 20
6.79207
 30
0.000000
  70
    32
  0
VERTEX
  8
1
  5
4D746
 10
36.7154
 20
6.71949
 30
0.000000
  70
    32
  0
VERTEX
  8
1
  5
4D747
 10
36.8464
 20
6.65329
 30
0.000000
  70
    32
  0
VERTEX
  8
1
  5
4D748
 10
36.9805
 20
6.59362
 30
0.000000
  70
    32
  0
VERTEX
  8
1
  5
4D749
 10
37.1173
 20
6.54063
 30
0.000000
  70
    32
  0
VERTEX
  8
1
  5
4D74A
 10
37.2566
 20
6.49444
 30
0.000000
  70
    32
  0
VERTEX
  8
1
  5
4D74B
 10
37.3980
 20
6.45516
 30
0.000000
  70
    32
  0
VERTEX
  8
1
  5
4D74C
 10
37.5411
 20
6.42290
 30
0.000000
  70
    32
  0
VERTEX
  8
1
  5
4D74D
 10
37.6856
 20
6.39773
 30
0.000000
  70
    32
  0
VERTEX
  8
1
  5
4D74E
 10
37.8312
 20
6.37970
 30
0.000000
  70
    32
  0
VERTEX
  8
1
  5
4D74F
 10
37.9775
 20
6.36887
 30
0.000000
  70
    32
  0
VERTEX
  8
1
  5
4D750
 10
38.1242
 20
6.36526
 30
0.000000
  70
    32
  0
SEQEND
  8
1
  5
4D751
  0
POLYLINE
  5
4D516
  8
1
 10
31.96022875742565
 20
6.7155461840563593
 30
0.0
 66
     1
 70
     8
  0
VERTEX
  8
1
  5
4D752
 10
31.9602
 20
6.71555
 30
0.000000
  70
    32
  0
VERTEX
  8
1
  5
4D753
 10
31.9540
 20
6.70109
 30
0.000000
  70
    32
  0
VERTEX
  8
1
  5
4D754
 10
31.9478
 20
6.68661
 30
0.000000
  70
    32
  0
VERTEX
  8
1
  5
4D755
 10
31.9417
 20
6.67211
 30
0.000000
  70
    32
  0
VERTEX
  8
1
  5
4D756
 10
31.9358
 20
6.65757
 30
0.000000
  70
    32
  0
VERTEX
  8
1
  5
4D757
 10
31.9298
 20
6.64301
 30
0.000000
  70
    32
  0
VERTEX
  8
1
  5
4D758
 10
31.9240
 20
6.62843
 30
0.000000
  70
    32
  0
VERTEX
  8
1
  5
4D759
 10
31.9183
 20
6.61382
 30
0.000000
  70
    32
  0
VERTEX
  8
1
  5
4D75A
 10
31.9126
 20
6.59918
 30
0.000000
  70
    32
  0
VERTEX
  8
1
  5
4D75B
 10
31.9070
 20
6.58452
 30
0.000000
  70
    32
  0
VERTEX
  8
1
  5
4D75C
 10
31.9015
 20
6.56984
 30
0.000000
  70
    32
  0
VERTEX
  8
1
  5
4D75D
 10
31.8961
 20
6.55513
 30
0.000000
  70
    32
  0
VERTEX
  8
1
  5
4D75E
 10
31.8908
 20
6.54040
 30
0.000000
  70
    32
  0
VERTEX
  8
1
  5
4D75F
 10
31.8855
 20
6.52565
 30
0.000000
  70
    32
  0
VERTEX
  8
1
  5
4D760
 10
31.8803
 20
6.51087
 30
0.000000
  70
    32
  0
VERTEX
  8
1
  5
4D761
 10
31.8753
 20
6.49608
 30
0.000000
  70
    32
  0
VERTEX
  8
1
  5
4D762
 10
31.8703
 20
6.48126
 30
0.000000
  70
    32
  0
VERTEX
  8
1
  5
4D763
 10
31.8653
 20
6.46643
 30
0.000000
  70
    32
  0
VERTEX
  8
1
  5
4D764
 10
31.8605
 20
6.45157
 30
0.000000
  70
    32
  0
VERTEX
  8
1
  5
4D765
 10
31.8558
 20
6.43669
 30
0.000000
  70
    32
  0
VERTEX
  8
1
  5
4D766
 10
31.8511
 20
6.42180
 30
0.000000
  70
    32
  0
VERTEX
  8
1
  5
4D767
 10
31.8465
 20
6.40689
 30
0.000000
  70
    32
  0
VERTEX
  8
1
  5
4D768
 10
31.8421
 20
6.39196
 30
0.000000
  70
    32
  0
VERTEX
  8
1
  5
4D769
 10
31.8377
 20
6.37701
 30
0.000000
  70
    32
  0
VERTEX
  8
1
  5
4D76A
 10
31.8333
 20
6.36204
 30
0.000000
  70
    32
  0
VERTEX
  8
1
  5
4D76B
 10
31.8291
 20
6.34706
 30
0.000000
  70
    32
  0
VERTEX
  8
1
  5
4D76C
 10
31.8250
 20
6.33206
 30
0.000000
  70
    32
  0
VERTEX
  8
1
  5
4D76D
 10
31.8209
 20
6.31705
 30
0.000000
  70
    32
  0
VERTEX
  8
1
  5
4D76E
 10
31.8169
 20
6.30202
 30
0.000000
  70
    32
  0
VERTEX
  8
1
  5
4D76F
 10
31.8130
 20
6.28698
 30
0.000000
  70
    32
  0
VERTEX
  8
1
  5
4D770
 10
31.8092
 20
6.27193
 30
0.000000
  70
    32
  0
VERTEX
  8
1
  5
4D771
 10
31.8055
 20
6.25686
 30
0.000000
  70
    32
  0
VERTEX
  8
1
  5
4D772
 10
31.8019
 20
6.24178
 30
0.000000
  70
    32
  0
VERTEX
  8
1
  5
4D773
 10
31.7983
 20
6.22669
 30
0.000000
  70
    32
  0
VERTEX
  8
1
  5
4D774
 10
31.7949
 20
6.21158
 30
0.000000
  70
    32
  0
VERTEX
  8
1
  5
4D775
 10
31.7915
 20
6.19647
 30
0.000000
  70
    32
  0
VERTEX
  8
1
  5
4D776
 10
31.7882
 20
6.18134
 30
0.000000
  70
    32
  0
VERTEX
  8
1
  5
4D777
 10
31.7850
 20
6.16620
 30
0.000000
  70
    32
  0
VERTEX
  8
1
  5
4D778
 10
31.7819
 20
6.15105
 30
0.000000
  70
    32
  0
VERTEX
  8
1
  5
4D779
 10
31.7789
 20
6.13590
 30
0.000000
  70
    32
  0
VERTEX
  8
1
  5
4D77A
 10
31.7760
 20
6.12073
 30
0.000000
  70
    32
  0
VERTEX
  8
1
  5
4D77B
 10
31.7731
 20
6.10556
 30
0.000000
  70
    32
  0
VERTEX
  8
1
  5
4D77C
 10
31.7704
 20
6.09038
 30
0.000000
  70
    32
  0
VERTEX
  8
1
  5
4D77D
 10
31.7677
 20
6.07519
 30
0.000000
  70
    32
  0
VERTEX
  8
1
  5
4D77E
 10
31.7651
 20
6.06000
 30
0.000000
  70
    32
  0
VERTEX
  8
1
  5
4D77F
 10
31.7626
 20
6.04480
 30
0.000000
  70
    32
  0
VERTEX
  8
1
  5
4D780
 10
31.7602
 20
6.02960
 30
0.000000
  70
    32
  0
VERTEX
  8
1
  5
4D781
 10
31.7579
 20
6.01438
 30
0.000000
  70
    32
  0
VERTEX
  8
1
  5
4D782
 10
31.7557
 20
5.99917
 30
0.000000
  70
    32
  0
VERTEX
  8
1
  5
4D783
 10
31.7535
 20
5.98395
 30
0.000000
  70
    32
  0
VERTEX
  8
1
  5
4D784
 10
31.7515
 20
5.96873
 30
0.000000
  70
    32
  0
VERTEX
  8
1
  5
4D785
 10
31.7495
 20
5.95350
 30
0.000000
  70
    32
  0
VERTEX
  8
1
  5
4D786
 10
31.7477
 20
5.93827
 30
0.000000
  70
    32
  0
VERTEX
  8
1
  5
4D787
 10
31.7459
 20
5.92304
 30
0.000000
  70
    32
  0
VERTEX
  8
1
  5
4D788
 10
31.7442
 20
5.90781
 30
0.000000
  70
    32
  0
VERTEX
  8
1
  5
4D789
 10
31.7426
 20
5.89258
 30
0.000000
  70
    32
  0
VERTEX
  8
1
  5
4D78A
 10
31.7410
 20
5.87735
 30
0.000000
  70
    32
  0
VERTEX
  8
1
  5
4D78B
 10
31.7396
 20
5.86211
 30
0.000000
  70
    32
  0
VERTEX
  8
1
  5
4D78C
 10
31.7383
 20
5.84688
 30
0.000000
  70
    32
  0
VERTEX
  8
1
  5
4D78D
 10
31.7370
 20
5.83165
 30
0.000000
  70
    32
  0
VERTEX
  8
1
  5
4D78E
 10
31.7358
 20
5.81642
 30
0.000000
  70
    32
  0
VERTEX
  8
1
  5
4D78F
 10
31.7348
 20
5.80120
 30
0.000000
  70
    32
  0
VERTEX
  8
1
  5
4D790
 10
31.7338
 20
5.78597
 30
0.000000
  70
    32
  0
VERTEX
  8
1
  5
4D791
 10
31.7329
 20
5.77075
 30
0.000000
  70
    32
  0
VERTEX
  8
1
  5
4D792
 10
31.7321
 20
5.75553
 30
0.000000
  70
    32
  0
VERTEX
  8
1
  5
4D793
 10
31.7313
 20
5.74032
 30
0.000000
  70
    32
  0
VERTEX
  8
1
  5
4D794
 10
31.7307
 20
5.72511
 30
0.000000
  70
    32
  0
VERTEX
  8
1
  5
4D795
 10
31.7302
 20
5.70991
 30
0.000000
  70
    32
  0
VERTEX
  8
1
  5
4D796
 10
31.7297
 20
5.69471
 30
0.000000
  70
    32
  0
VERTEX
  8
1
  5
4D797
 10
31.7294
 20
5.67952
 30
0.000000
  70
    32
  0
VERTEX
  8
1
  5
4D798
 10
31.7291
 20
5.66433
 30
0.000000
  70
    32
  0
VERTEX
  8
1
  5
4D799
 10
31.7289
 20
5.64916
 30
0.000000
  70
    32
  0
VERTEX
  8
1
  5
4D79A
 10
31.7288
 20
5.63399
 30
0.000000
  70
    32
  0
VERTEX
  8
1
  5
4D79B
 10
31.7288
 20
5.61883
 30
0.000000
  70
    32
  0
VERTEX
  8
1
  5
4D79C
 10
31.7289
 20
5.60368
 30
0.000000
  70
    32
  0
VERTEX
  8
1
  5
4D79D
 10
31.7290
 20
5.58853
 30
0.000000
  70
    32
  0
VERTEX
  8
1
  5
4D79E
 10
31.7293
 20
5.57340
 30
0.000000
  70
    32
  0
VERTEX
  8
1
  5
4D79F
 10
31.7296
 20
5.55828
 30
0.000000
  70
    32
  0
VERTEX
  8
1
  5
4D7A0
 10
31.7301
 20
5.54317
 30
0.000000
  70
    32
  0
VERTEX
  8
1
  5
4D7A1
 10
31.7306
 20
5.52807
 30
0.000000
  70
    32
  0
VERTEX
  8
1
  5
4D7A2
 10
31.7312
 20
5.51298
 30
0.000000
  70
    32
  0
VERTEX
  8
1
  5
4D7A3
 10
31.7319
 20
5.49790
 30
0.000000
  70
    32
  0
VERTEX
  8
1
  5
4D7A4
 10
31.7327
 20
5.48284
 30
0.000000
  70
    32
  0
VERTEX
  8
1
  5
4D7A5
 10
31.7336
 20
5.46779
 30
0.000000
  70
    32
  0
VERTEX
  8
1
  5
4D7A6
 10
31.7346
 20
5.45275
 30
0.000000
  70
    32
  0
VERTEX
  8
1
  5
4D7A7
 10
31.7356
 20
5.43773
 30
0.000000
  70
    32
  0
VERTEX
  8
1
  5
4D7A8
 10
31.7368
 20
5.42273
 30
0.000000
  70
    32
  0
VERTEX
  8
1
  5
4D7A9
 10
31.7380
 20
5.40774
 30
0.000000
  70
    32
  0
VERTEX
  8
1
  5
4D7AA
 10
31.7394
 20
5.39276
 30
0.000000
  70
    32
  0
VERTEX
  8
1
  5
4D7AB
 10
31.7408
 20
5.37780
 30
0.000000
  70
    32
  0
VERTEX
  8
1
  5
4D7AC
 10
31.7423
 20
5.36286
 30
0.000000
  70
    32
  0
VERTEX
  8
1
  5
4D7AD
 10
31.7439
 20
5.34794
 30
0.000000
  70
    32
  0
VERTEX
  8
1
  5
4D7AE
 10
31.7456
 20
5.33303
 30
0.000000
  70
    32
  0
VERTEX
  8
1
  5
4D7AF
 10
31.7473
 20
5.31815
 30
0.000000
  70
    32
  0
VERTEX
  8
1
  5
4D7B0
 10
31.7492
 20
5.30328
 30
0.000000
  70
    32
  0
VERTEX
  8
1
  5
4D7B1
 10
31.7511
 20
5.28843
 30
0.000000
  70
    32
  0
VERTEX
  8
1
  5
4D7B2
 10
31.7532
 20
5.27360
 30
0.000000
  70
    32
  0
VERTEX
  8
1
  5
4D7B3
 10
31.7553
 20
5.25880
 30
0.000000
  70
    32
  0
VERTEX
  8
1
  5
4D7B4
 10
31.7575
 20
5.24401
 30
0.000000
  70
    32
  0
VERTEX
  8
1
  5
4D7B5
 10
31.7598
 20
5.22924
 30
0.000000
  70
    32
  0
VERTEX
  8
1
  5
4D7B6
 10
31.7622
 20
5.21450
 30
0.000000
  70
    32
  0
VERTEX
  8
1
  5
4D7B7
 10
31.7647
 20
5.19978
 30
0.000000
  70
    32
  0
VERTEX
  8
1
  5
4D7B8
 10
31.7673
 20
5.18508
 30
0.000000
  70
    32
  0
VERTEX
  8
1
  5
4D7B9
 10
31.7699
 20
5.17041
 30
0.000000
  70
    32
  0
VERTEX
  8
1
  5
4D7BA
 10
31.7727
 20
5.15576
 30
0.000000
  70
    32
  0
VERTEX
  8
1
  5
4D7BB
 10
31.7755
 20
5.14113
 30
0.000000
  70
    32
  0
VERTEX
  8
1
  5
4D7BC
 10
31.7784
 20
5.12653
 30
0.000000
  70
    32
  0
VERTEX
  8
1
  5
4D7BD
 10
31.7814
 20
5.11196
 30
0.000000
  70
    32
  0
VERTEX
  8
1
  5
4D7BE
 10
31.7845
 20
5.09741
 30
0.000000
  70
    32
  0
VERTEX
  8
1
  5
4D7BF
 10
31.7877
 20
5.08289
 30
0.000000
  70
    32
  0
VERTEX
  8
1
  5
4D7C0
 10
31.7909
 20
5.06839
 30
0.000000
  70
    32
  0
VERTEX
  8
1
  5
4D7C1
 10
31.7943
 20
5.05392
 30
0.000000
  70
    32
  0
VERTEX
  8
1
  5
4D7C2
 10
31.7977
 20
5.03948
 30
0.000000
  70
    32
  0
VERTEX
  8
1
  5
4D7C3
 10
31.8013
 20
5.02507
 30
0.000000
  70
    32
  0
VERTEX
  8
1
  5
4D7C4
 10
31.8049
 20
5.01069
 30
0.000000
  70
    32
  0
VERTEX
  8
1
  5
4D7C5
 10
31.8086
 20
4.99633
 30
0.000000
  70
    32
  0
VERTEX
  8
1
  5
4D7C6
 10
31.8124
 20
4.98201
 30
0.000000
  70
    32
  0
VERTEX
  8
1
  5
4D7C7
 10
31.8162
 20
4.96772
 30
0.000000
  70
    32
  0
VERTEX
  8
1
  5
4D7C8
 10
31.8202
 20
4.95346
 30
0.000000
  70
    32
  0
VERTEX
  8
1
  5
4D7C9
 10
31.8242
 20
4.93923
 30
0.000000
  70
    32
  0
VERTEX
  8
1
  5
4D7CA
 10
31.8284
 20
4.92503
 30
0.000000
  70
    32
  0
VERTEX
  8
1
  5
4D7CB
 10
31.8326
 20
4.91086
 30
0.000000
  70
    32
  0
VERTEX
  8
1
  5
4D7CC
 10
31.8369
 20
4.89673
 30
0.000000
  70
    32
  0
VERTEX
  8
1
  5
4D7CD
 10
31.8413
 20
4.88263
 30
0.000000
  70
    32
  0
VERTEX
  8
1
  5
4D7CE
 10
31.8458
 20
4.86856
 30
0.000000
  70
    32
  0
VERTEX
  8
1
  5
4D7CF
 10
31.8503
 20
4.85453
 30
0.000000
  70
    32
  0
VERTEX
  8
1
  5
4D7D0
 10
31.8550
 20
4.84053
 30
0.000000
  70
    32
  0
VERTEX
  8
1
  5
4D7D1
 10
31.8597
 20
4.82657
 30
0.000000
  70
    32
  0
VERTEX
  8
1
  5
4D7D2
 10
31.8645
 20
4.81264
 30
0.000000
  70
    32
  0
SEQEND
  8
1
  5
4D7D3
  0
POLYLINE
  5
4D517
  8
1
 10
36.504460731209463
 20
8.7807653587286563
 30
0.0
 66
     1
 70
     8
  0
VERTEX
  8
1
  5
4D7D4
 10
36.5045
 20
8.78077
 30
0.000000
  70
    32
  0
VERTEX
  8
1
  5
4D7D5
 10
36.5108
 20
8.78649
 30
0.000000
  70
    32
  0
VERTEX
  8
1
  5
4D7D6
 10
36.5170
 20
8.79230
 30
0.000000
  70
    32
  0
VERTEX
  8
1
  5
4D7D7
 10
36.5232
 20
8.79818
 30
0.000000
  70
    32
  0
VERTEX
  8
1
  5
4D7D8
 10
36.5292
 20
8.80414
 30
0.000000
  70
    32
  0
VERTEX
  8
1
  5
4D7D9
 10
36.5353
 20
8.81017
 30
0.000000
  70
    32
  0
VERTEX
  8
1
  5
4D7DA
 10
36.5412
 20
8.81628
 30
0.000000
  70
    32
  0
VERTEX
  8
1
  5
4D7DB
 10
36.5471
 20
8.82246
 30
0.000000
  70
    32
  0
VERTEX
  8
1
  5
4D7DC
 10
36.5529
 20
8.82871
 30
0.000000
  70
    32
  0
VERTEX
  8
1
  5
4D7DD
 10
36.5586
 20
8.83504
 30
0.000000
  70
    32
  0
VERTEX
  8
1
  5
4D7DE
 10
36.5642
 20
8.84143
 30
0.000000
  70
    32
  0
VERTEX
  8
1
  5
4D7DF
 10
36.5698
 20
8.84789
 30
0.000000
  70
    32
  0
VERTEX
  8
1
  5
4D7E0
 10
36.5752
 20
8.85442
 30
0.000000
  70
    32
  0
VERTEX
  8
1
  5
4D7E1
 10
36.5806
 20
8.86102
 30
0.000000
  70
    32
  0
VERTEX
  8
1
  5
4D7E2
 10
36.5859
 20
8.86768
 30
0.000000
  70
    32
  0
VERTEX
  8
1
  5
4D7E3
 10
36.5912
 20
8.87441
 30
0.000000
  70
    32
  0
VERTEX
  8
1
  5
4D7E4
 10
36.5963
 20
8.88121
 30
0.000000
  70
    32
  0
VERTEX
  8
1
  5
4D7E5
 10
36.6014
 20
8.88806
 30
0.000000
  70
    32
  0
VERTEX
  8
1
  5
4D7E6
 10
36.6064
 20
8.89498
 30
0.000000
  70
    32
  0
VERTEX
  8
1
  5
4D7E7
 10
36.6113
 20
8.90196
 30
0.000000
  70
    32
  0
VERTEX
  8
1
  5
4D7E8
 10
36.6161
 20
8.90900
 30
0.000000
  70
    32
  0
VERTEX
  8
1
  5
4D7E9
 10
36.6208
 20
8.91610
 30
0.000000
  70
    32
  0
VERTEX
  8
1
  5
4D7EA
 10
36.6254
 20
8.92325
 30
0.000000
  70
    32
  0
VERTEX
  8
1
  5
4D7EB
 10
36.6300
 20
8.93046
 30
0.000000
  70
    32
  0
VERTEX
  8
1
  5
4D7EC
 10
36.6344
 20
8.93773
 30
0.000000
  70
    32
  0
VERTEX
  8
1
  5
4D7ED
 10
36.6388
 20
8.94505
 30
0.000000
  70
    32
  0
VERTEX
  8
1
  5
4D7EE
 10
36.6431
 20
8.95243
 30
0.000000
  70
    32
  0
VERTEX
  8
1
  5
4D7EF
 10
36.6473
 20
8.95986
 30
0.000000
  70
    32
  0
VERTEX
  8
1
  5
4D7F0
 10
36.6514
 20
8.96734
 30
0.000000
  70
    32
  0
VERTEX
  8
1
  5
4D7F1
 10
36.6554
 20
8.97487
 30
0.000000
  70
    32
  0
VERTEX
  8
1
  5
4D7F2
 10
36.6593
 20
8.98245
 30
0.000000
  70
    32
  0
VERTEX
  8
1
  5
4D7F3
 10
36.6631
 20
8.99007
 30
0.000000
  70
    32
  0
VERTEX
  8
1
  5
4D7F4
 10
36.6668
 20
8.99774
 30
0.000000
  70
    32
  0
VERTEX
  8
1
  5
4D7F5
 10
36.6704
 20
9.00546
 30
0.000000
  70
    32
  0
VERTEX
  8
1
  5
4D7F6
 10
36.6740
 20
9.01322
 30
0.000000
  70
    32
  0
VERTEX
  8
1
  5
4D7F7
 10
36.6774
 20
9.02103
 30
0.000000
  70
    32
  0
VERTEX
  8
1
  5
4D7F8
 10
36.6808
 20
9.02888
 30
0.000000
  70
    32
  0
VERTEX
  8
1
  5
4D7F9
 10
36.6840
 20
9.03677
 30
0.000000
  70
    32
  0
VERTEX
  8
1
  5
4D7FA
 10
36.6872
 20
9.04469
 30
0.000000
  70
    32
  0
VERTEX
  8
1
  5
4D7FB
 10
36.6902
 20
9.05266
 30
0.000000
  70
    32
  0
VERTEX
  8
1
  5
4D7FC
 10
36.6932
 20
9.06066
 30
0.000000
  70
    32
  0
VERTEX
  8
1
  5
4D7FD
 10
36.6960
 20
9.06870
 30
0.000000
  70
    32
  0
VERTEX
  8
1
  5
4D7FE
 10
36.6988
 20
9.07678
 30
0.000000
  70
    32
  0
VERTEX
  8
1
  5
4D7FF
 10
36.7014
 20
9.08488
 30
0.000000
  70
    32
  0
VERTEX
  8
1
  5
4D800
 10
36.7040
 20
9.09302
 30
0.000000
  70
    32
  0
VERTEX
  8
1
  5
4D801
 10
36.7065
 20
9.10119
 30
0.000000
  70
    32
  0
VERTEX
  8
1
  5
4D802
 10
36.7088
 20
9.10939
 30
0.000000
  70
    32
  0
VERTEX
  8
1
  5
4D803
 10
36.7111
 20
9.11762
 30
0.000000
  70
    32
  0
VERTEX
  8
1
  5
4D804
 10
36.7132
 20
9.12588
 30
0.000000
  70
    32
  0
VERTEX
  8
1
  5
4D805
 10
36.7153
 20
9.13416
 30
0.000000
  70
    32
  0
VERTEX
  8
1
  5
4D806
 10
36.7172
 20
9.14247
 30
0.000000
  70
    32
  0
VERTEX
  8
1
  5
4D807
 10
36.7191
 20
9.15080
 30
0.000000
  70
    32
  0
VERTEX
  8
1
  5
4D808
 10
36.7208
 20
9.15915
 30
0.000000
  70
    32
  0
VERTEX
  8
1
  5
4D809
 10
36.7225
 20
9.16752
 30
0.000000
  70
    32
  0
VERTEX
  8
1
  5
4D80A
 10
36.7240
 20
9.17591
 30
0.000000
  70
    32
  0
VERTEX
  8
1
  5
4D80B
 10
36.7255
 20
9.18433
 30
0.000000
  70
    32
  0
VERTEX
  8
1
  5
4D80C
 10
36.7268
 20
9.19276
 30
0.000000
  70
    32
  0
VERTEX
  8
1
  5
4D80D
 10
36.7281
 20
9.20120
 30
0.000000
  70
    32
  0
VERTEX
  8
1
  5
4D80E
 10
36.7292
 20
9.20966
 30
0.000000
  70
    32
  0
VERTEX
  8
1
  5
4D80F
 10
36.7302
 20
9.21813
 30
0.000000
  70
    32
  0
VERTEX
  8
1
  5
4D810
 10
36.7311
 20
9.22662
 30
0.000000
  70
    32
  0
VERTEX
  8
1
  5
4D811
 10
36.7320
 20
9.23511
 30
0.000000
  70
    32
  0
VERTEX
  8
1
  5
4D812
 10
36.7327
 20
9.24362
 30
0.000000
  70
    32
  0
VERTEX
  8
1
  5
4D813
 10
36.7333
 20
9.25213
 30
0.000000
  70
    32
  0
VERTEX
  8
1
  5
4D814
 10
36.7338
 20
9.26065
 30
0.000000
  70
    32
  0
VERTEX
  8
1
  5
4D815
 10
36.7342
 20
9.26918
 30
0.000000
  70
    32
  0
VERTEX
  8
1
  5
4D816
 10
36.7345
 20
9.27771
 30
0.000000
  70
    32
  0
VERTEX
  8
1
  5
4D817
 10
36.7347
 20
9.28624
 30
0.000000
  70
    32
  0
VERTEX
  8
1
  5
4D818
 10
36.7348
 20
9.29477
 30
0.000000
  70
    32
  0
VERTEX
  8
1
  5
4D819
 10
36.7347
 20
9.30331
 30
0.000000
  70
    32
  0
VERTEX
  8
1
  5
4D81A
 10
36.7346
 20
9.31184
 30
0.000000
  70
    32
  0
VERTEX
  8
1
  5
4D81B
 10
36.7344
 20
9.32038
 30
0.000000
  70
    32
  0
VERTEX
  8
1
  5
4D81C
 10
36.7341
 20
9.32890
 30
0.000000
  70
    32
  0
VERTEX
  8
1
  5
4D81D
 10
36.7336
 20
9.33743
 30
0.000000
  70
    32
  0
VERTEX
  8
1
  5
4D81E
 10
36.7331
 20
9.34595
 30
0.000000
  70
    32
  0
VERTEX
  8
1
  5
4D81F
 10
36.7324
 20
9.35446
 30
0.000000
  70
    32
  0
VERTEX
  8
1
  5
4D820
 10
36.7317
 20
9.36296
 30
0.000000
  70
    32
  0
VERTEX
  8
1
  5
4D821
 10
36.7308
 20
9.37145
 30
0.000000
  70
    32
  0
VERTEX
  8
1
  5
4D822
 10
36.7299
 20
9.37993
 30
0.000000
  70
    32
  0
VERTEX
  8
1
  5
4D823
 10
36.7288
 20
9.38840
 30
0.000000
  70
    32
  0
VERTEX
  8
1
  5
4D824
 10
36.7277
 20
9.39686
 30
0.000000
  70
    32
  0
VERTEX
  8
1
  5
4D825
 10
36.7264
 20
9.40529
 30
0.000000
  70
    32
  0
VERTEX
  8
1
  5
4D826
 10
36.7250
 20
9.41372
 30
0.000000
  70
    32
  0
VERTEX
  8
1
  5
4D827
 10
36.7236
 20
9.42212
 30
0.000000
  70
    32
  0
VERTEX
  8
1
  5
4D828
 10
36.7220
 20
9.43051
 30
0.000000
  70
    32
  0
VERTEX
  8
1
  5
4D829
 10
36.7203
 20
9.43888
 30
0.000000
  70
    32
  0
VERTEX
  8
1
  5
4D82A
 10
36.7185
 20
9.44722
 30
0.000000
  70
    32
  0
VERTEX
  8
1
  5
4D82B
 10
36.7166
 20
9.45555
 30
0.000000
  70
    32
  0
VERTEX
  8
1
  5
4D82C
 10
36.7146
 20
9.46385
 30
0.000000
  70
    32
  0
VERTEX
  8
1
  5
4D82D
 10
36.7126
 20
9.47212
 30
0.000000
  70
    32
  0
VERTEX
  8
1
  5
4D82E
 10
36.7104
 20
9.48037
 30
0.000000
  70
    32
  0
VERTEX
  8
1
  5
4D82F
 10
36.7081
 20
9.48859
 30
0.000000
  70
    32
  0
VERTEX
  8
1
  5
4D830
 10
36.7057
 20
9.49678
 30
0.000000
  70
    32
  0
VERTEX
  8
1
  5
4D831
 10
36.7032
 20
9.50494
 30
0.000000
  70
    32
  0
VERTEX
  8
1
  5
4D832
 10
36.7006
 20
9.51307
 30
0.000000
  70
    32
  0
VERTEX
  8
1
  5
4D833
 10
36.6979
 20
9.52116
 30
0.000000
  70
    32
  0
VERTEX
  8
1
  5
4D834
 10
36.6951
 20
9.52923
 30
0.000000
  70
    32
  0
VERTEX
  8
1
  5
4D835
 10
36.6922
 20
9.53725
 30
0.000000
  70
    32
  0
VERTEX
  8
1
  5
4D836
 10
36.6892
 20
9.54525
 30
0.000000
  70
    32
  0
VERTEX
  8
1
  5
4D837
 10
36.6862
 20
9.55320
 30
0.000000
  70
    32
  0
VERTEX
  8
1
  5
4D838
 10
36.6830
 20
9.56111
 30
0.000000
  70
    32
  0
VERTEX
  8
1
  5
4D839
 10
36.6797
 20
9.56899
 30
0.000000
  70
    32
  0
VERTEX
  8
1
  5
4D83A
 10
36.6763
 20
9.57682
 30
0.000000
  70
    32
  0
VERTEX
  8
1
  5
4D83B
 10
36.6729
 20
9.58462
 30
0.000000
  70
    32
  0
VERTEX
  8
1
  5
4D83C
 10
36.6693
 20
9.59236
 30
0.000000
  70
    32
  0
VERTEX
  8
1
  5
4D83D
 10
36.6656
 20
9.60007
 30
0.000000
  70
    32
  0
VERTEX
  8
1
  5
4D83E
 10
36.6619
 20
9.60773
 30
0.000000
  70
    32
  0
VERTEX
  8
1
  5
4D83F
 10
36.6580
 20
9.61534
 30
0.000000
  70
    32
  0
VERTEX
  8
1
  5
4D840
 10
36.6541
 20
9.62290
 30
0.000000
  70
    32
  0
VERTEX
  8
1
  5
4D841
 10
36.6501
 20
9.63041
 30
0.000000
  70
    32
  0
VERTEX
  8
1
  5
4D842
 10
36.6459
 20
9.63788
 30
0.000000
  70
    32
  0
VERTEX
  8
1
  5
4D843
 10
36.6417
 20
9.64529
 30
0.000000
  70
    32
  0
VERTEX
  8
1
  5
4D844
 10
36.6374
 20
9.65265
 30
0.000000
  70
    32
  0
VERTEX
  8
1
  5
4D845
 10
36.6330
 20
9.65995
 30
0.000000
  70
    32
  0
VERTEX
  8
1
  5
4D846
 10
36.6285
 20
9.66720
 30
0.000000
  70
    32
  0
VERTEX
  8
1
  5
4D847
 10
36.6239
 20
9.67440
 30
0.000000
  70
    32
  0
VERTEX
  8
1
  5
4D848
 10
36.6193
 20
9.68153
 30
0.000000
  70
    32
  0
VERTEX
  8
1
  5
4D849
 10
36.6145
 20
9.68861
 30
0.000000
  70
    32
  0
VERTEX
  8
1
  5
4D84A
 10
36.6097
 20
9.69563
 30
0.000000
  70
    32
  0
VERTEX
  8
1
  5
4D84B
 10
36.6048
 20
9.70259
 30
0.000000
  70
    32
  0
VERTEX
  8
1
  5
4D84C
 10
36.5998
 20
9.70949
 30
0.000000
  70
    32
  0
VERTEX
  8
1
  5
4D84D
 10
36.5947
 20
9.71633
 30
0.000000
  70
    32
  0
VERTEX
  8
1
  5
4D84E
 10
36.5895
 20
9.72310
 30
0.000000
  70
    32
  0
VERTEX
  8
1
  5
4D84F
 10
36.5842
 20
9.72981
 30
0.000000
  70
    32
  0
VERTEX
  8
1
  5
4D850
 10
36.5789
 20
9.73645
 30
0.000000
  70
    32
  0
VERTEX
  8
1
  5
4D851
 10
36.5735
 20
9.74303
 30
0.000000
  70
    32
  0
VERTEX
  8
1
  5
4D852
 10
36.5680
 20
9.74953
 30
0.000000
  70
    32
  0
VERTEX
  8
1
  5
4D853
 10
36.5624
 20
9.75597
 30
0.000000
  70
    32
  0
VERTEX
  8
1
  5
4D854
 10
36.5567
 20
9.76235
 30
0.000000
  70
    32
  0
SEQEND
  8
1
  5
4D855
  0
POLYLINE
  5
4D518
  8
1
 10
37.581513526371154
 20
7.7431511187744606
 30
0.0
 66
     1
 70
     8
  0
VERTEX
  8
1
  5
4D856
 10
37.5815
 20
7.74315
 30
0.000000
  70
    32
  0
VERTEX
  8
1
  5
4D857
 10
37.5797
 20
7.75149
 30
0.000000
  70
    32
  0
VERTEX
  8
1
  5
4D858
 10
37.5778
 20
7.75980
 30
0.000000
  70
    32
  0
VERTEX
  8
1
  5
4D859
 10
37.5758
 20
7.76809
 30
0.000000
  70
    32
  0
VERTEX
  8
1
  5
4D85A
 10
37.5737
 20
7.77635
 30
0.000000
  70
    32
  0
VERTEX
  8
1
  5
4D85B
 10
37.5715
 20
7.78459
 30
0.000000
  70
    32
  0
VERTEX
  8
1
  5
4D85C
 10
37.5692
 20
7.79279
 30
0.000000
  70
    32
  0
VERTEX
  8
1
  5
4D85D
 10
37.5668
 20
7.80097
 30
0.000000
  70
    32
  0
VERTEX
  8
1
  5
4D85E
 10
37.5643
 20
7.80912
 30
0.000000
  70
    32
  0
VERTEX
  8
1
  5
4D85F
 10
37.5617
 20
7.81724
 30
0.000000
  70
    32
  0
VERTEX
  8
1
  5
4D860
 10
37.5589
 20
7.82532
 30
0.000000
  70
    32
  0
VERTEX
  8
1
  5
4D861
 10
37.5561
 20
7.83337
 30
0.000000
  70
    32
  0
VERTEX
  8
1
  5
4D862
 10
37.5532
 20
7.84139
 30
0.000000
  70
    32
  0
VERTEX
  8
1
  5
4D863
 10
37.5502
 20
7.84937
 30
0.000000
  70
    32
  0
VERTEX
  8
1
  5
4D864
 10
37.5471
 20
7.85731
 30
0.000000
  70
    32
  0
VERTEX
  8
1
  5
4D865
 10
37.5439
 20
7.86521
 30
0.000000
  70
    32
  0
VERTEX
  8
1
  5
4D866
 10
37.5406
 20
7.87307
 30
0.000000
  70
    32
  0
VERTEX
  8
1
  5
4D867
 10
37.5373
 20
7.88089
 30
0.000000
  70
    32
  0
VERTEX
  8
1
  5
4D868
 10
37.5338
 20
7.88867
 30
0.000000
  70
    32
  0
VERTEX
  8
1
  5
4D869
 10
37.5302
 20
7.89641
 30
0.000000
  70
    32
  0
VERTEX
  8
1
  5
4D86A
 10
37.5265
 20
7.90410
 30
0.000000
  70
    32
  0
VERTEX
  8
1
  5
4D86B
 10
37.5227
 20
7.91174
 30
0.000000
  70
    32
  0
VERTEX
  8
1
  5
4D86C
 10
37.5189
 20
7.91934
 30
0.000000
  70
    32
  0
VERTEX
  8
1
  5
4D86D
 10
37.5149
 20
7.92689
 30
0.000000
  70
    32
  0
VERTEX
  8
1
  5
4D86E
 10
37.5109
 20
7.93438
 30
0.000000
  70
    32
  0
VERTEX
  8
1
  5
4D86F
 10
37.5067
 20
7.94183
 30
0.000000
  70
    32
  0
VERTEX
  8
1
  5
4D870
 10
37.5025
 20
7.94923
 30
0.000000
  70
    32
  0
VERTEX
  8
1
  5
4D871
 10
37.4982
 20
7.95657
 30
0.000000
  70
    32
  0
VERTEX
  8
1
  5
4D872
 10
37.4938
 20
7.96386
 30
0.000000
  70
    32
  0
VERTEX
  8
1
  5
4D873
 10
37.4893
 20
7.97110
 30
0.000000
  70
    32
  0
VERTEX
  8
1
  5
4D874
 10
37.4847
 20
7.97828
 30
0.000000
  70
    32
  0
VERTEX
  8
1
  5
4D875
 10
37.4800
 20
7.98540
 30
0.000000
  70
    32
  0
VERTEX
  8
1
  5
4D876
 10
37.4753
 20
7.99246
 30
0.000000
  70
    32
  0
VERTEX
  8
1
  5
4D877
 10
37.4704
 20
7.99947
 30
0.000000
  70
    32
  0
VERTEX
  8
1
  5
4D878
 10
37.4655
 20
8.00641
 30
0.000000
  70
    32
  0
VERTEX
  8
1
  5
4D879
 10
37.4605
 20
8.01330
 30
0.000000
  70
    32
  0
VERTEX
  8
1
  5
4D87A
 10
37.4554
 20
8.02012
 30
0.000000
  70
    32
  0
VERTEX
  8
1
  5
4D87B
 10
37.4502
 20
8.02687
 30
0.000000
  70
    32
  0
VERTEX
  8
1
  5
4D87C
 10
37.4449
 20
8.03357
 30
0.000000
  70
    32
  0
VERTEX
  8
1
  5
4D87D
 10
37.4396
 20
8.04019
 30
0.000000
  70
    32
  0
VERTEX
  8
1
  5
4D87E
 10
37.4341
 20
8.04675
 30
0.000000
  70
    32
  0
VERTEX
  8
1
  5
4D87F
 10
37.4286
 20
8.05324
 30
0.000000
  70
    32
  0
VERTEX
  8
1
  5
4D880
 10
37.4230
 20
8.05967
 30
0.000000
  70
    32
  0
VERTEX
  8
1
  5
4D881
 10
37.4174
 20
8.06602
 30
0.000000
  70
    32
  0
VERTEX
  8
1
  5
4D882
 10
37.4116
 20
8.07231
 30
0.000000
  70
    32
  0
VERTEX
  8
1
  5
4D883
 10
37.4058
 20
8.07852
 30
0.000000
  70
    32
  0
VERTEX
  8
1
  5
4D884
 10
37.3999
 20
8.08466
 30
0.000000
  70
    32
  0
VERTEX
  8
1
  5
4D885
 10
37.3939
 20
8.09073
 30
0.000000
  70
    32
  0
VERTEX
  8
1
  5
4D886
 10
37.3879
 20
8.09672
 30
0.000000
  70
    32
  0
VERTEX
  8
1
  5
4D887
 10
37.3818
 20
8.10264
 30
0.000000
  70
    32
  0
VERTEX
  8
1
  5
4D888
 10
37.3756
 20
8.10848
 30
0.000000
  70
    32
  0
VERTEX
  8
1
  5
4D889
 10
37.3693
 20
8.11425
 30
0.000000
  70
    32
  0
VERTEX
  8
1
  5
4D88A
 10
37.3630
 20
8.11993
 30
0.000000
  70
    32
  0
VERTEX
  8
1
  5
4D88B
 10
37.3566
 20
8.12554
 30
0.000000
  70
    32
  0
VERTEX
  8
1
  5
4D88C
 10
37.3501
 20
8.13107
 30
0.000000
  70
    32
  0
VERTEX
  8
1
  5
4D88D
 10
37.3436
 20
8.13652
 30
0.000000
  70
    32
  0
VERTEX
  8
1
  5
4D88E
 10
37.3370
 20
8.14189
 30
0.000000
  70
    32
  0
VERTEX
  8
1
  5
4D88F
 10
37.3303
 20
8.14717
 30
0.000000
  70
    32
  0
VERTEX
  8
1
  5
4D890
 10
37.3236
 20
8.15238
 30
0.000000
  70
    32
  0
VERTEX
  8
1
  5
4D891
 10
37.3168
 20
8.15750
 30
0.000000
  70
    32
  0
VERTEX
  8
1
  5
4D892
 10
37.3099
 20
8.16253
 30
0.000000
  70
    32
  0
VERTEX
  8
1
  5
4D893
 10
37.3030
 20
8.16748
 30
0.000000
  70
    32
  0
VERTEX
  8
1
  5
4D894
 10
37.2960
 20
8.17235
 30
0.000000
  70
    32
  0
VERTEX
  8
1
  5
4D895
 10
37.2890
 20
8.17712
 30
0.000000
  70
    32
  0
VERTEX
  8
1
  5
4D896
 10
37.2819
 20
8.18181
 30
0.000000
  70
    32
  0
VERTEX
  8
1
  5
4D897
 10
37.2747
 20
8.18642
 30
0.000000
  70
    32
  0
VERTEX
  8
1
  5
4D898
 10
37.2675
 20
8.19093
 30
0.000000
  70
    32
  0
VERTEX
  8
1
  5
4D899
 10
37.2603
 20
8.19536
 30
0.000000
  70
    32
  0
VERTEX
  8
1
  5
4D89A
 10
37.2529
 20
8.19969
 30
0.000000
  70
    32
  0
VERTEX
  8
1
  5
4D89B
 10
37.2456
 20
8.20394
 30
0.000000
  70
    32
  0
VERTEX
  8
1
  5
4D89C
 10
37.2381
 20
8.20809
 30
0.000000
  70
    32
  0
VERTEX
  8
1
  5
4D89D
 10
37.2307
 20
8.21215
 30
0.000000
  70
    32
  0
VERTEX
  8
1
  5
4D89E
 10
37.2232
 20
8.21612
 30
0.000000
  70
    32
  0
VERTEX
  8
1
  5
4D89F
 10
37.2156
 20
8.21999
 30
0.000000
  70
    32
  0
VERTEX
  8
1
  5
4D8A0
 10
37.2080
 20
8.22377
 30
0.000000
  70
    32
  0
VERTEX
  8
1
  5
4D8A1
 10
37.2003
 20
8.22746
 30
0.000000
  70
    32
  0
VERTEX
  8
1
  5
4D8A2
 10
37.1926
 20
8.23105
 30
0.000000
  70
    32
  0
VERTEX
  8
1
  5
4D8A3
 10
37.1849
 20
8.23455
 30
0.000000
  70
    32
  0
VERTEX
  8
1
  5
4D8A4
 10
37.1771
 20
8.23795
 30
0.000000
  70
    32
  0
VERTEX
  8
1
  5
4D8A5
 10
37.1692
 20
8.24126
 30
0.000000
  70
    32
  0
VERTEX
  8
1
  5
4D8A6
 10
37.1614
 20
8.24446
 30
0.000000
  70
    32
  0
VERTEX
  8
1
  5
4D8A7
 10
37.1534
 20
8.24757
 30
0.000000
  70
    32
  0
VERTEX
  8
1
  5
4D8A8
 10
37.1455
 20
8.25059
 30
0.000000
  70
    32
  0
VERTEX
  8
1
  5
4D8A9
 10
37.1375
 20
8.25350
 30
0.000000
  70
    32
  0
VERTEX
  8
1
  5
4D8AA
 10
37.1295
 20
8.25631
 30
0.000000
  70
    32
  0
VERTEX
  8
1
  5
4D8AB
 10
37.1214
 20
8.25903
 30
0.000000
  70
    32
  0
VERTEX
  8
1
  5
4D8AC
 10
37.1134
 20
8.26165
 30
0.000000
  70
    32
  0
VERTEX
  8
1
  5
4D8AD
 10
37.1052
 20
8.26416
 30
0.000000
  70
    32
  0
VERTEX
  8
1
  5
4D8AE
 10
37.0971
 20
8.26658
 30
0.000000
  70
    32
  0
VERTEX
  8
1
  5
4D8AF
 10
37.0889
 20
8.26889
 30
0.000000
  70
    32
  0
VERTEX
  8
1
  5
4D8B0
 10
37.0807
 20
8.27111
 30
0.000000
  70
    32
  0
VERTEX
  8
1
  5
4D8B1
 10
37.0725
 20
8.27322
 30
0.000000
  70
    32
  0
VERTEX
  8
1
  5
4D8B2
 10
37.0642
 20
8.27523
 30
0.000000
  70
    32
  0
VERTEX
  8
1
  5
4D8B3
 10
37.0559
 20
8.27714
 30
0.000000
  70
    32
  0
VERTEX
  8
1
  5
4D8B4
 10
37.0476
 20
8.27894
 30
0.000000
  70
    32
  0
VERTEX
  8
1
  5
4D8B5
 10
37.0393
 20
8.28065
 30
0.000000
  70
    32
  0
VERTEX
  8
1
  5
4D8B6
 10
37.0310
 20
8.28225
 30
0.000000
  70
    32
  0
VERTEX
  8
1
  5
4D8B7
 10
37.0226
 20
8.28374
 30
0.000000
  70
    32
  0
VERTEX
  8
1
  5
4D8B8
 10
37.0142
 20
8.28514
 30
0.000000
  70
    32
  0
VERTEX
  8
1
  5
4D8B9
 10
37.0058
 20
8.28643
 30
0.000000
  70
    32
  0
VERTEX
  8
1
  5
4D8BA
 10
36.9974
 20
8.28762
 30
0.000000
  70
    32
  0
VERTEX
  8
1
  5
4D8BB
 10
36.9890
 20
8.28870
 30
0.000000
  70
    32
  0
VERTEX
  8
1
  5
4D8BC
 10
36.9805
 20
8.28968
 30
0.000000
  70
    32
  0
VERTEX
  8
1
  5
4D8BD
 10
36.9721
 20
8.29055
 30
0.000000
  70
    32
  0
VERTEX
  8
1
  5
4D8BE
 10
36.9636
 20
8.29132
 30
0.000000
  70
    32
  0
VERTEX
  8
1
  5
4D8BF
 10
36.9551
 20
8.29199
 30
0.000000
  70
    32
  0
VERTEX
  8
1
  5
4D8C0
 10
36.9467
 20
8.29255
 30
0.000000
  70
    32
  0
VERTEX
  8
1
  5
4D8C1
 10
36.9382
 20
8.29300
 30
0.000000
  70
    32
  0
VERTEX
  8
1
  5
4D8C2
 10
36.9297
 20
8.29335
 30
0.000000
  70
    32
  0
VERTEX
  8
1
  5
4D8C3
 10
36.9212
 20
8.29360
 30
0.000000
  70
    32
  0
VERTEX
  8
1
  5
4D8C4
 10
36.9127
 20
8.29374
 30
0.000000
  70
    32
  0
VERTEX
  8
1
  5
4D8C5
 10
36.9042
 20
8.29378
 30
0.000000
  70
    32
  0
VERTEX
  8
1
  5
4D8C6
 10
36.8957
 20
8.29371
 30
0.000000
  70
    32
  0
VERTEX
  8
1
  5
4D8C7
 10
36.8872
 20
8.29354
 30
0.000000
  70
    32
  0
VERTEX
  8
1
  5
4D8C8
 10
36.8787
 20
8.29326
 30
0.000000
  70
    32
  0
VERTEX
  8
1
  5
4D8C9
 10
36.8702
 20
8.29288
 30
0.000000
  70
    32
  0
VERTEX
  8
1
  5
4D8CA
 10
36.8618
 20
8.29239
 30
0.000000
  70
    32
  0
VERTEX
  8
1
  5
4D8CB
 10
36.8533
 20
8.29180
 30
0.000000
  70
    32
  0
VERTEX
  8
1
  5
4D8CC
 10
36.8448
 20
8.29110
 30
0.000000
  70
    32
  0
VERTEX
  8
1
  5
4D8CD
 10
36.8364
 20
8.29030
 30
0.000000
  70
    32
  0
VERTEX
  8
1
  5
4D8CE
 10
36.8279
 20
8.28939
 30
0.000000
  70
    32
  0
VERTEX
  8
1
  5
4D8CF
 10
36.8195
 20
8.28838
 30
0.000000
  70
    32
  0
VERTEX
  8
1
  5
4D8D0
 10
36.8110
 20
8.28727
 30
0.000000
  70
    32
  0
VERTEX
  8
1
  5
4D8D1
 10
36.8026
 20
8.28605
 30
0.000000
  70
    32
  0
VERTEX
  8
1
  5
4D8D2
 10
36.7942
 20
8.28473
 30
0.000000
  70
    32
  0
VERTEX
  8
1
  5
4D8D3
 10
36.7859
 20
8.28330
 30
0.000000
  70
    32
  0
VERTEX
  8
1
  5
4D8D4
 10
36.7775
 20
8.28177
 30
0.000000
  70
    32
  0
VERTEX
  8
1
  5
4D8D5
 10
36.7692
 20
8.28014
 30
0.000000
  70
    32
  0
VERTEX
  8
1
  5
4D8D6
 10
36.7608
 20
8.27841
 30
0.000000
  70
    32
  0
SEQEND
  8
1
  5
4D8D7
  0
POLYLINE
  5
4D519
  8
1
 10
39.015503375594591
 20
8.1596868790649975
 30
0.0
 66
     1
 70
     8
  0
VERTEX
  8
1
  5
4D8D8
 10
39.0155
 20
8.15969
 30
0.000000
  70
    32
  0
VERTEX
  8
1
  5
4D8D9
 10
39.0074
 20
8.16229
 30
0.000000
  70
    32
  0
VERTEX
  8
1
  5
4D8DA
 10
38.9993
 20
8.16480
 30
0.000000
  70
    32
  0
VERTEX
  8
1
  5
4D8DB
 10
38.9911
 20
8.16720
 30
0.000000
  70
    32
  0
VERTEX
  8
1
  5
4D8DC
 10
38.9829
 20
8.16951
 30
0.000000
  70
    32
  0
VERTEX
  8
1
  5
4D8DD
 10
38.9747
 20
8.17171
 30
0.000000
  70
    32
  0
VERTEX
  8
1
  5
4D8DE
 10
38.9664
 20
8.17381
 30
0.000000
  70
    32
  0
VERTEX
  8
1
  5
4D8DF
 10
38.9582
 20
8.17581
 30
0.000000
  70
    32
  0
VERTEX
  8
1
  5
4D8E0
 10
38.9499
 20
8.17770
 30
0.000000
  70
    32
  0
VERTEX
  8
1
  5
4D8E1
 10
38.9416
 20
8.17950
 30
0.000000
  70
    32
  0
VERTEX
  8
1
  5
4D8E2
 10
38.9332
 20
8.18119
 30
0.000000
  70
    32
  0
VERTEX
  8
1
  5
4D8E3
 10
38.9249
 20
8.18278
 30
0.000000
  70
    32
  0
VERTEX
  8
1
  5
4D8E4
 10
38.9165
 20
8.18426
 30
0.000000
  70
    32
  0
VERTEX
  8
1
  5
4D8E5
 10
38.9081
 20
8.18564
 30
0.000000
  70
    32
  0
VERTEX
  8
1
  5
4D8E6
 10
38.8997
 20
8.18692
 30
0.000000
  70
    32
  0
VERTEX
  8
1
  5
4D8E7
 10
38.8913
 20
8.18809
 30
0.000000
  70
    32
  0
VERTEX
  8
1
  5
4D8E8
 10
38.8828
 20
8.18916
 30
0.000000
  70
    32
  0
VERTEX
  8
1
  5
4D8E9
 10
38.8744
 20
8.19012
 30
0.000000
  70
    32
  0
VERTEX
  8
1
  5
4D8EA
 10
38.8659
 20
8.19098
 30
0.000000
  70
    32
  0
VERTEX
  8
1
  5
4D8EB
 10
38.8574
 20
8.19173
 30
0.000000
  70
    32
  0
VERTEX
  8
1
  5
4D8EC
 10
38.8489
 20
8.19238
 30
0.000000
  70
    32
  0
VERTEX
  8
1
  5
4D8ED
 10
38.8405
 20
8.19293
 30
0.000000
  70
    32
  0
VERTEX
  8
1
  5
4D8EE
 10
38.8320
 20
8.19337
 30
0.000000
  70
    32
  0
VERTEX
  8
1
  5
4D8EF
 10
38.8235
 20
8.19370
 30
0.000000
  70
    32
  0
VERTEX
  8
1
  5
4D8F0
 10
38.8150
 20
8.19393
 30
0.000000
  70
    32
  0
VERTEX
  8
1
  5
4D8F1
 10
38.8064
 20
8.19405
 30
0.000000
  70
    32
  0
VERTEX
  8
1
  5
4D8F2
 10
38.7979
 20
8.19407
 30
0.000000
  70
    32
  0
VERTEX
  8
1
  5
4D8F3
 10
38.7894
 20
8.19399
 30
0.000000
  70
    32
  0
VERTEX
  8
1
  5
4D8F4
 10
38.7809
 20
8.19380
 30
0.000000
  70
    32
  0
VERTEX
  8
1
  5
4D8F5
 10
38.7724
 20
8.19350
 30
0.000000
  70
    32
  0
VERTEX
  8
1
  5
4D8F6
 10
38.7639
 20
8.19310
 30
0.000000
  70
    32
  0
VERTEX
  8
1
  5
4D8F7
 10
38.7554
 20
8.19259
 30
0.000000
  70
    32
  0
VERTEX
  8
1
  5
4D8F8
 10
38.7470
 20
8.19198
 30
0.000000
  70
    32
  0
VERTEX
  8
1
  5
4D8F9
 10
38.7385
 20
8.19127
 30
0.000000
  70
    32
  0
VERTEX
  8
1
  5
4D8FA
 10
38.7300
 20
8.19044
 30
0.000000
  70
    32
  0
VERTEX
  8
1
  5
4D8FB
 10
38.7215
 20
8.18952
 30
0.000000
  70
    32
  0
VERTEX
  8
1
  5
4D8FC
 10
38.7131
 20
8.18849
 30
0.000000
  70
    32
  0
VERTEX
  8
1
  5
4D8FD
 10
38.7047
 20
8.18735
 30
0.000000
  70
    32
  0
VERTEX
  8
1
  5
4D8FE
 10
38.6963
 20
8.18612
 30
0.000000
  70
    32
  0
VERTEX
  8
1
  5
4D8FF
 10
38.6879
 20
8.18477
 30
0.000000
  70
    32
  0
VERTEX
  8
1
  5
4D900
 10
38.6795
 20
8.18333
 30
0.000000
  70
    32
  0
VERTEX
  8
1
  5
4D901
 10
38.6711
 20
8.18178
 30
0.000000
  70
    32
  0
VERTEX
  8
1
  5
4D902
 10
38.6628
 20
8.18012
 30
0.000000
  70
    32
  0
VERTEX
  8
1
  5
4D903
 10
38.6544
 20
8.17837
 30
0.000000
  70
    32
  0
VERTEX
  8
1
  5
4D904
 10
38.6461
 20
8.17651
 30
0.000000
  70
    32
  0
VERTEX
  8
1
  5
4D905
 10
38.6378
 20
8.17455
 30
0.000000
  70
    32
  0
VERTEX
  8
1
  5
4D906
 10
38.6296
 20
8.17249
 30
0.000000
  70
    32
  0
VERTEX
  8
1
  5
4D907
 10
38.6214
 20
8.17032
 30
0.000000
  70
    32
  0
VERTEX
  8
1
  5
4D908
 10
38.6132
 20
8.16805
 30
0.000000
  70
    32
  0
VERTEX
  8
1
  5
4D909
 10
38.6050
 20
8.16569
 30
0.000000
  70
    32
  0
VERTEX
  8
1
  5
4D90A
 10
38.5968
 20
8.16322
 30
0.000000
  70
    32
  0
VERTEX
  8
1
  5
4D90B
 10
38.5887
 20
8.16065
 30
0.000000
  70
    32
  0
VERTEX
  8
1
  5
4D90C
 10
38.5807
 20
8.15798
 30
0.000000
  70
    32
  0
VERTEX
  8
1
  5
4D90D
 10
38.5726
 20
8.15521
 30
0.000000
  70
    32
  0
VERTEX
  8
1
  5
4D90E
 10
38.5646
 20
8.15234
 30
0.000000
  70
    32
  0
VERTEX
  8
1
  5
4D90F
 10
38.5566
 20
8.14937
 30
0.000000
  70
    32
  0
VERTEX
  8
1
  5
4D910
 10
38.5487
 20
8.14631
 30
0.000000
  70
    32
  0
VERTEX
  8
1
  5
4D911
 10
38.5408
 20
8.14314
 30
0.000000
  70
    32
  0
VERTEX
  8
1
  5
4D912
 10
38.5329
 20
8.13988
 30
0.000000
  70
    32
  0
VERTEX
  8
1
  5
4D913
 10
38.5251
 20
8.13652
 30
0.000000
  70
    32
  0
VERTEX
  8
1
  5
4D914
 10
38.5173
 20
8.13307
 30
0.000000
  70
    32
  0
VERTEX
  8
1
  5
4D915
 10
38.5096
 20
8.12952
 30
0.000000
  70
    32
  0
VERTEX
  8
1
  5
4D916
 10
38.5019
 20
8.12587
 30
0.000000
  70
    32
  0
VERTEX
  8
1
  5
4D917
 10
38.4942
 20
8.12213
 30
0.000000
  70
    32
  0
VERTEX
  8
1
  5
4D918
 10
38.4866
 20
8.11830
 30
0.000000
  70
    32
  0
VERTEX
  8
1
  5
4D919
 10
38.4791
 20
8.11437
 30
0.000000
  70
    32
  0
VERTEX
  8
1
  5
4D91A
 10
38.4716
 20
8.11035
 30
0.000000
  70
    32
  0
VERTEX
  8
1
  5
4D91B
 10
38.4641
 20
8.10623
 30
0.000000
  70
    32
  0
VERTEX
  8
1
  5
4D91C
 10
38.4567
 20
8.10203
 30
0.000000
  70
    32
  0
VERTEX
  8
1
  5
4D91D
 10
38.4494
 20
8.09773
 30
0.000000
  70
    32
  0
VERTEX
  8
1
  5
4D91E
 10
38.4421
 20
8.09334
 30
0.000000
  70
    32
  0
VERTEX
  8
1
  5
4D91F
 10
38.4348
 20
8.08887
 30
0.000000
  70
    32
  0
VERTEX
  8
1
  5
4D920
 10
38.4276
 20
8.08430
 30
0.000000
  70
    32
  0
VERTEX
  8
1
  5
4D921
 10
38.4205
 20
8.07964
 30
0.000000
  70
    32
  0
VERTEX
  8
1
  5
4D922
 10
38.4134
 20
8.07490
 30
0.000000
  70
    32
  0
VERTEX
  8
1
  5
4D923
 10
38.4064
 20
8.07007
 30
0.000000
  70
    32
  0
VERTEX
  8
1
  5
4D924
 10
38.3995
 20
8.06516
 30
0.000000
  70
    32
  0
VERTEX
  8
1
  5
4D925
 10
38.3926
 20
8.06015
 30
0.000000
  70
    32
  0
VERTEX
  8
1
  5
4D926
 10
38.3857
 20
8.05507
 30
0.000000
  70
    32
  0
VERTEX
  8
1
  5
4D927
 10
38.3790
 20
8.04990
 30
0.000000
  70
    32
  0
VERTEX
  8
1
  5
4D928
 10
38.3722
 20
8.04464
 30
0.000000
  70
    32
  0
VERTEX
  8
1
  5
4D929
 10
38.3656
 20
8.03930
 30
0.000000
  70
    32
  0
VERTEX
  8
1
  5
4D92A
 10
38.3590
 20
8.03389
 30
0.000000
  70
    32
  0
VERTEX
  8
1
  5
4D92B
 10
38.3525
 20
8.02839
 30
0.000000
  70
    32
  0
VERTEX
  8
1
  5
4D92C
 10
38.3461
 20
8.02281
 30
0.000000
  70
    32
  0
VERTEX
  8
1
  5
4D92D
 10
38.3397
 20
8.01715
 30
0.000000
  70
    32
  0
VERTEX
  8
1
  5
4D92E
 10
38.3334
 20
8.01141
 30
0.000000
  70
    32
  0
VERTEX
  8
1
  5
4D92F
 10
38.3272
 20
8.00560
 30
0.000000
  70
    32
  0
VERTEX
  8
1
  5
4D930
 10
38.3210
 20
7.99971
 30
0.000000
  70
    32
  0
VERTEX
  8
1
  5
4D931
 10
38.3149
 20
7.99374
 30
0.000000
  70
    32
  0
VERTEX
  8
1
  5
4D932
 10
38.3089
 20
7.98770
 30
0.000000
  70
    32
  0
VERTEX
  8
1
  5
4D933
 10
38.3030
 20
7.98158
 30
0.000000
  70
    32
  0
VERTEX
  8
1
  5
4D934
 10
38.2971
 20
7.97540
 30
0.000000
  70
    32
  0
VERTEX
  8
1
  5
4D935
 10
38.2913
 20
7.96914
 30
0.000000
  70
    32
  0
VERTEX
  8
1
  5
4D936
 10
38.2856
 20
7.96280
 30
0.000000
  70
    32
  0
VERTEX
  8
1
  5
4D937
 10
38.2800
 20
7.95640
 30
0.000000
  70
    32
  0
VERTEX
  8
1
  5
4D938
 10
38.2744
 20
7.94993
 30
0.000000
  70
    32
  0
VERTEX
  8
1
  5
4D939
 10
38.2690
 20
7.94339
 30
0.000000
  70
    32
  0
VERTEX
  8
1
  5
4D93A
 10
38.2636
 20
7.93679
 30
0.000000
  70
    32
  0
VERTEX
  8
1
  5
4D93B
 10
38.2583
 20
7.93012
 30
0.000000
  70
    32
  0
VERTEX
  8
1
  5
4D93C
 10
38.2530
 20
7.92338
 30
0.000000
  70
    32
  0
VERTEX
  8
1
  5
4D93D
 10
38.2479
 20
7.91658
 30
0.000000
  70
    32
  0
VERTEX
  8
1
  5
4D93E
 10
38.2428
 20
7.90971
 30
0.000000
  70
    32
  0
VERTEX
  8
1
  5
4D93F
 10
38.2379
 20
7.90279
 30
0.000000
  70
    32
  0
VERTEX
  8
1
  5
4D940
 10
38.2330
 20
7.89580
 30
0.000000
  70
    32
  0
VERTEX
  8
1
  5
4D941
 10
38.2282
 20
7.88875
 30
0.000000
  70
    32
  0
VERTEX
  8
1
  5
4D942
 10
38.2234
 20
7.88165
 30
0.000000
  70
    32
  0
VERTEX
  8
1
  5
4D943
 10
38.2188
 20
7.87448
 30
0.000000
  70
    32
  0
VERTEX
  8
1
  5
4D944
 10
38.2143
 20
7.86726
 30
0.000000
  70
    32
  0
VERTEX
  8
1
  5
4D945
 10
38.2098
 20
7.85999
 30
0.000000
  70
    32
  0
VERTEX
  8
1
  5
4D946
 10
38.2055
 20
7.85266
 30
0.000000
  70
    32
  0
VERTEX
  8
1
  5
4D947
 10
38.2012
 20
7.84527
 30
0.000000
  70
    32
  0
VERTEX
  8
1
  5
4D948
 10
38.1970
 20
7.83784
 30
0.000000
  70
    32
  0
VERTEX
  8
1
  5
4D949
 10
38.1929
 20
7.83035
 30
0.000000
  70
    32
  0
VERTEX
  8
1
  5
4D94A
 10
38.1889
 20
7.82281
 30
0.000000
  70
    32
  0
VERTEX
  8
1
  5
4D94B
 10
38.1850
 20
7.81523
 30
0.000000
  70
    32
  0
VERTEX
  8
1
  5
4D94C
 10
38.1812
 20
7.80759
 30
0.000000
  70
    32
  0
VERTEX
  8
1
  5
4D94D
 10
38.1775
 20
7.79991
 30
0.000000
  70
    32
  0
VERTEX
  8
1
  5
4D94E
 10
38.1738
 20
7.79219
 30
0.000000
  70
    32
  0
VERTEX
  8
1
  5
4D94F
 10
38.1703
 20
7.78442
 30
0.000000
  70
    32
  0
VERTEX
  8
1
  5
4D950
 10
38.1669
 20
7.77660
 30
0.000000
  70
    32
  0
VERTEX
  8
1
  5
4D951
 10
38.1635
 20
7.76875
 30
0.000000
  70
    32
  0
VERTEX
  8
1
  5
4D952
 10
38.1603
 20
7.76085
 30
0.000000
  70
    32
  0
VERTEX
  8
1
  5
4D953
 10
38.1572
 20
7.75292
 30
0.000000
  70
    32
  0
VERTEX
  8
1
  5
4D954
 10
38.1541
 20
7.74494
 30
0.000000
  70
    32
  0
VERTEX
  8
1
  5
4D955
 10
38.1512
 20
7.73693
 30
0.000000
  70
    32
  0
VERTEX
  8
1
  5
4D956
 10
38.1483
 20
7.72889
 30
0.000000
  70
    32
  0
VERTEX
  8
1
  5
4D957
 10
38.1456
 20
7.72081
 30
0.000000
  70
    32
  0
VERTEX
  8
1
  5
4D958
 10
38.1429
 20
7.71269
 30
0.000000
  70
    32
  0
SEQEND
  8
1
  5
4D959
  0
POLYLINE
  5
4D51A
  8
1
 10
39.373711268790551
 20
9.6151846412713002
 30
0.0
 66
     1
 70
     8
  0
VERTEX
  8
1
  5
4D95A
 10
39.3737
 20
9.61518
 30
0.000000
  70
    32
  0
VERTEX
  8
1
  5
4D95B
 10
39.3674
 20
9.60946
 30
0.000000
  70
    32
  0
VERTEX
  8
1
  5
4D95C
 10
39.3612
 20
9.60365
 30
0.000000
  70
    32
  0
VERTEX
  8
1
  5
4D95D
 10
39.3550
 20
9.59777
 30
0.000000
  70
    32
  0
VERTEX
  8
1
  5
4D95E
 10
39.3489
 20
9.59181
 30
0.000000
  70
    32
  0
VERTEX
  8
1
  5
4D95F
 10
39.3429
 20
9.58578
 30
0.000000
  70
    32
  0
VERTEX
  8
1
  5
4D960
 10
39.3370
 20
9.57967
 30
0.000000
  70
    32
  0
VERTEX
  8
1
  5
4D961
 10
39.3311
 20
9.57349
 30
0.000000
  70
    32
  0
VERTEX
  8
1
  5
4D962
 10
39.3253
 20
9.56724
 30
0.000000
  70
    32
  0
VERTEX
  8
1
  5
4D963
 10
39.3196
 20
9.56091
 30
0.000000
  70
    32
  0
VERTEX
  8
1
  5
4D964
 10
39.3140
 20
9.55452
 30
0.000000
  70
    32
  0
VERTEX
  8
1
  5
4D965
 10
39.3084
 20
9.54806
 30
0.000000
  70
    32
  0
VERTEX
  8
1
  5
4D966
 10
39.3029
 20
9.54153
 30
0.000000
  70
    32
  0
VERTEX
  8
1
  5
4D967
 10
39.2976
 20
9.53493
 30
0.000000
  70
    32
  0
VERTEX
  8
1
  5
4D968
 10
39.2922
 20
9.52827
 30
0.000000
  70
    32
  0
VERTEX
  8
1
  5
4D969
 10
39.2870
 20
9.52154
 30
0.000000
  70
    32
  0
VERTEX
  8
1
  5
4D96A
 10
39.2819
 20
9.51474
 30
0.000000
  70
    32
  0
VERTEX
  8
1
  5
4D96B
 10
39.2768
 20
9.50789
 30
0.000000
  70
    32
  0
VERTEX
  8
1
  5
4D96C
 10
39.2718
 20
9.50097
 30
0.000000
  70
    32
  0
VERTEX
  8
1
  5
4D96D
 10
39.2669
 20
9.49399
 30
0.000000
  70
    32
  0
VERTEX
  8
1
  5
4D96E
 10
39.2621
 20
9.48695
 30
0.000000
  70
    32
  0
VERTEX
  8
1
  5
4D96F
 10
39.2574
 20
9.47985
 30
0.000000
  70
    32
  0
VERTEX
  8
1
  5
4D970
 10
39.2528
 20
9.47270
 30
0.000000
  70
    32
  0
VERTEX
  8
1
  5
4D971
 10
39.2482
 20
9.46549
 30
0.000000
  70
    32
  0
VERTEX
  8
1
  5
4D972
 10
39.2438
 20
9.45822
 30
0.000000
  70
    32
  0
VERTEX
  8
1
  5
4D973
 10
39.2394
 20
9.45090
 30
0.000000
  70
    32
  0
VERTEX
  8
1
  5
4D974
 10
39.2351
 20
9.44352
 30
0.000000
  70
    32
  0
VERTEX
  8
1
  5
4D975
 10
39.2309
 20
9.43609
 30
0.000000
  70
    32
  0
VERTEX
  8
1
  5
4D976
 10
39.2268
 20
9.42861
 30
0.000000
  70
    32
  0
VERTEX
  8
1
  5
4D977
 10
39.2228
 20
9.42108
 30
0.000000
  70
    32
  0
VERTEX
  8
1
  5
4D978
 10
39.2189
 20
9.41350
 30
0.000000
  70
    32
  0
VERTEX
  8
1
  5
4D979
 10
39.2151
 20
9.40588
 30
0.000000
  70
    32
  0
VERTEX
  8
1
  5
4D97A
 10
39.2114
 20
9.39821
 30
0.000000
  70
    32
  0
VERTEX
  8
1
  5
4D97B
 10
39.2077
 20
9.39049
 30
0.000000
  70
    32
  0
VERTEX
  8
1
  5
4D97C
 10
39.2042
 20
9.38273
 30
0.000000
  70
    32
  0
VERTEX
  8
1
  5
4D97D
 10
39.2008
 20
9.37492
 30
0.000000
  70
    32
  0
VERTEX
  8
1
  5
4D97E
 10
39.1974
 20
9.36707
 30
0.000000
  70
    32
  0
VERTEX
  8
1
  5
4D97F
 10
39.1942
 20
9.35918
 30
0.000000
  70
    32
  0
VERTEX
  8
1
  5
4D980
 10
39.1910
 20
9.35126
 30
0.000000
  70
    32
  0
VERTEX
  8
1
  5
4D981
 10
39.1880
 20
9.34329
 30
0.000000
  70
    32
  0
VERTEX
  8
1
  5
4D982
 10
39.1850
 20
9.33529
 30
0.000000
  70
    32
  0
VERTEX
  8
1
  5
4D983
 10
39.1821
 20
9.32725
 30
0.000000
  70
    32
  0
VERTEX
  8
1
  5
4D984
 10
39.1794
 20
9.31917
 30
0.000000
  70
    32
  0
VERTEX
  8
1
  5
4D985
 10
39.1767
 20
9.31107
 30
0.000000
  70
    32
  0
VERTEX
  8
1
  5
4D986
 10
39.1742
 20
9.30293
 30
0.000000
  70
    32
  0
VERTEX
  8
1
  5
4D987
 10
39.1717
 20
9.29476
 30
0.000000
  70
    32
  0
VERTEX
  8
1
  5
4D988
 10
39.1694
 20
9.28656
 30
0.000000
  70
    32
  0
VERTEX
  8
1
  5
4D989
 10
39.1671
 20
9.27833
 30
0.000000
  70
    32
  0
VERTEX
  8
1
  5
4D98A
 10
39.1649
 20
9.27007
 30
0.000000
  70
    32
  0
VERTEX
  8
1
  5
4D98B
 10
39.1629
 20
9.26179
 30
0.000000
  70
    32
  0
VERTEX
  8
1
  5
4D98C
 10
39.1609
 20
9.25348
 30
0.000000
  70
    32
  0
VERTEX
  8
1
  5
4D98D
 10
39.1591
 20
9.24515
 30
0.000000
  70
    32
  0
VERTEX
  8
1
  5
4D98E
 10
39.1573
 20
9.23680
 30
0.000000
  70
    32
  0
VERTEX
  8
1
  5
4D98F
 10
39.1557
 20
9.22843
 30
0.000000
  70
    32
  0
VERTEX
  8
1
  5
4D990
 10
39.1541
 20
9.22004
 30
0.000000
  70
    32
  0
VERTEX
  8
1
  5
4D991
 10
39.1527
 20
9.21162
 30
0.000000
  70
    32
  0
VERTEX
  8
1
  5
4D992
 10
39.1514
 20
9.20319
 30
0.000000
  70
    32
  0
VERTEX
  8
1
  5
4D993
 10
39.1501
 20
9.19475
 30
0.000000
  70
    32
  0
VERTEX
  8
1
  5
4D994
 10
39.1490
 20
9.18629
 30
0.000000
  70
    32
  0
VERTEX
  8
1
  5
4D995
 10
39.1480
 20
9.17782
 30
0.000000
  70
    32
  0
VERTEX
  8
1
  5
4D996
 10
39.1470
 20
9.16933
 30
0.000000
  70
    32
  0
VERTEX
  8
1
  5
4D997
 10
39.1462
 20
9.16084
 30
0.000000
  70
    32
  0
VERTEX
  8
1
  5
4D998
 10
39.1455
 20
9.15233
 30
0.000000
  70
    32
  0
VERTEX
  8
1
  5
4D999
 10
39.1449
 20
9.14382
 30
0.000000
  70
    32
  0
VERTEX
  8
1
  5
4D99A
 10
39.1444
 20
9.13530
 30
0.000000
  70
    32
  0
VERTEX
  8
1
  5
4D99B
 10
39.1440
 20
9.12677
 30
0.000000
  70
    32
  0
VERTEX
  8
1
  5
4D99C
 10
39.1437
 20
9.11824
 30
0.000000
  70
    32
  0
VERTEX
  8
1
  5
4D99D
 10
39.1435
 20
9.10971
 30
0.000000
  70
    32
  0
VERTEX
  8
1
  5
4D99E
 10
39.1434
 20
9.10118
 30
0.000000
  70
    32
  0
VERTEX
  8
1
  5
4D99F
 10
39.1434
 20
9.09264
 30
0.000000
  70
    32
  0
VERTEX
  8
1
  5
4D9A0
 10
39.1435
 20
9.08411
 30
0.000000
  70
    32
  0
VERTEX
  8
1
  5
4D9A1
 10
39.1438
 20
9.07557
 30
0.000000
  70
    32
  0
VERTEX
  8
1
  5
4D9A2
 10
39.1441
 20
9.06705
 30
0.000000
  70
    32
  0
VERTEX
  8
1
  5
4D9A3
 10
39.1445
 20
9.05852
 30
0.000000
  70
    32
  0
VERTEX
  8
1
  5
4D9A4
 10
39.1451
 20
9.05000
 30
0.000000
  70
    32
  0
VERTEX
  8
1
  5
4D9A5
 10
39.1457
 20
9.04149
 30
0.000000
  70
    32
  0
VERTEX
  8
1
  5
4D9A6
 10
39.1465
 20
9.03299
 30
0.000000
  70
    32
  0
VERTEX
  8
1
  5
4D9A7
 10
39.1473
 20
9.02450
 30
0.000000
  70
    32
  0
VERTEX
  8
1
  5
4D9A8
 10
39.1483
 20
9.01602
 30
0.000000
  70
    32
  0
VERTEX
  8
1
  5
4D9A9
 10
39.1493
 20
9.00755
 30
0.000000
  70
    32
  0
VERTEX
  8
1
  5
4D9AA
 10
39.1505
 20
8.99909
 30
0.000000
  70
    32
  0
VERTEX
  8
1
  5
4D9AB
 10
39.1518
 20
8.99066
 30
0.000000
  70
    32
  0
VERTEX
  8
1
  5
4D9AC
 10
39.1531
 20
8.98223
 30
0.000000
  70
    32
  0
VERTEX
  8
1
  5
4D9AD
 10
39.1546
 20
8.97383
 30
0.000000
  70
    32
  0
VERTEX
  8
1
  5
4D9AE
 10
39.1562
 20
8.96544
 30
0.000000
  70
    32
  0
VERTEX
  8
1
  5
4D9AF
 10
39.1579
 20
8.95707
 30
0.000000
  70
    32
  0
VERTEX
  8
1
  5
4D9B0
 10
39.1597
 20
8.94873
 30
0.000000
  70
    32
  0
VERTEX
  8
1
  5
4D9B1
 10
39.1615
 20
8.94040
 30
0.000000
  70
    32
  0
VERTEX
  8
1
  5
4D9B2
 10
39.1635
 20
8.93210
 30
0.000000
  70
    32
  0
VERTEX
  8
1
  5
4D9B3
 10
39.1656
 20
8.92383
 30
0.000000
  70
    32
  0
VERTEX
  8
1
  5
4D9B4
 10
39.1678
 20
8.91558
 30
0.000000
  70
    32
  0
VERTEX
  8
1
  5
4D9B5
 10
39.1701
 20
8.90736
 30
0.000000
  70
    32
  0
VERTEX
  8
1
  5
4D9B6
 10
39.1725
 20
8.89917
 30
0.000000
  70
    32
  0
VERTEX
  8
1
  5
4D9B7
 10
39.1750
 20
8.89101
 30
0.000000
  70
    32
  0
VERTEX
  8
1
  5
4D9B8
 10
39.1776
 20
8.88288
 30
0.000000
  70
    32
  0
VERTEX
  8
1
  5
4D9B9
 10
39.1803
 20
8.87479
 30
0.000000
  70
    32
  0
VERTEX
  8
1
  5
4D9BA
 10
39.1831
 20
8.86672
 30
0.000000
  70
    32
  0
VERTEX
  8
1
  5
4D9BB
 10
39.1859
 20
8.85870
 30
0.000000
  70
    32
  0
VERTEX
  8
1
  5
4D9BC
 10
39.1889
 20
8.85070
 30
0.000000
  70
    32
  0
VERTEX
  8
1
  5
4D9BD
 10
39.1920
 20
8.84275
 30
0.000000
  70
    32
  0
VERTEX
  8
1
  5
4D9BE
 10
39.1952
 20
8.83484
 30
0.000000
  70
    32
  0
VERTEX
  8
1
  5
4D9BF
 10
39.1985
 20
8.82696
 30
0.000000
  70
    32
  0
VERTEX
  8
1
  5
4D9C0
 10
39.2018
 20
8.81913
 30
0.000000
  70
    32
  0
VERTEX
  8
1
  5
4D9C1
 10
39.2053
 20
8.81133
 30
0.000000
  70
    32
  0
VERTEX
  8
1
  5
4D9C2
 10
39.2089
 20
8.80359
 30
0.000000
  70
    32
  0
VERTEX
  8
1
  5
4D9C3
 10
39.2125
 20
8.79588
 30
0.000000
  70
    32
  0
VERTEX
  8
1
  5
4D9C4
 10
39.2163
 20
8.78822
 30
0.000000
  70
    32
  0
VERTEX
  8
1
  5
4D9C5
 10
39.2201
 20
8.78061
 30
0.000000
  70
    32
  0
VERTEX
  8
1
  5
4D9C6
 10
39.2241
 20
8.77305
 30
0.000000
  70
    32
  0
VERTEX
  8
1
  5
4D9C7
 10
39.2281
 20
8.76554
 30
0.000000
  70
    32
  0
VERTEX
  8
1
  5
4D9C8
 10
39.2322
 20
8.75807
 30
0.000000
  70
    32
  0
VERTEX
  8
1
  5
4D9C9
 10
39.2365
 20
8.75066
 30
0.000000
  70
    32
  0
VERTEX
  8
1
  5
4D9CA
 10
39.2408
 20
8.74330
 30
0.000000
  70
    32
  0
VERTEX
  8
1
  5
4D9CB
 10
39.2452
 20
8.73600
 30
0.000000
  70
    32
  0
VERTEX
  8
1
  5
4D9CC
 10
39.2497
 20
8.72875
 30
0.000000
  70
    32
  0
VERTEX
  8
1
  5
4D9CD
 10
39.2542
 20
8.72155
 30
0.000000
  70
    32
  0
VERTEX
  8
1
  5
4D9CE
 10
39.2589
 20
8.71442
 30
0.000000
  70
    32
  0
VERTEX
  8
1
  5
4D9CF
 10
39.2636
 20
8.70734
 30
0.000000
  70
    32
  0
VERTEX
  8
1
  5
4D9D0
 10
39.2685
 20
8.70032
 30
0.000000
  70
    32
  0
VERTEX
  8
1
  5
4D9D1
 10
39.2734
 20
8.69336
 30
0.000000
  70
    32
  0
VERTEX
  8
1
  5
4D9D2
 10
39.2784
 20
8.68646
 30
0.000000
  70
    32
  0
VERTEX
  8
1
  5
4D9D3
 10
39.2835
 20
8.67962
 30
0.000000
  70
    32
  0
VERTEX
  8
1
  5
4D9D4
 10
39.2887
 20
8.67285
 30
0.000000
  70
    32
  0
VERTEX
  8
1
  5
4D9D5
 10
39.2939
 20
8.66614
 30
0.000000
  70
    32
  0
VERTEX
  8
1
  5
4D9D6
 10
39.2993
 20
8.65950
 30
0.000000
  70
    32
  0
VERTEX
  8
1
  5
4D9D7
 10
39.3047
 20
8.65292
 30
0.000000
  70
    32
  0
VERTEX
  8
1
  5
4D9D8
 10
39.3102
 20
8.64642
 30
0.000000
  70
    32
  0
VERTEX
  8
1
  5
4D9D9
 10
39.3158
 20
8.63998
 30
0.000000
  70
    32
  0
VERTEX
  8
1
  5
4D9DA
 10
39.3214
 20
8.63360
 30
0.000000
  70
    32
  0
SEQEND
  8
1
  5
4D9DB
  0
POLYLINE
  5
4D51B
  8
1
 10
38.29665755062048
 20
10.652799411075941
 30
0.0
 66
     1
 70
     8
  0
VERTEX
  8
1
  5
4D9DC
 10
38.2967
 20
10.6528
 30
0.000000
  70
    32
  0
VERTEX
  8
1
  5
4D9DD
 10
38.2985
 20
10.6445
 30
0.000000
  70
    32
  0
VERTEX
  8
1
  5
4D9DE
 10
38.3004
 20
10.6362
 30
0.000000
  70
    32
  0
VERTEX
  8
1
  5
4D9DF
 10
38.3024
 20
10.6279
 30
0.000000
  70
    32
  0
VERTEX
  8
1
  5
4D9E0
 10
38.3045
 20
10.6196
 30
0.000000
  70
    32
  0
VERTEX
  8
1
  5
4D9E1
 10
38.3067
 20
10.6114
 30
0.000000
  70
    32
  0
VERTEX
  8
1
  5
4D9E2
 10
38.3090
 20
10.6032
 30
0.000000
  70
    32
  0
VERTEX
  8
1
  5
4D9E3
 10
38.3114
 20
10.5950
 30
0.000000
  70
    32
  0
VERTEX
  8
1
  5
4D9E4
 10
38.3139
 20
10.5868
 30
0.000000
  70
    32
  0
VERTEX
  8
1
  5
4D9E5
 10
38.3165
 20
10.5787
 30
0.000000
  70
    32
  0
VERTEX
  8
1
  5
4D9E6
 10
38.3192
 20
10.5706
 30
0.000000
  70
    32
  0
VERTEX
  8
1
  5
4D9E7
 10
38.3220
 20
10.5626
 30
0.000000
  70
    32
  0
VERTEX
  8
1
  5
4D9E8
 10
38.3249
 20
10.5546
 30
0.000000
  70
    32
  0
VERTEX
  8
1
  5
4D9E9
 10
38.3279
 20
10.5466
 30
0.000000
  70
    32
  0
VERTEX
  8
1
  5
4D9EA
 10
38.3310
 20
10.5386
 30
0.000000
  70
    32
  0
VERTEX
  8
1
  5
4D9EB
 10
38.3342
 20
10.5307
 30
0.000000
  70
    32
  0
VERTEX
  8
1
  5
4D9EC
 10
38.3375
 20
10.5229
 30
0.000000
  70
    32
  0
VERTEX
  8
1
  5
4D9ED
 10
38.3409
 20
10.5151
 30
0.000000
  70
    32
  0
VERTEX
  8
1
  5
4D9EE
 10
38.3444
 20
10.5073
 30
0.000000
  70
    32
  0
VERTEX
  8
1
  5
4D9EF
 10
38.3480
 20
10.4995
 30
0.000000
  70
    32
  0
VERTEX
  8
1
  5
4D9F0
 10
38.3517
 20
10.4919
 30
0.000000
  70
    32
  0
VERTEX
  8
1
  5
4D9F1
 10
38.3554
 20
10.4842
 30
0.000000
  70
    32
  0
VERTEX
  8
1
  5
4D9F2
 10
38.3593
 20
10.4766
 30
0.000000
  70
    32
  0
VERTEX
  8
1
  5
4D9F3
 10
38.3632
 20
10.4691
 30
0.000000
  70
    32
  0
VERTEX
  8
1
  5
4D9F4
 10
38.3673
 20
10.4616
 30
0.000000
  70
    32
  0
VERTEX
  8
1
  5
4D9F5
 10
38.3714
 20
10.4541
 30
0.000000
  70
    32
  0
VERTEX
  8
1
  5
4D9F6
 10
38.3757
 20
10.4467
 30
0.000000
  70
    32
  0
VERTEX
  8
1
  5
4D9F7
 10
38.3800
 20
10.4394
 30
0.000000
  70
    32
  0
VERTEX
  8
1
  5
4D9F8
 10
38.3844
 20
10.4321
 30
0.000000
  70
    32
  0
VERTEX
  8
1
  5
4D9F9
 10
38.3889
 20
10.4249
 30
0.000000
  70
    32
  0
VERTEX
  8
1
  5
4D9FA
 10
38.3935
 20
10.4177
 30
0.000000
  70
    32
  0
VERTEX
  8
1
  5
4D9FB
 10
38.3982
 20
10.4105
 30
0.000000
  70
    32
  0
VERTEX
  8
1
  5
4D9FC
 10
38.4029
 20
10.4035
 30
0.000000
  70
    32
  0
VERTEX
  8
1
  5
4D9FD
 10
38.4078
 20
10.3965
 30
0.000000
  70
    32
  0
VERTEX
  8
1
  5
4D9FE
 10
38.4127
 20
10.3895
 30
0.000000
  70
    32
  0
VERTEX
  8
1
  5
4D9FF
 10
38.4177
 20
10.3827
 30
0.000000
  70
    32
  0
VERTEX
  8
1
  5
4DA00
 10
38.4228
 20
10.3758
 30
0.000000
  70
    32
  0
VERTEX
  8
1
  5
4DA01
 10
38.4280
 20
10.3691
 30
0.000000
  70
    32
  0
VERTEX
  8
1
  5
4DA02
 10
38.4333
 20
10.3624
 30
0.000000
  70
    32
  0
VERTEX
  8
1
  5
4DA03
 10
38.4386
 20
10.3558
 30
0.000000
  70
    32
  0
VERTEX
  8
1
  5
4DA04
 10
38.4440
 20
10.3492
 30
0.000000
  70
    32
  0
VERTEX
  8
1
  5
4DA05
 10
38.4496
 20
10.3427
 30
0.000000
  70
    32
  0
VERTEX
  8
1
  5
4DA06
 10
38.4551
 20
10.3363
 30
0.000000
  70
    32
  0
VERTEX
  8
1
  5
4DA07
 10
38.4608
 20
10.3299
 30
0.000000
  70
    32
  0
VERTEX
  8
1
  5
4DA08
 10
38.4666
 20
10.3236
 30
0.000000
  70
    32
  0
VERTEX
  8
1
  5
4DA09
 10
38.4724
 20
10.3174
 30
0.000000
  70
    32
  0
VERTEX
  8
1
  5
4DA0A
 10
38.4783
 20
10.3113
 30
0.000000
  70
    32
  0
VERTEX
  8
1
  5
4DA0B
 10
38.4842
 20
10.3052
 30
0.000000
  70
    32
  0
VERTEX
  8
1
  5
4DA0C
 10
38.4903
 20
10.2992
 30
0.000000
  70
    32
  0
VERTEX
  8
1
  5
4DA0D
 10
38.4964
 20
10.2933
 30
0.000000
  70
    32
  0
VERTEX
  8
1
  5
4DA0E
 10
38.5026
 20
10.2875
 30
0.000000
  70
    32
  0
VERTEX
  8
1
  5
4DA0F
 10
38.5089
 20
10.2817
 30
0.000000
  70
    32
  0
VERTEX
  8
1
  5
4DA10
 10
38.5152
 20
10.2760
 30
0.000000
  70
    32
  0
VERTEX
  8
1
  5
4DA11
 10
38.5216
 20
10.2704
 30
0.000000
  70
    32
  0
VERTEX
  8
1
  5
4DA12
 10
38.5281
 20
10.2649
 30
0.000000
  70
    32
  0
VERTEX
  8
1
  5
4DA13
 10
38.5346
 20
10.2594
 30
0.000000
  70
    32
  0
VERTEX
  8
1
  5
4DA14
 10
38.5412
 20
10.2541
 30
0.000000
  70
    32
  0
VERTEX
  8
1
  5
4DA15
 10
38.5479
 20
10.2488
 30
0.000000
  70
    32
  0
VERTEX
  8
1
  5
4DA16
 10
38.5546
 20
10.2436
 30
0.000000
  70
    32
  0
VERTEX
  8
1
  5
4DA17
 10
38.5614
 20
10.2385
 30
0.000000
  70
    32
  0
VERTEX
  8
1
  5
4DA18
 10
38.5683
 20
10.2334
 30
0.000000
  70
    32
  0
VERTEX
  8
1
  5
4DA19
 10
38.5752
 20
10.2285
 30
0.000000
  70
    32
  0
VERTEX
  8
1
  5
4DA1A
 10
38.5822
 20
10.2236
 30
0.000000
  70
    32
  0
VERTEX
  8
1
  5
4DA1B
 10
38.5892
 20
10.2188
 30
0.000000
  70
    32
  0
VERTEX
  8
1
  5
4DA1C
 10
38.5963
 20
10.2141
 30
0.000000
  70
    32
  0
VERTEX
  8
1
  5
4DA1D
 10
38.6034
 20
10.2095
 30
0.000000
  70
    32
  0
VERTEX
  8
1
  5
4DA1E
 10
38.6106
 20
10.2050
 30
0.000000
  70
    32
  0
VERTEX
  8
1
  5
4DA1F
 10
38.6179
 20
10.2006
 30
0.000000
  70
    32
  0
VERTEX
  8
1
  5
4DA20
 10
38.6252
 20
10.1963
 30
0.000000
  70
    32
  0
VERTEX
  8
1
  5
4DA21
 10
38.6326
 20
10.1920
 30
0.000000
  70
    32
  0
VERTEX
  8
1
  5
4DA22
 10
38.6400
 20
10.1879
 30
0.000000
  70
    32
  0
VERTEX
  8
1
  5
4DA23
 10
38.6475
 20
10.1838
 30
0.000000
  70
    32
  0
VERTEX
  8
1
  5
4DA24
 10
38.6550
 20
10.1798
 30
0.000000
  70
    32
  0
VERTEX
  8
1
  5
4DA25
 10
38.6626
 20
10.1760
 30
0.000000
  70
    32
  0
VERTEX
  8
1
  5
4DA26
 10
38.6702
 20
10.1722
 30
0.000000
  70
    32
  0
VERTEX
  8
1
  5
4DA27
 10
38.6779
 20
10.1685
 30
0.000000
  70
    32
  0
VERTEX
  8
1
  5
4DA28
 10
38.6856
 20
10.1649
 30
0.000000
  70
    32
  0
VERTEX
  8
1
  5
4DA29
 10
38.6933
 20
10.1614
 30
0.000000
  70
    32
  0
VERTEX
  8
1
  5
4DA2A
 10
38.7011
 20
10.1580
 30
0.000000
  70
    32
  0
VERTEX
  8
1
  5
4DA2B
 10
38.7089
 20
10.1547
 30
0.000000
  70
    32
  0
VERTEX
  8
1
  5
4DA2C
 10
38.7168
 20
10.1515
 30
0.000000
  70
    32
  0
VERTEX
  8
1
  5
4DA2D
 10
38.7247
 20
10.1484
 30
0.000000
  70
    32
  0
VERTEX
  8
1
  5
4DA2E
 10
38.7327
 20
10.1454
 30
0.000000
  70
    32
  0
VERTEX
  8
1
  5
4DA2F
 10
38.7407
 20
10.1425
 30
0.000000
  70
    32
  0
VERTEX
  8
1
  5
4DA30
 10
38.7487
 20
10.1396
 30
0.000000
  70
    32
  0
VERTEX
  8
1
  5
4DA31
 10
38.7567
 20
10.1369
 30
0.000000
  70
    32
  0
VERTEX
  8
1
  5
4DA32
 10
38.7648
 20
10.1343
 30
0.000000
  70
    32
  0
VERTEX
  8
1
  5
4DA33
 10
38.7729
 20
10.1318
 30
0.000000
  70
    32
  0
VERTEX
  8
1
  5
4DA34
 10
38.7811
 20
10.1294
 30
0.000000
  70
    32
  0
VERTEX
  8
1
  5
4DA35
 10
38.7893
 20
10.1271
 30
0.000000
  70
    32
  0
VERTEX
  8
1
  5
4DA36
 10
38.7975
 20
10.1248
 30
0.000000
  70
    32
  0
VERTEX
  8
1
  5
4DA37
 10
38.8057
 20
10.1227
 30
0.000000
  70
    32
  0
VERTEX
  8
1
  5
4DA38
 10
38.8140
 20
10.1207
 30
0.000000
  70
    32
  0
VERTEX
  8
1
  5
4DA39
 10
38.8222
 20
10.1188
 30
0.000000
  70
    32
  0
VERTEX
  8
1
  5
4DA3A
 10
38.8305
 20
10.1170
 30
0.000000
  70
    32
  0
VERTEX
  8
1
  5
4DA3B
 10
38.8389
 20
10.1153
 30
0.000000
  70
    32
  0
VERTEX
  8
1
  5
4DA3C
 10
38.8472
 20
10.1137
 30
0.000000
  70
    32
  0
VERTEX
  8
1
  5
4DA3D
 10
38.8556
 20
10.1122
 30
0.000000
  70
    32
  0
VERTEX
  8
1
  5
4DA3E
 10
38.8640
 20
10.1108
 30
0.000000
  70
    32
  0
VERTEX
  8
1
  5
4DA3F
 10
38.8724
 20
10.1095
 30
0.000000
  70
    32
  0
VERTEX
  8
1
  5
4DA40
 10
38.8808
 20
10.1083
 30
0.000000
  70
    32
  0
VERTEX
  8
1
  5
4DA41
 10
38.8892
 20
10.1073
 30
0.000000
  70
    32
  0
VERTEX
  8
1
  5
4DA42
 10
38.8976
 20
10.1063
 30
0.000000
  70
    32
  0
VERTEX
  8
1
  5
4DA43
 10
38.9061
 20
10.1054
 30
0.000000
  70
    32
  0
VERTEX
  8
1
  5
4DA44
 10
38.9146
 20
10.1046
 30
0.000000
  70
    32
  0
VERTEX
  8
1
  5
4DA45
 10
38.9230
 20
10.1040
 30
0.000000
  70
    32
  0
VERTEX
  8
1
  5
4DA46
 10
38.9315
 20
10.1034
 30
0.000000
  70
    32
  0
VERTEX
  8
1
  5
4DA47
 10
38.9400
 20
10.1029
 30
0.000000
  70
    32
  0
VERTEX
  8
1
  5
4DA48
 10
38.9485
 20
10.1026
 30
0.000000
  70
    32
  0
VERTEX
  8
1
  5
4DA49
 10
38.9570
 20
10.1024
 30
0.000000
  70
    32
  0
VERTEX
  8
1
  5
4DA4A
 10
38.9655
 20
10.1022
 30
0.000000
  70
    32
  0
VERTEX
  8
1
  5
4DA4B
 10
38.9740
 20
10.1022
 30
0.000000
  70
    32
  0
VERTEX
  8
1
  5
4DA4C
 10
38.9825
 20
10.1022
 30
0.000000
  70
    32
  0
VERTEX
  8
1
  5
4DA4D
 10
38.9910
 20
10.1024
 30
0.000000
  70
    32
  0
VERTEX
  8
1
  5
4DA4E
 10
38.9994
 20
10.1027
 30
0.000000
  70
    32
  0
VERTEX
  8
1
  5
4DA4F
 10
39.0079
 20
10.1031
 30
0.000000
  70
    32
  0
VERTEX
  8
1
  5
4DA50
 10
39.0164
 20
10.1036
 30
0.000000
  70
    32
  0
VERTEX
  8
1
  5
4DA51
 10
39.0249
 20
10.1042
 30
0.000000
  70
    32
  0
VERTEX
  8
1
  5
4DA52
 10
39.0334
 20
10.1049
 30
0.000000
  70
    32
  0
VERTEX
  8
1
  5
4DA53
 10
39.0418
 20
10.1057
 30
0.000000
  70
    32
  0
VERTEX
  8
1
  5
4DA54
 10
39.0503
 20
10.1066
 30
0.000000
  70
    32
  0
VERTEX
  8
1
  5
4DA55
 10
39.0587
 20
10.1076
 30
0.000000
  70
    32
  0
VERTEX
  8
1
  5
4DA56
 10
39.0671
 20
10.1087
 30
0.000000
  70
    32
  0
VERTEX
  8
1
  5
4DA57
 10
39.0755
 20
10.1099
 30
0.000000
  70
    32
  0
VERTEX
  8
1
  5
4DA58
 10
39.0839
 20
10.1112
 30
0.000000
  70
    32
  0
VERTEX
  8
1
  5
4DA59
 10
39.0923
 20
10.1126
 30
0.000000
  70
    32
  0
VERTEX
  8
1
  5
4DA5A
 10
39.1007
 20
10.1142
 30
0.000000
  70
    32
  0
VERTEX
  8
1
  5
4DA5B
 10
39.1090
 20
10.1158
 30
0.000000
  70
    32
  0
VERTEX
  8
1
  5
4DA5C
 10
39.1173
 20
10.1175
 30
0.000000
  70
    32
  0
SEQEND
  8
1
  5
4DA5D
  0
POLYLINE
  5
4D51C
  8
1
 10
36.86266657856811
 20
10.236263660789231
 30
0.0
 66
     1
 70
     8
  0
VERTEX
  8
1
  5
4DA5E
 10
36.8627
 20
10.2363
 30
0.000000
  70
    32
  0
VERTEX
  8
1
  5
4DA5F
 10
36.8708
 20
10.2337
 30
0.000000
  70
    32
  0
VERTEX
  8
1
  5
4DA60
 10
36.8789
 20
10.2312
 30
0.000000
  70
    32
  0
VERTEX
  8
1
  5
4DA61
 10
36.8871
 20
10.2287
 30
0.000000
  70
    32
  0
VERTEX
  8
1
  5
4DA62
 10
36.8953
 20
10.2264
 30
0.000000
  70
    32
  0
VERTEX
  8
1
  5
4DA63
 10
36.9035
 20
10.2242
 30
0.000000
  70
    32
  0
VERTEX
  8
1
  5
4DA64
 10
36.9117
 20
10.2221
 30
0.000000
  70
    32
  0
VERTEX
  8
1
  5
4DA65
 10
36.9200
 20
10.2201
 30
0.000000
  70
    32
  0
VERTEX
  8
1
  5
4DA66
 10
36.9283
 20
10.2182
 30
0.000000
  70
    32
  0
VERTEX
  8
1
  5
4DA67
 10
36.9366
 20
10.2165
 30
0.000000
  70
    32
  0
VERTEX
  8
1
  5
4DA68
 10
36.9449
 20
10.2148
 30
0.000000
  70
    32
  0
VERTEX
  8
1
  5
4DA69
 10
36.9533
 20
10.2132
 30
0.000000
  70
    32
  0
VERTEX
  8
1
  5
4DA6A
 10
36.9617
 20
10.2117
 30
0.000000
  70
    32
  0
VERTEX
  8
1
  5
4DA6B
 10
36.9701
 20
10.2103
 30
0.000000
  70
    32
  0
VERTEX
  8
1
  5
4DA6C
 10
36.9785
 20
10.2090
 30
0.000000
  70
    32
  0
VERTEX
  8
1
  5
4DA6D
 10
36.9869
 20
10.2079
 30
0.000000
  70
    32
  0
VERTEX
  8
1
  5
4DA6E
 10
36.9954
 20
10.2068
 30
0.000000
  70
    32
  0
VERTEX
  8
1
  5
4DA6F
 10
37.0038
 20
10.2058
 30
0.000000
  70
    32
  0
VERTEX
  8
1
  5
4DA70
 10
37.0123
 20
10.2050
 30
0.000000
  70
    32
  0
VERTEX
  8
1
  5
4DA71
 10
37.0207
 20
10.2042
 30
0.000000
  70
    32
  0
VERTEX
  8
1
  5
4DA72
 10
37.0292
 20
10.2036
 30
0.000000
  70
    32
  0
VERTEX
  8
1
  5
4DA73
 10
37.0377
 20
10.2030
 30
0.000000
  70
    32
  0
VERTEX
  8
1
  5
4DA74
 10
37.0462
 20
10.2026
 30
0.000000
  70
    32
  0
VERTEX
  8
1
  5
4DA75
 10
37.0547
 20
10.2022
 30
0.000000
  70
    32
  0
VERTEX
  8
1
  5
4DA76
 10
37.0632
 20
10.2020
 30
0.000000
  70
    32
  0
VERTEX
  8
1
  5
4DA77
 10
37.0717
 20
10.2019
 30
0.000000
  70
    32
  0
VERTEX
  8
1
  5
4DA78
 10
37.0802
 20
10.2019
 30
0.000000
  70
    32
  0
VERTEX
  8
1
  5
4DA79
 10
37.0887
 20
10.2020
 30
0.000000
  70
    32
  0
VERTEX
  8
1
  5
4DA7A
 10
37.0972
 20
10.2022
 30
0.000000
  70
    32
  0
VERTEX
  8
1
  5
4DA7B
 10
37.1057
 20
10.2025
 30
0.000000
  70
    32
  0
VERTEX
  8
1
  5
4DA7C
 10
37.1142
 20
10.2029
 30
0.000000
  70
    32
  0
VERTEX
  8
1
  5
4DA7D
 10
37.1227
 20
10.2034
 30
0.000000
  70
    32
  0
VERTEX
  8
1
  5
4DA7E
 10
37.1312
 20
10.2040
 30
0.000000
  70
    32
  0
VERTEX
  8
1
  5
4DA7F
 10
37.1397
 20
10.2047
 30
0.000000
  70
    32
  0
VERTEX
  8
1
  5
4DA80
 10
37.1482
 20
10.2055
 30
0.000000
  70
    32
  0
VERTEX
  8
1
  5
4DA81
 10
37.1566
 20
10.2064
 30
0.000000
  70
    32
  0
VERTEX
  8
1
  5
4DA82
 10
37.1651
 20
10.2075
 30
0.000000
  70
    32
  0
VERTEX
  8
1
  5
4DA83
 10
37.1735
 20
10.2086
 30
0.000000
  70
    32
  0
VERTEX
  8
1
  5
4DA84
 10
37.1819
 20
10.2098
 30
0.000000
  70
    32
  0
VERTEX
  8
1
  5
4DA85
 10
37.1903
 20
10.2112
 30
0.000000
  70
    32
  0
VERTEX
  8
1
  5
4DA86
 10
37.1987
 20
10.2126
 30
0.000000
  70
    32
  0
VERTEX
  8
1
  5
4DA87
 10
37.2071
 20
10.2142
 30
0.000000
  70
    32
  0
VERTEX
  8
1
  5
4DA88
 10
37.2154
 20
10.2158
 30
0.000000
  70
    32
  0
VERTEX
  8
1
  5
4DA89
 10
37.2237
 20
10.2176
 30
0.000000
  70
    32
  0
VERTEX
  8
1
  5
4DA8A
 10
37.2320
 20
10.2194
 30
0.000000
  70
    32
  0
VERTEX
  8
1
  5
4DA8B
 10
37.2403
 20
10.2214
 30
0.000000
  70
    32
  0
VERTEX
  8
1
  5
4DA8C
 10
37.2486
 20
10.2235
 30
0.000000
  70
    32
  0
VERTEX
  8
1
  5
4DA8D
 10
37.2568
 20
10.2256
 30
0.000000
  70
    32
  0
VERTEX
  8
1
  5
4DA8E
 10
37.2650
 20
10.2279
 30
0.000000
  70
    32
  0
VERTEX
  8
1
  5
4DA8F
 10
37.2732
 20
10.2303
 30
0.000000
  70
    32
  0
VERTEX
  8
1
  5
4DA90
 10
37.2813
 20
10.2327
 30
0.000000
  70
    32
  0
VERTEX
  8
1
  5
4DA91
 10
37.2894
 20
10.2353
 30
0.000000
  70
    32
  0
VERTEX
  8
1
  5
4DA92
 10
37.2975
 20
10.2380
 30
0.000000
  70
    32
  0
VERTEX
  8
1
  5
4DA93
 10
37.3056
 20
10.2407
 30
0.000000
  70
    32
  0
VERTEX
  8
1
  5
4DA94
 10
37.3136
 20
10.2436
 30
0.000000
  70
    32
  0
VERTEX
  8
1
  5
4DA95
 10
37.3216
 20
10.2466
 30
0.000000
  70
    32
  0
VERTEX
  8
1
  5
4DA96
 10
37.3295
 20
10.2496
 30
0.000000
  70
    32
  0
VERTEX
  8
1
  5
4DA97
 10
37.3374
 20
10.2528
 30
0.000000
  70
    32
  0
VERTEX
  8
1
  5
4DA98
 10
37.3453
 20
10.2561
 30
0.000000
  70
    32
  0
VERTEX
  8
1
  5
4DA99
 10
37.3531
 20
10.2594
 30
0.000000
  70
    32
  0
VERTEX
  8
1
  5
4DA9A
 10
37.3609
 20
10.2629
 30
0.000000
  70
    32
  0
VERTEX
  8
1
  5
4DA9B
 10
37.3686
 20
10.2664
 30
0.000000
  70
    32
  0
VERTEX
  8
1
  5
4DA9C
 10
37.3763
 20
10.2701
 30
0.000000
  70
    32
  0
VERTEX
  8
1
  5
4DA9D
 10
37.3839
 20
10.2738
 30
0.000000
  70
    32
  0
VERTEX
  8
1
  5
4DA9E
 10
37.3915
 20
10.2777
 30
0.000000
  70
    32
  0
VERTEX
  8
1
  5
4DA9F
 10
37.3991
 20
10.2816
 30
0.000000
  70
    32
  0
VERTEX
  8
1
  5
4DAA0
 10
37.4066
 20
10.2856
 30
0.000000
  70
    32
  0
VERTEX
  8
1
  5
4DAA1
 10
37.4141
 20
10.2897
 30
0.000000
  70
    32
  0
VERTEX
  8
1
  5
4DAA2
 10
37.4215
 20
10.2939
 30
0.000000
  70
    32
  0
VERTEX
  8
1
  5
4DAA3
 10
37.4288
 20
10.2982
 30
0.000000
  70
    32
  0
VERTEX
  8
1
  5
4DAA4
 10
37.4361
 20
10.3026
 30
0.000000
  70
    32
  0
VERTEX
  8
1
  5
4DAA5
 10
37.4434
 20
10.3071
 30
0.000000
  70
    32
  0
VERTEX
  8
1
  5
4DAA6
 10
37.4505
 20
10.3117
 30
0.000000
  70
    32
  0
VERTEX
  8
1
  5
4DAA7
 10
37.4577
 20
10.3163
 30
0.000000
  70
    32
  0
VERTEX
  8
1
  5
4DAA8
 10
37.4647
 20
10.3210
 30
0.000000
  70
    32
  0
VERTEX
  8
1
  5
4DAA9
 10
37.4718
 20
10.3259
 30
0.000000
  70
    32
  0
VERTEX
  8
1
  5
4DAAA
 10
37.4787
 20
10.3308
 30
0.000000
  70
    32
  0
VERTEX
  8
1
  5
4DAAB
 10
37.4856
 20
10.3358
 30
0.000000
  70
    32
  0
VERTEX
  8
1
  5
4DAAC
 10
37.4924
 20
10.3409
 30
0.000000
  70
    32
  0
VERTEX
  8
1
  5
4DAAD
 10
37.4992
 20
10.3461
 30
0.000000
  70
    32
  0
VERTEX
  8
1
  5
4DAAE
 10
37.5059
 20
10.3513
 30
0.000000
  70
    32
  0
VERTEX
  8
1
  5
4DAAF
 10
37.5126
 20
10.3566
 30
0.000000
  70
    32
  0
VERTEX
  8
1
  5
4DAB0
 10
37.5191
 20
10.3621
 30
0.000000
  70
    32
  0
VERTEX
  8
1
  5
4DAB1
 10
37.5256
 20
10.3676
 30
0.000000
  70
    32
  0
VERTEX
  8
1
  5
4DAB2
 10
37.5321
 20
10.3731
 30
0.000000
  70
    32
  0
VERTEX
  8
1
  5
4DAB3
 10
37.5385
 20
10.3788
 30
0.000000
  70
    32
  0
VERTEX
  8
1
  5
4DAB4
 10
37.5448
 20
10.3845
 30
0.000000
  70
    32
  0
VERTEX
  8
1
  5
4DAB5
 10
37.5510
 20
10.3904
 30
0.000000
  70
    32
  0
VERTEX
  8
1
  5
4DAB6
 10
37.5572
 20
10.3962
 30
0.000000
  70
    32
  0
VERTEX
  8
1
  5
4DAB7
 10
37.5632
 20
10.4022
 30
0.000000
  70
    32
  0
VERTEX
  8
1
  5
4DAB8
 10
37.5692
 20
10.4083
 30
0.000000
  70
    32
  0
VERTEX
  8
1
  5
4DAB9
 10
37.5752
 20
10.4144
 30
0.000000
  70
    32
  0
VERTEX
  8
1
  5
4DABA
 10
37.5810
 20
10.4206
 30
0.000000
  70
    32
  0
VERTEX
  8
1
  5
4DABB
 10
37.5868
 20
10.4268
 30
0.000000
  70
    32
  0
VERTEX
  8
1
  5
4DABC
 10
37.5925
 20
10.4331
 30
0.000000
  70
    32
  0
VERTEX
  8
1
  5
4DABD
 10
37.5982
 20
10.4395
 30
0.000000
  70
    32
  0
VERTEX
  8
1
  5
4DABE
 10
37.6037
 20
10.4460
 30
0.000000
  70
    32
  0
VERTEX
  8
1
  5
4DABF
 10
37.6092
 20
10.4526
 30
0.000000
  70
    32
  0
VERTEX
  8
1
  5
4DAC0
 10
37.6146
 20
10.4592
 30
0.000000
  70
    32
  0
VERTEX
  8
1
  5
4DAC1
 10
37.6199
 20
10.4658
 30
0.000000
  70
    32
  0
VERTEX
  8
1
  5
4DAC2
 10
37.6251
 20
10.4726
 30
0.000000
  70
    32
  0
VERTEX
  8
1
  5
4DAC3
 10
37.6303
 20
10.4794
 30
0.000000
  70
    32
  0
VERTEX
  8
1
  5
4DAC4
 10
37.6353
 20
10.4862
 30
0.000000
  70
    32
  0
VERTEX
  8
1
  5
4DAC5
 10
37.6403
 20
10.4932
 30
0.000000
  70
    32
  0
VERTEX
  8
1
  5
4DAC6
 10
37.6452
 20
10.5001
 30
0.000000
  70
    32
  0
VERTEX
  8
1
  5
4DAC7
 10
37.6500
 20
10.5072
 30
0.000000
  70
    32
  0
VERTEX
  8
1
  5
4DAC8
 10
37.6547
 20
10.5143
 30
0.000000
  70
    32
  0
VERTEX
  8
1
  5
4DAC9
 10
37.6594
 20
10.5215
 30
0.000000
  70
    32
  0
VERTEX
  8
1
  5
4DACA
 10
37.6639
 20
10.5287
 30
0.000000
  70
    32
  0
VERTEX
  8
1
  5
4DACB
 10
37.6684
 20
10.5360
 30
0.000000
  70
    32
  0
VERTEX
  8
1
  5
4DACC
 10
37.6727
 20
10.5433
 30
0.000000
  70
    32
  0
VERTEX
  8
1
  5
4DACD
 10
37.6770
 20
10.5507
 30
0.000000
  70
    32
  0
VERTEX
  8
1
  5
4DACE
 10
37.6812
 20
10.5581
 30
0.000000
  70
    32
  0
VERTEX
  8
1
  5
4DACF
 10
37.6853
 20
10.5656
 30
0.000000
  70
    32
  0
VERTEX
  8
1
  5
4DAD0
 10
37.6893
 20
10.5731
 30
0.000000
  70
    32
  0
VERTEX
  8
1
  5
4DAD1
 10
37.6932
 20
10.5807
 30
0.000000
  70
    32
  0
VERTEX
  8
1
  5
4DAD2
 10
37.6970
 20
10.5884
 30
0.000000
  70
    32
  0
VERTEX
  8
1
  5
4DAD3
 10
37.7007
 20
10.5960
 30
0.000000
  70
    32
  0
VERTEX
  8
1
  5
4DAD4
 10
37.7043
 20
10.6038
 30
0.000000
  70
    32
  0
VERTEX
  8
1
  5
4DAD5
 10
37.7079
 20
10.6115
 30
0.000000
  70
    32
  0
VERTEX
  8
1
  5
4DAD6
 10
37.7113
 20
10.6193
 30
0.000000
  70
    32
  0
VERTEX
  8
1
  5
4DAD7
 10
37.7146
 20
10.6272
 30
0.000000
  70
    32
  0
VERTEX
  8
1
  5
4DAD8
 10
37.7179
 20
10.6351
 30
0.000000
  70
    32
  0
VERTEX
  8
1
  5
4DAD9
 10
37.7210
 20
10.6430
 30
0.000000
  70
    32
  0
VERTEX
  8
1
  5
4DADA
 10
37.7241
 20
10.6510
 30
0.000000
  70
    32
  0
VERTEX
  8
1
  5
4DADB
 10
37.7270
 20
10.6590
 30
0.000000
  70
    32
  0
VERTEX
  8
1
  5
4DADC
 10
37.7299
 20
10.6671
 30
0.000000
  70
    32
  0
VERTEX
  8
1
  5
4DADD
 10
37.7326
 20
10.6751
 30
0.000000
  70
    32
  0
VERTEX
  8
1
  5
4DADE
 10
37.7353
 20
10.6833
 30
0.000000
  70
    32
  0
SEQEND
  8
1
  5
4DADF
  0
POLYLINE
  5
4D51D
  8
1
 10
36.863148863415482
 20
10.236104534693055
 30
0.0
 66
     1
 70
     8
  0
VERTEX
  8
1
  5
4DAE0
 10
36.8631
 20
10.2361
 30
0.000000
  70
    32
  0
VERTEX
  8
1
  5
4DAE1
 10
36.8575
 20
10.2379
 30
0.000000
  70
    32
  0
VERTEX
  8
1
  5
4DAE2
 10
36.8518
 20
10.2396
 30
0.000000
  70
    32
  0
VERTEX
  8
1
  5
4DAE3
 10
36.8460
 20
10.2412
 30
0.000000
  70
    32
  0
VERTEX
  8
1
  5
4DAE4
 10
36.8402
 20
10.2427
 30
0.000000
  70
    32
  0
VERTEX
  8
1
  5
4DAE5
 10
36.8344
 20
10.2440
 30
0.000000
  70
    32
  0
VERTEX
  8
1
  5
4DAE6
 10
36.8286
 20
10.2452
 30
0.000000
  70
    32
  0
VERTEX
  8
1
  5
4DAE7
 10
36.8227
 20
10.2464
 30
0.000000
  70
    32
  0
VERTEX
  8
1
  5
4DAE8
 10
36.8168
 20
10.2473
 30
0.000000
  70
    32
  0
VERTEX
  8
1
  5
4DAE9
 10
36.8109
 20
10.2482
 30
0.000000
  70
    32
  0
VERTEX
  8
1
  5
4DAEA
 10
36.8050
 20
10.2489
 30
0.000000
  70
    32
  0
VERTEX
  8
1
  5
4DAEB
 10
36.7991
 20
10.2496
 30
0.000000
  70
    32
  0
VERTEX
  8
1
  5
4DAEC
 10
36.7931
 20
10.2501
 30
0.000000
  70
    32
  0
VERTEX
  8
1
  5
4DAED
 10
36.7872
 20
10.2504
 30
0.000000
  70
    32
  0
VERTEX
  8
1
  5
4DAEE
 10
36.7812
 20
10.2507
 30
0.000000
  70
    32
  0
VERTEX
  8
1
  5
4DAEF
 10
36.7753
 20
10.2508
 30
0.000000
  70
    32
  0
VERTEX
  8
1
  5
4DAF0
 10
36.7693
 20
10.2508
 30
0.000000
  70
    32
  0
VERTEX
  8
1
  5
4DAF1
 10
36.7633
 20
10.2507
 30
0.000000
  70
    32
  0
VERTEX
  8
1
  5
4DAF2
 10
36.7574
 20
10.2505
 30
0.000000
  70
    32
  0
VERTEX
  8
1
  5
4DAF3
 10
36.7514
 20
10.2501
 30
0.000000
  70
    32
  0
VERTEX
  8
1
  5
4DAF4
 10
36.7455
 20
10.2496
 30
0.000000
  70
    32
  0
VERTEX
  8
1
  5
4DAF5
 10
36.7395
 20
10.2490
 30
0.000000
  70
    32
  0
VERTEX
  8
1
  5
4DAF6
 10
36.7336
 20
10.2483
 30
0.000000
  70
    32
  0
VERTEX
  8
1
  5
4DAF7
 10
36.7277
 20
10.2474
 30
0.000000
  70
    32
  0
VERTEX
  8
1
  5
4DAF8
 10
36.7218
 20
10.2465
 30
0.000000
  70
    32
  0
VERTEX
  8
1
  5
4DAF9
 10
36.7160
 20
10.2454
 30
0.000000
  70
    32
  0
VERTEX
  8
1
  5
4DAFA
 10
36.7101
 20
10.2442
 30
0.000000
  70
    32
  0
VERTEX
  8
1
  5
4DAFB
 10
36.7043
 20
10.2428
 30
0.000000
  70
    32
  0
VERTEX
  8
1
  5
4DAFC
 10
36.6985
 20
10.2414
 30
0.000000
  70
    32
  0
VERTEX
  8
1
  5
4DAFD
 10
36.6928
 20
10.2398
 30
0.000000
  70
    32
  0
VERTEX
  8
1
  5
4DAFE
 10
36.6871
 20
10.2381
 30
0.000000
  70
    32
  0
VERTEX
  8
1
  5
4DAFF
 10
36.6814
 20
10.2363
 30
0.000000
  70
    32
  0
VERTEX
  8
1
  5
4DB00
 10
36.6757
 20
10.2344
 30
0.000000
  70
    32
  0
VERTEX
  8
1
  5
4DB01
 10
36.6701
 20
10.2324
 30
0.000000
  70
    32
  0
VERTEX
  8
1
  5
4DB02
 10
36.6646
 20
10.2302
 30
0.000000
  70
    32
  0
VERTEX
  8
1
  5
4DB03
 10
36.6590
 20
10.2280
 30
0.000000
  70
    32
  0
VERTEX
  8
1
  5
4DB04
 10
36.6536
 20
10.2256
 30
0.000000
  70
    32
  0
VERTEX
  8
1
  5
4DB05
 10
36.6481
 20
10.2231
 30
0.000000
  70
    32
  0
VERTEX
  8
1
  5
4DB06
 10
36.6428
 20
10.2205
 30
0.000000
  70
    32
  0
VERTEX
  8
1
  5
4DB07
 10
36.6375
 20
10.2178
 30
0.000000
  70
    32
  0
VERTEX
  8
1
  5
4DB08
 10
36.6322
 20
10.2149
 30
0.000000
  70
    32
  0
VERTEX
  8
1
  5
4DB09
 10
36.6270
 20
10.2120
 30
0.000000
  70
    32
  0
VERTEX
  8
1
  5
4DB0A
 10
36.6219
 20
10.2090
 30
0.000000
  70
    32
  0
VERTEX
  8
1
  5
4DB0B
 10
36.6168
 20
10.2058
 30
0.000000
  70
    32
  0
VERTEX
  8
1
  5
4DB0C
 10
36.6118
 20
10.2026
 30
0.000000
  70
    32
  0
VERTEX
  8
1
  5
4DB0D
 10
36.6068
 20
10.1992
 30
0.000000
  70
    32
  0
VERTEX
  8
1
  5
4DB0E
 10
36.6020
 20
10.1958
 30
0.000000
  70
    32
  0
VERTEX
  8
1
  5
4DB0F
 10
36.5971
 20
10.1923
 30
0.000000
  70
    32
  0
VERTEX
  8
1
  5
4DB10
 10
36.5924
 20
10.1886
 30
0.000000
  70
    32
  0
VERTEX
  8
1
  5
4DB11
 10
36.5878
 20
10.1849
 30
0.000000
  70
    32
  0
VERTEX
  8
1
  5
4DB12
 10
36.5832
 20
10.1810
 30
0.000000
  70
    32
  0
VERTEX
  8
1
  5
4DB13
 10
36.5787
 20
10.1771
 30
0.000000
  70
    32
  0
VERTEX
  8
1
  5
4DB14
 10
36.5743
 20
10.1731
 30
0.000000
  70
    32
  0
VERTEX
  8
1
  5
4DB15
 10
36.5699
 20
10.1690
 30
0.000000
  70
    32
  0
VERTEX
  8
1
  5
4DB16
 10
36.5657
 20
10.1648
 30
0.000000
  70
    32
  0
VERTEX
  8
1
  5
4DB17
 10
36.5615
 20
10.1605
 30
0.000000
  70
    32
  0
VERTEX
  8
1
  5
4DB18
 10
36.5575
 20
10.1561
 30
0.000000
  70
    32
  0
VERTEX
  8
1
  5
4DB19
 10
36.5535
 20
10.1517
 30
0.000000
  70
    32
  0
VERTEX
  8
1
  5
4DB1A
 10
36.5496
 20
10.1471
 30
0.000000
  70
    32
  0
VERTEX
  8
1
  5
4DB1B
 10
36.5458
 20
10.1425
 30
0.000000
  70
    32
  0
VERTEX
  8
1
  5
4DB1C
 10
36.5421
 20
10.1378
 30
0.000000
  70
    32
  0
VERTEX
  8
1
  5
4DB1D
 10
36.5385
 20
10.1330
 30
0.000000
  70
    32
  0
VERTEX
  8
1
  5
4DB1E
 10
36.5350
 20
10.1282
 30
0.000000
  70
    32
  0
VERTEX
  8
1
  5
4DB1F
 10
36.5316
 20
10.1233
 30
0.000000
  70
    32
  0
VERTEX
  8
1
  5
4DB20
 10
36.5282
 20
10.1183
 30
0.000000
  70
    32
  0
VERTEX
  8
1
  5
4DB21
 10
36.5250
 20
10.1133
 30
0.000000
  70
    32
  0
VERTEX
  8
1
  5
4DB22
 10
36.5219
 20
10.1081
 30
0.000000
  70
    32
  0
VERTEX
  8
1
  5
4DB23
 10
36.5189
 20
10.1030
 30
0.000000
  70
    32
  0
VERTEX
  8
1
  5
4DB24
 10
36.5161
 20
10.0977
 30
0.000000
  70
    32
  0
VERTEX
  8
1
  5
4DB25
 10
36.5133
 20
10.0924
 30
0.000000
  70
    32
  0
VERTEX
  8
1
  5
4DB26
 10
36.5106
 20
10.0871
 30
0.000000
  70
    32
  0
VERTEX
  8
1
  5
4DB27
 10
36.5080
 20
10.0817
 30
0.000000
  70
    32
  0
VERTEX
  8
1
  5
4DB28
 10
36.5056
 20
10.0762
 30
0.000000
  70
    32
  0
VERTEX
  8
1
  5
4DB29
 10
36.5032
 20
10.0707
 30
0.000000
  70
    32
  0
VERTEX
  8
1
  5
4DB2A
 10
36.5010
 20
10.0652
 30
0.000000
  70
    32
  0
VERTEX
  8
1
  5
4DB2B
 10
36.4989
 20
10.0596
 30
0.000000
  70
    32
  0
VERTEX
  8
1
  5
4DB2C
 10
36.4969
 20
10.0539
 30
0.000000
  70
    32
  0
VERTEX
  8
1
  5
4DB2D
 10
36.4950
 20
10.0483
 30
0.000000
  70
    32
  0
VERTEX
  8
1
  5
4DB2E
 10
36.4932
 20
10.0425
 30
0.000000
  70
    32
  0
VERTEX
  8
1
  5
4DB2F
 10
36.4916
 20
10.0368
 30
0.000000
  70
    32
  0
VERTEX
  8
1
  5
4DB30
 10
36.4901
 20
10.0310
 30
0.000000
  70
    32
  0
VERTEX
  8
1
  5
4DB31
 10
36.4886
 20
10.0252
 30
0.000000
  70
    32
  0
VERTEX
  8
1
  5
4DB32
 10
36.4873
 20
10.0193
 30
0.000000
  70
    32
  0
VERTEX
  8
1
  5
4DB33
 10
36.4862
 20
10.0135
 30
0.000000
  70
    32
  0
VERTEX
  8
1
  5
4DB34
 10
36.4851
 20
10.0076
 30
0.000000
  70
    32
  0
VERTEX
  8
1
  5
4DB35
 10
36.4842
 20
10.0017
 30
0.000000
  70
    32
  0
VERTEX
  8
1
  5
4DB36
 10
36.4834
 20
9.99574
 30
0.000000
  70
    32
  0
VERTEX
  8
1
  5
4DB37
 10
36.4827
 20
9.98980
 30
0.000000
  70
    32
  0
VERTEX
  8
1
  5
4DB38
 10
36.4821
 20
9.98384
 30
0.000000
  70
    32
  0
VERTEX
  8
1
  5
4DB39
 10
36.4816
 20
9.97787
 30
0.000000
  70
    32
  0
VERTEX
  8
1
  5
4DB3A
 10
36.4813
 20
9.97189
 30
0.000000
  70
    32
  0
VERTEX
  8
1
  5
4DB3B
 10
36.4811
 20
9.96591
 30
0.000000
  70
    32
  0
VERTEX
  8
1
  5
4DB3C
 10
36.4810
 20
9.95993
 30
0.000000
  70
    32
  0
VERTEX
  8
1
  5
4DB3D
 10
36.4811
 20
9.95394
 30
0.000000
  70
    32
  0
VERTEX
  8
1
  5
4DB3E
 10
36.4812
 20
9.94796
 30
0.000000
  70
    32
  0
VERTEX
  8
1
  5
4DB3F
 10
36.4815
 20
9.94198
 30
0.000000
  70
    32
  0
VERTEX
  8
1
  5
4DB40
 10
36.4819
 20
9.93600
 30
0.000000
  70
    32
  0
VERTEX
  8
1
  5
4DB41
 10
36.4824
 20
9.93004
 30
0.000000
  70
    32
  0
VERTEX
  8
1
  5
4DB42
 10
36.4831
 20
9.92409
 30
0.000000
  70
    32
  0
VERTEX
  8
1
  5
4DB43
 10
36.4839
 20
9.91815
 30
0.000000
  70
    32
  0
VERTEX
  8
1
  5
4DB44
 10
36.4848
 20
9.91224
 30
0.000000
  70
    32
  0
VERTEX
  8
1
  5
4DB45
 10
36.4858
 20
9.90634
 30
0.000000
  70
    32
  0
VERTEX
  8
1
  5
4DB46
 10
36.4869
 20
9.90046
 30
0.000000
  70
    32
  0
VERTEX
  8
1
  5
4DB47
 10
36.4882
 20
9.89461
 30
0.000000
  70
    32
  0
VERTEX
  8
1
  5
4DB48
 10
36.4895
 20
9.88878
 30
0.000000
  70
    32
  0
VERTEX
  8
1
  5
4DB49
 10
36.4910
 20
9.88298
 30
0.000000
  70
    32
  0
VERTEX
  8
1
  5
4DB4A
 10
36.4926
 20
9.87722
 30
0.000000
  70
    32
  0
VERTEX
  8
1
  5
4DB4B
 10
36.4944
 20
9.87149
 30
0.000000
  70
    32
  0
VERTEX
  8
1
  5
4DB4C
 10
36.4962
 20
9.86580
 30
0.000000
  70
    32
  0
VERTEX
  8
1
  5
4DB4D
 10
36.4982
 20
9.86014
 30
0.000000
  70
    32
  0
VERTEX
  8
1
  5
4DB4E
 10
36.5002
 20
9.85453
 30
0.000000
  70
    32
  0
VERTEX
  8
1
  5
4DB4F
 10
36.5024
 20
9.84896
 30
0.000000
  70
    32
  0
VERTEX
  8
1
  5
4DB50
 10
36.5047
 20
9.84344
 30
0.000000
  70
    32
  0
VERTEX
  8
1
  5
4DB51
 10
36.5071
 20
9.83796
 30
0.000000
  70
    32
  0
VERTEX
  8
1
  5
4DB52
 10
36.5096
 20
9.83254
 30
0.000000
  70
    32
  0
VERTEX
  8
1
  5
4DB53
 10
36.5123
 20
9.82717
 30
0.000000
  70
    32
  0
VERTEX
  8
1
  5
4DB54
 10
36.5150
 20
9.82185
 30
0.000000
  70
    32
  0
VERTEX
  8
1
  5
4DB55
 10
36.5179
 20
9.81660
 30
0.000000
  70
    32
  0
VERTEX
  8
1
  5
4DB56
 10
36.5208
 20
9.81140
 30
0.000000
  70
    32
  0
VERTEX
  8
1
  5
4DB57
 10
36.5239
 20
9.80626
 30
0.000000
  70
    32
  0
VERTEX
  8
1
  5
4DB58
 10
36.5271
 20
9.80119
 30
0.000000
  70
    32
  0
VERTEX
  8
1
  5
4DB59
 10
36.5303
 20
9.79619
 30
0.000000
  70
    32
  0
VERTEX
  8
1
  5
4DB5A
 10
36.5337
 20
9.79125
 30
0.000000
  70
    32
  0
VERTEX
  8
1
  5
4DB5B
 10
36.5372
 20
9.78638
 30
0.000000
  70
    32
  0
VERTEX
  8
1
  5
4DB5C
 10
36.5408
 20
9.78159
 30
0.000000
  70
    32
  0
VERTEX
  8
1
  5
4DB5D
 10
36.5444
 20
9.77687
 30
0.000000
  70
    32
  0
VERTEX
  8
1
  5
4DB5E
 10
36.5482
 20
9.77223
 30
0.000000
  70
    32
  0
VERTEX
  8
1
  5
4DB5F
 10
36.5520
 20
9.76766
 30
0.000000
  70
    32
  0
VERTEX
  8
1
  5
4DB60
 10
36.5560
 20
9.76318
 30
0.000000
  70
    32
  0
SEQEND
  8
1
  5
4DB61
  0
POLYLINE
  5
4D51E
  8
1
 10
36.504170009720141
 20
8.7805025063505848
 30
0.0
 66
     1
 70
     8
  0
VERTEX
  8
1
  5
4DB62
 10
36.5042
 20
8.78050
 30
0.000000
  70
    32
  0
VERTEX
  8
1
  5
4DB63
 10
36.4998
 20
8.77645
 30
0.000000
  70
    32
  0
VERTEX
  8
1
  5
4DB64
 10
36.4955
 20
8.77231
 30
0.000000
  70
    32
  0
VERTEX
  8
1
  5
4DB65
 10
36.4913
 20
8.76808
 30
0.000000
  70
    32
  0
VERTEX
  8
1
  5
4DB66
 10
36.4872
 20
8.76376
 30
0.000000
  70
    32
  0
VERTEX
  8
1
  5
4DB67
 10
36.4831
 20
8.75936
 30
0.000000
  70
    32
  0
VERTEX
  8
1
  5
4DB68
 10
36.4792
 20
8.75488
 30
0.000000
  70
    32
  0
VERTEX
  8
1
  5
4DB69
 10
36.4753
 20
8.75032
 30
0.000000
  70
    32
  0
VERTEX
  8
1
  5
4DB6A
 10
36.4716
 20
8.74568
 30
0.000000
  70
    32
  0
VERTEX
  8
1
  5
4DB6B
 10
36.4679
 20
8.74097
 30
0.000000
  70
    32
  0
VERTEX
  8
1
  5
4DB6C
 10
36.4643
 20
8.73617
 30
0.000000
  70
    32
  0
VERTEX
  8
1
  5
4DB6D
 10
36.4609
 20
8.73131
 30
0.000000
  70
    32
  0
VERTEX
  8
1
  5
4DB6E
 10
36.4575
 20
8.72638
 30
0.000000
  70
    32
  0
VERTEX
  8
1
  5
4DB6F
 10
36.4542
 20
8.72138
 30
0.000000
  70
    32
  0
VERTEX
  8
1
  5
4DB70
 10
36.4511
 20
8.71631
 30
0.000000
  70
    32
  0
VERTEX
  8
1
  5
4DB71
 10
36.4480
 20
8.71118
 30
0.000000
  70
    32
  0
VERTEX
  8
1
  5
4DB72
 10
36.4450
 20
8.70599
 30
0.000000
  70
    32
  0
VERTEX
  8
1
  5
4DB73
 10
36.4422
 20
8.70073
 30
0.000000
  70
    32
  0
VERTEX
  8
1
  5
4DB74
 10
36.4394
 20
8.69542
 30
0.000000
  70
    32
  0
VERTEX
  8
1
  5
4DB75
 10
36.4368
 20
8.69006
 30
0.000000
  70
    32
  0
VERTEX
  8
1
  5
4DB76
 10
36.4343
 20
8.68464
 30
0.000000
  70
    32
  0
VERTEX
  8
1
  5
4DB77
 10
36.4319
 20
8.67917
 30
0.000000
  70
    32
  0
VERTEX
  8
1
  5
4DB78
 10
36.4296
 20
8.67365
 30
0.000000
  70
    32
  0
VERTEX
  8
1
  5
4DB79
 10
36.4274
 20
8.66809
 30
0.000000
  70
    32
  0
VERTEX
  8
1
  5
4DB7A
 10
36.4253
 20
8.66248
 30
0.000000
  70
    32
  0
VERTEX
  8
1
  5
4DB7B
 10
36.4234
 20
8.65683
 30
0.000000
  70
    32
  0
VERTEX
  8
1
  5
4DB7C
 10
36.4215
 20
8.65114
 30
0.000000
  70
    32
  0
VERTEX
  8
1
  5
4DB7D
 10
36.4198
 20
8.64542
 30
0.000000
  70
    32
  0
VERTEX
  8
1
  5
4DB7E
 10
36.4182
 20
8.63966
 30
0.000000
  70
    32
  0
VERTEX
  8
1
  5
4DB7F
 10
36.4167
 20
8.63387
 30
0.000000
  70
    32
  0
VERTEX
  8
1
  5
4DB80
 10
36.4153
 20
8.62805
 30
0.000000
  70
    32
  0
VERTEX
  8
1
  5
4DB81
 10
36.4141
 20
8.62220
 30
0.000000
  70
    32
  0
VERTEX
  8
1
  5
4DB82
 10
36.4129
 20
8.61633
 30
0.000000
  70
    32
  0
VERTEX
  8
1
  5
4DB83
 10
36.4119
 20
8.61044
 30
0.000000
  70
    32
  0
VERTEX
  8
1
  5
4DB84
 10
36.4110
 20
8.60452
 30
0.000000
  70
    32
  0
VERTEX
  8
1
  5
4DB85
 10
36.4103
 20
8.59859
 30
0.000000
  70
    32
  0
VERTEX
  8
1
  5
4DB86
 10
36.4096
 20
8.59265
 30
0.000000
  70
    32
  0
VERTEX
  8
1
  5
4DB87
 10
36.4091
 20
8.58669
 30
0.000000
  70
    32
  0
VERTEX
  8
1
  5
4DB88
 10
36.4087
 20
8.58072
 30
0.000000
  70
    32
  0
VERTEX
  8
1
  5
4DB89
 10
36.4084
 20
8.57475
 30
0.000000
  70
    32
  0
VERTEX
  8
1
  5
4DB8A
 10
36.4082
 20
8.56877
 30
0.000000
  70
    32
  0
VERTEX
  8
1
  5
4DB8B
 10
36.4082
 20
8.56279
 30
0.000000
  70
    32
  0
VERTEX
  8
1
  5
4DB8C
 10
36.4083
 20
8.55681
 30
0.000000
  70
    32
  0
VERTEX
  8
1
  5
4DB8D
 10
36.4085
 20
8.55083
 30
0.000000
  70
    32
  0
VERTEX
  8
1
  5
4DB8E
 10
36.4088
 20
8.54486
 30
0.000000
  70
    32
  0
VERTEX
  8
1
  5
4DB8F
 10
36.4093
 20
8.53890
 30
0.000000
  70
    32
  0
VERTEX
  8
1
  5
4DB90
 10
36.4098
 20
8.53294
 30
0.000000
  70
    32
  0
VERTEX
  8
1
  5
4DB91
 10
36.4105
 20
8.52700
 30
0.000000
  70
    32
  0
VERTEX
  8
1
  5
4DB92
 10
36.4113
 20
8.52108
 30
0.000000
  70
    32
  0
VERTEX
  8
1
  5
4DB93
 10
36.4122
 20
8.51517
 30
0.000000
  70
    32
  0
VERTEX
  8
1
  5
4DB94
 10
36.4133
 20
8.50928
 30
0.000000
  70
    32
  0
VERTEX
  8
1
  5
4DB95
 10
36.4145
 20
8.50342
 30
0.000000
  70
    32
  0
VERTEX
  8
1
  5
4DB96
 10
36.4158
 20
8.49758
 30
0.000000
  70
    32
  0
VERTEX
  8
1
  5
4DB97
 10
36.4172
 20
8.49177
 30
0.000000
  70
    32
  0
VERTEX
  8
1
  5
4DB98
 10
36.4187
 20
8.48599
 30
0.000000
  70
    32
  0
VERTEX
  8
1
  5
4DB99
 10
36.4203
 20
8.48024
 30
0.000000
  70
    32
  0
VERTEX
  8
1
  5
4DB9A
 10
36.4221
 20
8.47453
 30
0.000000
  70
    32
  0
VERTEX
  8
1
  5
4DB9B
 10
36.4240
 20
8.46885
 30
0.000000
  70
    32
  0
VERTEX
  8
1
  5
4DB9C
 10
36.4260
 20
8.46321
 30
0.000000
  70
    32
  0
VERTEX
  8
1
  5
4DB9D
 10
36.4281
 20
8.45762
 30
0.000000
  70
    32
  0
VERTEX
  8
1
  5
4DB9E
 10
36.4303
 20
8.45207
 30
0.000000
  70
    32
  0
VERTEX
  8
1
  5
4DB9F
 10
36.4326
 20
8.44657
 30
0.000000
  70
    32
  0
VERTEX
  8
1
  5
4DBA0
 10
36.4351
 20
8.44111
 30
0.000000
  70
    32
  0
VERTEX
  8
1
  5
4DBA1
 10
36.4377
 20
8.43571
 30
0.000000
  70
    32
  0
VERTEX
  8
1
  5
4DBA2
 10
36.4403
 20
8.43037
 30
0.000000
  70
    32
  0
VERTEX
  8
1
  5
4DBA3
 10
36.4431
 20
8.42507
 30
0.000000
  70
    32
  0
VERTEX
  8
1
  5
4DBA4
 10
36.4460
 20
8.41984
 30
0.000000
  70
    32
  0
VERTEX
  8
1
  5
4DBA5
 10
36.4490
 20
8.41467
 30
0.000000
  70
    32
  0
VERTEX
  8
1
  5
4DBA6
 10
36.4521
 20
8.40955
 30
0.000000
  70
    32
  0
VERTEX
  8
1
  5
4DBA7
 10
36.4553
 20
8.40451
 30
0.000000
  70
    32
  0
VERTEX
  8
1
  5
4DBA8
 10
36.4586
 20
8.39953
 30
0.000000
  70
    32
  0
VERTEX
  8
1
  5
4DBA9
 10
36.4620
 20
8.39462
 30
0.000000
  70
    32
  0
VERTEX
  8
1
  5
4DBAA
 10
36.4655
 20
8.38978
 30
0.000000
  70
    32
  0
VERTEX
  8
1
  5
4DBAB
 10
36.4691
 20
8.38501
 30
0.000000
  70
    32
  0
VERTEX
  8
1
  5
4DBAC
 10
36.4728
 20
8.38032
 30
0.000000
  70
    32
  0
VERTEX
  8
1
  5
4DBAD
 10
36.4765
 20
8.37571
 30
0.000000
  70
    32
  0
VERTEX
  8
1
  5
4DBAE
 10
36.4804
 20
8.37117
 30
0.000000
  70
    32
  0
VERTEX
  8
1
  5
4DBAF
 10
36.4844
 20
8.36671
 30
0.000000
  70
    32
  0
VERTEX
  8
1
  5
4DBB0
 10
36.4885
 20
8.36234
 30
0.000000
  70
    32
  0
VERTEX
  8
1
  5
4DBB1
 10
36.4926
 20
8.35805
 30
0.000000
  70
    32
  0
VERTEX
  8
1
  5
4DBB2
 10
36.4969
 20
8.35385
 30
0.000000
  70
    32
  0
VERTEX
  8
1
  5
4DBB3
 10
36.5012
 20
8.34974
 30
0.000000
  70
    32
  0
VERTEX
  8
1
  5
4DBB4
 10
36.5056
 20
8.34571
 30
0.000000
  70
    32
  0
VERTEX
  8
1
  5
4DBB5
 10
36.5101
 20
8.34178
 30
0.000000
  70
    32
  0
VERTEX
  8
1
  5
4DBB6
 10
36.5147
 20
8.33794
 30
0.000000
  70
    32
  0
VERTEX
  8
1
  5
4DBB7
 10
36.5193
 20
8.33420
 30
0.000000
  70
    32
  0
VERTEX
  8
1
  5
4DBB8
 10
36.5240
 20
8.33055
 30
0.000000
  70
    32
  0
VERTEX
  8
1
  5
4DBB9
 10
36.5288
 20
8.32700
 30
0.000000
  70
    32
  0
VERTEX
  8
1
  5
4DBBA
 10
36.5337
 20
8.32355
 30
0.000000
  70
    32
  0
VERTEX
  8
1
  5
4DBBB
 10
36.5386
 20
8.32020
 30
0.000000
  70
    32
  0
VERTEX
  8
1
  5
4DBBC
 10
36.5436
 20
8.31695
 30
0.000000
  70
    32
  0
VERTEX
  8
1
  5
4DBBD
 10
36.5487
 20
8.31381
 30
0.000000
  70
    32
  0
VERTEX
  8
1
  5
4DBBE
 10
36.5538
 20
8.31077
 30
0.000000
  70
    32
  0
VERTEX
  8
1
  5
4DBBF
 10
36.5590
 20
8.30783
 30
0.000000
  70
    32
  0
VERTEX
  8
1
  5
4DBC0
 10
36.5643
 20
8.30501
 30
0.000000
  70
    32
  0
VERTEX
  8
1
  5
4DBC1
 10
36.5696
 20
8.30229
 30
0.000000
  70
    32
  0
VERTEX
  8
1
  5
4DBC2
 10
36.5749
 20
8.29968
 30
0.000000
  70
    32
  0
VERTEX
  8
1
  5
4DBC3
 10
36.5803
 20
8.29718
 30
0.000000
  70
    32
  0
VERTEX
  8
1
  5
4DBC4
 10
36.5858
 20
8.29480
 30
0.000000
  70
    32
  0
VERTEX
  8
1
  5
4DBC5
 10
36.5913
 20
8.29253
 30
0.000000
  70
    32
  0
VERTEX
  8
1
  5
4DBC6
 10
36.5969
 20
8.29037
 30
0.000000
  70
    32
  0
VERTEX
  8
1
  5
4DBC7
 10
36.6025
 20
8.28832
 30
0.000000
  70
    32
  0
VERTEX
  8
1
  5
4DBC8
 10
36.6081
 20
8.28640
 30
0.000000
  70
    32
  0
VERTEX
  8
1
  5
4DBC9
 10
36.6138
 20
8.28458
 30
0.000000
  70
    32
  0
VERTEX
  8
1
  5
4DBCA
 10
36.6195
 20
8.28289
 30
0.000000
  70
    32
  0
VERTEX
  8
1
  5
4DBCB
 10
36.6253
 20
8.28131
 30
0.000000
  70
    32
  0
VERTEX
  8
1
  5
4DBCC
 10
36.6310
 20
8.27985
 30
0.000000
  70
    32
  0
VERTEX
  8
1
  5
4DBCD
 10
36.6368
 20
8.27851
 30
0.000000
  70
    32
  0
VERTEX
  8
1
  5
4DBCE
 10
36.6427
 20
8.27729
 30
0.000000
  70
    32
  0
VERTEX
  8
1
  5
4DBCF
 10
36.6485
 20
8.27619
 30
0.000000
  70
    32
  0
VERTEX
  8
1
  5
4DBD0
 10
36.6544
 20
8.27521
 30
0.000000
  70
    32
  0
VERTEX
  8
1
  5
4DBD1
 10
36.6603
 20
8.27436
 30
0.000000
  70
    32
  0
VERTEX
  8
1
  5
4DBD2
 10
36.6662
 20
8.27362
 30
0.000000
  70
    32
  0
VERTEX
  8
1
  5
4DBD3
 10
36.6721
 20
8.27301
 30
0.000000
  70
    32
  0
VERTEX
  8
1
  5
4DBD4
 10
36.6781
 20
8.27251
 30
0.000000
  70
    32
  0
VERTEX
  8
1
  5
4DBD5
 10
36.6840
 20
8.27214
 30
0.000000
  70
    32
  0
VERTEX
  8
1
  5
4DBD6
 10
36.6900
 20
8.27189
 30
0.000000
  70
    32
  0
VERTEX
  8
1
  5
4DBD7
 10
36.6959
 20
8.27177
 30
0.000000
  70
    32
  0
VERTEX
  8
1
  5
4DBD8
 10
36.7019
 20
8.27176
 30
0.000000
  70
    32
  0
VERTEX
  8
1
  5
4DBD9
 10
36.7079
 20
8.27188
 30
0.000000
  70
    32
  0
VERTEX
  8
1
  5
4DBDA
 10
36.7138
 20
8.27212
 30
0.000000
  70
    32
  0
VERTEX
  8
1
  5
4DBDB
 10
36.7198
 20
8.27249
 30
0.000000
  70
    32
  0
VERTEX
  8
1
  5
4DBDC
 10
36.7257
 20
8.27297
 30
0.000000
  70
    32
  0
VERTEX
  8
1
  5
4DBDD
 10
36.7316
 20
8.27358
 30
0.000000
  70
    32
  0
VERTEX
  8
1
  5
4DBDE
 10
36.7375
 20
8.27431
 30
0.000000
  70
    32
  0
VERTEX
  8
1
  5
4DBDF
 10
36.7434
 20
8.27516
 30
0.000000
  70
    32
  0
VERTEX
  8
1
  5
4DBE0
 10
36.7493
 20
8.27614
 30
0.000000
  70
    32
  0
VERTEX
  8
1
  5
4DBE1
 10
36.7552
 20
8.27723
 30
0.000000
  70
    32
  0
VERTEX
  8
1
  5
4DBE2
 10
36.7610
 20
8.27844
 30
0.000000
  70
    32
  0
SEQEND
  8
1
  5
4DBE3
  0
POLYLINE
  5
4D51F
  8
1
 10
37.581391013032416
 20
7.7437528553869255
 30
0.0
 66
     1
 70
     8
  0
VERTEX
  8
1
  5
4DBE4
 10
37.5814
 20
7.74375
 30
0.000000
  70
    32
  0
VERTEX
  8
1
  5
4DBE5
 10
37.5827
 20
7.73790
 30
0.000000
  70
    32
  0
VERTEX
  8
1
  5
4DBE6
 10
37.5840
 20
7.73207
 30
0.000000
  70
    32
  0
VERTEX
  8
1
  5
4DBE7
 10
37.5856
 20
7.72627
 30
0.000000
  70
    32
  0
VERTEX
  8
1
  5
4DBE8
 10
37.5872
 20
7.72051
 30
0.000000
  70
    32
  0
VERTEX
  8
1
  5
4DBE9
 10
37.5889
 20
7.71477
 30
0.000000
  70
    32
  0
VERTEX
  8
1
  5
4DBEA
 10
37.5908
 20
7.70908
 30
0.000000
  70
    32
  0
VERTEX
  8
1
  5
4DBEB
 10
37.5928
 20
7.70342
 30
0.000000
  70
    32
  0
VERTEX
  8
1
  5
4DBEC
 10
37.5949
 20
7.69781
 30
0.000000
  70
    32
  0
VERTEX
  8
1
  5
4DBED
 10
37.5971
 20
7.69224
 30
0.000000
  70
    32
  0
VERTEX
  8
1
  5
4DBEE
 10
37.5994
 20
7.68672
 30
0.000000
  70
    32
  0
VERTEX
  8
1
  5
4DBEF
 10
37.6018
 20
7.68125
 30
0.000000
  70
    32
  0
VERTEX
  8
1
  5
4DBF0
 10
37.6043
 20
7.67583
 30
0.000000
  70
    32
  0
VERTEX
  8
1
  5
4DBF1
 10
37.6070
 20
7.67046
 30
0.000000
  70
    32
  0
VERTEX
  8
1
  5
4DBF2
 10
37.6098
 20
7.66515
 30
0.000000
  70
    32
  0
VERTEX
  8
1
  5
4DBF3
 10
37.6126
 20
7.65989
 30
0.000000
  70
    32
  0
VERTEX
  8
1
  5
4DBF4
 10
37.6156
 20
7.65470
 30
0.000000
  70
    32
  0
VERTEX
  8
1
  5
4DBF5
 10
37.6187
 20
7.64957
 30
0.000000
  70
    32
  0
VERTEX
  8
1
  5
4DBF6
 10
37.6219
 20
7.64450
 30
0.000000
  70
    32
  0
VERTEX
  8
1
  5
4DBF7
 10
37.6252
 20
7.63950
 30
0.000000
  70
    32
  0
VERTEX
  8
1
  5
4DBF8
 10
37.6286
 20
7.63457
 30
0.000000
  70
    32
  0
VERTEX
  8
1
  5
4DBF9
 10
37.6320
 20
7.62971
 30
0.000000
  70
    32
  0
VERTEX
  8
1
  5
4DBFA
 10
37.6356
 20
7.62492
 30
0.000000
  70
    32
  0
VERTEX
  8
1
  5
4DBFB
 10
37.6393
 20
7.62020
 30
0.000000
  70
    32
  0
VERTEX
  8
1
  5
4DBFC
 10
37.6431
 20
7.61557
 30
0.000000
  70
    32
  0
VERTEX
  8
1
  5
4DBFD
 10
37.6470
 20
7.61101
 30
0.000000
  70
    32
  0
VERTEX
  8
1
  5
4DBFE
 10
37.6510
 20
7.60653
 30
0.000000
  70
    32
  0
VERTEX
  8
1
  5
4DBFF
 10
37.6550
 20
7.60214
 30
0.000000
  70
    32
  0
VERTEX
  8
1
  5
4DC00
 10
37.6592
 20
7.59783
 30
0.000000
  70
    32
  0
VERTEX
  8
1
  5
4DC01
 10
37.6634
 20
7.59361
 30
0.000000
  70
    32
  0
VERTEX
  8
1
  5
4DC02
 10
37.6677
 20
7.58947
 30
0.000000
  70
    32
  0
VERTEX
  8
1
  5
4DC03
 10
37.6721
 20
7.58543
 30
0.000000
  70
    32
  0
VERTEX
  8
1
  5
4DC04
 10
37.6766
 20
7.58148
 30
0.000000
  70
    32
  0
VERTEX
  8
1
  5
4DC05
 10
37.6812
 20
7.57762
 30
0.000000
  70
    32
  0
VERTEX
  8
1
  5
4DC06
 10
37.6858
 20
7.57385
 30
0.000000
  70
    32
  0
VERTEX
  8
1
  5
4DC07
 10
37.6905
 20
7.57018
 30
0.000000
  70
    32
  0
VERTEX
  8
1
  5
4DC08
 10
37.6953
 20
7.56661
 30
0.000000
  70
    32
  0
VERTEX
  8
1
  5
4DC09
 10
37.7002
 20
7.56314
 30
0.000000
  70
    32
  0
VERTEX
  8
1
  5
4DC0A
 10
37.7051
 20
7.55977
 30
0.000000
  70
    32
  0
VERTEX
  8
1
  5
4DC0B
 10
37.7101
 20
7.55650
 30
0.000000
  70
    32
  0
VERTEX
  8
1
  5
4DC0C
 10
37.7152
 20
7.55334
 30
0.000000
  70
    32
  0
VERTEX
  8
1
  5
4DC0D
 10
37.7203
 20
7.55028
 30
0.000000
  70
    32
  0
VERTEX
  8
1
  5
4DC0E
 10
37.7255
 20
7.54733
 30
0.000000
  70
    32
  0
VERTEX
  8
1
  5
4DC0F
 10
37.7308
 20
7.54448
 30
0.000000
  70
    32
  0
VERTEX
  8
1
  5
4DC10
 10
37.7361
 20
7.54175
 30
0.000000
  70
    32
  0
VERTEX
  8
1
  5
4DC11
 10
37.7415
 20
7.53912
 30
0.000000
  70
    32
  0
VERTEX
  8
1
  5
4DC12
 10
37.7469
 20
7.53661
 30
0.000000
  70
    32
  0
VERTEX
  8
1
  5
4DC13
 10
37.7524
 20
7.53420
 30
0.000000
  70
    32
  0
VERTEX
  8
1
  5
4DC14
 10
37.7579
 20
7.53191
 30
0.000000
  70
    32
  0
VERTEX
  8
1
  5
4DC15
 10
37.7634
 20
7.52974
 30
0.000000
  70
    32
  0
VERTEX
  8
1
  5
4DC16
 10
37.7690
 20
7.52768
 30
0.000000
  70
    32
  0
VERTEX
  8
1
  5
4DC17
 10
37.7747
 20
7.52573
 30
0.000000
  70
    32
  0
VERTEX
  8
1
  5
4DC18
 10
37.7804
 20
7.52391
 30
0.000000
  70
    32
  0
VERTEX
  8
1
  5
4DC19
 10
37.7861
 20
7.52220
 30
0.000000
  70
    32
  0
VERTEX
  8
1
  5
4DC1A
 10
37.7918
 20
7.52060
 30
0.000000
  70
    32
  0
VERTEX
  8
1
  5
4DC1B
 10
37.7976
 20
7.51913
 30
0.000000
  70
    32
  0
VERTEX
  8
1
  5
4DC1C
 10
37.8034
 20
7.51778
 30
0.000000
  70
    32
  0
VERTEX
  8
1
  5
4DC1D
 10
37.8093
 20
7.51654
 30
0.000000
  70
    32
  0
VERTEX
  8
1
  5
4DC1E
 10
37.8152
 20
7.51543
 30
0.000000
  70
    32
  0
VERTEX
  8
1
  5
4DC1F
 10
37.8210
 20
7.51444
 30
0.000000
  70
    32
  0
VERTEX
  8
1
  5
4DC20
 10
37.8269
 20
7.51357
 30
0.000000
  70
    32
  0
VERTEX
  8
1
  5
4DC21
 10
37.8329
 20
7.51282
 30
0.000000
  70
    32
  0
VERTEX
  8
1
  5
4DC22
 10
37.8388
 20
7.51219
 30
0.000000
  70
    32
  0
VERTEX
  8
1
  5
4DC23
 10
37.8448
 20
7.51169
 30
0.000000
  70
    32
  0
VERTEX
  8
1
  5
4DC24
 10
37.8507
 20
7.51131
 30
0.000000
  70
    32
  0
VERTEX
  8
1
  5
4DC25
 10
37.8567
 20
7.51105
 30
0.000000
  70
    32
  0
VERTEX
  8
1
  5
4DC26
 10
37.8626
 20
7.51091
 30
0.000000
  70
    32
  0
VERTEX
  8
1
  5
4DC27
 10
37.8686
 20
7.51090
 30
0.000000
  70
    32
  0
VERTEX
  8
1
  5
4DC28
 10
37.8746
 20
7.51101
 30
0.000000
  70
    32
  0
VERTEX
  8
1
  5
4DC29
 10
37.8805
 20
7.51124
 30
0.000000
  70
    32
  0
VERTEX
  8
1
  5
4DC2A
 10
37.8865
 20
7.51160
 30
0.000000
  70
    32
  0
VERTEX
  8
1
  5
4DC2B
 10
37.8925
 20
7.51208
 30
0.000000
  70
    32
  0
VERTEX
  8
1
  5
4DC2C
 10
37.8984
 20
7.51268
 30
0.000000
  70
    32
  0
VERTEX
  8
1
  5
4DC2D
 10
37.9043
 20
7.51340
 30
0.000000
  70
    32
  0
VERTEX
  8
1
  5
4DC2E
 10
37.9102
 20
7.51425
 30
0.000000
  70
    32
  0
VERTEX
  8
1
  5
4DC2F
 10
37.9161
 20
7.51521
 30
0.000000
  70
    32
  0
VERTEX
  8
1
  5
4DC30
 10
37.9220
 20
7.51630
 30
0.000000
  70
    32
  0
VERTEX
  8
1
  5
4DC31
 10
37.9278
 20
7.51751
 30
0.000000
  70
    32
  0
VERTEX
  8
1
  5
4DC32
 10
37.9337
 20
7.51884
 30
0.000000
  70
    32
  0
VERTEX
  8
1
  5
4DC33
 10
37.9395
 20
7.52029
 30
0.000000
  70
    32
  0
VERTEX
  8
1
  5
4DC34
 10
37.9452
 20
7.52186
 30
0.000000
  70
    32
  0
VERTEX
  8
1
  5
4DC35
 10
37.9509
 20
7.52354
 30
0.000000
  70
    32
  0
VERTEX
  8
1
  5
4DC36
 10
37.9566
 20
7.52534
 30
0.000000
  70
    32
  0
VERTEX
  8
1
  5
4DC37
 10
37.9623
 20
7.52727
 30
0.000000
  70
    32
  0
VERTEX
  8
1
  5
4DC38
 10
37.9679
 20
7.52930
 30
0.000000
  70
    32
  0
VERTEX
  8
1
  5
4DC39
 10
37.9735
 20
7.53145
 30
0.000000
  70
    32
  0
VERTEX
  8
1
  5
4DC3A
 10
37.9790
 20
7.53372
 30
0.000000
  70
    32
  0
VERTEX
  8
1
  5
4DC3B
 10
37.9845
 20
7.53610
 30
0.000000
  70
    32
  0
VERTEX
  8
1
  5
4DC3C
 10
37.9899
 20
7.53859
 30
0.000000
  70
    32
  0
VERTEX
  8
1
  5
4DC3D
 10
37.9953
 20
7.54119
 30
0.000000
  70
    32
  0
VERTEX
  8
1
  5
4DC3E
 10
38.0006
 20
7.54391
 30
0.000000
  70
    32
  0
VERTEX
  8
1
  5
4DC3F
 10
38.0059
 20
7.54673
 30
0.000000
  70
    32
  0
VERTEX
  8
1
  5
4DC40
 10
38.0111
 20
7.54966
 30
0.000000
  70
    32
  0
VERTEX
  8
1
  5
4DC41
 10
38.0162
 20
7.55270
 30
0.000000
  70
    32
  0
VERTEX
  8
1
  5
4DC42
 10
38.0213
 20
7.55584
 30
0.000000
  70
    32
  0
VERTEX
  8
1
  5
4DC43
 10
38.0263
 20
7.55908
 30
0.000000
  70
    32
  0
VERTEX
  8
1
  5
4DC44
 10
38.0313
 20
7.56243
 30
0.000000
  70
    32
  0
VERTEX
  8
1
  5
4DC45
 10
38.0362
 20
7.56588
 30
0.000000
  70
    32
  0
VERTEX
  8
1
  5
4DC46
 10
38.0410
 20
7.56943
 30
0.000000
  70
    32
  0
VERTEX
  8
1
  5
4DC47
 10
38.0457
 20
7.57308
 30
0.000000
  70
    32
  0
VERTEX
  8
1
  5
4DC48
 10
38.0504
 20
7.57683
 30
0.000000
  70
    32
  0
VERTEX
  8
1
  5
4DC49
 10
38.0550
 20
7.58067
 30
0.000000
  70
    32
  0
VERTEX
  8
1
  5
4DC4A
 10
38.0595
 20
7.58460
 30
0.000000
  70
    32
  0
VERTEX
  8
1
  5
4DC4B
 10
38.0639
 20
7.58863
 30
0.000000
  70
    32
  0
VERTEX
  8
1
  5
4DC4C
 10
38.0682
 20
7.59274
 30
0.000000
  70
    32
  0
VERTEX
  8
1
  5
4DC4D
 10
38.0725
 20
7.59695
 30
0.000000
  70
    32
  0
VERTEX
  8
1
  5
4DC4E
 10
38.0766
 20
7.60124
 30
0.000000
  70
    32
  0
VERTEX
  8
1
  5
4DC4F
 10
38.0807
 20
7.60561
 30
0.000000
  70
    32
  0
VERTEX
  8
1
  5
4DC50
 10
38.0847
 20
7.61007
 30
0.000000
  70
    32
  0
VERTEX
  8
1
  5
4DC51
 10
38.0886
 20
7.61461
 30
0.000000
  70
    32
  0
VERTEX
  8
1
  5
4DC52
 10
38.0924
 20
7.61923
 30
0.000000
  70
    32
  0
VERTEX
  8
1
  5
4DC53
 10
38.0961
 20
7.62393
 30
0.000000
  70
    32
  0
VERTEX
  8
1
  5
4DC54
 10
38.0997
 20
7.62870
 30
0.000000
  70
    32
  0
VERTEX
  8
1
  5
4DC55
 10
38.1032
 20
7.63355
 30
0.000000
  70
    32
  0
VERTEX
  8
1
  5
4DC56
 10
38.1066
 20
7.63847
 30
0.000000
  70
    32
  0
VERTEX
  8
1
  5
4DC57
 10
38.1099
 20
7.64345
 30
0.000000
  70
    32
  0
VERTEX
  8
1
  5
4DC58
 10
38.1132
 20
7.64851
 30
0.000000
  70
    32
  0
VERTEX
  8
1
  5
4DC59
 10
38.1163
 20
7.65363
 30
0.000000
  70
    32
  0
VERTEX
  8
1
  5
4DC5A
 10
38.1193
 20
7.65881
 30
0.000000
  70
    32
  0
VERTEX
  8
1
  5
4DC5B
 10
38.1222
 20
7.66405
 30
0.000000
  70
    32
  0
VERTEX
  8
1
  5
4DC5C
 10
38.1249
 20
7.66935
 30
0.000000
  70
    32
  0
VERTEX
  8
1
  5
4DC5D
 10
38.1276
 20
7.67471
 30
0.000000
  70
    32
  0
VERTEX
  8
1
  5
4DC5E
 10
38.1302
 20
7.68012
 30
0.000000
  70
    32
  0
VERTEX
  8
1
  5
4DC5F
 10
38.1326
 20
7.68558
 30
0.000000
  70
    32
  0
VERTEX
  8
1
  5
4DC60
 10
38.1350
 20
7.69109
 30
0.000000
  70
    32
  0
VERTEX
  8
1
  5
4DC61
 10
38.1372
 20
7.69665
 30
0.000000
  70
    32
  0
VERTEX
  8
1
  5
4DC62
 10
38.1393
 20
7.70226
 30
0.000000
  70
    32
  0
VERTEX
  8
1
  5
4DC63
 10
38.1413
 20
7.70790
 30
0.000000
  70
    32
  0
VERTEX
  8
1
  5
4DC64
 10
38.1432
 20
7.71359
 30
0.000000
  70
    32
  0
SEQEND
  8
1
  5
4DC65
  0
POLYLINE
  5
4D520
  8
1
 10
37.939085000000063
 20
7.1979749999999862
 30
0.0
 66
     1
 70
     8
  0
VERTEX
  8
1
  5
4DC66
 10
37.9391
 20
7.19797
 30
0.000000
  70
    32
  0
VERTEX
  8
1
  5
4DC67
 10
38.0368
 20
7.20038
 30
0.000000
  70
    32
  0
VERTEX
  8
1
  5
4DC68
 10
38.1344
 20
7.20761
 30
0.000000
  70
    32
  0
VERTEX
  8
1
  5
4DC69
 10
38.2314
 20
7.21962
 30
0.000000
  70
    32
  0
VERTEX
  8
1
  5
4DC6A
 10
38.3278
 20
7.23640
 30
0.000000
  70
    32
  0
VERTEX
  8
1
  5
4DC6B
 10
38.4232
 20
7.25791
 30
0.000000
  70
    32
  0
VERTEX
  8
1
  5
4DC6C
 10
38.5174
 20
7.28409
 30
0.000000
  70
    32
  0
VERTEX
  8
1
  5
4DC6D
 10
38.6103
 20
7.31489
 30
0.000000
  70
    32
  0
VERTEX
  8
1
  5
4DC6E
 10
38.7015
 20
7.35022
 30
0.000000
  70
    32
  0
VERTEX
  8
1
  5
4DC6F
 10
38.7909
 20
7.39000
 30
0.000000
  70
    32
  0
VERTEX
  8
1
  5
4DC70
 10
38.8783
 20
7.43413
 30
0.000000
  70
    32
  0
VERTEX
  8
1
  5
4DC71
 10
38.9634
 20
7.48252
 30
0.000000
  70
    32
  0
VERTEX
  8
1
  5
4DC72
 10
39.0460
 20
7.53504
 30
0.000000
  70
    32
  0
VERTEX
  8
1
  5
4DC73
 10
39.1260
 20
7.59156
 30
0.000000
  70
    32
  0
VERTEX
  8
1
  5
4DC74
 10
39.2030
 20
7.65195
 30
0.000000
  70
    32
  0
VERTEX
  8
1
  5
4DC75
 10
39.2771
 20
7.71607
 30
0.000000
  70
    32
  0
VERTEX
  8
1
  5
4DC76
 10
39.3479
 20
7.78376
 30
0.000000
  70
    32
  0
VERTEX
  8
1
  5
4DC77
 10
39.4153
 20
7.85486
 30
0.000000
  70
    32
  0
VERTEX
  8
1
  5
4DC78
 10
39.4792
 20
7.92919
 30
0.000000
  70
    32
  0
VERTEX
  8
1
  5
4DC79
 10
39.5394
 20
8.00658
 30
0.000000
  70
    32
  0
VERTEX
  8
1
  5
4DC7A
 10
39.5957
 20
8.08683
 30
0.000000
  70
    32
  0
VERTEX
  8
1
  5
4DC7B
 10
39.6480
 20
8.16977
 30
0.000000
  70
    32
  0
VERTEX
  8
1
  5
4DC7C
 10
39.6962
 20
8.25518
 30
0.000000
  70
    32
  0
VERTEX
  8
1
  5
4DC7D
 10
39.7402
 20
8.34286
 30
0.000000
  70
    32
  0
VERTEX
  8
1
  5
4DC7E
 10
39.7798
 20
8.43261
 30
0.000000
  70
    32
  0
VERTEX
  8
1
  5
4DC7F
 10
39.8150
 20
8.52420
 30
0.000000
  70
    32
  0
VERTEX
  8
1
  5
4DC80
 10
39.8457
 20
8.61741
 30
0.000000
  70
    32
  0
VERTEX
  8
1
  5
4DC81
 10
39.8718
 20
8.71201
 30
0.000000
  70
    32
  0
VERTEX
  8
1
  5
4DC82
 10
39.8932
 20
8.80779
 30
0.000000
  70
    32
  0
VERTEX
  8
1
  5
4DC83
 10
39.9099
 20
8.90451
 30
0.000000
  70
    32
  0
VERTEX
  8
1
  5
4DC84
 10
39.9219
 20
9.00194
 30
0.000000
  70
    32
  0
VERTEX
  8
1
  5
4DC85
 10
39.9291
 20
9.09984
 30
0.000000
  70
    32
  0
VERTEX
  8
1
  5
4DC86
 10
39.9315
 20
9.19797
 30
0.000000
  70
    32
  0
VERTEX
  8
1
  5
4DC87
 10
39.9291
 20
9.29611
 30
0.000000
  70
    32
  0
VERTEX
  8
1
  5
4DC88
 10
39.9219
 20
9.39401
 30
0.000000
  70
    32
  0
VERTEX
  8
1
  5
4DC89
 10
39.9099
 20
9.49144
 30
0.000000
  70
    32
  0
VERTEX
  8
1
  5
4DC8A
 10
39.8932
 20
9.58816
 30
0.000000
  70
    32
  0
VERTEX
  8
1
  5
4DC8B
 10
39.8718
 20
9.68394
 30
0.000000
  70
    32
  0
VERTEX
  8
1
  5
4DC8C
 10
39.8457
 20
9.77854
 30
0.000000
  70
    32
  0
VERTEX
  8
1
  5
4DC8D
 10
39.8150
 20
9.87175
 30
0.000000
  70
    32
  0
VERTEX
  8
1
  5
4DC8E
 10
39.7798
 20
9.96334
 30
0.000000
  70
    32
  0
VERTEX
  8
1
  5
4DC8F
 10
39.7402
 20
10.0531
 30
0.000000
  70
    32
  0
VERTEX
  8
1
  5
4DC90
 10
39.6962
 20
10.1408
 30
0.000000
  70
    32
  0
VERTEX
  8
1
  5
4DC91
 10
39.6480
 20
10.2262
 30
0.000000
  70
    32
  0
VERTEX
  8
1
  5
4DC92
 10
39.5957
 20
10.3091
 30
0.000000
  70
    32
  0
VERTEX
  8
1
  5
4DC93
 10
39.5394
 20
10.3894
 30
0.000000
  70
    32
  0
VERTEX
  8
1
  5
4DC94
 10
39.4792
 20
10.4668
 30
0.000000
  70
    32
  0
VERTEX
  8
1
  5
4DC95
 10
39.4153
 20
10.5411
 30
0.000000
  70
    32
  0
VERTEX
  8
1
  5
4DC96
 10
39.3479
 20
10.6122
 30
0.000000
  70
    32
  0
VERTEX
  8
1
  5
4DC97
 10
39.2771
 20
10.6799
 30
0.000000
  70
    32
  0
VERTEX
  8
1
  5
4DC98
 10
39.2030
 20
10.7440
 30
0.000000
  70
    32
  0
VERTEX
  8
1
  5
4DC99
 10
39.1260
 20
10.8044
 30
0.000000
  70
    32
  0
VERTEX
  8
1
  5
4DC9A
 10
39.0460
 20
10.8609
 30
0.000000
  70
    32
  0
VERTEX
  8
1
  5
4DC9B
 10
38.9634
 20
10.9134
 30
0.000000
  70
    32
  0
VERTEX
  8
1
  5
4DC9C
 10
38.8783
 20
10.9618
 30
0.000000
  70
    32
  0
VERTEX
  8
1
  5
4DC9D
 10
38.7909
 20
11.0060
 30
0.000000
  70
    32
  0
VERTEX
  8
1
  5
4DC9E
 10
38.7015
 20
11.0457
 30
0.000000
  70
    32
  0
VERTEX
  8
1
  5
4DC9F
 10
38.6103
 20
11.0811
 30
0.000000
  70
    32
  0
VERTEX
  8
1
  5
4DCA0
 10
38.5174
 20
11.1119
 30
0.000000
  70
    32
  0
VERTEX
  8
1
  5
4DCA1
 10
38.4232
 20
11.1380
 30
0.000000
  70
    32
  0
VERTEX
  8
1
  5
4DCA2
 10
38.3278
 20
11.1595
 30
0.000000
  70
    32
  0
VERTEX
  8
1
  5
4DCA3
 10
38.2314
 20
11.1763
 30
0.000000
  70
    32
  0
VERTEX
  8
1
  5
4DCA4
 10
38.1344
 20
11.1883
 30
0.000000
  70
    32
  0
VERTEX
  8
1
  5
4DCA5
 10
38.0368
 20
11.1956
 30
0.000000
  70
    32
  0
VERTEX
  8
1
  5
4DCA6
 10
37.9391
 20
11.1980
 30
0.000000
  70
    32
  0
VERTEX
  8
1
  5
4DCA7
 10
37.8413
 20
11.1956
 30
0.000000
  70
    32
  0
VERTEX
  8
1
  5
4DCA8
 10
37.7438
 20
11.1883
 30
0.000000
  70
    32
  0
VERTEX
  8
1
  5
4DCA9
 10
37.6467
 20
11.1763
 30
0.000000
  70
    32
  0
VERTEX
  8
1
  5
4DCAA
 10
37.5504
 20
11.1595
 30
0.000000
  70
    32
  0
VERTEX
  8
1
  5
4DCAB
 10
37.4550
 20
11.1380
 30
0.000000
  70
    32
  0
VERTEX
  8
1
  5
4DCAC
 10
37.3607
 20
11.1119
 30
0.000000
  70
    32
  0
VERTEX
  8
1
  5
4DCAD
 10
37.2679
 20
11.0811
 30
0.000000
  70
    32
  0
VERTEX
  8
1
  5
4DCAE
 10
37.1766
 20
11.0457
 30
0.000000
  70
    32
  0
VERTEX
  8
1
  5
4DCAF
 10
37.0872
 20
11.0060
 30
0.000000
  70
    32
  0
VERTEX
  8
1
  5
4DCB0
 10
36.9999
 20
10.9618
 30
0.000000
  70
    32
  0
VERTEX
  8
1
  5
4DCB1
 10
36.9148
 20
10.9134
 30
0.000000
  70
    32
  0
VERTEX
  8
1
  5
4DCB2
 10
36.8322
 20
10.8609
 30
0.000000
  70
    32
  0
VERTEX
  8
1
  5
4DCB3
 10
36.7522
 20
10.8044
 30
0.000000
  70
    32
  0
VERTEX
  8
1
  5
4DCB4
 10
36.6751
 20
10.7440
 30
0.000000
  70
    32
  0
VERTEX
  8
1
  5
4DCB5
 10
36.6011
 20
10.6799
 30
0.000000
  70
    32
  0
VERTEX
  8
1
  5
4DCB6
 10
36.5303
 20
10.6122
 30
0.000000
  70
    32
  0
VERTEX
  8
1
  5
4DCB7
 10
36.4628
 20
10.5411
 30
0.000000
  70
    32
  0
VERTEX
  8
1
  5
4DCB8
 10
36.3989
 20
10.4668
 30
0.000000
  70
    32
  0
VERTEX
  8
1
  5
4DCB9
 10
36.3388
 20
10.3894
 30
0.000000
  70
    32
  0
VERTEX
  8
1
  5
4DCBA
 10
36.2825
 20
10.3091
 30
0.000000
  70
    32
  0
VERTEX
  8
1
  5
4DCBB
 10
36.2302
 20
10.2262
 30
0.000000
  70
    32
  0
VERTEX
  8
1
  5
4DCBC
 10
36.1820
 20
10.1408
 30
0.000000
  70
    32
  0
VERTEX
  8
1
  5
4DCBD
 10
36.1380
 20
10.0531
 30
0.000000
  70
    32
  0
VERTEX
  8
1
  5
4DCBE
 10
36.0984
 20
9.96334
 30
0.000000
  70
    32
  0
VERTEX
  8
1
  5
4DCBF
 10
36.0632
 20
9.87175
 30
0.000000
  70
    32
  0
VERTEX
  8
1
  5
4DCC0
 10
36.0325
 20
9.77854
 30
0.000000
  70
    32
  0
VERTEX
  8
1
  5
4DCC1
 10
36.0064
 20
9.68394
 30
0.000000
  70
    32
  0
VERTEX
  8
1
  5
4DCC2
 10
35.9850
 20
9.58816
 30
0.000000
  70
    32
  0
VERTEX
  8
1
  5
4DCC3
 10
35.9683
 20
9.49144
 30
0.000000
  70
    32
  0
VERTEX
  8
1
  5
4DCC4
 10
35.9563
 20
9.39401
 30
0.000000
  70
    32
  0
VERTEX
  8
1
  5
4DCC5
 10
35.9491
 20
9.29611
 30
0.000000
  70
    32
  0
VERTEX
  8
1
  5
4DCC6
 10
35.9467
 20
9.19797
 30
0.000000
  70
    32
  0
VERTEX
  8
1
  5
4DCC7
 10
35.9491
 20
9.09984
 30
0.000000
  70
    32
  0
VERTEX
  8
1
  5
4DCC8
 10
35.9563
 20
9.00194
 30
0.000000
  70
    32
  0
VERTEX
  8
1
  5
4DCC9
 10
35.9683
 20
8.90451
 30
0.000000
  70
    32
  0
VERTEX
  8
1
  5
4DCCA
 10
35.9850
 20
8.80779
 30
0.000000
  70
    32
  0
VERTEX
  8
1
  5
4DCCB
 10
36.0064
 20
8.71201
 30
0.000000
  70
    32
  0
VERTEX
  8
1
  5
4DCCC
 10
36.0325
 20
8.61741
 30
0.000000
  70
    32
  0
VERTEX
  8
1
  5
4DCCD
 10
36.0632
 20
8.52420
 30
0.000000
  70
    32
  0
VERTEX
  8
1
  5
4DCCE
 10
36.0984
 20
8.43261
 30
0.000000
  70
    32
  0
VERTEX
  8
1
  5
4DCCF
 10
36.1380
 20
8.34286
 30
0.000000
  70
    32
  0
VERTEX
  8
1
  5
4DCD0
 10
36.1820
 20
8.25518
 30
0.000000
  70
    32
  0
VERTEX
  8
1
  5
4DCD1
 10
36.2302
 20
8.16977
 30
0.000000
  70
    32
  0
VERTEX
  8
1
  5
4DCD2
 10
36.2825
 20
8.08683
 30
0.000000
  70
    32
  0
VERTEX
  8
1
  5
4DCD3
 10
36.3388
 20
8.00658
 30
0.000000
  70
    32
  0
VERTEX
  8
1
  5
4DCD4
 10
36.3989
 20
7.92919
 30
0.000000
  70
    32
  0
VERTEX
  8
1
  5
4DCD5
 10
36.4628
 20
7.85486
 30
0.000000
  70
    32
  0
VERTEX
  8
1
  5
4DCD6
 10
36.5303
 20
7.78376
 30
0.000000
  70
    32
  0
VERTEX
  8
1
  5
4DCD7
 10
36.6011
 20
7.71607
 30
0.000000
  70
    32
  0
VERTEX
  8
1
  5
4DCD8
 10
36.6751
 20
7.65195
 30
0.000000
  70
    32
  0
VERTEX
  8
1
  5
4DCD9
 10
36.7522
 20
7.59156
 30
0.000000
  70
    32
  0
VERTEX
  8
1
  5
4DCDA
 10
36.8322
 20
7.53504
 30
0.000000
  70
    32
  0
VERTEX
  8
1
  5
4DCDB
 10
36.9148
 20
7.48252
 30
0.000000
  70
    32
  0
VERTEX
  8
1
  5
4DCDC
 10
36.9999
 20
7.43413
 30
0.000000
  70
    32
  0
VERTEX
  8
1
  5
4DCDD
 10
37.0872
 20
7.39000
 30
0.000000
  70
    32
  0
VERTEX
  8
1
  5
4DCDE
 10
37.1766
 20
7.35022
 30
0.000000
  70
    32
  0
VERTEX
  8
1
  5
4DCDF
 10
37.2679
 20
7.31489
 30
0.000000
  70
    32
  0
VERTEX
  8
1
  5
4DCE0
 10
37.3607
 20
7.28409
 30
0.000000
  70
    32
  0
VERTEX
  8
1
  5
4DCE1
 10
37.4550
 20
7.25791
 30
0.000000
  70
    32
  0
VERTEX
  8
1
  5
4DCE2
 10
37.5504
 20
7.23640
 30
0.000000
  70
    32
  0
VERTEX
  8
1
  5
4DCE3
 10
37.6467
 20
7.21962
 30
0.000000
  70
    32
  0
VERTEX
  8
1
  5
4DCE4
 10
37.7438
 20
7.20761
 30
0.000000
  70
    32
  0
VERTEX
  8
1
  5
4DCE5
 10
37.8413
 20
7.20038
 30
0.000000
  70
    32
  0
VERTEX
  8
1
  5
4DCE6
 10
37.9391
 20
7.19797
 30
0.000000
  70
    32
  0
SEQEND
  8
1
  5
4DCE7
  0
POLYLINE
  5
4D521
  8
1
 10
38.296780911908321
 20
10.652198508937765
 30
0.0
 66
     1
 70
     8
  0
VERTEX
  8
1
  5
4DCE8
 10
38.2968
 20
10.6522
 30
0.000000
  70
    32
  0
VERTEX
  8
1
  5
4DCE9
 10
38.2955
 20
10.6581
 30
0.000000
  70
    32
  0
VERTEX
  8
1
  5
4DCEA
 10
38.2941
 20
10.6639
 30
0.000000
  70
    32
  0
VERTEX
  8
1
  5
4DCEB
 10
38.2926
 20
10.6697
 30
0.000000
  70
    32
  0
VERTEX
  8
1
  5
4DCEC
 10
38.2910
 20
10.6754
 30
0.000000
  70
    32
  0
VERTEX
  8
1
  5
4DCED
 10
38.2892
 20
10.6812
 30
0.000000
  70
    32
  0
VERTEX
  8
1
  5
4DCEE
 10
38.2874
 20
10.6869
 30
0.000000
  70
    32
  0
VERTEX
  8
1
  5
4DCEF
 10
38.2854
 20
10.6925
 30
0.000000
  70
    32
  0
VERTEX
  8
1
  5
4DCF0
 10
38.2833
 20
10.6981
 30
0.000000
  70
    32
  0
VERTEX
  8
1
  5
4DCF1
 10
38.2811
 20
10.7037
 30
0.000000
  70
    32
  0
VERTEX
  8
1
  5
4DCF2
 10
38.2788
 20
10.7092
 30
0.000000
  70
    32
  0
VERTEX
  8
1
  5
4DCF3
 10
38.2764
 20
10.7147
 30
0.000000
  70
    32
  0
VERTEX
  8
1
  5
4DCF4
 10
38.2738
 20
10.7201
 30
0.000000
  70
    32
  0
VERTEX
  8
1
  5
4DCF5
 10
38.2712
 20
10.7255
 30
0.000000
  70
    32
  0
VERTEX
  8
1
  5
4DCF6
 10
38.2684
 20
10.7308
 30
0.000000
  70
    32
  0
VERTEX
  8
1
  5
4DCF7
 10
38.2655
 20
10.7361
 30
0.000000
  70
    32
  0
VERTEX
  8
1
  5
4DCF8
 10
38.2626
 20
10.7413
 30
0.000000
  70
    32
  0
VERTEX
  8
1
  5
4DCF9
 10
38.2595
 20
10.7464
 30
0.000000
  70
    32
  0
VERTEX
  8
1
  5
4DCFA
 10
38.2563
 20
10.7515
 30
0.000000
  70
    32
  0
VERTEX
  8
1
  5
4DCFB
 10
38.2530
 20
10.7565
 30
0.000000
  70
    32
  0
VERTEX
  8
1
  5
4DCFC
 10
38.2496
 20
10.7614
 30
0.000000
  70
    32
  0
VERTEX
  8
1
  5
4DCFD
 10
38.2461
 20
10.7662
 30
0.000000
  70
    32
  0
VERTEX
  8
1
  5
4DCFE
 10
38.2425
 20
10.7710
 30
0.000000
  70
    32
  0
VERTEX
  8
1
  5
4DCFF
 10
38.2388
 20
10.7757
 30
0.000000
  70
    32
  0
VERTEX
  8
1
  5
4DD00
 10
38.2351
 20
10.7804
 30
0.000000
  70
    32
  0
VERTEX
  8
1
  5
4DD01
 10
38.2312
 20
10.7849
 30
0.000000
  70
    32
  0
VERTEX
  8
1
  5
4DD02
 10
38.2272
 20
10.7894
 30
0.000000
  70
    32
  0
VERTEX
  8
1
  5
4DD03
 10
38.2232
 20
10.7938
 30
0.000000
  70
    32
  0
VERTEX
  8
1
  5
4DD04
 10
38.2190
 20
10.7981
 30
0.000000
  70
    32
  0
VERTEX
  8
1
  5
4DD05
 10
38.2148
 20
10.8023
 30
0.000000
  70
    32
  0
VERTEX
  8
1
  5
4DD06
 10
38.2105
 20
10.8065
 30
0.000000
  70
    32
  0
VERTEX
  8
1
  5
4DD07
 10
38.2061
 20
10.8105
 30
0.000000
  70
    32
  0
VERTEX
  8
1
  5
4DD08
 10
38.2016
 20
10.8145
 30
0.000000
  70
    32
  0
VERTEX
  8
1
  5
4DD09
 10
38.1970
 20
10.8183
 30
0.000000
  70
    32
  0
VERTEX
  8
1
  5
4DD0A
 10
38.1924
 20
10.8221
 30
0.000000
  70
    32
  0
VERTEX
  8
1
  5
4DD0B
 10
38.1876
 20
10.8258
 30
0.000000
  70
    32
  0
VERTEX
  8
1
  5
4DD0C
 10
38.1828
 20
10.8293
 30
0.000000
  70
    32
  0
VERTEX
  8
1
  5
4DD0D
 10
38.1780
 20
10.8328
 30
0.000000
  70
    32
  0
VERTEX
  8
1
  5
4DD0E
 10
38.1730
 20
10.8362
 30
0.000000
  70
    32
  0
VERTEX
  8
1
  5
4DD0F
 10
38.1680
 20
10.8394
 30
0.000000
  70
    32
  0
VERTEX
  8
1
  5
4DD10
 10
38.1630
 20
10.8426
 30
0.000000
  70
    32
  0
VERTEX
  8
1
  5
4DD11
 10
38.1578
 20
10.8457
 30
0.000000
  70
    32
  0
VERTEX
  8
1
  5
4DD12
 10
38.1526
 20
10.8486
 30
0.000000
  70
    32
  0
VERTEX
  8
1
  5
4DD13
 10
38.1474
 20
10.8515
 30
0.000000
  70
    32
  0
VERTEX
  8
1
  5
4DD14
 10
38.1421
 20
10.8542
 30
0.000000
  70
    32
  0
VERTEX
  8
1
  5
4DD15
 10
38.1367
 20
10.8568
 30
0.000000
  70
    32
  0
VERTEX
  8
1
  5
4DD16
 10
38.1313
 20
10.8593
 30
0.000000
  70
    32
  0
VERTEX
  8
1
  5
4DD17
 10
38.1258
 20
10.8617
 30
0.000000
  70
    32
  0
VERTEX
  8
1
  5
4DD18
 10
38.1203
 20
10.8640
 30
0.000000
  70
    32
  0
VERTEX
  8
1
  5
4DD19
 10
38.1147
 20
10.8662
 30
0.000000
  70
    32
  0
VERTEX
  8
1
  5
4DD1A
 10
38.1091
 20
10.8683
 30
0.000000
  70
    32
  0
VERTEX
  8
1
  5
4DD1B
 10
38.1035
 20
10.8702
 30
0.000000
  70
    32
  0
VERTEX
  8
1
  5
4DD1C
 10
38.0978
 20
10.8720
 30
0.000000
  70
    32
  0
VERTEX
  8
1
  5
4DD1D
 10
38.0921
 20
10.8738
 30
0.000000
  70
    32
  0
VERTEX
  8
1
  5
4DD1E
 10
38.0863
 20
10.8753
 30
0.000000
  70
    32
  0
VERTEX
  8
1
  5
4DD1F
 10
38.0805
 20
10.8768
 30
0.000000
  70
    32
  0
VERTEX
  8
1
  5
4DD20
 10
38.0747
 20
10.8782
 30
0.000000
  70
    32
  0
VERTEX
  8
1
  5
4DD21
 10
38.0689
 20
10.8794
 30
0.000000
  70
    32
  0
VERTEX
  8
1
  5
4DD22
 10
38.0630
 20
10.8805
 30
0.000000
  70
    32
  0
VERTEX
  8
1
  5
4DD23
 10
38.0571
 20
10.8815
 30
0.000000
  70
    32
  0
VERTEX
  8
1
  5
4DD24
 10
38.0512
 20
10.8824
 30
0.000000
  70
    32
  0
VERTEX
  8
1
  5
4DD25
 10
38.0453
 20
10.8831
 30
0.000000
  70
    32
  0
VERTEX
  8
1
  5
4DD26
 10
38.0394
 20
10.8838
 30
0.000000
  70
    32
  0
VERTEX
  8
1
  5
4DD27
 10
38.0334
 20
10.8843
 30
0.000000
  70
    32
  0
VERTEX
  8
1
  5
4DD28
 10
38.0275
 20
10.8846
 30
0.000000
  70
    32
  0
VERTEX
  8
1
  5
4DD29
 10
38.0215
 20
10.8849
 30
0.000000
  70
    32
  0
VERTEX
  8
1
  5
4DD2A
 10
38.0155
 20
10.8850
 30
0.000000
  70
    32
  0
VERTEX
  8
1
  5
4DD2B
 10
38.0096
 20
10.8851
 30
0.000000
  70
    32
  0
VERTEX
  8
1
  5
4DD2C
 10
38.0036
 20
10.8849
 30
0.000000
  70
    32
  0
VERTEX
  8
1
  5
4DD2D
 10
37.9976
 20
10.8847
 30
0.000000
  70
    32
  0
VERTEX
  8
1
  5
4DD2E
 10
37.9917
 20
10.8844
 30
0.000000
  70
    32
  0
VERTEX
  8
1
  5
4DD2F
 10
37.9857
 20
10.8839
 30
0.000000
  70
    32
  0
VERTEX
  8
1
  5
4DD30
 10
37.9798
 20
10.8833
 30
0.000000
  70
    32
  0
VERTEX
  8
1
  5
4DD31
 10
37.9738
 20
10.8825
 30
0.000000
  70
    32
  0
VERTEX
  8
1
  5
4DD32
 10
37.9679
 20
10.8817
 30
0.000000
  70
    32
  0
VERTEX
  8
1
  5
4DD33
 10
37.9620
 20
10.8807
 30
0.000000
  70
    32
  0
VERTEX
  8
1
  5
4DD34
 10
37.9562
 20
10.8796
 30
0.000000
  70
    32
  0
VERTEX
  8
1
  5
4DD35
 10
37.9503
 20
10.8784
 30
0.000000
  70
    32
  0
VERTEX
  8
1
  5
4DD36
 10
37.9445
 20
10.8771
 30
0.000000
  70
    32
  0
VERTEX
  8
1
  5
4DD37
 10
37.9387
 20
10.8757
 30
0.000000
  70
    32
  0
VERTEX
  8
1
  5
4DD38
 10
37.9330
 20
10.8741
 30
0.000000
  70
    32
  0
VERTEX
  8
1
  5
4DD39
 10
37.9272
 20
10.8724
 30
0.000000
  70
    32
  0
VERTEX
  8
1
  5
4DD3A
 10
37.9215
 20
10.8706
 30
0.000000
  70
    32
  0
VERTEX
  8
1
  5
4DD3B
 10
37.9159
 20
10.8687
 30
0.000000
  70
    32
  0
VERTEX
  8
1
  5
4DD3C
 10
37.9103
 20
10.8666
 30
0.000000
  70
    32
  0
VERTEX
  8
1
  5
4DD3D
 10
37.9047
 20
10.8645
 30
0.000000
  70
    32
  0
VERTEX
  8
1
  5
4DD3E
 10
37.8992
 20
10.8622
 30
0.000000
  70
    32
  0
VERTEX
  8
1
  5
4DD3F
 10
37.8937
 20
10.8599
 30
0.000000
  70
    32
  0
VERTEX
  8
1
  5
4DD40
 10
37.8883
 20
10.8574
 30
0.000000
  70
    32
  0
VERTEX
  8
1
  5
4DD41
 10
37.8829
 20
10.8548
 30
0.000000
  70
    32
  0
VERTEX
  8
1
  5
4DD42
 10
37.8776
 20
10.8520
 30
0.000000
  70
    32
  0
VERTEX
  8
1
  5
4DD43
 10
37.8723
 20
10.8492
 30
0.000000
  70
    32
  0
VERTEX
  8
1
  5
4DD44
 10
37.8671
 20
10.8463
 30
0.000000
  70
    32
  0
VERTEX
  8
1
  5
4DD45
 10
37.8619
 20
10.8433
 30
0.000000
  70
    32
  0
VERTEX
  8
1
  5
4DD46
 10
37.8569
 20
10.8401
 30
0.000000
  70
    32
  0
VERTEX
  8
1
  5
4DD47
 10
37.8518
 20
10.8369
 30
0.000000
  70
    32
  0
VERTEX
  8
1
  5
4DD48
 10
37.8469
 20
10.8335
 30
0.000000
  70
    32
  0
VERTEX
  8
1
  5
4DD49
 10
37.8420
 20
10.8301
 30
0.000000
  70
    32
  0
VERTEX
  8
1
  5
4DD4A
 10
37.8372
 20
10.8265
 30
0.000000
  70
    32
  0
VERTEX
  8
1
  5
4DD4B
 10
37.8325
 20
10.8229
 30
0.000000
  70
    32
  0
VERTEX
  8
1
  5
4DD4C
 10
37.8278
 20
10.8191
 30
0.000000
  70
    32
  0
VERTEX
  8
1
  5
4DD4D
 10
37.8232
 20
10.8153
 30
0.000000
  70
    32
  0
VERTEX
  8
1
  5
4DD4E
 10
37.8187
 20
10.8113
 30
0.000000
  70
    32
  0
VERTEX
  8
1
  5
4DD4F
 10
37.8143
 20
10.8073
 30
0.000000
  70
    32
  0
VERTEX
  8
1
  5
4DD50
 10
37.8100
 20
10.8032
 30
0.000000
  70
    32
  0
VERTEX
  8
1
  5
4DD51
 10
37.8057
 20
10.7990
 30
0.000000
  70
    32
  0
VERTEX
  8
1
  5
4DD52
 10
37.8015
 20
10.7947
 30
0.000000
  70
    32
  0
VERTEX
  8
1
  5
4DD53
 10
37.7975
 20
10.7903
 30
0.000000
  70
    32
  0
VERTEX
  8
1
  5
4DD54
 10
37.7935
 20
10.7859
 30
0.000000
  70
    32
  0
VERTEX
  8
1
  5
4DD55
 10
37.7896
 20
10.7813
 30
0.000000
  70
    32
  0
VERTEX
  8
1
  5
4DD56
 10
37.7858
 20
10.7767
 30
0.000000
  70
    32
  0
VERTEX
  8
1
  5
4DD57
 10
37.7821
 20
10.7720
 30
0.000000
  70
    32
  0
VERTEX
  8
1
  5
4DD58
 10
37.7785
 20
10.7672
 30
0.000000
  70
    32
  0
VERTEX
  8
1
  5
4DD59
 10
37.7749
 20
10.7624
 30
0.000000
  70
    32
  0
VERTEX
  8
1
  5
4DD5A
 10
37.7715
 20
10.7575
 30
0.000000
  70
    32
  0
VERTEX
  8
1
  5
4DD5B
 10
37.7682
 20
10.7525
 30
0.000000
  70
    32
  0
VERTEX
  8
1
  5
4DD5C
 10
37.7650
 20
10.7474
 30
0.000000
  70
    32
  0
VERTEX
  8
1
  5
4DD5D
 10
37.7619
 20
10.7423
 30
0.000000
  70
    32
  0
VERTEX
  8
1
  5
4DD5E
 10
37.7589
 20
10.7371
 30
0.000000
  70
    32
  0
VERTEX
  8
1
  5
4DD5F
 10
37.7560
 20
10.7319
 30
0.000000
  70
    32
  0
VERTEX
  8
1
  5
4DD60
 10
37.7532
 20
10.7266
 30
0.000000
  70
    32
  0
VERTEX
  8
1
  5
4DD61
 10
37.7506
 20
10.7212
 30
0.000000
  70
    32
  0
VERTEX
  8
1
  5
4DD62
 10
37.7480
 20
10.7158
 30
0.000000
  70
    32
  0
VERTEX
  8
1
  5
4DD63
 10
37.7455
 20
10.7104
 30
0.000000
  70
    32
  0
VERTEX
  8
1
  5
4DD64
 10
37.7432
 20
10.7049
 30
0.000000
  70
    32
  0
VERTEX
  8
1
  5
4DD65
 10
37.7410
 20
10.6993
 30
0.000000
  70
    32
  0
VERTEX
  8
1
  5
4DD66
 10
37.7389
 20
10.6937
 30
0.000000
  70
    32
  0
VERTEX
  8
1
  5
4DD67
 10
37.7369
 20
10.6880
 30
0.000000
  70
    32
  0
VERTEX
  8
1
  5
4DD68
 10
37.7350
 20
10.6824
 30
0.000000
  70
    32
  0
SEQEND
  8
1
  5
4DD69
  0
POLYLINE
  5
4D522
  8
1
 10
39.374000623414702
 20
9.6154476962011728
 30
0.0
 66
     1
 70
     8
  0
VERTEX
  8
1
  5
4DD6A
 10
39.3740
 20
9.61545
 30
0.000000
  70
    32
  0
VERTEX
  8
1
  5
4DD6B
 10
39.3784
 20
9.61950
 30
0.000000
  70
    32
  0
VERTEX
  8
1
  5
4DD6C
 10
39.3827
 20
9.62364
 30
0.000000
  70
    32
  0
VERTEX
  8
1
  5
4DD6D
 10
39.3869
 20
9.62787
 30
0.000000
  70
    32
  0
VERTEX
  8
1
  5
4DD6E
 10
39.3910
 20
9.63219
 30
0.000000
  70
    32
  0
VERTEX
  8
1
  5
4DD6F
 10
39.3951
 20
9.63659
 30
0.000000
  70
    32
  0
VERTEX
  8
1
  5
4DD70
 10
39.3990
 20
9.64107
 30
0.000000
  70
    32
  0
VERTEX
  8
1
  5
4DD71
 10
39.4029
 20
9.64563
 30
0.000000
  70
    32
  0
VERTEX
  8
1
  5
4DD72
 10
39.4066
 20
9.65027
 30
0.000000
  70
    32
  0
VERTEX
  8
1
  5
4DD73
 10
39.4103
 20
9.65498
 30
0.000000
  70
    32
  0
VERTEX
  8
1
  5
4DD74
 10
39.4138
 20
9.65978
 30
0.000000
  70
    32
  0
VERTEX
  8
1
  5
4DD75
 10
39.4173
 20
9.66464
 30
0.000000
  70
    32
  0
VERTEX
  8
1
  5
4DD76
 10
39.4207
 20
9.66957
 30
0.000000
  70
    32
  0
VERTEX
  8
1
  5
4DD77
 10
39.4240
 20
9.67457
 30
0.000000
  70
    32
  0
VERTEX
  8
1
  5
4DD78
 10
39.4271
 20
9.67964
 30
0.000000
  70
    32
  0
VERTEX
  8
1
  5
4DD79
 10
39.4302
 20
9.68477
 30
0.000000
  70
    32
  0
VERTEX
  8
1
  5
4DD7A
 10
39.4331
 20
9.68996
 30
0.000000
  70
    32
  0
VERTEX
  8
1
  5
4DD7B
 10
39.4360
 20
9.69522
 30
0.000000
  70
    32
  0
VERTEX
  8
1
  5
4DD7C
 10
39.4387
 20
9.70053
 30
0.000000
  70
    32
  0
VERTEX
  8
1
  5
4DD7D
 10
39.4414
 20
9.70589
 30
0.000000
  70
    32
  0
VERTEX
  8
1
  5
4DD7E
 10
39.4439
 20
9.71131
 30
0.000000
  70
    32
  0
VERTEX
  8
1
  5
4DD7F
 10
39.4463
 20
9.71678
 30
0.000000
  70
    32
  0
VERTEX
  8
1
  5
4DD80
 10
39.4486
 20
9.72230
 30
0.000000
  70
    32
  0
VERTEX
  8
1
  5
4DD81
 10
39.4508
 20
9.72786
 30
0.000000
  70
    32
  0
VERTEX
  8
1
  5
4DD82
 10
39.4528
 20
9.73347
 30
0.000000
  70
    32
  0
VERTEX
  8
1
  5
4DD83
 10
39.4548
 20
9.73912
 30
0.000000
  70
    32
  0
VERTEX
  8
1
  5
4DD84
 10
39.4566
 20
9.74481
 30
0.000000
  70
    32
  0
VERTEX
  8
1
  5
4DD85
 10
39.4584
 20
9.75053
 30
0.000000
  70
    32
  0
VERTEX
  8
1
  5
4DD86
 10
39.4600
 20
9.75629
 30
0.000000
  70
    32
  0
VERTEX
  8
1
  5
4DD87
 10
39.4615
 20
9.76208
 30
0.000000
  70
    32
  0
VERTEX
  8
1
  5
4DD88
 10
39.4628
 20
9.76790
 30
0.000000
  70
    32
  0
VERTEX
  8
1
  5
4DD89
 10
39.4641
 20
9.77375
 30
0.000000
  70
    32
  0
VERTEX
  8
1
  5
4DD8A
 10
39.4652
 20
9.77962
 30
0.000000
  70
    32
  0
VERTEX
  8
1
  5
4DD8B
 10
39.4662
 20
9.78551
 30
0.000000
  70
    32
  0
VERTEX
  8
1
  5
4DD8C
 10
39.4671
 20
9.79143
 30
0.000000
  70
    32
  0
VERTEX
  8
1
  5
4DD8D
 10
39.4679
 20
9.79736
 30
0.000000
  70
    32
  0
VERTEX
  8
1
  5
4DD8E
 10
39.4685
 20
9.80330
 30
0.000000
  70
    32
  0
VERTEX
  8
1
  5
4DD8F
 10
39.4691
 20
9.80926
 30
0.000000
  70
    32
  0
VERTEX
  8
1
  5
4DD90
 10
39.4695
 20
9.81523
 30
0.000000
  70
    32
  0
VERTEX
  8
1
  5
4DD91
 10
39.4698
 20
9.82120
 30
0.000000
  70
    32
  0
VERTEX
  8
1
  5
4DD92
 10
39.4699
 20
9.82718
 30
0.000000
  70
    32
  0
VERTEX
  8
1
  5
4DD93
 10
39.4700
 20
9.83316
 30
0.000000
  70
    32
  0
VERTEX
  8
1
  5
4DD94
 10
39.4699
 20
9.83914
 30
0.000000
  70
    32
  0
VERTEX
  8
1
  5
4DD95
 10
39.4697
 20
9.84512
 30
0.000000
  70
    32
  0
VERTEX
  8
1
  5
4DD96
 10
39.4694
 20
9.85109
 30
0.000000
  70
    32
  0
VERTEX
  8
1
  5
4DD97
 10
39.4689
 20
9.85705
 30
0.000000
  70
    32
  0
VERTEX
  8
1
  5
4DD98
 10
39.4684
 20
9.86301
 30
0.000000
  70
    32
  0
VERTEX
  8
1
  5
4DD99
 10
39.4677
 20
9.86895
 30
0.000000
  70
    32
  0
VERTEX
  8
1
  5
4DD9A
 10
39.4669
 20
9.87487
 30
0.000000
  70
    32
  0
VERTEX
  8
1
  5
4DD9B
 10
39.4659
 20
9.88078
 30
0.000000
  70
    32
  0
VERTEX
  8
1
  5
4DD9C
 10
39.4649
 20
9.88667
 30
0.000000
  70
    32
  0
VERTEX
  8
1
  5
4DD9D
 10
39.4637
 20
9.89253
 30
0.000000
  70
    32
  0
VERTEX
  8
1
  5
4DD9E
 10
39.4624
 20
9.89837
 30
0.000000
  70
    32
  0
VERTEX
  8
1
  5
4DD9F
 10
39.4610
 20
9.90418
 30
0.000000
  70
    32
  0
VERTEX
  8
1
  5
4DDA0
 10
39.4595
 20
9.90996
 30
0.000000
  70
    32
  0
VERTEX
  8
1
  5
4DDA1
 10
39.4578
 20
9.91571
 30
0.000000
  70
    32
  0
VERTEX
  8
1
  5
4DDA2
 10
39.4561
 20
9.92143
 30
0.000000
  70
    32
  0
VERTEX
  8
1
  5
4DDA3
 10
39.4542
 20
9.92710
 30
0.000000
  70
    32
  0
VERTEX
  8
1
  5
4DDA4
 10
39.4522
 20
9.93274
 30
0.000000
  70
    32
  0
VERTEX
  8
1
  5
4DDA5
 10
39.4501
 20
9.93833
 30
0.000000
  70
    32
  0
VERTEX
  8
1
  5
4DDA6
 10
39.4479
 20
9.94388
 30
0.000000
  70
    32
  0
VERTEX
  8
1
  5
4DDA7
 10
39.4455
 20
9.94938
 30
0.000000
  70
    32
  0
VERTEX
  8
1
  5
4DDA8
 10
39.4431
 20
9.95484
 30
0.000000
  70
    32
  0
VERTEX
  8
1
  5
4DDA9
 10
39.4405
 20
9.96024
 30
0.000000
  70
    32
  0
VERTEX
  8
1
  5
4DDAA
 10
39.4379
 20
9.96559
 30
0.000000
  70
    32
  0
VERTEX
  8
1
  5
4DDAB
 10
39.4351
 20
9.97088
 30
0.000000
  70
    32
  0
VERTEX
  8
1
  5
4DDAC
 10
39.4322
 20
9.97611
 30
0.000000
  70
    32
  0
VERTEX
  8
1
  5
4DDAD
 10
39.4292
 20
9.98129
 30
0.000000
  70
    32
  0
VERTEX
  8
1
  5
4DDAE
 10
39.4261
 20
9.98640
 30
0.000000
  70
    32
  0
VERTEX
  8
1
  5
4DDAF
 10
39.4229
 20
9.99144
 30
0.000000
  70
    32
  0
VERTEX
  8
1
  5
4DDB0
 10
39.4196
 20
9.99642
 30
0.000000
  70
    32
  0
VERTEX
  8
1
  5
4DDB1
 10
39.4162
 20
10.0013
 30
0.000000
  70
    32
  0
VERTEX
  8
1
  5
4DDB2
 10
39.4127
 20
10.0062
 30
0.000000
  70
    32
  0
VERTEX
  8
1
  5
4DDB3
 10
39.4091
 20
10.0109
 30
0.000000
  70
    32
  0
VERTEX
  8
1
  5
4DDB4
 10
39.4054
 20
10.0156
 30
0.000000
  70
    32
  0
VERTEX
  8
1
  5
4DDB5
 10
39.4016
 20
10.0202
 30
0.000000
  70
    32
  0
VERTEX
  8
1
  5
4DDB6
 10
39.3977
 20
10.0248
 30
0.000000
  70
    32
  0
VERTEX
  8
1
  5
4DDB7
 10
39.3938
 20
10.0292
 30
0.000000
  70
    32
  0
VERTEX
  8
1
  5
4DDB8
 10
39.3897
 20
10.0336
 30
0.000000
  70
    32
  0
VERTEX
  8
1
  5
4DDB9
 10
39.3855
 20
10.0379
 30
0.000000
  70
    32
  0
VERTEX
  8
1
  5
4DDBA
 10
39.3813
 20
10.0421
 30
0.000000
  70
    32
  0
VERTEX
  8
1
  5
4DDBB
 10
39.3770
 20
10.0462
 30
0.000000
  70
    32
  0
VERTEX
  8
1
  5
4DDBC
 10
39.3726
 20
10.0502
 30
0.000000
  70
    32
  0
VERTEX
  8
1
  5
4DDBD
 10
39.3681
 20
10.0542
 30
0.000000
  70
    32
  0
VERTEX
  8
1
  5
4DDBE
 10
39.3635
 20
10.0580
 30
0.000000
  70
    32
  0
VERTEX
  8
1
  5
4DDBF
 10
39.3589
 20
10.0618
 30
0.000000
  70
    32
  0
VERTEX
  8
1
  5
4DDC0
 10
39.3541
 20
10.0654
 30
0.000000
  70
    32
  0
VERTEX
  8
1
  5
4DDC1
 10
39.3494
 20
10.0690
 30
0.000000
  70
    32
  0
VERTEX
  8
1
  5
4DDC2
 10
39.3445
 20
10.0724
 30
0.000000
  70
    32
  0
VERTEX
  8
1
  5
4DDC3
 10
39.3396
 20
10.0758
 30
0.000000
  70
    32
  0
VERTEX
  8
1
  5
4DDC4
 10
39.3346
 20
10.0790
 30
0.000000
  70
    32
  0
VERTEX
  8
1
  5
4DDC5
 10
39.3295
 20
10.0821
 30
0.000000
  70
    32
  0
VERTEX
  8
1
  5
4DDC6
 10
39.3244
 20
10.0852
 30
0.000000
  70
    32
  0
VERTEX
  8
1
  5
4DDC7
 10
39.3192
 20
10.0881
 30
0.000000
  70
    32
  0
VERTEX
  8
1
  5
4DDC8
 10
39.3139
 20
10.0909
 30
0.000000
  70
    32
  0
VERTEX
  8
1
  5
4DDC9
 10
39.3086
 20
10.0937
 30
0.000000
  70
    32
  0
VERTEX
  8
1
  5
4DDCA
 10
39.3032
 20
10.0963
 30
0.000000
  70
    32
  0
VERTEX
  8
1
  5
4DDCB
 10
39.2978
 20
10.0988
 30
0.000000
  70
    32
  0
VERTEX
  8
1
  5
4DDCC
 10
39.2924
 20
10.1012
 30
0.000000
  70
    32
  0
VERTEX
  8
1
  5
4DDCD
 10
39.2868
 20
10.1034
 30
0.000000
  70
    32
  0
VERTEX
  8
1
  5
4DDCE
 10
39.2813
 20
10.1056
 30
0.000000
  70
    32
  0
VERTEX
  8
1
  5
4DDCF
 10
39.2757
 20
10.1076
 30
0.000000
  70
    32
  0
VERTEX
  8
1
  5
4DDD0
 10
39.2701
 20
10.1096
 30
0.000000
  70
    32
  0
VERTEX
  8
1
  5
4DDD1
 10
39.2644
 20
10.1114
 30
0.000000
  70
    32
  0
VERTEX
  8
1
  5
4DDD2
 10
39.2587
 20
10.1131
 30
0.000000
  70
    32
  0
VERTEX
  8
1
  5
4DDD3
 10
39.2529
 20
10.1146
 30
0.000000
  70
    32
  0
VERTEX
  8
1
  5
4DDD4
 10
39.2471
 20
10.1161
 30
0.000000
  70
    32
  0
VERTEX
  8
1
  5
4DDD5
 10
39.2413
 20
10.1174
 30
0.000000
  70
    32
  0
VERTEX
  8
1
  5
4DDD6
 10
39.2355
 20
10.1187
 30
0.000000
  70
    32
  0
VERTEX
  8
1
  5
4DDD7
 10
39.2296
 20
10.1198
 30
0.000000
  70
    32
  0
VERTEX
  8
1
  5
4DDD8
 10
39.2238
 20
10.1207
 30
0.000000
  70
    32
  0
VERTEX
  8
1
  5
4DDD9
 10
39.2179
 20
10.1216
 30
0.000000
  70
    32
  0
VERTEX
  8
1
  5
4DDDA
 10
39.2120
 20
10.1223
 30
0.000000
  70
    32
  0
VERTEX
  8
1
  5
4DDDB
 10
39.2060
 20
10.1229
 30
0.000000
  70
    32
  0
VERTEX
  8
1
  5
4DDDC
 10
39.2001
 20
10.1234
 30
0.000000
  70
    32
  0
VERTEX
  8
1
  5
4DDDD
 10
39.1941
 20
10.1238
 30
0.000000
  70
    32
  0
VERTEX
  8
1
  5
4DDDE
 10
39.1882
 20
10.1241
 30
0.000000
  70
    32
  0
VERTEX
  8
1
  5
4DDDF
 10
39.1822
 20
10.1242
 30
0.000000
  70
    32
  0
VERTEX
  8
1
  5
4DDE0
 10
39.1763
 20
10.1242
 30
0.000000
  70
    32
  0
VERTEX
  8
1
  5
4DDE1
 10
39.1703
 20
10.1241
 30
0.000000
  70
    32
  0
VERTEX
  8
1
  5
4DDE2
 10
39.1644
 20
10.1238
 30
0.000000
  70
    32
  0
VERTEX
  8
1
  5
4DDE3
 10
39.1584
 20
10.1235
 30
0.000000
  70
    32
  0
VERTEX
  8
1
  5
4DDE4
 10
39.1525
 20
10.1230
 30
0.000000
  70
    32
  0
VERTEX
  8
1
  5
4DDE5
 10
39.1466
 20
10.1224
 30
0.000000
  70
    32
  0
VERTEX
  8
1
  5
4DDE6
 10
39.1406
 20
10.1216
 30
0.000000
  70
    32
  0
VERTEX
  8
1
  5
4DDE7
 10
39.1347
 20
10.1208
 30
0.000000
  70
    32
  0
VERTEX
  8
1
  5
4DDE8
 10
39.1289
 20
10.1198
 30
0.000000
  70
    32
  0
VERTEX
  8
1
  5
4DDE9
 10
39.1230
 20
10.1187
 30
0.000000
  70
    32
  0
VERTEX
  8
1
  5
4DDEA
 10
39.1172
 20
10.1175
 30
0.000000
  70
    32
  0
SEQEND
  8
1
  5
4DDEB
  0
POLYLINE
  5
4D523
  8
1
 10
37.939085000000063
 20
6.4979749999999843
 30
0.0
 66
     1
 70
     8
  0
VERTEX
  8
1
  5
4DDEC
 10
37.9391
 20
6.49797
 30
0.000000
  70
    32
  0
VERTEX
  8
1
  5
4DDED
 10
38.0711
 20
6.50123
 30
0.000000
  70
    32
  0
VERTEX
  8
1
  5
4DDEE
 10
38.2027
 20
6.51098
 30
0.000000
  70
    32
  0
VERTEX
  8
1
  5
4DDEF
 10
38.3337
 20
6.52720
 30
0.000000
  70
    32
  0
VERTEX
  8
1
  5
4DDF0
 10
38.4638
 20
6.54985
 30
0.000000
  70
    32
  0
VERTEX
  8
1
  5
4DDF1
 10
38.5926
 20
6.57889
 30
0.000000
  70
    32
  0
VERTEX
  8
1
  5
4DDF2
 10
38.7199
 20
6.61424
 30
0.000000
  70
    32
  0
VERTEX
  8
1
  5
4DDF3
 10
38.8452
 20
6.65581
 30
0.000000
  70
    32
  0
VERTEX
  8
1
  5
4DDF4
 10
38.9684
 20
6.70350
 30
0.000000
  70
    32
  0
VERTEX
  8
1
  5
4DDF5
 10
39.0891
 20
6.75720
 30
0.000000
  70
    32
  0
VERTEX
  8
1
  5
4DDF6
 10
39.2070
 20
6.81679
 30
0.000000
  70
    32
  0
VERTEX
  8
1
  5
4DDF7
 10
39.3219
 20
6.88211
 30
0.000000
  70
    32
  0
VERTEX
  8
1
  5
4DDF8
 10
39.4334
 20
6.95301
 30
0.000000
  70
    32
  0
VERTEX
  8
1
  5
4DDF9
 10
39.5414
 20
7.02931
 30
0.000000
  70
    32
  0
VERTEX
  8
1
  5
4DDFA
 10
39.6454
 20
7.11085
 30
0.000000
  70
    32
  0
VERTEX
  8
1
  5
4DDFB
 10
39.7454
 20
7.19741
 30
0.000000
  70
    32
  0
VERTEX
  8
1
  5
4DDFC
 10
39.8410
 20
7.28879
 30
0.000000
  70
    32
  0
VERTEX
  8
1
  5
4DDFD
 10
39.9320
 20
7.38477
 30
0.000000
  70
    32
  0
VERTEX
  8
1
  5
4DDFE
 10
40.0183
 20
7.48511
 30
0.000000
  70
    32
  0
VERTEX
  8
1
  5
4DDFF
 10
40.0995
 20
7.58959
 30
0.000000
  70
    32
  0
VERTEX
  8
1
  5
4DE00
 10
40.1755
 20
7.69794
 30
0.000000
  70
    32
  0
VERTEX
  8
1
  5
4DE01
 10
40.2461
 20
7.80990
 30
0.000000
  70
    32
  0
VERTEX
  8
1
  5
4DE02
 10
40.3112
 20
7.92520
 30
0.000000
  70
    32
  0
VERTEX
  8
1
  5
4DE03
 10
40.3706
 20
8.04358
 30
0.000000
  70
    32
  0
VERTEX
  8
1
  5
4DE04
 10
40.4241
 20
8.16473
 30
0.000000
  70
    32
  0
VERTEX
  8
1
  5
4DE05
 10
40.4716
 20
8.28837
 30
0.000000
  70
    32
  0
VERTEX
  8
1
  5
4DE06
 10
40.5130
 20
8.41421
 30
0.000000
  70
    32
  0
VERTEX
  8
1
  5
4DE07
 10
40.5482
 20
8.54193
 30
0.000000
  70
    32
  0
VERTEX
  8
1
  5
4DE08
 10
40.5771
 20
8.67123
 30
0.000000
  70
    32
  0
VERTEX
  8
1
  5
4DE09
 10
40.5997
 20
8.80180
 30
0.000000
  70
    32
  0
VERTEX
  8
1
  5
4DE0A
 10
40.6159
 20
8.93333
 30
0.000000
  70
    32
  0
VERTEX
  8
1
  5
4DE0B
 10
40.6256
 20
9.06549
 30
0.000000
  70
    32
  0
VERTEX
  8
1
  5
4DE0C
 10
40.6288
 20
9.19797
 30
0.000000
  70
    32
  0
VERTEX
  8
1
  5
4DE0D
 10
40.6256
 20
9.33046
 30
0.000000
  70
    32
  0
VERTEX
  8
1
  5
4DE0E
 10
40.6159
 20
9.46262
 30
0.000000
  70
    32
  0
VERTEX
  8
1
  5
4DE0F
 10
40.5997
 20
9.59415
 30
0.000000
  70
    32
  0
VERTEX
  8
1
  5
4DE10
 10
40.5771
 20
9.72472
 30
0.000000
  70
    32
  0
VERTEX
  8
1
  5
4DE11
 10
40.5482
 20
9.85402
 30
0.000000
  70
    32
  0
VERTEX
  8
1
  5
4DE12
 10
40.5130
 20
9.98174
 30
0.000000
  70
    32
  0
VERTEX
  8
1
  5
4DE13
 10
40.4716
 20
10.1076
 30
0.000000
  70
    32
  0
VERTEX
  8
1
  5
4DE14
 10
40.4241
 20
10.2312
 30
0.000000
  70
    32
  0
VERTEX
  8
1
  5
4DE15
 10
40.3706
 20
10.3524
 30
0.000000
  70
    32
  0
VERTEX
  8
1
  5
4DE16
 10
40.3112
 20
10.4707
 30
0.000000
  70
    32
  0
VERTEX
  8
1
  5
4DE17
 10
40.2461
 20
10.5861
 30
0.000000
  70
    32
  0
VERTEX
  8
1
  5
4DE18
 10
40.1755
 20
10.6980
 30
0.000000
  70
    32
  0
VERTEX
  8
1
  5
4DE19
 10
40.0995
 20
10.8064
 30
0.000000
  70
    32
  0
VERTEX
  8
1
  5
4DE1A
 10
40.0183
 20
10.9108
 30
0.000000
  70
    32
  0
VERTEX
  8
1
  5
4DE1B
 10
39.9320
 20
11.0112
 30
0.000000
  70
    32
  0
VERTEX
  8
1
  5
4DE1C
 10
39.8410
 20
11.1072
 30
0.000000
  70
    32
  0
VERTEX
  8
1
  5
4DE1D
 10
39.7454
 20
11.1985
 30
0.000000
  70
    32
  0
VERTEX
  8
1
  5
4DE1E
 10
39.6454
 20
11.2851
 30
0.000000
  70
    32
  0
VERTEX
  8
1
  5
4DE1F
 10
39.5414
 20
11.3666
 30
0.000000
  70
    32
  0
VERTEX
  8
1
  5
4DE20
 10
39.4334
 20
11.4429
 30
0.000000
  70
    32
  0
VERTEX
  8
1
  5
4DE21
 10
39.3219
 20
11.5138
 30
0.000000
  70
    32
  0
VERTEX
  8
1
  5
4DE22
 10
39.2070
 20
11.5792
 30
0.000000
  70
    32
  0
VERTEX
  8
1
  5
4DE23
 10
39.0891
 20
11.6387
 30
0.000000
  70
    32
  0
VERTEX
  8
1
  5
4DE24
 10
38.9684
 20
11.6924
 30
0.000000
  70
    32
  0
VERTEX
  8
1
  5
4DE25
 10
38.8452
 20
11.7401
 30
0.000000
  70
    32
  0
VERTEX
  8
1
  5
4DE26
 10
38.7199
 20
11.7817
 30
0.000000
  70
    32
  0
VERTEX
  8
1
  5
4DE27
 10
38.5926
 20
11.8171
 30
0.000000
  70
    32
  0
VERTEX
  8
1
  5
4DE28
 10
38.4638
 20
11.8461
 30
0.000000
  70
    32
  0
VERTEX
  8
1
  5
4DE29
 10
38.3337
 20
11.8688
 30
0.000000
  70
    32
  0
VERTEX
  8
1
  5
4DE2A
 10
38.2027
 20
11.8850
 30
0.000000
  70
    32
  0
VERTEX
  8
1
  5
4DE2B
 10
38.0711
 20
11.8947
 30
0.000000
  70
    32
  0
VERTEX
  8
1
  5
4DE2C
 10
37.9391
 20
11.8980
 30
0.000000
  70
    32
  0
VERTEX
  8
1
  5
4DE2D
 10
37.8071
 20
11.8947
 30
0.000000
  70
    32
  0
VERTEX
  8
1
  5
4DE2E
 10
37.6754
 20
11.8850
 30
0.000000
  70
    32
  0
VERTEX
  8
1
  5
4DE2F
 10
37.5444
 20
11.8688
 30
0.000000
  70
    32
  0
VERTEX
  8
1
  5
4DE30
 10
37.4143
 20
11.8461
 30
0.000000
  70
    32
  0
VERTEX
  8
1
  5
4DE31
 10
37.2855
 20
11.8171
 30
0.000000
  70
    32
  0
VERTEX
  8
1
  5
4DE32
 10
37.1583
 20
11.7817
 30
0.000000
  70
    32
  0
VERTEX
  8
1
  5
4DE33
 10
37.0329
 20
11.7401
 30
0.000000
  70
    32
  0
VERTEX
  8
1
  5
4DE34
 10
36.9098
 20
11.6924
 30
0.000000
  70
    32
  0
VERTEX
  8
1
  5
4DE35
 10
36.7891
 20
11.6387
 30
0.000000
  70
    32
  0
VERTEX
  8
1
  5
4DE36
 10
36.6712
 20
11.5792
 30
0.000000
  70
    32
  0
VERTEX
  8
1
  5
4DE37
 10
36.5563
 20
11.5138
 30
0.000000
  70
    32
  0
VERTEX
  8
1
  5
4DE38
 10
36.4448
 20
11.4429
 30
0.000000
  70
    32
  0
VERTEX
  8
1
  5
4DE39
 10
36.3368
 20
11.3666
 30
0.000000
  70
    32
  0
VERTEX
  8
1
  5
4DE3A
 10
36.2327
 20
11.2851
 30
0.000000
  70
    32
  0
VERTEX
  8
1
  5
4DE3B
 10
36.1328
 20
11.1985
 30
0.000000
  70
    32
  0
VERTEX
  8
1
  5
4DE3C
 10
36.0372
 20
11.1072
 30
0.000000
  70
    32
  0
VERTEX
  8
1
  5
4DE3D
 10
35.9461
 20
11.0112
 30
0.000000
  70
    32
  0
VERTEX
  8
1
  5
4DE3E
 10
35.8599
 20
10.9108
 30
0.000000
  70
    32
  0
VERTEX
  8
1
  5
4DE3F
 10
35.7787
 20
10.8064
 30
0.000000
  70
    32
  0
VERTEX
  8
1
  5
4DE40
 10
35.7027
 20
10.6980
 30
0.000000
  70
    32
  0
VERTEX
  8
1
  5
4DE41
 10
35.6320
 20
10.5861
 30
0.000000
  70
    32
  0
VERTEX
  8
1
  5
4DE42
 10
35.5670
 20
10.4707
 30
0.000000
  70
    32
  0
VERTEX
  8
1
  5
4DE43
 10
35.5076
 20
10.3524
 30
0.000000
  70
    32
  0
VERTEX
  8
1
  5
4DE44
 10
35.4541
 20
10.2312
 30
0.000000
  70
    32
  0
VERTEX
  8
1
  5
4DE45
 10
35.4066
 20
10.1076
 30
0.000000
  70
    32
  0
VERTEX
  8
1
  5
4DE46
 10
35.3652
 20
9.98174
 30
0.000000
  70
    32
  0
VERTEX
  8
1
  5
4DE47
 10
35.3300
 20
9.85402
 30
0.000000
  70
    32
  0
VERTEX
  8
1
  5
4DE48
 10
35.3010
 20
9.72472
 30
0.000000
  70
    32
  0
VERTEX
  8
1
  5
4DE49
 10
35.2785
 20
9.59415
 30
0.000000
  70
    32
  0
VERTEX
  8
1
  5
4DE4A
 10
35.2623
 20
9.46262
 30
0.000000
  70
    32
  0
VERTEX
  8
1
  5
4DE4B
 10
35.2526
 20
9.33046
 30
0.000000
  70
    32
  0
VERTEX
  8
1
  5
4DE4C
 10
35.2494
 20
9.19797
 30
0.000000
  70
    32
  0
VERTEX
  8
1
  5
4DE4D
 10
35.2526
 20
9.06549
 30
0.000000
  70
    32
  0
VERTEX
  8
1
  5
4DE4E
 10
35.2623
 20
8.93333
 30
0.000000
  70
    32
  0
VERTEX
  8
1
  5
4DE4F
 10
35.2785
 20
8.80180
 30
0.000000
  70
    32
  0
VERTEX
  8
1
  5
4DE50
 10
35.3010
 20
8.67123
 30
0.000000
  70
    32
  0
VERTEX
  8
1
  5
4DE51
 10
35.3300
 20
8.54193
 30
0.000000
  70
    32
  0
VERTEX
  8
1
  5
4DE52
 10
35.3652
 20
8.41421
 30
0.000000
  70
    32
  0
VERTEX
  8
1
  5
4DE53
 10
35.4066
 20
8.28837
 30
0.000000
  70
    32
  0
VERTEX
  8
1
  5
4DE54
 10
35.4541
 20
8.16473
 30
0.000000
  70
    32
  0
VERTEX
  8
1
  5
4DE55
 10
35.5076
 20
8.04358
 30
0.000000
  70
    32
  0
VERTEX
  8
1
  5
4DE56
 10
35.5670
 20
7.92520
 30
0.000000
  70
    32
  0
VERTEX
  8
1
  5
4DE57
 10
35.6320
 20
7.80990
 30
0.000000
  70
    32
  0
VERTEX
  8
1
  5
4DE58
 10
35.7027
 20
7.69794
 30
0.000000
  70
    32
  0
VERTEX
  8
1
  5
4DE59
 10
35.7787
 20
7.58959
 30
0.000000
  70
    32
  0
VERTEX
  8
1
  5
4DE5A
 10
35.8599
 20
7.48511
 30
0.000000
  70
    32
  0
VERTEX
  8
1
  5
4DE5B
 10
35.9461
 20
7.38477
 30
0.000000
  70
    32
  0
VERTEX
  8
1
  5
4DE5C
 10
36.0372
 20
7.28879
 30
0.000000
  70
    32
  0
VERTEX
  8
1
  5
4DE5D
 10
36.1328
 20
7.19741
 30
0.000000
  70
    32
  0
VERTEX
  8
1
  5
4DE5E
 10
36.2327
 20
7.11085
 30
0.000000
  70
    32
  0
VERTEX
  8
1
  5
4DE5F
 10
36.3368
 20
7.02931
 30
0.000000
  70
    32
  0
VERTEX
  8
1
  5
4DE60
 10
36.4448
 20
6.95301
 30
0.000000
  70
    32
  0
VERTEX
  8
1
  5
4DE61
 10
36.5563
 20
6.88211
 30
0.000000
  70
    32
  0
VERTEX
  8
1
  5
4DE62
 10
36.6712
 20
6.81679
 30
0.000000
  70
    32
  0
VERTEX
  8
1
  5
4DE63
 10
36.7891
 20
6.75720
 30
0.000000
  70
    32
  0
VERTEX
  8
1
  5
4DE64
 10
36.9098
 20
6.70350
 30
0.000000
  70
    32
  0
VERTEX
  8
1
  5
4DE65
 10
37.0329
 20
6.65581
 30
0.000000
  70
    32
  0
VERTEX
  8
1
  5
4DE66
 10
37.1583
 20
6.61424
 30
0.000000
  70
    32
  0
VERTEX
  8
1
  5
4DE67
 10
37.2855
 20
6.57889
 30
0.000000
  70
    32
  0
VERTEX
  8
1
  5
4DE68
 10
37.4143
 20
6.54985
 30
0.000000
  70
    32
  0
VERTEX
  8
1
  5
4DE69
 10
37.5444
 20
6.52720
 30
0.000000
  70
    32
  0
VERTEX
  8
1
  5
4DE6A
 10
37.6754
 20
6.51098
 30
0.000000
  70
    32
  0
VERTEX
  8
1
  5
4DE6B
 10
37.8071
 20
6.50123
 30
0.000000
  70
    32
  0
VERTEX
  8
1
  5
4DE6C
 10
37.9391
 20
6.49797
 30
0.000000
  70
    32
  0
SEQEND
  8
1
  5
4DE6D
  0
POLYLINE
  5
4D524
  8
1
 10
39.01502129085182
 20
8.1598449393863053
 30
0.0
 66
     1
 70
     8
  0
VERTEX
  8
1
  5
4DE6E
 10
39.0150
 20
8.15984
 30
0.000000
  70
    32
  0
VERTEX
  8
1
  5
4DE6F
 10
39.0207
 20
8.15803
 30
0.000000
  70
    32
  0
VERTEX
  8
1
  5
4DE70
 10
39.0264
 20
8.15632
 30
0.000000
  70
    32
  0
VERTEX
  8
1
  5
4DE71
 10
39.0322
 20
8.15474
 30
0.000000
  70
    32
  0
VERTEX
  8
1
  5
4DE72
 10
39.0380
 20
8.15328
 30
0.000000
  70
    32
  0
VERTEX
  8
1
  5
4DE73
 10
39.0438
 20
8.15193
 30
0.000000
  70
    32
  0
VERTEX
  8
1
  5
4DE74
 10
39.0496
 20
8.15070
 30
0.000000
  70
    32
  0
VERTEX
  8
1
  5
4DE75
 10
39.0555
 20
8.14960
 30
0.000000
  70
    32
  0
VERTEX
  8
1
  5
4DE76
 10
39.0613
 20
8.14861
 30
0.000000
  70
    32
  0
VERTEX
  8
1
  5
4DE77
 10
39.0672
 20
8.14775
 30
0.000000
  70
    32
  0
VERTEX
  8
1
  5
4DE78
 10
39.0732
 20
8.14701
 30
0.000000
  70
    32
  0
VERTEX
  8
1
  5
4DE79
 10
39.0791
 20
8.14639
 30
0.000000
  70
    32
  0
VERTEX
  8
1
  5
4DE7A
 10
39.0850
 20
8.14589
 30
0.000000
  70
    32
  0
VERTEX
  8
1
  5
4DE7B
 10
39.0910
 20
8.14552
 30
0.000000
  70
    32
  0
VERTEX
  8
1
  5
4DE7C
 10
39.0969
 20
8.14526
 30
0.000000
  70
    32
  0
VERTEX
  8
1
  5
4DE7D
 10
39.1029
 20
8.14513
 30
0.000000
  70
    32
  0
VERTEX
  8
1
  5
4DE7E
 10
39.1089
 20
8.14513
 30
0.000000
  70
    32
  0
VERTEX
  8
1
  5
4DE7F
 10
39.1148
 20
8.14524
 30
0.000000
  70
    32
  0
VERTEX
  8
1
  5
4DE80
 10
39.1208
 20
8.14548
 30
0.000000
  70
    32
  0
VERTEX
  8
1
  5
4DE81
 10
39.1267
 20
8.14584
 30
0.000000
  70
    32
  0
VERTEX
  8
1
  5
4DE82
 10
39.1327
 20
8.14632
 30
0.000000
  70
    32
  0
VERTEX
  8
1
  5
4DE83
 10
39.1386
 20
8.14693
 30
0.000000
  70
    32
  0
VERTEX
  8
1
  5
4DE84
 10
39.1445
 20
8.14765
 30
0.000000
  70
    32
  0
VERTEX
  8
1
  5
4DE85
 10
39.1504
 20
8.14850
 30
0.000000
  70
    32
  0
VERTEX
  8
1
  5
4DE86
 10
39.1563
 20
8.14947
 30
0.000000
  70
    32
  0
VERTEX
  8
1
  5
4DE87
 10
39.1622
 20
8.15056
 30
0.000000
  70
    32
  0
VERTEX
  8
1
  5
4DE88
 10
39.1680
 20
8.15178
 30
0.000000
  70
    32
  0
VERTEX
  8
1
  5
4DE89
 10
39.1738
 20
8.15311
 30
0.000000
  70
    32
  0
VERTEX
  8
1
  5
4DE8A
 10
39.1796
 20
8.15456
 30
0.000000
  70
    32
  0
VERTEX
  8
1
  5
4DE8B
 10
39.1854
 20
8.15613
 30
0.000000
  70
    32
  0
VERTEX
  8
1
  5
4DE8C
 10
39.1911
 20
8.15781
 30
0.000000
  70
    32
  0
VERTEX
  8
1
  5
4DE8D
 10
39.1968
 20
8.15962
 30
0.000000
  70
    32
  0
VERTEX
  8
1
  5
4DE8E
 10
39.2024
 20
8.16154
 30
0.000000
  70
    32
  0
VERTEX
  8
1
  5
4DE8F
 10
39.2080
 20
8.16358
 30
0.000000
  70
    32
  0
VERTEX
  8
1
  5
4DE90
 10
39.2136
 20
8.16573
 30
0.000000
  70
    32
  0
VERTEX
  8
1
  5
4DE91
 10
39.2191
 20
8.16800
 30
0.000000
  70
    32
  0
VERTEX
  8
1
  5
4DE92
 10
39.2246
 20
8.17038
 30
0.000000
  70
    32
  0
VERTEX
  8
1
  5
4DE93
 10
39.2300
 20
8.17287
 30
0.000000
  70
    32
  0
VERTEX
  8
1
  5
4DE94
 10
39.2354
 20
8.17547
 30
0.000000
  70
    32
  0
VERTEX
  8
1
  5
4DE95
 10
39.2407
 20
8.17818
 30
0.000000
  70
    32
  0
VERTEX
  8
1
  5
4DE96
 10
39.2460
 20
8.18100
 30
0.000000
  70
    32
  0
VERTEX
  8
1
  5
4DE97
 10
39.2512
 20
8.18393
 30
0.000000
  70
    32
  0
VERTEX
  8
1
  5
4DE98
 10
39.2563
 20
8.18697
 30
0.000000
  70
    32
  0
VERTEX
  8
1
  5
4DE99
 10
39.2614
 20
8.19011
 30
0.000000
  70
    32
  0
VERTEX
  8
1
  5
4DE9A
 10
39.2664
 20
8.19335
 30
0.000000
  70
    32
  0
VERTEX
  8
1
  5
4DE9B
 10
39.2713
 20
8.19670
 30
0.000000
  70
    32
  0
VERTEX
  8
1
  5
4DE9C
 10
39.2762
 20
8.20015
 30
0.000000
  70
    32
  0
VERTEX
  8
1
  5
4DE9D
 10
39.2810
 20
8.20369
 30
0.000000
  70
    32
  0
VERTEX
  8
1
  5
4DE9E
 10
39.2858
 20
8.20734
 30
0.000000
  70
    32
  0
VERTEX
  8
1
  5
4DE9F
 10
39.2904
 20
8.21108
 30
0.000000
  70
    32
  0
VERTEX
  8
1
  5
4DEA0
 10
39.2950
 20
8.21492
 30
0.000000
  70
    32
  0
VERTEX
  8
1
  5
4DEA1
 10
39.2995
 20
8.21885
 30
0.000000
  70
    32
  0
VERTEX
  8
1
  5
4DEA2
 10
39.3039
 20
8.22287
 30
0.000000
  70
    32
  0
VERTEX
  8
1
  5
4DEA3
 10
39.3082
 20
8.22698
 30
0.000000
  70
    32
  0
VERTEX
  8
1
  5
4DEA4
 10
39.3125
 20
8.23118
 30
0.000000
  70
    32
  0
VERTEX
  8
1
  5
4DEA5
 10
39.3166
 20
8.23547
 30
0.000000
  70
    32
  0
VERTEX
  8
1
  5
4DEA6
 10
39.3207
 20
8.23984
 30
0.000000
  70
    32
  0
VERTEX
  8
1
  5
4DEA7
 10
39.3247
 20
8.24430
 30
0.000000
  70
    32
  0
VERTEX
  8
1
  5
4DEA8
 10
39.3286
 20
8.24883
 30
0.000000
  70
    32
  0
VERTEX
  8
1
  5
4DEA9
 10
39.3324
 20
8.25345
 30
0.000000
  70
    32
  0
VERTEX
  8
1
  5
4DEAA
 10
39.3361
 20
8.25814
 30
0.000000
  70
    32
  0
VERTEX
  8
1
  5
4DEAB
 10
39.3397
 20
8.26291
 30
0.000000
  70
    32
  0
VERTEX
  8
1
  5
4DEAC
 10
39.3432
 20
8.26775
 30
0.000000
  70
    32
  0
VERTEX
  8
1
  5
4DEAD
 10
39.3466
 20
8.27266
 30
0.000000
  70
    32
  0
VERTEX
  8
1
  5
4DEAE
 10
39.3499
 20
8.27764
 30
0.000000
  70
    32
  0
VERTEX
  8
1
  5
4DEAF
 10
39.3531
 20
8.28269
 30
0.000000
  70
    32
  0
VERTEX
  8
1
  5
4DEB0
 10
39.3562
 20
8.28780
 30
0.000000
  70
    32
  0
VERTEX
  8
1
  5
4DEB1
 10
39.3592
 20
8.29298
 30
0.000000
  70
    32
  0
VERTEX
  8
1
  5
4DEB2
 10
39.3621
 20
8.29821
 30
0.000000
  70
    32
  0
VERTEX
  8
1
  5
4DEB3
 10
39.3649
 20
8.30351
 30
0.000000
  70
    32
  0
VERTEX
  8
1
  5
4DEB4
 10
39.3676
 20
8.30886
 30
0.000000
  70
    32
  0
VERTEX
  8
1
  5
4DEB5
 10
39.3701
 20
8.31426
 30
0.000000
  70
    32
  0
VERTEX
  8
1
  5
4DEB6
 10
39.3726
 20
8.31972
 30
0.000000
  70
    32
  0
VERTEX
  8
1
  5
4DEB7
 10
39.3749
 20
8.32522
 30
0.000000
  70
    32
  0
VERTEX
  8
1
  5
4DEB8
 10
39.3772
 20
8.33078
 30
0.000000
  70
    32
  0
VERTEX
  8
1
  5
4DEB9
 10
39.3793
 20
8.33637
 30
0.000000
  70
    32
  0
VERTEX
  8
1
  5
4DEBA
 10
39.3813
 20
8.34201
 30
0.000000
  70
    32
  0
VERTEX
  8
1
  5
4DEBB
 10
39.3832
 20
8.34769
 30
0.000000
  70
    32
  0
VERTEX
  8
1
  5
4DEBC
 10
39.3849
 20
8.35341
 30
0.000000
  70
    32
  0
VERTEX
  8
1
  5
4DEBD
 10
39.3866
 20
8.35916
 30
0.000000
  70
    32
  0
VERTEX
  8
1
  5
4DEBE
 10
39.3881
 20
8.36495
 30
0.000000
  70
    32
  0
VERTEX
  8
1
  5
4DEBF
 10
39.3895
 20
8.37076
 30
0.000000
  70
    32
  0
VERTEX
  8
1
  5
4DEC0
 10
39.3908
 20
8.37660
 30
0.000000
  70
    32
  0
VERTEX
  8
1
  5
4DEC1
 10
39.3920
 20
8.38247
 30
0.000000
  70
    32
  0
VERTEX
  8
1
  5
4DEC2
 10
39.3931
 20
8.38836
 30
0.000000
  70
    32
  0
VERTEX
  8
1
  5
4DEC3
 10
39.3940
 20
8.39428
 30
0.000000
  70
    32
  0
VERTEX
  8
1
  5
4DEC4
 10
39.3948
 20
8.40021
 30
0.000000
  70
    32
  0
VERTEX
  8
1
  5
4DEC5
 10
39.3955
 20
8.40615
 30
0.000000
  70
    32
  0
VERTEX
  8
1
  5
4DEC6
 10
39.3961
 20
8.41211
 30
0.000000
  70
    32
  0
VERTEX
  8
1
  5
4DEC7
 10
39.3965
 20
8.41808
 30
0.000000
  70
    32
  0
VERTEX
  8
1
  5
4DEC8
 10
39.3968
 20
8.42406
 30
0.000000
  70
    32
  0
VERTEX
  8
1
  5
4DEC9
 10
39.3971
 20
8.43004
 30
0.000000
  70
    32
  0
VERTEX
  8
1
  5
4DECA
 10
39.3971
 20
8.43603
 30
0.000000
  70
    32
  0
VERTEX
  8
1
  5
4DECB
 10
39.3971
 20
8.44201
 30
0.000000
  70
    32
  0
VERTEX
  8
1
  5
4DECC
 10
39.3969
 20
8.44799
 30
0.000000
  70
    32
  0
VERTEX
  8
1
  5
4DECD
 10
39.3967
 20
8.45397
 30
0.000000
  70
    32
  0
VERTEX
  8
1
  5
4DECE
 10
39.3962
 20
8.45995
 30
0.000000
  70
    32
  0
VERTEX
  8
1
  5
4DECF
 10
39.3957
 20
8.46591
 30
0.000000
  70
    32
  0
VERTEX
  8
1
  5
4DED0
 10
39.3951
 20
8.47186
 30
0.000000
  70
    32
  0
VERTEX
  8
1
  5
4DED1
 10
39.3943
 20
8.47780
 30
0.000000
  70
    32
  0
VERTEX
  8
1
  5
4DED2
 10
39.3934
 20
8.48371
 30
0.000000
  70
    32
  0
VERTEX
  8
1
  5
4DED3
 10
39.3924
 20
8.48961
 30
0.000000
  70
    32
  0
VERTEX
  8
1
  5
4DED4
 10
39.3913
 20
8.49549
 30
0.000000
  70
    32
  0
VERTEX
  8
1
  5
4DED5
 10
39.3900
 20
8.50134
 30
0.000000
  70
    32
  0
VERTEX
  8
1
  5
4DED6
 10
39.3886
 20
8.50717
 30
0.000000
  70
    32
  0
VERTEX
  8
1
  5
4DED7
 10
39.3872
 20
8.51297
 30
0.000000
  70
    32
  0
VERTEX
  8
1
  5
4DED8
 10
39.3855
 20
8.51873
 30
0.000000
  70
    32
  0
VERTEX
  8
1
  5
4DED9
 10
39.3838
 20
8.52446
 30
0.000000
  70
    32
  0
VERTEX
  8
1
  5
4DEDA
 10
39.3820
 20
8.53015
 30
0.000000
  70
    32
  0
VERTEX
  8
1
  5
4DEDB
 10
39.3800
 20
8.53581
 30
0.000000
  70
    32
  0
VERTEX
  8
1
  5
4DEDC
 10
39.3779
 20
8.54142
 30
0.000000
  70
    32
  0
VERTEX
  8
1
  5
4DEDD
 10
39.3758
 20
8.54699
 30
0.000000
  70
    32
  0
VERTEX
  8
1
  5
4DEDE
 10
39.3735
 20
8.55251
 30
0.000000
  70
    32
  0
VERTEX
  8
1
  5
4DEDF
 10
39.3710
 20
8.55799
 30
0.000000
  70
    32
  0
VERTEX
  8
1
  5
4DEE0
 10
39.3685
 20
8.56341
 30
0.000000
  70
    32
  0
VERTEX
  8
1
  5
4DEE1
 10
39.3659
 20
8.56878
 30
0.000000
  70
    32
  0
VERTEX
  8
1
  5
4DEE2
 10
39.3631
 20
8.57410
 30
0.000000
  70
    32
  0
VERTEX
  8
1
  5
4DEE3
 10
39.3603
 20
8.57935
 30
0.000000
  70
    32
  0
VERTEX
  8
1
  5
4DEE4
 10
39.3573
 20
8.58455
 30
0.000000
  70
    32
  0
VERTEX
  8
1
  5
4DEE5
 10
39.3543
 20
8.58969
 30
0.000000
  70
    32
  0
VERTEX
  8
1
  5
4DEE6
 10
39.3511
 20
8.59476
 30
0.000000
  70
    32
  0
VERTEX
  8
1
  5
4DEE7
 10
39.3478
 20
8.59976
 30
0.000000
  70
    32
  0
VERTEX
  8
1
  5
4DEE8
 10
39.3445
 20
8.60470
 30
0.000000
  70
    32
  0
VERTEX
  8
1
  5
4DEE9
 10
39.3410
 20
8.60957
 30
0.000000
  70
    32
  0
VERTEX
  8
1
  5
4DEEA
 10
39.3374
 20
8.61436
 30
0.000000
  70
    32
  0
VERTEX
  8
1
  5
4DEEB
 10
39.3337
 20
8.61908
 30
0.000000
  70
    32
  0
VERTEX
  8
1
  5
4DEEC
 10
39.3300
 20
8.62372
 30
0.000000
  70
    32
  0
VERTEX
  8
1
  5
4DEED
 10
39.3261
 20
8.62829
 30
0.000000
  70
    32
  0
VERTEX
  8
1
  5
4DEEE
 10
39.3222
 20
8.63277
 30
0.000000
  70
    32
  0
SEQEND
  8
1
  5
4DEEF
  0
POLYLINE
  5
4D525
  8
1
 10
31.864508644041663
 20
4.8126393232073772
 30
0.0
 66
     1
 70
     8
  0
VERTEX
  8
1
  5
4DEF0
 10
31.8645
 20
4.81264
 30
0.000000
  70
    32
  0
VERTEX
  8
1
  5
4DEF1
 10
31.8745
 20
4.78454
 30
0.000000
  70
    32
  0
VERTEX
  8
1
  5
4DEF2
 10
31.8849
 20
4.75659
 30
0.000000
  70
    32
  0
VERTEX
  8
1
  5
4DEF3
 10
31.8956
 20
4.72880
 30
0.000000
  70
    32
  0
VERTEX
  8
1
  5
4DEF4
 10
31.9066
 20
4.70117
 30
0.000000
  70
    32
  0
VERTEX
  8
1
  5
4DEF5
 10
31.9180
 20
4.67370
 30
0.000000
  70
    32
  0
VERTEX
  8
1
  5
4DEF6
 10
31.9297
 20
4.64640
 30
0.000000
  70
    32
  0
VERTEX
  8
1
  5
4DEF7
 10
31.9418
 20
4.61927
 30
0.000000
  70
    32
  0
VERTEX
  8
1
  5
4DEF8
 10
31.9542
 20
4.59232
 30
0.000000
  70
    32
  0
VERTEX
  8
1
  5
4DEF9
 10
31.9669
 20
4.56554
 30
0.000000
  70
    32
  0
VERTEX
  8
1
  5
4DEFA
 10
31.9800
 20
4.53895
 30
0.000000
  70
    32
  0
VERTEX
  8
1
  5
4DEFB
 10
31.9934
 20
4.51255
 30
0.000000
  70
    32
  0
VERTEX
  8
1
  5
4DEFC
 10
32.0071
 20
4.48633
 30
0.000000
  70
    32
  0
VERTEX
  8
1
  5
4DEFD
 10
32.0212
 20
4.46031
 30
0.000000
  70
    32
  0
VERTEX
  8
1
  5
4DEFE
 10
32.0355
 20
4.43448
 30
0.000000
  70
    32
  0
VERTEX
  8
1
  5
4DEFF
 10
32.0502
 20
4.40886
 30
0.000000
  70
    32
  0
VERTEX
  8
1
  5
4DF00
 10
32.0653
 20
4.38343
 30
0.000000
  70
    32
  0
VERTEX
  8
1
  5
4DF01
 10
32.0806
 20
4.35822
 30
0.000000
  70
    32
  0
VERTEX
  8
1
  5
4DF02
 10
32.0963
 20
4.33322
 30
0.000000
  70
    32
  0
VERTEX
  8
1
  5
4DF03
 10
32.1122
 20
4.30843
 30
0.000000
  70
    32
  0
VERTEX
  8
1
  5
4DF04
 10
32.1285
 20
4.28387
 30
0.000000
  70
    32
  0
VERTEX
  8
1
  5
4DF05
 10
32.1451
 20
4.25952
 30
0.000000
  70
    32
  0
VERTEX
  8
1
  5
4DF06
 10
32.1620
 20
4.23540
 30
0.000000
  70
    32
  0
VERTEX
  8
1
  5
4DF07
 10
32.1792
 20
4.21150
 30
0.000000
  70
    32
  0
VERTEX
  8
1
  5
4DF08
 10
32.1968
 20
4.18784
 30
0.000000
  70
    32
  0
VERTEX
  8
1
  5
4DF09
 10
32.2146
 20
4.16441
 30
0.000000
  70
    32
  0
VERTEX
  8
1
  5
4DF0A
 10
32.2327
 20
4.14123
 30
0.000000
  70
    32
  0
VERTEX
  8
1
  5
4DF0B
 10
32.2511
 20
4.11828
 30
0.000000
  70
    32
  0
VERTEX
  8
1
  5
4DF0C
 10
32.2698
 20
4.09558
 30
0.000000
  70
    32
  0
VERTEX
  8
1
  5
4DF0D
 10
32.2888
 20
4.07312
 30
0.000000
  70
    32
  0
VERTEX
  8
1
  5
4DF0E
 10
32.3081
 20
4.05092
 30
0.000000
  70
    32
  0
VERTEX
  8
1
  5
4DF0F
 10
32.3276
 20
4.02897
 30
0.000000
  70
    32
  0
VERTEX
  8
1
  5
4DF10
 10
32.3475
 20
4.00728
 30
0.000000
  70
    32
  0
VERTEX
  8
1
  5
4DF11
 10
32.3676
 20
3.98584
 30
0.000000
  70
    32
  0
VERTEX
  8
1
  5
4DF12
 10
32.3880
 20
3.96467
 30
0.000000
  70
    32
  0
VERTEX
  8
1
  5
4DF13
 10
32.4087
 20
3.94377
 30
0.000000
  70
    32
  0
VERTEX
  8
1
  5
4DF14
 10
32.4297
 20
3.92313
 30
0.000000
  70
    32
  0
VERTEX
  8
1
  5
4DF15
 10
32.4509
 20
3.90277
 30
0.000000
  70
    32
  0
VERTEX
  8
1
  5
4DF16
 10
32.4724
 20
3.88268
 30
0.000000
  70
    32
  0
VERTEX
  8
1
  5
4DF17
 10
32.4941
 20
3.86287
 30
0.000000
  70
    32
  0
VERTEX
  8
1
  5
4DF18
 10
32.5161
 20
3.84334
 30
0.000000
  70
    32
  0
VERTEX
  8
1
  5
4DF19
 10
32.5384
 20
3.82409
 30
0.000000
  70
    32
  0
VERTEX
  8
1
  5
4DF1A
 10
32.5609
 20
3.80513
 30
0.000000
  70
    32
  0
VERTEX
  8
1
  5
4DF1B
 10
32.5837
 20
3.78645
 30
0.000000
  70
    32
  0
VERTEX
  8
1
  5
4DF1C
 10
32.6067
 20
3.76807
 30
0.000000
  70
    32
  0
VERTEX
  8
1
  5
4DF1D
 10
32.6300
 20
3.74998
 30
0.000000
  70
    32
  0
VERTEX
  8
1
  5
4DF1E
 10
32.6535
 20
3.73218
 30
0.000000
  70
    32
  0
VERTEX
  8
1
  5
4DF1F
 10
32.6772
 20
3.71469
 30
0.000000
  70
    32
  0
VERTEX
  8
1
  5
4DF20
 10
32.7012
 20
3.69749
 30
0.000000
  70
    32
  0
VERTEX
  8
1
  5
4DF21
 10
32.7254
 20
3.68060
 30
0.000000
  70
    32
  0
VERTEX
  8
1
  5
4DF22
 10
32.7498
 20
3.66401
 30
0.000000
  70
    32
  0
VERTEX
  8
1
  5
4DF23
 10
32.7745
 20
3.64773
 30
0.000000
  70
    32
  0
VERTEX
  8
1
  5
4DF24
 10
32.7994
 20
3.63176
 30
0.000000
  70
    32
  0
VERTEX
  8
1
  5
4DF25
 10
32.8245
 20
3.61610
 30
0.000000
  70
    32
  0
VERTEX
  8
1
  5
4DF26
 10
32.8498
 20
3.60076
 30
0.000000
  70
    32
  0
VERTEX
  8
1
  5
4DF27
 10
32.8753
 20
3.58573
 30
0.000000
  70
    32
  0
VERTEX
  8
1
  5
4DF28
 10
32.9010
 20
3.57102
 30
0.000000
  70
    32
  0
VERTEX
  8
1
  5
4DF29
 10
32.9269
 20
3.55663
 30
0.000000
  70
    32
  0
VERTEX
  8
1
  5
4DF2A
 10
32.9531
 20
3.54257
 30
0.000000
  70
    32
  0
VERTEX
  8
1
  5
4DF2B
 10
32.9794
 20
3.52883
 30
0.000000
  70
    32
  0
VERTEX
  8
1
  5
4DF2C
 10
33.0059
 20
3.51541
 30
0.000000
  70
    32
  0
VERTEX
  8
1
  5
4DF2D
 10
33.0326
 20
3.50233
 30
0.000000
  70
    32
  0
VERTEX
  8
1
  5
4DF2E
 10
33.0595
 20
3.48957
 30
0.000000
  70
    32
  0
VERTEX
  8
1
  5
4DF2F
 10
33.0866
 20
3.47715
 30
0.000000
  70
    32
  0
VERTEX
  8
1
  5
4DF30
 10
33.1138
 20
3.46506
 30
0.000000
  70
    32
  0
VERTEX
  8
1
  5
4DF31
 10
33.1412
 20
3.45330
 30
0.000000
  70
    32
  0
VERTEX
  8
1
  5
4DF32
 10
33.1688
 20
3.44188
 30
0.000000
  70
    32
  0
VERTEX
  8
1
  5
4DF33
 10
33.1966
 20
3.43080
 30
0.000000
  70
    32
  0
VERTEX
  8
1
  5
4DF34
 10
33.2245
 20
3.42006
 30
0.000000
  70
    32
  0
VERTEX
  8
1
  5
4DF35
 10
33.2526
 20
3.40967
 30
0.000000
  70
    32
  0
VERTEX
  8
1
  5
4DF36
 10
33.2808
 20
3.39961
 30
0.000000
  70
    32
  0
VERTEX
  8
1
  5
4DF37
 10
33.3092
 20
3.38990
 30
0.000000
  70
    32
  0
VERTEX
  8
1
  5
4DF38
 10
33.3377
 20
3.38054
 30
0.000000
  70
    32
  0
VERTEX
  8
1
  5
4DF39
 10
33.3664
 20
3.37152
 30
0.000000
  70
    32
  0
VERTEX
  8
1
  5
4DF3A
 10
33.3952
 20
3.36285
 30
0.000000
  70
    32
  0
VERTEX
  8
1
  5
4DF3B
 10
33.4242
 20
3.35453
 30
0.000000
  70
    32
  0
VERTEX
  8
1
  5
4DF3C
 10
33.4533
 20
3.34656
 30
0.000000
  70
    32
  0
VERTEX
  8
1
  5
4DF3D
 10
33.4825
 20
3.33894
 30
0.000000
  70
    32
  0
VERTEX
  8
1
  5
4DF3E
 10
33.5118
 20
3.33168
 30
0.000000
  70
    32
  0
VERTEX
  8
1
  5
4DF3F
 10
33.5412
 20
3.32477
 30
0.000000
  70
    32
  0
VERTEX
  8
1
  5
4DF40
 10
33.5708
 20
3.31821
 30
0.000000
  70
    32
  0
VERTEX
  8
1
  5
4DF41
 10
33.6004
 20
3.31201
 30
0.000000
  70
    32
  0
VERTEX
  8
1
  5
4DF42
 10
33.6302
 20
3.30616
 30
0.000000
  70
    32
  0
VERTEX
  8
1
  5
4DF43
 10
33.6601
 20
3.30068
 30
0.000000
  70
    32
  0
VERTEX
  8
1
  5
4DF44
 10
33.6901
 20
3.29555
 30
0.000000
  70
    32
  0
VERTEX
  8
1
  5
4DF45
 10
33.7201
 20
3.29078
 30
0.000000
  70
    32
  0
VERTEX
  8
1
  5
4DF46
 10
33.7503
 20
3.28637
 30
0.000000
  70
    32
  0
VERTEX
  8
1
  5
4DF47
 10
33.7805
 20
3.28232
 30
0.000000
  70
    32
  0
VERTEX
  8
1
  5
4DF48
 10
33.8109
 20
3.27863
 30
0.000000
  70
    32
  0
VERTEX
  8
1
  5
4DF49
 10
33.8413
 20
3.27530
 30
0.000000
  70
    32
  0
VERTEX
  8
1
  5
4DF4A
 10
33.8717
 20
3.27234
 30
0.000000
  70
    32
  0
VERTEX
  8
1
  5
4DF4B
 10
33.9023
 20
3.26973
 30
0.000000
  70
    32
  0
VERTEX
  8
1
  5
4DF4C
 10
33.9329
 20
3.26749
 30
0.000000
  70
    32
  0
VERTEX
  8
1
  5
4DF4D
 10
33.9635
 20
3.26561
 30
0.000000
  70
    32
  0
VERTEX
  8
1
  5
4DF4E
 10
33.9943
 20
3.26409
 30
0.000000
  70
    32
  0
VERTEX
  8
1
  5
4DF4F
 10
34.0250
 20
3.26294
 30
0.000000
  70
    32
  0
VERTEX
  8
1
  5
4DF50
 10
34.0559
 20
3.26215
 30
0.000000
  70
    32
  0
VERTEX
  8
1
  5
4DF51
 10
34.0867
 20
3.26172
 30
0.000000
  70
    32
  0
VERTEX
  8
1
  5
4DF52
 10
34.1176
 20
3.26166
 30
0.000000
  70
    32
  0
VERTEX
  8
1
  5
4DF53
 10
34.1486
 20
3.26196
 30
0.000000
  70
    32
  0
VERTEX
  8
1
  5
4DF54
 10
34.1795
 20
3.26263
 30
0.000000
  70
    32
  0
VERTEX
  8
1
  5
4DF55
 10
34.2105
 20
3.26365
 30
0.000000
  70
    32
  0
VERTEX
  8
1
  5
4DF56
 10
34.2415
 20
3.26505
 30
0.000000
  70
    32
  0
VERTEX
  8
1
  5
4DF57
 10
34.2726
 20
3.26680
 30
0.000000
  70
    32
  0
VERTEX
  8
1
  5
4DF58
 10
34.3036
 20
3.26892
 30
0.000000
  70
    32
  0
VERTEX
  8
1
  5
4DF59
 10
34.3346
 20
3.27140
 30
0.000000
  70
    32
  0
VERTEX
  8
1
  5
4DF5A
 10
34.3657
 20
3.27424
 30
0.000000
  70
    32
  0
VERTEX
  8
1
  5
4DF5B
 10
34.3968
 20
3.27744
 30
0.000000
  70
    32
  0
VERTEX
  8
1
  5
4DF5C
 10
34.4278
 20
3.28101
 30
0.000000
  70
    32
  0
VERTEX
  8
1
  5
4DF5D
 10
34.4588
 20
3.28493
 30
0.000000
  70
    32
  0
VERTEX
  8
1
  5
4DF5E
 10
34.4899
 20
3.28922
 30
0.000000
  70
    32
  0
VERTEX
  8
1
  5
4DF5F
 10
34.5209
 20
3.29386
 30
0.000000
  70
    32
  0
VERTEX
  8
1
  5
4DF60
 10
34.5519
 20
3.29887
 30
0.000000
  70
    32
  0
VERTEX
  8
1
  5
4DF61
 10
34.5828
 20
3.30423
 30
0.000000
  70
    32
  0
VERTEX
  8
1
  5
4DF62
 10
34.6138
 20
3.30995
 30
0.000000
  70
    32
  0
VERTEX
  8
1
  5
4DF63
 10
34.6447
 20
3.31603
 30
0.000000
  70
    32
  0
VERTEX
  8
1
  5
4DF64
 10
34.6755
 20
3.32246
 30
0.000000
  70
    32
  0
VERTEX
  8
1
  5
4DF65
 10
34.7063
 20
3.32925
 30
0.000000
  70
    32
  0
VERTEX
  8
1
  5
4DF66
 10
34.7371
 20
3.33640
 30
0.000000
  70
    32
  0
VERTEX
  8
1
  5
4DF67
 10
34.7678
 20
3.34389
 30
0.000000
  70
    32
  0
VERTEX
  8
1
  5
4DF68
 10
34.7985
 20
3.35174
 30
0.000000
  70
    32
  0
VERTEX
  8
1
  5
4DF69
 10
34.8291
 20
3.35994
 30
0.000000
  70
    32
  0
VERTEX
  8
1
  5
4DF6A
 10
34.8596
 20
3.36849
 30
0.000000
  70
    32
  0
VERTEX
  8
1
  5
4DF6B
 10
34.8901
 20
3.37739
 30
0.000000
  70
    32
  0
VERTEX
  8
1
  5
4DF6C
 10
34.9205
 20
3.38663
 30
0.000000
  70
    32
  0
VERTEX
  8
1
  5
4DF6D
 10
34.9508
 20
3.39622
 30
0.000000
  70
    32
  0
VERTEX
  8
1
  5
4DF6E
 10
34.9810
 20
3.40616
 30
0.000000
  70
    32
  0
VERTEX
  8
1
  5
4DF6F
 10
35.0112
 20
3.41644
 30
0.000000
  70
    32
  0
VERTEX
  8
1
  5
4DF70
 10
35.0413
 20
3.42706
 30
0.000000
  70
    32
  0
SEQEND
  8
1
  5
4DF71
  0
POLYLINE
  5
4D52B
  8
1
 10
18.724188726892002
 20
13.600014377308348
 30
0.0
 66
     1
 70
     8
  0
VERTEX
  8
1
  5
4DF72
 10
18.7242
 20
13.6000
 30
0.000000
  70
    32
  0
VERTEX
  8
1
  5
4DF73
 10
18.8115
 20
13.4350
 30
0.000000
  70
    32
  0
VERTEX
  8
1
  5
4DF74
 10
18.9001
 20
13.2708
 30
0.000000
  70
    32
  0
VERTEX
  8
1
  5
4DF75
 10
18.9902
 20
13.1073
 30
0.000000
  70
    32
  0
VERTEX
  8
1
  5
4DF76
 10
19.0816
 20
12.9446
 30
0.000000
  70
    32
  0
VERTEX
  8
1
  5
4DF77
 10
19.1744
 20
12.7827
 30
0.000000
  70
    32
  0
VERTEX
  8
1
  5
4DF78
 10
19.2686
 20
12.6216
 30
0.000000
  70
    32
  0
VERTEX
  8
1
  5
4DF79
 10
19.3642
 20
12.4612
 30
0.000000
  70
    32
  0
VERTEX
  8
1
  5
4DF7A
 10
19.4610
 20
12.3017
 30
0.000000
  70
    32
  0
VERTEX
  8
1
  5
4DF7B
 10
19.5593
 20
12.1431
 30
0.000000
  70
    32
  0
VERTEX
  8
1
  5
4DF7C
 10
19.6588
 20
11.9853
 30
0.000000
  70
    32
  0
VERTEX
  8
1
  5
4DF7D
 10
19.7598
 20
11.8283
 30
0.000000
  70
    32
  0
VERTEX
  8
1
  5
4DF7E
 10
19.8620
 20
11.6722
 30
0.000000
  70
    32
  0
VERTEX
  8
1
  5
4DF7F
 10
19.9655
 20
11.5170
 30
0.000000
  70
    32
  0
VERTEX
  8
1
  5
4DF80
 10
20.0704
 20
11.3626
 30
0.000000
  70
    32
  0
VERTEX
  8
1
  5
4DF81
 10
20.1765
 20
11.2092
 30
0.000000
  70
    32
  0
VERTEX
  8
1
  5
4DF82
 10
20.2840
 20
11.0567
 30
0.000000
  70
    32
  0
VERTEX
  8
1
  5
4DF83
 10
20.3927
 20
10.9051
 30
0.000000
  70
    32
  0
VERTEX
  8
1
  5
4DF84
 10
20.5027
 20
10.7544
 30
0.000000
  70
    32
  0
VERTEX
  8
1
  5
4DF85
 10
20.6140
 20
10.6047
 30
0.000000
  70
    32
  0
VERTEX
  8
1
  5
4DF86
 10
20.7266
 20
10.4559
 30
0.000000
  70
    32
  0
VERTEX
  8
1
  5
4DF87
 10
20.8404
 20
10.3081
 30
0.000000
  70
    32
  0
VERTEX
  8
1
  5
4DF88
 10
20.9554
 20
10.1613
 30
0.000000
  70
    32
  0
VERTEX
  8
1
  5
4DF89
 10
21.0717
 20
10.0154
 30
0.000000
  70
    32
  0
VERTEX
  8
1
  5
4DF8A
 10
21.1892
 20
9.87057
 30
0.000000
  70
    32
  0
VERTEX
  8
1
  5
4DF8B
 10
21.3080
 20
9.72672
 30
0.000000
  70
    32
  0
VERTEX
  8
1
  5
4DF8C
 10
21.4279
 20
9.58389
 30
0.000000
  70
    32
  0
VERTEX
  8
1
  5
4DF8D
 10
21.5491
 20
9.44210
 30
0.000000
  70
    32
  0
VERTEX
  8
1
  5
4DF8E
 10
21.6714
 20
9.30133
 30
0.000000
  70
    32
  0
VERTEX
  8
1
  5
4DF8F
 10
21.7949
 20
9.16162
 30
0.000000
  70
    32
  0
VERTEX
  8
1
  5
4DF90
 10
21.9197
 20
9.02296
 30
0.000000
  70
    32
  0
VERTEX
  8
1
  5
4DF91
 10
22.0455
 20
8.88538
 30
0.000000
  70
    32
  0
VERTEX
  8
1
  5
4DF92
 10
22.1726
 20
8.74886
 30
0.000000
  70
    32
  0
VERTEX
  8
1
  5
4DF93
 10
22.3008
 20
8.61344
 30
0.000000
  70
    32
  0
VERTEX
  8
1
  5
4DF94
 10
22.4301
 20
8.47912
 30
0.000000
  70
    32
  0
VERTEX
  8
1
  5
4DF95
 10
22.5606
 20
8.34590
 30
0.000000
  70
    32
  0
VERTEX
  8
1
  5
4DF96
 10
22.6921
 20
8.21380
 30
0.000000
  70
    32
  0
VERTEX
  8
1
  5
4DF97
 10
22.8248
 20
8.08282
 30
0.000000
  70
    32
  0
VERTEX
  8
1
  5
4DF98
 10
22.9586
 20
7.95299
 30
0.000000
  70
    32
  0
VERTEX
  8
1
  5
4DF99
 10
23.0935
 20
7.82429
 30
0.000000
  70
    32
  0
VERTEX
  8
1
  5
4DF9A
 10
23.2295
 20
7.69675
 30
0.000000
  70
    32
  0
VERTEX
  8
1
  5
4DF9B
 10
23.3666
 20
7.57038
 30
0.000000
  70
    32
  0
VERTEX
  8
1
  5
4DF9C
 10
23.5047
 20
7.44518
 30
0.000000
  70
    32
  0
VERTEX
  8
1
  5
4DF9D
 10
23.6439
 20
7.32115
 30
0.000000
  70
    32
  0
VERTEX
  8
1
  5
4DF9E
 10
23.7841
 20
7.19832
 30
0.000000
  70
    32
  0
VERTEX
  8
1
  5
4DF9F
 10
23.9253
 20
7.07669
 30
0.000000
  70
    32
  0
VERTEX
  8
1
  5
4DFA0
 10
24.0676
 20
6.95627
 30
0.000000
  70
    32
  0
VERTEX
  8
1
  5
4DFA1
 10
24.2109
 20
6.83707
 30
0.000000
  70
    32
  0
VERTEX
  8
1
  5
4DFA2
 10
24.3552
 20
6.71909
 30
0.000000
  70
    32
  0
VERTEX
  8
1
  5
4DFA3
 10
24.5004
 20
6.60234
 30
0.000000
  70
    32
  0
VERTEX
  8
1
  5
4DFA4
 10
24.6467
 20
6.48684
 30
0.000000
  70
    32
  0
VERTEX
  8
1
  5
4DFA5
 10
24.7939
 20
6.37259
 30
0.000000
  70
    32
  0
VERTEX
  8
1
  5
4DFA6
 10
24.9421
 20
6.25959
 30
0.000000
  70
    32
  0
VERTEX
  8
1
  5
4DFA7
 10
25.0913
 20
6.14787
 30
0.000000
  70
    32
  0
VERTEX
  8
1
  5
4DFA8
 10
25.2414
 20
6.03742
 30
0.000000
  70
    32
  0
VERTEX
  8
1
  5
4DFA9
 10
25.3924
 20
5.92825
 30
0.000000
  70
    32
  0
VERTEX
  8
1
  5
4DFAA
 10
25.5443
 20
5.82037
 30
0.000000
  70
    32
  0
VERTEX
  8
1
  5
4DFAB
 10
25.6972
 20
5.71380
 30
0.000000
  70
    32
  0
VERTEX
  8
1
  5
4DFAC
 10
25.8509
 20
5.60853
 30
0.000000
  70
    32
  0
VERTEX
  8
1
  5
4DFAD
 10
26.0055
 20
5.50457
 30
0.000000
  70
    32
  0
VERTEX
  8
1
  5
4DFAE
 10
26.1610
 20
5.40193
 30
0.000000
  70
    32
  0
VERTEX
  8
1
  5
4DFAF
 10
26.3174
 20
5.30063
 30
0.000000
  70
    32
  0
VERTEX
  8
1
  5
4DFB0
 10
26.4746
 20
5.20066
 30
0.000000
  70
    32
  0
VERTEX
  8
1
  5
4DFB1
 10
26.6326
 20
5.10203
 30
0.000000
  70
    32
  0
VERTEX
  8
1
  5
4DFB2
 10
26.7915
 20
5.00476
 30
0.000000
  70
    32
  0
VERTEX
  8
1
  5
4DFB3
 10
26.9512
 20
4.90884
 30
0.000000
  70
    32
  0
VERTEX
  8
1
  5
4DFB4
 10
27.1117
 20
4.81429
 30
0.000000
  70
    32
  0
VERTEX
  8
1
  5
4DFB5
 10
27.2730
 20
4.72111
 30
0.000000
  70
    32
  0
VERTEX
  8
1
  5
4DFB6
 10
27.4351
 20
4.62931
 30
0.000000
  70
    32
  0
VERTEX
  8
1
  5
4DFB7
 10
27.5979
 20
4.53889
 30
0.000000
  70
    32
  0
VERTEX
  8
1
  5
4DFB8
 10
27.7615
 20
4.44986
 30
0.000000
  70
    32
  0
VERTEX
  8
1
  5
4DFB9
 10
27.9259
 20
4.36223
 30
0.000000
  70
    32
  0
VERTEX
  8
1
  5
4DFBA
 10
28.0910
 20
4.27601
 30
0.000000
  70
    32
  0
VERTEX
  8
1
  5
4DFBB
 10
28.2568
 20
4.19119
 30
0.000000
  70
    32
  0
VERTEX
  8
1
  5
4DFBC
 10
28.4233
 20
4.10779
 30
0.000000
  70
    32
  0
VERTEX
  8
1
  5
4DFBD
 10
28.5905
 20
4.02582
 30
0.000000
  70
    32
  0
VERTEX
  8
1
  5
4DFBE
 10
28.7584
 20
3.94527
 30
0.000000
  70
    32
  0
VERTEX
  8
1
  5
4DFBF
 10
28.9270
 20
3.86616
 30
0.000000
  70
    32
  0
VERTEX
  8
1
  5
4DFC0
 10
29.0963
 20
3.78848
 30
0.000000
  70
    32
  0
VERTEX
  8
1
  5
4DFC1
 10
29.2662
 20
3.71226
 30
0.000000
  70
    32
  0
VERTEX
  8
1
  5
4DFC2
 10
29.4367
 20
3.63748
 30
0.000000
  70
    32
  0
VERTEX
  8
1
  5
4DFC3
 10
29.6079
 20
3.56416
 30
0.000000
  70
    32
  0
VERTEX
  8
1
  5
4DFC4
 10
29.7796
 20
3.49230
 30
0.000000
  70
    32
  0
VERTEX
  8
1
  5
4DFC5
 10
29.9520
 20
3.42190
 30
0.000000
  70
    32
  0
VERTEX
  8
1
  5
4DFC6
 10
30.1250
 20
3.35298
 30
0.000000
  70
    32
  0
VERTEX
  8
1
  5
4DFC7
 10
30.2985
 20
3.28554
 30
0.000000
  70
    32
  0
VERTEX
  8
1
  5
4DFC8
 10
30.4727
 20
3.21958
 30
0.000000
  70
    32
  0
VERTEX
  8
1
  5
4DFC9
 10
30.6473
 20
3.15510
 30
0.000000
  70
    32
  0
VERTEX
  8
1
  5
4DFCA
 10
30.8225
 20
3.09212
 30
0.000000
  70
    32
  0
VERTEX
  8
1
  5
4DFCB
 10
30.9982
 20
3.03063
 30
0.000000
  70
    32
  0
VERTEX
  8
1
  5
4DFCC
 10
31.1745
 20
2.97064
 30
0.000000
  70
    32
  0
VERTEX
  8
1
  5
4DFCD
 10
31.3512
 20
2.91215
 30
0.000000
  70
    32
  0
VERTEX
  8
1
  5
4DFCE
 10
31.5285
 20
2.85518
 30
0.000000
  70
    32
  0
VERTEX
  8
1
  5
4DFCF
 10
31.7062
 20
2.79972
 30
0.000000
  70
    32
  0
VERTEX
  8
1
  5
4DFD0
 10
31.8843
 20
2.74577
 30
0.000000
  70
    32
  0
VERTEX
  8
1
  5
4DFD1
 10
32.0630
 20
2.69334
 30
0.000000
  70
    32
  0
VERTEX
  8
1
  5
4DFD2
 10
32.2420
 20
2.64244
 30
0.000000
  70
    32
  0
VERTEX
  8
1
  5
4DFD3
 10
32.4215
 20
2.59307
 30
0.000000
  70
    32
  0
VERTEX
  8
1
  5
4DFD4
 10
32.6014
 20
2.54523
 30
0.000000
  70
    32
  0
VERTEX
  8
1
  5
4DFD5
 10
32.7817
 20
2.49892
 30
0.000000
  70
    32
  0
VERTEX
  8
1
  5
4DFD6
 10
32.9624
 20
2.45415
 30
0.000000
  70
    32
  0
VERTEX
  8
1
  5
4DFD7
 10
33.1434
 20
2.41092
 30
0.000000
  70
    32
  0
VERTEX
  8
1
  5
4DFD8
 10
33.3248
 20
2.36924
 30
0.000000
  70
    32
  0
VERTEX
  8
1
  5
4DFD9
 10
33.5066
 20
2.32911
 30
0.000000
  70
    32
  0
VERTEX
  8
1
  5
4DFDA
 10
33.6886
 20
2.29052
 30
0.000000
  70
    32
  0
VERTEX
  8
1
  5
4DFDB
 10
33.8711
 20
2.25349
 30
0.000000
  70
    32
  0
VERTEX
  8
1
  5
4DFDC
 10
34.0538
 20
2.21802
 30
0.000000
  70
    32
  0
VERTEX
  8
1
  5
4DFDD
 10
34.2368
 20
2.18410
 30
0.000000
  70
    32
  0
VERTEX
  8
1
  5
4DFDE
 10
34.4201
 20
2.15175
 30
0.000000
  70
    32
  0
VERTEX
  8
1
  5
4DFDF
 10
34.6036
 20
2.12096
 30
0.000000
  70
    32
  0
VERTEX
  8
1
  5
4DFE0
 10
34.7874
 20
2.09173
 30
0.000000
  70
    32
  0
VERTEX
  8
1
  5
4DFE1
 10
34.9715
 20
2.06408
 30
0.000000
  70
    32
  0
VERTEX
  8
1
  5
4DFE2
 10
35.1557
 20
2.03799
 30
0.000000
  70
    32
  0
VERTEX
  8
1
  5
4DFE3
 10
35.3402
 20
2.01347
 30
0.000000
  70
    32
  0
VERTEX
  8
1
  5
4DFE4
 10
35.5249
 20
1.99053
 30
0.000000
  70
    32
  0
VERTEX
  8
1
  5
4DFE5
 10
35.7098
 20
1.96916
 30
0.000000
  70
    32
  0
VERTEX
  8
1
  5
4DFE6
 10
35.8948
 20
1.94937
 30
0.000000
  70
    32
  0
VERTEX
  8
1
  5
4DFE7
 10
36.0801
 20
1.93116
 30
0.000000
  70
    32
  0
VERTEX
  8
1
  5
4DFE8
 10
36.2654
 20
1.91452
 30
0.000000
  70
    32
  0
VERTEX
  8
1
  5
4DFE9
 10
36.4509
 20
1.89947
 30
0.000000
  70
    32
  0
VERTEX
  8
1
  5
4DFEA
 10
36.6365
 20
1.88600
 30
0.000000
  70
    32
  0
VERTEX
  8
1
  5
4DFEB
 10
36.8222
 20
1.87411
 30
0.000000
  70
    32
  0
VERTEX
  8
1
  5
4DFEC
 10
37.0081
 20
1.86380
 30
0.000000
  70
    32
  0
VERTEX
  8
1
  5
4DFED
 10
37.1939
 20
1.85508
 30
0.000000
  70
    32
  0
VERTEX
  8
1
  5
4DFEE
 10
37.3799
 20
1.84795
 30
0.000000
  70
    32
  0
VERTEX
  8
1
  5
4DFEF
 10
37.5659
 20
1.84240
 30
0.000000
  70
    32
  0
VERTEX
  8
1
  5
4DFF0
 10
37.7520
 20
1.83843
 30
0.000000
  70
    32
  0
VERTEX
  8
1
  5
4DFF1
 10
37.9381
 20
1.83605
 30
0.000000
  70
    32
  0
VERTEX
  8
1
  5
4DFF2
 10
38.1242
 20
1.83526
 30
0.000000
  70
    32
  0
SEQEND
  8
1
  5
4DFF3
  0
CIRCLE
  5
4D52E
  8
1
 10
38.102413000000041
 20
9.5249999999999755
 30
0.0
 40
6.349999999999997
  0
LINE
  5
4D567
  8
1
 10
30.907510141899991
 20
12.55534999889997
 30
0.0
 11
32.486033170812561
 21
12.55534999889997
 31
0.0
1001
ACAD
1000
RTMaterial
1005
0
  0
LINE
  5
4D569
  8
1
 10
27.999354191399959
 20
12.69663889189996
 30
0.0
 11
0.7853832702541406
 21
15.347204456994669
 31
0.0
1001
ACAD
1000
RTMaterial
1005
0
  0
LINE
  5
4D56A
  8
1
 10
0.2972486707000144
 20
15.577751328099961
 30
0.0
 11
0.0
 21
15.874999998899961
 31
0.0
1001
ACAD
1000
RTMaterial
1005
0
  0
LINE
  5
4D56D
  8
1
 10
42.964099999999974
 20
5.4400887997372784
 30
0.0
 11
42.964099999999974
 21
-12.18324999890006
 31
0.0
1001
ACAD
1000
RTMaterial
1005
0
  0
ARC
  5
4D56E
  8
1
 10
30.907510141899991
 20
42.55534999889997
 30
0.0
 40
30.0
 50
264.43709544369977
 51
270.0
1001
ACAD
1000
RTMaterial
1005
0
  0
CIRCLE
  5
4D56F
  8
CUT
 10
38.099999999999973
 20
9.5249999988999718
 30
0.0
 40
6.349999999999997
1001
ACAD
1000
RTMaterial
1005
0
  0
ARC
  5
4D571
  8
1
 10
0.8629340955999965
 20
16.143436753099959
 30
0.0
 40
0.8
 50
225.00000000859899
 51
264.43709544490082
1001
ACAD
1000
RTMaterial
1005
0
  0
LINE
  5
4D575
  8
1
 10
30.907510141899959
 20
-12.555349998900059
 30
0.0
 11
32.485791517399967
 21
-12.555349998900059
 31
0.0
1001
ACAD
1000
RTMaterial
1005
0
  0
LINE
  5
4D576
  8
1
 10
40.50889999999994
 20
-14.791349998900101
 30
0.0
 11
36.533899999999981
 21
-15.031849998900091
 31
0.0
1001
ACAD
1000
RTMaterial
1005
0
  0
LINE
  5
4D577
  8
1
 10
27.99935419139992
 20
-12.69663889190004
 30
0.0
 11
0.7853832701999445
 21
-15.34720445699995
 31
0.0
1001
ACAD
1000
RTMaterial
1005
0
  0
LINE
  5
4D578
  8
1
 10
0.2972486706999718
 20
-15.57775132809997
 30
0.0
 11
-0.0000000000000433
 21
-15.874999998899961
 31
0.0
1001
ACAD
1000
RTMaterial
1005
0
  0
LINE
  5
4D579
  8
1
 10
34.411579159199981
 20
-13.25505828720004
 30
0.0
 11
36.533899999999981
 21
-15.031849998900091
 31
0.0
1001
ACAD
1000
RTMaterial
1005
0
  0
LINE
  5
4D57A
  8
1
 10
42.964099999999931
 20
-12.1832499989001
 30
0.0
 11
40.50889999999994
 21
-14.791349998900101
 31
0.0
1001
ACAD
1000
RTMaterial
1005
0
  0
ARC
  5
4D57B
  8
1
 10
30.90751014189987
 20
-42.555349998900077
 30
0.0
 40
30.0
 50
89.999999999999844
 51
95.562904556300055
1001
ACAD
1000
RTMaterial
1005
0
  0
ARC
  5
4D57C
  8
1
 10
32.48579151739996
 20
-15.555349998900059
 30
0.0
 40
3.0
 50
50.064172991700708
 51
89.999999999999844
1001
ACAD
1000
RTMaterial
1005
0
  0
ARC
  5
4D57D
  8
1
 10
0.8629340955999522
 20
-16.143436753099969
 30
0.0
 40
0.8
 50
95.562904555099067
 51
134.9999999914007
1001
ACAD
1000
RTMaterial
1005
0
  0
LINE
  5
4D5B4
  8
NOCUT
 10
0.0000000000000568
 20
15.874999998899989
 30
0.0
 11
0.0000000000000568
 21
0.0000000000000284
 31
0.0
1001
ACAD
1000
RTMaterial
1005
0
  0
LINE
  5
4D5B5
  8
NOCUT
 10
42.96410000000003
 20
-0.0000000000000284
 30
0.0
 11
0.0
 21
0.0
 31
0.0
1001
ACAD
1000
RTMaterial
1005
0
  0
LINE
  5
4D5B6
  8
NOCUT
 10
30.907510141900062
 20
12.555349998900001
 30
0.0
 11
32.48579151740006
 21
12.555349998900001
 31
0.0
1001
ACAD
1000
RTMaterial
1005
0
  0
LINE
  5
4D5B7
  8
NOCUT
 10
40.50890000000004
 20
14.791349998900021
 30
0.0
 11
36.533900000000067
 21
15.031849998900009
 31
0.0
1001
ACAD
1000
RTMaterial
1005
0
  0
LINE
  5
4D5B8
  8
NOCUT
 10
27.99935419140002
 20
12.69663889189999
 30
0.0
 11
0.7853832702000432
 21
15.34720445699997
 31
0.0
1001
ACAD
1000
RTMaterial
1005
0
  0
LINE
  5
4D5B9
  8
NOCUT
 10
0.2972486707000712
 20
15.577751328099991
 30
0.0
 11
0.0000000000000568
 21
15.874999998899989
 31
0.0
1001
ACAD
1000
RTMaterial
1005
0
  0
LINE
  5
4D5BA
  8
NOCUT
 10
34.411579159200073
 20
13.25505828719997
 30
0.0
 11
36.533900000000067
 21
15.031849998900009
 31
0.0
1001
ACAD
1000
RTMaterial
1005
0
  0
LINE
  5
4D5BB
  8
NOCUT
 10
42.96410000000003
 20
12.18324999890001
 30
0.0
 11
40.50890000000004
 21
14.791349998900021
 31
0.0
1001
ACAD
1000
RTMaterial
1005
0
  0
LINE
  5
4D5BC
  8
NOCUT
 10
42.96410000000003
 20
12.18324999890001
 30
0.0
 11
42.96410000000003
 21
0.0
 31
0.0
1001
ACAD
1000
RTMaterial
1005
0
  0
ARC
  5
4D5BD
  8
NOCUT
 10
30.907510141900062
 20
42.555349998899999
 30
0.0
 40
30.0
 50
264.43709544369977
 51
270.0
1001
ACAD
1000
RTMaterial
1005
0
  0
ARC
  5
4D5BE
  8
NOCUT
 10
32.48579151740006
 20
15.555349998900001
 30
0.0
 40
3.0
 50
270.0
 51
309.93582700829921
1001
ACAD
1000
RTMaterial
1005
0
  0
ARC
  5
4D5BF
  8
NOCUT
 10
0.8629340956000531
 20
16.143436753099991
 30
0.0
 40
0.8
 50
225.0000000085987
 51
264.43709544490082
1001
ACAD
1000
RTMaterial
1005
0
  0
ARC
  5
4D5E4
  8
1
 10
32.48579161237609
 20
15.555349989174889
 30
0.0
 40
3.0
 50
270.0
 51
270.69646391346009
1001
ACAD
1000
RTMaterial
1005
0
  0
VIEWPORT
  5
6B
 67
     1
  8
0
 10
150.16521352649059
 20
160.44558278787619
 30
0.0
 40
339.19738204943462
 41
282.22721401461251
 68
     1
 69
     1
1001
ACAD
1000
MVIEW
1002
{
1070
    16
1010
0.0
1020
0.0
1030
0.0
1010
0.0
1020
0.0
1030
1.0
1040
0.0
1040
282.22721401461251
1040
150.16521352649059
1040
160.44558278787619
1040
50.0
1040
0.0
1040
0.0
1070
     0
1070
  1000
1070
     1
1070
     3
1070
     0
1070
     0
1070
     0
1070
     0
1040
0.0
1040
0.0
1040
0.0
1040
10.0
1040
10.0
1040
10.0
1040
10.0
1070
     0
1002
{
1002
}
1002
}
  0
VIEWPORT
  5
6D
 67
     1
  8
0
 10
133.34999394416809
 20
101.59999394416811
 30
0.0
 40
213.35999031066891
 41
162.55999031066889
 68
     2
 69
     2
1001
ACAD
1000
MVIEW
1002
{
1070
    16
1010
0.0
1020
0.0
1030
0.0
1010
0.0
1020
0.0
1030
1.0
1040
0.0
1040
324.06779201113449
1040
210.0
1040
148.5
1040
50.0
1040
0.0
1040
0.0
1070
     0
1070
   100
1070
     1
1070
     3
1070
     0
1070
     0
1070
     0
1070
     0
1040
0.0
1040
0.0
1040
0.0
1040
10.0
1040
10.0
1040
10.0
1040
10.0
1070
     0
1002
{
1002
}
1002
}
  0
ENDSEC
  0
EOF
