  0
SECTION
  2
HEADER
  9
$ACADVER
  1
AC1015
  9
$ACADMAINTVER
 70
    20
  9
$DWGCODEPAGE
  3
ANSI_936
  9
$INSBASE
 10
0.0
 20
0.0
 30
0.0
  9
$EXTMIN
 10
-33.96910523080003
 20
-59.8325767554957
 30
0.0
  9
$EXTMAX
 10
82.68192905509108
 20
75.01944195733502
 30
0.0
  9
$LIMMIN
 10
0.0
 20
0.0
  9
$LIMMAX
 10
420.0
 20
297.0
  9
$ORTHOMODE
 70
     0
  9
$REGENMODE
 70
     1
  9
$FILLMODE
 70
     1
  9
$QTEXTMODE
 70
     0
  9
$MIRRTEXT
 70
     1
  9
$LTSCALE
 40
1.0
  9
$ATTMODE
 70
     1
  9
$TEXTSIZE
 40
3.5
  9
$TRACEWID
 40
1.0
  9
$TEXTSTYLE
  7
simplex
  9
$CLAYER
  8
0
  9
$CELTYPE
  6
ByLayer
  9
$CECOLOR
 62
   256
  9
$CELTSCALE
 40
1.0
  9
$DISPSILH
 70
     0
  9
$DIMSCALE
 40
0.0
  9
$DIMASZ
 40
3.5
  9
$DIMEXO
 40
0.0
  9
$DIMDLI
 40
0.38
  9
$DIMRND
 40
0.0
  9
$DIMDLE
 40
0.0
  9
$DIMEXE
 40
1.5
  9
$DIMTP
 40
0.0
  9
$DIMTM
 40
0.0
  9
$DIMTXT
 40
3.5
  9
$DIMCEN
 40
0.09
  9
$DIMTSZ
 40
0.0
  9
$DIMTOL
 70
     0
  9
$DIMLIM
 70
     0
  9
$DIMTIH
 70
     0
  9
$DIMTOH
 70
     0
  9
$DIMSE1
 70
     0
  9
$DIMSE2
 70
     0
  9
$DIMTAD
 70
     1
  9
$DIMZIN
 70
     8
  9
$DIMBLK
  1

  9
$DIMASO
 70
     1
  9
$DIMSHO
 70
     1
  9
$DIMPOST
  1

  9
$DIMAPOST
  1

  9
$DIMALT
 70
     0
  9
$DIMALTD
 70
     2
  9
$DIMALTF
 40
25.4
  9
$DIMLFAC
 40
1.0
  9
$DIMTOFL
 70
     0
  9
$DIMTVP
 40
0.0
  9
$DIMTIX
 70
     0
  9
$DIMSOXD
 70
     0
  9
$DIMSAH
 70
     0
  9
$DIMBLK1
  1

  9
$DIMBLK2
  1

  9
$DIMSTYLE
  2
\M+18352\M+18373\M+1815B - ISO-25
  9
$DIMCLRD
 70
   256
  9
$DIMCLRE
 70
   256
  9
$DIMCLRT
 70
   256
  9
$DIMTFAC
 40
1.0
  9
$DIMGAP
 40
2.299999999999998
  9
$DIMJUST
 70
     0
  9
$DIMSD1
 70
     0
  9
$DIMSD2
 70
     0
  9
$DIMTOLJ
 70
     1
  9
$DIMTZIN
 70
     8
  9
$DIMALTZ
 70
     0
  9
$DIMALTTZ
 70
     0
  9
$DIMUPT
 70
     0
  9
$DIMDEC
 70
     2
  9
$DIMTDEC
 70
     2
  9
$DIMALTU
 70
     2
  9
$DIMALTTD
 70
     2
  9
$DIMTXSTY
  7
simplex
  9
$DIMAUNIT
 70
     0
  9
$DIMADEC
 70
     0
  9
$DIMALTRND
 40
0.0
  9
$DIMAZIN
 70
     0
  9
$DIMDSEP
 70
    46
  9
$DIMATFIT
 70
     3
  9
$DIMFRAC
 70
     0
  9
$DIMLDRBLK
  1

  9
$DIMLUNIT
 70
     2
  9
$DIMLWD
 70
    -1
  9
$DIMLWE
 70
    -1
  9
$DIMTMOVE
 70
     0
  9
$LUNITS
 70
     2
  9
$LUPREC
 70
     4
  9
$SKETCHINC
 40
1.0
  9
$FILLETRAD
 40
0.8
  9
$AUNITS
 70
     0
  9
$AUPREC
 70
     0
  9
$MENU
  1
.
  9
$ELEVATION
 40
0.0
  9
$PELEVATION
 40
0.0
  9
$THICKNESS
 40
0.0
  9
$LIMCHECK
 70
     0
  9
$CHAMFERA
 40
10.0
  9
$CHAMFERB
 40
10.0
  9
$CHAMFERC
 40
20.0
  9
$CHAMFERD
 40
0.0
  9
$SKPOLY
 70
     0
  9
$TDCREATE
 40
2455489.391063368
  9
$TDUCREATE
 40
2455489.057730035
  9
$TDUPDATE
 40
2458517.810960926
  9
$TDUUPDATE
 40
2458517.477627593
  9
$TDINDWG
 40
2.2772453472
  9
$TDUSRTIMER
 40
2.2771904167
  9
$USRTIMER
 70
     1
  9
$ANGBASE
 50
0.0
  9
$ANGDIR
 70
     0
  9
$PDMODE
 70
     0
  9
$PDSIZE
 40
0.0
  9
$PLINEWID
 40
0.0
  9
$SPLFRAME
 70
     0
  9
$SPLINETYPE
 70
     6
  9
$SPLINESEGS
 70
     8
  9
$HANDSEED
  5
60E13
  9
$SURFTAB1
 70
     6
  9
$SURFTAB2
 70
     6
  9
$SURFTYPE
 70
     6
  9
$SURFU
 70
     6
  9
$SURFV
 70
     6
  9
$UCSBASE
  2

  9
$UCSNAME
  2

  9
$UCSORG
 10
0.0
 20
0.0
 30
0.0
  9
$UCSXDIR
 10
1.0
 20
0.0
 30
0.0
  9
$UCSYDIR
 10
0.0
 20
1.0
 30
0.0
  9
$UCSORTHOREF
  2

  9
$UCSORTHOVIEW
 70
     0
  9
$UCSORGTOP
 10
0.0
 20
0.0
 30
0.0
  9
$UCSORGBOTTOM
 10
0.0
 20
0.0
 30
0.0
  9
$UCSORGLEFT
 10
0.0
 20
0.0
 30
0.0
  9
$UCSORGRIGHT
 10
0.0
 20
0.0
 30
0.0
  9
$UCSORGFRONT
 10
0.0
 20
0.0
 30
0.0
  9
$UCSORGBACK
 10
0.0
 20
0.0
 30
0.0
  9
$PUCSBASE
  2

  9
$PUCSNAME
  2

  9
$PUCSORG
 10
0.0
 20
0.0
 30
0.0
  9
$PUCSXDIR
 10
1.0
 20
0.0
 30
0.0
  9
$PUCSYDIR
 10
0.0
 20
1.0
 30
0.0
  9
$PUCSORTHOREF
  2

  9
$PUCSORTHOVIEW
 70
     0
  9
$PUCSORGTOP
 10
0.0
 20
0.0
 30
0.0
  9
$PUCSORGBOTTOM
 10
0.0
 20
0.0
 30
0.0
  9
$PUCSORGLEFT
 10
0.0
 20
0.0
 30
0.0
  9
$PUCSORGRIGHT
 10
0.0
 20
0.0
 30
0.0
  9
$PUCSORGFRONT
 10
0.0
 20
0.0
 30
0.0
  9
$PUCSORGBACK
 10
0.0
 20
0.0
 30
0.0
  9
$USERI1
 70
     0
  9
$USERI2
 70
     0
  9
$USERI3
 70
     0
  9
$USERI4
 70
     0
  9
$USERI5
 70
     0
  9
$USERR1
 40
0.0
  9
$USERR2
 40
0.0
  9
$USERR3
 40
0.0
  9
$USERR4
 40
0.0
  9
$USERR5
 40
0.0
  9
$WORLDVIEW
 70
     1
  9
$SHADEDGE
 70
     3
  9
$SHADEDIF
 70
    70
  9
$TILEMODE
 70
     1
  9
$MAXACTVP
 70
    64
  9
$PINSBASE
 10
0.0
 20
0.0
 30
0.0
  9
$PLIMCHECK
 70
     0
  9
$PEXTMIN
 10
26.66999878883364
 20
20.31999878883365
 30
0.0
  9
$PEXTMAX
 10
240.0299890995025
 20
182.8799890995025
 30
0.0
  9
$PLIMMIN
 10
-6.350006103515625
 20
-6.349999904632567
  9
$PLIMMAX
 10
273.0499877929688
 20
209.5499939918518
  9
$UNITMODE
 70
     0
  9
$VISRETAIN
 70
     1
  9
$PLINEGEN
 70
     0
  9
$PSLTSCALE
 70
     1
  9
$TREEDEPTH
 70
  3020
  9
$CMLSTYLE
  2
Standard
  9
$CMLJUST
 70
     0
  9
$CMLSCALE
 40
20.0
  9
$PROXYGRAPHICS
 70
     1
  9
$MEASUREMENT
 70
     1
  9
$CELWEIGHT
370
    -1
  9
$ENDCAPS
280
     0
  9
$JOINSTYLE
280
     0
  9
$LWDISPLAY
290
     0
  9
$INSUNITS
 70
     4
  9
$HYPERLINKBASE
  1

  9
$STYLESHEET
  1

  9
$XEDIT
290
     1
  9
$CEPSNTYPE
380
     0
  9
$PSTYLEMODE
290
     1
  9
$FINGERPRINTGUID
  2
{601DDA01-5B13-4A4C-8F56-1333B78D855B}
  9
$VERSIONGUID
  2
{D952040C-E942-4DEB-888F-45468B47CEFE}
  9
$EXTNAMES
290
     1
  9
$PSVPSCALE
 40
0.0
  9
$OLESTARTUP
290
     0
  0
ENDSEC
  0
SECTION
  2
CLASSES
  0
CLASS
  1
ACDBDICTIONARYWDFLT
  2
AcDbDictionaryWithDefault
  3
ObjectDBX Classes
 90
        0
280
     0
281
     0
  0
CLASS
  1
ACDBPLACEHOLDER
  2
AcDbPlaceHolder
  3
ObjectDBX Classes
 90
        0
280
     0
281
     0
  0
CLASS
  1
LAYOUT
  2
AcDbLayout
  3
ObjectDBX Classes
 90
        0
280
     0
281
     0
  0
CLASS
  1
DICTIONARYVAR
  2
AcDbDictionaryVar
  3
ObjectDBX Classes
 90
        0
280
     0
281
     0
  0
CLASS
  1
TABLESTYLE
  2
AcDbTableStyle
  3
ObjectDBX Classes
 90
     2047
280
     0
281
     0
  0
CLASS
  1
SORTENTSTABLE
  2
AcDbSortentsTable
  3
ObjectDBX Classes
 90
        0
280
     0
281
     0
  0
CLASS
  1
DIMASSOC
  2
AcDbDimAssoc
  3
"AcDbDimAssoc|Product Desc:     AcDim ARX App For Dimension|Company:          Autodesk, Inc.|WEB Address:      www.autodesk.com"
 90
        0
280
     0
281
     0
  0
CLASS
  1
ACAD_EVALUATION_GRAPH
  2
AcDbEvalGraph
  3
ObjectDBX Classes
 90
    33921
280
     0
281
     0
  0
CLASS
  1
ACAECUSTOBJ
  2
AcAeEditorObj
  3
AcAeEditorObj
 90
    33792
280
     0
281
     0
  0
CLASS
  1
ACDB_DYNAMICBLOCKPURGEPREVENTER_VERSION
  2
AcDbDynamicBlockPurgePreventer
  3
ObjectDBX Classes
 90
    33921
280
     0
281
     0
  0
ENDSEC
  0
SECTION
  2
TABLES
  0
TABLE
  2
VPORT
  5
8
330
0
100
AcDbSymbolTable
 70
     2
  0
VPORT
  5
60E04
330
8
100
AcDbSymbolTableRecord
100
AcDbViewportTableRecord
  2
*Active
 70
     0
 10
0.0
 20
0.0
 11
1.0
 21
1.0
 12
19.0131450997963
 22
7.565014899426557
 13
0.0
 23
0.0
 14
10.0
 24
10.0
 15
10.0
 25
10.0
 16
0.0
 26
0.0
 36
1.0
 17
0.0
 27
0.0
 37
0.0
 40
169.9950428476865
 41
1.386206896551724
 42
50.0
 43
0.0
 44
0.0
 50
0.0
 51
0.0
 71
     0
 72
  1000
 73
     1
 74
     1
 75
     0
 76
     0
 77
     0
 78
     0
281
     0
 65
     1
110
0.0
120
0.0
130
0.0
111
1.0
121
0.0
131
0.0
112
0.0
122
1.0
132
0.0
 79
     0
146
0.0
  0
ENDTAB
  0
TABLE
  2
LTYPE
  5
5
330
0
100
AcDbSymbolTable
 70
     4
  0
LTYPE
  5
14
330
5
100
AcDbSymbolTableRecord
100
AcDbLinetypeTableRecord
  2
ByBlock
 70
     0
  3

 72
    65
 73
     0
 40
0.0
  0
LTYPE
  5
15
330
5
100
AcDbSymbolTableRecord
100
AcDbLinetypeTableRecord
  2
ByLayer
 70
     0
  3

 72
    65
 73
     0
 40
0.0
  0
LTYPE
  5
16
330
5
100
AcDbSymbolTableRecord
100
AcDbLinetypeTableRecord
  2
Continuous
 70
     0
  3
Solid line
 72
    65
 73
     0
 40
0.0
  0
LTYPE
  5
D7
330
5
100
AcDbSymbolTableRecord
100
AcDbLinetypeTableRecord
  2
HIDDEN
 70
     0
  3
Hidden __ __ __ __ __ __ __ __ __ __ __ __ __ _
 72
    65
 73
     2
 40
9.524999999999996
 49
6.349999999999997
 74
     0
 49
-3.174999999999998
 74
     0
  0
LTYPE
  5
D9
330
5
100
AcDbSymbolTableRecord
100
AcDbLinetypeTableRecord
  2
CENTER
 70
     0
  3
Center ____ _ ____ _ ____ _ ____ _ ____ _ ____
 72
    65
 73
     4
 40
50.8
 49
31.75
 74
     0
 49
-6.349999999999997
 74
     0
 49
6.349999999999997
 74
     0
 49
-6.349999999999997
 74
     0
  0
LTYPE
  5
35815
330
5
100
AcDbSymbolTableRecord
100
AcDbLinetypeTableRecord
  2
PHANTOM
 70
     0
  3
_____ _ _ _____ _ _ _____ _ _ _____
 72
    65
 73
     6
 40
0.8
 49
0.45
 74
     0
 49
-0.05
 74
     0
 49
0.1
 74
     0
 49
-0.05
 74
     0
 49
0.1
 74
     0
 49
-0.05
 74
     0
  0
ENDTAB
  0
TABLE
  2
LAYER
  5
2
102
{ACAD_XDICTIONARY
360
E2
102
}
330
0
100
AcDbSymbolTable
 70
    14
  0
LAYER
  5
10
330
2
100
AcDbSymbolTableRecord
100
AcDbLayerTableRecord
  2
0
 70
     0
 62
     7
  6
Continuous
370
    -3
390
F
  0
LAYER
  5
D1
330
2
100
AcDbSymbolTableRecord
100
AcDbLayerTableRecord
  2
1
 70
     0
 62
     4
  6
Continuous
370
    50
390
F
1001
AcAecLayerStandard
1000

1000

  0
LAYER
  5
D3
330
2
100
AcDbSymbolTableRecord
100
AcDbLayerTableRecord
  2
2
 70
     0
 62
     7
  6
Continuous
370
    25
390
F
1001
AcAecLayerStandard
1000

1000

  0
LAYER
  5
D4
330
2
100
AcDbSymbolTableRecord
100
AcDbLayerTableRecord
  2
3
 70
     0
 62
     1
  6
HIDDEN
370
    35
390
F
1001
AcAecLayerStandard
1000

1000

  0
LAYER
  5
D8
330
2
100
AcDbSymbolTableRecord
100
AcDbLayerTableRecord
  2
4
 70
     0
 62
     2
  6
CENTER
370
    25
390
F
1001
AcAecLayerStandard
1000

1000

  0
LAYER
  5
DA
330
2
100
AcDbSymbolTableRecord
100
AcDbLayerTableRecord
  2
6
 70
     0
 62
     5
  6
Continuous
370
    35
390
F
1001
AcAecLayerStandard
1000

1000

  0
LAYER
  5
DB
330
2
100
AcDbSymbolTableRecord
100
AcDbLayerTableRecord
  2
cut
 70
     0
 62
     1
  6
Continuous
370
    25
390
F
1001
AcAecLayerStandard
1000

1000

  0
LAYER
  5
DC
330
2
100
AcDbSymbolTableRecord
100
AcDbLayerTableRecord
  2
nocut
 70
     0
 62
     7
  6
Continuous
370
    25
390
F
1001
AcAecLayerStandard
1000

1000

  0
LAYER
  5
DD
330
2
100
AcDbSymbolTableRecord
100
AcDbLayerTableRecord
  2
sk1
 70
     0
 62
     4
  6
Continuous
370
    50
390
F
1001
AcAecLayerStandard
1000

1000

  0
LAYER
  5
DE
330
2
100
AcDbSymbolTableRecord
100
AcDbLayerTableRecord
  2
sk2
 70
     0
 62
     7
  6
Continuous
370
    25
390
F
1001
AcAecLayerStandard
1000

1000

  0
LAYER
  5
DF
330
2
100
AcDbSymbolTableRecord
100
AcDbLayerTableRecord
  2
sk3
 70
     0
 62
     1
  6
HIDDEN
370
    35
390
F
1001
AcAecLayerStandard
1000

1000

  0
LAYER
  5
E0
330
2
100
AcDbSymbolTableRecord
100
AcDbLayerTableRecord
  2
sk4
 70
     0
 62
     2
  6
CENTER
370
    25
390
F
1001
AcAecLayerStandard
1000

1000

  0
LAYER
  5
E1
330
2
100
AcDbSymbolTableRecord
100
AcDbLayerTableRecord
  2
sk6
 70
     0
 62
     5
  6
Continuous
370
    35
390
F
1001
AcAecLayerStandard
1000

1000

  0
LAYER
  5
31B6
330
2
100
AcDbSymbolTableRecord
100
AcDbLayerTableRecord
  2
Defpoints
 70
     0
 62
     7
  6
Continuous
290
     0
370
    -3
390
F
  0
ENDTAB
  0
TABLE
  2
STYLE
  5
3
330
0
100
AcDbSymbolTable
 70
    11
  0
STYLE
  5
11
330
3
100
AcDbSymbolTableRecord
100
AcDbTextStyleTableRecord
  2
Standard
 70
     0
 40
0.0
 41
1.0
 50
0.0
 71
     0
 42
2.5
  3
txt.shx
  4
@extfont2.shx
  0
STYLE
  5
D6
330
3
100
AcDbSymbolTableRecord
100
AcDbTextStyleTableRecord
  2

 70
     1
 40
0.0
 41
1.0
 50
0.0
 71
     0
 42
2.5
  3
ltypeshp.shx
  4

  0
STYLE
  5
24A
330
3
100
AcDbSymbolTableRecord
100
AcDbTextStyleTableRecord
  2
simplex
 70
     0
 40
3.5
 41
1.0
 50
0.0
 71
     0
 42
3.5
  3
txt.shx
  4

  0
STYLE
  5
69E
330
3
100
AcDbSymbolTableRecord
100
AcDbTextStyleTableRecord
  2
MX_NOTE_STANDARD
 70
     0
 40
0.0
 41
1.0
 50
0.0
 71
     0
 42
4.2
  3
txt.shx
  4
extfont.shx
  0
STYLE
  5
3524
330
3
100
AcDbSymbolTableRecord
100
AcDbTextStyleTableRecord
  2
TEXTSTYLE_2
 70
     0
 40
0.0
 41
0.775
 50
0.0
 71
     0
 42
0.2
  3
gdt
  4

  0
STYLE
  5
3525
330
3
100
AcDbSymbolTableRecord
100
AcDbTextStyleTableRecord
  2
TEXTSTYLE_3
 70
     0
 40
0.0
 41
0.75
 50
0.0
 71
     0
 42
0.2
  3
txt
  4

  0
STYLE
  5
3526
330
3
100
AcDbSymbolTableRecord
100
AcDbTextStyleTableRecord
  2
TEXTSTYLE_13
 70
     0
 40
0.0
 41
1.0
 50
0.0
 71
     0
 42
0.2
  3
txt
  4

  0
STYLE
  5
519A
330
3
100
AcDbSymbolTableRecord
100
AcDbTextStyleTableRecord
  2
TEXTSTYLE_14
 70
     0
 40
0.0
 41
1.0
 50
0.0
 71
     0
 42
0.2
  3
txt
  4

  0
STYLE
  5
6F72
330
3
100
AcDbSymbolTableRecord
100
AcDbTextStyleTableRecord
  2
TEXTSTYLE_4
 70
     0
 40
0.0
 41
0.75
 50
0.0
 71
     0
 42
0.2
  3
txt
  4

  0
STYLE
  5
6F73
330
3
100
AcDbSymbolTableRecord
100
AcDbTextStyleTableRecord
  2
TEXTSTYLE_17
 70
     0
 40
0.0
 41
1.0
 50
0.0
 71
     0
 42
0.2
  3
txt
  4

  0
STYLE
  5
FE12
330
3
100
AcDbSymbolTableRecord
100
AcDbTextStyleTableRecord
  2
TEXTSTYLE_12
 70
     0
 40
0.0
 41
1.0
 50
0.0
 71
     0
 42
0.2
  3
txt
  4

  0
ENDTAB
  0
TABLE
  2
VIEW
  5
6
330
0
100
AcDbSymbolTable
 70
     0
  0
ENDTAB
  0
TABLE
  2
UCS
  5
7
330
0
100
AcDbSymbolTable
 70
     0
  0
ENDTAB
  0
TABLE
  2
APPID
  5
9
330
0
100
AcDbSymbolTable
 70
    11
  0
APPID
  5
12
330
9
100
AcDbSymbolTableRecord
100
AcDbRegAppTableRecord
  2
ACAD
 70
     0
  0
APPID
  5
D2
330
9
100
AcDbSymbolTableRecord
100
AcDbRegAppTableRecord
  2
AcAecLayerStandard
 70
     0
  0
APPID
  5
E6
330
9
100
AcDbSymbolTableRecord
100
AcDbRegAppTableRecord
  2
ACAD_DSTYLE_DIMTEXT_FILL
 70
     0
  0
APPID
  5
4C84
330
9
100
AcDbSymbolTableRecord
100
AcDbRegAppTableRecord
  2
ACAD_EXEMPT_FROM_CAD_STANDARDS
 70
     0
  0
APPID
  5
3493E
330
9
100
AcDbSymbolTableRecord
100
AcDbRegAppTableRecord
  2
DCO15
 70
     0
  0
APPID
  5
4366A
330
9
100
AcDbSymbolTableRecord
100
AcDbRegAppTableRecord
  2
ACAUTHENVIRON
 70
     0
  0
APPID
  5
4366D
330
9
100
AcDbSymbolTableRecord
100
AcDbRegAppTableRecord
  2
AcDbDynamicBlockTrueName
 70
     0
  0
APPID
  5
4366E
330
9
100
AcDbSymbolTableRecord
100
AcDbRegAppTableRecord
  2
AcDbDynamicBlockGUID
 70
     0
  0
APPID
  5
43670
330
9
100
AcDbSymbolTableRecord
100
AcDbRegAppTableRecord
  2
AcDbBlockRepETag
 70
     0
  0
APPID
  5
45C9F
330
9
100
AcDbSymbolTableRecord
100
AcDbRegAppTableRecord
  2
ACAD_DSTYLE_DIMEXT_ENABLED
 70
     0
  0
APPID
  5
45CA0
330
9
100
AcDbSymbolTableRecord
100
AcDbRegAppTableRecord
  2
ACAD_DSTYLE_DIMEXT_LENGTH
 70
     0
  0
ENDTAB
  0
TABLE
  2
DIMSTYLE
  5
A
330
0
100
AcDbSymbolTable
 70
     9
100
AcDbDimStyleTable
 71
     2
340
1BF
340
27
  0
DIMSTYLE
105
27
330
A
100
AcDbSymbolTableRecord
100
AcDbDimStyleTableRecord
  2
ISO-25
 70
     0
 41
2.5
 42
0.625
 43
3.75
 44
1.25
 73
     0
 74
     0
 77
     1
 78
     8
140
2.5
141
2.5
143
0.03937007874016
147
0.625
171
     3
172
     1
271
     2
272
     2
274
     3
278
    44
283
     0
284
     8
340
11
  0
DIMSTYLE
105
1BF
102
{ACAD_REACTORS
330
60CFE
330
60B33
330
60B35
330
60B36
330
60B37
330
60B38
330
60B39
102
}
330
A
100
AcDbSymbolTableRecord
100
AcDbDimStyleTableRecord
  2
\M+18352\M+18373\M+1815B - ISO-25
 70
     0
 40
0.0
 41
3.5
 42
0.0
 44
1.5
 73
     0
 74
     0
 77
     1
 78
     8
140
3.5
147
2.299999999999998
176
   256
177
   256
178
   256
271
     2
272
     2
284
     8
340
24A
371
    -1
372
    -1
  0
DIMSTYLE
105
69F
330
A
100
AcDbSymbolTableRecord
100
AcDbDimStyleTableRecord
  2
MXDIMSTYLE
 70
     0
 41
2.5
 42
0.5
 43
3.75
 44
1.5
 73
     0
 74
     0
 77
     1
 78
     8
140
4.2
141
2.5
143
0.03937
147
1.0
171
     4
172
     1
173
     1
271
     2
272
     2
274
     4
283
     0
288
     1
340
69E
341
697
343
697
344
697
  0
DIMSTYLE
105
3527
330
A
100
AcDbSymbolTableRecord
100
AcDbDimStyleTableRecord
  2
STANDARD
 70
     0
 41
3.0
 47
0.001
 48
0.001
 71
     1
 73
     0
 74
     0
 77
     1
 78
     8
140
4.0
271
     3
272
     3
284
     8
340
11
341
34B1
342
34B1
343
34B1
344
34B1
  0
DIMSTYLE
105
3528
330
A
100
AcDbSymbolTableRecord
100
AcDbDimStyleTableRecord
  2
DIMSTYLE_1
 70
     0
 41
3.0
 73
     0
 74
     0
 77
     1
 78
     8
140
4.0
271
     3
272
     3
284
     8
340
11
341
34B1
342
34B1
343
34B1
344
34B1
  0
DIMSTYLE
105
3529
330
A
100
AcDbSymbolTableRecord
100
AcDbDimStyleTableRecord
  2
DIMSTYLE_2
 70
     0
 41
3.0
 47
0.001
 48
0.001
 73
     0
 74
     0
 77
     1
 78
     8
140
4.0
271
     3
272
     3
284
     8
340
11
341
34B1
342
34B1
343
34B1
344
34B1
  0
DIMSTYLE
105
352A
330
A
100
AcDbSymbolTableRecord
100
AcDbDimStyleTableRecord
  2
DIMSTYLE_3
 70
     0
 41
3.0
 47
-0.1
 48
0.3
 71
     1
 73
     0
 74
     0
 77
     1
 78
     8
140
4.0
146
0.5
271
     3
272
     3
284
     8
340
11
341
34B1
342
34B1
343
34B1
344
34B1
  0
DIMSTYLE
105
352B
330
A
100
AcDbSymbolTableRecord
100
AcDbDimStyleTableRecord
  2
DIMSTYLE_4
 70
     0
 41
3.0
 47
0.1
 48
0.1
 71
     1
 73
     0
 74
     0
 77
     1
 78
     8
140
4.0
271
     3
272
     3
284
     8
340
11
341
34B1
342
34B1
343
34B1
344
34B1
  0
DIMSTYLE
105
27245
330
A
100
AcDbSymbolTableRecord
100
AcDbDimStyleTableRecord
  2
DIMSTYLE_5
 70
     0
 41
3.0
 47
0.001
 48
0.001
 73
     0
 74
     0
 77
     1
 78
     8
140
4.0
271
     3
272
     3
284
     8
340
11
341
34B1
342
34B1
343
34B1
344
34B1
  0
ENDTAB
  0
TABLE
  2
BLOCK_RECORD
  5
1
330
0
100
AcDbSymbolTable
 70
    13
  0
BLOCK_RECORD
  5
1F
102
{ACAD_XDICTIONARY
360
31EE
102
}
330
1
100
AcDbSymbolTableRecord
100
AcDbBlockTableRecord
  2
*Model_Space
340
22
  0
BLOCK_RECORD
  5
50
330
1
100
AcDbSymbolTableRecord
100
AcDbBlockTableRecord
  2
*Paper_Space
340
51
  0
BLOCK_RECORD
  5
55
330
1
100
AcDbSymbolTableRecord
100
AcDbBlockTableRecord
  2
*Paper_Space0
340
56
  0
BLOCK_RECORD
  5
680
102
{ACAD_XDICTIONARY
360
43668
102
}
330
1
100
AcDbSymbolTableRecord
100
AcDbBlockTableRecord
  2
zero block
340
0
102
{BLKREFS
331
68C
102
}
1001
ACAD
1000
DesignCenter Data
1002
{
1070
     1
1070
     4
1002
}
1001
AcDbDynamicBlockGUID
1000
{A89DF4EB-B2CB-439E-AC69-1EAC9F242D1C}
1001
AcDbBlockRepETag
1070
     1
1071
        7
  0
BLOCK_RECORD
  5
697
330
1
100
AcDbSymbolTableRecord
100
AcDbBlockTableRecord
  2
_OPEN30
340
0
  0
BLOCK_RECORD
  5
32F1
330
1
100
AcDbSymbolTableRecord
100
AcDbBlockTableRecord
  2
_None
340
0
  0
BLOCK_RECORD
  5
34B1
330
1
100
AcDbSymbolTableRecord
100
AcDbBlockTableRecord
  2
_OPEN
340
0
  0
BLOCK_RECORD
  5
5A185
330
1
100
AcDbSymbolTableRecord
100
AcDbBlockTableRecord
  2
*D5
340
0
  0
BLOCK_RECORD
  5
60D01
330
1
100
AcDbSymbolTableRecord
100
AcDbBlockTableRecord
  2
*D6
340
0
  0
BLOCK_RECORD
  5
60D0E
330
1
100
AcDbSymbolTableRecord
100
AcDbBlockTableRecord
  2
*D7
340
0
  0
BLOCK_RECORD
  5
60D18
330
1
100
AcDbSymbolTableRecord
100
AcDbBlockTableRecord
  2
*D8
340
0
  0
BLOCK_RECORD
  5
60D24
330
1
100
AcDbSymbolTableRecord
100
AcDbBlockTableRecord
  2
*D9
340
0
  0
BLOCK_RECORD
  5
60D30
330
1
100
AcDbSymbolTableRecord
100
AcDbBlockTableRecord
  2
*D10
340
0
  0
BLOCK_RECORD
  5
60D3C
330
1
100
AcDbSymbolTableRecord
100
AcDbBlockTableRecord
  2
*D11
340
0
  0
BLOCK_RECORD
  5
60D48
330
1
100
AcDbSymbolTableRecord
100
AcDbBlockTableRecord
  2
*D12
340
0
  0
ENDTAB
  0
ENDSEC
  0
SECTION
  2
BLOCKS
  0
BLOCK
  5
20
330
1F
100
AcDbEntity
  8
0
100
AcDbBlockBegin
  2
*Model_Space
 70
     0
 10
0.0
 20
0.0
 30
0.0
  3
*Model_Space
  1

  0
ENDBLK
  5
21
330
1F
100
AcDbEntity
  8
0
100
AcDbBlockEnd
  0
BLOCK
  5
52
330
50
100
AcDbEntity
 67
     1
  8
0
100
AcDbBlockBegin
  2
*Paper_Space
 70
     0
 10
0.0
 20
0.0
 30
0.0
  3
*Paper_Space
  1

  0
ENDBLK
  5
53
330
50
100
AcDbEntity
 67
     1
  8
0
100
AcDbBlockEnd
  0
BLOCK
  5
57
330
55
100
AcDbEntity
 67
     1
  8
0
100
AcDbBlockBegin
  2
*Paper_Space0
 70
     0
 10
0.0
 20
0.0
 30
0.0
  3
*Paper_Space0
  1

  0
VIEWPORT
  5
71
102
{ACAD_XDICTIONARY
360
60E0F
102
}
330
55
100
AcDbEntity
 67
     1
  8
0
100
AcDbViewport
 10
150.1652135264906
 20
101.599997546291
 30
0.0
 40
339.1973820494347
 41
164.5360435314421
 68
     0
 69
     0
 12
150.1652135264906
 22
101.599997546291
 13
0.0
 23
0.0
 14
10.0
 24
10.0
 15
10.0
 25
10.0
 16
0.0
 26
0.0
 36
1.0
 17
0.0
 27
0.0
 37
0.0
 42
50.0
 43
0.0
 44
0.0
 45
164.5360435314421
 50
0.0
 51
0.0
 72
  1000
 90
    32864
  1

281
     0
 71
     1
 74
     0
110
0.0
120
0.0
130
0.0
111
1.0
121
0.0
131
0.0
112
0.0
122
1.0
132
0.0
 79
     0
146
0.0
  0
VIEWPORT
  5
73
102
{ACAD_XDICTIONARY
360
60E11
102
}
330
55
100
AcDbEntity
 67
     1
  8
0
100
AcDbViewport
 10
133.3499939441681
 20
101.5999939441681
 30
0.0
 40
213.3599903106689
 41
162.5599903106689
 68
     0
 69
     0
 12
210.0
 22
148.5
 13
0.0
 23
0.0
 14
10.0
 24
10.0
 15
10.0
 25
10.0
 16
0.0
 26
0.0
 36
1.0
 17
0.0
 27
0.0
 37
0.0
 42
50.0
 43
0.0
 44
0.0
 45
324.0677920111345
 50
0.0
 51
0.0
 72
   100
 90
    32864
  1

281
     0
 71
     1
 74
     0
110
0.0
120
0.0
130
0.0
111
1.0
121
0.0
131
0.0
112
0.0
122
1.0
132
0.0
 79
     0
146
0.0
  0
ENDBLK
  5
58
330
55
100
AcDbEntity
 67
     1
  8
0
100
AcDbBlockEnd
  0
BLOCK
  5
68A
330
680
100
AcDbEntity
  8
0
100
AcDbBlockBegin
  2
zero block
 70
     0
 10
0.0
 20
0.0
 30
0.0
  3
zero block
  1

  0
HATCH
  5
43661
330
680
100
AcDbEntity
  8
0
 62
     7
100
AcDbHatch
 10
0.0
 20
0.0
 30
0.0
210
0.0
220
0.0
230
1.0
  2
SOLID
 70
     1
 71
     0
 91
        2
 92
        7
 72
     1
 73
     1
 93
        3
 10
0.0
 20
0.9999999999999875
 42
0.4142135623730915
 10
-1.0
 20
0.0
 42
0.0
 10
0.0
 20
0.0
 42
0.0
 97
        0
 92
        7
 72
     1
 73
     1
 93
        3
 10
1.000000000000007
 20
0.0
 42
0.0
 10
0.0
 20
0.0
 42
0.0
 10
0.0
 20
-1.0
 42
0.4142135623730974
 97
        0
 75
     0
 76
     1
 47
0.0090601366782909
 98
        2
 10
-0.380591363650975
 20
0.4885804701532896
 10
0.4350764810977559
 20
-0.4536738423704725
1001
AcDbBlockRepETag
1070
     1
1071
        0
1005
43661
  0
LINE
  5
43662
330
680
100
AcDbEntity
  8
0
 62
     7
 48
0.2
100
AcDbLine
 10
-1.0
 20
0.0
 30
0.0
 11
1.000000000000007
 21
0.0
 31
0.0
1001
AcDbBlockRepETag
1070
     1
1071
        1
1005
43662
  0
LINE
  5
43663
330
680
100
AcDbEntity
  8
0
 62
     7
 48
0.2
100
AcDbLine
 10
0.0
 20
-1.0
 30
0.0
 11
0.0
 21
0.9999999999999875
 31
0.0
1001
AcDbBlockRepETag
1070
     1
1071
        2
1005
43663
  0
ARC
  5
43664
330
680
100
AcDbEntity
  8
0
 62
     7
 48
0.2
100
AcDbCircle
 10
0.0
 20
0.0
 30
0.0
 40
1.0
100
AcDbArc
 50
270.0
 51
0.0
1001
AcDbBlockRepETag
1070
     1
1071
        3
1005
43664
  0
ARC
  5
43665
330
680
100
AcDbEntity
  8
0
 62
     7
 48
0.2
100
AcDbCircle
 10
0.0
 20
0.0
 30
0.0
 40
1.0
100
AcDbArc
 50
0.0
 51
90.0
1001
AcDbBlockRepETag
1070
     1
1071
        4
1005
43665
  0
ARC
  5
43666
330
680
100
AcDbEntity
  8
0
 62
     7
 48
0.2
100
AcDbCircle
 10
0.0
 20
0.0
 30
0.0
 40
1.0
100
AcDbArc
 50
180.0
 51
270.0
1001
AcDbBlockRepETag
1070
     1
1071
        5
1005
43666
  0
ARC
  5
43667
330
680
100
AcDbEntity
  8
0
 62
     7
 48
0.2
100
AcDbCircle
 10
0.0
 20
0.0
 30
0.0
 40
1.0
100
AcDbArc
 50
90.0
 51
180.0
1001
AcDbBlockRepETag
1070
     1
1071
        6
1005
43667
  0
ENDBLK
  5
68B
330
680
100
AcDbEntity
  8
0
100
AcDbBlockEnd
  0
BLOCK
  5
698
330
697
100
AcDbEntity
  8
0
  6
ByBlock
 62
     0
370
    -2
100
AcDbBlockBegin
  2
_OPEN30
 70
     2
 10
0.0
 20
0.0
 30
0.0
  3
_OPEN30
  1

  0
LINE
  5
699
330
697
100
AcDbEntity
  8
0
  6
ByBlock
 62
     0
370
    -2
100
AcDbLine
 10
-1.0
 20
0.267949
 30
0.0
 11
0.0
 21
0.0
 31
0.0
  0
LINE
  5
69A
330
697
100
AcDbEntity
  8
0
  6
ByBlock
 62
     0
370
    -2
100
AcDbLine
 10
0.0
 20
0.0
 30
0.0
 11
-1.0
 21
-0.267949
 31
0.0
  0
LINE
  5
69B
330
697
100
AcDbEntity
  8
0
  6
ByBlock
 62
     0
370
    -2
100
AcDbLine
 10
0.0
 20
0.0
 30
0.0
 11
-1.0
 21
0.0
 31
0.0
  0
ENDBLK
  5
69C
330
697
100
AcDbEntity
  8
0
  6
ByBlock
 62
     0
370
    -2
100
AcDbBlockEnd
  0
BLOCK
  5
32F2
330
32F1
100
AcDbEntity
  8
0
100
AcDbBlockBegin
  2
_None
 70
     0
 10
0.0
 20
0.0
 30
0.0
  3
_None
  1

  0
ENDBLK
  5
32F3
330
32F1
100
AcDbEntity
  8
0
100
AcDbBlockEnd
  0
BLOCK
  5
34B2
330
34B1
100
AcDbEntity
  8
0
100
AcDbBlockBegin
  2
_OPEN
 70
     0
 10
0.0
 20
0.0
 30
0.0
  3
_OPEN
  1

  0
LINE
  5
34B3
330
34B1
100
AcDbEntity
  8
0
  6
ByBlock
 62
     0
100
AcDbLine
 10
0.0
 20
0.0
 30
0.0
 11
-1.0
 21
0.1766666667
 31
0.0
  0
LINE
  5
34B4
330
34B1
100
AcDbEntity
  8
0
  6
ByBlock
 62
     0
100
AcDbLine
 10
-1.0
 20
-0.1766666667
 30
0.0
 11
0.0
 21
0.0
 31
0.0
  0
LINE
  5
34B5
330
34B1
100
AcDbEntity
  8
0
  6
ByBlock
 62
     0
100
AcDbLine
 10
-1.0
 20
0.0
 30
0.0
 11
0.0
 21
0.0
 31
0.0
  0
ENDBLK
  5
34B6
330
34B1
100
AcDbEntity
  8
0
  6
ByBlock
 62
     0
100
AcDbBlockEnd
  0
BLOCK
  5
5A18F
330
5A185
100
AcDbEntity
  8
0
100
AcDbBlockBegin
  2
*D5
 70
     1
 10
0.0
 20
0.0
 30
0.0
  3
*D5
  1

  0
LINE
  5
5A1E4
330
5A185
100
AcDbEntity
  8
sk2
100
AcDbLine
 10
0.0
 20
-10.72500100000004
 30
0.0
 11
-0.0000000000000021
 21
-44.39459184851272
 31
0.0
  0
LINE
  5
5A1E5
330
5A185
100
AcDbEntity
  8
sk2
100
AcDbLine
 10
19.0
 20
-9.200000000000015
 30
0.0
 11
19.0
 21
-44.39459184851272
 31
0.0
  0
LINE
  5
5A1E6
330
5A185
100
AcDbEntity
  8
sk2
100
AcDbLine
 10
3.499999999999998
 20
-42.89459184851271
 30
0.0
 11
15.5
 21
-42.89459184851271
 31
0.0
  0
LINE
  5
5A1E7
330
5A185
100
AcDbEntity
  8
sk2
100
AcDbLine
 10
19.0
 20
-42.89459184851271
 30
0.0
 11
53.93333333333334
 21
-42.89459184851271
 31
0.0
  0
SOLID
  5
5A1E8
330
5A185
100
AcDbEntity
  8
sk2
100
AcDbTrace
 10
3.499999999999998
 20
-42.31125851517938
 30
0.0
 11
3.499999999999998
 21
-43.47792518184604
 31
0.0
 12
-0.000000000000002
 22
-42.89459184851271
 32
0.0
 13
-0.000000000000002
 23
-42.89459184851271
 33
0.0
  0
SOLID
  5
5A1E9
330
5A185
100
AcDbEntity
  8
sk2
100
AcDbTrace
 10
15.5
 20
-42.31125851517938
 30
0.0
 11
15.5
 21
-43.47792518184604
 31
0.0
 12
19.0
 22
-42.89459184851271
 32
0.0
 13
19.0
 23
-42.89459184851271
 33
0.0
  0
MTEXT
  5
5A1EA
330
5A185
100
AcDbEntity
  8
sk2
100
AcDbMText
 10
38.21666666666667
 20
-38.84459184851272
 30
0.0
 40
3.5
 41
0.0
 71
     5
 72
     1
  1
\A1;19 [.748"]
  7
simplex
 73
     1
 44
1.0
1001
ACAD
1000
MTEXTBEGIN
1070
    73
1070
     1
1070
    44
1040
1.0
1070
    74
1070
     0
1000
MTEXTEND
  0
POINT
  5
5A1EB
330
5A185
100
AcDbEntity
  8
Defpoints
 62
     0
100
AcDbPoint
 10
0.0
 20
-10.72500100000004
 30
0.0
  0
POINT
  5
5A1EC
330
5A185
100
AcDbEntity
  8
Defpoints
 62
     0
100
AcDbPoint
 10
19.0
 20
-9.200000000000015
 30
0.0
  0
POINT
  5
5A1ED
330
5A185
100
AcDbEntity
  8
Defpoints
 62
     0
100
AcDbPoint
 10
19.0
 20
-42.89459184851271
 30
0.0
  0
ENDBLK
  5
5A190
330
5A185
100
AcDbEntity
  8
0
100
AcDbBlockEnd
  0
BLOCK
  5
60D0C
330
60D01
100
AcDbEntity
  8
0
100
AcDbBlockBegin
  2
*D6
 70
     1
 10
0.0
 20
0.0
 30
0.0
  3
*D6
  1

  0
LINE
  5
60DFA
330
60D01
100
AcDbEntity
  8
2
100
AcDbLine
 10
50.79999999999998
 20
17.63069966983807
 30
0.0
 11
50.79999999999998
 21
42.24430005476597
 31
0.0
  0
LINE
  5
60DFB
330
60D01
100
AcDbEntity
  8
2
100
AcDbLine
 10
35.30000000000001
 20
19.09581406856667
 30
0.0
 11
35.30000000000001
 21
42.24430005476597
 31
0.0
  0
LINE
  5
60DFC
330
60D01
100
AcDbEntity
  8
2
100
AcDbLine
 10
47.29999999999998
 20
40.74430005476597
 30
0.0
 11
38.80000000000001
 21
40.74430005476597
 31
0.0
  0
LINE
  5
60DFD
330
60D01
100
AcDbEntity
  8
2
100
AcDbLine
 10
35.30000000000001
 20
40.74430005476597
 30
0.0
 11
-17.71666666666666
 21
40.74430005476597
 31
0.0
  0
SOLID
  5
60DFE
330
60D01
100
AcDbEntity
  8
2
100
AcDbTrace
 10
47.29999999999998
 20
41.3276333880993
 30
0.0
 11
47.29999999999998
 21
40.16096672143263
 31
0.0
 12
50.79999999999998
 22
40.74430005476597
 32
0.0
 13
50.79999999999998
 23
40.74430005476597
 33
0.0
  0
SOLID
  5
60DFF
330
60D01
100
AcDbEntity
  8
2
100
AcDbTrace
 10
38.80000000000001
 20
41.3276333880993
 30
0.0
 11
38.80000000000001
 21
40.16096672143263
 31
0.0
 12
35.30000000000001
 22
40.74430005476597
 32
0.0
 13
35.30000000000001
 23
40.74430005476597
 33
0.0
  0
MTEXT
  5
60E00
330
60D01
100
AcDbEntity
  8
2
100
AcDbMText
 10
7.041666666666674
 20
44.79430005476596
 30
0.0
 40
3.5
 41
0.0
 71
     5
 72
     1
  1
\A1;15.5 [.610"](MAX)
  7
simplex
 73
     1
 44
1.0
1001
ACAD
1000
MTEXTBEGIN
1070
    73
1070
     1
1070
    44
1040
1.0
1070
    74
1070
     0
1000
MTEXTEND
  0
POINT
  5
60E01
330
60D01
100
AcDbEntity
  8
Defpoints
 62
     0
100
AcDbPoint
 10
50.79999999999998
 20
17.63069966983807
 30
0.0
  0
POINT
  5
60E02
330
60D01
100
AcDbEntity
  8
Defpoints
 62
     0
100
AcDbPoint
 10
35.30000000000001
 20
19.09581406856667
 30
0.0
  0
POINT
  5
60E03
330
60D01
100
AcDbEntity
  8
Defpoints
 62
     0
100
AcDbPoint
 10
35.30000000000001
 20
40.74430005476597
 30
0.0
  0
ENDBLK
  5
60D0D
330
60D01
100
AcDbEntity
  8
0
100
AcDbBlockEnd
  0
BLOCK
  5
60D16
330
60D0E
100
AcDbEntity
  8
0
100
AcDbBlockBegin
  2
*D7
 70
     1
 10
0.0
 20
0.0
 30
0.0
  3
*D7
  1

  0
LINE
  5
60DA5
330
60D0E
100
AcDbEntity
  8
2
100
AcDbLine
 10
50.79999999999995
 20
19.05000000000002
 30
0.0
 11
67.91907579393174
 21
19.05000000000002
 31
0.0
  0
LINE
  5
60DA6
330
60D0E
100
AcDbEntity
  8
2
100
AcDbLine
 10
66.41907579393174
 20
15.55000000000002
 30
0.0
 11
66.41907579393174
 21
-19.04999999999998
 31
0.0
  0
SOLID
  5
60DA7
330
60D0E
100
AcDbEntity
  8
2
100
AcDbTrace
 10
65.83574246059839
 20
15.55000000000002
 30
0.0
 11
67.00240912726506
 21
15.55000000000002
 31
0.0
 12
66.41907579393174
 22
19.05000000000002
 32
0.0
 13
66.41907579393174
 23
19.05000000000002
 33
0.0
  0
MTEXT
  5
60DA8
330
60D0E
100
AcDbEntity
  8
2
100
AcDbMText
 10
60.61907579393174
 20
-1.749999999999968
 30
0.0
 40
3.5
 41
0.0
 71
     2
 72
     1
  1
\A1;%%c38.1 [%%c1.500"]
  7
simplex
 11
0.0000000000000001
 21
1.0
 31
0.0
 73
     1
 44
1.0
1001
ACAD
1000
MTEXTBEGIN
1070
    73
1070
     1
1070
    44
1040
1.0
1070
    74
1070
     0
1000
MTEXTEND
  0
POINT
  5
60DA9
330
60D0E
100
AcDbEntity
  8
Defpoints
 62
     0
100
AcDbPoint
 10
50.79999999999995
 20
19.05000000000002
 30
0.0
  0
POINT
  5
60DAA
330
60D0E
100
AcDbEntity
  8
Defpoints
 62
     0
100
AcDbPoint
 10
50.79999999999995
 20
-19.04999999999997
 30
0.0
  0
POINT
  5
60DAB
330
60D0E
100
AcDbEntity
  8
Defpoints
 62
     0
100
AcDbPoint
 10
66.41907579393174
 20
-19.04999999999998
 30
0.0
  0
ENDBLK
  5
60D17
330
60D0E
100
AcDbEntity
  8
0
100
AcDbBlockEnd
  0
BLOCK
  5
60D22
330
60D18
100
AcDbEntity
  8
0
100
AcDbBlockBegin
  2
*D8
 70
     1
 10
0.0
 20
0.0
 30
0.0
  3
*D8
  1

  0
LINE
  5
60DAC
330
60D18
100
AcDbEntity
  8
sk2
100
AcDbLine
 10
1.499999999999971
 20
18.29000000000003
 30
0.0
 11
-29.66910523080003
 21
18.29000000000004
 31
0.0
  0
LINE
  5
60DAD
330
60D18
100
AcDbEntity
  8
sk2
100
AcDbLine
 10
1.499999999999971
 20
-18.28999999999997
 30
0.0
 11
-29.66910523080003
 21
-18.28999999999996
 31
0.0
  0
LINE
  5
60DAE
330
60D18
100
AcDbEntity
  8
sk2
100
AcDbLine
 10
-28.16910523080002
 20
14.79000000000004
 30
0.0
 11
-28.16910523080003
 21
-14.78999999999996
 31
0.0
  0
SOLID
  5
60DAF
330
60D18
100
AcDbEntity
  8
sk2
100
AcDbTrace
 10
-28.75243856413336
 20
14.79000000000004
 30
0.0
 11
-27.58577189746669
 21
14.79000000000003
 31
0.0
 12
-28.16910523080002
 22
18.29000000000004
 32
0.0
 13
-28.16910523080002
 23
18.29000000000004
 33
0.0
  0
SOLID
  5
60DB0
330
60D18
100
AcDbEntity
  8
sk2
100
AcDbTrace
 10
-28.75243856413336
 20
-14.78999999999996
 30
0.0
 11
-27.5857718974667
 21
-14.78999999999996
 31
0.0
 12
-28.16910523080003
 22
-18.28999999999996
 32
0.0
 13
-28.16910523080003
 23
-18.28999999999996
 33
0.0
  0
MTEXT
  5
60DB1
330
60D18
100
AcDbEntity
  8
sk2
100
AcDbMText
 10
-33.96910523080002
 20
0.0000000000000342
 30
0.0
 40
3.5
 41
0.0
 71
     2
 72
     1
  1
\A1;%%c36.58 [%%c1.440"]
  7
simplex
 11
0.0000000000000001
 21
1.0
 31
0.0
 73
     1
 44
1.0
1001
ACAD
1000
MTEXTBEGIN
1070
    73
1070
     1
1070
    44
1040
1.0
1070
    74
1070
     0
1000
MTEXTEND
  0
POINT
  5
60DB2
330
60D18
100
AcDbEntity
  8
Defpoints
 62
     0
100
AcDbPoint
 10
1.499999999999971
 20
18.29000000000003
 30
0.0
  0
POINT
  5
60DB3
330
60D18
100
AcDbEntity
  8
Defpoints
 62
     0
100
AcDbPoint
 10
1.499999999999971
 20
-18.28999999999997
 30
0.0
  0
POINT
  5
60DB4
330
60D18
100
AcDbEntity
  8
Defpoints
 62
     0
100
AcDbPoint
 10
-28.16910523080003
 20
-18.28999999999996
 30
0.0
  0
ENDBLK
  5
60D23
330
60D18
100
AcDbEntity
  8
0
100
AcDbBlockEnd
  0
BLOCK
  5
60D2E
330
60D24
100
AcDbEntity
  8
0
100
AcDbBlockBegin
  2
*D9
 70
     1
 10
0.0
 20
0.0
 30
0.0
  3
*D9
  1

  0
LINE
  5
60DB5
330
60D24
100
AcDbEntity
  8
sk2
100
AcDbLine
 10
0.9999999999999715
 20
6.349999999999994
 30
0.0
 11
-17.49671078560521
 21
6.349999999999997
 31
0.0
  0
LINE
  5
60DB6
330
60D24
100
AcDbEntity
  8
sk2
100
AcDbLine
 10
0.9999999999999715
 20
-6.349999999999994
 30
0.0
 11
-17.49671078560522
 21
-6.349999999999988
 31
0.0
  0
LINE
  5
60DB7
330
60D24
100
AcDbEntity
  8
sk2
100
AcDbLine
 10
-15.99671078560521
 20
2.849999999999998
 30
0.0
 11
-15.99671078560521
 21
-2.849999999999988
 31
0.0
  0
LINE
  5
60DB8
330
60D24
100
AcDbEntity
  8
sk2
100
AcDbLine
 10
-15.99671078560521
 20
-6.349999999999988
 30
0.0
 11
-15.99671078560523
 21
-59.8325767554957
 31
0.0
  0
SOLID
  5
60DB9
330
60D24
100
AcDbEntity
  8
sk2
100
AcDbTrace
 10
-16.58004411893855
 20
2.849999999999998
 30
0.0
 11
-15.41337745227188
 21
2.849999999999998
 31
0.0
 12
-15.99671078560521
 22
6.349999999999997
 32
0.0
 13
-15.99671078560521
 23
6.349999999999997
 33
0.0
  0
SOLID
  5
60DBA
330
60D24
100
AcDbEntity
  8
sk2
100
AcDbTrace
 10
-16.58004411893855
 20
-2.849999999999988
 30
0.0
 11
-15.41337745227188
 21
-2.849999999999988
 31
0.0
 12
-15.99671078560521
 22
-6.349999999999988
 32
0.0
 13
-15.99671078560521
 23
-6.349999999999988
 33
0.0
  0
MTEXT
  5
60DBB
330
60D24
100
AcDbEntity
  8
sk2
100
AcDbMText
 10
-21.79671078560522
 20
-38.86591008882902
 30
0.0
 40
3.5
 41
0.0
 71
     2
 72
     1
  1
\A1;%%c12.7 [%%c.500"]
  7
simplex
 11
0.0000000000000001
 21
1.0
 31
0.0
 73
     1
 44
1.0
1001
ACAD
1000
MTEXTBEGIN
1070
    73
1070
     1
1070
    44
1040
1.0
1070
    74
1070
     0
1000
MTEXTEND
  0
POINT
  5
60DBC
330
60D24
100
AcDbEntity
  8
Defpoints
 62
     0
100
AcDbPoint
 10
0.9999999999999715
 20
6.349999999999994
 30
0.0
  0
POINT
  5
60DBD
330
60D24
100
AcDbEntity
  8
Defpoints
 62
     0
100
AcDbPoint
 10
0.9999999999999715
 20
-6.349999999999994
 30
0.0
  0
POINT
  5
60DBE
330
60D24
100
AcDbEntity
  8
Defpoints
 62
     0
100
AcDbPoint
 10
-15.99671078560521
 20
-6.349999999999988
 30
0.0
  0
ENDBLK
  5
60D2F
330
60D24
100
AcDbEntity
  8
0
100
AcDbBlockEnd
  0
BLOCK
  5
60D3A
330
60D30
100
AcDbEntity
  8
0
100
AcDbBlockBegin
  2
*D10
 70
     1
 10
0.0
 20
0.0
 30
0.0
  3
*D10
  1

  0
LINE
  5
60DBF
330
60D30
100
AcDbEntity
  8
2
100
AcDbLine
 10
50.79999999999995
 20
17.77532181877816
 30
0.0
 11
50.79999999999995
 21
54.71652794260004
 31
0.0
  0
LINE
  5
60DC0
330
60D30
100
AcDbEntity
  8
2
100
AcDbLine
 10
-0.0000000000000284
 20
16.78999637149999
 30
0.0
 11
-0.0000000000000261
 21
54.71652794260004
 31
0.0
  0
LINE
  5
60DC1
330
60D30
100
AcDbEntity
  8
2
100
AcDbLine
 10
47.29999999999995
 20
53.21652794260003
 30
0.0
 11
3.499999999999973
 21
53.21652794260003
 31
0.0
  0
SOLID
  5
60DC2
330
60D30
100
AcDbEntity
  8
2
100
AcDbTrace
 10
47.29999999999995
 20
53.79986127593337
 30
0.0
 11
47.29999999999995
 21
52.6331946092667
 31
0.0
 12
50.79999999999995
 22
53.21652794260003
 32
0.0
 13
50.79999999999995
 23
53.21652794260003
 33
0.0
  0
SOLID
  5
60DC3
330
60D30
100
AcDbEntity
  8
2
100
AcDbTrace
 10
3.499999999999973
 20
53.79986127593337
 30
0.0
 11
3.499999999999973
 21
52.6331946092667
 31
0.0
 12
-0.0000000000000262
 22
53.21652794260003
 32
0.0
 13
-0.0000000000000262
 23
53.21652794260003
 33
0.0
  0
MTEXT
  5
60DC4
330
60D30
100
AcDbEntity
  8
2
100
AcDbMText
 10
25.39999999999998
 20
59.01652794260002
 30
0.0
 40
3.5
 41
0.0
 71
     2
 72
     1
  1
\A1;50.8 [2.000"]
  7
simplex
 73
     1
 44
1.0
1001
ACAD
1000
MTEXTBEGIN
1070
    73
1070
     1
1070
    44
1040
1.0
1070
    74
1070
     0
1000
MTEXTEND
  0
POINT
  5
60DC5
330
60D30
100
AcDbEntity
  8
Defpoints
 62
     0
100
AcDbPoint
 10
50.79999999999995
 20
17.77532181877816
 30
0.0
  0
POINT
  5
60DC6
330
60D30
100
AcDbEntity
  8
Defpoints
 62
     0
100
AcDbPoint
 10
-0.0000000000000284
 20
16.78999637149999
 30
0.0
  0
POINT
  5
60DC7
330
60D30
100
AcDbEntity
  8
Defpoints
 62
     0
100
AcDbPoint
 10
-0.0000000000000262
 20
53.21652794260003
 30
0.0
  0
ENDBLK
  5
60D3B
330
60D30
100
AcDbEntity
  8
0
100
AcDbBlockEnd
  0
BLOCK
  5
60D46
330
60D3C
100
AcDbEntity
  8
0
100
AcDbBlockBegin
  2
*D11
 70
     1
 10
0.0
 20
0.0
 30
0.0
  3
*D11
  1

  0
LINE
  5
60DC8
330
60D3C
100
AcDbEntity
  8
sk2
100
AcDbLine
 10
-0.0000000000000284
 20
-7.349999557800027
 30
0.0
 11
-0.0000000000000305
 21
-40.65569447776414
 31
0.0
  0
LINE
  5
60DC9
330
60D3C
100
AcDbEntity
  8
sk2
100
AcDbLine
 10
15.99999999999997
 20
-6.049999999999982
 30
0.0
 11
15.99999999999997
 21
-40.65569447776414
 31
0.0
  0
LINE
  5
60DCA
330
60D3C
100
AcDbEntity
  8
sk2
100
AcDbLine
 10
3.499999999999968
 20
-39.15569447776415
 30
0.0
 11
12.49999999999997
 21
-39.15569447776415
 31
0.0
  0
LINE
  5
60DCB
330
60D3C
100
AcDbEntity
  8
sk2
100
AcDbLine
 10
15.99999999999997
 20
-39.15569447776415
 30
0.0
 11
50.34999999999998
 21
-39.15569447776415
 31
0.0
  0
SOLID
  5
60DCC
330
60D3C
100
AcDbEntity
  8
sk2
100
AcDbTrace
 10
3.499999999999968
 20
-38.57236114443082
 30
0.0
 11
3.499999999999968
 21
-39.73902781109748
 31
0.0
 12
-0.0000000000000304
 22
-39.15569447776415
 32
0.0
 13
-0.0000000000000304
 23
-39.15569447776415
 33
0.0
  0
SOLID
  5
60DCD
330
60D3C
100
AcDbEntity
  8
sk2
100
AcDbTrace
 10
12.49999999999997
 20
-38.57236114443082
 30
0.0
 11
12.49999999999997
 21
-39.73902781109748
 31
0.0
 12
15.99999999999997
 22
-39.15569447776415
 32
0.0
 13
15.99999999999997
 23
-39.15569447776415
 33
0.0
  0
MTEXT
  5
60DCE
330
60D3C
100
AcDbEntity
  8
sk2
100
AcDbMText
 10
34.92499999999998
 20
-33.35569447776415
 30
0.0
 40
3.5
 41
0.0
 71
     2
 72
     1
  1
\A1;16 [.630"]
  7
simplex
 73
     1
 44
1.0
1001
ACAD
1000
MTEXTBEGIN
1070
    73
1070
     1
1070
    44
1040
1.0
1070
    74
1070
     0
1000
MTEXTEND
  0
POINT
  5
60DCF
330
60D3C
100
AcDbEntity
  8
Defpoints
 62
     0
100
AcDbPoint
 10
-0.0000000000000284
 20
-7.349999557800027
 30
0.0
  0
POINT
  5
60DD0
330
60D3C
100
AcDbEntity
  8
Defpoints
 62
     0
100
AcDbPoint
 10
15.99999999999997
 20
-6.049999999999982
 30
0.0
  0
POINT
  5
60DD1
330
60D3C
100
AcDbEntity
  8
Defpoints
 62
     0
100
AcDbPoint
 10
15.99999999999997
 20
-39.15569447776415
 30
0.0
  0
ENDBLK
  5
60D47
330
60D3C
100
AcDbEntity
  8
0
100
AcDbBlockEnd
  0
BLOCK
  5
60D50
330
60D48
100
AcDbEntity
  8
0
100
AcDbBlockBegin
  2
*D12
 70
     1
 10
0.0
 20
0.0
 30
0.0
  3
*D12
  1

  0
LINE
  5
60DD9
330
60D48
100
AcDbEntity
  8
2
100
AcDbLine
 10
82.68192905509108
 20
50.8103036878866
 30
0.0
 11
53.14689869050591
 21
21.04309982512052
 31
0.0
  0
MTEXT
  5
60DDA
330
60D48
100
AcDbEntity
  8
2
100
AcDbMText
 10
66.27202422638724
 20
40.02152241794417
 30
0.0
 40
3.5
 41
0.0
 71
     5
 72
     1
  1
\A1;R0.4 [R.016"]
  7
simplex
 11
0.7043329975656248
 21
0.7098697264570604
 31
0.0
 73
     1
 44
1.0
1001
ACAD
1000
MTEXTBEGIN
1070
    73
1070
     1
1070
    44
1040
1.0
1070
    74
1070
     0
1000
MTEXTEND
  0
SOLID
  5
60DDB
330
60D48
100
AcDbEntity
  8
2
100
AcDbTrace
 10
52.73280801673928
 20
21.45396074036714
 30
0.0
 11
53.56098936427251
 21
20.63223890987391
 31
0.0
 12
50.68173319902621
 22
18.55855578252081
 32
0.0
 13
50.68173319902621
 23
18.55855578252081
 33
0.0
  0
LINE
  5
60DDC
330
60D48
100
AcDbEntity
  8
2
100
AcDbLine
 10
50.30999999999997
 20
18.274607891938
 30
0.0
 11
50.48999999999997
 21
18.274607891938
 31
0.0
  0
LINE
  5
60DDD
330
60D48
100
AcDbEntity
  8
2
100
AcDbLine
 10
50.39999999999999
 20
18.18460789193801
 30
0.0
 11
50.39999999999997
 21
18.364607891938
 31
0.0
  0
POINT
  5
60DDE
330
60D48
100
AcDbEntity
  8
Defpoints
 62
     0
100
AcDbPoint
 10
50.68173319902621
 20
18.55855578252081
 30
0.0
  0
POINT
  5
60DDF
330
60D48
100
AcDbEntity
  8
Defpoints
 62
     0
100
AcDbPoint
 10
50.39999999999999
 20
18.27460789193801
 30
0.0
  0
ENDBLK
  5
60D51
330
60D48
100
AcDbEntity
  8
0
100
AcDbBlockEnd
  0
ENDSEC
  0
SECTION
  2
ENTITIES
  0
INSERT
  5
68C
330
1F
100
AcDbEntity
  8
0
100
AcDbBlockReference
  2
zero block
 10
0.0000000000000072
 20
0.0
 30
0.0
 50
180.0
  0
DIMENSION
  5
60B33
330
1F
100
AcDbEntity
  8
2
100
AcDbDimension
  2
*D6
 10
35.30000000000001
 20
40.74430005476597
 30
0.0
 11
7.041666666666674
 21
40.74430005476597
 31
0.0
 70
   160
  1
<>(MAX)
 71
     5
 42
15.49999999999997
  3
\M+18352\M+18373\M+1815B - ISO-25
100
AcDbAlignedDimension
 13
50.79999999999998
 23
17.63069966983807
 33
0.0
 14
35.30000000000001
 24
19.09581406856667
 34
0.0
 50
180.0
100
AcDbRotatedDimension
1001
ACAD
1000
DSTYLE
1002
{
1070
     4
1000
"
1070
    40
1040
1.0
1070
   143
1040
0.03937
1070
   170
1070
     1
1070
   171
1070
     3
1070
   271
1070
     8
1070
   285
1070
     4
1002
}
  0
MTEXT
  5
60B34
330
1F
100
AcDbEntity
  8
sk6
100
AcDbMText
 10
-7.590267124731497
 20
75.01944195733499
 30
0.0
 40
5.0
 41
70.03712541027798
 71
     1
 72
     5
  1
AXD4000UR1503A
  7
simplex
 73
     1
 44
1.0
1001
ACAD
1000
ACAD_MTEXT_DEFINED_HEIGHT_BEGIN
1070
    46
1040
0.0
1000
ACAD_MTEXT_DEFINED_HEIGHT_END
1000
MTEXTBEGIN
1070
    73
1070
     1
1070
    44
1040
1.0
1070
    74
1070
     0
1000
MTEXTEND
  0
DIMENSION
  5
60B35
330
1F
100
AcDbEntity
  8
2
100
AcDbDimension
  2
*D7
 10
66.41907579393174
 20
-19.04999999999998
 30
0.0
 11
66.41907579393174
 21
-1.749999999999968
 31
0.0
 70
   160
  1
%%c<>
 71
     2
 42
38.1
  3
\M+18352\M+18373\M+1815B - ISO-25
100
AcDbAlignedDimension
 13
50.79999999999995
 23
19.05000000000002
 33
0.0
 14
50.79999999999995
 24
-19.04999999999997
 34
0.0
 50
270.0
100
AcDbRotatedDimension
1001
ACAD
1000
DSTYLE
1002
{
1070
     4
1000
%%c[]"
1070
    40
1040
1.0
1070
    76
1070
     1
1070
   143
1040
0.03937
1070
   170
1070
     1
1070
   171
1070
     3
1070
   173
1070
     1
1070
   271
1070
     8
1070
   285
1070
     4
1070
   344
1005
32F1
1002
}
  0
DIMENSION
  5
60B36
330
1F
100
AcDbEntity
  8
sk2
100
AcDbDimension
  2
*D8
 10
-28.16910523080003
 20
-18.28999999999996
 30
0.0
 11
-28.16910523080003
 21
0.0000000000000337
 31
0.0
 70
   160
  1
%%c<>
 71
     2
 42
36.58
  3
\M+18352\M+18373\M+1815B - ISO-25
100
AcDbAlignedDimension
 13
1.499999999999971
 23
18.29000000000003
 33
0.0
 14
1.499999999999971
 24
-18.28999999999997
 34
0.0
 50
270.0
100
AcDbRotatedDimension
1001
ACAD
1000
DSTYLE
1002
{
1070
     4
1000
%%c[]"
1070
    40
1040
1.0
1070
   143
1040
0.03937
1070
   170
1070
     1
1070
   171
1070
     3
1070
   271
1070
     8
1070
   285
1070
     4
1002
}
  0
DIMENSION
  5
60B37
330
1F
100
AcDbEntity
  8
sk2
100
AcDbDimension
  2
*D9
 10
-15.99671078560521
 20
-6.349999999999988
 30
0.0
 11
-15.99671078560521
 21
-38.86591008882902
 31
0.0
 70
   160
  1
%%c<>
 71
     2
 42
12.69999999999999
  3
\M+18352\M+18373\M+1815B - ISO-25
100
AcDbAlignedDimension
 13
0.9999999999999715
 23
6.349999999999994
 33
0.0
 14
0.9999999999999715
 24
-6.349999999999994
 34
0.0
 50
270.0
100
AcDbRotatedDimension
1001
ACAD
1000
DSTYLE
1002
{
1070
     4
1000
%%c[]"
1070
    40
1040
1.0
1070
   143
1040
0.03937
1070
   170
1070
     1
1070
   171
1070
     3
1070
   271
1070
     8
1070
   285
1070
     4
1002
}
  0
DIMENSION
  5
60B38
330
1F
100
AcDbEntity
  8
2
100
AcDbDimension
  2
*D10
 10
-0.0000000000000262
 20
53.21652794260003
 30
0.0
 11
25.39999999999998
 21
53.21652794260003
 31
0.0
 70
   160
 71
     2
 42
50.79999999999998
  3
\M+18352\M+18373\M+1815B - ISO-25
100
AcDbAlignedDimension
 13
50.79999999999995
 23
17.77532181877816
 33
0.0
 14
-0.0000000000000284
 24
16.78999637149999
 34
0.0
 50
180.0
100
AcDbRotatedDimension
1001
ACAD
1000
DSTYLE
1002
{
1070
     4
1000
"
1070
    40
1040
1.0
1070
   143
1040
0.03937
1070
   170
1070
     1
1070
   171
1070
     3
1070
   271
1070
     8
1070
   285
1070
     4
1002
}
  0
DIMENSION
  5
60B39
330
1F
100
AcDbEntity
  8
sk2
100
AcDbDimension
  2
*D11
 10
15.99999999999997
 20
-39.15569447776415
 30
0.0
 11
34.92499999999998
 21
-39.15569447776415
 31
0.0
 70
   160
 71
     2
 42
16.0
  3
\M+18352\M+18373\M+1815B - ISO-25
100
AcDbAlignedDimension
 13
-0.0000000000000284
 23
-7.349999557800027
 33
0.0
 14
15.99999999999997
 24
-6.049999999999982
 34
0.0
100
AcDbRotatedDimension
1001
ACAD
1000
DSTYLE
1002
{
1070
     4
1000
"
1070
    40
1040
1.0
1070
   143
1040
0.03937
1070
   170
1070
     1
1070
   171
1070
     3
1070
   271
1070
     8
1070
   285
1070
     4
1002
}
  0
LINE
  5
60B3A
330
1F
100
AcDbEntity
  8
1
100
AcDbLine
 10
50.23236931539997
 20
-8.304084749699971
 30
0.0
 11
50.12061087429998
 21
-8.704430205899985
 31
0.0
  0
LINE
  5
60B3B
330
1F
100
AcDbEntity
  8
1
100
AcDbLine
 10
1.499999999999971
 20
-18.28999999999997
 30
0.0
 11
13.99999999999997
 21
-18.28999999999997
 31
0.0
  0
LINE
  5
60B3C
330
1F
100
AcDbEntity
  8
1
100
AcDbLine
 10
27.85500195039998
 20
-17.96469307059996
 30
0.0
 11
35.01136955249997
 21
-17.96469305199998
 31
0.0
  0
LINE
  5
60B3D
330
1F
100
AcDbEntity
  8
1
100
AcDbLine
 10
22.03141199069998
 20
-17.55557572529998
 30
0.0
 11
21.93553423909998
 21
-17.53851582739997
 31
0.0
  0
LINE
  5
60B3E
330
1F
100
AcDbEntity
  8
1
100
AcDbLine
 10
-0.0000000000000284
 20
3.675000000000025
 30
0.0
 11
0.4999999999999716
 21
3.175000000000025
 31
0.0
  0
LINE
  5
60B3F
330
1F
100
AcDbEntity
  8
1
100
AcDbLine
 10
50.79999999999995
 20
-4.964360840899971
 30
0.0
 11
50.79999999999995
 21
-5.822889020399968
 31
0.0
  0
LINE
  5
60B40
330
1F
100
AcDbEntity
  8
1
100
AcDbLine
 10
50.79999999999995
 20
-11.59293732329997
 30
0.0
 11
50.79999999999995
 21
-12.45146550289996
 31
0.0
  0
LINE
  5
60B41
330
1F
100
AcDbEntity
  8
1
100
AcDbLine
 10
50.79999999999995
 20
16.55729816410002
 30
0.0
 11
50.79999999999995
 21
18.274607891938
 31
0.0
  0
LINE
  5
60B42
330
1F
100
AcDbEntity
  8
1
100
AcDbLine
 10
50.79999999999995
 20
-4.964360840899971
 30
0.0
 11
50.05888407489998
 21
-8.444241345299987
 31
0.0
  0
LINE
  5
60B43
330
1F
100
AcDbEntity
  8
1
100
AcDbLine
 10
50.25953012649996
 20
-8.197205642499984
 30
0.0
 11
50.79720690179996
 21
-5.846942778299974
 31
0.0
  0
LINE
  5
60B44
330
1F
100
AcDbEntity
  8
1
100
AcDbLine
 10
50.23236931539997
 20
-9.874714827799977
 30
0.0
 11
49.78472654169998
 21
-7.489499615999974
 31
0.0
  0
LINE
  5
60B45
330
1F
100
AcDbEntity
  8
1
100
AcDbLine
 10
49.78472654169998
 20
-7.489499615999974
 30
0.0
 11
49.78472654169998
 21
-7.313388620299992
 31
0.0
  0
LINE
  5
60B46
330
1F
100
AcDbEntity
  8
1
100
AcDbLine
 10
48.69758484899998
 20
12.95360871130001
 30
0.0
 11
48.69758484899998
 21
12.93701828860003
 31
0.0
  0
LINE
  5
60B47
330
1F
100
AcDbEntity
  8
1
100
AcDbLine
 10
48.69758484899998
 20
0.5392911802000242
 30
0.0
 11
48.69758484899998
 21
-4.026054902899971
 31
0.0
  0
LINE
  5
60B48
330
1F
100
AcDbEntity
  8
1
100
AcDbLine
 10
48.69758484899998
 20
-4.026054902899971
 30
0.0
 11
48.69758484899998
 21
-6.530742014599964
 31
0.0
  0
LINE
  5
60B49
330
1F
100
AcDbEntity
  8
1
100
AcDbLine
 10
48.69758484899998
 20
-12.32647288629996
 30
0.0
 11
48.69758484899998
 21
-13.71550906459997
 31
0.0
  0
LINE
  5
60B4A
330
1F
100
AcDbEntity
  8
1
100
AcDbLine
 10
48.67747469580002
 20
-6.571742721599973
 30
0.0
 11
48.67747469580002
 21
-0.0449653692999732
 31
0.0
  0
LINE
  5
60B4B
330
1F
100
AcDbEntity
  8
1
100
AcDbLine
 10
48.67034173439997
 20
-13.47718124669998
 30
0.0
 11
48.67034173439997
 21
-12.32200305189998
 31
0.0
  0
LINE
  5
60B4C
330
1F
100
AcDbEntity
  8
1
100
AcDbLine
 10
48.67034173439997
 20
12.74769488470001
 30
0.0
 11
48.67034173439997
 21
12.9104214315
 31
0.0
  0
LINE
  5
60B4D
330
1F
100
AcDbEntity
  8
1
100
AcDbLine
 10
48.00798438159995
 20
1.086130298400014
 30
0.0
 11
48.00798438159995
 21
-7.166963804799979
 31
0.0
  0
LINE
  5
60B4E
330
1F
100
AcDbEntity
  8
1
100
AcDbLine
 10
47.83815074519997
 20
-7.198792407899961
 30
0.0
 11
47.83815074519997
 21
1.679104920400027
 31
0.0
  0
LINE
  5
60B4F
330
1F
100
AcDbEntity
  8
1
100
AcDbLine
 10
50.79397015129997
 20
-11.54275302109998
 30
0.0
 11
50.1206108742819
 21
-8.704430205964719
 31
0.0
  0
LINE
  5
60B50
330
1F
100
AcDbEntity
  8
1
100
AcDbLine
 10
50.1206108742819
 20
-8.704430205964719
 30
0.0
 11
49.77869853909997
 21
-7.263212100199981
 31
0.0
  0
LINE
  5
60B51
330
1F
100
AcDbEntity
  8
1
100
AcDbLine
 10
50.23236931539997
 20
-9.874714827799977
 30
0.0
 11
50.79999999999995
 21
-12.45146550289996
 31
0.0
  0
LINE
  5
60B52
330
1F
100
AcDbEntity
  8
1
100
AcDbLine
 10
50.42284647589998
 20
-12.59952743599997
 30
0.0
 11
50.40944668449998
 21
-12.53869929139996
 31
0.0
  0
LINE
  5
60B53
330
1F
100
AcDbEntity
  8
1
100
AcDbLine
 10
47.13108346229995
 20
10.47030478340004
 30
0.0
 11
47.13108346229995
 21
6.900469819000008
 31
0.0
  0
LINE
  5
60B54
330
1F
100
AcDbEntity
  8
1
100
AcDbLine
 10
47.13108346229995
 20
-12.06241539469997
 30
0.0
 11
47.13108346229995
 21
-12.49705434179999
 31
0.0
  0
LINE
  5
60B55
330
1F
100
AcDbEntity
  8
1
100
AcDbLine
 10
44.60474954239997
 20
8.813290408100028
 30
0.0
 11
44.60474954239997
 21
7.224358375600032
 31
0.0
  0
LINE
  5
60B56
330
1F
100
AcDbEntity
  8
1
100
AcDbLine
 10
44.13108346229996
 20
7.941546646100035
 30
0.0
 11
44.13108346229996
 21
7.231315161299995
 31
0.0
  0
LINE
  5
60B57
330
1F
100
AcDbEntity
  8
1
100
AcDbLine
 10
50.67794941149998
 20
16.1299896491
 30
0.0
 11
50.39770356569997
 21
15.65729816450003
 31
0.0
  0
LINE
  5
60B58
330
1F
100
AcDbEntity
  8
1
100
AcDbLine
 10
50.22541725729997
 20
15.37561245340002
 30
0.0
 11
46.5970355785
 21
9.62370278310002
 31
0.0
  0
LINE
  5
60B59
330
1F
100
AcDbEntity
  8
1
100
AcDbLine
 10
33.98399887579998
 20
-9.160812716699981
 30
0.0
 11
34.31681660969997
 21
-8.712138955099977
 31
0.0
  0
LINE
  5
60B5A
330
1F
100
AcDbEntity
  8
1
100
AcDbLine
 10
33.93751084069996
 20
-9.221886892599982
 30
0.0
 11
33.98399887579998
 21
-9.160812716699981
 31
0.0
  0
LINE
  5
60B5B
330
1F
100
AcDbEntity
  8
1
100
AcDbLine
 10
49.78472654169998
 20
-7.489499615999974
 30
0.0
 11
35.87167764809999
 21
-5.765550663899972
 31
0.0
  0
LINE
  5
60B5C
330
1F
100
AcDbEntity
  8
1
100
AcDbLine
 10
33.0417070476
 20
-8.837194303999963
 30
0.0
 11
33.93751083569995
 21
-9.221886898999965
 31
0.0
  0
LINE
  5
60B5D
330
1F
100
AcDbEntity
  8
1
100
AcDbLine
 10
32.25727113219998
 20
-8.424436108099968
 30
0.0
 11
32.73532276679998
 21
-8.690087696299967
 31
0.0
  0
LINE
  5
60B5E
330
1F
100
AcDbEntity
  8
1
100
AcDbLine
 10
34.31681660969997
 20
-8.712138955099977
 30
0.0
 11
35.87167764809999
 21
-5.765550663899972
 31
0.0
  0
LINE
  5
60B5F
330
1F
100
AcDbEntity
  8
1
100
AcDbLine
 10
3.96999999999997
 20
-3.174999999999968
 30
0.0
 11
0.4999999999999716
 21
-3.174999999999968
 31
0.0
  0
LINE
  5
60B60
330
1F
100
AcDbEntity
  8
1
100
AcDbLine
 10
33.83022244769998
 20
-4.888871295999976
 30
0.0
 11
35.87167764809999
 21
-5.765550663899972
 31
0.0
  0
LINE
  5
60B61
330
1F
100
AcDbEntity
  8
1
100
AcDbLine
 10
33.32241214179996
 20
-6.910760286099986
 30
0.0
 11
33.83022244769998
 21
-4.888871295999976
 31
0.0
  0
LINE
  5
60B62
330
1F
100
AcDbEntity
  8
1
100
AcDbLine
 10
33.0492367203
 20
-7.977503496399974
 30
0.0
 11
32.73532276679998
 21
-8.690087696299967
 31
0.0
  0
LINE
  5
60B63
330
1F
100
AcDbEntity
  8
4
100
AcDbLine
 10
51.69758484899994
 20
0.0000000000000284
 30
0.0
 11
-3.000000000000028
 21
0.0000000000000284
 31
0.0
  0
LINE
  5
60B64
330
1F
100
AcDbEntity
  8
1
100
AcDbLine
 10
33.49708989589996
 20
-4.551079729499988
 30
0.0
 11
33.83022244769998
 21
-4.888871295999976
 31
0.0
  0
LINE
  5
60B65
330
1F
100
AcDbEntity
  8
1
100
AcDbLine
 10
33.90894106339997
 20
-4.396556372999966
 30
0.0
 11
34.0851883846
 21
-4.575268595499963
 31
0.0
  0
LINE
  5
60B66
330
1F
100
AcDbEntity
  8
1
100
AcDbLine
 10
35.01136955249997
 20
7.224358740800012
 30
0.0
 11
35.01136955249997
 21
-4.362039376299961
 31
0.0
  0
LINE
  5
60B67
330
1F
100
AcDbEntity
  8
1
100
AcDbLine
 10
50.22541725729997
 20
-4.530201736299972
 30
0.0
 11
48.69758484899998
 21
-4.026054902899971
 31
0.0
  0
LINE
  5
60B68
330
1F
100
AcDbEntity
  8
1
100
AcDbLine
 10
46.3034532078
 20
9.341784792700039
 30
0.0
 11
45.40764941959998
 21
8.81814536420002
 31
0.0
  0
LINE
  5
60B69
330
1F
100
AcDbEntity
  8
1
100
AcDbLine
 10
0.4999999999999716
 20
3.175000000000025
 30
0.0
 11
3.96999999999997
 21
3.175000000000025
 31
0.0
  0
LINE
  5
60B6A
330
1F
100
AcDbEntity
  8
1
100
AcDbLine
 10
28.7629000099
 20
18.07883807390003
 30
0.0
 11
28.7629000099
 21
12.92693692000002
 31
0.0
  0
LINE
  5
60B6B
330
1F
100
AcDbEntity
  8
1
100
AcDbLine
 10
28.08316816629997
 20
11.29141088210004
 30
0.0
 11
28.08316816629997
 21
9.57435452310001
 31
0.0
  0
LINE
  5
60B6C
330
1F
100
AcDbEntity
  8
1
100
AcDbLine
 10
27.85500195039998
 20
-17.96469307059996
 30
0.0
 11
28.57096545749996
 21
-9.097669425299983
 31
0.0
  0
LINE
  5
60B6D
330
1F
100
AcDbEntity
  8
1
100
AcDbLine
 10
46.9993626017
 20
7.224356506500028
 30
0.0
 11
27.85500195039998
 21
7.224358893200032
 31
0.0
  0
LINE
  5
60B6E
330
1F
100
AcDbEntity
  8
1
100
AcDbLine
 10
50.67794941149998
 20
-4.769542532999962
 30
0.0
 11
50.39770356569997
 21
-4.607897738599986
 31
0.0
  0
LINE
  5
60B6F
330
1F
100
AcDbEntity
  8
1
100
AcDbLine
 10
25.43744331759999
 20
7.47059264770003
 30
0.0
 11
25.43744331759999
 21
-8.90765415689998
 31
0.0
  0
LINE
  5
60B70
330
1F
100
AcDbEntity
  8
1
100
AcDbLine
 10
30.45769534949997
 20
8.871727369800012
 30
0.0
 11
30.64824952009999
 21
8.871727369800012
 31
0.0
  0
LINE
  5
60B71
330
1F
100
AcDbEntity
  8
1
100
AcDbLine
 10
30.64824952009999
 20
8.871727369800012
 30
0.0
 11
44.17026638519995
 21
8.513227164300031
 31
0.0
  0
LINE
  5
60B72
330
1F
100
AcDbEntity
  8
1
100
AcDbLine
 10
49.67886642439999
 20
-7.098868322699985
 30
0.0
 11
48.69758484899998
 21
-6.10386306499997
 31
0.0
  0
LINE
  5
60B73
330
1F
100
AcDbEntity
  8
1
100
AcDbLine
 10
24.56920242929996
 20
-8.816785607899959
 30
0.0
 11
24.56920242929996
 21
7.686027509500013
 31
0.0
  0
LINE
  5
60B74
330
1F
100
AcDbEntity
  8
1
100
AcDbLine
 10
28.75189651699998
 20
12.84045048330002
 30
0.0
 11
29.4658558953
 21
14.09247894910002
 31
0.0
  0
LINE
  5
60B75
330
1F
100
AcDbEntity
  8
1
100
AcDbLine
 10
28.71289840539999
 20
12.84045048330002
 30
0.0
 11
28.7629000099
 21
12.92693692000002
 31
0.0
  0
LINE
  5
60B76
330
1F
100
AcDbEntity
  8
1
100
AcDbLine
 10
29.4658558953
 20
14.09247894910002
 30
0.0
 11
28.7629000099
 21
12.92693692000002
 31
0.0
  0
LINE
  5
60B77
330
1F
100
AcDbEntity
  8
1
100
AcDbLine
 10
28.20596625669998
 20
11.71871939700003
 30
0.0
 11
28.49915084279999
 21
12.19141088160002
 31
0.0
  0
LINE
  5
60B78
330
1F
100
AcDbEntity
  8
1
100
AcDbLine
 10
28.68553705129997
 20
12.47309659280002
 30
0.0
 11
32.73532276679998
 21
18.22500626300002
 31
0.0
  0
LINE
  5
60B79
330
1F
100
AcDbEntity
  8
1
100
AcDbLine
 10
21.93553423909998
 20
-8.423484985599968
 30
0.0
 11
21.93553423909998
 21
8.832941562500009
 31
0.0
  0
LINE
  5
60B7A
330
1F
100
AcDbEntity
  8
1
100
AcDbLine
 10
28.75189651699998
 20
12.84045048330002
 30
0.0
 11
28.71289840539999
 21
12.84045048330002
 31
0.0
  0
LINE
  5
60B7B
330
1F
100
AcDbEntity
  8
1
100
AcDbLine
 10
33.0417070476
 20
18.50692425340001
 30
0.0
 11
33.93751083569995
 21
19.03056368190003
 31
0.0
  0
LINE
  5
60B7C
330
1F
100
AcDbEntity
  8
1
100
AcDbLine
 10
28.7629000099
 20
18.07883807390003
 30
0.0
 11
29.17787616849998
 21
18.07901781850001
 31
0.0
  0
LINE
  5
60B7D
330
1F
100
AcDbEntity
  8
1
100
AcDbLine
 10
1.499999999999971
 20
18.29000000000003
 30
0.0
 11
13.99999999999997
 21
18.29000000000003
 31
0.0
  0
LINE
  5
60B7E
330
1F
100
AcDbEntity
  8
1
100
AcDbLine
 10
46.99922903829997
 20
7.224637554300032
 30
0.0
 11
47.00840340269997
 21
7.202808207100027
 31
0.0
  0
LINE
  5
60B7F
330
1F
100
AcDbEntity
  8
1
100
AcDbLine
 10
13.99999999999997
 20
-18.28999999999997
 30
0.0
 11
13.99999999999997
 21
18.29000000000003
 31
0.0
  0
LINE
  5
60B80
330
1F
100
AcDbEntity
  8
1
100
AcDbLine
 10
0.4999999999999716
 20
-3.174999999999968
 30
0.0
 11
-0.0000000000000284
 21
-3.674999999999968
 31
0.0
  0
LINE
  5
60B81
330
1F
100
AcDbEntity
  8
1
100
AcDbLine
 10
3.96999999999997
 20
3.175000000000025
 30
0.0
 11
3.96999999999997
 21
-3.174999999999968
 31
0.0
  0
LINE
  5
60B82
330
1F
100
AcDbEntity
  8
1
100
AcDbLine
 10
1.499999999999971
 20
-18.28999999999997
 30
0.0
 11
1.499999999999971
 21
-3.174999999999968
 31
0.0
  0
LINE
  5
60B83
330
1F
100
AcDbEntity
  8
1
100
AcDbLine
 10
1.499999999999971
 20
3.175000000000025
 30
0.0
 11
1.499999999999971
 21
18.29000000000003
 31
0.0
  0
LINE
  5
60B84
330
1F
100
AcDbEntity
  8
1
100
AcDbLine
 10
-0.0000000000000284
 20
-16.78999637159997
 30
0.0
 11
-0.0000000000000284
 21
-3.674999999999968
 31
0.0
  0
LINE
  5
60B85
330
1F
100
AcDbEntity
  8
1
100
AcDbLine
 10
-0.0000000000000284
 20
3.675000000000025
 30
0.0
 11
-0.0000000000000284
 21
16.78999637149999
 31
0.0
  0
LINE
  5
60B86
330
1F
100
AcDbEntity
  8
sk3
100
AcDbLine
 10
0.9999999999999715
 20
6.349999999999994
 30
0.0
 11
-0.0000000000000284
 21
7.349999557899963
 31
0.0
  0
LINE
  5
60B87
330
1F
100
AcDbEntity
  8
nocut
100
AcDbLine
 10
48.69758484899994
 20
0.0000000000000284
 30
0.0
 11
48.69758484899998
 21
15.85562050870003
 31
0.0
  0
LINE
  5
60B88
330
1F
100
AcDbEntity
  8
sk3
100
AcDbLine
 10
8.92774664449999
 20
-6.349999775399992
 30
0.0
 11
10.00000011299997
 21
-6.849999757700003
 31
0.0
  0
LINE
  5
60B89
330
1F
100
AcDbEntity
  8
sk3
100
AcDbLine
 10
44.13108346229996
 20
8.243691956600031
 30
0.0
 11
44.13108346229996
 21
-8.243691956500013
 31
0.0
  0
LINE
  5
60B8A
330
1F
100
AcDbEntity
  8
sk3
100
AcDbLine
 10
43.63108346229995
 20
5.500000000000028
 30
0.0
 11
43.63108346229995
 21
-5.5
 31
0.0
  0
LINE
  5
60B8B
330
1F
100
AcDbEntity
  8
sk3
100
AcDbLine
 10
9.999999999999973
 20
-6.849999999999994
 30
0.0
 11
15.19999999999996
 21
-6.849999999999994
 31
0.0
  0
LINE
  5
60B8C
330
1F
100
AcDbEntity
  8
sk3
100
AcDbLine
 10
0.9999999999999715
 20
-6.349999999999994
 30
0.0
 11
8.927746539699993
 21
-6.349999999999994
 31
0.0
  0
LINE
  5
60B8D
330
1F
100
AcDbEntity
  8
sk3
100
AcDbLine
 10
36.39999999999998
 20
-5.5
 30
0.0
 11
43.63108346229995
 21
-5.5
 31
0.0
  0
LINE
  5
60B8E
330
1F
100
AcDbEntity
  8
sk3
100
AcDbLine
 10
47.13108346229995
 20
12.51970737849999
 30
0.0
 11
48.67034173439997
 21
15.15850233549999
 31
0.0
  0
LINE
  5
60B8F
330
1F
100
AcDbEntity
  8
sk3
100
AcDbLine
 10
43.63108346819996
 20
5.499999993999978
 30
0.0
 11
44.13108346879996
 21
5.999999993499982
 31
0.0
  0
LINE
  5
60B90
330
1F
100
AcDbEntity
  8
sk3
100
AcDbLine
 10
16.39999999999998
 20
-3.5
 30
0.0
 11
35.49999999999997
 21
-3.5
 31
0.0
  0
LINE
  5
60B91
330
1F
100
AcDbEntity
  8
sk3
100
AcDbLine
 10
35.99999999999996
 20
5.099999999999994
 30
0.0
 11
35.99999999999996
 21
-5.099999999999994
 31
0.0
  0
LINE
  5
60B92
330
1F
100
AcDbEntity
  8
sk3
100
AcDbLine
 10
35.49999999999997
 20
3.5
 30
0.0
 11
35.49999999999997
 21
-3.5
 31
0.0
  0
LINE
  5
60B93
330
1F
100
AcDbEntity
  8
sk3
100
AcDbLine
 10
44.60474954239997
 20
9.536094666699996
 30
0.0
 11
47.13108346229995
 21
12.51970737849999
 31
0.0
  0
LINE
  5
60B94
330
1F
100
AcDbEntity
  8
nocut
100
AcDbLine
 10
48.69758484899998
 20
0.0000000000000284
 30
0.0
 11
-0.0000000000000284
 21
0.0000000000000284
 31
0.0
  0
LINE
  5
60B95
330
1F
100
AcDbEntity
  8
sk3
100
AcDbLine
 10
35.49999999999997
 20
3.5
 30
0.0
 11
35.99999999999996
 21
4.0
 31
0.0
  0
LINE
  5
60B96
330
1F
100
AcDbEntity
  8
sk3
100
AcDbLine
 10
35.49999999999997
 20
-3.5
 30
0.0
 11
35.99999999999996
 21
-4.0
 31
0.0
  0
LINE
  5
60B97
330
1F
100
AcDbEntity
  8
sk3
100
AcDbLine
 10
16.39999999999998
 20
3.5
 30
0.0
 11
35.49999999999997
 21
3.5
 31
0.0
  0
LINE
  5
60B98
330
1F
100
AcDbEntity
  8
sk3
100
AcDbLine
 10
36.39999999999998
 20
5.500000000000028
 30
0.0
 11
43.63108346229995
 21
5.500000000000028
 31
0.0
  0
LINE
  5
60B99
330
1F
100
AcDbEntity
  8
sk3
100
AcDbLine
 10
0.9999999999999715
 20
6.349999999999994
 30
0.0
 11
8.927746539699993
 21
6.349999999999994
 31
0.0
  0
LINE
  5
60B9A
330
1F
100
AcDbEntity
  8
sk3
100
AcDbLine
 10
9.999999999999973
 20
6.849999999999994
 30
0.0
 11
15.19999999999996
 21
6.849999999999994
 31
0.0
  0
LINE
  5
60B9B
330
1F
100
AcDbEntity
  8
sk3
100
AcDbLine
 10
43.63108346819996
 20
-5.499999994000005
 30
0.0
 11
44.13108346879996
 21
-5.999999993399995
 31
0.0
  0
LINE
  5
60B9C
330
1F
100
AcDbEntity
  8
sk3
100
AcDbLine
 10
44.60474954239997
 20
-9.536094666599982
 30
0.0
 11
47.13108346229995
 21
-12.5197073784
 31
0.0
  0
LINE
  5
60B9D
330
1F
100
AcDbEntity
  8
sk3
100
AcDbLine
 10
47.13108346229995
 20
-12.5197073784
 30
0.0
 11
48.67034173439997
 21
-15.15850233540001
 31
0.0
  0
LINE
  5
60B9E
330
1F
100
AcDbEntity
  8
sk3
100
AcDbLine
 10
8.92774664449999
 20
6.349999775499981
 30
0.0
 11
10.00000011299997
 21
6.849999757800019
 31
0.0
  0
LINE
  5
60B9F
330
1F
100
AcDbEntity
  8
sk3
100
AcDbLine
 10
15.99999999999997
 20
6.049999999999982
 30
0.0
 11
15.99999999999997
 21
-6.049999999999982
 31
0.0
  0
LINE
  5
60BA0
330
1F
100
AcDbEntity
  8
sk3
100
AcDbLine
 10
0.9999999999999715
 20
-6.349999999999994
 30
0.0
 11
-0.0000000000000284
 21
-7.349999557800027
 31
0.0
  0
LINE
  5
60BA1
330
1F
100
AcDbEntity
  8
nocut
100
AcDbLine
 10
25.43744331759999
 20
18.07901798180006
 30
0.0
 11
35.01136955249999
 21
18.07901798180006
 31
0.0
  0
LINE
  5
60BA2
330
1F
100
AcDbEntity
  8
nocut
100
AcDbLine
 10
1.499999999999971
 20
18.29000000000002
 30
0.0
 11
13.99999999999997
 21
18.29000000000002
 31
0.0
  0
LINE
  5
60BA3
330
1F
100
AcDbEntity
  8
nocut
100
AcDbLine
 10
35.01136955249999
 20
18.07901798180006
 30
0.0
 11
47.83815074519997
 21
17.4332571136
 31
0.0
  0
LINE
  5
60BA4
330
1F
100
AcDbEntity
  8
nocut
100
AcDbLine
 10
21.93553423909998
 20
17.53866998670003
 30
0.0
 11
24.56920242929996
 21
18.00305674690003
 31
0.0
  0
LINE
  5
60BA5
330
1F
100
AcDbEntity
  8
nocut
100
AcDbLine
 10
48.00798438159998
 20
17.32091514360002
 30
0.0
 11
48.67747469580002
 21
15.9430255602
 31
0.0
  0
LINE
  5
60BA6
330
1F
100
AcDbEntity
  8
sk3
100
AcDbLine
 10
9.999999999999973
 20
6.849999999999994
 30
0.0
 11
9.999999999999973
 21
-6.849999999999994
 31
0.0
  0
LINE
  5
60BA7
330
1F
100
AcDbEntity
  8
sk3
100
AcDbLine
 10
8.927746539699993
 20
6.349999999999994
 30
0.0
 11
8.927746539699993
 21
-6.349999999999994
 31
0.0
  0
LINE
  5
60BA8
330
1F
100
AcDbEntity
  8
sk3
100
AcDbLine
 10
0.9999999999999715
 20
6.349999999999994
 30
0.0
 11
0.9999996179999753
 21
3.175000000000011
 31
0.0
  0
LINE
  5
60BA9
330
1F
100
AcDbEntity
  8
sk3
100
AcDbLine
 10
0.9999996179999753
 20
-3.174999999999982
 30
0.0
 11
0.9999999999999715
 21
-6.349999999999994
 31
0.0
  0
LINE
  5
60BAA
330
1F
100
AcDbEntity
  8
nocut
100
AcDbLine
 10
0.0
 20
0.0
 30
0.0
 11
-0.0000000000000284
 21
16.78999637160001
 31
0.0
  0
LINE
  5
60BAB
330
1F
100
AcDbEntity
  8
cut
100
AcDbLine
 10
50.79999999999995
 20
16.34293881020007
 30
0.0
 11
50.79999999999995
 21
18.27434355639998
 31
0.0
  0
LINE
  5
60BAC
330
1F
100
AcDbEntity
  8
cut
100
AcDbLine
 10
46.64440897649993
 20
9.055523851200037
 30
0.0
 11
50.79999999999995
 21
16.34293881020007
 31
0.0
  0
LINE
  5
60BAD
330
1F
100
AcDbEntity
  8
cut
100
AcDbLine
 10
46.52043463189993
 20
8.983055018400049
 30
0.0
 11
46.64440897649993
 21
9.055523851200037
 31
0.0
  0
LINE
  5
60BAE
330
1F
100
AcDbEntity
  8
cut
100
AcDbLine
 10
28.08316816629994
 20
9.574365489900088
 30
0.0
 11
28.08316816629994
 21
11.5057702361
 31
0.0
  0
LINE
  5
60BAF
330
1F
100
AcDbEntity
  8
cut
100
AcDbLine
 10
46.52043463189993
 20
8.983055018400049
 30
0.0
 11
28.47409247649995
 21
9.174398535999984
 31
0.0
  0
LINE
  5
60BB0
330
1F
100
AcDbEntity
  8
cut
100
AcDbLine
 10
32.23875918969995
 20
18.79318519510004
 30
0.0
 11
28.08316816629994
 21
11.5057702361
 31
0.0
  0
LINE
  5
60BB1
330
1F
100
AcDbEntity
  8
cut
100
AcDbLine
 10
32.36273353429997
 20
18.86565402790003
 30
0.0
 11
32.23875918969995
 21
18.79318519510004
 31
0.0
  0
LINE
  5
60BB2
330
1F
100
AcDbEntity
  8
cut
100
AcDbLine
 10
32.36273353429997
 20
18.86565402790003
 30
0.0
 11
50.40907568979996
 21
18.67431051020006
 31
0.0
  0
ARC
  5
60BB3
330
1F
100
AcDbEntity
  8
1
100
AcDbCircle
 10
27.90627604669999
 20
-125.7623864791
 30
0.0
 40
107.7977056028
100
AcDbArc
 50
90.02725280059989
 51
91.31232908689975
  0
ARC
  5
60BB4
330
1F
100
AcDbEntity
  8
1
100
AcDbCircle
 10
54.17389656489996
 20
-8.912726992699976
 30
0.0
 40
7.902443858999997
100
AcDbArc
 50
206.9730924543992
 51
207.1208987816993
  0
ARC
  5
60BB5
330
1F
100
AcDbEntity
  8
1
100
AcDbCircle
 10
47.14979002799992
 20
18.22181097150003
 30
0.0
 40
4.1016612586
100
AcDbArc
 50
329.3365911801005
 51
329.7799203409988
  0
ARC
  5
60BB6
330
1F
100
AcDbEntity
  8
1
100
AcDbCircle
 10
47.40596581669999
 20
2.362231427400018
 30
0.0
 40
3.7476766341
100
AcDbArc
 50
169.6386624373002
 51
172.9542585598001
  0
ARC
  5
60BB7
330
1F
100
AcDbEntity
  8
1
100
AcDbCircle
 10
48.00123827289997
 20
-7.680204410599968
 30
0.0
 40
2.3167158666
100
AcDbArc
 50
344.3776717138998
 51
347.1052225977999
  0
ARC
  5
60BB8
330
1F
100
AcDbEntity
  8
1
100
AcDbCircle
 10
49.99259066719996
 20
16.55695319840001
 30
0.0
 40
0.8074081490000001
100
AcDbArc
 50
332.2049362525001
 51
0.0244796598001976
  0
ARC
  5
60BB9
330
1F
100
AcDbEntity
  8
1
100
AcDbCircle
 10
50.15133580519997
 20
16.47348043120002
 30
0.0
 40
0.6280555342000002
100
AcDbArc
 50
329.7783957731996
 51
332.1882379728992
  0
ARC
  5
60BBA
330
1F
100
AcDbEntity
  8
1
100
AcDbCircle
 10
50.3608658837
 20
-13.14049550969997
 30
0.0
 40
0.5445071630000001
100
AcDbArc
 50
83.46392386679923
 51
85.28268559719958
  0
ARC
  5
60BBB
330
1F
100
AcDbEntity
  8
1
100
AcDbCircle
 10
50.50100438689998
 20
-5.076201055699967
 30
0.0
 40
0.3540465948
100
AcDbArc
 50
56.9619335150999
 51
60.01462548350062
  0
ARC
  5
60BBC
330
1F
100
AcDbEntity
  8
1
100
AcDbCircle
 10
50.61171966659995
 20
-4.906072572499978
 30
0.0
 40
0.1510649073
100
AcDbArc
 50
50.97376508369974
 51
56.9847568392997
  0
ARC
  5
60BBD
330
1F
100
AcDbEntity
  8
1
100
AcDbCircle
 10
50.70092919129999
 20
-12.45135283449998
 30
0.0
 40
0.0990703871
100
AcDbArc
 50
341.6390124658999
 51
359.9360851077999
  0
ARC
  5
60BBE
330
1F
100
AcDbEntity
  8
1
100
AcDbCircle
 10
34.6841940626
 20
2.025943808700034
 30
0.0
 40
13.3673505061
100
AcDbArc
 50
21.38660467029949
 51
22.78627615089932
  0
ARC
  5
60BBF
330
1F
100
AcDbEntity
  8
1
100
AcDbCircle
 10
41.42888438509999
 20
-11.56635222449998
 30
0.0
 40
8.910431032099998
100
AcDbArc
 50
4.766549610699835
 51
5.35021694309986
  0
ARC
  5
60BC0
330
1F
100
AcDbEntity
  8
1
100
AcDbCircle
 10
41.63256273269996
 20
-11.62579971989997
 30
0.0
 40
8.712729881499997
100
AcDbArc
 50
4.464465923499966
 51
5.26743623340015
  0
ARC
  5
60BC1
330
1F
100
AcDbEntity
  8
1
100
AcDbCircle
 10
41.98625599429997
 20
-11.67957085389997
 30
0.0
 40
8.364688931999999
100
AcDbArc
 50
4.182062337099916
 51
5.020259233200108
  0
ARC
  5
60BC2
330
1F
100
AcDbEntity
  8
1
100
AcDbCircle
 10
42.40825497379995
 20
-11.73526699959997
 30
0.0
 40
7.9483440444
100
AcDbArc
 50
3.920642387499841
 51
4.804332055000099
  0
ARC
  5
60BC3
330
1F
100
AcDbEntity
  8
1
100
AcDbCircle
 10
42.89970746059998
 20
-11.79275062489996
 30
0.0
 40
7.462526400999996
100
AcDbArc
 50
3.676414762799784
 51
4.618971086800023
  0
ARC
  5
60BC4
330
1F
100
AcDbEntity
  8
1
100
AcDbCircle
 10
43.45753490019993
 20
-11.85203789429998
 30
0.0
 40
6.9103006401
100
AcDbArc
 50
3.444635252200001
 51
4.463571394400242
  0
ARC
  5
60BC5
330
1F
100
AcDbEntity
  8
1
100
AcDbCircle
 10
44.07798072029999
 20
-11.91300680389997
 30
0.0
 40
6.295403991199997
100
AcDbArc
 50
3.218655395099812
 51
4.337842436999872
  0
ARC
  5
60BC6
330
1F
100
AcDbEntity
  8
1
100
AcDbCircle
 10
44.75706635409994
 20
-11.97537326359996
 30
0.0
 40
5.621787788499998
100
AcDbArc
 50
2.988311910300059
 51
4.241923675099918
  0
ARC
  5
60BC7
330
1F
100
AcDbEntity
  8
1
100
AcDbCircle
 10
45.46037850969996
 20
-12.04069018069996
 30
0.0
 40
4.9238915067
100
AcDbArc
 50
2.742968647400009
 51
4.174055921599927
  0
ARC
  5
60BC8
330
1F
100
AcDbEntity
  8
1
100
AcDbCircle
 10
46.13661093329997
 20
-12.11243265619998
 30
0.0
 40
4.2531393941
100
AcDbArc
 50
2.488530449999919
 51
4.144427934099773
  0
ARC
  5
60BC9
330
1F
100
AcDbEntity
  8
1
100
AcDbCircle
 10
42.88393781429997
 20
3.094401801000032
 30
0.0
 40
3.9322917972
100
AcDbArc
 50
349.6151429593997
 51
352.8754605063999
  0
ARC
  5
60BCA
330
1F
100
AcDbEntity
  8
1
100
AcDbCircle
 10
35.29414184130003
 20
3.247606174900028
 30
0.0
 40
3.866035360199997
100
AcDbArc
 50
349.6158199158997
 51
352.9031000827999
  0
ARC
  5
60BCB
330
1F
100
AcDbEntity
  8
1
100
AcDbCircle
 10
39.69444840129998
 20
2.532544547600025
 30
0.0
 40
3.691119619399997
100
AcDbArc
 50
169.6382036753999
 51
172.9795866494998
  0
ARC
  5
60BCC
330
1F
100
AcDbEntity
  8
1
100
AcDbCircle
 10
36.22238119449998
 20
-5.649022783599973
 30
0.0
 40
0.2971702303
100
AcDbArc
 50
12.47472683529993
 51
14.39210782659974
  0
ARC
  5
60BCD
330
1F
100
AcDbEntity
  8
1
100
AcDbCircle
 10
26.04340237279999
 20
1.075647061700023
 30
0.0
 40
10.0016743396
100
AcDbArc
 50
261.5239886929996
 51
266.5265644069007
  0
ARC
  5
60BCE
330
1F
100
AcDbEntity
  8
1
100
AcDbCircle
 10
28.08318708439998
 20
0.9665125557000207
 30
0.0
 40
8.216913039899999
100
AcDbArc
 50
87.24993571019995
 51
87.36935104550058
  0
ARC
  5
60BCF
330
1F
100
AcDbEntity
  8
1
100
AcDbCircle
 10
25.31724383589998
 20
-12.63751168159997
 30
0.0
 40
5.356792805299996
100
AcDbArc
 50
261.9727811454006
 51
271.2857508782999
  0
ARC
  5
60BD0
330
1F
100
AcDbEntity
  8
1
100
AcDbCircle
 10
42.62414284389996
 20
12.53868589890003
 30
0.0
 40
0.4563345364
100
AcDbArc
 50
90.04897626520067
 51
105.4196091383995
  0
ARC
  5
60BD1
330
1F
100
AcDbEntity
  8
1
100
AcDbCircle
 10
42.62414284389996
 20
14.80325305070003
 30
0.0
 40
0.4563345364
100
AcDbArc
 50
254.5803908615008
 51
269.9510237347993
  0
ARC
  5
60BD2
330
1F
100
AcDbEntity
  8
1
100
AcDbCircle
 10
43.92509179949995
 20
14.80325305070003
 30
0.0
 40
0.4563345364
100
AcDbArc
 50
270.0489762652007
 51
285.4196091383995
  0
ARC
  5
60BD3
330
1F
100
AcDbEntity
  8
1
100
AcDbCircle
 10
43.92509179949995
 20
12.53868589890003
 30
0.0
 40
0.4563345364
100
AcDbArc
 50
74.5803908616005
 51
89.95102373479936
  0
ARC
  5
60BD4
330
1F
100
AcDbEntity
  8
1
100
AcDbCircle
 10
42.44646508569994
 20
13.18295640040004
 30
0.0
 40
0.211987142
100
AcDbArc
 50
270.0458047210997
 51
285.4140975941997
  0
ARC
  5
60BD5
330
1F
100
AcDbEntity
  8
1
100
AcDbCircle
 10
42.44646508569994
 20
14.15898254910003
 30
0.0
 40
0.211987142
100
AcDbArc
 50
74.58590240580029
 51
89.95419527890032
  0
ARC
  5
60BD6
330
1F
100
AcDbEntity
  8
1
100
AcDbCircle
 10
44.10276955769997
 20
14.15898254910002
 30
0.0
 40
0.211987142
100
AcDbArc
 50
90.04580472109969
 51
105.4140975941997
  0
ARC
  5
60BD7
330
1F
100
AcDbEntity
  8
1
100
AcDbCircle
 10
44.10276955769997
 20
13.18295640040003
 30
0.0
 40
0.211987142
100
AcDbArc
 50
254.5859024058003
 51
269.9541952789003
  0
ARC
  5
60BD8
330
1F
100
AcDbEntity
  8
1
100
AcDbCircle
 10
35.10614044699997
 20
12.772993819
 30
0.0
 40
0.4563345364
100
AcDbArc
 50
90.04897626520067
 51
105.4196091384991
  0
ARC
  5
60BD9
330
1F
100
AcDbEntity
  8
1
100
AcDbCircle
 10
35.10614044699997
 20
15.03756097080001
 30
0.0
 40
0.4563345364
100
AcDbArc
 50
254.5803908616005
 51
269.9510237347993
  0
ARC
  5
60BDA
330
1F
100
AcDbEntity
  8
1
100
AcDbCircle
 10
36.40708940259998
 20
15.03756097080001
 30
0.0
 40
0.4563345364
100
AcDbArc
 50
270.0489762652007
 51
285.4196091383995
  0
ARC
  5
60BDB
330
1F
100
AcDbEntity
  8
1
100
AcDbCircle
 10
36.40708940259998
 20
12.772993819
 30
0.0
 40
0.4563345364
100
AcDbArc
 50
74.5803908616005
 51
89.95102373479936
  0
ARC
  5
60BDC
330
1F
100
AcDbEntity
  8
1
100
AcDbCircle
 10
34.92846268879998
 20
13.41726432050001
 30
0.0
 40
0.211987142
100
AcDbArc
 50
270.0458047212006
 51
285.4140975941001
  0
ARC
  5
60BDD
330
1F
100
AcDbEntity
  8
1
100
AcDbCircle
 10
34.92846268879998
 20
14.39329046920004
 30
0.0
 40
0.211987142
100
AcDbArc
 50
74.58590240589998
 51
89.95419527879935
  0
ARC
  5
60BDE
330
1F
100
AcDbEntity
  8
1
100
AcDbCircle
 10
36.5847671608
 20
14.39329046920004
 30
0.0
 40
0.211987142
100
AcDbArc
 50
90.04580472109969
 51
105.4140975941997
  0
ARC
  5
60BDF
330
1F
100
AcDbEntity
  8
1
100
AcDbCircle
 10
36.5847671608
 20
13.41726432050001
 30
0.0
 40
0.211987142
100
AcDbArc
 50
254.5859024059
 51
269.9541952789003
  0
ARC
  5
60BE0
330
1F
100
AcDbEntity
  8
1
100
AcDbCircle
 10
33.3444447896
 20
9.187876784000009
 30
0.0
 40
5.7007096494
100
AcDbArc
 50
144.8104966046003
 51
148.2057695036996
  0
ARC
  5
60BE1
330
1F
100
AcDbEntity
  8
1
100
AcDbCircle
 10
30.05573193269999
 20
10.68821750520003
 30
0.0
 40
2.1645712051
100
AcDbArc
 50
224.4445217430991
 51
259.1110597904005
  0
ARC
  5
60BE2
330
1F
100
AcDbEntity
  8
1
100
AcDbCircle
 10
29.23134560929998
 20
10.68208638440001
 30
0.0
 40
2.1577317561
100
AcDbArc
 50
263.0689758320006
 51
270.0268107870999
  0
ARC
  5
60BE3
330
1F
100
AcDbEntity
  8
1
100
AcDbCircle
 10
29.8280478646
 20
10.71250430240002
 30
0.0
 40
1.9088262255
100
AcDbArc
 50
148.1877067748987
 51
149.1492264476008
  0
ARC
  5
60BE4
330
1F
100
AcDbEntity
  8
1
100
AcDbCircle
 10
28.89057943649999
 20
11.29175584770002
 30
0.0
 40
0.8074081490000001
100
AcDbArc
 50
152.2049362524001
 51
180.0244796598002
  0
ARC
  5
60BE5
330
1F
100
AcDbEntity
  8
1
100
AcDbCircle
 10
28.61803708159996
 20
11.4351975489
 30
0.0
 40
0.4994250729
100
AcDbArc
 50
149.142132624299
 51
152.1822775740001
  0
ARC
  5
60BE6
330
1F
100
AcDbEntity
  8
1
100
AcDbCircle
 10
28.48817909259998
 20
9.574494769400033
 30
0.0
 40
0.4050097223
100
AcDbArc
 50
180.0198403151998
 51
189.0516018432997
  0
ARC
  5
60BE7
330
1F
100
AcDbEntity
  8
1
100
AcDbCircle
 10
25.4404247203
 20
13.08426810370004
 30
0.0
 40
4.9941127548
100
AcDbArc
 50
90.03420463420034
 51
100.0466451923008
  0
ARC
  5
60BE8
330
1F
100
AcDbEntity
  8
1
100
AcDbCircle
 10
28.08093257679997
 20
8.637738088600045
 30
0.0
 40
1.338717477
100
AcDbArc
 50
282.6521679556001
 51
285.2044758571001
  0
ARC
  5
60BE9
330
1F
100
AcDbEntity
  8
1
100
AcDbCircle
 10
28.79786768259999
 20
19.16744093940003
 30
0.0
 40
11.9430861724
100
AcDbArc
 50
262.5522937779008
 51
269.9996067698998
  0
ARC
  5
60BEA
330
1F
100
AcDbEntity
  8
1
100
AcDbCircle
 10
33.53847832519998
 20
17.65959467810001
 30
0.0
 40
0.9822164279999999
100
AcDbArc
 50
120.3821875610005
 51
144.8549280615999
  0
ARC
  5
60BEB
330
1F
100
AcDbEntity
  8
1
100
AcDbCircle
 10
27.85243797049999
 20
19.19027248730002
 30
0.0
 40
11.9659138688
100
AcDbArc
 50
258.3564262984006
 51
270.0122769752998
  0
ARC
  5
60BEC
330
1F
100
AcDbEntity
  8
1
100
AcDbCircle
 10
27.71170431469997
 20
18.49949449220001
 30
0.0
 40
11.2608341736
100
AcDbArc
 50
239.1399151238006
 51
253.7956059317995
  0
ARC
  5
60BED
330
1F
100
AcDbEntity
  8
1
100
AcDbCircle
 10
27.70489794979997
 20
18.46613911590002
 30
0.0
 40
11.2269048559
100
AcDbArc
 50
253.7814574427999
 51
258.3480428822994
  0
ARC
  5
60BEE
330
1F
100
AcDbEntity
  8
1
100
AcDbCircle
 10
17.47694619559999
 20
-38.27118380279998
 30
0.0
 40
30.1788689653
100
AcDbArc
 50
81.50409416760046
 51
84.76576227930015
  0
ARC
  5
60BEF
330
1F
100
AcDbEntity
  8
1
100
AcDbCircle
 10
19.33081157409995
 20
-32.31078628189998
 30
0.0
 40
15.0
100
AcDbArc
 50
79.9999999999998
 51
110.8171914397996
  0
ARC
  5
60BF0
330
1F
100
AcDbEntity
  8
1
100
AcDbCircle
 10
1.499999999999971
 20
16.79000000000003
 30
0.0
 40
1.5
100
AcDbArc
 50
90.0
 51
180.0
  0
ARC
  5
60BF1
330
1F
100
AcDbEntity
  8
1
100
AcDbCircle
 10
1.499999999999971
 20
-16.78999999999997
 30
0.0
 40
1.5
100
AcDbArc
 50
180.0
 51
270.0
  0
ARC
  5
60BF2
330
1F
100
AcDbEntity
  8
1
100
AcDbCircle
 10
101.2466177503
 20
254.7010985096
 30
0.0
 40
272.368438797
100
AcDbArc
 50
256.0968940145002
 51
256.2148735007006
  0
ARC
  5
60BF3
330
1F
100
AcDbEntity
  8
1
100
AcDbCircle
 10
100.5515672547
 20
253.8018393934
 30
0.0
 40
271.329855428
100
AcDbArc
 50
256.3121692999991
 51
256.4327237274
  0
ARC
  5
60BF4
330
1F
100
AcDbEntity
  8
1
100
AcDbCircle
 10
99.80101421810005
 20
252.6369923824
 30
0.0
 40
270.021828989
100
AcDbArc
 50
256.5295566450996
 51
256.6528856227003
  0
ARC
  5
60BF5
330
1F
100
AcDbEntity
  8
1
100
AcDbCircle
 10
99.17652476220002
 20
251.9657485766
 30
0.0
 40
269.2249331146
100
AcDbArc
 50
256.7492207131997
 51
256.8751737214006
  0
ARC
  5
60BF6
330
1F
100
AcDbEntity
  8
1
100
AcDbCircle
 10
98.60387869530001
 20
251.4852123896
 30
0.0
 40
268.6272915409
100
AcDbArc
 50
256.9708497610994
 51
257.0994118437
  0
ARC
  5
60BF7
330
1F
100
AcDbEntity
  8
1
100
AcDbCircle
 10
97.995956338
 20
250.8215673779001
 30
0.0
 40
267.8450415257
100
AcDbArc
 50
257.1944778511999
 51
257.3258231340997
  0
ARC
  5
60BF8
330
1F
100
AcDbEntity
  8
1
100
AcDbCircle
 10
97.50995814980001
 20
250.6674293160001
 30
0.0
 40
267.5883904028
100
AcDbArc
 50
257.4201077792005
 51
257.5540655698008
  0
ARC
  5
60BF9
330
1F
100
AcDbEntity
  8
1
100
AcDbCircle
 10
96.87218380770001
 20
249.799222556
 30
0.0
 40
266.603490627
100
AcDbArc
 50
257.6476959429007
 51
257.7847311111999
  0
ARC
  5
60BFA
330
1F
100
AcDbEntity
  8
1
100
AcDbCircle
 10
95.82651223750003
 20
249.021492575
 30
0.0
 40
265.6245489022
100
AcDbArc
 50
258.1099134750004
 51
258.2529360621996
  0
ARC
  5
60BFB
330
1F
100
AcDbEntity
  8
1
100
AcDbCircle
 10
96.21104488310001
 20
248.7779217207
 30
0.0
 40
265.4657736389
100
AcDbArc
 50
257.8775554251007
 51
258.0178686961998
  0
ARC
  5
60BFC
330
1F
100
AcDbEntity
  8
1
100
AcDbCircle
 10
95.26301864249999
 20
248.3809500402001
 30
0.0
 40
264.8830344126
100
AcDbArc
 50
258.3440620527006
 51
258.4903982342993
  0
ARC
  5
60BFD
330
1F
100
AcDbEntity
  8
1
100
AcDbCircle
 10
94.49525957899998
 20
246.6892071753
 30
0.0
 40
263.0724446751
100
AcDbArc
 50
258.5807315174004
 51
258.7311432171992
  0
ARC
  5
60BFE
330
1F
100
AcDbEntity
  8
1
100
AcDbCircle
 10
93.77783611270002
 20
245.1787520782001
 30
0.0
 40
261.4512346839
100
AcDbArc
 50
258.8206486255992
 51
258.9752355921005
  0
ARC
  5
60BFF
330
1F
100
AcDbEntity
  8
1
100
AcDbCircle
 10
93.21678931999995
 20
244.4067385242
 30
0.0
 40
260.5864898395
100
AcDbArc
 50
259.0638569160999
 51
259.2223797105006
  0
ARC
  5
60C00
330
1F
100
AcDbEntity
  8
1
100
AcDbCircle
 10
92.65073259529998
 20
243.5559907275
 30
0.0
 40
259.6452011459
100
AcDbArc
 50
259.3099819829998
 51
259.4727002616997
  0
ARC
  5
60C01
330
1F
100
AcDbEntity
  8
1
100
AcDbCircle
 10
91.91723754999998
 20
241.7454839170001
 30
0.0
 40
257.7314519938
100
AcDbArc
 50
259.5594809148005
 51
259.7272752388004
  0
ARC
  5
60C02
330
1F
100
AcDbEntity
  8
1
100
AcDbCircle
 10
91.30443322410002
 20
240.5070455598
 30
0.0
 40
256.4038667568
100
AcDbArc
 50
259.8126647279004
 51
259.9854583045007
  0
ARC
  5
60C03
330
1F
100
AcDbEntity
  8
1
100
AcDbCircle
 10
90.14058632420001
 20
236.0594944947
 30
0.0
 40
251.8219651463
100
AcDbArc
 50
260.0702553742007
 51
260.2507156576998
  0
ARC
  5
60C04
330
1F
100
AcDbEntity
  8
1
100
AcDbCircle
 10
89.53707777009999
 20
234.6938514238
 30
0.0
 40
250.3741119356
100
AcDbArc
 50
260.3339081090993
 51
260.5203078059993
  0
ARC
  5
60C05
330
1F
100
AcDbEntity
  8
1
100
AcDbCircle
 10
89.1323701293
 20
234.4445144132
 30
0.0
 40
250.0617817455
100
AcDbArc
 50
260.6023616192996
 51
260.794273776
  0
ARC
  5
60C06
330
1F
100
AcDbEntity
  8
1
100
AcDbCircle
 10
88.4010225429
 20
232.0873941904001
 30
0.0
 40
247.6182598079
100
AcDbArc
 50
260.8740646272003
 51
261.0736266505
  0
ARC
  5
60C07
330
1F
100
AcDbEntity
  8
1
100
AcDbCircle
 10
151.3802084364999
 20
61.5079914816
 30
0.0
 40
119.7356171526
100
AcDbArc
 50
210.3066148250995
 51
210.9355738978995
  0
ARC
  5
60C08
330
1F
100
AcDbEntity
  8
1
100
AcDbCircle
 10
97.11649033440002
 20
27.46785341440002
 30
0.0
 40
63.9793445791
100
AcDbArc
 50
218.0865202001995
 51
218.4331873982993
  0
ARC
  5
60C09
330
1F
100
AcDbEntity
  8
1
100
AcDbCircle
 10
40.22844375189999
 20
21.68355175020004
 30
0.0
 40
11.8207266038
100
AcDbArc
 50
327.7486933138992
 51
329.3492255115012
  0
ARC
  5
60C0A
330
1F
100
AcDbEntity
  8
1
100
AcDbCircle
 10
-132.6485685694
 20
55.41788423060005
 30
0.0
 40
194.0827343232
100
AcDbArc
 50
338.5633741805993
 51
339.1108305389005
  0
ARC
  5
60C0B
330
1F
100
AcDbEntity
  8
1
100
AcDbCircle
 10
19.29484932949998
 20
32.37257695870005
 30
0.0
 40
15.0715358584
100
AcDbArc
 50
273.5577011125999
 51
280.0908833309999
  0
ARC
  5
60C0C
330
1F
100
AcDbEntity
  8
1
100
AcDbCircle
 10
19.33081157409995
 20
32.31078628180002
 30
0.0
 40
15.0
100
AcDbArc
 50
249.1828085602003
 51
266.005282715
  0
ARC
  5
60C0D
330
1F
100
AcDbEntity
  8
sk3
100
AcDbCircle
 10
46.13108346229995
 20
-8.243691956500013
 30
0.0
 40
2.0
100
AcDbArc
 50
180.0
 51
220.2558088137004
  0
ARC
  5
60C0E
330
1F
100
AcDbEntity
  8
sk3
100
AcDbCircle
 10
36.39999999999998
 20
-5.099999999999994
 30
0.0
 40
0.4
100
AcDbArc
 50
180.0
 51
270.0
  0
ARC
  5
60C0F
330
1F
100
AcDbEntity
  8
sk3
100
AcDbCircle
 10
48.49758484900003
 20
-15.25927464600002
 30
0.0
 40
0.2
100
AcDbArc
 50
0.0
 51
30.25580881369936
  0
ARC
  5
60C10
330
1F
100
AcDbEntity
  8
sk3
100
AcDbCircle
 10
15.19999999999996
 20
-6.049999999999982
 30
0.0
 40
0.8
100
AcDbArc
 50
270.0
 51
0.0
  0
ARC
  5
60C11
330
1F
100
AcDbEntity
  8
sk3
100
AcDbCircle
 10
16.39999999999998
 20
-3.900000000000004
 30
0.0
 40
0.4
100
AcDbArc
 50
90.0
 51
180.0
  0
ARC
  5
60C12
330
1F
100
AcDbEntity
  8
nocut
100
AcDbCircle
 10
25.43744331759999
 20
13.07901798180006
 30
0.0
 40
5.0
100
AcDbArc
 50
90.0
 51
100.0000000000001
  0
ARC
  5
60C13
330
1F
100
AcDbEntity
  8
sk3
100
AcDbCircle
 10
46.13108346229995
 20
8.243691956600031
 30
0.0
 40
2.0
100
AcDbArc
 50
139.7441911862996
 51
180.0
  0
ARC
  5
60C14
330
1F
100
AcDbEntity
  8
sk3
100
AcDbCircle
 10
36.39999999999998
 20
5.099999999999994
 30
0.0
 40
0.4
100
AcDbArc
 50
90.0
 51
180.0
  0
ARC
  5
60C15
330
1F
100
AcDbEntity
  8
sk3
100
AcDbCircle
 10
48.49758484900003
 20
15.25927464599996
 30
0.0
 40
0.2
100
AcDbArc
 50
329.7441911863007
 51
0.0
  0
ARC
  5
60C16
330
1F
100
AcDbEntity
  8
nocut
100
AcDbCircle
 10
48.49758484900003
 20
15.85562050870003
 30
0.0
 40
0.2
100
AcDbArc
 50
0.0
 51
25.91423434810053
  0
ARC
  5
60C17
330
1F
100
AcDbEntity
  8
nocut
100
AcDbCircle
 10
47.82809453479993
 20
17.23351009200001
 30
0.0
 40
0.2
100
AcDbArc
 50
25.91423434810053
 51
87.11789265130034
  0
ARC
  5
60C18
330
1F
100
AcDbEntity
  8
nocut
100
AcDbCircle
 10
19.33081157409998
 20
32.31078628190005
 30
0.0
 40
15.0
100
AcDbArc
 50
249.1828085602003
 51
280.0000000000002
  0
ARC
  5
60C19
330
1F
100
AcDbEntity
  8
nocut
100
AcDbCircle
 10
1.499999999999971
 20
16.79000000000002
 30
0.0
 40
1.5
100
AcDbArc
 50
90.0
 51
180.0
  0
ARC
  5
60C1A
330
1F
100
AcDbEntity
  8
sk3
100
AcDbCircle
 10
15.19999999999996
 20
6.049999999999982
 30
0.0
 40
0.8
100
AcDbArc
 50
0.0
 51
90.0
  0
ARC
  5
60C1B
330
1F
100
AcDbEntity
  8
sk3
100
AcDbCircle
 10
16.39999999999998
 20
3.900000000000004
 30
0.0
 40
0.4
100
AcDbArc
 50
180.0
 51
270.0
  0
SPLINE
  5
60C1C
330
1F
100
AcDbEntity
  8
1
100
AcDbSpline
210
0.0
220
0.0
230
1.0
 70
     8
 71
     3
 72
    15
 73
    11
 74
     0
 42
0.0000000001
 43
0.0000000001
 40
0.0
 40
0.0
 40
0.0
 40
0.0
 40
0.1257624577
 40
0.251400551
 40
0.3768323277
 40
0.5019843443000001
 40
0.6268343870000001
 40
0.7514046959
 40
0.8757604770999998
 40
1.0
 40
1.0
 40
1.0
 40
1.0
 10
33.63063091499995
 20
13.90527739490001
 30
0.0
 10
33.63063091499995
 20
14.04902366460003
 30
0.0
 10
33.65861148659997
 20
14.33715313510002
 30
0.0
 10
33.78296854909996
 20
14.75223469860002
 30
0.0
 10
33.98492136979996
 20
15.13500983030002
 30
0.0
 10
34.25679016549995
 20
15.47056404270002
 30
0.0
 10
34.58814427509998
 20
15.74603029500001
 30
0.0
 10
34.96632980919998
 20
15.95077167250001
 30
0.0
 10
35.37659004189999
 20
16.07688030290001
 30
0.0
 10
35.66153970649998
 20
16.10527739490003
 30
0.0
 10
35.80354526429997
 20
16.10527739490003
 30
0.0
  0
SPLINE
  5
60C1D
330
1F
100
AcDbEntity
  8
1
100
AcDbSpline
210
0.0
220
0.0
230
1.0
 70
     8
 71
     3
 72
    15
 73
    11
 74
     0
 42
0.0000000001
 43
0.0000000001
 40
0.0
 40
0.0
 40
0.0
 40
0.0
 40
0.1240902801
 40
0.248437663
 40
0.3731984465
 40
0.4984001574000001
 40
0.6239162538000002
 40
0.7495212508
 40
0.8749384192
 40
1.0
 40
1.0
 40
1.0
 40
1.0
 10
36.58459768909998
 20
13.20527724620002
 30
0.0
 10
36.60551346769998
 20
13.20527270950001
 30
0.0
 10
36.64765442069998
 20
13.21161038240002
 30
0.0
 10
36.70515179170003
 20
13.23925304200004
 30
0.0
 10
36.75224269679997
 20
13.28263138690003
 30
0.0
 10
36.7848055842
 20
13.33795990560001
 30
0.0
 10
36.80008385049996
 20
13.40045455780002
 30
0.0
 10
36.79675181799996
 20
13.46474725550003
 30
0.0
 10
36.7751581726
 20
13.52526776870002
 30
0.0
 10
36.7496339263
 20
13.55980055460004
 30
0.0
 10
36.73475079020001
 20
13.57472829240002
 30
0.0
  0
SPLINE
  5
60C1E
330
1F
100
AcDbEntity
  8
1
100
AcDbSpline
210
0.0
220
0.0
230
1.0
 70
     8
 71
     3
 72
    11
 73
     7
 74
     0
 42
0.0000000001
 43
0.0000000001
 40
0.0
 40
0.0
 40
0.0
 40
0.0
 40
0.2488147041
 40
0.4982584283
 40
0.7486543314000002
 40
1.0
 40
1.0
 40
1.0
 40
1.0
 10
36.40747947599999
 20
13.22932818860003
 30
0.0
 10
36.35737410109996
 20
13.22933698230001
 30
0.0
 10
36.25624992520001
 20
13.21242021290003
 30
0.0
 10
36.12150416249998
 20
13.13901525310003
 30
0.0
 10
36.01731868769997
 20
13.02571503530002
 30
0.0
 10
35.97566525309998
 20
12.93134340770002
 30
0.0
 10
35.96294332149998
 20
12.88235324610004
 30
0.0
  0
SPLINE
  5
60C1F
330
1F
100
AcDbEntity
  8
1
100
AcDbSpline
210
0.0
220
0.0
230
1.0
 70
     8
 71
     3
 72
    11
 73
     7
 74
     0
 42
0.0000000001
 43
0.0000000001
 40
0.0
 40
0.0
 40
0.0
 40
0.0
 40
0.2488250439
 40
0.4982691014000002
 40
0.7486499874
 40
1.0
 40
1.0
 40
1.0
 40
1.0
 10
35.75661492479998
 20
12.72127739490001
 30
0.0
 10
35.77987308259998
 20
12.72127739490001
 30
0.0
 10
35.82681224999996
 20
12.72913480470001
 30
0.0
 10
35.88934661699997
 20
12.7632224706
 30
0.0
 10
35.937707564
 20
12.81580817910002
 30
0.0
 10
35.95703813649999
 20
12.85961330580001
 30
0.0
 10
35.96294332149998
 20
12.88235324610004
 30
0.0
  0
SPLINE
  5
60C20
330
1F
100
AcDbEntity
  8
1
100
AcDbSpline
210
0.0
220
0.0
230
1.0
 70
     8
 71
     3
 72
    15
 73
    11
 74
     0
 42
0.0000000001
 43
0.0000000001
 40
0.0
 40
0.0
 40
0.0
 40
0.0
 40
0.1257624577
 40
0.251400551
 40
0.3768323277
 40
0.5019843443000001
 40
0.6268343870000001
 40
0.7514046959
 40
0.8757604770999998
 40
1.0
 40
1.0
 40
1.0
 40
1.0
 10
33.63063091499995
 20
13.90527739490001
 30
0.0
 10
33.63063091499995
 20
13.76153112520001
 30
0.0
 10
33.65861148659997
 20
13.47340165460004
 30
0.0
 10
33.78296854909996
 20
13.05832009110003
 30
0.0
 10
33.98492136979996
 20
12.67554495940003
 30
0.0
 10
34.25679016549995
 20
12.33999074700004
 30
0.0
 10
34.58814427509998
 20
12.06452449470001
 30
0.0
 10
34.96632980919998
 20
11.85978311720002
 30
0.0
 10
35.37659004189999
 20
11.73367448680004
 30
0.0
 10
35.66153970649998
 20
11.70527739490001
 30
0.0
 10
35.80354526429997
 20
11.70527739490001
 30
0.0
  0
SPLINE
  5
60C21
330
1F
100
AcDbEntity
  8
1
100
AcDbSpline
210
0.0
220
0.0
230
1.0
 70
     8
 71
     3
 72
    13
 73
     9
 74
     0
 42
0.0000000001
 43
0.0000000001
 40
0.0
 40
0.0
 40
0.0
 40
0.0
 40
0.1249408587
 40
0.25019142
 40
0.5
 40
0.74980858
 40
0.8750591412999998
 40
1.0
 40
1.0
 40
1.0
 40
1.0
 10
36.73475079020001
 20
14.23582649730001
 30
0.0
 10
36.71326577699998
 20
14.21427709800001
 30
0.0
 10
36.6744144571
 20
14.16670563550001
 30
0.0
 10
36.61692266149998
 20
14.05864715620001
 30
0.0
 10
36.58643188279999
 20
13.90527739490001
 30
0.0
 10
36.61692266149998
 20
13.75190763350004
 30
0.0
 10
36.6744144571
 20
13.64384915420002
 30
0.0
 10
36.71326577699998
 20
13.59627769170002
 30
0.0
 10
36.73475079020001
 20
13.57472829240002
 30
0.0
  0
SPLINE
  5
60C22
330
1F
100
AcDbEntity
  8
1
100
AcDbSpline
210
0.0
220
0.0
230
1.0
 70
     8
 71
     3
 72
    15
 73
    11
 74
     0
 42
0.0000000001
 43
0.0000000001
 40
0.0
 40
0.0
 40
0.0
 40
0.0
 40
0.1250615808
 40
0.2504787492
 40
0.3760837462
 40
0.5015998426000003
 40
0.6268015535
 40
0.7515623370000001
 40
0.8759097198999999
 40
1.0
 40
1.0
 40
1.0
 40
1.0
 10
36.73475079020001
 20
14.23582649730001
 30
0.0
 10
36.7496339263
 20
14.25075423510002
 30
0.0
 10
36.7751581726
 20
14.28528702100002
 30
0.0
 10
36.79675181799996
 20
14.34580753420003
 30
0.0
 10
36.80008385049996
 20
14.41010023190002
 30
0.0
 10
36.7848055842
 20
14.47259488410002
 30
0.0
 10
36.75224269679997
 20
14.52792340290003
 30
0.0
 10
36.70515179170003
 20
14.57130174770002
 30
0.0
 10
36.64765442069998
 20
14.59894440730001
 30
0.0
 10
36.60551346769998
 20
14.60528208020003
 30
0.0
 10
36.58459768909998
 20
14.60527754350003
 30
0.0
  0
SPLINE
  5
60C23
330
1F
100
AcDbEntity
  8
1
100
AcDbSpline
210
0.0
220
0.0
230
1.0
 70
     8
 71
     3
 72
    11
 73
     7
 74
     0
 42
0.0000000001
 43
0.0000000001
 40
0.0
 40
0.0
 40
0.0
 40
0.0
 40
0.2513456686
 40
0.5017415717000003
 40
0.7511852959000001
 40
1.0
 40
1.0
 40
1.0
 40
1.0
 10
35.96294332149998
 20
14.92820154360002
 30
0.0
 10
35.97566525309998
 20
14.87921138200003
 30
0.0
 10
36.01731868769997
 20
14.78483975440004
 30
0.0
 10
36.12150416249998
 20
14.67153953660004
 30
0.0
 10
36.25624992520001
 20
14.59813457690001
 30
0.0
 10
36.35737410109996
 20
14.58121780740001
 30
0.0
 10
36.40747947599999
 20
14.58122660110003
 30
0.0
  0
SPLINE
  5
60C24
330
1F
100
AcDbEntity
  8
1
100
AcDbSpline
210
0.0
220
0.0
230
1.0
 70
     8
 71
     3
 72
    11
 73
     7
 74
     0
 42
0.0000000001
 43
0.0000000001
 40
0.0
 40
0.0
 40
0.0
 40
0.0
 40
0.2513500126
 40
0.5017308986
 40
0.7511749561
 40
1.0
 40
1.0
 40
1.0
 40
1.0
 10
35.96294332149998
 20
14.92820154360002
 30
0.0
 10
35.95703813649999
 20
14.95094148390001
 30
0.0
 10
35.937707564
 20
14.99474661060002
 30
0.0
 10
35.88934661699997
 20
15.04733231920004
 30
0.0
 10
35.82681224999996
 20
15.08141998500001
 30
0.0
 10
35.77987308259998
 20
15.08927739490001
 30
0.0
 10
35.75661492479998
 20
15.08927739490001
 30
0.0
  0
SPLINE
  5
60C25
330
1F
100
AcDbEntity
  8
1
100
AcDbSpline
210
0.0
220
0.0
230
1.0
 70
     8
 71
     3
 72
    15
 73
    11
 74
     0
 42
0.0000000001
 43
0.0000000001
 40
0.0
 40
0.0
 40
0.0
 40
0.0
 40
0.1242395229
 40
0.2485953041
 40
0.3731656129999999
 40
0.4980156557
 40
0.6231676723
 40
0.7485994490000003
 40
0.8742375423
 40
1.0
 40
1.0
 40
1.0
 40
1.0
 10
35.80354526429997
 20
11.70527739490001
 30
0.0
 10
35.94555082219998
 20
11.70527739490001
 30
0.0
 10
36.23050048669997
 20
11.73367448680004
 30
0.0
 10
36.64076071939999
 20
11.85978311720002
 30
0.0
 10
37.01894625350003
 20
12.06452449470001
 30
0.0
 10
37.35030036310003
 20
12.33999074700004
 30
0.0
 10
37.62216915879998
 20
12.67554495940003
 30
0.0
 10
37.82412197949997
 20
13.05832009110003
 30
0.0
 10
37.94847904209999
 20
13.47340165460004
 30
0.0
 10
37.97645961359999
 20
13.76153112520001
 30
0.0
 10
37.97645961359999
 20
13.90527739490001
 30
0.0
  0
SPLINE
  5
60C26
330
1F
100
AcDbEntity
  8
1
100
AcDbSpline
210
0.0
220
0.0
230
1.0
 70
     8
 71
     3
 72
    15
 73
    11
 74
     0
 42
0.0000000001
 43
0.0000000001
 40
0.0
 40
0.0
 40
0.0
 40
0.0
 40
0.1242395229
 40
0.2485953041
 40
0.3731656129999999
 40
0.4980156557
 40
0.6231676723
 40
0.7485994490000003
 40
0.8742375423
 40
1.0
 40
1.0
 40
1.0
 40
1.0
 10
35.80354526429997
 20
16.10527739490003
 30
0.0
 10
35.94555082219998
 20
16.10527739490003
 30
0.0
 10
36.23050048669997
 20
16.07688030290001
 30
0.0
 10
36.64076071939999
 20
15.95077167250001
 30
0.0
 10
37.01894625350003
 20
15.74603029500001
 30
0.0
 10
37.35030036310003
 20
15.47056404270002
 30
0.0
 10
37.62216915879998
 20
15.13500983030002
 30
0.0
 10
37.82412197949997
 20
14.75223469860002
 30
0.0
 10
37.94847904209999
 20
14.33715313510002
 30
0.0
 10
37.97645961359999
 20
14.04902366460003
 30
0.0
 10
37.97645961359999
 20
13.90527739490001
 30
0.0
  0
SPLINE
  5
60C27
330
1F
100
AcDbEntity
  8
1
100
AcDbSpline
210
0.0
220
0.0
230
1.0
 70
     8
 71
     3
 72
    15
 73
    11
 74
     0
 42
0.0000000001
 43
0.0000000001
 40
0.0
 40
0.0
 40
0.0
 40
0.0
 40
0.1240902801
 40
0.248437663
 40
0.3731984465
 40
0.4984001574000001
 40
0.6239162538000002
 40
0.7495212508
 40
0.8749384192
 40
1.0
 40
1.0
 40
1.0
 40
1.0
 10
34.92863216049997
 20
14.60527754350003
 30
0.0
 10
34.9077163819
 20
14.60528208020003
 30
0.0
 10
34.86557542889997
 20
14.59894440730001
 30
0.0
 10
34.80807805789999
 20
14.57130174770002
 30
0.0
 10
34.7609871529
 20
14.52792340290003
 30
0.0
 10
34.72842426539998
 20
14.47259488410002
 30
0.0
 10
34.71314599909997
 20
14.41010023190002
 30
0.0
 10
34.71647803159996
 20
14.34580753420003
 30
0.0
 10
34.73807167699997
 20
14.28528702100002
 30
0.0
 10
34.76359592329999
 20
14.25075423510002
 30
0.0
 10
34.77847905939999
 20
14.23582649730001
 30
0.0
  0
SPLINE
  5
60C28
330
1F
100
AcDbEntity
  8
1
100
AcDbSpline
210
0.0
220
0.0
230
1.0
 70
     8
 71
     3
 72
    11
 73
     7
 74
     0
 42
0.0000000001
 43
0.0000000001
 40
0.0
 40
0.0
 40
0.0
 40
0.0
 40
0.2488147041
 40
0.4982584283
 40
0.7486543314000002
 40
1.0
 40
1.0
 40
1.0
 40
1.0
 10
35.10575037359999
 20
14.58122660110003
 30
0.0
 10
35.15585574849999
 20
14.58121780740001
 30
0.0
 10
35.2569799244
 20
14.59813457690001
 30
0.0
 10
35.39172568710001
 20
14.67153953660004
 30
0.0
 10
35.49591116189998
 20
14.78483975440004
 30
0.0
 10
35.53756459649998
 20
14.87921138200003
 30
0.0
 10
35.55028652809998
 20
14.92820154360002
 30
0.0
  0
SPLINE
  5
60C29
330
1F
100
AcDbEntity
  8
1
100
AcDbSpline
210
0.0
220
0.0
230
1.0
 70
     8
 71
     3
 72
    11
 73
     7
 74
     0
 42
0.0000000001
 43
0.0000000001
 40
0.0
 40
0.0
 40
0.0
 40
0.0
 40
0.2488250439
 40
0.4982691014000002
 40
0.7486499874
 40
1.0
 40
1.0
 40
1.0
 40
1.0
 10
35.75661492479998
 20
15.08927739490001
 30
0.0
 10
35.73335676709999
 20
15.08927739490001
 30
0.0
 10
35.68641759959999
 20
15.08141998500001
 30
0.0
 10
35.62388323259998
 20
15.04733231920004
 30
0.0
 10
35.57552228559999
 20
14.99474661060002
 30
0.0
 10
35.55619171309999
 20
14.95094148390001
 30
0.0
 10
35.55028652809998
 20
14.92820154360002
 30
0.0
  0
SPLINE
  5
60C2A
330
1F
100
AcDbEntity
  8
1
100
AcDbSpline
210
0.0
220
0.0
230
1.0
 70
     8
 71
     3
 72
    27
 73
    23
 74
     0
 42
0.0000000001
 43
0.0000000001
 40
0.0
 40
0.0
 40
0.0
 40
0.0
 40
0.0628624026
 40
0.0943105621
 40
0.125736703
 40
0.1884339888
 40
0.2509911552
 40
0.282250729
 40
0.3134730952
 40
0.3757396014
 40
0.437898863
 40
0.5
 40
0.5621011370000001
 40
0.6242603986000002
 40
0.6865269048
 40
0.717749271
 40
0.7490088448000001
 40
0.8115660112
 40
0.874263297
 40
0.9056894379
 40
0.9371375973999999
 40
1.0
 40
1.0
 40
1.0
 40
1.0
 10
33.88000707769999
 20
13.90527739490001
 30
0.0
 10
33.88000707769999
 20
14.02942190170002
 30
0.0
 10
33.89818285199996
 20
14.21632897610003
 30
0.0
 10
33.95791426119999
 20
14.45763878190003
 30
0.0
 10
34.04063978849999
 20
14.69179738550001
 30
0.0
 10
34.18596416029999
 20
14.9673228849
 30
0.0
 10
34.38190981769998
 20
15.20909494080003
 30
0.0
 10
34.56411611219997
 20
15.37628003930002
 30
0.0
 10
34.76136536969995
 20
15.52445177650001
 30
0.0
 10
35.03357267620002
 20
15.67187148940002
 30
0.0
 10
35.38796580859997
 20
15.78074355200002
 30
0.0
 10
35.75661492479998
 20
15.81753299480002
 30
0.0
 10
36.12526404109997
 20
15.78074355200002
 30
0.0
 10
36.47965717339997
 20
15.67187148940002
 30
0.0
 10
36.75186447999997
 20
15.52445177650001
 30
0.0
 10
36.94911373739998
 20
15.37628003930002
 30
0.0
 10
37.13132003199997
 20
15.20909494080003
 30
0.0
 10
37.32726568929996
 20
14.9673228849
 30
0.0
 10
37.47259006120001
 20
14.69179738550001
 30
0.0
 10
37.55531558849997
 20
14.45763878190003
 30
0.0
 10
37.61504699759999
 20
14.21632897610003
 30
0.0
 10
37.63322277189999
 20
14.02942190170002
 30
0.0
 10
37.63322277189999
 20
13.90527739490001
 30
0.0
  0
SPLINE
  5
60C2B
330
1F
100
AcDbEntity
  8
1
100
AcDbSpline
210
0.0
220
0.0
230
1.0
 70
     8
 71
     3
 72
    27
 73
    23
 74
     0
 42
0.0000000001
 43
0.0000000001
 40
0.0
 40
0.0
 40
0.0
 40
0.0
 40
0.0628624026
 40
0.0943105621
 40
0.125736703
 40
0.1884339888
 40
0.2509911552
 40
0.282250729
 40
0.3134730952
 40
0.3757396014
 40
0.437898863
 40
0.5
 40
0.5621011370000001
 40
0.6242603986000002
 40
0.6865269048
 40
0.717749271
 40
0.7490088448000001
 40
0.8115660112
 40
0.874263297
 40
0.9056894379
 40
0.9371375973999999
 40
1.0
 40
1.0
 40
1.0
 40
1.0
 10
33.88000707769999
 20
13.90527739490001
 30
0.0
 10
33.88000707769999
 20
13.78113288800001
 30
0.0
 10
33.89818285199996
 20
13.59422581360002
 30
0.0
 10
33.95791426119999
 20
13.35291600780002
 30
0.0
 10
34.04063978849999
 20
13.11875740420002
 30
0.0
 10
34.18596416029999
 20
12.84323190480002
 30
0.0
 10
34.38190981769998
 20
12.6014598489
 30
0.0
 10
34.56411611219997
 20
12.43427475040003
 30
0.0
 10
34.76136536969995
 20
12.28610301320002
 30
0.0
 10
35.03357267620002
 20
12.13868330030003
 30
0.0
 10
35.38796580859997
 20
12.02981123770003
 30
0.0
 10
35.75661492479998
 20
11.99302179490003
 30
0.0
 10
36.12526404109997
 20
12.02981123770003
 30
0.0
 10
36.47965717339997
 20
12.13868330030003
 30
0.0
 10
36.75186447999997
 20
12.28610301320002
 30
0.0
 10
36.94911373739998
 20
12.43427475040003
 30
0.0
 10
37.13132003199997
 20
12.6014598489
 30
0.0
 10
37.32726568929996
 20
12.84323190480002
 30
0.0
 10
37.47259006120001
 20
13.11875740420002
 30
0.0
 10
37.55531558849997
 20
13.35291600780002
 30
0.0
 10
37.61504699759999
 20
13.59422581360002
 30
0.0
 10
37.63322277189999
 20
13.78113288800001
 30
0.0
 10
37.63322277189999
 20
13.90527739490001
 30
0.0
  0
SPLINE
  5
60C2C
330
1F
100
AcDbEntity
  8
1
100
AcDbSpline
210
0.0
220
0.0
230
1.0
 70
     8
 71
     3
 72
    11
 73
     7
 74
     0
 42
0.0000000001
 43
0.0000000001
 40
0.0
 40
0.0
 40
0.0
 40
0.0
 40
0.2513456686
 40
0.5017415717000003
 40
0.7511852959000001
 40
1.0
 40
1.0
 40
1.0
 40
1.0
 10
35.55028652809998
 20
12.88235324610004
 30
0.0
 10
35.53756459649998
 20
12.93134340770002
 30
0.0
 10
35.49591116189998
 20
13.02571503530002
 30
0.0
 10
35.39172568710001
 20
13.13901525310003
 30
0.0
 10
35.2569799244
 20
13.21242021290003
 30
0.0
 10
35.15585574849999
 20
13.22933698230001
 30
0.0
 10
35.10575037359999
 20
13.22932818860003
 30
0.0
  0
SPLINE
  5
60C2D
330
1F
100
AcDbEntity
  8
1
100
AcDbSpline
210
0.0
220
0.0
230
1.0
 70
     8
 71
     3
 72
    11
 73
     7
 74
     0
 42
0.0000000001
 43
0.0000000001
 40
0.0
 40
0.0
 40
0.0
 40
0.0
 40
0.2513500126
 40
0.5017308986
 40
0.7511749561
 40
1.0
 40
1.0
 40
1.0
 40
1.0
 10
35.55028652809998
 20
12.88235324610004
 30
0.0
 10
35.55619171309999
 20
12.85961330580001
 30
0.0
 10
35.57552228559999
 20
12.81580817910002
 30
0.0
 10
35.62388323259998
 20
12.7632224706
 30
0.0
 10
35.68641759959999
 20
12.72913480470001
 30
0.0
 10
35.73335676709999
 20
12.72127739490001
 30
0.0
 10
35.75661492479998
 20
12.72127739490001
 30
0.0
  0
SPLINE
  5
60C2E
330
1F
100
AcDbEntity
  8
1
100
AcDbSpline
210
0.0
220
0.0
230
1.0
 70
     8
 71
     3
 72
    13
 73
     9
 74
     0
 42
0.0000000001
 43
0.0000000001
 40
0.0
 40
0.0
 40
0.0
 40
0.0
 40
0.1249408587
 40
0.25019142
 40
0.5
 40
0.74980858
 40
0.8750591412999998
 40
1.0
 40
1.0
 40
1.0
 40
1.0
 10
34.77847905939999
 20
13.57472829240002
 30
0.0
 10
34.79996407260002
 20
13.59627769170002
 30
0.0
 10
34.83881539249998
 20
13.64384915420002
 30
0.0
 10
34.8963071881
 20
13.75190763350004
 30
0.0
 10
34.92679796679997
 20
13.90527739490001
 30
0.0
 10
34.8963071881
 20
14.05864715620001
 30
0.0
 10
34.83881539249998
 20
14.16670563550001
 30
0.0
 10
34.79996407260002
 20
14.21427709800001
 30
0.0
 10
34.77847905939999
 20
14.23582649730001
 30
0.0
  0
SPLINE
  5
60C2F
330
1F
100
AcDbEntity
  8
1
100
AcDbSpline
210
0.0
220
0.0
230
1.0
 70
     8
 71
     3
 72
    15
 73
    11
 74
     0
 42
0.0000000001
 43
0.0000000001
 40
0.0
 40
0.0
 40
0.0
 40
0.0
 40
0.1250615808
 40
0.2504787492
 40
0.3760837462
 40
0.5015998426000003
 40
0.6268015535
 40
0.7515623370000001
 40
0.8759097198999999
 40
1.0
 40
1.0
 40
1.0
 40
1.0
 10
34.77847905939999
 20
13.57472829240002
 30
0.0
 10
34.76359592329999
 20
13.55980055460004
 30
0.0
 10
34.73807167699997
 20
13.52526776870002
 30
0.0
 10
34.71647803159996
 20
13.46474725550003
 30
0.0
 10
34.71314599909997
 20
13.40045455780002
 30
0.0
 10
34.72842426539998
 20
13.33795990560001
 30
0.0
 10
34.7609871529
 20
13.28263138690003
 30
0.0
 10
34.80807805789999
 20
13.23925304200004
 30
0.0
 10
34.86557542889997
 20
13.21161038240002
 30
0.0
 10
34.9077163819
 20
13.20527270950001
 30
0.0
 10
34.92863216049997
 20
13.20527724620002
 30
0.0
  0
SPLINE
  5
60C30
330
1F
100
AcDbEntity
  8
1
100
AcDbSpline
210
0.0
220
0.0
230
1.0
 70
     8
 71
     3
 72
    15
 73
    11
 74
     0
 42
0.0000000001
 43
0.0000000001
 40
0.0
 40
0.0
 40
0.0
 40
0.0
 40
0.1257624577
 40
0.251400551
 40
0.3768323277
 40
0.5019843443000001
 40
0.6268343870000001
 40
0.7514046959
 40
0.8757604770999998
 40
1.0
 40
1.0
 40
1.0
 40
1.0
 10
41.1486333119
 20
13.67096947480002
 30
0.0
 10
41.1486333119
 20
13.81471574450002
 30
0.0
 10
41.17661388349997
 20
14.10284521500001
 30
0.0
 10
41.30097094599995
 20
14.51792677860003
 30
0.0
 10
41.50292376669996
 20
14.90070191020001
 30
0.0
 10
41.77479256239999
 20
15.23625612260004
 30
0.0
 10
42.10614667199997
 20
15.51172237490002
 30
0.0
 10
42.48433220609996
 20
15.71646375240002
 30
0.0
 10
42.89459243879996
 20
15.84257238280003
 30
0.0
 10
43.17954210339997
 20
15.87096947480002
 30
0.0
 10
43.32154766119997
 20
15.87096947480002
 30
0.0
  0
SPLINE
  5
60C31
330
1F
100
AcDbEntity
  8
1
100
AcDbSpline
210
0.0
220
0.0
230
1.0
 70
     8
 71
     3
 72
    15
 73
    11
 74
     0
 42
0.0000000001
 43
0.0000000001
 40
0.0
 40
0.0
 40
0.0
 40
0.0
 40
0.1240902801
 40
0.248437663
 40
0.3731984465
 40
0.4984001574000001
 40
0.6239162538000002
 40
0.7495212508
 40
0.8749384192
 40
1.0
 40
1.0
 40
1.0
 40
1.0
 10
44.10260008599999
 20
12.97096932610002
 30
0.0
 10
44.12351586459998
 20
12.97096478940003
 30
0.0
 10
44.16565681759999
 20
12.97730246230002
 30
0.0
 10
44.22315418859997
 20
13.00494512190004
 30
0.0
 10
44.27024509359994
 20
13.04832346680003
 30
0.0
 10
44.30280798109996
 20
13.10365198550001
 30
0.0
 10
44.31808624739995
 20
13.16614663770004
 30
0.0
 10
44.31475421479995
 20
13.23043933540001
 30
0.0
 10
44.29316056949994
 20
13.29095984870003
 30
0.0
 10
44.26763632319995
 20
13.32549263460002
 30
0.0
 10
44.25275318709998
 20
13.34042037230001
 30
0.0
  0
SPLINE
  5
60C32
330
1F
100
AcDbEntity
  8
1
100
AcDbSpline
210
0.0
220
0.0
230
1.0
 70
     8
 71
     3
 72
    11
 73
     7
 74
     0
 42
0.0000000001
 43
0.0000000001
 40
0.0
 40
0.0
 40
0.0
 40
0.0
 40
0.2488147041
 40
0.4982584283
 40
0.7486543314000002
 40
1.0
 40
1.0
 40
1.0
 40
1.0
 10
43.92548187289998
 20
12.99502026850003
 30
0.0
 10
43.87537649799995
 20
12.9950290622
 30
0.0
 10
43.77425232209998
 20
12.97811229280001
 30
0.0
 10
43.63950655939995
 20
12.90470733300002
 30
0.0
 10
43.53532108459996
 20
12.79140711520001
 30
0.0
 10
43.49366764999996
 20
12.69703548760002
 30
0.0
 10
43.48094571829995
 20
12.64804532600002
 30
0.0
  0
SPLINE
  5
60C33
330
1F
100
AcDbEntity
  8
1
100
AcDbSpline
210
0.0
220
0.0
230
1.0
 70
     8
 71
     3
 72
    11
 73
     7
 74
     0
 42
0.0000000001
 43
0.0000000001
 40
0.0
 40
0.0
 40
0.0
 40
0.0
 40
0.2488250439
 40
0.4982691014000002
 40
0.7486499874
 40
1.0
 40
1.0
 40
1.0
 40
1.0
 10
43.27461732169999
 20
12.48696947480002
 30
0.0
 10
43.29787547939999
 20
12.48696947480002
 30
0.0
 10
43.34481464689999
 20
12.49482688460004
 30
0.0
 10
43.40734901389995
 20
12.5289145505
 30
0.0
 10
43.45570996089997
 20
12.58150025900001
 30
0.0
 10
43.47504053339997
 20
12.62530538580002
 30
0.0
 10
43.48094571829995
 20
12.64804532600002
 30
0.0
  0
SPLINE
  5
60C34
330
1F
100
AcDbEntity
  8
1
100
AcDbSpline
210
0.0
220
0.0
230
1.0
 70
     8
 71
     3
 72
    15
 73
    11
 74
     0
 42
0.0000000001
 43
0.0000000001
 40
0.0
 40
0.0
 40
0.0
 40
0.0
 40
0.1257624577
 40
0.251400551
 40
0.3768323277
 40
0.5019843443000001
 40
0.6268343870000001
 40
0.7514046959
 40
0.8757604770999998
 40
1.0
 40
1.0
 40
1.0
 40
1.0
 10
41.1486333119
 20
13.67096947480002
 30
0.0
 10
41.1486333119
 20
13.5272232051
 30
0.0
 10
41.17661388349997
 20
13.23909373460004
 30
0.0
 10
41.30097094599995
 20
12.82401217100003
 30
0.0
 10
41.50292376669996
 20
12.44123703930002
 30
0.0
 10
41.77479256239999
 20
12.10568282690003
 30
0.0
 10
42.10614667199997
 20
11.83021657460003
 30
0.0
 10
42.48433220609996
 20
11.62547519710003
 30
0.0
 10
42.89459243879996
 20
11.49936656670002
 30
0.0
 10
43.17954210339997
 20
11.47096947480001
 30
0.0
 10
43.32154766119997
 20
11.47096947480001
 30
0.0
  0
SPLINE
  5
60C35
330
1F
100
AcDbEntity
  8
1
100
AcDbSpline
210
0.0
220
0.0
230
1.0
 70
     8
 71
     3
 72
    13
 73
     9
 74
     0
 42
0.0000000001
 43
0.0000000001
 40
0.0
 40
0.0
 40
0.0
 40
0.0
 40
0.1249408587
 40
0.25019142
 40
0.5
 40
0.74980858
 40
0.8750591412999998
 40
1.0
 40
1.0
 40
1.0
 40
1.0
 10
44.25275318709998
 20
14.00151857720002
 30
0.0
 10
44.23126817389996
 20
13.97996917790002
 30
0.0
 10
44.19241685399998
 20
13.93239771540003
 30
0.0
 10
44.13492505839997
 20
13.82433923610004
 30
0.0
 10
44.10443427969997
 20
13.67096947480002
 30
0.0
 10
44.13492505839997
 20
13.51759971340002
 30
0.0
 10
44.19241685399998
 20
13.40954123410002
 30
0.0
 10
44.23126817389996
 20
13.36196977160001
 30
0.0
 10
44.25275318709998
 20
13.34042037230001
 30
0.0
  0
SPLINE
  5
60C36
330
1F
100
AcDbEntity
  8
1
100
AcDbSpline
210
0.0
220
0.0
230
1.0
 70
     8
 71
     3
 72
    15
 73
    11
 74
     0
 42
0.0000000001
 43
0.0000000001
 40
0.0
 40
0.0
 40
0.0
 40
0.0
 40
0.1250615808
 40
0.2504787492
 40
0.3760837462
 40
0.5015998426000003
 40
0.6268015535
 40
0.7515623370000001
 40
0.8759097198999999
 40
1.0
 40
1.0
 40
1.0
 40
1.0
 10
44.25275318709998
 20
14.00151857720002
 30
0.0
 10
44.26763632319995
 20
14.01644631500004
 30
0.0
 10
44.29316056949994
 20
14.05097910090001
 30
0.0
 10
44.31475421479995
 20
14.11149961410002
 30
0.0
 10
44.31808624739995
 20
14.17579231180004
 30
0.0
 10
44.30280798109996
 20
14.238286964
 30
0.0
 10
44.27024509359994
 20
14.29361548280003
 30
0.0
 10
44.22315418859997
 20
14.33699382770003
 30
0.0
 10
44.16565681759999
 20
14.36463648720002
 30
0.0
 10
44.12351586459998
 20
14.37097416010002
 30
0.0
 10
44.10260008599999
 20
14.37096962340002
 30
0.0
  0
SPLINE
  5
60C37
330
1F
100
AcDbEntity
  8
1
100
AcDbSpline
210
0.0
220
0.0
230
1.0
 70
     8
 71
     3
 72
    11
 73
     7
 74
     0
 42
0.0000000001
 43
0.0000000001
 40
0.0
 40
0.0
 40
0.0
 40
0.0
 40
0.2513456686
 40
0.5017415717000003
 40
0.7511852959000001
 40
1.0
 40
1.0
 40
1.0
 40
1.0
 10
43.48094571829995
 20
14.69389362350002
 30
0.0
 10
43.49366764999996
 20
14.64490346190003
 30
0.0
 10
43.53532108459996
 20
14.55053183430002
 30
0.0
 10
43.63950655939995
 20
14.43723161650003
 30
0.0
 10
43.77425232209998
 20
14.36382665680001
 30
0.0
 10
43.87537649799995
 20
14.34690988730001
 30
0.0
 10
43.92548187289998
 20
14.34691868100001
 30
0.0
  0
SPLINE
  5
60C38
330
1F
100
AcDbEntity
  8
1
100
AcDbSpline
210
0.0
220
0.0
230
1.0
 70
     8
 71
     3
 72
    11
 73
     7
 74
     0
 42
0.0000000001
 43
0.0000000001
 40
0.0
 40
0.0
 40
0.0
 40
0.0
 40
0.2513500126
 40
0.5017308986
 40
0.7511749561
 40
1.0
 40
1.0
 40
1.0
 40
1.0
 10
43.48094571829995
 20
14.69389362350002
 30
0.0
 10
43.47504053339997
 20
14.7166335638
 30
0.0
 10
43.45570996089997
 20
14.76043869050001
 30
0.0
 10
43.40734901389995
 20
14.81302439910003
 30
0.0
 10
43.34481464689999
 20
14.84711206500002
 30
0.0
 10
43.29787547939999
 20
14.85496947480003
 30
0.0
 10
43.27461732169999
 20
14.85496947480003
 30
0.0
  0
SPLINE
  5
60C39
330
1F
100
AcDbEntity
  8
1
100
AcDbSpline
210
0.0
220
0.0
230
1.0
 70
     8
 71
     3
 72
    15
 73
    11
 74
     0
 42
0.0000000001
 43
0.0000000001
 40
0.0
 40
0.0
 40
0.0
 40
0.0
 40
0.1242395229
 40
0.2485953041
 40
0.3731656129999999
 40
0.4980156557
 40
0.6231676723
 40
0.7485994490000003
 40
0.8742375423
 40
1.0
 40
1.0
 40
1.0
 40
1.0
 10
43.32154766119997
 20
11.47096947480001
 30
0.0
 10
43.46355321899998
 20
11.47096947480001
 30
0.0
 10
43.74850288359996
 20
11.49936656670002
 30
0.0
 10
44.15876311629995
 20
11.62547519710003
 30
0.0
 10
44.53694865039998
 20
11.83021657460003
 30
0.0
 10
44.86830275999998
 20
12.10568282690003
 30
0.0
 10
45.14017155569995
 20
12.44123703930002
 30
0.0
 10
45.34212437639996
 20
12.82401217100002
 30
0.0
 10
45.46648143889992
 20
13.23909373460004
 30
0.0
 10
45.49446201049997
 20
13.5272232051
 30
0.0
 10
45.49446201049997
 20
13.67096947480002
 30
0.0
  0
SPLINE
  5
60C3A
330
1F
100
AcDbEntity
  8
1
100
AcDbSpline
210
0.0
220
0.0
230
1.0
 70
     8
 71
     3
 72
    15
 73
    11
 74
     0
 42
0.0000000001
 43
0.0000000001
 40
0.0
 40
0.0
 40
0.0
 40
0.0
 40
0.1242395229
 40
0.2485953041
 40
0.3731656129999999
 40
0.4980156557
 40
0.6231676723
 40
0.7485994490000003
 40
0.8742375423
 40
1.0
 40
1.0
 40
1.0
 40
1.0
 10
43.32154766119997
 20
15.87096947480002
 30
0.0
 10
43.46355321899998
 20
15.87096947480002
 30
0.0
 10
43.74850288359996
 20
15.84257238280003
 30
0.0
 10
44.15876311629995
 20
15.71646375240002
 30
0.0
 10
44.53694865039998
 20
15.51172237490002
 30
0.0
 10
44.86830275999998
 20
15.23625612260003
 30
0.0
 10
45.14017155569995
 20
14.90070191020001
 30
0.0
 10
45.34212437639996
 20
14.51792677860003
 30
0.0
 10
45.46648143889992
 20
14.10284521500001
 30
0.0
 10
45.49446201049997
 20
13.81471574450001
 30
0.0
 10
45.49446201049997
 20
13.67096947480002
 30
0.0
  0
SPLINE
  5
60C3B
330
1F
100
AcDbEntity
  8
1
100
AcDbSpline
210
0.0
220
0.0
230
1.0
 70
     8
 71
     3
 72
    15
 73
    11
 74
     0
 42
0.0000000001
 43
0.0000000001
 40
0.0
 40
0.0
 40
0.0
 40
0.0
 40
0.1240902801
 40
0.248437663
 40
0.3731984465
 40
0.4984001574000001
 40
0.6239162538000002
 40
0.7495212508
 40
0.8749384192
 40
1.0
 40
1.0
 40
1.0
 40
1.0
 10
42.44663455739998
 20
14.37096962340003
 30
0.0
 10
42.42571877879997
 20
14.37097416010002
 30
0.0
 10
42.38357782569996
 20
14.36463648720003
 30
0.0
 10
42.32608045469999
 20
14.33699382770003
 30
0.0
 10
42.27898954969997
 20
14.29361548280003
 30
0.0
 10
42.24642666229995
 20
14.238286964
 30
0.0
 10
42.23114839589995
 20
14.17579231180004
 30
0.0
 10
42.23448042849997
 20
14.11149961410002
 30
0.0
 10
42.25607407389992
 20
14.05097910090001
 30
0.0
 10
42.28159832019996
 20
14.01644631500004
 30
0.0
 10
42.29648145629997
 20
14.00151857720003
 30
0.0
  0
SPLINE
  5
60C3C
330
1F
100
AcDbEntity
  8
1
100
AcDbSpline
210
0.0
220
0.0
230
1.0
 70
     8
 71
     3
 72
    11
 73
     7
 74
     0
 42
0.0000000001
 43
0.0000000001
 40
0.0
 40
0.0
 40
0.0
 40
0.0
 40
0.2488147041
 40
0.4982584283
 40
0.7486543314000002
 40
1.0
 40
1.0
 40
1.0
 40
1.0
 10
42.62375277049993
 20
14.34691868100002
 30
0.0
 10
42.67385814539994
 20
14.34690988730001
 30
0.0
 10
42.77498232129996
 20
14.36382665680001
 30
0.0
 10
42.90972808389994
 20
14.43723161650003
 30
0.0
 10
43.01391355879993
 20
14.55053183430003
 30
0.0
 10
43.05556699339996
 20
14.64490346190003
 30
0.0
 10
43.06828892499996
 20
14.69389362350002
 30
0.0
  0
SPLINE
  5
60C3D
330
1F
100
AcDbEntity
  8
1
100
AcDbSpline
210
0.0
220
0.0
230
1.0
 70
     8
 71
     3
 72
    11
 73
     7
 74
     0
 42
0.0000000001
 43
0.0000000001
 40
0.0
 40
0.0
 40
0.0
 40
0.0
 40
0.2488250439
 40
0.4982691014000002
 40
0.7486499874
 40
1.0
 40
1.0
 40
1.0
 40
1.0
 10
43.27461732169999
 20
14.85496947480003
 30
0.0
 10
43.25135916389996
 20
14.85496947480003
 30
0.0
 10
43.20441999649995
 20
14.84711206500002
 30
0.0
 10
43.14188562949996
 20
14.81302439910003
 30
0.0
 10
43.09352468239999
 20
14.76043869050001
 30
0.0
 10
43.07419410999997
 20
14.7166335638
 30
0.0
 10
43.06828892499996
 20
14.69389362350002
 30
0.0
  0
SPLINE
  5
60C3E
330
1F
100
AcDbEntity
  8
1
100
AcDbSpline
210
0.0
220
0.0
230
1.0
 70
     8
 71
     3
 72
    27
 73
    23
 74
     0
 42
0.0000000001
 43
0.0000000001
 40
0.0
 40
0.0
 40
0.0
 40
0.0
 40
0.0628624026
 40
0.0943105621
 40
0.125736703
 40
0.1884339888
 40
0.2509911552
 40
0.282250729
 40
0.3134730952
 40
0.3757396014
 40
0.437898863
 40
0.5
 40
0.5621011370000001
 40
0.6242603986000002
 40
0.6865269048
 40
0.717749271
 40
0.7490088448000001
 40
0.8115660112
 40
0.874263297
 40
0.9056894379
 40
0.9371375973999999
 40
1.0
 40
1.0
 40
1.0
 40
1.0
 10
41.39800947449997
 20
13.67096947480002
 30
0.0
 10
41.39800947449997
 20
13.7951139816
 30
0.0
 10
41.41618524879999
 20
13.98202105600001
 30
0.0
 10
41.47591665799995
 20
14.22333086180001
 30
0.0
 10
41.55864218529997
 20
14.45748946540003
 30
0.0
 10
41.70396655719996
 20
14.73301496480003
 30
0.0
 10
41.89991221449997
 20
14.97478702070002
 30
0.0
 10
42.08211850909992
 20
15.14197211920002
 30
0.0
 10
42.27936776649996
 20
15.29014385640001
 30
0.0
 10
42.55157507309994
 20
15.43756356930002
 30
0.0
 10
42.90596820539997
 20
15.54643563190001
 30
0.0
 10
43.27461732169999
 20
15.58322507470002
 30
0.0
 10
43.64326643789996
 20
15.54643563190001
 30
0.0
 10
43.99765957019996
 20
15.43756356930002
 30
0.0
 10
44.26986687679996
 20
15.29014385640001
 30
0.0
 10
44.46711613419997
 20
15.14197211920002
 30
0.0
 10
44.64932242879997
 20
14.97478702070001
 30
0.0
 10
44.8452680862
 20
14.73301496480003
 30
0.0
 10
44.99059245799995
 20
14.45748946540002
 30
0.0
 10
45.07331798529999
 20
14.22333086180001
 30
0.0
 10
45.13304939449997
 20
13.98202105600001
 30
0.0
 10
45.15122516879997
 20
13.7951139816
 30
0.0
 10
45.15122516879997
 20
13.67096947480002
 30
0.0
  0
SPLINE
  5
60C3F
330
1F
100
AcDbEntity
  8
1
100
AcDbSpline
210
0.0
220
0.0
230
1.0
 70
     8
 71
     3
 72
    27
 73
    23
 74
     0
 42
0.0000000001
 43
0.0000000001
 40
0.0
 40
0.0
 40
0.0
 40
0.0
 40
0.0628624026
 40
0.0943105621
 40
0.125736703
 40
0.1884339888
 40
0.2509911552
 40
0.282250729
 40
0.3134730952
 40
0.3757396014
 40
0.437898863
 40
0.5
 40
0.5621011370000001
 40
0.6242603986000002
 40
0.6865269048
 40
0.717749271
 40
0.7490088448000001
 40
0.8115660112
 40
0.874263297
 40
0.9056894379
 40
0.9371375973999999
 40
1.0
 40
1.0
 40
1.0
 40
1.0
 10
41.39800947449997
 20
13.67096947480002
 30
0.0
 10
41.39800947449997
 20
13.54682496790003
 30
0.0
 10
41.41618524879999
 20
13.35991789350002
 30
0.0
 10
41.47591665799995
 20
13.11860808770002
 30
0.0
 10
41.55864218529997
 20
12.88444948410002
 30
0.0
 10
41.70396655719996
 20
12.6089239847
 30
0.0
 10
41.89991221449997
 20
12.36715192880003
 30
0.0
 10
42.08211850909992
 20
12.19996683030003
 30
0.0
 10
42.27936776649996
 20
12.0517950931
 30
0.0
 10
42.55157507309994
 20
11.90437538030004
 30
0.0
 10
42.90596820539997
 20
11.79550331760001
 30
0.0
 10
43.27461732169999
 20
11.75871387480001
 30
0.0
 10
43.64326643789996
 20
11.79550331760001
 30
0.0
 10
43.99765957019996
 20
11.90437538030004
 30
0.0
 10
44.26986687679996
 20
12.0517950931
 30
0.0
 10
44.46711613419997
 20
12.19996683030003
 30
0.0
 10
44.64932242879997
 20
12.36715192880003
 30
0.0
 10
44.8452680862
 20
12.6089239847
 30
0.0
 10
44.99059245799995
 20
12.88444948410002
 30
0.0
 10
45.07331798529999
 20
13.11860808770001
 30
0.0
 10
45.13304939449997
 20
13.35991789350001
 30
0.0
 10
45.15122516879997
 20
13.54682496790003
 30
0.0
 10
45.15122516879997
 20
13.67096947480002
 30
0.0
  0
SPLINE
  5
60C40
330
1F
100
AcDbEntity
  8
1
100
AcDbSpline
210
0.0
220
0.0
230
1.0
 70
     8
 71
     3
 72
    11
 73
     7
 74
     0
 42
0.0000000001
 43
0.0000000001
 40
0.0
 40
0.0
 40
0.0
 40
0.0
 40
0.2513456686
 40
0.5017415717000003
 40
0.7511852959000001
 40
1.0
 40
1.0
 40
1.0
 40
1.0
 10
43.06828892499996
 20
12.64804532600002
 30
0.0
 10
43.05556699339996
 20
12.69703548760002
 30
0.0
 10
43.01391355879993
 20
12.79140711520001
 30
0.0
 10
42.90972808389994
 20
12.90470733300002
 30
0.0
 10
42.77498232129996
 20
12.97811229280002
 30
0.0
 10
42.67385814539994
 20
12.9950290622
 30
0.0
 10
42.62375277049993
 20
12.99502026850003
 30
0.0
  0
SPLINE
  5
60C41
330
1F
100
AcDbEntity
  8
1
100
AcDbSpline
210
0.0
220
0.0
230
1.0
 70
     8
 71
     3
 72
    11
 73
     7
 74
     0
 42
0.0000000001
 43
0.0000000001
 40
0.0
 40
0.0
 40
0.0
 40
0.0
 40
0.2513500126
 40
0.5017308986
 40
0.7511749561
 40
1.0
 40
1.0
 40
1.0
 40
1.0
 10
43.06828892499996
 20
12.64804532600002
 30
0.0
 10
43.07419410999997
 20
12.62530538580002
 30
0.0
 10
43.09352468239999
 20
12.58150025900001
 30
0.0
 10
43.14188562949996
 20
12.5289145505
 30
0.0
 10
43.20441999649995
 20
12.49482688460004
 30
0.0
 10
43.25135916389996
 20
12.48696947480002
 30
0.0
 10
43.27461732169999
 20
12.48696947480002
 30
0.0
  0
SPLINE
  5
60C42
330
1F
100
AcDbEntity
  8
1
100
AcDbSpline
210
0.0
220
0.0
230
1.0
 70
     8
 71
     3
 72
    13
 73
     9
 74
     0
 42
0.0000000001
 43
0.0000000001
 40
0.0
 40
0.0
 40
0.0
 40
0.0
 40
0.1249408587
 40
0.25019142
 40
0.5
 40
0.74980858
 40
0.8750591412999998
 40
1.0
 40
1.0
 40
1.0
 40
1.0
 10
42.29648145629997
 20
13.34042037230001
 30
0.0
 10
42.31796646949995
 20
13.36196977160001
 30
0.0
 10
42.3568177894
 20
13.40954123410002
 30
0.0
 10
42.41430958489999
 20
13.51759971340002
 30
0.0
 10
42.44480036369997
 20
13.67096947480002
 30
0.0
 10
42.41430958489999
 20
13.82433923610004
 30
0.0
 10
42.3568177894
 20
13.93239771540003
 30
0.0
 10
42.31796646949995
 20
13.97996917790002
 30
0.0
 10
42.29648145629997
 20
14.00151857720003
 30
0.0
  0
SPLINE
  5
60C43
330
1F
100
AcDbEntity
  8
1
100
AcDbSpline
210
0.0
220
0.0
230
1.0
 70
     8
 71
     3
 72
    15
 73
    11
 74
     0
 42
0.0000000001
 43
0.0000000001
 40
0.0
 40
0.0
 40
0.0
 40
0.0
 40
0.1250615808
 40
0.2504787492
 40
0.3760837462
 40
0.5015998426000003
 40
0.6268015535
 40
0.7515623370000001
 40
0.8759097198999999
 40
1.0
 40
1.0
 40
1.0
 40
1.0
 10
42.29648145629997
 20
13.34042037230001
 30
0.0
 10
42.28159832019996
 20
13.32549263460002
 30
0.0
 10
42.25607407389992
 20
13.29095984870004
 30
0.0
 10
42.23448042849997
 20
13.23043933540002
 30
0.0
 10
42.23114839589995
 20
13.16614663770004
 30
0.0
 10
42.24642666229995
 20
13.10365198550001
 30
0.0
 10
42.27898954969997
 20
13.04832346680003
 30
0.0
 10
42.32608045469999
 20
13.00494512190004
 30
0.0
 10
42.38357782569996
 20
12.97730246230002
 30
0.0
 10
42.42571877879997
 20
12.97096478940003
 30
0.0
 10
42.44663455739998
 20
12.97096932610002
 30
0.0
  0
SPLINE
  5
60C44
330
1F
100
AcDbEntity
  8
1
100
AcDbSpline
210
0.0
220
0.0
230
1.0
 70
     8
 71
     3
 72
    10
 73
     6
 74
     0
 42
0.0000000001
 43
0.0000000001
 40
0.0
 40
0.0
 40
0.0
 40
0.0
 40
0.5031494011
 40
0.7553670241
 40
1.0
 40
1.0
 40
1.0
 40
1.0
 10
37.65447525279999
 20
0.2781595340000251
 30
0.0
 10
37.5071062592
 20
0.3287667969000267
 30
0.0
 10
37.27848104240003
 20
0.3851282800000319
 30
0.0
 10
36.970624677
 20
0.4207090375000321
 30
0.0
 10
36.81650271760001
 20
0.4245095853000295
 30
0.0
 10
36.74077143229997
 20
0.4224822398000187
 30
0.0
  0
SPLINE
  5
60C45
330
1F
100
AcDbEntity
  8
1
100
AcDbSpline
210
0.0
220
0.0
230
1.0
 70
     8
 71
     3
 72
     9
 73
     5
 74
     0
 42
0.0000000001
 43
0.0000000001
 40
0.0
 40
0.0
 40
0.0
 40
0.0
 40
0.2931309534
 40
1.0
 40
1.0
 40
1.0
 40
1.0
 10
50.39770356569997
 20
-4.607897738599986
 30
0.0
 10
50.38168957069996
 20
-4.598660923899969
 30
0.0
 10
50.32626462329996
 20
-4.568536168599976
 30
0.0
 10
50.2677522237
 20
-4.544171226099976
 30
0.0
 10
50.22541725729997
 20
-4.530201736299972
 30
0.0
  0
SPLINE
  5
60C46
330
1F
100
AcDbEntity
  8
1
100
AcDbSpline
210
0.0
220
0.0
230
1.0
 70
     8
 71
     3
 72
    10
 73
     6
 74
     0
 42
0.0000000001
 43
0.0000000001
 40
0.0
 40
0.0
 40
0.0
 40
0.0
 40
0.2366146657
 40
0.4761177433000002
 40
1.0
 40
1.0
 40
1.0
 40
1.0
 10
50.7999987426
 20
-4.964366442999973
 30
0.0
 10
50.79999871849998
 20
-4.948207261499972
 30
0.0
 10
50.79601767629998
 20
-4.915526844399976
 30
0.0
 10
50.77092078109997
 20
-4.851371024299978
 30
0.0
 10
50.73463254089997
 20
-4.811252001099987
 30
0.0
 10
50.70684099489998
 20
-4.788720517899959
 30
0.0
  0
SPLINE
  5
60C47
330
1F
100
AcDbEntity
  8
1
100
AcDbSpline
210
0.0
220
0.0
230
1.0
 70
     8
 71
     3
 72
     9
 73
     5
 74
     0
 42
0.0000000001
 43
0.0000000001
 40
0.0
 40
0.0
 40
0.0
 40
0.0
 40
0.2457231817
 40
1.0
 40
1.0
 40
1.0
 40
1.0
 10
50.79999951679996
 20
-5.822891173199978
 30
0.0
 10
50.79999951599997
 20
-5.824876693799963
 30
0.0
 10
50.79975949489995
 20
-5.832956109599963
 30
0.0
 10
50.79856644739998
 20
-5.841000009599965
 30
0.0
 10
50.79720723749996
 20
-5.846941310799977
 30
0.0
  0
SPLINE
  5
60C48
330
1F
100
AcDbEntity
  8
1
100
AcDbSpline
210
0.0
220
0.0
230
1.0
 70
     8
 71
     3
 72
    15
 73
    11
 74
     0
 42
0.0000000001
 43
0.0000000001
 40
0.0
 40
0.0
 40
0.0
 40
0.0
 40
0.1258233298
 40
0.2515345073
 40
0.3770451049
 40
0.5022829102000001
 40
0.6272003506
 40
0.7517788497
 40
0.8760306492000001
 40
1.0
 40
1.0
 40
1.0
 40
1.0
 10
38.48073921449998
 20
13.94637174510001
 30
0.0
 10
38.47856974839995
 20
13.82053384360002
 30
0.0
 10
38.45530819609996
 20
13.56888796850001
 30
0.0
 10
38.3644674949
 20
13.20145203290003
 30
0.0
 10
38.21981400799996
 20
12.85222292790003
 30
0.0
 10
38.02473736849999
 20
12.52939041340004
 30
0.0
 10
37.78380398649998
 20
12.24037495150001
 30
0.0
 10
37.50259682569995
 20
11.99181505490001
 30
0.0
 10
37.18774691879997
 20
11.78943291260002
 30
0.0
 10
36.95978062039998
 20
11.68818058250004
 30
0.0
 10
36.84292396609999
 20
11.64669503050002
 30
0.0
  0
SPLINE
  5
60C49
330
1F
100
AcDbEntity
  8
1
100
AcDbSpline
210
0.0
220
0.0
230
1.0
 70
     8
 71
     3
 72
    15
 73
    11
 74
     0
 42
0.0000000001
 43
0.0000000001
 40
0.0
 40
0.0
 40
0.0
 40
0.0
 40
0.1239495882
 40
0.248191229
 40
0.372770412
 40
0.4976977203000001
 40
0.6229502835
 40
0.7484741325
 40
0.8741894134999999
 40
1.0
 40
1.0
 40
1.0
 40
1.0
 10
36.842923966
 20
16.33290706390001
 30
0.0
 10
36.96313418629998
 20
16.29023095470001
 30
0.0
 10
37.1974844617
 20
16.18552323130001
 30
0.0
 10
37.52008386929997
 20
15.97513677200003
 30
0.0
 10
37.80665571729997
 20
15.71619282480002
 30
0.0
 10
38.05004705909997
 20
15.41500173030003
 30
0.0
 10
38.24428965629997
 20
15.07888756990002
 30
0.0
 10
38.38457010149998
 20
14.7160293822
 30
0.0
 10
38.46741406389995
 20
14.33543331690001
 30
0.0
 10
38.48297106989998
 20
14.0758284842
 30
0.0
 10
38.48073921449998
 20
13.94637174510001
 30
0.0
  0
SPLINE
  5
60C4A
330
1F
100
AcDbEntity
  8
1
100
AcDbSpline
210
0.0
220
0.0
230
1.0
 70
     8
 71
     3
 72
    15
 73
    11
 74
     0
 42
0.0000000001
 43
0.0000000001
 40
0.0
 40
0.0
 40
0.0
 40
0.0
 40
0.1258233298
 40
0.2515345073
 40
0.3770451049
 40
0.5022829102000001
 40
0.6272003506
 40
0.7517788497
 40
0.8760306492000001
 40
1.0
 40
1.0
 40
1.0
 40
1.0
 10
45.88727354599997
 20
13.8154786968
 30
0.0
 10
45.88510407999996
 20
13.68964079540001
 30
0.0
 10
45.8618425276
 20
13.43799492030003
 30
0.0
 10
45.77100182649999
 20
13.07055898460002
 30
0.0
 10
45.62634833959998
 20
12.72132987960005
 30
0.0
 10
45.43127170009998
 20
12.39849736510002
 30
0.0
 10
45.19033831809998
 20
12.10948190320003
 30
0.0
 10
44.90913115729996
 20
11.86092200660002
 30
0.0
 10
44.59428125039997
 20
11.65853986440002
 30
0.0
 10
44.36631495199998
 20
11.55728753420003
 30
0.0
 10
44.2494582976
 20
11.51580198220002
 30
0.0
  0
SPLINE
  5
60C4B
330
1F
100
AcDbEntity
  8
1
100
AcDbSpline
210
0.0
220
0.0
230
1.0
 70
     8
 71
     3
 72
    15
 73
    11
 74
     0
 42
0.0000000001
 43
0.0000000001
 40
0.0
 40
0.0
 40
0.0
 40
0.0
 40
0.1239495882
 40
0.248191229
 40
0.372770412
 40
0.4976977203000001
 40
0.6229502835
 40
0.7484741325
 40
0.8741894134999999
 40
1.0
 40
1.0
 40
1.0
 40
1.0
 10
44.2494582976
 20
16.20201401570001
 30
0.0
 10
44.36966851789998
 20
16.1593379064
 30
0.0
 10
44.60401879329999
 20
16.054630183
 30
0.0
 10
44.92661820089997
 20
15.8442437238
 30
0.0
 10
45.21319004889996
 20
15.58529977660002
 30
0.0
 10
45.45658139069995
 20
15.28410868200001
 30
0.0
 10
45.65082398779998
 20
14.94799452160001
 30
0.0
 10
45.79110443309996
 20
14.585136334
 30
0.0
 10
45.87394839539996
 20
14.20454026860003
 30
0.0
 10
45.88950540149997
 20
13.94493543590003
 30
0.0
 10
45.88727354599997
 20
13.8154786968
 30
0.0
  0
LINE
  5
60C4C
330
1F
100
AcDbEntity
  8
1
100
AcDbLine
 10
50.41758697638734
 20
18.67422107773341
 30
0.0
 11
49.97930317319995
 21
18.69350994800003
 31
0.0
  0
ARC
  5
60C4D
102
{ACAD_REACTORS
330
60D00
102
}
330
1F
100
AcDbEntity
  8
1
100
AcDbCircle
 10
50.39999999999999
 20
18.274607891938
 30
0.0
 40
0.4
100
AcDbArc
 50
0.0
 51
87.4800388468258
  0
LINE
  5
60C4E
330
1F
100
AcDbEntity
  8
1
100
AcDbLine
 10
49.12752561139996
 20
18.72973752020002
 30
0.0
 11
49.97930317319995
 21
18.69350994800003
 31
0.0
  0
LINE
  5
60C4F
330
1F
100
AcDbEntity
  8
1
100
AcDbLine
 10
48.30095769389992
 20
18.76357368850001
 30
0.0
 11
49.12752561139996
 21
18.72973752020002
 31
0.0
  0
LINE
  5
60C50
330
1F
100
AcDbEntity
  8
1
100
AcDbLine
 10
47.49776144269997
 20
18.79511461770004
 30
0.0
 11
48.30095769389992
 21
18.76357368850001
 31
0.0
  0
LINE
  5
60C51
330
1F
100
AcDbEntity
  8
1
100
AcDbLine
 10
46.71628367079998
 20
18.82444770910003
 30
0.0
 11
47.49776144269997
 21
18.79511461770004
 31
0.0
  0
LINE
  5
60C52
330
1F
100
AcDbEntity
  8
1
100
AcDbLine
 10
45.95500226319993
 20
18.85165434990001
 30
0.0
 11
46.71628367079998
 21
18.82444770910003
 31
0.0
  0
LINE
  5
60C53
330
1F
100
AcDbEntity
  8
1
100
AcDbLine
 10
45.21251665649997
 20
18.87681041590004
 30
0.0
 11
45.95500226319993
 21
18.85165434990001
 31
0.0
  0
LINE
  5
60C54
330
1F
100
AcDbEntity
  8
1
100
AcDbLine
 10
44.48773610839995
 20
18.89997675160001
 30
0.0
 11
45.21251665649997
 21
18.87681041590004
 31
0.0
  0
LINE
  5
60C55
330
1F
100
AcDbEntity
  8
1
100
AcDbLine
 10
43.77966498649999
 20
18.92121007710004
 30
0.0
 11
44.48773610839995
 21
18.89997675160001
 31
0.0
  0
LINE
  5
60C56
330
1F
100
AcDbEntity
  8
1
100
AcDbLine
 10
43.08745748819996
 20
18.94056023660003
 30
0.0
 11
43.77966498649999
 21
18.92121007710004
 31
0.0
  0
LINE
  5
60C57
330
1F
100
AcDbEntity
  8
1
100
AcDbLine
 10
42.41033734699995
 20
18.95807428350004
 30
0.0
 11
43.08745748819996
 21
18.94056023660003
 31
0.0
  0
LINE
  5
60C58
330
1F
100
AcDbEntity
  8
1
100
AcDbLine
 10
41.74759045019996
 20
18.97379686900002
 30
0.0
 11
42.41033734699995
 21
18.95807428350004
 31
0.0
  0
LINE
  5
60C59
330
1F
100
AcDbEntity
  8
1
100
AcDbLine
 10
41.09859071959998
 20
18.9877689489
 30
0.0
 11
41.74759045019996
 21
18.97379686900002
 31
0.0
  0
LINE
  5
60C5A
330
1F
100
AcDbEntity
  8
1
100
AcDbLine
 10
40.46281416939999
 20
19.00002709230001
 30
0.0
 11
41.09859071959998
 21
18.9877689489
 31
0.0
  0
LINE
  5
60C5B
330
1F
100
AcDbEntity
  8
1
100
AcDbLine
 10
39.8397730185
 20
19.01060682920003
 30
0.0
 11
40.46281416939999
 21
19.00002709230001
 31
0.0
  0
LINE
  5
60C5C
330
1F
100
AcDbEntity
  8
1
100
AcDbLine
 10
39.22901058929998
 20
19.01954291830001
 30
0.0
 11
39.8397730185
 21
19.01060682920003
 31
0.0
  0
LINE
  5
60C5D
330
1F
100
AcDbEntity
  8
1
100
AcDbLine
 10
38.63011676479997
 20
19.0268685803
 30
0.0
 11
39.22901058929998
 21
19.01954291830001
 31
0.0
  0
LINE
  5
60C5E
330
1F
100
AcDbEntity
  8
1
100
AcDbLine
 10
38.0427280037
 20
19.03261551130001
 30
0.0
 11
38.63011676479997
 21
19.0268685803
 31
0.0
  0
LINE
  5
60C5F
330
1F
100
AcDbEntity
  8
1
100
AcDbLine
 10
37.46650056989998
 20
19.03681524290002
 30
0.0
 11
38.0427280037
 21
19.03261551130001
 31
0.0
  0
LINE
  5
60C60
330
1F
100
AcDbEntity
  8
1
100
AcDbLine
 10
36.9011234562
 20
19.03949850210004
 30
0.0
 11
37.46650056989998
 21
19.03681524290002
 31
0.0
  0
LINE
  5
60C61
330
1F
100
AcDbEntity
  8
1
100
AcDbLine
 10
36.34629810710001
 20
19.04069623930002
 30
0.0
 11
36.9011234562
 21
19.03949850210004
 31
0.0
  0
LINE
  5
60C62
330
1F
100
AcDbEntity
  8
1
100
AcDbLine
 10
35.80174832889998
 20
19.04043913780001
 30
0.0
 11
36.34629810710001
 21
19.04069623930002
 31
0.0
  0
LINE
  5
60C63
330
1F
100
AcDbEntity
  8
1
100
AcDbLine
 10
35.30703841829998
 20
19.03889192170003
 30
0.0
 11
35.80174832889998
 21
19.04043913780001
 31
0.0
  0
LINE
  5
60C64
330
1F
100
AcDbEntity
  8
1
100
AcDbLine
 10
35.26722255479997
 20
19.03875751070001
 30
0.0
 11
35.30703841829998
 21
19.03889192170003
 31
0.0
  0
LINE
  5
60C65
330
1F
100
AcDbEntity
  8
1
100
AcDbLine
 10
34.74247696830004
 20
19.03568215090002
 30
0.0
 11
35.26722255479997
 21
19.03875751070001
 31
0.0
  0
LINE
  5
60C66
330
1F
100
AcDbEntity
  8
1
100
AcDbLine
 10
34.22726671339996
 20
19.03124477060002
 30
0.0
 11
34.74247696830004
 21
19.03568215090002
 31
0.0
  0
LINE
  5
60C67
330
1F
100
AcDbEntity
  8
1
100
AcDbLine
 10
33.9771160249
 20
19.028425037
 30
0.0
 11
34.22726671339996
 21
19.03124477060002
 31
0.0
  0
LINE
  5
60C68
330
1F
100
AcDbEntity
  8
1
100
AcDbLine
 10
33.93751084069996
 20
19.03056368000001
 30
0.0
 11
33.9771160249
 21
19.028425037
 31
0.0
  0
LINE
  5
60C69
330
1F
100
AcDbEntity
  8
1
100
AcDbLine
 10
28.47742840359999
 20
9.173962445200018
 30
0.0
 11
28.90979663089996
 21
9.155199098100027
 31
0.0
  0
LINE
  5
60C6A
330
1F
100
AcDbEntity
  8
1
100
AcDbLine
 10
29.77462912629997
 20
9.118971526000036
 30
0.0
 11
28.90979663089996
 21
9.155199098100027
 31
0.0
  0
LINE
  5
60C6B
330
1F
100
AcDbEntity
  8
1
100
AcDbLine
 10
30.61508546799996
 20
9.085135357600035
 30
0.0
 11
29.77462912629997
 21
9.118971526000036
 31
0.0
  0
LINE
  5
60C6C
330
1F
100
AcDbEntity
  8
1
100
AcDbLine
 10
31.43293273379999
 20
9.053594428400016
 30
0.0
 11
30.61508546799996
 21
9.085135357600035
 31
0.0
  0
LINE
  5
60C6D
330
1F
100
AcDbEntity
  8
1
100
AcDbLine
 10
32.22975918479998
 20
9.024261337000027
 30
0.0
 11
31.43293273379999
 21
9.053594428400016
 31
0.0
  0
LINE
  5
60C6E
330
1F
100
AcDbEntity
  8
1
100
AcDbLine
 10
33.00702619789999
 20
8.997054696200036
 30
0.0
 11
32.22975918479998
 21
9.024261337000027
 31
0.0
  0
LINE
  5
60C6F
330
1F
100
AcDbEntity
  8
1
100
AcDbLine
 10
33.76607750519998
 20
8.971898630200016
 30
0.0
 11
33.00702619789999
 21
8.997054696200036
 31
0.0
  0
LINE
  5
60C70
330
1F
100
AcDbEntity
  8
1
100
AcDbLine
 10
34.50795734129997
 20
8.94873229460004
 30
0.0
 11
33.76607750519998
 21
8.971898630200016
 31
0.0
  0
LINE
  5
60C71
330
1F
100
AcDbEntity
  8
1
100
AcDbLine
 10
35.23361786019999
 20
8.92749896900001
 30
0.0
 11
34.50795734129997
 21
8.94873229460004
 31
0.0
  0
LINE
  5
60C72
330
1F
100
AcDbEntity
  8
1
100
AcDbLine
 10
35.9438662851
 20
8.908148809600035
 30
0.0
 11
35.23361786019999
 21
8.92749896900001
 31
0.0
  0
LINE
  5
60C73
330
1F
100
AcDbEntity
  8
1
100
AcDbLine
 10
36.63944249069996
 20
8.890634762700031
 30
0.0
 11
35.9438662851
 21
8.908148809600035
 31
0.0
  0
LINE
  5
60C74
330
1F
100
AcDbEntity
  8
1
100
AcDbLine
 10
37.32102615439999
 20
8.874912177100027
 30
0.0
 11
36.63944249069996
 21
8.890634762700031
 31
0.0
  0
LINE
  5
60C75
330
1F
100
AcDbEntity
  8
1
100
AcDbLine
 10
37.98921175749996
 20
8.860940097300028
 30
0.0
 11
37.32102615439999
 21
8.874912177100027
 31
0.0
  0
LINE
  5
60C76
330
1F
100
AcDbEntity
  8
1
100
AcDbLine
 10
38.64449499719999
 20
8.848681953800008
 30
0.0
 11
37.98921175749996
 21
8.860940097300028
 31
0.0
  0
LINE
  5
60C77
330
1F
100
AcDbEntity
  8
1
100
AcDbLine
 10
39.2873364637
 20
8.838102216900026
 30
0.0
 11
38.64449499719999
 21
8.848681953800008
 31
0.0
  0
LINE
  5
60C78
330
1F
100
AcDbEntity
  8
1
100
AcDbLine
 10
39.91816658299996
 20
8.829166127800036
 30
0.0
 11
39.2873364637
 21
8.838102216900026
 31
0.0
  0
LINE
  5
60C79
330
1F
100
AcDbEntity
  8
1
100
AcDbLine
 10
40.53737068499993
 20
8.821840465900022
 30
0.0
 11
39.91816658299996
 21
8.829166127800036
 31
0.0
  0
LINE
  5
60C7A
330
1F
100
AcDbEntity
  8
1
100
AcDbLine
 10
41.14528899009999
 20
8.816093534800033
 30
0.0
 11
40.53737068499993
 21
8.821840465900022
 31
0.0
  0
LINE
  5
60C7B
330
1F
100
AcDbEntity
  8
1
100
AcDbLine
 10
41.74224249699995
 20
8.811893803300037
 30
0.0
 11
41.14528899009999
 21
8.816093534800033
 31
0.0
  0
LINE
  5
60C7C
330
1F
100
AcDbEntity
  8
1
100
AcDbLine
 10
42.32852049349997
 20
8.809210544000007
 30
0.0
 11
41.74224249699995
 21
8.811893803300037
 31
0.0
  0
LINE
  5
60C7D
330
1F
100
AcDbEntity
  8
1
100
AcDbLine
 10
42.90440017299997
 20
8.808012806800023
 30
0.0
 11
42.32852049349997
 21
8.809210544000007
 31
0.0
  0
LINE
  5
60C7E
330
1F
100
AcDbEntity
  8
1
100
AcDbLine
 10
43.47013705859999
 20
8.808269908300031
 30
0.0
 11
42.90440017299997
 21
8.808012806800023
 31
0.0
  0
LINE
  5
60C7F
330
1F
100
AcDbEntity
  8
1
100
AcDbLine
 10
43.98454787029999
 20
8.809817124400025
 30
0.0
 11
43.47013705859999
 21
8.808269908300031
 31
0.0
  0
LINE
  5
60C80
330
1F
100
AcDbEntity
  8
1
100
AcDbLine
 10
44.02596281769995
 20
8.809951535400022
 30
0.0
 11
43.98454787029999
 21
8.809817124400025
 31
0.0
  0
LINE
  5
60C81
330
1F
100
AcDbEntity
  8
1
100
AcDbLine
 10
44.57210159429997
 20
8.813026895300033
 30
0.0
 11
44.02596281769995
 21
8.809951535400022
 31
0.0
  0
LINE
  5
60C82
330
1F
100
AcDbEntity
  8
1
100
AcDbLine
 10
45.10877852699997
 20
8.817464275500023
 30
0.0
 11
44.57210159429997
 21
8.813026895300033
 31
0.0
  0
LINE
  5
60C83
330
1F
100
AcDbEntity
  8
1
100
AcDbLine
 10
45.36953118219996
 20
8.820284009200015
 30
0.0
 11
45.10877852699997
 21
8.817464275500023
 31
0.0
  0
LINE
  5
60C84
330
1F
100
AcDbEntity
  8
1
100
AcDbLine
 10
45.40764941129999
 20
8.818145370100024
 30
0.0
 11
45.36953118219996
 21
8.820284009200015
 31
0.0
  0
SPLINE
  5
60C85
330
1F
100
AcDbEntity
  8
1
100
AcDbSpline
210
0.0
220
0.0
230
1.0
 70
     8
 71
     3
 72
     9
 73
     5
 74
     0
 42
0.0000000001
 43
0.0000000001
 40
0.0
 40
0.0
 40
0.0
 40
0.0
 40
0.4962345974000001
 40
1.0
 40
1.0
 40
1.0
 40
1.0
 10
46.5970355785
 20
9.62370278310002
 30
0.0
 10
46.56085639149995
 20
9.5663495513
 30
0.0
 10
46.47325349269997
 20
9.459489401500015
 30
0.0
 10
46.36288437749995
 20
9.376525105500013
 30
0.0
 10
46.3034532078
 20
9.341784792700039
 30
0.0
  0
SPLINE
  5
60C86
330
1F
100
AcDbEntity
  8
1
100
AcDbSpline
210
0.0
220
0.0
230
1.0
 70
     8
 71
     3
 72
     9
 73
     5
 74
     0
 42
0.0000000001
 43
0.0000000001
 40
0.0
 40
0.0
 40
0.0
 40
0.0
 40
0.4991945346000001
 40
1.0
 40
1.0
 40
1.0
 40
1.0
 10
28.20809141379999
 20
9.282494868900029
 30
0.0
 10
28.17653223489998
 20
9.312411185000016
 30
0.0
 10
28.12288768319996
 20
9.383304493400016
 30
0.0
 10
28.09507741319996
 20
9.467694899900024
 30
0.0
 10
28.0882144201
 20
9.510777277900032
 30
0.0
  0
SPLINE
  5
60C87
330
1F
100
AcDbEntity
  8
1
100
AcDbSpline
210
0.0
220
0.0
230
1.0
 70
     8
 71
     3
 72
     9
 73
     5
 74
     0
 42
0.0000000001
 43
0.0000000001
 40
0.0
 40
0.0
 40
0.0
 40
0.0
 40
0.5007727814000003
 40
1.0
 40
1.0
 40
1.0
 40
1.0
 10
28.2080914142
 20
9.282494869400023
 30
0.0
 10
28.24185764559999
 20
9.250486392500036
 30
0.0
 10
28.32121414259999
 20
9.198016994500036
 30
0.0
 10
28.41401935979997
 20
9.176895100600019
 30
0.0
 10
28.46035316370001
 20
9.174764809600032
 30
0.0
  0
SPLINE
  5
60C88
330
1F
100
AcDbEntity
  8
1
100
AcDbSpline
210
0.0
220
0.0
230
1.0
 70
     8
 71
     3
 72
    15
 73
    11
 74
     0
 42
0.0000000001
 43
0.0000000001
 40
0.0
 40
0.0
 40
0.0
 40
0.0
 40
0.1244339786
 40
0.2487947633
 40
0.3732532126
 40
0.4979584107
 40
0.6230046557
 40
0.7484110306999999
 40
0.8741180142000001
 40
1.0
 40
1.0
 40
1.0
 40
1.0
 10
36.84292383119998
 20
16.33290689530003
 30
0.0
 10
36.66118505859998
 20
16.39742736160004
 30
0.0
 10
36.28081919159996
 20
16.48331451450004
 30
0.0
 10
35.69712813760001
 20
16.47302531720002
 30
0.0
 10
35.13178198819999
 20
16.32463147700004
 30
0.0
 10
34.61670575819997
 20
16.04632728020002
 30
0.0
 10
34.18043527219999
 20
15.65378391750003
 30
0.0
 10
33.84717071739999
 20
15.16880838590001
 30
0.0
 10
33.6353115737
 20
14.61880451300002
 30
0.0
 10
33.58278155449998
 20
14.22820203250001
 30
0.0
 10
33.57941856529999
 20
14.03313490630001
 30
0.0
  0
SPLINE
  5
60C89
330
1F
100
AcDbEntity
  8
1
100
AcDbSpline
210
0.0
220
0.0
230
1.0
 70
     8
 71
     3
 72
    27
 73
    23
 74
     0
 42
0.0000000001
 43
0.0000000001
 40
0.0
 40
0.0
 40
0.0
 40
0.0
 40
0.0628624128
 40
0.0943146415
 40
0.1257468377
 40
0.1884544084
 40
0.2510249438
 40
0.2822913128
 40
0.3135201605
 40
0.3757980777
 40
0.4379651001
 40
0.5000691554
 40
0.5621679087000003
 40
0.6243198462000003
 40
0.6865752262
 40
0.7177911106
 40
0.7490440143000001
 40
0.8115880887999999
 40
0.8742732766999999
 40
0.9056969351000001
 40
0.9371428241
 40
1.0
 40
1.0
 40
1.0
 40
1.0
 10
33.01220264419999
 20
14.04184915060001
 30
0.0
 10
33.00884371519999
 20
13.84701753930004
 30
0.0
 10
33.03231508229996
 20
13.55318287890002
 30
0.0
 10
33.11952545609999
 20
13.17282459750002
 30
0.0
 10
33.24300677199997
 20
12.80302855280003
 30
0.0
 10
33.46363664289999
 20
12.36659264930002
 30
0.0
 10
33.7646037767
 20
11.98173469940003
 30
0.0
 10
34.046028686
 20
11.71430042870003
 30
0.0
 10
34.35158235669999
 20
11.47630107730001
 30
0.0
 10
34.77477803879998
 20
11.23739229790003
 30
0.0
 10
35.32800565499997
 20
11.05669559780003
 30
0.0
 10
35.90556107129998
 20
10.98872789450003
 30
0.0
 10
36.48511228859997
 20
11.03623701640001
 30
0.0
 10
37.0442444194
 20
11.19727056150002
 30
0.0
 10
37.47544003769997
 20
11.42108717280003
 30
0.0
 10
37.78901946629998
 20
11.64815042060002
 30
0.0
 10
38.07949450639995
 20
11.90548017580003
 30
0.0
 10
38.39355468219998
 20
12.27948387090001
 30
0.0
 10
38.62908985229996
 20
12.70786038880003
 30
0.0
 10
38.76523824799998
 20
13.07305971200004
 30
0.0
 10
38.86550936499997
 20
13.45012141030003
 30
0.0
 10
38.89908904359998
 20
13.74293756340002
 30
0.0
 10
38.90244769269997
 20
13.93775294380001
 30
0.0
  0
SPLINE
  5
60C8A
330
1F
100
AcDbEntity
  8
1
100
AcDbSpline
210
0.0
220
0.0
230
1.0
 70
     8
 71
     3
 72
    27
 73
    23
 74
     0
 42
0.0000000001
 43
0.0000000001
 40
0.0
 40
0.0
 40
0.0
 40
0.0
 40
0.0628624128
 40
0.0943146415
 40
0.1257468377
 40
0.1884544084
 40
0.2510249438
 40
0.2822913128
 40
0.3135201605
 40
0.3757980777
 40
0.4379651001
 40
0.5000691554
 40
0.5621679087000003
 40
0.6243198462000003
 40
0.6865752262
 40
0.7177911106
 40
0.7490440143000001
 40
0.8115880887999999
 40
0.8742732766999999
 40
0.9056969351000001
 40
0.9371428241
 40
1.0
 40
1.0
 40
1.0
 40
1.0
 10
38.90244769269997
 20
13.93775294380001
 30
0.0
 10
38.90580662159996
 20
14.13258455510002
 30
0.0
 10
38.88233525460001
 20
14.42641921550002
 30
0.0
 10
38.79512488080003
 20
14.80677749690004
 30
0.0
 10
38.6716435649
 20
15.17657354160003
 30
0.0
 10
38.45101369389997
 20
15.61300944510002
 30
0.0
 10
38.15004656009998
 20
15.99786739500003
 30
0.0
 10
37.86862165079997
 20
16.26530166570001
 30
0.0
 10
37.56306798019998
 20
16.50330101720003
 30
0.0
 10
37.13987229799997
 20
16.74220979650002
 30
0.0
 10
36.5866446819
 20
16.92290649660002
 30
0.0
 10
36.00908926559998
 20
16.99087419990002
 30
0.0
 10
35.42953804829997
 20
16.94336507800001
 30
0.0
 10
34.87040591749997
 20
16.78233153290002
 30
0.0
 10
34.43921029909996
 20
16.55851492160003
 30
0.0
 10
34.12563087049995
 20
16.33145167379999
 30
0.0
 10
33.83515583049996
 20
16.07412191860003
 30
0.0
 10
33.52109565469999
 20
15.70011822350003
 30
0.0
 10
33.28556048449997
 20
15.27174170560001
 30
0.0
 10
33.14941208879999
 20
14.90654238240002
 30
0.0
 10
33.04914097189999
 20
14.52948068410002
 30
0.0
 10
33.01556129329998
 20
14.23666453100002
 30
0.0
 10
33.01220264419999
 20
14.04184915060001
 30
0.0
  0
SPLINE
  5
60C8B
330
1F
100
AcDbEntity
  8
1
100
AcDbSpline
210
0.0
220
0.0
230
1.0
 70
     8
 71
     3
 72
    27
 73
    23
 74
     0
 42
0.0000000001
 43
0.0000000001
 40
0.0
 40
0.0
 40
0.0
 40
0.0
 40
0.0628624128
 40
0.0943146415
 40
0.1257468377
 40
0.1884544084
 40
0.2510249438
 40
0.2822913128
 40
0.3135201605
 40
0.3757980777
 40
0.4379651001
 40
0.5000691554
 40
0.5621679087000003
 40
0.6243198462000003
 40
0.6865752262
 40
0.7177911106
 40
0.7490440143000001
 40
0.8115880887999999
 40
0.8742732766999999
 40
0.9056969351000001
 40
0.9371428241
 40
1.0
 40
1.0
 40
1.0
 40
1.0
 10
40.41873697569997
 20
13.91095610230002
 30
0.0
 10
40.41537804679996
 20
13.71612449110002
 30
0.0
 10
40.43884941389996
 20
13.42228983060001
 30
0.0
 10
40.52605978769998
 20
13.04193154920001
 30
0.0
 10
40.64954110359996
 20
12.67213550450002
 30
0.0
 10
40.87017097449995
 20
12.23569960100002
 30
0.0
 10
41.1711381083
 20
11.85084165110002
 30
0.0
 10
41.45256301759999
 20
11.58340738040002
 30
0.0
 10
41.75811668829999
 20
11.345408029
 30
0.0
 10
42.18131237039997
 20
11.10649924960005
 30
0.0
 10
42.73453998659997
 20
10.92580254950003
 30
0.0
 10
43.31209540279998
 20
10.85783484620001
 30
0.0
 10
43.89164662019996
 20
10.9053439681
 30
0.0
 10
44.45077875089995
 20
11.0663775132
 30
0.0
 10
44.88197436929996
 20
11.29019412460003
 30
0.0
 10
45.19555379789993
 20
11.51725737230001
 30
0.0
 10
45.48602883789995
 20
11.77458712750002
 30
0.0
 10
45.80008901379996
 20
12.1485908226
 30
0.0
 10
46.03562418389993
 20
12.5769673406
 30
0.0
 10
46.1717725796
 20
12.94216666370002
 30
0.0
 10
46.27204369659998
 20
13.31922836200002
 30
0.0
 10
46.30562337509998
 20
13.61204451520002
 30
0.0
 10
46.30898202429997
 20
13.8068598955
 30
0.0
  0
SPLINE
  5
60C8C
330
1F
100
AcDbEntity
  8
1
100
AcDbSpline
210
0.0
220
0.0
230
1.0
 70
     8
 71
     3
 72
    27
 73
    23
 74
     0
 42
0.0000000001
 43
0.0000000001
 40
0.0
 40
0.0
 40
0.0
 40
0.0
 40
0.0628624128
 40
0.0943146415
 40
0.1257468377
 40
0.1884544084
 40
0.2510249438
 40
0.2822913128
 40
0.3135201605
 40
0.3757980777
 40
0.4379651001
 40
0.5000691554
 40
0.5621679087000003
 40
0.6243198462000003
 40
0.6865752262
 40
0.7177911106
 40
0.7490440143000001
 40
0.8115880887999999
 40
0.8742732766999999
 40
0.9056969351000001
 40
0.9371428241
 40
1.0
 40
1.0
 40
1.0
 40
1.0
 10
46.30898202429997
 20
13.8068598955
 30
0.0
 10
46.31234095319995
 20
14.00169150680001
 30
0.0
 10
46.28886958609995
 20
14.29552616720001
 30
0.0
 10
46.20165921229996
 20
14.67588444870004
 30
0.0
 10
46.07817789639994
 20
15.04568049330001
 30
0.0
 10
45.85754802549996
 20
15.48211639680004
 30
0.0
 10
45.55658089169997
 20
15.86697434680003
 30
0.0
 10
45.27515598239995
 20
16.1344086174
 30
0.0
 10
44.96960231169999
 20
16.37240796890001
 30
0.0
 10
44.54640662959997
 20
16.61131674820001
 30
0.0
 10
43.99317901349999
 20
16.79201344840002
 30
0.0
 10
43.41562359719997
 20
16.85998115160002
 30
0.0
 10
42.83607237979995
 20
16.8124720297
 30
0.0
 10
42.27694024909996
 20
16.65143848470001
 30
0.0
 10
41.84574463069991
 20
16.42762187330001
 30
0.0
 10
41.5321652021
 20
16.20055862550001
 30
0.0
 10
41.24169016209997
 20
15.94322887030002
 30
0.0
 10
40.92762998619999
 20
15.56922517520002
 30
0.0
 10
40.69209481609994
 20
15.14084865730002
 30
0.0
 10
40.55594642039994
 20
14.77564933420002
 30
0.0
 10
40.45567530339996
 20
14.3985876358
 30
0.0
 10
40.42209562489995
 20
14.10577148270003
 30
0.0
 10
40.41873697569997
 20
13.91095610230002
 30
0.0
  0
SPLINE
  5
60C8D
330
1F
100
AcDbEntity
  8
1
100
AcDbSpline
210
0.0
220
0.0
230
1.0
 70
     8
 71
     3
 72
    15
 73
    11
 74
     0
 42
0.0000000001
 43
0.0000000001
 40
0.0
 40
0.0
 40
0.0
 40
0.0
 40
0.1258772116
 40
0.2515961892
 40
0.3770204076
 40
0.5020803464
 40
0.6267889033000003
 40
0.7512392553
 40
0.8755839674
 40
1.0
 40
1.0
 40
1.0
 40
1.0
 10
33.57941856529999
 20
14.03313490630001
 30
0.0
 10
33.57599345669998
 20
13.83446460650002
 30
0.0
 10
33.61662725019997
 20
13.43494198500003
 30
0.0
 10
33.81667068349998
 20
12.86870264520002
 30
0.0
 10
34.14435241569996
 20
12.36655419950003
 30
0.0
 10
34.58093654370002
 20
11.95790646130002
 30
0.0
 10
35.101313551
 20
11.66630155570002
 30
0.0
 10
35.67559304429997
 20
11.50876811629999
 30
0.0
 10
36.27014196279997
 20
11.49433652540003
 30
0.0
 10
36.65784701069993
 20
11.58099155440003
 30
0.0
 10
36.84292366389997
 20
11.64669519800002
 30
0.0
  0
SPLINE
  5
60C8E
330
1F
100
AcDbEntity
  8
1
100
AcDbSpline
210
0.0
220
0.0
230
1.0
 70
     8
 71
     3
 72
    15
 73
    11
 74
     0
 42
0.0000000001
 43
0.0000000001
 40
0.0
 40
0.0
 40
0.0
 40
0.0
 40
0.1258772116
 40
0.2515961892
 40
0.3770204076
 40
0.5020803464
 40
0.6267889033000003
 40
0.7512392553
 40
0.8755839674
 40
1.0
 40
1.0
 40
1.0
 40
1.0
 10
40.98595289679997
 20
13.90224185810003
 30
0.0
 10
40.98252778829996
 20
13.70357155830002
 30
0.0
 10
41.02316158179997
 20
13.30404893670003
 30
0.0
 10
41.22320501499996
 20
12.73780959690002
 30
0.0
 10
41.55088674719997
 20
12.23566115120003
 30
0.0
 10
41.98747087530001
 20
11.82701341310002
 30
0.0
 10
42.5078478826
 20
11.53540850740002
 30
0.0
 10
43.08212737589997
 20
11.37787506800001
 30
0.0
 10
43.67667629429996
 20
11.36344347710003
 30
0.0
 10
44.06438134229996
 20
11.45009850610001
 30
0.0
 10
44.24945799549997
 20
11.5158021497
 30
0.0
  0
SPLINE
  5
60C8F
330
1F
100
AcDbEntity
  8
1
100
AcDbSpline
210
0.0
220
0.0
230
1.0
 70
     8
 71
     3
 72
    15
 73
    11
 74
     0
 42
0.0000000001
 43
0.0000000001
 40
0.0
 40
0.0
 40
0.0
 40
0.0
 40
0.1244339786
 40
0.2487947633
 40
0.3732532126
 40
0.4979584107
 40
0.6230046557
 40
0.7484110306999999
 40
0.8741180142000001
 40
1.0
 40
1.0
 40
1.0
 40
1.0
 10
44.24945816279994
 20
16.20201384710005
 30
0.0
 10
44.06771939019997
 20
16.26653431330003
 30
0.0
 10
43.68735352319996
 20
16.35242146620003
 30
0.0
 10
43.10366246919997
 20
16.34213226890001
 30
0.0
 10
42.53831631979998
 20
16.19373842870002
 30
0.0
 10
42.02324008969998
 20
15.91543423190001
 30
0.0
 10
41.58696960379997
 20
15.52289086920005
 30
0.0
 10
41.25370504899999
 20
15.03791533760004
 30
0.0
 10
41.04184590519998
 20
14.48791146470002
 30
0.0
 10
40.98931588609996
 20
14.09730898430003
 30
0.0
 10
40.98595289679997
 20
13.90224185810003
 30
0.0
  0
SPLINE
  5
60C90
330
1F
100
AcDbEntity
  8
1
100
AcDbSpline
210
0.0
220
0.0
230
1.0
 70
     8
 71
     3
 72
     9
 73
     5
 74
     0
 42
0.0000000001
 43
0.0000000001
 40
0.0
 40
0.0
 40
0.0
 40
0.0
 40
0.2455278326
 40
1.0
 40
1.0
 40
1.0
 40
1.0
 10
50.7999987426
 20
-11.59293172119998
 30
0.0
 10
50.79999873639996
 20
-11.58879029389997
 30
0.0
 10
50.79948262789997
 20
-11.57192490729997
 30
0.0
 10
50.79690832030003
 20
-11.55513791699998
 30
0.0
 10
50.79397075839997
 20
-11.54275558029998
 30
0.0
  0
SPLINE
  5
60C91
330
1F
100
AcDbEntity
  8
1
100
AcDbSpline
210
0.0
220
0.0
230
1.0
 70
     8
 71
     3
 72
     9
 73
     5
 74
     0
 42
0.0000000001
 43
0.0000000001
 40
0.0
 40
0.0
 40
0.0
 40
0.0
 40
0.280139286
 40
1.0
 40
1.0
 40
1.0
 40
1.0
 10
49.67886642439999
 20
-7.098868322699985
 30
0.0
 10
49.6915551296
 20
-7.111734485399967
 30
0.0
 10
49.73453386589997
 20
-7.159601563399977
 30
0.0
 10
49.76797992409996
 20
-7.218031331599976
 30
0.0
 10
49.77869853909997
 20
-7.263212100199981
 30
0.0
  0
LINE
  5
60C92
330
1F
100
AcDbEntity
  8
1
100
AcDbLine
 10
50.40564597969997
 20
-12.59783282109998
 30
0.0
 11
49.97930317319995
 21
-12.53184886089997
 31
0.0
  0
SPLINE
  5
60C93
330
1F
100
AcDbEntity
  8
1
100
AcDbSpline
210
0.0
220
0.0
230
1.0
 70
     8
 71
     3
 72
     8
 73
     4
 74
     0
 42
0.0000000001
 43
0.0000000001
 40
0.0
 40
0.0
 40
0.0
 40
0.0
 40
1.0
 40
1.0
 40
1.0
 40
1.0
 10
35.30703841829998
 20
-9.564044156499974
 30
0.0
 10
35.4719030632
 20
-9.605479138999966
 30
0.0
 10
35.63680667369999
 20
-9.646759381399974
 30
0.0
 10
35.80174832889998
 20
-9.687886735899979
 30
0.0
  0
LINE
  5
60C94
330
1F
100
AcDbEntity
  8
1
100
AcDbLine
 10
35.26722255479997
 20
-9.55403415009998
 30
0.0
 11
35.30703841829998
 21
-9.564044156499974
 31
0.0
  0
SPLINE
  5
60C95
330
1F
100
AcDbEntity
  8
1
100
AcDbSpline
210
0.0
220
0.0
230
1.0
 70
     8
 71
     3
 72
     8
 73
     4
 74
     0
 42
0.0000000001
 43
0.0000000001
 40
0.0
 40
0.0
 40
0.0
 40
0.0
 40
1.0
 40
1.0
 40
1.0
 40
1.0
 10
34.74247696830004
 20
-9.42056498819997
 30
0.0
 10
34.91734828289998
 20
-9.465226875399963
 30
0.0
 10
35.09226380460001
 20
-9.509716020899972
 30
0.0
 10
35.26722255479997
 20
-9.55403415009998
 30
0.0
  0
SPLINE
  5
60C96
330
1F
100
AcDbEntity
  8
1
100
AcDbSpline
210
0.0
220
0.0
230
1.0
 70
     8
 71
     3
 72
     8
 73
     4
 74
     0
 42
0.0000000001
 43
0.0000000001
 40
0.0
 40
0.0
 40
0.0
 40
0.0
 40
1.0
 40
1.0
 40
1.0
 40
1.0
 10
34.22726671339996
 20
-9.287516778499975
 30
0.0
 10
34.39896087469998
 20
-9.33203078089997
 30
0.0
 10
34.57069795760001
 20
-9.376379550299986
 30
0.0
 10
34.74247696830004
 20
-9.42056498819997
 30
0.0
  0
LINE
  5
60C97
330
1F
100
AcDbEntity
  8
1
100
AcDbLine
 10
33.9771160249
 20
-9.222082812599982
 30
0.0
 11
34.22726671339996
 21
-9.287516778499975
 31
0.0
  0
LINE
  5
60C98
330
1F
100
AcDbEntity
  8
1
100
AcDbLine
 10
33.93751084069996
 20
-9.221886892599982
 30
0.0
 11
33.9771160249
 21
-9.222082812599982
 31
0.0
  0
SPLINE
  5
60C99
330
1F
100
AcDbEntity
  8
1
100
AcDbSpline
210
0.0
220
0.0
230
1.0
 70
     8
 71
     3
 72
     9
 73
     5
 74
     0
 42
0.0000000001
 43
0.0000000001
 40
0.0
 40
0.0
 40
0.0
 40
0.0
 40
0.4572021789000001
 40
1.0
 40
1.0
 40
1.0
 40
1.0
 10
32.73532276679998
 20
-8.690087696299967
 30
0.0
 10
32.78061243839997
 20
-8.715255005299978
 30
0.0
 10
32.88172834569997
 20
-8.766601127599981
 30
0.0
 10
32.98518563759998
 20
-8.812921836999976
 30
0.0
 10
33.0417070476
 20
-8.837194303999963
 30
0.0
  0
SPLINE
  5
60C9A
330
1F
100
AcDbEntity
  8
1
100
AcDbSpline
210
0.0
220
0.0
230
1.0
 70
     8
 71
     3
 72
    10
 73
     6
 74
     0
 42
0.0000000001
 43
0.0000000001
 40
0.0
 40
0.0
 40
0.0
 40
0.0
 40
0.2229586377
 40
0.4671805389000001
 40
1.0
 40
1.0
 40
1.0
 40
1.0
 10
50.67507727609996
 20
-12.58025884199998
 30
0.0
 10
50.65714145949996
 20
-12.58629736979996
 30
0.0
 10
50.61854199829998
 20
-12.59601657229997
 30
0.0
 10
50.53421571779998
 20
-12.60673394639997
 30
0.0
 10
50.46774947069997
 20
-12.60465384289996
 30
0.0
 10
50.42281484419999
 20
-12.59952422089998
 30
0.0
  0
SPLINE
  5
60C9B
330
1F
100
AcDbEntity
  8
1
100
AcDbSpline
210
0.0
220
0.0
230
1.0
 70
     8
 71
     3
 72
    11
 73
     7
 74
     0
 42
0.0000000001
 43
0.0000000001
 40
0.0
 40
0.0
 40
0.0
 40
0.0
 40
0.2103779508
 40
0.4421244882
 40
0.7041154584
 40
1.0
 40
1.0
 40
1.0
 40
1.0
 10
50.79495537769997
 20
-12.48255760779997
 30
0.0
 10
50.79141333109996
 20
-12.49318947679998
 30
0.0
 10
50.78011135649997
 20
-12.51436814189997
 30
0.0
 10
50.75339559519997
 20
-12.54124988629996
 30
0.0
 10
50.71762388119998
 20
-12.56387655069997
 30
0.0
 10
50.69001454720002
 20
-12.57522984789996
 30
0.0
 10
50.67507727650003
 20
-12.58025884239997
 30
0.0
  0
SPLINE
  5
60C9C
330
1F
100
AcDbEntity
  8
1
100
AcDbSpline
210
0.0
220
0.0
230
1.0
 70
     8
 71
     3
 72
    16
 73
    12
 74
     0
 42
0.0000000001
 43
0.0000000001
 40
0.0
 40
0.0
 40
0.0
 40
0.0
 40
0.0620441064
 40
0.0936677438
 40
0.1251325031
 40
0.250400175
 40
0.3754379535
 40
0.5003954921
 40
0.6253170996000002
 40
0.7502205231999999
 40
1.0
 40
1.0
 40
1.0
 40
1.0
 10
50.40944668449998
 20
-12.53869929139996
 30
0.0
 10
50.41200833229996
 20
-12.53874008799996
 30
0.0
 10
50.41439070989998
 20
-12.53388014999997
 30
0.0
 10
50.41543612429997
 20
-12.52913493229997
 30
0.0
 10
50.41669218309997
 20
-12.52134745299996
 30
0.0
 10
50.41719254009999
 20
-12.50976931499997
 30
0.0
 10
50.41707994979993
 20
-12.49425071559997
 30
0.0
 10
50.41642468659995
 20
-12.47878645669998
 30
0.0
 10
50.41545438029999
 20
-12.46333906379996
 30
0.0
 10
50.41384797620001
 20
-12.44277155209998
 30
0.0
 10
50.41238397729996
 20
-12.42736795569998
 30
0.0
 10
50.41133494849997
 20
-12.41710735699998
 30
0.0
  0
SPLINE
  5
60C9D
330
1F
100
AcDbEntity
  8
1
100
AcDbSpline
210
0.0
220
0.0
230
1.0
 70
     8
 71
     3
 72
     9
 73
     5
 74
     0
 42
0.0000000001
 43
0.0000000001
 40
0.0
 40
0.0
 40
0.0
 40
0.0
 40
0.5001325179000001
 40
1.0
 40
1.0
 40
1.0
 40
1.0
 10
50.41133494849997
 20
-12.41710735699998
 30
0.0
 10
50.41164604259997
 20
-12.39674108379996
 30
0.0
 10
50.41017131199999
 20
-12.35600024219997
 30
0.0
 10
50.40721501729995
 20
-12.31538428929998
 30
0.0
 10
50.40550707919999
 20
-12.29509820519998
 30
0.0
  0
SPLINE
  5
60C9E
330
1F
100
AcDbEntity
  8
1
100
AcDbSpline
210
0.0
220
0.0
230
1.0
 70
     8
 71
     3
 72
     8
 73
     4
 74
     0
 42
0.0000000001
 43
0.0000000001
 40
0.0
 40
0.0
 40
0.0
 40
0.0
 40
1.0
 40
1.0
 40
1.0
 40
1.0
 10
50.40550707919999
 20
-12.29509820519998
 30
0.0
 10
50.40482328079997
 20
-12.25429530569998
 30
0.0
 10
50.40229392509999
 20
-12.21352551299996
 30
0.0
 10
50.39917757799996
 20
-12.17283604789996
 30
0.0
  0
SPLINE
  5
60C9F
330
1F
100
AcDbEntity
  8
1
100
AcDbSpline
210
0.0
220
0.0
230
1.0
 70
     8
 71
     3
 72
     8
 73
     4
 74
     0
 42
0.0000000001
 43
0.0000000001
 40
0.0
 40
0.0
 40
0.0
 40
0.0
 40
1.0
 40
1.0
 40
1.0
 40
1.0
 10
50.39917757799996
 20
-12.17283604789996
 30
0.0
 10
50.39797971739996
 20
-12.13197388369998
 30
0.0
 10
50.39555553169996
 20
-12.09114578869999
 30
0.0
 10
50.3925809703
 20
-12.05037443459996
 30
0.0
  0
SPLINE
  5
60CA0
330
1F
100
AcDbEntity
  8
1
100
AcDbSpline
210
0.0
220
0.0
230
1.0
 70
     8
 71
     3
 72
     8
 73
     4
 74
     0
 42
0.0000000001
 43
0.0000000001
 40
0.0
 40
0.0
 40
0.0
 40
0.0
 40
1.0
 40
1.0
 40
1.0
 40
1.0
 10
50.3925809703
 20
-12.05037443459996
 30
0.0
 10
50.39107776899999
 20
-12.00946829379997
 30
0.0
 10
50.38865594969997
 20
-11.96859362539996
 30
0.0
 10
50.38573933350001
 20
-11.92776391429997
 30
0.0
  0
SPLINE
  5
60CA1
330
1F
100
AcDbEntity
  8
1
100
AcDbSpline
210
0.0
220
0.0
230
1.0
 70
     8
 71
     3
 72
     9
 73
     5
 74
     0
 42
0.0000000001
 43
0.0000000001
 40
0.0
 40
0.0
 40
0.0
 40
0.0
 40
0.2555087967
 40
1.0
 40
1.0
 40
1.0
 40
1.0
 10
49.77869853909997
 20
-7.263212100199981
 30
0.0
 10
49.77969334589997
 20
-7.267405378099968
 30
0.0
 10
49.78314080809997
 20
-7.283917908499976
 30
0.0
 10
49.78472654169998
 20
-7.300831289899973
 30
0.0
 10
49.78472654169998
 20
-7.313388620299992
 30
0.0
  0
SPLINE
  5
60CA2
330
1F
100
AcDbEntity
  8
1
100
AcDbSpline
210
0.0
220
0.0
230
1.0
 70
     8
 71
     3
 72
    20
 73
    16
 74
     0
 42
0.0000000001
 43
0.0000000001
 40
0.0
 40
0.0
 40
0.0
 40
0.0
 40
0.0294325081
 40
0.0593630125
 40
0.0897852319
 40
0.1205594471
 40
0.1826622348
 40
0.2452063781
 40
0.3079474923
 40
0.3707865068
 40
0.4965773391
 40
0.6224380343
 40
0.7483082554
 40
0.8741651120999998
 40
1.0
 40
1.0
 40
1.0
 40
1.0
 10
33.0417070476
 20
-8.837194303999963
 30
0.0
 10
33.03367073589996
 20
-8.833743202699976
 30
0.0
 10
33.01842356989999
 20
-8.824298156599978
 30
0.0
 10
33.00024422489997
 20
-8.804427757599981
 30
0.0
 10
32.98643869739999
 20
-8.780966486399975
 30
0.0
 10
32.97277625659996
 20
-8.746869451199982
 30
0.0
 10
32.96261326460001
 20
-8.701568752699982
 30
0.0
 10
32.95704146589998
 20
-8.646106799099968
 30
0.0
 10
32.95582286129999
 20
-8.590173523299981
 30
0.0
 10
32.9583291562
 20
-8.515495373499973
 30
0.0
 10
32.96717808779999
 20
-8.422384516399972
 30
0.0
 10
32.98351442889995
 20
-8.311371146399963
 30
0.0
 10
33.00389559799996
 20
-8.201015734599963
 30
0.0
 10
33.02729794699998
 20
-8.091279149799973
 30
0.0
 10
33.04448962569995
 20
-8.018484758199972
 30
0.0
 10
33.05340911219997
 20
-7.982171787299975
 30
0.0
  0
LINE
  5
60CA3
330
1F
100
AcDbEntity
  8
1
100
AcDbLine
 10
33.05340911219997
 20
-7.982171787299975
 30
0.0
 11
33.05503222699997
 21
-7.975579214499987
 31
0.0
  0
SPLINE
  5
60CA4
330
1F
100
AcDbEntity
  8
1
100
AcDbSpline
210
0.0
220
0.0
230
1.0
 70
     8
 71
     3
 72
    11
 73
     7
 74
     0
 42
0.0000000001
 43
0.0000000001
 40
0.0
 40
0.0
 40
0.0
 40
0.0
 40
0.2502778736
 40
0.5003241872
 40
0.7502171294
 40
1.0
 40
1.0
 40
1.0
 40
1.0
 10
50.30049585419999
 20
-10.73551462479997
 30
0.0
 10
50.3056771512
 20
-10.66349428509997
 30
0.0
 10
50.30754036729995
 20
-10.51889478149997
 30
0.0
 10
50.29442626729997
 20
-10.30274349509997
 30
0.0
 10
50.26916251810003
 20
-10.08782682559997
 30
0.0
 10
50.24566172479996
 20
-9.945541967199975
 30
0.0
 10
50.23236931539997
 20
-9.874714827799977
 30
0.0
  0
SPLINE
  5
60CA5
330
1F
100
AcDbEntity
  8
1
100
AcDbSpline
210
0.0
220
0.0
230
1.0
 70
     8
 71
     3
 72
     8
 73
     4
 74
     0
 42
0.0000000001
 43
0.0000000001
 40
0.0
 40
0.0
 40
0.0
 40
0.0
 40
0.1461570383372552
 40
0.1461570383372552
 40
0.1461570383372552
 40
0.1461570383372552
 10
32.14312743109997
 20
-8.535740464599967
 30
0.0
 10
32.17948459989319
 20
-8.497035355449419
 30
0.0
 10
32.2175841998583
 20
-8.459894669804576
 30
0.0
 10
32.25720446974066
 20
-8.424361777403785
 30
0.0
  0
SPLINE
  5
60CA6
330
1F
100
AcDbEntity
  8
1
100
AcDbSpline
210
0.0
220
0.0
230
1.0
 70
     8
 71
     3
 72
     9
 73
     5
 74
     0
 42
0.0000000001
 43
0.0000000001
 40
0.1461570383372552
 40
0.1461570383372552
 40
0.1461570383372552
 40
0.1461570383372552
 40
0.4923319262
 40
1.0
 40
1.0
 40
1.0
 40
1.0
 10
32.25720446974066
 20
-8.424361777403785
 30
0.0
 10
32.35104560554674
 20
-8.340201649487809
 30
0.0
 10
32.60354660153121
 20
-8.154866694904121
 30
0.0
 10
32.89001992269997
 20
-8.027908963899973
 30
0.0
 10
33.06580522219997
 20
-7.972039304799963
 30
0.0
  0
SPLINE
  5
60CA7
330
1F
100
AcDbEntity
  8
1
100
AcDbSpline
210
0.0
220
0.0
230
1.0
 70
     8
 71
     3
 72
    29
 73
    25
 74
     0
 42
0.0000000001
 43
0.0000000001
 40
0.0
 40
0.0
 40
0.0
 40
0.0
 40
0.0621540434
 40
0.1244680093
 40
0.1869109501
 40
0.2494495664
 40
0.3120427736
 40
0.3433737
 40
0.3747088352
 40
0.4060419675000003
 40
0.4373635636000003
 40
0.4686663028
 40
0.4999529471
 40
0.5312469234
 40
0.5625710408
 40
0.5939273497
 40
0.6253039977000002
 40
0.6566893821000001
 40
0.6880726928000001
 40
0.7507584168000001
 40
0.8133511388
 40
0.8757873475
 40
0.9380171519000001
 40
1.0
 40
1.0
 40
1.0
 40
1.0
 10
39.0968564769
 20
2.550762715700017
 30
0.0
 10
39.07257674629997
 20
2.418082303800018
 30
0.0
 10
39.01041639809998
 20
2.154683752200014
 30
0.0
 10
38.87963944079999
 20
1.770114201400011
 30
0.0
 10
38.71209436870001
 20
1.399038191600027
 30
0.0
 10
38.50665173549996
 20
1.04674390060002
 30
0.0
 10
38.3005068903
 20
0.7753652336000272
 30
0.0
 10
38.11107607949998
 20
0.5799576412000392
 30
0.0
 10
37.9552490371
 20
0.4477010117000191
 30
0.0
 10
37.78451778169998
 20
0.3349817338000207
 30
0.0
 10
37.59829863010001
 20
0.2494749311000248
 30
0.0
 10
37.39848446690003
 20
0.2017321680000208
 30
0.0
 10
37.19249340079997
 20
0.2029663048000145
 30
0.0
 10
36.99377990219999
 20
0.2574516760000307
 30
0.0
 10
36.81423013139997
 20
0.357600780800027
 30
0.0
 10
36.65810064509998
 20
0.4906713337000356
 30
0.0
 10
36.524464986
 20
0.6459653970000261
 30
0.0
 10
36.4107755865
 20
0.8162114303000294
 30
0.0
 10
36.28249724389997
 20
1.056732072200012
 30
0.0
 10
36.16001777799997
 20
1.375296372100038
 30
0.0
 10
36.06251179089998
 20
1.771669291500009
 30
0.0
 10
36.00858360780001
 20
2.175215517800026
 30
0.0
 10
35.99576690149999
 20
2.580704432400025
 30
0.0
 10
36.01453162409996
 20
2.850184199500033
 30
0.0
 10
36.03100232740003
 20
2.983684113900024
 30
0.0
  0
SPLINE
  5
60CA8
330
1F
100
AcDbEntity
  8
1
100
AcDbSpline
210
0.0
220
0.0
230
1.0
 70
     8
 71
     3
 72
     9
 73
     5
 74
     0
 42
0.0000000001
 43
0.0000000001
 40
0.0
 40
0.0
 40
0.0
 40
0.0
 40
0.2233436592
 40
1.0
 40
1.0
 40
1.0
 40
1.0
 10
32.14312743109997
 20
18.06982731920003
 30
0.0
 10
32.17813908539998
 20
18.0684792833
 30
0.0
 10
32.33489480579999
 20
18.0623010976
 30
0.0
 10
32.49165320799998
 20
18.05616775570001
 30
0.0
 10
32.6134187706
 20
18.05191203060001
 30
0.0
  0
SPLINE
  5
60CA9
330
1F
100
AcDbEntity
  8
1
100
AcDbSpline
210
0.0
220
0.0
230
1.0
 70
     8
 71
     3
 72
    29
 73
    25
 74
     0
 42
0.0000000001
 43
0.0000000001
 40
0.0
 40
0.0
 40
0.0
 40
0.0
 40
0.0621820845
 40
0.1245194823
 40
0.1869798675
 40
0.2495292334
 40
0.3121263961
 40
0.3434561475
 40
0.3747883699
 40
0.4061166595000003
 40
0.4374305490000002
 40
0.4687208508
 40
0.49998906
 40
0.5312611782
 40
0.5625638563000001
 40
0.5939008089
 40
0.6252608667000003
 40
0.6566327847000001
 40
0.6880060216000004
 40
0.7506836548
 40
0.8132812340999999
 40
0.8757334092
 40
0.9379875901
 40
1.0
 40
1.0
 40
1.0
 40
1.0
 10
46.75181531629993
 20
2.385570080900023
 30
0.0
 10
46.72731581619999
 20
2.251693160900031
 30
0.0
 10
46.66471841639995
 20
1.985911269100022
 30
0.0
 10
46.53339117329994
 20
1.59771181720002
 30
0.0
 10
46.36547852209999
 20
1.222876298900011
 30
0.0
 10
46.15988824269996
 20
0.8665781407000281
 30
0.0
 10
45.95378127309999
 20
0.591523402600032
 30
0.0
 10
45.76434582009996
 20
0.3928976139000184
 30
0.0
 10
45.60842372129997
 20
0.2581012754000369
 30
0.0
 10
45.43736732529999
 20
0.1427776083000225
 30
0.0
 10
45.25039384549995
 20
0.0548271615000147
 30
0.0
 10
45.04921222499996
 20
0.0053485541000242
 30
0.0
 10
44.84144431879997
 20
0.0064340555000229
 30
0.0
 10
44.6414121228
 20
0.0626939307000214
 30
0.0
 10
44.46156629289998
 20
0.1657058788000114
 30
0.0
 10
44.30591596769996
 20
0.3018273920000354
 30
0.0
 10
44.17313151209998
 20
0.4599923068000324
 30
0.0
 10
44.06040399689999
 20
0.6328552636000353
 30
0.0
 10
43.93336936289998
 20
0.87658026630001
 30
0.0
 10
43.8122463862
 20
1.198706270700007
 30
0.0
 10
43.71594866079998
 20
1.598969361600025
 30
0.0
 10
43.662899826
 20
2.006225471500016
 30
0.0
 10
43.65075028039998
 20
2.41534795190003
 30
0.0
 10
43.66990936339997
 20
2.68722784250002
 30
0.0
 10
43.68658960399996
 20
2.821927786300014
 30
0.0
  0
SPLINE
  5
60CAA
330
1F
100
AcDbEntity
  8
1
100
AcDbSpline
210
0.0
220
0.0
230
1.0
 70
     8
 71
     3
 72
     8
 73
     4
 74
     0
 42
0.0000000001
 43
0.0000000001
 40
0.0
 40
0.0
 40
0.0
 40
0.0
 40
1.0
 40
1.0
 40
1.0
 40
1.0
 10
21.93553423909998
 20
-8.423484985599968
 30
0.0
 10
22.81339798129997
 20
-8.554756869199978
 30
0.0
 10
23.69128807530001
 20
-8.685852631599972
 30
0.0
 10
24.56920242929996
 20
-8.816785607899959
 30
0.0
  0
SPLINE
  5
60CAB
330
1F
100
AcDbEntity
  8
1
100
AcDbSpline
210
0.0
220
0.0
230
1.0
 70
     8
 71
     3
 72
    10
 73
     6
 74
     0
 42
0.0000000001
 43
0.0000000001
 40
0.0
 40
0.0
 40
0.0
 40
0.0
 40
0.518840874
 40
0.7646284494
 40
1.0
 40
1.0
 40
1.0
 40
1.0
 10
24.56920242929996
 20
-17.94181778259998
 30
0.0
 10
24.12965637659997
 20
-17.87926495589997
 30
0.0
 10
23.48181986749998
 20
-17.78747114389996
 30
0.0
 10
22.63595151629997
 20
-17.65802371689997
 30
0.0
 10
22.22976802179997
 20
-17.59053518759998
 30
0.0
 10
22.03141649879999
 20
-17.55557652189998
 30
0.0
  0
SPLINE
  5
60CAC
330
1F
100
AcDbEntity
  8
1
100
AcDbSpline
210
0.0
220
0.0
230
1.0
 70
     8
 71
     3
 72
    11
 73
     7
 74
     0
 42
0.0000000001
 43
0.0000000001
 40
0.0
 40
0.0
 40
0.0
 40
0.0
 40
0.2302844578
 40
0.478151228
 40
0.7370122823000002
 40
1.0
 40
1.0
 40
1.0
 40
1.0
 10
18.28584411499997
 20
17.34722911750002
 30
0.0
 10
18.43483831899999
 20
17.33682423230003
 30
0.0
 10
18.74442700359998
 20
17.31818138240003
 30
0.0
 10
19.22228533899999
 20
17.30317418990002
 30
0.0
 10
19.72161271229996
 20
17.30511126280002
 30
0.0
 10
20.059868379
 20
17.31950388330001
 30
0.0
 10
20.23010733569996
 20
17.33008761080002
 30
0.0
  0
SPLINE
  5
60CAD
330
1F
100
AcDbEntity
  8
1
100
AcDbSpline
210
0.0
220
0.0
230
1.0
 70
     8
 71
     3
 72
     9
 73
     5
 74
     0
 42
0.0000000001
 43
0.0000000001
 40
0.0
 40
0.0
 40
0.0
 40
0.0
 40
0.2593569186
 40
1.0
 40
1.0
 40
1.0
 40
1.0
 10
44.17913842809997
 20
8.512031328400027
 30
0.0
 10
44.17464642189997
 20
8.488279406600026
 30
0.0
 10
44.15868911969996
 20
8.39644323400001
 30
0.0
 10
44.14781898099996
 20
8.303751486300013
 30
0.0
 10
44.14218214959999
 20
8.234951528600035
 30
0.0
  0
SPLINE
  5
60CAE
330
1F
100
AcDbEntity
  8
1
100
AcDbSpline
210
0.0
220
0.0
230
1.0
 70
     8
 71
     3
 72
     9
 73
     5
 74
     0
 42
0.0000000001
 43
0.0000000001
 40
0.0
 40
0.0
 40
0.0
 40
0.0
 40
0.2636950271
 40
1.0
 40
1.0
 40
1.0
 40
1.0
 10
44.14218214959999
 20
8.234951528600035
 30
0.0
 10
44.14007435319995
 20
8.209224964400036
 30
0.0
 10
44.13334763889993
 20
8.111558532600026
 30
0.0
 10
44.13108346229996
 20
8.013622591100029
 30
0.0
 10
44.13108346229996
 20
7.941546646100035
 30
0.0
  0
LINE
  5
60CAF
330
1F
100
AcDbEntity
  8
1
100
AcDbLine
 10
44.17026638519995
 20
8.513227164300031
 30
0.0
 11
44.17913842809997
 21
8.512031328400027
 31
0.0
  0
SPLINE
  5
60CB0
330
1F
100
AcDbEntity
  8
1
100
AcDbSpline
210
0.0
220
0.0
230
1.0
 70
     8
 71
     3
 72
     9
 73
     5
 74
     0
 42
0.0000000001
 43
0.0000000001
 40
0.0
 40
0.0
 40
0.0
 40
0.0
 40
0.3637629651
 40
1.0
 40
1.0
 40
1.0
 40
1.0
 10
44.17026638519995
 20
8.513227164300031
 30
0.0
 10
44.16931740239999
 20
8.513369518900006
 30
0.0
 10
44.16731573649996
 20
8.515692543000014
 30
0.0
 10
44.16692019859996
 20
8.518264374100013
 30
0.0
 10
44.16663977839993
 20
8.519919164800008
 30
0.0
  0
SPLINE
  5
60CB1
330
1F
100
AcDbEntity
  8
1
100
AcDbSpline
210
0.0
220
0.0
230
1.0
 70
     8
 71
     3
 72
     9
 73
     5
 74
     0
 42
0.0000000001
 43
0.0000000001
 40
0.0
 40
0.0
 40
0.0
 40
0.0
 40
0.2065801193
 40
1.0
 40
1.0
 40
1.0
 40
1.0
 10
44.16663977839993
 20
8.519919164800008
 30
0.0
 10
44.16651231929997
 20
8.520671314400019
 30
0.0
 10
44.1660174196
 20
8.524332888900019
 30
0.0
 10
44.16588130359996
 20
8.528032997000039
 30
0.0
 10
44.16584556219999
 20
8.530962772700021
 30
0.0
  0
SPLINE
  5
60CB2
330
1F
100
AcDbEntity
  8
1
100
AcDbSpline
210
0.0
220
0.0
230
1.0
 70
     8
 71
     3
 72
    12
 73
     8
 74
     0
 42
0.0000000001
 43
0.0000000001
 40
0.0
 40
0.0
 40
0.0
 40
0.0
 40
0.0580697557
 40
0.1352554917
 40
0.347111829
 40
0.6354860864000002
 40
1.0
 40
1.0
 40
1.0
 40
1.0
 10
44.16584556219999
 20
8.530962772700021
 30
0.0
 10
44.16577826399997
 20
8.536479310100034
 30
0.0
 10
44.1662752794
 20
8.549332457900035
 30
0.0
 10
44.16908163779999
 20
8.582193641800031
 30
0.0
 10
44.17661896469996
 20
8.636568911600036
 30
0.0
 10
44.19187784639997
 20
8.717322105600016
 30
0.0
 10
44.2067792158
 20
8.777582503899997
 30
0.0
 10
44.21606441990003
 20
8.810945355400024
 30
0.0
  0
SPLINE
  5
60CB3
330
1F
100
AcDbEntity
  8
1
100
AcDbSpline
210
0.0
220
0.0
230
1.0
 70
     8
 71
     3
 72
     9
 73
     5
 74
     0
 42
0.0000000001
 43
0.0000000001
 40
0.0
 40
0.0
 40
0.0
 40
0.0
 40
0.2576950766
 40
1.0
 40
1.0
 40
1.0
 40
1.0
 10
46.99932393259999
 20
-12.30181045919997
 30
0.0
 10
47.01027965869998
 20
-12.31882151409999
 30
0.0
 10
47.05312940059996
 20
-12.38461660999998
 30
0.0
 10
47.0973585008
 20
-12.44951807619999
 30
0.0
 10
47.13108346229995
 20
-12.49705434179999
 30
0.0
  0
SPLINE
  5
60CB4
330
1F
100
AcDbEntity
  8
1
100
AcDbSpline
210
0.0
220
0.0
230
1.0
 70
     8
 71
     3
 72
    11
 73
     7
 74
     0
 42
0.0000000001
 43
0.0000000001
 40
0.0
 40
0.0
 40
0.0
 40
0.0
 40
0.2704081632
 40
0.5296691248
 40
0.7737262245000001
 40
1.0
 40
1.0
 40
1.0
 40
1.0
 10
47.30906250319992
 20
6.41227543600003
 30
0.0
 10
47.4325096437
 20
6.983171483500014
 30
0.0
 10
47.67013510289999
 20
8.102331810400031
 30
0.0
 10
48.01217104599999
 20
9.738230431400024
 30
0.0
 10
48.33898653349999
 20
11.27991505060002
 30
0.0
 10
48.5596012458
 20
12.27164706000003
 30
0.0
 10
48.67034173439997
 20
12.74769488470001
 30
0.0
  0
SPLINE
  5
60CB5
330
1F
100
AcDbEntity
  8
1
100
AcDbSpline
210
0.0
220
0.0
230
1.0
 70
     8
 71
     3
 72
    14
 73
    10
 74
     0
 42
0.0000000001
 43
0.0000000001
 40
0.0
 40
0.0
 40
0.0
 40
0.0
 40
0.0981619819
 40
0.2055914079
 40
0.3215942327
 40
0.4453514738
 40
0.5759735741
 40
0.7125472409000003
 40
1.0
 40
1.0
 40
1.0
 40
1.0
 10
47.13108346229995
 20
6.900469819000008
 30
0.0
 10
47.20651069169997
 20
6.706255888000022
 30
0.0
 10
47.35350336109997
 20
6.295196756200027
 30
0.0
 10
47.55728705159994
 20
5.643616797900036
 30
0.0
 10
47.75479008809996
 20
4.93356925700003
 30
0.0
 10
47.94645391199998
 20
4.171100150300033
 30
0.0
 10
48.1330277628
 20
3.362516349500026
 30
0.0
 10
48.38050753069996
 20
2.211562431000024
 30
0.0
 10
48.55494294679996
 20
1.328585602800032
 30
0.0
 10
48.67034173439997
 20
0.7294863618000278
 30
0.0
  0
SPLINE
  5
60CB6
330
1F
100
AcDbEntity
  8
1
100
AcDbSpline
210
0.0
220
0.0
230
1.0
 70
     8
 71
     3
 72
     9
 73
     5
 74
     0
 42
0.0000000001
 43
0.0000000001
 40
0.0
 40
0.0
 40
0.0
 40
0.0
 40
0.26163558
 40
1.0
 40
1.0
 40
1.0
 40
1.0
 10
47.14035340109996
 20
-12.51521078969996
 30
0.0
 10
47.15438199429996
 20
-12.54260013639996
 30
0.0
 10
47.20861915069996
 20
-12.64696539829997
 30
0.0
 10
47.26542160609997
 20
-12.75001265049996
 30
0.0
 10
47.30918175720002
 20
-12.82502644409997
 30
0.0
  0
LINE
  5
60CB7
330
1F
100
AcDbEntity
  8
1
100
AcDbLine
 10
48.67747469580002
 20
-6.571742721599973
 30
0.0
 11
48.00798438159995
 21
-7.166963804799979
 31
0.0
  0
SPLINE
  5
60CB8
330
1F
100
AcDbEntity
  8
1
100
AcDbSpline
210
0.0
220
0.0
230
1.0
 70
     8
 71
     3
 72
    15
 73
    11
 74
     0
 42
0.0000000001
 43
0.0000000001
 40
0.0
 40
0.0
 40
0.0
 40
0.0
 40
0.1628049311
 40
0.3137396308
 40
0.4530589526
 40
0.5812015567000001
 40
0.6988303101000001
 40
0.8068971993999999
 40
0.9067126734999998
 40
1.0
 40
1.0
 40
1.0
 40
1.0
 10
47.83815074519997
 20
-15.86700384739997
 30
0.0
 10
47.78457772919997
 20
-15.96506965449998
 30
0.0
 10
47.67864892879997
 20
-16.15260884299996
 30
0.0
 10
47.51574204299992
 20
-16.41759187789996
 30
0.0
 10
47.35405219309997
 20
-16.65508017549996
 30
0.0
 10
47.19272102659994
 20
-16.86468290729996
 30
0.0
 10
47.03084382949998
 20
-17.04608096459996
 30
0.0
 10
46.86744453649999
 20
-17.19900739569996
 30
0.0
 10
46.70158809049996
 20
-17.32315714779997
 30
0.0
 10
46.58554444749995
 20
-17.38827606749997
 30
0.0
 10
46.52746258829998
 20
-17.41522678289996
 30
0.0
  0
SPLINE
  5
60CB9
330
1F
100
AcDbEntity
  8
1
100
AcDbSpline
210
0.0
220
0.0
230
1.0
 70
     8
 71
     3
 72
     8
 73
     4
 74
     0
 42
0.0000000001
 43
0.0000000001
 40
0.0
 40
0.0
 40
0.0
 40
0.0
 40
1.0
 40
1.0
 40
1.0
 40
1.0
 10
46.52746258829998
 20
-17.41522678289996
 30
0.0
 10
42.68879358689999
 20
-17.59898225809996
 30
0.0
 10
38.85009472239998
 20
-17.78211472159996
 30
0.0
 10
35.01136955249997
 20
-17.96469305199998
 30
0.0
  0
SPLINE
  5
60CBA
330
1F
100
AcDbEntity
  8
1
100
AcDbSpline
210
0.0
220
0.0
230
1.0
 70
     8
 71
     3
 72
    16
 73
    12
 74
     0
 42
0.0000000001
 43
0.0000000001
 40
0.0
 40
0.0
 40
0.0
 40
0.0
 40
0.1305994146
 40
0.2607543293
 40
0.390105345
 40
0.5181612605
 40
0.5815428862
 40
0.6443162067000002
 40
0.76739375
 40
0.8863268179000002
 40
1.0
 40
1.0
 40
1.0
 40
1.0
 10
20.23010631649999
 20
-8.218159975499972
 30
0.0
 10
20.05683267549995
 20
-8.202280610999977
 30
0.0
 10
19.70753047859998
 20
-8.199539740099979
 30
0.0
 10
19.19204101339997
 20
-8.281675271199985
 30
0.0
 10
18.6999231799
 20
-8.445227744899964
 30
0.0
 10
18.31936275849997
 20
-8.644077291299964
 30
0.0
 10
18.04001481879999
 20
-8.836155681699976
 30
0.0
 10
17.78219563569996
 20
-9.045890031499963
 30
0.0
 10
17.4992883669
 20
-9.340073278999966
 30
0.0
 10
17.23246712689999
 20
-9.734451411199984
 30
0.0
 10
17.10814343059999
 20
-10.02091165279998
 30
0.0
 10
17.06277206559997
 20
-10.16540431779998
 30
0.0
  0
SPLINE
  5
60CBB
330
1F
100
AcDbEntity
  8
1
100
AcDbSpline
210
0.0
220
0.0
230
1.0
 70
     8
 71
     3
 72
     9
 73
     5
 74
     0
 42
0.0000000001
 43
0.0000000001
 40
0.0
 40
0.0
 40
0.0
 40
0.0
 40
0.1209802699
 40
0.1313210878057274
 40
0.1313210878057274
 40
0.1313210878057274
 40
0.1313210878057274
 10
32.65182994189999
 20
-5.862177439199983
 30
0.0
 10
32.65318081479995
 20
-5.753073489699971
 30
0.0
 10
32.66763004984878
 20
-5.634344427202427
 30
0.0
 10
32.69651343621374
 20
-5.519158907216882
 30
0.0
 10
32.69887677904705
 20
-5.510112329758363
 30
0.0
  0
SPLINE
  5
60CBC
330
1F
100
AcDbEntity
  8
1
100
AcDbSpline
210
0.0
220
0.0
230
1.0
 70
     8
 71
     3
 72
    13
 73
     9
 74
     0
 42
0.0000000001
 43
0.0000000001
 40
0.1313210878057274
 40
0.1313210878057274
 40
0.1313210878057274
 40
0.1313210878057274
 40
0.2432086458
 40
0.3669166188
 40
0.4920265770000001
 40
0.6182324259000001
 40
0.7451609453
 40
0.7684731297100278
 40
0.7684731297100278
 40
0.7684731297100278
 40
0.7684731297100278
 10
32.69887677904705
 20
-5.510112329758363
 30
0.0
 10
32.72444812753554
 20
-5.412228441920106
 30
0.0
 10
32.80021567650226
 20
-5.211950356884827
 30
0.0
 10
32.98201282939999
 20
-4.938562132599983
 30
0.0
 10
33.23002841649998
 20
-4.704587387499969
 30
0.0
 10
33.52328447769997
 20
-4.525980841499971
 30
0.0
 10
33.75765164308703
 20
-4.437313928879098
 30
0.0
 10
33.8885087631491
 20
-4.401598343929001
 30
0.0
 10
33.90888817216927
 20
-4.396350957955256
 30
0.0
  0
SPLINE
  5
60CBD
330
1F
100
AcDbEntity
  8
1
100
AcDbSpline
210
0.0
220
0.0
230
1.0
 70
     8
 71
     3
 72
     9
 73
     5
 74
     0
 42
0.0000000001
 43
0.0000000001
 40
0.7684731297100278
 40
0.7684731297100278
 40
0.7684731297100278
 40
0.7684731297100278
 40
0.8724929893999997
 40
1.0
 40
1.0
 40
1.0
 40
1.0
 10
33.90888817216927
 20
-4.396350957955256
 30
0.0
 10
33.99982187574489
 20
-4.372936920766476
 30
0.0
 10
34.20554037922566
 20
-4.333870352676278
 30
0.0
 10
34.41467362789999
 20
-4.321274160799973
 30
0.0
 10
34.52967228159997
 20
-4.321451558299968
 30
0.0
  0
SPLINE
  5
60CBE
330
1F
100
AcDbEntity
  8
1
100
AcDbSpline
210
0.0
220
0.0
230
1.0
 70
     8
 71
     3
 72
     9
 73
     5
 74
     0
 42
0.0000000001
 43
0.0000000001
 40
0.0
 40
0.0
 40
0.0
 40
0.0
 40
0.2540944345
 40
1.0
 40
1.0
 40
1.0
 40
1.0
 10
32.69890917449999
 20
-5.51012079279998
 30
0.0
 10
32.70353359789999
 20
-5.521274073699983
 30
0.0
 10
32.72337297579998
 20
-5.564465957199971
 30
0.0
 10
32.75002251789997
 20
-5.604564255999973
 30
0.0
 10
32.77315572949999
 20
-5.631417760599973
 30
0.0
  0
SPLINE
  5
60CBF
330
1F
100
AcDbEntity
  8
1
100
AcDbSpline
210
0.0
220
0.0
230
1.0
 70
     8
 71
     3
 72
    10
 73
     6
 74
     0
 42
0.0000000001
 43
0.0000000001
 40
0.0
 40
0.0
 40
0.0
 40
0.0
 40
0.4721953022
 40
0.7263621442
 40
1.0
 40
1.0
 40
1.0
 40
1.0
 10
48.67034173439997
 20
12.74769488470001
 30
0.0
 10
48.67717470949997
 20
12.77706826930002
 30
0.0
 10
48.6865351526
 20
12.82255894320001
 30
0.0
 10
48.69528722600001
 20
12.88583595270001
 30
0.0
 10
48.69758484899998
 20
12.91954187350001
 30
0.0
 10
48.69758484899998
 20
12.93701828860003
 30
0.0
  0
SPLINE
  5
60CC0
330
1F
100
AcDbEntity
  8
1
100
AcDbSpline
210
0.0
220
0.0
230
1.0
 70
     8
 71
     3
 72
    12
 73
     8
 74
     0
 42
0.0000000001
 43
0.0000000001
 40
0.0
 40
0.0
 40
0.0
 40
0.0
 40
0.2689966907
 40
0.5310181135000001
 40
0.7803497884999999
 40
0.8960211249
 40
1.0
 40
1.0
 40
1.0
 40
1.0
 10
48.67034173439997
 20
0.7294863618000278
 30
0.0
 10
48.67360334339998
 20
0.7125535366000264
 30
0.0
 10
48.67984262839996
 20
0.6790871459000272
 30
0.0
 10
48.68815830639996
 20
0.6297581974000224
 30
0.0
 10
48.69382244019996
 20
0.5899485275000274
 30
0.0
 10
48.69681586559996
 20
0.5600328683000271
 30
0.0
 10
48.69758484899998
 20
0.5459567684000321
 30
0.0
 10
48.69758484899998
 20
0.5392911802000242
 30
0.0
  0
SPLINE
  5
60CC1
330
1F
100
AcDbEntity
  8
1
100
AcDbSpline
210
0.0
220
0.0
230
1.0
 70
     8
 71
     3
 72
     9
 73
     5
 74
     0
 42
0.0000000001
 43
0.0000000001
 40
0.0
 40
0.0
 40
0.0
 40
0.0
 40
0.5219665660000004
 40
1.0
 40
1.0
 40
1.0
 40
1.0
 10
48.67747469580002
 20
-6.571742721599973
 30
0.0
 10
48.68355509909997
 20
-6.566336723799962
 30
0.0
 10
48.69382979169997
 20
-6.553996845399963
 30
0.0
 10
48.69758484899998
 20
-6.538193311199988
 30
0.0
 10
48.69758484899998
 20
-6.530742014599964
 30
0.0
  0
SPLINE
  5
60CC2
330
1F
100
AcDbEntity
  8
1
100
AcDbSpline
210
0.0
220
0.0
230
1.0
 70
     8
 71
     3
 72
    11
 73
     7
 74
     0
 42
0.0000000001
 43
0.0000000001
 40
0.0
 40
0.0
 40
0.0
 40
0.0
 40
0.1219672447
 40
0.3358609297
 40
0.6495281897999999
 40
1.0
 40
1.0
 40
1.0
 40
1.0
 10
48.69758484899998
 20
-13.71550906459997
 30
0.0
 10
48.69758484899998
 20
-13.71844047409998
 30
0.0
 10
48.69642798179999
 20
-13.72648198779998
 30
0.0
 10
48.69255088059997
 20
-13.74160268739997
 30
0.0
 10
48.68599269249997
 20
-13.76167845619999
 30
0.0
 10
48.68047750829997
 20
-13.77665757849998
 30
0.0
 10
48.67747469580002
 20
-13.78452754929998
 30
0.0
  0
SPLINE
  5
60CC3
330
1F
100
AcDbEntity
  8
1
100
AcDbSpline
210
0.0
220
0.0
230
1.0
 70
     8
 71
     3
 72
     9
 73
     5
 74
     0
 42
0.0000000001
 43
0.0000000001
 40
0.0
 40
0.0
 40
0.0
 40
0.0
 40
0.2490866049
 40
1.0
 40
1.0
 40
1.0
 40
1.0
 10
34.00318151749997
 20
-4.45900217259998
 30
0.0
 10
33.99703009699996
 20
-4.452764978799962
 30
0.0
 10
33.97157595519997
 20
-4.428481785999976
 30
0.0
 10
33.94312971129997
 20
-4.407353197899965
 30
0.0
 10
33.9206154417
 20
-4.393548809399972
 30
0.0
  0
SPLINE
  5
60CC4
330
1F
100
AcDbEntity
  8
1
100
AcDbSpline
210
0.0
220
0.0
230
1.0
 70
     8
 71
     3
 72
    11
 73
     7
 74
     0
 42
0.0000000001
 43
0.0000000001
 40
0.0
 40
0.0
 40
0.0
 40
0.0
 40
0.2947871921
 40
0.5669247921000001
 40
0.8040070434
 40
1.0
 40
1.0
 40
1.0
 40
1.0
 10
47.83815074519997
 20
-7.198792407899961
 30
0.0
 10
47.85541116939998
 20
-7.200857638299982
 30
0.0
 10
47.88890601169997
 20
-7.20272888859998
 30
0.0
 10
47.93634038189997
 20
-7.198518717799987
 30
0.0
 10
47.97668497549993
 20
-7.187529652399977
 30
0.0
 10
47.9993467594
 20
-7.17464306699998
 30
0.0
 10
48.00798438159995
 20
-7.166963804799979
 30
0.0
  0
SPLINE
  5
60CC5
330
1F
100
AcDbEntity
  8
1
100
AcDbSpline
210
0.0
220
0.0
230
1.0
 70
     8
 71
     3
 72
    11
 73
     7
 74
     0
 42
0.0000000001
 43
0.0000000001
 40
0.0
 40
0.0
 40
0.0
 40
0.0
 40
0.1770453655
 40
0.3250014598
 40
0.5790244943000003
 40
1.0
 40
1.0
 40
1.0
 40
1.0
 10
48.00798438159995
 20
-15.51389735019998
 30
0.0
 10
47.99953437429996
 20
-15.53543347319997
 30
0.0
 10
47.98289742879997
 20
-15.57452304359999
 30
0.0
 10
47.95166090039997
 20
-15.64343607759997
 30
0.0
 10
47.90508379299995
 20
-15.74037260759999
 30
0.0
 10
47.86452321459998
 20
-15.81872884439998
 30
0.0
 10
47.83815074519997
 20
-15.86700384739997
 30
0.0
  0
SPLINE
  5
60CC6
330
1F
100
AcDbEntity
  8
1
100
AcDbSpline
210
0.0
220
0.0
230
1.0
 70
     8
 71
     3
 72
     9
 73
     5
 74
     0
 42
0.0000000001
 43
0.0000000001
 40
0.0
 40
0.0
 40
0.0
 40
0.0
 40
0.5025869414999999
 40
1.0
 40
1.0
 40
1.0
 40
1.0
 10
29.23235529069996
 20
8.52435486450004
 30
0.0
 10
29.42950213159998
 20
8.524335883900008
 30
0.0
 10
29.82321423859998
 20
8.57718729310001
 30
0.0
 10
30.19118150449998
 20
8.725049015500005
 30
0.0
 10
30.36213598659998
 20
8.819098634700003
 30
0.0
  0
LINE
  5
60CC7
330
1F
100
AcDbEntity
  8
1
100
AcDbLine
 10
30.36213598659998
 20
8.819098634700003
 30
0.0
 11
30.45769534949997
 21
8.871727369800012
 31
0.0
  0
SPLINE
  5
60CC8
330
1F
100
AcDbEntity
  8
1
100
AcDbSpline
210
0.0
220
0.0
230
1.0
 70
     8
 71
     3
 72
    11
 73
     7
 74
     0
 42
0.0000000001
 43
0.0000000001
 40
0.0
 40
0.0
 40
0.0
 40
0.0
 40
0.3884212612
 40
0.6700771487
 40
0.8581408022999998
 40
1.0
 40
1.0
 40
1.0
 40
1.0
 10
44.13108346229996
 20
7.231315161299995
 30
0.0
 10
44.13108346229996
 20
7.230299545300042
 30
0.0
 10
44.13112549689997
 20
7.228537164900032
 30
0.0
 10
44.13145498789997
 20
7.226334884300015
 30
0.0
 10
44.13205162699997
 20
7.224767903100016
 30
0.0
 10
44.13293111149996
 20
7.224354762500027
 30
0.0
 10
44.13330203479996
 20
7.224354767300019
 30
0.0
  0
SPLINE
  5
60CC9
330
1F
100
AcDbEntity
  8
1
100
AcDbSpline
210
0.0
220
0.0
230
1.0
 70
     8
 71
     3
 72
     8
 73
     4
 74
     0
 42
0.0000000001
 43
0.0000000001
 40
0.0
 40
0.0
 40
0.0
 40
0.0
 40
1.0
 40
1.0
 40
1.0
 40
1.0
 10
21.93553423909998
 20
17.53418161620003
 30
0.0
 10
22.81336315280001
 20
17.69039514620003
 30
0.0
 10
23.69125423949999
 20
17.84625964320001
 30
0.0
 10
24.56920242929996
 20
18.00180142100001
 30
0.0
  0
SPLINE
  5
60CCA
330
1F
100
AcDbEntity
  8
1
100
AcDbSpline
210
0.0
220
0.0
230
1.0
 70
     8
 71
     3
 72
    12
 73
     8
 74
     0
 42
0.0000000001
 43
0.0000000001
 40
0.0
 40
0.0
 40
0.0
 40
0.0
 40
0.2508088239
 40
0.5095774566
 40
0.7658518979000001
 40
0.8879046796999999
 40
1.0
 40
1.0
 40
1.0
 40
1.0
 10
27.24978995229998
 20
7.325111664200036
 30
0.0
 10
26.89751037209999
 20
7.369656118000007
 30
0.0
 10
26.18529458069998
 20
7.491369976200026
 30
0.0
 10
25.13603975839996
 20
7.770412726500025
 30
0.0
 10
24.28879604679997
 20
8.084488326100043
 30
0.0
 10
23.65746816620001
 20
8.374000043200013
 30
0.0
 10
23.36323095639997
 20
8.527076183400012
 30
0.0
 10
23.22451028949999
 20
8.604162015700026
 30
0.0
  0
SPLINE
  5
60CCB
330
1F
100
AcDbEntity
  8
1
100
AcDbSpline
210
0.0
220
0.0
230
1.0
 70
     8
 71
     3
 72
    20
 73
    16
 74
     0
 42
0.0000000001
 43
0.0000000001
 40
0.0
 40
0.0
 40
0.0
 40
0.0
 40
0.1868585394
 40
0.3576056440999999
 40
0.5070329362
 40
0.5719228166
 40
0.6293478064000002
 40
0.6790414327
 40
0.7215844614
 40
0.7590949212
 40
0.795543191
 40
0.8355046318000001
 40
0.8821989418999999
 40
0.9369950342999999
 40
1.0
 40
1.0
 40
1.0
 40
1.0
 10
23.22451028949999
 20
8.604162015700026
 30
0.0
 10
23.18375031449997
 20
8.626811968800026
 30
0.0
 10
23.10652228409998
 20
8.671613251200042
 30
0.0
 10
23.00061168759999
 20
8.740939342900034
 30
0.0
 10
22.92445358249998
 20
8.799912404500032
 30
0.0
 10
22.87561446699996
 20
8.847067970900027
 30
0.0
 10
22.8477725894
 20
8.879865489900012
 30
0.0
 10
22.82775395499996
 20
8.911600340000019
 30
0.0
 10
22.81640474419999
 20
8.942291926400017
 30
0.0
 10
22.81510971219999
 20
8.971977717400006
 30
0.0
 10
22.82522932679999
 20
8.999331816000037
 30
0.0
 10
22.84582372419999
 20
9.022803803900032
 30
0.0
 10
22.87530356629998
 20
9.042663757500024
 30
0.0
 10
22.91289247499998
 20
9.05948520470001
 30
0.0
 10
22.94099831979997
 20
9.06828142890002
 30
0.0
 10
22.95617432949999
 20
9.072391975800016
 30
0.0
  0
SPLINE
  5
60CCC
330
1F
100
AcDbEntity
  8
1
100
AcDbSpline
210
0.0
220
0.0
230
1.0
 70
     8
 71
     3
 72
    11
 73
     7
 74
     0
 42
0.0000000001
 43
0.0000000001
 40
0.0
 40
0.0
 40
0.0
 40
0.0
 40
0.2275200157
 40
0.4727900435000001
 40
0.7313209787
 40
1.0
 40
1.0
 40
1.0
 40
1.0
 10
28.37415417579999
 20
7.331527700900025
 30
0.0
 10
28.29061376229996
 20
7.312698412500003
 30
0.0
 10
28.11369501809998
 20
7.288238205200016
 30
0.0
 10
27.83830916939999
 20
7.279278720500015
 30
0.0
 10
27.54760606939999
 20
7.292064865300019
 30
0.0
 10
27.35011898639996
 20
7.312425427800022
 30
0.0
 10
27.24978995229998
 20
7.325111664200036
 30
0.0
  0
SPLINE
  5
60CCD
330
1F
100
AcDbEntity
  8
1
100
AcDbSpline
210
0.0
220
0.0
230
1.0
 70
     8
 71
     3
 72
     9
 73
     5
 74
     0
 42
0.0000000001
 43
0.0000000001
 40
0.0
 40
0.0
 40
0.0
 40
0.0
 40
0.2532622009
 40
1.0
 40
1.0
 40
1.0
 40
1.0
 10
36.51253564679996
 20
-5.584831354499981
 30
0.0
 10
36.51318054460001
 20
-5.587747604899973
 30
0.0
 10
36.51555060499996
 20
-5.599300412699975
 30
0.0
 10
36.51720160209999
 20
-5.611002476699978
 30
0.0
 10
36.51799488630003
 20
-5.619772906099981
 30
0.0
  0
LINE
  5
60CCE
330
1F
100
AcDbEntity
  8
1
100
AcDbLine
 10
37.12644049139996
 20
-5.87855847759998
 30
0.0
 11
36.51799488630003
 21
-5.619772906099981
 31
0.0
  0
LINE
  5
60CCF
330
1F
100
AcDbEntity
  8
1
100
AcDbLine
 10
33.43291864229997
 20
-7.353665511699972
 30
0.0
 11
33.26146918409998
 21
-6.666502751799981
 31
0.0
  0
SPLINE
  5
60CD0
330
1F
100
AcDbEntity
  8
1
100
AcDbSpline
210
0.0
220
0.0
230
1.0
 70
     8
 71
     3
 72
     8
 73
     4
 74
     0
 42
0.0000000001
 43
0.0000000001
 40
0.0
 40
0.0
 40
0.0
 40
0.0
 40
0.0065843778580159
 40
0.0065843778580159
 40
0.0065843778580159
 40
0.0065843778580159
 10
36.5262191249
 20
-5.581978042399966
 30
0.0
 10
36.52088224862038
 20
-5.579718446903334
 30
0.0
 10
36.5155453251776
 20
-5.577458962368034
 30
0.0
 10
36.51020835368743
 20
-5.575199590931731
 30
0.0
  0
SPLINE
  5
60CD1
330
1F
100
AcDbEntity
  8
1
100
AcDbSpline
210
0.0
220
0.0
230
1.0
 70
     8
 71
     3
 72
    12
 73
     8
 74
     0
 42
0.0000000001
 43
0.0000000001
 40
0.0065843778580159
 40
0.0065843778580159
 40
0.0065843778580159
 40
0.0065843778580159
 40
0.2488423687
 40
0.4980938316
 40
0.748130623
 40
0.8737115709999997
 40
1.0
 40
1.0
 40
1.0
 40
1.0
 10
36.51020835368743
 20
-5.575199590931731
 30
0.0
 10
36.31384599140125
 20
-5.492070888945419
 30
0.0
 10
35.9153207413674
 20
-5.323724363489033
 30
0.0
 10
35.31338343759998
 20
-5.071349966199988
 30
0.0
 10
34.80512031379999
 20
-4.861153851199986
 30
0.0
 10
34.39544448809997
 20
-4.69583074019998
 30
0.0
 10
34.18904587189999
 20
-4.614888540199983
 30
0.0
 10
34.0851883846
 20
-4.575268595499963
 30
0.0
  0
SPLINE
  5
60CD2
330
1F
100
AcDbEntity
  8
1
100
AcDbSpline
210
0.0
220
0.0
230
1.0
 70
     8
 71
     3
 72
    10
 73
     6
 74
     0
 42
0.0000000001
 43
0.0000000001
 40
0.0
 40
0.0
 40
0.0
 40
0.0
 40
0.4996863413
 40
0.7494991445999999
 40
1.0
 40
1.0
 40
1.0
 40
1.0
 10
33.26146918409998
 20
-6.666502751799981
 30
0.0
 10
33.16205534169998
 20
-6.503452112399968
 30
0.0
 10
33.02510851409997
 20
-6.251094434499973
 30
0.0
 10
32.8700792921
 20
-5.901646841399965
 30
0.0
 10
32.80311971109998
 20
-5.722342886799977
 30
0.0
 10
32.77315572949999
 20
-5.631417760599973
 30
0.0
  0
SPLINE
  5
60CD3
330
1F
100
AcDbEntity
  8
1
100
AcDbSpline
210
0.0
220
0.0
230
1.0
 70
     8
 71
     3
 72
    15
 73
    11
 74
     0
 42
0.0000000001
 43
0.0000000001
 40
0.0
 40
0.0
 40
0.0
 40
0.0
 40
0.1098314652
 40
0.2333172441
 40
0.3665309518
 40
0.5045141724000001
 40
0.6418543882
 40
0.7731987016
 40
0.8937748956999998
 40
1.0
 40
1.0
 40
1.0
 40
1.0
 10
36.1397606603
 20
1.473453123800013
 30
0.0
 10
36.22445891219999
 20
1.505924245800024
 30
0.0
 10
36.41201553489998
 20
1.555308220500022
 30
0.0
 10
36.71393282749998
 20
1.58673866040003
 30
0.0
 10
37.0406251476
 20
1.578994398000013
 30
0.0
 10
37.37550049049997
 20
1.532348151100029
 30
0.0
 10
37.70163341109998
 20
1.449174665900024
 30
0.0
 10
38.00256821219998
 20
1.33366060710002
 30
0.0
 10
38.26311476929996
 20
1.191782217400016
 30
0.0
 10
38.41204894059999
 20
1.075896307800035
 30
0.0
 10
38.47450191039996
 20
1.01428206400002
 30
0.0
  0
SPLINE
  5
60CD4
330
1F
100
AcDbEntity
  8
1
100
AcDbSpline
210
0.0
220
0.0
230
1.0
 70
     8
 71
     3
 72
    30
 73
    26
 74
     0
 42
0.0000000001
 43
0.0000000001
 40
0.0
 40
0.0
 40
0.0
 40
0.0
 40
0.0806337142
 40
0.155526033
 40
0.1905889977
 40
0.2239673655
 40
0.25561989
 40
0.2855413607
 40
0.313773739
 40
0.3404171407
 40
0.3896275206
 40
0.4127881944
 40
0.4354255751
 40
0.4579195745000001
 40
0.4806429758000001
 40
0.5039317339000001
 40
0.5280652106
 40
0.5532586901
 40
0.5796657326
 40
0.6364592070000003
 40
0.6988097486
 40
0.7666476255
 40
0.8397020738
 40
0.9176148412999999
 40
1.0
 40
1.0
 40
1.0
 40
1.0
 10
21.93553423909998
 20
-17.53851582739997
 30
0.0
 10
21.6626238826
 20
-17.48948439749998
 30
0.0
 10
21.13498070789999
 20
-17.40197461479997
 30
0.0
 10
20.4875487283
 20
-17.30015702919998
 30
0.0
 10
20.00171335279998
 20
-17.21697545079997
 30
0.0
 10
19.6634823935
 20
-17.15302543859998
 30
0.0
 10
19.34431085879998
 20
-17.08388142349997
 30
0.0
 10
19.04504668589993
 20
-17.00731519009997
 30
0.0
 10
18.76626930019998
 20
-16.92114571069997
 30
0.0
 10
18.43149131460001
 20
-16.79426434389997
 30
0.0
 10
18.12670752749997
 20
-16.63749372519997
 30
0.0
 10
17.86290349479995
 20
-16.44375120999997
 30
0.0
 10
17.68992900319998
 20
-16.28414666699998
 30
0.0
 10
17.53744591769998
 20
-16.10685276439997
 30
0.0
 10
17.40464035169997
 20
-15.91170911499997
 30
0.0
 10
17.29043343969997
 20
-15.69878860749997
 30
0.0
 10
17.19355142379999
 20
-15.46829006579997
 30
0.0
 10
17.11261935049995
 20
-15.22048850789996
 30
0.0
 10
17.02200159789998
 20
-14.85867437609998
 30
0.0
 10
16.9443037444
 20
-14.36327755599998
 30
0.0
 10
16.89570809719998
 20
-13.72174565859998
 30
0.0
 10
16.88086292769998
 20
-13.02275576339997
 30
0.0
 10
16.89250727960001
 20
-12.27032414269997
 30
0.0
 10
16.92477636960001
 20
-11.46847657439998
 30
0.0
 10
16.95618351779998
 20
-10.91812659839998
 30
0.0
 10
16.97393528499998
 20
-10.63538061219996
 30
0.0
  0
SPLINE
  5
60CD5
330
1F
100
AcDbEntity
  8
1
100
AcDbSpline
210
0.0
220
0.0
230
1.0
 70
     8
 71
     3
 72
    15
 73
    11
 74
     0
 42
0.0000000001
 43
0.0000000001
 40
0.0
 40
0.0
 40
0.0
 40
0.0
 40
0.1282954011
 40
0.2551749713
 40
0.3801757499
 40
0.5036060190999999
 40
0.6263016019
 40
0.7493501640000001
 40
0.8737504605999999
 40
1.0
 40
1.0
 40
1.0
 40
1.0
 10
27.13332151299997
 20
10.42243520850002
 30
0.0
 10
27.14995741799996
 20
10.30252588430004
 30
0.0
 10
27.20086418359997
 20
10.06608641670002
 30
0.0
 10
27.32931990559999
 20
9.729678452500039
 30
0.0
 10
27.50650695199997
 20
9.421307784000026
 30
0.0
 10
27.72856110129999
 20
9.148495797400029
 30
0.0
 10
27.99140283629999
 20
8.917388374900028
 30
0.0
 10
28.29051432669999
 20
8.733708752100042
 30
0.0
 10
28.61982264499997
 20
8.602989189200016
 30
0.0
 10
28.85270881169999
 20
8.554522899100035
 30
0.0
 10
28.9709626817
 20
8.540123018100032
 30
0.0
  0
LINE
  5
60CD6
330
1F
100
AcDbEntity
  8
1
100
AcDbLine
 10
30.45769534949997
 20
8.871727369800012
 30
0.0
 11
44.17024136539999
 21
8.512264652200007
 31
0.0
  0
LINE
  5
60CD7
330
1F
100
AcDbEntity
  8
1
100
AcDbLine
 10
44.17024136539999
 20
8.512264652200007
 30
0.0
 11
44.17913842809997
 21
8.512031328400027
 31
0.0
  0
SPLINE
  5
60CD8
330
1F
100
AcDbEntity
  8
1
100
AcDbSpline
210
0.0
220
0.0
230
1.0
 70
     8
 71
     3
 72
    15
 73
    11
 74
     0
 42
0.0000000001
 43
0.0000000001
 40
0.0
 40
0.0
 40
0.0
 40
0.0
 40
0.1094263583
 40
0.2328867022
 40
0.3663708486
 40
0.5047671335000004
 40
0.6424811787
 40
0.7739838350000002
 40
0.8943674900000001
 40
1.0
 40
1.0
 40
1.0
 40
1.0
 10
43.78533570179996
 20
1.324070683100017
 30
0.0
 10
43.87035479989997
 20
1.357820944300023
 30
0.0
 10
44.05950390960001
 20
1.409263292000025
 30
0.0
 10
44.36484521119999
 20
1.442406304200012
 30
0.0
 10
44.69610428619998
 20
1.43523414920002
 30
0.0
 10
45.03596076239995
 20
1.387989039600028
 30
0.0
 10
45.366729816
 20
1.303149688300017
 30
0.0
 10
45.67123078229996
 20
1.185109932300022
 30
0.0
 10
45.93364840729992
 20
1.040161831700032
 30
0.0
 10
46.08271405909997
 20
0.9216487702000364
 30
0.0
 10
46.14463733459999
 20
0.8586988149000234
 30
0.0
  0
SPLINE
  5
60CD9
330
1F
100
AcDbEntity
  8
1
100
AcDbSpline
210
0.0
220
0.0
230
1.0
 70
     8
 71
     3
 72
    19
 73
    15
 74
     0
 42
0.0000000001
 43
0.0000000001
 40
0.0
 40
0.0
 40
0.0
 40
0.0
 40
0.017511913
 40
0.0388684165
 40
0.0659222931
 40
0.0995426268
 40
0.1400856408
 40
0.1876064493
 40
0.2420158616
 40
0.3031536614
 40
0.4446432413000001
 40
0.6097095192000001
 40
0.7957556467
 40
1.0
 40
1.0
 40
1.0
 40
1.0
 10
16.97393528489999
 20
17.35006491620002
 30
0.0
 10
16.9769036744
 20
17.35725280020001
 30
0.0
 10
16.98780003199997
 20
17.37147293560001
 30
0.0
 10
17.01316762229996
 20
17.38678906610003
 30
0.0
 10
17.04779402249997
 20
17.39861013250002
 30
0.0
 10
17.09199904149997
 20
17.40722651580002
 30
0.0
 10
17.14578655579998
 20
17.41285802130001
 30
0.0
 10
17.20901976129997
 20
17.41566516030004
 30
0.0
 10
17.28144913529999
 20
17.41585698790003
 30
0.0
 10
17.39556391969998
 20
17.41276222610004
 30
0.0
 10
17.55859461199998
 20
17.40314519920004
 30
0.0
 10
17.77671095419998
 20
17.38647045970002
 30
0.0
 10
18.02253390629997
 20
17.36661191120002
 30
0.0
 10
18.19536356809999
 20
17.35354775060001
 30
0.0
 10
18.28584411499997
 20
17.34722911750002
 30
0.0
  0
SPLINE
  5
60CDA
330
1F
100
AcDbEntity
  8
1
100
AcDbSpline
210
0.0
220
0.0
230
1.0
 70
     8
 71
     3
 72
    21
 73
    17
 74
     0
 42
0.0000000001
 43
0.0000000001
 40
0.0
 40
0.0
 40
0.0
 40
0.0
 40
0.1881156543
 40
0.369402946
 40
0.5365879307000001
 40
0.6824428080000004
 40
0.7458182338000002
 40
0.8023811340000001
 40
0.8520527314
 40
0.8948664518000001
 40
0.9309159798999999
 40
0.9603275781
 40
0.9725962309999999
 40
0.9832712224999999
 40
0.9923883498
 40
1.0
 40
1.0
 40
1.0
 40
1.0
 10
21.93553423909998
 20
8.832941562500009
 30
0.0
 10
21.37679716189999
 20
9.167376269300019
 30
0.0
 10
20.33398983789997
 20
9.920562427000037
 30
0.0
 10
19.03160844069995
 20
11.257288529
 30
0.0
 10
18.05575208709999
 20
12.67239561610002
 30
0.0
 10
17.49381049979996
 20
13.85430713310001
 30
0.0
 10
17.19776943479996
 20
14.72617468900002
 30
0.0
 10
17.04897307049995
 20
15.29464458950004
 30
0.0
 10
16.95291247239999
 20
15.80196404460004
 30
0.0
 10
16.89991512479997
 20
16.24409231080001
 30
0.0
 10
16.88130315379999
 20
16.61872160990002
 30
0.0
 10
16.88832400089995
 20
16.88807489560001
 30
0.0
 10
16.90663311809999
 20
17.06845493570002
 30
0.0
 10
16.92411675749997
 20
17.17813015070003
 30
0.0
 10
16.94560233919998
 20
17.27060708020004
 30
0.0
 10
16.96387802219999
 20
17.32571149600004
 30
0.0
 10
16.97393528489999
 20
17.35006491620002
 30
0.0
  0
SPLINE
  5
60CDB
330
1F
100
AcDbEntity
  8
1
100
AcDbSpline
210
0.0
220
0.0
230
1.0
 70
     8
 71
     3
 72
     9
 73
     5
 74
     0
 42
0.0000000001
 43
0.0000000001
 40
0.0
 40
0.0
 40
0.0
 40
0.0
 40
0.2422262156
 40
1.0
 40
1.0
 40
1.0
 40
1.0
 10
22.95617432949999
 20
9.072391975800016
 30
0.0
 10
22.95938653919998
 20
9.073262029200023
 30
0.0
 10
22.97267812530001
 20
9.076741497900043
 30
0.0
 10
22.98607894579999
 20
9.079797682900036
 30
0.0
 10
22.99627096409998
 20
9.081922157000022
 30
0.0
  0
SPLINE
  5
60CDC
330
1F
100
AcDbEntity
  8
1
100
AcDbSpline
210
0.0
220
0.0
230
1.0
 70
     8
 71
     3
 72
    21
 73
    17
 74
     0
 42
0.0000000001
 43
0.0000000001
 40
0.0
 40
0.0
 40
0.0
 40
0.0
 40
0.1926643503
 40
0.3554855612
 40
0.4264339185
 40
0.4909757888000001
 40
0.5497394136000004
 40
0.6035397661000001
 40
0.6533996795000001
 40
0.7005451664
 40
0.7463538858
 40
0.7922446800000002
 40
0.8395450127
 40
0.8893863195999999
 40
0.9426566930999999
 40
1.0
 40
1.0
 40
1.0
 40
1.0
 10
47.30918175720002
 20
-12.82502644409997
 30
0.0
 10
47.36715424429997
 20
-12.92440307029998
 30
0.0
 10
47.47997931229996
 20
-13.10446748519997
 30
0.0
 10
47.63536963549995
 20
-13.30704037279999
 30
0.0
 10
47.75845206479995
 20
-13.43605213819997
 30
0.0
 10
47.84541650469997
 20
-13.51306498179998
 30
0.0
 10
47.93143117299996
 20
-13.57496654079997
 30
0.0
 10
48.0166558592
 20
-13.62185000389996
 30
0.0
 10
48.10122489429996
 20
-13.65378881089998
 30
0.0
 10
48.18519626209999
 20
-13.67083037309997
 30
0.0
 10
48.26850134299993
 20
-13.67309379129996
 30
0.0
 10
48.3510054101
 20
-13.66085857339997
 30
0.0
 10
48.43263757979997
 20
-13.63458363179998
 30
0.0
 10
48.51346603489997
 20
-13.59478665009997
 30
0.0
 10
48.59364662269996
 20
-13.54196061379997
 30
0.0
 10
48.64479789699998
 20
-13.49998643609999
 30
0.0
 10
48.67034173439997
 20
-13.47718124669998
 30
0.0
  0
SPLINE
  5
60CDD
330
1F
100
AcDbEntity
  8
1
100
AcDbSpline
210
0.0
220
0.0
230
1.0
 70
     8
 71
     3
 72
    25
 73
    21
 74
     0
 42
0.0000000001
 43
0.0000000001
 40
0.0
 40
0.0
 40
0.0
 40
0.0
 40
0.0623897144
 40
0.1245427369
 40
0.2480799181
 40
0.310074629
 40
0.3723822979
 40
0.4037790713
 40
0.4353183719000004
 40
0.4669852633
 40
0.498738803
 40
0.5305187626
 40
0.5622593821999999
 40
0.5939084215000002
 40
0.625438758
 40
0.6880350536
 40
0.7503709524
 40
0.8126445802999999
 40
0.8749966891999999
 40
1.0
 40
1.0
 40
1.0
 40
1.0
 10
36.06352496809999
 20
3.196441427300015
 30
0.0
 10
36.08519611009999
 20
3.314803429600026
 30
0.0
 10
36.14036633249997
 20
3.549221142700033
 30
0.0
 10
36.30069978810003
 20
4.000454526700024
 30
0.0
 10
36.54572729189999
 20
4.420204258200016
 30
0.0
 10
36.88507777339996
 20
4.760294929800025
 30
0.0
 10
37.13866382749998
 20
4.926507437400012
 30
0.0
 10
37.3621267401
 20
5.019785668000011
 30
0.0
 10
37.5389664878
 20
5.067112210600014
 30
0.0
 10
37.72152142969998
 20
5.08862718950003
 30
0.0
 10
37.90576121780001
 20
5.082189949100026
 30
0.0
 10
38.08688601289997
 20
5.046933450000025
 30
0.0
 10
38.25999745839997
 20
4.983687424600033
 30
0.0
 10
38.42086544589998
 20
4.894821441500027
 30
0.0
 10
38.61441134389997
 20
4.747371280800023
 30
0.0
 10
38.81471270389997
 20
4.516994651300008
 30
0.0
 10
38.9856112578
 20
4.196291683200009
 30
0.0
 10
39.09516189149997
 20
3.850972101400017
 30
0.0
 10
39.17090790089998
 20
3.374269598000005
 30
0.0
 10
39.16028247609998
 20
3.009217578500019
 30
0.0
 10
39.13055805129997
 20
2.76996607020002
 30
0.0
  0
SPLINE
  5
60CDE
330
1F
100
AcDbEntity
  8
1
100
AcDbSpline
210
0.0
220
0.0
230
1.0
 70
     8
 71
     3
 72
    25
 73
    21
 74
     0
 42
0.0000000001
 43
0.0000000001
 40
0.0
 40
0.0
 40
0.0
 40
0.0
 40
0.0624166222
 40
0.1245936939
 40
0.2481570323
 40
0.3101459914
 40
0.3724347531
 40
0.4038183842
 40
0.4353426745000001
 40
0.4669933273
 40
0.4987299250000001
 40
0.5304927117
 40
0.5622164977000002
 40
0.5938498973
 40
0.6253667686
 40
0.6879458992
 40
0.7502805899
 40
0.8125665597000001
 40
0.8749401247999999
 40
1.0
 40
1.0
 40
1.0
 40
1.0
 10
43.71940232499997
 20
3.036271319200024
 30
0.0
 10
43.74115697519996
 20
3.155089943700026
 30
0.0
 10
43.79641328849999
 20
3.390426590300029
 30
0.0
 10
43.95671828699997
 20
3.843554014400026
 30
0.0
 10
44.20158918589996
 20
4.265370513600031
 30
0.0
 10
44.54121457959998
 20
4.607519292300024
 30
0.0
 10
44.79523864999996
 20
4.774850081900027
 30
0.0
 10
45.01923737759996
 20
4.868774498600032
 30
0.0
 10
45.19655854019993
 20
4.916416861400016
 30
0.0
 10
45.37964927829998
 20
4.938031836500016
 30
0.0
 10
45.56442681809996
 20
4.931443360900026
 30
0.0
 10
45.74602413459999
 20
4.895776413600025
 30
0.0
 10
45.9194787015
 20
4.831888137200023
 30
0.0
 10
46.0805190371
 20
4.742205889200014
 30
0.0
 10
46.27406470469997
 20
4.593521942700028
 30
0.0
 10
46.4739587567
 20
4.361479264900026
 30
0.0
 10
46.64398102129999
 20
4.038928144500033
 30
0.0
 10
46.75255672509999
 20
3.691950075100017
 30
0.0
 10
46.82709456659995
 20
3.213221003600025
 30
0.0
 10
46.81582226099999
 20
2.84685881510002
 30
0.0
 10
46.78586802859995
 20
2.606693506200024
 30
0.0
  0
SPLINE
  5
60CDF
330
1F
100
AcDbEntity
  8
1
100
AcDbSpline
210
0.0
220
0.0
230
1.0
 70
     8
 71
     3
 72
     9
 73
     5
 74
     0
 42
0.0000000001
 43
0.0000000001
 40
0.0
 40
0.0
 40
0.0
 40
0.0
 40
0.2501557589
 40
1.0
 40
1.0
 40
1.0
 40
1.0
 10
34.52967228159997
 20
-4.321451558299968
 30
0.0
 10
34.57000612479996
 20
-4.321513777499973
 30
0.0
 10
34.73122481599998
 20
-4.325259149099976
 30
0.0
 10
34.89206610609997
 20
-4.342448759699962
 30
0.0
 10
35.01136955249997
 20
-4.362039376299961
 30
0.0
  0
SPLINE
  5
60CE0
330
1F
100
AcDbEntity
  8
1
100
AcDbSpline
210
0.0
220
0.0
230
1.0
 70
     8
 71
     3
 72
    11
 73
     7
 74
     0
 42
0.0000000001
 43
0.0000000001
 40
0.0
 40
0.0
 40
0.0
 40
0.0
 40
0.3457233564
 40
0.6324033886000004
 40
0.8523821462
 40
1.0
 40
1.0
 40
1.0
 40
1.0
 10
28.96604696349999
 20
12.87152652910001
 30
0.0
 10
28.94142310249998
 20
12.86750424480003
 30
0.0
 10
28.89641879389996
 20
12.85993924290003
 30
0.0
 10
28.83573014739994
 20
12.8498061759
 30
0.0
 10
28.78902421679996
 20
12.84304519910002
 30
0.0
 10
28.76254982499998
 20
12.84045048330002
 30
0.0
 10
28.75189651699998
 20
12.84045048330002
 30
0.0
  0
SPLINE
  5
60CE1
330
1F
100
AcDbEntity
  8
1
100
AcDbSpline
210
0.0
220
0.0
230
1.0
 70
     8
 71
     3
 72
    15
 73
    11
 74
     0
 42
0.0000000001
 43
0.0000000001
 40
0.0
 40
0.0
 40
0.0
 40
0.0
 40
0.1244929552
 40
0.2492294081
 40
0.3741818301
 40
0.4993005364
 40
0.6245188651
 40
0.7497600137
 40
0.8749448585999999
 40
1.0
 40
1.0
 40
1.0
 40
1.0
 10
28.6232440899
 20
12.38316259480003
 30
0.0
 10
28.53502116939998
 20
12.30534602400003
 30
0.0
 10
28.37073106899999
 20
12.13492137430002
 30
0.0
 10
28.16857312429997
 20
11.84306399100001
 30
0.0
 10
28.01535831960001
 20
11.52204493450003
 30
0.0
 10
27.91515225539999
 20
11.18029819520002
 30
0.0
 10
27.87052362069997
 20
10.82669933940003
 30
0.0
 10
27.882648389
 20
10.47041829770001
 30
0.0
 10
27.9511608903
 20
10.12082361460003
 30
0.0
 10
28.03342457279999
 20
9.897858682600015
 30
0.0
 10
28.08307060639996
 20
9.790624165100027
 30
0.0
  0
SPLINE
  5
60CE2
330
1F
100
AcDbEntity
  8
1
100
AcDbSpline
210
0.0
220
0.0
230
1.0
 70
     8
 71
     3
 72
    15
 73
    11
 74
     0
 42
0.0000000001
 43
0.0000000001
 40
0.0
 40
0.0
 40
0.0
 40
0.0
 40
0.1248459965
 40
0.2497341067
 40
0.3746732568
 40
0.4996659283
 40
0.6247078240999999
 40
0.7497883504999999
 40
0.8748919326999999
 40
1.0
 40
1.0
 40
1.0
 40
1.0
 10
28.71289840539999
 20
12.84045048330002
 30
0.0
 10
28.5869393035
 20
12.80467919220003
 30
0.0
 10
28.3408079912
 20
12.71040227870004
 30
0.0
 10
28.00295081349998
 20
12.50584466050002
 30
0.0
 10
27.70658498079999
 20
12.24434647970001
 30
0.0
 10
27.46139855969997
 20
11.93417407780001
 30
0.0
 10
27.2752949687
 20
11.58516092710002
 30
0.0
 10
27.15436634649999
 20
11.20841218780001
 30
0.0
 10
27.10255844820001
 20
10.81619051140001
 30
0.0
 10
27.11529121109999
 20
10.55240518720001
 30
0.0
 10
27.13332290479997
 20
10.42243520880002
 30
0.0
  0
SPLINE
  5
60CE3
330
1F
100
AcDbEntity
  8
1
100
AcDbSpline
210
0.0
220
0.0
230
1.0
 70
     8
 71
     3
 72
    15
 73
    11
 74
     0
 42
0.0000000001
 43
0.0000000001
 40
0.0
 40
0.0
 40
0.0
 40
0.0
 40
0.1251285515
 40
0.250228862
 40
0.375292477
 40
0.5003142208
 40
0.6252923213
 40
0.7502285944000004
 40
0.8751284158
 40
1.0
 40
1.0
 40
1.0
 40
1.0
 10
20.23009396059999
 20
17.33008678550003
 30
0.0
 10
20.32043681429997
 20
16.90944498670002
 30
0.0
 10
20.56176383539997
 20
16.07998280390001
 30
0.0
 10
21.09733031759998
 20
14.90136146420003
 30
0.0
 10
21.79566598349999
 20
13.81138616300001
 30
0.0
 10
22.64235189159996
 20
12.83281196760001
 30
0.0
 10
23.62000538710001
 20
11.98572520110004
 30
0.0
 10
24.70859895620002
 20
11.28756012110003
 30
0.0
 10
25.88540845879999
 20
10.75283370710004
 30
0.0
 10
26.71346808629997
 20
10.51223391660001
 30
0.0
 10
27.13332290479997
 20
10.42243520880002
 30
0.0
  0
SPLINE
  5
60CE4
330
1F
100
AcDbEntity
  8
1
100
AcDbSpline
210
0.0
220
0.0
230
1.0
 70
     8
 71
     3
 72
    39
 73
    35
 74
     0
 42
0.0000000001
 43
0.0000000001
 40
0.0
 40
0.0
 40
0.0
 40
0.0
 40
0.0114321054
 40
0.0240146663
 40
0.0518040036
 40
0.0820696486
 40
0.1139740686
 40
0.1469900222
 40
0.1807775773
 40
0.249836875
 40
0.3200612995
 40
0.3908854712
 40
0.4619772160000001
 40
0.5331029116
 40
0.6040351598
 40
0.6393381616
 40
0.6744544484000004
 40
0.7437072607
 40
0.7775116606
 40
0.8103543797
 40
0.841685827
 40
0.8565347905999999
 40
0.8706523085
 40
0.8838795212
 40
0.8960690445
 40
0.9071393786999999
 40
0.9171589801999999
 40
0.9264154506
 40
0.9353797517
 40
0.9445374685999999
 40
0.9542277949999999
 40
0.9646159315999998
 40
0.9757380067999999
 40
1.0
 40
1.0
 40
1.0
 40
1.0
 10
22.99627096409998
 20
9.081922157000022
 30
0.0
 10
23.02128988269996
 20
9.087137222500032
 30
0.0
 10
23.07434019689998
 20
9.095731558100011
 30
0.0
 10
23.18957529289997
 20
9.107598144700018
 30
0.0
 10
23.34749338909998
 20
9.113863550300022
 30
0.0
 10
23.5486228801
 20
9.11255987080001
 30
0.0
 10
23.76129279129998
 20
9.104647902800039
 30
0.0
 10
23.98158902519998
 20
9.091740124400033
 30
0.0
 10
24.2844766312
 20
9.06908656030002
 30
0.0
 10
24.66971546949998
 20
9.03286001550002
 30
0.0
 10
25.13645207029998
 20
8.979973759100019
 30
0.0
 10
25.60664543269997
 20
8.917902792900022
 30
0.0
 10
26.07743673580002
 20
8.845657382700025
 30
0.0
 10
26.5463974953
 20
8.760852715000012
 30
0.0
 10
26.93395029109997
 20
8.676535147400031
 30
0.0
 10
27.24012803849999
 20
8.598211638000021
 30
0.0
 10
27.5402929558
 20
8.512170588300037
 30
0.0
 10
27.83301938789998
 20
8.412251849200018
 30
0.0
 10
28.11259065210001
 20
8.292957901700034
 30
0.0
 10
28.30837556079999
 20
8.194395867400018
 30
0.0
 10
28.45936224859997
 20
8.102029293100017
 30
0.0
 10
28.56759248839998
 20
8.021519468400027
 30
0.0
 10
28.63897320359999
 20
7.959694537400012
 30
0.0
 10
28.7002070808
 20
7.895741788500012
 30
0.0
 10
28.74929553210001
 20
7.83028111860004
 30
0.0
 10
28.78416829209998
 20
7.764103715300036
 30
0.0
 10
28.80282873189998
 20
7.698222748700048
 30
0.0
 10
28.80367313019997
 20
7.634253560200035
 30
0.0
 10
28.7865761665
 20
7.574598512200012
 30
0.0
 10
28.75358005249996
 20
7.521135079900019
 30
0.0
 10
28.70744954359998
 20
7.474243336700012
 30
0.0
 10
28.65044472609998
 20
7.433582462200013
 30
0.0
 10
28.55976230639996
 20
7.385728564200022
 30
0.0
 10
28.48436597780001
 20
7.360121619100012
 30
0.0
 10
28.43203073139998
 20
7.345881065200032
 30
0.0
  0
SPLINE
  5
60CE5
330
1F
100
AcDbEntity
  8
1
100
AcDbSpline
210
0.0
220
0.0
230
1.0
 70
     8
 71
     3
 72
    12
 73
     8
 74
     0
 42
0.0000000001
 43
0.0000000001
 40
0.0
 40
0.0
 40
0.0
 40
0.0
 40
0.2526741812
 40
0.5026481459000001
 40
0.7510002162000001
 40
0.8753503547999999
 40
1.0
 40
1.0
 40
1.0
 40
1.0
 10
33.43291864229997
 20
-7.353665511699972
 30
0.0
 10
33.3186593406
 20
-7.261912113199968
 30
0.0
 10
33.10641513539997
 20
-7.059284365999985
 30
0.0
 10
32.854114681
 20
-6.700654615299981
 30
0.0
 10
32.71586499059998
 20
-6.362802439699962
 30
0.0
 10
32.6595684344
 20
-6.079195474499982
 30
0.0
 10
32.65093493559999
 20
-5.934463089899977
 30
0.0
 10
32.65182994189999
 20
-5.862177439199983
 30
0.0
  0
SPLINE
  5
60CE6
330
1F
100
AcDbEntity
  8
1
100
AcDbSpline
210
0.0
220
0.0
230
1.0
 70
     8
 71
     3
 72
    15
 73
    11
 74
     0
 42
0.0000000001
 43
0.0000000001
 40
0.0
 40
0.0
 40
0.0
 40
0.0
 40
0.1250960701
 40
0.2501739038
 40
0.3752269097999999
 40
0.5002500039
 40
0.6252396421000001
 40
0.7501941005
 40
0.8751135818999998
 40
1.0
 40
1.0
 40
1.0
 40
1.0
 10
16.97393528489999
 20
17.35006491620002
 30
0.0
 10
17.04631803809997
 20
16.89120900290002
 30
0.0
 10
17.24449627999996
 20
15.98107969040001
 30
0.0
 10
17.69751368639996
 20
14.66026979860003
 30
0.0
 10
18.30029743819997
 20
13.40082930770001
 30
0.0
 10
19.04466734359997
 20
12.21997659620003
 30
0.0
 10
19.92058068759998
 20
11.1335775863
 30
0.0
 10
20.91630437249998
 20
10.15629184150002
 30
0.0
 10
22.018196211
 20
9.301426067400015
 30
0.0
 10
22.81430007449998
 20
8.82047869900002
 30
0.0
 10
23.22451028949999
 20
8.604162015700026
 30
0.0
  0
SPLINE
  5
60CE7
330
1F
100
AcDbEntity
  8
1
100
AcDbSpline
210
0.0
220
0.0
230
1.0
 70
     8
 71
     3
 72
    21
 73
    17
 74
     0
 42
0.0000000001
 43
0.0000000001
 40
0.0
 40
0.0
 40
0.0
 40
0.0
 40
0.0048652904
 40
0.0105458236
 40
0.0175729351
 40
0.0262284936
 40
0.0489275175
 40
0.0792170756
 40
0.1172337432
 40
0.1629310413
 40
0.2162052357
 40
0.2769234984
 40
0.419830235
 40
0.5896620470000002
 40
0.7839938523000001
 40
1.0
 40
1.0
 40
1.0
 40
1.0
 10
28.7977857153
 20
7.224354767300019
 30
0.0
 10
28.79996048859997
 20
7.224354757800042
 30
0.0
 10
28.80470370219999
 20
7.225494317900042
 30
0.0
 10
28.81121337199997
 20
7.230089924200014
 30
0.0
 10
28.81754311139997
 20
7.237311747000021
 30
0.0
 10
28.82673536719997
 20
7.251850818400027
 30
0.0
 10
28.8375668308
 20
7.27732783650002
 30
0.0
 10
28.84967852099999
 20
7.316176788000021
 30
0.0
 10
28.86167878649999
 20
7.365736563500012
 30
0.0
 10
28.87352989089996
 20
7.425821525200021
 30
0.0
 10
28.88514984119999
 20
7.496260461100021
 30
0.0
 10
28.90112729390001
 20
7.609984534700012
 30
0.0
 10
28.9195694901
 20
7.775928255100025
 30
0.0
 10
28.93909723759998
 20
8.001757892999997
 30
0.0
 10
28.95665715389995
 20
8.260509507000037
 30
0.0
 10
28.9663991212
 20
8.443676687600017
 30
0.0
 10
28.9709626817
 20
8.540123018100032
 30
0.0
  0
SPLINE
  5
60CE8
330
1F
100
AcDbEntity
  8
1
100
AcDbSpline
210
0.0
220
0.0
230
1.0
 70
     8
 71
     3
 72
    15
 73
    11
 74
     0
 42
0.0000000001
 43
0.0000000001
 40
0.0
 40
0.0
 40
0.0
 40
0.0
 40
0.1073062426
 40
0.2282163813
 40
0.3592526014
 40
0.4958966534000001
 40
0.6331202120000004
 40
0.7658443327
 40
0.8893930226
 40
1.0
 40
1.0
 40
1.0
 40
1.0
 10
38.49422543989999
 20
1.043049959600033
 30
0.0
 10
38.42887273649998
 20
1.104115660000011
 30
0.0
 10
38.27553432959999
 20
1.21879279470002
 30
0.0
 10
38.0102552007
 20
1.359472335200024
 30
0.0
 10
37.70641963509999
 20
1.473993778300027
 30
0.0
 10
37.37853675979997
 20
1.556764470500013
 30
0.0
 10
37.0422465126
 20
1.603842620700014
 30
0.0
 10
36.71361389199998
 20
1.612966121800019
 30
0.0
 10
36.40841501780001
 20
1.583801657900038
 30
0.0
 10
36.2178312783
 20
1.536725016600023
 30
0.0
 10
36.13103970969999
 20
1.505629236300008
 30
0.0
  0
SPLINE
  5
60CE9
330
1F
100
AcDbEntity
  8
1
100
AcDbSpline
210
0.0
220
0.0
230
1.0
 70
     8
 71
     3
 72
    15
 73
    11
 74
     0
 42
0.0000000001
 43
0.0000000001
 40
0.0
 40
0.0
 40
0.0
 40
0.0
 40
0.1067895945
 40
0.2275424072
 40
0.3587280927000001
 40
0.4957062350000001
 40
0.6332932524000002
 40
0.7662508095999999
 40
0.8897676973000001
 40
1.0
 40
1.0
 40
1.0
 40
1.0
 10
46.16407578789995
 20
0.8883586860000319
 30
0.0
 10
46.09908498779997
 20
0.9506796202000343
 30
0.0
 10
45.94543029929996
 20
1.067796038400032
 30
0.0
 10
45.67819897439999
 20
1.211327770800018
 30
0.0
 10
45.37089753509996
 20
1.328174702500014
 30
0.0
 10
45.03860253419997
 20
1.412468188600029
 30
0.0
 10
44.69760394249993
 20
1.46008401320001
 30
0.0
 10
44.36464496779996
 20
1.468669086500014
 30
0.0
 10
44.05615386039997
 20
1.437913586500015
 30
0.0
 10
43.86399234409995
 20
1.388941622500027
 30
0.0
 10
43.77683008689995
 20
1.356667386200022
 30
0.0
  0
SPLINE
  5
60CEA
330
1F
100
AcDbEntity
  8
1
100
AcDbSpline
210
0.0
220
0.0
230
1.0
 70
     8
 71
     3
 72
    10
 73
     6
 74
     0
 42
0.0000000001
 43
0.0000000001
 40
0.0
 40
0.0
 40
0.0
 40
0.0
 40
0.5099334067
 40
0.7582159193000001
 40
1.0
 40
1.0
 40
1.0
 40
1.0
 10
47.83815074519997
 20
1.679104920400027
 30
0.0
 10
47.61841400419997
 20
2.622416533500021
 30
0.0
 10
47.30066323819996
 20
4.027095292900027
 30
0.0
 10
46.86621857999997
 20
5.876156535800013
 30
0.0
 10
46.64228450649996
 20
6.779699828800018
 30
0.0
 10
46.52746258829998
 20
7.224358302300012
 30
0.0
  0
SPLINE
  5
60CEB
330
1F
100
AcDbEntity
  8
1
100
AcDbSpline
210
0.0
220
0.0
230
1.0
 70
     8
 71
     3
 72
    14
 73
    10
 74
     0
 42
0.0000000001
 43
0.0000000001
 40
0.0
 40
0.0
 40
0.0
 40
0.0
 40
0.3089386494
 40
0.4384376407000001
 40
0.5487224547000002
 40
0.6399801429
 40
0.7215563841
 40
0.8250489937999997
 40
1.0
 40
1.0
 40
1.0
 40
1.0
 10
48.67034173439997
 20
-13.47718124669998
 30
0.0
 10
48.67334561019993
 20
-13.47449942729997
 30
0.0
 10
48.67775122549997
 20
-13.47082880399996
 30
0.0
 10
48.68382283009997
 20
-13.46701325319996
 30
0.0
 10
48.68777737009997
 20
-13.46526062439997
 30
0.0
 10
48.6914923547
 20
-13.46456834749998
 30
0.0
 10
48.6951090842
 20
-13.46592670839998
 30
0.0
 10
48.69738004989997
 20
-13.47037901649997
 30
0.0
 10
48.69758484899998
 20
-13.47402908289996
 30
0.0
 10
48.69758484899998
 20
-13.47630946899997
 30
0.0
  0
SPLINE
  5
60CEC
330
1F
100
AcDbEntity
  8
1
100
AcDbSpline
210
0.0
220
0.0
230
1.0
 70
     8
 71
     3
 72
     9
 73
     5
 74
     0
 42
0.0000000001
 43
0.0000000001
 40
0.0
 40
0.0
 40
0.0
 40
0.0
 40
0.2558253964
 40
1.0
 40
1.0
 40
1.0
 40
1.0
 10
17.06277206559997
 20
-10.16540431779998
 30
0.0
 10
17.05053649569996
 20
-10.20437052719997
 30
0.0
 10
17.00703736169998
 20
-10.35799390169997
 30
0.0
 10
16.98137968699998
 20
-10.51680792289997
 30
0.0
 10
16.97393528499998
 20
-10.63538061219996
 30
0.0
  0
SPLINE
  5
60CED
330
1F
100
AcDbEntity
  8
1
100
AcDbSpline
210
0.0
220
0.0
230
1.0
 70
     8
 71
     3
 72
    13
 73
     9
 74
     0
 42
0.0000000001
 43
0.0000000001
 40
0.0
 40
0.0
 40
0.0
 40
0.0
 40
0.2539777954
 40
0.3804667482
 40
0.5063551424
 40
0.6315065695000001
 40
0.7557514356000004
 40
1.0
 40
1.0
 40
1.0
 40
1.0
 10
35.01136955249997
 20
-4.362039376299961
 30
0.0
 10
35.236683794
 20
-4.40052903359998
 30
0.0
 10
35.56888192179997
 20
-4.497623825499971
 30
0.0
 10
35.98090898039999
 20
-4.693579646499968
 30
0.0
 10
36.27101293379997
 20
-4.871781653799969
 30
0.0
 10
36.53798909519998
 20
-5.08013001029998
 30
0.0
 10
36.8531887287
 20
-5.393736524499985
 30
0.0
 10
37.04079602269997
 20
-5.676106779999969
 30
0.0
 10
37.12644049139996
 20
-5.87855847759998
 30
0.0
  0
SPLINE
  5
60CEE
330
1F
100
AcDbEntity
  8
1
100
AcDbSpline
210
0.0
220
0.0
230
1.0
 70
     8
 71
     3
 72
    18
 73
    14
 74
     0
 42
0.0000000001
 43
0.0000000001
 40
0.0
 40
0.0
 40
0.0
 40
0.0
 40
0.1762692183
 40
0.3315533832
 40
0.4576709825
 40
0.5073700577000002
 40
0.5479864214
 40
0.5820150581
 40
0.6155677114
 40
0.6554799137
 40
0.7052889069
 40
0.8356630751999999
 40
1.0
 40
1.0
 40
1.0
 40
1.0
 10
48.69758484899998
 20
-0.0316674036999842
 30
0.0
 10
48.69758484899998
 20
-0.0345462824999743
 30
0.0
 10
48.6974776351
 20
-0.0399655661999816
 30
0.0
 10
48.69682644619999
 20
-0.0474108169999852
 30
0.0
 10
48.69576745469998
 20
-0.0527540625999734
 30
0.0
 10
48.69437727699997
 20
-0.0560200346999693
 30
0.0
 10
48.69318412929996
 20
-0.0576967408999707
 30
0.0
 10
48.69163399309996
 20
-0.0586813158999746
 30
0.0
 10
48.68980269209998
 20
-0.0587241795999631
 30
0.0
 10
48.68792400449996
 20
-0.0579014423999667
 30
0.0
 10
48.68506027549996
 20
-0.0557011891999793
 30
0.0
 10
48.68146208249996
 20
-0.0513091805999721
 30
0.0
 10
48.67885430049994
 20
-0.047267657699976
 30
0.0
 10
48.67747469580002
 20
-0.0449653692999732
 30
0.0
  0
SPLINE
  5
60CEF
330
1F
100
AcDbEntity
  8
1
100
AcDbSpline
210
0.0
220
0.0
230
1.0
 70
     8
 71
     3
 72
    11
 73
     7
 74
     0
 42
0.0000000001
 43
0.0000000001
 40
0.0
 40
0.0
 40
0.0
 40
0.0
 40
0.2263235821
 40
0.4658168910000002
 40
0.7227649903
 40
1.0
 40
1.0
 40
1.0
 40
1.0
 10
16.97393528489999
 20
-10.63538061219996
 30
0.0
 10
17.03865642939999
 20
-10.43415667839997
 30
0.0
 10
17.21399178659996
 20
-10.03263287189997
 30
0.0
 10
17.59215731679998
 20
-9.469848166799977
 30
0.0
 10
18.08562801159996
 20
-8.938568866699981
 30
0.0
 10
18.47242919749996
 20
-8.621106325599967
 30
0.0
 10
18.68138493929996
 20
-8.468201888799967
 30
0.0
  0
LINE
  5
60CF0
330
1F
100
AcDbEntity
  8
1
100
AcDbLine
 10
36.5262191249
 20
-5.581978042399966
 30
0.0
 11
36.51799488630003
 21
-5.619772906099981
 31
0.0
  0
SPLINE
  5
60CF1
330
1F
100
AcDbEntity
  8
1
100
AcDbSpline
210
0.0
220
0.0
230
1.0
 70
     8
 71
     3
 72
     9
 73
     5
 74
     0
 42
0.0000000001
 43
0.0000000001
 40
0.0
 40
0.0
 40
0.0
 40
0.0
 40
0.2532186583
 40
1.0
 40
1.0
 40
1.0
 40
1.0
 10
34.0851883846
 20
-4.575268595499963
 30
0.0
 10
34.07990487309999
 20
-4.564451210799972
 30
0.0
 10
34.05739770119999
 20
-4.522556019899965
 30
0.0
 10
34.02811231280001
 20
-4.484280594299973
 30
0.0
 10
34.00318151749997
 20
-4.45900217259998
 30
0.0
  0
SPLINE
  5
60CF2
330
1F
100
AcDbEntity
  8
1
100
AcDbSpline
210
0.0
220
0.0
230
1.0
 70
     8
 71
     3
 72
    17
 73
    13
 74
     0
 42
0.0000000001
 43
0.0000000001
 40
0.0
 40
0.0
 40
0.0
 40
0.0
 40
0.0248565532
 40
0.052451411
 40
0.1114742973
 40
0.1728722623
 40
0.2353767341
 40
0.3619194075999999
 40
0.4893508015
 40
0.6170850463000001
 40
0.7448586951000003
 40
1.0
 40
1.0
 40
1.0
 40
1.0
 10
48.00798438159995
 20
1.086130298400014
 30
0.0
 10
48.00540289439999
 20
1.090549276400025
 30
0.0
 10
48.00056909519998
 20
1.100226824800017
 30
0.0
 10
47.99146416419997
 20
1.121296621600022
 30
0.0
 10
47.98079698789996
 20
1.149861631700018
 30
0.0
 10
47.9687163033
 20
1.185535015300033
 30
0.0
 10
47.95318087359996
 20
1.234707160800027
 30
0.0
 10
47.9348553351
 20
1.297243224300032
 30
0.0
 10
47.91402784259996
 20
1.373026015000014
 30
0.0
 10
47.89406367309999
 20
1.449302263700025
 30
0.0
 10
47.86841006139996
 20
1.551263995100029
 30
0.0
 10
47.85006845539998
 20
1.627943178400023
 30
0.0
 10
47.83815074519997
 20
1.679104920400027
 30
0.0
  0
SPLINE
  5
60CF3
330
1F
100
AcDbEntity
  8
cut
100
AcDbSpline
210
0.0
220
0.0
230
1.0
 70
     8
 71
     3
 72
    13
 73
     9
 74
     0
 42
0.0000000001
 43
0.0000000001
 40
0.0
 40
0.0
 40
0.0
 40
0.0
 40
0.1260515828
 40
0.2519774804
 40
0.5019875107000003
 40
0.7508213903000001
 40
0.8754658551
 40
1.0
 40
1.0
 40
1.0
 40
1.0
 10
28.08316816629994
 20
9.574365489900088
 30
0.0
 10
28.08316816629994
 20
9.548406974400023
 30
0.0
 10
28.08816109379993
 20
9.496351031399987
 30
0.0
 10
28.11790276049996
 20
9.396826043400068
 30
0.0
 10
28.18979904879993
 20
9.285939400600083
 30
0.0
 10
28.29879247719992
 20
9.211542267900057
 30
0.0
 10
28.39702113449994
 20
9.180284651800008
 30
0.0
 10
28.44844790189995
 20
9.17467089910005
 30
0.0
 10
28.47409247649995
 20
9.174398535999984
 30
0.0
  0
SPLINE
  5
60CF4
330
1F
100
AcDbEntity
  8
cut
100
AcDbSpline
210
0.0
220
0.0
230
1.0
 70
     8
 71
     3
 72
    13
 73
     9
 74
     0
 42
0.0000000001
 43
0.0000000001
 40
0.0
 40
0.0
 40
0.0
 40
0.0
 40
0.1260515828
 40
0.2519774804
 40
0.5019875107000003
 40
0.7508213903000001
 40
0.8754658551
 40
1.0
 40
1.0
 40
1.0
 40
1.0
 10
50.79999999999995
 20
18.27434355639998
 30
0.0
 10
50.79999999999995
 20
18.30030207190005
 30
0.0
 10
50.79500707239994
 20
18.35235801490008
 30
0.0
 10
50.76526540569995
 20
18.45188300280002
 30
0.0
 10
50.69336911739995
 20
18.56276964560006
 30
0.0
 10
50.58437568909997
 20
18.63716677840008
 30
0.0
 10
50.4861470318
 20
18.66842439450008
 30
0.0
 10
50.43472026439991
 20
18.67403814720004
 30
0.0
 10
50.40907568979996
 20
18.67431051020006
 30
0.0
  0
ELLIPSE
  5
60CF5
330
1F
100
AcDbEntity
  8
1
100
AcDbEllipse
 10
29.17782935289998
 20
0.0000000000000284
 30
0.0
 11
-92.9965022976
 21
-15.79996730419999
 31
0.0
210
0.0
220
0.0
230
1.0
 40
0.0944877644
 41
1.5502831615
 42
1.586631795599999
  0
ELLIPSE
  5
60CF6
330
1F
100
AcDbEntity
  8
1
100
AcDbEllipse
 10
27.60949273019998
 20
0.0000000000000284
 30
0.0
 11
-258.5414257054
 21
15.67594671930002
 31
0.0
210
0.0
220
0.0
230
1.0
 40
0.0348354973
 41
1.564507231999999
 42
1.577369691599999
  0
ELLIPSE
  5
60CF7
330
1F
100
AcDbEntity
  8
1
100
AcDbEllipse
 10
21.09530890339997
 20
0.0000000000000284
 30
0.0
 11
9.141650967999998
 21
16.7146537383
 31
0.0
210
0.0
220
0.0
230
1.0
 40
0.7536863670000003
 41
-1.636471893099999
 42
-1.5987042518
  0
ELLIPSE
  5
60CF8
330
1F
100
AcDbEntity
  8
1
100
AcDbEllipse
 10
20.88958732749998
 20
5.172474581000031
 30
0.0
 11
-118.6291077089
 21
16.36228934969999
 31
0.0
210
0.0
220
0.0
230
0.9999999999999998
 40
0.0736908662
 41
-4.564930699399996
 42
-4.4730701768
  0
ELLIPSE
  5
60CF9
330
1F
100
AcDbEntity
  8
1
100
AcDbEllipse
 10
33.92237600289997
 20
10.78560822530004
 30
0.0
 11
-3.2880903585
 21
-1.9090284596
 31
0.0
210
0.0
220
0.0
230
1.0
 40
0.0414220285
 41
0.07122418
 42
0.5252931121
  0
ELLIPSE
  5
60CFA
330
1F
100
AcDbEntity
  8
1
100
AcDbEllipse
 10
29.17782935289998
 20
0.0000000000000284
 30
0.0
 11
-93.008484563
 21
0.0000000000000057
 31
0.0
210
0.0
220
0.0
230
1.0
 40
0.1943803091
 41
-1.602683747299999
 42
-1.570796830099999
  0
ELLIPSE
  5
60CFB
330
1F
100
AcDbEntity
  8
1
100
AcDbEllipse
 10
29.4658558953
 20
10.09247894910002
 30
0.0
 11
5.469947364299999
 21
10.2823302494
 31
0.0
210
0.0
220
0.0
230
0.9999999999999998
 40
0.1692683807
 41
0.7775100856
 42
1.2627376368
  0
ELLIPSE
  5
60CFC
330
1F
100
AcDbEntity
  8
1
100
AcDbEllipse
 10
27.60949273019998
 20
0.0000000000000284
 30
0.0
 11
-258.5420024066999
 21
0.0000000000000158
 31
0.0
210
0.0
220
0.0
230
1.0
 40
0.0699268119
 41
-1.575257540399999
 42
-1.5623950808
  0
ELLIPSE
  5
60CFD
330
1F
100
AcDbEntity
  8
1
100
AcDbEllipse
 10
14.45753908439999
 20
-18.14871376639996
 30
0.0
 11
-28.6672022106
 21
-19.0479653192
 31
0.0
210
0.0
220
0.0
230
1.0
 40
0.8084866488999999
 41
-3.805061095199997
 42
-3.633360952099998
  0
DIMENSION
  5
60CFE
102
{ACAD_XDICTIONARY
360
60CFF
102
}
102
{ACAD_REACTORS
330
60D00
102
}
330
1F
100
AcDbEntity
  8
2
100
AcDbDimension
  2
*D12
 10
50.39999999999999
 20
18.27460789193801
 30
0.0
 11
66.27202422638724
 21
40.02152241794417
 31
0.0
 70
    36
 71
     5
 42
0.3999999999999772
  3
\M+18352\M+18373\M+1815B - ISO-25
100
AcDbRadialDimension
 15
50.68173319902621
 25
18.55855578252081
 35
0.0
 40
0.0
1001
ACAD
1000
DSTYLE
1002
{
1070
     4
1000
"
1070
    40
1040
1.0
1070
   143
1040
0.03937
1070
   170
1070
     1
1070
   171
1070
     3
1070
   271
1070
     8
1070
   285
1070
     4
1002
}
  0
VIEWPORT
  5
6B
102
{ACAD_XDICTIONARY
360
60E0B
102
}
330
50
100
AcDbEntity
 67
     1
  8
0
100
AcDbViewport
 10
155.3592437148233
 20
160.4455827878762
 30
0.0
 40
349.5854424261001
 41
282.2272140146125
 68
     1
 69
     1
 12
155.3592437148233
 22
160.4455827878762
 13
0.0
 23
0.0
 14
10.0
 24
10.0
 15
10.0
 25
10.0
 16
0.0
 26
0.0
 36
1.0
 17
0.0
 27
0.0
 37
0.0
 42
50.0
 43
0.0
 44
0.0
 45
282.2272140146125
 50
0.0
 51
0.0
 72
  1000
 90
    32864
  1

281
     0
 71
     1
 74
     0
110
0.0
120
0.0
130
0.0
111
1.0
121
0.0
131
0.0
112
0.0
122
1.0
132
0.0
 79
     0
146
0.0
  0
VIEWPORT
  5
6D
102
{ACAD_XDICTIONARY
360
60E0D
102
}
330
50
100
AcDbEntity
 67
     1
  8
0
100
AcDbViewport
 10
133.3499939441681
 20
101.5999939441681
 30
0.0
 40
213.3599903106689
 41
162.5599903106689
 68
     2
 69
     2
 12
210.0
 22
148.5
 13
0.0
 23
0.0
 14
10.0
 24
10.0
 15
10.0
 25
10.0
 16
0.0
 26
0.0
 36
1.0
 17
0.0
 27
0.0
 37
0.0
 42
50.0
 43
0.0
 44
0.0
 45
324.0677920111345
 50
0.0
 51
0.0
 72
   100
 90
    32864
  1

281
     0
 71
     1
 74
     0
110
0.0
120
0.0
130
0.0
111
1.0
121
0.0
131
0.0
112
0.0
122
1.0
132
0.0
 79
     0
146
0.0
  0
ENDSEC
  0
SECTION
  2
OBJECTS
  0
DICTIONARY
  5
C
330
0
100
AcDbDictionary
281
     1
  3
ACAD_COLOR
350
85
  3
ACAD_GROUP
350
D
  3
ACAD_LAYOUT
350
1A
  3
ACAD_MATERIAL
350
84
  3
ACAD_MLINESTYLE
350
17
  3
ACAD_PLOTSETTINGS
350
19
  3
ACAD_PLOTSTYLENAME
350
E
  3
ACAD_TABLESTYLE
350
A1
  3
ACDBHEADERROUNDTRIPXREC
350
60E06
  3
AcDbVariableDictionary
350
5E
  3
ASE_INDEX_DICTIONARY
350
349E9
  3
DWGPROPS
350
60E05
  0
DICTIONARY
  5
E2
330
2
100
AcDbDictionary
280
     1
281
     1
  3
ACAD_LAYERFILTERS
360
4E9A4
  3
ACAD_LAYERSTATES
360
3759A
  3
ACLYDICTIONARY
360
4E9A3
  0
DICTIONARY
  5
31EE
330
1F
100
AcDbDictionary
280
     1
281
     1
  3
ACAD_SORTENTS
360
31EF
  0
DICTIONARY
  5
43668
330
680
100
AcDbDictionary
280
     1
281
     1
  3
ACAD_SORTENTS
360
43669
  0
DICTIONARY
  5
60E0F
330
71
100
AcDbDictionary
280
     1
281
     1
  3
ACAD_XREC_ROUNDTRIP
360
60E10
  0
DICTIONARY
  5
60E11
330
73
100
AcDbDictionary
280
     1
281
     1
  3
ACAD_XREC_ROUNDTRIP
360
60E12
  0
DICTIONARY
  5
60CFF
330
60CFE
100
AcDbDictionary
280
     1
281
     1
  3
ACAD_DIMASSOC
360
60D00
  0
DICTIONARY
  5
60E0B
330
6B
100
AcDbDictionary
280
     1
281
     1
  3
ACAD_XREC_ROUNDTRIP
360
60E0C
  0
DICTIONARY
  5
60E0D
330
6D
100
AcDbDictionary
280
     1
281
     1
  3
ACAD_XREC_ROUNDTRIP
360
60E0E
  0
DICTIONARY
  5
85
102
{ACAD_REACTORS
330
C
102
}
330
C
100
AcDbDictionary
281
     1
  0
DICTIONARY
  5
D
102
{ACAD_REACTORS
330
C
102
}
330
C
100
AcDbDictionary
281
     1
  0
DICTIONARY
  5
1A
102
{ACAD_REACTORS
330
C
102
}
330
C
100
AcDbDictionary
281
     1
  3
\M+1838C\M+18343\M+18341\M+18345\M+183671
350
51
  3
\M+1838C\M+18343\M+18341\M+18345\M+183672
350
56
  3
Model
350
22
  0
DICTIONARY
  5
84
102
{ACAD_REACTORS
330
C
102
}
330
C
100
AcDbDictionary
281
     1
  0
DICTIONARY
  5
17
102
{ACAD_REACTORS
330
C
102
}
330
C
100
AcDbDictionary
281
     1
  3
Standard
350
18
  0
DICTIONARY
  5
19
102
{ACAD_REACTORS
330
C
102
}
330
C
100
AcDbDictionary
281
     1
  0
ACDBDICTIONARYWDFLT
  5
E
102
{ACAD_REACTORS
330
C
102
}
330
C
100
AcDbDictionary
281
     1
  3
Normal
350
F
100
AcDbDictionaryWithDefault
340
F
  0
DICTIONARY
  5
A1
102
{ACAD_REACTORS
330
C
102
}
330
C
100
AcDbDictionary
281
     1
  3
Standard
350
A2
  0
DICTIONARY
  5
60E06
102
{ACAD_REACTORS
330
C
102
}
330
C
100
AcDbDictionary
281
     1
  0
DICTIONARY
  5
5E
102
{ACAD_REACTORS
330
C
102
}
330
C
100
AcDbDictionary
281
     1
  3
CTABLESTYLE
350
B8
  3
DIMASSOC
350
5F
  3
HIDETEXT
350
63
  3
PROJECTNAME
350
31CE
  0
DICTIONARY
  5
349E9
102
{ACAD_REACTORS
330
C
102
}
330
C
100
AcDbDictionary
281
     1
  3
ASEBlockHierarchyIndexRecord
350
349EA
1001
DCO15
1040
1842496176.844
  0
XRECORD
  5
60E05
102
{ACAD_REACTORS
330
C
102
}
330
C
100
AcDbXrecord
280
     1
  1
DWGPROPS COOKIE
  2

  3

  4

  6

  7

  8

  9

300
=
301
=
302
=
303
=
304
=
305
=
306
=
307
=
308
=
309
=
 40
2.277245347222222
 41
2455489.391063368
 42
2458517.810960926
  1

 90
        0
  0
DICTIONARY
  5
4E9A4
102
{ACAD_REACTORS
330
E2
102
}
330
E2
100
AcDbDictionary
281
     1
  0
DICTIONARY
  5
3759A
102
{ACAD_REACTORS
330
E2
102
}
330
E2
100
AcDbDictionary
281
     1
  0
DICTIONARY
  5
4E9A3
102
{ACAD_REACTORS
330
E2
102
}
330
E2
100
AcDbDictionary
281
     1
1001
ACAD
1000
<All
  0
SORTENTSTABLE
  5
31EF
102
{ACAD_REACTORS
330
31EE
102
}
330
31EE
100
AcDbSortentsTable
330
1F
331
68C
  5
435D5
  0
SORTENTSTABLE
  5
43669
102
{ACAD_REACTORS
330
43668
102
}
330
43668
100
AcDbSortentsTable
330
680
  0
XRECORD
  5
60E10
102
{ACAD_REACTORS
330
60E0F
102
}
330
60E0F
100
AcDbXrecord
280
     1
102
SHADEPLOT
 70
     0
  0
XRECORD
  5
60E12
102
{ACAD_REACTORS
330
60E11
102
}
330
60E11
100
AcDbXrecord
280
     1
102
SHADEPLOT
 70
     0
  0
DIMASSOC
  5
60D00
102
{ACAD_REACTORS
330
60CFF
102
}
330
60CFF
100
AcDbDimAssoc
330
60CFE
 90
        2
 70
     0
 71
     0
  1
AcDbOsnapPointRef
 72
     3
331
60C4D
 73
     2
 91
        0
 40
0.0
 10
0.0
 20
0.0
 30
0.0
 75
     0
  0
XRECORD
  5
60E0C
102
{ACAD_REACTORS
330
60E0B
102
}
330
60E0B
100
AcDbXrecord
280
     1
102
SHADEPLOT
 70
     0
  0
XRECORD
  5
60E0E
102
{ACAD_REACTORS
330
60E0D
102
}
330
60E0D
100
AcDbXrecord
280
     1
102
SHADEPLOT
 70
     0
  0
LAYOUT
  5
51
102
{ACAD_XDICTIONARY
360
B2
102
}
102
{ACAD_REACTORS
330
1A
102
}
330
1A
100
AcDbPlotSettings
  1

  2
none_device
  4
Letter_(8.50_x_11.00_Inches)
  6

 40
6.349999904632567
 41
6.349999904632567
 42
6.350006103515625
 43
6.350006103515625
 44
215.8999938964844
 45
279.3999938964844
 46
0.0
 47
0.0
 48
0.0
 49
0.0
140
0.0
141
0.0
142
1.0
143
1.0
 70
   688
 72
     1
 73
     1
 74
     5
  7

 75
    16
147
1.0
148
0.0
149
0.0
100
AcDbLayout
  1
\M+1838C\M+18343\M+18341\M+18345\M+183671
 70
     1
 71
     1
 10
-6.350006103515625
 20
-6.349999904632567
 11
273.0499877929688
 21
209.5499939918518
 12
0.0
 22
0.0
 32
0.0
 14
26.66999878883364
 24
20.31999878883365
 34
0.0
 15
240.0299890995025
 25
182.8799890995025
 35
0.0
146
0.0
 13
0.0
 23
0.0
 33
0.0
 16
1.0
 26
0.0
 36
0.0
 17
0.0
 27
1.0
 37
0.0
 76
     0
330
50
331
6B
  0
LAYOUT
  5
56
102
{ACAD_XDICTIONARY
360
B5
102
}
102
{ACAD_REACTORS
330
1A
102
}
330
1A
100
AcDbPlotSettings
  1

  2
none_device
  4
Letter_(8.50_x_11.00_Inches)
  6

 40
6.349999904632567
 41
6.349999904632567
 42
6.350006103515625
 43
6.350006103515625
 44
215.8999938964844
 45
279.3999938964844
 46
0.0
 47
0.0
 48
0.0
 49
0.0
140
0.0
141
0.0
142
1.0
143
1.0
 70
   688
 72
     1
 73
     1
 74
     5
  7

 75
    16
147
1.0
148
0.0
149
0.0
100
AcDbLayout
  1
\M+1838C\M+18343\M+18341\M+18345\M+183672
 70
     1
 71
     2
 10
-6.350006103515625
 20
-6.349999904632567
 11
273.0499877929688
 21
209.5499939918518
 12
0.0
 22
0.0
 32
0.0
 14
26.66999878883363
 24
20.31999878883363
 34
0.0
 15
240.0299890995026
 25
182.8799890995025
 35
0.0
146
0.0
 13
0.0
 23
0.0
 33
0.0
 16
1.0
 26
0.0
 36
0.0
 17
0.0
 27
1.0
 37
0.0
 76
     0
330
55
331
71
  0
LAYOUT
  5
22
102
{ACAD_XDICTIONARY
360
60E07
102
}
102
{ACAD_REACTORS
330
1A
102
}
330
1A
100
AcDbPlotSettings
  1

  2
none_device
  4
ANSI_A_(8.50_x_11.00_Inches)
  6

 40
6.349999904632567
 41
19.04999923706055
 42
6.350006103515625
 43
19.04998779296875
 44
215.8999938964844
 45
279.3999938964844
 46
0.0
 47
0.0
 48
0.0
 49
0.0
140
0.0
141
0.0
142
1.0
143
78.436453180766
 70
 11952
 72
     0
 73
     1
 74
     0
  7

 75
     0
147
0.0127491741332998
148
0.0
149
0.0
100
AcDbLayout
  1
Model
 70
     1
 71
     0
 10
0.0
 20
0.0
 11
12.0
 21
9.0
 12
0.0
 22
0.0
 32
0.0
 14
0.0
 24
0.0
 34
0.0
 15
0.0
 25
0.0
 35
0.0
146
0.0
 13
0.0
 23
0.0
 33
0.0
 16
1.0
 26
0.0
 36
0.0
 17
0.0
 27
1.0
 37
0.0
 76
     0
330
1F
  0
MLINESTYLE
  5
18
102
{ACAD_REACTORS
330
17
102
}
330
17
100
AcDbMlineStyle
  2
STANDARD
 70
     0
  3

 62
   256
 51
90.0
 52
90.0
 71
     2
 49
0.5
 62
   256
  6
BYLAYER
 49
-0.5
 62
   256
  6
BYLAYER
  0
ACDBPLACEHOLDER
  5
F
102
{ACAD_REACTORS
330
E
102
}
330
E
  0
TABLESTYLE
  5
A2
102
{ACAD_REACTORS
330
A1
102
}
330
A1
100
AcDbTableStyle
  3
Standard
 70
     0
 71
     0
 40
1.5
 41
1.5
280
     0
281
     0
  7
Standard
140
4.5
170
     2
 62
     0
 63
     7
283
     0
274
    -2
284
     1
 64
     0
275
    -2
285
     1
 65
     0
276
    -2
286
     1
 66
     0
277
    -2
287
     1
 67
     0
278
    -2
288
     1
 68
     0
279
    -2
289
     1
 69
     0
  7
Standard
140
6.0
170
     5
 62
     0
 63
     7
283
     0
274
    -2
284
     1
 64
     0
275
    -2
285
     1
 65
     0
276
    -2
286
     1
 66
     0
277
    -2
287
     1
 67
     0
278
    -2
288
     1
 68
     0
279
    -2
289
     1
 69
     0
  7
Standard
140
4.5
170
     5
 62
     0
 63
     7
283
     0
274
    -2
284
     1
 64
     0
275
    -2
285
     1
 65
     0
276
    -2
286
     1
 66
     0
277
    -2
287
     1
 67
     0
278
    -2
288
     1
 68
     0
279
    -2
289
     1
 69
     0
  0
DICTIONARYVAR
  5
B8
102
{ACAD_REACTORS
330
5E
102
}
330
5E
100
DictionaryVariables
280
     0
  1
STANDARD
  0
DICTIONARYVAR
  5
5F
102
{ACAD_REACTORS
330
5E
102
}
330
5E
100
DictionaryVariables
280
     0
  1
2
  0
DICTIONARYVAR
  5
63
102
{ACAD_REACTORS
330
5E
102
}
330
5E
100
DictionaryVariables
280
     0
  1
1
  0
DICTIONARYVAR
  5
31CE
102
{ACAD_REACTORS
330
5E
102
}
330
5E
100
DictionaryVariables
280
     0
  1

  0
XRECORD
  5
349EA
102
{ACAD_REACTORS
330
349E9
102
}
330
349E9
100
AcDbXrecord
280
     1
330
68C
330
431D
330
431E
330
4329
330
4334
330
4335
330
4B09
330
4B0A
330
5153
330
5154
330
515D
330
515E
330
516A
330
516B
330
5177
330
5178
330
85B4
330
85B5
330
8620
330
8621
330
862A
330
862B
330
8637
330
8638
330
8644
330
8645
330
9773
330
9774
330
977D
330
977E
330
978A
330
978B
330
9797
330
9798
330
BD86
330
BD87
330
BD8F
330
BD90
330
BD98
330
BDA0
330
BDA1
330
BDDD
330
BDDE
330
BDE7
330
BDE8
330
BDF4
330
BDF5
330
BE01
330
BE02
330
E473
330
E474
330
E48D
330
E48E
330
E485
330
E47C
330
E47D
330
E4CC
330
E4CD
330
E4D7
330
E4D8
330
1C63B
330
1C63C
330
1C705
330
1C706
330
1C719
330
1C71A
330
1C72E
330
1C72F
330
1C738
330
1C739
330
27043
330
27044
330
2703A
330
2703B
330
2CF2C
330
2CF2D
330
2CF38
330
2CF39
330
2CF42
330
2CF43
330
2CF4F
330
2CF50
330
2CF59
330
2CF5A
330
2FA31
330
2FA32
330
2FA3D
330
2FA3E
330
2FA4A
330
2FA4B
330
2FA54
330
2FA55
330
329D8
330
329D9
330
329E1
330
329E2
330
329EA
330
329EB
330
329F3
330
329F4
330
32E63
330
32E64
330
32E6F
330
32E70
330
32E79
330
32E7A
330
32E88
330
32E89
330
32E92
330
32E93
  0
DICTIONARY
  5
B2
330
51
100
AcDbDictionary
280
     1
281
     1
  3
ACAD_XREC_ROUNDTRIP
360
60E09
  3
ADSK_XREC_LAYOUTTHUMBNAIL
360
B3
  0
DICTIONARY
  5
B5
330
56
100
AcDbDictionary
280
     1
281
     1
  3
ACAD_XREC_ROUNDTRIP
360
60E0A
  3
ADSK_XREC_LAYOUTTHUMBNAIL
360
B6
  0
DICTIONARY
  5
60E07
330
22
100
AcDbDictionary
280
     1
281
     1
  3
ACAD_XREC_ROUNDTRIP
360
60E08
  0
XRECORD
  5
60E09
102
{ACAD_REACTORS
330
B2
102
}
330
B2
100
AcDbXrecord
280
     1
102
SHADEPLOT
 70
     0
102
SHADEPLOTRESLEVEL
 70
     2
102
SHADEPLOTCUSTOMDPI
 70
   300
  0
XRECORD
  5
B3
102
{ACAD_REACTORS
330
B2
102
}
330
B2
100
AcDbXrecord
280
     1
310
28000000B40000008B0000000100080000000000BC61000000000000000000000001000000000000FFFFFF0000000000FFFFFF000000000000000000000000000000000000000000000000000000000000000000330000006600000099000000CC000000FF00000000330000333300006633000099330000CC330000FF3300
310
0000660000336600006666000099660000CC660000FF66000000990000339900006699000099990000CC990000FF99000000CC000033CC000066CC000099CC0000CCCC0000FFCC000000FF000033FF000066FF000099FF0000CCFF0000FFFF000000003300330033006600330099003300CC003300FF003300003333003333
310
33006633330099333300CC333300FF33330000663300336633006666330099663300CC663300FF66330000993300339933006699330099993300CC993300FF99330000CC330033CC330066CC330099CC3300CCCC3300FFCC330000FF330033FF330066FF330099FF3300CCFF3300FFFF330000006600330066006600660099
310
006600CC006600FF00660000336600333366006633660099336600CC336600FF33660000666600336666006666660099666600CC666600FF66660000996600339966006699660099996600CC996600FF99660000CC660033CC660066CC660099CC6600CCCC6600FFCC660000FF660033FF660066FF660099FF6600CCFF6600
310
FFFF660000009900330099006600990099009900CC009900FF00990000339900333399006633990099339900CC339900FF33990000669900336699006666990099669900CC669900FF66990000999900339999006699990099999900CC999900FF99990000CC990033CC990066CC990099CC9900CCCC9900FFCC990000FF99
310
0033FF990066FF990099FF9900CCFF9900FFFF99000000CC003300CC006600CC009900CC00CC00CC00FF00CC000033CC003333CC006633CC009933CC00CC33CC00FF33CC000066CC003366CC006666CC009966CC00CC66CC00FF66CC000099CC003399CC006699CC009999CC00CC99CC00FF99CC0000CCCC0033CCCC0066CC
310
CC0099CCCC00CCCCCC00FFCCCC0000FFCC0033FFCC0066FFCC0099FFCC00CCFFCC00FFFFCC000000FF003300FF006600FF009900FF00CC00FF00FF00FF000033FF003333FF006633FF009933FF00CC33FF00FF33FF000066FF003366FF006666FF009966FF00CC66FF00FF66FF000099FF003399FF006699FF009999FF00CC
310
99FF00FF99FF0000CCFF0033CCFF0066CCFF0099CCFF00CCCCFF00FFCCFF0000FFFF0033FFFF0066FFFF0099FFFF00CCFFFF00FFFFFF00000000000D0D0D001A1A1A00282828003535350043434300505050005D5D5D006B6B6B00787878008686860093939300A1A1A100AEAEAE00BBBBBB00C9C9C900D6D6D600E4E4E400
310
F1F1F100FFFFFF0000000000000000000000000000000000000000000000000000000000000000000000000000000000EFEFEFE2E2E2E2E2E2E2E2E2E2E2E2E2E2E2E2E2E2E2E2E2E2E2E2E2E2E2E2E2E2E2E2E2E2E2E2E2E2E2E2E2E2E2E2E2E2E2E2E2E2E2E2E2E2E2E2E2E2E2E2E2E2E2E2E2E2E2E2E2E2E2E2E2E2E2E2
310
E2E2E2E2E2E2E2E2E2E2E2E2E2E2E2E2E2E2E2E2E2E2E2E2E2E2E2E2E2E2E2E2E2E2E2E2E2E2E2E2E2E2E2E2E2E2E2E2E2E2E2E2E2E2E2E2E2E2E2E2E2E2E2E2E2E2E2E2E2E2E2E2E2E2E2E2E2E2E2E2E2E2E2E2E2E2E2E2E2E2E2E2E2E2E2E2E2E2E2E2E2E2E2E2E2E2E2E2E2E2E2E2E2E2E2E2E2E2E2E2E2E2E2E2E2E2E2
310
E2E2E2E2E2E2E2E2E2E2E2E2E2E2E2E2E2E2E2E2E2E2E2E2E2E2E2E2E2E2E2E2E2E2E2E2E2E2E2E2E2E2E2E2E2E2E2E2E2E2E2E2E2E2E2E2E2E2E2E2E2E2E2E2E2E2E2E2E2E2E2E2E2E2E2E2E2E2E2E2E2E2E2E2E2E2E2E2E2E2E2E2E2E2E2E2E2E2E2E2E2E2E2E2E2E2E2E2E2E2E2E2E2E2E2E2E2E2E2E2E2E2E2E2E2E2E2
310
E2E2E2E2E2E2E2E2E2E2E2E2E2E2E2E2E2E2E2E2E2E2E2E2E2E2E2E2F5F5F5F5F5F5F5F5F5F5F5F5F5F5F5F5F5F5F5F5F5F5F5F5F5F5F5F5F5F5F5F5F5F5F5F5F5F5F5F5F5F5F5F5F5F5F5F5F5F5F5F5F5F5F5F5F5F5F5F5F5F5F5F5F5F5F5F5F5F5F5F5F5F5F5F5F5F5F5F5F5F5F5F5F5F5F5F5F5F5F5F5F5F5F5F5F5F5F5
310
F5F5F5F5F5F5F5F5F5F5F5F5F5F5F5F5F5F5F5F5F5F5F5F5F5F5F5F5F5F5F5F5F5F5F5F5F5F5F5F5F5F5F5F5F5F5F5F5F5F5F5F5F5F5F5F5F5F5F5F5F5F5F5F5F5F5F5F5F5F5F5F5F5F5F5F5F5F5F5E2E2F5F5F5F5F5F5F5F5F5F5F5F5F5F5F5F5F5F5F5F5F5F5F5F5F5F5F5F5F5F5F5F5F5F5F5F5F5F5F5F5F5F5F5F5F5F5
310
F5F5F5F5F5F5F5F5F5F5F5F5F5F5F5F5F5F5F5F5F5F5F5F5F5F5F5F5F5F5F5F5F5F5F5F5F5F5F5F5F5F5F5F5F5F5F5F5F5F5F5F5F5F5F5F5F5F5F5F5F5F5F5F5F5F5F5F5F5F5F5F5F5F5F5F5F5F5F5F5F5F5F5F5F5F5F5F5F5F5F5F5F5F5F5F5F5F5F5F5F5F5F5F5F5F5F5F5F5F5F5F5F5F5F5F5F5F5F5F5F5F5F5F5F5F5F5
310
F5F5F5F5F5E2E2F5F5F5F5F5F5F5F5F5F5F5F5F5F5F5F5F5F5F5F5F5F5F5F5F5F5F5F5F5F5F5F5F5F5F5F5F5F5F5F5F5F5F5F5F5F5F5F5F5F5F5F5F5F5F5F5F5F5F5F5F5F5F5F5F5F5F5F5F5F5F5F5F5F5F5F5F5F5F5F5F5F5F5F5F5F5F5F5F5F5F5F5F5F5F5F5F5F5F5F5F5F5F5F5F5F5F5F5F5F5F5F5F5F5F5F5F5F5F5F5
310
F5F5F5F5F5F5F5F5F5F5F5F5F5F5F5F5F5F5F5F5F5F5F5F5F5F5F5F5F5F5F5F5F5F5F5F5F5F5F5F5F5F5F5F5F5F5F5F5F5F5F5F5F5F5F5F5F5F5E2E2F5F5F5F5E2E2E2E2E2E2E2E2F5F5F5F5F5F5F5F5F5E2E2E2E2E2E2E2E2E2E2E2E2E2E2E2F5F5F5F5F5F5F5F5F5E2E2E2E2E2E2E2E2E2E2E2E2E2E2E2E2F5F5F5F5F5F5
310
F5F5E2E2E2E2E2E2E2E2E2E2E2E2E2E2E2E2F5F5F5F5F5F5F5F5E2E2E2E2E2E2E2E2E2E2E2E2E2E2E2E2F5F5F5F5F5F5F5F5E2E2E2E2E2E2E2E2E2E2E2E2E2E2E2E2F5F5F5F5F5F5F5F5F5E2E2E2E2E2E2E2E2E2E2E2E2E2E2E2F5F5F5F5F5F5F5F5F5E2E2E2E2E2E2E2E2F5F5F5F5E2E2F5F5F5F5E2F5F5F5F5F5F5F5F5F5
310
F5F5F5F5F5F5F5F5F5F5F5F5F5F5F5F5F5F5F5F5F5F5F5F5F5F5F5F5F5F5F5F5F5F5F5F5F5F5F5F5F5F5F5F5F5F5F5F5F5F5F5F5F5F5F5F5F5F5F5F5F5F5F5F5F5F5F5F5F5F5F5F5F5F5F5F5F5F5F5F5F5F5F5F5F5F5F5F5F5F5F5F5F5F5F5F5F5F5F5F5F5F5F5F5F5F5F5F5F5F5F5F5F5F5F5F5F5F5F5F5F5F5F5F5F5F5F5
310
F5F5F5F5F5F5F5F5F5F5F5F5F5F5F5F5F5F5F5F5F5F5F5F5F5F5F5F5F5F5F5F5E2F5F5F5F5E2E2F5F5F5F5E2F5F5F5F5F5F5F5F5F5F5F5F5F5F5F5F5F5F5F5F5F5F5F5F5F5F5F5F5F5F5F5F5F5F5F5F5F5F5F5F5F5F5F5F5F5F5F5F5F5F5F5F5F5F5F5F5F5F5F5F5F5F5F5F5F5F5F5F5F5F5F5F5F5F5F5F5F5F5F5F5F5F5F5
310
F5F5F5F5F5F5F5F5F5F5F5F5F5F5F5F5F5F5F5F5F5F5F5F5F5F5F5F5F5F5F5F5F5F5F5F5F5F5F5F5F5F5F5F5F5F5F5F5F5F5F5F5F5F5F5F5F5F5F5F5F5F5F5F5F5F5F5F5F5F5F5F5F5F5F5F5F5F5F5F5F5F5F5F5F5E2F5F5F5F5E2E2F5F5F5F5E2F5F5F5F5F5F5F5F5F5F5F5F5F5F5F5F5F5F5F5F5F5F5F5F5F5F5F5F5F5F5
310
F5F5F5F5F5F5F5F5F5F5F5F5F5F5F5F5F5F5F5F5F5F5F5F5F5F5F5F5F5F5F5F5F5F5F5F5F5F5F5F5F5F5F5F5F5F5F5F5F5F5F5F5F5F5F5F5F5F5F5F5F5F5F5F5F5F5F5F5F5F5F5F5F5F5F5F5F5F5F5F5F5F5F5F5F5F5F5F5F5F5F5F5F5F5F5F5F5F5F5F5F5F5F5F5F5F5F5F5F5F5F5F5F5F5F5F5F5F5F5F5F5F5F5F5F5F5F5
310
F5F5F5F5F5F5F5F5F5F5F5E2F5F5F5F5E2E2F5F5F5F5E2F5F5F5F5F5F5F5F5F5F5F5F5F5F5F5F5F5F5F5F5F5F5F5F5F5F5F5F5F5F5F5F5F5F5F5F5F5F5F5F5F5F5F5F5F5F5F5F5F5F5F5F5F5F5F5F5F5F5F5F5F5F5F5F5F5F5F5F5F5F5F5F5F5F5F5F5F5F5F5F5F5F5F5F5F5F5F5F5F5F5F5F5F5F5F5F5F5F5F5F5F5F5F5F5
310
F5F5F5F5F5F5F5F5F5F5F5F5F5F5F5F5F5F5F5F5F5F5F5F5F5F5F5F5F5F5F5F5F5F5F5F5F5F5F5F5F5F5F5F5F5F5F5F5F5F5F5F5F5F5F5F5F5F5F5F5F5F5F5F5E2F5F5F5F5E2E2F5F5F5F5E2F5F5F5F5F5F5F5F5F5F5F5F5F5F5F5F5F5F5F5F5F5F5F5F5F5F5F5F5F5F5F5F5F5F5F5F5F5F5F5F5F5F5F5F5F5F5F5F5F5F5F5
310
F5F5F5F5F5F5F5F5F5F5F5F5F5F5F5F5F5F5F5F5F5F5F5F5F5F5F5F5F5F5F5F5F5F5F5F5F5F5F5F5F5F5F5F5F5F5F5F5F5F5F5F5F5F5F5F5F5F5F5F5F5F5F5F5F5F5F5F5F5F5F5F5F5F5F5F5F5F5F5F5F5F5F5F5F5F5F5F5F5F5F5F5F5F5F5F5F5F5F5F5F5F5F5F5F5F5F5F5F5F5F5F5F5F5F5F5F5E2F5F5F5F5E2E2F5F5F5
310
F5E2F5F5F5F5F5F5F5F5F5F5F5F5F5F5F5F5F5F5F5F5F5F5F5F5F5F5F5F5F5F5F5F5F5F5F5F5F5F5F5F5F5F5F5F5F5F5F5F5F5F5F5F5F5F5F5F5F5F5F5F5F5F5F5F5F5F5F5F5F5F5F5F5F5F5F5F5F5F5F5F5F5F5F5F5F5F5F5F5F5F5F5F5F5F5F5F5F5F5F5F5F5F5F5F5F5F5F5F5F5F5F5F5F5F5F5F5F5F5F5F5F5F5F5F5F5
310
F5F5F5F5F5F5F5F5F5F5F5F5F5F5F5F5F5F5F5F5F5F5F5F5F5F5F5F5F5F5F5F5F5F5F5F5F5F5F5F5F5F5F5E2F5F5F5F5E2E2F5F5F5F5E2F5F5F5F5F5F5F5F5F5F5F5F5F5F5F5F5F5F5F5F5F5F5F5F5F5F5F5F5F5F5F5F5F5F5F5F5F5F5F5F5F5F5F5F5F5F5F5F5F5F5F5F5F5F5F5F5F5F5F5F5F5F5F5F5F5F5F5F5F5F5F5F5
310
F5F5F5F5F5F5F5F5F5F5F5F5F5F5F5F5F5F5F5F5F5F5F5F5F5F5F5F5F5F5F5F5F5F5F5F5F5F5F5F5F5F5F5F5F5F5F5F5F5F5F5F5F5F5F5F5F5F5F5F5F5F5F5F5F5F5F5F5F5F5F5F5F5F5F5F5F5F5F5F5F5F5F5F5F5F5F5F5F5F5F5F5F5F5F5F5E2F5F5F5F5E2E2F5F5F5F5E2F5F5F5F5F5F5F5F5F5F5F5F5F5F5F5F5F5F5F5
310
F5F5F5F5F5F5F5F5F5F5F5F5F5F5F5F5F5F5F5F5F5F5F5F5F5F5F5F5F5F5F5F5F5F5F5F5F5F5F5F5F5F5F5F5F5F5F5F5F5F5F5F5F5F5F5F5F5F5F5F5F5F5F5F5F5F5F5F5F5F5F5F5F5F5F5F5F5F5F5F5F5F5F5F5F5F5F5F5F5F5F5F5F5F5F5F5F5F5F5F5F5F5F5F5F5F5F5F5F5F5F5F5F5F5F5F5F5F5F5F5F5F5F5F5F5F5F5
310
F5F5F5F5F5F5F5F5F5F5F5F5F5F5F5F5F5F5F5F5F5F5E2F5F5F5F5E2E2F5F5F5F5F5F5F5F5F5F5F5F5F5F5F5F5F5F5F5F5F5F5F5F5F5F5F5F5F5F5F5F5F5F5F5F5F5F5F5F5F5F5F5F5F5F5F5F5F5F5F5F5F5F5F5F5F5F5F5F5F5F5F5F5F5F5F5F5F5F5F5F5F5F5F5F5F5F5F5F5F5F5F5F5F5F5F5F5F5F5F5F5F5F5F5F5F5F5
310
F5F5F5F5F5F5F5F5F5F5F5F5F5F5F5F5F5F5F5F5F5F5F5F5F5F5F5F5F5F5F5F5F5F5F5F5F5F5F5F5F5F5F5F5F5F5F5F5F5F5F5F5F5F5F5F5F5F5F5F5F5F5F5F5F5F5F5F5F5F5F5F5F5F5F5F5F5F5F5F5E2E2F5F5F5F5F5F5F5F5F5F5F5F5F5F5F5F5F5F5F5F5F5F5F5F5F5F5F5F5F5F5F5F5F5F5F5F5F5F5F5F5F5F5F5F5F5
310
F5F5F5F5F5F5F5F5F5F5F5F5F5F5F5F5F5F5F5F5F5F5F5F5F5F5F5F5F5F5F5F5F5F5F5F5F5F5F5F5F5F5F5F5F5F5F5F5F5F5F5F5F5F5F5F5F5F5F5F5F5F5F5F5F5F5F5F5F5F5F5F5F5F5F5F5F5F5F5F5F5F5F5F5F5F5F5F5F5F5F5F5F5F5F5F5F5F5F5F5F5F5F5F5F5F5F5F5F5F5F5F5F5F5F5F5F5F5F5F5F5F5F5F5F5F5F5
310
F5F5F5F5F5F5E2E2F5F5F5F5F5F5F5F5F5F5F5F5F5F5F5F5F5F5F5F5F5F5F5F5F5F5F5F5F5F5F5F5F5F5F5F5F5F5F5F5F5F5F5F5F5F5F5F5F5F5F5F5F5F5F5F5F5F5F5F5F5F5F5F5F5F5F5F5F5F5F5F5F5F5F5F5F5F5F5F5F5F5F5F5F5F5F5F5F5F5F5F5F5F5F5F5F5F5F5F5F5F5F5F5F5F5F5F5F5F5F5F5F5F5F5F5F5F5F5
310
F5F5F5F5F5F5F5F5F5F5F5F5F5F5F5F5F5F5F5F5F5F5F5F5F5F5F5F5F5F5F5F5F5F5F5F5F5F5F5F5F5F5F5F5F5F5F5F5F5F5F5F5F5F5F5F5F5F5F5E2E2F5F5F5F5F5F5F5F5F5F5F5F5F5F5F5F5F5F5F5F5F5F5F5F5F5F5F5F5F5F5F5F5F5F5F5F5F5F5F5F5F5F5F5F5F5F5F5F5F5F5F5F5F5F5F5F5F5F5F5F5F5F5F5F5F5F5
310
F5F5F5F5F5F5F5F5F5F5F5F5F5F5F5F5F5F5F5F5F5F5F5F5F5F5F5F5F5F5F5F5F5F5F5F5F5F5F5F5F5F5F5F5F5F5F5F5F5F5F5F5F5F5F5F5F5F5F5F5F5F5F5F5F5F5F5F5F5F5F5F5F5F5F5F5F5F5F5F5F5F5F5F5F5F5F5F5F5F5F5F5F5F5F5F5F5F5F5F5F5F5F5F5F5F5F5F5F5F5F5F5E2E2F5F5F5F5F5F5F5F5F5F5F5F5F5
310
F5F5F5F5F5F5F5F5E2E2E2E2E2E2E2E2E2E2E2E2E2E2E2E2E2E2E2E2E2E2E2E2E2E2E2E2E2E2E2E2E2E2E2E2E2E2E2E2E2E2E2E2E2E2E2E2E2E2E2E2E2E2E2E2E2E2E2E2E2E2E2E2E2E2E2E2E2E2E2E2E2E2E2E2E2E2E2E2E2E2E2E2E2E2E2E2E2E2E2E2E2E2E2E2E2E2E2E2E2E2E2E2E2E2E2E2E2E2E2E2E2E2E2E2E2E2E2
310
E2E2E2E2E2E2E2E2E2E2E2E2E2E2E2E2E2F5F5F5F5F5F5F5F5F5F5F5F5F5F5F5F5F5F5F5F5F5E2E2F5F5F5F5F5F5F5F5F5F5F5F5F5F5F5F5F5F5F5F5F5E22D2D2D2DF5F5F5F5E2F5F5F5F5F5F5F52DF5F5F5F5F5F5F5F5F5F5F5F5F5F5F5F5F5F5E2F5F5F5F5F5F5F5F5F5F5F5F5F5F5F5F5F5F5F5F5F5F5F5F5F5F5F5F5F5
310
F5F5F5F5F5F5F5F5F5F5F5F5F5F5F5F5F5F5F5F5F5F5F5F5F5F5F5F5F5F5F5F5F5F5F5F5F5F5F5F5F5F5F5F5F5F5F5F5F5F5F5F5F5F5F5F5F5F5F5F5F5F5F5F5F5F5F5F5F5E2F5F5F5F5F5F5F5F5F5F5F5F5F5F5F5F5F5F5F5F5F5E2E2F5F5F5F5F5F5F5F5F5F5F5F5F5F5F5F5F5F5F5F5F5E2DCF5F52DF5F5F5F5E2F5F5F5
310
F5F5F5F52DF5F5F5F5F5F5F5F5F5F5F5F5F5F5F5F5F5F5E2F5F5F5F5F5F5F5F5F5F5F5F5F5F5F5F5F5F5F5F5F5F5F5F5F5F5F5F5F5F5F5F5F5F5F5F5F5F5F5F5F5F5F5F5F5F5F5F5F5F5F5F5F5F5F5F5F5F5F5F5F5F5F5F5F5F5F5F5F5F5F5F5F5F5F5F5F5F5F5F5F5F5F5F5F5F5F5F5F5F5F5F5F5F5F5F5F5F5E2F5F5F5F5
310
F5F5F5F5F5F5F5F5F5F5F5F5F5F5F5F5F5E2E2F5F5F5F5F5F5F5F5F5F5F5F5F5F5F5F5F5F5F5F5F5E2DCF5F52DF5F5F5F5E2F5F5F5F5F5F5F52DF5F5F5F5F5F5F5F5F5F5F5F5F5F5F5F5F5F5E2E2F5F5F5F5F5F5F5F5F5F5F5F5F5F5F5F5F5F5F5F5F5F5F5F5F5F5F5F5F5F5F5F5F5F5F5F5F5F5F5F5F5F5F5F5F5F5F5F5F5
310
F5F5F5F5F5F5F5F5F5F5F5F5F5F5F5F5F5F5F5F5F5F5F5F5F5F5F5F5F5F5F5F5F5F5F5F5F5F5F5F5F5F5F5F5F5F5F5F5E2F5F5F5F5F5F5F5F5F5F5F5F5F5F5F5F5F5F5F5F5F5E2E2F5F5F5F5F5F5F5F5F5F5F5F5F5F5F5F5F5F5F5F5F5E2BEF5F52D2D2D2D2D2D2D2D2D2D2D2D2D2DE2E2E2E2E2E2E2E2E2E2E2E2E2E2E2E2
310
E2E2E2E2F5F5F5F5F5F5F5F5F5F5F5F5F5F5F5F5F5F5F5F5F5F5F5F5F5F5F5F5F5F5F5F5F5F5F5F5F5F5F5F5F5F5F5F5F5F5F5F5F5F5F5F5F5F5F5F5F5F5F5F5F5F5F5F5F5F5F5F5F5F5F5F5F5F5F5F5F5F5F5F5F5F5F5F5F5F5F5F5F5F5F5F5F5F5F5F5F5E2F5F5F5F5F5F5F5F5F5F5F5F5F5F5F5F5F5F5F5F5F5E2E2F5F5
310
F5F5E2F5F5F5F5F5F5F5F5F5F5F5F5F5F5F5F5E2DCF5F5F5F5F5F5F5E2F5F5F5F5F5F5F5E2F5F5F5F5F5F5F5F5F5F5F5F5F5F5F5F5F5F5F5F5F5F5F5F5F5F5F5F5F5F5F5F5F5F5F5F5F5F5F5F5F5F5F5F5F5F5F5F5F5F5F5F5F5F5F5F5F5F5F5F5F5F5F5F5F5F5F5F5F5F5F5F5F5F5F5F5F5F5F5F5F5F5F5F5F5F5F5F5F5F5
310
F5F5F5F5F5F5F5F5F5F5F5F5F5F5F5F5F5F5F5F5F5F5F5F5F5F5F5E2F5F5F5F5F5F5F5F5F5F5F5F5F5F5F5F5E2F5F5F5F5E2E2F5F5F5F5E2F5F5F5F5F5F5F5F5F5F5F5F5F5F5F5F5E2F5F5F5F5F5F5F5F5E2F5F5F5F5F5F5F5E2F5F5F5F5F5F5F5F5F5F5F5F5F5F5F5F5F5F5F5F5F5F5F5F5F5F5F5F5F5F5F5F5F5F5F5F5F5
310
F5F5F5F5F5F5F5F5F5F5F5F5F5F5F5F5F5F5F5F5F5F5F5F5F5F5F5F5F5F5F5F5F5F5F5F5F5F5F5F5F5F5F5F5F5F5F5F5F5F5F5F5F5F5F5F5F5F5F5F5F5F5F5F5F5F5F5F5F5F5F5F5F5F5F5F5F5F5F5F5E2F5F5F5F5F5F5F5F5F5F5F5F5F5F5F5F5E2F5F5F5F5E2E2F5F5F5F5E2F5F5F5F5F5F5F5F5F5F5F5F5F5F5F5F5E2E2
310
E2E2E2E2E2E2E2E2F5F5F5F5F5F5F5E2F5F5F5F5F5F5F5F5F5F5F5F5F5F5F5F5F5F5F5F5F5F5F5F5F5F5F5F5F5F5F5F5F5F5F5F5F5F5F5F5F5F5F5F5F5F5F5F5F5F5F5F5F5F5F5F5F5F5F5F5F5F5F5F5F5F5F5F5F5F5F5F5F5F5F5F5F5F5F5F5F5F5F5F5F5F5F5F5F5F5F5F5F5F5F5F5F5F5F5F5F5F5F5F5F5F5F5F5F5F5F5
310
F5F5F5F5F5F5E2F5F5F5F5F5F5F5F5F5F5F5F5F5F5F5F5E2F5F5F5F5E2E2F5F5F5F5E2F5F5F5F5F5F5F5F5F5F5F5F5F5F5F5F5E2E2E2E2F5F5F5F5F5F5F5F5F5F5F5F5F5E2F5F5F5F5F5F5F5F5F5F5F5F5F5F5F5F5F5F5F5F5F5F5F5F5F5F5F5F5F5F5F5F5F5F5F5F5F5F5F5F5F5F5F5F5F5F5F5F5F5F5F5F5F5F5F5F5F5F5
310
F5F5F5F5F5F5F5F5F5F5F5F5F5F5F5F5F5F5F5F5F5F5F5F5F5F5F5F5F5F5F5F5F5F5F5F5F5F5F5F5F5F5F5F5F5F5F5F5F5F5F5F5F5F5F5F5F5F5F5E2F5F5F5F5F5F5F5F5F5F5F5F5F5F5F5F5E2F5F5F5F5E2E2F5F5F5F5E2F5F5F5F5F5F5F5F5F5F5F5F5F5F5F5F5E2E2E2E2F5F5F5F5F5F5F5F5F5F5F5F5F5E2F5F5F5F5F5
310
F5F5F5F5F5F5F5F5F5F5F5F5F5F5F5F5F5F5F5F5F5F5F5F5F5F5F5F5F5F5F5F5F5F5F5F5F5F5F5F5F5F5F5F5F5F5F5F5F5F5F5F5F5F5F5F5F5F5F5F5F5F5F5F5F5F5F5F5F5F5F5F5F5F5F5F5F5F5F5F5F5F5F5F5F5F5F5F5F5F5F5F5F5F5F5F5F5F5F5F5F5F5F5F5F5F5F5F5F5F5F5F5E2F5F5F5F5F5F5F5F5F5F5F5F5F5F5
310
F5F5E2F5F5F5F5E2E2F5F5F5F5E2F5F5F5F5F5F5F5F5F5F5F5F5F5F5F5F5E2F5F5F5F5F5F5F5F5F5F5F5F5F5F5F5F5E2F5F5F5F5F5F5F5F5F5F5F5F5F5F5F5F5F5F5F5F5F5F5F5F5F5F5F5F5F5F5F5F5F5F5F5F5F5F5F5F5F5F5F5F5F5F5F5F5F5F5F5F5F5F5F5F5F5F5F5F5F5F5F5F5F5F5F5F5F5F5F5F5F5F5F5F5F5F5F5
310
F5F5F5F5F5F5F5F5F5F5F5F5F5F5F5F5F5F5F5F5F5F5F5F5F5F5F5F5F5F5F5F5F5F5F5F5F5F5E2F5F5F5F5F5F5F5F5F5F5F5F5F5F5F5F5E2F5F5F5F5E2E2F5F5F5F5E2F5F5F5F5F5F5F5F5F5F5F5F5F5F5F5F5E2E2E2E2E2E2E2E2E2E2E2E2E2E2E2E2E2E2F5F5F5F5F5F5F5F5F5F5F5F5F5F5F5F5F5F5F5F5F5F5F5F5F5F5
310
F5F5F5F5F5F5F5F5F5F5F5F5F5F5F5F5F5F5F5F5F5F5F5F5F5F5F5F5F5F5F5F5F5F5F5F5F5F5F5F5F5F5F5F5F5F5F5F5F5F5F5F5F5F5F5F5F5F5F5F5F5F5F5F5F5F5F5F5F5F5F5F5F5F5F5F5F5F5F5F5F5F5F5F5F5F5F5F5F5F5F5E2F5F5F5F5F5F5F5F5F5F5F5F5F5F5F5F5E2F5F5F5F5E2E2F5F5F5F5E2F5F5F5F5F5F5F5
310
F5F5F5F5F5F5F5F5F5E2E2E2F5F5F5F5F5F5F5F5F5F5F5F5F5F5F5F5F5F5F5F5F5F5F5F5F5F5F5F5F5F5F5F5F5F5F5F5F5F5F5F5F5F5F5F5F5F5F5F5F5F5F5F5F5F5F5F5F5F5F5F5F5F5F5F5F5F5F5F5F5F5F5F5F5F5F5F5F5F5F5F5F5F5F5F5F5F5F5F5F5F5F5F5F5F5F5F5F5F5F5F5F5F5F5F5F5F5F5F5F5F5F5F5F5F5F5
310
F5F5F5F5F5F5F5F5F5F5F5F5F5F5F5F5F5E2F5F5F5F5F5F5F5F5F5F5F5F5F5F5F5F5E2F5F5F5F5E2E2F5F5F5F5E2F5F5F5F5F5F5F5F5F5F5F5F5F5F5F5F5E2E2E2F5F5F5F5F5F5F5F5F5F5F5F5F5F5F5F5F5F5F5F5F5F5F5F5F5F5F5F5F5F5F5F5F5F5F5F5F5F5F5F5F5F5F5F5F5F5F5F5F5F5F5F5F5F5F5F5F5F5F5F5F5F5
310
F5F5F5F5F5F5F5F5F5F5F5F5F5F5F5F5F5F5F5F5F5F5F5F5F5F5F5F5F5F5F5F5F5F5F5F5F5F5F5F5F5F5F5F5F5F5F5F5F5F5F5F5F5F5F5F5F5F5F5F5F5F5F5F5F5F5F5F5F5F5E2F5F5F5F5F5F5F5F5F5F5F5F5F5F5F5F5E2F5F5F5F5E2E2F5F5F5F5E2F5F5F5F5F5F5F5F5F5F5F5F5F5F5F5F5E2F5F5F5F5F5F5F5F5F5F5F5
310
F5F5F5F5F5F5F5F5F5F5F5F5F5F5F5F5F5F5F5F5F5F5F5F5F5F5F5F5F5F5F5F5F5F5F5F5F5F5F5F5F5F5F5F5F5F5F5F5F5F5F5F5F5F5F5F5F5F5F5F5F5F5F5F5F5F5F5F5F5F5F5F5F5F5F5F5F5F5F5F5F5F5F5F5F5F5F5F5F5F5F5F5F5F5F5F5F5F5F5F5F5F5F5F5F5F5F5F5F5F5F5F5F5F5F5F5F5F5F5F5F5F5F5E2F5F5F5
310
F5F5F5F5F5F5F5F5F5F5F5F5F5E2F5F5F5F5E2E2F5F5F5F5E2F5F5F5F5F5F5F5F5F5F5F5F5F5F5F5F5E20F0F0F0F0F0F0F0F0F0F0FF5F5F5F5F5F5F5F5F5F5F5F5F5F5F5F5F5F5F5F5F5F5F5F5F5F5F5F5F5F5F5F5F5F5F5F5F5F5F5F5F5F5F5F5F5F5F5F5F5F5F5F5F5F5F5F5F5F5F5F5F5F5F5F5F5F5F5F5F5F5F5F5F5F5
310
F5F5F5F5F5F5F5F5F5F5F5F5F5F5F5F5F5F5F5F5F5F5F5F5F5F5F5F5F5F5F5F5F5F5F5F5F5F5F5F5F5F5F5F5F5F5F5F5F5E2F5F5F5F5F5F5F5F5F5F5F5F5F5F5F5F5E2F5F5F5F5E2E2F5F5F5F5E2F5F5F5F5F5F5F5F5F5F5F5F5F5F5F5F5E20F0F0F0F0F0F0F0F0F0FF5F5F5F5F5F5F5F5F5F5F5F5F5F5F5F5F5F5F5F5F5F5
310
F5F5F5F5F5F5F5F5F5F5F5F5F5F5F5F5F5F5F5F5F5F5F5F5F5F5F5F5F5F5F5F5F5F5F5F5F5F5F5F5F5F5F5F5F5F5F5F5F5F5F5F5F5F5F5F5F5F5F5F5F5F5F5F5F5F5F5F5F5F5F5F5F5F5F5F5F5F5F5F5F5F5F5F5F5F5F5F5F5F5F5F5F5F5F5F5F5F5F5F5F5F5E2F5F5F5F5F5F5F5F5F5F5F5F5F5F5F5F5E2F5F5F5F5E2E2F5
310
F5F5F5E2F5F5F5F5F5F5F5F5F5F5F5F5F5F5F5F5E2F5F5F5F5F5F5F5F5F5F5F5F5F5F5F5F5F5F5F5F5F5F5F5F5F5F5F5F5F5F5F5F5F5F5F5F5F5F5F5F5F5F5F5F5F5F5F5F5F5F5F5F5F5F5F5F5F5F5F5F5F5F5F5F5F5F5F5F5F5F5F5F5F5F5F5F5F5F5F5F5F5F5F5F5F5F5F5F5F5F5F5F5F5F5F5F5F5F5F5F5F5F5F5F5F5F5
310
F5F5F5F5F5F5F5F5F5F5F5F5F5F5F5F5F5F5F5F5F5F5F5F5F5F5F5F5E2F5F5F5F5F5F5F5F5F5F5F5F5F5F5F5F5E2F5F5F5F5E2E2F5F5F5F5E2F5F5F5F5F5F5F5F5F5F5F5F5F5F5F5F5E2F5F5F5F5F5F5F5F5F5F5F5F5F5F5F5F5F5F5F5F5F5F5F5F5F5F5F5F5F5F5F5F5F5F5F5F5F5F5F5F5F5F5F5F5F5F5F5F5F5F5F5F5F5
310
F5F5F5F5F5F5F5F5F5F5F5F5F5F5F5F5F5F5F5F5F5F5F5F5F5F5F5F5F5F5F5F5F5F5F5F5F5F5F5F5F5F5F5F5F5F5F5F5F5F5F5F5F5F5F5F5F5F5F5F5F5F5F5F5F5F5F5F5F5F5F5F5F5F5F5F5F5F5F5F5F5E2F5F5F5F5F5F5F5F5F5F5F5F5F5F5F5F5E2F5F5F5F5E2E2F5F5F5F5E2F5F5F5F5F5F5F5F5F5F5F5F5F5F5F5F5E2
310
F5F5F5F5F5F5F5F5F5F5F5F5F5F5F5F5F5F5F5F5F5F5F5F5F5F5F5F5F5F5F5F5F5F5F5F5F5F5F5F5F5F5F5F5F5F5F5F5F5F5F5F5F5F5F5F5F5F5F5F5F5F5F5F5F5F5F5F5F5F5F5F5F5F5F5F5F5F5F5F5F5F5F5F5F5F5F5F5F5F5F5F5F5F5F5F5F5F5F5F5F5F5F5F5F5F5F5F5F5F5F5F5F5F5F5F5F5F5F5F5F5F5F5F5F5F5F5
310
F5F5F5F5F5F5F5E2F5F5F5F5F5F5F5F5F5F5F5F5F5F5F5F5E2F5F5F5F5E2E2F5F5F5F5E2F5F5F5F5F5F5F5F5F5F5F5F5F5F5F5F5E2F5F5F5F5F5F5F5F5F5F5F5F5F5F5F5F5F5F5F5F5F5F5F5F5F5F5F5F5F5F5F5F5F5F5F5F5F5F5F5F5F5F5F5F5F5F5F5F5F5F5F5F5F5F5F5F5F5F5F5F5F5F5F5F5F5F5F5F5F5F5F5F5F5F5
310
F5F5F5F5F5F5F5F5F5F5F5F5F5F5F5F5F5F5F5F5F5F5F5F5F5F5F5F5F5F5F5F5F5F5F5F5F5F5F5F5F5F5F5F5F5F5F5F5F5F5F5F5F5F5F5F5F5F5F5F5E2F5F5F5F5F5F5F5F5F5F5F5F5F5F5F5F5E2F5F5F5F5E2E2F5F5F5F5F5F5F5F5F5F5F5F5F5F5F5F5F5F5F5F5F5E2F5F5F5F5F5F5F5F5F5F5F5F5F5F5F5F5F5F5F5F5F5
310
F5F5F5F5F5F5F5F5F5F5F5F5F5F5F5F5F5F5F5F5F5F5F5F5F5F5F5F5F5F5F5F5F5F5F5F5F5F5F5F5F5F5F5F5F5F5F5F5F5F5F5F5F5F5F5F5F5F5F5F5F5F5F5F5F5F5F5F5F5F5F5F5F5F5F5F5F5F5F5F5F5F5F5F5F5F5F5F5F5F5F5F5F5F5F5F5F5F5F5F5F5F5F5F5F5F5F5F5F5F5F5F5F5E2F5F5F5F5F5F5F5F5F5F5F5F5F5
310
F5F5F5F5F5F5F5F5E2E2F5F5F5F5F5F5F5F5F5F5F5F5F5F5F5F5F5F5F5F5F5E2F5F5F5F5F5F5F5F5F5F5F5F5F5F5F5F5F5F5F5F5F5F5F5F5F5F5F5F5F5F5F5F5F5F5F5F5F5F5F5F5F5F5F5F5F5F5F5F5F5F5F5F5F5F5F5F5F5F5F5F5F5F5F5F5F5F5F5F5F5F5F5F5F5F5F5F5F5F5F5F5F5F5F5F5F5F5F5F5F5F5F5F5F5F5F5
310
F5F5F5F5F5F5F5F5F5F5F5F5F5F5F5F5F5F5F5F5F5F5F5F5F5F5F5F5F5F5F5F5F5F5F5F5F5F5F5E2F5F5F5F5F5F5F5F5F5F5F5F5F5F5F5F5F5F5F5F5F5E2E2F5F5F5F5F5F5F5F5F5F5F5F5F5F5F5F5F5F5F5F5F5E2F5F5F5F5F5F5F5F5F5F5F5F5F5F5F5F5F5F5F5F5F5F5F5F5F5F5F5F5F5F5F5F5F5F5F5F5F5F5F5F5F5F5
310
F5F5F5F5F5F5F5F5F5F5F5F5F5F5F5F5F5F5F5F5F5F5F5F5F5F5F5F5F5F5F5F5F5F5F5F5F5F5F5F5F5F5F5F5F5F5F5F5F5F5F5F5F5F5F5F5F5F5F5F5F5F5F5F5F5F5F5F5F5F5F5F5F5F5F5F5F5F5F5F5F5F5F5F5F5F5F5F5F5F5F5F5E2F5F5F5F5F5F5F5F5F5F5F5F5F5F5F5F5F5F5F5F5F5E2E2F5F5F5F5F5F5F5F5F5F5F5
310
F5F5F5F5F5F5F5F5F5F5E2F5F5F5F5F5F5F5F5F5F5F5F5F5F5F5F5F5F5F5F5F5F5F5F5F5F5F5F5F5F5F5F5F5F5F5F5F5F5F5F5F5F5F5F5F5F5F5F5F5F5F5F5F5F5F5F5F5F5F5F5F5F5F5F5F5F5F5F5F5F5F5F5F5F5F5F5F5F5F5F5F5F5F5F5F5F5F5F5F5F5F5F5F5F5F5F5F5F5F5F5F5F5F5F5F5F5F5F5F5F5F5F5F5F5F5F5
310
F5F5F5F5F5F5F5F5F5F5F5F5F5F5F5F5F5F5E2F5F5F5F5F5F5F5F5F5F5F5F5F5F5F5F5F5F5F5F5F5E2E2F5F5F5F5F5F5F5F5F5F5F5F5F5F5F5F5F5F5F5F5F5E2F5F5F5F5F5F5F5F5F5F5F5F5F5F5F5F5F5F5F5F5F5F5F5F5F5F5F5F5F5F5F5F5F5F5F5F5F5F5F5F5F5F5F5F5F5F5F5F5F5F5F5F5F5F5F5F5F5F5F5F5F5F5F5
310
F5F5F5F5F5F5F5F5F5F5F5F5F5F5F5F5F5F5F5F5F5F5F5F5F5F5F5F5F5F5F5F5F5F5F5F5F5F5F5F5F5F5F5F5F5F5F5F5F5F5F5F5F5F5F5F5F5F5F5F5F5F5F5F5F5F5F5F5F5F5F5E2F5F5F5F5F5F5F5F5F5F5F5F5F5F5F5F5F5F5F5F5F5E2E2F5F5F5F5F5F5F5F5F5F5F5F5F5F5F5F5F5F5F5F5F5E2F5F5F5F5F5F5F5F5F5F5
310
F5F5F5F5F5F5F5F5F5F5F5F5F5F5F5F5F5F5F5F5F5F5F5F5F5F5F5F5F5F5F5F5F5F5F5F5F5F5F5F5F5F5F5F5F5F5F5F5F5F5F5F5F5F5F5F5F5F5F5F5F5F5F5F5F5F5F5F5F5F5F5F5F5F5F5F5F5F5F5F5F5F5F5F5F5F5F5F5F5F5F5F5F5F5F5F5F5F5F5F5F5F5F5F5F5F5F5F5F5F5F5F5F5F5F5F5F5F5F5F5F5F5F5F5E2F5F5
310
F5F5F5F5F5F5F5F5F5F5F5F5F5F5F5F5F5F5F5E2E2F5F5F5F5F5F5F5F5F5F5F5F5F5F5F5F5F5F5F5F5F5E2F5F5F5F5F5F5F5F5F5F5F5F5F5F5F5F5F5F5F5F5F5F5F5F5F5F5F5F5F5F5F5F5F5F5F5F5F5F5F5F5F5F5F5F5F5F5F5F5F5F5F5F5F5F5F5F5F5F5F5F5F5F5F5F5F5F5F5F5F5F5F5F5F5F5F5F5F5F5F5F5F5F5F5F5
310
F5F5F5F5F5F5F5F5F5F5F5F5F5F5F5F5F5F5F5F5F5F5F5F5F5F5F5F5F5F5F5F5F5F5F5F5F5F5F5F5F5F5F5F5F5F5F5F5F5F5E2F5F5F5F5F5F5F5F5F5F5F5F5F5F5F5F5F5F5F5F5F5E2E2F5F5F5F5F5F5F5F5F5F5F5F5F5F5F5F5F5F5F5F5F5E2F5F5F5F5F5F5F5F5F5F5F5F5F5F5F5F5F5F5F5F5F5F5F5F5F5F5F5F5F5F5F5
310
F5F5F5F5F5F5F5F5F5F5F5F5F5F5F5F5F5F5F5F5F5F5F5F5F5F5F5F5F5F5F5F5F5F5F5F5F5F5F5F5F5F5F5F5F5F5F5F5F5F5F5F5F5F5F5F5F5F5F5F5F5F5F5F5F5F5F5F5F5F5F5F5F5F5F5F5F5F5F5F5F5F5F5F5F5F5F5F5F5F5F5F5F5F5F5F5F5F5F5F5F5F5F5E2F5F5F5F5F5F5F5F5F5F5F5F5F5F5F5F5F5F5F5F5F5E2E2
310
F5F5F5F5F5F5F5F5F5F5F5F5F5F5F5F5F5F5F5F5F5E2F5F5F5F5F5F5F5F5F5F5F5F5F5F5F5F5F5F5F5F5F5F5F5F5F5F5F5F5F5F5F5F5F5F5F5F5F5F5F5F5F5F5F5F5F5F5F5F5F5F5F5F5F5F5F5F5F5F5F5F5F5F5F5F5F5F5F5F5F5F5F5F5F5F5F5F5F5F5F5F5F5F5F5F5F5F5F5F5F5F5F5F5F5F5F5F5F5F5F5F5F5F5F5F5F5
310
F5F5F5F5F5F5F5F5F5F5F5F5F5F5F5F5F5F5F5F5F5F5F5F5F5F5F5F5F5E2F5F5F5F5F5F5F5F5F5F5F5F5F5F5F5F5F5F5F5F5F5E2E2F5F5F5F5F5F5F5F5F5F5F5F5F5F5F5F5F5F5F5F5F5E2F5F5F5F5F5F5F5F5F5F5F5F5F5F5F5F5F5F5F5F5F5F5F5F5F5F5F5F5F5F5F5F5F5F5F5F5F5F5F5F5F5F5F5F5F5F5F5F5F5F5F5F5
310
F5F5F5F5F5F5F5F5F5F5F5F5F5F5F5F5F5F5F5F5F5F5F5F5F5F5F5F5F5F5F5F5F5F5F5F5F5F5F5F5F5F5F5F5F5F5F5F5F5F5F5F5F5F5F5F5F5F5F5F5F5F5F5F5F5F5F5F5F5F5F5F5F5F5F5F5F5F5F5F5F5F5E2F5F5F5F5F5F5F5F5F5F5F5F5F5F5F5F5F5F5F5F5F5E2E2F5F5F5F5E2F5F5F5F5F5F5F5F5F5F5F5F5F5F5F5F5
310
E2F5F5F5F5F5F5F5F5F5F5F5F5F5F5F5F5F5F5F5F5F5F5F5F5F5F5F5F5F5F5F5F5F5F5F5F5F5F5F5F5F5F5F5F5F5F5F5F5F5F5F5F5F5F5F5F5F5F5F5F5F5F5F5F5F5F5F5F5F5F5F5F5F5F5F5F5F5F5F5F5F5F5F5F5F5F5F5F5F5F5F5F5F5F5F5F5F5F5F5F5F5F5F5F5F5F5F5F5F5F5F5F5F5F5F5F5F5F5F5F5F5F5F5F5F5F5
310
F5F5F5F5F5F5F5F5E2F5F5F5F5F5F5F5F5F5F5F5F5F5F5F5F5E2F5F5F5F5E2E2F5F5F5F5E2F5F5F5F5F5F5F5F5F5F5F5F5F5F5F5F5E2F5F5F5F5F5F5F5F5F5F5F5F5F5F5F5F5F5F5F5F5F5F5F5F5F5F5F5F5F5F5F5F5F5F5F5F5F5F5F5F5F5F5F5F5F5F5F5F5F5F5F5F5F5F5F5F5F5F5F5F5F5F5F5F5F5F5F5F5F5F5F5F5F5
310
F5F5F5F5F5F5F5F5F5F5F5F5F5F5F5F5F5F5F5F5F5F5F5F5F5F5F5F5F5F5F5F5F5F5F5F5F5F5F5F5F5F5F5F5F5F5F5F5F5F5F5F5F5F5F5F5F5F5F5F5F5E2F5F5F5F5F5F5F5F5F5F5F5F5F5F5F5F5E2F5F5F5F5E2E2F5F5F5F5E2F5F5F5F5F5F5F5F5F5F5F5F5F5F5F5F5E2F5F5F5F5F5F5F5F5F5F5F5F5F5F5F5F5F5F5F5F5
310
F5F5F5F5F5F5F5F5F5F5F5F5F5F5F5F5F5F5F5F5F5F5F5F5F5F5F5F5F5F5F5F5F5F5F5F5F5F5F5F5F5F5F5F5F5F5F5F5F5F5F5F5F5F5F5F5F5F5F5F5F5F5F5F5F5F5F5F5F5F5F5F5F5F5F5F5F5F5F5F5F5F5F5F5F5F5F5F5F5F5F5F5F5F5F5F5F5F5F5F5F5F5F5F5F5F5F5F5F5F5F5F5F5F5E2F5F5F5F5F5F5F5F5F5F5F5F5
310
F5F5F5F5E2F5F5F5F5E2E2F5F5F5F5E2F5F5F5F5F5F5F5F5F5F5F5F5F5F5F5F5E2F5F5F5F5F5F5F5F5F5F5F5F5F5F5F5F5F5F5F5F5F5F5F5F5F5F5F5F5F5F5F5F5F5F5F5F5F5F5F5F5F5F5F5F5F5F5F5F5F5F5F5F5F5F5F5F5F5F5F5F5F5F5F5F5F5F5F5F5F5F5F5F5F5F5F5F5F5F5F5F5F5F5F5F5F5F5F5F5F5F5F5F5F5F5
310
F5F5F5F5F5F5F5F5F5F5F5F5F5F5F5F5F5F5F5F5F5F5F5F5F5F5F5F5F5F5F5F5F5F5F5F5F5F5F5F5E2F5F5F5F5F5F5F5F5F5F5F5F5F5F5F5F5E2F5F5F5F5E2E2F5F5F5F5E2F5F5F5F5F5F5F5F5F5F5F5F5F5F5F5F5E2F5F5F5F5F5F5F5F5F5F5F5F5F5F5F5F5F5F5F5F5F5F5F5F5F5F5F5F5F5F5F5F5F5F5F5F5F5F5F5F5F5
310
F5F5F5F5F5F5F5F5F5F5F5F5F5F5F5F5F5F5F5F5F5F5F5F5F5F5F5F5F5F5F5F5F5F5F5F5F5F5F5F5F5F5F5F5F5F5F5F5F5F5F5F5F5F5F5F5F5F5F5F5F5F5F5F5F5F5F5F5F5F5F5F5F5F5F5F5F5F5F5F5F5F5F5F5F5F5F5F5F5F5F5F5F5E2F5F5F5F5F5F5F5F5F5F5F5F5F5F5F5F5E2F5F5F5F5E2E2F5F5F5F5E2F5F5F5F5F5
310
F5F5F5F5F5F5F5F5F5F5F5E2F5F5F5F5F5F5F5F5F5F5F5F5F5F5F5F5F5F5F5F5F5F5F5F5F5F5F5F5F5F5F5F5F5F5F5F5F5F5F5F5F5F5F5F5F5F5F5F5F5F5F5F5F5F5F5F5F5F5F5F5F5F5F5F5F5F5F5F5F5F5F5F5F5F5F5F5F5F5F5F5F5F5F5F5F5F5F5F5F5F5F5F5F5F5F5F5F5F5F5F5F5F5F5F5F5F5F5F5F5F5F5F5F5F5F5
310
F5F5F5F5F5F5F5F5F5F5F5F5F5F5F5F5F5F5F5E2F5F5F5F5F5F5F5F5F5F5F5F5F5F5F5F5E2F5F5F5F5E2E2F5F5F5F5E2F5F5F5F5F5F5F5F5F5F5F5F5F5F5F5F5E2F5F5F5F5F5F5F5F5F5F5F5F5F5F5F5F5F5F5F5F5F5F5F5F5F5F5F5F5F5F5F5F5F5F5F5F5F5F5F5F5F5F5F5F5F5F5F5F5F5F5F5F5F5F5F5F5F5F5F5F5F5F5
310
F5F5F5F5F5F5F5F5F5F5F5F5F5F5F5F5F5F5F5F5F5F5F5F5F5F5F5F5F5F5F5F5F5F5F5F5F5F5F5F5F5F5F5F5F5F5F5F5F5F5F5F5F5F5F5F5F5F5F5F5F5F5F5F5F5F5F5F5F5F5F5F5E2F5F5F5F5F5F5F5F5F5F5F5F5F5F5F5F5E2F5F5F5F5E2E2F5F5F5F5E2F5F5F5F5F5F5F5F5F5F5F5F5F5F5F5F5E2F5F5F5F5F5F5F5F5F5
310
F5F5F5F5F5F5F5F5F5F5F5F5F5F5F5F5F5F5F5F5F5F5F5F5F5F5F5F5F5F5F5F5F5F5F5F5F5F5F5F5F5F5F5F5F5F5F5F5F5F5F5F5F5F5F5F5F5F5F5F5F5F5F5F5F5F5F5F5F5F5F5F5F5F5F5F5F5F5F5F5F5F5F5F5F5F5F5F5F5F5F5F5F5F5F5F5F5F5F5F5F5F5F5F5F5F5F5F5F5F5F5F5F5F5F5F5F5F5F5F5F5F5F5F5F5E2F5
310
F5F5F5F5F5F5F5F5F5F5F5F5F5F5F5E2F5F5F5F5E2E2F5F5F5F5E2F5F5F5F5F5F5F5F5F5F5F5F5F5F5F5F5E2F5F5F5F5F5F5F5F5F5F5F5F5F5F5F5F5F5F5F5F5F5F5F5F5F5F5F5F5F5F5F5F5F5F5F5F5F5F5F5F5F5F5F5F5F5F5F5F5F5F5F5F5F5F5F5F5F5F5F5F5F5F5F5F5F5F5F5F5F5F5F5F5F5F5F5F5F5F5F5F5F5F5F5
310
F5F5F5F5F5F5F5F5F5F5F5F5F5F5F5F5F5F5F5F5F5F5F5F5F5F5F5F5F5F5F5F5F5F5F5F5F5F5F5F5F5F5F5F5F5F5F5F5F5F5F5E2F5F5F5F5F5F5F5F5F5F5F5F5F5F5F5F5E2F5F5F5F5E2E2F5F5F5F5E2F5F5F5F5F5F5F5F5F5F5F5F5F5F5F5F5E2F5F5F5F5F5F5F5F5F5F5F5F5F5F5F5F5F5F5F5F5F5F5F5F5F5F5F5F5F5F5
310
F5F5F5F5F5F5F5F5F5F5F5F5F5F5F5F5F5F5F5F5F5F5F5F5F5F5F5F5F5F5F5F5F5F5F5F5F5F5F5F5F5F5F5F5F5F5F5F5F5F5F5F5F5F5F5F5F5F5F5F5F5F5F5F5F5F5F5F5F5F5F5F5F5F5F5F5F5F5F5F5F5F5F5F5F5F5F5F5F5F5F5F5F5F5F5F5F5F5F5F5F5F5F5F5E2F5F5F5F5F5F5F5F5F5F5F5F5F5F5F5F5E2F5F5F5F5E2
310
E2F5F5F5F5E2F5F5F5F5F5F5F5F5F5F5F5F5F5F5F5F5E2F5F5F5F5F5F5F5F5F5F5F5F5F5F5F5F5F5F5F5F5F5F5F5F5F5F5F5F5F5F5F5F5F5F5F5F5F5F5F5F5F5F5F5F5F5F5F5F5F5F5F5F5F5F5F5F5F5F5F5F5F5F5F5F5F5F5F5F5F5F5F5F5F5F5F5F5F5F5F5F5F5F5F5F5F5F5F5F5F5F5F5F5F5F5F5F5F5F5F5F5F5F5F5F5
310
F5F5F5F5F5F5F5F5F5F5F5F5F5F5F5F5F5F5F5F5F5F5F5F5F5F5F5F5F5F5E2F5F5F5F5F5F5F5F5F5F5F5F5F5F5F5F5E2F5F5F5F5E2E2F5F5F5F5E2F5F5F5F5F5F5F5F5F5F5F5F5F5F5F5F5E2F5F5F5F5F5F5F5F5F5F5F5F5F5F5F5F5F5F5F5F5F5F5F5F5F5F5F5F5F5F5F5F5F5F5F5F5F5F5F5F5F5F5F5F5F5F5F5F5F5F5F5
310
F5F5F5F5F5F5F5F5F5F5F5F5F5F5F5F5F5F5F5F5F5F5F5F5F5F5F5F5F5F5F5F5F5F5F5F5F5F5F5F5F5F5F5F5F5F5F5F5F5F5F5F5F5F5F5F5F5F5F5F5F5F5F5F5F5F5F5F5F5F5F5F5F5F5F5F5F5F5F5F5F5F5F5E2F5F5F5F5F5F5F5F5F5F5F5F5F5F5F5F5E2F5F5F5F5E2E2F5F5F5F5E2F5F5F5F5F5F5F5F5F5F5F5F5F5F5F5
310
F5E2F5F5F5F5F5F5F5F5F5F5F5F5F5F5F5F5F5F5F5F5F5F5F5F5F5F5F5F5F5F5F5F5F5F5F5F5F5F5F5F5F5F5F5F5F5F5F5F5F5F5F5F5F5F5F5F5F5F5F5F5F5F5F5F5F5F5F5F5F5F5F5F5F5F5F5F5F5F5F5F5F5F5F5F5F5F5F5F5F5F5F5F5F5F5F5F5F5F5F5F5F5F5F5F5F5F5F5F5F5F5F5F5F5F5F5F5F5F5F5F5F5F5F5F5F5
310
F5F5F5F5F5F5F5F5F5E2F5F5F5F5F5F5F5F5F5F5F5F5F5F5F5F5E2F5F5F5F5E2E2F5F5F5F5E2F5F5F5F5F5F5F5F5F5F5F5F5F5F5F5F5E2F5F5F5F5F5F5F5F5F5F5F5F5F5F5F5F5F5F5F5F5F5F5F5F5F5F5F5F5F5F5F5F5F5F5F5F5F5F5F5F5F5F5F5F5F5F5F5F5F5F5F5F5F5F5F5F5F5F5F5F5F5F5F5F5F5F5F5F5F5F5F5F5
310
F5F5F5F5F5F5F5F5F5F5F5F5F5F5F5F5F5F5F5F5F5F5F5F5F5F5F5F5F5F5F5F5F5F5F5F5F5F5F5F5F5F5F5F5F5F5F5F5F5F5F5F5F5F5F5F5F5F5F5F5F5F5E2F5F5F5F5F5F5F5F5F5F5F5F5F5F5F5F5E2F5F5F5F5E2E2F5F5F5F5E2F5F5F5F5F5F5F5F5F5F5F5F5F5F5F5F5E2F5F5F5F5F5F5F5F5F5F5F5F5F5F5F5F5F5F5F5
310
F5F5F5F5F5F5F5F5F5F5F5F5F5F5F5F5F5F5F5F5F5F5F5F5F5F5F5F5F5F5F5F5F5F5F5F5F5F5F5F5F5F5F5F5F5F5F5F5F5F5F5F5F5F5F5F5F5F5F5F5F5F5F5F5F5F5F5F5F5F5F5F5F5F5F5F5F5F5F5F5F5F5F5F5F5F5F5F5F5F5F5F5F5F5F5F5F5F5F5F5F5F5F5F5F5F5F5F5F5F5F5F5F5F5F5E2F5F5F5F5F5F5F5F5F5F5F5
310
F5F5F5F5F5E2F5F5F5F5E2E2F5F5F5F5E2F5F5F5F5F5F5F5F5F5F5F5F5F5F5F5F5E2F5F5F5F5F5F5F5F5F5F5F5F5F5F5F5F5F5F5F5F5F5F5F5F5F5F5F5F5F5F5F5F5F5F5F5F5F5F5F5F5F5F5F5F5F5F5F5F5F5F5F5F5F5F5F5F5F5F5F5F5F5F5F5F5F5F5F5F5F5F5F5F5F5F5F5F5F5F5F5F5F5F5F5F5F5F5F5F5F5F5F5F5F5
310
F5F5F5F5F5F5F5F5F5F5F5F5F5F5F5F5F5F5F5F5F5F5F5F5F5F5F5F5F5F5F5F5F5F5F5F5F5F5F5F5F5E2F5F5F5F5F5F5F5F5F5F5F5F5F5F5F5F5E2F5F5F5F5E2E2F5F5F5F5F5F5F5F5F5F5F5F5F5F5F5F5F5F5F5F5F5E2F5F5F5F5F5F5F5F5F5F5F5F5F5F5F5F5F5F5F5F5F5F5F5F5F5F5F5F5F5F5F5F5F5F5F5F5F5F5F5F5
310
F5F5F5F5F5F5F5F5F5F5F5F5F5F5F5F5F5F5F5F5F5F5F5F5F5F5F5F5F5F5F5F5F5F5F5F5F5F5F5F5F5F5F5F5F5F5F5F5F5F5F5F5F5F5F5F5F5F5F5F5F5F5F5F5F5F5F5F5F5F5F5F5F5F5F5F5F5F5F5F5F5F5F5F5F5F5F5F5F5F5F5F5F5F5E2F5F5F5F5F5F5F5F5F5F5F5F5F5F5F5F5F5F5F5F5F5E2E2F5F5F5F5F5F5F5F5F5
310
F5F5F5F5F5F5F5F5F5F5F5F5E2F5F5F5F5F5F5F5F5F5F5F5F5F5F5F5F5F5F5F5F5F5F5F5F5F5F5F5F5F5F5F5F5F5F5F5F5F5F5F5F5F5F5F5F5F5F5F5F5F5F5F5F5F5F5F5F5F5F5F5F5F5F5F5F5F5F5F5F5F5F5F5F5F5F5F5F5F5F5F5F5F5F5F5F5F5F5F5F5F5F5F5F5F5F5F5F5F5F5F5F5F5F5F5F5F5F5F5F5F5F5F5F5F5F5
310
F5F5F5F5F5F5F5F5F5F5F5F5F5F5F5F5F5F5F5F5E2F5F5F5F5F5F5F5F5F5F5F5F5F5F5F5F5F5F5F5F5F5E2E2F5F5F5F5F5F5F5F5F5F5F5F5F5F5F5F5F5F5F5F5F5E2F5F5F5F5F5F5F5F5F5F5F5F5F5F5F5F5F5F5F5F5F5F5F5F5F5F5F5F5F5F5F5F5F5F5F5F5F5F5F5F5F5F5F5F5F5F5F5F5F5F5F5F5F5F5F5F5F5F5F5F5F5
310
F5F5F5F5F5F5F5F5F5F5F5F5F5F5F5F5F5F5F5F5F5F5F5F5F5F5F5F5F5F5F5F5F5F5F5F5F5F5F5F5F5F5F5F5F5F5F5F5F5F5F5F5F5F5F5F5F5F5F5F5F5F5F5F5F5F5F5F5F5F5F5F5F5E2F5F5F5F5F5F5F5F5F5F5F5F5F5F5F5F5F5F5F5F5F5E2E2F5F5F5F5F5F5F5F5F5F5F5F5F5F5F5F5F5F5F5F5F5E2F5F5F5F5F5F5F5F5
310
F5F5F5F5F5F5F5F5F5F5F5F5F5F5F5F5F5F5F5F5F5F5F5F5F5F5F5F5F5F5F5F5F5F5F5F5F5F5F5F5F5F5F5F5F5F5F5F5F5F5F5F5F5F5F5F5F5F5F5F5F5F5F5F5F5F5F5F5F5F5F5F5F5F5F5F5F5F5F5F5F5F5F5F5F5F5F5F5F5F5F5F5F5F5F5F5F5F5DCF5F5F5F5F5F5F5F5F5F5F5F5F5F5F5F5F5F5F5F5F5F5F5F5F5F5F5E2
310
F5F5F5F5F5F5F5F5F5F5F5F5F5F5F5F5F5F5F5F5F5E2E2F5F5F5F5F5F5F5F5F5F5F5F5F5F5F5F5F5F5F5F5F5E2F5F5F5F5F5F5F5F5F5F5F5F5F5F5F5F5F5F5F5F5F5F5F5F5F5F5F5F5F5F5F5F5F5F5F5F5F5F5F5F5F5F5F5F5F5F5F5F5F5F5F5F5F5F5F5F5F5F5F5F5F5F5F5F5F5F5F5F5F5F5F5F5F5F5F5F5F5F5F5F5F5E2
310
ECE2E2E2E2E2E2E2E2E2E2E2E2E2E2E2E2E2E2E2E2E2E2E2DCE2E2E2E2E2E2E2E2E2E2E2E2E2E2E2E2E2E2E2E2E2E2E2ECE2F5F5E2F5F5F5F5F5F5F5F5F5F5F5F5F5F5F5F5F5F5F5F5F5E2E2F5F5F5F5F5F5F5F5F5F5F5F5F5F5F5F5F5F5F5F5F5E2F5F5F5F5F5F5F5F5F5F5F5F5F5F5F5F5F5F5F5F5F5F5F5F5F5F5F5F5F5
310
F5F5F5F5F5F5F5F5F5F5F5F5F5F5F5F5F5F5F5F5F5F5F5F5F5F5F5F5F5F5F5F5F5F5F5F5F5F5F5F5F5F5F5F5F5F5F5F5F5F5F5E2F5F5ECF5F5F5F5F5F5F5F5F5F5F5F5F5F5F5F5F5F5F5F5F5F5DCF5F5F5F5F5F5F5F5F5F5F5F5F5F5F5F5F5F5F5F5F5F5ECF5F5E2F5E2F5F5F5F5F5F5F5F5F5F5F5F5F5F5F5F5F5F5F5F5F5
310
E2E2F5F5F5F5F5F5F5F5F5F5F5F5F5F5F5F5F5F5F5F5F5E2F5F5F5F5F5F5F5F5F5F5F5F5F5F5F5F5F5F5F5F5F5F5F5F5F5F5F5F5F5F5F5F5F5F5F5F5F5F5F5F5F5F5F5F5F5F5F5F5F5F5F5F5F5F5F5F5F5F5F5F5F5F5F5F5F5F5F5F5F5F5F5F5F5F5F5F5F5F5F5E2F5F5F5F5ECF5F5F5F5F5F5F5F5F5F5F5F5F5F5F5F5F5F5
310
F5F5F5DCF5F5F5F5F5F5F5F5F5F5F5F5F5F5F5F5F5F5F5F5F5ECF5F5F5F5E2E2F5F5F5F5F5F5F5F5F5F5F5F5F5F5F5F5F5F5F5F5F5E2E2F5F5F5F5F5F5F5F5F5F5F5F5F5F5F5F5F5F5F5F5F5E2F5F5F5F5F5F5F5F5F5F5F5F5F5F5F5F5F5F5F5F5F5F5F5F5F5F5F5F5F5F5F5F5F5F5F5F5F5F5F5F5F5F5F5F5F5F5F5F5F5F5
310
F5F5F5F5F5F5F5F5F5F5F5F5F5F5F5F5F5F5F5F5F5F5F5F5F5F5F5F5E2E2E2E2E2E2ECE2E2E2E2E2E2E2E2E2ECECECECECECE2ECECECECECDCECECECECECE2ECECECECECECE2E2E2E2E2E2E2E2ECE2E2E2E2E2E2E2F5F5F5F5F5F5F5F5F5F5F5F5F5F5F5F5F5F5F5F5F5E2E2F5F5F5F5F5F5F5F5F5F5F5F5F5F5F5F5F5F5F5
310
F5F5E2F5F5F5F5F5F5F5F5F5F5F5F5F5F5F5F5F5F5F5F5F5F5F5F5F5F5F5F5F5F5F5F5F5F5F5F5F5F5F5F5F5F5F5F5F5F5F5F5F5F5F5F5F5F5F5F5F5F5F5F5F5F5F5F5F5F5F5F5F5F5F5F5F5F5F5F5F5F5E2F5F5F5F5F5F5F5F5F5F5F5F5F5F5F5ECF5F5F5F5F5F5F5F5F5F5F5DCF5F5F5F5F5F5F5F5F5F5ECF5F5F5F5F5F5
310
F5F5F5F5F5F5F5F5F5E2E2F5F5F5F5F5F5F5F5F5F5F5F5F5F5F5F5F5F5F5F5F5E2E2F5F5F5F5E2F5F5F5F5F5F5F5F5F5F5F5F5F5F5F5F5E2F5F5F5F5F5F5F5F5F5F5F5F5F5F5F5F5F5F5F5F5F5F5F5F5F5F5F5F5F5F5F5F5F5F5F5F5F5F5F5F5F5F5F5F5F5F5F5F5F5F5F5F5F5F5F5F5F5F5F5F5F5F5F5F5F5F5F5F5F5F5F5
310
F5F5F5F5F5F5F5E2F5F5F5F5F5F5F5F5F5F5F5F5F5F5F5ECECECECECECECECECECECECECECECECECECECECECECECECF5F5F5F5F5F5F5F5F5F5F5F5F5F5F5E2E2F5F5F5F5F5F5F5F5F5F5F5F5F5F5F5F5E2F5F5F5F5E2E2F5F5F5F5E2F5F5F5F5F5F5F5F5F5F5F5F5F5F5F5F5E2F5F5F5F5F5F5F5F5F5F5F5F5F5F5F5F5F5F5
310
F5F5F5F5F5F5F5F5F5F5F5F5F5F5F5F5F5F5F5F5F5F5F5F5F5F5F5F5F5F5F5F5F5F5F5F5F5F5F5F5F5F5F5F5F5F5F5F5F5F5F5F5F5F5F5F5F5F5F5F5F5E2F5F5F5F5F5F5F5F5F5F5F5F5F5F5F5F5F5F5F5ECF5F5F5F5F5F5DCF5F5F5F5F5ECF5F5F5F5F5F5F5F5F5F5F5F5F5F5F5F5F5F5F5F5E2E2F5F5F5F5F5F5F5F5F5F5
310
F5F5F5F5F5F5E2F5F5F5F5E2E2F5F5F5F5E2F5F5F5F5F5F5F5F5F5F5F5F5F5F5F5F5E2F5F5F5F5F5F5F5F5F5F5F5F5F5F5F5F5F5F5F5F5F5F5F5F5F5F5F5F5F5F5F5F5F5F5F5F5F5F5F5F5F5F5F5F5F5F5F5F5F5F5F5F5F5F5F5F5F5F5F5F5F5F5F5F5F5F5F5F5F5F5F5F5F5F5F5F5F5F5F5F5E2F5F5F5F5F5F5F5F5F5F5F5
310
F5F5F5F5F5ECECECECECECF5ECECECECECF5ECECECECECF5F5F5F5F5F5F5F5F5F5F5F5F5F5F5F5F5E2F5E2F5F5F5F5F5F5F5F5F5F5F5F5F5F5F5F5E2F5F5F5F5E2E2F5F5F5F5E2F5F5F5F5F5F5F5F5F5F5F5F5F5F5F5F5E2F5F5F5F5F5F5F5F5F5F5F5F5F5F5F5F5F5F5F5F5F5F5F5F5F5F5F5F5F5F5F5F5F5F5F5F5F5F5F5
310
F5F5F5F5F5F5F5F5F5F5F5F5F5F5F5F5F5F5F5F5F5F5F5F5F5F5F5F5F5F5F5F5F5F5F5F5F5F5F5F5F5F5E2E2F5F5F5F5F5F5F5F5F5F5F5F5F5F5ECF5F5F5F5F5F5F5F5DCF5F5F5F5F5F5F5ECF5F5F5F5F5F5F5F5F5F5F5F5F5F5F5E2E2F5F5E2F5F5F5F5F5F5F5F5F5F5F5F5F5F5F5F5E2F5F5F5F5E2E2F5F5F5F5E2F5F5F5
310
F5F5F5F5F5F5F5F5F5F5F5F5F5E2F5F5F5F5F5F5F5F5F5F5F5F5F5F5F5F5F5F5F5F5F5F5F5F5F5F5F5F5F5F5F5F5F5F5F5F5F5F5F5F5F5F5F5F5F5F5F5F5F5F5F5F5F5F5F5F5F5F5F5F5F5F5F5F5F5F5F5F5F5F5F5F5F5F5F5F5F5F5F5F5F5F5F5E2F5F5F5F5F5F5F5F5F5F5F5F5F5ECF5F5F5F5F5F5F5F5DCF5F5F5F5F5F5
310
F5ECF5F5F5F5F5F5F5F5F5F5F5F5F5E2E2F5F5F5F5E2F5F5F5F5F5F5F5F5F5F5F5F5F5F5F5F5E2F5F5F5F5E2E2F5F5F5F5E2F5F5F5F5F5F5F5F5F5F5F5F5F5F5F5F5E2F5F5F5F5F5F5F5F5F5F5F5F5F5F5F5F5F5F5F5F5F5F5F5F5F5F5F5F5F5F5F5F5F5F5F5F5F5F5F5F5F5F5F5F5F5F5F5F5F5F5F5F5F5F5F5F5F5F5F5F5
310
F5F5F5F5F5F5F5F5F5F5F5F5F5F5F5F5F5F5F5F5F5F5F5F5E2E2F5F5F5F5F5F5F5F5F5F5F5ECF5F5F5F5F5F5F5F5DCF5F5F5F5F5F5F5ECF5F5F5F5F5F5F5F5F5F5F5F5E2F5F5F5F5F5F5E2F5F5F5F5F5F5F5F5F5F5F5F5F5F5F5F5E2F5F5F5F5E2E2F5F5F5F5E2F5F5F5F5F5F5F5F5F5F5F5F5F5F5F5F5E2F5F5F5F5F5F5F5
310
F5F5F5F5F5F5F5F5F5F5F5F5F5F5F5F5F5F5F5F5F5F5F5F5F5F5F5F5F5F5F5F5F5F5F5F5F5F5F5F5F5F5F5F5F5F5F5F5F5F5F5F5F5F5F5F5F5F5F5F5F5F5F5F5F5F5F5F5F5F5F5F5F5F5F5F5F5F5F5E2F5F5F5F5F5F5F5F5F5F5ECF5F5F5F5F5F5F5F5DCF5F5F5F5F5F5F5ECF5F5F5F5F5F5F5F5F5F5E2E2F5F5F5F5F5F5F5
310
E2F5F5F5F5F5F5F5F5F5F5F5F5F5F5F5F5E2F5F5F5F5E2E2F5F5F5F5E2F5F5F5F5F5F5F5F5F5F5F5F5F5F5F5F5E2F5F5F5F5F5F5F5F5F5F5F5F5F5F5F5F5F5F5F5F5F5F5F5F5F5F5F5F5F5F5F5F5F5F5F5F5F5F5F5F5F5F5F5F5F5F5F5F5F5F5F5F5F5F5F5F5F5F5F5F5F5F5F5F5F5F5F5F5F5F5F5F5F5F5F5F5F5F5F5F5F5
310
F5F5F5F5F5F5E2E2F5F5F5F5F5F5F5F5F5ECECECECECF5ECECECECECF5ECECECECECF5F5F5F5F5F5F5F5E2E2F5F5F5F5F5F5F5F5F5E2F5F5F5F5F5F5F5F5F5F5F5F5F5F5F5F5E2F5F5F5F5E2E2F5F5F5F5E2F5F5F5F5F5F5F5F5F5F5F5F5F5F5F5F5E2F5F5F5F5F5F5F5F5F5F5F5F5F5F5F5F5F5F5F5F5F5F5F5F5F5F5F5F5
310
F5F5F5F5F5F5F5F5F5F5F5F5F5F5F5F5F5F5F5F5F5F5F5F5F5F5F5F5F5F5F5F5F5F5F5F5F5F5F5F5F5F5F5F5F5F5F5F5F5F5F5F5F5F5F5F5F5F5F5F5F5E2E2F5F5F5F5F5F5F5ECF5F5F5F5F5F5F5DCF5F5F5F5F5F5F5ECF5F5F5F5F5F5F5E2F5F5F5F5F5F5F5F5F5F5F5E2F5F5F5F5F5F5F5F5F5F5F5F5F5F5F5F5E2F5F5F5
310
F5E2E2F5F5F5F5E2F5F5F5F5F5F5F5F5F5F5F5F5F5F5F5F5E2F5F5F5F5F5F5F5F5F5F5F5F5F5F5F5F5F5F5F5F5F5F5F5F5F5F5F5F5F5F5F5F5F5F5F5F5F5F5F5F5F5F5F5F5F5F5F5F5F5F5F5F5F5F5F5F5F5F5F5F5F5F5F5F5F5F5F5F5F5F5F5F5F5F5F5F5F5F5F5F5F5F5F5F5F5F5F5F5F5F5E2F5F5F5F5F5F5F5ECF5F5F5
310
F5F5F5F5DCF5F5F5F5F5F5F5ECF5F5F5F5F5F5F5E2F5F5F5F5F5F5F5F5F5F5F5E2F5F5F5F5F5F5F5F5F5F5F5F5F5F5F5F5E2F5F5F5F5E2E2F5F5F5F5E2F5F5F5F5F5F5F5F5F5F5F5F5F5F5F5F5E2F5F5F5F5F5F5F5F5F5F5F5F5F5F5F5F5F5F5F5F5F5F5F5F5F5F5F5F5F5F5F5F5F5F5F5F5F5F5F5F5F5F5F5F5F5F5F5F5F5
310
F5F5F5F5F5F5F5F5F5F5F5F5F5F5F5F5F5F5F5F5F5F5F5F5F5F5F5F5F5F5F5F5F5F5F5F5F5F5F5F5F5E2F5F5F5F5F5F5F5ECF5F5F5F5F5F5F5DCF5F5F5F5F5F5F5ECF5F5F5F5F5F5F5E2F5F5F5F5F5F5F5F5F5F5F5E2F5F5F5F5F5F5F5F5F5F5F5F5F5F5F5F5E2F5F5F5F5E2E2F5F5F5F5E2F5F5F5F5F5F5F5F5F5F5F5F5F5
310
F5F5F5E2F5F5F5F5F5F5F5F5F5F5F5F5F5F5F5F5F5F5F5F5F5F5F5F5F5F5F5F5F5F5F5F5F5F5F5F5F5F5F5F5F5F5F5F5F5F5F5F5F5F5F5F5F5F5F5F5F5F5F5F5F5F5F5F5F5F5F5F5F5F5F5F5F5F5F5F5F5F5F5F5F5F5F5F5F5F5F5F5F5F5E2F5F5F5F5F5F5F5ECF5F5F5F5E2E2E2E2E2E2E2F5F5F5F5ECF5F5F5F5F5F5F5E2
310
F5F5F5F5F5F5F5F5F5F5F5E2F5F5F5F5F5F5F5F5F5F5F5F5F5F5F5F5E2F5F5F5F5E2E2F5F5F5F5E2F5F5F5F5F5F5F5F5F5F5F5F5F5F5F5F5E2F5F5F5F5F5F5F5F5F5F5F5F5F5F5F5F5F5F5F5F5F5F5F5F5F5F5F5F5F5F5F5F5F5F5F5F5F5F5F5F5F5F5F5F5F5F5F5F5F5F5F5F5F5F5F5F5F5F5F5F5F5F5F5F5F5F5F5F5F5F5
310
F5F5F5F5F5F5F5F5F5F5F5F5F5F5F5F5F5F5F5F5E2F5F5F5F5F5F5F5ECECECECECECF5F5DCF5F5ECECECECECECF5F5F5F5F5F5F5E2F5F5F5F5F5F5F5F5F5F5F5E2F5F5F5F5F5F5F5F5F5F5F5F5F5F5F5F5E2F5F5F5F5E2E2F5F5F5F5E2F5F5F5F5F5F5F5F5F5F5F5F5F5F5F5F5E2F5F5F5F5F5F5F5F5F5F5F5F5F5F5F5F5F5
310
F5F5F5F5F5F5F5F5F5F5F5F5F5F5F5F5F5F5F5F5F5F5F5F5F5F5F5F5F5F5F5F5F5F5F5F5F5F5F5F5F5F5F5F5F5F5F5F5F5F5F5F5F5F5F5F5F5F5F5F5F5F5F5F5F5F5F5F5F5F5F5F5F5E2F5F5F5F5F5F5F5ECF5F5F5F5E2F5F5DCF5F5E2F5F5F5F5ECF5F5F5F5F5F5F5E2F5F5F5F5F5F5F5F5F5F5F5E2F5F5F5F5F5F5F5F5F5
310
F5F5F5F5F5F5F5E2F5F5F5F5E2E2F5F5F5F5E2F5F5F5F5F5F5F5F5F5F5F5F5F5F5F5F5E2F5F5F5F5F5F5F5F5F5F5F5F5F5F5F5F5F5F5F5F5F5F5F5F5F5F5F5F5F5F5F5F5F5F5F5F5F5F5F5F5F5F5F5F5F5F5F5F5F5F5F5F5F5F5F5F5F5F5F5F5F5F5F5F5F5F5F5F5F5F5F5F5F5F5F5F5F5F5F5F5F5F5F5F5F5F5F5F5F5F5E2
310
E2E2E2E2E2E2E2E2E2E2E2E2ECF5F5DCF5F5E2E2E2E2E2E2E2E2E2E2E2E2E2E2F5F5F5F5F5F5F5F5F5F5F5E2F5F5F5F5F5F5F5F5F5F5F5F5F5F5F5F5E2F5F5F5F5E2E2F5F5F5F5E2F5F5F5F5F5F5F5F5F5F5F5F5F5F5F5F5E2F5F5F5F5F5F5F5F5F5F5F5F5F5F5F5F5F5F5F5F5F5F5F5F5F5F5F5F5F5F5F5F5F5F5F5F5F5F5
310
F5F5F5F5F5F5F5F5F5F5F5F5F5F5F5F5F5F5F5F5F5F5F5F5F5F5F5F5F5F5F5F5F5F5F5F5F5F5F5F5F5F5F5F5F5F5F5F5F5F5F5F5F5F5F5F5F5F5F5F5F5F5F5F5F5F5F5F5DCF5F5F5F5F5F5F5F5F5F5F5F5F5F5F5F5F5F5F5F5F5F5F5F5F5F5F5E2F5F5F5F5F5F5F5F5F5F5F5F5F5F5F5F5E2F5F5F5F5E2E2F5F5F5F5F5F5F5
310
F5F5F5F5F5F5F5F5F5F5F5F5F5F5E2F5F5F5F5F5F5F5F5F5F5F5F5F5F5F5F5F5F5F5F5F5F5F5F5F5F5F5F5F5F5F5F5F5F5F5F5F5F5F5F5F5F5F5F5F5F5F5F5F5F5F5F5F5F5F5F5F5F5F5F5F5F5F5F5F5F5F5F5F5F5F5F5F5F5F5F5F5F5F5F5F5F5F5F5F5F5F5F5F5F5F5F5F5F5F5F5F5F5F5F5F5F5F5F5F5F5F5F5F5F5F5F5
310
F5F5F5F5F5F5F5F5F5F5F5F5F5F5F5F5F5F5F5F5F5F5E2F5F5F5F5F5F5F5F5F5F5F5F5F5F5F5F5F5F5F5F5F5E2E2F5F5F5F5F5F5F5F5F5F5F5F5F5F5F5F5F5F5F5F5F5E2F5F5F5F5F5F5F5F5F5F5F5F5F5F5F5F5F5F5F5F5F5F5F5F5F5F5F5F5F5F5F5F5F5F5F5F5F5F5F5F5F5F5F5F5F5F5F5F5F5F5F5F5F5F5F5F5F5F5F5
310
F5F5F5F5F5F5F5F5F5F5F5F5F5F5F5F5F5F5F5F5F5F5F5F5F5F5F5F5F5F5F5F5F5F5F5F5F5F5F5F5F5F5F5F5F5F5F5F5F5F5F5F5F5F5F5F5F5F5F5F5F5F5F5F5F5F5F5F5F5F5F5F5F5F5F5E2F5F5F5F5F5F5F5F5F5F5F5F5F5F5F5F5F5F5F5F5F5E2E2F5F5F5F5F5F5F5F5F5F5F5F5F5F5F5F5F5F5F5F5F5E2F5F5F5F5F5F5
310
F5F5F5F5F5F5F5F5F5F5F5F5F5F5F5F5F5F5F5F5F5F5F5F5F5F5F5F5F5F5F5F5F5F5F5F5F5F5F5F5F5F5F5F5F5F5F5F5F5F5F5F5F5F5F5F5F5F5F5F5F5F5F5F5F5F5F5F5F5F5F5F5F5F5F5F5F5F5F5F5F5F5F5F5F5F5F5F5F5F5F5F5F5F5F5F5F5F5F5F5F5F5F5F5F5F5F5F5F5F5F5F5F5F5F5F5F5F5F5F5F5F5F5F5F5F5F5
310
F5E2F5F5F5F5F5F5F5F5F5F5F5F5F5F5F5F5F5F5F5F5F5E2E2F5F5F5F5F5F5F5F5F5F5F5F5F5F5F5F5F5F5F5F5F5E2F5F5F5F5F5F5F5F5F5F5F5F5F5F5F5F5F5F5F5F5F5F5F5F5F5F5F5F5F5F5F5F5F5F5F5F5F5F5F5F5F5F5F5F5F5F5F5F5F5F5F5F5F5F5F5F5F5F5F5F5F5F5F5F5F5F5F5F5F5F5F5F5F5F5F5F5F5F5F5F5
310
F5F5F5F5F5F5F5F5F5F5F5F5F5F5F5F5F5F5F5F5F5F5F5F5F5F5F5F5F5F5F5F5F5F5F5F5F5F5F5F5F5F5F5F5F5F5F5F5F5F5F5F5F5F5E2F5F5F5F5F5F5F5F5F5F5F5F5F5F5F5F5F5F5F5F5F5E2E2F5F5F5F5F5F5F5F5F5F5F5F5F5F5F5F5F5F5F5F5F5E2F5F5F5F5F5F5F5F5F5F5F5F5F5F5F5F5F5F5F5F5F5F5F5F5F5F5F5
310
F5F5F5F5F5F5F5F5F5F5F5F5F5F5F5F5F5F5F5F5F5F5F5F5F5F5F5F5F5F5F5F5F5F5F5F5F5F5F5F5F5F5F5F5F5F5F5F5F5F5F5F5F5F5F5F5F5F5F5F5F5F5F5F5F5F5F5F5F5F5F5F5F5F5F5F5F5F5F5F5F5F5F5F5F5F5F5F5F5F5F5F5F5F5F5F5F5F5F5F5F5F5F5F5F5F5F5E2F5F5F5F5F5F5F5F5F5F5F5F5F5F5F5F5F5F5F5
310
F5F5E2E2F5F5F5F5F5F5F5F5F5F5F5F5F5F5F5F5F5F5F5F5F5E2F5F5F5F5F5F5F5F5F5F5F5F5F5F5F5F5F5F5F5F5F5F5F5F5F5F5F5F5F5F5F5F5F5F5F5F5F5F5F5F5F5F5F5F5F5F5F5F5F5F5F5F5F5F5F5F5F5F5F5F5F5F5F5F5F5F5F5F5F5F5F5F5F5F5F5F5F5F5F5F5F5F5F5F5F5F5F5F5F5F5F5F5F5F5F5F5F5F5F5F5F5
310
F5F5F5F5F5F5F5F5F5F5F5F5F5F5F5F5F5F5F5F5F5F5F5F5F5F5F5F5F5F5F5F5F5E2F5F5F5F5F5F5F5F5F5F5F5F5F5F5F5F5F5F5F5F5F5E2E2F5F5F5F5F5F5F5F5F5F5F5F5F5F5F5F5F5F5F5F5F5E2F5F5F5F5F5F5F5F5F5F5F5F5F5F5F5F5F5F5F5F5F5F5F5F5F5F5F5F5F5F5F5F5F5F5F5F5F5F5F5F5F5F5F5F5F5F5F5F5
310
F5F5F5F5F5F5F5F5F5F5F5F5F5F5F5F5F5F5F5F5F5F5F5F5F5F5F5F5F5F5F5F5F5F5F5F5F5F5F5F5F5F5F5F5F5F5F5F5F5F5F5F5F5F5F5F5F5F5F5F5F5F5F5F5F5F5F5F5F5F5F5F5F5F5F5F5F5F5F5F5F5F5F5F5F5F5E2F5F5F5F5F5F5F5F5F5F5F5F5F5F5F5F5F5F5F5F5F5E2E2F5F5F5F5F5F5F5F5F5F5F5F5F5F5F5F5F5
310
F5F5F5F5E2F5F5F5F5F5F5F5F5F5F5F5F5F5F5F5F5F5F5F5F5F5F5F5F5F5F5F5F5F5F5F5F5F5F5F5F5F5F5F5F5F5F5F5F5F5F5F5F5F5F5F5F5F5F5F5F5F5F5F5F5F5F5F5F5F5F5F5F5F5F5F5F5F5F5F5F5F5F5F5F5F5F5F5F5F5F5F5F5F5F5F5F5F5F5F5F5F5F5F5F5F5F5F5F5F5F5F5F5F5F5F5F5F5F5F5F5F5F5F5F5F5F5
310
F5F5F5F5F5F5F5F5F5F5F5F5E2F5F5F5F5F5F5F5F5F5F5F5F5F5F5F5F5F5F5F5F5F5E2E2F5F5F5F5F5F5F5F5F5F5F5F5F5F5F5F5F5F5F5F5F5E2F5F5F5F5F5F5F5F5F5F5F5F5F5F5F5F5F5F5F5F5F5F5F5F5F5F5F5F5F5F5F5F5F5F5F5F5F5F5F5F5F5F5F5F5F5F5F5F5F5F5F5F5F5F5F5F5F5F5F5F5F5F5F5F5F5F5F5F5F5
310
F5F5F5F5F5F5F5F5F5F5F5F5F5F5F5F5F5F5F5F5F5F5F5F5F5F5F5F5F5F5F5F5F5F5F5F5F5F5F5F5F5F5F5F5F5F5F5F5F5F5F5F5F5F5F5F5F5F5F5F5F5F5F5F5F5E2F5F5F5F5F5F5F5F5F5F5F5F5F5F5F5F5F5F5F5F5F5E2E2F5F5F5F5F5F5F5F5F5F5F5F5F5F5F5F5F5F5F5F5F5E2F5F5F5F5F5F5F5F5F5F5F5F5F5F5F5F5
310
F5F5F5F5F5F5F5F5F5F5F5F5F5F5F5F5F5F5F5F5F5F5F5F5F5F5F5F5F5F5F5F5F5F5F5F5F5F5F5F5F5F5F5F5F5F5F5F5F5F5F5F5F5F5F5F5F5F5F5F5F5F5F5F5F5F5F5F5F5F5F5F5F5F5F5F5F5F5F5F5F5F5F5F5F5F5F5F5F5F5F5F5F5F5F5F5F5F5F5F5F5F5F5F5F5F5F5F5F5F5F5F5F5F5F5F5F5F5E2F5F5F5F5F5F5F5F5
310
F5F5F5F5F5F5F5F5F5F5F5F5F5E2E2F5F5F5F5E2F5F5F5F5F5F5F5F5F5F5F5F5F5F5F5F5E2F5F5F5F5F5F5F5F5F5F5F5F5F5F5F5F5F5F5F5F5F5F5F5F5F5F5F5F5F5F5F5F5F5F5F5F5F5F5F5F5F5F5F5F5F5F5F5F5F5F5F5F5F5F5F5F5F5F5F5F5F5F5F5F5F5F5F5F5F5F5F5F5F5F5F5F5F5F5F5F5F5F5F5F5F5F5F5F5F5F5
310
F5F5F5F5F5F5F5F5F5F5F5F5F5F5F5F5F5F5F5F5F5F5F5F5F5F5F5F5F5F5F5F5F5F5F5F5F5F5F5F5F5F5F5F5E2F5F5F5F5F5F5F5F5F5F5F5F5F5F5F5F5E2F5F5F5F5E2E2F5F5F5F5E2F5F5F5F5F5F5F5F5F5F5F5F5F5F5F5F5E2F5F5F5F5F5F5F5F5F5F5F5F5F5F5F5F5F5F5F5F5F5F5F5F5F5F5F5F5F5F5F5F5F5F5F5F5F5
310
F5F5F5F5F5F5F5F5F5F5F5F5F5F5F5F5F5F5F5F5F5F5F5F5F5F5F5F5F5F5F5F5F5F5F5F5F5F5F5F5F5F5F5F5F5F5F5F5F5F5F5F5F5F5F5F5F5F5F5F5F5F5F5F5F5F5F5F5F5F5F5F5F5F5F5F5F5F5F5F5F5F5F5F5F5F5F5F5F5F5F5F5F5F5F5F5F5E2F5F5F5F5F5F5F5F5F5F5F5F5F5F5F5F5E2F5F5F5F5E2E2F5F5F5F5E2F5
310
F5F5F5F5F5F5F5F5F5F5F5F5F5F5F5E2F5F5F5F5F5F5F5F5F5F5F5F5F5F5F5F5F5F5F5F5F5F5F5F5F5F5F5F5F5F5F5F5F5F5F5F5F5F5F5F5F5F5F5F5F5F5F5F5F5F5F5F5F5F5F5F5F5F5F5F5F5F5F5F5F5F5F5F5F5F5F5F5F5F5F5F5F5F5F5F5F5F5F5F5F5F5F5F5F5F5F5F5F5F5F5F5F5F5F5F5F5F5F5F5F5F5F5F5F5F5F5
310
F5F5F5F5F5F5F5F5F5F5F5F5F5F5F5F5F5F5F5F5F5F5F5E2F5F5F5F5F5F5F5F5F5F5F5F5F5F5F5F5E2F5F5F5F5E2E2F5F5F5F5E2F5F5F5F5F5F5F5F5F5F5F5F5F5F5F5F5E2F5F5F5F5F5F5F5F5F5F5F5F5F5F5F5F5F5F5F5F5F5F5F5F5F5F5F5F5F5F5F5F5F5F5F5F5F5F5F5F5F5F5F5F5F5F5F5F5F5F5F5F5F5F5F5F5F5F5
310
F5F5F5F5F5F5F5F5F5F5F5F5F5F5F5F5F5F5F5F5F5F5F5F5F5F5F5F5F5F5F5F5F5F5F5F5F5F5F5F5F5F5F5F5F5F5F5F5F5F5F5F5F5F5F5F5F5F5F5F5F5F5F5F5F5F5F5F5F5F5F5F5F5F5F5F5E2F5F5F5F5F5F5F5F5F5F5F5F5F5F5F5F5E2F5F5F5F5E2E2F5F5F5F5E2F5F5F5F5F5F5F5F5F5F5F5F5F5F5F5F5E2F5F5F5F5F5
310
F5F5F5F5F5F5F5F5F5F5F5F5F5F5F5F5F5F5F5F5F5F5F5F5F5F5F5F5F5F5F5F5F5F5F5F5F5F5F5F5F5F5F5F5F5F5F5F5F5F5F5F5F5F5F5F5F5F5F5F5F5F5F5F5F5F5F5F5F5F5F5F5F5F5F5F5F5F5F5F5F5F5F5F5F5F5F5F5F5F5F5F5F5F5F5F5F5F5F5F5F5F5F5F5F5F5F5F5F5F5F5F5F5F5F5F5F5F5F5F5F5F5F5F5F5F5F5
310
F5F5E2F5F5F5F5F5F5F5F5F5F5F5F5F5F5F5F5E2F5F5F5F5E2E2F5F5F5F5E2F5F5F5F5F5F5F5F5F5F5F5F5F5F5F5F5E2F5F5F5F5F5F5F5F5F5F5F5F5F5F5F5F5F5F5F5F5F5F5F5F5F5F5F5F5F5F5F5F5F5F5F5F5F5F5F5F5F5F5F5F5F5F5F5F5F5F5F5F5F5F5F5F5F5F5F5F5F5F5F5F5F5F5F5F5F5F5F5F5F5F5F5F5F5F5F5
310
F5F5F5F5F5F5F5F5F5F5F5F5F5F5F5F5F5F5F5F5F5F5F5F5F5F5F5F5F5F5F5F5F5F5F5F5F5F5F5F5F5F5F5F5F5F5F5F5F5F5F5F5F5F5F5E2F5F5F5F5F5F5F5F5F5F5F5F5F5F5F5F5E2F5F5F5F5E2E2F5F5F5F5E2F5F5F5F5F5F5F5F5F5F5F5F5F5F5F5F5E2F5F5F5F5F5F5F5F5F5F5F5F5F5F5F5F5F5F5F5F5F5F5F5F5F5F5
310
F5F5F5F5F5F5F5F5F5F5F5F5F5F5F5F5F5F5F5F5F5F5F5F5F5F5F5F5F5F5F5F5F5F5F5F5F5F5F5F5F5F5F5F5F5F5F5F5F5F5F5F5F5F5F5F5F5F5F5F5F5F5F5F5F5F5F5F5F5F5F5F5F5F5F5F5F5F5F5F5F5F5F5F5F5F5F5F5F5F5F5F5F5F5F5F5F5F5F5F5F5F5F5F5F5F5F5F5E2F5F5F5F5F5F5F5F5F5F5F5F5F5F5F5F5E2F5
310
F5F5F5E2E2F5F5F5F5E2F5F5F5F5F5F5F5F5F5F5F5F5F5F5F5F5E2F5F5F5F5F5F5F5F5F5F5F5F5F5F5F5F5F5F5F5F5F5F5F5F5F5F5F5F5F5F5F5F5F5F5F5F5F5F5F5F5F5F5F5F5F5F5F5F5F5F5F5F5F5F5F5F5F5F5F5F5F5F5F5F5F5F5F5F5F5F5F5F5F5F5F5F5F5F5F5F5F5F5F5F5F5F5F5F5F5F5F5F5F5F5F5F5F5F5F5F5
310
F5F5F5F5F5F5F5F5F5F5F5F5F5F5F5F5F5F5F5F5F5F5F5F5F5F5F5F5F5F5F5F5F5F5E2F5F5F5F5F5F5F5F5F5F5F5F5F5F5F5F5E2F5F5F5F5E2E2F5F5F5F5E2F5F5F5F5F5F5F5F5F5F5F5F5F5F5F5F5E2F5F5F5F5F5F5F5F5F5F5F5F5F5F5F5F5F5F5F5F5F5F5F5F5F5F5F5F5F5F5F5F5F5F5F5F5F5F5F5F5F5F5F5F5F5F5F5
310
F5F5F5F5F5F5F5F5F5F5F5F5F5F5F5F5F5F5F5F5F5F5F5F5F5F5F5F5F5F5F5F5F5F5F5F5F5F5F5F5F5F5F5F5F5F5F5F5F5F5F5F5F5F5F5F5F5F5F5F5F5F5F5F5F5F5F5F5F5F5F5F5F5F5F5F5F5F5F5F5F5F5F5F5F5F5F5E2F5F5F5F5F5F5F5F5F5F5F5F5F5F5F5F5E2F5F5F5F5E2E2F5F5F5F5E2F5F5F5F5F5F5F5F5F5F5F5
310
F5F5F5F5F5E2F5F5F5F5F5F5F5F5F5F5F5F5F5F5F5F5F5F5F5F5F5F5F5F5F5F5F5F5F5F5F5F5F5F5F5F5F5F5F5F5F5F5F5F5F5F5F5F5F5F5F5F5F5F5F5F5F5F5F5F5F5F5F5F5F5F5F5F5F5F5F5F5F5F5F5F5F5F5F5F5F5F5F5F5F5F5F5F5F5F5F5F5F5F5F5F5F5F5F5F5F5F5F5F5F5F5F5F5F5F5F5F5F5F5F5F5F5F5F5F5F5
310
F5F5F5F5F5F5F5F5F5F5F5F5F5E2F5F5F5F5F5F5F5F5F5F5F5F5F5F5F5F5E2F5F5F5F5E2E2F5F5F5F5E2F5F5F5F5F5F5F5F5F5F5F5F5F5F5F5F5E2F5F5F5F5F5F5F5F5F5F5F5F5F5F5F5F5F5F5F5F5F5F5F5F5F5F5F5F5F5F5F5F5F5F5F5F5F5F5F5F5F5F5F5F5F5F5F5F5F5F5F5F5F5F5F5F5F5F5F5F5F5F5F5F5F5F5F5F5
310
F5F5F5F5F5F5F5F5F5F5F5F5F5F5F5F5F5F5F5F5F5F5F5F5F5F5F5F5F5F5F5F5F5F5F5F5F5F5F5F5F5F5F5F5F5F5F5F5F5F5F5F5F5F5F5F5F5F5F5F5F5F5F5F5F5F5E2F5F5F5F5F5F5F5F5F5F5F5F5F5F5F5F5E2F5F5F5F5E2E2F5F5F5F5E2F5F5F5F5F5F5F5F5F5F5F5F5F5F5F5F5E2F5F5F5F5F5F5F5F5F5F5F5F5F5F5F5
310
F5F5F5F5F5F5F5F5F5F5F5F5F5F5F5F5F5F5F5F5F5F5F5F5F5F5F5F5F5F5F5F5F5F5F5F5F5F5F5F5F5F5F5F5F5F5F5F5F5F5F5F5F5F5F5F5F5F5F5F5F5F5F5F5F5F5F5F5F5F5F5F5F5F5F5F5F5F5F5F5F5F5F5F5F5F5F5F5F5F5F5F5F5F5F5F5F5F5F5F5F5F5F5F5F5F5F5F5F5F5F5F5F5F5F5F5F5F5F5E2F5F5F5F5F5F5F5
310
F5F5F5F5F5F5F5F5F5E2F5F5F5F5E2E2F5F5F5F5E2F5F5F5F5F5F5F5F5F5F5F5F5F5F5F5F5E2F5F5F5F5F5F5F5F5F5F5F5F5F5F5F5F5F5F5F5F5F5F5F5F5F5F5F5F5F5F5F5F5F5F5F5F5F5F5F5F5F5F5F5F5F5F5F5F5F5F5F5F5F5F5F5F5F5F5F5F5F5F5F5F5F5F5F5F5F5F5F5F5F5F5F5F5F5F5F5F5F5F5F5F5F5F5F5F5F5
310
F5F5F5F5F5F5F5F5F5F5F5F5F5F5F5F5F5F5F5F5F5F5F5F5F5F5F5F5F5F5F5F5F5F5F5F5F5F5F5F5F5F5F5F5F5E2F5F5F5F5F5F5F5F5F5F5F5F5F5F5F5F5E2F5F5F5F5E2E2F5F5F5F5E2F5F5F5F5F5F5F5F5F5F5F5F5F5F5F5F5E2F5F5F5F5F5F5F5F5F5F5F5F5F5F5F5F5F5F5F5F5F5F5F5F5F5F5F5F5F5F5F5F5F5F5F5F5
310
F5F5F5F5F5F5F5F5F5F5F5F5F5F5F5F5F5F5F5F5F5F5F5F5F5F5F5F5F5F5F5F5F5F5F5F5F5F5F5F5F5F5F5F5F5F5F5F5F5F5F5F5F5F5F5F5F5F5F5F5F5F5F5F5F5F5F5F5F5F5F5F5F5F5F5F5F5F5F5F5F5F5F5F5F5F5F5F5F5F5F5F5F5F5F5F5F5F5E2F5F5F5F5F5F5F5F5F5F5F5F5F5F5F5F5E2F5F5F5F5E2E2F5F5F5F5E2
310
F5F5F5F5F5F5F5F5F5F5F5F5F5F5F5F5E2F5F5F5F5F5F5F5F5F5F5F5F5F5F5F5F5F5F5F5F5F5F5F5F5F5F5F5F5F5F5F5F5F5F5F5F5F5F5F5F5F5F5F5F5F5F5F5F5F5F5F5F5F5F5F5F5F5F5F5F5F5F5F5F5F5F5F5F5F5F5F5F5F5F5F5F5F5F5F5F5F5F5F5F5F5F5F5F5F5F5F5F5F5F5F5F5F5F5F5F5F5F5F5F5F5F5F5F5F5F5
310
F5F5F5F5F5F5F5F5F5F5F5F5F5F5F5F5F5F5F5F5F5F5F5F5E2F5F5F5F5F5F5F5F5F5F5F5F5F5F5F5F5E2F5F5F5F5E2E2F5F5F5F5E2F5F5F5F5F5F5F5F5F5F5F5F5F5F5F5F5E2F5F5F5F5F5F5F5F5F5F5F5F5F5F5F5F5F5F5F5F5F5F5F5F5F5F5F5F5F5F5F5F5F5F5F5F5F5F5F5F5F5F5F5F5F5F5F5F5F5F5F5F5F5F5F5F5F5
310
F5F5F5F5F5F5F5F5F5F5F5F5F5F5F5F5F5F5F5F5F5F5F5F5F5F5F5F5F5F5F5F5F5F5F5F5F5F5F5F5F5F5F5F5F5F5F5F5F5F5F5F5F5F5F5F5F5F5F5F5F5F5F5F5F5F5F5F5F5F5F5F5F5F5F5F5F5E2F5F5F5F5F5F5F5F5F5F5F5F5F5F5F5F5E2F5F5F5F5E2E2F5F5F5F5F5F5F5F5F5F5F5F5F5F5F5F5F5F5F5F5F5E2F5F5F5F5
310
F5F5F5F5F5F5F5F5F5F5F5F5F5F5F5F5F5F5F5F5F5F5F5F5F5F5F5F5F5F5F5F5F5F5F5F5F5F5F5F5F5F5F5F5F5F5F5F5F5F5F5F5F5F5F5F5F5F5F5F5F5F5F5F5F5F5F5F5F5F5F5F5F5F5F5F5F5F5F5F5F5F5F5F5F5F5F5F5F5F5F5F5F5F5F5F5F5F5F5F5F5F5F5F5F5F5F5F5F5F5F5F5F5F5F5F5F5F5F5F5F5F5F5F5F5F5F5
310
F5F5F5E2F5F5F5F5F5F5F5F5F5F5F5F5F5F5F5F5F5F5F5F5F5E2E2F5F5F5F5F5F5F5F5F5F5F5F5F5F5F5F5F5F5F5F5F5E2F5F5F5F5F5F5F5F5F5F5F5F5F5F5F5F5F5F5F5F5F5F5F5F5F5F5F5F5F5F5F5F5F5F5F5F5F5F5F5F5F5F5F5F5F5F5F5F5F5F5F5F5F5F5F5F5F5F5F5F5F5F5F5F5F5F5F5F5F5F5F5F5F5F5F5F5F5F5
310
F5F5F5F5F5F5F5F5F5F5F5F5F5F5F5F5F5F5F5F5F5F5F5F5F5F5F5F5F5F5F5F5F5F5F5F5F5F5F5F5F5F5F5F5F5F5F5F5F5F5F5F5F5F5F5F5E2F5F5F5F5F5F5F5F5F5F5F5F5F5F5F5F5F5F5F5F5F5E2E2F5F5F5F5F5F5F5F5F5F5F5F5F5F5F5F5F5F5F5F5F5E2F5F5F5F5F5F5F5F5F5F5F5F5F5F5F5F5F5F5F5F5F5F5F5F5F5
310
F5F5F5F5F5F5F5F5F5F5F5F5F5F5F5F5F5F5F5F5F5F5F5F5F5F5F5F5F5F5F5F5F5F5F5F5F5F5F5F5F5F5F5F5F5F5F5F5F5F5F5F5F5F5F5F5F5F5F5F5F5F5F5F5F5F5F5F5F5F5F5F5F5F5F5F5F5F5F5F5F5F5F5F5F5F5F5F5F5F5F5F5F5F5F5F5F5F5F5F5F5F5F5F5F5F5F5F5F5E2F5F5F5F5F5F5F5F5F5F5F5F5F5F5F5F5F5
310
F5F5F5F5E2E2F5F5F5F5F5F5F5F5F5F5F5F5F5F5F5F5F5F5F5F5F5E2F5F5F5F5F5F5F5F5F5F5F5F5F5F5F5F5F5F5F5F5F5F5F5F5F5F5F5F5F5F5F5F5F5F5F5F5F5F5F5F5F5F5F5F5F5F5F5F5F5F5F5F5F5F5F5F5F5F5F5F5F5F5F5F5F5F5F5F5F5F5F5F5F5F5F5F5F5F5F5F5F5F5F5F5F5F5F5F5F5F5F5F5F5F5F5F5F5F5F5
310
F5F5F5F5F5F5F5F5F5F5F5F5F5F5F5F5F5F5F5F5F5F5F5F5F5F5F5F5F5F5F5F5F5F5F5E2F5F5F5F5F5F5F5F5F5F5F5F5F5F5F5F5F5F5F5F5F5E2E2F5F5F5F5F5F5F5F5F5F5F5F5F5F5F5F5F5F5F5F5F5E2E2E2E2E2E2E2E2E2E2E2E2E2E2E2E2E2E2E2E2E2E2E2E2E2E2E2E2E2E2E2E2E2E2E2E2E2E2E2E2E2E2E2E2E2E2E2
310
E2E2E2E2E2E2E2E2E2E2E2E2E2E2E2E2E2E2E2E2E2E2E2E2E2E2E2E2E2E2E2E2E2E2E2E2E2E2E2E2E2E2E2E2E2E2E2E2E2E2E2E2E2E2E2E2E2E2E2E2E2E2E2E2E2E2E2E2E2E2E2E2E2E2E2E2E2E2E2E2E2E2E2E2E2E2E2E2E2F5F5F5F5F5F5F5F5F5F5F5F5F5F5F5F5F5F5F5F5F5E2E2F5F5F5F5F5F5F5F5F5F5F5F5F5F5F5
310
F5F5F5F5F5F5F5F5F5F5F5F5F5F5F5F5F5F5F5F5F5F5F5F5F5F5F5F5F5F5F5F5F5F5F5F5F5F5F5F5F5F5F5F5F5F5F5F5F5F5F5F5F5F5F5F5F5F5F5F5F5F5F5F5F5F5F5F5F5F5F5F5F5F5F5F5F5F5F5F5F5F5F5F5F5F5F5F5F5F5F5F5F5F5F5F5F5F5F5F5F5F5F5F5F5F5F5F5F5F5F5F5F5F5F5F5F5F5F5F5F5F5F5F5F5F5F5
310
F5F5F5F5F5F5F5F5F5F5F5F5F5F5F5F5F5F5F5F5F5F5F5F5F5F5F5F5F5F5F5F5F5F5F5F5E2E2F5F5F5F5F5F5F5F5F5F5F5F5F5F5F5F5F5F5F5F5F5F5F5F5F5F5F5F5F5F5F5F5F5F5F5F5F5F5F5F5F5F5F5F5F5F5F5F5F5F5F5F5F5F5F5F5F5F5F5F5F5F5F5F5F5F5F5F5F5F5F5F5F5F5F5F5F5F5F5F5F5F5F5F5F5F5F5F5F5
310
F5F5F5F5F5F5F5F5F5F5F5F5F5F5F5F5F5F5F5F5F5F5F5F5F5F5F5F5F5F5F5F5F5F5F5F5F5F5F5F5F5F5F5F5F5F5F5F5F5F5F5F5F5F5F5F5F5F5F5F5F5F5F5F5F5F5F5F5F5F5F5F5F5F5F5F5F5F5F5F5F5F5F5F5F5F5F5F5F5E2E2F5F5F5F5F5F5F5F5F5F5F5F5F5F5F5F5F5F5F5F5F5F5F5F5F5F5F5F5F5F5F5F5F5F5F5F5
310
F5F5F5F5F5F5F5F5F5F5F5F5F5F5F5F5F5F5F5F5F5F5F5F5F5F5F5F5F5F5F5F5F5F5F5F5F5F5F5F5F5F5F5F5F5F5F5F5F5F5F5F5F5F5F5F5F5F5F5F5F5F5F5F5F5F5F5F5F5F5F5F5F5F5F5F5F5F5F5F5F5F5F5F5F5F5F5F5F5F5F5F5F5F5F5F5F5F5F5F5F5F5F5F5F5F5F5F5F5F5F5F5F5F5F5F5F5F5F5F5F5F5F5F5F5F5F5
310
F5F5F5F5F5F5F5F5F5F5F5F5F5F5F5E2E2F5F5F5F5F5F5F5F5F5F5F5F5F5F5F5F5F5F5F5F5F5F5F5F5F5F5F5F5F5F5F5F5F5F5F5F5F5F5F5F5F5F5F5F5F5F5F5F5F5F5F5F5F5F5F5F5F5F5F5F5F5F5F5F5F5F5F5F5F5F5F5F5F5F5F5F5F5F5F5F5F5F5F5F5F5F5F5F5F5F5F5F5F5F5F5F5F5F5F5F5F5F5F5F5F5F5F5F5F5F5
310
F5F5F5F5F5F5F5F5F5F5F5F5F5F5F5F5F5F5F5F5F5F5F5F5F5F5F5F5F5F5F5F5F5F5F5F5F5F5F5F5F5F5F5F5F5F5F5F5F5F5F5F5F5F5F5F5F5F5F5F5F5F5F5F5F5F5F5F5E2E2F5F5F5F5E2F5F5F5F5F5F5F5F5F5F5F5F5F5F5F5F5F5F5F5F5F5F5F5F5F5F5F5F5F5F5F5F5F5F5F5F5F5F5F5F5F5F5F5F5F5F5F5F5F5F5F5F5
310
F5F5F5F5F5F5F5F5F5F5F5F5F5F5F5F5F5F5F5F5F5F5F5F5F5F5F5F5F5F5F5F5F5F5F5F5F5F5F5F5F5F5F5F5F5F5F5F5F5F5F5F5F5F5F5F5F5F5F5F5F5F5F5F5F5F5F5F5F5F5F5F5F5F5F5F5F5F5F5F5F5F5F5F5F5F5F5F5F5F5F5F5F5F5F5F5F5F5F5F5F5F5F5F5F5F5F5F5F5F5F5F5F5F5F5F5E2F5F5F5F5E2E2F5F5F5F5
310
E2F5F5F5F5F5F5F5F5F5F5F5F5F5F5F5F5F5F5F5F5F5F5F5F5F5F5F5F5F5F5F5F5F5F5F5F5F5F5F5F5F5F5F5F5F5F5F5F5F5F5F5F5F5F5F5F5F5F5F5F5F5F5F5F5F5F5F5F5F5F5F5F5F5F5F5F5F5F5F5F5F5F5F5F5F5F5F5F5F5F5F5F5F5F5F5F5F5F5F5F5F5F5F5F5F5F5F5F5F5F5F5F5F5F5F5F5F5F5F5F5F5F5F5F5F5F5
310
F5F5F5F5F5F5F5F5F5F5F5F5F5F5F5F5F5F5F5F5F5F5F5F5F5F5F5F5F5F5F5F5F5F5F5F5F5F5F5F5F5F5E2F5F5F5F5E2E2F5F5F5F5E2F5F5F5F5F5F5F5F5F5F5F5F5F5F5F5F5F5F5F5F5F5F5F5F5F5F5F5F5F5F5F5F5F5F5F5F5F5F5F5F5F5F5F5F5F5F5F5F5F5F5F5F5F5F5F5F5F5F5F5F5F5F5F5F5F5F5F5F5F5F5F5F5F5
310
F5F5F5F5F5F5F5F5F5F5F5F5F5F5F5F5F5F5F5F5F5F5F5F5F5F5F5F5F5F5F5F5F5F5F5F5F5F5F5F5F5F5F5F5F5F5F5F5F5F5F5F5F5F5F5F5F5F5F5F5F5F5F5F5F5F5F5F5F5F5F5F5F5F5F5F5F5F5F5F5F5F5F5F5F5F5F5F5F5F5F5F5F5F5F5E2F5F5F5F5E2E2F5F5F5F5E2F5F5F5F5F5F5F5F5F5F5F5F5F5F5F5F5F5F5F5F5
310
F5F5F5F5F5F5F5F5F5F5F5F5F5F5F5F5F5F5F5F5F5F5F5F5F5F5F5F5F5F5F5F5F5F5F5F5F5F5F5F5F5F5F5F5F5F5F5F5F5F5F5F5F5F5F5F5F5F5F5F5F5F5F5F5F5F5F5F5F5F5F5F5F5F5F5F5F5F5F5F5F5F5F5F5F5F5F5F5F5F5F5F5F5F5F5F5F5F5F5F5F5F5F5F5F5F5F5F5F5F5F5F5F5F5F5F5F5F5F5F5F5F5F5F5F5F5F5
310
F5F5F5F5F5F5F5F5F5F5F5F5F5F5F5F5F5F5F5F5F5E2F5F5F5F5E2E2F5F5F5F5E2F5F5F5F5F5F5F5F5F5F5F5F5F5F5F5F5F5F5F5F5F5F5F5F5F5F5F5F5F5F5F5F5F5F5F5F5F5F5F5F5F5F5F5F5F5F5F5F5F5F5F5F5F5F5F5F5F5F5F5F5F5F5F5F5F5F5F5F5F5F5F5F5F5F5F5F5F5F5F5F5F5F5F5F5F5F5F5F5F5F5F5F5F5F5
310
F5F5F5F5F5F5F5F5F5F5F5F5F5F5F5F5F5F5F5F5F5F5F5F5F5F5F5F5F5F5F5F5F5F5F5F5F5F5F5F5F5F5F5F5F5F5F5F5F5F5F5F5F5F5F5F5F5F5F5F5F5F5F5F5F5F5F5F5F5F5F5F5F5F5E2F5F5F5F5E2E2F5F5F5F5E2F5F5F5F5F5F5F5F5F5F5F5F5F5F5F5F5F5F5F5F5F5F5F5F5F5F5F5F5F5F5F5F5F5F5F5F5F5F5F5F5F5
310
F5F5F5F5F5F5F5F5F5F5F5F5F5F5F5F5F5F5F5F5F5F5F5F5F5F5F5F5F5F5F5F5F5F5F5F5F5F5F5F5F5F5F5F5F5F5F5F5F5F5F5F5F5F5F5F5F5F5F5F5F5F5F5F5F5F5F5F5F5F5F5F5F5F5F5F5F5F5F5F5F5F5F5F5F5F5F5F5F5F5F5F5F5F5F5F5F5F5F5F5F5F5F5F5F5F5F5F5F5F5F5F5F5F5F5F5F5F5F5F5F5F5F5F5F5F5F5
310
E2F5F5F5F5E2E2F5F5F5F5E2F5F5F5F5F5F5F5F5F5F5F5F5F5F5F5F5F5F5F5F5F5F5F5F5F5F5F5F5F5F5F5F5F5F5F5F5F5F5F5F5F5F5F5F5F5F5F5F5F5F5F5F5F5F5F5F5F5F5F5F5F5F5F5F5F5F5F5F5F5F5F5F5F5F5F5F5F5F5F5F5F5F5F5F5F5F5F5F5F5F5F5F5F5F5F5F5F5F5F5F5F5F5F5F5F5F5F5F5F5F5F5F5F5F5F5
310
F5F5F5F5F5F5F5F5F5F5F5F5F5F5F5F5F5F5F5F5F5F5F5F5F5F5F5F5F5F5F5F5F5F5F5F5F5F5F5F5F5F5F5F5F5F5F5F5F5F5F5F5F5E2F5F5F5F5E2E2F5F5F5F5E2F5F5F5F5F5F5F5F5F5F5F5F5F5F5F5F5F5F5F5F5F5F5F5F5F5F5F5F5F5F5F5F5F5F5F5F5F5F5F5F5F5F5F5F5F5F5F5F5F5F5F5F5F5F5F5F5F5F5F5F5F5F5
310
F5F5F5F5F5F5F5F5F5F5F5F5F5F5F5F5F5F5F5F5F5F5F5F5F5F5F5F5F5F5F5F5F5F5F5F5F5F5F5F5F5F5F5F5F5F5F5F5F5F5F5F5F5F5F5F5F5F5F5F5F5F5F5F5F5F5F5F5F5F5F5F5F5F5F5F5F5F5F5F5F5F5F5F5F5F5F5F5F5F5F5F5F5F5F5F5F5F5F5F5F5F5F5F5F5F5E2F5F5F5F5E2E2F5F5F5F5E2E2E2E2E2E2E2E2F5F5
310
F5F5F5F5F5F5F5E2E2E2E2E2E2E2E2E2E2E2E2E2E2E2F5F5F5F5F5F5F5F5F5E2E2E2E2E2E2E2E2E2E2E2E2E2E2E2E2F5F5F5F5F5F5F5F5E2E2E2E2E2E2E2E2E2E2E2E2E2E2E2E2F5F5F5F5F5F5F5F5E2E2E2E2E2E2E2E2E2E2E2E2E2E2E2E2F5F5F5F5F5F5F5F5E2E2E2E2E2E2E2E2E2E2E2E2E2E2E2E2F5F5F5F5F5F5F5F5
310
F5E2E2E2E2E2E2E2E2E2E2E2E2E2E2E2F5F5F5F5F5F5F5F5F5E2E2E2E2E2E2E2E2F5F5F5F5E2E2F5F5F5F5F5F5F5F5F5F5F5F5F5F5F5F5F5F5F5F5F5F5F5F5F5F5F5F5F5F5F5F5F5F5F5F5F5F5F5F5F5F5F5F5F5F5F5F5F5F5F5F5F5F5F5F5F5F5F5F5F5F5F5F5F5F5F5F5F5F5F5F5F5F5F5F5F5F5F5F5F5F5F5F5F5F5F5F5
310
F5F5F5F5F5F5F5F5F5F5F5F5F5F5F5F5F5F5F5F5F5F5F5F5F5F5F5F5F5F5F5F5F5F5F5F5F5F5F5F5F5F5F5F5F5F5F5F5F5F5F5F5F5F5F5F5F5F5F5F5F5F5F5F5F5F5F5F5F5F5F5F5F5F5F5F5F5F5F5F5F5F5F5F5F5F5F5F5F5F5E2E2F5F5F5F5F5F5F5F5F5F5F5F5F5F5F5F5F5F5F5F5F5F5F5F5F5F5F5F5F5F5F5F5F5F5F5
310
F5F5F5F5F5F5F5F5F5F5F5F5F5F5F5F5F5F5F5F5F5F5F5F5F5F5F5F5F5F5F5F5F5F5F5F5F5F5F5F5F5F5F5F5F5F5F5F5F5F5F5F5F5F5F5F5F5F5F5F5F5F5F5F5F5F5F5F5F5F5F5F5F5F5F5F5F5F5F5F5F5F5F5F5F5F5F5F5F5F5F5F5F5F5F5F5F5F5F5F5F5F5F5F5F5F5F5F5F5F5F5F5F5F5F5F5F5F5F5F5F5F5F5F5F5F5F5
310
F5F5F5F5F5F5F5F5F5F5F5F5F5F5F5F5E2E2F5F5F5F5F5F5F5F5F5F5F5F5F5F5F5F5F5F5F5F5F5F5F5F5F5F5F5F5F5F5F5F5F5F5F5F5F5F5F5F5F5F5F5F5F5F5F5F5F5F5F5F5F5F5F5F5F5F5F5F5F5F5F5F5F5F5F5F5F5F5F5F5F5F5F5F5F5F5F5F5F5F5F5F5F5F5F5F5F5F5F5F5F5F5F5F5F5F5F5F5F5F5F5F5F5F5F5F5F5
310
F5F5F5F5F5F5F5F5F5F5F5F5F5F5F5F5F5F5F5F5F5F5F5F5F5F5F5F5F5F5F5F5F5F5F5F5F5F5F5F5F5F5F5F5F5F5F5F5F5F5F5F5F5F5F5F5F5F5F5F5F5F5F5F5F5F5F5F5F5E2E2E2E2E2E2E2E2E2E2E2E2E2E2E2E2E2E2E2E2E2E2E2E2E2E2E2E2E2E2E2E2E2E2E2E2E2E2E2E2E2E2E2E2E2E2E2E2E2E2E2E2E2E2E2E2E2E2
310
E2E2E2E2E2E2E2E2E2E2E2E2E2E2E2E2E2E2E2E2E2E2E2E2E2E2E2E2E2E2E2E2E2E2E2E2E2E2E2E2E2E2E2E2E2E2E2E2E2E2E2E2E2E2E2E2E2E2E2E2E2E2E2E2E2E2E2E2E2E2E2E2E2E2E2E2E2E2E2E2E2E2E2E2E2E2E2E2E2E2E2E2E2E2E2E2E2E2E2E2E2E2E2E2E2E2E2E2E2E2E2E2E2E2E2E2E2E2E2E2E2E2E2EFEFEFEF
310
EFEFEFEFEFEFEFEFEFEFEFEFEFEFEFEFEFEFEFEFEFEFEFEFEFEFEFEFEFEFEFEFEFEFEFEFEFEFEFEFEFEFEFEFEFEFEFEFEFEFEFEFEFEFEFEFEFEFEFEFEFEFEFEFEFEFEFEFEFEFEFEFEFEFEFEFEFEFEFEFEFEFEFEFEFEFEFEFEFEFEFEFEFEFEFEFEFEFEFEFEFEFEFEFEFEFEFEFEFEFEFEFEFEFEFEFEFEFEFEFEFEFEFEFEFEFEF
310
EFEFEFEFEFEFEFEFEFEFEFEFEFEFEFEFEFEFEFEFEFEFEFEFEFEFEFEFEFEFEFEFEFEFEFEFEFEFEFEFEFEFEFEFEFEFEFEFEF
  0
XRECORD
  5
60E0A
102
{ACAD_REACTORS
330
B5
102
}
330
B5
100
AcDbXrecord
280
     1
102
SHADEPLOT
 70
     0
102
SHADEPLOTRESLEVEL
 70
     2
102
SHADEPLOTCUSTOMDPI
 70
   300
  0
XRECORD
  5
B6
102
{ACAD_REACTORS
330
B5
102
}
330
B5
100
AcDbXrecord
280
     1
310
28000000B40000008B0000000100080000000000BC610000000000000000000000010000000000000000000000000000FFFFFF000000000000000000000000000000000000000000000000000000000000000000330000006600000099000000CC000000FF00000000330000333300006633000099330000CC330000FF3300
310
0000660000336600006666000099660000CC660000FF66000000990000339900006699000099990000CC990000FF99000000CC000033CC000066CC000099CC0000CCCC0000FFCC000000FF000033FF000066FF000099FF0000CCFF0000FFFF000000003300330033006600330099003300CC003300FF003300003333003333
310
33006633330099333300CC333300FF33330000663300336633006666330099663300CC663300FF66330000993300339933006699330099993300CC993300FF99330000CC330033CC330066CC330099CC3300CCCC3300FFCC330000FF330033FF330066FF330099FF3300CCFF3300FFFF330000006600330066006600660099
310
006600CC006600FF00660000336600333366006633660099336600CC336600FF33660000666600336666006666660099666600CC666600FF66660000996600339966006699660099996600CC996600FF99660000CC660033CC660066CC660099CC6600CCCC6600FFCC660000FF660033FF660066FF660099FF6600CCFF6600
310
FFFF660000009900330099006600990099009900CC009900FF00990000339900333399006633990099339900CC339900FF33990000669900336699006666990099669900CC669900FF66990000999900339999006699990099999900CC999900FF99990000CC990033CC990066CC990099CC9900CCCC9900FFCC990000FF99
310
0033FF990066FF990099FF9900CCFF9900FFFF99000000CC003300CC006600CC009900CC00CC00CC00FF00CC000033CC003333CC006633CC009933CC00CC33CC00FF33CC000066CC003366CC006666CC009966CC00CC66CC00FF66CC000099CC003399CC006699CC009999CC00CC99CC00FF99CC0000CCCC0033CCCC0066CC
310
CC0099CCCC00CCCCCC00FFCCCC0000FFCC0033FFCC0066FFCC0099FFCC00CCFFCC00FFFFCC000000FF003300FF006600FF009900FF00CC00FF00FF00FF000033FF003333FF006633FF009933FF00CC33FF00FF33FF000066FF003366FF006666FF009966FF00CC66FF00FF66FF000099FF003399FF006699FF009999FF00CC
310
99FF00FF99FF0000CCFF0033CCFF0066CCFF0099CCFF00CCCCFF00FFCCFF0000FFFF0033FFFF0066FFFF0099FFFF00CCFFFF00FFFFFF00000000000D0D0D001A1A1A00282828003535350043434300505050005D5D5D006B6B6B00787878008686860093939300A1A1A100AEAEAE00BBBBBB00C9C9C900D6D6D600E4E4E400
310
F1F1F100FFFFFF0000000000000000000000000000000000000000000000000000000000000000000000000000000000F5F5F5F5F5F5F5F5F5F5F5F5F5F5F5F5F5F5F5F5F5F5F5F5F5F5F5F5F5F5F5F5F5F5F5F5F5F5F5F5F5F5F5F5F5F5F5F5F5F5F5F5F5F5F5F5F5F5F5F5F5F5F5F5F5F5F5F5F5F5F5F5F5F5F5F5F5F5F5
310
F5F5F5F5F5F5F5F5F5F5F5F5F5F5F5F5F5F5F5F5F5F5F5F5F5F5F5F5F5F5F5F5F5F5F5F5F5F5F5F5F5F5F5F5F5F5F5F5F5F5F5F5F5F5F5F5F5F5F5F5F5F5F5F5F5F5F5F5F5F5F5F5F5F5F5F5F5F5F5F5F5F5F5F5F5F5F5F5F5F5F5F5F5F5F5F5F5F5F5F5F5F5E2E2E2E2E2E2E2E2E2E2E2E2E2E2E2E2E2E2E2E2E2E2E2E2E2
310
E2E2E2E2E2E2E2E2E2E2E2E2E2E2E2E2E2E2E2E2E2E2E2E2E2E2E2E2E2E2E2E2E2E2E2E2E2E2E2E2E2E2E2E2E2E2E2E2E2E2E2E2E2E2E2E2E2E2E2E2E2E2E2E2E2E2E2E2E2E2E2E2E2E2E2E2E2E2E2E2E2E2E2E2E2E2E2E2E2E2E2E2E2E2E2E2E2E2E2E2E2E2E2E2E2E2E2E2E2E2E2E2E2E2E2E2E2E2E2E2E2E2E2E2E2E2E2
310
E2E2E2E2E2E2E2E2E2E2E2E2E2E2E2E2E2E2E2E2E2E2E2E2E2E2F5F5E2E2E2E2E2E2E2E2E2E2E2E2E2E2E2E2E2E2E2E2E2E2E2E2E2E2E2E2E2E2E2E2E2E2E2E2E2E2E2E2E2E2E2E2E2E2E2E2E2E2E2E2E2E2E2E2E2E2E2E2E2E2E2E2E2E2E2E2E2E2E2E2E2E2E2E2E2E2E2E2E2E2E2E2E2E2E2E2E2E2E2E2E2E2E2E2E2E2E2
310
E2E2E2E2E2E2E2E2E2E2E2E2E2E2E2E2E2E2E2E2E2E2E2E2E2E2E2E2E2E2E2E2E2E2E2E2E2E2E2E2E2E2E2E2E2E2E2E2E2E2E2E2E2E2E2E2E2E2E2E2E2E2E2E2E2E2E2E2E2E2E2E2E2E2E2E2E2E2E2F5F5E2E2E2E2E2E2E2E2E2E2E2E2E2E2E2E2E2E2E2E2E2E2E2E2E2E2E2E2E2E2E2E2E2E2E2E2E2E2E2E2E2E2E2E2E2E2
310
E2E2E2E2E2E2E2E2E2E2E2E2E2E2E2E2E2E2E2E2E2E2E2E2E2E2E2E2E2E2E2E2E2E2E2E2E2E2E2E2E2E2E2E2E2E2E2E2E2E2E2E2E2E2E2E2E2E2E2E2E2E2E2E2E2E2E2E2E2E2E2E2E2E2E2E2E2E2E2E2E2E2E2E2E2E2E2E2E2E2E2E2E2E2E2E2E2E2E2E2E2E2E2E2E2E2E2E2E2E2E2E2E2E2E2E2E2E2E2E2E2E2E2E2E2E2E2
310
E2E2E2E2E2F5F5E2E2E2E2E2E2E2E2E2E2E2E2E2E2E2E2E2E2E2E2E2E2E2E2E2E2E2E2E2E2E2E2E2E2E2E2E2E2E2E2E2E2E2E2E2E2E2E2E2E2E2E2E2E2E2E2E2E2E2E2E2E2E2E2E2E2E2E2E2E2E2E2E2E2E2E2E2E2E2E2E2E2E2E2E2E2E2E2E2E2E2E2E2E2E2E2E2E2E2E2E2E2E2E2E2E2E2E2E2E2E2E2E2E2E2E2E2E2E2E2
310
E2E2E2E2E2E2E2E2E2E2E2E2E2E2E2E2E2E2E2E2E2E2E2E2E2E2E2E2E2E2E2E2E2E2E2E2E2E2E2E2E2E2E2E2E2E2E2E2E2E2E2E2E2E2E2E2E2E2F5F5E2E2E2F5F5F5F5F5F5F5F5E2E2E2E2E2E2E2E2E2F5F5F5F5F5F5F5F5F5F5F5F5F5F5F5F5E2E2E2E2E2E2E2E2E2F5F5F5F5F5F5F5F5F5F5F5F5F5F5F5E2E2E2E2E2E2E2
310
E2E2F5F5F5F5F5F5F5F5F5F5F5F5F5F5F5F5E2E2E2E2E2E2E2E2F5F5F5F5F5F5F5F5F5F5F5F5F5F5F5F5E2E2E2E2E2E2E2E2E2F5F5F5F5F5F5F5F5F5F5F5F5F5F5F5E2E2E2E2E2E2E2E2E2F5F5F5F5F5F5F5F5F5F5F5F5F5F5F5F5E2E2E2E2E2E2E2E2E2F5F5F5F5F5F5F5F5E2E2E2F5F5E2E2E2F5E2E2E2E2E2E2E2E2E2E2
310
E2E2E2E2E2E2E2E2E2E2E2E2E2E2E2E2E2E2E2E2E2E2E2E2E2E2E2E2E2E2E2E2E2E2E2E2E2E2E2E2E2E2E2E2E2E2E2E2E2E2E2E2E2E2E2E2E2E2E2E2E2E2E2E2E2E2E2E2E2E2E2E2E2E2E2E2E2E2E2E2E2E2E2E2E2E2E2E2E2E2E2E2E2E2E2E2E2E2E2E2E2E2E2E2E2E2E2E2E2E2E2E2E2E2E2E2E2E2E2E2E2E2E2E2E2E2E2
310
E2E2E2E2E2E2E2E2E2E2E2E2E2E2E2E2E2E2E2E2E2E2E2E2E2E2E2E2E2E2E2E2E2F5E2E2E2F5F5E2E2E2F5E2E2E2E2E2E2E2E2E2E2E2E2E2E2E2E2E2E2E2E2E2E2E2E2E2E2E2E2E2E2E2E2E2E2E2E2E2E2E2E2E2E2E2E2E2E2E2E2E2E2E2E2E2E2E2E2E2E2E2E2E2E2E2E2E2E2E2E2E2E2E2E2E2E2E2E2E2E2E2E2E2E2E2E2
310
E2E2E2E2E2E2E2E2E2E2E2E2E2E2E2E2E2E2E2E2E2E2E2E2E2E2E2E2E2E2E2E2E2E2E2E2E2E2E2E2E2E2E2E2E2E2E2E2E2E2E2E2E2E2E2E2E2E2E2E2E2E2E2E2E2E2E2E2E2E2E2E2E2E2E2E2E2E2E2E2E2E2E2E2E2E2F5E2E2E2F5F5E2E2E2F5E2E2E2E2E2E2E2E2E2E2E2E2E2E2E2E2E2E2E2E2E2E2E2E2E2E2E2E2E2E2E2
310
E2E2E2E2E2E2E2E2E2E2E2E2E2E2E2E2E2E2E2E2E2E2E2E2E2E2E2E2E2E2E2E2E2E2E2E2E2E2E2E2E2E2E2E2E2E2E2E2E2E2E2E2E2E2E2E2E2E2E2E2E2E2E2E2E2E2E2E2E2E2E2E2E2E2E2E2E2E2E2E2E2E2E2E2E2E2E2E2E2E2E2E2E2E2E2E2E2E2E2E2E2E2E2E2E2E2E2E2E2E2E2E2E2E2E2E2E2E2E2E2E2E2E2E2E2E2E2
310
E2E2E2E2E2E2E2E2E2E2E2E2F5E2E2E2F5F5E2E2E2F5E2E2E2E2E2E2E2E2E2E2E2E2E2E2E2E2E2E2E2E2E2E2E2E2E2E2E2E2E2E2E2E2E2E2E2E2E2E2E2E2E2E2E2E2E2E2E2E2E2E2E2E2E2E2E2E2E2E2E2E2E2E2E2E2E2E2E2E2E2E2E2E2E2E2E2E2E2E2E2E2E2E2E2E2E2E2E2E2E2E2E2E2E2E2E2E2E2E2E2E2E2E2E2E2E2
310
E2E2E2E2E2E2E2E2E2E2E2E2E2E2E2E2E2E2E2E2E2E2E2E2E2E2E2E2E2E2E2E2E2E2E2E2E2E2E2E2E2E2E2E2E2E2E2E2E2E2E2E2E2E2E2E2E2E2E2E2E2E2E2E2E2F5E2E2E2F5F5E2E2E2F5E2E2E2E2E2E2E2E2E2E2E2E2E2E2E2E2E2E2E2E2E2E2E2E2E2E2E2E2E2E2E2E2E2E2E2E2E2E2E2E2E2E2E2E2E2E2E2E2E2E2E2E2
310
E2E2E2E2E2E2E2E2E2E2E2E2E2E2E2E2E2E2E2E2E2E2E2E2E2E2E2E2E2E2E2E2E2E2E2E2E2E2E2E2E2E2E2E2E2E2E2E2E2E2E2E2E2E2E2E2E2E2E2E2E2E2E2E2E2E2E2E2E2E2E2E2E2E2E2E2E2E2E2E2E2E2E2E2E2E2E2E2E2E2E2E2E2E2E2E2E2E2E2E2E2E2E2E2E2E2E2E2E2E2E2E2E2E2E2E2E2E2F5E2E2E2F5F5E2E2E2
310
F5E2E2E2E2E2E2E2E2E2E2E2E2E2E2E2E2E2E2E2E2E2E2E2E2E2E2E2E2E2E2E2E2E2E2E2E2E2E2E2E2E2E2E2E2E2E2E2E2E2E2E2E2E2E2E2E2E2E2E2E2E2E2E2E2E2E2E2E2E2E2E2E2E2E2E2E2E2E2E2E2E2E2E2E2E2E2E2E2E2E2E2E2E2E2E2E2E2E2E2E2E2E2E2E2E2E2E2E2E2E2E2E2E2E2E2E2E2E2E2E2E2E2E2E2E2E2
310
E2E2E2E2E2E2E2E2E2E2E2E2E2E2E2E2E2E2E2E2E2E2E2E2E2E2E2E2E2E2E2E2E2E2E2E2E2E2E2E2E2E2E2E2F5E2E2E2F5F5E2E2E2F5E2E2E2E2E2E2E2E2E2E2E2E2E2E2E2E2E2E2E2E2E2E2E2E2E2E2E2E2E2E2E2E2E2E2E2E2E2E2E2E2E2E2E2E2E2E2E2E2E2E2E2E2E2E2E2E2E2E2E2E2E2E2E2E2E2E2E2E2E2E2E2E2E2
310
E2E2E2E2E2E2E2E2E2E2E2E2E2E2E2E2E2E2E2E2E2E2E2E2E2E2E2E2E2E2E2E2E2E2E2E2E2E2E2E2E2E2E2E2E2E2E2E2E2E2E2E2E2E2E2E2E2E2E2E2E2E2E2E2E2E2E2E2E2E2E2E2E2E2E2E2E2E2E2E2E2E2E2E2E2E2E2E2E2E2E2E2E2E2E2E2E2F5E2E2E2F5F5E2E2E2F5E2E2E2E2E2E2E2E2E2E2E2E2E2E2E2E2E2E2E2E2
310
E2E2E2E2E2E2E2E2E2E2E2E2E2E2E2E2E2E2E2E2E2E2E2E2E2E2E2E2E2E2E2E2E2E2E2E2E2E2E2E2E2E2E2E2E2E2E2E2E2E2E2E2E2E2E2E2E2E2E2E2E2E2E2E2E2E2E2E2E2E2E2E2E2E2E2E2E2E2E2E2E2E2E2E2E2E2E2E2E2E2E2E2E2E2E2E2E2E2E2E2E2E2E2E2E2E2E2E2E2E2E2E2E2E2E2E2E2E2E2E2E2E2E2E2E2E2E2
310
E2E2E2E2E2E2E2E2E2E2E2E2E2E2E2E2E2E2E2E2E2E2E2F5E2E2E2F5F5E2E2E2E2E2E2E2E2E2E2E2E2E2E2E2E2E2E2E2E2E2E2E2E2E2E2E2E2E2E2E2E2E2E2E2E2E2E2E2E2E2E2E2E2E2E2E2E2E2E2E2E2E2E2E2E2E2E2E2E2E2E2E2E2E2E2E2E2E2E2E2E2E2E2E2E2E2E2E2E2E2E2E2E2E2E2E2E2E2E2E2E2E2E2E2E2E2E2
310
E2E2E2E2E2E2E2E2E2E2E2E2E2E2E2E2E2E2E2E2E2E2E2E2E2E2E2E2E2E2E2E2E2E2E2E2E2E2E2E2E2E2E2E2E2E2E2E2E2E2E2E2E2E2E2E2E2E2E2E2E2E2E2E2E2E2E2E2E2E2E2E2E2E2E2E2E2E2E2E2F5F5E2E2E2E2E2E2E2E2E2E2E2E2E2E2E2E2E2E2E2E2E2E2E2E2E2E2E2E2E2E2E2E2E2E2E2E2E2E2E2E2E2E2E2E2E2
310
E2E2E2E2E2E2E2E2E2E2E2E2E2E2E2E2E2E2E2E2E2E2E2E2E2E2E2E2E2E2E2E2E2E2E2E2E2E2E2E2E2E2E2E2E2E2E2E2E2E2E2E2E2E2E2E2E2E2E2E2E2E2E2E2E2E2E2E2E2E2E2E2E2E2E2E2E2E2E2E2E2E2E2E2E2E2E2E2E2E2E2E2E2E2E2E2E2E2E2E2E2E2E2E2E2E2E2E2E2E2E2E2E2E2E2E2E2E2E2E2E2E2E2E2E2E2E2
310
E2E2E2E2E2E2F5F5E2E2E2E2E2E2E2E2E2E2E2E2E2E2E2E2E2E2E2E2E2E2E2E2E2E2E2E2E2E2E2E2E2E2E2E2E2E2E2E2E2E2E2E2E2E2E2E2E2E2E2E2E2E2E2E2E2E2E2E2E2E2E2E2E2E2E2E2E2E2E2E2E2E2E2E2E2E2E2E2E2E2E2E2E2E2E2E2E2E2E2E2E2E2E2E2E2E2E2E2E2E2E2E2E2E2E2E2E2E2E2E2E2E2E2E2E2E2E2
310
E2E2E2E2E2E2E2E2E2E2E2E2E2E2E2E2E2E2E2E2E2E2E2E2E2E2E2E2E2E2E2E2E2E2E2E2E2E2E2E2E2E2E2E2E2E2E2E2E2E2E2E2E2E2E2E2E2E2E2F5F5E2E2E2E2E2E2E2E2E2E2E2E2E2E2E2E2E2E2E2E2E2E2E2E2E2E2E2E2E2E2E2E2E2E2E2E2E2E2E2E2E2E2E2E2E2E2E2E2E2E2E2E2E2E2E2E2E2E2E2E2E2E2E2E2E2E2
310
E2E2E2E2E2E2E2E2E2E2E2E2E2E2E2E2E2E2E2E2E2E2E2E2E2E2E2E2E2E2E2E2E2E2E2E2E2E2E2E2E2E2E2E2E2E2E2E2E2E2E2E2E2E2E2E2E2E2E2E2E2E2E2E2E2E2E2E2E2E2E2E2E2E2E2E2E2E2E2E2E2E2E2E2E2E2E2E2E2E2E2E2E2E2E2E2E2E2E2E2E2E2E2E2E2E2E2E2E2E2E2E2F5F5E2E2E2E2E2E2E2E2E2E2E2E2E2
310
E2E2E2E2E2E2E2F5F5F5F5F5F5F5F5F5F5F5F5F5F5F5F5F5F5F5F5F5F5F5F5F5F5F5F5F5F5F5F5F5F5F5F5F5F5F5F5F5F5F5F5F5F5F5F5F5F5F5F5F5F5F5F5F5F5F5F5F5F5F5F5F5F5F5F5F5F5F5F5F5F5F5F5F5F5F5F5F5F5F5F5F5F5F5F5F5F5F5F5F5F5F5F5F5F5F5F5F5F5F5F5F5F5F5F5F5F5F5F5F5F5F5F5F5F5F5F5
310
F5F5F5F5F5F5F5F5F5F5F5F5F5F5F5F5F5F5E2E2E2E2E2E2E2E2E2E2E2E2E2E2E2E2E2E2E2E2F5F5E2E2E2E2E2E2E2E2E2E2E2E2E2E2E2E2E2E2E2E2F5E2E2E2E2E2E2E2E2E2E2E2E2E2E2E2E2E2E2E2E2E2E2E2E2E2E2E2E2E2E2E2E2E2E2E2E2E2E2E2E2E2E2E2E2E2E2E2E2E2E2E2E2E2E2E2E2E2E2E2E2E2E2E2E2E2E2
310
E2E2E2E2E2E2E2E2E2E2E2E2E2E2E2E2E2E2E2E2E2E2E2E2E2E2E2E2E2E2E2E2E2E2E2E2E2E2E2E2E2E2E2E2E2E2E2E2E2E2E2E2E2E2E2E2E2E2E2E2E2E2E2E2E2E2E2E2E2E2F5E2E2E2E2E2E2E2E2E2E2E2E2E2E2E2E2E2E2E2E2F5F5E2E2E2E2E2E2E2E2E2E2E2E2E2E2E2E2E2E2E2E2F5E2E2E2E2E2E2E2E2E2E2E2E2E2
310
E2E2E2E2E2E2E2E2E2E2E2E2E2E2E2E2E2E2E2E2E2E2E2E2E2E2E2E2E2E2E2E2E2E2E2E2E2E2E2E2E2E2E2E2E2E2E2E2E2E2E2E2E2E2E2E2E2E2E2E2E2E2E2E2E2E2E2E2E2E2E2E2E2E2E2E2E2E2E2E2E2E2E2E2E2E2E2E2E2E2E2E2E2E2E2E2E2E2E2E2E2E2E2E2E2E2E2E2E2E2E2E2E2E2E2E2E2E2E2E2E2E2E2F5E2E2E2
310
E2E2E2E2E2E2E2E2E2E2E2E2E2E2E2E2E2F5F5E2E2E2E2E2E2E2E2E2E2E2E2E2E2E2E2E2E2E2E2F5E2E2E2E2E2E2E2E2E2E2E2E2E2E2E2E2E2E2E2E2E2E2E2E2E2E2E2E2E2E2E2E2E2E2E2E2E2E2E2E2E2E2E2E2E2E2E2E2E2E2E2E2E2E2E2E2E2E2E2E2E2E2E2E2E2E2E2E2E2E2E2E2E2E2E2E2E2E2E2E2E2E2E2E2E2E2E2
310
E2E2E2E2E2E2E2E2E2E2E2E2E2E2E2E2E2E2E2E2E2E2E2E2E2E2E2E2E2E2E2E2E2E2E2E2E2E2E2E2E2E2E2E2E2E2E2E2E2F5E2E2E2E2E2E2E2E2E2E2E2E2E2E2E2E2E2E2E2E2F5F5E2E2E2E2E2E2E2E2E2E2E2E2E2E2E2E2E2E2E2E2F5E2E2E2E2E2E2E2E2E2E2E2E2E2E2E2E2E2E2E2E2E2E2E2E2E2E2E2E2E2E2E2E2E2E2
310
E2E2E2E2E2E2E2E2E2E2E2E2E2E2E2E2E2E2E2E2E2E2E2E2E2E2E2E2E2E2E2E2E2E2E2E2E2E2E2E2E2E2E2E2E2E2E2E2E2E2E2E2E2E2E2E2E2E2E2E2E2E2E2E2E2E2E2E2E2E2E2E2E2E2E2E2E2E2E2E2E2E2E2E2E2E2E2E2E2E2E2E2E2E2E2E2E2E2E2E2E2E2F5E2E2E2E2E2E2E2E2E2E2E2E2E2E2E2E2E2E2E2E2F5F5E2E2
310
E2F5E2E2E2E2E2E2E2E2E2E2E2E2E2E2E2E2F5E2E2E2E2E2E2E2E2E2E2E2E2E2E2E2E2E2E2E2E2E2E2E2E2E2E2E2E2E2E2E2E2E2E2E2E2E2E2E2E2E2E2E2E2E2E2E2E2E2E2E2E2E2E2E2E2E2E2E2E2E2E2E2E2E2E2E2E2E2E2E2E2E2E2E2E2E2E2E2E2E2E2E2E2E2E2E2E2E2E2E2E2E2E2E2E2E2E2E2E2E2E2E2E2E2E2E2E2
310
E2E2E2E2E2E2E2E2E2E2E2E2E2E2E2E2E2E2E2E2E2E2E2E2E2E2E2E2F5E2E2E2E2E2E2E2E2E2E2E2E2E2E2E2E2F5E2E2E2F5F5E2E2E2F5E2E2E2E2E2E2E2E2E2E2E2E2E2E2E2E2F5E2E2E2E2E2E2E2E2E2E2E2E2E2E2E2E2E2E2E2E2E2E2E2E2E2E2E2E2E2E2E2E2E2E2E2E2E2E2E2E2E2E2E2E2E2E2E2E2E2E2E2E2E2E2E2
310
E2E2E2E2E2E2E2E2E2E2E2E2E2E2E2E2E2E2E2E2E2E2E2E2E2E2E2E2E2E2E2E2E2E2E2E2E2E2E2E2E2E2E2E2E2E2E2E2E2E2E2E2E2E2E2E2E2E2E2E2E2E2E2E2E2E2E2E2E2E2E2E2E2E2E2E2E2E2E2E2E2F5E2E2E2E2E2E2E2E2E2E2E2E2E2E2E2E2F5E2E2E2F5F5E2E2E2F5E2E2E2E2E2E2E2E2E2E2E2E2E2E2E2E2F5E2E2
310
E2E2E2E2E2E2E2E2E2E2E2E2E2E2E2E2E2E2E2E2E2E2E2E2E2E2E2E2E2E2E2E2E2E2E2E2E2E2E2E2E2E2E2E2E2E2E2E2E2E2E2E2E2E2E2E2E2E2E2E2E2E2E2E2E2E2E2E2E2E2E2E2E2E2E2E2E2E2E2E2E2E2E2E2E2E2E2E2E2E2E2E2E2E2E2E2E2E2E2E2E2E2E2E2E2E2E2E2E2E2E2E2E2E2E2E2E2E2E2E2E2E2E2E2E2E2E2
310
E2E2E2E2E2E2E2F5E2E2E2E2E2E2E2E2E2E2E2E2E2E2E2E2F5E2E2E2F5F5E2E2E2F5E2E2E2E2E2E2E2E2E2E2E2E2E2E2E2E2F5E2E2E2E2E2E2E2E2E2E2E2E2E2E2E2E2E2E2E2E2E2E2E2E2E2E2E2E2E2E2E2E2E2E2E2E2E2E2E2E2E2E2E2E2E2E2E2E2E2E2E2E2E2E2E2E2E2E2E2E2E2E2E2E2E2E2E2E2E2E2E2E2E2E2E2E2
310
E2E2E2E2E2E2E2E2E2E2E2E2E2E2E2E2E2E2E2E2E2E2E2E2E2E2E2E2E2E2E2E2E2E2E2E2E2E2E2E2E2E2E2E2E2E2E2E2E2E2E2E2E2E2E2E2E2E2E2E2F5E2E2E2E2E2E2E2E2E2E2E2E2E2E2E2E2F5E2E2E2F5F5E2E2E2F5E2E2E2E2E2E2E2E2E2E2E2E2E2E2E2E2F5E2E2E2E2E2E2E2E2E2E2E2E2E2E2E2E2E2E2E2E2E2E2E2
310
E2E2E2E2E2E2E2E2E2E2E2E2E2E2E2E2E2E2E2E2E2E2E2E2E2E2E2E2E2E2E2E2E2E2E2E2E2E2E2E2E2E2E2E2E2E2E2E2E2E2E2E2E2E2E2E2E2E2E2E2E2E2E2E2E2E2E2E2E2E2E2E2E2E2E2E2E2E2E2E2E2E2E2E2E2E2E2E2E2E2E2E2E2E2E2E2E2E2E2E2E2E2E2E2E2E2E2E2E2E2E2E2E2F5E2E2E2E2E2E2E2E2E2E2E2E2E2
310
E2E2E2F5E2E2E2F5F5E2E2E2F5E2E2E2E2E2E2E2E2E2E2E2E2E2E2E2E2F5E2E2E2E2E2E2E2E2E2E2E2E2E2E2E2E2E2E2E2E2E2E2E2E2E2E2E2E2E2E2E2E2E2E2E2E2E2E2E2E2E2E2E2E2E2E2E2E2E2E2E2E2E2E2E2E2E2E2E2E2E2E2E2E2E2E2E2E2E2E2E2E2E2E2E2E2E2E2E2E2E2E2E2E2E2E2E2E2E2E2E2E2E2E2E2E2E2
310
E2E2E2E2E2E2E2E2E2E2E2E2E2E2E2E2E2E2E2E2E2E2E2E2E2E2E2E2E2E2E2E2E2E2E2E2E2E2E2F5E2E2E2E2E2E2E2E2E2E2E2E2E2E2E2E2F5E2E2E2F5F5E2E2E2F5E2E2E2E2E2E2E2E2E2E2E2E2E2E2E2E2F5E2E2E2E2E2E2E2E2E2E2E2E2E2E2E2E2E2E2E2E2E2E2E2E2E2E2E2E2E2E2E2E2E2E2E2E2E2E2E2E2E2E2E2E2
310
E2E2E2E2E2E2E2E2E2E2E2E2E2E2E2E2E2E2E2E2E2E2E2E2E2E2E2E2E2E2E2E2E2E2E2E2E2E2E2E2E2E2E2E2E2E2E2E2E2E2E2E2E2E2E2E2E2E2E2E2E2E2E2E2E2E2E2E2E2E2E2E2E2E2E2E2E2E2E2E2E2E2E2E2E2E2E2E2E2E2E2E2F5E2E2E2E2E2E2E2E2E2E2E2E2E2E2E2E2F5E2E2E2F5F5E2E2E2F5E2E2E2E2E2E2E2E2
310
E2E2E2E2E2E2E2E2F5E2E2E2E2E2E2E2E2E2E2E2E2E2E2E2E2E2E2E2E2E2E2E2E2E2E2E2E2E2E2E2E2E2E2E2E2E2E2E2E2E2E2E2E2E2E2E2E2E2E2E2E2E2E2E2E2E2E2E2E2E2E2E2E2E2E2E2E2E2E2E2E2E2E2E2E2E2E2E2E2E2E2E2E2E2E2E2E2E2E2E2E2E2E2E2E2E2E2E2E2E2E2E2E2E2E2E2E2E2E2E2E2E2E2E2E2E2E2
310
E2E2E2E2E2E2E2E2E2E2E2E2E2E2E2E2E2E2F5E2E2E2E2E2E2E2E2E2E2E2E2E2E2E2E2F5E2E2E2F5F5E2E2E2F5E2E2E2E2E2E2E2E2E2E2E2E2E2E2E2E2F5E2E2E2E2E2E2E2E2E2E2E2E2E2E2E2E2E2E2E2E2E2E2E2E2E2E2E2E2E2E2E2E2E2E2E2E2E2E2E2E2E2E2E2E2E2E2E2E2E2E2E2E2E2E2E2E2E2E2E2E2E2E2E2E2E2
310
E2E2E2E2E2E2E2E2E2E2E2E2E2E2E2E2E2E2E2E2E2E2E2E2E2E2E2E2E2E2E2E2E2E2E2E2E2E2E2E2E2E2E2E2E2E2E2E2E2E2E2E2E2E2E2E2E2E2E2E2E2E2E2E2E2E2E2E2E2E2E2F5E2E2E2E2E2E2E2E2E2E2E2E2E2E2E2E2F5E2E2E2F5F5E2E2E2F5E2E2E2E2E2E2E2E2E2E2E2E2E2E2E2E2F5E2E2E2E2E2E2E2E2E2E2E2E2
310
E2E2E2E2E2E2E2E2E2E2E2E2E2E2E2E2E2E2E2E2E2E2E2E2E2E2E2E2E2E2E2E2E2E2E2E2E2E2E2E2E2E2E2E2E2E2E2E2E2E2E2E2E2E2E2E2E2E2E2E2E2E2E2E2E2E2E2E2E2E2E2E2E2E2E2E2E2E2E2E2E2E2E2E2E2E2E2E2E2E2E2E2E2E2E2E2E2E2E2E2E2E2E2E2E2E2E2E2E2E2E2E2E2E2E2E2E2E2E2E2E2E2E2E2F5E2E2
310
E2E2E2E2E2E2E2E2E2E2E2E2E2E2F5E2E2E2F5F5E2E2E2F5E2E2E2E2E2E2E2E2E2E2E2E2E2E2E2E2F5E2E2E2E2E2E2E2E2E2E2E2E2E2E2E2E2E2E2E2E2E2E2E2E2E2E2E2E2E2E2E2E2E2E2E2E2E2E2E2E2E2E2E2E2E2E2E2E2E2E2E2E2E2E2E2E2E2E2E2E2E2E2E2E2E2E2E2E2E2E2E2E2E2E2E2E2E2E2E2E2E2E2E2E2E2E2
310
E2E2E2E2E2E2E2E2E2E2E2E2E2E2E2E2E2E2E2E2E2E2E2E2E2E2E2E2E2E2E2E2E2E2E2E2E2E2E2E2E2E2E2E2E2E2E2E2E2E2F5E2E2E2E2E2E2E2E2E2E2E2E2E2E2E2E2F5E2E2E2F5F5E2E2E2F5E2E2E2E2E2E2E2E2E2E2E2E2E2E2E2E2F5E2E2E2E2E2E2E2E2E2E2E2E2E2E2E2E2E2E2E2E2E2E2E2E2E2E2E2E2E2E2E2E2E2
310
E2E2E2E2E2E2E2E2E2E2E2E2E2E2E2E2E2E2E2E2E2E2E2E2E2E2E2E2E2E2E2E2E2E2E2E2E2E2E2E2E2E2E2E2E2E2E2E2E2E2E2E2E2E2E2E2E2E2E2E2E2E2E2E2E2E2E2E2E2E2E2E2E2E2E2E2E2E2E2E2E2E2E2E2E2E2E2E2E2E2E2E2E2E2E2E2E2E2E2E2E2E2E2F5E2E2E2E2E2E2E2E2E2E2E2E2E2E2E2E2F5E2E2E2F5F5E2
310
E2E2F5E2E2E2E2E2E2E2E2E2E2E2E2E2E2E2E2F5E2E2E2E2E2E2E2E2E2E2E2E2E2E2E2E2E2E2E2E2E2E2E2E2E2E2E2E2E2E2E2E2E2E2E2E2E2E2E2E2E2E2E2E2E2E2E2E2E2E2E2E2E2E2E2E2E2E2E2E2E2E2E2E2E2E2E2E2E2E2E2E2E2E2E2E2E2E2E2E2E2E2E2E2E2E2E2E2E2E2E2E2E2E2E2E2E2E2E2E2E2E2E2E2E2E2E2
310
E2E2E2E2E2E2E2E2E2E2E2E2E2E2E2E2E2E2E2E2E2E2E2E2E2E2E2E2E2F5E2E2E2E2E2E2E2E2E2E2E2E2E2E2E2E2F5E2E2E2F5F5E2E2E2F5E2E2E2E2E2E2E2E2E2E2E2E2E2E2E2E2F5E2E2E2E2E2E2E2E2E2E2E2E2E2E2E2E2E2E2E2E2E2E2E2E2E2E2E2E2E2E2E2E2E2E2E2E2E2E2E2E2E2E2E2E2E2E2E2E2E2E2E2E2E2E2
310
E2E2E2E2E2E2E2E2E2E2E2E2E2E2E2E2E2E2E2E2E2E2E2E2E2E2E2E2E2E2E2E2E2E2E2E2E2E2E2E2E2E2E2E2E2E2E2E2E2E2E2E2E2E2E2E2E2E2E2E2E2E2E2E2E2E2E2E2E2E2E2E2E2E2E2E2E2E2E2E2E2E2F5E2E2E2E2E2E2E2E2E2E2E2E2E2E2E2E2F5E2E2E2F5F5E2E2E2F5E2E2E2E2E2E2E2E2E2E2E2E2E2E2E2E2F5E2
310
E2E2E2E2E2E2E2E2E2E2E2E2E2E2E2E2E2E2E2E2E2E2E2E2E2E2E2E2E2E2E2E2E2E2E2E2E2E2E2E2E2E2E2E2E2E2E2E2E2E2E2E2E2E2E2E2E2E2E2E2E2E2E2E2E2E2E2E2E2E2E2E2E2E2E2E2E2E2E2E2E2E2E2E2E2E2E2E2E2E2E2E2E2E2E2E2E2E2E2E2E2E2E2E2E2E2E2E2E2E2E2E2E2E2E2E2E2E2E2E2E2E2E2E2E2E2E2
310
E2E2E2E2E2E2E2E2F5E2E2E2E2E2E2E2E2E2E2E2E2E2E2E2E2F5E2E2E2F5F5E2E2E2F5E2E2E2E2E2E2E2E2E2E2E2E2E2E2E2E2F5E2E2E2E2E2E2E2E2E2E2E2E2E2E2E2E2E2E2E2E2E2E2E2E2E2E2E2E2E2E2E2E2E2E2E2E2E2E2E2E2E2E2E2E2E2E2E2E2E2E2E2E2E2E2E2E2E2E2E2E2E2E2E2E2E2E2E2E2E2E2E2E2E2E2E2
310
E2E2E2E2E2E2E2E2E2E2E2E2E2E2E2E2E2E2E2E2E2E2E2E2E2E2E2E2E2E2E2E2E2E2E2E2E2E2E2E2E2E2E2E2E2E2E2E2E2E2E2E2E2E2E2E2E2E2E2E2E2F5E2E2E2E2E2E2E2E2E2E2E2E2E2E2E2E2F5E2E2E2F5F5E2E2E2F5E2E2E2E2E2E2E2E2E2E2E2E2E2E2E2E2F5E2E2E2E2E2E2E2E2E2E2E2E2E2E2E2E2E2E2E2E2E2E2
310
E2E2E2E2E2E2E2E2E2E2E2E2E2E2E2E2E2E2E2E2E2E2E2E2E2E2E2E2E2E2E2E2E2E2E2E2E2E2E2E2E2E2E2E2E2E2E2E2E2E2E2E2E2E2E2E2E2E2E2E2E2E2E2E2E2E2E2E2E2E2E2E2E2E2E2E2E2E2E2E2E2E2E2E2E2E2E2E2E2E2E2E2E2E2E2E2E2E2E2E2E2E2E2E2E2E2E2E2E2E2E2E2E2E2F5E2E2E2E2E2E2E2E2E2E2E2E2
310
E2E2E2E2F5E2E2E2F5F5E2E2E2E2E2E2E2E2E2E2E2E2E2E2E2E2E2E2E2E2F5E2E2E2E2E2E2E2E2E2E2E2E2E2E2E2E2E2E2E2E2E2E2E2E2E2E2E2E2E2E2E2E2E2E2E2E2E2E2E2E2E2E2E2E2E2E2E2E2E2E2E2E2E2E2E2E2E2E2E2E2E2E2E2E2E2E2E2E2E2E2E2E2E2E2E2E2E2E2E2E2E2E2E2E2E2E2E2E2E2E2E2E2E2E2E2E2
310
E2E2E2E2E2E2E2E2E2E2E2E2E2E2E2E2E2E2E2E2E2E2E2E2E2E2E2E2E2E2E2E2E2E2E2E2E2E2E2E2F5E2E2E2E2E2E2E2E2E2E2E2E2E2E2E2E2E2E2E2E2F5F5E2E2E2E2E2E2E2E2E2E2E2E2E2E2E2E2E2E2E2E2F5E2E2E2E2E2E2E2E2E2E2E2E2E2E2E2E2E2E2E2E2E2E2E2E2E2E2E2E2E2E2E2E2E2E2E2E2E2E2E2E2E2E2E2
310
E2E2E2E2E2E2E2E2E2E2E2E2E2E2E2E2E2E2E2E2E2E2E2E2E2E2E2E2E2E2E2E2E2E2E2E2E2E2E2E2E2E2E2E2E2E2E2E2E2E2E2E2E2E2E2E2E2E2E2E2E2E2E2E2E2E2E2E2E2E2E2E2E2E2E2E2E2E2E2E2E2E2E2E2E2E2E2E2E2E2E2E2E2F5E2E2E2E2E2E2E2E2E2E2E2E2E2E2E2E2E2E2E2E2F5F5E2E2E2E2E2E2E2E2E2E2E2
310
E2E2E2E2E2E2E2E2E2F5E2E2E2E2E2E2E2E2E2E2E2E2E2E2E2E2E2E2E2E2E2E2E2E2E2E2E2E2E2E2E2E2E2E2E2E2E2E2E2E2E2E2E2E2E2E2E2E2E2E2E2E2E2E2E2E2E2E2E2E2E2E2E2E2E2E2E2E2E2E2E2E2E2E2E2E2E2E2E2E2E2E2E2E2E2E2E2E2E2E2E2E2E2E2E2E2E2E2E2E2E2E2E2E2E2E2E2E2E2E2E2E2E2E2E2E2E2
310
E2E2E2E2E2E2E2E2E2E2E2E2E2E2E2E2E2E2E2F5E2E2E2E2E2E2E2E2E2E2E2E2E2E2E2E2E2E2E2E2F5F5E2E2E2E2E2E2E2E2E2E2E2E2E2E2E2E2E2E2E2E2F5E2E2E2E2E2E2E2E2E2E2E2E2E2E2E2E2E2E2E2E2E2E2E2E2E2E2E2E2E2E2E2E2E2E2E2E2E2E2E2E2E2E2E2E2E2E2E2E2E2E2E2E2E2E2E2E2E2E2E2E2E2E2E2E2
310
E2E2E2E2E2E2E2E2E2E2E2E2E2E2E2E2E2E2E2E2E2E2E2E2E2E2E2E2E2E2E2E2E2E2E2E2E2E2E2E2E2E2E2E2E2E2E2E2E2E2E2E2E2E2E2E2E2E2E2E2E2E2E2E2E2E2E2E2E2E2E2E2F5E2E2E2E2E2E2E2E2E2E2E2E2E2E2E2E2E2E2E2E2F5F5E2E2E2E2E2E2E2E2E2E2E2E2E2E2E2E2E2E2E2E2F5E2E2E2E2E2E2E2E2E2E2E2
310
E2E2E2E2E2E2E2E2E2E2E2E2E2E2E2E2E2E2E2E2E2E2E2E2E2E2E2E2E2E2E2E2E2E2E2E2E2E2E2E2E2E2E2E2E2E2E2E2E2E2E2E2E2E2E2E2E2E2E2E2E2E2E2E2E2E2E2E2E2E2E2E2E2E2E2E2E2E2E2E2E2E2E2E2E2E2E2E2E2E2E2E2E2E2E2E2E2E2E2E2E2E2E2E2E2E2E2E2E2E2E2E2E2E2E2E2E2E2E2E2E2E2E2E2E2F5E2
310
E2E2E2E2E2E2E2E2E2E2E2E2E2E2E2E2E2E2E2F5F5E2E2E2E2E2E2E2E2E2E2E2E2E2E2E2E2E2E2E2E2F5E2E2E2E2E2E2E2E2E2E2E2E2E2E2E2E2E2E2E2E2E2E2E2E2E2E2E2E2E2E2E2E2E2E2E2E2E2E2E2E2E2E2E2E2E2E2E2E2E2E2E2E2E2E2E2E2E2E2E2E2E2E2E2E2E2E2E2E2E2E2E2E2E2E2E2E2E2E2E2E2E2E2E2E2E2
310
E2E2E2E2E2E2E2E2E2E2E2E2E2E2E2E2E2E2E2E2E2E2E2E2E2E2E2E2E2E2E2E2E2E2E2E2E2E2E2E2E2E2E2E2E2E2E2E2E2E2E2F5E2E2E2E2E2E2E2E2E2E2E2E2E2E2E2E2E2E2E2E2F5F5E2E2E2E2E2E2E2E2E2E2E2E2E2E2E2E2E2E2E2E2F5E2E2E2E2E2E2E2E2E2E2E2E2E2E2E2E2E2E2E2E2E2E2E2E2E2E2E2E2E2E2E2E2
310
E2E2E2E2E2E2E2E2E2E2E2E2E2E2E2E2E2E2E2E2E2E2E2E2E2E2E2E2E2E2E2E2E2E2E2E2E2E2E2E2E2E2E2E2E2E2E2E2E2E2E2E2E2E2E2E2E2E2E2E2E2E2E2E2E2E2E2E2E2E2E2E2E2E2E2E2E2E2E2E2E2E2E2E2E2E2E2E2E2E2E2E2E2E2E2E2E2E2E2E2E2E2E2E2F5E2E2E2E2E2E2E2E2E2E2E2E2E2E2E2E2E2E2E2E2F5F5
310
E2E2E2E2E2E2E2E2E2E2E2E2E2E2E2E2E2E2E2E2F5E2E2E2E2E2E2E2E2E2E2E2E2E2E2E2E2E2E2E2E2E2E2E2E2E2E2E2E2E2E2E2E2E2E2E2E2E2E2E2E2E2E2E2E2E2E2E2E2E2E2E2E2E2E2E2E2E2E2E2E2E2E2E2E2E2E2E2E2E2E2E2E2E2E2E2E2E2E2E2E2E2E2E2E2E2E2E2E2E2E2E2E2E2E2E2E2E2E2E2E2E2E2E2E2E2E2
310
E2E2E2E2E2E2E2E2E2E2E2E2E2E2E2E2E2E2E2E2E2E2E2E2E2E2E2E2E2E2F5E2E2E2E2E2E2E2E2E2E2E2E2E2E2E2E2E2E2E2E2F5F5E2E2E2E2E2E2E2E2E2E2E2E2E2E2E2E2E2E2E2E2F5E2E2E2E2E2E2E2E2E2E2E2E2E2E2E2E2E2E2E2E2E2E2E2E2E2E2E2E2E2E2E2E2E2E2E2E2E2E2E2E2E2E2E2E2E2E2E2E2E2E2E2E2E2
310
E2E2E2E2E2E2E2E2E2E2E2E2E2E2E2E2E2E2E2E2E2E2E2E2E2E2E2E2E2E2E2E2E2E2E2E2E2E2E2E2E2E2E2E2E2E2E2E2E2E2E2E2E2E2E2E2E2E2E2E2E2E2E2E2E2E2E2E2E2E2E2E2E2E2E2E2E2E2E2E2E2E2E2F5E2E2E2E2E2E2E2E2E2E2E2E2E2E2E2E2E2E2E2E2F5F5E2E2E2F5E2E2E2E2E2E2E2E2E2E2E2E2E2E2E2E2F5
310
E2E2E2E2E2E2E2E2E2E2E2E2E2E2E2E2E2E2E2E2E2E2E2E2E2E2E2E2E2E2E2E2E2E2E2E2E2E2E2E2E2E2E2E2E2E2E2E2E2E2E2E2E2E2E2E2E2E2E2E2E2E2E2E2E2E2E2E2E2E2E2E2E2E2E2E2E2E2E2E2E2E2E2E2E2E2E2E2E2E2E2E2E2E2E2E2E2E2E2E2E2E2E2E2E2E2E2E2E2E2E2E2E2E2E2E2E2E2E2E2E2E2E2E2E2E2E2
310
E2E2E2E2E2E2E2E2E2F5E2E2E2E2E2E2E2E2E2E2E2E2E2E2E2E2F5E2E2E2F5F5E2E2E2F5E2E2E2E2E2E2E2E2E2E2E2E2E2E2E2E2F5E2E2E2E2E2E2E2E2E2E2E2E2E2E2E2E2E2E2E2E2E2E2E2E2E2E2E2E2E2E2E2E2E2E2E2E2E2E2E2E2E2E2E2E2E2E2E2E2E2E2E2E2E2E2E2E2E2E2E2E2E2E2E2E2E2E2E2E2E2E2E2E2E2E2
310
E2E2E2E2E2E2E2E2E2E2E2E2E2E2E2E2E2E2E2E2E2E2E2E2E2E2E2E2E2E2E2E2E2E2E2E2E2E2E2E2E2E2E2E2E2E2E2E2E2E2E2E2E2E2E2E2E2E2E2E2E2E2F5E2E2E2E2E2E2E2E2E2E2E2E2E2E2E2E2F5E2E2E2F5F5E2E2E2F5E2E2E2E2E2E2E2E2E2E2E2E2E2E2E2E2F5E2E2E2E2E2E2E2E2E2E2E2E2E2E2E2E2E2E2E2E2E2
310
E2E2E2E2E2E2E2E2E2E2E2E2E2E2E2E2E2E2E2E2E2E2E2E2E2E2E2E2E2E2E2E2E2E2E2E2E2E2E2E2E2E2E2E2E2E2E2E2E2E2E2E2E2E2E2E2E2E2E2E2E2E2E2E2E2E2E2E2E2E2E2E2E2E2E2E2E2E2E2E2E2E2E2E2E2E2E2E2E2E2E2E2E2E2E2E2E2E2E2E2E2E2E2E2E2E2E2E2E2E2E2E2E2E2E2F5E2E2E2E2E2E2E2E2E2E2E2
310
E2E2E2E2E2F5E2E2E2F5F5E2E2E2F5E2E2E2E2E2E2E2E2E2E2E2E2E2E2E2E2F5E2E2E2E2E2E2E2E2E2E2E2E2E2E2E2E2E2E2E2E2E2E2E2E2E2E2E2E2E2E2E2E2E2E2E2E2E2E2E2E2E2E2E2E2E2E2E2E2E2E2E2E2E2E2E2E2E2E2E2E2E2E2E2E2E2E2E2E2E2E2E2E2E2E2E2E2E2E2E2E2E2E2E2E2E2E2E2E2E2E2E2E2E2E2E2
310
E2E2E2E2E2E2E2E2E2E2E2E2E2E2E2E2E2E2E2E2E2E2E2E2E2E2E2E2E2E2E2E2E2E2E2E2E2E2E2E2E2F5E2E2E2E2E2E2E2E2E2E2E2E2E2E2E2E2F5E2E2E2F5F5E2E2E2F5E2E2E2E2E2E2E2E2E2E2E2E2E2E2E2E2F5E2E2E2E2E2E2E2E2E2E2E2E2E2E2E2E2E2E2E2E2E2E2E2E2E2E2E2E2E2E2E2E2E2E2E2E2E2E2E2E2E2E2
310
E2E2E2E2E2E2E2E2E2E2E2E2E2E2E2E2E2E2E2E2E2E2E2E2E2E2E2E2E2E2E2E2E2E2E2E2E2E2E2E2E2E2E2E2E2E2E2E2E2E2E2E2E2E2E2E2E2E2E2E2E2E2E2E2E2E2E2E2E2E2E2E2E2E2E2E2E2E2E2E2E2E2E2E2E2E2E2E2E2E2E2E2E2E2F5E2E2E2E2E2E2E2E2E2E2E2E2E2E2E2E2F5E2E2E2F5F5E2E2E2F5E2E2E2E2E2E2
310
E2E2E2E2E2E2E2E2E2E2F5E2E2E2E2E2E2E2E2E2E2E2E2E2E2E2E2E2E2E2E2E2E2E2E2E2E2E2E2E2E2E2E2E2E2E2E2E2E2E2E2E2E2E2E2E2E2E2E2E2E2E2E2E2E2E2E2E2E2E2E2E2E2E2E2E2E2E2E2E2E2E2E2E2E2E2E2E2E2E2E2E2E2E2E2E2E2E2E2E2E2E2E2E2E2E2E2E2E2E2E2E2E2E2E2E2E2E2E2E2E2E2E2E2E2E2E2
310
E2E2E2E2E2E2E2E2E2E2E2E2E2E2E2E2E2E2E2E2F5E2E2E2E2E2E2E2E2E2E2E2E2E2E2E2E2F5E2E2E2F5F5E2E2E2F5E2E2E2E2E2E2E2E2E2E2E2E2E2E2E2E2F5E2E2E2E2E2E2E2E2E2E2E2E2E2E2E2E2E2E2E2E2E2E2E2E2E2E2E2E2E2E2E2E2E2E2E2E2E2E2E2E2E2E2E2E2E2E2E2E2E2E2E2E2E2E2E2E2E2E2E2E2E2E2E2
310
E2E2E2E2E2E2E2E2E2E2E2E2E2E2E2E2E2E2E2E2E2E2E2E2E2E2E2E2E2E2E2E2E2E2E2E2E2E2E2E2E2E2E2E2E2E2E2E2E2E2E2E2E2E2E2E2E2E2E2E2E2E2E2E2E2E2E2E2E2E2E2E2E2F5E2E2E2E2E2E2E2E2E2E2E2E2E2E2E2E2F5E2E2E2F5F5E2E2E2F5E2E2E2E2E2E2E2E2E2E2E2E2E2E2E2E2F5E2E2E2E2E2E2E2E2E2E2
310
E2E2E2E2E2E2E2E2E2E2E2E2E2E2E2E2E2E2E2E2E2E2E2E2E2E2E2E2E2E2E2E2E2E2E2E2E2E2E2E2E2E2E2E2E2E2E2E2E2E2E2E2E2E2E2E2E2E2E2E2E2E2E2E2E2E2E2E2E2E2E2E2E2E2E2E2E2E2E2E2E2E2E2E2E2E2E2E2E2E2E2E2E2E2E2E2E2E2E2E2E2E2E2E2E2E2E2E2E2E2E2E2E2E2E2E2E2E2E2E2E2E2E2E2E2E2F5
310
E2E2E2E2E2E2E2E2E2E2E2E2E2E2E2E2F5E2E2E2F5F5E2E2E2F5E2E2E2E2E2E2E2E2E2E2E2E2E2E2E2E2F5E2E2E2E2E2E2E2E2E2E2E2E2E2E2E2E2E2E2E2E2E2E2E2E2E2E2E2E2E2E2E2E2E2E2E2E2E2E2E2E2E2E2E2E2E2E2E2E2E2E2E2E2E2E2E2E2E2E2E2E2E2E2E2E2E2E2E2E2E2E2E2E2E2E2E2E2E2E2E2E2E2E2E2E2
310
E2E2E2E2E2E2E2E2E2E2E2E2E2E2E2E2E2E2E2E2E2E2E2E2E2E2E2E2E2E2E2E2E2E2E2E2E2E2E2E2E2E2E2E2E2E2E2E2E2E2E2E2F5E2E2E2E2E2E2E2E2E2E2E2E2E2E2E2E2F5E2E2E2F5F5E2E2E2F5E2E2E2E2E2E2E2E2E2E2E2E2E2E2E2E2F5E2E2E2E2E2E2E2E2E2E2E2E2E2E2E2E2E2E2E2E2E2E2E2E2E2E2E2E2E2E2E2
310
E2E2E2E2E2E2E2E2E2E2E2E2E2E2E2E2E2E2E2E2E2E2E2E2E2E2E2E2E2E2E2E2E2E2E2E2E2E2E2E2E2E2E2E2E2E2E2E2E2E2E2E2E2E2E2E2E2E2E2E2E2E2E2E2E2E2E2E2E2E2E2E2E2E2E2E2E2E2E2E2E2E2E2E2E2E2E2E2E2E2E2E2E2E2E2E2E2E2E2E2E2E2E2E2E2F5E2E2E2E2E2E2E2E2E2E2E2E2E2E2E2E2F5E2E2E2F5
310
F5E2E2E2F5E2E2E2E2E2E2E2E2E2E2E2E2E2E2E2E2F5E2E2E2E2E2E2E2E2E2E2E2E2E2E2E2E2E2E2E2E2E2E2E2E2E2E2E2E2E2E2E2E2E2E2E2E2E2E2E2E2E2E2E2E2E2E2E2E2E2E2E2E2E2E2E2E2E2E2E2E2E2E2E2E2E2E2E2E2E2E2E2E2E2E2E2E2E2E2E2E2E2E2E2E2E2E2E2E2E2E2E2E2E2E2E2E2E2E2E2E2E2E2E2E2E2
310
E2E2E2E2E2E2E2E2E2E2E2E2E2E2E2E2E2E2E2E2E2E2E2E2E2E2E2E2E2E2E2F5E2E2E2E2E2E2E2E2E2E2E2E2E2E2E2E2F5E2E2E2F5F5E2E2E2F5E2E2E2E2E2E2E2E2E2E2E2E2E2E2E2E2F5E2E2E2E2E2E2E2E2E2E2E2E2E2E2E2E2E2E2E2E2E2E2E2E2E2E2E2E2E2E2E2E2E2E2E2E2E2E2E2E2E2E2E2E2E2E2E2E2E2E2E2E2
310
E2E2E2E2E2E2E2E2E2E2E2E2E2E2E2E2E2E2E2E2E2E2E2E2E2E2E2E2E2E2E2E2E2E2E2E2E2E2E2E2E2E2E2E2E2E2E2E2E2E2E2E2E2E2E2E2E2E2E2E2E2E2E2E2E2E2E2E2E2E2E2E2E2E2E2E2E2E2E2E2E2E2E2E2F5E2E2E2E2E2E2E2E2E2E2E2E2E2E2E2E2F5E2E2E2F5F5E2E2E2F5E2E2E2E2E2E2E2E2E2E2E2E2E2E2E2E2
310
F5E2E2E2E2E2E2E2E2E2E2E2E2E2E2E2E2E2E2E2E2E2E2E2E2E2E2E2E2E2E2E2E2E2E2E2E2E2E2E2E2E2E2E2E2E2E2E2E2E2E2E2E2E2E2E2E2E2E2E2E2E2E2E2E2E2E2E2E2E2E2E2E2E2E2E2E2E2E2E2E2E2E2E2E2E2E2E2E2E2E2E2E2E2E2E2E2E2E2E2E2E2E2E2E2E2E2E2E2E2E2E2E2E2E2E2E2E2E2E2E2E2E2E2E2E2E2
310
E2E2E2E2E2E2E2E2E2E2F5E2E2E2E2E2E2E2E2E2E2E2E2E2E2E2E2F5E2E2E2F5F5E2E2E2F5E2E2E2E2E2E2E2E2E2E2E2E2E2E2E2E2F5E2E2E2E2E2E2E2E2E2E2E2E2E2E2E2E2E2E2E2E2E2E2E2E2E2E2E2E2E2E2E2E2E2E2E2E2E2E2E2E2E2E2E2E2E2E2E2E2E2E2E2E2E2E2E2E2E2E2E2E2E2E2E2E2E2E2E2E2E2E2E2E2E2
310
E2E2E2E2E2E2E2E2E2E2E2E2E2E2E2E2E2E2E2E2E2E2E2E2E2E2E2E2E2E2E2E2E2E2E2E2E2E2E2E2E2E2E2E2E2E2E2E2E2E2E2E2E2E2E2E2E2E2E2E2E2E2E2F5E2E2E2E2E2E2E2E2E2E2E2E2E2E2E2E2F5E2E2E2F5F5E2E2E2F5E2E2E2E2E2E2E2E2E2E2E2E2E2E2E2E2F5E2E2E2E2E2E2E2E2E2E2E2E2E2E2E2E2E2E2E2E2
310
E2E2E2E2E2E2E2E2E2E2E2E2E2E2E2E2E2E2E2E2E2E2E2E2E2E2E2E2E2E2E2E2E2E2E2E2E2E2E2E2E2E2E2E2E2E2E2E2E2E2E2E2E2E2E2E2E2E2E2E2E2E2E2E2E2E2E2E2E2E2E2E2E2E2E2E2E2E2E2E2E2E2E2E2E2E2E2E2E2E2E2E2E2E2E2E2E2E2E2E2E2E2E2E2E2E2E2E2E2E2E2E2E2E2E2E2F5E2E2E2E2E2E2E2E2E2E2
310
E2E2E2E2E2E2F5E2E2E2F5F5E2E2E2F5E2E2E2E2E2E2E2E2E2E2E2E2E2E2E2E2F5E2E2E2E2E2E2E2E2E2E2E2E2E2E2E2E2E2E2E2E2E2E2E2E2E2E2E2E2E2E2E2E2E2E2E2E2E2E2E2E2E2E2E2E2E2E2E2E2E2E2E2E2E2E2E2E2E2E2E2E2E2E2E2E2E2E2E2E2E2E2E2E2E2E2E2E2E2E2E2E2E2E2E2E2E2E2E2E2E2E2E2E2E2E2
310
E2E2E2E2E2E2E2E2E2E2E2E2E2E2E2E2E2E2E2E2E2E2E2E2E2E2E2E2E2E2E2E2E2E2E2E2E2E2E2E2E2E2F5E2E2E2E2E2E2E2E2E2E2E2E2E2E2E2E2F5E2E2E2F5F5E2E2E2E2E2E2E2E2E2E2E2E2E2E2E2E2E2E2E2E2F5E2E2E2E2E2E2E2E2E2E2E2E2E2E2E2E2E2E2E2E2E2E2E2E2E2E2E2E2E2E2E2E2E2E2E2E2E2E2E2E2E2
310
E2E2E2E2E2E2E2E2E2E2E2E2E2E2E2E2E2E2E2E2E2E2E2E2E2E2E2E2E2E2E2E2E2E2E2E2E2E2E2E2E2E2E2E2E2E2E2E2E2E2E2E2E2E2E2E2E2E2E2E2E2E2E2E2E2E2E2E2E2E2E2E2E2E2E2E2E2E2E2E2E2E2E2E2E2E2E2E2E2E2E2E2E2E2E2F5E2E2E2E2E2E2E2E2E2E2E2E2E2E2E2E2E2E2E2E2F5F5E2E2E2E2E2E2E2E2E2
310
E2E2E2E2E2E2E2E2E2E2E2F5E2E2E2E2E2E2E2E2E2E2E2E2E2E2E2E2E2E2E2E2E2E2E2E2E2E2E2E2E2E2E2E2E2E2E2E2E2E2E2E2E2E2E2E2E2E2E2E2E2E2E2E2E2E2E2E2E2E2E2E2E2E2E2E2E2E2E2E2E2E2E2E2E2E2E2E2E2E2E2E2E2E2E2E2E2E2E2E2E2E2E2E2E2E2E2E2E2E2E2E2E2E2E2E2E2E2E2E2E2E2E2E2E2E2E2
310
E2E2E2E2E2E2E2E2E2E2E2E2E2E2E2E2E2E2E2E2E2F5E2E2E2E2E2E2E2E2E2E2E2E2E2E2E2E2E2E2E2E2F5F5E2E2E2E2E2E2E2E2E2E2E2E2E2E2E2E2E2E2E2E2F5E2E2E2E2E2E2E2E2E2E2E2E2E2E2E2E2E2E2E2E2E2E2E2E2E2E2E2E2E2E2E2E2E2E2E2E2E2E2E2E2E2E2E2E2E2E2E2E2E2E2E2E2E2E2E2E2E2E2E2E2E2E2
310
E2E2E2E2E2E2E2E2E2E2E2E2E2E2E2E2E2E2E2E2E2E2E2E2E2E2E2E2E2E2E2E2E2E2E2E2E2E2E2E2E2E2E2E2E2E2E2E2E2E2E2E2E2E2E2E2E2E2E2E2E2E2E2E2E2E2E2E2E2E2E2E2E2E2F5E2E2E2E2E2E2E2E2E2E2E2E2E2E2E2E2E2E2E2E2F5F5E2E2E2E2E2E2E2E2E2E2E2E2E2E2E2E2E2E2E2E2F5E2E2E2E2E2E2E2E2E2
310
E2E2E2E2E2E2E2E2E2E2E2E2E2E2E2E2E2E2E2E2E2E2E2E2E2E2E2E2E2E2E2E2E2E2E2E2E2E2E2E2E2E2E2E2E2E2E2E2E2E2E2E2E2E2E2E2E2E2E2E2E2E2E2E2E2E2E2E2E2E2E2E2E2E2E2E2E2E2E2E2E2E2E2E2E2E2E2E2E2E2E2E2E2E2E2E2E2E2E2E2E2E2E2E2E2E2E2E2E2E2E2E2E2E2E2E2E2E2E2E2E2E2E2E2E2E2E2
310
F5E2E2E2E2E2E2E2E2E2E2E2E2E2E2E2E2E2E2E2E2F5F5E2E2E2E2E2E2E2E2E2E2E2E2E2E2E2E2E2E2E2E2F5E2E2E2E2E2E2E2E2E2E2E2E2E2E2E2E2E2E2E2E2E2E2E2E2E2E2E2E2E2E2E2E2E2E2E2E2E2E2E2E2E2E2E2E2E2E2E2E2E2E2E2E2E2E2E2E2E2E2E2E2E2E2E2E2E2E2E2E2E2E2E2E2E2E2E2E2E2E2E2E2E2E2E2
310
E2E2E2E2E2E2E2E2E2E2E2E2E2E2E2E2E2E2E2E2E2E2E2E2E2E2E2E2E2E2E2E2E2E2E2E2E2E2E2E2E2E2E2E2E2E2E2E2E2E2E2E2E2F5E2E2E2E2E2E2E2E2E2E2E2E2E2E2E2E2E2E2E2E2F5F5E2E2E2E2E2E2E2E2E2E2E2E2E2E2E2E2E2E2E2E2F5E2E2E2E2E2E2E2E2E2E2E2E2E2E2E2E2E2E2E2E2E2E2E2E2E2E2E2E2E2E2
310
E2E2E2E2E2E2E2E2E2E2E2E2E2E2E2E2E2E2E2E2E2E2E2E2E2E2E2E2E2E2E2E2E2E2E2E2E2E2E2E2E2E2E2E2E2E2E2E2E2E2E2E2E2E2E2E2E2E2E2E2E2E2E2E2E2E2E2E2E2E2E2E2E2E2E2E2E2E2E2E2E2E2E2E2E2E2E2E2E2E2E2E2E2E2E2E2E2E2E2E2E2E2E2E2E2E2F5E2E2E2E2E2E2E2E2E2E2E2E2E2E2E2E2E2E2E2E2
310
F5F5E2E2E2E2E2E2E2E2E2E2E2E2E2E2E2E2E2E2E2E2F5E2E2E2E2E2E2E2E2E2E2E2E2E2E2E2E2E2E2E2E2E2E2E2E2E2E2E2E2E2E2E2E2E2E2E2E2E2E2E2E2E2E2E2E2E2E2E2E2E2E2E2E2E2E2E2E2E2E2E2E2E2E2E2E2E2E2E2E2E2E2E2E2E2E2E2E2E2E2E2E2E2E2E2E2E2E2E2E2E2E2E2E2E2E2E2E2E2E2E2E2E2E2E2E2
310
E2E2E2E2E2E2E2E2E2E2E2E2E2E2E2E2E2E2E2E2E2E2E2E2E2E2E2E2E2E2E2E2F5E2E2E2E2E2E2E2E2E2E2E2E2E2E2E2E2E2E2E2E2F5F5E2E2E2E2E2E2E2E2E2E2E2E2E2E2E2E2E2E2E2E2F5E2E2E2E2E2E2E2E2E2E2E2E2E2E2E2E2E2E2E2E2E2E2E2E2E2E2E2E2E2E2E2E2E2E2E2E2E2E2E2E2E2E2E2E2E2E2E2E2E2E2E2
310
E2E2E2E2E2E2E2E2E2E2E2E2E2E2E2E2E2E2E2E2E2E2E2E2E2E2E2E2E2E2E2E2E2E2E2E2E2E2E2E2E2E2E2E2E2E2E2E2E2E2E2E2E2E2E2E2E2E2E2E2E2E2E2E2E2E2E2E2E2E2E2E2E2E2E2E2E2E2E2E2E2E2E2E2E2F5E2E2E2E2E2E2E2E2E2E2E2E2E2E2E2E2E2E2E2E2F5F5E2E2E2E2E2E2E2E2E2E2E2E2E2E2E2E2E2E2E2
310
E2F5E2E2E2E2E2E2E2E2E2E2E2E2E2E2E2E2E2E2E2E2E2E2E2E2E2E2E2E2E2E2E2E2E2E2E2E2E2E2E2E2E2E2E2E2E2E2E2E2E2E2E2E2E2E2E2E2E2E2E2E2E2E2E2E2E2E2E2E2E2E2E2E2E2E2E2E2E2E2E2E2E2E2E2E2E2E2E2E2E2E2E2E2E2E2E2E2E2E2E2E2E2E2E2E2E2E2E2E2E2E2E2E2E2E2E2E2E2E2E2E2E2E2E2E2E2
310
E2E2E2E2E2E2E2E2E2E2E2F5E2E2E2E2E2E2E2E2E2E2E2E2E2E2E2E2E2E2E2E2F5F5E2E2E2E2E2E2E2E2E2E2E2E2E2E2E2E2E2E2E2E2F5E2E2E2E2E2E2E2E2E2E2E2E2E2E2E2E2E2E2E2E2E2E2E2E2E2E2E2E2E2E2E2E2E2E2E2E2E2E2E2E2E2E2E2E2E2E2E2E2E2E2E2E2E2E2E2E2E2E2E2E2E2E2E2E2E2E2E2E2E2E2E2E2
310
E2E2E2E2E2E2E2E2E2E2E2E2E2E2E2E2E2E2E2E2E2E2E2E2E2E2E2E2E2E2E2E2E2E2E2E2E2E2E2E2E2E2E2E2E2E2E2E2E2E2E2E2E2E2E2E2E2E2E2E2E2E2E2E2F5E2E2E2E2E2E2E2E2E2E2E2E2E2E2E2E2E2E2E2E2F5F5E2E2E2F5E2E2E2E2E2E2E2E2E2E2E2E2E2E2E2E2F5E2E2E2E2E2E2E2E2E2E2E2E2E2E2E2E2E2E2E2
310
E2E2E2E2E2E2E2E2E2E2E2E2E2E2E2E2E2E2E2E2E2E2E2E2E2E2E2E2E2E2E2E2E2E2E2E2E2E2E2E2E2E2E2E2E2E2E2E2E2E2E2E2E2E2E2E2E2E2E2E2E2E2E2E2E2E2E2E2E2E2E2E2E2E2E2E2E2E2E2E2E2E2E2E2E2E2E2E2E2E2E2E2E2E2E2E2E2E2E2E2E2E2E2E2E2E2E2E2E2E2E2E2E2E2E2E2E2F5E2E2E2E2E2E2E2E2E2
310
E2E2E2E2E2E2E2F5E2E2E2F5F5E2E2E2F5E2E2E2E2E2E2E2E2E2E2E2E2E2E2E2E2F5E2E2E2E2E2E2E2E2E2E2E2E2E2E2E2E2E2E2E2E2E2E2E2E2E2E2E2E2E2E2E2E2E2E2E2E2E2E2E2E2E2E2E2E2E2E2E2E2E2E2E2E2E2E2E2E2E2E2E2E2E2E2E2E2E2E2E2E2E2E2E2E2E2E2E2E2E2E2E2E2E2E2E2E2E2E2E2E2E2E2E2E2E2
310
E2E2E2E2E2E2E2E2E2E2E2E2E2E2E2E2E2E2E2E2E2E2E2E2E2E2E2E2E2E2E2E2E2E2E2E2E2E2E2E2E2E2E2F5E2E2E2E2E2E2E2E2E2E2E2E2E2E2E2E2F5E2E2E2F5F5E2E2E2F5E2E2E2E2E2E2E2E2E2E2E2E2E2E2E2E2F5E2E2E2E2E2E2E2E2E2E2E2E2E2E2E2E2E2E2E2E2E2E2E2E2E2E2E2E2E2E2E2E2E2E2E2E2E2E2E2E2
310
E2E2E2E2E2E2E2E2E2E2E2E2E2E2E2E2E2E2E2E2E2E2E2E2E2E2E2E2E2E2E2E2E2E2E2E2E2E2E2E2E2E2E2E2E2E2E2E2E2E2E2E2E2E2E2E2E2E2E2E2E2E2E2E2E2E2E2E2E2E2E2E2E2E2E2E2E2E2E2E2E2E2E2E2E2E2E2E2E2E2E2E2E2E2E2E2F5E2E2E2E2E2E2E2E2E2E2E2E2E2E2E2E2F5E2E2E2F5F5E2E2E2F5E2E2E2E2
310
E2E2E2E2E2E2E2E2E2E2E2E2F5E2E2E2E2E2E2E2E2E2E2E2E2E2E2E2E2E2E2E2E2E2E2E2E2E2E2E2E2E2E2E2E2E2E2E2E2E2E2E2E2E2E2E2E2E2E2E2E2E2E2E2E2E2E2E2E2E2E2E2E2E2E2E2E2E2E2E2E2E2E2E2E2E2E2E2E2E2E2E2E2E2E2E2E2E2E2E2E2E2E2E2E2E2E2E2E2E2E2E2E2E2E2E2E2E2E2E2E2E2E2E2E2E2E2
310
E2E2E2E2E2E2E2E2E2E2E2E2E2E2E2E2E2E2E2E2E2E2F5E2E2E2E2E2E2E2E2E2E2E2E2E2E2E2E2F5E2E2E2F5F5E2E2E2F5E2E2E2E2E2E2E2E2E2E2E2E2E2E2E2E2F5E2E2E2E2E2E2E2E2E2E2E2E2E2E2E2E2E2E2E2E2E2E2E2E2E2E2E2E2E2E2E2E2E2E2E2E2E2E2E2E2E2E2E2E2E2E2E2E2E2E2E2E2E2E2E2E2E2E2E2E2E2
310
E2E2E2E2E2E2E2E2E2E2E2E2E2E2E2E2E2E2E2E2E2E2E2E2E2E2E2E2E2E2E2E2E2E2E2E2E2E2E2E2E2E2E2E2E2E2E2E2E2E2E2E2E2E2E2E2E2E2E2E2E2E2E2E2E2E2E2E2E2E2E2E2E2E2E2F5E2E2E2E2E2E2E2E2E2E2E2E2E2E2E2E2F5E2E2E2F5F5E2E2E2F5E2E2E2E2E2E2E2E2E2E2E2E2E2E2E2E2F5E2E2E2E2E2E2E2E2
310
E2E2E2E2E2E2E2E2E2E2E2E2E2E2E2E2E2E2E2E2E2E2E2E2E2E2E2E2E2E2E2E2E2E2E2E2E2E2E2E2E2E2E2E2E2E2E2E2E2E2E2E2E2E2E2E2E2E2E2E2E2E2E2E2E2E2E2E2E2E2E2E2E2E2E2E2E2E2E2E2E2E2E2E2E2E2E2E2E2E2E2E2E2E2E2E2E2E2E2E2E2E2E2E2E2E2E2E2E2E2E2E2E2E2E2E2E2E2E2E2E2E2E2E2E2E2E2
310
E2F5E2E2E2E2E2E2E2E2E2E2E2E2E2E2E2E2F5E2E2E2F5F5E2E2E2F5E2E2E2E2E2E2E2E2E2E2E2E2E2E2E2E2F5E2E2E2E2E2E2E2E2E2E2E2E2E2E2E2E2E2E2E2E2E2E2E2E2E2E2E2E2E2E2E2E2E2E2E2E2E2E2E2E2E2E2E2E2E2E2E2E2E2E2E2E2E2E2E2E2E2E2E2E2E2E2E2E2E2E2E2E2E2E2E2E2E2E2E2E2E2E2E2E2E2E2
310
E2E2E2E2E2E2E2E2E2E2E2E2E2E2E2E2E2E2E2E2E2E2E2E2E2E2E2E2E2E2E2E2E2E2E2E2E2E2E2E2E2E2E2E2E2E2E2E2E2E2E2E2E2E2F5E2E2E2E2E2E2E2E2E2E2E2E2E2E2E2E2F5E2E2E2F5F5E2E2E2F5E2E2E2E2E2E2E2E2E2E2E2E2E2E2E2E2F5E2E2E2E2E2E2E2E2E2E2E2E2E2E2E2E2E2E2E2E2E2E2E2E2E2E2E2E2E2
310
E2E2E2E2E2E2E2E2E2E2E2E2E2E2E2E2E2E2E2E2E2E2E2E2E2E2E2E2E2E2E2E2E2E2E2E2E2E2E2E2E2E2E2E2E2E2E2E2E2E2E2E2E2E2E2E2E2E2E2E2E2E2E2E2E2E2E2E2E2E2E2E2E2E2E2E2E2E2E2E2E2E2E2E2E2E2E2E2E2E2E2E2E2E2E2E2E2E2E2E2E2E2E2E2E2E2E2F5E2E2E2E2E2E2E2E2E2E2E2E2E2E2E2E2F5E2E2
310
E2F5F5E2E2E2F5E2E2E2E2E2E2E2E2E2E2E2E2E2E2E2E2F5E2E2E2E2E2E2E2E2E2E2E2E2E2E2E2E2E2E2E2E2E2E2E2E2E2E2E2E2E2E2E2E2E2E2E2E2E2E2E2E2E2E2E2E2E2E2E2E2E2E2E2E2E2E2E2E2E2E2E2E2E2E2E2E2E2E2E2E2E2E2E2E2E2E2E2E2E2E2E2E2E2E2E2E2E2E2E2E2E2E2E2E2E2E2E2E2E2E2E2E2E2E2E2
310
E2E2E2E2E2E2E2E2E2E2E2E2E2E2E2E2E2E2E2E2E2E2E2E2E2E2E2E2E2E2E2E2E2F5E2E2E2E2E2E2E2E2E2E2E2E2E2E2E2E2F5E2E2E2F5F5E2E2E2F5E2E2E2E2E2E2E2E2E2E2E2E2E2E2E2E2F5E2E2E2E2E2E2E2E2E2E2E2E2E2E2E2E2E2E2E2E2E2E2E2E2E2E2E2E2E2E2E2E2E2E2E2E2E2E2E2E2E2E2E2E2E2E2E2E2E2E2
310
E2E2E2E2E2E2E2E2E2E2E2E2E2E2E2E2E2E2E2E2E2E2E2E2E2E2E2E2E2E2E2E2E2E2E2E2E2E2E2E2E2E2E2E2E2E2E2E2E2E2E2E2E2E2E2E2E2E2E2E2E2E2E2E2E2E2E2E2E2E2E2E2E2E2E2E2E2E2E2E2E2E2E2E2E2E2F5E2E2E2E2E2E2E2E2E2E2E2E2E2E2E2E2F5E2E2E2F5F5E2E2E2F5E2E2E2E2E2E2E2E2E2E2E2E2E2E2
310
E2E2F5E2E2E2E2E2E2E2E2E2E2E2E2E2E2E2E2E2E2E2E2E2E2E2E2E2E2E2E2E2E2E2E2E2E2E2E2E2E2E2E2E2E2E2E2E2E2E2E2E2E2E2E2E2E2E2E2E2E2E2E2E2E2E2E2E2E2E2E2E2E2E2E2E2E2E2E2E2E2E2E2E2E2E2E2E2E2E2E2E2E2E2E2E2E2E2E2E2E2E2E2E2E2E2E2E2E2E2E2E2E2E2E2E2E2E2E2E2E2E2E2E2E2E2E2
310
E2E2E2E2E2E2E2E2E2E2E2E2F5E2E2E2E2E2E2E2E2E2E2E2E2E2E2E2E2F5E2E2E2F5F5E2E2E2F5E2E2E2E2E2E2E2E2E2E2E2E2E2E2E2E2F5E2E2E2E2E2E2E2E2E2E2E2E2E2E2E2E2E2E2E2E2E2E2E2E2E2E2E2E2E2E2E2E2E2E2E2E2E2E2E2E2E2E2E2E2E2E2E2E2E2E2E2E2E2E2E2E2E2E2E2E2E2E2E2E2E2E2E2E2E2E2E2
310
E2E2E2E2E2E2E2E2E2E2E2E2E2E2E2E2E2E2E2E2E2E2E2E2E2E2E2E2E2E2E2E2E2E2E2E2E2E2E2E2E2E2E2E2E2E2E2E2E2E2E2E2E2E2E2E2E2E2E2E2E2E2E2E2E2F5E2E2E2E2E2E2E2E2E2E2E2E2E2E2E2E2F5E2E2E2F5F5E2E2E2F5E2E2E2E2E2E2E2E2E2E2E2E2E2E2E2E2F5E2E2E2E2E2E2E2E2E2E2E2E2E2E2E2E2E2E2
310
E2E2E2E2E2E2E2E2E2E2E2E2E2E2E2E2E2E2E2E2E2E2E2E2E2E2E2E2E2E2E2E2E2E2E2E2E2E2E2E2E2E2E2E2E2E2E2E2E2E2E2E2E2E2E2E2E2E2E2E2E2E2E2E2E2E2E2E2E2E2E2E2E2E2E2E2E2E2E2E2E2E2E2E2E2E2E2E2E2E2E2E2E2E2E2E2E2E2E2E2E2E2E2E2E2E2E2E2E2E2E2E2E2E2E2E2E2E2F5E2E2E2E2E2E2E2E2
310
E2E2E2E2E2E2E2E2F5E2E2E2F5F5E2E2E2F5E2E2E2E2E2E2E2E2E2E2E2E2E2E2E2E2F5E2E2E2E2E2E2E2E2E2E2E2E2E2E2E2E2E2E2E2E2E2E2E2E2E2E2E2E2E2E2E2E2E2E2E2E2E2E2E2E2E2E2E2E2E2E2E2E2E2E2E2E2E2E2E2E2E2E2E2E2E2E2E2E2E2E2E2E2E2E2E2E2E2E2E2E2E2E2E2E2E2E2E2E2E2E2E2E2E2E2E2E2
310
E2E2E2E2E2E2E2E2E2E2E2E2E2E2E2E2E2E2E2E2E2E2E2E2E2E2E2E2E2E2E2E2E2E2E2E2E2E2E2E2E2E2E2E2F5E2E2E2E2E2E2E2E2E2E2E2E2E2E2E2E2F5E2E2E2F5F5E2E2E2F5E2E2E2E2E2E2E2E2E2E2E2E2E2E2E2E2F5E2E2E2E2E2E2E2E2E2E2E2E2E2E2E2E2E2E2E2E2E2E2E2E2E2E2E2E2E2E2E2E2E2E2E2E2E2E2E2
310
E2E2E2E2E2E2E2E2E2E2E2E2E2E2E2E2E2E2E2E2E2E2E2E2E2E2E2E2E2E2E2E2E2E2E2E2E2E2E2E2E2E2E2E2E2E2E2E2E2E2E2E2E2E2E2E2E2E2E2E2E2E2E2E2E2E2E2E2E2E2E2E2E2E2E2E2E2E2E2E2E2E2E2E2E2E2E2E2E2E2E2E2E2E2E2E2E2F5E2E2E2E2E2E2E2E2E2E2E2E2E2E2E2E2F5E2E2E2F5F5E2E2E2F5E2E2E2
310
E2E2E2E2E2E2E2E2E2E2E2E2E2F5E2E2E2E2E2E2E2E2E2E2E2E2E2E2E2E2E2E2E2E2E2E2E2E2E2E2E2E2E2E2E2E2E2E2E2E2E2E2E2E2E2E2E2E2E2E2E2E2E2E2E2E2E2E2E2E2E2E2E2E2E2E2E2E2E2E2E2E2E2E2E2E2E2E2E2E2E2E2E2E2E2E2E2E2E2E2E2E2E2E2E2E2E2E2E2E2E2E2E2E2E2E2E2E2E2E2E2E2E2E2E2E2E2
310
E2E2E2E2E2E2E2E2E2E2E2E2E2E2E2E2E2E2E2E2E2E2E2F5E2E2E2E2E2E2E2E2E2E2E2E2E2E2E2E2F5E2E2E2F5F5E2E2E2E2E2E2E2E2E2E2E2E2E2E2E2E2E2E2E2E2F5E2E2E2E2E2E2E2E2E2E2E2E2E2E2E2E2E2E2E2E2E2E2E2E2E2E2E2E2E2E2E2E2E2E2E2E2E2E2E2E2E2E2E2E2E2E2E2E2E2E2E2E2E2E2E2E2E2E2E2E2
310
E2E2E2E2E2E2E2E2E2E2E2E2E2E2E2E2E2E2E2E2E2E2E2E2E2E2E2E2E2E2E2E2E2E2E2E2E2E2E2E2E2E2E2E2E2E2E2E2E2E2E2E2E2E2E2E2E2E2E2E2E2E2E2E2E2E2E2E2E2E2E2E2E2E2E2E2F5E2E2E2E2E2E2E2E2E2E2E2E2E2E2E2E2E2E2E2E2F5F5E2E2E2E2E2E2E2E2E2E2E2E2E2E2E2E2E2E2E2E2F5E2E2E2E2E2E2E2
310
E2E2E2E2E2E2E2E2E2E2E2E2E2E2E2E2E2E2E2E2E2E2E2E2E2E2E2E2E2E2E2E2E2E2E2E2E2E2E2E2E2E2E2E2E2E2E2E2E2E2E2E2E2E2E2E2E2E2E2E2E2E2E2E2E2E2E2E2E2E2E2E2E2E2E2E2E2E2E2E2E2E2E2E2E2E2E2E2E2E2E2E2E2E2E2E2E2E2E2E2E2E2E2E2E2E2E2E2E2E2E2E2E2E2E2E2E2E2E2E2E2E2E2E2E2E2E2
310
E2E2F5E2E2E2E2E2E2E2E2E2E2E2E2E2E2E2E2E2E2E2E2F5F5E2E2E2E2E2E2E2E2E2E2E2E2E2E2E2E2E2E2E2E2F5E2E2E2E2E2E2E2E2E2E2E2E2E2E2E2E2E2E2E2E2E2E2E2E2E2E2E2E2E2E2E2E2E2E2E2E2E2E2E2E2E2E2E2E2E2E2E2E2E2E2E2E2E2E2E2E2E2E2E2E2E2E2E2E2E2E2E2E2E2E2E2E2E2E2E2E2E2E2E2E2E2
310
E2E2E2E2E2E2E2E2E2E2E2E2E2E2E2E2E2E2E2E2E2E2E2E2E2E2E2E2E2E2E2E2E2E2E2E2E2E2E2E2E2E2E2E2E2E2E2E2E2E2E2E2E2E2E2F5E2E2E2E2E2E2E2E2E2E2E2E2E2E2E2E2E2E2E2E2F5F5E2E2E2E2E2E2E2E2E2E2E2E2E2E2E2E2E2E2E2E2F5E2E2E2E2E2E2E2E2E2E2E2E2E2E2E2E2E2E2E2E2E2E2E2E2E2E2E2E2
310
E2E2E2E2E2E2E2E2E2E2E2E2E2E2E2E2E2E2E2E2E2E2E2E2E2E2E2E2E2E2E2E2E2E2E2E2E2E2E2E2E2E2E2E2E2E2E2E2E2E2E2E2E2E2E2E2E2E2E2E2E2E2E2E2E2E2E2E2E2E2E2E2E2E2E2E2E2E2E2E2E2E2E2E2E2E2E2E2E2E2E2E2E2E2E2E2E2E2E2E2E2E2E2E2E2E2E2E2F5E2E2E2E2E2E2E2E2E2E2E2E2E2E2E2E2E2E2
310
E2E2F5F5E2E2E2E2E2E2E2E2E2E2E2E2E2E2E2E2E2E2E2E2F5E2E2E2E2E2E2E2E2E2E2E2E2E2E2E2E2E2E2E2E2E2E2E2E2E2E2E2E2E2E2E2E2E2E2E2E2E2E2E2E2E2E2E2E2E2E2E2E2E2E2E2E2E2E2E2E2E2E2E2E2E2E2E2E2E2E2E2E2E2E2E2E2E2E2E2E2E2E2E2E2E2E2E2E2E2E2E2E2E2E2E2E2E2E2E2E2E2E2E2E2E2E2
310
E2E2E2E2E2E2E2E2E2E2E2E2E2E2E2E2E2E2E2E2E2E2E2E2E2E2E2E2E2E2E2E2E2E2F5E2E2E2E2E2E2E2E2E2E2E2E2E2E2E2E2E2E2E2E2F5F5E2E2E2E2E2E2E2E2E2E2E2E2E2E2E2E2E2E2E2E2F5E2E2E2E2E2E2E2E2E2E2E2E2E2E2E2E2E2E2E2E2E2E2E2E2E2E2E2E2E2E2E2E2E2E2E2E2E2E2E2E2E2E2E2E2E2E2E2E2E2
310
E2E2E2E2E2E2E2E2E2E2E2E2E2E2E2E2E2E2E2E2E2E2E2E2E2E2E2E2E2E2E2E2E2E2E2E2E2E2E2E2E2E2E2E2E2E2E2E2E2E2E2E2E2E2E2E2E2E2E2E2E2E2E2E2E2E2E2E2E2E2E2E2E2E2E2E2E2E2E2E2E2E2E2E2E2E2E2F5E2E2E2E2E2E2E2E2E2E2E2E2E2E2E2E2E2E2E2E2F5F5E2E2E2E2E2E2E2E2E2E2E2E2E2E2E2E2E2
310
E2E2E2F5E2E2E2E2E2E2E2E2E2E2E2E2E2E2E2E2E2E2E2E2E2E2E2E2E2E2E2E2E2E2E2E2E2E2E2E2E2E2E2E2E2E2E2E2E2E2E2E2E2E2E2E2E2E2E2E2E2E2E2E2E2E2E2E2E2E2E2E2E2E2E2E2E2E2E2E2E2E2E2E2E2E2E2E2E2E2E2E2E2E2E2E2E2E2E2E2E2E2E2E2E2E2E2E2E2E2E2E2E2E2E2E2E2E2E2E2E2E2E2E2E2E2E2
310
E2E2E2E2E2E2E2E2E2E2E2E2E2F5E2E2E2E2E2E2E2E2E2E2E2E2E2E2E2E2E2E2E2E2F5F5E2E2E2E2E2E2E2E2E2E2E2E2E2E2E2E2E2E2E2E2F5E2E2E2E2E2E2E2E2E2E2E2E2E2E2E2E2E2E2E2E2E2E2E2E2E2E2E2E2E2E2E2E2E2E2E2E2E2E2E2E2E2E2E2E2E2E2E2E2E2E2E2E2E2E2E2E2E2E2E2E2E2E2E2E2E2E2E2E2E2E2
310
E2E2E2E2E2E2E2E2E2E2E2E2E2E2E2E2E2E2E2E2E2E2E2E2E2E2E2E2E2E2E2E2E2E2E2E2E2E2E2E2E2E2E2E2E2E2E2E2E2E2E2E2E2E2E2E2E2E2E2E2E2E2E2E2E2E2F5E2E2E2E2E2E2E2E2E2E2E2E2E2E2E2E2E2E2E2E2F5F5E2E2E2E2E2E2E2E2E2E2E2E2E2E2E2E2E2E2E2E2F5E2E2E2E2E2E2E2E2E2E2E2E2E2E2E2E2E2
310
E2E2E2E2E2E2E2E2E2E2E2E2E2E2E2E2E2E2E2E2E2E2E2E2E2E2E2E2E2E2E2E2E2E2E2E2E2E2E2E2E2E2E2E2E2E2E2E2E2E2E2E2E2E2E2E2E2E2E2E2E2E2E2E2E2E2E2E2E2E2E2E2E2E2E2E2E2E2E2E2E2E2E2E2E2E2E2E2E2E2E2E2E2E2E2E2E2E2E2E2E2E2E2E2E2E2E2E2E2E2E2E2E2E2E2E2E2E2E2F5E2E2E2E2E2E2E2
310
E2E2E2E2E2E2E2E2E2E2E2E2E2F5F5E2E2E2F5E2E2E2E2E2E2E2E2E2E2E2E2E2E2E2E2F5E2E2E2E2E2E2E2E2E2E2E2E2E2E2E2E2E2E2E2E2E2E2E2E2E2E2E2E2E2E2E2E2E2E2E2E2E2E2E2E2E2E2E2E2E2E2E2E2E2E2E2E2E2E2E2E2E2E2E2E2E2E2E2E2E2E2E2E2E2E2E2E2E2E2E2E2E2E2E2E2E2E2E2E2E2E2E2E2E2E2E2
310
E2E2E2E2E2E2E2E2E2E2E2E2E2E2E2E2E2E2E2E2E2E2E2E2E2E2E2E2E2E2E2E2E2E2E2E2E2E2E2E2E2E2E2E2E2F5E2E2E2E2E2E2E2E2E2E2E2E2E2E2E2E2F5E2E2E2F5F5E2E2E2F5E2E2E2E2E2E2E2E2E2E2E2E2E2E2E2E2F5E2E2E2E2E2E2E2E2E2E2E2E2E2E2E2E2E2E2E2E2E2E2E2E2E2E2E2E2E2E2E2E2E2E2E2E2E2E2
310
E2E2E2E2E2E2E2E2E2E2E2E2E2E2E2E2E2E2E2E2E2E2E2E2E2E2E2E2E2E2E2E2E2E2E2E2E2E2E2E2E2E2E2E2E2E2E2E2E2E2E2E2E2E2E2E2E2E2E2E2E2E2E2E2E2E2E2E2E2E2E2E2E2E2E2E2E2E2E2E2E2E2E2E2E2E2E2E2E2E2E2E2E2E2E2E2E2E2F5E2E2E2E2E2E2E2E2E2E2E2E2E2E2E2E2F5E2E2E2F5F5E2E2E2F5E2E2
310
E2E2E2E2E2E2E2E2E2E2E2E2E2E2F5E2E2E2E2E2E2E2E2E2E2E2E2E2E2E2E2E2E2E2E2E2E2E2E2E2E2E2E2E2E2E2E2E2E2E2E2E2E2E2E2E2E2E2E2E2E2E2E2E2E2E2E2E2E2E2E2E2E2E2E2E2E2E2E2E2E2E2E2E2E2E2E2E2E2E2E2E2E2E2E2E2E2E2E2E2E2E2E2E2E2E2E2E2E2E2E2E2E2E2E2E2E2E2E2E2E2E2E2E2E2E2E2
310
E2E2E2E2E2E2E2E2E2E2E2E2E2E2E2E2E2E2E2E2E2E2E2E2F5E2E2E2E2E2E2E2E2E2E2E2E2E2E2E2E2F5E2E2E2F5F5E2E2E2F5E2E2E2E2E2E2E2E2E2E2E2E2E2E2E2E2F5E2E2E2E2E2E2E2E2E2E2E2E2E2E2E2E2E2E2E2E2E2E2E2E2E2E2E2E2E2E2E2E2E2E2E2E2E2E2E2E2E2E2E2E2E2E2E2E2E2E2E2E2E2E2E2E2E2E2E2
310
E2E2E2E2E2E2E2E2E2E2E2E2E2E2E2E2E2E2E2E2E2E2E2E2E2E2E2E2E2E2E2E2E2E2E2E2E2E2E2E2E2E2E2E2E2E2E2E2E2E2E2E2E2E2E2E2E2E2E2E2E2E2E2E2E2E2E2E2E2E2E2E2E2E2E2E2E2F5E2E2E2E2E2E2E2E2E2E2E2E2E2E2E2E2F5E2E2E2F5F5E2E2E2F5E2E2E2E2E2E2E2E2E2E2E2E2E2E2E2E2F5E2E2E2E2E2E2
310
E2E2E2E2E2E2E2E2E2E2E2E2E2E2E2E2E2E2E2E2E2E2E2E2E2E2E2E2E2E2E2E2E2E2E2E2E2E2E2E2E2E2E2E2E2E2E2E2E2E2E2E2E2E2E2E2E2E2E2E2E2E2E2E2E2E2E2E2E2E2E2E2E2E2E2E2E2E2E2E2E2E2E2E2E2E2E2E2E2E2E2E2E2E2E2E2E2E2E2E2E2E2E2E2E2E2E2E2E2E2E2E2E2E2E2E2E2E2E2E2E2E2E2E2E2E2E2
310
E2E2E2F5E2E2E2E2E2E2E2E2E2E2E2E2E2E2E2E2F5E2E2E2F5F5E2E2E2F5E2E2E2E2E2E2E2E2E2E2E2E2E2E2E2E2F5E2E2E2E2E2E2E2E2E2E2E2E2E2E2E2E2E2E2E2E2E2E2E2E2E2E2E2E2E2E2E2E2E2E2E2E2E2E2E2E2E2E2E2E2E2E2E2E2E2E2E2E2E2E2E2E2E2E2E2E2E2E2E2E2E2E2E2E2E2E2E2E2E2E2E2E2E2E2E2E2
310
E2E2E2E2E2E2E2E2E2E2E2E2E2E2E2E2E2E2E2E2E2E2E2E2E2E2E2E2E2E2E2E2E2E2E2E2E2E2E2E2E2E2E2E2E2E2E2E2E2E2E2E2E2E2E2E2F5E2E2E2E2E2E2E2E2E2E2E2E2E2E2E2E2F5E2E2E2F5F5E2E2E2F5E2E2E2E2E2E2E2E2E2E2E2E2E2E2E2E2F5E2E2E2E2E2E2E2E2E2E2E2E2E2E2E2E2E2E2E2E2E2E2E2E2E2E2E2
310
E2E2E2E2E2E2E2E2E2E2E2E2E2E2E2E2E2E2E2E2E2E2E2E2E2E2E2E2E2E2E2E2E2E2E2E2E2E2E2E2E2E2E2E2E2E2E2E2E2E2E2E2E2E2E2E2E2E2E2E2E2E2E2E2E2E2E2E2E2E2E2E2E2E2E2E2E2E2E2E2E2E2E2E2E2E2E2E2E2E2E2E2E2E2E2E2E2E2E2E2E2E2E2E2E2E2E2E2E2F5E2E2E2E2E2E2E2E2E2E2E2E2E2E2E2E2F5
310
E2E2E2F5F5E2E2E2F5E2E2E2E2E2E2E2E2E2E2E2E2E2E2E2E2F5E2E2E2E2E2E2E2E2E2E2E2E2E2E2E2E2E2E2E2E2E2E2E2E2E2E2E2E2E2E2E2E2E2E2E2E2E2E2E2E2E2E2E2E2E2E2E2E2E2E2E2E2E2E2E2E2E2E2E2E2E2E2E2E2E2E2E2E2E2E2E2E2E2E2E2E2E2E2E2E2E2E2E2E2E2E2E2E2E2E2E2E2E2E2E2E2E2E2E2E2E2
310
E2E2E2E2E2E2E2E2E2E2E2E2E2E2E2E2E2E2E2E2E2E2E2E2E2E2E2E2E2E2E2E2E2E2E2F5E2E2E2E2E2E2E2E2E2E2E2E2E2E2E2E2F5E2E2E2F5F5E2E2E2F5E2E2E2E2E2E2E2E2E2E2E2E2E2E2E2E2F5E2E2E2E2E2E2E2E2E2E2E2E2E2E2E2E2E2E2E2E2E2E2E2E2E2E2E2E2E2E2E2E2E2E2E2E2E2E2E2E2E2E2E2E2E2E2E2E2
310
E2E2E2E2E2E2E2E2E2E2E2E2E2E2E2E2E2E2E2E2E2E2E2E2E2E2E2E2E2E2E2E2E2E2E2E2E2E2E2E2E2E2E2E2E2E2E2E2E2E2E2E2E2E2E2E2E2E2E2E2E2E2E2E2E2E2E2E2E2E2E2E2E2E2E2E2E2E2E2E2E2E2E2E2E2E2E2E2F5E2E2E2E2E2E2E2E2E2E2E2E2E2E2E2E2F5E2E2E2F5F5E2E2E2F5E2E2E2E2E2E2E2E2E2E2E2E2
310
E2E2E2E2F5E2E2E2E2E2E2E2E2E2E2E2E2E2E2E2E2E2E2E2E2E2E2E2E2E2E2E2E2E2E2E2E2E2E2E2E2E2E2E2E2E2E2E2E2E2E2E2E2E2E2E2E2E2E2E2E2E2E2E2E2E2E2E2E2E2E2E2E2E2E2E2E2E2E2E2E2E2E2E2E2E2E2E2E2E2E2E2E2E2E2E2E2E2E2E2E2E2E2E2E2E2E2E2E2E2E2E2E2E2E2E2E2E2E2E2E2E2E2E2E2E2E2
310
E2E2E2E2E2E2E2E2E2E2E2E2E2E2F5E2E2E2E2E2E2E2E2E2E2E2E2E2E2E2E2F5E2E2E2F5F5E2E2E2F5E2E2E2E2E2E2E2E2E2E2E2E2E2E2E2E2F5E2E2E2E2E2E2E2E2E2E2E2E2E2E2E2E2E2E2E2E2E2E2E2E2E2E2E2E2E2E2E2E2E2E2E2E2E2E2E2E2E2E2E2E2E2E2E2E2E2E2E2E2E2E2E2E2E2E2E2E2E2E2E2E2E2E2E2E2E2
310
E2E2E2E2E2E2E2E2E2E2E2E2E2E2E2E2E2E2E2E2E2E2E2E2E2E2E2E2E2E2E2E2E2E2E2E2E2E2E2E2E2E2E2E2E2E2E2E2E2E2E2E2E2E2E2E2E2E2E2E2E2E2E2E2E2E2E2F5E2E2E2E2E2E2E2E2E2E2E2E2E2E2E2E2F5E2E2E2F5F5E2E2E2F5E2E2E2E2E2E2E2E2E2E2E2E2E2E2E2E2F5E2E2E2E2E2E2E2E2E2E2E2E2E2E2E2E2
310
E2E2E2E2E2E2E2E2E2E2E2E2E2E2E2E2E2E2E2E2E2E2E2E2E2E2E2E2E2E2E2E2E2E2E2E2E2E2E2E2E2E2E2E2E2E2E2E2E2E2E2E2E2E2E2E2E2E2E2E2E2E2E2E2E2E2E2E2E2E2E2E2E2E2E2E2E2E2E2E2E2E2E2E2E2E2E2E2E2E2E2E2E2E2E2E2E2E2E2E2E2E2E2E2E2E2E2E2E2E2E2E2E2E2E2E2E2E2E2E2F5E2E2E2E2E2E2
310
E2E2E2E2E2E2E2E2E2E2F5E2E2E2F5F5E2E2E2F5E2E2E2E2E2E2E2E2E2E2E2E2E2E2E2E2F5E2E2E2E2E2E2E2E2E2E2E2E2E2E2E2E2E2E2E2E2E2E2E2E2E2E2E2E2E2E2E2E2E2E2E2E2E2E2E2E2E2E2E2E2E2E2E2E2E2E2E2E2E2E2E2E2E2E2E2E2E2E2E2E2E2E2E2E2E2E2E2E2E2E2E2E2E2E2E2E2E2E2E2E2E2E2E2E2E2E2
310
E2E2E2E2E2E2E2E2E2E2E2E2E2E2E2E2E2E2E2E2E2E2E2E2E2E2E2E2E2E2E2E2E2E2E2E2E2E2E2E2E2E2E2E2E2E2F5E2E2E2E2E2E2E2E2E2E2E2E2E2E2E2E2F5E2E2E2F5F5E2E2E2F5E2E2E2E2E2E2E2E2E2E2E2E2E2E2E2E2F5E2E2E2E2E2E2E2E2E2E2E2E2E2E2E2E2E2E2E2E2E2E2E2E2E2E2E2E2E2E2E2E2E2E2E2E2E2
310
E2E2E2E2E2E2E2E2E2E2E2E2E2E2E2E2E2E2E2E2E2E2E2E2E2E2E2E2E2E2E2E2E2E2E2E2E2E2E2E2E2E2E2E2E2E2E2E2E2E2E2E2E2E2E2E2E2E2E2E2E2E2E2E2E2E2E2E2E2E2E2E2E2E2E2E2E2E2E2E2E2E2E2E2E2E2E2E2E2E2E2E2E2E2E2E2E2E2E2F5E2E2E2E2E2E2E2E2E2E2E2E2E2E2E2E2F5E2E2E2F5F5E2E2E2F5E2
310
E2E2E2E2E2E2E2E2E2E2E2E2E2E2E2F5E2E2E2E2E2E2E2E2E2E2E2E2E2E2E2E2E2E2E2E2E2E2E2E2E2E2E2E2E2E2E2E2E2E2E2E2E2E2E2E2E2E2E2E2E2E2E2E2E2E2E2E2E2E2E2E2E2E2E2E2E2E2E2E2E2E2E2E2E2E2E2E2E2E2E2E2E2E2E2E2E2E2E2E2E2E2E2E2E2E2E2E2E2E2E2E2E2E2E2E2E2E2E2E2E2E2E2E2E2E2E2
310
E2E2E2E2E2E2E2E2E2E2E2E2E2E2E2E2E2E2E2E2E2E2E2E2E2F5E2E2E2E2E2E2E2E2E2E2E2E2E2E2E2E2F5E2E2E2F5F5E2E2E2F5E2E2E2E2E2E2E2E2E2E2E2E2E2E2E2E2F5E2E2E2E2E2E2E2E2E2E2E2E2E2E2E2E2E2E2E2E2E2E2E2E2E2E2E2E2E2E2E2E2E2E2E2E2E2E2E2E2E2E2E2E2E2E2E2E2E2E2E2E2E2E2E2E2E2E2
310
E2E2E2E2E2E2E2E2E2E2E2E2E2E2E2E2E2E2E2E2E2E2E2E2E2E2E2E2E2E2E2E2E2E2E2E2E2E2E2E2E2E2E2E2E2E2E2E2E2E2E2E2E2E2E2E2E2E2E2E2E2E2E2E2E2E2E2E2E2E2E2E2E2E2E2E2E2E2F5E2E2E2E2E2E2E2E2E2E2E2E2E2E2E2E2F5E2E2E2F5F5E2E2E2F5E2E2E2E2E2E2E2E2E2E2E2E2E2E2E2E2F5E2E2E2E2E2
310
E2E2E2E2E2E2E2E2E2E2E2E2E2E2E2E2E2E2E2E2E2E2E2E2E2E2E2E2E2E2E2E2E2E2E2E2E2E2E2E2E2E2E2E2E2E2E2E2E2E2E2E2E2E2E2E2E2E2E2E2E2E2E2E2E2E2E2E2E2E2E2E2E2E2E2E2E2E2E2E2E2E2E2E2E2E2E2E2E2E2E2E2E2E2E2E2E2E2E2E2E2E2E2E2E2E2E2E2E2E2E2E2E2E2E2E2E2E2E2E2E2E2E2E2E2E2E2
310
E2E2E2E2F5E2E2E2E2E2E2E2E2E2E2E2E2E2E2E2E2F5E2E2E2F5F5E2E2E2E2E2E2E2E2E2E2E2E2E2E2E2E2E2E2E2E2F5E2E2E2E2E2E2E2E2E2E2E2E2E2E2E2E2E2E2E2E2E2E2E2E2E2E2E2E2E2E2E2E2E2E2E2E2E2E2E2E2E2E2E2E2E2E2E2E2E2E2E2E2E2E2E2E2E2E2E2E2E2E2E2E2E2E2E2E2E2E2E2E2E2E2E2E2E2E2E2
310
E2E2E2E2E2E2E2E2E2E2E2E2E2E2E2E2E2E2E2E2E2E2E2E2E2E2E2E2E2E2E2E2E2E2E2E2E2E2E2E2E2E2E2E2E2E2E2E2E2E2E2E2E2E2E2E2E2F5E2E2E2E2E2E2E2E2E2E2E2E2E2E2E2E2E2E2E2E2F5F5E2E2E2E2E2E2E2E2E2E2E2E2E2E2E2E2E2E2E2E2F5E2E2E2E2E2E2E2E2E2E2E2E2E2E2E2E2E2E2E2E2E2E2E2E2E2E2
310
E2E2E2E2E2E2E2E2E2E2E2E2E2E2E2E2E2E2E2E2E2E2E2E2E2E2E2E2E2E2E2E2E2E2E2E2E2E2E2E2E2E2E2E2E2E2E2E2E2E2E2E2E2E2E2E2E2E2E2E2E2E2E2E2E2E2E2E2E2E2E2E2E2E2E2E2E2E2E2E2E2E2E2E2E2E2E2E2E2E2E2E2E2E2E2E2E2E2E2E2E2E2E2E2E2E2E2E2E2E2F5E2E2E2E2E2E2E2E2E2E2E2E2E2E2E2E2
310
E2E2E2E2F5F5E2E2E2E2E2E2E2E2E2E2E2E2E2E2E2E2E2E2E2E2F5E2E2E2E2E2E2E2E2E2E2E2E2E2E2E2E2E2E2E2E2E2E2E2E2E2E2E2E2E2E2E2E2E2E2E2E2E2E2E2E2E2E2E2E2E2E2E2E2E2E2E2E2E2E2E2E2E2E2E2E2E2E2E2E2E2E2E2E2E2E2E2E2E2E2E2E2E2E2E2E2E2E2E2E2E2E2E2E2E2E2E2E2E2E2E2E2E2E2E2E2
310
E2E2E2E2E2E2E2E2E2E2E2E2E2E2E2E2E2E2E2E2E2E2E2E2E2E2E2E2E2E2E2E2E2E2E2E2F5E2E2E2E2E2E2E2E2E2E2E2E2E2E2E2E2E2E2E2E2F5F5E2E2E2E2E2E2E2E2E2E2E2E2E2E2E2E2E2E2E2E2F5E2E2E2E2E2E2E2E2E2E2E2E2E2E2E2E2E2E2E2E2E2E2E2E2E2E2E2E2E2E2E2E2E2E2E2E2E2E2E2E2E2E2E2E2E2E2E2
310
E2E2E2E2E2E2E2E2E2E2E2E2E2E2E2E2E2E2E2E2E2E2E2E2E2E2E2E2E2E2E2E2E2E2E2E2E2E2E2E2E2E2E2E2E2E2E2E2E2E2E2E2E2E2E2E2E2E2E2E2E2E2E2E2E2E2E2E2E2E2E2E2E2E2E2E2E2E2E2E2E2E2E2E2E2E2E2E2E2F5E2E2E2E2E2E2E2E2E2E2E2E2E2E2E2E2E2E2E2E2F5F5E2E2E2E2E2E2E2E2E2E2E2E2E2E2E2
310
E2E2E2E2E2F5F5F5F5F5F5F5F5F5F5F5F5F5F5F5F5F5F5F5F5F5F5F5F5F5F5F5F5F5F5F5F5F5F5F5F5F5F5F5F5F5F5F5F5F5F5F5F5F5F5F5F5F5F5F5F5F5F5F5F5F5F5F5F5F5F5F5F5F5F5F5F5F5F5F5F5F5F5F5F5F5F5F5F5F5F5F5F5F5F5F5F5F5F5F5F5F5F5F5F5F5F5F5F5F5F5F5F5F5F5F5F5F5F5F5F5F5F5F5F5F5F5
310
F5F5F5F5F5F5F5F5F5F5F5F5F5F5F5F5E2E2E2E2E2E2E2E2E2E2E2E2E2E2E2E2E2E2E2E2F5F5E2E2E2E2E2E2E2E2E2E2E2E2E2E2E2E2E2E2E2E2E2E2E2E2E2E2E2E2E2E2E2E2E2E2E2E2E2E2E2E2E2E2E2E2E2E2E2E2E2E2E2E2E2E2E2E2E2E2E2E2E2E2E2E2E2E2E2E2E2E2E2E2E2E2E2E2E2E2E2E2E2E2E2E2E2E2E2E2E2
310
E2E2E2E2E2E2E2E2E2E2E2E2E2E2E2E2E2E2E2E2E2E2E2E2E2E2E2E2E2E2E2E2E2E2E2E2E2E2E2E2E2E2E2E2E2E2E2E2E2E2E2E2E2E2E2E2E2E2E2E2E2E2E2E2E2E2E2E2E2E2E2E2E2E2E2E2E2E2E2E2E2E2E2E2E2E2E2E2E2F5F5E2E2E2E2E2E2E2E2E2E2E2E2E2E2E2E2E2E2E2E2E2E2E2E2E2E2E2E2E2E2E2E2E2E2E2E2
310
E2E2E2E2E2E2E2E2E2E2E2E2E2E2E2E2E2E2E2E2E2E2E2E2E2E2E2E2E2E2E2E2E2E2E2E2E2E2E2E2E2E2E2E2E2E2E2E2E2E2E2E2E2E2E2E2E2E2E2E2E2E2E2E2E2E2E2E2E2E2E2E2E2E2E2E2E2E2E2E2E2E2E2E2E2E2E2E2E2E2E2E2E2E2E2E2E2E2E2E2E2E2E2E2E2E2E2E2E2E2E2E2E2E2E2E2E2E2E2E2E2E2E2E2E2E2E2
310
E2E2E2E2E2E2E2E2E2E2E2E2E2E2E2F5F5E2E2E2E2E2E2E2E2E2E2E2E2E2E2E2E2E2E2E2E2E2E2E2E2E2E2E2E2E2E2E2E2E2E2E2E2E2E2E2E2E2E2E2E2E2E2E2E2E2E2E2E2E2E2E2E2E2E2E2E2E2E2E2E2E2E2E2E2E2E2E2E2E2E2E2E2E2E2E2E2E2E2E2E2E2E2E2E2E2E2E2E2E2E2E2E2E2E2E2E2E2E2E2E2E2E2E2E2E2E2
310
E2E2E2E2E2E2E2E2E2E2E2E2E2E2E2E2E2E2E2E2E2E2E2E2E2E2E2E2E2E2E2E2E2E2E2E2E2E2E2E2E2E2E2E2E2E2E2E2E2E2E2E2E2E2E2E2E2E2E2E2E2E2E2E2E2E2E2E2F5F5E2E2E2E2E2E2E2E2E2E2E2E2E2E2E2E2E2E2E2E2E2E2E2E2E2E2E2E2E2E2E2E2E2E2E2E2E2E2E2E2E2E2E2E2E2E2E2E2E2E2E2E2E2E2E2E2E2
310
E2E2E2E2E2E2E2E2E2E2E2E2E2E2E2E2E2E2E2E2E2E2E2E2E2E2E2E2E2E2E2E2E2E2E2E2E2E2E2E2E2E2E2E2E2E2E2E2E2E2E2E2E2E2E2E2E2E2E2E2E2E2E2E2E2E2E2E2E2E2E2E2E2E2E2E2E2E2E2E2E2E2E2E2E2E2E2E2E2E2E2E2E2E2E2E2E2E2E2E2E2E2E2E2E2E2E2E2E2E2E2E2E2E2E2E2E2E2E2E2E2F5F5E2E2E2F5
310
E2E2E2E2E2E2E2E2E2E2E2E2E2E2E2E2E2E2E2E2E2E2E2E2E2E2E2E2E2E2E2E2E2E2E2E2E2E2E2E2E2E2E2E2E2E2E2E2E2E2E2E2E2E2E2E2E2E2E2E2E2E2E2E2E2E2E2E2E2E2E2E2E2E2E2E2E2E2E2E2E2E2E2E2E2E2E2E2E2E2E2E2E2E2E2E2E2E2E2E2E2E2E2E2E2E2E2E2E2E2E2E2E2E2E2E2E2E2E2E2E2E2E2E2E2E2E2
310
E2E2E2E2E2E2E2E2E2E2E2E2E2E2E2E2E2E2E2E2E2E2E2E2E2E2E2E2E2E2E2E2E2E2E2E2E2E2E2E2E2E2E2F5E2E2E2F5F5E2E2E2F5E2E2E2E2E2E2E2E2E2E2E2E2E2E2E2E2E2E2E2E2E2E2E2E2E2E2E2E2E2E2E2E2E2E2E2E2E2E2E2E2E2E2E2E2E2E2E2E2E2E2E2E2E2E2E2E2E2E2E2E2E2E2E2E2E2E2E2E2E2E2E2E2E2E2
310
E2E2E2E2E2E2E2E2E2E2E2E2E2E2E2E2E2E2E2E2E2E2E2E2E2E2E2E2E2E2E2E2E2E2E2E2E2E2E2E2E2E2E2E2E2E2E2E2E2E2E2E2E2E2E2E2E2E2E2E2E2E2E2E2E2E2E2E2E2E2E2E2E2E2E2E2E2E2E2E2E2E2E2E2E2E2E2E2E2E2E2E2E2E2E2E2F5E2E2E2F5F5E2E2E2F5E2E2E2E2E2E2E2E2E2E2E2E2E2E2E2E2E2E2E2E2E2
310
E2E2E2E2E2E2E2E2E2E2E2E2E2E2E2E2E2E2E2E2E2E2E2E2E2E2E2E2E2E2E2E2E2E2E2E2E2E2E2E2E2E2E2E2E2E2E2E2E2E2E2E2E2E2E2E2E2E2E2E2E2E2E2E2E2E2E2E2E2E2E2E2E2E2E2E2E2E2E2E2E2E2E2E2E2E2E2E2E2E2E2E2E2E2E2E2E2E2E2E2E2E2E2E2E2E2E2E2E2E2E2E2E2E2E2E2E2E2E2E2E2E2E2E2E2E2E2
310
E2E2E2E2E2E2E2E2E2E2E2E2E2E2E2E2E2E2E2E2E2E2F5E2E2E2F5F5E2E2E2F5E2E2E2E2E2E2E2E2E2E2E2E2E2E2E2E2E2E2E2E2E2E2E2E2E2E2E2E2E2E2E2E2E2E2E2E2E2E2E2E2E2E2E2E2E2E2E2E2E2E2E2E2E2E2E2E2E2E2E2E2E2E2E2E2E2E2E2E2E2E2E2E2E2E2E2E2E2E2E2E2E2E2E2E2E2E2E2E2E2E2E2E2E2E2E2
310
E2E2E2E2E2E2E2E2E2E2E2E2E2E2E2E2E2E2E2E2E2E2E2E2E2E2E2E2E2E2E2E2E2E2E2E2E2E2E2E2E2E2E2E2E2E2E2E2E2E2E2E2E2E2E2E2E2E2E2E2E2E2E2E2E2E2E2E2E2E2E2E2E2E2E2F5E2E2E2F5F5E2E2E2F5E2E2E2E2E2E2E2E2E2E2E2E2E2E2E2E2E2E2E2E2E2E2E2E2E2E2E2E2E2E2E2E2E2E2E2E2E2E2E2E2E2E2
310
E2E2E2E2E2E2E2E2E2E2E2E2E2E2E2E2E2E2E2E2E2E2E2E2E2E2E2E2E2E2E2E2E2E2E2E2E2E2E2E2E2E2E2E2E2E2E2E2E2E2E2E2E2E2E2E2E2E2E2E2E2E2E2E2E2E2E2E2E2E2E2E2E2E2E2E2E2E2E2E2E2E2E2E2E2E2E2E2E2E2E2E2E2E2E2E2E2E2E2E2E2E2E2E2E2E2E2E2E2E2E2E2E2E2E2E2E2E2E2E2E2E2E2E2E2E2E2
310
E2F5E2E2E2F5F5E2E2E2F5E2E2E2E2E2E2E2E2E2E2E2E2E2E2E2E2E2E2E2E2E2E2E2E2E2E2E2E2E2E2E2E2E2E2E2E2E2E2E2E2E2E2E2E2E2E2E2E2E2E2E2E2E2E2E2E2E2E2E2E2E2E2E2E2E2E2E2E2E2E2E2E2E2E2E2E2E2E2E2E2E2E2E2E2E2E2E2E2E2E2E2E2E2E2E2E2E2E2E2E2E2E2E2E2E2E2E2E2E2E2E2E2E2E2E2E2
310
E2E2E2E2E2E2E2E2E2E2E2E2E2E2E2E2E2E2E2E2E2E2E2E2E2E2E2E2E2E2E2E2E2E2E2E2E2E2E2E2E2E2E2E2E2E2E2E2E2E2E2E2E2E2F5E2E2E2F5F5E2E2E2F5E2E2E2E2E2E2E2E2E2E2E2E2E2E2E2E2E2E2E2E2E2E2E2E2E2E2E2E2E2E2E2E2E2E2E2E2E2E2E2E2E2E2E2E2E2E2E2E2E2E2E2E2E2E2E2E2E2E2E2E2E2E2E2
310
E2E2E2E2E2E2E2E2E2E2E2E2E2E2E2E2E2E2E2E2E2E2E2E2E2E2E2E2E2E2E2E2E2E2E2E2E2E2E2E2E2E2E2E2E2E2E2E2E2E2E2E2E2E2E2E2E2E2E2E2E2E2E2E2E2E2E2E2E2E2E2E2E2E2E2E2E2E2E2E2E2E2E2E2E2E2E2E2E2E2E2E2E2E2E2E2E2E2E2E2E2E2E2E2E2E2E2F5E2E2E2F5F5E2E2E2F5E2E2E2E2E2E2E2E2E2E2
310
E2E2E2E2E2E2E2E2E2E2E2E2E2E2E2E2E2E2E2E2E2E2E2E2E2E2E2E2E2E2E2E2E2E2E2E2E2E2E2E2E2E2E2E2E2E2E2E2E2E2E2E2E2E2E2E2E2E2E2E2E2E2E2E2E2E2E2E2E2E2E2E2E2E2E2E2E2E2E2E2E2E2E2E2E2E2E2E2E2E2E2E2E2E2E2E2E2E2E2E2E2E2E2E2E2E2E2E2E2E2E2E2E2E2E2E2E2E2E2E2E2E2E2E2E2E2E2
310
E2E2E2E2E2E2E2E2E2E2E2E2E2E2E2E2E2E2E2E2E2E2E2E2E2E2E2E2E2E2E2E2E2F5E2E2E2F5F5E2E2E2F5F5F5F5F5F5F5F5E2E2E2E2E2E2E2E2E2F5F5F5F5F5F5F5F5F5F5F5F5F5F5F5F5E2E2E2E2E2E2E2E2E2F5F5F5F5F5F5F5F5F5F5F5F5F5F5F5E2E2E2E2E2E2E2E2E2F5F5F5F5F5F5F5F5F5F5F5F5F5F5F5F5E2E2E2
310
E2E2E2E2E2F5F5F5F5F5F5F5F5F5F5F5F5F5F5F5F5E2E2E2E2E2E2E2E2E2F5F5F5F5F5F5F5F5F5F5F5F5F5F5F5E2E2E2E2E2E2E2E2E2F5F5F5F5F5F5F5F5F5F5F5F5F5F5F5F5E2E2E2E2E2E2E2E2E2F5F5F5F5F5F5F5F5E2E2E2F5F5E2E2E2E2E2E2E2E2E2E2E2E2E2E2E2E2E2E2E2E2E2E2E2E2E2E2E2E2E2E2E2E2E2E2E2
310
E2E2E2E2E2E2E2E2E2E2E2E2E2E2E2E2E2E2E2E2E2E2E2E2E2E2E2E2E2E2E2E2E2E2E2E2E2E2E2E2E2E2E2E2E2E2E2E2E2E2E2E2E2E2E2E2E2E2E2E2E2E2E2E2E2E2E2E2E2E2E2E2E2E2E2E2E2E2E2E2E2E2E2E2E2E2E2E2E2E2E2E2E2E2E2E2E2E2E2E2E2E2E2E2E2E2E2E2E2E2E2E2E2E2E2E2E2E2E2E2E2E2E2E2E2E2E2
310
E2E2E2E2E2E2E2E2E2E2E2E2E2E2E2E2F5F5E2E2E2E2E2E2E2E2E2E2E2E2E2E2E2E2E2E2E2E2E2E2E2E2E2E2E2E2E2E2E2E2E2E2E2E2E2E2E2E2E2E2E2E2E2E2E2E2E2E2E2E2E2E2E2E2E2E2E2E2E2E2E2E2E2E2E2E2E2E2E2E2E2E2E2E2E2E2E2E2E2E2E2E2E2E2E2E2E2E2E2E2E2E2E2E2E2E2E2E2E2E2E2E2E2E2E2E2E2
310
E2E2E2E2E2E2E2E2E2E2E2E2E2E2E2E2E2E2E2E2E2E2E2E2E2E2E2E2E2E2E2E2E2E2E2E2E2E2E2E2E2E2E2E2E2E2E2E2E2E2E2E2E2E2E2E2E2E2E2E2E2E2E2E2E2E2E2E2E2F5F5E2E2E2E2E2E2E2E2E2E2E2E2E2E2E2E2E2E2E2E2E2E2E2E2E2E2E2E2E2E2E2E2E2E2E2E2E2E2E2E2E2E2E2E2E2E2E2E2E2E2E2E2E2E2E2E2
310
E2E2E2E2E2E2E2E2E2E2E2E2E2E2E2E2E2E2E2E2E2E2E2E2E2E2E2E2E2E2E2E2E2E2E2E2E2E2E2E2E2E2E2E2E2E2E2E2E2E2E2E2E2E2E2E2E2E2E2E2E2E2E2E2E2E2E2E2E2E2E2E2E2E2E2E2E2E2E2E2E2E2E2E2E2E2E2E2E2E2E2E2E2E2E2E2E2E2E2E2E2E2E2E2E2E2E2E2E2E2E2E2E2E2E2E2E2E2E2E2E2E2F5F5E2E2E2
310
E2E2E2E2E2E2E2E2E2E2E2E2E2E2E2E2E2E2E2E2E2E2E2E2E2E2E2E2E2E2E2E2E2E2E2E2E2E2E2E2E2E2E2E2E2E2E2E2E2E2E2E2E2E2E2E2E2E2E2E2E2E2E2E2E2E2E2E2E2E2E2E2E2E2E2E2E2E2E2E2E2E2E2E2E2E2E2E2E2E2E2E2E2E2E2E2E2E2E2E2E2E2E2E2E2E2E2E2E2E2E2E2E2E2E2E2E2E2E2E2E2E2E2E2E2E2E2
310
E2E2E2E2E2E2E2E2E2E2E2E2E2E2E2E2E2E2E2E2E2E2E2E2E2E2E2E2E2E2E2E2E2E2E2E2E2E2E2E2E2E2E2E2E2E2E2E2F5
  0
XRECORD
  5
60E08
102
{ACAD_REACTORS
330
60E07
102
}
330
60E07
100
AcDbXrecord
280
     1
102
SHADEPLOT
 70
     0
102
SHADEPLOTRESLEVEL
 70
     2
102
SHADEPLOTCUSTOMDPI
 70
   300
  0
ENDSEC
  0
EOF
