  0
SECTION
  2
HEADER
  9
$ACADVER
  1
AC1015
  9
$ACADMAINTVER
 70
    20
  9
$DWGCODEPAGE
  3
ANSI_936
  9
$INSBASE
 10
0.0
 20
0.0
 30
0.0
  9
$EXTMIN
 10
-39.13915369868983
 20
-78.84083614788551
 30
0.0
  9
$EXTMAX
 10
323.3173296791858
 20
143.1351385985071
 30
0.0
  9
$LIMMIN
 10
0.0
 20
0.0
  9
$LIMMAX
 10
420.0
 20
297.0
  9
$ORTHOMODE
 70
     0
  9
$REGENMODE
 70
     1
  9
$FILLMODE
 70
     1
  9
$QTEXTMODE
 70
     0
  9
$MIRRTEXT
 70
     1
  9
$LTSCALE
 40
1.0
  9
$ATTMODE
 70
     1
  9
$TEXTSIZE
 40
3.5
  9
$TRACEWID
 40
1.0
  9
$TEXTSTYLE
  7
simplex
  9
$CLAYER
  8
0
  9
$CELTYPE
  6
ByLayer
  9
$CECOLOR
 62
   256
  9
$CELTSCALE
 40
1.0
  9
$DISPSILH
 70
     0
  9
$DIMSCALE
 40
0.0
  9
$DIMASZ
 40
3.5
  9
$DIMEXO
 40
0.0
  9
$DIMDLI
 40
0.38
  9
$DIMRND
 40
0.0
  9
$DIMDLE
 40
0.0
  9
$DIMEXE
 40
1.5
  9
$DIMTP
 40
0.0
  9
$DIMTM
 40
0.0
  9
$DIMTXT
 40
3.5
  9
$DIMCEN
 40
0.09
  9
$DIMTSZ
 40
0.0
  9
$DIMTOL
 70
     0
  9
$DIMLIM
 70
     0
  9
$DIMTIH
 70
     0
  9
$DIMTOH
 70
     0
  9
$DIMSE1
 70
     0
  9
$DIMSE2
 70
     0
  9
$DIMTAD
 70
     1
  9
$DIMZIN
 70
     8
  9
$DIMBLK
  1

  9
$DIMASO
 70
     1
  9
$DIMSHO
 70
     1
  9
$DIMPOST
  1

  9
$DIMAPOST
  1

  9
$DIMALT
 70
     0
  9
$DIMALTD
 70
     2
  9
$DIMALTF
 40
25.4
  9
$DIMLFAC
 40
1.0
  9
$DIMTOFL
 70
     0
  9
$DIMTVP
 40
0.0
  9
$DIMTIX
 70
     0
  9
$DIMSOXD
 70
     0
  9
$DIMSAH
 70
     0
  9
$DIMBLK1
  1

  9
$DIMBLK2
  1

  9
$DIMSTYLE
  2
\M+18352\M+18373\M+1815B - ISO-25
  9
$DIMCLRD
 70
   256
  9
$DIMCLRE
 70
   256
  9
$DIMCLRT
 70
   256
  9
$DIMTFAC
 40
1.0
  9
$DIMGAP
 40
2.299999999999998
  9
$DIMJUST
 70
     0
  9
$DIMSD1
 70
     0
  9
$DIMSD2
 70
     0
  9
$DIMTOLJ
 70
     1
  9
$DIMTZIN
 70
     8
  9
$DIMALTZ
 70
     0
  9
$DIMALTTZ
 70
     0
  9
$DIMUPT
 70
     0
  9
$DIMDEC
 70
     2
  9
$DIMTDEC
 70
     2
  9
$DIMALTU
 70
     2
  9
$DIMALTTD
 70
     2
  9
$DIMTXSTY
  7
simplex
  9
$DIMAUNIT
 70
     0
  9
$DIMADEC
 70
     0
  9
$DIMALTRND
 40
0.0
  9
$DIMAZIN
 70
     0
  9
$DIMDSEP
 70
    46
  9
$DIMATFIT
 70
     3
  9
$DIMFRAC
 70
     0
  9
$DIMLDRBLK
  1

  9
$DIMLUNIT
 70
     2
  9
$DIMLWD
 70
    -1
  9
$DIMLWE
 70
    -1
  9
$DIMTMOVE
 70
     0
  9
$LUNITS
 70
     2
  9
$LUPREC
 70
     4
  9
$SKETCHINC
 40
1.0
  9
$FILLETRAD
 40
0.8
  9
$AUNITS
 70
     0
  9
$AUPREC
 70
     0
  9
$MENU
  1
.
  9
$ELEVATION
 40
0.0
  9
$PELEVATION
 40
0.0
  9
$THICKNESS
 40
0.0
  9
$LIMCHECK
 70
     0
  9
$CHAMFERA
 40
10.0
  9
$CHAMFERB
 40
10.0
  9
$CHAMFERC
 40
20.0
  9
$CHAMFERD
 40
0.0
  9
$SKPOLY
 70
     0
  9
$TDCREATE
 40
2455489.391063368
  9
$TDUCREATE
 40
2455489.057730035
  9
$TDUPDATE
 40
2458517.805072812
  9
$TDUUPDATE
 40
2458517.471739479
  9
$TDINDWG
 40
2.2751684144
  9
$TDUSRTIMER
 40
2.2751140162
  9
$USRTIMER
 70
     1
  9
$ANGBASE
 50
0.0
  9
$ANGDIR
 70
     0
  9
$PDMODE
 70
     0
  9
$PDSIZE
 40
0.0
  9
$PLINEWID
 40
0.0
  9
$SPLFRAME
 70
     0
  9
$SPLINETYPE
 70
     6
  9
$SPLINESEGS
 70
     8
  9
$HANDSEED
  5
6048B
  9
$SURFTAB1
 70
     6
  9
$SURFTAB2
 70
     6
  9
$SURFTYPE
 70
     6
  9
$SURFU
 70
     6
  9
$SURFV
 70
     6
  9
$UCSBASE
  2

  9
$UCSNAME
  2

  9
$UCSORG
 10
0.0
 20
0.0
 30
0.0
  9
$UCSXDIR
 10
1.0
 20
0.0
 30
0.0
  9
$UCSYDIR
 10
0.0
 20
1.0
 30
0.0
  9
$UCSORTHOREF
  2

  9
$UCSORTHOVIEW
 70
     0
  9
$UCSORGTOP
 10
0.0
 20
0.0
 30
0.0
  9
$UCSORGBOTTOM
 10
0.0
 20
0.0
 30
0.0
  9
$UCSORGLEFT
 10
0.0
 20
0.0
 30
0.0
  9
$UCSORGRIGHT
 10
0.0
 20
0.0
 30
0.0
  9
$UCSORGFRONT
 10
0.0
 20
0.0
 30
0.0
  9
$UCSORGBACK
 10
0.0
 20
0.0
 30
0.0
  9
$PUCSBASE
  2

  9
$PUCSNAME
  2

  9
$PUCSORG
 10
0.0
 20
0.0
 30
0.0
  9
$PUCSXDIR
 10
1.0
 20
0.0
 30
0.0
  9
$PUCSYDIR
 10
0.0
 20
1.0
 30
0.0
  9
$PUCSORTHOREF
  2

  9
$PUCSORTHOVIEW
 70
     0
  9
$PUCSORGTOP
 10
0.0
 20
0.0
 30
0.0
  9
$PUCSORGBOTTOM
 10
0.0
 20
0.0
 30
0.0
  9
$PUCSORGLEFT
 10
0.0
 20
0.0
 30
0.0
  9
$PUCSORGRIGHT
 10
0.0
 20
0.0
 30
0.0
  9
$PUCSORGFRONT
 10
0.0
 20
0.0
 30
0.0
  9
$PUCSORGBACK
 10
0.0
 20
0.0
 30
0.0
  9
$USERI1
 70
     0
  9
$USERI2
 70
     0
  9
$USERI3
 70
     0
  9
$USERI4
 70
     0
  9
$USERI5
 70
     0
  9
$USERR1
 40
0.0
  9
$USERR2
 40
0.0
  9
$USERR3
 40
0.0
  9
$USERR4
 40
0.0
  9
$USERR5
 40
0.0
  9
$WORLDVIEW
 70
     1
  9
$SHADEDGE
 70
     3
  9
$SHADEDIF
 70
    70
  9
$TILEMODE
 70
     1
  9
$MAXACTVP
 70
    64
  9
$PINSBASE
 10
0.0
 20
0.0
 30
0.0
  9
$PLIMCHECK
 70
     0
  9
$PEXTMIN
 10
26.66999878883364
 20
20.31999878883365
 30
0.0
  9
$PEXTMAX
 10
240.0299890995025
 20
182.8799890995025
 30
0.0
  9
$PLIMMIN
 10
-6.350006103515625
 20
-6.349999904632567
  9
$PLIMMAX
 10
273.0499877929688
 20
209.5499939918518
  9
$UNITMODE
 70
     0
  9
$VISRETAIN
 70
     1
  9
$PLINEGEN
 70
     0
  9
$PSLTSCALE
 70
     1
  9
$TREEDEPTH
 70
  3020
  9
$CMLSTYLE
  2
Standard
  9
$CMLJUST
 70
     0
  9
$CMLSCALE
 40
20.0
  9
$PROXYGRAPHICS
 70
     1
  9
$MEASUREMENT
 70
     1
  9
$CELWEIGHT
370
    -1
  9
$ENDCAPS
280
     0
  9
$JOINSTYLE
280
     0
  9
$LWDISPLAY
290
     0
  9
$INSUNITS
 70
     4
  9
$HYPERLINKBASE
  1

  9
$STYLESHEET
  1

  9
$XEDIT
290
     1
  9
$CEPSNTYPE
380
     0
  9
$PSTYLEMODE
290
     1
  9
$FINGERPRINTGUID
  2
{601DDA01-5B13-4A4C-8F56-1333B78D855B}
  9
$VERSIONGUID
  2
{827AD235-A402-4C31-84F2-E55DCED885C1}
  9
$EXTNAMES
290
     1
  9
$PSVPSCALE
 40
0.0
  9
$OLESTARTUP
290
     0
  0
ENDSEC
  0
SECTION
  2
CLASSES
  0
CLASS
  1
ACDBDICTIONARYWDFLT
  2
AcDbDictionaryWithDefault
  3
ObjectDBX Classes
 90
        0
280
     0
281
     0
  0
CLASS
  1
ACDBPLACEHOLDER
  2
AcDbPlaceHolder
  3
ObjectDBX Classes
 90
        0
280
     0
281
     0
  0
CLASS
  1
LAYOUT
  2
AcDbLayout
  3
ObjectDBX Classes
 90
        0
280
     0
281
     0
  0
CLASS
  1
DICTIONARYVAR
  2
AcDbDictionaryVar
  3
ObjectDBX Classes
 90
        0
280
     0
281
     0
  0
CLASS
  1
TABLESTYLE
  2
AcDbTableStyle
  3
ObjectDBX Classes
 90
     2047
280
     0
281
     0
  0
CLASS
  1
SORTENTSTABLE
  2
AcDbSortentsTable
  3
ObjectDBX Classes
 90
        0
280
     0
281
     0
  0
CLASS
  1
DIMASSOC
  2
AcDbDimAssoc
  3
"AcDbDimAssoc|Product Desc:     AcDim ARX App For Dimension|Company:          Autodesk, Inc.|WEB Address:      www.autodesk.com"
 90
        0
280
     0
281
     0
  0
CLASS
  1
ACAD_EVALUATION_GRAPH
  2
AcDbEvalGraph
  3
ObjectDBX Classes
 90
    33921
280
     0
281
     0
  0
CLASS
  1
ACAECUSTOBJ
  2
AcAeEditorObj
  3
AcAeEditorObj
 90
    33792
280
     0
281
     0
  0
CLASS
  1
ACDB_DYNAMICBLOCKPURGEPREVENTER_VERSION
  2
AcDbDynamicBlockPurgePreventer
  3
ObjectDBX Classes
 90
    33921
280
     0
281
     0
  0
ENDSEC
  0
SECTION
  2
TABLES
  0
TABLE
  2
VPORT
  5
8
330
0
100
AcDbSymbolTable
 70
    29
  0
VPORT
  5
6047C
330
8
100
AcDbSymbolTableRecord
100
AcDbViewportTableRecord
  2
*Active
 70
     0
 10
0.0
 20
0.0
 11
1.0
 21
1.0
 12
13.11044285998741
 22
1.872186534888555
 13
0.0
 23
0.0
 14
10.0
 24
10.0
 15
10.0
 25
10.0
 16
0.0
 26
0.0
 36
1.0
 17
0.0
 27
0.0
 37
0.0
 40
208.7115616667304
 41
1.386206896551724
 42
50.0
 43
0.0
 44
0.0
 50
0.0
 51
0.0
 71
     0
 72
  1000
 73
     1
 74
     1
 75
     0
 76
     0
 77
     0
 78
     0
281
     0
 65
     1
110
0.0
120
0.0
130
0.0
111
1.0
121
0.0
131
0.0
112
0.0
122
1.0
132
0.0
 79
     0
146
0.0
  0
ENDTAB
  0
TABLE
  2
LTYPE
  5
5
330
0
100
AcDbSymbolTable
 70
     4
  0
LTYPE
  5
14
330
5
100
AcDbSymbolTableRecord
100
AcDbLinetypeTableRecord
  2
ByBlock
 70
     0
  3

 72
    65
 73
     0
 40
0.0
  0
LTYPE
  5
15
330
5
100
AcDbSymbolTableRecord
100
AcDbLinetypeTableRecord
  2
ByLayer
 70
     0
  3

 72
    65
 73
     0
 40
0.0
  0
LTYPE
  5
16
330
5
100
AcDbSymbolTableRecord
100
AcDbLinetypeTableRecord
  2
Continuous
 70
     0
  3
Solid line
 72
    65
 73
     0
 40
0.0
  0
LTYPE
  5
D7
330
5
100
AcDbSymbolTableRecord
100
AcDbLinetypeTableRecord
  2
HIDDEN
 70
     0
  3
Hidden __ __ __ __ __ __ __ __ __ __ __ __ __ _
 72
    65
 73
     2
 40
9.524999999999996
 49
6.349999999999997
 74
     0
 49
-3.174999999999998
 74
     0
  0
LTYPE
  5
D9
330
5
100
AcDbSymbolTableRecord
100
AcDbLinetypeTableRecord
  2
CENTER
 70
     0
  3
Center ____ _ ____ _ ____ _ ____ _ ____ _ ____
 72
    65
 73
     4
 40
50.8
 49
31.75
 74
     0
 49
-6.349999999999997
 74
     0
 49
6.349999999999997
 74
     0
 49
-6.349999999999997
 74
     0
  0
LTYPE
  5
35815
330
5
100
AcDbSymbolTableRecord
100
AcDbLinetypeTableRecord
  2
PHANTOM
 70
     0
  3
_____ _ _ _____ _ _ _____ _ _ _____
 72
    65
 73
     6
 40
0.8
 49
0.45
 74
     0
 49
-0.05
 74
     0
 49
0.1
 74
     0
 49
-0.05
 74
     0
 49
0.1
 74
     0
 49
-0.05
 74
     0
  0
ENDTAB
  0
TABLE
  2
LAYER
  5
2
102
{ACAD_XDICTIONARY
360
E2
102
}
330
0
100
AcDbSymbolTable
 70
    14
  0
LAYER
  5
10
330
2
100
AcDbSymbolTableRecord
100
AcDbLayerTableRecord
  2
0
 70
     0
 62
     7
  6
Continuous
370
    -3
390
F
  0
LAYER
  5
D1
330
2
100
AcDbSymbolTableRecord
100
AcDbLayerTableRecord
  2
1
 70
     0
 62
     4
  6
Continuous
370
    50
390
F
1001
AcAecLayerStandard
1000

1000

  0
LAYER
  5
D3
330
2
100
AcDbSymbolTableRecord
100
AcDbLayerTableRecord
  2
2
 70
     0
 62
     7
  6
Continuous
370
    25
390
F
1001
AcAecLayerStandard
1000

1000

  0
LAYER
  5
D4
330
2
100
AcDbSymbolTableRecord
100
AcDbLayerTableRecord
  2
3
 70
     0
 62
     1
  6
HIDDEN
370
    35
390
F
1001
AcAecLayerStandard
1000

1000

  0
LAYER
  5
D8
330
2
100
AcDbSymbolTableRecord
100
AcDbLayerTableRecord
  2
4
 70
     0
 62
     2
  6
CENTER
370
    25
390
F
1001
AcAecLayerStandard
1000

1000

  0
LAYER
  5
DA
330
2
100
AcDbSymbolTableRecord
100
AcDbLayerTableRecord
  2
6
 70
     0
 62
     5
  6
Continuous
370
    35
390
F
1001
AcAecLayerStandard
1000

1000

  0
LAYER
  5
DB
330
2
100
AcDbSymbolTableRecord
100
AcDbLayerTableRecord
  2
cut
 70
     0
 62
     1
  6
Continuous
370
    25
390
F
1001
AcAecLayerStandard
1000

1000

  0
LAYER
  5
DC
330
2
100
AcDbSymbolTableRecord
100
AcDbLayerTableRecord
  2
nocut
 70
     0
 62
     7
  6
Continuous
370
    25
390
F
1001
AcAecLayerStandard
1000

1000

  0
LAYER
  5
DD
330
2
100
AcDbSymbolTableRecord
100
AcDbLayerTableRecord
  2
sk1
 70
     0
 62
     4
  6
Continuous
370
    50
390
F
1001
AcAecLayerStandard
1000

1000

  0
LAYER
  5
DE
330
2
100
AcDbSymbolTableRecord
100
AcDbLayerTableRecord
  2
sk2
 70
     0
 62
     7
  6
Continuous
370
    25
390
F
1001
AcAecLayerStandard
1000

1000

  0
LAYER
  5
DF
330
2
100
AcDbSymbolTableRecord
100
AcDbLayerTableRecord
  2
sk3
 70
     0
 62
     1
  6
HIDDEN
370
    35
390
F
1001
AcAecLayerStandard
1000

1000

  0
LAYER
  5
E0
330
2
100
AcDbSymbolTableRecord
100
AcDbLayerTableRecord
  2
sk4
 70
     0
 62
     2
  6
CENTER
370
    25
390
F
1001
AcAecLayerStandard
1000

1000

  0
LAYER
  5
E1
330
2
100
AcDbSymbolTableRecord
100
AcDbLayerTableRecord
  2
sk6
 70
     0
 62
     5
  6
Continuous
370
    35
390
F
1001
AcAecLayerStandard
1000

1000

  0
LAYER
  5
31B6
330
2
100
AcDbSymbolTableRecord
100
AcDbLayerTableRecord
  2
Defpoints
 70
     0
 62
     7
  6
Continuous
290
     0
370
    -3
390
F
  0
ENDTAB
  0
TABLE
  2
STYLE
  5
3
330
0
100
AcDbSymbolTable
 70
    11
  0
STYLE
  5
11
330
3
100
AcDbSymbolTableRecord
100
AcDbTextStyleTableRecord
  2
Standard
 70
     0
 40
0.0
 41
1.0
 50
0.0
 71
     0
 42
2.5
  3
txt.shx
  4
@extfont2.shx
  0
STYLE
  5
D6
330
3
100
AcDbSymbolTableRecord
100
AcDbTextStyleTableRecord
  2

 70
     1
 40
0.0
 41
1.0
 50
0.0
 71
     0
 42
2.5
  3
ltypeshp.shx
  4

  0
STYLE
  5
24A
330
3
100
AcDbSymbolTableRecord
100
AcDbTextStyleTableRecord
  2
simplex
 70
     0
 40
3.5
 41
1.0
 50
0.0
 71
     0
 42
3.5
  3
txt.shx
  4

  0
STYLE
  5
69E
330
3
100
AcDbSymbolTableRecord
100
AcDbTextStyleTableRecord
  2
MX_NOTE_STANDARD
 70
     0
 40
0.0
 41
1.0
 50
0.0
 71
     0
 42
4.2
  3
txt.shx
  4
extfont.shx
  0
STYLE
  5
3524
330
3
100
AcDbSymbolTableRecord
100
AcDbTextStyleTableRecord
  2
TEXTSTYLE_2
 70
     0
 40
0.0
 41
0.775
 50
0.0
 71
     0
 42
0.2
  3
gdt
  4

  0
STYLE
  5
3525
330
3
100
AcDbSymbolTableRecord
100
AcDbTextStyleTableRecord
  2
TEXTSTYLE_3
 70
     0
 40
0.0
 41
0.75
 50
0.0
 71
     0
 42
0.2
  3
txt
  4

  0
STYLE
  5
3526
330
3
100
AcDbSymbolTableRecord
100
AcDbTextStyleTableRecord
  2
TEXTSTYLE_13
 70
     0
 40
0.0
 41
1.0
 50
0.0
 71
     0
 42
0.2
  3
txt
  4

  0
STYLE
  5
519A
330
3
100
AcDbSymbolTableRecord
100
AcDbTextStyleTableRecord
  2
TEXTSTYLE_14
 70
     0
 40
0.0
 41
1.0
 50
0.0
 71
     0
 42
0.2
  3
txt
  4

  0
STYLE
  5
6F72
330
3
100
AcDbSymbolTableRecord
100
AcDbTextStyleTableRecord
  2
TEXTSTYLE_4
 70
     0
 40
0.0
 41
0.75
 50
0.0
 71
     0
 42
0.2
  3
txt
  4

  0
STYLE
  5
6F73
330
3
100
AcDbSymbolTableRecord
100
AcDbTextStyleTableRecord
  2
TEXTSTYLE_17
 70
     0
 40
0.0
 41
1.0
 50
0.0
 71
     0
 42
0.2
  3
txt
  4

  0
STYLE
  5
FE12
330
3
100
AcDbSymbolTableRecord
100
AcDbTextStyleTableRecord
  2
TEXTSTYLE_12
 70
     0
 40
0.0
 41
1.0
 50
0.0
 71
     0
 42
0.2
  3
txt
  4

  0
ENDTAB
  0
TABLE
  2
VIEW
  5
6
330
0
100
AcDbSymbolTable
 70
     0
  0
ENDTAB
  0
TABLE
  2
UCS
  5
7
330
0
100
AcDbSymbolTable
 70
     0
  0
ENDTAB
  0
TABLE
  2
APPID
  5
9
330
0
100
AcDbSymbolTable
 70
    11
  0
APPID
  5
12
330
9
100
AcDbSymbolTableRecord
100
AcDbRegAppTableRecord
  2
ACAD
 70
     0
  0
APPID
  5
D2
330
9
100
AcDbSymbolTableRecord
100
AcDbRegAppTableRecord
  2
AcAecLayerStandard
 70
     0
  0
APPID
  5
E6
330
9
100
AcDbSymbolTableRecord
100
AcDbRegAppTableRecord
  2
ACAD_DSTYLE_DIMTEXT_FILL
 70
     0
  0
APPID
  5
4C84
330
9
100
AcDbSymbolTableRecord
100
AcDbRegAppTableRecord
  2
ACAD_EXEMPT_FROM_CAD_STANDARDS
 70
     0
  0
APPID
  5
3493E
330
9
100
AcDbSymbolTableRecord
100
AcDbRegAppTableRecord
  2
DCO15
 70
     0
  0
APPID
  5
4366A
330
9
100
AcDbSymbolTableRecord
100
AcDbRegAppTableRecord
  2
ACAUTHENVIRON
 70
     0
  0
APPID
  5
4366D
330
9
100
AcDbSymbolTableRecord
100
AcDbRegAppTableRecord
  2
AcDbDynamicBlockTrueName
 70
     0
  0
APPID
  5
4366E
330
9
100
AcDbSymbolTableRecord
100
AcDbRegAppTableRecord
  2
AcDbDynamicBlockGUID
 70
     0
  0
APPID
  5
43670
330
9
100
AcDbSymbolTableRecord
100
AcDbRegAppTableRecord
  2
AcDbBlockRepETag
 70
     0
  0
APPID
  5
45C9F
330
9
100
AcDbSymbolTableRecord
100
AcDbRegAppTableRecord
  2
ACAD_DSTYLE_DIMEXT_ENABLED
 70
     0
  0
APPID
  5
45CA0
330
9
100
AcDbSymbolTableRecord
100
AcDbRegAppTableRecord
  2
ACAD_DSTYLE_DIMEXT_LENGTH
 70
     0
  0
ENDTAB
  0
TABLE
  2
DIMSTYLE
  5
A
330
0
100
AcDbSymbolTable
 70
     9
100
AcDbDimStyleTable
 71
     2
340
1BF
340
27
  0
DIMSTYLE
105
27
330
A
100
AcDbSymbolTableRecord
100
AcDbDimStyleTableRecord
  2
ISO-25
 70
     0
 41
2.5
 42
0.625
 43
3.75
 44
1.25
 73
     0
 74
     0
 77
     1
 78
     8
140
2.5
141
2.5
143
0.03937007874016
147
0.625
171
     3
172
     1
271
     2
272
     2
274
     3
278
    44
283
     0
284
     8
340
11
  0
DIMSTYLE
105
1BF
102
{ACAD_REACTORS
330
603A3
330
601EC
330
601ED
330
601EE
330
601EF
330
601F0
330
601F1
102
}
330
A
100
AcDbSymbolTableRecord
100
AcDbDimStyleTableRecord
  2
\M+18352\M+18373\M+1815B - ISO-25
 70
     0
 40
0.0
 41
3.5
 42
0.0
 44
1.5
 73
     0
 74
     0
 77
     1
 78
     8
140
3.5
147
2.299999999999998
176
   256
177
   256
178
   256
271
     2
272
     2
284
     8
340
24A
371
    -1
372
    -1
  0
DIMSTYLE
105
69F
330
A
100
AcDbSymbolTableRecord
100
AcDbDimStyleTableRecord
  2
MXDIMSTYLE
 70
     0
 41
2.5
 42
0.5
 43
3.75
 44
1.5
 73
     0
 74
     0
 77
     1
 78
     8
140
4.2
141
2.5
143
0.03937
147
1.0
171
     4
172
     1
173
     1
271
     2
272
     2
274
     4
283
     0
288
     1
340
69E
341
697
343
697
344
697
  0
DIMSTYLE
105
3527
330
A
100
AcDbSymbolTableRecord
100
AcDbDimStyleTableRecord
  2
STANDARD
 70
     0
 41
3.0
 47
0.001
 48
0.001
 71
     1
 73
     0
 74
     0
 77
     1
 78
     8
140
4.0
271
     3
272
     3
284
     8
340
11
341
34B1
342
34B1
343
34B1
344
34B1
  0
DIMSTYLE
105
3528
330
A
100
AcDbSymbolTableRecord
100
AcDbDimStyleTableRecord
  2
DIMSTYLE_1
 70
     0
 41
3.0
 73
     0
 74
     0
 77
     1
 78
     8
140
4.0
271
     3
272
     3
284
     8
340
11
341
34B1
342
34B1
343
34B1
344
34B1
  0
DIMSTYLE
105
3529
330
A
100
AcDbSymbolTableRecord
100
AcDbDimStyleTableRecord
  2
DIMSTYLE_2
 70
     0
 41
3.0
 47
0.001
 48
0.001
 73
     0
 74
     0
 77
     1
 78
     8
140
4.0
271
     3
272
     3
284
     8
340
11
341
34B1
342
34B1
343
34B1
344
34B1
  0
DIMSTYLE
105
352A
330
A
100
AcDbSymbolTableRecord
100
AcDbDimStyleTableRecord
  2
DIMSTYLE_3
 70
     0
 41
3.0
 47
-0.1
 48
0.3
 71
     1
 73
     0
 74
     0
 77
     1
 78
     8
140
4.0
146
0.5
271
     3
272
     3
284
     8
340
11
341
34B1
342
34B1
343
34B1
344
34B1
  0
DIMSTYLE
105
352B
330
A
100
AcDbSymbolTableRecord
100
AcDbDimStyleTableRecord
  2
DIMSTYLE_4
 70
     0
 41
3.0
 47
0.1
 48
0.1
 71
     1
 73
     0
 74
     0
 77
     1
 78
     8
140
4.0
271
     3
272
     3
284
     8
340
11
341
34B1
342
34B1
343
34B1
344
34B1
  0
DIMSTYLE
105
27245
330
A
100
AcDbSymbolTableRecord
100
AcDbDimStyleTableRecord
  2
DIMSTYLE_5
 70
     0
 41
3.0
 47
0.001
 48
0.001
 73
     0
 74
     0
 77
     1
 78
     8
140
4.0
271
     3
272
     3
284
     8
340
11
341
34B1
342
34B1
343
34B1
344
34B1
  0
ENDTAB
  0
TABLE
  2
BLOCK_RECORD
  5
1
330
0
100
AcDbSymbolTable
 70
   328
  0
BLOCK_RECORD
  5
1F
102
{ACAD_XDICTIONARY
360
31EE
102
}
330
1
100
AcDbSymbolTableRecord
100
AcDbBlockTableRecord
  2
*Model_Space
340
22
  0
BLOCK_RECORD
  5
50
330
1
100
AcDbSymbolTableRecord
100
AcDbBlockTableRecord
  2
*Paper_Space
340
51
  0
BLOCK_RECORD
  5
55
330
1
100
AcDbSymbolTableRecord
100
AcDbBlockTableRecord
  2
*Paper_Space0
340
56
  0
BLOCK_RECORD
  5
680
102
{ACAD_XDICTIONARY
360
43668
102
}
330
1
100
AcDbSymbolTableRecord
100
AcDbBlockTableRecord
  2
zero block
340
0
102
{BLKREFS
331
68C
102
}
1001
ACAD
1000
DesignCenter Data
1002
{
1070
     1
1070
     4
1002
}
1001
AcDbDynamicBlockGUID
1000
{A89DF4EB-B2CB-439E-AC69-1EAC9F242D1C}
1001
AcDbBlockRepETag
1070
     1
1071
        7
  0
BLOCK_RECORD
  5
697
330
1
100
AcDbSymbolTableRecord
100
AcDbBlockTableRecord
  2
_OPEN30
340
0
  0
BLOCK_RECORD
  5
32F1
330
1
100
AcDbSymbolTableRecord
100
AcDbBlockTableRecord
  2
_None
340
0
  0
BLOCK_RECORD
  5
34B1
330
1
100
AcDbSymbolTableRecord
100
AcDbBlockTableRecord
  2
_OPEN
340
0
  0
BLOCK_RECORD
  5
5A185
330
1
100
AcDbSymbolTableRecord
100
AcDbBlockTableRecord
  2
*D100
340
0
  0
BLOCK_RECORD
  5
603A6
330
1
100
AcDbSymbolTableRecord
100
AcDbBlockTableRecord
  2
*D321
340
0
  0
BLOCK_RECORD
  5
603B3
330
1
100
AcDbSymbolTableRecord
100
AcDbBlockTableRecord
  2
*D322
340
0
  0
BLOCK_RECORD
  5
603BD
330
1
100
AcDbSymbolTableRecord
100
AcDbBlockTableRecord
  2
*D323
340
0
  0
BLOCK_RECORD
  5
603C9
330
1
100
AcDbSymbolTableRecord
100
AcDbBlockTableRecord
  2
*D324
340
0
  0
BLOCK_RECORD
  5
603D5
330
1
100
AcDbSymbolTableRecord
100
AcDbBlockTableRecord
  2
*D325
340
0
  0
BLOCK_RECORD
  5
603E1
330
1
100
AcDbSymbolTableRecord
100
AcDbBlockTableRecord
  2
*D326
340
0
  0
BLOCK_RECORD
  5
603EE
330
1
100
AcDbSymbolTableRecord
100
AcDbBlockTableRecord
  2
*D327
340
0
  0
ENDTAB
  0
ENDSEC
  0
SECTION
  2
BLOCKS
  0
BLOCK
  5
20
330
1F
100
AcDbEntity
  8
0
100
AcDbBlockBegin
  2
*Model_Space
 70
     0
 10
0.0
 20
0.0
 30
0.0
  3
*Model_Space
  1

  0
ENDBLK
  5
21
330
1F
100
AcDbEntity
  8
0
100
AcDbBlockEnd
  0
BLOCK
  5
52
330
50
100
AcDbEntity
 67
     1
  8
0
100
AcDbBlockBegin
  2
*Paper_Space
 70
     0
 10
0.0
 20
0.0
 30
0.0
  3
*Paper_Space
  1

  0
ENDBLK
  5
53
330
50
100
AcDbEntity
 67
     1
  8
0
100
AcDbBlockEnd
  0
BLOCK
  5
57
330
55
100
AcDbEntity
 67
     1
  8
0
100
AcDbBlockBegin
  2
*Paper_Space0
 70
     0
 10
0.0
 20
0.0
 30
0.0
  3
*Paper_Space0
  1

  0
VIEWPORT
  5
71
102
{ACAD_XDICTIONARY
360
60487
102
}
330
55
100
AcDbEntity
 67
     1
  8
0
100
AcDbViewport
 10
150.1652135264906
 20
101.599997546291
 30
0.0
 40
339.1973820494347
 41
164.5360435314421
 68
     0
 69
     0
 12
150.1652135264906
 22
101.599997546291
 13
0.0
 23
0.0
 14
10.0
 24
10.0
 15
10.0
 25
10.0
 16
0.0
 26
0.0
 36
1.0
 17
0.0
 27
0.0
 37
0.0
 42
50.0
 43
0.0
 44
0.0
 45
164.5360435314421
 50
0.0
 51
0.0
 72
  1000
 90
    32864
  1

281
     0
 71
     1
 74
     0
110
0.0
120
0.0
130
0.0
111
1.0
121
0.0
131
0.0
112
0.0
122
1.0
132
0.0
 79
     0
146
0.0
  0
VIEWPORT
  5
73
102
{ACAD_XDICTIONARY
360
60489
102
}
330
55
100
AcDbEntity
 67
     1
  8
0
100
AcDbViewport
 10
133.3499939441681
 20
101.5999939441681
 30
0.0
 40
213.3599903106689
 41
162.5599903106689
 68
     0
 69
     0
 12
210.0
 22
148.5
 13
0.0
 23
0.0
 14
10.0
 24
10.0
 15
10.0
 25
10.0
 16
0.0
 26
0.0
 36
1.0
 17
0.0
 27
0.0
 37
0.0
 42
50.0
 43
0.0
 44
0.0
 45
324.0677920111345
 50
0.0
 51
0.0
 72
   100
 90
    32864
  1

281
     0
 71
     1
 74
     0
110
0.0
120
0.0
130
0.0
111
1.0
121
0.0
131
0.0
112
0.0
122
1.0
132
0.0
 79
     0
146
0.0
  0
ENDBLK
  5
58
330
55
100
AcDbEntity
 67
     1
  8
0
100
AcDbBlockEnd
  0
BLOCK
  5
68A
330
680
100
AcDbEntity
  8
0
100
AcDbBlockBegin
  2
zero block
 70
     0
 10
0.0
 20
0.0
 30
0.0
  3
zero block
  1

  0
HATCH
  5
43661
330
680
100
AcDbEntity
  8
0
 62
     7
100
AcDbHatch
 10
0.0
 20
0.0
 30
0.0
210
0.0
220
0.0
230
1.0
  2
SOLID
 70
     1
 71
     0
 91
        2
 92
        7
 72
     1
 73
     1
 93
        3
 10
0.0
 20
0.9999999999999875
 42
0.4142135623730915
 10
-1.0
 20
0.0
 42
0.0
 10
0.0
 20
0.0
 42
0.0
 97
        0
 92
        7
 72
     1
 73
     1
 93
        3
 10
1.000000000000007
 20
0.0
 42
0.0
 10
0.0
 20
0.0
 42
0.0
 10
0.0
 20
-1.0
 42
0.4142135623730974
 97
        0
 75
     0
 76
     1
 47
0.0090601366782909
 98
        2
 10
-0.380591363650975
 20
0.4885804701532896
 10
0.4350764810977559
 20
-0.4536738423704725
1001
AcDbBlockRepETag
1070
     1
1071
        0
1005
43661
  0
LINE
  5
43662
330
680
100
AcDbEntity
  8
0
 62
     7
 48
0.2
100
AcDbLine
 10
-1.0
 20
0.0
 30
0.0
 11
1.000000000000007
 21
0.0
 31
0.0
1001
AcDbBlockRepETag
1070
     1
1071
        1
1005
43662
  0
LINE
  5
43663
330
680
100
AcDbEntity
  8
0
 62
     7
 48
0.2
100
AcDbLine
 10
0.0
 20
-1.0
 30
0.0
 11
0.0
 21
0.9999999999999875
 31
0.0
1001
AcDbBlockRepETag
1070
     1
1071
        2
1005
43663
  0
ARC
  5
43664
330
680
100
AcDbEntity
  8
0
 62
     7
 48
0.2
100
AcDbCircle
 10
0.0
 20
0.0
 30
0.0
 40
1.0
100
AcDbArc
 50
270.0
 51
0.0
1001
AcDbBlockRepETag
1070
     1
1071
        3
1005
43664
  0
ARC
  5
43665
330
680
100
AcDbEntity
  8
0
 62
     7
 48
0.2
100
AcDbCircle
 10
0.0
 20
0.0
 30
0.0
 40
1.0
100
AcDbArc
 50
0.0
 51
90.0
1001
AcDbBlockRepETag
1070
     1
1071
        4
1005
43665
  0
ARC
  5
43666
330
680
100
AcDbEntity
  8
0
 62
     7
 48
0.2
100
AcDbCircle
 10
0.0
 20
0.0
 30
0.0
 40
1.0
100
AcDbArc
 50
180.0
 51
270.0
1001
AcDbBlockRepETag
1070
     1
1071
        5
1005
43666
  0
ARC
  5
43667
330
680
100
AcDbEntity
  8
0
 62
     7
 48
0.2
100
AcDbCircle
 10
0.0
 20
0.0
 30
0.0
 40
1.0
100
AcDbArc
 50
90.0
 51
180.0
1001
AcDbBlockRepETag
1070
     1
1071
        6
1005
43667
  0
ENDBLK
  5
68B
330
680
100
AcDbEntity
  8
0
100
AcDbBlockEnd
  0
BLOCK
  5
698
330
697
100
AcDbEntity
  8
0
  6
ByBlock
 62
     0
370
    -2
100
AcDbBlockBegin
  2
_OPEN30
 70
     2
 10
0.0
 20
0.0
 30
0.0
  3
_OPEN30
  1

  0
LINE
  5
699
330
697
100
AcDbEntity
  8
0
  6
ByBlock
 62
     0
370
    -2
100
AcDbLine
 10
-1.0
 20
0.267949
 30
0.0
 11
0.0
 21
0.0
 31
0.0
  0
LINE
  5
69A
330
697
100
AcDbEntity
  8
0
  6
ByBlock
 62
     0
370
    -2
100
AcDbLine
 10
0.0
 20
0.0
 30
0.0
 11
-1.0
 21
-0.267949
 31
0.0
  0
LINE
  5
69B
330
697
100
AcDbEntity
  8
0
  6
ByBlock
 62
     0
370
    -2
100
AcDbLine
 10
0.0
 20
0.0
 30
0.0
 11
-1.0
 21
0.0
 31
0.0
  0
ENDBLK
  5
69C
330
697
100
AcDbEntity
  8
0
  6
ByBlock
 62
     0
370
    -2
100
AcDbBlockEnd
  0
BLOCK
  5
32F2
330
32F1
100
AcDbEntity
  8
0
100
AcDbBlockBegin
  2
_None
 70
     0
 10
0.0
 20
0.0
 30
0.0
  3
_None
  1

  0
ENDBLK
  5
32F3
330
32F1
100
AcDbEntity
  8
0
100
AcDbBlockEnd
  0
BLOCK
  5
34B2
330
34B1
100
AcDbEntity
  8
0
100
AcDbBlockBegin
  2
_OPEN
 70
     0
 10
0.0
 20
0.0
 30
0.0
  3
_OPEN
  1

  0
LINE
  5
34B3
330
34B1
100
AcDbEntity
  8
0
  6
ByBlock
 62
     0
100
AcDbLine
 10
0.0
 20
0.0
 30
0.0
 11
-1.0
 21
0.1766666667
 31
0.0
  0
LINE
  5
34B4
330
34B1
100
AcDbEntity
  8
0
  6
ByBlock
 62
     0
100
AcDbLine
 10
-1.0
 20
-0.1766666667
 30
0.0
 11
0.0
 21
0.0
 31
0.0
  0
LINE
  5
34B5
330
34B1
100
AcDbEntity
  8
0
  6
ByBlock
 62
     0
100
AcDbLine
 10
-1.0
 20
0.0
 30
0.0
 11
0.0
 21
0.0
 31
0.0
  0
ENDBLK
  5
34B6
330
34B1
100
AcDbEntity
  8
0
  6
ByBlock
 62
     0
100
AcDbBlockEnd
  0
BLOCK
  5
5A18F
330
5A185
100
AcDbEntity
  8
0
100
AcDbBlockBegin
  2
*D100
 70
     1
 10
0.0
 20
0.0
 30
0.0
  3
*D100
  1

  0
LINE
  5
5A1E4
330
5A185
100
AcDbEntity
  8
sk2
100
AcDbLine
 10
0.0
 20
-10.72500100000004
 30
0.0
 11
-0.0000000000000021
 21
-44.39459184851272
 31
0.0
  0
LINE
  5
5A1E5
330
5A185
100
AcDbEntity
  8
sk2
100
AcDbLine
 10
19.0
 20
-9.200000000000017
 30
0.0
 11
19.0
 21
-44.39459184851272
 31
0.0
  0
LINE
  5
5A1E6
330
5A185
100
AcDbEntity
  8
sk2
100
AcDbLine
 10
3.499999999999998
 20
-42.89459184851271
 30
0.0
 11
15.5
 21
-42.89459184851271
 31
0.0
  0
LINE
  5
5A1E7
330
5A185
100
AcDbEntity
  8
sk2
100
AcDbLine
 10
19.0
 20
-42.89459184851271
 30
0.0
 11
53.93333333333334
 21
-42.89459184851271
 31
0.0
  0
SOLID
  5
5A1E8
330
5A185
100
AcDbEntity
  8
sk2
100
AcDbTrace
 10
3.499999999999998
 20
-42.31125851517938
 30
0.0
 11
3.499999999999998
 21
-43.47792518184605
 31
0.0
 12
-0.000000000000002
 22
-42.89459184851271
 32
0.0
 13
-0.000000000000002
 23
-42.89459184851271
 33
0.0
  0
SOLID
  5
5A1E9
330
5A185
100
AcDbEntity
  8
sk2
100
AcDbTrace
 10
15.5
 20
-42.31125851517938
 30
0.0
 11
15.5
 21
-43.47792518184605
 31
0.0
 12
19.0
 22
-42.89459184851271
 32
0.0
 13
19.0
 23
-42.89459184851271
 33
0.0
  0
MTEXT
  5
5A1EA
330
5A185
100
AcDbEntity
  8
sk2
100
AcDbMText
 10
38.21666666666667
 20
-38.84459184851272
 30
0.0
 40
3.5
 41
0.0
 71
     5
 72
     1
  1
\A1;19 [.748"]
  7
simplex
 73
     1
 44
1.0
1001
ACAD
1000
MTEXTBEGIN
1070
    73
1070
     1
1070
    44
1040
1.0
1070
    74
1070
     0
1000
MTEXTEND
  0
POINT
  5
5A1EB
330
5A185
100
AcDbEntity
  8
Defpoints
 62
     0
100
AcDbPoint
 10
0.0
 20
-10.72500100000004
 30
0.0
  0
POINT
  5
5A1EC
330
5A185
100
AcDbEntity
  8
Defpoints
 62
     0
100
AcDbPoint
 10
19.0
 20
-9.200000000000017
 30
0.0
  0
POINT
  5
5A1ED
330
5A185
100
AcDbEntity
  8
Defpoints
 62
     0
100
AcDbPoint
 10
19.0
 20
-42.89459184851271
 30
0.0
  0
ENDBLK
  5
5A190
330
5A185
100
AcDbEntity
  8
0
100
AcDbBlockEnd
  0
BLOCK
  5
603B1
330
603A6
100
AcDbEntity
  8
0
100
AcDbBlockBegin
  2
*D321
 70
     1
 10
0.0
 20
0.0
 30
0.0
  3
*D321
  1

  0
LINE
  5
6042E
330
603A6
100
AcDbEntity
  8
2
100
AcDbLine
 10
50.80000000000001
 20
17.90718556146567
 30
0.0
 11
50.80000000000001
 21
42.38825889729127
 31
0.0
  0
LINE
  5
6042F
330
603A6
100
AcDbEntity
  8
2
100
AcDbLine
 10
35.30000000000007
 20
19.47300137289562
 30
0.0
 11
35.30000000000007
 21
42.38825889729127
 31
0.0
  0
LINE
  5
60430
330
603A6
100
AcDbEntity
  8
2
100
AcDbLine
 10
47.30000000000001
 20
40.88825889729128
 30
0.0
 11
38.80000000000007
 21
40.88825889729128
 31
0.0
  0
LINE
  5
60431
330
603A6
100
AcDbEntity
  8
2
100
AcDbLine
 10
35.30000000000007
 20
40.88825889729128
 30
0.0
 11
-18.73604887961086
 21
40.88825889729128
 31
0.0
  0
SOLID
  5
60432
330
603A6
100
AcDbEntity
  8
2
100
AcDbTrace
 10
47.30000000000001
 20
41.47159223062462
 30
0.0
 11
47.30000000000001
 21
40.30492556395794
 31
0.0
 12
50.80000000000001
 22
40.88825889729128
 32
0.0
 13
50.80000000000001
 23
40.88825889729128
 33
0.0
  0
SOLID
  5
60433
330
603A6
100
AcDbEntity
  8
2
100
AcDbTrace
 10
38.80000000000007
 20
41.47159223062462
 30
0.0
 11
38.80000000000007
 21
40.30492556395794
 31
0.0
 12
35.30000000000007
 22
40.88825889729128
 32
0.0
 13
35.30000000000007
 23
40.88825889729128
 33
0.0
  0
MTEXT
  5
60434
330
603A6
100
AcDbEntity
  8
2
100
AcDbMText
 10
6.022284453722477
 20
44.93825889729127
 30
0.0
 40
3.5
 41
0.0
 71
     5
 72
     1
  1
\A1;15.5 [.610"](MAX)
  7
simplex
 73
     1
 44
1.0
1001
ACAD
1000
MTEXTBEGIN
1070
    73
1070
     1
1070
    44
1040
1.0
1070
    74
1070
     0
1000
MTEXTEND
  0
POINT
  5
60435
330
603A6
100
AcDbEntity
  8
Defpoints
 62
     0
100
AcDbPoint
 10
50.80000000000001
 20
17.90718556146567
 30
0.0
  0
POINT
  5
60436
330
603A6
100
AcDbEntity
  8
Defpoints
 62
     0
100
AcDbPoint
 10
35.30000000000007
 20
19.47300137289562
 30
0.0
  0
POINT
  5
60437
330
603A6
100
AcDbEntity
  8
Defpoints
 62
     0
100
AcDbPoint
 10
35.30000000000007
 20
40.88825889729128
 30
0.0
  0
ENDBLK
  5
603B2
330
603A6
100
AcDbEntity
  8
0
100
AcDbBlockEnd
  0
BLOCK
  5
603BB
330
603B3
100
AcDbEntity
  8
0
100
AcDbBlockBegin
  2
*D322
 70
     1
 10
0.0
 20
0.0
 30
0.0
  3
*D322
  1

  0
LINE
  5
60438
330
603B3
100
AcDbEntity
  8
2
100
AcDbLine
 10
50.79999999999995
 20
19.04999999999997
 30
0.0
 11
67.71676661254787
 21
19.04999999999997
 31
0.0
  0
LINE
  5
60439
330
603B3
100
AcDbEntity
  8
2
100
AcDbLine
 10
66.21676661254787
 20
15.54999999999997
 30
0.0
 11
66.21676661254787
 21
-19.05000000000002
 31
0.0
  0
SOLID
  5
6043A
330
603B3
100
AcDbEntity
  8
2
100
AcDbTrace
 10
65.63343327921455
 20
15.54999999999997
 30
0.0
 11
66.8000999458812
 21
15.54999999999997
 31
0.0
 12
66.21676661254787
 22
19.04999999999997
 32
0.0
 13
66.21676661254787
 23
19.04999999999997
 33
0.0
  0
MTEXT
  5
6043B
330
603B3
100
AcDbEntity
  8
2
100
AcDbMText
 10
60.41676661254787
 20
-1.750000000000012
 30
0.0
 40
3.5
 41
0.0
 71
     2
 72
     1
  1
\A1;%%c38.1 [%%c1.500"]
  7
simplex
 11
0.0000000000000001
 21
1.0
 31
0.0
 73
     1
 44
1.0
1001
ACAD
1000
MTEXTBEGIN
1070
    73
1070
     1
1070
    44
1040
1.0
1070
    74
1070
     0
1000
MTEXTEND
  0
POINT
  5
6043C
330
603B3
100
AcDbEntity
  8
Defpoints
 62
     0
100
AcDbPoint
 10
50.79999999999995
 20
19.04999999999997
 30
0.0
  0
POINT
  5
6043D
330
603B3
100
AcDbEntity
  8
Defpoints
 62
     0
100
AcDbPoint
 10
50.79999999999995
 20
-19.05000000000001
 30
0.0
  0
POINT
  5
6043E
330
603B3
100
AcDbEntity
  8
Defpoints
 62
     0
100
AcDbPoint
 10
66.21676661254787
 20
-19.05000000000002
 30
0.0
  0
ENDBLK
  5
603BC
330
603B3
100
AcDbEntity
  8
0
100
AcDbBlockEnd
  0
BLOCK
  5
603C7
330
603BD
100
AcDbEntity
  8
0
100
AcDbBlockBegin
  2
*D323
 70
     1
 10
0.0
 20
0.0
 30
0.0
  3
*D323
  1

  0
LINE
  5
6043F
330
603BD
100
AcDbEntity
  8
sk2
100
AcDbLine
 10
1.499999999999971
 20
18.28999999999999
 30
0.0
 11
-32.0443906077653
 21
18.29
 31
0.0
  0
LINE
  5
60440
330
603BD
100
AcDbEntity
  8
sk2
100
AcDbLine
 10
1.499999999999971
 20
-18.29000000000002
 30
0.0
 11
-32.04439060776532
 21
-18.29000000000001
 31
0.0
  0
LINE
  5
60441
330
603BD
100
AcDbEntity
  8
sk2
100
AcDbLine
 10
-30.54439060776531
 20
14.79
 30
0.0
 11
-30.54439060776531
 21
-14.79000000000001
 31
0.0
  0
SOLID
  5
60442
330
603BD
100
AcDbEntity
  8
sk2
100
AcDbTrace
 10
-31.12772394109864
 20
14.79
 30
0.0
 11
-29.96105727443197
 21
14.79
 31
0.0
 12
-30.54439060776531
 22
18.29
 32
0.0
 13
-30.54439060776531
 23
18.29
 33
0.0
  0
SOLID
  5
60443
330
603BD
100
AcDbEntity
  8
sk2
100
AcDbTrace
 10
-31.12772394109864
 20
-14.79000000000001
 30
0.0
 11
-29.96105727443198
 21
-14.79000000000001
 31
0.0
 12
-30.54439060776531
 22
-18.29000000000001
 32
0.0
 13
-30.54439060776531
 23
-18.29000000000001
 33
0.0
  0
MTEXT
  5
60444
330
603BD
100
AcDbEntity
  8
sk2
100
AcDbMText
 10
-36.34439060776531
 20
-0.0000000000000083
 30
0.0
 40
3.5
 41
0.0
 71
     2
 72
     1
  1
\A1;%%c36.58 [%%c1.440"]
  7
simplex
 11
0.0000000000000001
 21
1.0
 31
0.0
 73
     1
 44
1.0
1001
ACAD
1000
MTEXTBEGIN
1070
    73
1070
     1
1070
    44
1040
1.0
1070
    74
1070
     0
1000
MTEXTEND
  0
POINT
  5
60445
330
603BD
100
AcDbEntity
  8
Defpoints
 62
     0
100
AcDbPoint
 10
1.499999999999971
 20
18.28999999999999
 30
0.0
  0
POINT
  5
60446
330
603BD
100
AcDbEntity
  8
Defpoints
 62
     0
100
AcDbPoint
 10
1.499999999999971
 20
-18.29000000000002
 30
0.0
  0
POINT
  5
60447
330
603BD
100
AcDbEntity
  8
Defpoints
 62
     0
100
AcDbPoint
 10
-30.54439060776531
 20
-18.29000000000001
 30
0.0
  0
ENDBLK
  5
603C8
330
603BD
100
AcDbEntity
  8
0
100
AcDbBlockEnd
  0
BLOCK
  5
603D3
330
603C9
100
AcDbEntity
  8
0
100
AcDbBlockBegin
  2
*D324
 70
     1
 10
0.0
 20
0.0
 30
0.0
  3
*D324
  1

  0
LINE
  5
60472
330
603C9
100
AcDbEntity
  8
sk2
100
AcDbLine
 10
1.0
 20
6.350000000000022
 30
0.0
 11
-16.98178308395836
 21
6.350000000000027
 31
0.0
  0
LINE
  5
60473
330
603C9
100
AcDbEntity
  8
sk2
100
AcDbLine
 10
0.9999999999999998
 20
-6.349999999999965
 30
0.0
 11
-16.98178308395836
 21
-6.349999999999961
 31
0.0
  0
LINE
  5
60474
330
603C9
100
AcDbEntity
  8
sk2
100
AcDbLine
 10
-15.48178308395836
 20
2.850000000000027
 30
0.0
 11
-15.48178308395836
 21
-2.849999999999961
 31
0.0
  0
LINE
  5
60475
330
603C9
100
AcDbEntity
  8
sk2
100
AcDbLine
 10
-15.48178308395836
 20
-6.349999999999961
 30
0.0
 11
-15.48178308395837
 21
-59.8792984070437
 31
0.0
  0
SOLID
  5
60476
330
603C9
100
AcDbEntity
  8
sk2
100
AcDbTrace
 10
-16.06511641729169
 20
2.850000000000027
 30
0.0
 11
-14.89844975062502
 21
2.850000000000026
 31
0.0
 12
-15.48178308395836
 22
6.350000000000027
 32
0.0
 13
-15.48178308395836
 23
6.350000000000027
 33
0.0
  0
SOLID
  5
60477
330
603C9
100
AcDbEntity
  8
sk2
100
AcDbTrace
 10
-16.06511641729169
 20
-2.849999999999961
 30
0.0
 11
-14.89844975062502
 21
-2.849999999999961
 31
0.0
 12
-15.48178308395836
 22
-6.349999999999961
 32
0.0
 13
-15.48178308395836
 23
-6.349999999999961
 33
0.0
  0
MTEXT
  5
60478
330
603C9
100
AcDbEntity
  8
sk2
100
AcDbMText
 10
-21.28178308395836
 20
-38.91263174037704
 30
0.0
 40
3.5
 41
0.0
 71
     2
 72
     1
  1
\A1;%%c12.7 [%%c.500"]
  7
simplex
 11
0.0000000000000001
 21
1.0
 31
0.0
 73
     1
 44
1.0
1001
ACAD
1000
MTEXTBEGIN
1070
    73
1070
     1
1070
    44
1040
1.0
1070
    74
1070
     0
1000
MTEXTEND
  0
POINT
  5
60479
330
603C9
100
AcDbEntity
  8
Defpoints
 62
     0
100
AcDbPoint
 10
1.0
 20
6.350000000000022
 30
0.0
  0
POINT
  5
6047A
330
603C9
100
AcDbEntity
  8
Defpoints
 62
     0
100
AcDbPoint
 10
0.9999999999999998
 20
-6.349999999999965
 30
0.0
  0
POINT
  5
6047B
330
603C9
100
AcDbEntity
  8
Defpoints
 62
     0
100
AcDbPoint
 10
-15.48178308395836
 20
-6.349999999999961
 30
0.0
  0
ENDBLK
  5
603D4
330
603C9
100
AcDbEntity
  8
0
100
AcDbBlockEnd
  0
BLOCK
  5
603DF
330
603D5
100
AcDbEntity
  8
0
100
AcDbBlockBegin
  2
*D325
 70
     1
 10
0.0
 20
0.0
 30
0.0
  3
*D325
  1

  0
LINE
  5
60451
330
603D5
100
AcDbEntity
  8
2
100
AcDbLine
 10
50.79999999999995
 20
17.37049567233635
 30
0.0
 11
50.79999999999995
 21
54.83791623404631
 31
0.0
  0
LINE
  5
60452
330
603D5
100
AcDbEntity
  8
2
100
AcDbLine
 10
0.0
 20
16.78999637159998
 30
0.0
 11
0.0000000000000023
 21
54.83791623404631
 31
0.0
  0
LINE
  5
60453
330
603D5
100
AcDbEntity
  8
2
100
AcDbLine
 10
47.29999999999995
 20
53.3379162340463
 30
0.0
 11
3.500000000000002
 21
53.3379162340463
 31
0.0
  0
SOLID
  5
60454
330
603D5
100
AcDbEntity
  8
2
100
AcDbTrace
 10
47.29999999999995
 20
53.92124956737964
 30
0.0
 11
47.29999999999995
 21
52.75458290071297
 31
0.0
 12
50.79999999999995
 22
53.3379162340463
 32
0.0
 13
50.79999999999995
 23
53.3379162340463
 33
0.0
  0
SOLID
  5
60455
330
603D5
100
AcDbEntity
  8
2
100
AcDbTrace
 10
3.500000000000002
 20
53.92124956737964
 30
0.0
 11
3.500000000000002
 21
52.75458290071297
 31
0.0
 12
0.0000000000000022
 22
53.3379162340463
 32
0.0
 13
0.0000000000000022
 23
53.3379162340463
 33
0.0
  0
MTEXT
  5
60456
330
603D5
100
AcDbEntity
  8
2
100
AcDbMText
 10
25.40000000000001
 20
59.1379162340463
 30
0.0
 40
3.5
 41
0.0
 71
     2
 72
     1
  1
\A1;50.8 [2.000"]
  7
simplex
 73
     1
 44
1.0
1001
ACAD
1000
MTEXTBEGIN
1070
    73
1070
     1
1070
    44
1040
1.0
1070
    74
1070
     0
1000
MTEXTEND
  0
POINT
  5
60457
330
603D5
100
AcDbEntity
  8
Defpoints
 62
     0
100
AcDbPoint
 10
50.79999999999995
 20
17.37049567233635
 30
0.0
  0
POINT
  5
60458
330
603D5
100
AcDbEntity
  8
Defpoints
 62
     0
100
AcDbPoint
 10
0.0
 20
16.78999637159998
 30
0.0
  0
POINT
  5
60459
330
603D5
100
AcDbEntity
  8
Defpoints
 62
     0
100
AcDbPoint
 10
0.0000000000000022
 20
53.3379162340463
 30
0.0
  0
ENDBLK
  5
603E0
330
603D5
100
AcDbEntity
  8
0
100
AcDbBlockEnd
  0
BLOCK
  5
603EC
330
603E1
100
AcDbEntity
  8
0
100
AcDbBlockBegin
  2
*D326
 70
     1
 10
0.0
 20
0.0
 30
0.0
  3
*D326
  1

  0
LINE
  5
6045A
330
603E1
100
AcDbEntity
  8
sk2
100
AcDbLine
 10
0.0
 20
-6.850000000000022
 30
0.0
 11
-0.000000000000002
 21
-38.9423067226
 31
0.0
  0
LINE
  5
6045B
330
603E1
100
AcDbEntity
  8
sk2
100
AcDbLine
 10
16.0
 20
-6.050000000000011
 30
0.0
 11
16.0
 21
-38.9423067226
 31
0.0
  0
LINE
  5
6045C
330
603E1
100
AcDbEntity
  8
sk2
100
AcDbLine
 10
3.499999999999998
 20
-37.4423067226
 30
0.0
 11
12.5
 21
-37.4423067226
 31
0.0
  0
LINE
  5
6045D
330
603E1
100
AcDbEntity
  8
sk2
100
AcDbLine
 10
16.0
 20
-37.4423067226
 30
0.0
 11
50.35000000000001
 21
-37.4423067226
 31
0.0
  0
SOLID
  5
6045E
330
603E1
100
AcDbEntity
  8
sk2
100
AcDbTrace
 10
3.499999999999998
 20
-36.85897338926667
 30
0.0
 11
3.499999999999998
 21
-38.02564005593334
 31
0.0
 12
-0.0000000000000019
 22
-37.4423067226
 32
0.0
 13
-0.0000000000000019
 23
-37.4423067226
 33
0.0
  0
SOLID
  5
6045F
330
603E1
100
AcDbEntity
  8
sk2
100
AcDbTrace
 10
12.5
 20
-36.85897338926667
 30
0.0
 11
12.5
 21
-38.02564005593334
 31
0.0
 12
16.0
 22
-37.4423067226
 32
0.0
 13
16.0
 23
-37.4423067226
 33
0.0
  0
MTEXT
  5
60460
330
603E1
100
AcDbEntity
  8
sk2
100
AcDbMText
 10
34.92500000000001
 20
-31.6423067226
 30
0.0
 40
3.5
 41
0.0
 71
     2
 72
     1
  1
\A1;16 [.630"]
  7
simplex
 73
     1
 44
1.0
1001
ACAD
1000
MTEXTBEGIN
1070
    73
1070
     1
1070
    44
1040
1.0
1070
    74
1070
     0
1000
MTEXTEND
  0
POINT
  5
60461
330
603E1
100
AcDbEntity
  8
Defpoints
 62
     0
100
AcDbPoint
 10
0.0
 20
-6.850000000000022
 30
0.0
  0
POINT
  5
60462
330
603E1
100
AcDbEntity
  8
Defpoints
 62
     0
100
AcDbPoint
 10
16.0
 20
-6.050000000000011
 30
0.0
  0
POINT
  5
60463
330
603E1
100
AcDbEntity
  8
Defpoints
 62
     0
100
AcDbPoint
 10
16.0
 20
-37.4423067226
 30
0.0
  0
ENDBLK
  5
603ED
330
603E1
100
AcDbEntity
  8
0
100
AcDbBlockEnd
  0
BLOCK
  5
603F6
330
603EE
100
AcDbEntity
  8
0
100
AcDbBlockBegin
  2
*D327
 70
     1
 10
0.0
 20
0.0
 30
0.0
  3
*D327
  1

  0
LINE
  5
6046B
330
603EE
100
AcDbEntity
  8
2
100
AcDbLine
 10
84.95254735592395
 20
48.38799221952396
 30
0.0
 11
53.34010766592215
 21
20.83698314017366
 31
0.0
  0
MTEXT
  5
6046C
330
603EE
100
AcDbEntity
  8
2
100
AcDbMText
 10
67.80467844938413
 20
38.81546017508022
 30
0.0
 40
3.5
 41
0.0
 71
     5
 72
     1
  1
\A1;R0.4 [R.016"]
  7
simplex
 11
0.7538737604928888
 21
0.6570192944201187
 31
0.0
 73
     1
 44
1.0
1001
ACAD
1000
MTEXTBEGIN
1070
    73
1070
     1
1070
    44
1040
1.0
1070
    74
1070
     0
1000
MTEXTEND
  0
SOLID
  5
6046D
330
603EE
100
AcDbEntity
  8
2
100
AcDbTrace
 10
52.95684641084375
 20
21.27674283379451
 30
0.0
 11
53.72336892100055
 21
20.39722344655281
 31
0.0
 12
50.70154950419704
 22
18.53741560970324
 32
0.0
 13
50.70154950419704
 23
18.53741560970324
 33
0.0
  0
LINE
  5
6046E
330
603EE
100
AcDbEntity
  8
2
100
AcDbLine
 10
50.30999999999997
 20
18.27460789193527
 30
0.0
 11
50.48999999999998
 21
18.27460789193527
 31
0.0
  0
LINE
  5
6046F
330
603EE
100
AcDbEntity
  8
2
100
AcDbLine
 10
50.39999999999998
 20
18.18460789193527
 30
0.0
 11
50.39999999999998
 21
18.36460789193528
 31
0.0
  0
POINT
  5
60470
330
603EE
100
AcDbEntity
  8
Defpoints
 62
     0
100
AcDbPoint
 10
50.70154950419704
 20
18.53741560970324
 30
0.0
  0
POINT
  5
60471
330
603EE
100
AcDbEntity
  8
Defpoints
 62
     0
100
AcDbPoint
 10
50.39999999999998
 20
18.27460789193527
 30
0.0
  0
ENDBLK
  5
603F7
330
603EE
100
AcDbEntity
  8
0
100
AcDbBlockEnd
  0
ENDSEC
  0
SECTION
  2
ENTITIES
  0
INSERT
  5
68C
330
1F
100
AcDbEntity
  8
0
100
AcDbBlockReference
  2
zero block
 10
0.0000000000000072
 20
0.0
 30
0.0
 50
180.0
  0
MTEXT
  5
601EB
330
1F
100
AcDbEntity
  8
sk6
100
AcDbMText
 10
-4.975423574256865
 20
77.6554827613403
 30
0.0
 40
5.0
 41
70.03712541027798
 71
     1
 72
     5
  1
AXD4000UR1502A
  7
simplex
 73
     1
 44
1.0
1001
ACAD
1000
ACAD_MTEXT_DEFINED_HEIGHT_BEGIN
1070
    46
1040
0.0
1000
ACAD_MTEXT_DEFINED_HEIGHT_END
1000
MTEXTBEGIN
1070
    73
1070
     1
1070
    44
1040
1.0
1070
    74
1070
     0
1000
MTEXTEND
  0
DIMENSION
  5
601EC
330
1F
100
AcDbEntity
  8
2
100
AcDbDimension
  2
*D321
 10
35.30000000000007
 20
40.88825889729128
 30
0.0
 11
6.022284453722477
 21
40.88825889729128
 31
0.0
 70
   160
  1
<>(MAX)
 71
     5
 42
15.49999999999994
  3
\M+18352\M+18373\M+1815B - ISO-25
100
AcDbAlignedDimension
 13
50.80000000000001
 23
17.90718556146567
 33
0.0
 14
35.30000000000007
 24
19.47300137289562
 34
0.0
 50
180.0
100
AcDbRotatedDimension
1001
ACAD
1000
DSTYLE
1002
{
1070
     4
1000
"
1070
    40
1040
1.0
1070
   143
1040
0.03937
1070
   170
1070
     1
1070
   171
1070
     3
1070
   271
1070
     8
1070
   285
1070
     4
1002
}
  0
DIMENSION
  5
601ED
330
1F
100
AcDbEntity
  8
2
100
AcDbDimension
  2
*D322
 10
66.21676661254787
 20
-19.05000000000002
 30
0.0
 11
66.21676661254787
 21
-1.750000000000012
 31
0.0
 70
   160
  1
%%c<>
 71
     2
 42
38.1
  3
\M+18352\M+18373\M+1815B - ISO-25
100
AcDbAlignedDimension
 13
50.79999999999995
 23
19.04999999999997
 33
0.0
 14
50.79999999999995
 24
-19.05000000000001
 34
0.0
 50
270.0
100
AcDbRotatedDimension
1001
ACAD
1000
DSTYLE
1002
{
1070
     4
1000
%%c[]"
1070
    40
1040
1.0
1070
    76
1070
     1
1070
   143
1040
0.03937
1070
   170
1070
     1
1070
   171
1070
     3
1070
   173
1070
     1
1070
   271
1070
     8
1070
   285
1070
     4
1070
   344
1005
32F1
1002
}
  0
DIMENSION
  5
601EE
330
1F
100
AcDbEntity
  8
sk2
100
AcDbDimension
  2
*D323
 10
-30.54439060776531
 20
-18.29000000000001
 30
0.0
 11
-30.54439060776531
 21
-0.0000000000000088
 31
0.0
 70
   160
  1
%%c<>
 71
     2
 42
36.58000000000001
  3
\M+18352\M+18373\M+1815B - ISO-25
100
AcDbAlignedDimension
 13
1.499999999999971
 23
18.28999999999999
 33
0.0
 14
1.499999999999971
 24
-18.29000000000002
 34
0.0
 50
270.0
100
AcDbRotatedDimension
1001
ACAD
1000
DSTYLE
1002
{
1070
     4
1000
%%c[]"
1070
    40
1040
1.0
1070
   143
1040
0.03937
1070
   170
1070
     1
1070
   171
1070
     3
1070
   271
1070
     8
1070
   285
1070
     4
1002
}
  0
DIMENSION
  5
601EF
330
1F
100
AcDbEntity
  8
sk2
100
AcDbDimension
  2
*D324
 10
-15.48178308395836
 20
-6.349999999999961
 30
0.0
 11
-15.48178308395836
 21
-38.91263174037704
 31
0.0
 70
   160
  1
%%c<>
 71
     2
 42
12.69999999999999
  3
\M+18352\M+18373\M+1815B - ISO-25
100
AcDbAlignedDimension
 13
1.0
 23
6.350000000000022
 33
0.0
 14
1.0
 24
-6.349999999999965
 34
0.0
 50
270.0
100
AcDbRotatedDimension
1001
ACAD
1000
DSTYLE
1002
{
1070
     4
1000
%%c[]"
1070
    40
1040
1.0
1070
   143
1040
0.03937
1070
   170
1070
     1
1070
   171
1070
     3
1070
   271
1070
     8
1070
   285
1070
     4
1002
}
  0
DIMENSION
  5
601F0
330
1F
100
AcDbEntity
  8
2
100
AcDbDimension
  2
*D325
 10
0.0000000000000022
 20
53.3379162340463
 30
0.0
 11
25.40000000000001
 21
53.3379162340463
 31
0.0
 70
   160
 71
     2
 42
50.79999999999995
  3
\M+18352\M+18373\M+1815B - ISO-25
100
AcDbAlignedDimension
 13
50.79999999999995
 23
17.37049567233635
 33
0.0
 14
0.0
 24
16.78999637159998
 34
0.0
 50
180.0
100
AcDbRotatedDimension
1001
ACAD
1000
DSTYLE
1002
{
1070
     4
1000
"
1070
    40
1040
1.0
1070
   143
1040
0.03937
1070
   170
1070
     1
1070
   171
1070
     3
1070
   271
1070
     8
1070
   285
1070
     4
1002
}
  0
DIMENSION
  5
601F1
330
1F
100
AcDbEntity
  8
sk2
100
AcDbDimension
  2
*D326
 10
16.0
 20
-37.4423067226
 30
0.0
 11
34.92500000000001
 21
-37.4423067226
 31
0.0
 70
   160
 71
     2
 42
16.0
  3
\M+18352\M+18373\M+1815B - ISO-25
100
AcDbAlignedDimension
 13
0.0
 23
-6.850000000000022
 33
0.0
 14
16.0
 24
-6.050000000000011
 34
0.0
100
AcDbRotatedDimension
1001
ACAD
1000
DSTYLE
1002
{
1070
     4
1000
"
1070
    40
1040
1.0
1070
   143
1040
0.03937
1070
   170
1070
     1
1070
   171
1070
     3
1070
   271
1070
     8
1070
   285
1070
     4
1002
}
  0
LINE
  5
601F2
330
1F
100
AcDbEntity
  8
1
100
AcDbLine
 10
50.694029215
 20
-16.15735131690002
 30
0.0
 11
49.67886642429994
 21
-16.64492581580001
 31
0.0
  0
LINE
  5
601F3
330
1F
100
AcDbEntity
  8
1
100
AcDbLine
 10
50.79999999999995
 20
-16.55729816410002
 30
0.0
 11
50.79999999999995
 21
-18.27435452309998
 31
0.0
  0
LINE
  5
601F4
330
1F
100
AcDbEntity
  8
1
100
AcDbLine
 10
50.79999999999995
 20
16.55729816409999
 30
0.0
 11
50.79999999999995
 21
18.27460789193527
 31
0.0
  0
LINE
  5
601F5
330
1F
100
AcDbEntity
  8
1
100
AcDbLine
 10
49.78472654159998
 20
-17.3971478071
 30
0.0
 11
35.87167764809999
 21
-17.7660151837
 31
0.0
  0
LINE
  5
601F6
330
1F
100
AcDbEntity
  8
1
100
AcDbLine
 10
1.499999999999971
 20
-18.29000000000002
 30
0.0
 11
13.99999999999997
 21
-18.29000000000002
 31
0.0
  0
LINE
  5
601F7
330
1F
100
AcDbEntity
  8
1
100
AcDbLine
 10
27.60949285149997
 20
-18.07901798180001
 30
0.0
 11
29.17782766149992
 21
-18.07901798180002
 31
0.0
  0
LINE
  5
601F8
330
1F
100
AcDbEntity
  8
1
100
AcDbLine
 10
0.0
 20
3.675000000000011
 30
0.0
 11
0.4999999999999716
 21
3.175000000000011
 31
0.0
  0
LINE
  5
601F9
330
1F
100
AcDbEntity
  8
1
100
AcDbLine
 10
49.78472654159998
 20
-17.3971478071
 30
0.0
 11
49.78472654159998
 21
-17.04492581580001
 31
0.0
  0
LINE
  5
601FA
330
1F
100
AcDbEntity
  8
1
100
AcDbLine
 10
48.69758484899989
 20
12.95360871139999
 30
0.0
 11
48.69758484899989
 21
12.72701779559997
 31
0.0
  0
LINE
  5
601FB
330
1F
100
AcDbEntity
  8
1
100
AcDbLine
 10
48.69758484899989
 20
-12.72701779549999
 30
0.0
 11
48.69758484899989
 21
-12.9536087113
 31
0.0
  0
LINE
  5
601FC
330
1F
100
AcDbEntity
  8
1
100
AcDbLine
 10
48.69758484899989
 20
-12.9536087113
 30
0.0
 11
48.69758484899989
 21
-15.77786807379999
 31
0.0
  0
LINE
  5
601FD
330
1F
100
AcDbEntity
  8
1
100
AcDbLine
 10
48.67747469579995
 20
-15.8653863042
 30
0.0
 11
48.67747469579995
 21
-13.73206423890002
 31
0.0
  0
LINE
  5
601FE
330
1F
100
AcDbEntity
  8
1
100
AcDbLine
 10
48.67034173429999
 20
12.50509986659998
 30
0.0
 11
48.67034173429999
 21
12.91042143159998
 31
0.0
  0
LINE
  5
601FF
330
1F
100
AcDbEntity
  8
1
100
AcDbLine
 10
33.98399887579996
 20
-19.01246137230002
 30
0.0
 11
34.31681660969991
 21
-18.8764766232
 31
0.0
  0
LINE
  5
60200
330
1F
100
AcDbEntity
  8
1
100
AcDbLine
 10
33.93751084059994
 20
-19.03056368
 30
0.0
 11
33.98399887579996
 21
-19.01246137230002
 31
0.0
  0
LINE
  5
60201
330
1F
100
AcDbEntity
  8
1
100
AcDbLine
 10
48.00798438159995
 20
-14.36960970220002
 30
0.0
 11
48.00798438159995
 21
-17.23948968000002
 31
0.0
  0
LINE
  5
60202
330
1F
100
AcDbEntity
  8
1
100
AcDbLine
 10
47.83815074519998
 20
-17.3497373303
 30
0.0
 11
47.83815074519998
 21
-14.0980140478
 31
0.0
  0
LINE
  5
60203
330
1F
100
AcDbEntity
  8
1
100
AcDbLine
 10
47.13108346219996
 20
10.47030478349997
 30
0.0
 11
47.13108346219996
 21
0.5271698514999912
 31
0.0
  0
LINE
  5
60204
330
1F
100
AcDbEntity
  8
1
100
AcDbLine
 10
34.31681660969991
 20
-18.8764766232
 30
0.0
 11
35.87167764809999
 21
-17.7660151837
 31
0.0
  0
LINE
  5
60205
330
1F
100
AcDbEntity
  8
1
100
AcDbLine
 10
33.02750778719997
 20
-18.0394691436
 30
0.0
 11
32.73532276669994
 21
-18.2250062631
 31
0.0
  0
LINE
  5
60206
330
1F
100
AcDbEntity
  8
1
100
AcDbLine
 10
50.42284647579998
 20
-18.67394275340001
 30
0.0
 11
50.40944668449998
 21
-18.6716870326
 31
0.0
  0
LINE
  5
60207
330
1F
100
AcDbEntity
  8
1
100
AcDbLine
 10
50.23236931539997
 20
-18.17879957740002
 30
0.0
 11
50.79999999999995
 21
-18.27435452309998
 31
0.0
  0
LINE
  5
60208
330
1F
100
AcDbEntity
  8
1
100
AcDbLine
 10
33.04170704759997
 20
-18.50692425340003
 30
0.0
 11
33.93751083569998
 21
-19.03056368190002
 31
0.0
  0
LINE
  5
60209
330
1F
100
AcDbEntity
  8
1
100
AcDbLine
 10
35.20793046929998
 20
-17.37802375310002
 30
0.0
 11
35.87167764809999
 21
-17.7660151837
 31
0.0
  0
LINE
  5
6020A
330
1F
100
AcDbEntity
  8
1
100
AcDbLine
 10
44.60474954239998
 20
8.813290408199968
 30
0.0
 11
44.60474954239998
 21
7.224356457699997
 31
0.0
  0
LINE
  5
6020B
330
1F
100
AcDbEntity
  8
1
100
AcDbLine
 10
44.13108346219996
 20
7.941546646099986
 30
0.0
 11
44.13108346219996
 21
7.231315161399976
 31
0.0
  0
LINE
  5
6020C
330
1F
100
AcDbEntity
  8
1
100
AcDbLine
 10
33.31818711429998
 20
-17.53528313780003
 30
0.0
 11
33.36421600689994
 21
-17.44875169030001
 31
0.0
  0
LINE
  5
6020D
330
1F
100
AcDbEntity
  8
1
100
AcDbLine
 10
32.61345078399995
 20
-18.05191151549999
 30
0.0
 11
32.73532276669994
 21
-18.2250062631
 31
0.0
  0
LINE
  5
6020E
330
1F
100
AcDbEntity
  8
1
100
AcDbLine
 10
50.67794941149992
 20
16.12998964919998
 30
0.0
 11
50.3977035657
 21
15.65729816459998
 31
0.0
  0
LINE
  5
6020F
330
1F
100
AcDbEntity
  8
1
100
AcDbLine
 10
50.22541725729997
 20
15.3756124535
 30
0.0
 11
46.59703557849996
 21
9.623702783199973
 31
0.0
  0
LINE
  5
60210
330
1F
100
AcDbEntity
  8
1
100
AcDbLine
 10
3.96999999999997
 20
-3.175000000000011
 30
0.0
 11
0.4999999999999716
 21
-3.175000000000011
 31
0.0
  0
LINE
  5
60211
330
1F
100
AcDbEntity
  8
1
100
AcDbLine
 10
35.01136955239997
 20
-1.076384045200029
 30
0.0
 11
35.01136955239997
 21
-17.37534849030001
 31
0.0
  0
LINE
  5
60212
330
1F
100
AcDbEntity
  8
1
100
AcDbLine
 10
27.53292113839999
 20
-1.076384045200029
 30
0.0
 11
35.01136955239997
 21
-1.076384045200029
 31
0.0
  0
LINE
  5
60213
330
1F
100
AcDbEntity
  8
4
100
AcDbLine
 10
51.6975848489999
 20
0.0
 30
0.0
 11
-3.0
 21
0.0
 31
0.0
  0
LINE
  5
60214
330
1F
100
AcDbEntity
  8
1
100
AcDbLine
 10
46.30345320769999
 20
9.341784792799984
 30
0.0
 11
45.40764941959998
 21
8.818145364299994
 31
0.0
  0
LINE
  5
60215
330
1F
100
AcDbEntity
  8
1
100
AcDbLine
 10
28.76290000989996
 20
18.07883807399997
 30
0.0
 11
28.76290000989996
 21
12.92693692009999
 31
0.0
  0
LINE
  5
60216
330
1F
100
AcDbEntity
  8
1
100
AcDbLine
 10
28.08316816629997
 20
11.29141088219998
 30
0.0
 11
28.08316816629997
 21
9.574354523099998
 31
0.0
  0
LINE
  5
60217
330
1F
100
AcDbEntity
  8
1
100
AcDbLine
 10
28.55995233379997
 20
7.224356799299982
 30
0.0
 11
27.53292113839999
 21
-1.076384045200029
 31
0.0
  0
LINE
  5
60218
330
1F
100
AcDbEntity
  8
1
100
AcDbLine
 10
0.4999999999999716
 20
3.175000000000011
 30
0.0
 11
3.96999999999997
 21
3.175000000000011
 31
0.0
  0
LINE
  5
60219
330
1F
100
AcDbEntity
  8
1
100
AcDbLine
 10
25.43744331759996
 20
-0.8271252869000136
 30
0.0
 11
25.43744331759996
 21
-18.07837996850003
 31
0.0
  0
LINE
  5
6021A
330
1F
100
AcDbEntity
  8
1
100
AcDbLine
 10
28.33215590750001
 20
7.224356805100001
 30
0.0
 11
46.54037110319996
 21
7.224356298199978
 31
0.0
  0
LINE
  5
6021B
330
1F
100
AcDbEntity
  8
1
100
AcDbLine
 10
24.56920242929996
 20
-18.00180142100001
 30
0.0
 11
24.56920242929996
 21
-0.4899667994000084
 31
0.0
  0
LINE
  5
6021C
330
1F
100
AcDbEntity
  8
1
100
AcDbLine
 10
28.75189651699998
 20
12.84045048339999
 30
0.0
 11
29.46585589529997
 21
14.0924789492
 31
0.0
  0
LINE
  5
6021D
330
1F
100
AcDbEntity
  8
1
100
AcDbLine
 10
28.71289840539999
 20
12.84045048339999
 30
0.0
 11
28.76290000989996
 21
12.92693692009999
 31
0.0
  0
LINE
  5
6021E
330
1F
100
AcDbEntity
  8
1
100
AcDbLine
 10
29.46585589529997
 20
14.0924789492
 30
0.0
 11
28.76290000989996
 21
12.92693692009999
 31
0.0
  0
LINE
  5
6021F
330
1F
100
AcDbEntity
  8
1
100
AcDbLine
 10
28.20596625669998
 20
11.71871939709999
 30
0.0
 11
28.49915084279997
 21
12.19141088169999
 31
0.0
  0
LINE
  5
60220
330
1F
100
AcDbEntity
  8
1
100
AcDbLine
 10
30.4576953495
 20
8.871727369899986
 30
0.0
 11
30.64824952009997
 21
8.871727369899986
 31
0.0
  0
LINE
  5
60221
330
1F
100
AcDbEntity
  8
1
100
AcDbLine
 10
30.64824952009997
 20
8.871727369899986
 30
0.0
 11
44.17026638509992
 21
8.513227164400007
 31
0.0
  0
LINE
  5
60222
330
1F
100
AcDbEntity
  8
1
100
AcDbLine
 10
50.22541725729997
 20
-15.37561245340001
 30
0.0
 11
48.69758484899989
 21
-12.9536087113
 31
0.0
  0
LINE
  5
60223
330
1F
100
AcDbEntity
  8
1
100
AcDbLine
 10
50.67794941149992
 20
-16.12998964910002
 30
0.0
 11
50.3977035657
 21
-15.65729816450002
 31
0.0
  0
LINE
  5
60224
330
1F
100
AcDbEntity
  8
1
100
AcDbLine
 10
50.23236931539997
 20
-18.17879957740002
 30
0.0
 11
49.78472654159998
 21
-17.3971478071
 31
0.0
  0
LINE
  5
60225
330
1F
100
AcDbEntity
  8
1
100
AcDbLine
 10
49.67886642429994
 20
-16.64492581580001
 30
0.0
 11
48.69758484899989
 21
-14.92411017469999
 31
0.0
  0
LINE
  5
60226
330
1F
100
AcDbEntity
  8
1
100
AcDbLine
 10
21.93553423899996
 20
-17.5341816163
 30
0.0
 11
21.93553423899996
 21
1.601075248099988
 31
0.0
  0
LINE
  5
60227
330
1F
100
AcDbEntity
  8
1
100
AcDbLine
 10
28.68553705119996
 20
12.4730965928
 30
0.0
 11
32.73532276669994
 21
18.2250062631
 31
0.0
  0
LINE
  5
60228
330
1F
100
AcDbEntity
  8
1
100
AcDbLine
 10
28.75189651699998
 20
12.84045048339999
 30
0.0
 11
28.71289840539999
 21
12.84045048339999
 31
0.0
  0
LINE
  5
60229
330
1F
100
AcDbEntity
  8
1
100
AcDbLine
 10
33.04170704759997
 20
18.50692425349999
 30
0.0
 11
33.93751083569998
 21
19.03056368200001
 31
0.0
  0
LINE
  5
6022A
330
1F
100
AcDbEntity
  8
1
100
AcDbLine
 10
28.76290000989996
 20
18.07883807399997
 30
0.0
 11
29.17787616839996
 21
18.07901781859998
 31
0.0
  0
LINE
  5
6022B
330
1F
100
AcDbEntity
  8
1
100
AcDbLine
 10
1.499999999999971
 20
18.28999999999999
 30
0.0
 11
13.99999999999997
 21
18.28999999999999
 31
0.0
  0
LINE
  5
6022C
330
1F
100
AcDbEntity
  8
1
100
AcDbLine
 10
13.99999999999997
 20
-18.29000000000002
 30
0.0
 11
13.99999999999997
 21
18.28999999999999
 31
0.0
  0
LINE
  5
6022D
330
1F
100
AcDbEntity
  8
1
100
AcDbLine
 10
0.4999999999999716
 20
-3.175000000000011
 30
0.0
 11
0.0
 21
-3.675000000000011
 31
0.0
  0
LINE
  5
6022E
330
1F
100
AcDbEntity
  8
1
100
AcDbLine
 10
3.96999999999997
 20
3.175000000000011
 30
0.0
 11
3.96999999999997
 21
-3.175000000000011
 31
0.0
  0
LINE
  5
6022F
330
1F
100
AcDbEntity
  8
1
100
AcDbLine
 10
1.499999999999971
 20
-18.29000000000002
 30
0.0
 11
1.499999999999971
 21
-3.175000000000011
 31
0.0
  0
LINE
  5
60230
330
1F
100
AcDbEntity
  8
1
100
AcDbLine
 10
1.499999999999971
 20
3.175000000000011
 30
0.0
 11
1.499999999999971
 21
18.28999999999999
 31
0.0
  0
LINE
  5
60231
330
1F
100
AcDbEntity
  8
1
100
AcDbLine
 10
0.0
 20
-3.675000000000011
 30
0.0
 11
0.0
 21
-16.78966471360002
 31
0.0
  0
LINE
  5
60232
330
1F
100
AcDbEntity
  8
1
100
AcDbLine
 10
0.0
 20
3.675000000000011
 30
0.0
 11
0.0
 21
16.78999637159998
 31
0.0
  0
LINE
  5
60233
330
1F
100
AcDbEntity
  8
nocut
100
AcDbLine
 10
48.6975848491
 20
0.0000000000000568
 30
0.0
 11
48.6975848491
 21
15.85562050869998
 31
0.0
  0
LINE
  5
60234
330
1F
100
AcDbEntity
  8
sk3
100
AcDbLine
 10
1.0
 20
6.350000000000022
 30
0.0
 11
0.0
 21
7.349999557900048
 31
0.0
  0
LINE
  5
60235
330
1F
100
AcDbEntity
  8
sk3
100
AcDbLine
 10
8.92774664449999
 20
-6.349999775399965
 30
0.0
 11
10.000000113
 21
-6.849999757699947
 31
0.0
  0
LINE
  5
60236
330
1F
100
AcDbEntity
  8
sk3
100
AcDbLine
 10
44.13108346229996
 20
8.243691956600052
 30
0.0
 11
44.13108346229996
 21
-8.243691956499958
 31
0.0
  0
LINE
  5
60237
330
1F
100
AcDbEntity
  8
sk3
100
AcDbLine
 10
43.63108346229995
 20
5.5
 30
0.0
 11
43.63108346229995
 21
-5.499999999999943
 31
0.0
  0
LINE
  5
60238
330
1F
100
AcDbEntity
  8
sk3
100
AcDbLine
 10
47.13108346229995
 20
12.5197073785
 30
0.0
 11
48.67034173439993
 21
15.15850233550002
 31
0.0
  0
LINE
  5
60239
330
1F
100
AcDbEntity
  8
sk3
100
AcDbLine
 10
10.0
 20
-6.849999999999965
 30
0.0
 11
15.19999999999999
 21
-6.849999999999965
 31
0.0
  0
LINE
  5
6023A
330
1F
100
AcDbEntity
  8
sk3
100
AcDbLine
 10
1.0
 20
-6.349999999999965
 30
0.0
 11
8.927746539799983
 21
-6.349999999999965
 31
0.0
  0
LINE
  5
6023B
330
1F
100
AcDbEntity
  8
sk3
100
AcDbLine
 10
36.39999999999998
 20
-5.499999999999943
 30
0.0
 11
43.63108346229995
 21
-5.499999999999943
 31
0.0
  0
LINE
  5
6023C
330
1F
100
AcDbEntity
  8
sk3
100
AcDbLine
 10
36.0
 20
5.100000000000022
 30
0.0
 11
36.0
 21
-5.099999999999965
 31
0.0
  0
LINE
  5
6023D
330
1F
100
AcDbEntity
  8
sk3
100
AcDbLine
 10
35.5
 20
3.5
 30
0.0
 11
35.5
 21
-3.499999999999943
 31
0.0
  0
LINE
  5
6023E
330
1F
100
AcDbEntity
  8
sk3
100
AcDbLine
 10
43.63108346829995
 20
5.499999993999999
 30
0.0
 11
44.1310834688
 21
5.999999993500011
 31
0.0
  0
LINE
  5
6023F
330
1F
100
AcDbEntity
  8
sk3
100
AcDbLine
 10
16.4
 20
-3.499999999999943
 30
0.0
 11
35.5
 21
-3.499999999999943
 31
0.0
  0
LINE
  5
60240
330
1F
100
AcDbEntity
  8
sk3
100
AcDbLine
 10
44.60474954250003
 20
9.536094666700023
 30
0.0
 11
47.13108346229995
 21
12.5197073785
 31
0.0
  0
LINE
  5
60241
330
1F
100
AcDbEntity
  8
nocut
100
AcDbLine
 10
48.6975848491
 20
0.0
 30
0.0
 11
0.0
 21
0.0
 31
0.0
  0
LINE
  5
60242
330
1F
100
AcDbEntity
  8
sk3
100
AcDbLine
 10
35.5
 20
3.5
 30
0.0
 11
36.0
 21
4.0
 31
0.0
  0
LINE
  5
60243
330
1F
100
AcDbEntity
  8
sk3
100
AcDbLine
 10
35.5
 20
-3.499999999999943
 30
0.0
 11
36.0
 21
-3.999999999999943
 31
0.0
  0
LINE
  5
60244
330
1F
100
AcDbEntity
  8
sk3
100
AcDbLine
 10
16.4
 20
3.5
 30
0.0
 11
35.5
 21
3.5
 31
0.0
  0
LINE
  5
60245
330
1F
100
AcDbEntity
  8
sk3
100
AcDbLine
 10
36.39999999999998
 20
5.5
 30
0.0
 11
43.63108346229995
 21
5.5
 31
0.0
  0
LINE
  5
60246
330
1F
100
AcDbEntity
  8
sk3
100
AcDbLine
 10
43.63108346829995
 20
-5.499999993999949
 30
0.0
 11
44.1310834688
 21
-5.999999993399967
 31
0.0
  0
LINE
  5
60247
330
1F
100
AcDbEntity
  8
sk3
100
AcDbLine
 10
44.60474954250003
 20
-9.536094666599986
 30
0.0
 11
47.13108346229995
 21
-12.51970737839991
 31
0.0
  0
LINE
  5
60248
330
1F
100
AcDbEntity
  8
sk3
100
AcDbLine
 10
1.0
 20
6.350000000000022
 30
0.0
 11
8.927746539799983
 21
6.350000000000022
 31
0.0
  0
LINE
  5
60249
330
1F
100
AcDbEntity
  8
sk3
100
AcDbLine
 10
10.0
 20
6.850000000000022
 30
0.0
 11
15.19999999999999
 21
6.850000000000022
 31
0.0
  0
LINE
  5
6024A
330
1F
100
AcDbEntity
  8
sk3
100
AcDbLine
 10
47.13108346229995
 20
-12.51970737839991
 30
0.0
 11
48.67034173439993
 21
-15.15850233539999
 31
0.0
  0
LINE
  5
6024B
330
1F
100
AcDbEntity
  8
sk3
100
AcDbLine
 10
16.0
 20
6.050000000000011
 30
0.0
 11
16.0
 21
-6.050000000000011
 31
0.0
  0
LINE
  5
6024C
330
1F
100
AcDbEntity
  8
sk3
100
AcDbLine
 10
8.92774664449999
 20
6.349999775500066
 30
0.0
 11
10.000000113
 21
6.849999757800048
 31
0.0
  0
LINE
  5
6024D
330
1F
100
AcDbEntity
  8
nocut
100
AcDbLine
 10
25.4374433177
 20
18.07901798179995
 30
0.0
 11
35.01136955250002
 21
18.07901798179994
 31
0.0
  0
LINE
  5
6024E
330
1F
100
AcDbEntity
  8
nocut
100
AcDbLine
 10
1.5
 20
18.28999999999996
 30
0.0
 11
14.0
 21
18.28999999999996
 31
0.0
  0
LINE
  5
6024F
330
1F
100
AcDbEntity
  8
nocut
100
AcDbLine
 10
35.01136955250002
 20
18.07901798179994
 30
0.0
 11
47.83815074519998
 21
17.43325711359995
 31
0.0
  0
LINE
  5
60250
330
1F
100
AcDbEntity
  8
sk3
100
AcDbLine
 10
0.9999998090000303
 20
-6.349999808999939
 30
0.0
 11
0.0
 21
-7.349999557800003
 31
0.0
  0
LINE
  5
60251
330
1F
100
AcDbEntity
  8
sk3
100
AcDbLine
 10
10.0
 20
6.850000000000022
 30
0.0
 11
10.0
 21
-6.849999999999965
 31
0.0
  0
LINE
  5
60252
330
1F
100
AcDbEntity
  8
nocut
100
AcDbLine
 10
21.93553423909998
 20
17.53866998669997
 30
0.0
 11
24.56920242929999
 21
18.00305674689997
 31
0.0
  0
LINE
  5
60253
330
1F
100
AcDbEntity
  8
nocut
100
AcDbLine
 10
48.00798438159995
 20
17.32091514359996
 30
0.0
 11
48.67747469580002
 21
15.94302556029998
 31
0.0
  0
LINE
  5
60254
330
1F
100
AcDbEntity
  8
sk3
100
AcDbLine
 10
8.927746539799983
 20
6.350000000000022
 30
0.0
 11
8.927746539799983
 21
-6.349999999999965
 31
0.0
  0
LINE
  5
60255
330
1F
100
AcDbEntity
  8
sk3
100
AcDbLine
 10
1.0
 20
6.350000000000022
 30
0.0
 11
0.9999996180000039
 21
3.175000000000011
 31
0.0
  0
LINE
  5
60256
330
1F
100
AcDbEntity
  8
sk3
100
AcDbLine
 10
0.9999996180000039
 20
-3.175000000000011
 30
0.0
 11
1.0
 21
-6.349999999999965
 31
0.0
  0
LINE
  5
60257
330
1F
100
AcDbEntity
  8
nocut
100
AcDbLine
 10
0.0
 20
0.0
 30
0.0
 11
0.0
 21
16.78999637160001
 31
0.0
  0
LINE
  5
60258
330
1F
100
AcDbEntity
  8
cut
100
AcDbLine
 10
50.79999999999995
 20
16.34293881009994
 30
0.0
 11
50.79999999999995
 21
18.27434355640007
 31
0.0
  0
LINE
  5
60259
330
1F
100
AcDbEntity
  8
cut
100
AcDbLine
 10
46.64440897659995
 20
9.055523851100019
 30
0.0
 11
50.79999999999995
 21
16.34293881009994
 31
0.0
  0
LINE
  5
6025A
330
1F
100
AcDbEntity
  8
cut
100
AcDbLine
 10
46.5204346319
 20
8.983055018300035
 30
0.0
 11
46.64440897659995
 21
9.055523851100019
 31
0.0
  0
LINE
  5
6025B
330
1F
100
AcDbEntity
  8
cut
100
AcDbLine
 10
28.08316816629997
 20
9.574365489799959
 30
0.0
 11
28.08316816629997
 21
11.50577023599999
 31
0.0
  0
LINE
  5
6025C
330
1F
100
AcDbEntity
  8
cut
100
AcDbLine
 10
32.23875918969998
 20
18.79318519500003
 30
0.0
 11
28.08316816629997
 21
11.50577023599999
 31
0.0
  0
LINE
  5
6025D
330
1F
100
AcDbEntity
  8
cut
100
AcDbLine
 10
46.5204346319
 20
8.983055018300035
 30
0.0
 11
28.47409247650001
 21
9.174398536000012
 31
0.0
  0
LINE
  5
6025E
330
1F
100
AcDbEntity
  8
cut
100
AcDbLine
 10
32.36273353439998
 20
18.86565402790012
 30
0.0
 11
32.23875918969998
 21
18.79318519500003
 31
0.0
  0
LINE
  5
6025F
330
1F
100
AcDbEntity
  8
cut
100
AcDbLine
 10
32.36273353439998
 20
18.86565402790012
 30
0.0
 11
50.40907568979992
 21
18.67431051019996
 31
0.0
  0
ARC
  5
60260
330
1F
100
AcDbEntity
  8
1
100
AcDbCircle
 10
248.351617119
 20
-20.94828425120004
 30
0.0
 40
202.3632829691
100
AcDbArc
 50
173.9081129749003
 51
174.0582077132995
  0
ARC
  5
60261
330
1F
100
AcDbEntity
  8
1
100
AcDbCircle
 10
47.14979003049996
 20
-18.22181097000001
 30
0.0
 40
4.101661255699998
100
AcDbArc
 50
30.22007965890082
 51
30.66340882009949
  0
ARC
  5
60262
330
1F
100
AcDbEntity
  8
1
100
AcDbCircle
 10
50.39498981869996
 20
-18.27421427680002
 30
0.0
 40
0.4050097223
100
AcDbArc
 50
350.9483981532998
 51
359.9801596895002
  0
ARC
  5
60263
330
1F
100
AcDbEntity
  8
1
100
AcDbCircle
 10
49.98651465339998
 20
-18.63950614570001
 30
0.0
 40
0.3581004306
100
AcDbArc
 50
25.95401823480137
 51
28.74169203890088
  0
ARC
  5
60264
330
1F
100
AcDbEntity
  8
1
100
AcDbCircle
 10
40.22844375189992
 20
-21.68355175020002
 30
0.0
 40
11.8207266037
100
AcDbArc
 50
30.65077448849906
 51
32.25130668610073
  0
ARC
  5
60265
330
1F
100
AcDbEntity
  8
1
100
AcDbCircle
 10
47.14979002889992
 20
18.22181097099997
 30
0.0
 40
4.101661257499999
100
AcDbArc
 50
329.3365911801014
 51
329.7799203410992
  0
ARC
  5
60266
330
1F
100
AcDbEntity
  8
1
100
AcDbCircle
 10
49.99259066719997
 20
16.55695319849998
 30
0.0
 40
0.8074081490000001
100
AcDbArc
 50
332.204936252501
 51
0.0244796597989763
  0
ARC
  5
60267
330
1F
100
AcDbEntity
  8
1
100
AcDbCircle
 10
49.99259066719997
 20
-16.55695319840001
 30
0.0
 40
0.8074081490000001
100
AcDbArc
 50
359.9755203401994
 51
27.795063747499
  0
ARC
  5
60268
330
1F
100
AcDbEntity
  8
1
100
AcDbCircle
 10
48.97752301649996
 20
-17.0445445098
 30
0.0
 40
0.8072036151
100
AcDbArc
 50
359.9729346829992
 51
29.67407224939912
  0
ARC
  5
60269
330
1F
100
AcDbEntity
  8
1
100
AcDbCircle
 10
50.15133580509996
 20
16.47348043129996
 30
0.0
 40
0.6280555342000002
100
AcDbArc
 50
329.7783957731994
 51
332.1882379728993
  0
ARC
  5
6026A
330
1F
100
AcDbEntity
  8
1
100
AcDbCircle
 10
50.15133580509996
 20
-16.4734804313
 30
0.0
 40
0.6280555342000002
100
AcDbArc
 50
27.81176202710073
 51
30.22160422680059
  0
ARC
  5
6026B
330
1F
100
AcDbEntity
  8
1
100
AcDbCircle
 10
48.49782539309996
 20
-15.7780364523
 30
0.0
 40
0.1997595268
100
AcDbArc
 50
334.0698542219009
 51
0.0482949450996614
  0
ARC
  5
6026C
330
1F
100
AcDbEntity
  8
1
100
AcDbCircle
 10
37.17020431539999
 20
-2.318501234300015
 30
0.0
 40
16.2076121642
100
AcDbArc
 50
311.9656197964993
 51
315.2342413617009
  0
ARC
  5
6026D
330
1F
100
AcDbEntity
  8
1
100
AcDbCircle
 10
44.49029948139997
 20
-13.67096947480002
 30
0.0
 40
1.5173318208
100
AcDbArc
 50
337.7161536657999
 51
22.28384633379936
  0
ARC
  5
6026E
330
1F
100
AcDbEntity
  8
1
100
AcDbCircle
 10
36.97229708449999
 20
-13.90527739489999
 30
0.0
 40
1.5173318208
100
AcDbArc
 50
337.7161536657999
 51
22.28384633379936
  0
ARC
  5
6026F
330
1F
100
AcDbEntity
  8
1
100
AcDbCircle
 10
36.99323631189998
 20
-13.91550724480001
 30
0.0
 40
1.489779233199999
100
AcDbArc
 50
273.9304887414993
 51
277.9764878447992
  0
ARC
  5
60270
330
1F
100
AcDbEntity
  8
1
100
AcDbCircle
 10
44.86125135949999
 20
-13.7027352458
 30
0.0
 40
1.468234355299999
100
AcDbArc
 50
237.0961837228006
 51
269.9762318733006
  0
ARC
  5
60271
330
1F
100
AcDbEntity
  8
1
100
AcDbCircle
 10
37.20238578339996
 20
-13.9374384674
 30
0.0
 40
1.4678390257
100
AcDbArc
 50
238.5005818249994
 51
269.9790422009994
  0
ARC
  5
60272
330
1F
100
AcDbEntity
  8
1
100
AcDbCircle
 10
44.46535490249994
 20
-13.62912012680002
 30
0.0
 40
1.459388937199999
100
AcDbArc
 50
40.26788509960022
 51
72.77049485359943
  0
ARC
  5
60273
330
1F
100
AcDbEntity
  8
1
100
AcDbCircle
 10
37.02509381799996
 20
-13.8973178649
 30
0.0
 40
1.2395832596
100
AcDbArc
 50
221.2953125526006
 51
225.0542538409001
  0
ARC
  5
60274
330
1F
100
AcDbEntity
  8
1
100
AcDbCircle
 10
28.08318708439993
 20
0.9665125557999942
 30
0.0
 40
8.216913039899999
100
AcDbArc
 50
87.24993571019995
 51
87.36935104550058
  0
ARC
  5
60275
330
1F
100
AcDbEntity
  8
1
100
AcDbCircle
 10
25.44042472029997
 20
-13.08426810370002
 30
0.0
 40
4.9941127548
100
AcDbArc
 50
259.9533548076992
 51
269.9657953657996
  0
ARC
  5
60276
330
1F
100
AcDbEntity
  8
1
100
AcDbCircle
 10
33.5384783252
 20
-17.65959467810001
 30
0.0
 40
0.9822164279999999
100
AcDbArc
 50
215.1450719384003
 51
239.6178124389994
  0
ARC
  5
60277
330
1F
100
AcDbEntity
  8
1
100
AcDbCircle
 10
43.49922412669991
 20
13.80739259879998
 30
0.0
 40
2.4105345727
100
AcDbArc
 50
288.1276833208995
 51
288.7257548513998
  0
ARC
  5
60278
330
1F
100
AcDbEntity
  8
1
100
AcDbCircle
 10
43.49940695479995
 20
13.91088789629997
 30
0.0
 40
2.410036209699998
100
AcDbArc
 50
71.21400886390083
 51
71.8731228607008
  0
ARC
  5
60279
330
1F
100
AcDbEntity
  8
1
100
AcDbCircle
 10
42.62414284379997
 20
14.80325305069998
 30
0.0
 40
0.4563345364
100
AcDbArc
 50
254.5803908616005
 51
269.9510237347993
  0
ARC
  5
6027A
330
1F
100
AcDbEntity
  8
1
100
AcDbCircle
 10
42.62414284379997
 20
12.538685899
 30
0.0
 40
0.4563345364
100
AcDbArc
 50
90.04897626520067
 51
105.4196091383994
  0
ARC
  5
6027B
330
1F
100
AcDbEntity
  8
1
100
AcDbCircle
 10
43.92509179950002
 20
12.538685899
 30
0.0
 40
0.4563345364
100
AcDbArc
 50
74.58039086160052
 51
89.95102373479934
  0
ARC
  5
6027C
330
1F
100
AcDbEntity
  8
1
100
AcDbCircle
 10
43.92509179950002
 20
14.80325305069998
 30
0.0
 40
0.4563345364
100
AcDbArc
 50
270.0489762652007
 51
285.4196091383995
  0
ARC
  5
6027D
330
1F
100
AcDbEntity
  8
1
100
AcDbCircle
 10
42.44646508569997
 20
14.1589825492
 30
0.0
 40
0.211987142
100
AcDbArc
 50
74.58590240589997
 51
89.95419527890032
  0
ARC
  5
6027E
330
1F
100
AcDbEntity
  8
1
100
AcDbCircle
 10
42.44646508569997
 20
13.18295640049999
 30
0.0
 40
0.211987142
100
AcDbArc
 50
270.0458047210997
 51
285.4140975941997
  0
ARC
  5
6027F
330
1F
100
AcDbEntity
  8
1
100
AcDbCircle
 10
44.10276955759997
 20
13.18295640049999
 30
0.0
 40
0.211987142
100
AcDbArc
 50
254.5859024059
 51
269.9541952789003
  0
ARC
  5
60280
330
1F
100
AcDbEntity
  8
1
100
AcDbCircle
 10
44.10276955759997
 20
14.1589825492
 30
0.0
 40
0.211987142
100
AcDbArc
 50
90.04580472120066
 51
105.4140975941
  0
ARC
  5
60281
330
1F
100
AcDbEntity
  8
1
100
AcDbCircle
 10
35.10614044699997
 20
15.0375609708
 30
0.0
 40
0.4563345364
100
AcDbArc
 50
254.5803908615008
 51
269.9510237347993
  0
ARC
  5
60282
330
1F
100
AcDbEntity
  8
1
100
AcDbCircle
 10
35.10614044699997
 20
12.77299381899999
 30
0.0
 40
0.4563345364
100
AcDbArc
 50
90.04897626520067
 51
105.4196091383994
  0
ARC
  5
60283
330
1F
100
AcDbEntity
  8
1
100
AcDbCircle
 10
36.40708940259993
 20
12.77299381899999
 30
0.0
 40
0.4563345364
100
AcDbArc
 50
74.58039086160052
 51
89.95102373479934
  0
ARC
  5
60284
330
1F
100
AcDbEntity
  8
1
100
AcDbCircle
 10
36.40708940259993
 20
15.0375609708
 30
0.0
 40
0.4563345364
100
AcDbArc
 50
270.0489762652007
 51
285.4196091383995
  0
ARC
  5
60285
330
1F
100
AcDbEntity
  8
1
100
AcDbCircle
 10
34.92846268879998
 20
14.39329046929998
 30
0.0
 40
0.211987142
100
AcDbArc
 50
74.58590240580029
 51
89.95419527890032
  0
ARC
  5
60286
330
1F
100
AcDbEntity
  8
1
100
AcDbCircle
 10
34.92846268879998
 20
13.41726432059999
 30
0.0
 40
0.211987142
100
AcDbArc
 50
270.0458047210997
 51
285.4140975941997
  0
ARC
  5
60287
330
1F
100
AcDbEntity
  8
1
100
AcDbCircle
 10
36.58476716079997
 20
13.41726432059999
 30
0.0
 40
0.211987142
100
AcDbArc
 50
254.5859024059
 51
269.9541952789003
  0
ARC
  5
60288
330
1F
100
AcDbEntity
  8
1
100
AcDbCircle
 10
36.58476716079997
 20
14.39329046929998
 30
0.0
 40
0.211987142
100
AcDbArc
 50
90.04580472109969
 51
105.4140975941997
  0
ARC
  5
60289
330
1F
100
AcDbEntity
  8
1
100
AcDbCircle
 10
33.34444478969994
 20
9.187876783999996
 30
0.0
 40
5.7007096495
100
AcDbArc
 50
144.8104966046995
 51
148.2057695036003
  0
ARC
  5
6028A
330
1F
100
AcDbEntity
  8
1
100
AcDbCircle
 10
30.05573193269999
 20
10.68821750519998
 30
0.0
 40
2.1645712051
100
AcDbArc
 50
224.4445217430992
 51
259.1110597904005
  0
ARC
  5
6028B
330
1F
100
AcDbEntity
  8
1
100
AcDbCircle
 10
29.23134560919994
 20
10.68208638449999
 30
0.0
 40
2.1577317561
100
AcDbArc
 50
263.0689758320006
 51
270.0268107870999
  0
ARC
  5
6028C
330
1F
100
AcDbEntity
  8
1
100
AcDbCircle
 10
29.82804786429995
 20
10.71250430259999
 30
0.0
 40
1.908826225299996
100
AcDbArc
 50
148.1877067748
 51
149.1492264476011
  0
ARC
  5
6028D
330
1F
100
AcDbEntity
  8
1
100
AcDbCircle
 10
28.89057943649993
 20
11.2917558478
 30
0.0
 40
0.8074081490000001
100
AcDbArc
 50
152.204936252501
 51
180.024479659799
  0
ARC
  5
6028E
330
1F
100
AcDbEntity
  8
1
100
AcDbCircle
 10
28.61803708159994
 20
11.43519754889998
 30
0.0
 40
0.499425073
100
AcDbArc
 50
149.1421326242988
 51
152.1822775738989
  0
ARC
  5
6028F
330
1F
100
AcDbEntity
  8
1
100
AcDbCircle
 10
28.48817909259992
 20
9.57449476939999
 30
0.0
 40
0.4050097223
100
AcDbArc
 50
180.0198403151994
 51
189.0516018432998
  0
ARC
  5
60290
330
1F
100
AcDbEntity
  8
1
100
AcDbCircle
 10
27.52540168109999
 20
7.793201008700009
 30
0.0
 40
8.8695882413
100
AcDbArc
 50
256.3844166368
 51
270.0485742075002
  0
ARC
  5
60291
330
1F
100
AcDbEntity
  8
1
100
AcDbCircle
 10
25.44042472029997
 20
13.0842681037
 30
0.0
 40
4.9941127548
100
AcDbArc
 50
90.03420463420034
 51
100.0466451923008
  0
ARC
  5
60292
330
1F
100
AcDbEntity
  8
1
100
AcDbCircle
 10
28.08093257669998
 20
8.63773808869999
 30
0.0
 40
1.338717477
100
AcDbArc
 50
282.6521679557002
 51
285.2044758571001
  0
ARC
  5
60293
330
1F
100
AcDbEntity
  8
1
100
AcDbCircle
 10
28.79840232219999
 20
19.17356689889999
 30
0.0
 40
11.9492297542
100
AcDbArc
 50
262.5535592826996
 51
267.7653796200995
  0
ARC
  5
60294
330
1F
100
AcDbEntity
  8
1
100
AcDbCircle
 10
28.79783750719992
 20
19.1673905618
 30
0.0
 40
11.9430360953
100
AcDbArc
 50
267.7669318748993
 51
268.8589376751994
  0
ARC
  5
60295
330
1F
100
AcDbEntity
  8
1
100
AcDbCircle
 10
28.79779940309993
 20
19.16508138739999
 30
0.0
 40
11.9407266201
100
AcDbArc
 50
268.8588998244004
 51
269.9999343208997
  0
ARC
  5
60296
330
1F
100
AcDbEntity
  8
1
100
AcDbCircle
 10
33.5384783252
 20
17.65959467819998
 30
0.0
 40
0.9822164279999999
100
AcDbArc
 50
120.3821875610005
 51
144.8549280615997
  0
ARC
  5
60297
330
1F
100
AcDbEntity
  8
1
100
AcDbCircle
 10
19.29484895789997
 20
-32.37257959940001
 30
0.0
 40
15.0715385233
100
AcDbArc
 50
79.90911703729972
 51
86.44229809630003
  0
ARC
  5
60298
330
1F
100
AcDbEntity
  8
1
100
AcDbCircle
 10
19.33081157399994
 20
-32.31078628180001
 30
0.0
 40
15.0
100
AcDbArc
 50
93.99471728500001
 51
110.8171914397996
  0
ARC
  5
60299
330
1F
100
AcDbEntity
  8
1
100
AcDbCircle
 10
1.499999999999971
 20
16.78999999999999
 30
0.0
 40
1.5
100
AcDbArc
 50
90.0
 51
180.0
  0
ARC
  5
6029A
330
1F
100
AcDbEntity
  8
1
100
AcDbCircle
 10
1.499999999999971
 20
-16.79000000000002
 30
0.0
 40
1.5
100
AcDbArc
 50
180.0
 51
270.0
  0
ARC
  5
6029B
330
1F
100
AcDbEntity
  8
1
100
AcDbCircle
 10
40.22844375189992
 20
21.6835517502
 30
0.0
 40
11.8207266037
100
AcDbArc
 50
327.7486933138992
 51
329.3492255115009
  0
ARC
  5
6029C
330
1F
100
AcDbEntity
  8
1
100
AcDbCircle
 10
19.29484932939996
 20
32.37257695879999
 30
0.0
 40
15.0715358584
100
AcDbArc
 50
273.5577011125999
 51
280.0908833309999
  0
ARC
  5
6029D
330
1F
100
AcDbEntity
  8
1
100
AcDbCircle
 10
19.33081157399994
 20
32.3107862819
 30
0.0
 40
15.0
100
AcDbArc
 50
249.1828085602003
 51
266.005282715
  0
ARC
  5
6029E
330
1F
100
AcDbEntity
  8
sk3
100
AcDbCircle
 10
46.13108346229995
 20
-8.243691956499958
 30
0.0
 40
2.0
100
AcDbArc
 50
180.0
 51
220.2558088137004
  0
ARC
  5
6029F
330
1F
100
AcDbEntity
  8
sk3
100
AcDbCircle
 10
36.39999999999998
 20
-5.099999999999965
 30
0.0
 40
0.4
100
AcDbArc
 50
180.0
 51
270.0
  0
ARC
  5
602A0
330
1F
100
AcDbEntity
  8
sk3
100
AcDbCircle
 10
48.49758484910001
 20
-15.25927464589995
 30
0.0
 40
0.2
100
AcDbArc
 50
0.0
 51
30.25580881370037
  0
ARC
  5
602A1
330
1F
100
AcDbEntity
  8
sk3
100
AcDbCircle
 10
15.19999999999999
 20
-6.050000000000011
 30
0.0
 40
0.8
100
AcDbArc
 50
270.0
 51
0.0
  0
ARC
  5
602A2
330
1F
100
AcDbEntity
  8
sk3
100
AcDbCircle
 10
16.4
 20
-3.899999999999977
 30
0.0
 40
0.4
100
AcDbArc
 50
90.0
 51
180.0
  0
ARC
  5
602A3
330
1F
100
AcDbEntity
  8
nocut
100
AcDbCircle
 10
25.4374433177
 20
13.07901798179995
 30
0.0
 40
5.0
100
AcDbArc
 50
90.0
 51
100.0000000000001
  0
ARC
  5
602A4
330
1F
100
AcDbEntity
  8
sk3
100
AcDbCircle
 10
46.13108346229995
 20
8.243691956600052
 30
0.0
 40
2.0
100
AcDbArc
 50
139.7441911862996
 51
180.0
  0
ARC
  5
602A5
330
1F
100
AcDbEntity
  8
sk3
100
AcDbCircle
 10
36.39999999999998
 20
5.100000000000022
 30
0.0
 40
0.4
100
AcDbArc
 50
90.0
 51
180.0
  0
ARC
  5
602A6
330
1F
100
AcDbEntity
  8
sk3
100
AcDbCircle
 10
48.49758484910001
 20
15.25927464600005
 30
0.0
 40
0.2
100
AcDbArc
 50
329.7441911862999
 51
0.0
  0
ARC
  5
602A7
330
1F
100
AcDbEntity
  8
nocut
100
AcDbCircle
 10
48.49758484910001
 20
15.85562050869998
 30
0.0
 40
0.2
100
AcDbArc
 50
0.0
 51
25.91423434810017
  0
ARC
  5
602A8
330
1F
100
AcDbEntity
  8
nocut
100
AcDbCircle
 10
47.82809453489995
 20
17.23351009199996
 30
0.0
 40
0.2
100
AcDbArc
 50
25.91423434810017
 51
87.11789265130034
  0
ARC
  5
602A9
330
1F
100
AcDbEntity
  8
nocut
100
AcDbCircle
 10
19.33081157409998
 20
32.3107862819
 30
0.0
 40
15.0
100
AcDbArc
 50
249.1828085602003
 51
280.0000000000002
  0
ARC
  5
602AA
330
1F
100
AcDbEntity
  8
nocut
100
AcDbCircle
 10
1.5
 20
16.78999999999996
 30
0.0
 40
1.5
100
AcDbArc
 50
90.0
 51
180.0
  0
ARC
  5
602AB
330
1F
100
AcDbEntity
  8
sk3
100
AcDbCircle
 10
15.19999999999999
 20
6.050000000000011
 30
0.0
 40
0.8
100
AcDbArc
 50
0.0
 51
90.0
  0
ARC
  5
602AC
330
1F
100
AcDbEntity
  8
sk3
100
AcDbCircle
 10
16.4
 20
3.900000000000034
 30
0.0
 40
0.4
100
AcDbArc
 50
180.0
 51
270.0
  0
SPLINE
  5
602AD
330
1F
100
AcDbEntity
  8
1
100
AcDbSpline
210
0.0
220
0.0
230
1.0
 70
     8
 71
     3
 72
    15
 73
    11
 74
     0
 42
0.0000000001
 43
0.0000000001
 40
0.0
 40
0.0
 40
0.0
 40
0.0
 40
0.1257624577
 40
0.251400551
 40
0.3768323277
 40
0.5019843443000001
 40
0.6268343870000001
 40
0.7514046959
 40
0.8757604770999998
 40
1.0
 40
1.0
 40
1.0
 40
1.0
 10
33.63063091499999
 20
13.90527739489999
 30
0.0
 10
33.63063091499999
 20
13.76153112520001
 30
0.0
 10
33.65861148659997
 20
13.47340165469997
 30
0.0
 10
33.78296854909996
 20
13.0583200911
 30
0.0
 10
33.98492136979996
 20
12.6755449595
 30
0.0
 10
34.25679016549998
 20
12.33999074709999
 30
0.0
 10
34.58814427509992
 20
12.06452449479999
 30
0.0
 10
34.96632980919992
 20
11.8597831173
 30
0.0
 10
35.37659004189993
 20
11.73367448689998
 30
0.0
 10
35.66153970649998
 20
11.70527739489998
 30
0.0
 10
35.80354526429994
 20
11.70527739489998
 30
0.0
  0
SPLINE
  5
602AE
330
1F
100
AcDbEntity
  8
1
100
AcDbSpline
210
0.0
220
0.0
230
1.0
 70
     8
 71
     3
 72
    13
 73
     9
 74
     0
 42
0.0000000001
 43
0.0000000001
 40
0.0
 40
0.0
 40
0.0
 40
0.0
 40
0.1249408587
 40
0.25019142
 40
0.5
 40
0.74980858
 40
0.8750591412999998
 40
1.0
 40
1.0
 40
1.0
 40
1.0
 10
36.7347507902
 20
14.23582649739997
 30
0.0
 10
36.71326577699995
 20
14.21427709809998
 30
0.0
 10
36.67441445709994
 20
14.16670563559998
 30
0.0
 10
36.61692266149998
 20
14.05864715629997
 30
0.0
 10
36.58643188279996
 20
13.90527739489999
 30
0.0
 10
36.61692266149998
 20
13.75190763359998
 30
0.0
 10
36.67441445709994
 20
13.6438491543
 30
0.0
 10
36.71326577699995
 20
13.5962776918
 30
0.0
 10
36.7347507902
 20
13.5747282925
 30
0.0
  0
SPLINE
  5
602AF
330
1F
100
AcDbEntity
  8
1
100
AcDbSpline
210
0.0
220
0.0
230
1.0
 70
     8
 71
     3
 72
    15
 73
    11
 74
     0
 42
0.0000000001
 43
0.0000000001
 40
0.0
 40
0.0
 40
0.0
 40
0.0
 40
0.1250615808
 40
0.2504787492
 40
0.3760837462
 40
0.5015998426000003
 40
0.6268015535
 40
0.7515623370000001
 40
0.8759097198999999
 40
1.0
 40
1.0
 40
1.0
 40
1.0
 10
36.7347507902
 20
14.23582649739997
 30
0.0
 10
36.74963392630002
 20
14.2507542351
 30
0.0
 10
36.77515817259996
 20
14.28528702099999
 30
0.0
 10
36.79675181789998
 20
14.34580753430001
 30
0.0
 10
36.80008385049996
 20
14.41010023199999
 30
0.0
 10
36.78480558419995
 20
14.47259488419999
 30
0.0
 10
36.75224269669997
 20
14.52792340289997
 30
0.0
 10
36.70515179169996
 20
14.57130174779999
 30
0.0
 10
36.64765442069995
 20
14.59894440739998
 30
0.0
 10
36.60551346770001
 20
14.60528208029998
 30
0.0
 10
36.58459768909995
 20
14.60527754360001
 30
0.0
  0
SPLINE
  5
602B0
330
1F
100
AcDbEntity
  8
1
100
AcDbSpline
210
0.0
220
0.0
230
1.0
 70
     8
 71
     3
 72
    11
 73
     7
 74
     0
 42
0.0000000001
 43
0.0000000001
 40
0.0
 40
0.0
 40
0.0
 40
0.0
 40
0.2513456686
 40
0.5017415717000003
 40
0.7511852959000001
 40
1.0
 40
1.0
 40
1.0
 40
1.0
 10
35.96294332150001
 20
14.9282015437
 30
0.0
 10
35.97566525309992
 20
14.87921138209998
 30
0.0
 10
36.01731868769997
 20
14.78483975450001
 30
0.0
 10
36.12150416249995
 20
14.67153953669998
 30
0.0
 10
36.2562499252
 20
14.59813457690001
 30
0.0
 10
36.35737410109999
 20
14.58121780749999
 30
0.0
 10
36.40747947599994
 20
14.5812266012
 30
0.0
  0
SPLINE
  5
602B1
330
1F
100
AcDbEntity
  8
1
100
AcDbSpline
210
0.0
220
0.0
230
1.0
 70
     8
 71
     3
 72
    11
 73
     7
 74
     0
 42
0.0000000001
 43
0.0000000001
 40
0.0
 40
0.0
 40
0.0
 40
0.0
 40
0.2513500126
 40
0.5017308986
 40
0.7511749561
 40
1.0
 40
1.0
 40
1.0
 40
1.0
 10
35.96294332150001
 20
14.9282015437
 30
0.0
 10
35.95703813649993
 20
14.95094148399999
 30
0.0
 10
35.937707564
 20
14.99474661069999
 30
0.0
 10
35.889346617
 20
15.04733231919999
 30
0.0
 10
35.82681224999999
 20
15.08141998509997
 30
0.0
 10
35.77987308249999
 20
15.08927739489999
 30
0.0
 10
35.75661492479998
 20
15.08927739489999
 30
0.0
  0
SPLINE
  5
602B2
330
1F
100
AcDbEntity
  8
1
100
AcDbSpline
210
0.0
220
0.0
230
1.0
 70
     8
 71
     3
 72
    15
 73
    11
 74
     0
 42
0.0000000001
 43
0.0000000001
 40
0.0
 40
0.0
 40
0.0
 40
0.0
 40
0.1257624577
 40
0.251400551
 40
0.3768323277
 40
0.5019843443000001
 40
0.6268343870000001
 40
0.7514046959
 40
0.8757604770999998
 40
1.0
 40
1.0
 40
1.0
 40
1.0
 10
33.63063091499999
 20
13.90527739489999
 30
0.0
 10
33.63063091499999
 20
14.04902366459998
 30
0.0
 10
33.65861148659997
 20
14.33715313509998
 30
0.0
 10
33.78296854909996
 20
14.75223469869998
 30
0.0
 10
33.98492136979996
 20
15.13500983039998
 30
0.0
 10
34.25679016549998
 20
15.47056404279999
 30
0.0
 10
34.58814427509992
 20
15.74603029509997
 30
0.0
 10
34.96632980919992
 20
15.95077167259997
 30
0.0
 10
35.37659004189993
 20
16.07688030299998
 30
0.0
 10
35.66153970649998
 20
16.10527739489998
 30
0.0
 10
35.80354526429994
 20
16.10527739489998
 30
0.0
  0
SPLINE
  5
602B3
330
1F
100
AcDbEntity
  8
1
100
AcDbSpline
210
0.0
220
0.0
230
1.0
 70
     8
 71
     3
 72
    15
 73
    11
 74
     0
 42
0.0000000001
 43
0.0000000001
 40
0.0
 40
0.0
 40
0.0
 40
0.0
 40
0.1240902801
 40
0.248437663
 40
0.3731984465
 40
0.4984001574000001
 40
0.6239162538000002
 40
0.7495212508
 40
0.8749384192
 40
1.0
 40
1.0
 40
1.0
 40
1.0
 10
36.58459768909995
 20
13.20527724629997
 30
0.0
 10
36.60551346770001
 20
13.20527270959999
 30
0.0
 10
36.64765442069995
 20
13.2116103825
 30
0.0
 10
36.70515179169996
 20
13.239253042
 30
0.0
 10
36.75224269669997
 20
13.28263138689999
 30
0.0
 10
36.78480558419995
 20
13.33795990569999
 30
0.0
 10
36.80008385049996
 20
13.40045455789999
 30
0.0
 10
36.79675181789998
 20
13.46474725559996
 30
0.0
 10
36.77515817259996
 20
13.52526776879998
 30
0.0
 10
36.74963392630002
 20
13.55980055469999
 30
0.0
 10
36.7347507902
 20
13.5747282925
 30
0.0
  0
SPLINE
  5
602B4
330
1F
100
AcDbEntity
  8
1
100
AcDbSpline
210
0.0
220
0.0
230
1.0
 70
     8
 71
     3
 72
    11
 73
     7
 74
     0
 42
0.0000000001
 43
0.0000000001
 40
0.0
 40
0.0
 40
0.0
 40
0.0
 40
0.2488147041
 40
0.4982584283
 40
0.7486543314000002
 40
1.0
 40
1.0
 40
1.0
 40
1.0
 10
36.40747947599994
 20
13.22932818870001
 30
0.0
 10
36.35737410109999
 20
13.22933698239998
 30
0.0
 10
36.2562499252
 20
13.21242021289998
 30
0.0
 10
36.12150416249995
 20
13.1390152532
 30
0.0
 10
36.01731868769997
 20
13.02571503539997
 30
0.0
 10
35.97566525309992
 20
12.9313434078
 30
0.0
 10
35.96294332150001
 20
12.88235324620001
 30
0.0
  0
SPLINE
  5
602B5
330
1F
100
AcDbEntity
  8
1
100
AcDbSpline
210
0.0
220
0.0
230
1.0
 70
     8
 71
     3
 72
    11
 73
     7
 74
     0
 42
0.0000000001
 43
0.0000000001
 40
0.0
 40
0.0
 40
0.0
 40
0.0
 40
0.2488250439
 40
0.4982691014000002
 40
0.7486499874
 40
1.0
 40
1.0
 40
1.0
 40
1.0
 10
35.75661492479998
 20
12.7212773949
 30
0.0
 10
35.77987308249999
 20
12.7212773949
 30
0.0
 10
35.82681224999999
 20
12.72913480479999
 30
0.0
 10
35.889346617
 20
12.7632224706
 30
0.0
 10
35.937707564
 20
12.81580817919999
 30
0.0
 10
35.95703813649993
 20
12.85961330589997
 30
0.0
 10
35.96294332150001
 20
12.88235324620001
 30
0.0
  0
SPLINE
  5
602B6
330
1F
100
AcDbEntity
  8
1
100
AcDbSpline
210
0.0
220
0.0
230
1.0
 70
     8
 71
     3
 72
    27
 73
    23
 74
     0
 42
0.0000000001
 43
0.0000000001
 40
0.0
 40
0.0
 40
0.0
 40
0.0
 40
0.0628624026
 40
0.0943105621
 40
0.125736703
 40
0.1884339888
 40
0.2509911552
 40
0.282250729
 40
0.3134730952
 40
0.3757396014
 40
0.437898863
 40
0.5
 40
0.5621011370000001
 40
0.6242603986000002
 40
0.6865269048
 40
0.717749271
 40
0.7490088448000001
 40
0.8115660112
 40
0.874263297
 40
0.9056894379
 40
0.9371375973999999
 40
1.0
 40
1.0
 40
1.0
 40
1.0
 10
33.88000707769999
 20
13.90527739489999
 30
0.0
 10
33.88000707769999
 20
14.02942190179999
 30
0.0
 10
33.89818285189995
 20
14.21632897619999
 30
0.0
 10
33.95791426109997
 20
14.457638782
 30
0.0
 10
34.04063978839997
 20
14.69179738559997
 30
0.0
 10
34.18596416029993
 20
14.96732288499998
 30
0.0
 10
34.38190981759999
 20
15.2090949409
 30
0.0
 10
34.56411611219994
 20
15.3762800394
 30
0.0
 10
34.76136536959996
 20
15.52445177659999
 30
0.0
 10
35.03357267619993
 20
15.67187148939999
 30
0.0
 10
35.38796580849999
 20
15.78074355209998
 30
0.0
 10
35.75661492479998
 20
15.81753299489998
 30
0.0
 10
36.12526404099992
 20
15.78074355209998
 30
0.0
 10
36.47965717329999
 20
15.67187148939999
 30
0.0
 10
36.75186447989995
 20
15.52445177659999
 30
0.0
 10
36.94911373729997
 20
15.3762800394
 30
0.0
 10
37.13132003189997
 20
15.2090949409
 30
0.0
 10
37.32726568929996
 20
14.96732288499998
 30
0.0
 10
37.47259006109999
 20
14.69179738559997
 30
0.0
 10
37.55531558839994
 20
14.457638782
 30
0.0
 10
37.61504699759996
 20
14.21632897619999
 30
0.0
 10
37.63322277189997
 20
14.02942190179999
 30
0.0
 10
37.63322277189997
 20
13.90527739489999
 30
0.0
  0
SPLINE
  5
602B7
330
1F
100
AcDbEntity
  8
1
100
AcDbSpline
210
0.0
220
0.0
230
1.0
 70
     8
 71
     3
 72
    27
 73
    23
 74
     0
 42
0.0000000001
 43
0.0000000001
 40
0.0
 40
0.0
 40
0.0
 40
0.0
 40
0.0628624026
 40
0.0943105621
 40
0.125736703
 40
0.1884339888
 40
0.2509911552
 40
0.282250729
 40
0.3134730952
 40
0.3757396014
 40
0.437898863
 40
0.5
 40
0.5621011370000001
 40
0.6242603986000002
 40
0.6865269048
 40
0.717749271
 40
0.7490088448000001
 40
0.8115660112
 40
0.874263297
 40
0.9056894379
 40
0.9371375973999999
 40
1.0
 40
1.0
 40
1.0
 40
1.0
 10
33.88000707769999
 20
13.90527739489999
 30
0.0
 10
33.88000707769999
 20
13.78113288809999
 30
0.0
 10
33.89818285189995
 20
13.5942258137
 30
0.0
 10
33.95791426109997
 20
13.35291600789998
 30
0.0
 10
34.04063978839997
 20
13.1187574043
 30
0.0
 10
34.18596416029993
 20
12.84323190489998
 30
0.0
 10
34.38190981759999
 20
12.60145984899998
 30
0.0
 10
34.56411611219994
 20
12.43427475049998
 30
0.0
 10
34.76136536959996
 20
12.28610301329998
 30
0.0
 10
35.03357267619993
 20
12.13868330039997
 30
0.0
 10
35.38796580849999
 20
12.0298112378
 30
0.0
 10
35.75661492479998
 20
11.993021795
 30
0.0
 10
36.12526404099992
 20
12.0298112378
 30
0.0
 10
36.47965717329999
 20
12.13868330039997
 30
0.0
 10
36.75186447989995
 20
12.28610301329998
 30
0.0
 10
36.94911373729997
 20
12.43427475049998
 30
0.0
 10
37.13132003189997
 20
12.60145984899998
 30
0.0
 10
37.32726568929996
 20
12.84323190489998
 30
0.0
 10
37.47259006109999
 20
13.1187574043
 30
0.0
 10
37.55531558839994
 20
13.35291600789998
 30
0.0
 10
37.61504699759996
 20
13.5942258137
 30
0.0
 10
37.63322277189997
 20
13.78113288809999
 30
0.0
 10
37.63322277189997
 20
13.90527739489999
 30
0.0
  0
SPLINE
  5
602B8
330
1F
100
AcDbEntity
  8
1
100
AcDbSpline
210
0.0
220
0.0
230
1.0
 70
     8
 71
     3
 72
    11
 73
     7
 74
     0
 42
0.0000000001
 43
0.0000000001
 40
0.0
 40
0.0
 40
0.0
 40
0.0
 40
0.2513456686
 40
0.5017415717000003
 40
0.7511852959000001
 40
1.0
 40
1.0
 40
1.0
 40
1.0
 10
35.55028652809995
 20
12.88235324620001
 30
0.0
 10
35.53756459649998
 20
12.9313434078
 30
0.0
 10
35.49591116189993
 20
13.02571503539997
 30
0.0
 10
35.39172568710001
 20
13.1390152532
 30
0.0
 10
35.25697992439996
 20
13.21242021289998
 30
0.0
 10
35.15585574849996
 20
13.22933698239998
 30
0.0
 10
35.10575037360002
 20
13.22932818870001
 30
0.0
  0
SPLINE
  5
602B9
330
1F
100
AcDbEntity
  8
1
100
AcDbSpline
210
0.0
220
0.0
230
1.0
 70
     8
 71
     3
 72
    11
 73
     7
 74
     0
 42
0.0000000001
 43
0.0000000001
 40
0.0
 40
0.0
 40
0.0
 40
0.0
 40
0.2513500126
 40
0.5017308986
 40
0.7511749561
 40
1.0
 40
1.0
 40
1.0
 40
1.0
 10
35.55028652809995
 20
12.88235324620001
 30
0.0
 10
35.55619171309996
 20
12.85961330589997
 30
0.0
 10
35.57552228549997
 20
12.81580817919999
 30
0.0
 10
35.62388323259995
 20
12.7632224706
 30
0.0
 10
35.68641759959997
 20
12.72913480479999
 30
0.0
 10
35.73335676699997
 20
12.7212773949
 30
0.0
 10
35.75661492479998
 20
12.7212773949
 30
0.0
  0
SPLINE
  5
602BA
330
1F
100
AcDbEntity
  8
1
100
AcDbSpline
210
0.0
220
0.0
230
1.0
 70
     8
 71
     3
 72
    13
 73
     9
 74
     0
 42
0.0000000001
 43
0.0000000001
 40
0.0
 40
0.0
 40
0.0
 40
0.0
 40
0.1249408587
 40
0.25019142
 40
0.5
 40
0.74980858
 40
0.8750591412999998
 40
1.0
 40
1.0
 40
1.0
 40
1.0
 10
34.77847905939996
 20
13.5747282925
 30
0.0
 10
34.79996407259995
 20
13.5962776918
 30
0.0
 10
34.83881539250001
 20
13.6438491543
 30
0.0
 10
34.89630718799998
 20
13.75190763359998
 30
0.0
 10
34.9267979668
 20
13.90527739489999
 30
0.0
 10
34.89630718799998
 20
14.05864715629997
 30
0.0
 10
34.83881539250001
 20
14.16670563559998
 30
0.0
 10
34.79996407259995
 20
14.21427709809998
 30
0.0
 10
34.77847905939996
 20
14.23582649739997
 30
0.0
  0
SPLINE
  5
602BB
330
1F
100
AcDbEntity
  8
1
100
AcDbSpline
210
0.0
220
0.0
230
1.0
 70
     8
 71
     3
 72
    15
 73
    11
 74
     0
 42
0.0000000001
 43
0.0000000001
 40
0.0
 40
0.0
 40
0.0
 40
0.0
 40
0.1242395229
 40
0.2485953041
 40
0.3731656129999999
 40
0.4980156557
 40
0.6231676723
 40
0.7485994490000003
 40
0.8742375423
 40
1.0
 40
1.0
 40
1.0
 40
1.0
 10
35.80354526429994
 20
11.70527739489998
 30
0.0
 10
35.94555082209996
 20
11.70527739489998
 30
0.0
 10
36.23050048669995
 20
11.73367448689998
 30
0.0
 10
36.64076071939997
 20
11.8597831173
 30
0.0
 10
37.01894625349996
 20
12.06452449479999
 30
0.0
 10
37.35030036309996
 20
12.33999074709999
 30
0.0
 10
37.62216915879998
 20
12.6755449595
 30
0.0
 10
37.82412197949998
 20
13.0583200911
 30
0.0
 10
37.94847904199997
 20
13.47340165469997
 30
0.0
 10
37.97645961360001
 20
13.76153112520001
 30
0.0
 10
37.97645961360001
 20
13.90527739489999
 30
0.0
  0
SPLINE
  5
602BC
330
1F
100
AcDbEntity
  8
1
100
AcDbSpline
210
0.0
220
0.0
230
1.0
 70
     8
 71
     3
 72
    15
 73
    11
 74
     0
 42
0.0000000001
 43
0.0000000001
 40
0.0
 40
0.0
 40
0.0
 40
0.0
 40
0.1250615808
 40
0.2504787492
 40
0.3760837462
 40
0.5015998426000003
 40
0.6268015535
 40
0.7515623370000001
 40
0.8759097198999999
 40
1.0
 40
1.0
 40
1.0
 40
1.0
 10
34.77847905939996
 20
13.5747282925
 30
0.0
 10
34.76359592329993
 20
13.55980055469999
 30
0.0
 10
34.73807167699999
 20
13.52526776879998
 30
0.0
 10
34.71647803159999
 20
13.46474725559996
 30
0.0
 10
34.71314599899995
 20
13.40045455789999
 30
0.0
 10
34.72842426540001
 20
13.33795990569999
 30
0.0
 10
34.7609871528
 20
13.28263138689999
 30
0.0
 10
34.80807805789999
 20
13.239253042
 30
0.0
 10
34.86557542879996
 20
13.2116103825
 30
0.0
 10
34.90771638189995
 20
13.20527270959999
 30
0.0
 10
34.9286321605
 20
13.20527724629997
 30
0.0
  0
SPLINE
  5
602BD
330
1F
100
AcDbEntity
  8
1
100
AcDbSpline
210
0.0
220
0.0
230
1.0
 70
     8
 71
     3
 72
    15
 73
    11
 74
     0
 42
0.0000000001
 43
0.0000000001
 40
0.0
 40
0.0
 40
0.0
 40
0.0
 40
0.1242395229
 40
0.2485953041
 40
0.3731656129999999
 40
0.4980156557
 40
0.6231676723
 40
0.7485994490000003
 40
0.8742375423
 40
1.0
 40
1.0
 40
1.0
 40
1.0
 10
35.80354526429994
 20
16.10527739489998
 30
0.0
 10
35.94555082209996
 20
16.10527739489998
 30
0.0
 10
36.23050048669995
 20
16.07688030299998
 30
0.0
 10
36.64076071939997
 20
15.95077167259997
 30
0.0
 10
37.01894625349996
 20
15.74603029509997
 30
0.0
 10
37.35030036309996
 20
15.47056404279999
 30
0.0
 10
37.62216915879998
 20
15.13500983039998
 30
0.0
 10
37.82412197949998
 20
14.75223469869998
 30
0.0
 10
37.94847904199997
 20
14.33715313509998
 30
0.0
 10
37.97645961360001
 20
14.04902366459998
 30
0.0
 10
37.97645961360001
 20
13.90527739489999
 30
0.0
  0
SPLINE
  5
602BE
330
1F
100
AcDbEntity
  8
1
100
AcDbSpline
210
0.0
220
0.0
230
1.0
 70
     8
 71
     3
 72
    15
 73
    11
 74
     0
 42
0.0000000001
 43
0.0000000001
 40
0.0
 40
0.0
 40
0.0
 40
0.0
 40
0.1240902801
 40
0.248437663
 40
0.3731984465
 40
0.4984001574000001
 40
0.6239162538000002
 40
0.7495212508
 40
0.8749384192
 40
1.0
 40
1.0
 40
1.0
 40
1.0
 10
34.9286321605
 20
14.60527754360001
 30
0.0
 10
34.90771638189995
 20
14.60528208029998
 30
0.0
 10
34.86557542879996
 20
14.59894440739998
 30
0.0
 10
34.80807805789999
 20
14.57130174779999
 30
0.0
 10
34.7609871528
 20
14.52792340289997
 30
0.0
 10
34.72842426540001
 20
14.47259488419999
 30
0.0
 10
34.71314599899995
 20
14.41010023199999
 30
0.0
 10
34.71647803159999
 20
14.34580753430001
 30
0.0
 10
34.73807167699999
 20
14.28528702099999
 30
0.0
 10
34.76359592329993
 20
14.2507542351
 30
0.0
 10
34.77847905939996
 20
14.23582649739997
 30
0.0
  0
SPLINE
  5
602BF
330
1F
100
AcDbEntity
  8
1
100
AcDbSpline
210
0.0
220
0.0
230
1.0
 70
     8
 71
     3
 72
    11
 73
     7
 74
     0
 42
0.0000000001
 43
0.0000000001
 40
0.0
 40
0.0
 40
0.0
 40
0.0
 40
0.2488147041
 40
0.4982584283
 40
0.7486543314000002
 40
1.0
 40
1.0
 40
1.0
 40
1.0
 10
35.10575037360002
 20
14.5812266012
 30
0.0
 10
35.15585574849996
 20
14.58121780749999
 30
0.0
 10
35.25697992439996
 20
14.59813457690001
 30
0.0
 10
35.39172568710001
 20
14.67153953669998
 30
0.0
 10
35.49591116189993
 20
14.78483975450001
 30
0.0
 10
35.53756459649998
 20
14.87921138209998
 30
0.0
 10
35.55028652809995
 20
14.9282015437
 30
0.0
  0
SPLINE
  5
602C0
330
1F
100
AcDbEntity
  8
1
100
AcDbSpline
210
0.0
220
0.0
230
1.0
 70
     8
 71
     3
 72
    11
 73
     7
 74
     0
 42
0.0000000001
 43
0.0000000001
 40
0.0
 40
0.0
 40
0.0
 40
0.0
 40
0.2488250439
 40
0.4982691014000002
 40
0.7486499874
 40
1.0
 40
1.0
 40
1.0
 40
1.0
 10
35.75661492479998
 20
15.08927739489999
 30
0.0
 10
35.73335676699997
 20
15.08927739489999
 30
0.0
 10
35.68641759959997
 20
15.08141998509997
 30
0.0
 10
35.62388323259995
 20
15.04733231919999
 30
0.0
 10
35.57552228549997
 20
14.99474661069999
 30
0.0
 10
35.55619171309996
 20
14.95094148399999
 30
0.0
 10
35.55028652809995
 20
14.9282015437
 30
0.0
  0
SPLINE
  5
602C1
330
1F
100
AcDbEntity
  8
1
100
AcDbSpline
210
0.0
220
0.0
230
1.0
 70
     8
 71
     3
 72
    15
 73
    11
 74
     0
 42
0.0000000001
 43
0.0000000001
 40
0.0
 40
0.0
 40
0.0
 40
0.0
 40
0.1257624577
 40
0.251400551
 40
0.3768323277
 40
0.5019843443000001
 40
0.6268343870000001
 40
0.7514046959
 40
0.8757604770999998
 40
1.0
 40
1.0
 40
1.0
 40
1.0
 10
41.14863331179992
 20
13.67096947479999
 30
0.0
 10
41.14863331179992
 20
13.5272232051
 30
0.0
 10
41.17661388339996
 20
13.23909373459997
 30
0.0
 10
41.30097094599995
 20
12.82401217110001
 30
0.0
 10
41.50292376669995
 20
12.44123703939999
 30
0.0
 10
41.77479256239997
 20
12.10568282700001
 30
0.0
 10
42.10614667200002
 20
11.83021657469999
 30
0.0
 10
42.48433220610002
 20
11.62547519719999
 30
0.0
 10
42.89459243879997
 20
11.4993665668
 30
0.0
 10
43.17954210329992
 20
11.4709694748
 30
0.0
 10
43.32154766119993
 20
11.4709694748
 30
0.0
  0
SPLINE
  5
602C2
330
1F
100
AcDbEntity
  8
1
100
AcDbSpline
210
0.0
220
0.0
230
1.0
 70
     8
 71
     3
 72
    13
 73
     9
 74
     0
 42
0.0000000001
 43
0.0000000001
 40
0.0
 40
0.0
 40
0.0
 40
0.0
 40
0.1249408587
 40
0.25019142
 40
0.5
 40
0.74980858
 40
0.8750591412999998
 40
1.0
 40
1.0
 40
1.0
 40
1.0
 10
44.25275318709998
 20
14.00151857729997
 30
0.0
 10
44.2312681738
 20
13.97996917799998
 30
0.0
 10
44.1924168539
 20
13.93239771549996
 30
0.0
 10
44.13492505839997
 20
13.82433923619999
 30
0.0
 10
44.10443427959996
 20
13.67096947479999
 30
0.0
 10
44.13492505839997
 20
13.5175997135
 30
0.0
 10
44.1924168539
 20
13.40954123419999
 30
0.0
 10
44.2312681738
 20
13.36196977169999
 30
0.0
 10
44.25275318709998
 20
13.34042037239999
 30
0.0
  0
SPLINE
  5
602C3
330
1F
100
AcDbEntity
  8
1
100
AcDbSpline
210
0.0
220
0.0
230
1.0
 70
     8
 71
     3
 72
    15
 73
    11
 74
     0
 42
0.0000000001
 43
0.0000000001
 40
0.0
 40
0.0
 40
0.0
 40
0.0
 40
0.1250615808
 40
0.2504787492
 40
0.3760837462
 40
0.5015998426000003
 40
0.6268015535
 40
0.7515623370000001
 40
0.8759097198999999
 40
1.0
 40
1.0
 40
1.0
 40
1.0
 10
44.25275318709998
 20
14.00151857729997
 30
0.0
 10
44.26763632320001
 20
14.01644631509998
 30
0.0
 10
44.29316056939995
 20
14.05097910099998
 30
0.0
 10
44.31475421479996
 20
14.1114996142
 30
0.0
 10
44.31808624739995
 20
14.17579231189997
 30
0.0
 10
44.302807981
 20
14.23828696409997
 30
0.0
 10
44.27024509360001
 20
14.29361548279998
 30
0.0
 10
44.22315418860001
 20
14.33699382769997
 30
0.0
 10
44.16565681759993
 20
14.36463648729997
 30
0.0
 10
44.12351586459999
 20
14.37097416020001
 30
0.0
 10
44.10260008599993
 20
14.37096962349999
 30
0.0
  0
SPLINE
  5
602C4
330
1F
100
AcDbEntity
  8
1
100
AcDbSpline
210
0.0
220
0.0
230
1.0
 70
     8
 71
     3
 72
    11
 73
     7
 74
     0
 42
0.0000000001
 43
0.0000000001
 40
0.0
 40
0.0
 40
0.0
 40
0.0
 40
0.2513456686
 40
0.5017415717000003
 40
0.7511852959000001
 40
1.0
 40
1.0
 40
1.0
 40
1.0
 10
43.48094571829995
 20
14.69389362359999
 30
0.0
 10
43.49366764989992
 20
14.644903462
 30
0.0
 10
43.53532108449996
 20
14.5505318344
 30
0.0
 10
43.63950655939993
 20
14.43723161659999
 30
0.0
 10
43.77425232209998
 20
14.36382665689999
 30
0.0
 10
43.87537649789999
 20
14.34690988739999
 30
0.0
 10
43.92548187279993
 20
14.34691868109998
 30
0.0
  0
SPLINE
  5
602C5
330
1F
100
AcDbEntity
  8
1
100
AcDbSpline
210
0.0
220
0.0
230
1.0
 70
     8
 71
     3
 72
    11
 73
     7
 74
     0
 42
0.0000000001
 43
0.0000000001
 40
0.0
 40
0.0
 40
0.0
 40
0.0
 40
0.2513500126
 40
0.5017308986
 40
0.7511749561
 40
1.0
 40
1.0
 40
1.0
 40
1.0
 10
43.48094571829995
 20
14.69389362359999
 30
0.0
 10
43.47504053339998
 20
14.71663356389999
 30
0.0
 10
43.45570996089998
 20
14.76043869059997
 30
0.0
 10
43.40734901379994
 20
14.8130243992
 30
0.0
 10
43.34481464679993
 20
14.847112065
 30
0.0
 10
43.29787547939997
 20
14.85496947479999
 30
0.0
 10
43.27461732159997
 20
14.85496947479999
 30
0.0
  0
SPLINE
  5
602C6
330
1F
100
AcDbEntity
  8
1
100
AcDbSpline
210
0.0
220
0.0
230
1.0
 70
     8
 71
     3
 72
    15
 73
    11
 74
     0
 42
0.0000000001
 43
0.0000000001
 40
0.0
 40
0.0
 40
0.0
 40
0.0
 40
0.1257624577
 40
0.251400551
 40
0.3768323277
 40
0.5019843443000001
 40
0.6268343870000001
 40
0.7514046959
 40
0.8757604770999998
 40
1.0
 40
1.0
 40
1.0
 40
1.0
 10
41.14863331179992
 20
13.67096947479999
 30
0.0
 10
41.14863331179992
 20
13.81471574459999
 30
0.0
 10
41.17661388339996
 20
14.10284521509999
 30
0.0
 10
41.30097094599995
 20
14.51792677859998
 30
0.0
 10
41.50292376669995
 20
14.9007019103
 30
0.0
 10
41.77479256239997
 20
15.23625612269998
 30
0.0
 10
42.10614667200002
 20
15.51172237499997
 30
0.0
 10
42.48433220610002
 20
15.7164637525
 30
0.0
 10
42.89459243879997
 20
15.84257238289999
 30
0.0
 10
43.17954210329992
 20
15.87096947479998
 30
0.0
 10
43.32154766119993
 20
15.87096947479998
 30
0.0
  0
SPLINE
  5
602C7
330
1F
100
AcDbEntity
  8
1
100
AcDbSpline
210
0.0
220
0.0
230
1.0
 70
     8
 71
     3
 72
    15
 73
    11
 74
     0
 42
0.0000000001
 43
0.0000000001
 40
0.0
 40
0.0
 40
0.0
 40
0.0
 40
0.1240902801
 40
0.248437663
 40
0.3731984465
 40
0.4984001574000001
 40
0.6239162538000002
 40
0.7495212508
 40
0.8749384192
 40
1.0
 40
1.0
 40
1.0
 40
1.0
 10
44.10260008599993
 20
12.97096932619998
 30
0.0
 10
44.12351586459999
 20
12.97096478949999
 30
0.0
 10
44.16565681759993
 20
12.97730246239999
 30
0.0
 10
44.22315418860001
 20
13.00494512200001
 30
0.0
 10
44.27024509360001
 20
13.0483234669
 30
0.0
 10
44.302807981
 20
13.10365198559997
 30
0.0
 10
44.31808624739995
 20
13.1661466378
 30
0.0
 10
44.31475421479996
 20
13.23043933549999
 30
0.0
 10
44.29316056939995
 20
13.2909598487
 30
0.0
 10
44.26763632320001
 20
13.32549263459998
 30
0.0
 10
44.25275318709998
 20
13.34042037239999
 30
0.0
  0
SPLINE
  5
602C8
330
1F
100
AcDbEntity
  8
1
100
AcDbSpline
210
0.0
220
0.0
230
1.0
 70
     8
 71
     3
 72
    11
 73
     7
 74
     0
 42
0.0000000001
 43
0.0000000001
 40
0.0
 40
0.0
 40
0.0
 40
0.0
 40
0.2488147041
 40
0.4982584283
 40
0.7486543314000002
 40
1.0
 40
1.0
 40
1.0
 40
1.0
 10
43.92548187279993
 20
12.99502026859999
 30
0.0
 10
43.87537649789999
 20
12.99502906229998
 30
0.0
 10
43.77425232209998
 20
12.9781122928
 30
0.0
 10
43.63950655939993
 20
12.90470733309998
 30
0.0
 10
43.53532108449996
 20
12.79140711529999
 30
0.0
 10
43.49366764989992
 20
12.69703548769999
 30
0.0
 10
43.48094571829995
 20
12.64804532609999
 30
0.0
  0
SPLINE
  5
602C9
330
1F
100
AcDbEntity
  8
1
100
AcDbSpline
210
0.0
220
0.0
230
1.0
 70
     8
 71
     3
 72
    11
 73
     7
 74
     0
 42
0.0000000001
 43
0.0000000001
 40
0.0
 40
0.0
 40
0.0
 40
0.0
 40
0.2488250439
 40
0.4982691014000002
 40
0.7486499874
 40
1.0
 40
1.0
 40
1.0
 40
1.0
 10
43.27461732159997
 20
12.48696947479999
 30
0.0
 10
43.29787547939997
 20
12.48696947479999
 30
0.0
 10
43.34481464679993
 20
12.49482688469999
 30
0.0
 10
43.40734901379994
 20
12.52891455049999
 30
0.0
 10
43.45570996089998
 20
12.58150025909997
 30
0.0
 10
43.47504053339998
 20
12.62530538579997
 30
0.0
 10
43.48094571829995
 20
12.64804532609999
 30
0.0
  0
SPLINE
  5
602CA
330
1F
100
AcDbEntity
  8
1
100
AcDbSpline
210
0.0
220
0.0
230
1.0
 70
     8
 71
     3
 72
    27
 73
    23
 74
     0
 42
0.0000000001
 43
0.0000000001
 40
0.0
 40
0.0
 40
0.0
 40
0.0
 40
0.0628624026
 40
0.0943105621
 40
0.125736703
 40
0.1884339888
 40
0.2509911552
 40
0.282250729
 40
0.3134730952
 40
0.3757396014
 40
0.437898863
 40
0.5
 40
0.5621011370000001
 40
0.6242603986000002
 40
0.6865269048
 40
0.717749271
 40
0.7490088448000001
 40
0.8115660112
 40
0.874263297
 40
0.9056894379
 40
0.9371375973999999
 40
1.0
 40
1.0
 40
1.0
 40
1.0
 10
41.39800947449998
 20
13.67096947479999
 30
0.0
 10
41.39800947449998
 20
13.79511398169998
 30
0.0
 10
41.41618524879999
 20
13.98202105609999
 30
0.0
 10
41.47591665799995
 20
14.22333086189999
 30
0.0
 10
41.55864218529996
 20
14.45748946549997
 30
0.0
 10
41.70396655719992
 20
14.73301496489998
 30
0.0
 10
41.89991221449997
 20
14.97478702079998
 30
0.0
 10
42.08211850909998
 20
15.14197211929999
 30
0.0
 10
42.27936776649994
 20
15.29014385649998
 30
0.0
 10
42.5515750730999
 20
15.4375635694
 30
0.0
 10
42.90596820539997
 20
15.546435632
 30
0.0
 10
43.27461732159997
 20
15.58322507479999
 30
0.0
 10
43.64326643790002
 20
15.546435632
 30
0.0
 10
43.99765957019996
 20
15.4375635694
 30
0.0
 10
44.26986687679994
 20
15.29014385649997
 30
0.0
 10
44.46711613419995
 20
15.14197211929998
 30
0.0
 10
44.64932242879996
 20
14.97478702079998
 30
0.0
 10
44.84526808609996
 20
14.73301496489998
 30
0.0
 10
44.99059245799998
 20
14.45748946549997
 30
0.0
 10
45.07331798529992
 20
14.22333086189999
 30
0.0
 10
45.13304939449994
 20
13.98202105609999
 30
0.0
 10
45.1512251688
 20
13.79511398169998
 30
0.0
 10
45.1512251688
 20
13.67096947479999
 30
0.0
  0
SPLINE
  5
602CB
330
1F
100
AcDbEntity
  8
1
100
AcDbSpline
210
0.0
220
0.0
230
1.0
 70
     8
 71
     3
 72
    27
 73
    23
 74
     0
 42
0.0000000001
 43
0.0000000001
 40
0.0
 40
0.0
 40
0.0
 40
0.0
 40
0.0628624026
 40
0.0943105621
 40
0.125736703
 40
0.1884339888
 40
0.2509911552
 40
0.282250729
 40
0.3134730952
 40
0.3757396014
 40
0.437898863
 40
0.5
 40
0.5621011370000001
 40
0.6242603986000002
 40
0.6865269048
 40
0.717749271
 40
0.7490088448000001
 40
0.8115660112
 40
0.874263297
 40
0.9056894379
 40
0.9371375973999999
 40
1.0
 40
1.0
 40
1.0
 40
1.0
 10
41.39800947449998
 20
13.67096947479999
 30
0.0
 10
41.39800947449998
 20
13.54682496799998
 30
0.0
 10
41.41618524879999
 20
13.3599178936
 30
0.0
 10
41.47591665799995
 20
13.1186080878
 30
0.0
 10
41.55864218529996
 20
12.88444948419999
 30
0.0
 10
41.70396655719992
 20
12.60892398479998
 30
0.0
 10
41.89991221449997
 20
12.36715192889997
 30
0.0
 10
42.08211850909998
 20
12.19996683039997
 30
0.0
 10
42.27936776649994
 20
12.05179509319998
 30
0.0
 10
42.5515750730999
 20
11.90437538029999
 30
0.0
 10
42.90596820539997
 20
11.79550331769999
 30
0.0
 10
43.27461732159997
 20
11.75871387489999
 30
0.0
 10
43.64326643790002
 20
11.79550331769999
 30
0.0
 10
43.99765957019996
 20
11.90437538029999
 30
0.0
 10
44.26986687679994
 20
12.05179509319998
 30
0.0
 10
44.46711613419995
 20
12.19996683039996
 30
0.0
 10
44.64932242879996
 20
12.36715192889996
 30
0.0
 10
44.84526808609996
 20
12.60892398479998
 30
0.0
 10
44.99059245799998
 20
12.88444948419999
 30
0.0
 10
45.07331798529992
 20
13.1186080878
 30
0.0
 10
45.13304939449994
 20
13.3599178936
 30
0.0
 10
45.1512251688
 20
13.54682496799997
 30
0.0
 10
45.1512251688
 20
13.67096947479999
 30
0.0
  0
SPLINE
  5
602CC
330
1F
100
AcDbEntity
  8
1
100
AcDbSpline
210
0.0
220
0.0
230
1.0
 70
     8
 71
     3
 72
    11
 73
     7
 74
     0
 42
0.0000000001
 43
0.0000000001
 40
0.0
 40
0.0
 40
0.0
 40
0.0
 40
0.2513456686
 40
0.5017415717000003
 40
0.7511852959000001
 40
1.0
 40
1.0
 40
1.0
 40
1.0
 10
43.06828892499993
 20
12.64804532609999
 30
0.0
 10
43.05556699329997
 20
12.69703548769999
 30
0.0
 10
43.01391355879997
 20
12.79140711529999
 30
0.0
 10
42.90972808389994
 20
12.90470733309999
 30
0.0
 10
42.7749823211999
 20
12.9781122928
 30
0.0
 10
42.6738581454
 20
12.99502906229998
 30
0.0
 10
42.62375277049994
 20
12.9950202686
 30
0.0
  0
SPLINE
  5
602CD
330
1F
100
AcDbEntity
  8
1
100
AcDbSpline
210
0.0
220
0.0
230
1.0
 70
     8
 71
     3
 72
    11
 73
     7
 74
     0
 42
0.0000000001
 43
0.0000000001
 40
0.0
 40
0.0
 40
0.0
 40
0.0
 40
0.2513500126
 40
0.5017308986
 40
0.7511749561
 40
1.0
 40
1.0
 40
1.0
 40
1.0
 10
43.06828892499993
 20
12.64804532609999
 30
0.0
 10
43.07419410989996
 20
12.62530538579997
 30
0.0
 10
43.09352468239995
 20
12.58150025909997
 30
0.0
 10
43.14188562939995
 20
12.52891455049999
 30
0.0
 10
43.20441999649995
 20
12.49482688469999
 30
0.0
 10
43.25135916389996
 20
12.48696947479999
 30
0.0
 10
43.27461732159997
 20
12.48696947479999
 30
0.0
  0
SPLINE
  5
602CE
330
1F
100
AcDbEntity
  8
1
100
AcDbSpline
210
0.0
220
0.0
230
1.0
 70
     8
 71
     3
 72
    13
 73
     9
 74
     0
 42
0.0000000001
 43
0.0000000001
 40
0.0
 40
0.0
 40
0.0
 40
0.0
 40
0.1249408587
 40
0.25019142
 40
0.5
 40
0.74980858
 40
0.8750591412999998
 40
1.0
 40
1.0
 40
1.0
 40
1.0
 10
42.29648145619996
 20
13.34042037239999
 30
0.0
 10
42.31796646939995
 20
13.36196977169999
 30
0.0
 10
42.35681778929995
 20
13.40954123419999
 30
0.0
 10
42.41430958489991
 20
13.5175997135
 30
0.0
 10
42.44480036369998
 20
13.67096947479999
 30
0.0
 10
42.41430958489991
 20
13.82433923619999
 30
0.0
 10
42.35681778929995
 20
13.93239771549996
 30
0.0
 10
42.31796646939995
 20
13.97996917799998
 30
0.0
 10
42.29648145619996
 20
14.00151857729997
 30
0.0
  0
SPLINE
  5
602CF
330
1F
100
AcDbEntity
  8
1
100
AcDbSpline
210
0.0
220
0.0
230
1.0
 70
     8
 71
     3
 72
    15
 73
    11
 74
     0
 42
0.0000000001
 43
0.0000000001
 40
0.0
 40
0.0
 40
0.0
 40
0.0
 40
0.1242395229
 40
0.2485953041
 40
0.3731656129999999
 40
0.4980156557
 40
0.6231676723
 40
0.7485994490000003
 40
0.8742375423
 40
1.0
 40
1.0
 40
1.0
 40
1.0
 10
43.32154766119993
 20
11.4709694748
 30
0.0
 10
43.46355321899994
 20
11.4709694748
 30
0.0
 10
43.74850288349995
 20
11.4993665668
 30
0.0
 10
44.15876311619996
 20
11.62547519719999
 30
0.0
 10
44.53694865039994
 20
11.83021657469999
 30
0.0
 10
44.86830275989996
 20
12.10568282700001
 30
0.0
 10
45.14017155559997
 20
12.44123703939999
 30
0.0
 10
45.34212437639996
 20
12.82401217110001
 30
0.0
 10
45.46648143889996
 20
13.23909373459997
 30
0.0
 10
45.4944620105
 20
13.5272232051
 30
0.0
 10
45.4944620105
 20
13.67096947479999
 30
0.0
  0
SPLINE
  5
602D0
330
1F
100
AcDbEntity
  8
1
100
AcDbSpline
210
0.0
220
0.0
230
1.0
 70
     8
 71
     3
 72
    15
 73
    11
 74
     0
 42
0.0000000001
 43
0.0000000001
 40
0.0
 40
0.0
 40
0.0
 40
0.0
 40
0.1250615808
 40
0.2504787492
 40
0.3760837462
 40
0.5015998426000003
 40
0.6268015535
 40
0.7515623370000001
 40
0.8759097198999999
 40
1.0
 40
1.0
 40
1.0
 40
1.0
 10
42.29648145619996
 20
13.34042037239999
 30
0.0
 10
42.28159832009999
 20
13.32549263459998
 30
0.0
 10
42.25607407389998
 20
13.2909598487
 30
0.0
 10
42.23448042849992
 20
13.23043933549999
 30
0.0
 10
42.23114839589993
 20
13.16614663780001
 30
0.0
 10
42.24642666219994
 20
13.10365198559998
 30
0.0
 10
42.27898954969998
 20
13.0483234669
 30
0.0
 10
42.32608045469999
 20
13.00494512200001
 30
0.0
 10
42.38357782569994
 20
12.97730246239999
 30
0.0
 10
42.4257187787
 20
12.97096478949999
 30
0.0
 10
42.44663455729994
 20
12.97096932619999
 30
0.0
  0
SPLINE
  5
602D1
330
1F
100
AcDbEntity
  8
1
100
AcDbSpline
210
0.0
220
0.0
230
1.0
 70
     8
 71
     3
 72
    15
 73
    11
 74
     0
 42
0.0000000001
 43
0.0000000001
 40
0.0
 40
0.0
 40
0.0
 40
0.0
 40
0.1242395229
 40
0.2485953041
 40
0.3731656129999999
 40
0.4980156557
 40
0.6231676723
 40
0.7485994490000003
 40
0.8742375423
 40
1.0
 40
1.0
 40
1.0
 40
1.0
 10
43.32154766119993
 20
15.87096947479998
 30
0.0
 10
43.46355321899994
 20
15.87096947479998
 30
0.0
 10
43.74850288349995
 20
15.84257238289999
 30
0.0
 10
44.15876311619996
 20
15.7164637525
 30
0.0
 10
44.53694865039994
 20
15.51172237499997
 30
0.0
 10
44.86830275989996
 20
15.23625612269998
 30
0.0
 10
45.14017155559997
 20
14.9007019103
 30
0.0
 10
45.34212437639996
 20
14.51792677859998
 30
0.0
 10
45.46648143889996
 20
14.10284521509999
 30
0.0
 10
45.4944620105
 20
13.81471574459999
 30
0.0
 10
45.4944620105
 20
13.67096947479999
 30
0.0
  0
SPLINE
  5
602D2
330
1F
100
AcDbEntity
  8
1
100
AcDbSpline
210
0.0
220
0.0
230
1.0
 70
     8
 71
     3
 72
    15
 73
    11
 74
     0
 42
0.0000000001
 43
0.0000000001
 40
0.0
 40
0.0
 40
0.0
 40
0.0
 40
0.1240902801
 40
0.248437663
 40
0.3731984465
 40
0.4984001574000001
 40
0.6239162538000002
 40
0.7495212508
 40
0.8749384192
 40
1.0
 40
1.0
 40
1.0
 40
1.0
 10
42.44663455729994
 20
14.37096962349999
 30
0.0
 10
42.4257187787
 20
14.37097416020001
 30
0.0
 10
42.38357782569994
 20
14.36463648729997
 30
0.0
 10
42.32608045469999
 20
14.33699382769997
 30
0.0
 10
42.27898954969998
 20
14.29361548279999
 30
0.0
 10
42.24642666219994
 20
14.23828696409997
 30
0.0
 10
42.23114839589993
 20
14.17579231189998
 30
0.0
 10
42.23448042849992
 20
14.1114996142
 30
0.0
 10
42.25607407389998
 20
14.05097910099999
 30
0.0
 10
42.28159832009999
 20
14.01644631509998
 30
0.0
 10
42.29648145619996
 20
14.00151857729997
 30
0.0
  0
SPLINE
  5
602D3
330
1F
100
AcDbEntity
  8
1
100
AcDbSpline
210
0.0
220
0.0
230
1.0
 70
     8
 71
     3
 72
    11
 73
     7
 74
     0
 42
0.0000000001
 43
0.0000000001
 40
0.0
 40
0.0
 40
0.0
 40
0.0
 40
0.2488147041
 40
0.4982584283
 40
0.7486543314000002
 40
1.0
 40
1.0
 40
1.0
 40
1.0
 10
42.62375277049994
 20
14.34691868109998
 30
0.0
 10
42.6738581454
 20
14.34690988739999
 30
0.0
 10
42.7749823211999
 20
14.36382665689999
 30
0.0
 10
42.90972808389994
 20
14.4372316166
 30
0.0
 10
43.01391355879997
 20
14.5505318344
 30
0.0
 10
43.05556699329997
 20
14.644903462
 30
0.0
 10
43.06828892499993
 20
14.69389362359999
 30
0.0
  0
SPLINE
  5
602D4
330
1F
100
AcDbEntity
  8
1
100
AcDbSpline
210
0.0
220
0.0
230
1.0
 70
     8
 71
     3
 72
    11
 73
     7
 74
     0
 42
0.0000000001
 43
0.0000000001
 40
0.0
 40
0.0
 40
0.0
 40
0.0
 40
0.2488250439
 40
0.4982691014000002
 40
0.7486499874
 40
1.0
 40
1.0
 40
1.0
 40
1.0
 10
43.27461732159997
 20
14.85496947479999
 30
0.0
 10
43.25135916389996
 20
14.85496947479999
 30
0.0
 10
43.20441999649995
 20
14.847112065
 30
0.0
 10
43.14188562939995
 20
14.8130243992
 30
0.0
 10
43.09352468239995
 20
14.76043869059997
 30
0.0
 10
43.07419410989996
 20
14.71663356389999
 30
0.0
 10
43.06828892499993
 20
14.69389362359999
 30
0.0
  0
SPLINE
  5
602D5
330
1F
100
AcDbEntity
  8
1
100
AcDbSpline
210
0.0
220
0.0
230
1.0
 70
     8
 71
     3
 72
    11
 73
     7
 74
     0
 42
0.0000000001
 43
0.0000000001
 40
0.0
 40
0.0
 40
0.0
 40
0.0
 40
0.2511305149
 40
0.5014363024000002
 40
0.7509770708
 40
1.0
 40
1.0
 40
1.0
 40
1.0
 10
45.89430314009996
 20
-13.0956079757
 30
0.0
 10
45.83671894379995
 20
-12.98505330189999
 30
0.0
 10
45.69340681029996
 20
-12.77771786829999
 30
0.0
 10
45.40701248589994
 20
-12.5326846186
 30
0.0
 10
45.06713907309995
 20
-12.37166792080001
 30
0.0
 10
44.81936524369996
 20
-12.32986022070003
 30
0.0
 10
44.69580091879999
 20
-12.32663207159999
 30
0.0
  0
SPLINE
  5
602D6
330
1F
100
AcDbEntity
  8
1
100
AcDbSpline
210
0.0
220
0.0
230
1.0
 70
     8
 71
     3
 72
    11
 73
     7
 74
     0
 42
0.0000000001
 43
0.0000000001
 40
0.0
 40
0.0
 40
0.0
 40
0.0
 40
0.2505759107
 40
0.5007930315
 40
0.7505727016
 40
1.0
 40
1.0
 40
1.0
 40
1.0
 10
45.89430314009996
 20
-14.2463309739
 30
0.0
 10
45.84316191829993
 20
-14.36832324490001
 30
0.0
 10
45.70827884469991
 20
-14.59985083460003
 30
0.0
 10
45.42339133039996
 20
-14.8816016261
 30
0.0
 10
45.0754389146
 20
-15.07913019149998
 30
0.0
 10
44.81655545299997
 20
-15.1452892396
 30
0.0
 10
44.68579054239995
 20
-15.16071749280001
 30
0.0
  0
SPLINE
  5
602D7
330
1F
100
AcDbEntity
  8
1
100
AcDbSpline
210
0.0
220
0.0
230
1.0
 70
     8
 71
     3
 72
    17
 73
    13
 74
     0
 42
0.0000000001
 43
0.0000000001
 40
0.0
 40
0.0
 40
0.0
 40
0.0
 40
0.1248946427
 40
0.1873471382
 40
0.2497542499
 40
0.3743126725999999
 40
0.4989198347000002
 40
0.5613742305000004
 40
0.623885894
 40
0.7489465473
 40
0.8743160223
 40
1.0
 40
1.0
 40
1.0
 40
1.0
 10
43.91131177009993
 20
-14.7744951546
 30
0.0
 10
43.98965911859995
 20
-14.83135707120001
 30
0.0
 10
44.11782935329995
 20
-14.9031901793
 30
0.0
 10
44.3007179686
 20
-14.96754556920001
 30
0.0
 10
44.48953714879997
 20
-15.0107888208
 30
0.0
 10
44.7327806623
 20
-15.02455538110001
 30
0.0
 10
44.97307367499996
 20
-14.98478975350002
 30
0.0
 10
45.15668978089997
 20
-14.92290547570002
 30
0.0
 10
45.33305149699998
 20
-14.8418130929
 30
0.0
 10
45.53640208679996
 20
-14.70609224340001
 30
0.0
 10
45.74222162169997
 20
-14.4970135799
 30
0.0
 10
45.84929982339997
 20
-14.33273188450002
 30
0.0
 10
45.89430314009996
 20
-14.2463309739
 30
0.0
  0
SPLINE
  5
602D8
330
1F
100
AcDbEntity
  8
1
100
AcDbSpline
210
0.0
220
0.0
230
1.0
 70
     8
 71
     3
 72
    11
 73
     7
 74
     0
 42
0.0000000001
 43
0.0000000001
 40
0.0
 40
0.0
 40
0.0
 40
0.0
 40
0.2491706819
 40
0.4988172392
 40
0.7490671351
 40
1.0
 40
1.0
 40
1.0
 40
1.0
 10
37.30052991029993
 20
-12.44753039400001
 30
0.0
 10
37.37381904569998
 20
-12.4656833994
 30
0.0
 10
37.51793007879996
 20
-12.51364964549998
 30
0.0
 10
37.72025002160001
 20
-12.6185040977
 30
0.0
 10
37.90425650049997
 20
-12.75382384319999
 30
0.0
 10
38.01169016899996
 20
-12.8621769355
 30
0.0
 10
38.06091112999997
 20
-12.92013421129999
 30
0.0
  0
SPLINE
  5
602D9
330
1F
100
AcDbEntity
  8
1
100
AcDbSpline
210
0.0
220
0.0
230
1.0
 70
     8
 71
     3
 72
    13
 73
     9
 74
     0
 42
0.0000000001
 43
0.0000000001
 40
0.0
 40
0.0
 40
0.0
 40
0.0
 40
0.2508447383
 40
0.5007786482
 40
0.6257679386000003
 40
0.7506009439
 40
0.8753262223
 40
1.0
 40
1.0
 40
1.0
 40
1.0
 10
38.37630074319998
 20
-13.32991589580001
 30
0.0
 10
38.31303601669993
 20
-13.2084552929
 30
0.0
 10
38.15250155419994
 20
-12.98209884420001
 30
0.0
 10
37.88043234219993
 20
-12.76723566980001
 30
0.0
 10
37.63374250129999
 20
-12.64865887569999
 30
0.0
 10
37.43752958559998
 20
-12.5882602405
 30
0.0
 10
37.23465137949995
 20
-12.55835492770001
 30
0.0
 10
37.09784015919996
 20
-12.55951128190003
 30
0.0
 10
37.0300315728
 20
-12.56542466019999
 30
0.0
  0
SPLINE
  5
602DA
330
1F
100
AcDbEntity
  8
1
100
AcDbSpline
210
0.0
220
0.0
230
1.0
 70
     8
 71
     3
 72
    11
 73
     7
 74
     0
 42
0.0000000001
 43
0.0000000001
 40
0.0
 40
0.0
 40
0.0
 40
0.0
 40
0.250565001
 40
0.5007806922000002
 40
0.7505684568000001
 40
1.0
 40
1.0
 40
1.0
 40
1.0
 10
38.37630074319998
 20
-14.48063889400001
 30
0.0
 10
38.32620051569995
 20
-14.60014797730002
 30
0.0
 10
38.19473553820001
 20
-14.82719333540001
 30
0.0
 10
37.91800891039998
 20
-15.1053453782
 30
0.0
 10
37.57992466869996
 20
-15.3033635038
 30
0.0
 10
37.32771958159998
 20
-15.37297250080001
 30
0.0
 10
37.19996808719998
 20
-15.39087300860001
 30
0.0
  0
SPLINE
  5
602DB
330
1F
100
AcDbEntity
  8
1
100
AcDbSpline
210
0.0
220
0.0
230
1.0
 70
     8
 71
     3
 72
     8
 73
     4
 74
     0
 42
0.0000000001
 43
0.0000000001
 40
0.0
 40
0.0
 40
0.0
 40
0.0
 40
1.0
 40
1.0
 40
1.0
 40
1.0
 10
36.08239920680001
 20
-14.68512707450003
 30
0.0
 10
36.10381954659999
 20
-14.7156367572
 30
0.0
 10
36.12632360459997
 20
-14.74539312569999
 30
0.0
 10
36.14940646399998
 20
-14.7746651823
 30
0.0
  0
SPLINE
  5
602DC
330
1F
100
AcDbEntity
  8
1
100
AcDbSpline
210
0.0
220
0.0
230
1.0
 70
     8
 71
     3
 72
    15
 73
    11
 74
     0
 42
0.0000000001
 43
0.0000000001
 40
0.0
 40
0.0
 40
0.0
 40
0.0
 40
0.1252563016
 40
0.250134202
 40
0.374764776
 40
0.4993317668000001
 40
0.6240262428
 40
0.7489965009000003
 40
0.8743162088
 40
1.0
 40
1.0
 40
1.0
 40
1.0
 10
36.14940646399998
 20
-14.7746651823
 30
0.0
 10
36.21820606589995
 20
-14.86191199220002
 30
0.0
 10
36.38040262369998
 20
-15.01803293760002
 30
0.0
 10
36.67583131879997
 20
-15.17845190450003
 30
0.0
 10
37.00217279239996
 20
-15.25676282580002
 30
0.0
 10
37.33731184189992
 20
-15.24980030059998
 30
0.0
 10
37.66046339409996
 20
-15.1602414806
 30
0.0
 10
37.95303577339996
 20
-14.99531191440002
 30
0.0
 10
38.19935512029997
 20
-14.76618919489999
 30
0.0
 10
38.32479756689997
 20
-14.57951874690002
 30
0.0
 10
38.37630074319998
 20
-14.48063889400001
 30
0.0
  0
SPLINE
  5
602DD
330
1F
100
AcDbEntity
  8
1
100
AcDbSpline
210
0.0
220
0.0
230
1.0
 70
     8
 71
     3
 72
    15
 73
    11
 74
     0
 42
0.0000000001
 43
0.0000000001
 40
0.0
 40
0.0
 40
0.0
 40
0.0
 40
0.1258233298
 40
0.2515345073
 40
0.3770451049
 40
0.5022829102000001
 40
0.6272003506
 40
0.7517788497
 40
0.8760306492000001
 40
1.0
 40
1.0
 40
1.0
 40
1.0
 10
38.48073921439993
 20
13.94637174519999
 30
0.0
 10
38.47856974839999
 20
13.82053384369999
 30
0.0
 10
38.45530819599992
 20
13.56888796859999
 30
0.0
 10
38.36446749489994
 20
13.20145203299998
 30
0.0
 10
38.21981400799996
 20
12.85222292799996
 30
0.0
 10
38.02473736849999
 20
12.52939041349998
 30
0.0
 10
37.78380398649995
 20
12.24037495149996
 30
0.0
 10
37.50259682569998
 20
11.9918150549
 30
0.0
 10
37.18774691879997
 20
11.78943291269998
 30
0.0
 10
36.95978062040001
 20
11.68818058259998
 30
0.0
 10
36.84292396599995
 20
11.64669503059997
 30
0.0
  0
SPLINE
  5
602DE
330
1F
100
AcDbEntity
  8
1
100
AcDbSpline
210
0.0
220
0.0
230
1.0
 70
     8
 71
     3
 72
    15
 73
    11
 74
     0
 42
0.0000000001
 43
0.0000000001
 40
0.0
 40
0.0
 40
0.0
 40
0.0
 40
0.1239495882
 40
0.248191229
 40
0.372770412
 40
0.4976977203000001
 40
0.6229502835
 40
0.7484741325
 40
0.8741894134999999
 40
1.0
 40
1.0
 40
1.0
 40
1.0
 10
36.84292396599995
 20
16.33290706399997
 30
0.0
 10
36.96313418629995
 20
16.29023095469998
 30
0.0
 10
37.19748446169996
 20
16.18552323129997
 30
0.0
 10
37.52008386929998
 20
15.97513677209997
 30
0.0
 10
37.80665571729997
 20
15.71619282489999
 30
0.0
 10
38.05004705909994
 20
15.41500173039998
 30
0.0
 10
38.24428965619996
 20
15.07888756999998
 30
0.0
 10
38.38457010149994
 20
14.71602938229998
 30
0.0
 10
38.46741406379999
 20
14.33543331699999
 30
0.0
 10
38.48297106989998
 20
14.07582848429999
 30
0.0
 10
38.48073921439993
 20
13.94637174519999
 30
0.0
  0
SPLINE
  5
602DF
330
1F
100
AcDbEntity
  8
1
100
AcDbSpline
210
0.0
220
0.0
230
1.0
 70
     8
 71
     3
 72
    15
 73
    11
 74
     0
 42
0.0000000001
 43
0.0000000001
 40
0.0
 40
0.0
 40
0.0
 40
0.0
 40
0.1258233298
 40
0.2515345073
 40
0.3770451049
 40
0.5022829102000001
 40
0.6272003506
 40
0.7517788497
 40
0.8760306492000001
 40
1.0
 40
1.0
 40
1.0
 40
1.0
 10
45.88727354599996
 20
13.81547869689998
 30
0.0
 10
45.88510407989997
 20
13.68964079539998
 30
0.0
 10
45.86184252759994
 20
13.43799492029998
 30
0.0
 10
45.77100182649997
 20
13.07055898469997
 30
0.0
 10
45.62634833949994
 20
12.72132987969998
 30
0.0
 10
45.43127170009995
 20
12.39849736519999
 30
0.0
 10
45.19033831809998
 20
12.10948190329998
 30
0.0
 10
44.90913115729995
 20
11.86092200669998
 30
0.0
 10
44.59428125029996
 20
11.65853986439997
 30
0.0
 10
44.36631495189999
 20
11.55728753429999
 30
0.0
 10
44.24945829759997
 20
11.51580198229999
 30
0.0
  0
SPLINE
  5
602E0
330
1F
100
AcDbEntity
  8
1
100
AcDbSpline
210
0.0
220
0.0
230
1.0
 70
     8
 71
     3
 72
    15
 73
    11
 74
     0
 42
0.0000000001
 43
0.0000000001
 40
0.0
 40
0.0
 40
0.0
 40
0.0
 40
0.1239495882
 40
0.248191229
 40
0.372770412
 40
0.4976977203000001
 40
0.6229502835
 40
0.7484741325
 40
0.8741894134999999
 40
1.0
 40
1.0
 40
1.0
 40
1.0
 10
44.24945829759997
 20
16.20201401569999
 30
0.0
 10
44.36966851789998
 20
16.15933790649997
 30
0.0
 10
44.60401879329992
 20
16.05463018309999
 30
0.0
 10
44.92661820089995
 20
15.84424372379998
 30
0.0
 10
45.21319004889995
 20
15.58529977659997
 30
0.0
 10
45.45658139069996
 20
15.28410868209997
 30
0.0
 10
45.65082398779998
 20
14.94799452169999
 30
0.0
 10
45.79110443299993
 20
14.585136334
 30
0.0
 10
45.87394839540002
 20
14.20454026869997
 30
0.0
 10
45.88950540139996
 20
13.94493543600001
 30
0.0
 10
45.88727354599996
 20
13.81547869689998
 30
0.0
  0
LINE
  5
602E1
330
1F
100
AcDbEntity
  8
1
100
AcDbLine
 10
50.41758697647686
 20
18.67422107772674
 30
0.0
 11
49.97930317309993
 21
18.69350994809996
 31
0.0
  0
ARC
  5
602E2
102
{ACAD_REACTORS
330
603A5
102
}
330
1F
100
AcDbEntity
  8
1
100
AcDbCircle
 10
50.39999999999998
 20
18.27460789193527
 30
0.0
 40
0.4
100
AcDbArc
 50
0.0
 51
87.48003883400407
  0
LINE
  5
602E3
330
1F
100
AcDbEntity
  8
1
100
AcDbLine
 10
49.12752561139996
 20
18.72973752019997
 30
0.0
 11
49.97930317309993
 21
18.69350994809996
 31
0.0
  0
LINE
  5
602E4
330
1F
100
AcDbEntity
  8
1
100
AcDbLine
 10
48.30095769389993
 20
18.76357368859999
 30
0.0
 11
49.12752561139996
 21
18.72973752019997
 31
0.0
  0
LINE
  5
602E5
330
1F
100
AcDbEntity
  8
1
100
AcDbLine
 10
47.49776144269993
 20
18.79511461780001
 30
0.0
 11
48.30095769389993
 21
18.76357368859999
 31
0.0
  0
LINE
  5
602E6
330
1F
100
AcDbEntity
  8
1
100
AcDbLine
 10
46.71628367079995
 20
18.8244477092
 30
0.0
 11
47.49776144269993
 21
18.79511461780001
 31
0.0
  0
LINE
  5
602E7
330
1F
100
AcDbEntity
  8
1
100
AcDbLine
 10
45.95500226319995
 20
18.85165434999999
 30
0.0
 11
46.71628367079995
 21
18.8244477092
 31
0.0
  0
LINE
  5
602E8
330
1F
100
AcDbEntity
  8
1
100
AcDbLine
 10
45.21251665649993
 20
18.87681041599998
 30
0.0
 11
45.95500226319995
 21
18.85165434999999
 31
0.0
  0
LINE
  5
602E9
330
1F
100
AcDbEntity
  8
1
100
AcDbLine
 10
44.48773610829994
 20
18.89997675159998
 30
0.0
 11
45.21251665649993
 21
18.87681041599998
 31
0.0
  0
LINE
  5
602EA
330
1F
100
AcDbEntity
  8
1
100
AcDbLine
 10
43.77966498649993
 20
18.92121007719999
 30
0.0
 11
44.48773610829994
 21
18.89997675159998
 31
0.0
  0
LINE
  5
602EB
330
1F
100
AcDbEntity
  8
1
100
AcDbLine
 10
43.08745748819996
 20
18.94056023659998
 30
0.0
 11
43.77966498649993
 21
18.92121007719999
 31
0.0
  0
LINE
  5
602EC
330
1F
100
AcDbEntity
  8
1
100
AcDbLine
 10
42.41033734689994
 20
18.9580742835
 30
0.0
 11
43.08745748819996
 21
18.94056023659998
 31
0.0
  0
LINE
  5
602ED
330
1F
100
AcDbEntity
  8
1
100
AcDbLine
 10
41.74759045019993
 20
18.9737968691
 30
0.0
 11
42.41033734689994
 21
18.9580742835
 31
0.0
  0
LINE
  5
602EE
330
1F
100
AcDbEntity
  8
1
100
AcDbLine
 10
41.09859071959999
 20
18.9877689489
 30
0.0
 11
41.74759045019993
 21
18.9737968691
 31
0.0
  0
LINE
  5
602EF
330
1F
100
AcDbEntity
  8
1
100
AcDbLine
 10
40.46281416939996
 20
19.00002709239999
 30
0.0
 11
41.09859071959999
 21
18.9877689489
 31
0.0
  0
LINE
  5
602F0
330
1F
100
AcDbEntity
  8
1
100
AcDbLine
 10
39.83977301849995
 20
19.0106068293
 30
0.0
 11
40.46281416939996
 21
19.00002709239999
 31
0.0
  0
LINE
  5
602F1
330
1F
100
AcDbEntity
  8
1
100
AcDbLine
 10
39.22901058919996
 20
19.01954291839998
 30
0.0
 11
39.83977301849995
 21
19.0106068293
 31
0.0
  0
LINE
  5
602F2
330
1F
100
AcDbEntity
  8
1
100
AcDbLine
 10
38.63011676479994
 20
19.02686858039998
 30
0.0
 11
39.22901058919996
 21
19.01954291839998
 31
0.0
  0
LINE
  5
602F3
330
1F
100
AcDbEntity
  8
1
100
AcDbLine
 10
38.04272800369995
 20
19.03261551139998
 30
0.0
 11
38.63011676479994
 21
19.02686858039998
 31
0.0
  0
LINE
  5
602F4
330
1F
100
AcDbEntity
  8
1
100
AcDbLine
 10
37.46650056989995
 20
19.03681524299996
 30
0.0
 11
38.04272800369995
 21
19.03261551139998
 31
0.0
  0
LINE
  5
602F5
330
1F
100
AcDbEntity
  8
1
100
AcDbLine
 10
36.90112345619997
 20
19.03949850219999
 30
0.0
 11
37.46650056989995
 21
19.03681524299996
 31
0.0
  0
LINE
  5
602F6
330
1F
100
AcDbEntity
  8
1
100
AcDbLine
 10
36.346298107
 20
19.04069623939999
 30
0.0
 11
36.90112345619997
 21
19.03949850219999
 31
0.0
  0
LINE
  5
602F7
330
1F
100
AcDbEntity
  8
1
100
AcDbLine
 10
35.80174832879999
 20
19.04043913789998
 30
0.0
 11
36.346298107
 21
19.04069623939999
 31
0.0
  0
LINE
  5
602F8
330
1F
100
AcDbEntity
  8
1
100
AcDbLine
 10
35.30703841829995
 20
19.0388919218
 30
0.0
 11
35.80174832879999
 21
19.04043913789998
 31
0.0
  0
LINE
  5
602F9
330
1F
100
AcDbEntity
  8
1
100
AcDbLine
 10
35.26722255479996
 20
19.0387575108
 30
0.0
 11
35.30703841829995
 21
19.0388919218
 31
0.0
  0
LINE
  5
602FA
330
1F
100
AcDbEntity
  8
1
100
AcDbLine
 10
34.74247696819998
 20
19.03568215099999
 30
0.0
 11
35.26722255479996
 21
19.0387575108
 31
0.0
  0
LINE
  5
602FB
330
1F
100
AcDbEntity
  8
1
100
AcDbLine
 10
34.22726671340001
 20
19.0312447707
 30
0.0
 11
34.74247696819998
 21
19.03568215099999
 31
0.0
  0
LINE
  5
602FC
330
1F
100
AcDbEntity
  8
1
100
AcDbLine
 10
33.97711602489994
 20
19.028425037
 30
0.0
 11
34.22726671340001
 21
19.0312447707
 31
0.0
  0
LINE
  5
602FD
330
1F
100
AcDbEntity
  8
1
100
AcDbLine
 10
33.93751084059994
 20
19.03056368009997
 30
0.0
 11
33.97711602489994
 21
19.028425037
 31
0.0
  0
LINE
  5
602FE
330
1F
100
AcDbEntity
  8
1
100
AcDbLine
 10
28.47742840360002
 20
9.173962445299991
 30
0.0
 11
28.90979663089996
 21
9.1551990982
 31
0.0
  0
LINE
  5
602FF
330
1F
100
AcDbEntity
  8
1
100
AcDbLine
 10
29.7746291263
 20
9.118971525999995
 30
0.0
 11
28.90979663089996
 21
9.1551990982
 31
0.0
  0
LINE
  5
60300
330
1F
100
AcDbEntity
  8
1
100
AcDbLine
 10
30.61508546799996
 20
9.085135357699982
 30
0.0
 11
29.7746291263
 21
9.118971525999995
 31
0.0
  0
LINE
  5
60301
330
1F
100
AcDbEntity
  8
1
100
AcDbLine
 10
31.4329327337
 20
9.053594428499991
 30
0.0
 11
30.61508546799996
 21
9.085135357699982
 31
0.0
  0
LINE
  5
60302
330
1F
100
AcDbEntity
  8
1
100
AcDbLine
 10
32.22975918479995
 20
9.024261337099972
 30
0.0
 11
31.4329327337
 21
9.053594428499991
 31
0.0
  0
LINE
  5
60303
330
1F
100
AcDbEntity
  8
1
100
AcDbLine
 10
33.00702619790002
 20
8.997054696299983
 30
0.0
 11
32.22975918479995
 21
9.024261337099972
 31
0.0
  0
LINE
  5
60304
330
1F
100
AcDbEntity
  8
1
100
AcDbLine
 10
33.76607750519998
 20
8.971898630299989
 30
0.0
 11
33.00702619790002
 21
8.997054696299983
 31
0.0
  0
LINE
  5
60305
330
1F
100
AcDbEntity
  8
1
100
AcDbLine
 10
34.50795734119993
 20
8.948732294699993
 30
0.0
 11
33.76607750519998
 21
8.971898630299989
 31
0.0
  0
LINE
  5
60306
330
1F
100
AcDbEntity
  8
1
100
AcDbLine
 10
35.23361786019996
 20
8.927498969099985
 30
0.0
 11
34.50795734119993
 21
8.948732294699993
 31
0.0
  0
LINE
  5
60307
330
1F
100
AcDbEntity
  8
1
100
AcDbLine
 10
35.94386628509994
 20
8.90814880969998
 30
0.0
 11
35.23361786019996
 21
8.927498969099985
 31
0.0
  0
LINE
  5
60308
330
1F
100
AcDbEntity
  8
1
100
AcDbLine
 10
36.63944249069994
 20
8.890634762800004
 30
0.0
 11
35.94386628509994
 21
8.90814880969998
 31
0.0
  0
LINE
  5
60309
330
1F
100
AcDbEntity
  8
1
100
AcDbLine
 10
37.32102615429994
 20
8.874912177199973
 30
0.0
 11
36.63944249069994
 21
8.890634762800004
 31
0.0
  0
LINE
  5
6030A
330
1F
100
AcDbEntity
  8
1
100
AcDbLine
 10
37.98921175750002
 20
8.860940097299987
 30
0.0
 11
37.32102615429994
 21
8.874912177199973
 31
0.0
  0
LINE
  5
6030B
330
1F
100
AcDbEntity
  8
1
100
AcDbLine
 10
38.64449499719995
 20
8.848681953899983
 30
0.0
 11
37.98921175750002
 21
8.860940097299987
 31
0.0
  0
LINE
  5
6030C
330
1F
100
AcDbEntity
  8
1
100
AcDbLine
 10
39.28733646360001
 20
8.838102216999999
 30
0.0
 11
38.64449499719995
 21
8.848681953899983
 31
0.0
  0
LINE
  5
6030D
330
1F
100
AcDbEntity
  8
1
100
AcDbLine
 10
39.91816658299996
 20
8.829166127899981
 30
0.0
 11
39.28733646360001
 21
8.838102216999999
 31
0.0
  0
LINE
  5
6030E
330
1F
100
AcDbEntity
  8
1
100
AcDbLine
 10
40.53737068489994
 20
8.821840465899974
 30
0.0
 11
39.91816658299996
 21
8.829166127899981
 31
0.0
  0
LINE
  5
6030F
330
1F
100
AcDbEntity
  8
1
100
AcDbLine
 10
41.14528898999998
 20
8.816093534899977
 30
0.0
 11
40.53737068489994
 21
8.821840465899974
 31
0.0
  0
LINE
  5
60310
330
1F
100
AcDbEntity
  8
1
100
AcDbLine
 10
41.74224249689996
 20
8.811893803299994
 30
0.0
 11
41.14528898999998
 21
8.816093534899977
 31
0.0
  0
LINE
  5
60311
330
1F
100
AcDbEntity
  8
1
100
AcDbLine
 10
42.32852049349992
 20
8.809210544099983
 30
0.0
 11
41.74224249689996
 21
8.811893803299994
 31
0.0
  0
LINE
  5
60312
330
1F
100
AcDbEntity
  8
1
100
AcDbLine
 10
42.90440017299999
 20
8.808012806899995
 30
0.0
 11
42.32852049349992
 21
8.809210544099983
 31
0.0
  0
LINE
  5
60313
330
1F
100
AcDbEntity
  8
1
100
AcDbLine
 10
43.47013705860002
 20
8.808269908399978
 30
0.0
 11
42.90440017299999
 21
8.808012806899995
 31
0.0
  0
LINE
  5
60314
330
1F
100
AcDbEntity
  8
1
100
AcDbLine
 10
43.98454787019995
 20
8.8098171245
 30
0.0
 11
43.47013705860002
 21
8.808269908399978
 31
0.0
  0
LINE
  5
60315
330
1F
100
AcDbEntity
  8
1
100
AcDbLine
 10
44.02596281770001
 20
8.809951535499976
 30
0.0
 11
43.98454787019995
 21
8.8098171245
 31
0.0
  0
LINE
  5
60316
330
1F
100
AcDbEntity
  8
1
100
AcDbLine
 10
44.57210159429997
 20
8.813026895299998
 30
0.0
 11
44.02596281770001
 21
8.809951535499976
 31
0.0
  0
LINE
  5
60317
330
1F
100
AcDbEntity
  8
1
100
AcDbLine
 10
45.10877852699997
 20
8.817464275599974
 30
0.0
 11
44.57210159429997
 21
8.813026895299998
 31
0.0
  0
LINE
  5
60318
330
1F
100
AcDbEntity
  8
1
100
AcDbLine
 10
45.36953118219997
 20
8.82028400919998
 30
0.0
 11
45.10877852699997
 21
8.817464275599974
 31
0.0
  0
LINE
  5
60319
330
1F
100
AcDbEntity
  8
1
100
AcDbLine
 10
45.40764941119994
 20
8.818145370199992
 30
0.0
 11
45.36953118219997
 21
8.82028400919998
 31
0.0
  0
SPLINE
  5
6031A
330
1F
100
AcDbEntity
  8
1
100
AcDbSpline
210
0.0
220
0.0
230
1.0
 70
     8
 71
     3
 72
     9
 73
     5
 74
     0
 42
0.0000000001
 43
0.0000000001
 40
0.0
 40
0.0
 40
0.0
 40
0.0
 40
0.4962345974000001
 40
1.0
 40
1.0
 40
1.0
 40
1.0
 10
46.59703557849996
 20
9.623702783199973
 30
0.0
 10
46.56085639149995
 20
9.56634955139998
 30
0.0
 10
46.47325349259995
 20
9.459489401599995
 30
0.0
 10
46.36288437749993
 20
9.376525105499979
 30
0.0
 10
46.30345320769999
 20
9.341784792799984
 30
0.0
  0
SPLINE
  5
6031B
330
1F
100
AcDbEntity
  8
1
100
AcDbSpline
210
0.0
220
0.0
230
1.0
 70
     8
 71
     3
 72
     9
 73
     5
 74
     0
 42
0.0000000001
 43
0.0000000001
 40
0.0
 40
0.0
 40
0.0
 40
0.0
 40
0.4991945346000001
 40
1.0
 40
1.0
 40
1.0
 40
1.0
 10
28.20809141379999
 20
9.282494868999975
 30
0.0
 10
28.17653223489993
 20
9.312411185099989
 30
0.0
 10
28.12288768319996
 20
9.383304493499991
 30
0.0
 10
28.09507741319999
 20
9.467694899999997
 30
0.0
 10
28.08821442009992
 20
9.510777277999977
 30
0.0
  0
SPLINE
  5
6031C
330
1F
100
AcDbEntity
  8
1
100
AcDbSpline
210
0.0
220
0.0
230
1.0
 70
     8
 71
     3
 72
     9
 73
     5
 74
     0
 42
0.0000000001
 43
0.0000000001
 40
0.0
 40
0.0
 40
0.0
 40
0.0
 40
0.5007727814000003
 40
1.0
 40
1.0
 40
1.0
 40
1.0
 10
28.2080914142
 20
9.282494869499998
 30
0.0
 10
28.24185764559991
 20
9.250486392599981
 30
0.0
 10
28.32121414259996
 20
9.198016994499994
 30
0.0
 10
28.41401935979997
 20
9.176895100599978
 30
0.0
 10
28.46035316369995
 20
9.174764809599992
 30
0.0
  0
SPLINE
  5
6031D
330
1F
100
AcDbEntity
  8
1
100
AcDbSpline
210
0.0
220
0.0
230
1.0
 70
     8
 71
     3
 72
    15
 73
    11
 74
     0
 42
0.0000000001
 43
0.0000000001
 40
0.0
 40
0.0
 40
0.0
 40
0.0
 40
0.1244339786
 40
0.2487947633
 40
0.3732532126
 40
0.4979584107
 40
0.6230046557
 40
0.7484110306999999
 40
0.8741180142000001
 40
1.0
 40
1.0
 40
1.0
 40
1.0
 10
36.84292383119998
 20
16.33290689539999
 30
0.0
 10
36.66118505859998
 20
16.39742736169997
 30
0.0
 10
36.28081919159996
 20
16.48331451459998
 30
0.0
 10
35.69712813759998
 20
16.47302531719997
 30
0.0
 10
35.13178198819998
 20
16.32463147709998
 30
0.0
 10
34.61670575809995
 20
16.04632728029999
 30
0.0
 10
34.18043527219993
 20
15.65378391759998
 30
0.0
 10
33.84717071739999
 20
15.16880838599998
 30
0.0
 10
33.63531157360001
 20
14.61880451309997
 30
0.0
 10
33.5827815545
 20
14.22820203259998
 30
0.0
 10
33.57941856519995
 20
14.03313490639998
 30
0.0
  0
SPLINE
  5
6031E
330
1F
100
AcDbEntity
  8
1
100
AcDbSpline
210
0.0
220
0.0
230
1.0
 70
     8
 71
     3
 72
    27
 73
    23
 74
     0
 42
0.0000000001
 43
0.0000000001
 40
0.0
 40
0.0
 40
0.0
 40
0.0
 40
0.0628624128
 40
0.0943146415
 40
0.1257468377
 40
0.1884544084
 40
0.2510249438
 40
0.2822913128
 40
0.3135201605
 40
0.3757980777
 40
0.4379651001
 40
0.5000691554
 40
0.5621679087000003
 40
0.6243198462000003
 40
0.6865752262
 40
0.7177911106
 40
0.7490440143000001
 40
0.8115880887999999
 40
0.8742732766999999
 40
0.9056969351000001
 40
0.9371428241
 40
1.0
 40
1.0
 40
1.0
 40
1.0
 10
33.01220264409995
 20
14.04184915069999
 30
0.0
 10
33.00884371519999
 20
13.84701753939998
 30
0.0
 10
33.03231508229999
 20
13.55318287899999
 30
0.0
 10
33.11952545599996
 20
13.17282459749998
 30
0.0
 10
33.24300677199995
 20
12.80302855289997
 30
0.0
 10
33.46363664289999
 20
12.36659264939999
 30
0.0
 10
33.76460377669991
 20
11.98173469950001
 30
0.0
 10
34.046028686
 20
11.71430042879999
 30
0.0
 10
34.35158235669997
 20
11.47630107729998
 30
0.0
 10
34.77477803879998
 20
11.23739229799997
 30
0.0
 10
35.32800565489992
 20
11.0566955978
 30
0.0
 10
35.90556107119994
 20
10.98872789459997
 30
0.0
 10
36.48511228860002
 20
11.03623701649999
 30
0.0
 10
37.04424441930001
 20
11.19727056149997
 30
0.0
 10
37.47544003769997
 20
11.42108717289997
 30
0.0
 10
37.78901946629998
 20
11.64815042069998
 30
0.0
 10
38.07949450629997
 20
11.90548017589998
 30
0.0
 10
38.39355468219992
 20
12.27948387099999
 30
0.0
 10
38.62908985229996
 20
12.70786038889996
 30
0.0
 10
38.76523824799995
 20
13.07305971209999
 30
0.0
 10
38.86550936499998
 20
13.45012141039999
 30
0.0
 10
38.8990890435
 20
13.74293756349998
 30
0.0
 10
38.90244769269998
 20
13.93775294389999
 30
0.0
  0
SPLINE
  5
6031F
330
1F
100
AcDbEntity
  8
1
100
AcDbSpline
210
0.0
220
0.0
230
1.0
 70
     8
 71
     3
 72
    27
 73
    23
 74
     0
 42
0.0000000001
 43
0.0000000001
 40
0.0
 40
0.0
 40
0.0
 40
0.0
 40
0.0628624128
 40
0.0943146415
 40
0.1257468377
 40
0.1884544084
 40
0.2510249438
 40
0.2822913128
 40
0.3135201605
 40
0.3757980777
 40
0.4379651001
 40
0.5000691554
 40
0.5621679087000003
 40
0.6243198462000003
 40
0.6865752262
 40
0.7177911106
 40
0.7490440143000001
 40
0.8115880887999999
 40
0.8742732766999999
 40
0.9056969351000001
 40
0.9371428241
 40
1.0
 40
1.0
 40
1.0
 40
1.0
 10
38.90244769269998
 20
13.93775294389999
 30
0.0
 10
38.90580662159994
 20
14.13258455509998
 30
0.0
 10
38.88233525449999
 20
14.42641921559999
 30
0.0
 10
38.79512488069997
 20
14.80677749699998
 30
0.0
 10
38.67164356479998
 20
15.17657354169998
 30
0.0
 10
38.4510136939
 20
15.61300944519999
 30
0.0
 10
38.15004656009995
 20
15.9978673951
 30
0.0
 10
37.86862165079992
 20
16.26530166579998
 30
0.0
 10
37.56306798009996
 20
16.50330101719999
 30
0.0
 10
37.139872298
 20
16.74220979659998
 30
0.0
 10
36.58664468179996
 20
16.92290649669998
 30
0.0
 10
36.00908926559998
 20
16.99087419999998
 30
0.0
 10
35.42953804819996
 20
16.94336507809999
 30
0.0
 10
34.87040591749997
 20
16.78233153299999
 30
0.0
 10
34.43921029909996
 20
16.55851492159998
 30
0.0
 10
34.1256308705
 20
16.33145167389996
 30
0.0
 10
33.83515583049996
 20
16.07412191869999
 30
0.0
 10
33.52109565460001
 20
15.70011822359998
 30
0.0
 10
33.28556048449997
 20
15.27174170559998
 30
0.0
 10
33.14941208879998
 20
14.90654238249999
 30
0.0
 10
33.04914097179994
 20
14.52948068419999
 30
0.0
 10
33.01556129329993
 20
14.23666453109999
 30
0.0
 10
33.01220264409995
 20
14.04184915069999
 30
0.0
  0
SPLINE
  5
60320
330
1F
100
AcDbEntity
  8
1
100
AcDbSpline
210
0.0
220
0.0
230
1.0
 70
     8
 71
     3
 72
    27
 73
    23
 74
     0
 42
0.0000000001
 43
0.0000000001
 40
0.0
 40
0.0
 40
0.0
 40
0.0
 40
0.0628624128
 40
0.0943146415
 40
0.1257468377
 40
0.1884544084
 40
0.2510249438
 40
0.2822913128
 40
0.3135201605
 40
0.3757980777
 40
0.4379651001
 40
0.5000691554
 40
0.5621679087000003
 40
0.6243198462000003
 40
0.6865752262
 40
0.7177911106
 40
0.7490440143000001
 40
0.8115880887999999
 40
0.8742732766999999
 40
0.9056969351000001
 40
0.9371428241
 40
1.0
 40
1.0
 40
1.0
 40
1.0
 10
40.41873697569997
 20
13.91095610239998
 30
0.0
 10
40.41537804680001
 20
13.71612449109999
 30
0.0
 10
40.43884941379997
 20
13.42228983069998
 30
0.0
 10
40.52605978759993
 20
13.04193154929999
 30
0.0
 10
40.64954110349993
 20
12.67213550459999
 30
0.0
 10
40.87017097449995
 20
12.23569960110001
 30
0.0
 10
41.17113810829994
 20
11.8508416512
 30
0.0
 10
41.45256301759997
 20
11.58340738049997
 30
0.0
 10
41.75811668819995
 20
11.34540802909998
 30
0.0
 10
42.18131237029996
 20
11.10649924969998
 30
0.0
 10
42.73453998649995
 20
10.92580254959998
 30
0.0
 10
43.31209540279997
 20
10.85783484629998
 30
0.0
 10
43.89164662009995
 20
10.90534396819998
 30
0.0
 10
44.45077875089999
 20
11.06637751329997
 30
0.0
 10
44.8819743693
 20
11.29019412459998
 30
0.0
 10
45.19555379789994
 20
11.51725737239999
 30
0.0
 10
45.48602883789999
 20
11.7745871276
 30
0.0
 10
45.80008901369995
 20
12.14859082269998
 30
0.0
 10
46.03562418389993
 20
12.57696734059998
 30
0.0
 10
46.17177257959997
 20
12.94216666379997
 30
0.0
 10
46.27204369649996
 20
13.31922836209997
 30
0.0
 10
46.30562337509997
 20
13.61204451519997
 30
0.0
 10
46.30898202419996
 20
13.80685989559998
 30
0.0
  0
SPLINE
  5
60321
330
1F
100
AcDbEntity
  8
1
100
AcDbSpline
210
0.0
220
0.0
230
1.0
 70
     8
 71
     3
 72
    27
 73
    23
 74
     0
 42
0.0000000001
 43
0.0000000001
 40
0.0
 40
0.0
 40
0.0
 40
0.0
 40
0.0628624128
 40
0.0943146415
 40
0.1257468377
 40
0.1884544084
 40
0.2510249438
 40
0.2822913128
 40
0.3135201605
 40
0.3757980777
 40
0.4379651001
 40
0.5000691554
 40
0.5621679087000003
 40
0.6243198462000003
 40
0.6865752262
 40
0.7177911106
 40
0.7490440143000001
 40
0.8115880887999999
 40
0.8742732766999999
 40
0.9056969351000001
 40
0.9371428241
 40
1.0
 40
1.0
 40
1.0
 40
1.0
 10
46.30898202419996
 20
13.80685989559998
 30
0.0
 10
46.31234095319996
 20
14.00169150689999
 30
0.0
 10
46.28886958609996
 20
14.29552616729997
 30
0.0
 10
46.20165921229994
 20
14.67588444869999
 30
0.0
 10
46.07817789639994
 20
15.0456804934
 30
0.0
 10
45.85754802539997
 20
15.48211639689997
 30
0.0
 10
45.55658089169992
 20
15.86697434679998
 30
0.0
 10
45.27515598229996
 20
16.13440861749998
 30
0.0
 10
44.96960231169999
 20
16.37240796899998
 30
0.0
 10
44.54640662959997
 20
16.6113167483
 30
0.0
 10
43.99317901339998
 20
16.79201344839998
 30
0.0
 10
43.41562359709996
 20
16.8599811517
 30
0.0
 10
42.83607237979992
 20
16.81247202979998
 30
0.0
 10
42.27694024899995
 20
16.65143848469998
 30
0.0
 10
41.84574463069998
 20
16.4276218734
 30
0.0
 10
41.53216520209997
 20
16.20055862559998
 30
0.0
 10
41.24169016199994
 20
15.94322887039999
 30
0.0
 10
40.92762998619997
 20
15.5692251753
 30
0.0
 10
40.69209481609994
 20
15.1408486574
 30
0.0
 10
40.5559464204
 20
14.77564933419997
 30
0.0
 10
40.45567530339996
 20
14.39858763589998
 30
0.0
 10
40.42209562479996
 20
14.10577148280001
 30
0.0
 10
40.41873697569997
 20
13.91095610239998
 30
0.0
  0
SPLINE
  5
60322
330
1F
100
AcDbEntity
  8
1
100
AcDbSpline
210
0.0
220
0.0
230
1.0
 70
     8
 71
     3
 72
    15
 73
    11
 74
     0
 42
0.0000000001
 43
0.0000000001
 40
0.0
 40
0.0
 40
0.0
 40
0.0
 40
0.1258772116
 40
0.2515961892
 40
0.3770204076
 40
0.5020803464
 40
0.6267889033000003
 40
0.7512392553
 40
0.8755839674
 40
1.0
 40
1.0
 40
1.0
 40
1.0
 10
33.57941856519995
 20
14.03313490639998
 30
0.0
 10
33.57599345669996
 20
13.83446460659999
 30
0.0
 10
33.61662725019994
 20
13.43494198499999
 30
0.0
 10
33.81667068339993
 20
12.8687026453
 30
0.0
 10
34.14435241559994
 20
12.36655419959999
 30
0.0
 10
34.58093654369998
 20
11.95790646139997
 30
0.0
 10
35.10131355099998
 20
11.6663015558
 30
0.0
 10
35.67559304429995
 20
11.50876811639998
 30
0.0
 10
36.2701419627
 20
11.49433652539997
 30
0.0
 10
36.65784701069998
 20
11.58099155439998
 30
0.0
 10
36.84292366389997
 20
11.64669519799996
 30
0.0
  0
SPLINE
  5
60323
330
1F
100
AcDbEntity
  8
1
100
AcDbSpline
210
0.0
220
0.0
230
1.0
 70
     8
 71
     3
 72
    15
 73
    11
 74
     0
 42
0.0000000001
 43
0.0000000001
 40
0.0
 40
0.0
 40
0.0
 40
0.0
 40
0.1258772116
 40
0.2515961892
 40
0.3770204076
 40
0.5020803464
 40
0.6267889033000003
 40
0.7512392553
 40
0.8755839674
 40
1.0
 40
1.0
 40
1.0
 40
1.0
 10
40.98595289679997
 20
13.90224185809997
 30
0.0
 10
40.98252778819994
 20
13.70357155829998
 30
0.0
 10
41.02316158179997
 20
13.3040489368
 30
0.0
 10
41.22320501499996
 20
12.73780959699999
 30
0.0
 10
41.55088674719991
 20
12.23566115129998
 30
0.0
 10
41.98747087529994
 20
11.82701341309999
 30
0.0
 10
42.50784788259994
 20
11.53540850749998
 30
0.0
 10
43.08212737579992
 20
11.37787506809999
 30
0.0
 10
43.67667629429996
 20
11.36344347719998
 30
0.0
 10
44.06438134229995
 20
11.45009850619998
 30
0.0
 10
44.24945799549994
 20
11.51580214979998
 30
0.0
  0
SPLINE
  5
60324
330
1F
100
AcDbEntity
  8
1
100
AcDbSpline
210
0.0
220
0.0
230
1.0
 70
     8
 71
     3
 72
    15
 73
    11
 74
     0
 42
0.0000000001
 43
0.0000000001
 40
0.0
 40
0.0
 40
0.0
 40
0.0
 40
0.1244339786
 40
0.2487947633
 40
0.3732532126
 40
0.4979584107
 40
0.6230046557
 40
0.7484110306999999
 40
0.8741180142000001
 40
1.0
 40
1.0
 40
1.0
 40
1.0
 10
44.24945816279989
 20
16.20201384709998
 30
0.0
 10
44.06771939019995
 20
16.26653431339999
 30
0.0
 10
43.68735352319993
 20
16.35242146629996
 30
0.0
 10
43.10366246919994
 20
16.34213226899999
 30
0.0
 10
42.53831631979994
 20
16.19373842879997
 30
0.0
 10
42.02324008969992
 20
15.91543423199999
 30
0.0
 10
41.58696960379995
 20
15.5228908693
 30
0.0
 10
41.25370504899996
 20
15.03791533769998
 30
0.0
 10
41.04184590519998
 20
14.48791146479999
 30
0.0
 10
40.98931588609997
 20
14.09730898429998
 30
0.0
 10
40.98595289679997
 20
13.90224185809997
 30
0.0
  0
LINE
  5
60325
330
1F
100
AcDbEntity
  8
1
100
AcDbLine
 10
50.40564597969996
 20
-18.67474660100001
 30
0.0
 11
50.42284647579998
 21
-18.67394275340001
 31
0.0
  0
LINE
  5
60326
330
1F
100
AcDbEntity
  8
1
100
AcDbLine
 10
50.40564597969996
 20
-18.67474660100001
 30
0.0
 11
49.97930317309993
 21
-18.69350994799998
 31
0.0
  0
LINE
  5
60327
330
1F
100
AcDbEntity
  8
1
100
AcDbLine
 10
49.12752561139996
 20
-18.72973752020002
 30
0.0
 11
49.97930317309993
 21
-18.69350994799998
 31
0.0
  0
LINE
  5
60328
330
1F
100
AcDbEntity
  8
1
100
AcDbLine
 10
48.30095769389993
 20
-18.76357368860002
 30
0.0
 11
49.12752561139996
 21
-18.72973752020002
 31
0.0
  0
LINE
  5
60329
330
1F
100
AcDbEntity
  8
1
100
AcDbLine
 10
47.49776144269993
 20
-18.79511461769999
 30
0.0
 11
48.30095769389993
 21
-18.76357368860002
 31
0.0
  0
LINE
  5
6032A
330
1F
100
AcDbEntity
  8
1
100
AcDbLine
 10
46.71628367079995
 20
-18.82444770910002
 30
0.0
 11
47.49776144269993
 21
-18.79511461769999
 31
0.0
  0
LINE
  5
6032B
330
1F
100
AcDbEntity
  8
1
100
AcDbLine
 10
45.95500226319995
 20
-18.85165434999999
 30
0.0
 11
46.71628367079995
 21
-18.82444770910002
 31
0.0
  0
LINE
  5
6032C
330
1F
100
AcDbEntity
  8
1
100
AcDbLine
 10
45.21251665649993
 20
-18.87681041590002
 30
0.0
 11
45.95500226319995
 21
-18.85165434999999
 31
0.0
  0
LINE
  5
6032D
330
1F
100
AcDbEntity
  8
1
100
AcDbLine
 10
44.48773610829994
 20
-18.89997675160001
 30
0.0
 11
45.21251665649993
 21
-18.87681041590002
 31
0.0
  0
LINE
  5
6032E
330
1F
100
AcDbEntity
  8
1
100
AcDbLine
 10
43.77966498649993
 20
-18.9212100771
 30
0.0
 11
44.48773610829994
 21
-18.89997675160001
 31
0.0
  0
LINE
  5
6032F
330
1F
100
AcDbEntity
  8
1
100
AcDbLine
 10
43.08745748819996
 20
-18.94056023659999
 30
0.0
 11
43.77966498649993
 21
-18.9212100771
 31
0.0
  0
LINE
  5
60330
330
1F
100
AcDbEntity
  8
1
100
AcDbLine
 10
42.41033734689994
 20
-18.95807428350002
 30
0.0
 11
43.08745748819996
 21
-18.94056023659999
 31
0.0
  0
LINE
  5
60331
330
1F
100
AcDbEntity
  8
1
100
AcDbLine
 10
41.74759045019993
 20
-18.9737968691
 30
0.0
 11
42.41033734689994
 21
-18.95807428350002
 31
0.0
  0
LINE
  5
60332
330
1F
100
AcDbEntity
  8
1
100
AcDbLine
 10
41.09859071959999
 20
-18.9877689489
 30
0.0
 11
41.74759045019993
 21
-18.9737968691
 31
0.0
  0
LINE
  5
60333
330
1F
100
AcDbEntity
  8
1
100
AcDbLine
 10
40.46281416939996
 20
-19.0000270923
 30
0.0
 11
41.09859071959999
 21
-18.9877689489
 31
0.0
  0
LINE
  5
60334
330
1F
100
AcDbEntity
  8
1
100
AcDbLine
 10
39.83977301849995
 20
-19.01060682920001
 30
0.0
 11
40.46281416939996
 21
-19.0000270923
 31
0.0
  0
LINE
  5
60335
330
1F
100
AcDbEntity
  8
1
100
AcDbLine
 10
39.22901058919996
 20
-19.0195429183
 30
0.0
 11
39.83977301849995
 21
-19.01060682920001
 31
0.0
  0
LINE
  5
60336
330
1F
100
AcDbEntity
  8
1
100
AcDbLine
 10
38.63011676479994
 20
-19.0268685803
 30
0.0
 11
39.22901058919996
 21
-19.0195429183
 31
0.0
  0
LINE
  5
60337
330
1F
100
AcDbEntity
  8
1
100
AcDbLine
 10
38.04272800369995
 20
-19.03261551129998
 30
0.0
 11
38.63011676479994
 21
-19.0268685803
 31
0.0
  0
LINE
  5
60338
330
1F
100
AcDbEntity
  8
1
100
AcDbLine
 10
37.46650056989995
 20
-19.03681524290002
 30
0.0
 11
38.04272800369995
 21
-19.03261551129998
 31
0.0
  0
LINE
  5
60339
330
1F
100
AcDbEntity
  8
1
100
AcDbLine
 10
36.90112345619997
 20
-19.03949850219999
 30
0.0
 11
37.46650056989995
 21
-19.03681524290002
 31
0.0
  0
LINE
  5
6033A
330
1F
100
AcDbEntity
  8
1
100
AcDbLine
 10
36.346298107
 20
-19.04069623930002
 30
0.0
 11
36.90112345619997
 21
-19.03949850219999
 31
0.0
  0
LINE
  5
6033B
330
1F
100
AcDbEntity
  8
1
100
AcDbLine
 10
35.80174832879999
 20
-19.04043913790002
 30
0.0
 11
36.346298107
 21
-19.04069623930002
 31
0.0
  0
LINE
  5
6033C
330
1F
100
AcDbEntity
  8
1
100
AcDbLine
 10
35.30703841829995
 20
-19.03889192170002
 30
0.0
 11
35.80174832879999
 21
-19.04043913790002
 31
0.0
  0
LINE
  5
6033D
330
1F
100
AcDbEntity
  8
1
100
AcDbLine
 10
35.26722255479996
 20
-19.03875751070001
 30
0.0
 11
35.30703841829995
 21
-19.03889192170002
 31
0.0
  0
LINE
  5
6033E
330
1F
100
AcDbEntity
  8
1
100
AcDbLine
 10
34.74247696819998
 20
-19.03568215090001
 30
0.0
 11
35.26722255479996
 21
-19.03875751070001
 31
0.0
  0
LINE
  5
6033F
330
1F
100
AcDbEntity
  8
1
100
AcDbLine
 10
34.22726671340001
 20
-19.03124477059998
 30
0.0
 11
34.74247696819998
 21
-19.03568215090001
 31
0.0
  0
LINE
  5
60340
330
1F
100
AcDbEntity
  8
1
100
AcDbLine
 10
33.97711602489994
 20
-19.02842503700003
 30
0.0
 11
34.22726671340001
 21
-19.03124477059998
 31
0.0
  0
LINE
  5
60341
330
1F
100
AcDbEntity
  8
1
100
AcDbLine
 10
33.93751084059994
 20
-19.03056368
 30
0.0
 11
33.97711602489994
 21
-19.02842503700003
 31
0.0
  0
SPLINE
  5
60342
330
1F
100
AcDbEntity
  8
1
100
AcDbSpline
210
0.0
220
0.0
230
1.0
 70
     8
 71
     3
 72
     9
 73
     5
 74
     0
 42
0.0000000001
 43
0.0000000001
 40
0.0
 40
0.0
 40
0.0
 40
0.0
 40
0.5008319677000001
 40
1.0
 40
1.0
 40
1.0
 40
1.0
 10
50.79495537759999
 20
-18.33793176820001
 30
0.0
 10
50.7880928546
 20
-18.3810159288
 30
0.0
 10
50.76025751119994
 20
-18.46539533930002
 30
0.0
 10
50.70663347969992
 20
-18.53629897920001
 30
0.0
 10
50.67507727639998
 20
-18.56621417719998
 30
0.0
  0
SPLINE
  5
60343
330
1F
100
AcDbEntity
  8
1
100
AcDbSpline
210
0.0
220
0.0
230
1.0
 70
     8
 71
     3
 72
     9
 73
     5
 74
     0
 42
0.0000000001
 43
0.0000000001
 40
0.0
 40
0.0
 40
0.0
 40
0.0
 40
0.5007722367000002
 40
1.0
 40
1.0
 40
1.0
 40
1.0
 10
50.67507727609996
 20
-18.56621417680003
 30
0.0
 10
50.64131191589996
 20
-18.59822364979999
 30
0.0
 10
50.56195375499999
 20
-18.65069154920002
 30
0.0
 10
50.46914880259999
 20
-18.671813953
 30
0.0
 10
50.42281484419993
 20
-18.67394423659999
 30
0.0
  0
SPLINE
  5
60344
330
1F
100
AcDbEntity
  8
1
100
AcDbSpline
210
0.0
220
0.0
230
1.0
 70
     8
 71
     3
 72
    15
 73
    11
 74
     0
 42
0.0000000001
 43
0.0000000001
 40
0.0
 40
0.0
 40
0.0
 40
0.0
 40
0.3141900566
 40
0.4172667061000002
 40
0.5039445998
 40
0.5591931937
 40
0.6248320765999999
 40
0.7039118479000001
 40
0.7941692541
 40
1.0
 40
1.0
 40
1.0
 40
1.0
 10
50.40944668449998
 20
-18.6716870326
 30
0.0
 10
50.41112811539995
 20
-18.67160172690001
 30
0.0
 10
50.41341538299997
 20
-18.67141207060002
 30
0.0
 10
50.41594322759999
 20
-18.6707093796
 30
0.0
 10
50.41721710079992
 20
-18.66987361770003
 30
0.0
 10
50.41705060099997
 20
-18.66863833710002
 30
0.0
 10
50.41633940169993
 20
-18.66781779929999
 30
0.0
 10
50.41538413219996
 20
-18.66699668490003
 30
0.0
 10
50.41371297789999
 20
-18.6658722539
 30
0.0
 10
50.41231762500001
 20
-18.66511239600001
 30
0.0
 10
50.41133494839994
 20
-18.66461155580001
 30
0.0
  0
SPLINE
  5
60345
330
1F
100
AcDbEntity
  8
1
100
AcDbSpline
210
0.0
220
0.0
230
1.0
 70
     8
 71
     3
 72
     9
 73
     5
 74
     0
 42
0.0000000001
 43
0.0000000001
 40
0.0
 40
0.0
 40
0.0
 40
0.0
 40
0.4255801799000001
 40
1.0
 40
1.0
 40
1.0
 40
1.0
 10
50.41133494839994
 20
-18.66461155580001
 30
0.0
 10
50.41164995099996
 20
-18.66322855589999
 30
0.0
 10
50.40957114079993
 20
-18.6598906538
 30
0.0
 10
50.40704943609995
 20
-18.65796169830003
 30
0.0
 10
50.40550707919999
 20
-18.6568275013
 30
0.0
  0
SPLINE
  5
60346
330
1F
100
AcDbEntity
  8
1
100
AcDbSpline
210
0.0
220
0.0
230
1.0
 70
     8
 71
     3
 72
     9
 73
     5
 74
     0
 42
0.0000000001
 43
0.0000000001
 40
0.0
 40
0.0
 40
0.0
 40
0.0
 40
0.4575805405
 40
1.0
 40
1.0
 40
1.0
 40
1.0
 10
50.40550707919999
 20
-18.6568275013
 30
0.0
 10
50.40513807469995
 20
-18.65519337810002
 30
0.0
 10
50.40317545779998
 20
-18.65194362330001
 30
0.0
 10
50.40063291219991
 20
-18.64932733180001
 30
0.0
 10
50.39917757799997
 20
-18.64797614580001
 30
0.0
  0
SPLINE
  5
60347
330
1F
100
AcDbEntity
  8
1
100
AcDbSpline
210
0.0
220
0.0
230
1.0
 70
     8
 71
     3
 72
     9
 73
     5
 74
     0
 42
0.0000000001
 43
0.0000000001
 40
0.0
 40
0.0
 40
0.0
 40
0.0
 40
0.2300051263
 40
1.0
 40
1.0
 40
1.0
 40
1.0
 10
50.39917757799997
 20
-18.64797614580001
 30
0.0
 10
50.39886981809991
 20
-18.6471121122
 30
0.0
 10
50.39718912899991
 20
-18.64347761850001
 30
0.0
 10
50.39464962549994
 20
-18.64032318690002
 30
0.0
 10
50.39258097029994
 20
-18.63805404040002
 30
0.0
  0
SPLINE
  5
60348
330
1F
100
AcDbEntity
  8
1
100
AcDbSpline
210
0.0
220
0.0
230
1.0
 70
     8
 71
     3
 72
     9
 73
     5
 74
     0
 42
0.0000000001
 43
0.0000000001
 40
0.0
 40
0.0
 40
0.0
 40
0.0
 40
0.2358615788
 40
1.0
 40
1.0
 40
1.0
 40
1.0
 10
50.39258097029994
 20
-18.63805404040002
 30
0.0
 10
50.39219766249994
 20
-18.6371091901
 30
0.0
 10
50.39033911829995
 20
-18.63319751040002
 30
0.0
 10
50.38781031209999
 20
-18.62964328040002
 30
0.0
 10
50.38573933349994
 20
-18.62706965680002
 30
0.0
  0
SPLINE
  5
60349
330
1F
100
AcDbEntity
  8
1
100
AcDbSpline
210
0.0
220
0.0
230
1.0
 70
     8
 71
     3
 72
     9
 73
     5
 74
     0
 42
0.0000000001
 43
0.0000000001
 40
0.0
 40
0.0
 40
0.0
 40
0.0
 40
0.2394364384
 40
1.0
 40
1.0
 40
1.0
 40
1.0
 10
50.38573933349994
 20
-18.62706965680002
 30
0.0
 10
50.38530021669998
 20
-18.62604245790002
 30
0.0
 10
50.38328875849993
 20
-18.62182801580002
 30
0.0
 10
50.3807244152
 20
-18.6178983826
 30
0.0
 10
50.3786285507
 20
-18.61503494729999
 30
0.0
  0
SPLINE
  5
6034A
330
1F
100
AcDbEntity
  8
1
100
AcDbSpline
210
0.0
220
0.0
230
1.0
 70
     8
 71
     3
 72
     9
 73
     5
 74
     0
 42
0.0000000001
 43
0.0000000001
 40
0.0
 40
0.0
 40
0.0
 40
0.0
 40
0.2417547222
 40
1.0
 40
1.0
 40
1.0
 40
1.0
 10
50.3786285507
 20
-18.61503494729999
 30
0.0
 10
50.37814139009992
 20
-18.61392492620001
 30
0.0
 10
50.37598225199997
 20
-18.60939650620003
 30
0.0
 10
50.37334990659997
 20
-18.60510611310002
 30
0.0
 10
50.37120958099996
 20
-18.6019637521
 30
0.0
  0
SPLINE
  5
6034B
330
1F
100
AcDbEntity
  8
1
100
AcDbSpline
210
0.0
220
0.0
230
1.0
 70
     8
 71
     3
 72
     9
 73
     5
 74
     0
 42
0.0000000001
 43
0.0000000001
 40
0.0
 40
0.0
 40
0.0
 40
0.0
 40
0.2434124267
 40
1.0
 40
1.0
 40
1.0
 40
1.0
 10
50.37120958099996
 20
-18.6019637521
 30
0.0
 10
50.37067722539996
 20
-18.6007712283
 30
0.0
 10
50.36836888249997
 20
-18.59592615780002
 30
0.0
 10
50.36564976259995
 20
-18.5912845533
 30
0.0
 10
50.36345393749996
 20
-18.58787050160001
 30
0.0
  0
SPLINE
  5
6034C
330
1F
100
AcDbEntity
  8
1
100
AcDbSpline
210
0.0
220
0.0
230
1.0
 70
     8
 71
     3
 72
     9
 73
     5
 74
     0
 42
0.0000000001
 43
0.0000000001
 40
0.0
 40
0.0
 40
0.0
 40
0.0
 40
0.2446013784
 40
1.0
 40
1.0
 40
1.0
 40
1.0
 10
50.36345393749996
 20
-18.58787050160001
 30
0.0
 10
50.36287957799993
 20
-18.5865961129
 30
0.0
 10
50.36042711689993
 20
-18.58143308820001
 30
0.0
 10
50.35761112939997
 20
-18.57644776040001
 30
0.0
 10
50.35535086219994
 20
-18.57276984770001
 30
0.0
  0
SPLINE
  5
6034D
330
1F
100
AcDbEntity
  8
1
100
AcDbSpline
210
0.0
220
0.0
230
1.0
 70
     8
 71
     3
 72
     9
 73
     5
 74
     0
 42
0.0000000001
 43
0.0000000001
 40
0.0
 40
0.0
 40
0.0
 40
0.0
 40
0.2454528815
 40
1.0
 40
1.0
 40
1.0
 40
1.0
 10
50.35535086219994
 20
-18.57276984770001
 30
0.0
 10
50.35473589659995
 20
-18.57141440380002
 30
0.0
 10
50.35213822559995
 20
-18.56593408510002
 30
0.0
 10
50.34921224069996
 20
-18.56061281850004
 30
0.0
 10
50.34687671219995
 20
-18.5566782075
 30
0.0
  0
SPLINE
  5
6034E
330
1F
100
AcDbEntity
  8
1
100
AcDbSpline
210
0.0
220
0.0
230
1.0
 70
     8
 71
     3
 72
     9
 73
     5
 74
     0
 42
0.0000000001
 43
0.0000000001
 40
0.0
 40
0.0
 40
0.0
 40
0.0
 40
0.2460759633
 40
1.0
 40
1.0
 40
1.0
 40
1.0
 10
50.34687671219995
 20
-18.5566782075
 30
0.0
 10
50.34622061239997
 20
-18.555242819
 30
0.0
 10
50.34347118819994
 20
-18.54944778540002
 30
0.0
 10
50.34042041279997
 20
-18.54379818490002
 30
0.0
 10
50.33799758570001
 20
-18.53961362099999
 30
0.0
  0
SPLINE
  5
6034F
330
1F
100
AcDbEntity
  8
1
100
AcDbSpline
210
0.0
220
0.0
230
1.0
 70
     8
 71
     3
 72
     9
 73
     5
 74
     0
 42
0.0000000001
 43
0.0000000001
 40
0.0
 40
0.0
 40
0.0
 40
0.0
 40
0.2465414641
 40
1.0
 40
1.0
 40
1.0
 40
1.0
 10
50.33799758570001
 20
-18.53961362099999
 30
0.0
 10
50.33729860299996
 20
-18.5380996106
 30
0.0
 10
50.33438715199998
 20
-18.53199390399999
 30
0.0
 10
50.33119575519998
 20
-18.52602350860002
 30
0.0
 10
50.3286727469
 20
-18.52159556820001
 30
0.0
  0
SPLINE
  5
60350
330
1F
100
AcDbEntity
  8
1
100
AcDbSpline
210
0.0
220
0.0
230
1.0
 70
     8
 71
     3
 72
     9
 73
     5
 74
     0
 42
0.0000000001
 43
0.0000000001
 40
0.0
 40
0.0
 40
0.0
 40
0.0
 40
0.2468929444
 40
1.0
 40
1.0
 40
1.0
 40
1.0
 10
50.3286727469
 20
-18.52159556820001
 30
0.0
 10
50.3279283055
 20
-18.52000444489999
 30
0.0
 10
50.32484216139994
 20
-18.51359309840001
 30
0.0
 10
50.32149320789994
 20
-18.50730964950003
 30
0.0
 10
50.31885646039995
 20
-18.50264486579998
 30
0.0
  0
SPLINE
  5
60351
330
1F
100
AcDbEntity
  8
1
100
AcDbSpline
210
0.0
220
0.0
230
1.0
 70
     8
 71
     3
 72
     9
 73
     5
 74
     0
 42
0.0000000001
 43
0.0000000001
 40
0.0
 40
0.0
 40
0.0
 40
0.0
 40
0.2471604593
 40
1.0
 40
1.0
 40
1.0
 40
1.0
 10
50.31885646039995
 20
-18.50264486579998
 30
0.0
 10
50.31806337699999
 20
-18.50097829219999
 30
0.0
 10
50.31478802399994
 20
-18.49426715780001
 30
0.0
 10
50.31126356669995
 20
-18.48767870440002
 30
0.0
 10
50.3084990671
 20
-18.48278360200001
 30
0.0
  0
SPLINE
  5
60352
330
1F
100
AcDbEntity
  8
1
100
AcDbSpline
210
0.0
220
0.0
230
1.0
 70
     8
 71
     3
 72
    15
 73
    11
 74
     0
 42
0.0000000001
 43
0.0000000001
 40
0.0
 40
0.0
 40
0.0
 40
0.0
 40
0.0998790423
 40
0.1828725489
 40
0.3179067564
 40
0.4378299644000001
 40
0.5525886624
 40
0.6652793182
 40
0.7771071331999999
 40
1.0
 40
1.0
 40
1.0
 40
1.0
 10
33.04170704759997
 20
-18.50692425340003
 30
0.0
 10
33.02691783289998
 20
-18.49827926220001
 30
0.0
 10
33.00174091779997
 20
-18.4786027934
 30
0.0
 10
32.97035101489996
 20
-18.43320805950003
 30
0.0
 10
32.9552695525
 20
-18.3757509957
 30
0.0
 10
32.95619722129999
 20
-18.31202294260002
 30
0.0
 10
32.96631630579998
 20
-18.25314190120002
 30
0.0
 10
32.98220576309996
 20
-18.1970870783
 30
0.0
 10
33.00867979980001
 20
-18.12500999920002
 30
0.0
 10
33.03305211189996
 20
-18.0729073489
 30
0.0
 10
33.05049903700001
 20
-18.0388916558
 30
0.0
  0
SPLINE
  5
60353
330
1F
100
AcDbEntity
  8
1
100
AcDbSpline
210
0.0
220
0.0
230
1.0
 70
     8
 71
     3
 72
    10
 73
     6
 74
     0
 42
0.0000000001
 43
0.0000000001
 40
0.0
 40
0.0
 40
0.0
 40
0.0
 40
0.4880601787
 40
0.7392929023
 40
1.0
 40
1.0
 40
1.0
 40
1.0
 10
50.30049585419999
 20
-18.4673093863
 30
0.0
 10
50.31048494669994
 20
-18.41933056070002
 30
0.0
 10
50.30230626599996
 20
-18.3419818564
 30
0.0
 10
50.26861540179999
 20
-18.2476173096
 30
0.0
 10
50.24537901239995
 20
-18.20151646990001
 30
0.0
 10
50.23236931539997
 20
-18.17879957740002
 30
0.0
  0
SPLINE
  5
60354
330
1F
100
AcDbEntity
  8
1
100
AcDbSpline
210
0.0
220
0.0
230
1.0
 70
     8
 71
     3
 72
     9
 73
     5
 74
     0
 42
0.0000000001
 43
0.0000000001
 40
0.0
 40
0.0
 40
0.0
 40
0.0
 40
0.4533631961
 40
0.5098095344571212
 40
0.5098095344571212
 40
0.5098095344571212
 40
0.5098095344571212
 10
32.14312743109997
 20
-18.06982731920001
 30
0.0
 10
32.28254153439997
 20
-18.064459529
 30
0.0
 10
32.43930051553213
 20
-18.05809178844164
 30
0.0
 10
32.59609036889441
 20
-18.05251334318866
 30
0.0
 10
32.61345057960381
 20
-18.05190567618307
 30
0.0
  0
SPLINE
  5
60355
330
1F
100
AcDbEntity
  8
1
100
AcDbSpline
210
0.0
220
0.0
230
1.0
 70
     8
 71
     3
 72
     8
 73
     4
 74
     0
 42
0.0000000001
 43
0.0000000001
 40
0.5098095344571212
 40
0.5098095344571212
 40
0.5098095344571212
 40
0.5098095344571212
 40
1.0
 40
1.0
 40
1.0
 40
1.0
 10
32.61345057960381
 20
-18.05190567618307
 30
0.0
 10
32.76420986740272
 20
-18.04662858326552
 30
0.0
 10
32.914996939915
 20
-18.04210420319661
 30
0.0
 10
33.06580522219997
 20
-18.03853225270001
 30
0.0
  0
SPLINE
  5
60356
330
1F
100
AcDbEntity
  8
1
100
AcDbSpline
210
0.0
220
0.0
230
1.0
 70
     8
 71
     3
 72
    15
 73
    11
 74
     0
 42
0.0000000001
 43
0.0000000001
 40
0.0
 40
0.0
 40
0.0
 40
0.0
 40
0.1719866181
 40
0.3174159855
 40
0.4420359104
 40
0.5556362737000004
 40
0.6647635785000002
 40
0.7735070776000002
 40
0.8845886348999998
 40
1.0
 40
1.0
 40
1.0
 40
1.0
 10
37.23429869289998
 20
-15.45527738520002
 30
0.0
 10
37.10430413439997
 20
-15.45527817319998
 30
0.0
 10
36.86250830040001
 20
-15.42459598800002
 30
0.0
 10
36.5525251437
 20
-15.28877614470002
 30
0.0
 10
36.32581081699999
 20
-15.1027735131
 30
0.0
 10
36.16807791889994
 20
-14.89002806260001
 30
0.0
 10
36.06503515499998
 20
-14.65976030730002
 30
0.0
 10
36.00872584009994
 20
-14.41614463620001
 30
0.0
 10
35.99559603
 20
-14.16195072300002
 30
0.0
 10
36.01475426899992
 20
-13.99098350219998
 30
0.0
 10
36.03100232739996
 20
-13.90527739489999
 30
0.0
  0
SPLINE
  5
60357
330
1F
100
AcDbEntity
  8
1
100
AcDbSpline
210
0.0
220
0.0
230
1.0
 70
     8
 71
     3
 72
     9
 73
     5
 74
     0
 42
0.0000000001
 43
0.0000000001
 40
0.0
 40
0.0
 40
0.0
 40
0.0
 40
0.2233436592
 40
1.0
 40
1.0
 40
1.0
 40
1.0
 10
32.14312743109997
 20
18.06982731929999
 30
0.0
 10
32.17813908529996
 20
18.06847928339998
 30
0.0
 10
32.33489480579999
 20
18.06230109769997
 30
0.0
 10
32.491653208
 20
18.05616775569999
 30
0.0
 10
32.6134187706
 20
18.05191203069998
 30
0.0
  0
SPLINE
  5
60358
330
1F
100
AcDbEntity
  8
1
100
AcDbSpline
210
0.0
220
0.0
230
1.0
 70
     8
 71
     3
 72
    15
 73
    11
 74
     0
 42
0.0000000001
 43
0.0000000001
 40
0.0
 40
0.0
 40
0.0
 40
0.0
 40
0.1730725148
 40
0.318370275
 40
0.4424962058000001
 40
0.5556610315000004
 40
0.6645112788000001
 40
0.7731585031
 40
0.8843235895999999
 40
1.0
 40
1.0
 40
1.0
 40
1.0
 10
44.88355232380001
 20
-15.2209692394
 30
0.0
 10
44.75291785649995
 20
-15.22097111229999
 30
0.0
 10
44.51067730249997
 20
-15.19006237019999
 30
0.0
 10
44.20117509119996
 20
-15.0533196456
 30
0.0
 10
43.97617270169996
 20
-14.867132975
 30
0.0
 10
43.82012555839998
 20
-14.6547468713
 30
0.0
 10
43.71837492149995
 20
-14.42496859160002
 30
0.0
 10
43.66300915569996
 20
-14.18172585500002
 30
0.0
 10
43.65059170500001
 20
-13.9276643725
 30
0.0
 10
43.67014698919996
 20
-13.75671937140001
 30
0.0
 10
43.68658960399995
 20
-13.67096947480002
 30
0.0
  0
SPLINE
  5
60359
330
1F
100
AcDbEntity
  8
1
100
AcDbSpline
210
0.0
220
0.0
230
1.0
 70
     8
 71
     3
 72
     8
 73
     4
 74
     0
 42
0.0000000001
 43
0.0000000001
 40
0.0
 40
0.0
 40
0.0
 40
0.0
 40
1.0
 40
1.0
 40
1.0
 40
1.0
 10
21.93553423899996
 20
-17.5341816163
 30
0.0
 10
22.81336315269999
 20
-17.69039514620002
 30
0.0
 10
23.69125423939997
 20
-17.8462596432
 30
0.0
 10
24.56920242929996
 20
-18.00180142100001
 30
0.0
  0
SPLINE
  5
6035A
330
1F
100
AcDbEntity
  8
1
100
AcDbSpline
210
0.0
220
0.0
230
1.0
 70
     8
 71
     3
 72
    18
 73
    14
 74
     0
 42
0.0000000001
 43
0.0000000001
 40
0.0
 40
0.0
 40
0.0
 40
0.0
 40
0.0081733639
 40
0.0173037557
 40
0.0279387981
 40
0.0404406416
 40
0.0550284659
 40
0.0718233809
 40
0.1121687243
 40
0.1613390296
 40
0.2186166829
 40
0.2829403152
 40
0.2992616991387493
 40
0.2992616991387493
 40
0.2992616991387493
 40
0.2992616991387493
 10
32.65171569399996
 20
-17.74539090040002
 30
0.0
 10
32.651763657
 20
-17.73871151600002
 30
0.0
 10
32.65423747379998
 20
-17.72452486610001
 30
0.0
 10
32.66440141379997
 20
-17.70383340130002
 30
0.0
 10
32.68089069849998
 20
-17.6830638639
 30
0.0
 10
32.70369593309994
 20
-17.66218123010003
 30
0.0
 10
32.73285211109999
 20
-17.64119067210003
 30
0.0
 10
32.7833687077
 20
-17.6113373723
 30
0.0
 10
32.86274340119997
 20
-17.57546348200003
 30
0.0
 10
32.97614482459994
 20
-17.53605070989999
 30
0.0
 10
33.11083604659996
 20
-17.4991686255
 30
0.0
 10
33.2210017173004
 20
-17.47514294287961
 30
0.0
 10
33.28574211264453
 20
-17.46277612677826
 30
0.0
 10
33.29885679445988
 20
-17.46033885263336
 30
0.0
  0
SPLINE
  5
6035B
330
1F
100
AcDbEntity
  8
1
100
AcDbSpline
210
0.0
220
0.0
230
1.0
 70
     8
 71
     3
 72
    13
 73
     9
 74
     0
 42
0.0000000001
 43
0.0000000001
 40
0.2992616991387493
 40
0.2992616991387493
 40
0.2992616991387493
 40
0.2992616991387493
 40
0.3530790875999999
 40
0.4277835592
 40
0.5058928975
 40
0.668421538
 40
0.8344861375
 40
1.0
 40
1.0
 40
1.0
 40
1.0
 10
33.29885679445988
 20
-17.46033885263336
 30
0.0
 10
33.3421005493064
 20
-17.45230229581103
 30
0.0
 10
33.445687214337
 20
-17.43481315649667
 30
0.0
 10
33.61306062389997
 20
-17.4121572894
 30
0.0
 10
33.86945863599999
 20
-17.38584409029999
 30
0.0
 10
34.20142136039999
 20
-17.36623492290002
 30
0.0
 10
34.60530667009994
 20
-17.36132521950002
 30
0.0
 10
34.87625343939999
 20
-17.36903207620003
 30
0.0
 10
35.01136955239997
 20
-17.37534849030001
 30
0.0
  0
SPLINE
  5
6035C
330
1F
100
AcDbEntity
  8
1
100
AcDbSpline
210
0.0
220
0.0
230
1.0
 70
     8
 71
     3
 72
    11
 73
     7
 74
     0
 42
0.0000000001
 43
0.0000000001
 40
0.0
 40
0.0
 40
0.0
 40
0.0
 40
0.2302844578
 40
0.478151228
 40
0.7370122823000002
 40
1.0
 40
1.0
 40
1.0
 40
1.0
 10
18.28584411489996
 20
17.34722911759999
 30
0.0
 10
18.43483831889995
 20
17.33682423239997
 30
0.0
 10
18.74442700359998
 20
17.3181813825
 30
0.0
 10
19.22228533899994
 20
17.30317418999999
 30
0.0
 10
19.72161271229996
 20
17.30511126280001
 30
0.0
 10
20.05986837899994
 20
17.3195038833
 30
0.0
 10
20.23010733569998
 20
17.33008761089999
 30
0.0
  0
SPLINE
  5
6035D
330
1F
100
AcDbEntity
  8
1
100
AcDbSpline
210
0.0
220
0.0
230
1.0
 70
     8
 71
     3
 72
     9
 73
     5
 74
     0
 42
0.0000000001
 43
0.0000000001
 40
0.0
 40
0.0
 40
0.0
 40
0.0
 40
0.2593569186
 40
1.0
 40
1.0
 40
1.0
 40
1.0
 10
44.17913842809991
 20
8.5120313285
 30
0.0
 10
44.17464642189997
 20
8.488279406700002
 30
0.0
 10
44.15868911969994
 20
8.39644323409999
 30
0.0
 10
44.14781898089995
 20
8.303751486399981
 30
0.0
 10
44.14218214959999
 20
8.234951528599985
 30
0.0
  0
SPLINE
  5
6035E
330
1F
100
AcDbEntity
  8
1
100
AcDbSpline
210
0.0
220
0.0
230
1.0
 70
     8
 71
     3
 72
     9
 73
     5
 74
     0
 42
0.0000000001
 43
0.0000000001
 40
0.0
 40
0.0
 40
0.0
 40
0.0
 40
0.2636950271
 40
1.0
 40
1.0
 40
1.0
 40
1.0
 10
44.14218214959999
 20
8.234951528599985
 30
0.0
 10
44.14007435309997
 20
8.209224964399986
 30
0.0
 10
44.13334763889998
 20
8.111558532699994
 30
0.0
 10
44.13108346219996
 20
8.013622591200004
 30
0.0
 10
44.13108346219996
 20
7.941546646099986
 30
0.0
  0
LINE
  5
6035F
330
1F
100
AcDbEntity
  8
1
100
AcDbLine
 10
44.17026638509992
 20
8.513227164400007
 30
0.0
 11
44.17913842809991
 21
8.5120313285
 31
0.0
  0
SPLINE
  5
60360
330
1F
100
AcDbEntity
  8
1
100
AcDbSpline
210
0.0
220
0.0
230
1.0
 70
     8
 71
     3
 72
     9
 73
     5
 74
     0
 42
0.0000000001
 43
0.0000000001
 40
0.0
 40
0.0
 40
0.0
 40
0.0
 40
0.3637629651
 40
1.0
 40
1.0
 40
1.0
 40
1.0
 10
44.17026638509992
 20
8.513227164400007
 30
0.0
 10
44.16931740239994
 20
8.513369518899992
 30
0.0
 10
44.16731573649991
 20
8.515692543099987
 30
0.0
 10
44.1669201986
 20
8.518264374199986
 30
0.0
 10
44.16663977829995
 20
8.519919164799972
 30
0.0
  0
SPLINE
  5
60361
330
1F
100
AcDbEntity
  8
1
100
AcDbSpline
210
0.0
220
0.0
230
1.0
 70
     8
 71
     3
 72
     9
 73
     5
 74
     0
 42
0.0000000001
 43
0.0000000001
 40
0.0
 40
0.0
 40
0.0
 40
0.0
 40
0.2065801193
 40
1.0
 40
1.0
 40
1.0
 40
1.0
 10
44.16663977829995
 20
8.519919164799972
 30
0.0
 10
44.16651231929995
 20
8.520671314499992
 30
0.0
 10
44.16601741959993
 20
8.524332888999992
 30
0.0
 10
44.16588130349999
 20
8.528032996999989
 30
0.0
 10
44.16584556219993
 20
8.530962772799995
 30
0.0
  0
SPLINE
  5
60362
330
1F
100
AcDbEntity
  8
1
100
AcDbSpline
210
0.0
220
0.0
230
1.0
 70
     8
 71
     3
 72
    12
 73
     8
 74
     0
 42
0.0000000001
 43
0.0000000001
 40
0.0
 40
0.0
 40
0.0
 40
0.0
 40
0.0580697557
 40
0.1352554917
 40
0.347111829
 40
0.6354860864000002
 40
1.0
 40
1.0
 40
1.0
 40
1.0
 10
44.16584556219993
 20
8.530962772799995
 30
0.0
 10
44.16577826399993
 20
8.536479310200007
 30
0.0
 10
44.16627527939994
 20
8.54933245799998
 30
0.0
 10
44.16908163779999
 20
8.582193641799989
 30
0.0
 10
44.17661896469991
 20
8.636568911699981
 30
0.0
 10
44.19187784639996
 20
8.717322105699992
 30
0.0
 10
44.20677921569995
 20
8.77758250399998
 30
0.0
 10
44.21606441989996
 20
8.810945355499988
 30
0.0
  0
SPLINE
  5
60363
330
1F
100
AcDbEntity
  8
1
100
AcDbSpline
210
0.0
220
0.0
230
1.0
 70
     8
 71
     3
 72
    12
 73
     8
 74
     0
 42
0.0000000001
 43
0.0000000001
 40
0.0
 40
0.0
 40
0.0
 40
0.0
 40
0.1096086362
 40
0.2247599892
 40
0.4696700998
 40
0.7299784520000001
 40
1.0
 40
1.0
 40
1.0
 40
1.0
 10
46.54037110319996
 20
7.224356298199978
 30
0.0
 10
46.54644200599995
 20
6.940315081499988
 30
0.0
 10
46.56525283119992
 20
6.357995729500004
 30
0.0
 10
46.62563503319995
 20
5.142064220900003
 30
0.0
 10
46.73941281739996
 20
3.537927283899989
 30
0.0
 10
46.91770523259992
 20
1.536371140599975
 30
0.0
 10
47.05681791759992
 20
0.1687759538999671
 30
0.0
 10
47.13108346219996
 20
-0.5271698514000036
 30
0.0
  0
SPLINE
  5
60364
330
1F
100
AcDbEntity
  8
1
100
AcDbSpline
210
0.0
220
0.0
230
1.0
 70
     8
 71
     3
 72
    15
 73
    11
 74
     0
 42
0.0000000001
 43
0.0000000001
 40
0.0
 40
0.0
 40
0.0
 40
0.0
 40
0.1350180999
 40
0.2701047045
 40
0.4035615159000001
 40
0.5338256528000001
 40
0.6595464119
 40
0.7796365278000002
 40
0.8932942091000001
 40
1.0
 40
1.0
 40
1.0
 40
1.0
 10
47.13108346219996
 20
0.5271698514999912
 30
0.0
 10
47.18193987779994
 20
1.068487181199991
 30
0.0
 10
47.28735078899996
 20
2.151054196699988
 30
0.0
 10
47.45494129199994
 20
3.767491679899983
 30
0.0
 10
47.6312532728
 20
5.363746354899994
 30
0.0
 10
47.81592579289998
 20
6.921089367599982
 30
0.0
 10
48.00955274059993
 20
8.423100017399974
 30
0.0
 10
48.21344975319994
 20
9.856258662099975
 30
0.0
 10
48.42938887159994
 20
11.2101834794
 30
0.0
 10
48.58782162519998
 20
12.08340719579998
 30
0.0
 10
48.67034173429999
 20
12.50509986659998
 30
0.0
  0
SPLINE
  5
60365
330
1F
100
AcDbEntity
  8
1
100
AcDbSpline
210
0.0
220
0.0
230
1.0
 70
     8
 71
     3
 72
    15
 73
    11
 74
     0
 42
0.0000000001
 43
0.0000000001
 40
0.0
 40
0.0
 40
0.0
 40
0.0
 40
0.1350182197
 40
0.2701047822
 40
0.4035616009
 40
0.5338257747
 40
0.6595465122
 40
0.7796365982
 40
0.8932942262999999
 40
1.0
 40
1.0
 40
1.0
 40
1.0
 10
47.13108346219996
 20
-0.5271698514000036
 30
0.0
 10
47.18193992299996
 20
-1.068487661400013
 30
0.0
 10
47.28735087159998
 20
-2.151054987700007
 30
0.0
 10
47.45494141579996
 20
-3.767492810800007
 30
0.0
 10
47.63125340159996
 20
-5.363747493900007
 30
0.0
 10
47.81592594509993
 20
-6.921090595599991
 30
0.0
 10
48.00955289959995
 20
-8.423101185000014
 30
0.0
 10
48.21344986659994
 20
-9.85625941020001
 30
0.0
 10
48.42938893329995
 20
-11.2101838268
 30
0.0
 10
48.58782163859996
 20
-12.08340726379998
 30
0.0
 10
48.67034173429999
 20
-12.5050998666
 30
0.0
  0
LINE
  5
60366
330
1F
100
AcDbEntity
  8
1
100
AcDbLine
 10
48.67747469579995
 20
-15.8653863042
 30
0.0
 11
48.00798438159995
 21
-17.23948968000002
 31
0.0
  0
SPLINE
  5
60367
330
1F
100
AcDbEntity
  8
1
100
AcDbSpline
210
0.0
220
0.0
230
1.0
 70
     8
 71
     3
 72
    15
 73
    11
 74
     0
 42
0.0000000001
 43
0.0000000001
 40
0.0
 40
0.0
 40
0.0
 40
0.0
 40
0.3078612636
 40
0.452399082
 40
0.5884856566
 40
0.7141615995999999
 40
0.8269356185999999
 40
0.9235668507999999
 40
0.9645904222
 40
1.0
 40
1.0
 40
1.0
 40
1.0
 10
35.01136955239997
 20
-17.37534849030001
 30
0.0
 10
35.23109300759995
 20
-17.37616257799999
 30
0.0
 10
35.55406167139995
 20
-17.38774975710004
 30
0.0
 10
35.97267604280001
 20
-17.42250026570002
 30
0.0
 10
36.26081628719999
 20
-17.4555991688
 30
0.0
 10
36.52526175699995
 20
-17.4950781787
 30
0.0
 10
36.76025826119996
 20
-17.53976425270002
 30
0.0
 10
36.93409196069996
 20
-17.582004761
 30
0.0
 10
37.05205945879999
 20
-17.61873655990001
 30
0.0
 10
37.10320020719996
 20
-17.6378831367
 30
0.0
 10
37.12644049139999
 20
-17.6478118485
 30
0.0
  0
SPLINE
  5
60368
330
1F
100
AcDbEntity
  8
1
100
AcDbSpline
210
0.0
220
0.0
230
1.0
 70
     8
 71
     3
 72
    13
 73
     9
 74
     0
 42
0.0000000001
 43
0.0000000001
 40
0.0
 40
0.0
 40
0.0
 40
0.0
 40
0.2049100642
 40
0.4367657677000001
 40
0.5655589272000002
 40
0.7034307961000003
 40
0.8494775967
 40
1.0
 40
1.0
 40
1.0
 40
1.0
 10
43.68658960399995
 20
-13.67096947480002
 30
0.0
 10
43.71963065789998
 20
-13.49865704130002
 30
0.0
 10
43.84632784479992
 20
-13.14066886080002
 30
0.0
 10
44.13527350129993
 20
-12.74274351970001
 30
0.0
 10
44.45919843289999
 20
-12.46221687510001
 30
0.0
 10
44.76410947099998
 20
-12.27949944190001
 30
0.0
 10
45.11648452529994
 20
-12.15277467480001
 30
0.0
 10
45.37128573179995
 20
-12.12096302360001
 30
0.0
 10
45.50016864449998
 20
-12.120969618
 30
0.0
  0
SPLINE
  5
60369
330
1F
100
AcDbEntity
  8
1
100
AcDbSpline
210
0.0
220
0.0
230
1.0
 70
     8
 71
     3
 72
    13
 73
     9
 74
     0
 42
0.0000000001
 43
0.0000000001
 40
0.0
 40
0.0
 40
0.0
 40
0.0
 40
0.2054967356
 40
0.4375844779
 40
0.5663436566
 40
0.7040626577
 40
0.8498342309999998
 40
1.0
 40
1.0
 40
1.0
 40
1.0
 10
36.03100232739996
 20
-13.90527739489999
 30
0.0
 10
36.0637618966
 20
-13.73247550780002
 30
0.0
 10
36.1902489437
 20
-13.37375074409999
 30
0.0
 10
36.47957511129999
 20
-12.9754582514
 30
0.0
 10
36.80360206719996
 20
-12.6952603732
 30
0.0
 10
37.10820074020001
 20
-12.51308660620003
 30
0.0
 10
37.45988067199994
 20
-12.38691050310001
 30
0.0
 10
37.71402867639995
 20
-12.35527091100002
 30
0.0
 10
37.84255196259994
 20
-12.35527754110001
 30
0.0
  0
SPLINE
  5
6036A
330
1F
100
AcDbEntity
  8
1
100
AcDbSpline
210
0.0
220
0.0
230
1.0
 70
     8
 71
     3
 72
    11
 73
     7
 74
     0
 42
0.0000000001
 43
0.0000000001
 40
0.0
 40
0.0
 40
0.0
 40
0.0
 40
0.2302844578
 40
0.4781512281000003
 40
0.7370122824
 40
1.0
 40
1.0
 40
1.0
 40
1.0
 10
18.28584411489996
 20
-17.3472291175
 30
0.0
 10
18.43483832029997
 20
-17.3368242322
 30
0.0
 10
18.74442700789998
 20
-17.31818138220001
 30
0.0
 10
19.22228534779995
 20
-17.30317418980002
 30
0.0
 10
19.72161272569997
 20
-17.30511126300001
 30
0.0
 10
20.05986839539998
 20
-17.31950388410001
 30
0.0
 10
20.23010735359997
 20
-17.330087612
 30
0.0
  0
SPLINE
  5
6036B
330
1F
100
AcDbEntity
  8
1
100
AcDbSpline
210
0.0
220
0.0
230
1.0
 70
     8
 71
     3
 72
     9
 73
     5
 74
     0
 42
0.0000000001
 43
0.0000000001
 40
0.0
 40
0.0
 40
0.0
 40
0.0
 40
0.5025869414999999
 40
1.0
 40
1.0
 40
1.0
 40
1.0
 10
29.23235529069996
 20
8.524354864599985
 30
0.0
 10
29.42950213149993
 20
8.524335883999981
 30
0.0
 10
29.82321423849999
 20
8.577187293199983
 30
0.0
 10
30.19118150449998
 20
8.725049015599978
 30
0.0
 10
30.36213598659998
 20
8.819098634799985
 30
0.0
  0
SPLINE
  5
6036C
330
1F
100
AcDbEntity
  8
1
100
AcDbSpline
210
0.0
220
0.0
230
1.0
 70
     8
 71
     3
 72
    10
 73
     6
 74
     0
 42
0.0000000001
 43
0.0000000001
 40
0.0
 40
0.0
 40
0.0
 40
0.0
 40
0.474672289
 40
0.7278295409000001
 40
1.0
 40
1.0
 40
1.0
 40
1.0
 10
48.67034173429999
 20
12.50509986659998
 30
0.0
 10
48.67714384059991
 20
12.53985985909996
 30
0.0
 10
48.68648063289999
 20
12.5934046019
 30
0.0
 10
48.69525764129997
 20
12.66751413399999
 30
0.0
 10
48.69758484899989
 20
12.70670887249999
 30
0.0
 10
48.69758484899989
 20
12.72701779559997
 30
0.0
  0
SPLINE
  5
6036D
330
1F
100
AcDbEntity
  8
1
100
AcDbSpline
210
0.0
220
0.0
230
1.0
 70
     8
 71
     3
 72
    10
 73
     6
 74
     0
 42
0.0000000001
 43
0.0000000001
 40
0.0
 40
0.0
 40
0.0
 40
0.0
 40
0.474672289
 40
0.7278295409000001
 40
1.0
 40
1.0
 40
1.0
 40
1.0
 10
48.67034173429999
 20
-12.5050998666
 30
0.0
 10
48.67714384059991
 20
-12.5398598591
 30
0.0
 10
48.68648063289999
 20
-12.59340460180002
 30
0.0
 10
48.69525764129997
 20
-12.6675141339
 30
0.0
 10
48.69758484899989
 20
-12.70670887250003
 30
0.0
 10
48.69758484899989
 20
-12.72701779549999
 30
0.0
  0
SPLINE
  5
6036E
330
1F
100
AcDbEntity
  8
1
100
AcDbSpline
210
0.0
220
0.0
230
1.0
 70
     8
 71
     3
 72
    11
 73
     7
 74
     0
 42
0.0000000001
 43
0.0000000001
 40
0.0
 40
0.0
 40
0.0
 40
0.0
 40
0.2490924652
 40
0.4986253606
 40
0.7488983201
 40
1.0
 40
1.0
 40
1.0
 40
1.0
 10
47.83815074519998
 20
-17.3497373303
 30
0.0
 10
47.85575078099998
 20
-17.3491208449
 30
0.0
 10
47.89099945939994
 20
-17.34313817840001
 30
0.0
 10
47.93950460529993
 20
-17.32038212029999
 30
0.0
 10
47.98025477369992
 20
-17.28536815870001
 30
0.0
 10
48.00020853379999
 20
-17.25544903370002
 30
0.0
 10
48.00798438159995
 20
-17.23948968000002
 30
0.0
  0
SPLINE
  5
6036F
330
1F
100
AcDbEntity
  8
1
100
AcDbSpline
210
0.0
220
0.0
230
1.0
 70
     8
 71
     3
 72
    11
 73
     7
 74
     0
 42
0.0000000001
 43
0.0000000001
 40
0.0
 40
0.0
 40
0.0
 40
0.0
 40
0.3884212612
 40
0.6700771487
 40
0.8581408022999998
 40
1.0
 40
1.0
 40
1.0
 40
1.0
 10
44.13108346219996
 20
7.231315161399976
 30
0.0
 10
44.13108346219996
 20
7.230299545399986
 30
0.0
 10
44.13112549689993
 20
7.228537164899982
 30
0.0
 10
44.13145498789993
 20
7.226334884399982
 30
0.0
 10
44.13205162699995
 20
7.224767903199982
 30
0.0
 10
44.13293111149994
 20
7.224354762599993
 30
0.0
 10
44.13330203479995
 20
7.224354767400001
 30
0.0
  0
LINE
  5
60370
330
1F
100
AcDbEntity
  8
1
100
AcDbLine
 10
30.36213598659998
 20
8.819098634799985
 30
0.0
 11
30.4576953495
 21
8.871727369899986
 31
0.0
  0
SPLINE
  5
60371
330
1F
100
AcDbEntity
  8
1
100
AcDbSpline
210
0.0
220
0.0
230
1.0
 70
     8
 71
     3
 72
     8
 73
     4
 74
     0
 42
0.0000000001
 43
0.0000000001
 40
0.0
 40
0.0
 40
0.0
 40
0.0
 40
1.0
 40
1.0
 40
1.0
 40
1.0
 10
21.93553423899996
 20
17.53418161629997
 30
0.0
 10
22.81336315269999
 20
17.69039514619999
 30
0.0
 10
23.69125423939997
 20
17.84625964329999
 30
0.0
 10
24.56920242929996
 20
18.0018014211
 30
0.0
  0
SPLINE
  5
60372
330
1F
100
AcDbEntity
  8
1
100
AcDbSpline
210
0.0
220
0.0
230
1.0
 70
     8
 71
     3
 72
    12
 73
     8
 74
     0
 42
0.0000000001
 43
0.0000000001
 40
0.0
 40
0.0
 40
0.0
 40
0.0
 40
0.2508088239
 40
0.5095774566
 40
0.7658518979000001
 40
0.8879046796999999
 40
1.0
 40
1.0
 40
1.0
 40
1.0
 10
27.24978995219996
 20
7.325111664299981
 30
0.0
 10
26.89751037209996
 20
7.369656118099982
 30
0.0
 10
26.18529458059996
 20
7.491369976299978
 30
0.0
 10
25.13603975839999
 20
7.7704127266
 30
0.0
 10
24.28879604679997
 20
8.084488326199988
 30
0.0
 10
23.65746816609999
 20
8.374000043199998
 30
0.0
 10
23.36323095639997
 20
8.527076183499985
 30
0.0
 10
23.22451028949999
 20
8.604162015699984
 30
0.0
  0
SPLINE
  5
60373
330
1F
100
AcDbEntity
  8
1
100
AcDbSpline
210
0.0
220
0.0
230
1.0
 70
     8
 71
     3
 72
    20
 73
    16
 74
     0
 42
0.0000000001
 43
0.0000000001
 40
0.0
 40
0.0
 40
0.0
 40
0.0
 40
0.1868585394
 40
0.3576056440999999
 40
0.5070329362
 40
0.5719228166
 40
0.6293478064000002
 40
0.6790414327
 40
0.7215844614
 40
0.7590949212
 40
0.795543191
 40
0.8355046318000001
 40
0.8821989418999999
 40
0.9369950342999999
 40
1.0
 40
1.0
 40
1.0
 40
1.0
 10
23.22451028949999
 20
8.604162015699984
 30
0.0
 10
23.18375031439996
 20
8.626811968799984
 30
0.0
 10
23.10652228399996
 20
8.671613251299987
 30
0.0
 10
23.00061168749997
 20
8.740939342999979
 30
0.0
 10
22.92445358249998
 20
8.799912404599979
 30
0.0
 10
22.87561446699999
 20
8.847067971000001
 30
0.0
 10
22.84777258939997
 20
8.879865489999986
 30
0.0
 10
22.82775395489995
 20
8.911600339999978
 30
0.0
 10
22.81640474419996
 20
8.94229192649999
 30
0.0
 10
22.81510971209997
 20
8.971977717499981
 30
0.0
 10
22.82522932679999
 20
8.99933181610001
 30
0.0
 10
22.84582372409997
 20
9.022803803999977
 30
0.0
 10
22.87530356629998
 20
9.042663757599996
 30
0.0
 10
22.91289247489996
 20
9.059485204799983
 30
0.0
 10
22.94099831979997
 20
9.068281428899979
 30
0.0
 10
22.95617432949999
 20
9.072391975899989
 30
0.0
  0
SPLINE
  5
60374
330
1F
100
AcDbEntity
  8
1
100
AcDbSpline
210
0.0
220
0.0
230
1.0
 70
     8
 71
     3
 72
    11
 73
     7
 74
     0
 42
0.0000000001
 43
0.0000000001
 40
0.0
 40
0.0
 40
0.0
 40
0.0
 40
0.2275200157
 40
0.4727900435000001
 40
0.7313209787
 40
1.0
 40
1.0
 40
1.0
 40
1.0
 10
28.37415417579996
 20
7.331527700999998
 30
0.0
 10
28.29061376229999
 20
7.312698412599985
 30
0.0
 10
28.11369501799993
 20
7.28823820529999
 30
0.0
 10
27.83830916939996
 20
7.27927872059999
 30
0.0
 10
27.54760606929997
 20
7.292064865399993
 30
0.0
 10
27.35011898639996
 20
7.312425427899967
 30
0.0
 10
27.24978995219996
 20
7.325111664299981
 30
0.0
  0
LINE
  5
60375
330
1F
100
AcDbEntity
  8
1
100
AcDbLine
 10
33.43291864219998
 20
-17.9800097122
 30
0.0
 11
33.29886693769998
 21
-17.46039343220002
 31
0.0
  0
SPLINE
  5
60376
330
1F
100
AcDbEntity
  8
1
100
AcDbSpline
210
0.0
220
0.0
230
1.0
 70
     8
 71
     3
 72
    15
 73
    11
 74
     0
 42
0.0000000001
 43
0.0000000001
 40
0.0
 40
0.0
 40
0.0
 40
0.0
 40
0.1256467455
 40
0.2512049928
 40
0.376599247
 40
0.501770435
 40
0.6266852276
 40
0.7513397694
 40
0.875760258
 40
1.0
 40
1.0
 40
1.0
 40
1.0
 10
38.73276580129999
 20
-13.90527739489999
 30
0.0
 10
38.73276580129999
 20
-13.81734988760001
 30
0.0
 10
38.71792448239995
 20
-13.6411980396
 30
0.0
 10
38.65177060149995
 20
-13.38486131420001
 30
0.0
 10
38.54363550469998
 20
-13.14349606850001
 30
0.0
 10
38.39663298639994
 20
-12.92418528670001
 30
0.0
 10
38.21501245749994
 20
-12.73326106650001
 30
0.0
 10
38.00399670419995
 20
-12.5762651352
 30
0.0
 10
37.76979143539995
 20
-12.45777883850002
 30
0.0
 10
37.60238480889996
 20
-12.40668303070001
 30
0.0
 10
37.51735369879998
 20
-12.3885508514
 30
0.0
  0
SPLINE
  5
60377
330
1F
100
AcDbEntity
  8
1
100
AcDbSpline
210
0.0
220
0.0
230
1.0
 70
     8
 71
     3
 72
    15
 73
    11
 74
     0
 42
0.0000000001
 43
0.0000000001
 40
0.0
 40
0.0
 40
0.0
 40
0.0
 40
0.125646972
 40
0.2512054006
 40
0.3765997492
 40
0.5017709291
 40
0.6266856205
 40
0.7513400037000002
 40
0.8757603361000001
 40
1.0
 40
1.0
 40
1.0
 40
1.0
 10
46.39155921669998
 20
-13.67096947480002
 30
0.0
 10
46.39155921669998
 20
-13.5830172242
 30
0.0
 10
46.37670950839998
 20
-13.40681563549998
 30
0.0
 10
46.31051858719991
 20
-13.15041095930002
 30
0.0
 10
46.20232412819996
 20
-12.90899027969999
 30
0.0
 10
46.05524339599997
 20
-12.68964220040001
 30
0.0
 10
45.87353044169993
 20
-12.49870347030003
 30
0.0
 10
45.66241365629998
 20
-12.3417193862
 30
0.0
 10
45.42810521699999
 20
-12.22327352330001
 30
0.0
 10
45.26063277149996
 20
-12.17222431120001
 30
0.0
 10
45.17557088839999
 20
-12.15412017310001
 30
0.0
  0
SPLINE
  5
60378
330
1F
100
AcDbEntity
  8
1
100
AcDbSpline
210
0.0
220
0.0
230
1.0
 70
     8
 71
     3
 72
    18
 73
    14
 74
     0
 42
0.0000000001
 43
0.0000000001
 40
0.0
 40
0.0
 40
0.0
 40
0.0
 40
0.0455508295
 40
0.0940185605
 40
0.1453309524
 40
0.1993847604
 40
0.256051986
 40
0.3151835328
 40
0.4401575712
 40
0.5728198361
 40
0.7115225724
 40
0.8545177306999999
 40
1.0
 40
1.0
 40
1.0
 40
1.0
 10
47.83815074519998
 20
-14.0980140478
 30
0.0
 10
47.76782027459995
 20
-13.90113024340002
 30
0.0
 10
47.63177236709998
 20
-13.49146771300002
 30
0.0
 10
47.44438211919998
 20
-12.85118200350001
 30
0.0
 10
47.26620096319993
 20
-12.16787967300001
 30
0.0
 10
47.09610878419994
 20
-11.44383346879999
 30
0.0
 10
46.93293359450001
 20
-10.68147255640002
 30
0.0
 10
46.71910906789998
 20
-9.597223243700003
 30
0.0
 10
46.46566148859995
 20
-8.16546776050001
 30
0.0
 10
46.1761108938
 20
-6.369521946500015
 30
0.0
 10
45.88887811029997
 20
-4.489503412500027
 30
0.0
 10
45.59884561019998
 20
-2.5504104396
 30
0.0
 10
45.40266732969991
 20
-1.240975046900018
 30
0.0
 10
45.30301852909997
 20
-0.5807203809000044
 30
0.0
  0
SPLINE
  5
60379
330
1F
100
AcDbEntity
  8
1
100
AcDbSpline
210
0.0
220
0.0
230
1.0
 70
     8
 71
     3
 72
    15
 73
    11
 74
     0
 42
0.0000000001
 43
0.0000000001
 40
0.0
 40
0.0
 40
0.0
 40
0.0
 40
0.1242366331
 40
0.2485956574
 40
0.3731718784
 40
0.4980272649000001
 40
0.6231818194
 40
0.7486108642
 40
0.8742489783999999
 40
1.0
 40
1.0
 40
1.0
 40
1.0
 10
44.88354841609998
 20
-15.22079586379999
 30
0.0
 10
44.98264010139997
 20
-15.21929385679999
 30
0.0
 10
45.18117519969996
 20
-15.1966581739
 30
0.0
 10
45.46636324989992
 20
-15.10514794950001
 30
0.0
 10
45.72878031329992
 20
-14.9595454832
 30
0.0
 10
45.95838110179999
 20
-14.76537096750002
 30
0.0
 10
46.14656556099999
 20
-14.529982069
 30
0.0
 10
46.28625573059991
 20
-14.26222849690001
 30
0.0
 10
46.37221821419996
 20
-13.97234541009999
 30
0.0
 10
46.39155921669998
 20
-13.77128056460003
 30
0.0
 10
46.39155921669998
 20
-13.67096947480002
 30
0.0
  0
SPLINE
  5
6037A
330
1F
100
AcDbEntity
  8
1
100
AcDbSpline
210
0.0
220
0.0
230
1.0
 70
     8
 71
     3
 72
    15
 73
    11
 74
     0
 42
0.0000000001
 43
0.0000000001
 40
0.0
 40
0.0
 40
0.0
 40
0.0
 40
0.1242297206
 40
0.2486217453
 40
0.373244935
 40
0.4981382447
 40
0.6233059
 40
0.7487170361
 40
0.8743096529
 40
1.0
 40
1.0
 40
1.0
 40
1.0
 10
37.39580256379998
 20
-12.41818714160001
 30
0.0
 10
37.48381453349998
 20
-12.42995457760003
 30
0.0
 10
37.65821723619996
 20
-12.46967284690001
 30
0.0
 10
37.90461007889997
 20
-12.57556204140002
 30
0.0
 10
38.12836160489997
 20
-12.72440295770002
 30
0.0
 10
38.32213666509995
 20
-12.91135621680001
 30
0.0
 10
38.47972293669995
 20
-13.13036575680001
 30
0.0
 10
38.59604310779997
 20
-13.37438223809999
 30
0.0
 10
38.66736346239998
 20
-13.63542114610001
 30
0.0
 10
38.68338138429999
 20
-13.81543823520002
 30
0.0
 10
38.68338138429999
 20
-13.90527739489999
 30
0.0
  0
SPLINE
  5
6037B
330
1F
100
AcDbEntity
  8
1
100
AcDbSpline
210
0.0
220
0.0
230
1.0
 70
     8
 71
     3
 72
    19
 73
    15
 74
     0
 42
0.0000000001
 43
0.0000000001
 40
0.0
 40
0.0
 40
0.0
 40
0.0
 40
0.0260032877
 40
0.0475658033
 40
0.0688495138
 40
0.0911514861
 40
0.139498644
 40
0.1923983465
 40
0.2489382397
 40
0.3084265466
 40
0.3703707166
 40
0.4344134606
 40
0.7070327466
 40
1.0
 40
1.0
 40
1.0
 40
1.0
 10
48.00798438159995
 20
-14.36960970220002
 30
0.0
 10
48.00579781689998
 20
-14.37157265510001
 30
0.0
 10
48.00094931039996
 20
-14.37445122210002
 30
0.0
 10
47.99294844519994
 20
-14.37473397370002
 30
0.0
 10
47.98585018049993
 20
-14.3724821758
 30
0.0
 10
47.97678911449998
 20
-14.36730711450002
 30
0.0
 10
47.96627133679999
 20
-14.35795795180001
 30
0.0
 10
47.95464377799999
 20
-14.34442056630001
 30
0.0
 10
47.94347472729998
 20
-14.32891566580002
 30
0.0
 10
47.93268985089997
 20
-14.31193291650001
 30
0.0
 10
47.92222856219995
 20
-14.29376513440002
 30
0.0
 10
47.90109865749997
 20
-14.25397804049999
 30
0.0
 10
47.87201199279997
 20
-14.1889420498
 30
0.0
 10
47.84928748739992
 20
-14.12919035250002
 30
0.0
 10
47.83815074519998
 20
-14.0980140478
 30
0.0
  0
SPLINE
  5
6037C
330
1F
100
AcDbEntity
  8
1
100
AcDbSpline
210
0.0
220
0.0
230
1.0
 70
     8
 71
     3
 72
     8
 73
     4
 74
     0
 42
0.0000000001
 43
0.0000000001
 40
0.0
 40
0.0
 40
0.0
 40
0.0
 40
1.0
 40
1.0
 40
1.0
 40
1.0
 10
45.30301852909997
 20
-0.5807203809000044
 30
0.0
 10
41.87256792749997
 20
-0.7479856902000109
 30
0.0
 10
38.44201201379997
 20
-0.9131011114999978
 30
0.0
 10
35.01136955239997
 20
-1.076384045200029
 30
0.0
  0
SPLINE
  5
6037D
330
1F
100
AcDbEntity
  8
1
100
AcDbSpline
210
0.0
220
0.0
230
1.0
 70
     8
 71
     3
 72
    14
 73
    10
 74
     0
 42
0.0000000001
 43
0.0000000001
 40
0.0
 40
0.0
 40
0.0
 40
0.0
 40
0.105059445
 40
0.2115572526
 40
0.4350040697999999
 40
0.5568494313
 40
0.6895542434000001
 40
0.8375721149
 40
1.0
 40
1.0
 40
1.0
 40
1.0
 10
46.78586802849991
 20
-13.67096947480002
 30
0.0
 10
46.76811831129998
 20
-13.7614885182
 30
0.0
 10
46.71598833679996
 20
-13.94092367960002
 30
0.0
 10
46.55108992929996
 20
-14.28674636139999
 30
0.0
 10
46.29899454199994
 20
-14.60175044290003
 30
0.0
 10
45.97283032019999
 20
-14.86751127249999
 30
0.0
 10
45.66641954549993
 20
-15.04706889660002
 30
0.0
 10
45.29960300079994
 20
-15.18299322140001
 30
0.0
 10
45.02616507589993
 20
-15.22096719480001
 30
0.0
 10
44.88355232380001
 20
-15.2209692394
 30
0.0
  0
SPLINE
  5
6037E
330
1F
100
AcDbEntity
  8
1
100
AcDbSpline
210
0.0
220
0.0
230
1.0
 70
     8
 71
     3
 72
    17
 73
    13
 74
     0
 42
0.0000000001
 43
0.0000000001
 40
0.0
 40
0.0
 40
0.0
 40
0.0
 40
0.3730833772
 40
0.5324494057
 40
0.6708973883000004
 40
0.7865150625
 40
0.8353604043999999
 40
0.8781622560999997
 40
0.9151168687
 40
0.9467900165999999
 40
0.9743821608999999
 40
1.0
 40
1.0
 40
1.0
 40
1.0
 10
33.43291864219998
 20
-17.9800097122
 30
0.0
 10
33.32796629739994
 20
-17.9703677905
 30
0.0
 10
33.17834034199996
 20
-17.95377265550001
 30
0.0
 10
32.99152339209996
 20
-17.92140676719998
 30
0.0
 10
32.87769119040002
 20
-17.89500969560001
 30
0.0
 10
32.79598656299993
 20
-17.8689118767
 30
0.0
 10
32.74237282319996
 20
-17.84522949210003
 30
0.0
 10
32.71057620399995
 20
-17.82751640079998
 30
0.0
 10
32.68511624199999
 20
-17.80881701639998
 30
0.0
 10
32.66623287329992
 20
-17.7889926661
 30
0.0
 10
32.65433453579999
 20
-17.76779417710003
 30
0.0
 10
32.65166372879998
 20
-17.7526276339
 30
0.0
 10
32.65171569399996
 20
-17.74539090040002
 30
0.0
  0
SPLINE
  5
6037F
330
1F
100
AcDbEntity
  8
1
100
AcDbSpline
210
0.0
220
0.0
230
1.0
 70
     8
 71
     3
 72
    14
 73
    10
 74
     0
 42
0.0000000001
 43
0.0000000001
 40
0.0
 40
0.0
 40
0.0
 40
0.0
 40
0.1051398775
 40
0.211781366
 40
0.4356669174000001
 40
0.5577697322000002
 40
0.6906478808
 40
0.8384680918999999
 40
1.0
 40
1.0
 40
1.0
 40
1.0
 10
39.1305580513
 20
-13.90527739489999
 30
0.0
 10
39.11302901829993
 20
-13.99576639290001
 30
0.0
 10
39.06136103649999
 20
-14.17523877740001
 30
0.0
 10
38.89731758409994
 20
-14.52145925100001
 30
0.0
 10
38.64574722479995
 20
-14.83710468590001
 30
0.0
 10
38.31973078889996
 20
-15.103256079
 30
0.0
 10
38.01359915069998
 20
-15.28265024090001
 30
0.0
 10
37.64796408829994
 20
-15.41776378470001
 30
0.0
 10
37.37590610529998
 20
-15.4552765267
 30
0.0
 10
37.23429869289998
 20
-15.45527738520002
 30
0.0
  0
SPLINE
  5
60380
330
1F
100
AcDbEntity
  8
1
100
AcDbSpline
210
0.0
220
0.0
230
1.0
 70
     8
 71
     3
 72
    15
 73
    11
 74
     0
 42
0.0000000001
 43
0.0000000001
 40
0.0
 40
0.0
 40
0.0
 40
0.0
 40
0.1282954011
 40
0.2551749713
 40
0.3801757499
 40
0.5036060190999999
 40
0.6263016019
 40
0.7493501640000001
 40
0.8737504605999999
 40
1.0
 40
1.0
 40
1.0
 40
1.0
 10
27.13332151299997
 20
10.4224352086
 30
0.0
 10
27.14995741799996
 20
10.30252588439998
 30
0.0
 10
27.20086418359997
 20
10.06608641679999
 30
0.0
 10
27.32931990559996
 20
9.729678452499996
 30
0.0
 10
27.506506952
 20
9.421307783999992
 30
0.0
 10
27.72856110129999
 20
9.148495797500004
 30
0.0
 10
27.99140283629999
 20
8.917388375000001
 30
0.0
 10
28.29051432669997
 20
8.733708752199987
 30
0.0
 10
28.61982264489995
 20
8.602989189299989
 30
0.0
 10
28.85270881169993
 20
8.55452289919998
 30
0.0
 10
28.97096268169992
 20
8.540123018199977
 30
0.0
  0
LINE
  5
60381
330
1F
100
AcDbEntity
  8
1
100
AcDbLine
 10
30.4576953495
 20
8.871727369899986
 30
0.0
 11
44.17024136539999
 21
8.51226465229999
 31
0.0
  0
LINE
  5
60382
330
1F
100
AcDbEntity
  8
1
100
AcDbLine
 10
44.17024136539999
 20
8.51226465229999
 30
0.0
 11
44.17913842809991
 21
8.5120313285
 31
0.0
  0
SPLINE
  5
60383
330
1F
100
AcDbEntity
  8
1
100
AcDbSpline
210
0.0
220
0.0
230
1.0
 70
     8
 71
     3
 72
    15
 73
    11
 74
     0
 42
0.0000000001
 43
0.0000000001
 40
0.0
 40
0.0
 40
0.0
 40
0.0
 40
0.1361360927
 40
0.2715487714
 40
0.4051876903000001
 40
0.5357178782
 40
0.6616780067
 40
0.7817140967000002
 40
0.8947389274999999
 40
1.0
 40
1.0
 40
1.0
 40
1.0
 10
21.93553423899996
 20
1.601075248099988
 30
0.0
 10
21.60218911989995
 20
1.974631300399977
 30
0.0
 10
20.97731358499996
 20
2.756911621900002
 30
0.0
 10
20.18921063039997
 20
4.02566168749999
 30
0.0
 10
19.56653054179998
 20
5.360518710399986
 30
0.0
 10
19.11006615149995
 20
6.723711118099998
 30
0.0
 10
18.80754328519998
 20
8.07726189989998
 30
0.0
 10
18.64032549359999
 20
9.388770329300001
 30
0.0
 10
18.58961366329996
 20
10.63335733319999
 30
0.0
 10
18.62483183739996
 20
11.43657194739998
 30
0.0
 10
18.65987197059993
 20
11.8220975749
 30
0.0
  0
SPLINE
  5
60384
330
1F
100
AcDbEntity
  8
1
100
AcDbSpline
210
0.0
220
0.0
230
1.0
 70
     8
 71
     3
 72
     9
 73
     5
 74
     0
 42
0.0000000001
 43
0.0000000001
 40
0.0
 40
0.0
 40
0.0
 40
0.0
 40
0.2422262156
 40
1.0
 40
1.0
 40
1.0
 40
1.0
 10
22.95617432949999
 20
9.072391975899989
 30
0.0
 10
22.95938653919995
 20
9.073262029299996
 30
0.0
 10
22.97267812519999
 20
9.076741497999989
 30
0.0
 10
22.98607894569997
 20
9.079797682999981
 30
0.0
 10
22.99627096409998
 20
9.081922157099995
 30
0.0
  0
SPLINE
  5
60385
330
1F
100
AcDbEntity
  8
1
100
AcDbSpline
210
0.0
220
0.0
230
1.0
 70
     8
 71
     3
 72
     9
 73
     5
 74
     0
 42
0.0000000001
 43
0.0000000001
 40
0.0
 40
0.0
 40
0.0
 40
0.0
 40
0.5012587422000001
 40
1.0
 40
1.0
 40
1.0
 40
1.0
 10
25.43744331759996
 20
-0.8271252869000136
 30
0.0
 10
25.28591057609998
 20
-0.7902838335000127
 30
0.0
 10
24.98840124889998
 20
-0.6956773965999901
 30
0.0
 10
24.70572508799998
 20
-0.5637052629000153
 30
0.0
 10
24.56920242929996
 20
-0.4899667994000084
 30
0.0
  0
SPLINE
  5
60386
330
1F
100
AcDbEntity
  8
1
100
AcDbSpline
210
0.0
220
0.0
230
1.0
 70
     8
 71
     3
 72
    15
 73
    11
 74
     0
 42
0.0000000001
 43
0.0000000001
 40
0.0
 40
0.0
 40
0.0
 40
0.0
 40
0.1242296899
 40
0.2486215276
 40
0.3732444915
 40
0.4981376357000002
 40
0.6233052513000003
 40
0.7487164953000001
 40
0.8743093481999999
 40
1.0
 40
1.0
 40
1.0
 40
1.0
 10
45.05378662309988
 20
-12.18377123800002
 30
0.0
 10
45.14183849709996
 20
-12.19549404680001
 30
0.0
 10
45.31632881259992
 20
-12.2351363365
 30
0.0
 10
45.56286361209993
 20
-12.3409547157
 30
0.0
 10
45.78675726639994
 20
-12.48976728320002
 30
0.0
 10
45.98066436529996
 20
-12.67673192180001
 30
0.0
 10
46.13836358779997
 20
-12.89578753130001
 30
0.0
 10
46.25477010809993
 20
-13.13987789730001
 30
0.0
 10
46.32614459069998
 20
-13.4010099699
 30
0.0
 10
46.34217479969993
 20
-13.5810960272
 30
0.0
 10
46.34217479969993
 20
-13.67096947480002
 30
0.0
  0
SPLINE
  5
60387
330
1F
100
AcDbEntity
  8
1
100
AcDbSpline
210
0.0
220
0.0
230
1.0
 70
     8
 71
     3
 72
    19
 73
    15
 74
     0
 42
0.0000000001
 43
0.0000000001
 40
0.0
 40
0.0
 40
0.0
 40
0.0
 40
0.017511913
 40
0.0388684165
 40
0.0659222931
 40
0.0995426268
 40
0.1400856408
 40
0.1876064493
 40
0.2420158616
 40
0.3031536614
 40
0.4446432413000001
 40
0.6097095192000001
 40
0.7957556467
 40
1.0
 40
1.0
 40
1.0
 40
1.0
 10
16.97393528489996
 20
17.35006491629997
 30
0.0
 10
16.97690367439995
 20
17.3572528002
 30
0.0
 10
16.98780003189995
 20
17.37147293569998
 30
0.0
 10
17.01316762229996
 20
17.38678906620001
 30
0.0
 10
17.04779402249997
 20
17.3986101326
 30
0.0
 10
17.09199904139996
 20
17.40722651579998
 30
0.0
 10
17.14578655579996
 20
17.41285802139998
 30
0.0
 10
17.20901976119995
 20
17.41566516039998
 30
0.0
 10
17.28144913529996
 20
17.41585698789998
 30
0.0
 10
17.39556391959996
 20
17.41276222619999
 30
0.0
 10
17.55859461199998
 20
17.40314519929998
 30
0.0
 10
17.77671095419995
 20
17.38647045979999
 30
0.0
 10
18.02253390629999
 20
17.36661191129997
 30
0.0
 10
18.19536356809993
 20
17.35354775069999
 30
0.0
 10
18.28584411489996
 20
17.34722911759999
 30
0.0
  0
SPLINE
  5
60388
330
1F
100
AcDbEntity
  8
1
100
AcDbSpline
210
0.0
220
0.0
230
1.0
 70
     8
 71
     3
 72
    19
 73
    15
 74
     0
 42
0.0000000001
 43
0.0000000001
 40
0.0
 40
0.0
 40
0.0
 40
0.0
 40
0.2026681281
 40
0.3862533285
 40
0.5476417810000001
 40
0.6852849092000001
 40
0.7450838507
 40
0.7988834038000002
 40
0.8467405567
 40
0.8887274691
 40
0.9249277306999999
 40
0.9554401631000001
 40
0.9803956470000001
 40
1.0
 40
1.0
 40
1.0
 40
1.0
 10
18.65987197059993
 20
11.8220975749
 30
0.0
 10
18.42531294809996
 20
12.14656568369999
 30
0.0
 10
18.01308129739996
 20
12.7911062524
 30
0.0
 10
17.53588562109999
 20
13.7643908206
 30
0.0
 10
17.20950277019997
 20
14.6620045448
 30
0.0
 10
17.03511868949999
 20
15.3503891062
 30
0.0
 10
16.94994830459996
 20
15.83952505799999
 30
0.0
 10
16.91042689989996
 20
16.15615337259999
 30
0.0
 10
16.88908071209997
 20
16.4392335627
 30
0.0
 10
16.88309550139996
 20
16.6882831627
 30
0.0
 10
16.88996977129997
 20
16.90302766959999
 30
0.0
 10
16.90751429729997
 20
17.0834468116
 30
0.0
 10
16.93386467729996
 20
17.22953790559998
 30
0.0
 10
16.95915250389996
 20
17.31426876699998
 30
0.0
 10
16.97393528489996
 20
17.35006491629997
 30
0.0
  0
SPLINE
  5
60389
330
1F
100
AcDbEntity
  8
1
100
AcDbSpline
210
0.0
220
0.0
230
1.0
 70
     8
 71
     3
 72
    15
 73
    11
 74
     0
 42
0.0000000001
 43
0.0000000001
 40
0.0
 40
0.0
 40
0.0
 40
0.0
 40
0.1586036538
 40
0.3072685604
 40
0.4428805344
 40
0.5666529166
 40
0.6815638222000004
 40
0.7905793831999999
 40
0.8961045126
 40
1.0
 40
1.0
 40
1.0
 40
1.0
 10
37.84255196259994
 20
-12.35527754110001
 30
0.0
 10
37.96520361309996
 20
-12.3552838683
 30
0.0
 10
38.20407636469997
 20
-12.38366632700001
 30
0.0
 10
38.52631041259997
 20
-12.5103770581
 30
0.0
 10
38.78334684489994
 20
-12.69940240790004
 30
0.0
 10
38.96867322459997
 20
-12.92537992400002
 30
0.0
 10
39.08793784729994
 20
-13.1687895174
 30
0.0
 10
39.15030346389995
 20
-13.41755391790002
 30
0.0
 10
39.16433228349996
 20
-13.66467721770002
 30
0.0
 10
39.14583792349993
 20
-13.82639909470001
 30
0.0
 10
39.1305580513
 20
-13.90527739489999
 30
0.0
  0
SPLINE
  5
6038A
330
1F
100
AcDbEntity
  8
1
100
AcDbSpline
210
0.0
220
0.0
230
1.0
 70
     8
 71
     3
 72
    15
 73
    11
 74
     0
 42
0.0000000001
 43
0.0000000001
 40
0.0
 40
0.0
 40
0.0
 40
0.0
 40
0.1248459965
 40
0.2497341067
 40
0.3746732568
 40
0.4996659283
 40
0.6247078240999999
 40
0.7497883504999999
 40
0.8748919326999999
 40
1.0
 40
1.0
 40
1.0
 40
1.0
 10
28.71289840539999
 20
12.84045048339999
 30
0.0
 10
28.58693930349995
 20
12.8046791923
 30
0.0
 10
28.3408079912
 20
12.71040227869999
 30
0.0
 10
28.00295081349998
 20
12.50584466059999
 30
0.0
 10
27.70658498069997
 20
12.24434647979999
 30
0.0
 10
27.46139855969995
 20
11.93417407789997
 30
0.0
 10
27.27529496869997
 20
11.58516092709999
 30
0.0
 10
27.15436634649996
 20
11.20841218789996
 30
0.0
 10
27.10255844819997
 20
10.81619051149999
 30
0.0
 10
27.11529121109999
 20
10.55240518729999
 30
0.0
 10
27.13332290479997
 20
10.4224352089
 30
0.0
  0
SPLINE
  5
6038B
330
1F
100
AcDbEntity
  8
1
100
AcDbSpline
210
0.0
220
0.0
230
1.0
 70
     8
 71
     3
 72
    15
 73
    11
 74
     0
 42
0.0000000001
 43
0.0000000001
 40
0.0
 40
0.0
 40
0.0
 40
0.0
 40
0.1251285515
 40
0.250228862
 40
0.375292477
 40
0.5003142208
 40
0.6252923213
 40
0.7502285944000004
 40
0.8751284158
 40
1.0
 40
1.0
 40
1.0
 40
1.0
 10
20.23009396059996
 20
17.33008678559997
 30
0.0
 10
20.32043681429997
 20
16.90944498679999
 30
0.0
 10
20.56176383539997
 20
16.07998280399999
 30
0.0
 10
21.09733031749997
 20
14.90136146429998
 30
0.0
 10
21.79566598349996
 20
13.81138616309999
 30
0.0
 10
22.64235189159998
 20
12.83281196759998
 30
0.0
 10
23.62000538709995
 20
11.98572520109999
 30
0.0
 10
24.70859895619995
 20
11.28756012119999
 30
0.0
 10
25.88540845879999
 20
10.75283370709999
 30
0.0
 10
26.7134680863
 20
10.51223391659999
 30
0.0
 10
27.13332290479997
 20
10.4224352089
 30
0.0
  0
SPLINE
  5
6038C
330
1F
100
AcDbEntity
  8
1
100
AcDbSpline
210
0.0
220
0.0
230
1.0
 70
     8
 71
     3
 72
    15
 73
    11
 74
     0
 42
0.0000000001
 43
0.0000000001
 40
0.0
 40
0.0
 40
0.0
 40
0.0
 40
0.1148190131
 40
0.2344527903
 40
0.3575142529999999
 40
0.4831331877000001
 40
0.6106803979
 40
0.7396392309000001
 40
0.8695511081999999
 40
1.0
 40
1.0
 40
1.0
 40
1.0
 10
18.65987197059993
 20
11.8220975749
 30
0.0
 10
18.93205146669996
 20
11.49828416879997
 30
0.0
 10
19.51874967909998
 20
10.86232593849998
 30
0.0
 10
20.50386233449998
 20
9.984775833099973
 30
0.0
 10
21.60692032299997
 20
9.19014832869999
 30
0.0
 10
22.81439818439995
 20
8.503961655699981
 30
0.0
 10
24.11041683519997
 20
7.946698412099976
 30
0.0
 10
25.47650582899996
 20
7.534998440199977
 30
0.0
 10
26.89140506419994
 20
7.281679338700001
 30
0.0
 10
27.85156403979997
 20
7.224356819199982
 30
0.0
 10
28.33215590750001
 20
7.224356805100001
 30
0.0
  0
SPLINE
  5
6038D
330
1F
100
AcDbEntity
  8
1
100
AcDbSpline
210
0.0
220
0.0
230
1.0
 70
     8
 71
     3
 72
    39
 73
    35
 74
     0
 42
0.0000000001
 43
0.0000000001
 40
0.0
 40
0.0
 40
0.0
 40
0.0
 40
0.0114321054
 40
0.0240146663
 40
0.0518040036
 40
0.0820696486
 40
0.1139740686
 40
0.1469900222
 40
0.1807775773
 40
0.249836875
 40
0.3200612995
 40
0.3908854712
 40
0.4619772160000001
 40
0.5331029116
 40
0.6040351598
 40
0.6393381616
 40
0.6744544484000004
 40
0.7437072607
 40
0.7775116606
 40
0.8103543797
 40
0.841685827
 40
0.8565347905999999
 40
0.8706523085
 40
0.8838795212
 40
0.8960690445
 40
0.9071393786999999
 40
0.9171589801999999
 40
0.9264154506
 40
0.9353797517
 40
0.9445374685999999
 40
0.9542277949999999
 40
0.9646159315999998
 40
0.9757380067999999
 40
1.0
 40
1.0
 40
1.0
 40
1.0
 10
22.99627096409998
 20
9.081922157099995
 30
0.0
 10
23.02128988269999
 20
9.087137222600006
 30
0.0
 10
23.07434019689998
 20
9.095731558199986
 30
0.0
 10
23.18957529289997
 20
9.107598144799993
 30
0.0
 10
23.34749338909998
 20
9.113863550399962
 30
0.0
 10
23.54862288009997
 20
9.112559870899985
 30
0.0
 10
23.76129279129998
 20
9.104647902899984
 30
0.0
 10
23.98158902509996
 20
9.091740124500006
 30
0.0
 10
24.28447663119996
 20
9.069086560300007
 30
0.0
 10
24.66971546949998
 20
9.032860015599993
 30
0.0
 10
25.13645207029995
 20
8.979973759199992
 30
0.0
 10
25.60664543259995
 20
8.917902792999996
 30
0.0
 10
26.07743673579995
 20
8.845657382799998
 30
0.0
 10
26.54639749529997
 20
8.760852715099986
 30
0.0
 10
26.93395029109999
 20
8.676535147500004
 30
0.0
 10
27.24012803849996
 20
8.598211638099996
 30
0.0
 10
27.54029295579994
 20
8.512170588399982
 30
0.0
 10
27.83301938789998
 20
8.412251849299991
 30
0.0
 10
28.11259065209993
 20
8.292957901799979
 30
0.0
 10
28.30837556079996
 20
8.194395867499991
 30
0.0
 10
28.45936224849993
 20
8.102029293099974
 30
0.0
 10
28.56759248840001
 20
8.021519468399986
 30
0.0
 10
28.63897320349997
 20
7.959694537399997
 30
0.0
 10
28.70020708079994
 20
7.895741788599991
 30
0.0
 10
28.74929553200002
 20
7.830281118699986
 30
0.0
 10
28.78416829209994
 20
7.764103715399983
 30
0.0
 10
28.80282873189992
 20
7.698222748799992
 30
0.0
 10
28.80367313019997
 20
7.63425356030001
 30
0.0
 10
28.78657616639998
 20
7.574598512299985
 30
0.0
 10
28.75358005249996
 20
7.521135079999993
 30
0.0
 10
28.70744954359998
 20
7.474243336799986
 30
0.0
 10
28.65044472609998
 20
7.433582462199979
 30
0.0
 10
28.55976230639999
 20
7.385728564299995
 30
0.0
 10
28.48436597779994
 20
7.360121619199986
 30
0.0
 10
28.43203073140001
 20
7.345881065300005
 30
0.0
  0
SPLINE
  5
6038E
330
1F
100
AcDbEntity
  8
1
100
AcDbSpline
210
0.0
220
0.0
230
1.0
 70
     8
 71
     3
 72
    11
 73
     7
 74
     0
 42
0.0000000001
 43
0.0000000001
 40
0.0
 40
0.0
 40
0.0
 40
0.0
 40
0.3457233564
 40
0.6324033886000004
 40
0.8523821462
 40
1.0
 40
1.0
 40
1.0
 40
1.0
 10
28.96604696349994
 20
12.87152652919999
 30
0.0
 10
28.94142310249998
 20
12.86750424489997
 30
0.0
 10
28.89641879389996
 20
12.85993924299998
 30
0.0
 10
28.83573014739994
 20
12.84980617599998
 30
0.0
 10
28.78902421669994
 20
12.84304519919999
 30
0.0
 10
28.76254982499995
 20
12.84045048339999
 30
0.0
 10
28.75189651699998
 20
12.84045048339999
 30
0.0
  0
SPLINE
  5
6038F
330
1F
100
AcDbEntity
  8
1
100
AcDbSpline
210
0.0
220
0.0
230
1.0
 70
     8
 71
     3
 72
    15
 73
    11
 74
     0
 42
0.0000000001
 43
0.0000000001
 40
0.0
 40
0.0
 40
0.0
 40
0.0
 40
0.1250960701
 40
0.2501739038
 40
0.3752269097999999
 40
0.5002500039
 40
0.6252396421000001
 40
0.7501941005
 40
0.8751135818999998
 40
1.0
 40
1.0
 40
1.0
 40
1.0
 10
16.97393528489996
 20
17.35006491629997
 30
0.0
 10
17.04631803809994
 20
16.89120900299997
 30
0.0
 10
17.24449627989995
 20
15.98107969049999
 30
0.0
 10
17.69751368639996
 20
14.66026979859998
 30
0.0
 10
18.30029743819997
 20
13.40082930779999
 30
0.0
 10
19.04466734359997
 20
12.21997659629997
 30
0.0
 10
19.92058068759996
 20
11.13357758639998
 30
0.0
 10
20.91630437249998
 20
10.15629184159998
 30
0.0
 10
22.01819621089999
 20
9.301426067400001
 30
0.0
 10
22.81430007449998
 20
8.820478699099993
 30
0.0
 10
23.22451028949999
 20
8.604162015699984
 30
0.0
  0
SPLINE
  5
60390
330
1F
100
AcDbEntity
  8
1
100
AcDbSpline
210
0.0
220
0.0
230
1.0
 70
     8
 71
     3
 72
    15
 73
    11
 74
     0
 42
0.0000000001
 43
0.0000000001
 40
0.0
 40
0.0
 40
0.0
 40
0.0
 40
0.1244929552
 40
0.2492294081
 40
0.3741818301
 40
0.4993005364
 40
0.6245188651
 40
0.7497600137
 40
0.8749448585999999
 40
1.0
 40
1.0
 40
1.0
 40
1.0
 10
28.62324408979998
 20
12.3831625949
 30
0.0
 10
28.53502116939996
 20
12.30534602409997
 30
0.0
 10
28.37073106899993
 20
12.13492137439998
 30
0.0
 10
28.16857312419995
 20
11.84306399100001
 30
0.0
 10
28.01535831959995
 20
11.5220449345
 30
0.0
 10
27.91515225529997
 20
11.1802981953
 30
0.0
 10
27.87052362069994
 20
10.82669933950001
 30
0.0
 10
27.88264838889995
 20
10.47041829770001
 30
0.0
 10
27.95116089019996
 20
10.12082361469998
 30
0.0
 10
28.03342457269997
 20
9.89785868269999
 30
0.0
 10
28.08307060639993
 20
9.7906241652
 30
0.0
  0
SPLINE
  5
60391
330
1F
100
AcDbEntity
  8
1
100
AcDbSpline
210
0.0
220
0.0
230
1.0
 70
     8
 71
     3
 72
    21
 73
    17
 74
     0
 42
0.0000000001
 43
0.0000000001
 40
0.0
 40
0.0
 40
0.0
 40
0.0
 40
0.0048652904
 40
0.0105458236
 40
0.0175729351
 40
0.0262284936
 40
0.0489275175
 40
0.0792170756
 40
0.1172337432
 40
0.1629310413
 40
0.2162052357
 40
0.2769234984
 40
0.419830235
 40
0.5896620470000002
 40
0.7839938523000001
 40
1.0
 40
1.0
 40
1.0
 40
1.0
 10
28.79778571529994
 20
7.224354767400001
 30
0.0
 10
28.79996048859999
 20
7.224354757799993
 30
0.0
 10
28.80470370219996
 20
7.225494317999988
 30
0.0
 10
28.81121337189995
 20
7.230089924299988
 30
0.0
 10
28.81754311139997
 20
7.237311747099994
 30
0.0
 10
28.82673536709996
 20
7.251850818500003
 30
0.0
 10
28.83756683079992
 20
7.277327836599994
 30
0.0
 10
28.84967852089994
 20
7.316176788099994
 30
0.0
 10
28.86167878649997
 20
7.365736563599995
 30
0.0
 10
28.87352989089999
 20
7.425821525299994
 30
0.0
 10
28.88514984119996
 20
7.496260461199995
 30
0.0
 10
28.90112729379996
 20
7.609984534799991
 30
0.0
 10
28.91956948999996
 20
7.7759282552
 30
0.0
 10
28.93909723759998
 20
8.001757893099977
 30
0.0
 10
28.9566571538
 20
8.260509507099982
 30
0.0
 10
28.96639912119997
 20
8.443676687699991
 30
0.0
 10
28.97096268169992
 20
8.540123018199977
 30
0.0
  0
SPLINE
  5
60392
330
1F
100
AcDbEntity
  8
1
100
AcDbSpline
210
0.0
220
0.0
230
1.0
 70
     8
 71
     3
 72
    15
 73
    11
 74
     0
 42
0.0000000001
 43
0.0000000001
 40
0.0
 40
0.0
 40
0.0
 40
0.0
 40
0.1591138058
 40
0.3081146225
 40
0.4438566605
 40
0.5676005676
 40
0.6823765461
 40
0.7911819845000001
 40
0.8964352006
 40
1.0
 40
1.0
 40
1.0
 40
1.0
 10
45.50016864449998
 20
-12.120969618
 30
0.0
 10
45.62317885549998
 20
-12.12097591190002
 30
0.0
 10
45.86264975419999
 20
-12.14951401090002
 30
0.0
 10
46.18536772009997
 20
-12.27687241629999
 30
0.0
 10
46.44223599659994
 20
-12.46657719170002
 30
0.0
 10
46.62691132930001
 20
-12.6929558372
 30
0.0
 10
46.74531186079991
 20
-12.93637868690001
 30
0.0
 10
46.80681164329996
 20
-13.18478568130001
 30
0.0
 10
46.82011109809991
 20
-13.43124122680001
 30
0.0
 10
46.80127453019998
 20
-13.59240023500001
 30
0.0
 10
46.78586802849991
 20
-13.67096947480002
 30
0.0
  0
SPLINE
  5
60393
330
1F
100
AcDbEntity
  8
1
100
AcDbSpline
210
0.0
220
0.0
230
1.0
 70
     8
 71
     3
 72
    15
 73
    11
 74
     0
 42
0.0000000001
 43
0.0000000001
 40
0.0
 40
0.0
 40
0.0
 40
0.0
 40
0.1242355605
 40
0.2485960013
 40
0.3731746902
 40
0.4980322638000001
 40
0.6231877705
 40
0.7486161178000002
 40
0.8742520292
 40
1.0
 40
1.0
 40
1.0
 40
1.0
 10
37.23429369409996
 20
-15.45492909530003
 30
0.0
 10
37.33297996279998
 20
-15.45281032460002
 30
0.0
 10
37.53057865239998
 20
-15.429096336
 30
0.0
 10
37.81415322219994
 20
-15.33650157460002
 30
0.0
 10
38.07489174879999
 20
-15.1903563527
 30
0.0
 10
38.30289279259995
 20
-14.99615768290002
 30
0.0
 10
38.48968459619994
 20
-14.7612047332
 30
0.0
 10
38.62829750509997
 20
-14.49426021620002
 30
0.0
 10
38.71357975379999
 20
-14.20544673940003
 30
0.0
 10
38.73276580129999
 20
-14.00518806260001
 30
0.0
 10
38.73276580129999
 20
-13.90527739489999
 30
0.0
  0
SPLINE
  5
60394
330
1F
100
AcDbEntity
  8
1
100
AcDbSpline
210
0.0
220
0.0
230
1.0
 70
     8
 71
     3
 72
    10
 73
     6
 74
     0
 42
0.0000000001
 43
0.0000000001
 40
0.0
 40
0.0
 40
0.0
 40
0.0
 40
0.5515297745000001
 40
0.8143354919
 40
1.0
 40
1.0
 40
1.0
 40
1.0
 10
48.69758484899989
 20
-13.64192526610003
 30
0.0
 10
48.69758484899989
 20
-13.65920137620003
 30
0.0
 10
48.69637127169994
 20
-13.6848888101
 30
0.0
 10
48.68870886669992
 20
-13.715379598
 30
0.0
 10
48.68157123859998
 20
-13.72793612680001
 30
0.0
 10
48.67747469579995
 20
-13.73206423890002
 30
0.0
  0
SPLINE
  5
60395
330
1F
100
AcDbEntity
  8
1
100
AcDbSpline
210
0.0
220
0.0
230
1.0
 70
     8
 71
     3
 72
    11
 73
     7
 74
     0
 42
0.0000000001
 43
0.0000000001
 40
0.0
 40
0.0
 40
0.0
 40
0.0
 40
0.2505198534
 40
0.5008393085
 40
0.7507513996
 40
1.0
 40
1.0
 40
1.0
 40
1.0
 10
24.56920242929996
 20
-0.4899667994000084
 30
0.0
 10
24.32095028169996
 20
-0.355881131100034
 30
0.0
 10
23.83641276649996
 20
-0.0653609318000008
 30
0.0
 10
23.15178470909998
 20
0.4326305129999924
 30
0.0
 10
22.51421717499997
 20
0.9873700860999861
 30
0.0
 10
22.12243802539999
 20
1.39162553199997
 30
0.0
 10
21.93553423899996
 20
1.601075248099988
 30
0.0
  0
SPLINE
  5
60396
330
1F
100
AcDbEntity
  8
1
100
AcDbSpline
210
0.0
220
0.0
230
1.0
 70
     8
 71
     3
 72
    15
 73
    11
 74
     0
 42
0.0000000001
 43
0.0000000001
 40
0.0
 40
0.0
 40
0.0
 40
0.0
 40
0.1257582525
 40
0.2514015447
 40
0.3768321411
 40
0.5019842922
 40
0.6268343563000001
 40
0.7514046776000001
 40
0.8757604676999999
 40
1.0
 40
1.0
 40
1.0
 40
1.0
 10
38.68338138429999
 20
-13.90527739489999
 30
0.0
 10
38.68338138429999
 20
-14.0032830122
 30
0.0
 10
38.66430174779998
 20
-14.19973517210002
 30
0.0
 10
38.57952128379998
 20
-14.48274822280001
 30
0.0
 10
38.44181950829995
 20
-14.74373221710002
 30
0.0
 10
38.25645442939992
 20
-14.9725178516
 30
0.0
 10
38.03053212930001
 20
-15.16033741410001
 30
0.0
 10
37.772678692
 20
-15.29993521770001
 30
0.0
 10
37.49295499759995
 20
-15.38591721350002
 30
0.0
 10
37.29867092539996
 20
-15.4052773949
 30
0.0
 10
37.20184887339997
 20
-15.4052773949
 30
0.0
  0
SPLINE
  5
60397
330
1F
100
AcDbEntity
  8
1
100
AcDbSpline
210
0.0
220
0.0
230
1.0
 70
     8
 71
     3
 72
    15
 73
    11
 74
     0
 42
0.0000000001
 43
0.0000000001
 40
0.0
 40
0.0
 40
0.0
 40
0.0
 40
0.1257582525
 40
0.2514015447
 40
0.3768321411
 40
0.5019842922
 40
0.6268343563000001
 40
0.7514046776000001
 40
0.8757604676999999
 40
1.0
 40
1.0
 40
1.0
 40
1.0
 10
46.34217479969993
 20
-13.67096947480002
 30
0.0
 10
46.34217479969993
 20
-13.76897509210002
 30
0.0
 10
46.32309516319998
 20
-13.96542725200001
 30
0.0
 10
46.23831469919991
 20
-14.24844030270003
 30
0.0
 10
46.10061292369993
 20
-14.50942429700001
 30
0.0
 10
45.91524784479998
 20
-14.73820993150002
 30
0.0
 10
45.68932554469995
 20
-14.926029494
 30
0.0
 10
45.43147210739994
 20
-15.06562729760003
 30
0.0
 10
45.15174841299995
 20
-15.15160929350003
 30
0.0
 10
44.95746434079996
 20
-15.17096947480002
 30
0.0
 10
44.86064228880002
 20
-15.17096947480002
 30
0.0
  0
SPLINE
  5
60398
330
1F
100
AcDbEntity
  8
cut
100
AcDbSpline
210
0.0
220
0.0
230
1.0
 70
     8
 71
     3
 72
    13
 73
     9
 74
     0
 42
0.0000000001
 43
0.0000000001
 40
0.0
 40
0.0
 40
0.0
 40
0.0
 40
0.1260515828
 40
0.2519774804
 40
0.5019875107000003
 40
0.7508213903000001
 40
0.8754658551
 40
1.0
 40
1.0
 40
1.0
 40
1.0
 10
28.08316816629997
 20
9.574365489799959
 30
0.0
 10
28.08316816629997
 20
9.548406974399995
 30
0.0
 10
28.08816109379995
 20
9.49635103129998
 30
0.0
 10
28.11790276049999
 20
9.396826043399983
 30
0.0
 10
28.1897990489
 20
9.2859394006
 30
0.0
 10
28.29879247719998
 20
9.211542267800041
 30
0.0
 10
28.39702113449994
 20
9.180284651699992
 30
0.0
 10
28.44844790189995
 20
9.174670899000034
 30
0.0
 10
28.47409247650001
 20
9.174398536000012
 30
0.0
  0
SPLINE
  5
60399
330
1F
100
AcDbEntity
  8
cut
100
AcDbSpline
210
0.0
220
0.0
230
1.0
 70
     8
 71
     3
 72
    13
 73
     9
 74
     0
 42
0.0000000001
 43
0.0000000001
 40
0.0
 40
0.0
 40
0.0
 40
0.0
 40
0.1260515828
 40
0.2519774804
 40
0.5019875107000003
 40
0.7508213903000001
 40
0.8754658551
 40
1.0
 40
1.0
 40
1.0
 40
1.0
 10
50.79999999999995
 20
18.27434355640007
 30
0.0
 10
50.79999999999995
 20
18.30030207179999
 30
0.0
 10
50.79500707249997
 20
18.35235801479989
 30
0.0
 10
50.76526540579994
 20
18.45188300279999
 30
0.0
 10
50.69336911739998
 20
18.56276964549994
 30
0.0
 10
50.58437568909994
 20
18.63716677830011
 30
0.0
 10
50.48614703179999
 20
18.66842439439989
 30
0.0
 10
50.43472026439997
 20
18.67403814710002
 30
0.0
 10
50.40907568979992
 20
18.67431051019996
 30
0.0
  0
ELLIPSE
  5
6039A
330
1F
100
AcDbEntity
  8
1
100
AcDbEllipse
 10
21.09530890329995
 20
0.0
 30
0.0
 11
-14.0128238586
 21
17.217444428
 31
0.0
210
0.0
220
0.0
230
1.0
 40
0.3935374861
 41
2.898562851299998
 42
2.936330492599998
  0
ELLIPSE
  5
6039B
330
1F
100
AcDbEntity
  8
1
100
AcDbEllipse
 10
29.17782935279996
 20
0.0
 30
0.0
 11
-93.008484563
 21
0.0000000000000057
 31
0.0
210
0.0
220
0.0
230
1.0
 40
0.1943803091
 41
-4.712388820899999
 42
-4.6805015598
  0
ELLIPSE
  5
6039C
330
1F
100
AcDbEntity
  8
1
100
AcDbEllipse
 10
27.60949273009996
 20
0.0
 30
0.0
 11
-258.5420024066999
 21
0.0000000000000158
 31
0.0
210
0.0
220
0.0
230
1.0
 40
0.0699268119
 41
1.5623950808
 42
1.5707963274
  0
ELLIPSE
  5
6039D
330
1F
100
AcDbEntity
  8
1
100
AcDbEllipse
 10
20.88958732739996
 20
0.0
 30
0.0
 11
-118.6352352041
 21
0.0000000000000073
 31
0.0
210
0.0
220
0.0
230
1.0
 40
0.1501700331
 41
-4.5750943917
 42
-4.4832338692
  0
ELLIPSE
  5
6039E
330
1F
100
AcDbEntity
  8
1
100
AcDbEllipse
 10
29.17782935279996
 20
0.0
 30
0.0
 11
-93.008484563
 21
0.0000000000000057
 31
0.0
210
0.0
220
0.0
230
1.0
 40
0.1943803091
 41
-1.602683747299999
 42
-1.570796830099999
  0
ELLIPSE
  5
6039F
330
1F
100
AcDbEntity
  8
1
100
AcDbEllipse
 10
33.92237600290002
 20
10.78560822539998
 30
0.0
 11
-3.2880903585
 21
-1.9090284596
 31
0.0
210
0.0
220
0.0
230
1.0
 40
0.0414220285
 41
0.07122418
 42
0.5252931121
  0
ELLIPSE
  5
603A0
330
1F
100
AcDbEntity
  8
1
100
AcDbEllipse
 10
29.46585589529997
 20
10.0924789492
 30
0.0
 11
5.4699473643
 21
10.2823302494
 31
0.0
210
0.0
220
0.0
230
1.0
 40
0.1692683807
 41
0.7775100856
 42
1.2627376368
  0
ELLIPSE
  5
603A1
330
1F
100
AcDbEntity
  8
1
100
AcDbEllipse
 10
-9.78478360119999
 20
-6.924354523100021
 30
0.0
 11
-50.4926570053
 21
-35.35533905930004
 31
0.0
210
0.0
220
0.0
230
1.0
 40
0.7002075382000001
 41
-3.799775273299998
 42
-3.640097157099996
  0
ELLIPSE
  5
603A2
330
1F
100
AcDbEntity
  8
1
100
AcDbEllipse
 10
27.60949273009996
 20
0.0
 30
0.0
 11
-258.5420024066999
 21
0.0000000000000158
 31
0.0
210
0.0
220
0.0
230
1.0
 40
0.0699268119
 41
-1.575257540399999
 42
-1.5623950808
  0
DIMENSION
  5
603A3
102
{ACAD_XDICTIONARY
360
603A4
102
}
102
{ACAD_REACTORS
330
603A5
102
}
330
1F
100
AcDbEntity
  8
2
100
AcDbDimension
  2
*D327
 10
50.39999999999998
 20
18.27460789193527
 30
0.0
 11
67.80467844938413
 21
38.81546017508022
 31
0.0
 70
    36
 71
     5
 42
0.3999999999998778
  3
\M+18352\M+18373\M+1815B - ISO-25
100
AcDbRadialDimension
 15
50.70154950419704
 25
18.53741560970324
 35
0.0
 40
0.0
1001
ACAD
1000
DSTYLE
1002
{
1070
     4
1000
"
1070
    40
1040
1.0
1070
   143
1040
0.03937
1070
   170
1070
     1
1070
   171
1070
     3
1070
   271
1070
     8
1070
   285
1070
     4
1002
}
  0
VIEWPORT
  5
6B
102
{ACAD_XDICTIONARY
360
60483
102
}
330
50
100
AcDbEntity
 67
     1
  8
0
100
AcDbViewport
 10
155.3592437148233
 20
160.4455827878762
 30
0.0
 40
349.5854424261001
 41
282.2272140146125
 68
     1
 69
     1
 12
155.3592437148233
 22
160.4455827878762
 13
0.0
 23
0.0
 14
10.0
 24
10.0
 15
10.0
 25
10.0
 16
0.0
 26
0.0
 36
1.0
 17
0.0
 27
0.0
 37
0.0
 42
50.0
 43
0.0
 44
0.0
 45
282.2272140146125
 50
0.0
 51
0.0
 72
  1000
 90
    32864
  1

281
     0
 71
     1
 74
     0
110
0.0
120
0.0
130
0.0
111
1.0
121
0.0
131
0.0
112
0.0
122
1.0
132
0.0
 79
     0
146
0.0
  0
VIEWPORT
  5
6D
102
{ACAD_XDICTIONARY
360
60485
102
}
330
50
100
AcDbEntity
 67
     1
  8
0
100
AcDbViewport
 10
133.3499939441681
 20
101.5999939441681
 30
0.0
 40
213.3599903106689
 41
162.5599903106689
 68
     2
 69
     2
 12
210.0
 22
148.5
 13
0.0
 23
0.0
 14
10.0
 24
10.0
 15
10.0
 25
10.0
 16
0.0
 26
0.0
 36
1.0
 17
0.0
 27
0.0
 37
0.0
 42
50.0
 43
0.0
 44
0.0
 45
324.0677920111345
 50
0.0
 51
0.0
 72
   100
 90
    32864
  1

281
     0
 71
     1
 74
     0
110
0.0
120
0.0
130
0.0
111
1.0
121
0.0
131
0.0
112
0.0
122
1.0
132
0.0
 79
     0
146
0.0
  0
ENDSEC
  0
SECTION
  2
OBJECTS
  0
DICTIONARY
  5
C
330
0
100
AcDbDictionary
281
     1
  3
ACAD_COLOR
350
85
  3
ACAD_GROUP
350
D
  3
ACAD_LAYOUT
350
1A
  3
ACAD_MATERIAL
350
84
  3
ACAD_MLINESTYLE
350
17
  3
ACAD_PLOTSETTINGS
350
19
  3
ACAD_PLOTSTYLENAME
350
E
  3
ACAD_TABLESTYLE
350
A1
  3
ACDBHEADERROUNDTRIPXREC
350
6047E
  3
AcDbVariableDictionary
350
5E
  3
ASE_INDEX_DICTIONARY
350
349E9
  3
DWGPROPS
350
6047D
  0
DICTIONARY
  5
E2
330
2
100
AcDbDictionary
280
     1
281
     1
  3
ACAD_LAYERFILTERS
360
4E9A4
  3
ACAD_LAYERSTATES
360
3759A
  3
ACLYDICTIONARY
360
4E9A3
  0
DICTIONARY
  5
31EE
330
1F
100
AcDbDictionary
280
     1
281
     1
  3
ACAD_SORTENTS
360
31EF
  0
DICTIONARY
  5
43668
330
680
100
AcDbDictionary
280
     1
281
     1
  3
ACAD_SORTENTS
360
43669
  0
DICTIONARY
  5
60487
330
71
100
AcDbDictionary
280
     1
281
     1
  3
ACAD_XREC_ROUNDTRIP
360
60488
  0
DICTIONARY
  5
60489
330
73
100
AcDbDictionary
280
     1
281
     1
  3
ACAD_XREC_ROUNDTRIP
360
6048A
  0
DICTIONARY
  5
603A4
330
603A3
100
AcDbDictionary
280
     1
281
     1
  3
ACAD_DIMASSOC
360
603A5
  0
DICTIONARY
  5
60483
330
6B
100
AcDbDictionary
280
     1
281
     1
  3
ACAD_XREC_ROUNDTRIP
360
60484
  0
DICTIONARY
  5
60485
330
6D
100
AcDbDictionary
280
     1
281
     1
  3
ACAD_XREC_ROUNDTRIP
360
60486
  0
DICTIONARY
  5
85
102
{ACAD_REACTORS
330
C
102
}
330
C
100
AcDbDictionary
281
     1
  0
DICTIONARY
  5
D
102
{ACAD_REACTORS
330
C
102
}
330
C
100
AcDbDictionary
281
     1
  0
DICTIONARY
  5
1A
102
{ACAD_REACTORS
330
C
102
}
330
C
100
AcDbDictionary
281
     1
  3
\M+1838C\M+18343\M+18341\M+18345\M+183671
350
51
  3
\M+1838C\M+18343\M+18341\M+18345\M+183672
350
56
  3
Model
350
22
  0
DICTIONARY
  5
84
102
{ACAD_REACTORS
330
C
102
}
330
C
100
AcDbDictionary
281
     1
  0
DICTIONARY
  5
17
102
{ACAD_REACTORS
330
C
102
}
330
C
100
AcDbDictionary
281
     1
  3
Standard
350
18
  0
DICTIONARY
  5
19
102
{ACAD_REACTORS
330
C
102
}
330
C
100
AcDbDictionary
281
     1
  0
ACDBDICTIONARYWDFLT
  5
E
102
{ACAD_REACTORS
330
C
102
}
330
C
100
AcDbDictionary
281
     1
  3
Normal
350
F
100
AcDbDictionaryWithDefault
340
F
  0
DICTIONARY
  5
A1
102
{ACAD_REACTORS
330
C
102
}
330
C
100
AcDbDictionary
281
     1
  3
Standard
350
A2
  0
DICTIONARY
  5
6047E
102
{ACAD_REACTORS
330
C
102
}
330
C
100
AcDbDictionary
281
     1
  0
DICTIONARY
  5
5E
102
{ACAD_REACTORS
330
C
102
}
330
C
100
AcDbDictionary
281
     1
  3
CTABLESTYLE
350
B8
  3
DIMASSOC
350
5F
  3
HIDETEXT
350
63
  3
PROJECTNAME
350
31CE
  0
DICTIONARY
  5
349E9
102
{ACAD_REACTORS
330
C
102
}
330
C
100
AcDbDictionary
281
     1
  3
ASEBlockHierarchyIndexRecord
350
349EA
1001
DCO15
1040
1842496176.844
  0
XRECORD
  5
6047D
102
{ACAD_REACTORS
330
C
102
}
330
C
100
AcDbXrecord
280
     1
  1
DWGPROPS COOKIE
  2

  3

  4

  6

  7

  8

  9

300
=
301
=
302
=
303
=
304
=
305
=
306
=
307
=
308
=
309
=
 40
2.275165879629629
 41
2455489.391063368
 42
2458517.805072812
  1

 90
        0
  0
DICTIONARY
  5
4E9A4
102
{ACAD_REACTORS
330
E2
102
}
330
E2
100
AcDbDictionary
281
     1
  0
DICTIONARY
  5
3759A
102
{ACAD_REACTORS
330
E2
102
}
330
E2
100
AcDbDictionary
281
     1
  0
DICTIONARY
  5
4E9A3
102
{ACAD_REACTORS
330
E2
102
}
330
E2
100
AcDbDictionary
281
     1
1001
ACAD
1000
<All
  0
SORTENTSTABLE
  5
31EF
102
{ACAD_REACTORS
330
31EE
102
}
330
31EE
100
AcDbSortentsTable
330
1F
331
68C
  5
435D5
  0
SORTENTSTABLE
  5
43669
102
{ACAD_REACTORS
330
43668
102
}
330
43668
100
AcDbSortentsTable
330
680
  0
XRECORD
  5
60488
102
{ACAD_REACTORS
330
60487
102
}
330
60487
100
AcDbXrecord
280
     1
102
SHADEPLOT
 70
     0
  0
XRECORD
  5
6048A
102
{ACAD_REACTORS
330
60489
102
}
330
60489
100
AcDbXrecord
280
     1
102
SHADEPLOT
 70
     0
  0
DIMASSOC
  5
603A5
102
{ACAD_REACTORS
330
603A4
102
}
330
603A4
100
AcDbDimAssoc
330
603A3
 90
        2
 70
     0
 71
     0
  1
AcDbOsnapPointRef
 72
     3
331
602E2
 73
     2
 91
        0
 40
0.0
 10
0.0
 20
0.0
 30
0.0
 75
     0
  0
XRECORD
  5
60484
102
{ACAD_REACTORS
330
60483
102
}
330
60483
100
AcDbXrecord
280
     1
102
SHADEPLOT
 70
     0
  0
XRECORD
  5
60486
102
{ACAD_REACTORS
330
60485
102
}
330
60485
100
AcDbXrecord
280
     1
102
SHADEPLOT
 70
     0
  0
LAYOUT
  5
51
102
{ACAD_XDICTIONARY
360
B2
102
}
102
{ACAD_REACTORS
330
1A
102
}
330
1A
100
AcDbPlotSettings
  1

  2
none_device
  4
Letter_(8.50_x_11.00_Inches)
  6

 40
6.349999904632567
 41
6.349999904632567
 42
6.350006103515625
 43
6.350006103515625
 44
215.8999938964844
 45
279.3999938964844
 46
0.0
 47
0.0
 48
0.0
 49
0.0
140
0.0
141
0.0
142
1.0
143
1.0
 70
   688
 72
     1
 73
     1
 74
     5
  7

 75
    16
147
1.0
148
0.0
149
0.0
100
AcDbLayout
  1
\M+1838C\M+18343\M+18341\M+18345\M+183671
 70
     1
 71
     1
 10
-6.350006103515625
 20
-6.349999904632567
 11
273.0499877929688
 21
209.5499939918518
 12
0.0
 22
0.0
 32
0.0
 14
26.66999878883364
 24
20.31999878883365
 34
0.0
 15
240.0299890995025
 25
182.8799890995025
 35
0.0
146
0.0
 13
0.0
 23
0.0
 33
0.0
 16
1.0
 26
0.0
 36
0.0
 17
0.0
 27
1.0
 37
0.0
 76
     0
330
50
331
6B
  0
LAYOUT
  5
56
102
{ACAD_XDICTIONARY
360
B5
102
}
102
{ACAD_REACTORS
330
1A
102
}
330
1A
100
AcDbPlotSettings
  1

  2
none_device
  4
Letter_(8.50_x_11.00_Inches)
  6

 40
6.349999904632567
 41
6.349999904632567
 42
6.350006103515625
 43
6.350006103515625
 44
215.8999938964844
 45
279.3999938964844
 46
0.0
 47
0.0
 48
0.0
 49
0.0
140
0.0
141
0.0
142
1.0
143
1.0
 70
   688
 72
     1
 73
     1
 74
     5
  7

 75
    16
147
1.0
148
0.0
149
0.0
100
AcDbLayout
  1
\M+1838C\M+18343\M+18341\M+18345\M+183672
 70
     1
 71
     2
 10
-6.350006103515625
 20
-6.349999904632567
 11
273.0499877929688
 21
209.5499939918518
 12
0.0
 22
0.0
 32
0.0
 14
26.66999878883363
 24
20.31999878883363
 34
0.0
 15
240.0299890995026
 25
182.8799890995025
 35
0.0
146
0.0
 13
0.0
 23
0.0
 33
0.0
 16
1.0
 26
0.0
 36
0.0
 17
0.0
 27
1.0
 37
0.0
 76
     0
330
55
331
71
  0
LAYOUT
  5
22
102
{ACAD_XDICTIONARY
360
6047F
102
}
102
{ACAD_REACTORS
330
1A
102
}
330
1A
100
AcDbPlotSettings
  1

  2
none_device
  4
ANSI_A_(8.50_x_11.00_Inches)
  6

 40
6.349999904632567
 41
19.04999923706055
 42
6.350006103515625
 43
19.04998779296875
 44
215.8999938964844
 45
279.3999938964844
 46
0.0
 47
0.0
 48
0.0
 49
0.0
140
0.0
141
0.0
142
1.0
143
78.436453180766
 70
 11952
 72
     0
 73
     1
 74
     0
  7

 75
     0
147
0.0127491741332998
148
0.0
149
0.0
100
AcDbLayout
  1
Model
 70
     1
 71
     0
 10
0.0
 20
0.0
 11
12.0
 21
9.0
 12
0.0
 22
0.0
 32
0.0
 14
0.0
 24
0.0
 34
0.0
 15
0.0
 25
0.0
 35
0.0
146
0.0
 13
0.0
 23
0.0
 33
0.0
 16
1.0
 26
0.0
 36
0.0
 17
0.0
 27
1.0
 37
0.0
 76
     0
330
1F
  0
MLINESTYLE
  5
18
102
{ACAD_REACTORS
330
17
102
}
330
17
100
AcDbMlineStyle
  2
STANDARD
 70
     0
  3

 62
   256
 51
90.0
 52
90.0
 71
     2
 49
0.5
 62
   256
  6
BYLAYER
 49
-0.5
 62
   256
  6
BYLAYER
  0
ACDBPLACEHOLDER
  5
F
102
{ACAD_REACTORS
330
E
102
}
330
E
  0
TABLESTYLE
  5
A2
102
{ACAD_REACTORS
330
A1
102
}
330
A1
100
AcDbTableStyle
  3
Standard
 70
     0
 71
     0
 40
1.5
 41
1.5
280
     0
281
     0
  7
Standard
140
4.5
170
     2
 62
     0
 63
     7
283
     0
274
    -2
284
     1
 64
     0
275
    -2
285
     1
 65
     0
276
    -2
286
     1
 66
     0
277
    -2
287
     1
 67
     0
278
    -2
288
     1
 68
     0
279
    -2
289
     1
 69
     0
  7
Standard
140
6.0
170
     5
 62
     0
 63
     7
283
     0
274
    -2
284
     1
 64
     0
275
    -2
285
     1
 65
     0
276
    -2
286
     1
 66
     0
277
    -2
287
     1
 67
     0
278
    -2
288
     1
 68
     0
279
    -2
289
     1
 69
     0
  7
Standard
140
4.5
170
     5
 62
     0
 63
     7
283
     0
274
    -2
284
     1
 64
     0
275
    -2
285
     1
 65
     0
276
    -2
286
     1
 66
     0
277
    -2
287
     1
 67
     0
278
    -2
288
     1
 68
     0
279
    -2
289
     1
 69
     0
  0
DICTIONARYVAR
  5
B8
102
{ACAD_REACTORS
330
5E
102
}
330
5E
100
DictionaryVariables
280
     0
  1
STANDARD
  0
DICTIONARYVAR
  5
5F
102
{ACAD_REACTORS
330
5E
102
}
330
5E
100
DictionaryVariables
280
     0
  1
2
  0
DICTIONARYVAR
  5
63
102
{ACAD_REACTORS
330
5E
102
}
330
5E
100
DictionaryVariables
280
     0
  1
1
  0
DICTIONARYVAR
  5
31CE
102
{ACAD_REACTORS
330
5E
102
}
330
5E
100
DictionaryVariables
280
     0
  1

  0
XRECORD
  5
349EA
102
{ACAD_REACTORS
330
349E9
102
}
330
349E9
100
AcDbXrecord
280
     1
330
68C
330
431D
330
431E
330
4329
330
4334
330
4335
330
4B09
330
4B0A
330
5153
330
5154
330
515D
330
515E
330
516A
330
516B
330
5177
330
5178
330
85B4
330
85B5
330
8620
330
8621
330
862A
330
862B
330
8637
330
8638
330
8644
330
8645
330
9773
330
9774
330
977D
330
977E
330
978A
330
978B
330
9797
330
9798
330
BD86
330
BD87
330
BD8F
330
BD90
330
BD98
330
BDA0
330
BDA1
330
BDDD
330
BDDE
330
BDE7
330
BDE8
330
BDF4
330
BDF5
330
BE01
330
BE02
330
E473
330
E474
330
E48D
330
E48E
330
E485
330
E47C
330
E47D
330
E4CC
330
E4CD
330
E4D7
330
E4D8
330
1C63B
330
1C63C
330
1C705
330
1C706
330
1C719
330
1C71A
330
1C72E
330
1C72F
330
1C738
330
1C739
330
27043
330
27044
330
2703A
330
2703B
330
2CF2C
330
2CF2D
330
2CF38
330
2CF39
330
2CF42
330
2CF43
330
2CF4F
330
2CF50
330
2CF59
330
2CF5A
330
2FA31
330
2FA32
330
2FA3D
330
2FA3E
330
2FA4A
330
2FA4B
330
2FA54
330
2FA55
330
329D8
330
329D9
330
329E1
330
329E2
330
329EA
330
329EB
330
329F3
330
329F4
330
32E63
330
32E64
330
32E6F
330
32E70
330
32E79
330
32E7A
330
32E88
330
32E89
330
32E92
330
32E93
  0
DICTIONARY
  5
B2
330
51
100
AcDbDictionary
280
     1
281
     1
  3
ACAD_XREC_ROUNDTRIP
360
60481
  3
ADSK_XREC_LAYOUTTHUMBNAIL
360
B3
  0
DICTIONARY
  5
B5
330
56
100
AcDbDictionary
280
     1
281
     1
  3
ACAD_XREC_ROUNDTRIP
360
60482
  3
ADSK_XREC_LAYOUTTHUMBNAIL
360
B6
  0
DICTIONARY
  5
6047F
330
22
100
AcDbDictionary
280
     1
281
     1
  3
ACAD_XREC_ROUNDTRIP
360
60480
  0
XRECORD
  5
60481
102
{ACAD_REACTORS
330
B2
102
}
330
B2
100
AcDbXrecord
280
     1
102
SHADEPLOT
 70
     0
102
SHADEPLOTRESLEVEL
 70
     2
102
SHADEPLOTCUSTOMDPI
 70
   300
  0
XRECORD
  5
B3
102
{ACAD_REACTORS
330
B2
102
}
330
B2
100
AcDbXrecord
280
     1
310
28000000B40000008B0000000100080000000000BC61000000000000000000000001000000000000FFFFFF0000000000FFFFFF000000000000000000000000000000000000000000000000000000000000000000330000006600000099000000CC000000FF00000000330000333300006633000099330000CC330000FF3300
310
0000660000336600006666000099660000CC660000FF66000000990000339900006699000099990000CC990000FF99000000CC000033CC000066CC000099CC0000CCCC0000FFCC000000FF000033FF000066FF000099FF0000CCFF0000FFFF000000003300330033006600330099003300CC003300FF003300003333003333
310
33006633330099333300CC333300FF33330000663300336633006666330099663300CC663300FF66330000993300339933006699330099993300CC993300FF99330000CC330033CC330066CC330099CC3300CCCC3300FFCC330000FF330033FF330066FF330099FF3300CCFF3300FFFF330000006600330066006600660099
310
006600CC006600FF00660000336600333366006633660099336600CC336600FF33660000666600336666006666660099666600CC666600FF66660000996600339966006699660099996600CC996600FF99660000CC660033CC660066CC660099CC6600CCCC6600FFCC660000FF660033FF660066FF660099FF6600CCFF6600
310
FFFF660000009900330099006600990099009900CC009900FF00990000339900333399006633990099339900CC339900FF33990000669900336699006666990099669900CC669900FF66990000999900339999006699990099999900CC999900FF99990000CC990033CC990066CC990099CC9900CCCC9900FFCC990000FF99
310
0033FF990066FF990099FF9900CCFF9900FFFF99000000CC003300CC006600CC009900CC00CC00CC00FF00CC000033CC003333CC006633CC009933CC00CC33CC00FF33CC000066CC003366CC006666CC009966CC00CC66CC00FF66CC000099CC003399CC006699CC009999CC00CC99CC00FF99CC0000CCCC0033CCCC0066CC
310
CC0099CCCC00CCCCCC00FFCCCC0000FFCC0033FFCC0066FFCC0099FFCC00CCFFCC00FFFFCC000000FF003300FF006600FF009900FF00CC00FF00FF00FF000033FF003333FF006633FF009933FF00CC33FF00FF33FF000066FF003366FF006666FF009966FF00CC66FF00FF66FF000099FF003399FF006699FF009999FF00CC
310
99FF00FF99FF0000CCFF0033CCFF0066CCFF0099CCFF00CCCCFF00FFCCFF0000FFFF0033FFFF0066FFFF0099FFFF00CCFFFF00FFFFFF00000000000D0D0D001A1A1A00282828003535350043434300505050005D5D5D006B6B6B00787878008686860093939300A1A1A100AEAEAE00BBBBBB00C9C9C900D6D6D600E4E4E400
310
F1F1F100FFFFFF0000000000000000000000000000000000000000000000000000000000000000000000000000000000EFEFEFE2E2E2E2E2E2E2E2E2E2E2E2E2E2E2E2E2E2E2E2E2E2E2E2E2E2E2E2E2E2E2E2E2E2E2E2E2E2E2E2E2E2E2E2E2E2E2E2E2E2E2E2E2E2E2E2E2E2E2E2E2E2E2E2E2E2E2E2E2E2E2E2E2E2E2E2
310
E2E2E2E2E2E2E2E2E2E2E2E2E2E2E2E2E2E2E2E2E2E2E2E2E2E2E2E2E2E2E2E2E2E2E2E2E2E2E2E2E2E2E2E2E2E2E2E2E2E2E2E2E2E2E2E2E2E2E2E2E2E2E2E2E2E2E2E2E2E2E2E2E2E2E2E2E2E2E2E2E2E2E2E2E2E2E2E2E2E2E2E2E2E2E2E2E2E2E2E2E2E2E2E2E2E2E2E2E2E2E2E2E2E2E2E2E2E2E2E2E2E2E2E2E2E2E2
310
E2E2E2E2E2E2E2E2E2E2E2E2E2E2E2E2E2E2E2E2E2E2E2E2E2E2E2E2E2E2E2E2E2E2E2E2E2E2E2E2E2E2E2E2E2E2E2E2E2E2E2E2E2E2E2E2E2E2E2E2E2E2E2E2E2E2E2E2E2E2E2E2E2E2E2E2E2E2E2E2E2E2E2E2E2E2E2E2E2E2E2E2E2E2E2E2E2E2E2E2E2E2E2E2E2E2E2E2E2E2E2E2E2E2E2E2E2E2E2E2E2E2E2E2E2E2E2
310
E2E2E2E2E2E2E2E2E2E2E2E2E2E2E2E2E2E2E2E2E2E2E2E2E2E2E2E2F5F5F5F5F5F5F5F5F5F5F5F5F5F5F5F5F5F5F5F5F5F5F5F5F5F5F5F5F5F5F5F5F5F5F5F5F5F5F5F5F5F5F5F5F5F5F5F5F5F5F5F5F5F5F5F5F5F5F5F5F5F5F5F5F5F5F5F5F5F5F5F5F5F5F5F5F5F5F5F5F5F5F5F5F5F5F5F5F5F5F5F5F5F5F5F5F5F5F5
310
F5F5F5F5F5F5F5F5F5F5F5F5F5F5F5F5F5F5F5F5F5F5F5F5F5F5F5F5F5F5F5F5F5F5F5F5F5F5F5F5F5F5F5F5F5F5F5F5F5F5F5F5F5F5F5F5F5F5F5F5F5F5F5F5F5F5F5F5F5F5F5F5F5F5F5F5F5F5F5E2E2F5F5F5F5F5F5F5F5F5F5F5F5F5F5F5F5F5F5F5F5F5F5F5F5F5F5F5F5F5F5F5F5F5F5F5F5F5F5F5F5F5F5F5F5F5F5
310
F5F5F5F5F5F5F5F5F5F5F5F5F5F5F5F5F5F5F5F5F5F5F5F5F5F5F5F5F5F5F5F5F5F5F5F5F5F5F5F5F5F5F5F5F5F5F5F5F5F5F5F5F5F5F5F5F5F5F5F5F5F5F5F5F5F5F5F5F5F5F5F5F5F5F5F5F5F5F5F5F5F5F5F5F5F5F5F5F5F5F5F5F5F5F5F5F5F5F5F5F5F5F5F5F5F5F5F5F5F5F5F5F5F5F5F5F5F5F5F5F5F5F5F5F5F5F5
310
F5F5F5F5F5E2E2F5F5F5F5F5F5F5F5F5F5F5F5F5F5F5F5F5F5F5F5F5F5F5F5F5F5F5F5F5F5F5F5F5F5F5F5F5F5F5F5F5F5F5F5F5F5F5F5F5F5F5F5F5F5F5F5F5F5F5F5F5F5F5F5F5F5F5F5F5F5F5F5F5F5F5F5F5F5F5F5F5F5F5F5F5F5F5F5F5F5F5F5F5F5F5F5F5F5F5F5F5F5F5F5F5F5F5F5F5F5F5F5F5F5F5F5F5F5F5F5
310
F5F5F5F5F5F5F5F5F5F5F5F5F5F5F5F5F5F5F5F5F5F5F5F5F5F5F5F5F5F5F5F5F5F5F5F5F5F5F5F5F5F5F5F5F5F5F5F5F5F5F5F5F5F5F5F5F5F5E2E2F5F5F5F5E2E2E2E2E2E2E2E2F5F5F5F5F5F5F5F5F5E2E2E2E2E2E2E2E2E2E2E2E2E2E2E2F5F5F5F5F5F5F5F5F5E2E2E2E2E2E2E2E2E2E2E2E2E2E2E2E2F5F5F5F5F5F5
310
F5F5E2E2E2E2E2E2E2E2E2E2E2E2E2E2E2E2F5F5F5F5F5F5F5F5E2E2E2E2E2E2E2E2E2E2E2E2E2E2E2E2F5F5F5F5F5F5F5F5E2E2E2E2E2E2E2E2E2E2E2E2E2E2E2E2F5F5F5F5F5F5F5F5F5E2E2E2E2E2E2E2E2E2E2E2E2E2E2E2F5F5F5F5F5F5F5F5F5E2E2E2E2E2E2E2E2F5F5F5F5E2E2F5F5F5F5E2F5F5F5F5F5F5F5F5F5
310
F5F5F5F5F5F5F5F5F5F5F5F5F5F5F5F5F5F5F5F5F5F5F5F5F5F5F5F5F5F5F5F5F5F5F5F5F5F5F5F5F5F5F5F5F5F5F5F5F5F5F5F5F5F5F5F5F5F5F5F5F5F5F5F5F5F5F5F5F5F5F5F5F5F5F5F5F5F5F5F5F5F5F5F5F5F5F5F5F5F5F5F5F5F5F5F5F5F5F5F5F5F5F5F5F5F5F5F5F5F5F5F5F5F5F5F5F5F5F5F5F5F5F5F5F5F5F5
310
F5F5F5F5F5F5F5F5F5F5F5F5F5F5F5F5F5F5F5F5F5F5F5F5F5F5F5F5F5F5F5F5E2F5F5F5F5E2E2F5F5F5F5E2F5F5F5F5F5F5F5F5F5F5F5F5F5F5F5F5F5F5F5F5F5F5F5F5F5F5F5F5F5F5F5F5F5F5F5F5F5F5F5F5F5F5F5F5F5F5F5F5F5F5F5F5F5F5F5F5F5F5F5F5F5F5F5F5F5F5F5F5F5F5F5F5F5F5F5F5F5F5F5F5F5F5F5
310
F5F5F5F5F5F5F5F5F5F5F5F5F5F5F5F5F5F5F5F5F5F5F5F5F5F5F5F5F5F5F5F5F5F5F5F5F5F5F5F5F5F5F5F5F5F5F5F5F5F5F5F5F5F5F5F5F5F5F5F5F5F5F5F5F5F5F5F5F5F5F5F5F5F5F5F5F5F5F5F5F5F5F5F5F5E2F5F5F5F5E2E2F5F5F5F5E2F5F5F5F5F5F5F5F5F5F5F5F5F5F5F5F5F5F5F5F5F5F5F5F5F5F5F5F5F5F5
310
F5F5F5F5F5F5F5F5F5F5F5F5F5F5F5F5F5F5F5F5F5F5F5F5F5F5F5F5F5F5F5F5F5F5F5F5F5F5F5F5F5F5F5F5F5F5F5F5F5F5F5F5F5F5F5F5F5F5F5F5F5F5F5F5F5F5F5F5F5F5F5F5F5F5F5F5F5F5F5F5F5F5F5F5F5F5F5F5F5F5F5F5F5F5F5F5F5F5F5F5F5F5F5F5F5F5F5F5F5F5F5F5F5F5F5F5F5F5F5F5F5F5F5F5F5F5F5
310
F5F5F5F5F5F5F5F5F5F5F5E2F5F5F5F5E2E2F5F5F5F5E2F5F5F5F5F5F5F5F5F5F5F5F5F5F5F5F5F5F5F5F5F5F5F5F5F5F5F5F5F5F5F5F5F5F5F5F5F5F5F5F5F5F5F5F5F5F5F5F5F5F5F5F5F5F5F5F5F5F5F5F5F5F5F5F5F5F5F5F5F5F5F5F5F5F5F5F5F5F5F5F5F5F5F5F5F5F5F5F5F5F5F5F5F5F5F5F5F5F5F5F5F5F5F5F5
310
F5F5F5F5F5F5F5F5F5F5F5F5F5F5F5F5F5F5F5F5F5F5F5F5F5F5F5F5F5F5F5F5F5F5F5F5F5F5F5F5F5F5F5F5F5F5F5F5F5F5F5F5F5F5F5F5F5F5F5F5F5F5F5F5E2F5F5F5F5E2E2F5F5F5F5E2F5F5F5F5F5F5F5F5F5F5F5F5F5F5F5F5F5F5F5F5F5F5F5F5F5F5F5F5F5F5F5F5F5F5F5F5F5F5F5F5F5F5F5F5F5F5F5F5F5F5F5
310
F5F5F5F5F5F5F5F5F5F5F5F5F5F5F5F5F5F5F5F5F5F5F5F5F5F5F5F5F5F5F5F5F5F5F5F5F5F5F5F5F5F5F5F5F5F5F5F5F5F5F5F5F5F5F5F5F5F5F5F5F5F5F5F5F5F5F5F5F5F5F5F5F5F5F5F5F5F5F5F5F5F5F5F5F5F5F5F5F5F5F5F5F5F5F5F5F5F5F5F5F5F5F5F5F5F5F5F5F5F5F5F5F5F5F5F5F5E2F5F5F5F5E2E2F5F5F5
310
F5E2F5F5F5F5F5F5F5F5F5F5F5F5F5F5F5F5F5F5F5F5F5F5F5F5F5F5F5F5F5F5F5F5F5F5F5F5F5F5F5F5F5F5F5F5F5F5F5F5F5F5F5F5F5F5F5F5F5F5F5F5F5F5F5F5F5F5F5F5F5F5F5F5F5F5F5F5F5F5F5F5F5F5F5F5F5F5F5F5F5F5F5F5F5F5F5F5F5F5F5F5F5F5F5F5F5F5F5F5F5F5F5F5F5F5F5F5F5F5F5F5F5F5F5F5F5
310
F5F5F5F5F5F5F5F5F5F5F5F5F5F5F5F5F5F5F5F5F5F5F5F5F5F5F5F5F5F5F5F5F5F5F5F5F5F5F5F5F5F5F5E2F5F5F5F5E2E2F5F5F5F5E2F5F5F5F5F5F5F5F5F5F5F5F5F5F5F5F5F5F5F5F5F5F5F5F5F5F5F5F5F5F5F5F5F5F5F5F5F5F5F5F5F5F5F5F5F5F5F5F5F5F5F5F5F5F5F5F5F5F5F5F5F5F5F5F5F5F5F5F5F5F5F5F5
310
F5F5F5F5F5F5F5F5F5F5F5F5F5F5F5F5F5F5F5F5F5F5F5F5F5F5F5F5F5F5F5F5F5F5F5F5F5F5F5F5F5F5F5F5F5F5F5F5F5F5F5F5F5F5F5F5F5F5F5F5F5F5F5F5F5F5F5F5F5F5F5F5F5F5F5F5F5F5F5F5F5F5F5F5F5F5F5F5F5F5F5F5F5F5F5F5E2F5F5F5F5E2E2F5F5F5F5E2F5F5F5F5F5F5F5F5F5F5F5F5F5F5F5F5F5F5F5
310
F5F5F5F5F5F5F5F5F5F5F5F5F5F5F5F5F5F5F5F5F5F5F5F5F5F5F5F5F5F5F5F5F5F5F5F5F5F5F5F5F5F5F5F5F5F5F5F5F5F5F5F5F5F5F5F5F5F5F5F5F5F5F5F5F5F5F5F5F5F5F5F5F5F5F5F5F5F5F5F5F5F5F5F5F5F5F5F5F5F5F5F5F5F5F5F5F5F5F5F5F5F5F5F5F5F5F5F5F5F5F5F5F5F5F5F5F5F5F5F5F5F5F5F5F5F5F5
310
F5F5F5F5F5F5F5F5F5F5F5F5F5F5F5F5F5F5F5F5F5F5E2F5F5F5F5E2E2F5F5F5F5F5F5F5F5F5F5F5F5F5F5F5F5F5F5F5F5F5F5F5F5F5F5F5F5F5F5F5F5F5F5F5F5F5F5F5F5F5F5F5F5F5F5F5F5F5F5F5F5F5F5F5F5F5F5F5F5F5F5F5F5F5F5F5F5F5F5F5F5F5F5F5F5F5F5F5F5F5F5F5F5F5F5F5F5F5F5F5F5F5F5F5F5F5F5
310
F5F5F5F5F5F5F5F5F5F5F5F5F5F5F5F5F5F5F5F5F5F5F5F5F5F5F5F5F5F5F5F5F5F5F5F5F5F5F5F5F5F5F5F5F5F5F5F5F5F5F5F5F5F5F5F5F5F5F5F5F5F5F5F5F5F5F5F5F5F5F5F5F5F5F5F5F5F5F5F5E2E2F5F5F5F5F5F5F5F5F5F5F5F5F5F5F5F5F5F5F5F5F5F5F5F5F5F5F5F5F5F5F5F5F5F5F5F5F5F5F5F5F5F5F5F5F5
310
F5F5F5F5F5F5F5F5F5F5F5F5F5F5F5F5F5F5F5F5F5F5F5F5F5F5F5F5F5F5F5F5F5F5F5F5F5F5F5F5F5F5F5F5F5F5F5F5F5F5F5F5F5F5F5F5F5F5F5F5F5F5F5F5F5F5F5F5F5F5F5F5F5F5F5F5F5F5F5F5F5F5F5F5F5F5F5F5F5F5F5F5F5F5F5F5F5F5F5F5F5F5F5F5F5F5F5F5F5F5F5F5F5F5F5F5F5F5F5F5F5F5F5F5F5F5F5
310
F5F5F5F5F5F5E2E2F5F5F5F5F5F5F5F5F5F5F5F5F5F5F5F5F5F5F5F5F5F5F5F5F5F5F5F5F5F5F5F5F5F5F5F5F5F5F5F5F5F5F5F5F5F5F5F5F5F5F5F5F5F5F5F5F5F5F5F5F5F5F5F5F5F5F5F5F5F5F5F5F5F5F5F5F5F5F5F5F5F5F5F5F5F5F5F5F5F5F5F5F5F5F5F5F5F5F5F5F5F5F5F5F5F5F5F5F5F5F5F5F5F5F5F5F5F5F5
310
F5F5F5F5F5F5F5F5F5F5F5F5F5F5F5F5F5F5F5F5F5F5F5F5F5F5F5F5F5F5F5F5F5F5F5F5F5F5F5F5F5F5F5F5F5F5F5F5F5F5F5F5F5F5F5F5F5F5F5E2E2F5F5F5F5F5F5F5F5F5F5F5F5F5F5F5F5F5F5F5F5F5F5F5F5F5F5F5F5F5F5F5F5F5F5F5F5F5F5F5F5F5F5F5F5F5F5F5F5F5F5F5F5F5F5F5F5F5F5F5F5F5F5F5F5F5F5
310
F5F5F5F5F5F5F5F5F5F5F5F5F5F5F5F5F5F5F5F5F5F5F5F5F5F5F5F5F5F5F5F5F5F5F5F5F5F5F5F5F5F5F5F5F5F5F5F5F5F5F5F5F5F5F5F5F5F5F5F5F5F5F5F5F5F5F5F5F5F5F5F5F5F5F5F5F5F5F5F5F5F5F5F5F5F5F5F5F5F5F5F5F5F5F5F5F5F5F5F5F5F5F5F5F5F5F5F5F5F5F5F5E2E2F5F5F5F5F5F5F5F5F5F5F5F5F5
310
F5F5F5F5F5F5F5F5E2E2E2E2E2E2E2E2E2E2E2E2E2E2E2E2E2E2E2E2E2E2E2E2E2E2E2E2E2E2E2E2E2E2E2E2E2E2E2E2E2E2E2E2E2E2E2E2E2E2E2E2E2E2E2E2E2E2E2E2E2E2E2E2E2E2E2E2E2E2E2E2E2E2E2E2E2E2E2E2E2E2E2E2E2E2E2E2E2E2E2E2E2E2E2E2E2E2E2E2E2E2E2E2E2E2E2E2E2E2E2E2E2E2E2E2E2E2E2
310
E2E2E2E2E2E2E2E2E2E2E2E2E2E2E2E2E2F5F5F5F5F5F5F5F5F5F5F5F5F5F5F5F5F5F5F5F5F5E2E2F5F5F5F5F5F5F5F5F5F5F5F5F5F5F5F5F5F5F5F5F5E22D2D2D2DF5F5F5F5E2F5F5F5F5F5F5F52DF5F5F5F5F5F5F5F5F5F5F5F5F5F5F5F5F5F5E2F5F5F5F5F5F5F5F5F5F5F5F5F5F5F5F5F5F5F5F5F5F5F5F5F5F5F5F5F5
310
F5F5F5F5F5F5F5F5F5F5F5F5F5F5F5F5F5F5F5F5F5F5F5F5F5F5F5F5F5F5F5F5F5F5F5F5F5F5F5F5F5F5F5F5F5F5F5F5F5F5F5F5F5F5F5F5F5F5F5F5F5F5F5F5F5F5F5F5F5E2F5F5F5F5F5F5F5F5F5F5F5F5F5F5F5F5F5F5F5F5F5E2E2F5F5F5F5F5F5F5F5F5F5F5F5F5F5F5F5F5F5F5F5F5E2DCF5F52DF5F5F5F5E2F5F5F5
310
F5F5F5F52DF5F5F5F5F5F5F5F5F5F5F5F5F5F5F5F5F5F5E2F5F5F5F5F5F5F5F5F5F5F5F5F5F5F5F5F5F5F5F5F5F5F5F5F5F5F5F5F5F5F5F5F5F5F5F5F5F5F5F5F5F5F5F5F5F5F5F5F5F5F5F5F5F5F5F5F5F5F5F5F5F5F5F5F5F5F5F5F5F5F5F5F5F5F5F5F5F5F5F5F5F5F5F5F5F5F5F5F5F5F5F5F5F5F5F5F5F5E2F5F5F5F5
310
F5F5F5F5F5F5F5F5F5F5F5F5F5F5F5F5F5E2E2F5F5F5F5F5F5F5F5F5F5F5F5F5F5F5F5F5F5F5F5F5E2DCF5F52DF5F5F5F5E2F5F5F5F5F5F5F52DF5F5F5F5F5F5F5F5F5F5F5F5F5F5F5F5F5F5E2E2F5F5F5F5F5F5F5F5F5F5F5F5F5F5F5F5F5F5F5F5F5F5F5F5F5F5F5F5F5F5F5F5F5F5F5F5F5F5F5F5F5F5F5F5F5F5F5F5F5
310
F5F5F5F5F5F5F5F5F5F5F5F5F5F5F5F5F5F5F5F5F5F5F5F5F5F5F5F5F5F5F5F5F5F5F5F5F5F5F5F5F5F5F5F5F5F5F5F5E2F5F5F5F5F5F5F5F5F5F5F5F5F5F5F5F5F5F5F5F5F5E2E2F5F5F5F5F5F5F5F5F5F5F5F5F5F5F5F5F5F5F5F5F5E2BEF5F52D2D2D2D2D2D2D2D2D2D2D2D2D2DE2E2E2E2E2E2E2E2E2E2E2E2E2E2E2E2
310
E2E2E2E2F5F5F5F5F5F5F5F5F5F5F5F5F5F5F5F5F5F5F5F5F5F5F5F5F5F5F5F5F5F5F5F5F5F5F5F5F5F5F5F5F5F5F5F5F5F5F5F5F5F5F5F5F5F5F5F5F5F5F5F5F5F5F5F5F5F5F5F5F5F5F5F5F5F5F5F5F5F5F5F5F5F5F5F5F5F5F5F5F5F5F5F5F5F5F5F5F5E2F5F5F5F5F5F5F5F5F5F5F5F5F5F5F5F5F5F5F5F5F5E2E2F5F5
310
F5F5E2F5F5F5F5F5F5F5F5F5F5F5F5F5F5F5F5E2DCF5F5F5F5F5F5F5E2F5F5F5F5F5F5F5E2F5F5F5F5F5F5F5F5F5F5F5F5F5F5F5F5F5F5F5F5F5F5F5F5F5F5F5F5F5F5F5F5F5F5F5F5F5F5F5F5F5F5F5F5F5F5F5F5F5F5F5F5F5F5F5F5F5F5F5F5F5F5F5F5F5F5F5F5F5F5F5F5F5F5F5F5F5F5F5F5F5F5F5F5F5F5F5F5F5F5
310
F5F5F5F5F5F5F5F5F5F5F5F5F5F5F5F5F5F5F5F5F5F5F5F5F5F5F5E2F5F5F5F5F5F5F5F5F5F5F5F5F5F5F5F5E2F5F5F5F5E2E2F5F5F5F5E2F5F5F5F5F5F5F5F5F5F5F5F5F5F5F5F5E2F5F5F5F5F5F5F5F5E2F5F5F5F5F5F5F5E2F5F5F5F5F5F5F5F5F5F5F5F5F5F5F5F5F5F5F5F5F5F5F5F5F5F5F5F5F5F5F5F5F5F5F5F5F5
310
F5F5F5F5F5F5F5F5F5F5F5F5F5F5F5F5F5F5F5F5F5F5F5F5F5F5F5F5F5F5F5F5F5F5F5F5F5F5F5F5F5F5F5F5F5F5F5F5F5F5F5F5F5F5F5F5F5F5F5F5F5F5F5F5F5F5F5F5F5F5F5F5F5F5F5F5F5F5F5F5E2F5F5F5F5F5F5F5F5F5F5F5F5F5F5F5F5E2F5F5F5F5E2E2F5F5F5F5E2F5F5F5F5F5F5F5F5F5F5F5F5F5F5F5F5E2E2
310
E2E2E2E2E2E2E2E2F5F5F5F5F5F5F5E2F5F5F5F5F5F5F5F5F5F5F5F5F5F5F5F5F5F5F5F5F5F5F5F5F5F5F5F5F5F5F5F5F5F5F5F5F5F5F5F5F5F5F5F5F5F5F5F5F5F5F5F5F5F5F5F5F5F5F5F5F5F5F5F5F5F5F5F5F5F5F5F5F5F5F5F5F5F5F5F5F5F5F5F5F5F5F5F5F5F5F5F5F5F5F5F5F5F5F5F5F5F5F5F5F5F5F5F5F5F5F5
310
F5F5F5F5F5F5E2F5F5F5F5F5F5F5F5F5F5F5F5F5F5F5F5E2F5F5F5F5E2E2F5F5F5F5E2F5F5F5F5F5F5F5F5F5F5F5F5F5F5F5F5E2E2E2E2F5F5F5F5F5F5F5F5F5F5F5F5F5E2F5F5F5F5F5F5F5F5F5F5F5F5F5F5F5F5F5F5F5F5F5F5F5F5F5F5F5F5F5F5F5F5F5F5F5F5F5F5F5F5F5F5F5F5F5F5F5F5F5F5F5F5F5F5F5F5F5F5
310
F5F5F5F5F5F5F5F5F5F5F5F5F5F5F5F5F5F5F5F5F5F5F5F5F5F5F5F5F5F5F5F5F5F5F5F5F5F5F5F5F5F5F5F5F5F5F5F5F5F5F5F5F5F5F5F5F5F5F5E2F5F5F5F5F5F5F5F5F5F5F5F5F5F5F5F5E2F5F5F5F5E2E2F5F5F5F5E2F5F5F5F5F5F5F5F5F5F5F5F5F5F5F5F5E2E2E2E2F5F5F5F5F5F5F5F5F5F5F5F5F5E2F5F5F5F5F5
310
F5F5F5F5F5F5F5F5F5F5F5F5F5F5F5F5F5F5F5F5F5F5F5F5F5F5F5F5F5F5F5F5F5F5F5F5F5F5F5F5F5F5F5F5F5F5F5F5F5F5F5F5F5F5F5F5F5F5F5F5F5F5F5F5F5F5F5F5F5F5F5F5F5F5F5F5F5F5F5F5F5F5F5F5F5F5F5F5F5F5F5F5F5F5F5F5F5F5F5F5F5F5F5F5F5F5F5F5F5F5F5F5E2F5F5F5F5F5F5F5F5F5F5F5F5F5F5
310
F5F5E2F5F5F5F5E2E2F5F5F5F5E2F5F5F5F5F5F5F5F5F5F5F5F5F5F5F5F5E2F5F5F5F5F5F5F5F5F5F5F5F5F5F5F5F5E2F5F5F5F5F5F5F5F5F5F5F5F5F5F5F5F5F5F5F5F5F5F5F5F5F5F5F5F5F5F5F5F5F5F5F5F5F5F5F5F5F5F5F5F5F5F5F5F5F5F5F5F5F5F5F5F5F5F5F5F5F5F5F5F5F5F5F5F5F5F5F5F5F5F5F5F5F5F5F5
310
F5F5F5F5F5F5F5F5F5F5F5F5F5F5F5F5F5F5F5F5F5F5F5F5F5F5F5F5F5F5F5F5F5F5F5F5F5F5E2F5F5F5F5F5F5F5F5F5F5F5F5F5F5F5F5E2F5F5F5F5E2E2F5F5F5F5E2F5F5F5F5F5F5F5F5F5F5F5F5F5F5F5F5E2E2E2E2E2E2E2E2E2E2E2E2E2E2E2E2E2E2F5F5F5F5F5F5F5F5F5F5F5F5F5F5F5F5F5F5F5F5F5F5F5F5F5F5
310
F5F5F5F5F5F5F5F5F5F5F5F5F5F5F5F5F5F5F5F5F5F5F5F5F5F5F5F5F5F5F5F5F5F5F5F5F5F5F5F5F5F5F5F5F5F5F5F5F5F5F5F5F5F5F5F5F5F5F5F5F5F5F5F5F5F5F5F5F5F5F5F5F5F5F5F5F5F5F5F5F5F5F5F5F5F5F5F5F5F5F5E2F5F5F5F5F5F5F5F5F5F5F5F5F5F5F5F5E2F5F5F5F5E2E2F5F5F5F5E2F5F5F5F5F5F5F5
310
F5F5F5F5F5F5F5F5F5E2E2E2F5F5F5F5F5F5F5F5F5F5F5F5F5F5F5F5F5F5F5F5F5F5F5F5F5F5F5F5F5F5F5F5F5F5F5F5F5F5F5F5F5F5F5F5F5F5F5F5F5F5F5F5F5F5F5F5F5F5F5F5F5F5F5F5F5F5F5F5F5F5F5F5F5F5F5F5F5F5F5F5F5F5F5F5F5F5F5F5F5F5F5F5F5F5F5F5F5F5F5F5F5F5F5F5F5F5F5F5F5F5F5F5F5F5F5
310
F5F5F5F5F5F5F5F5F5F5F5F5F5F5F5F5F5E2F5F5F5F5F5F5F5F5F5F5F5F5F5F5F5F5E2F5F5F5F5E2E2F5F5F5F5E2F5F5F5F5F5F5F5F5F5F5F5F5F5F5F5F5E2E2E2F5F5F5F5F5F5F5F5F5F5F5F5F5F5F5F5F5F5F5F5F5F5F5F5F5F5F5F5F5F5F5F5F5F5F5F5F5F5F5F5F5F5F5F5F5F5F5F5F5F5F5F5F5F5F5F5F5F5F5F5F5F5
310
F5F5F5F5F5F5F5F5F5F5F5F5F5F5F5F5F5F5F5F5F5F5F5F5F5F5F5F5F5F5F5F5F5F5F5F5F5F5F5F5F5F5F5F5F5F5F5F5F5F5F5F5F5F5F5F5F5F5F5F5F5F5F5F5F5F5F5F5F5F5E2F5F5F5F5F5F5F5F5F5F5F5F5F5F5F5F5E2F5F5F5F5E2E2F5F5F5F5E2F5F5F5F5F5F5F5F5F5F5F5F5F5F5F5F5E2F5F5F5F5F5F5F5F5F5F5F5
310
F5F5F5F5F5F5F5F5F5F5F5F5F5F5F5F5F5F5F5F5F5F5F5F5F5F5F5F5F5F5F5F5F5F5F5F5F5F5F5F5F5F5F5F5F5F5F5F5F5F5F5F5F5F5F5F5F5F5F5F5F5F5F5F5F5F5F5F5F5F5F5F5F5F5F5F5F5F5F5F5F5F5F5F5F5F5F5F5F5F5F5F5F5F5F5F5F5F5F5F5F5F5F5F5F5F5F5F5F5F5F5F5F5F5F5F5F5F5F5F5F5F5F5E2F5F5F5
310
F5F5F5F5F5F5F5F5F5F5F5F5F5E2F5F5F5F5E2E2F5F5F5F5E2F5F5F5F5F5F5F5F5F5F5F5F5F5F5F5F5E20F0F0F0F0F0F0F0F0F0F0FF5F5F5F5F5F5F5F5F5F5F5F5F5F5F5F5F5F5F5F5F5F5F5F5F5F5F5F5F5F5F5F5F5F5F5F5F5F5F5F5F5F5F5F5F5F5F5F5F5F5F5F5F5F5F5F5F5F5F5F5F5F5F5F5F5F5F5F5F5F5F5F5F5F5
310
F5F5F5F5F5F5F5F5F5F5F5F5F5F5F5F5F5F5F5F5F5F5F5F5F5F5F5F5F5F5F5F5F5F5F5F5F5F5F5F5F5F5F5F5F5F5F5F5F5E2F5F5F5F5F5F5F5F5F5F5F5F5F5F5F5F5E2F5F5F5F5E2E2F5F5F5F5E2F5F5F5F5F5F5F5F5F5F5F5F5F5F5F5F5E20F0F0F0F0F0F0F0F0F0FF5F5F5F5F5F5F5F5F5F5F5F5F5F5F5F5F5F5F5F5F5F5
310
F5F5F5F5F5F5F5F5F5F5F5F5F5F5F5F5F5F5F5F5F5F5F5F5F5F5F5F5F5F5F5F5F5F5F5F5F5F5F5F5F5F5F5F5F5F5F5F5F5F5F5F5F5F5F5F5F5F5F5F5F5F5F5F5F5F5F5F5F5F5F5F5F5F5F5F5F5F5F5F5F5F5F5F5F5F5F5F5F5F5F5F5F5F5F5F5F5F5F5F5F5F5E2F5F5F5F5F5F5F5F5F5F5F5F5F5F5F5F5E2F5F5F5F5E2E2F5
310
F5F5F5E2F5F5F5F5F5F5F5F5F5F5F5F5F5F5F5F5E2F5F5F5F5F5F5F5F5F5F5F5F5F5F5F5F5F5F5F5F5F5F5F5F5F5F5F5F5F5F5F5F5F5F5F5F5F5F5F5F5F5F5F5F5F5F5F5F5F5F5F5F5F5F5F5F5F5F5F5F5F5F5F5F5F5F5F5F5F5F5F5F5F5F5F5F5F5F5F5F5F5F5F5F5F5F5F5F5F5F5F5F5F5F5F5F5F5F5F5F5F5F5F5F5F5F5
310
F5F5F5F5F5F5F5F5F5F5F5F5F5F5F5F5F5F5F5F5F5F5F5F5F5F5F5F5E2F5F5F5F5F5F5F5F5F5F5F5F5F5F5F5F5E2F5F5F5F5E2E2F5F5F5F5E2F5F5F5F5F5F5F5F5F5F5F5F5F5F5F5F5E2F5F5F5F5F5F5F5F5F5F5F5F5F5F5F5F5F5F5F5F5F5F5F5F5F5F5F5F5F5F5F5F5F5F5F5F5F5F5F5F5F5F5F5F5F5F5F5F5F5F5F5F5F5
310
F5F5F5F5F5F5F5F5F5F5F5F5F5F5F5F5F5F5F5F5F5F5F5F5F5F5F5F5F5F5F5F5F5F5F5F5F5F5F5F5F5F5F5F5F5F5F5F5F5F5F5F5F5F5F5F5F5F5F5F5F5F5F5F5F5F5F5F5F5F5F5F5F5F5F5F5F5F5F5F5F5E2F5F5F5F5F5F5F5F5F5F5F5F5F5F5F5F5E2F5F5F5F5E2E2F5F5F5F5E2F5F5F5F5F5F5F5F5F5F5F5F5F5F5F5F5E2
310
F5F5F5F5F5F5F5F5F5F5F5F5F5F5F5F5F5F5F5F5F5F5F5F5F5F5F5F5F5F5F5F5F5F5F5F5F5F5F5F5F5F5F5F5F5F5F5F5F5F5F5F5F5F5F5F5F5F5F5F5F5F5F5F5F5F5F5F5F5F5F5F5F5F5F5F5F5F5F5F5F5F5F5F5F5F5F5F5F5F5F5F5F5F5F5F5F5F5F5F5F5F5F5F5F5F5F5F5F5F5F5F5F5F5F5F5F5F5F5F5F5F5F5F5F5F5F5
310
F5F5F5F5F5F5F5E2F5F5F5F5F5F5F5F5F5F5F5F5F5F5F5F5E2F5F5F5F5E2E2F5F5F5F5E2F5F5F5F5F5F5F5F5F5F5F5F5F5F5F5F5E2F5F5F5F5F5F5F5F5F5F5F5F5F5F5F5F5F5F5F5F5F5F5F5F5F5F5F5F5F5F5F5F5F5F5F5F5F5F5F5F5F5F5F5F5F5F5F5F5F5F5F5F5F5F5F5F5F5F5F5F5F5F5F5F5F5F5F5F5F5F5F5F5F5F5
310
F5F5F5F5F5F5F5F5F5F5F5F5F5F5F5F5F5F5F5F5F5F5F5F5F5F5F5F5F5F5F5F5F5F5F5F5F5F5F5F5F5F5F5F5F5F5F5F5F5F5F5F5F5F5F5F5F5F5F5F5E2F5F5F5F5F5F5F5F5F5F5F5F5F5F5F5F5E2F5F5F5F5E2E2F5F5F5F5F5F5F5F5F5F5F5F5F5F5F5F5F5F5F5F5F5E2F5F5F5F5F5F5F5F5F5F5F5F5F5F5F5F5F5F5F5F5F5
310
F5F5F5F5F5F5F5F5F5F5F5F5F5F5F5F5F5F5F5F5F5F5F5F5F5F5F5F5F5F5F5F5F5F5F5F5F5F5F5F5F5F5F5F5F5F5F5F5F5F5F5F5F5F5F5F5F5F5F5F5F5F5F5F5F5F5F5F5F5F5F5F5F5F5F5F5F5F5F5F5F5F5F5F5F5F5F5F5F5F5F5F5F5F5F5F5F5F5F5F5F5F5F5F5F5F5F5F5F5F5F5F5F5E2F5F5F5F5F5F5F5F5F5F5F5F5F5
310
F5F5F5F5F5F5F5F5E2E2F5F5F5F5F5F5F5F5F5F5F5F5F5F5F5F5F5F5F5F5F5E2F5F5F5F5F5F5F5F5F5F5F5F5F5F5F5F5F5F5F5F5F5F5F5F5F5F5F5F5F5F5F5F5F5F5F5F5F5F5F5F5F5F5F5F5F5F5F5F5F5F5F5F5F5F5F5F5F5F5F5F5F5F5F5F5F5F5F5F5F5F5F5F5F5F5F5F5F5F5F5F5F5F5F5F5F5F5F5F5F5F5F5F5F5F5F5
310
F5F5F5F5F5F5F5F5F5F5F5F5F5F5F5F5F5F5F5F5F5F5F5F5F5F5F5F5F5F5F5F5F5F5F5F5F5F5F5E2F5F5F5F5F5F5F5F5F5F5F5F5F5F5F5F5F5F5F5F5F5E2E2F5F5F5F5F5F5F5F5F5F5F5F5F5F5F5F5F5F5F5F5F5E2F5F5F5F5F5F5F5F5F5F5F5F5F5F5F5F5F5F5F5F5F5F5F5F5F5F5F5F5F5F5F5F5F5F5F5F5F5F5F5F5F5F5
310
F5F5F5F5F5F5F5F5F5F5F5F5F5F5F5F5F5F5F5F5F5F5F5F5F5F5F5F5F5F5F5F5F5F5F5F5F5F5F5F5F5F5F5F5F5F5F5F5F5F5F5F5F5F5F5F5F5F5F5F5F5F5F5F5F5F5F5F5F5F5F5F5F5F5F5F5F5F5F5F5F5F5F5F5F5F5F5F5F5F5F5F5E2F5F5F5F5F5F5F5F5F5F5F5F5F5F5F5F5F5F5F5F5F5E2E2F5F5F5F5F5F5F5F5F5F5F5
310
F5F5F5F5F5F5F5F5F5F5E2F5F5F5F5F5F5F5F5F5F5F5F5F5F5F5F5F5F5F5F5F5F5F5F5F5F5F5F5F5F5F5F5F5F5F5F5F5F5F5F5F5F5F5F5F5F5F5F5F5F5F5F5F5F5F5F5F5F5F5F5F5F5F5F5F5F5F5F5F5F5F5F5F5F5F5F5F5F5F5F5F5F5F5F5F5F5F5F5F5F5F5F5F5F5F5F5F5F5F5F5F5F5F5F5F5F5F5F5F5F5F5F5F5F5F5F5
310
F5F5F5F5F5F5F5F5F5F5F5F5F5F5F5F5F5F5E2F5F5F5F5F5F5F5F5F5F5F5F5F5F5F5F5F5F5F5F5F5E2E2F5F5F5F5F5F5F5F5F5F5F5F5F5F5F5F5F5F5F5F5F5E2F5F5F5F5F5F5F5F5F5F5F5F5F5F5F5F5F5F5F5F5F5F5F5F5F5F5F5F5F5F5F5F5F5F5F5F5F5F5F5F5F5F5F5F5F5F5F5F5F5F5F5F5F5F5F5F5F5F5F5F5F5F5F5
310
F5F5F5F5F5F5F5F5F5F5F5F5F5F5F5F5F5F5F5F5F5F5F5F5F5F5F5F5F5F5F5F5F5F5F5F5F5F5F5F5F5F5F5F5F5F5F5F5F5F5F5F5F5F5F5F5F5F5F5F5F5F5F5F5F5F5F5F5F5F5F5E2F5F5F5F5F5F5F5F5F5F5F5F5F5F5F5F5F5F5F5F5F5E2E2F5F5F5F5F5F5F5F5F5F5F5F5F5F5F5F5F5F5F5F5F5E2F5F5F5F5F5F5F5F5F5F5
310
F5F5F5F5F5F5F5F5F5F5F5F5F5F5F5F5F5F5F5F5F5F5F5F5F5F5F5F5F5F5F5F5F5F5F5F5F5F5F5F5F5F5F5F5F5F5F5F5F5F5F5F5F5F5F5F5F5F5F5F5F5F5F5F5F5F5F5F5F5F5F5F5F5F5F5F5F5F5F5F5F5F5F5F5F5F5F5F5F5F5F5F5F5F5F5F5F5F5F5F5F5F5F5F5F5F5F5F5F5F5F5F5F5F5F5F5F5F5F5F5F5F5F5F5E2F5F5
310
F5F5F5F5F5F5F5F5F5F5F5F5F5F5F5F5F5F5F5E2E2F5F5F5F5F5F5F5F5F5F5F5F5F5F5F5F5F5F5F5F5F5E2F5F5F5F5F5F5F5F5F5F5F5F5F5F5F5F5F5F5F5F5F5F5F5F5F5F5F5F5F5F5F5F5F5F5F5F5F5F5F5F5F5F5F5F5F5F5F5F5F5F5F5F5F5F5F5F5F5F5F5F5F5F5F5F5F5F5F5F5F5F5F5F5F5F5F5F5F5F5F5F5F5F5F5F5
310
F5F5F5F5F5F5F5F5F5F5F5F5F5F5F5F5F5F5F5F5F5F5F5F5F5F5F5F5F5F5F5F5F5F5F5F5F5F5F5F5F5F5F5F5F5F5F5F5F5F5E2F5F5F5F5F5F5F5F5F5F5F5F5F5F5F5F5F5F5F5F5F5E2E2F5F5F5F5F5F5F5F5F5F5F5F5F5F5F5F5F5F5F5F5F5E2F5F5F5F5F5F5F5F5F5F5F5F5F5F5F5F5F5F5F5F5F5F5F5F5F5F5F5F5F5F5F5
310
F5F5F5F5F5F5F5F5F5F5F5F5F5F5F5F5F5F5F5F5F5F5F5F5F5F5F5F5F5F5F5F5F5F5F5F5F5F5F5F5F5F5F5F5F5F5F5F5F5F5F5F5F5F5F5F5F5F5F5F5F5F5F5F5F5F5F5F5F5F5F5F5F5F5F5F5F5F5F5F5F5F5F5F5F5F5F5F5F5F5F5F5F5F5F5F5F5F5F5F5F5F5F5E2F5F5F5F5F5F5F5F5F5F5F5F5F5F5F5F5F5F5F5F5F5E2E2
310
F5F5F5F5F5F5F5F5F5F5F5F5F5F5F5F5F5F5F5F5F5E2F5F5F5F5F5F5F5F5F5F5F5F5F5F5F5F5F5F5F5F5F5F5F5F5F5F5F5F5F5F5F5F5F5F5F5F5F5F5F5F5F5F5F5F5F5F5F5F5F5F5F5F5F5F5F5F5F5F5F5F5F5F5F5F5F5F5F5F5F5F5F5F5F5F5F5F5F5F5F5F5F5F5F5F5F5F5F5F5F5F5F5F5F5F5F5F5F5F5F5F5F5F5F5F5F5
310
F5F5F5F5F5F5F5F5F5F5F5F5F5F5F5F5F5F5F5F5F5F5F5F5F5F5F5F5F5E2F5F5F5F5F5F5F5F5F5F5F5F5F5F5F5F5F5F5F5F5F5E2E2F5F5F5F5F5F5F5F5F5F5F5F5F5F5F5F5F5F5F5F5F5E2F5F5F5F5F5F5F5F5F5F5F5F5F5F5F5F5F5F5F5F5F5F5F5F5F5F5F5F5F5F5F5F5F5F5F5F5F5F5F5F5F5F5F5F5F5F5F5F5F5F5F5F5
310
F5F5F5F5F5F5F5F5F5F5F5F5F5F5F5F5F5F5F5F5F5F5F5F5F5F5F5F5F5F5F5F5F5F5F5F5F5F5F5F5F5F5F5F5F5F5F5F5F5F5F5F5F5F5F5F5F5F5F5F5F5F5F5F5F5F5F5F5F5F5F5F5F5F5F5F5F5F5F5F5F5F5E2F5F5F5F5F5F5F5F5F5F5F5F5F5F5F5F5F5F5F5F5F5E2E2F5F5F5F5E2F5F5F5F5F5F5F5F5F5F5F5F5F5F5F5F5
310
E2F5F5F5F5F5F5F5F5F5F5F5F5F5F5F5F5F5F5F5F5F5F5F5F5F5F5F5F5F5F5F5F5F5F5F5F5F5F5F5F5F5F5F5F5F5F5F5F5F5F5F5F5F5F5F5F5F5F5F5F5F5F5F5F5F5F5F5F5F5F5F5F5F5F5F5F5F5F5F5F5F5F5F5F5F5F5F5F5F5F5F5F5F5F5F5F5F5F5F5F5F5F5F5F5F5F5F5F5F5F5F5F5F5F5F5F5F5F5F5F5F5F5F5F5F5F5
310
F5F5F5F5F5F5F5F5E2F5F5F5F5F5F5F5F5F5F5F5F5F5F5F5F5E2F5F5F5F5E2E2F5F5F5F5E2F5F5F5F5F5F5F5F5F5F5F5F5F5F5F5F5E2F5F5F5F5F5F5F5F5F5F5F5F5F5F5F5F5F5F5F5F5F5F5F5F5F5F5F5F5F5F5F5F5F5F5F5F5F5F5F5F5F5F5F5F5F5F5F5F5F5F5F5F5F5F5F5F5F5F5F5F5F5F5F5F5F5F5F5F5F5F5F5F5F5
310
F5F5F5F5F5F5F5F5F5F5F5F5F5F5F5F5F5F5F5F5F5F5F5F5F5F5F5F5F5F5F5F5F5F5F5F5F5F5F5F5F5F5F5F5F5F5F5F5F5F5F5F5F5F5F5F5F5F5F5F5F5E2F5F5F5F5F5F5F5F5F5F5F5F5F5F5F5F5E2F5F5F5F5E2E2F5F5F5F5E2F5F5F5F5F5F5F5F5F5F5F5F5F5F5F5F5E2F5F5F5F5F5F5F5F5F5F5F5F5F5F5F5F5F5F5F5F5
310
F5F5F5F5F5F5F5F5F5F5F5F5F5F5F5F5F5F5F5F5F5F5F5F5F5F5F5F5F5F5F5F5F5F5F5F5F5F5F5F5F5F5F5F5F5F5F5F5F5F5F5F5F5F5F5F5F5F5F5F5F5F5F5F5F5F5F5F5F5F5F5F5F5F5F5F5F5F5F5F5F5F5F5F5F5F5F5F5F5F5F5F5F5F5F5F5F5F5F5F5F5F5F5F5F5F5F5F5F5F5F5F5F5F5E2F5F5F5F5F5F5F5F5F5F5F5F5
310
F5F5F5F5E2F5F5F5F5E2E2F5F5F5F5E2F5F5F5F5F5F5F5F5F5F5F5F5F5F5F5F5E2F5F5F5F5F5F5F5F5F5F5F5F5F5F5F5F5F5F5F5F5F5F5F5F5F5F5F5F5F5F5F5F5F5F5F5F5F5F5F5F5F5F5F5F5F5F5F5F5F5F5F5F5F5F5F5F5F5F5F5F5F5F5F5F5F5F5F5F5F5F5F5F5F5F5F5F5F5F5F5F5F5F5F5F5F5F5F5F5F5F5F5F5F5F5
310
F5F5F5F5F5F5F5F5F5F5F5F5F5F5F5F5F5F5F5F5F5F5F5F5F5F5F5F5F5F5F5F5F5F5F5F5F5F5F5F5E2F5F5F5F5F5F5F5F5F5F5F5F5F5F5F5F5E2F5F5F5F5E2E2F5F5F5F5E2F5F5F5F5F5F5F5F5F5F5F5F5F5F5F5F5E2F5F5F5F5F5F5F5F5F5F5F5F5F5F5F5F5F5F5F5F5F5F5F5F5F5F5F5F5F5F5F5F5F5F5F5F5F5F5F5F5F5
310
F5F5F5F5F5F5F5F5F5F5F5F5F5F5F5F5F5F5F5F5F5F5F5F5F5F5F5F5F5F5F5F5F5F5F5F5F5F5F5F5F5F5F5F5F5F5F5F5F5F5F5F5F5F5F5F5F5F5F5F5F5F5F5F5F5F5F5F5F5F5F5F5F5F5F5F5F5F5F5F5F5F5F5F5F5F5F5F5F5F5F5F5F5E2F5F5F5F5F5F5F5F5F5F5F5F5F5F5F5F5E2F5F5F5F5E2E2F5F5F5F5E2F5F5F5F5F5
310
F5F5F5F5F5F5F5F5F5F5F5E2F5F5F5F5F5F5F5F5F5F5F5F5F5F5F5F5F5F5F5F5F5F5F5F5F5F5F5F5F5F5F5F5F5F5F5F5F5F5F5F5F5F5F5F5F5F5F5F5F5F5F5F5F5F5F5F5F5F5F5F5F5F5F5F5F5F5F5F5F5F5F5F5F5F5F5F5F5F5F5F5F5F5F5F5F5F5F5F5F5F5F5F5F5F5F5F5F5F5F5F5F5F5F5F5F5F5F5F5F5F5F5F5F5F5F5
310
F5F5F5F5F5F5F5F5F5F5F5F5F5F5F5F5F5F5F5E2F5F5F5F5F5F5F5F5F5F5F5F5F5F5F5F5E2F5F5F5F5E2E2F5F5F5F5E2F5F5F5F5F5F5F5F5F5F5F5F5F5F5F5F5E2F5F5F5F5F5F5F5F5F5F5F5F5F5F5F5F5F5F5F5F5F5F5F5F5F5F5F5F5F5F5F5F5F5F5F5F5F5F5F5F5F5F5F5F5F5F5F5F5F5F5F5F5F5F5F5F5F5F5F5F5F5F5
310
F5F5F5F5F5F5F5F5F5F5F5F5F5F5F5F5F5F5F5F5F5F5F5F5F5F5F5F5F5F5F5F5F5F5F5F5F5F5F5F5F5F5F5F5F5F5F5F5F5F5F5F5F5F5F5F5F5F5F5F5F5F5F5F5F5F5F5F5F5F5F5F5E2F5F5F5F5F5F5F5F5F5F5F5F5F5F5F5F5E2F5F5F5F5E2E2F5F5F5F5E2F5F5F5F5F5F5F5F5F5F5F5F5F5F5F5F5E2F5F5F5F5F5F5F5F5F5
310
F5F5F5F5F5F5F5F5F5F5F5F5F5F5F5F5F5F5F5F5F5F5F5F5F5F5F5F5F5F5F5F5F5F5F5F5F5F5F5F5F5F5F5F5F5F5F5F5F5F5F5F5F5F5F5F5F5F5F5F5F5F5F5F5F5F5F5F5F5F5F5F5F5F5F5F5F5F5F5F5F5F5F5F5F5F5F5F5F5F5F5F5F5F5F5F5F5F5F5F5F5F5F5F5F5F5F5F5F5F5F5F5F5F5F5F5F5F5F5F5F5F5F5F5F5E2F5
310
F5F5F5F5F5F5F5F5F5F5F5F5F5F5F5E2F5F5F5F5E2E2F5F5F5F5E2F5F5F5F5F5F5F5F5F5F5F5F5F5F5F5F5E2F5F5F5F5F5F5F5F5F5F5F5F5F5F5F5F5F5F5F5F5F5F5F5F5F5F5F5F5F5F5F5F5F5F5F5F5F5F5F5F5F5F5F5F5F5F5F5F5F5F5F5F5F5F5F5F5F5F5F5F5F5F5F5F5F5F5F5F5F5F5F5F5F5F5F5F5F5F5F5F5F5F5F5
310
F5F5F5F5F5F5F5F5F5F5F5F5F5F5F5F5F5F5F5F5F5F5F5F5F5F5F5F5F5F5F5F5F5F5F5F5F5F5F5F5F5F5F5F5F5F5F5F5F5F5F5E2F5F5F5F5F5F5F5F5F5F5F5F5F5F5F5F5E2F5F5F5F5E2E2F5F5F5F5E2F5F5F5F5F5F5F5F5F5F5F5F5F5F5F5F5E2F5F5F5F5F5F5F5F5F5F5F5F5F5F5F5F5F5F5F5F5F5F5F5F5F5F5F5F5F5F5
310
F5F5F5F5F5F5F5F5F5F5F5F5F5F5F5F5F5F5F5F5F5F5F5F5F5F5F5F5F5F5F5F5F5F5F5F5F5F5F5F5F5F5F5F5F5F5F5F5F5F5F5F5F5F5F5F5F5F5F5F5F5F5F5F5F5F5F5F5F5F5F5F5F5F5F5F5F5F5F5F5F5F5F5F5F5F5F5F5F5F5F5F5F5F5F5F5F5F5F5F5F5F5F5F5E2F5F5F5F5F5F5F5F5F5F5F5F5F5F5F5F5E2F5F5F5F5E2
310
E2F5F5F5F5E2F5F5F5F5F5F5F5F5F5F5F5F5F5F5F5F5E2F5F5F5F5F5F5F5F5F5F5F5F5F5F5F5F5F5F5F5F5F5F5F5F5F5F5F5F5F5F5F5F5F5F5F5F5F5F5F5F5F5F5F5F5F5F5F5F5F5F5F5F5F5F5F5F5F5F5F5F5F5F5F5F5F5F5F5F5F5F5F5F5F5F5F5F5F5F5F5F5F5F5F5F5F5F5F5F5F5F5F5F5F5F5F5F5F5F5F5F5F5F5F5F5
310
F5F5F5F5F5F5F5F5F5F5F5F5F5F5F5F5F5F5F5F5F5F5F5F5F5F5F5F5F5F5E2F5F5F5F5F5F5F5F5F5F5F5F5F5F5F5F5E2F5F5F5F5E2E2F5F5F5F5E2F5F5F5F5F5F5F5F5F5F5F5F5F5F5F5F5E2F5F5F5F5F5F5F5F5F5F5F5F5F5F5F5F5F5F5F5F5F5F5F5F5F5F5F5F5F5F5F5F5F5F5F5F5F5F5F5F5F5F5F5F5F5F5F5F5F5F5F5
310
F5F5F5F5F5F5F5F5F5F5F5F5F5F5F5F5F5F5F5F5F5F5F5F5F5F5F5F5F5F5F5F5F5F5F5F5F5F5F5F5F5F5F5F5F5F5F5F5F5F5F5F5F5F5F5F5F5F5F5F5F5F5F5F5F5F5F5F5F5F5F5F5F5F5F5F5F5F5F5F5F5F5F5E2F5F5F5F5F5F5F5F5F5F5F5F5F5F5F5F5E2F5F5F5F5E2E2F5F5F5F5E2F5F5F5F5F5F5F5F5F5F5F5F5F5F5F5
310
F5E2F5F5F5F5F5F5F5F5F5F5F5F5F5F5F5F5F5F5F5F5F5F5F5F5F5F5F5F5F5F5F5F5F5F5F5F5F5F5F5F5F5F5F5F5F5F5F5F5F5F5F5F5F5F5F5F5F5F5F5F5F5F5F5F5F5F5F5F5F5F5F5F5F5F5F5F5F5F5F5F5F5F5F5F5F5F5F5F5F5F5F5F5F5F5F5F5F5F5F5F5F5F5F5F5F5F5F5F5F5F5F5F5F5F5F5F5F5F5F5F5F5F5F5F5F5
310
F5F5F5F5F5F5F5F5F5E2F5F5F5F5F5F5F5F5F5F5F5F5F5F5F5F5E2F5F5F5F5E2E2F5F5F5F5E2F5F5F5F5F5F5F5F5F5F5F5F5F5F5F5F5E2F5F5F5F5F5F5F5F5F5F5F5F5F5F5F5F5F5F5F5F5F5F5F5F5F5F5F5F5F5F5F5F5F5F5F5F5F5F5F5F5F5F5F5F5F5F5F5F5F5F5F5F5F5F5F5F5F5F5F5F5F5F5F5F5F5F5F5F5F5F5F5F5
310
F5F5F5F5F5F5F5F5F5F5F5F5F5F5F5F5F5F5F5F5F5F5F5F5F5F5F5F5F5F5F5F5F5F5F5F5F5F5F5F5F5F5F5F5F5F5F5F5F5F5F5F5F5F5F5F5F5F5F5F5F5F5E2F5F5F5F5F5F5F5F5F5F5F5F5F5F5F5F5E2F5F5F5F5E2E2F5F5F5F5E2F5F5F5F5F5F5F5F5F5F5F5F5F5F5F5F5E2F5F5F5F5F5F5F5F5F5F5F5F5F5F5F5F5F5F5F5
310
F5F5F5F5F5F5F5F5F5F5F5F5F5F5F5F5F5F5F5F5F5F5F5F5F5F5F5F5F5F5F5F5F5F5F5F5F5F5F5F5F5F5F5F5F5F5F5F5F5F5F5F5F5F5F5F5F5F5F5F5F5F5F5F5F5F5F5F5F5F5F5F5F5F5F5F5F5F5F5F5F5F5F5F5F5F5F5F5F5F5F5F5F5F5F5F5F5F5F5F5F5F5F5F5F5F5F5F5F5F5F5F5F5F5F5E2F5F5F5F5F5F5F5F5F5F5F5
310
F5F5F5F5F5E2F5F5F5F5E2E2F5F5F5F5E2F5F5F5F5F5F5F5F5F5F5F5F5F5F5F5F5E2F5F5F5F5F5F5F5F5F5F5F5F5F5F5F5F5F5F5F5F5F5F5F5F5F5F5F5F5F5F5F5F5F5F5F5F5F5F5F5F5F5F5F5F5F5F5F5F5F5F5F5F5F5F5F5F5F5F5F5F5F5F5F5F5F5F5F5F5F5F5F5F5F5F5F5F5F5F5F5F5F5F5F5F5F5F5F5F5F5F5F5F5F5
310
F5F5F5F5F5F5F5F5F5F5F5F5F5F5F5F5F5F5F5F5F5F5F5F5F5F5F5F5F5F5F5F5F5F5F5F5F5F5F5F5F5E2F5F5F5F5F5F5F5F5F5F5F5F5F5F5F5F5E2F5F5F5F5E2E2F5F5F5F5F5F5F5F5F5F5F5F5F5F5F5F5F5F5F5F5F5E2F5F5F5F5F5F5F5F5F5F5F5F5F5F5F5F5F5F5F5F5F5F5F5F5F5F5F5F5F5F5F5F5F5F5F5F5F5F5F5F5
310
F5F5F5F5F5F5F5F5F5F5F5F5F5F5F5F5F5F5F5F5F5F5F5F5F5F5F5F5F5F5F5F5F5F5F5F5F5F5F5F5F5F5F5F5F5F5F5F5F5F5F5F5F5F5F5F5F5F5F5F5F5F5F5F5F5F5F5F5F5F5F5F5F5F5F5F5F5F5F5F5F5F5F5F5F5F5F5F5F5F5F5F5F5F5E2F5F5F5F5F5F5F5F5F5F5F5F5F5F5F5F5F5F5F5F5F5E2E2F5F5F5F5F5F5F5F5F5
310
F5F5F5F5F5F5F5F5F5F5F5F5E2F5F5F5F5F5F5F5F5F5F5F5F5F5F5F5F5F5F5F5F5F5F5F5F5F5F5F5F5F5F5F5F5F5F5F5F5F5F5F5F5F5F5F5F5F5F5F5F5F5F5F5F5F5F5F5F5F5F5F5F5F5F5F5F5F5F5F5F5F5F5F5F5F5F5F5F5F5F5F5F5F5F5F5F5F5F5F5F5F5F5F5F5F5F5F5F5F5F5F5F5F5F5F5F5F5F5F5F5F5F5F5F5F5F5
310
F5F5F5F5F5F5F5F5F5F5F5F5F5F5F5F5F5F5F5F5E2F5F5F5F5F5F5F5F5F5F5F5F5F5F5F5F5F5F5F5F5F5E2E2F5F5F5F5F5F5F5F5F5F5F5F5F5F5F5F5F5F5F5F5F5E2F5F5F5F5F5F5F5F5F5F5F5F5F5F5F5F5F5F5F5F5F5F5F5F5F5F5F5F5F5F5F5F5F5F5F5F5F5F5F5F5F5F5F5F5F5F5F5F5F5F5F5F5F5F5F5F5F5F5F5F5F5
310
F5F5F5F5F5F5F5F5F5F5F5F5F5F5F5F5F5F5F5F5F5F5F5F5F5F5F5F5F5F5F5F5F5F5F5F5F5F5F5F5F5F5F5F5F5F5F5F5F5F5F5F5F5F5F5F5F5F5F5F5F5F5F5F5F5F5F5F5F5F5F5F5F5E2F5F5F5F5F5F5F5F5F5F5F5F5F5F5F5F5F5F5F5F5F5E2E2F5F5F5F5F5F5F5F5F5F5F5F5F5F5F5F5F5F5F5F5F5E2F5F5F5F5F5F5F5F5
310
F5F5F5F5F5F5F5F5F5F5F5F5F5F5F5F5F5F5F5F5F5F5F5F5F5F5F5F5F5F5F5F5F5F5F5F5F5F5F5F5F5F5F5F5F5F5F5F5F5F5F5F5F5F5F5F5F5F5F5F5F5F5F5F5F5F5F5F5F5F5F5F5F5F5F5F5F5F5F5F5F5F5F5F5F5F5F5F5F5F5F5F5F5F5F5F5F5F5DCF5F5F5F5F5F5F5F5F5F5F5F5F5F5F5F5F5F5F5F5F5F5F5F5F5F5F5E2
310
F5F5F5F5F5F5F5F5F5F5F5F5F5F5F5F5F5F5F5F5F5E2E2F5F5F5F5F5F5F5F5F5F5F5F5F5F5F5F5F5F5F5F5F5E2F5F5F5F5F5F5F5F5F5F5F5F5F5F5F5F5F5F5F5F5F5F5F5F5F5F5F5F5F5F5F5F5F5F5F5F5F5F5F5F5F5F5F5F5F5F5F5F5F5F5F5F5F5F5F5F5F5F5F5F5F5F5F5F5F5F5F5F5F5F5F5F5F5F5F5F5F5F5F5F5F5E2
310
ECE2E2E2E2E2E2E2E2E2E2E2E2E2E2E2E2E2E2E2E2E2E2E2DCE2E2E2E2E2E2E2E2E2E2E2E2E2E2E2E2E2E2E2E2E2E2E2ECE2F5F5E2F5F5F5F5F5F5F5F5F5F5F5F5F5F5F5F5F5F5F5F5F5E2E2F5F5F5F5F5F5F5F5F5F5F5F5F5F5F5F5F5F5F5F5F5E2F5F5F5F5F5F5F5F5F5F5F5F5F5F5F5F5F5F5F5F5F5F5F5F5F5F5F5F5F5
310
F5F5F5F5F5F5F5F5F5F5F5F5F5F5F5F5F5F5F5F5F5F5F5F5F5F5F5F5F5F5F5F5F5F5F5F5F5F5F5F5F5F5F5F5F5F5F5F5F5F5F5E2F5F5ECF5F5F5F5F5F5F5F5F5F5F5F5F5F5F5F5F5F5F5F5F5F5DCF5F5F5F5F5F5F5F5F5F5F5F5F5F5F5F5F5F5F5F5F5F5ECF5F5E2F5E2F5F5F5F5F5F5F5F5F5F5F5F5F5F5F5F5F5F5F5F5F5
310
E2E2F5F5F5F5F5F5F5F5F5F5F5F5F5F5F5F5F5F5F5F5F5E2F5F5F5F5F5F5F5F5F5F5F5F5F5F5F5F5F5F5F5F5F5F5F5F5F5F5F5F5F5F5F5F5F5F5F5F5F5F5F5F5F5F5F5F5F5F5F5F5F5F5F5F5F5F5F5F5F5F5F5F5F5F5F5F5F5F5F5F5F5F5F5F5F5F5F5F5F5F5F5E2F5F5F5F5ECF5F5F5F5F5F5F5F5F5F5F5F5F5F5F5F5F5F5
310
F5F5F5DCF5F5F5F5F5F5F5F5F5F5F5F5F5F5F5F5F5F5F5F5F5ECF5F5F5F5E2E2F5F5F5F5F5F5F5F5F5F5F5F5F5F5F5F5F5F5F5F5F5E2E2F5F5F5F5F5F5F5F5F5F5F5F5F5F5F5F5F5F5F5F5F5E2F5F5F5F5F5F5F5F5F5F5F5F5F5F5F5F5F5F5F5F5F5F5F5F5F5F5F5F5F5F5F5F5F5F5F5F5F5F5F5F5F5F5F5F5F5F5F5F5F5F5
310
F5F5F5F5F5F5F5F5F5F5F5F5F5F5F5F5F5F5F5F5F5F5F5F5F5F5F5F5E2E2E2E2E2E2ECE2E2E2E2E2E2E2E2E2ECECECECECECE2ECECECECECDCECECECECECE2ECECECECECECE2E2E2E2E2E2E2E2ECE2E2E2E2E2E2E2F5F5F5F5F5F5F5F5F5F5F5F5F5F5F5F5F5F5F5F5F5E2E2F5F5F5F5F5F5F5F5F5F5F5F5F5F5F5F5F5F5F5
310
F5F5E2F5F5F5F5F5F5F5F5F5F5F5F5F5F5F5F5F5F5F5F5F5F5F5F5F5F5F5F5F5F5F5F5F5F5F5F5F5F5F5F5F5F5F5F5F5F5F5F5F5F5F5F5F5F5F5F5F5F5F5F5F5F5F5F5F5F5F5F5F5F5F5F5F5F5F5F5F5F5E2F5F5F5F5F5F5F5F5F5F5F5F5F5F5F5ECF5F5F5F5F5F5F5F5F5F5F5DCF5F5F5F5F5F5F5F5F5F5ECF5F5F5F5F5F5
310
F5F5F5F5F5F5F5F5F5E2E2F5F5F5F5F5F5F5F5F5F5F5F5F5F5F5F5F5F5F5F5F5E2E2F5F5F5F5E2F5F5F5F5F5F5F5F5F5F5F5F5F5F5F5F5E2F5F5F5F5F5F5F5F5F5F5F5F5F5F5F5F5F5F5F5F5F5F5F5F5F5F5F5F5F5F5F5F5F5F5F5F5F5F5F5F5F5F5F5F5F5F5F5F5F5F5F5F5F5F5F5F5F5F5F5F5F5F5F5F5F5F5F5F5F5F5F5
310
F5F5F5F5F5F5F5E2F5F5F5F5F5F5F5F5F5F5F5F5F5F5F5ECECECECECECECECECECECECECECECECECECECECECECECECF5F5F5F5F5F5F5F5F5F5F5F5F5F5F5E2E2F5F5F5F5F5F5F5F5F5F5F5F5F5F5F5F5E2F5F5F5F5E2E2F5F5F5F5E2F5F5F5F5F5F5F5F5F5F5F5F5F5F5F5F5E2F5F5F5F5F5F5F5F5F5F5F5F5F5F5F5F5F5F5
310
F5F5F5F5F5F5F5F5F5F5F5F5F5F5F5F5F5F5F5F5F5F5F5F5F5F5F5F5F5F5F5F5F5F5F5F5F5F5F5F5F5F5F5F5F5F5F5F5F5F5F5F5F5F5F5F5F5F5F5F5F5E2F5F5F5F5F5F5F5F5F5F5F5F5F5F5F5F5F5F5F5ECF5F5F5F5F5F5DCF5F5F5F5F5ECF5F5F5F5F5F5F5F5F5F5F5F5F5F5F5F5F5F5F5F5E2E2F5F5F5F5F5F5F5F5F5F5
310
F5F5F5F5F5F5E2F5F5F5F5E2E2F5F5F5F5E2F5F5F5F5F5F5F5F5F5F5F5F5F5F5F5F5E2F5F5F5F5F5F5F5F5F5F5F5F5F5F5F5F5F5F5F5F5F5F5F5F5F5F5F5F5F5F5F5F5F5F5F5F5F5F5F5F5F5F5F5F5F5F5F5F5F5F5F5F5F5F5F5F5F5F5F5F5F5F5F5F5F5F5F5F5F5F5F5F5F5F5F5F5F5F5F5F5E2F5F5F5F5F5F5F5F5F5F5F5
310
F5F5F5F5F5ECECECECECECF5ECECECECECF5ECECECECECF5F5F5F5F5F5F5F5F5F5F5F5F5F5F5F5F5E2F5E2F5F5F5F5F5F5F5F5F5F5F5F5F5F5F5F5E2F5F5F5F5E2E2F5F5F5F5E2F5F5F5F5F5F5F5F5F5F5F5F5F5F5F5F5E2F5F5F5F5F5F5F5F5F5F5F5F5F5F5F5F5F5F5F5F5F5F5F5F5F5F5F5F5F5F5F5F5F5F5F5F5F5F5F5
310
F5F5F5F5F5F5F5F5F5F5F5F5F5F5F5F5F5F5F5F5F5F5F5F5F5F5F5F5F5F5F5F5F5F5F5F5F5F5F5F5F5F5E2E2F5F5F5F5F5F5F5F5F5F5F5F5F5F5ECF5F5F5F5F5F5F5F5DCF5F5F5F5F5F5F5ECF5F5F5F5F5F5F5F5F5F5F5F5F5F5F5E2E2F5F5E2F5F5F5F5F5F5F5F5F5F5F5F5F5F5F5F5E2F5F5F5F5E2E2F5F5F5F5E2F5F5F5
310
F5F5F5F5F5F5F5F5F5F5F5F5F5E2F5F5F5F5F5F5F5F5F5F5F5F5F5F5F5F5F5F5F5F5F5F5F5F5F5F5F5F5F5F5F5F5F5F5F5F5F5F5F5F5F5F5F5F5F5F5F5F5F5F5F5F5F5F5F5F5F5F5F5F5F5F5F5F5F5F5F5F5F5F5F5F5F5F5F5F5F5F5F5F5F5F5F5E2F5F5F5F5F5F5F5F5F5F5F5F5F5ECF5F5F5F5F5F5F5F5DCF5F5F5F5F5F5
310
F5ECF5F5F5F5F5F5F5F5F5F5F5F5F5E2E2F5F5F5F5E2F5F5F5F5F5F5F5F5F5F5F5F5F5F5F5F5E2F5F5F5F5E2E2F5F5F5F5E2F5F5F5F5F5F5F5F5F5F5F5F5F5F5F5F5E2F5F5F5F5F5F5F5F5F5F5F5F5F5F5F5F5F5F5F5F5F5F5F5F5F5F5F5F5F5F5F5F5F5F5F5F5F5F5F5F5F5F5F5F5F5F5F5F5F5F5F5F5F5F5F5F5F5F5F5F5
310
F5F5F5F5F5F5F5F5F5F5F5F5F5F5F5F5F5F5F5F5F5F5F5F5E2E2F5F5F5F5F5F5F5F5F5F5F5ECF5F5F5F5F5F5F5F5DCF5F5F5F5F5F5F5ECF5F5F5F5F5F5F5F5F5F5F5F5E2F5F5F5F5F5F5E2F5F5F5F5F5F5F5F5F5F5F5F5F5F5F5F5E2F5F5F5F5E2E2F5F5F5F5E2F5F5F5F5F5F5F5F5F5F5F5F5F5F5F5F5E2F5F5F5F5F5F5F5
310
F5F5F5F5F5F5F5F5F5F5F5F5F5F5F5F5F5F5F5F5F5F5F5F5F5F5F5F5F5F5F5F5F5F5F5F5F5F5F5F5F5F5F5F5F5F5F5F5F5F5F5F5F5F5F5F5F5F5F5F5F5F5F5F5F5F5F5F5F5F5F5F5F5F5F5F5F5F5F5E2F5F5F5F5F5F5F5F5F5F5ECF5F5F5F5F5F5F5F5DCF5F5F5F5F5F5F5ECF5F5F5F5F5F5F5F5F5F5E2E2F5F5F5F5F5F5F5
310
E2F5F5F5F5F5F5F5F5F5F5F5F5F5F5F5F5E2F5F5F5F5E2E2F5F5F5F5E2F5F5F5F5F5F5F5F5F5F5F5F5F5F5F5F5E2F5F5F5F5F5F5F5F5F5F5F5F5F5F5F5F5F5F5F5F5F5F5F5F5F5F5F5F5F5F5F5F5F5F5F5F5F5F5F5F5F5F5F5F5F5F5F5F5F5F5F5F5F5F5F5F5F5F5F5F5F5F5F5F5F5F5F5F5F5F5F5F5F5F5F5F5F5F5F5F5F5
310
F5F5F5F5F5F5E2E2F5F5F5F5F5F5F5F5F5ECECECECECF5ECECECECECF5ECECECECECF5F5F5F5F5F5F5F5E2E2F5F5F5F5F5F5F5F5F5E2F5F5F5F5F5F5F5F5F5F5F5F5F5F5F5F5E2F5F5F5F5E2E2F5F5F5F5E2F5F5F5F5F5F5F5F5F5F5F5F5F5F5F5F5E2F5F5F5F5F5F5F5F5F5F5F5F5F5F5F5F5F5F5F5F5F5F5F5F5F5F5F5F5
310
F5F5F5F5F5F5F5F5F5F5F5F5F5F5F5F5F5F5F5F5F5F5F5F5F5F5F5F5F5F5F5F5F5F5F5F5F5F5F5F5F5F5F5F5F5F5F5F5F5F5F5F5F5F5F5F5F5F5F5F5F5E2E2F5F5F5F5F5F5F5ECF5F5F5F5F5F5F5DCF5F5F5F5F5F5F5ECF5F5F5F5F5F5F5E2F5F5F5F5F5F5F5F5F5F5F5E2F5F5F5F5F5F5F5F5F5F5F5F5F5F5F5F5E2F5F5F5
310
F5E2E2F5F5F5F5E2F5F5F5F5F5F5F5F5F5F5F5F5F5F5F5F5E2F5F5F5F5F5F5F5F5F5F5F5F5F5F5F5F5F5F5F5F5F5F5F5F5F5F5F5F5F5F5F5F5F5F5F5F5F5F5F5F5F5F5F5F5F5F5F5F5F5F5F5F5F5F5F5F5F5F5F5F5F5F5F5F5F5F5F5F5F5F5F5F5F5F5F5F5F5F5F5F5F5F5F5F5F5F5F5F5F5F5E2F5F5F5F5F5F5F5ECF5F5F5
310
F5F5F5F5DCF5F5F5F5F5F5F5ECF5F5F5F5F5F5F5E2F5F5F5F5F5F5F5F5F5F5F5E2F5F5F5F5F5F5F5F5F5F5F5F5F5F5F5F5E2F5F5F5F5E2E2F5F5F5F5E2F5F5F5F5F5F5F5F5F5F5F5F5F5F5F5F5E2F5F5F5F5F5F5F5F5F5F5F5F5F5F5F5F5F5F5F5F5F5F5F5F5F5F5F5F5F5F5F5F5F5F5F5F5F5F5F5F5F5F5F5F5F5F5F5F5F5
310
F5F5F5F5F5F5F5F5F5F5F5F5F5F5F5F5F5F5F5F5F5F5F5F5F5F5F5F5F5F5F5F5F5F5F5F5F5F5F5F5F5E2F5F5F5F5F5F5F5ECF5F5F5F5F5F5F5DCF5F5F5F5F5F5F5ECF5F5F5F5F5F5F5E2F5F5F5F5F5F5F5F5F5F5F5E2F5F5F5F5F5F5F5F5F5F5F5F5F5F5F5F5E2F5F5F5F5E2E2F5F5F5F5E2F5F5F5F5F5F5F5F5F5F5F5F5F5
310
F5F5F5E2F5F5F5F5F5F5F5F5F5F5F5F5F5F5F5F5F5F5F5F5F5F5F5F5F5F5F5F5F5F5F5F5F5F5F5F5F5F5F5F5F5F5F5F5F5F5F5F5F5F5F5F5F5F5F5F5F5F5F5F5F5F5F5F5F5F5F5F5F5F5F5F5F5F5F5F5F5F5F5F5F5F5F5F5F5F5F5F5F5F5E2F5F5F5F5F5F5F5ECF5F5F5F5E2E2E2E2E2E2E2F5F5F5F5ECF5F5F5F5F5F5F5E2
310
F5F5F5F5F5F5F5F5F5F5F5E2F5F5F5F5F5F5F5F5F5F5F5F5F5F5F5F5E2F5F5F5F5E2E2F5F5F5F5E2F5F5F5F5F5F5F5F5F5F5F5F5F5F5F5F5E2F5F5F5F5F5F5F5F5F5F5F5F5F5F5F5F5F5F5F5F5F5F5F5F5F5F5F5F5F5F5F5F5F5F5F5F5F5F5F5F5F5F5F5F5F5F5F5F5F5F5F5F5F5F5F5F5F5F5F5F5F5F5F5F5F5F5F5F5F5F5
310
F5F5F5F5F5F5F5F5F5F5F5F5F5F5F5F5F5F5F5F5E2F5F5F5F5F5F5F5ECECECECECECF5F5DCF5F5ECECECECECECF5F5F5F5F5F5F5E2F5F5F5F5F5F5F5F5F5F5F5E2F5F5F5F5F5F5F5F5F5F5F5F5F5F5F5F5E2F5F5F5F5E2E2F5F5F5F5E2F5F5F5F5F5F5F5F5F5F5F5F5F5F5F5F5E2F5F5F5F5F5F5F5F5F5F5F5F5F5F5F5F5F5
310
F5F5F5F5F5F5F5F5F5F5F5F5F5F5F5F5F5F5F5F5F5F5F5F5F5F5F5F5F5F5F5F5F5F5F5F5F5F5F5F5F5F5F5F5F5F5F5F5F5F5F5F5F5F5F5F5F5F5F5F5F5F5F5F5F5F5F5F5F5F5F5F5F5E2F5F5F5F5F5F5F5ECF5F5F5F5E2F5F5DCF5F5E2F5F5F5F5ECF5F5F5F5F5F5F5E2F5F5F5F5F5F5F5F5F5F5F5E2F5F5F5F5F5F5F5F5F5
310
F5F5F5F5F5F5F5E2F5F5F5F5E2E2F5F5F5F5E2F5F5F5F5F5F5F5F5F5F5F5F5F5F5F5F5E2F5F5F5F5F5F5F5F5F5F5F5F5F5F5F5F5F5F5F5F5F5F5F5F5F5F5F5F5F5F5F5F5F5F5F5F5F5F5F5F5F5F5F5F5F5F5F5F5F5F5F5F5F5F5F5F5F5F5F5F5F5F5F5F5F5F5F5F5F5F5F5F5F5F5F5F5F5F5F5F5F5F5F5F5F5F5F5F5F5F5E2
310
E2E2E2E2E2E2E2E2E2E2E2E2ECF5F5DCF5F5E2E2E2E2E2E2E2E2E2E2E2E2E2E2F5F5F5F5F5F5F5F5F5F5F5E2F5F5F5F5F5F5F5F5F5F5F5F5F5F5F5F5E2F5F5F5F5E2E2F5F5F5F5E2F5F5F5F5F5F5F5F5F5F5F5F5F5F5F5F5E2F5F5F5F5F5F5F5F5F5F5F5F5F5F5F5F5F5F5F5F5F5F5F5F5F5F5F5F5F5F5F5F5F5F5F5F5F5F5
310
F5F5F5F5F5F5F5F5F5F5F5F5F5F5F5F5F5F5F5F5F5F5F5F5F5F5F5F5F5F5F5F5F5F5F5F5F5F5F5F5F5F5F5F5F5F5F5F5F5F5F5F5F5F5F5F5F5F5F5F5F5F5F5F5F5F5F5F5DCF5F5F5F5F5F5F5F5F5F5F5F5F5F5F5F5F5F5F5F5F5F5F5F5F5F5F5E2F5F5F5F5F5F5F5F5F5F5F5F5F5F5F5F5E2F5F5F5F5E2E2F5F5F5F5F5F5F5
310
F5F5F5F5F5F5F5F5F5F5F5F5F5F5E2F5F5F5F5F5F5F5F5F5F5F5F5F5F5F5F5F5F5F5F5F5F5F5F5F5F5F5F5F5F5F5F5F5F5F5F5F5F5F5F5F5F5F5F5F5F5F5F5F5F5F5F5F5F5F5F5F5F5F5F5F5F5F5F5F5F5F5F5F5F5F5F5F5F5F5F5F5F5F5F5F5F5F5F5F5F5F5F5F5F5F5F5F5F5F5F5F5F5F5F5F5F5F5F5F5F5F5F5F5F5F5F5
310
F5F5F5F5F5F5F5F5F5F5F5F5F5F5F5F5F5F5F5F5F5F5E2F5F5F5F5F5F5F5F5F5F5F5F5F5F5F5F5F5F5F5F5F5E2E2F5F5F5F5F5F5F5F5F5F5F5F5F5F5F5F5F5F5F5F5F5E2F5F5F5F5F5F5F5F5F5F5F5F5F5F5F5F5F5F5F5F5F5F5F5F5F5F5F5F5F5F5F5F5F5F5F5F5F5F5F5F5F5F5F5F5F5F5F5F5F5F5F5F5F5F5F5F5F5F5F5
310
F5F5F5F5F5F5F5F5F5F5F5F5F5F5F5F5F5F5F5F5F5F5F5F5F5F5F5F5F5F5F5F5F5F5F5F5F5F5F5F5F5F5F5F5F5F5F5F5F5F5F5F5F5F5F5F5F5F5F5F5F5F5F5F5F5F5F5F5F5F5F5F5F5F5F5E2F5F5F5F5F5F5F5F5F5F5F5F5F5F5F5F5F5F5F5F5F5E2E2F5F5F5F5F5F5F5F5F5F5F5F5F5F5F5F5F5F5F5F5F5E2F5F5F5F5F5F5
310
F5F5F5F5F5F5F5F5F5F5F5F5F5F5F5F5F5F5F5F5F5F5F5F5F5F5F5F5F5F5F5F5F5F5F5F5F5F5F5F5F5F5F5F5F5F5F5F5F5F5F5F5F5F5F5F5F5F5F5F5F5F5F5F5F5F5F5F5F5F5F5F5F5F5F5F5F5F5F5F5F5F5F5F5F5F5F5F5F5F5F5F5F5F5F5F5F5F5F5F5F5F5F5F5F5F5F5F5F5F5F5F5F5F5F5F5F5F5F5F5F5F5F5F5F5F5F5
310
F5E2F5F5F5F5F5F5F5F5F5F5F5F5F5F5F5F5F5F5F5F5F5E2E2F5F5F5F5F5F5F5F5F5F5F5F5F5F5F5F5F5F5F5F5F5E2F5F5F5F5F5F5F5F5F5F5F5F5F5F5F5F5F5F5F5F5F5F5F5F5F5F5F5F5F5F5F5F5F5F5F5F5F5F5F5F5F5F5F5F5F5F5F5F5F5F5F5F5F5F5F5F5F5F5F5F5F5F5F5F5F5F5F5F5F5F5F5F5F5F5F5F5F5F5F5F5
310
F5F5F5F5F5F5F5F5F5F5F5F5F5F5F5F5F5F5F5F5F5F5F5F5F5F5F5F5F5F5F5F5F5F5F5F5F5F5F5F5F5F5F5F5F5F5F5F5F5F5F5F5F5F5E2F5F5F5F5F5F5F5F5F5F5F5F5F5F5F5F5F5F5F5F5F5E2E2F5F5F5F5F5F5F5F5F5F5F5F5F5F5F5F5F5F5F5F5F5E2F5F5F5F5F5F5F5F5F5F5F5F5F5F5F5F5F5F5F5F5F5F5F5F5F5F5F5
310
F5F5F5F5F5F5F5F5F5F5F5F5F5F5F5F5F5F5F5F5F5F5F5F5F5F5F5F5F5F5F5F5F5F5F5F5F5F5F5F5F5F5F5F5F5F5F5F5F5F5F5F5F5F5F5F5F5F5F5F5F5F5F5F5F5F5F5F5F5F5F5F5F5F5F5F5F5F5F5F5F5F5F5F5F5F5F5F5F5F5F5F5F5F5F5F5F5F5F5F5F5F5F5F5F5F5F5E2F5F5F5F5F5F5F5F5F5F5F5F5F5F5F5F5F5F5F5
310
F5F5E2E2F5F5F5F5F5F5F5F5F5F5F5F5F5F5F5F5F5F5F5F5F5E2F5F5F5F5F5F5F5F5F5F5F5F5F5F5F5F5F5F5F5F5F5F5F5F5F5F5F5F5F5F5F5F5F5F5F5F5F5F5F5F5F5F5F5F5F5F5F5F5F5F5F5F5F5F5F5F5F5F5F5F5F5F5F5F5F5F5F5F5F5F5F5F5F5F5F5F5F5F5F5F5F5F5F5F5F5F5F5F5F5F5F5F5F5F5F5F5F5F5F5F5F5
310
F5F5F5F5F5F5F5F5F5F5F5F5F5F5F5F5F5F5F5F5F5F5F5F5F5F5F5F5F5F5F5F5F5E2F5F5F5F5F5F5F5F5F5F5F5F5F5F5F5F5F5F5F5F5F5E2E2F5F5F5F5F5F5F5F5F5F5F5F5F5F5F5F5F5F5F5F5F5E2F5F5F5F5F5F5F5F5F5F5F5F5F5F5F5F5F5F5F5F5F5F5F5F5F5F5F5F5F5F5F5F5F5F5F5F5F5F5F5F5F5F5F5F5F5F5F5F5
310
F5F5F5F5F5F5F5F5F5F5F5F5F5F5F5F5F5F5F5F5F5F5F5F5F5F5F5F5F5F5F5F5F5F5F5F5F5F5F5F5F5F5F5F5F5F5F5F5F5F5F5F5F5F5F5F5F5F5F5F5F5F5F5F5F5F5F5F5F5F5F5F5F5F5F5F5F5F5F5F5F5F5F5F5F5F5E2F5F5F5F5F5F5F5F5F5F5F5F5F5F5F5F5F5F5F5F5F5E2E2F5F5F5F5F5F5F5F5F5F5F5F5F5F5F5F5F5
310
F5F5F5F5E2F5F5F5F5F5F5F5F5F5F5F5F5F5F5F5F5F5F5F5F5F5F5F5F5F5F5F5F5F5F5F5F5F5F5F5F5F5F5F5F5F5F5F5F5F5F5F5F5F5F5F5F5F5F5F5F5F5F5F5F5F5F5F5F5F5F5F5F5F5F5F5F5F5F5F5F5F5F5F5F5F5F5F5F5F5F5F5F5F5F5F5F5F5F5F5F5F5F5F5F5F5F5F5F5F5F5F5F5F5F5F5F5F5F5F5F5F5F5F5F5F5F5
310
F5F5F5F5F5F5F5F5F5F5F5F5E2F5F5F5F5F5F5F5F5F5F5F5F5F5F5F5F5F5F5F5F5F5E2E2F5F5F5F5F5F5F5F5F5F5F5F5F5F5F5F5F5F5F5F5F5E2F5F5F5F5F5F5F5F5F5F5F5F5F5F5F5F5F5F5F5F5F5F5F5F5F5F5F5F5F5F5F5F5F5F5F5F5F5F5F5F5F5F5F5F5F5F5F5F5F5F5F5F5F5F5F5F5F5F5F5F5F5F5F5F5F5F5F5F5F5
310
F5F5F5F5F5F5F5F5F5F5F5F5F5F5F5F5F5F5F5F5F5F5F5F5F5F5F5F5F5F5F5F5F5F5F5F5F5F5F5F5F5F5F5F5F5F5F5F5F5F5F5F5F5F5F5F5F5F5F5F5F5F5F5F5F5E2F5F5F5F5F5F5F5F5F5F5F5F5F5F5F5F5F5F5F5F5F5E2E2F5F5F5F5F5F5F5F5F5F5F5F5F5F5F5F5F5F5F5F5F5E2F5F5F5F5F5F5F5F5F5F5F5F5F5F5F5F5
310
F5F5F5F5F5F5F5F5F5F5F5F5F5F5F5F5F5F5F5F5F5F5F5F5F5F5F5F5F5F5F5F5F5F5F5F5F5F5F5F5F5F5F5F5F5F5F5F5F5F5F5F5F5F5F5F5F5F5F5F5F5F5F5F5F5F5F5F5F5F5F5F5F5F5F5F5F5F5F5F5F5F5F5F5F5F5F5F5F5F5F5F5F5F5F5F5F5F5F5F5F5F5F5F5F5F5F5F5F5F5F5F5F5F5F5F5F5F5E2F5F5F5F5F5F5F5F5
310
F5F5F5F5F5F5F5F5F5F5F5F5F5E2E2F5F5F5F5E2F5F5F5F5F5F5F5F5F5F5F5F5F5F5F5F5E2F5F5F5F5F5F5F5F5F5F5F5F5F5F5F5F5F5F5F5F5F5F5F5F5F5F5F5F5F5F5F5F5F5F5F5F5F5F5F5F5F5F5F5F5F5F5F5F5F5F5F5F5F5F5F5F5F5F5F5F5F5F5F5F5F5F5F5F5F5F5F5F5F5F5F5F5F5F5F5F5F5F5F5F5F5F5F5F5F5F5
310
F5F5F5F5F5F5F5F5F5F5F5F5F5F5F5F5F5F5F5F5F5F5F5F5F5F5F5F5F5F5F5F5F5F5F5F5F5F5F5F5F5F5F5F5E2F5F5F5F5F5F5F5F5F5F5F5F5F5F5F5F5E2F5F5F5F5E2E2F5F5F5F5E2F5F5F5F5F5F5F5F5F5F5F5F5F5F5F5F5E2F5F5F5F5F5F5F5F5F5F5F5F5F5F5F5F5F5F5F5F5F5F5F5F5F5F5F5F5F5F5F5F5F5F5F5F5F5
310
F5F5F5F5F5F5F5F5F5F5F5F5F5F5F5F5F5F5F5F5F5F5F5F5F5F5F5F5F5F5F5F5F5F5F5F5F5F5F5F5F5F5F5F5F5F5F5F5F5F5F5F5F5F5F5F5F5F5F5F5F5F5F5F5F5F5F5F5F5F5F5F5F5F5F5F5F5F5F5F5F5F5F5F5F5F5F5F5F5F5F5F5F5F5F5F5F5E2F5F5F5F5F5F5F5F5F5F5F5F5F5F5F5F5E2F5F5F5F5E2E2F5F5F5F5E2F5
310
F5F5F5F5F5F5F5F5F5F5F5F5F5F5F5E2F5F5F5F5F5F5F5F5F5F5F5F5F5F5F5F5F5F5F5F5F5F5F5F5F5F5F5F5F5F5F5F5F5F5F5F5F5F5F5F5F5F5F5F5F5F5F5F5F5F5F5F5F5F5F5F5F5F5F5F5F5F5F5F5F5F5F5F5F5F5F5F5F5F5F5F5F5F5F5F5F5F5F5F5F5F5F5F5F5F5F5F5F5F5F5F5F5F5F5F5F5F5F5F5F5F5F5F5F5F5F5
310
F5F5F5F5F5F5F5F5F5F5F5F5F5F5F5F5F5F5F5F5F5F5F5E2F5F5F5F5F5F5F5F5F5F5F5F5F5F5F5F5E2F5F5F5F5E2E2F5F5F5F5E2F5F5F5F5F5F5F5F5F5F5F5F5F5F5F5F5E2F5F5F5F5F5F5F5F5F5F5F5F5F5F5F5F5F5F5F5F5F5F5F5F5F5F5F5F5F5F5F5F5F5F5F5F5F5F5F5F5F5F5F5F5F5F5F5F5F5F5F5F5F5F5F5F5F5F5
310
F5F5F5F5F5F5F5F5F5F5F5F5F5F5F5F5F5F5F5F5F5F5F5F5F5F5F5F5F5F5F5F5F5F5F5F5F5F5F5F5F5F5F5F5F5F5F5F5F5F5F5F5F5F5F5F5F5F5F5F5F5F5F5F5F5F5F5F5F5F5F5F5F5F5F5F5E2F5F5F5F5F5F5F5F5F5F5F5F5F5F5F5F5E2F5F5F5F5E2E2F5F5F5F5E2F5F5F5F5F5F5F5F5F5F5F5F5F5F5F5F5E2F5F5F5F5F5
310
F5F5F5F5F5F5F5F5F5F5F5F5F5F5F5F5F5F5F5F5F5F5F5F5F5F5F5F5F5F5F5F5F5F5F5F5F5F5F5F5F5F5F5F5F5F5F5F5F5F5F5F5F5F5F5F5F5F5F5F5F5F5F5F5F5F5F5F5F5F5F5F5F5F5F5F5F5F5F5F5F5F5F5F5F5F5F5F5F5F5F5F5F5F5F5F5F5F5F5F5F5F5F5F5F5F5F5F5F5F5F5F5F5F5F5F5F5F5F5F5F5F5F5F5F5F5F5
310
F5F5E2F5F5F5F5F5F5F5F5F5F5F5F5F5F5F5F5E2F5F5F5F5E2E2F5F5F5F5E2F5F5F5F5F5F5F5F5F5F5F5F5F5F5F5F5E2F5F5F5F5F5F5F5F5F5F5F5F5F5F5F5F5F5F5F5F5F5F5F5F5F5F5F5F5F5F5F5F5F5F5F5F5F5F5F5F5F5F5F5F5F5F5F5F5F5F5F5F5F5F5F5F5F5F5F5F5F5F5F5F5F5F5F5F5F5F5F5F5F5F5F5F5F5F5F5
310
F5F5F5F5F5F5F5F5F5F5F5F5F5F5F5F5F5F5F5F5F5F5F5F5F5F5F5F5F5F5F5F5F5F5F5F5F5F5F5F5F5F5F5F5F5F5F5F5F5F5F5F5F5F5F5E2F5F5F5F5F5F5F5F5F5F5F5F5F5F5F5F5E2F5F5F5F5E2E2F5F5F5F5E2F5F5F5F5F5F5F5F5F5F5F5F5F5F5F5F5E2F5F5F5F5F5F5F5F5F5F5F5F5F5F5F5F5F5F5F5F5F5F5F5F5F5F5
310
F5F5F5F5F5F5F5F5F5F5F5F5F5F5F5F5F5F5F5F5F5F5F5F5F5F5F5F5F5F5F5F5F5F5F5F5F5F5F5F5F5F5F5F5F5F5F5F5F5F5F5F5F5F5F5F5F5F5F5F5F5F5F5F5F5F5F5F5F5F5F5F5F5F5F5F5F5F5F5F5F5F5F5F5F5F5F5F5F5F5F5F5F5F5F5F5F5F5F5F5F5F5F5F5F5F5F5F5E2F5F5F5F5F5F5F5F5F5F5F5F5F5F5F5F5E2F5
310
F5F5F5E2E2F5F5F5F5E2F5F5F5F5F5F5F5F5F5F5F5F5F5F5F5F5E2F5F5F5F5F5F5F5F5F5F5F5F5F5F5F5F5F5F5F5F5F5F5F5F5F5F5F5F5F5F5F5F5F5F5F5F5F5F5F5F5F5F5F5F5F5F5F5F5F5F5F5F5F5F5F5F5F5F5F5F5F5F5F5F5F5F5F5F5F5F5F5F5F5F5F5F5F5F5F5F5F5F5F5F5F5F5F5F5F5F5F5F5F5F5F5F5F5F5F5F5
310
F5F5F5F5F5F5F5F5F5F5F5F5F5F5F5F5F5F5F5F5F5F5F5F5F5F5F5F5F5F5F5F5F5F5E2F5F5F5F5F5F5F5F5F5F5F5F5F5F5F5F5E2F5F5F5F5E2E2F5F5F5F5E2F5F5F5F5F5F5F5F5F5F5F5F5F5F5F5F5E2F5F5F5F5F5F5F5F5F5F5F5F5F5F5F5F5F5F5F5F5F5F5F5F5F5F5F5F5F5F5F5F5F5F5F5F5F5F5F5F5F5F5F5F5F5F5F5
310
F5F5F5F5F5F5F5F5F5F5F5F5F5F5F5F5F5F5F5F5F5F5F5F5F5F5F5F5F5F5F5F5F5F5F5F5F5F5F5F5F5F5F5F5F5F5F5F5F5F5F5F5F5F5F5F5F5F5F5F5F5F5F5F5F5F5F5F5F5F5F5F5F5F5F5F5F5F5F5F5F5F5F5F5F5F5F5E2F5F5F5F5F5F5F5F5F5F5F5F5F5F5F5F5E2F5F5F5F5E2E2F5F5F5F5E2F5F5F5F5F5F5F5F5F5F5F5
310
F5F5F5F5F5E2F5F5F5F5F5F5F5F5F5F5F5F5F5F5F5F5F5F5F5F5F5F5F5F5F5F5F5F5F5F5F5F5F5F5F5F5F5F5F5F5F5F5F5F5F5F5F5F5F5F5F5F5F5F5F5F5F5F5F5F5F5F5F5F5F5F5F5F5F5F5F5F5F5F5F5F5F5F5F5F5F5F5F5F5F5F5F5F5F5F5F5F5F5F5F5F5F5F5F5F5F5F5F5F5F5F5F5F5F5F5F5F5F5F5F5F5F5F5F5F5F5
310
F5F5F5F5F5F5F5F5F5F5F5F5F5E2F5F5F5F5F5F5F5F5F5F5F5F5F5F5F5F5E2F5F5F5F5E2E2F5F5F5F5E2F5F5F5F5F5F5F5F5F5F5F5F5F5F5F5F5E2F5F5F5F5F5F5F5F5F5F5F5F5F5F5F5F5F5F5F5F5F5F5F5F5F5F5F5F5F5F5F5F5F5F5F5F5F5F5F5F5F5F5F5F5F5F5F5F5F5F5F5F5F5F5F5F5F5F5F5F5F5F5F5F5F5F5F5F5
310
F5F5F5F5F5F5F5F5F5F5F5F5F5F5F5F5F5F5F5F5F5F5F5F5F5F5F5F5F5F5F5F5F5F5F5F5F5F5F5F5F5F5F5F5F5F5F5F5F5F5F5F5F5F5F5F5F5F5F5F5F5F5F5F5F5F5E2F5F5F5F5F5F5F5F5F5F5F5F5F5F5F5F5E2F5F5F5F5E2E2F5F5F5F5E2F5F5F5F5F5F5F5F5F5F5F5F5F5F5F5F5E2F5F5F5F5F5F5F5F5F5F5F5F5F5F5F5
310
F5F5F5F5F5F5F5F5F5F5F5F5F5F5F5F5F5F5F5F5F5F5F5F5F5F5F5F5F5F5F5F5F5F5F5F5F5F5F5F5F5F5F5F5F5F5F5F5F5F5F5F5F5F5F5F5F5F5F5F5F5F5F5F5F5F5F5F5F5F5F5F5F5F5F5F5F5F5F5F5F5F5F5F5F5F5F5F5F5F5F5F5F5F5F5F5F5F5F5F5F5F5F5F5F5F5F5F5F5F5F5F5F5F5F5F5F5F5F5E2F5F5F5F5F5F5F5
310
F5F5F5F5F5F5F5F5F5E2F5F5F5F5E2E2F5F5F5F5E2F5F5F5F5F5F5F5F5F5F5F5F5F5F5F5F5E2F5F5F5F5F5F5F5F5F5F5F5F5F5F5F5F5F5F5F5F5F5F5F5F5F5F5F5F5F5F5F5F5F5F5F5F5F5F5F5F5F5F5F5F5F5F5F5F5F5F5F5F5F5F5F5F5F5F5F5F5F5F5F5F5F5F5F5F5F5F5F5F5F5F5F5F5F5F5F5F5F5F5F5F5F5F5F5F5F5
310
F5F5F5F5F5F5F5F5F5F5F5F5F5F5F5F5F5F5F5F5F5F5F5F5F5F5F5F5F5F5F5F5F5F5F5F5F5F5F5F5F5F5F5F5F5E2F5F5F5F5F5F5F5F5F5F5F5F5F5F5F5F5E2F5F5F5F5E2E2F5F5F5F5E2F5F5F5F5F5F5F5F5F5F5F5F5F5F5F5F5E2F5F5F5F5F5F5F5F5F5F5F5F5F5F5F5F5F5F5F5F5F5F5F5F5F5F5F5F5F5F5F5F5F5F5F5F5
310
F5F5F5F5F5F5F5F5F5F5F5F5F5F5F5F5F5F5F5F5F5F5F5F5F5F5F5F5F5F5F5F5F5F5F5F5F5F5F5F5F5F5F5F5F5F5F5F5F5F5F5F5F5F5F5F5F5F5F5F5F5F5F5F5F5F5F5F5F5F5F5F5F5F5F5F5F5F5F5F5F5F5F5F5F5F5F5F5F5F5F5F5F5F5F5F5F5F5E2F5F5F5F5F5F5F5F5F5F5F5F5F5F5F5F5E2F5F5F5F5E2E2F5F5F5F5E2
310
F5F5F5F5F5F5F5F5F5F5F5F5F5F5F5F5E2F5F5F5F5F5F5F5F5F5F5F5F5F5F5F5F5F5F5F5F5F5F5F5F5F5F5F5F5F5F5F5F5F5F5F5F5F5F5F5F5F5F5F5F5F5F5F5F5F5F5F5F5F5F5F5F5F5F5F5F5F5F5F5F5F5F5F5F5F5F5F5F5F5F5F5F5F5F5F5F5F5F5F5F5F5F5F5F5F5F5F5F5F5F5F5F5F5F5F5F5F5F5F5F5F5F5F5F5F5F5
310
F5F5F5F5F5F5F5F5F5F5F5F5F5F5F5F5F5F5F5F5F5F5F5F5E2F5F5F5F5F5F5F5F5F5F5F5F5F5F5F5F5E2F5F5F5F5E2E2F5F5F5F5E2F5F5F5F5F5F5F5F5F5F5F5F5F5F5F5F5E2F5F5F5F5F5F5F5F5F5F5F5F5F5F5F5F5F5F5F5F5F5F5F5F5F5F5F5F5F5F5F5F5F5F5F5F5F5F5F5F5F5F5F5F5F5F5F5F5F5F5F5F5F5F5F5F5F5
310
F5F5F5F5F5F5F5F5F5F5F5F5F5F5F5F5F5F5F5F5F5F5F5F5F5F5F5F5F5F5F5F5F5F5F5F5F5F5F5F5F5F5F5F5F5F5F5F5F5F5F5F5F5F5F5F5F5F5F5F5F5F5F5F5F5F5F5F5F5F5F5F5F5F5F5F5F5E2F5F5F5F5F5F5F5F5F5F5F5F5F5F5F5F5E2F5F5F5F5E2E2F5F5F5F5F5F5F5F5F5F5F5F5F5F5F5F5F5F5F5F5F5E2F5F5F5F5
310
F5F5F5F5F5F5F5F5F5F5F5F5F5F5F5F5F5F5F5F5F5F5F5F5F5F5F5F5F5F5F5F5F5F5F5F5F5F5F5F5F5F5F5F5F5F5F5F5F5F5F5F5F5F5F5F5F5F5F5F5F5F5F5F5F5F5F5F5F5F5F5F5F5F5F5F5F5F5F5F5F5F5F5F5F5F5F5F5F5F5F5F5F5F5F5F5F5F5F5F5F5F5F5F5F5F5F5F5F5F5F5F5F5F5F5F5F5F5F5F5F5F5F5F5F5F5F5
310
F5F5F5E2F5F5F5F5F5F5F5F5F5F5F5F5F5F5F5F5F5F5F5F5F5E2E2F5F5F5F5F5F5F5F5F5F5F5F5F5F5F5F5F5F5F5F5F5E2F5F5F5F5F5F5F5F5F5F5F5F5F5F5F5F5F5F5F5F5F5F5F5F5F5F5F5F5F5F5F5F5F5F5F5F5F5F5F5F5F5F5F5F5F5F5F5F5F5F5F5F5F5F5F5F5F5F5F5F5F5F5F5F5F5F5F5F5F5F5F5F5F5F5F5F5F5F5
310
F5F5F5F5F5F5F5F5F5F5F5F5F5F5F5F5F5F5F5F5F5F5F5F5F5F5F5F5F5F5F5F5F5F5F5F5F5F5F5F5F5F5F5F5F5F5F5F5F5F5F5F5F5F5F5F5E2F5F5F5F5F5F5F5F5F5F5F5F5F5F5F5F5F5F5F5F5F5E2E2F5F5F5F5F5F5F5F5F5F5F5F5F5F5F5F5F5F5F5F5F5E2F5F5F5F5F5F5F5F5F5F5F5F5F5F5F5F5F5F5F5F5F5F5F5F5F5
310
F5F5F5F5F5F5F5F5F5F5F5F5F5F5F5F5F5F5F5F5F5F5F5F5F5F5F5F5F5F5F5F5F5F5F5F5F5F5F5F5F5F5F5F5F5F5F5F5F5F5F5F5F5F5F5F5F5F5F5F5F5F5F5F5F5F5F5F5F5F5F5F5F5F5F5F5F5F5F5F5F5F5F5F5F5F5F5F5F5F5F5F5F5F5F5F5F5F5F5F5F5F5F5F5F5F5F5F5F5E2F5F5F5F5F5F5F5F5F5F5F5F5F5F5F5F5F5
310
F5F5F5F5E2E2F5F5F5F5F5F5F5F5F5F5F5F5F5F5F5F5F5F5F5F5F5E2F5F5F5F5F5F5F5F5F5F5F5F5F5F5F5F5F5F5F5F5F5F5F5F5F5F5F5F5F5F5F5F5F5F5F5F5F5F5F5F5F5F5F5F5F5F5F5F5F5F5F5F5F5F5F5F5F5F5F5F5F5F5F5F5F5F5F5F5F5F5F5F5F5F5F5F5F5F5F5F5F5F5F5F5F5F5F5F5F5F5F5F5F5F5F5F5F5F5F5
310
F5F5F5F5F5F5F5F5F5F5F5F5F5F5F5F5F5F5F5F5F5F5F5F5F5F5F5F5F5F5F5F5F5F5F5E2F5F5F5F5F5F5F5F5F5F5F5F5F5F5F5F5F5F5F5F5F5E2E2F5F5F5F5F5F5F5F5F5F5F5F5F5F5F5F5F5F5F5F5F5E2E2E2E2E2E2E2E2E2E2E2E2E2E2E2E2E2E2E2E2E2E2E2E2E2E2E2E2E2E2E2E2E2E2E2E2E2E2E2E2E2E2E2E2E2E2E2
310
E2E2E2E2E2E2E2E2E2E2E2E2E2E2E2E2E2E2E2E2E2E2E2E2E2E2E2E2E2E2E2E2E2E2E2E2E2E2E2E2E2E2E2E2E2E2E2E2E2E2E2E2E2E2E2E2E2E2E2E2E2E2E2E2E2E2E2E2E2E2E2E2E2E2E2E2E2E2E2E2E2E2E2E2E2E2E2E2E2F5F5F5F5F5F5F5F5F5F5F5F5F5F5F5F5F5F5F5F5F5E2E2F5F5F5F5F5F5F5F5F5F5F5F5F5F5F5
310
F5F5F5F5F5F5F5F5F5F5F5F5F5F5F5F5F5F5F5F5F5F5F5F5F5F5F5F5F5F5F5F5F5F5F5F5F5F5F5F5F5F5F5F5F5F5F5F5F5F5F5F5F5F5F5F5F5F5F5F5F5F5F5F5F5F5F5F5F5F5F5F5F5F5F5F5F5F5F5F5F5F5F5F5F5F5F5F5F5F5F5F5F5F5F5F5F5F5F5F5F5F5F5F5F5F5F5F5F5F5F5F5F5F5F5F5F5F5F5F5F5F5F5F5F5F5F5
310
F5F5F5F5F5F5F5F5F5F5F5F5F5F5F5F5F5F5F5F5F5F5F5F5F5F5F5F5F5F5F5F5F5F5F5F5E2E2F5F5F5F5F5F5F5F5F5F5F5F5F5F5F5F5F5F5F5F5F5F5F5F5F5F5F5F5F5F5F5F5F5F5F5F5F5F5F5F5F5F5F5F5F5F5F5F5F5F5F5F5F5F5F5F5F5F5F5F5F5F5F5F5F5F5F5F5F5F5F5F5F5F5F5F5F5F5F5F5F5F5F5F5F5F5F5F5F5
310
F5F5F5F5F5F5F5F5F5F5F5F5F5F5F5F5F5F5F5F5F5F5F5F5F5F5F5F5F5F5F5F5F5F5F5F5F5F5F5F5F5F5F5F5F5F5F5F5F5F5F5F5F5F5F5F5F5F5F5F5F5F5F5F5F5F5F5F5F5F5F5F5F5F5F5F5F5F5F5F5F5F5F5F5F5F5F5F5F5E2E2F5F5F5F5F5F5F5F5F5F5F5F5F5F5F5F5F5F5F5F5F5F5F5F5F5F5F5F5F5F5F5F5F5F5F5F5
310
F5F5F5F5F5F5F5F5F5F5F5F5F5F5F5F5F5F5F5F5F5F5F5F5F5F5F5F5F5F5F5F5F5F5F5F5F5F5F5F5F5F5F5F5F5F5F5F5F5F5F5F5F5F5F5F5F5F5F5F5F5F5F5F5F5F5F5F5F5F5F5F5F5F5F5F5F5F5F5F5F5F5F5F5F5F5F5F5F5F5F5F5F5F5F5F5F5F5F5F5F5F5F5F5F5F5F5F5F5F5F5F5F5F5F5F5F5F5F5F5F5F5F5F5F5F5F5
310
F5F5F5F5F5F5F5F5F5F5F5F5F5F5F5E2E2F5F5F5F5F5F5F5F5F5F5F5F5F5F5F5F5F5F5F5F5F5F5F5F5F5F5F5F5F5F5F5F5F5F5F5F5F5F5F5F5F5F5F5F5F5F5F5F5F5F5F5F5F5F5F5F5F5F5F5F5F5F5F5F5F5F5F5F5F5F5F5F5F5F5F5F5F5F5F5F5F5F5F5F5F5F5F5F5F5F5F5F5F5F5F5F5F5F5F5F5F5F5F5F5F5F5F5F5F5F5
310
F5F5F5F5F5F5F5F5F5F5F5F5F5F5F5F5F5F5F5F5F5F5F5F5F5F5F5F5F5F5F5F5F5F5F5F5F5F5F5F5F5F5F5F5F5F5F5F5F5F5F5F5F5F5F5F5F5F5F5F5F5F5F5F5F5F5F5F5E2E2F5F5F5F5E2F5F5F5F5F5F5F5F5F5F5F5F5F5F5F5F5F5F5F5F5F5F5F5F5F5F5F5F5F5F5F5F5F5F5F5F5F5F5F5F5F5F5F5F5F5F5F5F5F5F5F5F5
310
F5F5F5F5F5F5F5F5F5F5F5F5F5F5F5F5F5F5F5F5F5F5F5F5F5F5F5F5F5F5F5F5F5F5F5F5F5F5F5F5F5F5F5F5F5F5F5F5F5F5F5F5F5F5F5F5F5F5F5F5F5F5F5F5F5F5F5F5F5F5F5F5F5F5F5F5F5F5F5F5F5F5F5F5F5F5F5F5F5F5F5F5F5F5F5F5F5F5F5F5F5F5F5F5F5F5F5F5F5F5F5F5F5F5F5F5E2F5F5F5F5E2E2F5F5F5F5
310
E2F5F5F5F5F5F5F5F5F5F5F5F5F5F5F5F5F5F5F5F5F5F5F5F5F5F5F5F5F5F5F5F5F5F5F5F5F5F5F5F5F5F5F5F5F5F5F5F5F5F5F5F5F5F5F5F5F5F5F5F5F5F5F5F5F5F5F5F5F5F5F5F5F5F5F5F5F5F5F5F5F5F5F5F5F5F5F5F5F5F5F5F5F5F5F5F5F5F5F5F5F5F5F5F5F5F5F5F5F5F5F5F5F5F5F5F5F5F5F5F5F5F5F5F5F5F5
310
F5F5F5F5F5F5F5F5F5F5F5F5F5F5F5F5F5F5F5F5F5F5F5F5F5F5F5F5F5F5F5F5F5F5F5F5F5F5F5F5F5F5E2F5F5F5F5E2E2F5F5F5F5E2F5F5F5F5F5F5F5F5F5F5F5F5F5F5F5F5F5F5F5F5F5F5F5F5F5F5F5F5F5F5F5F5F5F5F5F5F5F5F5F5F5F5F5F5F5F5F5F5F5F5F5F5F5F5F5F5F5F5F5F5F5F5F5F5F5F5F5F5F5F5F5F5F5
310
F5F5F5F5F5F5F5F5F5F5F5F5F5F5F5F5F5F5F5F5F5F5F5F5F5F5F5F5F5F5F5F5F5F5F5F5F5F5F5F5F5F5F5F5F5F5F5F5F5F5F5F5F5F5F5F5F5F5F5F5F5F5F5F5F5F5F5F5F5F5F5F5F5F5F5F5F5F5F5F5F5F5F5F5F5F5F5F5F5F5F5F5F5F5F5E2F5F5F5F5E2E2F5F5F5F5E2F5F5F5F5F5F5F5F5F5F5F5F5F5F5F5F5F5F5F5F5
310
F5F5F5F5F5F5F5F5F5F5F5F5F5F5F5F5F5F5F5F5F5F5F5F5F5F5F5F5F5F5F5F5F5F5F5F5F5F5F5F5F5F5F5F5F5F5F5F5F5F5F5F5F5F5F5F5F5F5F5F5F5F5F5F5F5F5F5F5F5F5F5F5F5F5F5F5F5F5F5F5F5F5F5F5F5F5F5F5F5F5F5F5F5F5F5F5F5F5F5F5F5F5F5F5F5F5F5F5F5F5F5F5F5F5F5F5F5F5F5F5F5F5F5F5F5F5F5
310
F5F5F5F5F5F5F5F5F5F5F5F5F5F5F5F5F5F5F5F5F5E2F5F5F5F5E2E2F5F5F5F5E2F5F5F5F5F5F5F5F5F5F5F5F5F5F5F5F5F5F5F5F5F5F5F5F5F5F5F5F5F5F5F5F5F5F5F5F5F5F5F5F5F5F5F5F5F5F5F5F5F5F5F5F5F5F5F5F5F5F5F5F5F5F5F5F5F5F5F5F5F5F5F5F5F5F5F5F5F5F5F5F5F5F5F5F5F5F5F5F5F5F5F5F5F5F5
310
F5F5F5F5F5F5F5F5F5F5F5F5F5F5F5F5F5F5F5F5F5F5F5F5F5F5F5F5F5F5F5F5F5F5F5F5F5F5F5F5F5F5F5F5F5F5F5F5F5F5F5F5F5F5F5F5F5F5F5F5F5F5F5F5F5F5F5F5F5F5F5F5F5F5E2F5F5F5F5E2E2F5F5F5F5E2F5F5F5F5F5F5F5F5F5F5F5F5F5F5F5F5F5F5F5F5F5F5F5F5F5F5F5F5F5F5F5F5F5F5F5F5F5F5F5F5F5
310
F5F5F5F5F5F5F5F5F5F5F5F5F5F5F5F5F5F5F5F5F5F5F5F5F5F5F5F5F5F5F5F5F5F5F5F5F5F5F5F5F5F5F5F5F5F5F5F5F5F5F5F5F5F5F5F5F5F5F5F5F5F5F5F5F5F5F5F5F5F5F5F5F5F5F5F5F5F5F5F5F5F5F5F5F5F5F5F5F5F5F5F5F5F5F5F5F5F5F5F5F5F5F5F5F5F5F5F5F5F5F5F5F5F5F5F5F5F5F5F5F5F5F5F5F5F5F5
310
E2F5F5F5F5E2E2F5F5F5F5E2F5F5F5F5F5F5F5F5F5F5F5F5F5F5F5F5F5F5F5F5F5F5F5F5F5F5F5F5F5F5F5F5F5F5F5F5F5F5F5F5F5F5F5F5F5F5F5F5F5F5F5F5F5F5F5F5F5F5F5F5F5F5F5F5F5F5F5F5F5F5F5F5F5F5F5F5F5F5F5F5F5F5F5F5F5F5F5F5F5F5F5F5F5F5F5F5F5F5F5F5F5F5F5F5F5F5F5F5F5F5F5F5F5F5F5
310
F5F5F5F5F5F5F5F5F5F5F5F5F5F5F5F5F5F5F5F5F5F5F5F5F5F5F5F5F5F5F5F5F5F5F5F5F5F5F5F5F5F5F5F5F5F5F5F5F5F5F5F5F5E2F5F5F5F5E2E2F5F5F5F5E2F5F5F5F5F5F5F5F5F5F5F5F5F5F5F5F5F5F5F5F5F5F5F5F5F5F5F5F5F5F5F5F5F5F5F5F5F5F5F5F5F5F5F5F5F5F5F5F5F5F5F5F5F5F5F5F5F5F5F5F5F5F5
310
F5F5F5F5F5F5F5F5F5F5F5F5F5F5F5F5F5F5F5F5F5F5F5F5F5F5F5F5F5F5F5F5F5F5F5F5F5F5F5F5F5F5F5F5F5F5F5F5F5F5F5F5F5F5F5F5F5F5F5F5F5F5F5F5F5F5F5F5F5F5F5F5F5F5F5F5F5F5F5F5F5F5F5F5F5F5F5F5F5F5F5F5F5F5F5F5F5F5F5F5F5F5F5F5F5F5E2F5F5F5F5E2E2F5F5F5F5E2E2E2E2E2E2E2E2F5F5
310
F5F5F5F5F5F5F5E2E2E2E2E2E2E2E2E2E2E2E2E2E2E2F5F5F5F5F5F5F5F5F5E2E2E2E2E2E2E2E2E2E2E2E2E2E2E2E2F5F5F5F5F5F5F5F5E2E2E2E2E2E2E2E2E2E2E2E2E2E2E2E2F5F5F5F5F5F5F5F5E2E2E2E2E2E2E2E2E2E2E2E2E2E2E2E2F5F5F5F5F5F5F5F5E2E2E2E2E2E2E2E2E2E2E2E2E2E2E2E2F5F5F5F5F5F5F5F5
310
F5E2E2E2E2E2E2E2E2E2E2E2E2E2E2E2F5F5F5F5F5F5F5F5F5E2E2E2E2E2E2E2E2F5F5F5F5E2E2F5F5F5F5F5F5F5F5F5F5F5F5F5F5F5F5F5F5F5F5F5F5F5F5F5F5F5F5F5F5F5F5F5F5F5F5F5F5F5F5F5F5F5F5F5F5F5F5F5F5F5F5F5F5F5F5F5F5F5F5F5F5F5F5F5F5F5F5F5F5F5F5F5F5F5F5F5F5F5F5F5F5F5F5F5F5F5F5
310
F5F5F5F5F5F5F5F5F5F5F5F5F5F5F5F5F5F5F5F5F5F5F5F5F5F5F5F5F5F5F5F5F5F5F5F5F5F5F5F5F5F5F5F5F5F5F5F5F5F5F5F5F5F5F5F5F5F5F5F5F5F5F5F5F5F5F5F5F5F5F5F5F5F5F5F5F5F5F5F5F5F5F5F5F5F5F5F5F5F5E2E2F5F5F5F5F5F5F5F5F5F5F5F5F5F5F5F5F5F5F5F5F5F5F5F5F5F5F5F5F5F5F5F5F5F5F5
310
F5F5F5F5F5F5F5F5F5F5F5F5F5F5F5F5F5F5F5F5F5F5F5F5F5F5F5F5F5F5F5F5F5F5F5F5F5F5F5F5F5F5F5F5F5F5F5F5F5F5F5F5F5F5F5F5F5F5F5F5F5F5F5F5F5F5F5F5F5F5F5F5F5F5F5F5F5F5F5F5F5F5F5F5F5F5F5F5F5F5F5F5F5F5F5F5F5F5F5F5F5F5F5F5F5F5F5F5F5F5F5F5F5F5F5F5F5F5F5F5F5F5F5F5F5F5F5
310
F5F5F5F5F5F5F5F5F5F5F5F5F5F5F5F5E2E2F5F5F5F5F5F5F5F5F5F5F5F5F5F5F5F5F5F5F5F5F5F5F5F5F5F5F5F5F5F5F5F5F5F5F5F5F5F5F5F5F5F5F5F5F5F5F5F5F5F5F5F5F5F5F5F5F5F5F5F5F5F5F5F5F5F5F5F5F5F5F5F5F5F5F5F5F5F5F5F5F5F5F5F5F5F5F5F5F5F5F5F5F5F5F5F5F5F5F5F5F5F5F5F5F5F5F5F5F5
310
F5F5F5F5F5F5F5F5F5F5F5F5F5F5F5F5F5F5F5F5F5F5F5F5F5F5F5F5F5F5F5F5F5F5F5F5F5F5F5F5F5F5F5F5F5F5F5F5F5F5F5F5F5F5F5F5F5F5F5F5F5F5F5F5F5F5F5F5F5E2E2E2E2E2E2E2E2E2E2E2E2E2E2E2E2E2E2E2E2E2E2E2E2E2E2E2E2E2E2E2E2E2E2E2E2E2E2E2E2E2E2E2E2E2E2E2E2E2E2E2E2E2E2E2E2E2E2
310
E2E2E2E2E2E2E2E2E2E2E2E2E2E2E2E2E2E2E2E2E2E2E2E2E2E2E2E2E2E2E2E2E2E2E2E2E2E2E2E2E2E2E2E2E2E2E2E2E2E2E2E2E2E2E2E2E2E2E2E2E2E2E2E2E2E2E2E2E2E2E2E2E2E2E2E2E2E2E2E2E2E2E2E2E2E2E2E2E2E2E2E2E2E2E2E2E2E2E2E2E2E2E2E2E2E2E2E2E2E2E2E2E2E2E2E2E2E2E2E2E2E2E2EFEFEFEF
310
EFEFEFEFEFEFEFEFEFEFEFEFEFEFEFEFEFEFEFEFEFEFEFEFEFEFEFEFEFEFEFEFEFEFEFEFEFEFEFEFEFEFEFEFEFEFEFEFEFEFEFEFEFEFEFEFEFEFEFEFEFEFEFEFEFEFEFEFEFEFEFEFEFEFEFEFEFEFEFEFEFEFEFEFEFEFEFEFEFEFEFEFEFEFEFEFEFEFEFEFEFEFEFEFEFEFEFEFEFEFEFEFEFEFEFEFEFEFEFEFEFEFEFEFEFEFEF
310
EFEFEFEFEFEFEFEFEFEFEFEFEFEFEFEFEFEFEFEFEFEFEFEFEFEFEFEFEFEFEFEFEFEFEFEFEFEFEFEFEFEFEFEFEFEFEFEFEF
  0
XRECORD
  5
60482
102
{ACAD_REACTORS
330
B5
102
}
330
B5
100
AcDbXrecord
280
     1
102
SHADEPLOT
 70
     0
102
SHADEPLOTRESLEVEL
 70
     2
102
SHADEPLOTCUSTOMDPI
 70
   300
  0
XRECORD
  5
B6
102
{ACAD_REACTORS
330
B5
102
}
330
B5
100
AcDbXrecord
280
     1
310
28000000B40000008B0000000100080000000000BC610000000000000000000000010000000000000000000000000000FFFFFF000000000000000000000000000000000000000000000000000000000000000000330000006600000099000000CC000000FF00000000330000333300006633000099330000CC330000FF3300
310
0000660000336600006666000099660000CC660000FF66000000990000339900006699000099990000CC990000FF99000000CC000033CC000066CC000099CC0000CCCC0000FFCC000000FF000033FF000066FF000099FF0000CCFF0000FFFF000000003300330033006600330099003300CC003300FF003300003333003333
310
33006633330099333300CC333300FF33330000663300336633006666330099663300CC663300FF66330000993300339933006699330099993300CC993300FF99330000CC330033CC330066CC330099CC3300CCCC3300FFCC330000FF330033FF330066FF330099FF3300CCFF3300FFFF330000006600330066006600660099
310
006600CC006600FF00660000336600333366006633660099336600CC336600FF33660000666600336666006666660099666600CC666600FF66660000996600339966006699660099996600CC996600FF99660000CC660033CC660066CC660099CC6600CCCC6600FFCC660000FF660033FF660066FF660099FF6600CCFF6600
310
FFFF660000009900330099006600990099009900CC009900FF00990000339900333399006633990099339900CC339900FF33990000669900336699006666990099669900CC669900FF66990000999900339999006699990099999900CC999900FF99990000CC990033CC990066CC990099CC9900CCCC9900FFCC990000FF99
310
0033FF990066FF990099FF9900CCFF9900FFFF99000000CC003300CC006600CC009900CC00CC00CC00FF00CC000033CC003333CC006633CC009933CC00CC33CC00FF33CC000066CC003366CC006666CC009966CC00CC66CC00FF66CC000099CC003399CC006699CC009999CC00CC99CC00FF99CC0000CCCC0033CCCC0066CC
310
CC0099CCCC00CCCCCC00FFCCCC0000FFCC0033FFCC0066FFCC0099FFCC00CCFFCC00FFFFCC000000FF003300FF006600FF009900FF00CC00FF00FF00FF000033FF003333FF006633FF009933FF00CC33FF00FF33FF000066FF003366FF006666FF009966FF00CC66FF00FF66FF000099FF003399FF006699FF009999FF00CC
310
99FF00FF99FF0000CCFF0033CCFF0066CCFF0099CCFF00CCCCFF00FFCCFF0000FFFF0033FFFF0066FFFF0099FFFF00CCFFFF00FFFFFF00000000000D0D0D001A1A1A00282828003535350043434300505050005D5D5D006B6B6B00787878008686860093939300A1A1A100AEAEAE00BBBBBB00C9C9C900D6D6D600E4E4E400
310
F1F1F100FFFFFF0000000000000000000000000000000000000000000000000000000000000000000000000000000000F5F5F5F5F5F5F5F5F5F5F5F5F5F5F5F5F5F5F5F5F5F5F5F5F5F5F5F5F5F5F5F5F5F5F5F5F5F5F5F5F5F5F5F5F5F5F5F5F5F5F5F5F5F5F5F5F5F5F5F5F5F5F5F5F5F5F5F5F5F5F5F5F5F5F5F5F5F5F5
310
F5F5F5F5F5F5F5F5F5F5F5F5F5F5F5F5F5F5F5F5F5F5F5F5F5F5F5F5F5F5F5F5F5F5F5F5F5F5F5F5F5F5F5F5F5F5F5F5F5F5F5F5F5F5F5F5F5F5F5F5F5F5F5F5F5F5F5F5F5F5F5F5F5F5F5F5F5F5F5F5F5F5F5F5F5F5F5F5F5F5F5F5F5F5F5F5F5F5F5F5F5F5E2E2E2E2E2E2E2E2E2E2E2E2E2E2E2E2E2E2E2E2E2E2E2E2E2
310
E2E2E2E2E2E2E2E2E2E2E2E2E2E2E2E2E2E2E2E2E2E2E2E2E2E2E2E2E2E2E2E2E2E2E2E2E2E2E2E2E2E2E2E2E2E2E2E2E2E2E2E2E2E2E2E2E2E2E2E2E2E2E2E2E2E2E2E2E2E2E2E2E2E2E2E2E2E2E2E2E2E2E2E2E2E2E2E2E2E2E2E2E2E2E2E2E2E2E2E2E2E2E2E2E2E2E2E2E2E2E2E2E2E2E2E2E2E2E2E2E2E2E2E2E2E2E2
310
E2E2E2E2E2E2E2E2E2E2E2E2E2E2E2E2E2E2E2E2E2E2E2E2E2E2F5F5E2E2E2E2E2E2E2E2E2E2E2E2E2E2E2E2E2E2E2E2E2E2E2E2E2E2E2E2E2E2E2E2E2E2E2E2E2E2E2E2E2E2E2E2E2E2E2E2E2E2E2E2E2E2E2E2E2E2E2E2E2E2E2E2E2E2E2E2E2E2E2E2E2E2E2E2E2E2E2E2E2E2E2E2E2E2E2E2E2E2E2E2E2E2E2E2E2E2E2
310
E2E2E2E2E2E2E2E2E2E2E2E2E2E2E2E2E2E2E2E2E2E2E2E2E2E2E2E2E2E2E2E2E2E2E2E2E2E2E2E2E2E2E2E2E2E2E2E2E2E2E2E2E2E2E2E2E2E2E2E2E2E2E2E2E2E2E2E2E2E2E2E2E2E2E2E2E2E2E2F5F5E2E2E2E2E2E2E2E2E2E2E2E2E2E2E2E2E2E2E2E2E2E2E2E2E2E2E2E2E2E2E2E2E2E2E2E2E2E2E2E2E2E2E2E2E2E2
310
E2E2E2E2E2E2E2E2E2E2E2E2E2E2E2E2E2E2E2E2E2E2E2E2E2E2E2E2E2E2E2E2E2E2E2E2E2E2E2E2E2E2E2E2E2E2E2E2E2E2E2E2E2E2E2E2E2E2E2E2E2E2E2E2E2E2E2E2E2E2E2E2E2E2E2E2E2E2E2E2E2E2E2E2E2E2E2E2E2E2E2E2E2E2E2E2E2E2E2E2E2E2E2E2E2E2E2E2E2E2E2E2E2E2E2E2E2E2E2E2E2E2E2E2E2E2E2
310
E2E2E2E2E2F5F5E2E2E2E2E2E2E2E2E2E2E2E2E2E2E2E2E2E2E2E2E2E2E2E2E2E2E2E2E2E2E2E2E2E2E2E2E2E2E2E2E2E2E2E2E2E2E2E2E2E2E2E2E2E2E2E2E2E2E2E2E2E2E2E2E2E2E2E2E2E2E2E2E2E2E2E2E2E2E2E2E2E2E2E2E2E2E2E2E2E2E2E2E2E2E2E2E2E2E2E2E2E2E2E2E2E2E2E2E2E2E2E2E2E2E2E2E2E2E2E2
310
E2E2E2E2E2E2E2E2E2E2E2E2E2E2E2E2E2E2E2E2E2E2E2E2E2E2E2E2E2E2E2E2E2E2E2E2E2E2E2E2E2E2E2E2E2E2E2E2E2E2E2E2E2E2E2E2E2E2F5F5E2E2E2F5F5F5F5F5F5F5F5E2E2E2E2E2E2E2E2E2F5F5F5F5F5F5F5F5F5F5F5F5F5F5F5F5E2E2E2E2E2E2E2E2E2F5F5F5F5F5F5F5F5F5F5F5F5F5F5F5E2E2E2E2E2E2E2
310
E2E2F5F5F5F5F5F5F5F5F5F5F5F5F5F5F5F5E2E2E2E2E2E2E2E2F5F5F5F5F5F5F5F5F5F5F5F5F5F5F5F5E2E2E2E2E2E2E2E2E2F5F5F5F5F5F5F5F5F5F5F5F5F5F5F5E2E2E2E2E2E2E2E2E2F5F5F5F5F5F5F5F5F5F5F5F5F5F5F5F5E2E2E2E2E2E2E2E2E2F5F5F5F5F5F5F5F5E2E2E2F5F5E2E2E2F5E2E2E2E2E2E2E2E2E2E2
310
E2E2E2E2E2E2E2E2E2E2E2E2E2E2E2E2E2E2E2E2E2E2E2E2E2E2E2E2E2E2E2E2E2E2E2E2E2E2E2E2E2E2E2E2E2E2E2E2E2E2E2E2E2E2E2E2E2E2E2E2E2E2E2E2E2E2E2E2E2E2E2E2E2E2E2E2E2E2E2E2E2E2E2E2E2E2E2E2E2E2E2E2E2E2E2E2E2E2E2E2E2E2E2E2E2E2E2E2E2E2E2E2E2E2E2E2E2E2E2E2E2E2E2E2E2E2E2
310
E2E2E2E2E2E2E2E2E2E2E2E2E2E2E2E2E2E2E2E2E2E2E2E2E2E2E2E2E2E2E2E2E2F5E2E2E2F5F5E2E2E2F5E2E2E2E2E2E2E2E2E2E2E2E2E2E2E2E2E2E2E2E2E2E2E2E2E2E2E2E2E2E2E2E2E2E2E2E2E2E2E2E2E2E2E2E2E2E2E2E2E2E2E2E2E2E2E2E2E2E2E2E2E2E2E2E2E2E2E2E2E2E2E2E2E2E2E2E2E2E2E2E2E2E2E2E2
310
E2E2E2E2E2E2E2E2E2E2E2E2E2E2E2E2E2E2E2E2E2E2E2E2E2E2E2E2E2E2E2E2E2E2E2E2E2E2E2E2E2E2E2E2E2E2E2E2E2E2E2E2E2E2E2E2E2E2E2E2E2E2E2E2E2E2E2E2E2E2E2E2E2E2E2E2E2E2E2E2E2E2E2E2E2E2F5E2E2E2F5F5E2E2E2F5E2E2E2E2E2E2E2E2E2E2E2E2E2E2E2E2E2E2E2E2E2E2E2E2E2E2E2E2E2E2E2
310
E2E2E2E2E2E2E2E2E2E2E2E2E2E2E2E2E2E2E2E2E2E2E2E2E2E2E2E2E2E2E2E2E2E2E2E2E2E2E2E2E2E2E2E2E2E2E2E2E2E2E2E2E2E2E2E2E2E2E2E2E2E2E2E2E2E2E2E2E2E2E2E2E2E2E2E2E2E2E2E2E2E2E2E2E2E2E2E2E2E2E2E2E2E2E2E2E2E2E2E2E2E2E2E2E2E2E2E2E2E2E2E2E2E2E2E2E2E2E2E2E2E2E2E2E2E2E2
310
E2E2E2E2E2E2E2E2E2E2E2E2F5E2E2E2F5F5E2E2E2F5E2E2E2E2E2E2E2E2E2E2E2E2E2E2E2E2E2E2E2E2E2E2E2E2E2E2E2E2E2E2E2E2E2E2E2E2E2E2E2E2E2E2E2E2E2E2E2E2E2E2E2E2E2E2E2E2E2E2E2E2E2E2E2E2E2E2E2E2E2E2E2E2E2E2E2E2E2E2E2E2E2E2E2E2E2E2E2E2E2E2E2E2E2E2E2E2E2E2E2E2E2E2E2E2E2
310
E2E2E2E2E2E2E2E2E2E2E2E2E2E2E2E2E2E2E2E2E2E2E2E2E2E2E2E2E2E2E2E2E2E2E2E2E2E2E2E2E2E2E2E2E2E2E2E2E2E2E2E2E2E2E2E2E2E2E2E2E2E2E2E2E2F5E2E2E2F5F5E2E2E2F5E2E2E2E2E2E2E2E2E2E2E2E2E2E2E2E2E2E2E2E2E2E2E2E2E2E2E2E2E2E2E2E2E2E2E2E2E2E2E2E2E2E2E2E2E2E2E2E2E2E2E2E2
310
E2E2E2E2E2E2E2E2E2E2E2E2E2E2E2E2E2E2E2E2E2E2E2E2E2E2E2E2E2E2E2E2E2E2E2E2E2E2E2E2E2E2E2E2E2E2E2E2E2E2E2E2E2E2E2E2E2E2E2E2E2E2E2E2E2E2E2E2E2E2E2E2E2E2E2E2E2E2E2E2E2E2E2E2E2E2E2E2E2E2E2E2E2E2E2E2E2E2E2E2E2E2E2E2E2E2E2E2E2E2E2E2E2E2E2E2E2E2F5E2E2E2F5F5E2E2E2
310
F5E2E2E2E2E2E2E2E2E2E2E2E2E2E2E2E2E2E2E2E2E2E2E2E2E2E2E2E2E2E2E2E2E2E2E2E2E2E2E2E2E2E2E2E2E2E2E2E2E2E2E2E2E2E2E2E2E2E2E2E2E2E2E2E2E2E2E2E2E2E2E2E2E2E2E2E2E2E2E2E2E2E2E2E2E2E2E2E2E2E2E2E2E2E2E2E2E2E2E2E2E2E2E2E2E2E2E2E2E2E2E2E2E2E2E2E2E2E2E2E2E2E2E2E2E2E2
310
E2E2E2E2E2E2E2E2E2E2E2E2E2E2E2E2E2E2E2E2E2E2E2E2E2E2E2E2E2E2E2E2E2E2E2E2E2E2E2E2E2E2E2E2F5E2E2E2F5F5E2E2E2F5E2E2E2E2E2E2E2E2E2E2E2E2E2E2E2E2E2E2E2E2E2E2E2E2E2E2E2E2E2E2E2E2E2E2E2E2E2E2E2E2E2E2E2E2E2E2E2E2E2E2E2E2E2E2E2E2E2E2E2E2E2E2E2E2E2E2E2E2E2E2E2E2E2
310
E2E2E2E2E2E2E2E2E2E2E2E2E2E2E2E2E2E2E2E2E2E2E2E2E2E2E2E2E2E2E2E2E2E2E2E2E2E2E2E2E2E2E2E2E2E2E2E2E2E2E2E2E2E2E2E2E2E2E2E2E2E2E2E2E2E2E2E2E2E2E2E2E2E2E2E2E2E2E2E2E2E2E2E2E2E2E2E2E2E2E2E2E2E2E2E2E2F5E2E2E2F5F5E2E2E2F5E2E2E2E2E2E2E2E2E2E2E2E2E2E2E2E2E2E2E2E2
310
E2E2E2E2E2E2E2E2E2E2E2E2E2E2E2E2E2E2E2E2E2E2E2E2E2E2E2E2E2E2E2E2E2E2E2E2E2E2E2E2E2E2E2E2E2E2E2E2E2E2E2E2E2E2E2E2E2E2E2E2E2E2E2E2E2E2E2E2E2E2E2E2E2E2E2E2E2E2E2E2E2E2E2E2E2E2E2E2E2E2E2E2E2E2E2E2E2E2E2E2E2E2E2E2E2E2E2E2E2E2E2E2E2E2E2E2E2E2E2E2E2E2E2E2E2E2E2
310
E2E2E2E2E2E2E2E2E2E2E2E2E2E2E2E2E2E2E2E2E2E2E2F5E2E2E2F5F5E2E2E2E2E2E2E2E2E2E2E2E2E2E2E2E2E2E2E2E2E2E2E2E2E2E2E2E2E2E2E2E2E2E2E2E2E2E2E2E2E2E2E2E2E2E2E2E2E2E2E2E2E2E2E2E2E2E2E2E2E2E2E2E2E2E2E2E2E2E2E2E2E2E2E2E2E2E2E2E2E2E2E2E2E2E2E2E2E2E2E2E2E2E2E2E2E2E2
310
E2E2E2E2E2E2E2E2E2E2E2E2E2E2E2E2E2E2E2E2E2E2E2E2E2E2E2E2E2E2E2E2E2E2E2E2E2E2E2E2E2E2E2E2E2E2E2E2E2E2E2E2E2E2E2E2E2E2E2E2E2E2E2E2E2E2E2E2E2E2E2E2E2E2E2E2E2E2E2E2F5F5E2E2E2E2E2E2E2E2E2E2E2E2E2E2E2E2E2E2E2E2E2E2E2E2E2E2E2E2E2E2E2E2E2E2E2E2E2E2E2E2E2E2E2E2E2
310
E2E2E2E2E2E2E2E2E2E2E2E2E2E2E2E2E2E2E2E2E2E2E2E2E2E2E2E2E2E2E2E2E2E2E2E2E2E2E2E2E2E2E2E2E2E2E2E2E2E2E2E2E2E2E2E2E2E2E2E2E2E2E2E2E2E2E2E2E2E2E2E2E2E2E2E2E2E2E2E2E2E2E2E2E2E2E2E2E2E2E2E2E2E2E2E2E2E2E2E2E2E2E2E2E2E2E2E2E2E2E2E2E2E2E2E2E2E2E2E2E2E2E2E2E2E2E2
310
E2E2E2E2E2E2F5F5E2E2E2E2E2E2E2E2E2E2E2E2E2E2E2E2E2E2E2E2E2E2E2E2E2E2E2E2E2E2E2E2E2E2E2E2E2E2E2E2E2E2E2E2E2E2E2E2E2E2E2E2E2E2E2E2E2E2E2E2E2E2E2E2E2E2E2E2E2E2E2E2E2E2E2E2E2E2E2E2E2E2E2E2E2E2E2E2E2E2E2E2E2E2E2E2E2E2E2E2E2E2E2E2E2E2E2E2E2E2E2E2E2E2E2E2E2E2E2
310
E2E2E2E2E2E2E2E2E2E2E2E2E2E2E2E2E2E2E2E2E2E2E2E2E2E2E2E2E2E2E2E2E2E2E2E2E2E2E2E2E2E2E2E2E2E2E2E2E2E2E2E2E2E2E2E2E2E2E2F5F5E2E2E2E2E2E2E2E2E2E2E2E2E2E2E2E2E2E2E2E2E2E2E2E2E2E2E2E2E2E2E2E2E2E2E2E2E2E2E2E2E2E2E2E2E2E2E2E2E2E2E2E2E2E2E2E2E2E2E2E2E2E2E2E2E2E2
310
E2E2E2E2E2E2E2E2E2E2E2E2E2E2E2E2E2E2E2E2E2E2E2E2E2E2E2E2E2E2E2E2E2E2E2E2E2E2E2E2E2E2E2E2E2E2E2E2E2E2E2E2E2E2E2E2E2E2E2E2E2E2E2E2E2E2E2E2E2E2E2E2E2E2E2E2E2E2E2E2E2E2E2E2E2E2E2E2E2E2E2E2E2E2E2E2E2E2E2E2E2E2E2E2E2E2E2E2E2E2E2E2F5F5E2E2E2E2E2E2E2E2E2E2E2E2E2
310
E2E2E2E2E2E2E2F5F5F5F5F5F5F5F5F5F5F5F5F5F5F5F5F5F5F5F5F5F5F5F5F5F5F5F5F5F5F5F5F5F5F5F5F5F5F5F5F5F5F5F5F5F5F5F5F5F5F5F5F5F5F5F5F5F5F5F5F5F5F5F5F5F5F5F5F5F5F5F5F5F5F5F5F5F5F5F5F5F5F5F5F5F5F5F5F5F5F5F5F5F5F5F5F5F5F5F5F5F5F5F5F5F5F5F5F5F5F5F5F5F5F5F5F5F5F5F5
310
F5F5F5F5F5F5F5F5F5F5F5F5F5F5F5F5F5F5E2E2E2E2E2E2E2E2E2E2E2E2E2E2E2E2E2E2E2E2F5F5E2E2E2E2E2E2E2E2E2E2E2E2E2E2E2E2E2E2E2E2F5E2E2E2E2E2E2E2E2E2E2E2E2E2E2E2E2E2E2E2E2E2E2E2E2E2E2E2E2E2E2E2E2E2E2E2E2E2E2E2E2E2E2E2E2E2E2E2E2E2E2E2E2E2E2E2E2E2E2E2E2E2E2E2E2E2E2
310
E2E2E2E2E2E2E2E2E2E2E2E2E2E2E2E2E2E2E2E2E2E2E2E2E2E2E2E2E2E2E2E2E2E2E2E2E2E2E2E2E2E2E2E2E2E2E2E2E2E2E2E2E2E2E2E2E2E2E2E2E2E2E2E2E2E2E2E2E2E2F5E2E2E2E2E2E2E2E2E2E2E2E2E2E2E2E2E2E2E2E2F5F5E2E2E2E2E2E2E2E2E2E2E2E2E2E2E2E2E2E2E2E2F5E2E2E2E2E2E2E2E2E2E2E2E2E2
310
E2E2E2E2E2E2E2E2E2E2E2E2E2E2E2E2E2E2E2E2E2E2E2E2E2E2E2E2E2E2E2E2E2E2E2E2E2E2E2E2E2E2E2E2E2E2E2E2E2E2E2E2E2E2E2E2E2E2E2E2E2E2E2E2E2E2E2E2E2E2E2E2E2E2E2E2E2E2E2E2E2E2E2E2E2E2E2E2E2E2E2E2E2E2E2E2E2E2E2E2E2E2E2E2E2E2E2E2E2E2E2E2E2E2E2E2E2E2E2E2E2E2E2F5E2E2E2
310
E2E2E2E2E2E2E2E2E2E2E2E2E2E2E2E2E2F5F5E2E2E2E2E2E2E2E2E2E2E2E2E2E2E2E2E2E2E2E2F5E2E2E2E2E2E2E2E2E2E2E2E2E2E2E2E2E2E2E2E2E2E2E2E2E2E2E2E2E2E2E2E2E2E2E2E2E2E2E2E2E2E2E2E2E2E2E2E2E2E2E2E2E2E2E2E2E2E2E2E2E2E2E2E2E2E2E2E2E2E2E2E2E2E2E2E2E2E2E2E2E2E2E2E2E2E2E2
310
E2E2E2E2E2E2E2E2E2E2E2E2E2E2E2E2E2E2E2E2E2E2E2E2E2E2E2E2E2E2E2E2E2E2E2E2E2E2E2E2E2E2E2E2E2E2E2E2E2F5E2E2E2E2E2E2E2E2E2E2E2E2E2E2E2E2E2E2E2E2F5F5E2E2E2E2E2E2E2E2E2E2E2E2E2E2E2E2E2E2E2E2F5E2E2E2E2E2E2E2E2E2E2E2E2E2E2E2E2E2E2E2E2E2E2E2E2E2E2E2E2E2E2E2E2E2E2
310
E2E2E2E2E2E2E2E2E2E2E2E2E2E2E2E2E2E2E2E2E2E2E2E2E2E2E2E2E2E2E2E2E2E2E2E2E2E2E2E2E2E2E2E2E2E2E2E2E2E2E2E2E2E2E2E2E2E2E2E2E2E2E2E2E2E2E2E2E2E2E2E2E2E2E2E2E2E2E2E2E2E2E2E2E2E2E2E2E2E2E2E2E2E2E2E2E2E2E2E2E2E2F5E2E2E2E2E2E2E2E2E2E2E2E2E2E2E2E2E2E2E2E2F5F5E2E2
310
E2F5E2E2E2E2E2E2E2E2E2E2E2E2E2E2E2E2F5E2E2E2E2E2E2E2E2E2E2E2E2E2E2E2E2E2E2E2E2E2E2E2E2E2E2E2E2E2E2E2E2E2E2E2E2E2E2E2E2E2E2E2E2E2E2E2E2E2E2E2E2E2E2E2E2E2E2E2E2E2E2E2E2E2E2E2E2E2E2E2E2E2E2E2E2E2E2E2E2E2E2E2E2E2E2E2E2E2E2E2E2E2E2E2E2E2E2E2E2E2E2E2E2E2E2E2E2
310
E2E2E2E2E2E2E2E2E2E2E2E2E2E2E2E2E2E2E2E2E2E2E2E2E2E2E2E2F5E2E2E2E2E2E2E2E2E2E2E2E2E2E2E2E2F5E2E2E2F5F5E2E2E2F5E2E2E2E2E2E2E2E2E2E2E2E2E2E2E2E2F5E2E2E2E2E2E2E2E2E2E2E2E2E2E2E2E2E2E2E2E2E2E2E2E2E2E2E2E2E2E2E2E2E2E2E2E2E2E2E2E2E2E2E2E2E2E2E2E2E2E2E2E2E2E2E2
310
E2E2E2E2E2E2E2E2E2E2E2E2E2E2E2E2E2E2E2E2E2E2E2E2E2E2E2E2E2E2E2E2E2E2E2E2E2E2E2E2E2E2E2E2E2E2E2E2E2E2E2E2E2E2E2E2E2E2E2E2E2E2E2E2E2E2E2E2E2E2E2E2E2E2E2E2E2E2E2E2E2F5E2E2E2E2E2E2E2E2E2E2E2E2E2E2E2E2F5E2E2E2F5F5E2E2E2F5E2E2E2E2E2E2E2E2E2E2E2E2E2E2E2E2F5E2E2
310
E2E2E2E2E2E2E2E2E2E2E2E2E2E2E2E2E2E2E2E2E2E2E2E2E2E2E2E2E2E2E2E2E2E2E2E2E2E2E2E2E2E2E2E2E2E2E2E2E2E2E2E2E2E2E2E2E2E2E2E2E2E2E2E2E2E2E2E2E2E2E2E2E2E2E2E2E2E2E2E2E2E2E2E2E2E2E2E2E2E2E2E2E2E2E2E2E2E2E2E2E2E2E2E2E2E2E2E2E2E2E2E2E2E2E2E2E2E2E2E2E2E2E2E2E2E2E2
310
E2E2E2E2E2E2E2F5E2E2E2E2E2E2E2E2E2E2E2E2E2E2E2E2F5E2E2E2F5F5E2E2E2F5E2E2E2E2E2E2E2E2E2E2E2E2E2E2E2E2F5E2E2E2E2E2E2E2E2E2E2E2E2E2E2E2E2E2E2E2E2E2E2E2E2E2E2E2E2E2E2E2E2E2E2E2E2E2E2E2E2E2E2E2E2E2E2E2E2E2E2E2E2E2E2E2E2E2E2E2E2E2E2E2E2E2E2E2E2E2E2E2E2E2E2E2E2
310
E2E2E2E2E2E2E2E2E2E2E2E2E2E2E2E2E2E2E2E2E2E2E2E2E2E2E2E2E2E2E2E2E2E2E2E2E2E2E2E2E2E2E2E2E2E2E2E2E2E2E2E2E2E2E2E2E2E2E2E2F5E2E2E2E2E2E2E2E2E2E2E2E2E2E2E2E2F5E2E2E2F5F5E2E2E2F5E2E2E2E2E2E2E2E2E2E2E2E2E2E2E2E2F5E2E2E2E2E2E2E2E2E2E2E2E2E2E2E2E2E2E2E2E2E2E2E2
310
E2E2E2E2E2E2E2E2E2E2E2E2E2E2E2E2E2E2E2E2E2E2E2E2E2E2E2E2E2E2E2E2E2E2E2E2E2E2E2E2E2E2E2E2E2E2E2E2E2E2E2E2E2E2E2E2E2E2E2E2E2E2E2E2E2E2E2E2E2E2E2E2E2E2E2E2E2E2E2E2E2E2E2E2E2E2E2E2E2E2E2E2E2E2E2E2E2E2E2E2E2E2E2E2E2E2E2E2E2E2E2E2E2F5E2E2E2E2E2E2E2E2E2E2E2E2E2
310
E2E2E2F5E2E2E2F5F5E2E2E2F5E2E2E2E2E2E2E2E2E2E2E2E2E2E2E2E2F5E2E2E2E2E2E2E2E2E2E2E2E2E2E2E2E2E2E2E2E2E2E2E2E2E2E2E2E2E2E2E2E2E2E2E2E2E2E2E2E2E2E2E2E2E2E2E2E2E2E2E2E2E2E2E2E2E2E2E2E2E2E2E2E2E2E2E2E2E2E2E2E2E2E2E2E2E2E2E2E2E2E2E2E2E2E2E2E2E2E2E2E2E2E2E2E2E2
310
E2E2E2E2E2E2E2E2E2E2E2E2E2E2E2E2E2E2E2E2E2E2E2E2E2E2E2E2E2E2E2E2E2E2E2E2E2E2E2F5E2E2E2E2E2E2E2E2E2E2E2E2E2E2E2E2F5E2E2E2F5F5E2E2E2F5E2E2E2E2E2E2E2E2E2E2E2E2E2E2E2E2F5E2E2E2E2E2E2E2E2E2E2E2E2E2E2E2E2E2E2E2E2E2E2E2E2E2E2E2E2E2E2E2E2E2E2E2E2E2E2E2E2E2E2E2E2
310
E2E2E2E2E2E2E2E2E2E2E2E2E2E2E2E2E2E2E2E2E2E2E2E2E2E2E2E2E2E2E2E2E2E2E2E2E2E2E2E2E2E2E2E2E2E2E2E2E2E2E2E2E2E2E2E2E2E2E2E2E2E2E2E2E2E2E2E2E2E2E2E2E2E2E2E2E2E2E2E2E2E2E2E2E2E2E2E2E2E2E2E2F5E2E2E2E2E2E2E2E2E2E2E2E2E2E2E2E2F5E2E2E2F5F5E2E2E2F5E2E2E2E2E2E2E2E2
310
E2E2E2E2E2E2E2E2F5E2E2E2E2E2E2E2E2E2E2E2E2E2E2E2E2E2E2E2E2E2E2E2E2E2E2E2E2E2E2E2E2E2E2E2E2E2E2E2E2E2E2E2E2E2E2E2E2E2E2E2E2E2E2E2E2E2E2E2E2E2E2E2E2E2E2E2E2E2E2E2E2E2E2E2E2E2E2E2E2E2E2E2E2E2E2E2E2E2E2E2E2E2E2E2E2E2E2E2E2E2E2E2E2E2E2E2E2E2E2E2E2E2E2E2E2E2E2
310
E2E2E2E2E2E2E2E2E2E2E2E2E2E2E2E2E2E2F5E2E2E2E2E2E2E2E2E2E2E2E2E2E2E2E2F5E2E2E2F5F5E2E2E2F5E2E2E2E2E2E2E2E2E2E2E2E2E2E2E2E2F5E2E2E2E2E2E2E2E2E2E2E2E2E2E2E2E2E2E2E2E2E2E2E2E2E2E2E2E2E2E2E2E2E2E2E2E2E2E2E2E2E2E2E2E2E2E2E2E2E2E2E2E2E2E2E2E2E2E2E2E2E2E2E2E2E2
310
E2E2E2E2E2E2E2E2E2E2E2E2E2E2E2E2E2E2E2E2E2E2E2E2E2E2E2E2E2E2E2E2E2E2E2E2E2E2E2E2E2E2E2E2E2E2E2E2E2E2E2E2E2E2E2E2E2E2E2E2E2E2E2E2E2E2E2E2E2E2E2F5E2E2E2E2E2E2E2E2E2E2E2E2E2E2E2E2F5E2E2E2F5F5E2E2E2F5E2E2E2E2E2E2E2E2E2E2E2E2E2E2E2E2F5E2E2E2E2E2E2E2E2E2E2E2E2
310
E2E2E2E2E2E2E2E2E2E2E2E2E2E2E2E2E2E2E2E2E2E2E2E2E2E2E2E2E2E2E2E2E2E2E2E2E2E2E2E2E2E2E2E2E2E2E2E2E2E2E2E2E2E2E2E2E2E2E2E2E2E2E2E2E2E2E2E2E2E2E2E2E2E2E2E2E2E2E2E2E2E2E2E2E2E2E2E2E2E2E2E2E2E2E2E2E2E2E2E2E2E2E2E2E2E2E2E2E2E2E2E2E2E2E2E2E2E2E2E2E2E2E2E2F5E2E2
310
E2E2E2E2E2E2E2E2E2E2E2E2E2E2F5E2E2E2F5F5E2E2E2F5E2E2E2E2E2E2E2E2E2E2E2E2E2E2E2E2F5E2E2E2E2E2E2E2E2E2E2E2E2E2E2E2E2E2E2E2E2E2E2E2E2E2E2E2E2E2E2E2E2E2E2E2E2E2E2E2E2E2E2E2E2E2E2E2E2E2E2E2E2E2E2E2E2E2E2E2E2E2E2E2E2E2E2E2E2E2E2E2E2E2E2E2E2E2E2E2E2E2E2E2E2E2E2
310
E2E2E2E2E2E2E2E2E2E2E2E2E2E2E2E2E2E2E2E2E2E2E2E2E2E2E2E2E2E2E2E2E2E2E2E2E2E2E2E2E2E2E2E2E2E2E2E2E2E2F5E2E2E2E2E2E2E2E2E2E2E2E2E2E2E2E2F5E2E2E2F5F5E2E2E2F5E2E2E2E2E2E2E2E2E2E2E2E2E2E2E2E2F5E2E2E2E2E2E2E2E2E2E2E2E2E2E2E2E2E2E2E2E2E2E2E2E2E2E2E2E2E2E2E2E2E2
310
E2E2E2E2E2E2E2E2E2E2E2E2E2E2E2E2E2E2E2E2E2E2E2E2E2E2E2E2E2E2E2E2E2E2E2E2E2E2E2E2E2E2E2E2E2E2E2E2E2E2E2E2E2E2E2E2E2E2E2E2E2E2E2E2E2E2E2E2E2E2E2E2E2E2E2E2E2E2E2E2E2E2E2E2E2E2E2E2E2E2E2E2E2E2E2E2E2E2E2E2E2E2E2F5E2E2E2E2E2E2E2E2E2E2E2E2E2E2E2E2F5E2E2E2F5F5E2
310
E2E2F5E2E2E2E2E2E2E2E2E2E2E2E2E2E2E2E2F5E2E2E2E2E2E2E2E2E2E2E2E2E2E2E2E2E2E2E2E2E2E2E2E2E2E2E2E2E2E2E2E2E2E2E2E2E2E2E2E2E2E2E2E2E2E2E2E2E2E2E2E2E2E2E2E2E2E2E2E2E2E2E2E2E2E2E2E2E2E2E2E2E2E2E2E2E2E2E2E2E2E2E2E2E2E2E2E2E2E2E2E2E2E2E2E2E2E2E2E2E2E2E2E2E2E2E2
310
E2E2E2E2E2E2E2E2E2E2E2E2E2E2E2E2E2E2E2E2E2E2E2E2E2E2E2E2E2F5E2E2E2E2E2E2E2E2E2E2E2E2E2E2E2E2F5E2E2E2F5F5E2E2E2F5E2E2E2E2E2E2E2E2E2E2E2E2E2E2E2E2F5E2E2E2E2E2E2E2E2E2E2E2E2E2E2E2E2E2E2E2E2E2E2E2E2E2E2E2E2E2E2E2E2E2E2E2E2E2E2E2E2E2E2E2E2E2E2E2E2E2E2E2E2E2E2
310
E2E2E2E2E2E2E2E2E2E2E2E2E2E2E2E2E2E2E2E2E2E2E2E2E2E2E2E2E2E2E2E2E2E2E2E2E2E2E2E2E2E2E2E2E2E2E2E2E2E2E2E2E2E2E2E2E2E2E2E2E2E2E2E2E2E2E2E2E2E2E2E2E2E2E2E2E2E2E2E2E2E2F5E2E2E2E2E2E2E2E2E2E2E2E2E2E2E2E2F5E2E2E2F5F5E2E2E2F5E2E2E2E2E2E2E2E2E2E2E2E2E2E2E2E2F5E2
310
E2E2E2E2E2E2E2E2E2E2E2E2E2E2E2E2E2E2E2E2E2E2E2E2E2E2E2E2E2E2E2E2E2E2E2E2E2E2E2E2E2E2E2E2E2E2E2E2E2E2E2E2E2E2E2E2E2E2E2E2E2E2E2E2E2E2E2E2E2E2E2E2E2E2E2E2E2E2E2E2E2E2E2E2E2E2E2E2E2E2E2E2E2E2E2E2E2E2E2E2E2E2E2E2E2E2E2E2E2E2E2E2E2E2E2E2E2E2E2E2E2E2E2E2E2E2E2
310
E2E2E2E2E2E2E2E2F5E2E2E2E2E2E2E2E2E2E2E2E2E2E2E2E2F5E2E2E2F5F5E2E2E2F5E2E2E2E2E2E2E2E2E2E2E2E2E2E2E2E2F5E2E2E2E2E2E2E2E2E2E2E2E2E2E2E2E2E2E2E2E2E2E2E2E2E2E2E2E2E2E2E2E2E2E2E2E2E2E2E2E2E2E2E2E2E2E2E2E2E2E2E2E2E2E2E2E2E2E2E2E2E2E2E2E2E2E2E2E2E2E2E2E2E2E2E2
310
E2E2E2E2E2E2E2E2E2E2E2E2E2E2E2E2E2E2E2E2E2E2E2E2E2E2E2E2E2E2E2E2E2E2E2E2E2E2E2E2E2E2E2E2E2E2E2E2E2E2E2E2E2E2E2E2E2E2E2E2E2F5E2E2E2E2E2E2E2E2E2E2E2E2E2E2E2E2F5E2E2E2F5F5E2E2E2F5E2E2E2E2E2E2E2E2E2E2E2E2E2E2E2E2F5E2E2E2E2E2E2E2E2E2E2E2E2E2E2E2E2E2E2E2E2E2E2
310
E2E2E2E2E2E2E2E2E2E2E2E2E2E2E2E2E2E2E2E2E2E2E2E2E2E2E2E2E2E2E2E2E2E2E2E2E2E2E2E2E2E2E2E2E2E2E2E2E2E2E2E2E2E2E2E2E2E2E2E2E2E2E2E2E2E2E2E2E2E2E2E2E2E2E2E2E2E2E2E2E2E2E2E2E2E2E2E2E2E2E2E2E2E2E2E2E2E2E2E2E2E2E2E2E2E2E2E2E2E2E2E2E2E2F5E2E2E2E2E2E2E2E2E2E2E2E2
310
E2E2E2E2F5E2E2E2F5F5E2E2E2E2E2E2E2E2E2E2E2E2E2E2E2E2E2E2E2E2F5E2E2E2E2E2E2E2E2E2E2E2E2E2E2E2E2E2E2E2E2E2E2E2E2E2E2E2E2E2E2E2E2E2E2E2E2E2E2E2E2E2E2E2E2E2E2E2E2E2E2E2E2E2E2E2E2E2E2E2E2E2E2E2E2E2E2E2E2E2E2E2E2E2E2E2E2E2E2E2E2E2E2E2E2E2E2E2E2E2E2E2E2E2E2E2E2
310
E2E2E2E2E2E2E2E2E2E2E2E2E2E2E2E2E2E2E2E2E2E2E2E2E2E2E2E2E2E2E2E2E2E2E2E2E2E2E2E2F5E2E2E2E2E2E2E2E2E2E2E2E2E2E2E2E2E2E2E2E2F5F5E2E2E2E2E2E2E2E2E2E2E2E2E2E2E2E2E2E2E2E2F5E2E2E2E2E2E2E2E2E2E2E2E2E2E2E2E2E2E2E2E2E2E2E2E2E2E2E2E2E2E2E2E2E2E2E2E2E2E2E2E2E2E2E2
310
E2E2E2E2E2E2E2E2E2E2E2E2E2E2E2E2E2E2E2E2E2E2E2E2E2E2E2E2E2E2E2E2E2E2E2E2E2E2E2E2E2E2E2E2E2E2E2E2E2E2E2E2E2E2E2E2E2E2E2E2E2E2E2E2E2E2E2E2E2E2E2E2E2E2E2E2E2E2E2E2E2E2E2E2E2E2E2E2E2E2E2E2E2F5E2E2E2E2E2E2E2E2E2E2E2E2E2E2E2E2E2E2E2E2F5F5E2E2E2E2E2E2E2E2E2E2E2
310
E2E2E2E2E2E2E2E2E2F5E2E2E2E2E2E2E2E2E2E2E2E2E2E2E2E2E2E2E2E2E2E2E2E2E2E2E2E2E2E2E2E2E2E2E2E2E2E2E2E2E2E2E2E2E2E2E2E2E2E2E2E2E2E2E2E2E2E2E2E2E2E2E2E2E2E2E2E2E2E2E2E2E2E2E2E2E2E2E2E2E2E2E2E2E2E2E2E2E2E2E2E2E2E2E2E2E2E2E2E2E2E2E2E2E2E2E2E2E2E2E2E2E2E2E2E2E2
310
E2E2E2E2E2E2E2E2E2E2E2E2E2E2E2E2E2E2E2F5E2E2E2E2E2E2E2E2E2E2E2E2E2E2E2E2E2E2E2E2F5F5E2E2E2E2E2E2E2E2E2E2E2E2E2E2E2E2E2E2E2E2F5E2E2E2E2E2E2E2E2E2E2E2E2E2E2E2E2E2E2E2E2E2E2E2E2E2E2E2E2E2E2E2E2E2E2E2E2E2E2E2E2E2E2E2E2E2E2E2E2E2E2E2E2E2E2E2E2E2E2E2E2E2E2E2E2
310
E2E2E2E2E2E2E2E2E2E2E2E2E2E2E2E2E2E2E2E2E2E2E2E2E2E2E2E2E2E2E2E2E2E2E2E2E2E2E2E2E2E2E2E2E2E2E2E2E2E2E2E2E2E2E2E2E2E2E2E2E2E2E2E2E2E2E2E2E2E2E2E2F5E2E2E2E2E2E2E2E2E2E2E2E2E2E2E2E2E2E2E2E2F5F5E2E2E2E2E2E2E2E2E2E2E2E2E2E2E2E2E2E2E2E2F5E2E2E2E2E2E2E2E2E2E2E2
310
E2E2E2E2E2E2E2E2E2E2E2E2E2E2E2E2E2E2E2E2E2E2E2E2E2E2E2E2E2E2E2E2E2E2E2E2E2E2E2E2E2E2E2E2E2E2E2E2E2E2E2E2E2E2E2E2E2E2E2E2E2E2E2E2E2E2E2E2E2E2E2E2E2E2E2E2E2E2E2E2E2E2E2E2E2E2E2E2E2E2E2E2E2E2E2E2E2E2E2E2E2E2E2E2E2E2E2E2E2E2E2E2E2E2E2E2E2E2E2E2E2E2E2E2E2F5E2
310
E2E2E2E2E2E2E2E2E2E2E2E2E2E2E2E2E2E2E2F5F5E2E2E2E2E2E2E2E2E2E2E2E2E2E2E2E2E2E2E2E2F5E2E2E2E2E2E2E2E2E2E2E2E2E2E2E2E2E2E2E2E2E2E2E2E2E2E2E2E2E2E2E2E2E2E2E2E2E2E2E2E2E2E2E2E2E2E2E2E2E2E2E2E2E2E2E2E2E2E2E2E2E2E2E2E2E2E2E2E2E2E2E2E2E2E2E2E2E2E2E2E2E2E2E2E2E2
310
E2E2E2E2E2E2E2E2E2E2E2E2E2E2E2E2E2E2E2E2E2E2E2E2E2E2E2E2E2E2E2E2E2E2E2E2E2E2E2E2E2E2E2E2E2E2E2E2E2E2E2F5E2E2E2E2E2E2E2E2E2E2E2E2E2E2E2E2E2E2E2E2F5F5E2E2E2E2E2E2E2E2E2E2E2E2E2E2E2E2E2E2E2E2F5E2E2E2E2E2E2E2E2E2E2E2E2E2E2E2E2E2E2E2E2E2E2E2E2E2E2E2E2E2E2E2E2
310
E2E2E2E2E2E2E2E2E2E2E2E2E2E2E2E2E2E2E2E2E2E2E2E2E2E2E2E2E2E2E2E2E2E2E2E2E2E2E2E2E2E2E2E2E2E2E2E2E2E2E2E2E2E2E2E2E2E2E2E2E2E2E2E2E2E2E2E2E2E2E2E2E2E2E2E2E2E2E2E2E2E2E2E2E2E2E2E2E2E2E2E2E2E2E2E2E2E2E2E2E2E2E2E2F5E2E2E2E2E2E2E2E2E2E2E2E2E2E2E2E2E2E2E2E2F5F5
310
E2E2E2E2E2E2E2E2E2E2E2E2E2E2E2E2E2E2E2E2F5E2E2E2E2E2E2E2E2E2E2E2E2E2E2E2E2E2E2E2E2E2E2E2E2E2E2E2E2E2E2E2E2E2E2E2E2E2E2E2E2E2E2E2E2E2E2E2E2E2E2E2E2E2E2E2E2E2E2E2E2E2E2E2E2E2E2E2E2E2E2E2E2E2E2E2E2E2E2E2E2E2E2E2E2E2E2E2E2E2E2E2E2E2E2E2E2E2E2E2E2E2E2E2E2E2E2
310
E2E2E2E2E2E2E2E2E2E2E2E2E2E2E2E2E2E2E2E2E2E2E2E2E2E2E2E2E2E2F5E2E2E2E2E2E2E2E2E2E2E2E2E2E2E2E2E2E2E2E2F5F5E2E2E2E2E2E2E2E2E2E2E2E2E2E2E2E2E2E2E2E2F5E2E2E2E2E2E2E2E2E2E2E2E2E2E2E2E2E2E2E2E2E2E2E2E2E2E2E2E2E2E2E2E2E2E2E2E2E2E2E2E2E2E2E2E2E2E2E2E2E2E2E2E2E2
310
E2E2E2E2E2E2E2E2E2E2E2E2E2E2E2E2E2E2E2E2E2E2E2E2E2E2E2E2E2E2E2E2E2E2E2E2E2E2E2E2E2E2E2E2E2E2E2E2E2E2E2E2E2E2E2E2E2E2E2E2E2E2E2E2E2E2E2E2E2E2E2E2E2E2E2E2E2E2E2E2E2E2E2F5E2E2E2E2E2E2E2E2E2E2E2E2E2E2E2E2E2E2E2E2F5F5E2E2E2F5E2E2E2E2E2E2E2E2E2E2E2E2E2E2E2E2F5
310
E2E2E2E2E2E2E2E2E2E2E2E2E2E2E2E2E2E2E2E2E2E2E2E2E2E2E2E2E2E2E2E2E2E2E2E2E2E2E2E2E2E2E2E2E2E2E2E2E2E2E2E2E2E2E2E2E2E2E2E2E2E2E2E2E2E2E2E2E2E2E2E2E2E2E2E2E2E2E2E2E2E2E2E2E2E2E2E2E2E2E2E2E2E2E2E2E2E2E2E2E2E2E2E2E2E2E2E2E2E2E2E2E2E2E2E2E2E2E2E2E2E2E2E2E2E2E2
310
E2E2E2E2E2E2E2E2E2F5E2E2E2E2E2E2E2E2E2E2E2E2E2E2E2E2F5E2E2E2F5F5E2E2E2F5E2E2E2E2E2E2E2E2E2E2E2E2E2E2E2E2F5E2E2E2E2E2E2E2E2E2E2E2E2E2E2E2E2E2E2E2E2E2E2E2E2E2E2E2E2E2E2E2E2E2E2E2E2E2E2E2E2E2E2E2E2E2E2E2E2E2E2E2E2E2E2E2E2E2E2E2E2E2E2E2E2E2E2E2E2E2E2E2E2E2E2
310
E2E2E2E2E2E2E2E2E2E2E2E2E2E2E2E2E2E2E2E2E2E2E2E2E2E2E2E2E2E2E2E2E2E2E2E2E2E2E2E2E2E2E2E2E2E2E2E2E2E2E2E2E2E2E2E2E2E2E2E2E2E2F5E2E2E2E2E2E2E2E2E2E2E2E2E2E2E2E2F5E2E2E2F5F5E2E2E2F5E2E2E2E2E2E2E2E2E2E2E2E2E2E2E2E2F5E2E2E2E2E2E2E2E2E2E2E2E2E2E2E2E2E2E2E2E2E2
310
E2E2E2E2E2E2E2E2E2E2E2E2E2E2E2E2E2E2E2E2E2E2E2E2E2E2E2E2E2E2E2E2E2E2E2E2E2E2E2E2E2E2E2E2E2E2E2E2E2E2E2E2E2E2E2E2E2E2E2E2E2E2E2E2E2E2E2E2E2E2E2E2E2E2E2E2E2E2E2E2E2E2E2E2E2E2E2E2E2E2E2E2E2E2E2E2E2E2E2E2E2E2E2E2E2E2E2E2E2E2E2E2E2E2E2F5E2E2E2E2E2E2E2E2E2E2E2
310
E2E2E2E2E2F5E2E2E2F5F5E2E2E2F5E2E2E2E2E2E2E2E2E2E2E2E2E2E2E2E2F5E2E2E2E2E2E2E2E2E2E2E2E2E2E2E2E2E2E2E2E2E2E2E2E2E2E2E2E2E2E2E2E2E2E2E2E2E2E2E2E2E2E2E2E2E2E2E2E2E2E2E2E2E2E2E2E2E2E2E2E2E2E2E2E2E2E2E2E2E2E2E2E2E2E2E2E2E2E2E2E2E2E2E2E2E2E2E2E2E2E2E2E2E2E2E2
310
E2E2E2E2E2E2E2E2E2E2E2E2E2E2E2E2E2E2E2E2E2E2E2E2E2E2E2E2E2E2E2E2E2E2E2E2E2E2E2E2E2F5E2E2E2E2E2E2E2E2E2E2E2E2E2E2E2E2F5E2E2E2F5F5E2E2E2F5E2E2E2E2E2E2E2E2E2E2E2E2E2E2E2E2F5E2E2E2E2E2E2E2E2E2E2E2E2E2E2E2E2E2E2E2E2E2E2E2E2E2E2E2E2E2E2E2E2E2E2E2E2E2E2E2E2E2E2
310
E2E2E2E2E2E2E2E2E2E2E2E2E2E2E2E2E2E2E2E2E2E2E2E2E2E2E2E2E2E2E2E2E2E2E2E2E2E2E2E2E2E2E2E2E2E2E2E2E2E2E2E2E2E2E2E2E2E2E2E2E2E2E2E2E2E2E2E2E2E2E2E2E2E2E2E2E2E2E2E2E2E2E2E2E2E2E2E2E2E2E2E2E2E2F5E2E2E2E2E2E2E2E2E2E2E2E2E2E2E2E2F5E2E2E2F5F5E2E2E2F5E2E2E2E2E2E2
310
E2E2E2E2E2E2E2E2E2E2F5E2E2E2E2E2E2E2E2E2E2E2E2E2E2E2E2E2E2E2E2E2E2E2E2E2E2E2E2E2E2E2E2E2E2E2E2E2E2E2E2E2E2E2E2E2E2E2E2E2E2E2E2E2E2E2E2E2E2E2E2E2E2E2E2E2E2E2E2E2E2E2E2E2E2E2E2E2E2E2E2E2E2E2E2E2E2E2E2E2E2E2E2E2E2E2E2E2E2E2E2E2E2E2E2E2E2E2E2E2E2E2E2E2E2E2E2
310
E2E2E2E2E2E2E2E2E2E2E2E2E2E2E2E2E2E2E2E2F5E2E2E2E2E2E2E2E2E2E2E2E2E2E2E2E2F5E2E2E2F5F5E2E2E2F5E2E2E2E2E2E2E2E2E2E2E2E2E2E2E2E2F5E2E2E2E2E2E2E2E2E2E2E2E2E2E2E2E2E2E2E2E2E2E2E2E2E2E2E2E2E2E2E2E2E2E2E2E2E2E2E2E2E2E2E2E2E2E2E2E2E2E2E2E2E2E2E2E2E2E2E2E2E2E2E2
310
E2E2E2E2E2E2E2E2E2E2E2E2E2E2E2E2E2E2E2E2E2E2E2E2E2E2E2E2E2E2E2E2E2E2E2E2E2E2E2E2E2E2E2E2E2E2E2E2E2E2E2E2E2E2E2E2E2E2E2E2E2E2E2E2E2E2E2E2E2E2E2E2E2F5E2E2E2E2E2E2E2E2E2E2E2E2E2E2E2E2F5E2E2E2F5F5E2E2E2F5E2E2E2E2E2E2E2E2E2E2E2E2E2E2E2E2F5E2E2E2E2E2E2E2E2E2E2
310
E2E2E2E2E2E2E2E2E2E2E2E2E2E2E2E2E2E2E2E2E2E2E2E2E2E2E2E2E2E2E2E2E2E2E2E2E2E2E2E2E2E2E2E2E2E2E2E2E2E2E2E2E2E2E2E2E2E2E2E2E2E2E2E2E2E2E2E2E2E2E2E2E2E2E2E2E2E2E2E2E2E2E2E2E2E2E2E2E2E2E2E2E2E2E2E2E2E2E2E2E2E2E2E2E2E2E2E2E2E2E2E2E2E2E2E2E2E2E2E2E2E2E2E2E2E2F5
310
E2E2E2E2E2E2E2E2E2E2E2E2E2E2E2E2F5E2E2E2F5F5E2E2E2F5E2E2E2E2E2E2E2E2E2E2E2E2E2E2E2E2F5E2E2E2E2E2E2E2E2E2E2E2E2E2E2E2E2E2E2E2E2E2E2E2E2E2E2E2E2E2E2E2E2E2E2E2E2E2E2E2E2E2E2E2E2E2E2E2E2E2E2E2E2E2E2E2E2E2E2E2E2E2E2E2E2E2E2E2E2E2E2E2E2E2E2E2E2E2E2E2E2E2E2E2E2
310
E2E2E2E2E2E2E2E2E2E2E2E2E2E2E2E2E2E2E2E2E2E2E2E2E2E2E2E2E2E2E2E2E2E2E2E2E2E2E2E2E2E2E2E2E2E2E2E2E2E2E2E2F5E2E2E2E2E2E2E2E2E2E2E2E2E2E2E2E2F5E2E2E2F5F5E2E2E2F5E2E2E2E2E2E2E2E2E2E2E2E2E2E2E2E2F5E2E2E2E2E2E2E2E2E2E2E2E2E2E2E2E2E2E2E2E2E2E2E2E2E2E2E2E2E2E2E2
310
E2E2E2E2E2E2E2E2E2E2E2E2E2E2E2E2E2E2E2E2E2E2E2E2E2E2E2E2E2E2E2E2E2E2E2E2E2E2E2E2E2E2E2E2E2E2E2E2E2E2E2E2E2E2E2E2E2E2E2E2E2E2E2E2E2E2E2E2E2E2E2E2E2E2E2E2E2E2E2E2E2E2E2E2E2E2E2E2E2E2E2E2E2E2E2E2E2E2E2E2E2E2E2E2E2F5E2E2E2E2E2E2E2E2E2E2E2E2E2E2E2E2F5E2E2E2F5
310
F5E2E2E2F5E2E2E2E2E2E2E2E2E2E2E2E2E2E2E2E2F5E2E2E2E2E2E2E2E2E2E2E2E2E2E2E2E2E2E2E2E2E2E2E2E2E2E2E2E2E2E2E2E2E2E2E2E2E2E2E2E2E2E2E2E2E2E2E2E2E2E2E2E2E2E2E2E2E2E2E2E2E2E2E2E2E2E2E2E2E2E2E2E2E2E2E2E2E2E2E2E2E2E2E2E2E2E2E2E2E2E2E2E2E2E2E2E2E2E2E2E2E2E2E2E2E2
310
E2E2E2E2E2E2E2E2E2E2E2E2E2E2E2E2E2E2E2E2E2E2E2E2E2E2E2E2E2E2E2F5E2E2E2E2E2E2E2E2E2E2E2E2E2E2E2E2F5E2E2E2F5F5E2E2E2F5E2E2E2E2E2E2E2E2E2E2E2E2E2E2E2E2F5E2E2E2E2E2E2E2E2E2E2E2E2E2E2E2E2E2E2E2E2E2E2E2E2E2E2E2E2E2E2E2E2E2E2E2E2E2E2E2E2E2E2E2E2E2E2E2E2E2E2E2E2
310
E2E2E2E2E2E2E2E2E2E2E2E2E2E2E2E2E2E2E2E2E2E2E2E2E2E2E2E2E2E2E2E2E2E2E2E2E2E2E2E2E2E2E2E2E2E2E2E2E2E2E2E2E2E2E2E2E2E2E2E2E2E2E2E2E2E2E2E2E2E2E2E2E2E2E2E2E2E2E2E2E2E2E2E2F5E2E2E2E2E2E2E2E2E2E2E2E2E2E2E2E2F5E2E2E2F5F5E2E2E2F5E2E2E2E2E2E2E2E2E2E2E2E2E2E2E2E2
310
F5E2E2E2E2E2E2E2E2E2E2E2E2E2E2E2E2E2E2E2E2E2E2E2E2E2E2E2E2E2E2E2E2E2E2E2E2E2E2E2E2E2E2E2E2E2E2E2E2E2E2E2E2E2E2E2E2E2E2E2E2E2E2E2E2E2E2E2E2E2E2E2E2E2E2E2E2E2E2E2E2E2E2E2E2E2E2E2E2E2E2E2E2E2E2E2E2E2E2E2E2E2E2E2E2E2E2E2E2E2E2E2E2E2E2E2E2E2E2E2E2E2E2E2E2E2E2
310
E2E2E2E2E2E2E2E2E2E2F5E2E2E2E2E2E2E2E2E2E2E2E2E2E2E2E2F5E2E2E2F5F5E2E2E2F5E2E2E2E2E2E2E2E2E2E2E2E2E2E2E2E2F5E2E2E2E2E2E2E2E2E2E2E2E2E2E2E2E2E2E2E2E2E2E2E2E2E2E2E2E2E2E2E2E2E2E2E2E2E2E2E2E2E2E2E2E2E2E2E2E2E2E2E2E2E2E2E2E2E2E2E2E2E2E2E2E2E2E2E2E2E2E2E2E2E2
310
E2E2E2E2E2E2E2E2E2E2E2E2E2E2E2E2E2E2E2E2E2E2E2E2E2E2E2E2E2E2E2E2E2E2E2E2E2E2E2E2E2E2E2E2E2E2E2E2E2E2E2E2E2E2E2E2E2E2E2E2E2E2E2F5E2E2E2E2E2E2E2E2E2E2E2E2E2E2E2E2F5E2E2E2F5F5E2E2E2F5E2E2E2E2E2E2E2E2E2E2E2E2E2E2E2E2F5E2E2E2E2E2E2E2E2E2E2E2E2E2E2E2E2E2E2E2E2
310
E2E2E2E2E2E2E2E2E2E2E2E2E2E2E2E2E2E2E2E2E2E2E2E2E2E2E2E2E2E2E2E2E2E2E2E2E2E2E2E2E2E2E2E2E2E2E2E2E2E2E2E2E2E2E2E2E2E2E2E2E2E2E2E2E2E2E2E2E2E2E2E2E2E2E2E2E2E2E2E2E2E2E2E2E2E2E2E2E2E2E2E2E2E2E2E2E2E2E2E2E2E2E2E2E2E2E2E2E2E2E2E2E2E2E2E2F5E2E2E2E2E2E2E2E2E2E2
310
E2E2E2E2E2E2F5E2E2E2F5F5E2E2E2F5E2E2E2E2E2E2E2E2E2E2E2E2E2E2E2E2F5E2E2E2E2E2E2E2E2E2E2E2E2E2E2E2E2E2E2E2E2E2E2E2E2E2E2E2E2E2E2E2E2E2E2E2E2E2E2E2E2E2E2E2E2E2E2E2E2E2E2E2E2E2E2E2E2E2E2E2E2E2E2E2E2E2E2E2E2E2E2E2E2E2E2E2E2E2E2E2E2E2E2E2E2E2E2E2E2E2E2E2E2E2E2
310
E2E2E2E2E2E2E2E2E2E2E2E2E2E2E2E2E2E2E2E2E2E2E2E2E2E2E2E2E2E2E2E2E2E2E2E2E2E2E2E2E2E2F5E2E2E2E2E2E2E2E2E2E2E2E2E2E2E2E2F5E2E2E2F5F5E2E2E2E2E2E2E2E2E2E2E2E2E2E2E2E2E2E2E2E2F5E2E2E2E2E2E2E2E2E2E2E2E2E2E2E2E2E2E2E2E2E2E2E2E2E2E2E2E2E2E2E2E2E2E2E2E2E2E2E2E2E2
310
E2E2E2E2E2E2E2E2E2E2E2E2E2E2E2E2E2E2E2E2E2E2E2E2E2E2E2E2E2E2E2E2E2E2E2E2E2E2E2E2E2E2E2E2E2E2E2E2E2E2E2E2E2E2E2E2E2E2E2E2E2E2E2E2E2E2E2E2E2E2E2E2E2E2E2E2E2E2E2E2E2E2E2E2E2E2E2E2E2E2E2E2E2E2E2F5E2E2E2E2E2E2E2E2E2E2E2E2E2E2E2E2E2E2E2E2F5F5E2E2E2E2E2E2E2E2E2
310
E2E2E2E2E2E2E2E2E2E2E2F5E2E2E2E2E2E2E2E2E2E2E2E2E2E2E2E2E2E2E2E2E2E2E2E2E2E2E2E2E2E2E2E2E2E2E2E2E2E2E2E2E2E2E2E2E2E2E2E2E2E2E2E2E2E2E2E2E2E2E2E2E2E2E2E2E2E2E2E2E2E2E2E2E2E2E2E2E2E2E2E2E2E2E2E2E2E2E2E2E2E2E2E2E2E2E2E2E2E2E2E2E2E2E2E2E2E2E2E2E2E2E2E2E2E2E2
310
E2E2E2E2E2E2E2E2E2E2E2E2E2E2E2E2E2E2E2E2E2F5E2E2E2E2E2E2E2E2E2E2E2E2E2E2E2E2E2E2E2E2F5F5E2E2E2E2E2E2E2E2E2E2E2E2E2E2E2E2E2E2E2E2F5E2E2E2E2E2E2E2E2E2E2E2E2E2E2E2E2E2E2E2E2E2E2E2E2E2E2E2E2E2E2E2E2E2E2E2E2E2E2E2E2E2E2E2E2E2E2E2E2E2E2E2E2E2E2E2E2E2E2E2E2E2E2
310
E2E2E2E2E2E2E2E2E2E2E2E2E2E2E2E2E2E2E2E2E2E2E2E2E2E2E2E2E2E2E2E2E2E2E2E2E2E2E2E2E2E2E2E2E2E2E2E2E2E2E2E2E2E2E2E2E2E2E2E2E2E2E2E2E2E2E2E2E2E2E2E2E2E2F5E2E2E2E2E2E2E2E2E2E2E2E2E2E2E2E2E2E2E2E2F5F5E2E2E2E2E2E2E2E2E2E2E2E2E2E2E2E2E2E2E2E2F5E2E2E2E2E2E2E2E2E2
310
E2E2E2E2E2E2E2E2E2E2E2E2E2E2E2E2E2E2E2E2E2E2E2E2E2E2E2E2E2E2E2E2E2E2E2E2E2E2E2E2E2E2E2E2E2E2E2E2E2E2E2E2E2E2E2E2E2E2E2E2E2E2E2E2E2E2E2E2E2E2E2E2E2E2E2E2E2E2E2E2E2E2E2E2E2E2E2E2E2E2E2E2E2E2E2E2E2E2E2E2E2E2E2E2E2E2E2E2E2E2E2E2E2E2E2E2E2E2E2E2E2E2E2E2E2E2E2
310
F5E2E2E2E2E2E2E2E2E2E2E2E2E2E2E2E2E2E2E2E2F5F5E2E2E2E2E2E2E2E2E2E2E2E2E2E2E2E2E2E2E2E2F5E2E2E2E2E2E2E2E2E2E2E2E2E2E2E2E2E2E2E2E2E2E2E2E2E2E2E2E2E2E2E2E2E2E2E2E2E2E2E2E2E2E2E2E2E2E2E2E2E2E2E2E2E2E2E2E2E2E2E2E2E2E2E2E2E2E2E2E2E2E2E2E2E2E2E2E2E2E2E2E2E2E2E2
310
E2E2E2E2E2E2E2E2E2E2E2E2E2E2E2E2E2E2E2E2E2E2E2E2E2E2E2E2E2E2E2E2E2E2E2E2E2E2E2E2E2E2E2E2E2E2E2E2E2E2E2E2E2F5E2E2E2E2E2E2E2E2E2E2E2E2E2E2E2E2E2E2E2E2F5F5E2E2E2E2E2E2E2E2E2E2E2E2E2E2E2E2E2E2E2E2F5E2E2E2E2E2E2E2E2E2E2E2E2E2E2E2E2E2E2E2E2E2E2E2E2E2E2E2E2E2E2
310
E2E2E2E2E2E2E2E2E2E2E2E2E2E2E2E2E2E2E2E2E2E2E2E2E2E2E2E2E2E2E2E2E2E2E2E2E2E2E2E2E2E2E2E2E2E2E2E2E2E2E2E2E2E2E2E2E2E2E2E2E2E2E2E2E2E2E2E2E2E2E2E2E2E2E2E2E2E2E2E2E2E2E2E2E2E2E2E2E2E2E2E2E2E2E2E2E2E2E2E2E2E2E2E2E2E2F5E2E2E2E2E2E2E2E2E2E2E2E2E2E2E2E2E2E2E2E2
310
F5F5E2E2E2E2E2E2E2E2E2E2E2E2E2E2E2E2E2E2E2E2F5E2E2E2E2E2E2E2E2E2E2E2E2E2E2E2E2E2E2E2E2E2E2E2E2E2E2E2E2E2E2E2E2E2E2E2E2E2E2E2E2E2E2E2E2E2E2E2E2E2E2E2E2E2E2E2E2E2E2E2E2E2E2E2E2E2E2E2E2E2E2E2E2E2E2E2E2E2E2E2E2E2E2E2E2E2E2E2E2E2E2E2E2E2E2E2E2E2E2E2E2E2E2E2E2
310
E2E2E2E2E2E2E2E2E2E2E2E2E2E2E2E2E2E2E2E2E2E2E2E2E2E2E2E2E2E2E2E2F5E2E2E2E2E2E2E2E2E2E2E2E2E2E2E2E2E2E2E2E2F5F5E2E2E2E2E2E2E2E2E2E2E2E2E2E2E2E2E2E2E2E2F5E2E2E2E2E2E2E2E2E2E2E2E2E2E2E2E2E2E2E2E2E2E2E2E2E2E2E2E2E2E2E2E2E2E2E2E2E2E2E2E2E2E2E2E2E2E2E2E2E2E2E2
310
E2E2E2E2E2E2E2E2E2E2E2E2E2E2E2E2E2E2E2E2E2E2E2E2E2E2E2E2E2E2E2E2E2E2E2E2E2E2E2E2E2E2E2E2E2E2E2E2E2E2E2E2E2E2E2E2E2E2E2E2E2E2E2E2E2E2E2E2E2E2E2E2E2E2E2E2E2E2E2E2E2E2E2E2E2F5E2E2E2E2E2E2E2E2E2E2E2E2E2E2E2E2E2E2E2E2F5F5E2E2E2E2E2E2E2E2E2E2E2E2E2E2E2E2E2E2E2
310
E2F5E2E2E2E2E2E2E2E2E2E2E2E2E2E2E2E2E2E2E2E2E2E2E2E2E2E2E2E2E2E2E2E2E2E2E2E2E2E2E2E2E2E2E2E2E2E2E2E2E2E2E2E2E2E2E2E2E2E2E2E2E2E2E2E2E2E2E2E2E2E2E2E2E2E2E2E2E2E2E2E2E2E2E2E2E2E2E2E2E2E2E2E2E2E2E2E2E2E2E2E2E2E2E2E2E2E2E2E2E2E2E2E2E2E2E2E2E2E2E2E2E2E2E2E2E2
310
E2E2E2E2E2E2E2E2E2E2E2F5E2E2E2E2E2E2E2E2E2E2E2E2E2E2E2E2E2E2E2E2F5F5E2E2E2E2E2E2E2E2E2E2E2E2E2E2E2E2E2E2E2E2F5E2E2E2E2E2E2E2E2E2E2E2E2E2E2E2E2E2E2E2E2E2E2E2E2E2E2E2E2E2E2E2E2E2E2E2E2E2E2E2E2E2E2E2E2E2E2E2E2E2E2E2E2E2E2E2E2E2E2E2E2E2E2E2E2E2E2E2E2E2E2E2E2
310
E2E2E2E2E2E2E2E2E2E2E2E2E2E2E2E2E2E2E2E2E2E2E2E2E2E2E2E2E2E2E2E2E2E2E2E2E2E2E2E2E2E2E2E2E2E2E2E2E2E2E2E2E2E2E2E2E2E2E2E2E2E2E2E2F5E2E2E2E2E2E2E2E2E2E2E2E2E2E2E2E2E2E2E2E2F5F5E2E2E2F5E2E2E2E2E2E2E2E2E2E2E2E2E2E2E2E2F5E2E2E2E2E2E2E2E2E2E2E2E2E2E2E2E2E2E2E2
310
E2E2E2E2E2E2E2E2E2E2E2E2E2E2E2E2E2E2E2E2E2E2E2E2E2E2E2E2E2E2E2E2E2E2E2E2E2E2E2E2E2E2E2E2E2E2E2E2E2E2E2E2E2E2E2E2E2E2E2E2E2E2E2E2E2E2E2E2E2E2E2E2E2E2E2E2E2E2E2E2E2E2E2E2E2E2E2E2E2E2E2E2E2E2E2E2E2E2E2E2E2E2E2E2E2E2E2E2E2E2E2E2E2E2E2E2E2F5E2E2E2E2E2E2E2E2E2
310
E2E2E2E2E2E2E2F5E2E2E2F5F5E2E2E2F5E2E2E2E2E2E2E2E2E2E2E2E2E2E2E2E2F5E2E2E2E2E2E2E2E2E2E2E2E2E2E2E2E2E2E2E2E2E2E2E2E2E2E2E2E2E2E2E2E2E2E2E2E2E2E2E2E2E2E2E2E2E2E2E2E2E2E2E2E2E2E2E2E2E2E2E2E2E2E2E2E2E2E2E2E2E2E2E2E2E2E2E2E2E2E2E2E2E2E2E2E2E2E2E2E2E2E2E2E2E2
310
E2E2E2E2E2E2E2E2E2E2E2E2E2E2E2E2E2E2E2E2E2E2E2E2E2E2E2E2E2E2E2E2E2E2E2E2E2E2E2E2E2E2E2F5E2E2E2E2E2E2E2E2E2E2E2E2E2E2E2E2F5E2E2E2F5F5E2E2E2F5E2E2E2E2E2E2E2E2E2E2E2E2E2E2E2E2F5E2E2E2E2E2E2E2E2E2E2E2E2E2E2E2E2E2E2E2E2E2E2E2E2E2E2E2E2E2E2E2E2E2E2E2E2E2E2E2E2
310
E2E2E2E2E2E2E2E2E2E2E2E2E2E2E2E2E2E2E2E2E2E2E2E2E2E2E2E2E2E2E2E2E2E2E2E2E2E2E2E2E2E2E2E2E2E2E2E2E2E2E2E2E2E2E2E2E2E2E2E2E2E2E2E2E2E2E2E2E2E2E2E2E2E2E2E2E2E2E2E2E2E2E2E2E2E2E2E2E2E2E2E2E2E2E2E2F5E2E2E2E2E2E2E2E2E2E2E2E2E2E2E2E2F5E2E2E2F5F5E2E2E2F5E2E2E2E2
310
E2E2E2E2E2E2E2E2E2E2E2E2F5E2E2E2E2E2E2E2E2E2E2E2E2E2E2E2E2E2E2E2E2E2E2E2E2E2E2E2E2E2E2E2E2E2E2E2E2E2E2E2E2E2E2E2E2E2E2E2E2E2E2E2E2E2E2E2E2E2E2E2E2E2E2E2E2E2E2E2E2E2E2E2E2E2E2E2E2E2E2E2E2E2E2E2E2E2E2E2E2E2E2E2E2E2E2E2E2E2E2E2E2E2E2E2E2E2E2E2E2E2E2E2E2E2E2
310
E2E2E2E2E2E2E2E2E2E2E2E2E2E2E2E2E2E2E2E2E2E2F5E2E2E2E2E2E2E2E2E2E2E2E2E2E2E2E2F5E2E2E2F5F5E2E2E2F5E2E2E2E2E2E2E2E2E2E2E2E2E2E2E2E2F5E2E2E2E2E2E2E2E2E2E2E2E2E2E2E2E2E2E2E2E2E2E2E2E2E2E2E2E2E2E2E2E2E2E2E2E2E2E2E2E2E2E2E2E2E2E2E2E2E2E2E2E2E2E2E2E2E2E2E2E2E2
310
E2E2E2E2E2E2E2E2E2E2E2E2E2E2E2E2E2E2E2E2E2E2E2E2E2E2E2E2E2E2E2E2E2E2E2E2E2E2E2E2E2E2E2E2E2E2E2E2E2E2E2E2E2E2E2E2E2E2E2E2E2E2E2E2E2E2E2E2E2E2E2E2E2E2E2F5E2E2E2E2E2E2E2E2E2E2E2E2E2E2E2E2F5E2E2E2F5F5E2E2E2F5E2E2E2E2E2E2E2E2E2E2E2E2E2E2E2E2F5E2E2E2E2E2E2E2E2
310
E2E2E2E2E2E2E2E2E2E2E2E2E2E2E2E2E2E2E2E2E2E2E2E2E2E2E2E2E2E2E2E2E2E2E2E2E2E2E2E2E2E2E2E2E2E2E2E2E2E2E2E2E2E2E2E2E2E2E2E2E2E2E2E2E2E2E2E2E2E2E2E2E2E2E2E2E2E2E2E2E2E2E2E2E2E2E2E2E2E2E2E2E2E2E2E2E2E2E2E2E2E2E2E2E2E2E2E2E2E2E2E2E2E2E2E2E2E2E2E2E2E2E2E2E2E2E2
310
E2F5E2E2E2E2E2E2E2E2E2E2E2E2E2E2E2E2F5E2E2E2F5F5E2E2E2F5E2E2E2E2E2E2E2E2E2E2E2E2E2E2E2E2F5E2E2E2E2E2E2E2E2E2E2E2E2E2E2E2E2E2E2E2E2E2E2E2E2E2E2E2E2E2E2E2E2E2E2E2E2E2E2E2E2E2E2E2E2E2E2E2E2E2E2E2E2E2E2E2E2E2E2E2E2E2E2E2E2E2E2E2E2E2E2E2E2E2E2E2E2E2E2E2E2E2E2
310
E2E2E2E2E2E2E2E2E2E2E2E2E2E2E2E2E2E2E2E2E2E2E2E2E2E2E2E2E2E2E2E2E2E2E2E2E2E2E2E2E2E2E2E2E2E2E2E2E2E2E2E2E2E2F5E2E2E2E2E2E2E2E2E2E2E2E2E2E2E2E2F5E2E2E2F5F5E2E2E2F5E2E2E2E2E2E2E2E2E2E2E2E2E2E2E2E2F5E2E2E2E2E2E2E2E2E2E2E2E2E2E2E2E2E2E2E2E2E2E2E2E2E2E2E2E2E2
310
E2E2E2E2E2E2E2E2E2E2E2E2E2E2E2E2E2E2E2E2E2E2E2E2E2E2E2E2E2E2E2E2E2E2E2E2E2E2E2E2E2E2E2E2E2E2E2E2E2E2E2E2E2E2E2E2E2E2E2E2E2E2E2E2E2E2E2E2E2E2E2E2E2E2E2E2E2E2E2E2E2E2E2E2E2E2E2E2E2E2E2E2E2E2E2E2E2E2E2E2E2E2E2E2E2E2E2F5E2E2E2E2E2E2E2E2E2E2E2E2E2E2E2E2F5E2E2
310
E2F5F5E2E2E2F5E2E2E2E2E2E2E2E2E2E2E2E2E2E2E2E2F5E2E2E2E2E2E2E2E2E2E2E2E2E2E2E2E2E2E2E2E2E2E2E2E2E2E2E2E2E2E2E2E2E2E2E2E2E2E2E2E2E2E2E2E2E2E2E2E2E2E2E2E2E2E2E2E2E2E2E2E2E2E2E2E2E2E2E2E2E2E2E2E2E2E2E2E2E2E2E2E2E2E2E2E2E2E2E2E2E2E2E2E2E2E2E2E2E2E2E2E2E2E2E2
310
E2E2E2E2E2E2E2E2E2E2E2E2E2E2E2E2E2E2E2E2E2E2E2E2E2E2E2E2E2E2E2E2E2F5E2E2E2E2E2E2E2E2E2E2E2E2E2E2E2E2F5E2E2E2F5F5E2E2E2F5E2E2E2E2E2E2E2E2E2E2E2E2E2E2E2E2F5E2E2E2E2E2E2E2E2E2E2E2E2E2E2E2E2E2E2E2E2E2E2E2E2E2E2E2E2E2E2E2E2E2E2E2E2E2E2E2E2E2E2E2E2E2E2E2E2E2E2
310
E2E2E2E2E2E2E2E2E2E2E2E2E2E2E2E2E2E2E2E2E2E2E2E2E2E2E2E2E2E2E2E2E2E2E2E2E2E2E2E2E2E2E2E2E2E2E2E2E2E2E2E2E2E2E2E2E2E2E2E2E2E2E2E2E2E2E2E2E2E2E2E2E2E2E2E2E2E2E2E2E2E2E2E2E2E2F5E2E2E2E2E2E2E2E2E2E2E2E2E2E2E2E2F5E2E2E2F5F5E2E2E2F5E2E2E2E2E2E2E2E2E2E2E2E2E2E2
310
E2E2F5E2E2E2E2E2E2E2E2E2E2E2E2E2E2E2E2E2E2E2E2E2E2E2E2E2E2E2E2E2E2E2E2E2E2E2E2E2E2E2E2E2E2E2E2E2E2E2E2E2E2E2E2E2E2E2E2E2E2E2E2E2E2E2E2E2E2E2E2E2E2E2E2E2E2E2E2E2E2E2E2E2E2E2E2E2E2E2E2E2E2E2E2E2E2E2E2E2E2E2E2E2E2E2E2E2E2E2E2E2E2E2E2E2E2E2E2E2E2E2E2E2E2E2E2
310
E2E2E2E2E2E2E2E2E2E2E2E2F5E2E2E2E2E2E2E2E2E2E2E2E2E2E2E2E2F5E2E2E2F5F5E2E2E2F5E2E2E2E2E2E2E2E2E2E2E2E2E2E2E2E2F5E2E2E2E2E2E2E2E2E2E2E2E2E2E2E2E2E2E2E2E2E2E2E2E2E2E2E2E2E2E2E2E2E2E2E2E2E2E2E2E2E2E2E2E2E2E2E2E2E2E2E2E2E2E2E2E2E2E2E2E2E2E2E2E2E2E2E2E2E2E2E2
310
E2E2E2E2E2E2E2E2E2E2E2E2E2E2E2E2E2E2E2E2E2E2E2E2E2E2E2E2E2E2E2E2E2E2E2E2E2E2E2E2E2E2E2E2E2E2E2E2E2E2E2E2E2E2E2E2E2E2E2E2E2E2E2E2E2F5E2E2E2E2E2E2E2E2E2E2E2E2E2E2E2E2F5E2E2E2F5F5E2E2E2F5E2E2E2E2E2E2E2E2E2E2E2E2E2E2E2E2F5E2E2E2E2E2E2E2E2E2E2E2E2E2E2E2E2E2E2
310
E2E2E2E2E2E2E2E2E2E2E2E2E2E2E2E2E2E2E2E2E2E2E2E2E2E2E2E2E2E2E2E2E2E2E2E2E2E2E2E2E2E2E2E2E2E2E2E2E2E2E2E2E2E2E2E2E2E2E2E2E2E2E2E2E2E2E2E2E2E2E2E2E2E2E2E2E2E2E2E2E2E2E2E2E2E2E2E2E2E2E2E2E2E2E2E2E2E2E2E2E2E2E2E2E2E2E2E2E2E2E2E2E2E2E2E2E2E2F5E2E2E2E2E2E2E2E2
310
E2E2E2E2E2E2E2E2F5E2E2E2F5F5E2E2E2F5E2E2E2E2E2E2E2E2E2E2E2E2E2E2E2E2F5E2E2E2E2E2E2E2E2E2E2E2E2E2E2E2E2E2E2E2E2E2E2E2E2E2E2E2E2E2E2E2E2E2E2E2E2E2E2E2E2E2E2E2E2E2E2E2E2E2E2E2E2E2E2E2E2E2E2E2E2E2E2E2E2E2E2E2E2E2E2E2E2E2E2E2E2E2E2E2E2E2E2E2E2E2E2E2E2E2E2E2E2
310
E2E2E2E2E2E2E2E2E2E2E2E2E2E2E2E2E2E2E2E2E2E2E2E2E2E2E2E2E2E2E2E2E2E2E2E2E2E2E2E2E2E2E2E2F5E2E2E2E2E2E2E2E2E2E2E2E2E2E2E2E2F5E2E2E2F5F5E2E2E2F5E2E2E2E2E2E2E2E2E2E2E2E2E2E2E2E2F5E2E2E2E2E2E2E2E2E2E2E2E2E2E2E2E2E2E2E2E2E2E2E2E2E2E2E2E2E2E2E2E2E2E2E2E2E2E2E2
310
E2E2E2E2E2E2E2E2E2E2E2E2E2E2E2E2E2E2E2E2E2E2E2E2E2E2E2E2E2E2E2E2E2E2E2E2E2E2E2E2E2E2E2E2E2E2E2E2E2E2E2E2E2E2E2E2E2E2E2E2E2E2E2E2E2E2E2E2E2E2E2E2E2E2E2E2E2E2E2E2E2E2E2E2E2E2E2E2E2E2E2E2E2E2E2E2E2F5E2E2E2E2E2E2E2E2E2E2E2E2E2E2E2E2F5E2E2E2F5F5E2E2E2F5E2E2E2
310
E2E2E2E2E2E2E2E2E2E2E2E2E2F5E2E2E2E2E2E2E2E2E2E2E2E2E2E2E2E2E2E2E2E2E2E2E2E2E2E2E2E2E2E2E2E2E2E2E2E2E2E2E2E2E2E2E2E2E2E2E2E2E2E2E2E2E2E2E2E2E2E2E2E2E2E2E2E2E2E2E2E2E2E2E2E2E2E2E2E2E2E2E2E2E2E2E2E2E2E2E2E2E2E2E2E2E2E2E2E2E2E2E2E2E2E2E2E2E2E2E2E2E2E2E2E2E2
310
E2E2E2E2E2E2E2E2E2E2E2E2E2E2E2E2E2E2E2E2E2E2E2F5E2E2E2E2E2E2E2E2E2E2E2E2E2E2E2E2F5E2E2E2F5F5E2E2E2E2E2E2E2E2E2E2E2E2E2E2E2E2E2E2E2E2F5E2E2E2E2E2E2E2E2E2E2E2E2E2E2E2E2E2E2E2E2E2E2E2E2E2E2E2E2E2E2E2E2E2E2E2E2E2E2E2E2E2E2E2E2E2E2E2E2E2E2E2E2E2E2E2E2E2E2E2E2
310
E2E2E2E2E2E2E2E2E2E2E2E2E2E2E2E2E2E2E2E2E2E2E2E2E2E2E2E2E2E2E2E2E2E2E2E2E2E2E2E2E2E2E2E2E2E2E2E2E2E2E2E2E2E2E2E2E2E2E2E2E2E2E2E2E2E2E2E2E2E2E2E2E2E2E2E2F5E2E2E2E2E2E2E2E2E2E2E2E2E2E2E2E2E2E2E2E2F5F5E2E2E2E2E2E2E2E2E2E2E2E2E2E2E2E2E2E2E2E2F5E2E2E2E2E2E2E2
310
E2E2E2E2E2E2E2E2E2E2E2E2E2E2E2E2E2E2E2E2E2E2E2E2E2E2E2E2E2E2E2E2E2E2E2E2E2E2E2E2E2E2E2E2E2E2E2E2E2E2E2E2E2E2E2E2E2E2E2E2E2E2E2E2E2E2E2E2E2E2E2E2E2E2E2E2E2E2E2E2E2E2E2E2E2E2E2E2E2E2E2E2E2E2E2E2E2E2E2E2E2E2E2E2E2E2E2E2E2E2E2E2E2E2E2E2E2E2E2E2E2E2E2E2E2E2E2
310
E2E2F5E2E2E2E2E2E2E2E2E2E2E2E2E2E2E2E2E2E2E2E2F5F5E2E2E2E2E2E2E2E2E2E2E2E2E2E2E2E2E2E2E2E2F5E2E2E2E2E2E2E2E2E2E2E2E2E2E2E2E2E2E2E2E2E2E2E2E2E2E2E2E2E2E2E2E2E2E2E2E2E2E2E2E2E2E2E2E2E2E2E2E2E2E2E2E2E2E2E2E2E2E2E2E2E2E2E2E2E2E2E2E2E2E2E2E2E2E2E2E2E2E2E2E2E2
310
E2E2E2E2E2E2E2E2E2E2E2E2E2E2E2E2E2E2E2E2E2E2E2E2E2E2E2E2E2E2E2E2E2E2E2E2E2E2E2E2E2E2E2E2E2E2E2E2E2E2E2E2E2E2E2F5E2E2E2E2E2E2E2E2E2E2E2E2E2E2E2E2E2E2E2E2F5F5E2E2E2E2E2E2E2E2E2E2E2E2E2E2E2E2E2E2E2E2F5E2E2E2E2E2E2E2E2E2E2E2E2E2E2E2E2E2E2E2E2E2E2E2E2E2E2E2E2
310
E2E2E2E2E2E2E2E2E2E2E2E2E2E2E2E2E2E2E2E2E2E2E2E2E2E2E2E2E2E2E2E2E2E2E2E2E2E2E2E2E2E2E2E2E2E2E2E2E2E2E2E2E2E2E2E2E2E2E2E2E2E2E2E2E2E2E2E2E2E2E2E2E2E2E2E2E2E2E2E2E2E2E2E2E2E2E2E2E2E2E2E2E2E2E2E2E2E2E2E2E2E2E2E2E2E2E2E2F5E2E2E2E2E2E2E2E2E2E2E2E2E2E2E2E2E2E2
310
E2E2F5F5E2E2E2E2E2E2E2E2E2E2E2E2E2E2E2E2E2E2E2E2F5E2E2E2E2E2E2E2E2E2E2E2E2E2E2E2E2E2E2E2E2E2E2E2E2E2E2E2E2E2E2E2E2E2E2E2E2E2E2E2E2E2E2E2E2E2E2E2E2E2E2E2E2E2E2E2E2E2E2E2E2E2E2E2E2E2E2E2E2E2E2E2E2E2E2E2E2E2E2E2E2E2E2E2E2E2E2E2E2E2E2E2E2E2E2E2E2E2E2E2E2E2E2
310
E2E2E2E2E2E2E2E2E2E2E2E2E2E2E2E2E2E2E2E2E2E2E2E2E2E2E2E2E2E2E2E2E2E2F5E2E2E2E2E2E2E2E2E2E2E2E2E2E2E2E2E2E2E2E2F5F5E2E2E2E2E2E2E2E2E2E2E2E2E2E2E2E2E2E2E2E2F5E2E2E2E2E2E2E2E2E2E2E2E2E2E2E2E2E2E2E2E2E2E2E2E2E2E2E2E2E2E2E2E2E2E2E2E2E2E2E2E2E2E2E2E2E2E2E2E2E2
310
E2E2E2E2E2E2E2E2E2E2E2E2E2E2E2E2E2E2E2E2E2E2E2E2E2E2E2E2E2E2E2E2E2E2E2E2E2E2E2E2E2E2E2E2E2E2E2E2E2E2E2E2E2E2E2E2E2E2E2E2E2E2E2E2E2E2E2E2E2E2E2E2E2E2E2E2E2E2E2E2E2E2E2E2E2E2E2F5E2E2E2E2E2E2E2E2E2E2E2E2E2E2E2E2E2E2E2E2F5F5E2E2E2E2E2E2E2E2E2E2E2E2E2E2E2E2E2
310
E2E2E2F5E2E2E2E2E2E2E2E2E2E2E2E2E2E2E2E2E2E2E2E2E2E2E2E2E2E2E2E2E2E2E2E2E2E2E2E2E2E2E2E2E2E2E2E2E2E2E2E2E2E2E2E2E2E2E2E2E2E2E2E2E2E2E2E2E2E2E2E2E2E2E2E2E2E2E2E2E2E2E2E2E2E2E2E2E2E2E2E2E2E2E2E2E2E2E2E2E2E2E2E2E2E2E2E2E2E2E2E2E2E2E2E2E2E2E2E2E2E2E2E2E2E2E2
310
E2E2E2E2E2E2E2E2E2E2E2E2E2F5E2E2E2E2E2E2E2E2E2E2E2E2E2E2E2E2E2E2E2E2F5F5E2E2E2E2E2E2E2E2E2E2E2E2E2E2E2E2E2E2E2E2F5E2E2E2E2E2E2E2E2E2E2E2E2E2E2E2E2E2E2E2E2E2E2E2E2E2E2E2E2E2E2E2E2E2E2E2E2E2E2E2E2E2E2E2E2E2E2E2E2E2E2E2E2E2E2E2E2E2E2E2E2E2E2E2E2E2E2E2E2E2E2
310
E2E2E2E2E2E2E2E2E2E2E2E2E2E2E2E2E2E2E2E2E2E2E2E2E2E2E2E2E2E2E2E2E2E2E2E2E2E2E2E2E2E2E2E2E2E2E2E2E2E2E2E2E2E2E2E2E2E2E2E2E2E2E2E2E2E2F5E2E2E2E2E2E2E2E2E2E2E2E2E2E2E2E2E2E2E2E2F5F5E2E2E2E2E2E2E2E2E2E2E2E2E2E2E2E2E2E2E2E2F5E2E2E2E2E2E2E2E2E2E2E2E2E2E2E2E2E2
310
E2E2E2E2E2E2E2E2E2E2E2E2E2E2E2E2E2E2E2E2E2E2E2E2E2E2E2E2E2E2E2E2E2E2E2E2E2E2E2E2E2E2E2E2E2E2E2E2E2E2E2E2E2E2E2E2E2E2E2E2E2E2E2E2E2E2E2E2E2E2E2E2E2E2E2E2E2E2E2E2E2E2E2E2E2E2E2E2E2E2E2E2E2E2E2E2E2E2E2E2E2E2E2E2E2E2E2E2E2E2E2E2E2E2E2E2E2E2E2F5E2E2E2E2E2E2E2
310
E2E2E2E2E2E2E2E2E2E2E2E2E2F5F5E2E2E2F5E2E2E2E2E2E2E2E2E2E2E2E2E2E2E2E2F5E2E2E2E2E2E2E2E2E2E2E2E2E2E2E2E2E2E2E2E2E2E2E2E2E2E2E2E2E2E2E2E2E2E2E2E2E2E2E2E2E2E2E2E2E2E2E2E2E2E2E2E2E2E2E2E2E2E2E2E2E2E2E2E2E2E2E2E2E2E2E2E2E2E2E2E2E2E2E2E2E2E2E2E2E2E2E2E2E2E2E2
310
E2E2E2E2E2E2E2E2E2E2E2E2E2E2E2E2E2E2E2E2E2E2E2E2E2E2E2E2E2E2E2E2E2E2E2E2E2E2E2E2E2E2E2E2E2F5E2E2E2E2E2E2E2E2E2E2E2E2E2E2E2E2F5E2E2E2F5F5E2E2E2F5E2E2E2E2E2E2E2E2E2E2E2E2E2E2E2E2F5E2E2E2E2E2E2E2E2E2E2E2E2E2E2E2E2E2E2E2E2E2E2E2E2E2E2E2E2E2E2E2E2E2E2E2E2E2E2
310
E2E2E2E2E2E2E2E2E2E2E2E2E2E2E2E2E2E2E2E2E2E2E2E2E2E2E2E2E2E2E2E2E2E2E2E2E2E2E2E2E2E2E2E2E2E2E2E2E2E2E2E2E2E2E2E2E2E2E2E2E2E2E2E2E2E2E2E2E2E2E2E2E2E2E2E2E2E2E2E2E2E2E2E2E2E2E2E2E2E2E2E2E2E2E2E2E2E2F5E2E2E2E2E2E2E2E2E2E2E2E2E2E2E2E2F5E2E2E2F5F5E2E2E2F5E2E2
310
E2E2E2E2E2E2E2E2E2E2E2E2E2E2F5E2E2E2E2E2E2E2E2E2E2E2E2E2E2E2E2E2E2E2E2E2E2E2E2E2E2E2E2E2E2E2E2E2E2E2E2E2E2E2E2E2E2E2E2E2E2E2E2E2E2E2E2E2E2E2E2E2E2E2E2E2E2E2E2E2E2E2E2E2E2E2E2E2E2E2E2E2E2E2E2E2E2E2E2E2E2E2E2E2E2E2E2E2E2E2E2E2E2E2E2E2E2E2E2E2E2E2E2E2E2E2E2
310
E2E2E2E2E2E2E2E2E2E2E2E2E2E2E2E2E2E2E2E2E2E2E2E2F5E2E2E2E2E2E2E2E2E2E2E2E2E2E2E2E2F5E2E2E2F5F5E2E2E2F5E2E2E2E2E2E2E2E2E2E2E2E2E2E2E2E2F5E2E2E2E2E2E2E2E2E2E2E2E2E2E2E2E2E2E2E2E2E2E2E2E2E2E2E2E2E2E2E2E2E2E2E2E2E2E2E2E2E2E2E2E2E2E2E2E2E2E2E2E2E2E2E2E2E2E2E2
310
E2E2E2E2E2E2E2E2E2E2E2E2E2E2E2E2E2E2E2E2E2E2E2E2E2E2E2E2E2E2E2E2E2E2E2E2E2E2E2E2E2E2E2E2E2E2E2E2E2E2E2E2E2E2E2E2E2E2E2E2E2E2E2E2E2E2E2E2E2E2E2E2E2E2E2E2E2F5E2E2E2E2E2E2E2E2E2E2E2E2E2E2E2E2F5E2E2E2F5F5E2E2E2F5E2E2E2E2E2E2E2E2E2E2E2E2E2E2E2E2F5E2E2E2E2E2E2
310
E2E2E2E2E2E2E2E2E2E2E2E2E2E2E2E2E2E2E2E2E2E2E2E2E2E2E2E2E2E2E2E2E2E2E2E2E2E2E2E2E2E2E2E2E2E2E2E2E2E2E2E2E2E2E2E2E2E2E2E2E2E2E2E2E2E2E2E2E2E2E2E2E2E2E2E2E2E2E2E2E2E2E2E2E2E2E2E2E2E2E2E2E2E2E2E2E2E2E2E2E2E2E2E2E2E2E2E2E2E2E2E2E2E2E2E2E2E2E2E2E2E2E2E2E2E2E2
310
E2E2E2F5E2E2E2E2E2E2E2E2E2E2E2E2E2E2E2E2F5E2E2E2F5F5E2E2E2F5E2E2E2E2E2E2E2E2E2E2E2E2E2E2E2E2F5E2E2E2E2E2E2E2E2E2E2E2E2E2E2E2E2E2E2E2E2E2E2E2E2E2E2E2E2E2E2E2E2E2E2E2E2E2E2E2E2E2E2E2E2E2E2E2E2E2E2E2E2E2E2E2E2E2E2E2E2E2E2E2E2E2E2E2E2E2E2E2E2E2E2E2E2E2E2E2E2
310
E2E2E2E2E2E2E2E2E2E2E2E2E2E2E2E2E2E2E2E2E2E2E2E2E2E2E2E2E2E2E2E2E2E2E2E2E2E2E2E2E2E2E2E2E2E2E2E2E2E2E2E2E2E2E2E2F5E2E2E2E2E2E2E2E2E2E2E2E2E2E2E2E2F5E2E2E2F5F5E2E2E2F5E2E2E2E2E2E2E2E2E2E2E2E2E2E2E2E2F5E2E2E2E2E2E2E2E2E2E2E2E2E2E2E2E2E2E2E2E2E2E2E2E2E2E2E2
310
E2E2E2E2E2E2E2E2E2E2E2E2E2E2E2E2E2E2E2E2E2E2E2E2E2E2E2E2E2E2E2E2E2E2E2E2E2E2E2E2E2E2E2E2E2E2E2E2E2E2E2E2E2E2E2E2E2E2E2E2E2E2E2E2E2E2E2E2E2E2E2E2E2E2E2E2E2E2E2E2E2E2E2E2E2E2E2E2E2E2E2E2E2E2E2E2E2E2E2E2E2E2E2E2E2E2E2E2E2F5E2E2E2E2E2E2E2E2E2E2E2E2E2E2E2E2F5
310
E2E2E2F5F5E2E2E2F5E2E2E2E2E2E2E2E2E2E2E2E2E2E2E2E2F5E2E2E2E2E2E2E2E2E2E2E2E2E2E2E2E2E2E2E2E2E2E2E2E2E2E2E2E2E2E2E2E2E2E2E2E2E2E2E2E2E2E2E2E2E2E2E2E2E2E2E2E2E2E2E2E2E2E2E2E2E2E2E2E2E2E2E2E2E2E2E2E2E2E2E2E2E2E2E2E2E2E2E2E2E2E2E2E2E2E2E2E2E2E2E2E2E2E2E2E2E2
310
E2E2E2E2E2E2E2E2E2E2E2E2E2E2E2E2E2E2E2E2E2E2E2E2E2E2E2E2E2E2E2E2E2E2E2F5E2E2E2E2E2E2E2E2E2E2E2E2E2E2E2E2F5E2E2E2F5F5E2E2E2F5E2E2E2E2E2E2E2E2E2E2E2E2E2E2E2E2F5E2E2E2E2E2E2E2E2E2E2E2E2E2E2E2E2E2E2E2E2E2E2E2E2E2E2E2E2E2E2E2E2E2E2E2E2E2E2E2E2E2E2E2E2E2E2E2E2
310
E2E2E2E2E2E2E2E2E2E2E2E2E2E2E2E2E2E2E2E2E2E2E2E2E2E2E2E2E2E2E2E2E2E2E2E2E2E2E2E2E2E2E2E2E2E2E2E2E2E2E2E2E2E2E2E2E2E2E2E2E2E2E2E2E2E2E2E2E2E2E2E2E2E2E2E2E2E2E2E2E2E2E2E2E2E2E2E2F5E2E2E2E2E2E2E2E2E2E2E2E2E2E2E2E2F5E2E2E2F5F5E2E2E2F5E2E2E2E2E2E2E2E2E2E2E2E2
310
E2E2E2E2F5E2E2E2E2E2E2E2E2E2E2E2E2E2E2E2E2E2E2E2E2E2E2E2E2E2E2E2E2E2E2E2E2E2E2E2E2E2E2E2E2E2E2E2E2E2E2E2E2E2E2E2E2E2E2E2E2E2E2E2E2E2E2E2E2E2E2E2E2E2E2E2E2E2E2E2E2E2E2E2E2E2E2E2E2E2E2E2E2E2E2E2E2E2E2E2E2E2E2E2E2E2E2E2E2E2E2E2E2E2E2E2E2E2E2E2E2E2E2E2E2E2E2
310
E2E2E2E2E2E2E2E2E2E2E2E2E2E2F5E2E2E2E2E2E2E2E2E2E2E2E2E2E2E2E2F5E2E2E2F5F5E2E2E2F5E2E2E2E2E2E2E2E2E2E2E2E2E2E2E2E2F5E2E2E2E2E2E2E2E2E2E2E2E2E2E2E2E2E2E2E2E2E2E2E2E2E2E2E2E2E2E2E2E2E2E2E2E2E2E2E2E2E2E2E2E2E2E2E2E2E2E2E2E2E2E2E2E2E2E2E2E2E2E2E2E2E2E2E2E2E2
310
E2E2E2E2E2E2E2E2E2E2E2E2E2E2E2E2E2E2E2E2E2E2E2E2E2E2E2E2E2E2E2E2E2E2E2E2E2E2E2E2E2E2E2E2E2E2E2E2E2E2E2E2E2E2E2E2E2E2E2E2E2E2E2E2E2E2E2F5E2E2E2E2E2E2E2E2E2E2E2E2E2E2E2E2F5E2E2E2F5F5E2E2E2F5E2E2E2E2E2E2E2E2E2E2E2E2E2E2E2E2F5E2E2E2E2E2E2E2E2E2E2E2E2E2E2E2E2
310
E2E2E2E2E2E2E2E2E2E2E2E2E2E2E2E2E2E2E2E2E2E2E2E2E2E2E2E2E2E2E2E2E2E2E2E2E2E2E2E2E2E2E2E2E2E2E2E2E2E2E2E2E2E2E2E2E2E2E2E2E2E2E2E2E2E2E2E2E2E2E2E2E2E2E2E2E2E2E2E2E2E2E2E2E2E2E2E2E2E2E2E2E2E2E2E2E2E2E2E2E2E2E2E2E2E2E2E2E2E2E2E2E2E2E2E2E2E2E2E2F5E2E2E2E2E2E2
310
E2E2E2E2E2E2E2E2E2E2F5E2E2E2F5F5E2E2E2F5E2E2E2E2E2E2E2E2E2E2E2E2E2E2E2E2F5E2E2E2E2E2E2E2E2E2E2E2E2E2E2E2E2E2E2E2E2E2E2E2E2E2E2E2E2E2E2E2E2E2E2E2E2E2E2E2E2E2E2E2E2E2E2E2E2E2E2E2E2E2E2E2E2E2E2E2E2E2E2E2E2E2E2E2E2E2E2E2E2E2E2E2E2E2E2E2E2E2E2E2E2E2E2E2E2E2E2
310
E2E2E2E2E2E2E2E2E2E2E2E2E2E2E2E2E2E2E2E2E2E2E2E2E2E2E2E2E2E2E2E2E2E2E2E2E2E2E2E2E2E2E2E2E2E2F5E2E2E2E2E2E2E2E2E2E2E2E2E2E2E2E2F5E2E2E2F5F5E2E2E2F5E2E2E2E2E2E2E2E2E2E2E2E2E2E2E2E2F5E2E2E2E2E2E2E2E2E2E2E2E2E2E2E2E2E2E2E2E2E2E2E2E2E2E2E2E2E2E2E2E2E2E2E2E2E2
310
E2E2E2E2E2E2E2E2E2E2E2E2E2E2E2E2E2E2E2E2E2E2E2E2E2E2E2E2E2E2E2E2E2E2E2E2E2E2E2E2E2E2E2E2E2E2E2E2E2E2E2E2E2E2E2E2E2E2E2E2E2E2E2E2E2E2E2E2E2E2E2E2E2E2E2E2E2E2E2E2E2E2E2E2E2E2E2E2E2E2E2E2E2E2E2E2E2E2E2F5E2E2E2E2E2E2E2E2E2E2E2E2E2E2E2E2F5E2E2E2F5F5E2E2E2F5E2
310
E2E2E2E2E2E2E2E2E2E2E2E2E2E2E2F5E2E2E2E2E2E2E2E2E2E2E2E2E2E2E2E2E2E2E2E2E2E2E2E2E2E2E2E2E2E2E2E2E2E2E2E2E2E2E2E2E2E2E2E2E2E2E2E2E2E2E2E2E2E2E2E2E2E2E2E2E2E2E2E2E2E2E2E2E2E2E2E2E2E2E2E2E2E2E2E2E2E2E2E2E2E2E2E2E2E2E2E2E2E2E2E2E2E2E2E2E2E2E2E2E2E2E2E2E2E2E2
310
E2E2E2E2E2E2E2E2E2E2E2E2E2E2E2E2E2E2E2E2E2E2E2E2E2F5E2E2E2E2E2E2E2E2E2E2E2E2E2E2E2E2F5E2E2E2F5F5E2E2E2F5E2E2E2E2E2E2E2E2E2E2E2E2E2E2E2E2F5E2E2E2E2E2E2E2E2E2E2E2E2E2E2E2E2E2E2E2E2E2E2E2E2E2E2E2E2E2E2E2E2E2E2E2E2E2E2E2E2E2E2E2E2E2E2E2E2E2E2E2E2E2E2E2E2E2E2
310
E2E2E2E2E2E2E2E2E2E2E2E2E2E2E2E2E2E2E2E2E2E2E2E2E2E2E2E2E2E2E2E2E2E2E2E2E2E2E2E2E2E2E2E2E2E2E2E2E2E2E2E2E2E2E2E2E2E2E2E2E2E2E2E2E2E2E2E2E2E2E2E2E2E2E2E2E2E2F5E2E2E2E2E2E2E2E2E2E2E2E2E2E2E2E2F5E2E2E2F5F5E2E2E2F5E2E2E2E2E2E2E2E2E2E2E2E2E2E2E2E2F5E2E2E2E2E2
310
E2E2E2E2E2E2E2E2E2E2E2E2E2E2E2E2E2E2E2E2E2E2E2E2E2E2E2E2E2E2E2E2E2E2E2E2E2E2E2E2E2E2E2E2E2E2E2E2E2E2E2E2E2E2E2E2E2E2E2E2E2E2E2E2E2E2E2E2E2E2E2E2E2E2E2E2E2E2E2E2E2E2E2E2E2E2E2E2E2E2E2E2E2E2E2E2E2E2E2E2E2E2E2E2E2E2E2E2E2E2E2E2E2E2E2E2E2E2E2E2E2E2E2E2E2E2E2
310
E2E2E2E2F5E2E2E2E2E2E2E2E2E2E2E2E2E2E2E2E2F5E2E2E2F5F5E2E2E2E2E2E2E2E2E2E2E2E2E2E2E2E2E2E2E2E2F5E2E2E2E2E2E2E2E2E2E2E2E2E2E2E2E2E2E2E2E2E2E2E2E2E2E2E2E2E2E2E2E2E2E2E2E2E2E2E2E2E2E2E2E2E2E2E2E2E2E2E2E2E2E2E2E2E2E2E2E2E2E2E2E2E2E2E2E2E2E2E2E2E2E2E2E2E2E2E2
310
E2E2E2E2E2E2E2E2E2E2E2E2E2E2E2E2E2E2E2E2E2E2E2E2E2E2E2E2E2E2E2E2E2E2E2E2E2E2E2E2E2E2E2E2E2E2E2E2E2E2E2E2E2E2E2E2E2F5E2E2E2E2E2E2E2E2E2E2E2E2E2E2E2E2E2E2E2E2F5F5E2E2E2E2E2E2E2E2E2E2E2E2E2E2E2E2E2E2E2E2F5E2E2E2E2E2E2E2E2E2E2E2E2E2E2E2E2E2E2E2E2E2E2E2E2E2E2
310
E2E2E2E2E2E2E2E2E2E2E2E2E2E2E2E2E2E2E2E2E2E2E2E2E2E2E2E2E2E2E2E2E2E2E2E2E2E2E2E2E2E2E2E2E2E2E2E2E2E2E2E2E2E2E2E2E2E2E2E2E2E2E2E2E2E2E2E2E2E2E2E2E2E2E2E2E2E2E2E2E2E2E2E2E2E2E2E2E2E2E2E2E2E2E2E2E2E2E2E2E2E2E2E2E2E2E2E2E2E2F5E2E2E2E2E2E2E2E2E2E2E2E2E2E2E2E2
310
E2E2E2E2F5F5E2E2E2E2E2E2E2E2E2E2E2E2E2E2E2E2E2E2E2E2F5E2E2E2E2E2E2E2E2E2E2E2E2E2E2E2E2E2E2E2E2E2E2E2E2E2E2E2E2E2E2E2E2E2E2E2E2E2E2E2E2E2E2E2E2E2E2E2E2E2E2E2E2E2E2E2E2E2E2E2E2E2E2E2E2E2E2E2E2E2E2E2E2E2E2E2E2E2E2E2E2E2E2E2E2E2E2E2E2E2E2E2E2E2E2E2E2E2E2E2E2
310
E2E2E2E2E2E2E2E2E2E2E2E2E2E2E2E2E2E2E2E2E2E2E2E2E2E2E2E2E2E2E2E2E2E2E2E2F5E2E2E2E2E2E2E2E2E2E2E2E2E2E2E2E2E2E2E2E2F5F5E2E2E2E2E2E2E2E2E2E2E2E2E2E2E2E2E2E2E2E2F5E2E2E2E2E2E2E2E2E2E2E2E2E2E2E2E2E2E2E2E2E2E2E2E2E2E2E2E2E2E2E2E2E2E2E2E2E2E2E2E2E2E2E2E2E2E2E2
310
E2E2E2E2E2E2E2E2E2E2E2E2E2E2E2E2E2E2E2E2E2E2E2E2E2E2E2E2E2E2E2E2E2E2E2E2E2E2E2E2E2E2E2E2E2E2E2E2E2E2E2E2E2E2E2E2E2E2E2E2E2E2E2E2E2E2E2E2E2E2E2E2E2E2E2E2E2E2E2E2E2E2E2E2E2E2E2E2E2F5E2E2E2E2E2E2E2E2E2E2E2E2E2E2E2E2E2E2E2E2F5F5E2E2E2E2E2E2E2E2E2E2E2E2E2E2E2
310
E2E2E2E2E2F5F5F5F5F5F5F5F5F5F5F5F5F5F5F5F5F5F5F5F5F5F5F5F5F5F5F5F5F5F5F5F5F5F5F5F5F5F5F5F5F5F5F5F5F5F5F5F5F5F5F5F5F5F5F5F5F5F5F5F5F5F5F5F5F5F5F5F5F5F5F5F5F5F5F5F5F5F5F5F5F5F5F5F5F5F5F5F5F5F5F5F5F5F5F5F5F5F5F5F5F5F5F5F5F5F5F5F5F5F5F5F5F5F5F5F5F5F5F5F5F5F5
310
F5F5F5F5F5F5F5F5F5F5F5F5F5F5F5F5E2E2E2E2E2E2E2E2E2E2E2E2E2E2E2E2E2E2E2E2F5F5E2E2E2E2E2E2E2E2E2E2E2E2E2E2E2E2E2E2E2E2E2E2E2E2E2E2E2E2E2E2E2E2E2E2E2E2E2E2E2E2E2E2E2E2E2E2E2E2E2E2E2E2E2E2E2E2E2E2E2E2E2E2E2E2E2E2E2E2E2E2E2E2E2E2E2E2E2E2E2E2E2E2E2E2E2E2E2E2E2
310
E2E2E2E2E2E2E2E2E2E2E2E2E2E2E2E2E2E2E2E2E2E2E2E2E2E2E2E2E2E2E2E2E2E2E2E2E2E2E2E2E2E2E2E2E2E2E2E2E2E2E2E2E2E2E2E2E2E2E2E2E2E2E2E2E2E2E2E2E2E2E2E2E2E2E2E2E2E2E2E2E2E2E2E2E2E2E2E2E2F5F5E2E2E2E2E2E2E2E2E2E2E2E2E2E2E2E2E2E2E2E2E2E2E2E2E2E2E2E2E2E2E2E2E2E2E2E2
310
E2E2E2E2E2E2E2E2E2E2E2E2E2E2E2E2E2E2E2E2E2E2E2E2E2E2E2E2E2E2E2E2E2E2E2E2E2E2E2E2E2E2E2E2E2E2E2E2E2E2E2E2E2E2E2E2E2E2E2E2E2E2E2E2E2E2E2E2E2E2E2E2E2E2E2E2E2E2E2E2E2E2E2E2E2E2E2E2E2E2E2E2E2E2E2E2E2E2E2E2E2E2E2E2E2E2E2E2E2E2E2E2E2E2E2E2E2E2E2E2E2E2E2E2E2E2E2
310
E2E2E2E2E2E2E2E2E2E2E2E2E2E2E2F5F5E2E2E2E2E2E2E2E2E2E2E2E2E2E2E2E2E2E2E2E2E2E2E2E2E2E2E2E2E2E2E2E2E2E2E2E2E2E2E2E2E2E2E2E2E2E2E2E2E2E2E2E2E2E2E2E2E2E2E2E2E2E2E2E2E2E2E2E2E2E2E2E2E2E2E2E2E2E2E2E2E2E2E2E2E2E2E2E2E2E2E2E2E2E2E2E2E2E2E2E2E2E2E2E2E2E2E2E2E2E2
310
E2E2E2E2E2E2E2E2E2E2E2E2E2E2E2E2E2E2E2E2E2E2E2E2E2E2E2E2E2E2E2E2E2E2E2E2E2E2E2E2E2E2E2E2E2E2E2E2E2E2E2E2E2E2E2E2E2E2E2E2E2E2E2E2E2E2E2E2F5F5E2E2E2E2E2E2E2E2E2E2E2E2E2E2E2E2E2E2E2E2E2E2E2E2E2E2E2E2E2E2E2E2E2E2E2E2E2E2E2E2E2E2E2E2E2E2E2E2E2E2E2E2E2E2E2E2E2
310
E2E2E2E2E2E2E2E2E2E2E2E2E2E2E2E2E2E2E2E2E2E2E2E2E2E2E2E2E2E2E2E2E2E2E2E2E2E2E2E2E2E2E2E2E2E2E2E2E2E2E2E2E2E2E2E2E2E2E2E2E2E2E2E2E2E2E2E2E2E2E2E2E2E2E2E2E2E2E2E2E2E2E2E2E2E2E2E2E2E2E2E2E2E2E2E2E2E2E2E2E2E2E2E2E2E2E2E2E2E2E2E2E2E2E2E2E2E2E2E2E2F5F5E2E2E2F5
310
E2E2E2E2E2E2E2E2E2E2E2E2E2E2E2E2E2E2E2E2E2E2E2E2E2E2E2E2E2E2E2E2E2E2E2E2E2E2E2E2E2E2E2E2E2E2E2E2E2E2E2E2E2E2E2E2E2E2E2E2E2E2E2E2E2E2E2E2E2E2E2E2E2E2E2E2E2E2E2E2E2E2E2E2E2E2E2E2E2E2E2E2E2E2E2E2E2E2E2E2E2E2E2E2E2E2E2E2E2E2E2E2E2E2E2E2E2E2E2E2E2E2E2E2E2E2E2
310
E2E2E2E2E2E2E2E2E2E2E2E2E2E2E2E2E2E2E2E2E2E2E2E2E2E2E2E2E2E2E2E2E2E2E2E2E2E2E2E2E2E2E2F5E2E2E2F5F5E2E2E2F5E2E2E2E2E2E2E2E2E2E2E2E2E2E2E2E2E2E2E2E2E2E2E2E2E2E2E2E2E2E2E2E2E2E2E2E2E2E2E2E2E2E2E2E2E2E2E2E2E2E2E2E2E2E2E2E2E2E2E2E2E2E2E2E2E2E2E2E2E2E2E2E2E2E2
310
E2E2E2E2E2E2E2E2E2E2E2E2E2E2E2E2E2E2E2E2E2E2E2E2E2E2E2E2E2E2E2E2E2E2E2E2E2E2E2E2E2E2E2E2E2E2E2E2E2E2E2E2E2E2E2E2E2E2E2E2E2E2E2E2E2E2E2E2E2E2E2E2E2E2E2E2E2E2E2E2E2E2E2E2E2E2E2E2E2E2E2E2E2E2E2E2F5E2E2E2F5F5E2E2E2F5E2E2E2E2E2E2E2E2E2E2E2E2E2E2E2E2E2E2E2E2E2
310
E2E2E2E2E2E2E2E2E2E2E2E2E2E2E2E2E2E2E2E2E2E2E2E2E2E2E2E2E2E2E2E2E2E2E2E2E2E2E2E2E2E2E2E2E2E2E2E2E2E2E2E2E2E2E2E2E2E2E2E2E2E2E2E2E2E2E2E2E2E2E2E2E2E2E2E2E2E2E2E2E2E2E2E2E2E2E2E2E2E2E2E2E2E2E2E2E2E2E2E2E2E2E2E2E2E2E2E2E2E2E2E2E2E2E2E2E2E2E2E2E2E2E2E2E2E2E2
310
E2E2E2E2E2E2E2E2E2E2E2E2E2E2E2E2E2E2E2E2E2E2F5E2E2E2F5F5E2E2E2F5E2E2E2E2E2E2E2E2E2E2E2E2E2E2E2E2E2E2E2E2E2E2E2E2E2E2E2E2E2E2E2E2E2E2E2E2E2E2E2E2E2E2E2E2E2E2E2E2E2E2E2E2E2E2E2E2E2E2E2E2E2E2E2E2E2E2E2E2E2E2E2E2E2E2E2E2E2E2E2E2E2E2E2E2E2E2E2E2E2E2E2E2E2E2E2
310
E2E2E2E2E2E2E2E2E2E2E2E2E2E2E2E2E2E2E2E2E2E2E2E2E2E2E2E2E2E2E2E2E2E2E2E2E2E2E2E2E2E2E2E2E2E2E2E2E2E2E2E2E2E2E2E2E2E2E2E2E2E2E2E2E2E2E2E2E2E2E2E2E2E2E2F5E2E2E2F5F5E2E2E2F5E2E2E2E2E2E2E2E2E2E2E2E2E2E2E2E2E2E2E2E2E2E2E2E2E2E2E2E2E2E2E2E2E2E2E2E2E2E2E2E2E2E2
310
E2E2E2E2E2E2E2E2E2E2E2E2E2E2E2E2E2E2E2E2E2E2E2E2E2E2E2E2E2E2E2E2E2E2E2E2E2E2E2E2E2E2E2E2E2E2E2E2E2E2E2E2E2E2E2E2E2E2E2E2E2E2E2E2E2E2E2E2E2E2E2E2E2E2E2E2E2E2E2E2E2E2E2E2E2E2E2E2E2E2E2E2E2E2E2E2E2E2E2E2E2E2E2E2E2E2E2E2E2E2E2E2E2E2E2E2E2E2E2E2E2E2E2E2E2E2E2
310
E2F5E2E2E2F5F5E2E2E2F5E2E2E2E2E2E2E2E2E2E2E2E2E2E2E2E2E2E2E2E2E2E2E2E2E2E2E2E2E2E2E2E2E2E2E2E2E2E2E2E2E2E2E2E2E2E2E2E2E2E2E2E2E2E2E2E2E2E2E2E2E2E2E2E2E2E2E2E2E2E2E2E2E2E2E2E2E2E2E2E2E2E2E2E2E2E2E2E2E2E2E2E2E2E2E2E2E2E2E2E2E2E2E2E2E2E2E2E2E2E2E2E2E2E2E2E2
310
E2E2E2E2E2E2E2E2E2E2E2E2E2E2E2E2E2E2E2E2E2E2E2E2E2E2E2E2E2E2E2E2E2E2E2E2E2E2E2E2E2E2E2E2E2E2E2E2E2E2E2E2E2E2F5E2E2E2F5F5E2E2E2F5E2E2E2E2E2E2E2E2E2E2E2E2E2E2E2E2E2E2E2E2E2E2E2E2E2E2E2E2E2E2E2E2E2E2E2E2E2E2E2E2E2E2E2E2E2E2E2E2E2E2E2E2E2E2E2E2E2E2E2E2E2E2E2
310
E2E2E2E2E2E2E2E2E2E2E2E2E2E2E2E2E2E2E2E2E2E2E2E2E2E2E2E2E2E2E2E2E2E2E2E2E2E2E2E2E2E2E2E2E2E2E2E2E2E2E2E2E2E2E2E2E2E2E2E2E2E2E2E2E2E2E2E2E2E2E2E2E2E2E2E2E2E2E2E2E2E2E2E2E2E2E2E2E2E2E2E2E2E2E2E2E2E2E2E2E2E2E2E2E2E2E2F5E2E2E2F5F5E2E2E2F5E2E2E2E2E2E2E2E2E2E2
310
E2E2E2E2E2E2E2E2E2E2E2E2E2E2E2E2E2E2E2E2E2E2E2E2E2E2E2E2E2E2E2E2E2E2E2E2E2E2E2E2E2E2E2E2E2E2E2E2E2E2E2E2E2E2E2E2E2E2E2E2E2E2E2E2E2E2E2E2E2E2E2E2E2E2E2E2E2E2E2E2E2E2E2E2E2E2E2E2E2E2E2E2E2E2E2E2E2E2E2E2E2E2E2E2E2E2E2E2E2E2E2E2E2E2E2E2E2E2E2E2E2E2E2E2E2E2E2
310
E2E2E2E2E2E2E2E2E2E2E2E2E2E2E2E2E2E2E2E2E2E2E2E2E2E2E2E2E2E2E2E2E2F5E2E2E2F5F5E2E2E2F5F5F5F5F5F5F5F5E2E2E2E2E2E2E2E2E2F5F5F5F5F5F5F5F5F5F5F5F5F5F5F5F5E2E2E2E2E2E2E2E2E2F5F5F5F5F5F5F5F5F5F5F5F5F5F5F5E2E2E2E2E2E2E2E2E2F5F5F5F5F5F5F5F5F5F5F5F5F5F5F5F5E2E2E2
310
E2E2E2E2E2F5F5F5F5F5F5F5F5F5F5F5F5F5F5F5F5E2E2E2E2E2E2E2E2E2F5F5F5F5F5F5F5F5F5F5F5F5F5F5F5E2E2E2E2E2E2E2E2E2F5F5F5F5F5F5F5F5F5F5F5F5F5F5F5F5E2E2E2E2E2E2E2E2E2F5F5F5F5F5F5F5F5E2E2E2F5F5E2E2E2E2E2E2E2E2E2E2E2E2E2E2E2E2E2E2E2E2E2E2E2E2E2E2E2E2E2E2E2E2E2E2E2
310
E2E2E2E2E2E2E2E2E2E2E2E2E2E2E2E2E2E2E2E2E2E2E2E2E2E2E2E2E2E2E2E2E2E2E2E2E2E2E2E2E2E2E2E2E2E2E2E2E2E2E2E2E2E2E2E2E2E2E2E2E2E2E2E2E2E2E2E2E2E2E2E2E2E2E2E2E2E2E2E2E2E2E2E2E2E2E2E2E2E2E2E2E2E2E2E2E2E2E2E2E2E2E2E2E2E2E2E2E2E2E2E2E2E2E2E2E2E2E2E2E2E2E2E2E2E2E2
310
E2E2E2E2E2E2E2E2E2E2E2E2E2E2E2E2F5F5E2E2E2E2E2E2E2E2E2E2E2E2E2E2E2E2E2E2E2E2E2E2E2E2E2E2E2E2E2E2E2E2E2E2E2E2E2E2E2E2E2E2E2E2E2E2E2E2E2E2E2E2E2E2E2E2E2E2E2E2E2E2E2E2E2E2E2E2E2E2E2E2E2E2E2E2E2E2E2E2E2E2E2E2E2E2E2E2E2E2E2E2E2E2E2E2E2E2E2E2E2E2E2E2E2E2E2E2E2
310
E2E2E2E2E2E2E2E2E2E2E2E2E2E2E2E2E2E2E2E2E2E2E2E2E2E2E2E2E2E2E2E2E2E2E2E2E2E2E2E2E2E2E2E2E2E2E2E2E2E2E2E2E2E2E2E2E2E2E2E2E2E2E2E2E2E2E2E2E2F5F5E2E2E2E2E2E2E2E2E2E2E2E2E2E2E2E2E2E2E2E2E2E2E2E2E2E2E2E2E2E2E2E2E2E2E2E2E2E2E2E2E2E2E2E2E2E2E2E2E2E2E2E2E2E2E2E2
310
E2E2E2E2E2E2E2E2E2E2E2E2E2E2E2E2E2E2E2E2E2E2E2E2E2E2E2E2E2E2E2E2E2E2E2E2E2E2E2E2E2E2E2E2E2E2E2E2E2E2E2E2E2E2E2E2E2E2E2E2E2E2E2E2E2E2E2E2E2E2E2E2E2E2E2E2E2E2E2E2E2E2E2E2E2E2E2E2E2E2E2E2E2E2E2E2E2E2E2E2E2E2E2E2E2E2E2E2E2E2E2E2E2E2E2E2E2E2E2E2E2E2F5F5E2E2E2
310
E2E2E2E2E2E2E2E2E2E2E2E2E2E2E2E2E2E2E2E2E2E2E2E2E2E2E2E2E2E2E2E2E2E2E2E2E2E2E2E2E2E2E2E2E2E2E2E2E2E2E2E2E2E2E2E2E2E2E2E2E2E2E2E2E2E2E2E2E2E2E2E2E2E2E2E2E2E2E2E2E2E2E2E2E2E2E2E2E2E2E2E2E2E2E2E2E2E2E2E2E2E2E2E2E2E2E2E2E2E2E2E2E2E2E2E2E2E2E2E2E2E2E2E2E2E2E2
310
E2E2E2E2E2E2E2E2E2E2E2E2E2E2E2E2E2E2E2E2E2E2E2E2E2E2E2E2E2E2E2E2E2E2E2E2E2E2E2E2E2E2E2E2E2E2E2E2F5
  0
XRECORD
  5
60480
102
{ACAD_REACTORS
330
6047F
102
}
330
6047F
100
AcDbXrecord
280
     1
102
SHADEPLOT
 70
     0
102
SHADEPLOTRESLEVEL
 70
     2
102
SHADEPLOTCUSTOMDPI
 70
   300
  0
ENDSEC
  0
EOF
