  0
SECTION
  2
HEADER
  9
$ACADVER
  1
AC1015
  9
$ACADMAINTVER
 70
    20
  9
$DWGCODEPAGE
  3
ANSI_936
  9
$INSBASE
 10
0.0
 20
0.0
 30
0.0
  9
$EXTMIN
 10
-34.14109275694095
 20
-51.04875692582781
 30
0.0
  9
$EXTMAX
 10
263.6686958042093
 20
95.58776759440311
 30
0.0
  9
$LIMMIN
 10
0.0
 20
0.0
  9
$LIMMAX
 10
420.0
 20
297.0
  9
$ORTHOMODE
 70
     0
  9
$REGENMODE
 70
     1
  9
$FILLMODE
 70
     1
  9
$QTEXTMODE
 70
     0
  9
$MIRRTEXT
 70
     1
  9
$LTSCALE
 40
1.0
  9
$ATTMODE
 70
     1
  9
$TEXTSIZE
 40
3.5
  9
$TRACEWID
 40
1.0
  9
$TEXTSTYLE
  7
simplex
  9
$CLAYER
  8
0
  9
$CELTYPE
  6
ByLayer
  9
$CECOLOR
 62
   256
  9
$CELTSCALE
 40
1.0
  9
$DISPSILH
 70
     0
  9
$DIMSCALE
 40
0.0
  9
$DIMASZ
 40
3.5
  9
$DIMEXO
 40
0.0
  9
$DIMDLI
 40
0.38
  9
$DIMRND
 40
0.0
  9
$DIMDLE
 40
0.0
  9
$DIMEXE
 40
1.5
  9
$DIMTP
 40
0.0
  9
$DIMTM
 40
0.0
  9
$DIMTXT
 40
3.5
  9
$DIMCEN
 40
0.09
  9
$DIMTSZ
 40
0.0
  9
$DIMTOL
 70
     0
  9
$DIMLIM
 70
     0
  9
$DIMTIH
 70
     0
  9
$DIMTOH
 70
     0
  9
$DIMSE1
 70
     0
  9
$DIMSE2
 70
     0
  9
$DIMTAD
 70
     1
  9
$DIMZIN
 70
     8
  9
$DIMBLK
  1

  9
$DIMASO
 70
     1
  9
$DIMSHO
 70
     1
  9
$DIMPOST
  1

  9
$DIMAPOST
  1

  9
$DIMALT
 70
     0
  9
$DIMALTD
 70
     2
  9
$DIMALTF
 40
25.4
  9
$DIMLFAC
 40
1.0
  9
$DIMTOFL
 70
     0
  9
$DIMTVP
 40
0.0
  9
$DIMTIX
 70
     0
  9
$DIMSOXD
 70
     0
  9
$DIMSAH
 70
     0
  9
$DIMBLK1
  1

  9
$DIMBLK2
  1

  9
$DIMSTYLE
  2
\M+18352\M+18373\M+1815B - ISO-25
  9
$DIMCLRD
 70
   256
  9
$DIMCLRE
 70
   256
  9
$DIMCLRT
 70
   256
  9
$DIMTFAC
 40
1.0
  9
$DIMGAP
 40
2.299999999999998
  9
$DIMJUST
 70
     0
  9
$DIMSD1
 70
     0
  9
$DIMSD2
 70
     0
  9
$DIMTOLJ
 70
     1
  9
$DIMTZIN
 70
     8
  9
$DIMALTZ
 70
     0
  9
$DIMALTTZ
 70
     0
  9
$DIMUPT
 70
     0
  9
$DIMDEC
 70
     2
  9
$DIMTDEC
 70
     2
  9
$DIMALTU
 70
     2
  9
$DIMALTTD
 70
     2
  9
$DIMTXSTY
  7
simplex
  9
$DIMAUNIT
 70
     0
  9
$DIMADEC
 70
     0
  9
$DIMALTRND
 40
0.0
  9
$DIMAZIN
 70
     0
  9
$DIMDSEP
 70
    46
  9
$DIMATFIT
 70
     3
  9
$DIMFRAC
 70
     0
  9
$DIMLDRBLK
  1

  9
$DIMLUNIT
 70
     2
  9
$DIMLWD
 70
    -1
  9
$DIMLWE
 70
    -1
  9
$DIMTMOVE
 70
     0
  9
$LUNITS
 70
     2
  9
$LUPREC
 70
     4
  9
$SKETCHINC
 40
1.0
  9
$FILLETRAD
 40
0.8
  9
$AUNITS
 70
     0
  9
$AUPREC
 70
     0
  9
$MENU
  1
.
  9
$ELEVATION
 40
0.0
  9
$PELEVATION
 40
0.0
  9
$THICKNESS
 40
0.0
  9
$LIMCHECK
 70
     0
  9
$CHAMFERA
 40
10.0
  9
$CHAMFERB
 40
10.0
  9
$CHAMFERC
 40
20.0
  9
$CHAMFERD
 40
0.0
  9
$SKPOLY
 70
     0
  9
$TDCREATE
 40
2455489.391063368
  9
$TDUCREATE
 40
2455489.057730035
  9
$TDUPDATE
 40
2458517.772411157
  9
$TDUUPDATE
 40
2458517.439077824
  9
$TDINDWG
 40
2.2425051389
  9
$TDUSRTIMER
 40
2.2424507407
  9
$USRTIMER
 70
     1
  9
$ANGBASE
 50
0.0
  9
$ANGDIR
 70
     0
  9
$PDMODE
 70
     0
  9
$PDSIZE
 40
0.0
  9
$PLINEWID
 40
0.0
  9
$SPLFRAME
 70
     0
  9
$SPLINETYPE
 70
     6
  9
$SPLINESEGS
 70
     8
  9
$HANDSEED
  5
59DA5
  9
$SURFTAB1
 70
     6
  9
$SURFTAB2
 70
     6
  9
$SURFTYPE
 70
     6
  9
$SURFU
 70
     6
  9
$SURFV
 70
     6
  9
$UCSBASE
  2

  9
$UCSNAME
  2

  9
$UCSORG
 10
0.0
 20
0.0
 30
0.0
  9
$UCSXDIR
 10
1.0
 20
0.0
 30
0.0
  9
$UCSYDIR
 10
0.0
 20
1.0
 30
0.0
  9
$UCSORTHOREF
  2

  9
$UCSORTHOVIEW
 70
     0
  9
$UCSORGTOP
 10
0.0
 20
0.0
 30
0.0
  9
$UCSORGBOTTOM
 10
0.0
 20
0.0
 30
0.0
  9
$UCSORGLEFT
 10
0.0
 20
0.0
 30
0.0
  9
$UCSORGRIGHT
 10
0.0
 20
0.0
 30
0.0
  9
$UCSORGFRONT
 10
0.0
 20
0.0
 30
0.0
  9
$UCSORGBACK
 10
0.0
 20
0.0
 30
0.0
  9
$PUCSBASE
  2

  9
$PUCSNAME
  2

  9
$PUCSORG
 10
0.0
 20
0.0
 30
0.0
  9
$PUCSXDIR
 10
1.0
 20
0.0
 30
0.0
  9
$PUCSYDIR
 10
0.0
 20
1.0
 30
0.0
  9
$PUCSORTHOREF
  2

  9
$PUCSORTHOVIEW
 70
     0
  9
$PUCSORGTOP
 10
0.0
 20
0.0
 30
0.0
  9
$PUCSORGBOTTOM
 10
0.0
 20
0.0
 30
0.0
  9
$PUCSORGLEFT
 10
0.0
 20
0.0
 30
0.0
  9
$PUCSORGRIGHT
 10
0.0
 20
0.0
 30
0.0
  9
$PUCSORGFRONT
 10
0.0
 20
0.0
 30
0.0
  9
$PUCSORGBACK
 10
0.0
 20
0.0
 30
0.0
  9
$USERI1
 70
     0
  9
$USERI2
 70
     0
  9
$USERI3
 70
     0
  9
$USERI4
 70
     0
  9
$USERI5
 70
     0
  9
$USERR1
 40
0.0
  9
$USERR2
 40
0.0
  9
$USERR3
 40
0.0
  9
$USERR4
 40
0.0
  9
$USERR5
 40
0.0
  9
$WORLDVIEW
 70
     1
  9
$SHADEDGE
 70
     3
  9
$SHADEDIF
 70
    70
  9
$TILEMODE
 70
     1
  9
$MAXACTVP
 70
    64
  9
$PINSBASE
 10
0.0
 20
0.0
 30
0.0
  9
$PLIMCHECK
 70
     0
  9
$PEXTMIN
 10
26.66999878883364
 20
20.31999878883365
 30
0.0
  9
$PEXTMAX
 10
240.0299890995025
 20
182.8799890995025
 30
0.0
  9
$PLIMMIN
 10
-6.350006103515625
 20
-6.349999904632567
  9
$PLIMMAX
 10
273.0499877929688
 20
209.5499939918518
  9
$UNITMODE
 70
     0
  9
$VISRETAIN
 70
     1
  9
$PLINEGEN
 70
     0
  9
$PSLTSCALE
 70
     1
  9
$TREEDEPTH
 70
  3020
  9
$CMLSTYLE
  2
Standard
  9
$CMLJUST
 70
     0
  9
$CMLSCALE
 40
20.0
  9
$PROXYGRAPHICS
 70
     1
  9
$MEASUREMENT
 70
     1
  9
$CELWEIGHT
370
    -1
  9
$ENDCAPS
280
     0
  9
$JOINSTYLE
280
     0
  9
$LWDISPLAY
290
     0
  9
$INSUNITS
 70
     4
  9
$HYPERLINKBASE
  1

  9
$STYLESHEET
  1

  9
$XEDIT
290
     1
  9
$CEPSNTYPE
380
     0
  9
$PSTYLEMODE
290
     1
  9
$FINGERPRINTGUID
  2
{601DDA01-5B13-4A4C-8F56-1333B78D855B}
  9
$VERSIONGUID
  2
{754C2E32-1192-4582-AA15-309DD1F1839E}
  9
$EXTNAMES
290
     1
  9
$PSVPSCALE
 40
0.0
  9
$OLESTARTUP
290
     0
  0
ENDSEC
  0
SECTION
  2
CLASSES
  0
CLASS
  1
ACDBDICTIONARYWDFLT
  2
AcDbDictionaryWithDefault
  3
ObjectDBX Classes
 90
        0
280
     0
281
     0
  0
CLASS
  1
ACDBPLACEHOLDER
  2
AcDbPlaceHolder
  3
ObjectDBX Classes
 90
        0
280
     0
281
     0
  0
CLASS
  1
LAYOUT
  2
AcDbLayout
  3
ObjectDBX Classes
 90
        0
280
     0
281
     0
  0
CLASS
  1
DICTIONARYVAR
  2
AcDbDictionaryVar
  3
ObjectDBX Classes
 90
        0
280
     0
281
     0
  0
CLASS
  1
TABLESTYLE
  2
AcDbTableStyle
  3
ObjectDBX Classes
 90
     2047
280
     0
281
     0
  0
CLASS
  1
SORTENTSTABLE
  2
AcDbSortentsTable
  3
ObjectDBX Classes
 90
        0
280
     0
281
     0
  0
CLASS
  1
DIMASSOC
  2
AcDbDimAssoc
  3
"AcDbDimAssoc|Product Desc:     AcDim ARX App For Dimension|Company:          Autodesk, Inc.|WEB Address:      www.autodesk.com"
 90
        0
280
     0
281
     0
  0
CLASS
  1
ACAD_EVALUATION_GRAPH
  2
AcDbEvalGraph
  3
ObjectDBX Classes
 90
    33921
280
     0
281
     0
  0
CLASS
  1
ACAECUSTOBJ
  2
AcAeEditorObj
  3
AcAeEditorObj
 90
    33792
280
     0
281
     0
  0
CLASS
  1
ACDB_DYNAMICBLOCKPURGEPREVENTER_VERSION
  2
AcDbDynamicBlockPurgePreventer
  3
ObjectDBX Classes
 90
    33921
280
     0
281
     0
  0
ENDSEC
  0
SECTION
  2
TABLES
  0
TABLE
  2
VPORT
  5
8
330
0
100
AcDbSymbolTable
 70
     7
  0
VPORT
  5
59D96
330
8
100
AcDbSymbolTableRecord
100
AcDbViewportTableRecord
  2
*Active
 70
     0
 10
0.0
 20
0.0
 11
1.0
 21
1.0
 12
22.10376337888476
 22
10.93991414837296
 13
0.0
 23
0.0
 14
10.0
 24
10.0
 15
10.0
 25
10.0
 16
0.0
 26
0.0
 36
1.0
 17
0.0
 27
0.0
 37
0.0
 40
187.9888561648456
 41
1.386206896551724
 42
50.0
 43
0.0
 44
0.0
 50
0.0
 51
0.0
 71
     0
 72
  1000
 73
     1
 74
     1
 75
     0
 76
     0
 77
     0
 78
     0
281
     0
 65
     1
110
0.0
120
0.0
130
0.0
111
1.0
121
0.0
131
0.0
112
0.0
122
1.0
132
0.0
 79
     0
146
0.0
  0
ENDTAB
  0
TABLE
  2
LTYPE
  5
5
330
0
100
AcDbSymbolTable
 70
     4
  0
LTYPE
  5
14
330
5
100
AcDbSymbolTableRecord
100
AcDbLinetypeTableRecord
  2
ByBlock
 70
     0
  3

 72
    65
 73
     0
 40
0.0
  0
LTYPE
  5
15
330
5
100
AcDbSymbolTableRecord
100
AcDbLinetypeTableRecord
  2
ByLayer
 70
     0
  3

 72
    65
 73
     0
 40
0.0
  0
LTYPE
  5
16
330
5
100
AcDbSymbolTableRecord
100
AcDbLinetypeTableRecord
  2
Continuous
 70
     0
  3
Solid line
 72
    65
 73
     0
 40
0.0
  0
LTYPE
  5
D7
330
5
100
AcDbSymbolTableRecord
100
AcDbLinetypeTableRecord
  2
HIDDEN
 70
     0
  3
Hidden __ __ __ __ __ __ __ __ __ __ __ __ __ _
 72
    65
 73
     2
 40
9.524999999999996
 49
6.349999999999997
 74
     0
 49
-3.174999999999998
 74
     0
  0
LTYPE
  5
D9
330
5
100
AcDbSymbolTableRecord
100
AcDbLinetypeTableRecord
  2
CENTER
 70
     0
  3
Center ____ _ ____ _ ____ _ ____ _ ____ _ ____
 72
    65
 73
     4
 40
50.8
 49
31.75
 74
     0
 49
-6.349999999999997
 74
     0
 49
6.349999999999997
 74
     0
 49
-6.349999999999997
 74
     0
  0
LTYPE
  5
35815
330
5
100
AcDbSymbolTableRecord
100
AcDbLinetypeTableRecord
  2
PHANTOM
 70
     0
  3
_____ _ _ _____ _ _ _____ _ _ _____
 72
    65
 73
     6
 40
0.8
 49
0.45
 74
     0
 49
-0.05
 74
     0
 49
0.1
 74
     0
 49
-0.05
 74
     0
 49
0.1
 74
     0
 49
-0.05
 74
     0
  0
ENDTAB
  0
TABLE
  2
LAYER
  5
2
102
{ACAD_XDICTIONARY
360
E2
102
}
330
0
100
AcDbSymbolTable
 70
    14
  0
LAYER
  5
10
330
2
100
AcDbSymbolTableRecord
100
AcDbLayerTableRecord
  2
0
 70
     0
 62
     7
  6
Continuous
370
    -3
390
F
  0
LAYER
  5
D1
330
2
100
AcDbSymbolTableRecord
100
AcDbLayerTableRecord
  2
1
 70
     0
 62
     4
  6
Continuous
370
    50
390
F
1001
AcAecLayerStandard
1000

1000

  0
LAYER
  5
D3
330
2
100
AcDbSymbolTableRecord
100
AcDbLayerTableRecord
  2
2
 70
     0
 62
     7
  6
Continuous
370
    25
390
F
1001
AcAecLayerStandard
1000

1000

  0
LAYER
  5
D4
330
2
100
AcDbSymbolTableRecord
100
AcDbLayerTableRecord
  2
3
 70
     0
 62
     1
  6
HIDDEN
370
    35
390
F
1001
AcAecLayerStandard
1000

1000

  0
LAYER
  5
D8
330
2
100
AcDbSymbolTableRecord
100
AcDbLayerTableRecord
  2
4
 70
     0
 62
     2
  6
CENTER
370
    25
390
F
1001
AcAecLayerStandard
1000

1000

  0
LAYER
  5
DA
330
2
100
AcDbSymbolTableRecord
100
AcDbLayerTableRecord
  2
6
 70
     0
 62
     5
  6
Continuous
370
    35
390
F
1001
AcAecLayerStandard
1000

1000

  0
LAYER
  5
DB
330
2
100
AcDbSymbolTableRecord
100
AcDbLayerTableRecord
  2
cut
 70
     0
 62
     1
  6
Continuous
370
    25
390
F
1001
AcAecLayerStandard
1000

1000

  0
LAYER
  5
DC
330
2
100
AcDbSymbolTableRecord
100
AcDbLayerTableRecord
  2
nocut
 70
     0
 62
     7
  6
Continuous
370
    25
390
F
1001
AcAecLayerStandard
1000

1000

  0
LAYER
  5
DD
330
2
100
AcDbSymbolTableRecord
100
AcDbLayerTableRecord
  2
sk1
 70
     0
 62
     4
  6
Continuous
370
    50
390
F
1001
AcAecLayerStandard
1000

1000

  0
LAYER
  5
DE
330
2
100
AcDbSymbolTableRecord
100
AcDbLayerTableRecord
  2
sk2
 70
     0
 62
     7
  6
Continuous
370
    25
390
F
1001
AcAecLayerStandard
1000

1000

  0
LAYER
  5
DF
330
2
100
AcDbSymbolTableRecord
100
AcDbLayerTableRecord
  2
sk3
 70
     0
 62
     1
  6
HIDDEN
370
    35
390
F
1001
AcAecLayerStandard
1000

1000

  0
LAYER
  5
E0
330
2
100
AcDbSymbolTableRecord
100
AcDbLayerTableRecord
  2
sk4
 70
     0
 62
     2
  6
CENTER
370
    25
390
F
1001
AcAecLayerStandard
1000

1000

  0
LAYER
  5
E1
330
2
100
AcDbSymbolTableRecord
100
AcDbLayerTableRecord
  2
sk6
 70
     0
 62
     5
  6
Continuous
370
    35
390
F
1001
AcAecLayerStandard
1000

1000

  0
LAYER
  5
31B6
330
2
100
AcDbSymbolTableRecord
100
AcDbLayerTableRecord
  2
Defpoints
 70
     0
 62
     7
  6
Continuous
290
     0
370
    -3
390
F
  0
ENDTAB
  0
TABLE
  2
STYLE
  5
3
330
0
100
AcDbSymbolTable
 70
    11
  0
STYLE
  5
11
330
3
100
AcDbSymbolTableRecord
100
AcDbTextStyleTableRecord
  2
Standard
 70
     0
 40
0.0
 41
1.0
 50
0.0
 71
     0
 42
2.5
  3
txt.shx
  4
@extfont2.shx
  0
STYLE
  5
D6
330
3
100
AcDbSymbolTableRecord
100
AcDbTextStyleTableRecord
  2

 70
     1
 40
0.0
 41
1.0
 50
0.0
 71
     0
 42
2.5
  3
ltypeshp.shx
  4

  0
STYLE
  5
24A
330
3
100
AcDbSymbolTableRecord
100
AcDbTextStyleTableRecord
  2
simplex
 70
     0
 40
3.5
 41
1.0
 50
0.0
 71
     0
 42
3.5
  3
txt.shx
  4

  0
STYLE
  5
69E
330
3
100
AcDbSymbolTableRecord
100
AcDbTextStyleTableRecord
  2
MX_NOTE_STANDARD
 70
     0
 40
0.0
 41
1.0
 50
0.0
 71
     0
 42
4.2
  3
txt.shx
  4
extfont.shx
  0
STYLE
  5
3524
330
3
100
AcDbSymbolTableRecord
100
AcDbTextStyleTableRecord
  2
TEXTSTYLE_2
 70
     0
 40
0.0
 41
0.775
 50
0.0
 71
     0
 42
0.2
  3
gdt
  4

  0
STYLE
  5
3525
330
3
100
AcDbSymbolTableRecord
100
AcDbTextStyleTableRecord
  2
TEXTSTYLE_3
 70
     0
 40
0.0
 41
0.75
 50
0.0
 71
     0
 42
0.2
  3
txt
  4

  0
STYLE
  5
3526
330
3
100
AcDbSymbolTableRecord
100
AcDbTextStyleTableRecord
  2
TEXTSTYLE_13
 70
     0
 40
0.0
 41
1.0
 50
0.0
 71
     0
 42
0.2
  3
txt
  4

  0
STYLE
  5
519A
330
3
100
AcDbSymbolTableRecord
100
AcDbTextStyleTableRecord
  2
TEXTSTYLE_14
 70
     0
 40
0.0
 41
1.0
 50
0.0
 71
     0
 42
0.2
  3
txt
  4

  0
STYLE
  5
6F72
330
3
100
AcDbSymbolTableRecord
100
AcDbTextStyleTableRecord
  2
TEXTSTYLE_4
 70
     0
 40
0.0
 41
0.75
 50
0.0
 71
     0
 42
0.2
  3
txt
  4

  0
STYLE
  5
6F73
330
3
100
AcDbSymbolTableRecord
100
AcDbTextStyleTableRecord
  2
TEXTSTYLE_17
 70
     0
 40
0.0
 41
1.0
 50
0.0
 71
     0
 42
0.2
  3
txt
  4

  0
STYLE
  5
FE12
330
3
100
AcDbSymbolTableRecord
100
AcDbTextStyleTableRecord
  2
TEXTSTYLE_12
 70
     0
 40
0.0
 41
1.0
 50
0.0
 71
     0
 42
0.2
  3
txt
  4

  0
ENDTAB
  0
TABLE
  2
VIEW
  5
6
330
0
100
AcDbSymbolTable
 70
     0
  0
ENDTAB
  0
TABLE
  2
UCS
  5
7
330
0
100
AcDbSymbolTable
 70
     0
  0
ENDTAB
  0
TABLE
  2
APPID
  5
9
330
0
100
AcDbSymbolTable
 70
    11
  0
APPID
  5
12
330
9
100
AcDbSymbolTableRecord
100
AcDbRegAppTableRecord
  2
ACAD
 70
     0
  0
APPID
  5
D2
330
9
100
AcDbSymbolTableRecord
100
AcDbRegAppTableRecord
  2
AcAecLayerStandard
 70
     0
  0
APPID
  5
E6
330
9
100
AcDbSymbolTableRecord
100
AcDbRegAppTableRecord
  2
ACAD_DSTYLE_DIMTEXT_FILL
 70
     0
  0
APPID
  5
4C84
330
9
100
AcDbSymbolTableRecord
100
AcDbRegAppTableRecord
  2
ACAD_EXEMPT_FROM_CAD_STANDARDS
 70
     0
  0
APPID
  5
3493E
330
9
100
AcDbSymbolTableRecord
100
AcDbRegAppTableRecord
  2
DCO15
 70
     0
  0
APPID
  5
4366A
330
9
100
AcDbSymbolTableRecord
100
AcDbRegAppTableRecord
  2
ACAUTHENVIRON
 70
     0
  0
APPID
  5
4366D
330
9
100
AcDbSymbolTableRecord
100
AcDbRegAppTableRecord
  2
AcDbDynamicBlockTrueName
 70
     0
  0
APPID
  5
4366E
330
9
100
AcDbSymbolTableRecord
100
AcDbRegAppTableRecord
  2
AcDbDynamicBlockGUID
 70
     0
  0
APPID
  5
43670
330
9
100
AcDbSymbolTableRecord
100
AcDbRegAppTableRecord
  2
AcDbBlockRepETag
 70
     0
  0
APPID
  5
45C9F
330
9
100
AcDbSymbolTableRecord
100
AcDbRegAppTableRecord
  2
ACAD_DSTYLE_DIMEXT_ENABLED
 70
     0
  0
APPID
  5
45CA0
330
9
100
AcDbSymbolTableRecord
100
AcDbRegAppTableRecord
  2
ACAD_DSTYLE_DIMEXT_LENGTH
 70
     0
  0
ENDTAB
  0
TABLE
  2
DIMSTYLE
  5
A
330
0
100
AcDbSymbolTable
 70
     9
100
AcDbDimStyleTable
 71
     2
340
1BF
340
27
  0
DIMSTYLE
105
27
330
A
100
AcDbSymbolTableRecord
100
AcDbDimStyleTableRecord
  2
ISO-25
 70
     0
 41
2.5
 42
0.625
 43
3.75
 44
1.25
 73
     0
 74
     0
 77
     1
 78
     8
140
2.5
141
2.5
143
0.03937007874016
147
0.625
171
     3
172
     1
271
     2
272
     2
274
     3
278
    44
283
     0
284
     8
340
11
  0
DIMSTYLE
105
1BF
102
{ACAD_REACTORS
330
59AEF
330
59AF1
330
59AF2
330
59AF3
330
59AF4
330
59AF5
330
59CC0
102
}
330
A
100
AcDbSymbolTableRecord
100
AcDbDimStyleTableRecord
  2
\M+18352\M+18373\M+1815B - ISO-25
 70
     0
 40
0.0
 41
3.5
 42
0.0
 44
1.5
 73
     0
 74
     0
 77
     1
 78
     8
140
3.5
147
2.299999999999998
176
   256
177
   256
178
   256
271
     2
272
     2
284
     8
340
24A
371
    -1
372
    -1
  0
DIMSTYLE
105
69F
330
A
100
AcDbSymbolTableRecord
100
AcDbDimStyleTableRecord
  2
MXDIMSTYLE
 70
     0
 41
2.5
 42
0.5
 43
3.75
 44
1.5
 73
     0
 74
     0
 77
     1
 78
     8
140
4.2
141
2.5
143
0.03937
147
1.0
171
     4
172
     1
173
     1
271
     2
272
     2
274
     4
283
     0
288
     1
340
69E
341
697
343
697
344
697
  0
DIMSTYLE
105
3527
330
A
100
AcDbSymbolTableRecord
100
AcDbDimStyleTableRecord
  2
STANDARD
 70
     0
 41
3.0
 47
0.001
 48
0.001
 71
     1
 73
     0
 74
     0
 77
     1
 78
     8
140
4.0
271
     3
272
     3
284
     8
340
11
341
34B1
342
34B1
343
34B1
344
34B1
  0
DIMSTYLE
105
3528
330
A
100
AcDbSymbolTableRecord
100
AcDbDimStyleTableRecord
  2
DIMSTYLE_1
 70
     0
 41
3.0
 73
     0
 74
     0
 77
     1
 78
     8
140
4.0
271
     3
272
     3
284
     8
340
11
341
34B1
342
34B1
343
34B1
344
34B1
  0
DIMSTYLE
105
3529
330
A
100
AcDbSymbolTableRecord
100
AcDbDimStyleTableRecord
  2
DIMSTYLE_2
 70
     0
 41
3.0
 47
0.001
 48
0.001
 73
     0
 74
     0
 77
     1
 78
     8
140
4.0
271
     3
272
     3
284
     8
340
11
341
34B1
342
34B1
343
34B1
344
34B1
  0
DIMSTYLE
105
352A
330
A
100
AcDbSymbolTableRecord
100
AcDbDimStyleTableRecord
  2
DIMSTYLE_3
 70
     0
 41
3.0
 47
-0.1
 48
0.3
 71
     1
 73
     0
 74
     0
 77
     1
 78
     8
140
4.0
146
0.5
271
     3
272
     3
284
     8
340
11
341
34B1
342
34B1
343
34B1
344
34B1
  0
DIMSTYLE
105
352B
330
A
100
AcDbSymbolTableRecord
100
AcDbDimStyleTableRecord
  2
DIMSTYLE_4
 70
     0
 41
3.0
 47
0.1
 48
0.1
 71
     1
 73
     0
 74
     0
 77
     1
 78
     8
140
4.0
271
     3
272
     3
284
     8
340
11
341
34B1
342
34B1
343
34B1
344
34B1
  0
DIMSTYLE
105
27245
330
A
100
AcDbSymbolTableRecord
100
AcDbDimStyleTableRecord
  2
DIMSTYLE_5
 70
     0
 41
3.0
 47
0.001
 48
0.001
 73
     0
 74
     0
 77
     1
 78
     8
140
4.0
271
     3
272
     3
284
     8
340
11
341
34B1
342
34B1
343
34B1
344
34B1
  0
ENDTAB
  0
TABLE
  2
BLOCK_RECORD
  5
1
330
0
100
AcDbSymbolTable
 70
    88
  0
BLOCK_RECORD
  5
1F
102
{ACAD_XDICTIONARY
360
31EE
102
}
330
1
100
AcDbSymbolTableRecord
100
AcDbBlockTableRecord
  2
*Model_Space
340
22
  0
BLOCK_RECORD
  5
50
330
1
100
AcDbSymbolTableRecord
100
AcDbBlockTableRecord
  2
*Paper_Space
340
51
  0
BLOCK_RECORD
  5
55
330
1
100
AcDbSymbolTableRecord
100
AcDbBlockTableRecord
  2
*Paper_Space0
340
56
  0
BLOCK_RECORD
  5
680
102
{ACAD_XDICTIONARY
360
43668
102
}
330
1
100
AcDbSymbolTableRecord
100
AcDbBlockTableRecord
  2
zero block
340
0
102
{BLKREFS
331
68C
102
}
1001
ACAD
1000
DesignCenter Data
1002
{
1070
     1
1070
     4
1002
}
1001
AcDbDynamicBlockGUID
1000
{A89DF4EB-B2CB-439E-AC69-1EAC9F242D1C}
1001
AcDbBlockRepETag
1070
     1
1071
        7
  0
BLOCK_RECORD
  5
697
330
1
100
AcDbSymbolTableRecord
100
AcDbBlockTableRecord
  2
_OPEN30
340
0
  0
BLOCK_RECORD
  5
32F1
330
1
100
AcDbSymbolTableRecord
100
AcDbBlockTableRecord
  2
_None
340
0
  0
BLOCK_RECORD
  5
34B1
330
1
100
AcDbSymbolTableRecord
100
AcDbBlockTableRecord
  2
_OPEN
340
0
  0
BLOCK_RECORD
  5
57D2C
330
1
100
AcDbSymbolTableRecord
100
AcDbBlockTableRecord
  2
*D8
340
0
  0
BLOCK_RECORD
  5
57D38
330
1
100
AcDbSymbolTableRecord
100
AcDbBlockTableRecord
  2
*D9
340
0
  0
BLOCK_RECORD
  5
59CC3
330
1
100
AcDbSymbolTableRecord
100
AcDbBlockTableRecord
  2
*D81
340
0
  0
BLOCK_RECORD
  5
59CD0
330
1
100
AcDbSymbolTableRecord
100
AcDbBlockTableRecord
  2
*D82
340
0
  0
BLOCK_RECORD
  5
59CDA
330
1
100
AcDbSymbolTableRecord
100
AcDbBlockTableRecord
  2
*D83
340
0
  0
BLOCK_RECORD
  5
59CE6
330
1
100
AcDbSymbolTableRecord
100
AcDbBlockTableRecord
  2
*D84
340
0
  0
BLOCK_RECORD
  5
59CF2
330
1
100
AcDbSymbolTableRecord
100
AcDbBlockTableRecord
  2
*D85
340
0
  0
BLOCK_RECORD
  5
59CFF
330
1
100
AcDbSymbolTableRecord
100
AcDbBlockTableRecord
  2
*D86
340
0
  0
BLOCK_RECORD
  5
59D41
330
1
100
AcDbSymbolTableRecord
100
AcDbBlockTableRecord
  2
*D87
340
0
  0
ENDTAB
  0
ENDSEC
  0
SECTION
  2
BLOCKS
  0
BLOCK
  5
20
330
1F
100
AcDbEntity
  8
0
100
AcDbBlockBegin
  2
*Model_Space
 70
     0
 10
0.0
 20
0.0
 30
0.0
  3
*Model_Space
  1

  0
ENDBLK
  5
21
330
1F
100
AcDbEntity
  8
0
100
AcDbBlockEnd
  0
BLOCK
  5
52
330
50
100
AcDbEntity
 67
     1
  8
0
100
AcDbBlockBegin
  2
*Paper_Space
 70
     0
 10
0.0
 20
0.0
 30
0.0
  3
*Paper_Space
  1

  0
ENDBLK
  5
53
330
50
100
AcDbEntity
 67
     1
  8
0
100
AcDbBlockEnd
  0
BLOCK
  5
57
330
55
100
AcDbEntity
 67
     1
  8
0
100
AcDbBlockBegin
  2
*Paper_Space0
 70
     0
 10
0.0
 20
0.0
 30
0.0
  3
*Paper_Space0
  1

  0
VIEWPORT
  5
71
102
{ACAD_XDICTIONARY
360
59DA1
102
}
330
55
100
AcDbEntity
 67
     1
  8
0
100
AcDbViewport
 10
150.1652135264906
 20
101.599997546291
 30
0.0
 40
339.1973820494347
 41
164.5360435314421
 68
     0
 69
     0
 12
150.1652135264906
 22
101.599997546291
 13
0.0
 23
0.0
 14
10.0
 24
10.0
 15
10.0
 25
10.0
 16
0.0
 26
0.0
 36
1.0
 17
0.0
 27
0.0
 37
0.0
 42
50.0
 43
0.0
 44
0.0
 45
164.5360435314421
 50
0.0
 51
0.0
 72
  1000
 90
    32864
  1

281
     0
 71
     1
 74
     0
110
0.0
120
0.0
130
0.0
111
1.0
121
0.0
131
0.0
112
0.0
122
1.0
132
0.0
 79
     0
146
0.0
  0
VIEWPORT
  5
73
102
{ACAD_XDICTIONARY
360
59DA3
102
}
330
55
100
AcDbEntity
 67
     1
  8
0
100
AcDbViewport
 10
133.3499939441681
 20
101.5999939441681
 30
0.0
 40
213.3599903106689
 41
162.5599903106689
 68
     0
 69
     0
 12
210.0
 22
148.5
 13
0.0
 23
0.0
 14
10.0
 24
10.0
 15
10.0
 25
10.0
 16
0.0
 26
0.0
 36
1.0
 17
0.0
 27
0.0
 37
0.0
 42
50.0
 43
0.0
 44
0.0
 45
324.0677920111345
 50
0.0
 51
0.0
 72
   100
 90
    32864
  1

281
     0
 71
     1
 74
     0
110
0.0
120
0.0
130
0.0
111
1.0
121
0.0
131
0.0
112
0.0
122
1.0
132
0.0
 79
     0
146
0.0
  0
ENDBLK
  5
58
330
55
100
AcDbEntity
 67
     1
  8
0
100
AcDbBlockEnd
  0
BLOCK
  5
68A
330
680
100
AcDbEntity
  8
0
100
AcDbBlockBegin
  2
zero block
 70
     0
 10
0.0
 20
0.0
 30
0.0
  3
zero block
  1

  0
HATCH
  5
43661
330
680
100
AcDbEntity
  8
0
 62
     7
100
AcDbHatch
 10
0.0
 20
0.0
 30
0.0
210
0.0
220
0.0
230
1.0
  2
SOLID
 70
     1
 71
     0
 91
        2
 92
        7
 72
     1
 73
     1
 93
        3
 10
0.0
 20
0.9999999999999875
 42
0.4142135623730915
 10
-1.0
 20
0.0
 42
0.0
 10
0.0
 20
0.0
 42
0.0
 97
        0
 92
        7
 72
     1
 73
     1
 93
        3
 10
1.000000000000007
 20
0.0
 42
0.0
 10
0.0
 20
0.0
 42
0.0
 10
0.0
 20
-1.0
 42
0.4142135623730974
 97
        0
 75
     0
 76
     1
 47
0.0090601366782909
 98
        2
 10
-0.380591363650975
 20
0.4885804701532896
 10
0.4350764810977559
 20
-0.4536738423704725
1001
AcDbBlockRepETag
1070
     1
1071
        0
1005
43661
  0
LINE
  5
43662
330
680
100
AcDbEntity
  8
0
 62
     7
 48
0.2
100
AcDbLine
 10
-1.0
 20
0.0
 30
0.0
 11
1.000000000000007
 21
0.0
 31
0.0
1001
AcDbBlockRepETag
1070
     1
1071
        1
1005
43662
  0
LINE
  5
43663
330
680
100
AcDbEntity
  8
0
 62
     7
 48
0.2
100
AcDbLine
 10
0.0
 20
-1.0
 30
0.0
 11
0.0
 21
0.9999999999999875
 31
0.0
1001
AcDbBlockRepETag
1070
     1
1071
        2
1005
43663
  0
ARC
  5
43664
330
680
100
AcDbEntity
  8
0
 62
     7
 48
0.2
100
AcDbCircle
 10
0.0
 20
0.0
 30
0.0
 40
1.0
100
AcDbArc
 50
270.0
 51
0.0
1001
AcDbBlockRepETag
1070
     1
1071
        3
1005
43664
  0
ARC
  5
43665
330
680
100
AcDbEntity
  8
0
 62
     7
 48
0.2
100
AcDbCircle
 10
0.0
 20
0.0
 30
0.0
 40
1.0
100
AcDbArc
 50
0.0
 51
90.0
1001
AcDbBlockRepETag
1070
     1
1071
        4
1005
43665
  0
ARC
  5
43666
330
680
100
AcDbEntity
  8
0
 62
     7
 48
0.2
100
AcDbCircle
 10
0.0
 20
0.0
 30
0.0
 40
1.0
100
AcDbArc
 50
180.0
 51
270.0
1001
AcDbBlockRepETag
1070
     1
1071
        5
1005
43666
  0
ARC
  5
43667
330
680
100
AcDbEntity
  8
0
 62
     7
 48
0.2
100
AcDbCircle
 10
0.0
 20
0.0
 30
0.0
 40
1.0
100
AcDbArc
 50
90.0
 51
180.0
1001
AcDbBlockRepETag
1070
     1
1071
        6
1005
43667
  0
ENDBLK
  5
68B
330
680
100
AcDbEntity
  8
0
100
AcDbBlockEnd
  0
BLOCK
  5
698
330
697
100
AcDbEntity
  8
0
  6
ByBlock
 62
     0
370
    -2
100
AcDbBlockBegin
  2
_OPEN30
 70
     2
 10
0.0
 20
0.0
 30
0.0
  3
_OPEN30
  1

  0
LINE
  5
699
330
697
100
AcDbEntity
  8
0
  6
ByBlock
 62
     0
370
    -2
100
AcDbLine
 10
-1.0
 20
0.267949
 30
0.0
 11
0.0
 21
0.0
 31
0.0
  0
LINE
  5
69A
330
697
100
AcDbEntity
  8
0
  6
ByBlock
 62
     0
370
    -2
100
AcDbLine
 10
0.0
 20
0.0
 30
0.0
 11
-1.0
 21
-0.267949
 31
0.0
  0
LINE
  5
69B
330
697
100
AcDbEntity
  8
0
  6
ByBlock
 62
     0
370
    -2
100
AcDbLine
 10
0.0
 20
0.0
 30
0.0
 11
-1.0
 21
0.0
 31
0.0
  0
ENDBLK
  5
69C
330
697
100
AcDbEntity
  8
0
  6
ByBlock
 62
     0
370
    -2
100
AcDbBlockEnd
  0
BLOCK
  5
32F2
330
32F1
100
AcDbEntity
  8
0
100
AcDbBlockBegin
  2
_None
 70
     0
 10
0.0
 20
0.0
 30
0.0
  3
_None
  1

  0
ENDBLK
  5
32F3
330
32F1
100
AcDbEntity
  8
0
100
AcDbBlockEnd
  0
BLOCK
  5
34B2
330
34B1
100
AcDbEntity
  8
0
100
AcDbBlockBegin
  2
_OPEN
 70
     0
 10
0.0
 20
0.0
 30
0.0
  3
_OPEN
  1

  0
LINE
  5
34B3
330
34B1
100
AcDbEntity
  8
0
  6
ByBlock
 62
     0
100
AcDbLine
 10
0.0
 20
0.0
 30
0.0
 11
-1.0
 21
0.1766666667
 31
0.0
  0
LINE
  5
34B4
330
34B1
100
AcDbEntity
  8
0
  6
ByBlock
 62
     0
100
AcDbLine
 10
-1.0
 20
-0.1766666667
 30
0.0
 11
0.0
 21
0.0
 31
0.0
  0
LINE
  5
34B5
330
34B1
100
AcDbEntity
  8
0
  6
ByBlock
 62
     0
100
AcDbLine
 10
-1.0
 20
0.0
 30
0.0
 11
0.0
 21
0.0
 31
0.0
  0
ENDBLK
  5
34B6
330
34B1
100
AcDbEntity
  8
0
  6
ByBlock
 62
     0
100
AcDbBlockEnd
  0
BLOCK
  5
57D36
330
57D2C
100
AcDbEntity
  8
0
100
AcDbBlockBegin
  2
*D8
 70
     1
 10
0.0
 20
0.0
 30
0.0
  3
*D8
  1

  0
LINE
  5
57DBC
330
57D2C
100
AcDbEntity
  8
sk2
100
AcDbLine
 10
2.0
 20
30.0
 30
0.0
 11
-26.78072522735555
 21
30.00000000000001
 31
0.0
  0
LINE
  5
57DBD
330
57D2C
100
AcDbEntity
  8
sk2
100
AcDbLine
 10
2.0
 20
-30.0
 30
0.0
 11
-26.78072522735557
 21
-30.0
 31
0.0
  0
LINE
  5
57DBE
330
57D2C
100
AcDbEntity
  8
sk2
100
AcDbLine
 10
-25.28072522735556
 20
26.50000000000001
 30
0.0
 11
-25.28072522735557
 21
-26.49999999999999
 31
0.0
  0
SOLID
  5
57DBF
330
57D2C
100
AcDbEntity
  8
sk2
100
AcDbTrace
 10
-25.8640585606889
 20
26.50000000000001
 30
0.0
 11
-24.69739189402222
 21
26.50000000000001
 31
0.0
 12
-25.28072522735556
 22
30.00000000000001
 32
0.0
 13
-25.28072522735556
 23
30.00000000000001
 33
0.0
  0
SOLID
  5
57DC0
330
57D2C
100
AcDbEntity
  8
sk2
100
AcDbTrace
 10
-25.8640585606889
 20
-26.49999999999999
 30
0.0
 11
-24.69739189402224
 21
-26.49999999999999
 31
0.0
 12
-25.28072522735557
 22
-30.0
 32
0.0
 13
-25.28072522735557
 23
-30.0
 33
0.0
  0
MTEXT
  5
57DC1
330
57D2C
100
AcDbEntity
  8
sk2
100
AcDbMText
 10
-31.08072522735556
 20
0.0000000000000076
 30
0.0
 40
3.5
 41
0.0
 71
     2
 72
     1
  1
\A1;%%c60
  7
simplex
 11
0.0000000000000001
 21
1.0
 31
0.0
 73
     1
 44
1.0
1001
ACAD
1000
MTEXTBEGIN
1070
    73
1070
     1
1070
    44
1040
1.0
1070
    74
1070
     0
1000
MTEXTEND
  0
POINT
  5
57DC2
330
57D2C
100
AcDbEntity
  8
Defpoints
 62
     0
100
AcDbPoint
 10
2.0
 20
30.0
 30
0.0
  0
POINT
  5
57DC3
330
57D2C
100
AcDbEntity
  8
Defpoints
 62
     0
100
AcDbPoint
 10
2.0
 20
-30.0
 30
0.0
  0
POINT
  5
57DC4
330
57D2C
100
AcDbEntity
  8
Defpoints
 62
     0
100
AcDbPoint
 10
-25.28072522735557
 20
-30.0
 30
0.0
  0
ENDBLK
  5
57D37
330
57D2C
100
AcDbEntity
  8
0
100
AcDbBlockEnd
  0
BLOCK
  5
57D42
330
57D38
100
AcDbEntity
  8
0
100
AcDbBlockBegin
  2
*D9
 70
     1
 10
0.0
 20
0.0
 30
0.0
  3
*D9
  1

  0
LINE
  5
57DC5
330
57D38
100
AcDbEntity
  8
sk2
100
AcDbLine
 10
1.199999999999988
 20
12.70000000000004
 30
0.0
 11
-14.96805442634695
 21
12.70000000000004
 31
0.0
  0
LINE
  5
57DC6
330
57D38
100
AcDbEntity
  8
sk2
100
AcDbLine
 10
1.199999999999988
 20
-12.69999999999999
 30
0.0
 11
-14.96805442634695
 21
-12.69999999999998
 31
0.0
  0
LINE
  5
57DC7
330
57D38
100
AcDbEntity
  8
sk2
100
AcDbLine
 10
-13.46805442634695
 20
9.200000000000043
 30
0.0
 11
-13.46805442634695
 21
-9.199999999999985
 31
0.0
  0
SOLID
  5
57DC8
330
57D38
100
AcDbEntity
  8
sk2
100
AcDbTrace
 10
-14.05138775968028
 20
9.200000000000043
 30
0.0
 11
-12.88472109301362
 21
9.200000000000043
 31
0.0
 12
-13.46805442634695
 22
12.70000000000004
 32
0.0
 13
-13.46805442634695
 23
12.70000000000004
 33
0.0
  0
SOLID
  5
57DC9
330
57D38
100
AcDbEntity
  8
sk2
100
AcDbTrace
 10
-14.05138775968029
 20
-9.199999999999985
 30
0.0
 11
-12.88472109301362
 21
-9.199999999999985
 31
0.0
 12
-13.46805442634696
 22
-12.69999999999998
 32
0.0
 13
-13.46805442634696
 23
-12.69999999999998
 33
0.0
  0
MTEXT
  5
57DCA
330
57D38
100
AcDbEntity
  8
sk2
100
AcDbMText
 10
-19.26805442634694
 20
-0.0000000331999667
 30
0.0
 40
3.5
 41
0.0
 71
     2
 72
     1
  1
\A1;%%c25.4
  7
simplex
 11
0.0000000000000001
 21
1.0
 31
0.0
 73
     1
 44
1.0
1001
ACAD
1000
MTEXTBEGIN
1070
    73
1070
     1
1070
    44
1040
1.0
1070
    74
1070
     0
1000
MTEXTEND
  0
POINT
  5
57DCB
330
57D38
100
AcDbEntity
  8
Defpoints
 62
     0
100
AcDbPoint
 10
1.199999999999988
 20
12.70000000000004
 30
0.0
  0
POINT
  5
57DCC
330
57D38
100
AcDbEntity
  8
Defpoints
 62
     0
100
AcDbPoint
 10
1.199999999999988
 20
-12.69999999999999
 30
0.0
  0
POINT
  5
57DCD
330
57D38
100
AcDbEntity
  8
Defpoints
 62
     0
100
AcDbPoint
 10
-13.46805442634696
 20
-12.69999999999998
 30
0.0
  0
ENDBLK
  5
57D43
330
57D38
100
AcDbEntity
  8
0
100
AcDbBlockEnd
  0
BLOCK
  5
59CCE
330
59CC3
100
AcDbEntity
  8
0
100
AcDbBlockBegin
  2
*D81
 70
     1
 10
0.0
 20
0.0
 30
0.0
  3
*D81
  1

  0
LINE
  5
59D52
330
59CC3
100
AcDbEntity
  8
2
100
AcDbLine
 10
50.80000000000001
 20
24.0788095377034
 30
0.0
 11
50.80000000000001
 21
50.73204677714642
 31
0.0
  0
LINE
  5
59D53
330
59CC3
100
AcDbEntity
  8
2
100
AcDbLine
 10
35.30000000000004
 20
25.45694841800494
 30
0.0
 11
35.30000000000004
 21
50.73204677714642
 31
0.0
  0
LINE
  5
59D54
330
59CC3
100
AcDbEntity
  8
2
100
AcDbLine
 10
47.30000000000001
 20
49.23204677714642
 30
0.0
 11
38.80000000000004
 21
49.23204677714642
 31
0.0
  0
LINE
  5
59D55
330
59CC3
100
AcDbEntity
  8
2
100
AcDbLine
 10
35.30000000000004
 20
49.23204677714642
 30
0.0
 11
-17.88482586260191
 21
49.23204677714642
 31
0.0
  0
SOLID
  5
59D56
330
59CC3
100
AcDbEntity
  8
2
100
AcDbTrace
 10
47.30000000000001
 20
49.81538011047976
 30
0.0
 11
47.30000000000001
 21
48.64871344381309
 31
0.0
 12
50.80000000000001
 22
49.23204677714642
 32
0.0
 13
50.80000000000001
 23
49.23204677714642
 33
0.0
  0
SOLID
  5
59D57
330
59CC3
100
AcDbEntity
  8
2
100
AcDbTrace
 10
38.80000000000004
 20
49.81538011047976
 30
0.0
 11
38.80000000000004
 21
48.64871344381309
 31
0.0
 12
35.30000000000004
 22
49.23204677714642
 32
0.0
 13
35.30000000000004
 23
49.23204677714642
 33
0.0
  0
MTEXT
  5
59D58
330
59CC3
100
AcDbEntity
  8
2
100
AcDbMText
 10
6.873507470731425
 20
53.28204677714642
 30
0.0
 40
3.5
 41
0.0
 71
     5
 72
     1
  1
\A1;15.5 [.610"](MAX)
  7
simplex
 73
     1
 44
1.0
1001
ACAD
1000
MTEXTBEGIN
1070
    73
1070
     1
1070
    44
1040
1.0
1070
    74
1070
     0
1000
MTEXTEND
  0
POINT
  5
59D59
330
59CC3
100
AcDbEntity
  8
Defpoints
 62
     0
100
AcDbPoint
 10
50.80000000000001
 20
24.0788095377034
 30
0.0
  0
POINT
  5
59D5A
330
59CC3
100
AcDbEntity
  8
Defpoints
 62
     0
100
AcDbPoint
 10
35.30000000000004
 20
25.45694841800494
 30
0.0
  0
POINT
  5
59D5B
330
59CC3
100
AcDbEntity
  8
Defpoints
 62
     0
100
AcDbPoint
 10
35.30000000000004
 20
49.23204677714642
 30
0.0
  0
ENDBLK
  5
59CCF
330
59CC3
100
AcDbEntity
  8
0
100
AcDbBlockEnd
  0
BLOCK
  5
59CD8
330
59CD0
100
AcDbEntity
  8
0
100
AcDbBlockBegin
  2
*D82
 70
     1
 10
0.0
 20
0.0
 30
0.0
  3
*D82
  1

  0
LINE
  5
59D5C
330
59CD0
100
AcDbEntity
  8
2
100
AcDbLine
 10
50.80000000000001
 20
25.40000000000004
 30
0.0
 11
69.81259332549575
 21
25.40000000000003
 31
0.0
  0
LINE
  5
59D5D
330
59CD0
100
AcDbEntity
  8
2
100
AcDbLine
 10
68.31259332549575
 20
21.90000000000003
 30
0.0
 11
68.31259332549575
 21
-25.39999999999999
 31
0.0
  0
SOLID
  5
59D5E
330
59CD0
100
AcDbEntity
  8
2
100
AcDbTrace
 10
67.72925999216242
 20
21.90000000000003
 30
0.0
 11
68.89592665882908
 21
21.90000000000003
 31
0.0
 12
68.31259332549575
 22
25.40000000000003
 32
0.0
 13
68.31259332549575
 23
25.40000000000003
 33
0.0
  0
MTEXT
  5
59D5F
330
59CD0
100
AcDbEntity
  8
2
100
AcDbMText
 10
62.51259332549576
 20
-2.833333333299982
 30
0.0
 40
3.5
 41
0.0
 71
     2
 72
     1
  1
\A1;%%c50.8 [%%c2.000"]
  7
simplex
 11
0.0000000000000001
 21
1.0
 31
0.0
 73
     1
 44
1.0
1001
ACAD
1000
MTEXTBEGIN
1070
    73
1070
     1
1070
    44
1040
1.0
1070
    74
1070
     0
1000
MTEXTEND
  0
POINT
  5
59D60
330
59CD0
100
AcDbEntity
  8
Defpoints
 62
     0
100
AcDbPoint
 10
50.80000000000001
 20
25.40000000000004
 30
0.0
  0
POINT
  5
59D61
330
59CD0
100
AcDbEntity
  8
Defpoints
 62
     0
100
AcDbPoint
 10
50.80000000000001
 20
-25.39999999999999
 30
0.0
  0
POINT
  5
59D62
330
59CD0
100
AcDbEntity
  8
Defpoints
 62
     0
100
AcDbPoint
 10
68.31259332549575
 20
-25.39999999999999
 30
0.0
  0
ENDBLK
  5
59CD9
330
59CD0
100
AcDbEntity
  8
0
100
AcDbBlockEnd
  0
BLOCK
  5
59CE4
330
59CDA
100
AcDbEntity
  8
0
100
AcDbBlockBegin
  2
*D83
 70
     1
 10
0.0
 20
0.0
 30
0.0
  3
*D83
  1

  0
LINE
  5
59D63
330
59CDA
100
AcDbEntity
  8
sk2
100
AcDbLine
 10
1.5
 20
22.22500000000002
 30
0.0
 11
-22.45190238706345
 21
22.22500000000003
 31
0.0
  0
LINE
  5
59D64
330
59CDA
100
AcDbEntity
  8
sk2
100
AcDbLine
 10
1.5
 20
-22.22499999999997
 30
0.0
 11
-22.45190238706346
 21
-22.22499999999997
 31
0.0
  0
LINE
  5
59D65
330
59CDA
100
AcDbEntity
  8
sk2
100
AcDbLine
 10
-20.95190238706345
 20
18.72500000000002
 30
0.0
 11
-20.95190238706346
 21
-18.72499999999997
 31
0.0
  0
SOLID
  5
59D66
330
59CDA
100
AcDbEntity
  8
sk2
100
AcDbTrace
 10
-21.53523572039679
 20
18.72500000000002
 30
0.0
 11
-20.36856905373012
 21
18.72500000000002
 31
0.0
 12
-20.95190238706345
 22
22.22500000000003
 32
0.0
 13
-20.95190238706345
 23
22.22500000000003
 33
0.0
  0
SOLID
  5
59D67
330
59CDA
100
AcDbEntity
  8
sk2
100
AcDbTrace
 10
-21.53523572039679
 20
-18.72499999999997
 30
0.0
 11
-20.36856905373013
 21
-18.72499999999997
 31
0.0
 12
-20.95190238706346
 22
-22.22499999999997
 32
0.0
 13
-20.95190238706346
 23
-22.22499999999997
 33
0.0
  0
MTEXT
  5
59D68
330
59CDA
100
AcDbEntity
  8
sk2
100
AcDbMText
 10
-26.75190238706345
 20
0.0000000000000266
 30
0.0
 40
3.5
 41
0.0
 71
     2
 72
     1
  1
\A1;%%c44.45 [%%c1.750"]
  7
simplex
 11
0.0000000000000001
 21
1.0
 31
0.0
 73
     1
 44
1.0
1001
ACAD
1000
MTEXTBEGIN
1070
    73
1070
     1
1070
    44
1040
1.0
1070
    74
1070
     0
1000
MTEXTEND
  0
POINT
  5
59D69
330
59CDA
100
AcDbEntity
  8
Defpoints
 62
     0
100
AcDbPoint
 10
1.5
 20
22.22500000000002
 30
0.0
  0
POINT
  5
59D6A
330
59CDA
100
AcDbEntity
  8
Defpoints
 62
     0
100
AcDbPoint
 10
1.5
 20
-22.22499999999997
 30
0.0
  0
POINT
  5
59D6B
330
59CDA
100
AcDbEntity
  8
Defpoints
 62
     0
100
AcDbPoint
 10
-20.95190238706346
 20
-22.22499999999997
 30
0.0
  0
ENDBLK
  5
59CE5
330
59CDA
100
AcDbEntity
  8
0
100
AcDbBlockEnd
  0
BLOCK
  5
59CF0
330
59CE6
100
AcDbEntity
  8
0
100
AcDbBlockBegin
  2
*D84
 70
     1
 10
0.0
 20
0.0
 30
0.0
  3
*D84
  1

  0
LINE
  5
59D6C
330
59CE6
100
AcDbEntity
  8
2
100
AcDbLine
 10
50.80000000000001
 20
24.47807506795633
 30
0.0
 11
50.80000000000001
 21
63.65736898637013
 31
0.0
  0
LINE
  5
59D6D
330
59CE6
100
AcDbEntity
  8
2
100
AcDbLine
 10
0.0
 20
20.72499714510005
 30
0.0
 11
0.0000000000000026
 21
63.65736898637013
 31
0.0
  0
LINE
  5
59D6E
330
59CE6
100
AcDbEntity
  8
2
100
AcDbLine
 10
47.30000000000001
 20
62.15736898637013
 30
0.0
 11
3.500000000000002
 21
62.15736898637013
 31
0.0
  0
SOLID
  5
59D6F
330
59CE6
100
AcDbEntity
  8
2
100
AcDbTrace
 10
47.30000000000001
 20
62.74070231970346
 30
0.0
 11
47.30000000000001
 21
61.57403565303679
 31
0.0
 12
50.80000000000001
 22
62.15736898637013
 32
0.0
 13
50.80000000000001
 23
62.15736898637013
 33
0.0
  0
SOLID
  5
59D70
330
59CE6
100
AcDbEntity
  8
2
100
AcDbTrace
 10
3.500000000000002
 20
62.74070231970346
 30
0.0
 11
3.500000000000002
 21
61.57403565303679
 31
0.0
 12
0.0000000000000025
 22
62.15736898637013
 32
0.0
 13
0.0000000000000025
 23
62.15736898637013
 33
0.0
  0
MTEXT
  5
59D71
330
59CE6
100
AcDbEntity
  8
2
100
AcDbMText
 10
25.40000000000004
 20
67.95736898637013
 30
0.0
 40
3.5
 41
0.0
 71
     2
 72
     1
  1
\A1;50.8 [2.000"]
  7
simplex
 73
     1
 44
1.0
1001
ACAD
1000
MTEXTBEGIN
1070
    73
1070
     1
1070
    44
1040
1.0
1070
    74
1070
     0
1000
MTEXTEND
  0
POINT
  5
59D72
330
59CE6
100
AcDbEntity
  8
Defpoints
 62
     0
100
AcDbPoint
 10
50.80000000000001
 20
24.47807506795633
 30
0.0
  0
POINT
  5
59D73
330
59CE6
100
AcDbEntity
  8
Defpoints
 62
     0
100
AcDbPoint
 10
0.0
 20
20.72499714510005
 30
0.0
  0
POINT
  5
59D74
330
59CE6
100
AcDbEntity
  8
Defpoints
 62
     0
100
AcDbPoint
 10
0.0000000000000025
 20
62.15736898637013
 30
0.0
  0
ENDBLK
  5
59CF1
330
59CE6
100
AcDbEntity
  8
0
100
AcDbBlockEnd
  0
BLOCK
  5
59CFD
330
59CF2
100
AcDbEntity
  8
0
100
AcDbBlockBegin
  2
*D85
 70
     1
 10
0.0
 20
0.0
 30
0.0
  3
*D85
  1

  0
LINE
  5
59D75
330
59CF2
100
AcDbEntity
  8
sk2
100
AcDbLine
 10
0.0
 20
-9.999999999999971
 30
0.0
 11
-0.000000000000002
 21
-42.11172042089996
 31
0.0
  0
LINE
  5
59D76
330
59CF2
100
AcDbEntity
  8
sk2
100
AcDbLine
 10
18.99999999999997
 20
-9.199999999999988
 30
0.0
 11
18.99999999999996
 21
-42.11172042089996
 31
0.0
  0
LINE
  5
59D77
330
59CF2
100
AcDbEntity
  8
sk2
100
AcDbLine
 10
3.499999999999998
 20
-40.61172042089996
 30
0.0
 11
15.49999999999997
 21
-40.61172042089996
 31
0.0
  0
LINE
  5
59D78
330
59CF2
100
AcDbEntity
  8
sk2
100
AcDbLine
 10
18.99999999999996
 20
-40.61172042089996
 30
0.0
 11
53.93333333333334
 21
-40.61172042089996
 31
0.0
  0
SOLID
  5
59D79
330
59CF2
100
AcDbEntity
  8
sk2
100
AcDbTrace
 10
3.499999999999998
 20
-40.02838708756662
 30
0.0
 11
3.499999999999998
 21
-41.19505375423329
 31
0.0
 12
-0.0000000000000019
 22
-40.61172042089996
 32
0.0
 13
-0.0000000000000019
 23
-40.61172042089996
 33
0.0
  0
SOLID
  5
59D7A
330
59CF2
100
AcDbEntity
  8
sk2
100
AcDbTrace
 10
15.49999999999997
 20
-40.02838708756662
 30
0.0
 11
15.49999999999997
 21
-41.19505375423329
 31
0.0
 12
18.99999999999996
 22
-40.61172042089996
 32
0.0
 13
18.99999999999996
 23
-40.61172042089996
 33
0.0
  0
MTEXT
  5
59D7B
330
59CF2
100
AcDbEntity
  8
sk2
100
AcDbMText
 10
38.21666666666667
 20
-34.81172042089997
 30
0.0
 40
3.5
 41
0.0
 71
     2
 72
     1
  1
\A1;19 [.748"]
  7
simplex
 73
     1
 44
1.0
1001
ACAD
1000
MTEXTBEGIN
1070
    73
1070
     1
1070
    44
1040
1.0
1070
    74
1070
     0
1000
MTEXTEND
  0
POINT
  5
59D7C
330
59CF2
100
AcDbEntity
  8
Defpoints
 62
     0
100
AcDbPoint
 10
0.0
 20
-9.999999999999971
 30
0.0
  0
POINT
  5
59D7D
330
59CF2
100
AcDbEntity
  8
Defpoints
 62
     0
100
AcDbPoint
 10
18.99999999999997
 20
-9.199999999999988
 30
0.0
  0
POINT
  5
59D7E
330
59CF2
100
AcDbEntity
  8
Defpoints
 62
     0
100
AcDbPoint
 10
18.99999999999996
 20
-40.61172042089996
 30
0.0
  0
ENDBLK
  5
59CFE
330
59CF2
100
AcDbEntity
  8
0
100
AcDbBlockEnd
  0
BLOCK
  5
59D09
330
59CFF
100
AcDbEntity
  8
0
100
AcDbBlockBegin
  2
*D86
 70
     1
 10
0.0
 20
0.0
 30
0.0
  3
*D86
  1

  0
LINE
  5
59D7F
330
59CFF
100
AcDbEntity
  8
sk2
100
AcDbLine
 10
1.199999999999988
 20
9.524999999999977
 30
0.0
 11
-10.02656996956716
 21
9.524999999999979
 31
0.0
  0
LINE
  5
59D80
330
59CFF
100
AcDbEntity
  8
sk2
100
AcDbLine
 10
1.199999999999988
 20
-9.524999999999977
 30
0.0
 11
-10.02656996956716
 21
-9.524999999999975
 31
0.0
  0
LINE
  5
59D81
330
59CFF
100
AcDbEntity
  8
sk2
100
AcDbLine
 10
-8.526569969567161
 20
6.024999999999979
 30
0.0
 11
-8.526569969567164
 21
-6.024999999999975
 31
0.0
  0
SOLID
  5
59D82
330
59CFF
100
AcDbEntity
  8
sk2
100
AcDbTrace
 10
-9.109903302900494
 20
6.024999999999979
 30
0.0
 11
-7.943236636233828
 21
6.024999999999979
 31
0.0
 12
-8.526569969567161
 22
9.524999999999979
 32
0.0
 13
-8.526569969567161
 23
9.524999999999979
 33
0.0
  0
SOLID
  5
59D83
330
59CFF
100
AcDbEntity
  8
sk2
100
AcDbTrace
 10
-9.109903302900498
 20
-6.024999999999975
 30
0.0
 11
-7.943236636233831
 21
-6.024999999999975
 31
0.0
 12
-8.526569969567164
 22
-9.524999999999975
 32
0.0
 13
-8.526569969567164
 23
-9.524999999999975
 33
0.0
  0
MTEXT
  5
59D84
330
59CFF
100
AcDbEntity
  8
sk2
100
AcDbMText
 10
-14.32656996956716
 20
0.000000000000001
 30
0.0
 40
3.5
 41
0.0
 71
     2
 72
     1
  1
\A1;%%c19.05 [%%c.750"]
  7
simplex
 11
0.0000000000000001
 21
1.0
 31
0.0
 73
     1
 44
1.0
1001
ACAD
1000
MTEXTBEGIN
1070
    73
1070
     1
1070
    44
1040
1.0
1070
    74
1070
     0
1000
MTEXTEND
  0
POINT
  5
59D85
330
59CFF
100
AcDbEntity
  8
Defpoints
 62
     0
100
AcDbPoint
 10
1.199999999999988
 20
9.524999999999977
 30
0.0
  0
POINT
  5
59D86
330
59CFF
100
AcDbEntity
  8
Defpoints
 62
     0
100
AcDbPoint
 10
1.199999999999988
 20
-9.524999999999977
 30
0.0
  0
POINT
  5
59D87
330
59CFF
100
AcDbEntity
  8
Defpoints
 62
     0
100
AcDbPoint
 10
-8.526569969567164
 20
-9.524999999999975
 30
0.0
  0
ENDBLK
  5
59D0A
330
59CFF
100
AcDbEntity
  8
0
100
AcDbBlockEnd
  0
BLOCK
  5
59D49
330
59D41
100
AcDbEntity
  8
0
100
AcDbBlockBegin
  2
*D87
 70
     1
 10
0.0
 20
0.0
 30
0.0
  3
*D87
  1

  0
LINE
  5
59D8F
330
59D41
100
AcDbEntity
  8
2
100
AcDbLine
 10
86.59002743238612
 20
52.75184397068902
 30
0.0
 11
53.47944233424666
 21
27.02066446209848
 31
0.0
  0
MTEXT
  5
59D90
330
59D41
100
AcDbEntity
  8
2
100
AcDbMText
 10
68.93137034226597
 20
44.15797362309085
 30
0.0
 40
3.5
 41
0.0
 71
     5
 72
     1
  1
\A1;R0.4 [R.016"]
  7
simplex
 11
0.7896005985247885
 21
0.6136211329552595
 31
0.0
 73
     1
 44
1.0
1001
ACAD
1000
MTEXTBEGIN
1070
    73
1070
     1
1070
    44
1040
1.0
1070
    74
1070
     0
1000
MTEXTEND
  0
SOLID
  5
59D91
330
59D41
100
AcDbEntity
  8
2
100
AcDbTrace
 10
53.1214966733561
 20
27.48126481123794
 30
0.0
 11
53.83738799513723
 21
26.56006411295903
 31
0.0
 12
50.7158402394099
 22
24.87299049675508
 32
0.0
 13
50.7158402394099
 23
24.87299049675508
 33
0.0
  0
LINE
  5
59D92
330
59D41
100
AcDbEntity
  8
2
100
AcDbLine
 10
50.30999999999999
 20
24.62754204357299
 30
0.0
 11
50.48999999999999
 21
24.62754204357298
 31
0.0
  0
LINE
  5
59D93
330
59D41
100
AcDbEntity
  8
2
100
AcDbLine
 10
50.39999999999999
 20
24.53754204357299
 30
0.0
 11
50.39999999999999
 21
24.71754204357298
 31
0.0
  0
POINT
  5
59D94
330
59D41
100
AcDbEntity
  8
Defpoints
 62
     0
100
AcDbPoint
 10
50.7158402394099
 20
24.87299049675508
 30
0.0
  0
POINT
  5
59D95
330
59D41
100
AcDbEntity
  8
Defpoints
 62
     0
100
AcDbPoint
 10
50.4
 20
24.62754204357298
 30
0.0
  0
ENDBLK
  5
59D4A
330
59D41
100
AcDbEntity
  8
0
100
AcDbBlockEnd
  0
ENDSEC
  0
SECTION
  2
ENTITIES
  0
INSERT
  5
68C
330
1F
100
AcDbEntity
  8
0
100
AcDbBlockReference
  2
zero block
 10
0.0000000000000072
 20
0.0
 30
0.0
 50
180.0
  0
DIMENSION
  5
59AEF
330
1F
100
AcDbEntity
  8
2
100
AcDbDimension
  2
*D81
 10
35.30000000000004
 20
49.23204677714642
 30
0.0
 11
6.873507470731425
 21
49.23204677714642
 31
0.0
 70
   160
  1
<>(MAX)
 71
     5
 42
15.49999999999997
  3
\M+18352\M+18373\M+1815B - ISO-25
100
AcDbAlignedDimension
 13
50.80000000000001
 23
24.0788095377034
 33
0.0
 14
35.30000000000004
 24
25.45694841800494
 34
0.0
 50
180.0
100
AcDbRotatedDimension
1001
ACAD
1000
DSTYLE
1002
{
1070
     4
1000
"
1070
    40
1040
1.0
1070
   143
1040
0.03937
1070
   170
1070
     1
1070
   171
1070
     3
1070
   271
1070
     8
1070
   285
1070
     4
1002
}
  0
MTEXT
  5
59AF0
330
1F
100
AcDbEntity
  8
sk6
100
AcDbMText
 10
-6.004395525146861
 20
84.30844243476219
 30
0.0
 40
5.0
 41
70.03712541027798
 71
     1
 72
     5
  1
AXD4000UR0203A
  7
simplex
 73
     1
 44
1.0
1001
ACAD
1000
ACAD_MTEXT_DEFINED_HEIGHT_BEGIN
1070
    46
1040
0.0
1000
ACAD_MTEXT_DEFINED_HEIGHT_END
1000
MTEXTBEGIN
1070
    73
1070
     1
1070
    44
1040
1.0
1070
    74
1070
     0
1000
MTEXTEND
  0
DIMENSION
  5
59AF1
330
1F
100
AcDbEntity
  8
2
100
AcDbDimension
  2
*D82
 10
68.31259332549575
 20
-25.39999999999999
 30
0.0
 11
68.31259332549575
 21
-2.833333333299982
 31
0.0
 70
   160
  1
%%c<>
 71
     2
 42
50.80000000000001
  3
\M+18352\M+18373\M+1815B - ISO-25
100
AcDbAlignedDimension
 13
50.80000000000001
 23
25.40000000000004
 33
0.0
 14
50.80000000000001
 24
-25.39999999999999
 34
0.0
 50
270.0
100
AcDbRotatedDimension
1001
ACAD
1000
DSTYLE
1002
{
1070
     4
1000
%%c[]"
1070
    40
1040
1.0
1070
    76
1070
     1
1070
   143
1040
0.03937
1070
   170
1070
     1
1070
   171
1070
     3
1070
   173
1070
     1
1070
   271
1070
     8
1070
   285
1070
     4
1070
   344
1005
32F1
1002
}
  0
DIMENSION
  5
59AF2
330
1F
100
AcDbEntity
  8
sk2
100
AcDbDimension
  2
*D83
 10
-20.95190238706346
 20
-22.22499999999997
 30
0.0
 11
-20.95190238706345
 21
0.0000000000000262
 31
0.0
 70
   160
  1
%%c<>
 71
     2
 42
44.44999999999999
  3
\M+18352\M+18373\M+1815B - ISO-25
100
AcDbAlignedDimension
 13
1.5
 23
22.22500000000002
 33
0.0
 14
1.5
 24
-22.22499999999997
 34
0.0
 50
270.0
100
AcDbRotatedDimension
1001
ACAD
1000
DSTYLE
1002
{
1070
     4
1000
%%c[]"
1070
    40
1040
1.0
1070
   143
1040
0.03937
1070
   170
1070
     1
1070
   171
1070
     3
1070
   271
1070
     8
1070
   285
1070
     4
1002
}
  0
DIMENSION
  5
59AF3
330
1F
100
AcDbEntity
  8
2
100
AcDbDimension
  2
*D84
 10
0.0000000000000025
 20
62.15736898637013
 30
0.0
 11
25.40000000000004
 21
62.15736898637013
 31
0.0
 70
   160
 71
     2
 42
50.80000000000001
  3
\M+18352\M+18373\M+1815B - ISO-25
100
AcDbAlignedDimension
 13
50.80000000000001
 23
24.47807506795633
 33
0.0
 14
0.0
 24
20.72499714510005
 34
0.0
 50
180.0
100
AcDbRotatedDimension
1001
ACAD
1000
DSTYLE
1002
{
1070
     4
1000
"
1070
    40
1040
1.0
1070
   143
1040
0.03937
1070
   170
1070
     1
1070
   171
1070
     3
1070
   271
1070
     8
1070
   285
1070
     4
1002
}
  0
DIMENSION
  5
59AF4
330
1F
100
AcDbEntity
  8
sk2
100
AcDbDimension
  2
*D85
 10
18.99999999999996
 20
-40.61172042089996
 30
0.0
 11
38.21666666666667
 21
-40.61172042089996
 31
0.0
 70
   160
 71
     2
 42
18.99999999999997
  3
\M+18352\M+18373\M+1815B - ISO-25
100
AcDbAlignedDimension
 13
0.0
 23
-9.999999999999971
 33
0.0
 14
18.99999999999997
 24
-9.199999999999988
 34
0.0
100
AcDbRotatedDimension
1001
ACAD
1000
DSTYLE
1002
{
1070
     4
1000
"
1070
    40
1040
1.0
1070
   143
1040
0.03937
1070
   170
1070
     1
1070
   171
1070
     3
1070
   271
1070
     8
1070
   285
1070
     4
1002
}
  0
DIMENSION
  5
59AF5
330
1F
100
AcDbEntity
  8
sk2
100
AcDbDimension
  2
*D86
 10
-8.526569969567164
 20
-9.524999999999975
 30
0.0
 11
-8.526569969567162
 21
0.0000000000000005
 31
0.0
 70
   160
  1
%%c<>
 71
     2
 42
19.04999999999995
  3
\M+18352\M+18373\M+1815B - ISO-25
100
AcDbAlignedDimension
 13
1.199999999999988
 23
9.524999999999977
 33
0.0
 14
1.199999999999988
 24
-9.524999999999977
 34
0.0
 50
270.0
100
AcDbRotatedDimension
1001
ACAD
1000
DSTYLE
1002
{
1070
     4
1000
%%c[]"
1070
    40
1040
1.0
1070
   143
1040
0.03937
1070
   170
1070
     1
1070
   171
1070
     3
1070
   271
1070
     8
1070
   285
1070
     4
1002
}
  0
LINE
  5
59AF6
330
1F
100
AcDbEntity
  8
1
100
AcDbLine
 10
35.1457667702
 20
-24.28545294609996
 30
0.0
 11
45.94035841510001
 21
-23.81813372069996
 31
0.0
  0
LINE
  5
59AF7
330
1F
100
AcDbEntity
  8
1
100
AcDbLine
 10
25.88163490350002
 20
-24.28545294609996
 30
0.0
 11
35.1457667702
 21
-24.28545294609996
 31
0.0
  0
LINE
  5
59AF8
330
1F
100
AcDbEntity
  8
1
100
AcDbLine
 10
27.33971949120002
 20
-24.22654757329997
 30
0.0
 11
35.1457667702
 21
-24.22654759069996
 31
0.0
  0
LINE
  5
59AF9
330
1F
100
AcDbEntity
  8
1
100
AcDbLine
 10
1.5
 20
-22.22499999999997
 30
0.0
 11
14.0
 21
-22.22499999999997
 31
0.0
  0
LINE
  5
59AFA
330
1F
100
AcDbEntity
  8
1
100
AcDbLine
 10
18.67481750390001
 20
-21.98327479119996
 30
0.0
 11
24.17153418690003
 21
-23.98391604999997
 31
0.0
  0
LINE
  5
59AFB
330
1F
100
AcDbEntity
  8
1
100
AcDbLine
 10
47.240735166
 20
-22.38219279699996
 30
0.0
 11
48.7140037602
 21
-18.87671924709997
 31
0.0
  0
LINE
  5
59AFC
330
1F
100
AcDbEntity
  8
1
100
AcDbLine
 10
50.69434790850002
 20
-7.456855187499968
 30
0.0
 11
49.95123760339999
 21
-11.30271301499996
 31
0.0
  0
LINE
  5
59AFD
330
1F
100
AcDbEntity
  8
1
100
AcDbLine
 10
50.30593675790001
 20
-10.89040814459997
 30
0.0
 11
50.7976912963
 21
-8.520649901999945
 31
0.0
  0
LINE
  5
59AFE
330
1F
100
AcDbEntity
  8
1
100
AcDbLine
 10
50.28342040280003
 20
-10.98813390729995
 30
0.0
 11
50.06731661590001
 21
-11.84220133289994
 31
0.0
  0
LINE
  5
59AFF
330
1F
100
AcDbEntity
  8
1
100
AcDbLine
 10
0.0
 20
4.470000000000027
 30
0.0
 11
0.5
 21
3.970000000000027
 31
0.0
  0
LINE
  5
59B00
330
1F
100
AcDbEntity
  8
1
100
AcDbLine
 10
50.80000000000001
 20
-7.640215874099965
 30
0.0
 11
50.80000000000001
 21
-8.498744053599949
 31
0.0
  0
LINE
  5
59B01
330
1F
100
AcDbEntity
  8
1
100
AcDbLine
 10
50.80000000000001
 20
-15.26996783429996
 30
0.0
 11
50.80000000000001
 21
-16.12849601379994
 31
0.0
  0
LINE
  5
59B02
330
1F
100
AcDbEntity
  8
1
100
AcDbLine
 10
50.80000000000001
 20
22.91018370850006
 30
0.0
 11
50.80000000000001
 21
24.62754204357299
 31
0.0
  0
LINE
  5
59B03
330
1F
100
AcDbEntity
  8
1
100
AcDbLine
 10
49.87603734539999
 20
-11.15187398309996
 30
0.0
 11
49.87603734539999
 21
-10.97576298739997
 31
0.0
  0
LINE
  5
59B04
330
1F
100
AcDbEntity
  8
1
100
AcDbLine
 10
50.79501149890004
 20
-15.22423293159998
 30
0.0
 11
50.06731661594248
 21
-11.84220133289081
 31
0.0
  0
LINE
  5
59B05
330
1F
100
AcDbEntity
  8
1
100
AcDbLine
 10
50.06731661594248
 20
-11.84220133289081
 30
0.0
 11
49.87105049870004
 21
-10.93003577309997
 31
0.0
  0
LINE
  5
59B06
330
1F
100
AcDbEntity
  8
1
100
AcDbLine
 10
50.28342040280003
 20
-13.54355121449996
 30
0.0
 11
50.80000000000001
 21
-16.12849601379994
 31
0.0
  0
LINE
  5
59B07
330
1F
100
AcDbEntity
  8
1
100
AcDbLine
 10
50.28342040280003
 20
-13.54355121449996
 30
0.0
 11
49.87603734539999
 21
-11.15187398309996
 31
0.0
  0
LINE
  5
59B08
330
1F
100
AcDbEntity
  8
1
100
AcDbLine
 10
48.79206629550004
 20
19.4293408139
 30
0.0
 11
48.79206629550004
 21
18.6574947957
 31
0.0
  0
LINE
  5
59B09
330
1F
100
AcDbEntity
  8
1
100
AcDbLine
 10
48.79206629550004
 20
0.0189814101000252
 30
0.0
 11
48.79206629550004
 21
-6.757959859099969
 31
0.0
  0
LINE
  5
59B0A
330
1F
100
AcDbEntity
  8
1
100
AcDbLine
 10
48.79206629550004
 20
-6.757959859099969
 30
0.0
 11
48.79206629550004
 21
-10.17686040869995
 31
0.0
  0
LINE
  5
59B0B
330
1F
100
AcDbEntity
  8
1
100
AcDbLine
 10
48.79206629550004
 20
-15.98736866209996
 30
0.0
 11
48.79206629550004
 21
-18.67647620559995
 31
0.0
  0
LINE
  5
59B0C
330
1F
100
AcDbEntity
  8
1
100
AcDbLine
 10
48.77206255889999
 20
-10.21736367109994
 30
0.0
 11
48.77206255889999
 21
-1.270181581199949
 31
0.0
  0
LINE
  5
59B0D
330
1F
100
AcDbEntity
  8
1
100
AcDbLine
 10
48.76554985150002
 20
-18.74953091239996
 30
0.0
 11
48.76554985150002
 21
-15.98261486529995
 31
0.0
  0
LINE
  5
59B0E
330
1F
100
AcDbEntity
  8
1
100
AcDbLine
 10
48.76554985150002
 20
18.40736146760004
 30
0.0
 11
48.76554985150002
 21
19.386903363
 31
0.0
  0
LINE
  5
59B0F
330
1F
100
AcDbEntity
  8
1
100
AcDbLine
 10
48.10498508420002
 20
-0.9543048932999624
 30
0.0
 11
48.10498508420002
 21
-10.80207727229995
 31
0.0
  0
LINE
  5
59B10
330
1F
100
AcDbEntity
  8
1
100
AcDbLine
 10
47.93363911400001
 20
-10.83155111519994
 30
0.0
 11
47.93363911400001
 21
-0.2444517729999518
 31
0.0
  0
LINE
  5
59B11
330
1F
100
AcDbEntity
  8
1
100
AcDbLine
 10
47.23305009590001
 20
16.93425989650004
 30
0.0
 11
47.23305009590001
 21
9.858430097300008
 31
0.0
  0
LINE
  5
59B12
330
1F
100
AcDbEntity
  8
1
100
AcDbLine
 10
47.23305009590001
 20
-15.70076062129996
 30
0.0
 11
47.23305009590001
 21
-18.77584927179999
 31
0.0
  0
LINE
  5
59B13
330
1F
100
AcDbEntity
  8
1
100
AcDbLine
 10
50.42394644070004
 20
-16.27086544189995
 30
0.0
 11
50.41175178850003
 21
-16.20984386249998
 31
0.0
  0
LINE
  5
59B14
330
1F
100
AcDbEntity
  8
1
100
AcDbLine
 10
44.19737849500001
 20
13.57724488280001
 30
0.0
 11
44.19737849500001
 21
15.11569443860002
 31
0.0
  0
LINE
  5
59B15
330
1F
100
AcDbEntity
  8
1
100
AcDbLine
 10
49.87603734539999
 20
-11.15187398309996
 30
0.0
 11
36.00356578200001
 21
-9.217930703099966
 31
0.0
  0
LINE
  5
59B16
330
1F
100
AcDbEntity
  8
1
100
AcDbLine
 10
33.11959101820003
 20
-12.24639011999997
 30
0.0
 11
34.01278219950001
 21
-12.64460338299997
 31
0.0
  0
LINE
  5
59B17
330
1F
100
AcDbEntity
  8
1
100
AcDbLine
 10
32.23387301520001
 20
-11.76482921239997
 30
0.0
 11
32.81337728970001
 21
-12.09465368689996
 31
0.0
  0
LINE
  5
59B18
330
1F
100
AcDbEntity
  8
1
100
AcDbLine
 10
34.06031154300004
 20
-12.58423975479996
 30
0.0
 11
34.40075019390003
 21
-12.14065425579997
 31
0.0
  0
LINE
  5
59B19
330
1F
100
AcDbEntity
  8
1
100
AcDbLine
 10
34.01278220450001
 20
-12.64460337659997
 30
0.0
 11
34.06031154300004
 21
-12.58423975479996
 31
0.0
  0
LINE
  5
59B1A
330
1F
100
AcDbEntity
  8
1
100
AcDbLine
 10
33.96806447440003
 20
-8.310438964999974
 30
0.0
 11
36.00356578200001
 21
-9.217930703099966
 31
0.0
  0
LINE
  5
59B1B
330
1F
100
AcDbEntity
  8
1
100
AcDbLine
 10
33.15230130290002
 20
-11.35934068109995
 30
0.0
 11
32.81337728970001
 21
-12.09465368689996
 31
0.0
  0
LINE
  5
59B1C
330
1F
100
AcDbEntity
  8
1
100
AcDbLine
 10
34.40075019390003
 20
-12.14065425579997
 30
0.0
 11
36.00356578200001
 21
-9.217930703099966
 31
0.0
  0
LINE
  5
59B1D
330
1F
100
AcDbEntity
  8
1
100
AcDbLine
 10
4.75999999999999
 20
-3.96999999999997
 30
0.0
 11
0.5
 21
-3.96999999999997
 31
0.0
  0
LINE
  5
59B1E
330
1F
100
AcDbEntity
  8
1
100
AcDbLine
 10
33.15230130290002
 20
-11.35934068109995
 30
0.0
 11
33.22017802560001
 21
-11.10565252319997
 31
0.0
  0
LINE
  5
59B1F
330
1F
100
AcDbEntity
  8
1
100
AcDbLine
 10
33.4293344159
 20
-10.32393388279996
 30
0.0
 11
33.96806447440003
 21
-8.310438964999974
 31
0.0
  0
LINE
  5
59B20
330
1F
100
AcDbEntity
  8
1
100
AcDbLine
 10
50.67834758810002
 20
22.48287519360005
 30
0.0
 11
50.39964982130001
 21
22.01018370900005
 31
0.0
  0
LINE
  5
59B21
330
1F
100
AcDbEntity
  8
1
100
AcDbLine
 10
50.22866230740001
 20
21.72849799780001
 30
0.0
 11
46.63466249260003
 21
15.97658832760003
 31
0.0
  0
LINE
  5
59B22
330
1F
100
AcDbEntity
  8
4
100
AcDbLine
 10
51.79206629550001
 20
0.0000000000000284
 30
0.0
 11
-3.0
 21
0.0000000000000284
 31
0.0
  0
LINE
  5
59B23
330
1F
100
AcDbEntity
  8
1
100
AcDbLine
 10
50.22866230740001
 20
-7.214717279999973
 30
0.0
 11
48.79206629550004
 21
-6.757959859099969
 31
0.0
  0
LINE
  5
59B24
330
1F
100
AcDbEntity
  8
1
100
AcDbLine
 10
33.65367360300002
 20
-7.985959640699974
 30
0.0
 11
33.96806447440003
 21
-8.310438964999974
 31
0.0
  0
LINE
  5
59B25
330
1F
100
AcDbEntity
  8
1
100
AcDbLine
 10
34.06245305690001
 20
-7.834816745699953
 30
0.0
 11
34.2231703022
 21
-8.000691228399972
 31
0.0
  0
LINE
  5
59B26
330
1F
100
AcDbEntity
  8
1
100
AcDbLine
 10
35.1457667702
 20
13.57724526790004
 30
0.0
 11
35.1457667702
 21
-7.786159278599967
 31
0.0
  0
LINE
  5
59B27
330
1F
100
AcDbEntity
  8
1
100
AcDbLine
 10
35.1457667702
 20
-24.22654759069996
 30
0.0
 11
35.1457667702
 21
-24.28545294609996
 31
0.0
  0
LINE
  5
59B28
330
1F
100
AcDbEntity
  8
1
100
AcDbLine
 10
27.33971949120002
 20
-24.22654757329997
 30
0.0
 11
28.53874307910004
 21
-12.35775190669997
 31
0.0
  0
LINE
  5
59B29
330
1F
100
AcDbEntity
  8
1
100
AcDbLine
 10
0.5
 20
3.970000000000027
 30
0.0
 11
4.75999999999999
 21
3.970000000000027
 31
0.0
  0
LINE
  5
59B2A
330
1F
100
AcDbEntity
  8
1
100
AcDbLine
 10
50.67834758810002
 20
-7.447239397799961
 30
0.0
 11
50.39964982130001
 21
-7.289818925499957
 31
0.0
  0
LINE
  5
59B2B
330
1F
100
AcDbEntity
  8
1
100
AcDbLine
 10
28.83163930020001
 20
24.28389981920006
 30
0.0
 11
28.83163930020001
 21
19.27982246450003
 31
0.0
  0
LINE
  5
59B2C
330
1F
100
AcDbEntity
  8
1
100
AcDbLine
 10
28.14942168070004
 20
17.64429642660002
 30
0.0
 11
28.14942168070004
 21
15.92724006750003
 31
0.0
  0
LINE
  5
59B2D
330
1F
100
AcDbEntity
  8
1
100
AcDbLine
 10
49.77048596860001
 20
-10.75964490749996
 30
0.0
 11
48.79206629550004
 21
-9.749828836799963
 31
0.0
  0
LINE
  5
59B2E
330
1F
100
AcDbEntity
  8
1
100
AcDbLine
 10
25.88163490350002
 20
13.66613719030002
 30
0.0
 11
25.88163490350002
 21
-12.15706610929996
 31
0.0
  0
LINE
  5
59B2F
330
1F
100
AcDbEntity
  8
1
100
AcDbLine
 10
25.88163490350002
 20
-24.21883689339998
 30
0.0
 11
25.88163490350002
 21
-24.28545294609996
 31
0.0
  0
LINE
  5
59B30
330
1F
100
AcDbEntity
  8
1
100
AcDbLine
 10
46.34265936900002
 20
15.69467033720004
 30
0.0
 11
45.4494681877
 21
15.17103090870002
 31
0.0
  0
LINE
  5
59B31
330
1F
100
AcDbEntity
  8
1
100
AcDbLine
 10
24.17153418690003
 20
-23.98391604999997
 30
0.0
 11
24.17153418690003
 21
-23.86290512349996
 31
0.0
  0
LINE
  5
59B32
330
1F
100
AcDbEntity
  8
1
100
AcDbLine
 10
24.17153418690003
 20
-11.87654605789995
 30
0.0
 11
24.17153418690003
 21
14.01531702920005
 31
0.0
  0
LINE
  5
59B33
330
1F
100
AcDbEntity
  8
1
100
AcDbLine
 10
45.78143333960002
 20
13.57724351550001
 30
0.0
 11
27.33971949120002
 21
13.57724547560004
 31
0.0
  0
LINE
  5
59B34
330
1F
100
AcDbEntity
  8
1
100
AcDbLine
 10
28.8249957127
 20
19.19333602780003
 30
0.0
 11
29.53687283240001
 21
20.44536449360004
 31
0.0
  0
LINE
  5
59B35
330
1F
100
AcDbEntity
  8
1
100
AcDbLine
 10
28.78170633260001
 20
19.19333602780003
 30
0.0
 11
28.83163930020001
 21
19.27982246450003
 31
0.0
  0
LINE
  5
59B36
330
1F
100
AcDbEntity
  8
1
100
AcDbLine
 10
29.53687283240001
 20
20.44536449360004
 30
0.0
 11
28.83163930020001
 21
19.27982246450003
 31
0.0
  0
LINE
  5
59B37
330
1F
100
AcDbEntity
  8
1
100
AcDbLine
 10
28.2719038479
 20
18.07160494150005
 30
0.0
 11
28.50693951706322
 21
18.45070567660917
 31
0.0
  0
LINE
  5
59B38
330
1F
100
AcDbEntity
  8
1
100
AcDbLine
 10
28.50693951706322
 20
18.45070567660917
 30
0.0
 11
28.56496410630001
 21
18.54429642610002
 31
0.0
  0
LINE
  5
59B39
330
1F
100
AcDbEntity
  8
1
100
AcDbLine
 10
28.7516030429
 20
18.82598213720004
 30
0.0
 11
32.81337728970001
 21
24.57789180750004
 31
0.0
  0
LINE
  5
59B3A
330
1F
100
AcDbEntity
  8
1
100
AcDbLine
 10
30.51847058530004
 20
15.22461291430001
 30
0.0
 11
30.72999292770001
 21
15.22461291430001
 31
0.0
  0
LINE
  5
59B3B
330
1F
100
AcDbEntity
  8
1
100
AcDbLine
 10
30.72999292770001
 20
15.22461291430001
 30
0.0
 11
44.08046167480003
 21
14.86962553080004
 31
0.0
  0
LINE
  5
59B3C
330
1F
100
AcDbEntity
  8
1
100
AcDbLine
 10
18.67481750390001
 20
-21.98327479119996
 30
0.0
 11
18.67481750390001
 21
-19.94894746919996
 31
0.0
  0
LINE
  5
59B3D
330
1F
100
AcDbEntity
  8
1
100
AcDbLine
 10
18.67481750390001
 20
-11.10848619749996
 30
0.0
 11
18.67481750390001
 21
17.97309230680001
 31
0.0
  0
LINE
  5
59B3E
330
1F
100
AcDbEntity
  8
1
100
AcDbLine
 10
28.8249957127
 20
19.19333602780003
 30
0.0
 11
28.78170633260001
 21
19.19333602780003
 31
0.0
  0
LINE
  5
59B3F
330
1F
100
AcDbEntity
  8
1
100
AcDbLine
 10
14.0
 20
-22.22499999999997
 30
0.0
 11
14.0
 21
22.22500000000002
 31
0.0
  0
LINE
  5
59B40
330
1F
100
AcDbEntity
  8
1
100
AcDbLine
 10
0.5
 20
-3.96999999999997
 30
0.0
 11
0.0
 21
-4.46999999999997
 31
0.0
  0
LINE
  5
59B41
330
1F
100
AcDbEntity
  8
1
100
AcDbLine
 10
45.78094145350002
 20
13.57836434490004
 30
0.0
 11
46.6846922652
 21
11.42799300150004
 31
0.0
  0
LINE
  5
59B42
330
1F
100
AcDbEntity
  8
1
100
AcDbLine
 10
33.11959101820003
 20
24.85980979790003
 30
0.0
 11
34.01278219950001
 21
25.38344922640002
 31
0.0
  0
LINE
  5
59B43
330
1F
100
AcDbEntity
  8
1
100
AcDbLine
 10
1.5
 20
22.22500000000002
 30
0.0
 11
14.0
 21
22.22500000000002
 31
0.0
  0
LINE
  5
59B44
330
1F
100
AcDbEntity
  8
1
100
AcDbLine
 10
4.75999999999999
 20
3.970000000000027
 30
0.0
 11
4.75999999999999
 21
-3.96999999999997
 31
0.0
  0
LINE
  5
59B45
330
1F
100
AcDbEntity
  8
1
100
AcDbLine
 10
1.5
 20
-22.22499999999997
 30
0.0
 11
1.5
 21
-3.96999999999997
 31
0.0
  0
LINE
  5
59B46
330
1F
100
AcDbEntity
  8
1
100
AcDbLine
 10
1.5
 20
3.970000000000027
 30
0.0
 11
1.5
 21
22.22500000000002
 31
0.0
  0
LINE
  5
59B47
330
1F
100
AcDbEntity
  8
1
100
AcDbLine
 10
0.0
 20
-20.72499714499998
 30
0.0
 11
0.0
 21
-4.46999999999997
 31
0.0
  0
LINE
  5
59B48
330
1F
100
AcDbEntity
  8
1
100
AcDbLine
 10
0.0
 20
4.470000000000027
 30
0.0
 11
0.0
 21
20.72499714510005
 31
0.0
  0
LINE
  5
59B49
330
1F
100
AcDbEntity
  8
sk3
100
AcDbLine
 10
10.98135912579994
 20
-9.525000186599982
 30
0.0
 11
11.99999990869997
 21
-10.00000019589998
 31
0.0
  0
LINE
  5
59B4A
330
1F
100
AcDbEntity
  8
nocut
100
AcDbLine
 10
48.79206629559999
 20
22.15483566240002
 30
0.0
 11
48.79206629559999
 21
0.0000000000000284
 31
0.0
  0
LINE
  5
59B4B
330
1F
100
AcDbEntity
  8
sk3
100
AcDbLine
 10
1.200000160799959
 20
9.525000160800004
 30
0.0
 11
-0.0000000000000568
 21
10.72500036209999
 31
0.0
  0
LINE
  5
59B4C
330
1F
100
AcDbEntity
  8
sk3
100
AcDbLine
 10
11.99999999999994
 20
-10.0
 30
0.0
 11
18.19999999999999
 21
-10.0
 31
0.0
  0
LINE
  5
59B4D
330
1F
100
AcDbEntity
  8
sk3
100
AcDbLine
 10
1.199999999999988
 20
-9.524999999999977
 30
0.0
 11
10.98135921279993
 21
-9.524999999999977
 31
0.0
  0
LINE
  5
59B4E
330
1F
100
AcDbEntity
  8
sk3
100
AcDbLine
 10
43.73305009599991
 20
13.86406384119998
 30
0.0
 11
43.73305009599991
 21
-13.86406384119999
 31
0.0
  0
LINE
  5
59B4F
330
1F
100
AcDbEntity
  8
sk3
100
AcDbLine
 10
42.73305009599991
 20
8.0
 30
0.0
 11
42.73305009599991
 21
-8.0
 31
0.0
  0
LINE
  5
59B50
330
1F
100
AcDbEntity
  8
sk3
100
AcDbLine
 10
34.40000000000001
 20
-8.0
 30
0.0
 11
42.73305009599991
 21
-8.0
 31
0.0
  0
LINE
  5
59B51
330
1F
100
AcDbEntity
  8
sk3
100
AcDbLine
 10
19.39999999999997
 20
-5.25
 30
0.0
 11
33.49999999999997
 21
-5.25
 31
0.0
  0
LINE
  5
59B52
330
1F
100
AcDbEntity
  8
sk3
100
AcDbLine
 10
47.23305009599991
 20
18.78370791579999
 30
0.0
 11
48.76554985159995
 21
21.4552704569
 31
0.0
  0
LINE
  5
59B53
330
1F
100
AcDbEntity
  8
nocut
100
AcDbLine
 10
48.79206629559999
 20
0.0000000000000284
 30
0.0
 11
0.0
 21
0.0
 31
0.0
  0
LINE
  5
59B54
330
1F
100
AcDbEntity
  8
sk3
100
AcDbLine
 10
33.50000011389997
 20
-5.249999886099999
 30
0.0
 11
34.00000012469994
 21
-5.749999875300034
 31
0.0
  0
LINE
  5
59B55
330
1F
100
AcDbEntity
  8
sk3
100
AcDbLine
 10
33.99999999999997
 20
7.600000000000022
 30
0.0
 11
33.99999999999997
 21
-7.600000000000022
 31
0.0
  0
LINE
  5
59B56
330
1F
100
AcDbEntity
  8
sk3
100
AcDbLine
 10
33.49999999999997
 20
5.25
 30
0.0
 11
33.49999999999997
 21
-5.25
 31
0.0
  0
LINE
  5
59B57
330
1F
100
AcDbEntity
  8
sk3
100
AcDbLine
 10
44.19737849509991
 20
15.14535722459998
 30
0.0
 11
47.23305009599991
 21
18.78370791579999
 31
0.0
  0
LINE
  5
59B58
330
1F
100
AcDbEntity
  8
sk3
100
AcDbLine
 10
42.73305001509993
 20
8.000000080900008
 30
0.0
 11
43.73305000499996
 21
9.000000091000003
 31
0.0
  0
LINE
  5
59B59
330
1F
100
AcDbEntity
  8
sk3
100
AcDbLine
 10
44.19737849509991
 20
-15.14535722459999
 30
0.0
 11
47.23305009599991
 21
-18.7837079157
 31
0.0
  0
LINE
  5
59B5A
330
1F
100
AcDbEntity
  8
sk3
100
AcDbLine
 10
33.50000011389997
 20
5.249999886199979
 30
0.0
 11
34.00000012469994
 21
5.749999875299977
 31
0.0
  0
LINE
  5
59B5B
330
1F
100
AcDbEntity
  8
sk3
100
AcDbLine
 10
19.39999999999997
 20
5.25
 30
0.0
 11
33.49999999999997
 21
5.25
 31
0.0
  0
LINE
  5
59B5C
330
1F
100
AcDbEntity
  8
sk3
100
AcDbLine
 10
42.73305001509993
 20
-8.000000080900008
 30
0.0
 11
43.73305000499996
 21
-9.000000091000011
 31
0.0
  0
LINE
  5
59B5D
330
1F
100
AcDbEntity
  8
sk3
100
AcDbLine
 10
34.40000000000001
 20
8.0
 30
0.0
 11
42.73305009599991
 21
8.0
 31
0.0
  0
LINE
  5
59B5E
330
1F
100
AcDbEntity
  8
sk3
100
AcDbLine
 10
47.23305009599991
 20
-18.7837079157
 30
0.0
 11
48.76554985159995
 21
-21.45527045680001
 31
0.0
  0
LINE
  5
59B5F
330
1F
100
AcDbEntity
  8
sk3
100
AcDbLine
 10
1.199999999999988
 20
9.524999999999977
 30
0.0
 11
10.98135921279993
 21
9.524999999999977
 31
0.0
  0
LINE
  5
59B60
330
1F
100
AcDbEntity
  8
sk3
100
AcDbLine
 10
11.99999999999994
 20
10.0
 30
0.0
 11
18.19999999999999
 21
10.0
 31
0.0
  0
LINE
  5
59B61
330
1F
100
AcDbEntity
  8
sk3
100
AcDbLine
 10
18.99999999999994
 20
9.199999999999988
 30
0.0
 11
18.99999999999994
 21
-9.199999999999988
 31
0.0
  0
LINE
  5
59B62
330
1F
100
AcDbEntity
  8
sk3
100
AcDbLine
 10
1.200000160799959
 20
-9.525000160800004
 30
0.0
 11
-0.0000000000000568
 21
-10.72500036209999
 31
0.0
  0
LINE
  5
59B63
330
1F
100
AcDbEntity
  8
sk3
100
AcDbLine
 10
10.98135912579994
 20
9.525000186599982
 30
0.0
 11
11.99999990869997
 21
10.00000019589998
 31
0.0
  0
LINE
  5
59B64
330
1F
100
AcDbEntity
  8
sk3
100
AcDbLine
 10
11.99999999999994
 20
10.0
 30
0.0
 11
11.99999999999994
 21
-10.0
 31
0.0
  0
LINE
  5
59B65
330
1F
100
AcDbEntity
  8
sk3
100
AcDbLine
 10
10.98135921279993
 20
9.524999999999977
 30
0.0
 11
10.98135921279993
 21
-9.524999999999977
 31
0.0
  0
LINE
  5
59B66
330
1F
100
AcDbEntity
  8
nocut
100
AcDbLine
 10
1.5
 20
22.22500000000005
 30
0.0
 11
14.0
 21
22.22500000000005
 31
0.0
  0
LINE
  5
59B67
330
1F
100
AcDbEntity
  8
nocut
100
AcDbLine
 10
25.88163490360003
 20
24.28545294610004
 30
0.0
 11
35.14576677030002
 21
24.28545294610004
 31
0.0
  0
LINE
  5
59B68
330
1F
100
AcDbEntity
  8
nocut
100
AcDbLine
 10
35.14576677030002
 20
24.28545294610004
 30
0.0
 11
47.93363911410003
 21
23.73184065630001
 31
0.0
  0
LINE
  5
59B69
330
1F
100
AcDbEntity
  8
nocut
100
AcDbLine
 10
18.67481750399997
 20
21.98327479130004
 30
0.0
 11
24.17153418700002
 21
23.98391605010002
 31
0.0
  0
LINE
  5
59B6A
330
1F
100
AcDbEntity
  8
nocut
100
AcDbLine
 10
48.10498508430001
 20
23.61921350640003
 30
0.0
 11
48.772062559
 21
22.24202135600004
 31
0.0
  0
LINE
  5
59B6B
330
1F
100
AcDbEntity
  8
sk3
100
AcDbLine
 10
1.199999999999988
 20
9.524999999999977
 30
0.0
 11
1.200000321599986
 21
3.970000000000027
 31
0.0
  0
LINE
  5
59B6C
330
1F
100
AcDbEntity
  8
sk3
100
AcDbLine
 10
1.200000321599986
 20
-3.96999999999997
 30
0.0
 11
1.199999999999988
 21
-9.524999999999977
 31
0.0
  0
LINE
  5
59B6D
330
1F
100
AcDbEntity
  8
nocut
100
AcDbLine
 10
0.0
 20
0.0000000000000284
 30
0.0
 11
0.0
 21
20.72499714509999
 31
0.0
  0
LINE
  5
59B6E
330
1F
100
AcDbEntity
  8
cut
100
AcDbLine
 10
50.79999999999998
 20
22.69581272380012
 30
0.0
 11
50.79999999999998
 21
24.62721747000009
 31
0.0
  0
LINE
  5
59B6F
330
1F
100
AcDbEntity
  8
cut
100
AcDbLine
 10
46.65652873479999
 20
15.40839776480012
 30
0.0
 11
50.79999999999998
 21
22.69581272380012
 31
0.0
  0
LINE
  5
59B70
330
1F
100
AcDbEntity
  8
cut
100
AcDbLine
 10
28.14942168069999
 20
15.92723940350007
 30
0.0
 11
28.14942168069999
 21
17.8586441497001
 31
0.0
  0
LINE
  5
59B71
330
1F
100
AcDbEntity
  8
cut
100
AcDbLine
 10
46.53291596069999
 20
15.33592893200014
 30
0.0
 11
46.65652873479999
 21
15.40839776480012
 31
0.0
  0
LINE
  5
59B72
330
1F
100
AcDbEntity
  8
cut
100
AcDbLine
 10
32.29289294589998
 20
25.14605910870009
 30
0.0
 11
28.14942168069999
 21
17.8586441497001
 31
0.0
  0
LINE
  5
59B73
330
1F
100
AcDbEntity
  8
cut
100
AcDbLine
 10
46.53291596069999
 20
15.33592893200014
 30
0.0
 11
28.5392058624
 21
15.52727244960007
 31
0.0
  0
LINE
  5
59B74
330
1F
100
AcDbEntity
  8
cut
100
AcDbLine
 10
32.41650571999997
 20
25.21852794150007
 30
0.0
 11
32.29289294589998
 21
25.14605910870009
 31
0.0
  0
LINE
  5
59B75
330
1F
100
AcDbEntity
  8
cut
100
AcDbLine
 10
32.41650571999997
 20
25.21852794150007
 30
0.0
 11
50.41021581839999
 21
25.02718442380015
 31
0.0
  0
ARC
  5
59B76
330
1F
100
AcDbEntity
  8
1
100
AcDbCircle
 10
43.47526657620003
 20
-15.39262927729996
 30
0.0
 40
6.9094987271
100
AcDbArc
 50
2.366494781700406
 51
3.38532402389968
  0
ARC
  5
59B77
330
1F
100
AcDbEntity
  8
1
100
AcDbCircle
 10
44.09423167790001
 20
-15.46472222739996
 30
0.0
 40
6.294794847899999
100
AcDbArc
 50
2.135741945300198
 51
3.25479763329991
  0
ARC
  5
59B78
330
1F
100
AcDbEntity
  8
1
100
AcDbCircle
 10
52.70417143120003
 20
-15.89121491299997
 30
0.0
 40
6.1850014561
100
AcDbArc
 50
207.8656713673998
 51
209.7639016998007
  0
ARC
  5
59B79
330
1F
100
AcDbEntity
  8
1
100
AcDbCircle
 10
43.14499198060002
 20
-16.54544053739997
 30
0.0
 40
6.037274646799999
100
AcDbArc
 50
337.2200641158999
 51
338.5874719920008
  0
ARC
  5
59B7A
330
1F
100
AcDbEntity
  8
1
100
AcDbCircle
 10
44.77182071620001
 20
-15.53942362709995
 30
0.0
 40
5.621348188899997
100
AcDbArc
 50
1.900593278299624
 51
3.154042734999677
  0
ARC
  5
59B7B
330
1F
100
AcDbEntity
  8
1
100
AcDbCircle
 10
45.47359499300003
 20
-15.61764630079997
 30
0.0
 40
4.923599655
100
AcDbArc
 50
1.650413938799959
 51
3.081298089600345
  0
ARC
  5
59B7C
330
1F
100
AcDbEntity
  8
1
100
AcDbCircle
 10
46.14819907160003
 20
-15.70188911899995
 30
0.0
 40
4.252964637399998
100
AcDbArc
 50
1.391107370199773
 51
3.046749426200156
  0
ARC
  5
59B7D
330
1F
100
AcDbEntity
  8
1
100
AcDbCircle
 10
48.04671317140003
 20
-10.42133121449996
 30
0.0
 40
2.307406451299998
100
AcDbArc
 50
345.7800498090009
 51
348.2704764535002
  0
ARC
  5
59B7E
330
1F
100
AcDbEntity
  8
1
100
AcDbCircle
 10
50.35389929120004
 20
-16.80949960619994
 30
0.0
 40
0.5431697397000002
100
AcDbArc
 50
82.59050329730007
 51
84.41192958499996
  0
ARC
  5
59B7F
330
1F
100
AcDbEntity
  8
1
100
AcDbCircle
 10
50.70222149180001
 20
-16.12856092889995
 30
0.0
 40
0.0977780914
100
AcDbArc
 50
341.544298903
 51
0.0393044008998276
  0
ARC
  5
59B80
330
1F
100
AcDbEntity
  8
1
100
AcDbCircle
 10
35.36386458800004
 20
-23.30209294669996
 30
0.0
 40
48.26231644069999
100
AcDbArc
 50
109.9939876893992
 51
110.2305600143008
  0
ARC
  5
59B81
330
1F
100
AcDbEntity
  8
1
100
AcDbCircle
 10
41.45372015450002
 20
-15.07250598859994
 30
0.0
 40
8.908399279099999
100
AcDbArc
 50
3.711798331199712
 51
4.295446409399949
  0
ARC
  5
59B82
330
1F
100
AcDbEntity
  8
1
100
AcDbCircle
 10
41.65605042359999
 20
-15.13498158669998
 30
0.0
 40
8.710864672999999
100
AcDbArc
 50
3.405094431199719
 51
4.208031182500117
  0
ARC
  5
59B83
330
1F
100
AcDbEntity
  8
1
100
AcDbCircle
 10
42.00833048679996
 20
-15.19460242319996
 30
0.0
 40
8.363134584199999
100
AcDbArc
 50
3.118045444099979
 51
3.956192036500108
  0
ARC
  5
59B84
330
1F
100
AcDbEntity
  8
1
100
AcDbCircle
 10
42.42889793769998
 20
-15.25747024469996
 30
0.0
 40
7.947070905399999
100
AcDbArc
 50
2.851949611700382
 51
3.735571652400024
  0
ARC
  5
59B85
330
1F
100
AcDbEntity
  8
1
100
AcDbCircle
 10
42.91890310370004
 20
-15.32348696079995
 30
0.0
 40
7.461503944299999
100
AcDbArc
 50
2.603014412899683
 51
3.54548456300026
  0
ARC
  5
59B86
330
1F
100
AcDbEntity
  8
1
100
AcDbCircle
 10
25.88163490350002
 20
-19.28545294609995
 30
0.0
 40
5.0
100
AcDbArc
 50
249.9999999999999
 51
270.0
  0
ARC
  5
59B87
330
1F
100
AcDbEntity
  8
1
100
AcDbCircle
 10
25.9257327288
 20
-19.72084654399995
 30
0.0
 40
4.4982065094
100
AcDbArc
 50
247.0469114934994
 51
269.4382961863992
  0
ARC
  5
59B88
330
1F
100
AcDbEntity
  8
1
100
AcDbCircle
 10
34.70933109040001
 20
-10.78062305499997
 30
0.0
 40
3.026101355099998
100
AcDbArc
 50
81.70766924340069
 51
89.01946144119948
  0
ARC
  5
59B89
330
1F
100
AcDbEntity
  8
1
100
AcDbCircle
 10
19.61882272660003
 20
-12.98752328659998
 30
0.0
 40
2.102837664399999
100
AcDbArc
 50
116.6743931889992
 51
143.814814535699
  0
ARC
  5
59B8A
330
1F
100
AcDbEntity
  8
1
100
AcDbCircle
 10
36.34844536650002
 20
-9.111547375799972
 30
0.0
 40
0.3011339401
100
AcDbArc
 50
12.38365736440028
 51
14.38244380740029
  0
ARC
  5
59B8B
330
1F
100
AcDbEntity
  8
1
100
AcDbCircle
 10
49.47557635010003
 20
0.5136492780000311
 30
0.0
 40
5.1710921652
100
AcDbArc
 50
168.5055267990003
 51
171.6251507814999
  0
ARC
  5
59B8C
330
1F
100
AcDbEntity
  8
1
100
AcDbCircle
 10
50.50697510190002
 20
-7.750516778399969
 30
0.0
 40
0.348347095
100
AcDbArc
 50
57.45980715790031
 51
60.53057794719983
  0
ARC
  5
59B8D
330
1F
100
AcDbEntity
  8
1
100
AcDbCircle
 10
50.61463469130001
 20
-7.581893201099944
 30
0.0
 40
0.1482858788
100
AcDbArc
 50
51.41673430200063
 51
57.48200602250055
  0
ARC
  5
59B8E
330
1F
100
AcDbEntity
  8
1
100
AcDbCircle
 10
49.99069791600001
 20
22.90979025170006
 30
0.0
 40
0.8093010352
100
AcDbArc
 50
332.2794321900991
 51
0.0278554146000002
  0
ARC
  5
59B8F
330
1F
100
AcDbEntity
  8
1
100
AcDbCircle
 10
50.14244828720001
 20
22.83032457940004
 30
0.0
 40
0.6380041843999999
100
AcDbArc
 50
329.8873592655003
 51
332.257575329101
  0
ARC
  5
59B90
330
1F
100
AcDbEntity
  8
1
100
AcDbCircle
 10
48.58930204900002
 20
11.85617727720002
 30
0.0
 40
5.4693184795
100
AcDbArc
 50
142.7901571469989
 51
143.4186128049989
  0
ARC
  5
59B91
330
1F
100
AcDbEntity
  8
1
100
AcDbCircle
 10
44.28712212539998
 20
17.41595146800002
 30
0.0
 40
2.5546984793
100
AcDbArc
 50
265.3600301598002
 51
265.8555415282003
  0
ARC
  5
59B92
330
1F
100
AcDbEntity
  8
1
100
AcDbCircle
 10
43.96742348059999
 20
18.89412279760005
 30
0.0
 40
0.453783189
100
AcDbArc
 50
74.53683651959924
 51
89.94988209199965
  0
ARC
  5
59B93
330
1F
100
AcDbEntity
  8
1
100
AcDbCircle
 10
46.88859174910001
 20
24.71737507150005
 30
0.0
 40
4.3994589467
100
AcDbArc
 50
329.4757273125002
 51
329.8885240542004
  0
ARC
  5
59B94
330
1F
100
AcDbEntity
  8
1
100
AcDbCircle
 10
43.96742348059999
 20
21.15358724090004
 30
0.0
 40
0.453783189
100
AcDbArc
 50
270.0501179080003
 51
285.4631634802994
  0
ARC
  5
59B95
330
1F
100
AcDbEntity
  8
1
100
AcDbCircle
 10
44.14459475539999
 20
19.53465671970004
 30
0.0
 40
0.2108019198
100
AcDbArc
 50
254.5423636242995
 51
269.9530625505992
  0
ARC
  5
59B96
330
1F
100
AcDbEntity
  8
1
100
AcDbCircle
 10
44.14459475539999
 20
20.51305331880005
 30
0.0
 40
0.2108019198
100
AcDbArc
 50
90.04693744940073
 51
105.4576363758001
  0
ARC
  5
59B97
330
1F
100
AcDbEntity
  8
1
100
AcDbCircle
 10
42.10494875580002
 20
1.84771327750002
 30
0.0
 40
5.4175141224
100
AcDbArc
 50
348.4738191570003
 51
351.5530723245004
  0
ARC
  5
59B98
330
1F
100
AcDbEntity
  8
1
100
AcDbCircle
 10
34.48145385210003
 20
1.937152447400023
 30
0.0
 40
5.355212385799998
100
AcDbArc
 50
348.4740814734002
 51
351.5708274180003
  0
ARC
  5
59B99
330
1F
100
AcDbEntity
  8
1
100
AcDbCircle
 10
41.73772681879998
 20
0.6219909280000309
 30
0.0
 40
5.117567018099999
100
AcDbArc
 50
168.5052286552001
 51
171.6414976251996
  0
ARC
  5
59B9A
330
1F
100
AcDbEntity
  8
1
100
AcDbCircle
 10
33.83304392860001
 20
-8.177509720799974
 30
0.0
 40
0.4282519429000002
100
AcDbArc
 50
44.12132875099919
 51
54.34373259089941
  0
ARC
  5
59B9B
330
1F
100
AcDbEntity
  8
1
100
AcDbCircle
 10
28.15501143520001
 20
7.487966159500047
 30
0.0
 40
8.0482165235
100
AcDbArc
 50
87.24018597739945
 51
87.36171190060034
  0
ARC
  5
59B9C
330
1F
100
AcDbEntity
  8
1
100
AcDbCircle
 10
42.6702847326
 20
18.89412279760005
 30
0.0
 40
0.453783189
100
AcDbArc
 50
90.05011790800038
 51
105.4631634802994
  0
ARC
  5
59B9D
330
1F
100
AcDbEntity
  8
1
100
AcDbCircle
 10
33.28361251660004
 20
15.62049510200003
 30
0.0
 40
5.5510590884
100
AcDbArc
 50
144.7282580927006
 51
148.2165325690994
  0
ARC
  5
59B9E
330
1F
100
AcDbEntity
  8
1
100
AcDbCircle
 10
42.6702847326
 20
21.15358724090004
 30
0.0
 40
0.453783189
100
AcDbArc
 50
254.5368365195992
 51
269.9498820919996
  0
ARC
  5
59B9F
330
1F
100
AcDbEntity
  8
1
100
AcDbCircle
 10
42.49311345780003
 20
20.51305331880005
 30
0.0
 40
0.2108019198
100
AcDbArc
 50
74.54236362429954
 51
89.95306255059928
  0
ARC
  5
59BA0
330
1F
100
AcDbEntity
  8
1
100
AcDbCircle
 10
42.49311345780003
 20
19.53465671970004
 30
0.0
 40
0.2108019198
100
AcDbArc
 50
270.0469374494007
 51
285.4576363757005
  0
ARC
  5
59BA1
330
1F
100
AcDbEntity
  8
1
100
AcDbCircle
 10
35.17420854810001
 20
21.38789516100005
 30
0.0
 40
0.453783189
100
AcDbArc
 50
254.5368365195992
 51
269.9498820919996
  0
ARC
  5
59BA2
330
1F
100
AcDbEntity
  8
1
100
AcDbCircle
 10
35.17420854810001
 20
19.12843071770004
 30
0.0
 40
0.453783189
100
AcDbArc
 50
90.05011790800038
 51
105.4631634802994
  0
ARC
  5
59BA3
330
1F
100
AcDbEntity
  8
1
100
AcDbCircle
 10
36.47134729620004
 20
19.12843071770004
 30
0.0
 40
0.453783189
100
AcDbArc
 50
74.53683651959924
 51
89.94988209199965
  0
ARC
  5
59BA4
330
1F
100
AcDbEntity
  8
1
100
AcDbCircle
 10
36.47134729620004
 20
21.38789516100005
 30
0.0
 40
0.453783189
100
AcDbArc
 50
270.0501179080003
 51
285.4631634804008
  0
ARC
  5
59BA5
330
1F
100
AcDbEntity
  8
1
100
AcDbCircle
 10
34.99703727330001
 20
20.74736123890003
 30
0.0
 40
0.2108019198
100
AcDbArc
 50
74.54236362429954
 51
89.95306255059928
  0
ARC
  5
59BA6
330
1F
100
AcDbEntity
  8
1
100
AcDbCircle
 10
34.99703727330001
 20
19.76896463980002
 30
0.0
 40
0.2108019198
100
AcDbArc
 50
270.0469374494007
 51
285.4576363757005
  0
ARC
  5
59BA7
330
1F
100
AcDbEntity
  8
1
100
AcDbCircle
 10
36.64851857100001
 20
19.76896463980002
 30
0.0
 40
0.2108019198
100
AcDbArc
 50
254.5423636241998
 51
269.9530625505992
  0
ARC
  5
59BA8
330
1F
100
AcDbEntity
  8
1
100
AcDbCircle
 10
36.64851857100001
 20
20.74736123890003
 30
0.0
 40
0.2108019198
100
AcDbArc
 50
90.04693744940073
 51
105.4576363757004
  0
ARC
  5
59BA9
330
1F
100
AcDbEntity
  8
1
100
AcDbCircle
 10
27.33873882870003
 20
25.56403541630004
 30
0.0
 40
11.9867899809
100
AcDbArc
 50
263.0179062666002
 51
270.0046874786998
  0
ARC
  5
59BAA
330
1F
100
AcDbEntity
  8
1
100
AcDbCircle
 10
25.88144652170001
 20
19.29222511350005
 30
0.0
 40
4.9932255195
100
AcDbArc
 50
92.17068737179928
 51
110.0259950744
  0
ARC
  5
59BAB
330
1F
100
AcDbEntity
  8
1
100
AcDbCircle
 10
25.88135027359999
 20
19.29267012070001
 30
0.0
 40
4.9927771866
100
AcDbArc
 50
89.99673366350039
 51
92.16977707510004
  0
ARC
  5
59BAC
330
1F
100
AcDbEntity
  8
1
100
AcDbCircle
 10
30.26454749330003
 20
17.07719911950004
 30
0.0
 40
2.231705226899999
100
AcDbArc
 50
158.0652593418996
 51
198.5975364317996
  0
ARC
  5
59BAD
330
1F
100
AcDbEntity
  8
1
100
AcDbCircle
 10
30.20282602683159
 20
17.10463953598006
 30
0.0
 40
2.164078206317356
100
AcDbArc
 50
154.2449021038008
 51
154.8983860564162
  0
ARC
  5
59BAE
330
1F
100
AcDbEntity
  8
1
100
AcDbCircle
 10
30.24703496420003
 20
17.08347310630002
 30
0.0
 40
2.213092765299998
100
AcDbArc
 50
153.4201753358999
 51
154.2486860657998
  0
ARC
  5
59BAF
330
1F
100
AcDbEntity
  8
1
100
AcDbCircle
 10
30.24067791170001
 20
17.08681188150004
 30
0.0
 40
2.205913666799999
100
AcDbArc
 50
141.8086502390611
 51
153.4238500938001
  0
ARC
  5
59BB0
330
1F
100
AcDbEntity
  8
1
100
AcDbCircle
 10
29.38348848440003
 20
17.07723639970003
 30
0.0
 40
2.200004407799998
100
AcDbArc
 50
105.8748355854
 51
187.8878307953
  0
ARC
  5
59BB1
330
1F
100
AcDbEntity
  8
1
100
AcDbCircle
 10
29.29005928460004
 20
17.02357754580004
 30
0.0
 40
2.146337732899997
100
AcDbArc
 50
263.0505012825997
 51
270.0330654960999
  0
ARC
  5
59BB2
330
1F
100
AcDbEntity
  8
1
100
AcDbCircle
 10
29.84876076500001
 20
17.09385240320002
 30
0.0
 40
1.855391539
100
AcDbArc
 50
148.1984298175006
 51
149.1873848998992
  0
ARC
  5
59BB3
330
1F
100
AcDbEntity
  8
1
100
AcDbCircle
 10
28.95872591520001
 20
17.64468988340002
 30
0.0
 40
0.8093010352
100
AcDbArc
 50
152.2794321901998
 51
180.0278554144998
  0
ARC
  5
59BB4
330
1F
100
AcDbEntity
  8
1
100
AcDbCircle
 10
28.6768897337266
 20
17.7926493133077
 30
0.0
 40
0.4909873505144049
100
AcDbArc
 50
149.1745384126297
 51
152.0605738809711
  0
ARC
  5
59BB5
330
1F
100
AcDbEntity
  8
1
100
AcDbCircle
 10
28.6768897337266
 20
17.7926493133077
 30
0.0
 40
0.4909873505144049
100
AcDbArc
 50
152.0605738809711
 51
152.2652843156231
  0
ARC
  5
59BB6
330
1F
100
AcDbEntity
  8
1
100
AcDbCircle
 10
28.55558432980004
 20
15.92737887040005
 30
0.0
 40
0.4061614061000001
100
AcDbArc
 50
180.0195804418003
 51
189.0255148206
  0
ARC
  5
59BB7
330
1F
100
AcDbEntity
  8
1
100
AcDbCircle
 10
16.62269664390004
 20
-27.62143051589996
 30
0.0
 40
6.0
100
AcDbArc
 50
69.99999999999996
 51
115.9200217027001
  0
ARC
  5
59BB8
330
1F
100
AcDbEntity
  8
1
100
AcDbCircle
 10
1.5
 20
20.72500000000002
 30
0.0
 40
1.5
100
AcDbArc
 50
90.0
 51
180.0
  0
ARC
  5
59BB9
330
1F
100
AcDbEntity
  8
1
100
AcDbCircle
 10
1.5
 20
-20.72499999999996
 30
0.0
 40
1.5
100
AcDbArc
 50
180.0
 51
270.0
  0
ARC
  5
59BBA
330
1F
100
AcDbEntity
  8
1
100
AcDbCircle
 10
105.1713835829
 20
249.4118814694999
 30
0.0
 40
271.5434566009
100
AcDbArc
 50
255.2132435005999
 51
255.3314394702997
  0
ARC
  5
59BBB
330
1F
100
AcDbEntity
  8
1
100
AcDbCircle
 10
104.4631481868
 20
248.5190201484
 30
0.0
 40
270.5007415371
100
AcDbArc
 50
255.4286736938004
 51
255.5494515843005
  0
ARC
  5
59BBC
330
1F
100
AcDbEntity
  8
1
100
AcDbCircle
 10
103.6956430165
 20
247.3627705676001
 30
0.0
 40
269.1899292431001
100
AcDbArc
 50
255.6462298653004
 51
255.7697896145993
  0
ARC
  5
59BBD
330
1F
100
AcDbEntity
  8
1
100
AcDbCircle
 10
103.0615182089
 20
246.6971103286001
 30
0.0
 40
268.389193581
100
AcDbArc
 50
255.8660768380004
 51
255.9922675925003
  0
ARC
  5
59BBE
330
1F
100
AcDbEntity
  8
1
100
AcDbCircle
 10
102.4821276903
 20
246.2212342603
 30
0.0
 40
267.7875985165
100
AcDbArc
 50
256.0879021167006
 51
256.2167088256003
  0
ARC
  5
59BBF
330
1F
100
AcDbEntity
  8
1
100
AcDbCircle
 10
101.8648890539
 20
245.5638824642
 30
0.0
 40
267.0024859556
100
AcDbArc
 50
256.3117396408999
 51
256.4433366842006
  0
ARC
  5
59BC0
330
1F
100
AcDbEntity
  8
1
100
AcDbCircle
 10
101.3771233854
 20
245.4129988314
 30
0.0
 40
266.741831458
100
AcDbArc
 50
256.5375920102006
 51
256.6718082777993
  0
ARC
  5
59BC1
330
1F
100
AcDbEntity
  8
1
100
AcDbCircle
 10
100.7272403652
 20
244.5532345863
 30
0.0
 40
265.7557625591
100
AcDbArc
 50
256.7654153216007
 51
256.9027164777994
  0
ARC
  5
59BC2
330
1F
100
AcDbEntity
  8
1
100
AcDbCircle
 10
99.67167262040002
 20
243.7873087291001
 30
0.0
 40
264.7729863146
100
AcDbArc
 50
257.2281426055998
 51
257.3714455108004
  0
ARC
  5
59BC3
330
1F
100
AcDbEntity
  8
1
100
AcDbCircle
 10
100.0518490763
 20
243.541785714
 30
0.0
 40
264.6179248044
100
AcDbArc
 50
256.9955230361999
 51
257.1361100813995
  0
ARC
  5
59BC4
330
1F
100
AcDbEntity
  8
1
100
AcDbCircle
 10
99.0996853555
 20
243.1549384596
 30
0.0
 40
264.0311949422
100
AcDbArc
 50
257.4625643401004
 51
257.6091884191008
  0
ARC
  5
59BC5
330
1F
100
AcDbEntity
  8
1
100
AcDbCircle
 10
98.30812309730006
 20
241.4785985666001
 30
0.0
 40
262.2243760275
100
AcDbArc
 50
257.6995197548999
 51
257.8502282615005
  0
ARC
  5
59BC6
330
1F
100
AcDbEntity
  8
1
100
AcDbCircle
 10
97.56963820900001
 20
239.9827943908
 30
0.0
 40
260.6069673751
100
AcDbArc
 50
257.9397367504999
 51
258.0946294355991
  0
ARC
  5
59BC7
330
1F
100
AcDbEntity
  8
1
100
AcDbCircle
 10
96.99844475120002
 20
239.2211886481001
 30
0.0
 40
259.7442199252
100
AcDbArc
 50
258.1832586378001
 51
258.3420953694002
  0
ARC
  5
59BC8
330
1F
100
AcDbEntity
  8
1
100
AcDbCircle
 10
96.42117102840003
 20
238.3818195787
 30
0.0
 40
258.8058199062
100
AcDbArc
 50
258.4297099240999
 51
258.5927506263005
  0
ARC
  5
59BC9
330
1F
100
AcDbEntity
  8
1
100
AcDbCircle
 10
95.66244773120002
 20
236.5891393506001
 30
0.0
 40
256.8987854511
100
AcDbArc
 50
258.6795482320008
 51
258.8476749246997
  0
ARC
  5
59BCA
330
1F
100
AcDbEntity
  8
1
100
AcDbCircle
 10
95.03289207680001
 20
235.3654500871
 30
0.0
 40
255.5767203415
100
AcDbArc
 50
258.9330847873999
 51
259.1062201975999
  0
ARC
  5
59BCB
330
1F
100
AcDbEntity
  8
1
100
AcDbCircle
 10
93.80517463070006
 20
230.9525528334002
 30
0.0
 40
251.0115970435
100
AcDbArc
 50
259.1910425324006
 51
259.3718589851992
  0
ARC
  5
59BCC
330
1F
100
AcDbEntity
  8
1
100
AcDbCircle
 10
93.18319169430001
 20
229.6034651393
 30
0.0
 40
249.5712015011
100
AcDbArc
 50
259.4550794813007
 51
259.6418458035994
  0
ARC
  5
59BCD
330
1F
100
AcDbEntity
  8
1
100
AcDbCircle
 10
92.77652226450001
 20
229.3646895857
 30
0.0
 40
249.2634536017
100
AcDbArc
 50
259.7239312389005
 51
259.9162191584007
  0
ARC
  5
59BCE
330
1F
100
AcDbEntity
  8
1
100
AcDbCircle
 10
92.0122080421
 20
227.0308659782
 30
0.0
 40
246.8320983506
100
AcDbArc
 50
259.9960428846995
 51
260.1959934290004
  0
ARC
  5
59BCF
330
1F
100
AcDbEntity
  8
1
100
AcDbCircle
 10
27.33065168350001
 20
111.9240171854
 30
0.0
 40
136.1505650607
100
AcDbArc
 50
269.3902036816007
 51
270.0038159748004
  0
ARC
  5
59BD0
330
1F
100
AcDbEntity
  8
1
100
AcDbCircle
 10
39.49918143050002
 20
28.43419505780003
 30
0.0
 40
12.6525939217
100
AcDbArc
 50
327.995494200099
 51
329.4877297936003
  0
ARC
  5
59BD1
330
1F
100
AcDbEntity
  8
1
100
AcDbCircle
 10
16.62269664390004
 20
27.62143051600006
 30
0.0
 40
6.0
100
AcDbArc
 50
244.0799782972999
 51
290.0
  0
ARC
  5
59BD2
330
1F
100
AcDbEntity
  8
sk3
100
AcDbCircle
 10
45.73305009599994
 20
-13.86406384119999
 30
0.0
 40
2.0
100
AcDbArc
 50
180.0
 51
219.840058588201
  0
ARC
  5
59BD3
330
1F
100
AcDbEntity
  8
sk3
100
AcDbCircle
 10
34.40000000000001
 20
-7.600000000000022
 30
0.0
 40
0.4
100
AcDbArc
 50
180.0
 51
270.0
  0
ARC
  5
59BD4
330
1F
100
AcDbEntity
  8
sk3
100
AcDbCircle
 10
48.59206629559995
 20
-21.55478656510002
 30
0.0
 40
0.2
100
AcDbArc
 50
0.0
 51
29.84005858819977
  0
ARC
  5
59BD5
330
1F
100
AcDbEntity
  8
sk3
100
AcDbCircle
 10
18.19999999999999
 20
-9.199999999999988
 30
0.0
 40
0.8
100
AcDbArc
 50
270.0
 51
0.0
  0
ARC
  5
59BD6
330
1F
100
AcDbEntity
  8
sk3
100
AcDbCircle
 10
19.39999999999997
 20
-5.649999999999977
 30
0.0
 40
0.4
100
AcDbArc
 50
90.0
 51
180.0
  0
ARC
  5
59BD7
330
1F
100
AcDbEntity
  8
nocut
100
AcDbCircle
 10
25.88163490360003
 20
19.28545294610003
 30
0.0
 40
5.0
100
AcDbArc
 50
90.0
 51
110.0
  0
ARC
  5
59BD8
330
1F
100
AcDbEntity
  8
sk3
100
AcDbCircle
 10
45.73305009599994
 20
13.86406384119998
 30
0.0
 40
2.0
100
AcDbArc
 50
140.159941411799
 51
180.0
  0
ARC
  5
59BD9
330
1F
100
AcDbEntity
  8
sk3
100
AcDbCircle
 10
34.40000000000001
 20
7.600000000000022
 30
0.0
 40
0.4
100
AcDbArc
 50
90.0
 51
180.0
  0
ARC
  5
59BDA
330
1F
100
AcDbEntity
  8
sk3
100
AcDbCircle
 10
48.59206629559995
 20
21.55478656509996
 30
0.0
 40
0.2
100
AcDbArc
 50
330.1599414118002
 51
0.0
  0
ARC
  5
59BDB
330
1F
100
AcDbEntity
  8
nocut
100
AcDbCircle
 10
48.5920662956
 20
22.15483566240002
 30
0.0
 40
0.2
100
AcDbArc
 50
0.0
 51
25.84438846090068
  0
ARC
  5
59BDC
330
1F
100
AcDbEntity
  8
nocut
100
AcDbCircle
 10
47.92498882090001
 20
23.53202781280001
 30
0.0
 40
0.2
100
AcDbArc
 50
25.84438846090068
 51
87.52110024079996
  0
ARC
  5
59BDD
330
1F
100
AcDbEntity
  8
nocut
100
AcDbCircle
 10
16.62269664399997
 20
27.62143051600001
 30
0.0
 40
6.0
100
AcDbArc
 50
244.0799782972999
 51
290.0
  0
ARC
  5
59BDE
330
1F
100
AcDbEntity
  8
nocut
100
AcDbCircle
 10
1.5
 20
20.72500000000005
 30
0.0
 40
1.5
100
AcDbArc
 50
90.0
 51
180.0
  0
ARC
  5
59BDF
330
1F
100
AcDbEntity
  8
sk3
100
AcDbCircle
 10
18.19999999999999
 20
9.199999999999988
 30
0.0
 40
0.8
100
AcDbArc
 50
0.0
 51
90.0
  0
ARC
  5
59BE0
330
1F
100
AcDbEntity
  8
sk3
100
AcDbCircle
 10
19.39999999999997
 20
5.649999999999977
 30
0.0
 40
0.4
100
AcDbArc
 50
180.0
 51
270.0
  0
SPLINE
  5
59BE1
330
1F
100
AcDbEntity
  8
1
100
AcDbSpline
210
0.0
220
0.0
230
1.0
 70
     8
 71
     3
 72
    15
 73
    11
 74
     0
 42
0.0000000001
 43
0.0000000001
 40
0.0
 40
0.0
 40
0.0
 40
0.0
 40
0.1259409039
 40
0.2517305122
 40
0.3772639386
 40
0.5024521479999999
 40
0.6272671653000002
 40
0.7517363108000003
 40
0.8759400846
 40
1.0
 40
1.0
 40
1.0
 40
1.0
 10
33.7082953188
 20
20.25816293930004
 30
0.0
 10
33.7082953188
 20
20.11442059410004
 30
0.0
 10
33.7361872134
 20
19.82633384600006
 30
0.0
 10
33.86015743870002
 20
19.41128601350003
 30
0.0
 10
34.06149075760001
 20
19.02852597360004
 30
0.0
 10
34.33254146710002
 20
18.6929646837
 30
0.0
 10
34.6629200806
 20
18.41747425530001
 30
0.0
 10
35.04001624290001
 20
18.21270177780001
 30
0.0
 10
35.44911393420003
 20
18.08656762950004
 30
0.0
 10
35.73327689199999
 20
18.05816293930005
 30
0.0
 10
35.8748723754
 20
18.05816293930005
 30
0.0
  0
SPLINE
  5
59BE2
330
1F
100
AcDbEntity
  8
1
100
AcDbSpline
210
0.0
220
0.0
230
1.0
 70
     8
 71
     3
 72
    13
 73
     9
 74
     0
 42
0.0000000001
 43
0.0000000001
 40
0.0
 40
0.0
 40
0.0
 40
0.0
 40
0.1248583695
 40
0.2500920269
 40
0.5
 40
0.7499079731000001
 40
0.8751416304999999
 40
1.0
 40
1.0
 40
1.0
 40
1.0
 10
36.79806105970005
 20
20.58871204180002
 30
0.0
 10
36.77663257700002
 20
20.56715647570002
 30
0.0
 10
36.73788728820003
 20
20.51957102740005
 30
0.0
 10
36.68056224200001
 20
20.41149602610005
 30
0.0
 10
36.65018211030002
 20
20.25816293930004
 30
0.0
 10
36.68056224200001
 20
20.10482985250002
 30
0.0
 10
36.73788728820003
 20
19.99675485120001
 30
0.0
 10
36.77663257700002
 20
19.949169403
 30
0.0
 10
36.79806105970005
 20
19.92761383690005
 30
0.0
  0
SPLINE
  5
59BE3
330
1F
100
AcDbEntity
  8
1
100
AcDbSpline
210
0.0
220
0.0
230
1.0
 70
     8
 71
     3
 72
    15
 73
    11
 74
     0
 42
0.0000000001
 43
0.0000000001
 40
0.0
 40
0.0
 40
0.0
 40
0.0
 40
0.1250742973
 40
0.2505920446
 40
0.3763383188
 40
0.5019758983
 40
0.6272252878
 40
0.7519302776000001
 40
0.8761234669
 40
1.0
 40
1.0
 40
1.0
 40
1.0
 10
36.79806105970005
 20
20.58871204180002
 30
0.0
 10
36.81290707730003
 20
20.60364610490004
 30
0.0
 10
36.83836089350001
 20
20.63819315020004
 30
0.0
 10
36.85988236550003
 20
20.69870366230003
 30
0.0
 10
36.86320304710003
 20
20.76298054890003
 30
0.0
 10
36.84797638610002
 20
20.82546227640003
 30
0.0
 10
36.81551879060001
 20
20.88078764520002
 30
0.0
 10
36.7685699836
 20
20.92417301280002
 30
0.0
 10
36.71123422950001
 20
20.95182617230002
 30
0.0
 10
36.66920200960002
 20
20.95816762500004
 30
0.0
 10
36.6483458793
 20
20.95816308790003
 30
0.0
  0
SPLINE
  5
59BE4
330
1F
100
AcDbEntity
  8
1
100
AcDbSpline
210
0.0
220
0.0
230
1.0
 70
     8
 71
     3
 72
    11
 73
     7
 74
     0
 42
0.0000000001
 43
0.0000000001
 40
0.0
 40
0.0
 40
0.0
 40
0.0
 40
0.2516589898
 40
0.5021517478000001
 40
0.7514631912000001
 40
1.0
 40
1.0
 40
1.0
 40
1.0
 10
36.02850456320005
 20
21.28108708810004
 30
0.0
 10
36.04118567040001
 20
21.23211129740005
 30
0.0
 10
36.08268521850002
 20
21.13778369690004
 30
0.0
 10
36.18654557280001
 20
21.02446902200003
 30
0.0
 10
36.32091044160004
 20
20.95103261740005
 30
0.0
 10
36.42178098790001
 20
20.93410335120001
 30
0.0
 10
36.47174423050004
 20
20.93411214560004
 30
0.0
  0
SPLINE
  5
59BE5
330
1F
100
AcDbEntity
  8
1
100
AcDbSpline
210
0.0
220
0.0
230
1.0
 70
     8
 71
     3
 72
    11
 73
     7
 74
     0
 42
0.0000000001
 43
0.0000000001
 40
0.0
 40
0.0
 40
0.0
 40
0.0
 40
0.2516633133
 40
0.5021410186000002
 40
0.7514528673000001
 40
1.0
 40
1.0
 40
1.0
 40
1.0
 10
36.02850456320005
 20
21.28108708810004
 30
0.0
 10
36.0226183275
 20
21.30382035920005
 30
0.0
 10
36.00335917710004
 20
21.34760504840003
 30
0.0
 10
35.95514912320004
 20
21.40019747690005
 30
0.0
 10
35.89279155420002
 20
21.43429971800003
 30
0.0
 10
35.84597010760001
 20
21.44216293930003
 30
0.0
 10
35.82277792210002
 20
21.44216293930003
 30
0.0
  0
SPLINE
  5
59BE6
330
1F
100
AcDbEntity
  8
1
100
AcDbSpline
210
0.0
220
0.0
230
1.0
 70
     8
 71
     3
 72
    15
 73
    11
 74
     0
 42
0.0000000001
 43
0.0000000001
 40
0.0
 40
0.0
 40
0.0
 40
0.0
 40
0.1259409039
 40
0.2517305122
 40
0.3772639386
 40
0.5024521479999999
 40
0.6272671653000002
 40
0.7517363108000003
 40
0.8759400846
 40
1.0
 40
1.0
 40
1.0
 40
1.0
 10
33.7082953188
 20
20.25816293930004
 30
0.0
 10
33.7082953188
 20
20.40190528450004
 30
0.0
 10
33.7361872134
 20
20.68999203270005
 30
0.0
 10
33.86015743870002
 20
21.10503986510005
 30
0.0
 10
34.06149075760001
 20
21.48779990510005
 30
0.0
 10
34.33254146710002
 20
21.82336119500002
 30
0.0
 10
34.6629200806
 20
22.09885162340004
 30
0.0
 10
35.04001624290001
 20
22.30362410090004
 30
0.0
 10
35.44911393420003
 20
22.42975824920006
 30
0.0
 10
35.73327689199999
 20
22.45816293930001
 30
0.0
 10
35.8748723754
 20
22.45816293930001
 30
0.0
  0
SPLINE
  5
59BE7
330
1F
100
AcDbEntity
  8
1
100
AcDbSpline
210
0.0
220
0.0
230
1.0
 70
     8
 71
     3
 72
    15
 73
    11
 74
     0
 42
0.0000000001
 43
0.0000000001
 40
0.0
 40
0.0
 40
0.0
 40
0.0
 40
0.1238765331
 40
0.2480697224
 40
0.3727747122
 40
0.4980241017
 40
0.6236616812
 40
0.7494079554000001
 40
0.8749257026999998
 40
1.0
 40
1.0
 40
1.0
 40
1.0
 10
36.6483458793
 20
19.55816279070004
 30
0.0
 10
36.66920200960002
 20
19.5581582537
 30
0.0
 10
36.71123422950001
 20
19.56449970640003
 30
0.0
 10
36.7685699836
 20
19.59215286580004
 30
0.0
 10
36.81551879060001
 20
19.63553823350006
 30
0.0
 10
36.84797638610002
 20
19.69086360220004
 30
0.0
 10
36.86320304710003
 20
19.75334532980003
 30
0.0
 10
36.85988236550003
 20
19.81762221640002
 30
0.0
 10
36.83836089350001
 20
19.87813272850005
 30
0.0
 10
36.81290707730003
 20
19.91267977380004
 30
0.0
 10
36.79806105970005
 20
19.92761383690005
 30
0.0
  0
SPLINE
  5
59BE8
330
1F
100
AcDbEntity
  8
1
100
AcDbSpline
210
0.0
220
0.0
230
1.0
 70
     8
 71
     3
 72
    11
 73
     7
 74
     0
 42
0.0000000001
 43
0.0000000001
 40
0.0
 40
0.0
 40
0.0
 40
0.0
 40
0.2485368088
 40
0.4978482522000001
 40
0.7483410102
 40
1.0
 40
1.0
 40
1.0
 40
1.0
 10
36.47174423050004
 20
19.58221373310005
 30
0.0
 10
36.42178098790001
 20
19.58222252750001
 30
0.0
 10
36.32091044160004
 20
19.56529326120002
 30
0.0
 10
36.18654557280001
 20
19.49185685670004
 30
0.0
 10
36.08268521850002
 20
19.37854218180003
 30
0.0
 10
36.04118567040001
 20
19.28421458130003
 30
0.0
 10
36.02850456320005
 20
19.23523879060004
 30
0.0
  0
SPLINE
  5
59BE9
330
1F
100
AcDbEntity
  8
1
100
AcDbSpline
210
0.0
220
0.0
230
1.0
 70
     8
 71
     3
 72
    11
 73
     7
 74
     0
 42
0.0000000001
 43
0.0000000001
 40
0.0
 40
0.0
 40
0.0
 40
0.0
 40
0.2485471327
 40
0.4978589814000002
 40
0.7483366867
 40
1.0
 40
1.0
 40
1.0
 40
1.0
 10
35.82277792210002
 20
19.07416293930004
 30
0.0
 10
35.84597010760001
 20
19.07416293930004
 30
0.0
 10
35.89279155420002
 20
19.0820261607
 30
0.0
 10
35.95514912320004
 20
19.11612840180004
 30
0.0
 10
36.00335917710004
 20
19.16872083030002
 30
0.0
 10
36.0226183275
 20
19.21250551950004
 30
0.0
 10
36.02850456320005
 20
19.23523879060004
 30
0.0
  0
SPLINE
  5
59BEA
330
1F
100
AcDbEntity
  8
1
100
AcDbSpline
210
0.0
220
0.0
230
1.0
 70
     8
 71
     3
 72
    27
 73
    23
 74
     0
 42
0.0000000001
 43
0.0000000001
 40
0.0
 40
0.0
 40
0.0
 40
0.0
 40
0.0629516258
 40
0.09443999
 40
0.1259014154
 40
0.1886495372
 40
0.251224821
 40
0.2824800863
 40
0.3136893409
 40
0.3759053075
 40
0.4379886137
 40
0.5
 40
0.5620113863000002
 40
0.6240946925000001
 40
0.6863106591000001
 40
0.7175199137
 40
0.748775179
 40
0.8113504627999999
 40
0.8740985845999999
 40
0.9055600099999999
 40
0.9370483741999999
 40
1.0
 40
1.0
 40
1.0
 40
1.0
 10
33.95164319140003
 20
20.25816293930004
 30
0.0
 10
33.95164319140003
 20
20.38230405690007
 30
0.0
 10
33.969762167
 20
20.56919386920006
 30
0.0
 10
34.02931904280001
 20
20.81051050960001
 30
0.0
 10
34.11179125660004
 20
21.04464060350005
 30
0.0
 10
34.25665450030002
 20
21.32012567940006
 30
0.0
 10
34.45203799030003
 20
21.56193686920005
 30
0.0
 10
34.63373701230003
 20
21.72914890530001
 30
0.0
 10
34.83038437010001
 20
21.87730496510005
 30
0.0
 10
35.10177306440002
 20
22.02472841860004
 30
0.0
 10
35.45516268440002
 20
22.13362254300003
 30
0.0
 10
35.82277792210002
 20
22.17042044300001
 30
0.0
 10
36.19039315990003
 20
22.13362254300003
 30
0.0
 10
36.54378277990006
 20
22.02472841860004
 30
0.0
 10
36.81517147420001
 20
21.87730496510005
 30
0.0
 10
37.01181883200002
 20
21.72914890530001
 30
0.0
 10
37.19351785400002
 20
21.56193686920005
 30
0.0
 10
37.388901344
 20
21.32012567940006
 30
0.0
 10
37.53376458770001
 20
21.04464060350005
 30
0.0
 10
37.61623680150001
 20
20.81051050960001
 30
0.0
 10
37.67579367730002
 20
20.56919386920006
 30
0.0
 10
37.6939126529
 20
20.38230405690007
 30
0.0
 10
37.6939126529
 20
20.25816293930004
 30
0.0
  0
SPLINE
  5
59BEB
330
1F
100
AcDbEntity
  8
1
100
AcDbSpline
210
0.0
220
0.0
230
1.0
 70
     8
 71
     3
 72
    27
 73
    23
 74
     0
 42
0.0000000001
 43
0.0000000001
 40
0.0
 40
0.0
 40
0.0
 40
0.0
 40
0.0629516258
 40
0.09443999
 40
0.1259014154
 40
0.1886495372
 40
0.251224821
 40
0.2824800863
 40
0.3136893409
 40
0.3759053075
 40
0.4379886137
 40
0.5
 40
0.5620113863000002
 40
0.6240946925000001
 40
0.6863106591000001
 40
0.7175199137
 40
0.748775179
 40
0.8113504627999999
 40
0.8740985845999999
 40
0.9055600099999999
 40
0.9370483741999999
 40
1.0
 40
1.0
 40
1.0
 40
1.0
 10
33.95164319140003
 20
20.25816293930004
 30
0.0
 10
33.95164319140003
 20
20.13402182180005
 30
0.0
 10
33.969762167
 20
19.94713200940006
 30
0.0
 10
34.02931904280001
 20
19.70581536910003
 30
0.0
 10
34.11179125660004
 20
19.47168527520002
 30
0.0
 10
34.25665450030002
 20
19.19620019920006
 30
0.0
 10
34.45203799030003
 20
18.95438900940004
 30
0.0
 10
34.63373701230003
 20
18.78717697340001
 30
0.0
 10
34.83038437010001
 20
18.63902091360003
 30
0.0
 10
35.10177306440002
 20
18.49159746010004
 30
0.0
 10
35.45516268440002
 20
18.38270333570003
 30
0.0
 10
35.82277792210002
 20
18.3459054357
 30
0.0
 10
36.19039315990003
 20
18.38270333570003
 30
0.0
 10
36.54378277990006
 20
18.49159746010004
 30
0.0
 10
36.81517147420001
 20
18.63902091360003
 30
0.0
 10
37.01181883200002
 20
18.78717697340001
 30
0.0
 10
37.19351785400002
 20
18.95438900940004
 30
0.0
 10
37.388901344
 20
19.19620019920006
 30
0.0
 10
37.53376458770001
 20
19.47168527520002
 30
0.0
 10
37.61623680150001
 20
19.70581536910003
 30
0.0
 10
37.67579367730002
 20
19.94713200940006
 30
0.0
 10
37.6939126529
 20
20.13402182180005
 30
0.0
 10
37.6939126529
 20
20.25816293930004
 30
0.0
  0
SPLINE
  5
59BEC
330
1F
100
AcDbEntity
  8
1
100
AcDbSpline
210
0.0
220
0.0
230
1.0
 70
     8
 71
     3
 72
    11
 73
     7
 74
     0
 42
0.0000000001
 43
0.0000000001
 40
0.0
 40
0.0
 40
0.0
 40
0.0
 40
0.2516589898
 40
0.5021517478000001
 40
0.7514631912000001
 40
1.0
 40
1.0
 40
1.0
 40
1.0
 10
35.61705128110001
 20
19.23523879060004
 30
0.0
 10
35.60437017390004
 20
19.28421458130003
 30
0.0
 10
35.5628706258
 20
19.37854218180003
 30
0.0
 10
35.45901027150001
 20
19.49185685670004
 30
0.0
 10
35.32464540270002
 20
19.56529326120002
 30
0.0
 10
35.22377485640004
 20
19.58222252750001
 30
0.0
 10
35.17381161380001
 20
19.58221373310005
 30
0.0
  0
SPLINE
  5
59BED
330
1F
100
AcDbEntity
  8
1
100
AcDbSpline
210
0.0
220
0.0
230
1.0
 70
     8
 71
     3
 72
    11
 73
     7
 74
     0
 42
0.0000000001
 43
0.0000000001
 40
0.0
 40
0.0
 40
0.0
 40
0.0
 40
0.2516633133
 40
0.5021410186000002
 40
0.7514528673000001
 40
1.0
 40
1.0
 40
1.0
 40
1.0
 10
35.61705128110001
 20
19.23523879060004
 30
0.0
 10
35.62293751679999
 20
19.21250551950004
 30
0.0
 10
35.64219666720001
 20
19.16872083030002
 30
0.0
 10
35.69040672100002
 20
19.11612840180004
 30
0.0
 10
35.75276429010003
 20
19.0820261607
 30
0.0
 10
35.79958573670001
 20
19.07416293930004
 30
0.0
 10
35.82277792210002
 20
19.07416293930004
 30
0.0
  0
SPLINE
  5
59BEE
330
1F
100
AcDbEntity
  8
1
100
AcDbSpline
210
0.0
220
0.0
230
1.0
 70
     8
 71
     3
 72
    13
 73
     9
 74
     0
 42
0.0000000001
 43
0.0000000001
 40
0.0
 40
0.0
 40
0.0
 40
0.0
 40
0.1248583695
 40
0.2500920269
 40
0.5
 40
0.7499079731000001
 40
0.8751416304999999
 40
1.0
 40
1.0
 40
1.0
 40
1.0
 10
34.84749478460003
 20
19.92761383690005
 30
0.0
 10
34.86892326730004
 20
19.949169403
 30
0.0
 10
34.90766855609999
 20
19.99675485120001
 30
0.0
 10
34.96499360230004
 20
20.10482985250002
 30
0.0
 10
34.99537373400003
 20
20.25816293930004
 30
0.0
 10
34.96499360230004
 20
20.41149602610005
 30
0.0
 10
34.90766855609999
 20
20.51957102740005
 30
0.0
 10
34.86892326730004
 20
20.56715647570002
 30
0.0
 10
34.84749478460003
 20
20.58871204180002
 30
0.0
  0
SPLINE
  5
59BEF
330
1F
100
AcDbEntity
  8
1
100
AcDbSpline
210
0.0
220
0.0
230
1.0
 70
     8
 71
     3
 72
    15
 73
    11
 74
     0
 42
0.0000000001
 43
0.0000000001
 40
0.0
 40
0.0
 40
0.0
 40
0.0
 40
0.1250742973
 40
0.2505920446
 40
0.3763383188
 40
0.5019758983
 40
0.6272252878
 40
0.7519302776000001
 40
0.8761234669
 40
1.0
 40
1.0
 40
1.0
 40
1.0
 10
34.84749478460003
 20
19.92761383690005
 30
0.0
 10
34.832648767
 20
19.91267977380004
 30
0.0
 10
34.80719495080001
 20
19.87813272850005
 30
0.0
 10
34.78567347880002
 20
19.81762221640002
 30
0.0
 10
34.78235279720002
 20
19.75334532980003
 30
0.0
 10
34.79757945810002
 20
19.69086360220004
 30
0.0
 10
34.83003705370004
 20
19.63553823350006
 30
0.0
 10
34.87698586070005
 20
19.59215286580004
 30
0.0
 10
34.9343216147
 20
19.56449970640003
 30
0.0
 10
34.97635383470001
 20
19.5581582537
 30
0.0
 10
34.997209965
 20
19.55816279070004
 30
0.0
  0
SPLINE
  5
59BF0
330
1F
100
AcDbEntity
  8
1
100
AcDbSpline
210
0.0
220
0.0
230
1.0
 70
     8
 71
     3
 72
    15
 73
    11
 74
     0
 42
0.0000000001
 43
0.0000000001
 40
0.0
 40
0.0
 40
0.0
 40
0.0
 40
0.1240599154
 40
0.2482636892
 40
0.3727328347
 40
0.4975478520000002
 40
0.6227360614000002
 40
0.7482694878000001
 40
0.8740590961
 40
1.0
 40
1.0
 40
1.0
 40
1.0
 10
35.8748723754
 20
18.05816293930005
 30
0.0
 10
36.01646785890003
 20
18.05816293930005
 30
0.0
 10
36.30063081670002
 20
18.08656762950004
 30
0.0
 10
36.70972850800004
 20
18.21270177780001
 30
0.0
 10
37.08682467030002
 20
18.41747425530001
 30
0.0
 10
37.41720328380001
 20
18.6929646837
 30
0.0
 10
37.68825399330001
 20
19.02852597360004
 30
0.0
 10
37.88958731220001
 20
19.41128601350003
 30
0.0
 10
38.01355753749999
 20
19.82633384600006
 30
0.0
 10
38.04144943210003
 20
20.11442059410004
 30
0.0
 10
38.04144943210003
 20
20.25816293930004
 30
0.0
  0
SPLINE
  5
59BF1
330
1F
100
AcDbEntity
  8
1
100
AcDbSpline
210
0.0
220
0.0
230
1.0
 70
     8
 71
     3
 72
    15
 73
    11
 74
     0
 42
0.0000000001
 43
0.0000000001
 40
0.0
 40
0.0
 40
0.0
 40
0.0
 40
0.1240599154
 40
0.2482636892
 40
0.3727328347
 40
0.4975478520000002
 40
0.6227360614000002
 40
0.7482694878000001
 40
0.8740590961
 40
1.0
 40
1.0
 40
1.0
 40
1.0
 10
35.8748723754
 20
22.45816293930001
 30
0.0
 10
36.01646785890003
 20
22.45816293930001
 30
0.0
 10
36.30063081670002
 20
22.42975824920006
 30
0.0
 10
36.70972850800004
 20
22.30362410090004
 30
0.0
 10
37.08682467030002
 20
22.09885162340004
 30
0.0
 10
37.41720328380001
 20
21.82336119500002
 30
0.0
 10
37.68825399330001
 20
21.48779990510005
 30
0.0
 10
37.88958731220001
 20
21.10503986510005
 30
0.0
 10
38.01355753749999
 20
20.68999203270005
 30
0.0
 10
38.04144943210003
 20
20.40190528450004
 30
0.0
 10
38.04144943210003
 20
20.25816293930004
 30
0.0
  0
SPLINE
  5
59BF2
330
1F
100
AcDbEntity
  8
1
100
AcDbSpline
210
0.0
220
0.0
230
1.0
 70
     8
 71
     3
 72
    15
 73
    11
 74
     0
 42
0.0000000001
 43
0.0000000001
 40
0.0
 40
0.0
 40
0.0
 40
0.0
 40
0.1238765331
 40
0.2480697224
 40
0.3727747122
 40
0.4980241017
 40
0.6236616812
 40
0.7494079554000001
 40
0.8749257026999998
 40
1.0
 40
1.0
 40
1.0
 40
1.0
 10
34.997209965
 20
20.95816308790003
 30
0.0
 10
34.97635383470001
 20
20.95816762500004
 30
0.0
 10
34.9343216147
 20
20.95182617230002
 30
0.0
 10
34.87698586070005
 20
20.92417301280002
 30
0.0
 10
34.83003705370004
 20
20.88078764520002
 30
0.0
 10
34.79757945810002
 20
20.82546227640003
 30
0.0
 10
34.78235279720002
 20
20.76298054890003
 30
0.0
 10
34.78567347880002
 20
20.69870366230003
 30
0.0
 10
34.80719495080001
 20
20.63819315020004
 30
0.0
 10
34.832648767
 20
20.60364610490004
 30
0.0
 10
34.84749478460003
 20
20.58871204180002
 30
0.0
  0
SPLINE
  5
59BF3
330
1F
100
AcDbEntity
  8
1
100
AcDbSpline
210
0.0
220
0.0
230
1.0
 70
     8
 71
     3
 72
    11
 73
     7
 74
     0
 42
0.0000000001
 43
0.0000000001
 40
0.0
 40
0.0
 40
0.0
 40
0.0
 40
0.2485368088
 40
0.4978482522000001
 40
0.7483410102
 40
1.0
 40
1.0
 40
1.0
 40
1.0
 10
35.17381161380001
 20
20.93411214560004
 30
0.0
 10
35.22377485640004
 20
20.93410335120001
 30
0.0
 10
35.32464540270002
 20
20.95103261740005
 30
0.0
 10
35.45901027150001
 20
21.02446902200003
 30
0.0
 10
35.5628706258
 20
21.13778369690004
 30
0.0
 10
35.60437017390004
 20
21.23211129740005
 30
0.0
 10
35.61705128110001
 20
21.28108708810004
 30
0.0
  0
SPLINE
  5
59BF4
330
1F
100
AcDbEntity
  8
1
100
AcDbSpline
210
0.0
220
0.0
230
1.0
 70
     8
 71
     3
 72
    11
 73
     7
 74
     0
 42
0.0000000001
 43
0.0000000001
 40
0.0
 40
0.0
 40
0.0
 40
0.0
 40
0.2485471327
 40
0.4978589814000002
 40
0.7483366867
 40
1.0
 40
1.0
 40
1.0
 40
1.0
 10
35.82277792210002
 20
21.44216293930003
 30
0.0
 10
35.79958573670001
 20
21.44216293930003
 30
0.0
 10
35.75276429010003
 20
21.43429971800003
 30
0.0
 10
35.69040672100002
 20
21.40019747690005
 30
0.0
 10
35.64219666720001
 20
21.34760504840003
 30
0.0
 10
35.62293751679999
 20
21.30382035920005
 30
0.0
 10
35.61705128110001
 20
21.28108708810004
 30
0.0
  0
SPLINE
  5
59BF5
330
1F
100
AcDbEntity
  8
1
100
AcDbSpline
210
0.0
220
0.0
230
1.0
 70
     8
 71
     3
 72
    15
 73
    11
 74
     0
 42
0.0000000001
 43
0.0000000001
 40
0.0
 40
0.0
 40
0.0
 40
0.0
 40
0.1259409039
 40
0.2517305122
 40
0.3772639386
 40
0.5024521479999999
 40
0.6272671653000002
 40
0.7517363108000003
 40
0.8759400846
 40
1.0
 40
1.0
 40
1.0
 40
1.0
 10
41.20437150330002
 20
20.02385501920006
 30
0.0
 10
41.20437150330002
 20
19.88011267410002
 30
0.0
 10
41.23226339780001
 20
19.59202592590002
 30
0.0
 10
41.35623362310002
 20
19.17697809340004
 30
0.0
 10
41.55756694210004
 20
18.79421805350006
 30
0.0
 10
41.82861765160004
 20
18.45865676360002
 30
0.0
 10
42.15899626510003
 20
18.18316633520004
 30
0.0
 10
42.5360924274
 20
17.97839385770004
 30
0.0
 10
42.94519011870002
 20
17.85225970940004
 30
0.0
 10
43.22935307640003
 20
17.82385501920004
 30
0.0
 10
43.3709485599
 20
17.82385501920004
 30
0.0
  0
SPLINE
  5
59BF6
330
1F
100
AcDbEntity
  8
1
100
AcDbSpline
210
0.0
220
0.0
230
1.0
 70
     8
 71
     3
 72
    13
 73
     9
 74
     0
 42
0.0000000001
 43
0.0000000001
 40
0.0
 40
0.0
 40
0.0
 40
0.0
 40
0.1248583695
 40
0.2500920269
 40
0.5
 40
0.7499079731000001
 40
0.8751416304999999
 40
1.0
 40
1.0
 40
1.0
 40
1.0
 10
44.29413724420001
 20
20.35440412170004
 30
0.0
 10
44.27270876140002
 20
20.33284855560004
 30
0.0
 10
44.23396347269999
 20
20.28526310730004
 30
0.0
 10
44.1766384265
 20
20.17718810600005
 30
0.0
 10
44.14625829480002
 20
20.02385501920006
 30
0.0
 10
44.1766384265
 20
19.87052193240003
 30
0.0
 10
44.23396347269999
 20
19.76244693120002
 30
0.0
 10
44.27270876140002
 20
19.71486148290002
 30
0.0
 10
44.29413724420001
 20
19.69330591680003
 30
0.0
  0
SPLINE
  5
59BF7
330
1F
100
AcDbEntity
  8
1
100
AcDbSpline
210
0.0
220
0.0
230
1.0
 70
     8
 71
     3
 72
    15
 73
    11
 74
     0
 42
0.0000000001
 43
0.0000000001
 40
0.0
 40
0.0
 40
0.0
 40
0.0
 40
0.1250742973
 40
0.2505920446
 40
0.3763383188
 40
0.5019758983
 40
0.6272252878
 40
0.7519302776000001
 40
0.8761234669
 40
1.0
 40
1.0
 40
1.0
 40
1.0
 10
44.29413724420001
 20
20.35440412170004
 30
0.0
 10
44.30898326170001
 20
20.36933818480003
 30
0.0
 10
44.33443707790002
 20
20.40388523010006
 30
0.0
 10
44.35595854989998
 20
20.46439574220004
 30
0.0
 10
44.35927923160003
 20
20.52867262880005
 30
0.0
 10
44.34405257060001
 20
20.59115435630005
 30
0.0
 10
44.31159497499999
 20
20.64647972510004
 30
0.0
 10
44.2646461681
 20
20.68986509270005
 30
0.0
 10
44.207310414
 20
20.71751825220005
 30
0.0
 10
44.16527819400002
 20
20.72385970490004
 30
0.0
 10
44.14442206380002
 20
20.72385516790004
 30
0.0
  0
SPLINE
  5
59BF8
330
1F
100
AcDbEntity
  8
1
100
AcDbSpline
210
0.0
220
0.0
230
1.0
 70
     8
 71
     3
 72
    11
 73
     7
 74
     0
 42
0.0000000001
 43
0.0000000001
 40
0.0
 40
0.0
 40
0.0
 40
0.0
 40
0.2516589898
 40
0.5021517478000001
 40
0.7514631912000001
 40
1.0
 40
1.0
 40
1.0
 40
1.0
 10
43.52458074760003
 20
21.04677916800003
 30
0.0
 10
43.53726185480002
 20
20.99780337730002
 30
0.0
 10
43.5787614029
 20
20.90347577680004
 30
0.0
 10
43.68262175719999
 20
20.79016110190005
 30
0.0
 10
43.8169866261
 20
20.71672469730004
 30
0.0
 10
43.91785717230002
 20
20.69979543110003
 30
0.0
 10
43.96782041489998
 20
20.69980422550003
 30
0.0
  0
SPLINE
  5
59BF9
330
1F
100
AcDbEntity
  8
1
100
AcDbSpline
210
0.0
220
0.0
230
1.0
 70
     8
 71
     3
 72
    11
 73
     7
 74
     0
 42
0.0000000001
 43
0.0000000001
 40
0.0
 40
0.0
 40
0.0
 40
0.0
 40
0.2516633133
 40
0.5021410186000002
 40
0.7514528673000001
 40
1.0
 40
1.0
 40
1.0
 40
1.0
 10
43.52458074760003
 20
21.04677916800003
 30
0.0
 10
43.5186945119
 20
21.06951243910004
 30
0.0
 10
43.49943536150002
 20
21.11329712830005
 30
0.0
 10
43.45122530770001
 20
21.16588955680004
 30
0.0
 10
43.38886773869998
 20
21.19999179790005
 30
0.0
 10
43.34204629210003
 20
21.20785501920005
 30
0.0
 10
43.31885410660001
 20
21.20785501920005
 30
0.0
  0
SPLINE
  5
59BFA
330
1F
100
AcDbEntity
  8
1
100
AcDbSpline
210
0.0
220
0.0
230
1.0
 70
     8
 71
     3
 72
    15
 73
    11
 74
     0
 42
0.0000000001
 43
0.0000000001
 40
0.0
 40
0.0
 40
0.0
 40
0.0
 40
0.1259409039
 40
0.2517305122
 40
0.3772639386
 40
0.5024521479999999
 40
0.6272671653000002
 40
0.7517363108000003
 40
0.8759400846
 40
1.0
 40
1.0
 40
1.0
 40
1.0
 10
41.20437150330002
 20
20.02385501920006
 30
0.0
 10
41.20437150330002
 20
20.16759736440004
 30
0.0
 10
41.23226339780001
 20
20.45568411260004
 30
0.0
 10
41.35623362310002
 20
20.87073194500005
 30
0.0
 10
41.55756694210004
 20
21.25349198500004
 30
0.0
 10
41.82861765160004
 20
21.58905327490005
 30
0.0
 10
42.15899626510003
 20
21.86454370330006
 30
0.0
 10
42.5360924274
 20
22.06931618080006
 30
0.0
 10
42.94519011870002
 20
22.19545032910003
 30
0.0
 10
43.22935307640003
 20
22.22385501920005
 30
0.0
 10
43.3709485599
 20
22.22385501920005
 30
0.0
  0
SPLINE
  5
59BFB
330
1F
100
AcDbEntity
  8
1
100
AcDbSpline
210
0.0
220
0.0
230
1.0
 70
     8
 71
     3
 72
    15
 73
    11
 74
     0
 42
0.0000000001
 43
0.0000000001
 40
0.0
 40
0.0
 40
0.0
 40
0.0
 40
0.1238765331
 40
0.2480697224
 40
0.3727747122
 40
0.4980241017
 40
0.6236616812
 40
0.7494079554000001
 40
0.8749257026999998
 40
1.0
 40
1.0
 40
1.0
 40
1.0
 10
44.14442206380002
 20
19.32385487060006
 30
0.0
 10
44.16527819400002
 20
19.32385033360003
 30
0.0
 10
44.207310414
 20
19.33019178630005
 30
0.0
 10
44.2646461681
 20
19.35784494580004
 30
0.0
 10
44.31159497499999
 20
19.40123031340001
 30
0.0
 10
44.34405257060001
 20
19.45655568210002
 30
0.0
 10
44.35927923160003
 20
19.51903740970005
 30
0.0
 10
44.35595854989998
 20
19.58331429630004
 30
0.0
 10
44.33443707790002
 20
19.64382480840004
 30
0.0
 10
44.30898326170001
 20
19.6783718537
 30
0.0
 10
44.29413724420001
 20
19.69330591680003
 30
0.0
  0
SPLINE
  5
59BFC
330
1F
100
AcDbEntity
  8
1
100
AcDbSpline
210
0.0
220
0.0
230
1.0
 70
     8
 71
     3
 72
    11
 73
     7
 74
     0
 42
0.0000000001
 43
0.0000000001
 40
0.0
 40
0.0
 40
0.0
 40
0.0
 40
0.2485368088
 40
0.4978482522000001
 40
0.7483410102
 40
1.0
 40
1.0
 40
1.0
 40
1.0
 10
43.96782041489998
 20
19.347905813
 30
0.0
 10
43.91785717230002
 20
19.34791460740003
 30
0.0
 10
43.8169866261
 20
19.33098534120002
 30
0.0
 10
43.68262175719999
 20
19.25754893660002
 30
0.0
 10
43.5787614029
 20
19.14423426170005
 30
0.0
 10
43.53726185480002
 20
19.04990666120001
 30
0.0
 10
43.52458074760003
 20
19.00093087050001
 30
0.0
  0
SPLINE
  5
59BFD
330
1F
100
AcDbEntity
  8
1
100
AcDbSpline
210
0.0
220
0.0
230
1.0
 70
     8
 71
     3
 72
    11
 73
     7
 74
     0
 42
0.0000000001
 43
0.0000000001
 40
0.0
 40
0.0
 40
0.0
 40
0.0
 40
0.2485471327
 40
0.4978589814000002
 40
0.7483366867
 40
1.0
 40
1.0
 40
1.0
 40
1.0
 10
43.31885410660001
 20
18.83985501920006
 30
0.0
 10
43.34204629210003
 20
18.83985501920006
 30
0.0
 10
43.38886773869998
 20
18.84771824060004
 30
0.0
 10
43.45122530770001
 20
18.88182048170006
 30
0.0
 10
43.49943536150002
 20
18.93441291020001
 30
0.0
 10
43.5186945119
 20
18.97819759940005
 30
0.0
 10
43.52458074760003
 20
19.00093087050001
 30
0.0
  0
SPLINE
  5
59BFE
330
1F
100
AcDbEntity
  8
1
100
AcDbSpline
210
0.0
220
0.0
230
1.0
 70
     8
 71
     3
 72
    27
 73
    23
 74
     0
 42
0.0000000001
 43
0.0000000001
 40
0.0
 40
0.0
 40
0.0
 40
0.0
 40
0.0629516258
 40
0.09443999
 40
0.1259014154
 40
0.1886495372
 40
0.251224821
 40
0.2824800863
 40
0.3136893409
 40
0.3759053075
 40
0.4379886137
 40
0.5
 40
0.5620113863000002
 40
0.6240946925000001
 40
0.6863106591000001
 40
0.7175199137
 40
0.748775179
 40
0.8113504627999999
 40
0.8740985845999999
 40
0.9055600099999999
 40
0.9370483741999999
 40
1.0
 40
1.0
 40
1.0
 40
1.0
 10
41.44771937589999
 20
20.02385501920006
 30
0.0
 10
41.44771937589999
 20
20.14799613680004
 30
0.0
 10
41.46583835140003
 20
20.33488594910003
 30
0.0
 10
41.52539522720002
 20
20.57620258950004
 30
0.0
 10
41.60786744100002
 20
20.81033268340001
 30
0.0
 10
41.75273068480004
 20
21.08581775930003
 30
0.0
 10
41.94811417470001
 20
21.32762894910002
 30
0.0
 10
42.12981319669999
 20
21.49484098520003
 30
0.0
 10
42.32646055449999
 20
21.64299704500004
 30
0.0
 10
42.59784924889999
 20
21.79042049850006
 30
0.0
 10
42.9512388688
 20
21.89931462290005
 30
0.0
 10
43.31885410660001
 20
21.93611252290003
 30
0.0
 10
43.68646934440002
 20
21.89931462290005
 30
0.0
 10
44.0398589643
 20
21.79042049850006
 30
0.0
 10
44.31124765870001
 20
21.64299704500004
 30
0.0
 10
44.50789501649999
 20
21.49484098520003
 30
0.0
 10
44.68959403850002
 20
21.32762894910002
 30
0.0
 10
44.88497752839996
 20
21.08581775930003
 30
0.0
 10
45.0298407722
 20
20.81033268340001
 30
0.0
 10
45.11231298600001
 20
20.57620258950004
 30
0.0
 10
45.17186986179999
 20
20.33488594910003
 30
0.0
 10
45.18998883730003
 20
20.14799613680004
 30
0.0
 10
45.18998883730003
 20
20.02385501920006
 30
0.0
  0
SPLINE
  5
59BFF
330
1F
100
AcDbEntity
  8
1
100
AcDbSpline
210
0.0
220
0.0
230
1.0
 70
     8
 71
     3
 72
    27
 73
    23
 74
     0
 42
0.0000000001
 43
0.0000000001
 40
0.0
 40
0.0
 40
0.0
 40
0.0
 40
0.0629516258
 40
0.09443999
 40
0.1259014154
 40
0.1886495372
 40
0.251224821
 40
0.2824800863
 40
0.3136893409
 40
0.3759053075
 40
0.4379886137
 40
0.5
 40
0.5620113863000002
 40
0.6240946925000001
 40
0.6863106591000001
 40
0.7175199137
 40
0.748775179
 40
0.8113504627999999
 40
0.8740985845999999
 40
0.9055600099999999
 40
0.9370483741999999
 40
1.0
 40
1.0
 40
1.0
 40
1.0
 10
41.44771937589999
 20
20.02385501920006
 30
0.0
 10
41.44771937589999
 20
19.89971390170004
 30
0.0
 10
41.46583835140003
 20
19.71282408940004
 30
0.0
 10
41.52539522720002
 20
19.47150744900006
 30
0.0
 10
41.60786744100002
 20
19.23737735510004
 30
0.0
 10
41.75273068480004
 20
18.96189227910003
 30
0.0
 10
41.94811417470001
 20
18.72008108930003
 30
0.0
 10
42.12981319669999
 20
18.55286905330003
 30
0.0
 10
42.32646055449999
 20
18.40471299350005
 30
0.0
 10
42.59784924889999
 20
18.25728954000004
 30
0.0
 10
42.9512388688
 20
18.14839541560004
 30
0.0
 10
43.31885410660001
 20
18.11159751560004
 30
0.0
 10
43.68646934440002
 20
18.14839541560004
 30
0.0
 10
44.0398589643
 20
18.25728954000004
 30
0.0
 10
44.31124765870001
 20
18.40471299350005
 30
0.0
 10
44.50789501649999
 20
18.55286905330003
 30
0.0
 10
44.68959403850002
 20
18.72008108930003
 30
0.0
 10
44.88497752839996
 20
18.96189227910003
 30
0.0
 10
45.0298407722
 20
19.23737735510004
 30
0.0
 10
45.11231298600001
 20
19.47150744900006
 30
0.0
 10
45.17186986179999
 20
19.71282408940004
 30
0.0
 10
45.18998883730003
 20
19.89971390170004
 30
0.0
 10
45.18998883730003
 20
20.02385501920006
 30
0.0
  0
SPLINE
  5
59C00
330
1F
100
AcDbEntity
  8
1
100
AcDbSpline
210
0.0
220
0.0
230
1.0
 70
     8
 71
     3
 72
    11
 73
     7
 74
     0
 42
0.0000000001
 43
0.0000000001
 40
0.0
 40
0.0
 40
0.0
 40
0.0
 40
0.2516589898
 40
0.5021517478000001
 40
0.7514631912000001
 40
1.0
 40
1.0
 40
1.0
 40
1.0
 10
43.1131274656
 20
19.00093087050001
 30
0.0
 10
43.10044635839997
 20
19.04990666120001
 30
0.0
 10
43.05894681030003
 20
19.14423426170005
 30
0.0
 10
42.95508645600003
 20
19.25754893660002
 30
0.0
 10
42.82072158710002
 20
19.33098534120002
 30
0.0
 10
42.71985104090001
 20
19.34791460740003
 30
0.0
 10
42.66988779830001
 20
19.347905813
 30
0.0
  0
SPLINE
  5
59C01
330
1F
100
AcDbEntity
  8
1
100
AcDbSpline
210
0.0
220
0.0
230
1.0
 70
     8
 71
     3
 72
    11
 73
     7
 74
     0
 42
0.0000000001
 43
0.0000000001
 40
0.0
 40
0.0
 40
0.0
 40
0.0
 40
0.2516633133
 40
0.5021410186000002
 40
0.7514528673000001
 40
1.0
 40
1.0
 40
1.0
 40
1.0
 10
43.1131274656
 20
19.00093087050001
 30
0.0
 10
43.11901370120003
 20
18.97819759940005
 30
0.0
 10
43.13827285160002
 20
18.93441291020001
 30
0.0
 10
43.18648290550001
 20
18.88182048170006
 30
0.0
 10
43.24884047450001
 20
18.84771824060004
 30
0.0
 10
43.29566192109999
 20
18.83985501920006
 30
0.0
 10
43.31885410660001
 20
18.83985501920006
 30
0.0
  0
SPLINE
  5
59C02
330
1F
100
AcDbEntity
  8
1
100
AcDbSpline
210
0.0
220
0.0
230
1.0
 70
     8
 71
     3
 72
    13
 73
     9
 74
     0
 42
0.0000000001
 43
0.0000000001
 40
0.0
 40
0.0
 40
0.0
 40
0.0
 40
0.1248583695
 40
0.2500920269
 40
0.5
 40
0.7499079731000001
 40
0.8751416304999999
 40
1.0
 40
1.0
 40
1.0
 40
1.0
 10
42.34357096900001
 20
19.69330591680003
 30
0.0
 10
42.3649994518
 20
19.71486148290002
 30
0.0
 10
42.40374474050002
 20
19.76244693120002
 30
0.0
 10
42.46106978670002
 20
19.87052193240003
 30
0.0
 10
42.4914499184
 20
20.02385501920006
 30
0.0
 10
42.46106978670002
 20
20.17718810600005
 30
0.0
 10
42.40374474050002
 20
20.28526310730004
 30
0.0
 10
42.3649994518
 20
20.33284855560004
 30
0.0
 10
42.34357096900001
 20
20.35440412170004
 30
0.0
  0
SPLINE
  5
59C03
330
1F
100
AcDbEntity
  8
1
100
AcDbSpline
210
0.0
220
0.0
230
1.0
 70
     8
 71
     3
 72
    15
 73
    11
 74
     0
 42
0.0000000001
 43
0.0000000001
 40
0.0
 40
0.0
 40
0.0
 40
0.0
 40
0.1250742973
 40
0.2505920446
 40
0.3763383188
 40
0.5019758983
 40
0.6272252878
 40
0.7519302776000001
 40
0.8761234669
 40
1.0
 40
1.0
 40
1.0
 40
1.0
 10
42.34357096900001
 20
19.69330591680003
 30
0.0
 10
42.32872495150002
 20
19.6783718537
 30
0.0
 10
42.30327113519999
 20
19.64382480840004
 30
0.0
 10
42.28174966320003
 20
19.58331429630004
 30
0.0
 10
42.27842898160003
 20
19.51903740970005
 30
0.0
 10
42.29365564259999
 20
19.45655568210002
 30
0.0
 10
42.32611323820004
 20
19.40123031340001
 30
0.0
 10
42.37306204510002
 20
19.35784494580004
 30
0.0
 10
42.43039779920002
 20
19.33019178630005
 30
0.0
 10
42.4724300192
 20
19.32385033360003
 30
0.0
 10
42.49328614940004
 20
19.32385487060006
 30
0.0
  0
SPLINE
  5
59C04
330
1F
100
AcDbEntity
  8
1
100
AcDbSpline
210
0.0
220
0.0
230
1.0
 70
     8
 71
     3
 72
    15
 73
    11
 74
     0
 42
0.0000000001
 43
0.0000000001
 40
0.0
 40
0.0
 40
0.0
 40
0.0
 40
0.1240599154
 40
0.2482636892
 40
0.3727328347
 40
0.4975478520000002
 40
0.6227360614000002
 40
0.7482694878000001
 40
0.8740590961
 40
1.0
 40
1.0
 40
1.0
 40
1.0
 10
43.3709485599
 20
17.82385501920004
 30
0.0
 10
43.51254404339999
 20
17.82385501920004
 30
0.0
 10
43.7967070011
 20
17.85225970940004
 30
0.0
 10
44.20580469240005
 20
17.97839385770004
 30
0.0
 10
44.58290085469999
 20
18.18316633520004
 30
0.0
 10
44.91327946820004
 20
18.45865676360002
 30
0.0
 10
45.18433017769999
 20
18.79421805350006
 30
0.0
 10
45.3856634967
 20
19.17697809340004
 30
0.0
 10
45.50963372199999
 20
19.59202592590002
 30
0.0
 10
45.5375256165
 20
19.88011267410002
 30
0.0
 10
45.5375256165
 20
20.02385501920006
 30
0.0
  0
SPLINE
  5
59C05
330
1F
100
AcDbEntity
  8
1
100
AcDbSpline
210
0.0
220
0.0
230
1.0
 70
     8
 71
     3
 72
    15
 73
    11
 74
     0
 42
0.0000000001
 43
0.0000000001
 40
0.0
 40
0.0
 40
0.0
 40
0.0
 40
0.1240599154
 40
0.2482636892
 40
0.3727328347
 40
0.4975478520000002
 40
0.6227360614000002
 40
0.7482694878000001
 40
0.8740590961
 40
1.0
 40
1.0
 40
1.0
 40
1.0
 10
43.3709485599
 20
22.22385501920005
 30
0.0
 10
43.51254404339999
 20
22.22385501920005
 30
0.0
 10
43.7967070011
 20
22.19545032910003
 30
0.0
 10
44.20580469240005
 20
22.06931618080006
 30
0.0
 10
44.58290085469999
 20
21.86454370330006
 30
0.0
 10
44.91327946820004
 20
21.58905327490005
 30
0.0
 10
45.18433017769999
 20
21.25349198500004
 30
0.0
 10
45.3856634967
 20
20.87073194500005
 30
0.0
 10
45.50963372199999
 20
20.45568411260004
 30
0.0
 10
45.5375256165
 20
20.16759736440004
 30
0.0
 10
45.5375256165
 20
20.02385501920006
 30
0.0
  0
SPLINE
  5
59C06
330
1F
100
AcDbEntity
  8
1
100
AcDbSpline
210
0.0
220
0.0
230
1.0
 70
     8
 71
     3
 72
    15
 73
    11
 74
     0
 42
0.0000000001
 43
0.0000000001
 40
0.0
 40
0.0
 40
0.0
 40
0.0
 40
0.1238765331
 40
0.2480697224
 40
0.3727747122
 40
0.4980241017
 40
0.6236616812
 40
0.7494079554000001
 40
0.8749257026999998
 40
1.0
 40
1.0
 40
1.0
 40
1.0
 10
42.49328614940004
 20
20.72385516790004
 30
0.0
 10
42.4724300192
 20
20.72385970490004
 30
0.0
 10
42.43039779920002
 20
20.71751825220005
 30
0.0
 10
42.37306204510002
 20
20.68986509270005
 30
0.0
 10
42.32611323820004
 20
20.64647972510004
 30
0.0
 10
42.29365564259999
 20
20.59115435630005
 30
0.0
 10
42.27842898160003
 20
20.52867262880005
 30
0.0
 10
42.28174966320003
 20
20.46439574220004
 30
0.0
 10
42.30327113519999
 20
20.40388523010006
 30
0.0
 10
42.32872495150002
 20
20.36933818480003
 30
0.0
 10
42.34357096900001
 20
20.35440412170004
 30
0.0
  0
SPLINE
  5
59C07
330
1F
100
AcDbEntity
  8
1
100
AcDbSpline
210
0.0
220
0.0
230
1.0
 70
     8
 71
     3
 72
    11
 73
     7
 74
     0
 42
0.0000000001
 43
0.0000000001
 40
0.0
 40
0.0
 40
0.0
 40
0.0
 40
0.2485368088
 40
0.4978482522000001
 40
0.7483410102
 40
1.0
 40
1.0
 40
1.0
 40
1.0
 10
42.66988779830001
 20
20.69980422550003
 30
0.0
 10
42.71985104090001
 20
20.69979543110003
 30
0.0
 10
42.82072158710002
 20
20.71672469730004
 30
0.0
 10
42.95508645600003
 20
20.79016110190005
 30
0.0
 10
43.05894681030003
 20
20.90347577680004
 30
0.0
 10
43.10044635839997
 20
20.99780337730002
 30
0.0
 10
43.1131274656
 20
21.04677916800003
 30
0.0
  0
SPLINE
  5
59C08
330
1F
100
AcDbEntity
  8
1
100
AcDbSpline
210
0.0
220
0.0
230
1.0
 70
     8
 71
     3
 72
    11
 73
     7
 74
     0
 42
0.0000000001
 43
0.0000000001
 40
0.0
 40
0.0
 40
0.0
 40
0.0
 40
0.2485471327
 40
0.4978589814000002
 40
0.7483366867
 40
1.0
 40
1.0
 40
1.0
 40
1.0
 10
43.31885410660001
 20
21.20785501920005
 30
0.0
 10
43.29566192109999
 20
21.20785501920005
 30
0.0
 10
43.24884047450001
 20
21.19999179790005
 30
0.0
 10
43.18648290550001
 20
21.16588955680004
 30
0.0
 10
43.13827285160002
 20
21.11329712830005
 30
0.0
 10
43.11901370120003
 20
21.06951243910004
 30
0.0
 10
43.1131274656
 20
21.04677916800003
 30
0.0
  0
SPLINE
  5
59C09
330
1F
100
AcDbEntity
  8
1
100
AcDbSpline
210
0.0
220
0.0
230
1.0
 70
     8
 71
     3
 72
     9
 73
     5
 74
     0
 42
0.0000000001
 43
0.0000000001
 40
0.0
 40
0.0
 40
0.0
 40
0.0
 40
0.2933869591
 40
1.0
 40
1.0
 40
1.0
 40
1.0
 10
50.39964982130001
 20
-7.289818925499957
 30
0.0
 10
50.38372990990001
 20
-7.280826675499952
 30
0.0
 10
50.32869061730005
 20
-7.251562074899965
 30
0.0
 10
50.27062859949999
 20
-7.228060220699973
 30
0.0
 10
50.22866230740001
 20
-7.214717279999973
 30
0.0
  0
SPLINE
  5
59C0A
330
1F
100
AcDbEntity
  8
1
100
AcDbSpline
210
0.0
220
0.0
230
1.0
 70
     8
 71
     3
 72
    10
 73
     6
 74
     0
 42
0.0000000001
 43
0.0000000001
 40
0.0
 40
0.0
 40
0.0
 40
0.0
 40
0.2376655069
 40
0.4773686687
 40
1.0
 40
1.0
 40
1.0
 40
1.0
 10
50.79999885560003
 20
-7.640221494399952
 30
0.0
 10
50.79999883160002
 20
-7.62409260169997
 30
0.0
 10
50.79605146730003
 20
-7.591529472299953
 30
0.0
 10
50.7710742399
 20
-7.527780724199971
 30
0.0
 10
50.734835967
 20
-7.488103759099971
 30
0.0
 10
50.70711280200001
 20
-7.465981630499953
 30
0.0
  0
SPLINE
  5
59C0B
330
1F
100
AcDbEntity
  8
1
100
AcDbSpline
210
0.0
220
0.0
230
1.0
 70
     8
 71
     3
 72
     9
 73
     5
 74
     0
 42
0.0000000001
 43
0.0000000001
 40
0.0
 40
0.0
 40
0.0
 40
0.0
 40
0.2459206516
 40
1.0
 40
1.0
 40
1.0
 40
1.0
 10
50.7999995602
 20
-8.498746213399989
 30
0.0
 10
50.7999995595
 20
-8.50055339009998
 30
0.0
 10
50.79980138089999
 20
-8.507901290399956
 30
0.0
 10
50.7988174559
 20
-8.515222955399963
 30
0.0
 10
50.79769152399999
 20
-8.520648804499955
 30
0.0
  0
SPLINE
  5
59C0C
330
1F
100
AcDbEntity
  8
1
100
AcDbSpline
210
0.0
220
0.0
230
1.0
 70
     8
 71
     3
 72
    15
 73
    11
 74
     0
 42
0.0000000001
 43
0.0000000001
 40
0.0
 40
0.0
 40
0.0
 40
0.0
 40
0.12605686
 40
0.2519680995
 40
0.3776186528
 40
0.5029160917000001
 40
0.6278015214
 40
0.7522554676000001
 40
0.8763001429
 40
1.0
 40
1.0
 40
1.0
 40
1.0
 10
38.54878271769999
 20
20.29923216030001
 30
0.0
 10
38.54655589270001
 20
20.16968939610004
 30
0.0
 10
38.52211910520001
 20
19.91065433150004
 30
0.0
 10
38.42642264510002
 20
19.5330040905
 30
0.0
 10
38.2740779925
 20
19.17518113020002
 30
0.0
 10
38.06887772740001
 20
18.84607576570001
 30
0.0
 10
37.81592117060001
 20
18.55369580100006
 30
0.0
 10
37.52142555490002
 20
18.30514441450002
 30
0.0
 10
37.19274858330002
 20
18.10646309800002
 30
0.0
 10
36.95563508180001
 20
18.01023935970004
 30
0.0
 10
36.83440760910003
 20
17.97192073060002
 30
0.0
  0
SPLINE
  5
59C0D
330
1F
100
AcDbEntity
  8
1
100
AcDbSpline
210
0.0
220
0.0
230
1.0
 70
     8
 71
     3
 72
    15
 73
    11
 74
     0
 42
0.0000000001
 43
0.0000000001
 40
0.0
 40
0.0
 40
0.0
 40
0.0
 40
0.1236745748
 40
0.2477063826
 40
0.3721608072
 40
0.4970584386
 40
0.6223745347000002
 40
0.7480421420000001
 40
0.8739592626
 40
1.0
 40
1.0
 40
1.0
 40
1.0
 10
36.83440760910003
 20
22.71345245270004
 30
0.0
 10
36.95901616390003
 20
22.67406510200004
 30
0.0
 10
37.20260325120003
 20
22.57458510860005
 30
0.0
 10
37.53919732160003
 20
22.36806317170004
 30
0.0
 10
37.83921779160002
 20
22.10916302970006
 30
0.0
 10
38.09474240220001
 20
21.80453805280001
 30
0.0
 10
38.29913647650002
 20
21.46201192810005
 30
0.0
 10
38.447030692
 20
21.09039406880004
 30
0.0
 10
38.53453847430001
 20
20.69944253170004
 30
0.0
 10
38.55107182480003
 20
20.43239810990005
 30
0.0
 10
38.54878271769999
 20
20.29923216030001
 30
0.0
  0
SPLINE
  5
59C0E
330
1F
100
AcDbEntity
  8
1
100
AcDbSpline
210
0.0
220
0.0
230
1.0
 70
     8
 71
     3
 72
    15
 73
    11
 74
     0
 42
0.0000000001
 43
0.0000000001
 40
0.0
 40
0.0
 40
0.0
 40
0.0
 40
0.12605686
 40
0.2519680995
 40
0.3776186528
 40
0.5029160917000001
 40
0.6278015214
 40
0.7522554676000001
 40
0.8763001429
 40
1.0
 40
1.0
 40
1.0
 40
1.0
 10
45.93371593280003
 20
20.16833911200004
 30
0.0
 10
45.93148910779999
 20
20.03879634780002
 30
0.0
 10
45.90705232029998
 20
19.77976128320002
 30
0.0
 10
45.81135586019999
 20
19.40211104220002
 30
0.0
 10
45.65901120769999
 20
19.04428808190005
 30
0.0
 10
45.45381094260003
 20
18.71518271740004
 30
0.0
 10
45.20085438580003
 20
18.42280275280001
 30
0.0
 10
44.90635877010001
 20
18.17425136620002
 30
0.0
 10
44.57768179839999
 20
17.97557004970004
 30
0.0
 10
44.340568297
 20
17.8793463114
 30
0.0
 10
44.2193408242
 20
17.84102768240004
 30
0.0
  0
SPLINE
  5
59C0F
330
1F
100
AcDbEntity
  8
1
100
AcDbSpline
210
0.0
220
0.0
230
1.0
 70
     8
 71
     3
 72
    15
 73
    11
 74
     0
 42
0.0000000001
 43
0.0000000001
 40
0.0
 40
0.0
 40
0.0
 40
0.0
 40
0.1236745748
 40
0.2477063826
 40
0.3721608072
 40
0.4970584386
 40
0.6223745347000002
 40
0.7480421420000001
 40
0.8739592626
 40
1.0
 40
1.0
 40
1.0
 40
1.0
 10
44.21934082429999
 20
22.58255940440006
 30
0.0
 10
44.34394937900001
 20
22.54317205370002
 30
0.0
 10
44.5875364663
 20
22.44369206030001
 30
0.0
 10
44.92413053679999
 20
22.23717012340003
 30
0.0
 10
45.22415100669999
 20
21.97826998150004
 30
0.0
 10
45.47967561740001
 20
21.67364500450002
 30
0.0
 10
45.68406969170001
 20
21.33111887980001
 30
0.0
 10
45.83196390720002
 20
20.95950102050003
 30
0.0
 10
45.91947168949999
 20
20.56854948340003
 30
0.0
 10
45.93600504
 20
20.30150506160004
 30
0.0
 10
45.93371593280003
 20
20.16833911200004
 30
0.0
  0
LINE
  5
59C10
330
1F
100
AcDbEntity
  8
1
100
AcDbLine
 10
50.4176524225017
 20
25.02715234371529
 30
0.0
 11
49.98203173300004
 21
25.04639549250004
 31
0.0
  0
ARC
  5
59C11
102
{ACAD_REACTORS
330
59CC2
102
}
330
1F
100
AcDbEntity
  8
1
100
AcDbCircle
 10
50.4
 20
24.62754204357299
 30
0.0
 40
0.4
100
AcDbArc
 50
0.0
 51
87.47065527341563
  0
LINE
  5
59C12
330
1F
100
AcDbEntity
  8
1
100
AcDbLine
 10
49.13347568160003
 20
25.08262306460003
 30
0.0
 11
49.98203173300004
 21
25.04639549250004
 31
0.0
  0
LINE
  5
59C13
330
1F
100
AcDbEntity
  8
1
100
AcDbLine
 10
48.31010282380001
 20
25.11645923300003
 30
0.0
 11
49.13347568160003
 21
25.08262306460003
 31
0.0
  0
LINE
  5
59C14
330
1F
100
AcDbEntity
  8
1
100
AcDbLine
 10
47.5100765379
 20
25.14800016220005
 30
0.0
 11
48.31010282380001
 21
25.11645923300003
 31
0.0
  0
LINE
  5
59C15
330
1F
100
AcDbEntity
  8
1
100
AcDbLine
 10
46.73174479160002
 20
25.17733325360004
 30
0.0
 11
47.5100765379
 21
25.14800016220005
 31
0.0
  0
LINE
  5
59C16
330
1F
100
AcDbEntity
  8
1
100
AcDbLine
 10
45.97358647889999
 20
25.20453989440006
 30
0.0
 11
46.73174479160002
 21
25.17733325360004
 31
0.0
  0
LINE
  5
59C17
330
1F
100
AcDbEntity
  8
1
100
AcDbLine
 10
45.2342019113
 20
25.22969596040005
 30
0.0
 11
45.97358647889999
 21
25.20453989440006
 31
0.0
  0
LINE
  5
59C18
330
1F
100
AcDbEntity
  8
1
100
AcDbLine
 10
44.51250090100001
 20
25.25286229600005
 30
0.0
 11
45.2342019113
 21
25.22969596040005
 31
0.0
  0
LINE
  5
59C19
330
1F
100
AcDbEntity
  8
1
100
AcDbLine
 10
43.80748826410004
 20
25.27409562160003
 30
0.0
 11
44.51250090100001
 21
25.25286229600005
 31
0.0
  0
LINE
  5
59C1A
330
1F
100
AcDbEntity
  8
1
100
AcDbLine
 10
43.11831848570003
 20
25.29344578100006
 30
0.0
 11
43.80748826410004
 21
25.27409562160003
 31
0.0
  0
LINE
  5
59C1B
330
1F
100
AcDbEntity
  8
1
100
AcDbLine
 10
42.44421550800004
 20
25.31095982790004
 30
0.0
 11
43.11831848570003
 21
25.29344578100006
 31
0.0
  0
LINE
  5
59C1C
330
1F
100
AcDbEntity
  8
1
100
AcDbLine
 10
41.78446535620003
 20
25.32668241350007
 30
0.0
 11
42.44421550800004
 21
25.31095982790004
 31
0.0
  0
LINE
  5
59C1D
330
1F
100
AcDbEntity
  8
1
100
AcDbLine
 10
41.13844199359999
 20
25.34065449330004
 30
0.0
 11
41.78446535620003
 21
25.32668241350007
 31
0.0
  0
LINE
  5
59C1E
330
1F
100
AcDbEntity
  8
1
100
AcDbLine
 10
40.5056213649
 20
25.35291263680003
 30
0.0
 11
41.13844199359999
 21
25.34065449330004
 31
0.0
  0
LINE
  5
59C1F
330
1F
100
AcDbEntity
  8
1
100
AcDbLine
 10
39.8855155759
 20
25.36349237370001
 30
0.0
 11
40.5056213649
 21
25.35291263680003
 31
0.0
  0
LINE
  5
59C20
330
1F
100
AcDbEntity
  8
1
100
AcDbLine
 10
39.27766779830003
 20
25.37242846280003
 30
0.0
 11
39.8855155759
 21
25.36349237370001
 31
0.0
  0
LINE
  5
59C21
330
1F
100
AcDbEntity
  8
1
100
AcDbLine
 10
38.68166771140002
 20
25.37975412470004
 30
0.0
 11
39.27766779830003
 21
25.37242846280003
 31
0.0
  0
LINE
  5
59C22
330
1F
100
AcDbEntity
  8
1
100
AcDbLine
 10
38.09715151710003
 20
25.38550105580006
 30
0.0
 11
38.68166771140002
 21
25.37975412470004
 31
0.0
  0
LINE
  5
59C23
330
1F
100
AcDbEntity
  8
1
100
AcDbLine
 10
37.52377519740003
 20
25.38970078730003
 30
0.0
 11
38.09715151710003
 21
25.38550105580006
 31
0.0
  0
LINE
  5
59C24
330
1F
100
AcDbEntity
  8
1
100
AcDbLine
 10
36.96122742570003
 20
25.39238404660003
 30
0.0
 11
37.52377519740003
 21
25.38970078730003
 31
0.0
  0
LINE
  5
59C25
330
1F
100
AcDbEntity
  8
1
100
AcDbLine
 10
36.40920931070002
 20
25.39358178380004
 30
0.0
 11
36.96122742570003
 21
25.39238404660003
 31
0.0
  0
LINE
  5
59C26
330
1F
100
AcDbEntity
  8
1
100
AcDbLine
 10
35.86744429690003
 20
25.39332468230004
 30
0.0
 11
36.40920931070002
 21
25.39358178380004
 31
0.0
  0
LINE
  5
59C27
330
1F
100
AcDbEntity
  8
1
100
AcDbLine
 10
35.37528985630002
 20
25.39177746620001
 30
0.0
 11
35.86744429690003
 21
25.39332468230004
 31
0.0
  0
LINE
  5
59C28
330
1F
100
AcDbEntity
  8
1
100
AcDbLine
 10
35.33568042720001
 20
25.39164305520003
 30
0.0
 11
35.37528985630002
 21
25.39177746620001
 31
0.0
  0
LINE
  5
59C29
330
1F
100
AcDbEntity
  8
1
100
AcDbLine
 10
34.81367348520001
 20
25.38856769540004
 30
0.0
 11
35.33568042720001
 21
25.39164305520003
 31
0.0
  0
LINE
  5
59C2A
330
1F
100
AcDbEntity
  8
1
100
AcDbLine
 10
34.30117821550002
 20
25.38413031510007
 30
0.0
 11
34.81367348520001
 21
25.38856769540004
 31
0.0
  0
LINE
  5
59C2B
330
1F
100
AcDbEntity
  8
1
100
AcDbLine
 10
34.05235585920002
 20
25.38131058140002
 30
0.0
 11
34.30117821550002
 21
25.38413031510007
 31
0.0
  0
LINE
  5
59C2C
330
1F
100
AcDbEntity
  8
1
100
AcDbLine
 10
34.01278220450001
 20
25.38344922450003
 30
0.0
 11
34.05235585920002
 21
25.38131058140002
 31
0.0
  0
LINE
  5
59C2D
330
1F
100
AcDbEntity
  8
1
100
AcDbLine
 10
28.5425267636
 20
15.52684798960001
 30
0.0
 11
28.97397429010002
 21
15.50808464260004
 31
0.0
  0
LINE
  5
59C2E
330
1F
100
AcDbEntity
  8
1
100
AcDbLine
 10
29.83702181210004
 20
15.47185707040003
 30
0.0
 11
28.97397429010002
 21
15.50808464260004
 31
0.0
  0
LINE
  5
59C2F
330
1F
100
AcDbEntity
  8
1
100
AcDbLine
 10
30.67581134640003
 20
15.43802090210002
 30
0.0
 11
29.83702181210004
 21
15.47185707040003
 31
0.0
  0
LINE
  5
59C30
330
1F
100
AcDbEntity
  8
1
100
AcDbLine
 10
31.49210081300004
 20
15.40647997290003
 30
0.0
 11
30.67581134640003
 21
15.43802090210002
 31
0.0
  0
LINE
  5
59C31
330
1F
100
AcDbEntity
  8
1
100
AcDbLine
 10
32.28747017410004
 20
15.37714688150004
 30
0.0
 11
31.49210081300004
 21
15.40647997290003
 31
0.0
  0
LINE
  5
59C32
330
1F
100
AcDbEntity
  8
1
100
AcDbLine
 10
33.0633731142
 20
15.34994024070001
 30
0.0
 11
32.28747017410004
 21
15.37714688150004
 31
0.0
  0
LINE
  5
59C33
330
1F
100
AcDbEntity
  8
1
100
AcDbLine
 10
33.82114623640004
 20
15.32478417470004
 30
0.0
 11
33.0633731142
 21
15.34994024070001
 31
0.0
  0
LINE
  5
59C34
330
1F
100
AcDbEntity
  8
1
100
AcDbLine
 10
34.56182810350004
 20
15.30161783900004
 30
0.0
 11
33.82114623640004
 21
15.32478417470004
 31
0.0
  0
LINE
  5
59C35
330
1F
100
AcDbEntity
  8
1
100
AcDbLine
 10
35.28636563700005
 20
15.28038451350004
 30
0.0
 11
34.56182810350004
 21
15.30161783900004
 31
0.0
  0
LINE
  5
59C36
330
1F
100
AcDbEntity
  8
1
100
AcDbLine
 10
35.9955615268
 20
15.26103435400006
 30
0.0
 11
35.28636563700005
 21
15.28038451350004
 31
0.0
  0
LINE
  5
59C37
330
1F
100
AcDbEntity
  8
1
100
AcDbLine
 10
36.69015143460004
 20
15.24352030710003
 30
0.0
 11
35.9955615268
 21
15.26103435400006
 31
0.0
  0
LINE
  5
59C38
330
1F
100
AcDbEntity
  8
1
100
AcDbLine
 10
37.37081111060002
 20
15.22779772160004
 30
0.0
 11
36.69015143460004
 21
15.24352030710003
 31
0.0
  0
LINE
  5
59C39
330
1F
100
AcDbEntity
  8
1
100
AcDbLine
 10
38.03813151800003
 20
15.21382564170005
 30
0.0
 11
37.37081111060002
 21
15.22779772160004
 31
0.0
  0
LINE
  5
59C3A
330
1F
100
AcDbEntity
  8
1
100
AcDbLine
 10
38.69260531050003
 20
15.20156749830005
 30
0.0
 11
38.03813151800003
 21
15.21382564170005
 31
0.0
  0
LINE
  5
59C3B
330
1F
100
AcDbEntity
  8
1
100
AcDbLine
 10
39.33469019920003
 20
15.19098776140004
 30
0.0
 11
38.69260531050003
 21
15.20156749830005
 31
0.0
  0
LINE
  5
59C3C
330
1F
100
AcDbEntity
  8
1
100
AcDbLine
 10
39.96481387240002
 20
15.18205167230002
 30
0.0
 11
39.33469019920003
 21
15.19098776140004
 31
0.0
  0
LINE
  5
59C3D
330
1F
100
AcDbEntity
  8
1
100
AcDbLine
 10
40.5833591361
 20
15.17472601030002
 30
0.0
 11
39.96481387240002
 21
15.18205167230002
 31
0.0
  0
LINE
  5
59C3E
330
1F
100
AcDbEntity
  8
1
100
AcDbLine
 10
41.19066390150002
 20
15.16897907930004
 30
0.0
 11
40.5833591361
 21
15.17472601030002
 31
0.0
  0
LINE
  5
59C3F
330
1F
100
AcDbEntity
  8
1
100
AcDbLine
 10
41.78704694679999
 20
15.16477934770002
 30
0.0
 11
41.19066390150002
 21
15.16897907930004
 31
0.0
  0
LINE
  5
59C40
330
1F
100
AcDbEntity
  8
1
100
AcDbLine
 10
42.37279548960001
 20
15.16209608850005
 30
0.0
 11
41.78704694679999
 21
15.16477934770002
 31
0.0
  0
LINE
  5
59C41
330
1F
100
AcDbEntity
  8
1
100
AcDbLine
 10
42.94818470830001
 20
15.16089835130002
 30
0.0
 11
42.37279548960001
 21
15.16209608850005
 31
0.0
  0
LINE
  5
59C42
330
1F
100
AcDbEntity
  8
1
100
AcDbLine
 10
43.51346821330003
 20
15.16115545280001
 30
0.0
 11
42.94818470830001
 21
15.16089835130002
 31
0.0
  0
LINE
  5
59C43
330
1F
100
AcDbEntity
  8
1
100
AcDbLine
 10
44.02749139990001
 20
15.16270266890004
 30
0.0
 11
43.51346821330003
 21
15.16115545280001
 31
0.0
  0
LINE
  5
59C44
330
1F
100
AcDbEntity
  8
1
100
AcDbLine
 10
44.06887587259999
 20
15.16283707990004
 30
0.0
 11
44.02749139990001
 21
15.16270266890004
 31
0.0
  0
LINE
  5
59C45
330
1F
100
AcDbEntity
  8
1
100
AcDbLine
 10
44.6146300654
 20
15.16591243970004
 30
0.0
 11
44.06887587259999
 21
15.16283707990004
 31
0.0
  0
LINE
  5
59C46
330
1F
100
AcDbEntity
  8
1
100
AcDbLine
 10
45.15095416010001
 20
15.17034982000003
 30
0.0
 11
44.6146300654
 21
15.16591243970004
 31
0.0
  0
LINE
  5
59C47
330
1F
100
AcDbEntity
  8
1
100
AcDbLine
 10
45.41154510070003
 20
15.17316955360004
 30
0.0
 11
45.15095416010001
 21
15.17034982000003
 31
0.0
  0
LINE
  5
59C48
330
1F
100
AcDbEntity
  8
1
100
AcDbLine
 10
45.4494681797
 20
15.17103091460001
 30
0.0
 11
45.41154510070003
 21
15.17316955360004
 31
0.0
  0
SPLINE
  5
59C49
330
1F
100
AcDbEntity
  8
1
100
AcDbSpline
210
0.0
220
0.0
230
1.0
 70
     8
 71
     3
 72
     9
 73
     5
 74
     0
 42
0.0000000001
 43
0.0000000001
 40
0.0
 40
0.0
 40
0.0
 40
0.0
 40
0.4961699619
 40
1.0
 40
1.0
 40
1.0
 40
1.0
 10
46.63466249260003
 20
15.97658832760003
 30
0.0
 10
46.59883132460001
 20
15.91924340470003
 30
0.0
 10
46.51182295429999
 20
15.8123530528
 30
0.0
 10
46.40189334280004
 20
15.72939665880005
 30
0.0
 10
46.34265936900002
 20
15.69467033720004
 30
0.0
  0
SPLINE
  5
59C4A
330
1F
100
AcDbEntity
  8
1
100
AcDbSpline
210
0.0
220
0.0
230
1.0
 70
     8
 71
     3
 72
     9
 73
     5
 74
     0
 42
0.0000000001
 43
0.0000000001
 40
0.0
 40
0.0
 40
0.0
 40
0.0
 40
0.5009053941000003
 40
1.0
 40
1.0
 40
1.0
 40
1.0
 10
32.81337728970001
 20
24.57789180750004
 30
0.0
 10
32.8536921779
 20
24.63498203000003
 30
0.0
 10
32.94652535660004
 20
24.74070257040003
 30
0.0
 10
33.05951650480003
 20
24.82459070430002
 30
0.0
 10
33.11959101820003
 20
24.85980979790003
 30
0.0
  0
SPLINE
  5
59C4B
330
1F
100
AcDbEntity
  8
1
100
AcDbSpline
210
0.0
220
0.0
230
1.0
 70
     8
 71
     3
 72
     9
 73
     5
 74
     0
 42
0.0000000001
 43
0.0000000001
 40
0.0
 40
0.0
 40
0.0
 40
0.0
 40
0.4990030289
 40
1.0
 40
1.0
 40
1.0
 40
1.0
 10
28.27398061980003
 20
15.63538041340003
 30
0.0
 10
28.24249834260001
 20
15.66531102730002
 30
0.0
 10
28.18900095460003
 20
15.73623763300003
 30
0.0
 10
28.16129483200001
 20
15.82058986950002
 30
0.0
 10
28.15445330930001
 20
15.86366282240003
 30
0.0
  0
SPLINE
  5
59C4C
330
1F
100
AcDbEntity
  8
1
100
AcDbSpline
210
0.0
220
0.0
230
1.0
 70
     8
 71
     3
 72
     9
 73
     5
 74
     0
 42
0.0000000001
 43
0.0000000001
 40
0.0
 40
0.0
 40
0.0
 40
0.0
 40
0.5009572921000001
 40
1.0
 40
1.0
 40
1.0
 40
1.0
 10
28.27398062020001
 20
15.63538041390003
 30
0.0
 10
28.30763156340001
 20
15.60338802090003
 30
0.0
 10
28.38672165570003
 20
15.55092151510003
 30
0.0
 10
28.47930150089999
 20
15.52978094280001
 30
0.0
 10
28.52550661120003
 20
15.52765035400006
 30
0.0
  0
SPLINE
  5
59C4D
330
1F
100
AcDbEntity
  8
1
100
AcDbSpline
210
0.0
220
0.0
230
1.0
 70
     8
 71
     3
 72
    15
 73
    11
 74
     0
 42
0.0000000001
 43
0.0000000001
 40
0.0
 40
0.0
 40
0.0
 40
0.0
 40
0.1242633073
 40
0.2484648042
 40
0.3728074703
 40
0.4974638851
 40
0.6225393486000002
 40
0.7480500227000002
 40
0.8739206654
 40
1.0
 40
1.0
 40
1.0
 40
1.0
 10
44.21934079779998
 20
22.58255931790003
 30
0.0
 10
44.03942745300002
 20
22.63942696340004
 30
0.0
 10
43.66481393820004
 20
22.71107845830005
 30
0.0
 10
43.09433235200001
 20
22.68426867140002
 30
0.0
 10
42.54497072720002
 20
22.52500412010005
 30
0.0
 10
42.04662190339999
 20
22.24179617510007
 30
0.0
 10
41.62586300130001
 20
21.85001542570004
 30
0.0
 10
41.30514962630002
 20
21.37063706780003
 30
0.0
 10
41.10150705870004
 20
20.82974071970006
 30
0.0
 10
41.05097645560002
 20
20.44654354500003
 30
0.0
 10
41.04768603440001
 20
20.25512740250001
 30
0.0
  0
SPLINE
  5
59C4E
330
1F
100
AcDbEntity
  8
1
100
AcDbSpline
210
0.0
220
0.0
230
1.0
 70
     8
 71
     3
 72
    15
 73
    11
 74
     0
 42
0.0000000001
 43
0.0000000001
 40
0.0
 40
0.0
 40
0.0
 40
0.0
 40
0.1260729474
 40
0.2519576428
 40
0.377489771
 40
0.5025820911
 40
0.6272431568
 40
0.7515765699000001
 40
0.8757587706999997
 40
1.0
 40
1.0
 40
1.0
 40
1.0
 10
33.66275281930001
 20
20.38602045080005
 30
0.0
 10
33.65940038570002
 20
20.19099681190005
 30
0.0
 10
33.69829398320005
 20
19.79893944060004
 30
0.0
 10
33.8903402277
 20
19.24201121910001
 30
0.0
 10
34.20551375280002
 20
18.74568478900004
 30
0.0
 10
34.62647701930001
 20
18.33796493270002
 30
0.0
 10
35.12992236840001
 20
18.04150334080005
 30
0.0
 10
35.68799581970001
 20
17.87299838140004
 30
0.0
 10
36.26918005339999
 20
17.84180586720004
 30
0.0
 10
36.65112726110002
 20
17.91398713630004
 30
0.0
 10
36.8344074872
 20
17.97192089930004
 30
0.0
  0
SPLINE
  5
59C4F
330
1F
100
AcDbEntity
  8
1
100
AcDbSpline
210
0.0
220
0.0
230
1.0
 70
     8
 71
     3
 72
    27
 73
    23
 74
     0
 42
0.0000000001
 43
0.0000000001
 40
0.0
 40
0.0
 40
0.0
 40
0.0
 40
0.0629521917
 40
0.0944453447
 40
0.1259138081
 40
0.1886748095
 40
0.2512665646999999
 40
0.2825302162
 40
0.3137474903
 40
0.3759775664
 40
0.43807047
 40
0.5000854596000001
 40
0.5620938876000002
 40
0.6241681273
 40
0.6863703304000001
 40
0.7175715783
 40
0.7488185878
 40
0.8113776532999999
 40
0.8741110176000001
 40
0.9055689423
 40
0.9370542709
 40
1.0
 40
1.0
 40
1.0
 40
1.0
 10
33.0888185908
 20
20.39473469510006
 30
0.0
 10
33.08546951710003
 20
20.19990651470005
 30
0.0
 10
33.10886758740006
 20
19.90609782160004
 30
0.0
 10
33.1958226397
 20
19.52573076890002
 30
0.0
 10
33.31892618990003
 20
19.15597879460002
 30
0.0
 10
33.5388557311
 20
18.71960750680002
 30
0.0
 10
33.83895749150003
 20
18.33468971640001
 30
0.0
 10
34.11959835249999
 20
18.06721285620002
 30
0.0
 10
34.42421864920002
 20
17.829239488
 30
0.0
 10
34.84613854770001
 20
17.59032645940004
 30
0.0
 10
35.39779764070002
 20
17.40959379270003
 30
0.0
 10
35.9737325104
 20
17.34161055970003
 30
0.0
 10
36.55165904270001
 20
17.38913065760005
 30
0.0
 10
37.1092098163
 20
17.55019738800001
 30
0.0
 10
37.5391118563
 20
17.77402136420004
 30
0.0
 10
37.85173551070002
 20
18.00106141840003
 30
0.0
 10
38.14140233460003
 20
18.25843305210002
 30
0.0
 10
38.45456343550003
 20
18.63249962000002
 30
0.0
 10
38.68935157040002
 20
19.06081402060005
 30
0.0
 10
38.82508268780004
 20
19.42596794830004
 30
0.0
 10
38.92506138490001
 20
19.80304231280001
 30
0.0
 10
38.95853604230004
 20
20.09583030880003
 30
0.0
 10
38.96188477220002
 20
20.29063848830006
 30
0.0
  0
SPLINE
  5
59C50
330
1F
100
AcDbEntity
  8
1
100
AcDbSpline
210
0.0
220
0.0
230
1.0
 70
     8
 71
     3
 72
    27
 73
    23
 74
     0
 42
0.0000000001
 43
0.0000000001
 40
0.0
 40
0.0
 40
0.0
 40
0.0
 40
0.0629521917
 40
0.0944453447
 40
0.1259138081
 40
0.1886748095
 40
0.2512665646999999
 40
0.2825302162
 40
0.3137474903
 40
0.3759775664
 40
0.43807047
 40
0.5000854596000001
 40
0.5620938876000002
 40
0.6241681273
 40
0.6863703304000001
 40
0.7175715783
 40
0.7488185878
 40
0.8113776532999999
 40
0.8741110176000001
 40
0.9055689423
 40
0.9370542709
 40
1.0
 40
1.0
 40
1.0
 40
1.0
 10
38.96188477220002
 20
20.29063848830006
 30
0.0
 10
38.9652338459
 20
20.48546666860003
 30
0.0
 10
38.9418357756
 20
20.77927536180005
 30
0.0
 10
38.85488072330003
 20
21.15964241450004
 30
0.0
 10
38.73177717300004
 20
21.52939438870001
 30
0.0
 10
38.51184763190003
 20
21.96576567660003
 30
0.0
 10
38.2117458715
 20
22.35068346700004
 30
0.0
 10
37.93110501050004
 20
22.61816032710001
 30
0.0
 10
37.62648471370003
 20
22.85613369540005
 30
0.0
 10
37.20456481530002
 20
23.09504672400004
 30
0.0
 10
36.65290572220002
 20
23.27577939060004
 30
0.0
 10
36.07697085250001
 20
23.34376262370003
 30
0.0
 10
35.4990443202
 20
23.29624252580004
 30
0.0
 10
34.94149354670003
 20
23.13517579530003
 30
0.0
 10
34.51159150670003
 20
22.91135181910002
 30
0.0
 10
34.19896785220001
 20
22.68431176500002
 30
0.0
 10
33.90930102830001
 20
22.42694013120001
 30
0.0
 10
33.5961399274
 20
22.05287356340003
 30
0.0
 10
33.36135179249999
 20
21.62455916280001
 30
0.0
 10
33.22562067519999
 20
21.25940523510005
 30
0.0
 10
33.12564197810002
 20
20.88233087050003
 30
0.0
 10
33.0921673206
 20
20.58954287460003
 30
0.0
 10
33.0888185908
 20
20.39473469510006
 30
0.0
  0
SPLINE
  5
59C51
330
1F
100
AcDbEntity
  8
1
100
AcDbSpline
210
0.0
220
0.0
230
1.0
 70
     8
 71
     3
 72
    27
 73
    23
 74
     0
 42
0.0000000001
 43
0.0000000001
 40
0.0
 40
0.0
 40
0.0
 40
0.0
 40
0.0629521917
 40
0.0944453447
 40
0.1259138081
 40
0.1886748095
 40
0.2512665646999999
 40
0.2825302162
 40
0.3137474903
 40
0.3759775664
 40
0.43807047
 40
0.5000854596000001
 40
0.5620938876000002
 40
0.6241681273
 40
0.6863703304000001
 40
0.7175715783
 40
0.7488185878
 40
0.8113776532999999
 40
0.8741110176000001
 40
0.9055689423
 40
0.9370542709
 40
1.0
 40
1.0
 40
1.0
 40
1.0
 10
40.47375180590001
 20
20.26384164680004
 30
0.0
 10
40.4704027322
 20
20.06901346640004
 30
0.0
 10
40.49380080249997
 20
19.77520477330005
 30
0.0
 10
40.58075585480003
 20
19.39483772060004
 30
0.0
 10
40.70385940510002
 20
19.02508574630005
 30
0.0
 10
40.92378894620003
 20
18.58871445850005
 30
0.0
 10
41.22389070660003
 20
18.20379666810004
 30
0.0
 10
41.50453156760002
 20
17.93631980790005
 30
0.0
 10
41.80915186440003
 20
17.69834643970002
 30
0.0
 10
42.23107176279998
 20
17.45943341110003
 30
0.0
 10
42.78273085589998
 20
17.27870074440005
 30
0.0
 10
43.35866572560004
 20
17.21071751140001
 30
0.0
 10
43.9365922579
 20
17.25823760930004
 30
0.0
 10
44.4941430314
 20
17.41930433970003
 30
0.0
 10
44.92404507140003
 20
17.64312831590003
 30
0.0
 10
45.23666872589998
 20
17.87016837010006
 30
0.0
 10
45.52633554980002
 20
18.12754000390004
 30
0.0
 10
45.83949665070003
 20
18.50160657170004
 30
0.0
 10
46.07428478560001
 20
18.92992097230004
 30
0.0
 10
46.21001590290001
 20
19.29507490000002
 30
0.0
 10
46.3099946
 20
19.67214926460001
 30
0.0
 10
46.3434692575
 20
19.96493726050001
 30
0.0
 10
46.34681798730002
 20
20.15974544000002
 30
0.0
  0
SPLINE
  5
59C52
330
1F
100
AcDbEntity
  8
1
100
AcDbSpline
210
0.0
220
0.0
230
1.0
 70
     8
 71
     3
 72
    27
 73
    23
 74
     0
 42
0.0000000001
 43
0.0000000001
 40
0.0
 40
0.0
 40
0.0
 40
0.0
 40
0.0629521917
 40
0.0944453447
 40
0.1259138081
 40
0.1886748095
 40
0.2512665646999999
 40
0.2825302162
 40
0.3137474903
 40
0.3759775664
 40
0.43807047
 40
0.5000854596000001
 40
0.5620938876000002
 40
0.6241681273
 40
0.6863703304000001
 40
0.7175715783
 40
0.7488185878
 40
0.8113776532999999
 40
0.8741110176000001
 40
0.9055689423
 40
0.9370542709
 40
1.0
 40
1.0
 40
1.0
 40
1.0
 10
46.34681798730002
 20
20.15974544000002
 30
0.0
 10
46.350167061
 20
20.35457362040002
 30
0.0
 10
46.32676899070003
 20
20.64838231350006
 30
0.0
 10
46.2398139384
 20
21.02874936620003
 30
0.0
 10
46.11671038820003
 20
21.39850134050001
 30
0.0
 10
45.896780847
 20
21.83487262830005
 30
0.0
 10
45.59667908660003
 20
22.21979041870003
 30
0.0
 10
45.31603822560001
 20
22.48726727890002
 30
0.0
 10
45.01141792890002
 20
22.72524064710001
 30
0.0
 10
44.58949803039999
 20
22.96415367570003
 30
0.0
 10
44.03783893739998
 20
23.14488634240004
 30
0.0
 10
43.4619040677
 20
23.21286957540005
 30
0.0
 10
42.88397753539999
 20
23.16534947750003
 30
0.0
 10
42.32642676180001
 20
23.00428274710004
 30
0.0
 10
41.89652472179997
 20
22.78045877090002
 30
0.0
 10
41.58390106739997
 20
22.55341871670006
 30
0.0
 10
41.29423424350003
 20
22.29604708290003
 30
0.0
 10
40.98107314260002
 20
21.92198051510005
 30
0.0
 10
40.74628500770001
 20
21.49366611450002
 30
0.0
 10
40.61055389029999
 20
21.12851218680004
 30
0.0
 10
40.51057519320003
 20
20.75143782220004
 30
0.0
 10
40.47710053580002
 20
20.45864982630005
 30
0.0
 10
40.47375180590001
 20
20.26384164680004
 30
0.0
  0
SPLINE
  5
59C53
330
1F
100
AcDbEntity
  8
1
100
AcDbSpline
210
0.0
220
0.0
230
1.0
 70
     8
 71
     3
 72
    15
 73
    11
 74
     0
 42
0.0000000001
 43
0.0000000001
 40
0.0
 40
0.0
 40
0.0
 40
0.0
 40
0.1260729474
 40
0.2519576428
 40
0.377489771
 40
0.5025820911
 40
0.6272431568
 40
0.7515765699000001
 40
0.8757587706999997
 40
1.0
 40
1.0
 40
1.0
 40
1.0
 10
41.04768603440001
 20
20.25512740250001
 30
0.0
 10
41.0443336008
 20
20.06010376360004
 30
0.0
 10
41.08322719830002
 20
19.66804639230003
 30
0.0
 10
41.27527344289998
 20
19.11111817080004
 30
0.0
 10
41.59044696789999
 20
18.61479174070003
 30
0.0
 10
42.01141023440001
 20
18.20707188440004
 30
0.0
 10
42.5148555835
 20
17.91061029250001
 30
0.0
 10
43.07292903480004
 20
17.74210533310005
 30
0.0
 10
43.65411326850002
 20
17.71091281890003
 30
0.0
 10
44.03606047630001
 20
17.783094088
 30
0.0
 10
44.21934070239998
 20
17.84102785100006
 30
0.0
  0
SPLINE
  5
59C54
330
1F
100
AcDbEntity
  8
1
100
AcDbSpline
210
0.0
220
0.0
230
1.0
 70
     8
 71
     3
 72
    15
 73
    11
 74
     0
 42
0.0000000001
 43
0.0000000001
 40
0.0
 40
0.0
 40
0.0
 40
0.0
 40
0.1242633073
 40
0.2484648042
 40
0.3728074703
 40
0.4974638851
 40
0.6225393486000002
 40
0.7480500227000002
 40
0.8739206654
 40
1.0
 40
1.0
 40
1.0
 40
1.0
 10
36.83440758260002
 20
22.71345236620001
 30
0.0
 10
36.65449423780004
 20
22.77032001170005
 30
0.0
 10
36.27988072300005
 20
22.84197150660003
 30
0.0
 10
35.70939913679999
 20
22.81516171970006
 30
0.0
 10
35.160037512
 20
22.65589716840003
 30
0.0
 10
34.66168868820003
 20
22.37268922330006
 30
0.0
 10
34.2409297861
 20
21.98090847400004
 30
0.0
 10
33.9202164111
 20
21.50153011610004
 30
0.0
 10
33.71657384350001
 20
20.96063376790004
 30
0.0
 10
33.6660432404
 20
20.57743659320001
 30
0.0
 10
33.66275281930001
 20
20.38602045080005
 30
0.0
  0
SPLINE
  5
59C55
330
1F
100
AcDbEntity
  8
1
100
AcDbSpline
210
0.0
220
0.0
230
1.0
 70
     8
 71
     3
 72
     9
 73
     5
 74
     0
 42
0.0000000001
 43
0.0000000001
 40
0.0
 40
0.0
 40
0.0
 40
0.0
 40
0.2457385327
 40
1.0
 40
1.0
 40
1.0
 40
1.0
 10
50.79999885560003
 20
-15.26996221399997
 30
0.0
 10
50.79999885000001
 20
-15.26619036029995
 30
0.0
 10
50.79957216580002
 20
-15.25084294709995
 30
0.0
 10
50.79744729630002
 20
-15.23555355209996
 30
0.0
 10
50.79501202600003
 20
-15.22423538109996
 30
0.0
  0
SPLINE
  5
59C56
330
1F
100
AcDbEntity
  8
1
100
AcDbSpline
210
0.0
220
0.0
230
1.0
 70
     8
 71
     3
 72
     9
 73
     5
 74
     0
 42
0.0000000001
 43
0.0000000001
 40
0.0
 40
0.0
 40
0.0
 40
0.0
 40
0.2811534708
 40
1.0
 40
1.0
 40
1.0
 40
1.0
 10
49.77048596860001
 20
-10.75964490749996
 30
0.0
 10
49.78347444550002
 20
-10.77305017009996
 30
0.0
 10
49.82723653439999
 20
-10.82271191179998
 30
0.0
 10
49.86101180550003
 20
-10.88337998579996
 30
0.0
 10
49.87105049870004
 20
-10.93003577309997
 30
0.0
  0
LINE
  5
59C57
330
1F
100
AcDbEntity
  8
1
100
AcDbLine
 10
50.40679081440001
 20
-16.26891117409997
 30
0.0
 11
49.98203173300004
 21
-16.19649485029995
 31
0.0
  0
SPLINE
  5
59C58
330
1F
100
AcDbEntity
  8
1
100
AcDbSpline
210
0.0
220
0.0
230
1.0
 70
     8
 71
     3
 72
     8
 73
     4
 74
     0
 42
0.0000000001
 43
0.0000000001
 40
0.0
 40
0.0
 40
0.0
 40
0.0
 40
1.0
 40
1.0
 40
1.0
 40
1.0
 10
35.37528985630002
 20
-13.00740851369997
 30
0.0
 10
35.5393002797
 20
-13.05132911539996
 30
0.0
 10
35.70335207700001
 20
-13.09509549969996
 30
0.0
 10
35.86744429690003
 20
-13.13870950719996
 30
0.0
  0
LINE
  5
59C59
330
1F
100
AcDbEntity
  8
1
100
AcDbLine
 10
35.33568042720001
 20
-12.99679823569997
 30
0.0
 11
35.37528985630002
 21
-13.00740851369997
 31
0.0
  0
SPLINE
  5
59C5A
330
1F
100
AcDbEntity
  8
1
100
AcDbSpline
210
0.0
220
0.0
230
1.0
 70
     8
 71
     3
 72
     8
 73
     4
 74
     0
 42
0.0000000001
 43
0.0000000001
 40
0.0
 40
0.0
 40
0.0
 40
0.0
 40
1.0
 40
1.0
 40
1.0
 40
1.0
 10
34.81367348520001
 20
-12.85541804349995
 30
0.0
 10
34.98762923929999
 20
-12.90271634839996
 30
0.0
 10
35.16163188890002
 20
-12.94984250809997
 30
0.0
 10
35.33568042720001
 20
-12.99679823569997
 30
0.0
  0
SPLINE
  5
59C5B
330
1F
100
AcDbEntity
  8
1
100
AcDbSpline
210
0.0
220
0.0
230
1.0
 70
     8
 71
     3
 72
     8
 73
     4
 74
     0
 42
0.0000000001
 43
0.0000000001
 40
0.0
 40
0.0
 40
0.0
 40
0.0
 40
1.0
 40
1.0
 40
1.0
 40
1.0
 10
34.30117821550002
 20
-12.71460275479995
 30
0.0
 10
34.47196482030003
 20
-12.76170520519994
 30
0.0
 10
34.6427969186
 20
-12.80864300519995
 30
0.0
 10
34.81367348520001
 20
-12.85541804349995
 30
0.0
  0
LINE
  5
59C5C
330
1F
100
AcDbEntity
  8
1
100
AcDbLine
 10
34.05235585920002
 20
-12.64539770569996
 30
0.0
 11
34.30117821550002
 21
-12.71460275479995
 31
0.0
  0
LINE
  5
59C5D
330
1F
100
AcDbEntity
  8
1
100
AcDbLine
 10
34.01278220450001
 20
-12.64460337659997
 30
0.0
 11
34.05235585920002
 21
-12.64539770569996
 31
0.0
  0
SPLINE
  5
59C5E
330
1F
100
AcDbEntity
  8
1
100
AcDbSpline
210
0.0
220
0.0
230
1.0
 70
     8
 71
     3
 72
     9
 73
     5
 74
     0
 42
0.0000000001
 43
0.0000000001
 40
0.0
 40
0.0
 40
0.0
 40
0.0
 40
0.4578758105
 40
1.0
 40
1.0
 40
1.0
 40
1.0
 10
32.81337728970001
 20
-12.09465368689996
 30
0.0
 10
32.858721807
 20
-12.12046148899997
 30
0.0
 10
32.95977265339999
 20
-12.17328309539996
 30
0.0
 10
33.06316995170002
 20
-12.22123579979995
 30
0.0
 10
33.11959101820003
 20
-12.24639011999997
 30
0.0
  0
SPLINE
  5
59C5F
330
1F
100
AcDbEntity
  8
1
100
AcDbSpline
210
0.0
220
0.0
230
1.0
 70
     8
 71
     3
 72
    10
 73
     6
 74
     0
 42
0.0000000001
 43
0.0000000001
 40
0.0
 40
0.0
 40
0.0
 40
0.0
 40
0.2224119024
 40
0.4664264278
 40
1.0
 40
1.0
 40
1.0
 40
1.0
 10
50.67544164210002
 20
-16.25540385249997
 30
0.0
 10
50.65754383920003
 20
-16.26117629869995
 30
0.0
 10
50.6190241468
 20
-16.27031638679997
 30
0.0
 10
50.53487459990001
 20
-16.27976077919997
 30
0.0
 10
50.46865593629997
 20
-16.27666147659997
 30
0.0
 10
50.42391489370001
 20
-16.27086174929997
 30
0.0
  0
SPLINE
  5
59C60
330
1F
100
AcDbEntity
  8
1
100
AcDbSpline
210
0.0
220
0.0
230
1.0
 70
     8
 71
     3
 72
    11
 73
     7
 74
     0
 42
0.0000000001
 43
0.0000000001
 40
0.0
 40
0.0
 40
0.0
 40
0.0
 40
0.2106635093
 40
0.4422293145000002
 40
0.7040181703
 40
1.0
 40
1.0
 40
1.0
 40
1.0
 10
50.79497018240002
 20
-16.15951197919997
 30
0.0
 10
50.7914455211
 20
-16.17006932139995
 30
0.0
 10
50.78019347470001
 20
-16.19107067329997
 30
0.0
 10
50.7535298288
 20
-16.21757978299996
 30
0.0
 10
50.71784108750001
 20
-16.23967543189997
 30
0.0
 10
50.69032458980004
 20
-16.25060376569996
 30
0.0
 10
50.67544164239999
 20
-16.25540385289994
 30
0.0
  0
SPLINE
  5
59C61
330
1F
100
AcDbEntity
  8
1
100
AcDbSpline
210
0.0
220
0.0
230
1.0
 70
     8
 71
     3
 72
    16
 73
    12
 74
     0
 42
0.0000000001
 43
0.0000000001
 40
0.0
 40
0.0
 40
0.0
 40
0.0
 40
0.0621644779
 40
0.0938199478
 40
0.1253062833
 40
0.2506100422
 40
0.3756447696
 40
0.5005796062
 40
0.6254661861999999
 40
0.7503259392000004
 40
1.0
 40
1.0
 40
1.0
 40
1.0
 10
50.41175178850003
 20
-16.20984386249998
 30
0.0
 10
50.41431761440003
 20
-16.20992356839997
 30
0.0
 10
50.41678409340002
 20
-16.20510346159997
 30
0.0
 10
50.41792466929999
 20
-16.20037186789994
 30
0.0
 10
50.41933126660004
 20
-16.19260636959996
 30
0.0
 10
50.42005889070003
 20
-16.18103737849995
 30
0.0
 10
50.42024990640001
 20
-16.16551842789997
 30
0.0
 10
50.41989787800003
 20
-16.15004607389997
 30
0.0
 10
50.41923057070002
 20
-16.13458609459996
 30
0.0
 10
50.41802787190002
 20
-16.11399767819998
 30
0.0
 10
50.41686634269999
 20
-16.09857377129995
 30
0.0
 10
50.41601882880001
 20
-16.08829844789994
 30
0.0
  0
SPLINE
  5
59C62
330
1F
100
AcDbEntity
  8
1
100
AcDbSpline
210
0.0
220
0.0
230
1.0
 70
     8
 71
     3
 72
     9
 73
     5
 74
     0
 42
0.0000000001
 43
0.0000000001
 40
0.0
 40
0.0
 40
0.0
 40
0.0
 40
0.5001822891
 40
1.0
 40
1.0
 40
1.0
 40
1.0
 10
50.41601882880001
 20
-16.08829844789994
 30
0.0
 10
50.41672641560001
 20
-16.06794346579997
 30
0.0
 10
50.41604692609999
 20
-16.02718844759997
 30
0.0
 10
50.41388377999999
 20
-15.98652932719997
 30
0.0
 10
50.4125721792
 20
-15.96621920219996
 30
0.0
  0
SPLINE
  5
59C63
330
1F
100
AcDbEntity
  8
1
100
AcDbSpline
210
0.0
220
0.0
230
1.0
 70
     8
 71
     3
 72
     8
 73
     4
 74
     0
 42
0.0000000001
 43
0.0000000001
 40
0.0
 40
0.0
 40
0.0
 40
0.0
 40
1.0
 40
1.0
 40
1.0
 40
1.0
 10
50.4125721792
 20
-15.96621920219996
 30
0.0
 10
50.41268022870003
 20
-15.92541809499997
 30
0.0
 10
50.41094360630001
 20
-15.88461426299997
 30
0.0
 10
50.40861831850003
 20
-15.84387932639996
 30
0.0
  0
SPLINE
  5
59C64
330
1F
100
AcDbEntity
  8
1
100
AcDbSpline
210
0.0
220
0.0
230
1.0
 70
     8
 71
     3
 72
     8
 73
     4
 74
     0
 42
0.0000000001
 43
0.0000000001
 40
0.0
 40
0.0
 40
0.0
 40
0.0
 40
1.0
 40
1.0
 40
1.0
 40
1.0
 10
50.40861831850003
 20
-15.84387932639996
 30
0.0
 10
50.40821026340001
 20
-15.80300925499997
 30
0.0
 10
50.4065761468
 20
-15.76214954049996
 30
0.0
 10
50.4043906224
 20
-15.72133590639995
 30
0.0
  0
SPLINE
  5
59C65
330
1F
100
AcDbEntity
  8
1
100
AcDbSpline
210
0.0
220
0.0
230
1.0
 70
     8
 71
     3
 72
     8
 73
     4
 74
     0
 42
0.0000000001
 43
0.0000000001
 40
0.0
 40
0.0
 40
0.0
 40
0.0
 40
1.0
 40
1.0
 40
1.0
 40
1.0
 10
50.4043906224
 20
-15.72133590639995
 30
0.0
 10
50.40367472329998
 20
-15.68041621339997
 30
0.0
 10
50.40204024940002
 20
-15.63951030599994
 30
0.0
 10
50.39991023169998
 20
-15.59863981769996
 30
0.0
  0
SPLINE
  5
59C66
330
1F
100
AcDbEntity
  8
1
100
AcDbSpline
210
0.0
220
0.0
230
1.0
 70
     8
 71
     3
 72
     9
 73
     5
 74
     0
 42
0.0000000001
 43
0.0000000001
 40
0.0
 40
0.0
 40
0.0
 40
0.0
 40
0.2551181422
 40
1.0
 40
1.0
 40
1.0
 40
1.0
 10
49.87105049870004
 20
-10.93003577309997
 30
0.0
 10
49.87187418010003
 20
-10.93386391149997
 30
0.0
 10
49.87472997830002
 20
-10.94894594219997
 30
0.0
 10
49.87603734539999
 20
-10.96432996749996
 30
0.0
 10
49.87603734539999
 20
-10.97576298739997
 30
0.0
  0
SPLINE
  5
59C67
330
1F
100
AcDbEntity
  8
1
100
AcDbSpline
210
0.0
220
0.0
230
1.0
 70
     8
 71
     3
 72
    21
 73
    17
 74
     0
 42
0.0000000001
 43
0.0000000001
 40
0.0
 40
0.0
 40
0.0
 40
0.0
 40
0.0295005336
 40
0.059497146
 40
0.0899751206
 40
0.1207894214
 40
0.1829339752
 40
0.2454874211
 40
0.3082208771999999
 40
0.3710431067
 40
0.4339113151
 40
0.4968036473
 40
0.6226097164
 40
0.7484227051000003
 40
0.8742221448
 40
1.0
 40
1.0
 40
1.0
 40
1.0
 10
33.11959101820003
 20
-12.24639011999997
 30
0.0
 10
33.11128263999999
 20
-12.24268597859995
 30
0.0
 10
33.09559788170003
 20
-12.23254982169996
 30
0.0
 10
33.07725604200002
 20
-12.21137050899997
 30
0.0
 10
33.06364141
 20
-12.18656124879996
 30
0.0
 10
33.05051712510002
 20
-12.15073044079997
 30
0.0
 10
33.0413167815
 20
-12.10341735589998
 30
0.0
 10
33.03706768940003
 20
-12.04572041829996
 30
0.0
 10
33.03726844570002
 20
-11.98767143909995
 30
0.0
 10
33.04061575470001
 20
-11.92964741419996
 30
0.0
 10
33.04631680770001
 20
-11.87176394329998
 30
0.0
 10
33.0563764977
 20
-11.79483694679996
 30
0.0
 10
33.07263477350003
 20
-11.69919298099995
 30
0.0
 10
33.09622216990002
 20
-11.58521248219996
 30
0.0
 10
33.12288594440005
 20
-11.47192588349995
 30
0.0
 10
33.14227676109999
 20
-11.39680724459995
 30
0.0
 10
33.15230130290002
 20
-11.35934068109995
 30
0.0
  0
SPLINE
  5
59C68
330
1F
100
AcDbEntity
  8
1
100
AcDbSpline
210
0.0
220
0.0
230
1.0
 70
     8
 71
     3
 72
    11
 73
     7
 74
     0
 42
0.0000000001
 43
0.0000000001
 40
0.0
 40
0.0
 40
0.0
 40
0.0
 40
0.2503191345
 40
0.5003749805
 40
0.7502529194
 40
1.0
 40
1.0
 40
1.0
 40
1.0
 10
50.33709653570003
 20
-14.40527155809997
 30
0.0
 10
50.3434771592
 20
-14.33334425079996
 30
0.0
 10
50.34775729750001
 20
-14.18879911239997
 30
0.0
 10
50.33826895339998
 20
-13.97247393069998
 30
0.0
 10
50.31662034660005
 20
-13.75720106479997
 30
0.0
 10
50.29551780560002
 20
-13.61457302619996
 30
0.0
 10
50.28342040280003
 20
-13.54355121449996
 30
0.0
  0
SPLINE
  5
59C69
330
1F
100
AcDbEntity
  8
1
100
AcDbSpline
210
0.0
220
0.0
230
1.0
 70
     8
 71
     3
 72
     8
 73
     4
 74
     0
 42
0.0000000001
 43
0.0000000001
 40
0.0
 40
0.0
 40
0.0
 40
0.0
 40
0.1443965822298203
 40
0.1443965822298203
 40
0.1443965822298203
 40
0.1443965822298203
 10
32.115413652
 20
-11.87818512559997
 30
0.0
 10
32.15310712658555
 20
-11.83866825418138
 30
0.0
 10
32.19265052029721
 20
-11.80084171052841
 30
0.0
 10
32.23379411098262
 20
-11.7647392903723
 30
0.0
  0
SPLINE
  5
59C6A
330
1F
100
AcDbEntity
  8
1
100
AcDbSpline
210
0.0
220
0.0
230
1.0
 70
     8
 71
     3
 72
     9
 73
     5
 74
     0
 42
0.0000000001
 43
0.0000000001
 40
0.1443965822298203
 40
0.1443965822298203
 40
0.1443965822298203
 40
0.1443965822298203
 40
0.4915978856
 40
1.0
 40
1.0
 40
1.0
 40
1.0
 10
32.23379411098262
 20
-11.7647392903723
 30
0.0
 10
32.33272379540253
 20
-11.67793109076362
 30
0.0
 10
32.59931374009787
 20
-11.48857535978475
 30
0.0
 10
32.90100460460002
 20
-11.36260675869997
 30
0.0
 10
33.08552820170002
 20
-11.30854862359996
 30
0.0
  0
SPLINE
  5
59C6B
330
1F
100
AcDbEntity
  8
1
100
AcDbSpline
210
0.0
220
0.0
230
1.0
 70
     8
 71
     3
 72
    33
 73
    29
 74
     0
 42
0.0000000001
 43
0.0000000001
 40
0.0
 40
0.0
 40
0.0
 40
0.0
 40
0.0625169301
 40
0.1250603539
 40
0.1876152074
 40
0.2501687099
 40
0.2814526083
 40
0.3127341013
 40
0.3440130879
 40
0.3752891225
 40
0.4065584487
 40
0.4378105470000003
 40
0.4690181185000001
 40
0.4846424038000002
 40
0.5002560900999999
 40
0.5158600652000001
 40
0.5314569004000002
 40
0.5625779522
 40
0.5937361962
 40
0.6249253288000001
 40
0.6561401159
 40
0.6873767157
 40
0.7186314387000003
 40
0.7499000923
 40
0.8124430359999998
 40
0.8749962624
 40
0.9375256825000001
 40
1.0
 40
1.0
 40
1.0
 40
1.0
 10
39.72867526109999
 20
0.8671210541000391
 30
0.0
 10
39.69835229670002
 20
0.7182288573000335
 30
0.0
 10
39.6253850279
 20
0.422757995200044
 30
0.0
 10
39.48147942010002
 20
-0.0104135613999574
 30
0.0
 10
39.30353547530004
 20
-0.4308897926999578
 30
0.0
 10
39.12540680400002
 20
-0.7673938814999702
 30
0.0
 10
38.96263996230004
 20
-1.024435965699979
 30
0.0
 10
38.82927787390002
 20
-1.209671709399941
 30
0.0
 10
38.68321816880001
 20
-1.385130588299972
 30
0.0
 10
38.5225021636
 20
-1.547405444999981
 30
0.0
 10
38.34454219940003
 20
-1.690911869299981
 30
0.0
 10
38.14681954390002
 20
-1.806237958999957
 30
0.0
 10
37.96403586780002
 20
-1.865439807699942
 30
0.0
 10
37.81230054260002
 20
-1.879324574099968
 30
0.0
 10
37.69820193070004
 20
-1.870990484599957
 30
0.0
 10
37.58725532930001
 20
-1.843352559299972
 30
0.0
 10
37.44771070940001
 20
-1.782912945399971
 30
0.0
 10
37.29304840960003
 20
-1.669732509799956
 30
0.0
 10
37.14213928580003
 20
-1.498435528799973
 30
0.0
 10
37.01913620740001
 20
-1.30639229259998
 30
0.0
 10
36.91871805600002
 20
-1.101743333199976
 30
0.0
 10
36.83670825580001
 20
-0.8890139331999762
 30
0.0
 10
36.77020456210002
 20
-0.6708727848999559
 30
0.0
 10
36.69951505570003
 20
-0.375078139899955
 30
0.0
 10
36.64108352600002
 20
0.0011384955000437
 30
0.0
 10
36.61203298980004
 20
0.4567785835000393
 30
0.0
 10
36.62117383740002
 20
0.9130441360000247
 30
0.0
 10
36.6524116793
 20
1.215686651600037
 30
0.0
 10
36.67451922670003
 20
1.365913682000041
 30
0.0
  0
SPLINE
  5
59C6C
330
1F
100
AcDbEntity
  8
1
100
AcDbSpline
210
0.0
220
0.0
230
1.0
 70
     8
 71
     3
 72
     9
 73
     5
 74
     0
 42
0.0000000001
 43
0.0000000001
 40
0.0
 40
0.0
 40
0.0
 40
0.0
 40
0.2230657886
 40
1.0
 40
1.0
 40
1.0
 40
1.0
 10
32.115413652
 20
24.28354559880003
 30
0.0
 10
32.15138255820003
 20
24.28300376770002
 30
0.0
 10
32.31262592490001
 20
24.28027219300003
 30
0.0
 10
32.4738587645
 20
24.27697711050001
 30
0.0
 10
32.599130129
 20
24.27463376240004
 30
0.0
  0
SPLINE
  5
59C6D
330
1F
100
AcDbEntity
  8
1
100
AcDbSpline
210
0.0
220
0.0
230
1.0
 70
     8
 71
     3
 72
     9
 73
     5
 74
     0
 42
0.0000000001
 43
0.0000000001
 40
0.0
 40
0.0
 40
0.0
 40
0.0
 40
0.4959387933
 40
1.0
 40
1.0
 40
1.0
 40
1.0
 10
24.17153418690003
 20
-11.87654605789995
 30
0.0
 10
24.44919902540002
 20
-11.94818303169998
 30
0.0
 10
25.01607984410004
 20
-12.06645579919995
 30
0.0
 10
25.5910137013
 20
-12.13505516439994
 30
0.0
 10
25.88163490350002
 20
-12.15706610929996
 30
0.0
  0
SPLINE
  5
59C6E
330
1F
100
AcDbEntity
  8
1
100
AcDbSpline
210
0.0
220
0.0
230
1.0
 70
     8
 71
     3
 72
    33
 73
    29
 74
     0
 42
0.0000000001
 43
0.0000000001
 40
0.0
 40
0.0
 40
0.0
 40
0.0
 40
0.0625287892
 40
0.1250808443
 40
0.1876408477
 40
0.2501962118
 40
0.2814797440999999
 40
0.3127605083
 40
0.3440386699
 40
0.3753139903
 40
0.4065833155
 40
0.4378369399000002
 40
0.4690458878000002
 40
0.4846709867000003
 40
0.5002844372000002
 40
0.5158869379
 40
0.5314811712
 40
0.5625936044
 40
0.5937421785
 40
0.6249216965
 40
0.6561282130000004
 40
0.6873578209000001
 40
0.7186072269000002
 40
0.7498723069
 40
0.8124137661
 40
0.8749717826000001
 40
0.9375113251999998
 40
1.0
 40
1.0
 40
1.0
 40
1.0
 10
47.41321059460003
 20
0.7652089970000305
 30
0.0
 10
47.38268902999997
 20
0.6153421526000216
 30
0.0
 10
47.30931738980004
 20
0.3179323969000336
 30
0.0
 10
47.16484793890001
 20
-0.1181661885999574
 30
0.0
 10
46.98643886490001
 20
-0.5416265109999472
 30
0.0
 10
46.8080423142
 20
-0.8807273129999657
 30
0.0
 10
46.64513563620002
 20
-1.139965657899949
 30
0.0
 10
46.5117026201
 20
-1.32692512449995
 30
0.0
 10
46.36558626210001
 20
-1.50420786869995
 30
0.0
 10
46.20478993420002
 20
-1.668426702799962
 30
0.0
 10
46.02663527929999
 20
-1.813993097999968
 30
0.0
 10
45.82844771420002
 20
-1.931405015199942
 30
0.0
 10
45.64477839930001
 20
-1.992033252899972
 30
0.0
 10
45.4920811874
 20
-2.006337917799953
 30
0.0
 10
45.37724591249999
 20
-1.997831417899959
 30
0.0
 10
45.26570847640002
 20
-1.969521813399978
 30
0.0
 10
45.12572731740002
 20
-1.907699520699964
 30
0.0
 10
44.9711942868
 20
-1.792334335499958
 30
0.0
 10
44.82100678320003
 20
-1.618597664399942
 30
0.0
 10
44.69884803490001
 20
-1.424395820499967
 30
0.0
 10
44.5992468217
 20
-1.217816797799969
 30
0.0
 10
44.51796843700001
 20
-1.003317341699982
 30
0.0
 10
44.45210365080001
 20
-0.7835143898999775
 30
0.0
 10
44.38214524510001
 20
-0.4855905396999561
 30
0.0
 10
44.32443777820004
 20
-0.1068323361999717
 30
0.0
 10
44.29604922760003
 20
0.3517786129000342
 30
0.0
 10
44.30573889039999
 20
0.810996979800052
 30
0.0
 10
44.3373297459
 20
1.115602407300059
 30
0.0
 10
44.3596268354
 20
1.266812437700018
 30
0.0
  0
SPLINE
  5
59C6F
330
1F
100
AcDbEntity
  8
1
100
AcDbSpline
210
0.0
220
0.0
230
1.0
 70
     8
 71
     3
 72
     9
 73
     5
 74
     0
 42
0.0000000001
 43
0.0000000001
 40
0.0
 40
0.0
 40
0.0
 40
0.0
 40
0.249975382
 40
1.0
 40
1.0
 40
1.0
 40
1.0
 10
20.58852521380001
 20
-10.95100294889996
 30
0.0
 10
20.88705568170002
 20
-11.02821762369995
 30
0.0
 10
22.08132078430001
 20
-11.33700763599995
 30
0.0
 10
23.27568391700001
 20
-11.64541847769996
 30
0.0
 10
24.17153418690003
 20
-11.87654605789995
 30
0.0
  0
SPLINE
  5
59C70
330
1F
100
AcDbEntity
  8
1
100
AcDbSpline
210
0.0
220
0.0
230
1.0
 70
     8
 71
     3
 72
    11
 73
     7
 74
     0
 42
0.0000000001
 43
0.0000000001
 40
0.0
 40
0.0
 40
0.0
 40
0.0
 40
0.23656626
 40
0.4822753156
 40
0.7370347656999999
 40
1.0
 40
1.0
 40
1.0
 40
1.0
 10
18.67481750390001
 20
-11.10848619749996
 30
0.0
 10
18.81291894360001
 20
-11.03925415919997
 30
0.0
 10
19.10981519170002
 20
-10.92712732059996
 30
0.0
 10
19.58668758230004
 20
-10.84500594939996
 30
0.0
 10
20.08764032150001
 20
-10.84878320629997
 30
0.0
 10
20.42227411910003
 20
-10.90799920889995
 30
0.0
 10
20.58852550110001
 20
-10.95100000039997
 30
0.0
  0
SPLINE
  5
59C71
330
1F
100
AcDbEntity
  8
1
100
AcDbSpline
210
0.0
220
0.0
230
1.0
 70
     8
 71
     3
 72
    10
 73
     6
 74
     0
 42
0.0000000001
 43
0.0000000001
 40
0.0
 40
0.0
 40
0.0
 40
0.0
 40
0.5196052781000004
 40
0.7679138478000001
 40
1.0
 40
1.0
 40
1.0
 40
1.0
 10
20.58852549990001
 20
22.67541138790003
 30
0.0
 10
20.28989398820002
 20
22.56618283780003
 30
0.0
 10
19.84801580510003
 20
22.40622245930004
 30
0.0
 10
19.27199475080002
 20
22.19958070320004
 30
0.0
 10
18.9954035922
 20
22.09995561320003
 30
0.0
 10
18.86193926019999
 20
22.05138154750003
 30
0.0
  0
SPLINE
  5
59C72
330
1F
100
AcDbEntity
  8
1
100
AcDbSpline
210
0.0
220
0.0
230
1.0
 70
     8
 71
     3
 72
    15
 73
    11
 74
     0
 42
0.0000000001
 43
0.0000000001
 40
0.0
 40
0.0
 40
0.0
 40
0.0
 40
0.1759187592
 40
0.3335512889999999
 40
0.4738120064000002
 40
0.5981870271
 40
0.7089876112000001
 40
0.809633891
 40
0.9047852082
 40
1.0
 40
1.0
 40
1.0
 40
1.0
 10
47.23894256660003
 20
-22.38645700509998
 30
0.0
 10
47.19272021370002
 20
-22.49651155179999
 30
0.0
 10
47.1012301469
 20
-22.70361984719997
 30
0.0
 10
46.95549086100001
 20
-22.99042103849997
 30
0.0
 10
46.8067887011
 20
-23.23575543029994
 30
0.0
 10
46.65284008770001
 20
-23.43946309479999
 30
0.0
 10
46.49112694920001
 20
-23.60132147019997
 30
0.0
 10
46.31896365950001
 20
-23.72060335599995
 30
0.0
 10
46.13453199210002
 20
-23.79575197599997
 30
0.0
 10
46.00550384749999
 20
-23.81531700419999
 30
0.0
 10
45.94095753730002
 20
-23.81810778099996
 30
0.0
  0
SPLINE
  5
59C73
330
1F
100
AcDbEntity
  8
1
100
AcDbSpline
210
0.0
220
0.0
230
1.0
 70
     8
 71
     3
 72
     9
 73
     5
 74
     0
 42
0.0000000001
 43
0.0000000001
 40
0.0
 40
0.0
 40
0.0
 40
0.0
 40
0.4779762978
 40
1.0
 40
1.0
 40
1.0
 40
1.0
 10
46.68347009749999
 20
11.43090012940003
 30
0.0
 10
46.78632949550004
 20
11.18613843900004
 30
0.0
 10
46.98304940050002
 20
10.66622980110002
 30
0.0
 10
47.15110760070004
 20
10.13657383410002
 30
0.0
 10
47.23305009590001
 20
9.858430097300008
 30
0.0
  0
SPLINE
  5
59C74
330
1F
100
AcDbEntity
  8
1
100
AcDbSpline
210
0.0
220
0.0
230
1.0
 70
     8
 71
     3
 72
    14
 73
    10
 74
     0
 42
0.0000000001
 43
0.0000000001
 40
0.0
 40
0.0
 40
0.0
 40
0.0
 40
0.3165452465
 40
0.4593128247
 40
0.5909887288000001
 40
0.7111289851000003
 40
0.8194176086
 40
0.9156955444999999
 40
1.0
 40
1.0
 40
1.0
 40
1.0
 10
45.49280005050002
 20
-15.36346905329998
 30
0.0
 10
45.6506853621
 20
-15.73635021189994
 30
0.0
 10
45.88564316430001
 20
-16.27500096339997
 30
0.0
 10
46.2050330922
 20
-16.96026104309996
 30
0.0
 10
46.42727690760003
 20
-17.41350488529995
 30
0.0
 10
46.64014419540001
 20
-17.82208530239995
 30
0.0
 10
46.84341560779998
 20
-18.18442265089995
 30
0.0
 10
47.0370335181
 20
-18.49929178569996
 30
0.0
 10
47.16838776760002
 20
-18.68954151159998
 30
0.0
 10
47.23305009590001
 20
-18.77584927179999
 30
0.0
  0
SPLINE
  5
59C75
330
1F
100
AcDbEntity
  8
1
100
AcDbSpline
210
0.0
220
0.0
230
1.0
 70
     8
 71
     3
 72
    11
 73
     7
 74
     0
 42
0.0000000001
 43
0.0000000001
 40
0.0
 40
0.0
 40
0.0
 40
0.0
 40
0.2821304959
 40
0.5454367892000001
 40
0.7853087256999999
 40
1.0
 40
1.0
 40
1.0
 40
1.0
 10
47.3351492984
 20
9.480714838300059
 30
0.0
 10
47.48478195999999
 20
10.31766371200003
 30
0.0
 10
47.75698767800003
 20
11.93878739380005
 30
0.0
 10
48.11731985070003
 20
14.27779628750001
 30
0.0
 10
48.43948473650002
 20
16.41700272450004
 30
0.0
 10
48.6555314727
 20
17.76979737740004
 30
0.0
 10
48.76554985150002
 20
18.40736146760004
 30
0.0
  0
SPLINE
  5
59C76
330
1F
100
AcDbEntity
  8
1
100
AcDbSpline
210
0.0
220
0.0
230
1.0
 70
     8
 71
     3
 72
    14
 73
    10
 74
     0
 42
0.0000000001
 43
0.0000000001
 40
0.0
 40
0.0
 40
0.0
 40
0.0
 40
0.1008336801
 40
0.2108340954
 40
0.3288953128
 40
0.453829409
 40
0.5844573954
 40
0.7196727702
 40
1.0
 40
1.0
 40
1.0
 40
1.0
 10
47.23305009590001
 20
9.858430097300008
 30
0.0
 10
47.32103034539997
 20
9.546341740200034
 30
0.0
 10
47.48712899950001
 20
8.888720721400034
 30
0.0
 10
47.70576344
 20
7.853754596600026
 30
0.0
 10
47.9074908945
 20
6.736557511700027
 30
0.0
 10
48.09498633290002
 20
5.549743820100047
 30
0.0
 10
48.2713545576
 20
4.305515670100021
 30
0.0
 10
48.49875750320004
 20
2.563947891600037
 30
0.0
 10
48.65822966740001
 20
1.237211025600032
 30
0.0
 10
48.76554985150002
 20
0.342169444900037
 30
0.0
  0
LINE
  5
59C77
330
1F
100
AcDbEntity
  8
1
100
AcDbLine
 10
47.23305009590001
 20
-18.77584927179999
 30
0.0
 11
47.23634668219998
 21
-18.78208598019995
 31
0.0
  0
LINE
  5
59C78
330
1F
100
AcDbEntity
  8
1
100
AcDbLine
 10
48.10498508420002
 20
-10.80207727229995
 30
0.0
 11
48.77206255889999
 21
-10.21736367109994
 31
0.0
  0
SPLINE
  5
59C79
330
1F
100
AcDbEntity
  8
1
100
AcDbSpline
210
0.0
220
0.0
230
1.0
 70
     8
 71
     3
 72
    24
 73
    20
 74
     0
 42
0.0000000001
 43
0.0000000001
 40
0.0
 40
0.0
 40
0.0
 40
0.0
 40
0.2249221885
 40
0.4241870053000003
 40
0.5133486036
 40
0.5952333164
 40
0.6697369218000003
 40
0.7367678658
 40
0.7962052633
 40
0.8479427491999999
 40
0.891903437
 40
0.9280038867
 40
0.9561984697999999
 40
0.9673680308999999
 40
0.976651213
 40
0.9841650113
 40
0.9901559176999999
 40
0.9951365072999999
 40
1.0
 40
1.0
 40
1.0
 40
1.0
 10
44.10249053160001
 20
14.86793351380004
 30
0.0
 10
44.04748168520001
 20
14.78171183460002
 30
0.0
 10
43.95623369720001
 20
14.61077193050001
 30
0.0
 10
43.87565000580003
 20
14.39105869680002
 30
0.0
 10
43.831578455
 20
14.2284784553
 30
0.0
 10
43.80767683800002
 20
14.11936980840001
 30
0.0
 10
43.79018917510001
 20
14.01926825210003
 30
0.0
 10
43.77780157150001
 20
13.92870903060002
 30
0.0
 10
43.76943528699999
 20
13.84809635330003
 30
0.0
 10
43.76425931560001
 20
13.77773536200004
 30
0.0
 10
43.76167390970002
 20
13.71784697920005
 30
0.0
 10
43.7613781965
 20
13.66861659470003
 30
0.0
 10
43.7629967197
 20
13.63429559940005
 30
0.0
 10
43.76589340040001
 20
13.61235056520003
 30
0.0
 10
43.76857916400001
 20
13.59989894580005
 30
0.0
 10
43.7720218672
 20
13.59008565410001
 30
0.0
 10
43.77639659190001
 20
13.58279391270002
 30
0.0
 10
43.78216573110001
 20
13.57813010030002
 30
0.0
 10
43.78674174660003
 20
13.57724030310003
 30
0.0
 10
43.78895323640003
 20
13.57724031180003
 30
0.0
  0
SPLINE
  5
59C7A
330
1F
100
AcDbEntity
  8
1
100
AcDbSpline
210
0.0
220
0.0
230
1.0
 70
     8
 71
     3
 72
    17
 73
    13
 74
     0
 42
0.0000000001
 43
0.0000000001
 40
0.0
 40
0.0
 40
0.0
 40
0.0
 40
0.2397966775
 40
0.4450150821000002
 40
0.6155895362
 40
0.7518774169000002
 40
0.8546475507
 40
0.9253761457999999
 40
0.9498470986
 40
0.9684455014999999
 40
0.9837704787999999
 40
1.0
 40
1.0
 40
1.0
 40
1.0
 10
44.19737849500001
 20
15.11569443860002
 30
0.0
 10
44.1838235067
 20
15.09741243560002
 30
0.0
 10
44.15944169350001
 20
15.06290123810003
 30
0.0
 10
44.12808518290001
 20
15.01357197420005
 30
0.0
 10
44.10415338230004
 20
14.97125532620001
 30
0.0
 10
44.08700602169997
 20
14.93630324210001
 30
0.0
 10
44.07623622780002
 20
14.90896270600007
 30
0.0
 10
44.071400189
 20
14.89061521670003
 30
0.0
 10
44.071197149
 20
14.87976903430003
 30
0.0
 10
44.07254530760002
 20
14.87425925960002
 30
0.0
 10
44.07587107370003
 20
14.87052222970003
 30
0.0
 10
44.0789264084
 20
14.86975036100005
 30
0.0
 10
44.08046167480003
 20
14.86962553080004
 30
0.0
  0
SPLINE
  5
59C7B
330
1F
100
AcDbEntity
  8
1
100
AcDbSpline
210
0.0
220
0.0
230
1.0
 70
     8
 71
     3
 72
     9
 73
     5
 74
     0
 42
0.0000000001
 43
0.0000000001
 40
0.0
 40
0.0
 40
0.0
 40
0.0
 40
0.1193843606
 40
0.1259941876136779
 40
0.1259941876136779
 40
0.1259941876136779
 40
0.1259941876136779
 10
32.78170329820003
 20
-9.274918472099955
 30
0.0
 10
32.78336805350003
 20
-9.164488460899974
 30
0.0
 10
32.79919577632148
 20
-9.047629013995376
 30
0.0
 10
32.82982242850946
 20
-8.93480461848604
 30
0.0
 10
32.83146959640217
 20
-8.928897278082843
 30
0.0
  0
SPLINE
  5
59C7C
330
1F
100
AcDbEntity
  8
1
100
AcDbSpline
210
0.0
220
0.0
230
1.0
 70
     8
 71
     3
 72
    13
 73
     9
 74
     0
 42
0.0000000001
 43
0.0000000001
 40
0.1259941876136779
 40
0.1259941876136779
 40
0.1259941876136779
 40
0.1259941876136779
 40
0.2403739273
 40
0.3634604036
 40
0.4886121644000001
 40
0.6154094447000002
 40
0.7433091818000001
 40
0.7463516273510585
 40
0.7463516273510585
 40
0.7463516273510585
 40
0.7463516273510585
 10
32.83146959640217
 20
-8.928897278082843
 30
0.0
 10
32.85997301024307
 20
-8.826673716685832
 30
0.0
 10
32.94429793170818
 20
-8.621645156154492
 30
0.0
 10
33.14332431120002
 20
-8.347624216099944
 30
0.0
 10
33.40729145970002
 20
-8.118373409699955
 30
0.0
 10
33.71548437300004
 20
-7.945061669299974
 30
0.0
 10
33.94148020220641
 20
-7.866295817569664
 30
0.0
 10
34.05891183276092
 20
-7.835526685814841
 30
0.0
 10
34.06164175154106
 20
-7.834816745699974
 30
0.0
  0
SPLINE
  5
59C7D
330
1F
100
AcDbEntity
  8
1
100
AcDbSpline
210
0.0
220
0.0
230
1.0
 70
     8
 71
     3
 72
     8
 73
     4
 74
     0
 42
0.0000000001
 43
0.0000000001
 40
0.7466339542114983
 40
0.7466339542114983
 40
0.7466339542114983
 40
0.7466339542114983
 40
1.0
 40
1.0
 40
1.0
 40
1.0
 10
34.06240176431933
 20
-7.834619235515475
 30
0.0
 10
34.28976297490263
 20
-7.775574466409615
 30
0.0
 10
34.52675937042213
 20
-7.751070532204785
 30
0.0
 10
34.76111613030003
 20
-7.754964825699971
 30
0.0
  0
SPLINE
  5
59C7E
330
1F
100
AcDbEntity
  8
1
100
AcDbSpline
210
0.0
220
0.0
230
1.0
 70
     8
 71
     3
 72
     9
 73
     5
 74
     0
 42
0.0000000001
 43
0.0000000001
 40
0.0
 40
0.0
 40
0.0
 40
0.0
 40
0.25360768
 40
1.0
 40
1.0
 40
1.0
 40
1.0
 10
32.83149698300003
 20
-8.928904914399964
 30
0.0
 10
32.83569339640002
 20
-8.93873767079998
 30
0.0
 10
32.85355214240002
 20
-8.976933135999956
 30
0.0
 10
32.87682345970001
 20
-9.012621312099952
 30
0.0
 10
32.89683620970001
 20
-9.036900437599967
 30
0.0
  0
SPLINE
  5
59C7F
330
1F
100
AcDbEntity
  8
1
100
AcDbSpline
210
0.0
220
0.0
230
1.0
 70
     8
 71
     3
 72
    10
 73
     6
 74
     0
 42
0.0000000001
 43
0.0000000001
 40
0.0
 40
0.0
 40
0.0
 40
0.0
 40
0.4760641366
 40
0.7287618096
 40
1.0
 40
1.0
 40
1.0
 40
1.0
 10
48.76554985150002
 20
18.40736146760004
 30
0.0
 10
48.77234396140003
 20
18.44673380280001
 30
0.0
 10
48.78153407070001
 20
18.50724388170005
 30
0.0
 10
48.7899384113
 20
18.59075925890001
 30
0.0
 10
48.79206629550004
 20
18.63473081720004
 30
0.0
 10
48.79206629550004
 20
18.6574947957
 30
0.0
  0
SPLINE
  5
59C80
330
1F
100
AcDbEntity
  8
1
100
AcDbSpline
210
0.0
220
0.0
230
1.0
 70
     8
 71
     3
 72
    10
 73
     6
 74
     0
 42
0.0000000001
 43
0.0000000001
 40
0.0
 40
0.0
 40
0.0
 40
0.0
 40
0.5090830695000001
 40
0.7587731689
 40
1.0
 40
1.0
 40
1.0
 40
1.0
 10
48.76554985150002
 20
0.342169444900037
 30
0.0
 10
48.77210367670002
 20
0.2875110774000404
 30
0.0
 10
48.78110245960002
 20
0.205933349400027
 30
0.0
 10
48.78963614140002
 20
0.098138223000035
 30
0.0
 10
48.79206629550004
 20
0.0450665618000414
 30
0.0
 10
48.79206629550004
 20
0.0189814101000252
 30
0.0
  0
SPLINE
  5
59C81
330
1F
100
AcDbEntity
  8
1
100
AcDbSpline
210
0.0
220
0.0
230
1.0
 70
     8
 71
     3
 72
    15
 73
    11
 74
     0
 42
0.0000000001
 43
0.0000000001
 40
0.0
 40
0.0
 40
0.0
 40
0.0
 40
0.3331381914
 40
0.4864446254
 40
0.6285167014000002
 40
0.7566122888
 40
0.8666008369
 40
0.9517493907
 40
0.9816217328
 40
1.0
 40
1.0
 40
1.0
 40
1.0
 10
48.76554985150002
 20
-18.74953091239996
 30
0.0
 10
48.76870827260001
 20
-18.74149320599994
 30
0.0
 10
48.77328398330002
 20
-18.72974238749998
 30
0.0
 10
48.77908601199997
 20
-18.71451699949995
 30
0.0
 10
48.78292996199999
 20
-18.70423474579996
 30
0.0
 10
48.78630910020001
 20
-18.69497519549996
 30
0.0
 10
48.78906387270001
 20
-18.68706697939996
 30
0.0
 10
48.79090060339999
 20
-18.68151785599993
 30
0.0
 10
48.79178637160004
 20
-18.67818685749998
 30
0.0
 10
48.79206629550004
 20
-18.67695262819995
 30
0.0
 10
48.79206629550004
 20
-18.67647620559995
 30
0.0
  0
SPLINE
  5
59C82
330
1F
100
AcDbEntity
  8
1
100
AcDbSpline
210
0.0
220
0.0
230
1.0
 70
     8
 71
     3
 72
    11
 73
     7
 74
     0
 42
0.0000000001
 43
0.0000000001
 40
0.0
 40
0.0
 40
0.0
 40
0.0
 40
0.2955587408
 40
0.5679115271999999
 40
0.8047216145
 40
1.0
 40
1.0
 40
1.0
 40
1.0
 10
47.93363911400001
 20
-10.83155111519994
 30
0.0
 10
47.95102341760002
 20
-10.83390513749998
 30
0.0
 10
47.98476182609999
 20
-10.83631919639995
 30
0.0
 10
48.03261059820002
 20
-10.83282486139995
 30
0.0
 10
48.07333612230005
 20
-10.82239000319995
 30
0.0
 10
48.09626854730004
 20
-10.80971720149998
 30
0.0
 10
48.10498508420002
 20
-10.80207727229995
 30
0.0
  0
SPLINE
  5
59C83
330
1F
100
AcDbEntity
  8
1
100
AcDbSpline
210
0.0
220
0.0
230
1.0
 70
     8
 71
     3
 72
     9
 73
     5
 74
     0
 42
0.0000000001
 43
0.0000000001
 40
0.0
 40
0.0
 40
0.0
 40
0.0
 40
0.5208067604
 40
1.0
 40
1.0
 40
1.0
 40
1.0
 10
48.77206255889999
 20
-10.21736367109994
 30
0.0
 10
48.77810402980003
 20
-10.21206785989997
 30
0.0
 10
48.78834469870003
 20
-10.19990180019997
 30
0.0
 10
48.79206629550004
 20
-10.18425246599995
 30
0.0
 10
48.79206629550004
 20
-10.17686040869995
 30
0.0
  0
SPLINE
  5
59C84
330
1F
100
AcDbEntity
  8
1
100
AcDbSpline
210
0.0
220
0.0
230
1.0
 70
     8
 71
     3
 72
     9
 73
     5
 74
     0
 42
0.0000000001
 43
0.0000000001
 40
0.0
 40
0.0
 40
0.0
 40
0.0
 40
0.2275657429
 40
1.0
 40
1.0
 40
1.0
 40
1.0
 10
34.46566493130001
 20
13.59647349680003
 30
0.0
 10
34.46330247360001
 20
13.59535495070003
 30
0.0
 10
34.4527390945
 20
13.59082308040003
 30
0.0
 10
34.44162354730003
 20
13.58767539520001
 30
0.0
 10
34.43296647300002
 20
13.58573270330004
 30
0.0
  0
SPLINE
  5
59C85
330
1F
100
AcDbEntity
  8
1
100
AcDbSpline
210
0.0
220
0.0
230
1.0
 70
     8
 71
     3
 72
     9
 73
     5
 74
     0
 42
0.0000000001
 43
0.0000000001
 40
0.0
 40
0.0
 40
0.0
 40
0.0
 40
0.5020365975
 40
1.0
 40
1.0
 40
1.0
 40
1.0
 10
29.29129793980002
 20
14.8772401703
 30
0.0
 10
29.48846000560002
 20
14.87722845250002
 30
0.0
 10
29.88259835650001
 20
14.9302845955
 30
0.0
 10
30.25107335780001
 20
15.07798936230003
 30
0.0
 10
30.42256573530003
 20
15.17198417920004
 30
0.0
  0
LINE
  5
59C86
330
1F
100
AcDbEntity
  8
1
100
AcDbLine
 10
30.42256573530003
 20
15.17198417920004
 30
0.0
 11
30.51847058530004
 21
15.22461291430001
 31
0.0
  0
SPLINE
  5
59C87
330
1F
100
AcDbEntity
  8
1
100
AcDbSpline
210
0.0
220
0.0
230
1.0
 70
     8
 71
     3
 72
     8
 73
     4
 74
     0
 42
0.0000000001
 43
0.0000000001
 40
0.0
 40
0.0
 40
0.0
 40
0.0
 40
1.0
 40
1.0
 40
1.0
 40
1.0
 10
20.5885252002
 20
22.67541138790003
 30
0.0
 10
21.78260377960004
 20
23.11216192100005
 30
0.0
 10
22.97695446190002
 20
23.54816903050002
 30
0.0
 10
24.17153418690003
 20
23.98354698430003
 30
0.0
  0
SPLINE
  5
59C88
330
1F
100
AcDbEntity
  8
1
100
AcDbSpline
210
0.0
220
0.0
230
1.0
 70
     8
 71
     3
 72
     9
 73
     5
 74
     0
 42
0.0000000001
 43
0.0000000001
 40
0.0
 40
0.0
 40
0.0
 40
0.0
 40
0.5370065873
 40
1.0
 40
1.0
 40
1.0
 40
1.0
 10
28.7577345647
 20
13.57724059500003
 30
0.0
 10
28.567505052
 20
13.57726487360003
 30
0.0
 10
28.2132018961
 20
13.58633501250003
 30
0.0
 10
27.85980027280002
 20
13.61297093760004
 30
0.0
 10
27.69665219850003
 20
13.62977358660004
 30
0.0
  0
SPLINE
  5
59C89
330
1F
100
AcDbEntity
  8
1
100
AcDbSpline
210
0.0
220
0.0
230
1.0
 70
     8
 71
     3
 72
    20
 73
    16
 74
     0
 42
0.0000000001
 43
0.0000000001
 40
0.0
 40
0.0
 40
0.0
 40
0.0
 40
0.2052552474
 40
0.3871696905
 40
0.5397970291
 40
0.6031548159000001
 40
0.6569429379999999
 40
0.7009267649
 40
0.7358670033
 40
0.7647327843000003
 40
0.7936332808
 40
0.8290670728
 40
0.8746634852999999
 40
0.9316508284000001
 40
1.0
 40
1.0
 40
1.0
 40
1.0
 10
27.69665219850003
 20
13.62977358660004
 30
0.0
 10
27.67565328100002
 20
13.63193626890003
 30
0.0
 10
27.63609603160003
 20
13.63661972010003
 30
0.0
 10
27.5813038261
 20
13.64564274980002
 30
0.0
 10
27.54138368390002
 20
13.65498695710002
 30
0.0
 10
27.51509177130001
 20
13.66392482500004
 30
0.0
 10
27.49992359660004
 20
13.67068915130004
 30
0.0
 10
27.48830779190001
 20
13.67796932820001
 30
0.0
 10
27.48034179110002
 20
13.68591313990004
 30
0.0
 10
27.47668633530003
 20
13.69517470970004
 30
0.0
 10
27.47866076550002
 20
13.70500399130003
 30
0.0
 10
27.48541705170001
 20
13.71430583920004
 30
0.0
 10
27.49623767010002
 20
13.72359064730003
 30
0.0
 10
27.51112462280003
 20
13.73301754250001
 30
0.0
 10
27.5226168831
 20
13.73888458950003
 30
0.0
 10
27.52896918480002
 20
13.74189502570002
 30
0.0
  0
SPLINE
  5
59C8A
330
1F
100
AcDbEntity
  8
1
100
AcDbSpline
210
0.0
220
0.0
230
1.0
 70
     8
 71
     3
 72
     9
 73
     5
 74
     0
 42
0.0000000001
 43
0.0000000001
 40
0.0
 40
0.0
 40
0.0
 40
0.0
 40
0.4510602084000002
 40
1.0
 40
1.0
 40
1.0
 40
1.0
 10
34.43296647300002
 20
13.58573270330004
 30
0.0
 10
34.41852516210003
 20
13.58249199910003
 30
0.0
 10
34.38586694100002
 20
13.57824075110002
 30
0.0
 10
34.3530462272
 20
13.57725421170004
 30
0.0
 10
34.33503408800002
 20
13.57724056450004
 30
0.0
  0
SPLINE
  5
59C8B
330
1F
100
AcDbEntity
  8
1
100
AcDbSpline
210
0.0
220
0.0
230
1.0
 70
     8
 71
     3
 72
     9
 73
     5
 74
     0
 42
0.0000000001
 43
0.0000000001
 40
0.0
 40
0.0
 40
0.0
 40
0.0
 40
0.2534108071999999
 40
1.0
 40
1.0
 40
1.0
 40
1.0
 10
36.64257297020001
 20
-9.046967172799952
 30
0.0
 10
36.64321345890002
 20
-9.049885651999943
 30
0.0
 10
36.64556658210003
 20
-9.061439785999965
 30
0.0
 10
36.64720841580001
 20
-9.073140580099959
 30
0.0
 10
36.64799803960003
 20
-9.081908028799972
 30
0.0
  0
LINE
  5
59C8C
330
1F
100
AcDbEntity
  8
1
100
AcDbLine
 10
37.25317560150001
 20
-9.34921653089998
 30
0.0
 11
36.64799803960003
 21
-9.081908028799972
 31
0.0
  0
LINE
  5
59C8D
330
1F
100
AcDbEntity
  8
1
100
AcDbLine
 10
33.50923575690001
 20
-10.65940170429996
 30
0.0
 11
33.37105844589999
 21
-10.07925997429995
 31
0.0
  0
SPLINE
  5
59C8E
330
1F
100
AcDbEntity
  8
1
100
AcDbSpline
210
0.0
220
0.0
230
1.0
 70
     8
 71
     3
 72
     8
 73
     4
 74
     0
 42
0.0000000001
 43
0.0000000001
 40
0.0
 40
0.0
 40
0.0
 40
0.0
 40
0.0069822248668482
 40
0.0069822248668482
 40
0.0069822248668482
 40
0.0069822248668482
 10
36.65708178990002
 20
-9.044243973499959
 30
0.0
 10
36.65143961401725
 20
-9.041762720503044
 30
0.0
 10
36.64579738372438
 20
-9.03928159076679
 30
0.0
 10
36.64015509793839
 20
-9.036800586809981
 30
0.0
  0
SPLINE
  5
59C8F
330
1F
100
AcDbEntity
  8
1
100
AcDbSpline
210
0.0
220
0.0
230
1.0
 70
     8
 71
     3
 72
    12
 73
     8
 74
     0
 42
0.0000000001
 43
0.0000000001
 40
0.0069822248668482
 40
0.0069822248668482
 40
0.0069822248668482
 40
0.0069822248668482
 40
0.2488686485
 40
0.498137468
 40
0.7481740931000001
 40
0.8737419433999999
 40
1.0
 40
1.0
 40
1.0
 40
1.0
 10
36.64015509793839
 20
-9.036800586809981
 30
0.0
 10
36.44468841562395
 20
-8.950850737646121
 30
0.0
 10
36.04765415708155
 20
-8.77663435740294
 30
0.0
 10
35.44780368930001
 20
-8.515318956399966
 30
0.0
 10
34.94102634850003
 20
-8.297452817199967
 30
0.0
 10
34.53254191980003
 20
-8.125944649599972
 30
0.0
 10
34.32673541550002
 20
-8.041882915499968
 30
0.0
 10
34.2231703022
 20
-8.000691228399972
 30
0.0
  0
SPLINE
  5
59C90
330
1F
100
AcDbEntity
  8
1
100
AcDbSpline
210
0.0
220
0.0
230
1.0
 70
     8
 71
     3
 72
    10
 73
     6
 74
     0
 42
0.0000000001
 43
0.0000000001
 40
0.0
 40
0.0
 40
0.0
 40
0.0
 40
0.4997274088000001
 40
0.7495374392000002
 40
1.0
 40
1.0
 40
1.0
 40
1.0
 10
33.37105844589999
 20
-10.07925997429995
 30
0.0
 10
33.27386446350002
 20
-9.914726969599968
 30
0.0
 10
33.14033469460003
 20
-9.660338774299958
 30
0.0
 10
32.99003806070004
 20
-9.308583840299945
 30
0.0
 10
32.92553315890004
 20
-9.12827737219996
 30
0.0
 10
32.89683620970001
 20
-9.036900437599967
 30
0.0
  0
SPLINE
  5
59C91
330
1F
100
AcDbEntity
  8
1
100
AcDbSpline
210
0.0
220
0.0
230
1.0
 70
     8
 71
     3
 72
    18
 73
    14
 74
     0
 42
0.0000000001
 43
0.0000000001
 40
0.0
 40
0.0
 40
0.0
 40
0.0
 40
0.0179016215
 40
0.0407272026
 40
0.0694569627
 40
0.1045372808
 40
0.1461509584
 40
0.1943025009
 40
0.3098219077
 40
0.4499628998
 40
0.6130103681
 40
0.7970597695000004
 40
1.0
 40
1.0
 40
1.0
 40
1.0
 10
17.5456421913
 20
21.57070382900005
 30
0.0
 10
17.54839541100003
 20
21.57738013410003
 30
0.0
 10
17.5581250909
 20
21.59108382970004
 30
0.0
 10
17.57967137650001
 20
21.60917918420006
 30
0.0
 10
17.60954655240002
 20
21.62749448250003
 30
0.0
 10
17.64780574109997
 20
21.64614997530001
 30
0.0
 10
17.69438748089999
 20
21.66535843730003
 30
0.0
 10
17.77222276190002
 20
21.69368450340002
 30
0.0
 10
17.88908493390002
 20
21.73073490500002
 30
0.0
 10
18.05095252550003
 20
21.77897611550003
 30
0.0
 10
18.23919313230002
 20
21.83556593660003
 30
0.0
 10
18.4506015908
 20
21.90301224860005
 30
0.0
 10
18.5980073993
 20
21.95452817150004
 30
0.0
 10
18.67481750390001
 20
21.98285925200003
 30
0.0
  0
SPLINE
  5
59C92
330
1F
100
AcDbEntity
  8
1
100
AcDbSpline
210
0.0
220
0.0
230
1.0
 70
     8
 71
     3
 72
    15
 73
    11
 74
     0
 42
0.0000000001
 43
0.0000000001
 40
0.0
 40
0.0
 40
0.0
 40
0.0
 40
0.1119708453
 40
0.2362197776
 40
0.3690258321
 40
0.5058702043
 40
0.6418907305000002
 40
0.7722937816
 40
0.8927741949999996
 40
1.0
 40
1.0
 40
1.0
 40
1.0
 10
36.73286873970003
 20
-0.510421339699974
 30
0.0
 10
36.81767866289999
 20
-0.484534981899941
 30
0.0
 10
37.00193862810002
 20
-0.447019924999978
 30
0.0
 10
37.29433280550003
 20
-0.4292014513999618
 30
0.0
 10
37.60643467820003
 20
-0.4472402029999501
 30
0.0
 10
37.92387527910003
 20
-0.5003910696999583
 30
0.0
 10
38.23211646850001
 20
-0.5862092917999746
 30
0.0
 10
38.51707162690002
 20
-0.7007751880999536
 30
0.0
 10
38.76570418510002
 20
-0.8387379359999442
 30
0.0
 10
38.9093652613
 20
-0.9495660298999553
 30
0.0
 10
38.97075747330001
 20
-1.008230585399957
 30
0.0
  0
SPLINE
  5
59C93
330
1F
100
AcDbEntity
  8
1
100
AcDbSpline
210
0.0
220
0.0
230
1.0
 70
     8
 71
     3
 72
    18
 73
    14
 74
     0
 42
0.0000000001
 43
0.0000000001
 40
0.0
 40
0.0
 40
0.0
 40
0.0
 40
0.1912875459
 40
0.3674341378
 40
0.5252990806000001
 40
0.6628503046000001
 40
0.7790131945000001
 40
0.8289705306
 40
0.8735222905
 40
0.9127368195
 40
0.9467357641999999
 40
0.9757176138
 40
1.0
 40
1.0
 40
1.0
 40
1.0
 10
18.67481750390001
 20
17.97309230680001
 30
0.0
 10
18.53921396749999
 20
18.17829350410002
 30
0.0
 10
18.29432837640002
 20
18.58306827330006
 30
0.0
 10
17.993046604
 20
19.18839521690006
 30
0.0
 10
17.76826208470001
 20
19.75230644790005
 30
0.0
 10
17.6141050853
 20
20.25919994930004
 30
0.0
 10
17.53371050820004
 20
20.64196971630006
 30
0.0
 10
17.49915425420002
 20
20.91075961850007
 30
0.0
 10
17.48688508550003
 20
21.08237025460002
 30
0.0
 10
17.48585022840001
 20
21.23390872630003
 30
0.0
 10
17.49509985930001
 20
21.36515870640003
 30
0.0
 10
17.513774724
 20
21.47598377850005
 30
0.0
 10
17.53373888609999
 20
21.54183940680002
 30
0.0
 10
17.5456421913
 20
21.57070382900005
 30
0.0
  0
SPLINE
  5
59C94
330
1F
100
AcDbEntity
  8
1
100
AcDbSpline
210
0.0
220
0.0
230
1.0
 70
     8
 71
     3
 72
    11
 73
     7
 74
     0
 42
0.0000000001
 43
0.0000000001
 40
0.0
 40
0.0
 40
0.0
 40
0.0
 40
0.2471023666
 40
0.4957335748
 40
0.7466447795000001
 40
1.0
 40
1.0
 40
1.0
 40
1.0
 10
17.5456421913
 20
-12.77609827689994
 30
0.0
 10
17.55094587890002
 20
-12.68476056389997
 30
0.0
 10
17.57523895840001
 20
-12.50203446459997
 30
0.0
 10
17.65157858870003
 20
-12.23535348909996
 30
0.0
 10
17.76634097030003
 20
-11.98031156329997
 30
0.0
 10
17.8662731629
 20
-11.82177164499995
 30
0.0
 10
17.92159512420002
 20
-11.74601424169998
 30
0.0
  0
SPLINE
  5
59C95
330
1F
100
AcDbEntity
  8
1
100
AcDbSpline
210
0.0
220
0.0
230
1.0
 70
     8
 71
     3
 72
    17
 73
    13
 74
     0
 42
0.0000000001
 43
0.0000000001
 40
0.0
 40
0.0
 40
0.0
 40
0.0
 40
0.1572668403
 40
0.3114144884
 40
0.4610870958
 40
0.6039396616000002
 40
0.7355864533
 40
0.8475068087
 40
0.8923267287000001
 40
0.9289702674
 40
0.9621229822
 40
1.0
 40
1.0
 40
1.0
 40
1.0
 10
48.79206629550004
 20
-1.18660564199996
 30
0.0
 10
48.79206629550004
 20
-1.191537189899975
 30
0.0
 10
48.79198438930001
 20
-1.201302645499964
 30
0.0
 10
48.79154831460002
 20
-1.215756910599964
 30
0.0
 10
48.7907112659
 20
-1.229738965499961
 30
0.0
 10
48.7893546281
 20
-1.242984727799949
 30
0.0
 10
48.78728425490002
 20
-1.254913447399957
 30
0.0
 10
48.78467737930001
 20
-1.26367645199997
 30
0.0
 10
48.7815315295
 20
-1.26889749229997
 30
0.0
 10
48.77871281450001
 20
-1.27134220139996
 30
0.0
 10
48.77516581480003
 20
-1.271795335199954
 30
0.0
 10
48.77306925920001
 20
-1.270811885899973
 30
0.0
 10
48.77206255889999
 20
-1.270181581199949
 30
0.0
  0
SPLINE
  5
59C96
330
1F
100
AcDbEntity
  8
1
100
AcDbSpline
210
0.0
220
0.0
230
1.0
 70
     8
 71
     3
 72
    15
 73
    11
 74
     0
 42
0.0000000001
 43
0.0000000001
 40
0.0
 40
0.0
 40
0.0
 40
0.0
 40
0.1286366133
 40
0.2557523734
 40
0.3808486455
 40
0.5042314933
 40
0.6267669122
 40
0.7496023479999999
 40
0.8738186457999999
 40
1.0
 40
1.0
 40
1.0
 40
1.0
 10
27.20429738570004
 20
16.77532062940005
 30
0.0
 10
27.22090675960001
 20
16.65543802510004
 30
0.0
 10
27.27148108380001
 20
16.41911412330006
 30
0.0
 10
27.39882016100003
 20
16.08274372730003
 30
0.0
 10
27.57442610769999
 20
15.77436275600003
 30
0.0
 10
27.7946278327
 20
15.50149817940004
 30
0.0
 10
28.05553656040002
 20
15.27031625440006
 30
0.0
 10
28.35281803200002
 20
15.08656970720005
 30
0.0
 10
28.68056113070003
 20
14.95582186770002
 30
0.0
 10
28.91252201630002
 20
14.90739887610004
 30
0.0
 10
29.03036432580004
 20
14.89300856260004
 30
0.0
  0
LINE
  5
59C97
330
1F
100
AcDbEntity
  8
1
100
AcDbLine
 10
30.51847058530004
 20
15.22461291430001
 30
0.0
 11
44.08043309309999
 21
14.86851294110004
 31
0.0
  0
LINE
  5
59C98
330
1F
100
AcDbEntity
  8
1
100
AcDbLine
 10
44.08043309309999
 20
14.86851294110004
 30
0.0
 11
44.10249053160001
 21
14.86793351380004
 31
0.0
  0
SPLINE
  5
59C99
330
1F
100
AcDbEntity
  8
1
100
AcDbSpline
210
0.0
220
0.0
230
1.0
 70
     8
 71
     3
 72
    15
 73
    11
 74
     0
 42
0.0000000001
 43
0.0000000001
 40
0.0
 40
0.0
 40
0.0
 40
0.0
 40
0.1127321022
 40
0.2371376355
 40
0.3696267043999999
 40
0.5058987987
 40
0.6413483797000003
 40
0.7714349055
 40
0.8920600256
 40
1.0
 40
1.0
 40
1.0
 40
1.0
 10
44.4278599285
 20
-0.6776274687999547
 30
0.0
 10
44.51195416550001
 20
-0.653690436699975
 30
0.0
 10
44.69351956280005
 20
-0.6193155590999595
 30
0.0
 10
44.98044398670001
 20
-0.6042051858999571
 30
0.0
 10
45.28541944880001
 20
-0.6232397330999504
 30
0.0
 10
45.59507435740002
 20
-0.67565817039997
 30
0.0
 10
45.8959036265
 20
-0.7591654516999711
 30
0.0
 10
46.17481408980004
 20
-0.870127803899976
 30
0.0
 10
46.4196486799
 20
-1.003614080899978
 30
0.0
 10
46.56223551810001
 20
-1.110617157199953
 30
0.0
 10
46.62384987910002
 20
-1.167294839499959
 30
0.0
  0
SPLINE
  5
59C9A
330
1F
100
AcDbEntity
  8
1
100
AcDbSpline
210
0.0
220
0.0
230
1.0
 70
     8
 71
     3
 72
    12
 73
     8
 74
     0
 42
0.0000000001
 43
0.0000000001
 40
0.0
 40
0.0
 40
0.0
 40
0.0
 40
0.2543534349
 40
0.5048898329
 40
0.7525932996
 40
0.8762318250999998
 40
1.0
 40
1.0
 40
1.0
 40
1.0
 10
33.50923575690001
 20
-10.65940170429996
 30
0.0
 10
33.4024061611
 20
-10.57352440989996
 30
0.0
 10
33.20415272830002
 20
-10.38463312519994
 30
0.0
 10
32.96851328420002
 20
-10.05118855299997
 30
0.0
 10
32.8399636883
 20
-9.737691177399966
 30
0.0
 10
32.78831228260003
 20
-9.475254769599956
 30
0.0
 10
32.78069794300004
 20
-9.341607780299966
 30
0.0
 10
32.78170329820003
 20
-9.274918472099955
 30
0.0
  0
SPLINE
  5
59C9B
330
1F
100
AcDbEntity
  8
1
100
AcDbSpline
210
0.0
220
0.0
230
1.0
 70
     8
 71
     3
 72
    29
 73
    25
 74
     0
 42
0.0000000001
 43
0.0000000001
 40
0.0
 40
0.0
 40
0.0
 40
0.0
 40
0.0625772269
 40
0.1250528345
 40
0.1874233209
 40
0.2497011233
 40
0.3119161385
 40
0.3430584441
 40
0.3742224652
 40
0.4054226489000003
 40
0.4366703277
 40
0.4679701011
 40
0.4993126471
 40
0.5306755801
 40
0.5620319654000001
 40
0.5933629085000001
 40
0.6246630147
 40
0.6559366017000002
 40
0.6871937912
 40
0.7496320626000001
 40
0.8121243841
 40
0.8746856563999998
 40
0.9373137197
 40
1.0
 40
1.0
 40
1.0
 40
1.0
 10
36.72280338330001
 20
1.641812049800051
 30
0.0
 10
36.74949658200001
 20
1.772914127800049
 30
0.0
 10
36.81340168270001
 20
2.032912247500028
 30
0.0
 10
36.94343208540002
 20
2.412546029700045
 30
0.0
 10
37.11122372960003
 20
2.776652542700048
 30
0.0
 10
37.32146632330003
 20
3.117651535100037
 30
0.0
 10
37.53734044949999
 20
3.373237859500051
 30
0.0
 10
37.73685298960004
 20
3.550170178400037
 30
0.0
 10
37.90060854230004
 20
3.665690250400047
 30
0.0
 10
38.0781977293
 20
3.759375596900035
 30
0.0
 10
38.26827121220001
 20
3.825666534100037
 30
0.0
 10
38.46745487910005
 20
3.858462317400039
 30
0.0
 10
38.66970374300004
 20
3.852497336900022
 30
0.0
 10
38.86671815930001
 20
3.805527366600017
 30
0.0
 10
39.05009019580001
 20
3.719870644500048
 30
0.0
 10
39.2138680018
 20
3.601610917100025
 30
0.0
 10
39.35547098470002
 20
3.458158824000037
 30
0.0
 10
39.4749231067
 20
3.296250282700043
 30
0.0
 10
39.60639671370003
 20
3.063043519700045
 30
0.0
 10
39.72394251590001
 20
2.748277238000042
 30
0.0
 10
39.80442418150003
 20
2.354417513900045
 30
0.0
 10
39.83618975460002
 20
1.953565539000038
 30
0.0
 10
39.82742744610002
 20
1.551431131100024
 30
0.0
 10
39.79842939440002
 20
1.284732051400055
 30
0.0
 10
39.77881829900002
 20
1.152149508400043
 30
0.0
  0
SPLINE
  5
59C9C
330
1F
100
AcDbEntity
  8
1
100
AcDbSpline
210
0.0
220
0.0
230
1.0
 70
     8
 71
     3
 72
    13
 73
     9
 74
     0
 42
0.0000000001
 43
0.0000000001
 40
0.0
 40
0.0
 40
0.0
 40
0.0
 40
0.146872417
 40
0.2883603317
 40
0.42401879
 40
0.5534004127000001
 40
0.7914588161000001
 40
1.0
 40
1.0
 40
1.0
 40
1.0
 10
24.17153418690003
 20
14.01531702920005
 30
0.0
 10
23.84692166310001
 20
14.11025544860003
 30
0.0
 10
23.21800293380002
 20
14.32703521240003
 30
0.0
 10
22.32796013160004
 20
14.73180871530002
 30
0.0
 10
21.51426347080002
 20
15.19748859890003
 30
0.0
 10
20.5639865652
 20
15.86239819100007
 30
0.0
 10
19.57867450170002
 20
16.76041074900004
 30
0.0
 10
18.93957446010003
 20
17.57245051030003
 30
0.0
 10
18.67481750390001
 20
17.97309230680001
 30
0.0
  0
SPLINE
  5
59C9D
330
1F
100
AcDbEntity
  8
1
100
AcDbSpline
210
0.0
220
0.0
230
1.0
 70
     8
 71
     3
 72
     9
 73
     5
 74
     0
 42
0.0000000001
 43
0.0000000001
 40
0.0
 40
0.0
 40
0.0
 40
0.0
 40
0.2237605455
 40
1.0
 40
1.0
 40
1.0
 40
1.0
 10
27.52896918480002
 20
13.74189502570002
 30
0.0
 10
27.53340164640005
 20
13.74399562530001
 30
0.0
 10
27.5534109418
 20
13.75296087030003
 30
0.0
 10
27.57400060950002
 20
13.76057209470004
 30
0.0
 10
27.59009477280003
 20
13.76609625350004
 30
0.0
  0
SPLINE
  5
59C9E
330
1F
100
AcDbEntity
  8
1
100
AcDbSpline
210
0.0
220
0.0
230
1.0
 70
     8
 71
     3
 72
     9
 73
     5
 74
     0
 42
0.0000000001
 43
0.0000000001
 40
0.0
 40
0.0
 40
0.0
 40
0.0
 40
0.4763838352000004
 40
1.0
 40
1.0
 40
1.0
 40
1.0
 10
45.94095753730002
 20
-23.81810778099996
 30
0.0
 10
45.87439685060002
 20
-23.82098565299996
 30
0.0
 10
45.73380413440003
 20
-23.81161919809999
 30
0.0
 10
45.59755335960002
 20
-23.77746305979997
 30
0.0
 10
45.52783877109999
 20
-23.75505166249997
 30
0.0
  0
SPLINE
  5
59C9F
330
1F
100
AcDbEntity
  8
1
100
AcDbSpline
210
0.0
220
0.0
230
1.0
 70
     8
 71
     3
 72
    15
 73
    11
 74
     0
 42
0.0000000001
 43
0.0000000001
 40
0.0
 40
0.0
 40
0.0
 40
0.0
 40
0.1528470202
 40
0.2970170579
 40
0.4322039341
 40
0.5586247255
 40
0.6770627942000002
 40
0.788856491
 40
0.8958069443000001
 40
1.0
 40
1.0
 40
1.0
 40
1.0
 10
24.17153418690003
 20
-23.86290512349996
 30
0.0
 10
23.84983818280003
 20
-23.72631686829996
 30
0.0
 10
23.22789150080001
 20
-23.45323332109996
 30
0.0
 10
22.3375247738
 20
-23.02376328009999
 30
0.0
 10
21.52202690190003
 20
-22.58022867709997
 30
0.0
 10
20.78607905679999
 20
-22.11673296529995
 30
0.0
 10
20.13234849650002
 20
-21.62743532069996
 30
0.0
 10
19.56160283650001
 20
-21.10701150549997
 30
0.0
 10
19.07295820780001
 20
-20.55134492089996
 30
0.0
 10
18.7982149163
 20
-20.15274276069996
 30
0.0
 10
18.67481750390001
 20
-19.94894746919996
 30
0.0
  0
SPLINE
  5
59CA0
330
1F
100
AcDbEntity
  8
1
100
AcDbSpline
210
0.0
220
0.0
230
1.0
 70
     8
 71
     3
 72
    23
 73
    19
 74
     0
 42
0.0000000001
 43
0.0000000001
 40
0.0
 40
0.0
 40
0.0
 40
0.0
 40
0.0984351406
 40
0.1853963857
 40
0.261308268
 40
0.3268278278
 40
0.3829517872999999
 40
0.4311705376
 40
0.4736528179
 40
0.5132979711
 40
0.5533738970000001
 40
0.5968022147
 40
0.645677476
 40
0.7012779605000004
 40
0.7642952648000004
 40
0.8350482731000001
 40
0.9136312354000001
 40
1.0
 40
1.0
 40
1.0
 40
1.0
 10
47.33510531440001
 20
-18.96161749999996
 30
0.0
 10
47.3697263377
 20
-19.02197565449996
 30
0.0
 10
47.43720037350001
 20
-19.13439140519994
 30
0.0
 10
47.54070583900002
 20
-19.28751645319997
 30
0.0
 10
47.64037425690003
 20
-19.41474511879998
 30
0.0
 10
47.73652859590001
 20
-19.51638420209997
 30
0.0
 10
47.82966603480002
 20
-19.59283227319997
 30
0.0
 10
47.92051677110001
 20
-19.64438713279995
 30
0.0
 10
48.00984456740002
 20
-19.67081438579995
 30
0.0
 10
48.09746310160003
 20
-19.67137252309995
 30
0.0
 10
48.18203859890002
 20
-19.64647962709996
 30
0.0
 10
48.26304368310002
 20
-19.59812642569997
 30
0.0
 10
48.34124576230002
 20
-19.52803316209998
 30
0.0
 10
48.41755379720002
 20
-19.43713468279996
 30
0.0
 10
48.49261756939998
 20
-19.32608691679995
 30
0.0
 10
48.56689477100002
 20
-19.19551534349995
 30
0.0
 10
48.6407400406
 20
-19.04608008289994
 30
0.0
 10
48.68769892730004
 20
-18.93931439019996
 30
0.0
 10
48.71135194309999
 20
-18.88302945099994
 30
0.0
  0
SPLINE
  5
59CA1
330
1F
100
AcDbEntity
  8
1
100
AcDbSpline
210
0.0
220
0.0
230
1.0
 70
     8
 71
     3
 72
     9
 73
     5
 74
     0
 42
0.0000000001
 43
0.0000000001
 40
0.0
 40
0.0
 40
0.0
 40
0.0
 40
0.5111777006000004
 40
1.0
 40
1.0
 40
1.0
 40
1.0
 10
48.77206255889999
 20
-1.270181581199949
 30
0.0
 10
48.66522862600001
 20
-1.203291827199961
 30
0.0
 10
48.45028506970002
 20
-1.081579761899945
 30
0.0
 10
48.2205621667
 20
-0.9885161904999506
 30
0.0
 10
48.10498508420002
 20
-0.9543048932999624
 30
0.0
  0
SPLINE
  5
59CA2
330
1F
100
AcDbEntity
  8
1
100
AcDbSpline
210
0.0
220
0.0
230
1.0
 70
     8
 71
     3
 72
    11
 73
     7
 74
     0
 42
0.0000000001
 43
0.0000000001
 40
0.0
 40
0.0
 40
0.0
 40
0.0
 40
0.339439846
 40
0.6233540976
 40
0.8451405177999998
 40
1.0
 40
1.0
 40
1.0
 40
1.0
 10
29.03075025990003
 20
19.22149082910001
 30
0.0
 10
29.0075369372
 20
19.21776387630004
 30
0.0
 10
28.96493004249999
 20
19.21079705000002
 30
0.0
 10
28.90710501730004
 20
19.20163090470004
 30
0.0
 10
28.86177335330001
 20
19.19554457520004
 30
0.0
 10
28.835721737
 20
19.19333602780003
 30
0.0
 10
28.8249957127
 20
19.19333602780003
 30
0.0
  0
SPLINE
  5
59CA3
330
1F
100
AcDbEntity
  8
1
100
AcDbSpline
210
0.0
220
0.0
230
1.0
 70
     8
 71
     3
 72
    11
 73
     7
 74
     0
 42
0.0000000001
 43
0.0000000001
 40
0.0
 40
0.0
 40
0.0
 40
0.0
 40
0.2507203983
 40
0.5009101299000001
 40
0.7506350777
 40
1.0
 40
1.0
 40
1.0
 40
1.0
 10
28.66766952960004
 20
15.52136283540002
 30
0.0
 10
28.74121611929999
 20
15.44670432550003
 30
0.0
 10
28.8991505695
 20
15.30793566020003
 30
0.0
 10
29.16320009990002
 20
15.13648748830005
 30
0.0
 10
29.4487934002
 20
15.00534017180003
 30
0.0
 10
29.64987300359999
 20
14.94656365690004
 30
0.0
 10
29.7517895652
 20
14.92471018670005
 30
0.0
  0
SPLINE
  5
59CA4
330
1F
100
AcDbEntity
  8
1
100
AcDbSpline
210
0.0
220
0.0
230
1.0
 70
     8
 71
     3
 72
    17
 73
    13
 74
     0
 42
0.0000000001
 43
0.0000000001
 40
0.0
 40
0.0
 40
0.0
 40
0.0
 40
0.1251754353
 40
0.1877781098
 40
0.250367378
 40
0.375437901
 40
0.5004476871
 40
0.5629621611
 40
0.6254617214
 40
0.7503534998000001
 40
0.8751959392999999
 40
1.0
 40
1.0
 40
1.0
 40
1.0
 10
20.5885252002
 20
22.67541138790003
 30
0.0
 10
20.71275678949999
 20
22.30929903500004
 30
0.0
 10
20.93483591420002
 20
21.77125039250004
 30
0.0
 10
21.29760166470001
 20
21.08790906740006
 30
0.0
 10
21.70341759100003
 20
20.42947685390001
 30
0.0
 10
22.28873930290001
 20
19.65780754100007
 30
0.0
 10
22.96835829800003
 20
18.96803780390001
 30
0.0
 10
23.5613394911
 20
18.47262914590004
 30
0.0
 10
24.18472482999999
 20
18.01671465650005
 30
0.0
 10
25.01710923780001
 20
17.52391122820003
 30
0.0
 10
26.08301349150003
 20
17.06678849040003
 30
0.0
 10
26.82737825699999
 20
16.85604734070003
 30
0.0
 10
27.20429912550003
 20
16.77532062970005
 30
0.0
  0
SPLINE
  5
59CA5
330
1F
100
AcDbEntity
  8
1
100
AcDbSpline
210
0.0
220
0.0
230
1.0
 70
     8
 71
     3
 72
    15
 73
    11
 74
     0
 42
0.0000000001
 43
0.0000000001
 40
0.0
 40
0.0
 40
0.0
 40
0.0
 40
0.0450262119
 40
0.095418397
 40
0.2075923733
 40
0.329727654
 40
0.4580161777000001
 40
0.5902763826
 40
0.7251969462000001
 40
1.0
 40
1.0
 40
1.0
 40
1.0
 10
27.59009477280003
 20
13.76609625350004
 30
0.0
 10
27.6098412188
 20
13.77287402150006
 30
0.0
 10
27.652125112
 20
13.78596006010004
 30
0.0
 10
27.7450454838
 20
13.81111020340003
 30
0.0
 10
27.87368411340001
 20
13.84090011240005
 30
0.0
 10
28.03834734540001
 20
13.87486244580005
 30
0.0
 10
28.21263931269999
 20
13.90815908970003
 30
0.0
 10
28.39304335970002
 20
13.94099388490004
 30
0.0
 10
28.64051824990003
 20
13.98468446450005
 30
0.0
 10
28.82774029410004
 20
14.01691795400003
 30
0.0
 10
28.95330547740002
 20
14.03856643660003
 30
0.0
  0
SPLINE
  5
59CA6
330
1F
100
AcDbEntity
  8
1
100
AcDbSpline
210
0.0
220
0.0
230
1.0
 70
     8
 71
     3
 72
    15
 73
    11
 74
     0
 42
0.0000000001
 43
0.0000000001
 40
0.0
 40
0.0
 40
0.0
 40
0.0
 40
0.1252086723
 40
0.2503620335
 40
0.3754513094
 40
0.5004730977000002
 40
0.6254293725000001
 40
0.7503273737000004
 40
0.8751790823
 40
1.0
 40
1.0
 40
1.0
 40
1.0
 10
17.5456421913
 20
21.57070382900005
 30
0.0
 10
17.73450067129999
 20
21.03547981210002
 30
0.0
 10
18.18867066140004
 20
19.99053142720004
 30
0.0
 10
19.08377194390002
 20
18.53662460910001
 30
0.0
 10
20.17511529540002
 20
17.22424938330005
 30
0.0
 10
21.44061489720002
 20
16.08031781670004
 30
0.0
 10
22.8547802411
 20
15.12780607330002
 30
0.0
 10
24.389211647
 20
14.38595356100005
 30
0.0
 10
26.01251497410004
 20
13.86975235940004
 30
0.0
 10
27.13333862810001
 20
13.68285826270001
 30
0.0
 10
27.69665219850003
 20
13.62977358660004
 30
0.0
  0
SPLINE
  5
59CA7
330
1F
100
AcDbEntity
  8
1
100
AcDbSpline
210
0.0
220
0.0
230
1.0
 70
     8
 71
     3
 72
    33
 73
    29
 74
     0
 42
0.0000000001
 43
0.0000000001
 40
0.0
 40
0.0
 40
0.0
 40
0.0
 40
0.1431901064
 40
0.2152590262
 40
0.287475263
 40
0.3597539825
 40
0.4320143776
 40
0.504159359
 40
0.5760459778
 40
0.6474309079000001
 40
0.7178628276000003
 40
0.7524785375000002
 40
0.7864728277
 40
0.8195966315999998
 40
0.8515044725
 40
0.8817296202999999
 40
0.9096698421999999
 40
0.934602778
 40
0.9457010894999999
 40
0.9557572316999999
 40
0.9646864045999999
 40
0.9724239969
 40
0.9789406204
 40
0.9842695082999998
 40
0.9885615296999999
 40
0.9921838861999999
 40
0.9957740994999999
 40
1.0
 40
1.0
 40
1.0
 40
1.0
 10
28.95330547740002
 20
14.03856643660003
 30
0.0
 10
29.22609012100006
 20
14.08559677950004
 30
0.0
 10
29.63750632770001
 20
14.14886148680003
 30
0.0
 10
30.18894033980004
 20
14.21806288210001
 30
0.0
 10
30.60534655150002
 20
14.26170291600004
 30
0.0
 10
31.02301815320004
 20
14.29582977440005
 30
0.0
 10
31.44132434600002
 20
14.31889925590001
 30
0.0
 10
31.85941036540001
 20
14.32891074730003
 30
0.0
 10
32.27592720280004
 20
14.32329475340003
 30
0.0
 10
32.68848914190002
 20
14.29883389770003
 30
0.0
 10
33.02753500930001
 20
14.25937147740004
 30
0.0
 10
33.29252589890004
 20
14.21398903910002
 30
0.0
 10
33.48493921630004
 20
14.17301318610002
 30
0.0
 10
33.6702510902
 20
14.12469988150005
 30
0.0
 10
33.84592601
 20
14.06919218390001
 30
0.0
 10
34.00876428999999
 20
14.00719935260005
 30
0.0
 10
34.15491107220001
 20
13.94021760010005
 30
0.0
 10
34.26321823940003
 20
13.88016648970003
 30
0.0
 10
34.33776760160004
 20
13.83131227680005
 30
0.0
 10
34.38458584700001
 20
13.79675267570002
 30
0.0
 10
34.42404901670002
 20
13.76334213560004
 30
0.0
 10
34.45575704280003
 20
13.73157668450003
 30
0.0
 10
34.47943646230005
 20
13.70189880530002
 30
0.0
 10
34.49488759050004
 20
13.67459633630005
 30
0.0
 10
34.50199614350001
 20
13.64959944130004
 30
0.0
 10
34.49945938900001
 20
13.62669988720002
 30
0.0
 10
34.48620637080001
 20
13.60799359080005
 30
0.0
 10
34.47304848870002
 20
13.59996936870002
 30
0.0
 10
34.46566493130001
 20
13.59647349680003
 30
0.0
  0
SPLINE
  5
59CA8
330
1F
100
AcDbEntity
  8
1
100
AcDbSpline
210
0.0
220
0.0
230
1.0
 70
     8
 71
     3
 72
    10
 73
     6
 74
     0
 42
0.0000000001
 43
0.0000000001
 40
0.0
 40
0.0
 40
0.0
 40
0.0
 40
0.2091949917
 40
0.4472904652000003
 40
1.0
 40
1.0
 40
1.0
 40
1.0
 10
28.95330547740002
 20
14.03856643660003
 30
0.0
 10
28.96150988370002
 20
14.09783700870002
 30
0.0
 10
28.97699498420002
 20
14.22485318930003
 30
0.0
 10
29.00510660520001
 20
14.50951126550004
 30
0.0
 10
29.0210344011
 20
14.73519346670004
 30
0.0
 10
29.03036432580004
 20
14.89300856260004
 30
0.0
  0
SPLINE
  5
59CA9
330
1F
100
AcDbEntity
  8
1
100
AcDbSpline
210
0.0
220
0.0
230
1.0
 70
     8
 71
     3
 72
    14
 73
    10
 74
     0
 42
0.0000000001
 43
0.0000000001
 40
0.0
 40
0.0
 40
0.0
 40
0.0
 40
0.2638736823
 40
0.3941269364
 40
0.5222429876
 40
0.6475055199000001
 40
0.7692549442000001
 40
0.8869108088999999
 40
1.0
 40
1.0
 40
1.0
 40
1.0
 10
47.93363911400001
 20
-0.2444517729999518
 30
0.0
 10
47.72907510070004
 20
0.9731194255000445
 30
0.0
 10
47.4552713459
 20
2.796953732600023
 30
0.0
 10
47.10566069060004
 20
5.215291647800022
 30
0.0
 10
46.84222636359999
 20
6.990848144200043
 30
0.0
 10
46.56505388910002
 20
8.724068687600059
 30
0.0
 10
46.26319734469999
 20
10.40356042220002
 30
0.0
 10
45.92647253499999
 20
12.01835926210003
 30
0.0
 10
45.66714817980002
 20
13.06678084850006
 30
0.0
 10
45.52783877109999
 20
13.57724482610001
 30
0.0
  0
SPLINE
  5
59CAA
330
1F
100
AcDbEntity
  8
1
100
AcDbSpline
210
0.0
220
0.0
230
1.0
 70
     8
 71
     3
 72
    14
 73
    10
 74
     0
 42
0.0000000001
 43
0.0000000001
 40
0.0
 40
0.0
 40
0.0
 40
0.0
 40
0.2560729414
 40
0.3832014569
 40
0.5093477507000001
 40
0.6343062844000002
 40
0.7578514206999999
 40
0.8797756249999999
 40
1.0
 40
1.0
 40
1.0
 40
1.0
 10
35.1457667702
 20
-7.786159278599967
 30
0.0
 10
35.37798161900003
 20
-7.820743536499975
 30
0.0
 10
35.72095864160002
 20
-7.914302079399959
 30
0.0
 10
36.14456554920002
 20
-8.112436267099951
 30
0.0
 10
36.44014317930001
 20
-8.295514793699965
 30
0.0
 10
36.70813467210005
 20
-8.511883609299985
 30
0.0
 10
36.9414782625
 20
-8.760357835399958
 30
0.0
 10
37.1307851622
 20
-9.038871815399971
 30
0.0
 10
37.2203887538
 20
-9.24398004829996
 30
0.0
 10
37.25317560150001
 20
-9.34921653089998
 30
0.0
  0
SPLINE
  5
59CAB
330
1F
100
AcDbEntity
  8
1
100
AcDbSpline
210
0.0
220
0.0
230
1.0
 70
     8
 71
     3
 72
     9
 73
     5
 74
     0
 42
0.0000000001
 43
0.0000000001
 40
0.0
 40
0.0
 40
0.0
 40
0.0
 40
0.2643942415
 40
1.0
 40
1.0
 40
1.0
 40
1.0
 10
25.88163490350002
 20
13.66613719030002
 30
0.0
 10
25.72886125950001
 20
13.68488507070003
 30
0.0
 10
25.15252924340001
 20
13.76735179370001
 30
0.0
 10
24.58255612249999
 20
13.89510671680003
 30
0.0
 10
24.17153418690003
 20
14.01531702920005
 30
0.0
  0
SPLINE
  5
59CAC
330
1F
100
AcDbEntity
  8
1
100
AcDbSpline
210
0.0
220
0.0
230
1.0
 70
     8
 71
     3
 72
    15
 73
    11
 74
     0
 42
0.0000000001
 43
0.0000000001
 40
0.0
 40
0.0
 40
0.0
 40
0.0
 40
0.1082717974
 40
0.2290967239
 40
0.359249704
 40
0.4946535034
 40
0.6308020568
 40
0.7631309429000001
 40
0.8873814384999999
 40
1.0
 40
1.0
 40
1.0
 40
1.0
 10
38.98947632410003
 20
-0.9798903032999817
 30
0.0
 10
38.92546172390004
 20
-0.9217173623999599
 30
0.0
 10
38.77774808499999
 20
-0.8119539250999707
 30
0.0
 10
38.5246908684
 20
-0.6750711851999541
 30
0.0
 10
38.23696596030001
 20
-0.5614163867999764
 30
0.0
 10
37.92702260440001
 20
-0.4760018672999707
 30
0.0
 10
37.6082500336
 20
-0.4225164567999684
 30
0.0
 10
37.2944442543
 20
-0.4032833915999561
 30
0.0
 10
36.99925790320004
 20
-0.419064612599982
 30
0.0
 10
36.81246930240002
 20
-0.4545054097999639
 30
0.0
 10
36.72593676280002
 20
-0.4791405889999681
 30
0.0
  0
SPLINE
  5
59CAD
330
1F
100
AcDbEntity
  8
1
100
AcDbSpline
210
0.0
220
0.0
230
1.0
 70
     8
 71
     3
 72
    15
 73
    11
 74
     0
 42
0.0000000001
 43
0.0000000001
 40
0.0
 40
0.0
 40
0.0
 40
0.0
 40
0.1089193015
 40
0.2298665125
 40
0.3597240988
 40
0.4946053216000001
 40
0.6302336572
 40
0.7622768675
 40
0.8866753043
 40
1.0
 40
1.0
 40
1.0
 40
1.0
 10
46.64250567480002
 20
-1.139634418299976
 30
0.0
 10
46.57843642840001
 20
-1.083379215499974
 30
0.0
 10
46.43198599980002
 20
-0.9772844947999601
 30
0.0
 10
46.18282705679999
 20
-0.8447006886999588
 30
0.0
 10
45.90107491960004
 20
-0.734489480399958
 30
0.0
 10
45.59836162249999
 20
-0.6512824967999791
 30
0.0
 10
45.28715992230004
 20
-0.598508363399958
 30
0.0
 10
44.9803153668
 20
-0.5783526467999707
 30
0.0
 10
44.69056081510001
 20
-0.5915869502999556
 30
0.0
 10
44.5065222284
 20
-0.6240758685999595
 30
0.0
 10
44.4207930334
 20
-0.6468786137999701
 30
0.0
  0
SPLINE
  5
59CAE
330
1F
100
AcDbEntity
  8
1
100
AcDbSpline
210
0.0
220
0.0
230
1.0
 70
     8
 71
     3
 72
     8
 73
     4
 74
     0
 42
0.0000000001
 43
0.0000000001
 40
0.0
 40
0.0
 40
0.0
 40
0.0
 40
1.0
 40
1.0
 40
1.0
 40
1.0
 10
45.52783877109999
 20
-23.75505166249997
 30
0.0
 10
42.06717969249999
 20
-23.91291099439998
 30
0.0
 10
38.60648803839999
 20
-24.07005755669996
 30
0.0
 10
35.1457667702
 20
-24.22654759069996
 30
0.0
  0
SPLINE
  5
59CAF
330
1F
100
AcDbEntity
  8
1
100
AcDbSpline
210
0.0
220
0.0
230
1.0
 70
     8
 71
     3
 72
    23
 73
    19
 74
     0
 42
0.0000000001
 43
0.0000000001
 40
0.0
 40
0.0
 40
0.0
 40
0.0
 40
0.0084460765
 40
0.0193691402
 40
0.0454174016
 40
0.074107159
 40
0.1040125665
 40
0.1345900758
 40
0.1655874689
 40
0.2283529141
 40
0.2917450039
 40
0.3555166215
 40
0.4195389174000001
 40
0.4837361918
 40
0.6124780686
 40
0.7415107403
 40
0.8707099031
 40
1.0
 40
1.0
 40
1.0
 40
1.0
 10
48.10498508420002
 20
-0.9543048932999624
 30
0.0
 10
48.10300269570004
 20
-0.9537180980999551
 30
0.0
 10
48.09911607050003
 20
-0.950607738599956
 30
0.0
 10
48.09251954570004
 20
-0.9417112028999667
 30
0.0
 10
48.08526319790002
 20
-0.9272311266999793
 30
0.0
 10
48.07748588710004
 20
-0.9080525467999791
 30
0.0
 10
48.0702401693
 20
-0.8874471070999732
 30
0.0
 10
48.06343131900002
 20
-0.8661157748999528
 30
0.0
 10
48.0547855593
 20
-0.8369312027999455
 30
0.0
 10
48.04472125190002
 20
-0.7997987128999569
 30
0.0
 10
48.03345479910004
 20
-0.7546920898999759
 30
0.0
 10
48.02277695589999
 20
-0.7091271220999716
 30
0.0
 10
48.01257026890002
 20
-0.6632529001999501
 30
0.0
 10
47.99947236030002
 20
-0.6017326098999547
 30
0.0
 10
47.98394229280003
 20
-0.5244636685999638
 30
0.0
 10
47.9663407571
 20
-0.4313893144999668
 30
0.0
 10
47.9495779515
 20
-0.3380242881999607
 30
0.0
 10
47.93888269050003
 20
-0.2756616988999667
 30
0.0
 10
47.93363911400001
 20
-0.2444517729999518
 30
0.0
  0
SPLINE
  5
59CB0
330
1F
100
AcDbEntity
  8
1
100
AcDbSpline
210
0.0
220
0.0
230
1.0
 70
     8
 71
     3
 72
    11
 73
     7
 74
     0
 42
0.0000000001
 43
0.0000000001
 40
0.0
 40
0.0
 40
0.0
 40
0.0
 40
0.4611530356000002
 40
0.5884187615
 40
0.7206424127
 40
1.0
 40
1.0
 40
1.0
 40
1.0
 10
17.5456421913
 20
-12.77609827729995
 30
0.0
 10
17.84143605150001
 20
-12.37937062769995
 30
0.0
 10
18.31052261550002
 20
-11.93880724359996
 30
0.0
 10
18.9436605518
 20
-11.49563500089996
 30
0.0
 10
19.43575860769999
 20
-11.19122462839996
 30
0.0
 10
19.82959091420002
 20
-10.98936292449994
 30
0.0
 10
20.10209917670002
 20
-10.86444127699997
 30
0.0
  0
LINE
  5
59CB1
330
1F
100
AcDbEntity
  8
1
100
AcDbLine
 10
36.65708178990002
 20
-9.044243973499959
 30
0.0
 11
36.64799803960003
 21
-9.081908028799972
 31
0.0
  0
SPLINE
  5
59CB2
330
1F
100
AcDbEntity
  8
1
100
AcDbSpline
210
0.0
220
0.0
230
1.0
 70
     8
 71
     3
 72
     9
 73
     5
 74
     0
 42
0.0000000001
 43
0.0000000001
 40
0.0
 40
0.0
 40
0.0
 40
0.0
 40
0.503604738
 40
1.0
 40
1.0
 40
1.0
 40
1.0
 10
34.2231703022
 20
-8.000691228399972
 30
0.0
 10
34.21281778740001
 20
-7.978225524199956
 30
0.0
 10
34.18861690230003
 20
-7.935189562399955
 30
0.0
 10
34.15743873190002
 20
-7.89687973179997
 30
0.0
 10
34.14047194730003
 20
-7.879369250799953
 30
0.0
  0
SPLINE
  5
59CB3
330
1F
100
AcDbEntity
  8
1
100
AcDbSpline
210
0.0
220
0.0
230
1.0
 70
     8
 71
     3
 72
    16
 73
    12
 74
     0
 42
0.0000000001
 43
0.0000000001
 40
0.0
 40
0.0
 40
0.0
 40
0.0
 40
0.1091485075
 40
0.2188075678
 40
0.3319067612
 40
0.4507131461000001
 40
0.5127311823
 40
0.5766229921
 40
0.7101790924
 40
0.8514154315999999
 40
1.0
 40
1.0
 40
1.0
 40
1.0
 10
18.67481750390001
 20
-19.94894746919996
 30
0.0
 10
18.53578822760002
 20
-19.71933558879996
 30
0.0
 10
18.27899711150002
 20
-19.24510352509997
 30
0.0
 10
17.97417132170003
 20
-18.48599898269995
 30
0.0
 10
17.75048776300002
 20
-17.67469289799996
 30
0.0
 10
17.62709850910002
 20
-16.96148767009998
 30
0.0
 10
17.55891730030001
 20
-16.36345765009997
 30
0.0
 10
17.50852192140001
 20
-15.72724430099995
 30
0.0
 10
17.48057600109999
 20
-14.89437810979996
 30
0.0
 10
17.49228775620003
 20
-13.85302830019995
 30
0.0
 10
17.52445994359999
 20
-13.14088938109995
 30
0.0
 10
17.5456421913
 20
-12.77609827689994
 30
0.0
  0
SPLINE
  5
59CB4
330
1F
100
AcDbEntity
  8
1
100
AcDbSpline
210
0.0
220
0.0
230
1.0
 70
     8
 71
     3
 72
    29
 73
    25
 74
     0
 42
0.0000000001
 43
0.0000000001
 40
0.0
 40
0.0
 40
0.0
 40
0.0
 40
0.0625822926
 40
0.1250640896
 40
0.1874406743
 40
0.2497230972
 40
0.3119398037
 40
0.3430814481
 40
0.3742436645
 40
0.4054408822
 40
0.4366845093000002
 40
0.4679793483
 40
0.4993164059000001
 40
0.5306737352000001
 40
0.5620249136
 40
0.5933515191
 40
0.6246484899000003
 40
0.6559202642000001
 40
0.6871768615999999
 40
0.7496170774
 40
0.8121135094999999
 40
0.8746794066999999
 40
0.9373113939999999
 40
1.0
 40
1.0
 40
1.0
 40
1.0
 10
44.40819596480003
 20
1.544110442700024
 30
0.0
 10
44.43495898580002
 20
1.675555550500035
 30
0.0
 10
44.49895654199997
 20
1.936249974100029
 30
0.0
 10
44.62903469080001
 20
2.316976418100033
 30
0.0
 10
44.79683762530001
 20
2.682230699800037
 30
0.0
 10
45.00711791890004
 20
3.024424683800049
 30
0.0
 10
45.22311751650002
 20
3.281028743700026
 30
0.0
 10
45.42284362290001
 20
3.458737251800044
 30
0.0
 10
45.58682932140001
 20
3.574794217800047
 30
0.0
 10
45.7647354247
 20
3.668935555800032
 30
0.0
 10
45.9552173909
 20
3.735544962500028
 30
0.0
 10
46.15488036260001
 20
3.768448865900033
 30
0.0
 10
46.35761607640003
 20
3.762315377500044
 30
0.0
 10
46.5550261827
 20
3.714886707900035
 30
0.0
 10
46.73861901890004
 20
3.628546790300049
 30
0.0
 10
46.90242116920001
 20
3.509486587100035
 30
0.0
 10
47.04388468820002
 20
3.365206971200052
 30
0.0
 10
47.16308364690005
 20
3.202494894800047
 30
0.0
 10
47.29413015850002
 20
2.968272659700033
 30
0.0
 10
47.4110507554
 20
2.652364219000041
 30
0.0
 10
47.49079999200001
 20
2.25730267520003
 30
0.0
 10
47.52191971880001
 20
1.855358822800042
 30
0.0
 10
47.51263820820002
 20
1.452199651400029
 30
0.0
 10
47.48339783660003
 20
1.184834687800041
 30
0.0
 10
47.4636955972
 20
1.051917099700034
 30
0.0
  0
SPLINE
  5
59CB5
330
1F
100
AcDbEntity
  8
cut
100
AcDbSpline
210
0.0
220
0.0
230
1.0
 70
     8
 71
     3
 72
    13
 73
     9
 74
     0
 42
0.0000000001
 43
0.0000000001
 40
0.0
 40
0.0
 40
0.0
 40
0.0
 40
0.12622921
 40
0.252305889
 40
0.5024565671
 40
0.7511535786
 40
0.8756464090999999
 40
1.0
 40
1.0
 40
1.0
 40
1.0
 10
28.14942168069999
 20
15.92723940350007
 30
0.0
 10
28.14942168069999
 20
15.90128158580009
 30
0.0
 10
28.15439870119997
 20
15.84923322390008
 30
0.0
 10
28.18404237159999
 20
15.74973701400009
 30
0.0
 10
28.25567719349996
 20
15.6388797709001
 30
0.0
 10
28.36437867269999
 20
15.5644303494001
 30
0.0
 10
28.46235029369998
 20
15.53316016370009
 30
0.0
 10
28.51363519819998
 20
15.52754482210005
 30
0.0
 10
28.5392058624
 20
15.52727244960007
 30
0.0
  0
SPLINE
  5
59CB6
330
1F
100
AcDbEntity
  8
cut
100
AcDbSpline
210
0.0
220
0.0
230
1.0
 70
     8
 71
     3
 72
    13
 73
     9
 74
     0
 42
0.0000000001
 43
0.0000000001
 40
0.0
 40
0.0
 40
0.0
 40
0.0
 40
0.12622921
 40
0.2523058889
 40
0.5024565671
 40
0.7511535786
 40
0.8756464090999999
 40
1.0
 40
1.0
 40
1.0
 40
1.0
 10
50.79999999999998
 20
24.62721747000009
 30
0.0
 10
50.79999999999998
 20
24.65317528760008
 30
0.0
 10
50.7950229795
 20
24.70522364960007
 30
0.0
 10
50.76537930909998
 20
24.80471985940008
 30
0.0
 10
50.69374448720001
 20
24.91557710260011
 30
0.0
 10
50.58504300799999
 20
24.9900265241001
 30
0.0
 10
50.48707138699999
 20
25.0212967098001
 30
0.0
 10
50.43578648249999
 20
25.02691205140005
 30
0.0
 10
50.41021581839999
 20
25.02718442380015
 30
0.0
  0
ELLIPSE
  5
59CB7
330
1F
100
AcDbEntity
  8
1
100
AcDbEllipse
 10
30.38927493200001
 20
0.0000000000000284
 30
0.0
 11
-137.7175511246
 21
-21.1909032882
 31
0.0
210
0.0
220
0.0
230
1.0
 40
0.0861394841
 41
1.546233018799999
 42
1.570075762899999
  0
ELLIPSE
  5
59CB8
330
1F
100
AcDbEntity
  8
1
100
AcDbEllipse
 10
25.69233899610001
 20
0.0000000000000284
 30
0.0
 11
-277.5824843598
 21
21.07179624850001
 31
0.0
210
0.0
220
0.0
230
1.0
 40
0.0434941688
 41
-4.7084053291
 42
-4.697777658399997
  0
ELLIPSE
  5
59CB9
330
1F
100
AcDbEntity
  8
1
100
AcDbEllipse
 10
17.19855925820002
 20
0.0000000000000284
 30
0.0
 11
-13.5548520073
 21
-22.03630893420002
 31
0.0
210
0.0
220
0.0
230
1.0
 40
0.7530197841
 41
1.5201972799
 42
1.550169757599999
  0
ELLIPSE
  5
59CBA
330
1F
100
AcDbEntity
  8
1
100
AcDbEllipse
 10
19.8756175972
 20
5.304316129800042
 30
0.0
 11
-141.4671237312
 21
21.75782316570001
 31
0.0
210
0.0
220
0.0
230
1.0
 40
0.0835037477
 41
-4.5764077348
 42
-4.499903503099996
  0
ELLIPSE
  5
59CBB
330
1F
100
AcDbEntity
  8
1
100
AcDbEllipse
 10
33.99457043870004
 20
17.13849376980001
 30
0.0
 11
-3.2818191199
 21
-1.907885075999999
 31
0.0
210
0.0
220
0.0
230
1.0
 40
0.0461254087
 41
0.0791760477
 42
0.5317048729
  0
ELLIPSE
  5
59CBC
330
1F
100
AcDbEntity
  8
1
100
AcDbEllipse
 10
29.53687283240001
 20
16.44536449360004
 30
0.0
 11
5.4884877501
 21
10.2818954692
 31
0.0
210
0.0
220
0.0
230
1.0
 40
0.1695740137
 41
0.7989486131
 42
1.2632060001
  0
ELLIPSE
  5
59CBD
330
1F
100
AcDbEntity
  8
1
100
AcDbEllipse
 10
30.38927493200001
 20
0.0000000000000284
 30
0.0
 11
-137.7296477745
 21
0.0000000000000084
 31
0.0
210
0.0
220
0.0
230
1.0
 40
0.1763269807
 41
4.699855848
 42
4.723698592099998
  0
ELLIPSE
  5
59CBE
330
1F
100
AcDbEntity
  8
1
100
AcDbEllipse
 10
25.69233899610001
 20
0.0000000000000284
 30
0.0
 11
-277.5839973703
 21
0.000000000000017
 31
0.0
210
0.0
220
0.0
230
1.0
 40
0.0874886635
 41
-1.582105938499999
 42
-1.5714782678
  0
ELLIPSE
  5
59CBF
330
1F
100
AcDbEntity
  8
1
100
AcDbEllipse
 10
13.2396043686
 20
-25.85448648979997
 30
0.0
 11
-28.6672022895
 21
-19.047965434
 31
0.0
210
0.0
220
0.0
230
1.0
 40
0.8084866442
 41
-3.759474710899997
 42
-3.4712224893
  0
DIMENSION
  5
59CC0
102
{ACAD_XDICTIONARY
360
59CC1
102
}
102
{ACAD_REACTORS
330
59CC2
102
}
330
1F
100
AcDbEntity
  8
2
100
AcDbDimension
  2
*D87
 10
50.4
 20
24.62754204357298
 30
0.0
 11
68.93137034226597
 21
44.15797362309085
 31
0.0
 70
    36
 71
     5
 42
0.3999999999999844
  3
\M+18352\M+18373\M+1815B - ISO-25
100
AcDbRadialDimension
 15
50.7158402394099
 25
24.87299049675508
 35
0.0
 40
0.0
1001
ACAD
1000
DSTYLE
1002
{
1070
     4
1000
"
1070
    40
1040
1.0
1070
   143
1040
0.03937
1070
   170
1070
     1
1070
   171
1070
     3
1070
   271
1070
     8
1070
   285
1070
     4
1002
}
  0
VIEWPORT
  5
6B
102
{ACAD_XDICTIONARY
360
59D9D
102
}
330
50
100
AcDbEntity
 67
     1
  8
0
100
AcDbViewport
 10
155.3592437148233
 20
160.4455827878762
 30
0.0
 40
349.5854424261001
 41
282.2272140146125
 68
     1
 69
     1
 12
155.3592437148233
 22
160.4455827878762
 13
0.0
 23
0.0
 14
10.0
 24
10.0
 15
10.0
 25
10.0
 16
0.0
 26
0.0
 36
1.0
 17
0.0
 27
0.0
 37
0.0
 42
50.0
 43
0.0
 44
0.0
 45
282.2272140146125
 50
0.0
 51
0.0
 72
  1000
 90
    32864
  1

281
     0
 71
     1
 74
     0
110
0.0
120
0.0
130
0.0
111
1.0
121
0.0
131
0.0
112
0.0
122
1.0
132
0.0
 79
     0
146
0.0
  0
VIEWPORT
  5
6D
102
{ACAD_XDICTIONARY
360
59D9F
102
}
330
50
100
AcDbEntity
 67
     1
  8
0
100
AcDbViewport
 10
133.3499939441681
 20
101.5999939441681
 30
0.0
 40
213.3599903106689
 41
162.5599903106689
 68
     2
 69
     2
 12
210.0
 22
148.5
 13
0.0
 23
0.0
 14
10.0
 24
10.0
 15
10.0
 25
10.0
 16
0.0
 26
0.0
 36
1.0
 17
0.0
 27
0.0
 37
0.0
 42
50.0
 43
0.0
 44
0.0
 45
324.0677920111345
 50
0.0
 51
0.0
 72
   100
 90
    32864
  1

281
     0
 71
     1
 74
     0
110
0.0
120
0.0
130
0.0
111
1.0
121
0.0
131
0.0
112
0.0
122
1.0
132
0.0
 79
     0
146
0.0
  0
ENDSEC
  0
SECTION
  2
OBJECTS
  0
DICTIONARY
  5
C
330
0
100
AcDbDictionary
281
     1
  3
ACAD_COLOR
350
85
  3
ACAD_GROUP
350
D
  3
ACAD_LAYOUT
350
1A
  3
ACAD_MATERIAL
350
84
  3
ACAD_MLINESTYLE
350
17
  3
ACAD_PLOTSETTINGS
350
19
  3
ACAD_PLOTSTYLENAME
350
E
  3
ACAD_TABLESTYLE
350
A1
  3
ACDBHEADERROUNDTRIPXREC
350
59D98
  3
AcDbVariableDictionary
350
5E
  3
ASE_INDEX_DICTIONARY
350
349E9
  3
DWGPROPS
350
59D97
  0
DICTIONARY
  5
E2
330
2
100
AcDbDictionary
280
     1
281
     1
  3
ACAD_LAYERFILTERS
360
4E9A4
  3
ACAD_LAYERSTATES
360
3759A
  3
ACLYDICTIONARY
360
4E9A3
  0
DICTIONARY
  5
31EE
330
1F
100
AcDbDictionary
280
     1
281
     1
  3
ACAD_SORTENTS
360
31EF
  0
DICTIONARY
  5
43668
330
680
100
AcDbDictionary
280
     1
281
     1
  3
ACAD_SORTENTS
360
43669
  0
DICTIONARY
  5
59DA1
330
71
100
AcDbDictionary
280
     1
281
     1
  3
ACAD_XREC_ROUNDTRIP
360
59DA2
  0
DICTIONARY
  5
59DA3
330
73
100
AcDbDictionary
280
     1
281
     1
  3
ACAD_XREC_ROUNDTRIP
360
59DA4
  0
DICTIONARY
  5
59CC1
330
59CC0
100
AcDbDictionary
280
     1
281
     1
  3
ACAD_DIMASSOC
360
59CC2
  0
DICTIONARY
  5
59D9D
330
6B
100
AcDbDictionary
280
     1
281
     1
  3
ACAD_XREC_ROUNDTRIP
360
59D9E
  0
DICTIONARY
  5
59D9F
330
6D
100
AcDbDictionary
280
     1
281
     1
  3
ACAD_XREC_ROUNDTRIP
360
59DA0
  0
DICTIONARY
  5
85
102
{ACAD_REACTORS
330
C
102
}
330
C
100
AcDbDictionary
281
     1
  0
DICTIONARY
  5
D
102
{ACAD_REACTORS
330
C
102
}
330
C
100
AcDbDictionary
281
     1
  0
DICTIONARY
  5
1A
102
{ACAD_REACTORS
330
C
102
}
330
C
100
AcDbDictionary
281
     1
  3
\M+1838C\M+18343\M+18341\M+18345\M+183671
350
51
  3
\M+1838C\M+18343\M+18341\M+18345\M+183672
350
56
  3
Model
350
22
  0
DICTIONARY
  5
84
102
{ACAD_REACTORS
330
C
102
}
330
C
100
AcDbDictionary
281
     1
  0
DICTIONARY
  5
17
102
{ACAD_REACTORS
330
C
102
}
330
C
100
AcDbDictionary
281
     1
  3
Standard
350
18
  0
DICTIONARY
  5
19
102
{ACAD_REACTORS
330
C
102
}
330
C
100
AcDbDictionary
281
     1
  0
ACDBDICTIONARYWDFLT
  5
E
102
{ACAD_REACTORS
330
C
102
}
330
C
100
AcDbDictionary
281
     1
  3
Normal
350
F
100
AcDbDictionaryWithDefault
340
F
  0
DICTIONARY
  5
A1
102
{ACAD_REACTORS
330
C
102
}
330
C
100
AcDbDictionary
281
     1
  3
Standard
350
A2
  0
DICTIONARY
  5
59D98
102
{ACAD_REACTORS
330
C
102
}
330
C
100
AcDbDictionary
281
     1
  0
DICTIONARY
  5
5E
102
{ACAD_REACTORS
330
C
102
}
330
C
100
AcDbDictionary
281
     1
  3
CTABLESTYLE
350
B8
  3
DIMASSOC
350
5F
  3
HIDETEXT
350
63
  3
PROJECTNAME
350
31CE
  0
DICTIONARY
  5
349E9
102
{ACAD_REACTORS
330
C
102
}
330
C
100
AcDbDictionary
281
     1
  3
ASEBlockHierarchyIndexRecord
350
349EA
1001
DCO15
1040
1842496176.844
  0
XRECORD
  5
59D97
102
{ACAD_REACTORS
330
C
102
}
330
C
100
AcDbXrecord
280
     1
  1
DWGPROPS COOKIE
  2

  3

  4

  6

  7

  8

  9

300
=
301
=
302
=
303
=
304
=
305
=
306
=
307
=
308
=
309
=
 40
2.242504409722222
 41
2455489.391063368
 42
2458517.772411157
  1

 90
        0
  0
DICTIONARY
  5
4E9A4
102
{ACAD_REACTORS
330
E2
102
}
330
E2
100
AcDbDictionary
281
     1
  0
DICTIONARY
  5
3759A
102
{ACAD_REACTORS
330
E2
102
}
330
E2
100
AcDbDictionary
281
     1
  0
DICTIONARY
  5
4E9A3
102
{ACAD_REACTORS
330
E2
102
}
330
E2
100
AcDbDictionary
281
     1
1001
ACAD
1000
<All
  0
SORTENTSTABLE
  5
31EF
102
{ACAD_REACTORS
330
31EE
102
}
330
31EE
100
AcDbSortentsTable
330
1F
331
68C
  5
435D5
  0
SORTENTSTABLE
  5
43669
102
{ACAD_REACTORS
330
43668
102
}
330
43668
100
AcDbSortentsTable
330
680
  0
XRECORD
  5
59DA2
102
{ACAD_REACTORS
330
59DA1
102
}
330
59DA1
100
AcDbXrecord
280
     1
102
SHADEPLOT
 70
     0
  0
XRECORD
  5
59DA4
102
{ACAD_REACTORS
330
59DA3
102
}
330
59DA3
100
AcDbXrecord
280
     1
102
SHADEPLOT
 70
     0
  0
DIMASSOC
  5
59CC2
102
{ACAD_REACTORS
330
59CC1
102
}
330
59CC1
100
AcDbDimAssoc
330
59CC0
 90
        2
 70
     0
 71
     0
  1
AcDbOsnapPointRef
 72
     3
331
59C11
 73
     2
 91
        0
 40
0.0
 10
0.0
 20
0.0
 30
0.0
 75
     0
  0
XRECORD
  5
59D9E
102
{ACAD_REACTORS
330
59D9D
102
}
330
59D9D
100
AcDbXrecord
280
     1
102
SHADEPLOT
 70
     0
  0
XRECORD
  5
59DA0
102
{ACAD_REACTORS
330
59D9F
102
}
330
59D9F
100
AcDbXrecord
280
     1
102
SHADEPLOT
 70
     0
  0
LAYOUT
  5
51
102
{ACAD_XDICTIONARY
360
B2
102
}
102
{ACAD_REACTORS
330
1A
102
}
330
1A
100
AcDbPlotSettings
  1

  2
none_device
  4
Letter_(8.50_x_11.00_Inches)
  6

 40
6.349999904632567
 41
6.349999904632567
 42
6.350006103515625
 43
6.350006103515625
 44
215.8999938964844
 45
279.3999938964844
 46
0.0
 47
0.0
 48
0.0
 49
0.0
140
0.0
141
0.0
142
1.0
143
1.0
 70
   688
 72
     1
 73
     1
 74
     5
  7

 75
    16
147
1.0
148
0.0
149
0.0
100
AcDbLayout
  1
\M+1838C\M+18343\M+18341\M+18345\M+183671
 70
     1
 71
     1
 10
-6.350006103515625
 20
-6.349999904632567
 11
273.0499877929688
 21
209.5499939918518
 12
0.0
 22
0.0
 32
0.0
 14
26.66999878883364
 24
20.31999878883365
 34
0.0
 15
240.0299890995025
 25
182.8799890995025
 35
0.0
146
0.0
 13
0.0
 23
0.0
 33
0.0
 16
1.0
 26
0.0
 36
0.0
 17
0.0
 27
1.0
 37
0.0
 76
     0
330
50
331
6B
  0
LAYOUT
  5
56
102
{ACAD_XDICTIONARY
360
B5
102
}
102
{ACAD_REACTORS
330
1A
102
}
330
1A
100
AcDbPlotSettings
  1

  2
none_device
  4
Letter_(8.50_x_11.00_Inches)
  6

 40
6.349999904632567
 41
6.349999904632567
 42
6.350006103515625
 43
6.350006103515625
 44
215.8999938964844
 45
279.3999938964844
 46
0.0
 47
0.0
 48
0.0
 49
0.0
140
0.0
141
0.0
142
1.0
143
1.0
 70
   688
 72
     1
 73
     1
 74
     5
  7

 75
    16
147
1.0
148
0.0
149
0.0
100
AcDbLayout
  1
\M+1838C\M+18343\M+18341\M+18345\M+183672
 70
     1
 71
     2
 10
-6.350006103515625
 20
-6.349999904632567
 11
273.0499877929688
 21
209.5499939918518
 12
0.0
 22
0.0
 32
0.0
 14
26.66999878883363
 24
20.31999878883363
 34
0.0
 15
240.0299890995026
 25
182.8799890995025
 35
0.0
146
0.0
 13
0.0
 23
0.0
 33
0.0
 16
1.0
 26
0.0
 36
0.0
 17
0.0
 27
1.0
 37
0.0
 76
     0
330
55
331
71
  0
LAYOUT
  5
22
102
{ACAD_XDICTIONARY
360
59D99
102
}
102
{ACAD_REACTORS
330
1A
102
}
330
1A
100
AcDbPlotSettings
  1

  2
none_device
  4
ANSI_A_(8.50_x_11.00_Inches)
  6

 40
6.349999904632567
 41
19.04999923706055
 42
6.350006103515625
 43
19.04998779296875
 44
215.8999938964844
 45
279.3999938964844
 46
0.0
 47
0.0
 48
0.0
 49
0.0
140
0.0
141
0.0
142
1.0
143
78.436453180766
 70
 11952
 72
     0
 73
     1
 74
     0
  7

 75
     0
147
0.0127491741332998
148
0.0
149
0.0
100
AcDbLayout
  1
Model
 70
     1
 71
     0
 10
0.0
 20
0.0
 11
12.0
 21
9.0
 12
0.0
 22
0.0
 32
0.0
 14
0.0
 24
0.0
 34
0.0
 15
0.0
 25
0.0
 35
0.0
146
0.0
 13
0.0
 23
0.0
 33
0.0
 16
1.0
 26
0.0
 36
0.0
 17
0.0
 27
1.0
 37
0.0
 76
     0
330
1F
  0
MLINESTYLE
  5
18
102
{ACAD_REACTORS
330
17
102
}
330
17
100
AcDbMlineStyle
  2
STANDARD
 70
     0
  3

 62
   256
 51
90.0
 52
90.0
 71
     2
 49
0.5
 62
   256
  6
BYLAYER
 49
-0.5
 62
   256
  6
BYLAYER
  0
ACDBPLACEHOLDER
  5
F
102
{ACAD_REACTORS
330
E
102
}
330
E
  0
TABLESTYLE
  5
A2
102
{ACAD_REACTORS
330
A1
102
}
330
A1
100
AcDbTableStyle
  3
Standard
 70
     0
 71
     0
 40
1.5
 41
1.5
280
     0
281
     0
  7
Standard
140
4.5
170
     2
 62
     0
 63
     7
283
     0
274
    -2
284
     1
 64
     0
275
    -2
285
     1
 65
     0
276
    -2
286
     1
 66
     0
277
    -2
287
     1
 67
     0
278
    -2
288
     1
 68
     0
279
    -2
289
     1
 69
     0
  7
Standard
140
6.0
170
     5
 62
     0
 63
     7
283
     0
274
    -2
284
     1
 64
     0
275
    -2
285
     1
 65
     0
276
    -2
286
     1
 66
     0
277
    -2
287
     1
 67
     0
278
    -2
288
     1
 68
     0
279
    -2
289
     1
 69
     0
  7
Standard
140
4.5
170
     5
 62
     0
 63
     7
283
     0
274
    -2
284
     1
 64
     0
275
    -2
285
     1
 65
     0
276
    -2
286
     1
 66
     0
277
    -2
287
     1
 67
     0
278
    -2
288
     1
 68
     0
279
    -2
289
     1
 69
     0
  0
DICTIONARYVAR
  5
B8
102
{ACAD_REACTORS
330
5E
102
}
330
5E
100
DictionaryVariables
280
     0
  1
STANDARD
  0
DICTIONARYVAR
  5
5F
102
{ACAD_REACTORS
330
5E
102
}
330
5E
100
DictionaryVariables
280
     0
  1
2
  0
DICTIONARYVAR
  5
63
102
{ACAD_REACTORS
330
5E
102
}
330
5E
100
DictionaryVariables
280
     0
  1
1
  0
DICTIONARYVAR
  5
31CE
102
{ACAD_REACTORS
330
5E
102
}
330
5E
100
DictionaryVariables
280
     0
  1

  0
XRECORD
  5
349EA
102
{ACAD_REACTORS
330
349E9
102
}
330
349E9
100
AcDbXrecord
280
     1
330
68C
330
431D
330
431E
330
4329
330
4334
330
4335
330
4B09
330
4B0A
330
5153
330
5154
330
515D
330
515E
330
516A
330
516B
330
5177
330
5178
330
85B4
330
85B5
330
8620
330
8621
330
862A
330
862B
330
8637
330
8638
330
8644
330
8645
330
9773
330
9774
330
977D
330
977E
330
978A
330
978B
330
9797
330
9798
330
BD86
330
BD87
330
BD8F
330
BD90
330
BD98
330
BDA0
330
BDA1
330
BDDD
330
BDDE
330
BDE7
330
BDE8
330
BDF4
330
BDF5
330
BE01
330
BE02
330
E473
330
E474
330
E48D
330
E48E
330
E485
330
E47C
330
E47D
330
E4CC
330
E4CD
330
E4D7
330
E4D8
330
1C63B
330
1C63C
330
1C705
330
1C706
330
1C719
330
1C71A
330
1C72E
330
1C72F
330
1C738
330
1C739
330
27043
330
27044
330
2703A
330
2703B
330
2CF2C
330
2CF2D
330
2CF38
330
2CF39
330
2CF42
330
2CF43
330
2CF4F
330
2CF50
330
2CF59
330
2CF5A
330
2FA31
330
2FA32
330
2FA3D
330
2FA3E
330
2FA4A
330
2FA4B
330
2FA54
330
2FA55
330
329D8
330
329D9
330
329E1
330
329E2
330
329EA
330
329EB
330
329F3
330
329F4
330
32E63
330
32E64
330
32E6F
330
32E70
330
32E79
330
32E7A
330
32E88
330
32E89
330
32E92
330
32E93
  0
DICTIONARY
  5
B2
330
51
100
AcDbDictionary
280
     1
281
     1
  3
ACAD_XREC_ROUNDTRIP
360
59D9B
  3
ADSK_XREC_LAYOUTTHUMBNAIL
360
B3
  0
DICTIONARY
  5
B5
330
56
100
AcDbDictionary
280
     1
281
     1
  3
ACAD_XREC_ROUNDTRIP
360
59D9C
  3
ADSK_XREC_LAYOUTTHUMBNAIL
360
B6
  0
DICTIONARY
  5
59D99
330
22
100
AcDbDictionary
280
     1
281
     1
  3
ACAD_XREC_ROUNDTRIP
360
59D9A
  0
XRECORD
  5
59D9B
102
{ACAD_REACTORS
330
B2
102
}
330
B2
100
AcDbXrecord
280
     1
102
SHADEPLOT
 70
     0
102
SHADEPLOTRESLEVEL
 70
     2
102
SHADEPLOTCUSTOMDPI
 70
   300
  0
XRECORD
  5
B3
102
{ACAD_REACTORS
330
B2
102
}
330
B2
100
AcDbXrecord
280
     1
310
28000000B40000008B0000000100080000000000BC61000000000000000000000001000000000000FFFFFF0000000000FFFFFF000000000000000000000000000000000000000000000000000000000000000000330000006600000099000000CC000000FF00000000330000333300006633000099330000CC330000FF3300
310
0000660000336600006666000099660000CC660000FF66000000990000339900006699000099990000CC990000FF99000000CC000033CC000066CC000099CC0000CCCC0000FFCC000000FF000033FF000066FF000099FF0000CCFF0000FFFF000000003300330033006600330099003300CC003300FF003300003333003333
310
33006633330099333300CC333300FF33330000663300336633006666330099663300CC663300FF66330000993300339933006699330099993300CC993300FF99330000CC330033CC330066CC330099CC3300CCCC3300FFCC330000FF330033FF330066FF330099FF3300CCFF3300FFFF330000006600330066006600660099
310
006600CC006600FF00660000336600333366006633660099336600CC336600FF33660000666600336666006666660099666600CC666600FF66660000996600339966006699660099996600CC996600FF99660000CC660033CC660066CC660099CC6600CCCC6600FFCC660000FF660033FF660066FF660099FF6600CCFF6600
310
FFFF660000009900330099006600990099009900CC009900FF00990000339900333399006633990099339900CC339900FF33990000669900336699006666990099669900CC669900FF66990000999900339999006699990099999900CC999900FF99990000CC990033CC990066CC990099CC9900CCCC9900FFCC990000FF99
310
0033FF990066FF990099FF9900CCFF9900FFFF99000000CC003300CC006600CC009900CC00CC00CC00FF00CC000033CC003333CC006633CC009933CC00CC33CC00FF33CC000066CC003366CC006666CC009966CC00CC66CC00FF66CC000099CC003399CC006699CC009999CC00CC99CC00FF99CC0000CCCC0033CCCC0066CC
310
CC0099CCCC00CCCCCC00FFCCCC0000FFCC0033FFCC0066FFCC0099FFCC00CCFFCC00FFFFCC000000FF003300FF006600FF009900FF00CC00FF00FF00FF000033FF003333FF006633FF009933FF00CC33FF00FF33FF000066FF003366FF006666FF009966FF00CC66FF00FF66FF000099FF003399FF006699FF009999FF00CC
310
99FF00FF99FF0000CCFF0033CCFF0066CCFF0099CCFF00CCCCFF00FFCCFF0000FFFF0033FFFF0066FFFF0099FFFF00CCFFFF00FFFFFF00000000000D0D0D001A1A1A00282828003535350043434300505050005D5D5D006B6B6B00787878008686860093939300A1A1A100AEAEAE00BBBBBB00C9C9C900D6D6D600E4E4E400
310
F1F1F100FFFFFF0000000000000000000000000000000000000000000000000000000000000000000000000000000000EFEFEFE2E2E2E2E2E2E2E2E2E2E2E2E2E2E2E2E2E2E2E2E2E2E2E2E2E2E2E2E2E2E2E2E2E2E2E2E2E2E2E2E2E2E2E2E2E2E2E2E2E2E2E2E2E2E2E2E2E2E2E2E2E2E2E2E2E2E2E2E2E2E2E2E2E2E2E2
310
E2E2E2E2E2E2E2E2E2E2E2E2E2E2E2E2E2E2E2E2E2E2E2E2E2E2E2E2E2E2E2E2E2E2E2E2E2E2E2E2E2E2E2E2E2E2E2E2E2E2E2E2E2E2E2E2E2E2E2E2E2E2E2E2E2E2E2E2E2E2E2E2E2E2E2E2E2E2E2E2E2E2E2E2E2E2E2E2E2E2E2E2E2E2E2E2E2E2E2E2E2E2E2E2E2E2E2E2E2E2E2E2E2E2E2E2E2E2E2E2E2E2E2E2E2E2E2
310
E2E2E2E2E2E2E2E2E2E2E2E2E2E2E2E2E2E2E2E2E2E2E2E2E2E2E2E2E2E2E2E2E2E2E2E2E2E2E2E2E2E2E2E2E2E2E2E2E2E2E2E2E2E2E2E2E2E2E2E2E2E2E2E2E2E2E2E2E2E2E2E2E2E2E2E2E2E2E2E2E2E2E2E2E2E2E2E2E2E2E2E2E2E2E2E2E2E2E2E2E2E2E2E2E2E2E2E2E2E2E2E2E2E2E2E2E2E2E2E2E2E2E2E2E2E2E2
310
E2E2E2E2E2E2E2E2E2E2E2E2E2E2E2E2E2E2E2E2E2E2E2E2E2E2E2E2F5F5F5F5F5F5F5F5F5F5F5F5F5F5F5F5F5F5F5F5F5F5F5F5F5F5F5F5F5F5F5F5F5F5F5F5F5F5F5F5F5F5F5F5F5F5F5F5F5F5F5F5F5F5F5F5F5F5F5F5F5F5F5F5F5F5F5F5F5F5F5F5F5F5F5F5F5F5F5F5F5F5F5F5F5F5F5F5F5F5F5F5F5F5F5F5F5F5F5
310
F5F5F5F5F5F5F5F5F5F5F5F5F5F5F5F5F5F5F5F5F5F5F5F5F5F5F5F5F5F5F5F5F5F5F5F5F5F5F5F5F5F5F5F5F5F5F5F5F5F5F5F5F5F5F5F5F5F5F5F5F5F5F5F5F5F5F5F5F5F5F5F5F5F5F5F5F5F5F5E2E2F5F5F5F5F5F5F5F5F5F5F5F5F5F5F5F5F5F5F5F5F5F5F5F5F5F5F5F5F5F5F5F5F5F5F5F5F5F5F5F5F5F5F5F5F5F5
310
F5F5F5F5F5F5F5F5F5F5F5F5F5F5F5F5F5F5F5F5F5F5F5F5F5F5F5F5F5F5F5F5F5F5F5F5F5F5F5F5F5F5F5F5F5F5F5F5F5F5F5F5F5F5F5F5F5F5F5F5F5F5F5F5F5F5F5F5F5F5F5F5F5F5F5F5F5F5F5F5F5F5F5F5F5F5F5F5F5F5F5F5F5F5F5F5F5F5F5F5F5F5F5F5F5F5F5F5F5F5F5F5F5F5F5F5F5F5F5F5F5F5F5F5F5F5F5
310
F5F5F5F5F5E2E2F5F5F5F5F5F5F5F5F5F5F5F5F5F5F5F5F5F5F5F5F5F5F5F5F5F5F5F5F5F5F5F5F5F5F5F5F5F5F5F5F5F5F5F5F5F5F5F5F5F5F5F5F5F5F5F5F5F5F5F5F5F5F5F5F5F5F5F5F5F5F5F5F5F5F5F5F5F5F5F5F5F5F5F5F5F5F5F5F5F5F5F5F5F5F5F5F5F5F5F5F5F5F5F5F5F5F5F5F5F5F5F5F5F5F5F5F5F5F5F5
310
F5F5F5F5F5F5F5F5F5F5F5F5F5F5F5F5F5F5F5F5F5F5F5F5F5F5F5F5F5F5F5F5F5F5F5F5F5F5F5F5F5F5F5F5F5F5F5F5F5F5F5F5F5F5F5F5F5F5E2E2F5F5F5F5E2E2E2E2E2E2E2E2F5F5F5F5F5F5F5F5F5E2E2E2E2E2E2E2E2E2E2E2E2E2E2E2F5F5F5F5F5F5F5F5F5E2E2E2E2E2E2E2E2E2E2E2E2E2E2E2E2F5F5F5F5F5F5
310
F5F5E2E2E2E2E2E2E2E2E2E2E2E2E2E2E2E2F5F5F5F5F5F5F5F5E2E2E2E2E2E2E2E2E2E2E2E2E2E2E2E2F5F5F5F5F5F5F5F5E2E2E2E2E2E2E2E2E2E2E2E2E2E2E2E2F5F5F5F5F5F5F5F5F5E2E2E2E2E2E2E2E2E2E2E2E2E2E2E2F5F5F5F5F5F5F5F5F5E2E2E2E2E2E2E2E2F5F5F5F5E2E2F5F5F5F5E2F5F5F5F5F5F5F5F5F5
310
F5F5F5F5F5F5F5F5F5F5F5F5F5F5F5F5F5F5F5F5F5F5F5F5F5F5F5F5F5F5F5F5F5F5F5F5F5F5F5F5F5F5F5F5F5F5F5F5F5F5F5F5F5F5F5F5F5F5F5F5F5F5F5F5F5F5F5F5F5F5F5F5F5F5F5F5F5F5F5F5F5F5F5F5F5F5F5F5F5F5F5F5F5F5F5F5F5F5F5F5F5F5F5F5F5F5F5F5F5F5F5F5F5F5F5F5F5F5F5F5F5F5F5F5F5F5F5
310
F5F5F5F5F5F5F5F5F5F5F5F5F5F5F5F5F5F5F5F5F5F5F5F5F5F5F5F5F5F5F5F5E2F5F5F5F5E2E2F5F5F5F5E2F5F5F5F5F5F5F5F5F5F5F5F5F5F5F5F5F5F5F5F5F5F5F5F5F5F5F5F5F5F5F5F5F5F5F5F5F5F5F5F5F5F5F5F5F5F5F5F5F5F5F5F5F5F5F5F5F5F5F5F5F5F5F5F5F5F5F5F5F5F5F5F5F5F5F5F5F5F5F5F5F5F5F5
310
F5F5F5F5F5F5F5F5F5F5F5F5F5F5F5F5F5F5F5F5F5F5F5F5F5F5F5F5F5F5F5F5F5F5F5F5F5F5F5F5F5F5F5F5F5F5F5F5F5F5F5F5F5F5F5F5F5F5F5F5F5F5F5F5F5F5F5F5F5F5F5F5F5F5F5F5F5F5F5F5F5F5F5F5F5E2F5F5F5F5E2E2F5F5F5F5E2F5F5F5F5F5F5F5F5F5F5F5F5F5F5F5F5F5F5F5F5F5F5F5F5F5F5F5F5F5F5
310
F5F5F5F5F5F5F5F5F5F5F5F5F5F5F5F5F5F5F5F5F5F5F5F5F5F5F5F5F5F5F5F5F5F5F5F5F5F5F5F5F5F5F5F5F5F5F5F5F5F5F5F5F5F5F5F5F5F5F5F5F5F5F5F5F5F5F5F5F5F5F5F5F5F5F5F5F5F5F5F5F5F5F5F5F5F5F5F5F5F5F5F5F5F5F5F5F5F5F5F5F5F5F5F5F5F5F5F5F5F5F5F5F5F5F5F5F5F5F5F5F5F5F5F5F5F5F5
310
F5F5F5F5F5F5F5F5F5F5F5E2F5F5F5F5E2E2F5F5F5F5E2F5F5F5F5F5F5F5F5F5F5F5F5F5F5F5F5F5F5F5F5F5F5F5F5F5F5F5F5F5F5F5F5F5F5F5F5F5F5F5F5F5F5F5F5F5F5F5F5F5F5F5F5F5F5F5F5F5F5F5F5F5F5F5F5F5F5F5F5F5F5F5F5F5F5F5F5F5F5F5F5F5F5F5F5F5F5F5F5F5F5F5F5F5F5F5F5F5F5F5F5F5F5F5F5
310
F5F5F5F5F5F5F5F5F5F5F5F5F5F5F5F5F5F5F5F5F5F5F5F5F5F5F5F5F5F5F5F5F5F5F5F5F5F5F5F5F5F5F5F5F5F5F5F5F5F5F5F5F5F5F5F5F5F5F5F5F5F5F5F5E2F5F5F5F5E2E2F5F5F5F5E2F5F5F5F5F5F5F5F5F5F5F5F5F5F5F5F5F5F5F5F5F5F5F5F5F5F5F5F5F5F5F5F5F5F5F5F5F5F5F5F5F5F5F5F5F5F5F5F5F5F5F5
310
F5F5F5F5F5F5F5F5F5F5F5F5F5F5F5F5F5F5F5F5F5F5F5F5F5F5F5F5F5F5F5F5F5F5F5F5F5F5F5F5F5F5F5F5F5F5F5F5F5F5F5F5F5F5F5F5F5F5F5F5F5F5F5F5F5F5F5F5F5F5F5F5F5F5F5F5F5F5F5F5F5F5F5F5F5F5F5F5F5F5F5F5F5F5F5F5F5F5F5F5F5F5F5F5F5F5F5F5F5F5F5F5F5F5F5F5F5E2F5F5F5F5E2E2F5F5F5
310
F5E2F5F5F5F5F5F5F5F5F5F5F5F5F5F5F5F5F5F5F5F5F5F5F5F5F5F5F5F5F5F5F5F5F5F5F5F5F5F5F5F5F5F5F5F5F5F5F5F5F5F5F5F5F5F5F5F5F5F5F5F5F5F5F5F5F5F5F5F5F5F5F5F5F5F5F5F5F5F5F5F5F5F5F5F5F5F5F5F5F5F5F5F5F5F5F5F5F5F5F5F5F5F5F5F5F5F5F5F5F5F5F5F5F5F5F5F5F5F5F5F5F5F5F5F5F5
310
F5F5F5F5F5F5F5F5F5F5F5F5F5F5F5F5F5F5F5F5F5F5F5F5F5F5F5F5F5F5F5F5F5F5F5F5F5F5F5F5F5F5F5E2F5F5F5F5E2E2F5F5F5F5E2F5F5F5F5F5F5F5F5F5F5F5F5F5F5F5F5F5F5F5F5F5F5F5F5F5F5F5F5F5F5F5F5F5F5F5F5F5F5F5F5F5F5F5F5F5F5F5F5F5F5F5F5F5F5F5F5F5F5F5F5F5F5F5F5F5F5F5F5F5F5F5F5
310
F5F5F5F5F5F5F5F5F5F5F5F5F5F5F5F5F5F5F5F5F5F5F5F5F5F5F5F5F5F5F5F5F5F5F5F5F5F5F5F5F5F5F5F5F5F5F5F5F5F5F5F5F5F5F5F5F5F5F5F5F5F5F5F5F5F5F5F5F5F5F5F5F5F5F5F5F5F5F5F5F5F5F5F5F5F5F5F5F5F5F5F5F5F5F5F5E2F5F5F5F5E2E2F5F5F5F5E2F5F5F5F5F5F5F5F5F5F5F5F5F5F5F5F5F5F5F5
310
F5F5F5F5F5F5F5F5F5F5F5F5F5F5F5F5F5F5F5F5F5F5F5F5F5F5F5F5F5F5F5F5F5F5F5F5F5F5F5F5F5F5F5F5F5F5F5F5F5F5F5F5F5F5F5F5F5F5F5F5F5F5F5F5F5F5F5F5F5F5F5F5F5F5F5F5F5F5F5F5F5F5F5F5F5F5F5F5F5F5F5F5F5F5F5F5F5F5F5F5F5F5F5F5F5F5F5F5F5F5F5F5F5F5F5F5F5F5F5F5F5F5F5F5F5F5F5
310
F5F5F5F5F5F5F5F5F5F5F5F5F5F5F5F5F5F5F5F5F5F5E2F5F5F5F5E2E2F5F5F5F5F5F5F5F5F5F5F5F5F5F5F5F5F5F5F5F5F5F5F5F5F5F5F5F5F5F5F5F5F5F5F5F5F5F5F5F5F5F5F5F5F5F5F5F5F5F5F5F5F5F5F5F5F5F5F5F5F5F5F5F5F5F5F5F5F5F5F5F5F5F5F5F5F5F5F5F5F5F5F5F5F5F5F5F5F5F5F5F5F5F5F5F5F5F5
310
F5F5F5F5F5F5F5F5F5F5F5F5F5F5F5F5F5F5F5F5F5F5F5F5F5F5F5F5F5F5F5F5F5F5F5F5F5F5F5F5F5F5F5F5F5F5F5F5F5F5F5F5F5F5F5F5F5F5F5F5F5F5F5F5F5F5F5F5F5F5F5F5F5F5F5F5F5F5F5F5E2E2F5F5F5F5F5F5F5F5F5F5F5F5F5F5F5F5F5F5F5F5F5F5F5F5F5F5F5F5F5F5F5F5F5F5F5F5F5F5F5F5F5F5F5F5F5
310
F5F5F5F5F5F5F5F5F5F5F5F5F5F5F5F5F5F5F5F5F5F5F5F5F5F5F5F5F5F5F5F5F5F5F5F5F5F5F5F5F5F5F5F5F5F5F5F5F5F5F5F5F5F5F5F5F5F5F5F5F5F5F5F5F5F5F5F5F5F5F5F5F5F5F5F5F5F5F5F5F5F5F5F5F5F5F5F5F5F5F5F5F5F5F5F5F5F5F5F5F5F5F5F5F5F5F5F5F5F5F5F5F5F5F5F5F5F5F5F5F5F5F5F5F5F5F5
310
F5F5F5F5F5F5E2E2F5F5F5F5F5F5F5F5F5F5F5F5F5F5F5F5F5F5F5F5F5F5F5F5F5F5F5F5F5F5F5F5F5F5F5F5F5F5F5F5F5F5F5F5F5F5F5F5F5F5F5F5F5F5F5F5F5F5F5F5F5F5F5F5F5F5F5F5F5F5F5F5F5F5F5F5F5F5F5F5F5F5F5F5F5F5F5F5F5F5F5F5F5F5F5F5F5F5F5F5F5F5F5F5F5F5F5F5F5F5F5F5F5F5F5F5F5F5F5
310
F5F5F5F5F5F5F5F5F5F5F5F5F5F5F5F5F5F5F5F5F5F5F5F5F5F5F5F5F5F5F5F5F5F5F5F5F5F5F5F5F5F5F5F5F5F5F5F5F5F5F5F5F5F5F5F5F5F5F5E2E2F5F5F5F5F5F5F5F5F5F5F5F5F5F5F5F5F5F5F5F5F5F5F5F5F5F5F5F5F5F5F5F5F5F5F5F5F5F5F5F5F5F5F5F5F5F5F5F5F5F5F5F5F5F5F5F5F5F5F5F5F5F5F5F5F5F5
310
F5F5F5F5F5F5F5F5F5F5F5F5F5F5F5F5F5F5F5F5F5F5F5F5F5F5F5F5F5F5F5F5F5F5F5F5F5F5F5F5F5F5F5F5F5F5F5F5F5F5F5F5F5F5F5F5F5F5F5F5F5F5F5F5F5F5F5F5F5F5F5F5F5F5F5F5F5F5F5F5F5F5F5F5F5F5F5F5F5F5F5F5F5F5F5F5F5F5F5F5F5F5F5F5F5F5F5F5F5F5F5F5E2E2F5F5F5F5F5F5F5F5F5F5F5F5F5
310
F5F5F5F5F5F5F5F5E2E2E2E2E2E2E2E2E2E2E2E2E2E2E2E2E2E2E2E2E2E2E2E2E2E2E2E2E2E2E2E2E2E2E2E2E2E2E2E2E2E2E2E2E2E2E2E2E2E2E2E2E2E2E2E2E2E2E2E2E2E2E2E2E2E2E2E2E2E2E2E2E2E2E2E2E2E2E2E2E2E2E2E2E2E2E2E2E2E2E2E2E2E2E2E2E2E2E2E2E2E2E2E2E2E2E2E2E2E2E2E2E2E2E2E2E2E2E2
310
E2E2E2E2E2E2E2E2E2E2E2E2E2E2E2E2E2F5F5F5F5F5F5F5F5F5F5F5F5F5F5F5F5F5F5F5F5F5E2E2F5F5F5F5F5F5F5F5F5F5F5F5F5F5F5F5F5F5F5F5F5E22D2D2D2DF5F5F5F5E2F5F5F5F5F5F5F52DF5F5F5F5F5F5F5F5F5F5F5F5F5F5F5F5F5F5E2F5F5F5F5F5F5F5F5F5F5F5F5F5F5F5F5F5F5F5F5F5F5F5F5F5F5F5F5F5
310
F5F5F5F5F5F5F5F5F5F5F5F5F5F5F5F5F5F5F5F5F5F5F5F5F5F5F5F5F5F5F5F5F5F5F5F5F5F5F5F5F5F5F5F5F5F5F5F5F5F5F5F5F5F5F5F5F5F5F5F5F5F5F5F5F5F5F5F5F5E2F5F5F5F5F5F5F5F5F5F5F5F5F5F5F5F5F5F5F5F5F5E2E2F5F5F5F5F5F5F5F5F5F5F5F5F5F5F5F5F5F5F5F5F5E2DCF5F52DF5F5F5F5E2F5F5F5
310
F5F5F5F52DF5F5F5F5F5F5F5F5F5F5F5F5F5F5F5F5F5F5E2F5F5F5F5F5F5F5F5F5F5F5F5F5F5F5F5F5F5F5F5F5F5F5F5F5F5F5F5F5F5F5F5F5F5F5F5F5F5F5F5F5F5F5F5F5F5F5F5F5F5F5F5F5F5F5F5F5F5F5F5F5F5F5F5F5F5F5F5F5F5F5F5F5F5F5F5F5F5F5F5F5F5F5F5F5F5F5F5F5F5F5F5F5F5F5F5F5F5E2F5F5F5F5
310
F5F5F5F5F5F5F5F5F5F5F5F5F5F5F5F5F5E2E2F5F5F5F5F5F5F5F5F5F5F5F5F5F5F5F5F5F5F5F5F5E2DCF5F52DF5F5F5F5E2F5F5F5F5F5F5F52DF5F5F5F5F5F5F5F5F5F5F5F5F5F5F5F5F5F5E2E2F5F5F5F5F5F5F5F5F5F5F5F5F5F5F5F5F5F5F5F5F5F5F5F5F5F5F5F5F5F5F5F5F5F5F5F5F5F5F5F5F5F5F5F5F5F5F5F5F5
310
F5F5F5F5F5F5F5F5F5F5F5F5F5F5F5F5F5F5F5F5F5F5F5F5F5F5F5F5F5F5F5F5F5F5F5F5F5F5F5F5F5F5F5F5F5F5F5F5E2F5F5F5F5F5F5F5F5F5F5F5F5F5F5F5F5F5F5F5F5F5E2E2F5F5F5F5F5F5F5F5F5F5F5F5F5F5F5F5F5F5F5F5F5E2BEF5F52D2D2D2D2D2D2D2D2D2D2D2D2D2DE2E2E2E2E2E2E2E2E2E2E2E2E2E2E2E2
310
E2E2E2E2F5F5F5F5F5F5F5F5F5F5F5F5F5F5F5F5F5F5F5F5F5F5F5F5F5F5F5F5F5F5F5F5F5F5F5F5F5F5F5F5F5F5F5F5F5F5F5F5F5F5F5F5F5F5F5F5F5F5F5F5F5F5F5F5F5F5F5F5F5F5F5F5F5F5F5F5F5F5F5F5F5F5F5F5F5F5F5F5F5F5F5F5F5F5F5F5F5E2F5F5F5F5F5F5F5F5F5F5F5F5F5F5F5F5F5F5F5F5F5E2E2F5F5
310
F5F5E2F5F5F5F5F5F5F5F5F5F5F5F5F5F5F5F5E2DCF5F5F5F5F5F5F5E2F5F5F5F5F5F5F5E2F5F5F5F5F5F5F5F5F5F5F5F5F5F5F5F5F5F5F5F5F5F5F5F5F5F5F5F5F5F5F5F5F5F5F5F5F5F5F5F5F5F5F5F5F5F5F5F5F5F5F5F5F5F5F5F5F5F5F5F5F5F5F5F5F5F5F5F5F5F5F5F5F5F5F5F5F5F5F5F5F5F5F5F5F5F5F5F5F5F5
310
F5F5F5F5F5F5F5F5F5F5F5F5F5F5F5F5F5F5F5F5F5F5F5F5F5F5F5E2F5F5F5F5F5F5F5F5F5F5F5F5F5F5F5F5E2F5F5F5F5E2E2F5F5F5F5E2F5F5F5F5F5F5F5F5F5F5F5F5F5F5F5F5E2F5F5F5F5F5F5F5F5E2F5F5F5F5F5F5F5E2F5F5F5F5F5F5F5F5F5F5F5F5F5F5F5F5F5F5F5F5F5F5F5F5F5F5F5F5F5F5F5F5F5F5F5F5F5
310
F5F5F5F5F5F5F5F5F5F5F5F5F5F5F5F5F5F5F5F5F5F5F5F5F5F5F5F5F5F5F5F5F5F5F5F5F5F5F5F5F5F5F5F5F5F5F5F5F5F5F5F5F5F5F5F5F5F5F5F5F5F5F5F5F5F5F5F5F5F5F5F5F5F5F5F5F5F5F5F5E2F5F5F5F5F5F5F5F5F5F5F5F5F5F5F5F5E2F5F5F5F5E2E2F5F5F5F5E2F5F5F5F5F5F5F5F5F5F5F5F5F5F5F5F5E2E2
310
E2E2E2E2E2E2E2E2F5F5F5F5F5F5F5E2F5F5F5F5F5F5F5F5F5F5F5F5F5F5F5F5F5F5F5F5F5F5F5F5F5F5F5F5F5F5F5F5F5F5F5F5F5F5F5F5F5F5F5F5F5F5F5F5F5F5F5F5F5F5F5F5F5F5F5F5F5F5F5F5F5F5F5F5F5F5F5F5F5F5F5F5F5F5F5F5F5F5F5F5F5F5F5F5F5F5F5F5F5F5F5F5F5F5F5F5F5F5F5F5F5F5F5F5F5F5F5
310
F5F5F5F5F5F5E2F5F5F5F5F5F5F5F5F5F5F5F5F5F5F5F5E2F5F5F5F5E2E2F5F5F5F5E2F5F5F5F5F5F5F5F5F5F5F5F5F5F5F5F5E2E2E2E2F5F5F5F5F5F5F5F5F5F5F5F5F5E2F5F5F5F5F5F5F5F5F5F5F5F5F5F5F5F5F5F5F5F5F5F5F5F5F5F5F5F5F5F5F5F5F5F5F5F5F5F5F5F5F5F5F5F5F5F5F5F5F5F5F5F5F5F5F5F5F5F5
310
F5F5F5F5F5F5F5F5F5F5F5F5F5F5F5F5F5F5F5F5F5F5F5F5F5F5F5F5F5F5F5F5F5F5F5F5F5F5F5F5F5F5F5F5F5F5F5F5F5F5F5F5F5F5F5F5F5F5F5E2F5F5F5F5F5F5F5F5F5F5F5F5F5F5F5F5E2F5F5F5F5E2E2F5F5F5F5E2F5F5F5F5F5F5F5F5F5F5F5F5F5F5F5F5E2E2E2E2F5F5F5F5F5F5F5F5F5F5F5F5F5E2F5F5F5F5F5
310
F5F5F5F5F5F5F5F5F5F5F5F5F5F5F5F5F5F5F5F5F5F5F5F5F5F5F5F5F5F5F5F5F5F5F5F5F5F5F5F5F5F5F5F5F5F5F5F5F5F5F5F5F5F5F5F5F5F5F5F5F5F5F5F5F5F5F5F5F5F5F5F5F5F5F5F5F5F5F5F5F5F5F5F5F5F5F5F5F5F5F5F5F5F5F5F5F5F5F5F5F5F5F5F5F5F5F5F5F5F5F5F5E2F5F5F5F5F5F5F5F5F5F5F5F5F5F5
310
F5F5E2F5F5F5F5E2E2F5F5F5F5E2F5F5F5F5F5F5F5F5F5F5F5F5F5F5F5F5E2F5F5F5F5F5F5F5F5F5F5F5F5F5F5F5F5E2F5F5F5F5F5F5F5F5F5F5F5F5F5F5F5F5F5F5F5F5F5F5F5F5F5F5F5F5F5F5F5F5F5F5F5F5F5F5F5F5F5F5F5F5F5F5F5F5F5F5F5F5F5F5F5F5F5F5F5F5F5F5F5F5F5F5F5F5F5F5F5F5F5F5F5F5F5F5F5
310
F5F5F5F5F5F5F5F5F5F5F5F5F5F5F5F5F5F5F5F5F5F5F5F5F5F5F5F5F5F5F5F5F5F5F5F5F5F5E2F5F5F5F5F5F5F5F5F5F5F5F5F5F5F5F5E2F5F5F5F5E2E2F5F5F5F5E2F5F5F5F5F5F5F5F5F5F5F5F5F5F5F5F5E2E2E2E2E2E2E2E2E2E2E2E2E2E2E2E2E2E2F5F5F5F5F5F5F5F5F5F5F5F5F5F5F5F5F5F5F5F5F5F5F5F5F5F5
310
F5F5F5F5F5F5F5F5F5F5F5F5F5F5F5F5F5F5F5F5F5F5F5F5F5F5F5F5F5F5F5F5F5F5F5F5F5F5F5F5F5F5F5F5F5F5F5F5F5F5F5F5F5F5F5F5F5F5F5F5F5F5F5F5F5F5F5F5F5F5F5F5F5F5F5F5F5F5F5F5F5F5F5F5F5F5F5F5F5F5F5E2F5F5F5F5F5F5F5F5F5F5F5F5F5F5F5F5E2F5F5F5F5E2E2F5F5F5F5E2F5F5F5F5F5F5F5
310
F5F5F5F5F5F5F5F5F5E2E2E2F5F5F5F5F5F5F5F5F5F5F5F5F5F5F5F5F5F5F5F5F5F5F5F5F5F5F5F5F5F5F5F5F5F5F5F5F5F5F5F5F5F5F5F5F5F5F5F5F5F5F5F5F5F5F5F5F5F5F5F5F5F5F5F5F5F5F5F5F5F5F5F5F5F5F5F5F5F5F5F5F5F5F5F5F5F5F5F5F5F5F5F5F5F5F5F5F5F5F5F5F5F5F5F5F5F5F5F5F5F5F5F5F5F5F5
310
F5F5F5F5F5F5F5F5F5F5F5F5F5F5F5F5F5E2F5F5F5F5F5F5F5F5F5F5F5F5F5F5F5F5E2F5F5F5F5E2E2F5F5F5F5E2F5F5F5F5F5F5F5F5F5F5F5F5F5F5F5F5E2E2E2F5F5F5F5F5F5F5F5F5F5F5F5F5F5F5F5F5F5F5F5F5F5F5F5F5F5F5F5F5F5F5F5F5F5F5F5F5F5F5F5F5F5F5F5F5F5F5F5F5F5F5F5F5F5F5F5F5F5F5F5F5F5
310
F5F5F5F5F5F5F5F5F5F5F5F5F5F5F5F5F5F5F5F5F5F5F5F5F5F5F5F5F5F5F5F5F5F5F5F5F5F5F5F5F5F5F5F5F5F5F5F5F5F5F5F5F5F5F5F5F5F5F5F5F5F5F5F5F5F5F5F5F5F5E2F5F5F5F5F5F5F5F5F5F5F5F5F5F5F5F5E2F5F5F5F5E2E2F5F5F5F5E2F5F5F5F5F5F5F5F5F5F5F5F5F5F5F5F5E2F5F5F5F5F5F5F5F5F5F5F5
310
F5F5F5F5F5F5F5F5F5F5F5F5F5F5F5F5F5F5F5F5F5F5F5F5F5F5F5F5F5F5F5F5F5F5F5F5F5F5F5F5F5F5F5F5F5F5F5F5F5F5F5F5F5F5F5F5F5F5F5F5F5F5F5F5F5F5F5F5F5F5F5F5F5F5F5F5F5F5F5F5F5F5F5F5F5F5F5F5F5F5F5F5F5F5F5F5F5F5F5F5F5F5F5F5F5F5F5F5F5F5F5F5F5F5F5F5F5F5F5F5F5F5F5E2F5F5F5
310
F5F5F5F5F5F5F5F5F5F5F5F5F5E2F5F5F5F5E2E2F5F5F5F5E2F5F5F5F5F5F5F5F5F5F5F5F5F5F5F5F5E20F0F0F0F0F0F0F0F0F0F0FF5F5F5F5F5F5F5F5F5F5F5F5F5F5F5F5F5F5F5F5F5F5F5F5F5F5F5F5F5F5F5F5F5F5F5F5F5F5F5F5F5F5F5F5F5F5F5F5F5F5F5F5F5F5F5F5F5F5F5F5F5F5F5F5F5F5F5F5F5F5F5F5F5F5
310
F5F5F5F5F5F5F5F5F5F5F5F5F5F5F5F5F5F5F5F5F5F5F5F5F5F5F5F5F5F5F5F5F5F5F5F5F5F5F5F5F5F5F5F5F5F5F5F5F5E2F5F5F5F5F5F5F5F5F5F5F5F5F5F5F5F5E2F5F5F5F5E2E2F5F5F5F5E2F5F5F5F5F5F5F5F5F5F5F5F5F5F5F5F5E20F0F0F0F0F0F0F0F0F0FF5F5F5F5F5F5F5F5F5F5F5F5F5F5F5F5F5F5F5F5F5F5
310
F5F5F5F5F5F5F5F5F5F5F5F5F5F5F5F5F5F5F5F5F5F5F5F5F5F5F5F5F5F5F5F5F5F5F5F5F5F5F5F5F5F5F5F5F5F5F5F5F5F5F5F5F5F5F5F5F5F5F5F5F5F5F5F5F5F5F5F5F5F5F5F5F5F5F5F5F5F5F5F5F5F5F5F5F5F5F5F5F5F5F5F5F5F5F5F5F5F5F5F5F5F5E2F5F5F5F5F5F5F5F5F5F5F5F5F5F5F5F5E2F5F5F5F5E2E2F5
310
F5F5F5E2F5F5F5F5F5F5F5F5F5F5F5F5F5F5F5F5E2F5F5F5F5F5F5F5F5F5F5F5F5F5F5F5F5F5F5F5F5F5F5F5F5F5F5F5F5F5F5F5F5F5F5F5F5F5F5F5F5F5F5F5F5F5F5F5F5F5F5F5F5F5F5F5F5F5F5F5F5F5F5F5F5F5F5F5F5F5F5F5F5F5F5F5F5F5F5F5F5F5F5F5F5F5F5F5F5F5F5F5F5F5F5F5F5F5F5F5F5F5F5F5F5F5F5
310
F5F5F5F5F5F5F5F5F5F5F5F5F5F5F5F5F5F5F5F5F5F5F5F5F5F5F5F5E2F5F5F5F5F5F5F5F5F5F5F5F5F5F5F5F5E2F5F5F5F5E2E2F5F5F5F5E2F5F5F5F5F5F5F5F5F5F5F5F5F5F5F5F5E2F5F5F5F5F5F5F5F5F5F5F5F5F5F5F5F5F5F5F5F5F5F5F5F5F5F5F5F5F5F5F5F5F5F5F5F5F5F5F5F5F5F5F5F5F5F5F5F5F5F5F5F5F5
310
F5F5F5F5F5F5F5F5F5F5F5F5F5F5F5F5F5F5F5F5F5F5F5F5F5F5F5F5F5F5F5F5F5F5F5F5F5F5F5F5F5F5F5F5F5F5F5F5F5F5F5F5F5F5F5F5F5F5F5F5F5F5F5F5F5F5F5F5F5F5F5F5F5F5F5F5F5F5F5F5F5E2F5F5F5F5F5F5F5F5F5F5F5F5F5F5F5F5E2F5F5F5F5E2E2F5F5F5F5E2F5F5F5F5F5F5F5F5F5F5F5F5F5F5F5F5E2
310
F5F5F5F5F5F5F5F5F5F5F5F5F5F5F5F5F5F5F5F5F5F5F5F5F5F5F5F5F5F5F5F5F5F5F5F5F5F5F5F5F5F5F5F5F5F5F5F5F5F5F5F5F5F5F5F5F5F5F5F5F5F5F5F5F5F5F5F5F5F5F5F5F5F5F5F5F5F5F5F5F5F5F5F5F5F5F5F5F5F5F5F5F5F5F5F5F5F5F5F5F5F5F5F5F5F5F5F5F5F5F5F5F5F5F5F5F5F5F5F5F5F5F5F5F5F5F5
310
F5F5F5F5F5F5F5E2F5F5F5F5F5F5F5F5F5F5F5F5F5F5F5F5E2F5F5F5F5E2E2F5F5F5F5E2F5F5F5F5F5F5F5F5F5F5F5F5F5F5F5F5E2F5F5F5F5F5F5F5F5F5F5F5F5F5F5F5F5F5F5F5F5F5F5F5F5F5F5F5F5F5F5F5F5F5F5F5F5F5F5F5F5F5F5F5F5F5F5F5F5F5F5F5F5F5F5F5F5F5F5F5F5F5F5F5F5F5F5F5F5F5F5F5F5F5F5
310
F5F5F5F5F5F5F5F5F5F5F5F5F5F5F5F5F5F5F5F5F5F5F5F5F5F5F5F5F5F5F5F5F5F5F5F5F5F5F5F5F5F5F5F5F5F5F5F5F5F5F5F5F5F5F5F5F5F5F5F5E2F5F5F5F5F5F5F5F5F5F5F5F5F5F5F5F5E2F5F5F5F5E2E2F5F5F5F5F5F5F5F5F5F5F5F5F5F5F5F5F5F5F5F5F5E2F5F5F5F5F5F5F5F5F5F5F5F5F5F5F5F5F5F5F5F5F5
310
F5F5F5F5F5F5F5F5F5F5F5F5F5F5F5F5F5F5F5F5F5F5F5F5F5F5F5F5F5F5F5F5F5F5F5F5F5F5F5F5F5F5F5F5F5F5F5F5F5F5F5F5F5F5F5F5F5F5F5F5F5F5F5F5F5F5F5F5F5F5F5F5F5F5F5F5F5F5F5F5F5F5F5F5F5F5F5F5F5F5F5F5F5F5F5F5F5F5F5F5F5F5F5F5F5F5F5F5F5F5F5F5F5E2F5F5F5F5F5F5F5F5F5F5F5F5F5
310
F5F5F5F5F5F5F5F5E2E2F5F5F5F5F5F5F5F5F5F5F5F5F5F5F5F5F5F5F5F5F5E2F5F5F5F5F5F5F5F5F5F5F5F5F5F5F5F5F5F5F5F5F5F5F5F5F5F5F5F5F5F5F5F5F5F5F5F5F5F5F5F5F5F5F5F5F5F5F5F5F5F5F5F5F5F5F5F5F5F5F5F5F5F5F5F5F5F5F5F5F5F5F5F5F5F5F5F5F5F5F5F5F5F5F5F5F5F5F5F5F5F5F5F5F5F5F5
310
F5F5F5F5F5F5F5F5F5F5F5F5F5F5F5F5F5F5F5F5F5F5F5F5F5F5F5F5F5F5F5F5F5F5F5F5F5F5F5E2F5F5F5F5F5F5F5F5F5F5F5F5F5F5F5F5F5F5F5F5F5E2E2F5F5F5F5F5F5F5F5F5F5F5F5F5F5F5F5F5F5F5F5F5E2F5F5F5F5F5F5F5F5F5F5F5F5F5F5F5F5F5F5F5F5F5F5F5F5F5F5F5F5F5F5F5F5F5F5F5F5F5F5F5F5F5F5
310
F5F5F5F5F5F5F5F5F5F5F5F5F5F5F5F5F5F5F5F5F5F5F5F5F5F5F5F5F5F5F5F5F5F5F5F5F5F5F5F5F5F5F5F5F5F5F5F5F5F5F5F5F5F5F5F5F5F5F5F5F5F5F5F5F5F5F5F5F5F5F5F5F5F5F5F5F5F5F5F5F5F5F5F5F5F5F5F5F5F5F5F5E2F5F5F5F5F5F5F5F5F5F5F5F5F5F5F5F5F5F5F5F5F5E2E2F5F5F5F5F5F5F5F5F5F5F5
310
F5F5F5F5F5F5F5F5F5F5E2F5F5F5F5F5F5F5F5F5F5F5F5F5F5F5F5F5F5F5F5F5F5F5F5F5F5F5F5F5F5F5F5F5F5F5F5F5F5F5F5F5F5F5F5F5F5F5F5F5F5F5F5F5F5F5F5F5F5F5F5F5F5F5F5F5F5F5F5F5F5F5F5F5F5F5F5F5F5F5F5F5F5F5F5F5F5F5F5F5F5F5F5F5F5F5F5F5F5F5F5F5F5F5F5F5F5F5F5F5F5F5F5F5F5F5F5
310
F5F5F5F5F5F5F5F5F5F5F5F5F5F5F5F5F5F5E2F5F5F5F5F5F5F5F5F5F5F5F5F5F5F5F5F5F5F5F5F5E2E2F5F5F5F5F5F5F5F5F5F5F5F5F5F5F5F5F5F5F5F5F5E2F5F5F5F5F5F5F5F5F5F5F5F5F5F5F5F5F5F5F5F5F5F5F5F5F5F5F5F5F5F5F5F5F5F5F5F5F5F5F5F5F5F5F5F5F5F5F5F5F5F5F5F5F5F5F5F5F5F5F5F5F5F5F5
310
F5F5F5F5F5F5F5F5F5F5F5F5F5F5F5F5F5F5F5F5F5F5F5F5F5F5F5F5F5F5F5F5F5F5F5F5F5F5F5F5F5F5F5F5F5F5F5F5F5F5F5F5F5F5F5F5F5F5F5F5F5F5F5F5F5F5F5F5F5F5F5E2F5F5F5F5F5F5F5F5F5F5F5F5F5F5F5F5F5F5F5F5F5E2E2F5F5F5F5F5F5F5F5F5F5F5F5F5F5F5F5F5F5F5F5F5E2F5F5F5F5F5F5F5F5F5F5
310
F5F5F5F5F5F5F5F5F5F5F5F5F5F5F5F5F5F5F5F5F5F5F5F5F5F5F5F5F5F5F5F5F5F5F5F5F5F5F5F5F5F5F5F5F5F5F5F5F5F5F5F5F5F5F5F5F5F5F5F5F5F5F5F5F5F5F5F5F5F5F5F5F5F5F5F5F5F5F5F5F5F5F5F5F5F5F5F5F5F5F5F5F5F5F5F5F5F5F5F5F5F5F5F5F5F5F5F5F5F5F5F5F5F5F5F5F5F5F5F5F5F5F5F5E2F5F5
310
F5F5F5F5F5F5F5F5F5F5F5F5F5F5F5F5F5F5F5E2E2F5F5F5F5F5F5F5F5F5F5F5F5F5F5F5F5F5F5F5F5F5E2F5F5F5F5F5F5F5F5F5F5F5F5F5F5F5F5F5F5F5F5F5F5F5F5F5F5F5F5F5F5F5F5F5F5F5F5F5F5F5F5F5F5F5F5F5F5F5F5F5F5F5F5F5F5F5F5F5F5F5F5F5F5F5F5F5F5F5F5F5F5F5F5F5F5F5F5F5F5F5F5F5F5F5F5
310
F5F5F5F5F5F5F5F5F5F5F5F5F5F5F5F5F5F5F5F5F5F5F5F5F5F5F5F5F5F5F5F5F5F5F5F5F5F5F5F5F5F5F5F5F5F5F5F5F5F5E2F5F5F5F5F5F5F5F5F5F5F5F5F5F5F5F5F5F5F5F5F5E2E2F5F5F5F5F5F5F5F5F5F5F5F5F5F5F5F5F5F5F5F5F5E2F5F5F5F5F5F5F5F5F5F5F5F5F5F5F5F5F5F5F5F5F5F5F5F5F5F5F5F5F5F5F5
310
F5F5F5F5F5F5F5F5F5F5F5F5F5F5F5F5F5F5F5F5F5F5F5F5F5F5F5F5F5F5F5F5F5F5F5F5F5F5F5F5F5F5F5F5F5F5F5F5F5F5F5F5F5F5F5F5F5F5F5F5F5F5F5F5F5F5F5F5F5F5F5F5F5F5F5F5F5F5F5F5F5F5F5F5F5F5F5F5F5F5F5F5F5F5F5F5F5F5F5F5F5F5F5E2F5F5F5F5F5F5F5F5F5F5F5F5F5F5F5F5F5F5F5F5F5E2E2
310
F5F5F5F5F5F5F5F5F5F5F5F5F5F5F5F5F5F5F5F5F5E2F5F5F5F5F5F5F5F5F5F5F5F5F5F5F5F5F5F5F5F5F5F5F5F5F5F5F5F5F5F5F5F5F5F5F5F5F5F5F5F5F5F5F5F5F5F5F5F5F5F5F5F5F5F5F5F5F5F5F5F5F5F5F5F5F5F5F5F5F5F5F5F5F5F5F5F5F5F5F5F5F5F5F5F5F5F5F5F5F5F5F5F5F5F5F5F5F5F5F5F5F5F5F5F5F5
310
F5F5F5F5F5F5F5F5F5F5F5F5F5F5F5F5F5F5F5F5F5F5F5F5F5F5F5F5F5E2F5F5F5F5F5F5F5F5F5F5F5F5F5F5F5F5F5F5F5F5F5E2E2F5F5F5F5F5F5F5F5F5F5F5F5F5F5F5F5F5F5F5F5F5E2F5F5F5F5F5F5F5F5F5F5F5F5F5F5F5F5F5F5F5F5F5F5F5F5F5F5F5F5F5F5F5F5F5F5F5F5F5F5F5F5F5F5F5F5F5F5F5F5F5F5F5F5
310
F5F5F5F5F5F5F5F5F5F5F5F5F5F5F5F5F5F5F5F5F5F5F5F5F5F5F5F5F5F5F5F5F5F5F5F5F5F5F5F5F5F5F5F5F5F5F5F5F5F5F5F5F5F5F5F5F5F5F5F5F5F5F5F5F5F5F5F5F5F5F5F5F5F5F5F5F5F5F5F5F5F5E2F5F5F5F5F5F5F5F5F5F5F5F5F5F5F5F5F5F5F5F5F5E2E2F5F5F5F5E2F5F5F5F5F5F5F5F5F5F5F5F5F5F5F5F5
310
E2F5F5F5F5F5F5F5F5F5F5F5F5F5F5F5F5F5F5F5F5F5F5F5F5F5F5F5F5F5F5F5F5F5F5F5F5F5F5F5F5F5F5F5F5F5F5F5F5F5F5F5F5F5F5F5F5F5F5F5F5F5F5F5F5F5F5F5F5F5F5F5F5F5F5F5F5F5F5F5F5F5F5F5F5F5F5F5F5F5F5F5F5F5F5F5F5F5F5F5F5F5F5F5F5F5F5F5F5F5F5F5F5F5F5F5F5F5F5F5F5F5F5F5F5F5F5
310
F5F5F5F5F5F5F5F5E2F5F5F5F5F5F5F5F5F5F5F5F5F5F5F5F5E2F5F5F5F5E2E2F5F5F5F5E2F5F5F5F5F5F5F5F5F5F5F5F5F5F5F5F5E2F5F5F5F5F5F5F5F5F5F5F5F5F5F5F5F5F5F5F5F5F5F5F5F5F5F5F5F5F5F5F5F5F5F5F5F5F5F5F5F5F5F5F5F5F5F5F5F5F5F5F5F5F5F5F5F5F5F5F5F5F5F5F5F5F5F5F5F5F5F5F5F5F5
310
F5F5F5F5F5F5F5F5F5F5F5F5F5F5F5F5F5F5F5F5F5F5F5F5F5F5F5F5F5F5F5F5F5F5F5F5F5F5F5F5F5F5F5F5F5F5F5F5F5F5F5F5F5F5F5F5F5F5F5F5F5E2F5F5F5F5F5F5F5F5F5F5F5F5F5F5F5F5E2F5F5F5F5E2E2F5F5F5F5E2F5F5F5F5F5F5F5F5F5F5F5F5F5F5F5F5E2F5F5F5F5F5F5F5F5F5F5F5F5F5F5F5F5F5F5F5F5
310
F5F5F5F5F5F5F5F5F5F5F5F5F5F5F5F5F5F5F5F5F5F5F5F5F5F5F5F5F5F5F5F5F5F5F5F5F5F5F5F5F5F5F5F5F5F5F5F5F5F5F5F5F5F5F5F5F5F5F5F5F5F5F5F5F5F5F5F5F5F5F5F5F5F5F5F5F5F5F5F5F5F5F5F5F5F5F5F5F5F5F5F5F5F5F5F5F5F5F5F5F5F5F5F5F5F5F5F5F5F5F5F5F5F5E2F5F5F5F5F5F5F5F5F5F5F5F5
310
F5F5F5F5E2F5F5F5F5E2E2F5F5F5F5E2F5F5F5F5F5F5F5F5F5F5F5F5F5F5F5F5E2F5F5F5F5F5F5F5F5F5F5F5F5F5F5F5F5F5F5F5F5F5F5F5F5F5F5F5F5F5F5F5F5F5F5F5F5F5F5F5F5F5F5F5F5F5F5F5F5F5F5F5F5F5F5F5F5F5F5F5F5F5F5F5F5F5F5F5F5F5F5F5F5F5F5F5F5F5F5F5F5F5F5F5F5F5F5F5F5F5F5F5F5F5F5
310
F5F5F5F5F5F5F5F5F5F5F5F5F5F5F5F5F5F5F5F5F5F5F5F5F5F5F5F5F5F5F5F5F5F5F5F5F5F5F5F5E2F5F5F5F5F5F5F5F5F5F5F5F5F5F5F5F5E2F5F5F5F5E2E2F5F5F5F5E2F5F5F5F5F5F5F5F5F5F5F5F5F5F5F5F5E2F5F5F5F5F5F5F5F5F5F5F5F5F5F5F5F5F5F5F5F5F5F5F5F5F5F5F5F5F5F5F5F5F5F5F5F5F5F5F5F5F5
310
F5F5F5F5F5F5F5F5F5F5F5F5F5F5F5F5F5F5F5F5F5F5F5F5F5F5F5F5F5F5F5F5F5F5F5F5F5F5F5F5F5F5F5F5F5F5F5F5F5F5F5F5F5F5F5F5F5F5F5F5F5F5F5F5F5F5F5F5F5F5F5F5F5F5F5F5F5F5F5F5F5F5F5F5F5F5F5F5F5F5F5F5F5E2F5F5F5F5F5F5F5F5F5F5F5F5F5F5F5F5E2F5F5F5F5E2E2F5F5F5F5E2F5F5F5F5F5
310
F5F5F5F5F5F5F5F5F5F5F5E2F5F5F5F5F5F5F5F5F5F5F5F5F5F5F5F5F5F5F5F5F5F5F5F5F5F5F5F5F5F5F5F5F5F5F5F5F5F5F5F5F5F5F5F5F5F5F5F5F5F5F5F5F5F5F5F5F5F5F5F5F5F5F5F5F5F5F5F5F5F5F5F5F5F5F5F5F5F5F5F5F5F5F5F5F5F5F5F5F5F5F5F5F5F5F5F5F5F5F5F5F5F5F5F5F5F5F5F5F5F5F5F5F5F5F5
310
F5F5F5F5F5F5F5F5F5F5F5F5F5F5F5F5F5F5F5E2F5F5F5F5F5F5F5F5F5F5F5F5F5F5F5F5E2F5F5F5F5E2E2F5F5F5F5E2F5F5F5F5F5F5F5F5F5F5F5F5F5F5F5F5E2F5F5F5F5F5F5F5F5F5F5F5F5F5F5F5F5F5F5F5F5F5F5F5F5F5F5F5F5F5F5F5F5F5F5F5F5F5F5F5F5F5F5F5F5F5F5F5F5F5F5F5F5F5F5F5F5F5F5F5F5F5F5
310
F5F5F5F5F5F5F5F5F5F5F5F5F5F5F5F5F5F5F5F5F5F5F5F5F5F5F5F5F5F5F5F5F5F5F5F5F5F5F5F5F5F5F5F5F5F5F5F5F5F5F5F5F5F5F5F5F5F5F5F5F5F5F5F5F5F5F5F5F5F5F5F5E2F5F5F5F5F5F5F5F5F5F5F5F5F5F5F5F5E2F5F5F5F5E2E2F5F5F5F5E2F5F5F5F5F5F5F5F5F5F5F5F5F5F5F5F5E2F5F5F5F5F5F5F5F5F5
310
F5F5F5F5F5F5F5F5F5F5F5F5F5F5F5F5F5F5F5F5F5F5F5F5F5F5F5F5F5F5F5F5F5F5F5F5F5F5F5F5F5F5F5F5F5F5F5F5F5F5F5F5F5F5F5F5F5F5F5F5F5F5F5F5F5F5F5F5F5F5F5F5F5F5F5F5F5F5F5F5F5F5F5F5F5F5F5F5F5F5F5F5F5F5F5F5F5F5F5F5F5F5F5F5F5F5F5F5F5F5F5F5F5F5F5F5F5F5F5F5F5F5F5F5F5E2F5
310
F5F5F5F5F5F5F5F5F5F5F5F5F5F5F5E2F5F5F5F5E2E2F5F5F5F5E2F5F5F5F5F5F5F5F5F5F5F5F5F5F5F5F5E2F5F5F5F5F5F5F5F5F5F5F5F5F5F5F5F5F5F5F5F5F5F5F5F5F5F5F5F5F5F5F5F5F5F5F5F5F5F5F5F5F5F5F5F5F5F5F5F5F5F5F5F5F5F5F5F5F5F5F5F5F5F5F5F5F5F5F5F5F5F5F5F5F5F5F5F5F5F5F5F5F5F5F5
310
F5F5F5F5F5F5F5F5F5F5F5F5F5F5F5F5F5F5F5F5F5F5F5F5F5F5F5F5F5F5F5F5F5F5F5F5F5F5F5F5F5F5F5F5F5F5F5F5F5F5F5E2F5F5F5F5F5F5F5F5F5F5F5F5F5F5F5F5E2F5F5F5F5E2E2F5F5F5F5E2F5F5F5F5F5F5F5F5F5F5F5F5F5F5F5F5E2F5F5F5F5F5F5F5F5F5F5F5F5F5F5F5F5F5F5F5F5F5F5F5F5F5F5F5F5F5F5
310
F5F5F5F5F5F5F5F5F5F5F5F5F5F5F5F5F5F5F5F5F5F5F5F5F5F5F5F5F5F5F5F5F5F5F5F5F5F5F5F5F5F5F5F5F5F5F5F5F5F5F5F5F5F5F5F5F5F5F5F5F5F5F5F5F5F5F5F5F5F5F5F5F5F5F5F5F5F5F5F5F5F5F5F5F5F5F5F5F5F5F5F5F5F5F5F5F5F5F5F5F5F5F5F5E2F5F5F5F5F5F5F5F5F5F5F5F5F5F5F5F5E2F5F5F5F5E2
310
E2F5F5F5F5E2F5F5F5F5F5F5F5F5F5F5F5F5F5F5F5F5E2F5F5F5F5F5F5F5F5F5F5F5F5F5F5F5F5F5F5F5F5F5F5F5F5F5F5F5F5F5F5F5F5F5F5F5F5F5F5F5F5F5F5F5F5F5F5F5F5F5F5F5F5F5F5F5F5F5F5F5F5F5F5F5F5F5F5F5F5F5F5F5F5F5F5F5F5F5F5F5F5F5F5F5F5F5F5F5F5F5F5F5F5F5F5F5F5F5F5F5F5F5F5F5F5
310
F5F5F5F5F5F5F5F5F5F5F5F5F5F5F5F5F5F5F5F5F5F5F5F5F5F5F5F5F5F5E2F5F5F5F5F5F5F5F5F5F5F5F5F5F5F5F5E2F5F5F5F5E2E2F5F5F5F5E2F5F5F5F5F5F5F5F5F5F5F5F5F5F5F5F5E2F5F5F5F5F5F5F5F5F5F5F5F5F5F5F5F5F5F5F5F5F5F5F5F5F5F5F5F5F5F5F5F5F5F5F5F5F5F5F5F5F5F5F5F5F5F5F5F5F5F5F5
310
F5F5F5F5F5F5F5F5F5F5F5F5F5F5F5F5F5F5F5F5F5F5F5F5F5F5F5F5F5F5F5F5F5F5F5F5F5F5F5F5F5F5F5F5F5F5F5F5F5F5F5F5F5F5F5F5F5F5F5F5F5F5F5F5F5F5F5F5F5F5F5F5F5F5F5F5F5F5F5F5F5F5F5E2F5F5F5F5F5F5F5F5F5F5F5F5F5F5F5F5E2F5F5F5F5E2E2F5F5F5F5E2F5F5F5F5F5F5F5F5F5F5F5F5F5F5F5
310
F5E2F5F5F5F5F5F5F5F5F5F5F5F5F5F5F5F5F5F5F5F5F5F5F5F5F5F5F5F5F5F5F5F5F5F5F5F5F5F5F5F5F5F5F5F5F5F5F5F5F5F5F5F5F5F5F5F5F5F5F5F5F5F5F5F5F5F5F5F5F5F5F5F5F5F5F5F5F5F5F5F5F5F5F5F5F5F5F5F5F5F5F5F5F5F5F5F5F5F5F5F5F5F5F5F5F5F5F5F5F5F5F5F5F5F5F5F5F5F5F5F5F5F5F5F5F5
310
F5F5F5F5F5F5F5F5F5E2F5F5F5F5F5F5F5F5F5F5F5F5F5F5F5F5E2F5F5F5F5E2E2F5F5F5F5E2F5F5F5F5F5F5F5F5F5F5F5F5F5F5F5F5E2F5F5F5F5F5F5F5F5F5F5F5F5F5F5F5F5F5F5F5F5F5F5F5F5F5F5F5F5F5F5F5F5F5F5F5F5F5F5F5F5F5F5F5F5F5F5F5F5F5F5F5F5F5F5F5F5F5F5F5F5F5F5F5F5F5F5F5F5F5F5F5F5
310
F5F5F5F5F5F5F5F5F5F5F5F5F5F5F5F5F5F5F5F5F5F5F5F5F5F5F5F5F5F5F5F5F5F5F5F5F5F5F5F5F5F5F5F5F5F5F5F5F5F5F5F5F5F5F5F5F5F5F5F5F5F5E2F5F5F5F5F5F5F5F5F5F5F5F5F5F5F5F5E2F5F5F5F5E2E2F5F5F5F5E2F5F5F5F5F5F5F5F5F5F5F5F5F5F5F5F5E2F5F5F5F5F5F5F5F5F5F5F5F5F5F5F5F5F5F5F5
310
F5F5F5F5F5F5F5F5F5F5F5F5F5F5F5F5F5F5F5F5F5F5F5F5F5F5F5F5F5F5F5F5F5F5F5F5F5F5F5F5F5F5F5F5F5F5F5F5F5F5F5F5F5F5F5F5F5F5F5F5F5F5F5F5F5F5F5F5F5F5F5F5F5F5F5F5F5F5F5F5F5F5F5F5F5F5F5F5F5F5F5F5F5F5F5F5F5F5F5F5F5F5F5F5F5F5F5F5F5F5F5F5F5F5F5E2F5F5F5F5F5F5F5F5F5F5F5
310
F5F5F5F5F5E2F5F5F5F5E2E2F5F5F5F5E2F5F5F5F5F5F5F5F5F5F5F5F5F5F5F5F5E2F5F5F5F5F5F5F5F5F5F5F5F5F5F5F5F5F5F5F5F5F5F5F5F5F5F5F5F5F5F5F5F5F5F5F5F5F5F5F5F5F5F5F5F5F5F5F5F5F5F5F5F5F5F5F5F5F5F5F5F5F5F5F5F5F5F5F5F5F5F5F5F5F5F5F5F5F5F5F5F5F5F5F5F5F5F5F5F5F5F5F5F5F5
310
F5F5F5F5F5F5F5F5F5F5F5F5F5F5F5F5F5F5F5F5F5F5F5F5F5F5F5F5F5F5F5F5F5F5F5F5F5F5F5F5F5E2F5F5F5F5F5F5F5F5F5F5F5F5F5F5F5F5E2F5F5F5F5E2E2F5F5F5F5F5F5F5F5F5F5F5F5F5F5F5F5F5F5F5F5F5E2F5F5F5F5F5F5F5F5F5F5F5F5F5F5F5F5F5F5F5F5F5F5F5F5F5F5F5F5F5F5F5F5F5F5F5F5F5F5F5F5
310
F5F5F5F5F5F5F5F5F5F5F5F5F5F5F5F5F5F5F5F5F5F5F5F5F5F5F5F5F5F5F5F5F5F5F5F5F5F5F5F5F5F5F5F5F5F5F5F5F5F5F5F5F5F5F5F5F5F5F5F5F5F5F5F5F5F5F5F5F5F5F5F5F5F5F5F5F5F5F5F5F5F5F5F5F5F5F5F5F5F5F5F5F5F5E2F5F5F5F5F5F5F5F5F5F5F5F5F5F5F5F5F5F5F5F5F5E2E2F5F5F5F5F5F5F5F5F5
310
F5F5F5F5F5F5F5F5F5F5F5F5E2F5F5F5F5F5F5F5F5F5F5F5F5F5F5F5F5F5F5F5F5F5F5F5F5F5F5F5F5F5F5F5F5F5F5F5F5F5F5F5F5F5F5F5F5F5F5F5F5F5F5F5F5F5F5F5F5F5F5F5F5F5F5F5F5F5F5F5F5F5F5F5F5F5F5F5F5F5F5F5F5F5F5F5F5F5F5F5F5F5F5F5F5F5F5F5F5F5F5F5F5F5F5F5F5F5F5F5F5F5F5F5F5F5F5
310
F5F5F5F5F5F5F5F5F5F5F5F5F5F5F5F5F5F5F5F5E2F5F5F5F5F5F5F5F5F5F5F5F5F5F5F5F5F5F5F5F5F5E2E2F5F5F5F5F5F5F5F5F5F5F5F5F5F5F5F5F5F5F5F5F5E2F5F5F5F5F5F5F5F5F5F5F5F5F5F5F5F5F5F5F5F5F5F5F5F5F5F5F5F5F5F5F5F5F5F5F5F5F5F5F5F5F5F5F5F5F5F5F5F5F5F5F5F5F5F5F5F5F5F5F5F5F5
310
F5F5F5F5F5F5F5F5F5F5F5F5F5F5F5F5F5F5F5F5F5F5F5F5F5F5F5F5F5F5F5F5F5F5F5F5F5F5F5F5F5F5F5F5F5F5F5F5F5F5F5F5F5F5F5F5F5F5F5F5F5F5F5F5F5F5F5F5F5F5F5F5F5E2F5F5F5F5F5F5F5F5F5F5F5F5F5F5F5F5F5F5F5F5F5E2E2F5F5F5F5F5F5F5F5F5F5F5F5F5F5F5F5F5F5F5F5F5E2F5F5F5F5F5F5F5F5
310
F5F5F5F5F5F5F5F5F5F5F5F5F5F5F5F5F5F5F5F5F5F5F5F5F5F5F5F5F5F5F5F5F5F5F5F5F5F5F5F5F5F5F5F5F5F5F5F5F5F5F5F5F5F5F5F5F5F5F5F5F5F5F5F5F5F5F5F5F5F5F5F5F5F5F5F5F5F5F5F5F5F5F5F5F5F5F5F5F5F5F5F5F5F5F5F5F5F5DCF5F5F5F5F5F5F5F5F5F5F5F5F5F5F5F5F5F5F5F5F5F5F5F5F5F5F5E2
310
F5F5F5F5F5F5F5F5F5F5F5F5F5F5F5F5F5F5F5F5F5E2E2F5F5F5F5F5F5F5F5F5F5F5F5F5F5F5F5F5F5F5F5F5E2F5F5F5F5F5F5F5F5F5F5F5F5F5F5F5F5F5F5F5F5F5F5F5F5F5F5F5F5F5F5F5F5F5F5F5F5F5F5F5F5F5F5F5F5F5F5F5F5F5F5F5F5F5F5F5F5F5F5F5F5F5F5F5F5F5F5F5F5F5F5F5F5F5F5F5F5F5F5F5F5F5E2
310
ECE2E2E2E2E2E2E2E2E2E2E2E2E2E2E2E2E2E2E2E2E2E2E2DCE2E2E2E2E2E2E2E2E2E2E2E2E2E2E2E2E2E2E2E2E2E2E2ECE2F5F5E2F5F5F5F5F5F5F5F5F5F5F5F5F5F5F5F5F5F5F5F5F5E2E2F5F5F5F5F5F5F5F5F5F5F5F5F5F5F5F5F5F5F5F5F5E2F5F5F5F5F5F5F5F5F5F5F5F5F5F5F5F5F5F5F5F5F5F5F5F5F5F5F5F5F5
310
F5F5F5F5F5F5F5F5F5F5F5F5F5F5F5F5F5F5F5F5F5F5F5F5F5F5F5F5F5F5F5F5F5F5F5F5F5F5F5F5F5F5F5F5F5F5F5F5F5F5F5E2F5F5ECF5F5F5F5F5F5F5F5F5F5F5F5F5F5F5F5F5F5F5F5F5F5DCF5F5F5F5F5F5F5F5F5F5F5F5F5F5F5F5F5F5F5F5F5F5ECF5F5E2F5E2F5F5F5F5F5F5F5F5F5F5F5F5F5F5F5F5F5F5F5F5F5
310
E2E2F5F5F5F5F5F5F5F5F5F5F5F5F5F5F5F5F5F5F5F5F5E2F5F5F5F5F5F5F5F5F5F5F5F5F5F5F5F5F5F5F5F5F5F5F5F5F5F5F5F5F5F5F5F5F5F5F5F5F5F5F5F5F5F5F5F5F5F5F5F5F5F5F5F5F5F5F5F5F5F5F5F5F5F5F5F5F5F5F5F5F5F5F5F5F5F5F5F5F5F5F5E2F5F5F5F5ECF5F5F5F5F5F5F5F5F5F5F5F5F5F5F5F5F5F5
310
F5F5F5DCF5F5F5F5F5F5F5F5F5F5F5F5F5F5F5F5F5F5F5F5F5ECF5F5F5F5E2E2F5F5F5F5F5F5F5F5F5F5F5F5F5F5F5F5F5F5F5F5F5E2E2F5F5F5F5F5F5F5F5F5F5F5F5F5F5F5F5F5F5F5F5F5E2F5F5F5F5F5F5F5F5F5F5F5F5F5F5F5F5F5F5F5F5F5F5F5F5F5F5F5F5F5F5F5F5F5F5F5F5F5F5F5F5F5F5F5F5F5F5F5F5F5F5
310
F5F5F5F5F5F5F5F5F5F5F5F5F5F5F5F5F5F5F5F5F5F5F5F5F5F5F5F5E2E2E2E2E2E2ECE2E2E2E2E2E2E2E2E2ECECECECECECE2ECECECECECDCECECECECECE2ECECECECECECE2E2E2E2E2E2E2E2ECE2E2E2E2E2E2E2F5F5F5F5F5F5F5F5F5F5F5F5F5F5F5F5F5F5F5F5F5E2E2F5F5F5F5F5F5F5F5F5F5F5F5F5F5F5F5F5F5F5
310
F5F5E2F5F5F5F5F5F5F5F5F5F5F5F5F5F5F5F5F5F5F5F5F5F5F5F5F5F5F5F5F5F5F5F5F5F5F5F5F5F5F5F5F5F5F5F5F5F5F5F5F5F5F5F5F5F5F5F5F5F5F5F5F5F5F5F5F5F5F5F5F5F5F5F5F5F5F5F5F5F5E2F5F5F5F5F5F5F5F5F5F5F5F5F5F5F5ECF5F5F5F5F5F5F5F5F5F5F5DCF5F5F5F5F5F5F5F5F5F5ECF5F5F5F5F5F5
310
F5F5F5F5F5F5F5F5F5E2E2F5F5F5F5F5F5F5F5F5F5F5F5F5F5F5F5F5F5F5F5F5E2E2F5F5F5F5E2F5F5F5F5F5F5F5F5F5F5F5F5F5F5F5F5E2F5F5F5F5F5F5F5F5F5F5F5F5F5F5F5F5F5F5F5F5F5F5F5F5F5F5F5F5F5F5F5F5F5F5F5F5F5F5F5F5F5F5F5F5F5F5F5F5F5F5F5F5F5F5F5F5F5F5F5F5F5F5F5F5F5F5F5F5F5F5F5
310
F5F5F5F5F5F5F5E2F5F5F5F5F5F5F5F5F5F5F5F5F5F5F5ECECECECECECECECECECECECECECECECECECECECECECECECF5F5F5F5F5F5F5F5F5F5F5F5F5F5F5E2E2F5F5F5F5F5F5F5F5F5F5F5F5F5F5F5F5E2F5F5F5F5E2E2F5F5F5F5E2F5F5F5F5F5F5F5F5F5F5F5F5F5F5F5F5E2F5F5F5F5F5F5F5F5F5F5F5F5F5F5F5F5F5F5
310
F5F5F5F5F5F5F5F5F5F5F5F5F5F5F5F5F5F5F5F5F5F5F5F5F5F5F5F5F5F5F5F5F5F5F5F5F5F5F5F5F5F5F5F5F5F5F5F5F5F5F5F5F5F5F5F5F5F5F5F5F5E2F5F5F5F5F5F5F5F5F5F5F5F5F5F5F5F5F5F5F5ECF5F5F5F5F5F5DCF5F5F5F5F5ECF5F5F5F5F5F5F5F5F5F5F5F5F5F5F5F5F5F5F5F5E2E2F5F5F5F5F5F5F5F5F5F5
310
F5F5F5F5F5F5E2F5F5F5F5E2E2F5F5F5F5E2F5F5F5F5F5F5F5F5F5F5F5F5F5F5F5F5E2F5F5F5F5F5F5F5F5F5F5F5F5F5F5F5F5F5F5F5F5F5F5F5F5F5F5F5F5F5F5F5F5F5F5F5F5F5F5F5F5F5F5F5F5F5F5F5F5F5F5F5F5F5F5F5F5F5F5F5F5F5F5F5F5F5F5F5F5F5F5F5F5F5F5F5F5F5F5F5F5E2F5F5F5F5F5F5F5F5F5F5F5
310
F5F5F5F5F5ECECECECECECF5ECECECECECF5ECECECECECF5F5F5F5F5F5F5F5F5F5F5F5F5F5F5F5F5E2F5E2F5F5F5F5F5F5F5F5F5F5F5F5F5F5F5F5E2F5F5F5F5E2E2F5F5F5F5E2F5F5F5F5F5F5F5F5F5F5F5F5F5F5F5F5E2F5F5F5F5F5F5F5F5F5F5F5F5F5F5F5F5F5F5F5F5F5F5F5F5F5F5F5F5F5F5F5F5F5F5F5F5F5F5F5
310
F5F5F5F5F5F5F5F5F5F5F5F5F5F5F5F5F5F5F5F5F5F5F5F5F5F5F5F5F5F5F5F5F5F5F5F5F5F5F5F5F5F5E2E2F5F5F5F5F5F5F5F5F5F5F5F5F5F5ECF5F5F5F5F5F5F5F5DCF5F5F5F5F5F5F5ECF5F5F5F5F5F5F5F5F5F5F5F5F5F5F5E2E2F5F5E2F5F5F5F5F5F5F5F5F5F5F5F5F5F5F5F5E2F5F5F5F5E2E2F5F5F5F5E2F5F5F5
310
F5F5F5F5F5F5F5F5F5F5F5F5F5E2F5F5F5F5F5F5F5F5F5F5F5F5F5F5F5F5F5F5F5F5F5F5F5F5F5F5F5F5F5F5F5F5F5F5F5F5F5F5F5F5F5F5F5F5F5F5F5F5F5F5F5F5F5F5F5F5F5F5F5F5F5F5F5F5F5F5F5F5F5F5F5F5F5F5F5F5F5F5F5F5F5F5F5E2F5F5F5F5F5F5F5F5F5F5F5F5F5ECF5F5F5F5F5F5F5F5DCF5F5F5F5F5F5
310
F5ECF5F5F5F5F5F5F5F5F5F5F5F5F5E2E2F5F5F5F5E2F5F5F5F5F5F5F5F5F5F5F5F5F5F5F5F5E2F5F5F5F5E2E2F5F5F5F5E2F5F5F5F5F5F5F5F5F5F5F5F5F5F5F5F5E2F5F5F5F5F5F5F5F5F5F5F5F5F5F5F5F5F5F5F5F5F5F5F5F5F5F5F5F5F5F5F5F5F5F5F5F5F5F5F5F5F5F5F5F5F5F5F5F5F5F5F5F5F5F5F5F5F5F5F5F5
310
F5F5F5F5F5F5F5F5F5F5F5F5F5F5F5F5F5F5F5F5F5F5F5F5E2E2F5F5F5F5F5F5F5F5F5F5F5ECF5F5F5F5F5F5F5F5DCF5F5F5F5F5F5F5ECF5F5F5F5F5F5F5F5F5F5F5F5E2F5F5F5F5F5F5E2F5F5F5F5F5F5F5F5F5F5F5F5F5F5F5F5E2F5F5F5F5E2E2F5F5F5F5E2F5F5F5F5F5F5F5F5F5F5F5F5F5F5F5F5E2F5F5F5F5F5F5F5
310
F5F5F5F5F5F5F5F5F5F5F5F5F5F5F5F5F5F5F5F5F5F5F5F5F5F5F5F5F5F5F5F5F5F5F5F5F5F5F5F5F5F5F5F5F5F5F5F5F5F5F5F5F5F5F5F5F5F5F5F5F5F5F5F5F5F5F5F5F5F5F5F5F5F5F5F5F5F5F5E2F5F5F5F5F5F5F5F5F5F5ECF5F5F5F5F5F5F5F5DCF5F5F5F5F5F5F5ECF5F5F5F5F5F5F5F5F5F5E2E2F5F5F5F5F5F5F5
310
E2F5F5F5F5F5F5F5F5F5F5F5F5F5F5F5F5E2F5F5F5F5E2E2F5F5F5F5E2F5F5F5F5F5F5F5F5F5F5F5F5F5F5F5F5E2F5F5F5F5F5F5F5F5F5F5F5F5F5F5F5F5F5F5F5F5F5F5F5F5F5F5F5F5F5F5F5F5F5F5F5F5F5F5F5F5F5F5F5F5F5F5F5F5F5F5F5F5F5F5F5F5F5F5F5F5F5F5F5F5F5F5F5F5F5F5F5F5F5F5F5F5F5F5F5F5F5
310
F5F5F5F5F5F5E2E2F5F5F5F5F5F5F5F5F5ECECECECECF5ECECECECECF5ECECECECECF5F5F5F5F5F5F5F5E2E2F5F5F5F5F5F5F5F5F5E2F5F5F5F5F5F5F5F5F5F5F5F5F5F5F5F5E2F5F5F5F5E2E2F5F5F5F5E2F5F5F5F5F5F5F5F5F5F5F5F5F5F5F5F5E2F5F5F5F5F5F5F5F5F5F5F5F5F5F5F5F5F5F5F5F5F5F5F5F5F5F5F5F5
310
F5F5F5F5F5F5F5F5F5F5F5F5F5F5F5F5F5F5F5F5F5F5F5F5F5F5F5F5F5F5F5F5F5F5F5F5F5F5F5F5F5F5F5F5F5F5F5F5F5F5F5F5F5F5F5F5F5F5F5F5F5E2E2F5F5F5F5F5F5F5ECF5F5F5F5F5F5F5DCF5F5F5F5F5F5F5ECF5F5F5F5F5F5F5E2F5F5F5F5F5F5F5F5F5F5F5E2F5F5F5F5F5F5F5F5F5F5F5F5F5F5F5F5E2F5F5F5
310
F5E2E2F5F5F5F5E2F5F5F5F5F5F5F5F5F5F5F5F5F5F5F5F5E2F5F5F5F5F5F5F5F5F5F5F5F5F5F5F5F5F5F5F5F5F5F5F5F5F5F5F5F5F5F5F5F5F5F5F5F5F5F5F5F5F5F5F5F5F5F5F5F5F5F5F5F5F5F5F5F5F5F5F5F5F5F5F5F5F5F5F5F5F5F5F5F5F5F5F5F5F5F5F5F5F5F5F5F5F5F5F5F5F5F5E2F5F5F5F5F5F5F5ECF5F5F5
310
F5F5F5F5DCF5F5F5F5F5F5F5ECF5F5F5F5F5F5F5E2F5F5F5F5F5F5F5F5F5F5F5E2F5F5F5F5F5F5F5F5F5F5F5F5F5F5F5F5E2F5F5F5F5E2E2F5F5F5F5E2F5F5F5F5F5F5F5F5F5F5F5F5F5F5F5F5E2F5F5F5F5F5F5F5F5F5F5F5F5F5F5F5F5F5F5F5F5F5F5F5F5F5F5F5F5F5F5F5F5F5F5F5F5F5F5F5F5F5F5F5F5F5F5F5F5F5
310
F5F5F5F5F5F5F5F5F5F5F5F5F5F5F5F5F5F5F5F5F5F5F5F5F5F5F5F5F5F5F5F5F5F5F5F5F5F5F5F5F5E2F5F5F5F5F5F5F5ECF5F5F5F5F5F5F5DCF5F5F5F5F5F5F5ECF5F5F5F5F5F5F5E2F5F5F5F5F5F5F5F5F5F5F5E2F5F5F5F5F5F5F5F5F5F5F5F5F5F5F5F5E2F5F5F5F5E2E2F5F5F5F5E2F5F5F5F5F5F5F5F5F5F5F5F5F5
310
F5F5F5E2F5F5F5F5F5F5F5F5F5F5F5F5F5F5F5F5F5F5F5F5F5F5F5F5F5F5F5F5F5F5F5F5F5F5F5F5F5F5F5F5F5F5F5F5F5F5F5F5F5F5F5F5F5F5F5F5F5F5F5F5F5F5F5F5F5F5F5F5F5F5F5F5F5F5F5F5F5F5F5F5F5F5F5F5F5F5F5F5F5F5E2F5F5F5F5F5F5F5ECF5F5F5F5E2E2E2E2E2E2E2F5F5F5F5ECF5F5F5F5F5F5F5E2
310
F5F5F5F5F5F5F5F5F5F5F5E2F5F5F5F5F5F5F5F5F5F5F5F5F5F5F5F5E2F5F5F5F5E2E2F5F5F5F5E2F5F5F5F5F5F5F5F5F5F5F5F5F5F5F5F5E2F5F5F5F5F5F5F5F5F5F5F5F5F5F5F5F5F5F5F5F5F5F5F5F5F5F5F5F5F5F5F5F5F5F5F5F5F5F5F5F5F5F5F5F5F5F5F5F5F5F5F5F5F5F5F5F5F5F5F5F5F5F5F5F5F5F5F5F5F5F5
310
F5F5F5F5F5F5F5F5F5F5F5F5F5F5F5F5F5F5F5F5E2F5F5F5F5F5F5F5ECECECECECECF5F5DCF5F5ECECECECECECF5F5F5F5F5F5F5E2F5F5F5F5F5F5F5F5F5F5F5E2F5F5F5F5F5F5F5F5F5F5F5F5F5F5F5F5E2F5F5F5F5E2E2F5F5F5F5E2F5F5F5F5F5F5F5F5F5F5F5F5F5F5F5F5E2F5F5F5F5F5F5F5F5F5F5F5F5F5F5F5F5F5
310
F5F5F5F5F5F5F5F5F5F5F5F5F5F5F5F5F5F5F5F5F5F5F5F5F5F5F5F5F5F5F5F5F5F5F5F5F5F5F5F5F5F5F5F5F5F5F5F5F5F5F5F5F5F5F5F5F5F5F5F5F5F5F5F5F5F5F5F5F5F5F5F5F5E2F5F5F5F5F5F5F5ECF5F5F5F5E2F5F5DCF5F5E2F5F5F5F5ECF5F5F5F5F5F5F5E2F5F5F5F5F5F5F5F5F5F5F5E2F5F5F5F5F5F5F5F5F5
310
F5F5F5F5F5F5F5E2F5F5F5F5E2E2F5F5F5F5E2F5F5F5F5F5F5F5F5F5F5F5F5F5F5F5F5E2F5F5F5F5F5F5F5F5F5F5F5F5F5F5F5F5F5F5F5F5F5F5F5F5F5F5F5F5F5F5F5F5F5F5F5F5F5F5F5F5F5F5F5F5F5F5F5F5F5F5F5F5F5F5F5F5F5F5F5F5F5F5F5F5F5F5F5F5F5F5F5F5F5F5F5F5F5F5F5F5F5F5F5F5F5F5F5F5F5F5E2
310
E2E2E2E2E2E2E2E2E2E2E2E2ECF5F5DCF5F5E2E2E2E2E2E2E2E2E2E2E2E2E2E2F5F5F5F5F5F5F5F5F5F5F5E2F5F5F5F5F5F5F5F5F5F5F5F5F5F5F5F5E2F5F5F5F5E2E2F5F5F5F5E2F5F5F5F5F5F5F5F5F5F5F5F5F5F5F5F5E2F5F5F5F5F5F5F5F5F5F5F5F5F5F5F5F5F5F5F5F5F5F5F5F5F5F5F5F5F5F5F5F5F5F5F5F5F5F5
310
F5F5F5F5F5F5F5F5F5F5F5F5F5F5F5F5F5F5F5F5F5F5F5F5F5F5F5F5F5F5F5F5F5F5F5F5F5F5F5F5F5F5F5F5F5F5F5F5F5F5F5F5F5F5F5F5F5F5F5F5F5F5F5F5F5F5F5F5DCF5F5F5F5F5F5F5F5F5F5F5F5F5F5F5F5F5F5F5F5F5F5F5F5F5F5F5E2F5F5F5F5F5F5F5F5F5F5F5F5F5F5F5F5E2F5F5F5F5E2E2F5F5F5F5F5F5F5
310
F5F5F5F5F5F5F5F5F5F5F5F5F5F5E2F5F5F5F5F5F5F5F5F5F5F5F5F5F5F5F5F5F5F5F5F5F5F5F5F5F5F5F5F5F5F5F5F5F5F5F5F5F5F5F5F5F5F5F5F5F5F5F5F5F5F5F5F5F5F5F5F5F5F5F5F5F5F5F5F5F5F5F5F5F5F5F5F5F5F5F5F5F5F5F5F5F5F5F5F5F5F5F5F5F5F5F5F5F5F5F5F5F5F5F5F5F5F5F5F5F5F5F5F5F5F5F5
310
F5F5F5F5F5F5F5F5F5F5F5F5F5F5F5F5F5F5F5F5F5F5E2F5F5F5F5F5F5F5F5F5F5F5F5F5F5F5F5F5F5F5F5F5E2E2F5F5F5F5F5F5F5F5F5F5F5F5F5F5F5F5F5F5F5F5F5E2F5F5F5F5F5F5F5F5F5F5F5F5F5F5F5F5F5F5F5F5F5F5F5F5F5F5F5F5F5F5F5F5F5F5F5F5F5F5F5F5F5F5F5F5F5F5F5F5F5F5F5F5F5F5F5F5F5F5F5
310
F5F5F5F5F5F5F5F5F5F5F5F5F5F5F5F5F5F5F5F5F5F5F5F5F5F5F5F5F5F5F5F5F5F5F5F5F5F5F5F5F5F5F5F5F5F5F5F5F5F5F5F5F5F5F5F5F5F5F5F5F5F5F5F5F5F5F5F5F5F5F5F5F5F5F5E2F5F5F5F5F5F5F5F5F5F5F5F5F5F5F5F5F5F5F5F5F5E2E2F5F5F5F5F5F5F5F5F5F5F5F5F5F5F5F5F5F5F5F5F5E2F5F5F5F5F5F5
310
F5F5F5F5F5F5F5F5F5F5F5F5F5F5F5F5F5F5F5F5F5F5F5F5F5F5F5F5F5F5F5F5F5F5F5F5F5F5F5F5F5F5F5F5F5F5F5F5F5F5F5F5F5F5F5F5F5F5F5F5F5F5F5F5F5F5F5F5F5F5F5F5F5F5F5F5F5F5F5F5F5F5F5F5F5F5F5F5F5F5F5F5F5F5F5F5F5F5F5F5F5F5F5F5F5F5F5F5F5F5F5F5F5F5F5F5F5F5F5F5F5F5F5F5F5F5F5
310
F5E2F5F5F5F5F5F5F5F5F5F5F5F5F5F5F5F5F5F5F5F5F5E2E2F5F5F5F5F5F5F5F5F5F5F5F5F5F5F5F5F5F5F5F5F5E2F5F5F5F5F5F5F5F5F5F5F5F5F5F5F5F5F5F5F5F5F5F5F5F5F5F5F5F5F5F5F5F5F5F5F5F5F5F5F5F5F5F5F5F5F5F5F5F5F5F5F5F5F5F5F5F5F5F5F5F5F5F5F5F5F5F5F5F5F5F5F5F5F5F5F5F5F5F5F5F5
310
F5F5F5F5F5F5F5F5F5F5F5F5F5F5F5F5F5F5F5F5F5F5F5F5F5F5F5F5F5F5F5F5F5F5F5F5F5F5F5F5F5F5F5F5F5F5F5F5F5F5F5F5F5F5E2F5F5F5F5F5F5F5F5F5F5F5F5F5F5F5F5F5F5F5F5F5E2E2F5F5F5F5F5F5F5F5F5F5F5F5F5F5F5F5F5F5F5F5F5E2F5F5F5F5F5F5F5F5F5F5F5F5F5F5F5F5F5F5F5F5F5F5F5F5F5F5F5
310
F5F5F5F5F5F5F5F5F5F5F5F5F5F5F5F5F5F5F5F5F5F5F5F5F5F5F5F5F5F5F5F5F5F5F5F5F5F5F5F5F5F5F5F5F5F5F5F5F5F5F5F5F5F5F5F5F5F5F5F5F5F5F5F5F5F5F5F5F5F5F5F5F5F5F5F5F5F5F5F5F5F5F5F5F5F5F5F5F5F5F5F5F5F5F5F5F5F5F5F5F5F5F5F5F5F5F5E2F5F5F5F5F5F5F5F5F5F5F5F5F5F5F5F5F5F5F5
310
F5F5E2E2F5F5F5F5F5F5F5F5F5F5F5F5F5F5F5F5F5F5F5F5F5E2F5F5F5F5F5F5F5F5F5F5F5F5F5F5F5F5F5F5F5F5F5F5F5F5F5F5F5F5F5F5F5F5F5F5F5F5F5F5F5F5F5F5F5F5F5F5F5F5F5F5F5F5F5F5F5F5F5F5F5F5F5F5F5F5F5F5F5F5F5F5F5F5F5F5F5F5F5F5F5F5F5F5F5F5F5F5F5F5F5F5F5F5F5F5F5F5F5F5F5F5F5
310
F5F5F5F5F5F5F5F5F5F5F5F5F5F5F5F5F5F5F5F5F5F5F5F5F5F5F5F5F5F5F5F5F5E2F5F5F5F5F5F5F5F5F5F5F5F5F5F5F5F5F5F5F5F5F5E2E2F5F5F5F5F5F5F5F5F5F5F5F5F5F5F5F5F5F5F5F5F5E2F5F5F5F5F5F5F5F5F5F5F5F5F5F5F5F5F5F5F5F5F5F5F5F5F5F5F5F5F5F5F5F5F5F5F5F5F5F5F5F5F5F5F5F5F5F5F5F5
310
F5F5F5F5F5F5F5F5F5F5F5F5F5F5F5F5F5F5F5F5F5F5F5F5F5F5F5F5F5F5F5F5F5F5F5F5F5F5F5F5F5F5F5F5F5F5F5F5F5F5F5F5F5F5F5F5F5F5F5F5F5F5F5F5F5F5F5F5F5F5F5F5F5F5F5F5F5F5F5F5F5F5F5F5F5F5E2F5F5F5F5F5F5F5F5F5F5F5F5F5F5F5F5F5F5F5F5F5E2E2F5F5F5F5F5F5F5F5F5F5F5F5F5F5F5F5F5
310
F5F5F5F5E2F5F5F5F5F5F5F5F5F5F5F5F5F5F5F5F5F5F5F5F5F5F5F5F5F5F5F5F5F5F5F5F5F5F5F5F5F5F5F5F5F5F5F5F5F5F5F5F5F5F5F5F5F5F5F5F5F5F5F5F5F5F5F5F5F5F5F5F5F5F5F5F5F5F5F5F5F5F5F5F5F5F5F5F5F5F5F5F5F5F5F5F5F5F5F5F5F5F5F5F5F5F5F5F5F5F5F5F5F5F5F5F5F5F5F5F5F5F5F5F5F5F5
310
F5F5F5F5F5F5F5F5F5F5F5F5E2F5F5F5F5F5F5F5F5F5F5F5F5F5F5F5F5F5F5F5F5F5E2E2F5F5F5F5F5F5F5F5F5F5F5F5F5F5F5F5F5F5F5F5F5E2F5F5F5F5F5F5F5F5F5F5F5F5F5F5F5F5F5F5F5F5F5F5F5F5F5F5F5F5F5F5F5F5F5F5F5F5F5F5F5F5F5F5F5F5F5F5F5F5F5F5F5F5F5F5F5F5F5F5F5F5F5F5F5F5F5F5F5F5F5
310
F5F5F5F5F5F5F5F5F5F5F5F5F5F5F5F5F5F5F5F5F5F5F5F5F5F5F5F5F5F5F5F5F5F5F5F5F5F5F5F5F5F5F5F5F5F5F5F5F5F5F5F5F5F5F5F5F5F5F5F5F5F5F5F5F5E2F5F5F5F5F5F5F5F5F5F5F5F5F5F5F5F5F5F5F5F5F5E2E2F5F5F5F5F5F5F5F5F5F5F5F5F5F5F5F5F5F5F5F5F5E2F5F5F5F5F5F5F5F5F5F5F5F5F5F5F5F5
310
F5F5F5F5F5F5F5F5F5F5F5F5F5F5F5F5F5F5F5F5F5F5F5F5F5F5F5F5F5F5F5F5F5F5F5F5F5F5F5F5F5F5F5F5F5F5F5F5F5F5F5F5F5F5F5F5F5F5F5F5F5F5F5F5F5F5F5F5F5F5F5F5F5F5F5F5F5F5F5F5F5F5F5F5F5F5F5F5F5F5F5F5F5F5F5F5F5F5F5F5F5F5F5F5F5F5F5F5F5F5F5F5F5F5F5F5F5F5E2F5F5F5F5F5F5F5F5
310
F5F5F5F5F5F5F5F5F5F5F5F5F5E2E2F5F5F5F5E2F5F5F5F5F5F5F5F5F5F5F5F5F5F5F5F5E2F5F5F5F5F5F5F5F5F5F5F5F5F5F5F5F5F5F5F5F5F5F5F5F5F5F5F5F5F5F5F5F5F5F5F5F5F5F5F5F5F5F5F5F5F5F5F5F5F5F5F5F5F5F5F5F5F5F5F5F5F5F5F5F5F5F5F5F5F5F5F5F5F5F5F5F5F5F5F5F5F5F5F5F5F5F5F5F5F5F5
310
F5F5F5F5F5F5F5F5F5F5F5F5F5F5F5F5F5F5F5F5F5F5F5F5F5F5F5F5F5F5F5F5F5F5F5F5F5F5F5F5F5F5F5F5E2F5F5F5F5F5F5F5F5F5F5F5F5F5F5F5F5E2F5F5F5F5E2E2F5F5F5F5E2F5F5F5F5F5F5F5F5F5F5F5F5F5F5F5F5E2F5F5F5F5F5F5F5F5F5F5F5F5F5F5F5F5F5F5F5F5F5F5F5F5F5F5F5F5F5F5F5F5F5F5F5F5F5
310
F5F5F5F5F5F5F5F5F5F5F5F5F5F5F5F5F5F5F5F5F5F5F5F5F5F5F5F5F5F5F5F5F5F5F5F5F5F5F5F5F5F5F5F5F5F5F5F5F5F5F5F5F5F5F5F5F5F5F5F5F5F5F5F5F5F5F5F5F5F5F5F5F5F5F5F5F5F5F5F5F5F5F5F5F5F5F5F5F5F5F5F5F5F5F5F5F5E2F5F5F5F5F5F5F5F5F5F5F5F5F5F5F5F5E2F5F5F5F5E2E2F5F5F5F5E2F5
310
F5F5F5F5F5F5F5F5F5F5F5F5F5F5F5E2F5F5F5F5F5F5F5F5F5F5F5F5F5F5F5F5F5F5F5F5F5F5F5F5F5F5F5F5F5F5F5F5F5F5F5F5F5F5F5F5F5F5F5F5F5F5F5F5F5F5F5F5F5F5F5F5F5F5F5F5F5F5F5F5F5F5F5F5F5F5F5F5F5F5F5F5F5F5F5F5F5F5F5F5F5F5F5F5F5F5F5F5F5F5F5F5F5F5F5F5F5F5F5F5F5F5F5F5F5F5F5
310
F5F5F5F5F5F5F5F5F5F5F5F5F5F5F5F5F5F5F5F5F5F5F5E2F5F5F5F5F5F5F5F5F5F5F5F5F5F5F5F5E2F5F5F5F5E2E2F5F5F5F5E2F5F5F5F5F5F5F5F5F5F5F5F5F5F5F5F5E2F5F5F5F5F5F5F5F5F5F5F5F5F5F5F5F5F5F5F5F5F5F5F5F5F5F5F5F5F5F5F5F5F5F5F5F5F5F5F5F5F5F5F5F5F5F5F5F5F5F5F5F5F5F5F5F5F5F5
310
F5F5F5F5F5F5F5F5F5F5F5F5F5F5F5F5F5F5F5F5F5F5F5F5F5F5F5F5F5F5F5F5F5F5F5F5F5F5F5F5F5F5F5F5F5F5F5F5F5F5F5F5F5F5F5F5F5F5F5F5F5F5F5F5F5F5F5F5F5F5F5F5F5F5F5F5E2F5F5F5F5F5F5F5F5F5F5F5F5F5F5F5F5E2F5F5F5F5E2E2F5F5F5F5E2F5F5F5F5F5F5F5F5F5F5F5F5F5F5F5F5E2F5F5F5F5F5
310
F5F5F5F5F5F5F5F5F5F5F5F5F5F5F5F5F5F5F5F5F5F5F5F5F5F5F5F5F5F5F5F5F5F5F5F5F5F5F5F5F5F5F5F5F5F5F5F5F5F5F5F5F5F5F5F5F5F5F5F5F5F5F5F5F5F5F5F5F5F5F5F5F5F5F5F5F5F5F5F5F5F5F5F5F5F5F5F5F5F5F5F5F5F5F5F5F5F5F5F5F5F5F5F5F5F5F5F5F5F5F5F5F5F5F5F5F5F5F5F5F5F5F5F5F5F5F5
310
F5F5E2F5F5F5F5F5F5F5F5F5F5F5F5F5F5F5F5E2F5F5F5F5E2E2F5F5F5F5E2F5F5F5F5F5F5F5F5F5F5F5F5F5F5F5F5E2F5F5F5F5F5F5F5F5F5F5F5F5F5F5F5F5F5F5F5F5F5F5F5F5F5F5F5F5F5F5F5F5F5F5F5F5F5F5F5F5F5F5F5F5F5F5F5F5F5F5F5F5F5F5F5F5F5F5F5F5F5F5F5F5F5F5F5F5F5F5F5F5F5F5F5F5F5F5F5
310
F5F5F5F5F5F5F5F5F5F5F5F5F5F5F5F5F5F5F5F5F5F5F5F5F5F5F5F5F5F5F5F5F5F5F5F5F5F5F5F5F5F5F5F5F5F5F5F5F5F5F5F5F5F5F5E2F5F5F5F5F5F5F5F5F5F5F5F5F5F5F5F5E2F5F5F5F5E2E2F5F5F5F5E2F5F5F5F5F5F5F5F5F5F5F5F5F5F5F5F5E2F5F5F5F5F5F5F5F5F5F5F5F5F5F5F5F5F5F5F5F5F5F5F5F5F5F5
310
F5F5F5F5F5F5F5F5F5F5F5F5F5F5F5F5F5F5F5F5F5F5F5F5F5F5F5F5F5F5F5F5F5F5F5F5F5F5F5F5F5F5F5F5F5F5F5F5F5F5F5F5F5F5F5F5F5F5F5F5F5F5F5F5F5F5F5F5F5F5F5F5F5F5F5F5F5F5F5F5F5F5F5F5F5F5F5F5F5F5F5F5F5F5F5F5F5F5F5F5F5F5F5F5F5F5F5F5E2F5F5F5F5F5F5F5F5F5F5F5F5F5F5F5F5E2F5
310
F5F5F5E2E2F5F5F5F5E2F5F5F5F5F5F5F5F5F5F5F5F5F5F5F5F5E2F5F5F5F5F5F5F5F5F5F5F5F5F5F5F5F5F5F5F5F5F5F5F5F5F5F5F5F5F5F5F5F5F5F5F5F5F5F5F5F5F5F5F5F5F5F5F5F5F5F5F5F5F5F5F5F5F5F5F5F5F5F5F5F5F5F5F5F5F5F5F5F5F5F5F5F5F5F5F5F5F5F5F5F5F5F5F5F5F5F5F5F5F5F5F5F5F5F5F5F5
310
F5F5F5F5F5F5F5F5F5F5F5F5F5F5F5F5F5F5F5F5F5F5F5F5F5F5F5F5F5F5F5F5F5F5E2F5F5F5F5F5F5F5F5F5F5F5F5F5F5F5F5E2F5F5F5F5E2E2F5F5F5F5E2F5F5F5F5F5F5F5F5F5F5F5F5F5F5F5F5E2F5F5F5F5F5F5F5F5F5F5F5F5F5F5F5F5F5F5F5F5F5F5F5F5F5F5F5F5F5F5F5F5F5F5F5F5F5F5F5F5F5F5F5F5F5F5F5
310
F5F5F5F5F5F5F5F5F5F5F5F5F5F5F5F5F5F5F5F5F5F5F5F5F5F5F5F5F5F5F5F5F5F5F5F5F5F5F5F5F5F5F5F5F5F5F5F5F5F5F5F5F5F5F5F5F5F5F5F5F5F5F5F5F5F5F5F5F5F5F5F5F5F5F5F5F5F5F5F5F5F5F5F5F5F5F5E2F5F5F5F5F5F5F5F5F5F5F5F5F5F5F5F5E2F5F5F5F5E2E2F5F5F5F5E2F5F5F5F5F5F5F5F5F5F5F5
310
F5F5F5F5F5E2F5F5F5F5F5F5F5F5F5F5F5F5F5F5F5F5F5F5F5F5F5F5F5F5F5F5F5F5F5F5F5F5F5F5F5F5F5F5F5F5F5F5F5F5F5F5F5F5F5F5F5F5F5F5F5F5F5F5F5F5F5F5F5F5F5F5F5F5F5F5F5F5F5F5F5F5F5F5F5F5F5F5F5F5F5F5F5F5F5F5F5F5F5F5F5F5F5F5F5F5F5F5F5F5F5F5F5F5F5F5F5F5F5F5F5F5F5F5F5F5F5
310
F5F5F5F5F5F5F5F5F5F5F5F5F5E2F5F5F5F5F5F5F5F5F5F5F5F5F5F5F5F5E2F5F5F5F5E2E2F5F5F5F5E2F5F5F5F5F5F5F5F5F5F5F5F5F5F5F5F5E2F5F5F5F5F5F5F5F5F5F5F5F5F5F5F5F5F5F5F5F5F5F5F5F5F5F5F5F5F5F5F5F5F5F5F5F5F5F5F5F5F5F5F5F5F5F5F5F5F5F5F5F5F5F5F5F5F5F5F5F5F5F5F5F5F5F5F5F5
310
F5F5F5F5F5F5F5F5F5F5F5F5F5F5F5F5F5F5F5F5F5F5F5F5F5F5F5F5F5F5F5F5F5F5F5F5F5F5F5F5F5F5F5F5F5F5F5F5F5F5F5F5F5F5F5F5F5F5F5F5F5F5F5F5F5F5E2F5F5F5F5F5F5F5F5F5F5F5F5F5F5F5F5E2F5F5F5F5E2E2F5F5F5F5E2F5F5F5F5F5F5F5F5F5F5F5F5F5F5F5F5E2F5F5F5F5F5F5F5F5F5F5F5F5F5F5F5
310
F5F5F5F5F5F5F5F5F5F5F5F5F5F5F5F5F5F5F5F5F5F5F5F5F5F5F5F5F5F5F5F5F5F5F5F5F5F5F5F5F5F5F5F5F5F5F5F5F5F5F5F5F5F5F5F5F5F5F5F5F5F5F5F5F5F5F5F5F5F5F5F5F5F5F5F5F5F5F5F5F5F5F5F5F5F5F5F5F5F5F5F5F5F5F5F5F5F5F5F5F5F5F5F5F5F5F5F5F5F5F5F5F5F5F5F5F5F5F5E2F5F5F5F5F5F5F5
310
F5F5F5F5F5F5F5F5F5E2F5F5F5F5E2E2F5F5F5F5E2F5F5F5F5F5F5F5F5F5F5F5F5F5F5F5F5E2F5F5F5F5F5F5F5F5F5F5F5F5F5F5F5F5F5F5F5F5F5F5F5F5F5F5F5F5F5F5F5F5F5F5F5F5F5F5F5F5F5F5F5F5F5F5F5F5F5F5F5F5F5F5F5F5F5F5F5F5F5F5F5F5F5F5F5F5F5F5F5F5F5F5F5F5F5F5F5F5F5F5F5F5F5F5F5F5F5
310
F5F5F5F5F5F5F5F5F5F5F5F5F5F5F5F5F5F5F5F5F5F5F5F5F5F5F5F5F5F5F5F5F5F5F5F5F5F5F5F5F5F5F5F5F5E2F5F5F5F5F5F5F5F5F5F5F5F5F5F5F5F5E2F5F5F5F5E2E2F5F5F5F5E2F5F5F5F5F5F5F5F5F5F5F5F5F5F5F5F5E2F5F5F5F5F5F5F5F5F5F5F5F5F5F5F5F5F5F5F5F5F5F5F5F5F5F5F5F5F5F5F5F5F5F5F5F5
310
F5F5F5F5F5F5F5F5F5F5F5F5F5F5F5F5F5F5F5F5F5F5F5F5F5F5F5F5F5F5F5F5F5F5F5F5F5F5F5F5F5F5F5F5F5F5F5F5F5F5F5F5F5F5F5F5F5F5F5F5F5F5F5F5F5F5F5F5F5F5F5F5F5F5F5F5F5F5F5F5F5F5F5F5F5F5F5F5F5F5F5F5F5F5F5F5F5F5E2F5F5F5F5F5F5F5F5F5F5F5F5F5F5F5F5E2F5F5F5F5E2E2F5F5F5F5E2
310
F5F5F5F5F5F5F5F5F5F5F5F5F5F5F5F5E2F5F5F5F5F5F5F5F5F5F5F5F5F5F5F5F5F5F5F5F5F5F5F5F5F5F5F5F5F5F5F5F5F5F5F5F5F5F5F5F5F5F5F5F5F5F5F5F5F5F5F5F5F5F5F5F5F5F5F5F5F5F5F5F5F5F5F5F5F5F5F5F5F5F5F5F5F5F5F5F5F5F5F5F5F5F5F5F5F5F5F5F5F5F5F5F5F5F5F5F5F5F5F5F5F5F5F5F5F5F5
310
F5F5F5F5F5F5F5F5F5F5F5F5F5F5F5F5F5F5F5F5F5F5F5F5E2F5F5F5F5F5F5F5F5F5F5F5F5F5F5F5F5E2F5F5F5F5E2E2F5F5F5F5E2F5F5F5F5F5F5F5F5F5F5F5F5F5F5F5F5E2F5F5F5F5F5F5F5F5F5F5F5F5F5F5F5F5F5F5F5F5F5F5F5F5F5F5F5F5F5F5F5F5F5F5F5F5F5F5F5F5F5F5F5F5F5F5F5F5F5F5F5F5F5F5F5F5F5
310
F5F5F5F5F5F5F5F5F5F5F5F5F5F5F5F5F5F5F5F5F5F5F5F5F5F5F5F5F5F5F5F5F5F5F5F5F5F5F5F5F5F5F5F5F5F5F5F5F5F5F5F5F5F5F5F5F5F5F5F5F5F5F5F5F5F5F5F5F5F5F5F5F5F5F5F5F5E2F5F5F5F5F5F5F5F5F5F5F5F5F5F5F5F5E2F5F5F5F5E2E2F5F5F5F5F5F5F5F5F5F5F5F5F5F5F5F5F5F5F5F5F5E2F5F5F5F5
310
F5F5F5F5F5F5F5F5F5F5F5F5F5F5F5F5F5F5F5F5F5F5F5F5F5F5F5F5F5F5F5F5F5F5F5F5F5F5F5F5F5F5F5F5F5F5F5F5F5F5F5F5F5F5F5F5F5F5F5F5F5F5F5F5F5F5F5F5F5F5F5F5F5F5F5F5F5F5F5F5F5F5F5F5F5F5F5F5F5F5F5F5F5F5F5F5F5F5F5F5F5F5F5F5F5F5F5F5F5F5F5F5F5F5F5F5F5F5F5F5F5F5F5F5F5F5F5
310
F5F5F5E2F5F5F5F5F5F5F5F5F5F5F5F5F5F5F5F5F5F5F5F5F5E2E2F5F5F5F5F5F5F5F5F5F5F5F5F5F5F5F5F5F5F5F5F5E2F5F5F5F5F5F5F5F5F5F5F5F5F5F5F5F5F5F5F5F5F5F5F5F5F5F5F5F5F5F5F5F5F5F5F5F5F5F5F5F5F5F5F5F5F5F5F5F5F5F5F5F5F5F5F5F5F5F5F5F5F5F5F5F5F5F5F5F5F5F5F5F5F5F5F5F5F5F5
310
F5F5F5F5F5F5F5F5F5F5F5F5F5F5F5F5F5F5F5F5F5F5F5F5F5F5F5F5F5F5F5F5F5F5F5F5F5F5F5F5F5F5F5F5F5F5F5F5F5F5F5F5F5F5F5F5E2F5F5F5F5F5F5F5F5F5F5F5F5F5F5F5F5F5F5F5F5F5E2E2F5F5F5F5F5F5F5F5F5F5F5F5F5F5F5F5F5F5F5F5F5E2F5F5F5F5F5F5F5F5F5F5F5F5F5F5F5F5F5F5F5F5F5F5F5F5F5
310
F5F5F5F5F5F5F5F5F5F5F5F5F5F5F5F5F5F5F5F5F5F5F5F5F5F5F5F5F5F5F5F5F5F5F5F5F5F5F5F5F5F5F5F5F5F5F5F5F5F5F5F5F5F5F5F5F5F5F5F5F5F5F5F5F5F5F5F5F5F5F5F5F5F5F5F5F5F5F5F5F5F5F5F5F5F5F5F5F5F5F5F5F5F5F5F5F5F5F5F5F5F5F5F5F5F5F5F5F5E2F5F5F5F5F5F5F5F5F5F5F5F5F5F5F5F5F5
310
F5F5F5F5E2E2F5F5F5F5F5F5F5F5F5F5F5F5F5F5F5F5F5F5F5F5F5E2F5F5F5F5F5F5F5F5F5F5F5F5F5F5F5F5F5F5F5F5F5F5F5F5F5F5F5F5F5F5F5F5F5F5F5F5F5F5F5F5F5F5F5F5F5F5F5F5F5F5F5F5F5F5F5F5F5F5F5F5F5F5F5F5F5F5F5F5F5F5F5F5F5F5F5F5F5F5F5F5F5F5F5F5F5F5F5F5F5F5F5F5F5F5F5F5F5F5F5
310
F5F5F5F5F5F5F5F5F5F5F5F5F5F5F5F5F5F5F5F5F5F5F5F5F5F5F5F5F5F5F5F5F5F5F5E2F5F5F5F5F5F5F5F5F5F5F5F5F5F5F5F5F5F5F5F5F5E2E2F5F5F5F5F5F5F5F5F5F5F5F5F5F5F5F5F5F5F5F5F5E2E2E2E2E2E2E2E2E2E2E2E2E2E2E2E2E2E2E2E2E2E2E2E2E2E2E2E2E2E2E2E2E2E2E2E2E2E2E2E2E2E2E2E2E2E2E2
310
E2E2E2E2E2E2E2E2E2E2E2E2E2E2E2E2E2E2E2E2E2E2E2E2E2E2E2E2E2E2E2E2E2E2E2E2E2E2E2E2E2E2E2E2E2E2E2E2E2E2E2E2E2E2E2E2E2E2E2E2E2E2E2E2E2E2E2E2E2E2E2E2E2E2E2E2E2E2E2E2E2E2E2E2E2E2E2E2E2F5F5F5F5F5F5F5F5F5F5F5F5F5F5F5F5F5F5F5F5F5E2E2F5F5F5F5F5F5F5F5F5F5F5F5F5F5F5
310
F5F5F5F5F5F5F5F5F5F5F5F5F5F5F5F5F5F5F5F5F5F5F5F5F5F5F5F5F5F5F5F5F5F5F5F5F5F5F5F5F5F5F5F5F5F5F5F5F5F5F5F5F5F5F5F5F5F5F5F5F5F5F5F5F5F5F5F5F5F5F5F5F5F5F5F5F5F5F5F5F5F5F5F5F5F5F5F5F5F5F5F5F5F5F5F5F5F5F5F5F5F5F5F5F5F5F5F5F5F5F5F5F5F5F5F5F5F5F5F5F5F5F5F5F5F5F5
310
F5F5F5F5F5F5F5F5F5F5F5F5F5F5F5F5F5F5F5F5F5F5F5F5F5F5F5F5F5F5F5F5F5F5F5F5E2E2F5F5F5F5F5F5F5F5F5F5F5F5F5F5F5F5F5F5F5F5F5F5F5F5F5F5F5F5F5F5F5F5F5F5F5F5F5F5F5F5F5F5F5F5F5F5F5F5F5F5F5F5F5F5F5F5F5F5F5F5F5F5F5F5F5F5F5F5F5F5F5F5F5F5F5F5F5F5F5F5F5F5F5F5F5F5F5F5F5
310
F5F5F5F5F5F5F5F5F5F5F5F5F5F5F5F5F5F5F5F5F5F5F5F5F5F5F5F5F5F5F5F5F5F5F5F5F5F5F5F5F5F5F5F5F5F5F5F5F5F5F5F5F5F5F5F5F5F5F5F5F5F5F5F5F5F5F5F5F5F5F5F5F5F5F5F5F5F5F5F5F5F5F5F5F5F5F5F5F5E2E2F5F5F5F5F5F5F5F5F5F5F5F5F5F5F5F5F5F5F5F5F5F5F5F5F5F5F5F5F5F5F5F5F5F5F5F5
310
F5F5F5F5F5F5F5F5F5F5F5F5F5F5F5F5F5F5F5F5F5F5F5F5F5F5F5F5F5F5F5F5F5F5F5F5F5F5F5F5F5F5F5F5F5F5F5F5F5F5F5F5F5F5F5F5F5F5F5F5F5F5F5F5F5F5F5F5F5F5F5F5F5F5F5F5F5F5F5F5F5F5F5F5F5F5F5F5F5F5F5F5F5F5F5F5F5F5F5F5F5F5F5F5F5F5F5F5F5F5F5F5F5F5F5F5F5F5F5F5F5F5F5F5F5F5F5
310
F5F5F5F5F5F5F5F5F5F5F5F5F5F5F5E2E2F5F5F5F5F5F5F5F5F5F5F5F5F5F5F5F5F5F5F5F5F5F5F5F5F5F5F5F5F5F5F5F5F5F5F5F5F5F5F5F5F5F5F5F5F5F5F5F5F5F5F5F5F5F5F5F5F5F5F5F5F5F5F5F5F5F5F5F5F5F5F5F5F5F5F5F5F5F5F5F5F5F5F5F5F5F5F5F5F5F5F5F5F5F5F5F5F5F5F5F5F5F5F5F5F5F5F5F5F5F5
310
F5F5F5F5F5F5F5F5F5F5F5F5F5F5F5F5F5F5F5F5F5F5F5F5F5F5F5F5F5F5F5F5F5F5F5F5F5F5F5F5F5F5F5F5F5F5F5F5F5F5F5F5F5F5F5F5F5F5F5F5F5F5F5F5F5F5F5F5E2E2F5F5F5F5E2F5F5F5F5F5F5F5F5F5F5F5F5F5F5F5F5F5F5F5F5F5F5F5F5F5F5F5F5F5F5F5F5F5F5F5F5F5F5F5F5F5F5F5F5F5F5F5F5F5F5F5F5
310
F5F5F5F5F5F5F5F5F5F5F5F5F5F5F5F5F5F5F5F5F5F5F5F5F5F5F5F5F5F5F5F5F5F5F5F5F5F5F5F5F5F5F5F5F5F5F5F5F5F5F5F5F5F5F5F5F5F5F5F5F5F5F5F5F5F5F5F5F5F5F5F5F5F5F5F5F5F5F5F5F5F5F5F5F5F5F5F5F5F5F5F5F5F5F5F5F5F5F5F5F5F5F5F5F5F5F5F5F5F5F5F5F5F5F5F5E2F5F5F5F5E2E2F5F5F5F5
310
E2F5F5F5F5F5F5F5F5F5F5F5F5F5F5F5F5F5F5F5F5F5F5F5F5F5F5F5F5F5F5F5F5F5F5F5F5F5F5F5F5F5F5F5F5F5F5F5F5F5F5F5F5F5F5F5F5F5F5F5F5F5F5F5F5F5F5F5F5F5F5F5F5F5F5F5F5F5F5F5F5F5F5F5F5F5F5F5F5F5F5F5F5F5F5F5F5F5F5F5F5F5F5F5F5F5F5F5F5F5F5F5F5F5F5F5F5F5F5F5F5F5F5F5F5F5F5
310
F5F5F5F5F5F5F5F5F5F5F5F5F5F5F5F5F5F5F5F5F5F5F5F5F5F5F5F5F5F5F5F5F5F5F5F5F5F5F5F5F5F5E2F5F5F5F5E2E2F5F5F5F5E2F5F5F5F5F5F5F5F5F5F5F5F5F5F5F5F5F5F5F5F5F5F5F5F5F5F5F5F5F5F5F5F5F5F5F5F5F5F5F5F5F5F5F5F5F5F5F5F5F5F5F5F5F5F5F5F5F5F5F5F5F5F5F5F5F5F5F5F5F5F5F5F5F5
310
F5F5F5F5F5F5F5F5F5F5F5F5F5F5F5F5F5F5F5F5F5F5F5F5F5F5F5F5F5F5F5F5F5F5F5F5F5F5F5F5F5F5F5F5F5F5F5F5F5F5F5F5F5F5F5F5F5F5F5F5F5F5F5F5F5F5F5F5F5F5F5F5F5F5F5F5F5F5F5F5F5F5F5F5F5F5F5F5F5F5F5F5F5F5F5E2F5F5F5F5E2E2F5F5F5F5E2F5F5F5F5F5F5F5F5F5F5F5F5F5F5F5F5F5F5F5F5
310
F5F5F5F5F5F5F5F5F5F5F5F5F5F5F5F5F5F5F5F5F5F5F5F5F5F5F5F5F5F5F5F5F5F5F5F5F5F5F5F5F5F5F5F5F5F5F5F5F5F5F5F5F5F5F5F5F5F5F5F5F5F5F5F5F5F5F5F5F5F5F5F5F5F5F5F5F5F5F5F5F5F5F5F5F5F5F5F5F5F5F5F5F5F5F5F5F5F5F5F5F5F5F5F5F5F5F5F5F5F5F5F5F5F5F5F5F5F5F5F5F5F5F5F5F5F5F5
310
F5F5F5F5F5F5F5F5F5F5F5F5F5F5F5F5F5F5F5F5F5E2F5F5F5F5E2E2F5F5F5F5E2F5F5F5F5F5F5F5F5F5F5F5F5F5F5F5F5F5F5F5F5F5F5F5F5F5F5F5F5F5F5F5F5F5F5F5F5F5F5F5F5F5F5F5F5F5F5F5F5F5F5F5F5F5F5F5F5F5F5F5F5F5F5F5F5F5F5F5F5F5F5F5F5F5F5F5F5F5F5F5F5F5F5F5F5F5F5F5F5F5F5F5F5F5F5
310
F5F5F5F5F5F5F5F5F5F5F5F5F5F5F5F5F5F5F5F5F5F5F5F5F5F5F5F5F5F5F5F5F5F5F5F5F5F5F5F5F5F5F5F5F5F5F5F5F5F5F5F5F5F5F5F5F5F5F5F5F5F5F5F5F5F5F5F5F5F5F5F5F5F5E2F5F5F5F5E2E2F5F5F5F5E2F5F5F5F5F5F5F5F5F5F5F5F5F5F5F5F5F5F5F5F5F5F5F5F5F5F5F5F5F5F5F5F5F5F5F5F5F5F5F5F5F5
310
F5F5F5F5F5F5F5F5F5F5F5F5F5F5F5F5F5F5F5F5F5F5F5F5F5F5F5F5F5F5F5F5F5F5F5F5F5F5F5F5F5F5F5F5F5F5F5F5F5F5F5F5F5F5F5F5F5F5F5F5F5F5F5F5F5F5F5F5F5F5F5F5F5F5F5F5F5F5F5F5F5F5F5F5F5F5F5F5F5F5F5F5F5F5F5F5F5F5F5F5F5F5F5F5F5F5F5F5F5F5F5F5F5F5F5F5F5F5F5F5F5F5F5F5F5F5F5
310
E2F5F5F5F5E2E2F5F5F5F5E2F5F5F5F5F5F5F5F5F5F5F5F5F5F5F5F5F5F5F5F5F5F5F5F5F5F5F5F5F5F5F5F5F5F5F5F5F5F5F5F5F5F5F5F5F5F5F5F5F5F5F5F5F5F5F5F5F5F5F5F5F5F5F5F5F5F5F5F5F5F5F5F5F5F5F5F5F5F5F5F5F5F5F5F5F5F5F5F5F5F5F5F5F5F5F5F5F5F5F5F5F5F5F5F5F5F5F5F5F5F5F5F5F5F5F5
310
F5F5F5F5F5F5F5F5F5F5F5F5F5F5F5F5F5F5F5F5F5F5F5F5F5F5F5F5F5F5F5F5F5F5F5F5F5F5F5F5F5F5F5F5F5F5F5F5F5F5F5F5F5E2F5F5F5F5E2E2F5F5F5F5E2F5F5F5F5F5F5F5F5F5F5F5F5F5F5F5F5F5F5F5F5F5F5F5F5F5F5F5F5F5F5F5F5F5F5F5F5F5F5F5F5F5F5F5F5F5F5F5F5F5F5F5F5F5F5F5F5F5F5F5F5F5F5
310
F5F5F5F5F5F5F5F5F5F5F5F5F5F5F5F5F5F5F5F5F5F5F5F5F5F5F5F5F5F5F5F5F5F5F5F5F5F5F5F5F5F5F5F5F5F5F5F5F5F5F5F5F5F5F5F5F5F5F5F5F5F5F5F5F5F5F5F5F5F5F5F5F5F5F5F5F5F5F5F5F5F5F5F5F5F5F5F5F5F5F5F5F5F5F5F5F5F5F5F5F5F5F5F5F5F5E2F5F5F5F5E2E2F5F5F5F5E2E2E2E2E2E2E2E2F5F5
310
F5F5F5F5F5F5F5E2E2E2E2E2E2E2E2E2E2E2E2E2E2E2F5F5F5F5F5F5F5F5F5E2E2E2E2E2E2E2E2E2E2E2E2E2E2E2E2F5F5F5F5F5F5F5F5E2E2E2E2E2E2E2E2E2E2E2E2E2E2E2E2F5F5F5F5F5F5F5F5E2E2E2E2E2E2E2E2E2E2E2E2E2E2E2E2F5F5F5F5F5F5F5F5E2E2E2E2E2E2E2E2E2E2E2E2E2E2E2E2F5F5F5F5F5F5F5F5
310
F5E2E2E2E2E2E2E2E2E2E2E2E2E2E2E2F5F5F5F5F5F5F5F5F5E2E2E2E2E2E2E2E2F5F5F5F5E2E2F5F5F5F5F5F5F5F5F5F5F5F5F5F5F5F5F5F5F5F5F5F5F5F5F5F5F5F5F5F5F5F5F5F5F5F5F5F5F5F5F5F5F5F5F5F5F5F5F5F5F5F5F5F5F5F5F5F5F5F5F5F5F5F5F5F5F5F5F5F5F5F5F5F5F5F5F5F5F5F5F5F5F5F5F5F5F5F5
310
F5F5F5F5F5F5F5F5F5F5F5F5F5F5F5F5F5F5F5F5F5F5F5F5F5F5F5F5F5F5F5F5F5F5F5F5F5F5F5F5F5F5F5F5F5F5F5F5F5F5F5F5F5F5F5F5F5F5F5F5F5F5F5F5F5F5F5F5F5F5F5F5F5F5F5F5F5F5F5F5F5F5F5F5F5F5F5F5F5F5E2E2F5F5F5F5F5F5F5F5F5F5F5F5F5F5F5F5F5F5F5F5F5F5F5F5F5F5F5F5F5F5F5F5F5F5F5
310
F5F5F5F5F5F5F5F5F5F5F5F5F5F5F5F5F5F5F5F5F5F5F5F5F5F5F5F5F5F5F5F5F5F5F5F5F5F5F5F5F5F5F5F5F5F5F5F5F5F5F5F5F5F5F5F5F5F5F5F5F5F5F5F5F5F5F5F5F5F5F5F5F5F5F5F5F5F5F5F5F5F5F5F5F5F5F5F5F5F5F5F5F5F5F5F5F5F5F5F5F5F5F5F5F5F5F5F5F5F5F5F5F5F5F5F5F5F5F5F5F5F5F5F5F5F5F5
310
F5F5F5F5F5F5F5F5F5F5F5F5F5F5F5F5E2E2F5F5F5F5F5F5F5F5F5F5F5F5F5F5F5F5F5F5F5F5F5F5F5F5F5F5F5F5F5F5F5F5F5F5F5F5F5F5F5F5F5F5F5F5F5F5F5F5F5F5F5F5F5F5F5F5F5F5F5F5F5F5F5F5F5F5F5F5F5F5F5F5F5F5F5F5F5F5F5F5F5F5F5F5F5F5F5F5F5F5F5F5F5F5F5F5F5F5F5F5F5F5F5F5F5F5F5F5F5
310
F5F5F5F5F5F5F5F5F5F5F5F5F5F5F5F5F5F5F5F5F5F5F5F5F5F5F5F5F5F5F5F5F5F5F5F5F5F5F5F5F5F5F5F5F5F5F5F5F5F5F5F5F5F5F5F5F5F5F5F5F5F5F5F5F5F5F5F5F5E2E2E2E2E2E2E2E2E2E2E2E2E2E2E2E2E2E2E2E2E2E2E2E2E2E2E2E2E2E2E2E2E2E2E2E2E2E2E2E2E2E2E2E2E2E2E2E2E2E2E2E2E2E2E2E2E2E2
310
E2E2E2E2E2E2E2E2E2E2E2E2E2E2E2E2E2E2E2E2E2E2E2E2E2E2E2E2E2E2E2E2E2E2E2E2E2E2E2E2E2E2E2E2E2E2E2E2E2E2E2E2E2E2E2E2E2E2E2E2E2E2E2E2E2E2E2E2E2E2E2E2E2E2E2E2E2E2E2E2E2E2E2E2E2E2E2E2E2E2E2E2E2E2E2E2E2E2E2E2E2E2E2E2E2E2E2E2E2E2E2E2E2E2E2E2E2E2E2E2E2E2E2EFEFEFEF
310
EFEFEFEFEFEFEFEFEFEFEFEFEFEFEFEFEFEFEFEFEFEFEFEFEFEFEFEFEFEFEFEFEFEFEFEFEFEFEFEFEFEFEFEFEFEFEFEFEFEFEFEFEFEFEFEFEFEFEFEFEFEFEFEFEFEFEFEFEFEFEFEFEFEFEFEFEFEFEFEFEFEFEFEFEFEFEFEFEFEFEFEFEFEFEFEFEFEFEFEFEFEFEFEFEFEFEFEFEFEFEFEFEFEFEFEFEFEFEFEFEFEFEFEFEFEFEF
310
EFEFEFEFEFEFEFEFEFEFEFEFEFEFEFEFEFEFEFEFEFEFEFEFEFEFEFEFEFEFEFEFEFEFEFEFEFEFEFEFEFEFEFEFEFEFEFEFEF
  0
XRECORD
  5
59D9C
102
{ACAD_REACTORS
330
B5
102
}
330
B5
100
AcDbXrecord
280
     1
102
SHADEPLOT
 70
     0
102
SHADEPLOTRESLEVEL
 70
     2
102
SHADEPLOTCUSTOMDPI
 70
   300
  0
XRECORD
  5
B6
102
{ACAD_REACTORS
330
B5
102
}
330
B5
100
AcDbXrecord
280
     1
310
28000000B40000008B0000000100080000000000BC610000000000000000000000010000000000000000000000000000FFFFFF000000000000000000000000000000000000000000000000000000000000000000330000006600000099000000CC000000FF00000000330000333300006633000099330000CC330000FF3300
310
0000660000336600006666000099660000CC660000FF66000000990000339900006699000099990000CC990000FF99000000CC000033CC000066CC000099CC0000CCCC0000FFCC000000FF000033FF000066FF000099FF0000CCFF0000FFFF000000003300330033006600330099003300CC003300FF003300003333003333
310
33006633330099333300CC333300FF33330000663300336633006666330099663300CC663300FF66330000993300339933006699330099993300CC993300FF99330000CC330033CC330066CC330099CC3300CCCC3300FFCC330000FF330033FF330066FF330099FF3300CCFF3300FFFF330000006600330066006600660099
310
006600CC006600FF00660000336600333366006633660099336600CC336600FF33660000666600336666006666660099666600CC666600FF66660000996600339966006699660099996600CC996600FF99660000CC660033CC660066CC660099CC6600CCCC6600FFCC660000FF660033FF660066FF660099FF6600CCFF6600
310
FFFF660000009900330099006600990099009900CC009900FF00990000339900333399006633990099339900CC339900FF33990000669900336699006666990099669900CC669900FF66990000999900339999006699990099999900CC999900FF99990000CC990033CC990066CC990099CC9900CCCC9900FFCC990000FF99
310
0033FF990066FF990099FF9900CCFF9900FFFF99000000CC003300CC006600CC009900CC00CC00CC00FF00CC000033CC003333CC006633CC009933CC00CC33CC00FF33CC000066CC003366CC006666CC009966CC00CC66CC00FF66CC000099CC003399CC006699CC009999CC00CC99CC00FF99CC0000CCCC0033CCCC0066CC
310
CC0099CCCC00CCCCCC00FFCCCC0000FFCC0033FFCC0066FFCC0099FFCC00CCFFCC00FFFFCC000000FF003300FF006600FF009900FF00CC00FF00FF00FF000033FF003333FF006633FF009933FF00CC33FF00FF33FF000066FF003366FF006666FF009966FF00CC66FF00FF66FF000099FF003399FF006699FF009999FF00CC
310
99FF00FF99FF0000CCFF0033CCFF0066CCFF0099CCFF00CCCCFF00FFCCFF0000FFFF0033FFFF0066FFFF0099FFFF00CCFFFF00FFFFFF00000000000D0D0D001A1A1A00282828003535350043434300505050005D5D5D006B6B6B00787878008686860093939300A1A1A100AEAEAE00BBBBBB00C9C9C900D6D6D600E4E4E400
310
F1F1F100FFFFFF0000000000000000000000000000000000000000000000000000000000000000000000000000000000F5F5F5F5F5F5F5F5F5F5F5F5F5F5F5F5F5F5F5F5F5F5F5F5F5F5F5F5F5F5F5F5F5F5F5F5F5F5F5F5F5F5F5F5F5F5F5F5F5F5F5F5F5F5F5F5F5F5F5F5F5F5F5F5F5F5F5F5F5F5F5F5F5F5F5F5F5F5F5
310
F5F5F5F5F5F5F5F5F5F5F5F5F5F5F5F5F5F5F5F5F5F5F5F5F5F5F5F5F5F5F5F5F5F5F5F5F5F5F5F5F5F5F5F5F5F5F5F5F5F5F5F5F5F5F5F5F5F5F5F5F5F5F5F5F5F5F5F5F5F5F5F5F5F5F5F5F5F5F5F5F5F5F5F5F5F5F5F5F5F5F5F5F5F5F5F5F5F5F5F5F5F5E2E2E2E2E2E2E2E2E2E2E2E2E2E2E2E2E2E2E2E2E2E2E2E2E2
310
E2E2E2E2E2E2E2E2E2E2E2E2E2E2E2E2E2E2E2E2E2E2E2E2E2E2E2E2E2E2E2E2E2E2E2E2E2E2E2E2E2E2E2E2E2E2E2E2E2E2E2E2E2E2E2E2E2E2E2E2E2E2E2E2E2E2E2E2E2E2E2E2E2E2E2E2E2E2E2E2E2E2E2E2E2E2E2E2E2E2E2E2E2E2E2E2E2E2E2E2E2E2E2E2E2E2E2E2E2E2E2E2E2E2E2E2E2E2E2E2E2E2E2E2E2E2E2
310
E2E2E2E2E2E2E2E2E2E2E2E2E2E2E2E2E2E2E2E2E2E2E2E2E2E2F5F5E2E2E2E2E2E2E2E2E2E2E2E2E2E2E2E2E2E2E2E2E2E2E2E2E2E2E2E2E2E2E2E2E2E2E2E2E2E2E2E2E2E2E2E2E2E2E2E2E2E2E2E2E2E2E2E2E2E2E2E2E2E2E2E2E2E2E2E2E2E2E2E2E2E2E2E2E2E2E2E2E2E2E2E2E2E2E2E2E2E2E2E2E2E2E2E2E2E2E2
310
E2E2E2E2E2E2E2E2E2E2E2E2E2E2E2E2E2E2E2E2E2E2E2E2E2E2E2E2E2E2E2E2E2E2E2E2E2E2E2E2E2E2E2E2E2E2E2E2E2E2E2E2E2E2E2E2E2E2E2E2E2E2E2E2E2E2E2E2E2E2E2E2E2E2E2E2E2E2E2F5F5E2E2E2E2E2E2E2E2E2E2E2E2E2E2E2E2E2E2E2E2E2E2E2E2E2E2E2E2E2E2E2E2E2E2E2E2E2E2E2E2E2E2E2E2E2E2
310
E2E2E2E2E2E2E2E2E2E2E2E2E2E2E2E2E2E2E2E2E2E2E2E2E2E2E2E2E2E2E2E2E2E2E2E2E2E2E2E2E2E2E2E2E2E2E2E2E2E2E2E2E2E2E2E2E2E2E2E2E2E2E2E2E2E2E2E2E2E2E2E2E2E2E2E2E2E2E2E2E2E2E2E2E2E2E2E2E2E2E2E2E2E2E2E2E2E2E2E2E2E2E2E2E2E2E2E2E2E2E2E2E2E2E2E2E2E2E2E2E2E2E2E2E2E2E2
310
E2E2E2E2E2F5F5E2E2E2E2E2E2E2E2E2E2E2E2E2E2E2E2E2E2E2E2E2E2E2E2E2E2E2E2E2E2E2E2E2E2E2E2E2E2E2E2E2E2E2E2E2E2E2E2E2E2E2E2E2E2E2E2E2E2E2E2E2E2E2E2E2E2E2E2E2E2E2E2E2E2E2E2E2E2E2E2E2E2E2E2E2E2E2E2E2E2E2E2E2E2E2E2E2E2E2E2E2E2E2E2E2E2E2E2E2E2E2E2E2E2E2E2E2E2E2E2
310
E2E2E2E2E2E2E2E2E2E2E2E2E2E2E2E2E2E2E2E2E2E2E2E2E2E2E2E2E2E2E2E2E2E2E2E2E2E2E2E2E2E2E2E2E2E2E2E2E2E2E2E2E2E2E2E2E2E2F5F5E2E2E2F5F5F5F5F5F5F5F5E2E2E2E2E2E2E2E2E2F5F5F5F5F5F5F5F5F5F5F5F5F5F5F5F5E2E2E2E2E2E2E2E2E2F5F5F5F5F5F5F5F5F5F5F5F5F5F5F5E2E2E2E2E2E2E2
310
E2E2F5F5F5F5F5F5F5F5F5F5F5F5F5F5F5F5E2E2E2E2E2E2E2E2F5F5F5F5F5F5F5F5F5F5F5F5F5F5F5F5E2E2E2E2E2E2E2E2E2F5F5F5F5F5F5F5F5F5F5F5F5F5F5F5E2E2E2E2E2E2E2E2E2F5F5F5F5F5F5F5F5F5F5F5F5F5F5F5F5E2E2E2E2E2E2E2E2E2F5F5F5F5F5F5F5F5E2E2E2F5F5E2E2E2F5E2E2E2E2E2E2E2E2E2E2
310
E2E2E2E2E2E2E2E2E2E2E2E2E2E2E2E2E2E2E2E2E2E2E2E2E2E2E2E2E2E2E2E2E2E2E2E2E2E2E2E2E2E2E2E2E2E2E2E2E2E2E2E2E2E2E2E2E2E2E2E2E2E2E2E2E2E2E2E2E2E2E2E2E2E2E2E2E2E2E2E2E2E2E2E2E2E2E2E2E2E2E2E2E2E2E2E2E2E2E2E2E2E2E2E2E2E2E2E2E2E2E2E2E2E2E2E2E2E2E2E2E2E2E2E2E2E2E2
310
E2E2E2E2E2E2E2E2E2E2E2E2E2E2E2E2E2E2E2E2E2E2E2E2E2E2E2E2E2E2E2E2E2F5E2E2E2F5F5E2E2E2F5E2E2E2E2E2E2E2E2E2E2E2E2E2E2E2E2E2E2E2E2E2E2E2E2E2E2E2E2E2E2E2E2E2E2E2E2E2E2E2E2E2E2E2E2E2E2E2E2E2E2E2E2E2E2E2E2E2E2E2E2E2E2E2E2E2E2E2E2E2E2E2E2E2E2E2E2E2E2E2E2E2E2E2E2
310
E2E2E2E2E2E2E2E2E2E2E2E2E2E2E2E2E2E2E2E2E2E2E2E2E2E2E2E2E2E2E2E2E2E2E2E2E2E2E2E2E2E2E2E2E2E2E2E2E2E2E2E2E2E2E2E2E2E2E2E2E2E2E2E2E2E2E2E2E2E2E2E2E2E2E2E2E2E2E2E2E2E2E2E2E2E2F5E2E2E2F5F5E2E2E2F5E2E2E2E2E2E2E2E2E2E2E2E2E2E2E2E2E2E2E2E2E2E2E2E2E2E2E2E2E2E2E2
310
E2E2E2E2E2E2E2E2E2E2E2E2E2E2E2E2E2E2E2E2E2E2E2E2E2E2E2E2E2E2E2E2E2E2E2E2E2E2E2E2E2E2E2E2E2E2E2E2E2E2E2E2E2E2E2E2E2E2E2E2E2E2E2E2E2E2E2E2E2E2E2E2E2E2E2E2E2E2E2E2E2E2E2E2E2E2E2E2E2E2E2E2E2E2E2E2E2E2E2E2E2E2E2E2E2E2E2E2E2E2E2E2E2E2E2E2E2E2E2E2E2E2E2E2E2E2E2
310
E2E2E2E2E2E2E2E2E2E2E2E2F5E2E2E2F5F5E2E2E2F5E2E2E2E2E2E2E2E2E2E2E2E2E2E2E2E2E2E2E2E2E2E2E2E2E2E2E2E2E2E2E2E2E2E2E2E2E2E2E2E2E2E2E2E2E2E2E2E2E2E2E2E2E2E2E2E2E2E2E2E2E2E2E2E2E2E2E2E2E2E2E2E2E2E2E2E2E2E2E2E2E2E2E2E2E2E2E2E2E2E2E2E2E2E2E2E2E2E2E2E2E2E2E2E2E2
310
E2E2E2E2E2E2E2E2E2E2E2E2E2E2E2E2E2E2E2E2E2E2E2E2E2E2E2E2E2E2E2E2E2E2E2E2E2E2E2E2E2E2E2E2E2E2E2E2E2E2E2E2E2E2E2E2E2E2E2E2E2E2E2E2E2F5E2E2E2F5F5E2E2E2F5E2E2E2E2E2E2E2E2E2E2E2E2E2E2E2E2E2E2E2E2E2E2E2E2E2E2E2E2E2E2E2E2E2E2E2E2E2E2E2E2E2E2E2E2E2E2E2E2E2E2E2E2
310
E2E2E2E2E2E2E2E2E2E2E2E2E2E2E2E2E2E2E2E2E2E2E2E2E2E2E2E2E2E2E2E2E2E2E2E2E2E2E2E2E2E2E2E2E2E2E2E2E2E2E2E2E2E2E2E2E2E2E2E2E2E2E2E2E2E2E2E2E2E2E2E2E2E2E2E2E2E2E2E2E2E2E2E2E2E2E2E2E2E2E2E2E2E2E2E2E2E2E2E2E2E2E2E2E2E2E2E2E2E2E2E2E2E2E2E2E2E2F5E2E2E2F5F5E2E2E2
310
F5E2E2E2E2E2E2E2E2E2E2E2E2E2E2E2E2E2E2E2E2E2E2E2E2E2E2E2E2E2E2E2E2E2E2E2E2E2E2E2E2E2E2E2E2E2E2E2E2E2E2E2E2E2E2E2E2E2E2E2E2E2E2E2E2E2E2E2E2E2E2E2E2E2E2E2E2E2E2E2E2E2E2E2E2E2E2E2E2E2E2E2E2E2E2E2E2E2E2E2E2E2E2E2E2E2E2E2E2E2E2E2E2E2E2E2E2E2E2E2E2E2E2E2E2E2E2
310
E2E2E2E2E2E2E2E2E2E2E2E2E2E2E2E2E2E2E2E2E2E2E2E2E2E2E2E2E2E2E2E2E2E2E2E2E2E2E2E2E2E2E2E2F5E2E2E2F5F5E2E2E2F5E2E2E2E2E2E2E2E2E2E2E2E2E2E2E2E2E2E2E2E2E2E2E2E2E2E2E2E2E2E2E2E2E2E2E2E2E2E2E2E2E2E2E2E2E2E2E2E2E2E2E2E2E2E2E2E2E2E2E2E2E2E2E2E2E2E2E2E2E2E2E2E2E2
310
E2E2E2E2E2E2E2E2E2E2E2E2E2E2E2E2E2E2E2E2E2E2E2E2E2E2E2E2E2E2E2E2E2E2E2E2E2E2E2E2E2E2E2E2E2E2E2E2E2E2E2E2E2E2E2E2E2E2E2E2E2E2E2E2E2E2E2E2E2E2E2E2E2E2E2E2E2E2E2E2E2E2E2E2E2E2E2E2E2E2E2E2E2E2E2E2E2F5E2E2E2F5F5E2E2E2F5E2E2E2E2E2E2E2E2E2E2E2E2E2E2E2E2E2E2E2E2
310
E2E2E2E2E2E2E2E2E2E2E2E2E2E2E2E2E2E2E2E2E2E2E2E2E2E2E2E2E2E2E2E2E2E2E2E2E2E2E2E2E2E2E2E2E2E2E2E2E2E2E2E2E2E2E2E2E2E2E2E2E2E2E2E2E2E2E2E2E2E2E2E2E2E2E2E2E2E2E2E2E2E2E2E2E2E2E2E2E2E2E2E2E2E2E2E2E2E2E2E2E2E2E2E2E2E2E2E2E2E2E2E2E2E2E2E2E2E2E2E2E2E2E2E2E2E2E2
310
E2E2E2E2E2E2E2E2E2E2E2E2E2E2E2E2E2E2E2E2E2E2E2F5E2E2E2F5F5E2E2E2E2E2E2E2E2E2E2E2E2E2E2E2E2E2E2E2E2E2E2E2E2E2E2E2E2E2E2E2E2E2E2E2E2E2E2E2E2E2E2E2E2E2E2E2E2E2E2E2E2E2E2E2E2E2E2E2E2E2E2E2E2E2E2E2E2E2E2E2E2E2E2E2E2E2E2E2E2E2E2E2E2E2E2E2E2E2E2E2E2E2E2E2E2E2E2
310
E2E2E2E2E2E2E2E2E2E2E2E2E2E2E2E2E2E2E2E2E2E2E2E2E2E2E2E2E2E2E2E2E2E2E2E2E2E2E2E2E2E2E2E2E2E2E2E2E2E2E2E2E2E2E2E2E2E2E2E2E2E2E2E2E2E2E2E2E2E2E2E2E2E2E2E2E2E2E2E2F5F5E2E2E2E2E2E2E2E2E2E2E2E2E2E2E2E2E2E2E2E2E2E2E2E2E2E2E2E2E2E2E2E2E2E2E2E2E2E2E2E2E2E2E2E2E2
310
E2E2E2E2E2E2E2E2E2E2E2E2E2E2E2E2E2E2E2E2E2E2E2E2E2E2E2E2E2E2E2E2E2E2E2E2E2E2E2E2E2E2E2E2E2E2E2E2E2E2E2E2E2E2E2E2E2E2E2E2E2E2E2E2E2E2E2E2E2E2E2E2E2E2E2E2E2E2E2E2E2E2E2E2E2E2E2E2E2E2E2E2E2E2E2E2E2E2E2E2E2E2E2E2E2E2E2E2E2E2E2E2E2E2E2E2E2E2E2E2E2E2E2E2E2E2E2
310
E2E2E2E2E2E2F5F5E2E2E2E2E2E2E2E2E2E2E2E2E2E2E2E2E2E2E2E2E2E2E2E2E2E2E2E2E2E2E2E2E2E2E2E2E2E2E2E2E2E2E2E2E2E2E2E2E2E2E2E2E2E2E2E2E2E2E2E2E2E2E2E2E2E2E2E2E2E2E2E2E2E2E2E2E2E2E2E2E2E2E2E2E2E2E2E2E2E2E2E2E2E2E2E2E2E2E2E2E2E2E2E2E2E2E2E2E2E2E2E2E2E2E2E2E2E2E2
310
E2E2E2E2E2E2E2E2E2E2E2E2E2E2E2E2E2E2E2E2E2E2E2E2E2E2E2E2E2E2E2E2E2E2E2E2E2E2E2E2E2E2E2E2E2E2E2E2E2E2E2E2E2E2E2E2E2E2E2F5F5E2E2E2E2E2E2E2E2E2E2E2E2E2E2E2E2E2E2E2E2E2E2E2E2E2E2E2E2E2E2E2E2E2E2E2E2E2E2E2E2E2E2E2E2E2E2E2E2E2E2E2E2E2E2E2E2E2E2E2E2E2E2E2E2E2E2
310
E2E2E2E2E2E2E2E2E2E2E2E2E2E2E2E2E2E2E2E2E2E2E2E2E2E2E2E2E2E2E2E2E2E2E2E2E2E2E2E2E2E2E2E2E2E2E2E2E2E2E2E2E2E2E2E2E2E2E2E2E2E2E2E2E2E2E2E2E2E2E2E2E2E2E2E2E2E2E2E2E2E2E2E2E2E2E2E2E2E2E2E2E2E2E2E2E2E2E2E2E2E2E2E2E2E2E2E2E2E2E2E2F5F5E2E2E2E2E2E2E2E2E2E2E2E2E2
310
E2E2E2E2E2E2E2F5F5F5F5F5F5F5F5F5F5F5F5F5F5F5F5F5F5F5F5F5F5F5F5F5F5F5F5F5F5F5F5F5F5F5F5F5F5F5F5F5F5F5F5F5F5F5F5F5F5F5F5F5F5F5F5F5F5F5F5F5F5F5F5F5F5F5F5F5F5F5F5F5F5F5F5F5F5F5F5F5F5F5F5F5F5F5F5F5F5F5F5F5F5F5F5F5F5F5F5F5F5F5F5F5F5F5F5F5F5F5F5F5F5F5F5F5F5F5F5
310
F5F5F5F5F5F5F5F5F5F5F5F5F5F5F5F5F5F5E2E2E2E2E2E2E2E2E2E2E2E2E2E2E2E2E2E2E2E2F5F5E2E2E2E2E2E2E2E2E2E2E2E2E2E2E2E2E2E2E2E2F5E2E2E2E2E2E2E2E2E2E2E2E2E2E2E2E2E2E2E2E2E2E2E2E2E2E2E2E2E2E2E2E2E2E2E2E2E2E2E2E2E2E2E2E2E2E2E2E2E2E2E2E2E2E2E2E2E2E2E2E2E2E2E2E2E2E2
310
E2E2E2E2E2E2E2E2E2E2E2E2E2E2E2E2E2E2E2E2E2E2E2E2E2E2E2E2E2E2E2E2E2E2E2E2E2E2E2E2E2E2E2E2E2E2E2E2E2E2E2E2E2E2E2E2E2E2E2E2E2E2E2E2E2E2E2E2E2E2F5E2E2E2E2E2E2E2E2E2E2E2E2E2E2E2E2E2E2E2E2F5F5E2E2E2E2E2E2E2E2E2E2E2E2E2E2E2E2E2E2E2E2F5E2E2E2E2E2E2E2E2E2E2E2E2E2
310
E2E2E2E2E2E2E2E2E2E2E2E2E2E2E2E2E2E2E2E2E2E2E2E2E2E2E2E2E2E2E2E2E2E2E2E2E2E2E2E2E2E2E2E2E2E2E2E2E2E2E2E2E2E2E2E2E2E2E2E2E2E2E2E2E2E2E2E2E2E2E2E2E2E2E2E2E2E2E2E2E2E2E2E2E2E2E2E2E2E2E2E2E2E2E2E2E2E2E2E2E2E2E2E2E2E2E2E2E2E2E2E2E2E2E2E2E2E2E2E2E2E2E2F5E2E2E2
310
E2E2E2E2E2E2E2E2E2E2E2E2E2E2E2E2E2F5F5E2E2E2E2E2E2E2E2E2E2E2E2E2E2E2E2E2E2E2E2F5E2E2E2E2E2E2E2E2E2E2E2E2E2E2E2E2E2E2E2E2E2E2E2E2E2E2E2E2E2E2E2E2E2E2E2E2E2E2E2E2E2E2E2E2E2E2E2E2E2E2E2E2E2E2E2E2E2E2E2E2E2E2E2E2E2E2E2E2E2E2E2E2E2E2E2E2E2E2E2E2E2E2E2E2E2E2E2
310
E2E2E2E2E2E2E2E2E2E2E2E2E2E2E2E2E2E2E2E2E2E2E2E2E2E2E2E2E2E2E2E2E2E2E2E2E2E2E2E2E2E2E2E2E2E2E2E2E2F5E2E2E2E2E2E2E2E2E2E2E2E2E2E2E2E2E2E2E2E2F5F5E2E2E2E2E2E2E2E2E2E2E2E2E2E2E2E2E2E2E2E2F5E2E2E2E2E2E2E2E2E2E2E2E2E2E2E2E2E2E2E2E2E2E2E2E2E2E2E2E2E2E2E2E2E2E2
310
E2E2E2E2E2E2E2E2E2E2E2E2E2E2E2E2E2E2E2E2E2E2E2E2E2E2E2E2E2E2E2E2E2E2E2E2E2E2E2E2E2E2E2E2E2E2E2E2E2E2E2E2E2E2E2E2E2E2E2E2E2E2E2E2E2E2E2E2E2E2E2E2E2E2E2E2E2E2E2E2E2E2E2E2E2E2E2E2E2E2E2E2E2E2E2E2E2E2E2E2E2E2F5E2E2E2E2E2E2E2E2E2E2E2E2E2E2E2E2E2E2E2E2F5F5E2E2
310
E2F5E2E2E2E2E2E2E2E2E2E2E2E2E2E2E2E2F5E2E2E2E2E2E2E2E2E2E2E2E2E2E2E2E2E2E2E2E2E2E2E2E2E2E2E2E2E2E2E2E2E2E2E2E2E2E2E2E2E2E2E2E2E2E2E2E2E2E2E2E2E2E2E2E2E2E2E2E2E2E2E2E2E2E2E2E2E2E2E2E2E2E2E2E2E2E2E2E2E2E2E2E2E2E2E2E2E2E2E2E2E2E2E2E2E2E2E2E2E2E2E2E2E2E2E2E2
310
E2E2E2E2E2E2E2E2E2E2E2E2E2E2E2E2E2E2E2E2E2E2E2E2E2E2E2E2F5E2E2E2E2E2E2E2E2E2E2E2E2E2E2E2E2F5E2E2E2F5F5E2E2E2F5E2E2E2E2E2E2E2E2E2E2E2E2E2E2E2E2F5E2E2E2E2E2E2E2E2E2E2E2E2E2E2E2E2E2E2E2E2E2E2E2E2E2E2E2E2E2E2E2E2E2E2E2E2E2E2E2E2E2E2E2E2E2E2E2E2E2E2E2E2E2E2E2
310
E2E2E2E2E2E2E2E2E2E2E2E2E2E2E2E2E2E2E2E2E2E2E2E2E2E2E2E2E2E2E2E2E2E2E2E2E2E2E2E2E2E2E2E2E2E2E2E2E2E2E2E2E2E2E2E2E2E2E2E2E2E2E2E2E2E2E2E2E2E2E2E2E2E2E2E2E2E2E2E2E2F5E2E2E2E2E2E2E2E2E2E2E2E2E2E2E2E2F5E2E2E2F5F5E2E2E2F5E2E2E2E2E2E2E2E2E2E2E2E2E2E2E2E2F5E2E2
310
E2E2E2E2E2E2E2E2E2E2E2E2E2E2E2E2E2E2E2E2E2E2E2E2E2E2E2E2E2E2E2E2E2E2E2E2E2E2E2E2E2E2E2E2E2E2E2E2E2E2E2E2E2E2E2E2E2E2E2E2E2E2E2E2E2E2E2E2E2E2E2E2E2E2E2E2E2E2E2E2E2E2E2E2E2E2E2E2E2E2E2E2E2E2E2E2E2E2E2E2E2E2E2E2E2E2E2E2E2E2E2E2E2E2E2E2E2E2E2E2E2E2E2E2E2E2E2
310
E2E2E2E2E2E2E2F5E2E2E2E2E2E2E2E2E2E2E2E2E2E2E2E2F5E2E2E2F5F5E2E2E2F5E2E2E2E2E2E2E2E2E2E2E2E2E2E2E2E2F5E2E2E2E2E2E2E2E2E2E2E2E2E2E2E2E2E2E2E2E2E2E2E2E2E2E2E2E2E2E2E2E2E2E2E2E2E2E2E2E2E2E2E2E2E2E2E2E2E2E2E2E2E2E2E2E2E2E2E2E2E2E2E2E2E2E2E2E2E2E2E2E2E2E2E2E2
310
E2E2E2E2E2E2E2E2E2E2E2E2E2E2E2E2E2E2E2E2E2E2E2E2E2E2E2E2E2E2E2E2E2E2E2E2E2E2E2E2E2E2E2E2E2E2E2E2E2E2E2E2E2E2E2E2E2E2E2E2F5E2E2E2E2E2E2E2E2E2E2E2E2E2E2E2E2F5E2E2E2F5F5E2E2E2F5E2E2E2E2E2E2E2E2E2E2E2E2E2E2E2E2F5E2E2E2E2E2E2E2E2E2E2E2E2E2E2E2E2E2E2E2E2E2E2E2
310
E2E2E2E2E2E2E2E2E2E2E2E2E2E2E2E2E2E2E2E2E2E2E2E2E2E2E2E2E2E2E2E2E2E2E2E2E2E2E2E2E2E2E2E2E2E2E2E2E2E2E2E2E2E2E2E2E2E2E2E2E2E2E2E2E2E2E2E2E2E2E2E2E2E2E2E2E2E2E2E2E2E2E2E2E2E2E2E2E2E2E2E2E2E2E2E2E2E2E2E2E2E2E2E2E2E2E2E2E2E2E2E2E2F5E2E2E2E2E2E2E2E2E2E2E2E2E2
310
E2E2E2F5E2E2E2F5F5E2E2E2F5E2E2E2E2E2E2E2E2E2E2E2E2E2E2E2E2F5E2E2E2E2E2E2E2E2E2E2E2E2E2E2E2E2E2E2E2E2E2E2E2E2E2E2E2E2E2E2E2E2E2E2E2E2E2E2E2E2E2E2E2E2E2E2E2E2E2E2E2E2E2E2E2E2E2E2E2E2E2E2E2E2E2E2E2E2E2E2E2E2E2E2E2E2E2E2E2E2E2E2E2E2E2E2E2E2E2E2E2E2E2E2E2E2E2
310
E2E2E2E2E2E2E2E2E2E2E2E2E2E2E2E2E2E2E2E2E2E2E2E2E2E2E2E2E2E2E2E2E2E2E2E2E2E2E2F5E2E2E2E2E2E2E2E2E2E2E2E2E2E2E2E2F5E2E2E2F5F5E2E2E2F5E2E2E2E2E2E2E2E2E2E2E2E2E2E2E2E2F5E2E2E2E2E2E2E2E2E2E2E2E2E2E2E2E2E2E2E2E2E2E2E2E2E2E2E2E2E2E2E2E2E2E2E2E2E2E2E2E2E2E2E2E2
310
E2E2E2E2E2E2E2E2E2E2E2E2E2E2E2E2E2E2E2E2E2E2E2E2E2E2E2E2E2E2E2E2E2E2E2E2E2E2E2E2E2E2E2E2E2E2E2E2E2E2E2E2E2E2E2E2E2E2E2E2E2E2E2E2E2E2E2E2E2E2E2E2E2E2E2E2E2E2E2E2E2E2E2E2E2E2E2E2E2E2E2E2F5E2E2E2E2E2E2E2E2E2E2E2E2E2E2E2E2F5E2E2E2F5F5E2E2E2F5E2E2E2E2E2E2E2E2
310
E2E2E2E2E2E2E2E2F5E2E2E2E2E2E2E2E2E2E2E2E2E2E2E2E2E2E2E2E2E2E2E2E2E2E2E2E2E2E2E2E2E2E2E2E2E2E2E2E2E2E2E2E2E2E2E2E2E2E2E2E2E2E2E2E2E2E2E2E2E2E2E2E2E2E2E2E2E2E2E2E2E2E2E2E2E2E2E2E2E2E2E2E2E2E2E2E2E2E2E2E2E2E2E2E2E2E2E2E2E2E2E2E2E2E2E2E2E2E2E2E2E2E2E2E2E2E2
310
E2E2E2E2E2E2E2E2E2E2E2E2E2E2E2E2E2E2F5E2E2E2E2E2E2E2E2E2E2E2E2E2E2E2E2F5E2E2E2F5F5E2E2E2F5E2E2E2E2E2E2E2E2E2E2E2E2E2E2E2E2F5E2E2E2E2E2E2E2E2E2E2E2E2E2E2E2E2E2E2E2E2E2E2E2E2E2E2E2E2E2E2E2E2E2E2E2E2E2E2E2E2E2E2E2E2E2E2E2E2E2E2E2E2E2E2E2E2E2E2E2E2E2E2E2E2E2
310
E2E2E2E2E2E2E2E2E2E2E2E2E2E2E2E2E2E2E2E2E2E2E2E2E2E2E2E2E2E2E2E2E2E2E2E2E2E2E2E2E2E2E2E2E2E2E2E2E2E2E2E2E2E2E2E2E2E2E2E2E2E2E2E2E2E2E2E2E2E2E2F5E2E2E2E2E2E2E2E2E2E2E2E2E2E2E2E2F5E2E2E2F5F5E2E2E2F5E2E2E2E2E2E2E2E2E2E2E2E2E2E2E2E2F5E2E2E2E2E2E2E2E2E2E2E2E2
310
E2E2E2E2E2E2E2E2E2E2E2E2E2E2E2E2E2E2E2E2E2E2E2E2E2E2E2E2E2E2E2E2E2E2E2E2E2E2E2E2E2E2E2E2E2E2E2E2E2E2E2E2E2E2E2E2E2E2E2E2E2E2E2E2E2E2E2E2E2E2E2E2E2E2E2E2E2E2E2E2E2E2E2E2E2E2E2E2E2E2E2E2E2E2E2E2E2E2E2E2E2E2E2E2E2E2E2E2E2E2E2E2E2E2E2E2E2E2E2E2E2E2E2E2F5E2E2
310
E2E2E2E2E2E2E2E2E2E2E2E2E2E2F5E2E2E2F5F5E2E2E2F5E2E2E2E2E2E2E2E2E2E2E2E2E2E2E2E2F5E2E2E2E2E2E2E2E2E2E2E2E2E2E2E2E2E2E2E2E2E2E2E2E2E2E2E2E2E2E2E2E2E2E2E2E2E2E2E2E2E2E2E2E2E2E2E2E2E2E2E2E2E2E2E2E2E2E2E2E2E2E2E2E2E2E2E2E2E2E2E2E2E2E2E2E2E2E2E2E2E2E2E2E2E2E2
310
E2E2E2E2E2E2E2E2E2E2E2E2E2E2E2E2E2E2E2E2E2E2E2E2E2E2E2E2E2E2E2E2E2E2E2E2E2E2E2E2E2E2E2E2E2E2E2E2E2E2F5E2E2E2E2E2E2E2E2E2E2E2E2E2E2E2E2F5E2E2E2F5F5E2E2E2F5E2E2E2E2E2E2E2E2E2E2E2E2E2E2E2E2F5E2E2E2E2E2E2E2E2E2E2E2E2E2E2E2E2E2E2E2E2E2E2E2E2E2E2E2E2E2E2E2E2E2
310
E2E2E2E2E2E2E2E2E2E2E2E2E2E2E2E2E2E2E2E2E2E2E2E2E2E2E2E2E2E2E2E2E2E2E2E2E2E2E2E2E2E2E2E2E2E2E2E2E2E2E2E2E2E2E2E2E2E2E2E2E2E2E2E2E2E2E2E2E2E2E2E2E2E2E2E2E2E2E2E2E2E2E2E2E2E2E2E2E2E2E2E2E2E2E2E2E2E2E2E2E2E2E2F5E2E2E2E2E2E2E2E2E2E2E2E2E2E2E2E2F5E2E2E2F5F5E2
310
E2E2F5E2E2E2E2E2E2E2E2E2E2E2E2E2E2E2E2F5E2E2E2E2E2E2E2E2E2E2E2E2E2E2E2E2E2E2E2E2E2E2E2E2E2E2E2E2E2E2E2E2E2E2E2E2E2E2E2E2E2E2E2E2E2E2E2E2E2E2E2E2E2E2E2E2E2E2E2E2E2E2E2E2E2E2E2E2E2E2E2E2E2E2E2E2E2E2E2E2E2E2E2E2E2E2E2E2E2E2E2E2E2E2E2E2E2E2E2E2E2E2E2E2E2E2E2
310
E2E2E2E2E2E2E2E2E2E2E2E2E2E2E2E2E2E2E2E2E2E2E2E2E2E2E2E2E2F5E2E2E2E2E2E2E2E2E2E2E2E2E2E2E2E2F5E2E2E2F5F5E2E2E2F5E2E2E2E2E2E2E2E2E2E2E2E2E2E2E2E2F5E2E2E2E2E2E2E2E2E2E2E2E2E2E2E2E2E2E2E2E2E2E2E2E2E2E2E2E2E2E2E2E2E2E2E2E2E2E2E2E2E2E2E2E2E2E2E2E2E2E2E2E2E2E2
310
E2E2E2E2E2E2E2E2E2E2E2E2E2E2E2E2E2E2E2E2E2E2E2E2E2E2E2E2E2E2E2E2E2E2E2E2E2E2E2E2E2E2E2E2E2E2E2E2E2E2E2E2E2E2E2E2E2E2E2E2E2E2E2E2E2E2E2E2E2E2E2E2E2E2E2E2E2E2E2E2E2E2F5E2E2E2E2E2E2E2E2E2E2E2E2E2E2E2E2F5E2E2E2F5F5E2E2E2F5E2E2E2E2E2E2E2E2E2E2E2E2E2E2E2E2F5E2
310
E2E2E2E2E2E2E2E2E2E2E2E2E2E2E2E2E2E2E2E2E2E2E2E2E2E2E2E2E2E2E2E2E2E2E2E2E2E2E2E2E2E2E2E2E2E2E2E2E2E2E2E2E2E2E2E2E2E2E2E2E2E2E2E2E2E2E2E2E2E2E2E2E2E2E2E2E2E2E2E2E2E2E2E2E2E2E2E2E2E2E2E2E2E2E2E2E2E2E2E2E2E2E2E2E2E2E2E2E2E2E2E2E2E2E2E2E2E2E2E2E2E2E2E2E2E2E2
310
E2E2E2E2E2E2E2E2F5E2E2E2E2E2E2E2E2E2E2E2E2E2E2E2E2F5E2E2E2F5F5E2E2E2F5E2E2E2E2E2E2E2E2E2E2E2E2E2E2E2E2F5E2E2E2E2E2E2E2E2E2E2E2E2E2E2E2E2E2E2E2E2E2E2E2E2E2E2E2E2E2E2E2E2E2E2E2E2E2E2E2E2E2E2E2E2E2E2E2E2E2E2E2E2E2E2E2E2E2E2E2E2E2E2E2E2E2E2E2E2E2E2E2E2E2E2E2
310
E2E2E2E2E2E2E2E2E2E2E2E2E2E2E2E2E2E2E2E2E2E2E2E2E2E2E2E2E2E2E2E2E2E2E2E2E2E2E2E2E2E2E2E2E2E2E2E2E2E2E2E2E2E2E2E2E2E2E2E2E2F5E2E2E2E2E2E2E2E2E2E2E2E2E2E2E2E2F5E2E2E2F5F5E2E2E2F5E2E2E2E2E2E2E2E2E2E2E2E2E2E2E2E2F5E2E2E2E2E2E2E2E2E2E2E2E2E2E2E2E2E2E2E2E2E2E2
310
E2E2E2E2E2E2E2E2E2E2E2E2E2E2E2E2E2E2E2E2E2E2E2E2E2E2E2E2E2E2E2E2E2E2E2E2E2E2E2E2E2E2E2E2E2E2E2E2E2E2E2E2E2E2E2E2E2E2E2E2E2E2E2E2E2E2E2E2E2E2E2E2E2E2E2E2E2E2E2E2E2E2E2E2E2E2E2E2E2E2E2E2E2E2E2E2E2E2E2E2E2E2E2E2E2E2E2E2E2E2E2E2E2E2F5E2E2E2E2E2E2E2E2E2E2E2E2
310
E2E2E2E2F5E2E2E2F5F5E2E2E2E2E2E2E2E2E2E2E2E2E2E2E2E2E2E2E2E2F5E2E2E2E2E2E2E2E2E2E2E2E2E2E2E2E2E2E2E2E2E2E2E2E2E2E2E2E2E2E2E2E2E2E2E2E2E2E2E2E2E2E2E2E2E2E2E2E2E2E2E2E2E2E2E2E2E2E2E2E2E2E2E2E2E2E2E2E2E2E2E2E2E2E2E2E2E2E2E2E2E2E2E2E2E2E2E2E2E2E2E2E2E2E2E2E2
310
E2E2E2E2E2E2E2E2E2E2E2E2E2E2E2E2E2E2E2E2E2E2E2E2E2E2E2E2E2E2E2E2E2E2E2E2E2E2E2E2F5E2E2E2E2E2E2E2E2E2E2E2E2E2E2E2E2E2E2E2E2F5F5E2E2E2E2E2E2E2E2E2E2E2E2E2E2E2E2E2E2E2E2F5E2E2E2E2E2E2E2E2E2E2E2E2E2E2E2E2E2E2E2E2E2E2E2E2E2E2E2E2E2E2E2E2E2E2E2E2E2E2E2E2E2E2E2
310
E2E2E2E2E2E2E2E2E2E2E2E2E2E2E2E2E2E2E2E2E2E2E2E2E2E2E2E2E2E2E2E2E2E2E2E2E2E2E2E2E2E2E2E2E2E2E2E2E2E2E2E2E2E2E2E2E2E2E2E2E2E2E2E2E2E2E2E2E2E2E2E2E2E2E2E2E2E2E2E2E2E2E2E2E2E2E2E2E2E2E2E2E2F5E2E2E2E2E2E2E2E2E2E2E2E2E2E2E2E2E2E2E2E2F5F5E2E2E2E2E2E2E2E2E2E2E2
310
E2E2E2E2E2E2E2E2E2F5E2E2E2E2E2E2E2E2E2E2E2E2E2E2E2E2E2E2E2E2E2E2E2E2E2E2E2E2E2E2E2E2E2E2E2E2E2E2E2E2E2E2E2E2E2E2E2E2E2E2E2E2E2E2E2E2E2E2E2E2E2E2E2E2E2E2E2E2E2E2E2E2E2E2E2E2E2E2E2E2E2E2E2E2E2E2E2E2E2E2E2E2E2E2E2E2E2E2E2E2E2E2E2E2E2E2E2E2E2E2E2E2E2E2E2E2E2
310
E2E2E2E2E2E2E2E2E2E2E2E2E2E2E2E2E2E2E2F5E2E2E2E2E2E2E2E2E2E2E2E2E2E2E2E2E2E2E2E2F5F5E2E2E2E2E2E2E2E2E2E2E2E2E2E2E2E2E2E2E2E2F5E2E2E2E2E2E2E2E2E2E2E2E2E2E2E2E2E2E2E2E2E2E2E2E2E2E2E2E2E2E2E2E2E2E2E2E2E2E2E2E2E2E2E2E2E2E2E2E2E2E2E2E2E2E2E2E2E2E2E2E2E2E2E2E2
310
E2E2E2E2E2E2E2E2E2E2E2E2E2E2E2E2E2E2E2E2E2E2E2E2E2E2E2E2E2E2E2E2E2E2E2E2E2E2E2E2E2E2E2E2E2E2E2E2E2E2E2E2E2E2E2E2E2E2E2E2E2E2E2E2E2E2E2E2E2E2E2E2F5E2E2E2E2E2E2E2E2E2E2E2E2E2E2E2E2E2E2E2E2F5F5E2E2E2E2E2E2E2E2E2E2E2E2E2E2E2E2E2E2E2E2F5E2E2E2E2E2E2E2E2E2E2E2
310
E2E2E2E2E2E2E2E2E2E2E2E2E2E2E2E2E2E2E2E2E2E2E2E2E2E2E2E2E2E2E2E2E2E2E2E2E2E2E2E2E2E2E2E2E2E2E2E2E2E2E2E2E2E2E2E2E2E2E2E2E2E2E2E2E2E2E2E2E2E2E2E2E2E2E2E2E2E2E2E2E2E2E2E2E2E2E2E2E2E2E2E2E2E2E2E2E2E2E2E2E2E2E2E2E2E2E2E2E2E2E2E2E2E2E2E2E2E2E2E2E2E2E2E2E2F5E2
310
E2E2E2E2E2E2E2E2E2E2E2E2E2E2E2E2E2E2E2F5F5E2E2E2E2E2E2E2E2E2E2E2E2E2E2E2E2E2E2E2E2F5E2E2E2E2E2E2E2E2E2E2E2E2E2E2E2E2E2E2E2E2E2E2E2E2E2E2E2E2E2E2E2E2E2E2E2E2E2E2E2E2E2E2E2E2E2E2E2E2E2E2E2E2E2E2E2E2E2E2E2E2E2E2E2E2E2E2E2E2E2E2E2E2E2E2E2E2E2E2E2E2E2E2E2E2E2
310
E2E2E2E2E2E2E2E2E2E2E2E2E2E2E2E2E2E2E2E2E2E2E2E2E2E2E2E2E2E2E2E2E2E2E2E2E2E2E2E2E2E2E2E2E2E2E2E2E2E2E2F5E2E2E2E2E2E2E2E2E2E2E2E2E2E2E2E2E2E2E2E2F5F5E2E2E2E2E2E2E2E2E2E2E2E2E2E2E2E2E2E2E2E2F5E2E2E2E2E2E2E2E2E2E2E2E2E2E2E2E2E2E2E2E2E2E2E2E2E2E2E2E2E2E2E2E2
310
E2E2E2E2E2E2E2E2E2E2E2E2E2E2E2E2E2E2E2E2E2E2E2E2E2E2E2E2E2E2E2E2E2E2E2E2E2E2E2E2E2E2E2E2E2E2E2E2E2E2E2E2E2E2E2E2E2E2E2E2E2E2E2E2E2E2E2E2E2E2E2E2E2E2E2E2E2E2E2E2E2E2E2E2E2E2E2E2E2E2E2E2E2E2E2E2E2E2E2E2E2E2E2E2F5E2E2E2E2E2E2E2E2E2E2E2E2E2E2E2E2E2E2E2E2F5F5
310
E2E2E2E2E2E2E2E2E2E2E2E2E2E2E2E2E2E2E2E2F5E2E2E2E2E2E2E2E2E2E2E2E2E2E2E2E2E2E2E2E2E2E2E2E2E2E2E2E2E2E2E2E2E2E2E2E2E2E2E2E2E2E2E2E2E2E2E2E2E2E2E2E2E2E2E2E2E2E2E2E2E2E2E2E2E2E2E2E2E2E2E2E2E2E2E2E2E2E2E2E2E2E2E2E2E2E2E2E2E2E2E2E2E2E2E2E2E2E2E2E2E2E2E2E2E2E2
310
E2E2E2E2E2E2E2E2E2E2E2E2E2E2E2E2E2E2E2E2E2E2E2E2E2E2E2E2E2E2F5E2E2E2E2E2E2E2E2E2E2E2E2E2E2E2E2E2E2E2E2F5F5E2E2E2E2E2E2E2E2E2E2E2E2E2E2E2E2E2E2E2E2F5E2E2E2E2E2E2E2E2E2E2E2E2E2E2E2E2E2E2E2E2E2E2E2E2E2E2E2E2E2E2E2E2E2E2E2E2E2E2E2E2E2E2E2E2E2E2E2E2E2E2E2E2E2
310
E2E2E2E2E2E2E2E2E2E2E2E2E2E2E2E2E2E2E2E2E2E2E2E2E2E2E2E2E2E2E2E2E2E2E2E2E2E2E2E2E2E2E2E2E2E2E2E2E2E2E2E2E2E2E2E2E2E2E2E2E2E2E2E2E2E2E2E2E2E2E2E2E2E2E2E2E2E2E2E2E2E2E2F5E2E2E2E2E2E2E2E2E2E2E2E2E2E2E2E2E2E2E2E2F5F5E2E2E2F5E2E2E2E2E2E2E2E2E2E2E2E2E2E2E2E2F5
310
E2E2E2E2E2E2E2E2E2E2E2E2E2E2E2E2E2E2E2E2E2E2E2E2E2E2E2E2E2E2E2E2E2E2E2E2E2E2E2E2E2E2E2E2E2E2E2E2E2E2E2E2E2E2E2E2E2E2E2E2E2E2E2E2E2E2E2E2E2E2E2E2E2E2E2E2E2E2E2E2E2E2E2E2E2E2E2E2E2E2E2E2E2E2E2E2E2E2E2E2E2E2E2E2E2E2E2E2E2E2E2E2E2E2E2E2E2E2E2E2E2E2E2E2E2E2E2
310
E2E2E2E2E2E2E2E2E2F5E2E2E2E2E2E2E2E2E2E2E2E2E2E2E2E2F5E2E2E2F5F5E2E2E2F5E2E2E2E2E2E2E2E2E2E2E2E2E2E2E2E2F5E2E2E2E2E2E2E2E2E2E2E2E2E2E2E2E2E2E2E2E2E2E2E2E2E2E2E2E2E2E2E2E2E2E2E2E2E2E2E2E2E2E2E2E2E2E2E2E2E2E2E2E2E2E2E2E2E2E2E2E2E2E2E2E2E2E2E2E2E2E2E2E2E2E2
310
E2E2E2E2E2E2E2E2E2E2E2E2E2E2E2E2E2E2E2E2E2E2E2E2E2E2E2E2E2E2E2E2E2E2E2E2E2E2E2E2E2E2E2E2E2E2E2E2E2E2E2E2E2E2E2E2E2E2E2E2E2E2F5E2E2E2E2E2E2E2E2E2E2E2E2E2E2E2E2F5E2E2E2F5F5E2E2E2F5E2E2E2E2E2E2E2E2E2E2E2E2E2E2E2E2F5E2E2E2E2E2E2E2E2E2E2E2E2E2E2E2E2E2E2E2E2E2
310
E2E2E2E2E2E2E2E2E2E2E2E2E2E2E2E2E2E2E2E2E2E2E2E2E2E2E2E2E2E2E2E2E2E2E2E2E2E2E2E2E2E2E2E2E2E2E2E2E2E2E2E2E2E2E2E2E2E2E2E2E2E2E2E2E2E2E2E2E2E2E2E2E2E2E2E2E2E2E2E2E2E2E2E2E2E2E2E2E2E2E2E2E2E2E2E2E2E2E2E2E2E2E2E2E2E2E2E2E2E2E2E2E2E2E2F5E2E2E2E2E2E2E2E2E2E2E2
310
E2E2E2E2E2F5E2E2E2F5F5E2E2E2F5E2E2E2E2E2E2E2E2E2E2E2E2E2E2E2E2F5E2E2E2E2E2E2E2E2E2E2E2E2E2E2E2E2E2E2E2E2E2E2E2E2E2E2E2E2E2E2E2E2E2E2E2E2E2E2E2E2E2E2E2E2E2E2E2E2E2E2E2E2E2E2E2E2E2E2E2E2E2E2E2E2E2E2E2E2E2E2E2E2E2E2E2E2E2E2E2E2E2E2E2E2E2E2E2E2E2E2E2E2E2E2E2
310
E2E2E2E2E2E2E2E2E2E2E2E2E2E2E2E2E2E2E2E2E2E2E2E2E2E2E2E2E2E2E2E2E2E2E2E2E2E2E2E2E2F5E2E2E2E2E2E2E2E2E2E2E2E2E2E2E2E2F5E2E2E2F5F5E2E2E2F5E2E2E2E2E2E2E2E2E2E2E2E2E2E2E2E2F5E2E2E2E2E2E2E2E2E2E2E2E2E2E2E2E2E2E2E2E2E2E2E2E2E2E2E2E2E2E2E2E2E2E2E2E2E2E2E2E2E2E2
310
E2E2E2E2E2E2E2E2E2E2E2E2E2E2E2E2E2E2E2E2E2E2E2E2E2E2E2E2E2E2E2E2E2E2E2E2E2E2E2E2E2E2E2E2E2E2E2E2E2E2E2E2E2E2E2E2E2E2E2E2E2E2E2E2E2E2E2E2E2E2E2E2E2E2E2E2E2E2E2E2E2E2E2E2E2E2E2E2E2E2E2E2E2E2F5E2E2E2E2E2E2E2E2E2E2E2E2E2E2E2E2F5E2E2E2F5F5E2E2E2F5E2E2E2E2E2E2
310
E2E2E2E2E2E2E2E2E2E2F5E2E2E2E2E2E2E2E2E2E2E2E2E2E2E2E2E2E2E2E2E2E2E2E2E2E2E2E2E2E2E2E2E2E2E2E2E2E2E2E2E2E2E2E2E2E2E2E2E2E2E2E2E2E2E2E2E2E2E2E2E2E2E2E2E2E2E2E2E2E2E2E2E2E2E2E2E2E2E2E2E2E2E2E2E2E2E2E2E2E2E2E2E2E2E2E2E2E2E2E2E2E2E2E2E2E2E2E2E2E2E2E2E2E2E2E2
310
E2E2E2E2E2E2E2E2E2E2E2E2E2E2E2E2E2E2E2E2F5E2E2E2E2E2E2E2E2E2E2E2E2E2E2E2E2F5E2E2E2F5F5E2E2E2F5E2E2E2E2E2E2E2E2E2E2E2E2E2E2E2E2F5E2E2E2E2E2E2E2E2E2E2E2E2E2E2E2E2E2E2E2E2E2E2E2E2E2E2E2E2E2E2E2E2E2E2E2E2E2E2E2E2E2E2E2E2E2E2E2E2E2E2E2E2E2E2E2E2E2E2E2E2E2E2E2
310
E2E2E2E2E2E2E2E2E2E2E2E2E2E2E2E2E2E2E2E2E2E2E2E2E2E2E2E2E2E2E2E2E2E2E2E2E2E2E2E2E2E2E2E2E2E2E2E2E2E2E2E2E2E2E2E2E2E2E2E2E2E2E2E2E2E2E2E2E2E2E2E2E2F5E2E2E2E2E2E2E2E2E2E2E2E2E2E2E2E2F5E2E2E2F5F5E2E2E2F5E2E2E2E2E2E2E2E2E2E2E2E2E2E2E2E2F5E2E2E2E2E2E2E2E2E2E2
310
E2E2E2E2E2E2E2E2E2E2E2E2E2E2E2E2E2E2E2E2E2E2E2E2E2E2E2E2E2E2E2E2E2E2E2E2E2E2E2E2E2E2E2E2E2E2E2E2E2E2E2E2E2E2E2E2E2E2E2E2E2E2E2E2E2E2E2E2E2E2E2E2E2E2E2E2E2E2E2E2E2E2E2E2E2E2E2E2E2E2E2E2E2E2E2E2E2E2E2E2E2E2E2E2E2E2E2E2E2E2E2E2E2E2E2E2E2E2E2E2E2E2E2E2E2E2F5
310
E2E2E2E2E2E2E2E2E2E2E2E2E2E2E2E2F5E2E2E2F5F5E2E2E2F5E2E2E2E2E2E2E2E2E2E2E2E2E2E2E2E2F5E2E2E2E2E2E2E2E2E2E2E2E2E2E2E2E2E2E2E2E2E2E2E2E2E2E2E2E2E2E2E2E2E2E2E2E2E2E2E2E2E2E2E2E2E2E2E2E2E2E2E2E2E2E2E2E2E2E2E2E2E2E2E2E2E2E2E2E2E2E2E2E2E2E2E2E2E2E2E2E2E2E2E2E2
310
E2E2E2E2E2E2E2E2E2E2E2E2E2E2E2E2E2E2E2E2E2E2E2E2E2E2E2E2E2E2E2E2E2E2E2E2E2E2E2E2E2E2E2E2E2E2E2E2E2E2E2E2F5E2E2E2E2E2E2E2E2E2E2E2E2E2E2E2E2F5E2E2E2F5F5E2E2E2F5E2E2E2E2E2E2E2E2E2E2E2E2E2E2E2E2F5E2E2E2E2E2E2E2E2E2E2E2E2E2E2E2E2E2E2E2E2E2E2E2E2E2E2E2E2E2E2E2
310
E2E2E2E2E2E2E2E2E2E2E2E2E2E2E2E2E2E2E2E2E2E2E2E2E2E2E2E2E2E2E2E2E2E2E2E2E2E2E2E2E2E2E2E2E2E2E2E2E2E2E2E2E2E2E2E2E2E2E2E2E2E2E2E2E2E2E2E2E2E2E2E2E2E2E2E2E2E2E2E2E2E2E2E2E2E2E2E2E2E2E2E2E2E2E2E2E2E2E2E2E2E2E2E2E2F5E2E2E2E2E2E2E2E2E2E2E2E2E2E2E2E2F5E2E2E2F5
310
F5E2E2E2F5E2E2E2E2E2E2E2E2E2E2E2E2E2E2E2E2F5E2E2E2E2E2E2E2E2E2E2E2E2E2E2E2E2E2E2E2E2E2E2E2E2E2E2E2E2E2E2E2E2E2E2E2E2E2E2E2E2E2E2E2E2E2E2E2E2E2E2E2E2E2E2E2E2E2E2E2E2E2E2E2E2E2E2E2E2E2E2E2E2E2E2E2E2E2E2E2E2E2E2E2E2E2E2E2E2E2E2E2E2E2E2E2E2E2E2E2E2E2E2E2E2E2
310
E2E2E2E2E2E2E2E2E2E2E2E2E2E2E2E2E2E2E2E2E2E2E2E2E2E2E2E2E2E2E2F5E2E2E2E2E2E2E2E2E2E2E2E2E2E2E2E2F5E2E2E2F5F5E2E2E2F5E2E2E2E2E2E2E2E2E2E2E2E2E2E2E2E2F5E2E2E2E2E2E2E2E2E2E2E2E2E2E2E2E2E2E2E2E2E2E2E2E2E2E2E2E2E2E2E2E2E2E2E2E2E2E2E2E2E2E2E2E2E2E2E2E2E2E2E2E2
310
E2E2E2E2E2E2E2E2E2E2E2E2E2E2E2E2E2E2E2E2E2E2E2E2E2E2E2E2E2E2E2E2E2E2E2E2E2E2E2E2E2E2E2E2E2E2E2E2E2E2E2E2E2E2E2E2E2E2E2E2E2E2E2E2E2E2E2E2E2E2E2E2E2E2E2E2E2E2E2E2E2E2E2E2F5E2E2E2E2E2E2E2E2E2E2E2E2E2E2E2E2F5E2E2E2F5F5E2E2E2F5E2E2E2E2E2E2E2E2E2E2E2E2E2E2E2E2
310
F5E2E2E2E2E2E2E2E2E2E2E2E2E2E2E2E2E2E2E2E2E2E2E2E2E2E2E2E2E2E2E2E2E2E2E2E2E2E2E2E2E2E2E2E2E2E2E2E2E2E2E2E2E2E2E2E2E2E2E2E2E2E2E2E2E2E2E2E2E2E2E2E2E2E2E2E2E2E2E2E2E2E2E2E2E2E2E2E2E2E2E2E2E2E2E2E2E2E2E2E2E2E2E2E2E2E2E2E2E2E2E2E2E2E2E2E2E2E2E2E2E2E2E2E2E2E2
310
E2E2E2E2E2E2E2E2E2E2F5E2E2E2E2E2E2E2E2E2E2E2E2E2E2E2E2F5E2E2E2F5F5E2E2E2F5E2E2E2E2E2E2E2E2E2E2E2E2E2E2E2E2F5E2E2E2E2E2E2E2E2E2E2E2E2E2E2E2E2E2E2E2E2E2E2E2E2E2E2E2E2E2E2E2E2E2E2E2E2E2E2E2E2E2E2E2E2E2E2E2E2E2E2E2E2E2E2E2E2E2E2E2E2E2E2E2E2E2E2E2E2E2E2E2E2E2
310
E2E2E2E2E2E2E2E2E2E2E2E2E2E2E2E2E2E2E2E2E2E2E2E2E2E2E2E2E2E2E2E2E2E2E2E2E2E2E2E2E2E2E2E2E2E2E2E2E2E2E2E2E2E2E2E2E2E2E2E2E2E2E2F5E2E2E2E2E2E2E2E2E2E2E2E2E2E2E2E2F5E2E2E2F5F5E2E2E2F5E2E2E2E2E2E2E2E2E2E2E2E2E2E2E2E2F5E2E2E2E2E2E2E2E2E2E2E2E2E2E2E2E2E2E2E2E2
310
E2E2E2E2E2E2E2E2E2E2E2E2E2E2E2E2E2E2E2E2E2E2E2E2E2E2E2E2E2E2E2E2E2E2E2E2E2E2E2E2E2E2E2E2E2E2E2E2E2E2E2E2E2E2E2E2E2E2E2E2E2E2E2E2E2E2E2E2E2E2E2E2E2E2E2E2E2E2E2E2E2E2E2E2E2E2E2E2E2E2E2E2E2E2E2E2E2E2E2E2E2E2E2E2E2E2E2E2E2E2E2E2E2E2E2E2F5E2E2E2E2E2E2E2E2E2E2
310
E2E2E2E2E2E2F5E2E2E2F5F5E2E2E2F5E2E2E2E2E2E2E2E2E2E2E2E2E2E2E2E2F5E2E2E2E2E2E2E2E2E2E2E2E2E2E2E2E2E2E2E2E2E2E2E2E2E2E2E2E2E2E2E2E2E2E2E2E2E2E2E2E2E2E2E2E2E2E2E2E2E2E2E2E2E2E2E2E2E2E2E2E2E2E2E2E2E2E2E2E2E2E2E2E2E2E2E2E2E2E2E2E2E2E2E2E2E2E2E2E2E2E2E2E2E2E2
310
E2E2E2E2E2E2E2E2E2E2E2E2E2E2E2E2E2E2E2E2E2E2E2E2E2E2E2E2E2E2E2E2E2E2E2E2E2E2E2E2E2E2F5E2E2E2E2E2E2E2E2E2E2E2E2E2E2E2E2F5E2E2E2F5F5E2E2E2E2E2E2E2E2E2E2E2E2E2E2E2E2E2E2E2E2F5E2E2E2E2E2E2E2E2E2E2E2E2E2E2E2E2E2E2E2E2E2E2E2E2E2E2E2E2E2E2E2E2E2E2E2E2E2E2E2E2E2
310
E2E2E2E2E2E2E2E2E2E2E2E2E2E2E2E2E2E2E2E2E2E2E2E2E2E2E2E2E2E2E2E2E2E2E2E2E2E2E2E2E2E2E2E2E2E2E2E2E2E2E2E2E2E2E2E2E2E2E2E2E2E2E2E2E2E2E2E2E2E2E2E2E2E2E2E2E2E2E2E2E2E2E2E2E2E2E2E2E2E2E2E2E2E2E2F5E2E2E2E2E2E2E2E2E2E2E2E2E2E2E2E2E2E2E2E2F5F5E2E2E2E2E2E2E2E2E2
310
E2E2E2E2E2E2E2E2E2E2E2F5E2E2E2E2E2E2E2E2E2E2E2E2E2E2E2E2E2E2E2E2E2E2E2E2E2E2E2E2E2E2E2E2E2E2E2E2E2E2E2E2E2E2E2E2E2E2E2E2E2E2E2E2E2E2E2E2E2E2E2E2E2E2E2E2E2E2E2E2E2E2E2E2E2E2E2E2E2E2E2E2E2E2E2E2E2E2E2E2E2E2E2E2E2E2E2E2E2E2E2E2E2E2E2E2E2E2E2E2E2E2E2E2E2E2E2
310
E2E2E2E2E2E2E2E2E2E2E2E2E2E2E2E2E2E2E2E2E2F5E2E2E2E2E2E2E2E2E2E2E2E2E2E2E2E2E2E2E2E2F5F5E2E2E2E2E2E2E2E2E2E2E2E2E2E2E2E2E2E2E2E2F5E2E2E2E2E2E2E2E2E2E2E2E2E2E2E2E2E2E2E2E2E2E2E2E2E2E2E2E2E2E2E2E2E2E2E2E2E2E2E2E2E2E2E2E2E2E2E2E2E2E2E2E2E2E2E2E2E2E2E2E2E2E2
310
E2E2E2E2E2E2E2E2E2E2E2E2E2E2E2E2E2E2E2E2E2E2E2E2E2E2E2E2E2E2E2E2E2E2E2E2E2E2E2E2E2E2E2E2E2E2E2E2E2E2E2E2E2E2E2E2E2E2E2E2E2E2E2E2E2E2E2E2E2E2E2E2E2E2F5E2E2E2E2E2E2E2E2E2E2E2E2E2E2E2E2E2E2E2E2F5F5E2E2E2E2E2E2E2E2E2E2E2E2E2E2E2E2E2E2E2E2F5E2E2E2E2E2E2E2E2E2
310
E2E2E2E2E2E2E2E2E2E2E2E2E2E2E2E2E2E2E2E2E2E2E2E2E2E2E2E2E2E2E2E2E2E2E2E2E2E2E2E2E2E2E2E2E2E2E2E2E2E2E2E2E2E2E2E2E2E2E2E2E2E2E2E2E2E2E2E2E2E2E2E2E2E2E2E2E2E2E2E2E2E2E2E2E2E2E2E2E2E2E2E2E2E2E2E2E2E2E2E2E2E2E2E2E2E2E2E2E2E2E2E2E2E2E2E2E2E2E2E2E2E2E2E2E2E2E2
310
F5E2E2E2E2E2E2E2E2E2E2E2E2E2E2E2E2E2E2E2E2F5F5E2E2E2E2E2E2E2E2E2E2E2E2E2E2E2E2E2E2E2E2F5E2E2E2E2E2E2E2E2E2E2E2E2E2E2E2E2E2E2E2E2E2E2E2E2E2E2E2E2E2E2E2E2E2E2E2E2E2E2E2E2E2E2E2E2E2E2E2E2E2E2E2E2E2E2E2E2E2E2E2E2E2E2E2E2E2E2E2E2E2E2E2E2E2E2E2E2E2E2E2E2E2E2E2
310
E2E2E2E2E2E2E2E2E2E2E2E2E2E2E2E2E2E2E2E2E2E2E2E2E2E2E2E2E2E2E2E2E2E2E2E2E2E2E2E2E2E2E2E2E2E2E2E2E2E2E2E2E2F5E2E2E2E2E2E2E2E2E2E2E2E2E2E2E2E2E2E2E2E2F5F5E2E2E2E2E2E2E2E2E2E2E2E2E2E2E2E2E2E2E2E2F5E2E2E2E2E2E2E2E2E2E2E2E2E2E2E2E2E2E2E2E2E2E2E2E2E2E2E2E2E2E2
310
E2E2E2E2E2E2E2E2E2E2E2E2E2E2E2E2E2E2E2E2E2E2E2E2E2E2E2E2E2E2E2E2E2E2E2E2E2E2E2E2E2E2E2E2E2E2E2E2E2E2E2E2E2E2E2E2E2E2E2E2E2E2E2E2E2E2E2E2E2E2E2E2E2E2E2E2E2E2E2E2E2E2E2E2E2E2E2E2E2E2E2E2E2E2E2E2E2E2E2E2E2E2E2E2E2E2F5E2E2E2E2E2E2E2E2E2E2E2E2E2E2E2E2E2E2E2E2
310
F5F5E2E2E2E2E2E2E2E2E2E2E2E2E2E2E2E2E2E2E2E2F5E2E2E2E2E2E2E2E2E2E2E2E2E2E2E2E2E2E2E2E2E2E2E2E2E2E2E2E2E2E2E2E2E2E2E2E2E2E2E2E2E2E2E2E2E2E2E2E2E2E2E2E2E2E2E2E2E2E2E2E2E2E2E2E2E2E2E2E2E2E2E2E2E2E2E2E2E2E2E2E2E2E2E2E2E2E2E2E2E2E2E2E2E2E2E2E2E2E2E2E2E2E2E2E2
310
E2E2E2E2E2E2E2E2E2E2E2E2E2E2E2E2E2E2E2E2E2E2E2E2E2E2E2E2E2E2E2E2F5E2E2E2E2E2E2E2E2E2E2E2E2E2E2E2E2E2E2E2E2F5F5E2E2E2E2E2E2E2E2E2E2E2E2E2E2E2E2E2E2E2E2F5E2E2E2E2E2E2E2E2E2E2E2E2E2E2E2E2E2E2E2E2E2E2E2E2E2E2E2E2E2E2E2E2E2E2E2E2E2E2E2E2E2E2E2E2E2E2E2E2E2E2E2
310
E2E2E2E2E2E2E2E2E2E2E2E2E2E2E2E2E2E2E2E2E2E2E2E2E2E2E2E2E2E2E2E2E2E2E2E2E2E2E2E2E2E2E2E2E2E2E2E2E2E2E2E2E2E2E2E2E2E2E2E2E2E2E2E2E2E2E2E2E2E2E2E2E2E2E2E2E2E2E2E2E2E2E2E2E2F5E2E2E2E2E2E2E2E2E2E2E2E2E2E2E2E2E2E2E2E2F5F5E2E2E2E2E2E2E2E2E2E2E2E2E2E2E2E2E2E2E2
310
E2F5E2E2E2E2E2E2E2E2E2E2E2E2E2E2E2E2E2E2E2E2E2E2E2E2E2E2E2E2E2E2E2E2E2E2E2E2E2E2E2E2E2E2E2E2E2E2E2E2E2E2E2E2E2E2E2E2E2E2E2E2E2E2E2E2E2E2E2E2E2E2E2E2E2E2E2E2E2E2E2E2E2E2E2E2E2E2E2E2E2E2E2E2E2E2E2E2E2E2E2E2E2E2E2E2E2E2E2E2E2E2E2E2E2E2E2E2E2E2E2E2E2E2E2E2E2
310
E2E2E2E2E2E2E2E2E2E2E2F5E2E2E2E2E2E2E2E2E2E2E2E2E2E2E2E2E2E2E2E2F5F5E2E2E2E2E2E2E2E2E2E2E2E2E2E2E2E2E2E2E2E2F5E2E2E2E2E2E2E2E2E2E2E2E2E2E2E2E2E2E2E2E2E2E2E2E2E2E2E2E2E2E2E2E2E2E2E2E2E2E2E2E2E2E2E2E2E2E2E2E2E2E2E2E2E2E2E2E2E2E2E2E2E2E2E2E2E2E2E2E2E2E2E2E2
310
E2E2E2E2E2E2E2E2E2E2E2E2E2E2E2E2E2E2E2E2E2E2E2E2E2E2E2E2E2E2E2E2E2E2E2E2E2E2E2E2E2E2E2E2E2E2E2E2E2E2E2E2E2E2E2E2E2E2E2E2E2E2E2E2F5E2E2E2E2E2E2E2E2E2E2E2E2E2E2E2E2E2E2E2E2F5F5E2E2E2F5E2E2E2E2E2E2E2E2E2E2E2E2E2E2E2E2F5E2E2E2E2E2E2E2E2E2E2E2E2E2E2E2E2E2E2E2
310
E2E2E2E2E2E2E2E2E2E2E2E2E2E2E2E2E2E2E2E2E2E2E2E2E2E2E2E2E2E2E2E2E2E2E2E2E2E2E2E2E2E2E2E2E2E2E2E2E2E2E2E2E2E2E2E2E2E2E2E2E2E2E2E2E2E2E2E2E2E2E2E2E2E2E2E2E2E2E2E2E2E2E2E2E2E2E2E2E2E2E2E2E2E2E2E2E2E2E2E2E2E2E2E2E2E2E2E2E2E2E2E2E2E2E2E2E2F5E2E2E2E2E2E2E2E2E2
310
E2E2E2E2E2E2E2F5E2E2E2F5F5E2E2E2F5E2E2E2E2E2E2E2E2E2E2E2E2E2E2E2E2F5E2E2E2E2E2E2E2E2E2E2E2E2E2E2E2E2E2E2E2E2E2E2E2E2E2E2E2E2E2E2E2E2E2E2E2E2E2E2E2E2E2E2E2E2E2E2E2E2E2E2E2E2E2E2E2E2E2E2E2E2E2E2E2E2E2E2E2E2E2E2E2E2E2E2E2E2E2E2E2E2E2E2E2E2E2E2E2E2E2E2E2E2E2
310
E2E2E2E2E2E2E2E2E2E2E2E2E2E2E2E2E2E2E2E2E2E2E2E2E2E2E2E2E2E2E2E2E2E2E2E2E2E2E2E2E2E2E2F5E2E2E2E2E2E2E2E2E2E2E2E2E2E2E2E2F5E2E2E2F5F5E2E2E2F5E2E2E2E2E2E2E2E2E2E2E2E2E2E2E2E2F5E2E2E2E2E2E2E2E2E2E2E2E2E2E2E2E2E2E2E2E2E2E2E2E2E2E2E2E2E2E2E2E2E2E2E2E2E2E2E2E2
310
E2E2E2E2E2E2E2E2E2E2E2E2E2E2E2E2E2E2E2E2E2E2E2E2E2E2E2E2E2E2E2E2E2E2E2E2E2E2E2E2E2E2E2E2E2E2E2E2E2E2E2E2E2E2E2E2E2E2E2E2E2E2E2E2E2E2E2E2E2E2E2E2E2E2E2E2E2E2E2E2E2E2E2E2E2E2E2E2E2E2E2E2E2E2E2E2F5E2E2E2E2E2E2E2E2E2E2E2E2E2E2E2E2F5E2E2E2F5F5E2E2E2F5E2E2E2E2
310
E2E2E2E2E2E2E2E2E2E2E2E2F5E2E2E2E2E2E2E2E2E2E2E2E2E2E2E2E2E2E2E2E2E2E2E2E2E2E2E2E2E2E2E2E2E2E2E2E2E2E2E2E2E2E2E2E2E2E2E2E2E2E2E2E2E2E2E2E2E2E2E2E2E2E2E2E2E2E2E2E2E2E2E2E2E2E2E2E2E2E2E2E2E2E2E2E2E2E2E2E2E2E2E2E2E2E2E2E2E2E2E2E2E2E2E2E2E2E2E2E2E2E2E2E2E2E2
310
E2E2E2E2E2E2E2E2E2E2E2E2E2E2E2E2E2E2E2E2E2E2F5E2E2E2E2E2E2E2E2E2E2E2E2E2E2E2E2F5E2E2E2F5F5E2E2E2F5E2E2E2E2E2E2E2E2E2E2E2E2E2E2E2E2F5E2E2E2E2E2E2E2E2E2E2E2E2E2E2E2E2E2E2E2E2E2E2E2E2E2E2E2E2E2E2E2E2E2E2E2E2E2E2E2E2E2E2E2E2E2E2E2E2E2E2E2E2E2E2E2E2E2E2E2E2E2
310
E2E2E2E2E2E2E2E2E2E2E2E2E2E2E2E2E2E2E2E2E2E2E2E2E2E2E2E2E2E2E2E2E2E2E2E2E2E2E2E2E2E2E2E2E2E2E2E2E2E2E2E2E2E2E2E2E2E2E2E2E2E2E2E2E2E2E2E2E2E2E2E2E2E2E2F5E2E2E2E2E2E2E2E2E2E2E2E2E2E2E2E2F5E2E2E2F5F5E2E2E2F5E2E2E2E2E2E2E2E2E2E2E2E2E2E2E2E2F5E2E2E2E2E2E2E2E2
310
E2E2E2E2E2E2E2E2E2E2E2E2E2E2E2E2E2E2E2E2E2E2E2E2E2E2E2E2E2E2E2E2E2E2E2E2E2E2E2E2E2E2E2E2E2E2E2E2E2E2E2E2E2E2E2E2E2E2E2E2E2E2E2E2E2E2E2E2E2E2E2E2E2E2E2E2E2E2E2E2E2E2E2E2E2E2E2E2E2E2E2E2E2E2E2E2E2E2E2E2E2E2E2E2E2E2E2E2E2E2E2E2E2E2E2E2E2E2E2E2E2E2E2E2E2E2E2
310
E2F5E2E2E2E2E2E2E2E2E2E2E2E2E2E2E2E2F5E2E2E2F5F5E2E2E2F5E2E2E2E2E2E2E2E2E2E2E2E2E2E2E2E2F5E2E2E2E2E2E2E2E2E2E2E2E2E2E2E2E2E2E2E2E2E2E2E2E2E2E2E2E2E2E2E2E2E2E2E2E2E2E2E2E2E2E2E2E2E2E2E2E2E2E2E2E2E2E2E2E2E2E2E2E2E2E2E2E2E2E2E2E2E2E2E2E2E2E2E2E2E2E2E2E2E2E2
310
E2E2E2E2E2E2E2E2E2E2E2E2E2E2E2E2E2E2E2E2E2E2E2E2E2E2E2E2E2E2E2E2E2E2E2E2E2E2E2E2E2E2E2E2E2E2E2E2E2E2E2E2E2E2F5E2E2E2E2E2E2E2E2E2E2E2E2E2E2E2E2F5E2E2E2F5F5E2E2E2F5E2E2E2E2E2E2E2E2E2E2E2E2E2E2E2E2F5E2E2E2E2E2E2E2E2E2E2E2E2E2E2E2E2E2E2E2E2E2E2E2E2E2E2E2E2E2
310
E2E2E2E2E2E2E2E2E2E2E2E2E2E2E2E2E2E2E2E2E2E2E2E2E2E2E2E2E2E2E2E2E2E2E2E2E2E2E2E2E2E2E2E2E2E2E2E2E2E2E2E2E2E2E2E2E2E2E2E2E2E2E2E2E2E2E2E2E2E2E2E2E2E2E2E2E2E2E2E2E2E2E2E2E2E2E2E2E2E2E2E2E2E2E2E2E2E2E2E2E2E2E2E2E2E2E2F5E2E2E2E2E2E2E2E2E2E2E2E2E2E2E2E2F5E2E2
310
E2F5F5E2E2E2F5E2E2E2E2E2E2E2E2E2E2E2E2E2E2E2E2F5E2E2E2E2E2E2E2E2E2E2E2E2E2E2E2E2E2E2E2E2E2E2E2E2E2E2E2E2E2E2E2E2E2E2E2E2E2E2E2E2E2E2E2E2E2E2E2E2E2E2E2E2E2E2E2E2E2E2E2E2E2E2E2E2E2E2E2E2E2E2E2E2E2E2E2E2E2E2E2E2E2E2E2E2E2E2E2E2E2E2E2E2E2E2E2E2E2E2E2E2E2E2E2
310
E2E2E2E2E2E2E2E2E2E2E2E2E2E2E2E2E2E2E2E2E2E2E2E2E2E2E2E2E2E2E2E2E2F5E2E2E2E2E2E2E2E2E2E2E2E2E2E2E2E2F5E2E2E2F5F5E2E2E2F5E2E2E2E2E2E2E2E2E2E2E2E2E2E2E2E2F5E2E2E2E2E2E2E2E2E2E2E2E2E2E2E2E2E2E2E2E2E2E2E2E2E2E2E2E2E2E2E2E2E2E2E2E2E2E2E2E2E2E2E2E2E2E2E2E2E2E2
310
E2E2E2E2E2E2E2E2E2E2E2E2E2E2E2E2E2E2E2E2E2E2E2E2E2E2E2E2E2E2E2E2E2E2E2E2E2E2E2E2E2E2E2E2E2E2E2E2E2E2E2E2E2E2E2E2E2E2E2E2E2E2E2E2E2E2E2E2E2E2E2E2E2E2E2E2E2E2E2E2E2E2E2E2E2E2F5E2E2E2E2E2E2E2E2E2E2E2E2E2E2E2E2F5E2E2E2F5F5E2E2E2F5E2E2E2E2E2E2E2E2E2E2E2E2E2E2
310
E2E2F5E2E2E2E2E2E2E2E2E2E2E2E2E2E2E2E2E2E2E2E2E2E2E2E2E2E2E2E2E2E2E2E2E2E2E2E2E2E2E2E2E2E2E2E2E2E2E2E2E2E2E2E2E2E2E2E2E2E2E2E2E2E2E2E2E2E2E2E2E2E2E2E2E2E2E2E2E2E2E2E2E2E2E2E2E2E2E2E2E2E2E2E2E2E2E2E2E2E2E2E2E2E2E2E2E2E2E2E2E2E2E2E2E2E2E2E2E2E2E2E2E2E2E2E2
310
E2E2E2E2E2E2E2E2E2E2E2E2F5E2E2E2E2E2E2E2E2E2E2E2E2E2E2E2E2F5E2E2E2F5F5E2E2E2F5E2E2E2E2E2E2E2E2E2E2E2E2E2E2E2E2F5E2E2E2E2E2E2E2E2E2E2E2E2E2E2E2E2E2E2E2E2E2E2E2E2E2E2E2E2E2E2E2E2E2E2E2E2E2E2E2E2E2E2E2E2E2E2E2E2E2E2E2E2E2E2E2E2E2E2E2E2E2E2E2E2E2E2E2E2E2E2E2
310
E2E2E2E2E2E2E2E2E2E2E2E2E2E2E2E2E2E2E2E2E2E2E2E2E2E2E2E2E2E2E2E2E2E2E2E2E2E2E2E2E2E2E2E2E2E2E2E2E2E2E2E2E2E2E2E2E2E2E2E2E2E2E2E2E2F5E2E2E2E2E2E2E2E2E2E2E2E2E2E2E2E2F5E2E2E2F5F5E2E2E2F5E2E2E2E2E2E2E2E2E2E2E2E2E2E2E2E2F5E2E2E2E2E2E2E2E2E2E2E2E2E2E2E2E2E2E2
310
E2E2E2E2E2E2E2E2E2E2E2E2E2E2E2E2E2E2E2E2E2E2E2E2E2E2E2E2E2E2E2E2E2E2E2E2E2E2E2E2E2E2E2E2E2E2E2E2E2E2E2E2E2E2E2E2E2E2E2E2E2E2E2E2E2E2E2E2E2E2E2E2E2E2E2E2E2E2E2E2E2E2E2E2E2E2E2E2E2E2E2E2E2E2E2E2E2E2E2E2E2E2E2E2E2E2E2E2E2E2E2E2E2E2E2E2E2E2F5E2E2E2E2E2E2E2E2
310
E2E2E2E2E2E2E2E2F5E2E2E2F5F5E2E2E2F5E2E2E2E2E2E2E2E2E2E2E2E2E2E2E2E2F5E2E2E2E2E2E2E2E2E2E2E2E2E2E2E2E2E2E2E2E2E2E2E2E2E2E2E2E2E2E2E2E2E2E2E2E2E2E2E2E2E2E2E2E2E2E2E2E2E2E2E2E2E2E2E2E2E2E2E2E2E2E2E2E2E2E2E2E2E2E2E2E2E2E2E2E2E2E2E2E2E2E2E2E2E2E2E2E2E2E2E2E2
310
E2E2E2E2E2E2E2E2E2E2E2E2E2E2E2E2E2E2E2E2E2E2E2E2E2E2E2E2E2E2E2E2E2E2E2E2E2E2E2E2E2E2E2E2F5E2E2E2E2E2E2E2E2E2E2E2E2E2E2E2E2F5E2E2E2F5F5E2E2E2F5E2E2E2E2E2E2E2E2E2E2E2E2E2E2E2E2F5E2E2E2E2E2E2E2E2E2E2E2E2E2E2E2E2E2E2E2E2E2E2E2E2E2E2E2E2E2E2E2E2E2E2E2E2E2E2E2
310
E2E2E2E2E2E2E2E2E2E2E2E2E2E2E2E2E2E2E2E2E2E2E2E2E2E2E2E2E2E2E2E2E2E2E2E2E2E2E2E2E2E2E2E2E2E2E2E2E2E2E2E2E2E2E2E2E2E2E2E2E2E2E2E2E2E2E2E2E2E2E2E2E2E2E2E2E2E2E2E2E2E2E2E2E2E2E2E2E2E2E2E2E2E2E2E2E2F5E2E2E2E2E2E2E2E2E2E2E2E2E2E2E2E2F5E2E2E2F5F5E2E2E2F5E2E2E2
310
E2E2E2E2E2E2E2E2E2E2E2E2E2F5E2E2E2E2E2E2E2E2E2E2E2E2E2E2E2E2E2E2E2E2E2E2E2E2E2E2E2E2E2E2E2E2E2E2E2E2E2E2E2E2E2E2E2E2E2E2E2E2E2E2E2E2E2E2E2E2E2E2E2E2E2E2E2E2E2E2E2E2E2E2E2E2E2E2E2E2E2E2E2E2E2E2E2E2E2E2E2E2E2E2E2E2E2E2E2E2E2E2E2E2E2E2E2E2E2E2E2E2E2E2E2E2E2
310
E2E2E2E2E2E2E2E2E2E2E2E2E2E2E2E2E2E2E2E2E2E2E2F5E2E2E2E2E2E2E2E2E2E2E2E2E2E2E2E2F5E2E2E2F5F5E2E2E2E2E2E2E2E2E2E2E2E2E2E2E2E2E2E2E2E2F5E2E2E2E2E2E2E2E2E2E2E2E2E2E2E2E2E2E2E2E2E2E2E2E2E2E2E2E2E2E2E2E2E2E2E2E2E2E2E2E2E2E2E2E2E2E2E2E2E2E2E2E2E2E2E2E2E2E2E2E2
310
E2E2E2E2E2E2E2E2E2E2E2E2E2E2E2E2E2E2E2E2E2E2E2E2E2E2E2E2E2E2E2E2E2E2E2E2E2E2E2E2E2E2E2E2E2E2E2E2E2E2E2E2E2E2E2E2E2E2E2E2E2E2E2E2E2E2E2E2E2E2E2E2E2E2E2E2F5E2E2E2E2E2E2E2E2E2E2E2E2E2E2E2E2E2E2E2E2F5F5E2E2E2E2E2E2E2E2E2E2E2E2E2E2E2E2E2E2E2E2F5E2E2E2E2E2E2E2
310
E2E2E2E2E2E2E2E2E2E2E2E2E2E2E2E2E2E2E2E2E2E2E2E2E2E2E2E2E2E2E2E2E2E2E2E2E2E2E2E2E2E2E2E2E2E2E2E2E2E2E2E2E2E2E2E2E2E2E2E2E2E2E2E2E2E2E2E2E2E2E2E2E2E2E2E2E2E2E2E2E2E2E2E2E2E2E2E2E2E2E2E2E2E2E2E2E2E2E2E2E2E2E2E2E2E2E2E2E2E2E2E2E2E2E2E2E2E2E2E2E2E2E2E2E2E2E2
310
E2E2F5E2E2E2E2E2E2E2E2E2E2E2E2E2E2E2E2E2E2E2E2F5F5E2E2E2E2E2E2E2E2E2E2E2E2E2E2E2E2E2E2E2E2F5E2E2E2E2E2E2E2E2E2E2E2E2E2E2E2E2E2E2E2E2E2E2E2E2E2E2E2E2E2E2E2E2E2E2E2E2E2E2E2E2E2E2E2E2E2E2E2E2E2E2E2E2E2E2E2E2E2E2E2E2E2E2E2E2E2E2E2E2E2E2E2E2E2E2E2E2E2E2E2E2E2
310
E2E2E2E2E2E2E2E2E2E2E2E2E2E2E2E2E2E2E2E2E2E2E2E2E2E2E2E2E2E2E2E2E2E2E2E2E2E2E2E2E2E2E2E2E2E2E2E2E2E2E2E2E2E2E2F5E2E2E2E2E2E2E2E2E2E2E2E2E2E2E2E2E2E2E2E2F5F5E2E2E2E2E2E2E2E2E2E2E2E2E2E2E2E2E2E2E2E2F5E2E2E2E2E2E2E2E2E2E2E2E2E2E2E2E2E2E2E2E2E2E2E2E2E2E2E2E2
310
E2E2E2E2E2E2E2E2E2E2E2E2E2E2E2E2E2E2E2E2E2E2E2E2E2E2E2E2E2E2E2E2E2E2E2E2E2E2E2E2E2E2E2E2E2E2E2E2E2E2E2E2E2E2E2E2E2E2E2E2E2E2E2E2E2E2E2E2E2E2E2E2E2E2E2E2E2E2E2E2E2E2E2E2E2E2E2E2E2E2E2E2E2E2E2E2E2E2E2E2E2E2E2E2E2E2E2E2F5E2E2E2E2E2E2E2E2E2E2E2E2E2E2E2E2E2E2
310
E2E2F5F5E2E2E2E2E2E2E2E2E2E2E2E2E2E2E2E2E2E2E2E2F5E2E2E2E2E2E2E2E2E2E2E2E2E2E2E2E2E2E2E2E2E2E2E2E2E2E2E2E2E2E2E2E2E2E2E2E2E2E2E2E2E2E2E2E2E2E2E2E2E2E2E2E2E2E2E2E2E2E2E2E2E2E2E2E2E2E2E2E2E2E2E2E2E2E2E2E2E2E2E2E2E2E2E2E2E2E2E2E2E2E2E2E2E2E2E2E2E2E2E2E2E2E2
310
E2E2E2E2E2E2E2E2E2E2E2E2E2E2E2E2E2E2E2E2E2E2E2E2E2E2E2E2E2E2E2E2E2E2F5E2E2E2E2E2E2E2E2E2E2E2E2E2E2E2E2E2E2E2E2F5F5E2E2E2E2E2E2E2E2E2E2E2E2E2E2E2E2E2E2E2E2F5E2E2E2E2E2E2E2E2E2E2E2E2E2E2E2E2E2E2E2E2E2E2E2E2E2E2E2E2E2E2E2E2E2E2E2E2E2E2E2E2E2E2E2E2E2E2E2E2E2
310
E2E2E2E2E2E2E2E2E2E2E2E2E2E2E2E2E2E2E2E2E2E2E2E2E2E2E2E2E2E2E2E2E2E2E2E2E2E2E2E2E2E2E2E2E2E2E2E2E2E2E2E2E2E2E2E2E2E2E2E2E2E2E2E2E2E2E2E2E2E2E2E2E2E2E2E2E2E2E2E2E2E2E2E2E2E2E2F5E2E2E2E2E2E2E2E2E2E2E2E2E2E2E2E2E2E2E2E2F5F5E2E2E2E2E2E2E2E2E2E2E2E2E2E2E2E2E2
310
E2E2E2F5E2E2E2E2E2E2E2E2E2E2E2E2E2E2E2E2E2E2E2E2E2E2E2E2E2E2E2E2E2E2E2E2E2E2E2E2E2E2E2E2E2E2E2E2E2E2E2E2E2E2E2E2E2E2E2E2E2E2E2E2E2E2E2E2E2E2E2E2E2E2E2E2E2E2E2E2E2E2E2E2E2E2E2E2E2E2E2E2E2E2E2E2E2E2E2E2E2E2E2E2E2E2E2E2E2E2E2E2E2E2E2E2E2E2E2E2E2E2E2E2E2E2E2
310
E2E2E2E2E2E2E2E2E2E2E2E2E2F5E2E2E2E2E2E2E2E2E2E2E2E2E2E2E2E2E2E2E2E2F5F5E2E2E2E2E2E2E2E2E2E2E2E2E2E2E2E2E2E2E2E2F5E2E2E2E2E2E2E2E2E2E2E2E2E2E2E2E2E2E2E2E2E2E2E2E2E2E2E2E2E2E2E2E2E2E2E2E2E2E2E2E2E2E2E2E2E2E2E2E2E2E2E2E2E2E2E2E2E2E2E2E2E2E2E2E2E2E2E2E2E2E2
310
E2E2E2E2E2E2E2E2E2E2E2E2E2E2E2E2E2E2E2E2E2E2E2E2E2E2E2E2E2E2E2E2E2E2E2E2E2E2E2E2E2E2E2E2E2E2E2E2E2E2E2E2E2E2E2E2E2E2E2E2E2E2E2E2E2E2F5E2E2E2E2E2E2E2E2E2E2E2E2E2E2E2E2E2E2E2E2F5F5E2E2E2E2E2E2E2E2E2E2E2E2E2E2E2E2E2E2E2E2F5E2E2E2E2E2E2E2E2E2E2E2E2E2E2E2E2E2
310
E2E2E2E2E2E2E2E2E2E2E2E2E2E2E2E2E2E2E2E2E2E2E2E2E2E2E2E2E2E2E2E2E2E2E2E2E2E2E2E2E2E2E2E2E2E2E2E2E2E2E2E2E2E2E2E2E2E2E2E2E2E2E2E2E2E2E2E2E2E2E2E2E2E2E2E2E2E2E2E2E2E2E2E2E2E2E2E2E2E2E2E2E2E2E2E2E2E2E2E2E2E2E2E2E2E2E2E2E2E2E2E2E2E2E2E2E2E2E2F5E2E2E2E2E2E2E2
310
E2E2E2E2E2E2E2E2E2E2E2E2E2F5F5E2E2E2F5E2E2E2E2E2E2E2E2E2E2E2E2E2E2E2E2F5E2E2E2E2E2E2E2E2E2E2E2E2E2E2E2E2E2E2E2E2E2E2E2E2E2E2E2E2E2E2E2E2E2E2E2E2E2E2E2E2E2E2E2E2E2E2E2E2E2E2E2E2E2E2E2E2E2E2E2E2E2E2E2E2E2E2E2E2E2E2E2E2E2E2E2E2E2E2E2E2E2E2E2E2E2E2E2E2E2E2E2
310
E2E2E2E2E2E2E2E2E2E2E2E2E2E2E2E2E2E2E2E2E2E2E2E2E2E2E2E2E2E2E2E2E2E2E2E2E2E2E2E2E2E2E2E2E2F5E2E2E2E2E2E2E2E2E2E2E2E2E2E2E2E2F5E2E2E2F5F5E2E2E2F5E2E2E2E2E2E2E2E2E2E2E2E2E2E2E2E2F5E2E2E2E2E2E2E2E2E2E2E2E2E2E2E2E2E2E2E2E2E2E2E2E2E2E2E2E2E2E2E2E2E2E2E2E2E2E2
310
E2E2E2E2E2E2E2E2E2E2E2E2E2E2E2E2E2E2E2E2E2E2E2E2E2E2E2E2E2E2E2E2E2E2E2E2E2E2E2E2E2E2E2E2E2E2E2E2E2E2E2E2E2E2E2E2E2E2E2E2E2E2E2E2E2E2E2E2E2E2E2E2E2E2E2E2E2E2E2E2E2E2E2E2E2E2E2E2E2E2E2E2E2E2E2E2E2E2F5E2E2E2E2E2E2E2E2E2E2E2E2E2E2E2E2F5E2E2E2F5F5E2E2E2F5E2E2
310
E2E2E2E2E2E2E2E2E2E2E2E2E2E2F5E2E2E2E2E2E2E2E2E2E2E2E2E2E2E2E2E2E2E2E2E2E2E2E2E2E2E2E2E2E2E2E2E2E2E2E2E2E2E2E2E2E2E2E2E2E2E2E2E2E2E2E2E2E2E2E2E2E2E2E2E2E2E2E2E2E2E2E2E2E2E2E2E2E2E2E2E2E2E2E2E2E2E2E2E2E2E2E2E2E2E2E2E2E2E2E2E2E2E2E2E2E2E2E2E2E2E2E2E2E2E2E2
310
E2E2E2E2E2E2E2E2E2E2E2E2E2E2E2E2E2E2E2E2E2E2E2E2F5E2E2E2E2E2E2E2E2E2E2E2E2E2E2E2E2F5E2E2E2F5F5E2E2E2F5E2E2E2E2E2E2E2E2E2E2E2E2E2E2E2E2F5E2E2E2E2E2E2E2E2E2E2E2E2E2E2E2E2E2E2E2E2E2E2E2E2E2E2E2E2E2E2E2E2E2E2E2E2E2E2E2E2E2E2E2E2E2E2E2E2E2E2E2E2E2E2E2E2E2E2E2
310
E2E2E2E2E2E2E2E2E2E2E2E2E2E2E2E2E2E2E2E2E2E2E2E2E2E2E2E2E2E2E2E2E2E2E2E2E2E2E2E2E2E2E2E2E2E2E2E2E2E2E2E2E2E2E2E2E2E2E2E2E2E2E2E2E2E2E2E2E2E2E2E2E2E2E2E2E2F5E2E2E2E2E2E2E2E2E2E2E2E2E2E2E2E2F5E2E2E2F5F5E2E2E2F5E2E2E2E2E2E2E2E2E2E2E2E2E2E2E2E2F5E2E2E2E2E2E2
310
E2E2E2E2E2E2E2E2E2E2E2E2E2E2E2E2E2E2E2E2E2E2E2E2E2E2E2E2E2E2E2E2E2E2E2E2E2E2E2E2E2E2E2E2E2E2E2E2E2E2E2E2E2E2E2E2E2E2E2E2E2E2E2E2E2E2E2E2E2E2E2E2E2E2E2E2E2E2E2E2E2E2E2E2E2E2E2E2E2E2E2E2E2E2E2E2E2E2E2E2E2E2E2E2E2E2E2E2E2E2E2E2E2E2E2E2E2E2E2E2E2E2E2E2E2E2E2
310
E2E2E2F5E2E2E2E2E2E2E2E2E2E2E2E2E2E2E2E2F5E2E2E2F5F5E2E2E2F5E2E2E2E2E2E2E2E2E2E2E2E2E2E2E2E2F5E2E2E2E2E2E2E2E2E2E2E2E2E2E2E2E2E2E2E2E2E2E2E2E2E2E2E2E2E2E2E2E2E2E2E2E2E2E2E2E2E2E2E2E2E2E2E2E2E2E2E2E2E2E2E2E2E2E2E2E2E2E2E2E2E2E2E2E2E2E2E2E2E2E2E2E2E2E2E2E2
310
E2E2E2E2E2E2E2E2E2E2E2E2E2E2E2E2E2E2E2E2E2E2E2E2E2E2E2E2E2E2E2E2E2E2E2E2E2E2E2E2E2E2E2E2E2E2E2E2E2E2E2E2E2E2E2E2F5E2E2E2E2E2E2E2E2E2E2E2E2E2E2E2E2F5E2E2E2F5F5E2E2E2F5E2E2E2E2E2E2E2E2E2E2E2E2E2E2E2E2F5E2E2E2E2E2E2E2E2E2E2E2E2E2E2E2E2E2E2E2E2E2E2E2E2E2E2E2
310
E2E2E2E2E2E2E2E2E2E2E2E2E2E2E2E2E2E2E2E2E2E2E2E2E2E2E2E2E2E2E2E2E2E2E2E2E2E2E2E2E2E2E2E2E2E2E2E2E2E2E2E2E2E2E2E2E2E2E2E2E2E2E2E2E2E2E2E2E2E2E2E2E2E2E2E2E2E2E2E2E2E2E2E2E2E2E2E2E2E2E2E2E2E2E2E2E2E2E2E2E2E2E2E2E2E2E2E2E2F5E2E2E2E2E2E2E2E2E2E2E2E2E2E2E2E2F5
310
E2E2E2F5F5E2E2E2F5E2E2E2E2E2E2E2E2E2E2E2E2E2E2E2E2F5E2E2E2E2E2E2E2E2E2E2E2E2E2E2E2E2E2E2E2E2E2E2E2E2E2E2E2E2E2E2E2E2E2E2E2E2E2E2E2E2E2E2E2E2E2E2E2E2E2E2E2E2E2E2E2E2E2E2E2E2E2E2E2E2E2E2E2E2E2E2E2E2E2E2E2E2E2E2E2E2E2E2E2E2E2E2E2E2E2E2E2E2E2E2E2E2E2E2E2E2E2
310
E2E2E2E2E2E2E2E2E2E2E2E2E2E2E2E2E2E2E2E2E2E2E2E2E2E2E2E2E2E2E2E2E2E2E2F5E2E2E2E2E2E2E2E2E2E2E2E2E2E2E2E2F5E2E2E2F5F5E2E2E2F5E2E2E2E2E2E2E2E2E2E2E2E2E2E2E2E2F5E2E2E2E2E2E2E2E2E2E2E2E2E2E2E2E2E2E2E2E2E2E2E2E2E2E2E2E2E2E2E2E2E2E2E2E2E2E2E2E2E2E2E2E2E2E2E2E2
310
E2E2E2E2E2E2E2E2E2E2E2E2E2E2E2E2E2E2E2E2E2E2E2E2E2E2E2E2E2E2E2E2E2E2E2E2E2E2E2E2E2E2E2E2E2E2E2E2E2E2E2E2E2E2E2E2E2E2E2E2E2E2E2E2E2E2E2E2E2E2E2E2E2E2E2E2E2E2E2E2E2E2E2E2E2E2E2E2F5E2E2E2E2E2E2E2E2E2E2E2E2E2E2E2E2F5E2E2E2F5F5E2E2E2F5E2E2E2E2E2E2E2E2E2E2E2E2
310
E2E2E2E2F5E2E2E2E2E2E2E2E2E2E2E2E2E2E2E2E2E2E2E2E2E2E2E2E2E2E2E2E2E2E2E2E2E2E2E2E2E2E2E2E2E2E2E2E2E2E2E2E2E2E2E2E2E2E2E2E2E2E2E2E2E2E2E2E2E2E2E2E2E2E2E2E2E2E2E2E2E2E2E2E2E2E2E2E2E2E2E2E2E2E2E2E2E2E2E2E2E2E2E2E2E2E2E2E2E2E2E2E2E2E2E2E2E2E2E2E2E2E2E2E2E2E2
310
E2E2E2E2E2E2E2E2E2E2E2E2E2E2F5E2E2E2E2E2E2E2E2E2E2E2E2E2E2E2E2F5E2E2E2F5F5E2E2E2F5E2E2E2E2E2E2E2E2E2E2E2E2E2E2E2E2F5E2E2E2E2E2E2E2E2E2E2E2E2E2E2E2E2E2E2E2E2E2E2E2E2E2E2E2E2E2E2E2E2E2E2E2E2E2E2E2E2E2E2E2E2E2E2E2E2E2E2E2E2E2E2E2E2E2E2E2E2E2E2E2E2E2E2E2E2E2
310
E2E2E2E2E2E2E2E2E2E2E2E2E2E2E2E2E2E2E2E2E2E2E2E2E2E2E2E2E2E2E2E2E2E2E2E2E2E2E2E2E2E2E2E2E2E2E2E2E2E2E2E2E2E2E2E2E2E2E2E2E2E2E2E2E2E2E2F5E2E2E2E2E2E2E2E2E2E2E2E2E2E2E2E2F5E2E2E2F5F5E2E2E2F5E2E2E2E2E2E2E2E2E2E2E2E2E2E2E2E2F5E2E2E2E2E2E2E2E2E2E2E2E2E2E2E2E2
310
E2E2E2E2E2E2E2E2E2E2E2E2E2E2E2E2E2E2E2E2E2E2E2E2E2E2E2E2E2E2E2E2E2E2E2E2E2E2E2E2E2E2E2E2E2E2E2E2E2E2E2E2E2E2E2E2E2E2E2E2E2E2E2E2E2E2E2E2E2E2E2E2E2E2E2E2E2E2E2E2E2E2E2E2E2E2E2E2E2E2E2E2E2E2E2E2E2E2E2E2E2E2E2E2E2E2E2E2E2E2E2E2E2E2E2E2E2E2E2E2F5E2E2E2E2E2E2
310
E2E2E2E2E2E2E2E2E2E2F5E2E2E2F5F5E2E2E2F5E2E2E2E2E2E2E2E2E2E2E2E2E2E2E2E2F5E2E2E2E2E2E2E2E2E2E2E2E2E2E2E2E2E2E2E2E2E2E2E2E2E2E2E2E2E2E2E2E2E2E2E2E2E2E2E2E2E2E2E2E2E2E2E2E2E2E2E2E2E2E2E2E2E2E2E2E2E2E2E2E2E2E2E2E2E2E2E2E2E2E2E2E2E2E2E2E2E2E2E2E2E2E2E2E2E2E2
310
E2E2E2E2E2E2E2E2E2E2E2E2E2E2E2E2E2E2E2E2E2E2E2E2E2E2E2E2E2E2E2E2E2E2E2E2E2E2E2E2E2E2E2E2E2E2F5E2E2E2E2E2E2E2E2E2E2E2E2E2E2E2E2F5E2E2E2F5F5E2E2E2F5E2E2E2E2E2E2E2E2E2E2E2E2E2E2E2E2F5E2E2E2E2E2E2E2E2E2E2E2E2E2E2E2E2E2E2E2E2E2E2E2E2E2E2E2E2E2E2E2E2E2E2E2E2E2
310
E2E2E2E2E2E2E2E2E2E2E2E2E2E2E2E2E2E2E2E2E2E2E2E2E2E2E2E2E2E2E2E2E2E2E2E2E2E2E2E2E2E2E2E2E2E2E2E2E2E2E2E2E2E2E2E2E2E2E2E2E2E2E2E2E2E2E2E2E2E2E2E2E2E2E2E2E2E2E2E2E2E2E2E2E2E2E2E2E2E2E2E2E2E2E2E2E2E2E2F5E2E2E2E2E2E2E2E2E2E2E2E2E2E2E2E2F5E2E2E2F5F5E2E2E2F5E2
310
E2E2E2E2E2E2E2E2E2E2E2E2E2E2E2F5E2E2E2E2E2E2E2E2E2E2E2E2E2E2E2E2E2E2E2E2E2E2E2E2E2E2E2E2E2E2E2E2E2E2E2E2E2E2E2E2E2E2E2E2E2E2E2E2E2E2E2E2E2E2E2E2E2E2E2E2E2E2E2E2E2E2E2E2E2E2E2E2E2E2E2E2E2E2E2E2E2E2E2E2E2E2E2E2E2E2E2E2E2E2E2E2E2E2E2E2E2E2E2E2E2E2E2E2E2E2E2
310
E2E2E2E2E2E2E2E2E2E2E2E2E2E2E2E2E2E2E2E2E2E2E2E2E2F5E2E2E2E2E2E2E2E2E2E2E2E2E2E2E2E2F5E2E2E2F5F5E2E2E2F5E2E2E2E2E2E2E2E2E2E2E2E2E2E2E2E2F5E2E2E2E2E2E2E2E2E2E2E2E2E2E2E2E2E2E2E2E2E2E2E2E2E2E2E2E2E2E2E2E2E2E2E2E2E2E2E2E2E2E2E2E2E2E2E2E2E2E2E2E2E2E2E2E2E2E2
310
E2E2E2E2E2E2E2E2E2E2E2E2E2E2E2E2E2E2E2E2E2E2E2E2E2E2E2E2E2E2E2E2E2E2E2E2E2E2E2E2E2E2E2E2E2E2E2E2E2E2E2E2E2E2E2E2E2E2E2E2E2E2E2E2E2E2E2E2E2E2E2E2E2E2E2E2E2E2F5E2E2E2E2E2E2E2E2E2E2E2E2E2E2E2E2F5E2E2E2F5F5E2E2E2F5E2E2E2E2E2E2E2E2E2E2E2E2E2E2E2E2F5E2E2E2E2E2
310
E2E2E2E2E2E2E2E2E2E2E2E2E2E2E2E2E2E2E2E2E2E2E2E2E2E2E2E2E2E2E2E2E2E2E2E2E2E2E2E2E2E2E2E2E2E2E2E2E2E2E2E2E2E2E2E2E2E2E2E2E2E2E2E2E2E2E2E2E2E2E2E2E2E2E2E2E2E2E2E2E2E2E2E2E2E2E2E2E2E2E2E2E2E2E2E2E2E2E2E2E2E2E2E2E2E2E2E2E2E2E2E2E2E2E2E2E2E2E2E2E2E2E2E2E2E2E2
310
E2E2E2E2F5E2E2E2E2E2E2E2E2E2E2E2E2E2E2E2E2F5E2E2E2F5F5E2E2E2E2E2E2E2E2E2E2E2E2E2E2E2E2E2E2E2E2F5E2E2E2E2E2E2E2E2E2E2E2E2E2E2E2E2E2E2E2E2E2E2E2E2E2E2E2E2E2E2E2E2E2E2E2E2E2E2E2E2E2E2E2E2E2E2E2E2E2E2E2E2E2E2E2E2E2E2E2E2E2E2E2E2E2E2E2E2E2E2E2E2E2E2E2E2E2E2E2
310
E2E2E2E2E2E2E2E2E2E2E2E2E2E2E2E2E2E2E2E2E2E2E2E2E2E2E2E2E2E2E2E2E2E2E2E2E2E2E2E2E2E2E2E2E2E2E2E2E2E2E2E2E2E2E2E2E2F5E2E2E2E2E2E2E2E2E2E2E2E2E2E2E2E2E2E2E2E2F5F5E2E2E2E2E2E2E2E2E2E2E2E2E2E2E2E2E2E2E2E2F5E2E2E2E2E2E2E2E2E2E2E2E2E2E2E2E2E2E2E2E2E2E2E2E2E2E2
310
E2E2E2E2E2E2E2E2E2E2E2E2E2E2E2E2E2E2E2E2E2E2E2E2E2E2E2E2E2E2E2E2E2E2E2E2E2E2E2E2E2E2E2E2E2E2E2E2E2E2E2E2E2E2E2E2E2E2E2E2E2E2E2E2E2E2E2E2E2E2E2E2E2E2E2E2E2E2E2E2E2E2E2E2E2E2E2E2E2E2E2E2E2E2E2E2E2E2E2E2E2E2E2E2E2E2E2E2E2E2F5E2E2E2E2E2E2E2E2E2E2E2E2E2E2E2E2
310
E2E2E2E2F5F5E2E2E2E2E2E2E2E2E2E2E2E2E2E2E2E2E2E2E2E2F5E2E2E2E2E2E2E2E2E2E2E2E2E2E2E2E2E2E2E2E2E2E2E2E2E2E2E2E2E2E2E2E2E2E2E2E2E2E2E2E2E2E2E2E2E2E2E2E2E2E2E2E2E2E2E2E2E2E2E2E2E2E2E2E2E2E2E2E2E2E2E2E2E2E2E2E2E2E2E2E2E2E2E2E2E2E2E2E2E2E2E2E2E2E2E2E2E2E2E2E2
310
E2E2E2E2E2E2E2E2E2E2E2E2E2E2E2E2E2E2E2E2E2E2E2E2E2E2E2E2E2E2E2E2E2E2E2E2F5E2E2E2E2E2E2E2E2E2E2E2E2E2E2E2E2E2E2E2E2F5F5E2E2E2E2E2E2E2E2E2E2E2E2E2E2E2E2E2E2E2E2F5E2E2E2E2E2E2E2E2E2E2E2E2E2E2E2E2E2E2E2E2E2E2E2E2E2E2E2E2E2E2E2E2E2E2E2E2E2E2E2E2E2E2E2E2E2E2E2
310
E2E2E2E2E2E2E2E2E2E2E2E2E2E2E2E2E2E2E2E2E2E2E2E2E2E2E2E2E2E2E2E2E2E2E2E2E2E2E2E2E2E2E2E2E2E2E2E2E2E2E2E2E2E2E2E2E2E2E2E2E2E2E2E2E2E2E2E2E2E2E2E2E2E2E2E2E2E2E2E2E2E2E2E2E2E2E2E2E2F5E2E2E2E2E2E2E2E2E2E2E2E2E2E2E2E2E2E2E2E2F5F5E2E2E2E2E2E2E2E2E2E2E2E2E2E2E2
310
E2E2E2E2E2F5F5F5F5F5F5F5F5F5F5F5F5F5F5F5F5F5F5F5F5F5F5F5F5F5F5F5F5F5F5F5F5F5F5F5F5F5F5F5F5F5F5F5F5F5F5F5F5F5F5F5F5F5F5F5F5F5F5F5F5F5F5F5F5F5F5F5F5F5F5F5F5F5F5F5F5F5F5F5F5F5F5F5F5F5F5F5F5F5F5F5F5F5F5F5F5F5F5F5F5F5F5F5F5F5F5F5F5F5F5F5F5F5F5F5F5F5F5F5F5F5F5
310
F5F5F5F5F5F5F5F5F5F5F5F5F5F5F5F5E2E2E2E2E2E2E2E2E2E2E2E2E2E2E2E2E2E2E2E2F5F5E2E2E2E2E2E2E2E2E2E2E2E2E2E2E2E2E2E2E2E2E2E2E2E2E2E2E2E2E2E2E2E2E2E2E2E2E2E2E2E2E2E2E2E2E2E2E2E2E2E2E2E2E2E2E2E2E2E2E2E2E2E2E2E2E2E2E2E2E2E2E2E2E2E2E2E2E2E2E2E2E2E2E2E2E2E2E2E2E2
310
E2E2E2E2E2E2E2E2E2E2E2E2E2E2E2E2E2E2E2E2E2E2E2E2E2E2E2E2E2E2E2E2E2E2E2E2E2E2E2E2E2E2E2E2E2E2E2E2E2E2E2E2E2E2E2E2E2E2E2E2E2E2E2E2E2E2E2E2E2E2E2E2E2E2E2E2E2E2E2E2E2E2E2E2E2E2E2E2E2F5F5E2E2E2E2E2E2E2E2E2E2E2E2E2E2E2E2E2E2E2E2E2E2E2E2E2E2E2E2E2E2E2E2E2E2E2E2
310
E2E2E2E2E2E2E2E2E2E2E2E2E2E2E2E2E2E2E2E2E2E2E2E2E2E2E2E2E2E2E2E2E2E2E2E2E2E2E2E2E2E2E2E2E2E2E2E2E2E2E2E2E2E2E2E2E2E2E2E2E2E2E2E2E2E2E2E2E2E2E2E2E2E2E2E2E2E2E2E2E2E2E2E2E2E2E2E2E2E2E2E2E2E2E2E2E2E2E2E2E2E2E2E2E2E2E2E2E2E2E2E2E2E2E2E2E2E2E2E2E2E2E2E2E2E2E2
310
E2E2E2E2E2E2E2E2E2E2E2E2E2E2E2F5F5E2E2E2E2E2E2E2E2E2E2E2E2E2E2E2E2E2E2E2E2E2E2E2E2E2E2E2E2E2E2E2E2E2E2E2E2E2E2E2E2E2E2E2E2E2E2E2E2E2E2E2E2E2E2E2E2E2E2E2E2E2E2E2E2E2E2E2E2E2E2E2E2E2E2E2E2E2E2E2E2E2E2E2E2E2E2E2E2E2E2E2E2E2E2E2E2E2E2E2E2E2E2E2E2E2E2E2E2E2E2
310
E2E2E2E2E2E2E2E2E2E2E2E2E2E2E2E2E2E2E2E2E2E2E2E2E2E2E2E2E2E2E2E2E2E2E2E2E2E2E2E2E2E2E2E2E2E2E2E2E2E2E2E2E2E2E2E2E2E2E2E2E2E2E2E2E2E2E2E2F5F5E2E2E2E2E2E2E2E2E2E2E2E2E2E2E2E2E2E2E2E2E2E2E2E2E2E2E2E2E2E2E2E2E2E2E2E2E2E2E2E2E2E2E2E2E2E2E2E2E2E2E2E2E2E2E2E2E2
310
E2E2E2E2E2E2E2E2E2E2E2E2E2E2E2E2E2E2E2E2E2E2E2E2E2E2E2E2E2E2E2E2E2E2E2E2E2E2E2E2E2E2E2E2E2E2E2E2E2E2E2E2E2E2E2E2E2E2E2E2E2E2E2E2E2E2E2E2E2E2E2E2E2E2E2E2E2E2E2E2E2E2E2E2E2E2E2E2E2E2E2E2E2E2E2E2E2E2E2E2E2E2E2E2E2E2E2E2E2E2E2E2E2E2E2E2E2E2E2E2E2F5F5E2E2E2F5
310
E2E2E2E2E2E2E2E2E2E2E2E2E2E2E2E2E2E2E2E2E2E2E2E2E2E2E2E2E2E2E2E2E2E2E2E2E2E2E2E2E2E2E2E2E2E2E2E2E2E2E2E2E2E2E2E2E2E2E2E2E2E2E2E2E2E2E2E2E2E2E2E2E2E2E2E2E2E2E2E2E2E2E2E2E2E2E2E2E2E2E2E2E2E2E2E2E2E2E2E2E2E2E2E2E2E2E2E2E2E2E2E2E2E2E2E2E2E2E2E2E2E2E2E2E2E2E2
310
E2E2E2E2E2E2E2E2E2E2E2E2E2E2E2E2E2E2E2E2E2E2E2E2E2E2E2E2E2E2E2E2E2E2E2E2E2E2E2E2E2E2E2F5E2E2E2F5F5E2E2E2F5E2E2E2E2E2E2E2E2E2E2E2E2E2E2E2E2E2E2E2E2E2E2E2E2E2E2E2E2E2E2E2E2E2E2E2E2E2E2E2E2E2E2E2E2E2E2E2E2E2E2E2E2E2E2E2E2E2E2E2E2E2E2E2E2E2E2E2E2E2E2E2E2E2E2
310
E2E2E2E2E2E2E2E2E2E2E2E2E2E2E2E2E2E2E2E2E2E2E2E2E2E2E2E2E2E2E2E2E2E2E2E2E2E2E2E2E2E2E2E2E2E2E2E2E2E2E2E2E2E2E2E2E2E2E2E2E2E2E2E2E2E2E2E2E2E2E2E2E2E2E2E2E2E2E2E2E2E2E2E2E2E2E2E2E2E2E2E2E2E2E2E2F5E2E2E2F5F5E2E2E2F5E2E2E2E2E2E2E2E2E2E2E2E2E2E2E2E2E2E2E2E2E2
310
E2E2E2E2E2E2E2E2E2E2E2E2E2E2E2E2E2E2E2E2E2E2E2E2E2E2E2E2E2E2E2E2E2E2E2E2E2E2E2E2E2E2E2E2E2E2E2E2E2E2E2E2E2E2E2E2E2E2E2E2E2E2E2E2E2E2E2E2E2E2E2E2E2E2E2E2E2E2E2E2E2E2E2E2E2E2E2E2E2E2E2E2E2E2E2E2E2E2E2E2E2E2E2E2E2E2E2E2E2E2E2E2E2E2E2E2E2E2E2E2E2E2E2E2E2E2E2
310
E2E2E2E2E2E2E2E2E2E2E2E2E2E2E2E2E2E2E2E2E2E2F5E2E2E2F5F5E2E2E2F5E2E2E2E2E2E2E2E2E2E2E2E2E2E2E2E2E2E2E2E2E2E2E2E2E2E2E2E2E2E2E2E2E2E2E2E2E2E2E2E2E2E2E2E2E2E2E2E2E2E2E2E2E2E2E2E2E2E2E2E2E2E2E2E2E2E2E2E2E2E2E2E2E2E2E2E2E2E2E2E2E2E2E2E2E2E2E2E2E2E2E2E2E2E2E2
310
E2E2E2E2E2E2E2E2E2E2E2E2E2E2E2E2E2E2E2E2E2E2E2E2E2E2E2E2E2E2E2E2E2E2E2E2E2E2E2E2E2E2E2E2E2E2E2E2E2E2E2E2E2E2E2E2E2E2E2E2E2E2E2E2E2E2E2E2E2E2E2E2E2E2E2F5E2E2E2F5F5E2E2E2F5E2E2E2E2E2E2E2E2E2E2E2E2E2E2E2E2E2E2E2E2E2E2E2E2E2E2E2E2E2E2E2E2E2E2E2E2E2E2E2E2E2E2
310
E2E2E2E2E2E2E2E2E2E2E2E2E2E2E2E2E2E2E2E2E2E2E2E2E2E2E2E2E2E2E2E2E2E2E2E2E2E2E2E2E2E2E2E2E2E2E2E2E2E2E2E2E2E2E2E2E2E2E2E2E2E2E2E2E2E2E2E2E2E2E2E2E2E2E2E2E2E2E2E2E2E2E2E2E2E2E2E2E2E2E2E2E2E2E2E2E2E2E2E2E2E2E2E2E2E2E2E2E2E2E2E2E2E2E2E2E2E2E2E2E2E2E2E2E2E2E2
310
E2F5E2E2E2F5F5E2E2E2F5E2E2E2E2E2E2E2E2E2E2E2E2E2E2E2E2E2E2E2E2E2E2E2E2E2E2E2E2E2E2E2E2E2E2E2E2E2E2E2E2E2E2E2E2E2E2E2E2E2E2E2E2E2E2E2E2E2E2E2E2E2E2E2E2E2E2E2E2E2E2E2E2E2E2E2E2E2E2E2E2E2E2E2E2E2E2E2E2E2E2E2E2E2E2E2E2E2E2E2E2E2E2E2E2E2E2E2E2E2E2E2E2E2E2E2E2
310
E2E2E2E2E2E2E2E2E2E2E2E2E2E2E2E2E2E2E2E2E2E2E2E2E2E2E2E2E2E2E2E2E2E2E2E2E2E2E2E2E2E2E2E2E2E2E2E2E2E2E2E2E2E2F5E2E2E2F5F5E2E2E2F5E2E2E2E2E2E2E2E2E2E2E2E2E2E2E2E2E2E2E2E2E2E2E2E2E2E2E2E2E2E2E2E2E2E2E2E2E2E2E2E2E2E2E2E2E2E2E2E2E2E2E2E2E2E2E2E2E2E2E2E2E2E2E2
310
E2E2E2E2E2E2E2E2E2E2E2E2E2E2E2E2E2E2E2E2E2E2E2E2E2E2E2E2E2E2E2E2E2E2E2E2E2E2E2E2E2E2E2E2E2E2E2E2E2E2E2E2E2E2E2E2E2E2E2E2E2E2E2E2E2E2E2E2E2E2E2E2E2E2E2E2E2E2E2E2E2E2E2E2E2E2E2E2E2E2E2E2E2E2E2E2E2E2E2E2E2E2E2E2E2E2E2F5E2E2E2F5F5E2E2E2F5E2E2E2E2E2E2E2E2E2E2
310
E2E2E2E2E2E2E2E2E2E2E2E2E2E2E2E2E2E2E2E2E2E2E2E2E2E2E2E2E2E2E2E2E2E2E2E2E2E2E2E2E2E2E2E2E2E2E2E2E2E2E2E2E2E2E2E2E2E2E2E2E2E2E2E2E2E2E2E2E2E2E2E2E2E2E2E2E2E2E2E2E2E2E2E2E2E2E2E2E2E2E2E2E2E2E2E2E2E2E2E2E2E2E2E2E2E2E2E2E2E2E2E2E2E2E2E2E2E2E2E2E2E2E2E2E2E2E2
310
E2E2E2E2E2E2E2E2E2E2E2E2E2E2E2E2E2E2E2E2E2E2E2E2E2E2E2E2E2E2E2E2E2F5E2E2E2F5F5E2E2E2F5F5F5F5F5F5F5F5E2E2E2E2E2E2E2E2E2F5F5F5F5F5F5F5F5F5F5F5F5F5F5F5F5E2E2E2E2E2E2E2E2E2F5F5F5F5F5F5F5F5F5F5F5F5F5F5F5E2E2E2E2E2E2E2E2E2F5F5F5F5F5F5F5F5F5F5F5F5F5F5F5F5E2E2E2
310
E2E2E2E2E2F5F5F5F5F5F5F5F5F5F5F5F5F5F5F5F5E2E2E2E2E2E2E2E2E2F5F5F5F5F5F5F5F5F5F5F5F5F5F5F5E2E2E2E2E2E2E2E2E2F5F5F5F5F5F5F5F5F5F5F5F5F5F5F5F5E2E2E2E2E2E2E2E2E2F5F5F5F5F5F5F5F5E2E2E2F5F5E2E2E2E2E2E2E2E2E2E2E2E2E2E2E2E2E2E2E2E2E2E2E2E2E2E2E2E2E2E2E2E2E2E2E2
310
E2E2E2E2E2E2E2E2E2E2E2E2E2E2E2E2E2E2E2E2E2E2E2E2E2E2E2E2E2E2E2E2E2E2E2E2E2E2E2E2E2E2E2E2E2E2E2E2E2E2E2E2E2E2E2E2E2E2E2E2E2E2E2E2E2E2E2E2E2E2E2E2E2E2E2E2E2E2E2E2E2E2E2E2E2E2E2E2E2E2E2E2E2E2E2E2E2E2E2E2E2E2E2E2E2E2E2E2E2E2E2E2E2E2E2E2E2E2E2E2E2E2E2E2E2E2E2
310
E2E2E2E2E2E2E2E2E2E2E2E2E2E2E2E2F5F5E2E2E2E2E2E2E2E2E2E2E2E2E2E2E2E2E2E2E2E2E2E2E2E2E2E2E2E2E2E2E2E2E2E2E2E2E2E2E2E2E2E2E2E2E2E2E2E2E2E2E2E2E2E2E2E2E2E2E2E2E2E2E2E2E2E2E2E2E2E2E2E2E2E2E2E2E2E2E2E2E2E2E2E2E2E2E2E2E2E2E2E2E2E2E2E2E2E2E2E2E2E2E2E2E2E2E2E2E2
310
E2E2E2E2E2E2E2E2E2E2E2E2E2E2E2E2E2E2E2E2E2E2E2E2E2E2E2E2E2E2E2E2E2E2E2E2E2E2E2E2E2E2E2E2E2E2E2E2E2E2E2E2E2E2E2E2E2E2E2E2E2E2E2E2E2E2E2E2E2F5F5E2E2E2E2E2E2E2E2E2E2E2E2E2E2E2E2E2E2E2E2E2E2E2E2E2E2E2E2E2E2E2E2E2E2E2E2E2E2E2E2E2E2E2E2E2E2E2E2E2E2E2E2E2E2E2E2
310
E2E2E2E2E2E2E2E2E2E2E2E2E2E2E2E2E2E2E2E2E2E2E2E2E2E2E2E2E2E2E2E2E2E2E2E2E2E2E2E2E2E2E2E2E2E2E2E2E2E2E2E2E2E2E2E2E2E2E2E2E2E2E2E2E2E2E2E2E2E2E2E2E2E2E2E2E2E2E2E2E2E2E2E2E2E2E2E2E2E2E2E2E2E2E2E2E2E2E2E2E2E2E2E2E2E2E2E2E2E2E2E2E2E2E2E2E2E2E2E2E2E2F5F5E2E2E2
310
E2E2E2E2E2E2E2E2E2E2E2E2E2E2E2E2E2E2E2E2E2E2E2E2E2E2E2E2E2E2E2E2E2E2E2E2E2E2E2E2E2E2E2E2E2E2E2E2E2E2E2E2E2E2E2E2E2E2E2E2E2E2E2E2E2E2E2E2E2E2E2E2E2E2E2E2E2E2E2E2E2E2E2E2E2E2E2E2E2E2E2E2E2E2E2E2E2E2E2E2E2E2E2E2E2E2E2E2E2E2E2E2E2E2E2E2E2E2E2E2E2E2E2E2E2E2E2
310
E2E2E2E2E2E2E2E2E2E2E2E2E2E2E2E2E2E2E2E2E2E2E2E2E2E2E2E2E2E2E2E2E2E2E2E2E2E2E2E2E2E2E2E2E2E2E2E2F5
  0
XRECORD
  5
59D9A
102
{ACAD_REACTORS
330
59D99
102
}
330
59D99
100
AcDbXrecord
280
     1
102
SHADEPLOT
 70
     0
102
SHADEPLOTRESLEVEL
 70
     2
102
SHADEPLOTCUSTOMDPI
 70
   300
  0
ENDSEC
  0
EOF
