  0
SECTION
  2
HEADER
  9
$ACADVER
  1
AC1015
  9
$ACADMAINTVER
 70
    20
  9
$DWGCODEPAGE
  3
ANSI_936
  9
$INSBASE
 10
0.0
 20
0.0
 30
0.0
  9
$EXTMIN
 10
-34.14109275694095
 20
-51.04875692582781
 30
0.0
  9
$EXTMAX
 10
263.6686958042093
 20
95.58776759440311
 30
0.0
  9
$LIMMIN
 10
0.0
 20
0.0
  9
$LIMMAX
 10
420.0
 20
297.0
  9
$ORTHOMODE
 70
     0
  9
$REGENMODE
 70
     1
  9
$FILLMODE
 70
     1
  9
$QTEXTMODE
 70
     0
  9
$MIRRTEXT
 70
     1
  9
$LTSCALE
 40
1.0
  9
$ATTMODE
 70
     1
  9
$TEXTSIZE
 40
3.5
  9
$TRACEWID
 40
1.0
  9
$TEXTSTYLE
  7
simplex
  9
$CLAYER
  8
0
  9
$CELTYPE
  6
ByLayer
  9
$CECOLOR
 62
   256
  9
$CELTSCALE
 40
1.0
  9
$DISPSILH
 70
     0
  9
$DIMSCALE
 40
0.0
  9
$DIMASZ
 40
3.5
  9
$DIMEXO
 40
0.0
  9
$DIMDLI
 40
0.38
  9
$DIMRND
 40
0.0
  9
$DIMDLE
 40
0.0
  9
$DIMEXE
 40
1.5
  9
$DIMTP
 40
0.0
  9
$DIMTM
 40
0.0
  9
$DIMTXT
 40
3.5
  9
$DIMCEN
 40
0.09
  9
$DIMTSZ
 40
0.0
  9
$DIMTOL
 70
     0
  9
$DIMLIM
 70
     0
  9
$DIMTIH
 70
     0
  9
$DIMTOH
 70
     0
  9
$DIMSE1
 70
     0
  9
$DIMSE2
 70
     0
  9
$DIMTAD
 70
     1
  9
$DIMZIN
 70
     8
  9
$DIMBLK
  1

  9
$DIMASO
 70
     1
  9
$DIMSHO
 70
     1
  9
$DIMPOST
  1

  9
$DIMAPOST
  1

  9
$DIMALT
 70
     0
  9
$DIMALTD
 70
     2
  9
$DIMALTF
 40
25.4
  9
$DIMLFAC
 40
1.0
  9
$DIMTOFL
 70
     0
  9
$DIMTVP
 40
0.0
  9
$DIMTIX
 70
     0
  9
$DIMSOXD
 70
     0
  9
$DIMSAH
 70
     0
  9
$DIMBLK1
  1

  9
$DIMBLK2
  1

  9
$DIMSTYLE
  2
\M+18352\M+18373\M+1815B - ISO-25
  9
$DIMCLRD
 70
   256
  9
$DIMCLRE
 70
   256
  9
$DIMCLRT
 70
   256
  9
$DIMTFAC
 40
1.0
  9
$DIMGAP
 40
2.299999999999998
  9
$DIMJUST
 70
     0
  9
$DIMSD1
 70
     0
  9
$DIMSD2
 70
     0
  9
$DIMTOLJ
 70
     1
  9
$DIMTZIN
 70
     8
  9
$DIMALTZ
 70
     0
  9
$DIMALTTZ
 70
     0
  9
$DIMUPT
 70
     0
  9
$DIMDEC
 70
     2
  9
$DIMTDEC
 70
     2
  9
$DIMALTU
 70
     2
  9
$DIMALTTD
 70
     2
  9
$DIMTXSTY
  7
simplex
  9
$DIMAUNIT
 70
     0
  9
$DIMADEC
 70
     0
  9
$DIMALTRND
 40
0.0
  9
$DIMAZIN
 70
     0
  9
$DIMDSEP
 70
    46
  9
$DIMATFIT
 70
     3
  9
$DIMFRAC
 70
     0
  9
$DIMLDRBLK
  1

  9
$DIMLUNIT
 70
     2
  9
$DIMLWD
 70
    -1
  9
$DIMLWE
 70
    -1
  9
$DIMTMOVE
 70
     0
  9
$LUNITS
 70
     2
  9
$LUPREC
 70
     4
  9
$SKETCHINC
 40
1.0
  9
$FILLETRAD
 40
0.8
  9
$AUNITS
 70
     0
  9
$AUPREC
 70
     0
  9
$MENU
  1
.
  9
$ELEVATION
 40
0.0
  9
$PELEVATION
 40
0.0
  9
$THICKNESS
 40
0.0
  9
$LIMCHECK
 70
     0
  9
$CHAMFERA
 40
10.0
  9
$CHAMFERB
 40
10.0
  9
$CHAMFERC
 40
20.0
  9
$CHAMFERD
 40
0.0
  9
$SKPOLY
 70
     0
  9
$TDCREATE
 40
2455489.391063368
  9
$TDUCREATE
 40
2455489.057730035
  9
$TDUPDATE
 40
2458517.770471088
  9
$TDUUPDATE
 40
2458517.437137755
  9
$TDINDWG
 40
2.2405648843
  9
$TDUSRTIMER
 40
2.2405104861
  9
$USRTIMER
 70
     1
  9
$ANGBASE
 50
0.0
  9
$ANGDIR
 70
     0
  9
$PDMODE
 70
     0
  9
$PDSIZE
 40
0.0
  9
$PLINEWID
 40
0.0
  9
$SPLFRAME
 70
     0
  9
$SPLINETYPE
 70
     6
  9
$SPLINESEGS
 70
     8
  9
$HANDSEED
  5
59468
  9
$SURFTAB1
 70
     6
  9
$SURFTAB2
 70
     6
  9
$SURFTYPE
 70
     6
  9
$SURFU
 70
     6
  9
$SURFV
 70
     6
  9
$UCSBASE
  2

  9
$UCSNAME
  2

  9
$UCSORG
 10
0.0
 20
0.0
 30
0.0
  9
$UCSXDIR
 10
1.0
 20
0.0
 30
0.0
  9
$UCSYDIR
 10
0.0
 20
1.0
 30
0.0
  9
$UCSORTHOREF
  2

  9
$UCSORTHOVIEW
 70
     0
  9
$UCSORGTOP
 10
0.0
 20
0.0
 30
0.0
  9
$UCSORGBOTTOM
 10
0.0
 20
0.0
 30
0.0
  9
$UCSORGLEFT
 10
0.0
 20
0.0
 30
0.0
  9
$UCSORGRIGHT
 10
0.0
 20
0.0
 30
0.0
  9
$UCSORGFRONT
 10
0.0
 20
0.0
 30
0.0
  9
$UCSORGBACK
 10
0.0
 20
0.0
 30
0.0
  9
$PUCSBASE
  2

  9
$PUCSNAME
  2

  9
$PUCSORG
 10
0.0
 20
0.0
 30
0.0
  9
$PUCSXDIR
 10
1.0
 20
0.0
 30
0.0
  9
$PUCSYDIR
 10
0.0
 20
1.0
 30
0.0
  9
$PUCSORTHOREF
  2

  9
$PUCSORTHOVIEW
 70
     0
  9
$PUCSORGTOP
 10
0.0
 20
0.0
 30
0.0
  9
$PUCSORGBOTTOM
 10
0.0
 20
0.0
 30
0.0
  9
$PUCSORGLEFT
 10
0.0
 20
0.0
 30
0.0
  9
$PUCSORGRIGHT
 10
0.0
 20
0.0
 30
0.0
  9
$PUCSORGFRONT
 10
0.0
 20
0.0
 30
0.0
  9
$PUCSORGBACK
 10
0.0
 20
0.0
 30
0.0
  9
$USERI1
 70
     0
  9
$USERI2
 70
     0
  9
$USERI3
 70
     0
  9
$USERI4
 70
     0
  9
$USERI5
 70
     0
  9
$USERR1
 40
0.0
  9
$USERR2
 40
0.0
  9
$USERR3
 40
0.0
  9
$USERR4
 40
0.0
  9
$USERR5
 40
0.0
  9
$WORLDVIEW
 70
     1
  9
$SHADEDGE
 70
     3
  9
$SHADEDIF
 70
    70
  9
$TILEMODE
 70
     1
  9
$MAXACTVP
 70
    64
  9
$PINSBASE
 10
0.0
 20
0.0
 30
0.0
  9
$PLIMCHECK
 70
     0
  9
$PEXTMIN
 10
26.66999878883364
 20
20.31999878883365
 30
0.0
  9
$PEXTMAX
 10
240.0299890995025
 20
182.8799890995025
 30
0.0
  9
$PLIMMIN
 10
-6.350006103515625
 20
-6.349999904632567
  9
$PLIMMAX
 10
273.0499877929688
 20
209.5499939918518
  9
$UNITMODE
 70
     0
  9
$VISRETAIN
 70
     1
  9
$PLINEGEN
 70
     0
  9
$PSLTSCALE
 70
     1
  9
$TREEDEPTH
 70
  3020
  9
$CMLSTYLE
  2
Standard
  9
$CMLJUST
 70
     0
  9
$CMLSCALE
 40
20.0
  9
$PROXYGRAPHICS
 70
     1
  9
$MEASUREMENT
 70
     1
  9
$CELWEIGHT
370
    -1
  9
$ENDCAPS
280
     0
  9
$JOINSTYLE
280
     0
  9
$LWDISPLAY
290
     0
  9
$INSUNITS
 70
     4
  9
$HYPERLINKBASE
  1

  9
$STYLESHEET
  1

  9
$XEDIT
290
     1
  9
$CEPSNTYPE
380
     0
  9
$PSTYLEMODE
290
     1
  9
$FINGERPRINTGUID
  2
{601DDA01-5B13-4A4C-8F56-1333B78D855B}
  9
$VERSIONGUID
  2
{398371FC-31B7-4777-8D3E-B145002AA876}
  9
$EXTNAMES
290
     1
  9
$PSVPSCALE
 40
0.0
  9
$OLESTARTUP
290
     0
  0
ENDSEC
  0
SECTION
  2
CLASSES
  0
CLASS
  1
ACDBDICTIONARYWDFLT
  2
AcDbDictionaryWithDefault
  3
ObjectDBX Classes
 90
        0
280
     0
281
     0
  0
CLASS
  1
ACDBPLACEHOLDER
  2
AcDbPlaceHolder
  3
ObjectDBX Classes
 90
        0
280
     0
281
     0
  0
CLASS
  1
LAYOUT
  2
AcDbLayout
  3
ObjectDBX Classes
 90
        0
280
     0
281
     0
  0
CLASS
  1
DICTIONARYVAR
  2
AcDbDictionaryVar
  3
ObjectDBX Classes
 90
        0
280
     0
281
     0
  0
CLASS
  1
TABLESTYLE
  2
AcDbTableStyle
  3
ObjectDBX Classes
 90
     2047
280
     0
281
     0
  0
CLASS
  1
SORTENTSTABLE
  2
AcDbSortentsTable
  3
ObjectDBX Classes
 90
        0
280
     0
281
     0
  0
CLASS
  1
DIMASSOC
  2
AcDbDimAssoc
  3
"AcDbDimAssoc|Product Desc:     AcDim ARX App For Dimension|Company:          Autodesk, Inc.|WEB Address:      www.autodesk.com"
 90
        0
280
     0
281
     0
  0
CLASS
  1
ACAD_EVALUATION_GRAPH
  2
AcDbEvalGraph
  3
ObjectDBX Classes
 90
    33921
280
     0
281
     0
  0
CLASS
  1
ACAECUSTOBJ
  2
AcAeEditorObj
  3
AcAeEditorObj
 90
    33792
280
     0
281
     0
  0
CLASS
  1
ACDB_DYNAMICBLOCKPURGEPREVENTER_VERSION
  2
AcDbDynamicBlockPurgePreventer
  3
ObjectDBX Classes
 90
    33921
280
     0
281
     0
  0
ENDSEC
  0
SECTION
  2
TABLES
  0
TABLE
  2
VPORT
  5
8
330
0
100
AcDbSymbolTable
 70
     5
  0
VPORT
  5
59459
330
8
100
AcDbSymbolTableRecord
100
AcDbViewportTableRecord
  2
*Active
 70
     0
 10
0.0
 20
0.0
 11
1.0
 21
1.0
 12
24.59070859792274
 22
9.832336550239844
 13
0.0
 23
0.0
 14
10.0
 24
10.0
 15
10.0
 25
10.0
 16
0.0
 26
0.0
 36
1.0
 17
0.0
 27
0.0
 37
0.0
 40
202.3310803859438
 41
1.386206896551724
 42
50.0
 43
0.0
 44
0.0
 50
0.0
 51
0.0
 71
     0
 72
  1000
 73
     1
 74
     1
 75
     0
 76
     0
 77
     0
 78
     0
281
     0
 65
     1
110
0.0
120
0.0
130
0.0
111
1.0
121
0.0
131
0.0
112
0.0
122
1.0
132
0.0
 79
     0
146
0.0
  0
ENDTAB
  0
TABLE
  2
LTYPE
  5
5
330
0
100
AcDbSymbolTable
 70
     4
  0
LTYPE
  5
14
330
5
100
AcDbSymbolTableRecord
100
AcDbLinetypeTableRecord
  2
ByBlock
 70
     0
  3

 72
    65
 73
     0
 40
0.0
  0
LTYPE
  5
15
330
5
100
AcDbSymbolTableRecord
100
AcDbLinetypeTableRecord
  2
ByLayer
 70
     0
  3

 72
    65
 73
     0
 40
0.0
  0
LTYPE
  5
16
330
5
100
AcDbSymbolTableRecord
100
AcDbLinetypeTableRecord
  2
Continuous
 70
     0
  3
Solid line
 72
    65
 73
     0
 40
0.0
  0
LTYPE
  5
D7
330
5
100
AcDbSymbolTableRecord
100
AcDbLinetypeTableRecord
  2
HIDDEN
 70
     0
  3
Hidden __ __ __ __ __ __ __ __ __ __ __ __ __ _
 72
    65
 73
     2
 40
9.524999999999996
 49
6.349999999999997
 74
     0
 49
-3.174999999999998
 74
     0
  0
LTYPE
  5
D9
330
5
100
AcDbSymbolTableRecord
100
AcDbLinetypeTableRecord
  2
CENTER
 70
     0
  3
Center ____ _ ____ _ ____ _ ____ _ ____ _ ____
 72
    65
 73
     4
 40
50.8
 49
31.75
 74
     0
 49
-6.349999999999997
 74
     0
 49
6.349999999999997
 74
     0
 49
-6.349999999999997
 74
     0
  0
LTYPE
  5
35815
330
5
100
AcDbSymbolTableRecord
100
AcDbLinetypeTableRecord
  2
PHANTOM
 70
     0
  3
_____ _ _ _____ _ _ _____ _ _ _____
 72
    65
 73
     6
 40
0.8
 49
0.45
 74
     0
 49
-0.05
 74
     0
 49
0.1
 74
     0
 49
-0.05
 74
     0
 49
0.1
 74
     0
 49
-0.05
 74
     0
  0
ENDTAB
  0
TABLE
  2
LAYER
  5
2
102
{ACAD_XDICTIONARY
360
E2
102
}
330
0
100
AcDbSymbolTable
 70
    14
  0
LAYER
  5
10
330
2
100
AcDbSymbolTableRecord
100
AcDbLayerTableRecord
  2
0
 70
     0
 62
     7
  6
Continuous
370
    -3
390
F
  0
LAYER
  5
D1
330
2
100
AcDbSymbolTableRecord
100
AcDbLayerTableRecord
  2
1
 70
     0
 62
     4
  6
Continuous
370
    50
390
F
1001
AcAecLayerStandard
1000

1000

  0
LAYER
  5
D3
330
2
100
AcDbSymbolTableRecord
100
AcDbLayerTableRecord
  2
2
 70
     0
 62
     7
  6
Continuous
370
    25
390
F
1001
AcAecLayerStandard
1000

1000

  0
LAYER
  5
D4
330
2
100
AcDbSymbolTableRecord
100
AcDbLayerTableRecord
  2
3
 70
     0
 62
     1
  6
HIDDEN
370
    35
390
F
1001
AcAecLayerStandard
1000

1000

  0
LAYER
  5
D8
330
2
100
AcDbSymbolTableRecord
100
AcDbLayerTableRecord
  2
4
 70
     0
 62
     2
  6
CENTER
370
    25
390
F
1001
AcAecLayerStandard
1000

1000

  0
LAYER
  5
DA
330
2
100
AcDbSymbolTableRecord
100
AcDbLayerTableRecord
  2
6
 70
     0
 62
     5
  6
Continuous
370
    35
390
F
1001
AcAecLayerStandard
1000

1000

  0
LAYER
  5
DB
330
2
100
AcDbSymbolTableRecord
100
AcDbLayerTableRecord
  2
cut
 70
     0
 62
     1
  6
Continuous
370
    25
390
F
1001
AcAecLayerStandard
1000

1000

  0
LAYER
  5
DC
330
2
100
AcDbSymbolTableRecord
100
AcDbLayerTableRecord
  2
nocut
 70
     0
 62
     7
  6
Continuous
370
    25
390
F
1001
AcAecLayerStandard
1000

1000

  0
LAYER
  5
DD
330
2
100
AcDbSymbolTableRecord
100
AcDbLayerTableRecord
  2
sk1
 70
     0
 62
     4
  6
Continuous
370
    50
390
F
1001
AcAecLayerStandard
1000

1000

  0
LAYER
  5
DE
330
2
100
AcDbSymbolTableRecord
100
AcDbLayerTableRecord
  2
sk2
 70
     0
 62
     7
  6
Continuous
370
    25
390
F
1001
AcAecLayerStandard
1000

1000

  0
LAYER
  5
DF
330
2
100
AcDbSymbolTableRecord
100
AcDbLayerTableRecord
  2
sk3
 70
     0
 62
     1
  6
HIDDEN
370
    35
390
F
1001
AcAecLayerStandard
1000

1000

  0
LAYER
  5
E0
330
2
100
AcDbSymbolTableRecord
100
AcDbLayerTableRecord
  2
sk4
 70
     0
 62
     2
  6
CENTER
370
    25
390
F
1001
AcAecLayerStandard
1000

1000

  0
LAYER
  5
E1
330
2
100
AcDbSymbolTableRecord
100
AcDbLayerTableRecord
  2
sk6
 70
     0
 62
     5
  6
Continuous
370
    35
390
F
1001
AcAecLayerStandard
1000

1000

  0
LAYER
  5
31B6
330
2
100
AcDbSymbolTableRecord
100
AcDbLayerTableRecord
  2
Defpoints
 70
     0
 62
     7
  6
Continuous
290
     0
370
    -3
390
F
  0
ENDTAB
  0
TABLE
  2
STYLE
  5
3
330
0
100
AcDbSymbolTable
 70
    11
  0
STYLE
  5
11
330
3
100
AcDbSymbolTableRecord
100
AcDbTextStyleTableRecord
  2
Standard
 70
     0
 40
0.0
 41
1.0
 50
0.0
 71
     0
 42
2.5
  3
txt.shx
  4
@extfont2.shx
  0
STYLE
  5
D6
330
3
100
AcDbSymbolTableRecord
100
AcDbTextStyleTableRecord
  2

 70
     1
 40
0.0
 41
1.0
 50
0.0
 71
     0
 42
2.5
  3
ltypeshp.shx
  4

  0
STYLE
  5
24A
330
3
100
AcDbSymbolTableRecord
100
AcDbTextStyleTableRecord
  2
simplex
 70
     0
 40
3.5
 41
1.0
 50
0.0
 71
     0
 42
3.5
  3
txt.shx
  4

  0
STYLE
  5
69E
330
3
100
AcDbSymbolTableRecord
100
AcDbTextStyleTableRecord
  2
MX_NOTE_STANDARD
 70
     0
 40
0.0
 41
1.0
 50
0.0
 71
     0
 42
4.2
  3
txt.shx
  4
extfont.shx
  0
STYLE
  5
3524
330
3
100
AcDbSymbolTableRecord
100
AcDbTextStyleTableRecord
  2
TEXTSTYLE_2
 70
     0
 40
0.0
 41
0.775
 50
0.0
 71
     0
 42
0.2
  3
gdt
  4

  0
STYLE
  5
3525
330
3
100
AcDbSymbolTableRecord
100
AcDbTextStyleTableRecord
  2
TEXTSTYLE_3
 70
     0
 40
0.0
 41
0.75
 50
0.0
 71
     0
 42
0.2
  3
txt
  4

  0
STYLE
  5
3526
330
3
100
AcDbSymbolTableRecord
100
AcDbTextStyleTableRecord
  2
TEXTSTYLE_13
 70
     0
 40
0.0
 41
1.0
 50
0.0
 71
     0
 42
0.2
  3
txt
  4

  0
STYLE
  5
519A
330
3
100
AcDbSymbolTableRecord
100
AcDbTextStyleTableRecord
  2
TEXTSTYLE_14
 70
     0
 40
0.0
 41
1.0
 50
0.0
 71
     0
 42
0.2
  3
txt
  4

  0
STYLE
  5
6F72
330
3
100
AcDbSymbolTableRecord
100
AcDbTextStyleTableRecord
  2
TEXTSTYLE_4
 70
     0
 40
0.0
 41
0.75
 50
0.0
 71
     0
 42
0.2
  3
txt
  4

  0
STYLE
  5
6F73
330
3
100
AcDbSymbolTableRecord
100
AcDbTextStyleTableRecord
  2
TEXTSTYLE_17
 70
     0
 40
0.0
 41
1.0
 50
0.0
 71
     0
 42
0.2
  3
txt
  4

  0
STYLE
  5
FE12
330
3
100
AcDbSymbolTableRecord
100
AcDbTextStyleTableRecord
  2
TEXTSTYLE_12
 70
     0
 40
0.0
 41
1.0
 50
0.0
 71
     0
 42
0.2
  3
txt
  4

  0
ENDTAB
  0
TABLE
  2
VIEW
  5
6
330
0
100
AcDbSymbolTable
 70
     0
  0
ENDTAB
  0
TABLE
  2
UCS
  5
7
330
0
100
AcDbSymbolTable
 70
     0
  0
ENDTAB
  0
TABLE
  2
APPID
  5
9
330
0
100
AcDbSymbolTable
 70
    11
  0
APPID
  5
12
330
9
100
AcDbSymbolTableRecord
100
AcDbRegAppTableRecord
  2
ACAD
 70
     0
  0
APPID
  5
D2
330
9
100
AcDbSymbolTableRecord
100
AcDbRegAppTableRecord
  2
AcAecLayerStandard
 70
     0
  0
APPID
  5
E6
330
9
100
AcDbSymbolTableRecord
100
AcDbRegAppTableRecord
  2
ACAD_DSTYLE_DIMTEXT_FILL
 70
     0
  0
APPID
  5
4C84
330
9
100
AcDbSymbolTableRecord
100
AcDbRegAppTableRecord
  2
ACAD_EXEMPT_FROM_CAD_STANDARDS
 70
     0
  0
APPID
  5
3493E
330
9
100
AcDbSymbolTableRecord
100
AcDbRegAppTableRecord
  2
DCO15
 70
     0
  0
APPID
  5
4366A
330
9
100
AcDbSymbolTableRecord
100
AcDbRegAppTableRecord
  2
ACAUTHENVIRON
 70
     0
  0
APPID
  5
4366D
330
9
100
AcDbSymbolTableRecord
100
AcDbRegAppTableRecord
  2
AcDbDynamicBlockTrueName
 70
     0
  0
APPID
  5
4366E
330
9
100
AcDbSymbolTableRecord
100
AcDbRegAppTableRecord
  2
AcDbDynamicBlockGUID
 70
     0
  0
APPID
  5
43670
330
9
100
AcDbSymbolTableRecord
100
AcDbRegAppTableRecord
  2
AcDbBlockRepETag
 70
     0
  0
APPID
  5
45C9F
330
9
100
AcDbSymbolTableRecord
100
AcDbRegAppTableRecord
  2
ACAD_DSTYLE_DIMEXT_ENABLED
 70
     0
  0
APPID
  5
45CA0
330
9
100
AcDbSymbolTableRecord
100
AcDbRegAppTableRecord
  2
ACAD_DSTYLE_DIMEXT_LENGTH
 70
     0
  0
ENDTAB
  0
TABLE
  2
DIMSTYLE
  5
A
330
0
100
AcDbSymbolTable
 70
     9
100
AcDbDimStyleTable
 71
     2
340
1BF
340
27
  0
DIMSTYLE
105
27
330
A
100
AcDbSymbolTableRecord
100
AcDbDimStyleTableRecord
  2
ISO-25
 70
     0
 41
2.5
 42
0.625
 43
3.75
 44
1.25
 73
     0
 74
     0
 77
     1
 78
     8
140
2.5
141
2.5
143
0.03937007874016
147
0.625
171
     3
172
     1
271
     2
272
     2
274
     3
278
    44
283
     0
284
     8
340
11
  0
DIMSTYLE
105
1BF
102
{ACAD_REACTORS
330
59388
330
5938B
330
5938C
330
591D8
330
591D9
330
591DA
330
591DB
102
}
330
A
100
AcDbSymbolTableRecord
100
AcDbDimStyleTableRecord
  2
\M+18352\M+18373\M+1815B - ISO-25
 70
     0
 40
0.0
 41
3.5
 42
0.0
 44
1.5
 73
     0
 74
     0
 77
     1
 78
     8
140
3.5
147
2.299999999999998
176
   256
177
   256
178
   256
271
     2
272
     2
284
     8
340
24A
371
    -1
372
    -1
  0
DIMSTYLE
105
69F
330
A
100
AcDbSymbolTableRecord
100
AcDbDimStyleTableRecord
  2
MXDIMSTYLE
 70
     0
 41
2.5
 42
0.5
 43
3.75
 44
1.5
 73
     0
 74
     0
 77
     1
 78
     8
140
4.2
141
2.5
143
0.03937
147
1.0
171
     4
172
     1
173
     1
271
     2
272
     2
274
     4
283
     0
288
     1
340
69E
341
697
343
697
344
697
  0
DIMSTYLE
105
3527
330
A
100
AcDbSymbolTableRecord
100
AcDbDimStyleTableRecord
  2
STANDARD
 70
     0
 41
3.0
 47
0.001
 48
0.001
 71
     1
 73
     0
 74
     0
 77
     1
 78
     8
140
4.0
271
     3
272
     3
284
     8
340
11
341
34B1
342
34B1
343
34B1
344
34B1
  0
DIMSTYLE
105
3528
330
A
100
AcDbSymbolTableRecord
100
AcDbDimStyleTableRecord
  2
DIMSTYLE_1
 70
     0
 41
3.0
 73
     0
 74
     0
 77
     1
 78
     8
140
4.0
271
     3
272
     3
284
     8
340
11
341
34B1
342
34B1
343
34B1
344
34B1
  0
DIMSTYLE
105
3529
330
A
100
AcDbSymbolTableRecord
100
AcDbDimStyleTableRecord
  2
DIMSTYLE_2
 70
     0
 41
3.0
 47
0.001
 48
0.001
 73
     0
 74
     0
 77
     1
 78
     8
140
4.0
271
     3
272
     3
284
     8
340
11
341
34B1
342
34B1
343
34B1
344
34B1
  0
DIMSTYLE
105
352A
330
A
100
AcDbSymbolTableRecord
100
AcDbDimStyleTableRecord
  2
DIMSTYLE_3
 70
     0
 41
3.0
 47
-0.1
 48
0.3
 71
     1
 73
     0
 74
     0
 77
     1
 78
     8
140
4.0
146
0.5
271
     3
272
     3
284
     8
340
11
341
34B1
342
34B1
343
34B1
344
34B1
  0
DIMSTYLE
105
352B
330
A
100
AcDbSymbolTableRecord
100
AcDbDimStyleTableRecord
  2
DIMSTYLE_4
 70
     0
 41
3.0
 47
0.1
 48
0.1
 71
     1
 73
     0
 74
     0
 77
     1
 78
     8
140
4.0
271
     3
272
     3
284
     8
340
11
341
34B1
342
34B1
343
34B1
344
34B1
  0
DIMSTYLE
105
27245
330
A
100
AcDbSymbolTableRecord
100
AcDbDimStyleTableRecord
  2
DIMSTYLE_5
 70
     0
 41
3.0
 47
0.001
 48
0.001
 73
     0
 74
     0
 77
     1
 78
     8
140
4.0
271
     3
272
     3
284
     8
340
11
341
34B1
342
34B1
343
34B1
344
34B1
  0
ENDTAB
  0
TABLE
  2
BLOCK_RECORD
  5
1
330
0
100
AcDbSymbolTable
 70
    58
  0
BLOCK_RECORD
  5
1F
102
{ACAD_XDICTIONARY
360
31EE
102
}
330
1
100
AcDbSymbolTableRecord
100
AcDbBlockTableRecord
  2
*Model_Space
340
22
  0
BLOCK_RECORD
  5
50
330
1
100
AcDbSymbolTableRecord
100
AcDbBlockTableRecord
  2
*Paper_Space
340
51
  0
BLOCK_RECORD
  5
55
330
1
100
AcDbSymbolTableRecord
100
AcDbBlockTableRecord
  2
*Paper_Space0
340
56
  0
BLOCK_RECORD
  5
680
102
{ACAD_XDICTIONARY
360
43668
102
}
330
1
100
AcDbSymbolTableRecord
100
AcDbBlockTableRecord
  2
zero block
340
0
102
{BLKREFS
331
68C
102
}
1001
ACAD
1000
DesignCenter Data
1002
{
1070
     1
1070
     4
1002
}
1001
AcDbDynamicBlockGUID
1000
{A89DF4EB-B2CB-439E-AC69-1EAC9F242D1C}
1001
AcDbBlockRepETag
1070
     1
1071
        7
  0
BLOCK_RECORD
  5
697
330
1
100
AcDbSymbolTableRecord
100
AcDbBlockTableRecord
  2
_OPEN30
340
0
  0
BLOCK_RECORD
  5
32F1
330
1
100
AcDbSymbolTableRecord
100
AcDbBlockTableRecord
  2
_None
340
0
  0
BLOCK_RECORD
  5
34B1
330
1
100
AcDbSymbolTableRecord
100
AcDbBlockTableRecord
  2
_OPEN
340
0
  0
BLOCK_RECORD
  5
57D2C
330
1
100
AcDbSymbolTableRecord
100
AcDbBlockTableRecord
  2
*D8
340
0
  0
BLOCK_RECORD
  5
57D38
330
1
100
AcDbSymbolTableRecord
100
AcDbBlockTableRecord
  2
*D9
340
0
  0
BLOCK_RECORD
  5
5938F
330
1
100
AcDbSymbolTableRecord
100
AcDbBlockTableRecord
  2
*D51
340
0
  0
BLOCK_RECORD
  5
5939C
330
1
100
AcDbSymbolTableRecord
100
AcDbBlockTableRecord
  2
*D52
340
0
  0
BLOCK_RECORD
  5
593A6
330
1
100
AcDbSymbolTableRecord
100
AcDbBlockTableRecord
  2
*D53
340
0
  0
BLOCK_RECORD
  5
593B2
330
1
100
AcDbSymbolTableRecord
100
AcDbBlockTableRecord
  2
*D54
340
0
  0
BLOCK_RECORD
  5
593BF
330
1
100
AcDbSymbolTableRecord
100
AcDbBlockTableRecord
  2
*D55
340
0
  0
BLOCK_RECORD
  5
593CB
330
1
100
AcDbSymbolTableRecord
100
AcDbBlockTableRecord
  2
*D56
340
0
  0
BLOCK_RECORD
  5
593DF
330
1
100
AcDbSymbolTableRecord
100
AcDbBlockTableRecord
  2
*D57
340
0
  0
ENDTAB
  0
ENDSEC
  0
SECTION
  2
BLOCKS
  0
BLOCK
  5
20
330
1F
100
AcDbEntity
  8
0
100
AcDbBlockBegin
  2
*Model_Space
 70
     0
 10
0.0
 20
0.0
 30
0.0
  3
*Model_Space
  1

  0
ENDBLK
  5
21
330
1F
100
AcDbEntity
  8
0
100
AcDbBlockEnd
  0
BLOCK
  5
52
330
50
100
AcDbEntity
 67
     1
  8
0
100
AcDbBlockBegin
  2
*Paper_Space
 70
     0
 10
0.0
 20
0.0
 30
0.0
  3
*Paper_Space
  1

  0
ENDBLK
  5
53
330
50
100
AcDbEntity
 67
     1
  8
0
100
AcDbBlockEnd
  0
BLOCK
  5
57
330
55
100
AcDbEntity
 67
     1
  8
0
100
AcDbBlockBegin
  2
*Paper_Space0
 70
     0
 10
0.0
 20
0.0
 30
0.0
  3
*Paper_Space0
  1

  0
VIEWPORT
  5
71
102
{ACAD_XDICTIONARY
360
59464
102
}
330
55
100
AcDbEntity
 67
     1
  8
0
100
AcDbViewport
 10
150.1652135264906
 20
101.599997546291
 30
0.0
 40
339.1973820494347
 41
164.5360435314421
 68
     0
 69
     0
 12
150.1652135264906
 22
101.599997546291
 13
0.0
 23
0.0
 14
10.0
 24
10.0
 15
10.0
 25
10.0
 16
0.0
 26
0.0
 36
1.0
 17
0.0
 27
0.0
 37
0.0
 42
50.0
 43
0.0
 44
0.0
 45
164.5360435314421
 50
0.0
 51
0.0
 72
  1000
 90
    32864
  1

281
     0
 71
     1
 74
     0
110
0.0
120
0.0
130
0.0
111
1.0
121
0.0
131
0.0
112
0.0
122
1.0
132
0.0
 79
     0
146
0.0
  0
VIEWPORT
  5
73
102
{ACAD_XDICTIONARY
360
59466
102
}
330
55
100
AcDbEntity
 67
     1
  8
0
100
AcDbViewport
 10
133.3499939441681
 20
101.5999939441681
 30
0.0
 40
213.3599903106689
 41
162.5599903106689
 68
     0
 69
     0
 12
210.0
 22
148.5
 13
0.0
 23
0.0
 14
10.0
 24
10.0
 15
10.0
 25
10.0
 16
0.0
 26
0.0
 36
1.0
 17
0.0
 27
0.0
 37
0.0
 42
50.0
 43
0.0
 44
0.0
 45
324.0677920111345
 50
0.0
 51
0.0
 72
   100
 90
    32864
  1

281
     0
 71
     1
 74
     0
110
0.0
120
0.0
130
0.0
111
1.0
121
0.0
131
0.0
112
0.0
122
1.0
132
0.0
 79
     0
146
0.0
  0
ENDBLK
  5
58
330
55
100
AcDbEntity
 67
     1
  8
0
100
AcDbBlockEnd
  0
BLOCK
  5
68A
330
680
100
AcDbEntity
  8
0
100
AcDbBlockBegin
  2
zero block
 70
     0
 10
0.0
 20
0.0
 30
0.0
  3
zero block
  1

  0
HATCH
  5
43661
330
680
100
AcDbEntity
  8
0
 62
     7
100
AcDbHatch
 10
0.0
 20
0.0
 30
0.0
210
0.0
220
0.0
230
1.0
  2
SOLID
 70
     1
 71
     0
 91
        2
 92
        7
 72
     1
 73
     1
 93
        3
 10
0.0
 20
0.9999999999999875
 42
0.4142135623730915
 10
-1.0
 20
0.0
 42
0.0
 10
0.0
 20
0.0
 42
0.0
 97
        0
 92
        7
 72
     1
 73
     1
 93
        3
 10
1.000000000000007
 20
0.0
 42
0.0
 10
0.0
 20
0.0
 42
0.0
 10
0.0
 20
-1.0
 42
0.4142135623730974
 97
        0
 75
     0
 76
     1
 47
0.0090601366782909
 98
        2
 10
-0.380591363650975
 20
0.4885804701532896
 10
0.4350764810977559
 20
-0.4536738423704725
1001
AcDbBlockRepETag
1070
     1
1071
        0
1005
43661
  0
LINE
  5
43662
330
680
100
AcDbEntity
  8
0
 62
     7
 48
0.2
100
AcDbLine
 10
-1.0
 20
0.0
 30
0.0
 11
1.000000000000007
 21
0.0
 31
0.0
1001
AcDbBlockRepETag
1070
     1
1071
        1
1005
43662
  0
LINE
  5
43663
330
680
100
AcDbEntity
  8
0
 62
     7
 48
0.2
100
AcDbLine
 10
0.0
 20
-1.0
 30
0.0
 11
0.0
 21
0.9999999999999875
 31
0.0
1001
AcDbBlockRepETag
1070
     1
1071
        2
1005
43663
  0
ARC
  5
43664
330
680
100
AcDbEntity
  8
0
 62
     7
 48
0.2
100
AcDbCircle
 10
0.0
 20
0.0
 30
0.0
 40
1.0
100
AcDbArc
 50
270.0
 51
0.0
1001
AcDbBlockRepETag
1070
     1
1071
        3
1005
43664
  0
ARC
  5
43665
330
680
100
AcDbEntity
  8
0
 62
     7
 48
0.2
100
AcDbCircle
 10
0.0
 20
0.0
 30
0.0
 40
1.0
100
AcDbArc
 50
0.0
 51
90.0
1001
AcDbBlockRepETag
1070
     1
1071
        4
1005
43665
  0
ARC
  5
43666
330
680
100
AcDbEntity
  8
0
 62
     7
 48
0.2
100
AcDbCircle
 10
0.0
 20
0.0
 30
0.0
 40
1.0
100
AcDbArc
 50
180.0
 51
270.0
1001
AcDbBlockRepETag
1070
     1
1071
        5
1005
43666
  0
ARC
  5
43667
330
680
100
AcDbEntity
  8
0
 62
     7
 48
0.2
100
AcDbCircle
 10
0.0
 20
0.0
 30
0.0
 40
1.0
100
AcDbArc
 50
90.0
 51
180.0
1001
AcDbBlockRepETag
1070
     1
1071
        6
1005
43667
  0
ENDBLK
  5
68B
330
680
100
AcDbEntity
  8
0
100
AcDbBlockEnd
  0
BLOCK
  5
698
330
697
100
AcDbEntity
  8
0
  6
ByBlock
 62
     0
370
    -2
100
AcDbBlockBegin
  2
_OPEN30
 70
     2
 10
0.0
 20
0.0
 30
0.0
  3
_OPEN30
  1

  0
LINE
  5
699
330
697
100
AcDbEntity
  8
0
  6
ByBlock
 62
     0
370
    -2
100
AcDbLine
 10
-1.0
 20
0.267949
 30
0.0
 11
0.0
 21
0.0
 31
0.0
  0
LINE
  5
69A
330
697
100
AcDbEntity
  8
0
  6
ByBlock
 62
     0
370
    -2
100
AcDbLine
 10
0.0
 20
0.0
 30
0.0
 11
-1.0
 21
-0.267949
 31
0.0
  0
LINE
  5
69B
330
697
100
AcDbEntity
  8
0
  6
ByBlock
 62
     0
370
    -2
100
AcDbLine
 10
0.0
 20
0.0
 30
0.0
 11
-1.0
 21
0.0
 31
0.0
  0
ENDBLK
  5
69C
330
697
100
AcDbEntity
  8
0
  6
ByBlock
 62
     0
370
    -2
100
AcDbBlockEnd
  0
BLOCK
  5
32F2
330
32F1
100
AcDbEntity
  8
0
100
AcDbBlockBegin
  2
_None
 70
     0
 10
0.0
 20
0.0
 30
0.0
  3
_None
  1

  0
ENDBLK
  5
32F3
330
32F1
100
AcDbEntity
  8
0
100
AcDbBlockEnd
  0
BLOCK
  5
34B2
330
34B1
100
AcDbEntity
  8
0
100
AcDbBlockBegin
  2
_OPEN
 70
     0
 10
0.0
 20
0.0
 30
0.0
  3
_OPEN
  1

  0
LINE
  5
34B3
330
34B1
100
AcDbEntity
  8
0
  6
ByBlock
 62
     0
100
AcDbLine
 10
0.0
 20
0.0
 30
0.0
 11
-1.0
 21
0.1766666667
 31
0.0
  0
LINE
  5
34B4
330
34B1
100
AcDbEntity
  8
0
  6
ByBlock
 62
     0
100
AcDbLine
 10
-1.0
 20
-0.1766666667
 30
0.0
 11
0.0
 21
0.0
 31
0.0
  0
LINE
  5
34B5
330
34B1
100
AcDbEntity
  8
0
  6
ByBlock
 62
     0
100
AcDbLine
 10
-1.0
 20
0.0
 30
0.0
 11
0.0
 21
0.0
 31
0.0
  0
ENDBLK
  5
34B6
330
34B1
100
AcDbEntity
  8
0
  6
ByBlock
 62
     0
100
AcDbBlockEnd
  0
BLOCK
  5
57D36
330
57D2C
100
AcDbEntity
  8
0
100
AcDbBlockBegin
  2
*D8
 70
     1
 10
0.0
 20
0.0
 30
0.0
  3
*D8
  1

  0
LINE
  5
57DBC
330
57D2C
100
AcDbEntity
  8
sk2
100
AcDbLine
 10
2.0
 20
30.0
 30
0.0
 11
-26.78072522735555
 21
30.00000000000001
 31
0.0
  0
LINE
  5
57DBD
330
57D2C
100
AcDbEntity
  8
sk2
100
AcDbLine
 10
2.0
 20
-30.0
 30
0.0
 11
-26.78072522735557
 21
-30.0
 31
0.0
  0
LINE
  5
57DBE
330
57D2C
100
AcDbEntity
  8
sk2
100
AcDbLine
 10
-25.28072522735556
 20
26.50000000000001
 30
0.0
 11
-25.28072522735557
 21
-26.49999999999999
 31
0.0
  0
SOLID
  5
57DBF
330
57D2C
100
AcDbEntity
  8
sk2
100
AcDbTrace
 10
-25.8640585606889
 20
26.50000000000001
 30
0.0
 11
-24.69739189402222
 21
26.50000000000001
 31
0.0
 12
-25.28072522735556
 22
30.00000000000001
 32
0.0
 13
-25.28072522735556
 23
30.00000000000001
 33
0.0
  0
SOLID
  5
57DC0
330
57D2C
100
AcDbEntity
  8
sk2
100
AcDbTrace
 10
-25.8640585606889
 20
-26.49999999999999
 30
0.0
 11
-24.69739189402224
 21
-26.49999999999999
 31
0.0
 12
-25.28072522735557
 22
-30.0
 32
0.0
 13
-25.28072522735557
 23
-30.0
 33
0.0
  0
MTEXT
  5
57DC1
330
57D2C
100
AcDbEntity
  8
sk2
100
AcDbMText
 10
-31.08072522735556
 20
0.0000000000000076
 30
0.0
 40
3.5
 41
0.0
 71
     2
 72
     1
  1
\A1;%%c60
  7
simplex
 11
0.0000000000000001
 21
1.0
 31
0.0
 73
     1
 44
1.0
1001
ACAD
1000
MTEXTBEGIN
1070
    73
1070
     1
1070
    44
1040
1.0
1070
    74
1070
     0
1000
MTEXTEND
  0
POINT
  5
57DC2
330
57D2C
100
AcDbEntity
  8
Defpoints
 62
     0
100
AcDbPoint
 10
2.0
 20
30.0
 30
0.0
  0
POINT
  5
57DC3
330
57D2C
100
AcDbEntity
  8
Defpoints
 62
     0
100
AcDbPoint
 10
2.0
 20
-30.0
 30
0.0
  0
POINT
  5
57DC4
330
57D2C
100
AcDbEntity
  8
Defpoints
 62
     0
100
AcDbPoint
 10
-25.28072522735557
 20
-30.0
 30
0.0
  0
ENDBLK
  5
57D37
330
57D2C
100
AcDbEntity
  8
0
100
AcDbBlockEnd
  0
BLOCK
  5
57D42
330
57D38
100
AcDbEntity
  8
0
100
AcDbBlockBegin
  2
*D9
 70
     1
 10
0.0
 20
0.0
 30
0.0
  3
*D9
  1

  0
LINE
  5
57DC5
330
57D38
100
AcDbEntity
  8
sk2
100
AcDbLine
 10
1.199999999999988
 20
12.70000000000004
 30
0.0
 11
-14.96805442634695
 21
12.70000000000004
 31
0.0
  0
LINE
  5
57DC6
330
57D38
100
AcDbEntity
  8
sk2
100
AcDbLine
 10
1.199999999999988
 20
-12.69999999999999
 30
0.0
 11
-14.96805442634695
 21
-12.69999999999998
 31
0.0
  0
LINE
  5
57DC7
330
57D38
100
AcDbEntity
  8
sk2
100
AcDbLine
 10
-13.46805442634695
 20
9.200000000000043
 30
0.0
 11
-13.46805442634695
 21
-9.199999999999985
 31
0.0
  0
SOLID
  5
57DC8
330
57D38
100
AcDbEntity
  8
sk2
100
AcDbTrace
 10
-14.05138775968028
 20
9.200000000000043
 30
0.0
 11
-12.88472109301362
 21
9.200000000000043
 31
0.0
 12
-13.46805442634695
 22
12.70000000000004
 32
0.0
 13
-13.46805442634695
 23
12.70000000000004
 33
0.0
  0
SOLID
  5
57DC9
330
57D38
100
AcDbEntity
  8
sk2
100
AcDbTrace
 10
-14.05138775968029
 20
-9.199999999999985
 30
0.0
 11
-12.88472109301362
 21
-9.199999999999985
 31
0.0
 12
-13.46805442634696
 22
-12.69999999999998
 32
0.0
 13
-13.46805442634696
 23
-12.69999999999998
 33
0.0
  0
MTEXT
  5
57DCA
330
57D38
100
AcDbEntity
  8
sk2
100
AcDbMText
 10
-19.26805442634694
 20
-0.0000000331999667
 30
0.0
 40
3.5
 41
0.0
 71
     2
 72
     1
  1
\A1;%%c25.4
  7
simplex
 11
0.0000000000000001
 21
1.0
 31
0.0
 73
     1
 44
1.0
1001
ACAD
1000
MTEXTBEGIN
1070
    73
1070
     1
1070
    44
1040
1.0
1070
    74
1070
     0
1000
MTEXTEND
  0
POINT
  5
57DCB
330
57D38
100
AcDbEntity
  8
Defpoints
 62
     0
100
AcDbPoint
 10
1.199999999999988
 20
12.70000000000004
 30
0.0
  0
POINT
  5
57DCC
330
57D38
100
AcDbEntity
  8
Defpoints
 62
     0
100
AcDbPoint
 10
1.199999999999988
 20
-12.69999999999999
 30
0.0
  0
POINT
  5
57DCD
330
57D38
100
AcDbEntity
  8
Defpoints
 62
     0
100
AcDbPoint
 10
-13.46805442634696
 20
-12.69999999999998
 30
0.0
  0
ENDBLK
  5
57D43
330
57D38
100
AcDbEntity
  8
0
100
AcDbBlockEnd
  0
BLOCK
  5
5939A
330
5938F
100
AcDbEntity
  8
0
100
AcDbBlockBegin
  2
*D51
 70
     1
 10
0.0
 20
0.0
 30
0.0
  3
*D51
  1

  0
LINE
  5
5943F
330
5938F
100
AcDbEntity
  8
2
100
AcDbLine
 10
50.80000000000001
 20
24.01326328138018
 30
0.0
 11
50.80000000000001
 21
48.67382138283793
 31
0.0
  0
LINE
  5
59440
330
5938F
100
AcDbEntity
  8
2
100
AcDbLine
 10
35.30000000000001
 20
25.48749997869183
 30
0.0
 11
35.30000000000001
 21
48.67382138283793
 31
0.0
  0
LINE
  5
59441
330
5938F
100
AcDbEntity
  8
2
100
AcDbLine
 10
47.30000000000001
 20
47.17382138283793
 30
0.0
 11
38.80000000000001
 21
47.17382138283793
 31
0.0
  0
LINE
  5
59442
330
5938F
100
AcDbEntity
  8
2
100
AcDbLine
 10
35.30000000000001
 20
47.17382138283793
 30
0.0
 11
-19.25882952758372
 21
47.17382138283793
 31
0.0
  0
SOLID
  5
59443
330
5938F
100
AcDbEntity
  8
2
100
AcDbTrace
 10
47.30000000000001
 20
47.75715471617126
 30
0.0
 11
47.30000000000001
 21
46.59048804950459
 31
0.0
 12
50.80000000000001
 22
47.17382138283793
 32
0.0
 13
50.80000000000001
 23
47.17382138283793
 33
0.0
  0
SOLID
  5
59444
330
5938F
100
AcDbEntity
  8
2
100
AcDbTrace
 10
38.80000000000001
 20
47.75715471617126
 30
0.0
 11
38.80000000000001
 21
46.59048804950459
 31
0.0
 12
35.30000000000001
 22
47.17382138283793
 32
0.0
 13
35.30000000000001
 23
47.17382138283793
 33
0.0
  0
MTEXT
  5
59445
330
5938F
100
AcDbEntity
  8
2
100
AcDbMText
 10
5.499503805749611
 20
51.22382138283793
 30
0.0
 40
3.5
 41
0.0
 71
     5
 72
     1
  1
\A1;15.5 [.610"](MAX)
  7
simplex
 73
     1
 44
1.0
1001
ACAD
1000
MTEXTBEGIN
1070
    73
1070
     1
1070
    44
1040
1.0
1070
    74
1070
     0
1000
MTEXTEND
  0
POINT
  5
59446
330
5938F
100
AcDbEntity
  8
Defpoints
 62
     0
100
AcDbPoint
 10
50.80000000000001
 20
24.01326328138018
 30
0.0
  0
POINT
  5
59447
330
5938F
100
AcDbEntity
  8
Defpoints
 62
     0
100
AcDbPoint
 10
35.30000000000001
 20
25.48749997869183
 30
0.0
  0
POINT
  5
59448
330
5938F
100
AcDbEntity
  8
Defpoints
 62
     0
100
AcDbPoint
 10
35.30000000000001
 20
47.17382138283793
 30
0.0
  0
ENDBLK
  5
5939B
330
5938F
100
AcDbEntity
  8
0
100
AcDbBlockEnd
  0
BLOCK
  5
593A4
330
5939C
100
AcDbEntity
  8
0
100
AcDbBlockBegin
  2
*D52
 70
     1
 10
0.0
 20
0.0
 30
0.0
  3
*D52
  1

  0
LINE
  5
59415
330
5939C
100
AcDbEntity
  8
2
100
AcDbLine
 10
50.80000000000001
 20
25.40000000000002
 30
0.0
 11
75.00448268915056
 21
25.40000000000001
 31
0.0
  0
LINE
  5
59416
330
5939C
100
AcDbEntity
  8
2
100
AcDbLine
 10
73.50448268915056
 20
21.90000000000001
 30
0.0
 11
73.50448268915056
 21
-25.4
 31
0.0
  0
SOLID
  5
59417
330
5939C
100
AcDbEntity
  8
2
100
AcDbTrace
 10
72.92114935581723
 20
21.90000000000001
 30
0.0
 11
74.08781602248389
 21
21.90000000000001
 31
0.0
 12
73.50448268915056
 22
25.40000000000001
 32
0.0
 13
73.50448268915056
 23
25.40000000000001
 33
0.0
  0
MTEXT
  5
59418
330
5939C
100
AcDbEntity
  8
2
100
AcDbMText
 10
67.70448268915057
 20
-2.833333333299989
 30
0.0
 40
3.5
 41
0.0
 71
     2
 72
     1
  1
\A1;%%c50.8 [%%c2.000"]
  7
simplex
 11
0.0000000000000001
 21
1.0
 31
0.0
 73
     1
 44
1.0
1001
ACAD
1000
MTEXTBEGIN
1070
    73
1070
     1
1070
    44
1040
1.0
1070
    74
1070
     0
1000
MTEXTEND
  0
POINT
  5
59419
330
5939C
100
AcDbEntity
  8
Defpoints
 62
     0
100
AcDbPoint
 10
50.80000000000001
 20
25.40000000000002
 30
0.0
  0
POINT
  5
5941A
330
5939C
100
AcDbEntity
  8
Defpoints
 62
     0
100
AcDbPoint
 10
50.80000000000001
 20
-25.4
 30
0.0
  0
POINT
  5
5941B
330
5939C
100
AcDbEntity
  8
Defpoints
 62
     0
100
AcDbPoint
 10
73.50448268915056
 20
-25.4
 30
0.0
  0
ENDBLK
  5
593A5
330
5939C
100
AcDbEntity
  8
0
100
AcDbBlockEnd
  0
BLOCK
  5
593B0
330
593A6
100
AcDbEntity
  8
0
100
AcDbBlockBegin
  2
*D53
 70
     1
 10
0.0
 20
0.0
 30
0.0
  3
*D53
  1

  0
LINE
  5
5941C
330
593A6
100
AcDbEntity
  8
sk2
100
AcDbLine
 10
1.5
 20
22.22500000000001
 30
0.0
 11
-23.61593650858321
 21
22.22500000000001
 31
0.0
  0
LINE
  5
5941D
330
593A6
100
AcDbEntity
  8
sk2
100
AcDbLine
 10
1.5
 20
-22.22500000000001
 30
0.0
 11
-23.61593650858322
 21
-22.22500000000001
 31
0.0
  0
LINE
  5
5941E
330
593A6
100
AcDbEntity
  8
sk2
100
AcDbLine
 10
-22.11593650858322
 20
18.72500000000001
 30
0.0
 11
-22.11593650858322
 21
-18.725
 31
0.0
  0
SOLID
  5
5941F
330
593A6
100
AcDbEntity
  8
sk2
100
AcDbTrace
 10
-22.69926984191655
 20
18.72500000000001
 30
0.0
 11
-21.53260317524988
 21
18.72500000000001
 31
0.0
 12
-22.11593650858322
 22
22.22500000000001
 32
0.0
 13
-22.11593650858322
 23
22.22500000000001
 33
0.0
  0
SOLID
  5
59420
330
593A6
100
AcDbEntity
  8
sk2
100
AcDbTrace
 10
-22.69926984191656
 20
-18.725
 30
0.0
 11
-21.53260317524989
 21
-18.725
 31
0.0
 12
-22.11593650858322
 22
-22.22500000000001
 32
0.0
 13
-22.11593650858322
 23
-22.22500000000001
 33
0.0
  0
MTEXT
  5
59421
330
593A6
100
AcDbEntity
  8
sk2
100
AcDbMText
 10
-27.91593650858322
 20
0.0000000000000019
 30
0.0
 40
3.5
 41
0.0
 71
     2
 72
     1
  1
\A1;%%c44.45 [%%c1.750"]
  7
simplex
 11
0.0000000000000001
 21
1.0
 31
0.0
 73
     1
 44
1.0
1001
ACAD
1000
MTEXTBEGIN
1070
    73
1070
     1
1070
    44
1040
1.0
1070
    74
1070
     0
1000
MTEXTEND
  0
POINT
  5
59422
330
593A6
100
AcDbEntity
  8
Defpoints
 62
     0
100
AcDbPoint
 10
1.5
 20
22.22500000000001
 30
0.0
  0
POINT
  5
59423
330
593A6
100
AcDbEntity
  8
Defpoints
 62
     0
100
AcDbPoint
 10
1.5
 20
-22.22500000000001
 30
0.0
  0
POINT
  5
59424
330
593A6
100
AcDbEntity
  8
Defpoints
 62
     0
100
AcDbPoint
 10
-22.11593650858322
 20
-22.22500000000001
 30
0.0
  0
ENDBLK
  5
593B1
330
593A6
100
AcDbEntity
  8
0
100
AcDbBlockEnd
  0
BLOCK
  5
593BD
330
593B2
100
AcDbEntity
  8
0
100
AcDbBlockBegin
  2
*D54
 70
     1
 10
0.0
 20
0.0
 30
0.0
  3
*D54
  1

  0
LINE
  5
59425
330
593B2
100
AcDbEntity
  8
sk2
100
AcDbLine
 10
0.0
 20
-10.0
 30
0.0
 11
-0.0000000000000019
 21
-41.48930061769998
 31
0.0
  0
LINE
  5
59426
330
593B2
100
AcDbEntity
  8
sk2
100
AcDbLine
 10
19.0
 20
-9.199999999999988
 30
0.0
 11
19.0
 21
-41.48930061769998
 31
0.0
  0
LINE
  5
59427
330
593B2
100
AcDbEntity
  8
sk2
100
AcDbLine
 10
3.499999999999998
 20
-39.98930061769998
 30
0.0
 11
15.5
 21
-39.98930061769998
 31
0.0
  0
LINE
  5
59428
330
593B2
100
AcDbEntity
  8
sk2
100
AcDbLine
 10
19.0
 20
-39.98930061769998
 30
0.0
 11
53.93333333333334
 21
-39.98930061769998
 31
0.0
  0
SOLID
  5
59429
330
593B2
100
AcDbEntity
  8
sk2
100
AcDbTrace
 10
3.499999999999998
 20
-39.40596728436664
 30
0.0
 11
3.499999999999998
 21
-40.57263395103331
 31
0.0
 12
-0.0000000000000018
 22
-39.98930061769998
 32
0.0
 13
-0.0000000000000018
 23
-39.98930061769998
 33
0.0
  0
SOLID
  5
5942A
330
593B2
100
AcDbEntity
  8
sk2
100
AcDbTrace
 10
15.5
 20
-39.40596728436664
 30
0.0
 11
15.5
 21
-40.57263395103331
 31
0.0
 12
19.0
 22
-39.98930061769998
 32
0.0
 13
19.0
 23
-39.98930061769998
 33
0.0
  0
MTEXT
  5
5942B
330
593B2
100
AcDbEntity
  8
sk2
100
AcDbMText
 10
38.21666666666667
 20
-34.18930061769998
 30
0.0
 40
3.5
 41
0.0
 71
     2
 72
     1
  1
\A1;19 [.748"]
  7
simplex
 73
     1
 44
1.0
1001
ACAD
1000
MTEXTBEGIN
1070
    73
1070
     1
1070
    44
1040
1.0
1070
    74
1070
     0
1000
MTEXTEND
  0
POINT
  5
5942C
330
593B2
100
AcDbEntity
  8
Defpoints
 62
     0
100
AcDbPoint
 10
0.0
 20
-10.0
 30
0.0
  0
POINT
  5
5942D
330
593B2
100
AcDbEntity
  8
Defpoints
 62
     0
100
AcDbPoint
 10
19.0
 20
-9.199999999999988
 30
0.0
  0
POINT
  5
5942E
330
593B2
100
AcDbEntity
  8
Defpoints
 62
     0
100
AcDbPoint
 10
19.0
 20
-39.98930061769998
 30
0.0
  0
ENDBLK
  5
593BE
330
593B2
100
AcDbEntity
  8
0
100
AcDbBlockEnd
  0
BLOCK
  5
593C9
330
593BF
100
AcDbEntity
  8
0
100
AcDbBlockBegin
  2
*D55
 70
     1
 10
0.0
 20
0.0
 30
0.0
  3
*D55
  1

  0
LINE
  5
5942F
330
593BF
100
AcDbEntity
  8
2
100
AcDbLine
 10
50.80000000000001
 20
23.26222975426708
 30
0.0
 11
50.80000000000001
 21
64.46806399270092
 31
0.0
  0
LINE
  5
59430
330
593BF
100
AcDbEntity
  8
2
100
AcDbLine
 10
0.0
 20
19.73641255990742
 30
0.0
 11
0.0000000000000027
 21
64.46806399270092
 31
0.0
  0
LINE
  5
59431
330
593BF
100
AcDbEntity
  8
2
100
AcDbLine
 10
47.30000000000001
 20
62.96806399270092
 30
0.0
 11
3.500000000000002
 21
62.96806399270092
 31
0.0
  0
SOLID
  5
59432
330
593BF
100
AcDbEntity
  8
2
100
AcDbTrace
 10
47.30000000000001
 20
63.55139732603426
 30
0.0
 11
47.30000000000001
 21
62.38473065936759
 31
0.0
 12
50.80000000000001
 22
62.96806399270092
 32
0.0
 13
50.80000000000001
 23
62.96806399270092
 33
0.0
  0
SOLID
  5
59433
330
593BF
100
AcDbEntity
  8
2
100
AcDbTrace
 10
3.500000000000002
 20
63.55139732603426
 30
0.0
 11
3.500000000000002
 21
62.38473065936759
 31
0.0
 12
0.0000000000000026
 22
62.96806399270092
 32
0.0
 13
0.0000000000000026
 23
62.96806399270092
 33
0.0
  0
MTEXT
  5
59434
330
593BF
100
AcDbEntity
  8
2
100
AcDbMText
 10
25.40000000000004
 20
68.76806399270091
 30
0.0
 40
3.5
 41
0.0
 71
     2
 72
     1
  1
\A1;50.8 [2.000"]
  7
simplex
 73
     1
 44
1.0
1001
ACAD
1000
MTEXTBEGIN
1070
    73
1070
     1
1070
    44
1040
1.0
1070
    74
1070
     0
1000
MTEXTEND
  0
POINT
  5
59435
330
593BF
100
AcDbEntity
  8
Defpoints
 62
     0
100
AcDbPoint
 10
50.80000000000001
 20
23.26222975426708
 30
0.0
  0
POINT
  5
59436
330
593BF
100
AcDbEntity
  8
Defpoints
 62
     0
100
AcDbPoint
 10
0.0
 20
19.73641255990742
 30
0.0
  0
POINT
  5
59437
330
593BF
100
AcDbEntity
  8
Defpoints
 62
     0
100
AcDbPoint
 10
0.0000000000000026
 20
62.96806399270092
 30
0.0
  0
ENDBLK
  5
593CA
330
593BF
100
AcDbEntity
  8
0
100
AcDbBlockEnd
  0
BLOCK
  5
593D3
330
593CB
100
AcDbEntity
  8
0
100
AcDbBlockBegin
  2
*D56
 70
     1
 10
0.0
 20
0.0
 30
0.0
  3
*D56
  1

  0
LINE
  5
59452
330
593CB
100
AcDbEntity
  8
2
100
AcDbLine
 10
78.98217072632945
 20
60.4570544741896
 30
0.0
 11
52.83208289089494
 21
27.67630782858215
 31
0.0
  0
MTEXT
  5
59453
330
593CB
100
AcDbEntity
  8
2
100
AcDbMText
 10
63.83242004702158
 20
47.96034162109946
 30
0.0
 40
3.5
 41
0.0
 71
     5
 72
     1
  1
\A1;R0.4 [R.016"]
  7
simplex
 11
0.6236109976653698
 21
0.7817348166679045
 31
0.0
 73
     1
 44
1.0
1001
ACAD
1000
MTEXTBEGIN
1070
    73
1070
     1
1070
    44
1040
1.0
1070
    74
1070
     0
1000
MTEXTEND
  0
SOLID
  5
59454
330
593CB
100
AcDbEntity
  8
2
100
AcDbTrace
 10
52.37607091450533
 20
28.04008091055361
 30
0.0
 11
53.28809486728456
 21
27.31253474661068
 31
0.0
 12
50.64944439906614
 22
24.94023597024448
 32
0.0
 13
50.64944439906614
 23
24.94023597024448
 33
0.0
  0
LINE
  5
59455
330
593CB
100
AcDbEntity
  8
2
100
AcDbLine
 10
50.31
 20
24.62754204357732
 30
0.0
 11
50.49000000000001
 21
24.62754204357732
 31
0.0
  0
LINE
  5
59456
330
593CB
100
AcDbEntity
  8
2
100
AcDbLine
 10
50.4
 20
24.53754204357732
 30
0.0
 11
50.4
 21
24.71754204357732
 31
0.0
  0
POINT
  5
59457
330
593CB
100
AcDbEntity
  8
Defpoints
 62
     0
100
AcDbPoint
 10
50.64944439906614
 20
24.94023597024448
 30
0.0
  0
POINT
  5
59458
330
593CB
100
AcDbEntity
  8
Defpoints
 62
     0
100
AcDbPoint
 10
50.4
 20
24.62754204357732
 30
0.0
  0
ENDBLK
  5
593D4
330
593CB
100
AcDbEntity
  8
0
100
AcDbBlockEnd
  0
BLOCK
  5
593E9
330
593DF
100
AcDbEntity
  8
0
100
AcDbBlockBegin
  2
*D57
 70
     1
 10
0.0
 20
0.0
 30
0.0
  3
*D57
  1

  0
LINE
  5
59449
330
593DF
100
AcDbEntity
  8
sk2
100
AcDbLine
 10
1.199999999999988
 20
-9.524999999999977
 30
0.0
 11
-10.58373594029768
 21
-9.524999999999975
 31
0.0
  0
LINE
  5
5944A
330
593DF
100
AcDbEntity
  8
sk2
100
AcDbLine
 10
1.199999999999988
 20
9.525000000000034
 30
0.0
 11
-10.58373594029768
 21
9.525000000000035
 31
0.0
  0
LINE
  5
5944B
330
593DF
100
AcDbEntity
  8
sk2
100
AcDbLine
 10
-9.083735940297687
 20
-6.024999999999975
 30
0.0
 11
-9.083735940297684
 21
6.025000000000035
 31
0.0
  0
SOLID
  5
5944C
330
593DF
100
AcDbEntity
  8
sk2
100
AcDbTrace
 10
-9.667069273631021
 20
-6.024999999999975
 30
0.0
 11
-8.500402606964353
 21
-6.024999999999975
 31
0.0
 12
-9.083735940297687
 22
-9.524999999999975
 32
0.0
 13
-9.083735940297687
 23
-9.524999999999975
 33
0.0
  0
SOLID
  5
5944D
330
593DF
100
AcDbEntity
  8
sk2
100
AcDbTrace
 10
-9.667069273631017
 20
6.025000000000035
 30
0.0
 11
-8.50040260696435
 21
6.025000000000035
 31
0.0
 12
-9.083735940297684
 22
9.525000000000035
 32
0.0
 13
-9.083735940297684
 23
9.525000000000035
 33
0.0
  0
MTEXT
  5
5944E
330
593DF
100
AcDbEntity
  8
sk2
100
AcDbMText
 10
-13.13373594029768
 20
0.0000000000000295
 30
0.0
 40
3.5
 41
0.0
 71
     5
 72
     1
  1
\A1;%%C19.05 [%%c.750"]
  7
simplex
 11
0.0000000000000001
 21
1.0
 31
0.0
 73
     1
 44
1.0
1001
ACAD
1000
MTEXTBEGIN
1070
    73
1070
     1
1070
    44
1040
1.0
1070
    74
1070
     0
1000
MTEXTEND
  0
POINT
  5
5944F
330
593DF
100
AcDbEntity
  8
Defpoints
 62
     0
100
AcDbPoint
 10
1.199999999999988
 20
-9.524999999999977
 30
0.0
  0
POINT
  5
59450
330
593DF
100
AcDbEntity
  8
Defpoints
 62
     0
100
AcDbPoint
 10
1.199999999999988
 20
9.525000000000034
 30
0.0
  0
POINT
  5
59451
330
593DF
100
AcDbEntity
  8
Defpoints
 62
     0
100
AcDbPoint
 10
-9.083735940297684
 20
9.525000000000035
 30
0.0
  0
ENDBLK
  5
593EA
330
593DF
100
AcDbEntity
  8
0
100
AcDbBlockEnd
  0
ENDSEC
  0
SECTION
  2
ENTITIES
  0
INSERT
  5
68C
330
1F
100
AcDbEntity
  8
0
100
AcDbBlockReference
  2
zero block
 10
0.0000000000000072
 20
0.0
 30
0.0
 50
180.0
  0
MTEXT
  5
591D7
330
1F
100
AcDbEntity
  8
sk6
100
AcDbMText
 10
-6.787573626048242
 20
85.56344173989794
 30
0.0
 40
5.0
 41
70.03712541027798
 71
     1
 72
     5
  1
AXD4000UR0202A
  7
simplex
 73
     1
 44
1.0
1001
ACAD
1000
ACAD_MTEXT_DEFINED_HEIGHT_BEGIN
1070
    46
1040
0.0
1000
ACAD_MTEXT_DEFINED_HEIGHT_END
1000
MTEXTBEGIN
1070
    73
1070
     1
1070
    44
1040
1.0
1070
    74
1070
     0
1000
MTEXTEND
  0
DIMENSION
  5
591D8
330
1F
100
AcDbEntity
  8
2
100
AcDbDimension
  2
*D52
 10
73.50448268915056
 20
-25.4
 30
0.0
 11
73.50448268915056
 21
-2.833333333299989
 31
0.0
 70
   160
  1
%%c<>
 71
     2
 42
50.80000000000001
  3
\M+18352\M+18373\M+1815B - ISO-25
100
AcDbAlignedDimension
 13
50.80000000000001
 23
25.40000000000002
 33
0.0
 14
50.80000000000001
 24
-25.4
 34
0.0
 50
270.0
100
AcDbRotatedDimension
1001
ACAD
1000
DSTYLE
1002
{
1070
    76
1070
     1
1070
   344
1005
32F1
1070
     4
1000
%%c[]"
1070
   285
1070
     4
1070
   143
1040
0.03937
1070
   171
1070
     3
1070
   170
1070
     1
1070
    40
1040
1.0
1070
    75
1070
     0
1070
   173
1070
     1
1070
   271
1070
     8
1070
   343
1005
0
1002
}
  0
DIMENSION
  5
591D9
330
1F
100
AcDbEntity
  8
sk2
100
AcDbDimension
  2
*D53
 10
-22.11593650858322
 20
-22.22500000000001
 30
0.0
 11
-22.11593650858322
 21
0.0000000000000014
 31
0.0
 70
   160
  1
%%c<>
 71
     2
 42
44.45000000000002
  3
\M+18352\M+18373\M+1815B - ISO-25
100
AcDbAlignedDimension
 13
1.5
 23
22.22500000000001
 33
0.0
 14
1.5
 24
-22.22500000000001
 34
0.0
 50
270.0
100
AcDbRotatedDimension
1001
ACAD
1000
DSTYLE
1002
{
1070
     4
1000
%%c[]"
1070
   285
1070
     4
1070
   143
1040
0.03937
1070
   171
1070
     3
1070
   170
1070
     1
1070
    40
1040
1.0
1070
   271
1070
     8
1002
}
  0
DIMENSION
  5
591DA
330
1F
100
AcDbEntity
  8
sk2
100
AcDbDimension
  2
*D54
 10
19.0
 20
-39.98930061769998
 30
0.0
 11
38.21666666666667
 21
-39.98930061769998
 31
0.0
 70
   160
 71
     2
 42
19.0
  3
\M+18352\M+18373\M+1815B - ISO-25
100
AcDbAlignedDimension
 13
0.0
 23
-10.0
 33
0.0
 14
19.0
 24
-9.199999999999988
 34
0.0
100
AcDbRotatedDimension
1001
ACAD
1000
DSTYLE
1002
{
1070
   271
1070
     8
1070
     4
1000
"
1070
   285
1070
     4
1070
   143
1040
0.03937
1070
   171
1070
     3
1070
   170
1070
     1
1070
    40
1040
1.0
1002
}
  0
DIMENSION
  5
591DB
330
1F
100
AcDbEntity
  8
2
100
AcDbDimension
  2
*D55
 10
0.0000000000000026
 20
62.96806399270092
 30
0.0
 11
25.40000000000004
 21
62.96806399270092
 31
0.0
 70
   160
 71
     2
 42
50.80000000000001
  3
\M+18352\M+18373\M+1815B - ISO-25
100
AcDbAlignedDimension
 13
50.80000000000001
 23
23.26222975426708
 33
0.0
 14
0.0
 24
19.73641255990742
 34
0.0
 50
180.0
100
AcDbRotatedDimension
1001
ACAD
1000
DSTYLE
1002
{
1070
     4
1000
"
1070
   285
1070
     4
1070
   143
1040
0.03937
1070
   171
1070
     3
1070
   170
1070
     1
1070
    40
1040
1.0
1070
   271
1070
     8
1002
}
  0
LINE
  5
591DC
330
1F
100
AcDbEntity
  8
1
100
AcDbLine
 10
50.69434790859998
 20
-22.5102368612
 30
0.0
 11
49.7704859687
 21
-22.99781136009999
 31
0.0
  0
LINE
  5
591DD
330
1F
100
AcDbEntity
  8
1
100
AcDbLine
 10
49.87603734550001
 20
-23.75003335149999
 30
0.0
 11
36.0035657821
 21
-24.1189007281
 31
0.0
  0
LINE
  5
591DE
330
1F
100
AcDbEntity
  8
1
100
AcDbLine
 10
25.8816349036
 20
-24.2854529461
 30
0.0
 11
30.3892744991
 21
-24.28545294610001
 31
0.0
  0
LINE
  5
591DF
330
1F
100
AcDbEntity
  8
1
100
AcDbLine
 10
18.67481750399997
 20
-21.9832747912
 30
0.0
 11
18.86242617019997
 21
-22.05155876139999
 31
0.0
  0
LINE
  5
591E0
330
1F
100
AcDbEntity
  8
1
100
AcDbLine
 10
34.40075019400001
 20
-25.22936216750002
 30
0.0
 11
36.0035657821
 21
-24.1189007281
 31
0.0
  0
LINE
  5
591E1
330
1F
100
AcDbEntity
  8
1
100
AcDbLine
 10
34.0603115431
 20
-25.36534691670001
 30
0.0
 11
34.40075019400001
 21
-25.22936216750002
 31
0.0
  0
LINE
  5
591E2
330
1F
100
AcDbEntity
  8
1
100
AcDbLine
 10
34.0127822046
 20
-25.3834492244
 30
0.0
 11
34.0603115431
 21
-25.36534691670001
 31
0.0
  0
LINE
  5
591E3
330
1F
100
AcDbEntity
  8
1
100
AcDbLine
 10
1.5
 20
-22.22500000000001
 30
0.0
 11
14.0
 21
-22.22500000000001
 31
0.0
  0
LINE
  5
591E4
330
1F
100
AcDbEntity
  8
1
100
AcDbLine
 10
50.42394644079997
 20
-25.02682829779998
 30
0.0
 11
50.41175178859996
 21
-25.024572577
 31
0.0
  0
LINE
  5
591E5
330
1F
100
AcDbEntity
  8
1
100
AcDbLine
 10
33.11959101820003
 20
-24.85980979780001
 30
0.0
 11
34.0127821996
 21
-25.38344922629999
 31
0.0
  0
LINE
  5
591E6
330
1F
100
AcDbEntity
  8
1
100
AcDbLine
 10
50.80000000000001
 20
-22.91018370840001
 30
0.0
 11
50.80000000000001
 21
-24.6272400674
 31
0.0
  0
LINE
  5
591E7
330
1F
100
AcDbEntity
  8
1
100
AcDbLine
 10
50.80000000000001
 20
22.91018370850002
 30
0.0
 11
50.80000000000001
 21
24.62754204357732
 31
0.0
  0
LINE
  5
591E8
330
1F
100
AcDbEntity
  8
1
100
AcDbLine
 10
33.152301303
 20
-24.37079274449998
 30
0.0
 11
32.81337728969999
 21
-24.57789180740002
 31
0.0
  0
LINE
  5
591E9
330
1F
100
AcDbEntity
  8
1
100
AcDbLine
 10
35.4866062639
 20
-23.8158296809
 30
0.0
 11
36.0035657821
 21
-24.1189007281
 31
0.0
  0
LINE
  5
591EA
330
1F
100
AcDbEntity
  8
1
100
AcDbLine
 10
0.0
 20
4.470000000000013
 30
0.0
 11
0.5
 21
3.970000000000013
 31
0.0
  0
LINE
  5
591EB
330
1F
100
AcDbEntity
  8
1
100
AcDbLine
 10
49.87603734550001
 20
-23.75003335149999
 30
0.0
 11
49.87603734550001
 21
-23.39781136010001
 31
0.0
  0
LINE
  5
591EC
330
1F
100
AcDbEntity
  8
1
100
AcDbLine
 10
48.79206629559999
 20
-20.4662064022
 30
0.0
 11
48.79206629559999
 21
-22.1310588627
 31
0.0
  0
LINE
  5
591ED
330
1F
100
AcDbEntity
  8
1
100
AcDbLine
 10
48.772062559
 20
-22.21817467460001
 30
0.0
 11
48.772062559
 21
-21.2803069955
 31
0.0
  0
LINE
  5
591EE
330
1F
100
AcDbEntity
  8
1
100
AcDbLine
 10
48.1049850842
 20
-22.28012925189998
 30
0.0
 11
48.1049850842
 21
-23.5913322002
 31
0.0
  0
LINE
  5
591EF
330
1F
100
AcDbEntity
  8
1
100
AcDbLine
 10
47.9336391141
 20
-23.7026101943
 30
0.0
 11
47.9336391141
 21
-22.21793099820001
 31
0.0
  0
LINE
  5
591F0
330
1F
100
AcDbEntity
  8
1
100
AcDbLine
 10
47.23305009590001
 20
16.93425989649998
 30
0.0
 11
47.23305009590001
 21
13.5463037216
 31
0.0
  0
LINE
  5
591F1
330
1F
100
AcDbEntity
  8
1
100
AcDbLine
 10
33.152301303
 20
-24.37079274449998
 30
0.0
 11
33.21654552920001
 21
-24.25697668730001
 31
0.0
  0
LINE
  5
591F2
330
1F
100
AcDbEntity
  8
1
100
AcDbLine
 10
33.42519473750002
 20
-23.8873305474
 30
0.0
 11
33.42877672989999
 21
-23.88098463449999
 31
0.0
  0
LINE
  5
591F3
330
1F
100
AcDbEntity
  8
1
100
AcDbLine
 10
32.59922766720001
 20
-24.2746328841
 30
0.0
 11
32.81337728969999
 21
-24.57789180740002
 31
0.0
  0
LINE
  5
591F4
330
1F
100
AcDbEntity
  8
1
100
AcDbLine
 10
44.19737849509997
 20
13.57724182789997
 30
0.0
 11
44.19737849509997
 21
15.11569443860001
 31
0.0
  0
LINE
  5
591F5
330
1F
100
AcDbEntity
  8
1
100
AcDbLine
 10
50.67834758820001
 20
22.48287519360001
 30
0.0
 11
50.3996498214
 21
22.01018370899999
 31
0.0
  0
LINE
  5
591F6
330
1F
100
AcDbEntity
  8
1
100
AcDbLine
 10
4.75999999999999
 20
-3.970000000000013
 30
0.0
 11
0.5
 21
-3.970000000000013
 31
0.0
  0
LINE
  5
591F7
330
1F
100
AcDbEntity
  8
1
100
AcDbLine
 10
35.14576677029999
 20
-1.06881938710002
 30
0.0
 11
35.14576677029999
 21
-23.8146561674
 31
0.0
  0
LINE
  5
591F8
330
1F
100
AcDbEntity
  8
1
100
AcDbLine
 10
50.22866230750003
 20
21.72849799780001
 30
0.0
 11
46.63466249269996
 21
15.9765883276
 31
0.0
  0
LINE
  5
591F9
330
1F
100
AcDbEntity
  8
1
100
AcDbLine
 10
26.14508713879997
 20
-1.06881938710002
 30
0.0
 11
35.14576677029999
 21
-1.06881938710002
 31
0.0
  0
LINE
  5
591FA
330
1F
100
AcDbEntity
  8
4
100
AcDbLine
 10
51.79206629559999
 20
0.0000000000000142
 30
0.0
 11
-3.0
 21
0.0000000000000142
 31
0.0
  0
LINE
  5
591FB
330
1F
100
AcDbEntity
  8
1
100
AcDbLine
 10
28.83163930019998
 20
24.28389981919999
 30
0.0
 11
28.83163930019998
 21
19.27982246450001
 31
0.0
  0
LINE
  5
591FC
330
1F
100
AcDbEntity
  8
1
100
AcDbLine
 10
28.14942168070002
 20
17.64429642649998
 30
0.0
 11
28.14942168070002
 21
15.92724006750001
 31
0.0
  0
LINE
  5
591FD
330
1F
100
AcDbEntity
  8
1
100
AcDbLine
 10
0.5
 20
3.970000000000013
 30
0.0
 11
4.75999999999999
 21
3.970000000000013
 31
0.0
  0
LINE
  5
591FE
330
1F
100
AcDbEntity
  8
1
100
AcDbLine
 10
50.22866230750003
 20
-21.72849799780002
 30
0.0
 11
48.28485751359997
 21
-18.61759366629998
 31
0.0
  0
LINE
  5
591FF
330
1F
100
AcDbEntity
  8
1
100
AcDbLine
 10
50.67834758820001
 20
-22.48287519349999
 30
0.0
 11
50.3996498214
 21
-22.01018370889999
 31
0.0
  0
LINE
  5
59200
330
1F
100
AcDbEntity
  8
1
100
AcDbLine
 10
49.7704859687
 20
-22.99781136009999
 30
0.0
 11
48.79206629559999
 21
-21.276995719
 31
0.0
  0
LINE
  5
59201
330
1F
100
AcDbEntity
  8
1
100
AcDbLine
 10
25.8816349036
 20
-1.064924292899988
 30
0.0
 11
25.8816349036
 21
-24.2854529461
 31
0.0
  0
LINE
  5
59202
330
1F
100
AcDbEntity
  8
1
100
AcDbLine
 10
27.9576792364
 20
13.58103480039999
 30
0.0
 11
26.14508713879997
 21
-1.06881938710002
 31
0.0
  0
LINE
  5
59203
330
1F
100
AcDbEntity
  8
1
100
AcDbLine
 10
46.3426593691
 20
15.69467033719998
 30
0.0
 11
45.44946818769995
 21
15.17103090870002
 31
0.0
  0
LINE
  5
59204
330
1F
100
AcDbEntity
  8
1
100
AcDbLine
 10
50.2834204028
 20
-24.53168512179998
 30
0.0
 11
49.87603734550001
 21
-23.75003335149999
 31
0.0
  0
LINE
  5
59205
330
1F
100
AcDbEntity
  8
1
100
AcDbLine
 10
24.17153418690003
 20
-23.9835469842
 30
0.0
 11
24.17153418690003
 21
-0.5434690873999984
 31
0.0
  0
LINE
  5
59206
330
1F
100
AcDbEntity
  8
1
100
AcDbLine
 10
18.67481750399997
 20
-21.9832747912
 30
0.0
 11
18.67481750399997
 21
6.766746387000026
 31
0.0
  0
LINE
  5
59207
330
1F
100
AcDbEntity
  8
1
100
AcDbLine
 10
28.82499571279999
 20
19.19333602780001
 30
0.0
 11
29.53687283250003
 21
20.44536449360002
 31
0.0
  0
LINE
  5
59208
330
1F
100
AcDbEntity
  8
1
100
AcDbLine
 10
28.78170633269997
 20
19.19333602780001
 30
0.0
 11
28.83163930019998
 21
19.27982246450001
 31
0.0
  0
LINE
  5
59209
330
1F
100
AcDbEntity
  8
1
100
AcDbLine
 10
29.53687283250003
 20
20.44536449360002
 30
0.0
 11
28.83163930019998
 21
19.27982246450001
 31
0.0
  0
LINE
  5
5920A
330
1F
100
AcDbEntity
  8
1
100
AcDbLine
 10
28.27190384800002
 20
18.07160494149998
 30
0.0
 11
28.50636574604522
 21
18.44978021260027
 31
0.0
  0
LINE
  5
5920B
330
1F
100
AcDbEntity
  8
1
100
AcDbLine
 10
28.50636574604522
 20
18.44978021260027
 30
0.0
 11
28.5649641064
 21
18.54429642610002
 31
0.0
  0
LINE
  5
5920C
330
1F
100
AcDbEntity
  8
1
100
AcDbLine
 10
28.26007582440002
 20
13.57724225189999
 30
0.0
 11
45.21622731919999
 21
13.57724165569999
 31
0.0
  0
LINE
  5
5920D
330
1F
100
AcDbEntity
  8
1
100
AcDbLine
 10
28.75160304299999
 20
18.8259821372
 30
0.0
 11
32.81337728969999
 21
24.57789180750001
 31
0.0
  0
LINE
  5
5920E
330
1F
100
AcDbEntity
  8
1
100
AcDbLine
 10
30.5184705854
 20
15.22461291430001
 30
0.0
 11
30.72999292769998
 21
15.22461291430001
 31
0.0
  0
LINE
  5
5920F
330
1F
100
AcDbEntity
  8
1
100
AcDbLine
 10
30.72999292769998
 20
15.22461291430001
 30
0.0
 11
44.08046167480001
 21
14.86962553080001
 31
0.0
  0
LINE
  5
59210
330
1F
100
AcDbEntity
  8
1
100
AcDbLine
 10
14.0
 20
-22.22500000000001
 30
0.0
 11
14.0
 21
22.22500000000001
 31
0.0
  0
LINE
  5
59211
330
1F
100
AcDbEntity
  8
1
100
AcDbLine
 10
28.82499571279999
 20
19.19333602780001
 30
0.0
 11
28.78170633269997
 21
19.19333602780001
 31
0.0
  0
LINE
  5
59212
330
1F
100
AcDbEntity
  8
1
100
AcDbLine
 10
0.5
 20
-3.970000000000013
 30
0.0
 11
0.0
 21
-4.470000000000013
 31
0.0
  0
LINE
  5
59213
330
1F
100
AcDbEntity
  8
1
100
AcDbLine
 10
33.11959101820003
 20
24.85980979789997
 30
0.0
 11
34.0127821996
 21
25.38344922639999
 31
0.0
  0
LINE
  5
59214
330
1F
100
AcDbEntity
  8
1
100
AcDbLine
 10
1.5
 20
22.22500000000001
 30
0.0
 11
14.0
 21
22.22500000000001
 31
0.0
  0
LINE
  5
59215
330
1F
100
AcDbEntity
  8
1
100
AcDbLine
 10
4.75999999999999
 20
3.970000000000013
 30
0.0
 11
4.75999999999999
 21
-3.970000000000013
 31
0.0
  0
LINE
  5
59216
330
1F
100
AcDbEntity
  8
1
100
AcDbLine
 10
1.5
 20
-22.22500000000001
 30
0.0
 11
1.5
 21
-3.970000000000013
 31
0.0
  0
LINE
  5
59217
330
1F
100
AcDbEntity
  8
1
100
AcDbLine
 10
1.5
 20
3.970000000000013
 30
0.0
 11
1.5
 21
22.22500000000001
 31
0.0
  0
LINE
  5
59218
330
1F
100
AcDbEntity
  8
1
100
AcDbLine
 10
0.0
 20
-20.72499714500002
 30
0.0
 11
0.0
 21
-4.470000000000013
 31
0.0
  0
LINE
  5
59219
330
1F
100
AcDbEntity
  8
1
100
AcDbLine
 10
0.0
 20
4.470000000000013
 30
0.0
 11
0.0
 21
20.72499714510001
 31
0.0
  0
LINE
  5
5921A
330
1F
100
AcDbEntity
  8
sk3
100
AcDbLine
 10
10.98135912569995
 20
-9.525000186599982
 30
0.0
 11
11.99999990859999
 21
-10.00000019589998
 31
0.0
  0
LINE
  5
5921B
330
1F
100
AcDbEntity
  8
nocut
100
AcDbLine
 10
48.79206629550001
 20
-0.0000000000499938
 30
0.0
 11
48.79206629550001
 21
22.1548356624001
 31
0.0
  0
LINE
  5
5921C
330
1F
100
AcDbEntity
  8
sk3
100
AcDbLine
 10
1.200000160699971
 20
9.525000160700017
 30
0.0
 11
0.0
 21
10.72500036210005
 31
0.0
  0
LINE
  5
5921D
330
1F
100
AcDbEntity
  8
sk3
100
AcDbLine
 10
43.73305009589995
 20
13.86406384120005
 30
0.0
 11
43.73305009589995
 21
-13.86406384119999
 31
0.0
  0
LINE
  5
5921E
330
1F
100
AcDbEntity
  8
sk3
100
AcDbLine
 10
42.73305009589996
 20
8.0
 30
0.0
 11
42.73305009589996
 21
-8.0
 31
0.0
  0
LINE
  5
5921F
330
1F
100
AcDbEntity
  8
sk3
100
AcDbLine
 10
12.0
 20
-10.0
 30
0.0
 11
18.19999999999999
 21
-10.0
 31
0.0
  0
LINE
  5
59220
330
1F
100
AcDbEntity
  8
sk3
100
AcDbLine
 10
1.199999999999988
 20
-9.524999999999977
 30
0.0
 11
10.9813592127
 21
-9.524999999999977
 31
0.0
  0
LINE
  5
59221
330
1F
100
AcDbEntity
  8
sk3
100
AcDbLine
 10
34.39999999999998
 20
-8.0
 30
0.0
 11
42.73305009589996
 21
-8.0
 31
0.0
  0
LINE
  5
59222
330
1F
100
AcDbEntity
  8
sk3
100
AcDbLine
 10
19.39999999999997
 20
-5.25
 30
0.0
 11
33.5
 21
-5.25
 31
0.0
  0
LINE
  5
59223
330
1F
100
AcDbEntity
  8
sk3
100
AcDbLine
 10
34.0
 20
7.600000000000022
 30
0.0
 11
34.0
 21
-7.599999999999965
 31
0.0
  0
LINE
  5
59224
330
1F
100
AcDbEntity
  8
sk3
100
AcDbLine
 10
33.5
 20
5.25
 30
0.0
 11
33.5
 21
-5.25
 31
0.0
  0
LINE
  5
59225
330
1F
100
AcDbEntity
  8
sk3
100
AcDbLine
 10
47.23305009589995
 20
18.78370791569999
 30
0.0
 11
48.7655498515
 21
21.45527045680001
 31
0.0
  0
LINE
  5
59226
330
1F
100
AcDbEntity
  8
sk3
100
AcDbLine
 10
42.73305001499994
 20
8.00000008080002
 30
0.0
 11
43.73305000490001
 21
9.00000009100006
 31
0.0
  0
LINE
  5
59227
330
1F
100
AcDbEntity
  8
nocut
100
AcDbLine
 10
48.79206629550001
 20
0.0
 30
0.0
 11
0.0
 21
0.0
 31
0.0
  0
LINE
  5
59228
330
1F
100
AcDbEntity
  8
sk3
100
AcDbLine
 10
33.50000011380001
 20
-5.249999886199987
 30
0.0
 11
34.00000012459998
 21
-5.749999875399964
 31
0.0
  0
LINE
  5
59229
330
1F
100
AcDbEntity
  8
sk3
100
AcDbLine
 10
44.19737849499995
 20
15.14535722449999
 30
0.0
 11
47.23305009589995
 21
18.78370791569999
 31
0.0
  0
LINE
  5
5922A
330
1F
100
AcDbEntity
  8
sk3
100
AcDbLine
 10
42.73305001499994
 20
-8.000000080900008
 30
0.0
 11
43.73305000490001
 21
-9.000000090999947
 31
0.0
  0
LINE
  5
5922B
330
1F
100
AcDbEntity
  8
sk3
100
AcDbLine
 10
44.19737849499995
 20
-15.14535722459999
 30
0.0
 11
47.23305009589995
 21
-18.78370791579994
 31
0.0
  0
LINE
  5
5922C
330
1F
100
AcDbEntity
  8
sk3
100
AcDbLine
 10
33.50000011380001
 20
5.249999886099992
 30
0.0
 11
34.00000012459998
 21
5.749999875300034
 31
0.0
  0
LINE
  5
5922D
330
1F
100
AcDbEntity
  8
sk3
100
AcDbLine
 10
19.39999999999997
 20
5.25
 30
0.0
 11
33.5
 21
5.25
 31
0.0
  0
LINE
  5
5922E
330
1F
100
AcDbEntity
  8
sk3
100
AcDbLine
 10
47.23305009589995
 20
-18.78370791579994
 30
0.0
 11
48.7655498515
 21
-21.4552704569
 31
0.0
  0
LINE
  5
5922F
330
1F
100
AcDbEntity
  8
sk3
100
AcDbLine
 10
34.39999999999998
 20
8.0
 30
0.0
 11
42.73305009589996
 21
8.0
 31
0.0
  0
LINE
  5
59230
330
1F
100
AcDbEntity
  8
sk3
100
AcDbLine
 10
1.199999999999988
 20
9.525000000000034
 30
0.0
 11
10.9813592127
 21
9.525000000000034
 31
0.0
  0
LINE
  5
59231
330
1F
100
AcDbEntity
  8
sk3
100
AcDbLine
 10
12.0
 20
10.0
 30
0.0
 11
18.19999999999999
 21
10.0
 31
0.0
  0
LINE
  5
59232
330
1F
100
AcDbEntity
  8
sk3
100
AcDbLine
 10
19.0
 20
9.199999999999988
 30
0.0
 11
19.0
 21
-9.199999999999988
 31
0.0
  0
LINE
  5
59233
330
1F
100
AcDbEntity
  8
sk3
100
AcDbLine
 10
1.200000160699971
 20
-9.525000160799947
 30
0.0
 11
0.0
 21
-10.72500036209999
 31
0.0
  0
LINE
  5
59234
330
1F
100
AcDbEntity
  8
sk3
100
AcDbLine
 10
10.98135912569995
 20
9.525000186500051
 30
0.0
 11
11.99999990859999
 21
10.00000019580005
 31
0.0
  0
LINE
  5
59235
330
1F
100
AcDbEntity
  8
sk3
100
AcDbLine
 10
12.0
 20
10.0
 30
0.0
 11
12.0
 21
-10.0
 31
0.0
  0
LINE
  5
59236
330
1F
100
AcDbEntity
  8
sk3
100
AcDbLine
 10
10.9813592127
 20
9.525000000000034
 30
0.0
 11
10.9813592127
 21
-9.524999999999977
 31
0.0
  0
LINE
  5
59237
330
1F
100
AcDbEntity
  8
nocut
100
AcDbLine
 10
1.5
 20
22.225
 30
0.0
 11
14.0
 21
22.225
 31
0.0
  0
LINE
  5
59238
330
1F
100
AcDbEntity
  8
nocut
100
AcDbLine
 10
25.88163490350002
 20
24.28545294609998
 30
0.0
 11
35.1457667702
 21
24.28545294609998
 31
0.0
  0
LINE
  5
59239
330
1F
100
AcDbEntity
  8
nocut
100
AcDbLine
 10
35.1457667702
 20
24.28545294609998
 30
0.0
 11
47.93363911400001
 21
23.73184065629998
 31
0.0
  0
LINE
  5
5923A
330
1F
100
AcDbEntity
  8
nocut
100
AcDbLine
 10
18.67481750390001
 20
21.98327479119999
 30
0.0
 11
24.17153418690001
 21
23.98391605
 31
0.0
  0
LINE
  5
5923B
330
1F
100
AcDbEntity
  8
nocut
100
AcDbLine
 10
48.10498508420002
 20
23.6192135064
 30
0.0
 11
48.77206255890001
 21
22.24202135600007
 31
0.0
  0
LINE
  5
5923C
102
{ACAD_REACTORS
330
5938E
102
}
330
1F
100
AcDbEntity
  8
sk3
100
AcDbLine
 10
1.199999999999988
 20
9.525000000000034
 30
0.0
 11
1.200000321499999
 21
3.970000000000027
 31
0.0
  0
LINE
  5
5923D
102
{ACAD_REACTORS
330
5938E
102
}
330
1F
100
AcDbEntity
  8
sk3
100
AcDbLine
 10
1.200000321499999
 20
-3.96999999999997
 30
0.0
 11
1.199999999999988
 21
-9.524999999999977
 31
0.0
  0
LINE
  5
5923E
330
1F
100
AcDbEntity
  8
nocut
100
AcDbLine
 10
0.0
 20
0.0
 30
0.0
 11
0.0
 21
20.72499714500009
 31
0.0
  0
LINE
  5
5923F
330
1F
100
AcDbEntity
  8
cut
100
AcDbLine
 10
50.80000000000016
 20
22.69582435460018
 30
0.0
 11
50.80000000000016
 21
24.62722910080004
 31
0.0
  0
LINE
  5
59240
330
1F
100
AcDbEntity
  8
cut
100
AcDbLine
 10
46.65652873480013
 20
15.40840939560007
 30
0.0
 11
50.80000000000016
 21
22.69582435460018
 31
0.0
  0
LINE
  5
59241
330
1F
100
AcDbEntity
  8
cut
100
AcDbLine
 10
28.14942168080012
 20
15.92725103420014
 30
0.0
 11
28.14942168080012
 21
17.85865578050004
 31
0.0
  0
LINE
  5
59242
330
1F
100
AcDbEntity
  8
cut
100
AcDbLine
 10
46.53291596070014
 20
15.33594056270003
 30
0.0
 11
46.65652873480013
 21
15.40840939560007
 31
0.0
  0
LINE
  5
59243
330
1F
100
AcDbEntity
  8
cut
100
AcDbLine
 10
32.29289294600014
 20
25.14607073950009
 30
0.0
 11
28.14942168080012
 21
17.85865578050004
 31
0.0
  0
LINE
  5
59244
330
1F
100
AcDbEntity
  8
cut
100
AcDbLine
 10
46.53291596070014
 20
15.33594056270003
 30
0.0
 11
28.53920586240014
 21
15.52728408040018
 31
0.0
  0
LINE
  5
59245
330
1F
100
AcDbEntity
  8
cut
100
AcDbLine
 10
32.41650572010013
 20
25.21853957230007
 30
0.0
 11
32.29289294600014
 21
25.14607073950009
 31
0.0
  0
LINE
  5
59246
330
1F
100
AcDbEntity
  8
cut
100
AcDbLine
 10
32.41650572010013
 20
25.21853957230007
 30
0.0
 11
50.41021581840016
 21
25.02719605459998
 31
0.0
  0
ARC
  5
59247
330
1F
100
AcDbEntity
  8
1
100
AcDbCircle
 10
46.8885917492
 20
-24.71737507139998
 30
0.0
 40
4.3994589467
100
AcDbArc
 50
30.11147594579962
 51
30.52427268750002
  0
ARC
  5
59248
330
1F
100
AcDbEntity
  8
1
100
AcDbCircle
 10
45.3924201039
 20
-20.06472721209998
 30
0.0
 40
1.4591275553
100
AcDbArc
 50
242.2371784666005
 51
269.9822697628
  0
ARC
  5
59249
330
1F
100
AcDbEntity
  8
1
100
AcDbCircle
 10
49.99069791609997
 20
-22.9097902516
 30
0.0
 40
0.8093010352
100
AcDbArc
 50
359.9721445854
 51
27.72056780980017
  0
ARC
  5
5924A
330
1F
100
AcDbEntity
  8
1
100
AcDbCircle
 10
49.0670043938
 20
-23.3973713486
 30
0.0
 40
0.8090330712999998
100
AcDbArc
 50
359.9688383497997
 51
29.59549455749905
  0
ARC
  5
5924B
330
1F
100
AcDbEntity
  8
1
100
AcDbCircle
 10
46.21273347449997
 20
-19.21900077859998
 30
0.0
 40
0.745148982
100
AcDbArc
 50
90.15495822120076
 51
101.6531792464006
  0
ARC
  5
5924C
330
1F
100
AcDbEntity
  8
1
100
AcDbCircle
 10
50.14244828730003
 20
-22.83032457929998
 30
0.0
 40
0.6380041843999999
100
AcDbArc
 50
27.74242467089897
 51
30.11264073449976
  0
ARC
  5
5924D
330
1F
100
AcDbEntity
  8
1
100
AcDbCircle
 10
50.3938381779
 20
-24.62710126460001
 30
0.0
 40
0.4061614061000001
100
AcDbArc
 50
350.9744851759998
 51
359.9804195626999
  0
ARC
  5
5924E
330
1F
100
AcDbEntity
  8
1
100
AcDbCircle
 10
50.04543211590001
 20
-24.94864938549999
 30
0.0
 40
0.3186984167
100
AcDbArc
 50
20.76312097820004
 51
23.76958841529967
  0
ARC
  5
5924F
330
1F
100
AcDbEntity
  8
1
100
AcDbCircle
 10
48.5927326106
 20
-22.13114195380001
 30
0.0
 40
0.1993337023
100
AcDbArc
 50
334.1116932431008
 51
0.0238834050000138
  0
ARC
  5
59250
330
1F
100
AcDbEntity
  8
1
100
AcDbCircle
 10
47.92704460140001
 20
-23.50487943719999
 30
0.0
 40
0.1978331895
100
AcDbArc
 50
271.9101618572008
 51
334.0871019421987
  0
ARC
  5
59251
330
1F
100
AcDbEntity
  8
1
100
AcDbCircle
 10
35.36386458699997
 20
-23.30209294390002
 30
0.0
 40
48.2623164377
100
AcDbArc
 50
109.9939876893992
 51
110.2305600143008
  0
ARC
  5
59252
330
1F
100
AcDbEntity
  8
1
100
AcDbCircle
 10
39.49918143069999
 20
-28.43419505759998
 30
0.0
 40
12.6525939216
100
AcDbArc
 50
30.5122702063996
 51
32.00450579999984
  0
ARC
  5
59253
330
1F
100
AcDbEntity
  8
1
100
AcDbCircle
 10
25.8816349036
 20
-19.28545294609999
 30
0.0
 40
5.0
100
AcDbArc
 50
267.8301964173997
 51
270.0
  0
ARC
  5
59254
330
1F
100
AcDbEntity
  8
1
100
AcDbCircle
 10
25.88144652170001
 20
-19.29222511339999
 30
0.0
 40
4.9932255195
100
AcDbArc
 50
249.9740049256
 51
267.8293126274006
  0
ARC
  5
59255
330
1F
100
AcDbEntity
  8
1
100
AcDbCircle
 10
44.66381977019998
 20
-20.0238550191
 30
0.0
 40
1.5214390802
100
AcDbArc
 50
337.7794980650995
 51
22.22050193450054
  0
ARC
  5
59256
330
1F
100
AcDbEntity
  8
1
100
AcDbCircle
 10
37.1677435858
 20
-20.25816293920001
 30
0.0
 40
1.5214390802
100
AcDbArc
 50
337.7794980650995
 51
22.22050193450054
  0
ARC
  5
59257
330
1F
100
AcDbEntity
  8
1
100
AcDbCircle
 10
44.63453209019999
 20
-19.98091853359999
 30
0.0
 40
1.460516936299999
100
AcDbArc
 50
41.56958611710099
 51
59.29879199579992
  0
ARC
  5
59258
330
1F
100
AcDbEntity
  8
1
100
AcDbCircle
 10
37.72278101630002
 20
-20.29851132539999
 30
0.0
 40
1.459651390999999
100
AcDbArc
 50
240.5852955799998
 51
269.9789288389994
  0
ARC
  5
59259
330
1F
100
AcDbEntity
  8
1
100
AcDbCircle
 10
37.1404249345
 20
-20.21302943990002
 30
0.0
 40
1.457586062899999
100
AcDbArc
 50
41.55633167299956
 51
63.53825208630066
  0
ARC
  5
5925A
330
1F
100
AcDbEntity
  8
1
100
AcDbCircle
 10
48.5893020473
 20
11.8561772785
 30
0.0
 40
5.469318477199998
100
AcDbArc
 50
142.7901571467995
 51
143.4186128050999
  0
ARC
  5
5925B
330
1F
100
AcDbEntity
  8
1
100
AcDbCircle
 10
46.8885917492
 20
24.7173750715
 30
0.0
 40
4.3994589467
100
AcDbArc
 50
329.4757273125
 51
329.8885240542004
  0
ARC
  5
5925C
330
1F
100
AcDbEntity
  8
1
100
AcDbCircle
 10
49.99069791609997
 20
22.90979025169999
 30
0.0
 40
0.8093010352
100
AcDbArc
 50
332.279432190099
 51
0.0278554146000002
  0
ARC
  5
5925D
330
1F
100
AcDbEntity
  8
1
100
AcDbCircle
 10
50.14244828730003
 20
22.8303245794
 30
0.0
 40
0.6380041843999999
100
AcDbArc
 50
329.8873592655002
 51
332.2575753291007
  0
ARC
  5
5925E
330
1F
100
AcDbEntity
  8
1
100
AcDbCircle
 10
26.14498200510002
 20
7.835568259600009
 30
0.0
 40
8.9043876473
100
AcDbArc
 50
268.3052312461992
 51
270.0006764889999
  0
ARC
  5
5925F
330
1F
100
AcDbEntity
  8
1
100
AcDbCircle
 10
28.1550114355
 20
7.487966164799992
 30
0.0
 40
8.0482165182
100
AcDbArc
 50
87.24018597729999
 51
87.36171190060034
  0
ARC
  5
59260
330
1F
100
AcDbEntity
  8
1
100
AcDbCircle
 10
33.28361251669998
 20
15.62049510200002
 30
0.0
 40
5.5510590884
100
AcDbArc
 50
144.7282580927006
 51
148.2165325690992
  0
ARC
  5
59261
330
1F
100
AcDbEntity
  8
1
100
AcDbCircle
 10
44.28712212550002
 20
17.415951468
 30
0.0
 40
2.5546984793
100
AcDbArc
 50
265.3600301598002
 51
265.8555415282003
  0
ARC
  5
59262
330
1F
100
AcDbEntity
  8
1
100
AcDbCircle
 10
42.67028473269999
 20
21.15358724090002
 30
0.0
 40
0.453783189
100
AcDbArc
 50
254.5368365195992
 51
269.9498820919996
  0
ARC
  5
59263
330
1F
100
AcDbEntity
  8
1
100
AcDbCircle
 10
42.67028473269999
 20
18.89412279759998
 30
0.0
 40
0.453783189
100
AcDbArc
 50
90.05011790800038
 51
105.4631634804007
  0
ARC
  5
59264
330
1F
100
AcDbEntity
  8
1
100
AcDbCircle
 10
43.9674234807
 20
18.89412279759998
 30
0.0
 40
0.453783189
100
AcDbArc
 50
74.53683651970061
 51
89.94988209190031
  0
ARC
  5
59265
330
1F
100
AcDbEntity
  8
1
100
AcDbCircle
 10
43.9674234807
 20
21.15358724090002
 30
0.0
 40
0.453783189
100
AcDbArc
 50
270.0501179080003
 51
285.4631634804008
  0
ARC
  5
59266
330
1F
100
AcDbEntity
  8
1
100
AcDbCircle
 10
42.4931134578
 20
20.51305331879998
 30
0.0
 40
0.2108019198
100
AcDbArc
 50
74.54236362419985
 51
89.95306255059928
  0
ARC
  5
59267
330
1F
100
AcDbEntity
  8
1
100
AcDbCircle
 10
42.4931134578
 20
19.53465671969998
 30
0.0
 40
0.2108019198
100
AcDbArc
 50
270.0469374494007
 51
285.4576363757005
  0
ARC
  5
59268
330
1F
100
AcDbEntity
  8
1
100
AcDbCircle
 10
44.14459475550001
 20
19.53465671969998
 30
0.0
 40
0.2108019198
100
AcDbArc
 50
254.5423636242995
 51
269.9530625505992
  0
ARC
  5
59269
330
1F
100
AcDbEntity
  8
1
100
AcDbCircle
 10
44.14459475550001
 20
20.51305331879998
 30
0.0
 40
0.2108019198
100
AcDbArc
 50
90.04693744940073
 51
105.4576363757004
  0
ARC
  5
5926A
330
1F
100
AcDbEntity
  8
1
100
AcDbCircle
 10
35.1742085482
 20
21.38789516100001
 30
0.0
 40
0.453783189
100
AcDbArc
 50
254.5368365195992
 51
269.9498820919996
  0
ARC
  5
5926B
330
1F
100
AcDbEntity
  8
1
100
AcDbCircle
 10
35.1742085482
 20
19.12843071770003
 30
0.0
 40
0.453783189
100
AcDbArc
 50
90.05011790800038
 51
105.4631634804007
  0
ARC
  5
5926C
330
1F
100
AcDbEntity
  8
1
100
AcDbCircle
 10
36.47134729620001
 20
19.12843071770003
 30
0.0
 40
0.453783189
100
AcDbArc
 50
74.53683651970061
 51
89.94988209190031
  0
ARC
  5
5926D
330
1F
100
AcDbEntity
  8
1
100
AcDbCircle
 10
36.47134729620001
 20
21.38789516100001
 30
0.0
 40
0.453783189
100
AcDbArc
 50
270.0501179080003
 51
285.4631634802994
  0
ARC
  5
5926E
330
1F
100
AcDbEntity
  8
1
100
AcDbCircle
 10
34.9970372734
 20
20.74736123890001
 30
0.0
 40
0.2108019198
100
AcDbArc
 50
74.54236362429952
 51
89.95306255059928
  0
ARC
  5
5926F
330
1F
100
AcDbEntity
  8
1
100
AcDbCircle
 10
34.9970372734
 20
19.76896463980002
 30
0.0
 40
0.2108019198
100
AcDbArc
 50
270.0469374494007
 51
285.4576363757005
  0
ARC
  5
59270
330
1F
100
AcDbEntity
  8
1
100
AcDbCircle
 10
36.64851857100001
 20
19.76896463980002
 30
0.0
 40
0.2108019198
100
AcDbArc
 50
254.5423636242995
 51
269.9530625505992
  0
ARC
  5
59271
330
1F
100
AcDbEntity
  8
1
100
AcDbCircle
 10
36.64851857100001
 20
20.74736123890001
 30
0.0
 40
0.2108019198
100
AcDbArc
 50
90.04693744940073
 51
105.4576363757004
  0
ARC
  5
59272
330
1F
100
AcDbEntity
  8
1
100
AcDbCircle
 10
30.26454749340002
 20
17.07719911950002
 30
0.0
 40
2.231705226899999
100
AcDbArc
 50
158.065259341899
 51
198.5975364317999
  0
ARC
  5
59273
330
1F
100
AcDbEntity
  8
1
100
AcDbCircle
 10
30.24865948179996
 20
17.08268795989997
 30
0.0
 40
2.2148970685
100
AcDbArc
 50
154.2486505051014
 51
154.8335835966003
  0
ARC
  5
59274
330
1F
100
AcDbEntity
  8
1
100
AcDbCircle
 10
30.24703496550001
 20
17.08347310579998
 30
0.0
 40
2.213092766599999
100
AcDbArc
 50
153.4201753365
 51
154.2486860657999
  0
ARC
  5
59275
330
1F
100
AcDbEntity
  8
1
100
AcDbCircle
 10
30.23040966591248
 20
17.09261495047758
 30
0.0
 40
2.194134222499577
100
AcDbArc
 50
141.7902221252305
 51
153.4394146286962
  0
ARC
  5
59276
330
1F
100
AcDbEntity
  8
1
100
AcDbCircle
 10
29.38348848449999
 20
17.0772363997
 30
0.0
 40
2.200004407799998
100
AcDbArc
 50
105.8748355854
 51
187.8878307953
  0
ARC
  5
59277
330
1F
100
AcDbEntity
  8
1
100
AcDbCircle
 10
29.29005928460004
 20
17.02357754579999
 30
0.0
 40
2.146337732899997
100
AcDbArc
 50
263.0505012825997
 51
270.0330654960999
  0
ARC
  5
59278
330
1F
100
AcDbEntity
  8
1
100
AcDbCircle
 10
29.8487607651
 20
17.09385240320002
 30
0.0
 40
1.855391539
100
AcDbArc
 50
148.1984298175006
 51
149.1873848998995
  0
ARC
  5
59279
330
1F
100
AcDbEntity
  8
1
100
AcDbCircle
 10
28.95872591530002
 20
17.6446898834
 30
0.0
 40
0.8093010352
100
AcDbArc
 50
152.2794321901998
 51
180.0278554144998
  0
ARC
  5
5927A
330
1F
100
AcDbEntity
  8
1
100
AcDbCircle
 10
28.67963988880001
 20
17.7910637138
 30
0.0
 40
0.4941614997000002
100
AcDbArc
 50
149.1800622165002
 51
152.2509917320001
  0
ARC
  5
5927B
330
1F
100
AcDbEntity
  8
1
100
AcDbCircle
 10
28.55558432980001
 20
15.92737887039997
 30
0.0
 40
0.4061614061000001
100
AcDbArc
 50
180.0195804418997
 51
189.0255148205005
  0
ARC
  5
5927C
330
1F
100
AcDbEntity
  8
1
100
AcDbCircle
 10
25.88144652170001
 20
19.29222511340002
 30
0.0
 40
4.9932255195
100
AcDbArc
 50
92.17068737179928
 51
110.0259950744
  0
ARC
  5
5927D
330
1F
100
AcDbEntity
  8
1
100
AcDbCircle
 10
25.88135027370004
 20
19.29267012070001
 30
0.0
 40
4.9927771867
100
AcDbArc
 50
89.99673366350039
 51
92.16977707510004
  0
ARC
  5
5927E
330
1F
100
AcDbEntity
  8
1
100
AcDbCircle
 10
28.25992665719997
 20
25.62295030379998
 30
0.0
 40
12.0457080528
100
AcDbArc
 50
268.5621999816004
 51
270.0007095184998
  0
ARC
  5
5927F
330
1F
100
AcDbEntity
  8
1
100
AcDbCircle
 10
28.75828702529998
 20
24.60035811750002
 30
0.0
 40
11.0231176486
100
AcDbArc
 50
267.4119835809
 51
270.0045627198008
  0
ARC
  5
59280
330
1F
100
AcDbEntity
  8
1
100
AcDbCircle
 10
-7.219397666799977
 20
15.35452805600001
 30
0.0
 40
66.91154427649999
100
AcDbArc
 50
325.7743300575013
 51
326.8035466294004
  0
ARC
  5
59281
330
1F
100
AcDbEntity
  8
1
100
AcDbCircle
 10
16.62269664399997
 20
-27.62143051589998
 30
0.0
 40
6.0
100
AcDbArc
 50
69.99999999999996
 51
115.9200217027001
  0
ARC
  5
59282
330
1F
100
AcDbEntity
  8
1
100
AcDbCircle
 10
1.5
 20
20.72500000000001
 30
0.0
 40
1.5
100
AcDbArc
 50
90.0
 51
180.0
  0
ARC
  5
59283
330
1F
100
AcDbEntity
  8
1
100
AcDbCircle
 10
1.5
 20
-20.72500000000001
 30
0.0
 40
1.5
100
AcDbArc
 50
180.0
 51
270.0
  0
ARC
  5
59284
330
1F
100
AcDbEntity
  8
1
100
AcDbCircle
 10
39.49918143060001
 20
28.43419505780001
 30
0.0
 40
12.6525939217
100
AcDbArc
 50
327.9954942000988
 51
329.4877297936003
  0
ARC
  5
59285
330
1F
100
AcDbEntity
  8
1
100
AcDbCircle
 10
16.62269664399997
 20
27.62143051599999
 30
0.0
 40
6.0
100
AcDbArc
 50
244.0799782972999
 51
290.0
  0
ARC
  5
59286
330
1F
100
AcDbEntity
  8
sk3
100
AcDbCircle
 10
45.73305009589995
 20
-13.86406384119999
 30
0.0
 40
2.0
100
AcDbArc
 50
180.0
 51
219.8400585882009
  0
ARC
  5
59287
330
1F
100
AcDbEntity
  8
sk3
100
AcDbCircle
 10
34.39999999999998
 20
-7.599999999999965
 30
0.0
 40
0.4
100
AcDbArc
 50
180.0
 51
270.0
  0
ARC
  5
59288
330
1F
100
AcDbEntity
  8
sk3
100
AcDbCircle
 10
48.59206629549999
 20
-21.55478656520001
 30
0.0
 40
0.2
100
AcDbArc
 50
0.0
 51
29.84005858819974
  0
ARC
  5
59289
330
1F
100
AcDbEntity
  8
sk3
100
AcDbCircle
 10
18.19999999999999
 20
-9.199999999999988
 30
0.0
 40
0.8
100
AcDbArc
 50
270.0
 51
0.0
  0
ARC
  5
5928A
330
1F
100
AcDbEntity
  8
sk3
100
AcDbCircle
 10
19.39999999999997
 20
-5.649999999999977
 30
0.0
 40
0.4
100
AcDbArc
 50
90.0
 51
180.0
  0
ARC
  5
5928B
330
1F
100
AcDbEntity
  8
nocut
100
AcDbCircle
 10
25.88163490350002
 20
19.28545294609998
 30
0.0
 40
5.0
100
AcDbArc
 50
90.0
 51
110.0
  0
ARC
  5
5928C
330
1F
100
AcDbEntity
  8
sk3
100
AcDbCircle
 10
45.73305009589995
 20
13.86406384120005
 30
0.0
 40
2.0
100
AcDbArc
 50
140.159941411799
 51
180.0
  0
ARC
  5
5928D
330
1F
100
AcDbEntity
  8
sk3
100
AcDbCircle
 10
34.39999999999998
 20
7.600000000000022
 30
0.0
 40
0.4
100
AcDbArc
 50
90.0
 51
180.0
  0
ARC
  5
5928E
330
1F
100
AcDbEntity
  8
sk3
100
AcDbCircle
 10
48.59206629549999
 20
21.55478656510002
 30
0.0
 40
0.2
100
AcDbArc
 50
330.1599414118002
 51
0.0
  0
ARC
  5
5928F
330
1F
100
AcDbEntity
  8
nocut
100
AcDbCircle
 10
48.59206629549999
 20
22.1548356624001
 30
0.0
 40
0.2
100
AcDbArc
 50
0.0
 51
25.84438846090066
  0
ARC
  5
59290
330
1F
100
AcDbEntity
  8
nocut
100
AcDbCircle
 10
47.92498882079999
 20
23.53202781280001
 30
0.0
 40
0.2
100
AcDbArc
 50
25.84438846090066
 51
87.52110024079996
  0
ARC
  5
59291
330
1F
100
AcDbEntity
  8
nocut
100
AcDbCircle
 10
16.62269664389987
 20
27.62143051590002
 30
0.0
 40
6.0
100
AcDbArc
 50
244.0799782972999
 51
290.0
  0
ARC
  5
59292
330
1F
100
AcDbEntity
  8
nocut
100
AcDbCircle
 10
1.5
 20
20.72499999999999
 30
0.0
 40
1.5
100
AcDbArc
 50
90.0
 51
180.0
  0
ARC
  5
59293
330
1F
100
AcDbEntity
  8
sk3
100
AcDbCircle
 10
18.19999999999999
 20
9.199999999999988
 30
0.0
 40
0.8
100
AcDbArc
 50
0.0
 51
90.0
  0
ARC
  5
59294
330
1F
100
AcDbEntity
  8
sk3
100
AcDbCircle
 10
19.39999999999997
 20
5.650000000000034
 30
0.0
 40
0.4
100
AcDbArc
 50
180.0
 51
270.0
  0
SPLINE
  5
59295
330
1F
100
AcDbEntity
  8
1
100
AcDbSpline
210
0.0
220
0.0
230
1.0
 70
     8
 71
     3
 72
    15
 73
    11
 74
     0
 42
0.0000000001
 43
0.0000000001
 40
0.0
 40
0.0
 40
0.0
 40
0.0
 40
0.1259409039
 40
0.2517305122
 40
0.3772639386
 40
0.5024521479999999
 40
0.6272671653000002
 40
0.7517363108000003
 40
0.8759400846
 40
1.0
 40
1.0
 40
1.0
 40
1.0
 10
33.70829531890001
 20
20.25816293930002
 30
0.0
 10
33.70829531890001
 20
20.11442059410002
 30
0.0
 10
33.7361872134
 20
19.82633384599998
 30
0.0
 10
33.86015743870002
 20
19.41128601349999
 30
0.0
 10
34.06149075769997
 20
19.02852597360002
 30
0.0
 10
34.33254146719998
 20
18.6929646837
 30
0.0
 10
34.66292008070002
 20
18.41747425530001
 30
0.0
 10
35.04001624300002
 20
18.21270177779999
 30
0.0
 10
35.44911393429999
 20
18.08656762950001
 30
0.0
 10
35.73327689199999
 20
18.05816293930003
 30
0.0
 10
35.87487237549999
 20
18.05816293930003
 30
0.0
  0
SPLINE
  5
59296
330
1F
100
AcDbEntity
  8
1
100
AcDbSpline
210
0.0
220
0.0
230
1.0
 70
     8
 71
     3
 72
    13
 73
     9
 74
     0
 42
0.0000000001
 43
0.0000000001
 40
0.0
 40
0.0
 40
0.0
 40
0.0
 40
0.1248583695
 40
0.2500920269
 40
0.5
 40
0.7499079731000001
 40
0.8751416304999999
 40
1.0
 40
1.0
 40
1.0
 40
1.0
 10
36.79806105980004
 20
20.58871204180001
 30
0.0
 10
36.77663257710003
 20
20.56715647569999
 30
0.0
 10
36.73788728829999
 20
20.51957102740001
 30
0.0
 10
36.6805622421
 20
20.41149602610001
 30
0.0
 10
36.65018211040001
 20
20.25816293930002
 30
0.0
 10
36.6805622421
 20
20.1048298525
 30
0.0
 10
36.73788728829999
 20
19.99675485120001
 30
0.0
 10
36.77663257710003
 20
19.949169403
 30
0.0
 10
36.79806105980004
 20
19.92761383689998
 30
0.0
  0
SPLINE
  5
59297
330
1F
100
AcDbEntity
  8
1
100
AcDbSpline
210
0.0
220
0.0
230
1.0
 70
     8
 71
     3
 72
    15
 73
    11
 74
     0
 42
0.0000000001
 43
0.0000000001
 40
0.0
 40
0.0
 40
0.0
 40
0.0
 40
0.1250742973
 40
0.2505920446
 40
0.3763383188
 40
0.5019758983
 40
0.6272252878
 40
0.7519302776000001
 40
0.8761234669
 40
1.0
 40
1.0
 40
1.0
 40
1.0
 10
36.79806105980004
 20
20.58871204180001
 30
0.0
 10
36.81290707739999
 20
20.60364610489998
 30
0.0
 10
36.8383608936
 20
20.63819315020003
 30
0.0
 10
36.85988236560002
 20
20.69870366230002
 30
0.0
 10
36.86320304719999
 20
20.76298054890002
 30
0.0
 10
36.8479763862
 20
20.82546227640002
 30
0.0
 10
36.81551879059998
 20
20.88078764520002
 30
0.0
 10
36.76856998369999
 20
20.92417301280001
 30
0.0
 10
36.7112342296
 20
20.95182617230002
 30
0.0
 10
36.66920200969997
 20
20.958167625
 30
0.0
 10
36.64834587939998
 20
20.95816308789999
 30
0.0
  0
SPLINE
  5
59298
330
1F
100
AcDbEntity
  8
1
100
AcDbSpline
210
0.0
220
0.0
230
1.0
 70
     8
 71
     3
 72
    11
 73
     7
 74
     0
 42
0.0000000001
 43
0.0000000001
 40
0.0
 40
0.0
 40
0.0
 40
0.0
 40
0.2516589898
 40
0.5021517478000001
 40
0.7514631912000001
 40
1.0
 40
1.0
 40
1.0
 40
1.0
 10
36.02850456329998
 20
21.2810870881
 30
0.0
 10
36.0411856705
 20
21.23211129739998
 30
0.0
 10
36.08268521849999
 20
21.1377836969
 30
0.0
 10
36.18654557280001
 20
21.02446902200002
 30
0.0
 10
36.3209104417
 20
20.9510326174
 30
0.0
 10
36.42178098800002
 20
20.93410335119999
 30
0.0
 10
36.47174423050001
 20
20.9341121456
 30
0.0
  0
SPLINE
  5
59299
330
1F
100
AcDbEntity
  8
1
100
AcDbSpline
210
0.0
220
0.0
230
1.0
 70
     8
 71
     3
 72
    11
 73
     7
 74
     0
 42
0.0000000001
 43
0.0000000001
 40
0.0
 40
0.0
 40
0.0
 40
0.0
 40
0.2516633133
 40
0.5021410186000002
 40
0.7514528673000001
 40
1.0
 40
1.0
 40
1.0
 40
1.0
 10
36.02850456329998
 20
21.2810870881
 30
0.0
 10
36.02261832760002
 20
21.3038203592
 30
0.0
 10
36.00335917719997
 20
21.34760504840001
 30
0.0
 10
35.95514912329998
 20
21.40019747690001
 30
0.0
 10
35.89279155430001
 20
21.43429971800002
 30
0.0
 10
35.8459701077
 20
21.44216293930002
 30
0.0
 10
35.82277792219997
 20
21.44216293930002
 30
0.0
  0
SPLINE
  5
5929A
330
1F
100
AcDbEntity
  8
1
100
AcDbSpline
210
0.0
220
0.0
230
1.0
 70
     8
 71
     3
 72
    15
 73
    11
 74
     0
 42
0.0000000001
 43
0.0000000001
 40
0.0
 40
0.0
 40
0.0
 40
0.0
 40
0.1259409039
 40
0.2517305122
 40
0.3772639386
 40
0.5024521479999999
 40
0.6272671653000002
 40
0.7517363108000003
 40
0.8759400846
 40
1.0
 40
1.0
 40
1.0
 40
1.0
 10
33.70829531890001
 20
20.25816293930002
 30
0.0
 10
33.70829531890001
 20
20.40190528450002
 30
0.0
 10
33.7361872134
 20
20.68999203270003
 30
0.0
 10
33.86015743870002
 20
21.10503986510001
 30
0.0
 10
34.06149075769997
 20
21.4877999051
 30
0.0
 10
34.33254146719998
 20
21.823361195
 30
0.0
 10
34.66292008070002
 20
22.09885162340002
 30
0.0
 10
35.04001624300002
 20
22.30362410090002
 30
0.0
 10
35.44911393429999
 20
22.42975824919998
 30
0.0
 10
35.73327689199999
 20
22.45816293930001
 30
0.0
 10
35.87487237549999
 20
22.45816293930001
 30
0.0
  0
SPLINE
  5
5929B
330
1F
100
AcDbEntity
  8
1
100
AcDbSpline
210
0.0
220
0.0
230
1.0
 70
     8
 71
     3
 72
    15
 73
    11
 74
     0
 42
0.0000000001
 43
0.0000000001
 40
0.0
 40
0.0
 40
0.0
 40
0.0
 40
0.1238765331
 40
0.2480697224
 40
0.3727747122
 40
0.4980241017
 40
0.6236616812
 40
0.7494079554000001
 40
0.8749257026999998
 40
1.0
 40
1.0
 40
1.0
 40
1.0
 10
36.64834587939998
 20
19.55816279070001
 30
0.0
 10
36.66920200969997
 20
19.5581582537
 30
0.0
 10
36.7112342296
 20
19.56449970640001
 30
0.0
 10
36.76856998369999
 20
19.59215286579999
 30
0.0
 10
36.81551879059998
 20
19.6355382335
 30
0.0
 10
36.8479763862
 20
19.6908636022
 30
0.0
 10
36.86320304719999
 20
19.75334532980001
 30
0.0
 10
36.85988236560002
 20
19.81762221640001
 30
0.0
 10
36.8383608936
 20
19.87813272849999
 30
0.0
 10
36.81290707739999
 20
19.91267977379998
 30
0.0
 10
36.79806105980004
 20
19.92761383689998
 30
0.0
  0
SPLINE
  5
5929C
330
1F
100
AcDbEntity
  8
1
100
AcDbSpline
210
0.0
220
0.0
230
1.0
 70
     8
 71
     3
 72
    11
 73
     7
 74
     0
 42
0.0000000001
 43
0.0000000001
 40
0.0
 40
0.0
 40
0.0
 40
0.0
 40
0.2485368088
 40
0.4978482522000001
 40
0.7483410102
 40
1.0
 40
1.0
 40
1.0
 40
1.0
 10
36.47174423050001
 20
19.58221373309998
 30
0.0
 10
36.42178098800002
 20
19.58222252750001
 30
0.0
 10
36.3209104417
 20
19.56529326120001
 30
0.0
 10
36.18654557280001
 20
19.49185685670001
 30
0.0
 10
36.08268521849999
 20
19.37854218180003
 30
0.0
 10
36.0411856705
 20
19.28421458129998
 30
0.0
 10
36.02850456329998
 20
19.23523879059998
 30
0.0
  0
SPLINE
  5
5929D
330
1F
100
AcDbEntity
  8
1
100
AcDbSpline
210
0.0
220
0.0
230
1.0
 70
     8
 71
     3
 72
    11
 73
     7
 74
     0
 42
0.0000000001
 43
0.0000000001
 40
0.0
 40
0.0
 40
0.0
 40
0.0
 40
0.2485471327
 40
0.4978589814000002
 40
0.7483366867
 40
1.0
 40
1.0
 40
1.0
 40
1.0
 10
35.82277792219997
 20
19.07416293930001
 30
0.0
 10
35.8459701077
 20
19.07416293930001
 30
0.0
 10
35.89279155430001
 20
19.08202616070001
 30
0.0
 10
35.95514912329998
 20
19.11612840180001
 30
0.0
 10
36.00335917719997
 20
19.16872083030002
 30
0.0
 10
36.02261832760002
 20
19.21250551950001
 30
0.0
 10
36.02850456329998
 20
19.23523879059998
 30
0.0
  0
SPLINE
  5
5929E
330
1F
100
AcDbEntity
  8
1
100
AcDbSpline
210
0.0
220
0.0
230
1.0
 70
     8
 71
     3
 72
    11
 73
     7
 74
     0
 42
0.0000000001
 43
0.0000000001
 40
0.0
 40
0.0
 40
0.0
 40
0.0
 40
0.2516589898
 40
0.5021517478000001
 40
0.7514631912000001
 40
1.0
 40
1.0
 40
1.0
 40
1.0
 10
35.61705128120002
 20
19.23523879059998
 30
0.0
 10
35.604370174
 20
19.28421458129998
 30
0.0
 10
35.56287062590005
 20
19.37854218180003
 30
0.0
 10
35.45901027159999
 20
19.49185685670001
 30
0.0
 10
35.32464540269996
 20
19.56529326120001
 30
0.0
 10
35.22377485649997
 20
19.58222252750001
 30
0.0
 10
35.1738116139
 20
19.58221373309998
 30
0.0
  0
SPLINE
  5
5929F
330
1F
100
AcDbEntity
  8
1
100
AcDbSpline
210
0.0
220
0.0
230
1.0
 70
     8
 71
     3
 72
    11
 73
     7
 74
     0
 42
0.0000000001
 43
0.0000000001
 40
0.0
 40
0.0
 40
0.0
 40
0.0
 40
0.2516633133
 40
0.5021410186000002
 40
0.7514528673000001
 40
1.0
 40
1.0
 40
1.0
 40
1.0
 10
35.61705128120002
 20
19.23523879059998
 30
0.0
 10
35.62293751689998
 20
19.21250551950001
 30
0.0
 10
35.64219666730003
 20
19.16872083030002
 30
0.0
 10
35.69040672109998
 20
19.11612840180001
 30
0.0
 10
35.75276429019999
 20
19.08202616070001
 30
0.0
 10
35.79958573670001
 20
19.07416293930001
 30
0.0
 10
35.82277792219997
 20
19.07416293930001
 30
0.0
  0
SPLINE
  5
592A0
330
1F
100
AcDbEntity
  8
1
100
AcDbSpline
210
0.0
220
0.0
230
1.0
 70
     8
 71
     3
 72
    13
 73
     9
 74
     0
 42
0.0000000001
 43
0.0000000001
 40
0.0
 40
0.0
 40
0.0
 40
0.0
 40
0.1248583695
 40
0.2500920269
 40
0.5
 40
0.7499079731000001
 40
0.8751416304999999
 40
1.0
 40
1.0
 40
1.0
 40
1.0
 10
34.84749478460003
 20
19.92761383689998
 30
0.0
 10
34.86892326740002
 20
19.949169403
 30
0.0
 10
34.90766855609996
 20
19.99675485120001
 30
0.0
 10
34.9649936024
 20
20.1048298525
 30
0.0
 10
34.99537373410004
 20
20.25816293930002
 30
0.0
 10
34.9649936024
 20
20.41149602610001
 30
0.0
 10
34.90766855609996
 20
20.51957102740001
 30
0.0
 10
34.86892326740002
 20
20.56715647569999
 30
0.0
 10
34.84749478460003
 20
20.58871204180001
 30
0.0
  0
SPLINE
  5
592A1
330
1F
100
AcDbEntity
  8
1
100
AcDbSpline
210
0.0
220
0.0
230
1.0
 70
     8
 71
     3
 72
    15
 73
    11
 74
     0
 42
0.0000000001
 43
0.0000000001
 40
0.0
 40
0.0
 40
0.0
 40
0.0
 40
0.1250742973
 40
0.2505920446
 40
0.3763383188
 40
0.5019758983
 40
0.6272252878
 40
0.7519302776000001
 40
0.8761234669
 40
1.0
 40
1.0
 40
1.0
 40
1.0
 10
34.84749478460003
 20
19.92761383689998
 30
0.0
 10
34.83264876710001
 20
19.91267977379998
 30
0.0
 10
34.80719495090003
 20
19.87813272849999
 30
0.0
 10
34.78567347890004
 20
19.81762221640001
 30
0.0
 10
34.78235279730001
 20
19.75334532980001
 30
0.0
 10
34.79757945820001
 20
19.6908636022
 30
0.0
 10
34.83003705379997
 20
19.63553823340003
 30
0.0
 10
34.87698586070002
 20
19.59215286579999
 30
0.0
 10
34.93432161480001
 20
19.56449970640001
 30
0.0
 10
34.97635383480002
 20
19.5581582537
 30
0.0
 10
34.99720996500002
 20
19.55816279070001
 30
0.0
  0
SPLINE
  5
592A2
330
1F
100
AcDbEntity
  8
1
100
AcDbSpline
210
0.0
220
0.0
230
1.0
 70
     8
 71
     3
 72
    15
 73
    11
 74
     0
 42
0.0000000001
 43
0.0000000001
 40
0.0
 40
0.0
 40
0.0
 40
0.0
 40
0.1240599154
 40
0.2482636892
 40
0.3727328347
 40
0.4975478520000002
 40
0.6227360614000002
 40
0.7482694878000001
 40
0.8740590961
 40
1.0
 40
1.0
 40
1.0
 40
1.0
 10
35.87487237549999
 20
18.05816293930003
 30
0.0
 10
36.01646785899999
 20
18.05816293930003
 30
0.0
 10
36.30063081669999
 20
18.08656762950001
 30
0.0
 10
36.7097285081
 20
18.21270177779999
 30
0.0
 10
37.08682467030002
 20
18.41747425530001
 30
0.0
 10
37.41720328380001
 20
18.6929646837
 30
0.0
 10
37.68825399330001
 20
19.02852597360002
 30
0.0
 10
37.88958731230002
 20
19.41128601349999
 30
0.0
 10
38.01355753759998
 20
19.82633384599998
 30
0.0
 10
38.04144943210003
 20
20.11442059410002
 30
0.0
 10
38.04144943210003
 20
20.25816293930002
 30
0.0
  0
SPLINE
  5
592A3
330
1F
100
AcDbEntity
  8
1
100
AcDbSpline
210
0.0
220
0.0
230
1.0
 70
     8
 71
     3
 72
    15
 73
    11
 74
     0
 42
0.0000000001
 43
0.0000000001
 40
0.0
 40
0.0
 40
0.0
 40
0.0
 40
0.1240599154
 40
0.2482636892
 40
0.3727328347
 40
0.4975478520000002
 40
0.6227360614000002
 40
0.7482694878000001
 40
0.8740590961
 40
1.0
 40
1.0
 40
1.0
 40
1.0
 10
35.87487237549999
 20
22.45816293930001
 30
0.0
 10
36.01646785899999
 20
22.45816293930001
 30
0.0
 10
36.30063081669999
 20
22.42975824919998
 30
0.0
 10
36.7097285081
 20
22.30362410090002
 30
0.0
 10
37.08682467030002
 20
22.09885162340002
 30
0.0
 10
37.41720328380001
 20
21.823361195
 30
0.0
 10
37.68825399330001
 20
21.4877999051
 30
0.0
 10
37.88958731230002
 20
21.10503986510001
 30
0.0
 10
38.01355753759998
 20
20.68999203270003
 30
0.0
 10
38.04144943210003
 20
20.40190528450002
 30
0.0
 10
38.04144943210003
 20
20.25816293930002
 30
0.0
  0
SPLINE
  5
592A4
330
1F
100
AcDbEntity
  8
1
100
AcDbSpline
210
0.0
220
0.0
230
1.0
 70
     8
 71
     3
 72
    27
 73
    23
 74
     0
 42
0.0000000001
 43
0.0000000001
 40
0.0
 40
0.0
 40
0.0
 40
0.0
 40
0.0629516258
 40
0.09443999
 40
0.1259014154
 40
0.1886495372
 40
0.251224821
 40
0.2824800863
 40
0.3136893409
 40
0.3759053075
 40
0.4379886137
 40
0.5
 40
0.5620113863000002
 40
0.6240946925000001
 40
0.6863106591000001
 40
0.7175199137
 40
0.748775179
 40
0.8113504627999999
 40
0.8740985845999999
 40
0.9055600099999999
 40
0.9370483741999999
 40
1.0
 40
1.0
 40
1.0
 40
1.0
 10
33.95164319150001
 20
20.25816293930002
 30
0.0
 10
33.95164319150001
 20
20.38230405680002
 30
0.0
 10
33.969762167
 20
20.56919386919998
 30
0.0
 10
34.02931904280001
 20
20.81051050960001
 30
0.0
 10
34.11179125669998
 20
21.04464060350001
 30
0.0
 10
34.25665450039998
 20
21.32012567939999
 30
0.0
 10
34.45203799040001
 20
21.56193686920001
 30
0.0
 10
34.6337370123
 20
21.72914890529998
 30
0.0
 10
34.83038437019997
 20
21.87730496510001
 30
0.0
 10
35.10177306449998
 20
22.02472841860002
 30
0.0
 10
35.45516268450001
 20
22.13362254300001
 30
0.0
 10
35.82277792219997
 20
22.170420443
 30
0.0
 10
36.19039316000004
 20
22.13362254300001
 30
0.0
 10
36.54378277989997
 20
22.02472841860002
 30
0.0
 10
36.81517147429997
 20
21.87730496510001
 30
0.0
 10
37.01181883210001
 20
21.72914890529998
 30
0.0
 10
37.19351785410004
 20
21.56193686920001
 30
0.0
 10
37.38890134399998
 20
21.32012567939999
 30
0.0
 10
37.53376458780002
 20
21.04464060350001
 30
0.0
 10
37.6162368016
 20
20.81051050960001
 30
0.0
 10
37.67579367740001
 20
20.56919386919998
 30
0.0
 10
37.6939126529
 20
20.38230405680002
 30
0.0
 10
37.6939126529
 20
20.25816293930002
 30
0.0
  0
SPLINE
  5
592A5
330
1F
100
AcDbEntity
  8
1
100
AcDbSpline
210
0.0
220
0.0
230
1.0
 70
     8
 71
     3
 72
    15
 73
    11
 74
     0
 42
0.0000000001
 43
0.0000000001
 40
0.0
 40
0.0
 40
0.0
 40
0.0
 40
0.1238765331
 40
0.2480697224
 40
0.3727747122
 40
0.4980241017
 40
0.6236616812
 40
0.7494079554000001
 40
0.8749257026999998
 40
1.0
 40
1.0
 40
1.0
 40
1.0
 10
34.99720996500002
 20
20.95816308789999
 30
0.0
 10
34.97635383480002
 20
20.958167625
 30
0.0
 10
34.93432161480001
 20
20.95182617230002
 30
0.0
 10
34.87698586070002
 20
20.92417301280001
 30
0.0
 10
34.83003705379997
 20
20.88078764520002
 30
0.0
 10
34.79757945820001
 20
20.82546227640002
 30
0.0
 10
34.78235279730001
 20
20.76298054890002
 30
0.0
 10
34.78567347890004
 20
20.69870366230002
 30
0.0
 10
34.80719495090003
 20
20.63819315020003
 30
0.0
 10
34.83264876710001
 20
20.60364610489998
 30
0.0
 10
34.84749478460003
 20
20.58871204180001
 30
0.0
  0
SPLINE
  5
592A6
330
1F
100
AcDbEntity
  8
1
100
AcDbSpline
210
0.0
220
0.0
230
1.0
 70
     8
 71
     3
 72
    11
 73
     7
 74
     0
 42
0.0000000001
 43
0.0000000001
 40
0.0
 40
0.0
 40
0.0
 40
0.0
 40
0.2485368088
 40
0.4978482522000001
 40
0.7483410102
 40
1.0
 40
1.0
 40
1.0
 40
1.0
 10
35.1738116139
 20
20.9341121456
 30
0.0
 10
35.22377485649997
 20
20.93410335119999
 30
0.0
 10
35.32464540269996
 20
20.9510326174
 30
0.0
 10
35.45901027159999
 20
21.02446902200002
 30
0.0
 10
35.56287062590005
 20
21.1377836969
 30
0.0
 10
35.604370174
 20
21.23211129739998
 30
0.0
 10
35.61705128120002
 20
21.2810870881
 30
0.0
  0
SPLINE
  5
592A7
330
1F
100
AcDbEntity
  8
1
100
AcDbSpline
210
0.0
220
0.0
230
1.0
 70
     8
 71
     3
 72
    11
 73
     7
 74
     0
 42
0.0000000001
 43
0.0000000001
 40
0.0
 40
0.0
 40
0.0
 40
0.0
 40
0.2485471327
 40
0.4978589814000002
 40
0.7483366867
 40
1.0
 40
1.0
 40
1.0
 40
1.0
 10
35.82277792219997
 20
21.44216293930002
 30
0.0
 10
35.79958573670001
 20
21.44216293930002
 30
0.0
 10
35.75276429019999
 20
21.43429971800002
 30
0.0
 10
35.69040672109998
 20
21.40019747690001
 30
0.0
 10
35.64219666730003
 20
21.34760504840001
 30
0.0
 10
35.62293751689998
 20
21.3038203592
 30
0.0
 10
35.61705128120002
 20
21.2810870881
 30
0.0
  0
SPLINE
  5
592A8
330
1F
100
AcDbEntity
  8
1
100
AcDbSpline
210
0.0
220
0.0
230
1.0
 70
     8
 71
     3
 72
    27
 73
    23
 74
     0
 42
0.0000000001
 43
0.0000000001
 40
0.0
 40
0.0
 40
0.0
 40
0.0
 40
0.0629516258
 40
0.09443999
 40
0.1259014154
 40
0.1886495372
 40
0.251224821
 40
0.2824800863
 40
0.3136893409
 40
0.3759053075
 40
0.4379886137
 40
0.5
 40
0.5620113863000002
 40
0.6240946925000001
 40
0.6863106591000001
 40
0.7175199137
 40
0.748775179
 40
0.8113504627999999
 40
0.8740985845999999
 40
0.9055600099999999
 40
0.9370483741999999
 40
1.0
 40
1.0
 40
1.0
 40
1.0
 10
33.95164319150001
 20
20.25816293930002
 30
0.0
 10
33.95164319150001
 20
20.1340218218
 30
0.0
 10
33.969762167
 20
19.94713200939998
 30
0.0
 10
34.02931904280001
 20
19.70581536910001
 30
0.0
 10
34.11179125669998
 20
19.47168527520002
 30
0.0
 10
34.25665450039998
 20
19.19620019919998
 30
0.0
 10
34.45203799040001
 20
18.95438900939999
 30
0.0
 10
34.6337370123
 20
18.78717697340001
 30
0.0
 10
34.83038437019997
 20
18.63902091360002
 30
0.0
 10
35.10177306449998
 20
18.49159746010001
 30
0.0
 10
35.45516268450001
 20
18.38270333570001
 30
0.0
 10
35.82277792219997
 20
18.3459054357
 30
0.0
 10
36.19039316000004
 20
18.38270333570001
 30
0.0
 10
36.54378277989997
 20
18.49159746010001
 30
0.0
 10
36.81517147429997
 20
18.63902091360002
 30
0.0
 10
37.01181883210001
 20
18.78717697340001
 30
0.0
 10
37.19351785410004
 20
18.95438900939999
 30
0.0
 10
37.38890134399998
 20
19.19620019919998
 30
0.0
 10
37.53376458780002
 20
19.47168527520002
 30
0.0
 10
37.6162368016
 20
19.70581536910001
 30
0.0
 10
37.67579367740001
 20
19.94713200939998
 30
0.0
 10
37.6939126529
 20
20.1340218218
 30
0.0
 10
37.6939126529
 20
20.25816293930002
 30
0.0
  0
SPLINE
  5
592A9
330
1F
100
AcDbEntity
  8
1
100
AcDbSpline
210
0.0
220
0.0
230
1.0
 70
     8
 71
     3
 72
    15
 73
    11
 74
     0
 42
0.0000000001
 43
0.0000000001
 40
0.0
 40
0.0
 40
0.0
 40
0.0
 40
0.1259409039
 40
0.2517305122
 40
0.3772639386
 40
0.5024521479999999
 40
0.6272671653000002
 40
0.7517363108000003
 40
0.8759400846
 40
1.0
 40
1.0
 40
1.0
 40
1.0
 10
41.20437150330002
 20
20.02385501919999
 30
0.0
 10
41.20437150330002
 20
19.8801126741
 30
0.0
 10
41.2322633979
 20
19.59202592590002
 30
0.0
 10
41.35623362320001
 20
19.17697809340001
 30
0.0
 10
41.55756694219997
 20
18.79421805349997
 30
0.0
 10
41.82861765160004
 20
18.45865676360002
 30
0.0
 10
42.15899626510003
 20
18.18316633520003
 30
0.0
 10
42.53609242739995
 20
17.97839385770003
 30
0.0
 10
42.9451901187
 20
17.8522597094
 30
0.0
 10
43.22935307649999
 20
17.82385501919998
 30
0.0
 10
43.37094856000001
 20
17.82385501919998
 30
0.0
  0
SPLINE
  5
592AA
330
1F
100
AcDbEntity
  8
1
100
AcDbSpline
210
0.0
220
0.0
230
1.0
 70
     8
 71
     3
 72
    13
 73
     9
 74
     0
 42
0.0000000001
 43
0.0000000001
 40
0.0
 40
0.0
 40
0.0
 40
0.0
 40
0.1248583695
 40
0.2500920269
 40
0.5
 40
0.7499079731000001
 40
0.8751416304999999
 40
1.0
 40
1.0
 40
1.0
 40
1.0
 10
44.29413724419998
 20
20.3544041217
 30
0.0
 10
44.27270876149998
 20
20.33284855559998
 30
0.0
 10
44.23396347269999
 20
20.2852631073
 30
0.0
 10
44.1766384265
 20
20.17718810599999
 30
0.0
 10
44.14625829480002
 20
20.02385501919999
 30
0.0
 10
44.1766384265
 20
19.87052193239998
 30
0.0
 10
44.23396347269999
 20
19.7624469312
 30
0.0
 10
44.27270876149998
 20
19.71486148289998
 30
0.0
 10
44.29413724419998
 20
19.69330591680001
 30
0.0
  0
SPLINE
  5
592AB
330
1F
100
AcDbEntity
  8
1
100
AcDbSpline
210
0.0
220
0.0
230
1.0
 70
     8
 71
     3
 72
    15
 73
    11
 74
     0
 42
0.0000000001
 43
0.0000000001
 40
0.0
 40
0.0
 40
0.0
 40
0.0
 40
0.1250742973
 40
0.2505920446
 40
0.3763383188
 40
0.5019758983
 40
0.6272252878
 40
0.7519302776000001
 40
0.8761234669
 40
1.0
 40
1.0
 40
1.0
 40
1.0
 10
44.29413724419998
 20
20.3544041217
 30
0.0
 10
44.30898326179999
 20
20.36933818480001
 30
0.0
 10
44.33443707800001
 20
20.40388523009999
 30
0.0
 10
44.35595855000002
 20
20.46439574219999
 30
0.0
 10
44.35927923160003
 20
20.52867262879998
 30
0.0
 10
44.34405257070003
 20
20.59115435629998
 30
0.0
 10
44.31159497509997
 20
20.64647972510001
 30
0.0
 10
44.26464616820001
 20
20.68986509270003
 30
0.0
 10
44.20731041410002
 20
20.71751825219998
 30
0.0
 10
44.16527819410001
 20
20.7238597049
 30
0.0
 10
44.14442206379999
 20
20.7238551679
 30
0.0
  0
SPLINE
  5
592AC
330
1F
100
AcDbEntity
  8
1
100
AcDbSpline
210
0.0
220
0.0
230
1.0
 70
     8
 71
     3
 72
    11
 73
     7
 74
     0
 42
0.0000000001
 43
0.0000000001
 40
0.0
 40
0.0
 40
0.0
 40
0.0
 40
0.2516589898
 40
0.5021517478000001
 40
0.7514631912000001
 40
1.0
 40
1.0
 40
1.0
 40
1.0
 10
43.52458074769995
 20
21.04677916800001
 30
0.0
 10
43.53726185490001
 20
20.99780337729999
 30
0.0
 10
43.57876140299999
 20
20.90347577680002
 30
0.0
 10
43.68262175730001
 20
20.79016110190001
 30
0.0
 10
43.81698662609998
 20
20.71672469730001
 30
0.0
 10
43.9178571724
 20
20.69979543110001
 30
0.0
 10
43.96782041499998
 20
20.69980422550002
 30
0.0
  0
SPLINE
  5
592AD
330
1F
100
AcDbEntity
  8
1
100
AcDbSpline
210
0.0
220
0.0
230
1.0
 70
     8
 71
     3
 72
    11
 73
     7
 74
     0
 42
0.0000000001
 43
0.0000000001
 40
0.0
 40
0.0
 40
0.0
 40
0.0
 40
0.2516633133
 40
0.5021410186000002
 40
0.7514528673000001
 40
1.0
 40
1.0
 40
1.0
 40
1.0
 10
43.52458074769995
 20
21.04677916800001
 30
0.0
 10
43.51869451199997
 20
21.06951243910001
 30
0.0
 10
43.49943536160004
 20
21.11329712829999
 30
0.0
 10
43.45122530780002
 20
21.16588955680002
 30
0.0
 10
43.38886773870001
 20
21.19999179789997
 30
0.0
 10
43.34204629210001
 20
21.20785501920002
 30
0.0
 10
43.31885410669997
 20
21.20785501920002
 30
0.0
  0
SPLINE
  5
592AE
330
1F
100
AcDbEntity
  8
1
100
AcDbSpline
210
0.0
220
0.0
230
1.0
 70
     8
 71
     3
 72
    15
 73
    11
 74
     0
 42
0.0000000001
 43
0.0000000001
 40
0.0
 40
0.0
 40
0.0
 40
0.0
 40
0.1259409039
 40
0.2517305122
 40
0.3772639386
 40
0.5024521479999999
 40
0.6272671653000002
 40
0.7517363108000003
 40
0.8759400846
 40
1.0
 40
1.0
 40
1.0
 40
1.0
 10
41.20437150330002
 20
20.02385501919999
 30
0.0
 10
41.20437150330002
 20
20.16759736440001
 30
0.0
 10
41.2322633979
 20
20.4556841126
 30
0.0
 10
41.35623362320001
 20
20.870731945
 30
0.0
 10
41.55756694219997
 20
21.25349198500003
 30
0.0
 10
41.82861765160004
 20
21.5890532749
 30
0.0
 10
42.15899626510003
 20
21.86454370329999
 30
0.0
 10
42.53609242739995
 20
22.06931618079999
 30
0.0
 10
42.9451901187
 20
22.19545032910001
 30
0.0
 10
43.22935307649999
 20
22.2238550192
 30
0.0
 10
43.37094856000001
 20
22.2238550192
 30
0.0
  0
SPLINE
  5
592AF
330
1F
100
AcDbEntity
  8
1
100
AcDbSpline
210
0.0
220
0.0
230
1.0
 70
     8
 71
     3
 72
    15
 73
    11
 74
     0
 42
0.0000000001
 43
0.0000000001
 40
0.0
 40
0.0
 40
0.0
 40
0.0
 40
0.1238765331
 40
0.2480697224
 40
0.3727747122
 40
0.4980241017
 40
0.6236616812
 40
0.7494079554000001
 40
0.8749257026999998
 40
1.0
 40
1.0
 40
1.0
 40
1.0
 10
44.14442206379999
 20
19.32385487059999
 30
0.0
 10
44.16527819410001
 20
19.32385033360002
 30
0.0
 10
44.20731041410002
 20
19.33019178629996
 30
0.0
 10
44.26464616820001
 20
19.35784494579997
 30
0.0
 10
44.31159497509997
 20
19.40123031339999
 30
0.0
 10
44.34405257070003
 20
19.45655568210002
 30
0.0
 10
44.35927923160003
 20
19.51903740969996
 30
0.0
 10
44.35595855000002
 20
19.58331429629996
 30
0.0
 10
44.33443707800001
 20
19.64382480840001
 30
0.0
 10
44.30898326179999
 20
19.6783718537
 30
0.0
 10
44.29413724419998
 20
19.69330591680001
 30
0.0
  0
SPLINE
  5
592B0
330
1F
100
AcDbEntity
  8
1
100
AcDbSpline
210
0.0
220
0.0
230
1.0
 70
     8
 71
     3
 72
    11
 73
     7
 74
     0
 42
0.0000000001
 43
0.0000000001
 40
0.0
 40
0.0
 40
0.0
 40
0.0
 40
0.2485368088
 40
0.4978482522000001
 40
0.7483410102
 40
1.0
 40
1.0
 40
1.0
 40
1.0
 10
43.96782041499998
 20
19.34790581299997
 30
0.0
 10
43.9178571724
 20
19.3479146074
 30
0.0
 10
43.81698662609998
 20
19.33098534119999
 30
0.0
 10
43.68262175730001
 20
19.25754893659999
 30
0.0
 10
43.57876140299999
 20
19.14423426169998
 30
0.0
 10
43.53726185490001
 20
19.04990666120001
 30
0.0
 10
43.52458074769995
 20
19.0009308705
 30
0.0
  0
SPLINE
  5
592B1
330
1F
100
AcDbEntity
  8
1
100
AcDbSpline
210
0.0
220
0.0
230
1.0
 70
     8
 71
     3
 72
    11
 73
     7
 74
     0
 42
0.0000000001
 43
0.0000000001
 40
0.0
 40
0.0
 40
0.0
 40
0.0
 40
0.2485471327
 40
0.4978589814000002
 40
0.7483366867
 40
1.0
 40
1.0
 40
1.0
 40
1.0
 10
43.31885410669997
 20
18.83985501919999
 30
0.0
 10
43.34204629210001
 20
18.83985501919999
 30
0.0
 10
43.38886773870001
 20
18.84771824059999
 30
0.0
 10
43.45122530780002
 20
18.88182048169999
 30
0.0
 10
43.49943536160004
 20
18.93441291020001
 30
0.0
 10
43.51869451199997
 20
18.97819759939998
 30
0.0
 10
43.52458074769995
 20
19.0009308705
 30
0.0
  0
SPLINE
  5
592B2
330
1F
100
AcDbEntity
  8
1
100
AcDbSpline
210
0.0
220
0.0
230
1.0
 70
     8
 71
     3
 72
    11
 73
     7
 74
     0
 42
0.0000000001
 43
0.0000000001
 40
0.0
 40
0.0
 40
0.0
 40
0.0
 40
0.2516589898
 40
0.5021517478000001
 40
0.7514631912000001
 40
1.0
 40
1.0
 40
1.0
 40
1.0
 10
43.11312746559997
 20
19.0009308705
 30
0.0
 10
43.1004463584
 20
19.04990666120001
 30
0.0
 10
43.05894681030003
 20
19.14423426169998
 30
0.0
 10
42.955086456
 20
19.25754893659999
 30
0.0
 10
42.82072158720001
 20
19.33098534119999
 30
0.0
 10
42.71985104090004
 20
19.3479146074
 30
0.0
 10
42.66988779830001
 20
19.34790581299997
 30
0.0
  0
SPLINE
  5
592B3
330
1F
100
AcDbEntity
  8
1
100
AcDbSpline
210
0.0
220
0.0
230
1.0
 70
     8
 71
     3
 72
    11
 73
     7
 74
     0
 42
0.0000000001
 43
0.0000000001
 40
0.0
 40
0.0
 40
0.0
 40
0.0
 40
0.2516633133
 40
0.5021410186000002
 40
0.7514528673000001
 40
1.0
 40
1.0
 40
1.0
 40
1.0
 10
43.11312746559997
 20
19.0009308705
 30
0.0
 10
43.11901370129999
 20
18.97819759939998
 30
0.0
 10
43.13827285169998
 20
18.93441291020001
 30
0.0
 10
43.18648290559997
 20
18.88182048169999
 30
0.0
 10
43.2488404746
 20
18.84771824059999
 30
0.0
 10
43.2956619212
 20
18.83985501919999
 30
0.0
 10
43.31885410669997
 20
18.83985501919999
 30
0.0
  0
SPLINE
  5
592B4
330
1F
100
AcDbEntity
  8
1
100
AcDbSpline
210
0.0
220
0.0
230
1.0
 70
     8
 71
     3
 72
    13
 73
     9
 74
     0
 42
0.0000000001
 43
0.0000000001
 40
0.0
 40
0.0
 40
0.0
 40
0.0
 40
0.1248583695
 40
0.2500920269
 40
0.5
 40
0.7499079731000001
 40
0.8751416304999999
 40
1.0
 40
1.0
 40
1.0
 40
1.0
 10
42.3435709691
 20
19.69330591680001
 30
0.0
 10
42.36499945179994
 20
19.71486148289998
 30
0.0
 10
42.40374474060002
 20
19.7624469312
 30
0.0
 10
42.46106978680001
 20
19.87052193239998
 30
0.0
 10
42.49144991849999
 20
20.02385501919999
 30
0.0
 10
42.46106978680001
 20
20.17718810599999
 30
0.0
 10
42.40374474060002
 20
20.2852631073
 30
0.0
 10
42.36499945179994
 20
20.33284855559998
 30
0.0
 10
42.3435709691
 20
20.3544041217
 30
0.0
  0
SPLINE
  5
592B5
330
1F
100
AcDbEntity
  8
1
100
AcDbSpline
210
0.0
220
0.0
230
1.0
 70
     8
 71
     3
 72
    15
 73
    11
 74
     0
 42
0.0000000001
 43
0.0000000001
 40
0.0
 40
0.0
 40
0.0
 40
0.0
 40
0.1250742973
 40
0.2505920446
 40
0.3763383188
 40
0.5019758983
 40
0.6272252878
 40
0.7519302776000001
 40
0.8761234669
 40
1.0
 40
1.0
 40
1.0
 40
1.0
 10
42.3435709691
 20
19.69330591680001
 30
0.0
 10
42.32872495150002
 20
19.6783718537
 30
0.0
 10
42.30327113530001
 20
19.64382480840001
 30
0.0
 10
42.28174966329999
 20
19.58331429629996
 30
0.0
 10
42.27842898170002
 20
19.51903740969996
 30
0.0
 10
42.2936556427
 20
19.45655568210002
 30
0.0
 10
42.32611323820004
 20
19.40123031339999
 30
0.0
 10
42.37306204519993
 20
19.35784494579997
 30
0.0
 10
42.43039779930001
 20
19.33019178629996
 30
0.0
 10
42.47243001919997
 20
19.32385033360002
 30
0.0
 10
42.49328614949996
 20
19.32385487059999
 30
0.0
  0
SPLINE
  5
592B6
330
1F
100
AcDbEntity
  8
1
100
AcDbSpline
210
0.0
220
0.0
230
1.0
 70
     8
 71
     3
 72
    15
 73
    11
 74
     0
 42
0.0000000001
 43
0.0000000001
 40
0.0
 40
0.0
 40
0.0
 40
0.0
 40
0.1240599154
 40
0.2482636892
 40
0.3727328347
 40
0.4975478520000002
 40
0.6227360614000002
 40
0.7482694878000001
 40
0.8740590961
 40
1.0
 40
1.0
 40
1.0
 40
1.0
 10
43.37094856000001
 20
17.82385501919998
 30
0.0
 10
43.51254404349996
 20
17.82385501919998
 30
0.0
 10
43.79670700119999
 20
17.8522597094
 30
0.0
 10
44.2058046925
 20
17.97839385770003
 30
0.0
 10
44.58290085479998
 20
18.18316633520003
 30
0.0
 10
44.9132794683
 20
18.45865676360002
 30
0.0
 10
45.1843301778
 20
18.79421805349997
 30
0.0
 10
45.38566349669998
 20
19.17697809340001
 30
0.0
 10
45.5096337221
 20
19.59202592590002
 30
0.0
 10
45.53752561660002
 20
19.8801126741
 30
0.0
 10
45.53752561660002
 20
20.02385501919999
 30
0.0
  0
SPLINE
  5
592B7
330
1F
100
AcDbEntity
  8
1
100
AcDbSpline
210
0.0
220
0.0
230
1.0
 70
     8
 71
     3
 72
    15
 73
    11
 74
     0
 42
0.0000000001
 43
0.0000000001
 40
0.0
 40
0.0
 40
0.0
 40
0.0
 40
0.1240599154
 40
0.2482636892
 40
0.3727328347
 40
0.4975478520000002
 40
0.6227360614000002
 40
0.7482694878000001
 40
0.8740590961
 40
1.0
 40
1.0
 40
1.0
 40
1.0
 10
43.37094856000001
 20
22.2238550192
 30
0.0
 10
43.51254404349996
 20
22.2238550192
 30
0.0
 10
43.79670700119999
 20
22.19545032910001
 30
0.0
 10
44.2058046925
 20
22.06931618079999
 30
0.0
 10
44.58290085479998
 20
21.86454370329999
 30
0.0
 10
44.9132794683
 20
21.5890532749
 30
0.0
 10
45.1843301778
 20
21.25349198500003
 30
0.0
 10
45.38566349669998
 20
20.870731945
 30
0.0
 10
45.5096337221
 20
20.4556841126
 30
0.0
 10
45.53752561660002
 20
20.16759736440001
 30
0.0
 10
45.53752561660002
 20
20.02385501919999
 30
0.0
  0
SPLINE
  5
592B8
330
1F
100
AcDbEntity
  8
1
100
AcDbSpline
210
0.0
220
0.0
230
1.0
 70
     8
 71
     3
 72
    27
 73
    23
 74
     0
 42
0.0000000001
 43
0.0000000001
 40
0.0
 40
0.0
 40
0.0
 40
0.0
 40
0.0629516258
 40
0.09443999
 40
0.1259014154
 40
0.1886495372
 40
0.251224821
 40
0.2824800863
 40
0.3136893409
 40
0.3759053075
 40
0.4379886137
 40
0.5
 40
0.5620113863000002
 40
0.6240946925000001
 40
0.6863106591000001
 40
0.7175199137
 40
0.748775179
 40
0.8113504627999999
 40
0.8740985845999999
 40
0.9055600099999999
 40
0.9370483741999999
 40
1.0
 40
1.0
 40
1.0
 40
1.0
 10
41.44771937590002
 20
20.02385501919999
 30
0.0
 10
41.44771937590002
 20
20.14799613680002
 30
0.0
 10
41.46583835149999
 20
20.33488594910001
 30
0.0
 10
41.52539522730001
 20
20.57620258950003
 30
0.0
 10
41.60786744109998
 20
20.81033268340001
 30
0.0
 10
41.75273068489994
 20
21.08581775930002
 30
0.0
 10
41.94811417480003
 20
21.32762894909999
 30
0.0
 10
42.12981319679999
 20
21.49484098520002
 30
0.0
 10
42.32646055460003
 20
21.64299704500003
 30
0.0
 10
42.59784924889999
 20
21.79042049850001
 30
0.0
 10
42.95123886890002
 20
21.89931462289998
 30
0.0
 10
43.31885410669997
 20
21.93611252289999
 30
0.0
 10
43.6864693444
 20
21.89931462289998
 30
0.0
 10
44.0398589644
 20
21.79042049850001
 30
0.0
 10
44.31124765870001
 20
21.64299704500003
 30
0.0
 10
44.50789501649999
 20
21.49484098520002
 30
0.0
 10
44.68959403849999
 20
21.32762894909999
 30
0.0
 10
44.8849775285
 20
21.08581775930002
 30
0.0
 10
45.0298407722
 20
20.81033268340001
 30
0.0
 10
45.11231298600001
 20
20.57620258950003
 30
0.0
 10
45.1718698619
 20
20.33488594910001
 30
0.0
 10
45.18998883739999
 20
20.14799613680002
 30
0.0
 10
45.18998883739999
 20
20.02385501919999
 30
0.0
  0
SPLINE
  5
592B9
330
1F
100
AcDbEntity
  8
1
100
AcDbSpline
210
0.0
220
0.0
230
1.0
 70
     8
 71
     3
 72
    15
 73
    11
 74
     0
 42
0.0000000001
 43
0.0000000001
 40
0.0
 40
0.0
 40
0.0
 40
0.0
 40
0.1238765331
 40
0.2480697224
 40
0.3727747122
 40
0.4980241017
 40
0.6236616812
 40
0.7494079554000001
 40
0.8749257026999998
 40
1.0
 40
1.0
 40
1.0
 40
1.0
 10
42.49328614949996
 20
20.7238551679
 30
0.0
 10
42.47243001919997
 20
20.7238597049
 30
0.0
 10
42.43039779930001
 20
20.71751825219998
 30
0.0
 10
42.37306204519993
 20
20.68986509270003
 30
0.0
 10
42.32611323820004
 20
20.64647972510001
 30
0.0
 10
42.2936556427
 20
20.59115435629998
 30
0.0
 10
42.27842898170002
 20
20.52867262879998
 30
0.0
 10
42.28174966329999
 20
20.46439574219999
 30
0.0
 10
42.30327113530001
 20
20.40388523009999
 30
0.0
 10
42.32872495150002
 20
20.36933818480001
 30
0.0
 10
42.3435709691
 20
20.3544041217
 30
0.0
  0
SPLINE
  5
592BA
330
1F
100
AcDbEntity
  8
1
100
AcDbSpline
210
0.0
220
0.0
230
1.0
 70
     8
 71
     3
 72
    11
 73
     7
 74
     0
 42
0.0000000001
 43
0.0000000001
 40
0.0
 40
0.0
 40
0.0
 40
0.0
 40
0.2485368088
 40
0.4978482522000001
 40
0.7483410102
 40
1.0
 40
1.0
 40
1.0
 40
1.0
 10
42.66988779830001
 20
20.69980422550002
 30
0.0
 10
42.71985104090004
 20
20.69979543110001
 30
0.0
 10
42.82072158720001
 20
20.71672469730001
 30
0.0
 10
42.955086456
 20
20.79016110190001
 30
0.0
 10
43.05894681030003
 20
20.90347577680002
 30
0.0
 10
43.1004463584
 20
20.99780337729999
 30
0.0
 10
43.11312746559997
 20
21.04677916800001
 30
0.0
  0
SPLINE
  5
592BB
330
1F
100
AcDbEntity
  8
1
100
AcDbSpline
210
0.0
220
0.0
230
1.0
 70
     8
 71
     3
 72
    11
 73
     7
 74
     0
 42
0.0000000001
 43
0.0000000001
 40
0.0
 40
0.0
 40
0.0
 40
0.0
 40
0.2485471327
 40
0.4978589814000002
 40
0.7483366867
 40
1.0
 40
1.0
 40
1.0
 40
1.0
 10
43.31885410669997
 20
21.20785501920002
 30
0.0
 10
43.2956619212
 20
21.20785501920002
 30
0.0
 10
43.2488404746
 20
21.19999179789997
 30
0.0
 10
43.18648290559997
 20
21.16588955680002
 30
0.0
 10
43.13827285169998
 20
21.11329712829999
 30
0.0
 10
43.11901370129999
 20
21.06951243910001
 30
0.0
 10
43.11312746559997
 20
21.04677916800001
 30
0.0
  0
SPLINE
  5
592BC
330
1F
100
AcDbEntity
  8
1
100
AcDbSpline
210
0.0
220
0.0
230
1.0
 70
     8
 71
     3
 72
    27
 73
    23
 74
     0
 42
0.0000000001
 43
0.0000000001
 40
0.0
 40
0.0
 40
0.0
 40
0.0
 40
0.0629516258
 40
0.09443999
 40
0.1259014154
 40
0.1886495372
 40
0.251224821
 40
0.2824800863
 40
0.3136893409
 40
0.3759053075
 40
0.4379886137
 40
0.5
 40
0.5620113863000002
 40
0.6240946925000001
 40
0.6863106591000001
 40
0.7175199137
 40
0.748775179
 40
0.8113504627999999
 40
0.8740985845999999
 40
0.9055600099999999
 40
0.9370483741999999
 40
1.0
 40
1.0
 40
1.0
 40
1.0
 10
41.44771937590002
 20
20.02385501919999
 30
0.0
 10
41.44771937590002
 20
19.8997139017
 30
0.0
 10
41.46583835149999
 20
19.7128240894
 30
0.0
 10
41.52539522730001
 20
19.47150744899997
 30
0.0
 10
41.60786744109998
 20
19.23737735510001
 30
0.0
 10
41.75273068489994
 20
18.96189227910001
 30
0.0
 10
41.94811417480003
 20
18.72008108930002
 30
0.0
 10
42.12981319679999
 20
18.5528690533
 30
0.0
 10
42.32646055460003
 20
18.4047129935
 30
0.0
 10
42.59784924889999
 20
18.25728953999999
 30
0.0
 10
42.95123886890002
 20
18.14839541559998
 30
0.0
 10
43.31885410669997
 20
18.11159751559998
 30
0.0
 10
43.6864693444
 20
18.14839541559998
 30
0.0
 10
44.0398589644
 20
18.25728953999999
 30
0.0
 10
44.31124765870001
 20
18.4047129935
 30
0.0
 10
44.50789501649999
 20
18.5528690533
 30
0.0
 10
44.68959403849999
 20
18.72008108930002
 30
0.0
 10
44.8849775285
 20
18.96189227910001
 30
0.0
 10
45.0298407722
 20
19.23737735510001
 30
0.0
 10
45.11231298600001
 20
19.47150744899997
 30
0.0
 10
45.1718698619
 20
19.7128240894
 30
0.0
 10
45.18998883739999
 20
19.8997139017
 30
0.0
 10
45.18998883739999
 20
20.02385501919999
 30
0.0
  0
SPLINE
  5
592BD
330
1F
100
AcDbEntity
  8
1
100
AcDbSpline
210
0.0
220
0.0
230
1.0
 70
     8
 71
     3
 72
    11
 73
     7
 74
     0
 42
0.0000000001
 43
0.0000000001
 40
0.0
 40
0.0
 40
0.0
 40
0.0
 40
0.2510149188
 40
0.501346409
 40
0.7509930618000002
 40
1.0
 40
1.0
 40
1.0
 40
1.0
 10
46.07225924890002
 20
-19.44849352009997
 30
0.0
 10
46.03202461730001
 20
-19.3710219611
 30
0.0
 10
45.93792813109999
 20
-19.22297220089997
 30
0.0
 10
45.7599370767
 20
-19.02995960429997
 30
0.0
 10
45.5504122621
 20
-18.87281804359998
 30
0.0
 10
45.39363809820002
 20
-18.79586302060001
 30
0.0
 10
45.31261440189999
 20
-18.76529516059999
 30
0.0
  0
SPLINE
  5
592BE
330
1F
100
AcDbEntity
  8
1
100
AcDbSpline
210
0.0
220
0.0
230
1.0
 70
     8
 71
     3
 72
    11
 73
     7
 74
     0
 42
0.0000000001
 43
0.0000000001
 40
0.0
 40
0.0
 40
0.0
 40
0.0
 40
0.2506912705
 40
0.5009593162
 40
0.7507152693000001
 40
1.0
 40
1.0
 40
1.0
 40
1.0
 10
46.07225924890002
 20
-20.59921651820002
 30
0.0
 10
46.02692931710001
 20
-20.70740010700001
 30
0.0
 10
45.91082192409999
 20
-20.91387228769999
 30
0.0
 10
45.67054449129995
 20
-21.1743043778
 30
0.0
 10
45.37707467059999
 20
-21.37175489009999
 30
0.0
 10
45.15587718419999
 20
-21.45417161939999
 30
0.0
 10
45.04254875789999
 20
-21.48176155339999
 30
0.0
  0
SPLINE
  5
592BF
330
1F
100
AcDbEntity
  8
1
100
AcDbSpline
210
0.0
220
0.0
230
1.0
 70
     8
 71
     3
 72
    13
 73
     9
 74
     0
 42
0.0000000001
 43
0.0000000001
 40
0.0
 40
0.0
 40
0.0
 40
0.0
 40
0.1245772554
 40
0.2491991441
 40
0.3739513608
 40
0.4989005006000001
 40
0.7488933574
 40
1.0
 40
1.0
 40
1.0
 40
1.0
 10
44.72745602359998
 20
-21.36349024279998
 30
0.0
 10
44.79516235329998
 20
-21.36954052820001
 30
0.0
 10
44.9317929501
 20
-21.37094377550002
 30
0.0
 10
45.13444724300001
 20
-21.34129245529999
 30
0.0
 10
45.330466285
 20
-21.28104121759999
 30
0.0
 10
45.57697847179997
 20
-21.16250153420002
 30
0.0
 10
45.8488484401
 20
-20.94739952349998
 30
0.0
 10
46.00910838019999
 20
-20.72081316409999
 30
0.0
 10
46.07225924890002
 20
-20.59921651820002
 30
0.0
  0
SPLINE
  5
592C0
330
1F
100
AcDbEntity
  8
1
100
AcDbSpline
210
0.0
220
0.0
230
1.0
 70
     8
 71
     3
 72
    11
 73
     7
 74
     0
 42
0.0000000001
 43
0.0000000001
 40
0.0
 40
0.0
 40
0.0
 40
0.0
 40
0.2511373836
 40
0.5014926409
 40
0.7510793042000003
 40
1.0
 40
1.0
 40
1.0
 40
1.0
 10
38.57618306450002
 20
-19.68280144019998
 30
0.0
 10
38.5309360283
 20
-19.59567852420002
 30
0.0
 10
38.42316023580003
 20
-19.43010534769998
 30
0.0
 10
38.21554236600002
 20
-19.21971309869998
 30
0.0
 10
37.96988335880005
 20
-19.0567489779
 30
0.0
 10
37.78677151829999
 20
-18.98504545959999
 30
0.0
 10
37.69284913449997
 20
-18.95961128239999
 30
0.0
  0
SPLINE
  5
592C1
330
1F
100
AcDbEntity
  8
1
100
AcDbSpline
210
0.0
220
0.0
230
1.0
 70
     8
 71
     3
 72
    11
 73
     7
 74
     0
 42
0.0000000001
 43
0.0000000001
 40
0.0
 40
0.0
 40
0.0
 40
0.0
 40
0.2507358936
 40
0.5010137083
 40
0.7507426235
 40
1.0
 40
1.0
 40
1.0
 40
1.0
 10
38.57618306450002
 20
-20.83352443829999
 30
0.0
 10
38.52798147559997
 20
-20.94856147119999
 30
0.0
 10
38.40275037730004
 20
-21.16749171759999
 30
0.0
 10
38.14087603410002
 20
-21.43893799959998
 30
0.0
 10
37.82090067050001
 20
-21.63729990829999
 30
0.0
 10
37.58113096139999
 20
-21.7125463121
 30
0.0
 10
37.45911078289998
 20
-21.73457038689999
 30
0.0
  0
SPLINE
  5
592C2
330
1F
100
AcDbEntity
  8
1
100
AcDbSpline
210
0.0
220
0.0
230
1.0
 70
     8
 71
     3
 72
    15
 73
    11
 74
     0
 42
0.0000000001
 43
0.0000000001
 40
0.0
 40
0.0
 40
0.0
 40
0.0
 40
0.1245481138
 40
0.2490338505
 40
0.3735797549
 40
0.4982966464
 40
0.6232638982000001
 40
0.7485323741
 40
0.8741141575
 40
1.0
 40
1.0
 40
1.0
 40
1.0
 10
36.9826853921
 20
-21.55054731330002
 30
0.0
 10
37.05801236830001
 20
-21.5727743268
 30
0.0
 10
37.21313063470001
 20
-21.60328656679999
 30
0.0
 10
37.44991492700001
 20
-21.60597993609998
 30
0.0
 10
37.68352104799999
 20
-21.56638282979999
 30
0.0
 10
37.90680795200001
 20
-21.4864118638
 30
0.0
 10
38.11342587609999
 20
-21.36912464199999
 30
0.0
 10
38.2977881626
 20
-21.21845151449999
 30
0.0
 10
38.45517136929999
 20
-21.03914752479999
 30
0.0
 10
38.5395964489
 20
-20.90397176269998
 30
0.0
 10
38.57618306450002
 20
-20.83352443829999
 30
0.0
  0
LINE
  5
592C3
330
1F
100
AcDbEntity
  8
1
100
AcDbLine
 10
50.4067908145
 20
-25.02763214529999
 30
0.0
 11
50.42394644079997
 21
-25.02682829779998
 31
0.0
  0
LINE
  5
592C4
330
1F
100
AcDbEntity
  8
1
100
AcDbLine
 10
50.4067908145
 20
-25.02763214529999
 30
0.0
 11
49.9820317331
 21
-25.04639549240002
 31
0.0
  0
LINE
  5
592C5
330
1F
100
AcDbEntity
  8
1
100
AcDbLine
 10
49.13347568159998
 20
-25.0826230645
 30
0.0
 11
49.9820317331
 21
-25.04639549240002
 31
0.0
  0
LINE
  5
592C6
330
1F
100
AcDbEntity
  8
1
100
AcDbLine
 10
48.31010282379998
 20
-25.11645923290001
 30
0.0
 11
49.13347568159998
 21
-25.0826230645
 31
0.0
  0
LINE
  5
592C7
330
1F
100
AcDbEntity
  8
1
100
AcDbLine
 10
47.51007653789997
 20
-25.14800016209999
 30
0.0
 11
48.31010282379998
 21
-25.11645923290001
 31
0.0
  0
LINE
  5
592C8
330
1F
100
AcDbEntity
  8
1
100
AcDbLine
 10
46.7317447917
 20
-25.17733325349999
 30
0.0
 11
47.51007653789997
 21
-25.14800016209999
 31
0.0
  0
LINE
  5
592C9
330
1F
100
AcDbEntity
  8
1
100
AcDbLine
 10
45.97358647890001
 20
-25.2045398943
 30
0.0
 11
46.7317447917
 21
-25.17733325349999
 31
0.0
  0
LINE
  5
592CA
330
1F
100
AcDbEntity
  8
1
100
AcDbLine
 10
45.23420191129997
 20
-25.22969596029999
 30
0.0
 11
45.97358647890001
 21
-25.2045398943
 31
0.0
  0
LINE
  5
592CB
330
1F
100
AcDbEntity
  8
1
100
AcDbLine
 10
44.5125009011
 20
-25.25286229589999
 30
0.0
 11
45.23420191129997
 21
-25.22969596029999
 31
0.0
  0
LINE
  5
592CC
330
1F
100
AcDbEntity
  8
1
100
AcDbLine
 10
43.8074882642
 20
-25.27409562150001
 30
0.0
 11
44.5125009011
 21
-25.25286229589999
 31
0.0
  0
LINE
  5
592CD
330
1F
100
AcDbEntity
  8
1
100
AcDbLine
 10
43.11831848579998
 20
-25.29344578089997
 30
0.0
 11
43.8074882642
 21
-25.27409562150001
 31
0.0
  0
LINE
  5
592CE
330
1F
100
AcDbEntity
  8
1
100
AcDbLine
 10
42.44421550800001
 20
-25.31095982780002
 30
0.0
 11
43.11831848579998
 21
-25.29344578089997
 31
0.0
  0
LINE
  5
592CF
330
1F
100
AcDbEntity
  8
1
100
AcDbLine
 10
41.78446535620003
 20
-25.32668241339999
 30
0.0
 11
42.44421550800001
 21
-25.31095982780002
 31
0.0
  0
LINE
  5
592D0
330
1F
100
AcDbEntity
  8
1
100
AcDbLine
 10
41.13844199359999
 20
-25.34065449320002
 30
0.0
 11
41.78446535620003
 21
-25.32668241339999
 31
0.0
  0
LINE
  5
592D1
330
1F
100
AcDbEntity
  8
1
100
AcDbLine
 10
40.50562136489998
 20
-25.3529126367
 30
0.0
 11
41.13844199359999
 21
-25.34065449320002
 31
0.0
  0
LINE
  5
592D2
330
1F
100
AcDbEntity
  8
1
100
AcDbLine
 10
39.88551557599999
 20
-25.36349237359999
 30
0.0
 11
40.50562136489998
 21
-25.3529126367
 31
0.0
  0
LINE
  5
592D3
330
1F
100
AcDbEntity
  8
1
100
AcDbLine
 10
39.27766779840005
 20
-25.37242846270001
 30
0.0
 11
39.88551557599999
 21
-25.36349237359999
 31
0.0
  0
LINE
  5
592D4
330
1F
100
AcDbEntity
  8
1
100
AcDbLine
 10
38.68166771149999
 20
-25.37975412459998
 30
0.0
 11
39.27766779840005
 21
-25.37242846270001
 31
0.0
  0
LINE
  5
592D5
330
1F
100
AcDbEntity
  8
1
100
AcDbLine
 10
38.09715151710003
 20
-25.38550105570001
 30
0.0
 11
38.68166771149999
 21
-25.37975412459998
 31
0.0
  0
LINE
  5
592D6
330
1F
100
AcDbEntity
  8
1
100
AcDbLine
 10
37.52377519750002
 20
-25.38970078729999
 30
0.0
 11
38.09715151710003
 21
-25.38550105570001
 31
0.0
  0
LINE
  5
592D7
330
1F
100
AcDbEntity
  8
1
100
AcDbLine
 10
36.96122742580005
 20
-25.39238404650001
 30
0.0
 11
37.52377519750002
 21
-25.38970078729999
 31
0.0
  0
LINE
  5
592D8
330
1F
100
AcDbEntity
  8
1
100
AcDbLine
 10
36.40920931080001
 20
-25.3935817837
 30
0.0
 11
36.96122742580005
 21
-25.39238404650001
 31
0.0
  0
LINE
  5
592D9
330
1F
100
AcDbEntity
  8
1
100
AcDbLine
 10
35.86744429690003
 20
-25.3933246822
 30
0.0
 11
36.40920931080001
 21
-25.3935817837
 31
0.0
  0
LINE
  5
592DA
330
1F
100
AcDbEntity
  8
1
100
AcDbLine
 10
35.37528985630002
 20
-25.39177746609999
 30
0.0
 11
35.86744429690003
 21
-25.3933246822
 31
0.0
  0
LINE
  5
592DB
330
1F
100
AcDbEntity
  8
1
100
AcDbLine
 10
35.33568042730002
 20
-25.39164305509999
 30
0.0
 11
35.37528985630002
 21
-25.39177746609999
 31
0.0
  0
LINE
  5
592DC
330
1F
100
AcDbEntity
  8
1
100
AcDbLine
 10
34.8136734853
 20
-25.38856769529998
 30
0.0
 11
35.33568042730002
 21
-25.39164305509999
 31
0.0
  0
LINE
  5
592DD
330
1F
100
AcDbEntity
  8
1
100
AcDbLine
 10
34.30117821559998
 20
-25.38413031500001
 30
0.0
 11
34.8136734853
 21
-25.38856769529998
 31
0.0
  0
LINE
  5
592DE
330
1F
100
AcDbEntity
  8
1
100
AcDbLine
 10
34.05235585930001
 20
-25.38131058129998
 30
0.0
 11
34.30117821559998
 21
-25.38413031500001
 31
0.0
  0
LINE
  5
592DF
330
1F
100
AcDbEntity
  8
1
100
AcDbLine
 10
34.0127822046
 20
-25.3834492244
 30
0.0
 11
34.05235585930001
 21
-25.38131058129998
 31
0.0
  0
SPLINE
  5
592E0
330
1F
100
AcDbEntity
  8
1
100
AcDbSpline
210
0.0
220
0.0
230
1.0
 70
     8
 71
     3
 72
     9
 73
     5
 74
     0
 42
0.0000000001
 43
0.0000000001
 40
0.0
 40
0.0
 40
0.0
 40
0.0
 40
0.5009053941000003
 40
1.0
 40
1.0
 40
1.0
 40
1.0
 10
32.81337728969999
 20
-24.57789180740002
 30
0.0
 10
32.85369217789997
 20
-24.6349820299
 30
0.0
 10
32.94652535670002
 20
-24.74070257030001
 30
0.0
 10
33.05951650489999
 20
-24.82459070419999
 30
0.0
 10
33.11959101820003
 20
-24.85980979780001
 30
0.0
  0
SPLINE
  5
592E1
330
1F
100
AcDbEntity
  8
1
100
AcDbSpline
210
0.0
220
0.0
230
1.0
 70
     8
 71
     3
 72
     9
 73
     5
 74
     0
 42
0.0000000001
 43
0.0000000001
 40
0.0
 40
0.0
 40
0.0
 40
0.0
 40
0.5010262465
 40
1.0
 40
1.0
 40
1.0
 40
1.0
 10
50.79497018239996
 20
-24.69081731259997
 30
0.0
 10
50.78812918439999
 20
-24.7338922302
 30
0.0
 10
50.76039520670002
 20
-24.8182322796
 30
0.0
 10
50.7069206274
 20
-24.88917034129999
 30
0.0
 10
50.6754416425
 20
-24.91909972160002
 30
0.0
  0
SPLINE
  5
592E2
330
1F
100
AcDbEntity
  8
1
100
AcDbSpline
210
0.0
220
0.0
230
1.0
 70
     8
 71
     3
 72
     9
 73
     5
 74
     0
 42
0.0000000001
 43
0.0000000001
 40
0.0
 40
0.0
 40
0.0
 40
0.0
 40
0.5009567412
 40
1.0
 40
1.0
 40
1.0
 40
1.0
 10
50.67544164219999
 20
-24.91909972109999
 30
0.0
 10
50.64179166510001
 20
-24.95109322300001
 30
0.0
 10
50.56269971899999
 20
-25.00355806189999
 30
0.0
 10
50.47012017019998
 20
-25.02469920080002
 30
0.0
 10
50.42391489369999
 20
-25.02682978099999
 30
0.0
  0
SPLINE
  5
592E3
330
1F
100
AcDbEntity
  8
1
100
AcDbSpline
210
0.0
220
0.0
230
1.0
 70
     8
 71
     3
 72
    14
 73
    10
 74
     0
 42
0.0000000001
 43
0.0000000001
 40
0.0
 40
0.0
 40
0.0
 40
0.0
 40
0.4486013708
 40
0.5539362898000002
 40
0.6130617083
 40
0.6720020597000002
 40
0.7406738635
 40
0.8191604175
 40
1.0
 40
1.0
 40
1.0
 40
1.0
 10
50.41175178859996
 20
-25.024572577
 30
0.0
 10
50.41406156500002
 20
-25.02445527720002
 30
0.0
 10
50.41691638329999
 20
-25.02436518780001
 30
0.0
 10
50.41993188570001
 20
-25.02283072119999
 30
0.0
 10
50.42027046179999
 20
-25.02161733420001
 30
0.0
 10
50.41985119509999
 20
-25.02070429199999
 30
0.0
 10
50.41917789220002
 20
-25.01988396850001
 30
0.0
 10
50.41791597210002
 20
-25.01874858039999
 30
0.0
 10
50.41680733919998
 20
-25.0179945543
 30
0.0
 10
50.41601882879999
 20
-25.01749710019999
 30
0.0
  0
SPLINE
  5
592E4
330
1F
100
AcDbEntity
  8
1
100
AcDbSpline
210
0.0
220
0.0
230
1.0
 70
     8
 71
     3
 72
    10
 73
     6
 74
     0
 42
0.0000000001
 43
0.0000000001
 40
0.0
 40
0.0
 40
0.0
 40
0.0
 40
0.3336476021
 40
0.7106364744000003
 40
1.0
 40
1.0
 40
1.0
 40
1.0
 10
50.41601882879999
 20
-25.01749710019999
 30
0.0
 10
50.41647848640002
 20
-25.01660998909999
 30
0.0
 10
50.41636023659998
 20
-25.01420748509999
 30
0.0
 10
50.41456338449996
 20
-25.01176614280001
 30
0.0
 10
50.41319801050002
 20
-25.01031236369998
 30
0.0
 10
50.41257217929999
 20
-25.00971304560002
 30
0.0
  0
SPLINE
  5
592E5
330
1F
100
AcDbEntity
  8
1
100
AcDbSpline
210
0.0
220
0.0
230
1.0
 70
     8
 71
     3
 72
     9
 73
     5
 74
     0
 42
0.0000000001
 43
0.0000000001
 40
0.0
 40
0.0
 40
0.0
 40
0.0
 40
0.2309133988
 40
1.0
 40
1.0
 40
1.0
 40
1.0
 10
50.41257217929999
 20
-25.00971304560002
 30
0.0
 10
50.4125991567
 20
-25.00895709620002
 30
0.0
 10
50.41213297600001
 20
-25.0056611374
 30
0.0
 10
50.41019645829999
 20
-25.00282556280001
 30
0.0
 10
50.4086183185
 20
-25.00086169019998
 30
0.0
  0
SPLINE
  5
592E6
330
1F
100
AcDbEntity
  8
1
100
AcDbSpline
210
0.0
220
0.0
230
1.0
 70
     8
 71
     3
 72
     9
 73
     5
 74
     0
 42
0.0000000001
 43
0.0000000001
 40
0.0
 40
0.0
 40
0.0
 40
0.0
 40
0.2366085067
 40
1.0
 40
1.0
 40
1.0
 40
1.0
 10
50.4086183185
 20
-25.00086169019998
 30
0.0
 10
50.40851525320002
 20
-25.00001236549999
 30
0.0
 10
50.4077240286
 20
-24.99646444230001
 30
0.0
 10
50.40592671050001
 20
-24.99323305300001
 30
0.0
 10
50.4043906224
 20
-24.9909395848
 30
0.0
  0
SPLINE
  5
592E7
330
1F
100
AcDbEntity
  8
1
100
AcDbSpline
210
0.0
220
0.0
230
1.0
 70
     8
 71
     3
 72
     9
 73
     5
 74
     0
 42
0.0000000001
 43
0.0000000001
 40
0.0
 40
0.0
 40
0.0
 40
0.0
 40
0.2402772464
 40
1.0
 40
1.0
 40
1.0
 40
1.0
 10
50.4043906224
 20
-24.9909395848
 30
0.0
 10
50.40420983159998
 20
-24.9900039141
 30
0.0
 10
50.40320768859999
 20
-24.98615727580002
 30
0.0
 10
50.40143681220001
 20
-24.98255304599998
 30
0.0
 10
50.39991023179999
 20
-24.97995520119999
 30
0.0
  0
SPLINE
  5
592E8
330
1F
100
AcDbEntity
  8
1
100
AcDbSpline
210
0.0
220
0.0
230
1.0
 70
     8
 71
     3
 72
     9
 73
     5
 74
     0
 42
0.0000000001
 43
0.0000000001
 40
0.0
 40
0.0
 40
0.0
 40
0.0
 40
0.2425916938
 40
1.0
 40
1.0
 40
1.0
 40
1.0
 10
50.39991023179999
 20
-24.97995520119999
 30
0.0
 10
50.3996716472
 20
-24.97893441759997
 30
0.0
 10
50.3984962113
 20
-24.9747711342
 30
0.0
 10
50.3966959889
 20
-24.97080643150002
 30
0.0
 10
50.3951521427
 20
-24.96792049170001
 30
0.0
  0
SPLINE
  5
592E9
330
1F
100
AcDbEntity
  8
1
100
AcDbSpline
210
0.0
220
0.0
230
1.0
 70
     8
 71
     3
 72
     9
 73
     5
 74
     0
 42
0.0000000001
 43
0.0000000001
 40
0.0
 40
0.0
 40
0.0
 40
0.0
 40
0.244104447
 40
1.0
 40
1.0
 40
1.0
 40
1.0
 10
50.3951521427
 20
-24.96792049170001
 30
0.0
 10
50.39486382800001
 20
-24.96681527209999
 30
0.0
 10
50.39352642689999
 20
-24.962328275
 30
0.0
 10
50.39166009129999
 20
-24.9580119206
 30
0.0
 10
50.39007644739999
 20
-24.95484929650001
 30
0.0
  0
SPLINE
  5
592EA
330
1F
100
AcDbEntity
  8
1
100
AcDbSpline
210
0.0
220
0.0
230
1.0
 70
     8
 71
     3
 72
     9
 73
     5
 74
     0
 42
0.0000000001
 43
0.0000000001
 40
0.0
 40
0.0
 40
0.0
 40
0.0
 40
0.2451980384
 40
1.0
 40
1.0
 40
1.0
 40
1.0
 10
50.39007644739999
 20
-24.95484929650001
 30
0.0
 10
50.38974142169997
 20
-24.9536605064
 30
0.0
 10
50.38824340280001
 20
-24.94884931850001
 30
0.0
 10
50.38629007739999
 20
-24.9441879672
 30
0.0
 10
50.38465378659998
 20
-24.94075604589999
 30
0.0
  0
SPLINE
  5
592EB
330
1F
100
AcDbEntity
  8
1
100
AcDbSpline
210
0.0
220
0.0
230
1.0
 70
     8
 71
     3
 72
     9
 73
     5
 74
     0
 42
0.0000000001
 43
0.0000000001
 40
0.0
 40
0.0
 40
0.0
 40
0.0
 40
0.2459953546
 40
1.0
 40
1.0
 40
1.0
 40
1.0
 10
50.38465378659998
 20
-24.94075604589999
 30
0.0
 10
50.38427532320003
 20
-24.9394846439
 30
0.0
 10
50.38262374320004
 20
-24.93434994990002
 30
0.0
 10
50.38057211090003
 20
-24.9293491225
 30
0.0
 10
50.37887251769999
 20
-24.92565539209998
 30
0.0
  0
SPLINE
  5
592EC
330
1F
100
AcDbEntity
  8
1
100
AcDbSpline
210
0.0
220
0.0
230
1.0
 70
     8
 71
     3
 72
     9
 73
     5
 74
     0
 42
0.0000000001
 43
0.0000000001
 40
0.0
 40
0.0
 40
0.0
 40
0.0
 40
0.2465688899
 40
1.0
 40
1.0
 40
1.0
 40
1.0
 10
50.37887251769999
 20
-24.92565539209998
 30
0.0
 10
50.3784520792
 20
-24.92430241199999
 30
0.0
 10
50.3766471571
 20
-24.91884625119999
 30
0.0
 10
50.3744830926
 20
-24.91351242699999
 30
0.0
 10
50.37270813239999
 20
-24.90956375190001
 30
0.0
  0
SPLINE
  5
592ED
330
1F
100
AcDbEntity
  8
1
100
AcDbSpline
210
0.0
220
0.0
230
1.0
 70
     8
 71
     3
 72
     9
 73
     5
 74
     0
 42
0.0000000001
 43
0.0000000001
 40
0.0
 40
0.0
 40
0.0
 40
0.0
 40
0.7468588957
 40
1.0
 40
1.0
 40
1.0
 40
1.0
 10
50.37270813239999
 20
-24.90956375190001
 30
0.0
 10
50.37130835750002
 20
-24.90522970319999
 30
0.0
 10
50.36916388050002
 20
-24.89951100780001
 30
0.0
 10
50.36675224919997
 20
-24.89391007939999
 30
0.0
 10
50.36612588019997
 20
-24.8924991654
 30
0.0
  0
SPLINE
  5
592EE
330
1F
100
AcDbEntity
  8
1
100
AcDbSpline
210
0.0
220
0.0
230
1.0
 70
     8
 71
     3
 72
     8
 73
     4
 74
     0
 42
0.0000000001
 43
0.0000000001
 40
0.0
 40
0.0
 40
0.0
 40
0.0
 40
1.0
 40
1.0
 40
1.0
 40
1.0
 10
50.36612588019997
 20
-24.8924991654
 30
0.0
 10
50.36407554070001
 20
-24.8863854232
 30
0.0
 10
50.36169453870002
 20
-24.8803775368
 30
0.0
 10
50.35908419079999
 20
-24.87448111259998
 30
0.0
  0
SPLINE
  5
592EF
330
1F
100
AcDbEntity
  8
1
100
AcDbSpline
210
0.0
220
0.0
230
1.0
 70
     8
 71
     3
 72
     8
 73
     4
 74
     0
 42
0.0000000001
 43
0.0000000001
 40
0.0
 40
0.0
 40
0.0
 40
0.0
 40
1.0
 40
1.0
 40
1.0
 40
1.0
 10
50.35908419079999
 20
-24.87448111259998
 30
0.0
 10
50.3568465264
 20
-24.868060379
 30
0.0
 10
50.3543020045
 20
-24.8617420916
 30
0.0
 10
50.35153650739999
 20
-24.85553041019999
 30
0.0
  0
SPLINE
  5
592F0
330
1F
100
AcDbEntity
  8
1
100
AcDbSpline
210
0.0
220
0.0
230
1.0
 70
     8
 71
     3
 72
     8
 73
     4
 74
     0
 42
0.0000000001
 43
0.0000000001
 40
0.0
 40
0.0
 40
0.0
 40
0.0
 40
1.0
 40
1.0
 40
1.0
 40
1.0
 10
50.35153650739999
 20
-24.85553041019999
 30
0.0
 10
50.34909832370002
 20
-24.84880860220002
 30
0.0
 10
50.34637210649998
 20
-24.84218722439999
 30
0.0
 10
50.34343236149999
 20
-24.83566914629999
 30
0.0
  0
SPLINE
  5
592F1
330
1F
100
AcDbEntity
  8
1
100
AcDbSpline
210
0.0
220
0.0
230
1.0
 70
     8
 71
     3
 72
    10
 73
     6
 74
     0
 42
0.0000000001
 43
0.0000000001
 40
0.0
 40
0.0
 40
0.0
 40
0.0
 40
0.4920195188
 40
0.7419480711
 40
1.0
 40
1.0
 40
1.0
 40
1.0
 10
50.33709653579998
 20
-24.82019493070001
 30
0.0
 10
50.34925054090002
 20
-24.7727942845
 30
0.0
 10
50.34527031640005
 20
-24.69561551670003
 30
0.0
 10
50.3161996032
 20
-24.60067340420001
 30
0.0
 10
50.2952820506
 20
-24.55444423709999
 30
0.0
 10
50.2834204028
 20
-24.53168512179998
 30
0.0
  0
SPLINE
  5
592F2
330
1F
100
AcDbEntity
  8
1
100
AcDbSpline
210
0.0
220
0.0
230
1.0
 70
     8
 71
     3
 72
    15
 73
    11
 74
     0
 42
0.0000000001
 43
0.0000000001
 40
0.0
 40
0.0
 40
0.0
 40
0.0
 40
0.12605686
 40
0.2519680995
 40
0.3776186528
 40
0.5029160917000001
 40
0.6278015214
 40
0.7522554676000001
 40
0.8763001429
 40
1.0
 40
1.0
 40
1.0
 40
1.0
 10
45.93371593289998
 20
20.16833911200003
 30
0.0
 10
45.93148910789998
 20
20.03879634780002
 30
0.0
 10
45.9070523204
 20
19.7797612832
 30
0.0
 10
45.81135586030001
 20
19.40211104219998
 30
0.0
 10
45.65901120769999
 20
19.04428808190001
 30
0.0
 10
45.45381094269996
 20
18.7151827174
 30
0.0
 10
45.20085438590001
 20
18.42280275279998
 30
0.0
 10
44.90635877010001
 20
18.17425136620001
 30
0.0
 10
44.57768179850001
 20
17.97557004969998
 30
0.0
 10
44.34056829699994
 20
17.8793463114
 30
0.0
 10
44.21934082429999
 20
17.84102768239998
 30
0.0
  0
SPLINE
  5
592F3
330
1F
100
AcDbEntity
  8
1
100
AcDbSpline
210
0.0
220
0.0
230
1.0
 70
     8
 71
     3
 72
    15
 73
    11
 74
     0
 42
0.0000000001
 43
0.0000000001
 40
0.0
 40
0.0
 40
0.0
 40
0.0
 40
0.1236745748
 40
0.2477063826
 40
0.3721608072
 40
0.4970584386
 40
0.6223745347000002
 40
0.7480421420000001
 40
0.8739592626
 40
1.0
 40
1.0
 40
1.0
 40
1.0
 10
44.21934082429999
 20
22.5825594044
 30
0.0
 10
44.34394937910002
 20
22.54317205370002
 30
0.0
 10
44.58753646640002
 20
22.4436920603
 30
0.0
 10
44.92413053679999
 20
22.23717012340002
 30
0.0
 10
45.22415100679999
 20
21.97826998149999
 30
0.0
 10
45.47967561740001
 20
21.67364500450002
 30
0.0
 10
45.68406969179998
 20
21.3311188798
 30
0.0
 10
45.83196390730001
 20
20.95950102050001
 30
0.0
 10
45.91947168949997
 20
20.56854948340002
 30
0.0
 10
45.93600504000002
 20
20.30150506160003
 30
0.0
 10
45.93371593289998
 20
20.16833911200003
 30
0.0
  0
LINE
  5
592F4
330
1F
100
AcDbEntity
  8
1
100
AcDbLine
 10
50.41765242250176
 20
25.02715234371962
 30
0.0
 11
49.9820317331
 21
25.04639549250003
 31
0.0
  0
ARC
  5
592F5
102
{ACAD_REACTORS
330
5938A
102
}
330
1F
100
AcDbEntity
  8
1
100
AcDbCircle
 10
50.4
 20
24.62754204357732
 30
0.0
 40
0.4
100
AcDbArc
 50
0.0
 51
87.47065527340748
  0
LINE
  5
592F6
330
1F
100
AcDbEntity
  8
1
100
AcDbLine
 10
49.13347568159998
 20
25.08262306460002
 30
0.0
 11
49.9820317331
 21
25.04639549250003
 31
0.0
  0
LINE
  5
592F7
330
1F
100
AcDbEntity
  8
1
100
AcDbLine
 10
48.31010282379998
 20
25.116459233
 30
0.0
 11
49.13347568159998
 21
25.08262306460002
 31
0.0
  0
LINE
  5
592F8
330
1F
100
AcDbEntity
  8
1
100
AcDbLine
 10
47.51007653789997
 20
25.14800016219998
 30
0.0
 11
48.31010282379998
 21
25.116459233
 31
0.0
  0
LINE
  5
592F9
330
1F
100
AcDbEntity
  8
1
100
AcDbLine
 10
46.7317447917
 20
25.17733325360003
 30
0.0
 11
47.51007653789997
 21
25.14800016219998
 31
0.0
  0
LINE
  5
592FA
330
1F
100
AcDbEntity
  8
1
100
AcDbLine
 10
45.97358647890001
 20
25.20453989440002
 30
0.0
 11
46.7317447917
 21
25.17733325360003
 31
0.0
  0
LINE
  5
592FB
330
1F
100
AcDbEntity
  8
1
100
AcDbLine
 10
45.23420191129997
 20
25.22969596039998
 30
0.0
 11
45.97358647890001
 21
25.20453989440002
 31
0.0
  0
LINE
  5
592FC
330
1F
100
AcDbEntity
  8
1
100
AcDbLine
 10
44.5125009011
 20
25.25286229600002
 30
0.0
 11
45.23420191129997
 21
25.22969596039998
 31
0.0
  0
LINE
  5
592FD
330
1F
100
AcDbEntity
  8
1
100
AcDbLine
 10
43.8074882642
 20
25.27409562160001
 30
0.0
 11
44.5125009011
 21
25.25286229600002
 31
0.0
  0
LINE
  5
592FE
330
1F
100
AcDbEntity
  8
1
100
AcDbLine
 10
43.11831848579998
 20
25.29344578099999
 30
0.0
 11
43.8074882642
 21
25.27409562160001
 31
0.0
  0
LINE
  5
592FF
330
1F
100
AcDbEntity
  8
1
100
AcDbLine
 10
42.44421550800001
 20
25.31095982789998
 30
0.0
 11
43.11831848579998
 21
25.29344578099999
 31
0.0
  0
LINE
  5
59300
330
1F
100
AcDbEntity
  8
1
100
AcDbLine
 10
41.78446535620003
 20
25.3266824135
 30
0.0
 11
42.44421550800001
 21
25.31095982789998
 31
0.0
  0
LINE
  5
59301
330
1F
100
AcDbEntity
  8
1
100
AcDbLine
 10
41.13844199359999
 20
25.34065449329998
 30
0.0
 11
41.78446535620003
 21
25.3266824135
 31
0.0
  0
LINE
  5
59302
330
1F
100
AcDbEntity
  8
1
100
AcDbLine
 10
40.50562136489998
 20
25.35291263680001
 30
0.0
 11
41.13844199359999
 21
25.34065449329998
 31
0.0
  0
LINE
  5
59303
330
1F
100
AcDbEntity
  8
1
100
AcDbLine
 10
39.88551557599999
 20
25.3634923737
 30
0.0
 11
40.50562136489998
 21
25.35291263680001
 31
0.0
  0
LINE
  5
59304
330
1F
100
AcDbEntity
  8
1
100
AcDbLine
 10
39.27766779840005
 20
25.37242846280002
 30
0.0
 11
39.88551557599999
 21
25.3634923737
 31
0.0
  0
LINE
  5
59305
330
1F
100
AcDbEntity
  8
1
100
AcDbLine
 10
38.68166771149999
 20
25.37975412469999
 30
0.0
 11
39.27766779840005
 21
25.37242846280002
 31
0.0
  0
LINE
  5
59306
330
1F
100
AcDbEntity
  8
1
100
AcDbLine
 10
38.09715151710003
 20
25.38550105579998
 30
0.0
 11
38.68166771149999
 21
25.37975412469999
 31
0.0
  0
LINE
  5
59307
330
1F
100
AcDbEntity
  8
1
100
AcDbLine
 10
37.52377519750002
 20
25.38970078730002
 30
0.0
 11
38.09715151710003
 21
25.38550105579998
 31
0.0
  0
LINE
  5
59308
330
1F
100
AcDbEntity
  8
1
100
AcDbLine
 10
36.96122742580005
 20
25.39238404660002
 30
0.0
 11
37.52377519750002
 21
25.38970078730002
 31
0.0
  0
LINE
  5
59309
330
1F
100
AcDbEntity
  8
1
100
AcDbLine
 10
36.40920931080001
 20
25.3935817838
 30
0.0
 11
36.96122742580005
 21
25.39238404660002
 31
0.0
  0
LINE
  5
5930A
330
1F
100
AcDbEntity
  8
1
100
AcDbLine
 10
35.86744429690003
 20
25.39332468230002
 30
0.0
 11
36.40920931080001
 21
25.3935817838
 31
0.0
  0
LINE
  5
5930B
330
1F
100
AcDbEntity
  8
1
100
AcDbLine
 10
35.37528985630002
 20
25.3917774662
 30
0.0
 11
35.86744429690003
 21
25.39332468230002
 31
0.0
  0
LINE
  5
5930C
330
1F
100
AcDbEntity
  8
1
100
AcDbLine
 10
35.33568042730002
 20
25.39164305520001
 30
0.0
 11
35.37528985630002
 21
25.3917774662
 31
0.0
  0
LINE
  5
5930D
330
1F
100
AcDbEntity
  8
1
100
AcDbLine
 10
34.8136734853
 20
25.38856769530001
 30
0.0
 11
35.33568042730002
 21
25.39164305520001
 31
0.0
  0
LINE
  5
5930E
330
1F
100
AcDbEntity
  8
1
100
AcDbLine
 10
34.30117821559998
 20
25.3841303151
 30
0.0
 11
34.8136734853
 21
25.38856769530001
 31
0.0
  0
LINE
  5
5930F
330
1F
100
AcDbEntity
  8
1
100
AcDbLine
 10
34.05235585930001
 20
25.38131058139999
 30
0.0
 11
34.30117821559998
 21
25.3841303151
 31
0.0
  0
LINE
  5
59310
330
1F
100
AcDbEntity
  8
1
100
AcDbLine
 10
34.0127822046
 20
25.38344922450001
 30
0.0
 11
34.05235585930001
 21
25.38131058139999
 31
0.0
  0
LINE
  5
59311
330
1F
100
AcDbEntity
  8
1
100
AcDbLine
 10
28.54252676369998
 20
15.5268479896
 30
0.0
 11
28.97397429019998
 21
15.5080846426
 31
0.0
  0
LINE
  5
59312
330
1F
100
AcDbEntity
  8
1
100
AcDbLine
 10
29.83702181210004
 20
15.47185707039999
 30
0.0
 11
28.97397429019998
 21
15.5080846426
 31
0.0
  0
LINE
  5
59313
330
1F
100
AcDbEntity
  8
1
100
AcDbLine
 10
30.67581134649998
 20
15.4380209021
 30
0.0
 11
29.83702181210004
 21
15.47185707039999
 31
0.0
  0
LINE
  5
59314
330
1F
100
AcDbEntity
  8
1
100
AcDbLine
 10
31.49210081309997
 20
15.40647997289999
 30
0.0
 11
30.67581134649998
 21
15.4380209021
 31
0.0
  0
LINE
  5
59315
330
1F
100
AcDbEntity
  8
1
100
AcDbLine
 10
32.2874701742
 20
15.37714688149999
 30
0.0
 11
31.49210081309997
 21
15.40647997289999
 31
0.0
  0
LINE
  5
59316
330
1F
100
AcDbEntity
  8
1
100
AcDbLine
 10
33.06337311419998
 20
15.34994024070001
 30
0.0
 11
32.2874701742
 21
15.37714688149999
 31
0.0
  0
LINE
  5
59317
330
1F
100
AcDbEntity
  8
1
100
AcDbLine
 10
33.8211462365
 20
15.32478417469998
 30
0.0
 11
33.06337311419998
 21
15.34994024070001
 31
0.0
  0
LINE
  5
59318
330
1F
100
AcDbEntity
  8
1
100
AcDbLine
 10
34.56182810359996
 20
15.301617839
 30
0.0
 11
33.8211462365
 21
15.32478417469998
 31
0.0
  0
LINE
  5
59319
330
1F
100
AcDbEntity
  8
1
100
AcDbLine
 10
35.28636563710001
 20
15.28038451350001
 30
0.0
 11
34.56182810359996
 21
15.301617839
 31
0.0
  0
LINE
  5
5931A
330
1F
100
AcDbEntity
  8
1
100
AcDbLine
 10
35.99556152690002
 20
15.26103435399999
 30
0.0
 11
35.28636563710001
 21
15.28038451350001
 31
0.0
  0
LINE
  5
5931B
330
1F
100
AcDbEntity
  8
1
100
AcDbLine
 10
36.6901514347
 20
15.2435203071
 30
0.0
 11
35.99556152690002
 21
15.26103435399999
 31
0.0
  0
LINE
  5
5931C
330
1F
100
AcDbEntity
  8
1
100
AcDbLine
 10
37.37081111070001
 20
15.22779772160002
 30
0.0
 11
36.6901514347
 21
15.2435203071
 31
0.0
  0
LINE
  5
5931D
330
1F
100
AcDbEntity
  8
1
100
AcDbLine
 10
38.03813151809999
 20
15.21382564169998
 30
0.0
 11
37.37081111070001
 21
15.22779772160002
 31
0.0
  0
LINE
  5
5931E
330
1F
100
AcDbEntity
  8
1
100
AcDbLine
 10
38.69260531050003
 20
15.20156749829999
 30
0.0
 11
38.03813151809999
 21
15.21382564169998
 31
0.0
  0
LINE
  5
5931F
330
1F
100
AcDbEntity
  8
1
100
AcDbLine
 10
39.33469019929999
 20
15.19098776140001
 30
0.0
 11
38.69260531050003
 21
15.20156749829999
 31
0.0
  0
LINE
  5
59320
330
1F
100
AcDbEntity
  8
1
100
AcDbLine
 10
39.96481387250003
 20
15.1820516723
 30
0.0
 11
39.33469019929999
 21
15.19098776140001
 31
0.0
  0
LINE
  5
59321
330
1F
100
AcDbEntity
  8
1
100
AcDbLine
 10
40.58335913619998
 20
15.1747260103
 30
0.0
 11
39.96481387250003
 21
15.1820516723
 31
0.0
  0
LINE
  5
59322
330
1F
100
AcDbEntity
  8
1
100
AcDbLine
 10
41.19066390149995
 20
15.16897907930003
 30
0.0
 11
40.58335913619998
 21
15.1747260103
 31
0.0
  0
LINE
  5
59323
330
1F
100
AcDbEntity
  8
1
100
AcDbLine
 10
41.78704694679999
 20
15.16477934770002
 30
0.0
 11
41.19066390149995
 21
15.16897907930003
 31
0.0
  0
LINE
  5
59324
330
1F
100
AcDbEntity
  8
1
100
AcDbLine
 10
42.37279548960003
 20
15.16209608850001
 30
0.0
 11
41.78704694679999
 21
15.16477934770002
 31
0.0
  0
LINE
  5
59325
330
1F
100
AcDbEntity
  8
1
100
AcDbLine
 10
42.94818470830001
 20
15.16089835129999
 30
0.0
 11
42.37279548960003
 21
15.16209608850001
 31
0.0
  0
LINE
  5
59326
330
1F
100
AcDbEntity
  8
1
100
AcDbLine
 10
43.51346821340001
 20
15.16115545279999
 30
0.0
 11
42.94818470830001
 21
15.16089835129999
 31
0.0
  0
LINE
  5
59327
330
1F
100
AcDbEntity
  8
1
100
AcDbLine
 10
44.02749139989999
 20
15.16270266889998
 30
0.0
 11
43.51346821340001
 21
15.16115545279999
 31
0.0
  0
LINE
  5
59328
330
1F
100
AcDbEntity
  8
1
100
AcDbLine
 10
44.06887587269998
 20
15.1628370799
 30
0.0
 11
44.02749139989999
 21
15.16270266889998
 31
0.0
  0
LINE
  5
59329
330
1F
100
AcDbEntity
  8
1
100
AcDbLine
 10
44.61463006539998
 20
15.16591243969999
 30
0.0
 11
44.06887587269998
 21
15.1628370799
 31
0.0
  0
LINE
  5
5932A
330
1F
100
AcDbEntity
  8
1
100
AcDbLine
 10
45.15095416010001
 20
15.17034982000003
 30
0.0
 11
44.61463006539998
 21
15.16591243969999
 31
0.0
  0
LINE
  5
5932B
330
1F
100
AcDbEntity
  8
1
100
AcDbLine
 10
45.41154510069998
 20
15.17316955360002
 30
0.0
 11
45.15095416010001
 21
15.17034982000003
 31
0.0
  0
LINE
  5
5932C
330
1F
100
AcDbEntity
  8
1
100
AcDbLine
 10
45.44946817980002
 20
15.17103091459999
 30
0.0
 11
45.41154510069998
 21
15.17316955360002
 31
0.0
  0
SPLINE
  5
5932D
330
1F
100
AcDbEntity
  8
1
100
AcDbSpline
210
0.0
220
0.0
230
1.0
 70
     8
 71
     3
 72
     9
 73
     5
 74
     0
 42
0.0000000001
 43
0.0000000001
 40
0.0
 40
0.0
 40
0.0
 40
0.0
 40
0.4961699619
 40
1.0
 40
1.0
 40
1.0
 40
1.0
 10
46.63466249269996
 20
15.9765883276
 30
0.0
 10
46.5988313247
 20
15.9192434047
 30
0.0
 10
46.5118229544
 20
15.81235305279998
 30
0.0
 10
46.40189334280001
 20
15.72939665879998
 30
0.0
 10
46.3426593691
 20
15.69467033719998
 30
0.0
  0
SPLINE
  5
5932E
330
1F
100
AcDbEntity
  8
1
100
AcDbSpline
210
0.0
220
0.0
230
1.0
 70
     8
 71
     3
 72
     9
 73
     5
 74
     0
 42
0.0000000001
 43
0.0000000001
 40
0.0
 40
0.0
 40
0.0
 40
0.0
 40
0.5009053941000003
 40
1.0
 40
1.0
 40
1.0
 40
1.0
 10
32.81337728969999
 20
24.57789180750001
 30
0.0
 10
32.85369217789997
 20
24.63498203000002
 30
0.0
 10
32.94652535670002
 20
24.74070257039999
 30
0.0
 10
33.05951650489999
 20
24.82459070430001
 30
0.0
 10
33.11959101820003
 20
24.85980979789997
 30
0.0
  0
SPLINE
  5
5932F
330
1F
100
AcDbEntity
  8
1
100
AcDbSpline
210
0.0
220
0.0
230
1.0
 70
     8
 71
     3
 72
     9
 73
     5
 74
     0
 42
0.0000000001
 43
0.0000000001
 40
0.0
 40
0.0
 40
0.0
 40
0.0
 40
0.4990030289
 40
1.0
 40
1.0
 40
1.0
 40
1.0
 10
28.27398061989999
 20
15.63538041340003
 30
0.0
 10
28.24249834260001
 20
15.66531102730001
 30
0.0
 10
28.18900095470002
 20
15.73623763300001
 30
0.0
 10
28.1612948321
 20
15.82058986950001
 30
0.0
 10
28.15445330929998
 20
15.8636628224
 30
0.0
  0
SPLINE
  5
59330
330
1F
100
AcDbEntity
  8
1
100
AcDbSpline
210
0.0
220
0.0
230
1.0
 70
     8
 71
     3
 72
     9
 73
     5
 74
     0
 42
0.0000000001
 43
0.0000000001
 40
0.0
 40
0.0
 40
0.0
 40
0.0
 40
0.5009572921000001
 40
1.0
 40
1.0
 40
1.0
 40
1.0
 10
28.27398062029999
 20
15.63538041390001
 30
0.0
 10
28.30763156350002
 20
15.60338802090003
 30
0.0
 10
28.38672165579999
 20
15.5509215151
 30
0.0
 10
28.47930150100001
 20
15.5297809428
 30
0.0
 10
28.5255066112
 20
15.52765035399999
 30
0.0
  0
SPLINE
  5
59331
330
1F
100
AcDbEntity
  8
1
100
AcDbSpline
210
0.0
220
0.0
230
1.0
 70
     8
 71
     3
 72
    15
 73
    11
 74
     0
 42
0.0000000001
 43
0.0000000001
 40
0.0
 40
0.0
 40
0.0
 40
0.0
 40
0.1242633073
 40
0.2484648042
 40
0.3728074703
 40
0.4974638851
 40
0.6225393486000002
 40
0.7480500227000002
 40
0.8739206654
 40
1.0
 40
1.0
 40
1.0
 40
1.0
 10
44.21934079779996
 20
22.58255931789998
 30
0.0
 10
44.03942745310001
 20
22.63942696340003
 30
0.0
 10
43.66481393819998
 20
22.71107845830001
 30
0.0
 10
43.09433235199998
 20
22.68426867139999
 30
0.0
 10
42.54497072719999
 20
22.52500412010001
 30
0.0
 10
42.04662190340002
 20
22.24179617509999
 30
0.0
 10
41.62586300129999
 20
21.85001542570002
 30
0.0
 10
41.30514962629996
 20
21.37063706779998
 30
0.0
 10
41.1015070587
 20
20.82974071969998
 30
0.0
 10
41.05097645559999
 20
20.44654354500001
 30
0.0
 10
41.04768603449997
 20
20.25512740250001
 30
0.0
  0
SPLINE
  5
59332
330
1F
100
AcDbEntity
  8
1
100
AcDbSpline
210
0.0
220
0.0
230
1.0
 70
     8
 71
     3
 72
    27
 73
    23
 74
     0
 42
0.0000000001
 43
0.0000000001
 40
0.0
 40
0.0
 40
0.0
 40
0.0
 40
0.0629521917
 40
0.0944453447
 40
0.1259138081
 40
0.1886748095
 40
0.2512665646999999
 40
0.2825302162
 40
0.3137474903
 40
0.3759775664
 40
0.43807047
 40
0.5000854596000001
 40
0.5620938876000002
 40
0.6241681273
 40
0.6863703304000001
 40
0.7175715783
 40
0.7488185878
 40
0.8113776532999999
 40
0.8741110176000001
 40
0.9055689423
 40
0.9370542709
 40
1.0
 40
1.0
 40
1.0
 40
1.0
 10
33.08881859079998
 20
20.39473469510001
 30
0.0
 10
33.08546951720001
 20
20.19990651470001
 30
0.0
 10
33.10886758739997
 20
19.90609782160003
 30
0.0
 10
33.1958226397
 20
19.5257307689
 30
0.0
 10
33.31892619000001
 20
19.15597879460001
 30
0.0
 10
33.5388557311
 20
18.71960750680002
 30
0.0
 10
33.83895749149997
 20
18.33468971640001
 30
0.0
 10
34.11959835250002
 20
18.06721285620001
 30
0.0
 10
34.42421864929997
 20
17.829239488
 30
0.0
 10
34.84613854769998
 20
17.59032645939999
 30
0.0
 10
35.39779764079998
 20
17.40959379270001
 30
0.0
 10
35.97373251049999
 20
17.34161055969997
 30
0.0
 10
36.5516590428
 20
17.38913065759999
 30
0.0
 10
37.10920981640004
 20
17.550197388
 30
0.0
 10
37.5391118563
 20
17.77402136420001
 30
0.0
 10
37.85173551079998
 20
18.00106141840003
 30
0.0
 10
38.14140233469999
 20
18.25843305210002
 30
0.0
 10
38.4545634356
 20
18.63249962000002
 30
0.0
 10
38.68935157050004
 20
19.06081402059998
 30
0.0
 10
38.82508268780004
 20
19.4259679483
 30
0.0
 10
38.92506138490001
 20
19.80304231279999
 30
0.0
 10
38.9585360424
 20
20.09583030879999
 30
0.0
 10
38.96188477219999
 20
20.29063848829999
 30
0.0
  0
SPLINE
  5
59333
330
1F
100
AcDbEntity
  8
1
100
AcDbSpline
210
0.0
220
0.0
230
1.0
 70
     8
 71
     3
 72
    27
 73
    23
 74
     0
 42
0.0000000001
 43
0.0000000001
 40
0.0
 40
0.0
 40
0.0
 40
0.0
 40
0.0629521917
 40
0.0944453447
 40
0.1259138081
 40
0.1886748095
 40
0.2512665646999999
 40
0.2825302162
 40
0.3137474903
 40
0.3759775664
 40
0.43807047
 40
0.5000854596000001
 40
0.5620938876000002
 40
0.6241681273
 40
0.6863703304000001
 40
0.7175715783
 40
0.7488185878
 40
0.8113776532999999
 40
0.8741110176000001
 40
0.9055689423
 40
0.9370542709
 40
1.0
 40
1.0
 40
1.0
 40
1.0
 10
38.96188477219999
 20
20.29063848829999
 30
0.0
 10
38.9652338459
 20
20.48546666860001
 30
0.0
 10
38.9418357756
 20
20.77927536180003
 30
0.0
 10
38.85488072340002
 20
21.15964241450003
 30
0.0
 10
38.7317771731
 20
21.5293943887
 30
0.0
 10
38.51184763190003
 20
21.96576567660001
 30
0.0
 10
38.2117458715
 20
22.35068346700001
 30
0.0
 10
37.93110501050001
 20
22.6181603271
 30
0.0
 10
37.62648471379999
 20
22.85613369539998
 30
0.0
 10
37.20456481539998
 20
23.095046724
 30
0.0
 10
36.65290572230003
 20
23.27577939059998
 30
0.0
 10
36.07697085260003
 20
23.3437626237
 30
0.0
 10
35.49904432030002
 20
23.2962425258
 30
0.0
 10
34.94149354669997
 20
23.1351757953
 30
0.0
 10
34.51159150670003
 20
22.91135181909999
 30
0.0
 10
34.19896785230003
 20
22.68431176499999
 30
0.0
 10
33.90930102840002
 20
22.4269401312
 30
0.0
 10
33.59613992750002
 20
22.05287356340001
 30
0.0
 10
33.36135179259998
 20
21.6245591628
 30
0.0
 10
33.22562067519999
 20
21.25940523510001
 30
0.0
 10
33.12564197810002
 20
20.88233087050001
 30
0.0
 10
33.09216732070002
 20
20.58954287460001
 30
0.0
 10
33.08881859079998
 20
20.39473469510001
 30
0.0
  0
SPLINE
  5
59334
330
1F
100
AcDbEntity
  8
1
100
AcDbSpline
210
0.0
220
0.0
230
1.0
 70
     8
 71
     3
 72
    27
 73
    23
 74
     0
 42
0.0000000001
 43
0.0000000001
 40
0.0
 40
0.0
 40
0.0
 40
0.0
 40
0.0629521917
 40
0.0944453447
 40
0.1259138081
 40
0.1886748095
 40
0.2512665646999999
 40
0.2825302162
 40
0.3137474903
 40
0.3759775664
 40
0.43807047
 40
0.5000854596000001
 40
0.5620938876000002
 40
0.6241681273
 40
0.6863703304000001
 40
0.7175715783
 40
0.7488185878
 40
0.8113776532999999
 40
0.8741110176000001
 40
0.9055689423
 40
0.9370542709
 40
1.0
 40
1.0
 40
1.0
 40
1.0
 10
40.47375180599999
 20
20.26384164680003
 30
0.0
 10
40.47040273229995
 20
20.06901346640002
 30
0.0
 10
40.49380080259999
 20
19.77520477329997
 30
0.0
 10
40.58075585490001
 20
19.39483772059998
 30
0.0
 10
40.70385940509999
 20
19.02508574629998
 30
0.0
 10
40.92378894629996
 20
18.58871445850001
 30
0.0
 10
41.22389070669996
 20
18.2037966681
 30
0.0
 10
41.50453156769995
 20
17.93631980789998
 30
0.0
 10
41.8091518644
 20
17.69834643969999
 30
0.0
 10
42.2310717629
 20
17.45943341110001
 30
0.0
 10
42.78273085590001
 20
17.2787007444
 30
0.0
 10
43.35866572560002
 20
17.2107175114
 30
0.0
 10
43.9365922579
 20
17.25823760930001
 30
0.0
 10
44.49414303149999
 20
17.41930433969999
 30
0.0
 10
44.92404507149996
 20
17.64312831590003
 30
0.0
 10
45.23666872590001
 20
17.87016837009999
 30
0.0
 10
45.52633554989998
 20
18.12754000390001
 30
0.0
 10
45.83949665070003
 20
18.50160657170001
 30
0.0
 10
46.07428478559998
 20
18.92992097230002
 30
0.0
 10
46.21001590299999
 20
19.29507490000002
 30
0.0
 10
46.30999460009999
 20
19.67214926460001
 30
0.0
 10
46.3434692575
 20
19.96493726050001
 30
0.0
 10
46.34681798739999
 20
20.15974544000001
 30
0.0
  0
SPLINE
  5
59335
330
1F
100
AcDbEntity
  8
1
100
AcDbSpline
210
0.0
220
0.0
230
1.0
 70
     8
 71
     3
 72
    27
 73
    23
 74
     0
 42
0.0000000001
 43
0.0000000001
 40
0.0
 40
0.0
 40
0.0
 40
0.0
 40
0.0629521917
 40
0.0944453447
 40
0.1259138081
 40
0.1886748095
 40
0.2512665646999999
 40
0.2825302162
 40
0.3137474903
 40
0.3759775664
 40
0.43807047
 40
0.5000854596000001
 40
0.5620938876000002
 40
0.6241681273
 40
0.6863703304000001
 40
0.7175715783
 40
0.7488185878
 40
0.8113776532999999
 40
0.8741110176000001
 40
0.9055689423
 40
0.9370542709
 40
1.0
 40
1.0
 40
1.0
 40
1.0
 10
46.34681798739999
 20
20.15974544000001
 30
0.0
 10
46.3501670611
 20
20.35457362039999
 30
0.0
 10
46.32676899079996
 20
20.64838231349998
 30
0.0
 10
46.23981393849999
 20
21.02874936620002
 30
0.0
 10
46.11671038829999
 20
21.3985013405
 30
0.0
 10
45.89678084709999
 20
21.83487262829999
 30
0.0
 10
45.59667908669999
 20
22.21979041870001
 30
0.0
 10
45.31603822570002
 20
22.48726727890002
 30
0.0
 10
45.011417929
 20
22.72524064709998
 30
0.0
 10
44.58949803050001
 20
22.96415367570002
 30
0.0
 10
44.0378389375
 20
23.14488634239999
 30
0.0
 10
43.46190406779999
 20
23.21286957539998
 30
0.0
 10
42.88397753550003
 20
23.1653494775
 30
0.0
 10
42.32642676189999
 20
23.00428274709998
 30
0.0
 10
41.89652472189999
 20
22.78045877090001
 30
0.0
 10
41.58390106749997
 20
22.55341871669998
 30
0.0
 10
41.2942342435
 20
22.29604708289999
 30
0.0
 10
40.98107314269998
 20
21.92198051510001
 30
0.0
 10
40.7462850078
 20
21.49366611450002
 30
0.0
 10
40.61055389039998
 20
21.12851218680003
 30
0.0
 10
40.51057519329996
 20
20.7514378222
 30
0.0
 10
40.47710053590003
 20
20.45864982629998
 30
0.0
 10
40.47375180599999
 20
20.26384164680003
 30
0.0
  0
SPLINE
  5
59336
330
1F
100
AcDbEntity
  8
1
100
AcDbSpline
210
0.0
220
0.0
230
1.0
 70
     8
 71
     3
 72
    15
 73
    11
 74
     0
 42
0.0000000001
 43
0.0000000001
 40
0.0
 40
0.0
 40
0.0
 40
0.0
 40
0.1260729474
 40
0.2519576428
 40
0.377489771
 40
0.5025820911
 40
0.6272431568
 40
0.7515765699000001
 40
0.8757587706999997
 40
1.0
 40
1.0
 40
1.0
 40
1.0
 10
41.04768603449997
 20
20.25512740250001
 30
0.0
 10
41.04433360090001
 20
20.06010376360003
 30
0.0
 10
41.08322719840003
 20
19.66804639230001
 30
0.0
 10
41.27527344290001
 20
19.1111181708
 30
0.0
 10
41.59044696800004
 20
18.6147917407
 30
0.0
 10
42.01141023449998
 20
18.20707188440001
 30
0.0
 10
42.51485558359997
 20
17.91061029250001
 30
0.0
 10
43.07292903489996
 20
17.74210533309998
 30
0.0
 10
43.65411326859998
 20
17.7109128189
 30
0.0
 10
44.03606047629998
 20
17.783094088
 30
0.0
 10
44.21934070239996
 20
17.84102785099998
 30
0.0
  0
SPLINE
  5
59337
330
1F
100
AcDbEntity
  8
1
100
AcDbSpline
210
0.0
220
0.0
230
1.0
 70
     8
 71
     3
 72
     9
 73
     5
 74
     0
 42
0.0000000001
 43
0.0000000001
 40
0.0
 40
0.0
 40
0.0
 40
0.0
 40
0.4529993643
 40
0.4987280776636329
 40
0.4987280776636329
 40
0.4987280776636329
 40
0.4987280776636329
 10
32.11541365199997
 20
-24.28354559879999
 30
0.0
 10
32.26190609750001
 20
-24.28133885480001
 30
0.0
 10
32.42317030767245
 20
-24.27796515964381
 30
0.0
 10
32.5844405129767
 20
-24.27490390179255
 30
0.0
 10
32.59922753856901
 20
-24.27462603874861
 30
0.0
  0
SPLINE
  5
59338
330
1F
100
AcDbEntity
  8
1
100
AcDbSpline
210
0.0
220
0.0
230
1.0
 70
     8
 71
     3
 72
     8
 73
     4
 74
     0
 42
0.0000000001
 43
0.0000000001
 40
0.4987280776636329
 40
0.4987280776636329
 40
0.4987280776636329
 40
0.4987280776636329
 40
1.0
 40
1.0
 40
1.0
 40
1.0
 10
32.59922753856901
 20
-24.27462603874861
 30
0.0
 10
32.76132089740344
 20
-24.2715801419382
 30
0.0
 10
32.9234204858191
 20
-24.26887379423274
 30
0.0
 10
33.08552820170002
 20
-24.26676916390002
 30
0.0
  0
SPLINE
  5
59339
330
1F
100
AcDbEntity
  8
1
100
AcDbSpline
210
0.0
220
0.0
230
1.0
 70
     8
 71
     3
 72
    17
 73
    13
 74
     0
 42
0.0000000001
 43
0.0000000001
 40
0.0
 40
0.0
 40
0.0
 40
0.0
 40
0.1003245379
 40
0.1900861257
 40
0.2681265082999999
 40
0.3369249021
 40
0.3992627357
 40
0.4572934206000001
 40
0.5659741499999999
 40
0.6710575036000001
 40
0.7768604038
 40
1.0
 40
1.0
 40
1.0
 40
1.0
 10
37.74659901320001
 20
-21.80816265489999
 30
0.0
 10
37.6723235051
 20
-21.80815972039999
 30
0.0
 10
37.53127909450001
 20
-21.79799048340001
 30
0.0
 10
37.33728854060001
 20
-21.75200294839997
 30
0.0
 10
37.17496928740002
 20
-21.6841459612
 30
0.0
 10
37.04272319419999
 20
-21.60241827660001
 30
0.0
 10
36.9354232417
 20
-21.51165250109999
 30
0.0
 10
36.8219740838
 20
-21.38502547640001
 30
0.0
 10
36.71724750039999
 20
-21.2107647397
 30
0.0
 10
36.64254626169998
 20
-20.98455272119999
 30
0.0
 10
36.60093328070002
 20
-20.66452170779998
 30
0.0
 10
36.6321387671
 20
-20.41783627150001
 30
0.0
 10
36.67451922679999
 20
-20.25816293920001
 30
0.0
  0
SPLINE
  5
5933A
330
1F
100
AcDbEntity
  8
1
100
AcDbSpline
210
0.0
220
0.0
230
1.0
 70
     8
 71
     3
 72
     9
 73
     5
 74
     0
 42
0.0000000001
 43
0.0000000001
 40
0.0
 40
0.0
 40
0.0
 40
0.0
 40
0.2230657886
 40
1.0
 40
1.0
 40
1.0
 40
1.0
 10
32.11541365199997
 20
24.28354559879998
 30
0.0
 10
32.15138255829999
 20
24.28300376770001
 30
0.0
 10
32.31262592500002
 20
24.28027219300002
 30
0.0
 10
32.4738587645
 20
24.2769771105
 30
0.0
 10
32.59913012909999
 20
24.27463376239999
 30
0.0
  0
SPLINE
  5
5933B
330
1F
100
AcDbEntity
  8
1
100
AcDbSpline
210
0.0
220
0.0
230
1.0
 70
     8
 71
     3
 72
    17
 73
    13
 74
     0
 42
0.0000000001
 43
0.0000000001
 40
0.0
 40
0.0
 40
0.0
 40
0.0
 40
0.1009416641
 40
0.1908922018
 40
0.2688223323
 40
0.3374017219
 40
0.399507925
 40
0.457331265
 40
0.5657106377000001
 40
0.6706477749000001
 40
0.7764493523000004
 40
1.0
 40
1.0
 40
1.0
 40
1.0
 10
45.42604698980002
 20
-21.57385473030001
 30
0.0
 10
45.35139862309995
 20
-21.57385177529999
 30
0.0
 10
45.20990894820002
 20
-21.5635957279
 30
0.0
 10
45.0156937669
 20
-21.5172385744
 30
0.0
 10
44.8538163926
 20
-21.4490911422
 30
0.0
 10
44.72232374129998
 20
-21.36726370869999
 30
0.0
 10
44.6158287696
 20
-21.2765462155
 30
0.0
 10
44.5033276206
 20
-21.15006368969999
 30
0.0
 10
44.39960864099998
 20
-20.97603989810002
 30
0.0
 10
44.3258463251
 20
-20.75016135609998
 30
0.0
 10
44.285165613
 20
-20.43018641259998
 30
0.0
 10
44.31692646900001
 20
-20.1835654751
 30
0.0
 10
44.35962683550002
 20
-20.0238550191
 30
0.0
  0
SPLINE
  5
5933C
330
1F
100
AcDbEntity
  8
1
100
AcDbSpline
210
0.0
220
0.0
230
1.0
 70
     8
 71
     3
 72
    19
 73
    15
 74
     0
 42
0.0000000001
 43
0.0000000001
 40
0.0
 40
0.0
 40
0.0
 40
0.0
 40
0.0057761677
 40
0.0128299236
 40
0.0218196035
 40
0.0330728318
 40
0.0467413374
 40
0.0628815013
 40
0.0814890113
 40
0.1025159297
 40
0.1514738645
 40
0.2088324661
 40
0.2734164665
 40
0.2872733973023906
 40
0.2872733973023906
 40
0.2872733973023906
 40
0.2872733973023906
 10
32.78154593
 20
-24.0777653343
 30
0.0
 10
32.78158755060002
 20
-24.07311919990002
 30
0.0
 10
32.78445172099998
 20
-24.0627907881
 30
0.0
 10
32.79526423509998
 20
-24.0486687892
 30
0.0
 10
32.81223644710002
 20
-24.03456932670001
 30
0.0
 10
32.8355785476
 20
-24.02033194360001
 30
0.0
 10
32.86534914820004
 20
-24.00594419220002
 30
0.0
 10
32.90153868879997
 20
-23.99148980849999
 30
0.0
 10
32.94403678480001
 20
-23.9770610616
 30
0.0
 10
33.01242453840001
 20
-23.9569659013
 30
0.0
 10
33.11212568150001
 20
-23.93318910660001
 30
0.0
 10
33.24720188090004
 20
-23.90747216549998
 30
0.0
 10
33.35519781050812
 20
-23.8909209207644
 30
0.0
 10
33.41772390071753
 20
-23.88242928154638
 30
0.0
 10
33.42877361550808
 20
-23.8809611937075
 30
0.0
  0
SPLINE
  5
5933D
330
1F
100
AcDbEntity
  8
1
100
AcDbSpline
210
0.0
220
0.0
230
1.0
 70
     8
 71
     3
 72
    13
 73
     9
 74
     0
 42
0.0000000001
 43
0.0000000001
 40
0.2872733973023906
 40
0.2872733973023906
 40
0.2872733973023906
 40
0.2872733973023906
 40
0.3439569601
 40
0.4192112003
 40
0.4980409818
 40
0.6625857435000003
 40
0.8313578351
 40
1.0
 40
1.0
 40
1.0
 40
1.0
 10
33.42877361550808
 20
-23.8809611937075
 30
0.0
 10
33.47397389911768
 20
-23.87495579103974
 30
0.0
 10
33.5793469519312
 20
-23.86222373707161
 30
0.0
 10
33.74809790109998
 20
-23.84571586759999
 30
0.0
 10
34.00368889250001
 20
-23.8263975997
 30
0.0
 10
34.33495458319999
 20
-23.81127965359999
 30
0.0
 10
34.73875278280002
 20
-23.80614527709999
 30
0.0
 10
35.01017232969997
 20
-23.81060555679999
 30
0.0
 10
35.14576677029999
 20
-23.8146561674
 30
0.0
  0
SPLINE
  5
5933E
330
1F
100
AcDbEntity
  8
1
100
AcDbSpline
210
0.0
220
0.0
230
1.0
 70
     8
 71
     3
 72
     9
 73
     5
 74
     0
 42
0.0000000001
 43
0.0000000001
 40
0.0
 40
0.0
 40
0.0
 40
0.0
 40
0.524884115
 40
1.0
 40
1.0
 40
1.0
 40
1.0
 10
47.23305009590001
 20
13.5463037216
 30
0.0
 10
47.38330036510001
 20
14.44020732520001
 30
0.0
 10
47.6957123823
 20
16.13904406259999
 30
0.0
 10
48.07950513359998
 20
17.82363175039997
 30
0.0
 10
48.2847665079
 20
18.61803834140001
 30
0.0
  0
SPLINE
  5
5933F
330
1F
100
AcDbEntity
  8
1
100
AcDbSpline
210
0.0
220
0.0
230
1.0
 70
     8
 71
     3
 72
    10
 73
     6
 74
     0
 42
0.0000000001
 43
0.0000000001
 40
0.0
 40
0.0
 40
0.0
 40
0.0
 40
0.2771125062
 40
0.5363723044
 40
0.7458404553156206
 40
0.7458404553156206
 40
0.7458404553156206
 40
0.7458404553156206
 10
47.23305009590001
 20
-13.54630372160001
 30
0.0
 10
47.33940204429996
 20
-14.17903729599997
 30
0.0
 10
47.55867457609997
 20
-15.4015573482
 30
0.0
 10
47.9099201073572
 20
-17.09259647937049
 30
0.0
 10
48.16331950588068
 20
-18.14804328978776
 30
0.0
 10
48.28466212559317
 20
-18.61764415362746
 30
0.0
  0
SPLINE
  5
59340
330
1F
100
AcDbEntity
  8
1
100
AcDbSpline
210
0.0
220
0.0
230
1.0
 70
     8
 71
     3
 72
     9
 73
     5
 74
     0
 42
0.0000000001
 43
0.0000000001
 40
0.7458404553156206
 40
0.7458404553156206
 40
0.7458404553156206
 40
0.7458404553156206
 40
0.7772974165000001
 40
1.0
 40
1.0
 40
1.0
 40
1.0
 10
48.28466212559317
 20
-18.61764415362746
 30
0.0
 10
48.30288480079042
 20
-18.68816664633762
 30
0.0
 10
48.45159295146015
 20
-19.25758382233281
 30
0.0
 10
48.61257828590002
 20
-19.82382820619999
 30
0.0
 10
48.76554985160004
 20
-20.31624669809999
 30
0.0
  0
SPLINE
  5
59341
330
1F
100
AcDbEntity
  8
1
100
AcDbSpline
210
0.0
220
0.0
230
1.0
 70
     8
 71
     3
 72
    17
 73
    13
 74
     0
 42
0.0000000001
 43
0.0000000001
 40
0.0
 40
0.0
 40
0.0
 40
0.0
 40
0.1631131602
 40
0.3204358624
 40
0.4698773961000002
 40
0.6091833608
 40
0.7356748493000002
 40
0.8459776514999999
 40
0.8937573031999999
 40
0.9358014834
 40
0.9714371147000001
 40
1.0
 40
1.0
 40
1.0
 40
1.0
 10
35.14576677029999
 20
-23.8146561674
 30
0.0
 10
35.26112465500001
 20
-23.81364426329999
 30
0.0
 10
35.48777936469998
 20
-23.81445004410002
 30
0.0
 10
35.82000571500004
 20
-23.82359538380001
 30
0.0
 10
36.13510466730003
 20
-23.83979079559999
 30
0.0
 10
36.4279686598
 20
-23.86212041669999
 30
0.0
 10
36.69257069380001
 20
-23.88964689429998
 30
0.0
 10
36.89202488030003
 20
-23.91707572439999
 30
0.0
 10
37.03143846340004
 20
-23.94160298630001
 30
0.0
 10
37.11832377269997
 20
-23.95973507769999
 30
0.0
 10
37.19115465289997
 20
-23.97828750059999
 30
0.0
 10
37.23441670080001
 20
-23.99233630830002
 30
0.0
 10
37.25317560159999
 20
-23.99983243589999
 30
0.0
  0
SPLINE
  5
59342
330
1F
100
AcDbEntity
  8
1
100
AcDbSpline
210
0.0
220
0.0
230
1.0
 70
     8
 71
     3
 72
    13
 73
     9
 74
     0
 42
0.0000000001
 43
0.0000000001
 40
0.0
 40
0.0
 40
0.0
 40
0.0
 40
0.1982976546
 40
0.4241830366
 40
0.5508455041
 40
0.6885629444
 40
0.8386060590999997
 40
1.0
 40
1.0
 40
1.0
 40
1.0
 10
44.35962683550002
 20
-20.0238550191
 30
0.0
 10
44.40087283230002
 20
-19.86958428359999
 30
0.0
 10
44.53212752319998
 20
-19.55015829379998
 30
0.0
 10
44.79612255789999
 20
-19.18786190189998
 30
0.0
 10
45.08509066050002
 20
-18.91732221939999
 30
0.0
 10
45.36007839769999
 20
-18.72580550490001
 30
0.0
 10
45.68822353850001
 20
-18.56959785139999
 30
0.0
 10
45.93345842140002
 20
-18.5068761138
 30
0.0
 10
46.06222304460001
 20
-18.48921066089998
 30
0.0
  0
SPLINE
  5
59343
330
1F
100
AcDbEntity
  8
1
100
AcDbSpline
210
0.0
220
0.0
230
1.0
 70
     8
 71
     3
 72
    13
 73
     9
 74
     0
 42
0.0000000001
 43
0.0000000001
 40
0.0
 40
0.0
 40
0.0
 40
0.0
 40
0.1954157684
 40
0.4201825583
 40
0.5474617384
 40
0.6867735003000001
 40
0.838902825
 40
1.0
 40
1.0
 40
1.0
 40
1.0
 10
36.67451922679999
 20
-20.25816293920001
 30
0.0
 10
36.71856372349998
 20
-20.09222015299998
 30
0.0
 10
36.8634522447
 20
-19.747621284
 30
0.0
 10
37.16051385340001
 20
-19.36176877300001
 30
0.0
 10
37.48929600600002
 20
-19.0798740769
 30
0.0
 10
37.80493449760002
 20
-18.88720564019998
 30
0.0
 10
38.17924314710001
 20
-18.7458319146
 30
0.0
 10
38.45539181859999
 20
-18.70816251399999
 30
0.0
 10
38.59692863269998
 20
-18.7081629398
 30
0.0
  0
LINE
  5
59344
330
1F
100
AcDbEntity
  8
1
100
AcDbLine
 10
48.1049850842
 20
-23.5913322002
 30
0.0
 11
48.772062559
 21
-22.21817467460001
 31
0.0
  0
SPLINE
  5
59345
330
1F
100
AcDbEntity
  8
1
100
AcDbSpline
210
0.0
220
0.0
230
1.0
 70
     8
 71
     3
 72
    15
 73
    11
 74
     0
 42
0.0000000001
 43
0.0000000001
 40
0.0
 40
0.0
 40
0.0
 40
0.0
 40
0.1318447304
 40
0.263805643
 40
0.3947487912
 40
0.5235966188000001
 40
0.6493583151
 40
0.7711550057
 40
0.8882379269000001
 40
1.0
 40
1.0
 40
1.0
 40
1.0
 10
45.4550459401
 20
-0.0000000819999997
 30
0.0
 10
45.50681878019998
 20
0.5984687271000127
 30
0.0
 10
45.61652684469999
 20
1.795412455499992
 30
0.0
 10
45.79819181980002
 20
3.58477519079998
 30
0.0
 10
45.99617608609998
 20
5.358671988900006
 30
0.0
 10
46.20973974560001
 20
7.102314055700006
 30
0.0
 10
46.43869259529998
 20
8.801971649600019
 30
0.0
 10
46.6833126031
 20
10.44528831000001
 30
0.0
 10
46.94424070780002
 20
12.0214877687
 30
0.0
 10
47.13433920009999
 20
13.04675855640001
 30
0.0
 10
47.23305009590001
 20
13.5463037216
 30
0.0
  0
SPLINE
  5
59346
330
1F
100
AcDbEntity
  8
1
100
AcDbSpline
210
0.0
220
0.0
230
1.0
 70
     8
 71
     3
 72
    23
 73
    19
 74
     0
 42
0.0000000001
 43
0.0000000001
 40
0.0
 40
0.0
 40
0.0
 40
0.0
 40
0.0465385761
 40
0.0972380829
 40
0.1519215555
 40
0.2102955272
 40
0.2719636646
 40
0.3364396467000001
 40
0.4031620603000003
 40
0.4715119106000003
 40
0.5408321229000001
 40
0.6104489837
 40
0.6796946919
 40
0.7479296636
 40
0.8145629665000001
 40
0.8790693654999998
 40
0.9410019208999999
 40
1.0
 40
1.0
 40
1.0
 40
1.0
 10
45.21622731919999
 20
13.57724165569999
 30
0.0
 10
45.16356292250001
 20
13.15751431079997
 30
0.0
 10
45.0785041144
 20
12.27732624129997
 30
0.0
 10
45.00538678509999
 20
10.89804842379996
 30
0.0
 10
44.97805603559998
 20
9.409563457399983
 30
0.0
 10
44.99277227940001
 20
7.821284250399983
 30
0.0
 10
45.04543630789998
 20
6.144799832100012
 30
0.0
 10
45.13183747590002
 20
4.393769239100024
 30
0.0
 10
45.24789661909998
 20
2.583611695800001
 30
0.0
 10
45.3898880415
 20
0.7311518264999819
 30
0.0
 10
45.55462119679996
 20
-1.145829690199988
 30
0.0
 10
45.7395696847
 20
-3.029107525399993
 30
0.0
 10
45.94294019179995
 20
-4.900564890199987
 30
0.0
 10
46.16368004379999
 20
-6.742748918099991
 30
0.0
 10
46.4014276485
 20
-8.539380198199992
 30
0.0
 10
46.65641710649999
 20
-10.2757847198
 30
0.0
 10
46.92934736309999
 20
-11.93918167849999
 30
0.0
 10
47.12909233269999
 20
-13.02020579109999
 30
0.0
 10
47.23305009590001
 20
-13.54630372160001
 30
0.0
  0
SPLINE
  5
59347
330
1F
100
AcDbEntity
  8
1
100
AcDbSpline
210
0.0
220
0.0
230
1.0
 70
     8
 71
     3
 72
     9
 73
     5
 74
     0
 42
0.0000000001
 43
0.0000000001
 40
0.0
 40
0.0
 40
0.0
 40
0.0
 40
0.2275657429
 40
1.0
 40
1.0
 40
1.0
 40
1.0
 10
34.4656649314
 20
13.59647349680001
 30
0.0
 10
34.46330247370003
 20
13.5953549507
 30
0.0
 10
34.45273909460002
 20
13.5908230804
 30
0.0
 10
34.44162354740001
 20
13.58767539520001
 30
0.0
 10
34.43296647310001
 20
13.58573270329999
 30
0.0
  0
SPLINE
  5
59348
330
1F
100
AcDbEntity
  8
1
100
AcDbSpline
210
0.0
220
0.0
230
1.0
 70
     8
 71
     3
 72
    24
 73
    20
 74
     0
 42
0.0000000001
 43
0.0000000001
 40
0.0
 40
0.0
 40
0.0
 40
0.0
 40
0.2249221885
 40
0.4241870053000003
 40
0.5133486036
 40
0.5952333164
 40
0.6697369218000003
 40
0.7367678658
 40
0.7962052633
 40
0.8479427491999999
 40
0.891903437
 40
0.9280038867
 40
0.9561984697999999
 40
0.9673680308999999
 40
0.976651213
 40
0.9841650113
 40
0.9901559176999999
 40
0.9951365072999999
 40
1.0
 40
1.0
 40
1.0
 40
1.0
 10
44.10249053160001
 20
14.8679335138
 30
0.0
 10
44.04748168519995
 20
14.7817118346
 30
0.0
 10
43.95623369729998
 20
14.61077193050001
 30
0.0
 10
43.87565000579999
 20
14.39105869680001
 30
0.0
 10
43.83157845510001
 20
14.22847845529998
 30
0.0
 10
43.80767683810001
 20
14.11936980840001
 30
0.0
 10
43.79018917519999
 20
14.01926825210002
 30
0.0
 10
43.77780157160001
 20
13.92870903059999
 30
0.0
 10
43.7694352871
 20
13.84809635329999
 30
0.0
 10
43.7642593157
 20
13.77773536200003
 30
0.0
 10
43.76167390979998
 20
13.71784697919999
 30
0.0
 10
43.76137819660002
 20
13.6686165947
 30
0.0
 10
43.76299671979999
 20
13.6342955994
 30
0.0
 10
43.7658934005
 20
13.61235056520002
 30
0.0
 10
43.76857916399996
 20
13.59989894580001
 30
0.0
 10
43.77202186730002
 20
13.59008565410001
 30
0.0
 10
43.77639659199997
 20
13.5827939127
 30
0.0
 10
43.78216573119999
 20
13.57813010030001
 30
0.0
 10
43.78674174669998
 20
13.5772403031
 30
0.0
 10
43.78895323649999
 20
13.57724031180002
 30
0.0
  0
SPLINE
  5
59349
330
1F
100
AcDbEntity
  8
1
100
AcDbSpline
210
0.0
220
0.0
230
1.0
 70
     8
 71
     3
 72
    17
 73
    13
 74
     0
 42
0.0000000001
 43
0.0000000001
 40
0.0
 40
0.0
 40
0.0
 40
0.0
 40
0.2397966775
 40
0.4450150821000002
 40
0.6155895362
 40
0.7518774169000002
 40
0.8546475507
 40
0.9253761457999999
 40
0.9498470985999999
 40
0.9684455014999999
 40
0.9837704787999999
 40
1.0
 40
1.0
 40
1.0
 40
1.0
 10
44.19737849509997
 20
15.11569443860001
 30
0.0
 10
44.18382350679999
 20
15.09741243559998
 30
0.0
 10
44.15944169359995
 20
15.06290123809998
 30
0.0
 10
44.12808518289998
 20
15.01357197419999
 30
0.0
 10
44.10415338239999
 20
14.97125532619999
 30
0.0
 10
44.08700602179999
 20
14.93630324210001
 30
0.0
 10
44.0762362278
 20
14.90896270599998
 30
0.0
 10
44.071400189
 20
14.8906152167
 30
0.0
 10
44.07119714910004
 20
14.87976903430002
 30
0.0
 10
44.07254530769995
 20
14.87425925960001
 30
0.0
 10
44.0758710737
 20
14.8705222297
 30
0.0
 10
44.0789264085
 20
14.86975036099997
 30
0.0
 10
44.08046167480001
 20
14.86962553080001
 30
0.0
  0
SPLINE
  5
5934A
330
1F
100
AcDbEntity
  8
1
100
AcDbSpline
210
0.0
220
0.0
230
1.0
 70
     8
 71
     3
 72
     8
 73
     4
 74
     0
 42
0.0000000001
 43
0.0000000001
 40
0.0
 40
0.0
 40
0.0
 40
0.0
 40
1.0
 40
1.0
 40
1.0
 40
1.0
 10
20.58852521390003
 20
-22.67541135109998
 30
0.0
 10
21.7826037932
 20
-23.11216188429999
 30
0.0
 10
22.97695446210003
 20
-23.54816903050001
 30
0.0
 10
24.17153418690003
 20
-23.9835469842
 30
0.0
  0
SPLINE
  5
5934B
330
1F
100
AcDbEntity
  8
1
100
AcDbSpline
210
0.0
220
0.0
230
1.0
 70
     8
 71
     3
 72
    10
 73
     6
 74
     0
 42
0.0000000001
 43
0.0000000001
 40
0.0
 40
0.0
 40
0.0
 40
0.0
 40
0.5196052781000004
 40
0.7679138478000001
 40
1.0
 40
1.0
 40
1.0
 40
1.0
 10
20.58852549990001
 20
22.6754113879
 30
0.0
 10
20.28989398829998
 20
22.56618283780001
 30
0.0
 10
19.84801580519996
 20
22.40622245930003
 30
0.0
 10
19.27199475090003
 20
22.1995807032
 30
0.0
 10
18.99540359230002
 20
22.09995561320001
 30
0.0
 10
18.8619392603
 20
22.05138154750001
 30
0.0
  0
SPLINE
  5
5934C
330
1F
100
AcDbEntity
  8
1
100
AcDbSpline
210
0.0
220
0.0
230
1.0
 70
     8
 71
     3
 72
     9
 73
     5
 74
     0
 42
0.0000000001
 43
0.0000000001
 40
0.0
 40
0.0
 40
0.0
 40
0.0
 40
0.5020365975
 40
1.0
 40
1.0
 40
1.0
 40
1.0
 10
29.2912979399
 20
14.8772401703
 30
0.0
 10
29.48846000560002
 20
14.8772284525
 30
0.0
 10
29.8825983566
 20
14.9302845955
 30
0.0
 10
30.25107335780001
 20
15.07798936230001
 30
0.0
 10
30.42256573539999
 20
15.17198417920001
 30
0.0
  0
SPLINE
  5
5934D
330
1F
100
AcDbEntity
  8
1
100
AcDbSpline
210
0.0
220
0.0
230
1.0
 70
     8
 71
     3
 72
     9
 73
     5
 74
     0
 42
0.0000000001
 43
0.0000000001
 40
0.0
 40
0.0
 40
0.0
 40
0.0
 40
0.4556143307000001
 40
1.0
 40
1.0
 40
1.0
 40
1.0
 10
48.76554985160004
 20
-20.31624669809999
 30
0.0
 10
48.77242848189999
 20
-20.33838914509999
 30
0.0
 10
48.78539037600001
 20
-20.38763086519999
 30
0.0
 10
48.79206629559999
 20
-20.43850253750001
 30
0.0
 10
48.79206629559999
 20
-20.4662064022
 30
0.0
  0
SPLINE
  5
5934E
330
1F
100
AcDbEntity
  8
1
100
AcDbSpline
210
0.0
220
0.0
230
1.0
 70
     8
 71
     3
 72
    10
 73
     6
 74
     0
 42
0.0000000001
 43
0.0000000001
 40
0.0
 40
0.0
 40
0.0
 40
0.0
 40
0.2320863026
 40
0.4803950161000003
 40
1.0
 40
1.0
 40
1.0
 40
1.0
 10
18.86194510140001
 20
-22.0513836729
 30
0.0
 10
18.99540907319999
 20
-22.0999575917
 30
0.0
 10
19.27199946830001
 20
-22.19958239589998
 30
0.0
 10
19.84801857209999
 20
-22.40622345439998
 30
0.0
 10
20.28989516939998
 20
-22.5661832697
 30
0.0
 10
20.58852550109998
 20
-22.6754113882
 30
0.0
  0
LINE
  5
5934F
330
1F
100
AcDbEntity
  8
1
100
AcDbLine
 10
30.42256573539999
 20
15.17198417920001
 30
0.0
 11
30.5184705854
 21
15.22461291430001
 31
0.0
  0
SPLINE
  5
59350
330
1F
100
AcDbEntity
  8
1
100
AcDbSpline
210
0.0
220
0.0
230
1.0
 70
     8
 71
     3
 72
     8
 73
     4
 74
     0
 42
0.0000000001
 43
0.0000000001
 40
0.0
 40
0.0
 40
0.0
 40
0.0
 40
1.0
 40
1.0
 40
1.0
 40
1.0
 10
20.58852520030001
 20
22.6754113879
 30
0.0
 10
21.78260377969997
 20
23.11216192100001
 30
0.0
 10
22.97695446199998
 20
23.54816903050002
 30
0.0
 10
24.17153418690003
 20
23.98354698430002
 30
0.0
  0
LINE
  5
59351
330
1F
100
AcDbEntity
  8
1
100
AcDbLine
 10
28.26054862530003
 20
13.58848365480001
 30
0.0
 11
28.25018443959999
 21
13.58896013340002
 31
0.0
  0
SPLINE
  5
59352
330
1F
100
AcDbEntity
  8
1
100
AcDbSpline
210
0.0
220
0.0
230
1.0
 70
     8
 71
     3
 72
     9
 73
     5
 74
     0
 42
0.0000000001
 43
0.0000000001
 40
0.0
 40
0.0
 40
0.0
 40
0.0
 40
0.2713091045
 40
1.0
 40
1.0
 40
1.0
 40
1.0
 10
28.25018443959999
 20
13.58896013340002
 30
0.0
 10
28.2000394415
 20
13.59128991770002
 30
0.0
 10
28.01527788590005
 20
13.60119206950001
 30
0.0
 10
27.8307691526
 20
13.61596085789999
 30
0.0
 10
27.69665219859997
 20
13.62977358660002
 30
0.0
  0
SPLINE
  5
59353
330
1F
100
AcDbEntity
  8
1
100
AcDbSpline
210
0.0
220
0.0
230
1.0
 70
     8
 71
     3
 72
    20
 73
    16
 74
     0
 42
0.0000000001
 43
0.0000000001
 40
0.0
 40
0.0
 40
0.0
 40
0.0
 40
0.2052552474
 40
0.3871696905
 40
0.5397970291
 40
0.6031548159000001
 40
0.6569429379999999
 40
0.7009267649
 40
0.7358670033
 40
0.7647327843000003
 40
0.7936332808
 40
0.8290670728
 40
0.8746634852999999
 40
0.9316508284000001
 40
1.0
 40
1.0
 40
1.0
 40
1.0
 10
27.69665219859997
 20
13.62977358660002
 30
0.0
 10
27.67565328109999
 20
13.63193626890002
 30
0.0
 10
27.63609603169999
 20
13.6366197201
 30
0.0
 10
27.58130382619999
 20
13.64564274980002
 30
0.0
 10
27.54138368399998
 20
13.65498695710001
 30
0.0
 10
27.51509177140003
 20
13.66392482500002
 30
0.0
 10
27.4999235967
 20
13.67068915129998
 30
0.0
 10
27.488307792
 20
13.67796932820001
 30
0.0
 10
27.48034179109999
 20
13.68591313989999
 30
0.0
 10
27.47668633530003
 20
13.6951747097
 30
0.0
 10
27.47866076560001
 20
13.70500399129999
 30
0.0
 10
27.48541705179997
 20
13.71430583920001
 30
0.0
 10
27.4962376702
 20
13.72359064730001
 30
0.0
 10
27.51112462290001
 20
13.73301754250001
 30
0.0
 10
27.52261688320004
 20
13.73888458950002
 30
0.0
 10
27.52896918490001
 20
13.74189502569999
 30
0.0
  0
SPLINE
  5
59354
330
1F
100
AcDbEntity
  8
1
100
AcDbSpline
210
0.0
220
0.0
230
1.0
 70
     8
 71
     3
 72
     9
 73
     5
 74
     0
 42
0.0000000001
 43
0.0000000001
 40
0.0
 40
0.0
 40
0.0
 40
0.0
 40
0.4508399071
 40
1.0
 40
1.0
 40
1.0
 40
1.0
 10
34.43296647310001
 20
13.58573270329999
 30
0.0
 10
34.41843429940002
 20
13.58247160899999
 30
0.0
 10
34.38555121920001
 20
13.57820853200002
 30
0.0
 10
34.35250726100003
 20
13.57724030160001
 30
0.0
 10
34.33436565199997
 20
13.57724031180002
 30
0.0
  0
LINE
  5
59355
330
1F
100
AcDbEntity
  8
1
100
AcDbLine
 10
33.50923575690001
 20
-24.22732729240003
 30
0.0
 11
33.42378707450001
 21
-23.88163570759998
 31
0.0
  0
SPLINE
  5
59356
330
1F
100
AcDbEntity
  8
1
100
AcDbSpline
210
0.0
220
0.0
230
1.0
 70
     8
 71
     3
 72
    11
 73
     7
 74
     0
 42
0.0000000001
 43
0.0000000001
 40
0.0
 40
0.0
 40
0.0
 40
0.0
 40
0.2536770135
 40
0.5056716517000001
 40
0.7546896239000001
 40
1.0
 40
1.0
 40
1.0
 40
1.0
 10
25.8816349036
 20
-1.064924292899988
 30
0.0
 10
25.72892911960003
 20
-1.06040399359999
 30
0.0
 10
25.42473852410001
 20
-1.02998650909997
 30
0.0
 10
24.98174528840002
 20
-0.9225719437000208
 30
0.0
 10
24.56140949809998
 20
-0.7601470671000215
 30
0.0
 10
24.29795599699998
 20
-0.6199077094000103
 30
0.0
 10
24.17153418690003
 20
-0.5434690873999984
 30
0.0
  0
SPLINE
  5
59357
330
1F
100
AcDbEntity
  8
1
100
AcDbSpline
210
0.0
220
0.0
230
1.0
 70
     8
 71
     3
 72
    15
 73
    11
 74
     0
 42
0.0000000001
 43
0.0000000001
 40
0.0
 40
0.0
 40
0.0
 40
0.0
 40
0.1240686895
 40
0.2483675185
 40
0.3729555501
 40
0.4978596603
 40
0.6230717469
 40
0.7485498564000001
 40
0.8742227621999999
 40
1.0
 40
1.0
 40
1.0
 40
1.0
 10
45.7375885948
 20
-18.56548851759997
 30
0.0
 10
45.8174180755
 20
-18.5849954998
 30
0.0
 10
45.97423409059999
 20
-18.63769923789998
 30
0.0
 10
46.1928292204
 20
-18.7551376848
 30
0.0
 10
46.38922201619999
 20
-18.90781652580001
 30
0.0
 10
46.5578767147
 20
-19.09146025459999
 30
0.0
 10
46.69414753419999
 20
-19.3009590091
 30
0.0
 10
46.7942614161
 20
-19.5305141093
 30
0.0
 10
46.85545713989998
 20
-19.7736702721
 30
0.0
 10
46.8691802049
 20
-19.9405450716
 30
0.0
 10
46.8691802049
 20
-20.0238550191
 30
0.0
  0
SPLINE
  5
59358
330
1F
100
AcDbEntity
  8
1
100
AcDbSpline
210
0.0
220
0.0
230
1.0
 70
     8
 71
     3
 72
    15
 73
    11
 74
     0
 42
0.0000000001
 43
0.0000000001
 40
0.0
 40
0.0
 40
0.0
 40
0.0
 40
0.1257416906
 40
0.2513857160000001
 40
0.3768477067
 40
0.5020590779000002
 40
0.6269770979000004
 40
0.7515891213
 40
0.8759139334999998
 40
1.0
 40
1.0
 40
1.0
 40
1.0
 10
39.2486962305
 20
-20.25816293920001
 30
0.0
 10
39.2486962305
 20
-20.17510553709998
 30
0.0
 10
39.23549979940003
 20
-20.00875456240001
 30
0.0
 10
39.17661561980003
 20
-19.7658696463
 30
0.0
 10
39.08015946890003
 20
-19.53561981599998
 30
0.0
 10
38.94860708409999
 20
-19.32403174470001
 30
0.0
 10
38.78535092000004
 20
-19.13655575969999
 30
0.0
 10
38.59457637640003
 20
-18.97804439029998
 30
0.0
 10
38.3812881444
 20
-18.8526312631
 30
0.0
 10
38.22744083600003
 20
-18.79315438490001
 30
0.0
 10
38.14883827940003
 20
-18.7699228972
 30
0.0
  0
SPLINE
  5
59359
330
1F
100
AcDbEntity
  8
1
100
AcDbSpline
210
0.0
220
0.0
230
1.0
 70
     8
 71
     3
 72
    14
 73
    10
 74
     0
 42
0.0000000001
 43
0.0000000001
 40
0.0
 40
0.0
 40
0.0
 40
0.0
 40
0.1262339109
 40
0.2526218617
 40
0.3789346482
 40
0.5049258456
 40
0.6303319971
 40
0.7548721263
 40
1.0
 40
1.0
 40
1.0
 40
1.0
 10
24.17153418690003
 20
-0.5434690873999984
 30
0.0
 10
23.83540544879998
 20
-0.3402350287999951
 30
0.0
 10
23.18488692810001
 20
0.1043056959999973
 30
0.0
 10
22.2854545445
 20
0.869771838099993
 30
0.0
 10
21.46756144070002
 20
1.720672310300003
 30
0.0
 10
20.73562545009997
 20
2.64229316520003
 30
0.0
 10
20.09115541350002
 20
3.620328139600005
 30
0.0
 10
19.35162474240002
 20
4.973125449800008
 30
0.0
 10
18.91594005730002
 20
6.043114138700005
 30
0.0
 10
18.67481750399997
 20
6.766746387000026
 30
0.0
  0
SPLINE
  5
5935A
330
1F
100
AcDbEntity
  8
1
100
AcDbSpline
210
0.0
220
0.0
230
1.0
 70
     8
 71
     3
 72
    15
 73
    11
 74
     0
 42
0.0000000001
 43
0.0000000001
 40
0.0
 40
0.0
 40
0.0
 40
0.0
 40
0.1257373726
 40
0.2513778614
 40
0.376837823
 40
0.5020489982000002
 40
0.6269686006000002
 40
0.7515834912
 40
0.8759115372
 40
1.0
 40
1.0
 40
1.0
 40
1.0
 10
46.91842059259999
 20
-20.0238550191
 30
0.0
 10
46.91842059259999
 20
-19.9411602398
 30
0.0
 10
46.90533955070001
 20
-19.77553764029998
 30
0.0
 10
46.84696598390002
 20
-19.53365873099999
 30
0.0
 10
46.75133180899999
 20
-19.30425163769998
 30
0.0
 10
46.62087021940002
 20
-19.09326860329998
 30
0.0
 10
46.45891652219996
 20
-18.90609683999999
 30
0.0
 10
46.26958636989999
 20
-18.74753845889999
 30
0.0
 10
46.05780312030001
 20
-18.62169279140001
 30
0.0
 10
45.9049446784
 20
-18.5616568889
 30
0.0
 10
45.82681434329998
 20
-18.53807943859998
 30
0.0
  0
SPLINE
  5
5935B
330
1F
100
AcDbEntity
  8
1
100
AcDbSpline
210
0.0
220
0.0
230
1.0
 70
     8
 71
     3
 72
    15
 73
    11
 74
     0
 42
0.0000000001
 43
0.0000000001
 40
0.0
 40
0.0
 40
0.0
 40
0.0
 40
0.1286366133
 40
0.2557523734
 40
0.3808486455
 40
0.5042314933
 40
0.6267669122
 40
0.7496023479999999
 40
0.8738186457999999
 40
1.0
 40
1.0
 40
1.0
 40
1.0
 10
27.20429738569999
 20
16.77532062940001
 30
0.0
 10
27.22090675969997
 20
16.6554380251
 30
0.0
 10
27.27148108379998
 20
16.41911412329999
 30
0.0
 10
27.39882016100001
 20
16.08274372730001
 30
0.0
 10
27.57442610779998
 20
15.77436275599999
 30
0.0
 10
27.79462783280002
 20
15.5014981794
 30
0.0
 10
28.0555365605
 20
15.27031625440001
 30
0.0
 10
28.35281803200002
 20
15.08656970719998
 30
0.0
 10
28.68056113080001
 20
14.95582186770001
 30
0.0
 10
28.91252201629999
 20
14.90739887610003
 30
0.0
 10
29.03036432589999
 20
14.8930085626
 30
0.0
  0
LINE
  5
5935C
330
1F
100
AcDbEntity
  8
1
100
AcDbLine
 10
30.5184705854
 20
15.22461291430001
 30
0.0
 11
44.08043309309999
 21
14.86851294110001
 31
0.0
  0
LINE
  5
5935D
330
1F
100
AcDbEntity
  8
1
100
AcDbLine
 10
44.08043309309999
 20
14.86851294110001
 30
0.0
 11
44.10249053160001
 21
14.8679335138
 31
0.0
  0
SPLINE
  5
5935E
330
1F
100
AcDbEntity
  8
1
100
AcDbSpline
210
0.0
220
0.0
230
1.0
 70
     8
 71
     3
 72
     9
 73
     5
 74
     0
 42
0.0000000001
 43
0.0000000001
 40
0.0
 40
0.0
 40
0.0
 40
0.0
 40
0.5374286378000001
 40
1.0
 40
1.0
 40
1.0
 40
1.0
 10
48.79206629559999
 20
-21.19433321959999
 30
0.0
 10
48.79206629559999
 20
-21.2103017075
 30
0.0
 10
48.78978384879999
 20
-21.24007755230001
 30
0.0
 10
48.77958637699999
 20
-21.26880494509997
 30
0.0
 10
48.772062559
 20
-21.2803069955
 30
0.0
  0
SPLINE
  5
5935F
330
1F
100
AcDbEntity
  8
1
100
AcDbSpline
210
0.0
220
0.0
230
1.0
 70
     8
 71
     3
 72
    15
 73
    11
 74
     0
 42
0.0000000001
 43
0.0000000001
 40
0.0
 40
0.0
 40
0.0
 40
0.0
 40
0.1458430142
 40
0.2880837863
 40
0.4250192939
 40
0.5552846126
 40
0.6779767821
 40
0.7927281957
 40
0.8997698681999999
 40
1.0
 40
1.0
 40
1.0
 40
1.0
 10
18.67481750399997
 20
6.766746387000026
 30
0.0
 10
18.49206523390001
 20
7.315203734699977
 30
0.0
 10
18.17285931269998
 20
8.413143799300016
 30
0.0
 10
17.83742142210002
 20
10.0660186592
 30
0.0
 10
17.64416315570002
 20
11.67917628180002
 30
0.0
 10
17.57916412240001
 20
13.22476930189999
 30
0.0
 10
17.62699505480003
 20
14.6828906233
 30
0.0
 10
17.77544144800003
 20
16.04171444739999
 30
0.0
 10
18.01695124410002
 20
17.29659862820001
 30
0.0
 10
18.2441771956
 20
18.08762034910002
 30
0.0
 10
18.37258517010002
 20
18.46359715690001
 30
0.0
  0
SPLINE
  5
59360
330
1F
100
AcDbEntity
  8
1
100
AcDbSpline
210
0.0
220
0.0
230
1.0
 70
     8
 71
     3
 72
     9
 73
     5
 74
     0
 42
0.0000000001
 43
0.0000000001
 40
0.0
 40
0.0
 40
0.0
 40
0.0
 40
0.2632673537
 40
1.0
 40
1.0
 40
1.0
 40
1.0
 10
47.20434862100001
 20
-20.0238550191
 30
0.0
 10
47.20100314979998
 20
-20.09491434759999
 30
0.0
 10
47.17555594070001
 20
-20.36401178089999
 30
0.0
 10
47.10152079199997
 20
-20.62900975609999
 30
0.0
 10
47.0193192374
 20
-20.8103200042
 30
0.0
  0
SPLINE
  5
59361
330
1F
100
AcDbEntity
  8
1
100
AcDbSpline
210
0.0
220
0.0
230
1.0
 70
     8
 71
     3
 72
    15
 73
    11
 74
     0
 42
0.0000000001
 43
0.0000000001
 40
0.0
 40
0.0
 40
0.0
 40
0.0
 40
0.0832222516
 40
0.1683358777
 40
0.2593154876
 40
0.3603763691
 40
0.4765648205
 40
0.6147973668
 40
0.7853939837999999
 40
1.0
 40
1.0
 40
1.0
 40
1.0
 10
46.21071819829999
 20
-18.47385452179999
 30
0.0
 10
46.2673155617
 20
-18.47377455920002
 30
0.0
 10
46.38227235080001
 20
-18.4872498006
 30
0.0
 10
46.54917944990001
 20
-18.54860000079998
 30
0.0
 10
46.70861981029998
 20
-18.65182696480001
 30
0.0
 10
46.85849248359994
 20
-18.80031296849999
 30
0.0
 10
46.9956029217
 20
-19.00107766750002
 30
0.0
 10
47.11360773679999
 20
-19.26662637080001
 30
0.0
 10
47.198231163
 20
-19.614281797
 30
0.0
 10
47.21121226080001
 20
-19.87806819149999
 30
0.0
 10
47.20434862100001
 20
-20.0238550191
 30
0.0
  0
SPLINE
  5
59362
330
1F
100
AcDbEntity
  8
1
100
AcDbSpline
210
0.0
220
0.0
230
1.0
 70
     8
 71
     3
 72
    18
 73
    14
 74
     0
 42
0.0000000001
 43
0.0000000001
 40
0.0
 40
0.0
 40
0.0
 40
0.0
 40
0.0179016215
 40
0.0407272026
 40
0.0694569627
 40
0.1045372808
 40
0.1461509584
 40
0.1943025009
 40
0.3098219077
 40
0.4499628998
 40
0.6130103681
 40
0.7970597695000004
 40
1.0
 40
1.0
 40
1.0
 40
1.0
 10
17.54564219129997
 20
21.57070382899998
 30
0.0
 10
17.54839541109999
 20
21.57738013410002
 30
0.0
 10
17.55812509090003
 20
21.5910838297
 30
0.0
 10
17.5796713766
 20
21.60917918419999
 30
0.0
 10
17.60954655250003
 20
21.62749448250001
 30
0.0
 10
17.64780574119999
 20
21.64614997529999
 30
0.0
 10
17.69438748090005
 20
21.66535843730001
 30
0.0
 10
17.77222276190002
 20
21.69368450340001
 30
0.0
 10
17.88908493389999
 20
21.73073490500001
 30
0.0
 10
18.05095252550001
 20
21.77897611550001
 30
0.0
 10
18.23919313229999
 20
21.83556593660002
 30
0.0
 10
18.45060159090002
 20
21.90301224860004
 30
0.0
 10
18.5980073993
 20
21.9545281715
 30
0.0
 10
18.67481750399997
 20
21.98285925200001
 30
0.0
  0
SPLINE
  5
59363
330
1F
100
AcDbEntity
  8
1
100
AcDbSpline
210
0.0
220
0.0
230
1.0
 70
     8
 71
     3
 72
    18
 73
    14
 74
     0
 42
0.0000000001
 43
0.0000000001
 40
0.0
 40
0.0
 40
0.0
 40
0.0
 40
0.1918384407
 40
0.3669801909000001
 40
0.5233211116
 40
0.6595680552000001
 40
0.7751035951000002
 40
0.8250816898
 40
0.8699020184999998
 40
0.9096428710999999
 40
0.9444275989000001
 40
0.9744485177999999
 40
1.0
 40
1.0
 40
1.0
 40
1.0
 10
18.37258517010002
 20
18.46359715690001
 30
0.0
 10
18.26833562079997
 20
18.64570889399998
 30
0.0
 10
18.08133041050001
 20
19.00140525430002
 30
0.0
 10
17.85320628760002
 20
19.5269632249
 30
0.0
 10
17.68517077379999
 20
20.01074253509999
 30
0.0
 10
17.57171999259998
 20
20.442959824
 30
0.0
 10
17.51454218510003
 20
20.7685552839
 30
0.0
 10
17.49196835460003
 20
20.9976092722
 30
0.0
 10
17.48550949460002
 20
21.14471528520001
 30
0.0
 10
17.4879201658
 20
21.2753335524
 30
0.0
 10
17.4985250963
 20
21.38933419350001
 30
0.0
 10
17.5167167912
 20
21.4866328993
 30
0.0
 10
17.53498683449999
 20
21.54486556700003
 30
0.0
 10
17.54564219129997
 20
21.57070382899998
 30
0.0
  0
SPLINE
  5
59364
330
1F
100
AcDbEntity
  8
1
100
AcDbSpline
210
0.0
220
0.0
230
1.0
 70
     8
 71
     3
 72
    15
 73
    11
 74
     0
 42
0.0000000001
 43
0.0000000001
 40
0.0
 40
0.0
 40
0.0
 40
0.0
 40
0.1240664971
 40
0.2483616094
 40
0.3729460476
 40
0.4978479658
 40
0.6230600136
 40
0.7485404040000001
 40
0.8742175259999999
 40
1.0
 40
1.0
 40
1.0
 40
1.0
 10
38.05772886239998
 20
-18.79735815209999
 30
0.0
 10
38.13811242520001
 20
-18.81639237109998
 30
0.0
 10
38.29610506120003
 20
-18.8683175771
 30
0.0
 10
38.516526548
 20
-18.9851010288
 30
0.0
 10
38.71469560449998
 20
-19.13761964129999
 30
0.0
 10
38.8849673263
 20
-19.32155712519999
 30
0.0
 10
39.02260186239999
 20
-19.53174077189997
 30
0.0
 10
39.12374821730003
 20
-19.7622913995
 30
0.0
 10
39.18558719679999
 20
-20.00665708630001
 30
0.0
 10
39.19945584280004
 20
-20.1744139931
 30
0.0
 10
39.19945584280004
 20
-20.25816293920001
 30
0.0
  0
SPLINE
  5
59365
330
1F
100
AcDbEntity
  8
1
100
AcDbSpline
210
0.0
220
0.0
230
1.0
 70
     8
 71
     3
 72
    18
 73
    14
 74
     0
 42
0.0000000001
 43
0.0000000001
 40
0.0
 40
0.0
 40
0.0
 40
0.0
 40
0.0889512081
 40
0.1746250888
 40
0.2553605521
 40
0.3305078099
 40
0.4002803063
 40
0.465355935
 40
0.5844440008000003
 40
0.6939111117
 40
0.7979467223000001
 40
0.8993428563
 40
1.0
 40
1.0
 40
1.0
 40
1.0
 10
38.59692863269998
 20
-18.7081629398
 30
0.0
 10
38.66471455649998
 20
-18.70816314369999
 30
0.0
 10
38.7979887066
 20
-18.71685310150002
 30
0.0
 10
38.98915377420002
 20
-18.75651256650002
 30
0.0
 10
39.16276052530003
 20
-18.81968026519998
 30
0.0
 10
39.31464031679997
 20
-18.90159130479999
 30
0.0
 10
39.44360968379999
 20
-18.99726781879998
 30
0.0
 10
39.58196247719996
 20
-19.13328239650002
 30
0.0
 10
39.70967017590004
 20
-19.32019085599998
 30
0.0
 10
39.7996350848
 20
-19.5593245454
 30
0.0
 10
39.83592329850001
 20
-19.79809009149998
 30
0.0
 10
39.8284595815
 20
-20.03231875819999
 30
0.0
 10
39.79884065599998
 20
-20.18411568960002
 30
0.0
 10
39.77881829910001
 20
-20.25816293920001
 30
0.0
  0
SPLINE
  5
59366
330
1F
100
AcDbEntity
  8
1
100
AcDbSpline
210
0.0
220
0.0
230
1.0
 70
     8
 71
     3
 72
    11
 73
     7
 74
     0
 42
0.0000000001
 43
0.0000000001
 40
0.0
 40
0.0
 40
0.0
 40
0.0
 40
0.339439846
 40
0.6233540976
 40
0.8451405177999998
 40
1.0
 40
1.0
 40
1.0
 40
1.0
 10
29.03075025999999
 20
19.2214908291
 30
0.0
 10
29.00753693730002
 20
19.2177638763
 30
0.0
 10
28.96493004259998
 20
19.21079705000001
 30
0.0
 10
28.9071050174
 20
19.2016309047
 30
0.0
 10
28.8617733534
 20
19.19554457520003
 30
0.0
 10
28.83572173710002
 20
19.19333602780001
 30
0.0
 10
28.82499571279999
 20
19.19333602780001
 30
0.0
  0
SPLINE
  5
59367
330
1F
100
AcDbEntity
  8
1
100
AcDbSpline
210
0.0
220
0.0
230
1.0
 70
     8
 71
     3
 72
    17
 73
    13
 74
     0
 42
0.0000000001
 43
0.0000000001
 40
0.0
 40
0.0
 40
0.0
 40
0.0
 40
0.1251754353
 40
0.1877781098
 40
0.250367378
 40
0.375437901
 40
0.5004476871
 40
0.5629621611
 40
0.6254617214
 40
0.7503534998000001
 40
0.8751959392999999
 40
1.0
 40
1.0
 40
1.0
 40
1.0
 10
20.58852520030001
 20
22.6754113879
 30
0.0
 10
20.71275678949996
 20
22.30929903500002
 30
0.0
 10
20.93483591429998
 20
21.77125039250002
 30
0.0
 10
21.29760166469998
 20
21.08790906739999
 30
0.0
 10
21.70341759109999
 20
20.4294768539
 30
0.0
 10
22.288739303
 20
19.657807541
 30
0.0
 10
22.96835829809999
 20
18.9680378039
 30
0.0
 10
23.5613394911
 20
18.47262914590003
 30
0.0
 10
24.18472482999999
 20
18.01671465649998
 30
0.0
 10
25.0171092379
 20
17.5239112282
 30
0.0
 10
26.08301349149997
 20
17.06678849039998
 30
0.0
 10
26.82737825710001
 20
16.85604734070001
 30
0.0
 10
27.20429912560002
 20
16.77532062969997
 30
0.0
  0
SPLINE
  5
59368
330
1F
100
AcDbEntity
  8
1
100
AcDbSpline
210
0.0
220
0.0
230
1.0
 70
     8
 71
     3
 72
    11
 73
     7
 74
     0
 42
0.0000000001
 43
0.0000000001
 40
0.0
 40
0.0
 40
0.0
 40
0.0
 40
0.2507203983
 40
0.5009101299000001
 40
0.7506350777
 40
1.0
 40
1.0
 40
1.0
 40
1.0
 10
28.66766952969999
 20
15.52136283539997
 30
0.0
 10
28.74121611929997
 20
15.44670432550001
 30
0.0
 10
28.89915056960001
 20
15.30793566020001
 30
0.0
 10
29.16320010000004
 20
15.1364874883
 30
0.0
 10
29.44879340030002
 20
15.00534017180003
 30
0.0
 10
29.64987300359997
 20
14.94656365690001
 30
0.0
 10
29.75178956529999
 20
14.92471018670001
 30
0.0
  0
SPLINE
  5
59369
330
1F
100
AcDbEntity
  8
1
100
AcDbSpline
210
0.0
220
0.0
230
1.0
 70
     8
 71
     3
 72
    15
 73
    11
 74
     0
 42
0.0000000001
 43
0.0000000001
 40
0.0
 40
0.0
 40
0.0
 40
0.0
 40
0.1185099133
 40
0.2400172688
 40
0.3637474432
 40
0.4891824562
 40
0.615903774
 40
0.7435267086000003
 40
0.8716784437999999
 40
1.0
 40
1.0
 40
1.0
 40
1.0
 10
18.37258517010002
 20
18.46359715690001
 30
0.0
 10
18.64446290390003
 20
18.1193337255
 30
0.0
 10
19.22955466939999
 20
17.44849534379999
 30
0.0
 10
20.21443543449999
 20
16.52701149860003
 30
0.0
 10
21.3112879103
 20
15.69831406050001
 30
0.0
 10
22.50782293489999
 20
14.98280347809999
 30
0.0
 10
23.78924266659999
 20
14.39764483520001
 30
0.0
 10
25.13812160240002
 20
13.95727307689998
 30
0.0
 10
26.53426892940002
 20
13.67308032559999
 30
0.0
 10
27.48283644000003
 20
13.59295953750001
 30
0.0
 10
27.9576792364
 20
13.58103480039999
 30
0.0
  0
SPLINE
  5
5936A
330
1F
100
AcDbEntity
  8
1
100
AcDbSpline
210
0.0
220
0.0
230
1.0
 70
     8
 71
     3
 72
    12
 73
     8
 74
     0
 42
0.0000000001
 43
0.0000000001
 40
0.0
 40
0.0
 40
0.0
 40
0.0
 40
0.2054636623
 40
0.4313395751
 40
0.5560215207
 40
0.6917854517000001
 40
1.0
 40
1.0
 40
1.0
 40
1.0
 10
47.0193192374
 20
-20.8103200042
 30
0.0
 10
46.93612031590001
 20
-20.902454684
 30
0.0
 10
46.74550530340002
 20
-21.08195487650002
 30
0.0
 10
46.46610427619998
 20
-21.271340013
 30
0.0
 10
46.2030283601
 20
-21.40332100159999
 30
0.0
 10
45.8817852004
 20
-21.52557846820001
 30
0.0
 10
45.61226922849999
 20
-21.57386210199998
 30
0.0
 10
45.42604698980002
 20
-21.57385473030001
 30
0.0
  0
SPLINE
  5
5936B
330
1F
100
AcDbEntity
  8
1
100
AcDbSpline
210
0.0
220
0.0
230
1.0
 70
     8
 71
     3
 72
     9
 73
     5
 74
     0
 42
0.0000000001
 43
0.0000000001
 40
0.0
 40
0.0
 40
0.0
 40
0.0
 40
0.4750966245
 40
1.0
 40
1.0
 40
1.0
 40
1.0
 10
47.9336391141
 20
-22.21793099820001
 30
0.0
 10
47.76333400710001
 20
-22.0133486075
 30
0.0
 10
47.43425570350001
 20
-21.55797480740003
 30
0.0
 10
47.15524601000001
 20
-21.0711210793
 30
0.0
 10
47.0193192374
 20
-20.8103200042
 30
0.0
  0
SPLINE
  5
5936C
330
1F
100
AcDbEntity
  8
1
100
AcDbSpline
210
0.0
220
0.0
230
1.0
 70
     8
 71
     3
 72
    15
 73
    11
 74
     0
 42
0.0000000001
 43
0.0000000001
 40
0.0
 40
0.0
 40
0.0
 40
0.0
 40
0.0450262119
 40
0.095418397
 40
0.2075923733
 40
0.329727654
 40
0.4580161777000001
 40
0.5902763826
 40
0.7251969462000001
 40
1.0
 40
1.0
 40
1.0
 40
1.0
 10
27.5900947728
 20
13.76609625350001
 30
0.0
 10
27.60984121889999
 20
13.77287402149999
 30
0.0
 10
27.65212511210001
 20
13.78596006010001
 30
0.0
 10
27.74504548390002
 20
13.81111020340002
 30
0.0
 10
27.87368411350002
 20
13.8409001124
 30
0.0
 10
28.03834734550003
 20
13.87486244579999
 30
0.0
 10
28.21263931269999
 20
13.90815908969999
 30
0.0
 10
28.39304335980001
 20
13.94099388489998
 30
0.0
 10
28.64051825000002
 20
13.98468446450003
 30
0.0
 10
28.82774029410001
 20
14.01691795399999
 30
0.0
 10
28.95330547750001
 20
14.03856643660002
 30
0.0
  0
SPLINE
  5
5936D
330
1F
100
AcDbEntity
  8
1
100
AcDbSpline
210
0.0
220
0.0
230
1.0
 70
     8
 71
     3
 72
    15
 73
    11
 74
     0
 42
0.0000000001
 43
0.0000000001
 40
0.0
 40
0.0
 40
0.0
 40
0.0
 40
0.1252086723
 40
0.2503620335
 40
0.3754513094
 40
0.5004730977000002
 40
0.6254293725000001
 40
0.7503273737000004
 40
0.8751790823
 40
1.0
 40
1.0
 40
1.0
 40
1.0
 10
17.54564219129997
 20
21.57070382899998
 30
0.0
 10
17.73450067139998
 20
21.03547981210001
 30
0.0
 10
18.18867066140001
 20
19.9905314272
 30
0.0
 10
19.08377194389999
 20
18.5366246091
 30
0.0
 10
20.17511529550001
 20
17.2242493833
 30
0.0
 10
21.44061489730001
 20
16.0803178167
 30
0.0
 10
22.8547802411
 20
15.12780607329998
 30
0.0
 10
24.38921164710001
 20
14.38595356099998
 30
0.0
 10
26.01251497419998
 20
13.86975235940001
 30
0.0
 10
27.13333862809998
 20
13.68285826259999
 30
0.0
 10
27.69665219859997
 20
13.62977358660002
 30
0.0
  0
SPLINE
  5
5936E
330
1F
100
AcDbEntity
  8
1
100
AcDbSpline
210
0.0
220
0.0
230
1.0
 70
     8
 71
     3
 72
    33
 73
    29
 74
     0
 42
0.0000000001
 43
0.0000000001
 40
0.0
 40
0.0
 40
0.0
 40
0.0
 40
0.1431901064
 40
0.2152590262
 40
0.287475263
 40
0.3597539825
 40
0.4320143776
 40
0.504159359
 40
0.5760459778
 40
0.6474309079000001
 40
0.7178628276000003
 40
0.7524785375000002
 40
0.7864728277
 40
0.8195966315999998
 40
0.8515044725
 40
0.8817296202999999
 40
0.9096698421999999
 40
0.934602778
 40
0.9457010894999999
 40
0.9557572316999999
 40
0.9646864045999999
 40
0.9724239969
 40
0.9789406204
 40
0.9842695082999998
 40
0.9885615296999999
 40
0.9921838861999999
 40
0.9957740994999999
 40
1.0
 40
1.0
 40
1.0
 40
1.0
 10
28.95330547750001
 20
14.03856643660002
 30
0.0
 10
29.22609012110001
 20
14.08559677950001
 30
0.0
 10
29.6375063278
 20
14.14886148680001
 30
0.0
 10
30.1889403399
 20
14.2180628821
 30
0.0
 10
30.60534655160001
 20
14.261702916
 30
0.0
 10
31.02301815320004
 20
14.29582977439999
 30
0.0
 10
31.44132434609998
 20
14.31889925590001
 30
0.0
 10
31.85941036550003
 20
14.3289107473
 30
0.0
 10
32.2759272029
 20
14.32329475340002
 30
0.0
 10
32.68848914199998
 20
14.29883389770002
 30
0.0
 10
33.02753500940003
 20
14.25937147739999
 30
0.0
 10
33.29252589890001
 20
14.21398903910001
 30
0.0
 10
33.48493921639999
 20
14.17301318610002
 30
0.0
 10
33.67025109029999
 20
14.1246998815
 30
0.0
 10
33.84592601010002
 20
14.0691921839
 30
0.0
 10
34.00876429000005
 20
14.00719935260001
 30
0.0
 10
34.15491107230002
 20
13.9402176001
 30
0.0
 10
34.26321823949996
 20
13.88016648969999
 30
0.0
 10
34.33776760160004
 20
13.8313122768
 30
0.0
 10
34.38458584710003
 20
13.7967526757
 30
0.0
 10
34.42404901679998
 20
13.76334213559998
 30
0.0
 10
34.45575704290002
 20
13.73157668450001
 30
0.0
 10
34.47943646239997
 20
13.70189880529999
 30
0.0
 10
34.4948875906
 20
13.67459633629998
 30
0.0
 10
34.50199614349998
 20
13.64959944129998
 30
0.0
 10
34.49945938899998
 20
13.62669988719999
 30
0.0
 10
34.48620637089999
 20
13.6079935908
 30
0.0
 10
34.47304848869999
 20
13.59996936869999
 30
0.0
 10
34.4656649314
 20
13.59647349680001
 30
0.0
  0
SPLINE
  5
5936F
330
1F
100
AcDbEntity
  8
1
100
AcDbSpline
210
0.0
220
0.0
230
1.0
 70
     8
 71
     3
 72
    10
 73
     6
 74
     0
 42
0.0000000001
 43
0.0000000001
 40
0.0
 40
0.0
 40
0.0
 40
0.0
 40
0.2091949917
 40
0.4472904652000003
 40
1.0
 40
1.0
 40
1.0
 40
1.0
 10
28.95330547750001
 20
14.03856643660002
 30
0.0
 10
28.96150988369999
 20
14.09783700870001
 30
0.0
 10
28.9769949843
 20
14.22485318930002
 30
0.0
 10
29.00510660520001
 20
14.50951126549998
 30
0.0
 10
29.02103440119999
 20
14.73519346670001
 30
0.0
 10
29.03036432589999
 20
14.8930085626
 30
0.0
  0
SPLINE
  5
59370
330
1F
100
AcDbEntity
  8
1
100
AcDbSpline
210
0.0
220
0.0
230
1.0
 70
     8
 71
     3
 72
    15
 73
    11
 74
     0
 42
0.0000000001
 43
0.0000000001
 40
0.0
 40
0.0
 40
0.0
 40
0.0
 40
0.1240548184
 40
0.2482647059
 40
0.3727447822999999
 40
0.4975695924
 40
0.6227622765
 40
0.7482915682
 40
0.8740768410999999
 40
1.0
 40
1.0
 40
1.0
 40
1.0
 10
45.42603213000001
 20
-21.57346883280001
 30
0.0
 10
45.5243614044
 20
-21.57124081790002
 30
0.0
 10
45.72124695919995
 20
-21.54732506969999
 30
0.0
 10
46.00372607219997
 20
-21.45451937679998
 30
0.0
 10
46.26341062309998
 20
-21.3082564809
 30
0.0
 10
46.49045261969999
 20
-21.1140387242
 30
0.0
 10
46.67643253500003
 20
-20.87916083519998
 30
0.0
 10
46.81442754329999
 20
-20.61237303609999
 30
0.0
 10
46.89932290889998
 20
-20.32377536689999
 30
0.0
 10
46.91842059259999
 20
-20.12369081060001
 30
0.0
 10
46.91842059259999
 20
-20.0238550191
 30
0.0
  0
SPLINE
  5
59371
330
1F
100
AcDbEntity
  8
1
100
AcDbSpline
210
0.0
220
0.0
230
1.0
 70
     8
 71
     3
 72
     8
 73
     4
 74
     0
 42
0.0000000001
 43
0.0000000001
 40
0.0
 40
0.0
 40
0.0
 40
0.0
 40
1.0
 40
1.0
 40
1.0
 40
1.0
 10
42.89208233950001
 20
-0.7453949862999849
 30
0.0
 10
40.31000445780001
 20
-0.8538551979999766
 30
0.0
 10
37.72789841290001
 20
-0.9616466997999708
 30
0.0
 10
35.14576677029999
 20
-1.06881938710002
 30
0.0
  0
SPLINE
  5
59372
330
1F
100
AcDbEntity
  8
1
100
AcDbSpline
210
0.0
220
0.0
230
1.0
 70
     8
 71
     3
 72
    17
 73
    13
 74
     0
 42
0.0000000001
 43
0.0000000001
 40
0.0
 40
0.0
 40
0.0
 40
0.0
 40
0.0475207833
 40
0.0976492345
 40
0.1503050611
 40
0.2053859546
 40
0.3223230523
 40
0.447330401
 40
0.5790896785000001
 40
0.7161537802
 40
0.8569876779000001
 40
1.0
 40
1.0
 40
1.0
 40
1.0
 10
46.06222304460001
 20
-18.48921066089998
 30
0.0
 10
45.97180218619999
 20
-18.21801080499999
 30
0.0
 10
45.79616500179997
 20
-17.65730840279998
 30
0.0
 10
45.55195024679995
 20
-16.78659555089997
 30
0.0
 10
45.31888520099999
 20
-15.86585652179998
 30
0.0
 10
45.01568053109997
 20
-14.54862161909999
 30
0.0
 10
44.66330605550001
 20
-12.79652403119998
 30
0.0
 10
44.2764969152
 20
-10.5817695082
 30
0.0
 10
43.91071006359999
 20
-8.240871559299975
 30
0.0
 10
43.56004432119997
 20
-5.801485436499987
 30
0.0
 10
43.22040708200001
 20
-3.292228322100001
 30
0.0
 10
43.00088300120001
 20
-1.59882366219999
 30
0.0
 10
42.89208233950001
 20
-0.7453949862999849
 30
0.0
  0
SPLINE
  5
59373
330
1F
100
AcDbEntity
  8
1
100
AcDbSpline
210
0.0
220
0.0
230
1.0
 70
     8
 71
     3
 72
    19
 73
    15
 74
     0
 42
0.0000000001
 43
0.0000000001
 40
0.0
 40
0.0
 40
0.0
 40
0.0
 40
0.2020453167
 40
0.3862643787
 40
0.5503215752
 40
0.6917716508
 40
0.753265158
 40
0.8082200508999999
 40
0.8563949678
 40
0.8976259069999999
 40
0.9318976231
 40
0.9595048656999999
 40
0.9814194621
 40
1.0
 40
1.0
 40
1.0
 40
1.0
 10
33.50923575690001
 20
-24.22732729240003
 30
0.0
 10
33.45804797940002
 20
-24.2241607273
 30
0.0
 10
33.36023083750002
 20
-24.2173815192
 30
0.0
 10
33.22108713360001
 20
-24.2048877681
 30
0.0
 10
33.09761713250003
 20
-24.19033018859999
 30
0.0
 10
33.0055509348
 20
-24.1758247227
 30
0.0
 10
32.94142716810001
 20
-24.16258761689999
 30
0.0
 10
32.90085587429997
 20
-24.15252571019999
 30
0.0
 10
32.86577235120001
 20
-24.14187109640002
 30
0.0
 10
32.83642361990002
 20
-24.13063170650002
 30
0.0
 10
32.81299383649997
 20
-24.1188114898
 30
0.0
 10
32.79562548699999
 20
-24.1063366333
 30
0.0
 10
32.78429807879997
 20
-24.0928668868
 30
0.0
 10
32.78150368210004
 20
-24.08248148589999
 30
0.0
 10
32.78154593
 20
-24.0777653343
 30
0.0
  0
SPLINE
  5
59374
330
1F
100
AcDbEntity
  8
1
100
AcDbSpline
210
0.0
220
0.0
230
1.0
 70
     8
 71
     3
 72
    15
 73
    11
 74
     0
 42
0.0000000001
 43
0.0000000001
 40
0.0
 40
0.0
 40
0.0
 40
0.0
 40
0.1240561573
 40
0.2482642124
 40
0.3727411256
 40
0.4975631442
 40
0.6227546236000002
 40
0.7482848216
 40
0.8740729192999998
 40
1.0
 40
1.0
 40
1.0
 40
1.0
 10
37.74647911139999
 20
-21.8079673125
 30
0.0
 10
37.84522643050002
 20
-21.80637568830002
 30
0.0
 10
38.04307762140002
 20
-21.7835731521
 30
0.0
 10
38.32722046460003
 20
-21.69188574849998
 30
0.0
 10
38.5886350028
 20
-21.5461815261
 30
0.0
 10
38.81732510429998
 20
-21.35198688519999
 30
0.0
 10
39.00473928719998
 20
-21.1166572575
 30
0.0
 10
39.14384344750004
 20
-20.8490328285
 30
0.0
 10
39.22943906090001
 20
-20.5593298328
 30
0.0
 10
39.2486962305
 20
-20.35841251219999
 30
0.0
 10
39.2486962305
 20
-20.25816293920001
 30
0.0
  0
SPLINE
  5
59375
330
1F
100
AcDbEntity
  8
1
100
AcDbSpline
210
0.0
220
0.0
230
1.0
 70
     8
 71
     3
 72
     9
 73
     5
 74
     0
 42
0.0000000001
 43
0.0000000001
 40
0.0
 40
0.0
 40
0.0
 40
0.0
 40
0.2237605455
 40
1.0
 40
1.0
 40
1.0
 40
1.0
 10
27.52896918490001
 20
13.74189502569999
 30
0.0
 10
27.53340164650001
 20
13.7439956253
 30
0.0
 10
27.55341094189998
 20
13.75296087030001
 30
0.0
 10
27.57400060960004
 20
13.76057209469998
 30
0.0
 10
27.5900947728
 20
13.76609625350001
 30
0.0
  0
SPLINE
  5
59376
330
1F
100
AcDbEntity
  8
1
100
AcDbSpline
210
0.0
220
0.0
230
1.0
 70
     8
 71
     3
 72
    15
 73
    11
 74
     0
 42
0.0000000001
 43
0.0000000001
 40
0.0
 40
0.0
 40
0.0
 40
0.0
 40
0.0892670588
 40
0.1575595504
 40
0.2714753475
 40
0.3806899985999999
 40
0.4934686535
 40
0.6116771234
 40
0.7356107120999999
 40
1.0
 40
1.0
 40
1.0
 40
1.0
 10
48.1049850842
 20
-22.28012925189998
 30
0.0
 10
48.1014669964
 20
-22.285304877
 30
0.0
 10
48.09398267090003
 20
-22.29372757129999
 30
0.0
 10
48.07728175419999
 20
-22.30341104289998
 30
0.0
 10
48.05621925170001
 20
-22.3058675587
 30
0.0
 10
48.03313525410001
 20
-22.3000411213
 30
0.0
 10
48.01163792679995
 20
-22.2894567202
 30
0.0
 10
47.99107588750001
 20
-22.27533730519998
 30
0.0
 10
47.96401285079997
 20
-22.25228179859998
 30
0.0
 10
47.94549762739999
 20
-22.23217627269999
 30
0.0
 10
47.9336391141
 20
-22.21793099820001
 30
0.0
  0
SPLINE
  5
59377
330
1F
100
AcDbEntity
  8
1
100
AcDbSpline
210
0.0
220
0.0
230
1.0
 70
     8
 71
     3
 72
    15
 73
    11
 74
     0
 42
0.0000000001
 43
0.0000000001
 40
0.0
 40
0.0
 40
0.0
 40
0.0
 40
0.1006514977
 40
0.2036110337
 40
0.3103684992
 40
0.4226892371
 40
0.5430664994
 40
0.6755117706
 40
0.8266584868
 40
1.0
 40
1.0
 40
1.0
 40
1.0
 10
39.77881829910001
 20
-20.25816293920001
 30
0.0
 10
39.75499739470001
 20
-20.34625808519999
 30
0.0
 10
39.69155183240003
 20
-20.52062336409999
 30
0.0
 10
39.55613560270001
 20
-20.76833778000001
 30
0.0
 10
39.38143745019999
 20
-21.00341453809999
 30
0.0
 10
39.16623865920002
 20
-21.22467730629999
 30
0.0
 10
38.90542777600001
 20
-21.43017933750002
 30
0.0
 10
38.58764797100003
 20
-21.6151094287
 30
0.0
 10
38.1987900465
 20
-21.7634198832
 30
0.0
 10
37.90376467300001
 20
-21.80816886400001
 30
0.0
 10
37.74659901320001
 20
-21.80816265489999
 30
0.0
  0
SPLINE
  5
59378
330
1F
100
AcDbEntity
  8
1
100
AcDbSpline
210
0.0
220
0.0
230
1.0
 70
     8
 71
     3
 72
    15
 73
    11
 74
     0
 42
0.0000000001
 43
0.0000000001
 40
0.0
 40
0.0
 40
0.0
 40
0.0
 40
0.1259366132
 40
0.2517315176
 40
0.3772637759
 40
0.5024521212
 40
0.6272671591
 40
0.7517363120000004
 40
0.8759400855
 40
1.0
 40
1.0
 40
1.0
 40
1.0
 10
46.8691802049
 20
-20.0238550191
 30
0.0
 10
46.8691802049
 20
-20.1218578872
 30
0.0
 10
46.85016096539999
 20
-20.31828089629998
 30
0.0
 10
46.7656442914
 20
-20.60127093230001
 30
0.0
 10
46.62836484190001
 20
-20.8622446685
 30
0.0
 10
46.44355751679998
 20
-21.09103507339999
 30
0.0
 10
46.21830032300002
 20
-21.2788710478
 30
0.0
 10
45.96118966259999
 20
-21.41848999400002
 30
0.0
 10
45.68225865370002
 20
-21.50448934649999
 30
0.0
 10
45.48851101150001
 20
-21.52385469759999
 30
0.0
 10
45.3919685754
 20
-21.52385469759999
 30
0.0
  0
SPLINE
  5
59379
330
1F
100
AcDbEntity
  8
1
100
AcDbSpline
210
0.0
220
0.0
230
1.0
 70
     8
 71
     3
 72
    15
 73
    11
 74
     0
 42
0.0000000001
 43
0.0000000001
 40
0.0
 40
0.0
 40
0.0
 40
0.0
 40
0.1259366132
 40
0.2517315176
 40
0.3772637759
 40
0.5024521212
 40
0.6272671591
 40
0.7517363120000004
 40
0.8759400855
 40
1.0
 40
1.0
 40
1.0
 40
1.0
 10
39.19945584280004
 20
-20.25816293920001
 30
0.0
 10
39.19945584280004
 20
-20.35616580730001
 30
0.0
 10
39.18043660320001
 20
-20.55258881630001
 30
0.0
 10
39.09591992930001
 20
-20.83557885239999
 30
0.0
 10
38.95864047980001
 20
-21.09655258859998
 30
0.0
 10
38.77383315460003
 20
-21.3253429935
 30
0.0
 10
38.54857596089999
 20
-21.51317896790002
 30
0.0
 10
38.29146530050002
 20
-21.65279791409999
 30
0.0
 10
38.01253429159999
 20
-21.7387972666
 30
0.0
 10
37.81878664940001
 20
-21.7581626177
 30
0.0
 10
37.72224421329998
 20
-21.7581626177
 30
0.0
  0
SPLINE
  5
5937A
330
1F
100
AcDbEntity
  8
cut
100
AcDbSpline
210
0.0
220
0.0
230
1.0
 70
     8
 71
     3
 72
    13
 73
     9
 74
     0
 42
0.0000000001
 43
0.0000000001
 40
0.0
 40
0.0
 40
0.0
 40
0.0
 40
0.12622921
 40
0.252305889
 40
0.5024565671
 40
0.7511535786
 40
0.8756464090999999
 40
1.0
 40
1.0
 40
1.0
 40
1.0
 10
28.14942168080012
 20
15.92725103420014
 30
0.0
 10
28.14942168080012
 20
15.90129321660004
 30
0.0
 10
28.15439870120014
 20
15.84924485460016
 30
0.0
 10
28.18404237170014
 20
15.74974864480003
 30
0.0
 10
28.25567719350014
 20
15.63889140160006
 30
0.0
 10
28.36437867280015
 20
15.56444198020006
 30
0.0
 10
28.46235029380011
 20
15.53317179450005
 30
0.0
 10
28.51363519830016
 20
15.52755645290017
 30
0.0
 10
28.53920586240014
 20
15.52728408040018
 30
0.0
  0
SPLINE
  5
5937B
330
1F
100
AcDbEntity
  8
cut
100
AcDbSpline
210
0.0
220
0.0
230
1.0
 70
     8
 71
     3
 72
    13
 73
     9
 74
     0
 42
0.0000000001
 43
0.0000000001
 40
0.0
 40
0.0
 40
0.0
 40
0.0
 40
0.12622921
 40
0.2523058889
 40
0.5024565671
 40
0.7511535786
 40
0.8756464090999999
 40
1.0
 40
1.0
 40
1.0
 40
1.0
 10
50.80000000000016
 20
24.62722910080004
 30
0.0
 10
50.80000000000016
 20
24.65318691840008
 30
0.0
 10
50.79502297960013
 20
24.70523528040019
 30
0.0
 10
50.76537930910015
 20
24.80473149020009
 30
0.0
 10
50.69374448720012
 20
24.91558873340006
 30
0.0
 10
50.58504300810011
 20
24.99003815490005
 30
0.0
 10
50.48707138700013
 20
25.02130834050007
 30
0.0
 10
50.43578648250016
 20
25.02692368219988
 30
0.0
 10
50.41021581840016
 20
25.02719605459998
 30
0.0
  0
ELLIPSE
  5
5937C
330
1F
100
AcDbEntity
  8
1
100
AcDbEllipse
 10
17.19855925830001
 20
0.0000000000000142
 30
0.0
 11
-19.3111692711
 21
23.0009808073
 31
0.0
210
0.0
220
0.0
230
1.0
 40
0.4035729547
 41
2.8541301338
 42
2.884102611499998
  0
ELLIPSE
  5
5937D
330
1F
100
AcDbEntity
  8
1
100
AcDbEllipse
 10
30.38927493210002
 20
0.0000000000000142
 30
0.0
 11
-137.7296477745
 21
0.0000000000000084
 31
0.0
210
0.0
220
0.0
230
1.0
 40
0.1763269807
 41
1.570796322899998
 42
1.583329459199998
  0
ELLIPSE
  5
5937E
330
1F
100
AcDbEntity
  8
1
100
AcDbEllipse
 10
19.8756175972
 20
0.0000000000000142
 30
0.0
 11
-141.4787901992
 21
0.0000000000000087
 31
0.0
210
0.0
220
0.0
230
1.0
 40
0.1709298358
 41
-4.589250011099998
 42
-4.5127457794
  0
ELLIPSE
  5
5937F
330
1F
100
AcDbEntity
  8
1
100
AcDbEllipse
 10
33.99457043870001
 20
17.13849376969999
 30
0.0
 11
-3.2818191199
 21
-1.907885075999999
 31
0.0
210
0.0
220
0.0
230
1.0
 40
0.0461254087
 41
0.0791760477
 42
0.5317048729
  0
ELLIPSE
  5
59380
330
1F
100
AcDbEntity
  8
1
100
AcDbEllipse
 10
29.53687283250003
 20
16.44536449360002
 30
0.0
 11
5.4884877501
 21
10.2818954692
 31
0.0
210
0.0
220
0.0
230
1.0
 40
0.1695740137
 41
0.7989486131
 42
1.2632060001
  0
ELLIPSE
  5
59381
330
1F
100
AcDbEntity
  8
1
100
AcDbEllipse
 10
30.38927493210002
 20
0.0000000000000142
 30
0.0
 11
-137.7296477745
 21
0.0000000000000084
 31
0.0
210
0.0
220
0.0
230
1.0
 40
0.1763269807
 41
4.699855848
 42
4.723698592099998
  0
ELLIPSE
  5
59382
330
1F
100
AcDbEntity
  8
1
100
AcDbEllipse
 10
25.69233899620002
 20
0.0000000000000142
 30
0.0
 11
-277.5839973703
 21
0.000000000000017
 31
0.0
210
0.0
220
0.0
230
1.0
 40
0.0874886635
 41
-1.582105938499999
 42
-1.5714782678
  0
ELLIPSE
  5
59383
330
1F
100
AcDbEntity
  8
1
100
AcDbEllipse
 10
-44.86194236019994
 20
-9.277240067399993
 30
0.0
 11
-80.78825120839999
 21
-56.56854249489999
 31
0.0
210
0.0
220
0.0
230
1.0
 40
0.7002075382000001
 41
-3.820139545899997
 42
-3.637273824499998
  0
SPLINE
  5
59384
330
1F
100
AcDbEntity
  8
1
100
AcDbSpline
210
0.0
220
0.0
230
1.0
 70
     8
 71
     3
 72
    15
 73
    11
 74
     0
 42
0.0000000001
 43
0.0000000001
 40
0.0
 40
0.0
 40
0.0
 40
0.0
 40
0.12605686
 40
0.2519680995
 40
0.3776186528
 40
0.5029160917000001
 40
0.6278015214
 40
0.7522554676000001
 40
0.8763001429
 40
1.0
 40
1.0
 40
1.0
 40
1.0
 10
38.54878271769996
 20
20.29923216030001
 30
0.0
 10
38.54655589269999
 20
20.16968939610003
 30
0.0
 10
38.52211910519998
 20
19.9106543315
 30
0.0
 10
38.42642264509999
 20
19.5330040905
 30
0.0
 10
38.27407799259999
 20
19.17518113020001
 30
0.0
 10
38.06887772750002
 20
18.84607576570001
 30
0.0
 10
37.8159211707
 20
18.55369580099997
 30
0.0
 10
37.52142555500001
 20
18.30514441450002
 30
0.0
 10
37.19274858329999
 20
18.10646309789996
 30
0.0
 10
36.95563508190003
 20
18.01023935969998
 30
0.0
 10
36.83440760910003
 20
17.97192073059998
 30
0.0
  0
SPLINE
  5
59385
330
1F
100
AcDbEntity
  8
1
100
AcDbSpline
210
0.0
220
0.0
230
1.0
 70
     8
 71
     3
 72
    15
 73
    11
 74
     0
 42
0.0000000001
 43
0.0000000001
 40
0.0
 40
0.0
 40
0.0
 40
0.0
 40
0.1236745748
 40
0.2477063826
 40
0.3721608072
 40
0.4970584386
 40
0.6223745347000002
 40
0.7480421420000001
 40
0.8739592626
 40
1.0
 40
1.0
 40
1.0
 40
1.0
 10
36.83440760920002
 20
22.71345245270003
 30
0.0
 10
36.9590161639
 20
22.67406510200003
 30
0.0
 10
37.2026032512
 20
22.57458510860002
 30
0.0
 10
37.53919732169999
 20
22.3680631717
 30
0.0
 10
37.83921779169998
 20
22.10916302969997
 30
0.0
 10
38.09474240230003
 20
21.8045380528
 30
0.0
 10
38.29913647660004
 20
21.46201192809998
 30
0.0
 10
38.44703069209998
 20
21.0903940688
 30
0.0
 10
38.53453847439999
 20
20.6994425317
 30
0.0
 10
38.55107182490002
 20
20.43239810990002
 30
0.0
 10
38.54878271769996
 20
20.29923216030001
 30
0.0
  0
SPLINE
  5
59386
330
1F
100
AcDbEntity
  8
1
100
AcDbSpline
210
0.0
220
0.0
230
1.0
 70
     8
 71
     3
 72
    15
 73
    11
 74
     0
 42
0.0000000001
 43
0.0000000001
 40
0.0
 40
0.0
 40
0.0
 40
0.0
 40
0.1260729474
 40
0.2519576428
 40
0.377489771
 40
0.5025820911
 40
0.6272431568
 40
0.7515765699000001
 40
0.8757587706999997
 40
1.0
 40
1.0
 40
1.0
 40
1.0
 10
33.66275281930001
 20
20.38602045079998
 30
0.0
 10
33.65940038579998
 20
20.19099681190001
 30
0.0
 10
33.69829398320002
 20
19.79893944059998
 30
0.0
 10
33.89034022779998
 20
19.24201121910001
 30
0.0
 10
34.20551375280002
 20
18.74568478899998
 30
0.0
 10
34.62647701930001
 20
18.33796493270002
 30
0.0
 10
35.12992236840001
 20
18.04150334079998
 30
0.0
 10
35.68799581970001
 20
17.87299838140001
 30
0.0
 10
36.26918005340002
 20
17.84180586719998
 30
0.0
 10
36.65112726120003
 20
17.91398713629998
 30
0.0
 10
36.83440748730004
 20
17.97192089930003
 30
0.0
  0
SPLINE
  5
59387
330
1F
100
AcDbEntity
  8
1
100
AcDbSpline
210
0.0
220
0.0
230
1.0
 70
     8
 71
     3
 72
    15
 73
    11
 74
     0
 42
0.0000000001
 43
0.0000000001
 40
0.0
 40
0.0
 40
0.0
 40
0.0
 40
0.1242633073
 40
0.2484648042
 40
0.3728074703
 40
0.4974638851
 40
0.6225393486000002
 40
0.7480500227000002
 40
0.8739206654
 40
1.0
 40
1.0
 40
1.0
 40
1.0
 10
36.83440758270001
 20
22.71345236619999
 30
0.0
 10
36.6544942379
 20
22.77032001170001
 30
0.0
 10
36.27988072310001
 20
22.84197150660002
 30
0.0
 10
35.70939913690001
 20
22.81516171969999
 30
0.0
 10
35.16003751210002
 20
22.65589716840002
 30
0.0
 10
34.66168868829999
 20
22.37268922329999
 30
0.0
 10
34.24092978620001
 20
21.980908474
 30
0.0
 10
33.92021641119999
 20
21.50153011610003
 30
0.0
 10
33.71657384359997
 20
20.96063376789998
 30
0.0
 10
33.66604324050002
 20
20.57743659320001
 30
0.0
 10
33.66275281930001
 20
20.38602045079998
 30
0.0
  0
DIMENSION
  5
59388
102
{ACAD_XDICTIONARY
360
59389
102
}
102
{ACAD_REACTORS
330
5938A
102
}
330
1F
100
AcDbEntity
  8
2
100
AcDbDimension
  2
*D56
 10
50.4
 20
24.62754204357732
 30
0.0
 11
63.83242004702158
 21
47.96034162109946
 31
0.0
 70
    36
 71
     5
 42
0.3999999999999915
  3
\M+18352\M+18373\M+1815B - ISO-25
100
AcDbRadialDimension
 15
50.64944439906614
 25
24.94023597024448
 35
0.0
 40
0.0
1001
ACAD
1000
DSTYLE
1002
{
1070
     4
1000
"
1070
    40
1040
1.0
1070
   143
1040
0.03937
1070
   170
1070
     1
1070
   171
1070
     3
1070
   271
1070
     8
1070
   285
1070
     4
1002
}
  0
DIMENSION
  5
5938B
330
1F
100
AcDbEntity
  8
2
100
AcDbDimension
  2
*D51
 10
35.30000000000001
 20
47.17382138283793
 30
0.0
 11
5.499503805749611
 21
47.17382138283793
 31
0.0
 70
   160
  1
<>(MAX)
 71
     5
 42
15.5
  3
\M+18352\M+18373\M+1815B - ISO-25
100
AcDbAlignedDimension
 13
50.80000000000001
 23
24.01326328138018
 33
0.0
 14
35.30000000000001
 24
25.48749997869183
 34
0.0
 50
180.0
100
AcDbRotatedDimension
1001
ACAD
1000
DSTYLE
1002
{
1070
     4
1000
"
1070
    40
1040
1.0
1070
   143
1040
0.03937
1070
   170
1070
     1
1070
   171
1070
     3
1070
   271
1070
     8
1070
   285
1070
     4
1002
}
  0
DIMENSION
  5
5938C
102
{ACAD_XDICTIONARY
360
5938D
102
}
102
{ACAD_REACTORS
330
5938E
102
}
330
1F
100
AcDbEntity
  8
sk2
100
AcDbDimension
  2
*D57
 10
-9.083735940297684
 20
9.525000000000035
 30
0.0
 11
-9.083735940297685
 21
0.000000000000029
 31
0.0
 70
   160
  1
%%C<>
 71
     5
 42
19.05000000000001
  3
\M+18352\M+18373\M+1815B - ISO-25
100
AcDbAlignedDimension
 13
1.199999999999988
 23
-9.524999999999977
 33
0.0
 14
1.199999999999988
 24
9.525000000000034
 34
0.0
 50
90.0
100
AcDbRotatedDimension
1001
ACAD
1000
DSTYLE
1002
{
1070
     4
1000
%%c[]"
1070
    40
1040
1.0
1070
   143
1040
0.03937
1070
   170
1070
     1
1070
   171
1070
     3
1070
   271
1070
     8
1070
   285
1070
     4
1002
}
  0
VIEWPORT
  5
6B
102
{ACAD_XDICTIONARY
360
59460
102
}
330
50
100
AcDbEntity
 67
     1
  8
0
100
AcDbViewport
 10
155.3592437148233
 20
160.4455827878762
 30
0.0
 40
349.5854424261001
 41
282.2272140146125
 68
     1
 69
     1
 12
155.3592437148233
 22
160.4455827878762
 13
0.0
 23
0.0
 14
10.0
 24
10.0
 15
10.0
 25
10.0
 16
0.0
 26
0.0
 36
1.0
 17
0.0
 27
0.0
 37
0.0
 42
50.0
 43
0.0
 44
0.0
 45
282.2272140146125
 50
0.0
 51
0.0
 72
  1000
 90
    32864
  1

281
     0
 71
     1
 74
     0
110
0.0
120
0.0
130
0.0
111
1.0
121
0.0
131
0.0
112
0.0
122
1.0
132
0.0
 79
     0
146
0.0
  0
VIEWPORT
  5
6D
102
{ACAD_XDICTIONARY
360
59462
102
}
330
50
100
AcDbEntity
 67
     1
  8
0
100
AcDbViewport
 10
133.3499939441681
 20
101.5999939441681
 30
0.0
 40
213.3599903106689
 41
162.5599903106689
 68
     2
 69
     2
 12
210.0
 22
148.5
 13
0.0
 23
0.0
 14
10.0
 24
10.0
 15
10.0
 25
10.0
 16
0.0
 26
0.0
 36
1.0
 17
0.0
 27
0.0
 37
0.0
 42
50.0
 43
0.0
 44
0.0
 45
324.0677920111345
 50
0.0
 51
0.0
 72
   100
 90
    32864
  1

281
     0
 71
     1
 74
     0
110
0.0
120
0.0
130
0.0
111
1.0
121
0.0
131
0.0
112
0.0
122
1.0
132
0.0
 79
     0
146
0.0
  0
ENDSEC
  0
SECTION
  2
OBJECTS
  0
DICTIONARY
  5
C
330
0
100
AcDbDictionary
281
     1
  3
ACAD_COLOR
350
85
  3
ACAD_GROUP
350
D
  3
ACAD_LAYOUT
350
1A
  3
ACAD_MATERIAL
350
84
  3
ACAD_MLINESTYLE
350
17
  3
ACAD_PLOTSETTINGS
350
19
  3
ACAD_PLOTSTYLENAME
350
E
  3
ACAD_TABLESTYLE
350
A1
  3
ACDBHEADERROUNDTRIPXREC
350
5945B
  3
AcDbVariableDictionary
350
5E
  3
ASE_INDEX_DICTIONARY
350
349E9
  3
DWGPROPS
350
5945A
  0
DICTIONARY
  5
E2
330
2
100
AcDbDictionary
280
     1
281
     1
  3
ACAD_LAYERFILTERS
360
4E9A4
  3
ACAD_LAYERSTATES
360
3759A
  3
ACLYDICTIONARY
360
4E9A3
  0
DICTIONARY
  5
31EE
330
1F
100
AcDbDictionary
280
     1
281
     1
  3
ACAD_SORTENTS
360
31EF
  0
DICTIONARY
  5
43668
330
680
100
AcDbDictionary
280
     1
281
     1
  3
ACAD_SORTENTS
360
43669
  0
DICTIONARY
  5
59464
330
71
100
AcDbDictionary
280
     1
281
     1
  3
ACAD_XREC_ROUNDTRIP
360
59465
  0
DICTIONARY
  5
59466
330
73
100
AcDbDictionary
280
     1
281
     1
  3
ACAD_XREC_ROUNDTRIP
360
59467
  0
DICTIONARY
  5
59389
330
59388
100
AcDbDictionary
280
     1
281
     1
  3
ACAD_DIMASSOC
360
5938A
  0
DICTIONARY
  5
5938D
330
5938C
100
AcDbDictionary
280
     1
281
     1
  3
ACAD_DIMASSOC
360
5938E
  0
DICTIONARY
  5
59460
330
6B
100
AcDbDictionary
280
     1
281
     1
  3
ACAD_XREC_ROUNDTRIP
360
59461
  0
DICTIONARY
  5
59462
330
6D
100
AcDbDictionary
280
     1
281
     1
  3
ACAD_XREC_ROUNDTRIP
360
59463
  0
DICTIONARY
  5
85
102
{ACAD_REACTORS
330
C
102
}
330
C
100
AcDbDictionary
281
     1
  0
DICTIONARY
  5
D
102
{ACAD_REACTORS
330
C
102
}
330
C
100
AcDbDictionary
281
     1
  0
DICTIONARY
  5
1A
102
{ACAD_REACTORS
330
C
102
}
330
C
100
AcDbDictionary
281
     1
  3
\M+1838C\M+18343\M+18341\M+18345\M+183671
350
51
  3
\M+1838C\M+18343\M+18341\M+18345\M+183672
350
56
  3
Model
350
22
  0
DICTIONARY
  5
84
102
{ACAD_REACTORS
330
C
102
}
330
C
100
AcDbDictionary
281
     1
  0
DICTIONARY
  5
17
102
{ACAD_REACTORS
330
C
102
}
330
C
100
AcDbDictionary
281
     1
  3
Standard
350
18
  0
DICTIONARY
  5
19
102
{ACAD_REACTORS
330
C
102
}
330
C
100
AcDbDictionary
281
     1
  0
ACDBDICTIONARYWDFLT
  5
E
102
{ACAD_REACTORS
330
C
102
}
330
C
100
AcDbDictionary
281
     1
  3
Normal
350
F
100
AcDbDictionaryWithDefault
340
F
  0
DICTIONARY
  5
A1
102
{ACAD_REACTORS
330
C
102
}
330
C
100
AcDbDictionary
281
     1
  3
Standard
350
A2
  0
DICTIONARY
  5
5945B
102
{ACAD_REACTORS
330
C
102
}
330
C
100
AcDbDictionary
281
     1
  0
DICTIONARY
  5
5E
102
{ACAD_REACTORS
330
C
102
}
330
C
100
AcDbDictionary
281
     1
  3
CTABLESTYLE
350
B8
  3
DIMASSOC
350
5F
  3
HIDETEXT
350
63
  3
PROJECTNAME
350
31CE
  0
DICTIONARY
  5
349E9
102
{ACAD_REACTORS
330
C
102
}
330
C
100
AcDbDictionary
281
     1
  3
ASEBlockHierarchyIndexRecord
350
349EA
1001
DCO15
1040
1842496176.844
  0
XRECORD
  5
5945A
102
{ACAD_REACTORS
330
C
102
}
330
C
100
AcDbXrecord
280
     1
  1
DWGPROPS COOKIE
  2

  3

  4

  6

  7

  8

  9

300
=
301
=
302
=
303
=
304
=
305
=
306
=
307
=
308
=
309
=
 40
2.240564340277777
 41
2455489.391063368
 42
2458517.770471088
  1

 90
        0
  0
DICTIONARY
  5
4E9A4
102
{ACAD_REACTORS
330
E2
102
}
330
E2
100
AcDbDictionary
281
     1
  0
DICTIONARY
  5
3759A
102
{ACAD_REACTORS
330
E2
102
}
330
E2
100
AcDbDictionary
281
     1
  0
DICTIONARY
  5
4E9A3
102
{ACAD_REACTORS
330
E2
102
}
330
E2
100
AcDbDictionary
281
     1
1001
ACAD
1000
<All
  0
SORTENTSTABLE
  5
31EF
102
{ACAD_REACTORS
330
31EE
102
}
330
31EE
100
AcDbSortentsTable
330
1F
331
68C
  5
435D5
  0
SORTENTSTABLE
  5
43669
102
{ACAD_REACTORS
330
43668
102
}
330
43668
100
AcDbSortentsTable
330
680
  0
XRECORD
  5
59465
102
{ACAD_REACTORS
330
59464
102
}
330
59464
100
AcDbXrecord
280
     1
102
SHADEPLOT
 70
     0
  0
XRECORD
  5
59467
102
{ACAD_REACTORS
330
59466
102
}
330
59466
100
AcDbXrecord
280
     1
102
SHADEPLOT
 70
     0
  0
DIMASSOC
  5
5938A
102
{ACAD_REACTORS
330
59389
102
}
330
59389
100
AcDbDimAssoc
330
59388
 90
        2
 70
     0
 71
     0
  1
AcDbOsnapPointRef
 72
     3
331
592F5
 73
     2
 91
        0
 40
0.0
 10
0.0
 20
0.0
 30
0.0
 75
     0
  0
DIMASSOC
  5
5938E
102
{ACAD_REACTORS
330
5938D
102
}
330
5938D
100
AcDbDimAssoc
330
5938C
 90
        3
 70
     0
 71
     0
  1
AcDbOsnapPointRef
 72
     1
331
5923D
 73
     2
 91
        0
 40
1.0
 10
0.0
 20
0.0
 30
2.000000000000000E+50
 75
     0
  1
AcDbOsnapPointRef
 72
    13
331
5923C
 73
     2
 91
        0
 40
0.0
 10
0.0
 20
0.0
 30
2.000000000000000E+50
 75
     0
  0
XRECORD
  5
59461
102
{ACAD_REACTORS
330
59460
102
}
330
59460
100
AcDbXrecord
280
     1
102
SHADEPLOT
 70
     0
  0
XRECORD
  5
59463
102
{ACAD_REACTORS
330
59462
102
}
330
59462
100
AcDbXrecord
280
     1
102
SHADEPLOT
 70
     0
  0
LAYOUT
  5
51
102
{ACAD_XDICTIONARY
360
B2
102
}
102
{ACAD_REACTORS
330
1A
102
}
330
1A
100
AcDbPlotSettings
  1

  2
none_device
  4
Letter_(8.50_x_11.00_Inches)
  6

 40
6.349999904632567
 41
6.349999904632567
 42
6.350006103515625
 43
6.350006103515625
 44
215.8999938964844
 45
279.3999938964844
 46
0.0
 47
0.0
 48
0.0
 49
0.0
140
0.0
141
0.0
142
1.0
143
1.0
 70
   688
 72
     1
 73
     1
 74
     5
  7

 75
    16
147
1.0
148
0.0
149
0.0
100
AcDbLayout
  1
\M+1838C\M+18343\M+18341\M+18345\M+183671
 70
     1
 71
     1
 10
-6.350006103515625
 20
-6.349999904632567
 11
273.0499877929688
 21
209.5499939918518
 12
0.0
 22
0.0
 32
0.0
 14
26.66999878883364
 24
20.31999878883365
 34
0.0
 15
240.0299890995025
 25
182.8799890995025
 35
0.0
146
0.0
 13
0.0
 23
0.0
 33
0.0
 16
1.0
 26
0.0
 36
0.0
 17
0.0
 27
1.0
 37
0.0
 76
     0
330
50
331
6B
  0
LAYOUT
  5
56
102
{ACAD_XDICTIONARY
360
B5
102
}
102
{ACAD_REACTORS
330
1A
102
}
330
1A
100
AcDbPlotSettings
  1

  2
none_device
  4
Letter_(8.50_x_11.00_Inches)
  6

 40
6.349999904632567
 41
6.349999904632567
 42
6.350006103515625
 43
6.350006103515625
 44
215.8999938964844
 45
279.3999938964844
 46
0.0
 47
0.0
 48
0.0
 49
0.0
140
0.0
141
0.0
142
1.0
143
1.0
 70
   688
 72
     1
 73
     1
 74
     5
  7

 75
    16
147
1.0
148
0.0
149
0.0
100
AcDbLayout
  1
\M+1838C\M+18343\M+18341\M+18345\M+183672
 70
     1
 71
     2
 10
-6.350006103515625
 20
-6.349999904632567
 11
273.0499877929688
 21
209.5499939918518
 12
0.0
 22
0.0
 32
0.0
 14
26.66999878883363
 24
20.31999878883363
 34
0.0
 15
240.0299890995026
 25
182.8799890995025
 35
0.0
146
0.0
 13
0.0
 23
0.0
 33
0.0
 16
1.0
 26
0.0
 36
0.0
 17
0.0
 27
1.0
 37
0.0
 76
     0
330
55
331
71
  0
LAYOUT
  5
22
102
{ACAD_XDICTIONARY
360
5945C
102
}
102
{ACAD_REACTORS
330
1A
102
}
330
1A
100
AcDbPlotSettings
  1

  2
none_device
  4
ANSI_A_(8.50_x_11.00_Inches)
  6

 40
6.349999904632567
 41
19.04999923706055
 42
6.350006103515625
 43
19.04998779296875
 44
215.8999938964844
 45
279.3999938964844
 46
0.0
 47
0.0
 48
0.0
 49
0.0
140
0.0
141
0.0
142
1.0
143
78.436453180766
 70
 11952
 72
     0
 73
     1
 74
     0
  7

 75
     0
147
0.0127491741332998
148
0.0
149
0.0
100
AcDbLayout
  1
Model
 70
     1
 71
     0
 10
0.0
 20
0.0
 11
12.0
 21
9.0
 12
0.0
 22
0.0
 32
0.0
 14
0.0
 24
0.0
 34
0.0
 15
0.0
 25
0.0
 35
0.0
146
0.0
 13
0.0
 23
0.0
 33
0.0
 16
1.0
 26
0.0
 36
0.0
 17
0.0
 27
1.0
 37
0.0
 76
     0
330
1F
  0
MLINESTYLE
  5
18
102
{ACAD_REACTORS
330
17
102
}
330
17
100
AcDbMlineStyle
  2
STANDARD
 70
     0
  3

 62
   256
 51
90.0
 52
90.0
 71
     2
 49
0.5
 62
   256
  6
BYLAYER
 49
-0.5
 62
   256
  6
BYLAYER
  0
ACDBPLACEHOLDER
  5
F
102
{ACAD_REACTORS
330
E
102
}
330
E
  0
TABLESTYLE
  5
A2
102
{ACAD_REACTORS
330
A1
102
}
330
A1
100
AcDbTableStyle
  3
Standard
 70
     0
 71
     0
 40
1.5
 41
1.5
280
     0
281
     0
  7
Standard
140
4.5
170
     2
 62
     0
 63
     7
283
     0
274
    -2
284
     1
 64
     0
275
    -2
285
     1
 65
     0
276
    -2
286
     1
 66
     0
277
    -2
287
     1
 67
     0
278
    -2
288
     1
 68
     0
279
    -2
289
     1
 69
     0
  7
Standard
140
6.0
170
     5
 62
     0
 63
     7
283
     0
274
    -2
284
     1
 64
     0
275
    -2
285
     1
 65
     0
276
    -2
286
     1
 66
     0
277
    -2
287
     1
 67
     0
278
    -2
288
     1
 68
     0
279
    -2
289
     1
 69
     0
  7
Standard
140
4.5
170
     5
 62
     0
 63
     7
283
     0
274
    -2
284
     1
 64
     0
275
    -2
285
     1
 65
     0
276
    -2
286
     1
 66
     0
277
    -2
287
     1
 67
     0
278
    -2
288
     1
 68
     0
279
    -2
289
     1
 69
     0
  0
DICTIONARYVAR
  5
B8
102
{ACAD_REACTORS
330
5E
102
}
330
5E
100
DictionaryVariables
280
     0
  1
STANDARD
  0
DICTIONARYVAR
  5
5F
102
{ACAD_REACTORS
330
5E
102
}
330
5E
100
DictionaryVariables
280
     0
  1
2
  0
DICTIONARYVAR
  5
63
102
{ACAD_REACTORS
330
5E
102
}
330
5E
100
DictionaryVariables
280
     0
  1
1
  0
DICTIONARYVAR
  5
31CE
102
{ACAD_REACTORS
330
5E
102
}
330
5E
100
DictionaryVariables
280
     0
  1

  0
XRECORD
  5
349EA
102
{ACAD_REACTORS
330
349E9
102
}
330
349E9
100
AcDbXrecord
280
     1
330
68C
330
431D
330
431E
330
4329
330
4334
330
4335
330
4B09
330
4B0A
330
5153
330
5154
330
515D
330
515E
330
516A
330
516B
330
5177
330
5178
330
85B4
330
85B5
330
8620
330
8621
330
862A
330
862B
330
8637
330
8638
330
8644
330
8645
330
9773
330
9774
330
977D
330
977E
330
978A
330
978B
330
9797
330
9798
330
BD86
330
BD87
330
BD8F
330
BD90
330
BD98
330
BDA0
330
BDA1
330
BDDD
330
BDDE
330
BDE7
330
BDE8
330
BDF4
330
BDF5
330
BE01
330
BE02
330
E473
330
E474
330
E48D
330
E48E
330
E485
330
E47C
330
E47D
330
E4CC
330
E4CD
330
E4D7
330
E4D8
330
1C63B
330
1C63C
330
1C705
330
1C706
330
1C719
330
1C71A
330
1C72E
330
1C72F
330
1C738
330
1C739
330
27043
330
27044
330
2703A
330
2703B
330
2CF2C
330
2CF2D
330
2CF38
330
2CF39
330
2CF42
330
2CF43
330
2CF4F
330
2CF50
330
2CF59
330
2CF5A
330
2FA31
330
2FA32
330
2FA3D
330
2FA3E
330
2FA4A
330
2FA4B
330
2FA54
330
2FA55
330
329D8
330
329D9
330
329E1
330
329E2
330
329EA
330
329EB
330
329F3
330
329F4
330
32E63
330
32E64
330
32E6F
330
32E70
330
32E79
330
32E7A
330
32E88
330
32E89
330
32E92
330
32E93
  0
DICTIONARY
  5
B2
330
51
100
AcDbDictionary
280
     1
281
     1
  3
ACAD_XREC_ROUNDTRIP
360
5945E
  3
ADSK_XREC_LAYOUTTHUMBNAIL
360
B3
  0
DICTIONARY
  5
B5
330
56
100
AcDbDictionary
280
     1
281
     1
  3
ACAD_XREC_ROUNDTRIP
360
5945F
  3
ADSK_XREC_LAYOUTTHUMBNAIL
360
B6
  0
DICTIONARY
  5
5945C
330
22
100
AcDbDictionary
280
     1
281
     1
  3
ACAD_XREC_ROUNDTRIP
360
5945D
  0
XRECORD
  5
5945E
102
{ACAD_REACTORS
330
B2
102
}
330
B2
100
AcDbXrecord
280
     1
102
SHADEPLOT
 70
     0
102
SHADEPLOTRESLEVEL
 70
     2
102
SHADEPLOTCUSTOMDPI
 70
   300
  0
XRECORD
  5
B3
102
{ACAD_REACTORS
330
B2
102
}
330
B2
100
AcDbXrecord
280
     1
310
28000000B40000008B0000000100080000000000BC61000000000000000000000001000000000000FFFFFF0000000000FFFFFF000000000000000000000000000000000000000000000000000000000000000000330000006600000099000000CC000000FF00000000330000333300006633000099330000CC330000FF3300
310
0000660000336600006666000099660000CC660000FF66000000990000339900006699000099990000CC990000FF99000000CC000033CC000066CC000099CC0000CCCC0000FFCC000000FF000033FF000066FF000099FF0000CCFF0000FFFF000000003300330033006600330099003300CC003300FF003300003333003333
310
33006633330099333300CC333300FF33330000663300336633006666330099663300CC663300FF66330000993300339933006699330099993300CC993300FF99330000CC330033CC330066CC330099CC3300CCCC3300FFCC330000FF330033FF330066FF330099FF3300CCFF3300FFFF330000006600330066006600660099
310
006600CC006600FF00660000336600333366006633660099336600CC336600FF33660000666600336666006666660099666600CC666600FF66660000996600339966006699660099996600CC996600FF99660000CC660033CC660066CC660099CC6600CCCC6600FFCC660000FF660033FF660066FF660099FF6600CCFF6600
310
FFFF660000009900330099006600990099009900CC009900FF00990000339900333399006633990099339900CC339900FF33990000669900336699006666990099669900CC669900FF66990000999900339999006699990099999900CC999900FF99990000CC990033CC990066CC990099CC9900CCCC9900FFCC990000FF99
310
0033FF990066FF990099FF9900CCFF9900FFFF99000000CC003300CC006600CC009900CC00CC00CC00FF00CC000033CC003333CC006633CC009933CC00CC33CC00FF33CC000066CC003366CC006666CC009966CC00CC66CC00FF66CC000099CC003399CC006699CC009999CC00CC99CC00FF99CC0000CCCC0033CCCC0066CC
310
CC0099CCCC00CCCCCC00FFCCCC0000FFCC0033FFCC0066FFCC0099FFCC00CCFFCC00FFFFCC000000FF003300FF006600FF009900FF00CC00FF00FF00FF000033FF003333FF006633FF009933FF00CC33FF00FF33FF000066FF003366FF006666FF009966FF00CC66FF00FF66FF000099FF003399FF006699FF009999FF00CC
310
99FF00FF99FF0000CCFF0033CCFF0066CCFF0099CCFF00CCCCFF00FFCCFF0000FFFF0033FFFF0066FFFF0099FFFF00CCFFFF00FFFFFF00000000000D0D0D001A1A1A00282828003535350043434300505050005D5D5D006B6B6B00787878008686860093939300A1A1A100AEAEAE00BBBBBB00C9C9C900D6D6D600E4E4E400
310
F1F1F100FFFFFF0000000000000000000000000000000000000000000000000000000000000000000000000000000000EFEFEFE2E2E2E2E2E2E2E2E2E2E2E2E2E2E2E2E2E2E2E2E2E2E2E2E2E2E2E2E2E2E2E2E2E2E2E2E2E2E2E2E2E2E2E2E2E2E2E2E2E2E2E2E2E2E2E2E2E2E2E2E2E2E2E2E2E2E2E2E2E2E2E2E2E2E2E2
310
E2E2E2E2E2E2E2E2E2E2E2E2E2E2E2E2E2E2E2E2E2E2E2E2E2E2E2E2E2E2E2E2E2E2E2E2E2E2E2E2E2E2E2E2E2E2E2E2E2E2E2E2E2E2E2E2E2E2E2E2E2E2E2E2E2E2E2E2E2E2E2E2E2E2E2E2E2E2E2E2E2E2E2E2E2E2E2E2E2E2E2E2E2E2E2E2E2E2E2E2E2E2E2E2E2E2E2E2E2E2E2E2E2E2E2E2E2E2E2E2E2E2E2E2E2E2E2
310
E2E2E2E2E2E2E2E2E2E2E2E2E2E2E2E2E2E2E2E2E2E2E2E2E2E2E2E2E2E2E2E2E2E2E2E2E2E2E2E2E2E2E2E2E2E2E2E2E2E2E2E2E2E2E2E2E2E2E2E2E2E2E2E2E2E2E2E2E2E2E2E2E2E2E2E2E2E2E2E2E2E2E2E2E2E2E2E2E2E2E2E2E2E2E2E2E2E2E2E2E2E2E2E2E2E2E2E2E2E2E2E2E2E2E2E2E2E2E2E2E2E2E2E2E2E2E2
310
E2E2E2E2E2E2E2E2E2E2E2E2E2E2E2E2E2E2E2E2E2E2E2E2E2E2E2E2F5F5F5F5F5F5F5F5F5F5F5F5F5F5F5F5F5F5F5F5F5F5F5F5F5F5F5F5F5F5F5F5F5F5F5F5F5F5F5F5F5F5F5F5F5F5F5F5F5F5F5F5F5F5F5F5F5F5F5F5F5F5F5F5F5F5F5F5F5F5F5F5F5F5F5F5F5F5F5F5F5F5F5F5F5F5F5F5F5F5F5F5F5F5F5F5F5F5F5
310
F5F5F5F5F5F5F5F5F5F5F5F5F5F5F5F5F5F5F5F5F5F5F5F5F5F5F5F5F5F5F5F5F5F5F5F5F5F5F5F5F5F5F5F5F5F5F5F5F5F5F5F5F5F5F5F5F5F5F5F5F5F5F5F5F5F5F5F5F5F5F5F5F5F5F5F5F5F5F5E2E2F5F5F5F5F5F5F5F5F5F5F5F5F5F5F5F5F5F5F5F5F5F5F5F5F5F5F5F5F5F5F5F5F5F5F5F5F5F5F5F5F5F5F5F5F5F5
310
F5F5F5F5F5F5F5F5F5F5F5F5F5F5F5F5F5F5F5F5F5F5F5F5F5F5F5F5F5F5F5F5F5F5F5F5F5F5F5F5F5F5F5F5F5F5F5F5F5F5F5F5F5F5F5F5F5F5F5F5F5F5F5F5F5F5F5F5F5F5F5F5F5F5F5F5F5F5F5F5F5F5F5F5F5F5F5F5F5F5F5F5F5F5F5F5F5F5F5F5F5F5F5F5F5F5F5F5F5F5F5F5F5F5F5F5F5F5F5F5F5F5F5F5F5F5F5
310
F5F5F5F5F5E2E2F5F5F5F5F5F5F5F5F5F5F5F5F5F5F5F5F5F5F5F5F5F5F5F5F5F5F5F5F5F5F5F5F5F5F5F5F5F5F5F5F5F5F5F5F5F5F5F5F5F5F5F5F5F5F5F5F5F5F5F5F5F5F5F5F5F5F5F5F5F5F5F5F5F5F5F5F5F5F5F5F5F5F5F5F5F5F5F5F5F5F5F5F5F5F5F5F5F5F5F5F5F5F5F5F5F5F5F5F5F5F5F5F5F5F5F5F5F5F5F5
310
F5F5F5F5F5F5F5F5F5F5F5F5F5F5F5F5F5F5F5F5F5F5F5F5F5F5F5F5F5F5F5F5F5F5F5F5F5F5F5F5F5F5F5F5F5F5F5F5F5F5F5F5F5F5F5F5F5F5E2E2F5F5F5F5E2E2E2E2E2E2E2E2F5F5F5F5F5F5F5F5F5E2E2E2E2E2E2E2E2E2E2E2E2E2E2E2F5F5F5F5F5F5F5F5F5E2E2E2E2E2E2E2E2E2E2E2E2E2E2E2E2F5F5F5F5F5F5
310
F5F5E2E2E2E2E2E2E2E2E2E2E2E2E2E2E2E2F5F5F5F5F5F5F5F5E2E2E2E2E2E2E2E2E2E2E2E2E2E2E2E2F5F5F5F5F5F5F5F5E2E2E2E2E2E2E2E2E2E2E2E2E2E2E2E2F5F5F5F5F5F5F5F5F5E2E2E2E2E2E2E2E2E2E2E2E2E2E2E2F5F5F5F5F5F5F5F5F5E2E2E2E2E2E2E2E2F5F5F5F5E2E2F5F5F5F5E2F5F5F5F5F5F5F5F5F5
310
F5F5F5F5F5F5F5F5F5F5F5F5F5F5F5F5F5F5F5F5F5F5F5F5F5F5F5F5F5F5F5F5F5F5F5F5F5F5F5F5F5F5F5F5F5F5F5F5F5F5F5F5F5F5F5F5F5F5F5F5F5F5F5F5F5F5F5F5F5F5F5F5F5F5F5F5F5F5F5F5F5F5F5F5F5F5F5F5F5F5F5F5F5F5F5F5F5F5F5F5F5F5F5F5F5F5F5F5F5F5F5F5F5F5F5F5F5F5F5F5F5F5F5F5F5F5F5
310
F5F5F5F5F5F5F5F5F5F5F5F5F5F5F5F5F5F5F5F5F5F5F5F5F5F5F5F5F5F5F5F5E2F5F5F5F5E2E2F5F5F5F5E2F5F5F5F5F5F5F5F5F5F5F5F5F5F5F5F5F5F5F5F5F5F5F5F5F5F5F5F5F5F5F5F5F5F5F5F5F5F5F5F5F5F5F5F5F5F5F5F5F5F5F5F5F5F5F5F5F5F5F5F5F5F5F5F5F5F5F5F5F5F5F5F5F5F5F5F5F5F5F5F5F5F5F5
310
F5F5F5F5F5F5F5F5F5F5F5F5F5F5F5F5F5F5F5F5F5F5F5F5F5F5F5F5F5F5F5F5F5F5F5F5F5F5F5F5F5F5F5F5F5F5F5F5F5F5F5F5F5F5F5F5F5F5F5F5F5F5F5F5F5F5F5F5F5F5F5F5F5F5F5F5F5F5F5F5F5F5F5F5F5E2F5F5F5F5E2E2F5F5F5F5E2F5F5F5F5F5F5F5F5F5F5F5F5F5F5F5F5F5F5F5F5F5F5F5F5F5F5F5F5F5F5
310
F5F5F5F5F5F5F5F5F5F5F5F5F5F5F5F5F5F5F5F5F5F5F5F5F5F5F5F5F5F5F5F5F5F5F5F5F5F5F5F5F5F5F5F5F5F5F5F5F5F5F5F5F5F5F5F5F5F5F5F5F5F5F5F5F5F5F5F5F5F5F5F5F5F5F5F5F5F5F5F5F5F5F5F5F5F5F5F5F5F5F5F5F5F5F5F5F5F5F5F5F5F5F5F5F5F5F5F5F5F5F5F5F5F5F5F5F5F5F5F5F5F5F5F5F5F5F5
310
F5F5F5F5F5F5F5F5F5F5F5E2F5F5F5F5E2E2F5F5F5F5E2F5F5F5F5F5F5F5F5F5F5F5F5F5F5F5F5F5F5F5F5F5F5F5F5F5F5F5F5F5F5F5F5F5F5F5F5F5F5F5F5F5F5F5F5F5F5F5F5F5F5F5F5F5F5F5F5F5F5F5F5F5F5F5F5F5F5F5F5F5F5F5F5F5F5F5F5F5F5F5F5F5F5F5F5F5F5F5F5F5F5F5F5F5F5F5F5F5F5F5F5F5F5F5F5
310
F5F5F5F5F5F5F5F5F5F5F5F5F5F5F5F5F5F5F5F5F5F5F5F5F5F5F5F5F5F5F5F5F5F5F5F5F5F5F5F5F5F5F5F5F5F5F5F5F5F5F5F5F5F5F5F5F5F5F5F5F5F5F5F5E2F5F5F5F5E2E2F5F5F5F5E2F5F5F5F5F5F5F5F5F5F5F5F5F5F5F5F5F5F5F5F5F5F5F5F5F5F5F5F5F5F5F5F5F5F5F5F5F5F5F5F5F5F5F5F5F5F5F5F5F5F5F5
310
F5F5F5F5F5F5F5F5F5F5F5F5F5F5F5F5F5F5F5F5F5F5F5F5F5F5F5F5F5F5F5F5F5F5F5F5F5F5F5F5F5F5F5F5F5F5F5F5F5F5F5F5F5F5F5F5F5F5F5F5F5F5F5F5F5F5F5F5F5F5F5F5F5F5F5F5F5F5F5F5F5F5F5F5F5F5F5F5F5F5F5F5F5F5F5F5F5F5F5F5F5F5F5F5F5F5F5F5F5F5F5F5F5F5F5F5F5E2F5F5F5F5E2E2F5F5F5
310
F5E2F5F5F5F5F5F5F5F5F5F5F5F5F5F5F5F5F5F5F5F5F5F5F5F5F5F5F5F5F5F5F5F5F5F5F5F5F5F5F5F5F5F5F5F5F5F5F5F5F5F5F5F5F5F5F5F5F5F5F5F5F5F5F5F5F5F5F5F5F5F5F5F5F5F5F5F5F5F5F5F5F5F5F5F5F5F5F5F5F5F5F5F5F5F5F5F5F5F5F5F5F5F5F5F5F5F5F5F5F5F5F5F5F5F5F5F5F5F5F5F5F5F5F5F5F5
310
F5F5F5F5F5F5F5F5F5F5F5F5F5F5F5F5F5F5F5F5F5F5F5F5F5F5F5F5F5F5F5F5F5F5F5F5F5F5F5F5F5F5F5E2F5F5F5F5E2E2F5F5F5F5E2F5F5F5F5F5F5F5F5F5F5F5F5F5F5F5F5F5F5F5F5F5F5F5F5F5F5F5F5F5F5F5F5F5F5F5F5F5F5F5F5F5F5F5F5F5F5F5F5F5F5F5F5F5F5F5F5F5F5F5F5F5F5F5F5F5F5F5F5F5F5F5F5
310
F5F5F5F5F5F5F5F5F5F5F5F5F5F5F5F5F5F5F5F5F5F5F5F5F5F5F5F5F5F5F5F5F5F5F5F5F5F5F5F5F5F5F5F5F5F5F5F5F5F5F5F5F5F5F5F5F5F5F5F5F5F5F5F5F5F5F5F5F5F5F5F5F5F5F5F5F5F5F5F5F5F5F5F5F5F5F5F5F5F5F5F5F5F5F5F5E2F5F5F5F5E2E2F5F5F5F5E2F5F5F5F5F5F5F5F5F5F5F5F5F5F5F5F5F5F5F5
310
F5F5F5F5F5F5F5F5F5F5F5F5F5F5F5F5F5F5F5F5F5F5F5F5F5F5F5F5F5F5F5F5F5F5F5F5F5F5F5F5F5F5F5F5F5F5F5F5F5F5F5F5F5F5F5F5F5F5F5F5F5F5F5F5F5F5F5F5F5F5F5F5F5F5F5F5F5F5F5F5F5F5F5F5F5F5F5F5F5F5F5F5F5F5F5F5F5F5F5F5F5F5F5F5F5F5F5F5F5F5F5F5F5F5F5F5F5F5F5F5F5F5F5F5F5F5F5
310
F5F5F5F5F5F5F5F5F5F5F5F5F5F5F5F5F5F5F5F5F5F5E2F5F5F5F5E2E2F5F5F5F5F5F5F5F5F5F5F5F5F5F5F5F5F5F5F5F5F5F5F5F5F5F5F5F5F5F5F5F5F5F5F5F5F5F5F5F5F5F5F5F5F5F5F5F5F5F5F5F5F5F5F5F5F5F5F5F5F5F5F5F5F5F5F5F5F5F5F5F5F5F5F5F5F5F5F5F5F5F5F5F5F5F5F5F5F5F5F5F5F5F5F5F5F5F5
310
F5F5F5F5F5F5F5F5F5F5F5F5F5F5F5F5F5F5F5F5F5F5F5F5F5F5F5F5F5F5F5F5F5F5F5F5F5F5F5F5F5F5F5F5F5F5F5F5F5F5F5F5F5F5F5F5F5F5F5F5F5F5F5F5F5F5F5F5F5F5F5F5F5F5F5F5F5F5F5F5E2E2F5F5F5F5F5F5F5F5F5F5F5F5F5F5F5F5F5F5F5F5F5F5F5F5F5F5F5F5F5F5F5F5F5F5F5F5F5F5F5F5F5F5F5F5F5
310
F5F5F5F5F5F5F5F5F5F5F5F5F5F5F5F5F5F5F5F5F5F5F5F5F5F5F5F5F5F5F5F5F5F5F5F5F5F5F5F5F5F5F5F5F5F5F5F5F5F5F5F5F5F5F5F5F5F5F5F5F5F5F5F5F5F5F5F5F5F5F5F5F5F5F5F5F5F5F5F5F5F5F5F5F5F5F5F5F5F5F5F5F5F5F5F5F5F5F5F5F5F5F5F5F5F5F5F5F5F5F5F5F5F5F5F5F5F5F5F5F5F5F5F5F5F5F5
310
F5F5F5F5F5F5E2E2F5F5F5F5F5F5F5F5F5F5F5F5F5F5F5F5F5F5F5F5F5F5F5F5F5F5F5F5F5F5F5F5F5F5F5F5F5F5F5F5F5F5F5F5F5F5F5F5F5F5F5F5F5F5F5F5F5F5F5F5F5F5F5F5F5F5F5F5F5F5F5F5F5F5F5F5F5F5F5F5F5F5F5F5F5F5F5F5F5F5F5F5F5F5F5F5F5F5F5F5F5F5F5F5F5F5F5F5F5F5F5F5F5F5F5F5F5F5F5
310
F5F5F5F5F5F5F5F5F5F5F5F5F5F5F5F5F5F5F5F5F5F5F5F5F5F5F5F5F5F5F5F5F5F5F5F5F5F5F5F5F5F5F5F5F5F5F5F5F5F5F5F5F5F5F5F5F5F5F5E2E2F5F5F5F5F5F5F5F5F5F5F5F5F5F5F5F5F5F5F5F5F5F5F5F5F5F5F5F5F5F5F5F5F5F5F5F5F5F5F5F5F5F5F5F5F5F5F5F5F5F5F5F5F5F5F5F5F5F5F5F5F5F5F5F5F5F5
310
F5F5F5F5F5F5F5F5F5F5F5F5F5F5F5F5F5F5F5F5F5F5F5F5F5F5F5F5F5F5F5F5F5F5F5F5F5F5F5F5F5F5F5F5F5F5F5F5F5F5F5F5F5F5F5F5F5F5F5F5F5F5F5F5F5F5F5F5F5F5F5F5F5F5F5F5F5F5F5F5F5F5F5F5F5F5F5F5F5F5F5F5F5F5F5F5F5F5F5F5F5F5F5F5F5F5F5F5F5F5F5F5E2E2F5F5F5F5F5F5F5F5F5F5F5F5F5
310
F5F5F5F5F5F5F5F5E2E2E2E2E2E2E2E2E2E2E2E2E2E2E2E2E2E2E2E2E2E2E2E2E2E2E2E2E2E2E2E2E2E2E2E2E2E2E2E2E2E2E2E2E2E2E2E2E2E2E2E2E2E2E2E2E2E2E2E2E2E2E2E2E2E2E2E2E2E2E2E2E2E2E2E2E2E2E2E2E2E2E2E2E2E2E2E2E2E2E2E2E2E2E2E2E2E2E2E2E2E2E2E2E2E2E2E2E2E2E2E2E2E2E2E2E2E2E2
310
E2E2E2E2E2E2E2E2E2E2E2E2E2E2E2E2E2F5F5F5F5F5F5F5F5F5F5F5F5F5F5F5F5F5F5F5F5F5E2E2F5F5F5F5F5F5F5F5F5F5F5F5F5F5F5F5F5F5F5F5F5E22D2D2D2DF5F5F5F5E2F5F5F5F5F5F5F52DF5F5F5F5F5F5F5F5F5F5F5F5F5F5F5F5F5F5E2F5F5F5F5F5F5F5F5F5F5F5F5F5F5F5F5F5F5F5F5F5F5F5F5F5F5F5F5F5
310
F5F5F5F5F5F5F5F5F5F5F5F5F5F5F5F5F5F5F5F5F5F5F5F5F5F5F5F5F5F5F5F5F5F5F5F5F5F5F5F5F5F5F5F5F5F5F5F5F5F5F5F5F5F5F5F5F5F5F5F5F5F5F5F5F5F5F5F5F5E2F5F5F5F5F5F5F5F5F5F5F5F5F5F5F5F5F5F5F5F5F5E2E2F5F5F5F5F5F5F5F5F5F5F5F5F5F5F5F5F5F5F5F5F5E2DCF5F52DF5F5F5F5E2F5F5F5
310
F5F5F5F52DF5F5F5F5F5F5F5F5F5F5F5F5F5F5F5F5F5F5E2F5F5F5F5F5F5F5F5F5F5F5F5F5F5F5F5F5F5F5F5F5F5F5F5F5F5F5F5F5F5F5F5F5F5F5F5F5F5F5F5F5F5F5F5F5F5F5F5F5F5F5F5F5F5F5F5F5F5F5F5F5F5F5F5F5F5F5F5F5F5F5F5F5F5F5F5F5F5F5F5F5F5F5F5F5F5F5F5F5F5F5F5F5F5F5F5F5F5E2F5F5F5F5
310
F5F5F5F5F5F5F5F5F5F5F5F5F5F5F5F5F5E2E2F5F5F5F5F5F5F5F5F5F5F5F5F5F5F5F5F5F5F5F5F5E2DCF5F52DF5F5F5F5E2F5F5F5F5F5F5F52DF5F5F5F5F5F5F5F5F5F5F5F5F5F5F5F5F5F5E2E2F5F5F5F5F5F5F5F5F5F5F5F5F5F5F5F5F5F5F5F5F5F5F5F5F5F5F5F5F5F5F5F5F5F5F5F5F5F5F5F5F5F5F5F5F5F5F5F5F5
310
F5F5F5F5F5F5F5F5F5F5F5F5F5F5F5F5F5F5F5F5F5F5F5F5F5F5F5F5F5F5F5F5F5F5F5F5F5F5F5F5F5F5F5F5F5F5F5F5E2F5F5F5F5F5F5F5F5F5F5F5F5F5F5F5F5F5F5F5F5F5E2E2F5F5F5F5F5F5F5F5F5F5F5F5F5F5F5F5F5F5F5F5F5E2BEF5F52D2D2D2D2D2D2D2D2D2D2D2D2D2DE2E2E2E2E2E2E2E2E2E2E2E2E2E2E2E2
310
E2E2E2E2F5F5F5F5F5F5F5F5F5F5F5F5F5F5F5F5F5F5F5F5F5F5F5F5F5F5F5F5F5F5F5F5F5F5F5F5F5F5F5F5F5F5F5F5F5F5F5F5F5F5F5F5F5F5F5F5F5F5F5F5F5F5F5F5F5F5F5F5F5F5F5F5F5F5F5F5F5F5F5F5F5F5F5F5F5F5F5F5F5F5F5F5F5F5F5F5F5E2F5F5F5F5F5F5F5F5F5F5F5F5F5F5F5F5F5F5F5F5F5E2E2F5F5
310
F5F5E2F5F5F5F5F5F5F5F5F5F5F5F5F5F5F5F5E2DCF5F5F5F5F5F5F5E2F5F5F5F5F5F5F5E2F5F5F5F5F5F5F5F5F5F5F5F5F5F5F5F5F5F5F5F5F5F5F5F5F5F5F5F5F5F5F5F5F5F5F5F5F5F5F5F5F5F5F5F5F5F5F5F5F5F5F5F5F5F5F5F5F5F5F5F5F5F5F5F5F5F5F5F5F5F5F5F5F5F5F5F5F5F5F5F5F5F5F5F5F5F5F5F5F5F5
310
F5F5F5F5F5F5F5F5F5F5F5F5F5F5F5F5F5F5F5F5F5F5F5F5F5F5F5E2F5F5F5F5F5F5F5F5F5F5F5F5F5F5F5F5E2F5F5F5F5E2E2F5F5F5F5E2F5F5F5F5F5F5F5F5F5F5F5F5F5F5F5F5E2F5F5F5F5F5F5F5F5E2F5F5F5F5F5F5F5E2F5F5F5F5F5F5F5F5F5F5F5F5F5F5F5F5F5F5F5F5F5F5F5F5F5F5F5F5F5F5F5F5F5F5F5F5F5
310
F5F5F5F5F5F5F5F5F5F5F5F5F5F5F5F5F5F5F5F5F5F5F5F5F5F5F5F5F5F5F5F5F5F5F5F5F5F5F5F5F5F5F5F5F5F5F5F5F5F5F5F5F5F5F5F5F5F5F5F5F5F5F5F5F5F5F5F5F5F5F5F5F5F5F5F5F5F5F5F5E2F5F5F5F5F5F5F5F5F5F5F5F5F5F5F5F5E2F5F5F5F5E2E2F5F5F5F5E2F5F5F5F5F5F5F5F5F5F5F5F5F5F5F5F5E2E2
310
E2E2E2E2E2E2E2E2F5F5F5F5F5F5F5E2F5F5F5F5F5F5F5F5F5F5F5F5F5F5F5F5F5F5F5F5F5F5F5F5F5F5F5F5F5F5F5F5F5F5F5F5F5F5F5F5F5F5F5F5F5F5F5F5F5F5F5F5F5F5F5F5F5F5F5F5F5F5F5F5F5F5F5F5F5F5F5F5F5F5F5F5F5F5F5F5F5F5F5F5F5F5F5F5F5F5F5F5F5F5F5F5F5F5F5F5F5F5F5F5F5F5F5F5F5F5F5
310
F5F5F5F5F5F5E2F5F5F5F5F5F5F5F5F5F5F5F5F5F5F5F5E2F5F5F5F5E2E2F5F5F5F5E2F5F5F5F5F5F5F5F5F5F5F5F5F5F5F5F5E2E2E2E2F5F5F5F5F5F5F5F5F5F5F5F5F5E2F5F5F5F5F5F5F5F5F5F5F5F5F5F5F5F5F5F5F5F5F5F5F5F5F5F5F5F5F5F5F5F5F5F5F5F5F5F5F5F5F5F5F5F5F5F5F5F5F5F5F5F5F5F5F5F5F5F5
310
F5F5F5F5F5F5F5F5F5F5F5F5F5F5F5F5F5F5F5F5F5F5F5F5F5F5F5F5F5F5F5F5F5F5F5F5F5F5F5F5F5F5F5F5F5F5F5F5F5F5F5F5F5F5F5F5F5F5F5E2F5F5F5F5F5F5F5F5F5F5F5F5F5F5F5F5E2F5F5F5F5E2E2F5F5F5F5E2F5F5F5F5F5F5F5F5F5F5F5F5F5F5F5F5E2E2E2E2F5F5F5F5F5F5F5F5F5F5F5F5F5E2F5F5F5F5F5
310
F5F5F5F5F5F5F5F5F5F5F5F5F5F5F5F5F5F5F5F5F5F5F5F5F5F5F5F5F5F5F5F5F5F5F5F5F5F5F5F5F5F5F5F5F5F5F5F5F5F5F5F5F5F5F5F5F5F5F5F5F5F5F5F5F5F5F5F5F5F5F5F5F5F5F5F5F5F5F5F5F5F5F5F5F5F5F5F5F5F5F5F5F5F5F5F5F5F5F5F5F5F5F5F5F5F5F5F5F5F5F5F5E2F5F5F5F5F5F5F5F5F5F5F5F5F5F5
310
F5F5E2F5F5F5F5E2E2F5F5F5F5E2F5F5F5F5F5F5F5F5F5F5F5F5F5F5F5F5E2F5F5F5F5F5F5F5F5F5F5F5F5F5F5F5F5E2F5F5F5F5F5F5F5F5F5F5F5F5F5F5F5F5F5F5F5F5F5F5F5F5F5F5F5F5F5F5F5F5F5F5F5F5F5F5F5F5F5F5F5F5F5F5F5F5F5F5F5F5F5F5F5F5F5F5F5F5F5F5F5F5F5F5F5F5F5F5F5F5F5F5F5F5F5F5F5
310
F5F5F5F5F5F5F5F5F5F5F5F5F5F5F5F5F5F5F5F5F5F5F5F5F5F5F5F5F5F5F5F5F5F5F5F5F5F5E2F5F5F5F5F5F5F5F5F5F5F5F5F5F5F5F5E2F5F5F5F5E2E2F5F5F5F5E2F5F5F5F5F5F5F5F5F5F5F5F5F5F5F5F5E2E2E2E2E2E2E2E2E2E2E2E2E2E2E2E2E2E2F5F5F5F5F5F5F5F5F5F5F5F5F5F5F5F5F5F5F5F5F5F5F5F5F5F5
310
F5F5F5F5F5F5F5F5F5F5F5F5F5F5F5F5F5F5F5F5F5F5F5F5F5F5F5F5F5F5F5F5F5F5F5F5F5F5F5F5F5F5F5F5F5F5F5F5F5F5F5F5F5F5F5F5F5F5F5F5F5F5F5F5F5F5F5F5F5F5F5F5F5F5F5F5F5F5F5F5F5F5F5F5F5F5F5F5F5F5F5E2F5F5F5F5F5F5F5F5F5F5F5F5F5F5F5F5E2F5F5F5F5E2E2F5F5F5F5E2F5F5F5F5F5F5F5
310
F5F5F5F5F5F5F5F5F5E2E2E2F5F5F5F5F5F5F5F5F5F5F5F5F5F5F5F5F5F5F5F5F5F5F5F5F5F5F5F5F5F5F5F5F5F5F5F5F5F5F5F5F5F5F5F5F5F5F5F5F5F5F5F5F5F5F5F5F5F5F5F5F5F5F5F5F5F5F5F5F5F5F5F5F5F5F5F5F5F5F5F5F5F5F5F5F5F5F5F5F5F5F5F5F5F5F5F5F5F5F5F5F5F5F5F5F5F5F5F5F5F5F5F5F5F5F5
310
F5F5F5F5F5F5F5F5F5F5F5F5F5F5F5F5F5E2F5F5F5F5F5F5F5F5F5F5F5F5F5F5F5F5E2F5F5F5F5E2E2F5F5F5F5E2F5F5F5F5F5F5F5F5F5F5F5F5F5F5F5F5E2E2E2F5F5F5F5F5F5F5F5F5F5F5F5F5F5F5F5F5F5F5F5F5F5F5F5F5F5F5F5F5F5F5F5F5F5F5F5F5F5F5F5F5F5F5F5F5F5F5F5F5F5F5F5F5F5F5F5F5F5F5F5F5F5
310
F5F5F5F5F5F5F5F5F5F5F5F5F5F5F5F5F5F5F5F5F5F5F5F5F5F5F5F5F5F5F5F5F5F5F5F5F5F5F5F5F5F5F5F5F5F5F5F5F5F5F5F5F5F5F5F5F5F5F5F5F5F5F5F5F5F5F5F5F5F5E2F5F5F5F5F5F5F5F5F5F5F5F5F5F5F5F5E2F5F5F5F5E2E2F5F5F5F5E2F5F5F5F5F5F5F5F5F5F5F5F5F5F5F5F5E2F5F5F5F5F5F5F5F5F5F5F5
310
F5F5F5F5F5F5F5F5F5F5F5F5F5F5F5F5F5F5F5F5F5F5F5F5F5F5F5F5F5F5F5F5F5F5F5F5F5F5F5F5F5F5F5F5F5F5F5F5F5F5F5F5F5F5F5F5F5F5F5F5F5F5F5F5F5F5F5F5F5F5F5F5F5F5F5F5F5F5F5F5F5F5F5F5F5F5F5F5F5F5F5F5F5F5F5F5F5F5F5F5F5F5F5F5F5F5F5F5F5F5F5F5F5F5F5F5F5F5F5F5F5F5F5E2F5F5F5
310
F5F5F5F5F5F5F5F5F5F5F5F5F5E2F5F5F5F5E2E2F5F5F5F5E2F5F5F5F5F5F5F5F5F5F5F5F5F5F5F5F5E20F0F0F0F0F0F0F0F0F0F0FF5F5F5F5F5F5F5F5F5F5F5F5F5F5F5F5F5F5F5F5F5F5F5F5F5F5F5F5F5F5F5F5F5F5F5F5F5F5F5F5F5F5F5F5F5F5F5F5F5F5F5F5F5F5F5F5F5F5F5F5F5F5F5F5F5F5F5F5F5F5F5F5F5F5
310
F5F5F5F5F5F5F5F5F5F5F5F5F5F5F5F5F5F5F5F5F5F5F5F5F5F5F5F5F5F5F5F5F5F5F5F5F5F5F5F5F5F5F5F5F5F5F5F5F5E2F5F5F5F5F5F5F5F5F5F5F5F5F5F5F5F5E2F5F5F5F5E2E2F5F5F5F5E2F5F5F5F5F5F5F5F5F5F5F5F5F5F5F5F5E20F0F0F0F0F0F0F0F0F0FF5F5F5F5F5F5F5F5F5F5F5F5F5F5F5F5F5F5F5F5F5F5
310
F5F5F5F5F5F5F5F5F5F5F5F5F5F5F5F5F5F5F5F5F5F5F5F5F5F5F5F5F5F5F5F5F5F5F5F5F5F5F5F5F5F5F5F5F5F5F5F5F5F5F5F5F5F5F5F5F5F5F5F5F5F5F5F5F5F5F5F5F5F5F5F5F5F5F5F5F5F5F5F5F5F5F5F5F5F5F5F5F5F5F5F5F5F5F5F5F5F5F5F5F5F5E2F5F5F5F5F5F5F5F5F5F5F5F5F5F5F5F5E2F5F5F5F5E2E2F5
310
F5F5F5E2F5F5F5F5F5F5F5F5F5F5F5F5F5F5F5F5E2F5F5F5F5F5F5F5F5F5F5F5F5F5F5F5F5F5F5F5F5F5F5F5F5F5F5F5F5F5F5F5F5F5F5F5F5F5F5F5F5F5F5F5F5F5F5F5F5F5F5F5F5F5F5F5F5F5F5F5F5F5F5F5F5F5F5F5F5F5F5F5F5F5F5F5F5F5F5F5F5F5F5F5F5F5F5F5F5F5F5F5F5F5F5F5F5F5F5F5F5F5F5F5F5F5F5
310
F5F5F5F5F5F5F5F5F5F5F5F5F5F5F5F5F5F5F5F5F5F5F5F5F5F5F5F5E2F5F5F5F5F5F5F5F5F5F5F5F5F5F5F5F5E2F5F5F5F5E2E2F5F5F5F5E2F5F5F5F5F5F5F5F5F5F5F5F5F5F5F5F5E2F5F5F5F5F5F5F5F5F5F5F5F5F5F5F5F5F5F5F5F5F5F5F5F5F5F5F5F5F5F5F5F5F5F5F5F5F5F5F5F5F5F5F5F5F5F5F5F5F5F5F5F5F5
310
F5F5F5F5F5F5F5F5F5F5F5F5F5F5F5F5F5F5F5F5F5F5F5F5F5F5F5F5F5F5F5F5F5F5F5F5F5F5F5F5F5F5F5F5F5F5F5F5F5F5F5F5F5F5F5F5F5F5F5F5F5F5F5F5F5F5F5F5F5F5F5F5F5F5F5F5F5F5F5F5F5E2F5F5F5F5F5F5F5F5F5F5F5F5F5F5F5F5E2F5F5F5F5E2E2F5F5F5F5E2F5F5F5F5F5F5F5F5F5F5F5F5F5F5F5F5E2
310
F5F5F5F5F5F5F5F5F5F5F5F5F5F5F5F5F5F5F5F5F5F5F5F5F5F5F5F5F5F5F5F5F5F5F5F5F5F5F5F5F5F5F5F5F5F5F5F5F5F5F5F5F5F5F5F5F5F5F5F5F5F5F5F5F5F5F5F5F5F5F5F5F5F5F5F5F5F5F5F5F5F5F5F5F5F5F5F5F5F5F5F5F5F5F5F5F5F5F5F5F5F5F5F5F5F5F5F5F5F5F5F5F5F5F5F5F5F5F5F5F5F5F5F5F5F5F5
310
F5F5F5F5F5F5F5E2F5F5F5F5F5F5F5F5F5F5F5F5F5F5F5F5E2F5F5F5F5E2E2F5F5F5F5E2F5F5F5F5F5F5F5F5F5F5F5F5F5F5F5F5E2F5F5F5F5F5F5F5F5F5F5F5F5F5F5F5F5F5F5F5F5F5F5F5F5F5F5F5F5F5F5F5F5F5F5F5F5F5F5F5F5F5F5F5F5F5F5F5F5F5F5F5F5F5F5F5F5F5F5F5F5F5F5F5F5F5F5F5F5F5F5F5F5F5F5
310
F5F5F5F5F5F5F5F5F5F5F5F5F5F5F5F5F5F5F5F5F5F5F5F5F5F5F5F5F5F5F5F5F5F5F5F5F5F5F5F5F5F5F5F5F5F5F5F5F5F5F5F5F5F5F5F5F5F5F5F5E2F5F5F5F5F5F5F5F5F5F5F5F5F5F5F5F5E2F5F5F5F5E2E2F5F5F5F5F5F5F5F5F5F5F5F5F5F5F5F5F5F5F5F5F5E2F5F5F5F5F5F5F5F5F5F5F5F5F5F5F5F5F5F5F5F5F5
310
F5F5F5F5F5F5F5F5F5F5F5F5F5F5F5F5F5F5F5F5F5F5F5F5F5F5F5F5F5F5F5F5F5F5F5F5F5F5F5F5F5F5F5F5F5F5F5F5F5F5F5F5F5F5F5F5F5F5F5F5F5F5F5F5F5F5F5F5F5F5F5F5F5F5F5F5F5F5F5F5F5F5F5F5F5F5F5F5F5F5F5F5F5F5F5F5F5F5F5F5F5F5F5F5F5F5F5F5F5F5F5F5F5E2F5F5F5F5F5F5F5F5F5F5F5F5F5
310
F5F5F5F5F5F5F5F5E2E2F5F5F5F5F5F5F5F5F5F5F5F5F5F5F5F5F5F5F5F5F5E2F5F5F5F5F5F5F5F5F5F5F5F5F5F5F5F5F5F5F5F5F5F5F5F5F5F5F5F5F5F5F5F5F5F5F5F5F5F5F5F5F5F5F5F5F5F5F5F5F5F5F5F5F5F5F5F5F5F5F5F5F5F5F5F5F5F5F5F5F5F5F5F5F5F5F5F5F5F5F5F5F5F5F5F5F5F5F5F5F5F5F5F5F5F5F5
310
F5F5F5F5F5F5F5F5F5F5F5F5F5F5F5F5F5F5F5F5F5F5F5F5F5F5F5F5F5F5F5F5F5F5F5F5F5F5F5E2F5F5F5F5F5F5F5F5F5F5F5F5F5F5F5F5F5F5F5F5F5E2E2F5F5F5F5F5F5F5F5F5F5F5F5F5F5F5F5F5F5F5F5F5E2F5F5F5F5F5F5F5F5F5F5F5F5F5F5F5F5F5F5F5F5F5F5F5F5F5F5F5F5F5F5F5F5F5F5F5F5F5F5F5F5F5F5
310
F5F5F5F5F5F5F5F5F5F5F5F5F5F5F5F5F5F5F5F5F5F5F5F5F5F5F5F5F5F5F5F5F5F5F5F5F5F5F5F5F5F5F5F5F5F5F5F5F5F5F5F5F5F5F5F5F5F5F5F5F5F5F5F5F5F5F5F5F5F5F5F5F5F5F5F5F5F5F5F5F5F5F5F5F5F5F5F5F5F5F5F5E2F5F5F5F5F5F5F5F5F5F5F5F5F5F5F5F5F5F5F5F5F5E2E2F5F5F5F5F5F5F5F5F5F5F5
310
F5F5F5F5F5F5F5F5F5F5E2F5F5F5F5F5F5F5F5F5F5F5F5F5F5F5F5F5F5F5F5F5F5F5F5F5F5F5F5F5F5F5F5F5F5F5F5F5F5F5F5F5F5F5F5F5F5F5F5F5F5F5F5F5F5F5F5F5F5F5F5F5F5F5F5F5F5F5F5F5F5F5F5F5F5F5F5F5F5F5F5F5F5F5F5F5F5F5F5F5F5F5F5F5F5F5F5F5F5F5F5F5F5F5F5F5F5F5F5F5F5F5F5F5F5F5F5
310
F5F5F5F5F5F5F5F5F5F5F5F5F5F5F5F5F5F5E2F5F5F5F5F5F5F5F5F5F5F5F5F5F5F5F5F5F5F5F5F5E2E2F5F5F5F5F5F5F5F5F5F5F5F5F5F5F5F5F5F5F5F5F5E2F5F5F5F5F5F5F5F5F5F5F5F5F5F5F5F5F5F5F5F5F5F5F5F5F5F5F5F5F5F5F5F5F5F5F5F5F5F5F5F5F5F5F5F5F5F5F5F5F5F5F5F5F5F5F5F5F5F5F5F5F5F5F5
310
F5F5F5F5F5F5F5F5F5F5F5F5F5F5F5F5F5F5F5F5F5F5F5F5F5F5F5F5F5F5F5F5F5F5F5F5F5F5F5F5F5F5F5F5F5F5F5F5F5F5F5F5F5F5F5F5F5F5F5F5F5F5F5F5F5F5F5F5F5F5F5E2F5F5F5F5F5F5F5F5F5F5F5F5F5F5F5F5F5F5F5F5F5E2E2F5F5F5F5F5F5F5F5F5F5F5F5F5F5F5F5F5F5F5F5F5E2F5F5F5F5F5F5F5F5F5F5
310
F5F5F5F5F5F5F5F5F5F5F5F5F5F5F5F5F5F5F5F5F5F5F5F5F5F5F5F5F5F5F5F5F5F5F5F5F5F5F5F5F5F5F5F5F5F5F5F5F5F5F5F5F5F5F5F5F5F5F5F5F5F5F5F5F5F5F5F5F5F5F5F5F5F5F5F5F5F5F5F5F5F5F5F5F5F5F5F5F5F5F5F5F5F5F5F5F5F5F5F5F5F5F5F5F5F5F5F5F5F5F5F5F5F5F5F5F5F5F5F5F5F5F5F5E2F5F5
310
F5F5F5F5F5F5F5F5F5F5F5F5F5F5F5F5F5F5F5E2E2F5F5F5F5F5F5F5F5F5F5F5F5F5F5F5F5F5F5F5F5F5E2F5F5F5F5F5F5F5F5F5F5F5F5F5F5F5F5F5F5F5F5F5F5F5F5F5F5F5F5F5F5F5F5F5F5F5F5F5F5F5F5F5F5F5F5F5F5F5F5F5F5F5F5F5F5F5F5F5F5F5F5F5F5F5F5F5F5F5F5F5F5F5F5F5F5F5F5F5F5F5F5F5F5F5F5
310
F5F5F5F5F5F5F5F5F5F5F5F5F5F5F5F5F5F5F5F5F5F5F5F5F5F5F5F5F5F5F5F5F5F5F5F5F5F5F5F5F5F5F5F5F5F5F5F5F5F5E2F5F5F5F5F5F5F5F5F5F5F5F5F5F5F5F5F5F5F5F5F5E2E2F5F5F5F5F5F5F5F5F5F5F5F5F5F5F5F5F5F5F5F5F5E2F5F5F5F5F5F5F5F5F5F5F5F5F5F5F5F5F5F5F5F5F5F5F5F5F5F5F5F5F5F5F5
310
F5F5F5F5F5F5F5F5F5F5F5F5F5F5F5F5F5F5F5F5F5F5F5F5F5F5F5F5F5F5F5F5F5F5F5F5F5F5F5F5F5F5F5F5F5F5F5F5F5F5F5F5F5F5F5F5F5F5F5F5F5F5F5F5F5F5F5F5F5F5F5F5F5F5F5F5F5F5F5F5F5F5F5F5F5F5F5F5F5F5F5F5F5F5F5F5F5F5F5F5F5F5F5E2F5F5F5F5F5F5F5F5F5F5F5F5F5F5F5F5F5F5F5F5F5E2E2
310
F5F5F5F5F5F5F5F5F5F5F5F5F5F5F5F5F5F5F5F5F5E2F5F5F5F5F5F5F5F5F5F5F5F5F5F5F5F5F5F5F5F5F5F5F5F5F5F5F5F5F5F5F5F5F5F5F5F5F5F5F5F5F5F5F5F5F5F5F5F5F5F5F5F5F5F5F5F5F5F5F5F5F5F5F5F5F5F5F5F5F5F5F5F5F5F5F5F5F5F5F5F5F5F5F5F5F5F5F5F5F5F5F5F5F5F5F5F5F5F5F5F5F5F5F5F5F5
310
F5F5F5F5F5F5F5F5F5F5F5F5F5F5F5F5F5F5F5F5F5F5F5F5F5F5F5F5F5E2F5F5F5F5F5F5F5F5F5F5F5F5F5F5F5F5F5F5F5F5F5E2E2F5F5F5F5F5F5F5F5F5F5F5F5F5F5F5F5F5F5F5F5F5E2F5F5F5F5F5F5F5F5F5F5F5F5F5F5F5F5F5F5F5F5F5F5F5F5F5F5F5F5F5F5F5F5F5F5F5F5F5F5F5F5F5F5F5F5F5F5F5F5F5F5F5F5
310
F5F5F5F5F5F5F5F5F5F5F5F5F5F5F5F5F5F5F5F5F5F5F5F5F5F5F5F5F5F5F5F5F5F5F5F5F5F5F5F5F5F5F5F5F5F5F5F5F5F5F5F5F5F5F5F5F5F5F5F5F5F5F5F5F5F5F5F5F5F5F5F5F5F5F5F5F5F5F5F5F5F5E2F5F5F5F5F5F5F5F5F5F5F5F5F5F5F5F5F5F5F5F5F5E2E2F5F5F5F5E2F5F5F5F5F5F5F5F5F5F5F5F5F5F5F5F5
310
E2F5F5F5F5F5F5F5F5F5F5F5F5F5F5F5F5F5F5F5F5F5F5F5F5F5F5F5F5F5F5F5F5F5F5F5F5F5F5F5F5F5F5F5F5F5F5F5F5F5F5F5F5F5F5F5F5F5F5F5F5F5F5F5F5F5F5F5F5F5F5F5F5F5F5F5F5F5F5F5F5F5F5F5F5F5F5F5F5F5F5F5F5F5F5F5F5F5F5F5F5F5F5F5F5F5F5F5F5F5F5F5F5F5F5F5F5F5F5F5F5F5F5F5F5F5F5
310
F5F5F5F5F5F5F5F5E2F5F5F5F5F5F5F5F5F5F5F5F5F5F5F5F5E2F5F5F5F5E2E2F5F5F5F5E2F5F5F5F5F5F5F5F5F5F5F5F5F5F5F5F5E2F5F5F5F5F5F5F5F5F5F5F5F5F5F5F5F5F5F5F5F5F5F5F5F5F5F5F5F5F5F5F5F5F5F5F5F5F5F5F5F5F5F5F5F5F5F5F5F5F5F5F5F5F5F5F5F5F5F5F5F5F5F5F5F5F5F5F5F5F5F5F5F5F5
310
F5F5F5F5F5F5F5F5F5F5F5F5F5F5F5F5F5F5F5F5F5F5F5F5F5F5F5F5F5F5F5F5F5F5F5F5F5F5F5F5F5F5F5F5F5F5F5F5F5F5F5F5F5F5F5F5F5F5F5F5F5E2F5F5F5F5F5F5F5F5F5F5F5F5F5F5F5F5E2F5F5F5F5E2E2F5F5F5F5E2F5F5F5F5F5F5F5F5F5F5F5F5F5F5F5F5E2F5F5F5F5F5F5F5F5F5F5F5F5F5F5F5F5F5F5F5F5
310
F5F5F5F5F5F5F5F5F5F5F5F5F5F5F5F5F5F5F5F5F5F5F5F5F5F5F5F5F5F5F5F5F5F5F5F5F5F5F5F5F5F5F5F5F5F5F5F5F5F5F5F5F5F5F5F5F5F5F5F5F5F5F5F5F5F5F5F5F5F5F5F5F5F5F5F5F5F5F5F5F5F5F5F5F5F5F5F5F5F5F5F5F5F5F5F5F5F5F5F5F5F5F5F5F5F5F5F5F5F5F5F5F5F5E2F5F5F5F5F5F5F5F5F5F5F5F5
310
F5F5F5F5E2F5F5F5F5E2E2F5F5F5F5E2F5F5F5F5F5F5F5F5F5F5F5F5F5F5F5F5E2F5F5F5F5F5F5F5F5F5F5F5F5F5F5F5F5F5F5F5F5F5F5F5F5F5F5F5F5F5F5F5F5F5F5F5F5F5F5F5F5F5F5F5F5F5F5F5F5F5F5F5F5F5F5F5F5F5F5F5F5F5F5F5F5F5F5F5F5F5F5F5F5F5F5F5F5F5F5F5F5F5F5F5F5F5F5F5F5F5F5F5F5F5F5
310
F5F5F5F5F5F5F5F5F5F5F5F5F5F5F5F5F5F5F5F5F5F5F5F5F5F5F5F5F5F5F5F5F5F5F5F5F5F5F5F5E2F5F5F5F5F5F5F5F5F5F5F5F5F5F5F5F5E2F5F5F5F5E2E2F5F5F5F5E2F5F5F5F5F5F5F5F5F5F5F5F5F5F5F5F5E2F5F5F5F5F5F5F5F5F5F5F5F5F5F5F5F5F5F5F5F5F5F5F5F5F5F5F5F5F5F5F5F5F5F5F5F5F5F5F5F5F5
310
F5F5F5F5F5F5F5F5F5F5F5F5F5F5F5F5F5F5F5F5F5F5F5F5F5F5F5F5F5F5F5F5F5F5F5F5F5F5F5F5F5F5F5F5F5F5F5F5F5F5F5F5F5F5F5F5F5F5F5F5F5F5F5F5F5F5F5F5F5F5F5F5F5F5F5F5F5F5F5F5F5F5F5F5F5F5F5F5F5F5F5F5F5E2F5F5F5F5F5F5F5F5F5F5F5F5F5F5F5F5E2F5F5F5F5E2E2F5F5F5F5E2F5F5F5F5F5
310
F5F5F5F5F5F5F5F5F5F5F5E2F5F5F5F5F5F5F5F5F5F5F5F5F5F5F5F5F5F5F5F5F5F5F5F5F5F5F5F5F5F5F5F5F5F5F5F5F5F5F5F5F5F5F5F5F5F5F5F5F5F5F5F5F5F5F5F5F5F5F5F5F5F5F5F5F5F5F5F5F5F5F5F5F5F5F5F5F5F5F5F5F5F5F5F5F5F5F5F5F5F5F5F5F5F5F5F5F5F5F5F5F5F5F5F5F5F5F5F5F5F5F5F5F5F5F5
310
F5F5F5F5F5F5F5F5F5F5F5F5F5F5F5F5F5F5F5E2F5F5F5F5F5F5F5F5F5F5F5F5F5F5F5F5E2F5F5F5F5E2E2F5F5F5F5E2F5F5F5F5F5F5F5F5F5F5F5F5F5F5F5F5E2F5F5F5F5F5F5F5F5F5F5F5F5F5F5F5F5F5F5F5F5F5F5F5F5F5F5F5F5F5F5F5F5F5F5F5F5F5F5F5F5F5F5F5F5F5F5F5F5F5F5F5F5F5F5F5F5F5F5F5F5F5F5
310
F5F5F5F5F5F5F5F5F5F5F5F5F5F5F5F5F5F5F5F5F5F5F5F5F5F5F5F5F5F5F5F5F5F5F5F5F5F5F5F5F5F5F5F5F5F5F5F5F5F5F5F5F5F5F5F5F5F5F5F5F5F5F5F5F5F5F5F5F5F5F5F5E2F5F5F5F5F5F5F5F5F5F5F5F5F5F5F5F5E2F5F5F5F5E2E2F5F5F5F5E2F5F5F5F5F5F5F5F5F5F5F5F5F5F5F5F5E2F5F5F5F5F5F5F5F5F5
310
F5F5F5F5F5F5F5F5F5F5F5F5F5F5F5F5F5F5F5F5F5F5F5F5F5F5F5F5F5F5F5F5F5F5F5F5F5F5F5F5F5F5F5F5F5F5F5F5F5F5F5F5F5F5F5F5F5F5F5F5F5F5F5F5F5F5F5F5F5F5F5F5F5F5F5F5F5F5F5F5F5F5F5F5F5F5F5F5F5F5F5F5F5F5F5F5F5F5F5F5F5F5F5F5F5F5F5F5F5F5F5F5F5F5F5F5F5F5F5F5F5F5F5F5F5E2F5
310
F5F5F5F5F5F5F5F5F5F5F5F5F5F5F5E2F5F5F5F5E2E2F5F5F5F5E2F5F5F5F5F5F5F5F5F5F5F5F5F5F5F5F5E2F5F5F5F5F5F5F5F5F5F5F5F5F5F5F5F5F5F5F5F5F5F5F5F5F5F5F5F5F5F5F5F5F5F5F5F5F5F5F5F5F5F5F5F5F5F5F5F5F5F5F5F5F5F5F5F5F5F5F5F5F5F5F5F5F5F5F5F5F5F5F5F5F5F5F5F5F5F5F5F5F5F5F5
310
F5F5F5F5F5F5F5F5F5F5F5F5F5F5F5F5F5F5F5F5F5F5F5F5F5F5F5F5F5F5F5F5F5F5F5F5F5F5F5F5F5F5F5F5F5F5F5F5F5F5F5E2F5F5F5F5F5F5F5F5F5F5F5F5F5F5F5F5E2F5F5F5F5E2E2F5F5F5F5E2F5F5F5F5F5F5F5F5F5F5F5F5F5F5F5F5E2F5F5F5F5F5F5F5F5F5F5F5F5F5F5F5F5F5F5F5F5F5F5F5F5F5F5F5F5F5F5
310
F5F5F5F5F5F5F5F5F5F5F5F5F5F5F5F5F5F5F5F5F5F5F5F5F5F5F5F5F5F5F5F5F5F5F5F5F5F5F5F5F5F5F5F5F5F5F5F5F5F5F5F5F5F5F5F5F5F5F5F5F5F5F5F5F5F5F5F5F5F5F5F5F5F5F5F5F5F5F5F5F5F5F5F5F5F5F5F5F5F5F5F5F5F5F5F5F5F5F5F5F5F5F5F5E2F5F5F5F5F5F5F5F5F5F5F5F5F5F5F5F5E2F5F5F5F5E2
310
E2F5F5F5F5E2F5F5F5F5F5F5F5F5F5F5F5F5F5F5F5F5E2F5F5F5F5F5F5F5F5F5F5F5F5F5F5F5F5F5F5F5F5F5F5F5F5F5F5F5F5F5F5F5F5F5F5F5F5F5F5F5F5F5F5F5F5F5F5F5F5F5F5F5F5F5F5F5F5F5F5F5F5F5F5F5F5F5F5F5F5F5F5F5F5F5F5F5F5F5F5F5F5F5F5F5F5F5F5F5F5F5F5F5F5F5F5F5F5F5F5F5F5F5F5F5F5
310
F5F5F5F5F5F5F5F5F5F5F5F5F5F5F5F5F5F5F5F5F5F5F5F5F5F5F5F5F5F5E2F5F5F5F5F5F5F5F5F5F5F5F5F5F5F5F5E2F5F5F5F5E2E2F5F5F5F5E2F5F5F5F5F5F5F5F5F5F5F5F5F5F5F5F5E2F5F5F5F5F5F5F5F5F5F5F5F5F5F5F5F5F5F5F5F5F5F5F5F5F5F5F5F5F5F5F5F5F5F5F5F5F5F5F5F5F5F5F5F5F5F5F5F5F5F5F5
310
F5F5F5F5F5F5F5F5F5F5F5F5F5F5F5F5F5F5F5F5F5F5F5F5F5F5F5F5F5F5F5F5F5F5F5F5F5F5F5F5F5F5F5F5F5F5F5F5F5F5F5F5F5F5F5F5F5F5F5F5F5F5F5F5F5F5F5F5F5F5F5F5F5F5F5F5F5F5F5F5F5F5F5E2F5F5F5F5F5F5F5F5F5F5F5F5F5F5F5F5E2F5F5F5F5E2E2F5F5F5F5E2F5F5F5F5F5F5F5F5F5F5F5F5F5F5F5
310
F5E2F5F5F5F5F5F5F5F5F5F5F5F5F5F5F5F5F5F5F5F5F5F5F5F5F5F5F5F5F5F5F5F5F5F5F5F5F5F5F5F5F5F5F5F5F5F5F5F5F5F5F5F5F5F5F5F5F5F5F5F5F5F5F5F5F5F5F5F5F5F5F5F5F5F5F5F5F5F5F5F5F5F5F5F5F5F5F5F5F5F5F5F5F5F5F5F5F5F5F5F5F5F5F5F5F5F5F5F5F5F5F5F5F5F5F5F5F5F5F5F5F5F5F5F5F5
310
F5F5F5F5F5F5F5F5F5E2F5F5F5F5F5F5F5F5F5F5F5F5F5F5F5F5E2F5F5F5F5E2E2F5F5F5F5E2F5F5F5F5F5F5F5F5F5F5F5F5F5F5F5F5E2F5F5F5F5F5F5F5F5F5F5F5F5F5F5F5F5F5F5F5F5F5F5F5F5F5F5F5F5F5F5F5F5F5F5F5F5F5F5F5F5F5F5F5F5F5F5F5F5F5F5F5F5F5F5F5F5F5F5F5F5F5F5F5F5F5F5F5F5F5F5F5F5
310
F5F5F5F5F5F5F5F5F5F5F5F5F5F5F5F5F5F5F5F5F5F5F5F5F5F5F5F5F5F5F5F5F5F5F5F5F5F5F5F5F5F5F5F5F5F5F5F5F5F5F5F5F5F5F5F5F5F5F5F5F5F5E2F5F5F5F5F5F5F5F5F5F5F5F5F5F5F5F5E2F5F5F5F5E2E2F5F5F5F5E2F5F5F5F5F5F5F5F5F5F5F5F5F5F5F5F5E2F5F5F5F5F5F5F5F5F5F5F5F5F5F5F5F5F5F5F5
310
F5F5F5F5F5F5F5F5F5F5F5F5F5F5F5F5F5F5F5F5F5F5F5F5F5F5F5F5F5F5F5F5F5F5F5F5F5F5F5F5F5F5F5F5F5F5F5F5F5F5F5F5F5F5F5F5F5F5F5F5F5F5F5F5F5F5F5F5F5F5F5F5F5F5F5F5F5F5F5F5F5F5F5F5F5F5F5F5F5F5F5F5F5F5F5F5F5F5F5F5F5F5F5F5F5F5F5F5F5F5F5F5F5F5F5E2F5F5F5F5F5F5F5F5F5F5F5
310
F5F5F5F5F5E2F5F5F5F5E2E2F5F5F5F5E2F5F5F5F5F5F5F5F5F5F5F5F5F5F5F5F5E2F5F5F5F5F5F5F5F5F5F5F5F5F5F5F5F5F5F5F5F5F5F5F5F5F5F5F5F5F5F5F5F5F5F5F5F5F5F5F5F5F5F5F5F5F5F5F5F5F5F5F5F5F5F5F5F5F5F5F5F5F5F5F5F5F5F5F5F5F5F5F5F5F5F5F5F5F5F5F5F5F5F5F5F5F5F5F5F5F5F5F5F5F5
310
F5F5F5F5F5F5F5F5F5F5F5F5F5F5F5F5F5F5F5F5F5F5F5F5F5F5F5F5F5F5F5F5F5F5F5F5F5F5F5F5F5E2F5F5F5F5F5F5F5F5F5F5F5F5F5F5F5F5E2F5F5F5F5E2E2F5F5F5F5F5F5F5F5F5F5F5F5F5F5F5F5F5F5F5F5F5E2F5F5F5F5F5F5F5F5F5F5F5F5F5F5F5F5F5F5F5F5F5F5F5F5F5F5F5F5F5F5F5F5F5F5F5F5F5F5F5F5
310
F5F5F5F5F5F5F5F5F5F5F5F5F5F5F5F5F5F5F5F5F5F5F5F5F5F5F5F5F5F5F5F5F5F5F5F5F5F5F5F5F5F5F5F5F5F5F5F5F5F5F5F5F5F5F5F5F5F5F5F5F5F5F5F5F5F5F5F5F5F5F5F5F5F5F5F5F5F5F5F5F5F5F5F5F5F5F5F5F5F5F5F5F5F5E2F5F5F5F5F5F5F5F5F5F5F5F5F5F5F5F5F5F5F5F5F5E2E2F5F5F5F5F5F5F5F5F5
310
F5F5F5F5F5F5F5F5F5F5F5F5E2F5F5F5F5F5F5F5F5F5F5F5F5F5F5F5F5F5F5F5F5F5F5F5F5F5F5F5F5F5F5F5F5F5F5F5F5F5F5F5F5F5F5F5F5F5F5F5F5F5F5F5F5F5F5F5F5F5F5F5F5F5F5F5F5F5F5F5F5F5F5F5F5F5F5F5F5F5F5F5F5F5F5F5F5F5F5F5F5F5F5F5F5F5F5F5F5F5F5F5F5F5F5F5F5F5F5F5F5F5F5F5F5F5F5
310
F5F5F5F5F5F5F5F5F5F5F5F5F5F5F5F5F5F5F5F5E2F5F5F5F5F5F5F5F5F5F5F5F5F5F5F5F5F5F5F5F5F5E2E2F5F5F5F5F5F5F5F5F5F5F5F5F5F5F5F5F5F5F5F5F5E2F5F5F5F5F5F5F5F5F5F5F5F5F5F5F5F5F5F5F5F5F5F5F5F5F5F5F5F5F5F5F5F5F5F5F5F5F5F5F5F5F5F5F5F5F5F5F5F5F5F5F5F5F5F5F5F5F5F5F5F5F5
310
F5F5F5F5F5F5F5F5F5F5F5F5F5F5F5F5F5F5F5F5F5F5F5F5F5F5F5F5F5F5F5F5F5F5F5F5F5F5F5F5F5F5F5F5F5F5F5F5F5F5F5F5F5F5F5F5F5F5F5F5F5F5F5F5F5F5F5F5F5F5F5F5F5E2F5F5F5F5F5F5F5F5F5F5F5F5F5F5F5F5F5F5F5F5F5E2E2F5F5F5F5F5F5F5F5F5F5F5F5F5F5F5F5F5F5F5F5F5E2F5F5F5F5F5F5F5F5
310
F5F5F5F5F5F5F5F5F5F5F5F5F5F5F5F5F5F5F5F5F5F5F5F5F5F5F5F5F5F5F5F5F5F5F5F5F5F5F5F5F5F5F5F5F5F5F5F5F5F5F5F5F5F5F5F5F5F5F5F5F5F5F5F5F5F5F5F5F5F5F5F5F5F5F5F5F5F5F5F5F5F5F5F5F5F5F5F5F5F5F5F5F5F5F5F5F5F5DCF5F5F5F5F5F5F5F5F5F5F5F5F5F5F5F5F5F5F5F5F5F5F5F5F5F5F5E2
310
F5F5F5F5F5F5F5F5F5F5F5F5F5F5F5F5F5F5F5F5F5E2E2F5F5F5F5F5F5F5F5F5F5F5F5F5F5F5F5F5F5F5F5F5E2F5F5F5F5F5F5F5F5F5F5F5F5F5F5F5F5F5F5F5F5F5F5F5F5F5F5F5F5F5F5F5F5F5F5F5F5F5F5F5F5F5F5F5F5F5F5F5F5F5F5F5F5F5F5F5F5F5F5F5F5F5F5F5F5F5F5F5F5F5F5F5F5F5F5F5F5F5F5F5F5F5E2
310
ECE2E2E2E2E2E2E2E2E2E2E2E2E2E2E2E2E2E2E2E2E2E2E2DCE2E2E2E2E2E2E2E2E2E2E2E2E2E2E2E2E2E2E2E2E2E2E2ECE2F5F5E2F5F5F5F5F5F5F5F5F5F5F5F5F5F5F5F5F5F5F5F5F5E2E2F5F5F5F5F5F5F5F5F5F5F5F5F5F5F5F5F5F5F5F5F5E2F5F5F5F5F5F5F5F5F5F5F5F5F5F5F5F5F5F5F5F5F5F5F5F5F5F5F5F5F5
310
F5F5F5F5F5F5F5F5F5F5F5F5F5F5F5F5F5F5F5F5F5F5F5F5F5F5F5F5F5F5F5F5F5F5F5F5F5F5F5F5F5F5F5F5F5F5F5F5F5F5F5E2F5F5ECF5F5F5F5F5F5F5F5F5F5F5F5F5F5F5F5F5F5F5F5F5F5DCF5F5F5F5F5F5F5F5F5F5F5F5F5F5F5F5F5F5F5F5F5F5ECF5F5E2F5E2F5F5F5F5F5F5F5F5F5F5F5F5F5F5F5F5F5F5F5F5F5
310
E2E2F5F5F5F5F5F5F5F5F5F5F5F5F5F5F5F5F5F5F5F5F5E2F5F5F5F5F5F5F5F5F5F5F5F5F5F5F5F5F5F5F5F5F5F5F5F5F5F5F5F5F5F5F5F5F5F5F5F5F5F5F5F5F5F5F5F5F5F5F5F5F5F5F5F5F5F5F5F5F5F5F5F5F5F5F5F5F5F5F5F5F5F5F5F5F5F5F5F5F5F5F5E2F5F5F5F5ECF5F5F5F5F5F5F5F5F5F5F5F5F5F5F5F5F5F5
310
F5F5F5DCF5F5F5F5F5F5F5F5F5F5F5F5F5F5F5F5F5F5F5F5F5ECF5F5F5F5E2E2F5F5F5F5F5F5F5F5F5F5F5F5F5F5F5F5F5F5F5F5F5E2E2F5F5F5F5F5F5F5F5F5F5F5F5F5F5F5F5F5F5F5F5F5E2F5F5F5F5F5F5F5F5F5F5F5F5F5F5F5F5F5F5F5F5F5F5F5F5F5F5F5F5F5F5F5F5F5F5F5F5F5F5F5F5F5F5F5F5F5F5F5F5F5F5
310
F5F5F5F5F5F5F5F5F5F5F5F5F5F5F5F5F5F5F5F5F5F5F5F5F5F5F5F5E2E2E2E2E2E2ECE2E2E2E2E2E2E2E2E2ECECECECECECE2ECECECECECDCECECECECECE2ECECECECECECE2E2E2E2E2E2E2E2ECE2E2E2E2E2E2E2F5F5F5F5F5F5F5F5F5F5F5F5F5F5F5F5F5F5F5F5F5E2E2F5F5F5F5F5F5F5F5F5F5F5F5F5F5F5F5F5F5F5
310
F5F5E2F5F5F5F5F5F5F5F5F5F5F5F5F5F5F5F5F5F5F5F5F5F5F5F5F5F5F5F5F5F5F5F5F5F5F5F5F5F5F5F5F5F5F5F5F5F5F5F5F5F5F5F5F5F5F5F5F5F5F5F5F5F5F5F5F5F5F5F5F5F5F5F5F5F5F5F5F5F5E2F5F5F5F5F5F5F5F5F5F5F5F5F5F5F5ECF5F5F5F5F5F5F5F5F5F5F5DCF5F5F5F5F5F5F5F5F5F5ECF5F5F5F5F5F5
310
F5F5F5F5F5F5F5F5F5E2E2F5F5F5F5F5F5F5F5F5F5F5F5F5F5F5F5F5F5F5F5F5E2E2F5F5F5F5E2F5F5F5F5F5F5F5F5F5F5F5F5F5F5F5F5E2F5F5F5F5F5F5F5F5F5F5F5F5F5F5F5F5F5F5F5F5F5F5F5F5F5F5F5F5F5F5F5F5F5F5F5F5F5F5F5F5F5F5F5F5F5F5F5F5F5F5F5F5F5F5F5F5F5F5F5F5F5F5F5F5F5F5F5F5F5F5F5
310
F5F5F5F5F5F5F5E2F5F5F5F5F5F5F5F5F5F5F5F5F5F5F5ECECECECECECECECECECECECECECECECECECECECECECECECF5F5F5F5F5F5F5F5F5F5F5F5F5F5F5E2E2F5F5F5F5F5F5F5F5F5F5F5F5F5F5F5F5E2F5F5F5F5E2E2F5F5F5F5E2F5F5F5F5F5F5F5F5F5F5F5F5F5F5F5F5E2F5F5F5F5F5F5F5F5F5F5F5F5F5F5F5F5F5F5
310
F5F5F5F5F5F5F5F5F5F5F5F5F5F5F5F5F5F5F5F5F5F5F5F5F5F5F5F5F5F5F5F5F5F5F5F5F5F5F5F5F5F5F5F5F5F5F5F5F5F5F5F5F5F5F5F5F5F5F5F5F5E2F5F5F5F5F5F5F5F5F5F5F5F5F5F5F5F5F5F5F5ECF5F5F5F5F5F5DCF5F5F5F5F5ECF5F5F5F5F5F5F5F5F5F5F5F5F5F5F5F5F5F5F5F5E2E2F5F5F5F5F5F5F5F5F5F5
310
F5F5F5F5F5F5E2F5F5F5F5E2E2F5F5F5F5E2F5F5F5F5F5F5F5F5F5F5F5F5F5F5F5F5E2F5F5F5F5F5F5F5F5F5F5F5F5F5F5F5F5F5F5F5F5F5F5F5F5F5F5F5F5F5F5F5F5F5F5F5F5F5F5F5F5F5F5F5F5F5F5F5F5F5F5F5F5F5F5F5F5F5F5F5F5F5F5F5F5F5F5F5F5F5F5F5F5F5F5F5F5F5F5F5F5E2F5F5F5F5F5F5F5F5F5F5F5
310
F5F5F5F5F5ECECECECECECF5ECECECECECF5ECECECECECF5F5F5F5F5F5F5F5F5F5F5F5F5F5F5F5F5E2F5E2F5F5F5F5F5F5F5F5F5F5F5F5F5F5F5F5E2F5F5F5F5E2E2F5F5F5F5E2F5F5F5F5F5F5F5F5F5F5F5F5F5F5F5F5E2F5F5F5F5F5F5F5F5F5F5F5F5F5F5F5F5F5F5F5F5F5F5F5F5F5F5F5F5F5F5F5F5F5F5F5F5F5F5F5
310
F5F5F5F5F5F5F5F5F5F5F5F5F5F5F5F5F5F5F5F5F5F5F5F5F5F5F5F5F5F5F5F5F5F5F5F5F5F5F5F5F5F5E2E2F5F5F5F5F5F5F5F5F5F5F5F5F5F5ECF5F5F5F5F5F5F5F5DCF5F5F5F5F5F5F5ECF5F5F5F5F5F5F5F5F5F5F5F5F5F5F5E2E2F5F5E2F5F5F5F5F5F5F5F5F5F5F5F5F5F5F5F5E2F5F5F5F5E2E2F5F5F5F5E2F5F5F5
310
F5F5F5F5F5F5F5F5F5F5F5F5F5E2F5F5F5F5F5F5F5F5F5F5F5F5F5F5F5F5F5F5F5F5F5F5F5F5F5F5F5F5F5F5F5F5F5F5F5F5F5F5F5F5F5F5F5F5F5F5F5F5F5F5F5F5F5F5F5F5F5F5F5F5F5F5F5F5F5F5F5F5F5F5F5F5F5F5F5F5F5F5F5F5F5F5F5E2F5F5F5F5F5F5F5F5F5F5F5F5F5ECF5F5F5F5F5F5F5F5DCF5F5F5F5F5F5
310
F5ECF5F5F5F5F5F5F5F5F5F5F5F5F5E2E2F5F5F5F5E2F5F5F5F5F5F5F5F5F5F5F5F5F5F5F5F5E2F5F5F5F5E2E2F5F5F5F5E2F5F5F5F5F5F5F5F5F5F5F5F5F5F5F5F5E2F5F5F5F5F5F5F5F5F5F5F5F5F5F5F5F5F5F5F5F5F5F5F5F5F5F5F5F5F5F5F5F5F5F5F5F5F5F5F5F5F5F5F5F5F5F5F5F5F5F5F5F5F5F5F5F5F5F5F5F5
310
F5F5F5F5F5F5F5F5F5F5F5F5F5F5F5F5F5F5F5F5F5F5F5F5E2E2F5F5F5F5F5F5F5F5F5F5F5ECF5F5F5F5F5F5F5F5DCF5F5F5F5F5F5F5ECF5F5F5F5F5F5F5F5F5F5F5F5E2F5F5F5F5F5F5E2F5F5F5F5F5F5F5F5F5F5F5F5F5F5F5F5E2F5F5F5F5E2E2F5F5F5F5E2F5F5F5F5F5F5F5F5F5F5F5F5F5F5F5F5E2F5F5F5F5F5F5F5
310
F5F5F5F5F5F5F5F5F5F5F5F5F5F5F5F5F5F5F5F5F5F5F5F5F5F5F5F5F5F5F5F5F5F5F5F5F5F5F5F5F5F5F5F5F5F5F5F5F5F5F5F5F5F5F5F5F5F5F5F5F5F5F5F5F5F5F5F5F5F5F5F5F5F5F5F5F5F5F5E2F5F5F5F5F5F5F5F5F5F5ECF5F5F5F5F5F5F5F5DCF5F5F5F5F5F5F5ECF5F5F5F5F5F5F5F5F5F5E2E2F5F5F5F5F5F5F5
310
E2F5F5F5F5F5F5F5F5F5F5F5F5F5F5F5F5E2F5F5F5F5E2E2F5F5F5F5E2F5F5F5F5F5F5F5F5F5F5F5F5F5F5F5F5E2F5F5F5F5F5F5F5F5F5F5F5F5F5F5F5F5F5F5F5F5F5F5F5F5F5F5F5F5F5F5F5F5F5F5F5F5F5F5F5F5F5F5F5F5F5F5F5F5F5F5F5F5F5F5F5F5F5F5F5F5F5F5F5F5F5F5F5F5F5F5F5F5F5F5F5F5F5F5F5F5F5
310
F5F5F5F5F5F5E2E2F5F5F5F5F5F5F5F5F5ECECECECECF5ECECECECECF5ECECECECECF5F5F5F5F5F5F5F5E2E2F5F5F5F5F5F5F5F5F5E2F5F5F5F5F5F5F5F5F5F5F5F5F5F5F5F5E2F5F5F5F5E2E2F5F5F5F5E2F5F5F5F5F5F5F5F5F5F5F5F5F5F5F5F5E2F5F5F5F5F5F5F5F5F5F5F5F5F5F5F5F5F5F5F5F5F5F5F5F5F5F5F5F5
310
F5F5F5F5F5F5F5F5F5F5F5F5F5F5F5F5F5F5F5F5F5F5F5F5F5F5F5F5F5F5F5F5F5F5F5F5F5F5F5F5F5F5F5F5F5F5F5F5F5F5F5F5F5F5F5F5F5F5F5F5F5E2E2F5F5F5F5F5F5F5ECF5F5F5F5F5F5F5DCF5F5F5F5F5F5F5ECF5F5F5F5F5F5F5E2F5F5F5F5F5F5F5F5F5F5F5E2F5F5F5F5F5F5F5F5F5F5F5F5F5F5F5F5E2F5F5F5
310
F5E2E2F5F5F5F5E2F5F5F5F5F5F5F5F5F5F5F5F5F5F5F5F5E2F5F5F5F5F5F5F5F5F5F5F5F5F5F5F5F5F5F5F5F5F5F5F5F5F5F5F5F5F5F5F5F5F5F5F5F5F5F5F5F5F5F5F5F5F5F5F5F5F5F5F5F5F5F5F5F5F5F5F5F5F5F5F5F5F5F5F5F5F5F5F5F5F5F5F5F5F5F5F5F5F5F5F5F5F5F5F5F5F5F5E2F5F5F5F5F5F5F5ECF5F5F5
310
F5F5F5F5DCF5F5F5F5F5F5F5ECF5F5F5F5F5F5F5E2F5F5F5F5F5F5F5F5F5F5F5E2F5F5F5F5F5F5F5F5F5F5F5F5F5F5F5F5E2F5F5F5F5E2E2F5F5F5F5E2F5F5F5F5F5F5F5F5F5F5F5F5F5F5F5F5E2F5F5F5F5F5F5F5F5F5F5F5F5F5F5F5F5F5F5F5F5F5F5F5F5F5F5F5F5F5F5F5F5F5F5F5F5F5F5F5F5F5F5F5F5F5F5F5F5F5
310
F5F5F5F5F5F5F5F5F5F5F5F5F5F5F5F5F5F5F5F5F5F5F5F5F5F5F5F5F5F5F5F5F5F5F5F5F5F5F5F5F5E2F5F5F5F5F5F5F5ECF5F5F5F5F5F5F5DCF5F5F5F5F5F5F5ECF5F5F5F5F5F5F5E2F5F5F5F5F5F5F5F5F5F5F5E2F5F5F5F5F5F5F5F5F5F5F5F5F5F5F5F5E2F5F5F5F5E2E2F5F5F5F5E2F5F5F5F5F5F5F5F5F5F5F5F5F5
310
F5F5F5E2F5F5F5F5F5F5F5F5F5F5F5F5F5F5F5F5F5F5F5F5F5F5F5F5F5F5F5F5F5F5F5F5F5F5F5F5F5F5F5F5F5F5F5F5F5F5F5F5F5F5F5F5F5F5F5F5F5F5F5F5F5F5F5F5F5F5F5F5F5F5F5F5F5F5F5F5F5F5F5F5F5F5F5F5F5F5F5F5F5F5E2F5F5F5F5F5F5F5ECF5F5F5F5E2E2E2E2E2E2E2F5F5F5F5ECF5F5F5F5F5F5F5E2
310
F5F5F5F5F5F5F5F5F5F5F5E2F5F5F5F5F5F5F5F5F5F5F5F5F5F5F5F5E2F5F5F5F5E2E2F5F5F5F5E2F5F5F5F5F5F5F5F5F5F5F5F5F5F5F5F5E2F5F5F5F5F5F5F5F5F5F5F5F5F5F5F5F5F5F5F5F5F5F5F5F5F5F5F5F5F5F5F5F5F5F5F5F5F5F5F5F5F5F5F5F5F5F5F5F5F5F5F5F5F5F5F5F5F5F5F5F5F5F5F5F5F5F5F5F5F5F5
310
F5F5F5F5F5F5F5F5F5F5F5F5F5F5F5F5F5F5F5F5E2F5F5F5F5F5F5F5ECECECECECECF5F5DCF5F5ECECECECECECF5F5F5F5F5F5F5E2F5F5F5F5F5F5F5F5F5F5F5E2F5F5F5F5F5F5F5F5F5F5F5F5F5F5F5F5E2F5F5F5F5E2E2F5F5F5F5E2F5F5F5F5F5F5F5F5F5F5F5F5F5F5F5F5E2F5F5F5F5F5F5F5F5F5F5F5F5F5F5F5F5F5
310
F5F5F5F5F5F5F5F5F5F5F5F5F5F5F5F5F5F5F5F5F5F5F5F5F5F5F5F5F5F5F5F5F5F5F5F5F5F5F5F5F5F5F5F5F5F5F5F5F5F5F5F5F5F5F5F5F5F5F5F5F5F5F5F5F5F5F5F5F5F5F5F5F5E2F5F5F5F5F5F5F5ECF5F5F5F5E2F5F5DCF5F5E2F5F5F5F5ECF5F5F5F5F5F5F5E2F5F5F5F5F5F5F5F5F5F5F5E2F5F5F5F5F5F5F5F5F5
310
F5F5F5F5F5F5F5E2F5F5F5F5E2E2F5F5F5F5E2F5F5F5F5F5F5F5F5F5F5F5F5F5F5F5F5E2F5F5F5F5F5F5F5F5F5F5F5F5F5F5F5F5F5F5F5F5F5F5F5F5F5F5F5F5F5F5F5F5F5F5F5F5F5F5F5F5F5F5F5F5F5F5F5F5F5F5F5F5F5F5F5F5F5F5F5F5F5F5F5F5F5F5F5F5F5F5F5F5F5F5F5F5F5F5F5F5F5F5F5F5F5F5F5F5F5F5E2
310
E2E2E2E2E2E2E2E2E2E2E2E2ECF5F5DCF5F5E2E2E2E2E2E2E2E2E2E2E2E2E2E2F5F5F5F5F5F5F5F5F5F5F5E2F5F5F5F5F5F5F5F5F5F5F5F5F5F5F5F5E2F5F5F5F5E2E2F5F5F5F5E2F5F5F5F5F5F5F5F5F5F5F5F5F5F5F5F5E2F5F5F5F5F5F5F5F5F5F5F5F5F5F5F5F5F5F5F5F5F5F5F5F5F5F5F5F5F5F5F5F5F5F5F5F5F5F5
310
F5F5F5F5F5F5F5F5F5F5F5F5F5F5F5F5F5F5F5F5F5F5F5F5F5F5F5F5F5F5F5F5F5F5F5F5F5F5F5F5F5F5F5F5F5F5F5F5F5F5F5F5F5F5F5F5F5F5F5F5F5F5F5F5F5F5F5F5DCF5F5F5F5F5F5F5F5F5F5F5F5F5F5F5F5F5F5F5F5F5F5F5F5F5F5F5E2F5F5F5F5F5F5F5F5F5F5F5F5F5F5F5F5E2F5F5F5F5E2E2F5F5F5F5F5F5F5
310
F5F5F5F5F5F5F5F5F5F5F5F5F5F5E2F5F5F5F5F5F5F5F5F5F5F5F5F5F5F5F5F5F5F5F5F5F5F5F5F5F5F5F5F5F5F5F5F5F5F5F5F5F5F5F5F5F5F5F5F5F5F5F5F5F5F5F5F5F5F5F5F5F5F5F5F5F5F5F5F5F5F5F5F5F5F5F5F5F5F5F5F5F5F5F5F5F5F5F5F5F5F5F5F5F5F5F5F5F5F5F5F5F5F5F5F5F5F5F5F5F5F5F5F5F5F5F5
310
F5F5F5F5F5F5F5F5F5F5F5F5F5F5F5F5F5F5F5F5F5F5E2F5F5F5F5F5F5F5F5F5F5F5F5F5F5F5F5F5F5F5F5F5E2E2F5F5F5F5F5F5F5F5F5F5F5F5F5F5F5F5F5F5F5F5F5E2F5F5F5F5F5F5F5F5F5F5F5F5F5F5F5F5F5F5F5F5F5F5F5F5F5F5F5F5F5F5F5F5F5F5F5F5F5F5F5F5F5F5F5F5F5F5F5F5F5F5F5F5F5F5F5F5F5F5F5
310
F5F5F5F5F5F5F5F5F5F5F5F5F5F5F5F5F5F5F5F5F5F5F5F5F5F5F5F5F5F5F5F5F5F5F5F5F5F5F5F5F5F5F5F5F5F5F5F5F5F5F5F5F5F5F5F5F5F5F5F5F5F5F5F5F5F5F5F5F5F5F5F5F5F5F5E2F5F5F5F5F5F5F5F5F5F5F5F5F5F5F5F5F5F5F5F5F5E2E2F5F5F5F5F5F5F5F5F5F5F5F5F5F5F5F5F5F5F5F5F5E2F5F5F5F5F5F5
310
F5F5F5F5F5F5F5F5F5F5F5F5F5F5F5F5F5F5F5F5F5F5F5F5F5F5F5F5F5F5F5F5F5F5F5F5F5F5F5F5F5F5F5F5F5F5F5F5F5F5F5F5F5F5F5F5F5F5F5F5F5F5F5F5F5F5F5F5F5F5F5F5F5F5F5F5F5F5F5F5F5F5F5F5F5F5F5F5F5F5F5F5F5F5F5F5F5F5F5F5F5F5F5F5F5F5F5F5F5F5F5F5F5F5F5F5F5F5F5F5F5F5F5F5F5F5F5
310
F5E2F5F5F5F5F5F5F5F5F5F5F5F5F5F5F5F5F5F5F5F5F5E2E2F5F5F5F5F5F5F5F5F5F5F5F5F5F5F5F5F5F5F5F5F5E2F5F5F5F5F5F5F5F5F5F5F5F5F5F5F5F5F5F5F5F5F5F5F5F5F5F5F5F5F5F5F5F5F5F5F5F5F5F5F5F5F5F5F5F5F5F5F5F5F5F5F5F5F5F5F5F5F5F5F5F5F5F5F5F5F5F5F5F5F5F5F5F5F5F5F5F5F5F5F5F5
310
F5F5F5F5F5F5F5F5F5F5F5F5F5F5F5F5F5F5F5F5F5F5F5F5F5F5F5F5F5F5F5F5F5F5F5F5F5F5F5F5F5F5F5F5F5F5F5F5F5F5F5F5F5F5E2F5F5F5F5F5F5F5F5F5F5F5F5F5F5F5F5F5F5F5F5F5E2E2F5F5F5F5F5F5F5F5F5F5F5F5F5F5F5F5F5F5F5F5F5E2F5F5F5F5F5F5F5F5F5F5F5F5F5F5F5F5F5F5F5F5F5F5F5F5F5F5F5
310
F5F5F5F5F5F5F5F5F5F5F5F5F5F5F5F5F5F5F5F5F5F5F5F5F5F5F5F5F5F5F5F5F5F5F5F5F5F5F5F5F5F5F5F5F5F5F5F5F5F5F5F5F5F5F5F5F5F5F5F5F5F5F5F5F5F5F5F5F5F5F5F5F5F5F5F5F5F5F5F5F5F5F5F5F5F5F5F5F5F5F5F5F5F5F5F5F5F5F5F5F5F5F5F5F5F5F5E2F5F5F5F5F5F5F5F5F5F5F5F5F5F5F5F5F5F5F5
310
F5F5E2E2F5F5F5F5F5F5F5F5F5F5F5F5F5F5F5F5F5F5F5F5F5E2F5F5F5F5F5F5F5F5F5F5F5F5F5F5F5F5F5F5F5F5F5F5F5F5F5F5F5F5F5F5F5F5F5F5F5F5F5F5F5F5F5F5F5F5F5F5F5F5F5F5F5F5F5F5F5F5F5F5F5F5F5F5F5F5F5F5F5F5F5F5F5F5F5F5F5F5F5F5F5F5F5F5F5F5F5F5F5F5F5F5F5F5F5F5F5F5F5F5F5F5F5
310
F5F5F5F5F5F5F5F5F5F5F5F5F5F5F5F5F5F5F5F5F5F5F5F5F5F5F5F5F5F5F5F5F5E2F5F5F5F5F5F5F5F5F5F5F5F5F5F5F5F5F5F5F5F5F5E2E2F5F5F5F5F5F5F5F5F5F5F5F5F5F5F5F5F5F5F5F5F5E2F5F5F5F5F5F5F5F5F5F5F5F5F5F5F5F5F5F5F5F5F5F5F5F5F5F5F5F5F5F5F5F5F5F5F5F5F5F5F5F5F5F5F5F5F5F5F5F5
310
F5F5F5F5F5F5F5F5F5F5F5F5F5F5F5F5F5F5F5F5F5F5F5F5F5F5F5F5F5F5F5F5F5F5F5F5F5F5F5F5F5F5F5F5F5F5F5F5F5F5F5F5F5F5F5F5F5F5F5F5F5F5F5F5F5F5F5F5F5F5F5F5F5F5F5F5F5F5F5F5F5F5F5F5F5F5E2F5F5F5F5F5F5F5F5F5F5F5F5F5F5F5F5F5F5F5F5F5E2E2F5F5F5F5F5F5F5F5F5F5F5F5F5F5F5F5F5
310
F5F5F5F5E2F5F5F5F5F5F5F5F5F5F5F5F5F5F5F5F5F5F5F5F5F5F5F5F5F5F5F5F5F5F5F5F5F5F5F5F5F5F5F5F5F5F5F5F5F5F5F5F5F5F5F5F5F5F5F5F5F5F5F5F5F5F5F5F5F5F5F5F5F5F5F5F5F5F5F5F5F5F5F5F5F5F5F5F5F5F5F5F5F5F5F5F5F5F5F5F5F5F5F5F5F5F5F5F5F5F5F5F5F5F5F5F5F5F5F5F5F5F5F5F5F5F5
310
F5F5F5F5F5F5F5F5F5F5F5F5E2F5F5F5F5F5F5F5F5F5F5F5F5F5F5F5F5F5F5F5F5F5E2E2F5F5F5F5F5F5F5F5F5F5F5F5F5F5F5F5F5F5F5F5F5E2F5F5F5F5F5F5F5F5F5F5F5F5F5F5F5F5F5F5F5F5F5F5F5F5F5F5F5F5F5F5F5F5F5F5F5F5F5F5F5F5F5F5F5F5F5F5F5F5F5F5F5F5F5F5F5F5F5F5F5F5F5F5F5F5F5F5F5F5F5
310
F5F5F5F5F5F5F5F5F5F5F5F5F5F5F5F5F5F5F5F5F5F5F5F5F5F5F5F5F5F5F5F5F5F5F5F5F5F5F5F5F5F5F5F5F5F5F5F5F5F5F5F5F5F5F5F5F5F5F5F5F5F5F5F5F5E2F5F5F5F5F5F5F5F5F5F5F5F5F5F5F5F5F5F5F5F5F5E2E2F5F5F5F5F5F5F5F5F5F5F5F5F5F5F5F5F5F5F5F5F5E2F5F5F5F5F5F5F5F5F5F5F5F5F5F5F5F5
310
F5F5F5F5F5F5F5F5F5F5F5F5F5F5F5F5F5F5F5F5F5F5F5F5F5F5F5F5F5F5F5F5F5F5F5F5F5F5F5F5F5F5F5F5F5F5F5F5F5F5F5F5F5F5F5F5F5F5F5F5F5F5F5F5F5F5F5F5F5F5F5F5F5F5F5F5F5F5F5F5F5F5F5F5F5F5F5F5F5F5F5F5F5F5F5F5F5F5F5F5F5F5F5F5F5F5F5F5F5F5F5F5F5F5F5F5F5F5E2F5F5F5F5F5F5F5F5
310
F5F5F5F5F5F5F5F5F5F5F5F5F5E2E2F5F5F5F5E2F5F5F5F5F5F5F5F5F5F5F5F5F5F5F5F5E2F5F5F5F5F5F5F5F5F5F5F5F5F5F5F5F5F5F5F5F5F5F5F5F5F5F5F5F5F5F5F5F5F5F5F5F5F5F5F5F5F5F5F5F5F5F5F5F5F5F5F5F5F5F5F5F5F5F5F5F5F5F5F5F5F5F5F5F5F5F5F5F5F5F5F5F5F5F5F5F5F5F5F5F5F5F5F5F5F5F5
310
F5F5F5F5F5F5F5F5F5F5F5F5F5F5F5F5F5F5F5F5F5F5F5F5F5F5F5F5F5F5F5F5F5F5F5F5F5F5F5F5F5F5F5F5E2F5F5F5F5F5F5F5F5F5F5F5F5F5F5F5F5E2F5F5F5F5E2E2F5F5F5F5E2F5F5F5F5F5F5F5F5F5F5F5F5F5F5F5F5E2F5F5F5F5F5F5F5F5F5F5F5F5F5F5F5F5F5F5F5F5F5F5F5F5F5F5F5F5F5F5F5F5F5F5F5F5F5
310
F5F5F5F5F5F5F5F5F5F5F5F5F5F5F5F5F5F5F5F5F5F5F5F5F5F5F5F5F5F5F5F5F5F5F5F5F5F5F5F5F5F5F5F5F5F5F5F5F5F5F5F5F5F5F5F5F5F5F5F5F5F5F5F5F5F5F5F5F5F5F5F5F5F5F5F5F5F5F5F5F5F5F5F5F5F5F5F5F5F5F5F5F5F5F5F5F5E2F5F5F5F5F5F5F5F5F5F5F5F5F5F5F5F5E2F5F5F5F5E2E2F5F5F5F5E2F5
310
F5F5F5F5F5F5F5F5F5F5F5F5F5F5F5E2F5F5F5F5F5F5F5F5F5F5F5F5F5F5F5F5F5F5F5F5F5F5F5F5F5F5F5F5F5F5F5F5F5F5F5F5F5F5F5F5F5F5F5F5F5F5F5F5F5F5F5F5F5F5F5F5F5F5F5F5F5F5F5F5F5F5F5F5F5F5F5F5F5F5F5F5F5F5F5F5F5F5F5F5F5F5F5F5F5F5F5F5F5F5F5F5F5F5F5F5F5F5F5F5F5F5F5F5F5F5F5
310
F5F5F5F5F5F5F5F5F5F5F5F5F5F5F5F5F5F5F5F5F5F5F5E2F5F5F5F5F5F5F5F5F5F5F5F5F5F5F5F5E2F5F5F5F5E2E2F5F5F5F5E2F5F5F5F5F5F5F5F5F5F5F5F5F5F5F5F5E2F5F5F5F5F5F5F5F5F5F5F5F5F5F5F5F5F5F5F5F5F5F5F5F5F5F5F5F5F5F5F5F5F5F5F5F5F5F5F5F5F5F5F5F5F5F5F5F5F5F5F5F5F5F5F5F5F5F5
310
F5F5F5F5F5F5F5F5F5F5F5F5F5F5F5F5F5F5F5F5F5F5F5F5F5F5F5F5F5F5F5F5F5F5F5F5F5F5F5F5F5F5F5F5F5F5F5F5F5F5F5F5F5F5F5F5F5F5F5F5F5F5F5F5F5F5F5F5F5F5F5F5F5F5F5F5E2F5F5F5F5F5F5F5F5F5F5F5F5F5F5F5F5E2F5F5F5F5E2E2F5F5F5F5E2F5F5F5F5F5F5F5F5F5F5F5F5F5F5F5F5E2F5F5F5F5F5
310
F5F5F5F5F5F5F5F5F5F5F5F5F5F5F5F5F5F5F5F5F5F5F5F5F5F5F5F5F5F5F5F5F5F5F5F5F5F5F5F5F5F5F5F5F5F5F5F5F5F5F5F5F5F5F5F5F5F5F5F5F5F5F5F5F5F5F5F5F5F5F5F5F5F5F5F5F5F5F5F5F5F5F5F5F5F5F5F5F5F5F5F5F5F5F5F5F5F5F5F5F5F5F5F5F5F5F5F5F5F5F5F5F5F5F5F5F5F5F5F5F5F5F5F5F5F5F5
310
F5F5E2F5F5F5F5F5F5F5F5F5F5F5F5F5F5F5F5E2F5F5F5F5E2E2F5F5F5F5E2F5F5F5F5F5F5F5F5F5F5F5F5F5F5F5F5E2F5F5F5F5F5F5F5F5F5F5F5F5F5F5F5F5F5F5F5F5F5F5F5F5F5F5F5F5F5F5F5F5F5F5F5F5F5F5F5F5F5F5F5F5F5F5F5F5F5F5F5F5F5F5F5F5F5F5F5F5F5F5F5F5F5F5F5F5F5F5F5F5F5F5F5F5F5F5F5
310
F5F5F5F5F5F5F5F5F5F5F5F5F5F5F5F5F5F5F5F5F5F5F5F5F5F5F5F5F5F5F5F5F5F5F5F5F5F5F5F5F5F5F5F5F5F5F5F5F5F5F5F5F5F5F5E2F5F5F5F5F5F5F5F5F5F5F5F5F5F5F5F5E2F5F5F5F5E2E2F5F5F5F5E2F5F5F5F5F5F5F5F5F5F5F5F5F5F5F5F5E2F5F5F5F5F5F5F5F5F5F5F5F5F5F5F5F5F5F5F5F5F5F5F5F5F5F5
310
F5F5F5F5F5F5F5F5F5F5F5F5F5F5F5F5F5F5F5F5F5F5F5F5F5F5F5F5F5F5F5F5F5F5F5F5F5F5F5F5F5F5F5F5F5F5F5F5F5F5F5F5F5F5F5F5F5F5F5F5F5F5F5F5F5F5F5F5F5F5F5F5F5F5F5F5F5F5F5F5F5F5F5F5F5F5F5F5F5F5F5F5F5F5F5F5F5F5F5F5F5F5F5F5F5F5F5F5E2F5F5F5F5F5F5F5F5F5F5F5F5F5F5F5F5E2F5
310
F5F5F5E2E2F5F5F5F5E2F5F5F5F5F5F5F5F5F5F5F5F5F5F5F5F5E2F5F5F5F5F5F5F5F5F5F5F5F5F5F5F5F5F5F5F5F5F5F5F5F5F5F5F5F5F5F5F5F5F5F5F5F5F5F5F5F5F5F5F5F5F5F5F5F5F5F5F5F5F5F5F5F5F5F5F5F5F5F5F5F5F5F5F5F5F5F5F5F5F5F5F5F5F5F5F5F5F5F5F5F5F5F5F5F5F5F5F5F5F5F5F5F5F5F5F5F5
310
F5F5F5F5F5F5F5F5F5F5F5F5F5F5F5F5F5F5F5F5F5F5F5F5F5F5F5F5F5F5F5F5F5F5E2F5F5F5F5F5F5F5F5F5F5F5F5F5F5F5F5E2F5F5F5F5E2E2F5F5F5F5E2F5F5F5F5F5F5F5F5F5F5F5F5F5F5F5F5E2F5F5F5F5F5F5F5F5F5F5F5F5F5F5F5F5F5F5F5F5F5F5F5F5F5F5F5F5F5F5F5F5F5F5F5F5F5F5F5F5F5F5F5F5F5F5F5
310
F5F5F5F5F5F5F5F5F5F5F5F5F5F5F5F5F5F5F5F5F5F5F5F5F5F5F5F5F5F5F5F5F5F5F5F5F5F5F5F5F5F5F5F5F5F5F5F5F5F5F5F5F5F5F5F5F5F5F5F5F5F5F5F5F5F5F5F5F5F5F5F5F5F5F5F5F5F5F5F5F5F5F5F5F5F5F5E2F5F5F5F5F5F5F5F5F5F5F5F5F5F5F5F5E2F5F5F5F5E2E2F5F5F5F5E2F5F5F5F5F5F5F5F5F5F5F5
310
F5F5F5F5F5E2F5F5F5F5F5F5F5F5F5F5F5F5F5F5F5F5F5F5F5F5F5F5F5F5F5F5F5F5F5F5F5F5F5F5F5F5F5F5F5F5F5F5F5F5F5F5F5F5F5F5F5F5F5F5F5F5F5F5F5F5F5F5F5F5F5F5F5F5F5F5F5F5F5F5F5F5F5F5F5F5F5F5F5F5F5F5F5F5F5F5F5F5F5F5F5F5F5F5F5F5F5F5F5F5F5F5F5F5F5F5F5F5F5F5F5F5F5F5F5F5F5
310
F5F5F5F5F5F5F5F5F5F5F5F5F5E2F5F5F5F5F5F5F5F5F5F5F5F5F5F5F5F5E2F5F5F5F5E2E2F5F5F5F5E2F5F5F5F5F5F5F5F5F5F5F5F5F5F5F5F5E2F5F5F5F5F5F5F5F5F5F5F5F5F5F5F5F5F5F5F5F5F5F5F5F5F5F5F5F5F5F5F5F5F5F5F5F5F5F5F5F5F5F5F5F5F5F5F5F5F5F5F5F5F5F5F5F5F5F5F5F5F5F5F5F5F5F5F5F5
310
F5F5F5F5F5F5F5F5F5F5F5F5F5F5F5F5F5F5F5F5F5F5F5F5F5F5F5F5F5F5F5F5F5F5F5F5F5F5F5F5F5F5F5F5F5F5F5F5F5F5F5F5F5F5F5F5F5F5F5F5F5F5F5F5F5F5E2F5F5F5F5F5F5F5F5F5F5F5F5F5F5F5F5E2F5F5F5F5E2E2F5F5F5F5E2F5F5F5F5F5F5F5F5F5F5F5F5F5F5F5F5E2F5F5F5F5F5F5F5F5F5F5F5F5F5F5F5
310
F5F5F5F5F5F5F5F5F5F5F5F5F5F5F5F5F5F5F5F5F5F5F5F5F5F5F5F5F5F5F5F5F5F5F5F5F5F5F5F5F5F5F5F5F5F5F5F5F5F5F5F5F5F5F5F5F5F5F5F5F5F5F5F5F5F5F5F5F5F5F5F5F5F5F5F5F5F5F5F5F5F5F5F5F5F5F5F5F5F5F5F5F5F5F5F5F5F5F5F5F5F5F5F5F5F5F5F5F5F5F5F5F5F5F5F5F5F5F5E2F5F5F5F5F5F5F5
310
F5F5F5F5F5F5F5F5F5E2F5F5F5F5E2E2F5F5F5F5E2F5F5F5F5F5F5F5F5F5F5F5F5F5F5F5F5E2F5F5F5F5F5F5F5F5F5F5F5F5F5F5F5F5F5F5F5F5F5F5F5F5F5F5F5F5F5F5F5F5F5F5F5F5F5F5F5F5F5F5F5F5F5F5F5F5F5F5F5F5F5F5F5F5F5F5F5F5F5F5F5F5F5F5F5F5F5F5F5F5F5F5F5F5F5F5F5F5F5F5F5F5F5F5F5F5F5
310
F5F5F5F5F5F5F5F5F5F5F5F5F5F5F5F5F5F5F5F5F5F5F5F5F5F5F5F5F5F5F5F5F5F5F5F5F5F5F5F5F5F5F5F5F5E2F5F5F5F5F5F5F5F5F5F5F5F5F5F5F5F5E2F5F5F5F5E2E2F5F5F5F5E2F5F5F5F5F5F5F5F5F5F5F5F5F5F5F5F5E2F5F5F5F5F5F5F5F5F5F5F5F5F5F5F5F5F5F5F5F5F5F5F5F5F5F5F5F5F5F5F5F5F5F5F5F5
310
F5F5F5F5F5F5F5F5F5F5F5F5F5F5F5F5F5F5F5F5F5F5F5F5F5F5F5F5F5F5F5F5F5F5F5F5F5F5F5F5F5F5F5F5F5F5F5F5F5F5F5F5F5F5F5F5F5F5F5F5F5F5F5F5F5F5F5F5F5F5F5F5F5F5F5F5F5F5F5F5F5F5F5F5F5F5F5F5F5F5F5F5F5F5F5F5F5F5E2F5F5F5F5F5F5F5F5F5F5F5F5F5F5F5F5E2F5F5F5F5E2E2F5F5F5F5E2
310
F5F5F5F5F5F5F5F5F5F5F5F5F5F5F5F5E2F5F5F5F5F5F5F5F5F5F5F5F5F5F5F5F5F5F5F5F5F5F5F5F5F5F5F5F5F5F5F5F5F5F5F5F5F5F5F5F5F5F5F5F5F5F5F5F5F5F5F5F5F5F5F5F5F5F5F5F5F5F5F5F5F5F5F5F5F5F5F5F5F5F5F5F5F5F5F5F5F5F5F5F5F5F5F5F5F5F5F5F5F5F5F5F5F5F5F5F5F5F5F5F5F5F5F5F5F5F5
310
F5F5F5F5F5F5F5F5F5F5F5F5F5F5F5F5F5F5F5F5F5F5F5F5E2F5F5F5F5F5F5F5F5F5F5F5F5F5F5F5F5E2F5F5F5F5E2E2F5F5F5F5E2F5F5F5F5F5F5F5F5F5F5F5F5F5F5F5F5E2F5F5F5F5F5F5F5F5F5F5F5F5F5F5F5F5F5F5F5F5F5F5F5F5F5F5F5F5F5F5F5F5F5F5F5F5F5F5F5F5F5F5F5F5F5F5F5F5F5F5F5F5F5F5F5F5F5
310
F5F5F5F5F5F5F5F5F5F5F5F5F5F5F5F5F5F5F5F5F5F5F5F5F5F5F5F5F5F5F5F5F5F5F5F5F5F5F5F5F5F5F5F5F5F5F5F5F5F5F5F5F5F5F5F5F5F5F5F5F5F5F5F5F5F5F5F5F5F5F5F5F5F5F5F5F5E2F5F5F5F5F5F5F5F5F5F5F5F5F5F5F5F5E2F5F5F5F5E2E2F5F5F5F5F5F5F5F5F5F5F5F5F5F5F5F5F5F5F5F5F5E2F5F5F5F5
310
F5F5F5F5F5F5F5F5F5F5F5F5F5F5F5F5F5F5F5F5F5F5F5F5F5F5F5F5F5F5F5F5F5F5F5F5F5F5F5F5F5F5F5F5F5F5F5F5F5F5F5F5F5F5F5F5F5F5F5F5F5F5F5F5F5F5F5F5F5F5F5F5F5F5F5F5F5F5F5F5F5F5F5F5F5F5F5F5F5F5F5F5F5F5F5F5F5F5F5F5F5F5F5F5F5F5F5F5F5F5F5F5F5F5F5F5F5F5F5F5F5F5F5F5F5F5F5
310
F5F5F5E2F5F5F5F5F5F5F5F5F5F5F5F5F5F5F5F5F5F5F5F5F5E2E2F5F5F5F5F5F5F5F5F5F5F5F5F5F5F5F5F5F5F5F5F5E2F5F5F5F5F5F5F5F5F5F5F5F5F5F5F5F5F5F5F5F5F5F5F5F5F5F5F5F5F5F5F5F5F5F5F5F5F5F5F5F5F5F5F5F5F5F5F5F5F5F5F5F5F5F5F5F5F5F5F5F5F5F5F5F5F5F5F5F5F5F5F5F5F5F5F5F5F5F5
310
F5F5F5F5F5F5F5F5F5F5F5F5F5F5F5F5F5F5F5F5F5F5F5F5F5F5F5F5F5F5F5F5F5F5F5F5F5F5F5F5F5F5F5F5F5F5F5F5F5F5F5F5F5F5F5F5E2F5F5F5F5F5F5F5F5F5F5F5F5F5F5F5F5F5F5F5F5F5E2E2F5F5F5F5F5F5F5F5F5F5F5F5F5F5F5F5F5F5F5F5F5E2F5F5F5F5F5F5F5F5F5F5F5F5F5F5F5F5F5F5F5F5F5F5F5F5F5
310
F5F5F5F5F5F5F5F5F5F5F5F5F5F5F5F5F5F5F5F5F5F5F5F5F5F5F5F5F5F5F5F5F5F5F5F5F5F5F5F5F5F5F5F5F5F5F5F5F5F5F5F5F5F5F5F5F5F5F5F5F5F5F5F5F5F5F5F5F5F5F5F5F5F5F5F5F5F5F5F5F5F5F5F5F5F5F5F5F5F5F5F5F5F5F5F5F5F5F5F5F5F5F5F5F5F5F5F5F5E2F5F5F5F5F5F5F5F5F5F5F5F5F5F5F5F5F5
310
F5F5F5F5E2E2F5F5F5F5F5F5F5F5F5F5F5F5F5F5F5F5F5F5F5F5F5E2F5F5F5F5F5F5F5F5F5F5F5F5F5F5F5F5F5F5F5F5F5F5F5F5F5F5F5F5F5F5F5F5F5F5F5F5F5F5F5F5F5F5F5F5F5F5F5F5F5F5F5F5F5F5F5F5F5F5F5F5F5F5F5F5F5F5F5F5F5F5F5F5F5F5F5F5F5F5F5F5F5F5F5F5F5F5F5F5F5F5F5F5F5F5F5F5F5F5F5
310
F5F5F5F5F5F5F5F5F5F5F5F5F5F5F5F5F5F5F5F5F5F5F5F5F5F5F5F5F5F5F5F5F5F5F5E2F5F5F5F5F5F5F5F5F5F5F5F5F5F5F5F5F5F5F5F5F5E2E2F5F5F5F5F5F5F5F5F5F5F5F5F5F5F5F5F5F5F5F5F5E2E2E2E2E2E2E2E2E2E2E2E2E2E2E2E2E2E2E2E2E2E2E2E2E2E2E2E2E2E2E2E2E2E2E2E2E2E2E2E2E2E2E2E2E2E2E2
310
E2E2E2E2E2E2E2E2E2E2E2E2E2E2E2E2E2E2E2E2E2E2E2E2E2E2E2E2E2E2E2E2E2E2E2E2E2E2E2E2E2E2E2E2E2E2E2E2E2E2E2E2E2E2E2E2E2E2E2E2E2E2E2E2E2E2E2E2E2E2E2E2E2E2E2E2E2E2E2E2E2E2E2E2E2E2E2E2E2F5F5F5F5F5F5F5F5F5F5F5F5F5F5F5F5F5F5F5F5F5E2E2F5F5F5F5F5F5F5F5F5F5F5F5F5F5F5
310
F5F5F5F5F5F5F5F5F5F5F5F5F5F5F5F5F5F5F5F5F5F5F5F5F5F5F5F5F5F5F5F5F5F5F5F5F5F5F5F5F5F5F5F5F5F5F5F5F5F5F5F5F5F5F5F5F5F5F5F5F5F5F5F5F5F5F5F5F5F5F5F5F5F5F5F5F5F5F5F5F5F5F5F5F5F5F5F5F5F5F5F5F5F5F5F5F5F5F5F5F5F5F5F5F5F5F5F5F5F5F5F5F5F5F5F5F5F5F5F5F5F5F5F5F5F5F5
310
F5F5F5F5F5F5F5F5F5F5F5F5F5F5F5F5F5F5F5F5F5F5F5F5F5F5F5F5F5F5F5F5F5F5F5F5E2E2F5F5F5F5F5F5F5F5F5F5F5F5F5F5F5F5F5F5F5F5F5F5F5F5F5F5F5F5F5F5F5F5F5F5F5F5F5F5F5F5F5F5F5F5F5F5F5F5F5F5F5F5F5F5F5F5F5F5F5F5F5F5F5F5F5F5F5F5F5F5F5F5F5F5F5F5F5F5F5F5F5F5F5F5F5F5F5F5F5
310
F5F5F5F5F5F5F5F5F5F5F5F5F5F5F5F5F5F5F5F5F5F5F5F5F5F5F5F5F5F5F5F5F5F5F5F5F5F5F5F5F5F5F5F5F5F5F5F5F5F5F5F5F5F5F5F5F5F5F5F5F5F5F5F5F5F5F5F5F5F5F5F5F5F5F5F5F5F5F5F5F5F5F5F5F5F5F5F5F5E2E2F5F5F5F5F5F5F5F5F5F5F5F5F5F5F5F5F5F5F5F5F5F5F5F5F5F5F5F5F5F5F5F5F5F5F5F5
310
F5F5F5F5F5F5F5F5F5F5F5F5F5F5F5F5F5F5F5F5F5F5F5F5F5F5F5F5F5F5F5F5F5F5F5F5F5F5F5F5F5F5F5F5F5F5F5F5F5F5F5F5F5F5F5F5F5F5F5F5F5F5F5F5F5F5F5F5F5F5F5F5F5F5F5F5F5F5F5F5F5F5F5F5F5F5F5F5F5F5F5F5F5F5F5F5F5F5F5F5F5F5F5F5F5F5F5F5F5F5F5F5F5F5F5F5F5F5F5F5F5F5F5F5F5F5F5
310
F5F5F5F5F5F5F5F5F5F5F5F5F5F5F5E2E2F5F5F5F5F5F5F5F5F5F5F5F5F5F5F5F5F5F5F5F5F5F5F5F5F5F5F5F5F5F5F5F5F5F5F5F5F5F5F5F5F5F5F5F5F5F5F5F5F5F5F5F5F5F5F5F5F5F5F5F5F5F5F5F5F5F5F5F5F5F5F5F5F5F5F5F5F5F5F5F5F5F5F5F5F5F5F5F5F5F5F5F5F5F5F5F5F5F5F5F5F5F5F5F5F5F5F5F5F5F5
310
F5F5F5F5F5F5F5F5F5F5F5F5F5F5F5F5F5F5F5F5F5F5F5F5F5F5F5F5F5F5F5F5F5F5F5F5F5F5F5F5F5F5F5F5F5F5F5F5F5F5F5F5F5F5F5F5F5F5F5F5F5F5F5F5F5F5F5F5E2E2F5F5F5F5E2F5F5F5F5F5F5F5F5F5F5F5F5F5F5F5F5F5F5F5F5F5F5F5F5F5F5F5F5F5F5F5F5F5F5F5F5F5F5F5F5F5F5F5F5F5F5F5F5F5F5F5F5
310
F5F5F5F5F5F5F5F5F5F5F5F5F5F5F5F5F5F5F5F5F5F5F5F5F5F5F5F5F5F5F5F5F5F5F5F5F5F5F5F5F5F5F5F5F5F5F5F5F5F5F5F5F5F5F5F5F5F5F5F5F5F5F5F5F5F5F5F5F5F5F5F5F5F5F5F5F5F5F5F5F5F5F5F5F5F5F5F5F5F5F5F5F5F5F5F5F5F5F5F5F5F5F5F5F5F5F5F5F5F5F5F5F5F5F5F5E2F5F5F5F5E2E2F5F5F5F5
310
E2F5F5F5F5F5F5F5F5F5F5F5F5F5F5F5F5F5F5F5F5F5F5F5F5F5F5F5F5F5F5F5F5F5F5F5F5F5F5F5F5F5F5F5F5F5F5F5F5F5F5F5F5F5F5F5F5F5F5F5F5F5F5F5F5F5F5F5F5F5F5F5F5F5F5F5F5F5F5F5F5F5F5F5F5F5F5F5F5F5F5F5F5F5F5F5F5F5F5F5F5F5F5F5F5F5F5F5F5F5F5F5F5F5F5F5F5F5F5F5F5F5F5F5F5F5F5
310
F5F5F5F5F5F5F5F5F5F5F5F5F5F5F5F5F5F5F5F5F5F5F5F5F5F5F5F5F5F5F5F5F5F5F5F5F5F5F5F5F5F5E2F5F5F5F5E2E2F5F5F5F5E2F5F5F5F5F5F5F5F5F5F5F5F5F5F5F5F5F5F5F5F5F5F5F5F5F5F5F5F5F5F5F5F5F5F5F5F5F5F5F5F5F5F5F5F5F5F5F5F5F5F5F5F5F5F5F5F5F5F5F5F5F5F5F5F5F5F5F5F5F5F5F5F5F5
310
F5F5F5F5F5F5F5F5F5F5F5F5F5F5F5F5F5F5F5F5F5F5F5F5F5F5F5F5F5F5F5F5F5F5F5F5F5F5F5F5F5F5F5F5F5F5F5F5F5F5F5F5F5F5F5F5F5F5F5F5F5F5F5F5F5F5F5F5F5F5F5F5F5F5F5F5F5F5F5F5F5F5F5F5F5F5F5F5F5F5F5F5F5F5F5E2F5F5F5F5E2E2F5F5F5F5E2F5F5F5F5F5F5F5F5F5F5F5F5F5F5F5F5F5F5F5F5
310
F5F5F5F5F5F5F5F5F5F5F5F5F5F5F5F5F5F5F5F5F5F5F5F5F5F5F5F5F5F5F5F5F5F5F5F5F5F5F5F5F5F5F5F5F5F5F5F5F5F5F5F5F5F5F5F5F5F5F5F5F5F5F5F5F5F5F5F5F5F5F5F5F5F5F5F5F5F5F5F5F5F5F5F5F5F5F5F5F5F5F5F5F5F5F5F5F5F5F5F5F5F5F5F5F5F5F5F5F5F5F5F5F5F5F5F5F5F5F5F5F5F5F5F5F5F5F5
310
F5F5F5F5F5F5F5F5F5F5F5F5F5F5F5F5F5F5F5F5F5E2F5F5F5F5E2E2F5F5F5F5E2F5F5F5F5F5F5F5F5F5F5F5F5F5F5F5F5F5F5F5F5F5F5F5F5F5F5F5F5F5F5F5F5F5F5F5F5F5F5F5F5F5F5F5F5F5F5F5F5F5F5F5F5F5F5F5F5F5F5F5F5F5F5F5F5F5F5F5F5F5F5F5F5F5F5F5F5F5F5F5F5F5F5F5F5F5F5F5F5F5F5F5F5F5F5
310
F5F5F5F5F5F5F5F5F5F5F5F5F5F5F5F5F5F5F5F5F5F5F5F5F5F5F5F5F5F5F5F5F5F5F5F5F5F5F5F5F5F5F5F5F5F5F5F5F5F5F5F5F5F5F5F5F5F5F5F5F5F5F5F5F5F5F5F5F5F5F5F5F5F5E2F5F5F5F5E2E2F5F5F5F5E2F5F5F5F5F5F5F5F5F5F5F5F5F5F5F5F5F5F5F5F5F5F5F5F5F5F5F5F5F5F5F5F5F5F5F5F5F5F5F5F5F5
310
F5F5F5F5F5F5F5F5F5F5F5F5F5F5F5F5F5F5F5F5F5F5F5F5F5F5F5F5F5F5F5F5F5F5F5F5F5F5F5F5F5F5F5F5F5F5F5F5F5F5F5F5F5F5F5F5F5F5F5F5F5F5F5F5F5F5F5F5F5F5F5F5F5F5F5F5F5F5F5F5F5F5F5F5F5F5F5F5F5F5F5F5F5F5F5F5F5F5F5F5F5F5F5F5F5F5F5F5F5F5F5F5F5F5F5F5F5F5F5F5F5F5F5F5F5F5F5
310
E2F5F5F5F5E2E2F5F5F5F5E2F5F5F5F5F5F5F5F5F5F5F5F5F5F5F5F5F5F5F5F5F5F5F5F5F5F5F5F5F5F5F5F5F5F5F5F5F5F5F5F5F5F5F5F5F5F5F5F5F5F5F5F5F5F5F5F5F5F5F5F5F5F5F5F5F5F5F5F5F5F5F5F5F5F5F5F5F5F5F5F5F5F5F5F5F5F5F5F5F5F5F5F5F5F5F5F5F5F5F5F5F5F5F5F5F5F5F5F5F5F5F5F5F5F5F5
310
F5F5F5F5F5F5F5F5F5F5F5F5F5F5F5F5F5F5F5F5F5F5F5F5F5F5F5F5F5F5F5F5F5F5F5F5F5F5F5F5F5F5F5F5F5F5F5F5F5F5F5F5F5E2F5F5F5F5E2E2F5F5F5F5E2F5F5F5F5F5F5F5F5F5F5F5F5F5F5F5F5F5F5F5F5F5F5F5F5F5F5F5F5F5F5F5F5F5F5F5F5F5F5F5F5F5F5F5F5F5F5F5F5F5F5F5F5F5F5F5F5F5F5F5F5F5F5
310
F5F5F5F5F5F5F5F5F5F5F5F5F5F5F5F5F5F5F5F5F5F5F5F5F5F5F5F5F5F5F5F5F5F5F5F5F5F5F5F5F5F5F5F5F5F5F5F5F5F5F5F5F5F5F5F5F5F5F5F5F5F5F5F5F5F5F5F5F5F5F5F5F5F5F5F5F5F5F5F5F5F5F5F5F5F5F5F5F5F5F5F5F5F5F5F5F5F5F5F5F5F5F5F5F5F5E2F5F5F5F5E2E2F5F5F5F5E2E2E2E2E2E2E2E2F5F5
310
F5F5F5F5F5F5F5E2E2E2E2E2E2E2E2E2E2E2E2E2E2E2F5F5F5F5F5F5F5F5F5E2E2E2E2E2E2E2E2E2E2E2E2E2E2E2E2F5F5F5F5F5F5F5F5E2E2E2E2E2E2E2E2E2E2E2E2E2E2E2E2F5F5F5F5F5F5F5F5E2E2E2E2E2E2E2E2E2E2E2E2E2E2E2E2F5F5F5F5F5F5F5F5E2E2E2E2E2E2E2E2E2E2E2E2E2E2E2E2F5F5F5F5F5F5F5F5
310
F5E2E2E2E2E2E2E2E2E2E2E2E2E2E2E2F5F5F5F5F5F5F5F5F5E2E2E2E2E2E2E2E2F5F5F5F5E2E2F5F5F5F5F5F5F5F5F5F5F5F5F5F5F5F5F5F5F5F5F5F5F5F5F5F5F5F5F5F5F5F5F5F5F5F5F5F5F5F5F5F5F5F5F5F5F5F5F5F5F5F5F5F5F5F5F5F5F5F5F5F5F5F5F5F5F5F5F5F5F5F5F5F5F5F5F5F5F5F5F5F5F5F5F5F5F5F5
310
F5F5F5F5F5F5F5F5F5F5F5F5F5F5F5F5F5F5F5F5F5F5F5F5F5F5F5F5F5F5F5F5F5F5F5F5F5F5F5F5F5F5F5F5F5F5F5F5F5F5F5F5F5F5F5F5F5F5F5F5F5F5F5F5F5F5F5F5F5F5F5F5F5F5F5F5F5F5F5F5F5F5F5F5F5F5F5F5F5F5E2E2F5F5F5F5F5F5F5F5F5F5F5F5F5F5F5F5F5F5F5F5F5F5F5F5F5F5F5F5F5F5F5F5F5F5F5
310
F5F5F5F5F5F5F5F5F5F5F5F5F5F5F5F5F5F5F5F5F5F5F5F5F5F5F5F5F5F5F5F5F5F5F5F5F5F5F5F5F5F5F5F5F5F5F5F5F5F5F5F5F5F5F5F5F5F5F5F5F5F5F5F5F5F5F5F5F5F5F5F5F5F5F5F5F5F5F5F5F5F5F5F5F5F5F5F5F5F5F5F5F5F5F5F5F5F5F5F5F5F5F5F5F5F5F5F5F5F5F5F5F5F5F5F5F5F5F5F5F5F5F5F5F5F5F5
310
F5F5F5F5F5F5F5F5F5F5F5F5F5F5F5F5E2E2F5F5F5F5F5F5F5F5F5F5F5F5F5F5F5F5F5F5F5F5F5F5F5F5F5F5F5F5F5F5F5F5F5F5F5F5F5F5F5F5F5F5F5F5F5F5F5F5F5F5F5F5F5F5F5F5F5F5F5F5F5F5F5F5F5F5F5F5F5F5F5F5F5F5F5F5F5F5F5F5F5F5F5F5F5F5F5F5F5F5F5F5F5F5F5F5F5F5F5F5F5F5F5F5F5F5F5F5F5
310
F5F5F5F5F5F5F5F5F5F5F5F5F5F5F5F5F5F5F5F5F5F5F5F5F5F5F5F5F5F5F5F5F5F5F5F5F5F5F5F5F5F5F5F5F5F5F5F5F5F5F5F5F5F5F5F5F5F5F5F5F5F5F5F5F5F5F5F5F5E2E2E2E2E2E2E2E2E2E2E2E2E2E2E2E2E2E2E2E2E2E2E2E2E2E2E2E2E2E2E2E2E2E2E2E2E2E2E2E2E2E2E2E2E2E2E2E2E2E2E2E2E2E2E2E2E2E2
310
E2E2E2E2E2E2E2E2E2E2E2E2E2E2E2E2E2E2E2E2E2E2E2E2E2E2E2E2E2E2E2E2E2E2E2E2E2E2E2E2E2E2E2E2E2E2E2E2E2E2E2E2E2E2E2E2E2E2E2E2E2E2E2E2E2E2E2E2E2E2E2E2E2E2E2E2E2E2E2E2E2E2E2E2E2E2E2E2E2E2E2E2E2E2E2E2E2E2E2E2E2E2E2E2E2E2E2E2E2E2E2E2E2E2E2E2E2E2E2E2E2E2E2EFEFEFEF
310
EFEFEFEFEFEFEFEFEFEFEFEFEFEFEFEFEFEFEFEFEFEFEFEFEFEFEFEFEFEFEFEFEFEFEFEFEFEFEFEFEFEFEFEFEFEFEFEFEFEFEFEFEFEFEFEFEFEFEFEFEFEFEFEFEFEFEFEFEFEFEFEFEFEFEFEFEFEFEFEFEFEFEFEFEFEFEFEFEFEFEFEFEFEFEFEFEFEFEFEFEFEFEFEFEFEFEFEFEFEFEFEFEFEFEFEFEFEFEFEFEFEFEFEFEFEFEF
310
EFEFEFEFEFEFEFEFEFEFEFEFEFEFEFEFEFEFEFEFEFEFEFEFEFEFEFEFEFEFEFEFEFEFEFEFEFEFEFEFEFEFEFEFEFEFEFEFEF
  0
XRECORD
  5
5945F
102
{ACAD_REACTORS
330
B5
102
}
330
B5
100
AcDbXrecord
280
     1
102
SHADEPLOT
 70
     0
102
SHADEPLOTRESLEVEL
 70
     2
102
SHADEPLOTCUSTOMDPI
 70
   300
  0
XRECORD
  5
B6
102
{ACAD_REACTORS
330
B5
102
}
330
B5
100
AcDbXrecord
280
     1
310
28000000B40000008B0000000100080000000000BC610000000000000000000000010000000000000000000000000000FFFFFF000000000000000000000000000000000000000000000000000000000000000000330000006600000099000000CC000000FF00000000330000333300006633000099330000CC330000FF3300
310
0000660000336600006666000099660000CC660000FF66000000990000339900006699000099990000CC990000FF99000000CC000033CC000066CC000099CC0000CCCC0000FFCC000000FF000033FF000066FF000099FF0000CCFF0000FFFF000000003300330033006600330099003300CC003300FF003300003333003333
310
33006633330099333300CC333300FF33330000663300336633006666330099663300CC663300FF66330000993300339933006699330099993300CC993300FF99330000CC330033CC330066CC330099CC3300CCCC3300FFCC330000FF330033FF330066FF330099FF3300CCFF3300FFFF330000006600330066006600660099
310
006600CC006600FF00660000336600333366006633660099336600CC336600FF33660000666600336666006666660099666600CC666600FF66660000996600339966006699660099996600CC996600FF99660000CC660033CC660066CC660099CC6600CCCC6600FFCC660000FF660033FF660066FF660099FF6600CCFF6600
310
FFFF660000009900330099006600990099009900CC009900FF00990000339900333399006633990099339900CC339900FF33990000669900336699006666990099669900CC669900FF66990000999900339999006699990099999900CC999900FF99990000CC990033CC990066CC990099CC9900CCCC9900FFCC990000FF99
310
0033FF990066FF990099FF9900CCFF9900FFFF99000000CC003300CC006600CC009900CC00CC00CC00FF00CC000033CC003333CC006633CC009933CC00CC33CC00FF33CC000066CC003366CC006666CC009966CC00CC66CC00FF66CC000099CC003399CC006699CC009999CC00CC99CC00FF99CC0000CCCC0033CCCC0066CC
310
CC0099CCCC00CCCCCC00FFCCCC0000FFCC0033FFCC0066FFCC0099FFCC00CCFFCC00FFFFCC000000FF003300FF006600FF009900FF00CC00FF00FF00FF000033FF003333FF006633FF009933FF00CC33FF00FF33FF000066FF003366FF006666FF009966FF00CC66FF00FF66FF000099FF003399FF006699FF009999FF00CC
310
99FF00FF99FF0000CCFF0033CCFF0066CCFF0099CCFF00CCCCFF00FFCCFF0000FFFF0033FFFF0066FFFF0099FFFF00CCFFFF00FFFFFF00000000000D0D0D001A1A1A00282828003535350043434300505050005D5D5D006B6B6B00787878008686860093939300A1A1A100AEAEAE00BBBBBB00C9C9C900D6D6D600E4E4E400
310
F1F1F100FFFFFF0000000000000000000000000000000000000000000000000000000000000000000000000000000000F5F5F5F5F5F5F5F5F5F5F5F5F5F5F5F5F5F5F5F5F5F5F5F5F5F5F5F5F5F5F5F5F5F5F5F5F5F5F5F5F5F5F5F5F5F5F5F5F5F5F5F5F5F5F5F5F5F5F5F5F5F5F5F5F5F5F5F5F5F5F5F5F5F5F5F5F5F5F5
310
F5F5F5F5F5F5F5F5F5F5F5F5F5F5F5F5F5F5F5F5F5F5F5F5F5F5F5F5F5F5F5F5F5F5F5F5F5F5F5F5F5F5F5F5F5F5F5F5F5F5F5F5F5F5F5F5F5F5F5F5F5F5F5F5F5F5F5F5F5F5F5F5F5F5F5F5F5F5F5F5F5F5F5F5F5F5F5F5F5F5F5F5F5F5F5F5F5F5F5F5F5F5E2E2E2E2E2E2E2E2E2E2E2E2E2E2E2E2E2E2E2E2E2E2E2E2E2
310
E2E2E2E2E2E2E2E2E2E2E2E2E2E2E2E2E2E2E2E2E2E2E2E2E2E2E2E2E2E2E2E2E2E2E2E2E2E2E2E2E2E2E2E2E2E2E2E2E2E2E2E2E2E2E2E2E2E2E2E2E2E2E2E2E2E2E2E2E2E2E2E2E2E2E2E2E2E2E2E2E2E2E2E2E2E2E2E2E2E2E2E2E2E2E2E2E2E2E2E2E2E2E2E2E2E2E2E2E2E2E2E2E2E2E2E2E2E2E2E2E2E2E2E2E2E2E2
310
E2E2E2E2E2E2E2E2E2E2E2E2E2E2E2E2E2E2E2E2E2E2E2E2E2E2F5F5E2E2E2E2E2E2E2E2E2E2E2E2E2E2E2E2E2E2E2E2E2E2E2E2E2E2E2E2E2E2E2E2E2E2E2E2E2E2E2E2E2E2E2E2E2E2E2E2E2E2E2E2E2E2E2E2E2E2E2E2E2E2E2E2E2E2E2E2E2E2E2E2E2E2E2E2E2E2E2E2E2E2E2E2E2E2E2E2E2E2E2E2E2E2E2E2E2E2E2
310
E2E2E2E2E2E2E2E2E2E2E2E2E2E2E2E2E2E2E2E2E2E2E2E2E2E2E2E2E2E2E2E2E2E2E2E2E2E2E2E2E2E2E2E2E2E2E2E2E2E2E2E2E2E2E2E2E2E2E2E2E2E2E2E2E2E2E2E2E2E2E2E2E2E2E2E2E2E2E2F5F5E2E2E2E2E2E2E2E2E2E2E2E2E2E2E2E2E2E2E2E2E2E2E2E2E2E2E2E2E2E2E2E2E2E2E2E2E2E2E2E2E2E2E2E2E2E2
310
E2E2E2E2E2E2E2E2E2E2E2E2E2E2E2E2E2E2E2E2E2E2E2E2E2E2E2E2E2E2E2E2E2E2E2E2E2E2E2E2E2E2E2E2E2E2E2E2E2E2E2E2E2E2E2E2E2E2E2E2E2E2E2E2E2E2E2E2E2E2E2E2E2E2E2E2E2E2E2E2E2E2E2E2E2E2E2E2E2E2E2E2E2E2E2E2E2E2E2E2E2E2E2E2E2E2E2E2E2E2E2E2E2E2E2E2E2E2E2E2E2E2E2E2E2E2E2
310
E2E2E2E2E2F5F5E2E2E2E2E2E2E2E2E2E2E2E2E2E2E2E2E2E2E2E2E2E2E2E2E2E2E2E2E2E2E2E2E2E2E2E2E2E2E2E2E2E2E2E2E2E2E2E2E2E2E2E2E2E2E2E2E2E2E2E2E2E2E2E2E2E2E2E2E2E2E2E2E2E2E2E2E2E2E2E2E2E2E2E2E2E2E2E2E2E2E2E2E2E2E2E2E2E2E2E2E2E2E2E2E2E2E2E2E2E2E2E2E2E2E2E2E2E2E2E2
310
E2E2E2E2E2E2E2E2E2E2E2E2E2E2E2E2E2E2E2E2E2E2E2E2E2E2E2E2E2E2E2E2E2E2E2E2E2E2E2E2E2E2E2E2E2E2E2E2E2E2E2E2E2E2E2E2E2E2F5F5E2E2E2F5F5F5F5F5F5F5F5E2E2E2E2E2E2E2E2E2F5F5F5F5F5F5F5F5F5F5F5F5F5F5F5F5E2E2E2E2E2E2E2E2E2F5F5F5F5F5F5F5F5F5F5F5F5F5F5F5E2E2E2E2E2E2E2
310
E2E2F5F5F5F5F5F5F5F5F5F5F5F5F5F5F5F5E2E2E2E2E2E2E2E2F5F5F5F5F5F5F5F5F5F5F5F5F5F5F5F5E2E2E2E2E2E2E2E2E2F5F5F5F5F5F5F5F5F5F5F5F5F5F5F5E2E2E2E2E2E2E2E2E2F5F5F5F5F5F5F5F5F5F5F5F5F5F5F5F5E2E2E2E2E2E2E2E2E2F5F5F5F5F5F5F5F5E2E2E2F5F5E2E2E2F5E2E2E2E2E2E2E2E2E2E2
310
E2E2E2E2E2E2E2E2E2E2E2E2E2E2E2E2E2E2E2E2E2E2E2E2E2E2E2E2E2E2E2E2E2E2E2E2E2E2E2E2E2E2E2E2E2E2E2E2E2E2E2E2E2E2E2E2E2E2E2E2E2E2E2E2E2E2E2E2E2E2E2E2E2E2E2E2E2E2E2E2E2E2E2E2E2E2E2E2E2E2E2E2E2E2E2E2E2E2E2E2E2E2E2E2E2E2E2E2E2E2E2E2E2E2E2E2E2E2E2E2E2E2E2E2E2E2E2
310
E2E2E2E2E2E2E2E2E2E2E2E2E2E2E2E2E2E2E2E2E2E2E2E2E2E2E2E2E2E2E2E2E2F5E2E2E2F5F5E2E2E2F5E2E2E2E2E2E2E2E2E2E2E2E2E2E2E2E2E2E2E2E2E2E2E2E2E2E2E2E2E2E2E2E2E2E2E2E2E2E2E2E2E2E2E2E2E2E2E2E2E2E2E2E2E2E2E2E2E2E2E2E2E2E2E2E2E2E2E2E2E2E2E2E2E2E2E2E2E2E2E2E2E2E2E2E2
310
E2E2E2E2E2E2E2E2E2E2E2E2E2E2E2E2E2E2E2E2E2E2E2E2E2E2E2E2E2E2E2E2E2E2E2E2E2E2E2E2E2E2E2E2E2E2E2E2E2E2E2E2E2E2E2E2E2E2E2E2E2E2E2E2E2E2E2E2E2E2E2E2E2E2E2E2E2E2E2E2E2E2E2E2E2E2F5E2E2E2F5F5E2E2E2F5E2E2E2E2E2E2E2E2E2E2E2E2E2E2E2E2E2E2E2E2E2E2E2E2E2E2E2E2E2E2E2
310
E2E2E2E2E2E2E2E2E2E2E2E2E2E2E2E2E2E2E2E2E2E2E2E2E2E2E2E2E2E2E2E2E2E2E2E2E2E2E2E2E2E2E2E2E2E2E2E2E2E2E2E2E2E2E2E2E2E2E2E2E2E2E2E2E2E2E2E2E2E2E2E2E2E2E2E2E2E2E2E2E2E2E2E2E2E2E2E2E2E2E2E2E2E2E2E2E2E2E2E2E2E2E2E2E2E2E2E2E2E2E2E2E2E2E2E2E2E2E2E2E2E2E2E2E2E2E2
310
E2E2E2E2E2E2E2E2E2E2E2E2F5E2E2E2F5F5E2E2E2F5E2E2E2E2E2E2E2E2E2E2E2E2E2E2E2E2E2E2E2E2E2E2E2E2E2E2E2E2E2E2E2E2E2E2E2E2E2E2E2E2E2E2E2E2E2E2E2E2E2E2E2E2E2E2E2E2E2E2E2E2E2E2E2E2E2E2E2E2E2E2E2E2E2E2E2E2E2E2E2E2E2E2E2E2E2E2E2E2E2E2E2E2E2E2E2E2E2E2E2E2E2E2E2E2E2
310
E2E2E2E2E2E2E2E2E2E2E2E2E2E2E2E2E2E2E2E2E2E2E2E2E2E2E2E2E2E2E2E2E2E2E2E2E2E2E2E2E2E2E2E2E2E2E2E2E2E2E2E2E2E2E2E2E2E2E2E2E2E2E2E2E2F5E2E2E2F5F5E2E2E2F5E2E2E2E2E2E2E2E2E2E2E2E2E2E2E2E2E2E2E2E2E2E2E2E2E2E2E2E2E2E2E2E2E2E2E2E2E2E2E2E2E2E2E2E2E2E2E2E2E2E2E2E2
310
E2E2E2E2E2E2E2E2E2E2E2E2E2E2E2E2E2E2E2E2E2E2E2E2E2E2E2E2E2E2E2E2E2E2E2E2E2E2E2E2E2E2E2E2E2E2E2E2E2E2E2E2E2E2E2E2E2E2E2E2E2E2E2E2E2E2E2E2E2E2E2E2E2E2E2E2E2E2E2E2E2E2E2E2E2E2E2E2E2E2E2E2E2E2E2E2E2E2E2E2E2E2E2E2E2E2E2E2E2E2E2E2E2E2E2E2E2E2F5E2E2E2F5F5E2E2E2
310
F5E2E2E2E2E2E2E2E2E2E2E2E2E2E2E2E2E2E2E2E2E2E2E2E2E2E2E2E2E2E2E2E2E2E2E2E2E2E2E2E2E2E2E2E2E2E2E2E2E2E2E2E2E2E2E2E2E2E2E2E2E2E2E2E2E2E2E2E2E2E2E2E2E2E2E2E2E2E2E2E2E2E2E2E2E2E2E2E2E2E2E2E2E2E2E2E2E2E2E2E2E2E2E2E2E2E2E2E2E2E2E2E2E2E2E2E2E2E2E2E2E2E2E2E2E2E2
310
E2E2E2E2E2E2E2E2E2E2E2E2E2E2E2E2E2E2E2E2E2E2E2E2E2E2E2E2E2E2E2E2E2E2E2E2E2E2E2E2E2E2E2E2F5E2E2E2F5F5E2E2E2F5E2E2E2E2E2E2E2E2E2E2E2E2E2E2E2E2E2E2E2E2E2E2E2E2E2E2E2E2E2E2E2E2E2E2E2E2E2E2E2E2E2E2E2E2E2E2E2E2E2E2E2E2E2E2E2E2E2E2E2E2E2E2E2E2E2E2E2E2E2E2E2E2E2
310
E2E2E2E2E2E2E2E2E2E2E2E2E2E2E2E2E2E2E2E2E2E2E2E2E2E2E2E2E2E2E2E2E2E2E2E2E2E2E2E2E2E2E2E2E2E2E2E2E2E2E2E2E2E2E2E2E2E2E2E2E2E2E2E2E2E2E2E2E2E2E2E2E2E2E2E2E2E2E2E2E2E2E2E2E2E2E2E2E2E2E2E2E2E2E2E2E2F5E2E2E2F5F5E2E2E2F5E2E2E2E2E2E2E2E2E2E2E2E2E2E2E2E2E2E2E2E2
310
E2E2E2E2E2E2E2E2E2E2E2E2E2E2E2E2E2E2E2E2E2E2E2E2E2E2E2E2E2E2E2E2E2E2E2E2E2E2E2E2E2E2E2E2E2E2E2E2E2E2E2E2E2E2E2E2E2E2E2E2E2E2E2E2E2E2E2E2E2E2E2E2E2E2E2E2E2E2E2E2E2E2E2E2E2E2E2E2E2E2E2E2E2E2E2E2E2E2E2E2E2E2E2E2E2E2E2E2E2E2E2E2E2E2E2E2E2E2E2E2E2E2E2E2E2E2E2
310
E2E2E2E2E2E2E2E2E2E2E2E2E2E2E2E2E2E2E2E2E2E2E2F5E2E2E2F5F5E2E2E2E2E2E2E2E2E2E2E2E2E2E2E2E2E2E2E2E2E2E2E2E2E2E2E2E2E2E2E2E2E2E2E2E2E2E2E2E2E2E2E2E2E2E2E2E2E2E2E2E2E2E2E2E2E2E2E2E2E2E2E2E2E2E2E2E2E2E2E2E2E2E2E2E2E2E2E2E2E2E2E2E2E2E2E2E2E2E2E2E2E2E2E2E2E2E2
310
E2E2E2E2E2E2E2E2E2E2E2E2E2E2E2E2E2E2E2E2E2E2E2E2E2E2E2E2E2E2E2E2E2E2E2E2E2E2E2E2E2E2E2E2E2E2E2E2E2E2E2E2E2E2E2E2E2E2E2E2E2E2E2E2E2E2E2E2E2E2E2E2E2E2E2E2E2E2E2E2F5F5E2E2E2E2E2E2E2E2E2E2E2E2E2E2E2E2E2E2E2E2E2E2E2E2E2E2E2E2E2E2E2E2E2E2E2E2E2E2E2E2E2E2E2E2E2
310
E2E2E2E2E2E2E2E2E2E2E2E2E2E2E2E2E2E2E2E2E2E2E2E2E2E2E2E2E2E2E2E2E2E2E2E2E2E2E2E2E2E2E2E2E2E2E2E2E2E2E2E2E2E2E2E2E2E2E2E2E2E2E2E2E2E2E2E2E2E2E2E2E2E2E2E2E2E2E2E2E2E2E2E2E2E2E2E2E2E2E2E2E2E2E2E2E2E2E2E2E2E2E2E2E2E2E2E2E2E2E2E2E2E2E2E2E2E2E2E2E2E2E2E2E2E2E2
310
E2E2E2E2E2E2F5F5E2E2E2E2E2E2E2E2E2E2E2E2E2E2E2E2E2E2E2E2E2E2E2E2E2E2E2E2E2E2E2E2E2E2E2E2E2E2E2E2E2E2E2E2E2E2E2E2E2E2E2E2E2E2E2E2E2E2E2E2E2E2E2E2E2E2E2E2E2E2E2E2E2E2E2E2E2E2E2E2E2E2E2E2E2E2E2E2E2E2E2E2E2E2E2E2E2E2E2E2E2E2E2E2E2E2E2E2E2E2E2E2E2E2E2E2E2E2E2
310
E2E2E2E2E2E2E2E2E2E2E2E2E2E2E2E2E2E2E2E2E2E2E2E2E2E2E2E2E2E2E2E2E2E2E2E2E2E2E2E2E2E2E2E2E2E2E2E2E2E2E2E2E2E2E2E2E2E2E2F5F5E2E2E2E2E2E2E2E2E2E2E2E2E2E2E2E2E2E2E2E2E2E2E2E2E2E2E2E2E2E2E2E2E2E2E2E2E2E2E2E2E2E2E2E2E2E2E2E2E2E2E2E2E2E2E2E2E2E2E2E2E2E2E2E2E2E2
310
E2E2E2E2E2E2E2E2E2E2E2E2E2E2E2E2E2E2E2E2E2E2E2E2E2E2E2E2E2E2E2E2E2E2E2E2E2E2E2E2E2E2E2E2E2E2E2E2E2E2E2E2E2E2E2E2E2E2E2E2E2E2E2E2E2E2E2E2E2E2E2E2E2E2E2E2E2E2E2E2E2E2E2E2E2E2E2E2E2E2E2E2E2E2E2E2E2E2E2E2E2E2E2E2E2E2E2E2E2E2E2E2F5F5E2E2E2E2E2E2E2E2E2E2E2E2E2
310
E2E2E2E2E2E2E2F5F5F5F5F5F5F5F5F5F5F5F5F5F5F5F5F5F5F5F5F5F5F5F5F5F5F5F5F5F5F5F5F5F5F5F5F5F5F5F5F5F5F5F5F5F5F5F5F5F5F5F5F5F5F5F5F5F5F5F5F5F5F5F5F5F5F5F5F5F5F5F5F5F5F5F5F5F5F5F5F5F5F5F5F5F5F5F5F5F5F5F5F5F5F5F5F5F5F5F5F5F5F5F5F5F5F5F5F5F5F5F5F5F5F5F5F5F5F5F5
310
F5F5F5F5F5F5F5F5F5F5F5F5F5F5F5F5F5F5E2E2E2E2E2E2E2E2E2E2E2E2E2E2E2E2E2E2E2E2F5F5E2E2E2E2E2E2E2E2E2E2E2E2E2E2E2E2E2E2E2E2F5E2E2E2E2E2E2E2E2E2E2E2E2E2E2E2E2E2E2E2E2E2E2E2E2E2E2E2E2E2E2E2E2E2E2E2E2E2E2E2E2E2E2E2E2E2E2E2E2E2E2E2E2E2E2E2E2E2E2E2E2E2E2E2E2E2E2
310
E2E2E2E2E2E2E2E2E2E2E2E2E2E2E2E2E2E2E2E2E2E2E2E2E2E2E2E2E2E2E2E2E2E2E2E2E2E2E2E2E2E2E2E2E2E2E2E2E2E2E2E2E2E2E2E2E2E2E2E2E2E2E2E2E2E2E2E2E2E2F5E2E2E2E2E2E2E2E2E2E2E2E2E2E2E2E2E2E2E2E2F5F5E2E2E2E2E2E2E2E2E2E2E2E2E2E2E2E2E2E2E2E2F5E2E2E2E2E2E2E2E2E2E2E2E2E2
310
E2E2E2E2E2E2E2E2E2E2E2E2E2E2E2E2E2E2E2E2E2E2E2E2E2E2E2E2E2E2E2E2E2E2E2E2E2E2E2E2E2E2E2E2E2E2E2E2E2E2E2E2E2E2E2E2E2E2E2E2E2E2E2E2E2E2E2E2E2E2E2E2E2E2E2E2E2E2E2E2E2E2E2E2E2E2E2E2E2E2E2E2E2E2E2E2E2E2E2E2E2E2E2E2E2E2E2E2E2E2E2E2E2E2E2E2E2E2E2E2E2E2E2F5E2E2E2
310
E2E2E2E2E2E2E2E2E2E2E2E2E2E2E2E2E2F5F5E2E2E2E2E2E2E2E2E2E2E2E2E2E2E2E2E2E2E2E2F5E2E2E2E2E2E2E2E2E2E2E2E2E2E2E2E2E2E2E2E2E2E2E2E2E2E2E2E2E2E2E2E2E2E2E2E2E2E2E2E2E2E2E2E2E2E2E2E2E2E2E2E2E2E2E2E2E2E2E2E2E2E2E2E2E2E2E2E2E2E2E2E2E2E2E2E2E2E2E2E2E2E2E2E2E2E2E2
310
E2E2E2E2E2E2E2E2E2E2E2E2E2E2E2E2E2E2E2E2E2E2E2E2E2E2E2E2E2E2E2E2E2E2E2E2E2E2E2E2E2E2E2E2E2E2E2E2E2F5E2E2E2E2E2E2E2E2E2E2E2E2E2E2E2E2E2E2E2E2F5F5E2E2E2E2E2E2E2E2E2E2E2E2E2E2E2E2E2E2E2E2F5E2E2E2E2E2E2E2E2E2E2E2E2E2E2E2E2E2E2E2E2E2E2E2E2E2E2E2E2E2E2E2E2E2E2
310
E2E2E2E2E2E2E2E2E2E2E2E2E2E2E2E2E2E2E2E2E2E2E2E2E2E2E2E2E2E2E2E2E2E2E2E2E2E2E2E2E2E2E2E2E2E2E2E2E2E2E2E2E2E2E2E2E2E2E2E2E2E2E2E2E2E2E2E2E2E2E2E2E2E2E2E2E2E2E2E2E2E2E2E2E2E2E2E2E2E2E2E2E2E2E2E2E2E2E2E2E2E2F5E2E2E2E2E2E2E2E2E2E2E2E2E2E2E2E2E2E2E2E2F5F5E2E2
310
E2F5E2E2E2E2E2E2E2E2E2E2E2E2E2E2E2E2F5E2E2E2E2E2E2E2E2E2E2E2E2E2E2E2E2E2E2E2E2E2E2E2E2E2E2E2E2E2E2E2E2E2E2E2E2E2E2E2E2E2E2E2E2E2E2E2E2E2E2E2E2E2E2E2E2E2E2E2E2E2E2E2E2E2E2E2E2E2E2E2E2E2E2E2E2E2E2E2E2E2E2E2E2E2E2E2E2E2E2E2E2E2E2E2E2E2E2E2E2E2E2E2E2E2E2E2E2
310
E2E2E2E2E2E2E2E2E2E2E2E2E2E2E2E2E2E2E2E2E2E2E2E2E2E2E2E2F5E2E2E2E2E2E2E2E2E2E2E2E2E2E2E2E2F5E2E2E2F5F5E2E2E2F5E2E2E2E2E2E2E2E2E2E2E2E2E2E2E2E2F5E2E2E2E2E2E2E2E2E2E2E2E2E2E2E2E2E2E2E2E2E2E2E2E2E2E2E2E2E2E2E2E2E2E2E2E2E2E2E2E2E2E2E2E2E2E2E2E2E2E2E2E2E2E2E2
310
E2E2E2E2E2E2E2E2E2E2E2E2E2E2E2E2E2E2E2E2E2E2E2E2E2E2E2E2E2E2E2E2E2E2E2E2E2E2E2E2E2E2E2E2E2E2E2E2E2E2E2E2E2E2E2E2E2E2E2E2E2E2E2E2E2E2E2E2E2E2E2E2E2E2E2E2E2E2E2E2E2F5E2E2E2E2E2E2E2E2E2E2E2E2E2E2E2E2F5E2E2E2F5F5E2E2E2F5E2E2E2E2E2E2E2E2E2E2E2E2E2E2E2E2F5E2E2
310
E2E2E2E2E2E2E2E2E2E2E2E2E2E2E2E2E2E2E2E2E2E2E2E2E2E2E2E2E2E2E2E2E2E2E2E2E2E2E2E2E2E2E2E2E2E2E2E2E2E2E2E2E2E2E2E2E2E2E2E2E2E2E2E2E2E2E2E2E2E2E2E2E2E2E2E2E2E2E2E2E2E2E2E2E2E2E2E2E2E2E2E2E2E2E2E2E2E2E2E2E2E2E2E2E2E2E2E2E2E2E2E2E2E2E2E2E2E2E2E2E2E2E2E2E2E2E2
310
E2E2E2E2E2E2E2F5E2E2E2E2E2E2E2E2E2E2E2E2E2E2E2E2F5E2E2E2F5F5E2E2E2F5E2E2E2E2E2E2E2E2E2E2E2E2E2E2E2E2F5E2E2E2E2E2E2E2E2E2E2E2E2E2E2E2E2E2E2E2E2E2E2E2E2E2E2E2E2E2E2E2E2E2E2E2E2E2E2E2E2E2E2E2E2E2E2E2E2E2E2E2E2E2E2E2E2E2E2E2E2E2E2E2E2E2E2E2E2E2E2E2E2E2E2E2E2
310
E2E2E2E2E2E2E2E2E2E2E2E2E2E2E2E2E2E2E2E2E2E2E2E2E2E2E2E2E2E2E2E2E2E2E2E2E2E2E2E2E2E2E2E2E2E2E2E2E2E2E2E2E2E2E2E2E2E2E2E2F5E2E2E2E2E2E2E2E2E2E2E2E2E2E2E2E2F5E2E2E2F5F5E2E2E2F5E2E2E2E2E2E2E2E2E2E2E2E2E2E2E2E2F5E2E2E2E2E2E2E2E2E2E2E2E2E2E2E2E2E2E2E2E2E2E2E2
310
E2E2E2E2E2E2E2E2E2E2E2E2E2E2E2E2E2E2E2E2E2E2E2E2E2E2E2E2E2E2E2E2E2E2E2E2E2E2E2E2E2E2E2E2E2E2E2E2E2E2E2E2E2E2E2E2E2E2E2E2E2E2E2E2E2E2E2E2E2E2E2E2E2E2E2E2E2E2E2E2E2E2E2E2E2E2E2E2E2E2E2E2E2E2E2E2E2E2E2E2E2E2E2E2E2E2E2E2E2E2E2E2E2F5E2E2E2E2E2E2E2E2E2E2E2E2E2
310
E2E2E2F5E2E2E2F5F5E2E2E2F5E2E2E2E2E2E2E2E2E2E2E2E2E2E2E2E2F5E2E2E2E2E2E2E2E2E2E2E2E2E2E2E2E2E2E2E2E2E2E2E2E2E2E2E2E2E2E2E2E2E2E2E2E2E2E2E2E2E2E2E2E2E2E2E2E2E2E2E2E2E2E2E2E2E2E2E2E2E2E2E2E2E2E2E2E2E2E2E2E2E2E2E2E2E2E2E2E2E2E2E2E2E2E2E2E2E2E2E2E2E2E2E2E2E2
310
E2E2E2E2E2E2E2E2E2E2E2E2E2E2E2E2E2E2E2E2E2E2E2E2E2E2E2E2E2E2E2E2E2E2E2E2E2E2E2F5E2E2E2E2E2E2E2E2E2E2E2E2E2E2E2E2F5E2E2E2F5F5E2E2E2F5E2E2E2E2E2E2E2E2E2E2E2E2E2E2E2E2F5E2E2E2E2E2E2E2E2E2E2E2E2E2E2E2E2E2E2E2E2E2E2E2E2E2E2E2E2E2E2E2E2E2E2E2E2E2E2E2E2E2E2E2E2
310
E2E2E2E2E2E2E2E2E2E2E2E2E2E2E2E2E2E2E2E2E2E2E2E2E2E2E2E2E2E2E2E2E2E2E2E2E2E2E2E2E2E2E2E2E2E2E2E2E2E2E2E2E2E2E2E2E2E2E2E2E2E2E2E2E2E2E2E2E2E2E2E2E2E2E2E2E2E2E2E2E2E2E2E2E2E2E2E2E2E2E2E2F5E2E2E2E2E2E2E2E2E2E2E2E2E2E2E2E2F5E2E2E2F5F5E2E2E2F5E2E2E2E2E2E2E2E2
310
E2E2E2E2E2E2E2E2F5E2E2E2E2E2E2E2E2E2E2E2E2E2E2E2E2E2E2E2E2E2E2E2E2E2E2E2E2E2E2E2E2E2E2E2E2E2E2E2E2E2E2E2E2E2E2E2E2E2E2E2E2E2E2E2E2E2E2E2E2E2E2E2E2E2E2E2E2E2E2E2E2E2E2E2E2E2E2E2E2E2E2E2E2E2E2E2E2E2E2E2E2E2E2E2E2E2E2E2E2E2E2E2E2E2E2E2E2E2E2E2E2E2E2E2E2E2E2
310
E2E2E2E2E2E2E2E2E2E2E2E2E2E2E2E2E2E2F5E2E2E2E2E2E2E2E2E2E2E2E2E2E2E2E2F5E2E2E2F5F5E2E2E2F5E2E2E2E2E2E2E2E2E2E2E2E2E2E2E2E2F5E2E2E2E2E2E2E2E2E2E2E2E2E2E2E2E2E2E2E2E2E2E2E2E2E2E2E2E2E2E2E2E2E2E2E2E2E2E2E2E2E2E2E2E2E2E2E2E2E2E2E2E2E2E2E2E2E2E2E2E2E2E2E2E2E2
310
E2E2E2E2E2E2E2E2E2E2E2E2E2E2E2E2E2E2E2E2E2E2E2E2E2E2E2E2E2E2E2E2E2E2E2E2E2E2E2E2E2E2E2E2E2E2E2E2E2E2E2E2E2E2E2E2E2E2E2E2E2E2E2E2E2E2E2E2E2E2E2F5E2E2E2E2E2E2E2E2E2E2E2E2E2E2E2E2F5E2E2E2F5F5E2E2E2F5E2E2E2E2E2E2E2E2E2E2E2E2E2E2E2E2F5E2E2E2E2E2E2E2E2E2E2E2E2
310
E2E2E2E2E2E2E2E2E2E2E2E2E2E2E2E2E2E2E2E2E2E2E2E2E2E2E2E2E2E2E2E2E2E2E2E2E2E2E2E2E2E2E2E2E2E2E2E2E2E2E2E2E2E2E2E2E2E2E2E2E2E2E2E2E2E2E2E2E2E2E2E2E2E2E2E2E2E2E2E2E2E2E2E2E2E2E2E2E2E2E2E2E2E2E2E2E2E2E2E2E2E2E2E2E2E2E2E2E2E2E2E2E2E2E2E2E2E2E2E2E2E2E2E2F5E2E2
310
E2E2E2E2E2E2E2E2E2E2E2E2E2E2F5E2E2E2F5F5E2E2E2F5E2E2E2E2E2E2E2E2E2E2E2E2E2E2E2E2F5E2E2E2E2E2E2E2E2E2E2E2E2E2E2E2E2E2E2E2E2E2E2E2E2E2E2E2E2E2E2E2E2E2E2E2E2E2E2E2E2E2E2E2E2E2E2E2E2E2E2E2E2E2E2E2E2E2E2E2E2E2E2E2E2E2E2E2E2E2E2E2E2E2E2E2E2E2E2E2E2E2E2E2E2E2E2
310
E2E2E2E2E2E2E2E2E2E2E2E2E2E2E2E2E2E2E2E2E2E2E2E2E2E2E2E2E2E2E2E2E2E2E2E2E2E2E2E2E2E2E2E2E2E2E2E2E2E2F5E2E2E2E2E2E2E2E2E2E2E2E2E2E2E2E2F5E2E2E2F5F5E2E2E2F5E2E2E2E2E2E2E2E2E2E2E2E2E2E2E2E2F5E2E2E2E2E2E2E2E2E2E2E2E2E2E2E2E2E2E2E2E2E2E2E2E2E2E2E2E2E2E2E2E2E2
310
E2E2E2E2E2E2E2E2E2E2E2E2E2E2E2E2E2E2E2E2E2E2E2E2E2E2E2E2E2E2E2E2E2E2E2E2E2E2E2E2E2E2E2E2E2E2E2E2E2E2E2E2E2E2E2E2E2E2E2E2E2E2E2E2E2E2E2E2E2E2E2E2E2E2E2E2E2E2E2E2E2E2E2E2E2E2E2E2E2E2E2E2E2E2E2E2E2E2E2E2E2E2E2F5E2E2E2E2E2E2E2E2E2E2E2E2E2E2E2E2F5E2E2E2F5F5E2
310
E2E2F5E2E2E2E2E2E2E2E2E2E2E2E2E2E2E2E2F5E2E2E2E2E2E2E2E2E2E2E2E2E2E2E2E2E2E2E2E2E2E2E2E2E2E2E2E2E2E2E2E2E2E2E2E2E2E2E2E2E2E2E2E2E2E2E2E2E2E2E2E2E2E2E2E2E2E2E2E2E2E2E2E2E2E2E2E2E2E2E2E2E2E2E2E2E2E2E2E2E2E2E2E2E2E2E2E2E2E2E2E2E2E2E2E2E2E2E2E2E2E2E2E2E2E2E2
310
E2E2E2E2E2E2E2E2E2E2E2E2E2E2E2E2E2E2E2E2E2E2E2E2E2E2E2E2E2F5E2E2E2E2E2E2E2E2E2E2E2E2E2E2E2E2F5E2E2E2F5F5E2E2E2F5E2E2E2E2E2E2E2E2E2E2E2E2E2E2E2E2F5E2E2E2E2E2E2E2E2E2E2E2E2E2E2E2E2E2E2E2E2E2E2E2E2E2E2E2E2E2E2E2E2E2E2E2E2E2E2E2E2E2E2E2E2E2E2E2E2E2E2E2E2E2E2
310
E2E2E2E2E2E2E2E2E2E2E2E2E2E2E2E2E2E2E2E2E2E2E2E2E2E2E2E2E2E2E2E2E2E2E2E2E2E2E2E2E2E2E2E2E2E2E2E2E2E2E2E2E2E2E2E2E2E2E2E2E2E2E2E2E2E2E2E2E2E2E2E2E2E2E2E2E2E2E2E2E2E2F5E2E2E2E2E2E2E2E2E2E2E2E2E2E2E2E2F5E2E2E2F5F5E2E2E2F5E2E2E2E2E2E2E2E2E2E2E2E2E2E2E2E2F5E2
310
E2E2E2E2E2E2E2E2E2E2E2E2E2E2E2E2E2E2E2E2E2E2E2E2E2E2E2E2E2E2E2E2E2E2E2E2E2E2E2E2E2E2E2E2E2E2E2E2E2E2E2E2E2E2E2E2E2E2E2E2E2E2E2E2E2E2E2E2E2E2E2E2E2E2E2E2E2E2E2E2E2E2E2E2E2E2E2E2E2E2E2E2E2E2E2E2E2E2E2E2E2E2E2E2E2E2E2E2E2E2E2E2E2E2E2E2E2E2E2E2E2E2E2E2E2E2E2
310
E2E2E2E2E2E2E2E2F5E2E2E2E2E2E2E2E2E2E2E2E2E2E2E2E2F5E2E2E2F5F5E2E2E2F5E2E2E2E2E2E2E2E2E2E2E2E2E2E2E2E2F5E2E2E2E2E2E2E2E2E2E2E2E2E2E2E2E2E2E2E2E2E2E2E2E2E2E2E2E2E2E2E2E2E2E2E2E2E2E2E2E2E2E2E2E2E2E2E2E2E2E2E2E2E2E2E2E2E2E2E2E2E2E2E2E2E2E2E2E2E2E2E2E2E2E2E2
310
E2E2E2E2E2E2E2E2E2E2E2E2E2E2E2E2E2E2E2E2E2E2E2E2E2E2E2E2E2E2E2E2E2E2E2E2E2E2E2E2E2E2E2E2E2E2E2E2E2E2E2E2E2E2E2E2E2E2E2E2E2F5E2E2E2E2E2E2E2E2E2E2E2E2E2E2E2E2F5E2E2E2F5F5E2E2E2F5E2E2E2E2E2E2E2E2E2E2E2E2E2E2E2E2F5E2E2E2E2E2E2E2E2E2E2E2E2E2E2E2E2E2E2E2E2E2E2
310
E2E2E2E2E2E2E2E2E2E2E2E2E2E2E2E2E2E2E2E2E2E2E2E2E2E2E2E2E2E2E2E2E2E2E2E2E2E2E2E2E2E2E2E2E2E2E2E2E2E2E2E2E2E2E2E2E2E2E2E2E2E2E2E2E2E2E2E2E2E2E2E2E2E2E2E2E2E2E2E2E2E2E2E2E2E2E2E2E2E2E2E2E2E2E2E2E2E2E2E2E2E2E2E2E2E2E2E2E2E2E2E2E2E2F5E2E2E2E2E2E2E2E2E2E2E2E2
310
E2E2E2E2F5E2E2E2F5F5E2E2E2E2E2E2E2E2E2E2E2E2E2E2E2E2E2E2E2E2F5E2E2E2E2E2E2E2E2E2E2E2E2E2E2E2E2E2E2E2E2E2E2E2E2E2E2E2E2E2E2E2E2E2E2E2E2E2E2E2E2E2E2E2E2E2E2E2E2E2E2E2E2E2E2E2E2E2E2E2E2E2E2E2E2E2E2E2E2E2E2E2E2E2E2E2E2E2E2E2E2E2E2E2E2E2E2E2E2E2E2E2E2E2E2E2E2
310
E2E2E2E2E2E2E2E2E2E2E2E2E2E2E2E2E2E2E2E2E2E2E2E2E2E2E2E2E2E2E2E2E2E2E2E2E2E2E2E2F5E2E2E2E2E2E2E2E2E2E2E2E2E2E2E2E2E2E2E2E2F5F5E2E2E2E2E2E2E2E2E2E2E2E2E2E2E2E2E2E2E2E2F5E2E2E2E2E2E2E2E2E2E2E2E2E2E2E2E2E2E2E2E2E2E2E2E2E2E2E2E2E2E2E2E2E2E2E2E2E2E2E2E2E2E2E2
310
E2E2E2E2E2E2E2E2E2E2E2E2E2E2E2E2E2E2E2E2E2E2E2E2E2E2E2E2E2E2E2E2E2E2E2E2E2E2E2E2E2E2E2E2E2E2E2E2E2E2E2E2E2E2E2E2E2E2E2E2E2E2E2E2E2E2E2E2E2E2E2E2E2E2E2E2E2E2E2E2E2E2E2E2E2E2E2E2E2E2E2E2E2F5E2E2E2E2E2E2E2E2E2E2E2E2E2E2E2E2E2E2E2E2F5F5E2E2E2E2E2E2E2E2E2E2E2
310
E2E2E2E2E2E2E2E2E2F5E2E2E2E2E2E2E2E2E2E2E2E2E2E2E2E2E2E2E2E2E2E2E2E2E2E2E2E2E2E2E2E2E2E2E2E2E2E2E2E2E2E2E2E2E2E2E2E2E2E2E2E2E2E2E2E2E2E2E2E2E2E2E2E2E2E2E2E2E2E2E2E2E2E2E2E2E2E2E2E2E2E2E2E2E2E2E2E2E2E2E2E2E2E2E2E2E2E2E2E2E2E2E2E2E2E2E2E2E2E2E2E2E2E2E2E2E2
310
E2E2E2E2E2E2E2E2E2E2E2E2E2E2E2E2E2E2E2F5E2E2E2E2E2E2E2E2E2E2E2E2E2E2E2E2E2E2E2E2F5F5E2E2E2E2E2E2E2E2E2E2E2E2E2E2E2E2E2E2E2E2F5E2E2E2E2E2E2E2E2E2E2E2E2E2E2E2E2E2E2E2E2E2E2E2E2E2E2E2E2E2E2E2E2E2E2E2E2E2E2E2E2E2E2E2E2E2E2E2E2E2E2E2E2E2E2E2E2E2E2E2E2E2E2E2E2
310
E2E2E2E2E2E2E2E2E2E2E2E2E2E2E2E2E2E2E2E2E2E2E2E2E2E2E2E2E2E2E2E2E2E2E2E2E2E2E2E2E2E2E2E2E2E2E2E2E2E2E2E2E2E2E2E2E2E2E2E2E2E2E2E2E2E2E2E2E2E2E2E2F5E2E2E2E2E2E2E2E2E2E2E2E2E2E2E2E2E2E2E2E2F5F5E2E2E2E2E2E2E2E2E2E2E2E2E2E2E2E2E2E2E2E2F5E2E2E2E2E2E2E2E2E2E2E2
310
E2E2E2E2E2E2E2E2E2E2E2E2E2E2E2E2E2E2E2E2E2E2E2E2E2E2E2E2E2E2E2E2E2E2E2E2E2E2E2E2E2E2E2E2E2E2E2E2E2E2E2E2E2E2E2E2E2E2E2E2E2E2E2E2E2E2E2E2E2E2E2E2E2E2E2E2E2E2E2E2E2E2E2E2E2E2E2E2E2E2E2E2E2E2E2E2E2E2E2E2E2E2E2E2E2E2E2E2E2E2E2E2E2E2E2E2E2E2E2E2E2E2E2E2E2F5E2
310
E2E2E2E2E2E2E2E2E2E2E2E2E2E2E2E2E2E2E2F5F5E2E2E2E2E2E2E2E2E2E2E2E2E2E2E2E2E2E2E2E2F5E2E2E2E2E2E2E2E2E2E2E2E2E2E2E2E2E2E2E2E2E2E2E2E2E2E2E2E2E2E2E2E2E2E2E2E2E2E2E2E2E2E2E2E2E2E2E2E2E2E2E2E2E2E2E2E2E2E2E2E2E2E2E2E2E2E2E2E2E2E2E2E2E2E2E2E2E2E2E2E2E2E2E2E2E2
310
E2E2E2E2E2E2E2E2E2E2E2E2E2E2E2E2E2E2E2E2E2E2E2E2E2E2E2E2E2E2E2E2E2E2E2E2E2E2E2E2E2E2E2E2E2E2E2E2E2E2E2F5E2E2E2E2E2E2E2E2E2E2E2E2E2E2E2E2E2E2E2E2F5F5E2E2E2E2E2E2E2E2E2E2E2E2E2E2E2E2E2E2E2E2F5E2E2E2E2E2E2E2E2E2E2E2E2E2E2E2E2E2E2E2E2E2E2E2E2E2E2E2E2E2E2E2E2
310
E2E2E2E2E2E2E2E2E2E2E2E2E2E2E2E2E2E2E2E2E2E2E2E2E2E2E2E2E2E2E2E2E2E2E2E2E2E2E2E2E2E2E2E2E2E2E2E2E2E2E2E2E2E2E2E2E2E2E2E2E2E2E2E2E2E2E2E2E2E2E2E2E2E2E2E2E2E2E2E2E2E2E2E2E2E2E2E2E2E2E2E2E2E2E2E2E2E2E2E2E2E2E2E2F5E2E2E2E2E2E2E2E2E2E2E2E2E2E2E2E2E2E2E2E2F5F5
310
E2E2E2E2E2E2E2E2E2E2E2E2E2E2E2E2E2E2E2E2F5E2E2E2E2E2E2E2E2E2E2E2E2E2E2E2E2E2E2E2E2E2E2E2E2E2E2E2E2E2E2E2E2E2E2E2E2E2E2E2E2E2E2E2E2E2E2E2E2E2E2E2E2E2E2E2E2E2E2E2E2E2E2E2E2E2E2E2E2E2E2E2E2E2E2E2E2E2E2E2E2E2E2E2E2E2E2E2E2E2E2E2E2E2E2E2E2E2E2E2E2E2E2E2E2E2E2
310
E2E2E2E2E2E2E2E2E2E2E2E2E2E2E2E2E2E2E2E2E2E2E2E2E2E2E2E2E2E2F5E2E2E2E2E2E2E2E2E2E2E2E2E2E2E2E2E2E2E2E2F5F5E2E2E2E2E2E2E2E2E2E2E2E2E2E2E2E2E2E2E2E2F5E2E2E2E2E2E2E2E2E2E2E2E2E2E2E2E2E2E2E2E2E2E2E2E2E2E2E2E2E2E2E2E2E2E2E2E2E2E2E2E2E2E2E2E2E2E2E2E2E2E2E2E2E2
310
E2E2E2E2E2E2E2E2E2E2E2E2E2E2E2E2E2E2E2E2E2E2E2E2E2E2E2E2E2E2E2E2E2E2E2E2E2E2E2E2E2E2E2E2E2E2E2E2E2E2E2E2E2E2E2E2E2E2E2E2E2E2E2E2E2E2E2E2E2E2E2E2E2E2E2E2E2E2E2E2E2E2E2F5E2E2E2E2E2E2E2E2E2E2E2E2E2E2E2E2E2E2E2E2F5F5E2E2E2F5E2E2E2E2E2E2E2E2E2E2E2E2E2E2E2E2F5
310
E2E2E2E2E2E2E2E2E2E2E2E2E2E2E2E2E2E2E2E2E2E2E2E2E2E2E2E2E2E2E2E2E2E2E2E2E2E2E2E2E2E2E2E2E2E2E2E2E2E2E2E2E2E2E2E2E2E2E2E2E2E2E2E2E2E2E2E2E2E2E2E2E2E2E2E2E2E2E2E2E2E2E2E2E2E2E2E2E2E2E2E2E2E2E2E2E2E2E2E2E2E2E2E2E2E2E2E2E2E2E2E2E2E2E2E2E2E2E2E2E2E2E2E2E2E2E2
310
E2E2E2E2E2E2E2E2E2F5E2E2E2E2E2E2E2E2E2E2E2E2E2E2E2E2F5E2E2E2F5F5E2E2E2F5E2E2E2E2E2E2E2E2E2E2E2E2E2E2E2E2F5E2E2E2E2E2E2E2E2E2E2E2E2E2E2E2E2E2E2E2E2E2E2E2E2E2E2E2E2E2E2E2E2E2E2E2E2E2E2E2E2E2E2E2E2E2E2E2E2E2E2E2E2E2E2E2E2E2E2E2E2E2E2E2E2E2E2E2E2E2E2E2E2E2E2
310
E2E2E2E2E2E2E2E2E2E2E2E2E2E2E2E2E2E2E2E2E2E2E2E2E2E2E2E2E2E2E2E2E2E2E2E2E2E2E2E2E2E2E2E2E2E2E2E2E2E2E2E2E2E2E2E2E2E2E2E2E2E2F5E2E2E2E2E2E2E2E2E2E2E2E2E2E2E2E2F5E2E2E2F5F5E2E2E2F5E2E2E2E2E2E2E2E2E2E2E2E2E2E2E2E2F5E2E2E2E2E2E2E2E2E2E2E2E2E2E2E2E2E2E2E2E2E2
310
E2E2E2E2E2E2E2E2E2E2E2E2E2E2E2E2E2E2E2E2E2E2E2E2E2E2E2E2E2E2E2E2E2E2E2E2E2E2E2E2E2E2E2E2E2E2E2E2E2E2E2E2E2E2E2E2E2E2E2E2E2E2E2E2E2E2E2E2E2E2E2E2E2E2E2E2E2E2E2E2E2E2E2E2E2E2E2E2E2E2E2E2E2E2E2E2E2E2E2E2E2E2E2E2E2E2E2E2E2E2E2E2E2E2E2F5E2E2E2E2E2E2E2E2E2E2E2
310
E2E2E2E2E2F5E2E2E2F5F5E2E2E2F5E2E2E2E2E2E2E2E2E2E2E2E2E2E2E2E2F5E2E2E2E2E2E2E2E2E2E2E2E2E2E2E2E2E2E2E2E2E2E2E2E2E2E2E2E2E2E2E2E2E2E2E2E2E2E2E2E2E2E2E2E2E2E2E2E2E2E2E2E2E2E2E2E2E2E2E2E2E2E2E2E2E2E2E2E2E2E2E2E2E2E2E2E2E2E2E2E2E2E2E2E2E2E2E2E2E2E2E2E2E2E2E2
310
E2E2E2E2E2E2E2E2E2E2E2E2E2E2E2E2E2E2E2E2E2E2E2E2E2E2E2E2E2E2E2E2E2E2E2E2E2E2E2E2E2F5E2E2E2E2E2E2E2E2E2E2E2E2E2E2E2E2F5E2E2E2F5F5E2E2E2F5E2E2E2E2E2E2E2E2E2E2E2E2E2E2E2E2F5E2E2E2E2E2E2E2E2E2E2E2E2E2E2E2E2E2E2E2E2E2E2E2E2E2E2E2E2E2E2E2E2E2E2E2E2E2E2E2E2E2E2
310
E2E2E2E2E2E2E2E2E2E2E2E2E2E2E2E2E2E2E2E2E2E2E2E2E2E2E2E2E2E2E2E2E2E2E2E2E2E2E2E2E2E2E2E2E2E2E2E2E2E2E2E2E2E2E2E2E2E2E2E2E2E2E2E2E2E2E2E2E2E2E2E2E2E2E2E2E2E2E2E2E2E2E2E2E2E2E2E2E2E2E2E2E2E2F5E2E2E2E2E2E2E2E2E2E2E2E2E2E2E2E2F5E2E2E2F5F5E2E2E2F5E2E2E2E2E2E2
310
E2E2E2E2E2E2E2E2E2E2F5E2E2E2E2E2E2E2E2E2E2E2E2E2E2E2E2E2E2E2E2E2E2E2E2E2E2E2E2E2E2E2E2E2E2E2E2E2E2E2E2E2E2E2E2E2E2E2E2E2E2E2E2E2E2E2E2E2E2E2E2E2E2E2E2E2E2E2E2E2E2E2E2E2E2E2E2E2E2E2E2E2E2E2E2E2E2E2E2E2E2E2E2E2E2E2E2E2E2E2E2E2E2E2E2E2E2E2E2E2E2E2E2E2E2E2E2
310
E2E2E2E2E2E2E2E2E2E2E2E2E2E2E2E2E2E2E2E2F5E2E2E2E2E2E2E2E2E2E2E2E2E2E2E2E2F5E2E2E2F5F5E2E2E2F5E2E2E2E2E2E2E2E2E2E2E2E2E2E2E2E2F5E2E2E2E2E2E2E2E2E2E2E2E2E2E2E2E2E2E2E2E2E2E2E2E2E2E2E2E2E2E2E2E2E2E2E2E2E2E2E2E2E2E2E2E2E2E2E2E2E2E2E2E2E2E2E2E2E2E2E2E2E2E2E2
310
E2E2E2E2E2E2E2E2E2E2E2E2E2E2E2E2E2E2E2E2E2E2E2E2E2E2E2E2E2E2E2E2E2E2E2E2E2E2E2E2E2E2E2E2E2E2E2E2E2E2E2E2E2E2E2E2E2E2E2E2E2E2E2E2E2E2E2E2E2E2E2E2E2F5E2E2E2E2E2E2E2E2E2E2E2E2E2E2E2E2F5E2E2E2F5F5E2E2E2F5E2E2E2E2E2E2E2E2E2E2E2E2E2E2E2E2F5E2E2E2E2E2E2E2E2E2E2
310
E2E2E2E2E2E2E2E2E2E2E2E2E2E2E2E2E2E2E2E2E2E2E2E2E2E2E2E2E2E2E2E2E2E2E2E2E2E2E2E2E2E2E2E2E2E2E2E2E2E2E2E2E2E2E2E2E2E2E2E2E2E2E2E2E2E2E2E2E2E2E2E2E2E2E2E2E2E2E2E2E2E2E2E2E2E2E2E2E2E2E2E2E2E2E2E2E2E2E2E2E2E2E2E2E2E2E2E2E2E2E2E2E2E2E2E2E2E2E2E2E2E2E2E2E2E2F5
310
E2E2E2E2E2E2E2E2E2E2E2E2E2E2E2E2F5E2E2E2F5F5E2E2E2F5E2E2E2E2E2E2E2E2E2E2E2E2E2E2E2E2F5E2E2E2E2E2E2E2E2E2E2E2E2E2E2E2E2E2E2E2E2E2E2E2E2E2E2E2E2E2E2E2E2E2E2E2E2E2E2E2E2E2E2E2E2E2E2E2E2E2E2E2E2E2E2E2E2E2E2E2E2E2E2E2E2E2E2E2E2E2E2E2E2E2E2E2E2E2E2E2E2E2E2E2E2
310
E2E2E2E2E2E2E2E2E2E2E2E2E2E2E2E2E2E2E2E2E2E2E2E2E2E2E2E2E2E2E2E2E2E2E2E2E2E2E2E2E2E2E2E2E2E2E2E2E2E2E2E2F5E2E2E2E2E2E2E2E2E2E2E2E2E2E2E2E2F5E2E2E2F5F5E2E2E2F5E2E2E2E2E2E2E2E2E2E2E2E2E2E2E2E2F5E2E2E2E2E2E2E2E2E2E2E2E2E2E2E2E2E2E2E2E2E2E2E2E2E2E2E2E2E2E2E2
310
E2E2E2E2E2E2E2E2E2E2E2E2E2E2E2E2E2E2E2E2E2E2E2E2E2E2E2E2E2E2E2E2E2E2E2E2E2E2E2E2E2E2E2E2E2E2E2E2E2E2E2E2E2E2E2E2E2E2E2E2E2E2E2E2E2E2E2E2E2E2E2E2E2E2E2E2E2E2E2E2E2E2E2E2E2E2E2E2E2E2E2E2E2E2E2E2E2E2E2E2E2E2E2E2E2F5E2E2E2E2E2E2E2E2E2E2E2E2E2E2E2E2F5E2E2E2F5
310
F5E2E2E2F5E2E2E2E2E2E2E2E2E2E2E2E2E2E2E2E2F5E2E2E2E2E2E2E2E2E2E2E2E2E2E2E2E2E2E2E2E2E2E2E2E2E2E2E2E2E2E2E2E2E2E2E2E2E2E2E2E2E2E2E2E2E2E2E2E2E2E2E2E2E2E2E2E2E2E2E2E2E2E2E2E2E2E2E2E2E2E2E2E2E2E2E2E2E2E2E2E2E2E2E2E2E2E2E2E2E2E2E2E2E2E2E2E2E2E2E2E2E2E2E2E2E2
310
E2E2E2E2E2E2E2E2E2E2E2E2E2E2E2E2E2E2E2E2E2E2E2E2E2E2E2E2E2E2E2F5E2E2E2E2E2E2E2E2E2E2E2E2E2E2E2E2F5E2E2E2F5F5E2E2E2F5E2E2E2E2E2E2E2E2E2E2E2E2E2E2E2E2F5E2E2E2E2E2E2E2E2E2E2E2E2E2E2E2E2E2E2E2E2E2E2E2E2E2E2E2E2E2E2E2E2E2E2E2E2E2E2E2E2E2E2E2E2E2E2E2E2E2E2E2E2
310
E2E2E2E2E2E2E2E2E2E2E2E2E2E2E2E2E2E2E2E2E2E2E2E2E2E2E2E2E2E2E2E2E2E2E2E2E2E2E2E2E2E2E2E2E2E2E2E2E2E2E2E2E2E2E2E2E2E2E2E2E2E2E2E2E2E2E2E2E2E2E2E2E2E2E2E2E2E2E2E2E2E2E2E2F5E2E2E2E2E2E2E2E2E2E2E2E2E2E2E2E2F5E2E2E2F5F5E2E2E2F5E2E2E2E2E2E2E2E2E2E2E2E2E2E2E2E2
310
F5E2E2E2E2E2E2E2E2E2E2E2E2E2E2E2E2E2E2E2E2E2E2E2E2E2E2E2E2E2E2E2E2E2E2E2E2E2E2E2E2E2E2E2E2E2E2E2E2E2E2E2E2E2E2E2E2E2E2E2E2E2E2E2E2E2E2E2E2E2E2E2E2E2E2E2E2E2E2E2E2E2E2E2E2E2E2E2E2E2E2E2E2E2E2E2E2E2E2E2E2E2E2E2E2E2E2E2E2E2E2E2E2E2E2E2E2E2E2E2E2E2E2E2E2E2E2
310
E2E2E2E2E2E2E2E2E2E2F5E2E2E2E2E2E2E2E2E2E2E2E2E2E2E2E2F5E2E2E2F5F5E2E2E2F5E2E2E2E2E2E2E2E2E2E2E2E2E2E2E2E2F5E2E2E2E2E2E2E2E2E2E2E2E2E2E2E2E2E2E2E2E2E2E2E2E2E2E2E2E2E2E2E2E2E2E2E2E2E2E2E2E2E2E2E2E2E2E2E2E2E2E2E2E2E2E2E2E2E2E2E2E2E2E2E2E2E2E2E2E2E2E2E2E2E2
310
E2E2E2E2E2E2E2E2E2E2E2E2E2E2E2E2E2E2E2E2E2E2E2E2E2E2E2E2E2E2E2E2E2E2E2E2E2E2E2E2E2E2E2E2E2E2E2E2E2E2E2E2E2E2E2E2E2E2E2E2E2E2E2F5E2E2E2E2E2E2E2E2E2E2E2E2E2E2E2E2F5E2E2E2F5F5E2E2E2F5E2E2E2E2E2E2E2E2E2E2E2E2E2E2E2E2F5E2E2E2E2E2E2E2E2E2E2E2E2E2E2E2E2E2E2E2E2
310
E2E2E2E2E2E2E2E2E2E2E2E2E2E2E2E2E2E2E2E2E2E2E2E2E2E2E2E2E2E2E2E2E2E2E2E2E2E2E2E2E2E2E2E2E2E2E2E2E2E2E2E2E2E2E2E2E2E2E2E2E2E2E2E2E2E2E2E2E2E2E2E2E2E2E2E2E2E2E2E2E2E2E2E2E2E2E2E2E2E2E2E2E2E2E2E2E2E2E2E2E2E2E2E2E2E2E2E2E2E2E2E2E2E2E2E2F5E2E2E2E2E2E2E2E2E2E2
310
E2E2E2E2E2E2F5E2E2E2F5F5E2E2E2F5E2E2E2E2E2E2E2E2E2E2E2E2E2E2E2E2F5E2E2E2E2E2E2E2E2E2E2E2E2E2E2E2E2E2E2E2E2E2E2E2E2E2E2E2E2E2E2E2E2E2E2E2E2E2E2E2E2E2E2E2E2E2E2E2E2E2E2E2E2E2E2E2E2E2E2E2E2E2E2E2E2E2E2E2E2E2E2E2E2E2E2E2E2E2E2E2E2E2E2E2E2E2E2E2E2E2E2E2E2E2E2
310
E2E2E2E2E2E2E2E2E2E2E2E2E2E2E2E2E2E2E2E2E2E2E2E2E2E2E2E2E2E2E2E2E2E2E2E2E2E2E2E2E2E2F5E2E2E2E2E2E2E2E2E2E2E2E2E2E2E2E2F5E2E2E2F5F5E2E2E2E2E2E2E2E2E2E2E2E2E2E2E2E2E2E2E2E2F5E2E2E2E2E2E2E2E2E2E2E2E2E2E2E2E2E2E2E2E2E2E2E2E2E2E2E2E2E2E2E2E2E2E2E2E2E2E2E2E2E2
310
E2E2E2E2E2E2E2E2E2E2E2E2E2E2E2E2E2E2E2E2E2E2E2E2E2E2E2E2E2E2E2E2E2E2E2E2E2E2E2E2E2E2E2E2E2E2E2E2E2E2E2E2E2E2E2E2E2E2E2E2E2E2E2E2E2E2E2E2E2E2E2E2E2E2E2E2E2E2E2E2E2E2E2E2E2E2E2E2E2E2E2E2E2E2E2F5E2E2E2E2E2E2E2E2E2E2E2E2E2E2E2E2E2E2E2E2F5F5E2E2E2E2E2E2E2E2E2
310
E2E2E2E2E2E2E2E2E2E2E2F5E2E2E2E2E2E2E2E2E2E2E2E2E2E2E2E2E2E2E2E2E2E2E2E2E2E2E2E2E2E2E2E2E2E2E2E2E2E2E2E2E2E2E2E2E2E2E2E2E2E2E2E2E2E2E2E2E2E2E2E2E2E2E2E2E2E2E2E2E2E2E2E2E2E2E2E2E2E2E2E2E2E2E2E2E2E2E2E2E2E2E2E2E2E2E2E2E2E2E2E2E2E2E2E2E2E2E2E2E2E2E2E2E2E2E2
310
E2E2E2E2E2E2E2E2E2E2E2E2E2E2E2E2E2E2E2E2E2F5E2E2E2E2E2E2E2E2E2E2E2E2E2E2E2E2E2E2E2E2F5F5E2E2E2E2E2E2E2E2E2E2E2E2E2E2E2E2E2E2E2E2F5E2E2E2E2E2E2E2E2E2E2E2E2E2E2E2E2E2E2E2E2E2E2E2E2E2E2E2E2E2E2E2E2E2E2E2E2E2E2E2E2E2E2E2E2E2E2E2E2E2E2E2E2E2E2E2E2E2E2E2E2E2E2
310
E2E2E2E2E2E2E2E2E2E2E2E2E2E2E2E2E2E2E2E2E2E2E2E2E2E2E2E2E2E2E2E2E2E2E2E2E2E2E2E2E2E2E2E2E2E2E2E2E2E2E2E2E2E2E2E2E2E2E2E2E2E2E2E2E2E2E2E2E2E2E2E2E2E2F5E2E2E2E2E2E2E2E2E2E2E2E2E2E2E2E2E2E2E2E2F5F5E2E2E2E2E2E2E2E2E2E2E2E2E2E2E2E2E2E2E2E2F5E2E2E2E2E2E2E2E2E2
310
E2E2E2E2E2E2E2E2E2E2E2E2E2E2E2E2E2E2E2E2E2E2E2E2E2E2E2E2E2E2E2E2E2E2E2E2E2E2E2E2E2E2E2E2E2E2E2E2E2E2E2E2E2E2E2E2E2E2E2E2E2E2E2E2E2E2E2E2E2E2E2E2E2E2E2E2E2E2E2E2E2E2E2E2E2E2E2E2E2E2E2E2E2E2E2E2E2E2E2E2E2E2E2E2E2E2E2E2E2E2E2E2E2E2E2E2E2E2E2E2E2E2E2E2E2E2E2
310
F5E2E2E2E2E2E2E2E2E2E2E2E2E2E2E2E2E2E2E2E2F5F5E2E2E2E2E2E2E2E2E2E2E2E2E2E2E2E2E2E2E2E2F5E2E2E2E2E2E2E2E2E2E2E2E2E2E2E2E2E2E2E2E2E2E2E2E2E2E2E2E2E2E2E2E2E2E2E2E2E2E2E2E2E2E2E2E2E2E2E2E2E2E2E2E2E2E2E2E2E2E2E2E2E2E2E2E2E2E2E2E2E2E2E2E2E2E2E2E2E2E2E2E2E2E2E2
310
E2E2E2E2E2E2E2E2E2E2E2E2E2E2E2E2E2E2E2E2E2E2E2E2E2E2E2E2E2E2E2E2E2E2E2E2E2E2E2E2E2E2E2E2E2E2E2E2E2E2E2E2E2F5E2E2E2E2E2E2E2E2E2E2E2E2E2E2E2E2E2E2E2E2F5F5E2E2E2E2E2E2E2E2E2E2E2E2E2E2E2E2E2E2E2E2F5E2E2E2E2E2E2E2E2E2E2E2E2E2E2E2E2E2E2E2E2E2E2E2E2E2E2E2E2E2E2
310
E2E2E2E2E2E2E2E2E2E2E2E2E2E2E2E2E2E2E2E2E2E2E2E2E2E2E2E2E2E2E2E2E2E2E2E2E2E2E2E2E2E2E2E2E2E2E2E2E2E2E2E2E2E2E2E2E2E2E2E2E2E2E2E2E2E2E2E2E2E2E2E2E2E2E2E2E2E2E2E2E2E2E2E2E2E2E2E2E2E2E2E2E2E2E2E2E2E2E2E2E2E2E2E2E2E2F5E2E2E2E2E2E2E2E2E2E2E2E2E2E2E2E2E2E2E2E2
310
F5F5E2E2E2E2E2E2E2E2E2E2E2E2E2E2E2E2E2E2E2E2F5E2E2E2E2E2E2E2E2E2E2E2E2E2E2E2E2E2E2E2E2E2E2E2E2E2E2E2E2E2E2E2E2E2E2E2E2E2E2E2E2E2E2E2E2E2E2E2E2E2E2E2E2E2E2E2E2E2E2E2E2E2E2E2E2E2E2E2E2E2E2E2E2E2E2E2E2E2E2E2E2E2E2E2E2E2E2E2E2E2E2E2E2E2E2E2E2E2E2E2E2E2E2E2E2
310
E2E2E2E2E2E2E2E2E2E2E2E2E2E2E2E2E2E2E2E2E2E2E2E2E2E2E2E2E2E2E2E2F5E2E2E2E2E2E2E2E2E2E2E2E2E2E2E2E2E2E2E2E2F5F5E2E2E2E2E2E2E2E2E2E2E2E2E2E2E2E2E2E2E2E2F5E2E2E2E2E2E2E2E2E2E2E2E2E2E2E2E2E2E2E2E2E2E2E2E2E2E2E2E2E2E2E2E2E2E2E2E2E2E2E2E2E2E2E2E2E2E2E2E2E2E2E2
310
E2E2E2E2E2E2E2E2E2E2E2E2E2E2E2E2E2E2E2E2E2E2E2E2E2E2E2E2E2E2E2E2E2E2E2E2E2E2E2E2E2E2E2E2E2E2E2E2E2E2E2E2E2E2E2E2E2E2E2E2E2E2E2E2E2E2E2E2E2E2E2E2E2E2E2E2E2E2E2E2E2E2E2E2E2F5E2E2E2E2E2E2E2E2E2E2E2E2E2E2E2E2E2E2E2E2F5F5E2E2E2E2E2E2E2E2E2E2E2E2E2E2E2E2E2E2E2
310
E2F5E2E2E2E2E2E2E2E2E2E2E2E2E2E2E2E2E2E2E2E2E2E2E2E2E2E2E2E2E2E2E2E2E2E2E2E2E2E2E2E2E2E2E2E2E2E2E2E2E2E2E2E2E2E2E2E2E2E2E2E2E2E2E2E2E2E2E2E2E2E2E2E2E2E2E2E2E2E2E2E2E2E2E2E2E2E2E2E2E2E2E2E2E2E2E2E2E2E2E2E2E2E2E2E2E2E2E2E2E2E2E2E2E2E2E2E2E2E2E2E2E2E2E2E2E2
310
E2E2E2E2E2E2E2E2E2E2E2F5E2E2E2E2E2E2E2E2E2E2E2E2E2E2E2E2E2E2E2E2F5F5E2E2E2E2E2E2E2E2E2E2E2E2E2E2E2E2E2E2E2E2F5E2E2E2E2E2E2E2E2E2E2E2E2E2E2E2E2E2E2E2E2E2E2E2E2E2E2E2E2E2E2E2E2E2E2E2E2E2E2E2E2E2E2E2E2E2E2E2E2E2E2E2E2E2E2E2E2E2E2E2E2E2E2E2E2E2E2E2E2E2E2E2E2
310
E2E2E2E2E2E2E2E2E2E2E2E2E2E2E2E2E2E2E2E2E2E2E2E2E2E2E2E2E2E2E2E2E2E2E2E2E2E2E2E2E2E2E2E2E2E2E2E2E2E2E2E2E2E2E2E2E2E2E2E2E2E2E2E2F5E2E2E2E2E2E2E2E2E2E2E2E2E2E2E2E2E2E2E2E2F5F5E2E2E2F5E2E2E2E2E2E2E2E2E2E2E2E2E2E2E2E2F5E2E2E2E2E2E2E2E2E2E2E2E2E2E2E2E2E2E2E2
310
E2E2E2E2E2E2E2E2E2E2E2E2E2E2E2E2E2E2E2E2E2E2E2E2E2E2E2E2E2E2E2E2E2E2E2E2E2E2E2E2E2E2E2E2E2E2E2E2E2E2E2E2E2E2E2E2E2E2E2E2E2E2E2E2E2E2E2E2E2E2E2E2E2E2E2E2E2E2E2E2E2E2E2E2E2E2E2E2E2E2E2E2E2E2E2E2E2E2E2E2E2E2E2E2E2E2E2E2E2E2E2E2E2E2E2E2E2F5E2E2E2E2E2E2E2E2E2
310
E2E2E2E2E2E2E2F5E2E2E2F5F5E2E2E2F5E2E2E2E2E2E2E2E2E2E2E2E2E2E2E2E2F5E2E2E2E2E2E2E2E2E2E2E2E2E2E2E2E2E2E2E2E2E2E2E2E2E2E2E2E2E2E2E2E2E2E2E2E2E2E2E2E2E2E2E2E2E2E2E2E2E2E2E2E2E2E2E2E2E2E2E2E2E2E2E2E2E2E2E2E2E2E2E2E2E2E2E2E2E2E2E2E2E2E2E2E2E2E2E2E2E2E2E2E2E2
310
E2E2E2E2E2E2E2E2E2E2E2E2E2E2E2E2E2E2E2E2E2E2E2E2E2E2E2E2E2E2E2E2E2E2E2E2E2E2E2E2E2E2E2F5E2E2E2E2E2E2E2E2E2E2E2E2E2E2E2E2F5E2E2E2F5F5E2E2E2F5E2E2E2E2E2E2E2E2E2E2E2E2E2E2E2E2F5E2E2E2E2E2E2E2E2E2E2E2E2E2E2E2E2E2E2E2E2E2E2E2E2E2E2E2E2E2E2E2E2E2E2E2E2E2E2E2E2
310
E2E2E2E2E2E2E2E2E2E2E2E2E2E2E2E2E2E2E2E2E2E2E2E2E2E2E2E2E2E2E2E2E2E2E2E2E2E2E2E2E2E2E2E2E2E2E2E2E2E2E2E2E2E2E2E2E2E2E2E2E2E2E2E2E2E2E2E2E2E2E2E2E2E2E2E2E2E2E2E2E2E2E2E2E2E2E2E2E2E2E2E2E2E2E2E2F5E2E2E2E2E2E2E2E2E2E2E2E2E2E2E2E2F5E2E2E2F5F5E2E2E2F5E2E2E2E2
310
E2E2E2E2E2E2E2E2E2E2E2E2F5E2E2E2E2E2E2E2E2E2E2E2E2E2E2E2E2E2E2E2E2E2E2E2E2E2E2E2E2E2E2E2E2E2E2E2E2E2E2E2E2E2E2E2E2E2E2E2E2E2E2E2E2E2E2E2E2E2E2E2E2E2E2E2E2E2E2E2E2E2E2E2E2E2E2E2E2E2E2E2E2E2E2E2E2E2E2E2E2E2E2E2E2E2E2E2E2E2E2E2E2E2E2E2E2E2E2E2E2E2E2E2E2E2E2
310
E2E2E2E2E2E2E2E2E2E2E2E2E2E2E2E2E2E2E2E2E2E2F5E2E2E2E2E2E2E2E2E2E2E2E2E2E2E2E2F5E2E2E2F5F5E2E2E2F5E2E2E2E2E2E2E2E2E2E2E2E2E2E2E2E2F5E2E2E2E2E2E2E2E2E2E2E2E2E2E2E2E2E2E2E2E2E2E2E2E2E2E2E2E2E2E2E2E2E2E2E2E2E2E2E2E2E2E2E2E2E2E2E2E2E2E2E2E2E2E2E2E2E2E2E2E2E2
310
E2E2E2E2E2E2E2E2E2E2E2E2E2E2E2E2E2E2E2E2E2E2E2E2E2E2E2E2E2E2E2E2E2E2E2E2E2E2E2E2E2E2E2E2E2E2E2E2E2E2E2E2E2E2E2E2E2E2E2E2E2E2E2E2E2E2E2E2E2E2E2E2E2E2E2F5E2E2E2E2E2E2E2E2E2E2E2E2E2E2E2E2F5E2E2E2F5F5E2E2E2F5E2E2E2E2E2E2E2E2E2E2E2E2E2E2E2E2F5E2E2E2E2E2E2E2E2
310
E2E2E2E2E2E2E2E2E2E2E2E2E2E2E2E2E2E2E2E2E2E2E2E2E2E2E2E2E2E2E2E2E2E2E2E2E2E2E2E2E2E2E2E2E2E2E2E2E2E2E2E2E2E2E2E2E2E2E2E2E2E2E2E2E2E2E2E2E2E2E2E2E2E2E2E2E2E2E2E2E2E2E2E2E2E2E2E2E2E2E2E2E2E2E2E2E2E2E2E2E2E2E2E2E2E2E2E2E2E2E2E2E2E2E2E2E2E2E2E2E2E2E2E2E2E2E2
310
E2F5E2E2E2E2E2E2E2E2E2E2E2E2E2E2E2E2F5E2E2E2F5F5E2E2E2F5E2E2E2E2E2E2E2E2E2E2E2E2E2E2E2E2F5E2E2E2E2E2E2E2E2E2E2E2E2E2E2E2E2E2E2E2E2E2E2E2E2E2E2E2E2E2E2E2E2E2E2E2E2E2E2E2E2E2E2E2E2E2E2E2E2E2E2E2E2E2E2E2E2E2E2E2E2E2E2E2E2E2E2E2E2E2E2E2E2E2E2E2E2E2E2E2E2E2E2
310
E2E2E2E2E2E2E2E2E2E2E2E2E2E2E2E2E2E2E2E2E2E2E2E2E2E2E2E2E2E2E2E2E2E2E2E2E2E2E2E2E2E2E2E2E2E2E2E2E2E2E2E2E2E2F5E2E2E2E2E2E2E2E2E2E2E2E2E2E2E2E2F5E2E2E2F5F5E2E2E2F5E2E2E2E2E2E2E2E2E2E2E2E2E2E2E2E2F5E2E2E2E2E2E2E2E2E2E2E2E2E2E2E2E2E2E2E2E2E2E2E2E2E2E2E2E2E2
310
E2E2E2E2E2E2E2E2E2E2E2E2E2E2E2E2E2E2E2E2E2E2E2E2E2E2E2E2E2E2E2E2E2E2E2E2E2E2E2E2E2E2E2E2E2E2E2E2E2E2E2E2E2E2E2E2E2E2E2E2E2E2E2E2E2E2E2E2E2E2E2E2E2E2E2E2E2E2E2E2E2E2E2E2E2E2E2E2E2E2E2E2E2E2E2E2E2E2E2E2E2E2E2E2E2E2E2F5E2E2E2E2E2E2E2E2E2E2E2E2E2E2E2E2F5E2E2
310
E2F5F5E2E2E2F5E2E2E2E2E2E2E2E2E2E2E2E2E2E2E2E2F5E2E2E2E2E2E2E2E2E2E2E2E2E2E2E2E2E2E2E2E2E2E2E2E2E2E2E2E2E2E2E2E2E2E2E2E2E2E2E2E2E2E2E2E2E2E2E2E2E2E2E2E2E2E2E2E2E2E2E2E2E2E2E2E2E2E2E2E2E2E2E2E2E2E2E2E2E2E2E2E2E2E2E2E2E2E2E2E2E2E2E2E2E2E2E2E2E2E2E2E2E2E2E2
310
E2E2E2E2E2E2E2E2E2E2E2E2E2E2E2E2E2E2E2E2E2E2E2E2E2E2E2E2E2E2E2E2E2F5E2E2E2E2E2E2E2E2E2E2E2E2E2E2E2E2F5E2E2E2F5F5E2E2E2F5E2E2E2E2E2E2E2E2E2E2E2E2E2E2E2E2F5E2E2E2E2E2E2E2E2E2E2E2E2E2E2E2E2E2E2E2E2E2E2E2E2E2E2E2E2E2E2E2E2E2E2E2E2E2E2E2E2E2E2E2E2E2E2E2E2E2E2
310
E2E2E2E2E2E2E2E2E2E2E2E2E2E2E2E2E2E2E2E2E2E2E2E2E2E2E2E2E2E2E2E2E2E2E2E2E2E2E2E2E2E2E2E2E2E2E2E2E2E2E2E2E2E2E2E2E2E2E2E2E2E2E2E2E2E2E2E2E2E2E2E2E2E2E2E2E2E2E2E2E2E2E2E2E2E2F5E2E2E2E2E2E2E2E2E2E2E2E2E2E2E2E2F5E2E2E2F5F5E2E2E2F5E2E2E2E2E2E2E2E2E2E2E2E2E2E2
310
E2E2F5E2E2E2E2E2E2E2E2E2E2E2E2E2E2E2E2E2E2E2E2E2E2E2E2E2E2E2E2E2E2E2E2E2E2E2E2E2E2E2E2E2E2E2E2E2E2E2E2E2E2E2E2E2E2E2E2E2E2E2E2E2E2E2E2E2E2E2E2E2E2E2E2E2E2E2E2E2E2E2E2E2E2E2E2E2E2E2E2E2E2E2E2E2E2E2E2E2E2E2E2E2E2E2E2E2E2E2E2E2E2E2E2E2E2E2E2E2E2E2E2E2E2E2E2
310
E2E2E2E2E2E2E2E2E2E2E2E2F5E2E2E2E2E2E2E2E2E2E2E2E2E2E2E2E2F5E2E2E2F5F5E2E2E2F5E2E2E2E2E2E2E2E2E2E2E2E2E2E2E2E2F5E2E2E2E2E2E2E2E2E2E2E2E2E2E2E2E2E2E2E2E2E2E2E2E2E2E2E2E2E2E2E2E2E2E2E2E2E2E2E2E2E2E2E2E2E2E2E2E2E2E2E2E2E2E2E2E2E2E2E2E2E2E2E2E2E2E2E2E2E2E2E2
310
E2E2E2E2E2E2E2E2E2E2E2E2E2E2E2E2E2E2E2E2E2E2E2E2E2E2E2E2E2E2E2E2E2E2E2E2E2E2E2E2E2E2E2E2E2E2E2E2E2E2E2E2E2E2E2E2E2E2E2E2E2E2E2E2E2F5E2E2E2E2E2E2E2E2E2E2E2E2E2E2E2E2F5E2E2E2F5F5E2E2E2F5E2E2E2E2E2E2E2E2E2E2E2E2E2E2E2E2F5E2E2E2E2E2E2E2E2E2E2E2E2E2E2E2E2E2E2
310
E2E2E2E2E2E2E2E2E2E2E2E2E2E2E2E2E2E2E2E2E2E2E2E2E2E2E2E2E2E2E2E2E2E2E2E2E2E2E2E2E2E2E2E2E2E2E2E2E2E2E2E2E2E2E2E2E2E2E2E2E2E2E2E2E2E2E2E2E2E2E2E2E2E2E2E2E2E2E2E2E2E2E2E2E2E2E2E2E2E2E2E2E2E2E2E2E2E2E2E2E2E2E2E2E2E2E2E2E2E2E2E2E2E2E2E2E2E2F5E2E2E2E2E2E2E2E2
310
E2E2E2E2E2E2E2E2F5E2E2E2F5F5E2E2E2F5E2E2E2E2E2E2E2E2E2E2E2E2E2E2E2E2F5E2E2E2E2E2E2E2E2E2E2E2E2E2E2E2E2E2E2E2E2E2E2E2E2E2E2E2E2E2E2E2E2E2E2E2E2E2E2E2E2E2E2E2E2E2E2E2E2E2E2E2E2E2E2E2E2E2E2E2E2E2E2E2E2E2E2E2E2E2E2E2E2E2E2E2E2E2E2E2E2E2E2E2E2E2E2E2E2E2E2E2E2
310
E2E2E2E2E2E2E2E2E2E2E2E2E2E2E2E2E2E2E2E2E2E2E2E2E2E2E2E2E2E2E2E2E2E2E2E2E2E2E2E2E2E2E2E2F5E2E2E2E2E2E2E2E2E2E2E2E2E2E2E2E2F5E2E2E2F5F5E2E2E2F5E2E2E2E2E2E2E2E2E2E2E2E2E2E2E2E2F5E2E2E2E2E2E2E2E2E2E2E2E2E2E2E2E2E2E2E2E2E2E2E2E2E2E2E2E2E2E2E2E2E2E2E2E2E2E2E2
310
E2E2E2E2E2E2E2E2E2E2E2E2E2E2E2E2E2E2E2E2E2E2E2E2E2E2E2E2E2E2E2E2E2E2E2E2E2E2E2E2E2E2E2E2E2E2E2E2E2E2E2E2E2E2E2E2E2E2E2E2E2E2E2E2E2E2E2E2E2E2E2E2E2E2E2E2E2E2E2E2E2E2E2E2E2E2E2E2E2E2E2E2E2E2E2E2E2F5E2E2E2E2E2E2E2E2E2E2E2E2E2E2E2E2F5E2E2E2F5F5E2E2E2F5E2E2E2
310
E2E2E2E2E2E2E2E2E2E2E2E2E2F5E2E2E2E2E2E2E2E2E2E2E2E2E2E2E2E2E2E2E2E2E2E2E2E2E2E2E2E2E2E2E2E2E2E2E2E2E2E2E2E2E2E2E2E2E2E2E2E2E2E2E2E2E2E2E2E2E2E2E2E2E2E2E2E2E2E2E2E2E2E2E2E2E2E2E2E2E2E2E2E2E2E2E2E2E2E2E2E2E2E2E2E2E2E2E2E2E2E2E2E2E2E2E2E2E2E2E2E2E2E2E2E2E2
310
E2E2E2E2E2E2E2E2E2E2E2E2E2E2E2E2E2E2E2E2E2E2E2F5E2E2E2E2E2E2E2E2E2E2E2E2E2E2E2E2F5E2E2E2F5F5E2E2E2E2E2E2E2E2E2E2E2E2E2E2E2E2E2E2E2E2F5E2E2E2E2E2E2E2E2E2E2E2E2E2E2E2E2E2E2E2E2E2E2E2E2E2E2E2E2E2E2E2E2E2E2E2E2E2E2E2E2E2E2E2E2E2E2E2E2E2E2E2E2E2E2E2E2E2E2E2E2
310
E2E2E2E2E2E2E2E2E2E2E2E2E2E2E2E2E2E2E2E2E2E2E2E2E2E2E2E2E2E2E2E2E2E2E2E2E2E2E2E2E2E2E2E2E2E2E2E2E2E2E2E2E2E2E2E2E2E2E2E2E2E2E2E2E2E2E2E2E2E2E2E2E2E2E2E2F5E2E2E2E2E2E2E2E2E2E2E2E2E2E2E2E2E2E2E2E2F5F5E2E2E2E2E2E2E2E2E2E2E2E2E2E2E2E2E2E2E2E2F5E2E2E2E2E2E2E2
310
E2E2E2E2E2E2E2E2E2E2E2E2E2E2E2E2E2E2E2E2E2E2E2E2E2E2E2E2E2E2E2E2E2E2E2E2E2E2E2E2E2E2E2E2E2E2E2E2E2E2E2E2E2E2E2E2E2E2E2E2E2E2E2E2E2E2E2E2E2E2E2E2E2E2E2E2E2E2E2E2E2E2E2E2E2E2E2E2E2E2E2E2E2E2E2E2E2E2E2E2E2E2E2E2E2E2E2E2E2E2E2E2E2E2E2E2E2E2E2E2E2E2E2E2E2E2E2
310
E2E2F5E2E2E2E2E2E2E2E2E2E2E2E2E2E2E2E2E2E2E2E2F5F5E2E2E2E2E2E2E2E2E2E2E2E2E2E2E2E2E2E2E2E2F5E2E2E2E2E2E2E2E2E2E2E2E2E2E2E2E2E2E2E2E2E2E2E2E2E2E2E2E2E2E2E2E2E2E2E2E2E2E2E2E2E2E2E2E2E2E2E2E2E2E2E2E2E2E2E2E2E2E2E2E2E2E2E2E2E2E2E2E2E2E2E2E2E2E2E2E2E2E2E2E2E2
310
E2E2E2E2E2E2E2E2E2E2E2E2E2E2E2E2E2E2E2E2E2E2E2E2E2E2E2E2E2E2E2E2E2E2E2E2E2E2E2E2E2E2E2E2E2E2E2E2E2E2E2E2E2E2E2F5E2E2E2E2E2E2E2E2E2E2E2E2E2E2E2E2E2E2E2E2F5F5E2E2E2E2E2E2E2E2E2E2E2E2E2E2E2E2E2E2E2E2F5E2E2E2E2E2E2E2E2E2E2E2E2E2E2E2E2E2E2E2E2E2E2E2E2E2E2E2E2
310
E2E2E2E2E2E2E2E2E2E2E2E2E2E2E2E2E2E2E2E2E2E2E2E2E2E2E2E2E2E2E2E2E2E2E2E2E2E2E2E2E2E2E2E2E2E2E2E2E2E2E2E2E2E2E2E2E2E2E2E2E2E2E2E2E2E2E2E2E2E2E2E2E2E2E2E2E2E2E2E2E2E2E2E2E2E2E2E2E2E2E2E2E2E2E2E2E2E2E2E2E2E2E2E2E2E2E2E2F5E2E2E2E2E2E2E2E2E2E2E2E2E2E2E2E2E2E2
310
E2E2F5F5E2E2E2E2E2E2E2E2E2E2E2E2E2E2E2E2E2E2E2E2F5E2E2E2E2E2E2E2E2E2E2E2E2E2E2E2E2E2E2E2E2E2E2E2E2E2E2E2E2E2E2E2E2E2E2E2E2E2E2E2E2E2E2E2E2E2E2E2E2E2E2E2E2E2E2E2E2E2E2E2E2E2E2E2E2E2E2E2E2E2E2E2E2E2E2E2E2E2E2E2E2E2E2E2E2E2E2E2E2E2E2E2E2E2E2E2E2E2E2E2E2E2E2
310
E2E2E2E2E2E2E2E2E2E2E2E2E2E2E2E2E2E2E2E2E2E2E2E2E2E2E2E2E2E2E2E2E2E2F5E2E2E2E2E2E2E2E2E2E2E2E2E2E2E2E2E2E2E2E2F5F5E2E2E2E2E2E2E2E2E2E2E2E2E2E2E2E2E2E2E2E2F5E2E2E2E2E2E2E2E2E2E2E2E2E2E2E2E2E2E2E2E2E2E2E2E2E2E2E2E2E2E2E2E2E2E2E2E2E2E2E2E2E2E2E2E2E2E2E2E2E2
310
E2E2E2E2E2E2E2E2E2E2E2E2E2E2E2E2E2E2E2E2E2E2E2E2E2E2E2E2E2E2E2E2E2E2E2E2E2E2E2E2E2E2E2E2E2E2E2E2E2E2E2E2E2E2E2E2E2E2E2E2E2E2E2E2E2E2E2E2E2E2E2E2E2E2E2E2E2E2E2E2E2E2E2E2E2E2E2F5E2E2E2E2E2E2E2E2E2E2E2E2E2E2E2E2E2E2E2E2F5F5E2E2E2E2E2E2E2E2E2E2E2E2E2E2E2E2E2
310
E2E2E2F5E2E2E2E2E2E2E2E2E2E2E2E2E2E2E2E2E2E2E2E2E2E2E2E2E2E2E2E2E2E2E2E2E2E2E2E2E2E2E2E2E2E2E2E2E2E2E2E2E2E2E2E2E2E2E2E2E2E2E2E2E2E2E2E2E2E2E2E2E2E2E2E2E2E2E2E2E2E2E2E2E2E2E2E2E2E2E2E2E2E2E2E2E2E2E2E2E2E2E2E2E2E2E2E2E2E2E2E2E2E2E2E2E2E2E2E2E2E2E2E2E2E2E2
310
E2E2E2E2E2E2E2E2E2E2E2E2E2F5E2E2E2E2E2E2E2E2E2E2E2E2E2E2E2E2E2E2E2E2F5F5E2E2E2E2E2E2E2E2E2E2E2E2E2E2E2E2E2E2E2E2F5E2E2E2E2E2E2E2E2E2E2E2E2E2E2E2E2E2E2E2E2E2E2E2E2E2E2E2E2E2E2E2E2E2E2E2E2E2E2E2E2E2E2E2E2E2E2E2E2E2E2E2E2E2E2E2E2E2E2E2E2E2E2E2E2E2E2E2E2E2E2
310
E2E2E2E2E2E2E2E2E2E2E2E2E2E2E2E2E2E2E2E2E2E2E2E2E2E2E2E2E2E2E2E2E2E2E2E2E2E2E2E2E2E2E2E2E2E2E2E2E2E2E2E2E2E2E2E2E2E2E2E2E2E2E2E2E2E2F5E2E2E2E2E2E2E2E2E2E2E2E2E2E2E2E2E2E2E2E2F5F5E2E2E2E2E2E2E2E2E2E2E2E2E2E2E2E2E2E2E2E2F5E2E2E2E2E2E2E2E2E2E2E2E2E2E2E2E2E2
310
E2E2E2E2E2E2E2E2E2E2E2E2E2E2E2E2E2E2E2E2E2E2E2E2E2E2E2E2E2E2E2E2E2E2E2E2E2E2E2E2E2E2E2E2E2E2E2E2E2E2E2E2E2E2E2E2E2E2E2E2E2E2E2E2E2E2E2E2E2E2E2E2E2E2E2E2E2E2E2E2E2E2E2E2E2E2E2E2E2E2E2E2E2E2E2E2E2E2E2E2E2E2E2E2E2E2E2E2E2E2E2E2E2E2E2E2E2E2E2F5E2E2E2E2E2E2E2
310
E2E2E2E2E2E2E2E2E2E2E2E2E2F5F5E2E2E2F5E2E2E2E2E2E2E2E2E2E2E2E2E2E2E2E2F5E2E2E2E2E2E2E2E2E2E2E2E2E2E2E2E2E2E2E2E2E2E2E2E2E2E2E2E2E2E2E2E2E2E2E2E2E2E2E2E2E2E2E2E2E2E2E2E2E2E2E2E2E2E2E2E2E2E2E2E2E2E2E2E2E2E2E2E2E2E2E2E2E2E2E2E2E2E2E2E2E2E2E2E2E2E2E2E2E2E2E2
310
E2E2E2E2E2E2E2E2E2E2E2E2E2E2E2E2E2E2E2E2E2E2E2E2E2E2E2E2E2E2E2E2E2E2E2E2E2E2E2E2E2E2E2E2E2F5E2E2E2E2E2E2E2E2E2E2E2E2E2E2E2E2F5E2E2E2F5F5E2E2E2F5E2E2E2E2E2E2E2E2E2E2E2E2E2E2E2E2F5E2E2E2E2E2E2E2E2E2E2E2E2E2E2E2E2E2E2E2E2E2E2E2E2E2E2E2E2E2E2E2E2E2E2E2E2E2E2
310
E2E2E2E2E2E2E2E2E2E2E2E2E2E2E2E2E2E2E2E2E2E2E2E2E2E2E2E2E2E2E2E2E2E2E2E2E2E2E2E2E2E2E2E2E2E2E2E2E2E2E2E2E2E2E2E2E2E2E2E2E2E2E2E2E2E2E2E2E2E2E2E2E2E2E2E2E2E2E2E2E2E2E2E2E2E2E2E2E2E2E2E2E2E2E2E2E2E2F5E2E2E2E2E2E2E2E2E2E2E2E2E2E2E2E2F5E2E2E2F5F5E2E2E2F5E2E2
310
E2E2E2E2E2E2E2E2E2E2E2E2E2E2F5E2E2E2E2E2E2E2E2E2E2E2E2E2E2E2E2E2E2E2E2E2E2E2E2E2E2E2E2E2E2E2E2E2E2E2E2E2E2E2E2E2E2E2E2E2E2E2E2E2E2E2E2E2E2E2E2E2E2E2E2E2E2E2E2E2E2E2E2E2E2E2E2E2E2E2E2E2E2E2E2E2E2E2E2E2E2E2E2E2E2E2E2E2E2E2E2E2E2E2E2E2E2E2E2E2E2E2E2E2E2E2E2
310
E2E2E2E2E2E2E2E2E2E2E2E2E2E2E2E2E2E2E2E2E2E2E2E2F5E2E2E2E2E2E2E2E2E2E2E2E2E2E2E2E2F5E2E2E2F5F5E2E2E2F5E2E2E2E2E2E2E2E2E2E2E2E2E2E2E2E2F5E2E2E2E2E2E2E2E2E2E2E2E2E2E2E2E2E2E2E2E2E2E2E2E2E2E2E2E2E2E2E2E2E2E2E2E2E2E2E2E2E2E2E2E2E2E2E2E2E2E2E2E2E2E2E2E2E2E2E2
310
E2E2E2E2E2E2E2E2E2E2E2E2E2E2E2E2E2E2E2E2E2E2E2E2E2E2E2E2E2E2E2E2E2E2E2E2E2E2E2E2E2E2E2E2E2E2E2E2E2E2E2E2E2E2E2E2E2E2E2E2E2E2E2E2E2E2E2E2E2E2E2E2E2E2E2E2E2F5E2E2E2E2E2E2E2E2E2E2E2E2E2E2E2E2F5E2E2E2F5F5E2E2E2F5E2E2E2E2E2E2E2E2E2E2E2E2E2E2E2E2F5E2E2E2E2E2E2
310
E2E2E2E2E2E2E2E2E2E2E2E2E2E2E2E2E2E2E2E2E2E2E2E2E2E2E2E2E2E2E2E2E2E2E2E2E2E2E2E2E2E2E2E2E2E2E2E2E2E2E2E2E2E2E2E2E2E2E2E2E2E2E2E2E2E2E2E2E2E2E2E2E2E2E2E2E2E2E2E2E2E2E2E2E2E2E2E2E2E2E2E2E2E2E2E2E2E2E2E2E2E2E2E2E2E2E2E2E2E2E2E2E2E2E2E2E2E2E2E2E2E2E2E2E2E2E2
310
E2E2E2F5E2E2E2E2E2E2E2E2E2E2E2E2E2E2E2E2F5E2E2E2F5F5E2E2E2F5E2E2E2E2E2E2E2E2E2E2E2E2E2E2E2E2F5E2E2E2E2E2E2E2E2E2E2E2E2E2E2E2E2E2E2E2E2E2E2E2E2E2E2E2E2E2E2E2E2E2E2E2E2E2E2E2E2E2E2E2E2E2E2E2E2E2E2E2E2E2E2E2E2E2E2E2E2E2E2E2E2E2E2E2E2E2E2E2E2E2E2E2E2E2E2E2E2
310
E2E2E2E2E2E2E2E2E2E2E2E2E2E2E2E2E2E2E2E2E2E2E2E2E2E2E2E2E2E2E2E2E2E2E2E2E2E2E2E2E2E2E2E2E2E2E2E2E2E2E2E2E2E2E2E2F5E2E2E2E2E2E2E2E2E2E2E2E2E2E2E2E2F5E2E2E2F5F5E2E2E2F5E2E2E2E2E2E2E2E2E2E2E2E2E2E2E2E2F5E2E2E2E2E2E2E2E2E2E2E2E2E2E2E2E2E2E2E2E2E2E2E2E2E2E2E2
310
E2E2E2E2E2E2E2E2E2E2E2E2E2E2E2E2E2E2E2E2E2E2E2E2E2E2E2E2E2E2E2E2E2E2E2E2E2E2E2E2E2E2E2E2E2E2E2E2E2E2E2E2E2E2E2E2E2E2E2E2E2E2E2E2E2E2E2E2E2E2E2E2E2E2E2E2E2E2E2E2E2E2E2E2E2E2E2E2E2E2E2E2E2E2E2E2E2E2E2E2E2E2E2E2E2E2E2E2E2F5E2E2E2E2E2E2E2E2E2E2E2E2E2E2E2E2F5
310
E2E2E2F5F5E2E2E2F5E2E2E2E2E2E2E2E2E2E2E2E2E2E2E2E2F5E2E2E2E2E2E2E2E2E2E2E2E2E2E2E2E2E2E2E2E2E2E2E2E2E2E2E2E2E2E2E2E2E2E2E2E2E2E2E2E2E2E2E2E2E2E2E2E2E2E2E2E2E2E2E2E2E2E2E2E2E2E2E2E2E2E2E2E2E2E2E2E2E2E2E2E2E2E2E2E2E2E2E2E2E2E2E2E2E2E2E2E2E2E2E2E2E2E2E2E2E2
310
E2E2E2E2E2E2E2E2E2E2E2E2E2E2E2E2E2E2E2E2E2E2E2E2E2E2E2E2E2E2E2E2E2E2E2F5E2E2E2E2E2E2E2E2E2E2E2E2E2E2E2E2F5E2E2E2F5F5E2E2E2F5E2E2E2E2E2E2E2E2E2E2E2E2E2E2E2E2F5E2E2E2E2E2E2E2E2E2E2E2E2E2E2E2E2E2E2E2E2E2E2E2E2E2E2E2E2E2E2E2E2E2E2E2E2E2E2E2E2E2E2E2E2E2E2E2E2
310
E2E2E2E2E2E2E2E2E2E2E2E2E2E2E2E2E2E2E2E2E2E2E2E2E2E2E2E2E2E2E2E2E2E2E2E2E2E2E2E2E2E2E2E2E2E2E2E2E2E2E2E2E2E2E2E2E2E2E2E2E2E2E2E2E2E2E2E2E2E2E2E2E2E2E2E2E2E2E2E2E2E2E2E2E2E2E2E2F5E2E2E2E2E2E2E2E2E2E2E2E2E2E2E2E2F5E2E2E2F5F5E2E2E2F5E2E2E2E2E2E2E2E2E2E2E2E2
310
E2E2E2E2F5E2E2E2E2E2E2E2E2E2E2E2E2E2E2E2E2E2E2E2E2E2E2E2E2E2E2E2E2E2E2E2E2E2E2E2E2E2E2E2E2E2E2E2E2E2E2E2E2E2E2E2E2E2E2E2E2E2E2E2E2E2E2E2E2E2E2E2E2E2E2E2E2E2E2E2E2E2E2E2E2E2E2E2E2E2E2E2E2E2E2E2E2E2E2E2E2E2E2E2E2E2E2E2E2E2E2E2E2E2E2E2E2E2E2E2E2E2E2E2E2E2E2
310
E2E2E2E2E2E2E2E2E2E2E2E2E2E2F5E2E2E2E2E2E2E2E2E2E2E2E2E2E2E2E2F5E2E2E2F5F5E2E2E2F5E2E2E2E2E2E2E2E2E2E2E2E2E2E2E2E2F5E2E2E2E2E2E2E2E2E2E2E2E2E2E2E2E2E2E2E2E2E2E2E2E2E2E2E2E2E2E2E2E2E2E2E2E2E2E2E2E2E2E2E2E2E2E2E2E2E2E2E2E2E2E2E2E2E2E2E2E2E2E2E2E2E2E2E2E2E2
310
E2E2E2E2E2E2E2E2E2E2E2E2E2E2E2E2E2E2E2E2E2E2E2E2E2E2E2E2E2E2E2E2E2E2E2E2E2E2E2E2E2E2E2E2E2E2E2E2E2E2E2E2E2E2E2E2E2E2E2E2E2E2E2E2E2E2E2F5E2E2E2E2E2E2E2E2E2E2E2E2E2E2E2E2F5E2E2E2F5F5E2E2E2F5E2E2E2E2E2E2E2E2E2E2E2E2E2E2E2E2F5E2E2E2E2E2E2E2E2E2E2E2E2E2E2E2E2
310
E2E2E2E2E2E2E2E2E2E2E2E2E2E2E2E2E2E2E2E2E2E2E2E2E2E2E2E2E2E2E2E2E2E2E2E2E2E2E2E2E2E2E2E2E2E2E2E2E2E2E2E2E2E2E2E2E2E2E2E2E2E2E2E2E2E2E2E2E2E2E2E2E2E2E2E2E2E2E2E2E2E2E2E2E2E2E2E2E2E2E2E2E2E2E2E2E2E2E2E2E2E2E2E2E2E2E2E2E2E2E2E2E2E2E2E2E2E2E2E2F5E2E2E2E2E2E2
310
E2E2E2E2E2E2E2E2E2E2F5E2E2E2F5F5E2E2E2F5E2E2E2E2E2E2E2E2E2E2E2E2E2E2E2E2F5E2E2E2E2E2E2E2E2E2E2E2E2E2E2E2E2E2E2E2E2E2E2E2E2E2E2E2E2E2E2E2E2E2E2E2E2E2E2E2E2E2E2E2E2E2E2E2E2E2E2E2E2E2E2E2E2E2E2E2E2E2E2E2E2E2E2E2E2E2E2E2E2E2E2E2E2E2E2E2E2E2E2E2E2E2E2E2E2E2E2
310
E2E2E2E2E2E2E2E2E2E2E2E2E2E2E2E2E2E2E2E2E2E2E2E2E2E2E2E2E2E2E2E2E2E2E2E2E2E2E2E2E2E2E2E2E2E2F5E2E2E2E2E2E2E2E2E2E2E2E2E2E2E2E2F5E2E2E2F5F5E2E2E2F5E2E2E2E2E2E2E2E2E2E2E2E2E2E2E2E2F5E2E2E2E2E2E2E2E2E2E2E2E2E2E2E2E2E2E2E2E2E2E2E2E2E2E2E2E2E2E2E2E2E2E2E2E2E2
310
E2E2E2E2E2E2E2E2E2E2E2E2E2E2E2E2E2E2E2E2E2E2E2E2E2E2E2E2E2E2E2E2E2E2E2E2E2E2E2E2E2E2E2E2E2E2E2E2E2E2E2E2E2E2E2E2E2E2E2E2E2E2E2E2E2E2E2E2E2E2E2E2E2E2E2E2E2E2E2E2E2E2E2E2E2E2E2E2E2E2E2E2E2E2E2E2E2E2E2F5E2E2E2E2E2E2E2E2E2E2E2E2E2E2E2E2F5E2E2E2F5F5E2E2E2F5E2
310
E2E2E2E2E2E2E2E2E2E2E2E2E2E2E2F5E2E2E2E2E2E2E2E2E2E2E2E2E2E2E2E2E2E2E2E2E2E2E2E2E2E2E2E2E2E2E2E2E2E2E2E2E2E2E2E2E2E2E2E2E2E2E2E2E2E2E2E2E2E2E2E2E2E2E2E2E2E2E2E2E2E2E2E2E2E2E2E2E2E2E2E2E2E2E2E2E2E2E2E2E2E2E2E2E2E2E2E2E2E2E2E2E2E2E2E2E2E2E2E2E2E2E2E2E2E2E2
310
E2E2E2E2E2E2E2E2E2E2E2E2E2E2E2E2E2E2E2E2E2E2E2E2E2F5E2E2E2E2E2E2E2E2E2E2E2E2E2E2E2E2F5E2E2E2F5F5E2E2E2F5E2E2E2E2E2E2E2E2E2E2E2E2E2E2E2E2F5E2E2E2E2E2E2E2E2E2E2E2E2E2E2E2E2E2E2E2E2E2E2E2E2E2E2E2E2E2E2E2E2E2E2E2E2E2E2E2E2E2E2E2E2E2E2E2E2E2E2E2E2E2E2E2E2E2E2
310
E2E2E2E2E2E2E2E2E2E2E2E2E2E2E2E2E2E2E2E2E2E2E2E2E2E2E2E2E2E2E2E2E2E2E2E2E2E2E2E2E2E2E2E2E2E2E2E2E2E2E2E2E2E2E2E2E2E2E2E2E2E2E2E2E2E2E2E2E2E2E2E2E2E2E2E2E2E2F5E2E2E2E2E2E2E2E2E2E2E2E2E2E2E2E2F5E2E2E2F5F5E2E2E2F5E2E2E2E2E2E2E2E2E2E2E2E2E2E2E2E2F5E2E2E2E2E2
310
E2E2E2E2E2E2E2E2E2E2E2E2E2E2E2E2E2E2E2E2E2E2E2E2E2E2E2E2E2E2E2E2E2E2E2E2E2E2E2E2E2E2E2E2E2E2E2E2E2E2E2E2E2E2E2E2E2E2E2E2E2E2E2E2E2E2E2E2E2E2E2E2E2E2E2E2E2E2E2E2E2E2E2E2E2E2E2E2E2E2E2E2E2E2E2E2E2E2E2E2E2E2E2E2E2E2E2E2E2E2E2E2E2E2E2E2E2E2E2E2E2E2E2E2E2E2E2
310
E2E2E2E2F5E2E2E2E2E2E2E2E2E2E2E2E2E2E2E2E2F5E2E2E2F5F5E2E2E2E2E2E2E2E2E2E2E2E2E2E2E2E2E2E2E2E2F5E2E2E2E2E2E2E2E2E2E2E2E2E2E2E2E2E2E2E2E2E2E2E2E2E2E2E2E2E2E2E2E2E2E2E2E2E2E2E2E2E2E2E2E2E2E2E2E2E2E2E2E2E2E2E2E2E2E2E2E2E2E2E2E2E2E2E2E2E2E2E2E2E2E2E2E2E2E2E2
310
E2E2E2E2E2E2E2E2E2E2E2E2E2E2E2E2E2E2E2E2E2E2E2E2E2E2E2E2E2E2E2E2E2E2E2E2E2E2E2E2E2E2E2E2E2E2E2E2E2E2E2E2E2E2E2E2E2F5E2E2E2E2E2E2E2E2E2E2E2E2E2E2E2E2E2E2E2E2F5F5E2E2E2E2E2E2E2E2E2E2E2E2E2E2E2E2E2E2E2E2F5E2E2E2E2E2E2E2E2E2E2E2E2E2E2E2E2E2E2E2E2E2E2E2E2E2E2
310
E2E2E2E2E2E2E2E2E2E2E2E2E2E2E2E2E2E2E2E2E2E2E2E2E2E2E2E2E2E2E2E2E2E2E2E2E2E2E2E2E2E2E2E2E2E2E2E2E2E2E2E2E2E2E2E2E2E2E2E2E2E2E2E2E2E2E2E2E2E2E2E2E2E2E2E2E2E2E2E2E2E2E2E2E2E2E2E2E2E2E2E2E2E2E2E2E2E2E2E2E2E2E2E2E2E2E2E2E2E2F5E2E2E2E2E2E2E2E2E2E2E2E2E2E2E2E2
310
E2E2E2E2F5F5E2E2E2E2E2E2E2E2E2E2E2E2E2E2E2E2E2E2E2E2F5E2E2E2E2E2E2E2E2E2E2E2E2E2E2E2E2E2E2E2E2E2E2E2E2E2E2E2E2E2E2E2E2E2E2E2E2E2E2E2E2E2E2E2E2E2E2E2E2E2E2E2E2E2E2E2E2E2E2E2E2E2E2E2E2E2E2E2E2E2E2E2E2E2E2E2E2E2E2E2E2E2E2E2E2E2E2E2E2E2E2E2E2E2E2E2E2E2E2E2E2
310
E2E2E2E2E2E2E2E2E2E2E2E2E2E2E2E2E2E2E2E2E2E2E2E2E2E2E2E2E2E2E2E2E2E2E2E2F5E2E2E2E2E2E2E2E2E2E2E2E2E2E2E2E2E2E2E2E2F5F5E2E2E2E2E2E2E2E2E2E2E2E2E2E2E2E2E2E2E2E2F5E2E2E2E2E2E2E2E2E2E2E2E2E2E2E2E2E2E2E2E2E2E2E2E2E2E2E2E2E2E2E2E2E2E2E2E2E2E2E2E2E2E2E2E2E2E2E2
310
E2E2E2E2E2E2E2E2E2E2E2E2E2E2E2E2E2E2E2E2E2E2E2E2E2E2E2E2E2E2E2E2E2E2E2E2E2E2E2E2E2E2E2E2E2E2E2E2E2E2E2E2E2E2E2E2E2E2E2E2E2E2E2E2E2E2E2E2E2E2E2E2E2E2E2E2E2E2E2E2E2E2E2E2E2E2E2E2E2F5E2E2E2E2E2E2E2E2E2E2E2E2E2E2E2E2E2E2E2E2F5F5E2E2E2E2E2E2E2E2E2E2E2E2E2E2E2
310
E2E2E2E2E2F5F5F5F5F5F5F5F5F5F5F5F5F5F5F5F5F5F5F5F5F5F5F5F5F5F5F5F5F5F5F5F5F5F5F5F5F5F5F5F5F5F5F5F5F5F5F5F5F5F5F5F5F5F5F5F5F5F5F5F5F5F5F5F5F5F5F5F5F5F5F5F5F5F5F5F5F5F5F5F5F5F5F5F5F5F5F5F5F5F5F5F5F5F5F5F5F5F5F5F5F5F5F5F5F5F5F5F5F5F5F5F5F5F5F5F5F5F5F5F5F5F5
310
F5F5F5F5F5F5F5F5F5F5F5F5F5F5F5F5E2E2E2E2E2E2E2E2E2E2E2E2E2E2E2E2E2E2E2E2F5F5E2E2E2E2E2E2E2E2E2E2E2E2E2E2E2E2E2E2E2E2E2E2E2E2E2E2E2E2E2E2E2E2E2E2E2E2E2E2E2E2E2E2E2E2E2E2E2E2E2E2E2E2E2E2E2E2E2E2E2E2E2E2E2E2E2E2E2E2E2E2E2E2E2E2E2E2E2E2E2E2E2E2E2E2E2E2E2E2E2
310
E2E2E2E2E2E2E2E2E2E2E2E2E2E2E2E2E2E2E2E2E2E2E2E2E2E2E2E2E2E2E2E2E2E2E2E2E2E2E2E2E2E2E2E2E2E2E2E2E2E2E2E2E2E2E2E2E2E2E2E2E2E2E2E2E2E2E2E2E2E2E2E2E2E2E2E2E2E2E2E2E2E2E2E2E2E2E2E2E2F5F5E2E2E2E2E2E2E2E2E2E2E2E2E2E2E2E2E2E2E2E2E2E2E2E2E2E2E2E2E2E2E2E2E2E2E2E2
310
E2E2E2E2E2E2E2E2E2E2E2E2E2E2E2E2E2E2E2E2E2E2E2E2E2E2E2E2E2E2E2E2E2E2E2E2E2E2E2E2E2E2E2E2E2E2E2E2E2E2E2E2E2E2E2E2E2E2E2E2E2E2E2E2E2E2E2E2E2E2E2E2E2E2E2E2E2E2E2E2E2E2E2E2E2E2E2E2E2E2E2E2E2E2E2E2E2E2E2E2E2E2E2E2E2E2E2E2E2E2E2E2E2E2E2E2E2E2E2E2E2E2E2E2E2E2E2
310
E2E2E2E2E2E2E2E2E2E2E2E2E2E2E2F5F5E2E2E2E2E2E2E2E2E2E2E2E2E2E2E2E2E2E2E2E2E2E2E2E2E2E2E2E2E2E2E2E2E2E2E2E2E2E2E2E2E2E2E2E2E2E2E2E2E2E2E2E2E2E2E2E2E2E2E2E2E2E2E2E2E2E2E2E2E2E2E2E2E2E2E2E2E2E2E2E2E2E2E2E2E2E2E2E2E2E2E2E2E2E2E2E2E2E2E2E2E2E2E2E2E2E2E2E2E2E2
310
E2E2E2E2E2E2E2E2E2E2E2E2E2E2E2E2E2E2E2E2E2E2E2E2E2E2E2E2E2E2E2E2E2E2E2E2E2E2E2E2E2E2E2E2E2E2E2E2E2E2E2E2E2E2E2E2E2E2E2E2E2E2E2E2E2E2E2E2F5F5E2E2E2E2E2E2E2E2E2E2E2E2E2E2E2E2E2E2E2E2E2E2E2E2E2E2E2E2E2E2E2E2E2E2E2E2E2E2E2E2E2E2E2E2E2E2E2E2E2E2E2E2E2E2E2E2E2
310
E2E2E2E2E2E2E2E2E2E2E2E2E2E2E2E2E2E2E2E2E2E2E2E2E2E2E2E2E2E2E2E2E2E2E2E2E2E2E2E2E2E2E2E2E2E2E2E2E2E2E2E2E2E2E2E2E2E2E2E2E2E2E2E2E2E2E2E2E2E2E2E2E2E2E2E2E2E2E2E2E2E2E2E2E2E2E2E2E2E2E2E2E2E2E2E2E2E2E2E2E2E2E2E2E2E2E2E2E2E2E2E2E2E2E2E2E2E2E2E2E2F5F5E2E2E2F5
310
E2E2E2E2E2E2E2E2E2E2E2E2E2E2E2E2E2E2E2E2E2E2E2E2E2E2E2E2E2E2E2E2E2E2E2E2E2E2E2E2E2E2E2E2E2E2E2E2E2E2E2E2E2E2E2E2E2E2E2E2E2E2E2E2E2E2E2E2E2E2E2E2E2E2E2E2E2E2E2E2E2E2E2E2E2E2E2E2E2E2E2E2E2E2E2E2E2E2E2E2E2E2E2E2E2E2E2E2E2E2E2E2E2E2E2E2E2E2E2E2E2E2E2E2E2E2E2
310
E2E2E2E2E2E2E2E2E2E2E2E2E2E2E2E2E2E2E2E2E2E2E2E2E2E2E2E2E2E2E2E2E2E2E2E2E2E2E2E2E2E2E2F5E2E2E2F5F5E2E2E2F5E2E2E2E2E2E2E2E2E2E2E2E2E2E2E2E2E2E2E2E2E2E2E2E2E2E2E2E2E2E2E2E2E2E2E2E2E2E2E2E2E2E2E2E2E2E2E2E2E2E2E2E2E2E2E2E2E2E2E2E2E2E2E2E2E2E2E2E2E2E2E2E2E2E2
310
E2E2E2E2E2E2E2E2E2E2E2E2E2E2E2E2E2E2E2E2E2E2E2E2E2E2E2E2E2E2E2E2E2E2E2E2E2E2E2E2E2E2E2E2E2E2E2E2E2E2E2E2E2E2E2E2E2E2E2E2E2E2E2E2E2E2E2E2E2E2E2E2E2E2E2E2E2E2E2E2E2E2E2E2E2E2E2E2E2E2E2E2E2E2E2E2F5E2E2E2F5F5E2E2E2F5E2E2E2E2E2E2E2E2E2E2E2E2E2E2E2E2E2E2E2E2E2
310
E2E2E2E2E2E2E2E2E2E2E2E2E2E2E2E2E2E2E2E2E2E2E2E2E2E2E2E2E2E2E2E2E2E2E2E2E2E2E2E2E2E2E2E2E2E2E2E2E2E2E2E2E2E2E2E2E2E2E2E2E2E2E2E2E2E2E2E2E2E2E2E2E2E2E2E2E2E2E2E2E2E2E2E2E2E2E2E2E2E2E2E2E2E2E2E2E2E2E2E2E2E2E2E2E2E2E2E2E2E2E2E2E2E2E2E2E2E2E2E2E2E2E2E2E2E2E2
310
E2E2E2E2E2E2E2E2E2E2E2E2E2E2E2E2E2E2E2E2E2E2F5E2E2E2F5F5E2E2E2F5E2E2E2E2E2E2E2E2E2E2E2E2E2E2E2E2E2E2E2E2E2E2E2E2E2E2E2E2E2E2E2E2E2E2E2E2E2E2E2E2E2E2E2E2E2E2E2E2E2E2E2E2E2E2E2E2E2E2E2E2E2E2E2E2E2E2E2E2E2E2E2E2E2E2E2E2E2E2E2E2E2E2E2E2E2E2E2E2E2E2E2E2E2E2E2
310
E2E2E2E2E2E2E2E2E2E2E2E2E2E2E2E2E2E2E2E2E2E2E2E2E2E2E2E2E2E2E2E2E2E2E2E2E2E2E2E2E2E2E2E2E2E2E2E2E2E2E2E2E2E2E2E2E2E2E2E2E2E2E2E2E2E2E2E2E2E2E2E2E2E2E2F5E2E2E2F5F5E2E2E2F5E2E2E2E2E2E2E2E2E2E2E2E2E2E2E2E2E2E2E2E2E2E2E2E2E2E2E2E2E2E2E2E2E2E2E2E2E2E2E2E2E2E2
310
E2E2E2E2E2E2E2E2E2E2E2E2E2E2E2E2E2E2E2E2E2E2E2E2E2E2E2E2E2E2E2E2E2E2E2E2E2E2E2E2E2E2E2E2E2E2E2E2E2E2E2E2E2E2E2E2E2E2E2E2E2E2E2E2E2E2E2E2E2E2E2E2E2E2E2E2E2E2E2E2E2E2E2E2E2E2E2E2E2E2E2E2E2E2E2E2E2E2E2E2E2E2E2E2E2E2E2E2E2E2E2E2E2E2E2E2E2E2E2E2E2E2E2E2E2E2E2
310
E2F5E2E2E2F5F5E2E2E2F5E2E2E2E2E2E2E2E2E2E2E2E2E2E2E2E2E2E2E2E2E2E2E2E2E2E2E2E2E2E2E2E2E2E2E2E2E2E2E2E2E2E2E2E2E2E2E2E2E2E2E2E2E2E2E2E2E2E2E2E2E2E2E2E2E2E2E2E2E2E2E2E2E2E2E2E2E2E2E2E2E2E2E2E2E2E2E2E2E2E2E2E2E2E2E2E2E2E2E2E2E2E2E2E2E2E2E2E2E2E2E2E2E2E2E2E2
310
E2E2E2E2E2E2E2E2E2E2E2E2E2E2E2E2E2E2E2E2E2E2E2E2E2E2E2E2E2E2E2E2E2E2E2E2E2E2E2E2E2E2E2E2E2E2E2E2E2E2E2E2E2E2F5E2E2E2F5F5E2E2E2F5E2E2E2E2E2E2E2E2E2E2E2E2E2E2E2E2E2E2E2E2E2E2E2E2E2E2E2E2E2E2E2E2E2E2E2E2E2E2E2E2E2E2E2E2E2E2E2E2E2E2E2E2E2E2E2E2E2E2E2E2E2E2E2
310
E2E2E2E2E2E2E2E2E2E2E2E2E2E2E2E2E2E2E2E2E2E2E2E2E2E2E2E2E2E2E2E2E2E2E2E2E2E2E2E2E2E2E2E2E2E2E2E2E2E2E2E2E2E2E2E2E2E2E2E2E2E2E2E2E2E2E2E2E2E2E2E2E2E2E2E2E2E2E2E2E2E2E2E2E2E2E2E2E2E2E2E2E2E2E2E2E2E2E2E2E2E2E2E2E2E2E2F5E2E2E2F5F5E2E2E2F5E2E2E2E2E2E2E2E2E2E2
310
E2E2E2E2E2E2E2E2E2E2E2E2E2E2E2E2E2E2E2E2E2E2E2E2E2E2E2E2E2E2E2E2E2E2E2E2E2E2E2E2E2E2E2E2E2E2E2E2E2E2E2E2E2E2E2E2E2E2E2E2E2E2E2E2E2E2E2E2E2E2E2E2E2E2E2E2E2E2E2E2E2E2E2E2E2E2E2E2E2E2E2E2E2E2E2E2E2E2E2E2E2E2E2E2E2E2E2E2E2E2E2E2E2E2E2E2E2E2E2E2E2E2E2E2E2E2E2
310
E2E2E2E2E2E2E2E2E2E2E2E2E2E2E2E2E2E2E2E2E2E2E2E2E2E2E2E2E2E2E2E2E2F5E2E2E2F5F5E2E2E2F5F5F5F5F5F5F5F5E2E2E2E2E2E2E2E2E2F5F5F5F5F5F5F5F5F5F5F5F5F5F5F5F5E2E2E2E2E2E2E2E2E2F5F5F5F5F5F5F5F5F5F5F5F5F5F5F5E2E2E2E2E2E2E2E2E2F5F5F5F5F5F5F5F5F5F5F5F5F5F5F5F5E2E2E2
310
E2E2E2E2E2F5F5F5F5F5F5F5F5F5F5F5F5F5F5F5F5E2E2E2E2E2E2E2E2E2F5F5F5F5F5F5F5F5F5F5F5F5F5F5F5E2E2E2E2E2E2E2E2E2F5F5F5F5F5F5F5F5F5F5F5F5F5F5F5F5E2E2E2E2E2E2E2E2E2F5F5F5F5F5F5F5F5E2E2E2F5F5E2E2E2E2E2E2E2E2E2E2E2E2E2E2E2E2E2E2E2E2E2E2E2E2E2E2E2E2E2E2E2E2E2E2E2
310
E2E2E2E2E2E2E2E2E2E2E2E2E2E2E2E2E2E2E2E2E2E2E2E2E2E2E2E2E2E2E2E2E2E2E2E2E2E2E2E2E2E2E2E2E2E2E2E2E2E2E2E2E2E2E2E2E2E2E2E2E2E2E2E2E2E2E2E2E2E2E2E2E2E2E2E2E2E2E2E2E2E2E2E2E2E2E2E2E2E2E2E2E2E2E2E2E2E2E2E2E2E2E2E2E2E2E2E2E2E2E2E2E2E2E2E2E2E2E2E2E2E2E2E2E2E2E2
310
E2E2E2E2E2E2E2E2E2E2E2E2E2E2E2E2F5F5E2E2E2E2E2E2E2E2E2E2E2E2E2E2E2E2E2E2E2E2E2E2E2E2E2E2E2E2E2E2E2E2E2E2E2E2E2E2E2E2E2E2E2E2E2E2E2E2E2E2E2E2E2E2E2E2E2E2E2E2E2E2E2E2E2E2E2E2E2E2E2E2E2E2E2E2E2E2E2E2E2E2E2E2E2E2E2E2E2E2E2E2E2E2E2E2E2E2E2E2E2E2E2E2E2E2E2E2E2
310
E2E2E2E2E2E2E2E2E2E2E2E2E2E2E2E2E2E2E2E2E2E2E2E2E2E2E2E2E2E2E2E2E2E2E2E2E2E2E2E2E2E2E2E2E2E2E2E2E2E2E2E2E2E2E2E2E2E2E2E2E2E2E2E2E2E2E2E2E2F5F5E2E2E2E2E2E2E2E2E2E2E2E2E2E2E2E2E2E2E2E2E2E2E2E2E2E2E2E2E2E2E2E2E2E2E2E2E2E2E2E2E2E2E2E2E2E2E2E2E2E2E2E2E2E2E2E2
310
E2E2E2E2E2E2E2E2E2E2E2E2E2E2E2E2E2E2E2E2E2E2E2E2E2E2E2E2E2E2E2E2E2E2E2E2E2E2E2E2E2E2E2E2E2E2E2E2E2E2E2E2E2E2E2E2E2E2E2E2E2E2E2E2E2E2E2E2E2E2E2E2E2E2E2E2E2E2E2E2E2E2E2E2E2E2E2E2E2E2E2E2E2E2E2E2E2E2E2E2E2E2E2E2E2E2E2E2E2E2E2E2E2E2E2E2E2E2E2E2E2E2F5F5E2E2E2
310
E2E2E2E2E2E2E2E2E2E2E2E2E2E2E2E2E2E2E2E2E2E2E2E2E2E2E2E2E2E2E2E2E2E2E2E2E2E2E2E2E2E2E2E2E2E2E2E2E2E2E2E2E2E2E2E2E2E2E2E2E2E2E2E2E2E2E2E2E2E2E2E2E2E2E2E2E2E2E2E2E2E2E2E2E2E2E2E2E2E2E2E2E2E2E2E2E2E2E2E2E2E2E2E2E2E2E2E2E2E2E2E2E2E2E2E2E2E2E2E2E2E2E2E2E2E2E2
310
E2E2E2E2E2E2E2E2E2E2E2E2E2E2E2E2E2E2E2E2E2E2E2E2E2E2E2E2E2E2E2E2E2E2E2E2E2E2E2E2E2E2E2E2E2E2E2E2F5
  0
XRECORD
  5
5945D
102
{ACAD_REACTORS
330
5945C
102
}
330
5945C
100
AcDbXrecord
280
     1
102
SHADEPLOT
 70
     0
102
SHADEPLOTRESLEVEL
 70
     2
102
SHADEPLOTCUSTOMDPI
 70
   300
  0
ENDSEC
  0
EOF
