  0
SECTION
  2
HEADER
  9
$ACADVER
  1
AC1015
  9
$ACADMAINTVER
 70
    20
  9
$DWGCODEPAGE
  3
ANSI_932
  9
$INSBASE
 10
0.0
 20
0.0
 30
0.0
  9
$EXTMIN
 10
-243.130907822643
 20
-119.231131125921
 30
0.0
  9
$EXTMAX
 10
192.7203224641076
 20
40.00000000000002
 30
0.0
  9
$LIMMIN
 10
0.0
 20
0.0
  9
$LIMMAX
 10
420.0
 20
297.0
  9
$ORTHOMODE
 70
     1
  9
$REGENMODE
 70
     1
  9
$FILLMODE
 70
     1
  9
$QTEXTMODE
 70
     0
  9
$MIRRTEXT
 70
     1
  9
$LTSCALE
 40
1.0
  9
$ATTMODE
 70
     1
  9
$TEXTSIZE
 40
3.5
  9
$TRACEWID
 40
1.0
  9
$TEXTSTYLE
  7
simplex
  9
$CLAYER
  8
0
  9
$CELTYPE
  6
ByLayer
  9
$CECOLOR
 62
   256
  9
$CELTSCALE
 40
1.0
  9
$DISPSILH
 70
     0
  9
$DIMSCALE
 40
0.0
  9
$DIMASZ
 40
3.5
  9
$DIMEXO
 40
0.0
  9
$DIMDLI
 40
0.38
  9
$DIMRND
 40
0.0
  9
$DIMDLE
 40
0.0
  9
$DIMEXE
 40
1.5
  9
$DIMTP
 40
0.0
  9
$DIMTM
 40
0.0
  9
$DIMTXT
 40
3.5
  9
$DIMCEN
 40
0.09
  9
$DIMTSZ
 40
0.0
  9
$DIMTOL
 70
     0
  9
$DIMLIM
 70
     0
  9
$DIMTIH
 70
     0
  9
$DIMTOH
 70
     0
  9
$DIMSE1
 70
     0
  9
$DIMSE2
 70
     0
  9
$DIMTAD
 70
     1
  9
$DIMZIN
 70
     8
  9
$DIMBLK
  1

  9
$DIMASO
 70
     1
  9
$DIMSHO
 70
     1
  9
$DIMPOST
  1

  9
$DIMAPOST
  1

  9
$DIMALT
 70
     0
  9
$DIMALTD
 70
     2
  9
$DIMALTF
 40
25.4
  9
$DIMLFAC
 40
1.0
  9
$DIMTOFL
 70
     0
  9
$DIMTVP
 40
0.0
  9
$DIMTIX
 70
     0
  9
$DIMSOXD
 70
     0
  9
$DIMSAH
 70
     0
  9
$DIMBLK1
  1

  9
$DIMBLK2
  1

  9
$DIMSTYLE
  2
コピー - ISO-25
  9
$DIMCLRD
 70
   256
  9
$DIMCLRE
 70
   256
  9
$DIMCLRT
 70
   256
  9
$DIMTFAC
 40
1.0
  9
$DIMGAP
 40
2.299999999999998
  9
$DIMJUST
 70
     0
  9
$DIMSD1
 70
     0
  9
$DIMSD2
 70
     0
  9
$DIMTOLJ
 70
     1
  9
$DIMTZIN
 70
     8
  9
$DIMALTZ
 70
     0
  9
$DIMALTTZ
 70
     0
  9
$DIMUPT
 70
     0
  9
$DIMDEC
 70
     2
  9
$DIMTDEC
 70
     2
  9
$DIMALTU
 70
     2
  9
$DIMALTTD
 70
     2
  9
$DIMTXSTY
  7
simplex
  9
$DIMAUNIT
 70
     0
  9
$DIMADEC
 70
     0
  9
$DIMALTRND
 40
0.0
  9
$DIMAZIN
 70
     0
  9
$DIMDSEP
 70
    46
  9
$DIMATFIT
 70
     3
  9
$DIMFRAC
 70
     0
  9
$DIMLDRBLK
  1

  9
$DIMLUNIT
 70
     2
  9
$DIMLWD
 70
    -1
  9
$DIMLWE
 70
    -1
  9
$DIMTMOVE
 70
     0
  9
$LUNITS
 70
     2
  9
$LUPREC
 70
     4
  9
$SKETCHINC
 40
1.0
  9
$FILLETRAD
 40
0.8
  9
$AUNITS
 70
     0
  9
$AUPREC
 70
     0
  9
$MENU
  1
.
  9
$ELEVATION
 40
0.0
  9
$PELEVATION
 40
0.0
  9
$THICKNESS
 40
0.0
  9
$LIMCHECK
 70
     0
  9
$CHAMFERA
 40
10.0
  9
$CHAMFERB
 40
10.0
  9
$CHAMFERC
 40
20.0
  9
$CHAMFERD
 40
0.0
  9
$SKPOLY
 70
     0
  9
$TDCREATE
 40
2455489.391063368
  9
$TDUCREATE
 40
2455489.057730035
  9
$TDUPDATE
 40
2459010.582875486
  9
$TDUUPDATE
 40
2459010.249542153
  9
$TDINDWG
 40
4.318806933
  9
$TDUSRTIMER
 40
4.318752998
  9
$USRTIMER
 70
     1
  9
$ANGBASE
 50
0.0
  9
$ANGDIR
 70
     0
  9
$PDMODE
 70
     0
  9
$PDSIZE
 40
0.0
  9
$PLINEWID
 40
0.0
  9
$SPLFRAME
 70
     0
  9
$SPLINETYPE
 70
     6
  9
$SPLINESEGS
 70
     8
  9
$HANDSEED
  5
C25FC
  9
$SURFTAB1
 70
     6
  9
$SURFTAB2
 70
     6
  9
$SURFTYPE
 70
     6
  9
$SURFU
 70
     6
  9
$SURFV
 70
     6
  9
$UCSBASE
  2

  9
$UCSNAME
  2

  9
$UCSORG
 10
0.0
 20
0.0
 30
0.0
  9
$UCSXDIR
 10
1.0
 20
0.0
 30
0.0
  9
$UCSYDIR
 10
0.0
 20
1.0
 30
0.0
  9
$UCSORTHOREF
  2

  9
$UCSORTHOVIEW
 70
     0
  9
$UCSORGTOP
 10
0.0
 20
0.0
 30
0.0
  9
$UCSORGBOTTOM
 10
0.0
 20
0.0
 30
0.0
  9
$UCSORGLEFT
 10
0.0
 20
0.0
 30
0.0
  9
$UCSORGRIGHT
 10
0.0
 20
0.0
 30
0.0
  9
$UCSORGFRONT
 10
0.0
 20
0.0
 30
0.0
  9
$UCSORGBACK
 10
0.0
 20
0.0
 30
0.0
  9
$PUCSBASE
  2

  9
$PUCSNAME
  2

  9
$PUCSORG
 10
0.0
 20
0.0
 30
0.0
  9
$PUCSXDIR
 10
1.0
 20
0.0
 30
0.0
  9
$PUCSYDIR
 10
0.0
 20
1.0
 30
0.0
  9
$PUCSORTHOREF
  2

  9
$PUCSORTHOVIEW
 70
     0
  9
$PUCSORGTOP
 10
0.0
 20
0.0
 30
0.0
  9
$PUCSORGBOTTOM
 10
0.0
 20
0.0
 30
0.0
  9
$PUCSORGLEFT
 10
0.0
 20
0.0
 30
0.0
  9
$PUCSORGRIGHT
 10
0.0
 20
0.0
 30
0.0
  9
$PUCSORGFRONT
 10
0.0
 20
0.0
 30
0.0
  9
$PUCSORGBACK
 10
0.0
 20
0.0
 30
0.0
  9
$USERI1
 70
     0
  9
$USERI2
 70
     0
  9
$USERI3
 70
     0
  9
$USERI4
 70
     0
  9
$USERI5
 70
     0
  9
$USERR1
 40
0.0
  9
$USERR2
 40
0.0
  9
$USERR3
 40
0.0
  9
$USERR4
 40
0.0
  9
$USERR5
 40
0.0
  9
$WORLDVIEW
 70
     1
  9
$SHADEDGE
 70
     3
  9
$SHADEDIF
 70
    70
  9
$TILEMODE
 70
     1
  9
$MAXACTVP
 70
    64
  9
$PINSBASE
 10
0.0
 20
0.0
 30
0.0
  9
$PLIMCHECK
 70
     0
  9
$PEXTMIN
 10
26.66999878883364
 20
20.31999878883365
 30
0.0
  9
$PEXTMAX
 10
240.0299890995025
 20
182.8799890995025
 30
0.0
  9
$PLIMMIN
 10
-6.350006103515625
 20
-6.349999904632567
  9
$PLIMMAX
 10
273.0499877929688
 20
209.5499939918518
  9
$UNITMODE
 70
     0
  9
$VISRETAIN
 70
     1
  9
$PLINEGEN
 70
     0
  9
$PSLTSCALE
 70
     1
  9
$TREEDEPTH
 70
  3020
  9
$CMLSTYLE
  2
Standard
  9
$CMLJUST
 70
     0
  9
$CMLSCALE
 40
20.0
  9
$PROXYGRAPHICS
 70
     1
  9
$MEASUREMENT
 70
     1
  9
$CELWEIGHT
370
    -1
  9
$ENDCAPS
280
     0
  9
$JOINSTYLE
280
     0
  9
$LWDISPLAY
290
     0
  9
$INSUNITS
 70
     4
  9
$HYPERLINKBASE
  1

  9
$STYLESHEET
  1

  9
$XEDIT
290
     1
  9
$CEPSNTYPE
380
     0
  9
$PSTYLEMODE
290
     1
  9
$FINGERPRINTGUID
  2
{02B622DD-CC4E-47EA-8673-E1E7FD6DC0E6}
  9
$VERSIONGUID
  2
{2857737C-E1F1-4B8C-A314-07B88EA05944}
  9
$EXTNAMES
290
     1
  9
$PSVPSCALE
 40
0.0
  9
$OLESTARTUP
290
     0
  0
ENDSEC
  0
SECTION
  2
CLASSES
  0
CLASS
  1
ACDBDICTIONARYWDFLT
  2
AcDbDictionaryWithDefault
  3
ObjectDBX Classes
 90
        0
280
     0
281
     0
  0
CLASS
  1
ACDBPLACEHOLDER
  2
AcDbPlaceHolder
  3
ObjectDBX Classes
 90
    32768
280
     0
281
     0
  0
CLASS
  1
LAYOUT
  2
AcDbLayout
  3
ObjectDBX Classes
 90
    32768
280
     0
281
     0
  0
CLASS
  1
DICTIONARYVAR
  2
AcDbDictionaryVar
  3
ObjectDBX Classes
 90
        0
280
     0
281
     0
  0
CLASS
  1
TABLESTYLE
  2
AcDbTableStyle
  3
ObjectDBX Classes
 90
     4095
280
     0
281
     0
  0
CLASS
  1
SORTENTSTABLE
  2
AcDbSortentsTable
  3
ObjectDBX Classes
 90
        0
280
     0
281
     0
  0
CLASS
  1
DIMASSOC
  2
AcDbDimAssoc
  3
"AcDbDimAssoc|Product Desc:     AcDim ARX App For Dimension|Company:          Autodesk, Inc.|WEB Address:      www.autodesk.com"
 90
    32768
280
     0
281
     0
  0
CLASS
  1
ACAD_EVALUATION_GRAPH
  2
AcDbEvalGraph
  3
ObjectDBX Classes
 90
    33921
280
     0
281
     0
  0
CLASS
  1
ACAECUSTOBJ
  2
AcAeEditorObj
  3
AcAeEditorObj
 90
    33792
280
     0
281
     0
  0
CLASS
  1
ACDB_DYNAMICBLOCKPURGEPREVENTER_VERSION
  2
AcDbDynamicBlockPurgePreventer
  3
ObjectDBX Classes
 90
    33921
280
     0
281
     0
  0
CLASS
  1
MATERIAL
  2
AcDbMaterial
  3
ObjectDBX Classes
 90
     1153
280
     0
281
     0
  0
CLASS
  1
VISUALSTYLE
  2
AcDbVisualStyle
  3
ObjectDBX Classes
 90
     4095
280
     0
281
     0
  0
CLASS
  1
SCALE
  2
AcDbScale
  3
ObjectDBX Classes
 90
     1153
280
     0
281
     0
  0
CLASS
  1
MLEADERSTYLE
  2
AcDbMLeaderStyle
  3
ACDB_MLEADERSTYLE_CLASS
 90
     4095
280
     0
281
     0
  0
CLASS
  1
ACDBSECTIONVIEWSTYLE
  2
AcDbSectionViewStyle
  3
ObjectDBX Classes
 90
     1025
280
     0
281
     0
  0
CLASS
  1
ACDBDETAILVIEWSTYLE
  2
AcDbDetailViewStyle
  3
ObjectDBX Classes
 90
     1025
280
     0
281
     0
  0
CLASS
  1
CELLSTYLEMAP
  2
AcDbCellStyleMap
  3
ObjectDBX Classes
 90
     1152
280
     0
281
     0
  0
CLASS
  1
ZWMSTANDARD
  2
ZwmStandard
  3
ZWMCUSTCORE
 90
        1
280
     0
281
     0
  0
CLASS
  1
ZWMLAYERSTD
  2
ZwmLayerStd
  3
ZWMCUSTCORE
 90
        1
280
     0
281
     0
  0
CLASS
  1
ZWMTEXTSTYLESTD
  2
ZwmTextStyleStd
  3
ZWMCUSTCORE
 90
        1
280
     0
281
     0
  0
CLASS
  1
ZWMLINETYPESTD
  2
ZwmLineTypeStd
  3
ZWMCUSTCORE
 90
        1
280
     0
281
     0
  0
CLASS
  1
ZWMDIMSTYLESTD
  2
ZwmDimStyleStd
  3
ZWMCUSTCORE
 90
        1
280
     0
281
     0
  0
CLASS
  1
ZWMCOLORSTD
  2
ZwmColorStd
  3
ZWMCUSTCORE
 90
        1
280
     0
281
     0
  0
CLASS
  1
ZWMPARTREFSTD
  2
ZwmPartRefStd
  3
ZWMCUSTCORE
 90
        1
280
     0
281
     0
  0
CLASS
  1
ZWMBALLOONSTD
  2
ZwmBalloonStd
  3
ZWMCUSTCORE
 90
        1
280
     0
281
     0
  0
CLASS
  1
ZWMSURFSYMSTD
  2
ZwmSurfSymStd
  3
ZWMCUSTCORE
 90
        1
280
     0
281
     0
  0
CLASS
  1
ZWMNOTESTD
  2
ZwmNoteStd
  3
ZWMCUSTCORE
 90
        1
280
     0
281
     0
  0
CLASS
  1
ZWMFCFRAMESTD
  2
ZwmFCFrameStd
  3
ZWMCUSTCORE
 90
        1
280
     0
281
     0
  0
CLASS
  1
ZWMDATUMIDSTD
  2
ZwmDatumIdStd
  3
ZWMCUSTCORE
 90
        1
280
     0
281
     0
  0
CLASS
  1
ZWMFEATUREIDSTD
  2
ZwmFeatureIdStd
  3
ZWMCUSTCORE
 90
        1
280
     0
281
     0
  0
CLASS
  1
ZWMDATUMTARGETSTD
  2
ZwmDatumTargetStd
  3
ZWMCUSTCORE
 90
        1
280
     0
281
     0
  0
CLASS
  1
ZWMTAPERSLOPESTD
  2
ZwmTaperSlopeStd
  3
ZWMCUSTCORE
 90
        1
280
     0
281
     0
  0
CLASS
  1
ZWMCENTERHOLESTD
  2
ZwmCenterHoleStd
  3
ZWMCUSTCORE
 90
        1
280
     0
281
     0
  0
CLASS
  1
ZWMCHAMFERSTD
  2
ZwmChamferStd
  3
ZWMCUSTCORE
 90
        1
280
     0
281
     0
  0
CLASS
  1
ZWMCIRCLEMARKSTD
  2
ZwmCircleMarkStd
  3
ZWMCUSTCORE
 90
        1
280
     0
281
     0
  0
CLASS
  1
ZWMWELDINGSTD
  2
ZwmWeldingStd
  3
ZWMCUSTCORE
 90
        1
280
     0
281
     0
  0
CLASS
  1
ZWMDETAILSTD
  2
ZwmDetailStd
  3
ZWMCUSTCORE
 90
        1
280
     0
281
     0
  0
CLASS
  1
ZWMSECTIONSYMSTD
  2
ZwmSectionSymStd
  3
ZWMCUSTCORE
 90
        1
280
     0
281
     0
  0
CLASS
  1
ZWMVIEWDIRECTIONSTD
  2
ZwmViewDirectionStd
  3
ZWMCUSTCORE
 90
        1
280
     0
281
     0
  0
CLASS
  1
ZWMELEVSYMSTD
  2
ZwmElevSymStd
  3
ZWMCUSTCORE
 90
        1
280
     0
281
     0
  0
CLASS
  1
ZWMBREAKSYMSTD
  2
ZwmBreakSymStd
  3
ZWMCUSTCORE
 90
        1
280
     0
281
     0
  0
CLASS
  1
ZWMHOLECHARTSTD
  2
ZwmHoleChartStd
  3
ZWMCUSTCORE
 90
        1
280
     0
281
     0
  0
CLASS
  1
ZWMBOMSTYLESTD
  2
ZwmBomStyleStd
  3
ZWMCUSTCORE
 90
        1
280
     0
281
     0
  0
CLASS
  1
ZWMTITLESTYLESTD
  2
ZwmTitleStyleStd
  3
ZWMCUSTCORE
 90
        1
280
     0
281
     0
  0
CLASS
  1
ZWMFRAMESTYLESTD
  2
ZwmFrameStyleStd
  3
ZWMCUSTCORE
 90
        1
280
     0
281
     0
  0
CLASS
  1
ACDBPLACEHOLDER
  2
AcDbPlaceHolder
  3
ObjectDBX Classes
 90
    32768
280
     0
281
     0
  0
CLASS
  1
LAYOUT
  2
AcDbLayout
  3
ObjectDBX Classes
 90
    32768
280
     0
281
     0
  0
CLASS
  1
ACDBPLACEHOLDER
  2
AcDbPlaceHolder
  3
ObjectDBX Classes
 90
    32768
280
     0
281
     0
  0
CLASS
  1
LAYOUT
  2
AcDbLayout
  3
ObjectDBX Classes
 90
    32768
280
     0
281
     0
  0
CLASS
  1
ACDBPLACEHOLDER
  2
AcDbPlaceHolder
  3
ObjectDBX Classes
 90
    32768
280
     0
281
     0
  0
CLASS
  1
LAYOUT
  2
AcDbLayout
  3
ObjectDBX Classes
 90
    32768
280
     0
281
     0
  0
CLASS
  1
ACDBPLACEHOLDER
  2
AcDbPlaceHolder
  3
ObjectDBX Classes
 90
    32768
280
     0
281
     0
  0
CLASS
  1
LAYOUT
  2
AcDbLayout
  3
ObjectDBX Classes
 90
    32768
280
     0
281
     0
  0
CLASS
  1
ACDBPLACEHOLDER
  2
AcDbPlaceHolder
  3
ObjectDBX Classes
 90
    32768
280
     0
281
     0
  0
CLASS
  1
LAYOUT
  2
AcDbLayout
  3
ObjectDBX Classes
 90
    32768
280
     0
281
     0
  0
CLASS
  1
ACDBPLACEHOLDER
  2
AcDbPlaceHolder
  3
ObjectDBX Classes
 90
    32768
280
     0
281
     0
  0
CLASS
  1
LAYOUT
  2
AcDbLayout
  3
ObjectDBX Classes
 90
    32768
280
     0
281
     0
  0
CLASS
  1
ACDBPLACEHOLDER
  2
AcDbPlaceHolder
  3
ObjectDBX Classes
 90
    32768
280
     0
281
     0
  0
CLASS
  1
LAYOUT
  2
AcDbLayout
  3
ObjectDBX Classes
 90
    32768
280
     0
281
     0
  0
CLASS
  1
ACDBPLACEHOLDER
  2
AcDbPlaceHolder
  3
ObjectDBX Classes
 90
    32768
280
     0
281
     0
  0
CLASS
  1
LAYOUT
  2
AcDbLayout
  3
ObjectDBX Classes
 90
    32768
280
     0
281
     0
  0
CLASS
  1
ACDBPLACEHOLDER
  2
AcDbPlaceHolder
  3
ObjectDBX Classes
 90
    32768
280
     0
281
     0
  0
CLASS
  1
LAYOUT
  2
AcDbLayout
  3
ObjectDBX Classes
 90
    32768
280
     0
281
     0
  0
CLASS
  1
ACDBPLACEHOLDER
  2
AcDbPlaceHolder
  3
ObjectDBX Classes
 90
    32768
280
     0
281
     0
  0
CLASS
  1
LAYOUT
  2
AcDbLayout
  3
ObjectDBX Classes
 90
    32768
280
     0
281
     0
  0
CLASS
  1
ACDBPLACEHOLDER
  2
AcDbPlaceHolder
  3
ObjectDBX Classes
 90
    32768
280
     0
281
     0
  0
CLASS
  1
LAYOUT
  2
AcDbLayout
  3
ObjectDBX Classes
 90
    32768
280
     0
281
     0
  0
CLASS
  1
ACDBPLACEHOLDER
  2
AcDbPlaceHolder
  3
ObjectDBX Classes
 90
    32768
280
     0
281
     0
  0
CLASS
  1
LAYOUT
  2
AcDbLayout
  3
ObjectDBX Classes
 90
    32768
280
     0
281
     0
  0
CLASS
  1
ACDBPLACEHOLDER
  2
AcDbPlaceHolder
  3
ObjectDBX Classes
 90
    32768
280
     0
281
     0
  0
CLASS
  1
LAYOUT
  2
AcDbLayout
  3
ObjectDBX Classes
 90
    32768
280
     0
281
     0
  0
CLASS
  1
ACDBPLACEHOLDER
  2
AcDbPlaceHolder
  3
ObjectDBX Classes
 90
    32768
280
     0
281
     0
  0
CLASS
  1
LAYOUT
  2
AcDbLayout
  3
ObjectDBX Classes
 90
    32768
280
     0
281
     0
  0
CLASS
  1
ACDBPLACEHOLDER
  2
AcDbPlaceHolder
  3
ObjectDBX Classes
 90
    32768
280
     0
281
     0
  0
CLASS
  1
LAYOUT
  2
AcDbLayout
  3
ObjectDBX Classes
 90
    32768
280
     0
281
     0
  0
CLASS
  1
ACDBPLACEHOLDER
  2
AcDbPlaceHolder
  3
ObjectDBX Classes
 90
    32768
280
     0
281
     0
  0
CLASS
  1
LAYOUT
  2
AcDbLayout
  3
ObjectDBX Classes
 90
    32768
280
     0
281
     0
  0
CLASS
  1
ACDBPLACEHOLDER
  2
AcDbPlaceHolder
  3
ObjectDBX Classes
 90
    32768
280
     0
281
     0
  0
CLASS
  1
LAYOUT
  2
AcDbLayout
  3
ObjectDBX Classes
 90
    32768
280
     0
281
     0
  0
CLASS
  1
ACDBPLACEHOLDER
  2
AcDbPlaceHolder
  3
ObjectDBX Classes
 90
    32768
280
     0
281
     0
  0
CLASS
  1
LAYOUT
  2
AcDbLayout
  3
ObjectDBX Classes
 90
    32768
280
     0
281
     0
  0
CLASS
  1
ACDBPLACEHOLDER
  2
AcDbPlaceHolder
  3
ObjectDBX Classes
 90
    32768
280
     0
281
     0
  0
CLASS
  1
LAYOUT
  2
AcDbLayout
  3
ObjectDBX Classes
 90
    32768
280
     0
281
     0
  0
CLASS
  1
ACDBPLACEHOLDER
  2
AcDbPlaceHolder
  3
ObjectDBX Classes
 90
    32768
280
     0
281
     0
  0
CLASS
  1
LAYOUT
  2
AcDbLayout
  3
ObjectDBX Classes
 90
    32768
280
     0
281
     0
  0
CLASS
  1
ACDBPLACEHOLDER
  2
AcDbPlaceHolder
  3
ObjectDBX Classes
 90
    32768
280
     0
281
     0
  0
CLASS
  1
LAYOUT
  2
AcDbLayout
  3
ObjectDBX Classes
 90
    32768
280
     0
281
     0
  0
CLASS
  1
ACDBPLACEHOLDER
  2
AcDbPlaceHolder
  3
ObjectDBX Classes
 90
    32768
280
     0
281
     0
  0
CLASS
  1
LAYOUT
  2
AcDbLayout
  3
ObjectDBX Classes
 90
    32768
280
     0
281
     0
  0
CLASS
  1
ACDBPLACEHOLDER
  2
AcDbPlaceHolder
  3
ObjectDBX Classes
 90
    32768
280
     0
281
     0
  0
CLASS
  1
LAYOUT
  2
AcDbLayout
  3
ObjectDBX Classes
 90
    32768
280
     0
281
     0
  0
CLASS
  1
ACDBPLACEHOLDER
  2
AcDbPlaceHolder
  3
ObjectDBX Classes
 90
    32768
280
     0
281
     0
  0
CLASS
  1
LAYOUT
  2
AcDbLayout
  3
ObjectDBX Classes
 90
    32768
280
     0
281
     0
  0
CLASS
  1
ACDBPLACEHOLDER
  2
AcDbPlaceHolder
  3
ObjectDBX Classes
 90
    32768
280
     0
281
     0
  0
CLASS
  1
LAYOUT
  2
AcDbLayout
  3
ObjectDBX Classes
 90
    32768
280
     0
281
     0
  0
CLASS
  1
ACDBPLACEHOLDER
  2
AcDbPlaceHolder
  3
ObjectDBX Classes
 90
    32768
280
     0
281
     0
  0
CLASS
  1
LAYOUT
  2
AcDbLayout
  3
ObjectDBX Classes
 90
    32768
280
     0
281
     0
  0
CLASS
  1
ACDBPLACEHOLDER
  2
AcDbPlaceHolder
  3
ObjectDBX Classes
 90
        0
280
     0
281
     0
  0
CLASS
  1
LAYOUT
  2
AcDbLayout
  3
ObjectDBX Classes
 90
        0
280
     0
281
     0
  0
ENDSEC
  0
SECTION
  2
TABLES
  0
TABLE
  2
VPORT
  5
8
102
{ACAD_XDICTIONARY
360
87B88
102
}
330
0
100
AcDbSymbolTable
 70
     1
  0
VPORT
  5
4A360
330
8
100
AcDbSymbolTableRecord
100
AcDbViewportTableRecord
  2
*Active
 70
     0
 10
0.0
 20
0.0
 11
1.0
 21
1.0
 12
20.36283485260174
 22
1.104312273283287
 13
0.0
 23
0.0
 14
1.0
 24
1.0
 15
1.0
 25
1.0
 16
0.0
 26
0.0
 36
1.0
 17
0.0
 27
0.0
 37
0.0
 40
114.6951797661142
 41
1.266816143497757
 42
50.0
 43
0.0
 44
0.0
 50
0.0
 51
0.0
 71
     0
 72
  1000
 73
     1
 74
     1
 75
     0
 76
     0
 77
     0
 78
     0
281
     0
 65
     1
110
0.0
120
0.0
130
0.0
111
1.0
121
0.0
131
0.0
112
0.0
122
1.0
132
0.0
 79
     0
146
0.0
1001
ACAD_NAV_VCDISPLAY
1070
     3
  0
ENDTAB
  0
TABLE
  2
LTYPE
  5
5
330
0
100
AcDbSymbolTable
 70
     6
  0
LTYPE
  5
14
330
5
100
AcDbSymbolTableRecord
100
AcDbLinetypeTableRecord
  2
ByBlock
 70
     0
  3

 72
    65
 73
     0
 40
0.0
  0
LTYPE
  5
15
330
5
100
AcDbSymbolTableRecord
100
AcDbLinetypeTableRecord
  2
ByLayer
 70
     0
  3

 72
    65
 73
     0
 40
0.0
  0
LTYPE
  5
16
330
5
100
AcDbSymbolTableRecord
100
AcDbLinetypeTableRecord
  2
Continuous
 70
     0
  3
Solid line
 72
    65
 73
     0
 40
0.0
  0
LTYPE
  5
4A76D
330
5
100
AcDbSymbolTableRecord
100
AcDbLinetypeTableRecord
  2
CENTER
 70
     0
  3
Center ____ _ ____ _ ____ _ ____ _ ____ _ ____
 72
    65
 73
     4
 40
50.8
 49
31.75
 74
     0
 49
-6.349999999999997
 74
     0
 49
6.349999999999997
 74
     0
 49
-6.349999999999997
 74
     0
  0
LTYPE
  5
4A76E
330
5
100
AcDbSymbolTableRecord
100
AcDbLinetypeTableRecord
  2
CENTER2
 70
     0
  3
Center (.5x) ___ _ ___ _ ___ _ ___ _ ___ _ ___
 72
    65
 73
     4
 40
28.575
 49
19.05
 74
     0
 49
-3.174999999999998
 74
     0
 49
3.174999999999998
 74
     0
 49
-3.174999999999998
 74
     0
  0
LTYPE
  5
4A76F
330
5
100
AcDbSymbolTableRecord
100
AcDbLinetypeTableRecord
  2
ACISOTGB
 70
     0
  3
ACISOTGB __ . . __ . .__ . . __ . .__ . . __ . 
 72
    65
 73
     6
 40
9.0
 49
4.0
 74
     0
 49
-1.0
 74
     0
 49
1.0
 74
     0
 49
-1.0
 74
     0
 49
1.0
 74
     0
 49
-1.0
 74
     0
  0
LTYPE
  5
4A770
330
5
100
AcDbSymbolTableRecord
100
AcDbLinetypeTableRecord
  2
ACISOTGL
 70
     0
  3
ACISOTGL __ __ __ __ __ __ __ __ __ __ __ __ __
 72
    65
 73
     2
 40
3.0
 49
2.0
 74
     0
 49
-1.0
 74
     0
  0
LTYPE
  5
4A771
330
5
100
AcDbSymbolTableRecord
100
AcDbLinetypeTableRecord
  2
ACISOWELD
 70
     0
  3
ACISOWELD __ __ __ __ __ __ __ __ __ __ __ __ _
 72
    65
 73
     2
 40
3.0
 49
2.0
 74
     0
 49
-1.0
 74
     0
  0
ENDTAB
  0
TABLE
  2
LAYER
  5
2
102
{ACAD_XDICTIONARY
360
E2
102
}
330
0
100
AcDbSymbolTable
 70
    12
  0
LAYER
  5
10
102
{ACAD_XDICTIONARY
360
4A86C
102
}
330
2
100
AcDbSymbolTableRecord
100
AcDbLayerTableRecord
  2
0
 70
     0
 62
     7
  6
Continuous
370
    -3
390
F
  0
LAYER
  5
31B6
330
2
100
AcDbSymbolTableRecord
100
AcDbLayerTableRecord
  2
Defpoints
 70
     0
 62
     7
  6
Continuous
290
     0
370
    -3
390
F
  0
LAYER
  5
4A772
102
{ACAD_XDICTIONARY
360
4A773
102
}
330
2
100
AcDbSymbolTableRecord
100
AcDbLayerTableRecord
  2
1
 70
     0
 62
     4
  6
Continuous
370
    50
390
F
1001
AcAecLayerStandard
1000

1000
Contour
  0
LAYER
  5
4A774
102
{ACAD_XDICTIONARY
360
4A775
102
}
330
2
100
AcDbSymbolTableRecord
100
AcDbLayerTableRecord
  2
2
 70
     0
 62
     7
  6
Continuous
370
    25
390
F
1001
AcAecLayerStandard
1000

1000
Dimension milling
  0
LAYER
  5
4A776
102
{ACAD_XDICTIONARY
360
4A777
102
}
330
2
100
AcDbSymbolTableRecord
100
AcDbLayerTableRecord
  2
4
 70
     0
 62
     2
  6
CENTER2
370
    25
390
F
1001
AcAecLayerStandard
1000

1000
Center line
  0
LAYER
  5
4A778
102
{ACAD_XDICTIONARY
360
4A779
102
}
330
2
100
AcDbSymbolTableRecord
100
AcDbLayerTableRecord
  2
cut
 70
     0
 62
     1
  6
Continuous
370
    25
390
F
1001
AcAecLayerStandard
1000

1000
contour
  0
LAYER
  5
4A77A
102
{ACAD_XDICTIONARY
360
4A77B
102
}
330
2
100
AcDbSymbolTableRecord
100
AcDbLayerTableRecord
  2
nocut
 70
     0
 62
     7
  6
Continuous
370
    25
390
F
1001
AcAecLayerStandard
1000

1000
contour
  0
LAYER
  5
4A77C
102
{ACAD_XDICTIONARY
360
4A77D
102
}
330
2
100
AcDbSymbolTableRecord
100
AcDbLayerTableRecord
  2
sk1
 70
     0
 62
     4
  6
Continuous
370
    50
390
F
1001
AcAecLayerStandard
1000

1000
sk1 Contour
  0
LAYER
  5
4A77E
102
{ACAD_XDICTIONARY
360
4A77F
102
}
330
2
100
AcDbSymbolTableRecord
100
AcDbLayerTableRecord
  2
sk2
 70
     0
 62
     7
  6
Continuous
370
    25
390
F
1001
AcAecLayerStandard
1000

1000
sk2 dimension
  0
LAYER
  5
4A780
102
{ACAD_XDICTIONARY
360
4A781
102
}
330
2
100
AcDbSymbolTableRecord
100
AcDbLayerTableRecord
  2
sk4
 70
     0
 62
     2
  6
CENTER2
370
    25
390
F
1001
AcAecLayerStandard
1000

1000
sk4 center line
  0
LAYER
  5
4A782
102
{ACAD_XDICTIONARY
360
4A783
102
}
330
2
100
AcDbSymbolTableRecord
100
AcDbLayerTableRecord
  2
sk6
 70
     0
 62
     5
  6
Continuous
370
    35
390
F
1001
AcAecLayerStandard
1000

1000
sk6 text
  0
LAYER
  5
4A784
102
{ACAD_XDICTIONARY
360
4A785
102
}
330
2
100
AcDbSymbolTableRecord
100
AcDbLayerTableRecord
  2
7
 70
     0
 62
     5
  6
Continuous
370
    -3
390
F
1001
AcAecLayerStandard
1000

1000
ハッチング
  0
ENDTAB
  0
TABLE
  2
STYLE
  5
3
330
0
100
AcDbSymbolTable
 70
     7
  0
STYLE
  5
11
330
3
100
AcDbSymbolTableRecord
100
AcDbTextStyleTableRecord
  2
Standard
 70
     0
 40
0.0
 41
1.0
 50
0.0
 71
     0
 42
2.5
  3
txt.shx
  4
@extfont2.shx
  0
STYLE
  5
24A
330
3
100
AcDbSymbolTableRecord
100
AcDbTextStyleTableRecord
  2
simplex
 70
     0
 40
3.5
 41
1.0
 50
0.0
 71
     0
 42
3.5
  3
txt.shx
  4

  0
ENDTAB
  0
TABLE
  2
VIEW
  5
6
330
0
100
AcDbSymbolTable
 70
     0
  0
ENDTAB
  0
TABLE
  2
UCS
  5
7
330
0
100
AcDbSymbolTable
 70
     0
  0
ENDTAB
  0
TABLE
  2
APPID
  5
9
330
0
100
AcDbSymbolTable
 70
    28
  0
APPID
  5
12
330
9
100
AcDbSymbolTableRecord
100
AcDbRegAppTableRecord
  2
ACAD
 70
     0
  0
APPID
  5
D2
330
9
100
AcDbSymbolTableRecord
100
AcDbRegAppTableRecord
  2
AcAecLayerStandard
 70
     0
  0
APPID
  5
E6
330
9
100
AcDbSymbolTableRecord
100
AcDbRegAppTableRecord
  2
ACAD_DSTYLE_DIMTEXT_FILL
 70
     0
  0
APPID
  5
4C84
330
9
100
AcDbSymbolTableRecord
100
AcDbRegAppTableRecord
  2
ACAD_EXEMPT_FROM_CAD_STANDARDS
 70
     0
  0
APPID
  5
3493E
330
9
100
AcDbSymbolTableRecord
100
AcDbRegAppTableRecord
  2
DCO15
 70
     0
  0
APPID
  5
3BAB0
330
9
100
AcDbSymbolTableRecord
100
AcDbRegAppTableRecord
  2
ACAD_DSTYLE_DIMEXT_ENABLED
 70
     0
  0
APPID
  5
3BAB1
330
9
100
AcDbSymbolTableRecord
100
AcDbRegAppTableRecord
  2
ACAD_DSTYLE_DIMEXT_LENGTH
 70
     0
  0
APPID
  5
3BEB4
330
9
100
AcDbSymbolTableRecord
100
AcDbRegAppTableRecord
  2
ACAUTHENVIRON
 70
     0
  0
APPID
  5
3BEB7
330
9
100
AcDbSymbolTableRecord
100
AcDbRegAppTableRecord
  2
AcDbDynamicBlockTrueName
 70
     0
  0
APPID
  5
3BEB8
330
9
100
AcDbSymbolTableRecord
100
AcDbRegAppTableRecord
  2
AcDbDynamicBlockGUID
 70
     0
  0
APPID
  5
3BEBA
330
9
100
AcDbSymbolTableRecord
100
AcDbRegAppTableRecord
  2
AcDbBlockRepETag
 70
     0
  0
APPID
  5
4A453
330
9
100
AcDbSymbolTableRecord
100
AcDbRegAppTableRecord
  2
ACAD_PSEXT
 70
     0
  0
APPID
  5
4A454
330
9
100
AcDbSymbolTableRecord
100
AcDbRegAppTableRecord
  2
AcadAnnotative
 70
     0
  0
APPID
  5
4A455
330
9
100
AcDbSymbolTableRecord
100
AcDbRegAppTableRecord
  2
ACAD_DSTYLE_DIMJAG
 70
     0
  0
APPID
  5
4A456
330
9
100
AcDbSymbolTableRecord
100
AcDbRegAppTableRecord
  2
ACAD_DSTYLE_DIMTALN
 70
     0
  0
APPID
  5
4A457
330
9
100
AcDbSymbolTableRecord
100
AcDbRegAppTableRecord
  2
ACAD_NAV_VCDISPLAY
 70
     0
  0
APPID
  5
4A787
330
9
100
AcDbSymbolTableRecord
100
AcDbRegAppTableRecord
  2
ACAD_DSTYLE_DIMINSPECT
 70
     0
  0
APPID
  5
4A788
330
9
100
AcDbSymbolTableRecord
100
AcDbRegAppTableRecord
  2
GENIUS_GENDTOL_13
 70
     0
  0
APPID
  5
4A789
330
9
100
AcDbSymbolTableRecord
100
AcDbRegAppTableRecord
  2
ZWMCAD_GENSTANDARDFRAME_13_
 70
     0
  0
APPID
  5
4A78A
330
9
100
AcDbSymbolTableRecord
100
AcDbRegAppTableRecord
  2
ZW_RECESS_XDATA
 70
     0
  0
APPID
  5
4A78B
330
9
100
AcDbSymbolTableRecord
100
AcDbRegAppTableRecord
  2
ZW_FAC_XDATA
 70
     0
  0
APPID
  5
4A78C
330
9
100
AcDbSymbolTableRecord
100
AcDbRegAppTableRecord
  2
ZW_FLC_XDATA
 70
     0
  0
APPID
  5
4A78D
330
9
100
AcDbSymbolTableRecord
100
AcDbRegAppTableRecord
  2
ZW_SUPERPART
 70
     0
  0
APPID
  5
4A78E
330
9
100
AcDbSymbolTableRecord
100
AcDbRegAppTableRecord
  2
ZW_SUPERSYMBOL
 70
     0
  0
APPID
  5
4A78F
330
9
100
AcDbSymbolTableRecord
100
AcDbRegAppTableRecord
  2
ZW_SUPERSHAFT
 70
     0
  0
APPID
  5
4A790
330
9
100
AcDbSymbolTableRecord
100
AcDbRegAppTableRecord
  2
ZWMCAD_GENFRAME_13_
 70
     0
  0
APPID
  5
4A791
330
9
100
AcDbSymbolTableRecord
100
AcDbRegAppTableRecord
  2
ACAD_MLEADERVER
 70
     0
  0
APPID
  5
4A792
330
9
100
AcDbSymbolTableRecord
100
AcDbRegAppTableRecord
  2
ACAD_DSTYLE_DIMRADIAL_EXTENSION
 70
     0
  0
ENDTAB
  0
TABLE
  2
DIMSTYLE
  5
A
330
0
100
AcDbSymbolTable
 70
    16
100
AcDbDimStyleTable
 71
    19
340
1BF
340
3527
340
87A67
340
87A68
340
87A69
340
87A6A
340
87A6B
340
87A6C
340
87A6D
340
87A6E
340
87AD3
340
87AD4
340
87AD5
340
87AD6
340
87AD7
340
87AD8
340
87AD9
340
87ADA
340
A9AE1
  0
DIMSTYLE
105
1BF
102
{ACAD_REACTORS
330
C2307
330
C2303
330
C2302
330
C2301
330
C2306
330
C2305
330
C2304
102
}
330
A
100
AcDbSymbolTableRecord
100
AcDbDimStyleTableRecord
  2
コピー - ISO-25
 70
     0
 40
0.0
 41
3.5
 42
0.0
 44
1.5
 73
     0
 74
     0
 77
     1
 78
     8
140
3.5
147
2.299999999999998
176
   256
177
   256
271
     2
178
   256
271
     2
272
     2
284
     8
340
24A
371
    -1
372
    -1
  0
DIMSTYLE
105
3527
330
A
100
AcDbSymbolTableRecord
100
AcDbDimStyleTableRecord
  2
STANDARD
 70
     0
 41
3.0
 47
0.001
 48
0.001
 71
     1
 73
     0
 74
     0
 77
     1
 78
     8
140
4.0
271
     3
272
     3
284
     8
340
11
341
34B1
342
34B1
343
34B1
344
34B1
  0
ENDTAB
  0
TABLE
  2
BLOCK_RECORD
  5
1
330
0
100
AcDbSymbolTable
 70
   108
  0
BLOCK_RECORD
  5
1F
102
{ACAD_XDICTIONARY
360
31EE
102
}
330
1
100
AcDbSymbolTableRecord
100
AcDbBlockTableRecord
  2
*Model_Space
340
22
  0
BLOCK_RECORD
  5
55
330
1
100
AcDbSymbolTableRecord
100
AcDbBlockTableRecord
  2
*Paper_Space
340
56
  0
BLOCK_RECORD
  5
50
330
1
100
AcDbSymbolTableRecord
100
AcDbBlockTableRecord
  2
*Paper_Space0000000000000000000000000000
340
51
  0
BLOCK_RECORD
  5
34B1
330
1
100
AcDbSymbolTableRecord
100
AcDbBlockTableRecord
  2
_OPEN
340
0
  0
BLOCK_RECORD
  5
4A6D6
102
{ACAD_XDICTIONARY
360
4A6D7
102
}
330
1
100
AcDbSymbolTableRecord
100
AcDbBlockTableRecord
  2
zero block
340
0
102
{BLKREFS
331
4A793
331
9FE44
331
9FF03
102
}
1001
AcDbDynamicBlockGUID
1000
{A89DF4EB-B2CB-439E-AC69-1EAC9F242D1C}
1001
AcDbBlockRepETag
1070
     1
1071
        7
1001
ACAD
1000
DesignCenter Data
1002
{
1070
     1
1070
     4
1002
}
  0
BLOCK_RECORD
  5
C2322
330
1
100
AcDbSymbolTableRecord
100
AcDbBlockTableRecord
  2
*D101
340
0
  0
BLOCK_RECORD
  5
C232F
330
1
100
AcDbSymbolTableRecord
100
AcDbBlockTableRecord
  2
*D102
340
0
  0
BLOCK_RECORD
  5
C233E
330
1
100
AcDbSymbolTableRecord
100
AcDbBlockTableRecord
  2
*D103
340
0
  0
BLOCK_RECORD
  5
C234B
330
1
100
AcDbSymbolTableRecord
100
AcDbBlockTableRecord
  2
*D104
340
0
  0
BLOCK_RECORD
  5
C2358
330
1
100
AcDbSymbolTableRecord
100
AcDbBlockTableRecord
  2
*D105
340
0
  0
BLOCK_RECORD
  5
C2364
330
1
100
AcDbSymbolTableRecord
100
AcDbBlockTableRecord
  2
*D106
340
0
  0
BLOCK_RECORD
  5
C2370
330
1
100
AcDbSymbolTableRecord
100
AcDbBlockTableRecord
  2
*D107
340
0
  0
ENDTAB
  0
ENDSEC
  0
SECTION
  2
BLOCKS
  0
BLOCK
  5
20
330
1F
100
AcDbEntity
  8
0
100
AcDbBlockBegin
  2
*Model_Space
 70
     0
 10
0.0
 20
0.0
 30
0.0
  3
*Model_Space
  1

  0
ENDBLK
  5
21
330
1F
100
AcDbEntity
  8
0
100
AcDbBlockEnd
  0
BLOCK
  5
57
330
55
100
AcDbEntity
 67
     1
  8
0
100
AcDbBlockBegin
  2
*Paper_Space
 70
     0
 10
0.0
 20
0.0
 30
0.0
  3
*Paper_Space
  1

  0
ENDBLK
  5
58
330
55
100
AcDbEntity
 67
     1
  8
0
100
AcDbBlockEnd
  0
BLOCK
  5
52
330
50
100
AcDbEntity
  8
0
100
AcDbBlockBegin
  2
*Paper_Space0000000000000000000000000000
 70
     0
 10
0.0
 20
0.0
 30
0.0
  3
*Paper_Space0000000000000000000000000000
  1

  0
VIEWPORT
  5
6B
102
{ACAD_XDICTIONARY
360
87699
102
}
330
50
100
AcDbEntity
  8
0
100
AcDbViewport
 10
264.3775031494645
 20
160.4455827878762
 30
0.0
 40
567.6219612953822
 41
282.2272140146125
 68
     1
 69
    -1
 12
264.3775031494645
 22
160.4455827878762
 13
0.0
 23
0.0
 14
10.0
 24
10.0
 15
10.0
 25
10.0
 16
0.0
 26
0.0
 36
1.0
 17
0.0
 27
0.0
 37
0.0
 42
50.0
 43
0.0
 44
0.0
 45
282.2272140146125
 50
0.0
 51
0.0
 72
  1000
 90
    32864
  1

281
     0
 71
     1
 74
     0
110
0.0
120
0.0
130
0.0
111
1.0
121
0.0
131
0.0
112
0.0
122
1.0
132
0.0
 79
     0
146
0.0
  0
VIEWPORT
  5
6D
102
{ACAD_XDICTIONARY
360
8769B
102
}
330
50
100
AcDbEntity
  8
0
100
AcDbViewport
 10
133.3499939441681
 20
101.5999939441681
 30
0.0
 40
213.3599903106689
 41
162.5599903106689
 68
     2
 69
    -1
 12
210.0
 22
148.5
 13
0.0
 23
0.0
 14
10.0
 24
10.0
 15
10.0
 25
10.0
 16
0.0
 26
0.0
 36
1.0
 17
0.0
 27
0.0
 37
0.0
 42
50.0
 43
0.0
 44
0.0
 45
324.0677920111345
 50
0.0
 51
0.0
 72
   100
 90
    32864
  1

281
     0
 71
     1
 74
     0
110
0.0
120
0.0
130
0.0
111
1.0
121
0.0
131
0.0
112
0.0
122
1.0
132
0.0
 79
     0
146
0.0
  0
ENDBLK
  5
53
330
50
100
AcDbEntity
  8
0
100
AcDbBlockEnd
  0
BLOCK
  5
34B2
330
34B1
100
AcDbEntity
  8
0
100
AcDbBlockBegin
  2
_OPEN
 70
     0
 10
0.0
 20
0.0
 30
0.0
  3
_OPEN
  1

  0
LINE
  5
34B3
330
34B1
100
AcDbEntity
  8
0
  6
ByBlock
 62
     0
100
AcDbLine
 10
0.0
 20
0.0
 30
0.0
 11
-1.0
 21
0.1766666667
 31
0.0
  0
LINE
  5
34B4
330
34B1
100
AcDbEntity
  8
0
  6
ByBlock
 62
     0
100
AcDbLine
 10
-1.0
 20
-0.1766666667
 30
0.0
 11
0.0
 21
0.0
 31
0.0
  0
LINE
  5
34B5
330
34B1
100
AcDbEntity
  8
0
  6
ByBlock
 62
     0
100
AcDbLine
 10
-1.0
 20
0.0
 30
0.0
 11
0.0
 21
0.0
 31
0.0
  0
ENDBLK
  5
34B6
330
34B1
100
AcDbEntity
  8
0
  6
ByBlock
 62
     0
100
AcDbBlockEnd
  0
BLOCK
  5
4A6D9
330
4A6D6
100
AcDbEntity
  8
0
100
AcDbBlockBegin
  2
zero block
 70
     0
 10
0.0
 20
0.0
 30
0.0
  3
zero block
  1

  0
HATCH
  5
4A6DA
330
4A6D6
100
AcDbEntity
  8
0
 62
     7
100
AcDbHatch
 10
0.0
 20
0.0
 30
0.0
210
0.0
220
0.0
230
1.0
  2
SOLID
 70
     1
 71
     0
 91
        2
 92
        7
 72
     1
 73
     1
 93
        3
 10
0.0
 20
0.9999999999999875
 42
0.4142135623730915
 10
-1.0
 20
0.0
 42
0.0
 10
0.0
 20
0.0
 42
0.0
 97
        0
 92
        7
 72
     1
 73
     1
 93
        3
 10
1.000000000000007
 20
0.0
 42
0.0
 10
0.0
 20
0.0
 42
0.0
 10
0.0
 20
-1.0
 42
0.4142135623730974
 97
        0
 75
     0
 76
     1
 47
0.0090601366782909
 98
        2
 10
-0.380591363650975
 20
0.4885804701532896
 10
0.4350764810977559
 20
-0.4536738423704725
1001
AcDbBlockRepETag
1070
     1
1071
        0
1005
4A6DA
  0
LINE
  5
4A6DB
330
4A6D6
100
AcDbEntity
  8
0
 62
     7
 48
0.2
100
AcDbLine
 10
-1.0
 20
0.0
 30
0.0
 11
1.000000000000007
 21
0.0
 31
0.0
1001
AcDbBlockRepETag
1070
     1
1071
        1
1005
4A6DB
  0
LINE
  5
4A6DC
330
4A6D6
100
AcDbEntity
  8
0
 62
     7
 48
0.2
100
AcDbLine
 10
0.0
 20
-1.0
 30
0.0
 11
0.0
 21
0.9999999999999875
 31
0.0
1001
AcDbBlockRepETag
1070
     1
1071
        2
1005
4A6DC
  0
ARC
  5
4A6DD
330
4A6D6
100
AcDbEntity
  8
0
 62
     7
 48
0.2
100
AcDbCircle
 10
0.0
 20
0.0
 30
0.0
 40
1.0
100
AcDbArc
 50
270.0
 51
0.0
1001
AcDbBlockRepETag
1070
     1
1071
        3
1005
4A6DD
  0
ARC
  5
4A6DE
330
4A6D6
100
AcDbEntity
  8
0
 62
     7
 48
0.2
100
AcDbCircle
 10
0.0
 20
0.0
 30
0.0
 40
1.0
100
AcDbArc
 50
0.0
 51
90.0
1001
AcDbBlockRepETag
1070
     1
1071
        4
1005
4A6DE
  0
ARC
  5
4A6DF
330
4A6D6
100
AcDbEntity
  8
0
 62
     7
 48
0.2
100
AcDbCircle
 10
0.0
 20
0.0
 30
0.0
 40
1.0
100
AcDbArc
 50
180.0
 51
270.0
1001
AcDbBlockRepETag
1070
     1
1071
        5
1005
4A6DF
  0
ARC
  5
4A6E0
330
4A6D6
100
AcDbEntity
  8
0
 62
     7
 48
0.2
100
AcDbCircle
 10
0.0
 20
0.0
 30
0.0
 40
1.0
100
AcDbArc
 50
90.0
 51
180.0
1001
AcDbBlockRepETag
1070
     1
1071
        6
1005
4A6E0
  0
ENDBLK
  5
4A6E1
330
4A6D6
100
AcDbEntity
  8
0
100
AcDbBlockEnd
  0
BLOCK
  5
C232D
330
C2322
100
AcDbEntity
  8
0
100
AcDbBlockBegin
  2
*D101
 70
     1
 10
0.0
 20
0.0
 30
0.0
  3
*D101
  1

  0
LINE
  5
C25A4
330
C2322
100
AcDbEntity
  8
2
100
AcDbLine
 10
42.00000000000001
 20
3.0
 30
0.0
 11
56.5
 21
2.999999999999997
 31
0.0
  0
LINE
  5
C25A5
330
C2322
100
AcDbEntity
  8
2
100
AcDbLine
 10
42.00000000000001
 20
-3.0
 30
0.0
 11
56.5
 21
-3.000000000000002
 31
0.0
  0
LINE
  5
C25A6
330
C2322
100
AcDbEntity
  8
2
100
AcDbLine
 10
55.0
 20
6.499999999999998
 30
0.0
 11
55.0
 21
20.43333333333333
 31
0.0
  0
LINE
  5
C25A7
330
C2322
100
AcDbEntity
  8
2
100
AcDbLine
 10
55.0
 20
-6.500000000000001
 30
0.0
 11
55.0
 21
-10.0
 31
0.0
  0
SOLID
  5
C25A8
330
C2322
100
AcDbEntity
  8
2
100
AcDbTrace
 10
54.41666666666666
 20
6.499999999999998
 30
0.0
 11
55.58333333333333
 21
6.499999999999998
 31
0.0
 12
55.0
 22
2.999999999999997
 32
0.0
 13
55.0
 23
2.999999999999997
 33
0.0
  0
SOLID
  5
C25A9
330
C2322
100
AcDbEntity
  8
2
100
AcDbTrace
 10
55.58333333333333
 20
-6.500000000000001
 30
0.0
 11
54.41666666666666
 21
-6.500000000000001
 31
0.0
 12
55.0
 22
-3.000000000000002
 32
0.0
 13
55.0
 23
-3.000000000000002
 33
0.0
  0
MTEXT
  5
C25AA
330
C2322
100
AcDbEntity
  8
2
100
AcDbMText
 10
48.03333333333333
 20
12.29999999999999
 30
0.0
 40
3.5
 41
0.0
 71
     1
 72
     1
  1
\A1;%%c6
  7
simplex
 11
0.0
 21
1.0
 31
0.0
 73
     2
 44
0.9
1001
ACAD
1000
MTEXTBEGIN
1070
    73
1070
     2
1070
    44
1040
0.9
1070
    74
1070
     0
1000
MTEXTEND
  0
POINT
  5
C25AB
330
C2322
100
AcDbEntity
  8
Defpoints
 62
     0
100
AcDbPoint
 10
42.00000000000001
 20
3.0
 30
0.0
  0
POINT
  5
C25AC
330
C2322
100
AcDbEntity
  8
Defpoints
 62
     0
100
AcDbPoint
 10
42.00000000000001
 20
-3.0
 30
0.0
  0
POINT
  5
C25AD
330
C2322
100
AcDbEntity
  8
Defpoints
 62
     0
100
AcDbPoint
 10
55.0
 20
-3.000000000000002
 30
0.0
  0
ENDBLK
  5
C232E
330
C2322
100
AcDbEntity
  8
0
100
AcDbBlockEnd
  0
BLOCK
  5
C233C
330
C232F
100
AcDbEntity
  8
0
100
AcDbBlockBegin
  2
*D102
 70
     1
 10
0.0
 20
0.0
 30
0.0
  3
*D102
  1

  0
LINE
  5
C25CA
330
C232F
100
AcDbEntity
  8
2
100
AcDbLine
 10
39.00000000000001
 20
3.0
 30
0.0
 11
29.27268187326614
 21
12.72731812673386
 31
0.0
  0
LINE
  5
C25CB
330
C232F
100
AcDbEntity
  8
2
100
AcDbLine
 10
42.00000000000001
 20
0.0
 30
0.0
 11
24.00085409253605
 21
0.0
 31
0.0
  0
ARC
  5
C25CC
330
C232F
100
AcDbEntity
  8
2
100
AcDbCircle
 10
42.00000000000001
 20
0.0
 30
0.0
 40
16.49914590746396
100
AcDbArc
 50
147.1771848013297
 51
167.8228151986703
  0
SOLID
  5
C25CD
330
C232F
100
AcDbEntity
  8
2
100
AcDbTrace
 10
28.58883129588186
 20
8.576842422623887
 30
0.0
 11
27.68102683940528
 21
9.309646748424686
 31
0.0
 12
30.33334204504597
 22
11.66665795495404
 32
0.0
 13
30.33334204504597
 23
11.66665795495404
 33
0.0
  0
SOLID
  5
C25CE
330
C232F
100
AcDbEntity
  8
2
100
AcDbTrace
 10
25.29204263225292
 20
3.542128675222316
 30
0.0
 11
26.45212822747546
 21
3.418384896112935
 31
0.0
 12
25.50085409253604
 22
0.0
 32
0.0
 13
25.50085409253604
 23
0.0
 33
0.0
  0
MTEXT
  5
C25CF
330
C232F
100
AcDbEntity
  8
2
100
AcDbMText
 10
21.07812352218479
 20
10.62635612104495
 30
0.0
 40
3.5
 41
0.0
 71
     2
 72
     1
  1
\A1;45%%d
  7
simplex
 11
0.4528441573235671
 21
0.8915896865587377
 31
0.0
 73
     2
 44
0.9
1001
ACAD
1000
MTEXTBEGIN
1070
    73
1070
     2
1070
    44
1040
0.9
1070
    74
1070
     0
1000
MTEXTEND
  0
POINT
  5
C25D0
330
C232F
100
AcDbEntity
  8
Defpoints
 62
     0
100
AcDbPoint
 10
26.06304885626898
 20
4.270293188776985
 30
0.0
  0
POINT
  5
C25D1
330
C232F
100
AcDbEntity
  8
Defpoints
 62
     0
100
AcDbPoint
 10
42.1860611633
 20
0.0
 30
0.0
  0
POINT
  5
C25D2
330
C232F
100
AcDbEntity
  8
Defpoints
 62
     0
100
AcDbPoint
 10
39.13156511029999
 20
2.868434889700012
 30
0.0
  0
POINT
  5
C25D3
330
C232F
100
AcDbEntity
  8
Defpoints
 62
     0
100
AcDbPoint
 10
39.00000000000001
 20
3.0
 30
0.0
  0
POINT
  5
C25D4
330
C232F
100
AcDbEntity
  8
Defpoints
 62
     0
100
AcDbPoint
 10
42.00000000000001
 20
0.0
 30
0.0
  0
ENDBLK
  5
C233D
330
C232F
100
AcDbEntity
  8
0
100
AcDbBlockEnd
  0
BLOCK
  5
C2349
330
C233E
100
AcDbEntity
  8
0
100
AcDbBlockBegin
  2
*D103
 70
     1
 10
0.0
 20
0.0
 30
0.0
  3
*D103
  1

  0
LINE
  5
C258E
330
C233E
100
AcDbEntity
  8
2
100
AcDbLine
 10
29.00000000000001
 20
-3.0
 30
0.0
 11
29.00000000000001
 21
-26.48257077072622
 31
0.0
  0
LINE
  5
C258F
330
C233E
100
AcDbEntity
  8
2
100
AcDbLine
 10
42.00000000000001
 20
-3.0
 30
0.0
 11
42.00000000000001
 21
-26.48257077072622
 31
0.0
  0
LINE
  5
C2590
330
C233E
100
AcDbEntity
  8
2
100
AcDbLine
 10
42.00000000000001
 20
-24.98257077072622
 30
0.0
 11
69.93333333333334
 21
-24.98257077072622
 31
0.0
  0
LINE
  5
C2591
330
C233E
100
AcDbEntity
  8
2
100
AcDbLine
 10
32.50000000000001
 20
-24.98257077072622
 30
0.0
 11
38.50000000000001
 21
-24.98257077072622
 31
0.0
  0
SOLID
  5
C2592
330
C233E
100
AcDbEntity
  8
2
100
AcDbTrace
 10
32.50000000000001
 20
-24.39923743739289
 30
0.0
 11
32.50000000000001
 21
-25.56590410405955
 31
0.0
 12
29.00000000000001
 22
-24.98257077072622
 32
0.0
 13
29.00000000000001
 23
-24.98257077072622
 33
0.0
  0
SOLID
  5
C2593
330
C233E
100
AcDbEntity
  8
2
100
AcDbTrace
 10
38.50000000000001
 20
-25.56590410405955
 30
0.0
 11
38.50000000000001
 21
-24.39923743739289
 31
0.0
 12
42.00000000000001
 22
-24.98257077072622
 32
0.0
 13
42.00000000000001
 23
-24.98257077072622
 33
0.0
  0
MTEXT
  5
C2594
330
C233E
100
AcDbEntity
  8
2
100
AcDbMText
 10
47.8
 20
-18.01590410405956
 30
0.0
 40
3.5
 41
0.0
 71
     1
 72
     1
  1
\A1;13(MAX)
  7
simplex
 73
     2
 44
0.9
1001
ACAD
1000
MTEXTBEGIN
1070
    73
1070
     2
1070
    44
1040
0.9
1070
    74
1070
     0
1000
MTEXTEND
  0
POINT
  5
C2595
330
C233E
100
AcDbEntity
  8
Defpoints
 62
     0
100
AcDbPoint
 10
29.00000000000001
 20
-3.0
 30
0.0
  0
POINT
  5
C2596
330
C233E
100
AcDbEntity
  8
Defpoints
 62
     0
100
AcDbPoint
 10
42.00000000000001
 20
-3.0
 30
0.0
  0
POINT
  5
C2597
330
C233E
100
AcDbEntity
  8
Defpoints
 62
     0
100
AcDbPoint
 10
42.00000000000001
 20
-24.98257077072622
 30
0.0
  0
ENDBLK
  5
C234A
330
C233E
100
AcDbEntity
  8
0
100
AcDbBlockEnd
  0
BLOCK
  5
C2356
330
C234B
100
AcDbEntity
  8
0
100
AcDbBlockBegin
  2
*D104
 70
     1
 10
0.0
 20
0.0
 30
0.0
  3
*D104
  1

  0
LINE
  5
C25C0
330
C234B
100
AcDbEntity
  8
sk2
100
AcDbLine
 10
-17.7040745697
 20
-3.0
 30
0.0
 11
-26.5
 21
-2.999999999999999
 31
0.0
  0
LINE
  5
C25C1
330
C234B
100
AcDbEntity
  8
sk2
100
AcDbLine
 10
-17.7040745697
 20
3.0
 30
0.0
 11
-26.5
 21
3.0
 31
0.0
  0
LINE
  5
C25C2
330
C234B
100
AcDbEntity
  8
sk2
100
AcDbLine
 10
-25.0
 20
-6.5
 30
0.0
 11
-25.0
 21
-10.0
 31
0.0
  0
LINE
  5
C25C3
330
C234B
100
AcDbEntity
  8
sk2
100
AcDbLine
 10
-25.0
 20
6.5
 30
0.0
 11
-25.0
 21
10.0
 31
0.0
  0
SOLID
  5
C25C4
330
C234B
100
AcDbEntity
  8
sk2
100
AcDbTrace
 10
-24.41666666666666
 20
-6.5
 30
0.0
 11
-25.58333333333333
 21
-6.5
 31
0.0
 12
-25.0
 22
-2.999999999999999
 32
0.0
 13
-25.0
 23
-2.999999999999999
 33
0.0
  0
SOLID
  5
C25C5
330
C234B
100
AcDbEntity
  8
sk2
100
AcDbTrace
 10
-25.58333333333333
 20
6.5
 30
0.0
 11
-24.41666666666666
 21
6.5
 31
0.0
 12
-25.0
 22
3.0
 32
0.0
 13
-25.0
 23
3.0
 33
0.0
  0
MTEXT
  5
C25C6
330
C234B
100
AcDbEntity
  8
sk2
100
AcDbMText
 10
-31.96666666666666
 20
-2.916666666666666
 30
0.0
 40
3.5
 41
0.0
 71
     1
 72
     1
  1
\A1;%%c6
  7
simplex
 11
0.0
 21
1.0
 31
0.0
 73
     2
 44
0.9
1001
ACAD
1000
MTEXTBEGIN
1070
    73
1070
     2
1070
    44
1040
0.9
1070
    74
1070
     0
1000
MTEXTEND
  0
POINT
  5
C25C7
330
C234B
100
AcDbEntity
  8
Defpoints
 62
     0
100
AcDbPoint
 10
-17.7040745697
 20
-3.0
 30
0.0
  0
POINT
  5
C25C8
330
C234B
100
AcDbEntity
  8
Defpoints
 62
     0
100
AcDbPoint
 10
-17.7040745697
 20
3.0
 30
0.0
  0
POINT
  5
C25C9
330
C234B
100
AcDbEntity
  8
Defpoints
 62
     0
100
AcDbPoint
 10
-25.0
 20
3.0
 30
0.0
  0
ENDBLK
  5
C2357
330
C234B
100
AcDbEntity
  8
0
100
AcDbBlockEnd
  0
BLOCK
  5
C2362
330
C2358
100
AcDbEntity
  8
0
100
AcDbBlockBegin
  2
*D105
 70
     1
 10
0.0
 20
0.0
 30
0.0
  3
*D105
  1

  0
LINE
  5
C25B7
330
C2358
100
AcDbEntity
  8
sk2
100
AcDbLine
 10
-18.0
 20
-2.704074569699997
 30
0.0
 11
-18.0
 21
-36.50000000000001
 31
0.0
  0
LINE
  5
C25B8
330
C2358
100
AcDbEntity
  8
sk2
100
AcDbLine
 10
42.00000000000001
 20
-3.0
 30
0.0
 11
42.00000000000001
 21
-36.50000000000001
 31
0.0
  0
LINE
  5
C25B9
330
C2358
100
AcDbEntity
  8
sk2
100
AcDbLine
 10
-14.5
 20
-35.00000000000001
 30
0.0
 11
38.50000000000001
 21
-35.00000000000001
 31
0.0
  0
SOLID
  5
C25BA
330
C2358
100
AcDbEntity
  8
sk2
100
AcDbTrace
 10
-14.5
 20
-34.41666666666667
 30
0.0
 11
-14.5
 21
-35.58333333333334
 31
0.0
 12
-18.0
 22
-35.00000000000001
 32
0.0
 13
-18.0
 23
-35.00000000000001
 33
0.0
  0
SOLID
  5
C25BB
330
C2358
100
AcDbEntity
  8
sk2
100
AcDbTrace
 10
38.50000000000001
 20
-35.58333333333334
 30
0.0
 11
38.50000000000001
 21
-34.41666666666667
 31
0.0
 12
42.00000000000001
 22
-35.00000000000001
 32
0.0
 13
42.00000000000001
 23
-35.00000000000001
 33
0.0
  0
MTEXT
  5
C25BC
330
C2358
100
AcDbEntity
  8
sk2
100
AcDbMText
 10
12.00000008059999
 20
-28.03333333333334
 30
0.0
 40
3.5
 41
0.0
 71
     2
 72
     1
  1
\A1;60
  7
simplex
 73
     2
 44
0.9
1001
ACAD
1000
MTEXTBEGIN
1070
    73
1070
     2
1070
    44
1040
0.9
1070
    74
1070
     0
1000
MTEXTEND
  0
POINT
  5
C25BD
330
C2358
100
AcDbEntity
  8
Defpoints
 62
     0
100
AcDbPoint
 10
-18.0
 20
-2.704074569699997
 30
0.0
  0
POINT
  5
C25BE
330
C2358
100
AcDbEntity
  8
Defpoints
 62
     0
100
AcDbPoint
 10
42.00000000000001
 20
-3.0
 30
0.0
  0
POINT
  5
C25BF
330
C2358
100
AcDbEntity
  8
Defpoints
 62
     0
100
AcDbPoint
 10
42.00000000000001
 20
-35.00000000000001
 30
0.0
  0
ENDBLK
  5
C2363
330
C2358
100
AcDbEntity
  8
0
100
AcDbBlockEnd
  0
BLOCK
  5
C236E
330
C2364
100
AcDbEntity
  8
0
100
AcDbBlockBegin
  2
*D106
 70
     1
 10
0.0
 20
0.0
 30
0.0
  3
*D106
  1

  0
LINE
  5
C25AE
330
C2364
100
AcDbEntity
  8
sk2
100
AcDbLine
 10
-18.0
 20
-2.704074569699997
 30
0.0
 11
-18.0
 21
-26.49999999999999
 31
0.0
  0
LINE
  5
C25AF
330
C2364
100
AcDbEntity
  8
sk2
100
AcDbLine
 10
29.00000000000001
 20
-3.0
 30
0.0
 11
29.00000000000001
 21
-26.49999999999999
 31
0.0
  0
LINE
  5
C25B0
330
C2364
100
AcDbEntity
  8
sk2
100
AcDbLine
 10
-14.5
 20
-25.0
 30
0.0
 11
25.50000000000001
 21
-25.0
 31
0.0
  0
SOLID
  5
C25B1
330
C2364
100
AcDbEntity
  8
sk2
100
AcDbTrace
 10
-14.5
 20
-24.41666666666666
 30
0.0
 11
-14.5
 21
-25.58333333333333
 31
0.0
 12
-18.0
 22
-25.0
 32
0.0
 13
-18.0
 23
-25.0
 33
0.0
  0
SOLID
  5
C25B2
330
C2364
100
AcDbEntity
  8
sk2
100
AcDbTrace
 10
25.50000000000001
 20
-25.58333333333333
 30
0.0
 11
25.50000000000001
 21
-24.41666666666666
 31
0.0
 12
29.00000000000001
 22
-25.0
 32
0.0
 13
29.00000000000001
 23
-25.0
 33
0.0
  0
MTEXT
  5
C25B3
330
C2364
100
AcDbEntity
  8
sk2
100
AcDbMText
 10
5.500000362800001
 20
-18.03333333333333
 30
0.0
 40
3.5
 41
0.0
 71
     2
 72
     1
  1
\A1;47
  7
simplex
 73
     2
 44
0.9
1001
ACAD
1000
MTEXTBEGIN
1070
    73
1070
     2
1070
    44
1040
0.9
1070
    74
1070
     0
1000
MTEXTEND
  0
POINT
  5
C25B4
330
C2364
100
AcDbEntity
  8
Defpoints
 62
     0
100
AcDbPoint
 10
-18.0
 20
-2.704074569699997
 30
0.0
  0
POINT
  5
C25B5
330
C2364
100
AcDbEntity
  8
Defpoints
 62
     0
100
AcDbPoint
 10
29.00000000000001
 20
-3.0
 30
0.0
  0
POINT
  5
C25B6
330
C2364
100
AcDbEntity
  8
Defpoints
 62
     0
100
AcDbPoint
 10
29.00000000000001
 20
-25.0
 30
0.0
  0
ENDBLK
  5
C236F
330
C2364
100
AcDbEntity
  8
0
100
AcDbBlockEnd
  0
BLOCK
  5
C237A
330
C2370
100
AcDbEntity
  8
0
100
AcDbBlockBegin
  2
*D107
 70
     1
 10
0.0
 20
0.0
 30
0.0
  3
*D107
  1

  0
LINE
  5
C2585
330
C2370
100
AcDbEntity
  8
2
100
AcDbLine
 10
42.00000000000001
 20
3.0
 30
0.0
 11
42.00000000000001
 21
21.5
 31
0.0
  0
LINE
  5
C2586
330
C2370
100
AcDbEntity
  8
2
100
AcDbLine
 10
0.0
 20
0.0000000000000062
 30
0.0
 11
0.0000000000000026
 21
21.50000000000001
 31
0.0
  0
LINE
  5
C2587
330
C2370
100
AcDbEntity
  8
2
100
AcDbLine
 10
38.50000000000001
 20
20.0
 30
0.0
 11
3.500000000000002
 21
20.00000000000001
 31
0.0
  0
SOLID
  5
C2588
330
C2370
100
AcDbEntity
  8
2
100
AcDbTrace
 10
38.50000000000001
 20
19.41666666666667
 30
0.0
 11
38.50000000000001
 21
20.58333333333333
 31
0.0
 12
42.00000000000001
 22
20.0
 32
0.0
 13
42.00000000000001
 23
20.0
 33
0.0
  0
SOLID
  5
C2589
330
C2370
100
AcDbEntity
  8
2
100
AcDbTrace
 10
3.500000000000002
 20
20.58333333333334
 30
0.0
 11
3.500000000000002
 21
19.41666666666667
 31
0.0
 12
0.0000000000000024
 22
20.00000000000001
 32
0.0
 13
0.0000000000000024
 23
20.00000000000001
 33
0.0
  0
MTEXT
  5
C258A
330
C2370
100
AcDbEntity
  8
2
100
AcDbMText
 10
20.99999942820001
 20
26.96666666666667
 30
0.0
 40
3.5
 41
0.0
 71
     2
 72
     1
  1
\A1;42
  7
simplex
 73
     2
 44
0.9
1001
ACAD
1000
MTEXTBEGIN
1070
    73
1070
     2
1070
    44
1040
0.9
1070
    74
1070
     0
1000
MTEXTEND
  0
POINT
  5
C258B
330
C2370
100
AcDbEntity
  8
Defpoints
 62
     0
100
AcDbPoint
 10
42.00000000000001
 20
3.0
 30
0.0
  0
POINT
  5
C258C
330
C2370
100
AcDbEntity
  8
Defpoints
 62
     0
100
AcDbPoint
 10
0.0
 20
0.0000000000000062
 30
0.0
  0
POINT
  5
C258D
330
C2370
100
AcDbEntity
  8
Defpoints
 62
     0
100
AcDbPoint
 10
0.0000000000000024
 20
20.00000000000001
 30
0.0
  0
ENDBLK
  5
C237B
330
C2370
100
AcDbEntity
  8
0
100
AcDbBlockEnd
  0
ENDSEC
  0
SECTION
  2
ENTITIES
  0
INSERT
  5
4A793
330
1F
100
AcDbEntity
  8
0
100
AcDbBlockReference
  2
zero block
 10
0.0
 20
0.0
 30
0.0
 50
180.0
  0
DIMENSION
  5
C2301
330
1F
100
AcDbEntity
  8
2
100
AcDbDimension
  2
*D101
 10
55.0
 20
-3.000000000000002
 30
0.0
 11
55.0
 21
15.21666666666666
 31
0.0
 70
   160
  1
%%c<>
 71
     1
 72
     2
 41
0.9
 42
6.0
  3
コピー - ISO-25
100
AcDbAlignedDimension
 13
42.00000000000001
 23
3.0
 33
0.0
 14
42.00000000000001
 24
-3.0
 34
0.0
 50
270.0
100
AcDbRotatedDimension
1001
ACAD
1000
DSTYLE
1002
{
1070
   171
1070
     3
1070
   143
1040
0.03937
1070
   285
1070
     4
1070
     4
1000
"
1070
   271
1070
     1
1070
    40
1040
1.0
1002
}
1001
ACAD_DSTYLE_DIMINSPECT
1070
   393
1070
     0
1070
   394
1070
     0
1070
   395
1000

1070
   396
1000

  0
DIMENSION
  5
C2302
330
1F
100
AcDbEntity
  8
2
100
AcDbDimension
  2
*D102
 10
42.00000000000001
 20
0.0
 30
0.0
 11
27.28953167187733
 21
7.471541825024097
 31
0.0
 70
   162
 71
     2
 72
     2
 41
0.9
 42
0.7853981633974483
  3
コピー - ISO-25
100
AcDb2LineAngularDimension
 13
39.13156511029999
 23
2.868434889700012
 33
0.0
 14
39.00000000000001
 24
3.0
 34
0.0
 15
42.1860611633
 25
0.0
 35
0.0
 16
26.06304885626898
 26
4.270293188776985
 36
0.0
1001
ACAD
1000
DSTYLE
1002
{
1070
   171
1070
     3
1070
   143
1040
0.03937
1070
   285
1070
     4
1070
     4
1000
"
1070
   271
1070
     1
1070
    40
1040
1.0
1002
}
1001
ACAD_DSTYLE_DIMINSPECT
1070
   393
1070
     0
1070
   394
1070
     0
1070
   395
1000

1070
   396
1000

  0
DIMENSION
  5
C2303
330
1F
100
AcDbEntity
  8
2
100
AcDbDimension
  2
*D103
 10
42.00000000000001
 20
-24.98257077072622
 30
0.0
 11
57.71666666666667
 21
-24.98257077072622
 31
0.0
 70
   160
  1
<>(MAX)
 71
     1
 72
     2
 41
0.9
 42
13.0
  3
コピー - ISO-25
100
AcDbAlignedDimension
 13
29.00000000000001
 23
-3.0
 33
0.0
 14
42.00000000000001
 24
-3.0
 34
0.0
 50
0.0
100
AcDbRotatedDimension
1001
ACAD
1000
DSTYLE
1002
{
1070
   171
1070
     3
1070
   143
1040
0.03937
1070
   285
1070
     4
1070
     4
1000
"
1070
   271
1070
     1
1070
    40
1040
1.0
1002
}
1001
ACAD_DSTYLE_DIMINSPECT
1070
   393
1070
     0
1070
   394
1070
     0
1070
   395
1000

1070
   396
1000

  0
DIMENSION
  5
C2304
330
1F
100
AcDbEntity
  8
sk2
100
AcDbDimension
  2
*D104
 10
-25.0
 20
3.0
 30
0.0
 11
-25.0
 21
0.0
 31
0.0
 70
   160
  1
%%c<>
 71
     1
 72
     2
 41
0.9
 42
6.0
  3
コピー - ISO-25
100
AcDbAlignedDimension
 13
-17.7040745697
 23
-3.0
 33
0.0
 14
-17.7040745697
 24
3.0
 34
0.0
 50
90.0
100
AcDbRotatedDimension
1001
ACAD
1000
DSTYLE
1002
{
1070
   271
1070
     1
1070
    40
1040
1.0
1002
}
1001
ACAD_DSTYLE_DIMINSPECT
1070
   393
1070
     0
1070
   394
1070
     1
1070
   395
1000

1070
   396
1000

  0
DIMENSION
  5
C2305
330
1F
100
AcDbEntity
  8
sk2
100
AcDbDimension
  2
*D105
 10
42.00000000000001
 20
-35.00000000000001
 30
0.0
 11
12.00000008059999
 21
-35.00000000000001
 31
0.0
 70
   160
 71
     2
 72
     2
 41
0.9
 42
60.0
  3
コピー - ISO-25
100
AcDbAlignedDimension
 13
-18.0
 23
-2.704074569699997
 33
0.0
 14
42.00000000000001
 24
-3.0
 34
0.0
 50
0.0
100
AcDbRotatedDimension
1001
ACAD
1000
DSTYLE
1002
{
1070
   271
1070
     1
1070
    40
1040
1.0
1002
}
1001
ACAD_DSTYLE_DIMINSPECT
1070
   393
1070
     0
1070
   394
1070
     1
1070
   395
1000

1070
   396
1000

  0
DIMENSION
  5
C2306
330
1F
100
AcDbEntity
  8
sk2
100
AcDbDimension
  2
*D106
 10
29.00000000000001
 20
-25.0
 30
0.0
 11
5.500000362800001
 21
-25.0
 31
0.0
 70
   160
 71
     2
 72
     2
 41
0.9
 42
47.0
  3
コピー - ISO-25
100
AcDbAlignedDimension
 13
-18.0
 23
-2.704074569699997
 33
0.0
 14
29.00000000000001
 24
-3.0
 34
0.0
 50
0.0
100
AcDbRotatedDimension
1001
ACAD
1000
DSTYLE
1002
{
1070
   271
1070
     1
1070
    40
1040
1.0
1002
}
1001
ACAD_DSTYLE_DIMINSPECT
1070
   393
1070
     0
1070
   394
1070
     1
1070
   395
1000

1070
   396
1000

  0
DIMENSION
  5
C2307
330
1F
100
AcDbEntity
  8
2
100
AcDbDimension
  2
*D107
 10
0.0000000000000024
 20
20.00000000000001
 30
0.0
 11
20.99999942820001
 21
20.0
 31
0.0
 70
   160
 71
     2
 72
     2
 41
0.9
 42
42.0
  3
コピー - ISO-25
100
AcDbAlignedDimension
 13
42.00000000000001
 23
3.0
 33
0.0
 14
0.0
 24
0.0000000000000062
 34
0.0
 50
180.0
100
AcDbRotatedDimension
1001
ACAD
1000
DSTYLE
1002
{
1070
   171
1070
     3
1070
   143
1040
0.03937
1070
   285
1070
     4
1070
     4
1000
"
1070
   271
1070
     1
1070
    40
1040
1.0
1002
}
1001
ACAD_DSTYLE_DIMINSPECT
1070
   393
1070
     0
1070
   394
1070
     0
1070
   395
1000

1070
   396
1000

  0
MTEXT
  5
C2308
330
1F
100
AcDbEntity
  8
sk6
100
AcDbMText
 10
-18.0
 20
40.0
 30
0.0
 40
3.5
 41
32.725
 71
     1
 72
     1
  1
MSMHZDD0600
 73
     2
 44
0.9
1001
ACAD
1000
MTEXTBEGIN
1070
    73
1070
     2
1070
    44
1040
0.9
1070
    74
1070
     0
1000
MTEXTEND
  0
LINE
  5
C2309
330
1F
100
AcDbEntity
  8
sk1
100
AcDbLine
 10
-18.0
 20
2.704074569700011
 30
0.0
 11
-18.0
 21
-2.704074569699997
 31
0.0
  0
LINE
  5
C230A
330
1F
100
AcDbEntity
  8
sk1
100
AcDbLine
 10
-17.7040745697
 20
3.0
 30
0.0
 11
-17.7040745697
 21
-3.0
 31
0.0
  0
LINE
  5
C230B
330
1F
100
AcDbEntity
  8
sk1
100
AcDbLine
 10
-18.0
 20
2.704074569700011
 30
0.0
 11
-17.7040745697
 21
3.0
 31
0.0
  0
LINE
  5
C230C
330
1F
100
AcDbEntity
  8
sk1
100
AcDbLine
 10
-18.0
 20
-2.704074569699997
 30
0.0
 11
-17.7040745697
 21
-3.0
 31
0.0
  0
LINE
  5
C230D
330
1F
100
AcDbEntity
  8
nocut
100
AcDbLine
 10
0.0
 20
3.0
 30
0.0
 11
0.0
 21
0.0
 31
0.0
  0
LINE
  5
C230E
330
1F
100
AcDbEntity
  8
7
100
AcDbLine
 10
42.00000000000001
 20
-3.0
 30
0.0
 11
29.00000000000001
 21
-3.0
 31
0.0
  0
LINE
  5
C230F
330
1F
100
AcDbEntity
  8
1
100
AcDbLine
 10
42.00000000000001
 20
-3.0
 30
0.0
 11
0.0
 21
-3.0
 31
0.0
  0
LINE
  5
C2310
330
1F
100
AcDbEntity
  8
sk1
100
AcDbLine
 10
-17.7040745697
 20
-3.0
 30
0.0
 11
0.0
 21
-3.0
 31
0.0
  0
LINE
  5
C2311
330
1F
100
AcDbEntity
  8
nocut
100
AcDbLine
 10
29.00000000000001
 20
0.0
 30
0.0
 11
0.0
 21
0.0
 31
0.0
  0
LINE
  5
C2312
330
1F
100
AcDbEntity
  8
sk4
100
AcDbLine
 10
-21.0
 20
0.0000000000000071
 30
0.0
 11
0.0
 21
0.0
 31
0.0
  0
LINE
  5
C2313
330
1F
100
AcDbEntity
  8
4
100
AcDbLine
 10
0.0
 20
0.0
 30
0.0
 11
45.0
 21
0.0
 31
0.0
  0
LINE
  5
C2314
330
1F
100
AcDbEntity
  8
cut
100
AcDbLine
 10
29.00000000000001
 20
0.0
 30
0.0
 11
42.00000000000001
 21
0.0
 31
0.0
  0
LINE
  5
C2315
330
1F
100
AcDbEntity
  8
sk1
100
AcDbLine
 10
0.0
 20
3.0
 30
0.0
 11
-17.7040745697
 21
3.0
 31
0.0
  0
LINE
  5
C2316
330
1F
100
AcDbEntity
  8
1
100
AcDbLine
 10
0.0
 20
3.0
 30
0.0
 11
42.00000000000001
 21
3.0
 31
0.0
  0
LINE
  5
C2317
330
1F
100
AcDbEntity
  8
nocut
100
AcDbLine
 10
0.0
 20
3.0
 30
0.0
 11
29.00000000000001
 21
3.0
 31
0.0
  0
LINE
  5
C2318
330
1F
100
AcDbEntity
  8
7
100
AcDbLine
 10
29.00000000000001
 20
3.0
 30
0.0
 11
42.00000000000001
 21
3.0
 31
0.0
  0
LINE
  5
C2319
330
1F
100
AcDbEntity
  8
cut
100
AcDbLine
 10
29.00000000000001
 20
3.0
 30
0.0
 11
42.00000000000001
 21
3.0
 31
0.0
  0
LINE
  5
C231A
330
1F
100
AcDbEntity
  8
1
100
AcDbLine
 10
29.00000000000001
 20
3.0
 30
0.0
 11
29.00000000000001
 21
-3.0
 31
0.0
  0
LINE
  5
C231B
330
1F
100
AcDbEntity
  8
7
100
AcDbLine
 10
29.00000000000001
 20
3.0
 30
0.0
 11
29.00000000000001
 21
-3.0
 31
0.0
  0
LINE
  5
C231C
330
1F
100
AcDbEntity
  8
cut
100
AcDbLine
 10
29.00000000000001
 20
3.0
 30
0.0
 11
29.00000000000001
 21
0.0
 31
0.0
  0
LINE
  5
C231D
330
1F
100
AcDbEntity
  8
nocut
100
AcDbLine
 10
29.00000000000001
 20
3.0
 30
0.0
 11
29.00000000000001
 21
0.0
 31
0.0
  0
LINE
  5
C231E
330
1F
100
AcDbEntity
  8
1
100
AcDbLine
 10
42.00000000000001
 20
0.0
 30
0.0
 11
39.00000000000001
 21
3.0
 31
0.0
  0
LINE
  5
C231F
330
1F
100
AcDbEntity
  8
1
100
AcDbLine
 10
42.00000000000001
 20
3.0
 30
0.0
 11
42.00000000000001
 21
-3.0
 31
0.0
  0
LINE
  5
C2320
330
1F
100
AcDbEntity
  8
7
100
AcDbLine
 10
42.00000000000001
 20
3.0
 30
0.0
 11
42.00000000000001
 21
-3.0
 31
0.0
  0
LINE
  5
C2321
330
1F
100
AcDbEntity
  8
cut
100
AcDbLine
 10
42.00000000000001
 20
3.0
 30
0.0
 11
42.00000000000001
 21
0.0
 31
0.0
  0
VIEWPORT
  5
71
102
{ACAD_XDICTIONARY
360
8769D
102
}
330
55
100
AcDbEntity
 67
     1
  8
0
100
AcDbViewport
 10
150.1652135264906
 20
103.6581106594891
 30
0.0
 40
339.1973820494347
 41
168.6522697578383
 68
     1
 69
    -1
 12
150.1652135264906
 22
103.6581106594891
 13
0.0
 23
0.0
 14
10.0
 24
10.0
 15
10.0
 25
10.0
 16
0.0
 26
0.0
 36
1.0
 17
0.0
 27
0.0
 37
0.0
 42
50.0
 43
0.0
 44
0.0
 45
168.6522697578383
 50
0.0
 51
0.0
 72
  1000
 90
    32864
  1

281
     0
 71
     1
 74
     0
110
0.0
120
0.0
130
0.0
111
1.0
121
0.0
131
0.0
112
0.0
122
1.0
132
0.0
 79
     0
146
0.0
  0
VIEWPORT
  5
73
102
{ACAD_XDICTIONARY
360
8769F
102
}
330
55
100
AcDbEntity
 67
     1
  8
0
100
AcDbViewport
 10
133.3499939441681
 20
101.5999939441681
 30
0.0
 40
213.3599903106689
 41
162.5599903106689
 68
     2
 69
    -1
 12
210.0
 22
148.5
 13
0.0
 23
0.0
 14
10.0
 24
10.0
 15
10.0
 25
10.0
 16
0.0
 26
0.0
 36
1.0
 17
0.0
 27
0.0
 37
0.0
 42
50.0
 43
0.0
 44
0.0
 45
324.0677920111345
 50
0.0
 51
0.0
 72
   100
 90
    32864
  1

281
     0
 71
     1
 74
     0
110
0.0
120
0.0
130
0.0
111
1.0
121
0.0
131
0.0
112
0.0
122
1.0
132
0.0
 79
     0
146
0.0
  0
ENDSEC
  0
SECTION
  2
OBJECTS
  0
DICTIONARY
  5
C
330
0
100
AcDbDictionary
281
     1
  3
ACAD_CIP_PREVIOUS_PRODUCT_INFO
350
4A3C3
  3
ACAD_COLOR
350
85
  3
ACAD_DETAILVIEWSTYLE
350
4A3BB
  3
ACAD_GROUP
350
D
  3
ACAD_LAYOUT
350
1A
  3
ACAD_MATERIAL
350
84
  3
ACAD_MLEADERSTYLE
350
4A3B7
  3
ACAD_MLINESTYLE
350
17
  3
ACAD_PLOTSETTINGS
350
19
  3
ACAD_PLOTSTYLENAME
350
E
  3
ACAD_SCALELIST
350
4A3A5
  3
ACAD_SECTIONVIEWSTYLE
350
4A3B9
  3
ACAD_TABLESTYLE
350
A1
  3
ACAD_VISUALSTYLE
350
4A38C
  3
ACDB_RECOMPOSE_DATA
350
BCC1F
  3
ACDBHEADERROUNDTRIPXREC
350
C25D5
  3
AcDbVariableDictionary
350
5E
  3
ASE_INDEX_DICTIONARY
350
349E9
  3
DWGPROPS
350
C25D8
  3
ZWM_SYS_DICT
350
87AB3
  0
DICTIONARY
  5
87B88
330
8
100
AcDbDictionary
280
     1
281
     1
  3
ACAD_XREC_ROUNDTRIP
360
C25DD
  0
DICTIONARY
  5
E2
330
2
100
AcDbDictionary
280
     1
281
     1
  3
ACAD_LAYERFILTERS
360
4A339
  3
ACAD_LAYERSTATES
360
3759A
  3
ACLYDICTIONARY
360
4A338
  0
DICTIONARY
  5
4A86C
330
10
100
AcDbDictionary
280
     1
281
     1
  3
ADSK_XREC_LAYER_RECONCILED
360
4A86D
  0
DICTIONARY
  5
4A773
330
4A772
100
AcDbDictionary
280
     1
281
     1
  3
ADSK_XREC_LAYER_RECONCILED
360
4A86E
  0
DICTIONARY
  5
4A775
330
4A774
100
AcDbDictionary
280
     1
281
     1
  3
ADSK_XREC_LAYER_RECONCILED
360
4A86F
  0
DICTIONARY
  5
4A777
330
4A776
100
AcDbDictionary
280
     1
281
     1
  3
ADSK_XREC_LAYER_RECONCILED
360
4A870
  0
DICTIONARY
  5
4A779
330
4A778
100
AcDbDictionary
280
     1
281
     1
  3
ADSK_XREC_LAYER_RECONCILED
360
4A871
  0
DICTIONARY
  5
4A77B
330
4A77A
100
AcDbDictionary
280
     1
281
     1
  3
ADSK_XREC_LAYER_RECONCILED
360
4A872
  0
DICTIONARY
  5
4A77D
330
4A77C
100
AcDbDictionary
280
     1
281
     1
  3
ADSK_XREC_LAYER_RECONCILED
360
4A873
  0
DICTIONARY
  5
4A77F
330
4A77E
100
AcDbDictionary
280
     1
281
     1
  3
ADSK_XREC_LAYER_RECONCILED
360
4A874
  0
DICTIONARY
  5
4A781
330
4A780
100
AcDbDictionary
280
     1
281
     1
  3
ADSK_XREC_LAYER_RECONCILED
360
4A875
  0
DICTIONARY
  5
4A783
330
4A782
100
AcDbDictionary
280
     1
281
     1
  3
ADSK_XREC_LAYER_RECONCILED
360
4A876
  0
DICTIONARY
  5
4A785
330
4A784
100
AcDbDictionary
280
     1
281
     1
  3
ADSK_XREC_LAYER_RECONCILED
360
4A877
  0
DICTIONARY
  5
31EE
330
1F
100
AcDbDictionary
280
     1
281
     1
  3
ACAD_SORTENTS
360
31EF
  0
DICTIONARY
  5
4A6D7
330
4A6D6
100
AcDbDictionary
280
     1
281
     1
  3
ACAD_SORTENTS
360
4A6D8
  0
DICTIONARY
  5
87699
330
6B
100
AcDbDictionary
280
     1
281
     1
  3
ACAD_XREC_ROUNDTRIP
360
C25DB
  0
DICTIONARY
  5
8769B
330
6D
100
AcDbDictionary
280
     1
281
     1
  3
ACAD_XREC_ROUNDTRIP
360
C25DC
  0
DICTIONARY
  5
8769D
330
71
100
AcDbDictionary
280
     1
281
     1
  3
ACAD_XREC_ROUNDTRIP
360
C25D9
  0
DICTIONARY
  5
8769F
330
73
100
AcDbDictionary
280
     1
281
     1
  3
ACAD_XREC_ROUNDTRIP
360
C25DA
  0
XRECORD
  5
4A3C3
102
{ACAD_REACTORS
330
C
102
}
330
C
100
AcDbXrecord
280
     1
300
ACDLT
300
2020
300

  0
DICTIONARY
  5
85
102
{ACAD_REACTORS
330
C
102
}
330
C
100
AcDbDictionary
281
     1
  0
DICTIONARY
  5
4A3BB
102
{ACAD_REACTORS
330
C
102
}
330
C
100
AcDbDictionary
281
     1
  3
Metric50
350
4A3BC
  0
DICTIONARY
  5
D
102
{ACAD_REACTORS
330
C
102
}
330
C
100
AcDbDictionary
281
     1
  0
DICTIONARY
  5
1A
102
{ACAD_REACTORS
330
C
102
}
330
C
100
AcDbDictionary
281
     1
  3
Model
350
22
  3
レイアウト1
350
51
  3
レイアウト2
350
56
  0
DICTIONARY
  5
84
102
{ACAD_REACTORS
330
C
102
}
330
C
100
AcDbDictionary
281
     1
  3
ByBlock
350
4A37C
  3
ByLayer
350
4A374
  3
Global
350
4A384
  0
DICTIONARY
  5
4A3B7
102
{ACAD_REACTORS
330
C
102
}
330
C
100
AcDbDictionary
281
     1
  3
Standard
350
4A3B8
  0
DICTIONARY
  5
17
102
{ACAD_REACTORS
330
C
102
}
330
C
100
AcDbDictionary
281
     1
  3
Standard
350
18
  0
DICTIONARY
  5
19
102
{ACAD_REACTORS
330
C
102
}
330
C
100
AcDbDictionary
281
     1
  0
ACDBDICTIONARYWDFLT
  5
E
102
{ACAD_REACTORS
330
C
102
}
330
C
100
AcDbDictionary
281
     1
  3
Normal
350
F
100
AcDbDictionaryWithDefault
340
F
  0
DICTIONARY
  5
4A3A5
102
{ACAD_REACTORS
330
C
102
}
330
C
100
AcDbDictionary
281
     1
  3
A0
350
4A3A6
  3
A1
350
4A3A7
  3
A2
350
4A3A8
  3
A3
350
4A3A9
  3
A4
350
4A3AA
  3
A5
350
4A3AB
  3
A6
350
4A3AC
  3
A7
350
4A3AD
  3
A8
350
4A3AE
  3
A9
350
4A3AF
  3
B0
350
4A3B0
  3
B1
350
4A3B1
  3
B2
350
4A3B2
  3
B3
350
4A3B3
  3
B4
350
4A3B4
  3
B5
350
4A3B5
  3
B6
350
4A3B6
  0
DICTIONARY
  5
4A3B9
102
{ACAD_REACTORS
330
C
102
}
330
C
100
AcDbDictionary
281
     1
  3
Metric50
350
4A3BA
  0
DICTIONARY
  5
A1
102
{ACAD_REACTORS
330
C
102
}
330
C
100
AcDbDictionary
281
     1
  3
Standard
350
A2
  0
DICTIONARY
  5
4A38C
102
{ACAD_REACTORS
330
C
102
}
330
C
100
AcDbDictionary
281
     1
  3
2dWireframe
350
4A392
  3
Basic
350
4A391
  3
Brighten
350
4A398
  3
ColorChange
350
4A39C
  3
Conceptual
350
4A395
  3
Dim
350
4A397
  3
EdgeColorOff
350
4A3A4
  3
Facepattern
350
4A39B
  3
Flat
350
4A38D
  3
FlatWithEdges
350
4A38E
  3
Gouraud
350
4A38F
  3
GouraudWithEdges
350
4A390
  3
Hidden
350
4A394
  3
JitterOff
350
4A3A2
  3
Linepattern
350
4A39A
  3
OverhangOff
350
4A3A3
  3
Realistic
350
4A396
  3
Shaded
350
4A3A1
  3
Shaded with edges
350
4A3A0
  3
Shades of Gray
350
4A39D
  3
Sketchy
350
4A39E
  3
Thicken
350
4A399
  3
Wireframe
350
4A393
  3
X-Ray
350
4A39F
  0
XRECORD
  5
BCC1F
102
{ACAD_REACTORS
330
C
102
}
330
C
100
AcDbXrecord
280
     1
 90
        1
330
A2
  0
DICTIONARY
  5
C25D5
102
{ACAD_REACTORS
330
C
102
}
330
C
100
AcDbDictionary
281
     1
  3
COLORDICT
350
C25D6
  3
MATERIALDICT
350
C25D7
  0
DICTIONARY
  5
5E
102
{ACAD_REACTORS
330
C
102
}
330
C
100
AcDbDictionary
281
     1
  3
CANNOSCALE
350
C153D
  3
CMLEADERSTYLE
350
4A6CE
  3
CTABLESTYLE
350
B8
  3
CVIEWDETAILSTYLE
350
4A6CF
  3
CVIEWSECTIONSTYLE
350
4A6D0
  3
DIMASSOC
350
5F
  3
HIDETEXT
350
63
  3
INDEXCTL
350
4A879
  3
LAYEREVAL
350
4A6D4
  3
LAYERNOTIFY
350
4A6D5
  3
LIGHTINGUNITS
350
4A6D3
  3
MSLTSCALE
350
4A6D1
  3
PROJECTNAME
350
31CE
  3
SORTENTS
350
4A878
  3
XCLIPFRAME
350
5A559
  0
DICTIONARY
  5
349E9
102
{ACAD_REACTORS
330
C
102
}
330
C
100
AcDbDictionary
281
     1
  3
ASEBlockHierarchyIndexRecord
350
349EA
1001
DCO15
1040
1842496176.844
  0
XRECORD
  5
C25D8
102
{ACAD_REACTORS
330
C
102
}
330
C
100
AcDbXrecord
280
     1
  1
DWGPROPS COOKIE
  2

  3

  4

  6

  7

  8
zhangnw
  9

300
=
301
=
302
=
303
=
304
=
305
=
306
=
307
=
308
=
309
=
 40
0.0
 41
2455489.391063368
 42
2459010.582875486
  1

 90
        0
  0
DICTIONARY
  5
87AB3
102
{ACAD_REACTORS
330
C
102
}
330
C
100
AcDbDictionary
281
     1
  3
ZWM_CFG_DICT
350
87AB6
  3
ZWM_FRM_DICT
350
87AF2
  3
ZWM_STD_DICT
350
87AB4
  0
XRECORD
  5
C25DD
102
{ACAD_REACTORS
330
87B88
102
}
330
87B88
100
AcDbXrecord
280
     1
102
VTR_0.000_0.000_1.000_1.000_VISUALSTYLE
340
4A392
102
VTR_0.000_0.000_1.000_1.000_GRIDDISPLAY
 70
     3
102
VTR_0.000_0.000_1.000_1.000_GRIDMAJOR
 70
     5
102
VTR_0.000_0.000_1.000_1.000_DEFAULTLIGHTING
280
     1
102
VTR_0.000_0.000_1.000_1.000_DEFAULTLIGHTINGTYPE
 70
     1
102
VTR_0.000_0.000_1.000_1.000_BRIGHTNESS
141
0.0
102
VTR_0.000_0.000_1.000_1.000_CONTRAST
142
0.0
  0
DICTIONARY
  5
4A339
102
{ACAD_REACTORS
330
E2
102
}
330
E2
100
AcDbDictionary
281
     1
  0
DICTIONARY
  5
3759A
102
{ACAD_REACTORS
330
E2
102
}
330
E2
100
AcDbDictionary
281
     1
  0
DICTIONARY
  5
4A338
102
{ACAD_REACTORS
330
E2
102
}
330
E2
100
AcDbDictionary
281
     1
1001
ACAD
1000
<All
  0
XRECORD
  5
4A86D
102
{ACAD_REACTORS
330
4A86C
102
}
330
4A86C
100
AcDbXrecord
280
     1
290
     1
  0
XRECORD
  5
4A86E
102
{ACAD_REACTORS
330
4A773
102
}
330
4A773
100
AcDbXrecord
280
     1
290
     1
  0
XRECORD
  5
4A86F
102
{ACAD_REACTORS
330
4A775
102
}
330
4A775
100
AcDbXrecord
280
     1
290
     1
  0
XRECORD
  5
4A870
102
{ACAD_REACTORS
330
4A777
102
}
330
4A777
100
AcDbXrecord
280
     1
290
     1
  0
XRECORD
  5
4A871
102
{ACAD_REACTORS
330
4A779
102
}
330
4A779
100
AcDbXrecord
280
     1
290
     1
  0
XRECORD
  5
4A872
102
{ACAD_REACTORS
330
4A77B
102
}
330
4A77B
100
AcDbXrecord
280
     1
290
     1
  0
XRECORD
  5
4A873
102
{ACAD_REACTORS
330
4A77D
102
}
330
4A77D
100
AcDbXrecord
280
     1
290
     1
  0
XRECORD
  5
4A874
102
{ACAD_REACTORS
330
4A77F
102
}
330
4A77F
100
AcDbXrecord
280
     1
290
     1
  0
XRECORD
  5
4A875
102
{ACAD_REACTORS
330
4A781
102
}
330
4A781
100
AcDbXrecord
280
     1
290
     1
  0
XRECORD
  5
4A876
102
{ACAD_REACTORS
330
4A783
102
}
330
4A783
100
AcDbXrecord
280
     1
290
     1
  0
XRECORD
  5
4A877
102
{ACAD_REACTORS
330
4A785
102
}
330
4A785
100
AcDbXrecord
280
     1
290
     1
  0
SORTENTSTABLE
  5
31EF
102
{ACAD_REACTORS
330
31EE
102
}
330
31EE
100
AcDbSortentsTable
330
1F
331
915C4
  5
915C5
331
915C5
  5
915C6
331
915C6
  5
915C7
331
915C7
  5
915C8
331
915C8
  5
915C9
331
915C9
  5
915CA
331
915CA
  5
915CB
331
915CB
  5
915CC
331
915CC
  5
915CD
331
915CD
  5
915CE
331
915CE
  5
915CF
331
915CF
  5
915D0
331
915D0
  5
915D1
331
915D1
  5
915D2
331
915D2
  5
915D3
331
915D3
  5
915D4
331
915D4
  5
915D5
331
915D5
  5
915D6
331
915D6
  5
915D7
331
915D7
  5
915D8
331
915D8
  5
915D9
331
915D9
  5
915DA
331
915DA
  5
915DB
331
915DB
  5
915DC
331
915DC
  5
915DD
331
915DD
  5
918D0
331
91989
  5
915C4
331
91C6F
  5
91C70
331
91C70
  5
91C71
331
91C71
  5
91C72
331
91C72
  5
91C73
331
91C73
  5
91C74
331
91C74
  5
91C75
331
91C75
  5
91C76
331
91C76
  5
91C77
331
91C77
  5
91C78
331
91C78
  5
91C79
331
91C79
  5
91C7A
331
91C7A
  5
91C7B
331
91C7B
  5
91C7C
331
91C7C
  5
91C7D
331
91C7D
  5
91C7E
331
91C7E
  5
91C7F
331
91C7F
  5
91C80
331
91C80
  5
91C81
331
91C81
  5
91C82
331
91C82
  5
91C83
331
91C83
  5
91FEE
331
91FEE
  5
91FEF
331
91FEF
  5
91FF0
331
91FF0
  5
91FF1
331
91FF1
  5
91FF2
331
91FF2
  5
91FF3
331
91FF3
  5
91C6F
  0
SORTENTSTABLE
  5
4A6D8
102
{ACAD_REACTORS
330
4A6D7
102
}
330
4A6D7
100
AcDbSortentsTable
330
4A6D6
  0
XRECORD
  5
C25DB
102
{ACAD_REACTORS
330
87699
102
}
330
87699
100
AcDbXrecord
280
     1
102
GRIDDISPLAY
 70
     0
102
GRIDMAJOR
 70
     5
102
DEFAULTLIGHTING
280
     1
102
DEFAULTLIGHTINGTYPE
 70
     1
102
BRIGHTNESS
141
0.0
102
CONTRAST
142
0.0
  0
XRECORD
  5
C25DC
102
{ACAD_REACTORS
330
8769B
102
}
330
8769B
100
AcDbXrecord
280
     1
102
GRIDDISPLAY
 70
     0
102
GRIDMAJOR
 70
     5
102
DEFAULTLIGHTING
280
     1
102
DEFAULTLIGHTINGTYPE
 70
     1
102
BRIGHTNESS
141
0.0
102
CONTRAST
142
0.0
  0
XRECORD
  5
C25D9
102
{ACAD_REACTORS
330
8769D
102
}
330
8769D
100
AcDbXrecord
280
     1
102
GRIDDISPLAY
 70
     0
102
GRIDMAJOR
 70
     5
102
DEFAULTLIGHTING
280
     1
102
DEFAULTLIGHTINGTYPE
 70
     1
102
BRIGHTNESS
141
0.0
102
CONTRAST
142
0.0
  0
XRECORD
  5
C25DA
102
{ACAD_REACTORS
330
8769F
102
}
330
8769F
100
AcDbXrecord
280
     1
102
GRIDDISPLAY
 70
     0
102
GRIDMAJOR
 70
     5
102
DEFAULTLIGHTING
280
     1
102
DEFAULTLIGHTINGTYPE
 70
     1
102
BRIGHTNESS
141
0.0
102
CONTRAST
142
0.0
  0
ACDBDETAILVIEWSTYLE
  5
4A3BC
102
{ACAD_XDICTIONARY
360
876D4
102
}
102
{ACAD_REACTORS
330
4A3BB
102
}
330
4A3BB
100
AcDbModelDocViewStyle
 70
     0
  3
Metric50
290
     0
100
AcDbDetailViewStyle
 70
     0
 71
     0
 90
        3
 71
     1
340
11
 40
5.0
340
0
 40
5.0
300

 40
0.0
280
     1
 71
     2
340
16
 90
       25
 71
     3
340
11
 40
5.0
 90
        0
 40
15.0
 90
        1
300
%<\AcVar ViewDetailId>% (%<\AcVar ViewScale \f "%sn">%)
 71
     4
340
16
 90
       25
340
16
 90
       25
280
     0
  0
LAYOUT
  5
22
102
{ACAD_REACTORS
330
1A
102
}
330
1A
100
AcDbPlotSettings
  1

  2
none_device
  4
ANSI_A_(8.50_x_11.00_Inches)
  6

 40
6.349999904632567
 41
19.04999923706055
 42
6.350006103515625
 43
19.04998779296875
 44
215.8999938964844
 45
279.3999938964844
 46
0.0
 47
0.0
 48
0.0
 49
0.0
140
0.0
141
0.0
142
1.0
143
78.436453180766
 70
 11952
 72
     0
 73
     1
 74
     0
  7

 75
     0
147
0.0127491741332998
148
0.0
149
0.0
100
AcDbLayout
  1
Model
 70
     1
 71
     0
 10
0.0
 20
0.0
 11
12.0
 21
9.0
 12
0.0
 22
0.0
 32
0.0
 14
0.0
 24
0.0
 34
0.0
 15
0.0
 25
0.0
 35
0.0
146
0.0
 13
0.0
 23
0.0
 33
0.0
 16
1.0
 26
0.0
 36
0.0
 17
0.0
 27
1.0
 37
0.0
 76
     0
330
1F
331
4A360
  0
LAYOUT
  5
51
102
{ACAD_REACTORS
330
1A
102
}
330
1A
100
AcDbPlotSettings
  1

  2
none_device
  4
Letter_(8.50_x_11.00_Inches)
  6

 40
6.349999904632567
 41
6.349999904632567
 42
6.350006103515625
 43
6.350006103515625
 44
215.8999938964844
 45
279.3999938964844
 46
0.0
 47
0.0
 48
0.0
 49
0.0
140
0.0
141
0.0
142
1.0
143
1.0
 70
   688
 72
     1
 73
     1
 74
     5
  7

 75
    16
147
1.0
148
0.0
149
0.0
100
AcDbLayout
  1
レイアウト1
 70
     1
 71
     1
 10
-6.350006103515625
 20
-6.349999904632567
 11
273.0499877929688
 21
209.5499939918518
 12
0.0
 22
0.0
 32
0.0
 14
26.66999878883364
 24
20.31999878883365
 34
0.0
 15
240.0299890995025
 25
182.8799890995025
 35
0.0
146
0.0
 13
0.0
 23
0.0
 33
0.0
 16
1.0
 26
0.0
 36
0.0
 17
0.0
 27
1.0
 37
0.0
 76
     0
330
50
331
6B
  0
LAYOUT
  5
56
102
{ACAD_REACTORS
330
1A
102
}
330
1A
100
AcDbPlotSettings
  1

  2
none_device
  4
Letter_(8.50_x_11.00_Inches)
  6

 40
6.349999904632567
 41
6.349999904632567
 42
6.350006103515625
 43
6.350006103515625
 44
215.8999938964844
 45
279.3999938964844
 46
0.0
 47
0.0
 48
0.0
 49
0.0
140
0.0
141
0.0
142
1.0
143
1.0
 70
   688
 72
     1
 73
     1
 74
     5
  7

 75
    16
147
1.0
148
0.0
149
0.0
100
AcDbLayout
  1
レイアウト2
 70
     1
 71
     2
 10
-6.350006103515625
 20
-6.349999904632567
 11
273.0499877929688
 21
209.5499939918518
 12
0.0
 22
0.0
 32
0.0
 14
26.66999878883364
 24
20.31999878883365
 34
0.0
 15
240.0299890995025
 25
182.8799890995025
 35
0.0
146
0.0
 13
0.0
 23
0.0
 33
0.0
 16
1.0
 26
0.0
 36
0.0
 17
0.0
 27
1.0
 37
0.0
 76
     0
330
55
331
71
  0
MATERIAL
  5
4A37C
102
{ACAD_XDICTIONARY
360
4A37D
102
}
102
{ACAD_REACTORS
330
84
102
}
330
84
100
AcDbMaterial
  1
ByBlock
 72
     0
 73
     2
 43
0.0008202099737533
 43
0.0
 43
0.0
 43
0.0
 43
0.0
 43
0.0008202099737533
 43
0.0
 43
0.0
 43
0.0
 43
0.0
 43
1.0
 43
0.0
 43
0.0
 43
0.0
 43
0.0
 43
1.0
 77
     0
 78
     2
 47
0.0008202099737533
 47
0.0
 47
0.0
 47
0.0
 47
0.0
 47
0.0008202099737533
 47
0.0
 47
0.0
 47
0.0
 47
0.0
 47
1.0
 47
0.0
 47
0.0
 47
0.0
 47
0.0
 47
1.0
171
     0
172
     2
 49
0.0008202099737533
 49
0.0
 49
0.0
 49
0.0
 49
0.0
 49
0.0008202099737533
 49
0.0
 49
0.0
 49
0.0
 49
0.0
 49
1.0
 49
0.0
 49
0.0
 49
0.0
 49
0.0
 49
1.0
175
     0
176
     2
142
0.0008202099737533
142
0.0
142
0.0
142
0.0
142
0.0
142
0.0008202099737533
142
0.0
142
0.0
142
0.0
142
0.0
142
1.0
142
0.0
142
0.0
142
0.0
142
0.0
142
1.0
179
     0
270
     2
144
0.0008202099737533
144
0.0
144
0.0
144
0.0
144
0.0
144
0.0008202099737533
144
0.0
144
0.0
144
0.0
144
0.0
144
1.0
144
0.0
144
0.0
144
0.0
144
0.0
144
1.0
274
     2
147
0.0008202099737533
147
0.0
147
0.0
147
0.0
147
0.0
147
0.0008202099737533
147
0.0
147
0.0
147
0.0
147
0.0
147
1.0
147
0.0
147
0.0
147
0.0
147
0.0
147
1.0
  0
MATERIAL
  5
4A374
102
{ACAD_XDICTIONARY
360
4A375
102
}
102
{ACAD_REACTORS
330
84
102
}
330
84
100
AcDbMaterial
  1
ByLayer
 72
     0
 73
     2
 43
0.0008202099737533
 43
0.0
 43
0.0
 43
0.0
 43
0.0
 43
0.0008202099737533
 43
0.0
 43
0.0
 43
0.0
 43
0.0
 43
1.0
 43
0.0
 43
0.0
 43
0.0
 43
0.0
 43
1.0
 77
     0
 78
     2
 47
0.0008202099737533
 47
0.0
 47
0.0
 47
0.0
 47
0.0
 47
0.0008202099737533
 47
0.0
 47
0.0
 47
0.0
 47
0.0
 47
1.0
 47
0.0
 47
0.0
 47
0.0
 47
0.0
 47
1.0
171
     0
172
     2
 49
0.0008202099737533
 49
0.0
 49
0.0
 49
0.0
 49
0.0
 49
0.0008202099737533
 49
0.0
 49
0.0
 49
0.0
 49
0.0
 49
1.0
 49
0.0
 49
0.0
 49
0.0
 49
0.0
 49
1.0
175
     0
176
     2
142
0.0008202099737533
142
0.0
142
0.0
142
0.0
142
0.0
142
0.0008202099737533
142
0.0
142
0.0
142
0.0
142
0.0
142
1.0
142
0.0
142
0.0
142
0.0
142
0.0
142
1.0
179
     0
270
     2
144
0.0008202099737533
144
0.0
144
0.0
144
0.0
144
0.0
144
0.0008202099737533
144
0.0
144
0.0
144
0.0
144
0.0
144
1.0
144
0.0
144
0.0
144
0.0
144
0.0
144
1.0
274
     2
147
0.0008202099737533
147
0.0
147
0.0
147
0.0
147
0.0
147
0.0008202099737533
147
0.0
147
0.0
147
0.0
147
0.0
147
1.0
147
0.0
147
0.0
147
0.0
147
0.0
147
1.0
  0
MATERIAL
  5
4A384
102
{ACAD_XDICTIONARY
360
4A385
102
}
102
{ACAD_REACTORS
330
84
102
}
330
84
100
AcDbMaterial
  1
Global
 72
     0
 73
     2
 43
0.0008202099737533
 43
0.0
 43
0.0
 43
0.0
 43
0.0
 43
0.0008202099737533
 43
0.0
 43
0.0
 43
0.0
 43
0.0
 43
1.0
 43
0.0
 43
0.0
 43
0.0
 43
0.0
 43
1.0
 77
     0
 78
     2
 47
0.0008202099737533
 47
0.0
 47
0.0
 47
0.0
 47
0.0
 47
0.0008202099737533
 47
0.0
 47
0.0
 47
0.0
 47
0.0
 47
1.0
 47
0.0
 47
0.0
 47
0.0
 47
0.0
 47
1.0
171
     0
172
     2
 49
0.0008202099737533
 49
0.0
 49
0.0
 49
0.0
 49
0.0
 49
0.0008202099737533
 49
0.0
 49
0.0
 49
0.0
 49
0.0
 49
1.0
 49
0.0
 49
0.0
 49
0.0
 49
0.0
 49
1.0
175
     0
176
     2
142
0.0008202099737533
142
0.0
142
0.0
142
0.0
142
0.0
142
0.0008202099737533
142
0.0
142
0.0
142
0.0
142
0.0
142
1.0
142
0.0
142
0.0
142
0.0
142
0.0
142
1.0
179
     0
270
     2
144
0.0008202099737533
144
0.0
144
0.0
144
0.0
144
0.0
144
0.0008202099737533
144
0.0
144
0.0
144
0.0
144
0.0
144
1.0
144
0.0
144
0.0
144
0.0
144
0.0
144
1.0
274
     2
147
0.0008202099737533
147
0.0
147
0.0
147
0.0
147
0.0
147
0.0008202099737533
147
0.0
147
0.0
147
0.0
147
0.0
147
1.0
147
0.0
147
0.0
147
0.0
147
0.0
147
1.0
  0
MLEADERSTYLE
  5
4A3B8
102
{ACAD_XDICTIONARY
360
87B8D
102
}
102
{ACAD_REACTORS
330
4A3B7
102
}
330
4A3B7
100
AcDbMLeaderStyle
170
     2
171
     1
172
     0
 90
        2
 40
0.0
 41
0.0
173
     1
 91
-1056964608
340
14
 92
       -2
290
     1
 42
2.0
291
     1
 43
0.36
  3
Standard
 44
4.0
300

342
11
174
     1
178
     6
175
     1
176
     0
 93
-1056964608
 45
4.0
292
     0
297
     0
 46
4.0
 94
-1056964608
 47
1.0
 49
1.0
140
1.0
293
     1
141
0.0
294
     1
177
     0
142
1.0
295
     0
296
     0
143
0.125
1001
ACAD_MLEADERVER
1070
     2
  0
MLINESTYLE
  5
18
102
{ACAD_REACTORS
330
17
102
}
330
17
100
AcDbMlineStyle
  2
STANDARD
 70
     0
  3

 62
   256
 51
90.0
 52
90.0
 71
     2
 49
0.5
 62
   256
  6
BYLAYER
 49
-0.5
 62
   256
  6
BYLAYER
  0
ACDBPLACEHOLDER
  5
F
102
{ACAD_REACTORS
330
E
102
}
330
E
  0
SCALE
  5
4A3A6
102
{ACAD_REACTORS
330
4A3A5
102
}
330
4A3A5
100
AcDbScale
 70
     0
300
1:1
140
1.0
141
1.0
290
     1
  0
SCALE
  5
4A3A7
102
{ACAD_REACTORS
330
4A3A5
102
}
330
4A3A5
100
AcDbScale
 70
     0
300
1:2
140
1.0
141
2.0
290
     0
  0
SCALE
  5
4A3A8
102
{ACAD_REACTORS
330
4A3A5
102
}
330
4A3A5
100
AcDbScale
 70
     0
300
1:4
140
1.0
141
4.0
290
     0
  0
SCALE
  5
4A3A9
102
{ACAD_REACTORS
330
4A3A5
102
}
330
4A3A5
100
AcDbScale
 70
     0
300
1:5
140
1.0
141
5.0
290
     0
  0
SCALE
  5
4A3AA
102
{ACAD_REACTORS
330
4A3A5
102
}
330
4A3A5
100
AcDbScale
 70
     0
300
1:8
140
1.0
141
8.0
290
     0
  0
SCALE
  5
4A3AB
102
{ACAD_REACTORS
330
4A3A5
102
}
330
4A3A5
100
AcDbScale
 70
     0
300
1:10
140
1.0
141
10.0
290
     0
  0
SCALE
  5
4A3AC
102
{ACAD_REACTORS
330
4A3A5
102
}
330
4A3A5
100
AcDbScale
 70
     0
300
1:16
140
1.0
141
16.0
290
     0
  0
SCALE
  5
4A3AD
102
{ACAD_REACTORS
330
4A3A5
102
}
330
4A3A5
100
AcDbScale
 70
     0
300
1:20
140
1.0
141
20.0
290
     0
  0
SCALE
  5
4A3AE
102
{ACAD_REACTORS
330
4A3A5
102
}
330
4A3A5
100
AcDbScale
 70
     0
300
1:30
140
1.0
141
30.0
290
     0
  0
SCALE
  5
4A3AF
102
{ACAD_REACTORS
330
4A3A5
102
}
330
4A3A5
100
AcDbScale
 70
     0
300
1:40
140
1.0
141
40.0
290
     0
  0
SCALE
  5
4A3B0
102
{ACAD_REACTORS
330
4A3A5
102
}
330
4A3A5
100
AcDbScale
 70
     0
300
1:50
140
1.0
141
50.0
290
     0
  0
SCALE
  5
4A3B1
102
{ACAD_REACTORS
330
4A3A5
102
}
330
4A3A5
100
AcDbScale
 70
     0
300
1:100
140
1.0
141
100.0
290
     0
  0
SCALE
  5
4A3B2
102
{ACAD_REACTORS
330
4A3A5
102
}
330
4A3A5
100
AcDbScale
 70
     0
300
2:1
140
2.0
141
1.0
290
     0
  0
SCALE
  5
4A3B3
102
{ACAD_REACTORS
330
4A3A5
102
}
330
4A3A5
100
AcDbScale
 70
     0
300
4:1
140
4.0
141
1.0
290
     0
  0
SCALE
  5
4A3B4
102
{ACAD_REACTORS
330
4A3A5
102
}
330
4A3A5
100
AcDbScale
 70
     0
300
8:1
140
8.0
141
1.0
290
     0
  0
SCALE
  5
4A3B5
102
{ACAD_REACTORS
330
4A3A5
102
}
330
4A3A5
100
AcDbScale
 70
     0
300
10:1
140
10.0
141
1.0
290
     0
  0
SCALE
  5
4A3B6
102
{ACAD_REACTORS
330
4A3A5
102
}
330
4A3A5
100
AcDbScale
 70
     0
300
100:1
140
100.0
141
1.0
290
     0
  0
ACDBSECTIONVIEWSTYLE
  5
4A3BA
102
{ACAD_XDICTIONARY
360
876D2
102
}
102
{ACAD_REACTORS
330
4A3B9
102
}
330
4A3B9
100
AcDbModelDocViewStyle
 70
     0
  3
Metric50
290
     0
100
AcDbSectionViewStyle
 70
     0
 71
     0
 90
      102
 71
     1
340
11
 40
5.0
340
0
340
0
 40
5.0
300
I, O, Q, S, X, Z
 40
10.0
 90
        0
 40
2.5
 90
        0
 71
     2
340
16
 90
       25
340
16
 90
       50
 40
5.0
 40
2.5
 40
5.0
 71
     3
340
11
 40
5.0
 90
        0
 40
15.0
 90
        1
300
%<\AcVar ViewSectionStartId>%-%<\AcVar ViewSectionEndId>% (%<\AcVar ViewScale \f "%sn">%)
 71
     4
300
ANSI31
 40
1.0
 90
        0
290
     0
290
     0
 90
        6
 40
0.0
 40
1.570796326794896
 40
0.2617993877991494
 40
1.308996938995747
 40
-0.2617993877991494
 40
1.832595714594044
  0
TABLESTYLE
  5
A2
102
{ACAD_XDICTIONARY
360
4CD9A
102
}
102
{ACAD_REACTORS
330
A1
102
}
330
A1
100
AcDbTableStyle
  3
Standard
 70
     0
 71
     0
 40
1.5
 41
1.5
280
     0
281
     0
  7
Standard
140
4.5
170
     2
 62
     0
 63
   257
283
     0
274
    -2
284
     1
 64
     0
275
    -2
285
     1
 65
     0
276
    -2
286
     1
 66
     0
277
    -2
287
     1
 67
     0
278
    -2
288
     1
 68
     0
279
    -2
289
     1
 69
     0
  7
Standard
140
6.0
170
     5
 62
     0
 63
   257
283
     0
274
    -2
284
     1
 64
     0
275
    -2
285
     1
 65
     0
276
    -2
286
     1
 66
     0
277
    -2
287
     1
 67
     0
278
    -2
288
     1
 68
     0
279
    -2
289
     1
 69
     0
  7
Standard
140
4.5
170
     5
 62
     0
 63
   257
283
     0
274
    -2
284
     1
 64
     0
275
    -2
285
     1
 65
     0
276
    -2
286
     1
 66
     0
277
    -2
287
     1
 67
     0
278
    -2
288
     1
 68
     0
279
    -2
289
     1
 69
     0
  0
VISUALSTYLE
  5
4A392
102
{ACAD_XDICTIONARY
360
876AC
102
}
102
{ACAD_REACTORS
330
4A38C
102
}
330
4A38C
100
AcDbVisualStyle
  2

 70
     4
 71
     0
 72
     2
 73
     0
 90
        0
 40
-0.6
 41
-30.0
 62
     5
 63
     7
 74
     1
 91
        4
 64
     7
 65
   257
 75
     1
175
     1
 42
1.0
 92
        0
 66
   257
 43
1.0
 76
     1
 77
     6
 78
     2
 67
     7
 79
     5
170
     0
171
     0
290
     0
174
     0
 93
        1
 44
0.0
173
     0
291
     0
 45
0.0
1001
ACAD
1000
AcDbSavedByObjectVersion
1070
     0
  0
VISUALSTYLE
  5
4A391
102
{ACAD_XDICTIONARY
360
876AA
102
}
102
{ACAD_REACTORS
330
4A38C
102
}
330
4A38C
100
AcDbVisualStyle
  2

 70
     7
 71
     1
 72
     0
 73
     1
 90
        0
 40
-0.6
 41
-30.0
 62
     5
 63
     7
 74
     0
 91
        4
 64
     7
 65
   257
 75
     1
175
     1
 42
1.0
 92
        8
 66
     7
 43
1.0
 76
     1
 77
     6
 78
     2
 67
     7
 79
     5
170
     0
171
     0
290
     0
174
     0
 93
        1
 44
0.0
173
     0
291
     1
 45
0.0
1001
ACAD
1000
AcDbSavedByObjectVersion
1070
     0
  0
VISUALSTYLE
  5
4A398
102
{ACAD_XDICTIONARY
360
876B8
102
}
102
{ACAD_REACTORS
330
4A38C
102
}
330
4A38C
100
AcDbVisualStyle
  2

 70
    12
 71
     2
 72
     2
 73
     0
 90
        0
 40
-0.6
 41
-30.0
 62
     5
 63
     7
 74
     1
 91
        4
 64
     7
 65
   257
 75
     1
175
     1
 42
1.0
 92
        8
 66
     7
 43
1.0
 76
     1
 77
     6
 78
     2
 67
     7
 79
     5
170
     0
171
     0
290
     0
174
     0
 93
        1
 44
50.0
173
     0
291
     1
 45
0.0
1001
ACAD
1000
AcDbSavedByObjectVersion
1070
     0
  0
VISUALSTYLE
  5
4A39C
102
{ACAD_XDICTIONARY
360
876C0
102
}
102
{ACAD_REACTORS
330
4A38C
102
}
330
4A38C
100
AcDbVisualStyle
  2

 70
    16
 71
     2
 72
     2
 73
     3
 90
        0
 40
-0.6
 41
-30.0
 62
     5
 63
     8
 74
     1
 91
        4
 64
     7
 65
   257
 75
     1
175
     1
 42
1.0
 92
        8
 66
     8
 43
1.0
 76
     1
 77
     6
 78
     2
 67
     7
 79
     5
170
     0
171
     0
290
     0
174
     0
 93
        1
 44
0.0
173
     0
291
     1
 45
0.0
1001
ACAD
1000
AcDbSavedByObjectVersion
1070
     0
  0
VISUALSTYLE
  5
4A395
102
{ACAD_XDICTIONARY
360
876B2
102
}
102
{ACAD_REACTORS
330
4A38C
102
}
330
4A38C
100
AcDbVisualStyle
  2

 70
     9
 71
     3
 72
     2
 73
     0
 90
        0
 40
-0.6
 41
-30.0
 62
     5
 63
     7
 74
     2
 91
        2
 64
     7
 65
   257
 75
     1
175
     1
 42
179.0
 92
        8
 66
     7
 43
1.0
 76
     1
 77
     6
 78
     2
 67
     7
 79
     3
170
     0
171
     0
290
     0
174
     0
 93
        1
 44
0.0
173
     0
291
     0
 45
0.0
1001
ACAD
1000
AcDbSavedByObjectVersion
1070
     0
  0
VISUALSTYLE
  5
4A397
102
{ACAD_XDICTIONARY
360
876B6
102
}
102
{ACAD_REACTORS
330
4A38C
102
}
330
4A38C
100
AcDbVisualStyle
  2

 70
    11
 71
     2
 72
     2
 73
     0
 90
        0
 40
-0.6
 41
-30.0
 62
     5
 63
     7
 74
     1
 91
        4
 64
     7
 65
   257
 75
     1
175
     1
 42
1.0
 92
        8
 66
     7
 43
1.0
 76
     1
 77
     6
 78
     2
 67
     7
 79
     5
170
     0
171
     0
290
     0
174
     0
 93
        1
 44
-50.0
173
     0
291
     1
 45
0.0
1001
ACAD
1000
AcDbSavedByObjectVersion
1070
     0
  0
VISUALSTYLE
  5
4A3A4
102
{ACAD_XDICTIONARY
360
876D0
102
}
102
{ACAD_REACTORS
330
4A38C
102
}
330
4A38C
100
AcDbVisualStyle
  2

 70
    22
 71
     2
 72
     2
 73
     0
 90
        0
 40
-0.6
 41
-30.0
 62
     5
 63
     7
 74
     1
 91
        4
 64
     7
 65
   257
 75
     1
175
     1
 42
1.0
 92
        8
 66
     7
 43
1.0
 76
     1
 77
     6
 78
     2
 67
     7
 79
     5
170
     0
171
     0
290
     0
174
     0
 93
        1
 44
0.0
173
     0
291
     1
 45
0.0
1001
ACAD
1000
AcDbSavedByObjectVersion
1070
     0
  0
VISUALSTYLE
  5
4A39B
102
{ACAD_XDICTIONARY
360
876BE
102
}
102
{ACAD_REACTORS
330
4A38C
102
}
330
4A38C
100
AcDbVisualStyle
  2

 70
    15
 71
     2
 72
     2
 73
     0
 90
        0
 40
-0.6
 41
-30.0
 62
     5
 63
     7
 74
     1
 91
        4
 64
     7
 65
   257
 75
     1
175
     1
 42
1.0
 92
        8
 66
     7
 43
1.0
 76
     1
 77
     6
 78
     2
 67
     7
 79
     5
170
     0
171
     0
290
     0
174
     0
 93
        1
 44
0.0
173
     0
291
     1
 45
0.0
1001
ACAD
1000
AcDbSavedByObjectVersion
1070
     0
  0
VISUALSTYLE
  5
4A38D
102
{ACAD_XDICTIONARY
360
876A2
102
}
102
{ACAD_REACTORS
330
4A38C
102
}
330
4A38C
100
AcDbVisualStyle
  2

 70
     0
 71
     2
 72
     1
 73
     1
 90
        2
 40
-0.6
 41
30.0
 62
     5
 63
     7
 74
     0
 91
        0
 64
     7
 65
   257
 75
     1
175
     1
 42
1.0
 92
        8
 66
     7
 43
1.0
 76
     1
 77
     6
 78
     2
 67
     7
 79
     5
170
     0
171
     0
290
     0
174
     0
 93
       13
 44
0.0
173
     0
291
     1
 45
0.0
1001
ACAD
1000
AcDbSavedByObjectVersion
1070
     0
  0
VISUALSTYLE
  5
4A38E
102
{ACAD_XDICTIONARY
360
876A4
102
}
102
{ACAD_REACTORS
330
4A38C
102
}
330
4A38C
100
AcDbVisualStyle
  2

 70
     1
 71
     2
 72
     1
 73
     1
 90
        2
 40
-0.6
 41
30.0
 62
     5
 63
     7
 74
     1
 91
        0
 64
     7
 65
   257
 75
     1
175
     1
 42
1.0
 92
        0
 66
   257
 43
1.0
 76
     1
 77
     6
 78
     2
 67
     7
 79
     5
170
     0
171
     0
290
     0
174
     0
 93
       13
 44
0.0
173
     0
291
     1
 45
0.0
1001
ACAD
1000
AcDbSavedByObjectVersion
1070
     0
  0
VISUALSTYLE
  5
4A38F
102
{ACAD_XDICTIONARY
360
876A6
102
}
102
{ACAD_REACTORS
330
4A38C
102
}
330
4A38C
100
AcDbVisualStyle
  2

 70
     2
 71
     2
 72
     2
 73
     1
 90
        2
 40
-0.6
 41
30.0
 62
     5
 63
     7
 74
     0
 91
        0
 64
     7
 65
   257
 75
     1
175
     1
 42
1.0
 92
        0
 66
     7
 43
1.0
 76
     1
 77
     6
 78
     2
 67
     7
 79
     5
170
     0
171
     0
290
     0
174
     0
 93
       13
 44
0.0
173
     0
291
     1
 45
0.0
1001
ACAD
1000
AcDbSavedByObjectVersion
1070
     0
  0
VISUALSTYLE
  5
4A390
102
{ACAD_XDICTIONARY
360
876A8
102
}
102
{ACAD_REACTORS
330
4A38C
102
}
330
4A38C
100
AcDbVisualStyle
  2

 70
     3
 71
     2
 72
     2
 73
     1
 90
        2
 40
-0.6
 41
30.0
 62
     5
 63
     7
 74
     1
 91
        0
 64
     7
 65
   257
 75
     1
175
     1
 42
1.0
 92
        0
 66
   257
 43
1.0
 76
     1
 77
     6
 78
     2
 67
     7
 79
     5
170
     0
171
     0
290
     0
174
     0
 93
       13
 44
0.0
173
     0
291
     1
 45
0.0
1001
ACAD
1000
AcDbSavedByObjectVersion
1070
     0
  0
VISUALSTYLE
  5
4A394
102
{ACAD_XDICTIONARY
360
876B0
102
}
102
{ACAD_REACTORS
330
4A38C
102
}
330
4A38C
100
AcDbVisualStyle
  2

 70
     6
 71
     1
 72
     2
 73
     2
 90
        0
 40
-0.6
 41
-30.0
 62
     5
 63
     7
 74
     2
 91
        2
 64
     7
 65
   257
 75
     2
175
     1
 42
40.0
 92
        0
 66
   257
 43
1.0
 76
     1
 77
     6
 78
     2
 67
     7
 79
     3
170
     0
171
     0
290
     0
174
     0
 93
        1
 44
0.0
173
     0
291
     0
 45
0.0
1001
ACAD
1000
AcDbSavedByObjectVersion
1070
     0
  0
VISUALSTYLE
  5
4A3A2
102
{ACAD_XDICTIONARY
360
876CC
102
}
102
{ACAD_REACTORS
330
4A38C
102
}
330
4A38C
100
AcDbVisualStyle
  2

 70
    20
 71
     2
 72
     2
 73
     0
 90
        0
 40
-0.6
 41
-30.0
 62
     5
 63
     7
 74
     1
 91
        4
 64
     7
 65
   257
 75
     1
175
     1
 42
1.0
 92
       10
 66
     7
 43
1.0
 76
     1
 77
     6
 78
     2
 67
     7
 79
     5
170
     0
171
     0
290
     0
174
     0
 93
        1
 44
0.0
173
     0
291
     1
 45
0.0
1001
ACAD
1000
AcDbSavedByObjectVersion
1070
     0
  0
VISUALSTYLE
  5
4A39A
102
{ACAD_XDICTIONARY
360
876BC
102
}
102
{ACAD_REACTORS
330
4A38C
102
}
330
4A38C
100
AcDbVisualStyle
  2

 70
    14
 71
     2
 72
     2
 73
     0
 90
        0
 40
-0.6
 41
-30.0
 62
     5
 63
     7
 74
     1
 91
        4
 64
     7
 65
   257
 75
     7
175
     7
 42
1.0
 92
        8
 66
     7
 43
1.0
 76
     1
 77
     6
 78
     2
 67
     7
 79
     5
170
     0
171
     0
290
     0
174
     0
 93
        1
 44
0.0
173
     0
291
     1
 45
0.0
1001
ACAD
1000
AcDbSavedByObjectVersion
1070
     0
  0
VISUALSTYLE
  5
4A3A3
102
{ACAD_XDICTIONARY
360
876CE
102
}
102
{ACAD_REACTORS
330
4A38C
102
}
330
4A38C
100
AcDbVisualStyle
  2

 70
    21
 71
     2
 72
     2
 73
     0
 90
        0
 40
-0.6
 41
-30.0
 62
     5
 63
     7
 74
     1
 91
        4
 64
     7
 65
   257
 75
     1
175
     1
 42
1.0
 92
        9
 66
     7
 43
1.0
 76
     1
 77
     6
 78
     2
 67
     7
 79
     5
170
     0
171
     0
290
     0
174
     0
 93
        1
 44
0.0
173
     0
291
     1
 45
0.0
1001
ACAD
1000
AcDbSavedByObjectVersion
1070
     0
  0
VISUALSTYLE
  5
4A396
102
{ACAD_XDICTIONARY
360
876B4
102
}
102
{ACAD_REACTORS
330
4A38C
102
}
330
4A38C
100
AcDbVisualStyle
  2

 70
     8
 71
     2
 72
     3
 73
     0
 90
        2
 40
-0.6
 41
30.0
 62
     5
 63
     7
 74
     0
 91
        0
 64
     7
 65
   257
 75
     1
175
     1
 42
1.0
 92
        8
 66
   257
 43
1.0
 76
     1
 77
     6
 78
     2
 67
     7
 79
     3
170
     0
171
     0
290
     0
174
     0
 93
       13
 44
0.0
173
     0
291
     0
 45
0.0
1001
ACAD
1000
AcDbSavedByObjectVersion
1070
     0
  0
VISUALSTYLE
  5
4A3A1
102
{ACAD_XDICTIONARY
360
876CA
102
}
102
{ACAD_REACTORS
330
4A38C
102
}
330
4A38C
100
AcDbVisualStyle
  2

 70
    27
 71
     2
 72
     2
 73
     1
 90
        2
 40
-0.6
 41
30.0
 62
     5
 63
     7
 74
     0
 91
        4
 64
     7
 65
   257
 75
     1
175
     1
 42
1.0
 92
        8
 66
   257
 43
1.0
 76
     1
 77
     6
 78
     2
 67
     8
 79
     3
170
     0
171
     0
290
     0
174
     0
 93
        5
 44
0.0
173
     0
291
     0
 45
0.0
1001
ACAD
1000
AcDbSavedByObjectVersion
1070
     0
  0
VISUALSTYLE
  5
4A3A0
102
{ACAD_XDICTIONARY
360
876C8
102
}
102
{ACAD_REACTORS
330
4A38C
102
}
330
4A38C
100
AcDbVisualStyle
  2

 70
    26
 71
     2
 72
     2
 73
     1
 90
        2
 40
-0.6
 41
30.0
 62
     5
 63
     7
 74
     1
 91
        2
 64
     7
 65
   257
 75
     2
175
     1
 42
1.0
 92
        8
 66
   257
 43
1.0
 76
     1
 77
     6
 78
     2
 67
     7
 79
     3
170
     0
171
     0
290
     0
174
     0
 93
        5
 44
0.0
173
     0
291
     0
 45
0.0
1001
ACAD
1000
AcDbSavedByObjectVersion
1070
     0
  0
VISUALSTYLE
  5
4A39D
102
{ACAD_XDICTIONARY
360
876C2
102
}
102
{ACAD_REACTORS
330
4A38C
102
}
330
4A38C
100
AcDbVisualStyle
  2

 70
    23
 71
     2
 72
     2
 73
     3
 90
        0
 40
-0.6
 41
-30.0
 62
     5
 63
     7
 74
     2
 91
        2
 64
     7
 65
     7
 75
     1
175
     1
 42
40.0
 92
        8
 66
     7
 43
1.0
 76
     1
 77
     6
 78
     2
 67
     7
 79
     3
170
     0
171
     0
290
     0
174
     0
 93
        1
 44
0.0
173
     0
291
     0
 45
0.0
1001
ACAD
1000
AcDbSavedByObjectVersion
1070
     0
  0
VISUALSTYLE
  5
4A39E
102
{ACAD_XDICTIONARY
360
876C4
102
}
102
{ACAD_REACTORS
330
4A38C
102
}
330
4A38C
100
AcDbVisualStyle
  2

 70
    24
 71
     1
 72
     2
 73
     2
 90
        0
 40
-0.6
 41
-30.0
 62
     5
 63
     7
 74
     2
 91
        2
 64
     7
 65
     7
 75
     1
175
     1
 42
40.0
 92
       11
 66
     7
 43
1.0
 76
     1
 77
     6
 78
     2
 67
     7
 79
     6
170
     0
171
     0
290
     0
174
     0
 93
        1
 44
0.0
173
     0
291
     0
 45
0.0
1001
ACAD
1000
AcDbSavedByObjectVersion
1070
     0
  0
VISUALSTYLE
  5
4A399
102
{ACAD_XDICTIONARY
360
876BA
102
}
102
{ACAD_REACTORS
330
4A38C
102
}
330
4A38C
100
AcDbVisualStyle
  2

 70
    13
 71
     2
 72
     2
 73
     0
 90
        0
 40
-0.6
 41
-30.0
 62
     5
 63
     7
 74
     1
 91
        4
 64
     7
 65
   257
 75
     1
175
     1
 42
1.0
 92
       12
 66
     7
 43
1.0
 76
     1
 77
     6
 78
     2
 67
     7
 79
     5
170
     0
171
     0
290
     0
174
     0
 93
        1
 44
0.0
173
     0
291
     1
 45
0.0
1001
ACAD
1000
AcDbSavedByObjectVersion
1070
     0
  0
VISUALSTYLE
  5
4A393
102
{ACAD_XDICTIONARY
360
876AE
102
}
102
{ACAD_REACTORS
330
4A38C
102
}
330
4A38C
100
AcDbVisualStyle
  2

 70
     5
 71
     0
 72
     2
 73
     0
 90
        0
 40
-0.6
 41
-30.0
 62
     5
 63
     7
 74
     1
 91
        4
 64
     7
 65
   257
 75
     1
175
     1
 42
1.0
 92
        0
 66
   257
 43
1.0
 76
     1
 77
     6
 78
     2
 67
     7
 79
     3
170
     0
171
     0
290
     0
174
     0
 93
        1
 44
0.0
173
     0
291
     0
 45
0.0
1001
ACAD
1000
AcDbSavedByObjectVersion
1070
     0
  0
VISUALSTYLE
  5
4A39F
102
{ACAD_XDICTIONARY
360
876C6
102
}
102
{ACAD_REACTORS
330
4A38C
102
}
330
4A38C
100
AcDbVisualStyle
  2

 70
    25
 71
     2
 72
     2
 73
     1
 90
        1
 40
0.5
 41
-30.0
 62
     5
 63
     7
 74
     1
 91
        0
 64
     7
 65
   257
 75
     1
175
     1
 42
1.0
 92
        8
 66
     7
 43
1.0
 76
     1
 77
     6
 78
     2
 67
     7
 79
     3
170
     0
171
     0
290
     0
174
     0
 93
       13
 44
0.0
173
     0
291
     0
 45
0.0
1001
ACAD
1000
AcDbSavedByObjectVersion
1070
     0
  0
XRECORD
  5
C25D6
102
{ACAD_REACTORS
330
C25D5
102
}
330
C25D5
100
AcDbXrecord
280
     1
340
85
  0
XRECORD
  5
C25D7
102
{ACAD_REACTORS
330
C25D5
102
}
330
C25D5
100
AcDbXrecord
280
     1
340
84
  0
DICTIONARYVAR
  5
C153D
102
{ACAD_REACTORS
330
5E
102
}
330
5E
100
DictionaryVariables
280
   100
  1
1:1
  0
DICTIONARYVAR
  5
4A6CE
102
{ACAD_REACTORS
330
5E
102
}
330
5E
100
DictionaryVariables
280
     0
  1
STANDARD
  0
DICTIONARYVAR
  5
B8
102
{ACAD_REACTORS
330
5E
102
}
330
5E
100
DictionaryVariables
280
     0
  1
STANDARD
  0
DICTIONARYVAR
  5
4A6CF
102
{ACAD_REACTORS
330
5E
102
}
330
5E
100
DictionaryVariables
280
     0
  1
Metric50
  0
DICTIONARYVAR
  5
4A6D0
102
{ACAD_REACTORS
330
5E
102
}
330
5E
100
DictionaryVariables
280
     0
  1
Metric50
  0
DICTIONARYVAR
  5
5F
102
{ACAD_REACTORS
330
5E
102
}
330
5E
100
DictionaryVariables
280
     0
  1
2
  0
DICTIONARYVAR
  5
63
102
{ACAD_REACTORS
330
5E
102
}
330
5E
100
DictionaryVariables
280
     0
  1
1
  0
DICTIONARYVAR
  5
4A879
102
{ACAD_REACTORS
330
5E
102
}
330
5E
100
DictionaryVariables
280
     0
  1
0
  0
DICTIONARYVAR
  5
4A6D4
102
{ACAD_REACTORS
330
5E
102
}
330
5E
100
DictionaryVariables
280
     0
  1
1
  0
DICTIONARYVAR
  5
4A6D5
102
{ACAD_REACTORS
330
5E
102
}
330
5E
100
DictionaryVariables
280
     0
  1
15
  0
DICTIONARYVAR
  5
4A6D3
102
{ACAD_REACTORS
330
5E
102
}
330
5E
100
DictionaryVariables
280
     0
  1
0
  0
DICTIONARYVAR
  5
4A6D1
102
{ACAD_REACTORS
330
5E
102
}
330
5E
100
DictionaryVariables
280
     0
  1
0
  0
DICTIONARYVAR
  5
31CE
102
{ACAD_REACTORS
330
5E
102
}
330
5E
100
DictionaryVariables
280
     0
  1

  0
DICTIONARYVAR
  5
4A878
102
{ACAD_REACTORS
330
5E
102
}
330
5E
100
DictionaryVariables
280
     0
  1
127
  0
DICTIONARYVAR
  5
5A559
102
{ACAD_REACTORS
330
5E
102
}
330
5E
100
DictionaryVariables
280
     0
  1
2
  0
XRECORD
  5
349EA
102
{ACAD_REACTORS
330
349E9
102
}
330
349E9
100
AcDbXrecord
280
     1
330
0
330
0
330
0
330
0
330
0
330
0
330
0
330
0
330
0
330
0
330
0
330
0
330
0
330
0
330
0
330
0
330
0
330
0
330
0
330
0
330
0
330
0
330
0
330
0
330
0
330
0
330
0
330
0
330
0
330
0
330
0
330
0
330
0
330
0
330
0
330
0
330
0
330
0
330
0
330
0
330
0
330
0
330
0
330
0
330
0
330
0
330
0
330
0
330
0
330
0
330
0
330
0
330
0
330
0
330
0
330
0
330
0
330
0
330
0
330
0
330
0
330
0
330
0
330
0
330
0
330
0
330
0
330
0
330
0
330
0
330
0
330
0
330
0
330
0
330
0
330
0
330
0
330
0
330
0
330
0
330
0
330
0
330
0
330
0
330
0
330
0
330
0
330
0
330
0
330
0
330
0
330
0
330
0
330
0
330
0
330
0
330
0
330
0
330
0
330
0
330
0
330
0
330
0
330
0
330
0
330
0
330
0
330
0
330
0
330
0
  0
XRECORD
  5
87AB6
102
{ACAD_REACTORS
330
87AB3
102
}
330
87AB3
100
AcDbXrecord
280
     1
301
87AB5
310
47420000000000000000000000000000000000000000000000000000000000000000000000000000000000000000000000000000000000000000000000000000000000000000000000000000
  0
DICTIONARY
  5
87AF2
102
{ACAD_REACTORS
330
87AB3
102
}
330
87AB3
100
AcDbDictionary
281
     1
  3
ZWM_CFG_DICT
350
87AF3
  0
DICTIONARY
  5
87AB4
102
{ACAD_REACTORS
330
87AB3
102
}
330
87AB3
100
AcDbDictionary
281
     1
  3
GB
350
87AB5
  0
DICTIONARY
  5
876D4
330
4A3BC
100
AcDbDictionary
280
     1
281
     1
  3
ACAD_XREC_ROUNDTRIP
360
876D5
  0
DICTIONARY
  5
4A37D
330
4A37C
100
AcDbDictionary
280
     1
281
     1
  3
ACAD_XREC_ROUNDTRIP
360
C25DE
  0
DICTIONARY
  5
4A375
330
4A374
100
AcDbDictionary
280
     1
281
     1
  3
ACAD_XREC_ROUNDTRIP
360
C25DF
  0
DICTIONARY
  5
4A385
330
4A384
100
AcDbDictionary
280
     1
281
     1
  3
ACAD_XREC_ROUNDTRIP
360
C25E0
  0
DICTIONARY
  5
87B8D
330
4A3B8
100
AcDbDictionary
280
     1
281
     1
  3
ACAD_XREC_ROUNDTRIP
360
C25E1
  0
DICTIONARY
  5
876D2
330
4A3BA
100
AcDbDictionary
280
     1
281
     1
  3
ACAD_XREC_ROUNDTRIP
360
876D3
  0
DICTIONARY
  5
4CD9A
330
A2
100
AcDbDictionary
280
     1
281
     1
  3
ACAD_ROUNDTRIP_2008_TABLESTYLE_CELLSTYLEMAP
360
C25E3
  3
ACAD_XREC_ROUNDTRIP
360
C25E2
  0
DICTIONARY
  5
876AC
330
4A392
100
AcDbDictionary
280
     1
281
     1
  3
ACAD_XREC_ROUNDTRIP
360
C25E4
  0
DICTIONARY
  5
876AA
330
4A391
100
AcDbDictionary
280
     1
281
     1
  3
ACAD_XREC_ROUNDTRIP
360
C25E5
  0
DICTIONARY
  5
876B8
330
4A398
100
AcDbDictionary
280
     1
281
     1
  3
ACAD_XREC_ROUNDTRIP
360
C25E6
  0
DICTIONARY
  5
876C0
330
4A39C
100
AcDbDictionary
280
     1
281
     1
  3
ACAD_XREC_ROUNDTRIP
360
C25E7
  0
DICTIONARY
  5
876B2
330
4A395
100
AcDbDictionary
280
     1
281
     1
  3
ACAD_XREC_ROUNDTRIP
360
C25E8
  0
DICTIONARY
  5
876B6
330
4A397
100
AcDbDictionary
280
     1
281
     1
  3
ACAD_XREC_ROUNDTRIP
360
C25E9
  0
DICTIONARY
  5
876D0
330
4A3A4
100
AcDbDictionary
280
     1
281
     1
  3
ACAD_XREC_ROUNDTRIP
360
C25EA
  0
DICTIONARY
  5
876BE
330
4A39B
100
AcDbDictionary
280
     1
281
     1
  3
ACAD_XREC_ROUNDTRIP
360
C25EB
  0
DICTIONARY
  5
876A2
330
4A38D
100
AcDbDictionary
280
     1
281
     1
  3
ACAD_XREC_ROUNDTRIP
360
C25EC
  0
DICTIONARY
  5
876A4
330
4A38E
100
AcDbDictionary
280
     1
281
     1
  3
ACAD_XREC_ROUNDTRIP
360
C25ED
  0
DICTIONARY
  5
876A6
330
4A38F
100
AcDbDictionary
280
     1
281
     1
  3
ACAD_XREC_ROUNDTRIP
360
C25EE
  0
DICTIONARY
  5
876A8
330
4A390
100
AcDbDictionary
280
     1
281
     1
  3
ACAD_XREC_ROUNDTRIP
360
C25EF
  0
DICTIONARY
  5
876B0
330
4A394
100
AcDbDictionary
280
     1
281
     1
  3
ACAD_XREC_ROUNDTRIP
360
C25F0
  0
DICTIONARY
  5
876CC
330
4A3A2
100
AcDbDictionary
280
     1
281
     1
  3
ACAD_XREC_ROUNDTRIP
360
C25F1
  0
DICTIONARY
  5
876BC
330
4A39A
100
AcDbDictionary
280
     1
281
     1
  3
ACAD_XREC_ROUNDTRIP
360
C25F2
  0
DICTIONARY
  5
876CE
330
4A3A3
100
AcDbDictionary
280
     1
281
     1
  3
ACAD_XREC_ROUNDTRIP
360
C25F3
  0
DICTIONARY
  5
876B4
330
4A396
100
AcDbDictionary
280
     1
281
     1
  3
ACAD_XREC_ROUNDTRIP
360
C25F4
  0
DICTIONARY
  5
876CA
330
4A3A1
100
AcDbDictionary
280
     1
281
     1
  3
ACAD_XREC_ROUNDTRIP
360
C25F5
  0
DICTIONARY
  5
876C8
330
4A3A0
100
AcDbDictionary
280
     1
281
     1
  3
ACAD_XREC_ROUNDTRIP
360
C25F6
  0
DICTIONARY
  5
876C2
330
4A39D
100
AcDbDictionary
280
     1
281
     1
  3
ACAD_XREC_ROUNDTRIP
360
C25F7
  0
DICTIONARY
  5
876C4
330
4A39E
100
AcDbDictionary
280
     1
281
     1
  3
ACAD_XREC_ROUNDTRIP
360
C25F8
  0
DICTIONARY
  5
876BA
330
4A399
100
AcDbDictionary
280
     1
281
     1
  3
ACAD_XREC_ROUNDTRIP
360
C25F9
  0
DICTIONARY
  5
876AE
330
4A393
100
AcDbDictionary
280
     1
281
     1
  3
ACAD_XREC_ROUNDTRIP
360
C25FA
  0
DICTIONARY
  5
876C6
330
4A39F
100
AcDbDictionary
280
     1
281
     1
  3
ACAD_XREC_ROUNDTRIP
360
C25FB
  0
XRECORD
  5
87AF3
102
{ACAD_REACTORS
330
87AF2
102
}
330
87AF2
100
AcDbXrecord
280
     1
310
010000005A776D4672616D654D61696E5F00000000000000000000000000000000000000000000000000000000000000000000000000000000000000000000000000000000000000000000000000000000000000000000000000000000000000FEFFFFFFFFFFFFFF0000000000000000000000000000000000000000000000000000000000000000
  0
ZWMSTANDARD
  5
87AB5
102
{ACAD_REACTORS
330
87AB4
102
}
330
87AB4
100
ZwmObject
 70
     1
  1

  1
GB
  1
GB
  1

 70
     0
100
ZwmStd
 70
     1
 70
     1
 70
     2
  1

  1
GB
340
0
340
0
340
0
340
0
340
0
340
0
340
0
340
0
 70
    -1
 70
    -1
 70
    -1
 70
    -1
 70
    -1
 70
    -1
 70
    -1
 70
    -1
 70
    -1
 70
    -1
 70
    -1
 70
    -1
 70
    -1
 70
    -1
 70
    -1
 70
    -1
 90
       -1
 90
       -1
 90
       -1
 90
       -1
 90
       -1
 90
       -1
 90
       -1
 90
       -1
  1

  1

  1

  1

  1

  1

  1

  1

100
ZwmStandard
 70
     1
100
ZwmSymProperties
 70
     2
  1

  1

  1

  1

 70
     0
 70
     0
 40
3.5
 40
1.0
 70
    -1
 70
    -1
 70
    -1
 70
    -1
 40
0.0
 70
   100
 70
     0
 70
     0
 70
     0
 70
     0
 70
     0
340
0
 40
1.0
 40
1.0
 40
1.0
 40
1.0
 40
1.0
 40
1.0
 40
3.5
 40
3.5
 40
3.5
 40
3.5
 40
3.5
 40
3.5
 70
    -1
 70
    -1
 70
    -1
 70
    -1
 70
    -1
 70
    -1
 70
    -1
 70
    -1
 70
    -1
 70
    -1
 70
    -1
 70
    -1
340
0
340
0
340
0
340
0
340
0
340
0
340
0
340
0
340
0
340
0
340
0
340
0
340
0
340
0
 70
    -1
 70
    -1
 70
    -1
 70
    -1
 70
    -1
 70
    -1
 70
    -1
 70
    -1
 70
    -1
 70
    -1
 70
    -1
 70
    -1
 70
    -1
 70
    -1
 70
    -1
 70
    -1
 90
       -1
 90
       -1
 90
       -1
 90
       -1
 90
       -1
 90
       -1
 90
       -1
 90
       -1
  1

  1

  1

  1

  1

  1

  1

  1

 70
     0
100
ZwmStandardProperties
 70
     1
 40
2.5
 40
3.5
 40
5.0
 40
7.0
 40
2.5
 40
3.5
 40
5.0
 40
7.0
340
0
340
0
 70
     0
 70
     1
 70
     1
 70
     3
 70
     0
 70
     1
 70
     1
 40
-1.0
 70
    27
360
87AB7
360
87ACA
360
87AD1
360
87AD2
360
87ADB
360
87ADC
360
87ADD
360
87ADE
360
87ADF
360
87AE0
360
87AE1
360
87AE2
360
87AE3
360
87AE4
360
87AE5
360
87AE6
360
87AE7
360
87AE8
360
87AE9
360
87AEA
360
87AEB
360
87AEC
360
87AED
360
87AEE
360
87AEF
360
87AF0
360
87AF1
 70
    30
  1
ZWMCL_CYAN
 70
    10
  1
ZWMCL_BLUE
 70
     4
  1
ZWMCL_DIMTEXT
 70
   256
  1
ZWMCL_BYBLOCK
 70
     0
  1
ZWMCL_DIMTEXT_VERYLARGE
 70
   256
  1
ZWMCL_YELLOW
 70
     2
  1
ZWMCL_DIMTEXT_SMALL
 70
   256
  1
ZWMCL_GREEN
 70
     3
  1
ZWMCL_TEXT2
 70
   256
  1
ZWMCL_TEXT3
 70
   256
  1
ZWMCL_TEXT
 70
     1
  1
ZWMCL_BLACK
 70
    10
  1
ZWMCL_DIMTEXT_MEDIUM
 70
   256
  1
ZWMCL_WHITE
 70
     7
  1
ZWMCL_TEXT1
 70
   256
  1
ZWMCL_DIM6
 70
   256
  1
ZWMCL_DIM5
 70
   256
  1
ZWMCL_DIM4
 70
   256
  1
ZWMCL_DIM3
 70
   256
  1
ZWMCL_DIM2
 70
   256
  1
ZWMCL_DIM1
 70
   256
  1
ZWMCL_DIM
 70
   256
  1
ZWMCL_TEXT6
 70
   256
  1
ZWMCL_DIMARROW
 70
   256
  1
ZWMCL_TEXT4
 70
   256
  1
ZWMCL_DIMTEXT_LARGE
 70
   256
  1
ZWMCL_RED
 70
    17
  1
ZWMCL_TEXT5
 70
   256
  1
ZWMCL_DIMLEADER
 70
   256
  1
ZWMCL_BYLAYER
 70
   256
  0
XRECORD
  5
876D5
102
{ACAD_REACTORS
330
876D4
102
}
330
876D4
100
AcDbXrecord
280
     1
102
DISPLAYNAME
  1
Metric50
102
FLAGS
 90
        0
  0
XRECORD
  5
C25DE
102
{ACAD_REACTORS
330
4A37D
102
}
330
4A37D
100
AcDbXrecord
280
     1
102
MATERIAL
148
0.0
149
0.0
149
0.0
 93
        0
 94
      127
282
     0
 72
     0
 77
     0
171
     0
175
     0
179
     0
273
     0
  0
XRECORD
  5
C25DF
102
{ACAD_REACTORS
330
4A375
102
}
330
4A375
100
AcDbXrecord
280
     1
102
MATERIAL
148
0.0
149
0.0
149
0.0
 93
        0
 94
      127
282
     0
 72
     0
 77
     0
171
     0
175
     0
179
     0
273
     0
  0
XRECORD
  5
C25E0
102
{ACAD_REACTORS
330
4A385
102
}
330
4A385
100
AcDbXrecord
280
     1
102
MATERIAL
148
0.0
149
0.0
149
0.0
 93
        0
 94
      127
282
     0
 72
     0
 77
     0
171
     0
175
     0
179
     0
273
     0
  0
XRECORD
  5
C25E1
102
{ACAD_REACTORS
330
87B8D
102
}
330
87B8D
100
AcDbXrecord
280
     1
102
ACAD_ROUNDTRIP_2010_MLEADER_STYLE
  0
XRECORD
  5
876D3
102
{ACAD_REACTORS
330
876D2
102
}
330
876D2
100
AcDbXrecord
280
     1
102
DISPLAYNAME
  1
Metric50
102
FLAGS
 90
        0
  0
CELLSTYLEMAP
  5
C25E3
102
{ACAD_REACTORS
330
4CD9A
102
}
330
4CD9A
100
AcDbCellStyleMap
 90
        3
300
CELLSTYLE
  1
TABLEFORMAT_BEGIN
 90
        5
170
     1
 91
        0
 92
    32768
 62
   257
 93
        1
300
CONTENTFORMAT
  1
CONTENTFORMAT_BEGIN
 90
        0
 91
        0
 92
        4
 93
        0
300

 40
0.0
140
1.0
 94
        5
 62
     0
340
11
144
6.0
309
CONTENTFORMAT_END
171
     1
301
MARGIN
  1
CELLMARGIN_BEGIN
 40
1.5
 40
1.5
 40
1.5
 40
1.5
 40
0.18
 40
0.18
309
CELLMARGIN_END
 94
        6
 95
        1
302
GRIDFORMAT
  1
GRIDFORMAT_BEGIN
 90
        0
 91
        1
 62
     0
 92
       -2
340
0
 93
        0
 40
0.045
309
GRIDFORMAT_END
 95
        2
302
GRIDFORMAT
  1
GRIDFORMAT_BEGIN
 90
        0
 91
        1
 62
     0
 92
       -2
340
0
 93
        0
 40
0.045
309
GRIDFORMAT_END
 95
        4
302
GRIDFORMAT
  1
GRIDFORMAT_BEGIN
 90
        0
 91
        1
 62
     0
 92
       -2
340
0
 93
        0
 40
0.045
309
GRIDFORMAT_END
 95
        8
302
GRIDFORMAT
  1
GRIDFORMAT_BEGIN
 90
        0
 91
        1
 62
     0
 92
       -2
340
0
 93
        0
 40
0.045
309
GRIDFORMAT_END
 95
       16
302
GRIDFORMAT
  1
GRIDFORMAT_BEGIN
 90
        0
 91
        1
 62
     0
 92
       -2
340
0
 93
        0
 40
0.045
309
GRIDFORMAT_END
 95
       32
302
GRIDFORMAT
  1
GRIDFORMAT_BEGIN
 90
        0
 91
        1
 62
     0
 92
       -2
340
0
 93
        0
 40
0.045
309
GRIDFORMAT_END
309
TABLEFORMAT_END
  1
CELLSTYLE_BEGIN
 90
        1
 91
        1
300
_TITLE
309
CELLSTYLE_END
300
CELLSTYLE
  1
TABLEFORMAT_BEGIN
 90
        5
170
     1
 91
        0
 92
        0
 62
   257
 93
        1
300
CONTENTFORMAT
  1
CONTENTFORMAT_BEGIN
 90
        0
 91
        0
 92
        4
 93
        0
300

 40
0.0
140
1.0
 94
        5
 62
     0
340
11
144
4.5
309
CONTENTFORMAT_END
171
     1
301
MARGIN
  1
CELLMARGIN_BEGIN
 40
1.5
 40
1.5
 40
1.5
 40
1.5
 40
0.18
 40
0.18
309
CELLMARGIN_END
 94
        6
 95
        1
302
GRIDFORMAT
  1
GRIDFORMAT_BEGIN
 90
        0
 91
        1
 62
     0
 92
       -2
340
0
 93
        0
 40
0.045
309
GRIDFORMAT_END
 95
        2
302
GRIDFORMAT
  1
GRIDFORMAT_BEGIN
 90
        0
 91
        1
 62
     0
 92
       -2
340
0
 93
        0
 40
0.045
309
GRIDFORMAT_END
 95
        4
302
GRIDFORMAT
  1
GRIDFORMAT_BEGIN
 90
        0
 91
        1
 62
     0
 92
       -2
340
0
 93
        0
 40
0.045
309
GRIDFORMAT_END
 95
        8
302
GRIDFORMAT
  1
GRIDFORMAT_BEGIN
 90
        0
 91
        1
 62
     0
 92
       -2
340
0
 93
        0
 40
0.045
309
GRIDFORMAT_END
 95
       16
302
GRIDFORMAT
  1
GRIDFORMAT_BEGIN
 90
        0
 91
        1
 62
     0
 92
       -2
340
0
 93
        0
 40
0.045
309
GRIDFORMAT_END
 95
       32
302
GRIDFORMAT
  1
GRIDFORMAT_BEGIN
 90
        0
 91
        1
 62
     0
 92
       -2
340
0
 93
        0
 40
0.045
309
GRIDFORMAT_END
309
TABLEFORMAT_END
  1
CELLSTYLE_BEGIN
 90
        2
 91
        1
300
_HEADER
309
CELLSTYLE_END
300
CELLSTYLE
  1
TABLEFORMAT_BEGIN
 90
        5
170
     1
 91
        0
 92
        0
 62
   257
 93
        1
300
CONTENTFORMAT
  1
CONTENTFORMAT_BEGIN
 90
        0
 91
        0
 92
        4
 93
        0
300

 40
0.0
140
1.0
 94
        2
 62
     0
340
11
144
4.5
309
CONTENTFORMAT_END
171
     1
301
MARGIN
  1
CELLMARGIN_BEGIN
 40
1.5
 40
1.5
 40
1.5
 40
1.5
 40
0.18
 40
0.18
309
CELLMARGIN_END
 94
        6
 95
        1
302
GRIDFORMAT
  1
GRIDFORMAT_BEGIN
 90
        0
 91
        1
 62
     0
 92
       -2
340
0
 93
        0
 40
0.045
309
GRIDFORMAT_END
 95
        2
302
GRIDFORMAT
  1
GRIDFORMAT_BEGIN
 90
        0
 91
        1
 62
     0
 92
       -2
340
0
 93
        0
 40
0.045
309
GRIDFORMAT_END
 95
        4
302
GRIDFORMAT
  1
GRIDFORMAT_BEGIN
 90
        0
 91
        1
 62
     0
 92
       -2
340
0
 93
        0
 40
0.045
309
GRIDFORMAT_END
 95
        8
302
GRIDFORMAT
  1
GRIDFORMAT_BEGIN
 90
        0
 91
        1
 62
     0
 92
       -2
340
0
 93
        0
 40
0.045
309
GRIDFORMAT_END
 95
       16
302
GRIDFORMAT
  1
GRIDFORMAT_BEGIN
 90
        0
 91
        1
 62
     0
 92
       -2
340
0
 93
        0
 40
0.045
309
GRIDFORMAT_END
 95
       32
302
GRIDFORMAT
  1
GRIDFORMAT_BEGIN
 90
        0
 91
        1
 62
     0
 92
       -2
340
0
 93
        0
 40
0.045
309
GRIDFORMAT_END
309
TABLEFORMAT_END
  1
CELLSTYLE_BEGIN
 90
        3
 91
        2
300
_DATA
309
CELLSTYLE_END
  0
XRECORD
  5
C25E2
102
{ACAD_REACTORS
330
4CD9A
102
}
330
4CD9A
100
AcDbXrecord
280
     1
102
ACAD_ROUNDTRIP_PRE2007_TABLESTYLE
 90
        4
 91
        0
  1

 92
        4
 93
        0
  2

 94
        4
 95
        0
  3

  0
XRECORD
  5
C25E4
102
{ACAD_REACTORS
330
876AC
102
}
330
876AC
100
AcDbXrecord
280
     1
102
RTVSPropertyOp0
 70
     1
102
RTVSPropertyOp1
 70
     1
102
RTVSPropertyOp2
 70
     1
102
RTVSPropertyOp3
 70
     1
102
RTVSPropertyOp4
 70
     1
102
RTVSPropertyOp5
 70
     1
102
RTVSPropertyOp6
 70
     1
102
RTVSPropertyOp7
 70
     1
102
RTVSPropertyOp8
 70
     1
102
RTVSPropertyOp9
 70
     1
102
RTVSPropertyOp10
 70
     1
102
RTVSPropertyOp11
 70
     1
102
RTVSPropertyOp12
 70
     1
102
RTVSPropertyOp13
 70
     1
102
RTVSPropertyOp14
 70
     1
102
RTVSPropertyOp15
 70
     1
102
RTVSPropertyOp16
 70
     1
102
RTVSPropertyOp17
 70
     1
102
RTVSPropertyOp18
 70
     1
102
RTVSPropertyOp19
 70
     1
102
RTVSPropertyOp20
 70
     1
102
RTVSPropertyOp21
 70
     1
102
RTVSPropertyOp22
 70
     1
102
RTVSPropertyOp23
 70
     1
102
RTVSPropertyOp24
 70
     1
102
RTVSPropertyOp25
 70
     1
102
RTVSPropertyOp26
 70
     1
102
RTVSPropertyOp27
 70
     1
102
RTVSPropertyOp28
 70
     1
102
RTVSPropertyOp29
 70
     1
102
RTVSPropertyOp30
 70
     1
102
RTVSPropertyOp31
 70
     1
102
RTVSPropertyOp32
 70
     1
102
RTVSPropertyOp33
 70
     1
102
RTVSPropertyOp34
 70
     1
102
RTVSPropertyOp35
 70
     1
102
RTVSPropertyOp36
 70
     1
102
RTVSPropertyOp37
 70
     1
102
RTVSPropertyOp38
 70
     1
102
RTVSPropertyOp39
 70
     1
102
RTVSPropertyOp40
 70
     1
102
RTVSPropertyOp41
 70
     1
102
RTVSPropertyOp42
 70
     1
102
RTVSPropertyOp43
 70
     1
102
RTVSPropertyOp44
 70
     1
102
RTVSPropertyOp45
 70
     1
102
RTVSPropertyOp46
 70
     1
102
RTVSPropertyOp47
 70
     1
102
RTVSPropertyOp48
 70
     1
102
RTVSPropertyOp49
 70
     1
102
RTVSPropertyOp50
 70
     1
102
RTVSPropertyOp51
 70
     0
102
RTVSPropertyOp52
 70
     0
102
RTVSPropertyOp53
 70
     1
102
RTVSPropertyOp54
 70
     1
102
RTVSPropertyOp55
 70
     1
102
RTVSPropertyOp56
 70
     1
102
RTVSPropertyOp57
 70
     1
102
RTVSPost2010Prop28
280
     1
102
RTVSPost2010PropOp28
 70
     1
102
RTVSPost2010Prop29
280
     1
102
RTVSPost2010PropOp29
 70
     1
102
RTVSPost2010Prop30
280
     0
102
RTVSPost2010PropOp30
 70
     1
102
RTVSPost2010Prop31
280
     0
102
RTVSPost2010PropOp31
 70
     1
102
RTVSPost2010Prop32
280
     0
102
RTVSPost2010PropOp32
 70
     1
102
RTVSPost2010Prop33
280
     0
102
RTVSPost2010PropOp33
 70
     1
102
RTVSPost2010Prop34
280
     0
102
RTVSPost2010PropOp34
 70
     1
102
RTVSPost2010Prop35
280
     0
102
RTVSPost2010PropOp35
 70
     1
102
RTVSPost2010Prop36
280
     0
102
RTVSPost2010PropOp36
 70
     1
102
RTVSPost2010Prop37
 90
       50
102
RTVSPost2010PropOp37
 70
     1
102
RTVSPost2010Prop38
140
0.0
102
RTVSPost2010PropOp38
 70
     1
102
RTVSPost2010Prop39
140
1.0
102
RTVSPost2010PropOp39
 70
     1
102
RTVSPost2010Prop40
 90
        0
102
RTVSPost2010PropOp40
 70
     1
102
RTVSPost2010Prop41ColorIndex
 90
       18
102
RTVSPost2010Prop41ColorRGB
 90
        0
102
RTVSPost2010PropOp41
 70
     1
102
RTVSPost2010Prop42
 90
       50
102
RTVSPost2010PropOp42
 70
     1
102
RTVSPost2010Prop43
 90
        3
102
RTVSPost2010PropOp43
 70
     1
102
RTVSPost2010Prop44ColorIndex
 90
        5
102
RTVSPost2010Prop44ColorRGB
 90
      255
102
RTVSPost2010PropOp44
 70
     1
102
RTVSPost2010Prop45
280
     0
102
RTVSPost2010PropOp45
 70
     1
102
RTVSPost2010Prop46
 90
       50
102
RTVSPost2010PropOp46
 70
     1
102
RTVSPost2010Prop47
 90
       50
102
RTVSPost2010PropOp47
 70
     1
102
RTVSPost2010Prop48
 90
       50
102
RTVSPost2010PropOp48
 70
     1
102
RTVSPost2010Prop49
280
     0
102
RTVSPost2010PropOp49
 70
     1
102
RTVSPost2010Prop50
 90
       50
102
RTVSPost2010PropOp50
 70
     1
102
RTVSPost2010Prop51ColorIndex
 90
      256
102
RTVSPost2010Prop51ColorRGB
 90
-16777216
102
RTVSPost2010PropOp51
 70
     0
102
RTVSPost2010Prop52
140
1.0
102
RTVSPost2010PropOp52
 70
     0
102
RTVSPost2010Prop53
 90
        2
102
RTVSPost2010PropOp53
 70
     1
102
RTVSPost2010Prop54
  1
strokes_ogs.tif
102
RTVSPost2010PropOp54
 70
     1
102
RTVSPost2010Prop55
280
     0
102
RTVSPost2010PropOp55
 70
     1
102
RTVSPost2010Prop56
140
1.0
102
RTVSPost2010PropOp56
 70
     1
102
RTVSPost2010Prop57
140
1.0
102
RTVSPost2010PropOp57
 70
     1
  0
XRECORD
  5
C25E5
102
{ACAD_REACTORS
330
876AA
102
}
330
876AA
100
AcDbXrecord
280
     1
102
RTVSPropertyOp0
 70
     1
102
RTVSPropertyOp1
 70
     1
102
RTVSPropertyOp2
 70
     1
102
RTVSPropertyOp3
 70
     1
102
RTVSPropertyOp4
 70
     1
102
RTVSPropertyOp5
 70
     1
102
RTVSPropertyOp6
 70
     1
102
RTVSPropertyOp7
 70
     1
102
RTVSPropertyOp8
 70
     1
102
RTVSPropertyOp9
 70
     1
102
RTVSPropertyOp10
 70
     1
102
RTVSPropertyOp11
 70
     1
102
RTVSPropertyOp12
 70
     1
102
RTVSPropertyOp13
 70
     1
102
RTVSPropertyOp14
 70
     1
102
RTVSPropertyOp15
 70
     1
102
RTVSPropertyOp16
 70
     1
102
RTVSPropertyOp17
 70
     1
102
RTVSPropertyOp18
 70
     1
102
RTVSPropertyOp19
 70
     1
102
RTVSPropertyOp20
 70
     1
102
RTVSPropertyOp21
 70
     1
102
RTVSPropertyOp22
 70
     1
102
RTVSPropertyOp23
 70
     1
102
RTVSPropertyOp24
 70
     1
102
RTVSPropertyOp25
 70
     1
102
RTVSPropertyOp26
 70
     1
102
RTVSPropertyOp27
 70
     1
102
RTVSPropertyOp28
 70
     1
102
RTVSPropertyOp29
 70
     1
102
RTVSPropertyOp30
 70
     1
102
RTVSPropertyOp31
 70
     1
102
RTVSPropertyOp32
 70
     1
102
RTVSPropertyOp33
 70
     1
102
RTVSPropertyOp34
 70
     1
102
RTVSPropertyOp35
 70
     1
102
RTVSPropertyOp36
 70
     1
102
RTVSPropertyOp37
 70
     1
102
RTVSPropertyOp38
 70
     1
102
RTVSPropertyOp39
 70
     1
102
RTVSPropertyOp40
 70
     1
102
RTVSPropertyOp41
 70
     1
102
RTVSPropertyOp42
 70
     1
102
RTVSPropertyOp43
 70
     1
102
RTVSPropertyOp44
 70
     1
102
RTVSPropertyOp45
 70
     1
102
RTVSPropertyOp46
 70
     1
102
RTVSPropertyOp47
 70
     1
102
RTVSPropertyOp48
 70
     1
102
RTVSPropertyOp49
 70
     1
102
RTVSPropertyOp50
 70
     1
102
RTVSPropertyOp51
 70
     0
102
RTVSPropertyOp52
 70
     0
102
RTVSPropertyOp53
 70
     1
102
RTVSPropertyOp54
 70
     1
102
RTVSPropertyOp55
 70
     1
102
RTVSPropertyOp56
 70
     1
102
RTVSPropertyOp57
 70
     1
102
RTVSPost2010Prop28
280
     0
102
RTVSPost2010PropOp28
 70
     1
102
RTVSPost2010Prop29
280
     1
102
RTVSPost2010PropOp29
 70
     1
102
RTVSPost2010Prop30
280
     1
102
RTVSPost2010PropOp30
 70
     1
102
RTVSPost2010Prop31
280
     0
102
RTVSPost2010PropOp31
 70
     1
102
RTVSPost2010Prop32
280
     0
102
RTVSPost2010PropOp32
 70
     1
102
RTVSPost2010Prop33
280
     0
102
RTVSPost2010PropOp33
 70
     1
102
RTVSPost2010Prop34
280
     0
102
RTVSPost2010PropOp34
 70
     1
102
RTVSPost2010Prop35
280
     0
102
RTVSPost2010PropOp35
 70
     1
102
RTVSPost2010Prop36
280
     0
102
RTVSPost2010PropOp36
 70
     1
102
RTVSPost2010Prop37
 90
       50
102
RTVSPost2010PropOp37
 70
     1
102
RTVSPost2010Prop38
140
0.0
102
RTVSPost2010PropOp38
 70
     1
102
RTVSPost2010Prop39
140
1.0
102
RTVSPost2010PropOp39
 70
     1
102
RTVSPost2010Prop40
 90
        0
102
RTVSPost2010PropOp40
 70
     1
102
RTVSPost2010Prop41ColorIndex
 90
       18
102
RTVSPost2010Prop41ColorRGB
 90
        0
102
RTVSPost2010PropOp41
 70
     1
102
RTVSPost2010Prop42
 90
       50
102
RTVSPost2010PropOp42
 70
     1
102
RTVSPost2010Prop43
 90
        3
102
RTVSPost2010PropOp43
 70
     1
102
RTVSPost2010Prop44ColorIndex
 90
        5
102
RTVSPost2010Prop44ColorRGB
 90
      255
102
RTVSPost2010PropOp44
 70
     1
102
RTVSPost2010Prop45
280
     0
102
RTVSPost2010PropOp45
 70
     1
102
RTVSPost2010Prop46
 90
       50
102
RTVSPost2010PropOp46
 70
     1
102
RTVSPost2010Prop47
 90
       50
102
RTVSPost2010PropOp47
 70
     1
102
RTVSPost2010Prop48
 90
       50
102
RTVSPost2010PropOp48
 70
     1
102
RTVSPost2010Prop49
280
     0
102
RTVSPost2010PropOp49
 70
     1
102
RTVSPost2010Prop50
 90
       50
102
RTVSPost2010PropOp50
 70
     1
102
RTVSPost2010Prop51ColorIndex
 90
      256
102
RTVSPost2010Prop51ColorRGB
 90
-16777216
102
RTVSPost2010PropOp51
 70
     0
102
RTVSPost2010Prop52
140
1.0
102
RTVSPost2010PropOp52
 70
     0
102
RTVSPost2010Prop53
 90
        2
102
RTVSPost2010PropOp53
 70
     1
102
RTVSPost2010Prop54
  1
strokes_ogs.tif
102
RTVSPost2010PropOp54
 70
     1
102
RTVSPost2010Prop55
280
     0
102
RTVSPost2010PropOp55
 70
     1
102
RTVSPost2010Prop56
140
1.0
102
RTVSPost2010PropOp56
 70
     1
102
RTVSPost2010Prop57
140
1.0
102
RTVSPost2010PropOp57
 70
     1
  0
XRECORD
  5
C25E6
102
{ACAD_REACTORS
330
876B8
102
}
330
876B8
100
AcDbXrecord
280
     1
102
RTVSPropertyOp0
 70
     1
102
RTVSPropertyOp1
 70
     1
102
RTVSPropertyOp2
 70
     1
102
RTVSPropertyOp3
 70
     1
102
RTVSPropertyOp4
 70
     1
102
RTVSPropertyOp5
 70
     1
102
RTVSPropertyOp6
 70
     1
102
RTVSPropertyOp7
 70
     1
102
RTVSPropertyOp8
 70
     1
102
RTVSPropertyOp9
 70
     1
102
RTVSPropertyOp10
 70
     1
102
RTVSPropertyOp11
 70
     1
102
RTVSPropertyOp12
 70
     1
102
RTVSPropertyOp13
 70
     1
102
RTVSPropertyOp14
 70
     1
102
RTVSPropertyOp15
 70
     1
102
RTVSPropertyOp16
 70
     1
102
RTVSPropertyOp17
 70
     1
102
RTVSPropertyOp18
 70
     1
102
RTVSPropertyOp19
 70
     1
102
RTVSPropertyOp20
 70
     1
102
RTVSPropertyOp21
 70
     1
102
RTVSPropertyOp22
 70
     1
102
RTVSPropertyOp23
 70
     1
102
RTVSPropertyOp24
 70
     1
102
RTVSPropertyOp25
 70
     1
102
RTVSPropertyOp26
 70
     1
102
RTVSPropertyOp27
 70
     1
102
RTVSPropertyOp28
 70
     1
102
RTVSPropertyOp29
 70
     1
102
RTVSPropertyOp30
 70
     1
102
RTVSPropertyOp31
 70
     1
102
RTVSPropertyOp32
 70
     1
102
RTVSPropertyOp33
 70
     1
102
RTVSPropertyOp34
 70
     1
102
RTVSPropertyOp35
 70
     1
102
RTVSPropertyOp36
 70
     1
102
RTVSPropertyOp37
 70
     1
102
RTVSPropertyOp38
 70
     1
102
RTVSPropertyOp39
 70
     1
102
RTVSPropertyOp40
 70
     1
102
RTVSPropertyOp41
 70
     1
102
RTVSPropertyOp42
 70
     1
102
RTVSPropertyOp43
 70
     1
102
RTVSPropertyOp44
 70
     1
102
RTVSPropertyOp45
 70
     1
102
RTVSPropertyOp46
 70
     1
102
RTVSPropertyOp47
 70
     1
102
RTVSPropertyOp48
 70
     1
102
RTVSPropertyOp49
 70
     1
102
RTVSPropertyOp50
 70
     1
102
RTVSPropertyOp51
 70
     0
102
RTVSPropertyOp52
 70
     0
102
RTVSPropertyOp53
 70
     1
102
RTVSPropertyOp54
 70
     1
102
RTVSPropertyOp55
 70
     1
102
RTVSPropertyOp56
 70
     1
102
RTVSPropertyOp57
 70
     1
102
RTVSPost2010Prop28
280
     0
102
RTVSPost2010PropOp28
 70
     1
102
RTVSPost2010Prop29
280
     1
102
RTVSPost2010PropOp29
 70
     1
102
RTVSPost2010Prop30
280
     1
102
RTVSPost2010PropOp30
 70
     1
102
RTVSPost2010Prop31
280
     0
102
RTVSPost2010PropOp31
 70
     1
102
RTVSPost2010Prop32
280
     0
102
RTVSPost2010PropOp32
 70
     1
102
RTVSPost2010Prop33
280
     0
102
RTVSPost2010PropOp33
 70
     1
102
RTVSPost2010Prop34
280
     0
102
RTVSPost2010PropOp34
 70
     1
102
RTVSPost2010Prop35
280
     0
102
RTVSPost2010PropOp35
 70
     1
102
RTVSPost2010Prop36
280
     0
102
RTVSPost2010PropOp36
 70
     1
102
RTVSPost2010Prop37
 90
       50
102
RTVSPost2010PropOp37
 70
     1
102
RTVSPost2010Prop38
140
0.0
102
RTVSPost2010PropOp38
 70
     1
102
RTVSPost2010Prop39
140
1.0
102
RTVSPost2010PropOp39
 70
     1
102
RTVSPost2010Prop40
 90
        0
102
RTVSPost2010PropOp40
 70
     1
102
RTVSPost2010Prop41ColorIndex
 90
       18
102
RTVSPost2010Prop41ColorRGB
 90
        0
102
RTVSPost2010PropOp41
 70
     1
102
RTVSPost2010Prop42
 90
       50
102
RTVSPost2010PropOp42
 70
     1
102
RTVSPost2010Prop43
 90
        3
102
RTVSPost2010PropOp43
 70
     1
102
RTVSPost2010Prop44ColorIndex
 90
        5
102
RTVSPost2010Prop44ColorRGB
 90
      255
102
RTVSPost2010PropOp44
 70
     1
102
RTVSPost2010Prop45
280
     0
102
RTVSPost2010PropOp45
 70
     1
102
RTVSPost2010Prop46
 90
       50
102
RTVSPost2010PropOp46
 70
     1
102
RTVSPost2010Prop47
 90
       50
102
RTVSPost2010PropOp47
 70
     1
102
RTVSPost2010Prop48
 90
       50
102
RTVSPost2010PropOp48
 70
     1
102
RTVSPost2010Prop49
280
     0
102
RTVSPost2010PropOp49
 70
     1
102
RTVSPost2010Prop50
 90
       50
102
RTVSPost2010PropOp50
 70
     1
102
RTVSPost2010Prop51ColorIndex
 90
      256
102
RTVSPost2010Prop51ColorRGB
 90
-16777216
102
RTVSPost2010PropOp51
 70
     0
102
RTVSPost2010Prop52
140
1.0
102
RTVSPost2010PropOp52
 70
     0
102
RTVSPost2010Prop53
 90
        2
102
RTVSPost2010PropOp53
 70
     1
102
RTVSPost2010Prop54
  1
strokes_ogs.tif
102
RTVSPost2010PropOp54
 70
     1
102
RTVSPost2010Prop55
280
     0
102
RTVSPost2010PropOp55
 70
     1
102
RTVSPost2010Prop56
140
1.0
102
RTVSPost2010PropOp56
 70
     1
102
RTVSPost2010Prop57
140
1.0
102
RTVSPost2010PropOp57
 70
     1
  0
XRECORD
  5
C25E7
102
{ACAD_REACTORS
330
876C0
102
}
330
876C0
100
AcDbXrecord
280
     1
102
RTVSPropertyOp0
 70
     1
102
RTVSPropertyOp1
 70
     1
102
RTVSPropertyOp2
 70
     1
102
RTVSPropertyOp3
 70
     1
102
RTVSPropertyOp4
 70
     1
102
RTVSPropertyOp5
 70
     1
102
RTVSPropertyOp6
 70
     1
102
RTVSPropertyOp7
 70
     1
102
RTVSPropertyOp8
 70
     1
102
RTVSPropertyOp9
 70
     1
102
RTVSPropertyOp10
 70
     1
102
RTVSPropertyOp11
 70
     1
102
RTVSPropertyOp12
 70
     1
102
RTVSPropertyOp13
 70
     1
102
RTVSPropertyOp14
 70
     1
102
RTVSPropertyOp15
 70
     1
102
RTVSPropertyOp16
 70
     1
102
RTVSPropertyOp17
 70
     1
102
RTVSPropertyOp18
 70
     1
102
RTVSPropertyOp19
 70
     1
102
RTVSPropertyOp20
 70
     1
102
RTVSPropertyOp21
 70
     1
102
RTVSPropertyOp22
 70
     1
102
RTVSPropertyOp23
 70
     1
102
RTVSPropertyOp24
 70
     1
102
RTVSPropertyOp25
 70
     1
102
RTVSPropertyOp26
 70
     1
102
RTVSPropertyOp27
 70
     1
102
RTVSPropertyOp28
 70
     1
102
RTVSPropertyOp29
 70
     1
102
RTVSPropertyOp30
 70
     1
102
RTVSPropertyOp31
 70
     1
102
RTVSPropertyOp32
 70
     1
102
RTVSPropertyOp33
 70
     1
102
RTVSPropertyOp34
 70
     1
102
RTVSPropertyOp35
 70
     1
102
RTVSPropertyOp36
 70
     1
102
RTVSPropertyOp37
 70
     1
102
RTVSPropertyOp38
 70
     1
102
RTVSPropertyOp39
 70
     1
102
RTVSPropertyOp40
 70
     1
102
RTVSPropertyOp41
 70
     1
102
RTVSPropertyOp42
 70
     1
102
RTVSPropertyOp43
 70
     1
102
RTVSPropertyOp44
 70
     1
102
RTVSPropertyOp45
 70
     1
102
RTVSPropertyOp46
 70
     1
102
RTVSPropertyOp47
 70
     1
102
RTVSPropertyOp48
 70
     1
102
RTVSPropertyOp49
 70
     1
102
RTVSPropertyOp50
 70
     1
102
RTVSPropertyOp51
 70
     0
102
RTVSPropertyOp52
 70
     0
102
RTVSPropertyOp53
 70
     1
102
RTVSPropertyOp54
 70
     1
102
RTVSPropertyOp55
 70
     1
102
RTVSPropertyOp56
 70
     1
102
RTVSPropertyOp57
 70
     1
102
RTVSPost2010Prop28
280
     0
102
RTVSPost2010PropOp28
 70
     1
102
RTVSPost2010Prop29
280
     1
102
RTVSPost2010PropOp29
 70
     1
102
RTVSPost2010Prop30
280
     1
102
RTVSPost2010PropOp30
 70
     1
102
RTVSPost2010Prop31
280
     0
102
RTVSPost2010PropOp31
 70
     1
102
RTVSPost2010Prop32
280
     0
102
RTVSPost2010PropOp32
 70
     1
102
RTVSPost2010Prop33
280
     0
102
RTVSPost2010PropOp33
 70
     1
102
RTVSPost2010Prop34
280
     0
102
RTVSPost2010PropOp34
 70
     1
102
RTVSPost2010Prop35
280
     0
102
RTVSPost2010PropOp35
 70
     1
102
RTVSPost2010Prop36
280
     0
102
RTVSPost2010PropOp36
 70
     1
102
RTVSPost2010Prop37
 90
       50
102
RTVSPost2010PropOp37
 70
     1
102
RTVSPost2010Prop38
140
0.0
102
RTVSPost2010PropOp38
 70
     1
102
RTVSPost2010Prop39
140
1.0
102
RTVSPost2010PropOp39
 70
     1
102
RTVSPost2010Prop40
 90
        0
102
RTVSPost2010PropOp40
 70
     1
102
RTVSPost2010Prop41ColorIndex
 90
       18
102
RTVSPost2010Prop41ColorRGB
 90
        0
102
RTVSPost2010PropOp41
 70
     1
102
RTVSPost2010Prop42
 90
       50
102
RTVSPost2010PropOp42
 70
     1
102
RTVSPost2010Prop43
 90
        3
102
RTVSPost2010PropOp43
 70
     1
102
RTVSPost2010Prop44ColorIndex
 90
        5
102
RTVSPost2010Prop44ColorRGB
 90
      255
102
RTVSPost2010PropOp44
 70
     1
102
RTVSPost2010Prop45
280
     0
102
RTVSPost2010PropOp45
 70
     1
102
RTVSPost2010Prop46
 90
       50
102
RTVSPost2010PropOp46
 70
     1
102
RTVSPost2010Prop47
 90
       50
102
RTVSPost2010PropOp47
 70
     1
102
RTVSPost2010Prop48
 90
       50
102
RTVSPost2010PropOp48
 70
     1
102
RTVSPost2010Prop49
280
     0
102
RTVSPost2010PropOp49
 70
     1
102
RTVSPost2010Prop50
 90
       50
102
RTVSPost2010PropOp50
 70
     1
102
RTVSPost2010Prop51ColorIndex
 90
      256
102
RTVSPost2010Prop51ColorRGB
 90
-16777216
102
RTVSPost2010PropOp51
 70
     0
102
RTVSPost2010Prop52
140
1.0
102
RTVSPost2010PropOp52
 70
     0
102
RTVSPost2010Prop53
 90
        2
102
RTVSPost2010PropOp53
 70
     1
102
RTVSPost2010Prop54
  1
strokes_ogs.tif
102
RTVSPost2010PropOp54
 70
     1
102
RTVSPost2010Prop55
280
     0
102
RTVSPost2010PropOp55
 70
     1
102
RTVSPost2010Prop56
140
1.0
102
RTVSPost2010PropOp56
 70
     1
102
RTVSPost2010Prop57
140
1.0
102
RTVSPost2010PropOp57
 70
     1
  0
XRECORD
  5
C25E8
102
{ACAD_REACTORS
330
876B2
102
}
330
876B2
100
AcDbXrecord
280
     1
102
RTVSPropertyOp0
 70
     1
102
RTVSPropertyOp1
 70
     1
102
RTVSPropertyOp2
 70
     1
102
RTVSPropertyOp3
 70
     1
102
RTVSPropertyOp4
 70
     1
102
RTVSPropertyOp5
 70
     1
102
RTVSPropertyOp6
 70
     1
102
RTVSPropertyOp7
 70
     1
102
RTVSPropertyOp8
 70
     1
102
RTVSPropertyOp9
 70
     1
102
RTVSPropertyOp10
 70
     1
102
RTVSPropertyOp11
 70
     1
102
RTVSPropertyOp12
 70
     1
102
RTVSPropertyOp13
 70
     1
102
RTVSPropertyOp14
 70
     1
102
RTVSPropertyOp15
 70
     1
102
RTVSPropertyOp16
 70
     1
102
RTVSPropertyOp17
 70
     1
102
RTVSPropertyOp18
 70
     1
102
RTVSPropertyOp19
 70
     1
102
RTVSPropertyOp20
 70
     1
102
RTVSPropertyOp21
 70
     1
102
RTVSPropertyOp22
 70
     1
102
RTVSPropertyOp23
 70
     1
102
RTVSPropertyOp24
 70
     1
102
RTVSPropertyOp25
 70
     1
102
RTVSPropertyOp26
 70
     1
102
RTVSPropertyOp27
 70
     1
102
RTVSPropertyOp28
 70
     1
102
RTVSPropertyOp29
 70
     1
102
RTVSPropertyOp30
 70
     1
102
RTVSPropertyOp31
 70
     1
102
RTVSPropertyOp32
 70
     1
102
RTVSPropertyOp33
 70
     1
102
RTVSPropertyOp34
 70
     1
102
RTVSPropertyOp35
 70
     1
102
RTVSPropertyOp36
 70
     1
102
RTVSPropertyOp37
 70
     1
102
RTVSPropertyOp38
 70
     1
102
RTVSPropertyOp39
 70
     1
102
RTVSPropertyOp40
 70
     1
102
RTVSPropertyOp41
 70
     1
102
RTVSPropertyOp42
 70
     1
102
RTVSPropertyOp43
 70
     1
102
RTVSPropertyOp44
 70
     1
102
RTVSPropertyOp45
 70
     1
102
RTVSPropertyOp46
 70
     1
102
RTVSPropertyOp47
 70
     1
102
RTVSPropertyOp48
 70
     1
102
RTVSPropertyOp49
 70
     1
102
RTVSPropertyOp50
 70
     1
102
RTVSPropertyOp51
 70
     0
102
RTVSPropertyOp52
 70
     0
102
RTVSPropertyOp53
 70
     1
102
RTVSPropertyOp54
 70
     1
102
RTVSPropertyOp55
 70
     1
102
RTVSPropertyOp56
 70
     1
102
RTVSPropertyOp57
 70
     1
102
RTVSPost2010Prop28
280
     0
102
RTVSPost2010PropOp28
 70
     1
102
RTVSPost2010Prop29
280
     1
102
RTVSPost2010PropOp29
 70
     1
102
RTVSPost2010Prop30
280
     1
102
RTVSPost2010PropOp30
 70
     1
102
RTVSPost2010Prop31
280
     0
102
RTVSPost2010PropOp31
 70
     1
102
RTVSPost2010Prop32
280
     0
102
RTVSPost2010PropOp32
 70
     1
102
RTVSPost2010Prop33
280
     0
102
RTVSPost2010PropOp33
 70
     1
102
RTVSPost2010Prop34
280
     0
102
RTVSPost2010PropOp34
 70
     1
102
RTVSPost2010Prop35
280
     0
102
RTVSPost2010PropOp35
 70
     1
102
RTVSPost2010Prop36
280
     0
102
RTVSPost2010PropOp36
 70
     1
102
RTVSPost2010Prop37
 90
       50
102
RTVSPost2010PropOp37
 70
     1
102
RTVSPost2010Prop38
140
0.0
102
RTVSPost2010PropOp38
 70
     1
102
RTVSPost2010Prop39
140
1.0
102
RTVSPost2010PropOp39
 70
     1
102
RTVSPost2010Prop40
 90
        0
102
RTVSPost2010PropOp40
 70
     1
102
RTVSPost2010Prop41ColorIndex
 90
       18
102
RTVSPost2010Prop41ColorRGB
 90
        0
102
RTVSPost2010PropOp41
 70
     1
102
RTVSPost2010Prop42
 90
       50
102
RTVSPost2010PropOp42
 70
     1
102
RTVSPost2010Prop43
 90
        3
102
RTVSPost2010PropOp43
 70
     1
102
RTVSPost2010Prop44ColorIndex
 90
        5
102
RTVSPost2010Prop44ColorRGB
 90
      255
102
RTVSPost2010PropOp44
 70
     1
102
RTVSPost2010Prop45
280
     0
102
RTVSPost2010PropOp45
 70
     1
102
RTVSPost2010Prop46
 90
       50
102
RTVSPost2010PropOp46
 70
     1
102
RTVSPost2010Prop47
 90
       50
102
RTVSPost2010PropOp47
 70
     1
102
RTVSPost2010Prop48
 90
       50
102
RTVSPost2010PropOp48
 70
     1
102
RTVSPost2010Prop49
280
     0
102
RTVSPost2010PropOp49
 70
     1
102
RTVSPost2010Prop50
 90
       50
102
RTVSPost2010PropOp50
 70
     1
102
RTVSPost2010Prop51ColorIndex
 90
      256
102
RTVSPost2010Prop51ColorRGB
 90
-16777216
102
RTVSPost2010PropOp51
 70
     0
102
RTVSPost2010Prop52
140
1.0
102
RTVSPost2010PropOp52
 70
     0
102
RTVSPost2010Prop53
 90
        2
102
RTVSPost2010PropOp53
 70
     1
102
RTVSPost2010Prop54
  1
strokes_ogs.tif
102
RTVSPost2010PropOp54
 70
     1
102
RTVSPost2010Prop55
280
     0
102
RTVSPost2010PropOp55
 70
     1
102
RTVSPost2010Prop56
140
1.0
102
RTVSPost2010PropOp56
 70
     1
102
RTVSPost2010Prop57
140
1.0
102
RTVSPost2010PropOp57
 70
     1
  0
XRECORD
  5
C25E9
102
{ACAD_REACTORS
330
876B6
102
}
330
876B6
100
AcDbXrecord
280
     1
102
RTVSPropertyOp0
 70
     1
102
RTVSPropertyOp1
 70
     1
102
RTVSPropertyOp2
 70
     1
102
RTVSPropertyOp3
 70
     1
102
RTVSPropertyOp4
 70
     1
102
RTVSPropertyOp5
 70
     1
102
RTVSPropertyOp6
 70
     1
102
RTVSPropertyOp7
 70
     1
102
RTVSPropertyOp8
 70
     1
102
RTVSPropertyOp9
 70
     1
102
RTVSPropertyOp10
 70
     1
102
RTVSPropertyOp11
 70
     1
102
RTVSPropertyOp12
 70
     1
102
RTVSPropertyOp13
 70
     1
102
RTVSPropertyOp14
 70
     1
102
RTVSPropertyOp15
 70
     1
102
RTVSPropertyOp16
 70
     1
102
RTVSPropertyOp17
 70
     1
102
RTVSPropertyOp18
 70
     1
102
RTVSPropertyOp19
 70
     1
102
RTVSPropertyOp20
 70
     1
102
RTVSPropertyOp21
 70
     1
102
RTVSPropertyOp22
 70
     1
102
RTVSPropertyOp23
 70
     1
102
RTVSPropertyOp24
 70
     1
102
RTVSPropertyOp25
 70
     1
102
RTVSPropertyOp26
 70
     1
102
RTVSPropertyOp27
 70
     1
102
RTVSPropertyOp28
 70
     1
102
RTVSPropertyOp29
 70
     1
102
RTVSPropertyOp30
 70
     1
102
RTVSPropertyOp31
 70
     1
102
RTVSPropertyOp32
 70
     1
102
RTVSPropertyOp33
 70
     1
102
RTVSPropertyOp34
 70
     1
102
RTVSPropertyOp35
 70
     1
102
RTVSPropertyOp36
 70
     1
102
RTVSPropertyOp37
 70
     1
102
RTVSPropertyOp38
 70
     1
102
RTVSPropertyOp39
 70
     1
102
RTVSPropertyOp40
 70
     1
102
RTVSPropertyOp41
 70
     1
102
RTVSPropertyOp42
 70
     1
102
RTVSPropertyOp43
 70
     1
102
RTVSPropertyOp44
 70
     1
102
RTVSPropertyOp45
 70
     1
102
RTVSPropertyOp46
 70
     1
102
RTVSPropertyOp47
 70
     1
102
RTVSPropertyOp48
 70
     1
102
RTVSPropertyOp49
 70
     1
102
RTVSPropertyOp50
 70
     1
102
RTVSPropertyOp51
 70
     0
102
RTVSPropertyOp52
 70
     0
102
RTVSPropertyOp53
 70
     1
102
RTVSPropertyOp54
 70
     1
102
RTVSPropertyOp55
 70
     1
102
RTVSPropertyOp56
 70
     1
102
RTVSPropertyOp57
 70
     1
102
RTVSPost2010Prop28
280
     0
102
RTVSPost2010PropOp28
 70
     1
102
RTVSPost2010Prop29
280
     1
102
RTVSPost2010PropOp29
 70
     1
102
RTVSPost2010Prop30
280
     1
102
RTVSPost2010PropOp30
 70
     1
102
RTVSPost2010Prop31
280
     0
102
RTVSPost2010PropOp31
 70
     1
102
RTVSPost2010Prop32
280
     0
102
RTVSPost2010PropOp32
 70
     1
102
RTVSPost2010Prop33
280
     0
102
RTVSPost2010PropOp33
 70
     1
102
RTVSPost2010Prop34
280
     0
102
RTVSPost2010PropOp34
 70
     1
102
RTVSPost2010Prop35
280
     0
102
RTVSPost2010PropOp35
 70
     1
102
RTVSPost2010Prop36
280
     0
102
RTVSPost2010PropOp36
 70
     1
102
RTVSPost2010Prop37
 90
       50
102
RTVSPost2010PropOp37
 70
     1
102
RTVSPost2010Prop38
140
0.0
102
RTVSPost2010PropOp38
 70
     1
102
RTVSPost2010Prop39
140
1.0
102
RTVSPost2010PropOp39
 70
     1
102
RTVSPost2010Prop40
 90
        0
102
RTVSPost2010PropOp40
 70
     1
102
RTVSPost2010Prop41ColorIndex
 90
       18
102
RTVSPost2010Prop41ColorRGB
 90
        0
102
RTVSPost2010PropOp41
 70
     1
102
RTVSPost2010Prop42
 90
       50
102
RTVSPost2010PropOp42
 70
     1
102
RTVSPost2010Prop43
 90
        3
102
RTVSPost2010PropOp43
 70
     1
102
RTVSPost2010Prop44ColorIndex
 90
        5
102
RTVSPost2010Prop44ColorRGB
 90
      255
102
RTVSPost2010PropOp44
 70
     1
102
RTVSPost2010Prop45
280
     0
102
RTVSPost2010PropOp45
 70
     1
102
RTVSPost2010Prop46
 90
       50
102
RTVSPost2010PropOp46
 70
     1
102
RTVSPost2010Prop47
 90
       50
102
RTVSPost2010PropOp47
 70
     1
102
RTVSPost2010Prop48
 90
       50
102
RTVSPost2010PropOp48
 70
     1
102
RTVSPost2010Prop49
280
     0
102
RTVSPost2010PropOp49
 70
     1
102
RTVSPost2010Prop50
 90
       50
102
RTVSPost2010PropOp50
 70
     1
102
RTVSPost2010Prop51ColorIndex
 90
      256
102
RTVSPost2010Prop51ColorRGB
 90
-16777216
102
RTVSPost2010PropOp51
 70
     0
102
RTVSPost2010Prop52
140
1.0
102
RTVSPost2010PropOp52
 70
     0
102
RTVSPost2010Prop53
 90
        2
102
RTVSPost2010PropOp53
 70
     1
102
RTVSPost2010Prop54
  1
strokes_ogs.tif
102
RTVSPost2010PropOp54
 70
     1
102
RTVSPost2010Prop55
280
     0
102
RTVSPost2010PropOp55
 70
     1
102
RTVSPost2010Prop56
140
1.0
102
RTVSPost2010PropOp56
 70
     1
102
RTVSPost2010Prop57
140
1.0
102
RTVSPost2010PropOp57
 70
     1
  0
XRECORD
  5
C25EA
102
{ACAD_REACTORS
330
876D0
102
}
330
876D0
100
AcDbXrecord
280
     1
102
RTVSPropertyOp0
 70
     0
102
RTVSPropertyOp1
 70
     0
102
RTVSPropertyOp2
 70
     0
102
RTVSPropertyOp3
 70
     0
102
RTVSPropertyOp4
 70
     0
102
RTVSPropertyOp5
 70
     0
102
RTVSPropertyOp6
 70
     0
102
RTVSPropertyOp7
 70
     0
102
RTVSPropertyOp8
 70
     0
102
RTVSPropertyOp9
 70
     0
102
RTVSPropertyOp10
 70
     0
102
RTVSPropertyOp11
 70
     0
102
RTVSPropertyOp12
 70
     0
102
RTVSPropertyOp13
 70
     0
102
RTVSPropertyOp14
 70
     2
102
RTVSPropertyOp15
 70
     0
102
RTVSPropertyOp16
 70
     0
102
RTVSPropertyOp17
 70
     0
102
RTVSPropertyOp18
 70
     0
102
RTVSPropertyOp19
 70
     0
102
RTVSPropertyOp20
 70
     0
102
RTVSPropertyOp21
 70
     0
102
RTVSPropertyOp22
 70
     0
102
RTVSPropertyOp23
 70
     0
102
RTVSPropertyOp24
 70
     0
102
RTVSPropertyOp25
 70
     0
102
RTVSPropertyOp26
 70
     0
102
RTVSPropertyOp27
 70
     0
102
RTVSPropertyOp28
 70
     1
102
RTVSPropertyOp29
 70
     1
102
RTVSPropertyOp30
 70
     1
102
RTVSPropertyOp31
 70
     1
102
RTVSPropertyOp32
 70
     1
102
RTVSPropertyOp33
 70
     1
102
RTVSPropertyOp34
 70
     1
102
RTVSPropertyOp35
 70
     1
102
RTVSPropertyOp36
 70
     1
102
RTVSPropertyOp37
 70
     0
102
RTVSPropertyOp38
 70
     0
102
RTVSPropertyOp39
 70
     0
102
RTVSPropertyOp40
 70
     0
102
RTVSPropertyOp41
 70
     0
102
RTVSPropertyOp42
 70
     0
102
RTVSPropertyOp43
 70
     0
102
RTVSPropertyOp44
 70
     0
102
RTVSPropertyOp45
 70
     1
102
RTVSPropertyOp46
 70
     0
102
RTVSPropertyOp47
 70
     0
102
RTVSPropertyOp48
 70
     0
102
RTVSPropertyOp49
 70
     1
102
RTVSPropertyOp50
 70
     0
102
RTVSPropertyOp51
 70
     0
102
RTVSPropertyOp52
 70
     0
102
RTVSPropertyOp53
 70
     0
102
RTVSPropertyOp54
 70
     0
102
RTVSPropertyOp55
 70
     1
102
RTVSPropertyOp56
 70
     0
102
RTVSPropertyOp57
 70
     0
102
RTVSPost2010Prop28
280
     0
102
RTVSPost2010PropOp28
 70
     1
102
RTVSPost2010Prop29
280
     1
102
RTVSPost2010PropOp29
 70
     1
102
RTVSPost2010Prop30
280
     1
102
RTVSPost2010PropOp30
 70
     1
102
RTVSPost2010Prop31
280
     0
102
RTVSPost2010PropOp31
 70
     1
102
RTVSPost2010Prop32
280
     0
102
RTVSPost2010PropOp32
 70
     1
102
RTVSPost2010Prop33
280
     0
102
RTVSPost2010PropOp33
 70
     1
102
RTVSPost2010Prop34
280
     0
102
RTVSPost2010PropOp34
 70
     1
102
RTVSPost2010Prop35
280
     0
102
RTVSPost2010PropOp35
 70
     1
102
RTVSPost2010Prop36
280
     0
102
RTVSPost2010PropOp36
 70
     1
102
RTVSPost2010Prop37
 90
       50
102
RTVSPost2010PropOp37
 70
     0
102
RTVSPost2010Prop38
140
0.0
102
RTVSPost2010PropOp38
 70
     0
102
RTVSPost2010Prop39
140
1.0
102
RTVSPost2010PropOp39
 70
     0
102
RTVSPost2010Prop40
 90
        0
102
RTVSPost2010PropOp40
 70
     0
102
RTVSPost2010Prop41ColorIndex
 90
       18
102
RTVSPost2010Prop41ColorRGB
 90
        0
102
RTVSPost2010PropOp41
 70
     0
102
RTVSPost2010Prop42
 90
       50
102
RTVSPost2010PropOp42
 70
     0
102
RTVSPost2010Prop43
 90
        3
102
RTVSPost2010PropOp43
 70
     0
102
RTVSPost2010Prop44ColorIndex
 90
        5
102
RTVSPost2010Prop44ColorRGB
 90
      255
102
RTVSPost2010PropOp44
 70
     0
102
RTVSPost2010Prop45
280
     0
102
RTVSPost2010PropOp45
 70
     1
102
RTVSPost2010Prop46
 90
       50
102
RTVSPost2010PropOp46
 70
     0
102
RTVSPost2010Prop47
 90
       50
102
RTVSPost2010PropOp47
 70
     0
102
RTVSPost2010Prop48
 90
       50
102
RTVSPost2010PropOp48
 70
     0
102
RTVSPost2010Prop49
280
     0
102
RTVSPost2010PropOp49
 70
     1
102
RTVSPost2010Prop50
 90
       50
102
RTVSPost2010PropOp50
 70
     0
102
RTVSPost2010Prop51ColorIndex
 90
      256
102
RTVSPost2010Prop51ColorRGB
 90
-16777216
102
RTVSPost2010PropOp51
 70
     0
102
RTVSPost2010Prop52
140
1.0
102
RTVSPost2010PropOp52
 70
     0
102
RTVSPost2010Prop53
 90
        2
102
RTVSPost2010PropOp53
 70
     0
102
RTVSPost2010Prop54
  1
strokes_ogs.tif
102
RTVSPost2010PropOp54
 70
     0
102
RTVSPost2010Prop55
280
     0
102
RTVSPost2010PropOp55
 70
     1
102
RTVSPost2010Prop56
140
1.0
102
RTVSPost2010PropOp56
 70
     0
102
RTVSPost2010Prop57
140
1.0
102
RTVSPost2010PropOp57
 70
     0
  0
XRECORD
  5
C25EB
102
{ACAD_REACTORS
330
876BE
102
}
330
876BE
100
AcDbXrecord
280
     1
102
RTVSPropertyOp0
 70
     1
102
RTVSPropertyOp1
 70
     1
102
RTVSPropertyOp2
 70
     1
102
RTVSPropertyOp3
 70
     1
102
RTVSPropertyOp4
 70
     1
102
RTVSPropertyOp5
 70
     1
102
RTVSPropertyOp6
 70
     1
102
RTVSPropertyOp7
 70
     1
102
RTVSPropertyOp8
 70
     1
102
RTVSPropertyOp9
 70
     1
102
RTVSPropertyOp10
 70
     1
102
RTVSPropertyOp11
 70
     1
102
RTVSPropertyOp12
 70
     1
102
RTVSPropertyOp13
 70
     1
102
RTVSPropertyOp14
 70
     1
102
RTVSPropertyOp15
 70
     1
102
RTVSPropertyOp16
 70
     1
102
RTVSPropertyOp17
 70
     1
102
RTVSPropertyOp18
 70
     1
102
RTVSPropertyOp19
 70
     1
102
RTVSPropertyOp20
 70
     1
102
RTVSPropertyOp21
 70
     1
102
RTVSPropertyOp22
 70
     1
102
RTVSPropertyOp23
 70
     1
102
RTVSPropertyOp24
 70
     1
102
RTVSPropertyOp25
 70
     1
102
RTVSPropertyOp26
 70
     1
102
RTVSPropertyOp27
 70
     1
102
RTVSPropertyOp28
 70
     1
102
RTVSPropertyOp29
 70
     1
102
RTVSPropertyOp30
 70
     1
102
RTVSPropertyOp31
 70
     1
102
RTVSPropertyOp32
 70
     1
102
RTVSPropertyOp33
 70
     1
102
RTVSPropertyOp34
 70
     1
102
RTVSPropertyOp35
 70
     1
102
RTVSPropertyOp36
 70
     1
102
RTVSPropertyOp37
 70
     1
102
RTVSPropertyOp38
 70
     1
102
RTVSPropertyOp39
 70
     1
102
RTVSPropertyOp40
 70
     1
102
RTVSPropertyOp41
 70
     1
102
RTVSPropertyOp42
 70
     1
102
RTVSPropertyOp43
 70
     1
102
RTVSPropertyOp44
 70
     1
102
RTVSPropertyOp45
 70
     1
102
RTVSPropertyOp46
 70
     1
102
RTVSPropertyOp47
 70
     1
102
RTVSPropertyOp48
 70
     1
102
RTVSPropertyOp49
 70
     1
102
RTVSPropertyOp50
 70
     1
102
RTVSPropertyOp51
 70
     0
102
RTVSPropertyOp52
 70
     0
102
RTVSPropertyOp53
 70
     1
102
RTVSPropertyOp54
 70
     1
102
RTVSPropertyOp55
 70
     1
102
RTVSPropertyOp56
 70
     1
102
RTVSPropertyOp57
 70
     1
102
RTVSPost2010Prop28
280
     0
102
RTVSPost2010PropOp28
 70
     1
102
RTVSPost2010Prop29
280
     1
102
RTVSPost2010PropOp29
 70
     1
102
RTVSPost2010Prop30
280
     1
102
RTVSPost2010PropOp30
 70
     1
102
RTVSPost2010Prop31
280
     0
102
RTVSPost2010PropOp31
 70
     1
102
RTVSPost2010Prop32
280
     0
102
RTVSPost2010PropOp32
 70
     1
102
RTVSPost2010Prop33
280
     0
102
RTVSPost2010PropOp33
 70
     1
102
RTVSPost2010Prop34
280
     0
102
RTVSPost2010PropOp34
 70
     1
102
RTVSPost2010Prop35
280
     0
102
RTVSPost2010PropOp35
 70
     1
102
RTVSPost2010Prop36
280
     0
102
RTVSPost2010PropOp36
 70
     1
102
RTVSPost2010Prop37
 90
       50
102
RTVSPost2010PropOp37
 70
     1
102
RTVSPost2010Prop38
140
0.0
102
RTVSPost2010PropOp38
 70
     1
102
RTVSPost2010Prop39
140
1.0
102
RTVSPost2010PropOp39
 70
     1
102
RTVSPost2010Prop40
 90
        0
102
RTVSPost2010PropOp40
 70
     1
102
RTVSPost2010Prop41ColorIndex
 90
       18
102
RTVSPost2010Prop41ColorRGB
 90
        0
102
RTVSPost2010PropOp41
 70
     1
102
RTVSPost2010Prop42
 90
       50
102
RTVSPost2010PropOp42
 70
     1
102
RTVSPost2010Prop43
 90
        3
102
RTVSPost2010PropOp43
 70
     1
102
RTVSPost2010Prop44ColorIndex
 90
        5
102
RTVSPost2010Prop44ColorRGB
 90
      255
102
RTVSPost2010PropOp44
 70
     1
102
RTVSPost2010Prop45
280
     0
102
RTVSPost2010PropOp45
 70
     1
102
RTVSPost2010Prop46
 90
       50
102
RTVSPost2010PropOp46
 70
     1
102
RTVSPost2010Prop47
 90
       50
102
RTVSPost2010PropOp47
 70
     1
102
RTVSPost2010Prop48
 90
       50
102
RTVSPost2010PropOp48
 70
     1
102
RTVSPost2010Prop49
280
     0
102
RTVSPost2010PropOp49
 70
     1
102
RTVSPost2010Prop50
 90
       50
102
RTVSPost2010PropOp50
 70
     1
102
RTVSPost2010Prop51ColorIndex
 90
      256
102
RTVSPost2010Prop51ColorRGB
 90
-16777216
102
RTVSPost2010PropOp51
 70
     0
102
RTVSPost2010Prop52
140
1.0
102
RTVSPost2010PropOp52
 70
     0
102
RTVSPost2010Prop53
 90
        2
102
RTVSPost2010PropOp53
 70
     1
102
RTVSPost2010Prop54
  1
strokes_ogs.tif
102
RTVSPost2010PropOp54
 70
     1
102
RTVSPost2010Prop55
280
     0
102
RTVSPost2010PropOp55
 70
     1
102
RTVSPost2010Prop56
140
1.0
102
RTVSPost2010PropOp56
 70
     1
102
RTVSPost2010Prop57
140
1.0
102
RTVSPost2010PropOp57
 70
     1
  0
XRECORD
  5
C25EC
102
{ACAD_REACTORS
330
876A2
102
}
330
876A2
100
AcDbXrecord
280
     1
102
RTVSPropertyOp0
 70
     1
102
RTVSPropertyOp1
 70
     1
102
RTVSPropertyOp2
 70
     1
102
RTVSPropertyOp3
 70
     1
102
RTVSPropertyOp4
 70
     1
102
RTVSPropertyOp5
 70
     1
102
RTVSPropertyOp6
 70
     1
102
RTVSPropertyOp7
 70
     1
102
RTVSPropertyOp8
 70
     1
102
RTVSPropertyOp9
 70
     1
102
RTVSPropertyOp10
 70
     1
102
RTVSPropertyOp11
 70
     1
102
RTVSPropertyOp12
 70
     1
102
RTVSPropertyOp13
 70
     1
102
RTVSPropertyOp14
 70
     1
102
RTVSPropertyOp15
 70
     1
102
RTVSPropertyOp16
 70
     1
102
RTVSPropertyOp17
 70
     1
102
RTVSPropertyOp18
 70
     1
102
RTVSPropertyOp19
 70
     1
102
RTVSPropertyOp20
 70
     1
102
RTVSPropertyOp21
 70
     1
102
RTVSPropertyOp22
 70
     1
102
RTVSPropertyOp23
 70
     1
102
RTVSPropertyOp24
 70
     1
102
RTVSPropertyOp25
 70
     1
102
RTVSPropertyOp26
 70
     1
102
RTVSPropertyOp27
 70
     1
102
RTVSPropertyOp28
 70
     1
102
RTVSPropertyOp29
 70
     1
102
RTVSPropertyOp30
 70
     1
102
RTVSPropertyOp31
 70
     1
102
RTVSPropertyOp32
 70
     1
102
RTVSPropertyOp33
 70
     1
102
RTVSPropertyOp34
 70
     1
102
RTVSPropertyOp35
 70
     1
102
RTVSPropertyOp36
 70
     1
102
RTVSPropertyOp37
 70
     1
102
RTVSPropertyOp38
 70
     1
102
RTVSPropertyOp39
 70
     1
102
RTVSPropertyOp40
 70
     1
102
RTVSPropertyOp41
 70
     1
102
RTVSPropertyOp42
 70
     1
102
RTVSPropertyOp43
 70
     1
102
RTVSPropertyOp44
 70
     1
102
RTVSPropertyOp45
 70
     1
102
RTVSPropertyOp46
 70
     1
102
RTVSPropertyOp47
 70
     1
102
RTVSPropertyOp48
 70
     1
102
RTVSPropertyOp49
 70
     1
102
RTVSPropertyOp50
 70
     1
102
RTVSPropertyOp51
 70
     0
102
RTVSPropertyOp52
 70
     0
102
RTVSPropertyOp53
 70
     1
102
RTVSPropertyOp54
 70
     1
102
RTVSPropertyOp55
 70
     1
102
RTVSPropertyOp56
 70
     1
102
RTVSPropertyOp57
 70
     1
102
RTVSPost2010Prop28
280
     0
102
RTVSPost2010PropOp28
 70
     1
102
RTVSPost2010Prop29
280
     1
102
RTVSPost2010PropOp29
 70
     1
102
RTVSPost2010Prop30
280
     1
102
RTVSPost2010PropOp30
 70
     1
102
RTVSPost2010Prop31
280
     0
102
RTVSPost2010PropOp31
 70
     1
102
RTVSPost2010Prop32
280
     0
102
RTVSPost2010PropOp32
 70
     1
102
RTVSPost2010Prop33
280
     0
102
RTVSPost2010PropOp33
 70
     1
102
RTVSPost2010Prop34
280
     0
102
RTVSPost2010PropOp34
 70
     1
102
RTVSPost2010Prop35
280
     0
102
RTVSPost2010PropOp35
 70
     1
102
RTVSPost2010Prop36
280
     0
102
RTVSPost2010PropOp36
 70
     1
102
RTVSPost2010Prop37
 90
       50
102
RTVSPost2010PropOp37
 70
     1
102
RTVSPost2010Prop38
140
0.0
102
RTVSPost2010PropOp38
 70
     1
102
RTVSPost2010Prop39
140
1.0
102
RTVSPost2010PropOp39
 70
     1
102
RTVSPost2010Prop40
 90
        0
102
RTVSPost2010PropOp40
 70
     1
102
RTVSPost2010Prop41ColorIndex
 90
       18
102
RTVSPost2010Prop41ColorRGB
 90
        0
102
RTVSPost2010PropOp41
 70
     1
102
RTVSPost2010Prop42
 90
       50
102
RTVSPost2010PropOp42
 70
     1
102
RTVSPost2010Prop43
 90
        3
102
RTVSPost2010PropOp43
 70
     1
102
RTVSPost2010Prop44ColorIndex
 90
        5
102
RTVSPost2010Prop44ColorRGB
 90
      255
102
RTVSPost2010PropOp44
 70
     1
102
RTVSPost2010Prop45
280
     0
102
RTVSPost2010PropOp45
 70
     1
102
RTVSPost2010Prop46
 90
       50
102
RTVSPost2010PropOp46
 70
     1
102
RTVSPost2010Prop47
 90
       50
102
RTVSPost2010PropOp47
 70
     1
102
RTVSPost2010Prop48
 90
       50
102
RTVSPost2010PropOp48
 70
     1
102
RTVSPost2010Prop49
280
     0
102
RTVSPost2010PropOp49
 70
     1
102
RTVSPost2010Prop50
 90
       50
102
RTVSPost2010PropOp50
 70
     1
102
RTVSPost2010Prop51ColorIndex
 90
      256
102
RTVSPost2010Prop51ColorRGB
 90
-16777216
102
RTVSPost2010PropOp51
 70
     0
102
RTVSPost2010Prop52
140
1.0
102
RTVSPost2010PropOp52
 70
     0
102
RTVSPost2010Prop53
 90
        2
102
RTVSPost2010PropOp53
 70
     1
102
RTVSPost2010Prop54
  1
strokes_ogs.tif
102
RTVSPost2010PropOp54
 70
     1
102
RTVSPost2010Prop55
280
     0
102
RTVSPost2010PropOp55
 70
     1
102
RTVSPost2010Prop56
140
1.0
102
RTVSPost2010PropOp56
 70
     1
102
RTVSPost2010Prop57
140
1.0
102
RTVSPost2010PropOp57
 70
     1
  0
XRECORD
  5
C25ED
102
{ACAD_REACTORS
330
876A4
102
}
330
876A4
100
AcDbXrecord
280
     1
102
RTVSPropertyOp0
 70
     1
102
RTVSPropertyOp1
 70
     1
102
RTVSPropertyOp2
 70
     1
102
RTVSPropertyOp3
 70
     1
102
RTVSPropertyOp4
 70
     1
102
RTVSPropertyOp5
 70
     1
102
RTVSPropertyOp6
 70
     1
102
RTVSPropertyOp7
 70
     1
102
RTVSPropertyOp8
 70
     1
102
RTVSPropertyOp9
 70
     1
102
RTVSPropertyOp10
 70
     1
102
RTVSPropertyOp11
 70
     1
102
RTVSPropertyOp12
 70
     1
102
RTVSPropertyOp13
 70
     1
102
RTVSPropertyOp14
 70
     1
102
RTVSPropertyOp15
 70
     1
102
RTVSPropertyOp16
 70
     1
102
RTVSPropertyOp17
 70
     1
102
RTVSPropertyOp18
 70
     1
102
RTVSPropertyOp19
 70
     1
102
RTVSPropertyOp20
 70
     1
102
RTVSPropertyOp21
 70
     1
102
RTVSPropertyOp22
 70
     1
102
RTVSPropertyOp23
 70
     1
102
RTVSPropertyOp24
 70
     1
102
RTVSPropertyOp25
 70
     1
102
RTVSPropertyOp26
 70
     1
102
RTVSPropertyOp27
 70
     1
102
RTVSPropertyOp28
 70
     1
102
RTVSPropertyOp29
 70
     1
102
RTVSPropertyOp30
 70
     1
102
RTVSPropertyOp31
 70
     1
102
RTVSPropertyOp32
 70
     1
102
RTVSPropertyOp33
 70
     1
102
RTVSPropertyOp34
 70
     1
102
RTVSPropertyOp35
 70
     1
102
RTVSPropertyOp36
 70
     1
102
RTVSPropertyOp37
 70
     1
102
RTVSPropertyOp38
 70
     1
102
RTVSPropertyOp39
 70
     1
102
RTVSPropertyOp40
 70
     1
102
RTVSPropertyOp41
 70
     1
102
RTVSPropertyOp42
 70
     1
102
RTVSPropertyOp43
 70
     1
102
RTVSPropertyOp44
 70
     1
102
RTVSPropertyOp45
 70
     1
102
RTVSPropertyOp46
 70
     1
102
RTVSPropertyOp47
 70
     1
102
RTVSPropertyOp48
 70
     1
102
RTVSPropertyOp49
 70
     1
102
RTVSPropertyOp50
 70
     1
102
RTVSPropertyOp51
 70
     0
102
RTVSPropertyOp52
 70
     0
102
RTVSPropertyOp53
 70
     1
102
RTVSPropertyOp54
 70
     1
102
RTVSPropertyOp55
 70
     1
102
RTVSPropertyOp56
 70
     1
102
RTVSPropertyOp57
 70
     1
102
RTVSPost2010Prop28
280
     0
102
RTVSPost2010PropOp28
 70
     1
102
RTVSPost2010Prop29
280
     1
102
RTVSPost2010PropOp29
 70
     1
102
RTVSPost2010Prop30
280
     1
102
RTVSPost2010PropOp30
 70
     1
102
RTVSPost2010Prop31
280
     0
102
RTVSPost2010PropOp31
 70
     1
102
RTVSPost2010Prop32
280
     0
102
RTVSPost2010PropOp32
 70
     1
102
RTVSPost2010Prop33
280
     0
102
RTVSPost2010PropOp33
 70
     1
102
RTVSPost2010Prop34
280
     0
102
RTVSPost2010PropOp34
 70
     1
102
RTVSPost2010Prop35
280
     0
102
RTVSPost2010PropOp35
 70
     1
102
RTVSPost2010Prop36
280
     0
102
RTVSPost2010PropOp36
 70
     1
102
RTVSPost2010Prop37
 90
       50
102
RTVSPost2010PropOp37
 70
     1
102
RTVSPost2010Prop38
140
0.0
102
RTVSPost2010PropOp38
 70
     1
102
RTVSPost2010Prop39
140
1.0
102
RTVSPost2010PropOp39
 70
     1
102
RTVSPost2010Prop40
 90
        0
102
RTVSPost2010PropOp40
 70
     1
102
RTVSPost2010Prop41ColorIndex
 90
       18
102
RTVSPost2010Prop41ColorRGB
 90
        0
102
RTVSPost2010PropOp41
 70
     1
102
RTVSPost2010Prop42
 90
       50
102
RTVSPost2010PropOp42
 70
     1
102
RTVSPost2010Prop43
 90
        3
102
RTVSPost2010PropOp43
 70
     1
102
RTVSPost2010Prop44ColorIndex
 90
        5
102
RTVSPost2010Prop44ColorRGB
 90
      255
102
RTVSPost2010PropOp44
 70
     1
102
RTVSPost2010Prop45
280
     0
102
RTVSPost2010PropOp45
 70
     1
102
RTVSPost2010Prop46
 90
       50
102
RTVSPost2010PropOp46
 70
     1
102
RTVSPost2010Prop47
 90
       50
102
RTVSPost2010PropOp47
 70
     1
102
RTVSPost2010Prop48
 90
       50
102
RTVSPost2010PropOp48
 70
     1
102
RTVSPost2010Prop49
280
     0
102
RTVSPost2010PropOp49
 70
     1
102
RTVSPost2010Prop50
 90
       50
102
RTVSPost2010PropOp50
 70
     1
102
RTVSPost2010Prop51ColorIndex
 90
      256
102
RTVSPost2010Prop51ColorRGB
 90
-16777216
102
RTVSPost2010PropOp51
 70
     0
102
RTVSPost2010Prop52
140
1.0
102
RTVSPost2010PropOp52
 70
     0
102
RTVSPost2010Prop53
 90
        2
102
RTVSPost2010PropOp53
 70
     1
102
RTVSPost2010Prop54
  1
strokes_ogs.tif
102
RTVSPost2010PropOp54
 70
     1
102
RTVSPost2010Prop55
280
     0
102
RTVSPost2010PropOp55
 70
     1
102
RTVSPost2010Prop56
140
1.0
102
RTVSPost2010PropOp56
 70
     1
102
RTVSPost2010Prop57
140
1.0
102
RTVSPost2010PropOp57
 70
     1
  0
XRECORD
  5
C25EE
102
{ACAD_REACTORS
330
876A6
102
}
330
876A6
100
AcDbXrecord
280
     1
102
RTVSPropertyOp0
 70
     1
102
RTVSPropertyOp1
 70
     1
102
RTVSPropertyOp2
 70
     1
102
RTVSPropertyOp3
 70
     1
102
RTVSPropertyOp4
 70
     1
102
RTVSPropertyOp5
 70
     1
102
RTVSPropertyOp6
 70
     1
102
RTVSPropertyOp7
 70
     1
102
RTVSPropertyOp8
 70
     1
102
RTVSPropertyOp9
 70
     1
102
RTVSPropertyOp10
 70
     1
102
RTVSPropertyOp11
 70
     1
102
RTVSPropertyOp12
 70
     1
102
RTVSPropertyOp13
 70
     1
102
RTVSPropertyOp14
 70
     1
102
RTVSPropertyOp15
 70
     1
102
RTVSPropertyOp16
 70
     1
102
RTVSPropertyOp17
 70
     1
102
RTVSPropertyOp18
 70
     1
102
RTVSPropertyOp19
 70
     1
102
RTVSPropertyOp20
 70
     1
102
RTVSPropertyOp21
 70
     1
102
RTVSPropertyOp22
 70
     1
102
RTVSPropertyOp23
 70
     1
102
RTVSPropertyOp24
 70
     1
102
RTVSPropertyOp25
 70
     1
102
RTVSPropertyOp26
 70
     1
102
RTVSPropertyOp27
 70
     1
102
RTVSPropertyOp28
 70
     1
102
RTVSPropertyOp29
 70
     1
102
RTVSPropertyOp30
 70
     1
102
RTVSPropertyOp31
 70
     1
102
RTVSPropertyOp32
 70
     1
102
RTVSPropertyOp33
 70
     1
102
RTVSPropertyOp34
 70
     1
102
RTVSPropertyOp35
 70
     1
102
RTVSPropertyOp36
 70
     1
102
RTVSPropertyOp37
 70
     1
102
RTVSPropertyOp38
 70
     1
102
RTVSPropertyOp39
 70
     1
102
RTVSPropertyOp40
 70
     1
102
RTVSPropertyOp41
 70
     1
102
RTVSPropertyOp42
 70
     1
102
RTVSPropertyOp43
 70
     1
102
RTVSPropertyOp44
 70
     1
102
RTVSPropertyOp45
 70
     1
102
RTVSPropertyOp46
 70
     1
102
RTVSPropertyOp47
 70
     1
102
RTVSPropertyOp48
 70
     1
102
RTVSPropertyOp49
 70
     1
102
RTVSPropertyOp50
 70
     1
102
RTVSPropertyOp51
 70
     0
102
RTVSPropertyOp52
 70
     0
102
RTVSPropertyOp53
 70
     1
102
RTVSPropertyOp54
 70
     1
102
RTVSPropertyOp55
 70
     1
102
RTVSPropertyOp56
 70
     1
102
RTVSPropertyOp57
 70
     1
102
RTVSPost2010Prop28
280
     0
102
RTVSPost2010PropOp28
 70
     1
102
RTVSPost2010Prop29
280
     1
102
RTVSPost2010PropOp29
 70
     1
102
RTVSPost2010Prop30
280
     1
102
RTVSPost2010PropOp30
 70
     1
102
RTVSPost2010Prop31
280
     0
102
RTVSPost2010PropOp31
 70
     1
102
RTVSPost2010Prop32
280
     0
102
RTVSPost2010PropOp32
 70
     1
102
RTVSPost2010Prop33
280
     0
102
RTVSPost2010PropOp33
 70
     1
102
RTVSPost2010Prop34
280
     0
102
RTVSPost2010PropOp34
 70
     1
102
RTVSPost2010Prop35
280
     0
102
RTVSPost2010PropOp35
 70
     1
102
RTVSPost2010Prop36
280
     0
102
RTVSPost2010PropOp36
 70
     1
102
RTVSPost2010Prop37
 90
       50
102
RTVSPost2010PropOp37
 70
     1
102
RTVSPost2010Prop38
140
0.0
102
RTVSPost2010PropOp38
 70
     1
102
RTVSPost2010Prop39
140
1.0
102
RTVSPost2010PropOp39
 70
     1
102
RTVSPost2010Prop40
 90
        0
102
RTVSPost2010PropOp40
 70
     1
102
RTVSPost2010Prop41ColorIndex
 90
       18
102
RTVSPost2010Prop41ColorRGB
 90
        0
102
RTVSPost2010PropOp41
 70
     1
102
RTVSPost2010Prop42
 90
       50
102
RTVSPost2010PropOp42
 70
     1
102
RTVSPost2010Prop43
 90
        3
102
RTVSPost2010PropOp43
 70
     1
102
RTVSPost2010Prop44ColorIndex
 90
        5
102
RTVSPost2010Prop44ColorRGB
 90
      255
102
RTVSPost2010PropOp44
 70
     1
102
RTVSPost2010Prop45
280
     0
102
RTVSPost2010PropOp45
 70
     1
102
RTVSPost2010Prop46
 90
       50
102
RTVSPost2010PropOp46
 70
     1
102
RTVSPost2010Prop47
 90
       50
102
RTVSPost2010PropOp47
 70
     1
102
RTVSPost2010Prop48
 90
       50
102
RTVSPost2010PropOp48
 70
     1
102
RTVSPost2010Prop49
280
     0
102
RTVSPost2010PropOp49
 70
     1
102
RTVSPost2010Prop50
 90
       50
102
RTVSPost2010PropOp50
 70
     1
102
RTVSPost2010Prop51ColorIndex
 90
      256
102
RTVSPost2010Prop51ColorRGB
 90
-16777216
102
RTVSPost2010PropOp51
 70
     0
102
RTVSPost2010Prop52
140
1.0
102
RTVSPost2010PropOp52
 70
     0
102
RTVSPost2010Prop53
 90
        2
102
RTVSPost2010PropOp53
 70
     1
102
RTVSPost2010Prop54
  1
strokes_ogs.tif
102
RTVSPost2010PropOp54
 70
     1
102
RTVSPost2010Prop55
280
     0
102
RTVSPost2010PropOp55
 70
     1
102
RTVSPost2010Prop56
140
1.0
102
RTVSPost2010PropOp56
 70
     1
102
RTVSPost2010Prop57
140
1.0
102
RTVSPost2010PropOp57
 70
     1
  0
XRECORD
  5
C25EF
102
{ACAD_REACTORS
330
876A8
102
}
330
876A8
100
AcDbXrecord
280
     1
102
RTVSPropertyOp0
 70
     1
102
RTVSPropertyOp1
 70
     1
102
RTVSPropertyOp2
 70
     1
102
RTVSPropertyOp3
 70
     1
102
RTVSPropertyOp4
 70
     1
102
RTVSPropertyOp5
 70
     1
102
RTVSPropertyOp6
 70
     1
102
RTVSPropertyOp7
 70
     1
102
RTVSPropertyOp8
 70
     1
102
RTVSPropertyOp9
 70
     1
102
RTVSPropertyOp10
 70
     1
102
RTVSPropertyOp11
 70
     1
102
RTVSPropertyOp12
 70
     1
102
RTVSPropertyOp13
 70
     1
102
RTVSPropertyOp14
 70
     1
102
RTVSPropertyOp15
 70
     1
102
RTVSPropertyOp16
 70
     1
102
RTVSPropertyOp17
 70
     1
102
RTVSPropertyOp18
 70
     1
102
RTVSPropertyOp19
 70
     1
102
RTVSPropertyOp20
 70
     1
102
RTVSPropertyOp21
 70
     1
102
RTVSPropertyOp22
 70
     1
102
RTVSPropertyOp23
 70
     1
102
RTVSPropertyOp24
 70
     1
102
RTVSPropertyOp25
 70
     1
102
RTVSPropertyOp26
 70
     1
102
RTVSPropertyOp27
 70
     1
102
RTVSPropertyOp28
 70
     1
102
RTVSPropertyOp29
 70
     1
102
RTVSPropertyOp30
 70
     1
102
RTVSPropertyOp31
 70
     1
102
RTVSPropertyOp32
 70
     1
102
RTVSPropertyOp33
 70
     1
102
RTVSPropertyOp34
 70
     1
102
RTVSPropertyOp35
 70
     1
102
RTVSPropertyOp36
 70
     1
102
RTVSPropertyOp37
 70
     1
102
RTVSPropertyOp38
 70
     1
102
RTVSPropertyOp39
 70
     1
102
RTVSPropertyOp40
 70
     1
102
RTVSPropertyOp41
 70
     1
102
RTVSPropertyOp42
 70
     1
102
RTVSPropertyOp43
 70
     1
102
RTVSPropertyOp44
 70
     1
102
RTVSPropertyOp45
 70
     1
102
RTVSPropertyOp46
 70
     1
102
RTVSPropertyOp47
 70
     1
102
RTVSPropertyOp48
 70
     1
102
RTVSPropertyOp49
 70
     1
102
RTVSPropertyOp50
 70
     1
102
RTVSPropertyOp51
 70
     0
102
RTVSPropertyOp52
 70
     0
102
RTVSPropertyOp53
 70
     1
102
RTVSPropertyOp54
 70
     1
102
RTVSPropertyOp55
 70
     1
102
RTVSPropertyOp56
 70
     1
102
RTVSPropertyOp57
 70
     1
102
RTVSPost2010Prop28
280
     0
102
RTVSPost2010PropOp28
 70
     1
102
RTVSPost2010Prop29
280
     1
102
RTVSPost2010PropOp29
 70
     1
102
RTVSPost2010Prop30
280
     1
102
RTVSPost2010PropOp30
 70
     1
102
RTVSPost2010Prop31
280
     0
102
RTVSPost2010PropOp31
 70
     1
102
RTVSPost2010Prop32
280
     0
102
RTVSPost2010PropOp32
 70
     1
102
RTVSPost2010Prop33
280
     0
102
RTVSPost2010PropOp33
 70
     1
102
RTVSPost2010Prop34
280
     0
102
RTVSPost2010PropOp34
 70
     1
102
RTVSPost2010Prop35
280
     0
102
RTVSPost2010PropOp35
 70
     1
102
RTVSPost2010Prop36
280
     0
102
RTVSPost2010PropOp36
 70
     1
102
RTVSPost2010Prop37
 90
       50
102
RTVSPost2010PropOp37
 70
     1
102
RTVSPost2010Prop38
140
0.0
102
RTVSPost2010PropOp38
 70
     1
102
RTVSPost2010Prop39
140
1.0
102
RTVSPost2010PropOp39
 70
     1
102
RTVSPost2010Prop40
 90
        0
102
RTVSPost2010PropOp40
 70
     1
102
RTVSPost2010Prop41ColorIndex
 90
       18
102
RTVSPost2010Prop41ColorRGB
 90
        0
102
RTVSPost2010PropOp41
 70
     1
102
RTVSPost2010Prop42
 90
       50
102
RTVSPost2010PropOp42
 70
     1
102
RTVSPost2010Prop43
 90
        3
102
RTVSPost2010PropOp43
 70
     1
102
RTVSPost2010Prop44ColorIndex
 90
        5
102
RTVSPost2010Prop44ColorRGB
 90
      255
102
RTVSPost2010PropOp44
 70
     1
102
RTVSPost2010Prop45
280
     0
102
RTVSPost2010PropOp45
 70
     1
102
RTVSPost2010Prop46
 90
       50
102
RTVSPost2010PropOp46
 70
     1
102
RTVSPost2010Prop47
 90
       50
102
RTVSPost2010PropOp47
 70
     1
102
RTVSPost2010Prop48
 90
       50
102
RTVSPost2010PropOp48
 70
     1
102
RTVSPost2010Prop49
280
     0
102
RTVSPost2010PropOp49
 70
     1
102
RTVSPost2010Prop50
 90
       50
102
RTVSPost2010PropOp50
 70
     1
102
RTVSPost2010Prop51ColorIndex
 90
      256
102
RTVSPost2010Prop51ColorRGB
 90
-16777216
102
RTVSPost2010PropOp51
 70
     0
102
RTVSPost2010Prop52
140
1.0
102
RTVSPost2010PropOp52
 70
     0
102
RTVSPost2010Prop53
 90
        2
102
RTVSPost2010PropOp53
 70
     1
102
RTVSPost2010Prop54
  1
strokes_ogs.tif
102
RTVSPost2010PropOp54
 70
     1
102
RTVSPost2010Prop55
280
     0
102
RTVSPost2010PropOp55
 70
     1
102
RTVSPost2010Prop56
140
1.0
102
RTVSPost2010PropOp56
 70
     1
102
RTVSPost2010Prop57
140
1.0
102
RTVSPost2010PropOp57
 70
     1
  0
XRECORD
  5
C25F0
102
{ACAD_REACTORS
330
876B0
102
}
330
876B0
100
AcDbXrecord
280
     1
102
RTVSPropertyOp0
 70
     1
102
RTVSPropertyOp1
 70
     1
102
RTVSPropertyOp2
 70
     1
102
RTVSPropertyOp3
 70
     1
102
RTVSPropertyOp4
 70
     1
102
RTVSPropertyOp5
 70
     1
102
RTVSPropertyOp6
 70
     1
102
RTVSPropertyOp7
 70
     1
102
RTVSPropertyOp8
 70
     1
102
RTVSPropertyOp9
 70
     1
102
RTVSPropertyOp10
 70
     1
102
RTVSPropertyOp11
 70
     1
102
RTVSPropertyOp12
 70
     1
102
RTVSPropertyOp13
 70
     1
102
RTVSPropertyOp14
 70
     1
102
RTVSPropertyOp15
 70
     1
102
RTVSPropertyOp16
 70
     1
102
RTVSPropertyOp17
 70
     1
102
RTVSPropertyOp18
 70
     1
102
RTVSPropertyOp19
 70
     1
102
RTVSPropertyOp20
 70
     1
102
RTVSPropertyOp21
 70
     1
102
RTVSPropertyOp22
 70
     1
102
RTVSPropertyOp23
 70
     1
102
RTVSPropertyOp24
 70
     1
102
RTVSPropertyOp25
 70
     1
102
RTVSPropertyOp26
 70
     1
102
RTVSPropertyOp27
 70
     1
102
RTVSPropertyOp28
 70
     1
102
RTVSPropertyOp29
 70
     1
102
RTVSPropertyOp30
 70
     1
102
RTVSPropertyOp31
 70
     1
102
RTVSPropertyOp32
 70
     1
102
RTVSPropertyOp33
 70
     1
102
RTVSPropertyOp34
 70
     1
102
RTVSPropertyOp35
 70
     1
102
RTVSPropertyOp36
 70
     1
102
RTVSPropertyOp37
 70
     1
102
RTVSPropertyOp38
 70
     1
102
RTVSPropertyOp39
 70
     1
102
RTVSPropertyOp40
 70
     1
102
RTVSPropertyOp41
 70
     1
102
RTVSPropertyOp42
 70
     1
102
RTVSPropertyOp43
 70
     1
102
RTVSPropertyOp44
 70
     1
102
RTVSPropertyOp45
 70
     1
102
RTVSPropertyOp46
 70
     1
102
RTVSPropertyOp47
 70
     1
102
RTVSPropertyOp48
 70
     1
102
RTVSPropertyOp49
 70
     1
102
RTVSPropertyOp50
 70
     1
102
RTVSPropertyOp51
 70
     0
102
RTVSPropertyOp52
 70
     0
102
RTVSPropertyOp53
 70
     1
102
RTVSPropertyOp54
 70
     1
102
RTVSPropertyOp55
 70
     1
102
RTVSPropertyOp56
 70
     1
102
RTVSPropertyOp57
 70
     1
102
RTVSPost2010Prop28
280
     0
102
RTVSPost2010PropOp28
 70
     1
102
RTVSPost2010Prop29
280
     1
102
RTVSPost2010PropOp29
 70
     1
102
RTVSPost2010Prop30
280
     1
102
RTVSPost2010PropOp30
 70
     1
102
RTVSPost2010Prop31
280
     0
102
RTVSPost2010PropOp31
 70
     1
102
RTVSPost2010Prop32
280
     0
102
RTVSPost2010PropOp32
 70
     1
102
RTVSPost2010Prop33
280
     0
102
RTVSPost2010PropOp33
 70
     1
102
RTVSPost2010Prop34
280
     0
102
RTVSPost2010PropOp34
 70
     1
102
RTVSPost2010Prop35
280
     0
102
RTVSPost2010PropOp35
 70
     1
102
RTVSPost2010Prop36
280
     0
102
RTVSPost2010PropOp36
 70
     1
102
RTVSPost2010Prop37
 90
       50
102
RTVSPost2010PropOp37
 70
     1
102
RTVSPost2010Prop38
140
0.0
102
RTVSPost2010PropOp38
 70
     1
102
RTVSPost2010Prop39
140
1.0
102
RTVSPost2010PropOp39
 70
     1
102
RTVSPost2010Prop40
 90
        0
102
RTVSPost2010PropOp40
 70
     1
102
RTVSPost2010Prop41ColorIndex
 90
       18
102
RTVSPost2010Prop41ColorRGB
 90
        0
102
RTVSPost2010PropOp41
 70
     1
102
RTVSPost2010Prop42
 90
       50
102
RTVSPost2010PropOp42
 70
     1
102
RTVSPost2010Prop43
 90
        3
102
RTVSPost2010PropOp43
 70
     1
102
RTVSPost2010Prop44ColorIndex
 90
        5
102
RTVSPost2010Prop44ColorRGB
 90
      255
102
RTVSPost2010PropOp44
 70
     1
102
RTVSPost2010Prop45
280
     0
102
RTVSPost2010PropOp45
 70
     1
102
RTVSPost2010Prop46
 90
       50
102
RTVSPost2010PropOp46
 70
     1
102
RTVSPost2010Prop47
 90
       50
102
RTVSPost2010PropOp47
 70
     1
102
RTVSPost2010Prop48
 90
       50
102
RTVSPost2010PropOp48
 70
     1
102
RTVSPost2010Prop49
280
     0
102
RTVSPost2010PropOp49
 70
     1
102
RTVSPost2010Prop50
 90
       50
102
RTVSPost2010PropOp50
 70
     1
102
RTVSPost2010Prop51ColorIndex
 90
      256
102
RTVSPost2010Prop51ColorRGB
 90
-16777216
102
RTVSPost2010PropOp51
 70
     0
102
RTVSPost2010Prop52
140
1.0
102
RTVSPost2010PropOp52
 70
     0
102
RTVSPost2010Prop53
 90
        2
102
RTVSPost2010PropOp53
 70
     1
102
RTVSPost2010Prop54
  1
strokes_ogs.tif
102
RTVSPost2010PropOp54
 70
     1
102
RTVSPost2010Prop55
280
     0
102
RTVSPost2010PropOp55
 70
     1
102
RTVSPost2010Prop56
140
1.0
102
RTVSPost2010PropOp56
 70
     1
102
RTVSPost2010Prop57
140
1.0
102
RTVSPost2010PropOp57
 70
     1
  0
XRECORD
  5
C25F1
102
{ACAD_REACTORS
330
876CC
102
}
330
876CC
100
AcDbXrecord
280
     1
102
RTVSPropertyOp0
 70
     0
102
RTVSPropertyOp1
 70
     0
102
RTVSPropertyOp2
 70
     0
102
RTVSPropertyOp3
 70
     0
102
RTVSPropertyOp4
 70
     0
102
RTVSPropertyOp5
 70
     0
102
RTVSPropertyOp6
 70
     0
102
RTVSPropertyOp7
 70
     0
102
RTVSPropertyOp8
 70
     0
102
RTVSPropertyOp9
 70
     0
102
RTVSPropertyOp10
 70
     0
102
RTVSPropertyOp11
 70
     0
102
RTVSPropertyOp12
 70
     0
102
RTVSPropertyOp13
 70
     0
102
RTVSPropertyOp14
 70
     2
102
RTVSPropertyOp15
 70
     0
102
RTVSPropertyOp16
 70
     0
102
RTVSPropertyOp17
 70
     0
102
RTVSPropertyOp18
 70
     0
102
RTVSPropertyOp19
 70
     0
102
RTVSPropertyOp20
 70
     0
102
RTVSPropertyOp21
 70
     0
102
RTVSPropertyOp22
 70
     0
102
RTVSPropertyOp23
 70
     0
102
RTVSPropertyOp24
 70
     0
102
RTVSPropertyOp25
 70
     0
102
RTVSPropertyOp26
 70
     0
102
RTVSPropertyOp27
 70
     0
102
RTVSPropertyOp28
 70
     1
102
RTVSPropertyOp29
 70
     1
102
RTVSPropertyOp30
 70
     1
102
RTVSPropertyOp31
 70
     1
102
RTVSPropertyOp32
 70
     1
102
RTVSPropertyOp33
 70
     1
102
RTVSPropertyOp34
 70
     1
102
RTVSPropertyOp35
 70
     1
102
RTVSPropertyOp36
 70
     1
102
RTVSPropertyOp37
 70
     0
102
RTVSPropertyOp38
 70
     0
102
RTVSPropertyOp39
 70
     0
102
RTVSPropertyOp40
 70
     0
102
RTVSPropertyOp41
 70
     0
102
RTVSPropertyOp42
 70
     0
102
RTVSPropertyOp43
 70
     0
102
RTVSPropertyOp44
 70
     0
102
RTVSPropertyOp45
 70
     1
102
RTVSPropertyOp46
 70
     0
102
RTVSPropertyOp47
 70
     0
102
RTVSPropertyOp48
 70
     0
102
RTVSPropertyOp49
 70
     1
102
RTVSPropertyOp50
 70
     0
102
RTVSPropertyOp51
 70
     0
102
RTVSPropertyOp52
 70
     0
102
RTVSPropertyOp53
 70
     0
102
RTVSPropertyOp54
 70
     0
102
RTVSPropertyOp55
 70
     1
102
RTVSPropertyOp56
 70
     0
102
RTVSPropertyOp57
 70
     0
102
RTVSPost2010Prop28
280
     0
102
RTVSPost2010PropOp28
 70
     1
102
RTVSPost2010Prop29
280
     1
102
RTVSPost2010PropOp29
 70
     1
102
RTVSPost2010Prop30
280
     1
102
RTVSPost2010PropOp30
 70
     1
102
RTVSPost2010Prop31
280
     0
102
RTVSPost2010PropOp31
 70
     1
102
RTVSPost2010Prop32
280
     0
102
RTVSPost2010PropOp32
 70
     1
102
RTVSPost2010Prop33
280
     0
102
RTVSPost2010PropOp33
 70
     1
102
RTVSPost2010Prop34
280
     0
102
RTVSPost2010PropOp34
 70
     1
102
RTVSPost2010Prop35
280
     0
102
RTVSPost2010PropOp35
 70
     1
102
RTVSPost2010Prop36
280
     0
102
RTVSPost2010PropOp36
 70
     1
102
RTVSPost2010Prop37
 90
       50
102
RTVSPost2010PropOp37
 70
     0
102
RTVSPost2010Prop38
140
0.0
102
RTVSPost2010PropOp38
 70
     0
102
RTVSPost2010Prop39
140
1.0
102
RTVSPost2010PropOp39
 70
     0
102
RTVSPost2010Prop40
 90
        0
102
RTVSPost2010PropOp40
 70
     0
102
RTVSPost2010Prop41ColorIndex
 90
       18
102
RTVSPost2010Prop41ColorRGB
 90
        0
102
RTVSPost2010PropOp41
 70
     0
102
RTVSPost2010Prop42
 90
       50
102
RTVSPost2010PropOp42
 70
     0
102
RTVSPost2010Prop43
 90
        3
102
RTVSPost2010PropOp43
 70
     0
102
RTVSPost2010Prop44ColorIndex
 90
        5
102
RTVSPost2010Prop44ColorRGB
 90
      255
102
RTVSPost2010PropOp44
 70
     0
102
RTVSPost2010Prop45
280
     0
102
RTVSPost2010PropOp45
 70
     1
102
RTVSPost2010Prop46
 90
       50
102
RTVSPost2010PropOp46
 70
     0
102
RTVSPost2010Prop47
 90
       50
102
RTVSPost2010PropOp47
 70
     0
102
RTVSPost2010Prop48
 90
       50
102
RTVSPost2010PropOp48
 70
     0
102
RTVSPost2010Prop49
280
     0
102
RTVSPost2010PropOp49
 70
     1
102
RTVSPost2010Prop50
 90
       50
102
RTVSPost2010PropOp50
 70
     0
102
RTVSPost2010Prop51ColorIndex
 90
      256
102
RTVSPost2010Prop51ColorRGB
 90
-16777216
102
RTVSPost2010PropOp51
 70
     0
102
RTVSPost2010Prop52
140
1.0
102
RTVSPost2010PropOp52
 70
     0
102
RTVSPost2010Prop53
 90
        2
102
RTVSPost2010PropOp53
 70
     0
102
RTVSPost2010Prop54
  1
strokes_ogs.tif
102
RTVSPost2010PropOp54
 70
     0
102
RTVSPost2010Prop55
280
     0
102
RTVSPost2010PropOp55
 70
     1
102
RTVSPost2010Prop56
140
1.0
102
RTVSPost2010PropOp56
 70
     0
102
RTVSPost2010Prop57
140
1.0
102
RTVSPost2010PropOp57
 70
     0
  0
XRECORD
  5
C25F2
102
{ACAD_REACTORS
330
876BC
102
}
330
876BC
100
AcDbXrecord
280
     1
102
RTVSPropertyOp0
 70
     1
102
RTVSPropertyOp1
 70
     1
102
RTVSPropertyOp2
 70
     1
102
RTVSPropertyOp3
 70
     1
102
RTVSPropertyOp4
 70
     1
102
RTVSPropertyOp5
 70
     1
102
RTVSPropertyOp6
 70
     1
102
RTVSPropertyOp7
 70
     1
102
RTVSPropertyOp8
 70
     1
102
RTVSPropertyOp9
 70
     1
102
RTVSPropertyOp10
 70
     1
102
RTVSPropertyOp11
 70
     1
102
RTVSPropertyOp12
 70
     1
102
RTVSPropertyOp13
 70
     1
102
RTVSPropertyOp14
 70
     1
102
RTVSPropertyOp15
 70
     1
102
RTVSPropertyOp16
 70
     1
102
RTVSPropertyOp17
 70
     1
102
RTVSPropertyOp18
 70
     1
102
RTVSPropertyOp19
 70
     1
102
RTVSPropertyOp20
 70
     1
102
RTVSPropertyOp21
 70
     1
102
RTVSPropertyOp22
 70
     1
102
RTVSPropertyOp23
 70
     1
102
RTVSPropertyOp24
 70
     1
102
RTVSPropertyOp25
 70
     1
102
RTVSPropertyOp26
 70
     1
102
RTVSPropertyOp27
 70
     1
102
RTVSPropertyOp28
 70
     1
102
RTVSPropertyOp29
 70
     1
102
RTVSPropertyOp30
 70
     1
102
RTVSPropertyOp31
 70
     1
102
RTVSPropertyOp32
 70
     1
102
RTVSPropertyOp33
 70
     1
102
RTVSPropertyOp34
 70
     1
102
RTVSPropertyOp35
 70
     1
102
RTVSPropertyOp36
 70
     1
102
RTVSPropertyOp37
 70
     1
102
RTVSPropertyOp38
 70
     1
102
RTVSPropertyOp39
 70
     1
102
RTVSPropertyOp40
 70
     1
102
RTVSPropertyOp41
 70
     1
102
RTVSPropertyOp42
 70
     1
102
RTVSPropertyOp43
 70
     1
102
RTVSPropertyOp44
 70
     1
102
RTVSPropertyOp45
 70
     1
102
RTVSPropertyOp46
 70
     1
102
RTVSPropertyOp47
 70
     1
102
RTVSPropertyOp48
 70
     1
102
RTVSPropertyOp49
 70
     1
102
RTVSPropertyOp50
 70
     1
102
RTVSPropertyOp51
 70
     0
102
RTVSPropertyOp52
 70
     0
102
RTVSPropertyOp53
 70
     1
102
RTVSPropertyOp54
 70
     1
102
RTVSPropertyOp55
 70
     1
102
RTVSPropertyOp56
 70
     1
102
RTVSPropertyOp57
 70
     1
102
RTVSPost2010Prop28
280
     0
102
RTVSPost2010PropOp28
 70
     1
102
RTVSPost2010Prop29
280
     1
102
RTVSPost2010PropOp29
 70
     1
102
RTVSPost2010Prop30
280
     1
102
RTVSPost2010PropOp30
 70
     1
102
RTVSPost2010Prop31
280
     0
102
RTVSPost2010PropOp31
 70
     1
102
RTVSPost2010Prop32
280
     0
102
RTVSPost2010PropOp32
 70
     1
102
RTVSPost2010Prop33
280
     0
102
RTVSPost2010PropOp33
 70
     1
102
RTVSPost2010Prop34
280
     0
102
RTVSPost2010PropOp34
 70
     1
102
RTVSPost2010Prop35
280
     0
102
RTVSPost2010PropOp35
 70
     1
102
RTVSPost2010Prop36
280
     0
102
RTVSPost2010PropOp36
 70
     1
102
RTVSPost2010Prop37
 90
       50
102
RTVSPost2010PropOp37
 70
     1
102
RTVSPost2010Prop38
140
0.0
102
RTVSPost2010PropOp38
 70
     1
102
RTVSPost2010Prop39
140
1.0
102
RTVSPost2010PropOp39
 70
     1
102
RTVSPost2010Prop40
 90
        0
102
RTVSPost2010PropOp40
 70
     1
102
RTVSPost2010Prop41ColorIndex
 90
       18
102
RTVSPost2010Prop41ColorRGB
 90
        0
102
RTVSPost2010PropOp41
 70
     1
102
RTVSPost2010Prop42
 90
       50
102
RTVSPost2010PropOp42
 70
     1
102
RTVSPost2010Prop43
 90
        3
102
RTVSPost2010PropOp43
 70
     1
102
RTVSPost2010Prop44ColorIndex
 90
        5
102
RTVSPost2010Prop44ColorRGB
 90
      255
102
RTVSPost2010PropOp44
 70
     1
102
RTVSPost2010Prop45
280
     0
102
RTVSPost2010PropOp45
 70
     1
102
RTVSPost2010Prop46
 90
       50
102
RTVSPost2010PropOp46
 70
     1
102
RTVSPost2010Prop47
 90
       50
102
RTVSPost2010PropOp47
 70
     1
102
RTVSPost2010Prop48
 90
       50
102
RTVSPost2010PropOp48
 70
     1
102
RTVSPost2010Prop49
280
     0
102
RTVSPost2010PropOp49
 70
     1
102
RTVSPost2010Prop50
 90
       50
102
RTVSPost2010PropOp50
 70
     1
102
RTVSPost2010Prop51ColorIndex
 90
      256
102
RTVSPost2010Prop51ColorRGB
 90
-16777216
102
RTVSPost2010PropOp51
 70
     0
102
RTVSPost2010Prop52
140
1.0
102
RTVSPost2010PropOp52
 70
     0
102
RTVSPost2010Prop53
 90
        2
102
RTVSPost2010PropOp53
 70
     1
102
RTVSPost2010Prop54
  1
strokes_ogs.tif
102
RTVSPost2010PropOp54
 70
     1
102
RTVSPost2010Prop55
280
     0
102
RTVSPost2010PropOp55
 70
     1
102
RTVSPost2010Prop56
140
1.0
102
RTVSPost2010PropOp56
 70
     1
102
RTVSPost2010Prop57
140
1.0
102
RTVSPost2010PropOp57
 70
     1
  0
XRECORD
  5
C25F3
102
{ACAD_REACTORS
330
876CE
102
}
330
876CE
100
AcDbXrecord
280
     1
102
RTVSPropertyOp0
 70
     0
102
RTVSPropertyOp1
 70
     0
102
RTVSPropertyOp2
 70
     0
102
RTVSPropertyOp3
 70
     0
102
RTVSPropertyOp4
 70
     0
102
RTVSPropertyOp5
 70
     0
102
RTVSPropertyOp6
 70
     0
102
RTVSPropertyOp7
 70
     0
102
RTVSPropertyOp8
 70
     0
102
RTVSPropertyOp9
 70
     0
102
RTVSPropertyOp10
 70
     0
102
RTVSPropertyOp11
 70
     0
102
RTVSPropertyOp12
 70
     0
102
RTVSPropertyOp13
 70
     0
102
RTVSPropertyOp14
 70
     2
102
RTVSPropertyOp15
 70
     0
102
RTVSPropertyOp16
 70
     0
102
RTVSPropertyOp17
 70
     0
102
RTVSPropertyOp18
 70
     0
102
RTVSPropertyOp19
 70
     0
102
RTVSPropertyOp20
 70
     0
102
RTVSPropertyOp21
 70
     0
102
RTVSPropertyOp22
 70
     0
102
RTVSPropertyOp23
 70
     0
102
RTVSPropertyOp24
 70
     0
102
RTVSPropertyOp25
 70
     0
102
RTVSPropertyOp26
 70
     0
102
RTVSPropertyOp27
 70
     0
102
RTVSPropertyOp28
 70
     1
102
RTVSPropertyOp29
 70
     1
102
RTVSPropertyOp30
 70
     1
102
RTVSPropertyOp31
 70
     1
102
RTVSPropertyOp32
 70
     1
102
RTVSPropertyOp33
 70
     1
102
RTVSPropertyOp34
 70
     1
102
RTVSPropertyOp35
 70
     1
102
RTVSPropertyOp36
 70
     1
102
RTVSPropertyOp37
 70
     0
102
RTVSPropertyOp38
 70
     0
102
RTVSPropertyOp39
 70
     0
102
RTVSPropertyOp40
 70
     0
102
RTVSPropertyOp41
 70
     0
102
RTVSPropertyOp42
 70
     0
102
RTVSPropertyOp43
 70
     0
102
RTVSPropertyOp44
 70
     0
102
RTVSPropertyOp45
 70
     1
102
RTVSPropertyOp46
 70
     0
102
RTVSPropertyOp47
 70
     0
102
RTVSPropertyOp48
 70
     0
102
RTVSPropertyOp49
 70
     1
102
RTVSPropertyOp50
 70
     0
102
RTVSPropertyOp51
 70
     0
102
RTVSPropertyOp52
 70
     0
102
RTVSPropertyOp53
 70
     0
102
RTVSPropertyOp54
 70
     0
102
RTVSPropertyOp55
 70
     1
102
RTVSPropertyOp56
 70
     0
102
RTVSPropertyOp57
 70
     0
102
RTVSPost2010Prop28
280
     0
102
RTVSPost2010PropOp28
 70
     1
102
RTVSPost2010Prop29
280
     1
102
RTVSPost2010PropOp29
 70
     1
102
RTVSPost2010Prop30
280
     1
102
RTVSPost2010PropOp30
 70
     1
102
RTVSPost2010Prop31
280
     0
102
RTVSPost2010PropOp31
 70
     1
102
RTVSPost2010Prop32
280
     0
102
RTVSPost2010PropOp32
 70
     1
102
RTVSPost2010Prop33
280
     0
102
RTVSPost2010PropOp33
 70
     1
102
RTVSPost2010Prop34
280
     0
102
RTVSPost2010PropOp34
 70
     1
102
RTVSPost2010Prop35
280
     0
102
RTVSPost2010PropOp35
 70
     1
102
RTVSPost2010Prop36
280
     0
102
RTVSPost2010PropOp36
 70
     1
102
RTVSPost2010Prop37
 90
       50
102
RTVSPost2010PropOp37
 70
     0
102
RTVSPost2010Prop38
140
0.0
102
RTVSPost2010PropOp38
 70
     0
102
RTVSPost2010Prop39
140
1.0
102
RTVSPost2010PropOp39
 70
     0
102
RTVSPost2010Prop40
 90
        0
102
RTVSPost2010PropOp40
 70
     0
102
RTVSPost2010Prop41ColorIndex
 90
       18
102
RTVSPost2010Prop41ColorRGB
 90
        0
102
RTVSPost2010PropOp41
 70
     0
102
RTVSPost2010Prop42
 90
       50
102
RTVSPost2010PropOp42
 70
     0
102
RTVSPost2010Prop43
 90
        3
102
RTVSPost2010PropOp43
 70
     0
102
RTVSPost2010Prop44ColorIndex
 90
        5
102
RTVSPost2010Prop44ColorRGB
 90
      255
102
RTVSPost2010PropOp44
 70
     0
102
RTVSPost2010Prop45
280
     0
102
RTVSPost2010PropOp45
 70
     1
102
RTVSPost2010Prop46
 90
       50
102
RTVSPost2010PropOp46
 70
     0
102
RTVSPost2010Prop47
 90
       50
102
RTVSPost2010PropOp47
 70
     0
102
RTVSPost2010Prop48
 90
       50
102
RTVSPost2010PropOp48
 70
     0
102
RTVSPost2010Prop49
280
     0
102
RTVSPost2010PropOp49
 70
     1
102
RTVSPost2010Prop50
 90
       50
102
RTVSPost2010PropOp50
 70
     0
102
RTVSPost2010Prop51ColorIndex
 90
      256
102
RTVSPost2010Prop51ColorRGB
 90
-16777216
102
RTVSPost2010PropOp51
 70
     0
102
RTVSPost2010Prop52
140
1.0
102
RTVSPost2010PropOp52
 70
     0
102
RTVSPost2010Prop53
 90
        2
102
RTVSPost2010PropOp53
 70
     0
102
RTVSPost2010Prop54
  1
strokes_ogs.tif
102
RTVSPost2010PropOp54
 70
     0
102
RTVSPost2010Prop55
280
     0
102
RTVSPost2010PropOp55
 70
     1
102
RTVSPost2010Prop56
140
1.0
102
RTVSPost2010PropOp56
 70
     0
102
RTVSPost2010Prop57
140
1.0
102
RTVSPost2010PropOp57
 70
     0
  0
XRECORD
  5
C25F4
102
{ACAD_REACTORS
330
876B4
102
}
330
876B4
100
AcDbXrecord
280
     1
102
RTVSPropertyOp0
 70
     1
102
RTVSPropertyOp1
 70
     1
102
RTVSPropertyOp2
 70
     1
102
RTVSPropertyOp3
 70
     1
102
RTVSPropertyOp4
 70
     1
102
RTVSPropertyOp5
 70
     1
102
RTVSPropertyOp6
 70
     1
102
RTVSPropertyOp7
 70
     1
102
RTVSPropertyOp8
 70
     1
102
RTVSPropertyOp9
 70
     1
102
RTVSPropertyOp10
 70
     1
102
RTVSPropertyOp11
 70
     1
102
RTVSPropertyOp12
 70
     1
102
RTVSPropertyOp13
 70
     1
102
RTVSPropertyOp14
 70
     1
102
RTVSPropertyOp15
 70
     1
102
RTVSPropertyOp16
 70
     1
102
RTVSPropertyOp17
 70
     1
102
RTVSPropertyOp18
 70
     1
102
RTVSPropertyOp19
 70
     1
102
RTVSPropertyOp20
 70
     1
102
RTVSPropertyOp21
 70
     1
102
RTVSPropertyOp22
 70
     1
102
RTVSPropertyOp23
 70
     1
102
RTVSPropertyOp24
 70
     1
102
RTVSPropertyOp25
 70
     1
102
RTVSPropertyOp26
 70
     1
102
RTVSPropertyOp27
 70
     1
102
RTVSPropertyOp28
 70
     1
102
RTVSPropertyOp29
 70
     1
102
RTVSPropertyOp30
 70
     1
102
RTVSPropertyOp31
 70
     1
102
RTVSPropertyOp32
 70
     1
102
RTVSPropertyOp33
 70
     1
102
RTVSPropertyOp34
 70
     1
102
RTVSPropertyOp35
 70
     1
102
RTVSPropertyOp36
 70
     1
102
RTVSPropertyOp37
 70
     1
102
RTVSPropertyOp38
 70
     1
102
RTVSPropertyOp39
 70
     1
102
RTVSPropertyOp40
 70
     1
102
RTVSPropertyOp41
 70
     1
102
RTVSPropertyOp42
 70
     1
102
RTVSPropertyOp43
 70
     1
102
RTVSPropertyOp44
 70
     1
102
RTVSPropertyOp45
 70
     1
102
RTVSPropertyOp46
 70
     1
102
RTVSPropertyOp47
 70
     1
102
RTVSPropertyOp48
 70
     1
102
RTVSPropertyOp49
 70
     1
102
RTVSPropertyOp50
 70
     1
102
RTVSPropertyOp51
 70
     0
102
RTVSPropertyOp52
 70
     0
102
RTVSPropertyOp53
 70
     1
102
RTVSPropertyOp54
 70
     1
102
RTVSPropertyOp55
 70
     1
102
RTVSPropertyOp56
 70
     1
102
RTVSPropertyOp57
 70
     1
102
RTVSPost2010Prop28
280
     0
102
RTVSPost2010PropOp28
 70
     1
102
RTVSPost2010Prop29
280
     1
102
RTVSPost2010PropOp29
 70
     1
102
RTVSPost2010Prop30
280
     1
102
RTVSPost2010PropOp30
 70
     1
102
RTVSPost2010Prop31
280
     0
102
RTVSPost2010PropOp31
 70
     1
102
RTVSPost2010Prop32
280
     0
102
RTVSPost2010PropOp32
 70
     1
102
RTVSPost2010Prop33
280
     0
102
RTVSPost2010PropOp33
 70
     1
102
RTVSPost2010Prop34
280
     0
102
RTVSPost2010PropOp34
 70
     1
102
RTVSPost2010Prop35
280
     0
102
RTVSPost2010PropOp35
 70
     1
102
RTVSPost2010Prop36
280
     0
102
RTVSPost2010PropOp36
 70
     1
102
RTVSPost2010Prop37
 90
       50
102
RTVSPost2010PropOp37
 70
     1
102
RTVSPost2010Prop38
140
0.0
102
RTVSPost2010PropOp38
 70
     1
102
RTVSPost2010Prop39
140
1.0
102
RTVSPost2010PropOp39
 70
     1
102
RTVSPost2010Prop40
 90
        0
102
RTVSPost2010PropOp40
 70
     1
102
RTVSPost2010Prop41ColorIndex
 90
       18
102
RTVSPost2010Prop41ColorRGB
 90
        0
102
RTVSPost2010PropOp41
 70
     1
102
RTVSPost2010Prop42
 90
       50
102
RTVSPost2010PropOp42
 70
     1
102
RTVSPost2010Prop43
 90
        3
102
RTVSPost2010PropOp43
 70
     1
102
RTVSPost2010Prop44ColorIndex
 90
        5
102
RTVSPost2010Prop44ColorRGB
 90
      255
102
RTVSPost2010PropOp44
 70
     1
102
RTVSPost2010Prop45
280
     0
102
RTVSPost2010PropOp45
 70
     1
102
RTVSPost2010Prop46
 90
       50
102
RTVSPost2010PropOp46
 70
     1
102
RTVSPost2010Prop47
 90
       50
102
RTVSPost2010PropOp47
 70
     1
102
RTVSPost2010Prop48
 90
       50
102
RTVSPost2010PropOp48
 70
     1
102
RTVSPost2010Prop49
280
     0
102
RTVSPost2010PropOp49
 70
     1
102
RTVSPost2010Prop50
 90
       50
102
RTVSPost2010PropOp50
 70
     1
102
RTVSPost2010Prop51ColorIndex
 90
      256
102
RTVSPost2010Prop51ColorRGB
 90
-16777216
102
RTVSPost2010PropOp51
 70
     0
102
RTVSPost2010Prop52
140
1.0
102
RTVSPost2010PropOp52
 70
     0
102
RTVSPost2010Prop53
 90
        2
102
RTVSPost2010PropOp53
 70
     1
102
RTVSPost2010Prop54
  1
strokes_ogs.tif
102
RTVSPost2010PropOp54
 70
     1
102
RTVSPost2010Prop55
280
     0
102
RTVSPost2010PropOp55
 70
     1
102
RTVSPost2010Prop56
140
1.0
102
RTVSPost2010PropOp56
 70
     1
102
RTVSPost2010Prop57
140
1.0
102
RTVSPost2010PropOp57
 70
     1
  0
XRECORD
  5
C25F5
102
{ACAD_REACTORS
330
876CA
102
}
330
876CA
100
AcDbXrecord
280
     1
102
RTVSPropertyOp0
 70
     1
102
RTVSPropertyOp1
 70
     1
102
RTVSPropertyOp2
 70
     1
102
RTVSPropertyOp3
 70
     1
102
RTVSPropertyOp4
 70
     1
102
RTVSPropertyOp5
 70
     1
102
RTVSPropertyOp6
 70
     1
102
RTVSPropertyOp7
 70
     1
102
RTVSPropertyOp8
 70
     1
102
RTVSPropertyOp9
 70
     1
102
RTVSPropertyOp10
 70
     1
102
RTVSPropertyOp11
 70
     1
102
RTVSPropertyOp12
 70
     1
102
RTVSPropertyOp13
 70
     1
102
RTVSPropertyOp14
 70
     1
102
RTVSPropertyOp15
 70
     1
102
RTVSPropertyOp16
 70
     1
102
RTVSPropertyOp17
 70
     1
102
RTVSPropertyOp18
 70
     1
102
RTVSPropertyOp19
 70
     1
102
RTVSPropertyOp20
 70
     1
102
RTVSPropertyOp21
 70
     1
102
RTVSPropertyOp22
 70
     1
102
RTVSPropertyOp23
 70
     1
102
RTVSPropertyOp24
 70
     1
102
RTVSPropertyOp25
 70
     1
102
RTVSPropertyOp26
 70
     1
102
RTVSPropertyOp27
 70
     1
102
RTVSPropertyOp28
 70
     1
102
RTVSPropertyOp29
 70
     1
102
RTVSPropertyOp30
 70
     1
102
RTVSPropertyOp31
 70
     1
102
RTVSPropertyOp32
 70
     1
102
RTVSPropertyOp33
 70
     1
102
RTVSPropertyOp34
 70
     1
102
RTVSPropertyOp35
 70
     1
102
RTVSPropertyOp36
 70
     1
102
RTVSPropertyOp37
 70
     1
102
RTVSPropertyOp38
 70
     1
102
RTVSPropertyOp39
 70
     1
102
RTVSPropertyOp40
 70
     1
102
RTVSPropertyOp41
 70
     1
102
RTVSPropertyOp42
 70
     1
102
RTVSPropertyOp43
 70
     1
102
RTVSPropertyOp44
 70
     1
102
RTVSPropertyOp45
 70
     1
102
RTVSPropertyOp46
 70
     1
102
RTVSPropertyOp47
 70
     1
102
RTVSPropertyOp48
 70
     1
102
RTVSPropertyOp49
 70
     1
102
RTVSPropertyOp50
 70
     1
102
RTVSPropertyOp51
 70
     0
102
RTVSPropertyOp52
 70
     0
102
RTVSPropertyOp53
 70
     1
102
RTVSPropertyOp54
 70
     1
102
RTVSPropertyOp55
 70
     1
102
RTVSPropertyOp56
 70
     1
102
RTVSPropertyOp57
 70
     1
102
RTVSPost2010Prop28
280
     0
102
RTVSPost2010PropOp28
 70
     1
102
RTVSPost2010Prop29
280
     1
102
RTVSPost2010PropOp29
 70
     1
102
RTVSPost2010Prop30
280
     1
102
RTVSPost2010PropOp30
 70
     1
102
RTVSPost2010Prop31
280
     0
102
RTVSPost2010PropOp31
 70
     1
102
RTVSPost2010Prop32
280
     0
102
RTVSPost2010PropOp32
 70
     1
102
RTVSPost2010Prop33
280
     0
102
RTVSPost2010PropOp33
 70
     1
102
RTVSPost2010Prop34
280
     0
102
RTVSPost2010PropOp34
 70
     1
102
RTVSPost2010Prop35
280
     0
102
RTVSPost2010PropOp35
 70
     1
102
RTVSPost2010Prop36
280
     0
102
RTVSPost2010PropOp36
 70
     1
102
RTVSPost2010Prop37
 90
       50
102
RTVSPost2010PropOp37
 70
     1
102
RTVSPost2010Prop38
140
0.0
102
RTVSPost2010PropOp38
 70
     1
102
RTVSPost2010Prop39
140
1.0
102
RTVSPost2010PropOp39
 70
     1
102
RTVSPost2010Prop40
 90
        0
102
RTVSPost2010PropOp40
 70
     1
102
RTVSPost2010Prop41ColorIndex
 90
       18
102
RTVSPost2010Prop41ColorRGB
 90
        0
102
RTVSPost2010PropOp41
 70
     1
102
RTVSPost2010Prop42
 90
       50
102
RTVSPost2010PropOp42
 70
     1
102
RTVSPost2010Prop43
 90
        3
102
RTVSPost2010PropOp43
 70
     1
102
RTVSPost2010Prop44ColorIndex
 90
        5
102
RTVSPost2010Prop44ColorRGB
 90
      255
102
RTVSPost2010PropOp44
 70
     1
102
RTVSPost2010Prop45
280
     0
102
RTVSPost2010PropOp45
 70
     1
102
RTVSPost2010Prop46
 90
       50
102
RTVSPost2010PropOp46
 70
     1
102
RTVSPost2010Prop47
 90
       50
102
RTVSPost2010PropOp47
 70
     1
102
RTVSPost2010Prop48
 90
       50
102
RTVSPost2010PropOp48
 70
     1
102
RTVSPost2010Prop49
280
     0
102
RTVSPost2010PropOp49
 70
     1
102
RTVSPost2010Prop50
 90
       50
102
RTVSPost2010PropOp50
 70
     1
102
RTVSPost2010Prop51ColorIndex
 90
      256
102
RTVSPost2010Prop51ColorRGB
 90
-16777216
102
RTVSPost2010PropOp51
 70
     0
102
RTVSPost2010Prop52
140
1.0
102
RTVSPost2010PropOp52
 70
     0
102
RTVSPost2010Prop53
 90
        2
102
RTVSPost2010PropOp53
 70
     1
102
RTVSPost2010Prop54
  1
strokes_ogs.tif
102
RTVSPost2010PropOp54
 70
     1
102
RTVSPost2010Prop55
280
     0
102
RTVSPost2010PropOp55
 70
     1
102
RTVSPost2010Prop56
140
1.0
102
RTVSPost2010PropOp56
 70
     1
102
RTVSPost2010Prop57
140
1.0
102
RTVSPost2010PropOp57
 70
     1
  0
XRECORD
  5
C25F6
102
{ACAD_REACTORS
330
876C8
102
}
330
876C8
100
AcDbXrecord
280
     1
102
RTVSPropertyOp0
 70
     1
102
RTVSPropertyOp1
 70
     1
102
RTVSPropertyOp2
 70
     1
102
RTVSPropertyOp3
 70
     1
102
RTVSPropertyOp4
 70
     1
102
RTVSPropertyOp5
 70
     1
102
RTVSPropertyOp6
 70
     1
102
RTVSPropertyOp7
 70
     1
102
RTVSPropertyOp8
 70
     1
102
RTVSPropertyOp9
 70
     1
102
RTVSPropertyOp10
 70
     1
102
RTVSPropertyOp11
 70
     1
102
RTVSPropertyOp12
 70
     1
102
RTVSPropertyOp13
 70
     1
102
RTVSPropertyOp14
 70
     1
102
RTVSPropertyOp15
 70
     1
102
RTVSPropertyOp16
 70
     1
102
RTVSPropertyOp17
 70
     1
102
RTVSPropertyOp18
 70
     1
102
RTVSPropertyOp19
 70
     1
102
RTVSPropertyOp20
 70
     1
102
RTVSPropertyOp21
 70
     1
102
RTVSPropertyOp22
 70
     1
102
RTVSPropertyOp23
 70
     1
102
RTVSPropertyOp24
 70
     1
102
RTVSPropertyOp25
 70
     1
102
RTVSPropertyOp26
 70
     1
102
RTVSPropertyOp27
 70
     1
102
RTVSPropertyOp28
 70
     1
102
RTVSPropertyOp29
 70
     1
102
RTVSPropertyOp30
 70
     1
102
RTVSPropertyOp31
 70
     1
102
RTVSPropertyOp32
 70
     1
102
RTVSPropertyOp33
 70
     1
102
RTVSPropertyOp34
 70
     1
102
RTVSPropertyOp35
 70
     1
102
RTVSPropertyOp36
 70
     1
102
RTVSPropertyOp37
 70
     1
102
RTVSPropertyOp38
 70
     1
102
RTVSPropertyOp39
 70
     1
102
RTVSPropertyOp40
 70
     1
102
RTVSPropertyOp41
 70
     1
102
RTVSPropertyOp42
 70
     1
102
RTVSPropertyOp43
 70
     1
102
RTVSPropertyOp44
 70
     1
102
RTVSPropertyOp45
 70
     1
102
RTVSPropertyOp46
 70
     1
102
RTVSPropertyOp47
 70
     1
102
RTVSPropertyOp48
 70
     1
102
RTVSPropertyOp49
 70
     1
102
RTVSPropertyOp50
 70
     1
102
RTVSPropertyOp51
 70
     0
102
RTVSPropertyOp52
 70
     0
102
RTVSPropertyOp53
 70
     1
102
RTVSPropertyOp54
 70
     1
102
RTVSPropertyOp55
 70
     1
102
RTVSPropertyOp56
 70
     1
102
RTVSPropertyOp57
 70
     1
102
RTVSPost2010Prop28
280
     0
102
RTVSPost2010PropOp28
 70
     1
102
RTVSPost2010Prop29
280
     1
102
RTVSPost2010PropOp29
 70
     1
102
RTVSPost2010Prop30
280
     1
102
RTVSPost2010PropOp30
 70
     1
102
RTVSPost2010Prop31
280
     0
102
RTVSPost2010PropOp31
 70
     1
102
RTVSPost2010Prop32
280
     0
102
RTVSPost2010PropOp32
 70
     1
102
RTVSPost2010Prop33
280
     0
102
RTVSPost2010PropOp33
 70
     1
102
RTVSPost2010Prop34
280
     0
102
RTVSPost2010PropOp34
 70
     1
102
RTVSPost2010Prop35
280
     0
102
RTVSPost2010PropOp35
 70
     1
102
RTVSPost2010Prop36
280
     0
102
RTVSPost2010PropOp36
 70
     1
102
RTVSPost2010Prop37
 90
       50
102
RTVSPost2010PropOp37
 70
     1
102
RTVSPost2010Prop38
140
0.0
102
RTVSPost2010PropOp38
 70
     1
102
RTVSPost2010Prop39
140
1.0
102
RTVSPost2010PropOp39
 70
     1
102
RTVSPost2010Prop40
 90
        0
102
RTVSPost2010PropOp40
 70
     1
102
RTVSPost2010Prop41ColorIndex
 90
       18
102
RTVSPost2010Prop41ColorRGB
 90
        0
102
RTVSPost2010PropOp41
 70
     1
102
RTVSPost2010Prop42
 90
       50
102
RTVSPost2010PropOp42
 70
     1
102
RTVSPost2010Prop43
 90
        3
102
RTVSPost2010PropOp43
 70
     1
102
RTVSPost2010Prop44ColorIndex
 90
        5
102
RTVSPost2010Prop44ColorRGB
 90
      255
102
RTVSPost2010PropOp44
 70
     1
102
RTVSPost2010Prop45
280
     0
102
RTVSPost2010PropOp45
 70
     1
102
RTVSPost2010Prop46
 90
       50
102
RTVSPost2010PropOp46
 70
     1
102
RTVSPost2010Prop47
 90
       50
102
RTVSPost2010PropOp47
 70
     1
102
RTVSPost2010Prop48
 90
       50
102
RTVSPost2010PropOp48
 70
     1
102
RTVSPost2010Prop49
280
     0
102
RTVSPost2010PropOp49
 70
     1
102
RTVSPost2010Prop50
 90
       50
102
RTVSPost2010PropOp50
 70
     1
102
RTVSPost2010Prop51ColorIndex
 90
      256
102
RTVSPost2010Prop51ColorRGB
 90
-16777216
102
RTVSPost2010PropOp51
 70
     0
102
RTVSPost2010Prop52
140
1.0
102
RTVSPost2010PropOp52
 70
     0
102
RTVSPost2010Prop53
 90
        2
102
RTVSPost2010PropOp53
 70
     1
102
RTVSPost2010Prop54
  1
strokes_ogs.tif
102
RTVSPost2010PropOp54
 70
     1
102
RTVSPost2010Prop55
280
     0
102
RTVSPost2010PropOp55
 70
     1
102
RTVSPost2010Prop56
140
1.0
102
RTVSPost2010PropOp56
 70
     1
102
RTVSPost2010Prop57
140
1.0
102
RTVSPost2010PropOp57
 70
     1
  0
XRECORD
  5
C25F7
102
{ACAD_REACTORS
330
876C2
102
}
330
876C2
100
AcDbXrecord
280
     1
102
RTVSPropertyOp0
 70
     1
102
RTVSPropertyOp1
 70
     1
102
RTVSPropertyOp2
 70
     1
102
RTVSPropertyOp3
 70
     1
102
RTVSPropertyOp4
 70
     1
102
RTVSPropertyOp5
 70
     1
102
RTVSPropertyOp6
 70
     1
102
RTVSPropertyOp7
 70
     1
102
RTVSPropertyOp8
 70
     1
102
RTVSPropertyOp9
 70
     1
102
RTVSPropertyOp10
 70
     1
102
RTVSPropertyOp11
 70
     1
102
RTVSPropertyOp12
 70
     1
102
RTVSPropertyOp13
 70
     1
102
RTVSPropertyOp14
 70
     1
102
RTVSPropertyOp15
 70
     1
102
RTVSPropertyOp16
 70
     1
102
RTVSPropertyOp17
 70
     1
102
RTVSPropertyOp18
 70
     1
102
RTVSPropertyOp19
 70
     1
102
RTVSPropertyOp20
 70
     1
102
RTVSPropertyOp21
 70
     1
102
RTVSPropertyOp22
 70
     1
102
RTVSPropertyOp23
 70
     1
102
RTVSPropertyOp24
 70
     1
102
RTVSPropertyOp25
 70
     1
102
RTVSPropertyOp26
 70
     1
102
RTVSPropertyOp27
 70
     1
102
RTVSPropertyOp28
 70
     1
102
RTVSPropertyOp29
 70
     1
102
RTVSPropertyOp30
 70
     1
102
RTVSPropertyOp31
 70
     1
102
RTVSPropertyOp32
 70
     1
102
RTVSPropertyOp33
 70
     1
102
RTVSPropertyOp34
 70
     1
102
RTVSPropertyOp35
 70
     1
102
RTVSPropertyOp36
 70
     1
102
RTVSPropertyOp37
 70
     1
102
RTVSPropertyOp38
 70
     1
102
RTVSPropertyOp39
 70
     1
102
RTVSPropertyOp40
 70
     1
102
RTVSPropertyOp41
 70
     1
102
RTVSPropertyOp42
 70
     1
102
RTVSPropertyOp43
 70
     1
102
RTVSPropertyOp44
 70
     1
102
RTVSPropertyOp45
 70
     1
102
RTVSPropertyOp46
 70
     1
102
RTVSPropertyOp47
 70
     1
102
RTVSPropertyOp48
 70
     1
102
RTVSPropertyOp49
 70
     1
102
RTVSPropertyOp50
 70
     1
102
RTVSPropertyOp51
 70
     0
102
RTVSPropertyOp52
 70
     0
102
RTVSPropertyOp53
 70
     1
102
RTVSPropertyOp54
 70
     1
102
RTVSPropertyOp55
 70
     1
102
RTVSPropertyOp56
 70
     1
102
RTVSPropertyOp57
 70
     1
102
RTVSPost2010Prop28
280
     0
102
RTVSPost2010PropOp28
 70
     1
102
RTVSPost2010Prop29
280
     1
102
RTVSPost2010PropOp29
 70
     1
102
RTVSPost2010Prop30
280
     1
102
RTVSPost2010PropOp30
 70
     1
102
RTVSPost2010Prop31
280
     0
102
RTVSPost2010PropOp31
 70
     1
102
RTVSPost2010Prop32
280
     0
102
RTVSPost2010PropOp32
 70
     1
102
RTVSPost2010Prop33
280
     0
102
RTVSPost2010PropOp33
 70
     1
102
RTVSPost2010Prop34
280
     0
102
RTVSPost2010PropOp34
 70
     1
102
RTVSPost2010Prop35
280
     0
102
RTVSPost2010PropOp35
 70
     1
102
RTVSPost2010Prop36
280
     0
102
RTVSPost2010PropOp36
 70
     1
102
RTVSPost2010Prop37
 90
       50
102
RTVSPost2010PropOp37
 70
     1
102
RTVSPost2010Prop38
140
0.0
102
RTVSPost2010PropOp38
 70
     1
102
RTVSPost2010Prop39
140
1.0
102
RTVSPost2010PropOp39
 70
     1
102
RTVSPost2010Prop40
 90
        0
102
RTVSPost2010PropOp40
 70
     1
102
RTVSPost2010Prop41ColorIndex
 90
       18
102
RTVSPost2010Prop41ColorRGB
 90
        0
102
RTVSPost2010PropOp41
 70
     1
102
RTVSPost2010Prop42
 90
       50
102
RTVSPost2010PropOp42
 70
     1
102
RTVSPost2010Prop43
 90
        3
102
RTVSPost2010PropOp43
 70
     1
102
RTVSPost2010Prop44ColorIndex
 90
        5
102
RTVSPost2010Prop44ColorRGB
 90
      255
102
RTVSPost2010PropOp44
 70
     1
102
RTVSPost2010Prop45
280
     0
102
RTVSPost2010PropOp45
 70
     1
102
RTVSPost2010Prop46
 90
       50
102
RTVSPost2010PropOp46
 70
     1
102
RTVSPost2010Prop47
 90
       50
102
RTVSPost2010PropOp47
 70
     1
102
RTVSPost2010Prop48
 90
       50
102
RTVSPost2010PropOp48
 70
     1
102
RTVSPost2010Prop49
280
     0
102
RTVSPost2010PropOp49
 70
     1
102
RTVSPost2010Prop50
 90
       50
102
RTVSPost2010PropOp50
 70
     1
102
RTVSPost2010Prop51ColorIndex
 90
      256
102
RTVSPost2010Prop51ColorRGB
 90
-16777216
102
RTVSPost2010PropOp51
 70
     0
102
RTVSPost2010Prop52
140
1.0
102
RTVSPost2010PropOp52
 70
     0
102
RTVSPost2010Prop53
 90
        2
102
RTVSPost2010PropOp53
 70
     1
102
RTVSPost2010Prop54
  1
strokes_ogs.tif
102
RTVSPost2010PropOp54
 70
     1
102
RTVSPost2010Prop55
280
     0
102
RTVSPost2010PropOp55
 70
     1
102
RTVSPost2010Prop56
140
1.0
102
RTVSPost2010PropOp56
 70
     1
102
RTVSPost2010Prop57
140
1.0
102
RTVSPost2010PropOp57
 70
     1
  0
XRECORD
  5
C25F8
102
{ACAD_REACTORS
330
876C4
102
}
330
876C4
100
AcDbXrecord
280
     1
102
RTVSPropertyOp0
 70
     1
102
RTVSPropertyOp1
 70
     1
102
RTVSPropertyOp2
 70
     1
102
RTVSPropertyOp3
 70
     1
102
RTVSPropertyOp4
 70
     1
102
RTVSPropertyOp5
 70
     1
102
RTVSPropertyOp6
 70
     1
102
RTVSPropertyOp7
 70
     1
102
RTVSPropertyOp8
 70
     1
102
RTVSPropertyOp9
 70
     1
102
RTVSPropertyOp10
 70
     1
102
RTVSPropertyOp11
 70
     1
102
RTVSPropertyOp12
 70
     1
102
RTVSPropertyOp13
 70
     1
102
RTVSPropertyOp14
 70
     1
102
RTVSPropertyOp15
 70
     1
102
RTVSPropertyOp16
 70
     1
102
RTVSPropertyOp17
 70
     1
102
RTVSPropertyOp18
 70
     1
102
RTVSPropertyOp19
 70
     1
102
RTVSPropertyOp20
 70
     1
102
RTVSPropertyOp21
 70
     1
102
RTVSPropertyOp22
 70
     1
102
RTVSPropertyOp23
 70
     1
102
RTVSPropertyOp24
 70
     1
102
RTVSPropertyOp25
 70
     1
102
RTVSPropertyOp26
 70
     1
102
RTVSPropertyOp27
 70
     1
102
RTVSPropertyOp28
 70
     1
102
RTVSPropertyOp29
 70
     1
102
RTVSPropertyOp30
 70
     1
102
RTVSPropertyOp31
 70
     1
102
RTVSPropertyOp32
 70
     1
102
RTVSPropertyOp33
 70
     1
102
RTVSPropertyOp34
 70
     1
102
RTVSPropertyOp35
 70
     1
102
RTVSPropertyOp36
 70
     1
102
RTVSPropertyOp37
 70
     1
102
RTVSPropertyOp38
 70
     1
102
RTVSPropertyOp39
 70
     1
102
RTVSPropertyOp40
 70
     1
102
RTVSPropertyOp41
 70
     1
102
RTVSPropertyOp42
 70
     1
102
RTVSPropertyOp43
 70
     1
102
RTVSPropertyOp44
 70
     1
102
RTVSPropertyOp45
 70
     1
102
RTVSPropertyOp46
 70
     1
102
RTVSPropertyOp47
 70
     1
102
RTVSPropertyOp48
 70
     1
102
RTVSPropertyOp49
 70
     1
102
RTVSPropertyOp50
 70
     1
102
RTVSPropertyOp51
 70
     0
102
RTVSPropertyOp52
 70
     0
102
RTVSPropertyOp53
 70
     1
102
RTVSPropertyOp54
 70
     1
102
RTVSPropertyOp55
 70
     1
102
RTVSPropertyOp56
 70
     1
102
RTVSPropertyOp57
 70
     1
102
RTVSPost2010Prop28
280
     0
102
RTVSPost2010PropOp28
 70
     1
102
RTVSPost2010Prop29
280
     1
102
RTVSPost2010PropOp29
 70
     1
102
RTVSPost2010Prop30
280
     1
102
RTVSPost2010PropOp30
 70
     1
102
RTVSPost2010Prop31
280
     0
102
RTVSPost2010PropOp31
 70
     1
102
RTVSPost2010Prop32
280
     0
102
RTVSPost2010PropOp32
 70
     1
102
RTVSPost2010Prop33
280
     0
102
RTVSPost2010PropOp33
 70
     1
102
RTVSPost2010Prop34
280
     0
102
RTVSPost2010PropOp34
 70
     1
102
RTVSPost2010Prop35
280
     0
102
RTVSPost2010PropOp35
 70
     1
102
RTVSPost2010Prop36
280
     0
102
RTVSPost2010PropOp36
 70
     1
102
RTVSPost2010Prop37
 90
       50
102
RTVSPost2010PropOp37
 70
     1
102
RTVSPost2010Prop38
140
0.0
102
RTVSPost2010PropOp38
 70
     1
102
RTVSPost2010Prop39
140
1.0
102
RTVSPost2010PropOp39
 70
     1
102
RTVSPost2010Prop40
 90
        0
102
RTVSPost2010PropOp40
 70
     1
102
RTVSPost2010Prop41ColorIndex
 90
       18
102
RTVSPost2010Prop41ColorRGB
 90
        0
102
RTVSPost2010PropOp41
 70
     1
102
RTVSPost2010Prop42
 90
       50
102
RTVSPost2010PropOp42
 70
     1
102
RTVSPost2010Prop43
 90
        3
102
RTVSPost2010PropOp43
 70
     1
102
RTVSPost2010Prop44ColorIndex
 90
        5
102
RTVSPost2010Prop44ColorRGB
 90
      255
102
RTVSPost2010PropOp44
 70
     1
102
RTVSPost2010Prop45
280
     0
102
RTVSPost2010PropOp45
 70
     1
102
RTVSPost2010Prop46
 90
       50
102
RTVSPost2010PropOp46
 70
     1
102
RTVSPost2010Prop47
 90
       50
102
RTVSPost2010PropOp47
 70
     1
102
RTVSPost2010Prop48
 90
       50
102
RTVSPost2010PropOp48
 70
     1
102
RTVSPost2010Prop49
280
     0
102
RTVSPost2010PropOp49
 70
     1
102
RTVSPost2010Prop50
 90
       50
102
RTVSPost2010PropOp50
 70
     1
102
RTVSPost2010Prop51ColorIndex
 90
      256
102
RTVSPost2010Prop51ColorRGB
 90
-16777216
102
RTVSPost2010PropOp51
 70
     0
102
RTVSPost2010Prop52
140
1.0
102
RTVSPost2010PropOp52
 70
     0
102
RTVSPost2010Prop53
 90
        2
102
RTVSPost2010PropOp53
 70
     1
102
RTVSPost2010Prop54
  1
strokes_ogs.tif
102
RTVSPost2010PropOp54
 70
     1
102
RTVSPost2010Prop55
280
     0
102
RTVSPost2010PropOp55
 70
     1
102
RTVSPost2010Prop56
140
1.0
102
RTVSPost2010PropOp56
 70
     1
102
RTVSPost2010Prop57
140
1.0
102
RTVSPost2010PropOp57
 70
     1
  0
XRECORD
  5
C25F9
102
{ACAD_REACTORS
330
876BA
102
}
330
876BA
100
AcDbXrecord
280
     1
102
RTVSPropertyOp0
 70
     1
102
RTVSPropertyOp1
 70
     1
102
RTVSPropertyOp2
 70
     1
102
RTVSPropertyOp3
 70
     1
102
RTVSPropertyOp4
 70
     1
102
RTVSPropertyOp5
 70
     1
102
RTVSPropertyOp6
 70
     1
102
RTVSPropertyOp7
 70
     1
102
RTVSPropertyOp8
 70
     1
102
RTVSPropertyOp9
 70
     1
102
RTVSPropertyOp10
 70
     1
102
RTVSPropertyOp11
 70
     1
102
RTVSPropertyOp12
 70
     1
102
RTVSPropertyOp13
 70
     1
102
RTVSPropertyOp14
 70
     1
102
RTVSPropertyOp15
 70
     1
102
RTVSPropertyOp16
 70
     1
102
RTVSPropertyOp17
 70
     1
102
RTVSPropertyOp18
 70
     1
102
RTVSPropertyOp19
 70
     1
102
RTVSPropertyOp20
 70
     1
102
RTVSPropertyOp21
 70
     1
102
RTVSPropertyOp22
 70
     1
102
RTVSPropertyOp23
 70
     1
102
RTVSPropertyOp24
 70
     1
102
RTVSPropertyOp25
 70
     1
102
RTVSPropertyOp26
 70
     1
102
RTVSPropertyOp27
 70
     1
102
RTVSPropertyOp28
 70
     1
102
RTVSPropertyOp29
 70
     1
102
RTVSPropertyOp30
 70
     1
102
RTVSPropertyOp31
 70
     1
102
RTVSPropertyOp32
 70
     1
102
RTVSPropertyOp33
 70
     1
102
RTVSPropertyOp34
 70
     1
102
RTVSPropertyOp35
 70
     1
102
RTVSPropertyOp36
 70
     1
102
RTVSPropertyOp37
 70
     1
102
RTVSPropertyOp38
 70
     1
102
RTVSPropertyOp39
 70
     1
102
RTVSPropertyOp40
 70
     1
102
RTVSPropertyOp41
 70
     1
102
RTVSPropertyOp42
 70
     1
102
RTVSPropertyOp43
 70
     1
102
RTVSPropertyOp44
 70
     1
102
RTVSPropertyOp45
 70
     1
102
RTVSPropertyOp46
 70
     1
102
RTVSPropertyOp47
 70
     1
102
RTVSPropertyOp48
 70
     1
102
RTVSPropertyOp49
 70
     1
102
RTVSPropertyOp50
 70
     1
102
RTVSPropertyOp51
 70
     0
102
RTVSPropertyOp52
 70
     0
102
RTVSPropertyOp53
 70
     1
102
RTVSPropertyOp54
 70
     1
102
RTVSPropertyOp55
 70
     1
102
RTVSPropertyOp56
 70
     1
102
RTVSPropertyOp57
 70
     1
102
RTVSPost2010Prop28
280
     0
102
RTVSPost2010PropOp28
 70
     1
102
RTVSPost2010Prop29
280
     1
102
RTVSPost2010PropOp29
 70
     1
102
RTVSPost2010Prop30
280
     1
102
RTVSPost2010PropOp30
 70
     1
102
RTVSPost2010Prop31
280
     0
102
RTVSPost2010PropOp31
 70
     1
102
RTVSPost2010Prop32
280
     0
102
RTVSPost2010PropOp32
 70
     1
102
RTVSPost2010Prop33
280
     0
102
RTVSPost2010PropOp33
 70
     1
102
RTVSPost2010Prop34
280
     0
102
RTVSPost2010PropOp34
 70
     1
102
RTVSPost2010Prop35
280
     0
102
RTVSPost2010PropOp35
 70
     1
102
RTVSPost2010Prop36
280
     0
102
RTVSPost2010PropOp36
 70
     1
102
RTVSPost2010Prop37
 90
       50
102
RTVSPost2010PropOp37
 70
     1
102
RTVSPost2010Prop38
140
0.0
102
RTVSPost2010PropOp38
 70
     1
102
RTVSPost2010Prop39
140
1.0
102
RTVSPost2010PropOp39
 70
     1
102
RTVSPost2010Prop40
 90
        0
102
RTVSPost2010PropOp40
 70
     1
102
RTVSPost2010Prop41ColorIndex
 90
       18
102
RTVSPost2010Prop41ColorRGB
 90
        0
102
RTVSPost2010PropOp41
 70
     1
102
RTVSPost2010Prop42
 90
       50
102
RTVSPost2010PropOp42
 70
     1
102
RTVSPost2010Prop43
 90
        3
102
RTVSPost2010PropOp43
 70
     1
102
RTVSPost2010Prop44ColorIndex
 90
        5
102
RTVSPost2010Prop44ColorRGB
 90
      255
102
RTVSPost2010PropOp44
 70
     1
102
RTVSPost2010Prop45
280
     0
102
RTVSPost2010PropOp45
 70
     1
102
RTVSPost2010Prop46
 90
       50
102
RTVSPost2010PropOp46
 70
     1
102
RTVSPost2010Prop47
 90
       50
102
RTVSPost2010PropOp47
 70
     1
102
RTVSPost2010Prop48
 90
       50
102
RTVSPost2010PropOp48
 70
     1
102
RTVSPost2010Prop49
280
     0
102
RTVSPost2010PropOp49
 70
     1
102
RTVSPost2010Prop50
 90
       50
102
RTVSPost2010PropOp50
 70
     1
102
RTVSPost2010Prop51ColorIndex
 90
      256
102
RTVSPost2010Prop51ColorRGB
 90
-16777216
102
RTVSPost2010PropOp51
 70
     0
102
RTVSPost2010Prop52
140
1.0
102
RTVSPost2010PropOp52
 70
     0
102
RTVSPost2010Prop53
 90
        2
102
RTVSPost2010PropOp53
 70
     1
102
RTVSPost2010Prop54
  1
strokes_ogs.tif
102
RTVSPost2010PropOp54
 70
     1
102
RTVSPost2010Prop55
280
     0
102
RTVSPost2010PropOp55
 70
     1
102
RTVSPost2010Prop56
140
1.0
102
RTVSPost2010PropOp56
 70
     1
102
RTVSPost2010Prop57
140
1.0
102
RTVSPost2010PropOp57
 70
     1
  0
XRECORD
  5
C25FA
102
{ACAD_REACTORS
330
876AE
102
}
330
876AE
100
AcDbXrecord
280
     1
102
RTVSPropertyOp0
 70
     1
102
RTVSPropertyOp1
 70
     1
102
RTVSPropertyOp2
 70
     1
102
RTVSPropertyOp3
 70
     1
102
RTVSPropertyOp4
 70
     1
102
RTVSPropertyOp5
 70
     1
102
RTVSPropertyOp6
 70
     1
102
RTVSPropertyOp7
 70
     1
102
RTVSPropertyOp8
 70
     1
102
RTVSPropertyOp9
 70
     1
102
RTVSPropertyOp10
 70
     1
102
RTVSPropertyOp11
 70
     1
102
RTVSPropertyOp12
 70
     1
102
RTVSPropertyOp13
 70
     1
102
RTVSPropertyOp14
 70
     1
102
RTVSPropertyOp15
 70
     1
102
RTVSPropertyOp16
 70
     1
102
RTVSPropertyOp17
 70
     1
102
RTVSPropertyOp18
 70
     1
102
RTVSPropertyOp19
 70
     1
102
RTVSPropertyOp20
 70
     1
102
RTVSPropertyOp21
 70
     1
102
RTVSPropertyOp22
 70
     1
102
RTVSPropertyOp23
 70
     1
102
RTVSPropertyOp24
 70
     1
102
RTVSPropertyOp25
 70
     1
102
RTVSPropertyOp26
 70
     1
102
RTVSPropertyOp27
 70
     1
102
RTVSPropertyOp28
 70
     1
102
RTVSPropertyOp29
 70
     1
102
RTVSPropertyOp30
 70
     1
102
RTVSPropertyOp31
 70
     1
102
RTVSPropertyOp32
 70
     1
102
RTVSPropertyOp33
 70
     1
102
RTVSPropertyOp34
 70
     1
102
RTVSPropertyOp35
 70
     1
102
RTVSPropertyOp36
 70
     1
102
RTVSPropertyOp37
 70
     1
102
RTVSPropertyOp38
 70
     1
102
RTVSPropertyOp39
 70
     1
102
RTVSPropertyOp40
 70
     1
102
RTVSPropertyOp41
 70
     1
102
RTVSPropertyOp42
 70
     1
102
RTVSPropertyOp43
 70
     1
102
RTVSPropertyOp44
 70
     1
102
RTVSPropertyOp45
 70
     1
102
RTVSPropertyOp46
 70
     1
102
RTVSPropertyOp47
 70
     1
102
RTVSPropertyOp48
 70
     1
102
RTVSPropertyOp49
 70
     1
102
RTVSPropertyOp50
 70
     1
102
RTVSPropertyOp51
 70
     0
102
RTVSPropertyOp52
 70
     0
102
RTVSPropertyOp53
 70
     1
102
RTVSPropertyOp54
 70
     1
102
RTVSPropertyOp55
 70
     1
102
RTVSPropertyOp56
 70
     1
102
RTVSPropertyOp57
 70
     1
102
RTVSPost2010Prop28
280
     0
102
RTVSPost2010PropOp28
 70
     1
102
RTVSPost2010Prop29
280
     1
102
RTVSPost2010PropOp29
 70
     1
102
RTVSPost2010Prop30
280
     1
102
RTVSPost2010PropOp30
 70
     1
102
RTVSPost2010Prop31
280
     0
102
RTVSPost2010PropOp31
 70
     1
102
RTVSPost2010Prop32
280
     0
102
RTVSPost2010PropOp32
 70
     1
102
RTVSPost2010Prop33
280
     0
102
RTVSPost2010PropOp33
 70
     1
102
RTVSPost2010Prop34
280
     0
102
RTVSPost2010PropOp34
 70
     1
102
RTVSPost2010Prop35
280
     0
102
RTVSPost2010PropOp35
 70
     1
102
RTVSPost2010Prop36
280
     0
102
RTVSPost2010PropOp36
 70
     1
102
RTVSPost2010Prop37
 90
       50
102
RTVSPost2010PropOp37
 70
     1
102
RTVSPost2010Prop38
140
0.0
102
RTVSPost2010PropOp38
 70
     1
102
RTVSPost2010Prop39
140
1.0
102
RTVSPost2010PropOp39
 70
     1
102
RTVSPost2010Prop40
 90
        0
102
RTVSPost2010PropOp40
 70
     1
102
RTVSPost2010Prop41ColorIndex
 90
       18
102
RTVSPost2010Prop41ColorRGB
 90
        0
102
RTVSPost2010PropOp41
 70
     1
102
RTVSPost2010Prop42
 90
       50
102
RTVSPost2010PropOp42
 70
     1
102
RTVSPost2010Prop43
 90
        3
102
RTVSPost2010PropOp43
 70
     1
102
RTVSPost2010Prop44ColorIndex
 90
        5
102
RTVSPost2010Prop44ColorRGB
 90
      255
102
RTVSPost2010PropOp44
 70
     1
102
RTVSPost2010Prop45
280
     0
102
RTVSPost2010PropOp45
 70
     1
102
RTVSPost2010Prop46
 90
       50
102
RTVSPost2010PropOp46
 70
     1
102
RTVSPost2010Prop47
 90
       50
102
RTVSPost2010PropOp47
 70
     1
102
RTVSPost2010Prop48
 90
       50
102
RTVSPost2010PropOp48
 70
     1
102
RTVSPost2010Prop49
280
     0
102
RTVSPost2010PropOp49
 70
     1
102
RTVSPost2010Prop50
 90
       50
102
RTVSPost2010PropOp50
 70
     1
102
RTVSPost2010Prop51ColorIndex
 90
      256
102
RTVSPost2010Prop51ColorRGB
 90
-16777216
102
RTVSPost2010PropOp51
 70
     0
102
RTVSPost2010Prop52
140
1.0
102
RTVSPost2010PropOp52
 70
     0
102
RTVSPost2010Prop53
 90
        2
102
RTVSPost2010PropOp53
 70
     1
102
RTVSPost2010Prop54
  1
strokes_ogs.tif
102
RTVSPost2010PropOp54
 70
     1
102
RTVSPost2010Prop55
280
     0
102
RTVSPost2010PropOp55
 70
     1
102
RTVSPost2010Prop56
140
1.0
102
RTVSPost2010PropOp56
 70
     1
102
RTVSPost2010Prop57
140
1.0
102
RTVSPost2010PropOp57
 70
     1
  0
XRECORD
  5
C25FB
102
{ACAD_REACTORS
330
876C6
102
}
330
876C6
100
AcDbXrecord
280
     1
102
RTVSPropertyOp0
 70
     1
102
RTVSPropertyOp1
 70
     1
102
RTVSPropertyOp2
 70
     1
102
RTVSPropertyOp3
 70
     1
102
RTVSPropertyOp4
 70
     1
102
RTVSPropertyOp5
 70
     1
102
RTVSPropertyOp6
 70
     1
102
RTVSPropertyOp7
 70
     1
102
RTVSPropertyOp8
 70
     1
102
RTVSPropertyOp9
 70
     1
102
RTVSPropertyOp10
 70
     1
102
RTVSPropertyOp11
 70
     1
102
RTVSPropertyOp12
 70
     1
102
RTVSPropertyOp13
 70
     1
102
RTVSPropertyOp14
 70
     1
102
RTVSPropertyOp15
 70
     1
102
RTVSPropertyOp16
 70
     1
102
RTVSPropertyOp17
 70
     1
102
RTVSPropertyOp18
 70
     1
102
RTVSPropertyOp19
 70
     1
102
RTVSPropertyOp20
 70
     1
102
RTVSPropertyOp21
 70
     1
102
RTVSPropertyOp22
 70
     1
102
RTVSPropertyOp23
 70
     1
102
RTVSPropertyOp24
 70
     1
102
RTVSPropertyOp25
 70
     1
102
RTVSPropertyOp26
 70
     1
102
RTVSPropertyOp27
 70
     1
102
RTVSPropertyOp28
 70
     1
102
RTVSPropertyOp29
 70
     1
102
RTVSPropertyOp30
 70
     1
102
RTVSPropertyOp31
 70
     1
102
RTVSPropertyOp32
 70
     1
102
RTVSPropertyOp33
 70
     1
102
RTVSPropertyOp34
 70
     1
102
RTVSPropertyOp35
 70
     1
102
RTVSPropertyOp36
 70
     1
102
RTVSPropertyOp37
 70
     1
102
RTVSPropertyOp38
 70
     1
102
RTVSPropertyOp39
 70
     1
102
RTVSPropertyOp40
 70
     1
102
RTVSPropertyOp41
 70
     1
102
RTVSPropertyOp42
 70
     1
102
RTVSPropertyOp43
 70
     1
102
RTVSPropertyOp44
 70
     1
102
RTVSPropertyOp45
 70
     1
102
RTVSPropertyOp46
 70
     1
102
RTVSPropertyOp47
 70
     1
102
RTVSPropertyOp48
 70
     1
102
RTVSPropertyOp49
 70
     1
102
RTVSPropertyOp50
 70
     1
102
RTVSPropertyOp51
 70
     0
102
RTVSPropertyOp52
 70
     0
102
RTVSPropertyOp53
 70
     1
102
RTVSPropertyOp54
 70
     1
102
RTVSPropertyOp55
 70
     1
102
RTVSPropertyOp56
 70
     1
102
RTVSPropertyOp57
 70
     1
102
RTVSPost2010Prop28
280
     0
102
RTVSPost2010PropOp28
 70
     1
102
RTVSPost2010Prop29
280
     1
102
RTVSPost2010PropOp29
 70
     1
102
RTVSPost2010Prop30
280
     1
102
RTVSPost2010PropOp30
 70
     1
102
RTVSPost2010Prop31
280
     0
102
RTVSPost2010PropOp31
 70
     1
102
RTVSPost2010Prop32
280
     0
102
RTVSPost2010PropOp32
 70
     1
102
RTVSPost2010Prop33
280
     0
102
RTVSPost2010PropOp33
 70
     1
102
RTVSPost2010Prop34
280
     0
102
RTVSPost2010PropOp34
 70
     1
102
RTVSPost2010Prop35
280
     0
102
RTVSPost2010PropOp35
 70
     1
102
RTVSPost2010Prop36
280
     0
102
RTVSPost2010PropOp36
 70
     1
102
RTVSPost2010Prop37
 90
       50
102
RTVSPost2010PropOp37
 70
     1
102
RTVSPost2010Prop38
140
0.0
102
RTVSPost2010PropOp38
 70
     1
102
RTVSPost2010Prop39
140
1.0
102
RTVSPost2010PropOp39
 70
     1
102
RTVSPost2010Prop40
 90
        0
102
RTVSPost2010PropOp40
 70
     1
102
RTVSPost2010Prop41ColorIndex
 90
       18
102
RTVSPost2010Prop41ColorRGB
 90
        0
102
RTVSPost2010PropOp41
 70
     1
102
RTVSPost2010Prop42
 90
       50
102
RTVSPost2010PropOp42
 70
     1
102
RTVSPost2010Prop43
 90
        3
102
RTVSPost2010PropOp43
 70
     1
102
RTVSPost2010Prop44ColorIndex
 90
        5
102
RTVSPost2010Prop44ColorRGB
 90
      255
102
RTVSPost2010PropOp44
 70
     1
102
RTVSPost2010Prop45
280
     0
102
RTVSPost2010PropOp45
 70
     1
102
RTVSPost2010Prop46
 90
       50
102
RTVSPost2010PropOp46
 70
     1
102
RTVSPost2010Prop47
 90
       50
102
RTVSPost2010PropOp47
 70
     1
102
RTVSPost2010Prop48
 90
       50
102
RTVSPost2010PropOp48
 70
     1
102
RTVSPost2010Prop49
280
     0
102
RTVSPost2010PropOp49
 70
     1
102
RTVSPost2010Prop50
 90
       50
102
RTVSPost2010PropOp50
 70
     1
102
RTVSPost2010Prop51ColorIndex
 90
      256
102
RTVSPost2010Prop51ColorRGB
 90
-16777216
102
RTVSPost2010PropOp51
 70
     0
102
RTVSPost2010Prop52
140
1.0
102
RTVSPost2010PropOp52
 70
     0
102
RTVSPost2010Prop53
 90
        2
102
RTVSPost2010PropOp53
 70
     1
102
RTVSPost2010Prop54
  1
strokes_ogs.tif
102
RTVSPost2010PropOp54
 70
     1
102
RTVSPost2010Prop55
280
     0
102
RTVSPost2010PropOp55
 70
     1
102
RTVSPost2010Prop56
140
1.0
102
RTVSPost2010PropOp56
 70
     1
102
RTVSPost2010Prop57
140
1.0
102
RTVSPost2010PropOp57
 70
     1
  0
ZWMLAYERSTD
  5
87AB7
330
87AB5
100
ZwmObject
 70
     1
  1

  1
GB
  1

  1

 70
    41
100
ZWMATTRIBUTEDEF
 70
     1
 70
     0
  1
ZWMLY_THICK0
  1
\U+8F6E廓\U+5B9E\U+7EBF\U+5C42
  1

  1

  1

  1

  1

 70
     0
 70
     0
 70
     0
 70
     0
 70
     1
 70
     8
 70
    50
 70
     0
 70
     1
 70
     2
 70
     0
  1

100
ZWMATTRIBUTEDEF
 70
     1
 70
     0
  1
ZWMLY_THIN
  1
\U+7EC6\U+7EBF\U+5C42
  1

  1

  1

  1

  1

 70
     0
 70
     0
 70
     0
 70
     0
 70
     1
 70
     8
 70
    50
 70
     0
 70
     1
 70
     2
 70
     0
  1

100
ZWMATTRIBUTEDEF
 70
     1
 70
     0
  1
ZWMLY_CENTER
  1
中心\U+7EBF\U+5C42
  1

  1

  1

  1

  1

 70
     0
 70
     0
 70
     0
 70
     0
 70
     1
 70
     8
 70
    50
 70
     0
 70
     1
 70
     2
 70
     0
  1

100
ZWMATTRIBUTEDEF
 70
     1
 70
     0
  1
ZWMLY_DASHED
  1
虚\U+7EBF\U+5C42
  1

  1

  1

  1

  1

 70
     0
 70
     0
 70
     0
 70
     0
 70
     1
 70
     8
 70
    50
 70
     0
 70
     1
 70
     2
 70
     0
  1

100
ZWMATTRIBUTEDEF
 70
     1
 70
     0
  1
ZWMLY_HATCH
  1
剖面\U+7EBF\U+5C42
  1

  1

  1

  1

  1

 70
     0
 70
     0
 70
     0
 70
     0
 70
     1
 70
     8
 70
    50
 70
     0
 70
     1
 70
     2
 70
     0
  1

100
ZWMATTRIBUTEDEF
 70
     1
 70
     0
  1
ZWMLY_TEXT
  1
文字\U+6807注\U+5C42
  1

  1

  1

  1

  1

 70
     0
 70
     0
 70
     0
 70
     0
 70
     1
 70
     8
 70
    50
 70
     0
 70
     1
 70
     2
 70
     0
  1

100
ZWMATTRIBUTEDEF
 70
     1
 70
     0
  1
ZWMLY_DIMMEN
  1
尺寸\U+6807注\U+5C42
  1

  1

  1

  1

  1

 70
     0
 70
     0
 70
     0
 70
     0
 70
     1
 70
     8
 70
    50
 70
     0
 70
     1
 70
     2
 70
     0
  1

100
ZWMATTRIBUTEDEF
 70
     1
 70
     0
  1
ZWMLY_MARK
  1
其它\U+6807注\U+5C42
  1

  1

  1

  1

  1

 70
     0
 70
     0
 70
     0
 70
     0
 70
     1
 70
     8
 70
    50
 70
     0
 70
     1
 70
     2
 70
     0
  1

100
ZWMATTRIBUTEDEF
 70
     1
 70
     0
  1
ZWMLY_DIVIDE
  1
双点画\U+7EBF\U+5C42
  1

  1

  1

  1

  1

 70
     0
 70
     0
 70
     0
 70
     0
 70
     1
 70
     8
 70
    50
 70
     0
 70
     1
 70
     2
 70
     0
  1

100
ZWMATTRIBUTEDEF
 70
     1
 70
     0
  1
ZWMLY_THICK1
  1
\U+8F6E廓虚\U+7EBF\U+5C42
  1

  1

  1

  1

  1

 70
     0
 70
     0
 70
     0
 70
     0
 70
     1
 70
     8
 70
    50
 70
     0
 70
     1
 70
     2
 70
     0
  1

100
ZWMATTRIBUTEDEF
 70
     1
 70
     0
  1
ZWMLY_PAPERFRAME
  1
\U+56FE框\U+5C42
  1

  1

  1

  1

  1

 70
     0
 70
     0
 70
     0
 70
     0
 70
     1
 70
     8
 70
    50
 70
     0
 70
     1
 70
     2
 70
     0
  1

100
ZWMATTRIBUTEDEF
 70
     1
 70
     0
  1
ZWMLY_HIDE
  1
消\U+9690\U+5C42
  1

  1

  1

  1

  1

 70
     0
 70
     0
 70
     0
 70
     0
 70
     1
 70
     8
 70
    50
 70
     0
 70
     1
 70
     2
 70
     0
  1

100
ZWMATTRIBUTEDEF
 70
     1
 70
     0
  1
ZWMLY_PLOT
  1
排\U+56FE\U+5C42
  1

  1

  1

  1

  1

 70
     0
 70
     0
 70
     0
 70
     0
 70
     1
 70
     8
 70
    50
 70
     0
 70
     1
 70
     2
 70
     0
  1

100
ZWMATTRIBUTEDEF
 70
     1
 70
     0
  1
ZWMLY_ASSISTANT1
  1
用\U+6237自定\U+4E491
  1

  1

  1

  1

  1

 70
     0
 70
     0
 70
     0
 70
     0
 70
     1
 70
     8
 70
    50
 70
     0
 70
     1
 70
     2
 70
     0
  1

100
ZWMATTRIBUTEDEF
 70
     1
 70
     0
  1
ZWMLY_ASSISTANT2
  1
用\U+6237自定\U+4E492
  1

  1

  1

  1

  1

 70
     0
 70
     0
 70
     0
 70
     0
 70
     1
 70
     8
 70
    50
 70
     0
 70
     1
 70
     2
 70
     0
  1

100
ZWMATTRIBUTEDEF
 70
     1
 70
     0
  1
ZWMLY_ASSISTANT3
  1
用\U+6237自定\U+4E493
  1

  1

  1

  1

  1

 70
     0
 70
     0
 70
     0
 70
     0
 70
     1
 70
     8
 70
    50
 70
     0
 70
     1
 70
     2
 70
     0
  1

100
ZWMATTRIBUTEDEF
 70
     1
 70
     0
  1
ZWMLY_DIM
  1
\U+6807注符号\U+5C42
  1

  1

  1

  1

  1

 70
     0
 70
     0
 70
     0
 70
     0
 70
     1
 70
     8
 70
    50
 70
     0
 70
     1
 70
     2
 70
     0
  1

100
ZWMATTRIBUTEDEF
 70
     1
 70
     0
  1
ZWMLY_DIM_TEXT
  1
\U+6807注文字\U+5C42
  1

  1

  1

  1

  1

 70
     0
 70
     0
 70
     0
 70
     0
 70
     1
 70
     8
 70
    50
 70
     0
 70
     1
 70
     2
 70
     0
  1

100
ZWMATTRIBUTEDEF
 70
     1
 70
     0
  1
ZWMLY_DIM_LEADER
  1
\U+6807注的引\U+7EBF\U+5C42
  1

  1

  1

  1

  1

 70
     0
 70
     0
 70
     0
 70
     0
 70
     1
 70
     8
 70
    50
 70
     0
 70
     1
 70
     2
 70
     0
  1

100
ZWMATTRIBUTEDEF
 70
     1
 70
     0
  1
ZWMLY_DIM_ARROW
  1
\U+6807注的箭\U+5934\U+5C42
  1

  1

  1

  1

  1

 70
     0
 70
     0
 70
     0
 70
     0
 70
     1
 70
     8
 70
    50
 70
     0
 70
     1
 70
     2
 70
     0
  1

100
ZWMATTRIBUTEDEF
 70
     1
 70
     0
  1
ZWMLY_BALLOON
  1
球\U+6807符号\U+5C42
  1

  1

  1

  1

  1

 70
     0
 70
     0
 70
     0
 70
     0
 70
     1
 70
     8
 70
    50
 70
     0
 70
     1
 70
     2
 70
     0
  1

100
ZWMATTRIBUTEDEF
 70
     1
 70
     0
  1
ZWMLY_BALLOON_TEXT
  1
球\U+6807文字\U+5C42
  1

  1

  1

  1

  1

 70
     0
 70
     0
 70
     0
 70
     0
 70
     1
 70
     8
 70
    50
 70
     0
 70
     1
 70
     2
 70
     0
  1

100
ZWMATTRIBUTEDEF
 70
     1
 70
     0
  1
ZWMLY_BALLOON_LEADER
  1
球\U+6807的引\U+7EBF\U+5C42
  1

  1

  1

  1

  1

 70
     0
 70
     0
 70
     0
 70
     0
 70
     1
 70
     8
 70
    50
 70
     0
 70
     1
 70
     2
 70
     0
  1

100
ZWMATTRIBUTEDEF
 70
     1
 70
     0
  1
ZWMLY_BALLOON_ARROW
  1
球\U+6807的箭\U+5934\U+5C42
  1

  1

  1

  1

  1

 70
     0
 70
     0
 70
     0
 70
     0
 70
     1
 70
     8
 70
    50
 70
     0
 70
     1
 70
     2
 70
     0
  1

100
ZWMATTRIBUTEDEF
 70
     1
 70
     0
  1
ZWMLY_SURFSYM
  1
粗\U+7CD9度符号\U+5C42
  1

  1

  1

  1

  1

 70
     0
 70
     0
 70
     0
 70
     0
 70
     1
 70
     8
 70
    50
 70
     0
 70
     1
 70
     2
 70
     0
  1

100
ZWMATTRIBUTEDEF
 70
     1
 70
     0
  1
ZWMLY_SURFSYM_TEXT
  1
粗\U+7CD9度文字\U+5C42
  1

  1

  1

  1

  1

 70
     0
 70
     0
 70
     0
 70
     0
 70
     1
 70
     8
 70
    50
 70
     0
 70
     1
 70
     2
 70
     0
  1

100
ZWMATTRIBUTEDEF
 70
     1
 70
     0
  1
ZWMLY_SURFSYM_LEADER
  1
粗\U+7CD9度的引\U+7EBF\U+5C42
  1

  1

  1

  1

  1

 70
     0
 70
     0
 70
     0
 70
     0
 70
     1
 70
     8
 70
    50
 70
     0
 70
     1
 70
     2
 70
     0
  1

100
ZWMATTRIBUTEDEF
 70
     1
 70
     0
  1
ZWMLY_SURFSYM_ARROW
  1
粗\U+7CD9度的箭\U+5934\U+5C42
  1

  1

  1

  1

  1

 70
     0
 70
     0
 70
     0
 70
     0
 70
     1
 70
     8
 70
    50
 70
     0
 70
     1
 70
     2
 70
     0
  1

100
ZWMATTRIBUTEDEF
 70
     1
 70
     0
  1
ZWMLY_NOTE
  1
指引\U+7EBF注\U+91CA符号\U+5C42
  1

  1

  1

  1

  1

 70
     0
 70
     0
 70
     0
 70
     0
 70
     1
 70
     8
 70
    50
 70
     0
 70
     1
 70
     2
 70
     0
  1

100
ZWMATTRIBUTEDEF
 70
     1
 70
     0
  1
ZWMLY_NOTE_TEXT
  1
指引\U+7EBF注\U+91CA文字\U+5C42
  1

  1

  1

  1

  1

 70
     0
 70
     0
 70
     0
 70
     0
 70
     1
 70
     8
 70
    50
 70
     0
 70
     1
 70
     2
 70
     0
  1

100
ZWMATTRIBUTEDEF
 70
     1
 70
     0
  1
ZWMLY_NOTE_LEADER
  1
指引\U+7EBF注\U+91CA的引\U+7EBF\U+5C42
  1

  1

  1

  1

  1

 70
     0
 70
     0
 70
     0
 70
     0
 70
     1
 70
     8
 70
    50
 70
     0
 70
     1
 70
     2
 70
     0
  1

100
ZWMATTRIBUTEDEF
 70
     1
 70
     0
  1
ZWMLY_NOTE_ARROW
  1
指引\U+7EBF注\U+91CA的箭\U+5934\U+5C42
  1

  1

  1

  1

  1

 70
     0
 70
     0
 70
     0
 70
     0
 70
     1
 70
     8
 70
    50
 70
     0
 70
     1
 70
     2
 70
     0
  1

100
ZWMATTRIBUTEDEF
 70
     1
 70
     0
  1
ZWMLY_FCFRAME
  1
形位公差符号\U+5C42
  1

  1

  1

  1

  1

 70
     0
 70
     0
 70
     0
 70
     0
 70
     1
 70
     8
 70
    50
 70
     0
 70
     1
 70
     2
 70
     0
  1

100
ZWMATTRIBUTEDEF
 70
     1
 70
     0
  1
ZWMLY_FCFRAME_TEXT
  1
形位公差文字\U+5C42
  1

  1

  1

  1

  1

 70
     0
 70
     0
 70
     0
 70
     0
 70
     1
 70
     8
 70
    50
 70
     0
 70
     1
 70
     2
 70
     0
  1

100
ZWMATTRIBUTEDEF
 70
     1
 70
     0
  1
ZWMLY_FCFRAME_LEADER
  1
形位公差的引\U+7EBF\U+5C42
  1

  1

  1

  1

  1

 70
     0
 70
     0
 70
     0
 70
     0
 70
     1
 70
     8
 70
    50
 70
     0
 70
     1
 70
     2
 70
     0
  1

100
ZWMATTRIBUTEDEF
 70
     1
 70
     0
  1
ZWMLY_FCFRAME_ARROW
  1
形位公差的箭\U+5934\U+5C42
  1

  1

  1

  1

  1

 70
     0
 70
     0
 70
     0
 70
     0
 70
     1
 70
     8
 70
    50
 70
     0
 70
     1
 70
     2
 70
     0
  1

100
ZWMATTRIBUTEDEF
 70
     1
 70
     0
  1
ZWMLY_DATUMID
  1
基准\U+6807示符号\U+5C42
  1

  1

  1

  1

  1

 70
     0
 70
     0
 70
     0
 70
     0
 70
     1
 70
     8
 70
    50
 70
     0
 70
     1
 70
     2
 70
     0
  1

100
ZWMATTRIBUTEDEF
 70
     1
 70
     0
  1
ZWMLY_DATUMID_TEXT
  1
基准\U+6807示文字\U+5C42
  1

  1

  1

  1

  1

 70
     0
 70
     0
 70
     0
 70
     0
 70
     1
 70
     8
 70
    50
 70
     0
 70
     1
 70
     2
 70
     0
  1

100
ZWMATTRIBUTEDEF
 70
     1
 70
     0
  1
ZWMLY_DATUMID_LEADER
  1
基准\U+6807示的引\U+7EBF\U+5C42
  1

  1

  1

  1

  1

 70
     0
 70
     0
 70
     0
 70
     0
 70
     1
 70
     8
 70
    50
 70
     0
 70
     1
 70
     2
 70
     0
  1

100
ZWMATTRIBUTEDEF
 70
     1
 70
     0
  1
ZWMLY_DATUMID_ARROW
  1
基准\U+6807示的箭\U+5934\U+5C42
  1

  1

  1

  1

  1

 70
     0
 70
     0
 70
     0
 70
     0
 70
     1
 70
     8
 70
    50
 70
     0
 70
     1
 70
     2
 70
     0
  1

100
ZWMATTRIBUTEDEF
 70
     1
 70
     0
  1
ZWMLY_CONSTRUCT_LINE
  1
\U+6784造\U+7EBF\U+7EBF\U+5C42
  1

  1

  1

  1

  1

 70
     0
 70
     0
 70
     0
 70
     0
 70
     1
 70
     8
 70
    50
 70
     0
 70
     1
 70
     2
 70
     0
  1

100
ZwmStd
 70
     1
 70
     1
 70
     0
  1

  1

340
0
340
0
340
0
340
0
340
0
340
0
340
0
340
0
 70
    -1
 70
    -1
 70
    -1
 70
    -1
 70
    -1
 70
    -1
 70
    -1
 70
    -1
 70
    -1
 70
    -1
 70
    -1
 70
    -1
 70
    -1
 70
    -1
 70
    -1
 70
    -1
 90
       -1
 90
       -1
 90
       -1
 90
       -1
 90
       -1
 90
       -1
 90
       -1
 90
       -1
  1

  1

  1

  1

  1

  1

  1

  1

100
ZwmLayerStd
 70
     1
 70
    41
  1
ZWMLY_DATUMID_ARROW
  1
8符号\U+6807注\U+5C42
  1
ZWMLY_DATUMID_TEXT
  1
6文字\U+5C42
  1
ZWMLY_BALLOON_ARROW
  1
8符号\U+6807注\U+5C42
  1
ZWMLY_ASSISTANT3
  1
用\U+6237自定\U+4E493
  1
ZWMLY_ASSISTANT2
  1
用\U+6237自定\U+4E492
  1
ZWMLY_ASSISTANT1
  1
用\U+6237自定\U+4E491
  1
ZWMLY_NOTE_ARROW
  1
8符号\U+6807注\U+5C42
  1
ZWMLY_BALLOON_LEADER
  1
8符号\U+6807注\U+5C42
  1
ZWMLY_BALLOON
  1
1\U+8F6E廓\U+5B9E\U+7EBF\U+5C42
  1
ZWMLY_FCFRAME_ARROW
  1
8符号\U+6807注\U+5C42
  1
ZWMLY_DIMMEN
  1
7\U+6807注\U+5C42
  1
ZWMLY_NOTE
  1
1\U+8F6E廓\U+5B9E\U+7EBF\U+5C42
  1
ZWMLY_DIM_LEADER
  1
2\U+7EC6\U+7EBF\U+5C42
  1
ZWMLY_DIVIDE
  1
9双点\U+5212\U+7EBF\U+5C42
  1
ZWMLY_FCFRAME_TEXT
  1
6文字\U+5C42
  1
ZWMLY_CENTER
  1
3中心\U+7EBF\U+5C42
  1
ZWMLY_SURFSYM_TEXT
  1
6文字\U+5C42
  1
ZWMLY_FCFRAME
  1
1\U+8F6E廓\U+5B9E\U+7EBF\U+5C42
  1
ZWMLY_DIM_ARROW
  1
2\U+7EC6\U+7EBF\U+5C42
  1
ZWMLY_THICK1
  1
\U+8F6E廓虚\U+7EBF\U+5C42
  1
ZWMLY_TEXT
  1
6文字\U+5C42
  1
ZWMLY_THIN
  1
2\U+7EC6\U+7EBF\U+5C42
  1
ZWMLY_THICK0
  1
1\U+8F6E廓\U+5B9E\U+7EBF\U+5C42
  1
ZWMLY_DATUMID_LEADER
  1
8符号\U+6807注\U+5C42
  1
ZWMLY_NOTE_LEADER
  1
8符号\U+6807注\U+5C42
  1
ZWMLY_SURFSYM_ARROW
  1
8符号\U+6807注\U+5C42
  1
ZWMLY_MARK
  1
8符号\U+6807注\U+5C42
  1
ZWMLY_DASHED
  1
4虚\U+7EBF\U+5C42
  1
ZWMLY_DATUMID
  1
1\U+8F6E廓\U+5B9E\U+7EBF\U+5C42
  1
ZWMLY_FCFRAME_LEADER
  1
8符号\U+6807注\U+5C42
  1
ZWMLY_PLOT
  1
排\U+56FE\U+5C42
  1
ZWMLY_SURFSYM
  1
1\U+8F6E廓\U+5B9E\U+7EBF\U+5C42
  1
ZWMLY_NOTE_TEXT
  1
6文字\U+5C42
  1
ZWMLY_SURFSYM_LEADER
  1
8符号\U+6807注\U+5C42
  1
ZWMLY_CONSTRUCT_LINE
  1
9双点\U+5212\U+7EBF\U+5C42
  1
ZWMLY_DIM_TEXT
  1
6文字\U+5C42
  1
ZWMLY_PAPERFRAME
  1
\U+56FE框\U+5C42
  1
ZWMLY_BALLOON_TEXT
  1
6文字\U+5C42
  1
ZWMLY_DIM
  1
8符号\U+6807注\U+5C42
  1
ZWMLY_HIDE
  1
消\U+9690\U+5C42
  1
ZWMLY_HATCH
  1
5剖面\U+7EBF\U+5C42
340
0
340
0
340
0
340
0
340
0
340
0
340
0
340
0
 70
    -1
 70
    -1
 70
    -1
 70
    -1
 70
    -1
 70
    -1
 70
    -1
 70
    -1
 70
    -1
 70
    -1
 70
    -1
 70
    -1
 70
    -1
 70
    -1
 70
    -1
 70
    -1
 90
       -1
 90
       -1
 90
       -1
 90
       -1
 90
       -1
 90
       -1
 90
       -1
 90
       -1
  1

  1

  1

  1

  1

  1

  1

  1

  0
ZWMTEXTSTYLESTD
  5
87ACA
330
87AB5
100
ZwmObject
 70
     1
  1

  1
GB
  1

  1

 70
     9
100
ZWMATTRIBUTEDEF
 70
     1
 70
     0
  1
ZWMTS_SONGTI_LINE
  1
\U+5355\U+7EBF宋体字
  1

  1

  1

  1

  1

 70
     0
 70
     0
 70
     0
 70
     0
 70
     1
 70
     8
 70
    50
 70
     0
 70
     1
 70
     2
 70
     0
  1

100
ZWMATTRIBUTEDEF
 70
     1
 70
     0
  1
ZWMTS_SONGTI
  1
宋体字
  1

  1

  1

  1

  1

 70
     0
 70
     0
 70
     0
 70
     0
 70
     1
 70
     8
 70
    50
 70
     0
 70
     1
 70
     2
 70
     0
  1

100
ZWMATTRIBUTEDEF
 70
     1
 70
     0
  1
ZWMTS_FANGSONG
  1
\U+4EFF宋体字
  1

  1

  1

  1

  1

 70
     0
 70
     0
 70
     0
 70
     0
 70
     1
 70
     8
 70
    50
 70
     0
 70
     1
 70
     2
 70
     0
  1

100
ZWMATTRIBUTEDEF
 70
     1
 70
     0
  1
ZWMTS_KAITI
  1
楷体字
  1

  1

  1

  1

  1

 70
     0
 70
     0
 70
     0
 70
     0
 70
     1
 70
     8
 70
    50
 70
     0
 70
     1
 70
     2
 70
     0
  1

100
ZWMATTRIBUTEDEF
 70
     1
 70
     0
  1
ZWMTS_HEITI
  1
黑体字
  1

  1

  1

  1

  1

 70
     0
 70
     0
 70
     0
 70
     0
 70
     1
 70
     8
 70
    50
 70
     0
 70
     1
 70
     2
 70
     0
  1

100
ZWMATTRIBUTEDEF
 70
     1
 70
     0
  1
ZWMTS_XIWEN
  1
西文字
  1

  1

  1

  1

  1

 70
     0
 70
     0
 70
     0
 70
     0
 70
     1
 70
     8
 70
    50
 70
     0
 70
     1
 70
     2
 70
     0
  1

100
ZWMATTRIBUTEDEF
 70
     1
 70
     0
  1
ZWMTS_SYM_TEXT
  1
符号中文字字体
  1

  1

  1

  1

  1

 70
     0
 70
     0
 70
     0
 70
     0
 70
     1
 70
     8
 70
    50
 70
     0
 70
     1
 70
     2
 70
     0
  1

100
ZWMATTRIBUTEDEF
 70
     1
 70
     0
  1
ZWMTS_SYM_GDT
  1
符号中符号\U+7C7B型文字字体
  1

  1

  1

  1

  1

 70
     0
 70
     0
 70
     0
 70
     0
 70
     1
 70
     8
 70
    50
 70
     0
 70
     1
 70
     2
 70
     0
  1

100
ZWMATTRIBUTEDEF
 70
     1
 70
     0
  1
ZWMTS_TECHREQUEST
  1
技\U+672F要求需要的字体\U+6837式
  1

  1

  1

  1

  1

 70
     0
 70
     0
 70
     0
 70
     0
 70
     1
 70
     8
 70
    50
 70
     0
 70
     1
 70
     2
 70
     0
  1

100
ZwmStd
 70
     1
 70
     1
 70
     0
  1

  1

340
0
340
0
340
0
340
0
340
0
340
0
340
0
340
0
 70
    -1
 70
    -1
 70
    -1
 70
    -1
 70
    -1
 70
    -1
 70
    -1
 70
    -1
 70
    -1
 70
    -1
 70
    -1
 70
    -1
 70
    -1
 70
    -1
 70
    -1
 70
    -1
 90
       -1
 90
       -1
 90
       -1
 90
       -1
 90
       -1
 90
       -1
 90
       -1
 90
       -1
  1

  1

  1

  1

  1

  1

  1

  1

100
ZwmTextStyleStd
 70
     1
 70
     9
  1
ZWMTS_KAITI
  1
PC_TEXTSTYLE2
  1
ZWMTS_SYM_TEXT
  1
PC_TEXTSTYLE
  1
ZWMTS_SONGTI
  1
PC_TEXTSTYLE
  1
ZWMTS_TECHREQUEST
  1
PC_TEXTSTYLE4
  1
ZWMTS_XIWEN
  1
PC_TEXTSTYLE4
  1
ZWMTS_HEITI
  1
PC_TEXTSTYLE3
  1
ZWMTS_SONGTI_LINE
  1
PC_TEXTSTYLE
  1
ZWMTS_SYM_GDT
  1
ZWISOGDT
  1
ZWMTS_FANGSONG
  1
PC_TEXTSTYLE
340
0
340
0
340
0
340
0
340
0
340
0
340
0
340
0
 70
    -1
 70
    -1
 70
    -1
 70
    -1
 70
    -1
 70
    -1
 70
    -1
 70
    -1
 70
    -1
 70
    -1
 70
    -1
 70
    -1
 70
    -1
 70
    -1
 70
    -1
 70
    -1
 90
       -1
 90
       -1
 90
       -1
 90
       -1
 90
       -1
 90
       -1
 90
       -1
 90
       -1
  1

  1

  1

  1

  1

  1

  1

  1

  0
ZWMLINETYPESTD
  5
87AD1
330
87AB5
100
ZwmObject
 70
     1
  1

  1
GB
  1

  1

 70
     8
100
ZWMATTRIBUTEDEF
 70
     1
 70
     0
  1
ZWMLT_BYLAYER
  1
随\U+5C42
  1

  1

  1

  1

  1

 70
     0
 70
     0
 70
     0
 70
     0
 70
     1
 70
     8
 70
    50
 70
     0
 70
     1
 70
     2
 70
     0
  1

100
ZWMATTRIBUTEDEF
 70
     1
 70
     0
  1
ZWMLT_LINE
  1
\U+5B9E\U+7EBF
  1

  1

  1

  1

  1

 70
     0
 70
     0
 70
     0
 70
     0
 70
     1
 70
     8
 70
    50
 70
     0
 70
     1
 70
     2
 70
     0
  1

100
ZWMATTRIBUTEDEF
 70
     1
 70
     0
  1
ZWMLT_DASHED
  1
虚\U+7EBF
  1

  1

  1

  1

  1

 70
     0
 70
     0
 70
     0
 70
     0
 70
     1
 70
     8
 70
    50
 70
     0
 70
     1
 70
     2
 70
     0
  1

100
ZWMATTRIBUTEDEF
 70
     1
 70
     0
  1
ZWMLT_CENTER
  1
中心\U+7EBF
  1

  1

  1

  1

  1

 70
     0
 70
     0
 70
     0
 70
     0
 70
     1
 70
     8
 70
    50
 70
     0
 70
     1
 70
     2
 70
     0
  1

100
ZWMATTRIBUTEDEF
 70
     1
 70
     0
  1
ZWMLT_PHANTOM
  1
双点\U+5212\U+7EBF
  1

  1

  1

  1

  1

 70
     0
 70
     0
 70
     0
 70
     0
 70
     1
 70
     8
 70
    50
 70
     0
 70
     1
 70
     2
 70
     0
  1

100
ZWMATTRIBUTEDEF
 70
     1
 70
     0
  1
ZWMLT_BREAK
  1
断裂\U+7EBF
  1

  1

  1

  1

  1

 70
     0
 70
     0
 70
     0
 70
     0
 70
     1
 70
     8
 70
    50
 70
     0
 70
     1
 70
     2
 70
     0
  1

100
ZWMATTRIBUTEDEF
 70
     1
 70
     0
  1
ZWMLT_WAVE
  1
波浪\U+7EBF
  1

  1

  1

  1

  1

 70
     0
 70
     0
 70
     0
 70
     0
 70
     1
 70
     8
 70
    50
 70
     0
 70
     1
 70
     2
 70
     0
  1

100
ZWMATTRIBUTEDEF
 70
     1
 70
     0
  1
ZWMLT_ZIGZAG
  1
\U+952F\U+9F7F\U+7EBF
  1

  1

  1

  1

  1

 70
     0
 70
     0
 70
     0
 70
     0
 70
     1
 70
     8
 70
    50
 70
     0
 70
     1
 70
     2
 70
     0
  1

100
ZwmStd
 70
     1
 70
     1
 70
     0
  1

  1

340
0
340
0
340
0
340
0
340
0
340
0
340
0
340
0
 70
    -1
 70
    -1
 70
    -1
 70
    -1
 70
    -1
 70
    -1
 70
    -1
 70
    -1
 70
    -1
 70
    -1
 70
    -1
 70
    -1
 70
    -1
 70
    -1
 70
    -1
 70
    -1
 90
       -1
 90
       -1
 90
       -1
 90
       -1
 90
       -1
 90
       -1
 90
       -1
 90
       -1
  1

  1

  1

  1

  1

  1

  1

  1

100
ZwmLineStd
 70
     1
 70
     8
  1
ZWMLT_PHANTOM
  1
phantom4
  1
ZWMLT_BYLAYER
  1
continuous
  1
ZWMLT_ZIGZAG
  1
amzigzag
  1
ZWMLT_BREAK
  1
ZIGZAG
  1
ZWMLT_CENTER
  1
center8
  1
ZWMLT_LINE
  1
continuous
  1
ZWMLT_WAVE
  1
continuous
  1
ZWMLT_DASHED
  1
Dashed
340
0
340
0
340
0
340
0
340
0
340
0
340
0
340
0
 70
    -1
 70
    -1
 70
    -1
 70
    -1
 70
    -1
 70
    -1
 70
    -1
 70
    -1
 70
    -1
 70
    -1
 70
    -1
 70
    -1
 70
    -1
 70
    -1
 70
    -1
 70
    -1
 90
       -1
 90
       -1
 90
       -1
 90
       -1
 90
       -1
 90
       -1
 90
       -1
 90
       -1
  1

  1

  1

  1

  1

  1

  1

  1

  0
ZWMDIMSTYLESTD
  5
87AD2
330
87AB5
100
ZwmObject
 70
     1
  1

  1
GB
  1

  1

 70
     9
100
ZWMATTRIBUTEDEF
 70
     1
 70
     0
  1
ZWMDS_MAIN
  1
主控\U+6807注\U+6837式
  1

  1

  1

  1

  1

 70
     0
 70
     0
 70
     0
 70
     0
 70
     1
 70
     8
 70
    50
 70
     0
 70
     1
 70
     2
 70
     0
  1

100
ZWMATTRIBUTEDEF
 70
     1
 70
     0
  1
ZWMDS_LINEAR
  1
\U+7EBF性\U+6807注\U+6837式
  1

  1

  1

  1

  1

 70
     0
 70
     0
 70
     0
 70
     0
 70
     1
 70
     8
 70
    50
 70
     0
 70
     1
 70
     2
 70
     0
  1

100
ZWMATTRIBUTEDEF
 70
     1
 70
     0
  1
ZWMDS_DIAMETER
  1
直径\U+6807注\U+6837式
  1

  1

  1

  1

  1

 70
     0
 70
     0
 70
     0
 70
     0
 70
     1
 70
     8
 70
    50
 70
     0
 70
     1
 70
     2
 70
     0
  1

100
ZWMATTRIBUTEDEF
 70
     1
 70
     0
  1
ZWMDS_RADIAL
  1
半径\U+6807注\U+6837式
  1

  1

  1

  1

  1

 70
     0
 70
     0
 70
     0
 70
     0
 70
     1
 70
     8
 70
    50
 70
     0
 70
     1
 70
     2
 70
     0
  1

100
ZWMATTRIBUTEDEF
 70
     1
 70
     0
  1
ZWMDS_ARCLEN
  1
弧\U+957F\U+6807注\U+6837式
  1

  1

  1

  1

  1

 70
     0
 70
     0
 70
     0
 70
     0
 70
     1
 70
     8
 70
    50
 70
     0
 70
     1
 70
     2
 70
     0
  1

100
ZWMATTRIBUTEDEF
 70
     1
 70
     0
  1
ZWMDS_LEADER
  1
引\U+7EBF\U+6807注\U+6837式
  1

  1

  1

  1

  1

 70
     0
 70
     0
 70
     0
 70
     0
 70
     1
 70
     8
 70
    50
 70
     0
 70
     1
 70
     2
 70
     0
  1

100
ZWMATTRIBUTEDEF
 70
     1
 70
     0
  1
ZWMDS_ORDINATE
  1
坐\U+6807\U+6807注\U+6837式
  1

  1

  1

  1

  1

 70
     0
 70
     0
 70
     0
 70
     0
 70
     1
 70
     8
 70
    50
 70
     0
 70
     1
 70
     2
 70
     0
  1

100
ZWMATTRIBUTEDEF
 70
     1
 70
     0
  1
ZWMDS_ANGULAR
  1
角度\U+6807注\U+6837式
  1

  1

  1

  1

  1

 70
     0
 70
     0
 70
     0
 70
     0
 70
     1
 70
     8
 70
    50
 70
     0
 70
     1
 70
     2
 70
     0
  1

100
ZWMATTRIBUTEDEF
 70
     1
 70
     0
  1
ZWMDS_BALLOON
  1
件号\U+6807注\U+6837式
  1

  1

  1

  1

  1

 70
     0
 70
     0
 70
     0
 70
     0
 70
     1
 70
     8
 70
    50
 70
     0
 70
     1
 70
     2
 70
     0
  1

100
ZwmStd
 70
     1
 70
     1
 70
     0
  1

  1

340
0
340
0
340
0
340
0
340
0
340
0
340
0
340
0
 70
    -1
 70
    -1
 70
    -1
 70
    -1
 70
    -1
 70
    -1
 70
    -1
 70
    -1
 70
    -1
 70
    -1
 70
    -1
 70
    -1
 70
    -1
 70
    -1
 70
    -1
 70
    -1
 90
       -1
 90
       -1
 90
       -1
 90
       -1
 90
       -1
 90
       -1
 90
       -1
 90
       -1
  1

  1

  1

  1

  1

  1

  1

  1

100
ZwmDimStyleStd
 70
     1
 70
    10
 70
     0
 70
     1
 40
12.0
 40
3.0
 70
     1
 70
     0
 70
     1
 70
     9
  1
ZWMDS_ORDINATE
  1
GB_ORDINATE
  1
ZWMDS_ANGULAR
  1
GB_ANGULAR
  1
ZWMDS_DIAMETER
  1
GB_DIAMETER
  1
ZWMDS_ARCLEN
  1
GB_LINEAR
  1
ZWMDS_BALLOON
  1
GB_BALLOON
  1
ZWMDS_LINEAR
  1
GB_LINEAR
  1
ZWMDS_LEADER
  1
GB_LEADER
  1
ZWMDS_MAIN
  1
GB_DIMSTYLE
  1
ZWMDS_RADIAL
  1
GB_RADIAL
340
0
340
0
340
0
340
0
340
0
340
0
340
0
340
0
 70
    -1
 70
    -1
 70
    -1
 70
    -1
 70
    -1
 70
    -1
 70
    -1
 70
    -1
 70
    -1
 70
    -1
 70
    -1
 70
    -1
 70
    -1
 70
    -1
 70
    -1
 70
    -1
 90
       -1
 90
       -1
 90
       -1
 90
       -1
 90
       -1
 90
       -1
 90
       -1
 90
       -1
  1

  1

  1

  1

  1

  1

  1

  1

  0
ZWMCOLORSTD
  5
87ADB
330
87AB5
100
ZwmObject
 70
     1
  1

  1
GB
  1

  1

 70
    30
100
ZWMATTRIBUTEDEF
 70
     1
 70
     0
  1
ZWMCL_BYBLOCK
  1
随\U+5757
  1

  1

  1

  1

  1

 70
     0
 70
     0
 70
     0
 70
     0
 70
     1
 70
     8
 70
    50
 70
     0
 70
     1
 70
     2
 70
     0
  1

100
ZWMATTRIBUTEDEF
 70
     1
 70
     0
  1
ZWMCL_BYLAYER
  1
随\U+5C42
  1

  1

  1

  1

  1

 70
     0
 70
     0
 70
     0
 70
     0
 70
     1
 70
     8
 70
    50
 70
     0
 70
     1
 70
     2
 70
     0
  1

100
ZWMATTRIBUTEDEF
 70
     1
 70
     0
  1
ZWMCL_BLACK
  1
黑色
  1

  1

  1

  1

  1

 70
     0
 70
     0
 70
     0
 70
     0
 70
     1
 70
     8
 70
    50
 70
     0
 70
     1
 70
     2
 70
     0
  1

100
ZWMATTRIBUTEDEF
 70
     1
 70
     0
  1
ZWMCL_YELLOW
  1
黄色
  1

  1

  1

  1

  1

 70
     0
 70
     0
 70
     0
 70
     0
 70
     1
 70
     8
 70
    50
 70
     0
 70
     1
 70
     2
 70
     0
  1

100
ZWMATTRIBUTEDEF
 70
     1
 70
     0
  1
ZWMCL_GREEN
  1
\U+7EFF色
  1

  1

  1

  1

  1

 70
     0
 70
     0
 70
     0
 70
     0
 70
     1
 70
     8
 70
    50
 70
     0
 70
     1
 70
     2
 70
     0
  1

100
ZWMATTRIBUTEDEF
 70
     1
 70
     0
  1
ZWMCL_BLUE
  1
\U+84DD色
  1

  1

  1

  1

  1

 70
     0
 70
     0
 70
     0
 70
     0
 70
     1
 70
     8
 70
    50
 70
     0
 70
     1
 70
     2
 70
     0
  1

100
ZWMATTRIBUTEDEF
 70
     1
 70
     0
  1
ZWMCL_WHITE
  1
白色
  1

  1

  1

  1

  1

 70
     0
 70
     0
 70
     0
 70
     0
 70
     1
 70
     8
 70
    50
 70
     0
 70
     1
 70
     2
 70
     0
  1

100
ZWMATTRIBUTEDEF
 70
     1
 70
     0
  1
ZWMCL_RED
  1
\U+7EA2色
  1

  1

  1

  1

  1

 70
     0
 70
     0
 70
     0
 70
     0
 70
     1
 70
     8
 70
    50
 70
     0
 70
     1
 70
     2
 70
     0
  1

100
ZWMATTRIBUTEDEF
 70
     1
 70
     0
  1
ZWMCL_CYAN
  1
青色
  1

  1

  1

  1

  1

 70
     0
 70
     0
 70
     0
 70
     0
 70
     1
 70
     8
 70
    50
 70
     0
 70
     1
 70
     2
 70
     0
  1

100
ZWMATTRIBUTEDEF
 70
     1
 70
     0
  1
ZWMCL_TEXT
  1
文本
  1

  1

  1

  1

  1

 70
     0
 70
     0
 70
     0
 70
     0
 70
     1
 70
     8
 70
    50
 70
     0
 70
     1
 70
     2
 70
     0
  1

100
ZWMATTRIBUTEDEF
 70
     1
 70
     0
  1
ZWMCL_DIMTEXT
  1
\U+6807注文本
  1

  1

  1

  1

  1

 70
     0
 70
     0
 70
     0
 70
     0
 70
     1
 70
     8
 70
    50
 70
     0
 70
     1
 70
     2
 70
     0
  1

100
ZWMATTRIBUTEDEF
 70
     1
 70
     0
  1
ZWMCL_DIM
  1
\U+6807注
  1

  1

  1

  1

  1

 70
     0
 70
     0
 70
     0
 70
     0
 70
     1
 70
     8
 70
    50
 70
     0
 70
     1
 70
     2
 70
     0
  1

100
ZWMATTRIBUTEDEF
 70
     1
 70
     0
  1
ZWMCL_DIMARROW
  1
\U+6807注箭\U+5934
  1

  1

  1

  1

  1

 70
     0
 70
     0
 70
     0
 70
     0
 70
     1
 70
     8
 70
    50
 70
     0
 70
     1
 70
     2
 70
     0
  1

100
ZWMATTRIBUTEDEF
 70
     1
 70
     0
  1
ZWMCL_DIMLEADER
  1
\U+6807注引\U+7EBF
  1

  1

  1

  1

  1

 70
     0
 70
     0
 70
     0
 70
     0
 70
     1
 70
     8
 70
    50
 70
     0
 70
     1
 70
     2
 70
     0
  1

100
ZWMATTRIBUTEDEF
 70
     1
 70
     0
  1
ZWMCL_DIMTEXT_SMALL
  1
\U+6807注文字(小)
  1

  1

  1

  1

  1

 70
     0
 70
     0
 70
     0
 70
     0
 70
     1
 70
     8
 70
    50
 70
     0
 70
     1
 70
     2
 70
     0
  1

100
ZWMATTRIBUTEDEF
 70
     1
 70
     0
  1
ZWMCL_DIMTEXT_MEDIUM
  1
\U+6807注文字(中)
  1

  1

  1

  1

  1

 70
     0
 70
     0
 70
     0
 70
     0
 70
     1
 70
     8
 70
    50
 70
     0
 70
     1
 70
     2
 70
     0
  1

100
ZWMATTRIBUTEDEF
 70
     1
 70
     0
  1
ZWMCL_DIMTEXT_LARGE
  1
\U+6807注文字(大)
  1

  1

  1

  1

  1

 70
     0
 70
     0
 70
     0
 70
     0
 70
     1
 70
     8
 70
    50
 70
     0
 70
     1
 70
     2
 70
     0
  1

100
ZWMATTRIBUTEDEF
 70
     1
 70
     0
  1
ZWMCL_DIMTEXT_VERYLARGE
  1
\U+6807注文字(特大)
  1

  1

  1

  1

  1

 70
     0
 70
     0
 70
     0
 70
     0
 70
     1
 70
     8
 70
    50
 70
     0
 70
     1
 70
     2
 70
     0
  1

100
ZWMATTRIBUTEDEF
 70
     1
 70
     0
  1
ZWMCL_DIM1
  1
\U+710A\U+7F1D\U+8BC6\U+522B\U+7EBF的\U+989C色
  1

  1

  1

  1

  1

 70
     0
 70
     0
 70
     0
 70
     0
 70
     1
 70
     8
 70
    50
 70
     0
 70
     1
 70
     2
 70
     0
  1

100
ZWMATTRIBUTEDEF
 70
     1
 70
     0
  1
ZWMCL_DIM2
  1
目前\U+6682未用到
  1

  1

  1

  1

  1

 70
     0
 70
     0
 70
     0
 70
     0
 70
     1
 70
     8
 70
    50
 70
     0
 70
     1
 70
     2
 70
     0
  1

100
ZWMATTRIBUTEDEF
 70
     1
 70
     0
  1
ZWMCL_DIM3
  1
目前\U+6682未用到
  1

  1

  1

  1

  1

 70
     0
 70
     0
 70
     0
 70
     0
 70
     1
 70
     8
 70
    50
 70
     0
 70
     1
 70
     2
 70
     0
  1

100
ZWMATTRIBUTEDEF
 70
     1
 70
     0
  1
ZWMCL_DIM4
  1
目前\U+6682未用到
  1

  1

  1

  1

  1

 70
     0
 70
     0
 70
     0
 70
     0
 70
     1
 70
     8
 70
    50
 70
     0
 70
     1
 70
     2
 70
     0
  1

100
ZWMATTRIBUTEDEF
 70
     1
 70
     0
  1
ZWMCL_DIM5
  1
目前\U+6682未用到
  1

  1

  1

  1

  1

 70
     0
 70
     0
 70
     0
 70
     0
 70
     1
 70
     8
 70
    50
 70
     0
 70
     1
 70
     2
 70
     0
  1

100
ZWMATTRIBUTEDEF
 70
     1
 70
     0
  1
ZWMCL_DIM6
  1
目前\U+6682未用到
  1

  1

  1

  1

  1

 70
     0
 70
     0
 70
     0
 70
     0
 70
     1
 70
     8
 70
    50
 70
     0
 70
     1
 70
     2
 70
     0
  1

100
ZWMATTRIBUTEDEF
 70
     1
 70
     0
  1
ZWMCL_TEXT1
  1
目前\U+6682未用到
  1

  1

  1

  1

  1

 70
     0
 70
     0
 70
     0
 70
     0
 70
     1
 70
     8
 70
    50
 70
     0
 70
     1
 70
     2
 70
     0
  1

100
ZWMATTRIBUTEDEF
 70
     1
 70
     0
  1
ZWMCL_TEXT2
  1
目前\U+6682未用到
  1

  1

  1

  1

  1

 70
     0
 70
     0
 70
     0
 70
     0
 70
     1
 70
     8
 70
    50
 70
     0
 70
     1
 70
     2
 70
     0
  1

100
ZWMATTRIBUTEDEF
 70
     1
 70
     0
  1
ZWMCL_TEXT3
  1
目前\U+6682未用到
  1

  1

  1

  1

  1

 70
     0
 70
     0
 70
     0
 70
     0
 70
     1
 70
     8
 70
    50
 70
     0
 70
     1
 70
     2
 70
     0
  1

100
ZWMATTRIBUTEDEF
 70
     1
 70
     0
  1
ZWMCL_TEXT4
  1
目前\U+6682未用到
  1

  1

  1

  1

  1

 70
     0
 70
     0
 70
     0
 70
     0
 70
     1
 70
     8
 70
    50
 70
     0
 70
     1
 70
     2
 70
     0
  1

100
ZWMATTRIBUTEDEF
 70
     1
 70
     0
  1
ZWMCL_TEXT5
  1
目前\U+6682未用到
  1

  1

  1

  1

  1

 70
     0
 70
     0
 70
     0
 70
     0
 70
     1
 70
     8
 70
    50
 70
     0
 70
     1
 70
     2
 70
     0
  1

100
ZWMATTRIBUTEDEF
 70
     1
 70
     0
  1
ZWMCL_TEXT6
  1
目前\U+6682未用到
  1

  1

  1

  1

  1

 70
     0
 70
     0
 70
     0
 70
     0
 70
     1
 70
     8
 70
    50
 70
     0
 70
     1
 70
     2
 70
     0
  1

100
ZwmStd
 70
     1
 70
     1
 70
     0
  1

  1

340
0
340
0
340
0
340
0
340
0
340
0
340
0
340
0
 70
    -1
 70
    -1
 70
    -1
 70
    -1
 70
    -1
 70
    -1
 70
    -1
 70
    -1
 70
    -1
 70
    -1
 70
    -1
 70
    -1
 70
    -1
 70
    -1
 70
    -1
 70
    -1
 90
       -1
 90
       -1
 90
       -1
 90
       -1
 90
       -1
 90
       -1
 90
       -1
 90
       -1
  1

  1

  1

  1

  1

  1

  1

  1

100
ZwmColorStd
 70
     1
 70
    30
  1
ZWMCL_CYAN
  1
10
  1
ZWMCL_BLUE
  1
4
  1
ZWMCL_DIMTEXT
  1
256
  1
ZWMCL_BYBLOCK
  1
0
  1
ZWMCL_DIMTEXT_VERYLARGE
  1
256
  1
ZWMCL_YELLOW
  1
2
  1
ZWMCL_DIMTEXT_SMALL
  1
256
  1
ZWMCL_GREEN
  1
3
  1
ZWMCL_TEXT2
  1
256
  1
ZWMCL_TEXT3
  1
256
  1
ZWMCL_TEXT
  1
1
  1
ZWMCL_BLACK
  1
10
  1
ZWMCL_DIMTEXT_MEDIUM
  1
256
  1
ZWMCL_WHITE
  1
7
  1
ZWMCL_TEXT1
  1
256
  1
ZWMCL_DIM6
  1
256
  1
ZWMCL_DIM5
  1
256
  1
ZWMCL_DIM4
  1
256
  1
ZWMCL_DIM3
  1
256
  1
ZWMCL_DIM2
  1
256
  1
ZWMCL_DIM1
  1
256
  1
ZWMCL_DIM
  1
256
  1
ZWMCL_TEXT6
  1
256
  1
ZWMCL_DIMARROW
  1
256
  1
ZWMCL_TEXT4
  1
256
  1
ZWMCL_DIMTEXT_LARGE
  1
256
  1
ZWMCL_RED
  1
17
  1
ZWMCL_TEXT5
  1
256
  1
ZWMCL_DIMLEADER
  1
256
  1
ZWMCL_BYLAYER
  1
256
340
0
340
0
340
0
340
0
340
0
340
0
340
0
340
0
 70
    -1
 70
    -1
 70
    -1
 70
    -1
 70
    -1
 70
    -1
 70
    -1
 70
    -1
 70
    -1
 70
    -1
 70
    -1
 70
    -1
 70
    -1
 70
    -1
 70
    -1
 70
    -1
 90
       -1
 90
       -1
 90
       -1
 90
       -1
 90
       -1
 90
       -1
 90
       -1
 90
       -1
  1

  1

  1

  1

  1

  1

  1

  1

  0
ZWMPARTREFSTD
  5
87ADC
330
87AB5
100
ZwmObject
 70
     1
  1

  1
GB
  1

  1

 70
     0
100
ZwmStd
 70
     1
 70
     1
 70
     0
  1
GB
  1
GB
340
0
340
0
340
0
340
0
340
0
340
0
340
0
340
0
 70
    -1
 70
    -1
 70
    -1
 70
    -1
 70
    -1
 70
    -1
 70
    -1
 70
    -1
 70
    -1
 70
    -1
 70
    -1
 70
    -1
 70
    -1
 70
    -1
 70
    -1
 70
    -1
 90
       -1
 90
       -1
 90
       -1
 90
       -1
 90
       -1
 90
       -1
 90
       -1
 90
       -1
  1

  1

  1

  1

  1

  1

  1

  1

100
ZwmSymbolStd
 70
     1
340
0
340
0
340
0
340
0
340
0
340
0
340
0
340
0
 70
    -1
 70
    -1
 70
    -1
 70
    -1
 70
    -1
 70
    -1
 70
    -1
 70
    -1
 70
    -1
 70
    -1
 70
    -1
 70
    -1
 70
    -1
 70
    -1
 70
    -1
 70
    -1
 90
       -1
 90
       -1
 90
       -1
 90
       -1
 90
       -1
 90
       -1
 90
       -1
 90
       -1
  1

  1

  1

  1

  1

  1

  1

  1

100
ZwmPartRefStd
 70
     1
 70
     1
  1
GB
100
ZwmSymProperties
 70
     2
  1
GB
  1
GB
  1

  1
GB.xml
 70
    82
 70
     1
 40
3.5
 40
1.0
 70
    -1
 70
    -1
 70
    -1
 70
    -1
 40
0.0
 70
     0
 70
     0
 70
     0
 70
     0
 70
     0
 70
     0
340
0
 40
1.0
 40
1.0
 40
1.0
 40
1.0
 40
1.0
 40
1.0
 40
3.5
 40
3.5
 40
3.5
 40
3.5
 40
3.5
 40
3.5
 70
    -1
 70
    -1
 70
    -1
 70
    -1
 70
    -1
 70
    -1
 70
    -1
 70
    -1
 70
    -1
 70
    -1
 70
    -1
 70
    -1
340
0
340
0
340
0
340
0
340
0
340
0
340
0
340
0
340
0
340
0
340
0
340
0
340
0
340
0
 70
    -1
 70
    -1
 70
    -1
 70
    -1
 70
    -1
 70
    -1
 70
    -1
 70
    -1
 70
    -1
 70
    -1
 70
    -1
 70
    -1
 70
    -1
 70
    -1
 70
    -1
 70
    -1
 90
       -1
 90
       -1
 90
       -1
 90
       -1
 90
       -1
 90
       -1
 90
       -1
 90
       -1
  1

  1

  1

  1

  1

  1

  1

  1

 70
     0
100
ZwmPartRefProperties
 70
     1
 40
0.001
  0
ZWMBALLOONSTD
  5
87ADD
330
87AB5
100
ZwmObject
 70
     1
  1

  1
GB
  1

  1

 70
     0
100
ZwmStd
 70
     1
 70
     1
 70
     0
  1
GB
  1
GB
340
0
340
0
340
0
340
0
340
0
340
0
340
0
340
0
 70
    -1
 70
    -1
 70
    -1
 70
    -1
 70
    -1
 70
    -1
 70
    -1
 70
    -1
 70
    -1
 70
    -1
 70
    -1
 70
    -1
 70
    -1
 70
    -1
 70
    -1
 70
    -1
 90
       -1
 90
       -1
 90
       -1
 90
       -1
 90
       -1
 90
       -1
 90
       -1
 90
       -1
  1

  1

  1

  1

  1

  1

  1

  1

100
ZwmSymbolStd
 70
     1
340
0
340
0
340
0
340
0
340
0
340
0
340
0
340
0
 70
    -1
 70
    -1
 70
    -1
 70
    -1
 70
    -1
 70
    -1
 70
    -1
 70
    -1
 70
    -1
 70
    -1
 70
    -1
 70
    -1
 70
    -1
 70
    -1
 70
    -1
 70
    -1
 90
       -1
 90
       -1
 90
       -1
 90
       -1
 90
       -1
 90
       -1
 90
       -1
 90
       -1
  1

  1

  1

  1

  1

  1

  1

  1

100
ZwmBalloonStd
 70
     1
 70
     1
  1
GB
100
ZwmSymProperties
 70
     2
  1
GB
  1
GB
  1

  1
GB.xml
 70
    92
 70
     1
 40
0.0
 40
0.0
 70
    -1
 70
    -1
 70
    -1
 70
    -1
 40
0.0
 70
    28
 70
    23
 70
    45
 70
     0
 70
     1
 70
     3
 70
     4
 70
     5
 70
     6
 70
     7
 70
     8
 70
     9
 70
    10
 70
    11
 70
    12
 70
    13
 70
    14
 70
    15
 70
    16
 70
    17
 70
    18
 70
    19
 70
    20
 70
    21
 70
    22
 70
    27
 70
    28
 70
    99
 70
   100
 70
   101
 70
   102
 70
   103
 70
   104
 70
   105
 70
   106
 70
   107
 70
   108
 70
   109
 70
   110
 70
   111
 70
   112
 70
   113
 70
   114
 70
   115
 70
   116
 70
   117
 70
   118
 70
   120
 70
     0
 70
    14
  1
2.5
  1
3.5
  1
5
  1
7
  1
10
  1
14
  1
20
  1
2.5
  1
3.5
  1
5
  1
7
  1
10
  1
14
  1
20
 70
     0
340
0
 40
1.0
 40
1.0
 40
1.0
 40
1.0
 40
1.0
 40
1.0
 40
3.5
 40
3.5
 40
3.5
 40
3.5
 40
3.5
 40
3.5
 70
    -1
 70
    -1
 70
    -1
 70
    -1
 70
    -1
 70
    -1
 70
    -1
 70
    -1
 70
    -1
 70
    -1
 70
    -1
 70
    -1
340
0
340
0
340
0
340
0
340
0
340
0
340
0
340
0
340
0
340
0
340
0
340
0
340
0
340
0
 70
    -1
 70
    -1
 70
    -1
 70
    -1
 70
    -1
 70
    -1
 70
    -1
 70
    -1
 70
    -1
 70
    -1
 70
    -1
 70
    -1
 70
    -1
 70
    -1
 70
    -1
 70
    -1
 90
       -1
 90
       -1
 90
       -1
 90
       -1
 90
       -1
 90
       -1
 90
       -1
 90
       -1
  1

  1

  1

  1

  1

  1

  1

  1

 70
     2
  1
EnableExplode
100
ZWMATTRIBUTEDEF
 70
     1
 70
     0
  1

  1

  1

  1
VT_BOOL
  1

  1

  1

 70
     0
 70
     0
 70
     0
 70
     0
 70
     1
 70
    11
 70
    50
 70
     0
 70
     1
 70
     2
 70
     0
 70
     0
  1
SymTextSizeRatio
100
ZWMATTRIBUTEDEF
 70
     1
 70
     0
  1

  1

  1

  1
VT_R8
  1

  1

  1

 70
     0
 70
     0
 70
     0
 70
     0
 70
     1
 70
     5
 70
    50
 70
     0
 70
     1
 70
     2
 70
     0
 40
1.0
100
ZwmBalloonProperties
 70
     1
 70
     1
 70
     8
 70
     0
 70
     1
 70
     2
 70
     3
 70
     4
 70
     5
 70
     6
 70
     7
 70
     2
  1
Table
  1
Table
  1
Table.dwg
 70
     0
  1
DEF1
  1
DEF1
  1
DEF1.dwg
 70
     1
  1
[RELPOS]
  1
[BALLOON_PART_COUNT]
 70
     0
 40
3.0
 40
1.5
 40
1.5
 40
0.5
 40
0.2
340
0
  1

 70
     0
  0
ZWMSURFSYMSTD
  5
87ADE
330
87AB5
100
ZwmObject
 70
     1
  1

  1
GB93
  1

  1

 70
     0
100
ZwmStd
 70
     1
 70
     1
 70
     0
  1
GB93
  1
GB93
340
0
340
0
340
0
340
0
340
0
340
0
340
0
340
0
 70
    -1
 70
    -1
 70
    -1
 70
    -1
 70
    -1
 70
    -1
 70
    -1
 70
    -1
 70
    -1
 70
    -1
 70
    -1
 70
    -1
 70
    -1
 70
    -1
 70
    -1
 70
    -1
 90
       -1
 90
       -1
 90
       -1
 90
       -1
 90
       -1
 90
       -1
 90
       -1
 90
       -1
  1

  1

  1

  1

  1

  1

  1

  1

100
ZwmSymbolStd
 70
     1
340
0
340
0
340
0
340
0
340
0
340
0
340
0
340
0
 70
    -1
 70
    -1
 70
    -1
 70
    -1
 70
    -1
 70
    -1
 70
    -1
 70
    -1
 70
    -1
 70
    -1
 70
    -1
 70
    -1
 70
    -1
 70
    -1
 70
    -1
 70
    -1
 90
       -1
 90
       -1
 90
       -1
 90
       -1
 90
       -1
 90
       -1
 90
       -1
 90
       -1
  1

  1

  1

  1

  1

  1

  1

  1

100
ZwmSurfSymStd
 70
     1
 70
     1
  1
GB93
100
ZwmSymProperties
 70
     2
  1
GB93
  1
GB93
  1

  1
GB93.xml
 70
   223
 70
     1
 40
0.0
 40
0.0
 70
   256
 70
   256
 70
   256
 70
   256
 40
0.0
 70
     1
 70
    23
 70
    40
 70
     0
 70
     1
 70
     3
 70
     4
 70
     5
 70
     6
 70
     8
 70
     9
 70
    10
 70
    11
 70
    13
 70
    14
 70
    15
 70
    16
 70
    18
 70
    19
 70
    20
 70
    21
 70
    27
 70
    28
 70
   100
 70
   101
 70
   102
 70
   103
 70
   104
 70
   105
 70
   106
 70
   107
 70
   108
 70
   109
 70
   110
 70
   111
 70
   112
 70
   113
 70
   114
 70
   115
 70
   116
 70
   117
 70
   118
 70
   120
 70
     0
 70
    14
  1
2.5
  1
3.5
  1
5
  1
7
  1
10
  1
14
  1
20
  1
2.5
  1
3.5
  1
5
  1
7
  1
10
  1
14
  1
20
 70
     0
340
0
 40
1.0
 40
1.0
 40
1.0
 40
1.0
 40
1.0
 40
1.0
 40
3.5
 40
3.5
 40
3.5
 40
3.5
 40
3.5
 40
3.5
 70
    -1
 70
    -1
 70
    -1
 70
    -1
 70
    -1
 70
    -1
 70
    -1
 70
    -1
 70
    -1
 70
    -1
 70
    -1
 70
    -1
340
0
340
0
340
0
340
0
340
0
340
0
340
0
340
0
340
0
340
0
340
0
340
0
340
0
340
0
 70
    -1
 70
    -1
 70
    -1
 70
    -1
 70
    -1
 70
    -1
 70
    -1
 70
    -1
 70
    -1
 70
    -1
 70
    -1
 70
    -1
 70
    -1
 70
    -1
 70
    -1
 70
    -1
 90
       -1
 90
       -1
 90
       -1
 90
       -1
 90
       -1
 90
       -1
 90
       -1
 90
       -1
  1

  1

  1

  1

  1

  1

  1

  1

 70
    32
  1
G_Values
100
ZWMATTRIBUTEDEF
 70
     1
 70
     0
  1

  1

  1

  1

  1

  1

  1

 70
     0
 70
     0
 70
     0
 70
     0
 70
     1
 70
     8
 70
    50
 70
     0
 70
     1
 70
     2
 70
     0
  1
250;160;100;63;40;25;16;10;6.3;4;2.5;1.6;1;0.63;0.4;0.25;0.16;0.1;0.06;0.04;
  1
B_Tooltip
100
ZWMATTRIBUTEDEF
 70
     1
 70
     0
  1

  1

  1

  1

  1

  1

  1

 70
     0
 70
     0
 70
     0
 70
     0
 70
     1
 70
     8
 70
    50
 70
     0
 70
     1
 70
     2
 70
     0
  1
加工方式
  1
A'_Tooltip
100
ZWMATTRIBUTEDEF
 70
     1
 70
     0
  1

  1

  1

  1

  1

  1

  1

 70
     0
 70
     0
 70
     0
 70
     0
 70
     1
 70
     8
 70
    50
 70
     0
 70
     1
 70
     2
 70
     0
  1
表面粗\U+7CD9度Ra\U+503C
  1
A_Label
100
ZWMATTRIBUTEDEF
 70
     1
 70
     0
  1

  1

  1

  1

  1

  1

  1

 70
     0
 70
     0
 70
     0
 70
     0
 70
     1
 70
     8
 70
    50
 70
     0
 70
     1
 70
     2
 70
     0
  1
A
  1
C_Values
100
ZWMATTRIBUTEDEF
 70
     1
 70
     0
  1

  1

  1

  1

  1

  1

  1

 70
     0
 70
     0
 70
     0
 70
     0
 70
     1
 70
     8
 70
    50
 70
     0
 70
     1
 70
     2
 70
     0
  1
0.08;0.25;0.8;2.5;8;25;
  1
A_Values
100
ZWMATTRIBUTEDEF
 70
     1
 70
     0
  1

  1

  1

  1

  1

  1

  1

 70
     0
 70
     0
 70
     0
 70
     0
 70
     1
 70
     8
 70
    50
 70
     0
 70
     1
 70
     2
 70
     0
  1
50;25;12.5;6.3;3.2;1.6;0.8;0.4;0.2;0.1;0.05;0.025;
  1
C'_Values
100
ZWMATTRIBUTEDEF
 70
     1
 70
     0
  1

  1

  1

  1

  1

  1

  1

 70
     0
 70
     0
 70
     0
 70
     0
 70
     1
 70
     8
 70
    50
 70
     0
 70
     1
 70
     2
 70
     0
  1
250;160;100;63;40;25;16;10;6.3;4;2.5;1.6;1;0.63;0.4;0.25;0.16;0.1;0.06;0.04;
  1
G_Tooltip
100
ZWMATTRIBUTEDEF
 70
     1
 70
     0
  1

  1

  1

  1

  1

  1

  1

 70
     0
 70
     0
 70
     0
 70
     0
 70
     1
 70
     8
 70
    50
 70
     0
 70
     1
 70
     2
 70
     0
  1
其它粗\U+7CD9度最小\U+503C
  1
C'_Tooltip
100
ZWMATTRIBUTEDEF
 70
     1
 70
     0
  1

  1

  1

  1

  1

  1

  1

 70
     0
 70
     0
 70
     0
 70
     0
 70
     1
 70
     8
 70
    50
 70
     0
 70
     1
 70
     2
 70
     0
  1
其它粗\U+7CD9度\U+503C
  1
C'_Label
100
ZWMATTRIBUTEDEF
 70
     1
 70
     0
  1

  1

  1

  1

  1

  1

  1

 70
     0
 70
     0
 70
     0
 70
     0
 70
     1
 70
     8
 70
    50
 70
     0
 70
     1
 70
     2
 70
     0
  1
C'
  1
B'_Label
100
ZWMATTRIBUTEDEF
 70
     1
 70
     0
  1

  1

  1

  1

  1

  1

  1

 70
     0
 70
     0
 70
     0
 70
     0
 70
     1
 70
     8
 70
    50
 70
     0
 70
     1
 70
     2
 70
     0
  1
B'
  1
G_Label
100
ZWMATTRIBUTEDEF
 70
     1
 70
     0
  1

  1

  1

  1

  1

  1

  1

 70
     0
 70
     0
 70
     0
 70
     0
 70
     1
 70
     8
 70
    50
 70
     0
 70
     1
 70
     2
 70
     0
  1
G
  1
E_Label
100
ZWMATTRIBUTEDEF
 70
     1
 70
     0
  1

  1

  1

  1

  1

  1

  1

 70
     0
 70
     0
 70
     0
 70
     0
 70
     1
 70
     8
 70
    50
 70
     0
 70
     1
 70
     2
 70
     0
  1
E
  1
E_Values
100
ZWMATTRIBUTEDEF
 70
     1
 70
     0
  1

  1

  1

  1

  1

  1

  1

 70
     0
 70
     0
 70
     0
 70
     0
 70
     1
 70
     8
 70
    50
 70
     0
 70
     1
 70
     2
 70
     0
  1
大;一般;小;很小;\U+8F83小;其它;
  1
B'_Values
100
ZWMATTRIBUTEDEF
 70
     1
 70
     0
  1

  1

  1

  1

  1

  1

  1

 70
     0
 70
     0
 70
     0
 70
     0
 70
     1
 70
     8
 70
    50
 70
     0
 70
     1
 70
     2
 70
     0
  1
\U+8F66;\U+9557;\U+5228;\U+94BB;\U+94E3;\U+9509;磨;粗\U+8F66;粗\U+94F0;\U+94E3\U+9F7F;拉;\U+6EDA\U+538B;刮1－2点/cm^ 2;刮3－10点/cm^ 2;布\U+8F6E磨;研磨;超\U+7EA7加工
  1
A'_Values
100
ZWMATTRIBUTEDEF
 70
     1
 70
     0
  1

  1

  1

  1

  1

  1

  1

 70
     0
 70
     0
 70
     0
 70
     0
 70
     1
 70
     8
 70
    50
 70
     0
 70
     1
 70
     2
 70
     0
  1
50;25;12.5;6.3;3.2;1.6;0.8;0.4;0.2;0.1;0.05;0.025;
  1
A_Tooltip
100
ZWMATTRIBUTEDEF
 70
     1
 70
     0
  1

  1

  1

  1

  1

  1

  1

 70
     0
 70
     0
 70
     0
 70
     0
 70
     1
 70
     8
 70
    50
 70
     0
 70
     1
 70
     2
 70
     0
  1
表面粗\U+7CD9度Ra最小\U+503C
  1
C_Label
100
ZWMATTRIBUTEDEF
 70
     1
 70
     0
  1

  1

  1

  1

  1

  1

  1

 70
     0
 70
     0
 70
     0
 70
     0
 70
     1
 70
     8
 70
    50
 70
     0
 70
     1
 70
     2
 70
     0
  1
C
  1
D_Tooltip
100
ZWMATTRIBUTEDEF
 70
     1
 70
     0
  1

  1

  1

  1

  1

  1

  1

 70
     0
 70
     0
 70
     0
 70
     0
 70
     1
 70
     8
 70
    50
 70
     0
 70
     1
 70
     2
 70
     0
  1
加工\U+7EB9理方向
  1
D_Label
100
ZWMATTRIBUTEDEF
 70
     1
 70
     0
  1

  1

  1

  1

  1

  1

  1

 70
     0
 70
     0
 70
     0
 70
     0
 70
     1
 70
     8
 70
    50
 70
     0
 70
     1
 70
     2
 70
     0
  1
D
  1
Post-weld machining_Enable
100
ZWMATTRIBUTEDEF
 70
     1
 70
     0
  1

  1

  1

  1

  1

  1

  1

 70
     0
 70
     0
 70
     0
 70
     0
 70
     1
 70
    11
 70
    50
 70
     0
 70
     1
 70
     2
 70
     0
 70
    -1
  1
B'_Tooltip
100
ZWMATTRIBUTEDEF
 70
     1
 70
     0
  1

  1

  1

  1

  1

  1

  1

 70
     0
 70
     0
 70
     0
 70
     0
 70
     1
 70
     8
 70
    50
 70
     0
 70
     1
 70
     2
 70
     0
  1
加工方式
  1
F_Label
100
ZWMATTRIBUTEDEF
 70
     1
 70
     0
  1

  1

  1

  1

  1

  1

  1

 70
     0
 70
     0
 70
     0
 70
     0
 70
     1
 70
     8
 70
    50
 70
     0
 70
     1
 70
     2
 70
     0
  1
F
  1
B_Label
100
ZWMATTRIBUTEDEF
 70
     1
 70
     0
  1

  1

  1

  1

  1

  1

  1

 70
     0
 70
     0
 70
     0
 70
     0
 70
     1
 70
     8
 70
    50
 70
     0
 70
     1
 70
     2
 70
     0
  1
B
  1
A'_Label
100
ZWMATTRIBUTEDEF
 70
     1
 70
     0
  1

  1

  1

  1

  1

  1

  1

 70
     0
 70
     0
 70
     0
 70
     0
 70
     1
 70
     8
 70
    50
 70
     0
 70
     1
 70
     2
 70
     0
  1
A'
  1
F_Values
100
ZWMATTRIBUTEDEF
 70
     1
 70
     0
  1

  1

  1

  1

  1

  1

  1

 70
     0
 70
     0
 70
     0
 70
     0
 70
     1
 70
     8
 70
    50
 70
     0
 70
     1
 70
     2
 70
     0
  1
0.08;0.25;0.8;2.5;8;25;
  1
B_Values
100
ZWMATTRIBUTEDEF
 70
     1
 70
     0
  1

  1

  1

  1

  1

  1

  1

 70
     0
 70
     0
 70
     0
 70
     0
 70
     1
 70
     8
 70
    50
 70
     0
 70
     1
 70
     2
 70
     0
  1
\U+8F66;\U+9557;\U+5228;\U+94BB;\U+94E3;\U+9509;磨;粗\U+8F66;粗\U+94F0;\U+94E3\U+9F7F;拉;\U+6EDA\U+538B;刮1－2点/cm^ 2;刮3－10点/cm^ 2;布\U+8F6E磨;研磨;超\U+7EA7加工
  1
F_Tooltip
100
ZWMATTRIBUTEDEF
 70
     1
 70
     0
  1

  1

  1

  1

  1

  1

  1

 70
     0
 70
     0
 70
     0
 70
     0
 70
     1
 70
     8
 70
    50
 70
     0
 70
     1
 70
     2
 70
     0
  1
其它采\U+6837\U+957F度
  1
E_Tooltip
100
ZWMATTRIBUTEDEF
 70
     1
 70
     0
  1

  1

  1

  1

  1

  1

  1

 70
     0
 70
     0
 70
     0
 70
     0
 70
     1
 70
     8
 70
    50
 70
     0
 70
     1
 70
     2
 70
     0
  1
加工余量
  1
C_Tooltip
100
ZWMATTRIBUTEDEF
 70
     1
 70
     0
  1

  1

  1

  1

  1

  1

  1

 70
     0
 70
     0
 70
     0
 70
     0
 70
     1
 70
     8
 70
    50
 70
     0
 70
     1
 70
     2
 70
     0
  1
采\U+6837\U+957F度或波\U+7EB9高度
  1
EnableExplode
100
ZWMATTRIBUTEDEF
 70
     1
 70
     0
  1

  1

  1

  1
VT_BOOL
  1

  1

  1

 70
     0
 70
     0
 70
     0
 70
     0
 70
     1
 70
    11
 70
    50
 70
     0
 70
     1
 70
     2
 70
     0
 70
    -1
  1
SymTextSizeRatio
100
ZWMATTRIBUTEDEF
 70
     1
 70
     0
  1

  1

  1

  1
VT_R8
  1

  1

  1

 70
     0
 70
     0
 70
     0
 70
     0
 70
     1
 70
     5
 70
    50
 70
     0
 70
     1
 70
     2
 70
     0
 40
1.0
100
ZwmSurfSymProperties
 70
     2
 70
     0
 70
     0
 70
     0
 70
     0
 70
     0
 70
     0
 40
1.399999999999999
 40
4.0
 40
20.0
 70
     0
 70
     1
 70
     1
 70
     1
 70
     1
 70
     1
 70
     1
 70
     1
 70
     1
 70
     0
 70
     1
 70
     0
 70
     0
 70
     0
 70
    12
  1
50
  1
25
  1
12.5
  1
6.3
  1
3.2
  1
1.6
  1
0.8
  1
0.4
  1
0.2
  1
0.1
  1
0.05
  1
0.025
 70
    20
  1
250
  1
160
  1
100
  1
63
  1
40
  1
25
  1
16
  1
10
  1
6.3
  1
4
  1
2.5
  1
1.6
  1
1
  1
0.63
  1
0.4
  1
0.25
  1
0.16
  1
0.1
  1
0.06
  1
0.04
 70
    17
  1
\U+8F66
  1
\U+9557
  1
\U+5228
  1
\U+94BB
  1
\U+94E3
  1
\U+9509
  1
磨
  1
粗\U+8F66
  1
粗\U+94F0
  1
\U+94E3\U+9F7F
  1
拉
  1
\U+6EDA\U+538B
  1
刮1－2点/cm^ 2
  1
刮3－10点/cm^ 2
  1
布\U+8F6E磨
  1
研磨
  1
超\U+7EA7加工
 40
0.5
 40
3.5
  0
ZWMNOTESTD
  5
87ADF
330
87AB5
100
ZwmObject
 70
     1
  1

  1
GB
  1

  1

 70
     0
100
ZwmStd
 70
     1
 70
     1
 70
     0
  1
GB
  1
GB
340
0
340
0
340
0
340
0
340
0
340
0
340
0
340
0
 70
    -1
 70
    -1
 70
    -1
 70
    -1
 70
    -1
 70
    -1
 70
    -1
 70
    -1
 70
    -1
 70
    -1
 70
    -1
 70
    -1
 70
    -1
 70
    -1
 70
    -1
 70
    -1
 90
       -1
 90
       -1
 90
       -1
 90
       -1
 90
       -1
 90
       -1
 90
       -1
 90
       -1
  1

  1

  1

  1

  1

  1

  1

  1

100
ZwmSymbolStd
 70
     1
340
0
340
0
340
0
340
0
340
0
340
0
340
0
340
0
 70
    -1
 70
    -1
 70
    -1
 70
    -1
 70
    -1
 70
    -1
 70
    -1
 70
    -1
 70
    -1
 70
    -1
 70
    -1
 70
    -1
 70
    -1
 70
    -1
 70
    -1
 70
    -1
 90
       -1
 90
       -1
 90
       -1
 90
       -1
 90
       -1
 90
       -1
 90
       -1
 90
       -1
  1

  1

  1

  1

  1

  1

  1

  1

100
ZwmNoteStd
 70
     1
 70
     1
  1
GB
100
ZwmSymProperties
 70
     2
  1
GB
  1
GB
  1

  1
GB.xml
 70
   402
 70
     1
 40
0.0
 40
0.0
 70
    -1
 70
    -1
 70
    -1
 70
    -1
 40
0.0
 70
     1
 70
    23
 70
    40
 70
     0
 70
     1
 70
     3
 70
     4
 70
     5
 70
     6
 70
     8
 70
     9
 70
    10
 70
    11
 70
    13
 70
    14
 70
    15
 70
    16
 70
    18
 70
    19
 70
    20
 70
    21
 70
    27
 70
    28
 70
   100
 70
   101
 70
   102
 70
   103
 70
   104
 70
   105
 70
   106
 70
   107
 70
   108
 70
   109
 70
   110
 70
   111
 70
   112
 70
   113
 70
   114
 70
   115
 70
   116
 70
   117
 70
   118
 70
   120
 70
     0
 70
    14
  1
2.5
  1
3.5
  1
5
  1
7
  1
10
  1
14
  1
20
  1
2.5
  1
3.5
  1
5
  1
7
  1
10
  1
14
  1
20
 70
     0
340
0
 40
1.0
 40
1.0
 40
1.0
 40
1.0
 40
1.0
 40
1.0
 40
3.5
 40
3.5
 40
3.5
 40
3.5
 40
3.5
 40
3.5
 70
    -1
 70
    -1
 70
    -1
 70
    -1
 70
    -1
 70
    -1
 70
    -1
 70
    -1
 70
    -1
 70
    -1
 70
    -1
 70
    -1
340
0
340
0
340
0
340
0
340
0
340
0
340
0
340
0
340
0
340
0
340
0
340
0
340
0
340
0
 70
    -1
 70
    -1
 70
    -1
 70
    -1
 70
    -1
 70
    -1
 70
    -1
 70
    -1
 70
    -1
 70
    -1
 70
    -1
 70
    -1
 70
    -1
 70
    -1
 70
    -1
 70
    -1
 90
       -1
 90
       -1
 90
       -1
 90
       -1
 90
       -1
 90
       -1
 90
       -1
 90
       -1
  1

  1

  1

  1

  1

  1

  1

  1

 70
    12
  1
DIMALTU
100
ZWMATTRIBUTEDEF
 70
     1
 70
     0
  1

  1

  1

  1
VT_I2
  1

  1

  1

 70
     0
 70
     0
 70
     0
 70
     0
 70
     1
 70
     2
 70
    50
 70
     0
 70
     1
 70
     2
 70
     0
 70
     2
  1
DIMALTZ
100
ZWMATTRIBUTEDEF
 70
     1
 70
     0
  1

  1

  1

  1
VT_I2
  1

  1

  1

 70
     0
 70
     0
 70
     0
 70
     0
 70
     1
 70
     2
 70
    50
 70
     0
 70
     1
 70
     2
 70
     0
 70
     8
  1
DIMALTTZ
100
ZWMATTRIBUTEDEF
 70
     1
 70
     0
  1

  1

  1

  1
VT_I2
  1

  1

  1

 70
     0
 70
     0
 70
     0
 70
     0
 70
     1
 70
     2
 70
    50
 70
     0
 70
     1
 70
     2
 70
     0
 70
     0
  1
TextRightOffsetX
100
ZWMATTRIBUTEDEF
 70
     1
 70
     0
  1

  1

  1

  1

  1

  1

  1

 70
     0
 70
     0
 70
     0
 70
     0
 70
     1
 70
     5
 70
    50
 70
     0
 70
     1
 70
     2
 70
     0
 40
2.0
  1
DIMALTRND
100
ZWMATTRIBUTEDEF
 70
     1
 70
     0
  1

  1

  1

  1
VT_R8
  1

  1

  1

 70
     0
 70
     0
 70
     0
 70
     0
 70
     1
 70
     5
 70
    50
 70
     0
 70
     1
 70
     2
 70
     0
 40
0.0
  1
DIMALTF
100
ZWMATTRIBUTEDEF
 70
     1
 70
     0
  1

  1

  1

  1
VT_R8
  1

  1

  1

 70
     0
 70
     0
 70
     0
 70
     0
 70
     1
 70
     5
 70
    50
 70
     0
 70
     1
 70
     2
 70
     0
 40
0.03937007874016
  1
EnableExplode
100
ZWMATTRIBUTEDEF
 70
     1
 70
     0
  1

  1

  1

  1
VT_BOOL
  1

  1

  1

 70
     0
 70
     0
 70
     0
 70
     0
 70
     1
 70
    11
 70
    50
 70
     0
 70
     1
 70
     2
 70
     0
 70
    -1
  1
DIMAPOST
100
ZWMATTRIBUTEDEF
 70
     1
 70
     0
  1

  1

  1

  1
VT_BSTR
  1

  1

  1

 70
     0
 70
     0
 70
     0
 70
     0
 70
     1
 70
     8
 70
    50
 70
     0
 70
     1
 70
     2
 70
     0
  1
[]"
  1
DIMALTD
100
ZWMATTRIBUTEDEF
 70
     1
 70
     0
  1

  1

  1

  1
VT_I2
  1

  1

  1

 70
     0
 70
     0
 70
     0
 70
     0
 70
     1
 70
     2
 70
    50
 70
     0
 70
     1
 70
     2
 70
     0
 70
     2
  1
DIMALTTD
100
ZWMATTRIBUTEDEF
 70
     1
 70
     0
  1

  1

  1

  1
VT_I2
  1

  1

  1

 70
     0
 70
     0
 70
     0
 70
     0
 70
     1
 70
     2
 70
    50
 70
     0
 70
     1
 70
     2
 70
     0
 70
     4
  1
DIMALT
100
ZWMATTRIBUTEDEF
 70
     1
 70
     0
  1

  1

  1

  1
VT_BOOL
  1

  1

  1

 70
     0
 70
     0
 70
     0
 70
     0
 70
     1
 70
    11
 70
    50
 70
     0
 70
     1
 70
     2
 70
     0
 70
    -1
  1
SymTextSizeRatio
100
ZWMATTRIBUTEDEF
 70
     1
 70
     0
  1

  1

  1

  1
VT_R8
  1

  1

  1

 70
     0
 70
     0
 70
     0
 70
     0
 70
     1
 70
     5
 70
    50
 70
     0
 70
     1
 70
     2
 70
     0
 40
1.0
100
ZwmNoteProperties
 70
     1
 70
     7
 70
     1
 40
1.75
 40
1.0
 40
3.5
 40
2.0
  0
ZWMFCFRAMESTD
  5
87AE0
330
87AB5
100
ZwmObject
 70
     1
  1

  1
GB
  1

  1

 70
     0
100
ZwmStd
 70
     1
 70
     1
 70
     0
  1
GB
  1
GB
340
0
340
0
340
0
340
0
340
0
340
0
340
0
340
0
 70
    -1
 70
    -1
 70
    -1
 70
    -1
 70
    -1
 70
    -1
 70
    -1
 70
    -1
 70
    -1
 70
    -1
 70
    -1
 70
    -1
 70
    -1
 70
    -1
 70
    -1
 70
    -1
 90
       -1
 90
       -1
 90
       -1
 90
       -1
 90
       -1
 90
       -1
 90
       -1
 90
       -1
  1

  1

  1

  1

  1

  1

  1

  1

100
ZwmSymbolStd
 70
     1
340
0
340
0
340
0
340
0
340
0
340
0
340
0
340
0
 70
    -1
 70
    -1
 70
    -1
 70
    -1
 70
    -1
 70
    -1
 70
    -1
 70
    -1
 70
    -1
 70
    -1
 70
    -1
 70
    -1
 70
    -1
 70
    -1
 70
    -1
 70
    -1
 90
       -1
 90
       -1
 90
       -1
 90
       -1
 90
       -1
 90
       -1
 90
       -1
 90
       -1
  1

  1

  1

  1

  1

  1

  1

  1

100
ZwmFCFrameStd
 70
     1
 70
     1
  1
GB
100
ZwmSymProperties
 70
     2
  1
GB
  1
GB
  1

  1
GB.xml
 70
   202
 70
     1
 40
0.0
 40
0.0
 70
    -1
 70
    -1
 70
    -1
 70
    -1
 40
0.0
 70
     1
 70
    25
 70
    40
 70
     0
 70
     1
 70
     3
 70
     4
 70
     5
 70
     6
 70
     8
 70
     9
 70
    10
 70
    11
 70
    13
 70
    14
 70
    15
 70
    16
 70
    18
 70
    19
 70
    20
 70
    21
 70
    27
 70
    28
 70
   100
 70
   101
 70
   102
 70
   103
 70
   104
 70
   105
 70
   106
 70
   107
 70
   108
 70
   109
 70
   110
 70
   111
 70
   112
 70
   113
 70
   114
 70
   115
 70
   116
 70
   117
 70
   118
 70
   120
 70
    24
 70
     0
 70
     1
 70
     3
 70
     4
 70
     5
 70
     6
 70
     8
 70
     9
 70
    10
 70
    11
 70
    13
 70
    14
 70
    15
 70
    16
 70
    18
 70
    19
 70
    20
 70
    21
 70
    23
 70
    24
 70
    25
 70
    26
 70
    27
 70
    28
 70
    14
  1
2.5
  1
3.5
  1
5
  1
7
  1
10
  1
14
  1
20
  1
2.5
  1
3.5
  1
5
  1
7
  1
10
  1
14
  1
20
 70
     0
340
0
 40
1.0
 40
1.0
 40
1.0
 40
1.0
 40
1.0
 40
1.0
 40
3.5
 40
3.5
 40
3.5
 40
3.5
 40
3.5
 40
3.5
 70
    -1
 70
    -1
 70
    -1
 70
    -1
 70
    -1
 70
    -1
 70
    -1
 70
    -1
 70
    -1
 70
    -1
 70
    -1
 70
    -1
340
0
340
0
340
0
340
0
340
0
340
0
340
0
340
0
340
0
340
0
340
0
340
0
340
0
340
0
 70
    -1
 70
    -1
 70
    -1
 70
    -1
 70
    -1
 70
    -1
 70
    -1
 70
    -1
 70
    -1
 70
    -1
 70
    -1
 70
    -1
 70
    -1
 70
    -1
 70
    -1
 70
    -1
 90
       -1
 90
       -1
 90
       -1
 90
       -1
 90
       -1
 90
       -1
 90
       -1
 90
       -1
  1

  1

  1

  1

  1

  1

  1

  1

 70
    11
  1
DIMALTU
100
ZWMATTRIBUTEDEF
 70
     1
 70
     0
  1

  1

  1

  1
VT_I2
  1

  1

  1

 70
     0
 70
     0
 70
     0
 70
     0
 70
     1
 70
     2
 70
    50
 70
     0
 70
     1
 70
     2
 70
     0
 70
     2
  1
DIMALTZ
100
ZWMATTRIBUTEDEF
 70
     1
 70
     0
  1

  1

  1

  1
VT_I2
  1

  1

  1

 70
     0
 70
     0
 70
     0
 70
     0
 70
     1
 70
     2
 70
    50
 70
     0
 70
     1
 70
     2
 70
     0
 70
     8
  1
DIMALTTZ
100
ZWMATTRIBUTEDEF
 70
     1
 70
     0
  1

  1

  1

  1
VT_I2
  1

  1

  1

 70
     0
 70
     0
 70
     0
 70
     0
 70
     1
 70
     2
 70
    50
 70
     0
 70
     1
 70
     2
 70
     0
 70
     0
  1
DIMALTRND
100
ZWMATTRIBUTEDEF
 70
     1
 70
     0
  1

  1

  1

  1
VT_R8
  1

  1

  1

 70
     0
 70
     0
 70
     0
 70
     0
 70
     1
 70
     5
 70
    50
 70
     0
 70
     1
 70
     2
 70
     0
 40
0.0
  1
DIMALTF
100
ZWMATTRIBUTEDEF
 70
     1
 70
     0
  1

  1

  1

  1
VT_R8
  1

  1

  1

 70
     0
 70
     0
 70
     0
 70
     0
 70
     1
 70
     5
 70
    50
 70
     0
 70
     1
 70
     2
 70
     0
 40
0.03937007874016
  1
EnableExplode
100
ZWMATTRIBUTEDEF
 70
     1
 70
     0
  1

  1

  1

  1
VT_BOOL
  1

  1

  1

 70
     0
 70
     0
 70
     0
 70
     0
 70
     1
 70
    11
 70
    50
 70
     0
 70
     1
 70
     2
 70
     0
 70
    -1
  1
DIMAPOST
100
ZWMATTRIBUTEDEF
 70
     1
 70
     0
  1

  1

  1

  1
VT_BSTR
  1

  1

  1

 70
     0
 70
     0
 70
     0
 70
     0
 70
     1
 70
     8
 70
    50
 70
     0
 70
     1
 70
     2
 70
     0
  1
[]"
  1
DIMALTD
100
ZWMATTRIBUTEDEF
 70
     1
 70
     0
  1

  1

  1

  1
VT_I2
  1

  1

  1

 70
     0
 70
     0
 70
     0
 70
     0
 70
     1
 70
     2
 70
    50
 70
     0
 70
     1
 70
     2
 70
     0
 70
     2
  1
DIMALTTD
100
ZWMATTRIBUTEDEF
 70
     1
 70
     0
  1

  1

  1

  1
VT_I2
  1

  1

  1

 70
     0
 70
     0
 70
     0
 70
     0
 70
     1
 70
     2
 70
    50
 70
     0
 70
     1
 70
     2
 70
     0
 70
     4
  1
DIMALT
100
ZWMATTRIBUTEDEF
 70
     1
 70
     0
  1

  1

  1

  1
VT_BOOL
  1

  1

  1

 70
     0
 70
     0
 70
     0
 70
     0
 70
     1
 70
    11
 70
    50
 70
     0
 70
     1
 70
     2
 70
     0
 70
    -1
  1
SymTextSizeRatio
100
ZWMATTRIBUTEDEF
 70
     1
 70
     0
  1

  1

  1

  1
VT_R8
  1

  1

  1

 70
     0
 70
     0
 70
     0
 70
     0
 70
     1
 70
     5
 70
    50
 70
     0
 70
     1
 70
     2
 70
     0
 40
1.0
100
ZwmFCFrameProperties
 70
     1
 70
     3
 40
3.5
 40
3.5
 70
     0
 70
     1
 70
     0
 70
     1
 70
     1
 70
     0
 70
     1
 70
     1
 70
    15
 70
     0
 70
     1
 70
     1
 70
     1
 70
     2
 70
     1
 70
     3
 70
     1
 70
     4
 70
     1
 70
     5
 70
     1
 70
     6
 70
     1
 70
     7
 70
     1
 70
     8
 70
     1
 70
     9
 70
     1
 70
    10
 70
     1
 70
    11
 70
     1
 70
    13
 70
     1
 70
    14
 70
     1
 70
    15
 70
     1
 70
    12
 70
     0
 70
     1
 70
     1
 70
     1
 70
     2
 70
     1
 70
     3
 70
     1
 70
     4
 70
     1
 70
     5
 70
     1
 70
     6
 70
     1
 70
     7
 70
     1
 70
     8
 70
     1
 70
     9
 70
     1
 70
    10
 70
     1
 70
    11
 70
     1
 40
0.0
 40
3.5
  0
ZWMDATUMIDSTD
  5
87AE1
330
87AB5
100
ZwmObject
 70
     1
  1

  1
GB08
  1

  1

 70
     0
100
ZwmStd
 70
     1
 70
     1
 70
     0
  1
GB08
  1
GB08
340
0
340
0
340
0
340
0
340
0
340
0
340
0
340
0
 70
    -1
 70
    -1
 70
    -1
 70
    -1
 70
    -1
 70
    -1
 70
    -1
 70
    -1
 70
    -1
 70
    -1
 70
    -1
 70
    -1
 70
    -1
 70
    -1
 70
    -1
 70
    -1
 90
       -1
 90
       -1
 90
       -1
 90
       -1
 90
       -1
 90
       -1
 90
       -1
 90
       -1
  1

  1

  1

  1

  1

  1

  1

  1

100
ZwmSymbolStd
 70
     1
340
0
340
0
340
0
340
0
340
0
340
0
340
0
340
0
 70
    -1
 70
    -1
 70
    -1
 70
    -1
 70
    -1
 70
    -1
 70
    -1
 70
    -1
 70
    -1
 70
    -1
 70
    -1
 70
    -1
 70
    -1
 70
    -1
 70
    -1
 70
    -1
 90
       -1
 90
       -1
 90
       -1
 90
       -1
 90
       -1
 90
       -1
 90
       -1
 90
       -1
  1

  1

  1

  1

  1

  1

  1

  1

100
ZwmDatumIdStd
 70
     1
 70
     1
  1
GB08
100
ZwmSymProperties
 70
     2
  1
GB08
  1
GB08
  1

  1
GB08.xml
 70
   251
 70
     1
 40
0.0
 40
3.5
 70
    -1
 70
    -1
 70
    -1
 70
    -1
 40
0.0
 70
    25
 70
    23
 70
     3
 70
     2
 70
    25
 70
    26
 70
     0
 70
    14
  1
2.5
  1
3.5
  1
5
  1
7
  1
10
  1
14
  1
20
  1
2.5
  1
3.5
  1
5
  1
7
  1
10
  1
14
  1
20
 70
     0
340
0
 40
1.0
 40
1.0
 40
1.0
 40
1.0
 40
1.0
 40
1.0
 40
3.5
 40
3.5
 40
3.5
 40
3.5
 40
3.5
 40
3.5
 70
    -1
 70
    -1
 70
    -1
 70
    -1
 70
    -1
 70
    -1
 70
    -1
 70
    -1
 70
    -1
 70
    -1
 70
    -1
 70
    -1
340
0
340
0
340
0
340
0
340
0
340
0
340
0
340
0
340
0
340
0
340
0
340
0
340
0
340
0
 70
    -1
 70
    -1
 70
    -1
 70
    -1
 70
    -1
 70
    -1
 70
    -1
 70
    -1
 70
    -1
 70
    -1
 70
    -1
 70
    -1
 70
    -1
 70
    -1
 70
    -1
 70
    -1
 90
       -1
 90
       -1
 90
       -1
 90
       -1
 90
       -1
 90
       -1
 90
       -1
 90
       -1
  1

  1

  1

  1

  1

  1

  1

  1

 70
     2
  1
EnableExplode
100
ZWMATTRIBUTEDEF
 70
     1
 70
     0
  1

  1

  1

  1
VT_BOOL
  1

  1

  1

 70
     0
 70
     0
 70
     0
 70
     0
 70
     1
 70
    11
 70
    50
 70
     0
 70
     1
 70
     2
 70
     0
 70
    -1
  1
SymTextSizeRatio
100
ZWMATTRIBUTEDEF
 70
     1
 70
     0
  1

  1

  1

  1
VT_R8
  1

  1

  1

 70
     0
 70
     0
 70
     0
 70
     0
 70
     1
 70
     5
 70
    50
 70
     0
 70
     1
 70
     2
 70
     0
 40
1.0
100
ZwmDatumIdProperties
 70
     1
 40
0.5
 40
3.5
  0
ZWMFEATUREIDSTD
  5
87AE2
330
87AB5
100
ZwmObject
 70
     1
  1

  1
GB
  1

  1

 70
     0
100
ZwmStd
 70
     1
 70
     1
 70
     0
  1
GB
  1
GB
340
0
340
0
340
0
340
0
340
0
340
0
340
0
340
0
 70
    -1
 70
    -1
 70
    -1
 70
    -1
 70
    -1
 70
    -1
 70
    -1
 70
    -1
 70
    -1
 70
    -1
 70
    -1
 70
    -1
 70
    -1
 70
    -1
 70
    -1
 70
    -1
 90
       -1
 90
       -1
 90
       -1
 90
       -1
 90
       -1
 90
       -1
 90
       -1
 90
       -1
  1

  1

  1

  1

  1

  1

  1

  1

100
ZwmSymbolStd
 70
     1
340
0
340
0
340
0
340
0
340
0
340
0
340
0
340
0
 70
    -1
 70
    -1
 70
    -1
 70
    -1
 70
    -1
 70
    -1
 70
    -1
 70
    -1
 70
    -1
 70
    -1
 70
    -1
 70
    -1
 70
    -1
 70
    -1
 70
    -1
 70
    -1
 90
       -1
 90
       -1
 90
       -1
 90
       -1
 90
       -1
 90
       -1
 90
       -1
 90
       -1
  1

  1

  1

  1

  1

  1

  1

  1

100
ZwmFeatureIdStd
 70
     1
 70
     1
  1
GB
100
ZwmSymProperties
 70
     2
  1
GB
  1
GB
  1

  1
GB.xml
 70
   272
 70
     1
 40
0.0
 40
0.0
 70
    -1
 70
    -1
 70
    -1
 70
    -1
 40
0.0
 70
     1
 70
    23
 70
    41
 70
     0
 70
     1
 70
     3
 70
     4
 70
     5
 70
     6
 70
     8
 70
     9
 70
    10
 70
    11
 70
    13
 70
    14
 70
    15
 70
    16
 70
    18
 70
    19
 70
    20
 70
    21
 70
    27
 70
    28
 70
    99
 70
   100
 70
   101
 70
   102
 70
   103
 70
   104
 70
   105
 70
   106
 70
   107
 70
   108
 70
   109
 70
   110
 70
   111
 70
   112
 70
   113
 70
   114
 70
   115
 70
   116
 70
   117
 70
   118
 70
   120
 70
     0
 70
    14
  1
2.5
  1
3.5
  1
5
  1
7
  1
10
  1
14
  1
20
  1
2.5
  1
3.5
  1
5
  1
7
  1
10
  1
14
  1
20
 70
     0
340
0
 40
1.0
 40
1.0
 40
1.0
 40
1.0
 40
1.0
 40
1.0
 40
3.5
 40
3.5
 40
3.5
 40
3.5
 40
3.5
 40
3.5
 70
    -1
 70
    -1
 70
    -1
 70
    -1
 70
    -1
 70
    -1
 70
    -1
 70
    -1
 70
    -1
 70
    -1
 70
    -1
 70
    -1
340
0
340
0
340
0
340
0
340
0
340
0
340
0
340
0
340
0
340
0
340
0
340
0
340
0
340
0
 70
    -1
 70
    -1
 70
    -1
 70
    -1
 70
    -1
 70
    -1
 70
    -1
 70
    -1
 70
    -1
 70
    -1
 70
    -1
 70
    -1
 70
    -1
 70
    -1
 70
    -1
 70
    -1
 90
       -1
 90
       -1
 90
       -1
 90
       -1
 90
       -1
 90
       -1
 90
       -1
 90
       -1
  1

  1

  1

  1

  1

  1

  1

  1

 70
     2
  1
EnableExplode
100
ZWMATTRIBUTEDEF
 70
     1
 70
     0
  1

  1

  1

  1
VT_BOOL
  1

  1

  1

 70
     0
 70
     0
 70
     0
 70
     0
 70
     1
 70
    11
 70
    50
 70
     0
 70
     1
 70
     2
 70
     0
 70
    -1
  1
SymTextSizeRatio
100
ZWMATTRIBUTEDEF
 70
     1
 70
     0
  1

  1

  1

  1
VT_R8
  1

  1

  1

 70
     0
 70
     0
 70
     0
 70
     0
 70
     1
 70
     5
 70
    50
 70
     0
 70
     1
 70
     2
 70
     0
 40
1.0
100
ZwmFeatureIdProperties
 70
     1
 40
3.5
 40
0.0
 40
3.5
  0
ZWMDATUMTARGETSTD
  5
87AE3
330
87AB5
100
ZwmObject
 70
     1
  1

  1
GB
  1

  1

 70
     0
100
ZwmStd
 70
     1
 70
     1
 70
     0
  1
GB
  1
GB
340
0
340
0
340
0
340
0
340
0
340
0
340
0
340
0
 70
    -1
 70
    -1
 70
    -1
 70
    -1
 70
    -1
 70
    -1
 70
    -1
 70
    -1
 70
    -1
 70
    -1
 70
    -1
 70
    -1
 70
    -1
 70
    -1
 70
    -1
 70
    -1
 90
       -1
 90
       -1
 90
       -1
 90
       -1
 90
       -1
 90
       -1
 90
       -1
 90
       -1
  1

  1

  1

  1

  1

  1

  1

  1

100
ZwmSymbolStd
 70
     1
340
0
340
0
340
0
340
0
340
0
340
0
340
0
340
0
 70
    -1
 70
    -1
 70
    -1
 70
    -1
 70
    -1
 70
    -1
 70
    -1
 70
    -1
 70
    -1
 70
    -1
 70
    -1
 70
    -1
 70
    -1
 70
    -1
 70
    -1
 70
    -1
 90
       -1
 90
       -1
 90
       -1
 90
       -1
 90
       -1
 90
       -1
 90
       -1
 90
       -1
  1

  1

  1

  1

  1

  1

  1

  1

100
ZwmDatumTargetStd
 70
     1
 70
     1
  1
GB
100
ZwmSymProperties
 70
     2
  1
GB
  1
GB
  1

  1
GB.xml
 70
   302
 70
     1
 40
0.0
 40
0.0
 70
    -1
 70
    -1
 70
    -1
 70
    -1
 40
0.0
 70
     1
 70
    23
 70
    39
 70
     0
 70
     3
 70
     4
 70
     5
 70
     6
 70
     8
 70
     9
 70
    10
 70
    11
 70
    13
 70
    14
 70
    15
 70
    16
 70
    18
 70
    19
 70
    20
 70
    21
 70
    27
 70
    28
 70
   100
 70
   101
 70
   102
 70
   103
 70
   104
 70
   105
 70
   106
 70
   107
 70
   108
 70
   109
 70
   110
 70
   111
 70
   112
 70
   113
 70
   114
 70
   115
 70
   116
 70
   117
 70
   118
 70
   120
 70
     0
 70
    14
  1
2.5
  1
3.5
  1
5
  1
7
  1
10
  1
14
  1
20
  1
2.5
  1
3.5
  1
5
  1
7
  1
10
  1
14
  1
20
 70
     0
340
0
 40
1.0
 40
1.0
 40
1.0
 40
1.0
 40
1.0
 40
1.0
 40
3.5
 40
3.5
 40
3.5
 40
3.5
 40
3.5
 40
3.5
 70
    -1
 70
    -1
 70
    -1
 70
    -1
 70
    -1
 70
    -1
 70
    -1
 70
    -1
 70
    -1
 70
    -1
 70
    -1
 70
    -1
340
0
340
0
340
0
340
0
340
0
340
0
340
0
340
0
340
0
340
0
340
0
340
0
340
0
340
0
 70
    -1
 70
    -1
 70
    -1
 70
    -1
 70
    -1
 70
    -1
 70
    -1
 70
    -1
 70
    -1
 70
    -1
 70
    -1
 70
    -1
 70
    -1
 70
    -1
 70
    -1
 70
    -1
 90
       -1
 90
       -1
 90
       -1
 90
       -1
 90
       -1
 90
       -1
 90
       -1
 90
       -1
  1

  1

  1

  1

  1

  1

  1

  1

 70
     2
  1
EnableExplode
100
ZWMATTRIBUTEDEF
 70
     1
 70
     0
  1

  1

  1

  1
VT_BOOL
  1

  1

  1

 70
     0
 70
     0
 70
     0
 70
     0
 70
     1
 70
    11
 70
    50
 70
     0
 70
     1
 70
     2
 70
     0
 70
    -1
  1
SymTextSizeRatio
100
ZWMATTRIBUTEDEF
 70
     1
 70
     0
  1

  1

  1

  1
VT_R8
  1

  1

  1

 70
     0
 70
     0
 70
     0
 70
     0
 70
     1
 70
     5
 70
    50
 70
     0
 70
     1
 70
     2
 70
     0
 40
1.0
100
ZwmDatumTargetProperties
 70
     1
 40
3.0
 40
3.0
 40
45.0
340
4A76F
340
4A770
 70
     1
 70
     3
  0
ZWMTAPERSLOPESTD
  5
87AE4
330
87AB5
100
ZwmObject
 70
     1
  1

  1
GB
  1

  1

 70
     0
100
ZwmStd
 70
     1
 70
     1
 70
     0
  1
GB
  1
GB
340
0
340
0
340
0
340
0
340
0
340
0
340
0
340
0
 70
    -1
 70
    -1
 70
    -1
 70
    -1
 70
    -1
 70
    -1
 70
    -1
 70
    -1
 70
    -1
 70
    -1
 70
    -1
 70
    -1
 70
    -1
 70
    -1
 70
    -1
 70
    -1
 90
       -1
 90
       -1
 90
       -1
 90
       -1
 90
       -1
 90
       -1
 90
       -1
 90
       -1
  1

  1

  1

  1

  1

  1

  1

  1

100
ZwmSymbolStd
 70
     1
340
0
340
0
340
0
340
0
340
0
340
0
340
0
340
0
 70
    -1
 70
    -1
 70
    -1
 70
    -1
 70
    -1
 70
    -1
 70
    -1
 70
    -1
 70
    -1
 70
    -1
 70
    -1
 70
    -1
 70
    -1
 70
    -1
 70
    -1
 70
    -1
 90
       -1
 90
       -1
 90
       -1
 90
       -1
 90
       -1
 90
       -1
 90
       -1
 90
       -1
  1

  1

  1

  1

  1

  1

  1

  1

100
ZwmTaperSlopeStd
 70
     1
 70
     1
  1
GB
100
ZwmSymProperties
 70
     2
  1
GB
  1
GB
  1

  1
GB.xml
 70
   352
 70
     1
 40
0.0
 40
0.0
 70
    -1
 70
    -1
 70
    -1
 70
    -1
 40
0.0
 70
     1
 70
    23
 70
    40
 70
     0
 70
     1
 70
     3
 70
     4
 70
     5
 70
     6
 70
     8
 70
     9
 70
    10
 70
    11
 70
    13
 70
    14
 70
    15
 70
    16
 70
    18
 70
    19
 70
    20
 70
    21
 70
    27
 70
    28
 70
   100
 70
   101
 70
   102
 70
   103
 70
   104
 70
   105
 70
   106
 70
   107
 70
   108
 70
   109
 70
   110
 70
   111
 70
   112
 70
   113
 70
   114
 70
   115
 70
   116
 70
   117
 70
   118
 70
   120
 70
     0
 70
    14
  1
2.5
  1
3.5
  1
5
  1
7
  1
10
  1
14
  1
20
  1
2.5
  1
3.5
  1
5
  1
7
  1
10
  1
14
  1
20
 70
     0
340
0
 40
1.0
 40
1.0
 40
1.0
 40
1.0
 40
1.0
 40
1.0
 40
3.5
 40
3.5
 40
3.5
 40
3.5
 40
3.5
 40
3.5
 70
    -1
 70
    -1
 70
    -1
 70
    -1
 70
    -1
 70
    -1
 70
    -1
 70
    -1
 70
    -1
 70
    -1
 70
    -1
 70
    -1
340
0
340
0
340
0
340
0
340
0
340
0
340
0
340
0
340
0
340
0
340
0
340
0
340
0
340
0
 70
    -1
 70
    -1
 70
    -1
 70
    -1
 70
    -1
 70
    -1
 70
    -1
 70
    -1
 70
    -1
 70
    -1
 70
    -1
 70
    -1
 70
    -1
 70
    -1
 70
    -1
 70
    -1
 90
       -1
 90
       -1
 90
       -1
 90
       -1
 90
       -1
 90
       -1
 90
       -1
 90
       -1
  1

  1

  1

  1

  1

  1

  1

  1

 70
     2
  1
EnableExplode
100
ZWMATTRIBUTEDEF
 70
     1
 70
     0
  1

  1

  1

  1
VT_BOOL
  1

  1

  1

 70
     0
 70
     0
 70
     0
 70
     0
 70
     1
 70
    11
 70
    50
 70
     0
 70
     1
 70
     2
 70
     0
 70
    -1
  1
SymTextSizeRatio
100
ZWMATTRIBUTEDEF
 70
     1
 70
     0
  1

  1

  1

  1
VT_R8
  1

  1

  1

 70
     0
 70
     0
 70
     0
 70
     0
 70
     1
 70
     5
 70
    50
 70
     0
 70
     1
 70
     2
 70
     0
 40
1.0
100
ZwmTaperSlopeProperties
 70
     1
 70
     0
 70
     0
 70
     0
 70
     1
 70
     0
 70
     0
 70
     0
 70
     0
 70
     1
 70
     1
 70
     1
  0
ZWMCENTERHOLESTD
  5
87AE5
330
87AB5
100
ZwmObject
 70
     1
  1

  1
GB
  1

  1

 70
     0
100
ZwmStd
 70
     1
 70
     1
 70
     0
  1
GB
  1
GB
340
0
340
0
340
0
340
0
340
0
340
0
340
0
340
0
 70
    -1
 70
    -1
 70
    -1
 70
    -1
 70
    -1
 70
    -1
 70
    -1
 70
    -1
 70
    -1
 70
    -1
 70
    -1
 70
    -1
 70
    -1
 70
    -1
 70
    -1
 70
    -1
 90
       -1
 90
       -1
 90
       -1
 90
       -1
 90
       -1
 90
       -1
 90
       -1
 90
       -1
  1

  1

  1

  1

  1

  1

  1

  1

100
ZwmSymbolStd
 70
     1
340
0
340
0
340
0
340
0
340
0
340
0
340
0
340
0
 70
    -1
 70
    -1
 70
    -1
 70
    -1
 70
    -1
 70
    -1
 70
    -1
 70
    -1
 70
    -1
 70
    -1
 70
    -1
 70
    -1
 70
    -1
 70
    -1
 70
    -1
 70
    -1
 90
       -1
 90
       -1
 90
       -1
 90
       -1
 90
       -1
 90
       -1
 90
       -1
 90
       -1
  1

  1

  1

  1

  1

  1

  1

  1

100
ZwmCenterHoleStd
 70
     1
 70
     1
  1
GB
100
ZwmSymProperties
 70
     2
  1
GB
  1
GB
  1

  1
GB.xml
 70
   602
 70
     1
 40
0.0
 40
0.0
 70
    -1
 70
    -1
 70
    -1
 70
    -1
 40
0.0
 70
     1
 70
    23
 70
    40
 70
     0
 70
     1
 70
     3
 70
     4
 70
     5
 70
     6
 70
     8
 70
     9
 70
    10
 70
    11
 70
    13
 70
    14
 70
    15
 70
    16
 70
    18
 70
    19
 70
    20
 70
    21
 70
    27
 70
    28
 70
   100
 70
   101
 70
   102
 70
   103
 70
   104
 70
   105
 70
   106
 70
   107
 70
   108
 70
   109
 70
   110
 70
   111
 70
   112
 70
   113
 70
   114
 70
   115
 70
   116
 70
   117
 70
   118
 70
   120
 70
     0
 70
    14
  1
2.5
  1
3.5
  1
5
  1
7
  1
10
  1
14
  1
20
  1
2.5
  1
3.5
  1
5
  1
7
  1
10
  1
14
  1
20
 70
     0
340
0
 40
1.0
 40
1.0
 40
1.0
 40
1.0
 40
1.0
 40
1.0
 40
3.5
 40
3.5
 40
3.5
 40
3.5
 40
3.5
 40
3.5
 70
    -1
 70
    -1
 70
    -1
 70
    -1
 70
    -1
 70
    -1
 70
    -1
 70
    -1
 70
    -1
 70
    -1
 70
    -1
 70
    -1
340
0
340
0
340
0
340
0
340
0
340
0
340
0
340
0
340
0
340
0
340
0
340
0
340
0
340
0
 70
    -1
 70
    -1
 70
    -1
 70
    -1
 70
    -1
 70
    -1
 70
    -1
 70
    -1
 70
    -1
 70
    -1
 70
    -1
 70
    -1
 70
    -1
 70
    -1
 70
    -1
 70
    -1
 90
       -1
 90
       -1
 90
       -1
 90
       -1
 90
       -1
 90
       -1
 90
       -1
 90
       -1
  1

  1

  1

  1

  1

  1

  1

  1

 70
     2
  1
EnableExplode
100
ZWMATTRIBUTEDEF
 70
     1
 70
     0
  1

  1

  1

  1
VT_BOOL
  1

  1

  1

 70
     0
 70
     0
 70
     0
 70
     0
 70
     1
 70
    11
 70
    50
 70
     0
 70
     1
 70
     2
 70
     0
 70
    -1
  1
SymTextSizeRatio
100
ZWMATTRIBUTEDEF
 70
     1
 70
     0
  1

  1

  1

  1
VT_R8
  1

  1

  1

 70
     0
 70
     0
 70
     0
 70
     0
 70
     1
 70
     5
 70
    50
 70
     0
 70
     1
 70
     2
 70
     0
 40
1.0
100
ZwmCenterHoleProperties
 70
     1
 70
    36
  1
R1.0/2.12
  1
R1.25/2.65
  1
R1.6/3.35
  1
R2.0/4.25
  1
R2.5/5.3
  1
R3.15/6.7
  1
R4.0/8.5
  1
R5.0/10.6
  1
R6.3/13.2
  1
R8.0/17.0
  1
R10.0/21.2
  1
A0.5/A1.06
  1
A0.63/1.32
  1
A0.8/1.70
  1
A1.0/2.12
  1
A1.25/2.65
  1
A1.6/3.35
  1
A2.0/4.25
  1
A2.5/5.3
  1
A3.15/6.7
  1
A4.0/8.5
  1
A5.0/10.6
  1
A6.3/13.2
  1
A8.0/17.0
  1
A10.0/21.2
  1
B1.0/3.15
  1
B1.25/4
  1
B1.6/5
  1
B2.0/6.3
  1
B2.5/8
  1
B3.15/10
  1
B4.0/12.5
  1
B5.0/16
  1
B6.3/18
  1
B8.0/22.4
  1
B10.0/28
 70
     1
  1
GB/T 4459.5
  0
ZWMCHAMFERSTD
  5
87AE6
330
87AB5
100
ZwmObject
 70
     1
  1

  1
GB
  1

  1

 70
     0
100
ZwmStd
 70
     1
 70
     1
 70
     0
  1
GB
  1
GB
340
0
340
0
340
0
340
0
340
0
340
0
340
0
340
0
 70
    -1
 70
    -1
 70
    -1
 70
    -1
 70
    -1
 70
    -1
 70
    -1
 70
    -1
 70
    -1
 70
    -1
 70
    -1
 70
    -1
 70
    -1
 70
    -1
 70
    -1
 70
    -1
 90
       -1
 90
       -1
 90
       -1
 90
       -1
 90
       -1
 90
       -1
 90
       -1
 90
       -1
  1

  1

  1

  1

  1

  1

  1

  1

100
ZwmSymbolStd
 70
     1
340
0
340
0
340
0
340
0
340
0
340
0
340
0
340
0
 70
    -1
 70
    -1
 70
    -1
 70
    -1
 70
    -1
 70
    -1
 70
    -1
 70
    -1
 70
    -1
 70
    -1
 70
    -1
 70
    -1
 70
    -1
 70
    -1
 70
    -1
 70
    -1
 90
       -1
 90
       -1
 90
       -1
 90
       -1
 90
       -1
 90
       -1
 90
       -1
 90
       -1
  1

  1

  1

  1

  1

  1

  1

  1

100
ZwmChamferStd
 70
     1
 70
     1
  1
GB
100
ZwmSymProperties
 70
     2
  1
GB
  1
GB
  1

  1
GB.xml
 70
   612
 70
     1
 40
0.0
 40
0.0
 70
    -1
 70
    -1
 70
    -1
 70
    -1
 40
0.0
 70
     1
 70
    23
 70
    40
 70
     0
 70
     1
 70
     3
 70
     4
 70
     5
 70
     6
 70
     8
 70
     9
 70
    10
 70
    11
 70
    13
 70
    14
 70
    15
 70
    16
 70
    18
 70
    19
 70
    20
 70
    21
 70
    27
 70
    28
 70
   100
 70
   101
 70
   102
 70
   103
 70
   104
 70
   105
 70
   106
 70
   107
 70
   108
 70
   109
 70
   110
 70
   111
 70
   112
 70
   113
 70
   114
 70
   115
 70
   116
 70
   117
 70
   118
 70
   120
 70
     0
 70
    14
  1
2.5
  1
3.5
  1
5
  1
7
  1
10
  1
14
  1
20
  1
2.5
  1
3.5
  1
5
  1
7
  1
10
  1
14
  1
20
 70
     0
340
0
 40
1.0
 40
1.0
 40
1.0
 40
1.0
 40
1.0
 40
1.0
 40
3.5
 40
3.5
 40
3.5
 40
3.5
 40
3.5
 40
3.5
 70
    -1
 70
    -1
 70
    -1
 70
    -1
 70
    -1
 70
    -1
 70
    -1
 70
    -1
 70
    -1
 70
    -1
 70
    -1
 70
    -1
340
0
340
0
340
0
340
0
340
0
340
0
340
0
340
0
340
0
340
0
340
0
340
0
340
0
340
0
 70
    -1
 70
    -1
 70
    -1
 70
    -1
 70
    -1
 70
    -1
 70
    -1
 70
    -1
 70
    -1
 70
    -1
 70
    -1
 70
    -1
 70
    -1
 70
    -1
 70
    -1
 70
    -1
 90
       -1
 90
       -1
 90
       -1
 90
       -1
 90
       -1
 90
       -1
 90
       -1
 90
       -1
  1

  1

  1

  1

  1

  1

  1

  1

 70
    11
  1
DIMALTU
100
ZWMATTRIBUTEDEF
 70
     1
 70
     0
  1

  1

  1

  1
VT_I2
  1

  1

  1

 70
     0
 70
     0
 70
     0
 70
     0
 70
     1
 70
     2
 70
    50
 70
     0
 70
     1
 70
     2
 70
     0
 70
     2
  1
DIMALTZ
100
ZWMATTRIBUTEDEF
 70
     1
 70
     0
  1

  1

  1

  1
VT_I2
  1

  1

  1

 70
     0
 70
     0
 70
     0
 70
     0
 70
     1
 70
     2
 70
    50
 70
     0
 70
     1
 70
     2
 70
     0
 70
     8
  1
DIMALTTZ
100
ZWMATTRIBUTEDEF
 70
     1
 70
     0
  1

  1

  1

  1
VT_I2
  1

  1

  1

 70
     0
 70
     0
 70
     0
 70
     0
 70
     1
 70
     2
 70
    50
 70
     0
 70
     1
 70
     2
 70
     0
 70
     0
  1
DIMALTRND
100
ZWMATTRIBUTEDEF
 70
     1
 70
     0
  1

  1

  1

  1
VT_R8
  1

  1

  1

 70
     0
 70
     0
 70
     0
 70
     0
 70
     1
 70
     5
 70
    50
 70
     0
 70
     1
 70
     2
 70
     0
 40
0.0
  1
DIMALTF
100
ZWMATTRIBUTEDEF
 70
     1
 70
     0
  1

  1

  1

  1
VT_R8
  1

  1

  1

 70
     0
 70
     0
 70
     0
 70
     0
 70
     1
 70
     5
 70
    50
 70
     0
 70
     1
 70
     2
 70
     0
 40
0.03937007874016
  1
EnableExplode
100
ZWMATTRIBUTEDEF
 70
     1
 70
     0
  1

  1

  1

  1
VT_BOOL
  1

  1

  1

 70
     0
 70
     0
 70
     0
 70
     0
 70
     1
 70
    11
 70
    50
 70
     0
 70
     1
 70
     2
 70
     0
 70
    -1
  1
DIMAPOST
100
ZWMATTRIBUTEDEF
 70
     1
 70
     0
  1

  1

  1

  1
VT_BSTR
  1

  1

  1

 70
     0
 70
     0
 70
     0
 70
     0
 70
     1
 70
     8
 70
    50
 70
     0
 70
     1
 70
     2
 70
     0
  1
[]"
  1
DIMALTD
100
ZWMATTRIBUTEDEF
 70
     1
 70
     0
  1

  1

  1

  1
VT_I2
  1

  1

  1

 70
     0
 70
     0
 70
     0
 70
     0
 70
     1
 70
     2
 70
    50
 70
     0
 70
     1
 70
     2
 70
     0
 70
     2
  1
DIMALTTD
100
ZWMATTRIBUTEDEF
 70
     1
 70
     0
  1

  1

  1

  1
VT_I2
  1

  1

  1

 70
     0
 70
     0
 70
     0
 70
     0
 70
     1
 70
     2
 70
    50
 70
     0
 70
     1
 70
     2
 70
     0
 70
     4
  1
DIMALT
100
ZWMATTRIBUTEDEF
 70
     1
 70
     0
  1

  1

  1

  1
VT_BOOL
  1

  1

  1

 70
     0
 70
     0
 70
     0
 70
     0
 70
     1
 70
    11
 70
    50
 70
     0
 70
     1
 70
     2
 70
     0
 70
    -1
  1
SymTextSizeRatio
100
ZWMATTRIBUTEDEF
 70
     1
 70
     0
  1

  1

  1

  1
VT_R8
  1

  1

  1

 70
     0
 70
     0
 70
     0
 70
     0
 70
     1
 70
     5
 70
    50
 70
     0
 70
     1
 70
     2
 70
     0
 40
1.0
100
ZwmChamferProperties
 70
     1
 70
     2
  1
内倒角
  1
外倒角
 70
     2
  1
内倒角
  1
外倒角
  0
ZWMCIRCLEMARKSTD
  5
87AE7
330
87AB5
100
ZwmObject
 70
     1
  1

  1
GB
  1

  1

 70
     0
100
ZwmStd
 70
     1
 70
     1
 70
     0
  1
GB
  1
GB
340
0
340
0
340
0
340
0
340
0
340
0
340
0
340
0
 70
    -1
 70
    -1
 70
    -1
 70
    -1
 70
    -1
 70
    -1
 70
    -1
 70
    -1
 70
    -1
 70
    -1
 70
    -1
 70
    -1
 70
    -1
 70
    -1
 70
    -1
 70
    -1
 90
       -1
 90
       -1
 90
       -1
 90
       -1
 90
       -1
 90
       -1
 90
       -1
 90
       -1
  1

  1

  1

  1

  1

  1

  1

  1

100
ZwmSymbolStd
 70
     1
340
0
340
0
340
0
340
0
340
0
340
0
340
0
340
0
 70
    -1
 70
    -1
 70
    -1
 70
    -1
 70
    -1
 70
    -1
 70
    -1
 70
    -1
 70
    -1
 70
    -1
 70
    -1
 70
    -1
 70
    -1
 70
    -1
 70
    -1
 70
    -1
 90
       -1
 90
       -1
 90
       -1
 90
       -1
 90
       -1
 90
       -1
 90
       -1
 90
       -1
  1

  1

  1

  1

  1

  1

  1

  1

100
ZwmCircleMarkStd
 70
     1
 70
     1
  1
GB
100
ZwmSymProperties
 70
     2
  1
GB
  1
GB
  1

  1
GB.xml
 70
   622
 70
     1
 40
3.5
 40
0.0
 70
    -1
 70
    -1
 70
    -1
 70
    -1
 40
0.0
 70
     0
 70
     0
 70
     0
 70
     0
 70
     0
 70
     0
340
0
 40
1.0
 40
1.0
 40
1.0
 40
1.0
 40
1.0
 40
1.0
 40
3.5
 40
3.5
 40
3.5
 40
3.5
 40
3.5
 40
3.5
 70
    -1
 70
    -1
 70
    -1
 70
    -1
 70
    -1
 70
    -1
 70
    -1
 70
    -1
 70
    -1
 70
    -1
 70
    -1
 70
    -1
340
0
340
0
340
0
340
0
340
0
340
0
340
0
340
0
340
0
340
0
340
0
340
0
340
0
340
0
 70
    -1
 70
    -1
 70
    -1
 70
    -1
 70
    -1
 70
    -1
 70
    -1
 70
    -1
 70
    -1
 70
    -1
 70
    -1
 70
    -1
 70
    -1
 70
    -1
 70
    -1
 70
    -1
 90
       -1
 90
       -1
 90
       -1
 90
       -1
 90
       -1
 90
       -1
 90
       -1
 90
       -1
  1

  1

  1

  1

  1

  1

  1

  1

 70
     0
100
ZwmCircleMarkProperties
 70
     1
 70
     0
  0
ZWMWELDINGSTD
  5
87AE8
330
87AB5
100
ZwmObject
 70
     1
  1

  1
GB
  1

  1

 70
     0
100
ZwmStd
 70
     1
 70
     1
 70
     0
  1
GB
  1
GB
340
0
340
0
340
0
340
0
340
0
340
0
340
0
340
0
 70
    -1
 70
    -1
 70
    -1
 70
    -1
 70
    -1
 70
    -1
 70
    -1
 70
    -1
 70
    -1
 70
    -1
 70
    -1
 70
    -1
 70
    -1
 70
    -1
 70
    -1
 70
    -1
 90
       -1
 90
       -1
 90
       -1
 90
       -1
 90
       -1
 90
       -1
 90
       -1
 90
       -1
  1

  1

  1

  1

  1

  1

  1

  1

100
ZwmSymbolStd
 70
     1
340
0
340
0
340
0
340
0
340
0
340
0
340
0
340
0
 70
    -1
 70
    -1
 70
    -1
 70
    -1
 70
    -1
 70
    -1
 70
    -1
 70
    -1
 70
    -1
 70
    -1
 70
    -1
 70
    -1
 70
    -1
 70
    -1
 70
    -1
 70
    -1
 90
       -1
 90
       -1
 90
       -1
 90
       -1
 90
       -1
 90
       -1
 90
       -1
 90
       -1
  1

  1

  1

  1

  1

  1

  1

  1

100
ZwmWeldingStd
 70
     1
 70
     1
  1
GB
100
ZwmSymProperties
 70
     2
  1
GB
  1
GB
  1

  1
GB.xml
 70
   552
 70
     1
 40
0.0
 40
0.0
 70
    -1
 70
    -1
 70
    -1
 70
    -1
 40
0.0
 70
     1
 70
     0
 70
    40
 70
     0
 70
     1
 70
     3
 70
     4
 70
     5
 70
     6
 70
     8
 70
     9
 70
    10
 70
    11
 70
    13
 70
    14
 70
    15
 70
    16
 70
    18
 70
    19
 70
    20
 70
    21
 70
    27
 70
    28
 70
   100
 70
   101
 70
   102
 70
   103
 70
   104
 70
   105
 70
   106
 70
   107
 70
   108
 70
   109
 70
   110
 70
   111
 70
   112
 70
   113
 70
   114
 70
   115
 70
   116
 70
   117
 70
   118
 70
   120
 70
     0
 70
    14
  1
2.5
  1
3.5
  1
5
  1
7
  1
10
  1
14
  1
20
  1
2.5
  1
3.5
  1
5
  1
7
  1
10
  1
14
  1
20
 70
     0
340
0
 40
1.0
 40
0.7
 40
1.0
 40
1.0
 40
1.0
 40
1.0
 40
3.5
 40
3.5
 40
3.5
 40
3.5
 40
3.5
 40
3.5
 70
    -1
 70
    -1
 70
    -1
 70
    -1
 70
    -1
 70
    -1
 70
    -1
 70
    -1
 70
    -1
 70
    -1
 70
    -1
 70
    -1
340
0
340
0
340
0
340
0
340
0
340
0
340
0
340
0
340
0
340
0
340
0
340
0
340
0
340
0
 70
    -1
 70
    -1
 70
    -1
 70
    -1
 70
    -1
 70
    -1
 70
    -1
 70
    -1
 70
    -1
 70
    -1
 70
    -1
 70
    -1
 70
    -1
 70
    -1
 70
    -1
 70
    -1
 90
       -1
 90
       -1
 90
       -1
 90
       -1
 90
       -1
 90
       -1
 90
       -1
 90
       -1
  1

  1

  1

  1

  1

  1

  1

  1

 70
    11
  1
DIMALTU
100
ZWMATTRIBUTEDEF
 70
     1
 70
     0
  1

  1

  1

  1
VT_I2
  1

  1

  1

 70
     0
 70
     0
 70
     0
 70
     0
 70
     1
 70
     2
 70
    50
 70
     0
 70
     1
 70
     2
 70
     0
 70
     2
  1
DIMALTZ
100
ZWMATTRIBUTEDEF
 70
     1
 70
     0
  1

  1

  1

  1
VT_I2
  1

  1

  1

 70
     0
 70
     0
 70
     0
 70
     0
 70
     1
 70
     2
 70
    50
 70
     0
 70
     1
 70
     2
 70
     0
 70
     8
  1
DIMALTTZ
100
ZWMATTRIBUTEDEF
 70
     1
 70
     0
  1

  1

  1

  1
VT_I2
  1

  1

  1

 70
     0
 70
     0
 70
     0
 70
     0
 70
     1
 70
     2
 70
    50
 70
     0
 70
     1
 70
     2
 70
     0
 70
     0
  1
DIMALTRND
100
ZWMATTRIBUTEDEF
 70
     1
 70
     0
  1

  1

  1

  1
VT_R8
  1

  1

  1

 70
     0
 70
     0
 70
     0
 70
     0
 70
     1
 70
     5
 70
    50
 70
     0
 70
     1
 70
     2
 70
     0
 40
0.0
  1
DIMALTF
100
ZWMATTRIBUTEDEF
 70
     1
 70
     0
  1

  1

  1

  1
VT_R8
  1

  1

  1

 70
     0
 70
     0
 70
     0
 70
     0
 70
     1
 70
     5
 70
    50
 70
     0
 70
     1
 70
     2
 70
     0
 40
0.03937007874016
  1
EnableExplode
100
ZWMATTRIBUTEDEF
 70
     1
 70
     0
  1

  1

  1

  1
VT_BOOL
  1

  1

  1

 70
     0
 70
     0
 70
     0
 70
     0
 70
     1
 70
    11
 70
    50
 70
     0
 70
     1
 70
     2
 70
     0
 70
    -1
  1
DIMAPOST
100
ZWMATTRIBUTEDEF
 70
     1
 70
     0
  1

  1

  1

  1
VT_BSTR
  1

  1

  1

 70
     0
 70
     0
 70
     0
 70
     0
 70
     1
 70
     8
 70
    50
 70
     0
 70
     1
 70
     2
 70
     0
  1
[]"
  1
DIMALTD
100
ZWMATTRIBUTEDEF
 70
     1
 70
     0
  1

  1

  1

  1
VT_I2
  1

  1

  1

 70
     0
 70
     0
 70
     0
 70
     0
 70
     1
 70
     2
 70
    50
 70
     0
 70
     1
 70
     2
 70
     0
 70
     2
  1
DIMALTTD
100
ZWMATTRIBUTEDEF
 70
     1
 70
     0
  1

  1

  1

  1
VT_I2
  1

  1

  1

 70
     0
 70
     0
 70
     0
 70
     0
 70
     1
 70
     2
 70
    50
 70
     0
 70
     1
 70
     2
 70
     0
 70
     4
  1
DIMALT
100
ZWMATTRIBUTEDEF
 70
     1
 70
     0
  1

  1

  1

  1
VT_BOOL
  1

  1

  1

 70
     0
 70
     0
 70
     0
 70
     0
 70
     1
 70
    11
 70
    50
 70
     0
 70
     1
 70
     2
 70
     0
 70
    -1
  1
SymTextSizeRatio
100
ZWMATTRIBUTEDEF
 70
     1
 70
     0
  1

  1

  1

  1
VT_R8
  1

  1

  1

 70
     0
 70
     0
 70
     0
 70
     0
 70
     1
 70
     5
 70
    50
 70
     0
 70
     1
 70
     2
 70
     0
 40
1.0
100
ZwmWeldingProperties
 70
     1
340
4A771
 40
0.7
 70
    24
 70
    48
 70
     1
 70
    49
 70
     1
 70
    50
 70
     1
 70
    51
 70
     1
 70
    52
 70
     1
 70
    53
 70
     1
 70
    54
 70
     1
 70
    55
 70
     1
 70
    56
 70
     1
 70
    57
 70
     1
 70
    58
 70
     1
 70
    59
 70
     1
 70
    60
 70
     1
 70
    61
 70
     1
 70
    62
 70
     1
 70
    63
 70
     1
 70
    64
 70
     1
 70
    65
 70
     1
 70
    66
 70
     1
 70
    67
 70
     1
 70
    68
 70
     1
 70
    69
 70
     1
 70
   116
 70
     1
 70
   117
 70
     1
 70
     5
 70
    70
 70
     1
 70
    71
 70
     1
 70
    72
 70
     1
 70
    73
 70
     1
 70
    74
 70
     1
 70
     3
 70
    75
 70
     1
 70
    76
 70
     1
 70
    77
 70
     1
  0
ZWMDETAILSTD
  5
87AE9
330
87AB5
100
ZwmObject
 70
     1
  1

  1
GB
  1

  1

 70
     0
100
ZwmStd
 70
     1
 70
     1
 70
     0
  1
GB
  1
GB
340
0
340
0
340
0
340
0
340
0
340
0
340
0
340
0
 70
    -1
 70
    -1
 70
    -1
 70
    -1
 70
    -1
 70
    -1
 70
    -1
 70
    -1
 70
    -1
 70
    -1
 70
    -1
 70
    -1
 70
    -1
 70
    -1
 70
    -1
 70
    -1
 90
       -1
 90
       -1
 90
       -1
 90
       -1
 90
       -1
 90
       -1
 90
       -1
 90
       -1
  1

  1

  1

  1

  1

  1

  1

  1

100
ZwmSymbolStd
 70
     1
340
0
340
0
340
0
340
0
340
0
340
0
340
0
340
0
 70
    -1
 70
    -1
 70
    -1
 70
    -1
 70
    -1
 70
    -1
 70
    -1
 70
    -1
 70
    -1
 70
    -1
 70
    -1
 70
    -1
 70
    -1
 70
    -1
 70
    -1
 70
    -1
 90
       -1
 90
       -1
 90
       -1
 90
       -1
 90
       -1
 90
       -1
 90
       -1
 90
       -1
  1

  1

  1

  1

  1

  1

  1

  1

100
ZwmDetailStd
 70
     1
 70
     1
  1
GB
100
ZwmSymProperties
 70
     2
  1
GB
  1
GB
  1

  1
GB.xml
 70
   752
 70
     1
 40
0.0
 40
1.0
 70
    -1
 70
    -1
 70
    -1
 70
    -1
 40
0.0
 70
     0
 70
     0
 70
     0
 70
     0
 70
     7
  1
2.5
  1
3.5
  1
5
  1
7
  1
10
  1
14
  1
20
 70
     0
340
0
 40
1.0
 40
1.0
 40
1.0
 40
1.0
 40
1.0
 40
1.0
 40
3.5
 40
3.5
 40
3.5
 40
3.5
 40
3.5
 40
3.5
 70
    -1
 70
    -1
 70
    -1
 70
    -1
 70
    -1
 70
    -1
 70
    -1
 70
    -1
 70
    -1
 70
    -1
 70
    -1
 70
    -1
340
0
340
0
340
0
340
0
340
0
340
0
340
0
340
0
340
0
340
0
340
0
340
0
340
0
340
0
 70
    -1
 70
    -1
 70
    -1
 70
    -1
 70
    -1
 70
    -1
 70
    -1
 70
    -1
 70
    -1
 70
    -1
 70
    -1
 70
    -1
 70
    -1
 70
    -1
 70
    -1
 70
    -1
 90
       -1
 90
       -1
 90
       -1
 90
       -1
 90
       -1
 90
       -1
 90
       -1
 90
       -1
  1

  1

  1

  1

  1

  1

  1

  1

 70
     2
  1
EnableExplode
100
ZWMATTRIBUTEDEF
 70
     1
 70
     0
  1

  1

  1

  1
VT_BOOL
  1

  1

  1

 70
     0
 70
     0
 70
     0
 70
     0
 70
     1
 70
    11
 70
    50
 70
     0
 70
     1
 70
     2
 70
     0
 70
    -1
  1
SymTextSizeRatio
100
ZWMATTRIBUTEDEF
 70
     1
 70
     0
  1

  1

  1

  1
VT_R8
  1

  1

  1

 70
     0
 70
     0
 70
     0
 70
     0
 70
     1
 70
     5
 70
    50
 70
     0
 70
     1
 70
     2
 70
     0
 40
1.0
100
ZwmDetailProperties
 70
     2
340
16
 70
     1
 70
     1
 70
     0
  1
[DETAIL_LABEL]\P\O[DETAIL_ABSSCALE]
 70
     2
 70
     9
  1
1000:1
  1
500:1
  1
200:1
  1
100:1
  1
50:1
  1
20:1
  1
10:1
  1
5:1
  1
2:1
 70
    12
  1
Ⅰ
  1
Ⅱ
  1
Ⅲ
  1
Ⅳ
  1
Ⅴ
  1
Ⅵ
  1
Ⅶ
  1
Ⅷ
  1
Ⅸ
  1
Ⅹ
  1
\U+216A
  1
\U+216B
  0
ZWMSECTIONSYMSTD
  5
87AEA
330
87AB5
100
ZwmObject
 70
     1
  1

  1
GB1998
  1

  1

 70
     0
100
ZwmStd
 70
     1
 70
     1
 70
     0
  1
GB1998
  1
GB1998
340
0
340
0
340
0
340
0
340
0
340
0
340
0
340
0
 70
    -1
 70
    -1
 70
    -1
 70
    -1
 70
    -1
 70
    -1
 70
    -1
 70
    -1
 70
    -1
 70
    -1
 70
    -1
 70
    -1
 70
    -1
 70
    -1
 70
    -1
 70
    -1
 90
       -1
 90
       -1
 90
       -1
 90
       -1
 90
       -1
 90
       -1
 90
       -1
 90
       -1
  1

  1

  1

  1

  1

  1

  1

  1

100
ZwmSymbolStd
 70
     1
340
0
340
0
340
0
340
0
340
0
340
0
340
0
340
0
 70
    -1
 70
    -1
 70
    -1
 70
    -1
 70
    -1
 70
    -1
 70
    -1
 70
    -1
 70
    -1
 70
    -1
 70
    -1
 70
    -1
 70
    -1
 70
    -1
 70
    -1
 70
    -1
 90
       -1
 90
       -1
 90
       -1
 90
       -1
 90
       -1
 90
       -1
 90
       -1
 90
       -1
  1

  1

  1

  1

  1

  1

  1

  1

100
ZwmSectionSymStd
 70
     1
 70
     1
  1
GB1998
100
ZwmSymProperties
 70
     2
  1
GB1998
  1
GB1998
  1

  1
GB1998.xml
 70
   803
 70
     1
 40
0.0
 40
0.0
 70
    -1
 70
    -1
 70
     7
 70
    -1
 40
0.0
 70
     1
 70
    23
 70
    40
 70
     0
 70
     1
 70
     3
 70
     4
 70
     5
 70
     6
 70
     8
 70
     9
 70
    10
 70
    11
 70
    13
 70
    14
 70
    15
 70
    16
 70
    18
 70
    19
 70
    20
 70
    21
 70
    27
 70
    28
 70
   100
 70
   101
 70
   102
 70
   103
 70
   104
 70
   105
 70
   106
 70
   107
 70
   108
 70
   109
 70
   110
 70
   111
 70
   112
 70
   113
 70
   114
 70
   115
 70
   116
 70
   117
 70
   118
 70
   120
 70
     0
 70
    14
  1
2.5
  1
3.5
  1
5
  1
7
  1
10
  1
14
  1
20
  1
2.5
  1
3.5
  1
5
  1
7
  1
10
  1
14
  1
20
 70
     0
340
0
 40
1.0
 40
1.0
 40
1.0
 40
1.0
 40
1.0
 40
1.0
 40
3.5
 40
3.5
 40
3.5
 40
3.5
 40
3.5
 40
3.5
 70
    -1
 70
    -1
 70
    -1
 70
    -1
 70
    -1
 70
    -1
 70
    -1
 70
    -1
 70
    -1
 70
    -1
 70
    -1
 70
    -1
340
0
340
0
340
0
340
0
340
0
340
0
340
0
340
0
340
0
340
0
340
0
340
0
340
0
340
0
 70
    -1
 70
    -1
 70
    -1
 70
    -1
 70
    -1
 70
    -1
 70
    -1
 70
    -1
 70
    -1
 70
    -1
 70
    -1
 70
    -1
 70
    -1
 70
    -1
 70
    -1
 70
    -1
 90
       -1
 90
       -1
 90
       -1
 90
       -1
 90
       -1
 90
       -1
 90
       -1
 90
       -1
  1

  1

  1

  1

  1

  1

  1

  1

 70
     3
  1
TextPosition
100
ZWMATTRIBUTEDEF
 70
     1
 70
     0
  1

  1

  1

  1

  1

  1

  1

 70
     0
 70
     0
 70
     0
 70
     0
 70
     1
 70
     2
 70
    50
 70
     0
 70
     1
 70
     2
 70
     0
 70
     2
  1
EnableExplode
100
ZWMATTRIBUTEDEF
 70
     1
 70
     0
  1

  1

  1

  1
VT_BOOL
  1

  1

  1

 70
     0
 70
     0
 70
     0
 70
     0
 70
     1
 70
    11
 70
    50
 70
     0
 70
     1
 70
     2
 70
     0
 70
    -1
  1
SymTextSizeRatio
100
ZWMATTRIBUTEDEF
 70
     1
 70
     0
  1

  1

  1

  1
VT_R8
  1

  1

  1

 70
     0
 70
     0
 70
     0
 70
     0
 70
     1
 70
     5
 70
    50
 70
     0
 70
     1
 70
     2
 70
     0
 40
1.0
100
ZwmSectionSymProperties
 70
     2
 70
     1
 70
     0
 70
     0
  1
[SECTION_LABEL_FIRST]-[SECTION_LABEL_LAST]\P\O[SECTION_LABEL_SCALE]
 70
     1
340
4A76D
 70
     0
 70
     2
 70
     1
 70
     1
 40
10.0
 40
0.0
 70
    19
  1
1000:1
  1
500:1
  1
200:1
  1
100:1
  1
50:1
  1
20:1
  1
10:1
  1
5:1
  1
2:1
  1
1:1
  1
1:2
  1
1:5
  1
1:10
  1
1:20
  1
1:50
  1
1:100
  1
1:200
  1
1:500
  1
1:1000
 70
    39
  1
A
  1
B
  1
C
  1
D
  1
E
  1
F
  1
G
  1
H
  1
I
  1
J
  1
K
  1
L
  1
M
  1
N
  1
O
  1
P
  1
Q
  1
R
  1
S
  1
T
  1
U
  1
V
  1
W
  1
X
  1
Y
  1
Z
  1
-
  1
Ⅰ
  1
Ⅱ
  1
Ⅲ
  1
Ⅳ
  1
Ⅴ
  1
Ⅵ
  1
Ⅶ
  1
Ⅷ
  1
Ⅸ
  1
Ⅹ
  1
\U+216A
  1
\U+216B
  0
ZWMVIEWDIRECTIONSTD
  5
87AEB
330
87AB5
100
ZwmObject
 70
     1
  1

  1
GB
  1

  1

 70
     0
100
ZwmStd
 70
     1
 70
     1
 70
     0
  1
GB
  1
GB
340
0
340
0
340
0
340
0
340
0
340
0
340
0
340
0
 70
    -1
 70
    -1
 70
    -1
 70
    -1
 70
    -1
 70
    -1
 70
    -1
 70
    -1
 70
    -1
 70
    -1
 70
    -1
 70
    -1
 70
    -1
 70
    -1
 70
    -1
 70
    -1
 90
       -1
 90
       -1
 90
       -1
 90
       -1
 90
       -1
 90
       -1
 90
       -1
 90
       -1
  1

  1

  1

  1

  1

  1

  1

  1

100
ZwmSymbolStd
 70
     1
340
0
340
0
340
0
340
0
340
0
340
0
340
0
340
0
 70
    -1
 70
    -1
 70
    -1
 70
    -1
 70
    -1
 70
    -1
 70
    -1
 70
    -1
 70
    -1
 70
    -1
 70
    -1
 70
    -1
 70
    -1
 70
    -1
 70
    -1
 70
    -1
 90
       -1
 90
       -1
 90
       -1
 90
       -1
 90
       -1
 90
       -1
 90
       -1
 90
       -1
  1

  1

  1

  1

  1

  1

  1

  1

100
ZwmViewDirectionStd
 70
     1
 70
     1
  1
GB
100
ZwmSymProperties
 70
     2
  1
GB
  1
GB
  1

  1
GB.xml
 70
   902
 70
     1
 40
0.0
 40
0.0
 70
    -1
 70
    -1
 70
    -1
 70
    -1
 40
3.5
 70
     1
 70
     1
 70
    40
 70
     0
 70
     1
 70
     3
 70
     4
 70
     5
 70
     6
 70
     8
 70
     9
 70
    10
 70
    11
 70
    13
 70
    14
 70
    15
 70
    16
 70
    18
 70
    19
 70
    20
 70
    21
 70
    27
 70
    28
 70
   100
 70
   101
 70
   102
 70
   103
 70
   104
 70
   105
 70
   106
 70
   107
 70
   108
 70
   109
 70
   110
 70
   111
 70
   112
 70
   113
 70
   114
 70
   115
 70
   116
 70
   117
 70
   118
 70
   120
 70
     0
 70
    14
  1
2.5
  1
3.5
  1
5
  1
7
  1
10
  1
14
  1
20
  1
2.5
  1
3.5
  1
5
  1
7
  1
10
  1
14
  1
20
 70
     0
340
0
 40
1.0
 40
1.0
 40
1.0
 40
1.0
 40
1.0
 40
1.0
 40
3.5
 40
3.5
 40
3.5
 40
3.5
 40
3.5
 40
3.5
 70
    -1
 70
    -1
 70
    -1
 70
    -1
 70
    -1
 70
    -1
 70
    -1
 70
    -1
 70
    -1
 70
    -1
 70
    -1
 70
    -1
340
0
340
0
340
0
340
0
340
0
340
0
340
0
340
0
340
0
340
0
340
0
340
0
340
0
340
0
 70
    -1
 70
    -1
 70
    -1
 70
    -1
 70
    -1
 70
    -1
 70
    -1
 70
    -1
 70
    -1
 70
    -1
 70
    -1
 70
    -1
 70
    -1
 70
    -1
 70
    -1
 70
    -1
 90
       -1
 90
       -1
 90
       -1
 90
       -1
 90
       -1
 90
       -1
 90
       -1
 90
       -1
  1

  1

  1

  1

  1

  1

  1

  1

 70
     4
  1
LabelArrowSize
100
ZWMATTRIBUTEDEF
 70
     1
 70
     0
  1

  1

  1

  1

  1

  1

  1

 70
     0
 70
     0
 70
     0
 70
     0
 70
     1
 70
     5
 70
    50
 70
     0
 70
     1
 70
     2
 70
     0
 40
3.5
  1
TextPosition
100
ZWMATTRIBUTEDEF
 70
     1
 70
     0
  1

  1

  1

  1

  1

  1

  1

 70
     0
 70
     0
 70
     0
 70
     0
 70
     1
 70
     2
 70
    50
 70
     0
 70
     1
 70
     2
 70
     0
 70
     0
  1
EnableExplode
100
ZWMATTRIBUTEDEF
 70
     1
 70
     0
  1

  1

  1

  1
VT_BOOL
  1

  1

  1

 70
     0
 70
     0
 70
     0
 70
     0
 70
     1
 70
    11
 70
    50
 70
     0
 70
     1
 70
     2
 70
     0
 70
    -1
  1
SymTextSizeRatio
100
ZWMATTRIBUTEDEF
 70
     1
 70
     0
  1

  1

  1

  1
VT_R8
  1

  1

  1

 70
     0
 70
     0
 70
     0
 70
     0
 70
     1
 70
     5
 70
    50
 70
     0
 70
     1
 70
     2
 70
     0
 40
1.0
100
ZwmViewDirectionProperties
 70
     1
  1
[VIEW_NAME]\P\O[VIEW_SCALE]
 40
10.0
 70
     8
 70
    19
  1
1000:1
  1
500:1
  1
200:1
  1
100:1
  1
50:1
  1
20:1
  1
10:1
  1
5:1
  1
2:1
  1
1:1
  1
1:2
  1
1:5
  1
1:10
  1
1:20
  1
1:50
  1
1:100
  1
1:200
  1
1:500
  1
1:1000
 70
    39
  1
A
  1
B
  1
C
  1
D
  1
E
  1
F
  1
G
  1
H
  1
I
  1
J
  1
K
  1
L
  1
M
  1
N
  1
O
  1
P
  1
Q
  1
R
  1
S
  1
T
  1
U
  1
V
  1
W
  1
X
  1
Y
  1
Z
  1
-
  1
Ⅰ
  1
Ⅱ
  1
Ⅲ
  1
Ⅳ
  1
Ⅴ
  1
Ⅵ
  1
Ⅶ
  1
Ⅷ
  1
Ⅸ
  1
Ⅹ
  1
\U+216A
  1
\U+216B
  0
ZWMELEVSYMSTD
  5
87AEC
330
87AB5
100
ZwmObject
 70
     1
  1

  1
GB
  1

  1

 70
     0
100
ZwmStd
 70
     1
 70
     1
 70
     0
  1
GB
  1
GB
340
0
340
0
340
0
340
0
340
0
340
0
340
0
340
0
 70
    -1
 70
    -1
 70
    -1
 70
    -1
 70
    -1
 70
    -1
 70
    -1
 70
    -1
 70
    -1
 70
    -1
 70
    -1
 70
    -1
 70
    -1
 70
    -1
 70
    -1
 70
    -1
 90
       -1
 90
       -1
 90
       -1
 90
       -1
 90
       -1
 90
       -1
 90
       -1
 90
       -1
  1

  1

  1

  1

  1

  1

  1

  1

100
ZwmSymbolStd
 70
     1
340
0
340
0
340
0
340
0
340
0
340
0
340
0
340
0
 70
    -1
 70
    -1
 70
    -1
 70
    -1
 70
    -1
 70
    -1
 70
    -1
 70
    -1
 70
    -1
 70
    -1
 70
    -1
 70
    -1
 70
    -1
 70
    -1
 70
    -1
 70
    -1
 90
       -1
 90
       -1
 90
       -1
 90
       -1
 90
       -1
 90
       -1
 90
       -1
 90
       -1
  1

  1

  1

  1

  1

  1

  1

  1

100
ZwmElevSymStd
 70
     1
 70
     1
  1
GB
100
ZwmSymProperties
 70
     2
  1
GB
  1
GB
  1

  1
GB.xml
 70
   952
 70
     1
 40
0.0
 40
0.0
 70
    -1
 70
    -1
 70
    -1
 70
    -1
 40
0.0
 70
     1
 70
    23
 70
    40
 70
     0
 70
     1
 70
     3
 70
     4
 70
     5
 70
     6
 70
     8
 70
     9
 70
    10
 70
    11
 70
    13
 70
    14
 70
    15
 70
    16
 70
    18
 70
    19
 70
    20
 70
    21
 70
    27
 70
    28
 70
   100
 70
   101
 70
   102
 70
   103
 70
   104
 70
   105
 70
   106
 70
   107
 70
   108
 70
   109
 70
   110
 70
   111
 70
   112
 70
   113
 70
   114
 70
   115
 70
   116
 70
   117
 70
   118
 70
   120
 70
     0
 70
    14
  1
2.5
  1
3.5
  1
5
  1
7
  1
10
  1
14
  1
20
  1
2.5
  1
3.5
  1
5
  1
7
  1
10
  1
14
  1
20
 70
     0
340
0
 40
1.0
 40
1.0
 40
1.0
 40
1.0
 40
1.0
 40
1.0
 40
3.5
 40
3.5
 40
3.5
 40
3.5
 40
3.5
 40
3.5
 70
    -1
 70
    -1
 70
    -1
 70
    -1
 70
    -1
 70
    -1
 70
    -1
 70
    -1
 70
    -1
 70
    -1
 70
    -1
 70
    -1
340
0
340
0
340
0
340
0
340
0
340
0
340
0
340
0
340
0
340
0
340
0
340
0
340
0
340
0
 70
    -1
 70
    -1
 70
    -1
 70
    -1
 70
    -1
 70
    -1
 70
    -1
 70
    -1
 70
    -1
 70
    -1
 70
    -1
 70
    -1
 70
    -1
 70
    -1
 70
    -1
 70
    -1
 90
       -1
 90
       -1
 90
       -1
 90
       -1
 90
       -1
 90
       -1
 90
       -1
 90
       -1
  1

  1

  1

  1

  1

  1

  1

  1

 70
     2
  1
EnableExplode
100
ZWMATTRIBUTEDEF
 70
     1
 70
     0
  1

  1

  1

  1
VT_BOOL
  1

  1

  1

 70
     0
 70
     0
 70
     0
 70
     0
 70
     1
 70
    11
 70
    50
 70
     0
 70
     1
 70
     2
 70
     0
 70
    -1
  1
SymTextSizeRatio
100
ZWMATTRIBUTEDEF
 70
     1
 70
     0
  1

  1

  1

  1
VT_R8
  1

  1

  1

 70
     0
 70
     0
 70
     0
 70
     0
 70
     1
 70
     5
 70
    50
 70
     0
 70
     1
 70
     2
 70
     0
 40
1.0
100
ZwmElevSymProperties
 70
     1
 70
     0
 40
3.0
 40
20.0
 40
10.0
 40
0.0
 40
3.5
  0
ZWMBREAKSYMSTD
  5
87AED
330
87AB5
100
ZwmObject
 70
     1
  1

  1
GB
  1

  1

 70
     0
100
ZwmStd
 70
     1
 70
     1
 70
     0
  1
GB
  1
GB
340
0
340
0
340
0
340
0
340
0
340
0
340
0
340
0
 70
    -1
 70
    -1
 70
    -1
 70
    -1
 70
    -1
 70
    -1
 70
    -1
 70
    -1
 70
    -1
 70
    -1
 70
    -1
 70
    -1
 70
    -1
 70
    -1
 70
    -1
 70
    -1
 90
       -1
 90
       -1
 90
       -1
 90
       -1
 90
       -1
 90
       -1
 90
       -1
 90
       -1
  1

  1

  1

  1

  1

  1

  1

  1

100
ZwmSymbolStd
 70
     1
340
0
340
0
340
0
340
0
340
0
340
0
340
0
340
0
 70
    -1
 70
    -1
 70
    -1
 70
    -1
 70
    -1
 70
    -1
 70
    -1
 70
    -1
 70
    -1
 70
    -1
 70
    -1
 70
    -1
 70
    -1
 70
    -1
 70
    -1
 70
    -1
 90
       -1
 90
       -1
 90
       -1
 90
       -1
 90
       -1
 90
       -1
 90
       -1
 90
       -1
  1

  1

  1

  1

  1

  1

  1

  1

100
ZwmBreakSymStd
 70
     1
 70
     1
  1
GB
100
ZwmSymProperties
 70
     2
  1
GB
  1
GB
  1

  1
GB.xml
 70
   962
 70
     1
 40
3.5
 40
1.0
 70
    -1
 70
    -1
 70
    -1
 70
    -1
 40
0.0
 70
     0
 70
     0
 70
     0
 70
     0
 70
     0
 70
     0
340
0
 40
1.0
 40
1.0
 40
1.0
 40
1.0
 40
1.0
 40
1.0
 40
3.5
 40
3.5
 40
3.5
 40
3.5
 40
3.5
 40
3.5
 70
    -1
 70
    -1
 70
    -1
 70
    -1
 70
    -1
 70
    -1
 70
    -1
 70
    -1
 70
    -1
 70
    -1
 70
    -1
 70
    -1
340
0
340
0
340
0
340
0
340
0
340
0
340
0
340
0
340
0
340
0
340
0
340
0
340
0
340
0
 70
    -1
 70
    -1
 70
    -1
 70
    -1
 70
    -1
 70
    -1
 70
    -1
 70
    -1
 70
    -1
 70
    -1
 70
    -1
 70
    -1
 70
    -1
 70
    -1
 70
    -1
 70
    -1
 90
       -1
 90
       -1
 90
       -1
 90
       -1
 90
       -1
 90
       -1
 90
       -1
 90
       -1
  1

  1

  1

  1

  1

  1

  1

  1

 70
     0
100
ZwmBreakSymProperties
 70
     1
 40
7.0
 40
3.5
  0
ZWMHOLECHARTSTD
  5
87AEE
330
87AB5
100
ZwmObject
 70
     1
  1

  1
GB
  1

  1

 70
     0
100
ZwmStd
 70
     1
 70
     1
 70
     0
  1
GB
  1
GB
340
0
340
0
340
0
340
0
340
0
340
0
340
0
340
0
 70
    -1
 70
    -1
 70
    -1
 70
    -1
 70
    -1
 70
    -1
 70
    -1
 70
    -1
 70
    -1
 70
    -1
 70
    -1
 70
    -1
 70
    -1
 70
    -1
 70
    -1
 70
    -1
 90
       -1
 90
       -1
 90
       -1
 90
       -1
 90
       -1
 90
       -1
 90
       -1
 90
       -1
  1

  1

  1

  1

  1

  1

  1

  1

100
ZwmSymbolStd
 70
     1
340
0
340
0
340
0
340
0
340
0
340
0
340
0
340
0
 70
    -1
 70
    -1
 70
    -1
 70
    -1
 70
    -1
 70
    -1
 70
    -1
 70
    -1
 70
    -1
 70
    -1
 70
    -1
 70
    -1
 70
    -1
 70
    -1
 70
    -1
 70
    -1
 90
       -1
 90
       -1
 90
       -1
 90
       -1
 90
       -1
 90
       -1
 90
       -1
 90
       -1
  1

  1

  1

  1

  1

  1

  1

  1

100
ZwmHoleChartStd
 70
     1
 70
     1
  1
GB
100
ZwmSymProperties
 70
     2
  1
GB
  1
GB
  1

  1
GB.xml
 70
   972
 70
     1
 40
0.0
 40
0.0
 70
     2
 70
    -1
 70
     3
 70
    -1
 40
0.0
 70
     1
 70
     0
 70
     0
 70
     0
 70
     7
  1
2.24
  1
3.15
  1
3.5
  1
4.5
  1
5
  1
6.3
  1
9
 70
     0
340
0
 40
1.0
 40
1.0
 40
1.0
 40
1.0
 40
1.0
 40
1.0
 40
3.5
 40
3.5
 40
3.5
 40
3.5
 40
3.5
 40
3.5
 70
    -1
 70
    -1
 70
    -1
 70
    -1
 70
    -1
 70
    -1
 70
    -1
 70
    -1
 70
    -1
 70
    -1
 70
    -1
 70
    -1
340
0
340
0
340
0
340
0
340
0
340
0
340
0
340
0
340
0
340
0
340
0
340
0
340
0
340
0
 70
    -1
 70
    -1
 70
    -1
 70
    -1
 70
    -1
 70
    -1
 70
    -1
 70
    -1
 70
    -1
 70
    -1
 70
    -1
 70
    -1
 70
    -1
 70
    -1
 70
    -1
 70
    -1
 90
       -1
 90
       -1
 90
       -1
 90
       -1
 90
       -1
 90
       -1
 90
       -1
 90
       -1
  1

  1

  1

  1

  1

  1

  1

  1

 70
    71
  1
OverviewTableColumn_UserType1_Label
100
ZWMATTRIBUTEDEF
 70
     1
 70
     0
  1

  1

  1

  1

  1

  1

  1

 70
     0
 70
     0
 70
     0
 70
     0
 70
     1
 70
     8
 70
    50
 70
     0
 70
     1
 70
     2
 70
     0
  1
用\U+6237自定\U+4E491
  1
PolarTableColumn_Angle_Label
100
ZWMATTRIBUTEDEF
 70
     1
 70
     0
  1

  1

  1

  1

  1

  1

  1

 70
     0
 70
     0
 70
     0
 70
     0
 70
     1
 70
     8
 70
    50
 70
     0
 70
     1
 70
     2
 70
     0
  1
θ
  1
DIMALTU
100
ZWMATTRIBUTEDEF
 70
     1
 70
     0
  1

  1

  1

  1
VT_I2
  1

  1

  1

 70
     0
 70
     0
 70
     0
 70
     0
 70
     1
 70
     2
 70
    50
 70
     0
 70
     1
 70
     2
 70
     0
 70
     2
  1
CartesianTableColumn_Radius_Label_UI
100
ZWMATTRIBUTEDEF
 70
     1
 70
     0
  1

  1

  1

  1

  1

  1

  1

 70
     0
 70
     0
 70
     0
 70
     0
 70
     1
 70
     8
 70
    50
 70
     0
 70
     1
 70
     2
 70
     0
  1
r
  1
CartesianTableColumn_Radius_Label
100
ZWMATTRIBUTEDEF
 70
     1
 70
     0
  1

  1

  1

  1

  1

  1

  1

 70
     0
 70
     0
 70
     0
 70
     0
 70
     1
 70
     8
 70
    50
 70
     0
 70
     1
 70
     2
 70
     0
  1
r
  1
DIMALTZ
100
ZWMATTRIBUTEDEF
 70
     1
 70
     0
  1

  1

  1

  1
VT_I2
  1

  1

  1

 70
     0
 70
     0
 70
     0
 70
     0
 70
     1
 70
     2
 70
    50
 70
     0
 70
     1
 70
     2
 70
     0
 70
     8
  1
PolarTableColumn_Description_Label_UI
100
ZWMATTRIBUTEDEF
 70
     1
 70
     0
  1

  1

  1

  1

  1

  1

  1

 70
     0
 70
     0
 70
     0
 70
     0
 70
     1
 70
     8
 70
    50
 70
     0
 70
     1
 70
     2
 70
     0
  1
\U+8BF4明
  1
OverviewTableColumn_Quantity_Label
100
ZWMATTRIBUTEDEF
 70
     1
 70
     0
  1

  1

  1

  1

  1

  1

  1

 70
     0
 70
     0
 70
     0
 70
     0
 70
     1
 70
     8
 70
    50
 70
     0
 70
     1
 70
     2
 70
     0
  1
数量
  1
CartesianTableColumn_Y_Label
100
ZWMATTRIBUTEDEF
 70
     1
 70
     0
  1

  1

  1

  1

  1

  1

  1

 70
     0
 70
     0
 70
     0
 70
     0
 70
     1
 70
     8
 70
    50
 70
     0
 70
     1
 70
     2
 70
     0
  1
Y
  1
DIMALTTZ
100
ZWMATTRIBUTEDEF
 70
     1
 70
     0
  1

  1

  1

  1
VT_I2
  1

  1

  1

 70
     0
 70
     0
 70
     0
 70
     0
 70
     1
 70
     2
 70
    50
 70
     0
 70
     1
 70
     2
 70
     0
 70
     0
  1
PolarTableColumn_Radius_Label
100
ZWMATTRIBUTEDEF
 70
     1
 70
     0
  1

  1

  1

  1

  1

  1

  1

 70
     0
 70
     0
 70
     0
 70
     0
 70
     1
 70
     8
 70
    50
 70
     0
 70
     1
 70
     2
 70
     0
  1
r
  1
OverviewTableColumn_UserType3_Label_UI
100
ZWMATTRIBUTEDEF
 70
     1
 70
     0
  1

  1

  1

  1

  1

  1

  1

 70
     0
 70
     0
 70
     0
 70
     0
 70
     1
 70
     8
 70
    50
 70
     0
 70
     1
 70
     2
 70
     0
  1
用\U+6237自定\U+4E493
  1
CartesianTableColumn_Description_Label
100
ZWMATTRIBUTEDEF
 70
     1
 70
     0
  1

  1

  1

  1

  1

  1

  1

 70
     0
 70
     0
 70
     0
 70
     0
 70
     1
 70
     8
 70
    50
 70
     0
 70
     1
 70
     2
 70
     0
  1
\U+8BF4明
  1
CartesianTableColumn_UserType5_Label_UI
100
ZWMATTRIBUTEDEF
 70
     1
 70
     0
  1

  1

  1

  1

  1

  1

  1

 70
     0
 70
     0
 70
     0
 70
     0
 70
     1
 70
     8
 70
    50
 70
     0
 70
     1
 70
     2
 70
     0
  1
用\U+6237自定\U+4E495
  1
CartesianTableColumn_UserType4_Label_UI
100
ZWMATTRIBUTEDEF
 70
     1
 70
     0
  1

  1

  1

  1

  1

  1

  1

 70
     0
 70
     0
 70
     0
 70
     0
 70
     1
 70
     8
 70
    50
 70
     0
 70
     1
 70
     2
 70
     0
  1
用\U+6237自定\U+4E494
  1
CartesianTableColumn_UserType3_Label_UI
100
ZWMATTRIBUTEDEF
 70
     1
 70
     0
  1

  1

  1

  1

  1

  1

  1

 70
     0
 70
     0
 70
     0
 70
     0
 70
     1
 70
     8
 70
    50
 70
     0
 70
     1
 70
     2
 70
     0
  1
用\U+6237自定\U+4E493
  1
CartesianTableColumn_UserType2_Label_UI
100
ZWMATTRIBUTEDEF
 70
     1
 70
     0
  1

  1

  1

  1

  1

  1

  1

 70
     0
 70
     0
 70
     0
 70
     0
 70
     1
 70
     8
 70
    50
 70
     0
 70
     1
 70
     2
 70
     0
  1
用\U+6237自定\U+4E492
  1
CartesianTableColumn_UserType1_Label_UI
100
ZWMATTRIBUTEDEF
 70
     1
 70
     0
  1

  1

  1

  1

  1

  1

  1

 70
     0
 70
     0
 70
     0
 70
     0
 70
     1
 70
     8
 70
    50
 70
     0
 70
     1
 70
     2
 70
     0
  1
用\U+6237自定\U+4E491
  1
CartesianTableColumn_Description_Label_UI
100
ZWMATTRIBUTEDEF
 70
     1
 70
     0
  1

  1

  1

  1

  1

  1

  1

 70
     0
 70
     0
 70
     0
 70
     0
 70
     1
 70
     8
 70
    50
 70
     0
 70
     1
 70
     2
 70
     0
  1
\U+8BF4明
  1
PolarTableColumn_HoleItem_Label
100
ZWMATTRIBUTEDEF
 70
     1
 70
     0
  1

  1

  1

  1

  1

  1

  1

 70
     0
 70
     0
 70
     0
 70
     0
 70
     1
 70
     8
 70
    50
 70
     0
 70
     1
 70
     2
 70
     0
  1
孔
  1
CartesianTableColumn_X_Label
100
ZWMATTRIBUTEDEF
 70
     1
 70
     0
  1

  1

  1

  1

  1

  1

  1

 70
     0
 70
     0
 70
     0
 70
     0
 70
     1
 70
     8
 70
    50
 70
     0
 70
     1
 70
     2
 70
     0
  1
X
  1
OverviewTableColumn_UserType1_Label_UI
100
ZWMATTRIBUTEDEF
 70
     1
 70
     0
  1

  1

  1

  1

  1

  1

  1

 70
     0
 70
     0
 70
     0
 70
     0
 70
     1
 70
     8
 70
    50
 70
     0
 70
     1
 70
     2
 70
     0
  1
用\U+6237自定\U+4E491
  1
OverviewTableColumn_UserType4_Label
100
ZWMATTRIBUTEDEF
 70
     1
 70
     0
  1

  1

  1

  1

  1

  1

  1

 70
     0
 70
     0
 70
     0
 70
     0
 70
     1
 70
     8
 70
    50
 70
     0
 70
     1
 70
     2
 70
     0
  1
用\U+6237自定\U+4E494
  1
CartesianTableColumn_Diameter_Label
100
ZWMATTRIBUTEDEF
 70
     1
 70
     0
  1

  1

  1

  1

  1

  1

  1

 70
     0
 70
     0
 70
     0
 70
     0
 70
     1
 70
     8
 70
    50
 70
     0
 70
     1
 70
     2
 70
     0
  1
%%c
  1
OverviewTableColumn_UserType2_Label_UI
100
ZWMATTRIBUTEDEF
 70
     1
 70
     0
  1

  1

  1

  1

  1

  1

  1

 70
     0
 70
     0
 70
     0
 70
     0
 70
     1
 70
     8
 70
    50
 70
     0
 70
     1
 70
     2
 70
     0
  1
用\U+6237自定\U+4E492
  1
CartesianTableColumn_HoleItem_Label_UI
100
ZWMATTRIBUTEDEF
 70
     1
 70
     0
  1

  1

  1

  1

  1

  1

  1

 70
     0
 70
     0
 70
     0
 70
     0
 70
     1
 70
     8
 70
    50
 70
     0
 70
     1
 70
     2
 70
     0
  1
孔
  1
OverviewTableColumn_Diameter_Label_UI
100
ZWMATTRIBUTEDEF
 70
     1
 70
     0
  1

  1

  1

  1

  1

  1

  1

 70
     0
 70
     0
 70
     0
 70
     0
 70
     1
 70
     8
 70
    50
 70
     0
 70
     1
 70
     2
 70
     0
  1
Ф
  1
PolarTableColumn_Radius_Label_UI
100
ZWMATTRIBUTEDEF
 70
     1
 70
     0
  1

  1

  1

  1

  1

  1

  1

 70
     0
 70
     0
 70
     0
 70
     0
 70
     1
 70
     8
 70
    50
 70
     0
 70
     1
 70
     2
 70
     0
  1
r
  1
PolarTableColumn_Y_Label_UI
100
ZWMATTRIBUTEDEF
 70
     1
 70
     0
  1

  1

  1

  1

  1

  1

  1

 70
     0
 70
     0
 70
     0
 70
     0
 70
     1
 70
     8
 70
    50
 70
     0
 70
     1
 70
     2
 70
     0
  1
Y
  1
PolarTableColumn_X_Label_UI
100
ZWMATTRIBUTEDEF
 70
     1
 70
     0
  1

  1

  1

  1

  1

  1

  1

 70
     0
 70
     0
 70
     0
 70
     0
 70
     1
 70
     8
 70
    50
 70
     0
 70
     1
 70
     2
 70
     0
  1
X
  1
CartesianTableColumn_Diameter_Label_UI
100
ZWMATTRIBUTEDEF
 70
     1
 70
     0
  1

  1

  1

  1

  1

  1

  1

 70
     0
 70
     0
 70
     0
 70
     0
 70
     1
 70
     8
 70
    50
 70
     0
 70
     1
 70
     2
 70
     0
  1
Ф
  1
OverviewTableColumn_UserType5_Label
100
ZWMATTRIBUTEDEF
 70
     1
 70
     0
  1

  1

  1

  1

  1

  1

  1

 70
     0
 70
     0
 70
     0
 70
     0
 70
     1
 70
     8
 70
    50
 70
     0
 70
     1
 70
     2
 70
     0
  1
用\U+6237自定\U+4E495
  1
OverviewTableColumn_UserType3_Label
100
ZWMATTRIBUTEDEF
 70
     1
 70
     0
  1

  1

  1

  1

  1

  1

  1

 70
     0
 70
     0
 70
     0
 70
     0
 70
     1
 70
     8
 70
    50
 70
     0
 70
     1
 70
     2
 70
     0
  1
用\U+6237自定\U+4E493
  1
OverviewTableColumn_Diameter_Label
100
ZWMATTRIBUTEDEF
 70
     1
 70
     0
  1

  1

  1

  1

  1

  1

  1

 70
     0
 70
     0
 70
     0
 70
     0
 70
     1
 70
     8
 70
    50
 70
     0
 70
     1
 70
     2
 70
     0
  1
%%c
  1
PolarTableColumn_Description_Label
100
ZWMATTRIBUTEDEF
 70
     1
 70
     0
  1

  1

  1

  1

  1

  1

  1

 70
     0
 70
     0
 70
     0
 70
     0
 70
     1
 70
     8
 70
    50
 70
     0
 70
     1
 70
     2
 70
     0
  1
\U+8BF4明
  1
DIMALTRND
100
ZWMATTRIBUTEDEF
 70
     1
 70
     0
  1

  1

  1

  1
VT_R8
  1

  1

  1

 70
     0
 70
     0
 70
     0
 70
     0
 70
     1
 70
     5
 70
    50
 70
     0
 70
     1
 70
     2
 70
     0
 40
0.0
  1
OverviewTableColumn_UserType4_Label_UI
100
ZWMATTRIBUTEDEF
 70
     1
 70
     0
  1

  1

  1

  1

  1

  1

  1

 70
     0
 70
     0
 70
     0
 70
     0
 70
     1
 70
     8
 70
    50
 70
     0
 70
     1
 70
     2
 70
     0
  1
用\U+6237自定\U+4E494
  1
PolarTableColumn_Angle_Label_UI
100
ZWMATTRIBUTEDEF
 70
     1
 70
     0
  1

  1

  1

  1

  1

  1

  1

 70
     0
 70
     0
 70
     0
 70
     0
 70
     1
 70
     8
 70
    50
 70
     0
 70
     1
 70
     2
 70
     0
  1
θ
  1
PolarTableColumn_UserType5_Label
100
ZWMATTRIBUTEDEF
 70
     1
 70
     0
  1

  1

  1

  1

  1

  1

  1

 70
     0
 70
     0
 70
     0
 70
     0
 70
     1
 70
     8
 70
    50
 70
     0
 70
     1
 70
     2
 70
     0
  1
用\U+6237自定\U+4E495
  1
PolarTableColumn_UserType4_Label
100
ZWMATTRIBUTEDEF
 70
     1
 70
     0
  1

  1

  1

  1

  1

  1

  1

 70
     0
 70
     0
 70
     0
 70
     0
 70
     1
 70
     8
 70
    50
 70
     0
 70
     1
 70
     2
 70
     0
  1
用\U+6237自定\U+4E494
  1
PolarTableColumn_UserType3_Label
100
ZWMATTRIBUTEDEF
 70
     1
 70
     0
  1

  1

  1

  1

  1

  1

  1

 70
     0
 70
     0
 70
     0
 70
     0
 70
     1
 70
     8
 70
    50
 70
     0
 70
     1
 70
     2
 70
     0
  1
用\U+6237自定\U+4E493
  1
PolarTableColumn_UserType2_Label
100
ZWMATTRIBUTEDEF
 70
     1
 70
     0
  1

  1

  1

  1

  1

  1

  1

 70
     0
 70
     0
 70
     0
 70
     0
 70
     1
 70
     8
 70
    50
 70
     0
 70
     1
 70
     2
 70
     0
  1
用\U+6237自定\U+4E492
  1
PolarTableColumn_UserType1_Label
100
ZWMATTRIBUTEDEF
 70
     1
 70
     0
  1

  1

  1

  1

  1

  1

  1

 70
     0
 70
     0
 70
     0
 70
     0
 70
     1
 70
     8
 70
    50
 70
     0
 70
     1
 70
     2
 70
     0
  1
用\U+6237自定\U+4E491
  1
PolarTableColumn_Y_Label
100
ZWMATTRIBUTEDEF
 70
     1
 70
     0
  1

  1

  1

  1

  1

  1

  1

 70
     0
 70
     0
 70
     0
 70
     0
 70
     1
 70
     8
 70
    50
 70
     0
 70
     1
 70
     2
 70
     0
  1
Y
  1
PolarTableColumn_X_Label
100
ZWMATTRIBUTEDEF
 70
     1
 70
     0
  1

  1

  1

  1

  1

  1

  1

 70
     0
 70
     0
 70
     0
 70
     0
 70
     1
 70
     8
 70
    50
 70
     0
 70
     1
 70
     2
 70
     0
  1
X
  1
HoleChartLoadType
100
ZWMATTRIBUTEDEF
 70
     1
 70
     0
  1

  1

  1

  1

  1

  1

  1

 70
     0
 70
     0
 70
     0
 70
     0
 70
     1
 70
     2
 70
    50
 70
     0
 70
     1
 70
     2
 70
     0
 70
     1
  1
OverviewTableColumn_HoleItem_Label_UI
100
ZWMATTRIBUTEDEF
 70
     1
 70
     0
  1

  1

  1

  1

  1

  1

  1

 70
     0
 70
     0
 70
     0
 70
     0
 70
     1
 70
     8
 70
    50
 70
     0
 70
     1
 70
     2
 70
     0
  1
孔
  1
CartesianTableColumn_Angle_Label_UI
100
ZWMATTRIBUTEDEF
 70
     1
 70
     0
  1

  1

  1

  1

  1

  1

  1

 70
     0
 70
     0
 70
     0
 70
     0
 70
     1
 70
     8
 70
    50
 70
     0
 70
     1
 70
     2
 70
     0
  1
θ
  1
OverviewTableColumn_UserType5_Label_UI
100
ZWMATTRIBUTEDEF
 70
     1
 70
     0
  1

  1

  1

  1

  1

  1

  1

 70
     0
 70
     0
 70
     0
 70
     0
 70
     1
 70
     8
 70
    50
 70
     0
 70
     1
 70
     2
 70
     0
  1
用\U+6237自定\U+4E495
  1
OverviewTableColumn_UserType2_Label
100
ZWMATTRIBUTEDEF
 70
     1
 70
     0
  1

  1

  1

  1

  1

  1

  1

 70
     0
 70
     0
 70
     0
 70
     0
 70
     1
 70
     8
 70
    50
 70
     0
 70
     1
 70
     2
 70
     0
  1
用\U+6237自定\U+4E492
  1
OverviewTableColumn_HoleItem_Label
100
ZWMATTRIBUTEDEF
 70
     1
 70
     0
  1

  1

  1

  1

  1

  1

  1

 70
     0
 70
     0
 70
     0
 70
     0
 70
     1
 70
     8
 70
    50
 70
     0
 70
     1
 70
     2
 70
     0
  1
孔
  1
DIMALTF
100
ZWMATTRIBUTEDEF
 70
     1
 70
     0
  1

  1

  1

  1
VT_R8
  1

  1

  1

 70
     0
 70
     0
 70
     0
 70
     0
 70
     1
 70
     5
 70
    50
 70
     0
 70
     1
 70
     2
 70
     0
 40
0.03937007874016
  1
OverviewTableColumn_Quantity_Label_UI
100
ZWMATTRIBUTEDEF
 70
     1
 70
     0
  1

  1

  1

  1

  1

  1

  1

 70
     0
 70
     0
 70
     0
 70
     0
 70
     1
 70
     8
 70
    50
 70
     0
 70
     1
 70
     2
 70
     0
  1
数量
  1
CartesianTableColumn_Y_Label_UI
100
ZWMATTRIBUTEDEF
 70
     1
 70
     0
  1

  1

  1

  1

  1

  1

  1

 70
     0
 70
     0
 70
     0
 70
     0
 70
     1
 70
     8
 70
    50
 70
     0
 70
     1
 70
     2
 70
     0
  1
Y
  1
CartesianTableColumn_X_Label_UI
100
ZWMATTRIBUTEDEF
 70
     1
 70
     0
  1

  1

  1

  1

  1

  1

  1

 70
     0
 70
     0
 70
     0
 70
     0
 70
     1
 70
     8
 70
    50
 70
     0
 70
     1
 70
     2
 70
     0
  1
X
  1
PolarTableColumn_Diameter_Label
100
ZWMATTRIBUTEDEF
 70
     1
 70
     0
  1

  1

  1

  1

  1

  1

  1

 70
     0
 70
     0
 70
     0
 70
     0
 70
     1
 70
     8
 70
    50
 70
     0
 70
     1
 70
     2
 70
     0
  1
%%c
  1
CartesianTableColumn_UserType5_Label
100
ZWMATTRIBUTEDEF
 70
     1
 70
     0
  1

  1

  1

  1

  1

  1

  1

 70
     0
 70
     0
 70
     0
 70
     0
 70
     1
 70
     8
 70
    50
 70
     0
 70
     1
 70
     2
 70
     0
  1
用\U+6237自定\U+4E495
  1
CartesianTableColumn_UserType4_Label
100
ZWMATTRIBUTEDEF
 70
     1
 70
     0
  1

  1

  1

  1

  1

  1

  1

 70
     0
 70
     0
 70
     0
 70
     0
 70
     1
 70
     8
 70
    50
 70
     0
 70
     1
 70
     2
 70
     0
  1
用\U+6237自定\U+4E494
  1
CartesianTableColumn_UserType3_Label
100
ZWMATTRIBUTEDEF
 70
     1
 70
     0
  1

  1

  1

  1

  1

  1

  1

 70
     0
 70
     0
 70
     0
 70
     0
 70
     1
 70
     8
 70
    50
 70
     0
 70
     1
 70
     2
 70
     0
  1
用\U+6237自定\U+4E493
  1
CartesianTableColumn_UserType2_Label
100
ZWMATTRIBUTEDEF
 70
     1
 70
     0
  1

  1

  1

  1

  1

  1

  1

 70
     0
 70
     0
 70
     0
 70
     0
 70
     1
 70
     8
 70
    50
 70
     0
 70
     1
 70
     2
 70
     0
  1
用\U+6237自定\U+4E492
  1
CartesianTableColumn_UserType1_Label
100
ZWMATTRIBUTEDEF
 70
     1
 70
     0
  1

  1

  1

  1

  1

  1

  1

 70
     0
 70
     0
 70
     0
 70
     0
 70
     1
 70
     8
 70
    50
 70
     0
 70
     1
 70
     2
 70
     0
  1
用\U+6237自定\U+4E491
  1
CartesianTableColumn_Angle_Label
100
ZWMATTRIBUTEDEF
 70
     1
 70
     0
  1

  1

  1

  1

  1

  1

  1

 70
     0
 70
     0
 70
     0
 70
     0
 70
     1
 70
     8
 70
    50
 70
     0
 70
     1
 70
     2
 70
     0
  1
θ
  1
EnableExplode
100
ZWMATTRIBUTEDEF
 70
     1
 70
     0
  1

  1

  1

  1
VT_BOOL
  1

  1

  1

 70
     0
 70
     0
 70
     0
 70
     0
 70
     1
 70
    11
 70
    50
 70
     0
 70
     1
 70
     2
 70
     0
 70
    -1
  1
PolarTableColumn_HoleItem_Label_UI
100
ZWMATTRIBUTEDEF
 70
     1
 70
     0
  1

  1

  1

  1

  1

  1

  1

 70
     0
 70
     0
 70
     0
 70
     0
 70
     1
 70
     8
 70
    50
 70
     0
 70
     1
 70
     2
 70
     0
  1
孔
  1
CartesianTableColumn_HoleItem_Label
100
ZWMATTRIBUTEDEF
 70
     1
 70
     0
  1

  1

  1

  1

  1

  1

  1

 70
     0
 70
     0
 70
     0
 70
     0
 70
     1
 70
     8
 70
    50
 70
     0
 70
     1
 70
     2
 70
     0
  1
孔
  1
DIMAPOST
100
ZWMATTRIBUTEDEF
 70
     1
 70
     0
  1

  1

  1

  1
VT_BSTR
  1

  1

  1

 70
     0
 70
     0
 70
     0
 70
     0
 70
     1
 70
     8
 70
    50
 70
     0
 70
     1
 70
     2
 70
     0
  1
[]"
  1
DIMALTD
100
ZWMATTRIBUTEDEF
 70
     1
 70
     0
  1

  1

  1

  1
VT_I2
  1

  1

  1

 70
     0
 70
     0
 70
     0
 70
     0
 70
     1
 70
     2
 70
    50
 70
     0
 70
     1
 70
     2
 70
     0
 70
     2
  1
PolarTableColumn_Diameter_Label_UI
100
ZWMATTRIBUTEDEF
 70
     1
 70
     0
  1

  1

  1

  1

  1

  1

  1

 70
     0
 70
     0
 70
     0
 70
     0
 70
     1
 70
     8
 70
    50
 70
     0
 70
     1
 70
     2
 70
     0
  1
Ф
  1
DIMALTTD
100
ZWMATTRIBUTEDEF
 70
     1
 70
     0
  1

  1

  1

  1
VT_I2
  1

  1

  1

 70
     0
 70
     0
 70
     0
 70
     0
 70
     1
 70
     2
 70
    50
 70
     0
 70
     1
 70
     2
 70
     0
 70
     4
  1
DIMALT
100
ZWMATTRIBUTEDEF
 70
     1
 70
     0
  1

  1

  1

  1
VT_BOOL
  1

  1

  1

 70
     0
 70
     0
 70
     0
 70
     0
 70
     1
 70
    11
 70
    50
 70
     0
 70
     1
 70
     2
 70
     0
 70
     0
  1
SymTextSizeRatio
100
ZWMATTRIBUTEDEF
 70
     1
 70
     0
  1

  1

  1

  1
VT_R8
  1

  1

  1

 70
     0
 70
     0
 70
     0
 70
     0
 70
     1
 70
     5
 70
    50
 70
     0
 70
     1
 70
     2
 70
     0
 40
1.0
100
ZwmHoleChartProperties
 70
     1
 70
     3
 70
     0
 70
     2
 70
     0
 70
     1
 70
     1
 70
     1
 70
     1
 40
3.5
 70
     2
 40
5.0
 70
     2
 40
5.0
 70
     2
 40
7.0
 70
     2
 40
3.5
 70
     3
 70
     3
 70
     1
 70
     1
 70
     1
 70
     8
 70
     0
 70
     1
 70
     0
 40
0.0
 40
20.0
 40
23.36
 40
21.36
 40
28.0
 40
1.0
 70
     2
 70
     0
 70
     3
 70
     2
 70
     0
 70
     3
 70
     5
  1
Label
  1
X
  1
Y
  1
Diameter
  1
Description
 70
     5
  1
Label
  1
PolarRadius
  1
PolarAngle
  1
Diameter
  1
Description
 70
     3
  1
HoleItem
  1
Diameter
  1
Quantity
 70
    12
  1
UserType4
  1
50.000000
  1
UserType5
  1
50.000000
  1
Label
  1
20.000000
  1
Diameter
  1
25.000000
  1
UserType1
  1
50.000000
  1
UserType2
  1
50.000000
  1
Y
  1
20.000000
  1
Description
  1
50.000000
  1
UserType3
  1
50.000000
  1
X
  1
20.000000
  1
PolarAngle
  1
20.000000
  1
PolarRadius
  1
20.000000
 70
    12
  1
UserType4
  1
50.000000
  1
UserType5
  1
50.000000
  1
Label
  1
20.000000
  1
Diameter
  1
25.000000
  1
UserType1
  1
50.000000
  1
UserType2
  1
50.000000
  1
Y
  1
20.000000
  1
Description
  1
50.000000
  1
UserType3
  1
50.000000
  1
X
  1
20.000000
  1
PolarAngle
  1
20.000000
  1
PolarRadius
  1
20.000000
 70
     8
  1
Quantity
  1
12.000000
  1
UserType4
  1
50.000000
  1
UserType5
  1
50.000000
  1
HoleItem
  1
20.000000
  1
Diameter
  1
25.000000
  1
UserType1
  1
50.000000
  1
UserType2
  1
50.000000
  1
UserType3
  1
50.000000
 70
    12
  1
UserType4
  1
用\U+6237自定\U+4E494
  1
UserType5
  1
用\U+6237自定\U+4E495
  1
Label
  1
孔
  1
Diameter
  1
%%c
  1
UserType1
  1
用\U+6237自定\U+4E491
  1
UserType2
  1
用\U+6237自定\U+4E492
  1
Y
  1
Y
  1
Description
  1
\U+8BF4明
  1
UserType3
  1
用\U+6237自定\U+4E493
  1
X
  1
X
  1
PolarAngle
  1
θ
  1
PolarRadius
  1
r
 70
    12
  1
UserType4
  1
用\U+6237自定\U+4E494
  1
UserType5
  1
用\U+6237自定\U+4E495
  1
Label
  1
孔
  1
Diameter
  1
%%c
  1
UserType1
  1
用\U+6237自定\U+4E491
  1
UserType2
  1
用\U+6237自定\U+4E492
  1
Y
  1
Y
  1
Description
  1
\U+8BF4明
  1
UserType3
  1
用\U+6237自定\U+4E493
  1
X
  1
X
  1
PolarAngle
  1
θ
  1
PolarRadius
  1
r
 70
     8
  1
Quantity
  1
数量
  1
UserType4
  1
用\U+6237自定\U+4E494
  1
UserType5
  1
用\U+6237自定\U+4E495
  1
HoleItem
  1
孔
  1
Diameter
  1
%%c
  1
UserType1
  1
用\U+6237自定\U+4E491
  1
UserType2
  1
用\U+6237自定\U+4E492
  1
UserType3
  1
用\U+6237自定\U+4E493
  0
ZWMBOMSTYLESTD
  5
87AEF
330
87AB5
100
ZwmObject
 70
     1
  1

  1
明\U+7EC6表1
  1

  1

 70
     0
100
ZwmStd
 70
     1
 70
     1
 70
     0
  1

  1
明\U+7EC6表1
340
0
340
0
340
0
340
0
340
0
340
0
340
0
340
0
 70
    -1
 70
    -1
 70
    -1
 70
    -1
 70
    -1
 70
    -1
 70
    -1
 70
    -1
 70
    -1
 70
    -1
 70
    -1
 70
    -1
 70
    -1
 70
    -1
 70
    -1
 70
    -1
 90
       -1
 90
       -1
 90
       -1
 90
       -1
 90
       -1
 90
       -1
 90
       -1
 90
       -1
  1

  1

  1

  1

  1

  1

  1

  1

100
ZwmBomStyleStd
 70
     1
 70
     1
  1
明\U+7EC6表1
100
ZwmBomProperties
 70
     1
  1
明\U+7EC6表1
  1
明\U+7EC6表1
  1
mxbHead.dwg
  1
mxbBody.dwg
  1
default.xml
  1

 70
     1
 70
     0
 70
     0
 70
     0
 70
     9
100
ZWMATTRIBUTEDEF
 70
     1
 70
     0
  1
RELPOS
  1
序号
  1

  1
VT_BSTR
  1
EDT_NONE
  1

  1

 70
     0
 70
     0
 70
     0
 70
     1
 70
     1
 70
     8
 70
    40
 70
     0
 70
     1
 70
     2
 70
     0
  1

100
ZWMATTRIBUTEDEF
 70
     1
 70
     0
  1
COMPNAME
  1
\U+56FE号
  1

  1
VT_BSTR
  1
EDT_NONE
  1

  1

 70
     1
 70
     0
 70
     0
 70
     0
 70
     1
 70
     8
 70
   150
 70
     0
 70
     0
 70
     2
 70
     0
  1

100
ZWMATTRIBUTEDEF
 70
     1
 70
     0
  1
COMPDES
  1
名称
  1

  1
VT_BSTR
  1
EDT_NONE
  1

  1

 70
     1
 70
     0
 70
     0
 70
     0
 70
     1
 70
     8
 70
   180
 70
     0
 70
     0
 70
     2
 70
     0
  1

100
ZWMATTRIBUTEDEF
 70
     1
 70
     0
  1
RELQTY
  1
数量
  1

  1
VT_R8
  1
EDT_NONE
  1

  1

 70
     1
 70
     0
 70
     0
 70
     0
 70
     1
 70
     5
 70
    50
 70
     0
 70
     1
 70
     2
 70
     0
 40
0.0
100
ZWMATTRIBUTEDEF
 70
     1
 70
     0
  1
COMPMAT
  1
材料
  1

  1
VT_BSTR
  1
CMB_DOWN
  1
Fe27;Fe37;C40;C60;45;20
  1

 70
     1
 70
     0
 70
     0
 70
     0
 70
     1
 70
     8
 70
    50
 70
     0
 70
     1
 70
     2
 70
     0
  1

100
ZWMATTRIBUTEDEF
 70
     1
 70
     0
  1
COMPWT
  1
\U+5355重
  1

  1
VT_R8
  1
EDT_NONE
  1

  1

 70
     1
 70
     0
 70
     0
 70
     0
 70
     1
 70
     5
 70
    50
 70
     2
 70
     1
 70
     2
 70
     0
 40
0.0
100
ZWMATTRIBUTEDEF
 70
     1
 70
     0
  1
COMPTWT
  1
\U+603B重
  1

  1
VT_R8
  1
EDT_NONE
  1

  1
COMPWT*RELQTY
 70
     1
 70
     0
 70
     0
 70
     0
 70
     0
 70
     5
 70
    60
 70
     2
 70
     1
 70
     2
 70
     0
 40
0.0
100
ZWMATTRIBUTEDEF
 70
     1
 70
     0
  1
COMPREMARK
  1
\U+5907注
  1

  1
VT_BSTR
  1
EDT_NONE
  1

  1

 70
     1
 70
     0
 70
     0
 70
     0
 70
     1
 70
     8
 70
   140
 70
     0
 70
     1
 70
     2
 70
     0
  1

100
ZWMATTRIBUTEDEF
 70
     1
 70
     0
  1
COMPITEM
  1
零件\U+7C7B型
  1
自制零件
  1
VT_BSTR
  1
CMB_DOWN
  1
\U+6807准件;外\U+8D2D件;借用件;外委零件;外委部件;自制零件;自制部件
  1

 70
     1
 70
     0
 70
     0
 70
     0
 70
     1
 70
     8
 70
    40
 70
     0
 70
     1
 70
     2
 70
     0
  1

  0
ZWMTITLESTYLESTD
  5
87AF0
330
87AB5
100
ZwmObject
 70
     1
  1

  1
\U+6807\U+9898\U+680F1
  1

  1

 70
     0
100
ZwmStd
 70
     1
 70
     1
 70
     0
  1

  1
\U+6807\U+9898\U+680F1
340
0
340
0
340
0
340
0
340
0
340
0
340
0
340
0
 70
    -1
 70
    -1
 70
    -1
 70
    -1
 70
    -1
 70
    -1
 70
    -1
 70
    -1
 70
    -1
 70
    -1
 70
    -1
 70
    -1
 70
    -1
 70
    -1
 70
    -1
 70
    -1
 90
       -1
 90
       -1
 90
       -1
 90
       -1
 90
       -1
 90
       -1
 90
       -1
 90
       -1
  1

  1

  1

  1

  1

  1

  1

  1

100
ZwmTitleStd
 70
     1
 70
     1
  1
\U+6807\U+9898\U+680F1
100
ZwmTitleProperties
 70
     1
  1
\U+6807\U+9898\U+680F-1
  1
\U+6807\U+9898\U+680F1
  1

  1
\U+6807\U+9898\U+680F1.dwg
  1
default1.xml
  1

  1

 70
     0
 70
     1
 70
    15
100
ZWMATTRIBUTEDEF
 70
     1
 70
     0
  1
COMPANY
  1
企\U+4E1A名称
  1

  1
VT_BSTR
  1
CMB_DOWN
  1
中国\U+8FDC洋;一汽本田;中\U+8054重科;海\U+9A6C汽\U+8F66
  1

 70
     1
 70
     0
 70
     0
 70
     0
 70
     1
 70
     8
 70
    50
 70
     0
 70
     1
 70
     2
 70
     0
  1

100
ZWMATTRIBUTEDEF
 70
     1
 70
     0
  1
COMPDES
  1
\U+56FE\U+6837名称
  1

  1
VT_BSTR
  1
EDT_NONE
  1

  1

 70
     1
 70
     0
 70
     0
 70
     0
 70
     1
 70
     8
 70
    50
 70
     0
 70
     1
 70
     2
 70
     0
  1

100
ZWMATTRIBUTEDEF
 70
     1
 70
     0
  1
COMPNAME
  1
\U+56FE\U+6837代号
  1

  1
VT_BSTR
  1
EDT_NONE
  1

  1

 70
     1
 70
     0
 70
     0
 70
     0
 70
     1
 70
     8
 70
    50
 70
     0
 70
     1
 70
     2
 70
     0
  1

100
ZWMATTRIBUTEDEF
 70
     1
 70
     0
  1
COMPMAT
  1
\U+4EA7品名称或材料\U+6807\U+8BB0
  1

  1
VT_BSTR
  1
CMB_DOWN
  1
Fe27;Fe37;C40;C60;38NCD4 - \U+8C03\U+8D28\U+94A2;10NC2 - \U+6E17\U+78B3\U+94A2;PALSi04Mg - 阿\U+7EF4昂\U+94DD合金;奥氏体不\U+9508\U+94A2;AISI316L - INOX\U+710A接\U+7ED3\U+6784\U+94A2;
  1

 70
     1
 70
     0
 70
     0
 70
     0
 70
     1
 70
     8
 70
    50
 70
     0
 70
     1
 70
     2
 70
     0
  1

100
ZWMATTRIBUTEDEF
 70
     1
 70
     0
  1
COMPWT
  1
重量
  1

  1
VT_R8
  1
EDT_NONE
  1

  1

 70
     1
 70
     0
 70
     0
 70
     0
 70
     1
 70
     5
 70
    50
 70
     2
 70
     1
 70
     2
 70
     0
 40
0.0
100
ZWMATTRIBUTEDEF
 70
     1
 70
     0
  1
DESIGNER
  1
\U+8BBE\U+8BA1
  1

  1
VT_BSTR
  1
EDT_NONE
  1

  1

 70
     1
 70
     0
 70
     0
 70
     0
 70
     1
 70
     8
 70
    50
 70
     0
 70
     1
 70
     2
 70
     0
  1

100
ZWMATTRIBUTEDEF
 70
     1
 70
     0
  1
CHECK
  1
\U+5BA1核
  1

  1
VT_BSTR
  1
EDT_NONE
  1

  1

 70
     1
 70
     0
 70
     0
 70
     0
 70
     1
 70
     8
 70
    50
 70
     0
 70
     1
 70
     2
 70
     0
  1

100
ZWMATTRIBUTEDEF
 70
     1
 70
     0
  1
STANDARD
  1
\U+6807准化
  1

  1
VT_BSTR
  1
EDT_NONE
  1

  1

 70
     1
 70
     0
 70
     0
 70
     0
 70
     1
 70
     8
 70
    50
 70
     0
 70
     1
 70
     2
 70
     0
  1

100
ZWMATTRIBUTEDEF
 70
     1
 70
     0
  1
TECHNOLOGY
  1
工\U+827A
  1

  1
VT_BSTR
  1
EDT_NONE
  1

  1

 70
     1
 70
     0
 70
     0
 70
     0
 70
     1
 70
     8
 70
    50
 70
     0
 70
     1
 70
     2
 70
     0
  1

100
ZWMATTRIBUTEDEF
 70
     1
 70
     0
  1
DATE
  1
日期
  1

  1
VT_BSTR
  1
PTI_DATE
  1

  1

 70
     1
 70
     0
 70
     0
 70
     0
 70
     1
 70
     8
 70
    50
 70
     0
 70
     1
 70
     2
 70
     0
  1

100
ZWMATTRIBUTEDEF
 70
     1
 70
     0
  1
TOTALPAPER
  1
共几\U+9875
  1

  1
VT_BSTR
  1
EDT_NONE
  1

  1

 70
     1
 70
     0
 70
     0
 70
     0
 70
     1
 70
     8
 70
    50
 70
     0
 70
     1
 70
     2
 70
     0
  1

100
ZWMATTRIBUTEDEF
 70
     1
 70
     0
  1
PAGENO
  1
第几\U+9875
  1

  1
VT_BSTR
  1
EDT_NONE
  1

  1

 70
     1
 70
     0
 70
     0
 70
     0
 70
     1
 70
     8
 70
    50
 70
     0
 70
     1
 70
     2
 70
     0
  1

100
ZWMATTRIBUTEDEF
 70
     1
 70
     0
  1
SCALE
  1
比例
  1

  1
VT_BSTR
  1
EDT_NONE
  1

  1

 70
     1
 70
     0
 70
     0
 70
     0
 70
     1
 70
     8
 70
    50
 70
     0
 70
     1
 70
     2
 70
     0
  1

100
ZWMATTRIBUTEDEF
 70
     1
 70
     0
  1
PAGES
  1
\U+56FE\U+7EB8\U+5F20数
  1

  1
VT_BSTR
  1
EDT_NONE
  1

  1

 70
     1
 70
     0
 70
     0
 70
     0
 70
     1
 70
     8
 70
    50
 70
     0
 70
     1
 70
     2
 70
     0
  1

100
ZWMATTRIBUTEDEF
 70
     1
 70
     0
  1
FRAMESIZE
  1
\U+56FE幅
  1

  1
VT_BSTR
  1
EDT_NONE
  1

  1

 70
     1
 70
     0
 70
     0
 70
     0
 70
     1
 70
     8
 70
    50
 70
     0
 70
     1
 70
     2
 70
     0
  1

340
0
340
0
340
0
340
0
340
0
340
0
340
0
340
0
 70
    -1
 70
    -1
 70
    -1
 70
    -1
 70
    -1
 70
    -1
 70
    -1
 70
    -1
 70
    -1
 70
    -1
 70
    -1
 70
    -1
 70
    -1
 70
    -1
 70
    -1
 70
    -1
 90
       -1
 90
       -1
 90
       -1
 90
       -1
 90
       -1
 90
       -1
 90
       -1
 90
       -1
  1

  1

  1

  1

  1

  1

  1

  1

  0
ZWMFRAMESTYLESTD
  5
87AF1
330
87AB5
100
ZwmObject
 70
     1
  1

  1
A3
  1

  1

 70
     0
100
ZwmStd
 70
     1
 70
     1
 70
     0
  1

  1
A3
340
0
340
0
340
0
340
0
340
0
340
0
340
0
340
0
 70
    -1
 70
    -1
 70
    -1
 70
    -1
 70
    -1
 70
    -1
 70
    -1
 70
    -1
 70
    -1
 70
    -1
 70
    -1
 70
    -1
 70
    -1
 70
    -1
 70
    -1
 70
    -1
 90
       -1
 90
       -1
 90
       -1
 90
       -1
 90
       -1
 90
       -1
 90
       -1
 90
       -1
  1

  1

  1

  1

  1

  1

  1

  1

100
ZwmFrameStyleStd
 70
     1
 70
     4
  1
A3_无分区\U+56FE框_landscape
100
ZwmFrameProperties
 70
     1
  1
A3
 40
420.0
 40
297.0
 40
25.0
 40
5.0
 40
10.0
 40
0.0
 40
0.0
 40
0.0
 40
0.0
 70
     0
  1
无分区\U+56FE框
  1
无分区\U+56FE框
  1
L
  1
a3_landscape.dwg
  1

  1
landscape
 90
        0
 70
     1
  1
A3_无分区\U+56FE框_portrait
100
ZwmFrameProperties
 70
     1
  1
A3
 40
420.0
 40
297.0
 40
25.0
 40
5.0
 40
10.0
 40
0.0
 40
0.0
 40
0.0
 40
0.0
 70
     0
  1
无分区\U+56FE框
  1
无分区\U+56FE框
  1
L
  1
a3_portrait.dwg
  1

  1
portrait
 90
        0
 70
     0
  1
A3_分区\U+56FE框_portrait
100
ZwmFrameProperties
 70
     1
  1
A3
 40
420.0
 40
297.0
 40
25.0
 40
5.0
 40
10.0
 40
0.0
 40
0.0
 40
0.0
 40
0.0
 70
     0
  1
分区\U+56FE框
  1
分区\U+56FE框
  1
L
  1
a3_portrait_p.dwg
  1

  1
portrait
 90
        0
 70
     0
  1
A3_分区\U+56FE框_landscape
100
ZwmFrameProperties
 70
     1
  1
A3
 40
420.0
 40
297.0
 40
25.0
 40
5.0
 40
10.0
 40
0.0
 40
0.0
 40
0.0
 40
0.0
 70
     0
  1
分区\U+56FE框
  1
分区\U+56FE框
  1
L
  1
a3_landscape_p.dwg
  1

  1
landscape
 90
        0
 70
     0
  0
ENDSEC
  0
EOF
