  0
SECTION
  2
HEADER
  9
$ACADVER
  1
AC1015
  9
$ACADMAINTVER
 70
    20
  9
$DWGCODEPAGE
  3
ANSI_936
  9
$INSBASE
 10
0.0
 20
0.0
 30
0.0
  9
$EXTMIN
 10
-58.90423373414865
 20
-50.75716308220002
 30
0.0
  9
$EXTMAX
 10
71.31385335997117
 20
79.37617677354397
 30
0.0
  9
$LIMMIN
 10
0.0
 20
0.0
  9
$LIMMAX
 10
420.0
 20
297.0
  9
$ORTHOMODE
 70
     0
  9
$REGENMODE
 70
     1
  9
$FILLMODE
 70
     1
  9
$QTEXTMODE
 70
     0
  9
$MIRRTEXT
 70
     1
  9
$LTSCALE
 40
1.0
  9
$ATTMODE
 70
     1
  9
$TEXTSIZE
 40
3.5
  9
$TRACEWID
 40
1.0
  9
$TEXTSTYLE
  7
simplex
  9
$CLAYER
  8
0
  9
$CELTYPE
  6
ByLayer
  9
$CECOLOR
 62
   256
  9
$CELTSCALE
 40
1.0
  9
$DISPSILH
 70
     0
  9
$DIMSCALE
 40
0.0
  9
$DIMASZ
 40
3.5
  9
$DIMEXO
 40
0.0
  9
$DIMDLI
 40
0.38
  9
$DIMRND
 40
0.0
  9
$DIMDLE
 40
0.0
  9
$DIMEXE
 40
1.5
  9
$DIMTP
 40
0.0
  9
$DIMTM
 40
0.0
  9
$DIMTXT
 40
3.5
  9
$DIMCEN
 40
0.09
  9
$DIMTSZ
 40
0.0
  9
$DIMTOL
 70
     0
  9
$DIMLIM
 70
     0
  9
$DIMTIH
 70
     0
  9
$DIMTOH
 70
     0
  9
$DIMSE1
 70
     0
  9
$DIMSE2
 70
     0
  9
$DIMTAD
 70
     1
  9
$DIMZIN
 70
     8
  9
$DIMBLK
  1

  9
$DIMASO
 70
     1
  9
$DIMSHO
 70
     1
  9
$DIMPOST
  1

  9
$DIMAPOST
  1

  9
$DIMALT
 70
     0
  9
$DIMALTD
 70
     2
  9
$DIMALTF
 40
25.4
  9
$DIMLFAC
 40
1.0
  9
$DIMTOFL
 70
     0
  9
$DIMTVP
 40
0.0
  9
$DIMTIX
 70
     0
  9
$DIMSOXD
 70
     0
  9
$DIMSAH
 70
     0
  9
$DIMBLK1
  1

  9
$DIMBLK2
  1

  9
$DIMSTYLE
  2
\M+18352\M+18373\M+1815B - ISO-25
  9
$DIMCLRD
 70
   256
  9
$DIMCLRE
 70
   256
  9
$DIMCLRT
 70
   256
  9
$DIMTFAC
 40
1.0
  9
$DIMGAP
 40
2.299999999999998
  9
$DIMJUST
 70
     0
  9
$DIMSD1
 70
     0
  9
$DIMSD2
 70
     0
  9
$DIMTOLJ
 70
     1
  9
$DIMTZIN
 70
     8
  9
$DIMALTZ
 70
     0
  9
$DIMALTTZ
 70
     0
  9
$DIMUPT
 70
     0
  9
$DIMDEC
 70
     2
  9
$DIMTDEC
 70
     2
  9
$DIMALTU
 70
     2
  9
$DIMALTTD
 70
     2
  9
$DIMTXSTY
  7
simplex
  9
$DIMAUNIT
 70
     0
  9
$DIMADEC
 70
     0
  9
$DIMALTRND
 40
0.0
  9
$DIMAZIN
 70
     0
  9
$DIMDSEP
 70
    46
  9
$DIMATFIT
 70
     3
  9
$DIMFRAC
 70
     0
  9
$DIMLDRBLK
  1

  9
$DIMLUNIT
 70
     2
  9
$DIMLWD
 70
    -1
  9
$DIMLWE
 70
    -1
  9
$DIMTMOVE
 70
     0
  9
$LUNITS
 70
     2
  9
$LUPREC
 70
     4
  9
$SKETCHINC
 40
1.0
  9
$FILLETRAD
 40
0.8
  9
$AUNITS
 70
     0
  9
$AUPREC
 70
     0
  9
$MENU
  1
.
  9
$ELEVATION
 40
0.0
  9
$PELEVATION
 40
0.0
  9
$THICKNESS
 40
0.0
  9
$LIMCHECK
 70
     0
  9
$CHAMFERA
 40
10.0
  9
$CHAMFERB
 40
10.0
  9
$CHAMFERC
 40
20.0
  9
$CHAMFERD
 40
0.0
  9
$SKPOLY
 70
     0
  9
$TDCREATE
 40
2455489.391063368
  9
$TDUCREATE
 40
2455489.057730035
  9
$TDUPDATE
 40
2458543.732136875
  9
$TDUUPDATE
 40
2458543.398803541
  9
$TDINDWG
 40
2.2840129167
  9
$TDUSRTIMER
 40
2.2839574537
  9
$USRTIMER
 70
     1
  9
$ANGBASE
 50
0.0
  9
$ANGDIR
 70
     0
  9
$PDMODE
 70
     0
  9
$PDSIZE
 40
0.0
  9
$PLINEWID
 40
0.0
  9
$SPLFRAME
 70
     0
  9
$SPLINETYPE
 70
     6
  9
$SPLINESEGS
 70
     8
  9
$HANDSEED
  5
56FA6
  9
$SURFTAB1
 70
     6
  9
$SURFTAB2
 70
     6
  9
$SURFTYPE
 70
     6
  9
$SURFU
 70
     6
  9
$SURFV
 70
     6
  9
$UCSBASE
  2

  9
$UCSNAME
  2

  9
$UCSORG
 10
0.0
 20
0.0
 30
0.0
  9
$UCSXDIR
 10
1.0
 20
0.0
 30
0.0
  9
$UCSYDIR
 10
0.0
 20
1.0
 30
0.0
  9
$UCSORTHOREF
  2

  9
$UCSORTHOVIEW
 70
     0
  9
$UCSORGTOP
 10
0.0
 20
0.0
 30
0.0
  9
$UCSORGBOTTOM
 10
0.0
 20
0.0
 30
0.0
  9
$UCSORGLEFT
 10
0.0
 20
0.0
 30
0.0
  9
$UCSORGRIGHT
 10
0.0
 20
0.0
 30
0.0
  9
$UCSORGFRONT
 10
0.0
 20
0.0
 30
0.0
  9
$UCSORGBACK
 10
0.0
 20
0.0
 30
0.0
  9
$PUCSBASE
  2

  9
$PUCSNAME
  2

  9
$PUCSORG
 10
0.0
 20
0.0
 30
0.0
  9
$PUCSXDIR
 10
1.0
 20
0.0
 30
0.0
  9
$PUCSYDIR
 10
0.0
 20
1.0
 30
0.0
  9
$PUCSORTHOREF
  2

  9
$PUCSORTHOVIEW
 70
     0
  9
$PUCSORGTOP
 10
0.0
 20
0.0
 30
0.0
  9
$PUCSORGBOTTOM
 10
0.0
 20
0.0
 30
0.0
  9
$PUCSORGLEFT
 10
0.0
 20
0.0
 30
0.0
  9
$PUCSORGRIGHT
 10
0.0
 20
0.0
 30
0.0
  9
$PUCSORGFRONT
 10
0.0
 20
0.0
 30
0.0
  9
$PUCSORGBACK
 10
0.0
 20
0.0
 30
0.0
  9
$USERI1
 70
     0
  9
$USERI2
 70
     0
  9
$USERI3
 70
     0
  9
$USERI4
 70
     0
  9
$USERI5
 70
     0
  9
$USERR1
 40
0.0
  9
$USERR2
 40
0.0
  9
$USERR3
 40
0.0
  9
$USERR4
 40
0.0
  9
$USERR5
 40
0.0
  9
$WORLDVIEW
 70
     1
  9
$SHADEDGE
 70
     3
  9
$SHADEDIF
 70
    70
  9
$TILEMODE
 70
     1
  9
$MAXACTVP
 70
    64
  9
$PINSBASE
 10
0.0
 20
0.0
 30
0.0
  9
$PLIMCHECK
 70
     0
  9
$PEXTMIN
 10
26.66999878883364
 20
20.31999878883365
 30
0.0
  9
$PEXTMAX
 10
240.0299890995025
 20
182.8799890995025
 30
0.0
  9
$PLIMMIN
 10
-6.350006103515625
 20
-6.349999904632567
  9
$PLIMMAX
 10
273.0499877929688
 20
209.5499939918518
  9
$UNITMODE
 70
     0
  9
$VISRETAIN
 70
     1
  9
$PLINEGEN
 70
     0
  9
$PSLTSCALE
 70
     1
  9
$TREEDEPTH
 70
  3020
  9
$CMLSTYLE
  2
Standard
  9
$CMLJUST
 70
     0
  9
$CMLSCALE
 40
20.0
  9
$PROXYGRAPHICS
 70
     1
  9
$MEASUREMENT
 70
     1
  9
$CELWEIGHT
370
    -1
  9
$ENDCAPS
280
     0
  9
$JOINSTYLE
280
     0
  9
$LWDISPLAY
290
     0
  9
$INSUNITS
 70
     4
  9
$HYPERLINKBASE
  1

  9
$STYLESHEET
  1

  9
$XEDIT
290
     1
  9
$CEPSNTYPE
380
     0
  9
$PSTYLEMODE
290
     1
  9
$FINGERPRINTGUID
  2
{601DDA01-5B13-4A4C-8F56-1333B78D855B}
  9
$VERSIONGUID
  2
{F225B173-B775-46D9-8D9D-A0CAEE1B030F}
  9
$EXTNAMES
290
     1
  9
$PSVPSCALE
 40
0.0
  9
$OLESTARTUP
290
     0
  0
ENDSEC
  0
SECTION
  2
CLASSES
  0
CLASS
  1
ACDBDICTIONARYWDFLT
  2
AcDbDictionaryWithDefault
  3
ObjectDBX Classes
 90
        0
280
     0
281
     0
  0
CLASS
  1
ACDBPLACEHOLDER
  2
AcDbPlaceHolder
  3
ObjectDBX Classes
 90
        0
280
     0
281
     0
  0
CLASS
  1
LAYOUT
  2
AcDbLayout
  3
ObjectDBX Classes
 90
        0
280
     0
281
     0
  0
CLASS
  1
DICTIONARYVAR
  2
AcDbDictionaryVar
  3
ObjectDBX Classes
 90
        0
280
     0
281
     0
  0
CLASS
  1
TABLESTYLE
  2
AcDbTableStyle
  3
ObjectDBX Classes
 90
     2047
280
     0
281
     0
  0
CLASS
  1
SORTENTSTABLE
  2
AcDbSortentsTable
  3
ObjectDBX Classes
 90
        0
280
     0
281
     0
  0
CLASS
  1
DIMASSOC
  2
AcDbDimAssoc
  3
"AcDbDimAssoc|Product Desc:     AcDim ARX App For Dimension|Company:          Autodesk, Inc.|WEB Address:      www.autodesk.com"
 90
    32768
280
     0
281
     0
  0
CLASS
  1
ACAD_EVALUATION_GRAPH
  2
AcDbEvalGraph
  3
ObjectDBX Classes
 90
    33921
280
     0
281
     0
  0
CLASS
  1
ACAECUSTOBJ
  2
AcAeEditorObj
  3
AcAeEditorObj
 90
    33792
280
     0
281
     0
  0
CLASS
  1
ACDB_DYNAMICBLOCKPURGEPREVENTER_VERSION
  2
AcDbDynamicBlockPurgePreventer
  3
ObjectDBX Classes
 90
    33921
280
     0
281
     0
  0
ENDSEC
  0
SECTION
  2
TABLES
  0
TABLE
  2
VPORT
  5
8
330
0
100
AcDbSymbolTable
 70
     3
  0
VPORT
  5
56F97
330
8
100
AcDbSymbolTableRecord
100
AcDbViewportTableRecord
  2
*Active
 70
     0
 10
0.0
 20
0.0
 11
1.0
 21
1.0
 12
29.31768924819653
 22
6.092699872965241
 13
0.0
 23
0.0
 14
10.0
 24
10.0
 15
10.0
 25
10.0
 16
0.0
 26
0.0
 36
1.0
 17
0.0
 27
0.0
 37
0.0
 40
172.6908609327329
 41
1.456521739130434
 42
50.0
 43
0.0
 44
0.0
 50
0.0
 51
0.0
 71
     0
 72
  1000
 73
     1
 74
     1
 75
     0
 76
     0
 77
     0
 78
     0
281
     0
 65
     1
110
0.0
120
0.0
130
0.0
111
1.0
121
0.0
131
0.0
112
0.0
122
1.0
132
0.0
 79
     0
146
0.0
  0
ENDTAB
  0
TABLE
  2
LTYPE
  5
5
330
0
100
AcDbSymbolTable
 70
     5
  0
LTYPE
  5
14
330
5
100
AcDbSymbolTableRecord
100
AcDbLinetypeTableRecord
  2
ByBlock
 70
     0
  3

 72
    65
 73
     0
 40
0.0
  0
LTYPE
  5
15
330
5
100
AcDbSymbolTableRecord
100
AcDbLinetypeTableRecord
  2
ByLayer
 70
     0
  3

 72
    65
 73
     0
 40
0.0
  0
LTYPE
  5
16
330
5
100
AcDbSymbolTableRecord
100
AcDbLinetypeTableRecord
  2
Continuous
 70
     0
  3
Solid line
 72
    65
 73
     0
 40
0.0
  0
LTYPE
  5
D7
330
5
100
AcDbSymbolTableRecord
100
AcDbLinetypeTableRecord
  2
HIDDEN
 70
     0
  3
Hidden __ __ __ __ __ __ __ __ __ __ __ __ __ _
 72
    65
 73
     2
 40
9.524999999999996
 49
6.349999999999997
 74
     0
 49
-3.174999999999998
 74
     0
  0
LTYPE
  5
D9
330
5
100
AcDbSymbolTableRecord
100
AcDbLinetypeTableRecord
  2
CENTER
 70
     0
  3
Center ____ _ ____ _ ____ _ ____ _ ____ _ ____
 72
    65
 73
     4
 40
50.8
 49
31.75
 74
     0
 49
-6.349999999999997
 74
     0
 49
6.349999999999997
 74
     0
 49
-6.349999999999997
 74
     0
  0
LTYPE
  5
35815
330
5
100
AcDbSymbolTableRecord
100
AcDbLinetypeTableRecord
  2
PHANTOM
 70
     0
  3
_____ _ _ _____ _ _ _____ _ _ _____
 72
    65
 73
     6
 40
0.8
 49
0.45
 74
     0
 49
-0.05
 74
     0
 49
0.1
 74
     0
 49
-0.05
 74
     0
 49
0.1
 74
     0
 49
-0.05
 74
     0
  0
LTYPE
  5
54773
330
5
100
AcDbSymbolTableRecord
100
AcDbLinetypeTableRecord
  2
CENTER2
 70
     0
  3
Center (.5x) ___ _ ___ _ ___ _ ___ _ ___ _ ___
 72
    65
 73
     4
 40
28.575
 49
19.05
 74
     0
 49
-3.174999999999998
 74
     0
 49
3.174999999999998
 74
     0
 49
-3.174999999999998
 74
     0
  0
ENDTAB
  0
TABLE
  2
LAYER
  5
2
102
{ACAD_XDICTIONARY
360
E2
102
}
330
0
100
AcDbSymbolTable
 70
    14
  0
LAYER
  5
10
330
2
100
AcDbSymbolTableRecord
100
AcDbLayerTableRecord
  2
0
 70
     0
 62
     7
  6
Continuous
370
    -3
390
F
  0
LAYER
  5
D1
330
2
100
AcDbSymbolTableRecord
100
AcDbLayerTableRecord
  2
1
 70
     0
 62
     4
  6
Continuous
370
    50
390
F
1001
AcAecLayerStandard
1000

1000

  0
LAYER
  5
D3
330
2
100
AcDbSymbolTableRecord
100
AcDbLayerTableRecord
  2
2
 70
     0
 62
     7
  6
Continuous
370
    25
390
F
1001
AcAecLayerStandard
1000

1000

  0
LAYER
  5
D4
330
2
100
AcDbSymbolTableRecord
100
AcDbLayerTableRecord
  2
3
 70
     0
 62
     1
  6
HIDDEN
370
    35
390
F
1001
AcAecLayerStandard
1000

1000

  0
LAYER
  5
D8
330
2
100
AcDbSymbolTableRecord
100
AcDbLayerTableRecord
  2
4
 70
     0
 62
     2
  6
CENTER
370
    25
390
F
1001
AcAecLayerStandard
1000

1000

  0
LAYER
  5
DA
330
2
100
AcDbSymbolTableRecord
100
AcDbLayerTableRecord
  2
6
 70
     0
 62
     5
  6
Continuous
370
    35
390
F
1001
AcAecLayerStandard
1000

1000

  0
LAYER
  5
DB
330
2
100
AcDbSymbolTableRecord
100
AcDbLayerTableRecord
  2
cut
 70
     0
 62
     1
  6
Continuous
370
    25
390
F
1001
AcAecLayerStandard
1000

1000

  0
LAYER
  5
DC
330
2
100
AcDbSymbolTableRecord
100
AcDbLayerTableRecord
  2
nocut
 70
     0
 62
     7
  6
Continuous
370
    25
390
F
1001
AcAecLayerStandard
1000

1000

  0
LAYER
  5
DD
330
2
100
AcDbSymbolTableRecord
100
AcDbLayerTableRecord
  2
sk1
 70
     0
 62
     4
  6
Continuous
370
    50
390
F
1001
AcAecLayerStandard
1000

1000

  0
LAYER
  5
DE
330
2
100
AcDbSymbolTableRecord
100
AcDbLayerTableRecord
  2
sk2
 70
     0
 62
     7
  6
Continuous
370
    25
390
F
1001
AcAecLayerStandard
1000

1000

  0
LAYER
  5
DF
330
2
100
AcDbSymbolTableRecord
100
AcDbLayerTableRecord
  2
sk3
 70
     0
 62
     1
  6
HIDDEN
370
    35
390
F
1001
AcAecLayerStandard
1000

1000

  0
LAYER
  5
E0
330
2
100
AcDbSymbolTableRecord
100
AcDbLayerTableRecord
  2
sk4
 70
     0
 62
     2
  6
CENTER
370
    25
390
F
1001
AcAecLayerStandard
1000

1000

  0
LAYER
  5
E1
330
2
100
AcDbSymbolTableRecord
100
AcDbLayerTableRecord
  2
sk6
 70
     0
 62
     5
  6
Continuous
370
    35
390
F
1001
AcAecLayerStandard
1000

1000

  0
LAYER
  5
31B6
330
2
100
AcDbSymbolTableRecord
100
AcDbLayerTableRecord
  2
Defpoints
 70
     0
 62
     7
  6
Continuous
290
     0
370
    -3
390
F
  0
ENDTAB
  0
TABLE
  2
STYLE
  5
3
330
0
100
AcDbSymbolTable
 70
    11
  0
STYLE
  5
11
330
3
100
AcDbSymbolTableRecord
100
AcDbTextStyleTableRecord
  2
Standard
 70
     0
 40
0.0
 41
1.0
 50
0.0
 71
     0
 42
2.5
  3
txt.shx
  4
@extfont2.shx
  0
STYLE
  5
D6
330
3
100
AcDbSymbolTableRecord
100
AcDbTextStyleTableRecord
  2

 70
     1
 40
0.0
 41
1.0
 50
0.0
 71
     0
 42
2.5
  3
ltypeshp.shx
  4

  0
STYLE
  5
24A
330
3
100
AcDbSymbolTableRecord
100
AcDbTextStyleTableRecord
  2
simplex
 70
     0
 40
3.5
 41
1.0
 50
0.0
 71
     0
 42
3.5
  3
txt.shx
  4

  0
STYLE
  5
69E
330
3
100
AcDbSymbolTableRecord
100
AcDbTextStyleTableRecord
  2
MX_NOTE_STANDARD
 70
     0
 40
0.0
 41
1.0
 50
0.0
 71
     0
 42
4.2
  3
txt.shx
  4
extfont.shx
  0
STYLE
  5
3524
330
3
100
AcDbSymbolTableRecord
100
AcDbTextStyleTableRecord
  2
TEXTSTYLE_2
 70
     0
 40
0.0
 41
0.775
 50
0.0
 71
     0
 42
0.2
  3
gdt
  4

  0
STYLE
  5
3525
330
3
100
AcDbSymbolTableRecord
100
AcDbTextStyleTableRecord
  2
TEXTSTYLE_3
 70
     0
 40
0.0
 41
0.75
 50
0.0
 71
     0
 42
0.2
  3
txt
  4

  0
STYLE
  5
3526
330
3
100
AcDbSymbolTableRecord
100
AcDbTextStyleTableRecord
  2
TEXTSTYLE_13
 70
     0
 40
0.0
 41
1.0
 50
0.0
 71
     0
 42
0.2
  3
txt
  4

  0
STYLE
  5
519A
330
3
100
AcDbSymbolTableRecord
100
AcDbTextStyleTableRecord
  2
TEXTSTYLE_14
 70
     0
 40
0.0
 41
1.0
 50
0.0
 71
     0
 42
0.2
  3
txt
  4

  0
STYLE
  5
6F72
330
3
100
AcDbSymbolTableRecord
100
AcDbTextStyleTableRecord
  2
TEXTSTYLE_4
 70
     0
 40
0.0
 41
0.75
 50
0.0
 71
     0
 42
0.2
  3
txt
  4

  0
STYLE
  5
6F73
330
3
100
AcDbSymbolTableRecord
100
AcDbTextStyleTableRecord
  2
TEXTSTYLE_17
 70
     0
 40
0.0
 41
1.0
 50
0.0
 71
     0
 42
0.2
  3
txt
  4

  0
STYLE
  5
FE12
330
3
100
AcDbSymbolTableRecord
100
AcDbTextStyleTableRecord
  2
TEXTSTYLE_12
 70
     0
 40
0.0
 41
1.0
 50
0.0
 71
     0
 42
0.2
  3
txt
  4

  0
ENDTAB
  0
TABLE
  2
VIEW
  5
6
330
0
100
AcDbSymbolTable
 70
     0
  0
ENDTAB
  0
TABLE
  2
UCS
  5
7
330
0
100
AcDbSymbolTable
 70
     0
  0
ENDTAB
  0
TABLE
  2
APPID
  5
9
330
0
100
AcDbSymbolTable
 70
    11
  0
APPID
  5
12
330
9
100
AcDbSymbolTableRecord
100
AcDbRegAppTableRecord
  2
ACAD
 70
     0
  0
APPID
  5
D2
330
9
100
AcDbSymbolTableRecord
100
AcDbRegAppTableRecord
  2
AcAecLayerStandard
 70
     0
  0
APPID
  5
E6
330
9
100
AcDbSymbolTableRecord
100
AcDbRegAppTableRecord
  2
ACAD_DSTYLE_DIMTEXT_FILL
 70
     0
  0
APPID
  5
4C84
330
9
100
AcDbSymbolTableRecord
100
AcDbRegAppTableRecord
  2
ACAD_EXEMPT_FROM_CAD_STANDARDS
 70
     0
  0
APPID
  5
3493E
330
9
100
AcDbSymbolTableRecord
100
AcDbRegAppTableRecord
  2
DCO15
 70
     0
  0
APPID
  5
4366A
330
9
100
AcDbSymbolTableRecord
100
AcDbRegAppTableRecord
  2
ACAUTHENVIRON
 70
     0
  0
APPID
  5
4366D
330
9
100
AcDbSymbolTableRecord
100
AcDbRegAppTableRecord
  2
AcDbDynamicBlockTrueName
 70
     0
  0
APPID
  5
4366E
330
9
100
AcDbSymbolTableRecord
100
AcDbRegAppTableRecord
  2
AcDbDynamicBlockGUID
 70
     0
  0
APPID
  5
43670
330
9
100
AcDbSymbolTableRecord
100
AcDbRegAppTableRecord
  2
AcDbBlockRepETag
 70
     0
  0
APPID
  5
45C9F
330
9
100
AcDbSymbolTableRecord
100
AcDbRegAppTableRecord
  2
ACAD_DSTYLE_DIMEXT_ENABLED
 70
     0
  0
APPID
  5
45CA0
330
9
100
AcDbSymbolTableRecord
100
AcDbRegAppTableRecord
  2
ACAD_DSTYLE_DIMEXT_LENGTH
 70
     0
  0
ENDTAB
  0
TABLE
  2
DIMSTYLE
  5
A
330
0
100
AcDbSymbolTable
 70
     9
100
AcDbDimStyleTable
 71
     2
340
1BF
340
27
  0
DIMSTYLE
105
27
330
A
100
AcDbSymbolTableRecord
100
AcDbDimStyleTableRecord
  2
ISO-25
 70
     0
 41
2.5
 42
0.625
 43
3.75
 44
1.25
 73
     0
 74
     0
 77
     1
 78
     8
140
2.5
141
2.5
143
0.03937007874016
147
0.625
171
     3
172
     1
271
     2
272
     2
274
     3
278
    44
283
     0
284
     8
340
11
  0
DIMSTYLE
105
1BF
102
{ACAD_REACTORS
330
56BBA
330
56BBB
330
56BBC
330
56BBD
330
56BBE
330
56BBF
102
}
330
A
100
AcDbSymbolTableRecord
100
AcDbDimStyleTableRecord
  2
\M+18352\M+18373\M+1815B - ISO-25
 70
     0
 40
0.0
 41
3.5
 42
0.0
 44
1.5
 73
     0
 74
     0
 77
     1
 78
     8
140
3.5
147
2.299999999999998
176
   256
177
   256
178
   256
271
     2
272
     2
284
     8
340
24A
371
    -1
372
    -1
  0
DIMSTYLE
105
69F
330
A
100
AcDbSymbolTableRecord
100
AcDbDimStyleTableRecord
  2
MXDIMSTYLE
 70
     0
 41
2.5
 42
0.5
 43
3.75
 44
1.5
 73
     0
 74
     0
 77
     1
 78
     8
140
4.2
141
2.5
143
0.03937
147
1.0
171
     4
172
     1
173
     1
271
     2
272
     2
274
     4
283
     0
288
     1
340
69E
341
697
343
697
344
697
  0
DIMSTYLE
105
3527
330
A
100
AcDbSymbolTableRecord
100
AcDbDimStyleTableRecord
  2
STANDARD
 70
     0
 41
3.0
 47
0.001
 48
0.001
 71
     1
 73
     0
 74
     0
 77
     1
 78
     8
140
4.0
271
     3
272
     3
284
     8
340
11
341
34B1
342
34B1
343
34B1
344
34B1
  0
DIMSTYLE
105
3528
330
A
100
AcDbSymbolTableRecord
100
AcDbDimStyleTableRecord
  2
DIMSTYLE_1
 70
     0
 41
3.0
 73
     0
 74
     0
 77
     1
 78
     8
140
4.0
271
     3
272
     3
284
     8
340
11
341
34B1
342
34B1
343
34B1
344
34B1
  0
DIMSTYLE
105
3529
330
A
100
AcDbSymbolTableRecord
100
AcDbDimStyleTableRecord
  2
DIMSTYLE_2
 70
     0
 41
3.0
 47
0.001
 48
0.001
 73
     0
 74
     0
 77
     1
 78
     8
140
4.0
271
     3
272
     3
284
     8
340
11
341
34B1
342
34B1
343
34B1
344
34B1
  0
DIMSTYLE
105
352A
330
A
100
AcDbSymbolTableRecord
100
AcDbDimStyleTableRecord
  2
DIMSTYLE_3
 70
     0
 41
3.0
 47
-0.1
 48
0.3
 71
     1
 73
     0
 74
     0
 77
     1
 78
     8
140
4.0
146
0.5
271
     3
272
     3
284
     8
340
11
341
34B1
342
34B1
343
34B1
344
34B1
  0
DIMSTYLE
105
352B
330
A
100
AcDbSymbolTableRecord
100
AcDbDimStyleTableRecord
  2
DIMSTYLE_4
 70
     0
 41
3.0
 47
0.1
 48
0.1
 71
     1
 73
     0
 74
     0
 77
     1
 78
     8
140
4.0
271
     3
272
     3
284
     8
340
11
341
34B1
342
34B1
343
34B1
344
34B1
  0
DIMSTYLE
105
27245
330
A
100
AcDbSymbolTableRecord
100
AcDbDimStyleTableRecord
  2
DIMSTYLE_5
 70
     0
 41
3.0
 47
0.001
 48
0.001
 73
     0
 74
     0
 77
     1
 78
     8
140
4.0
271
     3
272
     3
284
     8
340
11
341
34B1
342
34B1
343
34B1
344
34B1
  0
ENDTAB
  0
TABLE
  2
BLOCK_RECORD
  5
1
330
0
100
AcDbSymbolTable
 70
    12
  0
BLOCK_RECORD
  5
1F
102
{ACAD_XDICTIONARY
360
31EE
102
}
330
1
100
AcDbSymbolTableRecord
100
AcDbBlockTableRecord
  2
*Model_Space
340
22
  0
BLOCK_RECORD
  5
50
330
1
100
AcDbSymbolTableRecord
100
AcDbBlockTableRecord
  2
*Paper_Space
340
51
  0
BLOCK_RECORD
  5
55
330
1
100
AcDbSymbolTableRecord
100
AcDbBlockTableRecord
  2
*Paper_Space0
340
56
  0
BLOCK_RECORD
  5
680
102
{ACAD_XDICTIONARY
360
43668
102
}
330
1
100
AcDbSymbolTableRecord
100
AcDbBlockTableRecord
  2
zero block
340
0
102
{BLKREFS
331
68C
102
}
1001
ACAD
1000
DesignCenter Data
1002
{
1070
     1
1070
     4
1002
}
1001
AcDbDynamicBlockGUID
1000
{A89DF4EB-B2CB-439E-AC69-1EAC9F242D1C}
1001
AcDbBlockRepETag
1070
     1
1071
        7
  0
BLOCK_RECORD
  5
697
330
1
100
AcDbSymbolTableRecord
100
AcDbBlockTableRecord
  2
_OPEN30
340
0
  0
BLOCK_RECORD
  5
32F1
330
1
100
AcDbSymbolTableRecord
100
AcDbBlockTableRecord
  2
_None
340
0
  0
BLOCK_RECORD
  5
34B1
330
1
100
AcDbSymbolTableRecord
100
AcDbBlockTableRecord
  2
_OPEN
340
0
  0
BLOCK_RECORD
  5
55FC0
330
1
100
AcDbSymbolTableRecord
100
AcDbBlockTableRecord
  2
*D5
340
0
  0
BLOCK_RECORD
  5
56EA6
330
1
100
AcDbSymbolTableRecord
100
AcDbBlockTableRecord
  2
*D6
340
0
  0
BLOCK_RECORD
  5
56EB0
330
1
100
AcDbSymbolTableRecord
100
AcDbBlockTableRecord
  2
*D7
340
0
  0
BLOCK_RECORD
  5
56EBD
330
1
100
AcDbSymbolTableRecord
100
AcDbBlockTableRecord
  2
*D8
340
0
  0
BLOCK_RECORD
  5
56EC9
330
1
100
AcDbSymbolTableRecord
100
AcDbBlockTableRecord
  2
*D9
340
0
  0
BLOCK_RECORD
  5
56ED5
330
1
100
AcDbSymbolTableRecord
100
AcDbBlockTableRecord
  2
*D10
340
0
  0
BLOCK_RECORD
  5
56EE1
330
1
100
AcDbSymbolTableRecord
100
AcDbBlockTableRecord
  2
*D11
340
0
  0
ENDTAB
  0
ENDSEC
  0
SECTION
  2
BLOCKS
  0
BLOCK
  5
20
330
1F
100
AcDbEntity
  8
0
100
AcDbBlockBegin
  2
*Model_Space
 70
     0
 10
0.0
 20
0.0
 30
0.0
  3
*Model_Space
  1

  0
ENDBLK
  5
21
330
1F
100
AcDbEntity
  8
0
100
AcDbBlockEnd
  0
BLOCK
  5
52
330
50
100
AcDbEntity
 67
     1
  8
0
100
AcDbBlockBegin
  2
*Paper_Space
 70
     0
 10
0.0
 20
0.0
 30
0.0
  3
*Paper_Space
  1

  0
ENDBLK
  5
53
330
50
100
AcDbEntity
 67
     1
  8
0
100
AcDbBlockEnd
  0
BLOCK
  5
57
330
55
100
AcDbEntity
 67
     1
  8
0
100
AcDbBlockBegin
  2
*Paper_Space0
 70
     0
 10
0.0
 20
0.0
 30
0.0
  3
*Paper_Space0
  1

  0
VIEWPORT
  5
71
102
{ACAD_XDICTIONARY
360
56FA2
102
}
330
55
100
AcDbEntity
 67
     1
  8
0
100
AcDbViewport
 10
150.1652135264906
 20
101.599997546291
 30
0.0
 40
339.1973820494347
 41
164.5360435314421
 68
     0
 69
     0
 12
150.1652135264906
 22
101.599997546291
 13
0.0
 23
0.0
 14
10.0
 24
10.0
 15
10.0
 25
10.0
 16
0.0
 26
0.0
 36
1.0
 17
0.0
 27
0.0
 37
0.0
 42
50.0
 43
0.0
 44
0.0
 45
164.5360435314421
 50
0.0
 51
0.0
 72
  1000
 90
    32864
  1

281
     0
 71
     1
 74
     0
110
0.0
120
0.0
130
0.0
111
1.0
121
0.0
131
0.0
112
0.0
122
1.0
132
0.0
 79
     0
146
0.0
  0
VIEWPORT
  5
73
102
{ACAD_XDICTIONARY
360
56FA4
102
}
330
55
100
AcDbEntity
 67
     1
  8
0
100
AcDbViewport
 10
133.3499939441681
 20
101.5999939441681
 30
0.0
 40
213.3599903106689
 41
162.5599903106689
 68
     0
 69
     0
 12
210.0
 22
148.5
 13
0.0
 23
0.0
 14
10.0
 24
10.0
 15
10.0
 25
10.0
 16
0.0
 26
0.0
 36
1.0
 17
0.0
 27
0.0
 37
0.0
 42
50.0
 43
0.0
 44
0.0
 45
324.0677920111345
 50
0.0
 51
0.0
 72
   100
 90
    32864
  1

281
     0
 71
     1
 74
     0
110
0.0
120
0.0
130
0.0
111
1.0
121
0.0
131
0.0
112
0.0
122
1.0
132
0.0
 79
     0
146
0.0
  0
ENDBLK
  5
58
330
55
100
AcDbEntity
 67
     1
  8
0
100
AcDbBlockEnd
  0
BLOCK
  5
68A
330
680
100
AcDbEntity
  8
0
100
AcDbBlockBegin
  2
zero block
 70
     0
 10
0.0
 20
0.0
 30
0.0
  3
zero block
  1

  0
HATCH
  5
43661
330
680
100
AcDbEntity
  8
0
 62
     7
100
AcDbHatch
 10
0.0
 20
0.0
 30
0.0
210
0.0
220
0.0
230
1.0
  2
SOLID
 70
     1
 71
     0
 91
        2
 92
        7
 72
     1
 73
     1
 93
        3
 10
0.0
 20
0.9999999999999875
 42
0.4142135623730915
 10
-1.0
 20
0.0
 42
0.0
 10
0.0
 20
0.0
 42
0.0
 97
        0
 92
        7
 72
     1
 73
     1
 93
        3
 10
1.000000000000007
 20
0.0
 42
0.0
 10
0.0
 20
0.0
 42
0.0
 10
0.0
 20
-1.0
 42
0.4142135623730974
 97
        0
 75
     0
 76
     1
 47
0.0090601366782909
 98
        2
 10
-0.380591363650975
 20
0.4885804701532896
 10
0.4350764810977559
 20
-0.4536738423704725
1001
AcDbBlockRepETag
1070
     1
1071
        0
1005
43661
  0
LINE
  5
43662
330
680
100
AcDbEntity
  8
0
 62
     7
 48
0.2
100
AcDbLine
 10
-1.0
 20
0.0
 30
0.0
 11
1.000000000000007
 21
0.0
 31
0.0
1001
AcDbBlockRepETag
1070
     1
1071
        1
1005
43662
  0
LINE
  5
43663
330
680
100
AcDbEntity
  8
0
 62
     7
 48
0.2
100
AcDbLine
 10
0.0
 20
-1.0
 30
0.0
 11
0.0
 21
0.9999999999999875
 31
0.0
1001
AcDbBlockRepETag
1070
     1
1071
        2
1005
43663
  0
ARC
  5
43664
330
680
100
AcDbEntity
  8
0
 62
     7
 48
0.2
100
AcDbCircle
 10
0.0
 20
0.0
 30
0.0
 40
1.0
100
AcDbArc
 50
270.0
 51
0.0
1001
AcDbBlockRepETag
1070
     1
1071
        3
1005
43664
  0
ARC
  5
43665
330
680
100
AcDbEntity
  8
0
 62
     7
 48
0.2
100
AcDbCircle
 10
0.0
 20
0.0
 30
0.0
 40
1.0
100
AcDbArc
 50
0.0
 51
90.0
1001
AcDbBlockRepETag
1070
     1
1071
        4
1005
43665
  0
ARC
  5
43666
330
680
100
AcDbEntity
  8
0
 62
     7
 48
0.2
100
AcDbCircle
 10
0.0
 20
0.0
 30
0.0
 40
1.0
100
AcDbArc
 50
180.0
 51
270.0
1001
AcDbBlockRepETag
1070
     1
1071
        5
1005
43666
  0
ARC
  5
43667
330
680
100
AcDbEntity
  8
0
 62
     7
 48
0.2
100
AcDbCircle
 10
0.0
 20
0.0
 30
0.0
 40
1.0
100
AcDbArc
 50
90.0
 51
180.0
1001
AcDbBlockRepETag
1070
     1
1071
        6
1005
43667
  0
ENDBLK
  5
68B
330
680
100
AcDbEntity
  8
0
100
AcDbBlockEnd
  0
BLOCK
  5
698
330
697
100
AcDbEntity
  8
0
  6
ByBlock
 62
     0
370
    -2
100
AcDbBlockBegin
  2
_OPEN30
 70
     2
 10
0.0
 20
0.0
 30
0.0
  3
_OPEN30
  1

  0
LINE
  5
699
330
697
100
AcDbEntity
  8
0
  6
ByBlock
 62
     0
370
    -2
100
AcDbLine
 10
-1.0
 20
0.267949
 30
0.0
 11
0.0
 21
0.0
 31
0.0
  0
LINE
  5
69A
330
697
100
AcDbEntity
  8
0
  6
ByBlock
 62
     0
370
    -2
100
AcDbLine
 10
0.0
 20
0.0
 30
0.0
 11
-1.0
 21
-0.267949
 31
0.0
  0
LINE
  5
69B
330
697
100
AcDbEntity
  8
0
  6
ByBlock
 62
     0
370
    -2
100
AcDbLine
 10
0.0
 20
0.0
 30
0.0
 11
-1.0
 21
0.0
 31
0.0
  0
ENDBLK
  5
69C
330
697
100
AcDbEntity
  8
0
  6
ByBlock
 62
     0
370
    -2
100
AcDbBlockEnd
  0
BLOCK
  5
32F2
330
32F1
100
AcDbEntity
  8
0
100
AcDbBlockBegin
  2
_None
 70
     0
 10
0.0
 20
0.0
 30
0.0
  3
_None
  1

  0
ENDBLK
  5
32F3
330
32F1
100
AcDbEntity
  8
0
100
AcDbBlockEnd
  0
BLOCK
  5
34B2
330
34B1
100
AcDbEntity
  8
0
100
AcDbBlockBegin
  2
_OPEN
 70
     0
 10
0.0
 20
0.0
 30
0.0
  3
_OPEN
  1

  0
LINE
  5
34B3
330
34B1
100
AcDbEntity
  8
0
  6
ByBlock
 62
     0
100
AcDbLine
 10
0.0
 20
0.0
 30
0.0
 11
-1.0
 21
0.1766666667
 31
0.0
  0
LINE
  5
34B4
330
34B1
100
AcDbEntity
  8
0
  6
ByBlock
 62
     0
100
AcDbLine
 10
-1.0
 20
-0.1766666667
 30
0.0
 11
0.0
 21
0.0
 31
0.0
  0
LINE
  5
34B5
330
34B1
100
AcDbEntity
  8
0
  6
ByBlock
 62
     0
100
AcDbLine
 10
-1.0
 20
0.0
 30
0.0
 11
0.0
 21
0.0
 31
0.0
  0
ENDBLK
  5
34B6
330
34B1
100
AcDbEntity
  8
0
  6
ByBlock
 62
     0
100
AcDbBlockEnd
  0
BLOCK
  5
55FCA
330
55FC0
100
AcDbEntity
  8
0
100
AcDbBlockBegin
  2
*D5
 70
     1
 10
0.0
 20
0.0
 30
0.0
  3
*D5
  1

  0
LINE
  5
56027
330
55FC0
100
AcDbEntity
  8
sk2
100
AcDbLine
 10
1.700000000033753
 20
-27.50000000000151
 30
0.0
 11
-29.86997306064822
 21
-27.5000000000015
 31
0.0
  0
LINE
  5
56028
330
55FC0
100
AcDbEntity
  8
sk2
100
AcDbLine
 10
1.700000000033753
 20
27.49999999999849
 30
0.0
 11
-29.86997306064819
 21
27.49999999999851
 31
0.0
  0
LINE
  5
56029
330
55FC0
100
AcDbEntity
  8
sk2
100
AcDbLine
 10
-28.36997306064822
 20
-24.0000000000015
 30
0.0
 11
-28.3699730606482
 21
23.99999999999851
 31
0.0
  0
SOLID
  5
5602A
330
55FC0
100
AcDbEntity
  8
sk2
100
AcDbTrace
 10
-28.95330639398154
 20
-24.0000000000015
 30
0.0
 11
-27.78663972731488
 21
-24.0000000000015
 31
0.0
 12
-28.36997306064822
 22
-27.5000000000015
 32
0.0
 13
-28.36997306064822
 23
-27.5000000000015
 33
0.0
  0
SOLID
  5
5602B
330
55FC0
100
AcDbEntity
  8
sk2
100
AcDbTrace
 10
-28.95330639398153
 20
23.99999999999851
 30
0.0
 11
-27.78663972731486
 21
23.99999999999851
 31
0.0
 12
-28.36997306064819
 22
27.49999999999851
 32
0.0
 13
-28.36997306064819
 23
27.49999999999851
 33
0.0
  0
MTEXT
  5
5602C
330
55FC0
100
AcDbEntity
  8
sk2
100
AcDbMText
 10
-32.4199730606482
 20
-0.0000000000015041
 30
0.0
 40
3.5
 41
0.0
 71
     5
 72
     1
  1
\A1;%%c55
  7
simplex
 11
0.0000000000000001
 21
1.0
 31
0.0
 73
     1
 44
1.0
1001
ACAD
1000
MTEXTBEGIN
1070
    73
1070
     1
1070
    44
1040
1.0
1070
    74
1070
     0
1000
MTEXTEND
  0
POINT
  5
5602D
330
55FC0
100
AcDbEntity
  8
Defpoints
 62
     0
100
AcDbPoint
 10
1.700000000033753
 20
-27.50000000000151
 30
0.0
  0
POINT
  5
5602E
330
55FC0
100
AcDbEntity
  8
Defpoints
 62
     0
100
AcDbPoint
 10
1.700000000033753
 20
27.49999999999849
 30
0.0
  0
POINT
  5
5602F
330
55FC0
100
AcDbEntity
  8
Defpoints
 62
     0
100
AcDbPoint
 10
-28.36997306064819
 20
27.49999999999851
 30
0.0
  0
ENDBLK
  5
55FCB
330
55FC0
100
AcDbEntity
  8
0
100
AcDbBlockEnd
  0
BLOCK
  5
56EAE
330
56EA6
100
AcDbEntity
  8
0
100
AcDbBlockBegin
  2
*D6
 70
     1
 10
0.0
 20
0.0
 30
0.0
  3
*D6
  1

  0
LINE
  5
56F24
330
56EA6
100
AcDbEntity
  8
2
100
AcDbLine
 10
50.79999999999998
 20
31.75
 30
0.0
 11
71.31385335997117
 21
31.75
 31
0.0
  0
LINE
  5
56F25
330
56EA6
100
AcDbEntity
  8
2
100
AcDbLine
 10
69.81385335997117
 20
28.25
 30
0.0
 11
69.81385335997117
 21
-31.75000000000001
 31
0.0
  0
SOLID
  5
56F26
330
56EA6
100
AcDbEntity
  8
2
100
AcDbTrace
 10
69.23052002663784
 20
28.25
 30
0.0
 11
70.39718669330452
 21
28.25
 31
0.0
 12
69.81385335997117
 22
31.75
 32
0.0
 13
69.81385335997117
 23
31.75
 33
0.0
  0
MTEXT
  5
56F27
330
56EA6
100
AcDbEntity
  8
2
100
AcDbMText
 10
64.01385335997118
 20
1.993793647876139
 30
0.0
 40
3.5
 41
0.0
 71
     2
 72
     1
  1
\A1;%%c63.5 [%%C2.500"]
  7
simplex
 11
0.0000000000000001
 21
1.0
 31
0.0
 73
     1
 44
1.0
1001
ACAD
1000
MTEXTBEGIN
1070
    73
1070
     1
1070
    44
1040
1.0
1070
    74
1070
     0
1000
MTEXTEND
  0
POINT
  5
56F28
330
56EA6
100
AcDbEntity
  8
Defpoints
 62
     0
100
AcDbPoint
 10
50.79999999999998
 20
31.75
 30
0.0
  0
POINT
  5
56F29
330
56EA6
100
AcDbEntity
  8
Defpoints
 62
     0
100
AcDbPoint
 10
50.79999999999998
 20
-31.75
 30
0.0
  0
POINT
  5
56F2A
330
56EA6
100
AcDbEntity
  8
Defpoints
 62
     0
100
AcDbPoint
 10
69.81385335997117
 20
-31.75000000000001
 30
0.0
  0
ENDBLK
  5
56EAF
330
56EA6
100
AcDbEntity
  8
0
100
AcDbBlockEnd
  0
BLOCK
  5
56EBB
330
56EB0
100
AcDbEntity
  8
0
100
AcDbBlockBegin
  2
*D7
 70
     1
 10
0.0
 20
0.0
 30
0.0
  3
*D7
  1

  0
LINE
  5
56F2B
330
56EB0
100
AcDbEntity
  8
2
100
AcDbLine
 10
50.79999999999998
 20
34.43090149309998
 30
0.0
 11
50.79999999999998
 21
47.3425728510067
 31
0.0
  0
LINE
  5
56F2C
330
56EB0
100
AcDbEntity
  8
2
100
AcDbLine
 10
40.79999999999995
 20
31.75685427598174
 30
0.0
 11
40.79999999999995
 21
47.3425728510067
 31
0.0
  0
LINE
  5
56F2D
330
56EB0
100
AcDbEntity
  8
2
100
AcDbLine
 10
54.29999999999998
 20
45.84257285100671
 30
0.0
 11
57.79999999999998
 21
45.84257285100671
 31
0.0
  0
LINE
  5
56F2E
330
56EB0
100
AcDbEntity
  8
2
100
AcDbLine
 10
37.29999999999995
 20
45.84257285100671
 30
0.0
 11
-12.21666666666672
 21
45.84257285100671
 31
0.0
  0
SOLID
  5
56F2F
330
56EB0
100
AcDbEntity
  8
2
100
AcDbTrace
 10
54.29999999999998
 20
46.42590618434003
 30
0.0
 11
54.29999999999998
 21
45.25923951767337
 31
0.0
 12
50.79999999999998
 22
45.84257285100671
 32
0.0
 13
50.79999999999998
 23
45.84257285100671
 33
0.0
  0
SOLID
  5
56F30
330
56EB0
100
AcDbEntity
  8
2
100
AcDbTrace
 10
37.29999999999995
 20
46.42590618434003
 30
0.0
 11
37.29999999999995
 21
45.25923951767337
 31
0.0
 12
40.79999999999995
 22
45.84257285100671
 32
0.0
 13
40.79999999999995
 23
45.84257285100671
 33
0.0
  0
MTEXT
  5
56F31
330
56EB0
100
AcDbEntity
  8
2
100
AcDbMText
 10
10.79166666666661
 20
51.64257285100671
 30
0.0
 40
3.5
 41
0.0
 71
     2
 72
     1
  1
\A1;10 [.394"](MAX)
  7
simplex
 73
     1
 44
1.0
1001
ACAD
1000
MTEXTBEGIN
1070
    73
1070
     1
1070
    44
1040
1.0
1070
    74
1070
     0
1000
MTEXTEND
  0
POINT
  5
56F32
330
56EB0
100
AcDbEntity
  8
Defpoints
 62
     0
100
AcDbPoint
 10
50.79999999999998
 20
34.43090149309998
 30
0.0
  0
POINT
  5
56F33
330
56EB0
100
AcDbEntity
  8
Defpoints
 62
     0
100
AcDbPoint
 10
40.79999999999995
 20
31.75685427598174
 30
0.0
  0
POINT
  5
56F34
330
56EB0
100
AcDbEntity
  8
Defpoints
 62
     0
100
AcDbPoint
 10
40.79999999999995
 20
45.84257285100671
 30
0.0
  0
ENDBLK
  5
56EBC
330
56EB0
100
AcDbEntity
  8
0
100
AcDbBlockEnd
  0
BLOCK
  5
56EC7
330
56EBD
100
AcDbEntity
  8
0
100
AcDbBlockBegin
  2
*D8
 70
     1
 10
0.0
 20
0.0
 30
0.0
  3
*D8
  1

  0
LINE
  5
56F35
330
56EBD
100
AcDbEntity
  8
sk2
100
AcDbLine
 10
1.628838489199949
 20
27.81500000169998
 30
0.0
 11
-31.25349704920006
 21
27.8150000017
 31
0.0
  0
LINE
  5
56F36
330
56EBD
100
AcDbEntity
  8
sk2
100
AcDbLine
 10
3.211799800699963
 20
-27.81499999830002
 30
0.0
 11
-31.25349704920007
 21
-27.81499999830002
 31
0.0
  0
LINE
  5
56F37
330
56EBD
100
AcDbEntity
  8
sk2
100
AcDbLine
 10
-29.75349704920006
 20
24.3150000017
 30
0.0
 11
-29.75349704920007
 21
-24.31499999830001
 31
0.0
  0
SOLID
  5
56F38
330
56EBD
100
AcDbEntity
  8
sk2
100
AcDbTrace
 10
-30.33683038253339
 20
24.3150000017
 30
0.0
 11
-29.17016371586673
 21
24.3150000017
 31
0.0
 12
-29.75349704920006
 22
27.8150000017
 32
0.0
 13
-29.75349704920006
 23
27.8150000017
 33
0.0
  0
SOLID
  5
56F39
330
56EBD
100
AcDbEntity
  8
sk2
100
AcDbTrace
 10
-30.3368303825334
 20
-24.31499999830001
 30
0.0
 11
-29.17016371586674
 21
-24.31499999830001
 31
0.0
 12
-29.75349704920007
 22
-27.81499999830002
 32
0.0
 13
-29.75349704920007
 23
-27.81499999830002
 33
0.0
  0
MTEXT
  5
56F3A
330
56EBD
100
AcDbEntity
  8
sk2
100
AcDbMText
 10
-35.55349704920006
 20
0.0000000016999882
 30
0.0
 40
3.5
 41
0.0
 71
     2
 72
     1
  1
\A1;%%c55.63 [%%C2.190"]
  7
simplex
 11
0.0000000000000001
 21
1.0
 31
0.0
 73
     1
 44
1.0
1001
ACAD
1000
MTEXTBEGIN
1070
    73
1070
     1
1070
    44
1040
1.0
1070
    74
1070
     0
1000
MTEXTEND
  0
POINT
  5
56F3B
330
56EBD
100
AcDbEntity
  8
Defpoints
 62
     0
100
AcDbPoint
 10
1.628838489199949
 20
27.81500000169998
 30
0.0
  0
POINT
  5
56F3C
330
56EBD
100
AcDbEntity
  8
Defpoints
 62
     0
100
AcDbPoint
 10
3.211799800699963
 20
-27.81499999830002
 30
0.0
  0
POINT
  5
56F3D
330
56EBD
100
AcDbEntity
  8
Defpoints
 62
     0
100
AcDbPoint
 10
-29.75349704920007
 20
-27.81499999830002
 30
0.0
  0
ENDBLK
  5
56EC8
330
56EBD
100
AcDbEntity
  8
0
100
AcDbBlockEnd
  0
BLOCK
  5
56ED3
330
56EC9
100
AcDbEntity
  8
0
100
AcDbBlockBegin
  2
*D9
 70
     1
 10
0.0
 20
0.0
 30
0.0
  3
*D9
  1

  0
LINE
  5
56F3E
330
56EC9
100
AcDbEntity
  8
sk2
100
AcDbLine
 10
3.699999999999988
 20
-12.70000000000002
 30
0.0
 11
-15.87615859480008
 21
-12.70000000000001
 31
0.0
  0
LINE
  5
56F3F
330
56EC9
100
AcDbEntity
  8
sk2
100
AcDbLine
 10
3.699999999999988
 20
12.70000000000002
 30
0.0
 11
-15.87615859480007
 21
12.70000000000002
 31
0.0
  0
LINE
  5
56F40
330
56EC9
100
AcDbEntity
  8
sk2
100
AcDbLine
 10
-14.37615859480007
 20
-9.200000000000011
 30
0.0
 11
-14.37615859480007
 21
9.200000000000024
 31
0.0
  0
SOLID
  5
56F41
330
56EC9
100
AcDbEntity
  8
sk2
100
AcDbTrace
 10
-14.9594919281334
 20
-9.200000000000011
 30
0.0
 11
-13.79282526146674
 21
-9.200000000000011
 31
0.0
 12
-14.37615859480008
 22
-12.70000000000001
 32
0.0
 13
-14.37615859480008
 23
-12.70000000000001
 33
0.0
  0
SOLID
  5
56F42
330
56EC9
100
AcDbEntity
  8
sk2
100
AcDbTrace
 10
-14.9594919281334
 20
9.200000000000024
 30
0.0
 11
-13.79282526146674
 21
9.200000000000024
 31
0.0
 12
-14.37615859480007
 22
12.70000000000002
 32
0.0
 13
-14.37615859480007
 23
12.70000000000002
 33
0.0
  0
MTEXT
  5
56F43
330
56EC9
100
AcDbEntity
  8
sk2
100
AcDbMText
 10
-20.17615859480007
 20
0.0000000000000032
 30
0.0
 40
3.5
 41
0.0
 71
     2
 72
     1
  1
\A1;%%c25.4 [%%C1.000"]
  7
simplex
 11
0.0000000000000001
 21
1.0
 31
0.0
 73
     1
 44
1.0
1001
ACAD
1000
MTEXTBEGIN
1070
    73
1070
     1
1070
    44
1040
1.0
1070
    74
1070
     0
1000
MTEXTEND
  0
POINT
  5
56F44
330
56EC9
100
AcDbEntity
  8
Defpoints
 62
     0
100
AcDbPoint
 10
3.699999999999988
 20
-12.70000000000002
 30
0.0
  0
POINT
  5
56F45
330
56EC9
100
AcDbEntity
  8
Defpoints
 62
     0
100
AcDbPoint
 10
3.699999999999988
 20
12.70000000000002
 30
0.0
  0
POINT
  5
56F46
330
56EC9
100
AcDbEntity
  8
Defpoints
 62
     0
100
AcDbPoint
 10
-14.37615859480007
 20
12.70000000000002
 30
0.0
  0
ENDBLK
  5
56ED4
330
56EC9
100
AcDbEntity
  8
0
100
AcDbBlockEnd
  0
BLOCK
  5
56EDF
330
56ED5
100
AcDbEntity
  8
0
100
AcDbBlockBegin
  2
*D10
 70
     1
 10
0.0
 20
0.0
 30
0.0
  3
*D10
  1

  0
LINE
  5
56F47
330
56ED5
100
AcDbEntity
  8
2
100
AcDbLine
 10
0.0
 20
27.21500000000001
 30
0.0
 11
0.0000000000000021
 21
61.3529019308575
 31
0.0
  0
LINE
  5
56F48
330
56ED5
100
AcDbEntity
  8
2
100
AcDbLine
 10
50.79999999999998
 20
30.63217339501206
 30
0.0
 11
50.79999999999998
 21
61.3529019308575
 31
0.0
  0
LINE
  5
56F49
330
56ED5
100
AcDbEntity
  8
2
100
AcDbLine
 10
3.500000000000001
 20
59.8529019308575
 30
0.0
 11
47.29999999999998
 21
59.8529019308575
 31
0.0
  0
SOLID
  5
56F4A
330
56ED5
100
AcDbEntity
  8
2
100
AcDbTrace
 10
3.500000000000001
 20
60.43623526419082
 30
0.0
 11
3.500000000000001
 21
59.26956859752415
 31
0.0
 12
0.000000000000002
 22
59.8529019308575
 32
0.0
 13
0.000000000000002
 23
59.8529019308575
 33
0.0
  0
SOLID
  5
56F4B
330
56ED5
100
AcDbEntity
  8
2
100
AcDbTrace
 10
47.29999999999998
 20
60.43623526419082
 30
0.0
 11
47.29999999999998
 21
59.26956859752415
 31
0.0
 12
50.79999999999998
 22
59.8529019308575
 32
0.0
 13
50.79999999999998
 23
59.8529019308575
 33
0.0
  0
MTEXT
  5
56F4C
330
56ED5
100
AcDbEntity
  8
2
100
AcDbMText
 10
25.39999999999998
 20
65.6529019308575
 30
0.0
 40
3.5
 41
0.0
 71
     2
 72
     1
  1
\A1;50.8 [2.000"]
  7
simplex
 73
     1
 44
1.0
1001
ACAD
1000
MTEXTBEGIN
1070
    73
1070
     1
1070
    44
1040
1.0
1070
    74
1070
     0
1000
MTEXTEND
  0
POINT
  5
56F4D
330
56ED5
100
AcDbEntity
  8
Defpoints
 62
     0
100
AcDbPoint
 10
0.0
 20
27.21500000000001
 30
0.0
  0
POINT
  5
56F4E
330
56ED5
100
AcDbEntity
  8
Defpoints
 62
     0
100
AcDbPoint
 10
50.79999999999998
 20
30.63217339501206
 30
0.0
  0
POINT
  5
56F4F
330
56ED5
100
AcDbEntity
  8
Defpoints
 62
     0
100
AcDbPoint
 10
50.79999999999998
 20
59.8529019308575
 30
0.0
  0
ENDBLK
  5
56EE0
330
56ED5
100
AcDbEntity
  8
0
100
AcDbBlockEnd
  0
BLOCK
  5
56EEC
330
56EE1
100
AcDbEntity
  8
0
100
AcDbBlockBegin
  2
*D11
 70
     1
 10
0.0
 20
0.0
 30
0.0
  3
*D11
  1

  0
LINE
  5
56F50
330
56EE1
100
AcDbEntity
  8
sk2
100
AcDbLine
 10
0.0
 20
-27.21500000000001
 30
0.0
 11
-0.0000000000000014
 21
-50.75716308220002
 31
0.0
  0
LINE
  5
56F51
330
56EE1
100
AcDbEntity
  8
sk2
100
AcDbLine
 10
25.99999999999997
 20
-12.87801760170001
 30
0.0
 11
25.99999999999997
 21
-50.75716308220002
 31
0.0
  0
LINE
  5
56F52
330
56EE1
100
AcDbEntity
  8
sk2
100
AcDbLine
 10
3.499999999999998
 20
-49.25716308220002
 30
0.0
 11
22.49999999999997
 21
-49.25716308220002
 31
0.0
  0
LINE
  5
56F53
330
56EE1
100
AcDbEntity
  8
sk2
100
AcDbLine
 10
25.99999999999997
 20
-49.25716308220002
 30
0.0
 11
63.84999999999998
 21
-49.25716308220002
 31
0.0
  0
SOLID
  5
56F54
330
56EE1
100
AcDbEntity
  8
sk2
100
AcDbTrace
 10
3.499999999999998
 20
-48.6738297488667
 30
0.0
 11
3.499999999999998
 21
-49.84049641553336
 31
0.0
 12
-0.0000000000000013
 22
-49.25716308220002
 32
0.0
 13
-0.0000000000000013
 23
-49.25716308220002
 33
0.0
  0
SOLID
  5
56F55
330
56EE1
100
AcDbEntity
  8
sk2
100
AcDbTrace
 10
22.49999999999997
 20
-48.6738297488667
 30
0.0
 11
22.49999999999997
 21
-49.84049641553336
 31
0.0
 12
25.99999999999997
 22
-49.25716308220002
 32
0.0
 13
25.99999999999997
 23
-49.25716308220002
 33
0.0
  0
MTEXT
  5
56F56
330
56EE1
100
AcDbEntity
  8
sk2
100
AcDbMText
 10
46.67499999999995
 20
-43.45716308220001
 30
0.0
 40
3.5
 41
0.0
 71
     2
 72
     1
  1
\A1;26 [1.024"]
  7
simplex
 73
     1
 44
1.0
1001
ACAD
1000
MTEXTBEGIN
1070
    73
1070
     1
1070
    44
1040
1.0
1070
    74
1070
     0
1000
MTEXTEND
  0
POINT
  5
56F57
330
56EE1
100
AcDbEntity
  8
Defpoints
 62
     0
100
AcDbPoint
 10
0.0
 20
-27.21500000000001
 30
0.0
  0
POINT
  5
56F58
330
56EE1
100
AcDbEntity
  8
Defpoints
 62
     0
100
AcDbPoint
 10
25.99999999999997
 20
-12.87801760170001
 30
0.0
  0
POINT
  5
56F59
330
56EE1
100
AcDbEntity
  8
Defpoints
 62
     0
100
AcDbPoint
 10
25.99999999999997
 20
-49.25716308220002
 30
0.0
  0
ENDBLK
  5
56EED
330
56EE1
100
AcDbEntity
  8
0
100
AcDbBlockEnd
  0
ENDSEC
  0
SECTION
  2
ENTITIES
  0
INSERT
  5
68C
330
1F
100
AcDbEntity
  8
0
100
AcDbBlockReference
  2
zero block
 10
0.0000000000000072
 20
0.0
 30
0.0
 50
180.0
  0
MTEXT
  5
56BAE
330
1F
100
AcDbEntity
  8
sk6
100
AcDbMText
 10
-5.131266411987211
 20
79.37617677354395
 30
0.0
 40
5.0
 41
70.03712541027798
 71
     1
 72
     5
  1
VOX400UR2508C
  7
simplex
 73
     1
 44
1.0
1001
ACAD
1000
MTEXTBEGIN
1070
    73
1070
     1
1070
    44
1040
1.0
1070
    74
1070
     0
1000
MTEXTEND
  0
LINE
  5
56BAF
330
1F
100
AcDbEntity
  8
nocut
100
AcDbLine
 10
50.09999999999998
 20
0.0
 30
0.0
 11
50.09999999999998
 21
27.46308640749996
 31
0.0
  0
LINE
  5
56BB0
330
1F
100
AcDbEntity
  8
nocut
100
AcDbLine
 10
0.0
 20
0.0
 30
0.0
 11
50.10000000000001
 21
-0.0000000000000284
 31
0.0
  0
LINE
  5
56BB1
330
1F
100
AcDbEntity
  8
nocut
100
AcDbLine
 10
0.0
 20
27.21499735219999
 30
0.0
 11
0.0
 21
0.0
 31
0.0
  0
LINE
  5
56BB2
330
1F
100
AcDbEntity
  8
nocut
100
AcDbLine
 10
27.37318051509999
 20
26.46130945499996
 30
0.0
 11
33.93317503560002
 21
29.10150904379998
 31
0.0
  0
LINE
  5
56BB3
330
1F
100
AcDbEntity
  8
nocut
100
AcDbLine
 10
1.199999999999988
 20
27.81499999999997
 30
0.0
 11
9.699999999999988
 21
27.81499999999997
 31
0.0
  0
LINE
  5
56BB4
330
1F
100
AcDbEntity
  8
nocut
100
AcDbLine
 10
1.199999999999988
 20
27.81499999999997
 30
0.0
 11
9.699999999999988
 21
27.81499999999997
 31
0.0
  0
LINE
  5
56BB5
330
1F
100
AcDbEntity
  8
nocut
100
AcDbLine
 10
35.79999999999998
 20
29.46308640749996
 30
0.0
 11
48.09999999999996
 21
29.46308640749996
 31
0.0
  0
ARC
  5
56BB6
330
1F
100
AcDbEntity
  8
nocut
100
AcDbCircle
 10
19.90588065769998
 20
45.01499999999995
 30
0.0
 40
20.0
100
AcDbArc
 50
239.3165828909999
 51
291.923295408899
  0
ARC
  5
56BB7
330
1F
100
AcDbEntity
  8
nocut
100
AcDbCircle
 10
35.79999999999998
 20
24.46308640749996
 30
0.0
 40
5.0
100
AcDbArc
 50
90.0
 51
111.923295408899
  0
ARC
  5
56BB8
330
1F
100
AcDbEntity
  8
nocut
100
AcDbCircle
 10
48.09999999999996
 20
27.46308640749996
 30
0.0
 40
2.0
100
AcDbArc
 50
0.0
 51
90.0
  0
ARC
  5
56BB9
330
1F
100
AcDbEntity
  8
nocut
100
AcDbCircle
 10
1.199999999999988
 20
26.31499999999997
 30
0.0
 40
1.5
100
AcDbArc
 50
90.0
 51
143.1301023541998
  0
DIMENSION
  5
56BBA
330
1F
100
AcDbEntity
  8
2
100
AcDbDimension
  2
*D6
 10
69.81385335997117
 20
-31.75000000000001
 30
0.0
 11
69.81385335997117
 21
1.993793647876137
 31
0.0
 70
   160
  1
%%c<>
 71
     2
 42
63.5
  3
\M+18352\M+18373\M+1815B - ISO-25
100
AcDbAlignedDimension
 13
50.79999999999998
 23
31.75
 33
0.0
 14
50.79999999999998
 24
-31.75
 34
0.0
 50
270.0
100
AcDbRotatedDimension
1001
ACAD
1000
DSTYLE
1002
{
1070
     4
1000
%%C[]"
1070
    40
1040
1.0
1070
    76
1070
     1
1070
   143
1040
0.03937
1070
   170
1070
     1
1070
   171
1070
     3
1070
   173
1070
     1
1070
   271
1070
     8
1070
   285
1070
     4
1070
   344
1005
32F1
1002
}
  0
DIMENSION
  5
56BBB
330
1F
100
AcDbEntity
  8
2
100
AcDbDimension
  2
*D7
 10
40.79999999999995
 20
45.84257285100671
 30
0.0
 11
10.79166666666661
 21
45.84257285100671
 31
0.0
 70
   160
  1
<>(MAX)
 71
     2
 42
10.00000000000003
  3
\M+18352\M+18373\M+1815B - ISO-25
100
AcDbAlignedDimension
 13
50.79999999999998
 23
34.43090149309998
 33
0.0
 14
40.79999999999995
 24
31.75685427598174
 34
0.0
 50
180.0
100
AcDbRotatedDimension
1001
ACAD
1000
DSTYLE
1002
{
1070
     4
1000
"
1070
    40
1040
1.0
1070
   143
1040
0.03937
1070
   170
1070
     1
1070
   171
1070
     3
1070
   271
1070
     8
1070
   285
1070
     4
1002
}
  0
DIMENSION
  5
56BBC
330
1F
100
AcDbEntity
  8
sk2
100
AcDbDimension
  2
*D8
 10
-29.75349704920007
 20
-27.81499999830002
 30
0.0
 11
-29.75349704920006
 21
0.0000000016999877
 31
0.0
 70
   160
  1
%%c<>
 71
     2
 42
55.63
  3
\M+18352\M+18373\M+1815B - ISO-25
100
AcDbAlignedDimension
 13
1.628838489199949
 23
27.81500000169998
 33
0.0
 14
3.211799800699963
 24
-27.81499999830002
 34
0.0
 50
270.0
100
AcDbRotatedDimension
1001
ACAD
1000
DSTYLE
1002
{
1070
     4
1000
%%C[]"
1070
    40
1040
1.0
1070
   143
1040
0.03937
1070
   170
1070
     1
1070
   171
1070
     3
1070
   271
1070
     8
1070
   285
1070
     4
1002
}
  0
DIMENSION
  5
56BBD
330
1F
100
AcDbEntity
  8
sk2
100
AcDbDimension
  2
*D9
 10
-14.37615859480007
 20
12.70000000000002
 30
0.0
 11
-14.37615859480007
 21
0.0000000000000027
 31
0.0
 70
   160
  1
%%c<>
 71
     2
 42
25.40000000000004
  3
\M+18352\M+18373\M+1815B - ISO-25
100
AcDbAlignedDimension
 13
3.699999999999988
 23
-12.70000000000002
 33
0.0
 14
3.699999999999988
 24
12.70000000000002
 34
0.0
 50
90.0
100
AcDbRotatedDimension
1001
ACAD
1000
DSTYLE
1002
{
1070
     4
1000
%%C[]"
1070
    40
1040
1.0
1070
   143
1040
0.03937
1070
   170
1070
     1
1070
   171
1070
     3
1070
   271
1070
     8
1070
   285
1070
     4
1002
}
  0
DIMENSION
  5
56BBE
330
1F
100
AcDbEntity
  8
2
100
AcDbDimension
  2
*D10
 10
50.79999999999998
 20
59.8529019308575
 30
0.0
 11
25.39999999999998
 21
59.8529019308575
 31
0.0
 70
   160
 71
     2
 42
50.79999999999998
  3
\M+18352\M+18373\M+1815B - ISO-25
100
AcDbAlignedDimension
 13
0.0
 23
27.21500000000001
 33
0.0
 14
50.79999999999998
 24
30.63217339501206
 34
0.0
100
AcDbRotatedDimension
1001
ACAD
1000
DSTYLE
1002
{
1070
     4
1000
"
1070
    40
1040
1.0
1070
   143
1040
0.03937
1070
   170
1070
     1
1070
   171
1070
     3
1070
   271
1070
     8
1070
   285
1070
     4
1002
}
  0
DIMENSION
  5
56BBF
330
1F
100
AcDbEntity
  8
sk2
100
AcDbDimension
  2
*D11
 10
25.99999999999997
 20
-49.25716308220002
 30
0.0
 11
46.67499999999995
 21
-49.25716308220002
 31
0.0
 70
   160
 71
     2
 42
25.99999999999997
  3
\M+18352\M+18373\M+1815B - ISO-25
100
AcDbAlignedDimension
 13
0.0
 23
-27.21500000000001
 33
0.0
 14
25.99999999999997
 24
-12.87801760170001
 34
0.0
100
AcDbRotatedDimension
1001
ACAD
1000
DSTYLE
1002
{
1070
     4
1000
[]"
1070
    40
1040
1.0
1070
   143
1040
0.03937
1070
   170
1070
     1
1070
   171
1070
     3
1070
   271
1070
     8
1070
   285
1070
     4
1002
}
  0
LWPOLYLINE
  5
56BC0
330
1F
100
AcDbEntity
  8
1
100
AcDbPolyline
 90
       10
 70
     0
 43
0.0
 10
50.48366595669995
 20
-21.74479535899999
 10
50.48003699499997
 20
-21.73029628980001
 10
50.47630004789994
 20
-21.71576348690003
 10
50.47245506999995
 20
-21.70119712160002
 10
50.46850201329994
 20
-21.68659735710001
 10
50.46444083469996
 20
-21.67196437280002
 10
50.46027149559995
 20
-21.6572983641
 10
50.45599395339998
 20
-21.64259951060002
 10
50.45160816099997
 20
-21.62786797539999
 10
50.44711407359995
 20
-21.6131039297
  0
LINE
  5
56BC1
330
1F
100
AcDbEntity
  8
1
100
AcDbLine
 10
50.75552531929997
 20
-25.69703379680002
 30
0.0
 11
50.78406920019996
 21
-25.84526157080002
 31
0.0
  0
LINE
  5
56BC2
330
1F
100
AcDbEntity
  8
1
100
AcDbLine
 10
50.78406920019996
 20
-25.84526157080002
 30
0.0
 11
50.79800564219993
 21
-25.92440365680003
 31
0.0
  0
LWPOLYLINE
  5
56BC3
330
1F
100
AcDbEntity
  8
1
100
AcDbPolyline
 90
       10
 70
     0
 43
0.0
 10
50.51987621629994
 20
-21.92274546130001
 10
50.51668425249997
 20
-21.90326826100002
 10
50.51328512069995
 20
-21.88371634900001
 10
50.50967850749998
 20
-21.8640901174
 10
50.50586403029996
 20
-21.84438991510002
 10
50.50184144029993
 20
-21.82461618260001
 10
50.49761062849995
 20
-21.80476945050001
 10
50.49317135309994
 20
-21.78485016000002
 10
50.48852323339997
 20
-21.76485866340002
 10
50.48366595669995
 20
-21.74479535899999
  0
LINE
  5
56BC4
330
1F
100
AcDbEntity
  8
1
100
AcDbLine
 10
50.12007716159995
 20
-27.95816751980002
 30
0.0
 11
50.07644704519993
 21
-27.76788677680004
 31
0.0
  0
LWPOLYLINE
  5
56BC5
330
1F
100
AcDbEntity
  8
1
100
AcDbPolyline
 90
        9
 70
     0
 43
0.0
 10
49.21192928919996
 20
-29.87371848000001
 10
49.21374288229995
 20
-29.88264136800001
 10
49.21570637039994
 20
-29.8916247606
 10
49.21781975329995
 20
-29.900668658
 10
49.22008157819997
 20
-29.90977407220002
 10
49.22249329809996
 20
-29.91893999120002
 10
49.22505927149996
 20
-29.92816337860002
 10
49.22778095129993
 20
-29.93744322220003
 10
49.23065688459995
 20
-29.94678053430002
  0
LINE
  5
56BC6
330
1F
100
AcDbEntity
  8
1
100
AcDbLine
 10
49.23795848839997
 20
-29.97231693200001
 30
0.0
 11
49.24759132989996
 21
-30.02101786500001
 31
0.0
  0
LINE
  5
56BC7
330
1F
100
AcDbEntity
  8
1
100
AcDbLine
 10
50.43485253409997
 20
-26.06381525040002
 30
0.0
 11
50.37188928899993
 21
-25.64018653900002
 31
0.0
  0
LWPOLYLINE
  5
56BC8
330
1F
100
AcDbEntity
  8
1
100
AcDbPolyline
 90
       10
 70
     0
 43
0.0
 10
49.20465774639996
 20
-29.827349572
 10
49.20527488119994
 20
-29.8324340806
 10
49.20593954129995
 20
-29.83753564510003
 10
49.20665172669996
 20
-29.84265426570002
 10
49.20741119959996
 20
-29.84779015289999
 10
49.20821819769995
 20
-29.85294309610001
 10
49.20907343439996
 20
-29.85811246360002
 10
49.20997714749998
 20
-29.86329804480002
 10
49.21092909899994
 20
-29.86850005029999
 10
49.21192928919996
 20
-29.87371848000001
  0
LWPOLYLINE
  5
56BC9
330
1F
100
AcDbEntity
  8
1
100
AcDbPolyline
 90
        6
 70
     0
 43
0.0
 10
50.45818051809994
 20
-22.92772149609999
 10
50.45602092839996
 20
-22.89865146490002
 10
50.45369137279997
 20
-22.86929415050001
 10
50.45119185129993
 20
-22.83964955280001
 10
50.44852238479996
 20
-22.80971697109999
 10
50.44692057829994
 20
-22.7926690654
  0
LINE
  5
56BCA
330
1F
100
AcDbEntity
  8
1
100
AcDbLine
 10
50.45818051809994
 20
-22.92772149609999
 30
0.0
 11
50.46781089759996
 21
-23.15987979070003
 31
0.0
  0
LINE
  5
56BCB
330
1F
100
AcDbEntity
  8
1
100
AcDbLine
 10
50.63940890089997
 20
-27.63878274300001
 30
0.0
 11
50.62700927569998
 21
-27.15341430010004
 31
0.0
  0
LWPOLYLINE
  5
56BCC
330
1F
100
AcDbEntity
  8
1
100
AcDbPolyline
 90
       11
 70
     0
 43
0.0
 10
50.46951235529997
 20
-23.72306425490002
 10
50.46967903059993
 20
-23.7330770108
 10
50.46979274349997
 20
-23.74288990670001
 10
50.46985593529996
 20
-23.75247155650002
 10
50.46986985539994
 20
-23.7617694148
 10
50.46983769859995
 20
-23.77077889470001
 10
50.46976433189996
 20
-23.77954688029999
 10
50.46965055479995
 20
-23.78806441430002
 10
50.46949858619996
 20
-23.7963016505
 10
50.46931480939996
 20
-23.8042820188
 10
50.46909986119993
 20
-23.811993785
  0
LINE
  5
56BCD
330
1F
100
AcDbEntity
  8
1
100
AcDbLine
 10
50.4742748348999
 20
-23.5934258241
 30
0.0
 11
50.46781089759996
 21
-23.15987979070003
 31
0.0
  0
LWPOLYLINE
  5
56BCE
330
1F
100
AcDbEntity
  8
1
100
AcDbPolyline
 90
        3
 70
     0
 43
0.0
 10
50.79513381039993
 20
-26.69657236750001
 10
50.79529642109995
 20
-26.73481949480001
 10
50.7975668667999
 20
-27.0575064393
  0
LINE
  5
56BCF
330
1F
100
AcDbEntity
  8
1
100
AcDbLine
 10
50.09999999999998
 20
-22.49944231090001
 30
0.0
 11
50.09999999999998
 21
-27.46308640760002
 31
0.0
  0
LINE
  5
56BD0
330
1F
100
AcDbEntity
  8
1
100
AcDbLine
 10
50.09999999999998
 20
-21.95062228090002
 30
0.0
 11
50.09999999999998
 21
-17.356994412
 31
0.0
  0
LINE
  5
56BD1
330
1F
100
AcDbEntity
  8
1
100
AcDbLine
 10
50.79653083639996
 20
-26.20029736160002
 30
0.0
 11
50.79513381039993
 21
-26.69657236750001
 31
0.0
  0
LINE
  5
56BD2
330
1F
100
AcDbEntity
  8
1
100
AcDbLine
 10
50.79800564219993
 20
-25.92440365680003
 30
0.0
 11
50.79696591839996
 21
-26.13679816440001
 31
0.0
  0
LINE
  5
56BD3
330
1F
100
AcDbEntity
  8
1
100
AcDbLine
 10
50.79696591839996
 20
-26.13679816440001
 30
0.0
 11
50.79653083639996
 21
-26.20029736160002
 31
0.0
  0
LINE
  5
56BD4
330
1F
100
AcDbEntity
  8
1
100
AcDbLine
 10
50.4742748348999
 20
-23.5934258241
 30
0.0
 11
50.47332775369994
 21
-23.62780856710001
 31
0.0
  0
LWPOLYLINE
  5
56BD5
330
1F
100
AcDbEntity
  8
1
100
AcDbPolyline
 90
        8
 70
     0
 43
0.0
 10
50.02078830309995
 20
-28.58503787160002
 10
50.02261122559992
 20
-28.52355885450002
 10
50.02160828769993
 20
-28.46618351960001
 10
50.01791147679989
 20
-28.40881641690001
 10
50.01149304709997
 20
-28.35163511720002
 10
50.00233508969995
 20
-28.294508264
 10
49.99038064489994
 20
-28.23705091299999
 10
49.97656300859993
 20
-28.18251951860002
  0
LINE
  5
56BD6
330
1F
100
AcDbEntity
  8
1
100
AcDbLine
 10
50.47332775369994
 20
-23.62780856710001
 30
0.0
 11
50.47221704019996
 21
-23.66067770350003
 31
0.0
  0
LWPOLYLINE
  5
56BD7
330
1F
100
AcDbEntity
  8
1
100
AcDbPolyline
 90
        4
 70
     0
 43
0.0
 10
50.46909986119993
 20
-23.811993785
 10
50.46858759979997
 20
-23.82659494539999
 10
50.46829998949994
 20
-23.83351443820002
 10
50.46799080849996
 20
-23.84016157810002
  0
LINE
  5
56BD8
330
1F
100
AcDbEntity
  8
1
100
AcDbLine
 10
50.47221704019996
 20
-23.66067770350003
 30
0.0
 11
50.47094498299995
 21
-23.69237424980001
 31
0.0
  0
LWPOLYLINE
  5
56BD9
330
1F
100
AcDbEntity
  8
1
100
AcDbPolyline
 90
        5
 70
     0
 43
0.0
 10
50.54086554939996
 20
-22.29441162340002
 10
50.54229040359992
 20
-22.26127949690003
 10
50.54218309489994
 20
-22.15108886530002
 10
50.53472818539995
 20
-22.038246875
 10
50.51987621629994
 20
-21.92274546130001
  0
LWPOLYLINE
  5
56BDA
330
1F
100
AcDbEntity
  8
1
100
AcDbPolyline
 90
        3
 70
     0
 43
0.0
 10
50.47094498299995
 20
-23.69237424980001
 10
50.47000696879994
 20
-23.71294960760002
 10
50.46951235529997
 20
-23.72306425490002
  0
LINE
  5
56BDB
330
1F
100
AcDbEntity
  8
1
100
AcDbLine
 10
50.62700927569998
 20
-27.15341430010004
 30
0.0
 11
50.63085895969994
 21
-27.07339349850002
 31
0.0
  0
LINE
  5
56BDC
330
1F
100
AcDbEntity
  8
1
100
AcDbLine
 10
50.01917062009994
 20
-28.61625143320002
 30
0.0
 11
50.02080564479996
 21
-28.58474844260003
 31
0.0
  0
LINE
  5
56BDD
330
1F
100
AcDbEntity
  8
1
100
AcDbLine
 10
50.37188928899993
 20
-25.64018653900002
 30
0.0
 11
50.46799080849996
 21
-23.84016157810002
 31
0.0
  0
LINE
  5
56BDE
330
1F
100
AcDbEntity
  8
1
100
AcDbLine
 10
50.28414113999997
 20
-23.35081466380001
 30
0.0
 11
50.29642547119997
 21
-23.12086962239999
 31
0.0
  0
LINE
  5
56BDF
330
1F
100
AcDbEntity
  8
1
100
AcDbLine
 10
50.63085895969994
 20
-27.07339349850002
 30
0.0
 11
50.63494239309996
 21
-26.99602921170001
 31
0.0
  0
LWPOLYLINE
  5
56BE0
330
1F
100
AcDbEntity
  8
1
100
AcDbPolyline
 90
       13
 70
     0
 43
0.0
 10
50.01917910219995
 20
-28.616250334
 10
50.01839802809993
 20
-28.6300310931
 10
50.00895716889997
 20
-28.72137783820001
 10
49.99202805309995
 20
-28.8145431952
 10
49.96763218109993
 20
-28.9095223532
 10
49.93576975259995
 20
-29.00630939199999
 10
49.89641023769994
 20
-29.1049333185
 10
49.84952649189995
 20
-29.20537857350002
 10
49.79511901319998
 20
-29.3075751729
 10
49.73318287029997
 20
-29.41147397680003
 10
49.66370142489996
 20
-29.51703568420001
 10
49.58661167959997
 20
-29.6242539097
 10
49.50183988989994
 20
-29.73312852250001
  0
LINE
  5
56BE1
330
1F
100
AcDbEntity
  8
1
100
AcDbLine
 10
50.63494239309996
 20
-26.99602921170001
 30
0.0
 11
50.63927793719996
 21
-26.92084732970001
 31
0.0
  0
LINE
  5
56BE2
330
1F
100
AcDbEntity
  8
1
100
AcDbLine
 10
50.63927793719996
 20
-26.92084732970001
 30
0.0
 11
50.64392061189995
 21
-26.84625575310001
 31
0.0
  0
LINE
  5
56BE3
330
1F
100
AcDbEntity
  8
1
100
AcDbLine
 10
50.64392061189995
 20
-26.84625575310001
 30
0.0
 11
50.64895775489995
 21
-26.7708799689
 31
0.0
  0
LINE
  5
56BE4
330
1F
100
AcDbEntity
  8
1
100
AcDbLine
 10
50.64895775489995
 20
-26.7708799689
 30
0.0
 11
50.65444992049997
 21
-26.69385711050002
 31
0.0
  0
LWPOLYLINE
  5
56BE5
330
1F
100
AcDbEntity
  8
1
100
AcDbPolyline
 90
       10
 70
     0
 43
0.0
 10
50.28414113999997
 20
-23.35081466380001
 10
50.27964919539993
 20
-23.41163875050001
 10
50.27160896629993
 20
-23.48024254570002
 10
50.26108025909997
 20
-23.54537387950002
 10
50.24850873459996
 20
-23.60719362240002
 10
50.23429805169996
 20
-23.66582779399999
 10
50.21866212819998
 20
-23.7216828542
 10
50.20181585589997
 20
-23.77475153670002
 10
50.18398541319996
 20
-23.82496271119999
 10
50.17103121029996
 20
-23.85790999100002
  0
LINE
  5
56BE6
330
1F
100
AcDbEntity
  8
1
100
AcDbLine
 10
50.53509404889997
 20
-22.36881949729999
 30
0.0
 11
50.54086554939996
 21
-22.29441162340002
 31
0.0
  0
LINE
  5
56BE7
330
1F
100
AcDbEntity
  8
1
100
AcDbLine
 10
50.65444992049997
 20
-26.69385711050002
 30
0.0
 11
50.66376270739993
 21
-26.5725737889
 31
0.0
  0
LWPOLYLINE
  5
56BE8
330
1F
100
AcDbEntity
  8
1
100
AcDbPolyline
 90
        6
 70
     0
 43
0.0
 10
49.21912832029994
 20
-29.62099824980001
 10
49.21582108439995
 20
-29.661197926
 10
49.21271969539995
 20
-29.7019330679
 10
49.20982653219994
 20
-29.74320310359999
 10
49.20713921579994
 20
-29.785008605
 10
49.20465774639996
 20
-29.827349572
  0
LINE
  5
56BE9
330
1F
100
AcDbEntity
  8
1
100
AcDbLine
 10
50.66376270739993
 20
-26.5725737889
 30
0.0
 11
50.67466499989996
 21
-26.44141419799999
 31
0.0
  0
LINE
  5
56BEA
330
1F
100
AcDbEntity
  8
1
100
AcDbLine
 10
49.22333970759996
 20
-29.57367405110001
 30
0.0
 11
49.21912832029994
 21
-29.62099824980001
 31
0.0
  0
LWPOLYLINE
  5
56BEB
330
1F
100
AcDbEntity
  8
1
100
AcDbPolyline
 90
        4
 70
     0
 43
0.0
 10
49.23433723069996
 20
-29.46557307469999
 10
49.23023753229998
 20
-29.50362345340002
 10
49.22633654419996
 20
-29.54221101350002
 10
49.22333970759996
 20
-29.57367405110001
  0
LINE
  5
56BEC
330
1F
100
AcDbEntity
  8
1
100
AcDbLine
 10
50.32723721549996
 20
-24.07994635840001
 30
0.0
 11
50.27264051849996
 21
-24.5608583213
 31
0.0
  0
LINE
  5
56BED
330
1F
100
AcDbEntity
  8
1
100
AcDbLine
 10
50.18754983299996
 20
-25.02322352250002
 30
0.0
 11
50.22942187599994
 21
-24.66523654970002
 31
0.0
  0
LINE
  5
56BEE
330
1F
100
AcDbEntity
  8
1
100
AcDbLine
 10
50.09999999999998
 20
-25.75970352150001
 30
0.0
 11
50.18754983299996
 21
-25.02322352250002
 31
0.0
  0
LINE
  5
56BEF
330
1F
100
AcDbEntity
  8
1
100
AcDbLine
 10
50.27264051849996
 20
-24.5608583213
 30
0.0
 11
50.24306672819998
 21
-24.79227418430003
 31
0.0
  0
LINE
  5
56BF0
330
1F
100
AcDbEntity
  8
1
100
AcDbLine
 10
50.24306672819998
 20
-24.79227418430003
 30
0.0
 11
50.20840668079995
 21
-25.0577515879
 31
0.0
  0
LINE
  5
56BF1
330
1F
100
AcDbEntity
  8
1
100
AcDbLine
 10
50.20840668079995
 20
-25.0577515879
 30
0.0
 11
50.18020843409994
 21
-25.26987997699999
 31
0.0
  0
LINE
  5
56BF2
330
1F
100
AcDbEntity
  8
1
100
AcDbLine
 10
50.26944041179993
 20
-23.87463637490002
 30
0.0
 11
50.26216755259993
 21
-23.92377785049999
 31
0.0
  0
LINE
  5
56BF3
330
1F
100
AcDbEntity
  8
1
100
AcDbLine
 10
50.15761728619995
 20
-25.41739938260004
 30
0.0
 11
50.09999999999998
 21
-25.79898845250001
 31
0.0
  0
LINE
  5
56BF4
330
1F
100
AcDbEntity
  8
1
100
AcDbLine
 10
50.18020843409994
 20
-25.26987997699999
 30
0.0
 11
50.15761728619995
 21
-25.41739938260004
 31
0.0
  0
LINE
  5
56BF5
330
1F
100
AcDbEntity
  8
1
100
AcDbLine
 10
50.26216755259993
 20
-23.92377785049999
 30
0.0
 11
50.25870964939992
 21
-23.94493650730002
 31
0.0
  0
LINE
  5
56BF6
330
1F
100
AcDbEntity
  8
1
100
AcDbLine
 10
50.32723721549996
 20
-24.07994635840001
 30
0.0
 11
50.22942187599994
 21
-24.66523654970002
 31
0.0
  0
LINE
  5
56BF7
330
1F
100
AcDbEntity
  8
1
100
AcDbLine
 10
50.77805713939994
 20
-25.8800785073
 30
0.0
 11
50.78406920019996
 21
-25.84526157080002
 31
0.0
  0
LINE
  5
56BF8
330
1F
100
AcDbEntity
  8
1
100
AcDbLine
 10
49.25363645579995
 20
-29.35322905550002
 30
0.0
 11
49.23433723069996
 21
-29.46557307469999
 31
0.0
  0
LINE
  5
56BF9
330
1F
100
AcDbEntity
  8
1
100
AcDbLine
 10
50.75517038419993
 20
-26.01054290430004
 30
0.0
 11
50.77805713939994
 21
-25.8800785073
 31
0.0
  0
LINE
  5
56BFA
330
1F
100
AcDbEntity
  8
1
100
AcDbLine
 10
49.27311956139996
 20
-29.24372032870002
 30
0.0
 11
49.25363645579995
 21
-29.35322905550002
 31
0.0
  0
LINE
  5
56BFB
330
1F
100
AcDbEntity
  8
1
100
AcDbLine
 10
50.73300293019991
 20
-26.13367354360001
 30
0.0
 11
50.75517038419993
 21
-26.01054290430004
 31
0.0
  0
LINE
  5
56BFC
330
1F
100
AcDbEntity
  8
1
100
AcDbLine
 10
49.29279201469995
 20
-29.13704972760001
 30
0.0
 11
49.27311956139996
 21
-29.24372032870002
 31
0.0
  0
LINE
  5
56BFD
330
1F
100
AcDbEntity
  8
1
100
AcDbLine
 10
50.71221072779997
 20
-26.24614432370002
 30
0.0
 11
50.73300293019991
 21
-26.13367354360001
 31
0.0
  0
LINE
  5
56BFE
330
1F
100
AcDbEntity
  8
1
100
AcDbLine
 10
50.69323438819997
 20
-26.34613342710001
 30
0.0
 11
50.71221072779997
 21
-26.24614432370002
 31
0.0
  0
LINE
  5
56BFF
330
1F
100
AcDbEntity
  8
1
100
AcDbLine
 10
49.30813467859994
 20
-29.05671523820003
 30
0.0
 11
49.29279201469995
 21
-29.13704972760001
 31
0.0
  0
LINE
  5
56C00
330
1F
100
AcDbEntity
  8
1
100
AcDbLine
 10
50.67466499989996
 20
-26.44141419799999
 30
0.0
 11
50.69323438819997
 21
-26.34613342710001
 31
0.0
  0
LINE
  5
56C01
330
1F
100
AcDbEntity
  8
1
100
AcDbLine
 10
50.09999999999998
 20
-26.693433597
 30
0.0
 11
50.16105793229995
 21
-26.4000050338
 31
0.0
  0
LINE
  5
56C02
330
1F
100
AcDbEntity
  8
1
100
AcDbLine
 10
50.63940890089997
 20
-27.63878274300001
 30
0.0
 11
50.7975668667999
 21
-27.0575064393
 31
0.0
  0
LINE
  5
56C03
330
1F
100
AcDbEntity
  8
1
100
AcDbLine
 10
47.49827283599995
 20
-29.58064839330002
 30
0.0
 11
47.48597236609993
 21
-29.4630864076
 31
0.0
  0
LINE
  5
56C04
330
1F
100
AcDbEntity
  8
1
100
AcDbLine
 10
47.51546717789993
 20
-29.75195749930002
 30
0.0
 11
47.49827283599995
 21
-29.58064839330002
 31
0.0
  0
LINE
  5
56C05
330
1F
100
AcDbEntity
  8
1
100
AcDbLine
 10
47.53180882489994
 20
-29.92310934490001
 30
0.0
 11
47.51546717789993
 21
-29.75195749930002
 31
0.0
  0
LINE
  5
56C06
330
1F
100
AcDbEntity
  8
1
100
AcDbLine
 10
46.58293067679994
 20
-29.892029482
 30
0.0
 11
46.61879770319996
 21
-29.4630864076
 31
0.0
  0
LWPOLYLINE
  5
56C07
330
1F
100
AcDbEntity
  8
1
100
AcDbPolyline
 90
        3
 70
     0
 43
0.0
 10
50.09999999999998
 20
-24.12373595600002
 10
50.10259907939996
 20
-24.113164805
 10
50.11095746169993
 20
-24.0756530731
  0
LINE
  5
56C08
330
1F
100
AcDbEntity
  8
1
100
AcDbLine
 10
50.09999999999998
 20
-26.50511802380002
 30
0.0
 11
50.11163120099997
 21
-26.46175474310002
 31
0.0
  0
LWPOLYLINE
  5
56C09
330
1F
100
AcDbEntity
  8
1
100
AcDbPolyline
 90
       11
 70
     0
 43
0.0
 10
50.11163120099997
 20
-26.46175474310002
 10
50.12393460029993
 20
-26.41681243240002
 10
50.12961485399994
 20
-26.39656073660002
 10
50.13502234919993
 20
-26.37766276980001
 10
50.14020175579995
 20
-26.35997358699999
 10
50.14508826469995
 20
-26.34370628660001
 10
50.14963610079997
 20
-26.32897573420001
 10
50.1539276955
 20
-26.31545946470002
 10
50.15797664969992
 20
-26.30307273930002
 10
50.16171063609994
 20
-26.29199140510003
 10
50.16224519899996
 20
-26.29043379840002
  0
LINE
  5
56C0A
330
1F
100
AcDbEntity
  8
1
100
AcDbLine
 10
50.32046735849997
 20
-25.80341835010001
 30
0.0
 11
50.37188928899993
 21
-25.64018653900002
 31
0.0
  0
LWPOLYLINE
  5
56C0B
330
1F
100
AcDbEntity
  8
1
100
AcDbPolyline
 90
       11
 70
     0
 43
0.0
 10
50.37246373119995
 20
-23.40480359790002
 10
50.35890995369996
 20
-23.4465289627
 10
50.34576165369995
 20
-23.49065905020001
 10
50.33316468279995
 20
-23.53669180940002
 10
50.32129569349996
 20
-23.58387327650001
 10
50.31030968099996
 20
-23.63173296709998
 10
50.30031550519993
 20
-23.6801952719
 10
50.29141024539993
 20
-23.728868342
 10
50.28356709079995
 20
-23.77732544369999
 10
50.27640057579995
 20
-23.82591155610001
 10
50.26944041179993
 20
-23.87463637490002
  0
LWPOLYLINE
  5
56C0C
330
1F
100
AcDbEntity
  8
1
100
AcDbPolyline
 90
       10
 70
     0
 43
0.0
 10
50.45943921639996
 20
-23.18687302719999
 10
50.46045289679994
 20
-23.18385731430002
 10
50.46144615659997
 20
-23.18084706959998
 10
50.46241879379993
 20
-23.1778416999
 10
50.46337061089997
 20
-23.17484062480001
 10
50.46430141679991
 20
-23.17184326800001
 10
50.46521102759996
 20
-23.16884905680002
 10
50.46609926219995
 20
-23.16585743370001
 10
50.46696594279996
 20
-23.16286785690002
 10
50.46781089759996
 20
-23.15987979070003
  0
LINE
  5
56C0D
330
1F
100
AcDbEntity
  8
1
100
AcDbLine
 10
50.45391076889996
 20
-23.20249364910002
 30
0.0
 11
50.45943921639996
 21
-23.18687302719999
 31
0.0
  0
LINE
  5
56C0E
330
1F
100
AcDbEntity
  8
1
100
AcDbLine
 10
50.38333052789994
 20
-23.3753218489
 30
0.0
 11
50.38204774439996
 21
-23.3787763131
 31
0.0
  0
LINE
  5
56C0F
330
1F
100
AcDbEntity
  8
1
100
AcDbLine
 10
50.38527128599992
 20
-23.37017660219999
 30
0.0
 11
50.38333052789994
 21
-23.3753218489
 31
0.0
  0
LINE
  5
56C10
330
1F
100
AcDbEntity
  8
1
100
AcDbLine
 10
50.38784280909997
 20
-23.36345733680003
 30
0.0
 11
50.38527128599992
 21
-23.37017660219999
 31
0.0
  0
LINE
  5
56C11
330
1F
100
AcDbEntity
  8
1
100
AcDbLine
 10
50.39104585629993
 20
-23.35520643390001
 30
0.0
 11
50.38784280909997
 21
-23.36345733680003
 31
0.0
  0
LINE
  5
56C12
330
1F
100
AcDbEntity
  8
1
100
AcDbLine
 10
50.39461410779995
 20
-23.34615612109999
 30
0.0
 11
50.39104585629993
 21
-23.35520643390001
 31
0.0
  0
LINE
  5
56C13
330
1F
100
AcDbEntity
  8
1
100
AcDbLine
 10
50.39903817529995
 20
-23.33511181920002
 30
0.0
 11
50.39461410779995
 21
-23.34615612109999
 31
0.0
  0
LWPOLYLINE
  5
56C14
330
1F
100
AcDbEntity
  8
1
100
AcDbPolyline
 90
        6
 70
     0
 43
0.0
 10
50.44280384639995
 20
-23.23107103770002
 10
50.44512331629993
 20
-23.22531980479999
 10
50.44739605829994
 20
-23.21959064060002
 10
50.44961976409997
 20
-23.21387933279999
 10
50.45179210589997
 20
-23.20818172810001
 10
50.45391076889996
 20
-23.20249364910002
  0
LINE
  5
56C15
330
1F
100
AcDbEntity
  8
1
100
AcDbLine
 10
50.41076630569998
 20
-23.30636850479999
 30
0.0
 11
50.39903817529995
 21
-23.33511181920002
 31
0.0
  0
LINE
  5
56C16
330
1F
100
AcDbEntity
  8
1
100
AcDbLine
 10
50.43803389029995
 20
-23.24265674760003
 30
0.0
 11
50.44280384639995
 21
-23.23107103770002
 31
0.0
  0
LINE
  5
56C17
330
1F
100
AcDbEntity
  8
1
100
AcDbLine
 10
49.99146549719995
 20
-28.2031189864
 30
0.0
 11
49.98536694859993
 21
-28.2174317347
 31
0.0
  0
LINE
  5
56C18
330
1F
100
AcDbEntity
  8
1
100
AcDbLine
 10
50.09999999999998
 20
-26.83923699869999
 30
0.0
 11
50.43485253409997
 21
-26.06381525040002
 31
0.0
  0
LINE
  5
56C19
330
1F
100
AcDbEntity
  8
1
100
AcDbLine
 10
49.99927844129993
 20
-28.18842337770002
 30
0.0
 11
49.99146549719995
 21
-28.2031189864
 31
0.0
  0
LINE
  5
56C1A
330
1F
100
AcDbEntity
  8
1
100
AcDbLine
 10
50.41420428279997
 20
-23.29812914890002
 30
0.0
 11
50.41076630569998
 21
-23.30636850479999
 31
0.0
  0
LINE
  5
56C1B
330
1F
100
AcDbEntity
  8
1
100
AcDbLine
 10
50.43310473309996
 20
-23.25438141530001
 30
0.0
 11
50.43803389029995
 21
-23.24265674760003
 31
0.0
  0
LINE
  5
56C1C
330
1F
100
AcDbEntity
  8
1
100
AcDbLine
 10
50.41787031409995
 20
-23.2894966714
 30
0.0
 11
50.41420428279997
 21
-23.29812914890002
 31
0.0
  0
LINE
  5
56C1D
330
1F
100
AcDbEntity
  8
1
100
AcDbLine
 10
50.42188252039995
 20
-23.2802085481
 30
0.0
 11
50.41787031409995
 21
-23.2894966714
 31
0.0
  0
LINE
  5
56C1E
330
1F
100
AcDbEntity
  8
1
100
AcDbLine
 10
50.43310473309996
 20
-23.25438141530001
 30
0.0
 11
50.42793948289993
 21
-23.26634486490002
 31
0.0
  0
LINE
  5
56C1F
330
1F
100
AcDbEntity
  8
1
100
AcDbLine
 10
50.42793948289993
 20
-23.26634486490002
 30
0.0
 11
50.42188252039995
 21
-23.2802085481
 31
0.0
  0
LWPOLYLINE
  5
56C20
330
1F
100
AcDbEntity
  8
1
100
AcDbPolyline
 90
        8
 70
     0
 43
0.0
 10
50.37613525099996
 20
-22.9594823098
 10
50.40921754669994
 20
-22.88814628
 10
50.44645813309996
 20
-22.7940993343
 10
50.47756071819994
 20
-22.69790403320003
 10
50.5025611692999
 20
-22.5995034254
 10
50.52150926249996
 20
-22.49840846039999
 10
50.53429251449995
 20
-22.39438030750001
 10
50.53899414739996
 20
-22.32897051910002
  0
LINE
  5
56C21
330
1F
100
AcDbEntity
  8
1
100
AcDbLine
 10
50.16622878689996
 20
-23.38483401380001
 30
0.0
 11
50.20175413179993
 21
-23.312744928
 31
0.0
  0
LINE
  5
56C22
330
1F
100
AcDbEntity
  8
1
100
AcDbLine
 10
50.20175413179993
 20
-23.312744928
 30
0.0
 11
50.22636849529996
 21
-23.26281548190002
 31
0.0
  0
LINE
  5
56C23
330
1F
100
AcDbEntity
  8
1
100
AcDbLine
 10
50.22636849529996
 20
-23.26281548190002
 30
0.0
 11
50.27566730699994
 21
-23.16290465789998
 31
0.0
  0
LINE
  5
56C24
330
1F
100
AcDbEntity
  8
1
100
AcDbLine
 10
50.36275654869996
 20
-22.98658226969999
 30
0.0
 11
50.37656976279996
 21
-22.95860338060002
 31
0.0
  0
LINE
  5
56C25
330
1F
100
AcDbEntity
  8
1
100
AcDbLine
 10
50.27566730699994
 20
-23.16290465789998
 30
0.0
 11
50.36275654869996
 21
-22.98658226969999
 31
0.0
  0
LWPOLYLINE
  5
56C26
330
1F
100
AcDbEntity
  8
1
100
AcDbPolyline
 90
        5
 70
     0
 43
0.0
 10
50.16622878689996
 20
-23.38483401380001
 10
50.14933990169996
 20
-23.4179620898
 10
50.12982949639996
 20
-23.45346024580002
 10
50.10922281989994
 20
-23.4880077645
 10
50.09999999999998
 20
-23.50226171780001
  0
LWPOLYLINE
  5
56C27
330
1F
100
AcDbEntity
  8
1
100
AcDbPolyline
 90
        5
 70
     0
 43
0.0
 10
50.16105157649992
 20
-26.40000419520001
 10
50.14263796359995
 20
-26.428379871
 10
50.12580854039993
 20
-26.45560057980001
 10
50.11053008219993
 20
-26.48172535810001
 10
50.10222491569994
 20
-26.49679041400001
  0
LINE
  5
56C28
330
1F
100
AcDbEntity
  8
1
100
AcDbLine
 10
50.51998312429993
 20
-27.79156895470001
 30
0.0
 11
50.55089104849995
 21
-27.75151328990002
 31
0.0
  0
LINE
  5
56C29
330
1F
100
AcDbEntity
  8
1
100
AcDbLine
 10
50.55089104849995
 20
-27.75151328990002
 30
0.0
 11
50.58268573979995
 21
-27.71069788010001
 31
0.0
  0
LINE
  5
56C2A
330
1F
100
AcDbEntity
  8
1
100
AcDbLine
 10
50.58268573979995
 20
-27.71069788010001
 30
0.0
 11
50.60092605609995
 21
-27.68743236910002
 31
0.0
  0
LINE
  5
56C2B
330
1F
100
AcDbEntity
  8
1
100
AcDbLine
 10
50.60092605609995
 20
-27.68743236910002
 30
0.0
 11
50.63940890089997
 21
-27.63878274300001
 31
0.0
  0
LWPOLYLINE
  5
56C2C
330
1F
100
AcDbEntity
  8
1
100
AcDbPolyline
 90
        8
 70
     0
 43
0.0
 10
49.50183988989994
 20
-29.73312852250001
 10
49.48698436029997
 20
-29.7514052345
 10
49.4719125548999
 20
-29.76972849170002
 10
49.45662428839997
 20
-29.7880978684
 10
49.44111928749996
 20
-29.80651297220001
 10
49.42539745139995
 20
-29.82497333949999
 10
49.40945885889997
 20
-29.84347843750001
 10
49.39330341699994
 20
-29.8620278029
  0
LINE
  5
56C2D
330
1F
100
AcDbEntity
  8
1
100
AcDbLine
 10
49.39330341699994
 20
-29.8620278029
 30
0.0
 11
49.37693085509994
 21
-29.88062103980002
 31
0.0
  0
LINE
  5
56C2E
330
1F
100
AcDbEntity
  8
1
100
AcDbLine
 10
49.37693085509994
 20
-29.88062103980002
 30
0.0
 11
49.36034099049996
 21
-29.8992577173
 31
0.0
  0
LINE
  5
56C2F
330
1F
100
AcDbEntity
  8
1
100
AcDbLine
 10
49.36034099049996
 20
-29.8992577173
 30
0.0
 11
49.33605710839997
 21
-29.9261842999
 31
0.0
  0
LINE
  5
56C30
330
1F
100
AcDbEntity
  8
1
100
AcDbLine
 10
49.33605710839997
 20
-29.9261842999
 30
0.0
 11
49.31133224899994
 21
-29.95318706280001
 31
0.0
  0
LWPOLYLINE
  5
56C31
330
1F
100
AcDbEntity
  8
1
100
AcDbPolyline
 90
        3
 70
     0
 43
0.0
 10
49.31133224899994
 20
-29.95318706280001
 10
49.28616647219991
 20
-29.98026459180002
 10
49.27341828569996
 20
-29.99383092310002
  0
LWPOLYLINE
  5
56C32
330
1F
100
AcDbEntity
  8
1
100
AcDbPolyline
 90
       24
 70
     0
 43
0.0
 10
50.11095746169993
 20
-24.0756530731
 10
50.11509662499998
 20
-24.06930858500003
 10
50.11927413039993
 20
-24.06301550670001
 10
50.12348997789993
 20
-24.0567738382
 10
50.12774339989994
 20
-24.05058433020002
 10
50.13203516399993
 20
-24.04444623190002
 10
50.13636757249997
 20
-24.03835729160002
 10
50.14074068499997
 20
-24.0323175229
 10
50.14515444189996
 20
-24.02632691209999
 10
50.14961096669996
 20
-24.0203831655
 10
50.15411057069997
 20
-24.01448609639999
 10
50.15865294259995
 20
-24.00863589150001
 10
50.16323927259995
 20
-24.0028308172
 10
50.16787057439995
 20
-23.9970700912
 10
50.17254583419995
 20
-23.99135449570001
 10
50.17726320079995
 20
-23.98568464400001
 10
50.18202325829995
 20
-23.98006062889999
 10
50.18682542249996
 20
-23.97448235750002
 10
50.19166608939992
 20
-23.96895016430002
 10
50.19654565939996
 20
-23.96346462060002
 10
50.20146373209996
 20
-23.95802515510002
 10
50.20641550209997
 20
-23.9526303891
 10
50.21139936769992
 20
-23.94727986289999
 10
50.21641693049997
 20
-23.9419740363
  0
LINE
  5
56C33
330
1F
100
AcDbEntity
  8
1
100
AcDbLine
 10
50.75552531929997
 20
-25.69703379680002
 30
0.0
 11
50.73030420299997
 21
-25.72758514540002
 31
0.0
  0
LWPOLYLINE
  5
56C34
330
1F
100
AcDbEntity
  8
1
100
AcDbPolyline
 90
        3
 70
     0
 43
0.0
 10
50.73030420299997
 20
-25.72758514540002
 10
50.69498367949996
 20
-25.7699612079
 10
50.68392287769992
 20
-25.783091732
  0
LWPOLYLINE
  5
56C35
330
1F
100
AcDbEntity
  8
1
100
AcDbPolyline
 90
        4
 70
     0
 43
0.0
 10
50.68392287769992
 20
-25.783091732
 10
50.66280601899996
 20
-25.80782539840002
 10
50.65272463889996
 20
-25.81948757500001
 10
50.64294363029993
 20
-25.83069291910002
  0
LINE
  5
56C36
330
1F
100
AcDbEntity
  8
1
100
AcDbLine
 10
50.56158951849994
 20
-25.92193029770001
 30
0.0
 11
50.51510523109993
 21
-25.97500537380001
 31
0.0
  0
LINE
  5
56C37
330
1F
100
AcDbEntity
  8
1
100
AcDbLine
 10
50.64294363029993
 20
-25.83069291910002
 30
0.0
 11
50.62433590479997
 21
-25.8517607359
 31
0.0
  0
LINE
  5
56C38
330
1F
100
AcDbEntity
  8
1
100
AcDbLine
 10
50.57554835569994
 20
-25.90615999920002
 30
0.0
 11
50.56158951849994
 21
-25.92193029770001
 31
0.0
  0
LINE
  5
56C39
330
1F
100
AcDbEntity
  8
1
100
AcDbLine
 10
50.51510523109993
 20
-25.97500537380001
 30
0.0
 11
50.50025560369997
 21
-25.9917884665
 31
0.0
  0
LWPOLYLINE
  5
56C3A
330
1F
100
AcDbEntity
  8
1
100
AcDbPolyline
 90
       10
 70
     0
 43
0.0
 10
50.43485253409997
 20
-26.06381525040002
 10
50.39973848919996
 20
-26.10330684280002
 10
50.36561763149996
 20
-26.1421125698
 10
50.33257595189997
 20
-26.18025746920001
 10
50.30073344129993
 20
-26.21769295770004
 10
50.27014645079995
 20
-26.25454679719999
 10
50.24080315979996
 20
-26.29111725480001
 10
50.21275912699994
 20
-26.32754338920001
 10
50.18614210189994
 20
-26.36381211190002
 10
50.16105157649992
 20
-26.40000419520001
  0
LINE
  5
56C3B
330
1F
100
AcDbEntity
  8
1
100
AcDbLine
 10
50.50025560369997
 20
-25.9917884665
 30
0.0
 11
50.49070867739994
 21
-26.00246805670002
 31
0.0
  0
LINE
  5
56C3C
330
1F
100
AcDbEntity
  8
1
100
AcDbLine
 10
50.62433590479997
 20
-25.8517607359
 30
0.0
 11
50.57554835569994
 21
-25.90615999920002
 31
0.0
  0
LINE
  5
56C3D
330
1F
100
AcDbEntity
  8
1
100
AcDbLine
 10
50.44396820509996
 20
-26.05373114830002
 30
0.0
 11
50.43485253409997
 21
-26.06381525040002
 31
0.0
  0
LINE
  5
56C3E
330
1F
100
AcDbEntity
  8
1
100
AcDbLine
 10
50.49070867739994
 20
-26.00246805670002
 30
0.0
 11
50.47657316749996
 21
-26.018106668
 31
0.0
  0
LWPOLYLINE
  5
56C3F
330
1F
100
AcDbEntity
  8
1
100
AcDbPolyline
 90
        4
 70
     0
 43
0.0
 10
50.47657316749996
 20
-26.018106668
 10
50.45788363859995
 20
-26.03852709330003
 10
50.45326190889998
 20
-26.04355243620002
 10
50.44396820509996
 20
-26.05373114830002
  0
LWPOLYLINE
  5
56C40
330
1F
100
AcDbEntity
  8
1
100
AcDbPolyline
 90
        8
 70
     0
 43
0.0
 10
49.27746823509995
 20
-29.21992022260004
 10
49.32253977179994
 20
-29.17170979950002
 10
49.38159792629996
 20
-29.1023462192
 10
49.43792714139997
 20
-29.03042365480002
 10
49.49082852279996
 20
-28.95755166219999
 10
49.53895730689996
 20
-28.88651408370002
 10
49.58219583969995
 20
-28.81853407840001
 10
49.60546020819996
 20
-28.7796628495
  0
LINE
  5
56C41
330
1F
100
AcDbEntity
  8
1
100
AcDbLine
 10
49.27341828569996
 20
-29.99383092310002
 30
0.0
 11
49.24759132989996
 21
-30.02101786500001
 31
0.0
  0
LINE
  5
56C42
330
1F
100
AcDbEntity
  8
1
100
AcDbLine
 10
50.23842655309993
 20
-23.91892085789999
 30
0.0
 11
50.24334176709996
 21
-23.9136355688
 31
0.0
  0
LINE
  5
56C43
330
1F
100
AcDbEntity
  8
1
100
AcDbLine
 10
50.23353883379993
 20
-23.9241119699
 30
0.0
 11
50.23842655309993
 21
-23.91892085789999
 31
0.0
  0
LINE
  5
56C44
330
1F
100
AcDbEntity
  8
1
100
AcDbLine
 10
50.22626724599996
 20
-23.93173252290002
 30
0.0
 11
50.23353883379993
 21
-23.9241119699
 31
0.0
  0
LINE
  5
56C45
330
1F
100
AcDbEntity
  8
1
100
AcDbLine
 10
50.21641693049997
 20
-23.9419740363
 30
0.0
 11
50.22626724599996
 21
-23.93173252290002
 31
0.0
  0
LWPOLYLINE
  5
56C46
330
1F
100
AcDbEntity
  8
1
100
AcDbPolyline
 90
       11
 70
     0
 43
0.0
 10
50.09999999999998
 20
-23.25696488470001
 10
50.14454369239995
 20
-23.21233230359998
 10
50.21691509069995
 20
-23.12973532160002
 10
50.28199061699993
 20
-23.04437970820002
 10
50.33979673939995
 20
-22.9562501371
 10
50.39037271269993
 20
-22.8653229112
 10
50.43374238109993
 20
-22.77160585750003
 10
50.46991178679991
 20
-22.67510531140002
 10
50.4988797430999
 20
-22.57579015630001
 10
50.52061738629993
 20
-22.47367222580002
 10
50.53509404889997
 20
-22.36881949729999
  0
LWPOLYLINE
  5
56C47
330
1F
100
AcDbEntity
  8
1
100
AcDbPolyline
 90
        9
 70
     0
 43
0.0
 10
50.12230980249999
 20
-28.05777283250002
 10
50.10119325049996
 20
-28.07526332800002
 10
50.08168335849997
 20
-28.09244323830002
 10
50.06379550769995
 20
-28.1093041247
 10
50.04753923509992
 20
-28.12584457540001
 10
50.03293748419995
 20
-28.1420485825
 10
50.02001938499998
 20
-28.15788714990002
 10
50.00879881499997
 20
-28.1733450207
 10
49.99927844129993
 20
-28.18842337770002
  0
LINE
  5
56C48
330
1F
100
AcDbEntity
  8
1
100
AcDbLine
 10
47.4830380996999
 20
-29.95247796840003
 30
0.0
 11
47.53180882489994
 21
-29.92310934490001
 31
0.0
  0
LINE
  5
56C49
330
1F
100
AcDbEntity
  8
1
100
AcDbLine
 10
47.45912496329995
 20
-29.96638478299999
 30
0.0
 11
47.4830380996999
 21
-29.95247796840003
 31
0.0
  0
LINE
  5
56C4A
330
1F
100
AcDbEntity
  8
1
100
AcDbLine
 10
47.43781529949993
 20
-29.97858415529999
 30
0.0
 11
47.45912496329995
 21
-29.96638478299999
 31
0.0
  0
LINE
  5
56C4B
330
1F
100
AcDbEntity
  8
1
100
AcDbLine
 10
47.41643303799995
 20
-29.99060865840002
 30
0.0
 11
47.43781529949993
 21
-29.97858415529999
 31
0.0
  0
LINE
  5
56C4C
330
1F
100
AcDbEntity
  8
1
100
AcDbLine
 10
50.62700927569998
 20
-27.15341430010004
 30
0.0
 11
50.09999999999998
 21
-27.446375612
 31
0.0
  0
LINE
  5
56C4D
330
1F
100
AcDbEntity
  8
1
100
AcDbLine
 10
47.39498408109994
 20
-30.00245801560001
 30
0.0
 11
47.41643303799995
 21
-29.99060865840002
 31
0.0
  0
LWPOLYLINE
  5
56C4E
330
1F
100
AcDbEntity
  8
1
100
AcDbPolyline
 90
        9
 70
     0
 43
0.0
 10
50.38279219289997
 20
-27.78758329300001
 10
50.40421883299996
 20
-27.77592048049999
 10
50.42609671269992
 20
-27.76449434100002
 10
50.44841804949992
 20
-27.75330520170002
 10
50.47117399499995
 20
-27.74235390120002
 10
50.49435799359994
 20
-27.73164016129999
 10
50.51796602109994
 20
-27.72116269200001
 10
50.54199198949993
 20
-27.71092131400003
 10
50.56642750719992
 20
-27.7009168548
  0
LINE
  5
56C4F
330
1F
100
AcDbEntity
  8
1
100
AcDbLine
 10
47.37346990439997
 20
-30.01413215760003
 30
0.0
 11
47.39498408109994
 21
-30.00245801560001
 31
0.0
  0
LWPOLYLINE
  5
56C50
330
1F
100
AcDbEntity
  8
1
100
AcDbPolyline
 90
       16
 70
     0
 43
0.0
 10
50.51998312429993
 20
-27.79156895470001
 10
50.48669075769993
 20
-27.80631887690002
 10
50.45422959839996
 20
-27.82154419580002
 10
50.42262151039995
 20
-27.83724442520004
 10
50.39186140109993
 20
-27.85343374280002
 10
50.36200079669995
 20
-27.87009743480002
 10
50.33313867989996
 20
-27.8871882016
 10
50.30529704979997
 20
-27.90469708879999
 10
50.27848261429994
 20
-27.92262448360002
 10
50.25275731659997
 20
-27.9409314911
 10
50.22812180489996
 20
-27.9596180083
 10
50.20459354639996
 20
-27.9786715667
 10
50.18224422929993
 20
-27.99802924690002
 10
50.16109278719993
 20
-28.0176623241
 10
50.14111588569995
 20
-28.03757991609998
 10
50.12231206769993
 20
-28.05777278540002
  0
LINE
  5
56C51
330
1F
100
AcDbEntity
  8
1
100
AcDbLine
 10
50.56642750719992
 20
-27.7009168548
 30
0.0
 11
50.59126540539995
 21
-27.69114959410001
 31
0.0
  0
LINE
  5
56C52
330
1F
100
AcDbEntity
  8
1
100
AcDbLine
 10
50.59126540539995
 20
-27.69114959410001
 30
0.0
 11
50.60092605609995
 21
-27.68743236910002
 31
0.0
  0
LINE
  5
56C53
330
1F
100
AcDbEntity
  8
1
100
AcDbLine
 10
47.53180882489994
 20
-29.92310934490001
 30
0.0
 11
49.20465774639996
 21
-29.827349572
 31
0.0
  0
LWPOLYLINE
  5
56C54
330
1F
100
AcDbEntity
  8
1
100
AcDbPolyline
 90
       10
 70
     0
 43
0.0
 10
49.24759132989996
 20
-30.02101786500001
 10
49.11363251539995
 20
-30.02198804200002
 10
48.98226449209997
 20
-30.02346381820003
 10
48.85348726019993
 20
-30.0254451937
 10
48.72729346739996
 20
-30.02793811460001
 10
48.60369046589998
 20
-30.0309366347
 10
48.48270031229995
 20
-30.03442291580002
 10
48.36433035869996
 20
-30.03839101170001
 10
48.24857325309995
 20
-30.04284686850002
 10
48.13542899529995
 20
-30.04779048629999
  0
LINE
  5
56C55
330
1F
100
AcDbEntity
  8
1
100
AcDbLine
 10
35.79999999999998
 20
-29.4630864076
 30
0.0
 11
48.09999999999996
 21
-29.4630864076
 31
0.0
  0
LINE
  5
56C56
330
1F
100
AcDbEntity
  8
1
100
AcDbLine
 10
1.199999999999988
 20
-27.815
 30
0.0
 11
9.69999999999996
 21
-27.815
 31
0.0
  0
LINE
  5
56C57
330
1F
100
AcDbEntity
  8
1
100
AcDbLine
 10
48.13542899529995
 20
-30.04779048629999
 30
0.0
 11
48.02802710139996
 21
-30.04469521600002
 31
0.0
  0
LINE
  5
56C58
330
1F
100
AcDbEntity
  8
1
100
AcDbLine
 10
48.02802710139996
 20
-30.04469521600002
 30
0.0
 11
47.92078506169992
 21
-30.04103259060002
 31
0.0
  0
LINE
  5
56C59
330
1F
100
AcDbEntity
  8
1
100
AcDbLine
 10
47.92078506169992
 20
-30.04103259060002
 30
0.0
 11
47.81344550119995
 21
-30.03678774990004
 31
0.0
  0
LINE
  5
56C5A
330
1F
100
AcDbEntity
  8
1
100
AcDbLine
 10
47.81344550119995
 20
-30.03678774990004
 30
0.0
 11
47.70585199759993
 21
-30.03195537720002
 31
0.0
  0
LINE
  5
56C5B
330
1F
100
AcDbEntity
  8
1
100
AcDbLine
 10
47.70585199759993
 20
-30.03195537720002
 30
0.0
 11
47.59814664649994
 21
-30.02655756779998
 31
0.0
  0
LINE
  5
56C5C
330
1F
100
AcDbEntity
  8
1
100
AcDbLine
 10
47.59814664649994
 20
-30.02655756779998
 30
0.0
 11
47.37346990439997
 21
-30.01413215760003
 31
0.0
  0
LWPOLYLINE
  5
56C5D
330
1F
100
AcDbEntity
  8
1
100
AcDbPolyline
 90
        9
 70
     0
 43
0.0
 10
47.15495616719993
 20
-29.92448558460001
 10
47.19159259029996
 20
-29.92661006570002
 10
47.22784393289993
 20
-29.9289468849
 10
47.26370259839995
 20
-29.93149287850002
 10
47.29915938969995
 20
-29.93424476850002
 10
47.33420876909997
 20
-29.93719956550002
 10
47.36884869799996
 20
-29.94035467190002
 10
47.40307368799997
 20
-29.94370729479999
 10
47.43687495929987
 20
-29.9472543425
  0
LINE
  5
56C5E
330
1F
100
AcDbEntity
  8
1
100
AcDbLine
 10
46.57676702099997
 20
-29.99271120430002
 30
0.0
 11
46.44055488999993
 21
-29.9827075229
 31
0.0
  0
LINE
  5
56C5F
330
1F
100
AcDbEntity
  8
1
100
AcDbLine
 10
46.44055488999993
 20
-29.9827075229
 30
0.0
 11
46.30214924259997
 21
-29.9719136299
 31
0.0
  0
LINE
  5
56C60
330
1F
100
AcDbEntity
  8
1
100
AcDbLine
 10
46.30214924259997
 20
-29.9719136299
 30
0.0
 11
46.16191441839997
 21
-29.96036519590001
 31
0.0
  0
LINE
  5
56C61
330
1F
100
AcDbEntity
  8
1
100
AcDbLine
 10
46.16191441839997
 20
-29.96036519590001
 30
0.0
 11
46.02051465289995
 21
-29.9481254408
 31
0.0
  0
LWPOLYLINE
  5
56C62
330
1F
100
AcDbEntity
  8
1
100
AcDbPolyline
 90
       16
 70
     0
 43
0.0
 10
47.37346990439997
 20
-30.01413215760003
 10
47.32468261459996
 20
-30.0096742268
 10
47.27506409559995
 20
-30.00561342580002
 10
47.22463419779995
 20
-30.00195866690001
 10
47.17336693059991
 20
-29.99871625060002
 10
47.12132873679991
 20
-29.99589883050001
 10
47.06868357839996
 20
-29.99352146770002
 10
47.01547237389997
 20
-29.99159036940003
 10
46.96170752709997
 20
-29.99011060109999
 10
46.90751778069997
 20
-29.98908944340003
 10
46.85291411919997
 20
-29.9885300036
 10
46.79794384109992
 20
-29.98843590070001
 10
46.74279611299996
 20
-29.98880855590002
 10
46.68755651349996
 20
-29.98964599510002
 10
46.63220321259996
 20
-29.99094733340001
 10
46.57676675589993
 20
-29.9927114756
  0
LINE
  5
56C63
330
1F
100
AcDbEntity
  8
1
100
AcDbLine
 10
46.02051465289995
 20
-29.9481254408
 30
0.0
 11
45.87806913189996
 21
-29.93521475650002
 31
0.0
  0
LINE
  5
56C64
330
1F
100
AcDbEntity
  8
1
100
AcDbLine
 10
45.87806913189996
 20
-29.93521475650002
 30
0.0
 11
45.73494213049997
 21
-29.92167471810002
 31
0.0
  0
LINE
  5
56C65
330
1F
100
AcDbEntity
  8
1
100
AcDbLine
 10
45.73494213049997
 20
-29.92167471810002
 30
0.0
 11
45.59180791869997
 21
-29.90757994640002
 31
0.0
  0
LWPOLYLINE
  5
56C66
330
1F
100
AcDbEntity
  8
1
100
AcDbPolyline
 90
       10
 70
     0
 43
0.0
 10
45.59180791869997
 20
-29.90757994640002
 10
45.02344109219996
 20
-29.84978949240002
 10
44.52627534429989
 20
-29.79980224260002
 10
44.02933189699993
 20
-29.75043954130001
 10
43.53297255469994
 20
-29.70174941150002
 10
43.03708797549997
 20
-29.65372142199999
 10
42.54149733109994
 20
-29.60633526800002
 10
42.04617374709996
 20
-29.55958218080002
 10
41.55106219539994
 20
-29.51344059940003
 10
41.00330033159997
 20
-29.4630864076
  0
LINE
  5
56C67
330
1F
100
AcDbEntity
  8
1
100
AcDbLine
 10
47.43687495929987
 20
-29.9472543425
 30
0.0
 11
47.4830380996999
 21
-29.95247796840003
 31
0.0
  0
LINE
  5
56C68
330
1F
100
AcDbEntity
  8
1
100
AcDbLine
 10
27.37318051519995
 20
-26.46130945500002
 30
0.0
 11
33.93317503559996
 21
-29.10150904380002
 31
0.0
  0
LINE
  5
56C69
330
1F
100
AcDbEntity
  8
1
100
AcDbLine
 10
50.09999999999998
 20
-25.01417465650003
 30
0.0
 11
50.18754983299996
 21
-25.02322352250002
 31
0.0
  0
LINE
  5
56C6A
330
1F
100
AcDbEntity
  8
1
100
AcDbLine
 10
50.09999999999998
 20
-25.51230256000002
 30
0.0
 11
50.12908788799997
 21
-25.51570266830001
 31
0.0
  0
LINE
  5
56C6B
330
1F
100
AcDbEntity
  8
1
100
AcDbLine
 10
50.75552531929997
 20
-25.69703379680002
 30
0.0
 11
50.37188928899993
 21
-25.64018653900002
 31
0.0
  0
LINE
  5
56C6C
330
1F
100
AcDbEntity
  8
1
100
AcDbLine
 10
50.11095746169993
 20
-24.0756530731
 30
0.0
 11
50.09999999999998
 21
-24.07460542270002
 31
0.0
  0
LWPOLYLINE
  5
56C6D
330
1F
100
AcDbEntity
  8
1
100
AcDbPolyline
 90
        4
 70
     0
 43
0.0
 10
50.44711407359995
 20
-21.6131039297
 10
50.31486319139997
 20
-21.59442594199999
 10
50.18515252929993
 20
-21.57558366109999
 10
50.09999999999998
 20
-21.56285697840003
  0
LWPOLYLINE
  5
56C6E
330
1F
100
AcDbEntity
  8
1
100
AcDbPolyline
 90
       46
 70
     0
 43
0.0
 10
50.44742443299995
 20
-23.56569171059999
 10
50.44942755179993
 20
-23.5661328754
 10
50.44985986409997
 20
-23.56623121150001
 10
50.45029978479997
 20
-23.56633409010001
 10
50.45074754489994
 20
-23.5664424542
 10
50.45120234469994
 20
-23.56655708139999
 10
50.45166011979996
 20
-23.56667775970002
 10
50.45212083689996
 20
-23.56680579600002
 10
50.45258396819995
 20
-23.56694136570002
 10
50.45304483759998
 20
-23.56708205379999
 10
50.45350348219995
 20
-23.5672281123
 10
50.45395945589996
 20
-23.56737994060002
 10
50.45440757299997
 20
-23.56753468830002
 10
50.45484746089996
 20
-23.56769169410002
 10
50.45527937659997
 20
-23.5678514688
 10
50.45569932689994
 20
-23.56801223709998
 10
50.45610616189996
 20
-23.56817278490002
 10
50.45650122979996
 20
-23.56833343260002
 10
50.45688441999993
 20
-23.56849436900001
 10
50.45725555349998
 20
-23.568654928
 10
50.45761507669997
 20
-23.56881482580002
 10
50.45796381569997
 20
-23.568974852
 10
50.45830187339996
 20
-23.56913457779999
 10
50.45862941849995
 20
-23.56929356359998
 10
50.45894733879993
 20
-23.56945269190001
 10
50.45925570829997
 20
-23.56961159600002
 10
50.45955471279995
 20
-23.5697698681
 10
50.45984536119997
 20
-23.56992845670002
 10
50.46012771569997
 20
-23.57008707580002
 10
50.46040194019994
 20
-23.57024536360002
 10
50.46066913669996
 20
-23.57040430510001
 10
50.46092946079994
 20
-23.57056376010001
 10
50.46118292929993
 20
-23.5707233775
 10
50.46143037759995
 20
-23.57088396750001
 10
50.46167194899993
 20
-23.57104543930002
 10
50.46190763189994
 20
-23.5712075074
 10
50.46213798629995
 20
-23.57137079180002
 10
50.46236310489994
 20
-23.57153520250001
 10
50.46258300129995
 20
-23.57170052629999
 10
50.46279808589997
 20
-23.5718672706
 10
50.46300840519993
 20
-23.57203533930002
 10
50.46321400059994
 20
-23.572204578
 10
50.46341524839998
 20
-23.57237546600002
 10
50.46361229059994
 20
-23.5725481108
 10
50.46380504959995
 20
-23.57272221450001
 10
50.46399356059996
 20
-23.57289767710001
  0
LWPOLYLINE
  5
56C6F
330
1F
100
AcDbEntity
  8
1
100
AcDbPolyline
 90
        8
 70
     0
 43
0.0
 10
50.24334176709996
 20
-23.9136355688
 10
50.21772035469993
 20
-23.89496680340002
 10
50.19306245649993
 20
-23.8759420232
 10
50.16938724219992
 20
-23.85656444360002
 10
50.14669414849997
 20
-23.83681951100002
 10
50.12502469899994
 20
-23.81672812850002
 10
50.10445251429993
 20
-23.79634907709998
 10
50.09999999999998
 20
-23.7916228272
  0
LINE
  5
56C70
330
1F
100
AcDbEntity
  8
1
100
AcDbLine
 10
50.46399356059996
 20
-23.57289767710001
 30
0.0
 11
50.46489292799996
 21
-23.5737938298
 31
0.0
  0
LWPOLYLINE
  5
56C71
330
1F
100
AcDbEntity
  8
1
100
AcDbPolyline
 90
       23
 70
     0
 43
0.0
 10
50.46489292799996
 20
-23.5737938298
 10
50.46532269139996
 20
-23.57425628520002
 10
50.46573906799998
 20
-23.57472662280001
 10
50.46614281479996
 20
-23.5752047533
 10
50.46653554369996
 20
-23.57569213790002
 10
50.46691739379991
 20
-23.57618830880001
 10
50.46728858889998
 20
-23.57669269610001
 10
50.46765068559995
 20
-23.5772069853
 10
50.46800351429993
 20
-23.57773059050002
 10
50.46834743509997
 20
-23.57826346120002
 10
50.46868456169995
 20
-23.57880854609999
 10
50.46901484589997
 20
-23.57936596570002
 10
50.46933823469992
 20
-23.57993554780001
 10
50.46965654859994
 20
-23.58052033219999
 10
50.46996971759995
 20
-23.58112093529999
 10
50.47027742879993
 20
-23.58173721850002
 10
50.47058088229997
 20
-23.58237154860002
 10
50.47087973739994
 20
-23.58302444180002
 10
50.47117373769992
 20
-23.58369624760003
 10
50.47146396579996
 20
-23.58438950109999
 10
50.47175044129993
 20
-23.5851055814
 10
50.47203226399995
 20
-23.58584447260001
 10
50.47230900939997
 20
-23.58660683869999
  0
LINE
  5
56C72
330
1F
100
AcDbEntity
  8
1
100
AcDbLine
 10
50.11231738379994
 20
-24.53436684820001
 30
0.0
 11
50.09999999999998
 21
-24.52100085010002
 31
0.0
  0
LINE
  5
56C73
330
1F
100
AcDbEntity
  8
1
100
AcDbLine
 10
50.13383344579995
 20
-24.55789638430002
 30
0.0
 11
50.11231738379994
 21
-24.53436684820001
 31
0.0
  0
LINE
  5
56C74
330
1F
100
AcDbEntity
  8
1
100
AcDbLine
 10
50.15500230369998
 20
-24.58126526880001
 30
0.0
 11
50.13383344579995
 21
-24.55789638430002
 31
0.0
  0
LINE
  5
56C75
330
1F
100
AcDbEntity
  8
1
100
AcDbLine
 10
50.18187583009996
 20
-24.61125763530001
 30
0.0
 11
50.15500230369998
 21
-24.58126526880001
 31
0.0
  0
LINE
  5
56C76
330
1F
100
AcDbEntity
  8
1
100
AcDbLine
 10
50.20584912239994
 20
-24.63832519840003
 30
0.0
 11
50.18187583009996
 21
-24.61125763530001
 31
0.0
  0
LINE
  5
56C77
330
1F
100
AcDbEntity
  8
1
100
AcDbLine
 10
50.22942187599994
 20
-24.66523654970002
 30
0.0
 11
50.20584912239994
 21
-24.63832519840003
 31
0.0
  0
LINE
  5
56C78
330
1F
100
AcDbEntity
  8
1
100
AcDbLine
 10
49.23935684319997
 20
-29.43609774329999
 30
0.0
 11
49.35332325519993
 21
-29.79219206150002
 31
0.0
  0
LWPOLYLINE
  5
56C79
330
1F
100
AcDbEntity
  8
1
100
AcDbPolyline
 90
        7
 70
     0
 43
0.0
 10
49.23065688459995
 20
-29.94678053430002
 10
49.23454554589997
 20
-29.95886349970003
 10
49.23534539159996
 20
-29.96155251850002
 10
49.23608660869996
 20
-29.96424237110001
 10
49.23676919719992
 20
-29.9669330575
 10
49.23739315709998
 20
-29.9696245778
 10
49.23795848839997
 20
-29.97231693200001
  0
LINE
  5
56C7A
330
1F
100
AcDbEntity
  8
1
100
AcDbLine
 10
50.43485253409997
 20
-26.06381525040002
 30
0.0
 11
50.67466499989996
 21
-26.44141419799999
 31
0.0
  0
LINE
  5
56C7B
330
1F
100
AcDbEntity
  8
1
100
AcDbLine
 10
50.29988194989994
 20
-24.02691729450002
 30
0.0
 11
50.32723721549996
 21
-24.07994635840001
 31
0.0
  0
LINE
  5
56C7C
330
1F
100
AcDbEntity
  8
1
100
AcDbLine
 10
50.28138710829995
 20
-23.99039945410002
 30
0.0
 11
50.29988194989994
 21
-24.02691729450002
 31
0.0
  0
LINE
  5
56C7D
330
1F
100
AcDbEntity
  8
1
100
AcDbLine
 10
50.26477094949993
 20
-23.95717260780001
 30
0.0
 11
50.28138710829995
 21
-23.99039945410002
 31
0.0
  0
LWPOLYLINE
  5
56C7E
330
1F
100
AcDbEntity
  8
1
100
AcDbPolyline
 90
        3
 70
     0
 43
0.0
 10
50.24334176709996
 20
-23.9136355688
 10
50.24862135639995
 20
-23.9244375948
 10
50.26477094949993
 20
-23.95717260780001
  0
LINE
  5
56C7F
330
1F
100
AcDbEntity
  8
1
100
AcDbLine
 10
50.43310473309996
 20
-23.25438141530001
 30
0.0
 11
50.33624000259997
 21
-23.0402697824
 31
0.0
  0
LINE
  5
56C80
330
1F
100
AcDbEntity
  8
1
100
AcDbLine
 10
50.75552531929997
 20
-25.69703379680002
 30
0.0
 11
50.41929868069995
 21
-24.75227762859999
 31
0.0
  0
LWPOLYLINE
  5
56C81
330
1F
100
AcDbEntity
  8
1
100
AcDbPolyline
 90
       10
 70
     0
 43
0.0
 10
50.47230900939997
 20
-23.58660683869999
 10
50.47253913319996
 20
-23.5872704823
 10
50.47276775759996
 20
-23.58795707410002
 10
50.47299435919995
 20
-23.58866746750003
 10
50.47321874049996
 20
-23.58940437270002
 10
50.47344001579995
 20
-23.59016687529999
 10
50.47365674689995
 20
-23.59095018479999
 10
50.47386823739993
 20
-23.59175305529999
 10
50.47407439969997
 20
-23.59257803820001
 10
50.4742748348999
 20
-23.5934258241
  0
LINE
  5
56C82
330
1F
100
AcDbEntity
  8
sk3
100
AcDbLine
 10
48.75281161969994
 20
-17.356994412
 30
0.0
 11
49.88027104099995
 21
-21.03349252500001
 31
0.0
  0
LWPOLYLINE
  5
56C83
330
1F
100
AcDbEntity
  8
1
100
AcDbPolyline
 90
       65
 70
     0
 43
0.0
 10
50.43380139249996
 20
-23.55306947299999
 10
50.43395380849996
 20
-23.55356833980001
 10
50.43410680549996
 20
-23.55404683400002
 10
50.43426035889996
 20
-23.55450502770001
 10
50.43441407629994
 20
-23.55494097070002
 10
50.43456832919996
 20
-23.55535668930003
 10
50.43472425039993
 20
-23.55575819030001
 10
50.43488252169996
 20
-23.5561474248
 10
50.43504248289995
 20
-23.5565224147
 10
50.43520325889996
 20
-23.55688325770001
 10
50.43536496599996
 20
-23.55722986520001
 10
50.43552753789993
 20
-23.55756222700001
 10
50.43568982429992
 20
-23.55788055610001
 10
50.43585152519995
 20
-23.55818414109998
 10
50.43601299829996
 20
-23.55847356940001
 10
50.43617406949994
 20
-23.5587510197
 10
50.43633462199995
 20
-23.55901638750001
 10
50.43649482599994
 20
-23.55926966050001
 10
50.43665492599997
 20
-23.55951318149999
 10
50.43681496859995
 20
-23.55974711889999
 10
50.43697495449993
 20
-23.55997120129999
 10
50.43713505029995
 20
-23.56018713400002
 10
50.43729522599996
 20
-23.5603949497
 10
50.43745555199993
 20
-23.56059452869999
 10
50.43761633749998
 20
-23.56078736520001
 10
50.43777744079995
 20
-23.56097338719999
 10
50.43793903879995
 20
-23.56115259340001
 10
50.43810191539995
 20
-23.56132659299999
 10
50.43826606249997
 20
-23.56149547270002
 10
50.43843152429992
 20
-23.56165907520002
 10
50.43859916539995
 20
-23.56181864300002
 10
50.43876904459995
 20
-23.5619742854
 10
50.43894114269996
 20
-23.56212582040002
 10
50.43911621219994
 20
-23.56227404840002
 10
50.43929429839997
 20
-23.56241902490002
 10
50.43947539889996
 20
-23.5625606207
 10
50.43966019959995
 20
-23.5626993516
 10
50.43984874369996
 20
-23.56283524580002
 10
50.44004103359995
 20
-23.56296820350002
 10
50.44023769899993
 20
-23.5630985421
 10
50.44043878339998
 20
-23.56322627420002
 10
50.44064428969996
 20
-23.56335132390002
 10
50.44085479119996
 20
-23.56347387060002
 10
50.44107033399995
 20
-23.5635939215
 10
50.44129091599995
 20
-23.5637114239
 10
50.44151704239993
 20
-23.56382646480001
 10
50.44174876049996
 20
-23.56393905520002
 10
50.44198605969995
 20
-23.5640491696
 10
50.44222936039995
 20
-23.5641568437
 10
50.44247868169995
 20
-23.56426209300001
 10
50.44273402769992
 20
-23.56436493590003
 10
50.44299579469997
 20
-23.56446542070001
 10
50.44326392299996
 20
-23.5645635722
 10
50.44353847469995
 20
-23.56465946730001
 10
50.44382002669998
 20
-23.56475324900001
 10
50.44410853239995
 20
-23.56484500290001
 10
50.44440401249997
 20
-23.56493483650002
 10
50.44470714009997
 20
-23.56502295129999
 10
50.44501784619995
 20
-23.565109495
 10
50.44533613379993
 20
-23.56519463890002
 10
50.44566277499995
 20
-23.56527865960002
 10
50.4459976559
 20
-23.56536178570002
 10
50.44634076819995
 20
-23.56544427969999
 10
50.44669302699995
 20
-23.5655265302
 10
50.44742443299995
 20
-23.56569171059999
  0
LINE
  5
56C84
330
1F
100
AcDbEntity
  8
1
100
AcDbLine
 10
0.0
 20
-27.21500000000001
 30
0.0
 11
0.0
 21
-17.356994412
 31
0.0
  0
LINE
  5
56C85
330
1F
100
AcDbEntity
  8
4
100
AcDbLine
 10
53.79999999999999
 20
0.0
 30
0.0
 11
-3.300000000000011
 21
0.0
 31
0.0
  0
LWPOLYLINE
  5
56C86
330
1F
100
AcDbEntity
  8
1
100
AcDbPolyline
 90
        3
 70
     0
 43
0.0
 10
50.14111588569995
 20
-16.34315292779999
 10
50.10119325049996
 20
-16.43771290070001
 10
50.09999999999998
 20
-16.44076453139999
  0
LINE
  5
56C87
330
1F
100
AcDbEntity
  8
1
100
AcDbLine
 10
50.51998312429993
 20
-15.76126672309999
 30
0.0
 11
50.53532613549997
 21
-15.73553802020001
 31
0.0
  0
LINE
  5
56C88
330
1F
100
AcDbEntity
  8
1
100
AcDbLine
 10
50.53532613549997
 20
-15.73553802020001
 30
0.0
 11
50.55089104849995
 21
-15.70971397459999
 31
0.0
  0
LINE
  5
56C89
330
1F
100
AcDbEntity
  8
1
100
AcDbLine
 10
50.55089104849995
 20
-15.70971397459999
 30
0.0
 11
50.56667774339996
 21
-15.68379574889999
 31
0.0
  0
LINE
  5
56C8A
330
1F
100
AcDbEntity
  8
1
100
AcDbLine
 10
50.56667774339996
 20
-15.68379574889999
 30
0.0
 11
50.58268573979995
 21
-15.65778799360001
 31
0.0
  0
LINE
  5
56C8B
330
1F
100
AcDbEntity
  8
1
100
AcDbLine
 10
50.58268573979995
 20
-15.65778799360001
 30
0.0
 11
50.60092605609995
 21
-15.6284241786
 31
0.0
  0
LINE
  5
56C8C
330
1F
100
AcDbEntity
  8
1
100
AcDbLine
 10
50.60092605609995
 20
-15.6284241786
 30
0.0
 11
50.63940890089997
 21
-15.56770904320001
 31
0.0
  0
LWPOLYLINE
  5
56C8D
330
1F
100
AcDbEntity
  8
1
100
AcDbPolyline
 90
        9
 70
     0
 43
0.0
 10
50.38279219289997
 20
-15.8798499122
 10
50.40421883299996
 20
-15.8514378344
 10
50.42609671269992
 20
-15.82340430670001
 10
50.44841804949992
 20
-15.79575376950001
 10
50.47117399499995
 20
-15.76849190510001
 10
50.49435799359994
 20
-15.74162159150001
 10
50.51796602109994
 20
-15.71514306440002
 10
50.54199198949993
 20
-15.68905924359998
 10
50.56642750719992
 20
-15.66337557260002
  0
LINE
  5
56C8E
330
1F
100
AcDbEntity
  8
1
100
AcDbLine
 10
50.62700927569998
 20
-15.2607283145
 30
0.0
 11
50.15201179539993
 21
-15.81179861960001
 31
0.0
  0
LWPOLYLINE
  5
56C8F
330
1F
100
AcDbEntity
  8
1
100
AcDbPolyline
 90
       15
 70
     0
 43
0.0
 10
50.51998312429993
 20
-15.76126672309999
 10
50.48669075769993
 20
-15.79855471979999
 10
50.45422959839996
 20
-15.83663509660002
 10
50.42262151039995
 20
-15.87549650860001
 10
50.39186140109993
 20
-15.9151632098
 10
50.36200079669995
 20
-15.95558814420002
 10
50.33313867989996
 20
-15.99664754720001
 10
50.30529704979997
 20
-16.03831249890001
 10
50.27848261429994
 20
-16.08057637760001
 10
50.25275731659997
 20
-16.12334076619999
 10
50.22812180489996
 20
-16.1665994846
 10
50.20459354639996
 20
-16.21031762660001
 10
50.18224422929993
 20
-16.25434656500002
 10
50.16109278719993
 20
-16.29861886100002
 10
50.14111588569995
 20
-16.34315292779999
  0
LINE
  5
56C90
330
1F
100
AcDbEntity
  8
1
100
AcDbLine
 10
50.56642750719992
 20
-15.66337557260002
 30
0.0
 11
50.59126540539995
 21
-15.6380960845
 31
0.0
  0
LINE
  5
56C91
330
1F
100
AcDbEntity
  8
1
100
AcDbLine
 10
50.59126540539995
 20
-15.6380960845
 30
0.0
 11
50.60092605609995
 21
-15.6284241786
 31
0.0
  0
LWPOLYLINE
  5
56C92
330
1F
100
AcDbEntity
  8
1
100
AcDbPolyline
 90
        7
 70
     0
 43
0.0
 10
50.43288281599997
 20
10.3837608848
 10
50.43631679089997
 20
10.36862123919999
 10
50.43701629969993
 20
10.36525984059997
 10
50.43765791359994
 20
10.36190446980001
 10
50.43824163279996
 20
10.3585551268
 10
50.43876745709997
 20
10.35521181169999
 10
50.43923538669996
 20
10.35187452439999
  0
LINE
  5
56C93
330
1F
100
AcDbEntity
  8
1
100
AcDbLine
 10
50.32723721549996
 20
16.99588450669998
 30
0.0
 11
50.28061146609994
 21
17.35700558799999
 31
0.0
  0
LINE
  5
56C94
330
1F
100
AcDbEntity
  8
1
100
AcDbLine
 10
50.63940890089997
 20
-15.56770904320001
 30
0.0
 11
50.7975668667999
 21
-14.23545013440002
 31
0.0
  0
LWPOLYLINE
  5
56C95
330
1F
100
AcDbEntity
  8
1
100
AcDbPolyline
 90
        8
 70
     0
 43
0.0
 10
50.09999999999998
 20
-15.6217983585
 10
50.14454369239995
 20
-15.43832290600002
 10
50.21691509069995
 20
-15.1079303518
 10
50.28199061699993
 20
-14.77536645809999
 10
50.33979673939995
 20
-14.4405613479
 10
50.39037271269993
 20
-14.1034002474
 10
50.43374238109993
 20
-13.7638754248
 10
50.46991178679991
 20
-13.4219609054
  0
LWPOLYLINE
  5
56C96
330
1F
100
AcDbEntity
  8
1
100
AcDbPolyline
 90
       10
 70
     0
 43
0.0
 10
50.09999999999998
 20
-15.64603071749999
 10
50.13166348729996
 20
-15.51645324440002
 10
50.20241809809994
 20
-15.1974886808
 10
50.26661185539992
 20
-14.8757891322
 10
50.32425274449995
 20
-14.5510577023
 10
50.37522986389997
 20
-14.22350263530001
 10
50.41946696139996
 20
-13.8932541849
 10
50.45691954879993
 20
-13.56044923819999
 10
50.48756300739995
 20
-13.2252116841
 10
50.49615687919995
 20
-13.11434296709999
  0
LINE
  5
56C97
330
1F
100
AcDbEntity
  8
1
100
AcDbLine
 10
50.31997277609995
 20
-14.5751697565
 30
0.0
 11
50.43485253409997
 21
-14.1534706603
 31
0.0
  0
LWPOLYLINE
  5
56C98
330
1F
100
AcDbEntity
  8
1
100
AcDbPolyline
 90
        5
 70
     0
 43
0.0
 10
50.43485253409997
 20
-14.1534706603
 10
50.39973848919996
 20
-14.2687094828
 10
50.36561763149996
 20
-14.38377390670001
 10
50.33257595189997
 20
-14.49865132569999
 10
50.33219611439996
 20
-14.50001733180002
  0
LINE
  5
56C99
330
1F
100
AcDbEntity
  8
1
100
AcDbLine
 10
50.44862023389995
 20
-14.1093857127
 30
0.0
 11
50.43485253409997
 21
-14.1534706603
 31
0.0
  0
LINE
  5
56C9A
330
1F
100
AcDbEntity
  8
1
100
AcDbLine
 10
50.55500265779993
 20
-13.77600023830001
 30
0.0
 11
50.44862023389995
 21
-14.1093857127
 31
0.0
  0
LINE
  5
56C9B
330
1F
100
AcDbEntity
  8
1
100
AcDbLine
 10
50.57554835569994
 20
-13.713104318
 30
0.0
 11
50.55500265779993
 21
-13.77600023830001
 31
0.0
  0
LINE
  5
56C9C
330
1F
100
AcDbEntity
  8
1
100
AcDbLine
 10
50.60690567499998
 20
-13.61906900229999
 30
0.0
 11
50.57554835569994
 21
-13.713104318
 31
0.0
  0
LINE
  5
56C9D
330
1F
100
AcDbEntity
  8
1
100
AcDbLine
 10
50.75552531929997
 20
-13.17497968820001
 30
0.0
 11
50.64294363029993
 21
-13.51179557770001
 31
0.0
  0
LINE
  5
56C9E
330
1F
100
AcDbEntity
  8
1
100
AcDbLine
 10
50.64294363029993
 20
-13.51179557770001
 30
0.0
 11
50.60690567499998
 21
-13.61906900229999
 31
0.0
  0
LINE
  5
56C9F
330
1F
100
AcDbEntity
  8
1
100
AcDbLine
 10
50.78406920019996
 20
-13.37132926020001
 30
0.0
 11
50.79800564219993
 21
-13.3549532751
 31
0.0
  0
LINE
  5
56CA0
330
1F
100
AcDbEntity
  8
1
100
AcDbLine
 10
50.75552531929997
 20
-13.17497968820001
 30
0.0
 11
50.46199813599995
 21
-13.50488980610001
 31
0.0
  0
LINE
  5
56CA1
330
1F
100
AcDbEntity
  8
1
100
AcDbLine
 10
50.75552531929997
 20
9.945033393499985
 30
0.0
 11
50.78406920019996
 21
9.782777618200016
 31
0.0
  0
LINE
  5
56CA2
330
1F
100
AcDbEntity
  8
1
100
AcDbLine
 10
50.45818051809994
 20
10.46507334699998
 30
0.0
 11
50.46781089759996
 21
10.40877897
 31
0.0
  0
LWPOLYLINE
  5
56CA3
330
1F
100
AcDbEntity
  8
1
100
AcDbPolyline
 90
        9
 70
     0
 43
0.0
 10
50.41684239269994
 20
10.47473104319998
 10
50.41833396069995
 20
10.46367795029999
 10
50.41997145219994
 20
10.4525333848
 10
50.42175486749997
 20
10.44129734660001
 10
50.42368273839997
 20
10.42996878129996
 10
50.42575653309995
 20
10.41854874329998
 10
50.42798065489995
 20
10.40704039639998
 10
50.43035657189996
 20
10.39544479509999
 10
50.43288281599997
 20
10.3837608848
  0
LINE
  5
56CA4
330
1F
100
AcDbEntity
  8
1
100
AcDbLine
 10
50.43923538669996
 20
10.35187452439999
 30
0.0
 11
50.44711407359995
 21
10.2915788857
 31
0.0
  0
LWPOLYLINE
  5
56CA5
330
1F
100
AcDbEntity
  8
1
100
AcDbPolyline
 90
       10
 70
     0
 43
0.0
 10
50.79513381039993
 20
9.817490114399989
 10
50.79529642109995
 20
9.815646380999986
 10
50.79548580009995
 20
9.814032460000012
 10
50.79570194739995
 20
9.812648351499966
 10
50.79594464439995
 20
9.81149171719997
 10
50.79621410969995
 20
9.810564895299981
 10
50.79651099909998
 20
9.809874900499998
 10
50.79683553099993
 20
9.809424070900007
 10
50.79718748689995
 20
9.809210068299982
 10
50.79725809649993
 20
9.809196094499974
  0
LINE
  5
56CA6
330
1F
100
AcDbEntity
  8
1
100
AcDbLine
 10
50.49761062849995
 20
-10.60004498809999
 30
0.0
 11
50.48852323339997
 21
-10.47923809779999
 31
0.0
  0
LINE
  5
56CA7
330
1F
100
AcDbEntity
  8
1
100
AcDbLine
 10
50.46027149559995
 20
10.11018809609999
 30
0.0
 11
50.44711407359995
 21
10.2915788857
 31
0.0
  0
LWPOLYLINE
  5
56CA8
330
1F
100
AcDbEntity
  8
1
100
AcDbPolyline
 90
       10
 70
     0
 43
0.0
 10
50.41121632249996
 20
10.53191128399999
 10
50.41165536699995
 20
10.52566291699998
 10
50.41214074879993
 20
10.51938813139999
 10
50.41267246789993
 20
10.5130869271
 10
50.41325028269994
 20
10.50675907699997
 10
50.41387443469996
 20
10.50040480829997
 10
50.41454564919996
 20
10.49402480239999
 10
50.41526416789995
 20
10.48761928649998
 10
50.41602974909998
 20
10.48118803339999
 10
50.41684239269994
 20
10.47473104319998
  0
LINE
  5
56CA9
330
1F
100
AcDbEntity
  8
1
100
AcDbLine
 10
50.50586403029996
 20
-10.72056903060002
 30
0.0
 11
50.49761062849995
 21
-10.60004498809999
 31
0.0
  0
LINE
  5
56CAA
330
1F
100
AcDbEntity
  8
1
100
AcDbLine
 10
50.47245506999995
 20
9.928807366800016
 30
0.0
 11
50.46027149559995
 21
10.11018809609999
 31
0.0
  0
LINE
  5
56CAB
330
1F
100
AcDbEntity
  8
1
100
AcDbLine
 10
50.48366595669995
 20
9.74744495340002
 30
0.0
 11
50.47245506999995
 21
9.928807366800016
 31
0.0
  0
LINE
  5
56CAC
330
1F
100
AcDbEntity
  8
1
100
AcDbLine
 10
50.51328512069995
 20
-10.84080351130001
 30
0.0
 11
50.50586403029996
 21
-10.72056903060002
 31
0.0
  0
LINE
  5
56CAD
330
1F
100
AcDbEntity
  8
1
100
AcDbLine
 10
50.49317135309994
 20
9.579716390000015
 30
0.0
 11
50.48366595669995
 21
9.74744495340002
 31
0.0
  0
LINE
  5
56CAE
330
1F
100
AcDbEntity
  8
1
100
AcDbLine
 10
50.51987621629994
 20
-10.96074270950001
 30
0.0
 11
50.51328512069995
 21
-10.84080351130001
 31
0.0
  0
LINE
  5
56CAF
330
1F
100
AcDbEntity
  8
1
100
AcDbLine
 10
50.50184144029993
 20
9.41211726329999
 30
0.0
 11
50.49317135309994
 21
9.579716390000015
 31
0.0
  0
LINE
  5
56CB0
330
1F
100
AcDbEntity
  8
1
100
AcDbLine
 10
50.50967850749998
 20
9.244653706099967
 30
0.0
 11
50.50184144029993
 21
9.41211726329999
 31
0.0
  0
LINE
  5
56CB1
330
1F
100
AcDbEntity
  8
1
100
AcDbLine
 10
50.63940890089997
 20
-15.56770904320001
 30
0.0
 11
50.62700927569998
 21
-15.2607283145
 31
0.0
  0
LWPOLYLINE
  5
56CB2
330
1F
100
AcDbEntity
  8
1
100
AcDbPolyline
 90
        3
 70
     0
 43
0.0
 10
50.51987621629994
 20
8.993727975300004
 10
50.51668425249997
 20
9.077333047800005
 10
50.50967850749998
 20
9.244653706099967
  0
LINE
  5
56CB3
330
1F
100
AcDbEntity
  8
1
100
AcDbLine
 10
50.79570194739995
 20
-14.0561526985
 30
0.0
 11
50.7975668667999
 21
-14.23545013440002
 31
0.0
  0
LINE
  5
56CB4
330
1F
100
AcDbEntity
  8
1
100
AcDbLine
 10
50.47048986189995
 20
9.958863535499991
 30
0.0
 11
50.46781089759996
 21
10.40877897
 31
0.0
  0
LINE
  5
56CB5
330
1F
100
AcDbEntity
  8
1
100
AcDbLine
 10
50.79513381039993
 20
-13.96932514260001
 30
0.0
 11
50.79570194739995
 21
-14.0561526985
 31
0.0
  0
LINE
  5
56CB6
330
1F
100
AcDbEntity
  8
1
100
AcDbLine
 10
50.09999999999998
 20
-17.35700558799999
 30
0.0
 11
50.09999999999998
 21
17.35700558799999
 31
0.0
  0
LINE
  5
56CB7
330
1F
100
AcDbEntity
  8
1
100
AcDbLine
 10
50.79653083639996
 20
-13.57696842430002
 30
0.0
 11
50.79513381039993
 21
-13.96932514260001
 31
0.0
  0
LINE
  5
56CB8
330
1F
100
AcDbEntity
  8
1
100
AcDbLine
 10
50.79800564219993
 20
-13.3549532751
 30
0.0
 11
50.79696591839996
 21
-13.5253365506
 31
0.0
  0
LINE
  5
56CB9
330
1F
100
AcDbEntity
  8
1
100
AcDbLine
 10
50.79696591839996
 20
-13.5253365506
 30
0.0
 11
50.79653083639996
 21
-13.57696842430002
 31
0.0
  0
LINE
  5
56CBA
330
1F
100
AcDbEntity
  8
1
100
AcDbLine
 10
50.79546509589997
 20
9.836548572500012
 30
0.0
 11
50.79513381039993
 21
9.817490114399989
 31
0.0
  0
LINE
  5
56CBB
330
1F
100
AcDbEntity
  8
1
100
AcDbLine
 10
50.79592908319998
 20
9.856399999099998
 30
0.0
 11
50.79546509589997
 21
9.836548572500012
 31
0.0
  0
LINE
  5
56CBC
330
1F
100
AcDbEntity
  8
1
100
AcDbLine
 10
50.79800564219993
 20
9.917334387199986
 30
0.0
 11
50.79778521399996
 21
9.909684905199981
 31
0.0
  0
LINE
  5
56CBD
330
1F
100
AcDbEntity
  8
1
100
AcDbLine
 10
50.79653083639996
 20
9.877094957699966
 30
0.0
 11
50.79592908319998
 21
9.856399999099998
 31
0.0
  0
LINE
  5
56CBE
330
1F
100
AcDbEntity
  8
1
100
AcDbLine
 10
50.79778521399996
 20
9.909684905199981
 30
0.0
 11
50.79733963889996
 21
9.896825591299972
 31
0.0
  0
LWPOLYLINE
  5
56CBF
330
1F
100
AcDbEntity
  8
1
100
AcDbPolyline
 90
        3
 70
     0
 43
0.0
 10
50.79733963889996
 20
9.896825591299972
 10
50.79675604699994
 20
9.882304543899998
 10
50.79653083639996
 20
9.877094957699966
  0
LINE
  5
56CC0
330
1F
100
AcDbEntity
  8
1
100
AcDbLine
 10
50.46337061089997
 20
10.30556326930001
 30
0.0
 11
50.46781089759996
 21
10.40877897
 31
0.0
  0
LINE
  5
56CC1
330
1F
100
AcDbEntity
  8
1
100
AcDbLine
 10
50.62700927569998
 20
-15.2607283145
 30
0.0
 11
50.63287375289993
 21
-15.1357433144
 31
0.0
  0
LINE
  5
56CC2
330
1F
100
AcDbEntity
  8
1
100
AcDbLine
 10
50.45651218729996
 20
10.16332572819998
 30
0.0
 11
50.46337061089997
 21
10.30556326930001
 31
0.0
  0
LINE
  5
56CC3
330
1F
100
AcDbEntity
  8
1
100
AcDbLine
 10
50.63287375289993
 20
-15.1357433144
 30
0.0
 11
50.63927793719996
 21
-15.0121053352
 31
0.0
  0
LINE
  5
56CC4
330
1F
100
AcDbEntity
  8
1
100
AcDbLine
 10
50.63927793719996
 20
-15.0121053352
 30
0.0
 11
50.64638707999998
 21
-14.88558648049999
 31
0.0
  0
LINE
  5
56CC5
330
1F
100
AcDbEntity
  8
1
100
AcDbLine
 10
50.32723721549996
 20
-0.5275007650000135
 30
0.0
 11
50.22942187599994
 21
-2.19404857180001
 31
0.0
  0
LINE
  5
56CC6
330
1F
100
AcDbEntity
  8
1
100
AcDbLine
 10
50.64638707999998
 20
-14.88558648049999
 30
0.0
 11
50.65740272359994
 21
-14.70447615400002
 31
0.0
  0
LWPOLYLINE
  5
56CC7
330
1F
100
AcDbEntity
  8
1
100
AcDbPolyline
 90
        7
 70
     0
 43
0.0
 10
50.49807919019992
 20
-13.08837481680001
 10
50.52061738629993
 20
-12.730532237
 10
50.53509404889997
 20
-12.38118753190002
 10
50.54229040359992
 20
-12.02955356800001
 10
50.54218309489994
 20
-11.67566856749999
 10
50.53472818539995
 20
-11.31943855420002
 10
50.51987621629994
 20
-10.96074270950001
  0
LWPOLYLINE
  5
56CC8
330
1F
100
AcDbEntity
  8
1
100
AcDbPolyline
 90
        3
 70
     0
 43
0.0
 10
50.65740272359994
 20
-14.70447615400002
 10
50.67085429069996
 20
-14.49926133190001
 10
50.67466499989996
 20
-14.4432851688
  0
LWPOLYLINE
  5
56CC9
330
1F
100
AcDbEntity
  8
1
100
AcDbPolyline
 90
        3
 70
     0
 43
0.0
 10
50.09999999999998
 20
-1.259069375499989
 10
50.10259907939996
 20
-1.22667214879999
 10
50.11095746169993
 20
-1.114096100099998
  0
LINE
  5
56CCA
330
1F
100
AcDbEntity
  8
1
100
AcDbLine
 10
50.46991178679991
 20
-13.4219609054
 30
0.0
 11
50.49807919019992
 21
-13.08837481680001
 31
0.0
  0
LINE
  5
56CCB
330
1F
100
AcDbEntity
  8
1
100
AcDbLine
 10
50.62700927569998
 20
8.065134532799987
 30
0.0
 11
50.64392061189995
 21
8.265291446899986
 31
0.0
  0
LWPOLYLINE
  5
56CCC
330
1F
100
AcDbEntity
  8
1
100
AcDbPolyline
 90
        3
 70
     0
 43
0.0
 10
50.64392061189995
 20
8.265291446899986
 10
50.67085429069996
 20
8.572255260999972
 10
50.67466499989996
 20
8.615126183400008
  0
LINE
  5
56CCD
330
1F
100
AcDbEntity
  8
1
100
AcDbLine
 10
50.67466499989996
 20
8.615126183400008
 30
0.0
 11
50.78406920019996
 21
9.782777618200016
 31
0.0
  0
LINE
  5
56CCE
330
1F
100
AcDbEntity
  8
1
100
AcDbLine
 10
50.63940890089997
 20
8.146900304300004
 30
0.0
 11
50.7975668667999
 21
9.80923289279999
 31
0.0
  0
LINE
  5
56CCF
330
1F
100
AcDbEntity
  8
1
100
AcDbLine
 10
50.09999999999998
 20
-16.3448776861
 30
0.0
 11
50.19059560039995
 21
-15.4188336011
 31
0.0
  0
LINE
  5
56CD0
330
1F
100
AcDbEntity
  8
1
100
AcDbLine
 10
50.19059560039995
 20
-15.4188336011
 30
0.0
 11
50.22254028199995
 21
-15.09664869639999
 31
0.0
  0
LINE
  5
56CD1
330
1F
100
AcDbEntity
  8
1
100
AcDbLine
 10
50.78406920019996
 20
9.782777618200016
 30
0.0
 11
50.79800564219993
 21
9.917334387199986
 31
0.0
  0
LWPOLYLINE
  5
56CD2
330
1F
100
AcDbEntity
  8
1
100
AcDbPolyline
 90
        3
 70
     0
 43
0.0
 10
50.67466499989996
 20
-14.4432851688
 10
50.67859604379997
 20
-14.40589291180001
 10
50.78406920019996
 20
-13.37132926020001
  0
LINE
  5
56CD3
330
1F
100
AcDbEntity
  8
1
100
AcDbLine
 10
50.11095746169993
 20
-1.114096100099998
 30
0.0
 11
50.12348997789993
 21
-1.034462074800017
 31
0.0
  0
LINE
  5
56CD4
330
1F
100
AcDbEntity
  8
1
100
AcDbLine
 10
50.12348997789993
 20
-1.034462074800017
 30
0.0
 11
50.13636757249997
 21
-0.954979846700013
 31
0.0
  0
LINE
  5
56CD5
330
1F
100
AcDbEntity
  8
1
100
AcDbLine
 10
50.13636757249997
 20
-0.954979846700013
 30
0.0
 11
50.14961096669996
 21
-0.875543871000019
 31
0.0
  0
LINE
  5
56CD6
330
1F
100
AcDbEntity
  8
1
100
AcDbLine
 10
50.14961096669996
 20
-0.875543871000019
 30
0.0
 11
50.16323927259995
 21
-0.7960521493000102
 31
0.0
  0
LINE
  5
56CD7
330
1F
100
AcDbEntity
  8
1
100
AcDbLine
 10
50.16323927259995
 20
-0.7960521493000102
 30
0.0
 11
50.17726320079995
 21
-0.7164378932000091
 31
0.0
  0
LINE
  5
56CD8
330
1F
100
AcDbEntity
  8
1
100
AcDbLine
 10
50.17726320079995
 20
-0.7164378932000091
 30
0.0
 11
50.19654565939996
 21
-0.6102051148999978
 31
0.0
  0
LINE
  5
56CD9
330
1F
100
AcDbEntity
  8
1
100
AcDbLine
 10
50.19654565939996
 20
-0.6102051148999978
 30
0.0
 11
50.21641693049997
 21
-0.5040880523000057
 31
0.0
  0
LINE
  5
56CDA
330
1F
100
AcDbEntity
  8
1
100
AcDbLine
 10
50.21641693049997
 20
-0.5040880523000057
 30
0.0
 11
50.24334176709996
 21
-0.3621657390000053
 31
0.0
  0
LINE
  5
56CDB
330
1F
100
AcDbEntity
  8
1
100
AcDbLine
 10
50.75552531929997
 20
-13.17497968820001
 30
0.0
 11
50.79800564219993
 21
-13.3549532751
 31
0.0
  0
LINE
  5
56CDC
330
1F
100
AcDbEntity
  8
1
100
AcDbLine
 10
50.75552531929997
 20
-13.17497968820001
 30
0.0
 11
50.78406920019996
 21
-13.37132926020001
 31
0.0
  0
LINE
  5
56CDD
330
1F
100
AcDbEntity
  8
1
100
AcDbLine
 10
50.43485253409997
 20
-14.1534706603
 30
0.0
 11
50.41163926679994
 21
-13.951691202
 31
0.0
  0
LINE
  5
56CDE
330
1F
100
AcDbEntity
  8
1
100
AcDbLine
 10
50.45599395339998
 20
-10.11274328600001
 30
0.0
 11
50.44711407359995
 21
-10.02509680920002
 31
0.0
  0
LINE
  5
56CDF
330
1F
100
AcDbEntity
  8
1
100
AcDbLine
 10
50.46444083469996
 20
-10.20029318449999
 30
0.0
 11
50.45599395339998
 21
-10.11274328600001
 31
0.0
  0
LINE
  5
56CE0
330
1F
100
AcDbEntity
  8
1
100
AcDbLine
 10
50.47245506999995
 20
-10.2877442454
 30
0.0
 11
50.46444083469996
 21
-10.20029318449999
 31
0.0
  0
LINE
  5
56CE1
330
1F
100
AcDbEntity
  8
1
100
AcDbLine
 10
50.48003699499997
 20
-10.37509399149999
 30
0.0
 11
50.47245506999995
 21
-10.2877442454
 31
0.0
  0
LINE
  5
56CE2
330
1F
100
AcDbEntity
  8
1
100
AcDbLine
 10
50.48852323339997
 20
-10.47923809779999
 30
0.0
 11
50.48003699499997
 21
-10.37509399149999
 31
0.0
  0
LINE
  5
56CE3
330
1F
100
AcDbEntity
  8
sk3
100
AcDbLine
 10
47.79999999999998
 20
-13.50055768920001
 30
0.0
 11
47.79999999999998
 21
13.50055768910002
 31
0.0
  0
LINE
  5
56CE4
330
1F
100
AcDbEntity
  8
1
100
AcDbLine
 10
50.32723721549996
 20
16.99588450669998
 30
0.0
 11
50.22942187599994
 21
15.9765080539
 31
0.0
  0
LWPOLYLINE
  5
56CE5
330
1F
100
AcDbEntity
  8
1
100
AcDbPolyline
 90
        3
 70
     0
 43
0.0
 10
50.09999999999998
 20
16.3939277764
 10
50.10259907939996
 20
16.41432887689999
 10
50.11095746169993
 20
16.48465581809998
  0
LINE
  5
56CE6
330
1F
100
AcDbEntity
  8
1
100
AcDbLine
 10
50.63940890089997
 20
8.146900304300004
 30
0.0
 11
50.62700927569998
 21
8.065134532799987
 31
0.0
  0
LWPOLYLINE
  5
56CE7
330
1F
100
AcDbEntity
  8
1
100
AcDbPolyline
 90
       15
 70
     0
 43
0.0
 10
50.09999999999998
 20
2.252791073199992
 10
50.14454369239995
 20
2.528569247
 10
50.21691509069995
 20
3.022232601999994
 10
50.28199061699993
 20
3.516209682900003
 10
50.33979673939995
 20
4.010607731599975
 10
50.39037271269993
 20
4.505604847199997
 10
50.43374238109993
 20
5.001225491199988
 10
50.46991178679991
 20
5.497525442199986
 10
50.4988797430999
 20
5.994730702100007
 10
50.52061738629993
 20
6.492841106199982
 10
50.53509404889997
 20
6.991653173199999
 10
50.54229040359992
 20
7.491088527300007
 10
50.54218309489994
 20
7.991125881299971
 10
50.53472818539995
 20
8.491935761999968
 10
50.51987621629994
 20
8.993727975300004
  0
LINE
  5
56CE8
330
1F
100
AcDbEntity
  8
1
100
AcDbLine
 10
50.55500265779993
 20
9.155631865499998
 30
0.0
 11
50.52027611899996
 21
9.010606024100004
 31
0.0
  0
LINE
  5
56CE9
330
1F
100
AcDbEntity
  8
1
100
AcDbLine
 10
50.57554835569994
 20
9.239644686799998
 30
0.0
 11
50.55500265779993
 21
9.155631865499998
 31
0.0
  0
LINE
  5
56CEA
330
1F
100
AcDbEntity
  8
1
100
AcDbLine
 10
50.60690567499998
 20
9.365058022199974
 30
0.0
 11
50.57554835569994
 21
9.239644686799998
 31
0.0
  0
LINE
  5
56CEB
330
1F
100
AcDbEntity
  8
1
100
AcDbLine
 10
50.70634413109994
 20
9.755329163799984
 30
0.0
 11
50.60690567499998
 21
9.365058022199974
 31
0.0
  0
LINE
  5
56CEC
330
1F
100
AcDbEntity
  8
1
100
AcDbLine
 10
50.75552531929997
 20
9.945033393499985
 30
0.0
 11
50.70634413109994
 21
9.755329163799984
 31
0.0
  0
LINE
  5
56CED
330
1F
100
AcDbEntity
  8
sk3
100
AcDbLine
 10
14.92774653979995
 20
-12.70000000000002
 30
0.0
 11
15.99999999999997
 21
-13.20000000000002
 31
0.0
  0
LINE
  5
56CEE
330
1F
100
AcDbEntity
  8
1
100
AcDbLine
 10
0.5
 20
4.762499999999987
 30
0.0
 11
0.0
 21
5.262500000000017
 31
0.0
  0
LINE
  5
56CEF
330
1F
100
AcDbEntity
  8
sk3
100
AcDbLine
 10
46.79999967649993
 20
-10.0
 30
0.0
 11
46.79999967649993
 21
10.0
 31
0.0
  0
LINE
  5
56CF0
330
1F
100
AcDbEntity
  8
1
100
AcDbLine
 10
50.11095746169993
 20
16.48465581809998
 30
0.0
 11
50.12348997789993
 21
16.53995250079998
 31
0.0
  0
LINE
  5
56CF1
330
1F
100
AcDbEntity
  8
1
100
AcDbLine
 10
50.12348997789993
 20
16.53995250079998
 30
0.0
 11
50.13636757249997
 21
16.59545304479999
 31
0.0
  0
LINE
  5
56CF2
330
1F
100
AcDbEntity
  8
1
100
AcDbLine
 10
50.13636757249997
 20
16.59545304479999
 30
0.0
 11
50.14961096669996
 21
16.65123418449997
 31
0.0
  0
LINE
  5
56CF3
330
1F
100
AcDbEntity
  8
1
100
AcDbLine
 10
50.14961096669996
 20
16.65123418449997
 30
0.0
 11
50.16323927259995
 21
16.70736931100001
 31
0.0
  0
LINE
  5
56CF4
330
1F
100
AcDbEntity
  8
1
100
AcDbLine
 10
50.16323927259995
 20
16.70736931100001
 30
0.0
 11
50.17726320079995
 21
16.76390496859997
 31
0.0
  0
LINE
  5
56CF5
330
1F
100
AcDbEntity
  8
1
100
AcDbLine
 10
50.17726320079995
 20
16.76390496859997
 30
0.0
 11
50.19166608939992
 21
16.82079392199998
 31
0.0
  0
LINE
  5
56CF6
330
1F
100
AcDbEntity
  8
1
100
AcDbLine
 10
50.19166608939992
 20
16.82079392199998
 30
0.0
 11
50.21139936769992
 21
16.89704926309997
 31
0.0
  0
LINE
  5
56CF7
330
1F
100
AcDbEntity
  8
1
100
AcDbLine
 10
50.21139936769992
 20
16.89704926309997
 30
0.0
 11
50.24334176709996
 21
17.0185602219
 31
0.0
  0
LINE
  5
56CF8
330
1F
100
AcDbEntity
  8
1
100
AcDbLine
 10
50.42175312329995
 20
10.44130833519997
 30
0.0
 11
50.43262487039993
 21
10.48178318239998
 31
0.0
  0
LINE
  5
56CF9
330
1F
100
AcDbEntity
  8
1
100
AcDbLine
 10
50.75552531929997
 20
9.945033393499985
 30
0.0
 11
50.50345020419996
 21
9.378623228200003
 31
0.0
  0
LWPOLYLINE
  5
56CFA
330
1F
100
AcDbEntity
  8
1
100
AcDbPolyline
 90
        7
 70
     0
 43
0.0
 10
50.12908788799997
 20
-2.254829460699994
 10
50.13527709449994
 20
-2.24825467970001
 10
50.14154295009996
 20
-2.241780048099997
 10
50.14788545469992
 20
-2.235405565900009
 10
50.15430461869996
 20
-2.229133119500005
 10
50.16080043169996
 20
-2.222960822600015
 10
50.16737286279997
 20
-2.216883015399985
  0
LWPOLYLINE
  5
56CFB
330
1F
100
AcDbEntity
  8
1
100
AcDbPolyline
 90
        9
 70
     0
 43
0.0
 10
50.09999999999998
 20
-2.289314650900023
 10
50.10343016199994
 20
-2.285714718700006
 10
50.10697667559996
 20
-2.281851402499995
 10
50.11056299929993
 20
-2.277805105299989
 10
50.11418905239995
 20
-2.273575838800013
 10
50.11785459199993
 20
-2.269163637600001
 10
50.12155953739995
 20
-2.264568513300019
 10
50.12530396939997
 20
-2.259790454300001
 10
50.12908788799997
 20
-2.254829460699994
  0
LWPOLYLINE
  5
56CFC
330
1F
100
AcDbEntity
  8
1
100
AcDbPolyline
 90
        3
 70
     0
 43
0.0
 10
50.16737286279997
 20
-2.216883015399985
 10
50.17402190149994
 20
-2.210897811300014
 10
50.18074755819998
 20
-2.205007096900003
  0
LINE
  5
56CFD
330
1F
100
AcDbEntity
  8
1
100
AcDbLine
 10
50.18074755819998
 20
-2.205007096900003
 30
0.0
 11
50.18754983299996
 21
-2.199210872299999
 31
0.0
  0
LINE
  5
56CFE
330
1F
100
AcDbEntity
  8
sk3
100
AcDbLine
 10
15.99999999999997
 20
-13.20000000000002
 30
0.0
 11
25.99999999999997
 21
-13.20000000000002
 31
0.0
  0
LINE
  5
56CFF
330
1F
100
AcDbEntity
  8
sk3
100
AcDbLine
 10
1.199999859799958
 20
-13.10000000000002
 30
0.0
 11
3.699999999999988
 21
-13.10000000000002
 31
0.0
  0
LINE
  5
56D00
330
1F
100
AcDbEntity
  8
sk3
100
AcDbLine
 10
3.699999999999988
 20
-12.70000000000002
 30
0.0
 11
14.92774653979995
 21
-12.70000000000002
 31
0.0
  0
LINE
  5
56D01
330
1F
100
AcDbEntity
  8
1
100
AcDbLine
 10
5.559999999999945
 20
3.762499999999988
 30
0.0
 11
4.559999999999945
 21
4.762499999999987
 31
0.0
  0
LINE
  5
56D02
330
1F
100
AcDbEntity
  8
sk3
100
AcDbLine
 10
48.01972895899996
 20
14.966507475
 30
0.0
 11
48.75281504699993
 21
17.35700558799999
 31
0.0
  0
LINE
  5
56D03
330
1F
100
AcDbEntity
  8
1
100
AcDbLine
 10
50.62700927569998
 20
8.065134532799987
 30
0.0
 11
50.54219236459997
 21
7.947930846499986
 31
0.0
  0
LINE
  5
56D04
330
1F
100
AcDbEntity
  8
sk3
100
AcDbLine
 10
33.99999999999997
 20
-10.0
 30
0.0
 11
46.79999967649993
 21
-10.0
 31
0.0
  0
LINE
  5
56D05
330
1F
100
AcDbEntity
  8
sk3
100
AcDbLine
 10
1.19999986099998
 20
13.10000000000002
 30
0.0
 11
0.0
 21
14.2999998482
 31
0.0
  0
LWPOLYLINE
  5
56D06
330
1F
100
AcDbEntity
  8
1
100
AcDbPolyline
 90
        5
 70
     0
 43
0.0
 10
50.18754983299996
 20
-2.199210872299999
 10
50.1920047385999
 20
-2.197689694300009
 10
50.19650917089997
 20
-2.196403658299999
 10
50.20106312979995
 20
-2.195352764300024
 10
50.20276475559995
 20
-2.195050378100006
  0
LINE
  5
56D07
330
1F
100
AcDbEntity
  8
sk3
100
AcDbLine
 10
25.99999999999997
 20
-6.850000000000022
 30
0.0
 11
33.49999996729997
 21
-6.850000000000022
 31
0.0
  0
LINE
  5
56D08
330
1F
100
AcDbEntity
  8
1
100
AcDbLine
 10
50.44711407359995
 20
-10.02509680920002
 30
0.0
 11
50.09999999999998
 21
-9.968054471199991
 31
0.0
  0
LINE
  5
56D09
330
1F
100
AcDbEntity
  8
sk3
100
AcDbLine
 10
46.79999967649993
 20
10.0
 30
0.0
 11
47.79999999999998
 21
11.00000035579997
 31
0.0
  0
LINE
  5
56D0A
330
1F
100
AcDbEntity
  8
1
100
AcDbLine
 10
50.11095746169993
 20
-1.114096100099998
 30
0.0
 11
50.09999999999998
 21
-1.116287763400009
 31
0.0
  0
LWPOLYLINE
  5
56D0B
330
1F
100
AcDbEntity
  8
1
100
AcDbPolyline
 90
        9
 70
     0
 43
0.0
 10
50.17582104479996
 20
-2.196958636600014
 10
50.16545531749997
 20
-2.197929181700004
 10
50.15500230369998
 20
-2.199042657200009
 10
50.14446200339997
 20
-2.200299062999988
 10
50.13383344579995
 20
-2.201696865699999
 10
50.12311760169996
 20
-2.2032375988
 10
50.11231738379994
 20
-2.204925862700008
 10
50.10143376299996
 20
-2.206763190700002
 10
50.09999999999998
 20
-2.20702265630001
  0
LWPOLYLINE
  5
56D0C
330
1F
100
AcDbEntity
  8
1
100
AcDbPolyline
 90
       10
 70
     0
 43
0.0
 10
50.22942187599994
 20
-2.19404857180001
 10
50.22356662519991
 20
-2.194189090200012
 10
50.21768611769994
 20
-2.194375122800011
 10
50.21178035349997
 20
-2.194606669600005
 10
50.20584912239994
 20
-2.194883475500005
 10
50.19989263459996
 20
-2.195205795600003
 10
50.19391151999997
 20
-2.195574395200025
 10
50.18790598849996
 20
-2.195989529499995
 10
50.18187583009996
 20
-2.19645094330002
 10
50.17582104479996
 20
-2.196958636600014
  0
LINE
  5
56D0D
330
1F
100
AcDbEntity
  8
1
100
AcDbLine
 10
0.5
 20
-4.762500000000017
 30
0.0
 11
4.559999999999945
 21
-4.762500000000017
 31
0.0
  0
LINE
  5
56D0E
330
1F
100
AcDbEntity
  8
sk3
100
AcDbLine
 10
33.99999999999997
 20
-10.0
 30
0.0
 11
33.99999999999997
 21
10.0
 31
0.0
  0
LINE
  5
56D0F
330
1F
100
AcDbEntity
  8
sk3
100
AcDbLine
 10
33.49999996729997
 20
6.850000000000022
 30
0.0
 11
33.49999996729997
 21
-6.850000000000022
 31
0.0
  0
LINE
  5
56D10
330
1F
100
AcDbEntity
  8
1
100
AcDbLine
 10
50.11231738379994
 20
15.87223344
 30
0.0
 11
50.09999999999998
 21
15.8607296774
 31
0.0
  0
LWPOLYLINE
  5
56D11
330
1F
100
AcDbEntity
  8
1
100
AcDbPolyline
 90
        3
 70
     0
 43
0.0
 10
50.14446200339997
 20
15.90177935789998
 10
50.13383344579995
 20
15.89208432489998
 10
50.11231738379994
 20
15.87223344
  0
LINE
  5
56D12
330
1F
100
AcDbEntity
  8
sk3
100
AcDbLine
 10
33.49999996729997
 20
-6.850000000000022
 30
0.0
 11
33.99999999999997
 21
-7.350000035100007
 31
0.0
  0
LINE
  5
56D13
330
1F
100
AcDbEntity
  8
1
100
AcDbLine
 10
50.16545531749997
 20
15.9207088487
 30
0.0
 11
50.14446200339997
 21
15.90177935789998
 31
0.0
  0
LINE
  5
56D14
330
1F
100
AcDbEntity
  8
1
100
AcDbLine
 10
50.18187583009996
 20
15.93530391390001
 30
0.0
 11
50.16545531749997
 21
15.9207088487
 31
0.0
  0
LINE
  5
56D15
330
1F
100
AcDbEntity
  8
1
100
AcDbLine
 10
50.19391151999997
 20
15.94588520689999
 30
0.0
 11
50.18187583009996
 21
15.93530391390001
 31
0.0
  0
LINE
  5
56D16
330
1F
100
AcDbEntity
  8
1
100
AcDbLine
 10
50.20584912239994
 20
15.95627987249999
 30
0.0
 11
50.19391151999997
 21
15.94588520689999
 31
0.0
  0
LINE
  5
56D17
330
1F
100
AcDbEntity
  8
1
100
AcDbLine
 10
50.21768611769994
 20
15.9664875207
 30
0.0
 11
50.20584912239994
 21
15.95627987249999
 31
0.0
  0
LINE
  5
56D18
330
1F
100
AcDbEntity
  8
1
100
AcDbLine
 10
50.22942187599994
 20
15.9765080539
 30
0.0
 11
50.21768611769994
 21
15.9664875207
 31
0.0
  0
LINE
  5
56D19
330
1F
100
AcDbEntity
  8
1
100
AcDbLine
 10
50.17527729669996
 20
-2.197009547899995
 30
0.0
 11
50.18754983299996
 21
-2.199210872299999
 31
0.0
  0
LINE
  5
56D1A
330
1F
100
AcDbEntity
  8
sk3
100
AcDbLine
 10
33.49999996729997
 20
6.850000000000022
 30
0.0
 11
33.99999999999997
 21
7.350000035000022
 31
0.0
  0
LINE
  5
56D1B
330
1F
100
AcDbEntity
  8
1
100
AcDbLine
 10
4.559999999999945
 20
4.762499999999987
 30
0.0
 11
0.5
 21
4.762499999999987
 31
0.0
  0
LINE
  5
56D1C
330
1F
100
AcDbEntity
  8
1
100
AcDbLine
 10
50.09999999999998
 20
-2.247000018899996
 30
0.0
 11
50.12908788799997
 21
-2.254829460699994
 31
0.0
  0
LINE
  5
56D1D
330
1F
100
AcDbEntity
  8
sk3
100
AcDbLine
 10
46.79999967649993
 20
-10.0
 30
0.0
 11
47.79999999999998
 21
-11.0000003559
 31
0.0
  0
LINE
  5
56D1E
330
1F
100
AcDbEntity
  8
sk3
100
AcDbLine
 10
25.99999999999997
 20
-13.20000000000002
 30
0.0
 11
25.99999999999997
 21
13.20000000000002
 31
0.0
  0
LINE
  5
56D1F
330
1F
100
AcDbEntity
  8
sk3
100
AcDbLine
 10
25.99999999999997
 20
6.850000000000022
 30
0.0
 11
33.49999996729997
 21
6.850000000000022
 31
0.0
  0
LINE
  5
56D20
330
1F
100
AcDbEntity
  8
1
100
AcDbLine
 10
50.43485253409997
 20
-14.1534706603
 30
0.0
 11
50.67466499989996
 21
-14.4432851688
 31
0.0
  0
LINE
  5
56D21
330
1F
100
AcDbEntity
  8
1
100
AcDbLine
 10
50.79725809649993
 20
9.809196094499974
 30
0.0
 11
50.7975668667999
 21
9.80923289279999
 31
0.0
  0
LINE
  5
56D22
330
1F
100
AcDbEntity
  8
1
100
AcDbLine
 10
50.75552531929997
 20
9.945033393499985
 30
0.0
 11
50.47235716809995
 21
9.930304691699992
 31
0.0
  0
LINE
  5
56D23
330
1F
100
AcDbEntity
  8
sk3
100
AcDbLine
 10
33.99999999999997
 20
10.0
 30
0.0
 11
46.79999967649993
 21
10.0
 31
0.0
  0
LINE
  5
56D24
330
1F
100
AcDbEntity
  8
sk3
100
AcDbLine
 10
1.199999859799958
 20
-13.10000000000002
 30
0.0
 11
0.0
 21
-14.29999984700001
 31
0.0
  0
LINE
  5
56D25
330
1F
100
AcDbEntity
  8
sk3
100
AcDbLine
 10
3.699999999999988
 20
12.70000000000002
 30
0.0
 11
14.92774653979995
 21
12.70000000000002
 31
0.0
  0
LINE
  5
56D26
330
1F
100
AcDbEntity
  8
sk3
100
AcDbLine
 10
1.19999986099998
 20
13.10000000000002
 30
0.0
 11
3.699999999999988
 21
13.10000000000002
 31
0.0
  0
LINE
  5
56D27
330
1F
100
AcDbEntity
  8
sk3
100
AcDbLine
 10
15.99999999999997
 20
13.20000000000002
 30
0.0
 11
25.99999999999997
 21
13.20000000000002
 31
0.0
  0
LINE
  5
56D28
330
1F
100
AcDbEntity
  8
1
100
AcDbLine
 10
50.09999999999998
 20
10.54782648649998
 30
0.0
 11
50.41121632249996
 21
10.53191128399999
 31
0.0
  0
LWPOLYLINE
  5
56D29
330
1F
100
AcDbEntity
  8
1
100
AcDbPolyline
 90
        4
 70
     0
 43
0.0
 10
50.44711407359995
 20
10.2915788857
 10
50.31486319139997
 20
10.30648716789996
 10
50.18515252929993
 20
10.32047037289999
 10
50.09999999999998
 20
10.32921401309997
  0
LINE
  5
56D2A
330
1F
100
AcDbEntity
  8
1
100
AcDbLine
 10
50.53055830759996
 20
8.632820260300007
 30
0.0
 11
50.67466499989996
 21
8.615126183400008
 31
0.0
  0
LINE
  5
56D2B
330
1F
100
AcDbEntity
  8
1
100
AcDbLine
 10
50.75552531929997
 20
9.945033393499985
 30
0.0
 11
50.47030629599997
 21
9.989692296299972
 31
0.0
  0
LWPOLYLINE
  5
56D2C
330
1F
100
AcDbEntity
  8
1
100
AcDbPolyline
 90
        4
 70
     0
 43
0.0
 10
50.1465024159
 20
-17.35700558799999
 10
50.12502469899994
 20
-17.31252083820001
 10
50.10445251429993
 20
-17.2671857681
 10
50.09999999999998
 20
-17.25671604609999
  0
LINE
  5
56D2D
330
1F
100
AcDbEntity
  8
1
100
AcDbLine
 10
50.11095746169993
 20
16.48465581809998
 30
0.0
 11
50.09999999999998
 21
16.48199804660001
 31
0.0
  0
LINE
  5
56D2E
330
1F
100
AcDbEntity
  8
1
100
AcDbLine
 10
50.75552531929997
 20
-13.17497968820001
 30
0.0
 11
50.52166029589997
 21
-12.70536518380001
 31
0.0
  0
LINE
  5
56D2F
330
1F
100
AcDbEntity
  8
1
100
AcDbLine
 10
50.12007716159995
 20
-16.31560904709999
 30
0.0
 11
50.10698191569996
 21
-16.2733202983
 31
0.0
  0
LINE
  5
56D30
330
1F
100
AcDbEntity
  8
sk3
100
AcDbLine
 10
48.01972895899996
 20
-14.9665074751
 30
0.0
 11
48.75281504699993
 21
-17.35700558799999
 31
0.0
  0
LINE
  5
56D31
330
1F
100
AcDbEntity
  8
sk3
100
AcDbLine
 10
15.99999999999997
 20
13.20000000000002
 30
0.0
 11
15.99999999999997
 21
-13.20000000000002
 31
0.0
  0
LINE
  5
56D32
330
1F
100
AcDbEntity
  8
sk3
100
AcDbLine
 10
14.92774653979995
 20
12.70000000000002
 30
0.0
 11
14.92774653979995
 21
-12.70000000000002
 31
0.0
  0
LINE
  5
56D33
330
1F
100
AcDbEntity
  8
1
100
AcDbLine
 10
4.559999999999945
 20
-4.762500000000017
 30
0.0
 11
5.559999999999945
 21
-3.762500000000017
 31
0.0
  0
LINE
  5
56D34
330
1F
100
AcDbEntity
  8
1
100
AcDbLine
 10
50.29988194989994
 20
-0.4764517186000036
 30
0.0
 11
50.32723721549996
 21
-0.5275007650000135
 31
0.0
  0
LINE
  5
56D35
330
1F
100
AcDbEntity
  8
1
100
AcDbLine
 10
0.0
 20
-5.262500000000017
 30
0.0
 11
0.5
 21
-4.762500000000017
 31
0.0
  0
LINE
  5
56D36
330
1F
100
AcDbEntity
  8
sk3
100
AcDbLine
 10
14.92774653979995
 20
12.70000000000002
 30
0.0
 11
15.99999999999997
 21
13.20000000000002
 31
0.0
  0
LINE
  5
56D37
330
1F
100
AcDbEntity
  8
1
100
AcDbLine
 10
50.29988194989994
 20
17.0016691612
 30
0.0
 11
50.32723721549996
 21
16.99588450669998
 31
0.0
  0
LINE
  5
56D38
330
1F
100
AcDbEntity
  8
1
100
AcDbLine
 10
50.75552531929997
 20
9.945033393499985
 30
0.0
 11
50.79800564219993
 21
9.917334387199986
 31
0.0
  0
LINE
  5
56D39
330
1F
100
AcDbEntity
  8
1
100
AcDbLine
 10
50.28702967799995
 20
-0.4514671645999897
 30
0.0
 11
50.29988194989994
 21
-0.4764517186000036
 31
0.0
  0
LINE
  5
56D3A
330
1F
100
AcDbEntity
  8
1
100
AcDbLine
 10
50.27579645209996
 20
-0.4292206448000117
 30
0.0
 11
50.28702967799995
 21
-0.4514671645999897
 31
0.0
  0
LINE
  5
56D3B
330
1F
100
AcDbEntity
  8
1
100
AcDbLine
 10
50.26477094949993
 20
-0.4069183853000027
 30
0.0
 11
50.27579645209996
 21
-0.4292206448000117
 31
0.0
  0
LWPOLYLINE
  5
56D3C
330
1F
100
AcDbEntity
  8
1
100
AcDbPolyline
 90
        8
 70
     0
 43
0.0
 10
50.24334176709996
 20
-0.3621657390000053
 10
50.21772035469993
 20
-0.3095148066000206
 10
50.19306245649993
 20
-0.2561720555000022
 10
50.16938724219992
 20
-0.2021604116000049
 10
50.14669414849997
 20
-0.1474539714999992
 10
50.12502469899994
 20
-0.0921256441000083
 10
50.10445251429993
 20
-0.0363507753000079
 10
50.09999999999998
 20
-0.0234963878000087
  0
LINE
  5
56D3D
330
1F
100
AcDbEntity
  8
1
100
AcDbLine
 10
50.25395275569997
 20
-0.3845662605000086
 30
0.0
 11
50.26477094949993
 21
-0.4069183853000027
 31
0.0
  0
LINE
  5
56D3E
330
1F
100
AcDbEntity
  8
1
100
AcDbLine
 10
50.24334176709996
 20
-0.3621657390000053
 30
0.0
 11
50.25395275569997
 21
-0.3845662605000086
 31
0.0
  0
LINE
  5
56D3F
330
1F
100
AcDbEntity
  8
1
100
AcDbLine
 10
50.29272416119997
 20
17.00347769049999
 30
0.0
 11
50.29988194989994
 21
17.0016691612
 31
0.0
  0
LWPOLYLINE
  5
56D40
330
1F
100
AcDbEntity
  8
1
100
AcDbPolyline
 90
       10
 70
     0
 43
0.0
 10
50.24334176709996
 20
17.0185602219
 10
50.24862135639995
 20
17.0166822676
 10
50.25395275569997
 20
17.01485461449997
 10
50.25933596489995
 20
17.01307726250002
 10
50.26477094949993
 20
17.01134990739999
 10
50.27025774409998
 20
17.0096728533
 10
50.27579645209996
 20
17.0080470133
 10
50.28138710829995
 20
17.0064726917
 10
50.28702967799995
 20
17.00494958399997
 10
50.29272416119997
 20
17.00347769049999
  0
LINE
  5
56D41
330
1F
100
AcDbEntity
  8
1
100
AcDbLine
 10
50.43262487039993
 20
10.48178318239998
 30
0.0
 11
50.42843284699995
 21
10.48493818719999
 31
0.0
  0
LWPOLYLINE
  5
56D42
330
1F
100
AcDbEntity
  8
1
100
AcDbPolyline
 90
        4
 70
     0
 43
0.0
 10
50.42843284699995
 20
10.48493818719999
 10
50.42437343329996
 20
10.48812823049999
 10
50.42044662939995
 20
10.49135331229998
 10
50.41665435619997
 20
10.49461339579999
  0
LWPOLYLINE
  5
56D43
330
1F
100
AcDbEntity
  8
1
100
AcDbPolyline
 90
       10
 70
     0
 43
0.0
 10
50.45818051809994
 20
10.46507334699998
 10
50.45602092839996
 20
10.4668365839
 10
50.45369137279997
 20
10.4686232034
 10
50.45119185129993
 20
10.47043320539998
 10
50.44852238479996
 20
10.47226662949997
 10
50.44568295239995
 20
10.47412343619999
 10
50.44267349109992
 20
10.47600350669997
 10
50.43949397979996
 20
10.47790680139999
 10
50.43614443959995
 20
10.47983336000001
 10
50.43262487039993
 20
10.48178318239998
  0
LINE
  5
56D44
330
1F
100
AcDbEntity
  8
1
100
AcDbLine
 10
50.41665435619997
 20
10.49461339579999
 30
0.0
 11
50.41425659459997
 21
10.4967723148
 31
0.0
  0
LINE
  5
56D45
330
1F
100
AcDbEntity
  8
1
100
AcDbLine
 10
5.559999999999945
 20
-3.762500000000017
 30
0.0
 11
5.559999999999945
 21
3.762499999999988
 31
0.0
  0
LINE
  5
56D46
330
1F
100
AcDbEntity
  8
sk3
100
AcDbLine
 10
3.699999999999988
 20
-13.10000000000002
 30
0.0
 11
3.699999999999988
 21
-4.762500000000017
 31
0.0
  0
LINE
  5
56D47
330
1F
100
AcDbEntity
  8
sk3
100
AcDbLine
 10
3.699999999999988
 20
4.762499999999987
 30
0.0
 11
3.699999999999988
 21
13.10000000000002
 31
0.0
  0
LINE
  5
56D48
330
1F
100
AcDbEntity
  8
1
100
AcDbLine
 10
50.29223151199994
 20
17.01021740300001
 30
0.0
 11
50.29988194989994
 21
17.0016691612
 31
0.0
  0
LWPOLYLINE
  5
56D49
330
1F
100
AcDbEntity
  8
1
100
AcDbPolyline
 90
        8
 70
     0
 43
0.0
 10
50.24334176709996
 20
17.0185602219
 10
50.21772035469993
 20
17.0506363225
 10
50.19306245649993
 20
17.08305365149999
 10
50.16938724219992
 20
17.11579468039997
 10
50.14669414849997
 20
17.14887129899998
 10
50.12502469899994
 20
17.18223550289997
 10
50.10445251429993
 20
17.21577800859998
 10
50.09999999999998
 20
17.22348713579998
  0
LWPOLYLINE
  5
56D4A
330
1F
100
AcDbEntity
  8
1
100
AcDbPolyline
 90
       10
 70
     0
 43
0.0
 10
50.13334391589999
 20
17.21649741449997
 10
50.14900462509996
 20
17.19294547549999
 10
50.16517852539993
 20
17.16953736079998
 10
50.18185887099996
 20
17.14627965519997
 10
50.19903810379997
 20
17.12317997439999
 10
50.21671038539995
 20
17.10024354019998
 10
50.23487186109995
 20
17.0774732351
 10
50.25351715709996
 20
17.05487415059997
 10
50.27263911569995
 20
17.0324535343
 10
50.29223151199994
 20
17.01021740300001
  0
LINE
  5
56D4B
330
1F
100
AcDbEntity
  8
sk3
100
AcDbLine
 10
1.19999986099998
 20
13.10000000000002
 30
0.0
 11
1.199999999999988
 21
4.762499999999987
 31
0.0
  0
LINE
  5
56D4C
330
1F
100
AcDbEntity
  8
sk3
100
AcDbLine
 10
1.199999999999988
 20
-4.762500000000017
 30
0.0
 11
1.199999859799958
 21
-13.10000000000002
 31
0.0
  0
LINE
  5
56D4D
330
1F
100
AcDbEntity
  8
1
100
AcDbLine
 10
0.0
 20
-17.35700558799999
 30
0.0
 11
0.0
 21
-5.262500000000017
 31
0.0
  0
LINE
  5
56D4E
330
1F
100
AcDbEntity
  8
1
100
AcDbLine
 10
0.0
 20
5.262500000000017
 30
0.0
 11
0.0
 21
17.35700558799999
 31
0.0
  0
LINE
  5
56D4F
330
1F
100
AcDbEntity
  8
1
100
AcDbLine
 10
50.75552531929997
 20
18.7070623255
 30
0.0
 11
50.46978794749998
 21
18.038829483
 31
0.0
  0
LINE
  5
56D50
330
1F
100
AcDbEntity
  8
1
100
AcDbLine
 10
50.45818051809994
 20
18.3127239467
 30
0.0
 11
50.46781089759996
 21
18.33284575639999
 31
0.0
  0
LINE
  5
56D51
330
1F
100
AcDbEntity
  8
1
100
AcDbLine
 10
50.75552531929997
 20
18.7070623255
 30
0.0
 11
50.79800564219993
 21
18.7547184469
 31
0.0
  0
LINE
  5
56D52
330
1F
100
AcDbEntity
  8
1
100
AcDbLine
 10
50.75552531929997
 20
18.7070623255
 30
0.0
 11
50.38530736579994
 21
18.34029846480001
 31
0.0
  0
LINE
  5
56D53
330
1F
100
AcDbEntity
  8
1
100
AcDbLine
 10
50.69323438819997
 20
17.7701543169
 30
0.0
 11
50.75517038419993
 21
18.33143033749998
 31
0.0
  0
LINE
  5
56D54
330
1F
100
AcDbEntity
  8
1
100
AcDbLine
 10
50.75517038419993
 20
18.33143033749998
 30
0.0
 11
50.78406920019996
 21
18.59122500180001
 31
0.0
  0
LINE
  5
56D55
330
1F
100
AcDbEntity
  8
1
100
AcDbLine
 10
50.66049440959996
 20
17.49521177189999
 30
0.0
 11
50.67466499989996
 21
17.60059180529998
 31
0.0
  0
LINE
  5
56D56
330
1F
100
AcDbEntity
  8
1
100
AcDbLine
 10
50.65163439619997
 20
17.43193735329997
 30
0.0
 11
50.66049440959996
 21
17.49521177189999
 31
0.0
  0
LINE
  5
56D57
330
1F
100
AcDbEntity
  8
1
100
AcDbLine
 10
50.64638707999998
 20
17.39582771779999
 30
0.0
 11
50.65163439619997
 21
17.43193735329997
 31
0.0
  0
LWPOLYLINE
  5
56D58
330
1F
100
AcDbEntity
  8
1
100
AcDbPolyline
 90
        3
 70
     0
 43
0.0
 10
50.64050541099996
 20
17.35699441199996
 10
50.64156011019996
 20
17.3637727167
 10
50.64638707999998
 20
17.39582771779999
  0
LWPOLYLINE
  5
56D59
330
1F
100
AcDbEntity
  8
1
100
AcDbPolyline
 90
        9
 70
     0
 43
0.0
 10
50.47230900939997
 20
17.36088299729999
 10
50.47276775759996
 20
17.36362942859996
 10
50.47299435919995
 20
17.36494240109997
 10
50.47321874049996
 20
17.36620627409999
 10
50.47344001579995
 20
17.36741370849998
 10
50.47365674689995
 20
17.3685585348
 10
50.47386823739993
 20
17.36963565769997
 10
50.47407439969997
 20
17.37063927649997
 10
50.4742748348999
 20
17.37156363009998
  0
LINE
  5
56D5A
330
1F
100
AcDbEntity
  8
1
100
AcDbLine
 10
50.32723721549996
 20
21.84611669379998
 30
0.0
 11
50.22942187599994
 21
21.317717585
 31
0.0
  0
LINE
  5
56D5B
330
1F
100
AcDbEntity
  8
1
100
AcDbLine
 10
50.52027611899996
 20
17.8458893998
 30
0.0
 11
50.47235922409996
 21
17.6564429964
 31
0.0
  0
LWPOLYLINE
  5
56D5C
330
1F
100
AcDbEntity
  8
1
100
AcDbPolyline
 90
        7
 70
     0
 43
0.0
 10
50.42044662939995
 20
18.19619759299998
 10
50.41665435619997
 20
18.18153615649999
 10
50.41299469279997
 20
18.16667693549999
 10
50.40946187589997
 20
18.15162073899998
 10
50.40605398449995
 20
18.13636783660001
 10
50.40277293969996
 20
18.12091795869999
 10
50.39961874139996
 20
18.10527110519999
  0
LINE
  5
56D5D
330
1F
100
AcDbEntity
  8
1
100
AcDbLine
 10
50.54866993779995
 20
17.95611352339999
 30
0.0
 11
50.52027611899996
 21
17.8458893998
 31
0.0
  0
LINE
  5
56D5E
330
1F
100
AcDbEntity
  8
1
100
AcDbLine
 10
50.56842891139996
 20
18.03141758629998
 30
0.0
 11
50.54866993779995
 21
17.95611352339999
 31
0.0
  0
LINE
  5
56D5F
330
1F
100
AcDbEntity
  8
1
100
AcDbLine
 10
50.59064730779997
 20
18.11443189989998
 30
0.0
 11
50.56842891139996
 21
18.03141758629998
 31
0.0
  0
LWPOLYLINE
  5
56D60
330
1F
100
AcDbEntity
  8
1
100
AcDbPolyline
 90
       10
 70
     0
 43
0.0
 10
50.45818051809994
 20
18.3127239467
 10
50.45602092839996
 20
18.3048193818
 10
50.45369137279997
 20
18.2968427696
 10
50.45119185129993
 20
18.28879411019997
 10
50.44852238479996
 20
18.28067321009999
 10
50.44568295239995
 20
18.2724802628
 10
50.44267349109992
 20
18.26421584869999
 10
50.43949397979996
 20
18.2558801616
 10
50.43614443959995
 20
18.24747300769996
 10
50.43262487039993
 20
18.23899438719998
  0
LINE
  5
56D61
330
1F
100
AcDbEntity
  8
1
100
AcDbLine
 10
50.63349514299997
 20
18.27132759779998
 30
0.0
 11
50.59064730779997
 21
18.11443189989998
 31
0.0
  0
LINE
  5
56D62
330
1F
100
AcDbEntity
  8
1
100
AcDbLine
 10
50.70634413109994
 20
18.5335958614
 30
0.0
 11
50.63349514299997
 21
18.27132759779998
 31
0.0
  0
LWPOLYLINE
  5
56D63
330
1F
100
AcDbEntity
  8
1
100
AcDbPolyline
 90
        3
 70
     0
 43
0.0
 10
50.43262487039993
 20
18.23899438719998
 10
50.42437343329996
 20
18.21066097549999
 10
50.42044662939995
 20
18.19619759299998
  0
LINE
  5
56D64
330
1F
100
AcDbEntity
  8
1
100
AcDbLine
 10
50.75552531929997
 20
18.7070623255
 30
0.0
 11
50.70634413109994
 21
18.5335958614
 31
0.0
  0
LINE
  5
56D65
330
1F
100
AcDbEntity
  8
1
100
AcDbLine
 10
50.43262487039993
 20
18.23899438719998
 30
0.0
 11
50.42843284699995
 21
18.22492657359999
 31
0.0
  0
LINE
  5
56D66
330
1F
100
AcDbEntity
  8
sk3
100
AcDbLine
 10
48.75281161969994
 20
17.35699441199996
 30
0.0
 11
49.88027104099995
 21
21.0334925249
 31
0.0
  0
LWPOLYLINE
  5
56D67
330
1F
100
AcDbEntity
  8
1
100
AcDbPolyline
 90
       15
 70
     0
 43
0.0
 10
50.09999999999998
 20
22.86901440349999
 10
50.14454369239995
 20
23.00456216550001
 10
50.21691509069995
 20
23.24471402969999
 10
50.28199061699993
 20
23.48252543620001
 10
50.33979673939995
 20
23.71805096559999
 10
50.39037271269993
 20
23.9513828787
 10
50.43374238109993
 20
24.18254405629998
 10
50.46991178679991
 20
24.41157606759998
 10
50.4988797430999
 20
24.6385950248
 10
50.52061738629993
 20
24.86361172439999
 10
50.53509404889997
 20
25.0865584394
 10
50.54229040359992
 20
25.30742874590001
 10
50.54218309489994
 20
25.52624276269998
 10
50.53472818539995
 20
25.74310906079998
 10
50.53266900349997
 20
25.780791231
  0
LINE
  5
56D68
330
1F
100
AcDbEntity
  8
1
100
AcDbLine
 10
50.13383344579995
 20
21.2139291531
 30
0.0
 11
50.09999999999998
 21
21.17652679259999
 31
0.0
  0
LINE
  5
56D69
330
1F
100
AcDbEntity
  8
1
100
AcDbLine
 10
50.16545531749997
 20
21.24857867750002
 30
0.0
 11
50.13383344579995
 21
21.2139291531
 31
0.0
  0
LINE
  5
56D6A
330
1F
100
AcDbEntity
  8
1
100
AcDbLine
 10
50.19989263459996
 20
21.28596202649999
 30
0.0
 11
50.16545531749997
 21
21.24857867750002
 31
0.0
  0
LINE
  5
56D6B
330
1F
100
AcDbEntity
  8
1
100
AcDbLine
 10
50.22942187599994
 20
21.317717585
 30
0.0
 11
50.19989263459996
 21
21.28596202649999
 31
0.0
  0
LINE
  5
56D6C
330
1F
100
AcDbEntity
  8
1
100
AcDbLine
 10
50.47327693869997
 20
17.51996540160002
 30
0.0
 11
50.67466499989996
 21
17.60059180529998
 31
0.0
  0
LINE
  5
56D6D
330
1F
100
AcDbEntity
  8
1
100
AcDbLine
 10
50.79696591839996
 20
18.7950280057
 30
0.0
 11
50.79653083639996
 21
18.80579150069998
 31
0.0
  0
LINE
  5
56D6E
330
1F
100
AcDbEntity
  8
1
100
AcDbLine
 10
50.79733963889996
 20
18.78392866120001
 30
0.0
 11
50.79696591839996
 21
18.7950280057
 31
0.0
  0
LINE
  5
56D6F
330
1F
100
AcDbEntity
  8
1
100
AcDbLine
 10
50.79765201149996
 20
18.77249411129998
 30
0.0
 11
50.79733963889996
 21
18.78392866120001
 31
0.0
  0
LWPOLYLINE
  5
56D70
330
1F
100
AcDbEntity
  8
1
100
AcDbPolyline
 90
        3
 70
     0
 43
0.0
 10
50.39961874139996
 20
18.10527110519999
 10
50.39986488489994
 20
18.09472872009998
 10
50.40036991999997
 20
18.08403642709999
  0
LINE
  5
56D71
330
1F
100
AcDbEntity
  8
1
100
AcDbLine
 10
50.4742748348999
 20
27.70835943180002
 30
0.0
 11
50.46781089759996
 21
28.00438034000001
 31
0.0
  0
LWPOLYLINE
  5
56D72
330
1F
100
AcDbEntity
  8
1
100
AcDbPolyline
 90
        3
 70
     0
 43
0.0
 10
50.79800564219993
 20
18.7547184469
 10
50.79790309089997
 20
18.7607269328
 10
50.79765201149996
 20
18.77249411129998
  0
LINE
  5
56D73
330
1F
100
AcDbEntity
  8
1
100
AcDbLine
 10
50.79653083639996
 20
18.80579150069998
 30
0.0
 11
50.79592908319998
 21
18.83787637149999
 31
0.0
  0
LINE
  5
56D74
330
1F
100
AcDbEntity
  8
1
100
AcDbLine
 10
50.79592908319998
 20
18.83787637149999
 30
0.0
 11
50.79546509589997
 21
18.87285707180001
 31
0.0
  0
LINE
  5
56D75
330
1F
100
AcDbEntity
  8
1
100
AcDbLine
 10
50.79546509589997
 20
18.87285707180001
 30
0.0
 11
50.79513381039993
 21
18.9106785932
 31
0.0
  0
LWPOLYLINE
  5
56D76
330
1F
100
AcDbEntity
  8
1
100
AcDbPolyline
 90
       10
 70
     0
 43
0.0
 10
50.39961874139996
 20
27.15314388370002
 10
50.39986488489994
 20
27.11926236119999
 10
50.40036991999997
 20
27.0849260448
 10
50.40113384659997
 20
27.05013493430002
 10
50.40215436129996
 20
27.01488830779999
 10
50.40343376749996
 20
26.97918688730002
 10
50.40497897579996
 20
26.9430328389
 10
50.40679228939996
 20
26.90642688449998
 10
50.40887140499997
 20
26.86936830219997
 10
50.41121632249996
 20
26.83185709199998
  0
LINE
  5
56D77
330
1F
100
AcDbEntity
  8
1
100
AcDbLine
 10
50.4742748348999
 20
17.37156363009998
 30
0.0
 11
50.46781089759996
 21
18.33284575639999
 31
0.0
  0
LWPOLYLINE
  5
56D78
330
1F
100
AcDbEntity
  8
1
100
AcDbPolyline
 90
        3
 70
     0
 43
0.0
 10
50.79800564219993
 20
30.23641823919998
 10
50.79790309089997
 20
30.2611122994
 10
50.79653083639996
 20
30.46481198469999
  0
LINE
  5
56D79
330
1F
100
AcDbEntity
  8
1
100
AcDbLine
 10
50.79653083639996
 20
30.46481198469999
 30
0.0
 11
50.79546509589997
 21
30.7380228584
 31
0.0
  0
LINE
  5
56D7A
330
1F
100
AcDbEntity
  8
1
100
AcDbLine
 10
50.79546509589997
 20
30.7380228584
 30
0.0
 11
50.79513381039993
 21
30.883829881
 31
0.0
  0
LINE
  5
56D7B
330
1F
100
AcDbEntity
  8
1
100
AcDbLine
 10
50.09999999999998
 20
17.35699441199996
 30
0.0
 11
50.09999999999998
 21
21.17652679259999
 31
0.0
  0
LINE
  5
56D7C
330
1F
100
AcDbEntity
  8
1
100
AcDbLine
 10
50.09999999999998
 20
21.17652679259999
 30
0.0
 11
50.09999999999998
 21
22.73924034210001
 31
0.0
  0
LINE
  5
56D7D
330
1F
100
AcDbEntity
  8
1
100
AcDbLine
 10
50.09999999999998
 20
22.73924034210001
 30
0.0
 11
50.09999999999998
 21
22.86901440349999
 31
0.0
  0
LINE
  5
56D7E
330
1F
100
AcDbEntity
  8
1
100
AcDbLine
 10
50.09999999999998
 20
22.86901440349999
 30
0.0
 11
50.09999999999998
 21
26.36579790219997
 31
0.0
  0
LINE
  5
56D7F
330
1F
100
AcDbEntity
  8
1
100
AcDbLine
 10
50.79513381039993
 20
30.883829881
 30
0.0
 11
50.79621410969995
 21
31.05985957010001
 31
0.0
  0
LINE
  5
56D80
330
1F
100
AcDbEntity
  8
1
100
AcDbLine
 10
50.79621410969995
 20
31.05985957010001
 30
0.0
 11
50.7975668667999
 21
31.2110565573
 31
0.0
  0
LWPOLYLINE
  5
56D81
330
1F
100
AcDbEntity
  8
1
100
AcDbPolyline
 90
       15
 70
     0
 43
0.0
 10
50.09999999999998
 20
17.72019103229999
 10
50.09977753459995
 20
17.70503870140001
 10
50.09912212319997
 20
17.69124032579998
 10
50.09805158659998
 20
17.67878862500001
 10
50.09658185429993
 20
17.66764736729999
 10
50.09473118609995
 20
17.65783714719998
 10
50.09252421859994
 20
17.64943610239999
 10
50.08998270449993
 20
17.642440779
 10
50.08712586339996
 20
17.63683876289997
 10
50.08397959399994
 20
17.63269496619999
 10
50.08056410989993
 20
17.6299977532
 10
50.07690114259997
 20
17.62874101219998
 10
50.07302283749996
 20
17.62899792819998
 10
50.06895050499998
 20
17.6307623321
 10
50.06643681369997
 20
17.63252309800001
  0
LINE
  5
56D82
330
1F
100
AcDbEntity
  8
1
100
AcDbLine
 10
50.4742748348999
 20
17.37156363009998
 30
0.0
 11
50.47403266899994
 21
17.35699441199996
 31
0.0
  0
LINE
  5
56D83
330
1F
100
AcDbEntity
  8
1
100
AcDbLine
 10
50.79513381039993
 20
18.9106785932
 30
0.0
 11
50.79570194739995
 21
18.94450168769998
 31
0.0
  0
LINE
  5
56D84
330
1F
100
AcDbEntity
  8
1
100
AcDbLine
 10
50.79570194739995
 20
18.94450168769998
 30
0.0
 11
50.79651099909998
 21
18.98182880419998
 31
0.0
  0
LINE
  5
56D85
330
1F
100
AcDbEntity
  8
1
100
AcDbLine
 10
50.79651099909998
 20
18.98182880419998
 30
0.0
 11
50.7975668667999
 21
19.02271298879998
 31
0.0
  0
LINE
  5
56D86
330
1F
100
AcDbEntity
  8
1
100
AcDbLine
 10
50.46337061089997
 20
18.23268472410001
 30
0.0
 11
50.46781089759996
 21
18.33284575639999
 31
0.0
  0
LINE
  5
56D87
330
1F
100
AcDbEntity
  8
1
100
AcDbLine
 10
50.45943921639996
 20
18.15156028859997
 30
0.0
 11
50.46337061089997
 21
18.23268472410001
 31
0.0
  0
LWPOLYLINE
  5
56D88
330
1F
100
AcDbEntity
  8
1
100
AcDbPolyline
 90
        9
 70
     0
 43
0.0
 10
50.08397009469994
 20
19.66245049219998
 10
50.08711728309996
 20
19.72102625719998
 10
50.08997491979997
 20
19.77965196269997
 10
50.09251745389996
 20
19.83828137
 10
50.09472557269993
 20
19.89694471129999
 10
50.09657748549997
 20
19.9556193617
 10
50.09804866789995
 20
20.01417800109996
 10
50.09912063919995
 20
20.07257896090002
 10
50.09977711629995
 20
20.13086663519997
  0
LINE
  5
56D89
330
1F
100
AcDbEntity
  8
1
100
AcDbLine
 10
50.45818051809994
 20
27.8265635059
 30
0.0
 11
50.46781089759996
 21
28.00438034000001
 31
0.0
  0
LINE
  5
56D8A
330
1F
100
AcDbEntity
  8
1
100
AcDbLine
 10
50.44961976409997
 20
17.96911577009999
 30
0.0
 11
50.45943921639996
 21
18.15156028859997
 31
0.0
  0
LINE
  5
56D8B
330
1F
100
AcDbEntity
  8
1
100
AcDbLine
 10
50.44043993459997
 20
17.81541699849998
 30
0.0
 11
50.44961976409997
 21
17.96911577009999
 31
0.0
  0
LINE
  5
56D8C
330
1F
100
AcDbEntity
  8
1
100
AcDbLine
 10
50.43835793939996
 20
17.7821721757
 30
0.0
 11
50.44043993459997
 21
17.81541699849998
 31
0.0
  0
LINE
  5
56D8D
330
1F
100
AcDbEntity
  8
1
100
AcDbLine
 10
50.07688785789992
 20
19.54537145019998
 30
0.0
 11
50.08397009469994
 21
19.66245049219998
 31
0.0
  0
LINE
  5
56D8E
330
1F
100
AcDbEntity
  8
1
100
AcDbLine
 10
50.40605398449995
 20
27.25384044930001
 30
0.0
 11
50.39961874139996
 21
27.15314388370002
 31
0.0
  0
LINE
  5
56D8F
330
1F
100
AcDbEntity
  8
1
100
AcDbLine
 10
50.00136384909996
 20
18.54973103739998
 30
0.0
 11
50.00797419609995
 21
18.65076364129999
 31
0.0
  0
LINE
  5
56D90
330
1F
100
AcDbEntity
  8
1
100
AcDbLine
 10
50.06893853719995
 20
19.42880558370001
 30
0.0
 11
50.07688785789992
 21
19.54537145019998
 31
0.0
  0
LINE
  5
56D91
330
1F
100
AcDbEntity
  8
1
100
AcDbLine
 10
50.41299469279997
 20
27.35205715800001
 30
0.0
 11
50.40748604114867
 21
27.27410522410841
 31
0.0
  0
LINE
  5
56D92
330
1F
100
AcDbEntity
  8
1
100
AcDbLine
 10
50.40748604114867
 20
27.27410522410841
 30
0.0
 11
50.40605398449995
 21
27.25384044930001
 31
0.0
  0
LINE
  5
56D93
330
1F
100
AcDbEntity
  8
1
100
AcDbLine
 10
50.00797419609995
 20
18.65076364129999
 30
0.0
 11
50.01556607369997
 21
18.75514860550001
 31
0.0
  0
LINE
  5
56D94
330
1F
100
AcDbEntity
  8
1
100
AcDbLine
 10
50.06032801409998
 20
19.3129342455
 30
0.0
 11
50.06893853719995
 21
19.42880558370001
 31
0.0
  0
LINE
  5
56D95
330
1F
100
AcDbEntity
  8
1
100
AcDbLine
 10
50.42044662939995
 20
27.44779201699998
 30
0.0
 11
50.41299469279997
 21
27.35205715800001
 31
0.0
  0
LINE
  5
56D96
330
1F
100
AcDbEntity
  8
1
100
AcDbLine
 10
50.01556607369997
 20
18.75514860550001
 30
0.0
 11
50.02833421729996
 21
18.91721232079999
 31
0.0
  0
LWPOLYLINE
  5
56D97
330
1F
100
AcDbEntity
  8
1
100
AcDbPolyline
 90
        4
 70
     0
 43
0.0
 10
50.02833421729996
 20
18.91721232079999
 10
50.03741421979995
 20
19.02817612469998
 10
50.04204025989995
 20
19.08443120609996
 10
50.06032801409998
 20
19.3129342455
  0
LWPOLYLINE
  5
56D98
330
1F
100
AcDbEntity
  8
1
100
AcDbPolyline
 90
       10
 70
     0
 43
0.0
 10
50.45818051809994
 20
27.8265635059
 10
50.45602092839996
 20
27.800911818
 10
50.45369137279997
 20
27.77501044489998
 10
50.45119185129993
 20
27.74885938649999
 10
50.44852238479996
 20
27.7224580226
 10
50.44568295239995
 20
27.6958069735
 10
50.44267349109992
 20
27.66890809969999
 10
50.43949397979996
 20
27.64176202129997
 10
50.43614443959995
 20
27.61436811829998
 10
50.43262487039993
 20
27.58672639059998
  0
LINE
  5
56D99
330
1F
100
AcDbEntity
  8
1
100
AcDbLine
 10
50.78406920019996
 20
18.59122500180001
 30
0.0
 11
50.79800564219993
 21
18.7547184469
 31
0.0
  0
LINE
  5
56D9A
330
1F
100
AcDbEntity
  8
1
100
AcDbLine
 10
50.78406920019996
 20
30.07730890859998
 30
0.0
 11
50.79800564219993
 21
30.23641823919998
 31
0.0
  0
LWPOLYLINE
  5
56D9B
330
1F
100
AcDbEntity
  8
1
100
AcDbPolyline
 90
        3
 70
     0
 43
0.0
 10
50.43262487039993
 20
27.58672639059998
 10
50.42843284699995
 20
27.5410370557
 10
50.42044662939995
 20
27.44779201699998
  0
LWPOLYLINE
  5
56D9C
330
1F
100
AcDbEntity
  8
1
100
AcDbPolyline
 90
        3
 70
     0
 43
0.0
 10
50.67466499989996
 20
17.60059180529998
 10
50.68973834389996
 20
17.7382797043
 10
50.69323438819997
 20
17.7701543169
  0
LINE
  5
56D9D
330
1F
100
AcDbEntity
  8
1
100
AcDbLine
 10
50.4742748348999
 20
27.70835943180002
 30
0.0
 11
50.47338870349996
 21
27.7008350184
 31
0.0
  0
LINE
  5
56D9E
330
1F
100
AcDbEntity
  8
1
100
AcDbLine
 10
50.36191325299995
 20
29.01265649530001
 30
0.0
 11
50.33376338719995
 21
28.81303297579999
 31
0.0
  0
LINE
  5
56D9F
330
1F
100
AcDbEntity
  8
1
100
AcDbLine
 10
50.44086835749997
 20
27.48913026309998
 30
0.0
 11
50.47338868779997
 21
27.70083513439998
 31
0.0
  0
LINE
  5
56DA0
330
1F
100
AcDbEntity
  8
1
100
AcDbLine
 10
50.40745161939995
 20
27.2741076566
 30
0.0
 11
50.44086835749997
 21
27.48913026309998
 31
0.0
  0
LINE
  5
56DA1
330
1F
100
AcDbEntity
  8
1
100
AcDbLine
 10
50.75552531929997
 20
30.0446943483
 30
0.0
 11
50.79800564219993
 21
30.23641823919998
 31
0.0
  0
LINE
  5
56DA2
330
1F
100
AcDbEntity
  8
1
100
AcDbLine
 10
50.75552531929997
 20
30.0446943483
 30
0.0
 11
50.74189553228015
 21
30.00895749636612
 31
0.0
  0
LINE
  5
56DA3
330
1F
100
AcDbEntity
  8
1
100
AcDbLine
 10
50.74189553228015
 20
30.00895749636612
 30
0.0
 11
50.39199929099845
 21
29.09154109442605
 31
0.0
  0
LINE
  5
56DA4
330
1F
100
AcDbEntity
  8
1
100
AcDbLine
 10
50.39199929099845
 20
29.09154109442605
 30
0.0
 11
50.36191325299995
 21
29.01265649530001
 31
0.0
  0
LINE
  5
56DA5
330
1F
100
AcDbEntity
  8
1
100
AcDbLine
 10
50.74189553229995
 20
30.0089574964
 30
0.0
 11
50.75162194879993
 21
30.02559819590002
 31
0.0
  0
LINE
  5
56DA6
330
1F
100
AcDbEntity
  8
1
100
AcDbLine
 10
50.75162194879993
 20
30.02559819590002
 30
0.0
 11
50.75517038419993
 21
30.03153489879998
 31
0.0
  0
LINE
  5
56DA7
330
1F
100
AcDbEntity
  8
1
100
AcDbLine
 10
50.75517038419993
 20
30.03153489879998
 30
0.0
 11
50.75852830709997
 21
30.037088383
 31
0.0
  0
LINE
  5
56DA8
330
1F
100
AcDbEntity
  8
1
100
AcDbLine
 10
50.75852830709997
 20
30.037088383
 30
0.0
 11
50.76169945839996
 21
30.0422766307
 31
0.0
  0
LINE
  5
56DA9
330
1F
100
AcDbEntity
  8
1
100
AcDbLine
 10
50.76169945839996
 20
30.0422766307
 30
0.0
 11
50.76611409359991
 21
30.04940570629998
 31
0.0
  0
LINE
  5
56DAA
330
1F
100
AcDbEntity
  8
1
100
AcDbLine
 10
50.76611409359991
 20
30.04940570629998
 30
0.0
 11
50.77013333779996
 21
30.05580338010001
 31
0.0
  0
LINE
  5
56DAB
330
1F
100
AcDbEntity
  8
1
100
AcDbLine
 10
50.77013333779996
 20
30.05580338010001
 30
0.0
 11
50.77377325249997
 21
30.0615214124
 31
0.0
  0
LINE
  5
56DAC
330
1F
100
AcDbEntity
  8
1
100
AcDbLine
 10
50.77377325249997
 20
30.0615214124
 30
0.0
 11
50.77704576629995
 21
30.06660110930003
 31
0.0
  0
LINE
  5
56DAD
330
1F
100
AcDbEntity
  8
1
100
AcDbLine
 10
50.77704576629995
 20
30.06660110930003
 30
0.0
 11
50.77996390429991
 21
30.07108216079999
 31
0.0
  0
LWPOLYLINE
  5
56DAE
330
1F
100
AcDbEntity
  8
1
100
AcDbPolyline
 90
        3
 70
     0
 43
0.0
 10
50.77996390429991
 20
30.07108216079999
 10
50.78332256269994
 20
30.07618390250002
 10
50.78406920019996
 20
30.07730890859998
  0
LINE
  5
56DAF
330
1F
100
AcDbEntity
  8
1
100
AcDbLine
 10
50.29250232729996
 20
18.3447906058
 30
0.0
 11
50.31728867229997
 21
18.3464427289
 31
0.0
  0
LINE
  5
56DB0
330
1F
100
AcDbEntity
  8
1
100
AcDbLine
 10
50.09999999999998
 20
18.87015271340002
 30
0.0
 11
50.24892484829996
 21
18.8799495364
 31
0.0
  0
LINE
  5
56DB1
330
1F
100
AcDbEntity
  8
1
100
AcDbLine
 10
50.09999999999998
 20
18.33227645969998
 30
0.0
 11
50.29250232729996
 21
18.3447906058
 31
0.0
  0
LINE
  5
56DB2
330
1F
100
AcDbEntity
  8
1
100
AcDbLine
 10
50.24892484829996
 20
18.8799495364
 30
0.0
 11
50.39489241919993
 21
18.88896907239999
 31
0.0
  0
LINE
  5
56DB3
330
1F
100
AcDbEntity
  8
1
100
AcDbLine
 10
50.39489241919993
 20
18.88896907239999
 30
0.0
 11
50.53884222539995
 21
18.89729189609997
 31
0.0
  0
LINE
  5
56DB4
330
1F
100
AcDbEntity
  8
1
100
AcDbLine
 10
50.53884222539995
 20
18.89729189609997
 30
0.0
 11
50.68077853319997
 21
18.90493445140001
 31
0.0
  0
LINE
  5
56DB5
330
1F
100
AcDbEntity
  8
1
100
AcDbLine
 10
50.68077853319997
 20
18.90493445140001
 30
0.0
 11
50.79513381039993
 21
18.9106785932
 31
0.0
  0
LINE
  5
56DB6
330
1F
100
AcDbEntity
  8
1
100
AcDbLine
 10
50.09999999999998
 20
18.00130539049998
 30
0.0
 11
50.41121632249996
 21
18.00499697180001
 31
0.0
  0
LINE
  5
56DB7
330
1F
100
AcDbEntity
  8
1
100
AcDbLine
 10
50.44570328899993
 20
26.5549713405
 30
0.0
 11
50.43120896341124
 21
26.64027098623007
 31
0.0
  0
LWPOLYLINE
  5
56DB8
330
1F
100
AcDbEntity
  8
1
100
AcDbPolyline
 90
        4
 70
     0
 43
0.0
 10
50.46027149559995
 20
26.42882267709999
 10
50.45599395339998
 20
26.45401422039999
 10
50.45160816099997
 20
26.4791761967
 10
50.44711407359995
 20
26.50430858959999
  0
LINE
  5
56DB9
330
1F
100
AcDbEntity
  8
1
100
AcDbLine
 10
50.43265758649994
 20
26.6312149451
 30
0.0
 11
50.43555938739996
 21
26.61399699079999
 31
0.0
  0
LINE
  5
56DBA
330
1F
100
AcDbEntity
  8
1
100
AcDbLine
 10
50.46781089759996
 20
28.00438034000001
 30
0.0
 11
50.44773542296304
 21
28.12548729253956
 31
0.0
  0
LINE
  5
56DBB
330
1F
100
AcDbEntity
  8
1
100
AcDbLine
 10
50.44773542296304
 20
28.12548729253956
 30
0.0
 11
50.33376338719995
 21
28.81303297579999
 31
0.0
  0
LINE
  5
56DBC
330
1F
100
AcDbEntity
  8
1
100
AcDbLine
 10
50.45123650969995
 20
26.52143320579998
 30
0.0
 11
50.44570328899993
 21
26.5549713405
 31
0.0
  0
LINE
  5
56DBD
330
1F
100
AcDbEntity
  8
1
100
AcDbLine
 10
50.46850201329994
 20
26.37835092859999
 30
0.0
 11
50.46027149559995
 21
26.42882267709999
 31
0.0
  0
LINE
  5
56DBE
330
1F
100
AcDbEntity
  8
1
100
AcDbLine
 10
50.43555938739996
 20
26.61399699079999
 30
0.0
 11
50.43701629969993
 21
26.60492350739998
 31
0.0
  0
LINE
  5
56DBF
330
1F
100
AcDbEntity
  8
1
100
AcDbLine
 10
50.45663405399995
 20
26.48770961899999
 30
0.0
 11
50.45123650969995
 21
26.52143320579998
 31
0.0
  0
LINE
  5
56DC0
330
1F
100
AcDbEntity
  8
1
100
AcDbLine
 10
50.47630004789994
 20
26.32776125149999
 30
0.0
 11
50.46850201329994
 21
26.37835092859999
 31
0.0
  0
LWPOLYLINE
  5
56DC1
330
1F
100
AcDbEntity
  8
1
100
AcDbPolyline
 90
        4
 70
     0
 43
0.0
 10
50.47199132869997
 20
26.38546221879997
 10
50.46701362049995
 20
26.41972036340002
 10
50.46189381289995
 20
26.4538040487
 10
50.45663405399995
 20
26.48770961899999
  0
LINE
  5
56DC2
330
1F
100
AcDbEntity
  8
1
100
AcDbLine
 10
50.48366595669995
 20
26.27705382180002
 30
0.0
 11
50.47630004789994
 21
26.32776125149999
 31
0.0
  0
LWPOLYLINE
  5
56DC3
330
1F
100
AcDbEntity
  8
1
100
AcDbPolyline
 90
        4
 70
     0
 43
0.0
 10
50.43701629969993
 20
26.60492350739998
 10
50.43765791359994
 20
26.6003806947
 10
50.43824163279996
 20
26.5958338346
 10
50.43876745709997
 20
26.59128292699998
  0
LINE
  5
56DC4
330
1F
100
AcDbEntity
  8
1
100
AcDbLine
 10
50.48041313609994
 20
26.32467062840002
 30
0.0
 11
50.47199132869997
 21
26.38546221879997
 31
0.0
  0
LINE
  5
56DC5
330
1F
100
AcDbEntity
  8
1
100
AcDbLine
 10
50.49544922389995
 20
26.20950628340001
 30
0.0
 11
50.48028158879995
 21
26.32562907250002
 31
0.0
  0
LINE
  5
56DC6
330
1F
100
AcDbEntity
  8
1
100
AcDbLine
 10
50.32723721549996
 20
21.84611669379998
 30
0.0
 11
50.27264051849996
 21
22.34454262539998
 31
0.0
  0
LWPOLYLINE
  5
56DC7
330
1F
100
AcDbEntity
  8
1
100
AcDbPolyline
 90
        9
 70
     0
 43
0.0
 10
50.41684239269994
 20
17.93155578069998
 10
50.41833396069995
 20
17.9173908914
 10
50.41997145219994
 20
17.9031191876
 10
50.42175486749997
 20
17.88874066939999
 10
50.42368273839997
 20
17.87425385969999
 10
50.42575653309995
 20
17.8596602355
 10
50.42798065489995
 20
17.84496422769999
 10
50.43035657189996
 20
17.83016731320001
 10
50.43288281599997
 20
17.8152680151
  0
LINE
  5
56DC8
330
1F
100
AcDbEntity
  8
1
100
AcDbLine
 10
50.43876745709997
 20
26.59128292699998
 30
0.0
 11
50.43923538669996
 21
26.58672797209999
 31
0.0
  0
LINE
  5
56DC9
330
1F
100
AcDbEntity
  8
1
100
AcDbLine
 10
50.43923538669996
 20
17.77456437199998
 30
0.0
 11
50.44711407359995
 21
17.69727349370001
 31
0.0
  0
LWPOLYLINE
  5
56DCA
330
1F
100
AcDbEntity
  8
1
100
AcDbPolyline
 90
        8
 70
     0
 43
0.0
 10
50.41684239269994
 20
26.75329913460001
 10
50.41833396069995
 20
26.73820060239999
 10
50.41997145219994
 20
26.72300585899999
 10
50.42175486749997
 20
26.70771490449997
 10
50.42368273839997
 20
26.6923259518
 10
50.42575653309995
 20
26.67684078789998
 10
50.42798065489995
 20
26.66126477379999
 10
50.43035657189996
 20
26.64559969640001
  0
LWPOLYLINE
  5
56DCB
330
1F
100
AcDbEntity
  8
1
100
AcDbPolyline
 90
        2
 70
     0
 43
0.0
 10
50.43035657189996
 20
26.64559969640001
 10
50.43120896341124
 20
26.64027098623007
  0
LINE
  5
56DCC
330
1F
100
AcDbEntity
  8
1
100
AcDbLine
 10
50.43923538669996
 20
26.58672797209999
 30
0.0
 11
50.44711407359995
 21
26.50430858959999
 31
0.0
  0
LWPOLYLINE
  5
56DCD
330
1F
100
AcDbEntity
  8
1
100
AcDbPolyline
 90
        3
 70
     0
 43
0.0
 10
50.51987621629994
 20
25.95815461430002
 10
50.50910339789993
 20
26.0866501241
 10
50.49544922389995
 20
26.20950628340001
  0
LWPOLYLINE
  5
56DCE
330
1F
100
AcDbEntity
  8
1
100
AcDbPolyline
 90
       10
 70
     0
 43
0.0
 10
50.51987621629994
 20
25.95815461430002
 10
50.51668425249997
 20
25.99376917219999
 10
50.51328512069995
 20
26.0293386505
 10
50.50967850749998
 20
26.06486295699998
 10
50.50586403029996
 20
26.10034204629997
 10
50.50184144029993
 20
26.13577578199997
 10
50.49761062849995
 20
26.1711639342
 10
50.49317135309994
 20
26.20650636359997
 10
50.48852323339997
 20
26.24180302359997
 10
50.48366595669995
 20
26.27705382180002
  0
LINE
  5
56DCF
330
1F
100
AcDbEntity
  8
1
100
AcDbLine
 10
50.46027149559995
 20
17.52722511919998
 30
0.0
 11
50.44711407359995
 21
17.69727349370001
 31
0.0
  0
LINE
  5
56DD0
330
1F
100
AcDbEntity
  8
1
100
AcDbLine
 10
50.53266900349997
 20
25.780791231
 30
0.0
 11
50.51987621629994
 21
25.95815461430002
 31
0.0
  0
LWPOLYLINE
  5
56DD1
330
1F
100
AcDbEntity
  8
1
100
AcDbPolyline
 90
        8
 70
     0
 43
0.0
 10
50.40036991999997
 20
18.08403642709999
 10
50.40113384659997
 20
18.07319422609997
 10
50.40215436129996
 20
18.0622019684
 10
50.40343376749996
 20
18.05105980279998
 10
50.40497897579996
 20
18.03976817559999
 10
50.40679228939996
 20
18.02832723579999
 10
50.40887140499997
 20
18.01673683449995
 10
50.41121632249996
 20
18.00499697180001
  0
LWPOLYLINE
  5
56DD2
330
1F
100
AcDbEntity
  8
1
100
AcDbPolyline
 90
        3
 70
     0
 43
0.0
 10
50.47246143489994
 20
17.35699441199996
 10
50.47245506999995
 20
17.3570883241
 10
50.46027149559995
 20
17.52722511919998
  0
LINE
  5
56DD3
330
1F
100
AcDbEntity
  8
1
100
AcDbLine
 10
50.44773542299996
 20
28.12548729189999
 30
0.0
 11
50.39199929099996
 21
29.09154109439999
 31
0.0
  0
LWPOLYLINE
  5
56DD4
330
1F
100
AcDbEntity
  8
1
100
AcDbPolyline
 90
       10
 70
     0
 43
0.0
 10
50.41121632249996
 20
18.00499697180001
 10
50.41165536699995
 20
17.9969579939
 10
50.41214074879993
 20
17.98888849309998
 10
50.41267246789993
 20
17.98078846949997
 10
50.41325028269994
 20
17.97265761059998
 10
50.41387443469996
 20
17.9644962289
 10
50.41454564919996
 20
17.95630526139999
 10
50.41526416789995
 20
17.9480850203
 10
50.41602974909998
 20
17.9398351934
 10
50.41684239269994
 20
17.93155578069998
  0
LWPOLYLINE
  5
56DD5
330
1F
100
AcDbEntity
  8
1
100
AcDbPolyline
 90
       10
 70
     0
 43
0.0
 10
50.41121632249996
 20
26.83185709199998
 10
50.41165536699995
 20
26.82323486410002
 10
50.41214074879993
 20
26.81458575099998
 10
50.41267246789993
 20
26.80590975269999
 10
50.41325028269994
 20
26.7972065004
 10
50.41387443469996
 20
26.7884763628
 10
50.41454564919996
 20
26.77972044680001
 10
50.41526416789995
 20
26.7709391212
 10
50.41602974909998
 20
26.76213201709999
 10
50.41684239269994
 20
26.75329913460001
  0
LINE
  5
56DD6
330
1F
100
AcDbEntity
  8
1
100
AcDbLine
 10
50.35459530559996
 20
18.7446289248
 30
0.0
 11
50.49756991059993
 21
18.76505692099998
 31
0.0
  0
LWPOLYLINE
  5
56DD7
330
1F
100
AcDbEntity
  8
1
100
AcDbPolyline
 90
       10
 70
     0
 43
0.0
 10
50.35459530559996
 20
18.7446289248
 10
50.35390962309996
 20
18.7445350687
 10
50.35298129929993
 20
18.7444263159
 10
50.35207349079994
 20
18.74434160879997
 10
50.35118619569994
 20
18.74428094649998
 10
50.35031941349997
 20
18.74424432820001
 10
50.34947314509995
 20
18.74423175289999
 10
50.34864738969996
 20
18.74424321949999
 10
50.34784214539993
 20
18.74427872689999
 10
50.34725363479996
 20
18.74432096859996
  0
LINE
  5
56DD8
330
1F
100
AcDbEntity
  8
1
100
AcDbLine
 10
50.49756991059993
 20
18.76505692099998
 30
0.0
 11
50.68020505199993
 21
18.7902681523
 31
0.0
  0
LINE
  5
56DD9
330
1F
100
AcDbEntity
  8
1
100
AcDbLine
 10
50.68020505199993
 20
18.7902681523
 30
0.0
 11
50.79653083639996
 21
18.80579150069998
 31
0.0
  0
LWPOLYLINE
  5
56DDA
330
1F
100
AcDbEntity
  8
1
100
AcDbPolyline
 90
        4
 70
     0
 43
0.0
 10
50.44711407359995
 20
17.69727349370001
 10
50.31486319139997
 20
17.7062286833
 10
50.18515252929993
 20
17.71418660109998
 10
50.09992667659997
 20
17.71885141939998
  0
LINE
  5
56DDB
330
1F
100
AcDbEntity
  8
1
100
AcDbLine
 10
50.75552531929997
 20
18.7070623255
 30
0.0
 11
50.09999999999998
 21
18.75405793750002
 31
0.0
  0
LINE
  5
56DDC
330
1F
100
AcDbEntity
  8
1
100
AcDbLine
 10
50.09999999999998
 20
18.76412387849999
 30
0.0
 11
50.22375506029995
 21
18.7544488716
 31
0.0
  0
LINE
  5
56DDD
330
1F
100
AcDbEntity
  8
1
100
AcDbLine
 10
50.22375506029995
 20
18.7544488716
 30
0.0
 11
50.34725363479996
 21
18.74432096859996
 31
0.0
  0
LINE
  5
56DDE
330
1F
100
AcDbEntity
  8
1
100
AcDbLine
 10
50.34725363479996
 20
18.74432096859996
 30
0.0
 11
50.46004988099994
 21
18.73463057359997
 31
0.0
  0
LINE
  5
56DDF
330
1F
100
AcDbEntity
  8
1
100
AcDbLine
 10
50.46781089759996
 20
18.33284575639999
 30
0.0
 11
50.31728867229997
 21
18.3464427289
 31
0.0
  0
LWPOLYLINE
  5
56DE0
330
1F
100
AcDbEntity
  8
1
100
AcDbPolyline
 90
        3
 70
     0
 43
0.0
 10
50.46004988099994
 20
18.73463057359997
 10
50.63159705129994
 20
18.71902803590001
 10
50.65239799609995
 20
18.7170615487
  0
LINE
  5
56DE1
330
1F
100
AcDbEntity
  8
1
100
AcDbLine
 10
50.75552531929997
 20
18.7070623255
 30
0.0
 11
50.78406920019996
 21
18.59122500180001
 31
0.0
  0
LWPOLYLINE
  5
56DE2
330
1F
100
AcDbEntity
  8
1
100
AcDbPolyline
 90
       19
 70
     0
 43
0.0
 10
50.27264051849996
 20
22.34454262539998
 10
50.26755652709997
 20
22.3669248683
 10
50.26253454609994
 20
22.38837942640001
 10
50.25757457579996
 20
22.40890629969999
 10
50.25269629689995
 20
22.42840927009999
 10
50.24788002849996
 20
22.4469845557
 10
50.24306672819998
 20
22.46492081019997
 10
50.23825628759997
 20
22.48224319599998
 10
50.23344881509996
 20
22.49892655070002
 10
50.22858559329995
 20
22.51518404139999
 10
50.22366499149995
 20
22.53104150280001
 10
50.21868864049998
 20
22.54647310019999
 10
50.21360271489996
 20
22.56161449690001
 10
50.20840668079995
 20
22.5764822523
 10
50.20310107219995
 20
22.59105980699997
 10
50.19763366559994
 20
22.60543314590001
 10
50.19198705309996
 20
22.6196309307
 10
50.18617864259994
 20
22.63362449979999
 10
50.18020843409994
 20
22.64741385309998
  0
LWPOLYLINE
  5
56DE3
330
1F
100
AcDbEntity
  8
1
100
AcDbPolyline
 90
        7
 70
     0
 43
0.0
 10
50.43288281599997
 20
17.8152680151
 10
50.43631679089997
 20
17.7959744826
 10
50.43701629969993
 20
17.79168590809999
 10
50.43765791359994
 20
17.78740060980001
 10
50.43824163279996
 20
17.78311858769999
 10
50.43876745709997
 20
17.77883984169998
 10
50.43923538669996
 20
17.77456437199998
  0
LWPOLYLINE
  5
56DE4
330
1F
100
AcDbEntity
  8
1
100
AcDbPolyline
 90
       16
 70
     0
 43
0.0
 10
48.59757142999995
 20
26.43198993620001
 10
48.54523767379993
 20
26.4132437682
 10
48.49222493779996
 20
26.39464757809998
 10
48.43855626059994
 20
26.37620797289998
 10
48.38420617769996
 20
26.35791529599999
 10
48.32924740579993
 20
26.33979315849999
 10
48.27385436129995
 20
26.32189627559998
 10
48.21807053709997
 20
26.30423440230001
 10
48.16190947919995
 20
26.2868076872
 10
48.10550582819995
 20
26.26965309219997
 10
48.04887082079996
 20
26.2527686064
 10
47.99205342429994
 20
26.23616360109997
 10
47.93524822549997
 20
26.21988833449999
 10
47.87854142059996
 20
26.20395927850001
 10
47.82190875369997
 20
26.18836168579998
 10
47.76538000909996
 20
26.17309655269997
  0
LINE
  5
56DE5
330
1F
100
AcDbEntity
  8
1
100
AcDbLine
 10
50.65239799609995
 20
18.7170615487
 30
0.0
 11
50.75552531929997
 21
18.7070623255
 31
0.0
  0
LINE
  5
56DE6
330
1F
100
AcDbEntity
  8
1
100
AcDbLine
 10
50.09999999999998
 20
19.23512379300001
 30
0.0
 11
50.25590854019991
 21
19.20790636640001
 31
0.0
  0
LINE
  5
56DE7
330
1F
100
AcDbEntity
  8
1
100
AcDbLine
 10
50.25590854019991
 20
19.20790636640001
 30
0.0
 11
50.43340959249997
 21
19.17609288149998
 31
0.0
  0
LINE
  5
56DE8
330
1F
100
AcDbEntity
  8
1
100
AcDbLine
 10
50.43340959249997
 20
19.17609288149998
 30
0.0
 11
50.55166558079995
 21
19.1544147699
 31
0.0
  0
LWPOLYLINE
  5
56DE9
330
1F
100
AcDbEntity
  8
1
100
AcDbPolyline
 90
       15
 70
     0
 43
0.0
 10
47.76537998109993
 20
26.17309536030001
 10
47.69564924269992
 20
26.16190403210001
 10
47.62551388809995
 20
26.15189613680002
 10
47.55500913549997
 20
26.14307938480002
 10
47.48413972059995
 20
26.13545887239998
 10
47.41297235099994
 20
26.12904606399998
 10
47.34163639079992
 20
26.12385353120001
 10
47.27020659569996
 20
26.11988570019998
 10
47.19868260609993
 20
26.11714296219998
 10
47.12708183569994
 20
26.11562810780001
 10
47.05540376619995
 20
26.1153449059
 10
46.98372390639996
 20
26.11629897750001
 10
46.91217363989994
 20
26.11849205410002
 10
46.84082146189996
 20
26.12192201619999
 10
46.76967327889996
 20
26.12658828059998
  0
LINE
  5
56DEA
330
1F
100
AcDbEntity
  8
1
100
AcDbLine
 10
38.19504469479998
 20
26.13240128120001
 30
0.0
 11
37.95366571419997
 21
26.11037219250003
 31
0.0
  0
LINE
  5
56DEB
330
1F
100
AcDbEntity
  8
1
100
AcDbLine
 10
38.43642063359994
 20
26.15326799439998
 30
0.0
 11
38.19504469479998
 21
26.13240128120001
 31
0.0
  0
LINE
  5
56DEC
330
1F
100
AcDbEntity
  8
1
100
AcDbLine
 10
38.66419103959998
 20
26.17188872849999
 30
0.0
 11
38.43642063359994
 21
26.15326799439998
 31
0.0
  0
LINE
  5
56DED
330
1F
100
AcDbEntity
  8
1
100
AcDbLine
 10
38.91510901179993
 20
26.19119339599999
 30
0.0
 11
38.66419103959998
 21
26.17188872849999
 31
0.0
  0
LWPOLYLINE
  5
56DEE
330
1F
100
AcDbEntity
  8
1
100
AcDbPolyline
 90
        3
 70
     0
 43
0.0
 10
39.24921086899994
 20
26.21491901559998
 10
39.16573647749996
 20
26.20920385189999
 10
38.91510901179993
 20
26.19119339599999
  0
LWPOLYLINE
  5
56DEF
330
1F
100
AcDbEntity
  8
1
100
AcDbPolyline
 90
       10
 70
     0
 43
0.0
 10
50.44711407359995
 20
26.50430858959999
 10
50.31486319139997
 20
26.49665158639999
 10
50.18515252929993
 20
26.48825061169998
 10
50.05798208729995
 20
26.47910566539997
 10
49.93334440969993
 20
26.46920630219998
 10
49.81124695219995
 20
26.4585629675
 10
49.69171208139997
 20
26.44720699719997
 10
49.57474725289995
 20
26.4351488369
 10
49.46034501119996
 20
26.422378041
 10
49.34850535629993
 20
26.4088946096
  0
LWPOLYLINE
  5
56DF0
330
1F
100
AcDbEntity
  8
1
100
AcDbPolyline
 90
        6
 70
     0
 43
0.0
 10
31.73360652559995
 20
25.251911224
 10
33.22029917259996
 20
25.30232706940001
 10
34.67718382829995
 20
25.357070768
 10
36.10426049269995
 20
25.41614232000001
 10
37.50697167999997
 20
25.48001276299999
 10
37.62745005080103
 20
25.48599746727788
  0
LWPOLYLINE
  5
56DF1
330
1F
100
AcDbEntity
  8
1
100
AcDbPolyline
 90
       12
 70
     0
 43
0.0
 10
37.62745005080103
 20
25.48599746727788
 10
38.87987487589999
 20
25.5482110593
 10
40.20664253839996
 20
25.61932409609998
 10
41.48141695199993
 20
25.69311039090002
 10
42.71005583219993
 20
25.76981142619999
 10
43.89380478229996
 20
25.84873853659998
 10
45.03145312069998
 20
25.92973155769997
 10
46.12421152899995
 20
26.01295065399999
 10
47.17695765619995
 20
26.0981876537
 10
48.19131738529994
 20
26.18537316640001
 10
49.16566483319996
 20
26.2745765825
 10
50.09999999999998
 20
26.36579790219997
  0
LINE
  5
56DF2
330
1F
100
AcDbEntity
  8
1
100
AcDbLine
 10
50.31728867229997
 20
18.3464427289
 30
0.0
 11
50.45818051809994
 21
18.3127239467
 31
0.0
  0
LWPOLYLINE
  5
56DF3
330
1F
100
AcDbEntity
  8
1
100
AcDbPolyline
 90
       10
 70
     0
 43
0.0
 10
37.95366571419997
 20
26.11037219250003
 10
37.93913447239996
 20
26.04425259109999
 10
37.92555133289994
 20
25.97880238969998
 10
37.91291629579996
 20
25.91402158809998
 10
37.90123606009996
 20
25.84989970940001
 10
37.89050392679994
 20
25.78644723059998
 10
37.88069979869997
 20
25.72369558289998
 10
37.87181697679996
 20
25.66165524340002
 10
37.86386216019995
 20
25.60031573500001
 10
37.85683534879993
 20
25.53967705769998
  0
LINE
  5
56DF4
330
1F
100
AcDbEntity
  8
1
100
AcDbLine
 10
37.76331105559997
 20
27.59947784109997
 30
0.0
 11
37.71239688949993
 21
27.42755686440001
 31
0.0
  0
LWPOLYLINE
  5
56DF5
330
1F
100
AcDbEntity
  8
1
100
AcDbPolyline
 90
        5
 70
     0
 43
0.0
 10
37.85683534879993
 20
25.53967705769998
 10
37.85275554359993
 20
25.52747759859997
 10
37.84863254109993
 20
25.5153257364
 10
37.84446634129996
 20
25.50322147109998
 10
37.84217698709998
 20
25.49666392309999
  0
LWPOLYLINE
  5
56DF6
330
1F
100
AcDbEntity
  8
1
100
AcDbPolyline
 90
       19
 70
     0
 43
0.0
 10
37.35890733379996
 20
25.50373866680002
 10
37.36395420789995
 20
25.51733006699999
 10
37.37330982239996
 20
25.54114513019996
 10
37.38346869439997
 20
25.5657496723
 10
37.39443391229997
 20
25.59114581279998
 10
37.40624141149996
 20
25.61736729149999
 10
37.41888836029998
 20
25.64441245840001
 10
37.43237759049995
 20
25.67228296359997
 10
37.44675353239995
 20
25.7010174975
 10
37.46201398919996
 20
25.7306155055
 10
37.47816115759994
 20
25.76107754219999
 10
37.49524605909997
 20
25.792443961
 10
37.51326709929993
 20
25.82471503309998
 10
37.53222587249997
 20
25.8578904874
 10
37.55217818299997
 20
25.89200986379998
 10
37.57312339989994
 20
25.92707474009998
 10
37.59506215389996
 20
25.9630835385
 10
37.61805214229998
 20
26.00007106609999
 10
37.63505396699998
 20
26.02692211090002
  0
LINE
  5
56DF7
330
1F
100
AcDbEntity
  8
1
100
AcDbLine
 10
38.15066788569996
 20
28.59256247869999
 30
0.0
 11
37.8573523553396
 21
27.84057587478454
 31
0.0
  0
LINE
  5
56DF8
330
1F
100
AcDbEntity
  8
1
100
AcDbLine
 10
37.8573523553396
 20
27.84057587478454
 30
0.0
 11
37.76331105559997
 21
27.59947784109997
 31
0.0
  0
LINE
  5
56DF9
330
1F
100
AcDbEntity
  8
1
100
AcDbLine
 10
37.67134491839997
 20
26.802451773
 30
0.0
 11
37.60666301599997
 21
26.74182929449998
 31
0.0
  0
LINE
  5
56DFA
330
1F
100
AcDbEntity
  8
1
100
AcDbLine
 10
37.60666301599997
 20
26.74182929449998
 30
0.0
 11
37.52834636279999
 21
26.66925793430002
 31
0.0
  0
LINE
  5
56DFB
330
1F
100
AcDbEntity
  8
1
100
AcDbLine
 10
1.199999999999988
 20
27.815
 30
0.0
 11
9.69999999999996
 21
27.815
 31
0.0
  0
LINE
  5
56DFC
330
1F
100
AcDbEntity
  8
1
100
AcDbLine
 10
49.34850535629993
 20
26.4088946096
 30
0.0
 11
49.29552244649993
 21
26.40899864899998
 31
0.0
  0
LINE
  5
56DFD
330
1F
100
AcDbEntity
  8
1
100
AcDbLine
 10
49.29552244649993
 20
26.40899864899998
 30
0.0
 11
49.24260235479994
 21
26.40934462460001
 31
0.0
  0
LINE
  5
56DFE
330
1F
100
AcDbEntity
  8
1
100
AcDbLine
 10
49.24260235479994
 20
26.40934462460001
 30
0.0
 11
49.18973335719993
 21
26.40993324779997
 31
0.0
  0
LINE
  5
56DFF
330
1F
100
AcDbEntity
  8
1
100
AcDbLine
 10
49.18973335719993
 20
26.40993324779997
 30
0.0
 11
49.13687610819997
 21
26.41076700639999
 31
0.0
  0
LINE
  5
56E00
330
1F
100
AcDbEntity
  8
1
100
AcDbLine
 10
49.13687610819997
 20
26.41076700639999
 30
0.0
 11
49.08399559329996
 21
26.4118475578
 31
0.0
  0
LINE
  5
56E01
330
1F
100
AcDbEntity
  8
1
100
AcDbLine
 10
49.08399559329996
 20
26.4118475578
 30
0.0
 11
49.03107308249997
 21
26.41317549550001
 31
0.0
  0
LINE
  5
56E02
330
1F
100
AcDbEntity
  8
1
100
AcDbLine
 10
49.03107308249997
 20
26.41317549550001
 30
0.0
 11
48.97807833099996
 21
26.4147516825
 31
0.0
  0
LINE
  5
56E03
330
1F
100
AcDbEntity
  8
1
100
AcDbLine
 10
48.97807833099996
 20
26.4147516825
 30
0.0
 11
48.92503906539993
 21
26.41657212300001
 31
0.0
  0
LINE
  5
56E04
330
1F
100
AcDbEntity
  8
1
100
AcDbLine
 10
48.92503906539993
 20
26.41657212300001
 30
0.0
 11
48.87197270169995
 21
26.41863272769999
 31
0.0
  0
LINE
  5
56E05
330
1F
100
AcDbEntity
  8
1
100
AcDbLine
 10
48.87197270169995
 20
26.41863272769999
 30
0.0
 11
48.79239664889997
 21
26.42215396730001
 31
0.0
  0
LINE
  5
56E06
330
1F
100
AcDbEntity
  8
1
100
AcDbLine
 10
48.68781336729996
 20
26.42747794799999
 30
0.0
 11
48.59757142999995
 21
26.43198993620001
 31
0.0
  0
LINE
  5
56E07
330
1F
100
AcDbEntity
  8
1
100
AcDbLine
 10
48.79239664889997
 20
26.42215396730001
 30
0.0
 11
48.7129268303999
 21
26.42615171059998
 31
0.0
  0
LINE
  5
56E08
330
1F
100
AcDbEntity
  8
1
100
AcDbLine
 10
48.7129268303999
 20
26.42615171059998
 30
0.0
 11
48.68781336729996
 21
26.42747794799999
 31
0.0
  0
LWPOLYLINE
  5
56E09
330
1F
100
AcDbEntity
  8
1
100
AcDbPolyline
 90
       16
 70
     0
 43
0.0
 10
46.76967327889996
 20
26.12658828059998
 10
46.20627207289993
 20
26.17515192430003
 10
45.71268523379993
 20
26.21251413410002
 10
45.21852823799997
 20
26.24453735820001
 10
44.72416358999995
 20
26.27119519340002
 10
44.22948384729997
 20
26.2925012092
 10
43.73431048369996
 20
26.30847778840001
 10
43.23861851209993
 20
26.31914558629998
 10
42.74235136179993
 20
26.32452220419998
 10
42.24528239979997
 20
26.32461540829999
 10
41.74741116269992
 20
26.3194252333
 10
41.24893975059996
 20
26.30897022109997
 10
40.74994499159996
 20
26.29327478609997
 10
40.25044659719995
 20
26.27236100969998
 10
39.75027238729996
 20
26.24623966769997
 10
39.24921086899994
 20
26.21491901559998
  0
LINE
  5
56E0A
330
1F
100
AcDbEntity
  8
1
100
AcDbLine
 10
38.18495770989996
 20
28.83042134440001
 30
0.0
 11
38.11378082369996
 21
30.03058804750001
 31
0.0
  0
LINE
  5
56E0B
330
1F
100
AcDbEntity
  8
1
100
AcDbLine
 10
37.81954733489994
 20
28.49583633769999
 30
0.0
 11
37.85735235529995
 21
27.84057587480001
 31
0.0
  0
LINE
  5
56E0C
330
1F
100
AcDbEntity
  8
1
100
AcDbLine
 10
37.59464797359993
 20
25.48436804009998
 30
0.0
 11
37.56946000689996
 21
25.92094176840002
 31
0.0
  0
LWPOLYLINE
  5
56E0D
330
1F
100
AcDbEntity
  8
1
100
AcDbPolyline
 90
        8
 70
     0
 43
0.0
 10
38.19589309639997
 20
31.0414050567
 10
38.19546352199996
 20
31.07827833859997
 10
38.19478270479996
 20
31.11564040050001
 10
38.19384834389996
 20
31.1534905339
 10
38.19265353699993
 20
31.19182661329998
 10
38.19119598339998
 20
31.23064793009999
 10
38.18947798369996
 20
31.26995519279998
 10
38.18749953799997
 20
31.30974840140002
  0
LWPOLYLINE
  5
56E0E
330
1F
100
AcDbEntity
  8
1
100
AcDbPolyline
 90
        3
 70
     0
 43
0.0
 10
38.19599161409997
 20
30.96912270739998
 10
38.19606912709998
 20
31.00501984629997
 10
38.19589309639997
 20
31.0414050567
  0
LINE
  5
56E0F
330
1F
100
AcDbEntity
  8
1
100
AcDbLine
 10
37.62745005079995
 20
25.4859974673
 30
0.0
 11
37.62826854719996
 21
25.8207883071
 31
0.0
  0
LINE
  5
56E10
330
1F
100
AcDbEntity
  8
1
100
AcDbLine
 10
37.70593933699994
 20
26.64972541
 30
0.0
 11
37.70223885449994
 21
26.31460609460001
 31
0.0
  0
LINE
  5
56E11
330
1F
100
AcDbEntity
  8
1
100
AcDbLine
 10
37.71304917129997
 20
27.12171805439998
 30
0.0
 11
37.70593933699994
 21
26.64972541
 31
0.0
  0
LINE
  5
56E12
330
1F
100
AcDbEntity
  8
1
100
AcDbLine
 10
37.71729937089998
 20
27.38576311009999
 30
0.0
 11
37.71304917129997
 21
27.12171805439998
 31
0.0
  0
LINE
  5
56E13
330
1F
100
AcDbEntity
  8
1
100
AcDbLine
 10
37.62826854719996
 20
25.8207883071
 30
0.0
 11
37.63511832309996
 21
26.02878617280001
 31
0.0
  0
LINE
  5
56E14
330
1F
100
AcDbEntity
  8
1
100
AcDbLine
 10
37.63511832309996
 20
26.02878617280001
 30
0.0
 11
37.64264679459996
 21
26.2339513055
 31
0.0
  0
LINE
  5
56E15
330
1F
100
AcDbEntity
  8
1
100
AcDbLine
 10
37.64264679459996
 20
26.2339513055
 30
0.0
 11
37.65156140789998
 21
26.45623732420001
 31
0.0
  0
LINE
  5
56E16
330
1F
100
AcDbEntity
  8
1
100
AcDbLine
 10
37.65156140789998
 20
26.45623732420001
 30
0.0
 11
37.65793086879995
 21
26.60588220739999
 31
0.0
  0
LWPOLYLINE
  5
56E17
330
1F
100
AcDbEntity
  8
1
100
AcDbPolyline
 90
       12
 70
     0
 43
0.0
 10
37.34533170419997
 20
28.68629880259999
 10
37.34982288339998
 20
28.76234199230001
 10
37.36869314849994
 20
28.9614724507
 10
37.39478735019998
 20
29.1628834437
 10
37.42810726889997
 20
29.3665821141
 10
37.46868555769993
 20
29.57264830039998
 10
37.51655077129993
 20
29.7810692816
 10
37.57170492099997
 20
29.99173433530001
 10
37.63415621499996
 20
30.20458064300001
 10
37.70392480299998
 20
30.41956812160001
 10
37.78107793619995
 20
30.63673338289999
 10
37.86569380509997
 20
30.85612837319998
  0
LINE
  5
56E18
330
1F
100
AcDbEntity
  8
1
100
AcDbLine
 10
37.65793086879995
 20
26.60588220739999
 30
0.0
 11
37.71239688949993
 21
27.42755686440001
 31
0.0
  0
LINE
  5
56E19
330
1F
100
AcDbEntity
  8
1
100
AcDbLine
 10
38.18862261189995
 20
30.86261147399998
 30
0.0
 11
38.19599161409997
 21
30.96912270739998
 31
0.0
  0
LINE
  5
56E1A
330
1F
100
AcDbEntity
  8
1
100
AcDbLine
 10
38.13124606049996
 20
30.2571948673
 30
0.0
 11
38.11378082369996
 21
30.03058804750001
 31
0.0
  0
LINE
  5
56E1B
330
1F
100
AcDbEntity
  8
1
100
AcDbLine
 10
38.18077373919996
 20
30.7587394
 30
0.0
 11
38.18862261189995
 21
30.86261147399998
 31
0.0
  0
LINE
  5
56E1C
330
1F
100
AcDbEntity
  8
1
100
AcDbLine
 10
37.63488128349997
 20
25.48636661009999
 30
0.0
 11
37.70223885449994
 21
26.31460609460001
 31
0.0
  0
LINE
  5
56E1D
330
1F
100
AcDbEntity
  8
1
100
AcDbLine
 10
38.17243927329995
 20
30.65750873739998
 30
0.0
 11
38.18077373919996
 21
30.7587394
 31
0.0
  0
LWPOLYLINE
  5
56E1E
330
1F
100
AcDbEntity
  8
1
100
AcDbPolyline
 90
       10
 70
     0
 43
0.0
 10
38.13124606049996
 20
30.2571948673
 10
38.13364148549997
 20
30.2843151944
 10
38.13620858589997
 20
30.3116958453
 10
38.13894736159998
 20
30.33933682
 10
38.14185779789994
 20
30.36723877590001
 10
38.14493990959997
 20
30.39540105559999
 10
38.14819374099995
 20
30.42382168660001
 10
38.15161930699995
 20
30.45250001159998
 10
38.15521659279998
 20
30.481436688
 10
38.15898559819996
 20
30.5106317158
  0
LWPOLYLINE
  5
56E1F
330
1F
100
AcDbEntity
  8
1
100
AcDbPolyline
 90
        3
 70
     0
 43
0.0
 10
38.15898559819996
 20
30.5106317158
 10
38.16359632369995
 20
30.55892849359998
 10
38.17243927329995
 20
30.65750873739998
  0
LINE
  5
56E20
330
1F
100
AcDbEntity
  8
1
100
AcDbLine
 10
38.15066788569996
 20
28.59256247869999
 30
0.0
 11
38.18495770989996
 21
28.83042134440001
 31
0.0
  0
LWPOLYLINE
  5
56E21
330
1F
100
AcDbEntity
  8
1
100
AcDbPolyline
 90
       23
 70
     0
 43
0.0
 10
37.17334458929997
 20
26.0585370842
 10
37.17549685639998
 20
26.07129687829999
 10
37.18124297949993
 20
26.1004861774
 10
37.18813103139996
 20
26.1297037274
 10
37.19611841649996
 20
26.15892221899998
 10
37.20518784769993
 20
26.18808948379999
 10
37.21535515189998
 20
26.21720815379999
 10
37.22662756909997
 20
26.24633733949997
 10
37.23900069289994
 20
26.2754790301
 10
37.25247781049996
 20
26.304593109
 10
37.26707793459997
 20
26.33368014939998
 10
37.28281463689997
 20
26.36275300119999
 10
37.29967318309994
 20
26.39176508899998
 10
37.31762995049996
 20
26.4206269881
 10
37.33667457679994
 20
26.44930407780001
 10
37.35681566769996
 20
26.47779504250002
 10
37.37805777029996
 20
26.50605840579999
 10
37.40041055459997
 20
26.53409179309998
 10
37.42386242699993
 20
26.56186445910001
 10
37.44838578869997
 20
26.58929094609997
 10
37.47397058569996
 20
26.61633109979999
 10
37.50062450039994
 20
26.6429918975
 10
37.52834636279999
 20
26.66925793430002
  0
LINE
  5
56E22
330
1F
100
AcDbEntity
  8
1
100
AcDbLine
 10
37.76331105559997
 20
27.59947784109997
 30
0.0
 11
37.71729937089998
 21
27.38576311009999
 31
0.0
  0
LINE
  5
56E23
330
1F
100
AcDbEntity
  8
1
100
AcDbLine
 10
37.86569380509997
 20
30.85612837319998
 30
0.0
 11
37.89552139759996
 21
30.92964491149999
 31
0.0
  0
LINE
  5
56E24
330
1F
100
AcDbEntity
  8
1
100
AcDbLine
 10
37.89552139759996
 20
30.92964491149999
 30
0.0
 11
37.92619127889998
 21
31.00341864859999
 31
0.0
  0
LINE
  5
56E25
330
1F
100
AcDbEntity
  8
1
100
AcDbLine
 10
37.92619127889998
 20
31.00341864859999
 30
0.0
 11
37.95770489439997
 21
31.07744502590001
 31
0.0
  0
LINE
  5
56E26
330
1F
100
AcDbEntity
  8
1
100
AcDbLine
 10
37.95770489439997
 20
31.07744502590001
 30
0.0
 11
37.99006288499997
 21
31.1517188526
 31
0.0
  0
LINE
  5
56E27
330
1F
100
AcDbEntity
  8
1
100
AcDbLine
 10
37.99006288499997
 20
31.1517188526
 30
0.0
 11
38.01857491919998
 21
31.21580621150001
 31
0.0
  0
LINE
  5
56E28
330
1F
100
AcDbEntity
  8
1
100
AcDbLine
 10
38.01857491919998
 20
31.21580621150001
 30
0.0
 11
38.04292846099995
 21
31.26959949180002
 31
0.0
  0
LINE
  5
56E29
330
1F
100
AcDbEntity
  8
1
100
AcDbLine
 10
38.04292846099995
 20
31.26959949180002
 30
0.0
 11
38.06771129229998
 21
31.32349176649999
 31
0.0
  0
LINE
  5
56E2A
330
1F
100
AcDbEntity
  8
1
100
AcDbLine
 10
38.06771129229998
 20
31.32349176649999
 30
0.0
 11
38.09292338569998
 21
31.37748107599998
 31
0.0
  0
LINE
  5
56E2B
330
1F
100
AcDbEntity
  8
1
100
AcDbLine
 10
38.09292338569998
 20
31.37748107599998
 30
0.0
 11
38.11856477259997
 21
31.43156559459999
 31
0.0
  0
LINE
  5
56E2C
330
1F
100
AcDbEntity
  8
1
100
AcDbLine
 10
27.37318051519995
 20
26.46130945500002
 30
0.0
 11
28.90868079119997
 21
27.07930192199999
 31
0.0
  0
LINE
  5
56E2D
330
1F
100
AcDbEntity
  8
1
100
AcDbLine
 10
32.49397737429993
 20
28.24668404210001
 30
0.0
 11
31.37634257889997
 21
27.83185679879998
 31
0.0
  0
LWPOLYLINE
  5
56E2E
330
1F
100
AcDbEntity
  8
1
100
AcDbPolyline
 90
        3
 70
     0
 43
0.0
 10
33.93317503559996
 20
28.77835516329998
 10
33.64152586329996
 20
28.6708324768
 10
32.49397737429993
 20
28.24668404210001
  0
LINE
  5
56E2F
330
1F
100
AcDbEntity
  8
1
100
AcDbLine
 10
31.23332261949995
 20
27.77911998949998
 30
0.0
 11
31.37634257889997
 21
27.83185679879998
 31
0.0
  0
LINE
  5
56E30
330
1F
100
AcDbEntity
  8
1
100
AcDbLine
 10
31.09114798769994
 20
27.72767025239998
 30
0.0
 11
31.23332261949995
 21
27.77911998949998
 31
0.0
  0
LWPOLYLINE
  5
56E31
330
1F
100
AcDbEntity
  8
1
100
AcDbPolyline
 90
       25
 70
     0
 43
0.0
 10
33.93317503559996
 20
28.77835516329998
 10
34.00729217249998
 20
28.8050166946
 10
34.08182966329994
 20
28.83054086600001
 10
34.15678750799995
 20
28.8549276775
 10
34.23218512969996
 20
28.87818251359997
 10
34.30800310519993
 20
28.90029998989999
 10
34.38418316549996
 20
28.92126395239998
 10
34.46072541509995
 20
28.94107347849999
 10
34.53762974949993
 20
28.9597294909
 10
34.61483758469996
 20
28.97721860430002
 10
34.69234819859995
 20
28.99353983430001
 10
34.77016231339997
 20
29.00869416539999
 10
34.84822351219995
 20
29.02267116599998
 10
34.92652803199997
 20
29.0354698283
 10
35.00507963589996
 20
29.0470911601
 10
35.08383319559995
 20
29.05752775320002
 10
35.16278986029997
 20
29.06677965509999
 10
35.24194848079995
 20
29.07484681829999
 10
35.32126048169997
 20
29.08172169149998
 10
35.40071916459996
 20
29.08740417550001
 10
35.48033122799996
 20
29.0918943694
 10
35.56006819129994
 20
29.09518501989999
 10
35.63992056099997
 20
29.09727370899998
 10
35.71989783049998
 20
29.09816285469998
 10
35.79999999999998
 20
29.09785245680001
  0
LINE
  5
56E32
330
1F
100
AcDbEntity
  8
1
100
AcDbLine
 10
30.95019737109993
 20
27.67755576739998
 30
0.0
 11
31.09114798769994
 21
27.72767025239998
 31
0.0
  0
LINE
  5
56E33
330
1F
100
AcDbEntity
  8
1
100
AcDbLine
 10
30.81095881709996
 20
27.6289378939
 30
0.0
 11
30.95019737109993
 21
27.67755576739998
 31
0.0
  0
LINE
  5
56E34
330
1F
100
AcDbEntity
  8
1
100
AcDbLine
 10
30.67356222059994
 20
27.58183119
 30
0.0
 11
30.81095881709996
 21
27.6289378939
 31
0.0
  0
LINE
  5
56E35
330
1F
100
AcDbEntity
  8
1
100
AcDbLine
 10
30.53834292149995
 20
27.53628615049999
 30
0.0
 11
30.67356222059994
 21
27.58183119
 31
0.0
  0
LINE
  5
56E36
330
1F
100
AcDbEntity
  8
1
100
AcDbLine
 10
30.40582320039995
 20
27.49243942250001
 30
0.0
 11
30.53834292149995
 21
27.53628615049999
 31
0.0
  0
LINE
  5
56E37
330
1F
100
AcDbEntity
  8
1
100
AcDbLine
 10
30.27612435249998
 20
27.45028765480001
 30
0.0
 11
30.40582320039995
 21
27.49243942250001
 31
0.0
  0
LINE
  5
56E38
330
1F
100
AcDbEntity
  8
1
100
AcDbLine
 10
30.14955070409996
 20
27.4098528534
 30
0.0
 11
30.27612435249998
 21
27.45028765480001
 31
0.0
  0
LINE
  5
56E39
330
1F
100
AcDbEntity
  8
1
100
AcDbLine
 10
30.02651672059994
 20
27.37121826859999
 30
0.0
 11
30.14955070409996
 21
27.4098528534
 31
0.0
  0
LINE
  5
56E3A
330
1F
100
AcDbEntity
  8
1
100
AcDbLine
 10
29.90724688059996
 20
27.33440344539997
 30
0.0
 11
30.02651672059994
 21
27.37121826859999
 31
0.0
  0
LINE
  5
56E3B
330
1F
100
AcDbEntity
  8
1
100
AcDbLine
 10
29.79202111709995
 20
27.29940779800001
 30
0.0
 11
29.90724688059996
 21
27.33440344539997
 31
0.0
  0
LINE
  5
56E3C
330
1F
100
AcDbEntity
  8
1
100
AcDbLine
 10
29.62735619549997
 20
27.25038825430002
 30
0.0
 11
29.79202111709995
 21
27.29940779800001
 31
0.0
  0
LINE
  5
56E3D
330
1F
100
AcDbEntity
  8
1
100
AcDbLine
 10
29.47351880479997
 20
27.20563168449999
 30
0.0
 11
29.62735619549997
 21
27.25038825430002
 31
0.0
  0
LINE
  5
56E3E
330
1F
100
AcDbEntity
  8
1
100
AcDbLine
 10
29.39470667909998
 20
27.18318135710001
 30
0.0
 11
29.47351880479997
 21
27.20563168449999
 31
0.0
  0
LINE
  5
56E3F
330
1F
100
AcDbEntity
  8
1
100
AcDbLine
 10
29.32078014379994
 20
27.16255492509998
 30
0.0
 11
29.39470667909998
 21
27.18318135710001
 31
0.0
  0
LINE
  5
56E40
330
1F
100
AcDbEntity
  8
1
100
AcDbLine
 10
29.25183205129994
 20
27.14373050250001
 30
0.0
 11
29.32078014379994
 21
27.16255492509998
 31
0.0
  0
LINE
  5
56E41
330
1F
100
AcDbEntity
  8
1
100
AcDbLine
 10
29.18818888559994
 20
27.1267576681
 30
0.0
 11
29.25183205129994
 21
27.14373050250001
 31
0.0
  0
LINE
  5
56E42
330
1F
100
AcDbEntity
  8
1
100
AcDbLine
 10
29.13005055489995
 20
27.1116439834
 30
0.0
 11
29.18818888559994
 21
27.1267576681
 31
0.0
  0
LINE
  5
56E43
330
1F
100
AcDbEntity
  8
1
100
AcDbLine
 10
29.07750767589997
 20
27.09837509779999
 30
0.0
 11
29.13005055489995
 21
27.1116439834
 31
0.0
  0
LWPOLYLINE
  5
56E44
330
1F
100
AcDbEntity
  8
1
100
AcDbPolyline
 90
        8
 70
     0
 43
0.0
 10
28.92462929569996
 20
27.06339380059998
 10
28.93860785919995
 20
27.06619202350001
 10
28.95406821529997
 20
27.06943729879998
 10
28.97101488989995
 20
27.07313441449997
 10
28.98944335719995
 20
27.07728462029999
 10
29.00931111929992
 20
27.08188082519999
 10
29.03061290679995
 20
27.08692601690001
 10
29.07750767589997
 20
27.09837509779999
  0
LINE
  5
56E45
330
1F
100
AcDbEntity
  8
1
100
AcDbLine
 10
28.91614291159996
 20
27.06179594879998
 30
0.0
 11
28.92462929569996
 21
27.06339380059998
 31
0.0
  0
LWPOLYLINE
  5
56E46
330
1F
100
AcDbEntity
  8
1
100
AcDbPolyline
 90
       10
 70
     0
 43
0.0
 10
38.11856477259997
 20
31.43156559459999
 10
38.25160894129993
 20
31.44416262869999
 10
38.38200892949993
 20
31.45685624219999
 10
38.50976473739996
 20
31.4696464351
 10
38.63488286799998
 20
31.48253772219999
 10
38.75735681819998
 20
31.49552558869999
 10
38.87716707829998
 20
31.50859649039998
 10
38.99430714529996
 20
31.52174591289997
 10
39.10878352219996
 20
31.53497837070001
 10
39.22059620899995
 20
31.54829386379998
  0
LINE
  5
56E47
330
1F
100
AcDbEntity
  8
1
100
AcDbLine
 10
39.22059620899995
 20
31.54829386379998
 30
0.0
 11
39.35456302379995
 21
31.55771703789998
 31
0.0
  0
LINE
  5
56E48
330
1F
100
AcDbEntity
  8
1
100
AcDbLine
 10
39.35456302379995
 20
31.55771703789998
 30
0.0
 11
39.48851152059996
 21
31.5665482794
 31
0.0
  0
LINE
  5
56E49
330
1F
100
AcDbEntity
  8
1
100
AcDbLine
 10
39.48851152059996
 20
31.5665482794
 30
0.0
 11
39.62287774429994
 21
31.57481181690001
 31
0.0
  0
LINE
  5
56E4A
330
1F
100
AcDbEntity
  8
1
100
AcDbLine
 10
39.62287774429994
 20
31.57481181690001
 30
0.0
 11
39.78456687339997
 21
31.58399324940001
 31
0.0
  0
LINE
  5
56E4B
330
1F
100
AcDbEntity
  8
1
100
AcDbLine
 10
39.78456687339997
 20
31.58399324940001
 30
0.0
 11
39.98266327599996
 21
31.5945279142
 31
0.0
  0
LINE
  5
56E4C
330
1F
100
AcDbEntity
  8
1
100
AcDbLine
 10
36.90381994249998
 20
29.08507883410002
 30
0.0
 11
35.79999999999998
 21
29.09785245680001
 31
0.0
  0
LWPOLYLINE
  5
56E4D
330
1F
100
AcDbEntity
  8
1
100
AcDbPolyline
 90
       14
 70
     0
 43
0.0
 10
37.81954733489994
 20
28.49583633769999
 10
37.77861844099997
 20
28.50580690199999
 10
37.73803998679996
 20
28.51678169899998
 10
37.69781197209997
 20
28.5287607285
 10
37.65790322259994
 20
28.54175502340002
 10
37.61834491269994
 20
28.55575355079998
 10
37.57923056589997
 20
28.57072321250001
 10
37.54056128639997
 20
28.58666628890001
 10
37.50233596989995
 20
28.60358049960002
 10
37.46464482809995
 20
28.62142590499999
 10
37.42748912309995
 20
28.6402047039
 10
37.39086759269998
 20
28.6599146975
 10
37.35486666119996
 20
28.68050935079998
 10
37.34533170419835
 20
28.68629880257265
  0
LWPOLYLINE
  5
56E4E
330
1F
100
AcDbEntity
  8
1
100
AcDbPolyline
 90
       16
 70
     0
 43
0.0
 10
37.34533170419835
 20
28.68629880257265
 10
37.31948779499997
 20
28.70199075229999
 10
37.28472952769994
 20
28.72435681340002
 10
37.25067388489995
 20
28.74755473300002
 10
37.21732252649994
 20
28.77158647500002
 10
37.18467379259997
 20
28.79645007549999
 10
37.15280472909999
 20
28.8220868416
 10
37.12171717779995
 20
28.84849859859997
 10
37.09140929689997
 20
28.87568352109997
 10
37.06195260759996
 20
28.90357744029998
 10
37.03334912009996
 20
28.93218202989999
 10
37.00559682419996
 20
28.96149561620001
 10
36.97876120939998
 20
28.99144900879998
 10
36.95286410589998
 20
29.0220191443
 10
36.92788368349994
 20
29.05322908599999
 10
36.90381994249998
 20
29.08507883410002
  0
LWPOLYLINE
  5
56E4F
330
1F
100
AcDbEntity
  8
1
100
AcDbPolyline
 90
       10
 70
     0
 43
0.0
 10
50.7975668667999
 20
19.02271298879998
 10
50.79110003869995
 20
19.02569957219998
 10
50.78461249879993
 20
19.0287381574
 10
50.77810424719992
 20
19.03182874449999
 10
50.77157501029994
 20
19.03497121379999
 10
50.76502506169997
 20
19.03816568499998
 10
50.75845522189997
 20
19.04141251660002
 10
50.75186576429993
 20
19.044711828
 10
50.74525641559995
 20
19.04806349980001
 10
50.73862717569998
 20
19.05146753199996
  0
LINE
  5
56E50
330
1F
100
AcDbEntity
  8
1
100
AcDbLine
 10
50.61352643709994
 20
19.12237090649998
 30
0.0
 11
50.55166558079995
 21
19.1544147699
 31
0.0
  0
LWPOLYLINE
  5
56E51
330
1F
100
AcDbEntity
  8
1
100
AcDbPolyline
 90
       10
 70
     0
 43
0.0
 10
50.73862717569998
 20
19.05146753199996
 10
50.72729420379993
 20
19.05738350959999
 10
50.71588735519991
 20
19.06346669019999
 10
50.70440662989994
 20
19.06971707399998
 10
50.69285070659997
 20
19.07613379999999
 10
50.68122090659997
 20
19.08271772899998
 10
50.66952119369995
 20
19.08947144379999
 10
50.65775288919994
 20
19.0963958051
 10
50.64591467189996
 20
19.10348995219999
 10
50.63059901199995
 20
19.11282444099999
  0
LINE
  5
56E52
330
1F
100
AcDbEntity
  8
1
100
AcDbLine
 10
50.30760692639995
 20
18.3457961423
 30
0.0
 11
50.09999999999998
 21
18.45541177930002
 31
0.0
  0
LINE
  5
56E53
330
1F
100
AcDbEntity
  8
1
100
AcDbLine
 10
37.71239688949993
 20
27.42755686440001
 30
0.0
 11
37.71729937089998
 21
27.38576311009999
 31
0.0
  0
LWPOLYLINE
  5
56E54
330
1F
100
AcDbEntity
  8
1
100
AcDbPolyline
 90
       14
 70
     0
 43
0.0
 10
42.32512452279997
 20
31.54723649439998
 10
42.82521116299998
 20
31.55035047829997
 10
43.32483198099995
 20
31.55235209919998
 10
43.82362223759995
 20
31.5532538441
 10
44.32169207679993
 20
31.55305896709999
 10
44.81922387049997
 20
31.55176903340001
 10
45.31624578419996
 20
31.54938318039999
 10
45.81281482609995
 20
31.54588653149998
 10
46.30915540619992
 20
31.5412574762
 10
46.80526406189994
 20
31.53547153269996
 10
47.30093657839995
 20
31.5284969903
 10
47.79609442729998
 20
31.5202988458
 10
48.29071509389996
 20
31.5108375607
 10
48.78496326259995
 20
31.50005568289998
  0
LINE
  5
56E55
330
1F
100
AcDbEntity
  8
1
100
AcDbLine
 10
41.68120802749996
 20
31.54213464660001
 30
0.0
 11
42.32512452279997
 21
31.54723649439998
 31
0.0
  0
LINE
  5
56E56
330
1F
100
AcDbEntity
  8
1
100
AcDbLine
 10
41.53743252999996
 20
31.54232092449999
 30
0.0
 11
41.68120802749996
 21
31.54213464660001
 31
0.0
  0
LINE
  5
56E57
330
1F
100
AcDbEntity
  8
1
100
AcDbLine
 10
41.39416230419993
 20
31.54353795039998
 30
0.0
 11
41.53743252999996
 21
31.54232092449999
 31
0.0
  0
LINE
  5
56E58
330
1F
100
AcDbEntity
  8
1
100
AcDbLine
 10
41.25207776369996
 20
31.54575811359999
 30
0.0
 11
41.39416230419993
 21
31.54353795039998
 31
0.0
  0
LINE
  5
56E59
330
1F
100
AcDbEntity
  8
1
100
AcDbLine
 10
41.11129735619996
 20
31.54896110120001
 30
0.0
 11
41.25207776369996
 21
31.54575811359999
 31
0.0
  0
LINE
  5
56E5A
330
1F
100
AcDbEntity
  8
1
100
AcDbLine
 10
48.78496326259995
 20
31.50005568289998
 30
0.0
 11
49.44346535429994
 21
31.48352567879998
 31
0.0
  0
LINE
  5
56E5B
330
1F
100
AcDbEntity
  8
1
100
AcDbLine
 10
49.44346535429994
 20
31.48352567879998
 30
0.0
 11
49.77235556489993
 21
31.47430058719999
 31
0.0
  0
LINE
  5
56E5C
330
1F
100
AcDbEntity
  8
1
100
AcDbLine
 10
49.77235556489993
 20
31.47430058719999
 30
0.0
 11
50.13749995139996
 21
31.46326566079998
 31
0.0
  0
LINE
  5
56E5D
330
1F
100
AcDbEntity
  8
1
100
AcDbLine
 10
40.97218256299996
 20
31.55312388930003
 30
0.0
 11
41.11129735619996
 21
31.54896110120001
 31
0.0
  0
LINE
  5
56E5E
330
1F
100
AcDbEntity
  8
1
100
AcDbLine
 10
50.13749995139996
 20
31.46326566079998
 30
0.0
 11
50.43340959249997
 21
31.4536897328
 31
0.0
  0
LINE
  5
56E5F
330
1F
100
AcDbEntity
  8
1
100
AcDbLine
 10
50.43340959249997
 20
31.4536897328
 30
0.0
 11
50.55166558079995
 21
31.44969985019998
 31
0.0
  0
LWPOLYLINE
  5
56E60
330
1F
100
AcDbEntity
  8
1
100
AcDbPolyline
 90
        3
 70
     0
 43
0.0
 10
40.76791182029995
 20
31.56109506769997
 10
40.83538248869996
 20
31.55821226820001
 10
40.97218256299996
 20
31.55312388930003
  0
LWPOLYLINE
  5
56E61
330
1F
100
AcDbEntity
  8
1
100
AcDbPolyline
 90
       16
 70
     0
 43
0.0
 10
39.98266327599996
 20
31.5945279142
 10
40.03086755199993
 20
31.58755858149999
 10
40.07987660639996
 20
31.5812226557
 10
40.12967027669995
 20
31.57553144079998
 10
40.18027363089996
 20
31.5704921247
 10
40.23162047459996
 20
31.56612171180001
 10
40.28354848999993
 20
31.5624408274
 10
40.3360168467999
 20
31.55945630019997
 10
40.38901283369995
 20
31.55717317750001
 10
40.44240910209995
 20
31.55559990639999
 10
40.49619441449993
 20
31.55473849430001
 10
40.55032175929993
 20
31.5545917481
 10
40.60460453429993
 20
31.55515913180003
 10
40.65895827549995
 20
31.55643496050001
 10
40.71340423459997
 20
31.5584152733
 10
40.7679121092999
 20
31.56109584949999
  0
LWPOLYLINE
  5
56E62
330
1F
100
AcDbEntity
  8
1
100
AcDbPolyline
 90
        6
 70
     0
 43
0.0
 10
50.63059901199995
 20
19.11282444099999
 10
50.62718915379997
 20
19.1148412428
 10
50.62377696719995
 20
19.11680429019998
 10
50.6203624521999
 20
19.11871358329998
 10
50.61694560889995
 20
19.12056912209998
 10
50.61352643709994
 20
19.12237090649998
  0
LWPOLYLINE
  5
56E63
330
1F
100
AcDbEntity
  8
1
100
AcDbPolyline
 90
       25
 70
     0
 43
0.0
 10
37.39431384419996
 20
25.47488305000002
 10
37.38933146129995
 20
25.47852562269998
 10
37.36467062619997
 20
25.49855106769996
 10
37.34152010759996
 20
25.5193890891
 10
37.31989789719996
 20
25.54098400500001
 10
37.29978815749996
 20
25.56329898719997
 10
37.28114554919996
 20
25.58627149449999
 10
37.26397997889995
 20
25.60984504949997
 10
37.24828283479997
 20
25.63398434750002
 10
37.23398081309996
 20
25.65865940480001
 10
37.22107139839997
 20
25.6838326333
 10
37.20955782459995
 20
25.70945915949997
 10
37.19937530579996
 20
25.73550118009999
 10
37.19052490559994
 20
25.761910868
 10
37.18300568169997
 20
25.7886585844
 10
37.17674980149994
 20
25.81573774329999
 10
37.17175121019995
 20
25.8430987751
 10
37.16801575219996
 20
25.87072321479999
 10
37.16549365779997
 20
25.89865991639999
 10
37.16417731619996
 20
25.9269189259
 10
37.16407431149995
 20
25.95543883489998
 10
37.16515773889998
 20
25.98416583000002
 10
37.16743250119995
 20
26.01307907699999
 10
37.17089312649996
 20
26.0421470398
 10
37.17334458929997
 20
26.0585370842
  0
LINE
  5
56E64
330
1F
100
AcDbEntity
  8
1
100
AcDbLine
 10
37.84501523059996
 20
26.197883781
 30
0.0
 11
37.87306103619997
 21
26.17627301669998
 31
0.0
  0
LWPOLYLINE
  5
56E65
330
1F
100
AcDbEntity
  8
1
100
AcDbPolyline
 90
        5
 70
     0
 43
0.0
 10
37.87306103619997
 20
26.17627301669998
 10
37.87657598959996
 20
26.17353613949999
 10
37.88008510379996
 20
26.17076984869999
 10
37.88358837879994
 20
26.16797414430002
 10
37.88708581469996
 20
26.1651490264
  0
LINE
  5
56E66
330
1F
100
AcDbEntity
  8
1
100
AcDbLine
 10
37.82085414909997
 20
26.21682117820001
 30
0.0
 11
37.84501523059996
 21
26.197883781
 31
0.0
  0
LINE
  5
56E67
330
1F
100
AcDbEntity
  8
1
100
AcDbLine
 10
37.79706034889998
 20
26.23578702870001
 30
0.0
 11
37.82085414909997
 21
26.21682117820001
 31
0.0
  0
LINE
  5
56E68
330
1F
100
AcDbEntity
  8
1
100
AcDbLine
 10
37.77364722859994
 20
26.25475875960001
 30
0.0
 11
37.79706034889998
 21
26.23578702870001
 31
0.0
  0
LINE
  5
56E69
330
1F
100
AcDbEntity
  8
1
100
AcDbLine
 10
37.88708581469996
 20
26.1651490264
 30
0.0
 11
37.95366571419997
 21
26.11037219250003
 31
0.0
  0
LINE
  5
56E6A
330
1F
100
AcDbEntity
  8
1
100
AcDbLine
 10
37.75532627799996
 20
26.2698273709
 30
0.0
 11
37.77364722859994
 21
26.25475875960001
 31
0.0
  0
LINE
  5
56E6B
330
1F
100
AcDbEntity
  8
1
100
AcDbLine
 10
37.74189337559994
 20
26.28099858120001
 30
0.0
 11
37.75532627799996
 21
26.2698273709
 31
0.0
  0
LINE
  5
56E6C
330
1F
100
AcDbEntity
  8
1
100
AcDbLine
 10
37.72856627809995
 20
26.29218777899999
 30
0.0
 11
37.74189337559994
 21
26.28099858120001
 31
0.0
  0
LINE
  5
56E6D
330
1F
100
AcDbEntity
  8
1
100
AcDbLine
 10
37.71534786449993
 20
26.3033906435
 30
0.0
 11
37.72856627809995
 21
26.29218777899999
 31
0.0
  0
LINE
  5
56E6E
330
1F
100
AcDbEntity
  8
1
100
AcDbLine
 10
37.70223885449994
 20
26.31460609460001
 30
0.0
 11
37.71534786449993
 21
26.3033906435
 31
0.0
  0
LWPOLYLINE
  5
56E6F
330
1F
100
AcDbEntity
  8
1
100
AcDbPolyline
 90
       34
 70
     0
 43
0.0
 10
50.06643681369997
 20
17.63252309800001
 10
50.06470717789993
 20
17.63402184029998
 10
50.06033262929997
 20
17.63884134779998
 10
50.05585143879994
 20
17.64521561340001
 10
50.05128605369995
 20
17.65313223320001
 10
50.04667771089997
 20
17.6626470441
 10
50.04204985809996
 20
17.67375772919999
 10
50.03742601629993
 20
17.68644986960001
 10
50.03285118629995
 20
17.70076338019999
 10
50.02834873289994
 20
17.71670141430002
 10
50.02394094849996
 20
17.73424653809998
 10
50.01967410979998
 20
17.75341121629998
 10
50.01557110609994
 20
17.7742013575
 10
50.01165137449993
 20
17.79660100680002
 10
50.00795760819997
 20
17.8205943092
 10
50.00451045879995
 20
17.84618661329998
 10
50.00132565379993
 20
17.8733679865
 10
49.99843855659998
 20
17.90210456649997
 10
49.99586517929992
 20
17.93242549230001
 10
49.99361747389997
 20
17.96430263129997
 10
49.99172347519992
 20
17.99762241869999
 10
49.99019672829996
 20
18.0323914441
 10
49.98904144779996
 20
18.06861318739999
 10
49.98826935219994
 20
18.10617591030001
 10
49.98788662469994
 20
18.1450939796
 10
49.98789305959997
 20
18.18536972300001
 10
49.98828786939995
 20
18.22687850149998
 10
49.98907158049997
 20
18.26964893109996
 10
49.99023757569998
 20
18.31367487579997
 10
49.99177148219994
 20
18.35878433539996
 10
49.99366821819996
 20
18.40500012800001
 10
49.99591522249997
 20
18.45232754009997
 10
49.99848467319996
 20
18.5005724065
 10
50.00136384909996
 20
18.54973103739998
  0
LWPOLYLINE
  5
56E70
330
1F
100
AcDbEntity
  8
1
100
AcDbPolyline
 90
        7
 70
     0
 43
0.0
 10
38.14546325579994
 20
31.3849129951
 10
38.13995945469998
 20
31.39240506840002
 10
38.13879978239996
 20
31.39407825840001
 10
38.13769828289995
 20
31.39575722710001
 10
38.13665495629994
 20
31.39744197460001
 10
38.13566980239995
 20
31.39913250079999
 10
38.13474282139996
 20
31.40082880579999
  0
LWPOLYLINE
  5
56E71
330
1F
100
AcDbEntity
  8
1
100
AcDbPolyline
 90
        9
 70
     0
 43
0.0
 10
38.17398509489996
 20
31.3391831159
 10
38.17097258649994
 20
31.3448102998
 10
38.16780285799996
 20
31.35046334820001
 10
38.16447590929994
 20
31.35614226109999
 10
38.16099304769995
 20
31.36184782480001
 10
38.15735296589997
 20
31.367579253
 10
38.15355174239993
 20
31.37333418629999
 10
38.14958806999996
 20
31.37911183809999
 10
38.14546325579994
 20
31.3849129951
  0
LINE
  5
56E72
330
1F
100
AcDbEntity
  8
1
100
AcDbLine
 10
38.13474282139996
 20
31.40082880579999
 30
0.0
 11
38.11856477259997
 21
31.43156559459999
 31
0.0
  0
LINE
  5
56E73
330
1F
100
AcDbEntity
  8
1
100
AcDbLine
 10
50.09999999999998
 20
22.73924034210001
 30
0.0
 11
50.18020843409994
 21
22.64741385309998
 31
0.0
  0
LWPOLYLINE
  5
56E74
330
1F
100
AcDbEntity
  8
1
100
AcDbPolyline
 90
       10
 70
     0
 43
0.0
 10
38.18749953799997
 20
31.30974840140002
 10
38.18619679429995
 20
31.31299211800001
 10
38.18484449129994
 20
31.31624265479999
 10
38.18344262879995
 20
31.3195000117
 10
38.18199141469996
 20
31.3227643468
 10
38.18049064129994
 20
31.32603550210002
 10
38.17893968489995
 20
31.329313004
 10
38.17733833779996
 20
31.33259669469999
 10
38.17568680779996
 20
31.33588673199998
 10
38.17398509489996
 20
31.3391831159
  0
LINE
  5
56E75
330
1F
100
AcDbEntity
  8
1
100
AcDbLine
 10
50.7975668667999
 20
31.2110565573
 30
0.0
 11
50.77810424719992
 21
31.2293808375
 31
0.0
  0
LINE
  5
56E76
330
1F
100
AcDbEntity
  8
1
100
AcDbLine
 10
50.77810424719992
 20
31.2293808375
 30
0.0
 11
50.75845522189997
 21
31.2480447218
 31
0.0
  0
LINE
  5
56E77
330
1F
100
AcDbEntity
  8
1
100
AcDbLine
 10
50.75845522189997
 20
31.2480447218
 30
0.0
 11
50.73862717569998
 21
31.26704413930003
 31
0.0
  0
LINE
  5
56E78
330
1F
100
AcDbEntity
  8
1
100
AcDbLine
 10
50.61694560889995
 20
31.38682833030002
 30
0.0
 11
50.55166558079995
 21
31.44969985019998
 31
0.0
  0
LINE
  5
56E79
330
1F
100
AcDbEntity
  8
1
100
AcDbLine
 10
50.73862717569998
 20
31.26704413930003
 30
0.0
 11
50.71588735519991
 21
31.28903517930002
 31
0.0
  0
LINE
  5
56E7A
330
1F
100
AcDbEntity
  8
1
100
AcDbLine
 10
50.71588735519991
 20
31.28903517930002
 30
0.0
 11
50.69285070659997
 21
31.31153367469997
 31
0.0
  0
LINE
  5
56E7B
330
1F
100
AcDbEntity
  8
1
100
AcDbLine
 10
50.62377696719995
 20
31.38015289870002
 30
0.0
 11
50.61694560889995
 21
31.38682833030002
 31
0.0
  0
LINE
  5
56E7C
330
1F
100
AcDbEntity
  8
1
100
AcDbLine
 10
50.69285070659997
 20
31.31153367469997
 30
0.0
 11
50.66952119369995
 21
31.33453780699998
 31
0.0
  0
LINE
  5
56E7D
330
1F
100
AcDbEntity
  8
1
100
AcDbLine
 10
50.63059901199995
 20
31.37339167449997
 30
0.0
 11
50.62377696719995
 21
31.38015289870002
 31
0.0
  0
LWPOLYLINE
  5
56E7E
330
1F
100
AcDbEntity
  8
1
100
AcDbPolyline
 90
        3
 70
     0
 43
0.0
 10
50.66952119369995
 20
31.33453780699998
 10
50.64591467189996
 20
31.35804030199998
 10
50.63059901199995
 20
31.37339167449997
  0
LINE
  5
56E7F
330
1F
100
AcDbEntity
  8
1
100
AcDbLine
 10
0.0
 20
17.35699441199997
 30
0.0
 11
0.0
 21
27.21500000000001
 31
0.0
  0
ARC
  5
56E80
330
1F
100
AcDbEntity
  8
1
100
AcDbCircle
 10
19.90588065769992
 20
-45.015
 30
0.0
 40
20.0
100
AcDbArc
 50
68.07670459109927
 51
120.6834171090001
  0
ARC
  5
56E81
330
1F
100
AcDbEntity
  8
sk3
100
AcDbCircle
 10
45.09999999999997
 20
-22.49944231090001
 30
0.0
 40
5.0
100
AcDbArc
 50
0.0
 51
17.04903097210022
  0
ARC
  5
56E82
330
1F
100
AcDbEntity
  8
1
100
AcDbCircle
 10
35.79999999999998
 20
-24.46308640760002
 30
0.0
 40
5.0
100
AcDbArc
 50
248.0767045910992
 51
270.0
  0
ARC
  5
56E83
330
1F
100
AcDbEntity
  8
1
100
AcDbCircle
 10
48.09999999999996
 20
-27.46308640760002
 30
0.0
 40
2.0
100
AcDbArc
 50
270.0
 51
0.0
  0
ARC
  5
56E84
330
1F
100
AcDbEntity
  8
1
100
AcDbCircle
 10
1.199999999999988
 20
-26.315
 30
0.0
 40
1.5
100
AcDbArc
 50
216.8698976458002
 51
270.0
  0
ARC
  5
56E85
330
1F
100
AcDbEntity
  8
sk3
100
AcDbCircle
 10
52.79999999999998
 20
13.50055768910002
 30
0.0
 40
5.0
100
AcDbArc
 50
162.9509690278998
 51
180.0
  0
ARC
  5
56E86
330
1F
100
AcDbEntity
  8
sk3
100
AcDbCircle
 10
52.79999999999998
 20
-13.50055768920001
 30
0.0
 40
5.0
100
AcDbArc
 50
180.0
 51
197.0490309721001
  0
ARC
  5
56E87
330
1F
100
AcDbEntity
  8
1
100
AcDbCircle
 10
19.90588065769992
 20
45.015
 30
0.0
 40
20.0
100
AcDbArc
 50
239.3165828909999
 51
291.9232954089007
  0
ARC
  5
56E88
330
1F
100
AcDbEntity
  8
sk3
100
AcDbCircle
 10
45.09999999999997
 20
22.49944231079999
 30
0.0
 40
5.0
100
AcDbArc
 50
342.9509690278995
 51
0.0
  0
ARC
  5
56E89
330
1F
100
AcDbEntity
  8
1
100
AcDbCircle
 10
31.63962840139996
 20
28.20382504759999
 30
0.0
 40
2.953409404299998
100
AcDbArc
 50
202.3804092643004
 51
271.8234718679997
  0
ARC
  5
56E8A
330
1F
100
AcDbEntity
  8
1
100
AcDbCircle
 10
1.199999999999988
 20
26.315
 30
0.0
 40
1.5
100
AcDbArc
 50
90.0
 51
143.1301023541998
  0
LINE
  5
56E8B
330
1F
100
AcDbEntity
  8
cut
100
AcDbLine
 10
37.7657441888
 20
27.6746236962
 30
0.0
 11
38.15310101889997
 21
28.68471324380002
 31
0.0
1001
ACAD
1000
RTMaterial
1005
0
  0
LINE
  5
56E8C
330
1F
100
AcDbEntity
  8
cut
100
AcDbLine
 10
37.71973250409998
 20
27.45964127520004
 30
0.0
 11
37.7657441888
 21
27.6746236962
 31
0.0
1001
ACAD
1000
RTMaterial
1005
0
  0
LINE
  5
56E8D
330
1F
100
AcDbEntity
  8
cut
100
AcDbLine
 10
37.95609884750002
 20
26.18321216220002
 30
0.0
 11
50.44954720679999
 21
26.58187811680003
 31
0.0
1001
ACAD
1000
RTMaterial
1005
0
  0
LINE
  5
56E8E
330
1F
100
AcDbEntity
  8
cut
100
AcDbLine
 10
37.70467198770001
 20
26.38649334800002
 30
0.0
 11
37.71973250409998
 21
27.45964127520004
 31
0.0
1001
ACAD
1000
RTMaterial
1005
0
  0
LINE
  5
56E8F
330
1F
100
AcDbEntity
  8
cut
100
AcDbLine
 10
38.11621395690003
 20
30.12726259830002
 30
0.0
 11
38.1984247474
 21
31.08290738160003
 31
0.0
1001
ACAD
1000
RTMaterial
1005
0
  0
LINE
  5
56E90
330
1F
100
AcDbEntity
  8
cut
100
AcDbLine
 10
38.15310101889997
 20
28.68471324380002
 30
0.0
 11
38.18739084309999
 21
28.92537424739998
 31
0.0
1001
ACAD
1000
RTMaterial
1005
0
  0
LINE
  5
56E91
330
1F
100
AcDbEntity
  8
cut
100
AcDbLine
 10
38.18739084309999
 20
28.92537424739998
 30
0.0
 11
38.11621395690003
 21
30.12726259830002
 31
0.0
1001
ACAD
1000
RTMaterial
1005
0
  0
LINE
  5
56E92
330
1F
100
AcDbEntity
  8
cut
100
AcDbLine
 10
38.1984247474
 20
31.08290738160003
 30
0.0
 11
38.18993267120004
 21
31.43147346780001
 31
0.0
1001
ACAD
1000
RTMaterial
1005
0
  0
LINE
  5
56E93
330
1F
100
AcDbEntity
  8
cut
100
AcDbLine
 10
38.12099790580004
 20
31.57558121459999
 30
0.0
 11
38.12099790580004
 21
30.18287276610002
 31
0.0
1001
ACAD
1000
RTMaterial
1005
0
  0
LINE
  5
56E94
330
1F
100
AcDbEntity
  8
cut
100
AcDbLine
 10
38.18993267120004
 20
31.08290738160003
 30
0.0
 11
38.18993267120004
 21
31.07021421579998
 31
0.0
1001
ACAD
1000
RTMaterial
1005
0
  0
LINE
  5
56E95
330
1F
100
AcDbEntity
  8
cut
100
AcDbLine
 10
38.12099790580004
 20
31.57558121459999
 30
0.0
 11
40.8
 21
31.75
 31
0.0
1001
ACAD
1000
RTMaterial
1005
0
  0
LINE
  5
56E96
330
1F
100
AcDbEntity
  8
cut
100
AcDbLine
 10
40.8
 20
31.75
 30
0.0
 11
50.55409871410001
 21
31.75
 31
0.0
1001
ACAD
1000
RTMaterial
1005
0
  0
LINE
  5
56E97
330
1F
100
AcDbEntity
  8
cut
100
AcDbLine
 10
37.95609884750002
 20
26.18321216220002
 30
0.0
 11
37.70467198770001
 21
26.38649334800002
 31
0.0
1001
ACAD
1000
RTMaterial
1005
0
  0
LINE
  5
56E98
330
1F
100
AcDbEntity
  8
cut
100
AcDbLine
 10
50.3643463862
 20
29.1844064391
 30
0.0
 11
50.75795845250002
 21
30.2603471724
 31
0.0
1001
ACAD
1000
RTMaterial
1005
0
  0
LINE
  5
56E99
330
1F
100
AcDbEntity
  8
cut
100
AcDbLine
 10
38.18993267120004
 20
31.43147346780001
 30
0.0
 11
38.12099790580004
 21
31.57558121459999
 31
0.0
1001
ACAD
1000
RTMaterial
1005
0
  0
LINE
  5
56E9A
330
1F
100
AcDbEntity
  8
cut
100
AcDbLine
 10
50.75795845250002
 20
30.2603471724
 30
0.0
 11
50.80000000000001
 21
30.46493057250001
 31
0.0
1001
ACAD
1000
RTMaterial
1005
0
  0
LINE
  5
56E9B
330
1F
100
AcDbEntity
  8
cut
100
AcDbLine
 10
50.40205187470002
 20
27.23213905059998
 30
0.0
 11
50.43505800370002
 21
27.67338923649999
 31
0.0
1001
ACAD
1000
RTMaterial
1005
0
  0
LINE
  5
56E9C
330
1F
100
AcDbEntity
  8
cut
100
AcDbLine
 10
50.43505800370002
 20
27.67338923649999
 30
0.0
 11
50.46061365129997
 21
27.91856923980001
 31
0.0
1001
ACAD
1000
RTMaterial
1005
0
  0
LINE
  5
56E9D
330
1F
100
AcDbEntity
  8
cut
100
AcDbLine
 10
50.33619652039998
 20
28.97202205120001
 30
0.0
 11
50.3643463862
 21
29.1844064391
 31
0.0
1001
ACAD
1000
RTMaterial
1005
0
  0
LINE
  5
56E9E
330
1F
100
AcDbEntity
  8
cut
100
AcDbLine
 10
50.4136494557
 20
26.90691387200002
 30
0.0
 11
50.40205187470002
 21
27.23213905059998
 31
0.0
1001
ACAD
1000
RTMaterial
1005
0
  0
LINE
  5
56E9F
330
1F
100
AcDbEntity
  8
cut
100
AcDbLine
 10
50.3643463862
 20
29.1844064391
 30
0.0
 11
50.3643463862
 21
28.78958689430002
 31
0.0
1001
ACAD
1000
RTMaterial
1005
0
  0
LINE
  5
56EA0
330
1F
100
AcDbEntity
  8
cut
100
AcDbLine
 10
50.43505800370002
 20
27.67338923649999
 30
0.0
 11
50.43505800370002
 21
26.71307043260001
 31
0.0
1001
ACAD
1000
RTMaterial
1005
0
  0
LINE
  5
56EA1
330
1F
100
AcDbEntity
  8
cut
100
AcDbLine
 10
50.80000000000001
 20
30.46493057249975
 30
0.0
 11
50.80000000000001
 21
31.50654972970003
 31
0.0
1001
ACAD
1000
RTMaterial
1005
0
  0
LINE
  5
56EA2
330
1F
100
AcDbEntity
  8
cut
100
AcDbLine
 10
50.46061365129997
 20
27.91856923980001
 30
0.0
 11
50.47024403080001
 21
28.1032797709
 31
0.0
1001
ACAD
1000
RTMaterial
1005
0
  0
LINE
  5
56EA3
330
1F
100
AcDbEntity
  8
cut
100
AcDbLine
 10
50.44954720679999
 20
26.58187811680003
 30
0.0
 11
50.4136494557
 21
26.90691387200002
 31
0.0
1001
ACAD
1000
RTMaterial
1005
0
  0
LINE
  5
56EA4
330
1F
100
AcDbEntity
  8
cut
100
AcDbLine
 10
50.80000000000001
 20
31.50654972970003
 30
0.0
 11
50.55409871410001
 21
31.75
 31
0.0
1001
ACAD
1000
RTMaterial
1005
0
  0
LINE
  5
56EA5
330
1F
100
AcDbEntity
  8
cut
100
AcDbLine
 10
50.47024403080001
 20
28.1032797709
 30
0.0
 11
50.33619652039998
 21
28.97202205120001
 31
0.0
1001
ACAD
1000
RTMaterial
1005
0
  0
VIEWPORT
  5
6B
102
{ACAD_XDICTIONARY
360
56F9E
102
}
330
50
100
AcDbEntity
 67
     1
  8
0
100
AcDbViewport
 10
155.3592437148233
 20
160.4455827878762
 30
0.0
 40
349.5854424261001
 41
282.2272140146125
 68
     1
 69
     1
 12
155.3592437148233
 22
160.4455827878762
 13
0.0
 23
0.0
 14
10.0
 24
10.0
 15
10.0
 25
10.0
 16
0.0
 26
0.0
 36
1.0
 17
0.0
 27
0.0
 37
0.0
 42
50.0
 43
0.0
 44
0.0
 45
282.2272140146125
 50
0.0
 51
0.0
 72
  1000
 90
    32864
  1

281
     0
 71
     1
 74
     0
110
0.0
120
0.0
130
0.0
111
1.0
121
0.0
131
0.0
112
0.0
122
1.0
132
0.0
 79
     0
146
0.0
  0
VIEWPORT
  5
6D
102
{ACAD_XDICTIONARY
360
56FA0
102
}
330
50
100
AcDbEntity
 67
     1
  8
0
100
AcDbViewport
 10
133.3499939441681
 20
101.5999939441681
 30
0.0
 40
213.3599903106689
 41
162.5599903106689
 68
     2
 69
     2
 12
210.0
 22
148.5
 13
0.0
 23
0.0
 14
10.0
 24
10.0
 15
10.0
 25
10.0
 16
0.0
 26
0.0
 36
1.0
 17
0.0
 27
0.0
 37
0.0
 42
50.0
 43
0.0
 44
0.0
 45
324.0677920111345
 50
0.0
 51
0.0
 72
   100
 90
    32864
  1

281
     0
 71
     1
 74
     0
110
0.0
120
0.0
130
0.0
111
1.0
121
0.0
131
0.0
112
0.0
122
1.0
132
0.0
 79
     0
146
0.0
  0
ENDSEC
  0
SECTION
  2
OBJECTS
  0
DICTIONARY
  5
C
330
0
100
AcDbDictionary
281
     1
  3
ACAD_COLOR
350
85
  3
ACAD_GROUP
350
D
  3
ACAD_LAYOUT
350
1A
  3
ACAD_MATERIAL
350
84
  3
ACAD_MLINESTYLE
350
17
  3
ACAD_PLOTSETTINGS
350
19
  3
ACAD_PLOTSTYLENAME
350
E
  3
ACAD_TABLESTYLE
350
A1
  3
ACDBHEADERROUNDTRIPXREC
350
56F99
  3
AcDbVariableDictionary
350
5E
  3
ASE_INDEX_DICTIONARY
350
349E9
  3
DWGPROPS
350
56F98
  0
DICTIONARY
  5
E2
330
2
100
AcDbDictionary
280
     1
281
     1
  3
ACAD_LAYERFILTERS
360
56F87
  3
ACAD_LAYERSTATES
360
3759A
  3
ACLYDICTIONARY
360
56F86
  0
DICTIONARY
  5
31EE
330
1F
100
AcDbDictionary
280
     1
281
     1
  3
ACAD_SORTENTS
360
31EF
  0
DICTIONARY
  5
43668
330
680
100
AcDbDictionary
280
     1
281
     1
  3
ACAD_SORTENTS
360
56BA8
  0
DICTIONARY
  5
56FA2
330
71
100
AcDbDictionary
280
     1
281
     1
  3
ACAD_XREC_ROUNDTRIP
360
56FA3
  0
DICTIONARY
  5
56FA4
330
73
100
AcDbDictionary
280
     1
281
     1
  3
ACAD_XREC_ROUNDTRIP
360
56FA5
  0
DICTIONARY
  5
56F9E
330
6B
100
AcDbDictionary
280
     1
281
     1
  3
ACAD_XREC_ROUNDTRIP
360
56F9F
  0
DICTIONARY
  5
56FA0
330
6D
100
AcDbDictionary
280
     1
281
     1
  3
ACAD_XREC_ROUNDTRIP
360
56FA1
  0
DICTIONARY
  5
85
102
{ACAD_REACTORS
330
C
102
}
330
C
100
AcDbDictionary
281
     1
  0
DICTIONARY
  5
D
102
{ACAD_REACTORS
330
C
102
}
330
C
100
AcDbDictionary
281
     1
  0
DICTIONARY
  5
1A
102
{ACAD_REACTORS
330
C
102
}
330
C
100
AcDbDictionary
281
     1
  3
\M+1838C\M+18343\M+18341\M+18345\M+183671
350
51
  3
\M+1838C\M+18343\M+18341\M+18345\M+183672
350
56
  3
Model
350
22
  0
DICTIONARY
  5
84
102
{ACAD_REACTORS
330
C
102
}
330
C
100
AcDbDictionary
281
     1
  0
DICTIONARY
  5
17
102
{ACAD_REACTORS
330
C
102
}
330
C
100
AcDbDictionary
281
     1
  3
Standard
350
18
  0
DICTIONARY
  5
19
102
{ACAD_REACTORS
330
C
102
}
330
C
100
AcDbDictionary
281
     1
  0
ACDBDICTIONARYWDFLT
  5
E
102
{ACAD_REACTORS
330
C
102
}
330
C
100
AcDbDictionary
281
     1
  3
Normal
350
F
100
AcDbDictionaryWithDefault
340
F
  0
DICTIONARY
  5
A1
102
{ACAD_REACTORS
330
C
102
}
330
C
100
AcDbDictionary
281
     1
  3
Standard
350
A2
  0
DICTIONARY
  5
56F99
102
{ACAD_REACTORS
330
C
102
}
330
C
100
AcDbDictionary
281
     1
  0
DICTIONARY
  5
5E
102
{ACAD_REACTORS
330
C
102
}
330
C
100
AcDbDictionary
281
     1
  3
CTABLESTYLE
350
B8
  3
DIMASSOC
350
5F
  3
HIDETEXT
350
63
  3
PROJECTNAME
350
31CE
  0
DICTIONARY
  5
349E9
102
{ACAD_REACTORS
330
C
102
}
330
C
100
AcDbDictionary
281
     1
  3
ASEBlockHierarchyIndexRecord
350
349EA
1001
DCO15
1040
1842496176.844
  0
XRECORD
  5
56F98
102
{ACAD_REACTORS
330
C
102
}
330
C
100
AcDbXrecord
280
     1
  1
DWGPROPS COOKIE
  2

  3

  4

  6

  7

  8

  9

300
=
301
=
302
=
303
=
304
=
305
=
306
=
307
=
308
=
309
=
 40
2.284012916666666
 41
2455489.391063368
 42
2458543.732136875
  1

 90
        0
  0
DICTIONARY
  5
56F87
102
{ACAD_REACTORS
330
E2
102
}
330
E2
100
AcDbDictionary
281
     1
  0
DICTIONARY
  5
3759A
102
{ACAD_REACTORS
330
E2
102
}
330
E2
100
AcDbDictionary
281
     1
  0
DICTIONARY
  5
56F86
102
{ACAD_REACTORS
330
E2
102
}
330
E2
100
AcDbDictionary
281
     1
1001
ACAD
1000
<All
  0
SORTENTSTABLE
  5
31EF
102
{ACAD_REACTORS
330
31EE
102
}
330
31EE
100
AcDbSortentsTable
330
1F
331
68C
  5
435D5
  0
SORTENTSTABLE
  5
56BA8
102
{ACAD_REACTORS
330
43668
102
}
330
43668
100
AcDbSortentsTable
330
680
  0
XRECORD
  5
56FA3
102
{ACAD_REACTORS
330
56FA2
102
}
330
56FA2
100
AcDbXrecord
280
     1
102
SHADEPLOT
 70
     0
  0
XRECORD
  5
56FA5
102
{ACAD_REACTORS
330
56FA4
102
}
330
56FA4
100
AcDbXrecord
280
     1
102
SHADEPLOT
 70
     0
  0
XRECORD
  5
56F9F
102
{ACAD_REACTORS
330
56F9E
102
}
330
56F9E
100
AcDbXrecord
280
     1
102
SHADEPLOT
 70
     0
  0
XRECORD
  5
56FA1
102
{ACAD_REACTORS
330
56FA0
102
}
330
56FA0
100
AcDbXrecord
280
     1
102
SHADEPLOT
 70
     0
  0
LAYOUT
  5
51
102
{ACAD_XDICTIONARY
360
B2
102
}
102
{ACAD_REACTORS
330
1A
102
}
330
1A
100
AcDbPlotSettings
  1

  2
none_device
  4
Letter_(8.50_x_11.00_Inches)
  6

 40
6.349999904632567
 41
6.349999904632567
 42
6.350006103515625
 43
6.350006103515625
 44
215.8999938964844
 45
279.3999938964844
 46
0.0
 47
0.0
 48
0.0
 49
0.0
140
0.0
141
0.0
142
1.0
143
1.0
 70
   688
 72
     1
 73
     1
 74
     5
  7

 75
    16
147
1.0
148
0.0
149
0.0
100
AcDbLayout
  1
\M+1838C\M+18343\M+18341\M+18345\M+183671
 70
     1
 71
     1
 10
-6.350006103515625
 20
-6.349999904632567
 11
273.0499877929688
 21
209.5499939918518
 12
0.0
 22
0.0
 32
0.0
 14
26.66999878883364
 24
20.31999878883365
 34
0.0
 15
240.0299890995025
 25
182.8799890995025
 35
0.0
146
0.0
 13
0.0
 23
0.0
 33
0.0
 16
1.0
 26
0.0
 36
0.0
 17
0.0
 27
1.0
 37
0.0
 76
     0
330
50
331
6B
  0
LAYOUT
  5
56
102
{ACAD_XDICTIONARY
360
B5
102
}
102
{ACAD_REACTORS
330
1A
102
}
330
1A
100
AcDbPlotSettings
  1

  2
none_device
  4
Letter_(8.50_x_11.00_Inches)
  6

 40
6.349999904632567
 41
6.349999904632567
 42
6.350006103515625
 43
6.350006103515625
 44
215.8999938964844
 45
279.3999938964844
 46
0.0
 47
0.0
 48
0.0
 49
0.0
140
0.0
141
0.0
142
1.0
143
1.0
 70
   688
 72
     1
 73
     1
 74
     5
  7

 75
    16
147
1.0
148
0.0
149
0.0
100
AcDbLayout
  1
\M+1838C\M+18343\M+18341\M+18345\M+183672
 70
     1
 71
     2
 10
-6.350006103515625
 20
-6.349999904632567
 11
273.0499877929688
 21
209.5499939918518
 12
0.0
 22
0.0
 32
0.0
 14
26.66999878883363
 24
20.31999878883363
 34
0.0
 15
240.0299890995026
 25
182.8799890995025
 35
0.0
146
0.0
 13
0.0
 23
0.0
 33
0.0
 16
1.0
 26
0.0
 36
0.0
 17
0.0
 27
1.0
 37
0.0
 76
     0
330
55
331
71
  0
LAYOUT
  5
22
102
{ACAD_XDICTIONARY
360
56F9A
102
}
102
{ACAD_REACTORS
330
1A
102
}
330
1A
100
AcDbPlotSettings
  1

  2
none_device
  4
ANSI_A_(8.50_x_11.00_Inches)
  6

 40
6.349999904632567
 41
19.04999923706055
 42
6.350006103515625
 43
19.04998779296875
 44
215.8999938964844
 45
279.3999938964844
 46
0.0
 47
0.0
 48
0.0
 49
0.0
140
0.0
141
0.0
142
1.0
143
78.436453180766
 70
 11952
 72
     0
 73
     1
 74
     0
  7

 75
     0
147
0.0127491741332998
148
0.0
149
0.0
100
AcDbLayout
  1
Model
 70
     1
 71
     0
 10
0.0
 20
0.0
 11
12.0
 21
9.0
 12
0.0
 22
0.0
 32
0.0
 14
0.0
 24
0.0
 34
0.0
 15
0.0
 25
0.0
 35
0.0
146
0.0
 13
0.0
 23
0.0
 33
0.0
 16
1.0
 26
0.0
 36
0.0
 17
0.0
 27
1.0
 37
0.0
 76
     0
330
1F
  0
MLINESTYLE
  5
18
102
{ACAD_REACTORS
330
17
102
}
330
17
100
AcDbMlineStyle
  2
STANDARD
 70
     0
  3

 62
   256
 51
90.0
 52
90.0
 71
     2
 49
0.5
 62
   256
  6
BYLAYER
 49
-0.5
 62
   256
  6
BYLAYER
  0
ACDBPLACEHOLDER
  5
F
102
{ACAD_REACTORS
330
E
102
}
330
E
  0
TABLESTYLE
  5
A2
102
{ACAD_REACTORS
330
A1
102
}
330
A1
100
AcDbTableStyle
  3
Standard
 70
     0
 71
     0
 40
1.5
 41
1.5
280
     0
281
     0
  7
Standard
140
4.5
170
     2
 62
     0
 63
     7
283
     0
274
    -2
284
     1
 64
     0
275
    -2
285
     1
 65
     0
276
    -2
286
     1
 66
     0
277
    -2
287
     1
 67
     0
278
    -2
288
     1
 68
     0
279
    -2
289
     1
 69
     0
  7
Standard
140
6.0
170
     5
 62
     0
 63
     7
283
     0
274
    -2
284
     1
 64
     0
275
    -2
285
     1
 65
     0
276
    -2
286
     1
 66
     0
277
    -2
287
     1
 67
     0
278
    -2
288
     1
 68
     0
279
    -2
289
     1
 69
     0
  7
Standard
140
4.5
170
     5
 62
     0
 63
     7
283
     0
274
    -2
284
     1
 64
     0
275
    -2
285
     1
 65
     0
276
    -2
286
     1
 66
     0
277
    -2
287
     1
 67
     0
278
    -2
288
     1
 68
     0
279
    -2
289
     1
 69
     0
  0
DICTIONARYVAR
  5
B8
102
{ACAD_REACTORS
330
5E
102
}
330
5E
100
DictionaryVariables
280
     0
  1
STANDARD
  0
DICTIONARYVAR
  5
5F
102
{ACAD_REACTORS
330
5E
102
}
330
5E
100
DictionaryVariables
280
     0
  1
2
  0
DICTIONARYVAR
  5
63
102
{ACAD_REACTORS
330
5E
102
}
330
5E
100
DictionaryVariables
280
     0
  1
1
  0
DICTIONARYVAR
  5
31CE
102
{ACAD_REACTORS
330
5E
102
}
330
5E
100
DictionaryVariables
280
     0
  1

  0
XRECORD
  5
349EA
102
{ACAD_REACTORS
330
349E9
102
}
330
349E9
100
AcDbXrecord
280
     1
330
68C
330
431D
330
431E
330
4329
330
4334
330
4335
330
4B09
330
4B0A
330
5153
330
5154
330
515D
330
515E
330
516A
330
516B
330
5177
330
5178
330
85B4
330
85B5
330
8620
330
8621
330
862A
330
862B
330
8637
330
8638
330
8644
330
8645
330
9773
330
9774
330
977D
330
977E
330
978A
330
978B
330
9797
330
9798
330
BD86
330
BD87
330
BD8F
330
BD90
330
BD98
330
BDA0
330
BDA1
330
BDDD
330
BDDE
330
BDE7
330
BDE8
330
BDF4
330
BDF5
330
BE01
330
BE02
330
E473
330
E474
330
E48D
330
E48E
330
E485
330
E47C
330
E47D
330
E4CC
330
E4CD
330
E4D7
330
E4D8
330
1C63B
330
1C63C
330
1C705
330
1C706
330
1C719
330
1C71A
330
1C72E
330
1C72F
330
1C738
330
1C739
330
27043
330
27044
330
2703A
330
2703B
330
2CF2C
330
2CF2D
330
2CF38
330
2CF39
330
2CF42
330
2CF43
330
2CF4F
330
2CF50
330
2CF59
330
2CF5A
330
2FA31
330
2FA32
330
2FA3D
330
2FA3E
330
2FA4A
330
2FA4B
330
2FA54
330
2FA55
330
329D8
330
329D9
330
329E1
330
329E2
330
329EA
330
329EB
330
329F3
330
329F4
330
32E63
330
32E64
330
32E6F
330
32E70
330
32E79
330
32E7A
330
32E88
330
32E89
330
32E92
330
32E93
  0
DICTIONARY
  5
B2
330
51
100
AcDbDictionary
280
     1
281
     1
  3
ACAD_XREC_ROUNDTRIP
360
56F9C
  3
ADSK_XREC_LAYOUTTHUMBNAIL
360
B3
  0
DICTIONARY
  5
B5
330
56
100
AcDbDictionary
280
     1
281
     1
  3
ACAD_XREC_ROUNDTRIP
360
56F9D
  3
ADSK_XREC_LAYOUTTHUMBNAIL
360
B6
  0
DICTIONARY
  5
56F9A
330
22
100
AcDbDictionary
280
     1
281
     1
  3
ACAD_XREC_ROUNDTRIP
360
56F9B
  0
XRECORD
  5
56F9C
102
{ACAD_REACTORS
330
B2
102
}
330
B2
100
AcDbXrecord
280
     1
102
SHADEPLOT
 70
     0
102
SHADEPLOTRESLEVEL
 70
     2
102
SHADEPLOTCUSTOMDPI
 70
   300
  0
XRECORD
  5
B3
102
{ACAD_REACTORS
330
B2
102
}
330
B2
100
AcDbXrecord
280
     1
310
28000000B40000008B0000000100080000000000BC61000000000000000000000001000000000000FFFFFF0000000000FFFFFF000000000000000000000000000000000000000000000000000000000000000000330000006600000099000000CC000000FF00000000330000333300006633000099330000CC330000FF3300
310
0000660000336600006666000099660000CC660000FF66000000990000339900006699000099990000CC990000FF99000000CC000033CC000066CC000099CC0000CCCC0000FFCC000000FF000033FF000066FF000099FF0000CCFF0000FFFF000000003300330033006600330099003300CC003300FF003300003333003333
310
33006633330099333300CC333300FF33330000663300336633006666330099663300CC663300FF66330000993300339933006699330099993300CC993300FF99330000CC330033CC330066CC330099CC3300CCCC3300FFCC330000FF330033FF330066FF330099FF3300CCFF3300FFFF330000006600330066006600660099
310
006600CC006600FF00660000336600333366006633660099336600CC336600FF33660000666600336666006666660099666600CC666600FF66660000996600339966006699660099996600CC996600FF99660000CC660033CC660066CC660099CC6600CCCC6600FFCC660000FF660033FF660066FF660099FF6600CCFF6600
310
FFFF660000009900330099006600990099009900CC009900FF00990000339900333399006633990099339900CC339900FF33990000669900336699006666990099669900CC669900FF66990000999900339999006699990099999900CC999900FF99990000CC990033CC990066CC990099CC9900CCCC9900FFCC990000FF99
310
0033FF990066FF990099FF9900CCFF9900FFFF99000000CC003300CC006600CC009900CC00CC00CC00FF00CC000033CC003333CC006633CC009933CC00CC33CC00FF33CC000066CC003366CC006666CC009966CC00CC66CC00FF66CC000099CC003399CC006699CC009999CC00CC99CC00FF99CC0000CCCC0033CCCC0066CC
310
CC0099CCCC00CCCCCC00FFCCCC0000FFCC0033FFCC0066FFCC0099FFCC00CCFFCC00FFFFCC000000FF003300FF006600FF009900FF00CC00FF00FF00FF000033FF003333FF006633FF009933FF00CC33FF00FF33FF000066FF003366FF006666FF009966FF00CC66FF00FF66FF000099FF003399FF006699FF009999FF00CC
310
99FF00FF99FF0000CCFF0033CCFF0066CCFF0099CCFF00CCCCFF00FFCCFF0000FFFF0033FFFF0066FFFF0099FFFF00CCFFFF00FFFFFF00000000000D0D0D001A1A1A00282828003535350043434300505050005D5D5D006B6B6B00787878008686860093939300A1A1A100AEAEAE00BBBBBB00C9C9C900D6D6D600E4E4E400
310
F1F1F100FFFFFF0000000000000000000000000000000000000000000000000000000000000000000000000000000000EFEFEFE2E2E2E2E2E2E2E2E2E2E2E2E2E2E2E2E2E2E2E2E2E2E2E2E2E2E2E2E2E2E2E2E2E2E2E2E2E2E2E2E2E2E2E2E2E2E2E2E2E2E2E2E2E2E2E2E2E2E2E2E2E2E2E2E2E2E2E2E2E2E2E2E2E2E2E2
310
E2E2E2E2E2E2E2E2E2E2E2E2E2E2E2E2E2E2E2E2E2E2E2E2E2E2E2E2E2E2E2E2E2E2E2E2E2E2E2E2E2E2E2E2E2E2E2E2E2E2E2E2E2E2E2E2E2E2E2E2E2E2E2E2E2E2E2E2E2E2E2E2E2E2E2E2E2E2E2E2E2E2E2E2E2E2E2E2E2E2E2E2E2E2E2E2E2E2E2E2E2E2E2E2E2E2E2E2E2E2E2E2E2E2E2E2E2E2E2E2E2E2E2E2E2E2E2
310
E2E2E2E2E2E2E2E2E2E2E2E2E2E2E2E2E2E2E2E2E2E2E2E2E2E2E2E2E2E2E2E2E2E2E2E2E2E2E2E2E2E2E2E2E2E2E2E2E2E2E2E2E2E2E2E2E2E2E2E2E2E2E2E2E2E2E2E2E2E2E2E2E2E2E2E2E2E2E2E2E2E2E2E2E2E2E2E2E2E2E2E2E2E2E2E2E2E2E2E2E2E2E2E2E2E2E2E2E2E2E2E2E2E2E2E2E2E2E2E2E2E2E2E2E2E2E2
310
E2E2E2E2E2E2E2E2E2E2E2E2E2E2E2E2E2E2E2E2E2E2E2E2E2E2E2E2F5F5F5F5F5F5F5F5F5F5F5F5F5F5F5F5F5F5F5F5F5F5F5F5F5F5F5F5F5F5F5F5F5F5F5F5F5F5F5F5F5F5F5F5F5F5F5F5F5F5F5F5F5F5F5F5F5F5F5F5F5F5F5F5F5F5F5F5F5F5F5F5F5F5F5F5F5F5F5F5F5F5F5F5F5F5F5F5F5F5F5F5F5F5F5F5F5F5F5
310
F5F5F5F5F5F5F5F5F5F5F5F5F5F5F5F5F5F5F5F5F5F5F5F5F5F5F5F5F5F5F5F5F5F5F5F5F5F5F5F5F5F5F5F5F5F5F5F5F5F5F5F5F5F5F5F5F5F5F5F5F5F5F5F5F5F5F5F5F5F5F5F5F5F5F5F5F5F5F5E2E2F5F5F5F5F5F5F5F5F5F5F5F5F5F5F5F5F5F5F5F5F5F5F5F5F5F5F5F5F5F5F5F5F5F5F5F5F5F5F5F5F5F5F5F5F5F5
310
F5F5F5F5F5F5F5F5F5F5F5F5F5F5F5F5F5F5F5F5F5F5F5F5F5F5F5F5F5F5F5F5F5F5F5F5F5F5F5F5F5F5F5F5F5F5F5F5F5F5F5F5F5F5F5F5F5F5F5F5F5F5F5F5F5F5F5F5F5F5F5F5F5F5F5F5F5F5F5F5F5F5F5F5F5F5F5F5F5F5F5F5F5F5F5F5F5F5F5F5F5F5F5F5F5F5F5F5F5F5F5F5F5F5F5F5F5F5F5F5F5F5F5F5F5F5F5
310
F5F5F5F5F5E2E2F5F5F5F5F5F5F5F5F5F5F5F5F5F5F5F5F5F5F5F5F5F5F5F5F5F5F5F5F5F5F5F5F5F5F5F5F5F5F5F5F5F5F5F5F5F5F5F5F5F5F5F5F5F5F5F5F5F5F5F5F5F5F5F5F5F5F5F5F5F5F5F5F5F5F5F5F5F5F5F5F5F5F5F5F5F5F5F5F5F5F5F5F5F5F5F5F5F5F5F5F5F5F5F5F5F5F5F5F5F5F5F5F5F5F5F5F5F5F5F5
310
F5F5F5F5F5F5F5F5F5F5F5F5F5F5F5F5F5F5F5F5F5F5F5F5F5F5F5F5F5F5F5F5F5F5F5F5F5F5F5F5F5F5F5F5F5F5F5F5F5F5F5F5F5F5F5F5F5F5E2E2F5F5F5F5E2E2E2E2E2E2E2E2F5F5F5F5F5F5F5F5F5E2E2E2E2E2E2E2E2E2E2E2E2E2E2E2F5F5F5F5F5F5F5F5F5E2E2E2E2E2E2E2E2E2E2E2E2E2E2E2E2F5F5F5F5F5F5
310
F5F5E2E2E2E2E2E2E2E2E2E2E2E2E2E2E2E2F5F5F5F5F5F5F5F5E2E2E2E2E2E2E2E2E2E2E2E2E2E2E2E2F5F5F5F5F5F5F5F5E2E2E2E2E2E2E2E2E2E2E2E2E2E2E2E2F5F5F5F5F5F5F5F5F5E2E2E2E2E2E2E2E2E2E2E2E2E2E2E2F5F5F5F5F5F5F5F5F5E2E2E2E2E2E2E2E2F5F5F5F5E2E2F5F5F5F5E2F5F5F5F5F5F5F5F5F5
310
F5F5F5F5F5F5F5F5F5F5F5F5F5F5F5F5F5F5F5F5F5F5F5F5F5F5F5F5F5F5F5F5F5F5F5F5F5F5F5F5F5F5F5F5F5F5F5F5F5F5F5F5F5F5F5F5F5F5F5F5F5F5F5F5F5F5F5F5F5F5F5F5F5F5F5F5F5F5F5F5F5F5F5F5F5F5F5F5F5F5F5F5F5F5F5F5F5F5F5F5F5F5F5F5F5F5F5F5F5F5F5F5F5F5F5F5F5F5F5F5F5F5F5F5F5F5F5
310
F5F5F5F5F5F5F5F5F5F5F5F5F5F5F5F5F5F5F5F5F5F5F5F5F5F5F5F5F5F5F5F5E2F5F5F5F5E2E2F5F5F5F5E2F5F5F5F5F5F5F5F5F5F5F5F5F5F5F5F5F5F5F5F5F5F5F5F5F5F5F5F5F5F5F5F5F5F5F5F5F5F5F5F5F5F5F5F5F5F5F5F5F5F5F5F5F5F5F5F5F5F5F5F5F5F5F5F5F5F5F5F5F5F5F5F5F5F5F5F5F5F5F5F5F5F5F5
310
F5F5F5F5F5F5F5F5F5F5F5F5F5F5F5F5F5F5F5F5F5F5F5F5F5F5F5F5F5F5F5F5F5F5F5F5F5F5F5F5F5F5F5F5F5F5F5F5F5F5F5F5F5F5F5F5F5F5F5F5F5F5F5F5F5F5F5F5F5F5F5F5F5F5F5F5F5F5F5F5F5F5F5F5F5E2F5F5F5F5E2E2F5F5F5F5E2F5F5F5F5F5F5F5F5F5F5F5F5F5F5F5F5F5F5F5F5F5F5F5F5F5F5F5F5F5F5
310
F5F5F5F5F5F5F5F5F5F5F5F5F5F5F5F5F5F5F5F5F5F5F5F5F5F5F5F5F5F5F5F5F5F5F5F5F5F5F5F5F5F5F5F5F5F5F5F5F5F5F5F5F5F5F5F5F5F5F5F5F5F5F5F5F5F5F5F5F5F5F5F5F5F5F5F5F5F5F5F5F5F5F5F5F5F5F5F5F5F5F5F5F5F5F5F5F5F5F5F5F5F5F5F5F5F5F5F5F5F5F5F5F5F5F5F5F5F5F5F5F5F5F5F5F5F5F5
310
F5F5F5F5F5F5F5F5F5F5F5E2F5F5F5F5E2E2F5F5F5F5E2F5F5F5F5F5F5F5F5F5F5F5F5F5F5F5F5F5F5F5F5F5F5F5F5F5F5F5F5F5F5F5F5F5F5F5F5F5F5F5F5F5F5F5F5F5F5F5F5F5F5F5F5F5F5F5F5F5F5F5F5F5F5F5F5F5F5F5F5F5F5F5F5F5F5F5F5F5F5F5F5F5F5F5F5F5F5F5F5F5F5F5F5F5F5F5F5F5F5F5F5F5F5F5F5
310
F5F5F5F5F5F5F5F5F5F5F5F5F5F5F5F5F5F5F5F5F5F5F5F5F5F5F5F5F5F5F5F5F5F5F5F5F5F5F5F5F5F5F5F5F5F5F5F5F5F5F5F5F5F5F5F5F5F5F5F5F5F5F5F5E2F5F5F5F5E2E2F5F5F5F5E2F5F5F5F5F5F5F5F5F5F5F5F5F5F5F5F5F5F5F5F5F5F5F5F5F5F5F5F5F5F5F5F5F5F5F5F5F5F5F5F5F5F5F5F5F5F5F5F5F5F5F5
310
F5F5F5F5F5F5F5F5F5F5F5F5F5F5F5F5F5F5F5F5F5F5F5F5F5F5F5F5F5F5F5F5F5F5F5F5F5F5F5F5F5F5F5F5F5F5F5F5F5F5F5F5F5F5F5F5F5F5F5F5F5F5F5F5F5F5F5F5F5F5F5F5F5F5F5F5F5F5F5F5F5F5F5F5F5F5F5F5F5F5F5F5F5F5F5F5F5F5F5F5F5F5F5F5F5F5F5F5F5F5F5F5F5F5F5F5F5E2F5F5F5F5E2E2F5F5F5
310
F5E2F5F5F5F5F5F5F5F5F5F5F5F5F5F5F5F5F5F5F5F5F5F5F5F5F5F5F5F5F5F5F5F5F5F5F5F5F5F5F5F5F5F5F5F5F5F5F5F5F5F5F5F5F5F5F5F5F5F5F5F5F5F5F5F5F5F5F5F5F5F5F5F5F5F5F5F5F5F5F5F5F5F5F5F5F5F5F5F5F5F5F5F5F5F5F5F5F5F5F5F5F5F5F5F5F5F5F5F5F5F5F5F5F5F5F5F5F5F5F5F5F5F5F5F5F5
310
F5F5F5F5F5F5F5F5F5F5F5F5F5F5F5F5F5F5F5F5F5F5F5F5F5F5F5F5F5F5F5F5F5F5F5F5F5F5F5F5F5F5F5E2F5F5F5F5E2E2F5F5F5F5E2F5F5F5F5F5F5F5F5F5F5F5F5F5F5F5F5F5F5F5F5F5F5F5F5F5F5F5F5F5F5F5F5F5F5F5F5F5F5F5F5F5F5F5F5F5F5F5F5F5F5F5F5F5F5F5F5F5F5F5F5F5F5F5F5F5F5F5F5F5F5F5F5
310
F5F5F5F5F5F5F5F5F5F5F5F5F5F5F5F5F5F5F5F5F5F5F5F5F5F5F5F5F5F5F5F5F5F5F5F5F5F5F5F5F5F5F5F5F5F5F5F5F5F5F5F5F5F5F5F5F5F5F5F5F5F5F5F5F5F5F5F5F5F5F5F5F5F5F5F5F5F5F5F5F5F5F5F5F5F5F5F5F5F5F5F5F5F5F5F5E2F5F5F5F5E2E2F5F5F5F5E2F5F5F5F5F5F5F5F5F5F5F5F5F5F5F5F5F5F5F5
310
F5F5F5F5F5F5F5F5F5F5F5F5F5F5F5F5F5F5F5F5F5F5F5F5F5F5F5F5F5F5F5F5F5F5F5F5F5F5F5F5F5F5F5F5F5F5F5F5F5F5F5F5F5F5F5F5F5F5F5F5F5F5F5F5F5F5F5F5F5F5F5F5F5F5F5F5F5F5F5F5F5F5F5F5F5F5F5F5F5F5F5F5F5F5F5F5F5F5F5F5F5F5F5F5F5F5F5F5F5F5F5F5F5F5F5F5F5F5F5F5F5F5F5F5F5F5F5
310
F5F5F5F5F5F5F5F5F5F5F5F5F5F5F5F5F5F5F5F5F5F5E2F5F5F5F5E2E2F5F5F5F5F5F5F5F5F5F5F5F5F5F5F5F5F5F5F5F5F5F5F5F5F5F5F5F5F5F5F5F5F5F5F5F5F5F5F5F5F5F5F5F5F5F5F5F5F5F5F5F5F5F5F5F5F5F5F5F5F5F5F5F5F5F5F5F5F5F5F5F5F5F5F5F5F5F5F5F5F5F5F5F5F5F5F5F5F5F5F5F5F5F5F5F5F5F5
310
F5F5F5F5F5F5F5F5F5F5F5F5F5F5F5F5F5F5F5F5F5F5F5F5F5F5F5F5F5F5F5F5F5F5F5F5F5F5F5F5F5F5F5F5F5F5F5F5F5F5F5F5F5F5F5F5F5F5F5F5F5F5F5F5F5F5F5F5F5F5F5F5F5F5F5F5F5F5F5F5E2E2F5F5F5F5F5F5F5F5F5F5F5F5F5F5F5F5F5F5F5F5F5F5F5F5F5F5F5F5F5F5F5F5F5F5F5F5F5F5F5F5F5F5F5F5F5
310
F5F5F5F5F5F5F5F5F5F5F5F5F5F5F5F5F5F5F5F5F5F5F5F5F5F5F5F5F5F5F5F5F5F5F5F5F5F5F5F5F5F5F5F5F5F5F5F5F5F5F5F5F5F5F5F5F5F5F5F5F5F5F5F5F5F5F5F5F5F5F5F5F5F5F5F5F5F5F5F5F5F5F5F5F5F5F5F5F5F5F5F5F5F5F5F5F5F5F5F5F5F5F5F5F5F5F5F5F5F5F5F5F5F5F5F5F5F5F5F5F5F5F5F5F5F5F5
310
F5F5F5F5F5F5E2E2F5F5F5F5F5F5F5F5F5F5F5F5F5F5F5F5F5F5F5F5F5F5F5F5F5F5F5F5F5F5F5F5F5F5F5F5F5F5F5F5F5F5F5F5F5F5F5F5F5F5F5F5F5F5F5F5F5F5F5F5F5F5F5F5F5F5F5F5F5F5F5F5F5F5F5F5F5F5F5F5F5F5F5F5F5F5F5F5F5F5F5F5F5F5F5F5F5F5F5F5F5F5F5F5F5F5F5F5F5F5F5F5F5F5F5F5F5F5F5
310
F5F5F5F5F5F5F5F5F5F5F5F5F5F5F5F5F5F5F5F5F5F5F5F5F5F5F5F5F5F5F5F5F5F5F5F5F5F5F5F5F5F5F5F5F5F5F5F5F5F5F5F5F5F5F5F5F5F5F5E2E2F5F5F5F5F5F5F5F5F5F5F5F5F5F5F5F5F5F5F5F5F5F5F5F5F5F5F5F5F5F5F5F5F5F5F5F5F5F5F5F5F5F5F5F5F5F5F5F5F5F5F5F5F5F5F5F5F5F5F5F5F5F5F5F5F5F5
310
F5F5F5F5F5F5F5F5F5F5F5F5F5F5F5F5F5F5F5F5F5F5F5F5F5F5F5F5F5F5F5F5F5F5F5F5F5F5F5F5F5F5F5F5F5F5F5F5F5F5F5F5F5F5F5F5F5F5F5F5F5F5F5F5F5F5F5F5F5F5F5F5F5F5F5F5F5F5F5F5F5F5F5F5F5F5F5F5F5F5F5F5F5F5F5F5F5F5F5F5F5F5F5F5F5F5F5F5F5F5F5F5E2E2F5F5F5F5F5F5F5F5F5F5F5F5F5
310
F5F5F5F5F5F5F5F5E2E2E2E2E2E2E2E2E2E2E2E2E2E2E2E2E2E2E2E2E2E2E2E2E2E2E2E2E2E2E2E2E2E2E2E2E2E2E2E2E2E2E2E2E2E2E2E2E2E2E2E2E2E2E2E2E2E2E2E2E2E2E2E2E2E2E2E2E2E2E2E2E2E2E2E2E2E2E2E2E2E2E2E2E2E2E2E2E2E2E2E2E2E2E2E2E2E2E2E2E2E2E2E2E2E2E2E2E2E2E2E2E2E2E2E2E2E2E2
310
E2E2E2E2E2E2E2E2E2E2E2E2E2E2E2E2E2F5F5F5F5F5F5F5F5F5F5F5F5F5F5F5F5F5F5F5F5F5E2E2F5F5F5F5F5F5F5F5F5F5F5F5F5F5F5F5F5F5F5F5F5E22D2D2D2DF5F5F5F5E2F5F5F5F5F5F5F52DF5F5F5F5F5F5F5F5F5F5F5F5F5F5F5F5F5F5E2F5F5F5F5F5F5F5F5F5F5F5F5F5F5F5F5F5F5F5F5F5F5F5F5F5F5F5F5F5
310
F5F5F5F5F5F5F5F5F5F5F5F5F5F5F5F5F5F5F5F5F5F5F5F5F5F5F5F5F5F5F5F5F5F5F5F5F5F5F5F5F5F5F5F5F5F5F5F5F5F5F5F5F5F5F5F5F5F5F5F5F5F5F5F5F5F5F5F5F5E2F5F5F5F5F5F5F5F5F5F5F5F5F5F5F5F5F5F5F5F5F5E2E2F5F5F5F5F5F5F5F5F5F5F5F5F5F5F5F5F5F5F5F5F5E2DCF5F52DF5F5F5F5E2F5F5F5
310
F5F5F5F52DF5F5F5F5F5F5F5F5F5F5F5F5F5F5F5F5F5F5E2F5F5F5F5F5F5F5F5F5F5F5F5F5F5F5F5F5F5F5F5F5F5F5F5F5F5F5F5F5F5F5F5F5F5F5F5F5F5F5F5F5F5F5F5F5F5F5F5F5F5F5F5F5F5F5F5F5F5F5F5F5F5F5F5F5F5F5F5F5F5F5F5F5F5F5F5F5F5F5F5F5F5F5F5F5F5F5F5F5F5F5F5F5F5F5F5F5F5E2F5F5F5F5
310
F5F5F5F5F5F5F5F5F5F5F5F5F5F5F5F5F5E2E2F5F5F5F5F5F5F5F5F5F5F5F5F5F5F5F5F5F5F5F5F5E2DCF5F52DF5F5F5F5E2F5F5F5F5F5F5F52DF5F5F5F5F5F5F5F5F5F5F5F5F5F5F5F5F5F5E2E2F5F5F5F5F5F5F5F5F5F5F5F5F5F5F5F5F5F5F5F5F5F5F5F5F5F5F5F5F5F5F5F5F5F5F5F5F5F5F5F5F5F5F5F5F5F5F5F5F5
310
F5F5F5F5F5F5F5F5F5F5F5F5F5F5F5F5F5F5F5F5F5F5F5F5F5F5F5F5F5F5F5F5F5F5F5F5F5F5F5F5F5F5F5F5F5F5F5F5E2F5F5F5F5F5F5F5F5F5F5F5F5F5F5F5F5F5F5F5F5F5E2E2F5F5F5F5F5F5F5F5F5F5F5F5F5F5F5F5F5F5F5F5F5E2BEF5F52D2D2D2D2D2D2D2D2D2D2D2D2D2DE2E2E2E2E2E2E2E2E2E2E2E2E2E2E2E2
310
E2E2E2E2F5F5F5F5F5F5F5F5F5F5F5F5F5F5F5F5F5F5F5F5F5F5F5F5F5F5F5F5F5F5F5F5F5F5F5F5F5F5F5F5F5F5F5F5F5F5F5F5F5F5F5F5F5F5F5F5F5F5F5F5F5F5F5F5F5F5F5F5F5F5F5F5F5F5F5F5F5F5F5F5F5F5F5F5F5F5F5F5F5F5F5F5F5F5F5F5F5E2F5F5F5F5F5F5F5F5F5F5F5F5F5F5F5F5F5F5F5F5F5E2E2F5F5
310
F5F5E2F5F5F5F5F5F5F5F5F5F5F5F5F5F5F5F5E2DCF5F5F5F5F5F5F5E2F5F5F5F5F5F5F5E2F5F5F5F5F5F5F5F5F5F5F5F5F5F5F5F5F5F5F5F5F5F5F5F5F5F5F5F5F5F5F5F5F5F5F5F5F5F5F5F5F5F5F5F5F5F5F5F5F5F5F5F5F5F5F5F5F5F5F5F5F5F5F5F5F5F5F5F5F5F5F5F5F5F5F5F5F5F5F5F5F5F5F5F5F5F5F5F5F5F5
310
F5F5F5F5F5F5F5F5F5F5F5F5F5F5F5F5F5F5F5F5F5F5F5F5F5F5F5E2F5F5F5F5F5F5F5F5F5F5F5F5F5F5F5F5E2F5F5F5F5E2E2F5F5F5F5E2F5F5F5F5F5F5F5F5F5F5F5F5F5F5F5F5E2F5F5F5F5F5F5F5F5E2F5F5F5F5F5F5F5E2F5F5F5F5F5F5F5F5F5F5F5F5F5F5F5F5F5F5F5F5F5F5F5F5F5F5F5F5F5F5F5F5F5F5F5F5F5
310
F5F5F5F5F5F5F5F5F5F5F5F5F5F5F5F5F5F5F5F5F5F5F5F5F5F5F5F5F5F5F5F5F5F5F5F5F5F5F5F5F5F5F5F5F5F5F5F5F5F5F5F5F5F5F5F5F5F5F5F5F5F5F5F5F5F5F5F5F5F5F5F5F5F5F5F5F5F5F5F5E2F5F5F5F5F5F5F5F5F5F5F5F5F5F5F5F5E2F5F5F5F5E2E2F5F5F5F5E2F5F5F5F5F5F5F5F5F5F5F5F5F5F5F5F5E2E2
310
E2E2E2E2E2E2E2E2F5F5F5F5F5F5F5E2F5F5F5F5F5F5F5F5F5F5F5F5F5F5F5F5F5F5F5F5F5F5F5F5F5F5F5F5F5F5F5F5F5F5F5F5F5F5F5F5F5F5F5F5F5F5F5F5F5F5F5F5F5F5F5F5F5F5F5F5F5F5F5F5F5F5F5F5F5F5F5F5F5F5F5F5F5F5F5F5F5F5F5F5F5F5F5F5F5F5F5F5F5F5F5F5F5F5F5F5F5F5F5F5F5F5F5F5F5F5F5
310
F5F5F5F5F5F5E2F5F5F5F5F5F5F5F5F5F5F5F5F5F5F5F5E2F5F5F5F5E2E2F5F5F5F5E2F5F5F5F5F5F5F5F5F5F5F5F5F5F5F5F5E2E2E2E2F5F5F5F5F5F5F5F5F5F5F5F5F5E2F5F5F5F5F5F5F5F5F5F5F5F5F5F5F5F5F5F5F5F5F5F5F5F5F5F5F5F5F5F5F5F5F5F5F5F5F5F5F5F5F5F5F5F5F5F5F5F5F5F5F5F5F5F5F5F5F5F5
310
F5F5F5F5F5F5F5F5F5F5F5F5F5F5F5F5F5F5F5F5F5F5F5F5F5F5F5F5F5F5F5F5F5F5F5F5F5F5F5F5F5F5F5F5F5F5F5F5F5F5F5F5F5F5F5F5F5F5F5E2F5F5F5F5F5F5F5F5F5F5F5F5F5F5F5F5E2F5F5F5F5E2E2F5F5F5F5E2F5F5F5F5F5F5F5F5F5F5F5F5F5F5F5F5E2E2E2E2F5F5F5F5F5F5F5F5F5F5F5F5F5E2F5F5F5F5F5
310
F5F5F5F5F5F5F5F5F5F5F5F5F5F5F5F5F5F5F5F5F5F5F5F5F5F5F5F5F5F5F5F5F5F5F5F5F5F5F5F5F5F5F5F5F5F5F5F5F5F5F5F5F5F5F5F5F5F5F5F5F5F5F5F5F5F5F5F5F5F5F5F5F5F5F5F5F5F5F5F5F5F5F5F5F5F5F5F5F5F5F5F5F5F5F5F5F5F5F5F5F5F5F5F5F5F5F5F5F5F5F5F5E2F5F5F5F5F5F5F5F5F5F5F5F5F5F5
310
F5F5E2F5F5F5F5E2E2F5F5F5F5E2F5F5F5F5F5F5F5F5F5F5F5F5F5F5F5F5E2F5F5F5F5F5F5F5F5F5F5F5F5F5F5F5F5E2F5F5F5F5F5F5F5F5F5F5F5F5F5F5F5F5F5F5F5F5F5F5F5F5F5F5F5F5F5F5F5F5F5F5F5F5F5F5F5F5F5F5F5F5F5F5F5F5F5F5F5F5F5F5F5F5F5F5F5F5F5F5F5F5F5F5F5F5F5F5F5F5F5F5F5F5F5F5F5
310
F5F5F5F5F5F5F5F5F5F5F5F5F5F5F5F5F5F5F5F5F5F5F5F5F5F5F5F5F5F5F5F5F5F5F5F5F5F5E2F5F5F5F5F5F5F5F5F5F5F5F5F5F5F5F5E2F5F5F5F5E2E2F5F5F5F5E2F5F5F5F5F5F5F5F5F5F5F5F5F5F5F5F5E2E2E2E2E2E2E2E2E2E2E2E2E2E2E2E2E2E2F5F5F5F5F5F5F5F5F5F5F5F5F5F5F5F5F5F5F5F5F5F5F5F5F5F5
310
F5F5F5F5F5F5F5F5F5F5F5F5F5F5F5F5F5F5F5F5F5F5F5F5F5F5F5F5F5F5F5F5F5F5F5F5F5F5F5F5F5F5F5F5F5F5F5F5F5F5F5F5F5F5F5F5F5F5F5F5F5F5F5F5F5F5F5F5F5F5F5F5F5F5F5F5F5F5F5F5F5F5F5F5F5F5F5F5F5F5F5E2F5F5F5F5F5F5F5F5F5F5F5F5F5F5F5F5E2F5F5F5F5E2E2F5F5F5F5E2F5F5F5F5F5F5F5
310
F5F5F5F5F5F5F5F5F5E2E2E2F5F5F5F5F5F5F5F5F5F5F5F5F5F5F5F5F5F5F5F5F5F5F5F5F5F5F5F5F5F5F5F5F5F5F5F5F5F5F5F5F5F5F5F5F5F5F5F5F5F5F5F5F5F5F5F5F5F5F5F5F5F5F5F5F5F5F5F5F5F5F5F5F5F5F5F5F5F5F5F5F5F5F5F5F5F5F5F5F5F5F5F5F5F5F5F5F5F5F5F5F5F5F5F5F5F5F5F5F5F5F5F5F5F5F5
310
F5F5F5F5F5F5F5F5F5F5F5F5F5F5F5F5F5E2F5F5F5F5F5F5F5F5F5F5F5F5F5F5F5F5E2F5F5F5F5E2E2F5F5F5F5E2F5F5F5F5F5F5F5F5F5F5F5F5F5F5F5F5E2E2E2F5F5F5F5F5F5F5F5F5F5F5F5F5F5F5F5F5F5F5F5F5F5F5F5F5F5F5F5F5F5F5F5F5F5F5F5F5F5F5F5F5F5F5F5F5F5F5F5F5F5F5F5F5F5F5F5F5F5F5F5F5F5
310
F5F5F5F5F5F5F5F5F5F5F5F5F5F5F5F5F5F5F5F5F5F5F5F5F5F5F5F5F5F5F5F5F5F5F5F5F5F5F5F5F5F5F5F5F5F5F5F5F5F5F5F5F5F5F5F5F5F5F5F5F5F5F5F5F5F5F5F5F5F5E2F5F5F5F5F5F5F5F5F5F5F5F5F5F5F5F5E2F5F5F5F5E2E2F5F5F5F5E2F5F5F5F5F5F5F5F5F5F5F5F5F5F5F5F5E2F5F5F5F5F5F5F5F5F5F5F5
310
F5F5F5F5F5F5F5F5F5F5F5F5F5F5F5F5F5F5F5F5F5F5F5F5F5F5F5F5F5F5F5F5F5F5F5F5F5F5F5F5F5F5F5F5F5F5F5F5F5F5F5F5F5F5F5F5F5F5F5F5F5F5F5F5F5F5F5F5F5F5F5F5F5F5F5F5F5F5F5F5F5F5F5F5F5F5F5F5F5F5F5F5F5F5F5F5F5F5F5F5F5F5F5F5F5F5F5F5F5F5F5F5F5F5F5F5F5F5F5F5F5F5F5E2F5F5F5
310
F5F5F5F5F5F5F5F5F5F5F5F5F5E2F5F5F5F5E2E2F5F5F5F5E2F5F5F5F5F5F5F5F5F5F5F5F5F5F5F5F5E20F0F0F0F0F0F0F0F0F0F0FF5F5F5F5F5F5F5F5F5F5F5F5F5F5F5F5F5F5F5F5F5F5F5F5F5F5F5F5F5F5F5F5F5F5F5F5F5F5F5F5F5F5F5F5F5F5F5F5F5F5F5F5F5F5F5F5F5F5F5F5F5F5F5F5F5F5F5F5F5F5F5F5F5F5
310
F5F5F5F5F5F5F5F5F5F5F5F5F5F5F5F5F5F5F5F5F5F5F5F5F5F5F5F5F5F5F5F5F5F5F5F5F5F5F5F5F5F5F5F5F5F5F5F5F5E2F5F5F5F5F5F5F5F5F5F5F5F5F5F5F5F5E2F5F5F5F5E2E2F5F5F5F5E2F5F5F5F5F5F5F5F5F5F5F5F5F5F5F5F5E20F0F0F0F0F0F0F0F0F0FF5F5F5F5F5F5F5F5F5F5F5F5F5F5F5F5F5F5F5F5F5F5
310
F5F5F5F5F5F5F5F5F5F5F5F5F5F5F5F5F5F5F5F5F5F5F5F5F5F5F5F5F5F5F5F5F5F5F5F5F5F5F5F5F5F5F5F5F5F5F5F5F5F5F5F5F5F5F5F5F5F5F5F5F5F5F5F5F5F5F5F5F5F5F5F5F5F5F5F5F5F5F5F5F5F5F5F5F5F5F5F5F5F5F5F5F5F5F5F5F5F5F5F5F5F5E2F5F5F5F5F5F5F5F5F5F5F5F5F5F5F5F5E2F5F5F5F5E2E2F5
310
F5F5F5E2F5F5F5F5F5F5F5F5F5F5F5F5F5F5F5F5E2F5F5F5F5F5F5F5F5F5F5F5F5F5F5F5F5F5F5F5F5F5F5F5F5F5F5F5F5F5F5F5F5F5F5F5F5F5F5F5F5F5F5F5F5F5F5F5F5F5F5F5F5F5F5F5F5F5F5F5F5F5F5F5F5F5F5F5F5F5F5F5F5F5F5F5F5F5F5F5F5F5F5F5F5F5F5F5F5F5F5F5F5F5F5F5F5F5F5F5F5F5F5F5F5F5F5
310
F5F5F5F5F5F5F5F5F5F5F5F5F5F5F5F5F5F5F5F5F5F5F5F5F5F5F5F5E2F5F5F5F5F5F5F5F5F5F5F5F5F5F5F5F5E2F5F5F5F5E2E2F5F5F5F5E2F5F5F5F5F5F5F5F5F5F5F5F5F5F5F5F5E2F5F5F5F5F5F5F5F5F5F5F5F5F5F5F5F5F5F5F5F5F5F5F5F5F5F5F5F5F5F5F5F5F5F5F5F5F5F5F5F5F5F5F5F5F5F5F5F5F5F5F5F5F5
310
F5F5F5F5F5F5F5F5F5F5F5F5F5F5F5F5F5F5F5F5F5F5F5F5F5F5F5F5F5F5F5F5F5F5F5F5F5F5F5F5F5F5F5F5F5F5F5F5F5F5F5F5F5F5F5F5F5F5F5F5F5F5F5F5F5F5F5F5F5F5F5F5F5F5F5F5F5F5F5F5F5E2F5F5F5F5F5F5F5F5F5F5F5F5F5F5F5F5E2F5F5F5F5E2E2F5F5F5F5E2F5F5F5F5F5F5F5F5F5F5F5F5F5F5F5F5E2
310
F5F5F5F5F5F5F5F5F5F5F5F5F5F5F5F5F5F5F5F5F5F5F5F5F5F5F5F5F5F5F5F5F5F5F5F5F5F5F5F5F5F5F5F5F5F5F5F5F5F5F5F5F5F5F5F5F5F5F5F5F5F5F5F5F5F5F5F5F5F5F5F5F5F5F5F5F5F5F5F5F5F5F5F5F5F5F5F5F5F5F5F5F5F5F5F5F5F5F5F5F5F5F5F5F5F5F5F5F5F5F5F5F5F5F5F5F5F5F5F5F5F5F5F5F5F5F5
310
F5F5F5F5F5F5F5E2F5F5F5F5F5F5F5F5F5F5F5F5F5F5F5F5E2F5F5F5F5E2E2F5F5F5F5E2F5F5F5F5F5F5F5F5F5F5F5F5F5F5F5F5E2F5F5F5F5F5F5F5F5F5F5F5F5F5F5F5F5F5F5F5F5F5F5F5F5F5F5F5F5F5F5F5F5F5F5F5F5F5F5F5F5F5F5F5F5F5F5F5F5F5F5F5F5F5F5F5F5F5F5F5F5F5F5F5F5F5F5F5F5F5F5F5F5F5F5
310
F5F5F5F5F5F5F5F5F5F5F5F5F5F5F5F5F5F5F5F5F5F5F5F5F5F5F5F5F5F5F5F5F5F5F5F5F5F5F5F5F5F5F5F5F5F5F5F5F5F5F5F5F5F5F5F5F5F5F5F5E2F5F5F5F5F5F5F5F5F5F5F5F5F5F5F5F5E2F5F5F5F5E2E2F5F5F5F5F5F5F5F5F5F5F5F5F5F5F5F5F5F5F5F5F5E2F5F5F5F5F5F5F5F5F5F5F5F5F5F5F5F5F5F5F5F5F5
310
F5F5F5F5F5F5F5F5F5F5F5F5F5F5F5F5F5F5F5F5F5F5F5F5F5F5F5F5F5F5F5F5F5F5F5F5F5F5F5F5F5F5F5F5F5F5F5F5F5F5F5F5F5F5F5F5F5F5F5F5F5F5F5F5F5F5F5F5F5F5F5F5F5F5F5F5F5F5F5F5F5F5F5F5F5F5F5F5F5F5F5F5F5F5F5F5F5F5F5F5F5F5F5F5F5F5F5F5F5F5F5F5F5E2F5F5F5F5F5F5F5F5F5F5F5F5F5
310
F5F5F5F5F5F5F5F5E2E2F5F5F5F5F5F5F5F5F5F5F5F5F5F5F5F5F5F5F5F5F5E2F5F5F5F5F5F5F5F5F5F5F5F5F5F5F5F5F5F5F5F5F5F5F5F5F5F5F5F5F5F5F5F5F5F5F5F5F5F5F5F5F5F5F5F5F5F5F5F5F5F5F5F5F5F5F5F5F5F5F5F5F5F5F5F5F5F5F5F5F5F5F5F5F5F5F5F5F5F5F5F5F5F5F5F5F5F5F5F5F5F5F5F5F5F5F5
310
F5F5F5F5F5F5F5F5F5F5F5F5F5F5F5F5F5F5F5F5F5F5F5F5F5F5F5F5F5F5F5F5F5F5F5F5F5F5F5E2F5F5F5F5F5F5F5F5F5F5F5F5F5F5F5F5F5F5F5F5F5E2E2F5F5F5F5F5F5F5F5F5F5F5F5F5F5F5F5F5F5F5F5F5E2F5F5F5F5F5F5F5F5F5F5F5F5F5F5F5F5F5F5F5F5F5F5F5F5F5F5F5F5F5F5F5F5F5F5F5F5F5F5F5F5F5F5
310
F5F5F5F5F5F5F5F5F5F5F5F5F5F5F5F5F5F5F5F5F5F5F5F5F5F5F5F5F5F5F5F5F5F5F5F5F5F5F5F5F5F5F5F5F5F5F5F5F5F5F5F5F5F5F5F5F5F5F5F5F5F5F5F5F5F5F5F5F5F5F5F5F5F5F5F5F5F5F5F5F5F5F5F5F5F5F5F5F5F5F5F5E2F5F5F5F5F5F5F5F5F5F5F5F5F5F5F5F5F5F5F5F5F5E2E2F5F5F5F5F5F5F5F5F5F5F5
310
F5F5F5F5F5F5F5F5F5F5E2F5F5F5F5F5F5F5F5F5F5F5F5F5F5F5F5F5F5F5F5F5F5F5F5F5F5F5F5F5F5F5F5F5F5F5F5F5F5F5F5F5F5F5F5F5F5F5F5F5F5F5F5F5F5F5F5F5F5F5F5F5F5F5F5F5F5F5F5F5F5F5F5F5F5F5F5F5F5F5F5F5F5F5F5F5F5F5F5F5F5F5F5F5F5F5F5F5F5F5F5F5F5F5F5F5F5F5F5F5F5F5F5F5F5F5F5
310
F5F5F5F5F5F5F5F5F5F5F5F5F5F5F5F5F5F5E2F5F5F5F5F5F5F5F5F5F5F5F5F5F5F5F5F5F5F5F5F5E2E2F5F5F5F5F5F5F5F5F5F5F5F5F5F5F5F5F5F5F5F5F5E2F5F5F5F5F5F5F5F5F5F5F5F5F5F5F5F5F5F5F5F5F5F5F5F5F5F5F5F5F5F5F5F5F5F5F5F5F5F5F5F5F5F5F5F5F5F5F5F5F5F5F5F5F5F5F5F5F5F5F5F5F5F5F5
310
F5F5F5F5F5F5F5F5F5F5F5F5F5F5F5F5F5F5F5F5F5F5F5F5F5F5F5F5F5F5F5F5F5F5F5F5F5F5F5F5F5F5F5F5F5F5F5F5F5F5F5F5F5F5F5F5F5F5F5F5F5F5F5F5F5F5F5F5F5F5F5E2F5F5F5F5F5F5F5F5F5F5F5F5F5F5F5F5F5F5F5F5F5E2E2F5F5F5F5F5F5F5F5F5F5F5F5F5F5F5F5F5F5F5F5F5E2F5F5F5F5F5F5F5F5F5F5
310
F5F5F5F5F5F5F5F5F5F5F5F5F5F5F5F5F5F5F5F5F5F5F5F5F5F5F5F5F5F5F5F5F5F5F5F5F5F5F5F5F5F5F5F5F5F5F5F5F5F5F5F5F5F5F5F5F5F5F5F5F5F5F5F5F5F5F5F5F5F5F5F5F5F5F5F5F5F5F5F5F5F5F5F5F5F5F5F5F5F5F5F5F5F5F5F5F5F5F5F5F5F5F5F5F5F5F5F5F5F5F5F5F5F5F5F5F5F5F5F5F5F5F5F5E2F5F5
310
F5F5F5F5F5F5F5F5F5F5F5F5F5F5F5F5F5F5F5E2E2F5F5F5F5F5F5F5F5F5F5F5F5F5F5F5F5F5F5F5F5F5E2F5F5F5F5F5F5F5F5F5F5F5F5F5F5F5F5F5F5F5F5F5F5F5F5F5F5F5F5F5F5F5F5F5F5F5F5F5F5F5F5F5F5F5F5F5F5F5F5F5F5F5F5F5F5F5F5F5F5F5F5F5F5F5F5F5F5F5F5F5F5F5F5F5F5F5F5F5F5F5F5F5F5F5F5
310
F5F5F5F5F5F5F5F5F5F5F5F5F5F5F5F5F5F5F5F5F5F5F5F5F5F5F5F5F5F5F5F5F5F5F5F5F5F5F5F5F5F5F5F5F5F5F5F5F5F5E2F5F5F5F5F5F5F5F5F5F5F5F5F5F5F5F5F5F5F5F5F5E2E2F5F5F5F5F5F5F5F5F5F5F5F5F5F5F5F5F5F5F5F5F5E2F5F5F5F5F5F5F5F5F5F5F5F5F5F5F5F5F5F5F5F5F5F5F5F5F5F5F5F5F5F5F5
310
F5F5F5F5F5F5F5F5F5F5F5F5F5F5F5F5F5F5F5F5F5F5F5F5F5F5F5F5F5F5F5F5F5F5F5F5F5F5F5F5F5F5F5F5F5F5F5F5F5F5F5F5F5F5F5F5F5F5F5F5F5F5F5F5F5F5F5F5F5F5F5F5F5F5F5F5F5F5F5F5F5F5F5F5F5F5F5F5F5F5F5F5F5F5F5F5F5F5F5F5F5F5F5E2F5F5F5F5F5F5F5F5F5F5F5F5F5F5F5F5F5F5F5F5F5E2E2
310
F5F5F5F5F5F5F5F5F5F5F5F5F5F5F5F5F5F5F5F5F5E2F5F5F5F5F5F5F5F5F5F5F5F5F5F5F5F5F5F5F5F5F5F5F5F5F5F5F5F5F5F5F5F5F5F5F5F5F5F5F5F5F5F5F5F5F5F5F5F5F5F5F5F5F5F5F5F5F5F5F5F5F5F5F5F5F5F5F5F5F5F5F5F5F5F5F5F5F5F5F5F5F5F5F5F5F5F5F5F5F5F5F5F5F5F5F5F5F5F5F5F5F5F5F5F5F5
310
F5F5F5F5F5F5F5F5F5F5F5F5F5F5F5F5F5F5F5F5F5F5F5F5F5F5F5F5F5E2F5F5F5F5F5F5F5F5F5F5F5F5F5F5F5F5F5F5F5F5F5E2E2F5F5F5F5F5F5F5F5F5F5F5F5F5F5F5F5F5F5F5F5F5E2F5F5F5F5F5F5F5F5F5F5F5F5F5F5F5F5F5F5F5F5F5F5F5F5F5F5F5F5F5F5F5F5F5F5F5F5F5F5F5F5F5F5F5F5F5F5F5F5F5F5F5F5
310
F5F5F5F5F5F5F5F5F5F5F5F5F5F5F5F5F5F5F5F5F5F5F5F5F5F5F5F5F5F5F5F5F5F5F5F5F5F5F5F5F5F5F5F5F5F5F5F5F5F5F5F5F5F5F5F5F5F5F5F5F5F5F5F5F5F5F5F5F5F5F5F5F5F5F5F5F5F5F5F5F5F5E2F5F5F5F5F5F5F5F5F5F5F5F5F5F5F5F5F5F5F5F5F5E2E2F5F5F5F5E2F5F5F5F5F5F5F5F5F5F5F5F5F5F5F5F5
310
E2F5F5F5F5F5F5F5F5F5F5F5F5F5F5F5F5F5F5F5F5F5F5F5F5F5F5F5F5F5F5F5F5F5F5F5F5F5F5F5F5F5F5F5F5F5F5F5F5F5F5F5F5F5F5F5F5F5F5F5F5F5F5F5F5F5F5F5F5F5F5F5F5F5F5F5F5F5F5F5F5F5F5F5F5F5F5F5F5F5F5F5F5F5F5F5F5F5F5F5F5F5F5F5F5F5F5F5F5F5F5F5F5F5F5F5F5F5F5F5F5F5F5F5F5F5F5
310
F5F5F5F5F5F5F5F5E2F5F5F5F5F5F5F5F5F5F5F5F5F5F5F5F5E2F5F5F5F5E2E2F5F5F5F5E2F5F5F5F5F5F5F5F5F5F5F5F5F5F5F5F5E2F5F5F5F5F5F5F5F5F5F5F5F5F5F5F5F5F5F5F5F5F5F5F5F5F5F5F5F5F5F5F5F5F5F5F5F5F5F5F5F5F5F5F5F5F5F5F5F5F5F5F5F5F5F5F5F5F5F5F5F5F5F5F5F5F5F5F5F5F5F5F5F5F5
310
F5F5F5F5F5F5F5F5F5F5F5F5F5F5F5F5F5F5F5F5F5F5F5F5F5F5F5F5F5F5F5F5F5F5F5F5F5F5F5F5F5F5F5F5F5F5F5F5F5F5F5F5F5F5F5F5F5F5F5F5F5E2F5F5F5F5F5F5F5F5F5F5F5F5F5F5F5F5E2F5F5F5F5E2E2F5F5F5F5E2F5F5F5F5F5F5F5F5F5F5F5F5F5F5F5F5E2F5F5F5F5F5F5F5F5F5F5F5F5F5F5F5F5F5F5F5F5
310
F5F5F5F5F5F5F5F5F5F5F5F5F5F5F5F5F5F5F5F5F5F5F5F5F5F5F5F5F5F5F5F5F5F5F5F5F5F5F5F5F5F5F5F5F5F5F5F5F5F5F5F5F5F5F5F5F5F5F5F5F5F5F5F5F5F5F5F5F5F5F5F5F5F5F5F5F5F5F5F5F5F5F5F5F5F5F5F5F5F5F5F5F5F5F5F5F5F5F5F5F5F5F5F5F5F5F5F5F5F5F5F5F5F5E2F5F5F5F5F5F5F5F5F5F5F5F5
310
F5F5F5F5E2F5F5F5F5E2E2F5F5F5F5E2F5F5F5F5F5F5F5F5F5F5F5F5F5F5F5F5E2F5F5F5F5F5F5F5F5F5F5F5F5F5F5F5F5F5F5F5F5F5F5F5F5F5F5F5F5F5F5F5F5F5F5F5F5F5F5F5F5F5F5F5F5F5F5F5F5F5F5F5F5F5F5F5F5F5F5F5F5F5F5F5F5F5F5F5F5F5F5F5F5F5F5F5F5F5F5F5F5F5F5F5F5F5F5F5F5F5F5F5F5F5F5
310
F5F5F5F5F5F5F5F5F5F5F5F5F5F5F5F5F5F5F5F5F5F5F5F5F5F5F5F5F5F5F5F5F5F5F5F5F5F5F5F5E2F5F5F5F5F5F5F5F5F5F5F5F5F5F5F5F5E2F5F5F5F5E2E2F5F5F5F5E2F5F5F5F5F5F5F5F5F5F5F5F5F5F5F5F5E2F5F5F5F5F5F5F5F5F5F5F5F5F5F5F5F5F5F5F5F5F5F5F5F5F5F5F5F5F5F5F5F5F5F5F5F5F5F5F5F5F5
310
F5F5F5F5F5F5F5F5F5F5F5F5F5F5F5F5F5F5F5F5F5F5F5F5F5F5F5F5F5F5F5F5F5F5F5F5F5F5F5F5F5F5F5F5F5F5F5F5F5F5F5F5F5F5F5F5F5F5F5F5F5F5F5F5F5F5F5F5F5F5F5F5F5F5F5F5F5F5F5F5F5F5F5F5F5F5F5F5F5F5F5F5F5E2F5F5F5F5F5F5F5F5F5F5F5F5F5F5F5F5E2F5F5F5F5E2E2F5F5F5F5E2F5F5F5F5F5
310
F5F5F5F5F5F5F5F5F5F5F5E2F5F5F5F5F5F5F5F5F5F5F5F5F5F5F5F5F5F5F5F5F5F5F5F5F5F5F5F5F5F5F5F5F5F5F5F5F5F5F5F5F5F5F5F5F5F5F5F5F5F5F5F5F5F5F5F5F5F5F5F5F5F5F5F5F5F5F5F5F5F5F5F5F5F5F5F5F5F5F5F5F5F5F5F5F5F5F5F5F5F5F5F5F5F5F5F5F5F5F5F5F5F5F5F5F5F5F5F5F5F5F5F5F5F5F5
310
F5F5F5F5F5F5F5F5F5F5F5F5F5F5F5F5F5F5F5E2F5F5F5F5F5F5F5F5F5F5F5F5F5F5F5F5E2F5F5F5F5E2E2F5F5F5F5E2F5F5F5F5F5F5F5F5F5F5F5F5F5F5F5F5E2F5F5F5F5F5F5F5F5F5F5F5F5F5F5F5F5F5F5F5F5F5F5F5F5F5F5F5F5F5F5F5F5F5F5F5F5F5F5F5F5F5F5F5F5F5F5F5F5F5F5F5F5F5F5F5F5F5F5F5F5F5F5
310
F5F5F5F5F5F5F5F5F5F5F5F5F5F5F5F5F5F5F5F5F5F5F5F5F5F5F5F5F5F5F5F5F5F5F5F5F5F5F5F5F5F5F5F5F5F5F5F5F5F5F5F5F5F5F5F5F5F5F5F5F5F5F5F5F5F5F5F5F5F5F5F5E2F5F5F5F5F5F5F5F5F5F5F5F5F5F5F5F5E2F5F5F5F5E2E2F5F5F5F5E2F5F5F5F5F5F5F5F5F5F5F5F5F5F5F5F5E2F5F5F5F5F5F5F5F5F5
310
F5F5F5F5F5F5F5F5F5F5F5F5F5F5F5F5F5F5F5F5F5F5F5F5F5F5F5F5F5F5F5F5F5F5F5F5F5F5F5F5F5F5F5F5F5F5F5F5F5F5F5F5F5F5F5F5F5F5F5F5F5F5F5F5F5F5F5F5F5F5F5F5F5F5F5F5F5F5F5F5F5F5F5F5F5F5F5F5F5F5F5F5F5F5F5F5F5F5F5F5F5F5F5F5F5F5F5F5F5F5F5F5F5F5F5F5F5F5F5F5F5F5F5F5F5E2F5
310
F5F5F5F5F5F5F5F5F5F5F5F5F5F5F5E2F5F5F5F5E2E2F5F5F5F5E2F5F5F5F5F5F5F5F5F5F5F5F5F5F5F5F5E2F5F5F5F5F5F5F5F5F5F5F5F5F5F5F5F5F5F5F5F5F5F5F5F5F5F5F5F5F5F5F5F5F5F5F5F5F5F5F5F5F5F5F5F5F5F5F5F5F5F5F5F5F5F5F5F5F5F5F5F5F5F5F5F5F5F5F5F5F5F5F5F5F5F5F5F5F5F5F5F5F5F5F5
310
F5F5F5F5F5F5F5F5F5F5F5F5F5F5F5F5F5F5F5F5F5F5F5F5F5F5F5F5F5F5F5F5F5F5F5F5F5F5F5F5F5F5F5F5F5F5F5F5F5F5F5E2F5F5F5F5F5F5F5F5F5F5F5F5F5F5F5F5E2F5F5F5F5E2E2F5F5F5F5E2F5F5F5F5F5F5F5F5F5F5F5F5F5F5F5F5E2F5F5F5F5F5F5F5F5F5F5F5F5F5F5F5F5F5F5F5F5F5F5F5F5F5F5F5F5F5F5
310
F5F5F5F5F5F5F5F5F5F5F5F5F5F5F5F5F5F5F5F5F5F5F5F5F5F5F5F5F5F5F5F5F5F5F5F5F5F5F5F5F5F5F5F5F5F5F5F5F5F5F5F5F5F5F5F5F5F5F5F5F5F5F5F5F5F5F5F5F5F5F5F5F5F5F5F5F5F5F5F5F5F5F5F5F5F5F5F5F5F5F5F5F5F5F5F5F5F5F5F5F5F5F5F5E2F5F5F5F5F5F5F5F5F5F5F5F5F5F5F5F5E2F5F5F5F5E2
310
E2F5F5F5F5E2F5F5F5F5F5F5F5F5F5F5F5F5F5F5F5F5E2F5F5F5F5F5F5F5F5F5F5F5F5F5F5F5F5F5F5F5F5F5F5F5F5F5F5F5F5F5F5F5F5F5F5F5F5F5F5F5F5F5F5F5F5F5F5F5F5F5F5F5F5F5F5F5F5F5F5F5F5F5F5F5F5F5F5F5F5F5F5F5F5F5F5F5F5F5F5F5F5F5F5F5F5F5F5F5F5F5F5F5F5F5F5F5F5F5F5F5F5F5F5F5F5
310
F5F5F5F5F5F5F5F5F5F5F5F5F5F5F5F5F5F5F5F5F5F5F5F5F5F5F5F5F5F5E2F5F5F5F5F5F5F5F5F5F5F5F5F5F5F5F5E2F5F5F5F5E2E2F5F5F5F5E2F5F5F5F5F5F5F5F5F5F5F5F5F5F5F5F5E2F5F5F5F5F5F5F5F5F5F5F5F5F5F5F5F5F5F5F5F5F5F5F5F5F5F5F5F5F5F5F5F5F5F5F5F5F5F5F5F5F5F5F5F5F5F5F5F5F5F5F5
310
F5F5F5F5F5F5F5F5F5F5F5F5F5F5F5F5F5F5F5F5F5F5F5F5F5F5F5F5F5F5F5F5F5F5F5F5F5F5F5F5F5F5F5F5F5F5F5F5F5F5F5F5F5F5F5F5F5F5F5F5F5F5F5F5F5F5F5F5F5F5F5F5F5F5F5F5F5F5F5F5F5F5F5E2F5F5F5F5F5F5F5F5F5F5F5F5F5F5F5F5E2F5F5F5F5E2E2F5F5F5F5E2F5F5F5F5F5F5F5F5F5F5F5F5F5F5F5
310
F5E2F5F5F5F5F5F5F5F5F5F5F5F5F5F5F5F5F5F5F5F5F5F5F5F5F5F5F5F5F5F5F5F5F5F5F5F5F5F5F5F5F5F5F5F5F5F5F5F5F5F5F5F5F5F5F5F5F5F5F5F5F5F5F5F5F5F5F5F5F5F5F5F5F5F5F5F5F5F5F5F5F5F5F5F5F5F5F5F5F5F5F5F5F5F5F5F5F5F5F5F5F5F5F5F5F5F5F5F5F5F5F5F5F5F5F5F5F5F5F5F5F5F5F5F5F5
310
F5F5F5F5F5F5F5F5F5E2F5F5F5F5F5F5F5F5F5F5F5F5F5F5F5F5E2F5F5F5F5E2E2F5F5F5F5E2F5F5F5F5F5F5F5F5F5F5F5F5F5F5F5F5E2F5F5F5F5F5F5F5F5F5F5F5F5F5F5F5F5F5F5F5F5F5F5F5F5F5F5F5F5F5F5F5F5F5F5F5F5F5F5F5F5F5F5F5F5F5F5F5F5F5F5F5F5F5F5F5F5F5F5F5F5F5F5F5F5F5F5F5F5F5F5F5F5
310
F5F5F5F5F5F5F5F5F5F5F5F5F5F5F5F5F5F5F5F5F5F5F5F5F5F5F5F5F5F5F5F5F5F5F5F5F5F5F5F5F5F5F5F5F5F5F5F5F5F5F5F5F5F5F5F5F5F5F5F5F5F5E2F5F5F5F5F5F5F5F5F5F5F5F5F5F5F5F5E2F5F5F5F5E2E2F5F5F5F5E2F5F5F5F5F5F5F5F5F5F5F5F5F5F5F5F5E2F5F5F5F5F5F5F5F5F5F5F5F5F5F5F5F5F5F5F5
310
F5F5F5F5F5F5F5F5F5F5F5F5F5F5F5F5F5F5F5F5F5F5F5F5F5F5F5F5F5F5F5F5F5F5F5F5F5F5F5F5F5F5F5F5F5F5F5F5F5F5F5F5F5F5F5F5F5F5F5F5F5F5F5F5F5F5F5F5F5F5F5F5F5F5F5F5F5F5F5F5F5F5F5F5F5F5F5F5F5F5F5F5F5F5F5F5F5F5F5F5F5F5F5F5F5F5F5F5F5F5F5F5F5F5F5E2F5F5F5F5F5F5F5F5F5F5F5
310
F5F5F5F5F5E2F5F5F5F5E2E2F5F5F5F5E2F5F5F5F5F5F5F5F5F5F5F5F5F5F5F5F5E2F5F5F5F5F5F5F5F5F5F5F5F5F5F5F5F5F5F5F5F5F5F5F5F5F5F5F5F5F5F5F5F5F5F5F5F5F5F5F5F5F5F5F5F5F5F5F5F5F5F5F5F5F5F5F5F5F5F5F5F5F5F5F5F5F5F5F5F5F5F5F5F5F5F5F5F5F5F5F5F5F5F5F5F5F5F5F5F5F5F5F5F5F5
310
F5F5F5F5F5F5F5F5F5F5F5F5F5F5F5F5F5F5F5F5F5F5F5F5F5F5F5F5F5F5F5F5F5F5F5F5F5F5F5F5F5E2F5F5F5F5F5F5F5F5F5F5F5F5F5F5F5F5E2F5F5F5F5E2E2F5F5F5F5F5F5F5F5F5F5F5F5F5F5F5F5F5F5F5F5F5E2F5F5F5F5F5F5F5F5F5F5F5F5F5F5F5F5F5F5F5F5F5F5F5F5F5F5F5F5F5F5F5F5F5F5F5F5F5F5F5F5
310
F5F5F5F5F5F5F5F5F5F5F5F5F5F5F5F5F5F5F5F5F5F5F5F5F5F5F5F5F5F5F5F5F5F5F5F5F5F5F5F5F5F5F5F5F5F5F5F5F5F5F5F5F5F5F5F5F5F5F5F5F5F5F5F5F5F5F5F5F5F5F5F5F5F5F5F5F5F5F5F5F5F5F5F5F5F5F5F5F5F5F5F5F5F5E2F5F5F5F5F5F5F5F5F5F5F5F5F5F5F5F5F5F5F5F5F5E2E2F5F5F5F5F5F5F5F5F5
310
F5F5F5F5F5F5F5F5F5F5F5F5E2F5F5F5F5F5F5F5F5F5F5F5F5F5F5F5F5F5F5F5F5F5F5F5F5F5F5F5F5F5F5F5F5F5F5F5F5F5F5F5F5F5F5F5F5F5F5F5F5F5F5F5F5F5F5F5F5F5F5F5F5F5F5F5F5F5F5F5F5F5F5F5F5F5F5F5F5F5F5F5F5F5F5F5F5F5F5F5F5F5F5F5F5F5F5F5F5F5F5F5F5F5F5F5F5F5F5F5F5F5F5F5F5F5F5
310
F5F5F5F5F5F5F5F5F5F5F5F5F5F5F5F5F5F5F5F5E2F5F5F5F5F5F5F5F5F5F5F5F5F5F5F5F5F5F5F5F5F5E2E2F5F5F5F5F5F5F5F5F5F5F5F5F5F5F5F5F5F5F5F5F5E2F5F5F5F5F5F5F5F5F5F5F5F5F5F5F5F5F5F5F5F5F5F5F5F5F5F5F5F5F5F5F5F5F5F5F5F5F5F5F5F5F5F5F5F5F5F5F5F5F5F5F5F5F5F5F5F5F5F5F5F5F5
310
F5F5F5F5F5F5F5F5F5F5F5F5F5F5F5F5F5F5F5F5F5F5F5F5F5F5F5F5F5F5F5F5F5F5F5F5F5F5F5F5F5F5F5F5F5F5F5F5F5F5F5F5F5F5F5F5F5F5F5F5F5F5F5F5F5F5F5F5F5F5F5F5F5E2F5F5F5F5F5F5F5F5F5F5F5F5F5F5F5F5F5F5F5F5F5E2E2F5F5F5F5F5F5F5F5F5F5F5F5F5F5F5F5F5F5F5F5F5E2F5F5F5F5F5F5F5F5
310
F5F5F5F5F5F5F5F5F5F5F5F5F5F5F5F5F5F5F5F5F5F5F5F5F5F5F5F5F5F5F5F5F5F5F5F5F5F5F5F5F5F5F5F5F5F5F5F5F5F5F5F5F5F5F5F5F5F5F5F5F5F5F5F5F5F5F5F5F5F5F5F5F5F5F5F5F5F5F5F5F5F5F5F5F5F5F5F5F5F5F5F5F5F5F5F5F5F5DCF5F5F5F5F5F5F5F5F5F5F5F5F5F5F5F5F5F5F5F5F5F5F5F5F5F5F5E2
310
F5F5F5F5F5F5F5F5F5F5F5F5F5F5F5F5F5F5F5F5F5E2E2F5F5F5F5F5F5F5F5F5F5F5F5F5F5F5F5F5F5F5F5F5E2F5F5F5F5F5F5F5F5F5F5F5F5F5F5F5F5F5F5F5F5F5F5F5F5F5F5F5F5F5F5F5F5F5F5F5F5F5F5F5F5F5F5F5F5F5F5F5F5F5F5F5F5F5F5F5F5F5F5F5F5F5F5F5F5F5F5F5F5F5F5F5F5F5F5F5F5F5F5F5F5F5E2
310
ECE2E2E2E2E2E2E2E2E2E2E2E2E2E2E2E2E2E2E2E2E2E2E2DCE2E2E2E2E2E2E2E2E2E2E2E2E2E2E2E2E2E2E2E2E2E2E2ECE2F5F5E2F5F5F5F5F5F5F5F5F5F5F5F5F5F5F5F5F5F5F5F5F5E2E2F5F5F5F5F5F5F5F5F5F5F5F5F5F5F5F5F5F5F5F5F5E2F5F5F5F5F5F5F5F5F5F5F5F5F5F5F5F5F5F5F5F5F5F5F5F5F5F5F5F5F5
310
F5F5F5F5F5F5F5F5F5F5F5F5F5F5F5F5F5F5F5F5F5F5F5F5F5F5F5F5F5F5F5F5F5F5F5F5F5F5F5F5F5F5F5F5F5F5F5F5F5F5F5E2F5F5ECF5F5F5F5F5F5F5F5F5F5F5F5F5F5F5F5F5F5F5F5F5F5DCF5F5F5F5F5F5F5F5F5F5F5F5F5F5F5F5F5F5F5F5F5F5ECF5F5E2F5E2F5F5F5F5F5F5F5F5F5F5F5F5F5F5F5F5F5F5F5F5F5
310
E2E2F5F5F5F5F5F5F5F5F5F5F5F5F5F5F5F5F5F5F5F5F5E2F5F5F5F5F5F5F5F5F5F5F5F5F5F5F5F5F5F5F5F5F5F5F5F5F5F5F5F5F5F5F5F5F5F5F5F5F5F5F5F5F5F5F5F5F5F5F5F5F5F5F5F5F5F5F5F5F5F5F5F5F5F5F5F5F5F5F5F5F5F5F5F5F5F5F5F5F5F5F5E2F5F5F5F5ECF5F5F5F5F5F5F5F5F5F5F5F5F5F5F5F5F5F5
310
F5F5F5DCF5F5F5F5F5F5F5F5F5F5F5F5F5F5F5F5F5F5F5F5F5ECF5F5F5F5E2E2F5F5F5F5F5F5F5F5F5F5F5F5F5F5F5F5F5F5F5F5F5E2E2F5F5F5F5F5F5F5F5F5F5F5F5F5F5F5F5F5F5F5F5F5E2F5F5F5F5F5F5F5F5F5F5F5F5F5F5F5F5F5F5F5F5F5F5F5F5F5F5F5F5F5F5F5F5F5F5F5F5F5F5F5F5F5F5F5F5F5F5F5F5F5F5
310
F5F5F5F5F5F5F5F5F5F5F5F5F5F5F5F5F5F5F5F5F5F5F5F5F5F5F5F5E2E2E2E2E2E2ECE2E2E2E2E2E2E2E2E2ECECECECECECE2ECECECECECDCECECECECECE2ECECECECECECE2E2E2E2E2E2E2E2ECE2E2E2E2E2E2E2F5F5F5F5F5F5F5F5F5F5F5F5F5F5F5F5F5F5F5F5F5E2E2F5F5F5F5F5F5F5F5F5F5F5F5F5F5F5F5F5F5F5
310
F5F5E2F5F5F5F5F5F5F5F5F5F5F5F5F5F5F5F5F5F5F5F5F5F5F5F5F5F5F5F5F5F5F5F5F5F5F5F5F5F5F5F5F5F5F5F5F5F5F5F5F5F5F5F5F5F5F5F5F5F5F5F5F5F5F5F5F5F5F5F5F5F5F5F5F5F5F5F5F5F5E2F5F5F5F5F5F5F5F5F5F5F5F5F5F5F5ECF5F5F5F5F5F5F5F5F5F5F5DCF5F5F5F5F5F5F5F5F5F5ECF5F5F5F5F5F5
310
F5F5F5F5F5F5F5F5F5E2E2F5F5F5F5F5F5F5F5F5F5F5F5F5F5F5F5F5F5F5F5F5E2E2F5F5F5F5E2F5F5F5F5F5F5F5F5F5F5F5F5F5F5F5F5E2F5F5F5F5F5F5F5F5F5F5F5F5F5F5F5F5F5F5F5F5F5F5F5F5F5F5F5F5F5F5F5F5F5F5F5F5F5F5F5F5F5F5F5F5F5F5F5F5F5F5F5F5F5F5F5F5F5F5F5F5F5F5F5F5F5F5F5F5F5F5F5
310
F5F5F5F5F5F5F5E2F5F5F5F5F5F5F5F5F5F5F5F5F5F5F5ECECECECECECECECECECECECECECECECECECECECECECECECF5F5F5F5F5F5F5F5F5F5F5F5F5F5F5E2E2F5F5F5F5F5F5F5F5F5F5F5F5F5F5F5F5E2F5F5F5F5E2E2F5F5F5F5E2F5F5F5F5F5F5F5F5F5F5F5F5F5F5F5F5E2F5F5F5F5F5F5F5F5F5F5F5F5F5F5F5F5F5F5
310
F5F5F5F5F5F5F5F5F5F5F5F5F5F5F5F5F5F5F5F5F5F5F5F5F5F5F5F5F5F5F5F5F5F5F5F5F5F5F5F5F5F5F5F5F5F5F5F5F5F5F5F5F5F5F5F5F5F5F5F5F5E2F5F5F5F5F5F5F5F5F5F5F5F5F5F5F5F5F5F5F5ECF5F5F5F5F5F5DCF5F5F5F5F5ECF5F5F5F5F5F5F5F5F5F5F5F5F5F5F5F5F5F5F5F5E2E2F5F5F5F5F5F5F5F5F5F5
310
F5F5F5F5F5F5E2F5F5F5F5E2E2F5F5F5F5E2F5F5F5F5F5F5F5F5F5F5F5F5F5F5F5F5E2F5F5F5F5F5F5F5F5F5F5F5F5F5F5F5F5F5F5F5F5F5F5F5F5F5F5F5F5F5F5F5F5F5F5F5F5F5F5F5F5F5F5F5F5F5F5F5F5F5F5F5F5F5F5F5F5F5F5F5F5F5F5F5F5F5F5F5F5F5F5F5F5F5F5F5F5F5F5F5F5E2F5F5F5F5F5F5F5F5F5F5F5
310
F5F5F5F5F5ECECECECECECF5ECECECECECF5ECECECECECF5F5F5F5F5F5F5F5F5F5F5F5F5F5F5F5F5E2F5E2F5F5F5F5F5F5F5F5F5F5F5F5F5F5F5F5E2F5F5F5F5E2E2F5F5F5F5E2F5F5F5F5F5F5F5F5F5F5F5F5F5F5F5F5E2F5F5F5F5F5F5F5F5F5F5F5F5F5F5F5F5F5F5F5F5F5F5F5F5F5F5F5F5F5F5F5F5F5F5F5F5F5F5F5
310
F5F5F5F5F5F5F5F5F5F5F5F5F5F5F5F5F5F5F5F5F5F5F5F5F5F5F5F5F5F5F5F5F5F5F5F5F5F5F5F5F5F5E2E2F5F5F5F5F5F5F5F5F5F5F5F5F5F5ECF5F5F5F5F5F5F5F5DCF5F5F5F5F5F5F5ECF5F5F5F5F5F5F5F5F5F5F5F5F5F5F5E2E2F5F5E2F5F5F5F5F5F5F5F5F5F5F5F5F5F5F5F5E2F5F5F5F5E2E2F5F5F5F5E2F5F5F5
310
F5F5F5F5F5F5F5F5F5F5F5F5F5E2F5F5F5F5F5F5F5F5F5F5F5F5F5F5F5F5F5F5F5F5F5F5F5F5F5F5F5F5F5F5F5F5F5F5F5F5F5F5F5F5F5F5F5F5F5F5F5F5F5F5F5F5F5F5F5F5F5F5F5F5F5F5F5F5F5F5F5F5F5F5F5F5F5F5F5F5F5F5F5F5F5F5F5E2F5F5F5F5F5F5F5F5F5F5F5F5F5ECF5F5F5F5F5F5F5F5DCF5F5F5F5F5F5
310
F5ECF5F5F5F5F5F5F5F5F5F5F5F5F5E2E2F5F5F5F5E2F5F5F5F5F5F5F5F5F5F5F5F5F5F5F5F5E2F5F5F5F5E2E2F5F5F5F5E2F5F5F5F5F5F5F5F5F5F5F5F5F5F5F5F5E2F5F5F5F5F5F5F5F5F5F5F5F5F5F5F5F5F5F5F5F5F5F5F5F5F5F5F5F5F5F5F5F5F5F5F5F5F5F5F5F5F5F5F5F5F5F5F5F5F5F5F5F5F5F5F5F5F5F5F5F5
310
F5F5F5F5F5F5F5F5F5F5F5F5F5F5F5F5F5F5F5F5F5F5F5F5E2E2F5F5F5F5F5F5F5F5F5F5F5ECF5F5F5F5F5F5F5F5DCF5F5F5F5F5F5F5ECF5F5F5F5F5F5F5F5F5F5F5F5E2F5F5F5F5F5F5E2F5F5F5F5F5F5F5F5F5F5F5F5F5F5F5F5E2F5F5F5F5E2E2F5F5F5F5E2F5F5F5F5F5F5F5F5F5F5F5F5F5F5F5F5E2F5F5F5F5F5F5F5
310
F5F5F5F5F5F5F5F5F5F5F5F5F5F5F5F5F5F5F5F5F5F5F5F5F5F5F5F5F5F5F5F5F5F5F5F5F5F5F5F5F5F5F5F5F5F5F5F5F5F5F5F5F5F5F5F5F5F5F5F5F5F5F5F5F5F5F5F5F5F5F5F5F5F5F5F5F5F5F5E2F5F5F5F5F5F5F5F5F5F5ECF5F5F5F5F5F5F5F5DCF5F5F5F5F5F5F5ECF5F5F5F5F5F5F5F5F5F5E2E2F5F5F5F5F5F5F5
310
E2F5F5F5F5F5F5F5F5F5F5F5F5F5F5F5F5E2F5F5F5F5E2E2F5F5F5F5E2F5F5F5F5F5F5F5F5F5F5F5F5F5F5F5F5E2F5F5F5F5F5F5F5F5F5F5F5F5F5F5F5F5F5F5F5F5F5F5F5F5F5F5F5F5F5F5F5F5F5F5F5F5F5F5F5F5F5F5F5F5F5F5F5F5F5F5F5F5F5F5F5F5F5F5F5F5F5F5F5F5F5F5F5F5F5F5F5F5F5F5F5F5F5F5F5F5F5
310
F5F5F5F5F5F5E2E2F5F5F5F5F5F5F5F5F5ECECECECECF5ECECECECECF5ECECECECECF5F5F5F5F5F5F5F5E2E2F5F5F5F5F5F5F5F5F5E2F5F5F5F5F5F5F5F5F5F5F5F5F5F5F5F5E2F5F5F5F5E2E2F5F5F5F5E2F5F5F5F5F5F5F5F5F5F5F5F5F5F5F5F5E2F5F5F5F5F5F5F5F5F5F5F5F5F5F5F5F5F5F5F5F5F5F5F5F5F5F5F5F5
310
F5F5F5F5F5F5F5F5F5F5F5F5F5F5F5F5F5F5F5F5F5F5F5F5F5F5F5F5F5F5F5F5F5F5F5F5F5F5F5F5F5F5F5F5F5F5F5F5F5F5F5F5F5F5F5F5F5F5F5F5F5E2E2F5F5F5F5F5F5F5ECF5F5F5F5F5F5F5DCF5F5F5F5F5F5F5ECF5F5F5F5F5F5F5E2F5F5F5F5F5F5F5F5F5F5F5E2F5F5F5F5F5F5F5F5F5F5F5F5F5F5F5F5E2F5F5F5
310
F5E2E2F5F5F5F5E2F5F5F5F5F5F5F5F5F5F5F5F5F5F5F5F5E2F5F5F5F5F5F5F5F5F5F5F5F5F5F5F5F5F5F5F5F5F5F5F5F5F5F5F5F5F5F5F5F5F5F5F5F5F5F5F5F5F5F5F5F5F5F5F5F5F5F5F5F5F5F5F5F5F5F5F5F5F5F5F5F5F5F5F5F5F5F5F5F5F5F5F5F5F5F5F5F5F5F5F5F5F5F5F5F5F5F5E2F5F5F5F5F5F5F5ECF5F5F5
310
F5F5F5F5DCF5F5F5F5F5F5F5ECF5F5F5F5F5F5F5E2F5F5F5F5F5F5F5F5F5F5F5E2F5F5F5F5F5F5F5F5F5F5F5F5F5F5F5F5E2F5F5F5F5E2E2F5F5F5F5E2F5F5F5F5F5F5F5F5F5F5F5F5F5F5F5F5E2F5F5F5F5F5F5F5F5F5F5F5F5F5F5F5F5F5F5F5F5F5F5F5F5F5F5F5F5F5F5F5F5F5F5F5F5F5F5F5F5F5F5F5F5F5F5F5F5F5
310
F5F5F5F5F5F5F5F5F5F5F5F5F5F5F5F5F5F5F5F5F5F5F5F5F5F5F5F5F5F5F5F5F5F5F5F5F5F5F5F5F5E2F5F5F5F5F5F5F5ECF5F5F5F5F5F5F5DCF5F5F5F5F5F5F5ECF5F5F5F5F5F5F5E2F5F5F5F5F5F5F5F5F5F5F5E2F5F5F5F5F5F5F5F5F5F5F5F5F5F5F5F5E2F5F5F5F5E2E2F5F5F5F5E2F5F5F5F5F5F5F5F5F5F5F5F5F5
310
F5F5F5E2F5F5F5F5F5F5F5F5F5F5F5F5F5F5F5F5F5F5F5F5F5F5F5F5F5F5F5F5F5F5F5F5F5F5F5F5F5F5F5F5F5F5F5F5F5F5F5F5F5F5F5F5F5F5F5F5F5F5F5F5F5F5F5F5F5F5F5F5F5F5F5F5F5F5F5F5F5F5F5F5F5F5F5F5F5F5F5F5F5F5E2F5F5F5F5F5F5F5ECF5F5F5F5E2E2E2E2E2E2E2F5F5F5F5ECF5F5F5F5F5F5F5E2
310
F5F5F5F5F5F5F5F5F5F5F5E2F5F5F5F5F5F5F5F5F5F5F5F5F5F5F5F5E2F5F5F5F5E2E2F5F5F5F5E2F5F5F5F5F5F5F5F5F5F5F5F5F5F5F5F5E2F5F5F5F5F5F5F5F5F5F5F5F5F5F5F5F5F5F5F5F5F5F5F5F5F5F5F5F5F5F5F5F5F5F5F5F5F5F5F5F5F5F5F5F5F5F5F5F5F5F5F5F5F5F5F5F5F5F5F5F5F5F5F5F5F5F5F5F5F5F5
310
F5F5F5F5F5F5F5F5F5F5F5F5F5F5F5F5F5F5F5F5E2F5F5F5F5F5F5F5ECECECECECECF5F5DCF5F5ECECECECECECF5F5F5F5F5F5F5E2F5F5F5F5F5F5F5F5F5F5F5E2F5F5F5F5F5F5F5F5F5F5F5F5F5F5F5F5E2F5F5F5F5E2E2F5F5F5F5E2F5F5F5F5F5F5F5F5F5F5F5F5F5F5F5F5E2F5F5F5F5F5F5F5F5F5F5F5F5F5F5F5F5F5
310
F5F5F5F5F5F5F5F5F5F5F5F5F5F5F5F5F5F5F5F5F5F5F5F5F5F5F5F5F5F5F5F5F5F5F5F5F5F5F5F5F5F5F5F5F5F5F5F5F5F5F5F5F5F5F5F5F5F5F5F5F5F5F5F5F5F5F5F5F5F5F5F5F5E2F5F5F5F5F5F5F5ECF5F5F5F5E2F5F5DCF5F5E2F5F5F5F5ECF5F5F5F5F5F5F5E2F5F5F5F5F5F5F5F5F5F5F5E2F5F5F5F5F5F5F5F5F5
310
F5F5F5F5F5F5F5E2F5F5F5F5E2E2F5F5F5F5E2F5F5F5F5F5F5F5F5F5F5F5F5F5F5F5F5E2F5F5F5F5F5F5F5F5F5F5F5F5F5F5F5F5F5F5F5F5F5F5F5F5F5F5F5F5F5F5F5F5F5F5F5F5F5F5F5F5F5F5F5F5F5F5F5F5F5F5F5F5F5F5F5F5F5F5F5F5F5F5F5F5F5F5F5F5F5F5F5F5F5F5F5F5F5F5F5F5F5F5F5F5F5F5F5F5F5F5E2
310
E2E2E2E2E2E2E2E2E2E2E2E2ECF5F5DCF5F5E2E2E2E2E2E2E2E2E2E2E2E2E2E2F5F5F5F5F5F5F5F5F5F5F5E2F5F5F5F5F5F5F5F5F5F5F5F5F5F5F5F5E2F5F5F5F5E2E2F5F5F5F5E2F5F5F5F5F5F5F5F5F5F5F5F5F5F5F5F5E2F5F5F5F5F5F5F5F5F5F5F5F5F5F5F5F5F5F5F5F5F5F5F5F5F5F5F5F5F5F5F5F5F5F5F5F5F5F5
310
F5F5F5F5F5F5F5F5F5F5F5F5F5F5F5F5F5F5F5F5F5F5F5F5F5F5F5F5F5F5F5F5F5F5F5F5F5F5F5F5F5F5F5F5F5F5F5F5F5F5F5F5F5F5F5F5F5F5F5F5F5F5F5F5F5F5F5F5DCF5F5F5F5F5F5F5F5F5F5F5F5F5F5F5F5F5F5F5F5F5F5F5F5F5F5F5E2F5F5F5F5F5F5F5F5F5F5F5F5F5F5F5F5E2F5F5F5F5E2E2F5F5F5F5F5F5F5
310
F5F5F5F5F5F5F5F5F5F5F5F5F5F5E2F5F5F5F5F5F5F5F5F5F5F5F5F5F5F5F5F5F5F5F5F5F5F5F5F5F5F5F5F5F5F5F5F5F5F5F5F5F5F5F5F5F5F5F5F5F5F5F5F5F5F5F5F5F5F5F5F5F5F5F5F5F5F5F5F5F5F5F5F5F5F5F5F5F5F5F5F5F5F5F5F5F5F5F5F5F5F5F5F5F5F5F5F5F5F5F5F5F5F5F5F5F5F5F5F5F5F5F5F5F5F5F5
310
F5F5F5F5F5F5F5F5F5F5F5F5F5F5F5F5F5F5F5F5F5F5E2F5F5F5F5F5F5F5F5F5F5F5F5F5F5F5F5F5F5F5F5F5E2E2F5F5F5F5F5F5F5F5F5F5F5F5F5F5F5F5F5F5F5F5F5E2F5F5F5F5F5F5F5F5F5F5F5F5F5F5F5F5F5F5F5F5F5F5F5F5F5F5F5F5F5F5F5F5F5F5F5F5F5F5F5F5F5F5F5F5F5F5F5F5F5F5F5F5F5F5F5F5F5F5F5
310
F5F5F5F5F5F5F5F5F5F5F5F5F5F5F5F5F5F5F5F5F5F5F5F5F5F5F5F5F5F5F5F5F5F5F5F5F5F5F5F5F5F5F5F5F5F5F5F5F5F5F5F5F5F5F5F5F5F5F5F5F5F5F5F5F5F5F5F5F5F5F5F5F5F5F5E2F5F5F5F5F5F5F5F5F5F5F5F5F5F5F5F5F5F5F5F5F5E2E2F5F5F5F5F5F5F5F5F5F5F5F5F5F5F5F5F5F5F5F5F5E2F5F5F5F5F5F5
310
F5F5F5F5F5F5F5F5F5F5F5F5F5F5F5F5F5F5F5F5F5F5F5F5F5F5F5F5F5F5F5F5F5F5F5F5F5F5F5F5F5F5F5F5F5F5F5F5F5F5F5F5F5F5F5F5F5F5F5F5F5F5F5F5F5F5F5F5F5F5F5F5F5F5F5F5F5F5F5F5F5F5F5F5F5F5F5F5F5F5F5F5F5F5F5F5F5F5F5F5F5F5F5F5F5F5F5F5F5F5F5F5F5F5F5F5F5F5F5F5F5F5F5F5F5F5F5
310
F5E2F5F5F5F5F5F5F5F5F5F5F5F5F5F5F5F5F5F5F5F5F5E2E2F5F5F5F5F5F5F5F5F5F5F5F5F5F5F5F5F5F5F5F5F5E2F5F5F5F5F5F5F5F5F5F5F5F5F5F5F5F5F5F5F5F5F5F5F5F5F5F5F5F5F5F5F5F5F5F5F5F5F5F5F5F5F5F5F5F5F5F5F5F5F5F5F5F5F5F5F5F5F5F5F5F5F5F5F5F5F5F5F5F5F5F5F5F5F5F5F5F5F5F5F5F5
310
F5F5F5F5F5F5F5F5F5F5F5F5F5F5F5F5F5F5F5F5F5F5F5F5F5F5F5F5F5F5F5F5F5F5F5F5F5F5F5F5F5F5F5F5F5F5F5F5F5F5F5F5F5F5E2F5F5F5F5F5F5F5F5F5F5F5F5F5F5F5F5F5F5F5F5F5E2E2F5F5F5F5F5F5F5F5F5F5F5F5F5F5F5F5F5F5F5F5F5E2F5F5F5F5F5F5F5F5F5F5F5F5F5F5F5F5F5F5F5F5F5F5F5F5F5F5F5
310
F5F5F5F5F5F5F5F5F5F5F5F5F5F5F5F5F5F5F5F5F5F5F5F5F5F5F5F5F5F5F5F5F5F5F5F5F5F5F5F5F5F5F5F5F5F5F5F5F5F5F5F5F5F5F5F5F5F5F5F5F5F5F5F5F5F5F5F5F5F5F5F5F5F5F5F5F5F5F5F5F5F5F5F5F5F5F5F5F5F5F5F5F5F5F5F5F5F5F5F5F5F5F5F5F5F5F5E2F5F5F5F5F5F5F5F5F5F5F5F5F5F5F5F5F5F5F5
310
F5F5E2E2F5F5F5F5F5F5F5F5F5F5F5F5F5F5F5F5F5F5F5F5F5E2F5F5F5F5F5F5F5F5F5F5F5F5F5F5F5F5F5F5F5F5F5F5F5F5F5F5F5F5F5F5F5F5F5F5F5F5F5F5F5F5F5F5F5F5F5F5F5F5F5F5F5F5F5F5F5F5F5F5F5F5F5F5F5F5F5F5F5F5F5F5F5F5F5F5F5F5F5F5F5F5F5F5F5F5F5F5F5F5F5F5F5F5F5F5F5F5F5F5F5F5F5
310
F5F5F5F5F5F5F5F5F5F5F5F5F5F5F5F5F5F5F5F5F5F5F5F5F5F5F5F5F5F5F5F5F5E2F5F5F5F5F5F5F5F5F5F5F5F5F5F5F5F5F5F5F5F5F5E2E2F5F5F5F5F5F5F5F5F5F5F5F5F5F5F5F5F5F5F5F5F5E2F5F5F5F5F5F5F5F5F5F5F5F5F5F5F5F5F5F5F5F5F5F5F5F5F5F5F5F5F5F5F5F5F5F5F5F5F5F5F5F5F5F5F5F5F5F5F5F5
310
F5F5F5F5F5F5F5F5F5F5F5F5F5F5F5F5F5F5F5F5F5F5F5F5F5F5F5F5F5F5F5F5F5F5F5F5F5F5F5F5F5F5F5F5F5F5F5F5F5F5F5F5F5F5F5F5F5F5F5F5F5F5F5F5F5F5F5F5F5F5F5F5F5F5F5F5F5F5F5F5F5F5F5F5F5F5E2F5F5F5F5F5F5F5F5F5F5F5F5F5F5F5F5F5F5F5F5F5E2E2F5F5F5F5F5F5F5F5F5F5F5F5F5F5F5F5F5
310
F5F5F5F5E2F5F5F5F5F5F5F5F5F5F5F5F5F5F5F5F5F5F5F5F5F5F5F5F5F5F5F5F5F5F5F5F5F5F5F5F5F5F5F5F5F5F5F5F5F5F5F5F5F5F5F5F5F5F5F5F5F5F5F5F5F5F5F5F5F5F5F5F5F5F5F5F5F5F5F5F5F5F5F5F5F5F5F5F5F5F5F5F5F5F5F5F5F5F5F5F5F5F5F5F5F5F5F5F5F5F5F5F5F5F5F5F5F5F5F5F5F5F5F5F5F5F5
310
F5F5F5F5F5F5F5F5F5F5F5F5E2F5F5F5F5F5F5F5F5F5F5F5F5F5F5F5F5F5F5F5F5F5E2E2F5F5F5F5F5F5F5F5F5F5F5F5F5F5F5F5F5F5F5F5F5E2F5F5F5F5F5F5F5F5F5F5F5F5F5F5F5F5F5F5F5F5F5F5F5F5F5F5F5F5F5F5F5F5F5F5F5F5F5F5F5F5F5F5F5F5F5F5F5F5F5F5F5F5F5F5F5F5F5F5F5F5F5F5F5F5F5F5F5F5F5
310
F5F5F5F5F5F5F5F5F5F5F5F5F5F5F5F5F5F5F5F5F5F5F5F5F5F5F5F5F5F5F5F5F5F5F5F5F5F5F5F5F5F5F5F5F5F5F5F5F5F5F5F5F5F5F5F5F5F5F5F5F5F5F5F5F5E2F5F5F5F5F5F5F5F5F5F5F5F5F5F5F5F5F5F5F5F5F5E2E2F5F5F5F5F5F5F5F5F5F5F5F5F5F5F5F5F5F5F5F5F5E2F5F5F5F5F5F5F5F5F5F5F5F5F5F5F5F5
310
F5F5F5F5F5F5F5F5F5F5F5F5F5F5F5F5F5F5F5F5F5F5F5F5F5F5F5F5F5F5F5F5F5F5F5F5F5F5F5F5F5F5F5F5F5F5F5F5F5F5F5F5F5F5F5F5F5F5F5F5F5F5F5F5F5F5F5F5F5F5F5F5F5F5F5F5F5F5F5F5F5F5F5F5F5F5F5F5F5F5F5F5F5F5F5F5F5F5F5F5F5F5F5F5F5F5F5F5F5F5F5F5F5F5F5F5F5F5E2F5F5F5F5F5F5F5F5
310
F5F5F5F5F5F5F5F5F5F5F5F5F5E2E2F5F5F5F5E2F5F5F5F5F5F5F5F5F5F5F5F5F5F5F5F5E2F5F5F5F5F5F5F5F5F5F5F5F5F5F5F5F5F5F5F5F5F5F5F5F5F5F5F5F5F5F5F5F5F5F5F5F5F5F5F5F5F5F5F5F5F5F5F5F5F5F5F5F5F5F5F5F5F5F5F5F5F5F5F5F5F5F5F5F5F5F5F5F5F5F5F5F5F5F5F5F5F5F5F5F5F5F5F5F5F5F5
310
F5F5F5F5F5F5F5F5F5F5F5F5F5F5F5F5F5F5F5F5F5F5F5F5F5F5F5F5F5F5F5F5F5F5F5F5F5F5F5F5F5F5F5F5E2F5F5F5F5F5F5F5F5F5F5F5F5F5F5F5F5E2F5F5F5F5E2E2F5F5F5F5E2F5F5F5F5F5F5F5F5F5F5F5F5F5F5F5F5E2F5F5F5F5F5F5F5F5F5F5F5F5F5F5F5F5F5F5F5F5F5F5F5F5F5F5F5F5F5F5F5F5F5F5F5F5F5
310
F5F5F5F5F5F5F5F5F5F5F5F5F5F5F5F5F5F5F5F5F5F5F5F5F5F5F5F5F5F5F5F5F5F5F5F5F5F5F5F5F5F5F5F5F5F5F5F5F5F5F5F5F5F5F5F5F5F5F5F5F5F5F5F5F5F5F5F5F5F5F5F5F5F5F5F5F5F5F5F5F5F5F5F5F5F5F5F5F5F5F5F5F5F5F5F5F5E2F5F5F5F5F5F5F5F5F5F5F5F5F5F5F5F5E2F5F5F5F5E2E2F5F5F5F5E2F5
310
F5F5F5F5F5F5F5F5F5F5F5F5F5F5F5E2F5F5F5F5F5F5F5F5F5F5F5F5F5F5F5F5F5F5F5F5F5F5F5F5F5F5F5F5F5F5F5F5F5F5F5F5F5F5F5F5F5F5F5F5F5F5F5F5F5F5F5F5F5F5F5F5F5F5F5F5F5F5F5F5F5F5F5F5F5F5F5F5F5F5F5F5F5F5F5F5F5F5F5F5F5F5F5F5F5F5F5F5F5F5F5F5F5F5F5F5F5F5F5F5F5F5F5F5F5F5F5
310
F5F5F5F5F5F5F5F5F5F5F5F5F5F5F5F5F5F5F5F5F5F5F5E2F5F5F5F5F5F5F5F5F5F5F5F5F5F5F5F5E2F5F5F5F5E2E2F5F5F5F5E2F5F5F5F5F5F5F5F5F5F5F5F5F5F5F5F5E2F5F5F5F5F5F5F5F5F5F5F5F5F5F5F5F5F5F5F5F5F5F5F5F5F5F5F5F5F5F5F5F5F5F5F5F5F5F5F5F5F5F5F5F5F5F5F5F5F5F5F5F5F5F5F5F5F5F5
310
F5F5F5F5F5F5F5F5F5F5F5F5F5F5F5F5F5F5F5F5F5F5F5F5F5F5F5F5F5F5F5F5F5F5F5F5F5F5F5F5F5F5F5F5F5F5F5F5F5F5F5F5F5F5F5F5F5F5F5F5F5F5F5F5F5F5F5F5F5F5F5F5F5F5F5F5E2F5F5F5F5F5F5F5F5F5F5F5F5F5F5F5F5E2F5F5F5F5E2E2F5F5F5F5E2F5F5F5F5F5F5F5F5F5F5F5F5F5F5F5F5E2F5F5F5F5F5
310
F5F5F5F5F5F5F5F5F5F5F5F5F5F5F5F5F5F5F5F5F5F5F5F5F5F5F5F5F5F5F5F5F5F5F5F5F5F5F5F5F5F5F5F5F5F5F5F5F5F5F5F5F5F5F5F5F5F5F5F5F5F5F5F5F5F5F5F5F5F5F5F5F5F5F5F5F5F5F5F5F5F5F5F5F5F5F5F5F5F5F5F5F5F5F5F5F5F5F5F5F5F5F5F5F5F5F5F5F5F5F5F5F5F5F5F5F5F5F5F5F5F5F5F5F5F5F5
310
F5F5E2F5F5F5F5F5F5F5F5F5F5F5F5F5F5F5F5E2F5F5F5F5E2E2F5F5F5F5E2F5F5F5F5F5F5F5F5F5F5F5F5F5F5F5F5E2F5F5F5F5F5F5F5F5F5F5F5F5F5F5F5F5F5F5F5F5F5F5F5F5F5F5F5F5F5F5F5F5F5F5F5F5F5F5F5F5F5F5F5F5F5F5F5F5F5F5F5F5F5F5F5F5F5F5F5F5F5F5F5F5F5F5F5F5F5F5F5F5F5F5F5F5F5F5F5
310
F5F5F5F5F5F5F5F5F5F5F5F5F5F5F5F5F5F5F5F5F5F5F5F5F5F5F5F5F5F5F5F5F5F5F5F5F5F5F5F5F5F5F5F5F5F5F5F5F5F5F5F5F5F5F5E2F5F5F5F5F5F5F5F5F5F5F5F5F5F5F5F5E2F5F5F5F5E2E2F5F5F5F5E2F5F5F5F5F5F5F5F5F5F5F5F5F5F5F5F5E2F5F5F5F5F5F5F5F5F5F5F5F5F5F5F5F5F5F5F5F5F5F5F5F5F5F5
310
F5F5F5F5F5F5F5F5F5F5F5F5F5F5F5F5F5F5F5F5F5F5F5F5F5F5F5F5F5F5F5F5F5F5F5F5F5F5F5F5F5F5F5F5F5F5F5F5F5F5F5F5F5F5F5F5F5F5F5F5F5F5F5F5F5F5F5F5F5F5F5F5F5F5F5F5F5F5F5F5F5F5F5F5F5F5F5F5F5F5F5F5F5F5F5F5F5F5F5F5F5F5F5F5F5F5F5F5E2F5F5F5F5F5F5F5F5F5F5F5F5F5F5F5F5E2F5
310
F5F5F5E2E2F5F5F5F5E2F5F5F5F5F5F5F5F5F5F5F5F5F5F5F5F5E2F5F5F5F5F5F5F5F5F5F5F5F5F5F5F5F5F5F5F5F5F5F5F5F5F5F5F5F5F5F5F5F5F5F5F5F5F5F5F5F5F5F5F5F5F5F5F5F5F5F5F5F5F5F5F5F5F5F5F5F5F5F5F5F5F5F5F5F5F5F5F5F5F5F5F5F5F5F5F5F5F5F5F5F5F5F5F5F5F5F5F5F5F5F5F5F5F5F5F5F5
310
F5F5F5F5F5F5F5F5F5F5F5F5F5F5F5F5F5F5F5F5F5F5F5F5F5F5F5F5F5F5F5F5F5F5E2F5F5F5F5F5F5F5F5F5F5F5F5F5F5F5F5E2F5F5F5F5E2E2F5F5F5F5E2F5F5F5F5F5F5F5F5F5F5F5F5F5F5F5F5E2F5F5F5F5F5F5F5F5F5F5F5F5F5F5F5F5F5F5F5F5F5F5F5F5F5F5F5F5F5F5F5F5F5F5F5F5F5F5F5F5F5F5F5F5F5F5F5
310
F5F5F5F5F5F5F5F5F5F5F5F5F5F5F5F5F5F5F5F5F5F5F5F5F5F5F5F5F5F5F5F5F5F5F5F5F5F5F5F5F5F5F5F5F5F5F5F5F5F5F5F5F5F5F5F5F5F5F5F5F5F5F5F5F5F5F5F5F5F5F5F5F5F5F5F5F5F5F5F5F5F5F5F5F5F5F5E2F5F5F5F5F5F5F5F5F5F5F5F5F5F5F5F5E2F5F5F5F5E2E2F5F5F5F5E2F5F5F5F5F5F5F5F5F5F5F5
310
F5F5F5F5F5E2F5F5F5F5F5F5F5F5F5F5F5F5F5F5F5F5F5F5F5F5F5F5F5F5F5F5F5F5F5F5F5F5F5F5F5F5F5F5F5F5F5F5F5F5F5F5F5F5F5F5F5F5F5F5F5F5F5F5F5F5F5F5F5F5F5F5F5F5F5F5F5F5F5F5F5F5F5F5F5F5F5F5F5F5F5F5F5F5F5F5F5F5F5F5F5F5F5F5F5F5F5F5F5F5F5F5F5F5F5F5F5F5F5F5F5F5F5F5F5F5F5
310
F5F5F5F5F5F5F5F5F5F5F5F5F5E2F5F5F5F5F5F5F5F5F5F5F5F5F5F5F5F5E2F5F5F5F5E2E2F5F5F5F5E2F5F5F5F5F5F5F5F5F5F5F5F5F5F5F5F5E2F5F5F5F5F5F5F5F5F5F5F5F5F5F5F5F5F5F5F5F5F5F5F5F5F5F5F5F5F5F5F5F5F5F5F5F5F5F5F5F5F5F5F5F5F5F5F5F5F5F5F5F5F5F5F5F5F5F5F5F5F5F5F5F5F5F5F5F5
310
F5F5F5F5F5F5F5F5F5F5F5F5F5F5F5F5F5F5F5F5F5F5F5F5F5F5F5F5F5F5F5F5F5F5F5F5F5F5F5F5F5F5F5F5F5F5F5F5F5F5F5F5F5F5F5F5F5F5F5F5F5F5F5F5F5F5E2F5F5F5F5F5F5F5F5F5F5F5F5F5F5F5F5E2F5F5F5F5E2E2F5F5F5F5E2F5F5F5F5F5F5F5F5F5F5F5F5F5F5F5F5E2F5F5F5F5F5F5F5F5F5F5F5F5F5F5F5
310
F5F5F5F5F5F5F5F5F5F5F5F5F5F5F5F5F5F5F5F5F5F5F5F5F5F5F5F5F5F5F5F5F5F5F5F5F5F5F5F5F5F5F5F5F5F5F5F5F5F5F5F5F5F5F5F5F5F5F5F5F5F5F5F5F5F5F5F5F5F5F5F5F5F5F5F5F5F5F5F5F5F5F5F5F5F5F5F5F5F5F5F5F5F5F5F5F5F5F5F5F5F5F5F5F5F5F5F5F5F5F5F5F5F5F5F5F5F5F5E2F5F5F5F5F5F5F5
310
F5F5F5F5F5F5F5F5F5E2F5F5F5F5E2E2F5F5F5F5E2F5F5F5F5F5F5F5F5F5F5F5F5F5F5F5F5E2F5F5F5F5F5F5F5F5F5F5F5F5F5F5F5F5F5F5F5F5F5F5F5F5F5F5F5F5F5F5F5F5F5F5F5F5F5F5F5F5F5F5F5F5F5F5F5F5F5F5F5F5F5F5F5F5F5F5F5F5F5F5F5F5F5F5F5F5F5F5F5F5F5F5F5F5F5F5F5F5F5F5F5F5F5F5F5F5F5
310
F5F5F5F5F5F5F5F5F5F5F5F5F5F5F5F5F5F5F5F5F5F5F5F5F5F5F5F5F5F5F5F5F5F5F5F5F5F5F5F5F5F5F5F5F5E2F5F5F5F5F5F5F5F5F5F5F5F5F5F5F5F5E2F5F5F5F5E2E2F5F5F5F5E2F5F5F5F5F5F5F5F5F5F5F5F5F5F5F5F5E2F5F5F5F5F5F5F5F5F5F5F5F5F5F5F5F5F5F5F5F5F5F5F5F5F5F5F5F5F5F5F5F5F5F5F5F5
310
F5F5F5F5F5F5F5F5F5F5F5F5F5F5F5F5F5F5F5F5F5F5F5F5F5F5F5F5F5F5F5F5F5F5F5F5F5F5F5F5F5F5F5F5F5F5F5F5F5F5F5F5F5F5F5F5F5F5F5F5F5F5F5F5F5F5F5F5F5F5F5F5F5F5F5F5F5F5F5F5F5F5F5F5F5F5F5F5F5F5F5F5F5F5F5F5F5F5E2F5F5F5F5F5F5F5F5F5F5F5F5F5F5F5F5E2F5F5F5F5E2E2F5F5F5F5E2
310
F5F5F5F5F5F5F5F5F5F5F5F5F5F5F5F5E2F5F5F5F5F5F5F5F5F5F5F5F5F5F5F5F5F5F5F5F5F5F5F5F5F5F5F5F5F5F5F5F5F5F5F5F5F5F5F5F5F5F5F5F5F5F5F5F5F5F5F5F5F5F5F5F5F5F5F5F5F5F5F5F5F5F5F5F5F5F5F5F5F5F5F5F5F5F5F5F5F5F5F5F5F5F5F5F5F5F5F5F5F5F5F5F5F5F5F5F5F5F5F5F5F5F5F5F5F5F5
310
F5F5F5F5F5F5F5F5F5F5F5F5F5F5F5F5F5F5F5F5F5F5F5F5E2F5F5F5F5F5F5F5F5F5F5F5F5F5F5F5F5E2F5F5F5F5E2E2F5F5F5F5E2F5F5F5F5F5F5F5F5F5F5F5F5F5F5F5F5E2F5F5F5F5F5F5F5F5F5F5F5F5F5F5F5F5F5F5F5F5F5F5F5F5F5F5F5F5F5F5F5F5F5F5F5F5F5F5F5F5F5F5F5F5F5F5F5F5F5F5F5F5F5F5F5F5F5
310
F5F5F5F5F5F5F5F5F5F5F5F5F5F5F5F5F5F5F5F5F5F5F5F5F5F5F5F5F5F5F5F5F5F5F5F5F5F5F5F5F5F5F5F5F5F5F5F5F5F5F5F5F5F5F5F5F5F5F5F5F5F5F5F5F5F5F5F5F5F5F5F5F5F5F5F5F5E2F5F5F5F5F5F5F5F5F5F5F5F5F5F5F5F5E2F5F5F5F5E2E2F5F5F5F5F5F5F5F5F5F5F5F5F5F5F5F5F5F5F5F5F5E2F5F5F5F5
310
F5F5F5F5F5F5F5F5F5F5F5F5F5F5F5F5F5F5F5F5F5F5F5F5F5F5F5F5F5F5F5F5F5F5F5F5F5F5F5F5F5F5F5F5F5F5F5F5F5F5F5F5F5F5F5F5F5F5F5F5F5F5F5F5F5F5F5F5F5F5F5F5F5F5F5F5F5F5F5F5F5F5F5F5F5F5F5F5F5F5F5F5F5F5F5F5F5F5F5F5F5F5F5F5F5F5F5F5F5F5F5F5F5F5F5F5F5F5F5F5F5F5F5F5F5F5F5
310
F5F5F5E2F5F5F5F5F5F5F5F5F5F5F5F5F5F5F5F5F5F5F5F5F5E2E2F5F5F5F5F5F5F5F5F5F5F5F5F5F5F5F5F5F5F5F5F5E2F5F5F5F5F5F5F5F5F5F5F5F5F5F5F5F5F5F5F5F5F5F5F5F5F5F5F5F5F5F5F5F5F5F5F5F5F5F5F5F5F5F5F5F5F5F5F5F5F5F5F5F5F5F5F5F5F5F5F5F5F5F5F5F5F5F5F5F5F5F5F5F5F5F5F5F5F5F5
310
F5F5F5F5F5F5F5F5F5F5F5F5F5F5F5F5F5F5F5F5F5F5F5F5F5F5F5F5F5F5F5F5F5F5F5F5F5F5F5F5F5F5F5F5F5F5F5F5F5F5F5F5F5F5F5F5E2F5F5F5F5F5F5F5F5F5F5F5F5F5F5F5F5F5F5F5F5F5E2E2F5F5F5F5F5F5F5F5F5F5F5F5F5F5F5F5F5F5F5F5F5E2F5F5F5F5F5F5F5F5F5F5F5F5F5F5F5F5F5F5F5F5F5F5F5F5F5
310
F5F5F5F5F5F5F5F5F5F5F5F5F5F5F5F5F5F5F5F5F5F5F5F5F5F5F5F5F5F5F5F5F5F5F5F5F5F5F5F5F5F5F5F5F5F5F5F5F5F5F5F5F5F5F5F5F5F5F5F5F5F5F5F5F5F5F5F5F5F5F5F5F5F5F5F5F5F5F5F5F5F5F5F5F5F5F5F5F5F5F5F5F5F5F5F5F5F5F5F5F5F5F5F5F5F5F5F5F5E2F5F5F5F5F5F5F5F5F5F5F5F5F5F5F5F5F5
310
F5F5F5F5E2E2F5F5F5F5F5F5F5F5F5F5F5F5F5F5F5F5F5F5F5F5F5E2F5F5F5F5F5F5F5F5F5F5F5F5F5F5F5F5F5F5F5F5F5F5F5F5F5F5F5F5F5F5F5F5F5F5F5F5F5F5F5F5F5F5F5F5F5F5F5F5F5F5F5F5F5F5F5F5F5F5F5F5F5F5F5F5F5F5F5F5F5F5F5F5F5F5F5F5F5F5F5F5F5F5F5F5F5F5F5F5F5F5F5F5F5F5F5F5F5F5F5
310
F5F5F5F5F5F5F5F5F5F5F5F5F5F5F5F5F5F5F5F5F5F5F5F5F5F5F5F5F5F5F5F5F5F5F5E2F5F5F5F5F5F5F5F5F5F5F5F5F5F5F5F5F5F5F5F5F5E2E2F5F5F5F5F5F5F5F5F5F5F5F5F5F5F5F5F5F5F5F5F5E2E2E2E2E2E2E2E2E2E2E2E2E2E2E2E2E2E2E2E2E2E2E2E2E2E2E2E2E2E2E2E2E2E2E2E2E2E2E2E2E2E2E2E2E2E2E2
310
E2E2E2E2E2E2E2E2E2E2E2E2E2E2E2E2E2E2E2E2E2E2E2E2E2E2E2E2E2E2E2E2E2E2E2E2E2E2E2E2E2E2E2E2E2E2E2E2E2E2E2E2E2E2E2E2E2E2E2E2E2E2E2E2E2E2E2E2E2E2E2E2E2E2E2E2E2E2E2E2E2E2E2E2E2E2E2E2E2F5F5F5F5F5F5F5F5F5F5F5F5F5F5F5F5F5F5F5F5F5E2E2F5F5F5F5F5F5F5F5F5F5F5F5F5F5F5
310
F5F5F5F5F5F5F5F5F5F5F5F5F5F5F5F5F5F5F5F5F5F5F5F5F5F5F5F5F5F5F5F5F5F5F5F5F5F5F5F5F5F5F5F5F5F5F5F5F5F5F5F5F5F5F5F5F5F5F5F5F5F5F5F5F5F5F5F5F5F5F5F5F5F5F5F5F5F5F5F5F5F5F5F5F5F5F5F5F5F5F5F5F5F5F5F5F5F5F5F5F5F5F5F5F5F5F5F5F5F5F5F5F5F5F5F5F5F5F5F5F5F5F5F5F5F5F5
310
F5F5F5F5F5F5F5F5F5F5F5F5F5F5F5F5F5F5F5F5F5F5F5F5F5F5F5F5F5F5F5F5F5F5F5F5E2E2F5F5F5F5F5F5F5F5F5F5F5F5F5F5F5F5F5F5F5F5F5F5F5F5F5F5F5F5F5F5F5F5F5F5F5F5F5F5F5F5F5F5F5F5F5F5F5F5F5F5F5F5F5F5F5F5F5F5F5F5F5F5F5F5F5F5F5F5F5F5F5F5F5F5F5F5F5F5F5F5F5F5F5F5F5F5F5F5F5
310
F5F5F5F5F5F5F5F5F5F5F5F5F5F5F5F5F5F5F5F5F5F5F5F5F5F5F5F5F5F5F5F5F5F5F5F5F5F5F5F5F5F5F5F5F5F5F5F5F5F5F5F5F5F5F5F5F5F5F5F5F5F5F5F5F5F5F5F5F5F5F5F5F5F5F5F5F5F5F5F5F5F5F5F5F5F5F5F5F5E2E2F5F5F5F5F5F5F5F5F5F5F5F5F5F5F5F5F5F5F5F5F5F5F5F5F5F5F5F5F5F5F5F5F5F5F5F5
310
F5F5F5F5F5F5F5F5F5F5F5F5F5F5F5F5F5F5F5F5F5F5F5F5F5F5F5F5F5F5F5F5F5F5F5F5F5F5F5F5F5F5F5F5F5F5F5F5F5F5F5F5F5F5F5F5F5F5F5F5F5F5F5F5F5F5F5F5F5F5F5F5F5F5F5F5F5F5F5F5F5F5F5F5F5F5F5F5F5F5F5F5F5F5F5F5F5F5F5F5F5F5F5F5F5F5F5F5F5F5F5F5F5F5F5F5F5F5F5F5F5F5F5F5F5F5F5
310
F5F5F5F5F5F5F5F5F5F5F5F5F5F5F5E2E2F5F5F5F5F5F5F5F5F5F5F5F5F5F5F5F5F5F5F5F5F5F5F5F5F5F5F5F5F5F5F5F5F5F5F5F5F5F5F5F5F5F5F5F5F5F5F5F5F5F5F5F5F5F5F5F5F5F5F5F5F5F5F5F5F5F5F5F5F5F5F5F5F5F5F5F5F5F5F5F5F5F5F5F5F5F5F5F5F5F5F5F5F5F5F5F5F5F5F5F5F5F5F5F5F5F5F5F5F5F5
310
F5F5F5F5F5F5F5F5F5F5F5F5F5F5F5F5F5F5F5F5F5F5F5F5F5F5F5F5F5F5F5F5F5F5F5F5F5F5F5F5F5F5F5F5F5F5F5F5F5F5F5F5F5F5F5F5F5F5F5F5F5F5F5F5F5F5F5F5E2E2F5F5F5F5E2F5F5F5F5F5F5F5F5F5F5F5F5F5F5F5F5F5F5F5F5F5F5F5F5F5F5F5F5F5F5F5F5F5F5F5F5F5F5F5F5F5F5F5F5F5F5F5F5F5F5F5F5
310
F5F5F5F5F5F5F5F5F5F5F5F5F5F5F5F5F5F5F5F5F5F5F5F5F5F5F5F5F5F5F5F5F5F5F5F5F5F5F5F5F5F5F5F5F5F5F5F5F5F5F5F5F5F5F5F5F5F5F5F5F5F5F5F5F5F5F5F5F5F5F5F5F5F5F5F5F5F5F5F5F5F5F5F5F5F5F5F5F5F5F5F5F5F5F5F5F5F5F5F5F5F5F5F5F5F5F5F5F5F5F5F5F5F5F5F5E2F5F5F5F5E2E2F5F5F5F5
310
E2F5F5F5F5F5F5F5F5F5F5F5F5F5F5F5F5F5F5F5F5F5F5F5F5F5F5F5F5F5F5F5F5F5F5F5F5F5F5F5F5F5F5F5F5F5F5F5F5F5F5F5F5F5F5F5F5F5F5F5F5F5F5F5F5F5F5F5F5F5F5F5F5F5F5F5F5F5F5F5F5F5F5F5F5F5F5F5F5F5F5F5F5F5F5F5F5F5F5F5F5F5F5F5F5F5F5F5F5F5F5F5F5F5F5F5F5F5F5F5F5F5F5F5F5F5F5
310
F5F5F5F5F5F5F5F5F5F5F5F5F5F5F5F5F5F5F5F5F5F5F5F5F5F5F5F5F5F5F5F5F5F5F5F5F5F5F5F5F5F5E2F5F5F5F5E2E2F5F5F5F5E2F5F5F5F5F5F5F5F5F5F5F5F5F5F5F5F5F5F5F5F5F5F5F5F5F5F5F5F5F5F5F5F5F5F5F5F5F5F5F5F5F5F5F5F5F5F5F5F5F5F5F5F5F5F5F5F5F5F5F5F5F5F5F5F5F5F5F5F5F5F5F5F5F5
310
F5F5F5F5F5F5F5F5F5F5F5F5F5F5F5F5F5F5F5F5F5F5F5F5F5F5F5F5F5F5F5F5F5F5F5F5F5F5F5F5F5F5F5F5F5F5F5F5F5F5F5F5F5F5F5F5F5F5F5F5F5F5F5F5F5F5F5F5F5F5F5F5F5F5F5F5F5F5F5F5F5F5F5F5F5F5F5F5F5F5F5F5F5F5F5E2F5F5F5F5E2E2F5F5F5F5E2F5F5F5F5F5F5F5F5F5F5F5F5F5F5F5F5F5F5F5F5
310
F5F5F5F5F5F5F5F5F5F5F5F5F5F5F5F5F5F5F5F5F5F5F5F5F5F5F5F5F5F5F5F5F5F5F5F5F5F5F5F5F5F5F5F5F5F5F5F5F5F5F5F5F5F5F5F5F5F5F5F5F5F5F5F5F5F5F5F5F5F5F5F5F5F5F5F5F5F5F5F5F5F5F5F5F5F5F5F5F5F5F5F5F5F5F5F5F5F5F5F5F5F5F5F5F5F5F5F5F5F5F5F5F5F5F5F5F5F5F5F5F5F5F5F5F5F5F5
310
F5F5F5F5F5F5F5F5F5F5F5F5F5F5F5F5F5F5F5F5F5E2F5F5F5F5E2E2F5F5F5F5E2F5F5F5F5F5F5F5F5F5F5F5F5F5F5F5F5F5F5F5F5F5F5F5F5F5F5F5F5F5F5F5F5F5F5F5F5F5F5F5F5F5F5F5F5F5F5F5F5F5F5F5F5F5F5F5F5F5F5F5F5F5F5F5F5F5F5F5F5F5F5F5F5F5F5F5F5F5F5F5F5F5F5F5F5F5F5F5F5F5F5F5F5F5F5
310
F5F5F5F5F5F5F5F5F5F5F5F5F5F5F5F5F5F5F5F5F5F5F5F5F5F5F5F5F5F5F5F5F5F5F5F5F5F5F5F5F5F5F5F5F5F5F5F5F5F5F5F5F5F5F5F5F5F5F5F5F5F5F5F5F5F5F5F5F5F5F5F5F5F5E2F5F5F5F5E2E2F5F5F5F5E2F5F5F5F5F5F5F5F5F5F5F5F5F5F5F5F5F5F5F5F5F5F5F5F5F5F5F5F5F5F5F5F5F5F5F5F5F5F5F5F5F5
310
F5F5F5F5F5F5F5F5F5F5F5F5F5F5F5F5F5F5F5F5F5F5F5F5F5F5F5F5F5F5F5F5F5F5F5F5F5F5F5F5F5F5F5F5F5F5F5F5F5F5F5F5F5F5F5F5F5F5F5F5F5F5F5F5F5F5F5F5F5F5F5F5F5F5F5F5F5F5F5F5F5F5F5F5F5F5F5F5F5F5F5F5F5F5F5F5F5F5F5F5F5F5F5F5F5F5F5F5F5F5F5F5F5F5F5F5F5F5F5F5F5F5F5F5F5F5F5
310
E2F5F5F5F5E2E2F5F5F5F5E2F5F5F5F5F5F5F5F5F5F5F5F5F5F5F5F5F5F5F5F5F5F5F5F5F5F5F5F5F5F5F5F5F5F5F5F5F5F5F5F5F5F5F5F5F5F5F5F5F5F5F5F5F5F5F5F5F5F5F5F5F5F5F5F5F5F5F5F5F5F5F5F5F5F5F5F5F5F5F5F5F5F5F5F5F5F5F5F5F5F5F5F5F5F5F5F5F5F5F5F5F5F5F5F5F5F5F5F5F5F5F5F5F5F5F5
310
F5F5F5F5F5F5F5F5F5F5F5F5F5F5F5F5F5F5F5F5F5F5F5F5F5F5F5F5F5F5F5F5F5F5F5F5F5F5F5F5F5F5F5F5F5F5F5F5F5F5F5F5F5E2F5F5F5F5E2E2F5F5F5F5E2F5F5F5F5F5F5F5F5F5F5F5F5F5F5F5F5F5F5F5F5F5F5F5F5F5F5F5F5F5F5F5F5F5F5F5F5F5F5F5F5F5F5F5F5F5F5F5F5F5F5F5F5F5F5F5F5F5F5F5F5F5F5
310
F5F5F5F5F5F5F5F5F5F5F5F5F5F5F5F5F5F5F5F5F5F5F5F5F5F5F5F5F5F5F5F5F5F5F5F5F5F5F5F5F5F5F5F5F5F5F5F5F5F5F5F5F5F5F5F5F5F5F5F5F5F5F5F5F5F5F5F5F5F5F5F5F5F5F5F5F5F5F5F5F5F5F5F5F5F5F5F5F5F5F5F5F5F5F5F5F5F5F5F5F5F5F5F5F5F5E2F5F5F5F5E2E2F5F5F5F5E2E2E2E2E2E2E2E2F5F5
310
F5F5F5F5F5F5F5E2E2E2E2E2E2E2E2E2E2E2E2E2E2E2F5F5F5F5F5F5F5F5F5E2E2E2E2E2E2E2E2E2E2E2E2E2E2E2E2F5F5F5F5F5F5F5F5E2E2E2E2E2E2E2E2E2E2E2E2E2E2E2E2F5F5F5F5F5F5F5F5E2E2E2E2E2E2E2E2E2E2E2E2E2E2E2E2F5F5F5F5F5F5F5F5E2E2E2E2E2E2E2E2E2E2E2E2E2E2E2E2F5F5F5F5F5F5F5F5
310
F5E2E2E2E2E2E2E2E2E2E2E2E2E2E2E2F5F5F5F5F5F5F5F5F5E2E2E2E2E2E2E2E2F5F5F5F5E2E2F5F5F5F5F5F5F5F5F5F5F5F5F5F5F5F5F5F5F5F5F5F5F5F5F5F5F5F5F5F5F5F5F5F5F5F5F5F5F5F5F5F5F5F5F5F5F5F5F5F5F5F5F5F5F5F5F5F5F5F5F5F5F5F5F5F5F5F5F5F5F5F5F5F5F5F5F5F5F5F5F5F5F5F5F5F5F5F5
310
F5F5F5F5F5F5F5F5F5F5F5F5F5F5F5F5F5F5F5F5F5F5F5F5F5F5F5F5F5F5F5F5F5F5F5F5F5F5F5F5F5F5F5F5F5F5F5F5F5F5F5F5F5F5F5F5F5F5F5F5F5F5F5F5F5F5F5F5F5F5F5F5F5F5F5F5F5F5F5F5F5F5F5F5F5F5F5F5F5F5E2E2F5F5F5F5F5F5F5F5F5F5F5F5F5F5F5F5F5F5F5F5F5F5F5F5F5F5F5F5F5F5F5F5F5F5F5
310
F5F5F5F5F5F5F5F5F5F5F5F5F5F5F5F5F5F5F5F5F5F5F5F5F5F5F5F5F5F5F5F5F5F5F5F5F5F5F5F5F5F5F5F5F5F5F5F5F5F5F5F5F5F5F5F5F5F5F5F5F5F5F5F5F5F5F5F5F5F5F5F5F5F5F5F5F5F5F5F5F5F5F5F5F5F5F5F5F5F5F5F5F5F5F5F5F5F5F5F5F5F5F5F5F5F5F5F5F5F5F5F5F5F5F5F5F5F5F5F5F5F5F5F5F5F5F5
310
F5F5F5F5F5F5F5F5F5F5F5F5F5F5F5F5E2E2F5F5F5F5F5F5F5F5F5F5F5F5F5F5F5F5F5F5F5F5F5F5F5F5F5F5F5F5F5F5F5F5F5F5F5F5F5F5F5F5F5F5F5F5F5F5F5F5F5F5F5F5F5F5F5F5F5F5F5F5F5F5F5F5F5F5F5F5F5F5F5F5F5F5F5F5F5F5F5F5F5F5F5F5F5F5F5F5F5F5F5F5F5F5F5F5F5F5F5F5F5F5F5F5F5F5F5F5F5
310
F5F5F5F5F5F5F5F5F5F5F5F5F5F5F5F5F5F5F5F5F5F5F5F5F5F5F5F5F5F5F5F5F5F5F5F5F5F5F5F5F5F5F5F5F5F5F5F5F5F5F5F5F5F5F5F5F5F5F5F5F5F5F5F5F5F5F5F5F5E2E2E2E2E2E2E2E2E2E2E2E2E2E2E2E2E2E2E2E2E2E2E2E2E2E2E2E2E2E2E2E2E2E2E2E2E2E2E2E2E2E2E2E2E2E2E2E2E2E2E2E2E2E2E2E2E2E2
310
E2E2E2E2E2E2E2E2E2E2E2E2E2E2E2E2E2E2E2E2E2E2E2E2E2E2E2E2E2E2E2E2E2E2E2E2E2E2E2E2E2E2E2E2E2E2E2E2E2E2E2E2E2E2E2E2E2E2E2E2E2E2E2E2E2E2E2E2E2E2E2E2E2E2E2E2E2E2E2E2E2E2E2E2E2E2E2E2E2E2E2E2E2E2E2E2E2E2E2E2E2E2E2E2E2E2E2E2E2E2E2E2E2E2E2E2E2E2E2E2E2E2E2EFEFEFEF
310
EFEFEFEFEFEFEFEFEFEFEFEFEFEFEFEFEFEFEFEFEFEFEFEFEFEFEFEFEFEFEFEFEFEFEFEFEFEFEFEFEFEFEFEFEFEFEFEFEFEFEFEFEFEFEFEFEFEFEFEFEFEFEFEFEFEFEFEFEFEFEFEFEFEFEFEFEFEFEFEFEFEFEFEFEFEFEFEFEFEFEFEFEFEFEFEFEFEFEFEFEFEFEFEFEFEFEFEFEFEFEFEFEFEFEFEFEFEFEFEFEFEFEFEFEFEFEF
310
EFEFEFEFEFEFEFEFEFEFEFEFEFEFEFEFEFEFEFEFEFEFEFEFEFEFEFEFEFEFEFEFEFEFEFEFEFEFEFEFEFEFEFEFEFEFEFEFEF
  0
XRECORD
  5
56F9D
102
{ACAD_REACTORS
330
B5
102
}
330
B5
100
AcDbXrecord
280
     1
102
SHADEPLOT
 70
     0
102
SHADEPLOTRESLEVEL
 70
     2
102
SHADEPLOTCUSTOMDPI
 70
   300
  0
XRECORD
  5
B6
102
{ACAD_REACTORS
330
B5
102
}
330
B5
100
AcDbXrecord
280
     1
310
28000000B40000008B0000000100080000000000BC610000000000000000000000010000000000000000000000000000FFFFFF000000000000000000000000000000000000000000000000000000000000000000330000006600000099000000CC000000FF00000000330000333300006633000099330000CC330000FF3300
310
0000660000336600006666000099660000CC660000FF66000000990000339900006699000099990000CC990000FF99000000CC000033CC000066CC000099CC0000CCCC0000FFCC000000FF000033FF000066FF000099FF0000CCFF0000FFFF000000003300330033006600330099003300CC003300FF003300003333003333
310
33006633330099333300CC333300FF33330000663300336633006666330099663300CC663300FF66330000993300339933006699330099993300CC993300FF99330000CC330033CC330066CC330099CC3300CCCC3300FFCC330000FF330033FF330066FF330099FF3300CCFF3300FFFF330000006600330066006600660099
310
006600CC006600FF00660000336600333366006633660099336600CC336600FF33660000666600336666006666660099666600CC666600FF66660000996600339966006699660099996600CC996600FF99660000CC660033CC660066CC660099CC6600CCCC6600FFCC660000FF660033FF660066FF660099FF6600CCFF6600
310
FFFF660000009900330099006600990099009900CC009900FF00990000339900333399006633990099339900CC339900FF33990000669900336699006666990099669900CC669900FF66990000999900339999006699990099999900CC999900FF99990000CC990033CC990066CC990099CC9900CCCC9900FFCC990000FF99
310
0033FF990066FF990099FF9900CCFF9900FFFF99000000CC003300CC006600CC009900CC00CC00CC00FF00CC000033CC003333CC006633CC009933CC00CC33CC00FF33CC000066CC003366CC006666CC009966CC00CC66CC00FF66CC000099CC003399CC006699CC009999CC00CC99CC00FF99CC0000CCCC0033CCCC0066CC
310
CC0099CCCC00CCCCCC00FFCCCC0000FFCC0033FFCC0066FFCC0099FFCC00CCFFCC00FFFFCC000000FF003300FF006600FF009900FF00CC00FF00FF00FF000033FF003333FF006633FF009933FF00CC33FF00FF33FF000066FF003366FF006666FF009966FF00CC66FF00FF66FF000099FF003399FF006699FF009999FF00CC
310
99FF00FF99FF0000CCFF0033CCFF0066CCFF0099CCFF00CCCCFF00FFCCFF0000FFFF0033FFFF0066FFFF0099FFFF00CCFFFF00FFFFFF00000000000D0D0D001A1A1A00282828003535350043434300505050005D5D5D006B6B6B00787878008686860093939300A1A1A100AEAEAE00BBBBBB00C9C9C900D6D6D600E4E4E400
310
F1F1F100FFFFFF0000000000000000000000000000000000000000000000000000000000000000000000000000000000F5F5F5F5F5F5F5F5F5F5F5F5F5F5F5F5F5F5F5F5F5F5F5F5F5F5F5F5F5F5F5F5F5F5F5F5F5F5F5F5F5F5F5F5F5F5F5F5F5F5F5F5F5F5F5F5F5F5F5F5F5F5F5F5F5F5F5F5F5F5F5F5F5F5F5F5F5F5F5
310
F5F5F5F5F5F5F5F5F5F5F5F5F5F5F5F5F5F5F5F5F5F5F5F5F5F5F5F5F5F5F5F5F5F5F5F5F5F5F5F5F5F5F5F5F5F5F5F5F5F5F5F5F5F5F5F5F5F5F5F5F5F5F5F5F5F5F5F5F5F5F5F5F5F5F5F5F5F5F5F5F5F5F5F5F5F5F5F5F5F5F5F5F5F5F5F5F5F5F5F5F5F5E2E2E2E2E2E2E2E2E2E2E2E2E2E2E2E2E2E2E2E2E2E2E2E2E2
310
E2E2E2E2E2E2E2E2E2E2E2E2E2E2E2E2E2E2E2E2E2E2E2E2E2E2E2E2E2E2E2E2E2E2E2E2E2E2E2E2E2E2E2E2E2E2E2E2E2E2E2E2E2E2E2E2E2E2E2E2E2E2E2E2E2E2E2E2E2E2E2E2E2E2E2E2E2E2E2E2E2E2E2E2E2E2E2E2E2E2E2E2E2E2E2E2E2E2E2E2E2E2E2E2E2E2E2E2E2E2E2E2E2E2E2E2E2E2E2E2E2E2E2E2E2E2E2
310
E2E2E2E2E2E2E2E2E2E2E2E2E2E2E2E2E2E2E2E2E2E2E2E2E2E2F5F5E2E2E2E2E2E2E2E2E2E2E2E2E2E2E2E2E2E2E2E2E2E2E2E2E2E2E2E2E2E2E2E2E2E2E2E2E2E2E2E2E2E2E2E2E2E2E2E2E2E2E2E2E2E2E2E2E2E2E2E2E2E2E2E2E2E2E2E2E2E2E2E2E2E2E2E2E2E2E2E2E2E2E2E2E2E2E2E2E2E2E2E2E2E2E2E2E2E2E2
310
E2E2E2E2E2E2E2E2E2E2E2E2E2E2E2E2E2E2E2E2E2E2E2E2E2E2E2E2E2E2E2E2E2E2E2E2E2E2E2E2E2E2E2E2E2E2E2E2E2E2E2E2E2E2E2E2E2E2E2E2E2E2E2E2E2E2E2E2E2E2E2E2E2E2E2E2E2E2E2F5F5E2E2E2E2E2E2E2E2E2E2E2E2E2E2E2E2E2E2E2E2E2E2E2E2E2E2E2E2E2E2E2E2E2E2E2E2E2E2E2E2E2E2E2E2E2E2
310
E2E2E2E2E2E2E2E2E2E2E2E2E2E2E2E2E2E2E2E2E2E2E2E2E2E2E2E2E2E2E2E2E2E2E2E2E2E2E2E2E2E2E2E2E2E2E2E2E2E2E2E2E2E2E2E2E2E2E2E2E2E2E2E2E2E2E2E2E2E2E2E2E2E2E2E2E2E2E2E2E2E2E2E2E2E2E2E2E2E2E2E2E2E2E2E2E2E2E2E2E2E2E2E2E2E2E2E2E2E2E2E2E2E2E2E2E2E2E2E2E2E2E2E2E2E2E2
310
E2E2E2E2E2F5F5E2E2E2E2E2E2E2E2E2E2E2E2E2E2E2E2E2E2E2E2E2E2E2E2E2E2E2E2E2E2E2E2E2E2E2E2E2E2E2E2E2E2E2E2E2E2E2E2E2E2E2E2E2E2E2E2E2E2E2E2E2E2E2E2E2E2E2E2E2E2E2E2E2E2E2E2E2E2E2E2E2E2E2E2E2E2E2E2E2E2E2E2E2E2E2E2E2E2E2E2E2E2E2E2E2E2E2E2E2E2E2E2E2E2E2E2E2E2E2E2
310
E2E2E2E2E2E2E2E2E2E2E2E2E2E2E2E2E2E2E2E2E2E2E2E2E2E2E2E2E2E2E2E2E2E2E2E2E2E2E2E2E2E2E2E2E2E2E2E2E2E2E2E2E2E2E2E2E2E2F5F5E2E2E2F5F5F5F5F5F5F5F5E2E2E2E2E2E2E2E2E2F5F5F5F5F5F5F5F5F5F5F5F5F5F5F5F5E2E2E2E2E2E2E2E2E2F5F5F5F5F5F5F5F5F5F5F5F5F5F5F5E2E2E2E2E2E2E2
310
E2E2F5F5F5F5F5F5F5F5F5F5F5F5F5F5F5F5E2E2E2E2E2E2E2E2F5F5F5F5F5F5F5F5F5F5F5F5F5F5F5F5E2E2E2E2E2E2E2E2E2F5F5F5F5F5F5F5F5F5F5F5F5F5F5F5E2E2E2E2E2E2E2E2E2F5F5F5F5F5F5F5F5F5F5F5F5F5F5F5F5E2E2E2E2E2E2E2E2E2F5F5F5F5F5F5F5F5E2E2E2F5F5E2E2E2F5E2E2E2E2E2E2E2E2E2E2
310
E2E2E2E2E2E2E2E2E2E2E2E2E2E2E2E2E2E2E2E2E2E2E2E2E2E2E2E2E2E2E2E2E2E2E2E2E2E2E2E2E2E2E2E2E2E2E2E2E2E2E2E2E2E2E2E2E2E2E2E2E2E2E2E2E2E2E2E2E2E2E2E2E2E2E2E2E2E2E2E2E2E2E2E2E2E2E2E2E2E2E2E2E2E2E2E2E2E2E2E2E2E2E2E2E2E2E2E2E2E2E2E2E2E2E2E2E2E2E2E2E2E2E2E2E2E2E2
310
E2E2E2E2E2E2E2E2E2E2E2E2E2E2E2E2E2E2E2E2E2E2E2E2E2E2E2E2E2E2E2E2E2F5E2E2E2F5F5E2E2E2F5E2E2E2E2E2E2E2E2E2E2E2E2E2E2E2E2E2E2E2E2E2E2E2E2E2E2E2E2E2E2E2E2E2E2E2E2E2E2E2E2E2E2E2E2E2E2E2E2E2E2E2E2E2E2E2E2E2E2E2E2E2E2E2E2E2E2E2E2E2E2E2E2E2E2E2E2E2E2E2E2E2E2E2E2
310
E2E2E2E2E2E2E2E2E2E2E2E2E2E2E2E2E2E2E2E2E2E2E2E2E2E2E2E2E2E2E2E2E2E2E2E2E2E2E2E2E2E2E2E2E2E2E2E2E2E2E2E2E2E2E2E2E2E2E2E2E2E2E2E2E2E2E2E2E2E2E2E2E2E2E2E2E2E2E2E2E2E2E2E2E2E2F5E2E2E2F5F5E2E2E2F5E2E2E2E2E2E2E2E2E2E2E2E2E2E2E2E2E2E2E2E2E2E2E2E2E2E2E2E2E2E2E2
310
E2E2E2E2E2E2E2E2E2E2E2E2E2E2E2E2E2E2E2E2E2E2E2E2E2E2E2E2E2E2E2E2E2E2E2E2E2E2E2E2E2E2E2E2E2E2E2E2E2E2E2E2E2E2E2E2E2E2E2E2E2E2E2E2E2E2E2E2E2E2E2E2E2E2E2E2E2E2E2E2E2E2E2E2E2E2E2E2E2E2E2E2E2E2E2E2E2E2E2E2E2E2E2E2E2E2E2E2E2E2E2E2E2E2E2E2E2E2E2E2E2E2E2E2E2E2E2
310
E2E2E2E2E2E2E2E2E2E2E2E2F5E2E2E2F5F5E2E2E2F5E2E2E2E2E2E2E2E2E2E2E2E2E2E2E2E2E2E2E2E2E2E2E2E2E2E2E2E2E2E2E2E2E2E2E2E2E2E2E2E2E2E2E2E2E2E2E2E2E2E2E2E2E2E2E2E2E2E2E2E2E2E2E2E2E2E2E2E2E2E2E2E2E2E2E2E2E2E2E2E2E2E2E2E2E2E2E2E2E2E2E2E2E2E2E2E2E2E2E2E2E2E2E2E2E2
310
E2E2E2E2E2E2E2E2E2E2E2E2E2E2E2E2E2E2E2E2E2E2E2E2E2E2E2E2E2E2E2E2E2E2E2E2E2E2E2E2E2E2E2E2E2E2E2E2E2E2E2E2E2E2E2E2E2E2E2E2E2E2E2E2E2F5E2E2E2F5F5E2E2E2F5E2E2E2E2E2E2E2E2E2E2E2E2E2E2E2E2E2E2E2E2E2E2E2E2E2E2E2E2E2E2E2E2E2E2E2E2E2E2E2E2E2E2E2E2E2E2E2E2E2E2E2E2
310
E2E2E2E2E2E2E2E2E2E2E2E2E2E2E2E2E2E2E2E2E2E2E2E2E2E2E2E2E2E2E2E2E2E2E2E2E2E2E2E2E2E2E2E2E2E2E2E2E2E2E2E2E2E2E2E2E2E2E2E2E2E2E2E2E2E2E2E2E2E2E2E2E2E2E2E2E2E2E2E2E2E2E2E2E2E2E2E2E2E2E2E2E2E2E2E2E2E2E2E2E2E2E2E2E2E2E2E2E2E2E2E2E2E2E2E2E2E2F5E2E2E2F5F5E2E2E2
310
F5E2E2E2E2E2E2E2E2E2E2E2E2E2E2E2E2E2E2E2E2E2E2E2E2E2E2E2E2E2E2E2E2E2E2E2E2E2E2E2E2E2E2E2E2E2E2E2E2E2E2E2E2E2E2E2E2E2E2E2E2E2E2E2E2E2E2E2E2E2E2E2E2E2E2E2E2E2E2E2E2E2E2E2E2E2E2E2E2E2E2E2E2E2E2E2E2E2E2E2E2E2E2E2E2E2E2E2E2E2E2E2E2E2E2E2E2E2E2E2E2E2E2E2E2E2E2
310
E2E2E2E2E2E2E2E2E2E2E2E2E2E2E2E2E2E2E2E2E2E2E2E2E2E2E2E2E2E2E2E2E2E2E2E2E2E2E2E2E2E2E2E2F5E2E2E2F5F5E2E2E2F5E2E2E2E2E2E2E2E2E2E2E2E2E2E2E2E2E2E2E2E2E2E2E2E2E2E2E2E2E2E2E2E2E2E2E2E2E2E2E2E2E2E2E2E2E2E2E2E2E2E2E2E2E2E2E2E2E2E2E2E2E2E2E2E2E2E2E2E2E2E2E2E2E2
310
E2E2E2E2E2E2E2E2E2E2E2E2E2E2E2E2E2E2E2E2E2E2E2E2E2E2E2E2E2E2E2E2E2E2E2E2E2E2E2E2E2E2E2E2E2E2E2E2E2E2E2E2E2E2E2E2E2E2E2E2E2E2E2E2E2E2E2E2E2E2E2E2E2E2E2E2E2E2E2E2E2E2E2E2E2E2E2E2E2E2E2E2E2E2E2E2E2F5E2E2E2F5F5E2E2E2F5E2E2E2E2E2E2E2E2E2E2E2E2E2E2E2E2E2E2E2E2
310
E2E2E2E2E2E2E2E2E2E2E2E2E2E2E2E2E2E2E2E2E2E2E2E2E2E2E2E2E2E2E2E2E2E2E2E2E2E2E2E2E2E2E2E2E2E2E2E2E2E2E2E2E2E2E2E2E2E2E2E2E2E2E2E2E2E2E2E2E2E2E2E2E2E2E2E2E2E2E2E2E2E2E2E2E2E2E2E2E2E2E2E2E2E2E2E2E2E2E2E2E2E2E2E2E2E2E2E2E2E2E2E2E2E2E2E2E2E2E2E2E2E2E2E2E2E2E2
310
E2E2E2E2E2E2E2E2E2E2E2E2E2E2E2E2E2E2E2E2E2E2E2F5E2E2E2F5F5E2E2E2E2E2E2E2E2E2E2E2E2E2E2E2E2E2E2E2E2E2E2E2E2E2E2E2E2E2E2E2E2E2E2E2E2E2E2E2E2E2E2E2E2E2E2E2E2E2E2E2E2E2E2E2E2E2E2E2E2E2E2E2E2E2E2E2E2E2E2E2E2E2E2E2E2E2E2E2E2E2E2E2E2E2E2E2E2E2E2E2E2E2E2E2E2E2E2
310
E2E2E2E2E2E2E2E2E2E2E2E2E2E2E2E2E2E2E2E2E2E2E2E2E2E2E2E2E2E2E2E2E2E2E2E2E2E2E2E2E2E2E2E2E2E2E2E2E2E2E2E2E2E2E2E2E2E2E2E2E2E2E2E2E2E2E2E2E2E2E2E2E2E2E2E2E2E2E2E2F5F5E2E2E2E2E2E2E2E2E2E2E2E2E2E2E2E2E2E2E2E2E2E2E2E2E2E2E2E2E2E2E2E2E2E2E2E2E2E2E2E2E2E2E2E2E2
310
E2E2E2E2E2E2E2E2E2E2E2E2E2E2E2E2E2E2E2E2E2E2E2E2E2E2E2E2E2E2E2E2E2E2E2E2E2E2E2E2E2E2E2E2E2E2E2E2E2E2E2E2E2E2E2E2E2E2E2E2E2E2E2E2E2E2E2E2E2E2E2E2E2E2E2E2E2E2E2E2E2E2E2E2E2E2E2E2E2E2E2E2E2E2E2E2E2E2E2E2E2E2E2E2E2E2E2E2E2E2E2E2E2E2E2E2E2E2E2E2E2E2E2E2E2E2E2
310
E2E2E2E2E2E2F5F5E2E2E2E2E2E2E2E2E2E2E2E2E2E2E2E2E2E2E2E2E2E2E2E2E2E2E2E2E2E2E2E2E2E2E2E2E2E2E2E2E2E2E2E2E2E2E2E2E2E2E2E2E2E2E2E2E2E2E2E2E2E2E2E2E2E2E2E2E2E2E2E2E2E2E2E2E2E2E2E2E2E2E2E2E2E2E2E2E2E2E2E2E2E2E2E2E2E2E2E2E2E2E2E2E2E2E2E2E2E2E2E2E2E2E2E2E2E2E2
310
E2E2E2E2E2E2E2E2E2E2E2E2E2E2E2E2E2E2E2E2E2E2E2E2E2E2E2E2E2E2E2E2E2E2E2E2E2E2E2E2E2E2E2E2E2E2E2E2E2E2E2E2E2E2E2E2E2E2E2F5F5E2E2E2E2E2E2E2E2E2E2E2E2E2E2E2E2E2E2E2E2E2E2E2E2E2E2E2E2E2E2E2E2E2E2E2E2E2E2E2E2E2E2E2E2E2E2E2E2E2E2E2E2E2E2E2E2E2E2E2E2E2E2E2E2E2E2
310
E2E2E2E2E2E2E2E2E2E2E2E2E2E2E2E2E2E2E2E2E2E2E2E2E2E2E2E2E2E2E2E2E2E2E2E2E2E2E2E2E2E2E2E2E2E2E2E2E2E2E2E2E2E2E2E2E2E2E2E2E2E2E2E2E2E2E2E2E2E2E2E2E2E2E2E2E2E2E2E2E2E2E2E2E2E2E2E2E2E2E2E2E2E2E2E2E2E2E2E2E2E2E2E2E2E2E2E2E2E2E2E2F5F5E2E2E2E2E2E2E2E2E2E2E2E2E2
310
E2E2E2E2E2E2E2F5F5F5F5F5F5F5F5F5F5F5F5F5F5F5F5F5F5F5F5F5F5F5F5F5F5F5F5F5F5F5F5F5F5F5F5F5F5F5F5F5F5F5F5F5F5F5F5F5F5F5F5F5F5F5F5F5F5F5F5F5F5F5F5F5F5F5F5F5F5F5F5F5F5F5F5F5F5F5F5F5F5F5F5F5F5F5F5F5F5F5F5F5F5F5F5F5F5F5F5F5F5F5F5F5F5F5F5F5F5F5F5F5F5F5F5F5F5F5F5
310
F5F5F5F5F5F5F5F5F5F5F5F5F5F5F5F5F5F5E2E2E2E2E2E2E2E2E2E2E2E2E2E2E2E2E2E2E2E2F5F5E2E2E2E2E2E2E2E2E2E2E2E2E2E2E2E2E2E2E2E2F5E2E2E2E2E2E2E2E2E2E2E2E2E2E2E2E2E2E2E2E2E2E2E2E2E2E2E2E2E2E2E2E2E2E2E2E2E2E2E2E2E2E2E2E2E2E2E2E2E2E2E2E2E2E2E2E2E2E2E2E2E2E2E2E2E2E2
310
E2E2E2E2E2E2E2E2E2E2E2E2E2E2E2E2E2E2E2E2E2E2E2E2E2E2E2E2E2E2E2E2E2E2E2E2E2E2E2E2E2E2E2E2E2E2E2E2E2E2E2E2E2E2E2E2E2E2E2E2E2E2E2E2E2E2E2E2E2E2F5E2E2E2E2E2E2E2E2E2E2E2E2E2E2E2E2E2E2E2E2F5F5E2E2E2E2E2E2E2E2E2E2E2E2E2E2E2E2E2E2E2E2F5E2E2E2E2E2E2E2E2E2E2E2E2E2
310
E2E2E2E2E2E2E2E2E2E2E2E2E2E2E2E2E2E2E2E2E2E2E2E2E2E2E2E2E2E2E2E2E2E2E2E2E2E2E2E2E2E2E2E2E2E2E2E2E2E2E2E2E2E2E2E2E2E2E2E2E2E2E2E2E2E2E2E2E2E2E2E2E2E2E2E2E2E2E2E2E2E2E2E2E2E2E2E2E2E2E2E2E2E2E2E2E2E2E2E2E2E2E2E2E2E2E2E2E2E2E2E2E2E2E2E2E2E2E2E2E2E2E2F5E2E2E2
310
E2E2E2E2E2E2E2E2E2E2E2E2E2E2E2E2E2F5F5E2E2E2E2E2E2E2E2E2E2E2E2E2E2E2E2E2E2E2E2F5E2E2E2E2E2E2E2E2E2E2E2E2E2E2E2E2E2E2E2E2E2E2E2E2E2E2E2E2E2E2E2E2E2E2E2E2E2E2E2E2E2E2E2E2E2E2E2E2E2E2E2E2E2E2E2E2E2E2E2E2E2E2E2E2E2E2E2E2E2E2E2E2E2E2E2E2E2E2E2E2E2E2E2E2E2E2E2
310
E2E2E2E2E2E2E2E2E2E2E2E2E2E2E2E2E2E2E2E2E2E2E2E2E2E2E2E2E2E2E2E2E2E2E2E2E2E2E2E2E2E2E2E2E2E2E2E2E2F5E2E2E2E2E2E2E2E2E2E2E2E2E2E2E2E2E2E2E2E2F5F5E2E2E2E2E2E2E2E2E2E2E2E2E2E2E2E2E2E2E2E2F5E2E2E2E2E2E2E2E2E2E2E2E2E2E2E2E2E2E2E2E2E2E2E2E2E2E2E2E2E2E2E2E2E2E2
310
E2E2E2E2E2E2E2E2E2E2E2E2E2E2E2E2E2E2E2E2E2E2E2E2E2E2E2E2E2E2E2E2E2E2E2E2E2E2E2E2E2E2E2E2E2E2E2E2E2E2E2E2E2E2E2E2E2E2E2E2E2E2E2E2E2E2E2E2E2E2E2E2E2E2E2E2E2E2E2E2E2E2E2E2E2E2E2E2E2E2E2E2E2E2E2E2E2E2E2E2E2E2F5E2E2E2E2E2E2E2E2E2E2E2E2E2E2E2E2E2E2E2E2F5F5E2E2
310
E2F5E2E2E2E2E2E2E2E2E2E2E2E2E2E2E2E2F5E2E2E2E2E2E2E2E2E2E2E2E2E2E2E2E2E2E2E2E2E2E2E2E2E2E2E2E2E2E2E2E2E2E2E2E2E2E2E2E2E2E2E2E2E2E2E2E2E2E2E2E2E2E2E2E2E2E2E2E2E2E2E2E2E2E2E2E2E2E2E2E2E2E2E2E2E2E2E2E2E2E2E2E2E2E2E2E2E2E2E2E2E2E2E2E2E2E2E2E2E2E2E2E2E2E2E2E2
310
E2E2E2E2E2E2E2E2E2E2E2E2E2E2E2E2E2E2E2E2E2E2E2E2E2E2E2E2F5E2E2E2E2E2E2E2E2E2E2E2E2E2E2E2E2F5E2E2E2F5F5E2E2E2F5E2E2E2E2E2E2E2E2E2E2E2E2E2E2E2E2F5E2E2E2E2E2E2E2E2E2E2E2E2E2E2E2E2E2E2E2E2E2E2E2E2E2E2E2E2E2E2E2E2E2E2E2E2E2E2E2E2E2E2E2E2E2E2E2E2E2E2E2E2E2E2E2
310
E2E2E2E2E2E2E2E2E2E2E2E2E2E2E2E2E2E2E2E2E2E2E2E2E2E2E2E2E2E2E2E2E2E2E2E2E2E2E2E2E2E2E2E2E2E2E2E2E2E2E2E2E2E2E2E2E2E2E2E2E2E2E2E2E2E2E2E2E2E2E2E2E2E2E2E2E2E2E2E2E2F5E2E2E2E2E2E2E2E2E2E2E2E2E2E2E2E2F5E2E2E2F5F5E2E2E2F5E2E2E2E2E2E2E2E2E2E2E2E2E2E2E2E2F5E2E2
310
E2E2E2E2E2E2E2E2E2E2E2E2E2E2E2E2E2E2E2E2E2E2E2E2E2E2E2E2E2E2E2E2E2E2E2E2E2E2E2E2E2E2E2E2E2E2E2E2E2E2E2E2E2E2E2E2E2E2E2E2E2E2E2E2E2E2E2E2E2E2E2E2E2E2E2E2E2E2E2E2E2E2E2E2E2E2E2E2E2E2E2E2E2E2E2E2E2E2E2E2E2E2E2E2E2E2E2E2E2E2E2E2E2E2E2E2E2E2E2E2E2E2E2E2E2E2E2
310
E2E2E2E2E2E2E2F5E2E2E2E2E2E2E2E2E2E2E2E2E2E2E2E2F5E2E2E2F5F5E2E2E2F5E2E2E2E2E2E2E2E2E2E2E2E2E2E2E2E2F5E2E2E2E2E2E2E2E2E2E2E2E2E2E2E2E2E2E2E2E2E2E2E2E2E2E2E2E2E2E2E2E2E2E2E2E2E2E2E2E2E2E2E2E2E2E2E2E2E2E2E2E2E2E2E2E2E2E2E2E2E2E2E2E2E2E2E2E2E2E2E2E2E2E2E2E2
310
E2E2E2E2E2E2E2E2E2E2E2E2E2E2E2E2E2E2E2E2E2E2E2E2E2E2E2E2E2E2E2E2E2E2E2E2E2E2E2E2E2E2E2E2E2E2E2E2E2E2E2E2E2E2E2E2E2E2E2E2F5E2E2E2E2E2E2E2E2E2E2E2E2E2E2E2E2F5E2E2E2F5F5E2E2E2F5E2E2E2E2E2E2E2E2E2E2E2E2E2E2E2E2F5E2E2E2E2E2E2E2E2E2E2E2E2E2E2E2E2E2E2E2E2E2E2E2
310
E2E2E2E2E2E2E2E2E2E2E2E2E2E2E2E2E2E2E2E2E2E2E2E2E2E2E2E2E2E2E2E2E2E2E2E2E2E2E2E2E2E2E2E2E2E2E2E2E2E2E2E2E2E2E2E2E2E2E2E2E2E2E2E2E2E2E2E2E2E2E2E2E2E2E2E2E2E2E2E2E2E2E2E2E2E2E2E2E2E2E2E2E2E2E2E2E2E2E2E2E2E2E2E2E2E2E2E2E2E2E2E2E2F5E2E2E2E2E2E2E2E2E2E2E2E2E2
310
E2E2E2F5E2E2E2F5F5E2E2E2F5E2E2E2E2E2E2E2E2E2E2E2E2E2E2E2E2F5E2E2E2E2E2E2E2E2E2E2E2E2E2E2E2E2E2E2E2E2E2E2E2E2E2E2E2E2E2E2E2E2E2E2E2E2E2E2E2E2E2E2E2E2E2E2E2E2E2E2E2E2E2E2E2E2E2E2E2E2E2E2E2E2E2E2E2E2E2E2E2E2E2E2E2E2E2E2E2E2E2E2E2E2E2E2E2E2E2E2E2E2E2E2E2E2E2
310
E2E2E2E2E2E2E2E2E2E2E2E2E2E2E2E2E2E2E2E2E2E2E2E2E2E2E2E2E2E2E2E2E2E2E2E2E2E2E2F5E2E2E2E2E2E2E2E2E2E2E2E2E2E2E2E2F5E2E2E2F5F5E2E2E2F5E2E2E2E2E2E2E2E2E2E2E2E2E2E2E2E2F5E2E2E2E2E2E2E2E2E2E2E2E2E2E2E2E2E2E2E2E2E2E2E2E2E2E2E2E2E2E2E2E2E2E2E2E2E2E2E2E2E2E2E2E2
310
E2E2E2E2E2E2E2E2E2E2E2E2E2E2E2E2E2E2E2E2E2E2E2E2E2E2E2E2E2E2E2E2E2E2E2E2E2E2E2E2E2E2E2E2E2E2E2E2E2E2E2E2E2E2E2E2E2E2E2E2E2E2E2E2E2E2E2E2E2E2E2E2E2E2E2E2E2E2E2E2E2E2E2E2E2E2E2E2E2E2E2E2F5E2E2E2E2E2E2E2E2E2E2E2E2E2E2E2E2F5E2E2E2F5F5E2E2E2F5E2E2E2E2E2E2E2E2
310
E2E2E2E2E2E2E2E2F5E2E2E2E2E2E2E2E2E2E2E2E2E2E2E2E2E2E2E2E2E2E2E2E2E2E2E2E2E2E2E2E2E2E2E2E2E2E2E2E2E2E2E2E2E2E2E2E2E2E2E2E2E2E2E2E2E2E2E2E2E2E2E2E2E2E2E2E2E2E2E2E2E2E2E2E2E2E2E2E2E2E2E2E2E2E2E2E2E2E2E2E2E2E2E2E2E2E2E2E2E2E2E2E2E2E2E2E2E2E2E2E2E2E2E2E2E2E2
310
E2E2E2E2E2E2E2E2E2E2E2E2E2E2E2E2E2E2F5E2E2E2E2E2E2E2E2E2E2E2E2E2E2E2E2F5E2E2E2F5F5E2E2E2F5E2E2E2E2E2E2E2E2E2E2E2E2E2E2E2E2F5E2E2E2E2E2E2E2E2E2E2E2E2E2E2E2E2E2E2E2E2E2E2E2E2E2E2E2E2E2E2E2E2E2E2E2E2E2E2E2E2E2E2E2E2E2E2E2E2E2E2E2E2E2E2E2E2E2E2E2E2E2E2E2E2E2
310
E2E2E2E2E2E2E2E2E2E2E2E2E2E2E2E2E2E2E2E2E2E2E2E2E2E2E2E2E2E2E2E2E2E2E2E2E2E2E2E2E2E2E2E2E2E2E2E2E2E2E2E2E2E2E2E2E2E2E2E2E2E2E2E2E2E2E2E2E2E2E2F5E2E2E2E2E2E2E2E2E2E2E2E2E2E2E2E2F5E2E2E2F5F5E2E2E2F5E2E2E2E2E2E2E2E2E2E2E2E2E2E2E2E2F5E2E2E2E2E2E2E2E2E2E2E2E2
310
E2E2E2E2E2E2E2E2E2E2E2E2E2E2E2E2E2E2E2E2E2E2E2E2E2E2E2E2E2E2E2E2E2E2E2E2E2E2E2E2E2E2E2E2E2E2E2E2E2E2E2E2E2E2E2E2E2E2E2E2E2E2E2E2E2E2E2E2E2E2E2E2E2E2E2E2E2E2E2E2E2E2E2E2E2E2E2E2E2E2E2E2E2E2E2E2E2E2E2E2E2E2E2E2E2E2E2E2E2E2E2E2E2E2E2E2E2E2E2E2E2E2E2E2F5E2E2
310
E2E2E2E2E2E2E2E2E2E2E2E2E2E2F5E2E2E2F5F5E2E2E2F5E2E2E2E2E2E2E2E2E2E2E2E2E2E2E2E2F5E2E2E2E2E2E2E2E2E2E2E2E2E2E2E2E2E2E2E2E2E2E2E2E2E2E2E2E2E2E2E2E2E2E2E2E2E2E2E2E2E2E2E2E2E2E2E2E2E2E2E2E2E2E2E2E2E2E2E2E2E2E2E2E2E2E2E2E2E2E2E2E2E2E2E2E2E2E2E2E2E2E2E2E2E2E2
310
E2E2E2E2E2E2E2E2E2E2E2E2E2E2E2E2E2E2E2E2E2E2E2E2E2E2E2E2E2E2E2E2E2E2E2E2E2E2E2E2E2E2E2E2E2E2E2E2E2E2F5E2E2E2E2E2E2E2E2E2E2E2E2E2E2E2E2F5E2E2E2F5F5E2E2E2F5E2E2E2E2E2E2E2E2E2E2E2E2E2E2E2E2F5E2E2E2E2E2E2E2E2E2E2E2E2E2E2E2E2E2E2E2E2E2E2E2E2E2E2E2E2E2E2E2E2E2
310
E2E2E2E2E2E2E2E2E2E2E2E2E2E2E2E2E2E2E2E2E2E2E2E2E2E2E2E2E2E2E2E2E2E2E2E2E2E2E2E2E2E2E2E2E2E2E2E2E2E2E2E2E2E2E2E2E2E2E2E2E2E2E2E2E2E2E2E2E2E2E2E2E2E2E2E2E2E2E2E2E2E2E2E2E2E2E2E2E2E2E2E2E2E2E2E2E2E2E2E2E2E2E2F5E2E2E2E2E2E2E2E2E2E2E2E2E2E2E2E2F5E2E2E2F5F5E2
310
E2E2F5E2E2E2E2E2E2E2E2E2E2E2E2E2E2E2E2F5E2E2E2E2E2E2E2E2E2E2E2E2E2E2E2E2E2E2E2E2E2E2E2E2E2E2E2E2E2E2E2E2E2E2E2E2E2E2E2E2E2E2E2E2E2E2E2E2E2E2E2E2E2E2E2E2E2E2E2E2E2E2E2E2E2E2E2E2E2E2E2E2E2E2E2E2E2E2E2E2E2E2E2E2E2E2E2E2E2E2E2E2E2E2E2E2E2E2E2E2E2E2E2E2E2E2E2
310
E2E2E2E2E2E2E2E2E2E2E2E2E2E2E2E2E2E2E2E2E2E2E2E2E2E2E2E2E2F5E2E2E2E2E2E2E2E2E2E2E2E2E2E2E2E2F5E2E2E2F5F5E2E2E2F5E2E2E2E2E2E2E2E2E2E2E2E2E2E2E2E2F5E2E2E2E2E2E2E2E2E2E2E2E2E2E2E2E2E2E2E2E2E2E2E2E2E2E2E2E2E2E2E2E2E2E2E2E2E2E2E2E2E2E2E2E2E2E2E2E2E2E2E2E2E2E2
310
E2E2E2E2E2E2E2E2E2E2E2E2E2E2E2E2E2E2E2E2E2E2E2E2E2E2E2E2E2E2E2E2E2E2E2E2E2E2E2E2E2E2E2E2E2E2E2E2E2E2E2E2E2E2E2E2E2E2E2E2E2E2E2E2E2E2E2E2E2E2E2E2E2E2E2E2E2E2E2E2E2E2F5E2E2E2E2E2E2E2E2E2E2E2E2E2E2E2E2F5E2E2E2F5F5E2E2E2F5E2E2E2E2E2E2E2E2E2E2E2E2E2E2E2E2F5E2
310
E2E2E2E2E2E2E2E2E2E2E2E2E2E2E2E2E2E2E2E2E2E2E2E2E2E2E2E2E2E2E2E2E2E2E2E2E2E2E2E2E2E2E2E2E2E2E2E2E2E2E2E2E2E2E2E2E2E2E2E2E2E2E2E2E2E2E2E2E2E2E2E2E2E2E2E2E2E2E2E2E2E2E2E2E2E2E2E2E2E2E2E2E2E2E2E2E2E2E2E2E2E2E2E2E2E2E2E2E2E2E2E2E2E2E2E2E2E2E2E2E2E2E2E2E2E2E2
310
E2E2E2E2E2E2E2E2F5E2E2E2E2E2E2E2E2E2E2E2E2E2E2E2E2F5E2E2E2F5F5E2E2E2F5E2E2E2E2E2E2E2E2E2E2E2E2E2E2E2E2F5E2E2E2E2E2E2E2E2E2E2E2E2E2E2E2E2E2E2E2E2E2E2E2E2E2E2E2E2E2E2E2E2E2E2E2E2E2E2E2E2E2E2E2E2E2E2E2E2E2E2E2E2E2E2E2E2E2E2E2E2E2E2E2E2E2E2E2E2E2E2E2E2E2E2E2
310
E2E2E2E2E2E2E2E2E2E2E2E2E2E2E2E2E2E2E2E2E2E2E2E2E2E2E2E2E2E2E2E2E2E2E2E2E2E2E2E2E2E2E2E2E2E2E2E2E2E2E2E2E2E2E2E2E2E2E2E2E2F5E2E2E2E2E2E2E2E2E2E2E2E2E2E2E2E2F5E2E2E2F5F5E2E2E2F5E2E2E2E2E2E2E2E2E2E2E2E2E2E2E2E2F5E2E2E2E2E2E2E2E2E2E2E2E2E2E2E2E2E2E2E2E2E2E2
310
E2E2E2E2E2E2E2E2E2E2E2E2E2E2E2E2E2E2E2E2E2E2E2E2E2E2E2E2E2E2E2E2E2E2E2E2E2E2E2E2E2E2E2E2E2E2E2E2E2E2E2E2E2E2E2E2E2E2E2E2E2E2E2E2E2E2E2E2E2E2E2E2E2E2E2E2E2E2E2E2E2E2E2E2E2E2E2E2E2E2E2E2E2E2E2E2E2E2E2E2E2E2E2E2E2E2E2E2E2E2E2E2E2E2F5E2E2E2E2E2E2E2E2E2E2E2E2
310
E2E2E2E2F5E2E2E2F5F5E2E2E2E2E2E2E2E2E2E2E2E2E2E2E2E2E2E2E2E2F5E2E2E2E2E2E2E2E2E2E2E2E2E2E2E2E2E2E2E2E2E2E2E2E2E2E2E2E2E2E2E2E2E2E2E2E2E2E2E2E2E2E2E2E2E2E2E2E2E2E2E2E2E2E2E2E2E2E2E2E2E2E2E2E2E2E2E2E2E2E2E2E2E2E2E2E2E2E2E2E2E2E2E2E2E2E2E2E2E2E2E2E2E2E2E2E2
310
E2E2E2E2E2E2E2E2E2E2E2E2E2E2E2E2E2E2E2E2E2E2E2E2E2E2E2E2E2E2E2E2E2E2E2E2E2E2E2E2F5E2E2E2E2E2E2E2E2E2E2E2E2E2E2E2E2E2E2E2E2F5F5E2E2E2E2E2E2E2E2E2E2E2E2E2E2E2E2E2E2E2E2F5E2E2E2E2E2E2E2E2E2E2E2E2E2E2E2E2E2E2E2E2E2E2E2E2E2E2E2E2E2E2E2E2E2E2E2E2E2E2E2E2E2E2E2
310
E2E2E2E2E2E2E2E2E2E2E2E2E2E2E2E2E2E2E2E2E2E2E2E2E2E2E2E2E2E2E2E2E2E2E2E2E2E2E2E2E2E2E2E2E2E2E2E2E2E2E2E2E2E2E2E2E2E2E2E2E2E2E2E2E2E2E2E2E2E2E2E2E2E2E2E2E2E2E2E2E2E2E2E2E2E2E2E2E2E2E2E2E2F5E2E2E2E2E2E2E2E2E2E2E2E2E2E2E2E2E2E2E2E2F5F5E2E2E2E2E2E2E2E2E2E2E2
310
E2E2E2E2E2E2E2E2E2F5E2E2E2E2E2E2E2E2E2E2E2E2E2E2E2E2E2E2E2E2E2E2E2E2E2E2E2E2E2E2E2E2E2E2E2E2E2E2E2E2E2E2E2E2E2E2E2E2E2E2E2E2E2E2E2E2E2E2E2E2E2E2E2E2E2E2E2E2E2E2E2E2E2E2E2E2E2E2E2E2E2E2E2E2E2E2E2E2E2E2E2E2E2E2E2E2E2E2E2E2E2E2E2E2E2E2E2E2E2E2E2E2E2E2E2E2E2
310
E2E2E2E2E2E2E2E2E2E2E2E2E2E2E2E2E2E2E2F5E2E2E2E2E2E2E2E2E2E2E2E2E2E2E2E2E2E2E2E2F5F5E2E2E2E2E2E2E2E2E2E2E2E2E2E2E2E2E2E2E2E2F5E2E2E2E2E2E2E2E2E2E2E2E2E2E2E2E2E2E2E2E2E2E2E2E2E2E2E2E2E2E2E2E2E2E2E2E2E2E2E2E2E2E2E2E2E2E2E2E2E2E2E2E2E2E2E2E2E2E2E2E2E2E2E2E2
310
E2E2E2E2E2E2E2E2E2E2E2E2E2E2E2E2E2E2E2E2E2E2E2E2E2E2E2E2E2E2E2E2E2E2E2E2E2E2E2E2E2E2E2E2E2E2E2E2E2E2E2E2E2E2E2E2E2E2E2E2E2E2E2E2E2E2E2E2E2E2E2E2F5E2E2E2E2E2E2E2E2E2E2E2E2E2E2E2E2E2E2E2E2F5F5E2E2E2E2E2E2E2E2E2E2E2E2E2E2E2E2E2E2E2E2F5E2E2E2E2E2E2E2E2E2E2E2
310
E2E2E2E2E2E2E2E2E2E2E2E2E2E2E2E2E2E2E2E2E2E2E2E2E2E2E2E2E2E2E2E2E2E2E2E2E2E2E2E2E2E2E2E2E2E2E2E2E2E2E2E2E2E2E2E2E2E2E2E2E2E2E2E2E2E2E2E2E2E2E2E2E2E2E2E2E2E2E2E2E2E2E2E2E2E2E2E2E2E2E2E2E2E2E2E2E2E2E2E2E2E2E2E2E2E2E2E2E2E2E2E2E2E2E2E2E2E2E2E2E2E2E2E2E2F5E2
310
E2E2E2E2E2E2E2E2E2E2E2E2E2E2E2E2E2E2E2F5F5E2E2E2E2E2E2E2E2E2E2E2E2E2E2E2E2E2E2E2E2F5E2E2E2E2E2E2E2E2E2E2E2E2E2E2E2E2E2E2E2E2E2E2E2E2E2E2E2E2E2E2E2E2E2E2E2E2E2E2E2E2E2E2E2E2E2E2E2E2E2E2E2E2E2E2E2E2E2E2E2E2E2E2E2E2E2E2E2E2E2E2E2E2E2E2E2E2E2E2E2E2E2E2E2E2E2
310
E2E2E2E2E2E2E2E2E2E2E2E2E2E2E2E2E2E2E2E2E2E2E2E2E2E2E2E2E2E2E2E2E2E2E2E2E2E2E2E2E2E2E2E2E2E2E2E2E2E2E2F5E2E2E2E2E2E2E2E2E2E2E2E2E2E2E2E2E2E2E2E2F5F5E2E2E2E2E2E2E2E2E2E2E2E2E2E2E2E2E2E2E2E2F5E2E2E2E2E2E2E2E2E2E2E2E2E2E2E2E2E2E2E2E2E2E2E2E2E2E2E2E2E2E2E2E2
310
E2E2E2E2E2E2E2E2E2E2E2E2E2E2E2E2E2E2E2E2E2E2E2E2E2E2E2E2E2E2E2E2E2E2E2E2E2E2E2E2E2E2E2E2E2E2E2E2E2E2E2E2E2E2E2E2E2E2E2E2E2E2E2E2E2E2E2E2E2E2E2E2E2E2E2E2E2E2E2E2E2E2E2E2E2E2E2E2E2E2E2E2E2E2E2E2E2E2E2E2E2E2E2E2F5E2E2E2E2E2E2E2E2E2E2E2E2E2E2E2E2E2E2E2E2F5F5
310
E2E2E2E2E2E2E2E2E2E2E2E2E2E2E2E2E2E2E2E2F5E2E2E2E2E2E2E2E2E2E2E2E2E2E2E2E2E2E2E2E2E2E2E2E2E2E2E2E2E2E2E2E2E2E2E2E2E2E2E2E2E2E2E2E2E2E2E2E2E2E2E2E2E2E2E2E2E2E2E2E2E2E2E2E2E2E2E2E2E2E2E2E2E2E2E2E2E2E2E2E2E2E2E2E2E2E2E2E2E2E2E2E2E2E2E2E2E2E2E2E2E2E2E2E2E2E2
310
E2E2E2E2E2E2E2E2E2E2E2E2E2E2E2E2E2E2E2E2E2E2E2E2E2E2E2E2E2E2F5E2E2E2E2E2E2E2E2E2E2E2E2E2E2E2E2E2E2E2E2F5F5E2E2E2E2E2E2E2E2E2E2E2E2E2E2E2E2E2E2E2E2F5E2E2E2E2E2E2E2E2E2E2E2E2E2E2E2E2E2E2E2E2E2E2E2E2E2E2E2E2E2E2E2E2E2E2E2E2E2E2E2E2E2E2E2E2E2E2E2E2E2E2E2E2E2
310
E2E2E2E2E2E2E2E2E2E2E2E2E2E2E2E2E2E2E2E2E2E2E2E2E2E2E2E2E2E2E2E2E2E2E2E2E2E2E2E2E2E2E2E2E2E2E2E2E2E2E2E2E2E2E2E2E2E2E2E2E2E2E2E2E2E2E2E2E2E2E2E2E2E2E2E2E2E2E2E2E2E2E2F5E2E2E2E2E2E2E2E2E2E2E2E2E2E2E2E2E2E2E2E2F5F5E2E2E2F5E2E2E2E2E2E2E2E2E2E2E2E2E2E2E2E2F5
310
E2E2E2E2E2E2E2E2E2E2E2E2E2E2E2E2E2E2E2E2E2E2E2E2E2E2E2E2E2E2E2E2E2E2E2E2E2E2E2E2E2E2E2E2E2E2E2E2E2E2E2E2E2E2E2E2E2E2E2E2E2E2E2E2E2E2E2E2E2E2E2E2E2E2E2E2E2E2E2E2E2E2E2E2E2E2E2E2E2E2E2E2E2E2E2E2E2E2E2E2E2E2E2E2E2E2E2E2E2E2E2E2E2E2E2E2E2E2E2E2E2E2E2E2E2E2E2
310
E2E2E2E2E2E2E2E2E2F5E2E2E2E2E2E2E2E2E2E2E2E2E2E2E2E2F5E2E2E2F5F5E2E2E2F5E2E2E2E2E2E2E2E2E2E2E2E2E2E2E2E2F5E2E2E2E2E2E2E2E2E2E2E2E2E2E2E2E2E2E2E2E2E2E2E2E2E2E2E2E2E2E2E2E2E2E2E2E2E2E2E2E2E2E2E2E2E2E2E2E2E2E2E2E2E2E2E2E2E2E2E2E2E2E2E2E2E2E2E2E2E2E2E2E2E2E2
310
E2E2E2E2E2E2E2E2E2E2E2E2E2E2E2E2E2E2E2E2E2E2E2E2E2E2E2E2E2E2E2E2E2E2E2E2E2E2E2E2E2E2E2E2E2E2E2E2E2E2E2E2E2E2E2E2E2E2E2E2E2E2F5E2E2E2E2E2E2E2E2E2E2E2E2E2E2E2E2F5E2E2E2F5F5E2E2E2F5E2E2E2E2E2E2E2E2E2E2E2E2E2E2E2E2F5E2E2E2E2E2E2E2E2E2E2E2E2E2E2E2E2E2E2E2E2E2
310
E2E2E2E2E2E2E2E2E2E2E2E2E2E2E2E2E2E2E2E2E2E2E2E2E2E2E2E2E2E2E2E2E2E2E2E2E2E2E2E2E2E2E2E2E2E2E2E2E2E2E2E2E2E2E2E2E2E2E2E2E2E2E2E2E2E2E2E2E2E2E2E2E2E2E2E2E2E2E2E2E2E2E2E2E2E2E2E2E2E2E2E2E2E2E2E2E2E2E2E2E2E2E2E2E2E2E2E2E2E2E2E2E2E2E2F5E2E2E2E2E2E2E2E2E2E2E2
310
E2E2E2E2E2F5E2E2E2F5F5E2E2E2F5E2E2E2E2E2E2E2E2E2E2E2E2E2E2E2E2F5E2E2E2E2E2E2E2E2E2E2E2E2E2E2E2E2E2E2E2E2E2E2E2E2E2E2E2E2E2E2E2E2E2E2E2E2E2E2E2E2E2E2E2E2E2E2E2E2E2E2E2E2E2E2E2E2E2E2E2E2E2E2E2E2E2E2E2E2E2E2E2E2E2E2E2E2E2E2E2E2E2E2E2E2E2E2E2E2E2E2E2E2E2E2E2
310
E2E2E2E2E2E2E2E2E2E2E2E2E2E2E2E2E2E2E2E2E2E2E2E2E2E2E2E2E2E2E2E2E2E2E2E2E2E2E2E2E2F5E2E2E2E2E2E2E2E2E2E2E2E2E2E2E2E2F5E2E2E2F5F5E2E2E2F5E2E2E2E2E2E2E2E2E2E2E2E2E2E2E2E2F5E2E2E2E2E2E2E2E2E2E2E2E2E2E2E2E2E2E2E2E2E2E2E2E2E2E2E2E2E2E2E2E2E2E2E2E2E2E2E2E2E2E2
310
E2E2E2E2E2E2E2E2E2E2E2E2E2E2E2E2E2E2E2E2E2E2E2E2E2E2E2E2E2E2E2E2E2E2E2E2E2E2E2E2E2E2E2E2E2E2E2E2E2E2E2E2E2E2E2E2E2E2E2E2E2E2E2E2E2E2E2E2E2E2E2E2E2E2E2E2E2E2E2E2E2E2E2E2E2E2E2E2E2E2E2E2E2E2F5E2E2E2E2E2E2E2E2E2E2E2E2E2E2E2E2F5E2E2E2F5F5E2E2E2F5E2E2E2E2E2E2
310
E2E2E2E2E2E2E2E2E2E2F5E2E2E2E2E2E2E2E2E2E2E2E2E2E2E2E2E2E2E2E2E2E2E2E2E2E2E2E2E2E2E2E2E2E2E2E2E2E2E2E2E2E2E2E2E2E2E2E2E2E2E2E2E2E2E2E2E2E2E2E2E2E2E2E2E2E2E2E2E2E2E2E2E2E2E2E2E2E2E2E2E2E2E2E2E2E2E2E2E2E2E2E2E2E2E2E2E2E2E2E2E2E2E2E2E2E2E2E2E2E2E2E2E2E2E2E2
310
E2E2E2E2E2E2E2E2E2E2E2E2E2E2E2E2E2E2E2E2F5E2E2E2E2E2E2E2E2E2E2E2E2E2E2E2E2F5E2E2E2F5F5E2E2E2F5E2E2E2E2E2E2E2E2E2E2E2E2E2E2E2E2F5E2E2E2E2E2E2E2E2E2E2E2E2E2E2E2E2E2E2E2E2E2E2E2E2E2E2E2E2E2E2E2E2E2E2E2E2E2E2E2E2E2E2E2E2E2E2E2E2E2E2E2E2E2E2E2E2E2E2E2E2E2E2E2
310
E2E2E2E2E2E2E2E2E2E2E2E2E2E2E2E2E2E2E2E2E2E2E2E2E2E2E2E2E2E2E2E2E2E2E2E2E2E2E2E2E2E2E2E2E2E2E2E2E2E2E2E2E2E2E2E2E2E2E2E2E2E2E2E2E2E2E2E2E2E2E2E2E2F5E2E2E2E2E2E2E2E2E2E2E2E2E2E2E2E2F5E2E2E2F5F5E2E2E2F5E2E2E2E2E2E2E2E2E2E2E2E2E2E2E2E2F5E2E2E2E2E2E2E2E2E2E2
310
E2E2E2E2E2E2E2E2E2E2E2E2E2E2E2E2E2E2E2E2E2E2E2E2E2E2E2E2E2E2E2E2E2E2E2E2E2E2E2E2E2E2E2E2E2E2E2E2E2E2E2E2E2E2E2E2E2E2E2E2E2E2E2E2E2E2E2E2E2E2E2E2E2E2E2E2E2E2E2E2E2E2E2E2E2E2E2E2E2E2E2E2E2E2E2E2E2E2E2E2E2E2E2E2E2E2E2E2E2E2E2E2E2E2E2E2E2E2E2E2E2E2E2E2E2E2F5
310
E2E2E2E2E2E2E2E2E2E2E2E2E2E2E2E2F5E2E2E2F5F5E2E2E2F5E2E2E2E2E2E2E2E2E2E2E2E2E2E2E2E2F5E2E2E2E2E2E2E2E2E2E2E2E2E2E2E2E2E2E2E2E2E2E2E2E2E2E2E2E2E2E2E2E2E2E2E2E2E2E2E2E2E2E2E2E2E2E2E2E2E2E2E2E2E2E2E2E2E2E2E2E2E2E2E2E2E2E2E2E2E2E2E2E2E2E2E2E2E2E2E2E2E2E2E2E2
310
E2E2E2E2E2E2E2E2E2E2E2E2E2E2E2E2E2E2E2E2E2E2E2E2E2E2E2E2E2E2E2E2E2E2E2E2E2E2E2E2E2E2E2E2E2E2E2E2E2E2E2E2F5E2E2E2E2E2E2E2E2E2E2E2E2E2E2E2E2F5E2E2E2F5F5E2E2E2F5E2E2E2E2E2E2E2E2E2E2E2E2E2E2E2E2F5E2E2E2E2E2E2E2E2E2E2E2E2E2E2E2E2E2E2E2E2E2E2E2E2E2E2E2E2E2E2E2
310
E2E2E2E2E2E2E2E2E2E2E2E2E2E2E2E2E2E2E2E2E2E2E2E2E2E2E2E2E2E2E2E2E2E2E2E2E2E2E2E2E2E2E2E2E2E2E2E2E2E2E2E2E2E2E2E2E2E2E2E2E2E2E2E2E2E2E2E2E2E2E2E2E2E2E2E2E2E2E2E2E2E2E2E2E2E2E2E2E2E2E2E2E2E2E2E2E2E2E2E2E2E2E2E2E2F5E2E2E2E2E2E2E2E2E2E2E2E2E2E2E2E2F5E2E2E2F5
310
F5E2E2E2F5E2E2E2E2E2E2E2E2E2E2E2E2E2E2E2E2F5E2E2E2E2E2E2E2E2E2E2E2E2E2E2E2E2E2E2E2E2E2E2E2E2E2E2E2E2E2E2E2E2E2E2E2E2E2E2E2E2E2E2E2E2E2E2E2E2E2E2E2E2E2E2E2E2E2E2E2E2E2E2E2E2E2E2E2E2E2E2E2E2E2E2E2E2E2E2E2E2E2E2E2E2E2E2E2E2E2E2E2E2E2E2E2E2E2E2E2E2E2E2E2E2E2
310
E2E2E2E2E2E2E2E2E2E2E2E2E2E2E2E2E2E2E2E2E2E2E2E2E2E2E2E2E2E2E2F5E2E2E2E2E2E2E2E2E2E2E2E2E2E2E2E2F5E2E2E2F5F5E2E2E2F5E2E2E2E2E2E2E2E2E2E2E2E2E2E2E2E2F5E2E2E2E2E2E2E2E2E2E2E2E2E2E2E2E2E2E2E2E2E2E2E2E2E2E2E2E2E2E2E2E2E2E2E2E2E2E2E2E2E2E2E2E2E2E2E2E2E2E2E2E2
310
E2E2E2E2E2E2E2E2E2E2E2E2E2E2E2E2E2E2E2E2E2E2E2E2E2E2E2E2E2E2E2E2E2E2E2E2E2E2E2E2E2E2E2E2E2E2E2E2E2E2E2E2E2E2E2E2E2E2E2E2E2E2E2E2E2E2E2E2E2E2E2E2E2E2E2E2E2E2E2E2E2E2E2E2F5E2E2E2E2E2E2E2E2E2E2E2E2E2E2E2E2F5E2E2E2F5F5E2E2E2F5E2E2E2E2E2E2E2E2E2E2E2E2E2E2E2E2
310
F5E2E2E2E2E2E2E2E2E2E2E2E2E2E2E2E2E2E2E2E2E2E2E2E2E2E2E2E2E2E2E2E2E2E2E2E2E2E2E2E2E2E2E2E2E2E2E2E2E2E2E2E2E2E2E2E2E2E2E2E2E2E2E2E2E2E2E2E2E2E2E2E2E2E2E2E2E2E2E2E2E2E2E2E2E2E2E2E2E2E2E2E2E2E2E2E2E2E2E2E2E2E2E2E2E2E2E2E2E2E2E2E2E2E2E2E2E2E2E2E2E2E2E2E2E2E2
310
E2E2E2E2E2E2E2E2E2E2F5E2E2E2E2E2E2E2E2E2E2E2E2E2E2E2E2F5E2E2E2F5F5E2E2E2F5E2E2E2E2E2E2E2E2E2E2E2E2E2E2E2E2F5E2E2E2E2E2E2E2E2E2E2E2E2E2E2E2E2E2E2E2E2E2E2E2E2E2E2E2E2E2E2E2E2E2E2E2E2E2E2E2E2E2E2E2E2E2E2E2E2E2E2E2E2E2E2E2E2E2E2E2E2E2E2E2E2E2E2E2E2E2E2E2E2E2
310
E2E2E2E2E2E2E2E2E2E2E2E2E2E2E2E2E2E2E2E2E2E2E2E2E2E2E2E2E2E2E2E2E2E2E2E2E2E2E2E2E2E2E2E2E2E2E2E2E2E2E2E2E2E2E2E2E2E2E2E2E2E2E2F5E2E2E2E2E2E2E2E2E2E2E2E2E2E2E2E2F5E2E2E2F5F5E2E2E2F5E2E2E2E2E2E2E2E2E2E2E2E2E2E2E2E2F5E2E2E2E2E2E2E2E2E2E2E2E2E2E2E2E2E2E2E2E2
310
E2E2E2E2E2E2E2E2E2E2E2E2E2E2E2E2E2E2E2E2E2E2E2E2E2E2E2E2E2E2E2E2E2E2E2E2E2E2E2E2E2E2E2E2E2E2E2E2E2E2E2E2E2E2E2E2E2E2E2E2E2E2E2E2E2E2E2E2E2E2E2E2E2E2E2E2E2E2E2E2E2E2E2E2E2E2E2E2E2E2E2E2E2E2E2E2E2E2E2E2E2E2E2E2E2E2E2E2E2E2E2E2E2E2E2E2F5E2E2E2E2E2E2E2E2E2E2
310
E2E2E2E2E2E2F5E2E2E2F5F5E2E2E2F5E2E2E2E2E2E2E2E2E2E2E2E2E2E2E2E2F5E2E2E2E2E2E2E2E2E2E2E2E2E2E2E2E2E2E2E2E2E2E2E2E2E2E2E2E2E2E2E2E2E2E2E2E2E2E2E2E2E2E2E2E2E2E2E2E2E2E2E2E2E2E2E2E2E2E2E2E2E2E2E2E2E2E2E2E2E2E2E2E2E2E2E2E2E2E2E2E2E2E2E2E2E2E2E2E2E2E2E2E2E2E2
310
E2E2E2E2E2E2E2E2E2E2E2E2E2E2E2E2E2E2E2E2E2E2E2E2E2E2E2E2E2E2E2E2E2E2E2E2E2E2E2E2E2E2F5E2E2E2E2E2E2E2E2E2E2E2E2E2E2E2E2F5E2E2E2F5F5E2E2E2E2E2E2E2E2E2E2E2E2E2E2E2E2E2E2E2E2F5E2E2E2E2E2E2E2E2E2E2E2E2E2E2E2E2E2E2E2E2E2E2E2E2E2E2E2E2E2E2E2E2E2E2E2E2E2E2E2E2E2
310
E2E2E2E2E2E2E2E2E2E2E2E2E2E2E2E2E2E2E2E2E2E2E2E2E2E2E2E2E2E2E2E2E2E2E2E2E2E2E2E2E2E2E2E2E2E2E2E2E2E2E2E2E2E2E2E2E2E2E2E2E2E2E2E2E2E2E2E2E2E2E2E2E2E2E2E2E2E2E2E2E2E2E2E2E2E2E2E2E2E2E2E2E2E2E2F5E2E2E2E2E2E2E2E2E2E2E2E2E2E2E2E2E2E2E2E2F5F5E2E2E2E2E2E2E2E2E2
310
E2E2E2E2E2E2E2E2E2E2E2F5E2E2E2E2E2E2E2E2E2E2E2E2E2E2E2E2E2E2E2E2E2E2E2E2E2E2E2E2E2E2E2E2E2E2E2E2E2E2E2E2E2E2E2E2E2E2E2E2E2E2E2E2E2E2E2E2E2E2E2E2E2E2E2E2E2E2E2E2E2E2E2E2E2E2E2E2E2E2E2E2E2E2E2E2E2E2E2E2E2E2E2E2E2E2E2E2E2E2E2E2E2E2E2E2E2E2E2E2E2E2E2E2E2E2E2
310
E2E2E2E2E2E2E2E2E2E2E2E2E2E2E2E2E2E2E2E2E2F5E2E2E2E2E2E2E2E2E2E2E2E2E2E2E2E2E2E2E2E2F5F5E2E2E2E2E2E2E2E2E2E2E2E2E2E2E2E2E2E2E2E2F5E2E2E2E2E2E2E2E2E2E2E2E2E2E2E2E2E2E2E2E2E2E2E2E2E2E2E2E2E2E2E2E2E2E2E2E2E2E2E2E2E2E2E2E2E2E2E2E2E2E2E2E2E2E2E2E2E2E2E2E2E2E2
310
E2E2E2E2E2E2E2E2E2E2E2E2E2E2E2E2E2E2E2E2E2E2E2E2E2E2E2E2E2E2E2E2E2E2E2E2E2E2E2E2E2E2E2E2E2E2E2E2E2E2E2E2E2E2E2E2E2E2E2E2E2E2E2E2E2E2E2E2E2E2E2E2E2E2F5E2E2E2E2E2E2E2E2E2E2E2E2E2E2E2E2E2E2E2E2F5F5E2E2E2E2E2E2E2E2E2E2E2E2E2E2E2E2E2E2E2E2F5E2E2E2E2E2E2E2E2E2
310
E2E2E2E2E2E2E2E2E2E2E2E2E2E2E2E2E2E2E2E2E2E2E2E2E2E2E2E2E2E2E2E2E2E2E2E2E2E2E2E2E2E2E2E2E2E2E2E2E2E2E2E2E2E2E2E2E2E2E2E2E2E2E2E2E2E2E2E2E2E2E2E2E2E2E2E2E2E2E2E2E2E2E2E2E2E2E2E2E2E2E2E2E2E2E2E2E2E2E2E2E2E2E2E2E2E2E2E2E2E2E2E2E2E2E2E2E2E2E2E2E2E2E2E2E2E2E2
310
F5E2E2E2E2E2E2E2E2E2E2E2E2E2E2E2E2E2E2E2E2F5F5E2E2E2E2E2E2E2E2E2E2E2E2E2E2E2E2E2E2E2E2F5E2E2E2E2E2E2E2E2E2E2E2E2E2E2E2E2E2E2E2E2E2E2E2E2E2E2E2E2E2E2E2E2E2E2E2E2E2E2E2E2E2E2E2E2E2E2E2E2E2E2E2E2E2E2E2E2E2E2E2E2E2E2E2E2E2E2E2E2E2E2E2E2E2E2E2E2E2E2E2E2E2E2E2
310
E2E2E2E2E2E2E2E2E2E2E2E2E2E2E2E2E2E2E2E2E2E2E2E2E2E2E2E2E2E2E2E2E2E2E2E2E2E2E2E2E2E2E2E2E2E2E2E2E2E2E2E2E2F5E2E2E2E2E2E2E2E2E2E2E2E2E2E2E2E2E2E2E2E2F5F5E2E2E2E2E2E2E2E2E2E2E2E2E2E2E2E2E2E2E2E2F5E2E2E2E2E2E2E2E2E2E2E2E2E2E2E2E2E2E2E2E2E2E2E2E2E2E2E2E2E2E2
310
E2E2E2E2E2E2E2E2E2E2E2E2E2E2E2E2E2E2E2E2E2E2E2E2E2E2E2E2E2E2E2E2E2E2E2E2E2E2E2E2E2E2E2E2E2E2E2E2E2E2E2E2E2E2E2E2E2E2E2E2E2E2E2E2E2E2E2E2E2E2E2E2E2E2E2E2E2E2E2E2E2E2E2E2E2E2E2E2E2E2E2E2E2E2E2E2E2E2E2E2E2E2E2E2E2E2F5E2E2E2E2E2E2E2E2E2E2E2E2E2E2E2E2E2E2E2E2
310
F5F5E2E2E2E2E2E2E2E2E2E2E2E2E2E2E2E2E2E2E2E2F5E2E2E2E2E2E2E2E2E2E2E2E2E2E2E2E2E2E2E2E2E2E2E2E2E2E2E2E2E2E2E2E2E2E2E2E2E2E2E2E2E2E2E2E2E2E2E2E2E2E2E2E2E2E2E2E2E2E2E2E2E2E2E2E2E2E2E2E2E2E2E2E2E2E2E2E2E2E2E2E2E2E2E2E2E2E2E2E2E2E2E2E2E2E2E2E2E2E2E2E2E2E2E2E2
310
E2E2E2E2E2E2E2E2E2E2E2E2E2E2E2E2E2E2E2E2E2E2E2E2E2E2E2E2E2E2E2E2F5E2E2E2E2E2E2E2E2E2E2E2E2E2E2E2E2E2E2E2E2F5F5E2E2E2E2E2E2E2E2E2E2E2E2E2E2E2E2E2E2E2E2F5E2E2E2E2E2E2E2E2E2E2E2E2E2E2E2E2E2E2E2E2E2E2E2E2E2E2E2E2E2E2E2E2E2E2E2E2E2E2E2E2E2E2E2E2E2E2E2E2E2E2E2
310
E2E2E2E2E2E2E2E2E2E2E2E2E2E2E2E2E2E2E2E2E2E2E2E2E2E2E2E2E2E2E2E2E2E2E2E2E2E2E2E2E2E2E2E2E2E2E2E2E2E2E2E2E2E2E2E2E2E2E2E2E2E2E2E2E2E2E2E2E2E2E2E2E2E2E2E2E2E2E2E2E2E2E2E2E2F5E2E2E2E2E2E2E2E2E2E2E2E2E2E2E2E2E2E2E2E2F5F5E2E2E2E2E2E2E2E2E2E2E2E2E2E2E2E2E2E2E2
310
E2F5E2E2E2E2E2E2E2E2E2E2E2E2E2E2E2E2E2E2E2E2E2E2E2E2E2E2E2E2E2E2E2E2E2E2E2E2E2E2E2E2E2E2E2E2E2E2E2E2E2E2E2E2E2E2E2E2E2E2E2E2E2E2E2E2E2E2E2E2E2E2E2E2E2E2E2E2E2E2E2E2E2E2E2E2E2E2E2E2E2E2E2E2E2E2E2E2E2E2E2E2E2E2E2E2E2E2E2E2E2E2E2E2E2E2E2E2E2E2E2E2E2E2E2E2E2
310
E2E2E2E2E2E2E2E2E2E2E2F5E2E2E2E2E2E2E2E2E2E2E2E2E2E2E2E2E2E2E2E2F5F5E2E2E2E2E2E2E2E2E2E2E2E2E2E2E2E2E2E2E2E2F5E2E2E2E2E2E2E2E2E2E2E2E2E2E2E2E2E2E2E2E2E2E2E2E2E2E2E2E2E2E2E2E2E2E2E2E2E2E2E2E2E2E2E2E2E2E2E2E2E2E2E2E2E2E2E2E2E2E2E2E2E2E2E2E2E2E2E2E2E2E2E2E2
310
E2E2E2E2E2E2E2E2E2E2E2E2E2E2E2E2E2E2E2E2E2E2E2E2E2E2E2E2E2E2E2E2E2E2E2E2E2E2E2E2E2E2E2E2E2E2E2E2E2E2E2E2E2E2E2E2E2E2E2E2E2E2E2E2F5E2E2E2E2E2E2E2E2E2E2E2E2E2E2E2E2E2E2E2E2F5F5E2E2E2F5E2E2E2E2E2E2E2E2E2E2E2E2E2E2E2E2F5E2E2E2E2E2E2E2E2E2E2E2E2E2E2E2E2E2E2E2
310
E2E2E2E2E2E2E2E2E2E2E2E2E2E2E2E2E2E2E2E2E2E2E2E2E2E2E2E2E2E2E2E2E2E2E2E2E2E2E2E2E2E2E2E2E2E2E2E2E2E2E2E2E2E2E2E2E2E2E2E2E2E2E2E2E2E2E2E2E2E2E2E2E2E2E2E2E2E2E2E2E2E2E2E2E2E2E2E2E2E2E2E2E2E2E2E2E2E2E2E2E2E2E2E2E2E2E2E2E2E2E2E2E2E2E2E2E2F5E2E2E2E2E2E2E2E2E2
310
E2E2E2E2E2E2E2F5E2E2E2F5F5E2E2E2F5E2E2E2E2E2E2E2E2E2E2E2E2E2E2E2E2F5E2E2E2E2E2E2E2E2E2E2E2E2E2E2E2E2E2E2E2E2E2E2E2E2E2E2E2E2E2E2E2E2E2E2E2E2E2E2E2E2E2E2E2E2E2E2E2E2E2E2E2E2E2E2E2E2E2E2E2E2E2E2E2E2E2E2E2E2E2E2E2E2E2E2E2E2E2E2E2E2E2E2E2E2E2E2E2E2E2E2E2E2E2
310
E2E2E2E2E2E2E2E2E2E2E2E2E2E2E2E2E2E2E2E2E2E2E2E2E2E2E2E2E2E2E2E2E2E2E2E2E2E2E2E2E2E2E2F5E2E2E2E2E2E2E2E2E2E2E2E2E2E2E2E2F5E2E2E2F5F5E2E2E2F5E2E2E2E2E2E2E2E2E2E2E2E2E2E2E2E2F5E2E2E2E2E2E2E2E2E2E2E2E2E2E2E2E2E2E2E2E2E2E2E2E2E2E2E2E2E2E2E2E2E2E2E2E2E2E2E2E2
310
E2E2E2E2E2E2E2E2E2E2E2E2E2E2E2E2E2E2E2E2E2E2E2E2E2E2E2E2E2E2E2E2E2E2E2E2E2E2E2E2E2E2E2E2E2E2E2E2E2E2E2E2E2E2E2E2E2E2E2E2E2E2E2E2E2E2E2E2E2E2E2E2E2E2E2E2E2E2E2E2E2E2E2E2E2E2E2E2E2E2E2E2E2E2E2E2F5E2E2E2E2E2E2E2E2E2E2E2E2E2E2E2E2F5E2E2E2F5F5E2E2E2F5E2E2E2E2
310
E2E2E2E2E2E2E2E2E2E2E2E2F5E2E2E2E2E2E2E2E2E2E2E2E2E2E2E2E2E2E2E2E2E2E2E2E2E2E2E2E2E2E2E2E2E2E2E2E2E2E2E2E2E2E2E2E2E2E2E2E2E2E2E2E2E2E2E2E2E2E2E2E2E2E2E2E2E2E2E2E2E2E2E2E2E2E2E2E2E2E2E2E2E2E2E2E2E2E2E2E2E2E2E2E2E2E2E2E2E2E2E2E2E2E2E2E2E2E2E2E2E2E2E2E2E2E2
310
E2E2E2E2E2E2E2E2E2E2E2E2E2E2E2E2E2E2E2E2E2E2F5E2E2E2E2E2E2E2E2E2E2E2E2E2E2E2E2F5E2E2E2F5F5E2E2E2F5E2E2E2E2E2E2E2E2E2E2E2E2E2E2E2E2F5E2E2E2E2E2E2E2E2E2E2E2E2E2E2E2E2E2E2E2E2E2E2E2E2E2E2E2E2E2E2E2E2E2E2E2E2E2E2E2E2E2E2E2E2E2E2E2E2E2E2E2E2E2E2E2E2E2E2E2E2E2
310
E2E2E2E2E2E2E2E2E2E2E2E2E2E2E2E2E2E2E2E2E2E2E2E2E2E2E2E2E2E2E2E2E2E2E2E2E2E2E2E2E2E2E2E2E2E2E2E2E2E2E2E2E2E2E2E2E2E2E2E2E2E2E2E2E2E2E2E2E2E2E2E2E2E2E2F5E2E2E2E2E2E2E2E2E2E2E2E2E2E2E2E2F5E2E2E2F5F5E2E2E2F5E2E2E2E2E2E2E2E2E2E2E2E2E2E2E2E2F5E2E2E2E2E2E2E2E2
310
E2E2E2E2E2E2E2E2E2E2E2E2E2E2E2E2E2E2E2E2E2E2E2E2E2E2E2E2E2E2E2E2E2E2E2E2E2E2E2E2E2E2E2E2E2E2E2E2E2E2E2E2E2E2E2E2E2E2E2E2E2E2E2E2E2E2E2E2E2E2E2E2E2E2E2E2E2E2E2E2E2E2E2E2E2E2E2E2E2E2E2E2E2E2E2E2E2E2E2E2E2E2E2E2E2E2E2E2E2E2E2E2E2E2E2E2E2E2E2E2E2E2E2E2E2E2E2
310
E2F5E2E2E2E2E2E2E2E2E2E2E2E2E2E2E2E2F5E2E2E2F5F5E2E2E2F5E2E2E2E2E2E2E2E2E2E2E2E2E2E2E2E2F5E2E2E2E2E2E2E2E2E2E2E2E2E2E2E2E2E2E2E2E2E2E2E2E2E2E2E2E2E2E2E2E2E2E2E2E2E2E2E2E2E2E2E2E2E2E2E2E2E2E2E2E2E2E2E2E2E2E2E2E2E2E2E2E2E2E2E2E2E2E2E2E2E2E2E2E2E2E2E2E2E2E2
310
E2E2E2E2E2E2E2E2E2E2E2E2E2E2E2E2E2E2E2E2E2E2E2E2E2E2E2E2E2E2E2E2E2E2E2E2E2E2E2E2E2E2E2E2E2E2E2E2E2E2E2E2E2E2F5E2E2E2E2E2E2E2E2E2E2E2E2E2E2E2E2F5E2E2E2F5F5E2E2E2F5E2E2E2E2E2E2E2E2E2E2E2E2E2E2E2E2F5E2E2E2E2E2E2E2E2E2E2E2E2E2E2E2E2E2E2E2E2E2E2E2E2E2E2E2E2E2
310
E2E2E2E2E2E2E2E2E2E2E2E2E2E2E2E2E2E2E2E2E2E2E2E2E2E2E2E2E2E2E2E2E2E2E2E2E2E2E2E2E2E2E2E2E2E2E2E2E2E2E2E2E2E2E2E2E2E2E2E2E2E2E2E2E2E2E2E2E2E2E2E2E2E2E2E2E2E2E2E2E2E2E2E2E2E2E2E2E2E2E2E2E2E2E2E2E2E2E2E2E2E2E2E2E2E2E2F5E2E2E2E2E2E2E2E2E2E2E2E2E2E2E2E2F5E2E2
310
E2F5F5E2E2E2F5E2E2E2E2E2E2E2E2E2E2E2E2E2E2E2E2F5E2E2E2E2E2E2E2E2E2E2E2E2E2E2E2E2E2E2E2E2E2E2E2E2E2E2E2E2E2E2E2E2E2E2E2E2E2E2E2E2E2E2E2E2E2E2E2E2E2E2E2E2E2E2E2E2E2E2E2E2E2E2E2E2E2E2E2E2E2E2E2E2E2E2E2E2E2E2E2E2E2E2E2E2E2E2E2E2E2E2E2E2E2E2E2E2E2E2E2E2E2E2E2
310
E2E2E2E2E2E2E2E2E2E2E2E2E2E2E2E2E2E2E2E2E2E2E2E2E2E2E2E2E2E2E2E2E2F5E2E2E2E2E2E2E2E2E2E2E2E2E2E2E2E2F5E2E2E2F5F5E2E2E2F5E2E2E2E2E2E2E2E2E2E2E2E2E2E2E2E2F5E2E2E2E2E2E2E2E2E2E2E2E2E2E2E2E2E2E2E2E2E2E2E2E2E2E2E2E2E2E2E2E2E2E2E2E2E2E2E2E2E2E2E2E2E2E2E2E2E2E2
310
E2E2E2E2E2E2E2E2E2E2E2E2E2E2E2E2E2E2E2E2E2E2E2E2E2E2E2E2E2E2E2E2E2E2E2E2E2E2E2E2E2E2E2E2E2E2E2E2E2E2E2E2E2E2E2E2E2E2E2E2E2E2E2E2E2E2E2E2E2E2E2E2E2E2E2E2E2E2E2E2E2E2E2E2E2E2F5E2E2E2E2E2E2E2E2E2E2E2E2E2E2E2E2F5E2E2E2F5F5E2E2E2F5E2E2E2E2E2E2E2E2E2E2E2E2E2E2
310
E2E2F5E2E2E2E2E2E2E2E2E2E2E2E2E2E2E2E2E2E2E2E2E2E2E2E2E2E2E2E2E2E2E2E2E2E2E2E2E2E2E2E2E2E2E2E2E2E2E2E2E2E2E2E2E2E2E2E2E2E2E2E2E2E2E2E2E2E2E2E2E2E2E2E2E2E2E2E2E2E2E2E2E2E2E2E2E2E2E2E2E2E2E2E2E2E2E2E2E2E2E2E2E2E2E2E2E2E2E2E2E2E2E2E2E2E2E2E2E2E2E2E2E2E2E2E2
310
E2E2E2E2E2E2E2E2E2E2E2E2F5E2E2E2E2E2E2E2E2E2E2E2E2E2E2E2E2F5E2E2E2F5F5E2E2E2F5E2E2E2E2E2E2E2E2E2E2E2E2E2E2E2E2F5E2E2E2E2E2E2E2E2E2E2E2E2E2E2E2E2E2E2E2E2E2E2E2E2E2E2E2E2E2E2E2E2E2E2E2E2E2E2E2E2E2E2E2E2E2E2E2E2E2E2E2E2E2E2E2E2E2E2E2E2E2E2E2E2E2E2E2E2E2E2E2
310
E2E2E2E2E2E2E2E2E2E2E2E2E2E2E2E2E2E2E2E2E2E2E2E2E2E2E2E2E2E2E2E2E2E2E2E2E2E2E2E2E2E2E2E2E2E2E2E2E2E2E2E2E2E2E2E2E2E2E2E2E2E2E2E2E2F5E2E2E2E2E2E2E2E2E2E2E2E2E2E2E2E2F5E2E2E2F5F5E2E2E2F5E2E2E2E2E2E2E2E2E2E2E2E2E2E2E2E2F5E2E2E2E2E2E2E2E2E2E2E2E2E2E2E2E2E2E2
310
E2E2E2E2E2E2E2E2E2E2E2E2E2E2E2E2E2E2E2E2E2E2E2E2E2E2E2E2E2E2E2E2E2E2E2E2E2E2E2E2E2E2E2E2E2E2E2E2E2E2E2E2E2E2E2E2E2E2E2E2E2E2E2E2E2E2E2E2E2E2E2E2E2E2E2E2E2E2E2E2E2E2E2E2E2E2E2E2E2E2E2E2E2E2E2E2E2E2E2E2E2E2E2E2E2E2E2E2E2E2E2E2E2E2E2E2E2E2F5E2E2E2E2E2E2E2E2
310
E2E2E2E2E2E2E2E2F5E2E2E2F5F5E2E2E2F5E2E2E2E2E2E2E2E2E2E2E2E2E2E2E2E2F5E2E2E2E2E2E2E2E2E2E2E2E2E2E2E2E2E2E2E2E2E2E2E2E2E2E2E2E2E2E2E2E2E2E2E2E2E2E2E2E2E2E2E2E2E2E2E2E2E2E2E2E2E2E2E2E2E2E2E2E2E2E2E2E2E2E2E2E2E2E2E2E2E2E2E2E2E2E2E2E2E2E2E2E2E2E2E2E2E2E2E2E2
310
E2E2E2E2E2E2E2E2E2E2E2E2E2E2E2E2E2E2E2E2E2E2E2E2E2E2E2E2E2E2E2E2E2E2E2E2E2E2E2E2E2E2E2E2F5E2E2E2E2E2E2E2E2E2E2E2E2E2E2E2E2F5E2E2E2F5F5E2E2E2F5E2E2E2E2E2E2E2E2E2E2E2E2E2E2E2E2F5E2E2E2E2E2E2E2E2E2E2E2E2E2E2E2E2E2E2E2E2E2E2E2E2E2E2E2E2E2E2E2E2E2E2E2E2E2E2E2
310
E2E2E2E2E2E2E2E2E2E2E2E2E2E2E2E2E2E2E2E2E2E2E2E2E2E2E2E2E2E2E2E2E2E2E2E2E2E2E2E2E2E2E2E2E2E2E2E2E2E2E2E2E2E2E2E2E2E2E2E2E2E2E2E2E2E2E2E2E2E2E2E2E2E2E2E2E2E2E2E2E2E2E2E2E2E2E2E2E2E2E2E2E2E2E2E2E2F5E2E2E2E2E2E2E2E2E2E2E2E2E2E2E2E2F5E2E2E2F5F5E2E2E2F5E2E2E2
310
E2E2E2E2E2E2E2E2E2E2E2E2E2F5E2E2E2E2E2E2E2E2E2E2E2E2E2E2E2E2E2E2E2E2E2E2E2E2E2E2E2E2E2E2E2E2E2E2E2E2E2E2E2E2E2E2E2E2E2E2E2E2E2E2E2E2E2E2E2E2E2E2E2E2E2E2E2E2E2E2E2E2E2E2E2E2E2E2E2E2E2E2E2E2E2E2E2E2E2E2E2E2E2E2E2E2E2E2E2E2E2E2E2E2E2E2E2E2E2E2E2E2E2E2E2E2E2
310
E2E2E2E2E2E2E2E2E2E2E2E2E2E2E2E2E2E2E2E2E2E2E2F5E2E2E2E2E2E2E2E2E2E2E2E2E2E2E2E2F5E2E2E2F5F5E2E2E2E2E2E2E2E2E2E2E2E2E2E2E2E2E2E2E2E2F5E2E2E2E2E2E2E2E2E2E2E2E2E2E2E2E2E2E2E2E2E2E2E2E2E2E2E2E2E2E2E2E2E2E2E2E2E2E2E2E2E2E2E2E2E2E2E2E2E2E2E2E2E2E2E2E2E2E2E2E2
310
E2E2E2E2E2E2E2E2E2E2E2E2E2E2E2E2E2E2E2E2E2E2E2E2E2E2E2E2E2E2E2E2E2E2E2E2E2E2E2E2E2E2E2E2E2E2E2E2E2E2E2E2E2E2E2E2E2E2E2E2E2E2E2E2E2E2E2E2E2E2E2E2E2E2E2E2F5E2E2E2E2E2E2E2E2E2E2E2E2E2E2E2E2E2E2E2E2F5F5E2E2E2E2E2E2E2E2E2E2E2E2E2E2E2E2E2E2E2E2F5E2E2E2E2E2E2E2
310
E2E2E2E2E2E2E2E2E2E2E2E2E2E2E2E2E2E2E2E2E2E2E2E2E2E2E2E2E2E2E2E2E2E2E2E2E2E2E2E2E2E2E2E2E2E2E2E2E2E2E2E2E2E2E2E2E2E2E2E2E2E2E2E2E2E2E2E2E2E2E2E2E2E2E2E2E2E2E2E2E2E2E2E2E2E2E2E2E2E2E2E2E2E2E2E2E2E2E2E2E2E2E2E2E2E2E2E2E2E2E2E2E2E2E2E2E2E2E2E2E2E2E2E2E2E2E2
310
E2E2F5E2E2E2E2E2E2E2E2E2E2E2E2E2E2E2E2E2E2E2E2F5F5E2E2E2E2E2E2E2E2E2E2E2E2E2E2E2E2E2E2E2E2F5E2E2E2E2E2E2E2E2E2E2E2E2E2E2E2E2E2E2E2E2E2E2E2E2E2E2E2E2E2E2E2E2E2E2E2E2E2E2E2E2E2E2E2E2E2E2E2E2E2E2E2E2E2E2E2E2E2E2E2E2E2E2E2E2E2E2E2E2E2E2E2E2E2E2E2E2E2E2E2E2E2
310
E2E2E2E2E2E2E2E2E2E2E2E2E2E2E2E2E2E2E2E2E2E2E2E2E2E2E2E2E2E2E2E2E2E2E2E2E2E2E2E2E2E2E2E2E2E2E2E2E2E2E2E2E2E2E2F5E2E2E2E2E2E2E2E2E2E2E2E2E2E2E2E2E2E2E2E2F5F5E2E2E2E2E2E2E2E2E2E2E2E2E2E2E2E2E2E2E2E2F5E2E2E2E2E2E2E2E2E2E2E2E2E2E2E2E2E2E2E2E2E2E2E2E2E2E2E2E2
310
E2E2E2E2E2E2E2E2E2E2E2E2E2E2E2E2E2E2E2E2E2E2E2E2E2E2E2E2E2E2E2E2E2E2E2E2E2E2E2E2E2E2E2E2E2E2E2E2E2E2E2E2E2E2E2E2E2E2E2E2E2E2E2E2E2E2E2E2E2E2E2E2E2E2E2E2E2E2E2E2E2E2E2E2E2E2E2E2E2E2E2E2E2E2E2E2E2E2E2E2E2E2E2E2E2E2E2E2F5E2E2E2E2E2E2E2E2E2E2E2E2E2E2E2E2E2E2
310
E2E2F5F5E2E2E2E2E2E2E2E2E2E2E2E2E2E2E2E2E2E2E2E2F5E2E2E2E2E2E2E2E2E2E2E2E2E2E2E2E2E2E2E2E2E2E2E2E2E2E2E2E2E2E2E2E2E2E2E2E2E2E2E2E2E2E2E2E2E2E2E2E2E2E2E2E2E2E2E2E2E2E2E2E2E2E2E2E2E2E2E2E2E2E2E2E2E2E2E2E2E2E2E2E2E2E2E2E2E2E2E2E2E2E2E2E2E2E2E2E2E2E2E2E2E2E2
310
E2E2E2E2E2E2E2E2E2E2E2E2E2E2E2E2E2E2E2E2E2E2E2E2E2E2E2E2E2E2E2E2E2E2F5E2E2E2E2E2E2E2E2E2E2E2E2E2E2E2E2E2E2E2E2F5F5E2E2E2E2E2E2E2E2E2E2E2E2E2E2E2E2E2E2E2E2F5E2E2E2E2E2E2E2E2E2E2E2E2E2E2E2E2E2E2E2E2E2E2E2E2E2E2E2E2E2E2E2E2E2E2E2E2E2E2E2E2E2E2E2E2E2E2E2E2E2
310
E2E2E2E2E2E2E2E2E2E2E2E2E2E2E2E2E2E2E2E2E2E2E2E2E2E2E2E2E2E2E2E2E2E2E2E2E2E2E2E2E2E2E2E2E2E2E2E2E2E2E2E2E2E2E2E2E2E2E2E2E2E2E2E2E2E2E2E2E2E2E2E2E2E2E2E2E2E2E2E2E2E2E2E2E2E2E2F5E2E2E2E2E2E2E2E2E2E2E2E2E2E2E2E2E2E2E2E2F5F5E2E2E2E2E2E2E2E2E2E2E2E2E2E2E2E2E2
310
E2E2E2F5E2E2E2E2E2E2E2E2E2E2E2E2E2E2E2E2E2E2E2E2E2E2E2E2E2E2E2E2E2E2E2E2E2E2E2E2E2E2E2E2E2E2E2E2E2E2E2E2E2E2E2E2E2E2E2E2E2E2E2E2E2E2E2E2E2E2E2E2E2E2E2E2E2E2E2E2E2E2E2E2E2E2E2E2E2E2E2E2E2E2E2E2E2E2E2E2E2E2E2E2E2E2E2E2E2E2E2E2E2E2E2E2E2E2E2E2E2E2E2E2E2E2E2
310
E2E2E2E2E2E2E2E2E2E2E2E2E2F5E2E2E2E2E2E2E2E2E2E2E2E2E2E2E2E2E2E2E2E2F5F5E2E2E2E2E2E2E2E2E2E2E2E2E2E2E2E2E2E2E2E2F5E2E2E2E2E2E2E2E2E2E2E2E2E2E2E2E2E2E2E2E2E2E2E2E2E2E2E2E2E2E2E2E2E2E2E2E2E2E2E2E2E2E2E2E2E2E2E2E2E2E2E2E2E2E2E2E2E2E2E2E2E2E2E2E2E2E2E2E2E2E2
310
E2E2E2E2E2E2E2E2E2E2E2E2E2E2E2E2E2E2E2E2E2E2E2E2E2E2E2E2E2E2E2E2E2E2E2E2E2E2E2E2E2E2E2E2E2E2E2E2E2E2E2E2E2E2E2E2E2E2E2E2E2E2E2E2E2E2F5E2E2E2E2E2E2E2E2E2E2E2E2E2E2E2E2E2E2E2E2F5F5E2E2E2E2E2E2E2E2E2E2E2E2E2E2E2E2E2E2E2E2F5E2E2E2E2E2E2E2E2E2E2E2E2E2E2E2E2E2
310
E2E2E2E2E2E2E2E2E2E2E2E2E2E2E2E2E2E2E2E2E2E2E2E2E2E2E2E2E2E2E2E2E2E2E2E2E2E2E2E2E2E2E2E2E2E2E2E2E2E2E2E2E2E2E2E2E2E2E2E2E2E2E2E2E2E2E2E2E2E2E2E2E2E2E2E2E2E2E2E2E2E2E2E2E2E2E2E2E2E2E2E2E2E2E2E2E2E2E2E2E2E2E2E2E2E2E2E2E2E2E2E2E2E2E2E2E2E2E2F5E2E2E2E2E2E2E2
310
E2E2E2E2E2E2E2E2E2E2E2E2E2F5F5E2E2E2F5E2E2E2E2E2E2E2E2E2E2E2E2E2E2E2E2F5E2E2E2E2E2E2E2E2E2E2E2E2E2E2E2E2E2E2E2E2E2E2E2E2E2E2E2E2E2E2E2E2E2E2E2E2E2E2E2E2E2E2E2E2E2E2E2E2E2E2E2E2E2E2E2E2E2E2E2E2E2E2E2E2E2E2E2E2E2E2E2E2E2E2E2E2E2E2E2E2E2E2E2E2E2E2E2E2E2E2E2
310
E2E2E2E2E2E2E2E2E2E2E2E2E2E2E2E2E2E2E2E2E2E2E2E2E2E2E2E2E2E2E2E2E2E2E2E2E2E2E2E2E2E2E2E2E2F5E2E2E2E2E2E2E2E2E2E2E2E2E2E2E2E2F5E2E2E2F5F5E2E2E2F5E2E2E2E2E2E2E2E2E2E2E2E2E2E2E2E2F5E2E2E2E2E2E2E2E2E2E2E2E2E2E2E2E2E2E2E2E2E2E2E2E2E2E2E2E2E2E2E2E2E2E2E2E2E2E2
310
E2E2E2E2E2E2E2E2E2E2E2E2E2E2E2E2E2E2E2E2E2E2E2E2E2E2E2E2E2E2E2E2E2E2E2E2E2E2E2E2E2E2E2E2E2E2E2E2E2E2E2E2E2E2E2E2E2E2E2E2E2E2E2E2E2E2E2E2E2E2E2E2E2E2E2E2E2E2E2E2E2E2E2E2E2E2E2E2E2E2E2E2E2E2E2E2E2E2F5E2E2E2E2E2E2E2E2E2E2E2E2E2E2E2E2F5E2E2E2F5F5E2E2E2F5E2E2
310
E2E2E2E2E2E2E2E2E2E2E2E2E2E2F5E2E2E2E2E2E2E2E2E2E2E2E2E2E2E2E2E2E2E2E2E2E2E2E2E2E2E2E2E2E2E2E2E2E2E2E2E2E2E2E2E2E2E2E2E2E2E2E2E2E2E2E2E2E2E2E2E2E2E2E2E2E2E2E2E2E2E2E2E2E2E2E2E2E2E2E2E2E2E2E2E2E2E2E2E2E2E2E2E2E2E2E2E2E2E2E2E2E2E2E2E2E2E2E2E2E2E2E2E2E2E2E2
310
E2E2E2E2E2E2E2E2E2E2E2E2E2E2E2E2E2E2E2E2E2E2E2E2F5E2E2E2E2E2E2E2E2E2E2E2E2E2E2E2E2F5E2E2E2F5F5E2E2E2F5E2E2E2E2E2E2E2E2E2E2E2E2E2E2E2E2F5E2E2E2E2E2E2E2E2E2E2E2E2E2E2E2E2E2E2E2E2E2E2E2E2E2E2E2E2E2E2E2E2E2E2E2E2E2E2E2E2E2E2E2E2E2E2E2E2E2E2E2E2E2E2E2E2E2E2E2
310
E2E2E2E2E2E2E2E2E2E2E2E2E2E2E2E2E2E2E2E2E2E2E2E2E2E2E2E2E2E2E2E2E2E2E2E2E2E2E2E2E2E2E2E2E2E2E2E2E2E2E2E2E2E2E2E2E2E2E2E2E2E2E2E2E2E2E2E2E2E2E2E2E2E2E2E2E2F5E2E2E2E2E2E2E2E2E2E2E2E2E2E2E2E2F5E2E2E2F5F5E2E2E2F5E2E2E2E2E2E2E2E2E2E2E2E2E2E2E2E2F5E2E2E2E2E2E2
310
E2E2E2E2E2E2E2E2E2E2E2E2E2E2E2E2E2E2E2E2E2E2E2E2E2E2E2E2E2E2E2E2E2E2E2E2E2E2E2E2E2E2E2E2E2E2E2E2E2E2E2E2E2E2E2E2E2E2E2E2E2E2E2E2E2E2E2E2E2E2E2E2E2E2E2E2E2E2E2E2E2E2E2E2E2E2E2E2E2E2E2E2E2E2E2E2E2E2E2E2E2E2E2E2E2E2E2E2E2E2E2E2E2E2E2E2E2E2E2E2E2E2E2E2E2E2E2
310
E2E2E2F5E2E2E2E2E2E2E2E2E2E2E2E2E2E2E2E2F5E2E2E2F5F5E2E2E2F5E2E2E2E2E2E2E2E2E2E2E2E2E2E2E2E2F5E2E2E2E2E2E2E2E2E2E2E2E2E2E2E2E2E2E2E2E2E2E2E2E2E2E2E2E2E2E2E2E2E2E2E2E2E2E2E2E2E2E2E2E2E2E2E2E2E2E2E2E2E2E2E2E2E2E2E2E2E2E2E2E2E2E2E2E2E2E2E2E2E2E2E2E2E2E2E2E2
310
E2E2E2E2E2E2E2E2E2E2E2E2E2E2E2E2E2E2E2E2E2E2E2E2E2E2E2E2E2E2E2E2E2E2E2E2E2E2E2E2E2E2E2E2E2E2E2E2E2E2E2E2E2E2E2E2F5E2E2E2E2E2E2E2E2E2E2E2E2E2E2E2E2F5E2E2E2F5F5E2E2E2F5E2E2E2E2E2E2E2E2E2E2E2E2E2E2E2E2F5E2E2E2E2E2E2E2E2E2E2E2E2E2E2E2E2E2E2E2E2E2E2E2E2E2E2E2
310
E2E2E2E2E2E2E2E2E2E2E2E2E2E2E2E2E2E2E2E2E2E2E2E2E2E2E2E2E2E2E2E2E2E2E2E2E2E2E2E2E2E2E2E2E2E2E2E2E2E2E2E2E2E2E2E2E2E2E2E2E2E2E2E2E2E2E2E2E2E2E2E2E2E2E2E2E2E2E2E2E2E2E2E2E2E2E2E2E2E2E2E2E2E2E2E2E2E2E2E2E2E2E2E2E2E2E2E2E2F5E2E2E2E2E2E2E2E2E2E2E2E2E2E2E2E2F5
310
E2E2E2F5F5E2E2E2F5E2E2E2E2E2E2E2E2E2E2E2E2E2E2E2E2F5E2E2E2E2E2E2E2E2E2E2E2E2E2E2E2E2E2E2E2E2E2E2E2E2E2E2E2E2E2E2E2E2E2E2E2E2E2E2E2E2E2E2E2E2E2E2E2E2E2E2E2E2E2E2E2E2E2E2E2E2E2E2E2E2E2E2E2E2E2E2E2E2E2E2E2E2E2E2E2E2E2E2E2E2E2E2E2E2E2E2E2E2E2E2E2E2E2E2E2E2E2
310
E2E2E2E2E2E2E2E2E2E2E2E2E2E2E2E2E2E2E2E2E2E2E2E2E2E2E2E2E2E2E2E2E2E2E2F5E2E2E2E2E2E2E2E2E2E2E2E2E2E2E2E2F5E2E2E2F5F5E2E2E2F5E2E2E2E2E2E2E2E2E2E2E2E2E2E2E2E2F5E2E2E2E2E2E2E2E2E2E2E2E2E2E2E2E2E2E2E2E2E2E2E2E2E2E2E2E2E2E2E2E2E2E2E2E2E2E2E2E2E2E2E2E2E2E2E2E2
310
E2E2E2E2E2E2E2E2E2E2E2E2E2E2E2E2E2E2E2E2E2E2E2E2E2E2E2E2E2E2E2E2E2E2E2E2E2E2E2E2E2E2E2E2E2E2E2E2E2E2E2E2E2E2E2E2E2E2E2E2E2E2E2E2E2E2E2E2E2E2E2E2E2E2E2E2E2E2E2E2E2E2E2E2E2E2E2E2F5E2E2E2E2E2E2E2E2E2E2E2E2E2E2E2E2F5E2E2E2F5F5E2E2E2F5E2E2E2E2E2E2E2E2E2E2E2E2
310
E2E2E2E2F5E2E2E2E2E2E2E2E2E2E2E2E2E2E2E2E2E2E2E2E2E2E2E2E2E2E2E2E2E2E2E2E2E2E2E2E2E2E2E2E2E2E2E2E2E2E2E2E2E2E2E2E2E2E2E2E2E2E2E2E2E2E2E2E2E2E2E2E2E2E2E2E2E2E2E2E2E2E2E2E2E2E2E2E2E2E2E2E2E2E2E2E2E2E2E2E2E2E2E2E2E2E2E2E2E2E2E2E2E2E2E2E2E2E2E2E2E2E2E2E2E2E2
310
E2E2E2E2E2E2E2E2E2E2E2E2E2E2F5E2E2E2E2E2E2E2E2E2E2E2E2E2E2E2E2F5E2E2E2F5F5E2E2E2F5E2E2E2E2E2E2E2E2E2E2E2E2E2E2E2E2F5E2E2E2E2E2E2E2E2E2E2E2E2E2E2E2E2E2E2E2E2E2E2E2E2E2E2E2E2E2E2E2E2E2E2E2E2E2E2E2E2E2E2E2E2E2E2E2E2E2E2E2E2E2E2E2E2E2E2E2E2E2E2E2E2E2E2E2E2E2
310
E2E2E2E2E2E2E2E2E2E2E2E2E2E2E2E2E2E2E2E2E2E2E2E2E2E2E2E2E2E2E2E2E2E2E2E2E2E2E2E2E2E2E2E2E2E2E2E2E2E2E2E2E2E2E2E2E2E2E2E2E2E2E2E2E2E2E2F5E2E2E2E2E2E2E2E2E2E2E2E2E2E2E2E2F5E2E2E2F5F5E2E2E2F5E2E2E2E2E2E2E2E2E2E2E2E2E2E2E2E2F5E2E2E2E2E2E2E2E2E2E2E2E2E2E2E2E2
310
E2E2E2E2E2E2E2E2E2E2E2E2E2E2E2E2E2E2E2E2E2E2E2E2E2E2E2E2E2E2E2E2E2E2E2E2E2E2E2E2E2E2E2E2E2E2E2E2E2E2E2E2E2E2E2E2E2E2E2E2E2E2E2E2E2E2E2E2E2E2E2E2E2E2E2E2E2E2E2E2E2E2E2E2E2E2E2E2E2E2E2E2E2E2E2E2E2E2E2E2E2E2E2E2E2E2E2E2E2E2E2E2E2E2E2E2E2E2E2E2F5E2E2E2E2E2E2
310
E2E2E2E2E2E2E2E2E2E2F5E2E2E2F5F5E2E2E2F5E2E2E2E2E2E2E2E2E2E2E2E2E2E2E2E2F5E2E2E2E2E2E2E2E2E2E2E2E2E2E2E2E2E2E2E2E2E2E2E2E2E2E2E2E2E2E2E2E2E2E2E2E2E2E2E2E2E2E2E2E2E2E2E2E2E2E2E2E2E2E2E2E2E2E2E2E2E2E2E2E2E2E2E2E2E2E2E2E2E2E2E2E2E2E2E2E2E2E2E2E2E2E2E2E2E2E2
310
E2E2E2E2E2E2E2E2E2E2E2E2E2E2E2E2E2E2E2E2E2E2E2E2E2E2E2E2E2E2E2E2E2E2E2E2E2E2E2E2E2E2E2E2E2E2F5E2E2E2E2E2E2E2E2E2E2E2E2E2E2E2E2F5E2E2E2F5F5E2E2E2F5E2E2E2E2E2E2E2E2E2E2E2E2E2E2E2E2F5E2E2E2E2E2E2E2E2E2E2E2E2E2E2E2E2E2E2E2E2E2E2E2E2E2E2E2E2E2E2E2E2E2E2E2E2E2
310
E2E2E2E2E2E2E2E2E2E2E2E2E2E2E2E2E2E2E2E2E2E2E2E2E2E2E2E2E2E2E2E2E2E2E2E2E2E2E2E2E2E2E2E2E2E2E2E2E2E2E2E2E2E2E2E2E2E2E2E2E2E2E2E2E2E2E2E2E2E2E2E2E2E2E2E2E2E2E2E2E2E2E2E2E2E2E2E2E2E2E2E2E2E2E2E2E2E2E2F5E2E2E2E2E2E2E2E2E2E2E2E2E2E2E2E2F5E2E2E2F5F5E2E2E2F5E2
310
E2E2E2E2E2E2E2E2E2E2E2E2E2E2E2F5E2E2E2E2E2E2E2E2E2E2E2E2E2E2E2E2E2E2E2E2E2E2E2E2E2E2E2E2E2E2E2E2E2E2E2E2E2E2E2E2E2E2E2E2E2E2E2E2E2E2E2E2E2E2E2E2E2E2E2E2E2E2E2E2E2E2E2E2E2E2E2E2E2E2E2E2E2E2E2E2E2E2E2E2E2E2E2E2E2E2E2E2E2E2E2E2E2E2E2E2E2E2E2E2E2E2E2E2E2E2E2
310
E2E2E2E2E2E2E2E2E2E2E2E2E2E2E2E2E2E2E2E2E2E2E2E2E2F5E2E2E2E2E2E2E2E2E2E2E2E2E2E2E2E2F5E2E2E2F5F5E2E2E2F5E2E2E2E2E2E2E2E2E2E2E2E2E2E2E2E2F5E2E2E2E2E2E2E2E2E2E2E2E2E2E2E2E2E2E2E2E2E2E2E2E2E2E2E2E2E2E2E2E2E2E2E2E2E2E2E2E2E2E2E2E2E2E2E2E2E2E2E2E2E2E2E2E2E2E2
310
E2E2E2E2E2E2E2E2E2E2E2E2E2E2E2E2E2E2E2E2E2E2E2E2E2E2E2E2E2E2E2E2E2E2E2E2E2E2E2E2E2E2E2E2E2E2E2E2E2E2E2E2E2E2E2E2E2E2E2E2E2E2E2E2E2E2E2E2E2E2E2E2E2E2E2E2E2E2F5E2E2E2E2E2E2E2E2E2E2E2E2E2E2E2E2F5E2E2E2F5F5E2E2E2F5E2E2E2E2E2E2E2E2E2E2E2E2E2E2E2E2F5E2E2E2E2E2
310
E2E2E2E2E2E2E2E2E2E2E2E2E2E2E2E2E2E2E2E2E2E2E2E2E2E2E2E2E2E2E2E2E2E2E2E2E2E2E2E2E2E2E2E2E2E2E2E2E2E2E2E2E2E2E2E2E2E2E2E2E2E2E2E2E2E2E2E2E2E2E2E2E2E2E2E2E2E2E2E2E2E2E2E2E2E2E2E2E2E2E2E2E2E2E2E2E2E2E2E2E2E2E2E2E2E2E2E2E2E2E2E2E2E2E2E2E2E2E2E2E2E2E2E2E2E2E2
310
E2E2E2E2F5E2E2E2E2E2E2E2E2E2E2E2E2E2E2E2E2F5E2E2E2F5F5E2E2E2E2E2E2E2E2E2E2E2E2E2E2E2E2E2E2E2E2F5E2E2E2E2E2E2E2E2E2E2E2E2E2E2E2E2E2E2E2E2E2E2E2E2E2E2E2E2E2E2E2E2E2E2E2E2E2E2E2E2E2E2E2E2E2E2E2E2E2E2E2E2E2E2E2E2E2E2E2E2E2E2E2E2E2E2E2E2E2E2E2E2E2E2E2E2E2E2E2
310
E2E2E2E2E2E2E2E2E2E2E2E2E2E2E2E2E2E2E2E2E2E2E2E2E2E2E2E2E2E2E2E2E2E2E2E2E2E2E2E2E2E2E2E2E2E2E2E2E2E2E2E2E2E2E2E2E2F5E2E2E2E2E2E2E2E2E2E2E2E2E2E2E2E2E2E2E2E2F5F5E2E2E2E2E2E2E2E2E2E2E2E2E2E2E2E2E2E2E2E2F5E2E2E2E2E2E2E2E2E2E2E2E2E2E2E2E2E2E2E2E2E2E2E2E2E2E2
310
E2E2E2E2E2E2E2E2E2E2E2E2E2E2E2E2E2E2E2E2E2E2E2E2E2E2E2E2E2E2E2E2E2E2E2E2E2E2E2E2E2E2E2E2E2E2E2E2E2E2E2E2E2E2E2E2E2E2E2E2E2E2E2E2E2E2E2E2E2E2E2E2E2E2E2E2E2E2E2E2E2E2E2E2E2E2E2E2E2E2E2E2E2E2E2E2E2E2E2E2E2E2E2E2E2E2E2E2E2E2F5E2E2E2E2E2E2E2E2E2E2E2E2E2E2E2E2
310
E2E2E2E2F5F5E2E2E2E2E2E2E2E2E2E2E2E2E2E2E2E2E2E2E2E2F5E2E2E2E2E2E2E2E2E2E2E2E2E2E2E2E2E2E2E2E2E2E2E2E2E2E2E2E2E2E2E2E2E2E2E2E2E2E2E2E2E2E2E2E2E2E2E2E2E2E2E2E2E2E2E2E2E2E2E2E2E2E2E2E2E2E2E2E2E2E2E2E2E2E2E2E2E2E2E2E2E2E2E2E2E2E2E2E2E2E2E2E2E2E2E2E2E2E2E2E2
310
E2E2E2E2E2E2E2E2E2E2E2E2E2E2E2E2E2E2E2E2E2E2E2E2E2E2E2E2E2E2E2E2E2E2E2E2F5E2E2E2E2E2E2E2E2E2E2E2E2E2E2E2E2E2E2E2E2F5F5E2E2E2E2E2E2E2E2E2E2E2E2E2E2E2E2E2E2E2E2F5E2E2E2E2E2E2E2E2E2E2E2E2E2E2E2E2E2E2E2E2E2E2E2E2E2E2E2E2E2E2E2E2E2E2E2E2E2E2E2E2E2E2E2E2E2E2E2
310
E2E2E2E2E2E2E2E2E2E2E2E2E2E2E2E2E2E2E2E2E2E2E2E2E2E2E2E2E2E2E2E2E2E2E2E2E2E2E2E2E2E2E2E2E2E2E2E2E2E2E2E2E2E2E2E2E2E2E2E2E2E2E2E2E2E2E2E2E2E2E2E2E2E2E2E2E2E2E2E2E2E2E2E2E2E2E2E2E2F5E2E2E2E2E2E2E2E2E2E2E2E2E2E2E2E2E2E2E2E2F5F5E2E2E2E2E2E2E2E2E2E2E2E2E2E2E2
310
E2E2E2E2E2F5F5F5F5F5F5F5F5F5F5F5F5F5F5F5F5F5F5F5F5F5F5F5F5F5F5F5F5F5F5F5F5F5F5F5F5F5F5F5F5F5F5F5F5F5F5F5F5F5F5F5F5F5F5F5F5F5F5F5F5F5F5F5F5F5F5F5F5F5F5F5F5F5F5F5F5F5F5F5F5F5F5F5F5F5F5F5F5F5F5F5F5F5F5F5F5F5F5F5F5F5F5F5F5F5F5F5F5F5F5F5F5F5F5F5F5F5F5F5F5F5F5
310
F5F5F5F5F5F5F5F5F5F5F5F5F5F5F5F5E2E2E2E2E2E2E2E2E2E2E2E2E2E2E2E2E2E2E2E2F5F5E2E2E2E2E2E2E2E2E2E2E2E2E2E2E2E2E2E2E2E2E2E2E2E2E2E2E2E2E2E2E2E2E2E2E2E2E2E2E2E2E2E2E2E2E2E2E2E2E2E2E2E2E2E2E2E2E2E2E2E2E2E2E2E2E2E2E2E2E2E2E2E2E2E2E2E2E2E2E2E2E2E2E2E2E2E2E2E2E2
310
E2E2E2E2E2E2E2E2E2E2E2E2E2E2E2E2E2E2E2E2E2E2E2E2E2E2E2E2E2E2E2E2E2E2E2E2E2E2E2E2E2E2E2E2E2E2E2E2E2E2E2E2E2E2E2E2E2E2E2E2E2E2E2E2E2E2E2E2E2E2E2E2E2E2E2E2E2E2E2E2E2E2E2E2E2E2E2E2E2F5F5E2E2E2E2E2E2E2E2E2E2E2E2E2E2E2E2E2E2E2E2E2E2E2E2E2E2E2E2E2E2E2E2E2E2E2E2
310
E2E2E2E2E2E2E2E2E2E2E2E2E2E2E2E2E2E2E2E2E2E2E2E2E2E2E2E2E2E2E2E2E2E2E2E2E2E2E2E2E2E2E2E2E2E2E2E2E2E2E2E2E2E2E2E2E2E2E2E2E2E2E2E2E2E2E2E2E2E2E2E2E2E2E2E2E2E2E2E2E2E2E2E2E2E2E2E2E2E2E2E2E2E2E2E2E2E2E2E2E2E2E2E2E2E2E2E2E2E2E2E2E2E2E2E2E2E2E2E2E2E2E2E2E2E2E2
310
E2E2E2E2E2E2E2E2E2E2E2E2E2E2E2F5F5E2E2E2E2E2E2E2E2E2E2E2E2E2E2E2E2E2E2E2E2E2E2E2E2E2E2E2E2E2E2E2E2E2E2E2E2E2E2E2E2E2E2E2E2E2E2E2E2E2E2E2E2E2E2E2E2E2E2E2E2E2E2E2E2E2E2E2E2E2E2E2E2E2E2E2E2E2E2E2E2E2E2E2E2E2E2E2E2E2E2E2E2E2E2E2E2E2E2E2E2E2E2E2E2E2E2E2E2E2E2
310
E2E2E2E2E2E2E2E2E2E2E2E2E2E2E2E2E2E2E2E2E2E2E2E2E2E2E2E2E2E2E2E2E2E2E2E2E2E2E2E2E2E2E2E2E2E2E2E2E2E2E2E2E2E2E2E2E2E2E2E2E2E2E2E2E2E2E2E2F5F5E2E2E2E2E2E2E2E2E2E2E2E2E2E2E2E2E2E2E2E2E2E2E2E2E2E2E2E2E2E2E2E2E2E2E2E2E2E2E2E2E2E2E2E2E2E2E2E2E2E2E2E2E2E2E2E2E2
310
E2E2E2E2E2E2E2E2E2E2E2E2E2E2E2E2E2E2E2E2E2E2E2E2E2E2E2E2E2E2E2E2E2E2E2E2E2E2E2E2E2E2E2E2E2E2E2E2E2E2E2E2E2E2E2E2E2E2E2E2E2E2E2E2E2E2E2E2E2E2E2E2E2E2E2E2E2E2E2E2E2E2E2E2E2E2E2E2E2E2E2E2E2E2E2E2E2E2E2E2E2E2E2E2E2E2E2E2E2E2E2E2E2E2E2E2E2E2E2E2E2F5F5E2E2E2F5
310
E2E2E2E2E2E2E2E2E2E2E2E2E2E2E2E2E2E2E2E2E2E2E2E2E2E2E2E2E2E2E2E2E2E2E2E2E2E2E2E2E2E2E2E2E2E2E2E2E2E2E2E2E2E2E2E2E2E2E2E2E2E2E2E2E2E2E2E2E2E2E2E2E2E2E2E2E2E2E2E2E2E2E2E2E2E2E2E2E2E2E2E2E2E2E2E2E2E2E2E2E2E2E2E2E2E2E2E2E2E2E2E2E2E2E2E2E2E2E2E2E2E2E2E2E2E2E2
310
E2E2E2E2E2E2E2E2E2E2E2E2E2E2E2E2E2E2E2E2E2E2E2E2E2E2E2E2E2E2E2E2E2E2E2E2E2E2E2E2E2E2E2F5E2E2E2F5F5E2E2E2F5E2E2E2E2E2E2E2E2E2E2E2E2E2E2E2E2E2E2E2E2E2E2E2E2E2E2E2E2E2E2E2E2E2E2E2E2E2E2E2E2E2E2E2E2E2E2E2E2E2E2E2E2E2E2E2E2E2E2E2E2E2E2E2E2E2E2E2E2E2E2E2E2E2E2
310
E2E2E2E2E2E2E2E2E2E2E2E2E2E2E2E2E2E2E2E2E2E2E2E2E2E2E2E2E2E2E2E2E2E2E2E2E2E2E2E2E2E2E2E2E2E2E2E2E2E2E2E2E2E2E2E2E2E2E2E2E2E2E2E2E2E2E2E2E2E2E2E2E2E2E2E2E2E2E2E2E2E2E2E2E2E2E2E2E2E2E2E2E2E2E2E2F5E2E2E2F5F5E2E2E2F5E2E2E2E2E2E2E2E2E2E2E2E2E2E2E2E2E2E2E2E2E2
310
E2E2E2E2E2E2E2E2E2E2E2E2E2E2E2E2E2E2E2E2E2E2E2E2E2E2E2E2E2E2E2E2E2E2E2E2E2E2E2E2E2E2E2E2E2E2E2E2E2E2E2E2E2E2E2E2E2E2E2E2E2E2E2E2E2E2E2E2E2E2E2E2E2E2E2E2E2E2E2E2E2E2E2E2E2E2E2E2E2E2E2E2E2E2E2E2E2E2E2E2E2E2E2E2E2E2E2E2E2E2E2E2E2E2E2E2E2E2E2E2E2E2E2E2E2E2E2
310
E2E2E2E2E2E2E2E2E2E2E2E2E2E2E2E2E2E2E2E2E2E2F5E2E2E2F5F5E2E2E2F5E2E2E2E2E2E2E2E2E2E2E2E2E2E2E2E2E2E2E2E2E2E2E2E2E2E2E2E2E2E2E2E2E2E2E2E2E2E2E2E2E2E2E2E2E2E2E2E2E2E2E2E2E2E2E2E2E2E2E2E2E2E2E2E2E2E2E2E2E2E2E2E2E2E2E2E2E2E2E2E2E2E2E2E2E2E2E2E2E2E2E2E2E2E2E2
310
E2E2E2E2E2E2E2E2E2E2E2E2E2E2E2E2E2E2E2E2E2E2E2E2E2E2E2E2E2E2E2E2E2E2E2E2E2E2E2E2E2E2E2E2E2E2E2E2E2E2E2E2E2E2E2E2E2E2E2E2E2E2E2E2E2E2E2E2E2E2E2E2E2E2E2F5E2E2E2F5F5E2E2E2F5E2E2E2E2E2E2E2E2E2E2E2E2E2E2E2E2E2E2E2E2E2E2E2E2E2E2E2E2E2E2E2E2E2E2E2E2E2E2E2E2E2E2
310
E2E2E2E2E2E2E2E2E2E2E2E2E2E2E2E2E2E2E2E2E2E2E2E2E2E2E2E2E2E2E2E2E2E2E2E2E2E2E2E2E2E2E2E2E2E2E2E2E2E2E2E2E2E2E2E2E2E2E2E2E2E2E2E2E2E2E2E2E2E2E2E2E2E2E2E2E2E2E2E2E2E2E2E2E2E2E2E2E2E2E2E2E2E2E2E2E2E2E2E2E2E2E2E2E2E2E2E2E2E2E2E2E2E2E2E2E2E2E2E2E2E2E2E2E2E2E2
310
E2F5E2E2E2F5F5E2E2E2F5E2E2E2E2E2E2E2E2E2E2E2E2E2E2E2E2E2E2E2E2E2E2E2E2E2E2E2E2E2E2E2E2E2E2E2E2E2E2E2E2E2E2E2E2E2E2E2E2E2E2E2E2E2E2E2E2E2E2E2E2E2E2E2E2E2E2E2E2E2E2E2E2E2E2E2E2E2E2E2E2E2E2E2E2E2E2E2E2E2E2E2E2E2E2E2E2E2E2E2E2E2E2E2E2E2E2E2E2E2E2E2E2E2E2E2E2
310
E2E2E2E2E2E2E2E2E2E2E2E2E2E2E2E2E2E2E2E2E2E2E2E2E2E2E2E2E2E2E2E2E2E2E2E2E2E2E2E2E2E2E2E2E2E2E2E2E2E2E2E2E2E2F5E2E2E2F5F5E2E2E2F5E2E2E2E2E2E2E2E2E2E2E2E2E2E2E2E2E2E2E2E2E2E2E2E2E2E2E2E2E2E2E2E2E2E2E2E2E2E2E2E2E2E2E2E2E2E2E2E2E2E2E2E2E2E2E2E2E2E2E2E2E2E2E2
310
E2E2E2E2E2E2E2E2E2E2E2E2E2E2E2E2E2E2E2E2E2E2E2E2E2E2E2E2E2E2E2E2E2E2E2E2E2E2E2E2E2E2E2E2E2E2E2E2E2E2E2E2E2E2E2E2E2E2E2E2E2E2E2E2E2E2E2E2E2E2E2E2E2E2E2E2E2E2E2E2E2E2E2E2E2E2E2E2E2E2E2E2E2E2E2E2E2E2E2E2E2E2E2E2E2E2E2F5E2E2E2F5F5E2E2E2F5E2E2E2E2E2E2E2E2E2E2
310
E2E2E2E2E2E2E2E2E2E2E2E2E2E2E2E2E2E2E2E2E2E2E2E2E2E2E2E2E2E2E2E2E2E2E2E2E2E2E2E2E2E2E2E2E2E2E2E2E2E2E2E2E2E2E2E2E2E2E2E2E2E2E2E2E2E2E2E2E2E2E2E2E2E2E2E2E2E2E2E2E2E2E2E2E2E2E2E2E2E2E2E2E2E2E2E2E2E2E2E2E2E2E2E2E2E2E2E2E2E2E2E2E2E2E2E2E2E2E2E2E2E2E2E2E2E2E2
310
E2E2E2E2E2E2E2E2E2E2E2E2E2E2E2E2E2E2E2E2E2E2E2E2E2E2E2E2E2E2E2E2E2F5E2E2E2F5F5E2E2E2F5F5F5F5F5F5F5F5E2E2E2E2E2E2E2E2E2F5F5F5F5F5F5F5F5F5F5F5F5F5F5F5F5E2E2E2E2E2E2E2E2E2F5F5F5F5F5F5F5F5F5F5F5F5F5F5F5E2E2E2E2E2E2E2E2E2F5F5F5F5F5F5F5F5F5F5F5F5F5F5F5F5E2E2E2
310
E2E2E2E2E2F5F5F5F5F5F5F5F5F5F5F5F5F5F5F5F5E2E2E2E2E2E2E2E2E2F5F5F5F5F5F5F5F5F5F5F5F5F5F5F5E2E2E2E2E2E2E2E2E2F5F5F5F5F5F5F5F5F5F5F5F5F5F5F5F5E2E2E2E2E2E2E2E2E2F5F5F5F5F5F5F5F5E2E2E2F5F5E2E2E2E2E2E2E2E2E2E2E2E2E2E2E2E2E2E2E2E2E2E2E2E2E2E2E2E2E2E2E2E2E2E2E2
310
E2E2E2E2E2E2E2E2E2E2E2E2E2E2E2E2E2E2E2E2E2E2E2E2E2E2E2E2E2E2E2E2E2E2E2E2E2E2E2E2E2E2E2E2E2E2E2E2E2E2E2E2E2E2E2E2E2E2E2E2E2E2E2E2E2E2E2E2E2E2E2E2E2E2E2E2E2E2E2E2E2E2E2E2E2E2E2E2E2E2E2E2E2E2E2E2E2E2E2E2E2E2E2E2E2E2E2E2E2E2E2E2E2E2E2E2E2E2E2E2E2E2E2E2E2E2E2
310
E2E2E2E2E2E2E2E2E2E2E2E2E2E2E2E2F5F5E2E2E2E2E2E2E2E2E2E2E2E2E2E2E2E2E2E2E2E2E2E2E2E2E2E2E2E2E2E2E2E2E2E2E2E2E2E2E2E2E2E2E2E2E2E2E2E2E2E2E2E2E2E2E2E2E2E2E2E2E2E2E2E2E2E2E2E2E2E2E2E2E2E2E2E2E2E2E2E2E2E2E2E2E2E2E2E2E2E2E2E2E2E2E2E2E2E2E2E2E2E2E2E2E2E2E2E2E2
310
E2E2E2E2E2E2E2E2E2E2E2E2E2E2E2E2E2E2E2E2E2E2E2E2E2E2E2E2E2E2E2E2E2E2E2E2E2E2E2E2E2E2E2E2E2E2E2E2E2E2E2E2E2E2E2E2E2E2E2E2E2E2E2E2E2E2E2E2E2F5F5E2E2E2E2E2E2E2E2E2E2E2E2E2E2E2E2E2E2E2E2E2E2E2E2E2E2E2E2E2E2E2E2E2E2E2E2E2E2E2E2E2E2E2E2E2E2E2E2E2E2E2E2E2E2E2E2
310
E2E2E2E2E2E2E2E2E2E2E2E2E2E2E2E2E2E2E2E2E2E2E2E2E2E2E2E2E2E2E2E2E2E2E2E2E2E2E2E2E2E2E2E2E2E2E2E2E2E2E2E2E2E2E2E2E2E2E2E2E2E2E2E2E2E2E2E2E2E2E2E2E2E2E2E2E2E2E2E2E2E2E2E2E2E2E2E2E2E2E2E2E2E2E2E2E2E2E2E2E2E2E2E2E2E2E2E2E2E2E2E2E2E2E2E2E2E2E2E2E2E2F5F5E2E2E2
310
E2E2E2E2E2E2E2E2E2E2E2E2E2E2E2E2E2E2E2E2E2E2E2E2E2E2E2E2E2E2E2E2E2E2E2E2E2E2E2E2E2E2E2E2E2E2E2E2E2E2E2E2E2E2E2E2E2E2E2E2E2E2E2E2E2E2E2E2E2E2E2E2E2E2E2E2E2E2E2E2E2E2E2E2E2E2E2E2E2E2E2E2E2E2E2E2E2E2E2E2E2E2E2E2E2E2E2E2E2E2E2E2E2E2E2E2E2E2E2E2E2E2E2E2E2E2E2
310
E2E2E2E2E2E2E2E2E2E2E2E2E2E2E2E2E2E2E2E2E2E2E2E2E2E2E2E2E2E2E2E2E2E2E2E2E2E2E2E2E2E2E2E2E2E2E2E2F5
  0
XRECORD
  5
56F9B
102
{ACAD_REACTORS
330
56F9A
102
}
330
56F9A
100
AcDbXrecord
280
     1
102
SHADEPLOT
 70
     0
102
SHADEPLOTRESLEVEL
 70
     2
102
SHADEPLOTCUSTOMDPI
 70
   300
  0
ENDSEC
  0
EOF
