  0
SECTION
  2
HEADER
  9
$ACADVER
  1
AC1015
  9
$ACADMAINTVER
 70
    20
  9
$DWGCODEPAGE
  3
ANSI_936
  9
$INSBASE
 10
0.0
 20
0.0
 30
0.0
  9
$EXTMIN
 10
-41.9271850117
 20
-73.61930702480481
 30
0.0
  9
$EXTMAX
 10
399.8557300492828
 20
106.4462060379446
 30
0.0
  9
$LIMMIN
 10
0.0
 20
0.0
  9
$LIMMAX
 10
420.0
 20
297.0
  9
$ORTHOMODE
 70
     0
  9
$REGENMODE
 70
     1
  9
$FILLMODE
 70
     1
  9
$QTEXTMODE
 70
     0
  9
$MIRRTEXT
 70
     1
  9
$LTSCALE
 40
1.0
  9
$ATTMODE
 70
     1
  9
$TEXTSIZE
 40
3.5
  9
$TRACEWID
 40
1.0
  9
$TEXTSTYLE
  7
simplex
  9
$CLAYER
  8
0
  9
$CELTYPE
  6
ByLayer
  9
$CECOLOR
 62
   256
  9
$CELTSCALE
 40
1.0
  9
$DISPSILH
 70
     0
  9
$DIMSCALE
 40
0.0
  9
$DIMASZ
 40
3.5
  9
$DIMEXO
 40
0.0
  9
$DIMDLI
 40
0.38
  9
$DIMRND
 40
0.0
  9
$DIMDLE
 40
0.0
  9
$DIMEXE
 40
1.5
  9
$DIMTP
 40
0.0
  9
$DIMTM
 40
0.0
  9
$DIMTXT
 40
3.5
  9
$DIMCEN
 40
0.09
  9
$DIMTSZ
 40
0.0
  9
$DIMTOL
 70
     0
  9
$DIMLIM
 70
     0
  9
$DIMTIH
 70
     0
  9
$DIMTOH
 70
     0
  9
$DIMSE1
 70
     0
  9
$DIMSE2
 70
     0
  9
$DIMTAD
 70
     1
  9
$DIMZIN
 70
     8
  9
$DIMBLK
  1

  9
$DIMASO
 70
     1
  9
$DIMSHO
 70
     1
  9
$DIMPOST
  1

  9
$DIMAPOST
  1

  9
$DIMALT
 70
     0
  9
$DIMALTD
 70
     2
  9
$DIMALTF
 40
25.4
  9
$DIMLFAC
 40
1.0
  9
$DIMTOFL
 70
     0
  9
$DIMTVP
 40
0.0
  9
$DIMTIX
 70
     0
  9
$DIMSOXD
 70
     0
  9
$DIMSAH
 70
     0
  9
$DIMBLK1
  1

  9
$DIMBLK2
  1

  9
$DIMSTYLE
  2
\M+18352\M+18373\M+1815B - ISO-25
  9
$DIMCLRD
 70
   256
  9
$DIMCLRE
 70
   256
  9
$DIMCLRT
 70
   256
  9
$DIMTFAC
 40
1.0
  9
$DIMGAP
 40
2.299999999999998
  9
$DIMJUST
 70
     0
  9
$DIMSD1
 70
     0
  9
$DIMSD2
 70
     0
  9
$DIMTOLJ
 70
     1
  9
$DIMTZIN
 70
     8
  9
$DIMALTZ
 70
     0
  9
$DIMALTTZ
 70
     0
  9
$DIMUPT
 70
     0
  9
$DIMDEC
 70
     2
  9
$DIMTDEC
 70
     2
  9
$DIMALTU
 70
     2
  9
$DIMALTTD
 70
     2
  9
$DIMTXSTY
  7
simplex
  9
$DIMAUNIT
 70
     0
  9
$DIMADEC
 70
     0
  9
$DIMALTRND
 40
0.0
  9
$DIMAZIN
 70
     0
  9
$DIMDSEP
 70
    46
  9
$DIMATFIT
 70
     3
  9
$DIMFRAC
 70
     0
  9
$DIMLDRBLK
  1

  9
$DIMLUNIT
 70
     2
  9
$DIMLWD
 70
    -1
  9
$DIMLWE
 70
    -1
  9
$DIMTMOVE
 70
     0
  9
$LUNITS
 70
     2
  9
$LUPREC
 70
     4
  9
$SKETCHINC
 40
1.0
  9
$FILLETRAD
 40
0.8
  9
$AUNITS
 70
     0
  9
$AUPREC
 70
     0
  9
$MENU
  1
.
  9
$ELEVATION
 40
0.0
  9
$PELEVATION
 40
0.0
  9
$THICKNESS
 40
0.0
  9
$LIMCHECK
 70
     0
  9
$CHAMFERA
 40
10.0
  9
$CHAMFERB
 40
10.0
  9
$CHAMFERC
 40
20.0
  9
$CHAMFERD
 40
0.0
  9
$SKPOLY
 70
     0
  9
$TDCREATE
 40
2455489.391063368
  9
$TDUCREATE
 40
2455489.057730035
  9
$TDUPDATE
 40
2458543.753035313
  9
$TDUUPDATE
 40
2458543.419701979
  9
$TDINDWG
 40
2.3757125231
  9
$TDUSRTIMER
 40
2.3756568866
  9
$USRTIMER
 70
     1
  9
$ANGBASE
 50
0.0
  9
$ANGDIR
 70
     0
  9
$PDMODE
 70
     0
  9
$PDSIZE
 40
0.0
  9
$PLINEWID
 40
0.0
  9
$SPLFRAME
 70
     0
  9
$SPLINETYPE
 70
     6
  9
$SPLINESEGS
 70
     8
  9
$HANDSEED
  5
640C2
  9
$SURFTAB1
 70
     6
  9
$SURFTAB2
 70
     6
  9
$SURFTYPE
 70
     6
  9
$SURFU
 70
     6
  9
$SURFV
 70
     6
  9
$UCSBASE
  2

  9
$UCSNAME
  2

  9
$UCSORG
 10
0.0
 20
0.0
 30
0.0
  9
$UCSXDIR
 10
1.0
 20
0.0
 30
0.0
  9
$UCSYDIR
 10
0.0
 20
1.0
 30
0.0
  9
$UCSORTHOREF
  2

  9
$UCSORTHOVIEW
 70
     0
  9
$UCSORGTOP
 10
0.0
 20
0.0
 30
0.0
  9
$UCSORGBOTTOM
 10
0.0
 20
0.0
 30
0.0
  9
$UCSORGLEFT
 10
0.0
 20
0.0
 30
0.0
  9
$UCSORGRIGHT
 10
0.0
 20
0.0
 30
0.0
  9
$UCSORGFRONT
 10
0.0
 20
0.0
 30
0.0
  9
$UCSORGBACK
 10
0.0
 20
0.0
 30
0.0
  9
$PUCSBASE
  2

  9
$PUCSNAME
  2

  9
$PUCSORG
 10
0.0
 20
0.0
 30
0.0
  9
$PUCSXDIR
 10
1.0
 20
0.0
 30
0.0
  9
$PUCSYDIR
 10
0.0
 20
1.0
 30
0.0
  9
$PUCSORTHOREF
  2

  9
$PUCSORTHOVIEW
 70
     0
  9
$PUCSORGTOP
 10
0.0
 20
0.0
 30
0.0
  9
$PUCSORGBOTTOM
 10
0.0
 20
0.0
 30
0.0
  9
$PUCSORGLEFT
 10
0.0
 20
0.0
 30
0.0
  9
$PUCSORGRIGHT
 10
0.0
 20
0.0
 30
0.0
  9
$PUCSORGFRONT
 10
0.0
 20
0.0
 30
0.0
  9
$PUCSORGBACK
 10
0.0
 20
0.0
 30
0.0
  9
$USERI1
 70
     0
  9
$USERI2
 70
     0
  9
$USERI3
 70
     0
  9
$USERI4
 70
     0
  9
$USERI5
 70
     0
  9
$USERR1
 40
0.0
  9
$USERR2
 40
0.0
  9
$USERR3
 40
0.0
  9
$USERR4
 40
0.0
  9
$USERR5
 40
0.0
  9
$WORLDVIEW
 70
     1
  9
$SHADEDGE
 70
     3
  9
$SHADEDIF
 70
    70
  9
$TILEMODE
 70
     1
  9
$MAXACTVP
 70
    64
  9
$PINSBASE
 10
0.0
 20
0.0
 30
0.0
  9
$PLIMCHECK
 70
     0
  9
$PEXTMIN
 10
26.66999878883364
 20
20.31999878883365
 30
0.0
  9
$PEXTMAX
 10
240.0299890995025
 20
182.8799890995025
 30
0.0
  9
$PLIMMIN
 10
-6.350006103515625
 20
-6.349999904632567
  9
$PLIMMAX
 10
273.0499877929688
 20
209.5499939918518
  9
$UNITMODE
 70
     0
  9
$VISRETAIN
 70
     1
  9
$PLINEGEN
 70
     0
  9
$PSLTSCALE
 70
     1
  9
$TREEDEPTH
 70
  3020
  9
$CMLSTYLE
  2
Standard
  9
$CMLJUST
 70
     0
  9
$CMLSCALE
 40
20.0
  9
$PROXYGRAPHICS
 70
     1
  9
$MEASUREMENT
 70
     1
  9
$CELWEIGHT
370
    -1
  9
$ENDCAPS
280
     0
  9
$JOINSTYLE
280
     0
  9
$LWDISPLAY
290
     0
  9
$INSUNITS
 70
     4
  9
$HYPERLINKBASE
  1

  9
$STYLESHEET
  1

  9
$XEDIT
290
     1
  9
$CEPSNTYPE
380
     0
  9
$PSTYLEMODE
290
     1
  9
$FINGERPRINTGUID
  2
{601DDA01-5B13-4A4C-8F56-1333B78D855B}
  9
$VERSIONGUID
  2
{9B8BC052-CA77-4FFC-BE8E-D884F9B461F4}
  9
$EXTNAMES
290
     1
  9
$PSVPSCALE
 40
0.0
  9
$OLESTARTUP
290
     0
  0
ENDSEC
  0
SECTION
  2
CLASSES
  0
CLASS
  1
ACDBDICTIONARYWDFLT
  2
AcDbDictionaryWithDefault
  3
ObjectDBX Classes
 90
        0
280
     0
281
     0
  0
CLASS
  1
ACDBPLACEHOLDER
  2
AcDbPlaceHolder
  3
ObjectDBX Classes
 90
        0
280
     0
281
     0
  0
CLASS
  1
LAYOUT
  2
AcDbLayout
  3
ObjectDBX Classes
 90
        0
280
     0
281
     0
  0
CLASS
  1
DICTIONARYVAR
  2
AcDbDictionaryVar
  3
ObjectDBX Classes
 90
        0
280
     0
281
     0
  0
CLASS
  1
TABLESTYLE
  2
AcDbTableStyle
  3
ObjectDBX Classes
 90
     2047
280
     0
281
     0
  0
CLASS
  1
SORTENTSTABLE
  2
AcDbSortentsTable
  3
ObjectDBX Classes
 90
        0
280
     0
281
     0
  0
CLASS
  1
DIMASSOC
  2
AcDbDimAssoc
  3
"AcDbDimAssoc|Product Desc:     AcDim ARX App For Dimension|Company:          Autodesk, Inc.|WEB Address:      www.autodesk.com"
 90
    32768
280
     0
281
     0
  0
CLASS
  1
ACAD_EVALUATION_GRAPH
  2
AcDbEvalGraph
  3
ObjectDBX Classes
 90
    33921
280
     0
281
     0
  0
CLASS
  1
ACAECUSTOBJ
  2
AcAeEditorObj
  3
AcAeEditorObj
 90
    33792
280
     0
281
     0
  0
CLASS
  1
ACDB_DYNAMICBLOCKPURGEPREVENTER_VERSION
  2
AcDbDynamicBlockPurgePreventer
  3
ObjectDBX Classes
 90
    33921
280
     0
281
     0
  0
ENDSEC
  0
SECTION
  2
TABLES
  0
TABLE
  2
VPORT
  5
8
330
0
100
AcDbSymbolTable
 70
     4
  0
VPORT
  5
640B3
330
8
100
AcDbSymbolTableRecord
100
AcDbViewportTableRecord
  2
*Active
 70
     0
 10
0.0
 20
0.0
 11
1.0
 21
1.0
 12
17.2953698734872
 22
6.435241325158983
 13
0.0
 23
0.0
 14
10.0
 24
10.0
 15
10.0
 25
10.0
 16
0.0
 26
0.0
 36
1.0
 17
0.0
 27
0.0
 37
0.0
 40
223.3336513964949
 41
1.456521739130435
 42
50.0
 43
0.0
 44
0.0
 50
0.0
 51
0.0
 71
     0
 72
  1000
 73
     1
 74
     1
 75
     0
 76
     0
 77
     0
 78
     0
281
     0
 65
     1
110
0.0
120
0.0
130
0.0
111
1.0
121
0.0
131
0.0
112
0.0
122
1.0
132
0.0
 79
     0
146
0.0
  0
ENDTAB
  0
TABLE
  2
LTYPE
  5
5
330
0
100
AcDbSymbolTable
 70
     5
  0
LTYPE
  5
14
330
5
100
AcDbSymbolTableRecord
100
AcDbLinetypeTableRecord
  2
ByBlock
 70
     0
  3

 72
    65
 73
     0
 40
0.0
  0
LTYPE
  5
15
330
5
100
AcDbSymbolTableRecord
100
AcDbLinetypeTableRecord
  2
ByLayer
 70
     0
  3

 72
    65
 73
     0
 40
0.0
  0
LTYPE
  5
16
330
5
100
AcDbSymbolTableRecord
100
AcDbLinetypeTableRecord
  2
Continuous
 70
     0
  3
Solid line
 72
    65
 73
     0
 40
0.0
  0
LTYPE
  5
D7
330
5
100
AcDbSymbolTableRecord
100
AcDbLinetypeTableRecord
  2
HIDDEN
 70
     0
  3
Hidden __ __ __ __ __ __ __ __ __ __ __ __ __ _
 72
    65
 73
     2
 40
9.524999999999996
 49
6.349999999999997
 74
     0
 49
-3.174999999999998
 74
     0
  0
LTYPE
  5
D9
330
5
100
AcDbSymbolTableRecord
100
AcDbLinetypeTableRecord
  2
CENTER
 70
     0
  3
Center ____ _ ____ _ ____ _ ____ _ ____ _ ____
 72
    65
 73
     4
 40
50.8
 49
31.75
 74
     0
 49
-6.349999999999997
 74
     0
 49
6.349999999999997
 74
     0
 49
-6.349999999999997
 74
     0
  0
LTYPE
  5
35815
330
5
100
AcDbSymbolTableRecord
100
AcDbLinetypeTableRecord
  2
PHANTOM
 70
     0
  3
_____ _ _ _____ _ _ _____ _ _ _____
 72
    65
 73
     6
 40
0.8
 49
0.45
 74
     0
 49
-0.05
 74
     0
 49
0.1
 74
     0
 49
-0.05
 74
     0
 49
0.1
 74
     0
 49
-0.05
 74
     0
  0
LTYPE
  5
54773
330
5
100
AcDbSymbolTableRecord
100
AcDbLinetypeTableRecord
  2
CENTER2
 70
     0
  3
Center (.5x) ___ _ ___ _ ___ _ ___ _ ___ _ ___
 72
    65
 73
     4
 40
28.575
 49
19.05
 74
     0
 49
-3.174999999999998
 74
     0
 49
3.174999999999998
 74
     0
 49
-3.174999999999998
 74
     0
  0
ENDTAB
  0
TABLE
  2
LAYER
  5
2
102
{ACAD_XDICTIONARY
360
E2
102
}
330
0
100
AcDbSymbolTable
 70
    14
  0
LAYER
  5
10
330
2
100
AcDbSymbolTableRecord
100
AcDbLayerTableRecord
  2
0
 70
     0
 62
     7
  6
Continuous
370
    -3
390
F
  0
LAYER
  5
D1
330
2
100
AcDbSymbolTableRecord
100
AcDbLayerTableRecord
  2
1
 70
     0
 62
     4
  6
Continuous
370
    50
390
F
1001
AcAecLayerStandard
1000

1000

  0
LAYER
  5
D3
330
2
100
AcDbSymbolTableRecord
100
AcDbLayerTableRecord
  2
2
 70
     0
 62
     7
  6
Continuous
370
    25
390
F
1001
AcAecLayerStandard
1000

1000

  0
LAYER
  5
D4
330
2
100
AcDbSymbolTableRecord
100
AcDbLayerTableRecord
  2
3
 70
     0
 62
     1
  6
HIDDEN
370
    35
390
F
1001
AcAecLayerStandard
1000

1000

  0
LAYER
  5
D8
330
2
100
AcDbSymbolTableRecord
100
AcDbLayerTableRecord
  2
4
 70
     0
 62
     2
  6
CENTER
370
    25
390
F
1001
AcAecLayerStandard
1000

1000

  0
LAYER
  5
DA
330
2
100
AcDbSymbolTableRecord
100
AcDbLayerTableRecord
  2
6
 70
     0
 62
     5
  6
Continuous
370
    35
390
F
1001
AcAecLayerStandard
1000

1000

  0
LAYER
  5
DB
330
2
100
AcDbSymbolTableRecord
100
AcDbLayerTableRecord
  2
cut
 70
     0
 62
     1
  6
Continuous
370
    25
390
F
1001
AcAecLayerStandard
1000

1000

  0
LAYER
  5
DC
330
2
100
AcDbSymbolTableRecord
100
AcDbLayerTableRecord
  2
nocut
 70
     0
 62
     7
  6
Continuous
370
    25
390
F
1001
AcAecLayerStandard
1000

1000

  0
LAYER
  5
DD
330
2
100
AcDbSymbolTableRecord
100
AcDbLayerTableRecord
  2
sk1
 70
     0
 62
     4
  6
Continuous
370
    50
390
F
1001
AcAecLayerStandard
1000

1000

  0
LAYER
  5
DE
330
2
100
AcDbSymbolTableRecord
100
AcDbLayerTableRecord
  2
sk2
 70
     0
 62
     7
  6
Continuous
370
    25
390
F
1001
AcAecLayerStandard
1000

1000

  0
LAYER
  5
DF
330
2
100
AcDbSymbolTableRecord
100
AcDbLayerTableRecord
  2
sk3
 70
     0
 62
     1
  6
HIDDEN
370
    35
390
F
1001
AcAecLayerStandard
1000

1000

  0
LAYER
  5
E0
330
2
100
AcDbSymbolTableRecord
100
AcDbLayerTableRecord
  2
sk4
 70
     0
 62
     2
  6
CENTER
370
    25
390
F
1001
AcAecLayerStandard
1000

1000

  0
LAYER
  5
E1
330
2
100
AcDbSymbolTableRecord
100
AcDbLayerTableRecord
  2
sk6
 70
     0
 62
     5
  6
Continuous
370
    35
390
F
1001
AcAecLayerStandard
1000

1000

  0
LAYER
  5
31B6
330
2
100
AcDbSymbolTableRecord
100
AcDbLayerTableRecord
  2
Defpoints
 70
     0
 62
     7
  6
Continuous
290
     0
370
    -3
390
F
  0
ENDTAB
  0
TABLE
  2
STYLE
  5
3
330
0
100
AcDbSymbolTable
 70
    11
  0
STYLE
  5
11
330
3
100
AcDbSymbolTableRecord
100
AcDbTextStyleTableRecord
  2
Standard
 70
     0
 40
0.0
 41
1.0
 50
0.0
 71
     0
 42
2.5
  3
txt.shx
  4
@extfont2.shx
  0
STYLE
  5
D6
330
3
100
AcDbSymbolTableRecord
100
AcDbTextStyleTableRecord
  2

 70
     1
 40
0.0
 41
1.0
 50
0.0
 71
     0
 42
2.5
  3
ltypeshp.shx
  4

  0
STYLE
  5
24A
330
3
100
AcDbSymbolTableRecord
100
AcDbTextStyleTableRecord
  2
simplex
 70
     0
 40
3.5
 41
1.0
 50
0.0
 71
     0
 42
3.5
  3
txt.shx
  4

  0
STYLE
  5
69E
330
3
100
AcDbSymbolTableRecord
100
AcDbTextStyleTableRecord
  2
MX_NOTE_STANDARD
 70
     0
 40
0.0
 41
1.0
 50
0.0
 71
     0
 42
4.2
  3
txt.shx
  4
extfont.shx
  0
STYLE
  5
3524
330
3
100
AcDbSymbolTableRecord
100
AcDbTextStyleTableRecord
  2
TEXTSTYLE_2
 70
     0
 40
0.0
 41
0.775
 50
0.0
 71
     0
 42
0.2
  3
gdt
  4

  0
STYLE
  5
3525
330
3
100
AcDbSymbolTableRecord
100
AcDbTextStyleTableRecord
  2
TEXTSTYLE_3
 70
     0
 40
0.0
 41
0.75
 50
0.0
 71
     0
 42
0.2
  3
txt
  4

  0
STYLE
  5
3526
330
3
100
AcDbSymbolTableRecord
100
AcDbTextStyleTableRecord
  2
TEXTSTYLE_13
 70
     0
 40
0.0
 41
1.0
 50
0.0
 71
     0
 42
0.2
  3
txt
  4

  0
STYLE
  5
519A
330
3
100
AcDbSymbolTableRecord
100
AcDbTextStyleTableRecord
  2
TEXTSTYLE_14
 70
     0
 40
0.0
 41
1.0
 50
0.0
 71
     0
 42
0.2
  3
txt
  4

  0
STYLE
  5
6F72
330
3
100
AcDbSymbolTableRecord
100
AcDbTextStyleTableRecord
  2
TEXTSTYLE_4
 70
     0
 40
0.0
 41
0.75
 50
0.0
 71
     0
 42
0.2
  3
txt
  4

  0
STYLE
  5
6F73
330
3
100
AcDbSymbolTableRecord
100
AcDbTextStyleTableRecord
  2
TEXTSTYLE_17
 70
     0
 40
0.0
 41
1.0
 50
0.0
 71
     0
 42
0.2
  3
txt
  4

  0
STYLE
  5
FE12
330
3
100
AcDbSymbolTableRecord
100
AcDbTextStyleTableRecord
  2
TEXTSTYLE_12
 70
     0
 40
0.0
 41
1.0
 50
0.0
 71
     0
 42
0.2
  3
txt
  4

  0
ENDTAB
  0
TABLE
  2
VIEW
  5
6
330
0
100
AcDbSymbolTable
 70
     0
  0
ENDTAB
  0
TABLE
  2
UCS
  5
7
330
0
100
AcDbSymbolTable
 70
     0
  0
ENDTAB
  0
TABLE
  2
APPID
  5
9
330
0
100
AcDbSymbolTable
 70
    11
  0
APPID
  5
12
330
9
100
AcDbSymbolTableRecord
100
AcDbRegAppTableRecord
  2
ACAD
 70
     0
  0
APPID
  5
D2
330
9
100
AcDbSymbolTableRecord
100
AcDbRegAppTableRecord
  2
AcAecLayerStandard
 70
     0
  0
APPID
  5
E6
330
9
100
AcDbSymbolTableRecord
100
AcDbRegAppTableRecord
  2
ACAD_DSTYLE_DIMTEXT_FILL
 70
     0
  0
APPID
  5
4C84
330
9
100
AcDbSymbolTableRecord
100
AcDbRegAppTableRecord
  2
ACAD_EXEMPT_FROM_CAD_STANDARDS
 70
     0
  0
APPID
  5
3493E
330
9
100
AcDbSymbolTableRecord
100
AcDbRegAppTableRecord
  2
DCO15
 70
     0
  0
APPID
  5
4366A
330
9
100
AcDbSymbolTableRecord
100
AcDbRegAppTableRecord
  2
ACAUTHENVIRON
 70
     0
  0
APPID
  5
4366D
330
9
100
AcDbSymbolTableRecord
100
AcDbRegAppTableRecord
  2
AcDbDynamicBlockTrueName
 70
     0
  0
APPID
  5
4366E
330
9
100
AcDbSymbolTableRecord
100
AcDbRegAppTableRecord
  2
AcDbDynamicBlockGUID
 70
     0
  0
APPID
  5
43670
330
9
100
AcDbSymbolTableRecord
100
AcDbRegAppTableRecord
  2
AcDbBlockRepETag
 70
     0
  0
APPID
  5
45C9F
330
9
100
AcDbSymbolTableRecord
100
AcDbRegAppTableRecord
  2
ACAD_DSTYLE_DIMEXT_ENABLED
 70
     0
  0
APPID
  5
45CA0
330
9
100
AcDbSymbolTableRecord
100
AcDbRegAppTableRecord
  2
ACAD_DSTYLE_DIMEXT_LENGTH
 70
     0
  0
ENDTAB
  0
TABLE
  2
DIMSTYLE
  5
A
330
0
100
AcDbSymbolTable
 70
     9
100
AcDbDimStyleTable
 71
     2
340
1BF
340
27
  0
DIMSTYLE
105
27
330
A
100
AcDbSymbolTableRecord
100
AcDbDimStyleTableRecord
  2
ISO-25
 70
     0
 41
2.5
 42
0.625
 43
3.75
 44
1.25
 73
     0
 74
     0
 77
     1
 78
     8
140
2.5
141
2.5
143
0.03937007874016
147
0.625
171
     3
172
     1
271
     2
272
     2
274
     3
278
    44
283
     0
284
     8
340
11
  0
DIMSTYLE
105
1BF
102
{ACAD_REACTORS
330
63C4C
330
63C49
330
63C48
330
63C4A
330
63C4B
330
63C4D
102
}
330
A
100
AcDbSymbolTableRecord
100
AcDbDimStyleTableRecord
  2
\M+18352\M+18373\M+1815B - ISO-25
 70
     0
 40
0.0
 41
3.5
 42
0.0
 44
1.5
 73
     0
 74
     0
 77
     1
 78
     8
140
3.5
147
2.299999999999998
176
   256
177
   256
178
   256
271
     2
272
     2
284
     8
340
24A
371
    -1
372
    -1
  0
DIMSTYLE
105
69F
330
A
100
AcDbSymbolTableRecord
100
AcDbDimStyleTableRecord
  2
MXDIMSTYLE
 70
     0
 41
2.5
 42
0.5
 43
3.75
 44
1.5
 73
     0
 74
     0
 77
     1
 78
     8
140
4.2
141
2.5
143
0.03937
147
1.0
171
     4
172
     1
173
     1
271
     2
272
     2
274
     4
283
     0
288
     1
340
69E
341
697
343
697
344
697
  0
DIMSTYLE
105
3527
330
A
100
AcDbSymbolTableRecord
100
AcDbDimStyleTableRecord
  2
STANDARD
 70
     0
 41
3.0
 47
0.001
 48
0.001
 71
     1
 73
     0
 74
     0
 77
     1
 78
     8
140
4.0
271
     3
272
     3
284
     8
340
11
341
34B1
342
34B1
343
34B1
344
34B1
  0
DIMSTYLE
105
3528
330
A
100
AcDbSymbolTableRecord
100
AcDbDimStyleTableRecord
  2
DIMSTYLE_1
 70
     0
 41
3.0
 73
     0
 74
     0
 77
     1
 78
     8
140
4.0
271
     3
272
     3
284
     8
340
11
341
34B1
342
34B1
343
34B1
344
34B1
  0
DIMSTYLE
105
3529
330
A
100
AcDbSymbolTableRecord
100
AcDbDimStyleTableRecord
  2
DIMSTYLE_2
 70
     0
 41
3.0
 47
0.001
 48
0.001
 73
     0
 74
     0
 77
     1
 78
     8
140
4.0
271
     3
272
     3
284
     8
340
11
341
34B1
342
34B1
343
34B1
344
34B1
  0
DIMSTYLE
105
352A
330
A
100
AcDbSymbolTableRecord
100
AcDbDimStyleTableRecord
  2
DIMSTYLE_3
 70
     0
 41
3.0
 47
-0.1
 48
0.3
 71
     1
 73
     0
 74
     0
 77
     1
 78
     8
140
4.0
146
0.5
271
     3
272
     3
284
     8
340
11
341
34B1
342
34B1
343
34B1
344
34B1
  0
DIMSTYLE
105
352B
330
A
100
AcDbSymbolTableRecord
100
AcDbDimStyleTableRecord
  2
DIMSTYLE_4
 70
     0
 41
3.0
 47
0.1
 48
0.1
 71
     1
 73
     0
 74
     0
 77
     1
 78
     8
140
4.0
271
     3
272
     3
284
     8
340
11
341
34B1
342
34B1
343
34B1
344
34B1
  0
DIMSTYLE
105
27245
330
A
100
AcDbSymbolTableRecord
100
AcDbDimStyleTableRecord
  2
DIMSTYLE_5
 70
     0
 41
3.0
 47
0.001
 48
0.001
 73
     0
 74
     0
 77
     1
 78
     8
140
4.0
271
     3
272
     3
284
     8
340
11
341
34B1
342
34B1
343
34B1
344
34B1
  0
ENDTAB
  0
TABLE
  2
BLOCK_RECORD
  5
1
330
0
100
AcDbSymbolTable
 70
    26
  0
BLOCK_RECORD
  5
1F
102
{ACAD_XDICTIONARY
360
31EE
102
}
330
1
100
AcDbSymbolTableRecord
100
AcDbBlockTableRecord
  2
*Model_Space
340
22
  0
BLOCK_RECORD
  5
50
330
1
100
AcDbSymbolTableRecord
100
AcDbBlockTableRecord
  2
*Paper_Space
340
51
  0
BLOCK_RECORD
  5
55
330
1
100
AcDbSymbolTableRecord
100
AcDbBlockTableRecord
  2
*Paper_Space0
340
56
  0
BLOCK_RECORD
  5
680
102
{ACAD_XDICTIONARY
360
43668
102
}
330
1
100
AcDbSymbolTableRecord
100
AcDbBlockTableRecord
  2
zero block
340
0
102
{BLKREFS
331
68C
102
}
1001
ACAD
1000
DesignCenter Data
1002
{
1070
     1
1070
     4
1002
}
1001
AcDbDynamicBlockGUID
1000
{A89DF4EB-B2CB-439E-AC69-1EAC9F242D1C}
1001
AcDbBlockRepETag
1070
     1
1071
        7
  0
BLOCK_RECORD
  5
697
330
1
100
AcDbSymbolTableRecord
100
AcDbBlockTableRecord
  2
_OPEN30
340
0
  0
BLOCK_RECORD
  5
32F1
330
1
100
AcDbSymbolTableRecord
100
AcDbBlockTableRecord
  2
_None
340
0
  0
BLOCK_RECORD
  5
34B1
330
1
100
AcDbSymbolTableRecord
100
AcDbBlockTableRecord
  2
_OPEN
340
0
  0
BLOCK_RECORD
  5
637FB
330
1
100
AcDbSymbolTableRecord
100
AcDbBlockTableRecord
  2
*D10
340
0
  0
BLOCK_RECORD
  5
63F53
330
1
100
AcDbSymbolTableRecord
100
AcDbBlockTableRecord
  2
*D19
340
0
  0
BLOCK_RECORD
  5
63F5D
330
1
100
AcDbSymbolTableRecord
100
AcDbBlockTableRecord
  2
*D20
340
0
  0
BLOCK_RECORD
  5
63F6A
330
1
100
AcDbSymbolTableRecord
100
AcDbBlockTableRecord
  2
*D21
340
0
  0
BLOCK_RECORD
  5
63F76
330
1
100
AcDbSymbolTableRecord
100
AcDbBlockTableRecord
  2
*D22
340
0
  0
BLOCK_RECORD
  5
63F82
330
1
100
AcDbSymbolTableRecord
100
AcDbBlockTableRecord
  2
*D23
340
0
  0
BLOCK_RECORD
  5
63F8E
330
1
100
AcDbSymbolTableRecord
100
AcDbBlockTableRecord
  2
*D24
340
0
  0
ENDTAB
  0
ENDSEC
  0
SECTION
  2
BLOCKS
  0
BLOCK
  5
20
330
1F
100
AcDbEntity
  8
0
100
AcDbBlockBegin
  2
*Model_Space
 70
     0
 10
0.0
 20
0.0
 30
0.0
  3
*Model_Space
  1

  0
ENDBLK
  5
21
330
1F
100
AcDbEntity
  8
0
100
AcDbBlockEnd
  0
BLOCK
  5
52
330
50
100
AcDbEntity
 67
     1
  8
0
100
AcDbBlockBegin
  2
*Paper_Space
 70
     0
 10
0.0
 20
0.0
 30
0.0
  3
*Paper_Space
  1

  0
ENDBLK
  5
53
330
50
100
AcDbEntity
 67
     1
  8
0
100
AcDbBlockEnd
  0
BLOCK
  5
57
330
55
100
AcDbEntity
 67
     1
  8
0
100
AcDbBlockBegin
  2
*Paper_Space0
 70
     0
 10
0.0
 20
0.0
 30
0.0
  3
*Paper_Space0
  1

  0
VIEWPORT
  5
71
102
{ACAD_XDICTIONARY
360
640BE
102
}
330
55
100
AcDbEntity
 67
     1
  8
0
100
AcDbViewport
 10
150.1652135264906
 20
101.599997546291
 30
0.0
 40
339.1973820494347
 41
164.5360435314421
 68
     0
 69
     0
 12
150.1652135264906
 22
101.599997546291
 13
0.0
 23
0.0
 14
10.0
 24
10.0
 15
10.0
 25
10.0
 16
0.0
 26
0.0
 36
1.0
 17
0.0
 27
0.0
 37
0.0
 42
50.0
 43
0.0
 44
0.0
 45
164.5360435314421
 50
0.0
 51
0.0
 72
  1000
 90
    32864
  1

281
     0
 71
     1
 74
     0
110
0.0
120
0.0
130
0.0
111
1.0
121
0.0
131
0.0
112
0.0
122
1.0
132
0.0
 79
     0
146
0.0
  0
VIEWPORT
  5
73
102
{ACAD_XDICTIONARY
360
640C0
102
}
330
55
100
AcDbEntity
 67
     1
  8
0
100
AcDbViewport
 10
133.3499939441681
 20
101.5999939441681
 30
0.0
 40
213.3599903106689
 41
162.5599903106689
 68
     0
 69
     0
 12
210.0
 22
148.5
 13
0.0
 23
0.0
 14
10.0
 24
10.0
 15
10.0
 25
10.0
 16
0.0
 26
0.0
 36
1.0
 17
0.0
 27
0.0
 37
0.0
 42
50.0
 43
0.0
 44
0.0
 45
324.0677920111345
 50
0.0
 51
0.0
 72
   100
 90
    32864
  1

281
     0
 71
     1
 74
     0
110
0.0
120
0.0
130
0.0
111
1.0
121
0.0
131
0.0
112
0.0
122
1.0
132
0.0
 79
     0
146
0.0
  0
ENDBLK
  5
58
330
55
100
AcDbEntity
 67
     1
  8
0
100
AcDbBlockEnd
  0
BLOCK
  5
68A
330
680
100
AcDbEntity
  8
0
100
AcDbBlockBegin
  2
zero block
 70
     0
 10
0.0
 20
0.0
 30
0.0
  3
zero block
  1

  0
HATCH
  5
43661
330
680
100
AcDbEntity
  8
0
 62
     7
100
AcDbHatch
 10
0.0
 20
0.0
 30
0.0
210
0.0
220
0.0
230
1.0
  2
SOLID
 70
     1
 71
     0
 91
        2
 92
        7
 72
     1
 73
     1
 93
        3
 10
0.0
 20
0.9999999999999875
 42
0.4142135623730915
 10
-1.0
 20
0.0
 42
0.0
 10
0.0
 20
0.0
 42
0.0
 97
        0
 92
        7
 72
     1
 73
     1
 93
        3
 10
1.000000000000007
 20
0.0
 42
0.0
 10
0.0
 20
0.0
 42
0.0
 10
0.0
 20
-1.0
 42
0.4142135623730974
 97
        0
 75
     0
 76
     1
 47
0.0090601366782909
 98
        2
 10
-0.380591363650975
 20
0.4885804701532896
 10
0.4350764810977559
 20
-0.4536738423704725
1001
AcDbBlockRepETag
1070
     1
1071
        0
1005
43661
  0
LINE
  5
43662
330
680
100
AcDbEntity
  8
0
 62
     7
 48
0.2
100
AcDbLine
 10
-1.0
 20
0.0
 30
0.0
 11
1.000000000000007
 21
0.0
 31
0.0
1001
AcDbBlockRepETag
1070
     1
1071
        1
1005
43662
  0
LINE
  5
43663
330
680
100
AcDbEntity
  8
0
 62
     7
 48
0.2
100
AcDbLine
 10
0.0
 20
-1.0
 30
0.0
 11
0.0
 21
0.9999999999999875
 31
0.0
1001
AcDbBlockRepETag
1070
     1
1071
        2
1005
43663
  0
ARC
  5
43664
330
680
100
AcDbEntity
  8
0
 62
     7
 48
0.2
100
AcDbCircle
 10
0.0
 20
0.0
 30
0.0
 40
1.0
100
AcDbArc
 50
270.0
 51
0.0
1001
AcDbBlockRepETag
1070
     1
1071
        3
1005
43664
  0
ARC
  5
43665
330
680
100
AcDbEntity
  8
0
 62
     7
 48
0.2
100
AcDbCircle
 10
0.0
 20
0.0
 30
0.0
 40
1.0
100
AcDbArc
 50
0.0
 51
90.0
1001
AcDbBlockRepETag
1070
     1
1071
        4
1005
43665
  0
ARC
  5
43666
330
680
100
AcDbEntity
  8
0
 62
     7
 48
0.2
100
AcDbCircle
 10
0.0
 20
0.0
 30
0.0
 40
1.0
100
AcDbArc
 50
180.0
 51
270.0
1001
AcDbBlockRepETag
1070
     1
1071
        5
1005
43666
  0
ARC
  5
43667
330
680
100
AcDbEntity
  8
0
 62
     7
 48
0.2
100
AcDbCircle
 10
0.0
 20
0.0
 30
0.0
 40
1.0
100
AcDbArc
 50
90.0
 51
180.0
1001
AcDbBlockRepETag
1070
     1
1071
        6
1005
43667
  0
ENDBLK
  5
68B
330
680
100
AcDbEntity
  8
0
100
AcDbBlockEnd
  0
BLOCK
  5
698
330
697
100
AcDbEntity
  8
0
  6
ByBlock
 62
     0
370
    -2
100
AcDbBlockBegin
  2
_OPEN30
 70
     2
 10
0.0
 20
0.0
 30
0.0
  3
_OPEN30
  1

  0
LINE
  5
699
330
697
100
AcDbEntity
  8
0
  6
ByBlock
 62
     0
370
    -2
100
AcDbLine
 10
-1.0
 20
0.267949
 30
0.0
 11
0.0
 21
0.0
 31
0.0
  0
LINE
  5
69A
330
697
100
AcDbEntity
  8
0
  6
ByBlock
 62
     0
370
    -2
100
AcDbLine
 10
0.0
 20
0.0
 30
0.0
 11
-1.0
 21
-0.267949
 31
0.0
  0
LINE
  5
69B
330
697
100
AcDbEntity
  8
0
  6
ByBlock
 62
     0
370
    -2
100
AcDbLine
 10
0.0
 20
0.0
 30
0.0
 11
-1.0
 21
0.0
 31
0.0
  0
ENDBLK
  5
69C
330
697
100
AcDbEntity
  8
0
  6
ByBlock
 62
     0
370
    -2
100
AcDbBlockEnd
  0
BLOCK
  5
32F2
330
32F1
100
AcDbEntity
  8
0
100
AcDbBlockBegin
  2
_None
 70
     0
 10
0.0
 20
0.0
 30
0.0
  3
_None
  1

  0
ENDBLK
  5
32F3
330
32F1
100
AcDbEntity
  8
0
100
AcDbBlockEnd
  0
BLOCK
  5
34B2
330
34B1
100
AcDbEntity
  8
0
100
AcDbBlockBegin
  2
_OPEN
 70
     0
 10
0.0
 20
0.0
 30
0.0
  3
_OPEN
  1

  0
LINE
  5
34B3
330
34B1
100
AcDbEntity
  8
0
  6
ByBlock
 62
     0
100
AcDbLine
 10
0.0
 20
0.0
 30
0.0
 11
-1.0
 21
0.1766666667
 31
0.0
  0
LINE
  5
34B4
330
34B1
100
AcDbEntity
  8
0
  6
ByBlock
 62
     0
100
AcDbLine
 10
-1.0
 20
-0.1766666667
 30
0.0
 11
0.0
 21
0.0
 31
0.0
  0
LINE
  5
34B5
330
34B1
100
AcDbEntity
  8
0
  6
ByBlock
 62
     0
100
AcDbLine
 10
-1.0
 20
0.0
 30
0.0
 11
0.0
 21
0.0
 31
0.0
  0
ENDBLK
  5
34B6
330
34B1
100
AcDbEntity
  8
0
  6
ByBlock
 62
     0
100
AcDbBlockEnd
  0
BLOCK
  5
63805
330
637FB
100
AcDbEntity
  8
0
100
AcDbBlockBegin
  2
*D10
 70
     1
 10
0.0
 20
0.0
 30
0.0
  3
*D10
  1

  0
LINE
  5
6386B
330
637FB
100
AcDbEntity
  8
2
100
AcDbLine
 10
0.0
 20
47.43856537529999
 30
0.0
 11
0.0000000000000022
 21
83.11278082901118
 31
0.0
  0
LINE
  5
6386C
330
637FB
100
AcDbEntity
  8
2
100
AcDbLine
 10
50.79999999999995
 20
50.20659958725435
 30
0.0
 11
50.79999999999995
 21
83.11278082901118
 31
0.0
  0
LINE
  5
6386D
330
637FB
100
AcDbEntity
  8
2
100
AcDbLine
 10
3.500000000000001
 20
81.61278082901118
 30
0.0
 11
47.29999999999995
 21
81.61278082901118
 31
0.0
  0
SOLID
  5
6386E
330
637FB
100
AcDbEntity
  8
2
100
AcDbTrace
 10
3.500000000000001
 20
82.19611416234451
 30
0.0
 11
3.500000000000001
 21
81.02944749567786
 31
0.0
 12
0.0000000000000021
 22
81.61278082901118
 32
0.0
 13
0.0000000000000021
 23
81.61278082901118
 33
0.0
  0
SOLID
  5
6386F
330
637FB
100
AcDbEntity
  8
2
100
AcDbTrace
 10
47.29999999999995
 20
82.19611416234451
 30
0.0
 11
47.29999999999995
 21
81.02944749567786
 31
0.0
 12
50.79999999999995
 22
81.61278082901118
 32
0.0
 13
50.79999999999995
 23
81.61278082901118
 33
0.0
  0
MTEXT
  5
63870
330
637FB
100
AcDbEntity
  8
2
100
AcDbMText
 10
25.40000000000001
 20
87.41278082901121
 30
0.0
 40
3.5
 41
0.0
 71
     2
 72
     1
  1
\A1;50.8 [2.000"]
  7
simplex
 73
     1
 44
1.0
1001
ACAD
1000
MTEXTBEGIN
1070
    73
1070
     1
1070
    44
1040
1.0
1070
    74
1070
     0
1000
MTEXTEND
  0
POINT
  5
63871
330
637FB
100
AcDbEntity
  8
Defpoints
 62
     0
100
AcDbPoint
 10
0.0
 20
47.43856537529999
 30
0.0
  0
POINT
  5
63872
330
637FB
100
AcDbEntity
  8
Defpoints
 62
     0
100
AcDbPoint
 10
50.79999999999995
 20
50.20659958725435
 30
0.0
  0
POINT
  5
63873
330
637FB
100
AcDbEntity
  8
Defpoints
 62
     0
100
AcDbPoint
 10
50.79999999999995
 20
81.61278082901118
 30
0.0
  0
ENDBLK
  5
63806
330
637FB
100
AcDbEntity
  8
0
100
AcDbBlockEnd
  0
BLOCK
  5
63F5B
330
63F53
100
AcDbEntity
  8
0
100
AcDbBlockBegin
  2
*D19
 70
     1
 10
0.0
 20
0.0
 30
0.0
  3
*D19
  1

  0
LINE
  5
64069
330
63F53
100
AcDbEntity
  8
2
100
AcDbLine
 10
50.80000000000001
 20
38.10000000000001
 30
0.0
 11
70.01140406293136
 21
38.10000000000001
 31
0.0
  0
LINE
  5
6406A
330
63F53
100
AcDbEntity
  8
2
100
AcDbLine
 10
68.51140406293136
 20
34.60000000000001
 30
0.0
 11
68.51140406293133
 21
-38.10000000000001
 31
0.0
  0
SOLID
  5
6406B
330
63F53
100
AcDbEntity
  8
2
100
AcDbTrace
 10
67.92807072959803
 20
34.60000000000001
 30
0.0
 11
69.09473739626469
 21
34.60000000000001
 31
0.0
 12
68.51140406293136
 22
38.10000000000001
 32
0.0
 13
68.51140406293136
 23
38.10000000000001
 33
0.0
  0
MTEXT
  5
6406C
330
63F53
100
AcDbEntity
  8
2
100
AcDbMText
 10
62.71140406293135
 20
2.683394502654544
 30
0.0
 40
3.5
 41
0.0
 71
     2
 72
     1
  1
\A1;%%c76.2 [%%C3.000"]
  7
simplex
 11
0.0000000000000001
 21
1.0
 31
0.0
 73
     1
 44
1.0
1001
ACAD
1000
MTEXTBEGIN
1070
    73
1070
     1
1070
    44
1040
1.0
1070
    74
1070
     0
1000
MTEXTEND
  0
POINT
  5
6406D
330
63F53
100
AcDbEntity
  8
Defpoints
 62
     0
100
AcDbPoint
 10
50.80000000000001
 20
38.10000000000001
 30
0.0
  0
POINT
  5
6406E
330
63F53
100
AcDbEntity
  8
Defpoints
 62
     0
100
AcDbPoint
 10
50.80000000000001
 20
-38.10000000000001
 30
0.0
  0
POINT
  5
6406F
330
63F53
100
AcDbEntity
  8
Defpoints
 62
     0
100
AcDbPoint
 10
68.51140406293133
 20
-38.10000000000001
 30
0.0
  0
ENDBLK
  5
63F5C
330
63F53
100
AcDbEntity
  8
0
100
AcDbBlockEnd
  0
BLOCK
  5
63F68
330
63F5D
100
AcDbEntity
  8
0
100
AcDbBlockBegin
  2
*D20
 70
     1
 10
0.0
 20
0.0
 30
0.0
  3
*D20
  1

  0
LINE
  5
64070
330
63F5D
100
AcDbEntity
  8
2
100
AcDbLine
 10
50.80000000000001
 20
38.26271630769999
 30
0.0
 11
50.80000000000001
 21
49.3451985509
 31
0.0
  0
LINE
  5
64071
330
63F5D
100
AcDbEntity
  8
2
100
AcDbLine
 10
40.79999999999998
 20
38.26271630769999
 30
0.0
 11
40.79999999999998
 21
49.3451985509
 31
0.0
  0
LINE
  5
64072
330
63F5D
100
AcDbEntity
  8
2
100
AcDbLine
 10
54.30000000000001
 20
47.8451985509
 30
0.0
 11
57.80000000000001
 21
47.8451985509
 31
0.0
  0
LINE
  5
64073
330
63F5D
100
AcDbEntity
  8
2
100
AcDbLine
 10
37.29999999999999
 20
47.8451985509
 30
0.0
 11
-12.21666666666671
 21
47.8451985509
 31
0.0
  0
SOLID
  5
64074
330
63F5D
100
AcDbEntity
  8
2
100
AcDbTrace
 10
54.30000000000001
 20
48.42853188423333
 30
0.0
 11
54.30000000000001
 21
47.26186521756666
 31
0.0
 12
50.80000000000001
 22
47.8451985509
 32
0.0
 13
50.80000000000001
 23
47.8451985509
 33
0.0
  0
SOLID
  5
64075
330
63F5D
100
AcDbEntity
  8
2
100
AcDbTrace
 10
37.29999999999999
 20
48.42853188423333
 30
0.0
 11
37.29999999999999
 21
47.26186521756666
 31
0.0
 12
40.79999999999998
 22
47.8451985509
 32
0.0
 13
40.79999999999998
 23
47.8451985509
 33
0.0
  0
MTEXT
  5
64076
330
63F5D
100
AcDbEntity
  8
2
100
AcDbMText
 10
10.79166666666663
 20
53.6451985509
 30
0.0
 40
3.5
 41
0.0
 71
     2
 72
     1
  1
\A1;10 [.394"](MAX)
  7
simplex
 73
     1
 44
1.0
1001
ACAD
1000
MTEXTBEGIN
1070
    73
1070
     1
1070
    44
1040
1.0
1070
    74
1070
     0
1000
MTEXTEND
  0
POINT
  5
64077
330
63F5D
100
AcDbEntity
  8
Defpoints
 62
     0
100
AcDbPoint
 10
50.80000000000001
 20
38.26271630769999
 30
0.0
  0
POINT
  5
64078
330
63F5D
100
AcDbEntity
  8
Defpoints
 62
     0
100
AcDbPoint
 10
40.79999999999998
 20
38.26271630769999
 30
0.0
  0
POINT
  5
64079
330
63F5D
100
AcDbEntity
  8
Defpoints
 62
     0
100
AcDbPoint
 10
40.79999999999998
 20
47.8451985509
 30
0.0
  0
ENDBLK
  5
63F69
330
63F5D
100
AcDbEntity
  8
0
100
AcDbBlockEnd
  0
BLOCK
  5
63F74
330
63F6A
100
AcDbEntity
  8
0
100
AcDbBlockBegin
  2
*D21
 70
     1
 10
0.0
 20
0.0
 30
0.0
  3
*D21
  1

  0
LINE
  5
6407A
330
63F6A
100
AcDbEntity
  8
sk2
100
AcDbLine
 10
4.019445167299977
 20
27.81500000180002
 30
0.0
 11
-30.59930318346312
 21
27.81500000180003
 31
0.0
  0
LINE
  5
6407B
330
63F6A
100
AcDbEntity
  8
sk2
100
AcDbLine
 10
4.30890094999998
 20
-27.81499999820001
 30
0.0
 11
-30.59930318346313
 21
-27.8149999982
 31
0.0
  0
LINE
  5
6407C
330
63F6A
100
AcDbEntity
  8
sk2
100
AcDbLine
 10
-29.09930318346312
 20
24.31500000180003
 30
0.0
 11
-29.09930318346313
 21
-24.3149999982
 31
0.0
  0
SOLID
  5
6407D
330
63F6A
100
AcDbEntity
  8
sk2
100
AcDbTrace
 10
-29.68263651679645
 20
24.31500000180003
 30
0.0
 11
-28.51596985012978
 21
24.31500000180003
 31
0.0
 12
-29.09930318346312
 22
27.81500000180003
 32
0.0
 13
-29.09930318346312
 23
27.81500000180003
 33
0.0
  0
SOLID
  5
6407E
330
63F6A
100
AcDbEntity
  8
sk2
100
AcDbTrace
 10
-29.68263651679646
 20
-24.3149999982
 30
0.0
 11
-28.5159698501298
 21
-24.3149999982
 31
0.0
 12
-29.09930318346313
 22
-27.8149999982
 32
0.0
 13
-29.09930318346313
 23
-27.8149999982
 33
0.0
  0
MTEXT
  5
6407F
330
63F6A
100
AcDbEntity
  8
sk2
100
AcDbMText
 10
-34.89930318346312
 20
0.000000001800006
 30
0.0
 40
3.5
 41
0.0
 71
     2
 72
     1
  1
\A1;%%c55.63 [%%C2.190"]
  7
simplex
 11
0.0000000000000001
 21
1.0
 31
0.0
 73
     1
 44
1.0
1001
ACAD
1000
MTEXTBEGIN
1070
    73
1070
     1
1070
    44
1040
1.0
1070
    74
1070
     0
1000
MTEXTEND
  0
POINT
  5
64080
330
63F6A
100
AcDbEntity
  8
Defpoints
 62
     0
100
AcDbPoint
 10
4.019445167299977
 20
27.81500000180002
 30
0.0
  0
POINT
  5
64081
330
63F6A
100
AcDbEntity
  8
Defpoints
 62
     0
100
AcDbPoint
 10
4.30890094999998
 20
-27.81499999820001
 30
0.0
  0
POINT
  5
64082
330
63F6A
100
AcDbEntity
  8
Defpoints
 62
     0
100
AcDbPoint
 10
-29.09930318346313
 20
-27.8149999982
 30
0.0
  0
ENDBLK
  5
63F75
330
63F6A
100
AcDbEntity
  8
0
100
AcDbBlockEnd
  0
BLOCK
  5
63F80
330
63F76
100
AcDbEntity
  8
0
100
AcDbBlockBegin
  2
*D22
 70
     1
 10
0.0
 20
0.0
 30
0.0
  3
*D22
  1

  0
LINE
  5
64083
330
63F76
100
AcDbEntity
  8
sk2
100
AcDbLine
 10
4.0
 20
-12.7
 30
0.0
 11
-13.36315333929997
 21
-12.69999999999999
 31
0.0
  0
LINE
  5
64084
330
63F76
100
AcDbEntity
  8
sk2
100
AcDbLine
 10
4.0
 20
12.7
 30
0.0
 11
-13.36315333929996
 21
12.7
 31
0.0
  0
LINE
  5
64085
330
63F76
100
AcDbEntity
  8
sk2
100
AcDbLine
 10
-11.86315333929997
 20
-9.199999999999995
 30
0.0
 11
-11.86315333929996
 21
9.200000000000002
 31
0.0
  0
SOLID
  5
64086
330
63F76
100
AcDbEntity
  8
sk2
100
AcDbTrace
 10
-12.4464866726333
 20
-9.199999999999993
 30
0.0
 11
-11.27982000596664
 21
-9.199999999999995
 31
0.0
 12
-11.86315333929997
 22
-12.69999999999999
 32
0.0
 13
-11.86315333929997
 23
-12.69999999999999
 33
0.0
  0
SOLID
  5
64087
330
63F76
100
AcDbEntity
  8
sk2
100
AcDbTrace
 10
-12.4464866726333
 20
9.200000000000004
 30
0.0
 11
-11.27982000596663
 21
9.200000000000002
 31
0.0
 12
-11.86315333929996
 22
12.7
 32
0.0
 13
-11.86315333929996
 23
12.7
 33
0.0
  0
MTEXT
  5
64088
330
63F76
100
AcDbEntity
  8
sk2
100
AcDbMText
 10
-17.66315333929997
 20
0.000000000000003
 30
0.0
 40
3.5
 41
0.0
 71
     2
 72
     1
  1
\A1;%%c25.4 [%%C1.000"]
  7
simplex
 11
0.0000000000000001
 21
1.0
 31
0.0
 73
     1
 44
1.0
1001
ACAD
1000
MTEXTBEGIN
1070
    73
1070
     1
1070
    44
1040
1.0
1070
    74
1070
     0
1000
MTEXTEND
  0
POINT
  5
64089
330
63F76
100
AcDbEntity
  8
Defpoints
 62
     0
100
AcDbPoint
 10
4.0
 20
-12.7
 30
0.0
  0
POINT
  5
6408A
330
63F76
100
AcDbEntity
  8
Defpoints
 62
     0
100
AcDbPoint
 10
4.0
 20
12.7
 30
0.0
  0
POINT
  5
6408B
330
63F76
100
AcDbEntity
  8
Defpoints
 62
     0
100
AcDbPoint
 10
-11.86315333929996
 20
12.7
 30
0.0
  0
ENDBLK
  5
63F81
330
63F76
100
AcDbEntity
  8
0
100
AcDbBlockEnd
  0
BLOCK
  5
63F8C
330
63F82
100
AcDbEntity
  8
0
100
AcDbBlockBegin
  2
*D23
 70
     1
 10
0.0
 20
0.0
 30
0.0
  3
*D23
  1

  0
LINE
  5
6408C
330
63F82
100
AcDbEntity
  8
2
100
AcDbLine
 10
0.0
 20
26.86856537529998
 30
0.0
 11
0.0000000000000021
 21
61.25399201649995
 31
0.0
  0
LINE
  5
6408D
330
63F82
100
AcDbEntity
  8
2
100
AcDbLine
 10
50.80000000000001
 20
37.14975501987856
 30
0.0
 11
50.80000000000001
 21
61.25399201649995
 31
0.0
  0
LINE
  5
6408E
330
63F82
100
AcDbEntity
  8
2
100
AcDbLine
 10
3.500000000000002
 20
59.75399201649995
 30
0.0
 11
47.30000000000001
 21
59.75399201649995
 31
0.0
  0
SOLID
  5
6408F
330
63F82
100
AcDbEntity
  8
2
100
AcDbTrace
 10
3.500000000000002
 20
60.33732534983329
 30
0.0
 11
3.500000000000002
 21
59.17065868316662
 31
0.0
 12
0.000000000000002
 22
59.75399201649995
 32
0.0
 13
0.000000000000002
 23
59.75399201649995
 33
0.0
  0
SOLID
  5
64090
330
63F82
100
AcDbEntity
  8
2
100
AcDbTrace
 10
47.30000000000001
 20
60.33732534983329
 30
0.0
 11
47.30000000000001
 21
59.17065868316662
 31
0.0
 12
50.80000000000001
 22
59.75399201649995
 32
0.0
 13
50.80000000000001
 23
59.75399201649995
 33
0.0
  0
MTEXT
  5
64091
330
63F82
100
AcDbEntity
  8
2
100
AcDbMText
 10
25.40000000000001
 20
65.55399201649994
 30
0.0
 40
3.5
 41
0.0
 71
     2
 72
     1
  1
\A1;50.8 [2.000"]
  7
simplex
 73
     1
 44
1.0
1001
ACAD
1000
MTEXTBEGIN
1070
    73
1070
     1
1070
    44
1040
1.0
1070
    74
1070
     0
1000
MTEXTEND
  0
POINT
  5
64092
330
63F82
100
AcDbEntity
  8
Defpoints
 62
     0
100
AcDbPoint
 10
0.0
 20
26.86856537529998
 30
0.0
  0
POINT
  5
64093
330
63F82
100
AcDbEntity
  8
Defpoints
 62
     0
100
AcDbPoint
 10
50.80000000000001
 20
37.14975501987856
 30
0.0
  0
POINT
  5
64094
330
63F82
100
AcDbEntity
  8
Defpoints
 62
     0
100
AcDbPoint
 10
50.80000000000001
 20
59.75399201649995
 30
0.0
  0
ENDBLK
  5
63F8D
330
63F82
100
AcDbEntity
  8
0
100
AcDbBlockEnd
  0
BLOCK
  5
63F98
330
63F8E
100
AcDbEntity
  8
0
100
AcDbBlockBegin
  2
*D24
 70
     1
 10
0.0
 20
0.0
 30
0.0
  3
*D24
  1

  0
LINE
  5
64095
330
63F8E
100
AcDbEntity
  8
sk2
100
AcDbLine
 10
-0.0000000000000284
 20
-26.86856537519999
 30
0.0
 11
-0.0000000000000304
 21
-59.3183129052007
 31
0.0
  0
LINE
  5
64096
330
63F8E
100
AcDbEntity
  8
sk2
100
AcDbLine
 10
26.0
 20
-12.17419608020002
 30
0.0
 11
26.0
 21
-59.3183129052007
 31
0.0
  0
LINE
  5
64097
330
63F8E
100
AcDbEntity
  8
sk2
100
AcDbLine
 10
3.499999999999969
 20
-57.8183129052007
 30
0.0
 11
22.5
 21
-57.8183129052007
 31
0.0
  0
LINE
  5
64098
330
63F8E
100
AcDbEntity
  8
sk2
100
AcDbLine
 10
26.0
 20
-57.8183129052007
 30
0.0
 11
67.35000000000001
 21
-57.8183129052007
 31
0.0
  0
SOLID
  5
64099
330
63F8E
100
AcDbEntity
  8
sk2
100
AcDbTrace
 10
3.499999999999969
 20
-57.23497957186737
 30
0.0
 11
3.499999999999969
 21
-58.40164623853404
 31
0.0
 12
-0.0000000000000303
 22
-57.8183129052007
 32
0.0
 13
-0.0000000000000303
 23
-57.8183129052007
 33
0.0
  0
SOLID
  5
6409A
330
63F8E
100
AcDbEntity
  8
sk2
100
AcDbTrace
 10
22.5
 20
-57.23497957186737
 30
0.0
 11
22.5
 21
-58.40164623853404
 31
0.0
 12
26.0
 22
-57.8183129052007
 32
0.0
 13
26.0
 23
-57.8183129052007
 33
0.0
  0
MTEXT
  5
6409B
330
63F8E
100
AcDbEntity
  8
sk2
100
AcDbMText
 10
48.42500000000001
 20
-52.0183129052007
 30
0.0
 40
3.5
 41
0.0
 71
     2
 72
     1
  1
\A1;26 [%%C1.024"]
  7
simplex
 73
     1
 44
1.0
1001
ACAD
1000
MTEXTBEGIN
1070
    73
1070
     1
1070
    44
1040
1.0
1070
    74
1070
     0
1000
MTEXTEND
  0
POINT
  5
6409C
330
63F8E
100
AcDbEntity
  8
Defpoints
 62
     0
100
AcDbPoint
 10
-0.0000000000000284
 20
-26.86856537519999
 30
0.0
  0
POINT
  5
6409D
330
63F8E
100
AcDbEntity
  8
Defpoints
 62
     0
100
AcDbPoint
 10
26.0
 20
-12.17419608020002
 30
0.0
  0
POINT
  5
6409E
330
63F8E
100
AcDbEntity
  8
Defpoints
 62
     0
100
AcDbPoint
 10
26.0
 20
-57.8183129052007
 30
0.0
  0
ENDBLK
  5
63F99
330
63F8E
100
AcDbEntity
  8
0
100
AcDbBlockEnd
  0
ENDSEC
  0
SECTION
  2
ENTITIES
  0
INSERT
  5
68C
330
1F
100
AcDbEntity
  8
0
100
AcDbBlockReference
  2
zero block
 10
0.0000000000000072
 20
0.0
 30
0.0
 50
180.0
  0
MTEXT
  5
63C30
330
1F
100
AcDbEntity
  8
sk6
100
AcDbMText
 10
-5.047414857410728
 20
83.02836702832911
 30
0.0
 40
5.0
 41
70.03712541027798
 71
     1
 72
     5
  1
VOX400UR0310C
  7
simplex
 73
     1
 44
1.0
1001
ACAD
1000
MTEXTBEGIN
1070
    73
1070
     1
1070
    44
1040
1.0
1070
    74
1070
     0
1000
MTEXTEND
  0
LINE
  5
63C3D
330
1F
100
AcDbEntity
  8
nocut
100
AcDbLine
 10
50.0999999999999
 20
-0.0000000000000036
 30
0.0
 11
50.0999999999999
 21
33.48101068599999
 31
0.0
  0
LINE
  5
63C3E
330
1F
100
AcDbEntity
  8
nocut
100
AcDbLine
 10
50.09999999999988
 20
-0.0000000000000036
 30
0.0
 11
0.0
 21
0.0
 31
0.0
  0
LINE
  5
63C3F
330
1F
100
AcDbEntity
  8
nocut
100
AcDbLine
 10
-0.0000000000000284
 20
26.86856537530002
 30
0.0
 11
0.0
 21
0.0
 31
0.0
  0
LINE
  5
63C40
330
1F
100
AcDbEntity
  8
nocut
100
AcDbLine
 10
24.49293887279996
 20
29.30111586390001
 30
0.0
 11
33.14675983889993
 21
34.71897206469999
 31
0.0
  0
LINE
  5
63C41
330
1F
100
AcDbEntity
  8
nocut
100
AcDbLine
 10
1.69999999999996
 20
27.81499999999994
 30
0.0
 11
11.69999999999996
 21
27.81499999999994
 31
0.0
  0
LINE
  5
63C42
330
1F
100
AcDbEntity
  8
nocut
100
AcDbLine
 10
1.69999999999996
 20
27.81499999999994
 30
0.0
 11
11.69999999999996
 21
27.81499999999994
 31
0.0
  0
LINE
  5
63C43
330
1F
100
AcDbEntity
  8
nocut
100
AcDbLine
 10
35.79999999999996
 20
35.481010686
 30
0.0
 11
48.09999999999991
 21
35.481010686
 31
0.0
  0
ARC
  5
63C44
330
1F
100
AcDbEntity
  8
nocut
100
AcDbCircle
 10
16.53321838949995
 20
42.01499999999998
 30
0.0
 40
15.0
100
AcDbArc
 50
251.2030949649995
 51
302.0492502163017
  0
ARC
  5
63C45
330
1F
100
AcDbEntity
  8
nocut
100
AcDbCircle
 10
35.79999999999996
 20
30.48101068599999
 30
0.0
 40
5.0
100
AcDbArc
 50
90.0
 51
122.0492502163018
  0
ARC
  5
63C46
330
1F
100
AcDbEntity
  8
nocut
100
AcDbCircle
 10
1.69999999999996
 20
25.81499999999995
 30
0.0
 40
2.0
100
AcDbArc
 50
90.0
 51
148.211669382901
  0
ARC
  5
63C47
330
1F
100
AcDbEntity
  8
nocut
100
AcDbCircle
 10
48.09999999999991
 20
33.48101068599999
 30
0.0
 40
2.0
100
AcDbArc
 50
0.0
 51
90.0
  0
DIMENSION
  5
63C48
330
1F
100
AcDbEntity
  8
2
100
AcDbDimension
  2
*D19
 10
68.51140406293133
 20
-38.10000000000001
 30
0.0
 11
68.51140406293135
 21
2.683394502654543
 31
0.0
 70
   160
  1
%%c<>
 71
     2
 42
76.20000000000001
  3
\M+18352\M+18373\M+1815B - ISO-25
100
AcDbAlignedDimension
 13
50.80000000000001
 23
38.10000000000001
 33
0.0
 14
50.80000000000001
 24
-38.10000000000001
 34
0.0
 50
270.0
100
AcDbRotatedDimension
1001
ACAD
1000
DSTYLE
1002
{
1070
     4
1000
%%C[]"
1070
    40
1040
1.0
1070
    76
1070
     1
1070
   143
1040
0.03937
1070
   170
1070
     1
1070
   171
1070
     3
1070
   173
1070
     1
1070
   271
1070
     8
1070
   285
1070
     4
1070
   344
1005
32F1
1002
}
  0
DIMENSION
  5
63C49
330
1F
100
AcDbEntity
  8
2
100
AcDbDimension
  2
*D20
 10
40.79999999999998
 20
47.8451985509
 30
0.0
 11
10.79166666666663
 21
47.8451985509
 31
0.0
 70
   160
  1
<>(MAX)
 71
     2
 42
10.00000000000003
  3
\M+18352\M+18373\M+1815B - ISO-25
100
AcDbAlignedDimension
 13
50.80000000000001
 23
38.26271630769999
 33
0.0
 14
40.79999999999998
 24
38.26271630769999
 34
0.0
 50
180.0
100
AcDbRotatedDimension
1001
ACAD
1000
DSTYLE
1002
{
1070
     4
1000
"
1070
    40
1040
1.0
1070
   143
1040
0.03937
1070
   170
1070
     1
1070
   171
1070
     3
1070
   271
1070
     8
1070
   285
1070
     4
1002
}
  0
DIMENSION
  5
63C4A
330
1F
100
AcDbEntity
  8
sk2
100
AcDbDimension
  2
*D21
 10
-29.09930318346313
 20
-27.8149999982
 30
0.0
 11
-29.09930318346312
 21
0.0000000018000055
 31
0.0
 70
   160
  1
%%c<>
 71
     2
 42
55.63000000000002
  3
\M+18352\M+18373\M+1815B - ISO-25
100
AcDbAlignedDimension
 13
4.019445167299977
 23
27.81500000180002
 33
0.0
 14
4.30890094999998
 24
-27.81499999820001
 34
0.0
 50
270.0
100
AcDbRotatedDimension
1001
ACAD
1000
DSTYLE
1002
{
1070
     4
1000
%%C[]"
1070
    40
1040
1.0
1070
   143
1040
0.03937
1070
   170
1070
     1
1070
   171
1070
     3
1070
   271
1070
     8
1070
   285
1070
     4
1002
}
  0
DIMENSION
  5
63C4B
330
1F
100
AcDbEntity
  8
sk2
100
AcDbDimension
  2
*D22
 10
-11.86315333929996
 20
12.7
 30
0.0
 11
-11.86315333929997
 21
0.0000000000000025
 31
0.0
 70
   160
  1
%%c<>
 71
     2
 42
25.4
  3
\M+18352\M+18373\M+1815B - ISO-25
100
AcDbAlignedDimension
 13
4.0
 23
-12.7
 33
0.0
 14
4.0
 24
12.7
 34
0.0
 50
90.0
100
AcDbRotatedDimension
1001
ACAD
1000
DSTYLE
1002
{
1070
     4
1000
%%C[]"
1070
    40
1040
1.0
1070
   143
1040
0.03937
1070
   170
1070
     1
1070
   171
1070
     3
1070
   271
1070
     8
1070
   285
1070
     4
1002
}
  0
DIMENSION
  5
63C4C
330
1F
100
AcDbEntity
  8
2
100
AcDbDimension
  2
*D23
 10
50.80000000000001
 20
59.75399201649995
 30
0.0
 11
25.40000000000001
 21
59.75399201649995
 31
0.0
 70
   160
 71
     2
 42
50.80000000000001
  3
\M+18352\M+18373\M+1815B - ISO-25
100
AcDbAlignedDimension
 13
0.0
 23
26.86856537529998
 33
0.0
 14
50.80000000000001
 24
37.14975501987856
 34
0.0
100
AcDbRotatedDimension
1001
ACAD
1000
DSTYLE
1002
{
1070
     4
1000
"
1070
    40
1040
1.0
1070
   143
1040
0.03937
1070
   170
1070
     1
1070
   171
1070
     3
1070
   271
1070
     8
1070
   285
1070
     4
1002
}
  0
DIMENSION
  5
63C4D
330
1F
100
AcDbEntity
  8
sk2
100
AcDbDimension
  2
*D24
 10
26.0
 20
-57.8183129052007
 30
0.0
 11
48.42500000000001
 21
-57.8183129052007
 31
0.0
 70
   160
 71
     2
 42
26.00000000000003
  3
\M+18352\M+18373\M+1815B - ISO-25
100
AcDbAlignedDimension
 13
-0.0000000000000284
 23
-26.86856537519999
 33
0.0
 14
26.0
 24
-12.17419608020002
 34
0.0
100
AcDbRotatedDimension
1001
ACAD
1000
DSTYLE
1002
{
1070
     4
1000
%%C[]"
1070
    40
1040
1.0
1070
   143
1040
0.03937
1070
   170
1070
     1
1070
   171
1070
     3
1070
   271
1070
     8
1070
   285
1070
     4
1002
}
  0
LINE
  5
63C4E
330
1F
100
AcDbEntity
  8
1
100
AcDbLine
 10
49.98132766480001
 20
-18.97686829020002
 30
0.0
 11
49.96632584880001
 21
-18.90430699030001
 31
0.0
  0
LINE
  5
63C4F
330
1F
100
AcDbEntity
  8
1
100
AcDbLine
 10
50.75552531930004
 20
-31.72409009690003
 30
0.0
 11
50.78406920019998
 21
-31.86823630740001
 31
0.0
  0
LWPOLYLINE
  5
63C50
330
1F
100
AcDbEntity
  8
1
100
AcDbPolyline
 90
       10
 70
     0
 43
0.0
 10
50.51987621630002
 20
-27.89644576980001
 10
50.51668700750003
 20
-27.87944383710004
 10
50.51329015030001
 20
-27.86236504050002
 10
50.5096852268
 20
-27.84520971750001
 10
50.50587169949998
 20
-27.82797815530003
 10
50.50184926239999
 20
-27.81067074980001
 10
50.49761785020002
 20
-27.79328800210003
 10
50.49317716639999
 20
-27.77583030760003
 10
50.48852667469995
 20
-27.75829795850004
 10
50.48366595670001
 20
-27.74069130069999
  0
LINE
  5
63C51
330
1F
100
AcDbEntity
  8
1
100
AcDbLine
 10
49.979635102
 20
-27.5660937052
 30
0.0
 11
49.93530455229998
 21
-27.32735010720003
 31
0.0
  0
LWPOLYLINE
  5
63C52
330
1F
100
AcDbEntity
  8
1
100
AcDbPolyline
 90
        9
 70
     0
 43
0.0
 10
50.47288366189994
 20
-29.14314431290002
 10
50.47197774890003
 20
-29.13815636299999
 10
50.4699383839
 20
-29.12599770339999
 10
50.46811245559997
 20
-29.11369475870002
 10
50.46650038839999
 20
-29.10124378620002
 10
50.46510357110003
 20
-29.08864776240001
 10
50.4639237588
 20
-29.07591658000001
 10
50.46296159429997
 20
-29.06305369740002
 10
50.46221719380003
 20
-29.05005593600002
  0
LWPOLYLINE
  5
63C53
330
1F
100
AcDbEntity
  8
1
100
AcDbPolyline
 90
       20
 70
     0
 43
0.0
 10
49.93530455229998
 20
-27.32735010720003
 10
49.92475707059995
 20
-27.26911468860001
 10
49.91998418759999
 20
-27.24183877720003
 10
49.9155769743
 20
-27.21581565030003
 10
49.91154935950001
 20
-27.19103093870002
 10
49.90793634250002
 20
-27.16757594420001
 10
49.90475238829998
 20
-27.14544403800001
 10
49.90200690390003
 20
-27.12462309200002
 10
49.89972587989996
 20
-27.10519955550001
 10
49.89792072090001
 20
-27.08717760980001
 10
49.89659455259999
 20
-27.07054000870004
 10
49.89575876869998
 20
-27.05534543090002
 10
49.89541868540005
 20
-27.04160305350004
 10
49.89557317649993
 20
-27.0292972525
 10
49.89622139850002
 20
-27.01845351159999
 10
49.89736266750004
 20
-27.00907416080002
 10
49.89899128989998
 20
-27.00115555060002
 10
49.90109633340001
 20
-26.9947179036
 10
49.90366861709998
 20
-26.98977026909999
 10
49.90636537860002
 20
-26.98659826380002
  0
LINE
  5
63C54
330
1F
100
AcDbEntity
  8
1
100
AcDbLine
 10
49.99339039450001
 20
-27.64312858929999
 30
0.0
 11
49.979635102
 21
-27.5660937052
 31
0.0
  0
LINE
  5
63C55
330
1F
100
AcDbEntity
  8
1
100
AcDbLine
 10
50.78406920019998
 20
-31.86823630740001
 30
0.0
 11
50.7980056422
 21
-31.95204371370002
 31
0.0
  0
LINE
  5
63C56
330
1F
100
AcDbEntity
  8
1
100
AcDbLine
 10
50.43485253409997
 20
-32.05295387030002
 30
0.0
 11
50.37188928899997
 21
-31.640207684
 31
0.0
  0
LINE
  5
63C57
330
1F
100
AcDbEntity
  8
1
100
AcDbLine
 10
49.96796161159998
 20
-20.27024179749999
 30
0.0
 11
50.01702885110001
 21
-20.73097300249999
 31
0.0
  0
LINE
  5
63C58
330
1F
100
AcDbEntity
  8
1
100
AcDbLine
 10
50.01702885110001
 20
-20.73097300249999
 30
0.0
 11
50.03061758939995
 21
-20.86127076380003
 31
0.0
  0
LINE
  5
63C59
330
1F
100
AcDbEntity
  8
1
100
AcDbLine
 10
49.95460131969998
 20
-20.13862453190002
 30
0.0
 11
49.96796161159998
 21
-20.27024179749999
 31
0.0
  0
LINE
  5
63C5A
330
1F
100
AcDbEntity
  8
1
100
AcDbLine
 10
50.03061758939995
 20
-20.86127076380003
 30
0.0
 11
50.04355411210003
 21
-20.9904139854
 31
0.0
  0
LWPOLYLINE
  5
63C5B
330
1F
100
AcDbEntity
  8
1
100
AcDbPolyline
 90
        6
 70
     0
 43
0.0
 10
50.50299937590001
 20
-29.26394073990002
 10
50.50233402040001
 20
-29.2572029329
 10
50.50134794079998
 20
-29.25062319710004
 10
50.5000317546
 20
-29.2441874963
 10
50.49837807489996
 20
-29.23788285940002
 10
50.49643175679998
 20
-29.23183986069999
  0
LINE
  5
63C5C
330
1F
100
AcDbEntity
  8
1
100
AcDbLine
 10
49.9420433784
 20
-20.0078155355
 30
0.0
 11
49.95460131969998
 21
-20.13862453190002
 31
0.0
  0
LINE
  5
63C5D
330
1F
100
AcDbEntity
  8
1
100
AcDbLine
 10
50.04355411210003
 20
-20.9904139854
 30
0.0
 11
50.05560883989997
 21
-21.11814841990002
 31
0.0
  0
LWPOLYLINE
  5
63C5E
330
1F
100
AcDbEntity
  8
1
100
AcDbPolyline
 90
       14
 70
     0
 43
0.0
 10
50.05560883989997
 20
-21.11814841990002
 10
50.06658336800001
 20
-21.24432173659998
 10
50.07160049009994
 20
-21.30673372710004
 10
50.07627904860001
 20
-21.36870293280002
 10
50.08059171860003
 20
-21.43017191390001
 10
50.08452229329998
 20
-21.4911587443
 10
50.08805161619998
 20
-21.55164430730001
 10
50.09115385259995
 20
-21.61151356080002
 10
50.09381616489998
 20
-21.67078788440001
 10
50.09602250009999
 20
-21.72944063010003
 10
50.09775213730001
 20
-21.7872826952
 10
50.09899557030002
 20
-21.84424761180002
 10
50.09974754819999
 20
-21.90039233980002
 10
50.09999999999999
 20
-21.95571163569999
  0
LWPOLYLINE
  5
63C5F
330
1F
100
AcDbEntity
  8
1
100
AcDbPolyline
 90
       10
 70
     0
 43
0.0
 10
50.45818051809999
 20
-28.95332046590001
 10
50.45639826169997
 20
-28.92230853190002
 10
50.45433124129997
 20
-28.89086881040002
 10
50.45197945679999
 20
-28.85900130150002
 10
50.44934471179999
 20
-28.82670361360002
 10
50.44642520270002
 20
-28.79397813839999
 10
50.44321551910002
 20
-28.76083205020001
 10
50.43971385750001
 20
-28.72726774049998
 10
50.43592202150001
 20
-28.6932828179
 10
50.43525760939997
 20
-28.68768277060002
  0
LWPOLYLINE
  5
63C60
330
1F
100
AcDbEntity
  8
1
100
AcDbPolyline
 90
        5
 70
     0
 43
0.0
 10
50.50299937590001
 20
-29.26394073990002
 10
50.50333903119997
 20
-29.27098372880002
 10
50.50333797830001
 20
-29.27818282100002
 10
50.50306803069998
 20
-29.28542630490003
 10
50.50280563169997
 20
-29.28971964790001
  0
LINE
  5
63C61
330
1F
100
AcDbEntity
  8
1
100
AcDbLine
 10
50.45818051809999
 20
-28.95332046590001
 30
0.0
 11
50.46221719380003
 21
-29.05005593600002
 31
0.0
  0
LINE
  5
63C62
330
1F
100
AcDbEntity
  8
1
100
AcDbLine
 10
50.63940859259995
 20
-33.62248949160001
 30
0.0
 11
50.62700927569998
 21
-33.13152757810001
 31
0.0
  0
LWPOLYLINE
  5
63C63
330
1F
100
AcDbEntity
  8
1
100
AcDbPolyline
 90
       24
 70
     0
 43
0.0
 10
50.09999999999999
 20
-28.76272220490001
 10
50.0997607745
 20
-28.71196351080003
 10
50.09904899439999
 20
-28.66137254799999
 10
50.09787349549995
 20
-28.61095014460004
 10
50.09624179799999
 20
-28.56066401120002
 10
50.09416337009994
 20
-28.51054697790002
 10
50.09165282889998
 20
-28.4606967423
 10
50.08872178319998
 20
-28.4111121095
 10
50.0853817789
 20
-28.36179184460004
 10
50.0816529297
 20
-28.31283239130002
 10
50.07754779229995
 20
-28.26421267560002
 10
50.07308166820002
 20
-28.21594796960004
 10
50.06828546270003
 20
-28.16818789630001
 10
50.06317762459997
 20
-28.12093388510003
 10
50.05777493739995
 20
-28.07417511420003
 10
50.05211289120001
 20
-28.028041472
 10
50.0462146246
 20
-27.9825486925
 10
50.0400973042
 20
-27.93766810310002
 10
50.03379202029996
 20
-27.89346157210004
 10
50.02731668960001
 20
-27.84990311320001
 10
50.0206940175
 20
-27.80700206620004
 10
50.01396603169997
 20
-27.76487187280003
 10
50.00715511369998
 20
-27.72350565700002
 10
49.99339039450001
 20
-27.64312858929999
  0
LWPOLYLINE
  5
63C64
330
1F
100
AcDbEntity
  8
1
100
AcDbPolyline
 90
        3
 70
     0
 43
0.0
 10
50.7952205135
 20
-32.73603654860001
 10
50.79538362710002
 20
-32.77347032200002
 10
50.79758825489998
 20
-33.08885381960001
  0
LINE
  5
63C65
330
1F
100
AcDbEntity
  8
1
100
AcDbLine
 10
50.09999999999999
 20
-28.84944231080004
 30
0.0
 11
50.09999999999999
 21
-33.4729348302
 31
0.0
  0
LINE
  5
63C66
330
1F
100
AcDbEntity
  8
1
100
AcDbLine
 10
50.09999999999999
 20
-28.76272220490001
 30
0.0
 11
50.09999999999999
 21
-21.95571163569999
 31
0.0
  0
LINE
  5
63C67
330
1F
100
AcDbEntity
  8
1
100
AcDbLine
 10
50.09999999999999
 20
-18.82775886370002
 30
0.0
 11
50.09999999999999
 21
-18.16499441200001
 31
0.0
  0
LINE
  5
63C68
330
1F
100
AcDbEntity
  8
1
100
AcDbLine
 10
50.79653208680003
 20
-32.24981774290002
 30
0.0
 11
50.7952205135
 21
-32.73603654860001
 31
0.0
  0
LINE
  5
63C69
330
1F
100
AcDbEntity
  8
1
100
AcDbLine
 10
50.7980056422
 20
-31.95204371370002
 30
0.0
 11
50.79744886579999
 21
-32.11286068060001
 31
0.0
  0
LWPOLYLINE
  5
63C6A
330
1F
100
AcDbEntity
  8
1
100
AcDbPolyline
 90
       10
 70
     0
 43
0.0
 10
50.09999999999999
 20
-33.4729348302
 10
50.09988385880001
 20
-33.49423586600001
 10
50.09953744059996
 20
-33.51552278820002
 10
50.09896089840004
 20
-33.53679350320003
 10
50.09815383719993
 20
-33.55804811390004
 10
50.09711695739998
 20
-33.57928242890002
 10
50.09585206960003
 20
-33.60048789550003
 10
50.09435989709999
 20
-33.62166028750001
 10
50.0926400596
 20
-33.64279977240001
 10
50.09069272790004
 20
-33.66390437380001
  0
LINE
  5
63C6B
330
1F
100
AcDbEntity
  8
1
100
AcDbLine
 10
50.79744886579999
 20
-32.11286068060001
 30
0.0
 11
50.79653208680003
 21
-32.24981774290002
 31
0.0
  0
LWPOLYLINE
  5
63C6C
330
1F
100
AcDbEntity
  8
1
100
AcDbPolyline
 90
        5
 70
     0
 43
0.0
 10
50.54145650179996
 20
-28.20897973630002
 10
50.54229337800001
 20
-28.19054826670002
 10
50.54218054489997
 20
-28.09514570440003
 10
50.5347237382
 20
-27.99711176770002
 10
50.51987621630002
 20
-27.89644576980001
  0
LWPOLYLINE
  5
63C6D
330
1F
100
AcDbEntity
  8
1
100
AcDbPolyline
 90
        9
 70
     0
 43
0.0
 10
50.02128613040003
 20
-34.44442644660002
 10
50.0218959696
 20
-34.43121368750003
 10
50.02256881630001
 20
-34.38345191080002
 10
50.02076408160002
 20
-34.3354238054
 10
50.01637760430003
 20
-34.28727827830002
 10
50.00938628799997
 20
-34.2393439001
 10
49.99978703279999
 20
-34.19152187480002
 10
49.98753460759994
 20
-34.14346311530001
 10
49.98492294689999
 20
-34.13469553000003
  0
LINE
  5
63C6E
330
1F
100
AcDbEntity
  8
1
100
AcDbLine
 10
50.62700927569998
 20
-33.13152757810001
 30
0.0
 11
50.63086949000001
 21
-33.05180923910003
 31
0.0
  0
LINE
  5
63C6F
330
1F
100
AcDbEntity
  8
1
100
AcDbLine
 10
50.01960514619998
 20
-34.47701869830004
 30
0.0
 11
50.0212873232
 21
-34.44440406950001
 31
0.0
  0
LINE
  5
63C70
330
1F
100
AcDbEntity
  8
1
100
AcDbLine
 10
50.37188928899997
 20
-31.640207684
 30
0.0
 11
50.47552066370002
 21
-29.68664947010002
 31
0.0
  0
LINE
  5
63C71
330
1F
100
AcDbEntity
  8
1
100
AcDbLine
 10
50.29929585010001
 20
-29.26014021049999
 30
0.0
 11
50.31644880329998
 21
-28.93677811340001
 31
0.0
  0
LINE
  5
63C72
330
1F
100
AcDbEntity
  8
1
100
AcDbLine
 10
50.63086949000001
 20
-33.05180923910003
 30
0.0
 11
50.634960406
 21
-32.97502360150001
 31
0.0
  0
LINE
  5
63C73
330
1F
100
AcDbEntity
  8
1
100
AcDbLine
 10
50.49188218320001
 20
-29.36801430140002
 30
0.0
 11
50.47552066370002
 21
-29.68664947010002
 31
0.0
  0
LINE
  5
63C74
330
1F
100
AcDbEntity
  8
1
100
AcDbLine
 10
50.634960406
 20
-32.97502360150001
 30
0.0
 11
50.6393002538
 21
-32.90069338370002
 31
0.0
  0
LWPOLYLINE
  5
63C75
330
1F
100
AcDbEntity
  8
1
100
AcDbPolyline
 90
       13
 70
     0
 43
0.0
 10
50.019610597
 20
-34.4770179863
 10
50.01840318669997
 20
-34.4962749978
 10
50.00896685270004
 20
-34.57280744420002
 10
49.99203841009998
 20
-34.6511899202
 10
49.96763674610003
 20
-34.73141992230002
 10
49.93576075620001
 20
-34.81348755040001
 10
49.89638537799999
 20
-34.89740121550001
 10
49.84948780079998
 20
-34.98314091280001
 10
49.79506896359999
 20
-35.07064586540002
 10
49.73312800739998
 20
-35.15986585810002
 10
49.66365175689995
 20
-35.25076056460001
 10
49.58657935979999
 20
-35.34331885140002
 10
49.50183988999999
 20
-35.43753378290003
  0
LINE
  5
63C76
330
1F
100
AcDbEntity
  8
1
100
AcDbLine
 10
50.6393002538
 20
-32.90069338370002
 30
0.0
 11
50.64394336539999
 21
-32.82721416690002
 31
0.0
  0
LINE
  5
63C77
330
1F
100
AcDbEntity
  8
1
100
AcDbLine
 10
50.47579909860002
 20
-29.68147935340001
 30
0.0
 11
50.50280652290002
 21
-29.28970672010004
 31
0.0
  0
LINE
  5
63C78
330
1F
100
AcDbEntity
  8
1
100
AcDbLine
 10
50.64394336539999
 20
-32.82721416690002
 30
0.0
 11
50.64897802119998
 21
-32.75320970750004
 31
0.0
  0
LWPOLYLINE
  5
63C79
330
1F
100
AcDbEntity
  8
1
100
AcDbPolyline
 90
        8
 70
     0
 43
0.0
 10
50.50280563169997
 20
-29.28971964790001
 10
50.50259758569999
 20
-29.29254278810002
 10
50.50197788540001
 20
-29.29952670100004
 10
50.50122501599995
 20
-29.30655406380002
 10
50.50036377719999
 20
-29.31359396850004
 10
50.49942012479999
 20
-29.32059033820002
 10
50.49838726959999
 20
-29.3276876382
 10
50.49728550909998
 20
-29.33482729210003
  0
LINE
  5
63C7A
330
1F
100
AcDbEntity
  8
1
100
AcDbLine
 10
50.64897802119998
 20
-32.75320970750004
 30
0.0
 11
50.65446537619997
 21
-32.67782149529999
 31
0.0
  0
LINE
  5
63C7B
330
1F
100
AcDbEntity
  8
1
100
AcDbLine
 10
50.65446537619997
 20
-32.67782149529999
 30
0.0
 11
50.66050366799996
 21
-32.59984809440001
 31
0.0
  0
LINE
  5
63C7C
330
1F
100
AcDbEntity
  8
1
100
AcDbLine
 10
50.66050366799996
 20
-32.59984809440001
 30
0.0
 11
50.66722409430003
 21
-32.5180451202
 31
0.0
  0
LINE
  5
63C7D
330
1F
100
AcDbEntity
  8
1
100
AcDbLine
 10
50.53510339000002
 20
-28.28331492880001
 30
0.0
 11
50.54145650179996
 21
-28.20897973630002
 31
0.0
  0
LINE
  5
63C7E
330
1F
100
AcDbEntity
  8
1
100
AcDbLine
 10
50.66722409430003
 20
-32.5180451202
 30
0.0
 11
50.67466499989996
 21
-32.43203456850002
 31
0.0
  0
LWPOLYLINE
  5
63C7F
330
1F
100
AcDbEntity
  8
1
100
AcDbPolyline
 90
       55
 70
     0
 43
0.0
 10
50.09069272790004
 20
-33.66390437380001
 10
50.0845296526
 20
-33.71895485050004
 10
50.07683247700004
 20
-33.77372268770002
 10
50.06760120119998
 20
-33.82820788540001
 10
50.05682077450001
 20
-33.88246951810002
 10
50.04450624750001
 20
-33.9364485114
 10
50.03070277169996
 20
-33.98996764160002
 10
50.01541880699997
 20
-34.04298576150002
 10
49.99864589360001
 20
-34.09554401839999
 10
49.98040380279997
 20
-34.14758863000002
 10
49.9606781105
 20
-34.19915351460002
 10
49.939483241
 20
-34.25020475400002
 10
49.91688223859998
 20
-34.30058681120002
 10
49.89286205969998
 20
-34.35030441230002
 10
49.86743574790001
 20
-34.39935283130002
 10
49.84070547919995
 20
-34.44756235210001
 10
49.81267231779998
 20
-34.49491360310002
 10
49.78333519939994
 20
-34.54142595590001
 10
49.75279310809995
 20
-34.58698781030002
 10
49.72106961190002
 20
-34.6315663269
 10
49.68814114259996
 20
-34.67519434490002
 10
49.65403598040001
 20
-34.71785878190001
 10
49.6187219922
 20
-34.75959709980002
 10
49.58223131099996
 20
-34.80037183660002
 10
49.54468861599995
 20
-34.8400575239
 10
49.50608451599999
 20
-34.87864952500004
 10
49.4664284022
 20
-34.91615247670002
 10
49.42587312730001
 20
-34.95245482070004
 10
49.38443587389994
 20
-34.9875335485
 10
49.34209945940001
 20
-35.02141166880001
 10
49.2989651885
 20
-35.05404664900003
 10
49.25505575070002
 20
-35.0854249174
 10
49.2103484566
 20
-35.11556004590001
 10
49.16487654299999
 20
-35.14445021710002
 10
49.11859999449998
 20
-35.1721188593
 10
49.07155882659998
 20
-35.1985425443
 10
49.02390632269995
 20
-35.22364917070003
 10
48.97563784409999
 20
-35.2474311427
 10
48.92675802960003
 20
-35.2698960561
 10
48.87743407899998
 20
-35.29099459700002
 10
48.8276980128
 20
-35.31070989130002
 10
48.7775178105
 20
-35.329058813
 10
48.72696461009994
 20
-35.34604266990003
 10
48.67604787760001
 20
-35.36166204300001
 10
48.62475814710001
 20
-35.37591635120004
 10
48.57313815919997
 20
-35.38880515880002
 10
48.52114590619999
 20
-35.40033617530002
 10
48.46882339579997
 20
-35.41050169110001
 10
48.41633939230002
 20
-35.41927814140004
 10
48.36369020789999
 20
-35.42665661660004
 10
48.31087953049999
 20
-35.43264602630003
 10
48.25808718809998
 20
-35.4372495345
 10
48.20537312369999
 20
-35.44046819590001
 10
48.15267739429995
 20
-35.44230095590001
 10
48.09999999999999
 20
-35.44274781439999
  0
LINE
  5
63C80
330
1F
100
AcDbEntity
  8
1
100
AcDbLine
 10
50.77102057489998
 20
-31.94291681170002
 30
0.0
 11
50.78406920019998
 21
-31.86823630740001
 31
0.0
  0
LINE
  5
63C81
330
1F
100
AcDbEntity
  8
1
100
AcDbLine
 10
50.75851910589998
 20
-32.0125729295
 30
0.0
 11
50.77102057489998
 21
-31.94291681170002
 31
0.0
  0
LINE
  5
63C82
330
1F
100
AcDbEntity
  8
1
100
AcDbLine
 10
50.74712772539999
 20
-32.0744316934
 30
0.0
 11
50.75851910589998
 21
-32.0125729295
 31
0.0
  0
LINE
  5
63C83
330
1F
100
AcDbEntity
  8
1
100
AcDbLine
 10
50.73490509099994
 20
-32.1390958777
 30
0.0
 11
50.74712772539999
 21
-32.0744316934
 31
0.0
  0
LINE
  5
63C84
330
1F
100
AcDbEntity
  8
1
100
AcDbLine
 10
50.72379706889998
 20
-32.1963297946
 30
0.0
 11
50.73490509099994
 21
-32.1390958777
 31
0.0
  0
LINE
  5
63C85
330
1F
100
AcDbEntity
  8
1
100
AcDbLine
 10
50.71330371660002
 20
-32.24905425020002
 30
0.0
 11
50.72379706889998
 21
-32.1963297946
 31
0.0
  0
LWPOLYLINE
  5
63C86
330
1F
100
AcDbEntity
  8
1
100
AcDbPolyline
 90
        3
 70
     0
 43
0.0
 10
50.70131092759999
 20
-32.30772599890001
 10
50.70384989249999
 20
-32.29544923330003
 10
50.71330371660002
 20
-32.24905425020002
  0
LINE
  5
63C87
330
1F
100
AcDbEntity
  8
1
100
AcDbLine
 10
50.12007713969996
 20
-33.91475002720002
 30
0.0
 11
50.08105892190002
 21
-33.74365019670002
 31
0.0
  0
LWPOLYLINE
  5
63C88
330
1F
100
AcDbEntity
  8
1
100
AcDbPolyline
 90
        9
 70
     0
 43
0.0
 10
49.21208929689999
 20
-35.53387148910001
 10
49.21389686219999
 20
-35.54323788950002
 10
49.21585320230002
 20
-35.55266235470002
 10
49.21795831719999
 20
-35.56214488470001
 10
49.2202108679
 20
-35.57168650230001
 10
49.2226121933
 20
-35.58128618480002
 10
49.22516631040003
 20
-35.59094086340001
 10
49.22787455820003
 20
-35.60064951520001
 10
49.23073559779997
 20
-35.61041316310001
  0
LINE
  5
63C89
330
1F
100
AcDbEntity
  8
1
100
AcDbLine
 10
49.23793427869998
 20
-35.63680997230001
 30
0.0
 11
49.24759132989999
 21
-35.6877931588
 31
0.0
  0
LWPOLYLINE
  5
63C8A
330
1F
100
AcDbEntity
  8
1
100
AcDbPolyline
 90
       10
 70
     0
 43
0.0
 10
49.20489234209998
 20
-35.48556220580001
 10
49.20550511149994
 20
-35.49086726210003
 10
49.20616444809997
 20
-35.4961881386
 10
49.20687035180003
 20
-35.50152483530001
 10
49.20762261469994
 20
-35.50687756500001
 10
49.20842144469995
 20
-35.51224611500003
 10
49.20926746559993
 20
-35.51762984630001
 10
49.21016088520002
 20
-35.52302854590001
 10
49.21110149559993
 20
-35.5284424268
 10
49.21208929689999
 20
-35.53387148910001
  0
LINE
  5
63C8B
330
1F
100
AcDbEntity
  8
sk3
100
AcDbLine
 10
47.80000000000001
 20
-18.16499441200001
 30
0.0
 11
47.80000000000001
 21
-19.8505576891
 31
0.0
  0
LWPOLYLINE
  5
63C8C
330
1F
100
AcDbEntity
  8
1
100
AcDbPolyline
 90
        4
 70
     0
 43
0.0
 10
50.04398293979997
 20
-19.20142542170002
 10
50.04960365059995
 20
-19.02502888100001
 10
50.05425395180004
 20
-18.91191838420003
 10
50.05725943229996
 20
-18.85157062530003
  0
LINE
  5
63C8D
330
1F
100
AcDbEntity
  8
1
100
AcDbLine
 10
50.32723581250002
 20
-19.84153121499999
 30
0.0
 11
50.22940209450002
 21
-21.21315793510003
 31
0.0
  0
LWPOLYLINE
  5
63C8E
330
1F
100
AcDbEntity
  8
1
100
AcDbPolyline
 90
        8
 70
     0
 43
0.0
 10
50.29929585010001
 20
-29.26014021049999
 10
50.29411485320003
 20
-29.32579900950002
 10
50.28663632820002
 20
-29.38284782490004
 10
50.27685845149997
 20
-29.4361929036
 10
50.26491760239998
 20
-29.48653844900002
 10
50.25091485169998
 20
-29.53436144260003
 10
50.23511224319998
 20
-29.57972801420003
 10
50.22717320639995
 20
-29.59961229080002
  0
LWPOLYLINE
  5
63C8F
330
1F
100
AcDbEntity
  8
1
100
AcDbPolyline
 90
        7
 70
     0
 43
0.0
 10
49.22243088380003
 20
-35.2455020151
 10
49.21903621489997
 20
-35.28425955850001
 10
49.21582582730002
 20
-35.32351913260001
 10
49.21280565300003
 20
-35.36327932560001
 10
49.20997766930003
 20
-35.4035396668
 10
49.20733989899992
 20
-35.44430062690003
 10
49.20489234209998
 20
-35.48556220580001
  0
LINE
  5
63C90
330
1F
100
AcDbEntity
  8
1
100
AcDbLine
 10
50.09999999999999
 20
-18.24011058820001
 30
0.0
 11
50.10661113819998
 21
-18.16499441200001
 31
0.0
  0
LWPOLYLINE
  5
63C91
330
1F
100
AcDbEntity
  8
1
100
AcDbPolyline
 90
        4
 70
     0
 43
0.0
 10
49.23371464649997
 20
-35.13224298150003
 10
49.22976911090001
 20
-35.16949396200001
 10
49.22600785669999
 20
-35.20724697320003
 10
49.22243088380003
 20
-35.2455020151
  0
LINE
  5
63C92
330
1F
100
AcDbEntity
  8
1
100
AcDbLine
 10
50.32723581250002
 20
-29.7727008184
 30
0.0
 11
50.27264051860001
 21
-30.25932294139999
 31
0.0
  0
LINE
  5
63C93
330
1F
100
AcDbEntity
  8
1
100
AcDbLine
 10
50.18870141029996
 20
-30.660272968
 30
0.0
 11
50.22940209450002
 21
-30.31024559220003
 31
0.0
  0
LWPOLYLINE
  5
63C94
330
1F
100
AcDbEntity
  8
1
100
AcDbPolyline
 90
        9
 70
     0
 43
0.0
 10
50.47391522269996
 20
-29.52138240740004
 10
50.4688729641
 20
-29.56395151620002
 10
50.46290432460001
 20
-29.60735957090001
 10
50.45568137909999
 20
-29.65128285179999
 10
50.44701186090001
 20
-29.694980272
 10
50.43685146029995
 20
-29.73785240139999
 10
50.4253054971
 20
-29.78029590370004
 10
50.41263250329999
 20
-29.82235856270002
 10
50.40644551360003
 20
-29.84170628880001
  0
LINE
  5
63C95
330
1F
100
AcDbEntity
  8
1
100
AcDbLine
 10
50.09999999999999
 20
-31.4084842395
 30
0.0
 11
50.18870141029996
 21
-30.660272968
 31
0.0
  0
LINE
  5
63C96
330
1F
100
AcDbEntity
  8
1
100
AcDbLine
 10
49.98282737580002
 20
-18.89439302370004
 30
0.0
 11
49.97569001349998
 21
-18.94967054470003
 31
0.0
  0
LINE
  5
63C97
330
1F
100
AcDbEntity
  8
1
100
AcDbLine
 10
50.27264051860001
 20
-30.25932294139999
 30
0.0
 11
50.24290812729995
 21
-30.48902731240001
 31
0.0
  0
LINE
  5
63C98
330
1F
100
AcDbEntity
  8
1
100
AcDbLine
 10
50.24290812729995
 20
-30.48902731240001
 30
0.0
 11
50.2134617319
 21
-30.71097408560004
 31
0.0
  0
LWPOLYLINE
  5
63C99
330
1F
100
AcDbEntity
  8
1
100
AcDbPolyline
 90
        4
 70
     0
 43
0.0
 10
50.49188218320001
 20
-29.36801430140002
 10
50.48717293369998
 20
-29.40262558270001
 10
50.48277235759994
 20
-29.44009597300001
 10
50.47391522269996
 20
-29.52138240740004
  0
LINE
  5
63C9A
330
1F
100
AcDbEntity
  8
1
100
AcDbLine
 10
50.2134617319
 20
-30.71097408560004
 30
0.0
 11
50.18020843419995
 21
-30.95591541890002
 31
0.0
  0
LWPOLYLINE
  5
63C9B
330
1F
100
AcDbEntity
  8
1
100
AcDbPolyline
 90
        9
 70
     0
 43
0.0
 10
50.03118127840003
 20
-20.86683052460002
 10
50.03399611729998
 20
-20.84716917339999
 10
50.04765433189999
 20
-20.7469896125
 10
50.06041220410001
 20
-20.64826808549999
 10
50.07227557969994
 20
-20.55101614220003
 10
50.08326199619998
 20
-20.45526843110001
 10
50.09337729969996
 20
-20.36103650190002
 10
50.10261564409998
 20
-20.26830880490003
 10
50.11097702939998
 20
-20.17708534020002
  0
LINE
  5
63C9C
330
1F
100
AcDbEntity
  8
1
100
AcDbLine
 10
50.09999999999999
 20
-22.03392992000001
 30
0.0
 11
50.14376162090002
 21
-21.7483958552
 31
0.0
  0
LINE
  5
63C9D
330
1F
100
AcDbEntity
  8
1
100
AcDbLine
 10
50.14376162090002
 20
-21.7483958552
 30
0.0
 11
50.18870141029996
 21
-21.45951414069999
 31
0.0
  0
LINE
  5
63C9E
330
1F
100
AcDbEntity
  8
1
100
AcDbLine
 10
50.49280136030001
 20
-29.36215215070001
 30
0.0
 11
50.49188218320001
 21
-29.36801430140002
 31
0.0
  0
LINE
  5
63C9F
330
1F
100
AcDbEntity
  8
1
100
AcDbLine
 10
50.14327860729998
 20
-31.18214085050002
 30
0.0
 11
50.09999999999999
 21
-31.4553918541
 31
0.0
  0
LINE
  5
63CA0
330
1F
100
AcDbEntity
  8
1
100
AcDbLine
 10
50.1752406924
 20
-30.98591821250001
 30
0.0
 11
50.14327860729998
 21
-31.18214085050002
 31
0.0
  0
LINE
  5
63CA1
330
1F
100
AcDbEntity
  8
1
100
AcDbLine
 10
50.18020843419995
 20
-30.95591541890002
 30
0.0
 11
50.1752406924
 21
-30.98591821250001
 31
0.0
  0
LINE
  5
63CA2
330
1F
100
AcDbEntity
  8
1
100
AcDbLine
 10
50.18870141029996
 20
-21.45951414069999
 30
0.0
 11
50.2154224551
 21
-21.2968095639
 31
0.0
  0
LINE
  5
63CA3
330
1F
100
AcDbEntity
  8
1
100
AcDbLine
 10
50.49728550909998
 20
-29.33482729210003
 30
0.0
 11
50.49280136030001
 21
-29.36215215070001
 31
0.0
  0
LINE
  5
63CA4
330
1F
100
AcDbEntity
  8
1
100
AcDbLine
 10
50.2154224551
 20
-21.2968095639
 30
0.0
 11
50.22940209450002
 21
-21.21315793510003
 31
0.0
  0
LINE
  5
63CA5
330
1F
100
AcDbEntity
  8
1
100
AcDbLine
 10
49.23993823899997
 20
-35.09561493600002
 30
0.0
 11
49.23371464649997
 21
-35.13224298150003
 31
0.0
  0
LINE
  5
63CA6
330
1F
100
AcDbEntity
  8
1
100
AcDbLine
 10
50.32723581250002
 20
-29.7727008184
 30
0.0
 11
50.22940209450002
 21
-30.31024559220003
 31
0.0
  0
LINE
  5
63CA7
330
1F
100
AcDbEntity
  8
1
100
AcDbLine
 10
50.69036799759999
 20
-32.3597823695
 30
0.0
 11
50.70131092759999
 21
-32.30772599890001
 31
0.0
  0
LINE
  5
63CA8
330
1F
100
AcDbEntity
  8
1
100
AcDbLine
 10
50.68123656169999
 20
-32.40213566830004
 30
0.0
 11
50.69036799759999
 21
-32.3597823695
 31
0.0
  0
LINE
  5
63CA9
330
1F
100
AcDbEntity
  8
1
100
AcDbLine
 10
50.67466499989996
 20
-32.43203456850002
 30
0.0
 11
50.68123656169999
 21
-32.40213566830004
 31
0.0
  0
LWPOLYLINE
  5
63CAA
330
1F
100
AcDbEntity
  8
1
100
AcDbPolyline
 90
        3
 70
     0
 43
0.0
 10
50.09999999999999
 20
-29.79417787260003
 10
50.10261564409998
 20
-29.78448380720002
 10
50.11097702939998
 20
-29.75021804640002
  0
LWPOLYLINE
  5
63CAB
330
1F
100
AcDbEntity
  8
1
100
AcDbPolyline
 90
        4
 70
     0
 43
0.0
 10
50.09999999999999
 20
-32.59407038880001
 10
50.10066698009999
 20
-32.59172964220002
 10
50.10720851709999
 20
-32.57064733450001
 10
50.11427219529998
 20
-32.54966091510001
  0
LINE
  5
63CAC
330
1F
100
AcDbEntity
  8
1
100
AcDbLine
 10
50.09999999999999
 20
-32.72639247960003
 30
0.0
 11
50.2106172471
 21
-32.35028398490003
 31
0.0
  0
LINE
  5
63CAD
330
1F
100
AcDbEntity
  8
1
100
AcDbLine
 10
50.63940859259995
 20
-33.62248949160001
 30
0.0
 11
50.79758825489998
 21
-33.08885381960001
 31
0.0
  0
LWPOLYLINE
  5
63CAE
330
1F
100
AcDbEntity
  8
1
100
AcDbPolyline
 90
       11
 70
     0
 43
0.0
 10
50.40644551360003
 20
-29.84170628880001
 10
50.39928186969996
 20
-29.86337500280003
 10
50.38545698779998
 20
-29.90352220870004
 10
50.37128832939996
 20
-29.94306192970002
 10
50.35714608299997
 20
-29.9815125718
 10
50.34303777099998
 20
-30.0189085075
 10
50.32881481729993
 20
-30.05532158340002
 10
50.31455761059999
 20
-30.0902827
 10
50.30027092839995
 20
-30.12360986350002
 10
50.28583768329998
 20
-30.15551804030005
 10
50.28379008820002
 20
-30.15982074830002
  0
LINE
  5
63CAF
330
1F
100
AcDbEntity
  8
1
100
AcDbLine
 10
50.2931231485
 20
-31.85700419900003
 30
0.0
 11
50.37188928899997
 21
-31.640207684
 31
0.0
  0
LINE
  5
63CB0
330
1F
100
AcDbEntity
  8
1
100
AcDbLine
 10
50.09999999999999
 20
-32.79561661240002
 30
0.0
 11
50.43485253409997
 21
-32.05295387030002
 31
0.0
  0
LWPOLYLINE
  5
63CB1
330
1F
100
AcDbEntity
  8
1
100
AcDbPolyline
 90
        6
 70
     0
 43
0.0
 10
50.15337537639999
 20
-32.4552581345
 10
50.1513964161
 20
-32.45941294820001
 10
50.14124288009995
 20
-32.48157950620002
 10
50.13165931159997
 20
-32.50401791830002
 10
50.12266759059994
 20
-32.52670685440002
 10
50.11427219529998
 20
-32.54966091510001
  0
LINE
  5
63CB2
330
1F
100
AcDbEntity
  8
1
100
AcDbLine
 10
47.53180760000001
 20
-35.58655857780001
 30
0.0
 11
47.51793382070002
 21
-35.4402093044
 31
0.0
  0
LINE
  5
63CB3
330
1F
100
AcDbEntity
  8
1
100
AcDbLine
 10
46.58293061659998
 20
-35.5711848536
 30
0.0
 11
46.5942624198
 21
-35.43613529240001
 31
0.0
  0
LINE
  5
63CB4
330
1F
100
AcDbEntity
  8
1
100
AcDbLine
 10
50.11097702939998
 20
-20.17708534020002
 30
0.0
 11
50.11929382430003
 21
-20.1375916729
 31
0.0
  0
LINE
  5
63CB5
330
1F
100
AcDbEntity
  8
1
100
AcDbLine
 10
50.11929382430003
 20
-20.1375916729
 30
0.0
 11
50.12776317639995
 21
-20.09828360040002
 31
0.0
  0
LINE
  5
63CB6
330
1F
100
AcDbEntity
  8
1
100
AcDbLine
 10
50.12776317639995
 20
-20.09828360040002
 30
0.0
 11
50.13638738770004
 21
-20.05915277830004
 31
0.0
  0
LINE
  5
63CB7
330
1F
100
AcDbEntity
  8
1
100
AcDbLine
 10
50.13638738770004
 20
-20.05915277830004
 30
0.0
 11
50.1451742507
 21
-20.02017125960002
 31
0.0
  0
LINE
  5
63CB8
330
1F
100
AcDbEntity
  8
1
100
AcDbLine
 10
50.1451742507
 20
-20.02017125960002
 30
0.0
 11
50.15413032700002
 21
-19.98131385430001
 31
0.0
  0
LINE
  5
63CB9
330
1F
100
AcDbEntity
  8
1
100
AcDbLine
 10
50.15413032700002
 20
-19.98131385430001
 30
0.0
 11
50.16325892959994
 21
-19.94256692
 31
0.0
  0
LINE
  5
63CBA
330
1F
100
AcDbEntity
  8
1
100
AcDbLine
 10
50.16325892959994
 20
-19.94256692
 30
0.0
 11
50.17256534430001
 21
-19.90390837190001
 31
0.0
  0
LINE
  5
63CBB
330
1F
100
AcDbEntity
  8
1
100
AcDbLine
 10
50.17256534430001
 20
-19.90390837190001
 30
0.0
 11
50.18204257360003
 21
-19.86535661630002
 31
0.0
  0
LINE
  5
63CBC
330
1F
100
AcDbEntity
  8
1
100
AcDbLine
 10
50.18204257360003
 20
-19.86535661630002
 30
0.0
 11
50.19168516230002
 21
-19.82692230960002
 31
0.0
  0
LINE
  5
63CBD
330
1F
100
AcDbEntity
  8
1
100
AcDbLine
 10
50.19168516230002
 20
-19.82692230960002
 30
0.0
 11
50.20148251569998
 21
-19.78862659010001
 31
0.0
  0
LINE
  5
63CBE
330
1F
100
AcDbEntity
  8
1
100
AcDbLine
 10
50.20148251569998
 20
-19.78862659010001
 30
0.0
 11
50.21643519630001
 21
-19.73147273729999
 31
0.0
  0
LINE
  5
63CBF
330
1F
100
AcDbEntity
  8
1
100
AcDbLine
 10
50.22869714179998
 20
-19.6854393434
 30
0.0
 11
50.24335382989997
 21
-19.62975081970002
 31
0.0
  0
LINE
  5
63CC0
330
1F
100
AcDbEntity
  8
1
100
AcDbLine
 10
50.21643519630001
 20
-19.73147273729999
 30
0.0
 11
50.22869714179998
 21
-19.6854393434
 31
0.0
  0
LWPOLYLINE
  5
63CC1
330
1F
100
AcDbEntity
  8
1
100
AcDbPolyline
 90
        8
 70
     0
 43
0.0
 10
50.41933803119997
 20
-28.72266113370002
 10
50.44158399399993
 20
-28.67378249170001
 10
50.46975180139995
 20
-28.60169846979998
 10
50.49307039510001
 20
-28.52842743670003
 10
50.511767389
 20
-28.453579895
 10
50.52609691149993
 20
-28.3759891513
 10
50.53591187209997
 20
-28.2953193586
 10
50.53961554459997
 20
-28.2437164311
  0
LINE
  5
63CC2
330
1F
100
AcDbEntity
  8
1
100
AcDbLine
 10
50.24144278700004
 20
-29.09376063580004
 30
0.0
 11
50.33244222860003
 21
-28.90346016920002
 31
0.0
  0
LWPOLYLINE
  5
63CC3
330
1F
100
AcDbEntity
  8
1
100
AcDbPolyline
 90
        4
 70
     0
 43
0.0
 10
50.33244222860003
 20
-28.90346016920002
 10
50.36430922809998
 20
-28.83715650910001
 10
50.38040545529998
 20
-28.80368236350001
 10
50.42021988439998
 20
-28.72082975810002
  0
LWPOLYLINE
  5
63CC4
330
1F
100
AcDbEntity
  8
1
100
AcDbPolyline
 90
        9
 70
     0
 43
0.0
 10
50.24144278700004
 20
-29.09376063580004
 10
50.22520645000003
 20
-29.12617436380003
 10
50.20523358309995
 20
-29.16241533360001
 10
50.18484844329996
 20
-29.19669349889999
 10
50.16436133239998
 20
-29.22944396280005
 10
50.1437151609
 20
-29.26106937979999
 10
50.12246850410003
 20
-29.29183596820002
 10
50.10030497969996
 20
-29.3218783991
 10
50.09999999999999
 20
-29.32226356080002
  0
LWPOLYLINE
  5
63CC5
330
1F
100
AcDbEntity
  8
1
100
AcDbPolyline
 90
        6
 70
     0
 43
0.0
 10
50.21062010950001
 20
-32.35028407430001
 10
50.19769582840002
 20
-32.37202320400003
 10
50.18528474849998
 20
-32.39379399050001
 10
50.17341134270004
 20
-32.41561302650004
 10
50.16211327259995
 20
-32.43746652910001
 10
50.15337537639999
 20
-32.4552581345
  0
LWPOLYLINE
  5
63CC6
330
1F
100
AcDbEntity
  8
1
100
AcDbPolyline
 90
        3
 70
     0
 43
0.0
 10
49.99927658489998
 20
-34.12924335900003
 10
49.99146407729998
 20
-34.14182694230003
 10
49.98858477619998
 20
-34.14758228360002
  0
LINE
  5
63CC7
330
1F
100
AcDbEntity
  8
1
100
AcDbLine
 10
50.51999870190002
 20
-33.77157377970001
 30
0.0
 11
50.55876391979999
 21
-33.72265702420002
 31
0.0
  0
LINE
  5
63CC8
330
1F
100
AcDbEntity
  8
1
100
AcDbLine
 10
50.55876391979999
 20
-33.72265702420002
 30
0.0
 11
50.6009210748
 21
-33.6700243735
 31
0.0
  0
LINE
  5
63CC9
330
1F
100
AcDbEntity
  8
1
100
AcDbLine
 10
50.6009210748
 20
-33.6700243735
 30
0.0
 11
50.63940859259995
 21
-33.62248949160001
 31
0.0
  0
LWPOLYLINE
  5
63CCA
330
1F
100
AcDbEntity
  8
1
100
AcDbPolyline
 90
        8
 70
     0
 43
0.0
 10
49.50183988999999
 20
-35.43753378290003
 10
49.48699496799997
 20
-35.45336749700001
 10
49.47193133329998
 20
-35.46925045620002
 10
49.45664869249998
 20
-35.48518227670003
 10
49.44114661239996
 20
-35.5011626085
 10
49.42542493370002
 20
-35.51719102570003
 10
49.40948377969997
 20
-35.53326703080003
 10
49.39332300140001
 20
-35.5493901995
  0
LINE
  5
63CCB
330
1F
100
AcDbEntity
  8
1
100
AcDbLine
 10
50.1211540516
 20
-18.16499441200001
 30
0.0
 11
50.10265361809993
 21
-18.20996000999999
 31
0.0
  0
LWPOLYLINE
  5
63CCC
330
1F
100
AcDbEntity
  8
1
100
AcDbPolyline
 90
       25
 70
     0
 43
0.0
 10
50.11097702939998
 20
-29.75021804640002
 10
50.11511626130005
 20
-29.74465535570002
 10
50.11929382430003
 20
-29.73914387670003
 10
50.12350971839999
 20
-29.73368360940003
 10
50.12776317639995
 20
-29.72827518830003
 10
50.1320549655
 20
-29.72291797889999
 10
50.13638738770004
 20
-29.71761007760001
 10
50.14076050259999
 20
-29.7123515023
 10
50.1451742507
 20
-29.70714223510002
 10
50.14963075510002
 20
-29.7019803182
 10
50.15413032700002
 20
-29.69686560410001
 10
50.1586726552
 20
-29.69179824030003
 10
50.16325892959994
 20
-29.6867767114
 10
50.16789016389996
 20
-29.68180037460003
 10
50.17256534430001
 20
-29.67686987280004
 10
50.17728261950001
 20
-29.67198561920002
 10
50.18204257360003
 20
-29.66714775030003
 10
50.18684462250002
 20
-29.6623561297
 10
50.19168516230002
 20
-29.6576107611
 10
50.1965645935
 20
-29.65291221130001
 10
50.20148251569998
 20
-29.6482599136
 10
50.20643412409999
 20
-29.64365217160002
 10
50.21141781710003
 20
-29.63908841990002
 10
50.21643519630001
 20
-29.63456922389999
 10
50.22148626179998
 20
-29.63009458360001
  0
LWPOLYLINE
  5
63CCD
330
1F
100
AcDbEntity
  8
1
100
AcDbPolyline
 90
       10
 70
     0
 43
0.0
 10
50.43485253409997
 20
-32.05295387030002
 10
50.40403814379999
 20
-32.0885444748
 10
50.3747461795
 20
-32.12342278450002
 10
50.34697218279998
 20
-32.15760979460002
 10
50.3207082202
 20
-32.1911378155
 10
50.295922319
 20
-32.22404113070003
 10
50.27256655870002
 20
-32.25635237560002
 10
50.25059826480003
 20
-32.2881184976
 10
50.2299710222
 20
-32.3194050545
 10
50.21062010950001
 20
-32.35028407430001
  0
LWPOLYLINE
  5
63CCE
330
1F
100
AcDbEntity
  8
1
100
AcDbPolyline
 90
        3
 70
     0
 43
0.0
 10
50.44714717369996
 20
-32.03930426450002
 10
50.44296649719996
 20
-32.04390696900002
 10
50.43485253409997
 20
-32.05295387030002
  0
LINE
  5
63CCF
330
1F
100
AcDbEntity
  8
1
100
AcDbLine
 10
50.45557123879999
 20
-32.03016019480002
 30
0.0
 11
50.44714717369996
 21
-32.03930426450002
 31
0.0
  0
LINE
  5
63CD0
330
1F
100
AcDbEntity
  8
1
100
AcDbLine
 10
50.54062203269999
 20
-31.93836456480001
 30
0.0
 11
50.47709716239996
 21
-32.00701087440001
 31
0.0
  0
LINE
  5
63CD1
330
1F
100
AcDbEntity
  8
1
100
AcDbLine
 10
50.47709716239996
 20
-32.00701087440001
 30
0.0
 11
50.45557123879999
 21
-32.03016019480002
 31
0.0
  0
LWPOLYLINE
  5
63CD2
330
1F
100
AcDbEntity
  8
1
100
AcDbPolyline
 90
        4
 70
     0
 43
0.0
 10
50.56803993089997
 20
-31.90939152140004
 10
50.56079515639999
 20
-31.91695647050001
 10
50.55376005969995
 20
-31.92437115750003
 10
50.54062203269999
 20
-31.93836456480001
  0
LINE
  5
63CD3
330
1F
100
AcDbEntity
  8
1
100
AcDbLine
 10
50.58313359419995
 20
-31.8938747856
 30
0.0
 11
50.56803993089997
 21
-31.90939152140004
 31
0.0
  0
LINE
  5
63CD4
330
1F
100
AcDbEntity
  8
1
100
AcDbLine
 10
50.60679876399996
 20
-31.86986524210001
 30
0.0
 11
50.58313359419995
 21
-31.8938747856
 31
0.0
  0
LINE
  5
63CD5
330
1F
100
AcDbEntity
  8
1
100
AcDbLine
 10
50.63173238599998
 20
-31.844809012
 30
0.0
 11
50.60679876399996
 21
-31.86986524210001
 31
0.0
  0
LINE
  5
63CD6
330
1F
100
AcDbEntity
  8
1
100
AcDbLine
 10
50.64928303319999
 20
-31.82733922830003
 30
0.0
 11
50.63173238599998
 21
-31.844809012
 31
0.0
  0
LINE
  5
63CD7
330
1F
100
AcDbEntity
  8
1
100
AcDbLine
 10
50.66761914859998
 20
-31.80925287670003
 30
0.0
 11
50.64928303319999
 21
-31.82733922830003
 31
0.0
  0
LINE
  5
63CD8
330
1F
100
AcDbEntity
  8
1
100
AcDbLine
 10
49.39332300140001
 20
-35.5493901995
 30
0.0
 11
49.36034099049999
 21
-35.58177657189999
 31
0.0
  0
LINE
  5
63CD9
330
1F
100
AcDbEntity
  8
1
100
AcDbLine
 10
50.70609921179999
 20
-31.77174252339999
 30
0.0
 11
50.66761914859998
 21
-31.80925287670003
 31
0.0
  0
LINE
  5
63CDA
330
1F
100
AcDbEntity
  8
1
100
AcDbLine
 10
50.73574693939995
 20
-31.74307355410002
 30
0.0
 11
50.70609921179999
 21
-31.77174252339999
 31
0.0
  0
LINE
  5
63CDB
330
1F
100
AcDbEntity
  8
1
100
AcDbLine
 10
49.36034099049999
 20
-35.58177657189999
 30
0.0
 11
49.33605710839995
 21
-35.60520084540001
 31
0.0
  0
LINE
  5
63CDC
330
1F
100
AcDbEntity
  8
1
100
AcDbLine
 10
50.75552531930004
 20
-31.72409009690003
 30
0.0
 11
50.73574693939995
 21
-31.74307355410002
 31
0.0
  0
LINE
  5
63CDD
330
1F
100
AcDbEntity
  8
1
100
AcDbLine
 10
49.33605710839995
 20
-35.60520084540001
 30
0.0
 11
49.31133224910002
 21
-35.62870338270001
 31
0.0
  0
LINE
  5
63CDE
330
1F
100
AcDbEntity
  8
1
100
AcDbLine
 10
49.31133224910002
 20
-35.62870338270001
 30
0.0
 11
49.28616647219996
 21
-35.65228283170003
 31
0.0
  0
LWPOLYLINE
  5
63CDF
330
1F
100
AcDbEntity
  8
1
100
AcDbPolyline
 90
        3
 70
     0
 43
0.0
 10
49.28616647219996
 20
-35.65228283170003
 10
49.26055990309999
 20
-35.67593778200002
 10
49.24759132989999
 20
-35.6877931588
  0
LWPOLYLINE
  5
63CE0
330
1F
100
AcDbEntity
  8
1
100
AcDbPolyline
 90
       42
 70
     0
 43
0.0
 10
50.03197519239998
 20
-18.16499441200001
 10
50.03061762269999
 20
-18.16789759460003
 10
50.02389352309996
 20
-18.18355075360002
 10
50.0170288571
 20
-18.20081550670002
 10
50.01006984090003
 20
-18.21973231450002
 10
50.0030397829
 20
-18.24030045740001
 10
49.9959622209
 20
-18.26250706650002
 10
49.98888852079997
 20
-18.28637566589999
 10
49.98184291489997
 20
-18.31190823490003
 10
49.97484900659998
 20
-18.339090635
 10
49.96796137609999
 20
-18.3679241311
 10
49.96120449469995
 20
-18.39841356750001
 10
49.95460100489999
 20
-18.4305443443
 10
49.94820591069995
 20
-18.46429115409999
 10
49.94204299439997
 20
-18.49966173400002
 10
49.93613277809996
 20
-18.53664203430001
 10
49.9305272922
 20
-18.57517731460002
 10
49.92524852069999
 20
-18.6152781391
 10
49.92031368160002
 20
-18.6569320718
 10
49.9157681991
 20
-18.70005367010002
 10
49.91163108950002
 20
-18.74465594940001
 10
49.9079151688
 20
-18.79072929460004
 10
49.90465577379999
 20
-18.8381584815
 10
49.9018678077
 20
-18.88695864900002
 10
49.89955883689995
 20
-18.9371238499
 10
49.89775129939997
 20
-18.9885114963
 10
49.89645504840002
 20
-19.04113840170002
 10
49.89567185909999
 20
-19.09500284120004
 10
49.89540942789997
 20
-19.14993849120001
 10
49.89567192589999
 20
-19.20596300440004
 10
49.89645518180004
 20
-19.2630793416
 10
49.89775149779998
 20
-19.3211027116
 10
49.89955910050003
 20
-19.38005087060001
 10
49.90186813439999
 20
-19.4399313343
 10
49.90465615449998
 20
-19.5005467472
 10
49.90791559450002
 20
-19.5619140445
 10
49.91163155089996
 20
-19.62404493300001
 10
49.91576867979998
 20
-19.68673603860002
 10
49.92031416
 20
-19.75000256510002
 10
49.92524898149998
 20
-19.813859738
 10
49.93052773029998
 20
-19.87810497400001
 10
49.9420433784
 20
-20.0078155355
  0
LINE
  5
63CE1
330
1F
100
AcDbEntity
  8
1
100
AcDbLine
 10
50.2384399632
 20
-29.61495531030003
 30
0.0
 11
50.24335382989997
 21
-29.61044764810002
 31
0.0
  0
LINE
  5
63CE2
330
1F
100
AcDbEntity
  8
1
100
AcDbLine
 10
50.23355358799998
 20
-29.61937754420002
 30
0.0
 11
50.2384399632
 21
-29.61495531030003
 31
0.0
  0
LWPOLYLINE
  5
63CE3
330
1F
100
AcDbEntity
  8
1
100
AcDbPolyline
 90
        9
 70
     0
 43
0.0
 10
50.1223098026
 20
-34.01497955840002
 10
50.10119174459996
 20
-34.03048637670001
 10
50.0816808756
 20
-34.04566157950002
 10
50.06379249579999
 20
-34.06049772990002
 10
50.04753608120001
 20
-34.07499349290002
 10
50.03293446130005
 20
-34.08913481259999
 10
50.02001664419996
 20
-34.10289656730002
 10
50.00879648459997
 20
-34.1162656911
 10
49.99927658489998
 20
-34.12924335900003
  0
LINE
  5
63CE4
330
1F
100
AcDbEntity
  8
1
100
AcDbLine
 10
47.48303150340001
 20
-35.61725985680001
 30
0.0
 11
47.53180760000001
 21
-35.58655857780001
 31
0.0
  0
LINE
  5
63CE5
330
1F
100
AcDbEntity
  8
1
100
AcDbLine
 10
47.45912749450002
 20
-35.6317909294
 30
0.0
 11
47.48303150340001
 21
-35.61725985680001
 31
0.0
  0
LINE
  5
63CE6
330
1F
100
AcDbEntity
  8
1
100
AcDbLine
 10
47.43782269219994
 20
-35.64454012200001
 30
0.0
 11
47.45912749450002
 21
-35.6317909294
 31
0.0
  0
LINE
  5
63CE7
330
1F
100
AcDbEntity
  8
1
100
AcDbLine
 10
47.41644535729998
 20
-35.65710681320003
 30
0.0
 11
47.43782269219994
 21
-35.64454012200001
 31
0.0
  0
LINE
  5
63CE8
330
1F
100
AcDbEntity
  8
1
100
AcDbLine
 10
47.39500138840003
 20
-35.66949071170002
 30
0.0
 11
47.41644535729998
 21
-35.65710681320003
 31
0.0
  0
LWPOLYLINE
  5
63CE9
330
1F
100
AcDbEntity
  8
1
100
AcDbPolyline
 90
        4
 70
     0
 43
0.0
 10
50.22148626179998
 20
-29.63009458360001
 10
50.22388037489998
 20
-29.62798692490003
 10
50.22628400150001
 20
-29.62586118980001
 10
50.23355358799998
 20
-29.61937754420002
  0
LWPOLYLINE
  5
63CEA
330
1F
100
AcDbEntity
  8
1
100
AcDbPolyline
 90
        3
 70
     0
 43
0.0
 10
49.90636537860002
 20
-26.98659826380002
 10
49.90670064009996
 20
-26.98630862700002
 10
49.91018145689998
 20
-26.98433588650001
  0
LWPOLYLINE
  5
63CEB
330
1F
100
AcDbEntity
  8
1
100
AcDbPolyline
 90
       11
 70
     0
 43
0.0
 10
50.09999999999999
 20
-29.03052646610001
 10
50.14448750309995
 20
-28.99419365380003
 10
50.21685362260001
 20
-28.92636220409999
 10
50.2819362326
 20
-28.85575327250001
 10
50.33975696610003
 20
-28.78235508049998
 10
50.39034893830001
 20
-28.7061532675
 10
50.43373576490001
 20
-28.62715309010002
 10
50.4699199686
 20
-28.5453645404
 10
50.49889437619999
 20
-28.4607771191
 10
50.5206312421
 20
-28.37340755610002
 10
50.53510339000002
 20
-28.28331492880001
  0
LINE
  5
63CEC
330
1F
100
AcDbEntity
  8
1
100
AcDbLine
 10
47.37349226019998
 20
-35.68169174480001
 30
0.0
 11
47.39500138840003
 21
-35.66949071170002
 31
0.0
  0
LINE
  5
63CED
330
1F
100
AcDbEntity
  8
1
100
AcDbLine
 10
50.62700927569998
 20
-33.13152757810001
 30
0.0
 11
50.09999999999999
 21
-33.40381034330002
 31
0.0
  0
LWPOLYLINE
  5
63CEE
330
1F
100
AcDbEntity
  8
1
100
AcDbPolyline
 90
        9
 70
     0
 43
0.0
 10
50.38279219290001
 20
-33.76070965060002
 10
50.40421883300002
 20
-33.75009997420001
 10
50.42609671270003
 20
-33.73971678100001
 10
50.44841804949999
 20
-33.72956016320002
 10
50.4711739951
 20
-33.71963067780001
 10
50.49435799360003
 20
-33.70992787110002
 10
50.51796602109999
 20
-33.7004503788
 10
50.54199198949999
 20
-33.69119784830001
 10
50.56642750719999
 20
-33.6821708387
  0
LWPOLYLINE
  5
63CEF
330
1F
100
AcDbEntity
  8
1
100
AcDbPolyline
 90
       16
 70
     0
 43
0.0
 10
50.51999870190002
 20
-33.77157377970001
 10
50.48670498219997
 20
-33.7849154636
 10
50.45424249399997
 20
-33.79871030300002
 10
50.42263310469994
 20
-33.81295843010001
 10
50.39187171949999
 20
-33.82767332600001
 10
50.36200987380005
 20
-33.842842237
 10
50.33314656890002
 20
-33.8584226096
 10
50.30530380939999
 20
-33.874406697
 10
50.27848830070002
 20
-33.89079528040002
 10
50.25276199029995
 20
-33.90755318280002
 10
50.22812552599996
 20
-33.92468064610002
 10
50.20459637829998
 20
-33.94216658200001
 10
50.18224624380002
 20
-33.95995348410001
 10
50.16109405849997
 20
-33.97801507580003
 10
50.14111648549999
 20
-33.99635986660003
 10
50.12231206770002
 20
-34.01497950240001
  0
LINE
  5
63CF0
330
1F
100
AcDbEntity
  8
1
100
AcDbLine
 10
50.56642750719999
 20
-33.6821708387
 30
0.0
 11
50.5912654055
 21
-33.67336941540002
 31
0.0
  0
LINE
  5
63CF1
330
1F
100
AcDbEntity
  8
1
100
AcDbLine
 10
50.5912654055
 20
-33.67336941540002
 30
0.0
 11
50.6009210748
 21
-33.6700243735
 31
0.0
  0
LINE
  5
63CF2
330
1F
100
AcDbEntity
  8
1
100
AcDbLine
 10
47.53180760000001
 20
-35.58655857780001
 30
0.0
 11
49.20489234209998
 21
-35.48556220580001
 31
0.0
  0
LWPOLYLINE
  5
63CF3
330
1F
100
AcDbEntity
  8
1
100
AcDbPolyline
 90
       10
 70
     0
 43
0.0
 10
49.24759132989999
 20
-35.6877931588
 10
49.11363332759996
 20
-35.68888384560003
 10
48.98226573160002
 20
-35.6905008493
 10
48.85348854219995
 20
-35.6926441701
 10
48.72729440979995
 20
-35.69532001760001
 10
48.60369068380004
 20
-35.69852218200002
 10
48.48269941239997
 20
-35.7022320345
 10
48.36432794489997
 20
-35.7064433652
 10
48.24856893189997
 20
-35.71116238390001
 10
48.13542237339999
 20
-35.71638909050002
  0
LWPOLYLINE
  5
63CF4
330
1F
100
AcDbEntity
  8
1
100
AcDbPolyline
 90
       10
 70
     0
 43
0.0
 10
48.09999999999999
 20
-35.44274781439999
 10
46.74183223880001
 20
-35.43682456630004
 10
45.38152286669995
 20
-35.43047078900001
 10
44.01907188369998
 20
-35.42368648240002
 10
42.65445677699998
 20
-35.41647216400001
 10
41.28770005939995
 20
-35.40882731630003
 10
39.91886926899997
 20
-35.4007503867
 10
38.54798691870002
 20
-35.3922408577
 10
37.17503049570002
 20
-35.38329924680001
 10
35.80000000000001
 20
-35.37392555400002
  0
LWPOLYLINE
  5
63CF5
330
1F
100
AcDbEntity
  8
1
100
AcDbPolyline
 90
       28
 70
     0
 43
0.0
 10
35.80000000000001
 20
-35.37392555400002
 10
35.69617750909996
 20
-35.37214609060003
 10
35.59249283750001
 20
-35.36827205810001
 10
35.48894598530001
 20
-35.36230345640003
 10
35.38547131939996
 20
-35.35423128610002
 10
35.2821344729
 20
-35.34406454660003
 10
35.17913234450003
 20
-35.33183023630001
 10
35.07650354909998
 20
-35.31753011340001
 10
34.97420947180001
 20
-35.30116241970002
 10
34.87233116800002
 20
-35.28274887890002
 10
34.77086721770002
 20
-35.26229051370002
 10
34.66981904080001
 20
-35.2397863014
 10
34.56927195190002
 20
-35.21525489730004
 10
34.46919140350002
 20
-35.18868407910002
 10
34.369611943
 20
-35.16008606910002
 10
34.27072252800002
 20
-35.12951619010002
 10
34.17255930290003
 20
-35.09698256530001
 10
34.07508612319998
 20
-35.06247707150003
 10
33.9783835129
 20
-35.02603066240003
 10
33.88245159100001
 20
-34.98764472400002
 10
33.78729023840004
 20
-34.94731787030001
 10
33.69297962180002
 20
-34.90507689670001
 10
33.5994865326
 20
-34.8609029062
 10
33.50684417939997
 20
-34.81481479570003
 10
33.41523235419999
 20
-34.76689605220001
 10
33.32471098770003
 20
-34.71717450450003
 10
33.23522014930001
 20
-34.66562232380001
 10
33.14675983889998
 20
-34.61223951000001
  0
LINE
  5
63CF6
330
1F
100
AcDbEntity
  8
1
100
AcDbLine
 10
48.13542237339999
 20
-35.71638909050002
 30
0.0
 11
48.02802063159996
 21
-35.71321970140001
 31
0.0
  0
LINE
  5
63CF7
330
1F
100
AcDbEntity
  8
1
100
AcDbLine
 10
48.02802063159996
 20
-35.71321970140001
 30
0.0
 11
47.92077874030002
 21
-35.70945789240001
 31
0.0
  0
LWPOLYLINE
  5
63CF8
330
1F
100
AcDbEntity
  8
1
100
AcDbPolyline
 90
       10
 70
     0
 43
0.0
 10
47.1549561672
 20
-35.59579208710001
 10
47.19159259029999
 20
-35.59727303290002
 10
47.22784393290001
 20
-35.5989534909
 10
47.26370259840002
 20
-35.60083051980003
 10
47.29915938969995
 20
-35.60290109610001
 10
47.33420876910003
 20
-35.60516241630003
 10
47.36884869809998
 20
-35.60761199320003
 10
47.40307368809999
 20
-35.61024720650001
 10
47.43687495929996
 20
-35.61306520590001
 10
47.47024558930002
 20
-35.61606328060002
  0
LINE
  5
63CF9
330
1F
100
AcDbEntity
  8
1
100
AcDbLine
 10
47.92077874030002
 20
-35.70945789240001
 30
0.0
 11
47.81343932599995
 21
-35.70508830320001
 31
0.0
  0
LINE
  5
63CFA
330
1F
100
AcDbEntity
  8
1
100
AcDbLine
 10
47.81343932599995
 20
-35.70508830320001
 30
0.0
 11
47.70584596589995
 21
-35.70010547920003
 31
0.0
  0
LINE
  5
63CFB
330
1F
100
AcDbEntity
  8
1
100
AcDbLine
 10
47.70584596589995
 20
-35.70010547920003
 30
0.0
 11
47.59814074920001
 21
-35.69453241150003
 31
0.0
  0
LINE
  5
63CFC
330
1F
100
AcDbEntity
  8
1
100
AcDbLine
 10
47.59814074920001
 20
-35.69453241150003
 30
0.0
 11
47.37349226019998
 21
-35.68169174480001
 31
0.0
  0
LINE
  5
63CFD
330
1F
100
AcDbEntity
  8
1
100
AcDbLine
 10
46.57676702099997
 20
-35.67229168280001
 30
0.0
 11
46.4405466995
 21
-35.66347276470003
 31
0.0
  0
LWPOLYLINE
  5
63CFE
330
1F
100
AcDbEntity
  8
1
100
AcDbPolyline
 90
       16
 70
     0
 43
0.0
 10
47.37349226019998
 20
-35.68169174480001
 10
47.32470390159997
 20
-35.67822845670001
 10
47.27508423179997
 20
-35.67513870880003
 10
47.22465310189997
 20
-35.67243078970002
 10
47.17338451329999
 20
-35.67011118560002
 10
47.12134491829996
 20
-35.66819103970001
 10
47.06869830579998
 20
-35.6666824679
 10
47.0154856039
 20
-35.66559103740001
 10
46.96171921130002
 20
-35.6649216345
 10
46.9075278775
 20
-35.66467968740001
 10
46.8529225849
 20
-35.66486830050001
 10
46.79795063899994
 20
-35.6654905793
 10
46.74280122570002
 20
-35.66654576960001
 10
46.68755993239997
 20
-35.66803131429999
 10
46.63220492639999
 20
-35.66994703750002
 10
46.57676675589996
 20
-35.672291886
  0
LINE
  5
63CFF
330
1F
100
AcDbEntity
  8
1
100
AcDbLine
 10
46.4405466995
 20
-35.66347276470003
 30
0.0
 11
46.30213752329993
 21
-35.6536610527
 31
0.0
  0
LINE
  5
63D00
330
1F
100
AcDbEntity
  8
1
100
AcDbLine
 10
46.30213752329993
 20
-35.6536610527
 30
0.0
 11
46.16190340259999
 21
-35.64288813000003
 31
0.0
  0
LINE
  5
63D01
330
1F
100
AcDbEntity
  8
1
100
AcDbLine
 10
46.16190340259999
 20
-35.64288813000003
 30
0.0
 11
46.02050661179996
 21
-35.63121277080004
 31
0.0
  0
LINE
  5
63D02
330
1F
100
AcDbEntity
  8
1
100
AcDbLine
 10
46.02050661179996
 20
-35.63121277080004
 30
0.0
 11
45.8780644917
 21
-35.61865379080003
 31
0.0
  0
LWPOLYLINE
  5
63D03
330
1F
100
AcDbEntity
  8
1
100
AcDbPolyline
 90
        3
 70
     0
 43
0.0
 10
45.8780644917
 20
-35.61865379080003
 10
45.73494041439997
 20
-35.60525009660003
 10
45.66336447289998
 20
-35.59825701580003
  0
LINE
  5
63D04
330
1F
100
AcDbEntity
  8
1
100
AcDbLine
 10
47.47024558930002
 20
-35.61606328060002
 30
0.0
 11
47.48303150340001
 21
-35.61725985680001
 31
0.0
  0
LWPOLYLINE
  5
63D05
330
1F
100
AcDbEntity
  8
1
100
AcDbPolyline
 90
        5
 70
     0
 43
0.0
 10
45.66336447289998
 20
-35.59825701580003
 10
45.02366094719994
 20
-35.5322623096
 10
44.52664382449998
 20
-35.4816015169
 10
44.02977731059997
 20
-35.4317914187
 10
43.94347155329998
 20
-35.42328680570002
  0
LWPOLYLINE
  5
63D06
330
1F
100
AcDbEntity
  8
1
100
AcDbPolyline
 90
        5
 70
     0
 43
0.0
 10
27.69309017450002
 20
-31.30421134700002
 10
27.68519848580002
 20
-31.29952246040001
 10
27.68202117570002
 20
-31.29761784220001
 10
27.67931959040001
 20
-31.29597955140001
 10
27.67709372989998
 20
-31.29460442850002
  0
LINE
  5
63D07
330
1F
100
AcDbEntity
  8
1
100
AcDbLine
 10
29.08226227110004
 20
-32.12191610000001
 30
0.0
 11
27.69309017450002
 21
-31.30421134700002
 31
0.0
  0
LINE
  5
63D08
330
1F
100
AcDbEntity
  8
1
100
AcDbLine
 10
29.43140891820002
 20
-32.330830073
 30
0.0
 11
29.08226227110004
 21
-32.12191610000001
 31
0.0
  0
LINE
  5
63D09
330
1F
100
AcDbEntity
  8
1
100
AcDbLine
 10
29.84744249779999
 20
-32.58158634900001
 30
0.0
 11
29.43140891820002
 21
-32.330830073
 31
0.0
  0
LINE
  5
63D0A
330
1F
100
AcDbEntity
  8
1
100
AcDbLine
 10
30.1979433706
 20
-32.79433325820001
 30
0.0
 11
29.84744249779999
 21
-32.58158634900001
 31
0.0
  0
LINE
  5
63D0B
330
1F
100
AcDbEntity
  8
1
100
AcDbLine
 10
30.56619398610002
 20
-33.01929771650002
 30
0.0
 11
30.1979433706
 21
-32.79433325820001
 31
0.0
  0
LINE
  5
63D0C
330
1F
100
AcDbEntity
  8
1
100
AcDbLine
 10
31.05835121449999
 20
-33.32221877310001
 30
0.0
 11
30.56619398610002
 21
-33.01929771650002
 31
0.0
  0
LINE
  5
63D0D
330
1F
100
AcDbEntity
  8
1
100
AcDbLine
 10
31.05835121349995
 20
-33.32221877310001
 30
0.0
 11
33.14675983889998
 21
-34.61223951000001
 31
0.0
  0
LINE
  5
63D0E
330
1F
100
AcDbEntity
  8
1
100
AcDbLine
 10
24.49293887279996
 20
-29.30111586380001
 30
0.0
 11
27.67709372989998
 21
-31.29460442850002
 31
0.0
  0
LWPOLYLINE
  5
63D0F
330
1F
100
AcDbEntity
  8
1
100
AcDbPolyline
 90
       16
 70
     0
 43
0.0
 10
27.75374474869997
 20
-31.29522013310002
 10
29.49494511570004
 20
-31.33535181630002
 10
31.21360578079998
 20
-31.38198564600002
 10
32.90972674400001
 20
-31.43512162210003
 10
34.58894719880004
 20
-31.49512442600003
 10
36.2456279516
 20
-31.56162937630002
 10
37.86285142259999
 20
-31.6335424288
 10
39.4413233482
 20
-31.7111130414
 10
40.98033799199993
 20
-31.79409175630001
 10
42.46086056410002
 20
-31.88063615550001
 10
43.87571624270004
 20
-31.97040260860001
 10
45.23207984959998
 20
-32.06373474600002
 10
46.53244106119998
 20
-32.15982104130002
 10
47.7776297695
 20
-32.2583909854
 10
48.96681608250003
 20
-32.3597150872
 10
50.09999999999999
 20
-32.46379334690001
  0
LINE
  5
63D10
330
1F
100
AcDbEntity
  8
1
100
AcDbLine
 10
50.09999999999999
 20
-31.14049023460002
 30
0.0
 11
50.1315858232
 21
-31.14287689000001
 31
0.0
  0
LWPOLYLINE
  5
63D11
330
1F
100
AcDbEntity
  8
1
100
AcDbPolyline
 90
        5
 70
     0
 43
0.0
 10
50.09999999999999
 20
-18.82775886370002
 10
50.03916692469997
 20
-18.8616503809
 10
49.97934647559995
 20
-18.89641600540002
 10
49.92053865259999
 20
-18.93205573710004
 10
49.89926432739998
 20
-18.94549664950001
  0
LWPOLYLINE
  5
63D12
330
1F
100
AcDbEntity
  8
1
100
AcDbPolyline
 90
        4
 70
     0
 43
0.0
 10
49.91018145689998
 20
-26.98433588650001
 10
49.91402961450001
 20
-26.98388977090001
 10
49.91824603750001
 20
-26.98485276410001
 10
49.9228168775
 20
-26.98723260250002
  0
LINE
  5
63D13
330
1F
100
AcDbEntity
  8
1
100
AcDbLine
 10
1.69999999999996
 20
-27.81500000000001
 30
0.0
 11
11.69999999999999
 21
-27.81500000000001
 31
0.0
  0
LINE
  5
63D14
330
1F
100
AcDbEntity
  8
1
100
AcDbLine
 10
50.09999999999999
 20
-30.65285380010003
 30
0.0
 11
50.18870141029996
 21
-30.660272968
 31
0.0
  0
LINE
  5
63D15
330
1F
100
AcDbEntity
  8
1
100
AcDbLine
 10
50.11097702939998
 20
-29.75021804640002
 30
0.0
 11
50.09999999999999
 21
-29.7490939225
 31
0.0
  0
LINE
  5
63D16
330
1F
100
AcDbEntity
  8
1
100
AcDbLine
 10
50.75552531930004
 20
-31.72409009690003
 30
0.0
 11
50.37188928899997
 21
-31.640207684
 31
0.0
  0
LWPOLYLINE
  5
63D17
330
1F
100
AcDbEntity
  8
1
100
AcDbPolyline
 90
        4
 70
     0
 43
0.0
 10
50.44711407360001
 20
-27.62500322819999
 10
50.31486418980001
 20
-27.60666807290002
 10
50.18515416450004
 20
-27.58813892990001
 10
50.09999999999999
 20
-27.5756017714
  0
LINE
  5
63D18
330
1F
100
AcDbEntity
  8
1
100
AcDbLine
 10
50.11097702939998
 20
-20.17708534020002
 30
0.0
 11
49.95918899550003
 21
-20.1843198827
 31
0.0
  0
LWPOLYLINE
  5
63D19
330
1F
100
AcDbEntity
  8
1
100
AcDbPolyline
 90
        8
 70
     0
 43
0.0
 10
50.24335382989997
 20
-29.61044764810002
 10
50.21773123180003
 20
-29.59328947089999
 10
50.19307218499998
 20
-29.57579440110001
 10
50.16939586230001
 20
-29.55796496490002
 10
50.14670169969995
 20
-29.53978731479999
 10
50.1250312286
 20
-29.52128023280005
 10
50.10445808380001
 20
-29.50249745580002
 10
50.09999999999999
 20
-29.49813365639999
  0
LINE
  5
63D1A
330
1F
100
AcDbEntity
  8
1
100
AcDbLine
 10
49.97130014659998
 20
-18.92849249080002
 30
0.0
 11
49.93370740359998
 21
-18.92407498330003
 31
0.0
  0
LWPOLYLINE
  5
63D1B
330
1F
100
AcDbEntity
  8
1
100
AcDbPolyline
 90
        3
 70
     0
 43
0.0
 10
50.08136074769999
 20
-21.44210417620004
 10
50.09643935500003
 20
-21.44458488210002
 10
50.18870141029996
 20
-21.45951414069999
  0
LINE
  5
63D1C
330
1F
100
AcDbEntity
  8
1
100
AcDbLine
 10
50.09848075669999
 20
-21.82066265670001
 30
0.0
 11
50.1315858232
 21
-21.82727045810002
 31
0.0
  0
LINE
  5
63D1D
330
1F
100
AcDbEntity
  8
1
100
AcDbLine
 10
50.12301784619999
 20
-30.18995010040001
 30
0.0
 11
50.09999999999999
 21
-30.16461262590002
 31
0.0
  0
LINE
  5
63D1E
330
1F
100
AcDbEntity
  8
1
100
AcDbLine
 10
50.15501069539997
 20
-30.22556697500001
 30
0.0
 11
50.12301784619999
 21
-30.18995010040001
 31
0.0
  0
LINE
  5
63D1F
330
1F
100
AcDbEntity
  8
1
100
AcDbLine
 10
50.18196117860004
 20
-30.25593883690003
 30
0.0
 11
50.15501069539997
 21
-30.22556697500001
 31
0.0
  0
LINE
  5
63D20
330
1F
100
AcDbEntity
  8
1
100
AcDbLine
 10
50.20586389239998
 20
-30.28316374360001
 30
0.0
 11
50.18196117860004
 21
-30.25593883690003
 31
0.0
  0
LWPOLYLINE
  5
63D21
330
1F
100
AcDbEntity
  8
1
100
AcDbPolyline
 90
       37
 70
     0
 43
0.0
 10
49.9228168775
 20
-26.98723260250002
 10
49.92773582469999
 20
-26.99105901020001
 10
49.93297712050003
 20
-26.9963180573
 10
49.93849689259994
 20
-27.00295333090001
 10
49.9442787013
 20
-27.01098073490003
 10
49.95030173059993
 20
-27.02040325910002
 10
49.95651666619997
 20
-27.03114716500002
 10
49.96290473260001
 20
-27.04322846670003
 10
49.96944419709999
 20
-27.05665180140002
 10
49.97608371649997
 20
-27.07132775660002
 10
49.98280189619999
 20
-27.08726692670003
 10
49.98957853489994
 20
-27.10447984990003
 10
49.996367276
 20
-27.12287752339999
 10
50.00314866529999
 20
-27.14247489430002
 10
50.00990032479998
 20
-27.16327705569999
 10
50.01657553719994
 20
-27.18518013150002
 10
50.02315248860004
 20
-27.20818670690004
 10
50.02961340540003
 20
-27.23231281850003
 10
50.03592186280002
 20
-27.25747421630003
 10
50.04205742639999
 20
-27.28367146540002
 10
50.0480025164
 20
-27.31092011170003
 10
50.05372819280001
 20
-27.33915736330003
 10
50.05921848399996
 20
-27.3684037032
 10
50.0644518286
 20
-27.39865192190003
 10
50.06939518989998
 20
-27.42979683110001
 10
50.07403277649993
 20
-27.46184883800001
 10
50.07834773259995
 20
-27.49480853740002
 10
50.08231189450004
 20
-27.5285553664
 10
50.0859114342
 20
-27.5630881604
 10
50.08913397380002
 20
-27.59841669040002
 10
50.09195995700003
 20
-27.6344360145
 10
50.09437827559998
 20
-27.67113835470002
 10
50.09637937230002
 20
-27.70853759690003
 10
50.09795079389999
 20
-27.74656039880003
 10
50.09908342329999
 20
-27.78518344299999
 10
50.09976939999998
 20
-27.82443367330002
 10
50.09999999999999
 20
-27.86431244750001
  0
LWPOLYLINE
  5
63D22
330
1F
100
AcDbEntity
  8
1
100
AcDbPolyline
 90
        3
 70
     0
 43
0.0
 10
50.22940209450002
 20
-30.31024559220003
 10
50.22355209670002
 20
-30.3034891459
 10
50.20586389239998
 20
-30.28316374360001
  0
LINE
  5
63D23
330
1F
100
AcDbEntity
  8
1
100
AcDbLine
 10
50.43485253409997
 20
-32.05295387030002
 30
0.0
 11
50.67466499989996
 21
-32.43203456850002
 31
0.0
  0
LINE
  5
63D24
330
1F
100
AcDbEntity
  8
1
100
AcDbLine
 10
50.50299937590001
 20
-29.26394073990002
 30
0.0
 11
50.31568646139999
 21
-28.95114767490003
 31
0.0
  0
LINE
  5
63D25
330
1F
100
AcDbEntity
  8
1
100
AcDbLine
 10
50.29987800479998
 20
-29.72090059460003
 30
0.0
 11
50.32723581250002
 21
-29.7727008184
 31
0.0
  0
LINE
  5
63D26
330
1F
100
AcDbEntity
  8
1
100
AcDbLine
 10
50.27580058439998
 20
-29.67441907630004
 30
0.0
 11
50.29987800479998
 21
-29.72090059460003
 31
0.0
  0
LINE
  5
63D27
330
1F
100
AcDbEntity
  8
1
100
AcDbLine
 10
50.25934416050001
 20
-29.64218354980001
 30
0.0
 11
50.27580058439998
 21
-29.67441907630004
 31
0.0
  0
LINE
  5
63D28
330
1F
100
AcDbEntity
  8
1
100
AcDbLine
 10
50.24335382989997
 20
-29.61044764810002
 30
0.0
 11
50.25934416050001
 21
-29.64218354980001
 31
0.0
  0
LINE
  5
63D29
330
1F
100
AcDbEntity
  8
1
100
AcDbLine
 10
50.75552531930004
 20
-31.72409009690003
 30
0.0
 11
50.41808495979998
 21
-30.76937168060002
 31
0.0
  0
LINE
  5
63D2A
330
1F
100
AcDbEntity
  8
1
100
AcDbLine
 10
49.23746179439999
 20
-35.11018968950002
 30
0.0
 11
49.35332270929999
 21
-35.4740575851
 31
0.0
  0
LWPOLYLINE
  5
63D2B
330
1F
100
AcDbEntity
  8
1
100
AcDbPolyline
 90
        7
 70
     0
 43
0.0
 10
49.23073559779997
 20
-35.61041316310001
 10
49.23458872579996
 20
-35.62299235000003
 10
49.23537129380003
 20
-35.62575388670004
 10
49.23609713309994
 20
-35.6285164172
 10
49.23676624369997
 20
-35.63127994170002
 10
49.2373786256
 20
-35.63404446000003
 10
49.23793427869998
 20
-35.63680997230001
  0
LWPOLYLINE
  5
63D2C
330
1F
100
AcDbEntity
  8
1
100
AcDbPolyline
 90
        7
 70
     0
 43
0.0
 10
50.09030795499999
 20
-21.11323077670002
 10
50.07613858029995
 20
-21.1041147186
 10
50.07303580869998
 20
-21.10206520319998
 10
50.06993899969995
 20
-21.0999715093
 10
50.06684815319999
 20
-21.09783363670004
 10
50.06376326929999
 20
-21.09565158560002
 10
50.06068434799999
 20
-21.09342535590001
  0
LWPOLYLINE
  5
63D2D
330
1F
100
AcDbEntity
  8
1
100
AcDbPolyline
 90
        9
 70
     0
 43
0.0
 10
50.17592964570003
 20
-21.1723569309
 10
50.1655110058
 20
-21.16476034850002
 10
50.15501069539997
 20
-21.15722149810002
 10
50.14442871430003
 20
-21.14974038000001
 10
50.1337641156
 20
-21.14231499370004
 10
50.12301784619999
 20
-21.13494733970002
 10
50.11219274739997
 20
-21.12764341870004
 10
50.10128976599995
 20
-21.12040523110001
 10
50.09030795499999
 20
-21.11323077670002
  0
LINE
  5
63D2E
330
1F
100
AcDbEntity
  8
1
100
AcDbLine
 10
50.06068434799999
 20
-21.09342535590001
 30
0.0
 11
50.05278069880001
 21
-21.08764638790002
 31
0.0
  0
LINE
  5
63D2F
330
1F
100
AcDbEntity
  8
1
100
AcDbLine
 10
50.1879703285
 20
-21.18127610130001
 30
0.0
 11
50.17592964570003
 21
-21.1723569309
 31
0.0
  0
LINE
  5
63D30
330
1F
100
AcDbEntity
  8
1
100
AcDbLine
 10
50.19992168539997
 20
-21.19028128790002
 30
0.0
 11
50.1879703285
 21
-21.18127610130001
 31
0.0
  0
LINE
  5
63D31
330
1F
100
AcDbEntity
  8
1
100
AcDbLine
 10
50.21178309859999
 20
-21.19937140340002
 30
0.0
 11
50.19992168539997
 21
-21.19028128790002
 31
0.0
  0
LWPOLYLINE
  5
63D32
330
1F
100
AcDbEntity
  8
1
100
AcDbPolyline
 90
        3
 70
     0
 43
0.0
 10
50.22940209450002
 20
-21.21315793510003
 10
50.22355209670002
 20
-21.2085420984
 10
50.21178309859999
 20
-21.19937140340002
  0
LWPOLYLINE
  5
63D33
330
1F
100
AcDbEntity
  8
1
100
AcDbPolyline
 90
       10
 70
     0
 43
0.0
 10
50.49643175679998
 20
-29.23183986069999
 10
50.49590080189997
 20
-29.23032665060002
 10
50.49205286440002
 20
-29.21891654710002
 10
50.4884459621
 20
-29.20741730170005
 10
50.48507604420001
 20
-29.19582599370004
 10
50.48194111709998
 20
-29.18414617900004
 10
50.4790405805
 20
-29.1723880711
 10
50.47637182809996
 20
-29.16055586090002
 10
50.47393087719996
 20
-29.14864751920003
 10
50.47288531629999
 20
-29.14315322010003
  0
LINE
  5
63D34
330
1F
100
AcDbEntity
  8
sk3
100
AcDbLine
 10
48.01972895899993
 20
-21.31650747500001
 30
0.0
 11
49.88027104100002
 21
-27.38349252490002
 31
0.0
  0
LWPOLYLINE
  5
63D35
330
1F
100
AcDbEntity
  8
1
100
AcDbPolyline
 90
       10
 70
     0
 43
0.0
 10
50.48366595670001
 20
-27.74069130069999
 10
50.48003699500004
 20
-27.72797098960003
 10
50.47630004799995
 20
-27.71521681070001
 10
50.47245507000003
 20
-27.70242892820002
 10
50.46850201339996
 20
-27.68960749880001
 10
50.46444083469999
 20
-27.67675269360001
 10
50.46027149559998
 20
-27.66386469790004
 10
50.4559939534
 20
-27.65094368260001
 10
50.45160816109998
 20
-27.6379898048
 10
50.44711407360001
 20
-27.62500322819999
  0
LWPOLYLINE
  5
63D36
330
1F
100
AcDbEntity
  8
1
100
AcDbPolyline
 90
       15
 70
     0
 43
0.0
 10
50.24335382989997
 20
-19.62975081970002
 10
50.21773123180003
 20
-19.58629880940002
 10
50.19307218499998
 20
-19.54219833360001
 10
50.16939586230001
 20
-19.497464875
 10
50.14670169969995
 20
-19.45207329290001
 10
50.1250312286
 20
-19.40608030200001
 10
50.10445808380001
 20
-19.35962825940002
 10
50.08499826330001
 20
-19.31275036290002
 10
50.06665696200002
 20
-19.26545464040002
 10
50.04947627079997
 20
-19.2178513134
 10
50.0334555334
 20
-19.16994688190003
 10
50.0186051847
 20
-19.12177974520001
 10
50.00496745499996
 20
-19.07351234729999
 10
49.99254812430002
 20
-19.02521604179999
 10
49.98132766480001
 20
-18.97686829020002
  0
LINE
  5
63D37
330
1F
100
AcDbEntity
  8
1
100
AcDbLine
 10
50.29987800479998
 20
-19.77494985700001
 30
0.0
 11
50.32723581250002
 21
-19.84153121499999
 31
0.0
  0
LINE
  5
63D38
330
1F
100
AcDbEntity
  8
1
100
AcDbLine
 10
50.28138984309999
 20
-19.72857375470001
 30
0.0
 11
50.29987800479998
 21
-19.77494985700001
 31
0.0
  0
LINE
  5
63D39
330
1F
100
AcDbEntity
  8
1
100
AcDbLine
 10
50.27026325239998
 20
-19.70018468760001
 30
0.0
 11
50.28138984309999
 21
-19.72857375470001
 31
0.0
  0
LINE
  5
63D3A
330
1F
100
AcDbEntity
  8
1
100
AcDbLine
 10
50.25934416050001
 20
-19.67191679710002
 30
0.0
 11
50.27026325239998
 21
-19.70018468760001
 31
0.0
  0
LWPOLYLINE
  5
63D3B
330
1F
100
AcDbEntity
  8
1
100
AcDbPolyline
 90
        3
 70
     0
 43
0.0
 10
50.24335382989997
 20
-19.62975081970002
 10
50.24863215189999
 20
-19.64377485679999
 10
50.25934416050001
 20
-19.67191679710002
  0
LINE
  5
63D3C
330
1F
100
AcDbEntity
  8
1
100
AcDbLine
 10
-0.0000000000000284
 20
-26.86856537519999
 30
0.0
 11
0.0
 21
-18.16499441200001
 31
0.0
  0
LINE
  5
63D3D
330
1F
100
AcDbEntity
  8
4
100
AcDbLine
 10
55.66754935300003
 20
-0.0000000000000178
 30
0.0
 11
-3.300000000000011
 21
-0.0000000000000142
 31
0.0
  0
LINE
  5
63D3E
330
1F
100
AcDbEntity
  8
1
100
AcDbLine
 10
50.32723581250002
 20
10.82123996239998
 30
0.0
 11
50.29687396719999
 21
10.95391936099998
 31
0.0
  0
LINE
  5
63D3F
330
1F
100
AcDbEntity
  8
1
100
AcDbLine
 10
50.29687396719999
 20
10.95391936099998
 30
0.0
 11
50.27264051860001
 21
11.06178507939999
 31
0.0
  0
LWPOLYLINE
  5
63D40
330
1F
100
AcDbEntity
  8
1
100
AcDbPolyline
 90
        9
 70
     0
 43
0.0
 10
50.41699952900001
 20
2.342708124099981
 10
50.41848384680003
 20
2.335687247199967
 10
50.42011314550001
 20
2.32860246529999
 10
50.42188742499999
 20
2.321453778299975
 10
50.42380533110002
 20
2.314240647299993
 10
50.425868218
 20
2.306963611199972
 10
50.42808014870002
 20
2.299624287500005
 10
50.43044247739996
 20
2.29222321529998
 10
50.43295384980002
 20
2.284759855499977
  0
LINE
  5
63D41
330
1F
100
AcDbEntity
  8
1
100
AcDbLine
 10
50.43921415670002
 20
2.26466152339999
 30
0.0
 11
50.44711407360001
 21
2.226472435699985
 31
0.0
  0
LINE
  5
63D42
330
1F
100
AcDbEntity
  8
1
100
AcDbLine
 10
50.02389348230003
 20
6.313460821199992
 30
0.0
 11
50.06658335839998
 21
6.040081270099971
 31
0.0
  0
LINE
  5
63D43
330
1F
100
AcDbEntity
  8
1
100
AcDbLine
 10
50.75552531930004
 20
0.6274272403999639
 30
0.0
 11
50.78406920019998
 21
0.4374447104999995
 31
0.0
  0
LWPOLYLINE
  5
63D44
330
1F
100
AcDbEntity
  8
1
100
AcDbPolyline
 90
       12
 70
     0
 43
0.0
 10
50.06658335839998
 20
6.040081270099971
 10
50.07627904779997
 20
5.975961061399981
 10
50.0805917198
 20
5.946210874300007
 10
50.08452229319999
 20
5.917991530099964
 10
50.08805161380002
 20
5.891315516999991
 10
50.09115384860002
 20
5.86617963019999
 10
50.09381616019999
 20
5.842589661100003
 10
50.09602249530002
 20
5.82055295029998
 10
50.09775213349996
 20
5.800070153099976
 10
50.09899556819999
 20
5.78114694629998
 10
50.09974754749999
 20
5.763793058399993
 10
50.09999999999999
 20
5.748016125900004
  0
LINE
  5
63D45
330
1F
100
AcDbEntity
  8
1
100
AcDbLine
 10
50.01006984370002
 20
6.405510690299973
 30
0.0
 11
50.02389348230003
 21
6.313460821199992
 31
0.0
  0
LINE
  5
63D46
330
1F
100
AcDbEntity
  8
1
100
AcDbLine
 10
49.99596228590002
 20
6.503670429399971
 30
0.0
 11
50.01006984370002
 21
6.405510690299973
 31
0.0
  0
LWPOLYLINE
  5
63D47
330
1F
100
AcDbEntity
  8
1
100
AcDbPolyline
 90
       10
 70
     0
 43
0.0
 10
50.41144213259994
 20
2.378604891600001
 10
50.41187716529996
 20
2.374689213999982
 10
50.41235765290003
 20
2.370755231199989
 10
50.41288359539999
 20
2.366802943399996
 10
50.4134547809
 20
2.362832227799977
 10
50.41407142130004
 20
2.35884320719996
 10
50.41473415280001
 20
2.354836249599976
 10
50.41544318719994
 20
2.350811477999979
 10
50.41619831259999
 20
2.346768769499998
 10
50.41699952900001
 20
2.342708124099981
  0
LINE
  5
63D48
330
1F
100
AcDbEntity
  8
1
100
AcDbLine
 10
50.46027149559998
 20
2.052573779300001
 30
0.0
 11
50.44711407360001
 21
2.226472435699985
 31
0.0
  0
LINE
  5
63D49
330
1F
100
AcDbEntity
  8
1
100
AcDbLine
 10
50.47245507000003
 20
1.878777644799992
 30
0.0
 11
50.46027149559998
 21
2.052573779300001
 31
0.0
  0
LINE
  5
63D4A
330
1F
100
AcDbEntity
  8
1
100
AcDbLine
 10
50.48366595670001
 20
1.705092843600009
 30
0.0
 11
50.47245507000003
 21
1.878777644799992
 31
0.0
  0
LINE
  5
63D4B
330
1F
100
AcDbEntity
  8
1
100
AcDbLine
 10
50.49317716639999
 20
1.544454701299979
 30
0.0
 11
50.48366595670001
 21
1.705092843600009
 31
0.0
  0
LINE
  5
63D4C
330
1F
100
AcDbEntity
  8
1
100
AcDbLine
 10
50.50184926239999
 20
1.384076066199991
 30
0.0
 11
50.49317716639999
 21
1.544454701299979
 31
0.0
  0
LINE
  5
63D4D
330
1F
100
AcDbEntity
  8
1
100
AcDbLine
 10
50.5096852268
 20
1.223963294599975
 30
0.0
 11
50.50184926239999
 21
1.384076066199991
 31
0.0
  0
LWPOLYLINE
  5
63D4E
330
1F
100
AcDbEntity
  8
1
100
AcDbPolyline
 90
        3
 70
     0
 43
0.0
 10
50.51987621630002
 20
0.9843086061000114
 10
50.51668700750003
 20
1.064123992599984
 10
50.5096852268
 20
1.223963294599975
  0
LINE
  5
63D4F
330
1F
100
AcDbEntity
  8
1
100
AcDbLine
 10
50.79657203200003
 20
0.1159401558999882
 30
0.0
 11
50.79758825489998
 21
0.0770406458999951
 31
0.0
  0
LINE
  5
63D50
330
1F
100
AcDbEntity
  8
1
100
AcDbLine
 10
50.79578442159996
 20
0.1553510596999779
 30
0.0
 11
50.79657203200003
 21
0.1159401558999882
 31
0.0
  0
LINE
  5
63D51
330
1F
100
AcDbEntity
  8
1
100
AcDbLine
 10
50.7952205135
 20
0.1952182924999981
 30
0.0
 11
50.79578442159996
 21
0.1553510596999779
 31
0.0
  0
LINE
  5
63D52
330
1F
100
AcDbEntity
  8
1
100
AcDbLine
 10
50.7980056422
 20
0.5309920421999657
 30
0.0
 11
50.79774898779996
 21
0.4910031578999785
 31
0.0
  0
LWPOLYLINE
  5
63D53
330
1F
100
AcDbEntity
  8
1
100
AcDbPolyline
 90
        3
 70
     0
 43
0.0
 10
50.79653208680003
 20
0.3996789870999855
 10
50.79633578720001
 20
0.3775398876999922
 10
50.7952205135
 20
0.1952182924999981
  0
LINE
  5
63D54
330
1F
100
AcDbEntity
  8
1
100
AcDbLine
 10
50.79774898779996
 20
0.4910031578999785
 30
0.0
 11
50.79704341439998
 21
0.4318077615999805
 31
0.0
  0
LINE
  5
63D55
330
1F
100
AcDbEntity
  8
1
100
AcDbLine
 10
50.79704341439998
 20
0.4318077615999805
 30
0.0
 11
50.79653208680003
 21
0.3996789870999855
 31
0.0
  0
LINE
  5
63D56
330
1F
100
AcDbEntity
  8
1
100
AcDbLine
 10
50.32723581250002
 20
-8.092165662900004
 30
0.0
 11
50.22940209450002
 21
-9.746897925600011
 31
0.0
  0
LINE
  5
63D57
330
1F
100
AcDbEntity
  8
1
100
AcDbLine
 10
50.62700927569998
 20
-1.491047698100022
 30
0.0
 11
50.634960406
 21
-1.356769993899989
 31
0.0
  0
LINE
  5
63D58
330
1F
100
AcDbEntity
  8
1
100
AcDbLine
 10
50.634960406
 20
-1.356769993899989
 30
0.0
 11
50.64394336539999
 21
-1.216552046300012
 31
0.0
  0
LINE
  5
63D59
330
1F
100
AcDbEntity
  8
1
100
AcDbLine
 10
50.64394336539999
 20
-1.216552046300012
 30
0.0
 11
50.65741523239998
 21
-1.019575659400022
 31
0.0
  0
LINE
  5
63D5A
330
1F
100
AcDbEntity
  8
1
100
AcDbLine
 10
50.65741523239998
 20
-1.019575659400022
 30
0.0
 11
50.67466499989996
 21
-0.7806955679000005
 31
0.0
  0
LINE
  5
63D5B
330
1F
100
AcDbEntity
  8
1
100
AcDbLine
 10
50.67466499989996
 20
-0.7806955679000005
 30
0.0
 11
50.78406920019998
 21
0.4374447104999995
 31
0.0
  0
LINE
  5
63D5C
330
1F
100
AcDbEntity
  8
1
100
AcDbLine
 10
50.63940859259995
 20
-1.57270415410001
 30
0.0
 11
50.79758825489998
 21
0.0770406458999951
 31
0.0
  0
LWPOLYLINE
  5
63D5D
330
1F
100
AcDbEntity
  8
1
100
AcDbPolyline
 90
       10
 70
     0
 43
0.0
 10
50.00399619809994
 20
-9.689032082800043
 10
50.01944340599999
 20
-9.559962539000014
 10
50.03399611729998
 20
-9.433121335499993
 10
50.04765433189999
 20
-9.308508472300006
 10
50.06041220410001
 20
-9.186113862600011
 10
50.07227557969994
 20
-9.065947593100007
 10
50.08326199619998
 20
-8.948039924300008
 10
50.09337729969996
 20
-8.832400942999999
 10
50.10261564409998
 20
-8.719020562300006
 10
50.11097702939998
 20
-8.607898782200026
  0
LWPOLYLINE
  5
63D5E
330
1F
100
AcDbEntity
  8
1
100
AcDbPolyline
 90
       38
 70
     0
 43
0.0
 10
49.99596223729998
 20
-7.651014127300005
 10
49.98888853760002
 20
-7.700285012800025
 10
49.98184293180003
 20
-7.751072605000004
 10
49.97484902349999
 20
-7.80336559400003
 10
49.96796139280002
 20
-7.857095709200011
 10
49.96120451109999
 20
-7.912275604300008
 10
49.95460102089999
 20
-7.968894911399999
 10
49.94820592640002
 20
-8.02685394100003
 10
49.94204301009998
 20
-8.08616779340001
 10
49.93613279389998
 20
-8.146827984600026
 10
49.93052730809998
 20
-8.208702857400016
 10
49.9252485362
 20
-8.27180944050001
 10
49.92031369660001
 20
-8.336141953300016
 10
49.91576821369998
 20
-8.401538043900007
 10
49.91163110379997
 20
-8.468015784299995
 10
49.90791518280002
 20
-8.535573034100014
 10
49.90465578710001
 20
-8.604020527299997
 10
49.90186781980003
 20
-8.67337675980001
 10
49.89955884729997
 20
-8.743643594299999
 10
49.89775130779998
 20
-8.81460986240002
 10
49.89645505419997
 20
-8.886293828700036
 10
49.89567186189995
 20
-8.958701438500028
 10
49.89540942789997
 20
-9.031605505900007
 10
49.89567192339999
 20
-9.105023065600011
 10
49.89645517700001
 20
-9.178964264800002
 10
49.89775149079995
 20
-9.253193269800011
 10
49.8995590913
 20
-9.327725259600031
 10
49.90186812319999
 20
-9.402574068100006
 10
49.90465614210001
 20
-9.477502621000031
 10
49.90791558149999
 20
-9.552523546300012
 10
49.91163153820003
 20
-9.627653747400037
 10
49.91576866969996
 20
-9.702662389000026
 10
49.92031415600002
 20
-9.777559011999999
 10
49.92524898559998
 20
-9.85236275370004
 10
49.93052774229997
 20
-9.926856089700025
 10
49.93613321099994
 20
-10.0010451257
 10
49.94204340520003
 20
-10.07495027780002
 10
49.95460135169995
 20
-10.221317853
  0
LINE
  5
63D5F
330
1F
100
AcDbEntity
  8
1
100
AcDbLine
 10
50.78406920019998
 20
0.4374447104999995
 30
0.0
 11
50.7980056422
 21
0.5309920421999657
 31
0.0
  0
LINE
  5
63D60
330
1F
100
AcDbEntity
  8
1
100
AcDbLine
 10
50.01006985629999
 20
-7.55703257750001
 30
0.0
 11
49.99596223729998
 21
-7.651014127300005
 31
0.0
  0
LWPOLYLINE
  5
63D61
330
1F
100
AcDbEntity
  8
1
100
AcDbPolyline
 90
       14
 70
     0
 43
0.0
 10
50.17428130830001
 20
-4.939507272400009
 10
50.21685362260001
 20
-4.662429176700033
 10
50.2819362326
 20
-4.199937099000027
 10
50.33975696610003
 20
-3.736128964900004
 10
50.39034893830001
 20
-3.270870619600019
 10
50.43373576490001
 20
-2.80412665159999
 10
50.4699199686
 20
-2.335865244600045
 10
50.49889437619999
 20
-1.865956103399996
 10
50.5206312421
 20
-1.394425105300017
 10
50.53510339000002
 20
-0.9214520765000209
 10
50.54229337800001
 20
-0.447136072900026
 10
50.54218054489997
 20
0.028487375599962
 10
50.5347237382
 20
0.5055733063999917
 10
50.51987621630002
 20
0.9843086061000114
  0
LINE
  5
63D62
330
1F
100
AcDbEntity
  8
1
100
AcDbLine
 10
50.02389353699996
 20
-7.46926380120003
 30
0.0
 11
50.01006985629999
 21
-7.55703257750001
 31
0.0
  0
LINE
  5
63D63
330
1F
100
AcDbEntity
  8
1
100
AcDbLine
 10
50.08059148889995
 20
-7.124561548199993
 30
0.0
 11
50.07160039460001
 21
-7.18096488810001
 31
0.0
  0
LINE
  5
63D64
330
1F
100
AcDbEntity
  8
1
100
AcDbLine
 10
50.04355413809998
 20
-7.349361169999994
 30
0.0
 11
50.02389353699996
 21
-7.46926380120003
 31
0.0
  0
LINE
  5
63D65
330
1F
100
AcDbEntity
  8
1
100
AcDbLine
 10
50.11097702939998
 20
-8.607898782200026
 30
0.0
 11
50.12350971839999
 21
-8.531719775600027
 31
0.0
  0
LINE
  5
63D66
330
1F
100
AcDbEntity
  8
1
100
AcDbLine
 10
50.07160039460001
 20
-7.18096488810001
 30
0.0
 11
50.04355413809998
 21
-7.349361169999994
 31
0.0
  0
LINE
  5
63D67
330
1F
100
AcDbEntity
  8
1
100
AcDbLine
 10
50.12350971839999
 20
-8.531719775600027
 30
0.0
 11
50.13638738770004
 21
-8.455821115700008
 31
0.0
  0
LWPOLYLINE
  5
63D68
330
1F
100
AcDbEntity
  8
1
100
AcDbPolyline
 90
        3
 70
     0
 43
0.0
 10
50.09999999999999
 20
-5.380597738500014
 10
50.14448750309995
 20
-5.123694590800013
 10
50.17428130830001
 20
-4.939507272400009
  0
LINE
  5
63D69
330
1F
100
AcDbEntity
  8
1
100
AcDbLine
 10
50.13638738770004
 20
-8.455821115700008
 30
0.0
 11
50.14963075510002
 21
-8.380103342100046
 31
0.0
  0
LINE
  5
63D6A
330
1F
100
AcDbEntity
  8
1
100
AcDbLine
 10
50.14963075510002
 20
-8.380103342100046
 30
0.0
 11
50.16325892959994
 21
-8.304470001500011
 31
0.0
  0
LINE
  5
63D6B
330
1F
100
AcDbEntity
  8
1
100
AcDbLine
 10
50.16325892959994
 20
-8.304470001500011
 30
0.0
 11
50.17728261950001
 21
-8.228857275200017
 31
0.0
  0
LINE
  5
63D6C
330
1F
100
AcDbEntity
  8
1
100
AcDbLine
 10
50.17728261950001
 20
-8.228857275200017
 30
0.0
 11
50.19168516230002
 21
-8.153319047700012
 31
0.0
  0
LINE
  5
63D6D
330
1F
100
AcDbEntity
  8
1
100
AcDbLine
 10
50.19168516230002
 20
-8.153319047700012
 30
0.0
 11
50.20643412409999
 21
-8.077941507999996
 31
0.0
  0
LINE
  5
63D6E
330
1F
100
AcDbEntity
  8
1
100
AcDbLine
 10
50.20643412409999
 20
-8.077941507999996
 30
0.0
 11
50.24335382989997
 21
-7.893763000199999
 31
0.0
  0
LINE
  5
63D6F
330
1F
100
AcDbEntity
  8
1
100
AcDbLine
 10
50.12336144620002
 20
-10.09285597960003
 30
0.0
 11
50.1315858232
 21
-10.06136467210002
 31
0.0
  0
LINE
  5
63D70
330
1F
100
AcDbEntity
  8
1
100
AcDbLine
 10
50.11537489059995
 20
-10.12267000339999
 30
0.0
 11
50.12336144620002
 21
-10.09285597960003
 31
0.0
  0
LINE
  5
63D71
330
1F
100
AcDbEntity
  8
1
100
AcDbLine
 10
50.1076267889
 20
-10.1508092543
 30
0.0
 11
50.11537489059995
 21
-10.12267000339999
 31
0.0
  0
LINE
  5
63D72
330
1F
100
AcDbEntity
  8
1
100
AcDbLine
 10
50.1315858232
 20
-10.06136467210002
 30
0.0
 11
50.14996023180001
 21
-9.995988248199996
 31
0.0
  0
LINE
  5
63D73
330
1F
100
AcDbEntity
  8
1
100
AcDbLine
 10
50.14996023180001
 20
-9.995988248199996
 30
0.0
 11
50.17549265410003
 21
-9.906897804500022
 31
0.0
  0
LWPOLYLINE
  5
63D74
330
1F
100
AcDbEntity
  8
1
100
AcDbPolyline
 90
        3
 70
     0
 43
0.0
 10
50.09645632270002
 20
-10.1898961355
 10
50.10011967090003
 20
-10.17728377589999
 10
50.1076267889
 20
-10.1508092543
  0
LINE
  5
63D75
330
1F
100
AcDbEntity
  8
1
100
AcDbLine
 10
50.17549265410003
 20
-9.906897804500022
 30
0.0
 11
50.18870141029996
 21
-9.861516059300003
 31
0.0
  0
LWPOLYLINE
  5
63D76
330
1F
100
AcDbEntity
  8
1
100
AcDbPolyline
 90
       10
 70
     0
 43
0.0
 10
50.18870141029996
 20
-9.861516059300003
 10
50.19303949340002
 20
-9.848548292700018
 10
50.19742374630005
 20
-9.835637099500008
 10
50.20185416889998
 20
-9.822782479600041
 10
50.20633091579998
 20
-9.809982391300012
 10
50.21085383249999
 20
-9.79723887639999
 10
50.2154224551
 20
-9.784558059800007
 10
50.22003662899999
 20
-9.771941983399999
 10
50.22469650880004
 20
-9.759388605300037
 10
50.22940209450002
 20
-9.746897925600011
  0
LINE
  5
63D77
330
1F
100
AcDbEntity
  8
1
100
AcDbLine
 10
50.09645632270002
 20
-10.1898961355
 30
0.0
 11
50.02715961019996
 21
-10.27709320170002
 31
0.0
  0
LINE
  5
63D78
330
1F
100
AcDbEntity
  8
sk3
100
AcDbLine
 10
14.92774653980001
 20
-12.7
 30
0.0
 11
16.0
 21
-13.2
 31
0.0
  0
LINE
  5
63D79
330
1F
100
AcDbEntity
  8
1
100
AcDbLine
 10
0.5
 20
4.762500000000002
 30
0.0
 11
0.0
 21
5.262500000000002
 31
0.0
  0
LINE
  5
63D7A
330
1F
100
AcDbEntity
  8
1
100
AcDbLine
 10
50.62983094639998
 20
-1.508566717999986
 30
0.0
 11
50.62700927569998
 21
-1.491047698100022
 31
0.0
  0
LINE
  5
63D7B
330
1F
100
AcDbEntity
  8
1
100
AcDbLine
 10
50.63261438529995
 20
-1.526448088199988
 30
0.0
 11
50.62983094639998
 21
-1.508566717999986
 31
0.0
  0
LINE
  5
63D7C
330
1F
100
AcDbEntity
  8
1
100
AcDbLine
 10
50.63535983989999
 20
-1.544689000800037
 30
0.0
 11
50.63261438529995
 21
-1.526448088199988
 31
0.0
  0
LWPOLYLINE
  5
63D7D
330
1F
100
AcDbEntity
  8
1
100
AcDbPolyline
 90
        3
 70
     0
 43
0.0
 10
50.63940859259995
 20
-1.57270415410001
 10
50.6380682985
 20
-1.563278224000029
 10
50.63535983989999
 20
-1.544689000800037
  0
LINE
  5
63D7E
330
1F
100
AcDbEntity
  8
1
100
AcDbLine
 10
50.4559939534
 20
-17.5527273974
 30
0.0
 11
50.44711407360001
 21
-17.47920216519999
 31
0.0
  0
LINE
  5
63D7F
330
1F
100
AcDbEntity
  8
1
100
AcDbLine
 10
50.46444083469999
 20
-17.62614287330002
 30
0.0
 11
50.4559939534
 21
-17.5527273974
 31
0.0
  0
LINE
  5
63D80
330
1F
100
AcDbEntity
  8
1
100
AcDbLine
 10
50.47245507000003
 20
-17.69944651159998
 30
0.0
 11
50.46444083469999
 21
-17.62614287330002
 31
0.0
  0
LINE
  5
63D81
330
1F
100
AcDbEntity
  8
1
100
AcDbLine
 10
50.48003699500004
 20
-17.7726360491
 30
0.0
 11
50.47245507000003
 21
-17.69944651159998
 31
0.0
  0
LINE
  5
63D82
330
1F
100
AcDbEntity
  8
1
100
AcDbLine
 10
49.98184309059997
 20
-10.50748645850002
 30
0.0
 11
50.03717844089999
 21
-11.0433057016
 31
0.0
  0
LINE
  5
63D83
330
1F
100
AcDbEntity
  8
1
100
AcDbLine
 10
50.03717844089999
 20
-11.0433057016
 30
0.0
 11
50.04970467200002
 21
-11.16816461370003
 31
0.0
  0
LINE
  5
63D84
330
1F
100
AcDbEntity
  8
1
100
AcDbLine
 10
49.96796163980002
 20
-10.36565715179999
 30
0.0
 11
49.98184309059997
 21
-10.50748645850002
 31
0.0
  0
LINE
  5
63D85
330
1F
100
AcDbEntity
  8
1
100
AcDbLine
 10
50.48852667469995
 20
-17.85989294760002
 30
0.0
 11
50.48003699500004
 21
-17.7726360491
 31
0.0
  0
LINE
  5
63D86
330
1F
100
AcDbEntity
  8
1
100
AcDbLine
 10
50.04970467200002
 20
-11.16816461370003
 30
0.0
 11
50.0612462757
 21
-11.28899873429999
 31
0.0
  0
LINE
  5
63D87
330
1F
100
AcDbEntity
  8
1
100
AcDbLine
 10
49.95460135169995
 20
-10.221317853
 30
0.0
 11
49.96796163980002
 21
-10.36565715179999
 31
0.0
  0
LINE
  5
63D88
330
1F
100
AcDbEntity
  8
1
100
AcDbLine
 10
50.49761785020002
 20
-17.96106052970002
 30
0.0
 11
50.48852667469995
 21
-17.85989294760002
 31
0.0
  0
LWPOLYLINE
  5
63D89
330
1F
100
AcDbEntity
  8
1
100
AcDbPolyline
 90
       13
 70
     0
 43
0.0
 10
50.0612462757
 20
-11.28899873429999
 10
50.07160049909995
 20
-11.40568037979999
 10
50.07627906299998
 20
-11.4624430031
 10
50.08059173409998
 20
-11.51812839330002
 10
50.08452230480003
 20
-11.57274913620002
 10
50.08805162189998
 20
-11.62628637569999
 10
50.09115385360002
 20
-11.67866441850002
 10
50.09381616219994
 20
-11.72989482380002
 10
50.096022495
 20
-11.77995613940002
 10
50.09775213239999
 20
-11.82872105600002
 10
50.09899556739998
 20
-11.8761421898
 10
50.09974754719997
 20
-11.92225308400002
 10
50.09999999999999
 20
-11.96704652160001
  0
LINE
  5
63D8A
330
1F
100
AcDbEntity
  8
1
100
AcDbLine
 10
50.50587169949998
 20
-18.06189973700002
 30
0.0
 11
50.49761785020002
 21
-17.96106052970002
 31
0.0
  0
LWPOLYLINE
  5
63D8B
330
1F
100
AcDbEntity
  8
1
100
AcDbPolyline
 90
        3
 70
     0
 43
0.0
 10
50.51346641130002
 20
-18.165005588
 10
50.51329015030001
 20
-18.16240460639999
 10
50.50587169949998
 20
-18.06189973700002
  0
LINE
  5
63D8C
330
1F
100
AcDbEntity
  8
1
100
AcDbLine
 10
50.09999999999999
 20
-18.165005588
 30
0.0
 11
50.09999999999999
 21
-11.96704652160001
 31
0.0
  0
LINE
  5
63D8D
330
1F
100
AcDbEntity
  8
1
100
AcDbLine
 10
50.09999999999999
 20
-6.947465596800002
 30
0.0
 11
50.09999999999999
 21
5.748016125900004
 31
0.0
  0
LINE
  5
63D8E
330
1F
100
AcDbEntity
  8
1
100
AcDbLine
 10
50.09999999999999
 20
5.755983195499975
 30
0.0
 11
50.09999999999999
 21
6.580491088199984
 31
0.0
  0
LINE
  5
63D8F
330
1F
100
AcDbEntity
  8
1
100
AcDbLine
 10
50.09999999999999
 20
10.8376111944
 30
0.0
 11
50.09999999999999
 21
18.165005588
 31
0.0
  0
LINE
  5
63D90
330
1F
100
AcDbEntity
  8
sk3
100
AcDbLine
 10
47.80000000000001
 20
-18.165005588
 30
0.0
 11
47.80000000000001
 21
18.165005588
 31
0.0
  0
LWPOLYLINE
  5
63D91
330
1F
100
AcDbEntity
  8
1
100
AcDbPolyline
 90
       11
 70
     0
 43
0.0
 10
50.09999999999999
 20
10.8376111944
 10
50.09974756809999
 20
10.79434376419997
 10
50.09899563469994
 20
10.74972227519999
 10
50.09775224779994
 20
10.70375407189998
 10
50.09602262620001
 20
10.65640810669997
 10
50.0938162585
 20
10.60772956969996
 10
50.09115388719999
 20
10.55783887189999
 10
50.08805156680001
 20
10.50675663579998
 10
50.0845221335
 20
10.45447249609999
 10
50.08059148119994
 20
10.40105828719996
 10
50.07627883709997
 20
10.34653330719997
  0
LWPOLYLINE
  5
63D92
330
1F
100
AcDbEntity
  8
1
100
AcDbPolyline
 90
       10
 70
     0
 43
0.0
 10
50.09999999999999
 20
-6.947465596800002
 10
50.09974756809999
 20
-6.960905500300029
 10
50.09899563469994
 20
-6.975918175300039
 10
50.09775224800001
 20
-6.992496062800018
 10
50.09602262679999
 20
-7.010626490700008
 10
50.09381625999998
 20
-7.030306829100016
 10
50.09115388979998
 20
-7.051545447300004
 10
50.08805157090001
 20
-7.074336238399993
 10
50.08452213939998
 20
-7.098672134500009
 10
50.08059148889995
 20
-7.124561548199993
  0
LINE
  5
63D93
330
1F
100
AcDbEntity
  8
1
100
AcDbLine
 10
50.32723581250002
 20
10.82123996239998
 30
0.0
 11
50.22940209450002
 21
9.30556836279997
 31
0.0
  0
LWPOLYLINE
  5
63D94
330
1F
100
AcDbEntity
  8
1
100
AcDbPolyline
 90
       35
 70
     0
 43
0.0
 10
49.93613277649996
 20
8.896725873099974
 10
49.93052729250002
 20
8.822345487399964
 10
49.92524852270003
 20
8.747592913799973
 10
49.92031368549999
 20
8.672462830199982
 10
49.9157682046
 20
8.597172145099971
 10
49.91163109640002
 20
8.521701573999973
 10
49.90791517680003
 20
8.446042195900002
 10
49.90465578229995
 20
8.370425207299984
 10
49.9018678157
 20
8.294833396499978
 10
49.89955884369999
 20
8.219254660499991
 10
49.89775130479998
 20
8.143927485299975
 10
49.89645505200002
 20
8.068837470099971
 10
49.89567186059995
 20
7.99396992719998
 10
49.89540942789997
 20
7.919563478900002
 10
49.8956719254
 20
7.845607422100002
 10
49.89645518140003
 20
7.772084899399981
 10
49.89775149789998
 20
7.69922677869998
 10
49.89955910159998
 20
7.627026333299976
 10
49.90186813690002
 20
7.555465412899973
 10
49.90465615840003
 20
7.484760023799974
 10
49.90791559950003
 20
7.414907581599983
 10
49.91163155700002
 20
7.345889401099991
 10
49.9157686872
 20
7.277900230799968
 10
49.92031416929998
 20
7.210941487399974
 10
49.92524899270001
 20
7.144994728799968
 10
49.93052774229997
 20
7.080228208599987
 10
49.9361332025
 20
7.016646921599981
 10
49.94204338750001
 20
6.954233420899992
 10
49.94820626819998
 20
6.89312575059996
 10
49.95460132239998
 20
6.833331753599999
 10
49.96120476880003
 20
6.77483573829998
 10
49.96796160649998
 20
6.717743836800007
 10
49.9748491931
 20
6.662065881099991
 10
49.98184305770002
 20
6.607788565000003
 10
49.99596228590002
 20
6.503670429399971
  0
LINE
  5
63D95
330
1F
100
AcDbEntity
  8
1
100
AcDbLine
 10
49.94820590569998
 20
9.044235545399953
 30
0.0
 11
49.93613277649996
 21
8.896725873099974
 31
0.0
  0
LINE
  5
63D96
330
1F
100
AcDbEntity
  8
1
100
AcDbLine
 10
50.07627883709997
 20
10.34653330719997
 30
0.0
 11
50.0665833562
 21
10.23413565479999
 31
0.0
  0
LINE
  5
63D97
330
1F
100
AcDbEntity
  8
1
100
AcDbLine
 10
49.9612044884
 20
9.189580515399974
 30
0.0
 11
49.94820590569998
 21
9.044235545399953
 31
0.0
  0
LINE
  5
63D98
330
1F
100
AcDbEntity
  8
1
100
AcDbLine
 10
50.0665833562
 20
10.23413565479999
 30
0.0
 11
50.0556088454
 21
10.11732705639998
 31
0.0
  0
LINE
  5
63D99
330
1F
100
AcDbEntity
  8
1
100
AcDbLine
 10
49.97484899969999
 20
9.332310310399957
 30
0.0
 11
49.9612044884
 21
9.189580515399974
 31
0.0
  0
LINE
  5
63D9A
330
1F
100
AcDbEntity
  8
1
100
AcDbLine
 10
50.0556088454
 20
10.11732705639998
 30
0.0
 11
50.0435541196
 21
9.996247406399994
 31
0.0
  0
LINE
  5
63D9B
330
1F
100
AcDbEntity
  8
1
100
AcDbLine
 10
49.99596221329998
 20
9.540858855399971
 30
0.0
 11
49.97484899969999
 21
9.332310310399957
 31
0.0
  0
LINE
  5
63D9C
330
1F
100
AcDbEntity
  8
1
100
AcDbLine
 10
50.0435541196
 20
9.996247406399994
 30
0.0
 11
49.99596221329998
 21
9.540858855399971
 31
0.0
  0
LWPOLYLINE
  5
63D9D
330
1F
100
AcDbEntity
  8
1
100
AcDbPolyline
 90
       10
 70
     0
 43
0.0
 10
50.00399619809994
 20
9.20134212169999
 10
50.01944340599999
 20
9.324935445399951
 10
50.03399611729998
 20
9.445963602699986
 10
50.04765433189999
 20
9.564426593799979
 10
50.06041220410001
 20
9.680329231099999
 10
50.07227557969994
 20
9.79366670209999
 10
50.08326199619998
 20
9.904424568999971
 10
50.09337729969996
 20
10.01259801919998
 10
50.10261564409998
 20
10.11819186519999
 10
50.11097702939998
 20
10.22120610719996
  0
LINE
  5
63D9E
330
1F
100
AcDbEntity
  8
1
100
AcDbLine
 10
50.11097702939998
 20
10.22120610719996
 30
0.0
 11
50.12350971839999
 21
10.29649976899996
 31
0.0
  0
LINE
  5
63D9F
330
1F
100
AcDbEntity
  8
1
100
AcDbLine
 10
50.12350971839999
 20
10.29649976899996
 30
0.0
 11
50.13638738770004
 21
10.37178507189998
 31
0.0
  0
LINE
  5
63DA0
330
1F
100
AcDbEntity
  8
1
100
AcDbLine
 10
50.13638738770004
 20
10.37178507189998
 30
0.0
 11
50.14963075510002
 21
10.44716331269999
 31
0.0
  0
LINE
  5
63DA1
330
1F
100
AcDbEntity
  8
1
100
AcDbLine
 10
50.14963075510002
 20
10.44716331269999
 30
0.0
 11
50.16325892959994
 21
10.52273205039996
 31
0.0
  0
LINE
  5
63DA2
330
1F
100
AcDbEntity
  8
1
100
AcDbLine
 10
50.16325892959994
 20
10.52273205039996
 30
0.0
 11
50.17728261950001
 21
10.59855450579997
 31
0.0
  0
LINE
  5
63DA3
330
1F
100
AcDbEntity
  8
1
100
AcDbLine
 10
50.17728261950001
 20
10.59855450579997
 30
0.0
 11
50.1965645935
 21
10.69993642389998
 31
0.0
  0
LINE
  5
63DA4
330
1F
100
AcDbEntity
  8
1
100
AcDbLine
 10
50.1965645935
 20
10.69993642389998
 30
0.0
 11
50.20643412409999
 21
10.7506869911
 31
0.0
  0
LINE
  5
63DA5
330
1F
100
AcDbEntity
  8
1
100
AcDbLine
 10
50.55376005969995
 20
-0.1073354873000092
 30
0.0
 11
50.54222413640002
 21
-0.1552632051000167
 31
0.0
  0
LINE
  5
63DA6
330
1F
100
AcDbEntity
  8
1
100
AcDbLine
 10
50.56803993089997
 20
-0.0492187987000428
 30
0.0
 11
50.55376005969995
 21
-0.1073354873000092
 31
0.0
  0
LINE
  5
63DA7
330
1F
100
AcDbEntity
  8
1
100
AcDbLine
 10
50.58313359419995
 20
0.0107454592999936
 30
0.0
 11
50.56803993089997
 21
-0.0492187987000428
 31
0.0
  0
LINE
  5
63DA8
330
1F
100
AcDbEntity
  8
1
100
AcDbLine
 10
50.59879829319999
 20
0.0717286973999869
 30
0.0
 11
50.58313359419995
 21
0.0107454592999936
 31
0.0
  0
LINE
  5
63DA9
330
1F
100
AcDbEntity
  8
1
100
AcDbLine
 10
50.6149599387
 20
0.1334691073999856
 30
0.0
 11
50.59879829319999
 21
0.0717286973999869
 31
0.0
  0
LINE
  5
63DAA
330
1F
100
AcDbEntity
  8
1
100
AcDbLine
 10
50.63173238599998
 20
0.1964115766999832
 30
0.0
 11
50.6149599387
 21
0.1334691073999856
 31
0.0
  0
LINE
  5
63DAB
330
1F
100
AcDbEntity
  8
1
100
AcDbLine
 10
50.64928303319999
 20
0.2609957264999814
 30
0.0
 11
50.63173238599998
 21
0.1964115766999832
 31
0.0
  0
LINE
  5
63DAC
330
1F
100
AcDbEntity
  8
1
100
AcDbLine
 10
50.66761914859998
 20
0.3270961091999815
 30
0.0
 11
50.64928303319999
 21
0.2609957264999814
 31
0.0
  0
LINE
  5
63DAD
330
1F
100
AcDbEntity
  8
1
100
AcDbLine
 10
50.68662855770003
 20
0.3942119497999776
 30
0.0
 11
50.66761914859998
 21
0.3270961091999815
 31
0.0
  0
LINE
  5
63DAE
330
1F
100
AcDbEntity
  8
1
100
AcDbLine
 10
50.70609921179999
 20
0.4616760063999941
 30
0.0
 11
50.68662855770003
 21
0.3942119497999776
 31
0.0
  0
LINE
  5
63DAF
330
1F
100
AcDbEntity
  8
1
100
AcDbLine
 10
50.72584724590001
 20
0.5288540300999891
 30
0.0
 11
50.70609921179999
 21
0.4616760063999941
 31
0.0
  0
LWPOLYLINE
  5
63DB0
330
1F
100
AcDbEntity
  8
1
100
AcDbPolyline
 90
        3
 70
     0
 43
0.0
 10
50.75552531930004
 20
0.6274272403999639
 10
50.74564581489998
 20
0.5949272655000009
 10
50.72584724590001
 20
0.5288540300999891
  0
LINE
  5
63DB1
330
1F
100
AcDbEntity
  8
1
100
AcDbLine
 10
50.75552531930004
 20
0.6274272403999639
 30
0.0
 11
50.53935313760002
 21
0.2093846866999733
 31
0.0
  0
LINE
  5
63DB2
330
1F
100
AcDbEntity
  8
1
100
AcDbLine
 10
50.51999870190002
 20
-1.754305180000004
 30
0.0
 11
50.53533842259994
 21
-1.729848087800021
 31
0.0
  0
LINE
  5
63DB3
330
1F
100
AcDbEntity
  8
1
100
AcDbLine
 10
50.53533842259994
 20
-1.729848087800021
 30
0.0
 11
50.5508999626
 21
-1.705399596300013
 31
0.0
  0
LINE
  5
63DB4
330
1F
100
AcDbEntity
  8
1
100
AcDbLine
 10
50.5508999626
 20
-1.705399596300013
 30
0.0
 11
50.5666832021
 21
-1.680961154999991
 31
0.0
  0
LINE
  5
63DB5
330
1F
100
AcDbEntity
  8
1
100
AcDbLine
 10
50.5666832021
 20
-1.680961154999991
 30
0.0
 11
50.58268766279997
 21
-1.656538560499981
 31
0.0
  0
LINE
  5
63DB6
330
1F
100
AcDbEntity
  8
1
100
AcDbLine
 10
50.58268766279997
 20
-1.656538560499981
 30
0.0
 11
50.6009210748
 21
-1.629068918899992
 31
0.0
  0
LINE
  5
63DB7
330
1F
100
AcDbEntity
  8
1
100
AcDbLine
 10
50.6009210748
 20
-1.629068918899992
 30
0.0
 11
50.63940859259995
 21
-1.57270415410001
 31
0.0
  0
LINE
  5
63DB8
330
1F
100
AcDbEntity
  8
1
100
AcDbLine
 10
50.50377050590004
 20
-1.760179754400027
 30
0.0
 11
50.51796602109999
 21
-1.739917830500008
 31
0.0
  0
LINE
  5
63DB9
330
1F
100
AcDbEntity
  8
1
100
AcDbLine
 10
50.51999870190002
 20
-1.754305180000004
 30
0.0
 11
50.50291899699996
 21
-1.778651269500006
 31
0.0
  0
LINE
  5
63DBA
330
1F
100
AcDbEntity
  8
1
100
AcDbLine
 10
49.96274016839999
 20
-10.31013094650002
 30
0.0
 11
50.02715961019996
 21
-10.27709320170002
 31
0.0
  0
LINE
  5
63DBB
330
1F
100
AcDbEntity
  8
sk3
100
AcDbLine
 10
46.79999978639997
 20
-10.00000000000001
 30
0.0
 11
46.79999978639997
 21
9.999999999999978
 31
0.0
  0
LWPOLYLINE
  5
63DBC
330
1F
100
AcDbEntity
  8
1
100
AcDbPolyline
 90
       12
 70
     0
 43
0.0
 10
50.09999999999999
 20
13.39809248429999
 10
50.14448750309995
 20
13.66505979089999
 10
50.21685362260001
 20
14.14265111029998
 10
50.2819362326
 20
14.61976796700001
 10
50.33975696610003
 20
15.09650383629996
 10
50.39034893830001
 20
15.57300122649997
 10
50.43373576490001
 20
16.04930383159999
 10
50.4699199686
 20
16.52545444889998
 10
50.49889437619999
 20
17.00159380299998
 10
50.5206312421
 20
17.4777037827
 10
50.53510339000002
 20
17.95362011759998
 10
50.53829876569998
 20
18.165005588
  0
LINE
  5
63DBD
330
1F
100
AcDbEntity
  8
1
100
AcDbLine
 10
50.20643412409999
 20
10.7506869911
 30
0.0
 11
50.24335382989997
 21
10.93727320009999
 31
0.0
  0
LINE
  5
63DBE
330
1F
100
AcDbEntity
  8
1
100
AcDbLine
 10
50.62700927569998
 20
-1.491047698100022
 30
0.0
 11
50.50856456240001
 21
-1.65618379330003
 31
0.0
  0
LWPOLYLINE
  5
63DBF
330
1F
100
AcDbEntity
  8
1
100
AcDbPolyline
 90
        3
 70
     0
 43
0.0
 10
50.51796602109999
 20
-1.739917830500008
 10
50.54199198949999
 20
-1.706655439900021
 10
50.56642750719999
 20
-1.673835555899998
  0
LINE
  5
63DC0
330
1F
100
AcDbEntity
  8
1
100
AcDbLine
 10
50.56642750719999
 20
-1.673835555899998
 30
0.0
 11
50.5912654055
 21
-1.641464428899997
 31
0.0
  0
LINE
  5
63DC1
330
1F
100
AcDbEntity
  8
1
100
AcDbLine
 10
50.5912654055
 20
-1.641464428899997
 30
0.0
 11
50.6009210748
 21
-1.629068918899992
 31
0.0
  0
LINE
  5
63DC2
330
1F
100
AcDbEntity
  8
sk3
100
AcDbLine
 10
16.0
 20
-13.2
 30
0.0
 11
26.0
 21
-13.2
 31
0.0
  0
LINE
  5
63DC3
330
1F
100
AcDbEntity
  8
sk3
100
AcDbLine
 10
1.199999850899985
 20
-13.10000000000001
 30
0.0
 11
4.0
 21
-13.10000000000001
 31
0.0
  0
LINE
  5
63DC4
330
1F
100
AcDbEntity
  8
sk3
100
AcDbLine
 10
4.0
 20
-12.7
 30
0.0
 11
14.92774653980001
 21
-12.7
 31
0.0
  0
LWPOLYLINE
  5
63DC5
330
1F
100
AcDbEntity
  8
1
100
AcDbPolyline
 90
        3
 70
     0
 43
0.0
 10
50.44711407360001
 20
-17.47920216519999
 10
50.18515416450004
 20
-17.43636457380002
 10
50.09999999999999
 20
-17.42226242229999
  0
LINE
  5
63DC6
330
1F
100
AcDbEntity
  8
1
100
AcDbLine
 10
5.560000000000002
 20
3.762499999999999
 30
0.0
 11
4.560000000000002
 21
4.762500000000002
 31
0.0
  0
LINE
  5
63DC7
330
1F
100
AcDbEntity
  8
1
100
AcDbLine
 10
49.91530990159998
 20
-9.694344652000001
 30
0.0
 11
50.00399619809994
 21
-9.689032082800043
 31
0.0
  0
LINE
  5
63DC8
330
1F
100
AcDbEntity
  8
1
100
AcDbLine
 10
49.98706206119999
 20
-10.27939450650002
 30
0.0
 11
50.02715961019996
 21
-10.27709320170002
 31
0.0
  0
LINE
  5
63DC9
330
1F
100
AcDbEntity
  8
1
100
AcDbLine
 10
49.96002024789999
 20
-10.28080076159999
 30
0.0
 11
49.98706206119999
 21
-10.27939450650002
 31
0.0
  0
LINE
  5
63DCA
330
1F
100
AcDbEntity
  8
sk3
100
AcDbLine
 10
34.0
 20
-10.00000000000001
 30
0.0
 11
46.79999978639997
 21
-10.00000000000001
 31
0.0
  0
LINE
  5
63DCB
330
1F
100
AcDbEntity
  8
sk3
100
AcDbLine
 10
1.199999851699999
 20
13.10000000000001
 30
0.0
 11
0.0
 21
14.29999983820001
 31
0.0
  0
LWPOLYLINE
  5
63DCC
330
1F
100
AcDbEntity
  8
1
100
AcDbPolyline
 90
        3
 70
     0
 43
0.0
 10
50.11097702939998
 20
-8.607898782200026
 10
49.996834363
 20
-8.624567735800031
 10
49.90331680610001
 20
-8.637330342999991
  0
LINE
  5
63DCD
330
1F
100
AcDbEntity
  8
sk3
100
AcDbLine
 10
26.0
 20
-6.85000000000001
 30
0.0
 11
33.4999999195
 21
-6.85000000000001
 31
0.0
  0
LINE
  5
63DCE
330
1F
100
AcDbEntity
  8
1
100
AcDbLine
 10
0.5
 20
-4.762500000000001
 30
0.0
 11
4.560000000000002
 21
-4.762500000000001
 31
0.0
  0
LWPOLYLINE
  5
63DCF
330
1F
100
AcDbEntity
  8
1
100
AcDbPolyline
 90
        7
 70
     0
 43
0.0
 10
50.09030795499999
 20
-9.710676607800042
 10
50.07613858029995
 20
-9.708225942400007
 10
50.07303580869998
 20
-9.70762718740001
 10
50.06993899969995
 20
-9.706973513700022
 10
50.06684815319999
 20
-9.706264921600011
 10
50.06376326929999
 20
-9.705501410800014
 10
50.06068434799999
 20
-9.704682981500031
  0
LINE
  5
63DD0
330
1F
100
AcDbEntity
  8
1
100
AcDbLine
 10
50.09643935500003
 20
-9.844851491800017
 30
0.0
 11
50.18870141029996
 21
-9.861516059300003
 31
0.0
  0
LINE
  5
63DD1
330
1F
100
AcDbEntity
  8
1
100
AcDbLine
 10
50.00884038070001
 20
-9.828568726800018
 30
0.0
 11
50.09643935500003
 21
-9.844851491800017
 31
0.0
  0
LINE
  5
63DD2
330
1F
100
AcDbEntity
  8
1
100
AcDbLine
 10
49.92259220729997
 20
-9.812090450000015
 30
0.0
 11
50.00884038070001
 21
-9.828568726800018
 31
0.0
  0
LINE
  5
63DD3
330
1F
100
AcDbEntity
  8
1
100
AcDbLine
 10
50.07643950149994
 20
-10.0479205509
 30
0.0
 11
50.1315858232
 21
-10.06136467210002
 31
0.0
  0
LINE
  5
63DD4
330
1F
100
AcDbEntity
  8
1
100
AcDbLine
 10
50.02063170069999
 20
-10.03399226180001
 30
0.0
 11
50.07643950149994
 21
-10.0479205509
 31
0.0
  0
LINE
  5
63DD5
330
1F
100
AcDbEntity
  8
1
100
AcDbLine
 10
49.96416024519999
 20
-10.01957958999999
 30
0.0
 11
50.02063170069999
 21
-10.03399226180001
 31
0.0
  0
LINE
  5
63DD6
330
1F
100
AcDbEntity
  8
1
100
AcDbLine
 10
49.9370499693
 20
-10.01250890400003
 30
0.0
 11
49.96416024519999
 21
-10.01957958999999
 31
0.0
  0
LWPOLYLINE
  5
63DD7
330
1F
100
AcDbEntity
  8
1
100
AcDbPolyline
 90
        9
 70
     0
 43
0.0
 10
50.17592964570003
 20
-9.730193316799999
 10
50.1655110058
 20
-9.727350067700019
 10
50.15501069539997
 20
-9.724621194100011
 10
50.14442871430003
 20
-9.722006695899995
 10
50.1337641156
 20
-9.719504788500037
 10
50.12301784619999
 20
-9.717117256599996
 10
50.11219274739997
 20
-9.714849454200036
 10
50.10128976599995
 20
-9.71270316620003
 10
50.09030795499999
 20
-9.710676607800042
  0
LINE
  5
63DD8
330
1F
100
AcDbEntity
  8
1
100
AcDbLine
 10
50.06068434799999
 20
-9.704682981500031
 30
0.0
 11
50.00399619809994
 21
-9.689032082800043
 31
0.0
  0
LWPOLYLINE
  5
63DD9
330
1F
100
AcDbEntity
  8
1
100
AcDbPolyline
 90
       10
 70
     0
 43
0.0
 10
50.22940209450002
 20
-9.746897925600011
 10
50.22355209670002
 20
-9.744893144700014
 10
50.21767909810001
 20
-9.742925314400041
 10
50.21178309859999
 20
-9.740994434799988
 10
50.20586389239998
 20
-9.739100202200022
 10
50.19992168539997
 20
-9.737242920300037
 10
50.19395709540001
 20
-9.73542349980001
 10
50.1879703285
 20
-9.73364224410001
 10
50.18196117860004
 20
-9.731898849800007
 10
50.17592964570003
 20
-9.730193316799999
  0
LINE
  5
63DDA
330
1F
100
AcDbEntity
  8
sk3
100
AcDbLine
 10
33.4999999195
 20
-6.85000000000001
 30
0.0
 11
34.0
 21
-7.350000086299999
 31
0.0
  0
LINE
  5
63DDB
330
1F
100
AcDbEntity
  8
sk3
100
AcDbLine
 10
34.0
 20
-10.00000000000001
 30
0.0
 11
34.0
 21
9.999999999999985
 31
0.0
  0
LINE
  5
63DDC
330
1F
100
AcDbEntity
  8
sk3
100
AcDbLine
 10
33.4999999195
 20
6.850000000000008
 30
0.0
 11
33.4999999195
 21
-6.85000000000001
 31
0.0
  0
LINE
  5
63DDD
330
1F
100
AcDbEntity
  8
sk3
100
AcDbLine
 10
46.79999978639997
 20
9.999999999999978
 30
0.0
 11
47.80000000000001
 21
11.00000023509999
 31
0.0
  0
LWPOLYLINE
  5
63DDE
330
1F
100
AcDbEntity
  8
1
100
AcDbPolyline
 90
        7
 70
     0
 43
0.0
 10
50.09030795499999
 20
9.241701428299972
 10
50.07613858029995
 20
9.234110684999997
 10
50.07303580869998
 20
9.232502855999978
 10
50.06993899969995
 20
9.230947196100014
 10
50.06684815319999
 20
9.229443705500003
 10
50.06376326929999
 20
9.227992384099998
 10
50.06068434799999
 20
9.22659323189999
  0
LWPOLYLINE
  5
63DDF
330
1F
100
AcDbEntity
  8
1
100
AcDbPolyline
 90
        9
 70
     0
 43
0.0
 10
50.17592964570003
 20
9.283449141199991
 10
50.1655110058
 20
9.278779204299986
 10
50.15501069539997
 20
9.27395303359999
 10
50.14442871430003
 20
9.26897062919998
 10
50.1337641156
 20
9.263832902499999
 10
50.12301784619999
 20
9.258538942199962
 10
50.11219274739997
 20
9.253086013499974
 10
50.10128976599995
 20
9.247473204999987
 10
50.09030795499999
 20
9.241701428299972
  0
LINE
  5
63DE0
330
1F
100
AcDbEntity
  8
sk3
100
AcDbLine
 10
33.4999999195
 20
6.850000000000008
 30
0.0
 11
34.0
 21
7.350000086399983
 31
0.0
  0
LINE
  5
63DE1
330
1F
100
AcDbEntity
  8
1
100
AcDbLine
 10
50.06068434799999
 20
9.22659323189999
 30
0.0
 11
50.00399619809994
 21
9.20134212169999
 31
0.0
  0
LWPOLYLINE
  5
63DE2
330
1F
100
AcDbEntity
  8
1
100
AcDbPolyline
 90
       10
 70
     0
 43
0.0
 10
50.22940209450002
 20
9.30556836279997
 10
50.22355209670002
 20
9.303303637599992
 10
50.21767909810001
 20
9.300990763999958
 10
50.21178309859999
 20
9.298629742000009
 10
50.20586389239998
 20
9.2962206959
 10
50.19992168539997
 20
9.293763501399986
 10
50.19395709540001
 20
9.29125778599997
 10
50.1879703285
 20
9.288703425399951
 10
50.18196117860004
 20
9.286100543799975
 10
50.17592964570003
 20
9.283449141199991
  0
LINE
  5
63DE3
330
1F
100
AcDbEntity
  8
1
100
AcDbLine
 10
4.560000000000002
 20
4.762500000000002
 30
0.0
 11
0.5
 21
4.762500000000002
 31
0.0
  0
LINE
  5
63DE4
330
1F
100
AcDbEntity
  8
1
100
AcDbLine
 10
50.09999999999999
 20
2.411554942699989
 30
0.0
 11
50.41144213259994
 21
2.378604891600001
 31
0.0
  0
LWPOLYLINE
  5
63DE5
330
1F
100
AcDbEntity
  8
1
100
AcDbPolyline
 90
        3
 70
     0
 43
0.0
 10
50.44711407360001
 20
2.226472435699985
 10
50.31486418980001
 20
2.245531796099989
 10
50.09999999999999
 20
2.275568084199971
  0
LINE
  5
63DE6
330
1F
100
AcDbEntity
  8
sk3
100
AcDbLine
 10
46.79999978639997
 20
-10.00000000000001
 30
0.0
 11
47.80000000000001
 21
-11.000000235
 31
0.0
  0
LINE
  5
63DE7
330
1F
100
AcDbEntity
  8
sk3
100
AcDbLine
 10
26.0
 20
-13.2
 30
0.0
 11
26.0
 21
13.19999999999999
 31
0.0
  0
LINE
  5
63DE8
330
1F
100
AcDbEntity
  8
1
100
AcDbLine
 10
50.11097702939998
 20
10.22120610719996
 30
0.0
 11
50.06438304279999
 21
10.21028353739996
 31
0.0
  0
LINE
  5
63DE9
330
1F
100
AcDbEntity
  8
1
100
AcDbLine
 10
49.96198387620001
 20
9.197852482000012
 30
0.0
 11
50.00399619809994
 21
9.20134212169999
 31
0.0
  0
LINE
  5
63DEA
330
1F
100
AcDbEntity
  8
sk3
100
AcDbLine
 10
26.0
 20
6.850000000000008
 30
0.0
 11
33.4999999195
 21
6.850000000000008
 31
0.0
  0
LINE
  5
63DEB
330
1F
100
AcDbEntity
  8
sk3
100
AcDbLine
 10
34.0
 20
9.999999999999985
 30
0.0
 11
46.79999978639997
 21
9.999999999999978
 31
0.0
  0
LINE
  5
63DEC
330
1F
100
AcDbEntity
  8
1
100
AcDbLine
 10
50.5384899897
 20
-0.6980416276000377
 30
0.0
 11
50.67466499989996
 21
-0.7806955679000005
 31
0.0
  0
LINE
  5
63DED
330
1F
100
AcDbEntity
  8
sk3
100
AcDbLine
 10
4.0
 20
12.7
 30
0.0
 11
14.92774653980001
 21
12.69999999999999
 31
0.0
  0
LINE
  5
63DEE
330
1F
100
AcDbEntity
  8
sk3
100
AcDbLine
 10
1.199999850899985
 20
-13.10000000000001
 30
0.0
 11
0.0
 21
-14.29999983720002
 31
0.0
  0
LINE
  5
63DEF
330
1F
100
AcDbEntity
  8
sk3
100
AcDbLine
 10
1.199999851699999
 20
13.10000000000001
 30
0.0
 11
4.0
 21
13.10000000000001
 31
0.0
  0
LINE
  5
63DF0
330
1F
100
AcDbEntity
  8
sk3
100
AcDbLine
 10
16.0
 20
13.19999999999999
 30
0.0
 11
26.0
 21
13.19999999999999
 31
0.0
  0
LINE
  5
63DF1
330
1F
100
AcDbEntity
  8
1
100
AcDbLine
 10
50.75552531930004
 20
0.6274272403999639
 30
0.0
 11
50.52490678189994
 21
0.8221058261999978
 31
0.0
  0
LWPOLYLINE
  5
63DF2
330
1F
100
AcDbEntity
  8
1
100
AcDbPolyline
 90
       11
 70
     0
 43
0.0
 10
50.24335382989997
 20
-7.893763000199999
 10
50.21773123180003
 20
-7.841435503100015
 10
50.19307218499998
 20
-7.788385307900014
 10
50.16939586230001
 20
-7.734633643899984
 10
50.14670169969995
 20
-7.680153058800003
 10
50.1250312286
 20
-7.62501445460002
 10
50.10445808380001
 20
-7.5693910502
 10
50.08499826330001
 20
-7.513324913400015
 10
50.06665696200002
 20
-7.456828003199991
 10
50.04947627079997
 20
-7.400034212400029
 10
50.04046873409999
 20
-7.367940959200028
  0
LINE
  5
63DF3
330
1F
100
AcDbEntity
  8
1
100
AcDbLine
 10
50.29987800479998
 20
-8.030358923300031
 30
0.0
 11
50.32723581250002
 21
-8.092165662900004
 31
0.0
  0
LINE
  5
63DF4
330
1F
100
AcDbEntity
  8
1
100
AcDbLine
 10
50.28703099380002
 20
-8.000320551500026
 30
0.0
 11
50.29987800479998
 21
-8.030358923300031
 31
0.0
  0
LINE
  5
63DF5
330
1F
100
AcDbEntity
  8
1
100
AcDbLine
 10
50.27580058439998
 20
-7.97364705350002
 30
0.0
 11
50.28703099380002
 21
-8.000320551500026
 31
0.0
  0
LINE
  5
63DF6
330
1F
100
AcDbEntity
  8
1
100
AcDbLine
 10
50.26477781239996
 20
-7.946993152800034
 30
0.0
 11
50.27580058439998
 21
-7.97364705350002
 31
0.0
  0
LINE
  5
63DF7
330
1F
100
AcDbEntity
  8
sk3
100
AcDbLine
 10
16.0
 20
13.19999999999999
 30
0.0
 11
16.0
 21
-13.2
 31
0.0
  0
LINE
  5
63DF8
330
1F
100
AcDbEntity
  8
sk3
100
AcDbLine
 10
14.92774653980001
 20
12.69999999999999
 30
0.0
 11
14.92774653980001
 21
-12.7
 31
0.0
  0
LINE
  5
63DF9
330
1F
100
AcDbEntity
  8
1
100
AcDbLine
 10
4.560000000000002
 20
-4.762500000000001
 30
0.0
 11
5.560000000000002
 21
-3.762500000000001
 31
0.0
  0
LWPOLYLINE
  5
63DFA
330
1F
100
AcDbEntity
  8
1
100
AcDbPolyline
 90
        4
 70
     0
 43
0.0
 10
50.24335382989997
 20
-7.893763000199999
 10
50.24863215189999
 20
-7.907060530100025
 10
50.2539622621
 20
-7.920364651599999
 10
50.26477781239996
 20
-7.946993152800034
  0
LINE
  5
63DFB
330
1F
100
AcDbEntity
  8
1
100
AcDbLine
 10
0.0
 20
-5.262500000000001
 30
0.0
 11
0.5
 21
-4.762500000000001
 31
0.0
  0
LINE
  5
63DFC
330
1F
100
AcDbEntity
  8
sk3
100
AcDbLine
 10
14.92774653980001
 20
12.69999999999999
 30
0.0
 11
16.0
 21
13.19999999999999
 31
0.0
  0
LWPOLYLINE
  5
63DFD
330
1F
100
AcDbEntity
  8
1
100
AcDbPolyline
 90
       19
 70
     0
 43
0.0
 10
49.94691246619999
 20
6.905954366100001
 10
49.95179411009994
 20
6.899055604399976
 10
49.9686134758
 20
6.874636232100002
 10
49.98445370590002
 20
6.850941564199967
 10
49.9992953025
 20
6.827971762599968
 10
50.01313820709999
 20
6.805702485199997
 10
50.02598040099994
 20
6.784135173799977
 10
50.0378193537
 20
6.76324957369998
 10
50.04864324700003
 20
6.743047543499965
 10
50.05843739649995
 20
6.723565169399968
 10
50.06718995610004
 20
6.704805703399991
 10
50.07490304599994
 20
6.686753082799988
 10
50.08158411860001
 20
6.669415913899978
 10
50.08723046070002
 20
6.652787349399982
 10
50.09183961259996
 20
6.636867306199981
 10
50.09542055879999
 20
6.621676056499961
 10
50.09797599249998
 20
6.607219948999965
 10
50.09950228719995
 20
6.59349137569999
 10
50.09999999999999
 20
6.580491088199984
  0
LINE
  5
63DFE
330
1F
100
AcDbEntity
  8
1
100
AcDbLine
 10
50.75552531930004
 20
0.6274272403999639
 30
0.0
 11
50.7980056422
 21
0.5309920421999657
 31
0.0
  0
LWPOLYLINE
  5
63DFF
330
1F
100
AcDbEntity
  8
1
100
AcDbPolyline
 90
        7
 70
     0
 43
0.0
 10
50.43295384980002
 20
2.284759855499977
 10
50.43635430380001
 20
2.275119541399995
 10
50.4370383191
 20
2.273012562399976
 10
50.43766631210002
 20
2.27091327110001
 10
50.43823828269998
 20
2.268821667499999
 10
50.43875423090003
 20
2.266737751599986
 10
50.43921415670002
 20
2.26466152339999
  0
LINE
  5
63E00
330
1F
100
AcDbEntity
  8
1
100
AcDbLine
 10
50.29987800479998
 20
10.85654392739997
 30
0.0
 11
50.32723581250002
 21
10.82123996239998
 31
0.0
  0
LWPOLYLINE
  5
63E01
330
1F
100
AcDbEntity
  8
1
100
AcDbPolyline
 90
       10
 70
     0
 43
0.0
 10
50.24335382989997
 20
10.93727320009999
 10
50.24863215189999
 20
10.92926015539996
 10
50.2539622621
 20
10.92127692489997
 10
50.25934416050001
 20
10.91332350860001
 10
50.26477781239996
 20
10.90539945949999
 10
50.27026325239998
 20
10.89750522459998
 10
50.27580058439998
 20
10.88964214499999
 10
50.28138984309999
 20
10.8818106677
 10
50.28703099380002
 20
10.87401034569999
 10
50.29987800479998
 20
10.85654392739997
  0
LINE
  5
63E02
330
1F
100
AcDbEntity
  8
1
100
AcDbLine
 10
50.292231512
 20
10.86922462279998
 30
0.0
 11
50.29987800479998
 21
10.85654392739997
 31
0.0
  0
LINE
  5
63E03
330
1F
100
AcDbEntity
  8
1
100
AcDbLine
 10
50.27264051860001
 20
11.06178507939999
 30
0.0
 11
50.09999999999999
 21
11.35982851779997
 31
0.0
  0
LWPOLYLINE
  5
63E04
330
1F
100
AcDbEntity
  8
1
100
AcDbPolyline
 90
        8
 70
     0
 43
0.0
 10
50.24335382989997
 20
10.93727320009999
 10
50.21773123180003
 20
10.98509609559997
 10
50.19307218499998
 20
11.03351235669996
 10
50.16939586230001
 20
11.08249960259998
 10
50.14670169969995
 20
11.1320796673
 10
50.1250312286
 20
11.18218475209998
 10
50.10445808380001
 20
11.23265449279998
 10
50.09999999999999
 20
11.2442908727
  0
LWPOLYLINE
  5
63E05
330
1F
100
AcDbEntity
  8
1
100
AcDbPolyline
 90
       10
 70
     0
 43
0.0
 10
50.13334391590001
 20
11.17720037509998
 10
50.14900462510002
 20
11.1418603398
 10
50.16517852549995
 20
11.10678244119998
 10
50.18185887099995
 20
11.07197513289996
 10
50.19903810380004
 20
11.03744842419997
 10
50.21671038539998
 20
11.00320876119998
 10
50.23487186110003
 20
10.96925912859999
 10
50.25351715710002
 20
10.93560583860001
 10
50.27263911570003
 20
10.90225843069999
 10
50.292231512
 20
10.86922462279998
  0
LINE
  5
63E06
330
1F
100
AcDbEntity
  8
1
100
AcDbLine
 10
5.560000000000002
 20
-3.762500000000001
 30
0.0
 11
5.560000000000002
 21
3.762499999999999
 31
0.0
  0
LINE
  5
63E07
330
1F
100
AcDbEntity
  8
sk3
100
AcDbLine
 10
4.0
 20
-13.10000000000001
 30
0.0
 11
4.0
 21
-4.762500000000001
 31
0.0
  0
LINE
  5
63E08
330
1F
100
AcDbEntity
  8
sk3
100
AcDbLine
 10
4.0
 20
4.762500000000002
 30
0.0
 11
4.0
 21
13.10000000000001
 31
0.0
  0
LINE
  5
63E09
330
1F
100
AcDbEntity
  8
sk3
100
AcDbLine
 10
1.199999851699999
 20
13.10000000000001
 30
0.0
 11
1.199999999999988
 21
4.762500000000002
 31
0.0
  0
LINE
  5
63E0A
330
1F
100
AcDbEntity
  8
sk3
100
AcDbLine
 10
1.199999999999988
 20
-4.762500000000001
 30
0.0
 11
1.199999850899985
 21
-13.10000000000001
 31
0.0
  0
LINE
  5
63E0B
330
1F
100
AcDbEntity
  8
1
100
AcDbLine
 10
0.0
 20
-18.165005588
 30
0.0
 11
0.0
 21
-5.262500000000001
 31
0.0
  0
LINE
  5
63E0C
330
1F
100
AcDbEntity
  8
1
100
AcDbLine
 10
0.0
 20
5.262500000000002
 30
0.0
 11
0.0
 21
18.165005588
 31
0.0
  0
LWPOLYLINE
  5
63E0D
330
1F
100
AcDbEntity
  8
1
100
AcDbPolyline
 90
       15
 70
     0
 43
0.0
 10
50.09999999999999
 20
18.41728920519998
 10
50.14448750309995
 20
18.666067302
 10
50.21685362260001
 20
19.11057418269999
 10
50.2819362326
 20
19.55409250769998
 10
50.33975696610003
 20
19.99670956479998
 10
50.39034893830001
 20
20.43855912069998
 10
50.43373576490001
 20
20.87968404629997
 10
50.4699199686
 20
21.32012726399997
 10
50.49889437619999
 20
21.76002157399997
 10
50.5206312421
 20
22.19935284159999
 10
50.53510339000002
 20
22.63797504879996
 10
50.54229337800001
 20
23.07582154239996
 10
50.54218054489997
 20
23.51288558950002
 10
50.5347237382
 20
23.94933943279999
 10
50.51987621630002
 20
24.38538556479999
  0
LWPOLYLINE
  5
63E0E
330
1F
100
AcDbEntity
  8
1
100
AcDbPolyline
 90
        5
 70
     0
 43
0.0
 10
50.43295384980002
 20
32.95330980409999
 10
50.43635430380001
 20
32.93310622989999
 10
50.4370383191
 20
32.92866794409999
 10
50.43766631210002
 20
32.9242254041
 10
50.43823828269998
 20
32.91977861009999
  0
LWPOLYLINE
  5
63E0F
330
1F
100
AcDbEntity
  8
1
100
AcDbPolyline
 90
        4
 70
     0
 43
0.0
 10
50.45639999209999
 20
32.81725789309998
 10
50.45099672499998
 20
32.84985891299998
 10
50.44546476029998
 20
32.88223617549999
 10
50.44087075119313
 20
32.90834009483857
  0
LINE
  5
63E10
330
1F
100
AcDbEntity
  8
1
100
AcDbLine
 10
50.46781089759995
 20
34.33904618039996
 30
0.0
 11
50.44991115597821
 21
34.44906842738013
 31
0.0
  0
LINE
  5
63E11
330
1F
100
AcDbEntity
  8
1
100
AcDbLine
 10
50.44991115597821
 20
34.44906842738013
 30
0.0
 11
50.33376338720001
 21
35.16298032469997
 31
0.0
  0
LWPOLYLINE
  5
63E12
330
1F
100
AcDbEntity
  8
1
100
AcDbPolyline
 90
        8
 70
     0
 43
0.0
 10
50.47630004799995
 20
32.65890469469999
 10
50.47245507000003
 20
32.68325191869998
 10
50.46850201339996
 20
32.70756941200001
 10
50.46444083469999
 20
32.73185714939997
 10
50.46027149559998
 20
32.75611507919997
 10
50.4559939534
 20
32.7803431766
 10
50.45160816109998
 20
32.80454144349999
 10
50.44711407360001
 20
32.82870986849999
  0
LWPOLYLINE
  5
63E13
330
1F
100
AcDbEntity
  8
1
100
AcDbPolyline
 90
       10
 70
     0
 43
0.0
 10
50.48491887540001
 20
34.24825999629998
 10
50.4832874654
 20
34.25870955999999
 10
50.48158746820002
 20
34.26906941860001
 10
50.47981934559999
 20
34.27933906829999
 10
50.47798367069995
 20
34.28951773629997
 10
50.47608096580001
 20
34.2996052793
 10
50.47411167619998
 20
34.30960217989998
 10
50.47207639459998
 20
34.31950834869998
 10
50.46997588380003
 20
34.32932312659999
 10
50.46781089759995
 20
34.33904618039996
  0
LINE
  5
63E14
330
1F
100
AcDbEntity
  8
1
100
AcDbLine
 10
50.48366595670001
 20
32.61012106049999
 30
0.0
 11
50.47630004799995
 21
32.65890469469999
 31
0.0
  0
LWPOLYLINE
  5
63E15
330
1F
100
AcDbEntity
  8
1
100
AcDbPolyline
 90
        4
 70
     0
 43
0.0
 10
50.4277468402
 20
32.98688081289997
 10
50.42808014870002
 20
32.98460290439999
 10
50.43044247739996
 20
32.96899735160001
 10
50.43295384980002
 20
32.95330980409999
  0
LWPOLYLINE
  5
63E16
330
1F
100
AcDbEntity
  8
1
100
AcDbPolyline
 90
        6
 70
     0
 43
0.0
 10
50.48028348899999
 20
32.65906030860002
 10
50.4766715488
 20
32.6847010986
 10
50.47181039140003
 20
32.71815442860003
 10
50.4668095856
 20
32.751401167
 10
50.4616718703
 20
32.7844371266
 10
50.45639999209999
 20
32.81725789309998
  0
LINE
  5
63E17
330
1F
100
AcDbEntity
  8
1
100
AcDbLine
 10
50.49504457790002
 20
32.55044020509997
 30
0.0
 11
50.48012386009995
 21
32.66018132929999
 31
0.0
  0
LINE
  5
63E18
330
1F
100
AcDbEntity
  8
1
100
AcDbLine
 10
50.43823828269998
 20
32.91977861009999
 30
0.0
 11
50.43875423090003
 21
32.915327562
 31
0.0
  0
LINE
  5
63E19
330
1F
100
AcDbEntity
  8
1
100
AcDbLine
 10
50.43875423090003
 20
32.915327562
 30
0.0
 11
50.43921415670002
 21
32.9108722598
 31
0.0
  0
LWPOLYLINE
  5
63E1A
330
1F
100
AcDbEntity
  8
1
100
AcDbPolyline
 90
        7
 70
     0
 43
0.0
 10
50.41699952900001
 20
33.0764678945
 10
50.41848384680003
 20
33.06137494879998
 10
50.42011314550001
 20
33.04619484869999
 10
50.42188742499999
 20
33.03092759419998
 10
50.42380533110002
 20
33.0155714655
 10
50.425868218
 20
33.0001281823
 10
50.4277468402
 20
32.98688081289997
  0
LINE
  5
63E1B
330
1F
100
AcDbEntity
  8
1
100
AcDbLine
 10
50.43921415670002
 20
32.9108722598
 30
0.0
 11
50.44711407360001
 21
32.82870986849999
 31
0.0
  0
LWPOLYLINE
  5
63E1C
330
1F
100
AcDbEntity
  8
1
100
AcDbPolyline
 90
        3
 70
     0
 43
0.0
 10
50.51977681969995
 20
32.31669058989998
 10
50.50857177529997
 20
32.43382487919998
 10
50.49504457790002
 20
32.55044020509997
  0
LWPOLYLINE
  5
63E1D
330
1F
100
AcDbEntity
  8
1
100
AcDbPolyline
 90
       10
 70
     0
 43
0.0
 10
50.51987621630002
 20
32.3031912794
 10
50.51668700750003
 20
32.33745722139999
 10
50.51329015030001
 20
32.37168277629999
 10
50.5096852268
 20
32.4058678393
 10
50.50587169949998
 20
32.44001234360001
 10
50.50184926239999
 20
32.4741161507
 10
50.49761785020002
 20
32.50817904430002
 10
50.49317716639999
 20
32.54220087919997
 10
50.48852667469995
 20
32.57618158669997
 10
50.48366595670001
 20
32.61012106049999
  0
LINE
  5
63E1E
330
1F
100
AcDbEntity
  8
1
100
AcDbLine
 10
50.51987621630002
 20
32.3031912794
 30
0.0
 11
50.51977681969995
 21
32.31669058989998
 31
0.0
  0
LINE
  5
63E1F
330
1F
100
AcDbEntity
  8
1
100
AcDbLine
 10
50.53357880639999
 20
32.11684576989997
 30
0.0
 11
50.51987621630002
 21
32.3031912794
 31
0.0
  0
LINE
  5
63E20
330
1F
100
AcDbEntity
  8
1
100
AcDbLine
 10
50.50184926239999
 20
24.74807293619999
 30
0.0
 11
50.49317716639999
 21
24.893217033
 31
0.0
  0
LINE
  5
63E21
330
1F
100
AcDbEntity
  8
1
100
AcDbLine
 10
50.44991115599995
 20
34.449068427
 30
0.0
 11
50.39281543750002
 21
35.4468243318
 31
0.0
  0
LINE
  5
63E22
330
1F
100
AcDbEntity
  8
1
100
AcDbLine
 10
50.5096852268
 20
24.60296574819999
 30
0.0
 11
50.50184926239999
 21
24.74807293619999
 31
0.0
  0
LWPOLYLINE
  5
63E23
330
1F
100
AcDbEntity
  8
1
100
AcDbPolyline
 90
       10
 70
     0
 43
0.0
 10
50.41144213259994
 20
33.15441217319999
 10
50.41187716529996
 20
33.14584449249999
 10
50.41235765290003
 20
33.137253347
 10
50.41288359539999
 20
33.1286387368
 10
50.4134547809
 20
33.1200003071
 10
50.41407142130004
 20
33.11133841259998
 10
50.41473415280001
 20
33.1026541177
 10
50.41544318719994
 20
33.09394777709999
 10
50.41619831259999
 20
33.08521903599997
 10
50.41699952900001
 20
33.0764678945
  0
LWPOLYLINE
  5
63E24
330
1F
100
AcDbEntity
  8
1
100
AcDbPolyline
 90
       10
 70
     0
 43
0.0
 10
50.41144213259994
 20
25.83830575709999
 10
50.41187716529996
 20
25.8296738335
 10
50.41235765290003
 20
25.82101377969998
 10
50.41288359539999
 20
25.81232559569999
 10
50.4134547809
 20
25.8036089475
 10
50.41407142130004
 20
25.79486416919998
 10
50.41473415280001
 20
25.78609226299999
 10
50.41544318719994
 20
25.77729356299999
 10
50.41619831259999
 20
25.76846773499999
 10
50.41699952900001
 20
25.75961477919998
  0
LWPOLYLINE
  5
63E25
330
1F
100
AcDbEntity
  8
1
100
AcDbPolyline
 90
        3
 70
     0
 43
0.0
 10
50.51987621630002
 20
24.38538556479999
 10
50.51668700750003
 20
24.45790091389999
 10
50.5096852268
 20
24.60296574819999
  0
LINE
  5
63E26
330
1F
100
AcDbEntity
  8
1
100
AcDbLine
 10
50.3658255272
 20
26.5109398753
 30
0.0
 11
50.36489590099998
 21
26.53537318619998
 31
0.0
  0
LINE
  5
63E27
330
1F
100
AcDbEntity
  8
1
100
AcDbLine
 10
50.36489590099998
 20
26.53537318619998
 30
0.0
 11
50.36191325300001
 21
26.627006165
 31
0.0
  0
LWPOLYLINE
  5
63E28
330
1F
100
AcDbEntity
  8
1
100
AcDbPolyline
 90
       10
 70
     0
 43
0.0
 10
50.50299937590001
 20
34.02113770509997
 10
50.50233402040001
 20
34.04790410599999
 10
50.50134794079998
 20
34.07431461520001
 10
50.5000317546
 20
34.10035631679999
 10
50.49837807489996
 20
34.12601740419997
 10
50.49638144059994
 20
34.1512868809
 10
50.49403824540002
 20
34.17615452329999
 10
50.4913466278
 20
34.20061119230001
 10
50.48830637649993
 20
34.22464879649999
 10
50.48491887540001
 20
34.24825999629998
  0
LINE
  5
63E29
330
1F
100
AcDbEntity
  8
1
100
AcDbLine
 10
50.79704341439998
 20
27.365600595
 30
0.0
 11
50.79653208680003
 21
27.38869012069998
 31
0.0
  0
LWPOLYLINE
  5
63E2A
330
1F
100
AcDbEntity
  8
1
100
AcDbPolyline
 90
       10
 70
     0
 43
0.0
 10
50.4001407792
 20
25.99406668469998
 10
50.40042938949998
 20
25.97762836360001
 10
50.40095833659998
 20
25.96097274860002
 10
50.4017276205
 20
25.94409983979999
 10
50.40273532519998
 20
25.92700939489997
 10
50.40398336659999
 20
25.9097016562
 10
50.40547749329997
 20
25.89217735039996
 10
50.4072196212
 20
25.87443671979999
 10
50.40920783429999
 20
25.85647952200002
 10
50.41144213259994
 20
25.83830575709999
  0
LINE
  5
63E2B
330
1F
100
AcDbEntity
  8
1
100
AcDbLine
 10
50.79744886579999
 20
27.3422077968
 30
0.0
 11
50.79704341439998
 21
27.365600595
 31
0.0
  0
LWPOLYLINE
  5
63E2C
330
1F
100
AcDbEntity
  8
1
100
AcDbPolyline
 90
       10
 70
     0
 43
0.0
 10
50.50299937590001
 20
25.79847674049999
 10
50.50233402040001
 20
25.84857042700001
 10
50.50134794079998
 20
25.89792949270002
 10
50.5000317546
 20
25.94654707329998
 10
50.49837807489996
 20
25.99441703410001
 10
50.49638144059994
 20
26.04153346229999
 10
50.49403824540002
 20
26.08789064590001
 10
50.4913466278
 20
26.13348370239997
 10
50.48830637649993
 20
26.17830855769998
 10
50.48491887540001
 20
26.22236144009999
  0
LWPOLYLINE
  5
63E2D
330
1F
100
AcDbEntity
  8
1
100
AcDbPolyline
 90
        8
 70
     0
 43
0.0
 10
50.50299937590001
 20
34.02113770509997
 10
50.50333903119997
 20
33.9930541639
 10
50.50333797830001
 20
33.96496850180002
 10
50.50306803069998
 20
33.9373439118
 10
50.50259758569999
 20
33.91086774559999
 10
50.50197788540001
 20
33.8855311693
 10
50.50122501599995
 20
33.86063691529999
 10
50.50036377719999
 20
33.83637082489999
  0
LINE
  5
63E2E
330
1F
100
AcDbEntity
  8
1
100
AcDbLine
 10
50.79774898779996
 20
27.31851974869999
 30
0.0
 11
50.79744886579999
 21
27.3422077968
 31
0.0
  0
LWPOLYLINE
  5
63E2F
330
1F
100
AcDbEntity
  8
1
100
AcDbPolyline
 90
       10
 70
     0
 43
0.0
 10
50.4001407792
 20
33.46971684510001
 10
50.40042938949998
 20
33.43639138119999
 10
50.40095833659998
 20
33.40263837279998
 10
50.4017276205
 20
33.36845781999999
 10
50.40273532519998
 20
33.33384912629997
 10
50.40398336659999
 20
33.298812888
 10
50.40547749329997
 20
33.26335089469997
 10
50.4072196212
 20
33.22746374270001
 10
50.40920783429999
 20
33.19115083549998
 10
50.41144213259994
 20
33.15441217319999
  0
LWPOLYLINE
  5
63E30
330
1F
100
AcDbEntity
  8
1
100
AcDbPolyline
 90
        3
 70
     0
 43
0.0
 10
50.50299937590001
 20
25.79847674049999
 10
50.50333903119997
 20
25.74594441579997
 10
50.50333797830001
 20
25.6932523691
  0
LINE
  5
63E31
330
1F
100
AcDbEntity
  8
1
100
AcDbLine
 10
50.79653208680003
 20
27.38869012069998
 30
0.0
 11
50.79554511239994
 21
27.50799893059998
 31
0.0
  0
LINE
  5
63E32
330
1F
100
AcDbEntity
  8
1
100
AcDbLine
 10
50.79761186519999
 20
36.70782520559998
 30
0.0
 11
50.79653208680003
 21
36.8489466914
 31
0.0
  0
LWPOLYLINE
  5
63E33
330
1F
100
AcDbEntity
  8
1
100
AcDbPolyline
 90
        3
 70
     0
 43
0.0
 10
50.7980056422
 20
27.28249224719998
 10
50.79794596739995
 20
27.29456854129997
 10
50.79774898779996
 20
27.31851974869999
  0
LINE
  5
63E34
330
1F
100
AcDbEntity
  8
1
100
AcDbLine
 10
50.79554511239994
 20
27.50799893059998
 30
0.0
 11
50.7952205135
 21
27.57290965039998
 31
0.0
  0
LINE
  5
63E35
330
1F
100
AcDbEntity
  8
1
100
AcDbLine
 10
50.79653208680003
 20
36.8489466914
 30
0.0
 11
50.79542450820003
 21
37.16668945939999
 31
0.0
  0
LINE
  5
63E36
330
1F
100
AcDbEntity
  8
1
100
AcDbLine
 10
50.7980056422
 20
36.59928614079998
 30
0.0
 11
50.79761186519999
 21
36.70782520559998
 31
0.0
  0
LINE
  5
63E37
330
1F
100
AcDbEntity
  8
1
100
AcDbLine
 10
50.79542450820003
 20
37.16668945939999
 30
0.0
 11
50.7952205135
 21
37.26328159610002
 31
0.0
  0
LINE
  5
63E38
330
1F
100
AcDbEntity
  8
1
100
AcDbLine
 10
50.09999999999999
 20
18.16499441200001
 30
0.0
 11
50.09999999999999
 21
27.69909317169997
 31
0.0
  0
LINE
  5
63E39
330
1F
100
AcDbEntity
  8
1
100
AcDbLine
 10
50.09999999999999
 20
27.69909317169997
 30
0.0
 11
50.09999999999999
 21
29.2511487968
 31
0.0
  0
LINE
  5
63E3A
330
1F
100
AcDbEntity
  8
1
100
AcDbLine
 10
50.09999999999999
 20
29.2511487968
 30
0.0
 11
50.09999999999999
 21
29.31911806289996
 31
0.0
  0
LINE
  5
63E3B
330
1F
100
AcDbEntity
  8
1
100
AcDbLine
 10
50.09999999999999
 20
29.31911806289996
 30
0.0
 11
50.09999999999999
 21
32.43922582899997
 31
0.0
  0
LINE
  5
63E3C
330
1F
100
AcDbEntity
  8
1
100
AcDbLine
 10
50.7952205135
 20
37.26328159610002
 30
0.0
 11
50.79657203200003
 21
37.4723898516
 31
0.0
  0
LWPOLYLINE
  5
63E3D
330
1F
100
AcDbEntity
  8
1
100
AcDbPolyline
 90
       29
 70
     0
 43
0.0
 10
50.09999999999999
 20
24.59625347859998
 10
50.09976096389999
 20
24.56793971750001
 10
50.09904973790003
 20
24.54061430879996
 10
50.0978751376
 20
24.51427391340001
 10
50.09624464619998
 20
24.48888135719999
 10
50.09416772000003
 20
24.46446634409999
 10
50.09165902860002
 20
24.4411253755
 10
50.08873026180004
 20
24.41885523520002
 10
50.0853929333
 20
24.397649832
 10
50.08166702840004
 20
24.37760073369999
 10
50.07756502609999
 20
24.35869787239999
 10
50.07310223409999
 20
24.34093991619999
 10
50.06830950430003
 20
24.32443117619998
 10
50.06320524430001
 20
24.30917243059999
 10
50.0578062088
 20
24.2951501253
 10
50.05214784649997
 20
24.2824470648
 10
50.04625326299995
 20
24.27106289929998
 10
50.04013959230002
 20
24.26098398939998
 10
50.03383788320002
 20
24.25227286279997
 10
50.02736602189995
 20
24.2449176782
 10
50.02074668300003
 20
24.23891413550001
 10
50.01402185169997
 20
24.23433573860001
 10
50.00721387229993
 20
24.23117561539998
 10
50.00034346540002
 20
24.2294235548
 10
49.9934543121
 20
24.22914813999998
 10
49.98656632209997
 20
24.23034437969999
 10
49.97970305749999
 20
24.23299930250001
 10
49.97291758469995
 20
24.2371702807
 10
49.9693012322
 20
24.24005153820001
  0
LINE
  5
63E3E
330
1F
100
AcDbEntity
  8
1
100
AcDbLine
 10
50.50333797830001
 20
25.6932523691
 30
0.0
 11
50.50259758569999
 21
25.5912598035
 31
0.0
  0
LINE
  5
63E3F
330
1F
100
AcDbEntity
  8
1
100
AcDbLine
 10
50.79657203200003
 20
37.4723898516
 30
0.0
 11
50.79758825489998
 21
37.58419042519999
 31
0.0
  0
LINE
  5
63E40
330
1F
100
AcDbEntity
  8
1
100
AcDbLine
 10
50.7952205135
 20
27.57290965039998
 30
0.0
 11
50.7960219208
 21
27.64262903360002
 31
0.0
  0
LINE
  5
63E41
330
1F
100
AcDbEntity
  8
1
100
AcDbLine
 10
50.50259758569999
 20
25.5912598035
 30
0.0
 11
50.50122501599995
 21
25.49588364919997
 31
0.0
  0
LINE
  5
63E42
330
1F
100
AcDbEntity
  8
1
100
AcDbLine
 10
50.7960219208
 20
27.64262903360002
 30
0.0
 11
50.79758825489998
 21
27.73938531700002
 31
0.0
  0
LINE
  5
63E43
330
1F
100
AcDbEntity
  8
1
100
AcDbLine
 10
50.50122501599995
 20
25.49588364919997
 30
0.0
 11
50.49942012479999
 21
25.40459972110002
 31
0.0
  0
LINE
  5
63E44
330
1F
100
AcDbEntity
  8
1
100
AcDbLine
 10
50.49942012479999
 20
25.40459972110002
 30
0.0
 11
50.49614945259995
 21
25.27265873149999
 31
0.0
  0
LWPOLYLINE
  5
63E45
330
1F
100
AcDbEntity
  8
1
100
AcDbPolyline
 90
        3
 70
     0
 43
0.0
 10
50.49614945259995
 20
25.27265873149999
 10
50.49385962270003
 20
25.19074826959998
 10
50.48806969290001
 20
24.97262625520001
  0
LINE
  5
63E46
330
1F
100
AcDbEntity
  8
1
100
AcDbLine
 10
50.50036377719999
 20
33.83637082489999
 30
0.0
 11
50.49838726959999
 21
33.78973814809997
 31
0.0
  0
LINE
  5
63E47
330
1F
100
AcDbEntity
  8
1
100
AcDbLine
 10
50.49838726959999
 20
33.78973814809997
 30
0.0
 11
50.49614945259995
 21
33.74464582410001
 31
0.0
  0
LINE
  5
63E48
330
1F
100
AcDbEntity
  8
1
100
AcDbLine
 10
50.49188218320001
 20
33.666826505
 30
0.0
 11
50.4784393754
 21
33.39857672569998
 31
0.0
  0
LWPOLYLINE
  5
63E49
330
1F
100
AcDbEntity
  8
1
100
AcDbPolyline
 90
        5
 70
     0
 43
0.0
 10
50.4784393754
 20
33.39857672569998
 10
50.47391522269996
 20
33.31251085779998
 10
50.4688729641
 20
33.22709480739998
 10
50.46290432460001
 20
33.14083968599998
 10
50.45568137909999
 20
33.0528290212
  0
LINE
  5
63E4A
330
1F
100
AcDbEntity
  8
1
100
AcDbLine
 10
50.45818051809999
 20
34.15864973209999
 30
0.0
 11
50.46781089759995
 21
34.33904618039996
 31
0.0
  0
LINE
  5
63E4B
330
1F
100
AcDbEntity
  8
1
100
AcDbLine
 10
50.49614945259995
 20
33.74464582410001
 30
0.0
 11
50.49188218320001
 21
33.666826505
 31
0.0
  0
LWPOLYLINE
  5
63E4C
330
1F
100
AcDbEntity
  8
1
100
AcDbPolyline
 90
       10
 70
     0
 43
0.0
 10
50.45818051809999
 20
34.15864973209999
 10
50.45639826169997
 20
34.13112960989999
 10
50.45433124129997
 20
34.1032361148
 10
50.45197945679999
 20
34.07496924669998
 10
50.44934471179999
 20
34.04632683689998
 10
50.44642520270002
 20
34.0173110542
 10
50.44321551910002
 20
33.987928405
 10
50.43971385750001
 20
33.9581810582
 10
50.43592202150001
 20
33.92806684489999
 10
50.43184001099999
 20
33.89758576519999
  0
LINE
  5
63E4D
330
1F
100
AcDbEntity
  8
1
100
AcDbLine
 10
50.4064523637
 20
33.56898049779998
 30
0.0
 11
50.4001407792
 21
33.46971684510001
 31
0.0
  0
LINE
  5
63E4E
330
1F
100
AcDbEntity
  8
1
100
AcDbLine
 10
50.41317785119995
 20
33.66585666239997
 30
0.0
 11
50.4064523637
 21
33.56898049779998
 31
0.0
  0
LINE
  5
63E4F
330
1F
100
AcDbEntity
  8
1
100
AcDbLine
 10
50.42032047739997
 20
33.76034395829997
 30
0.0
 11
50.41317785119995
 21
33.66585666239997
 31
0.0
  0
LINE
  5
63E50
330
1F
100
AcDbEntity
  8
1
100
AcDbLine
 10
50.78406920019998
 20
27.11079960319998
 30
0.0
 11
50.7980056422
 21
27.28249224719998
 31
0.0
  0
LWPOLYLINE
  5
63E51
330
1F
100
AcDbEntity
  8
1
100
AcDbPolyline
 90
        3
 70
     0
 43
0.0
 10
50.43184001099999
 20
33.89758576519999
 10
50.42789318529995
 20
33.85243686379998
 10
50.42032047739997
 20
33.76034395829997
  0
LINE
  5
63E52
330
1F
100
AcDbEntity
  8
1
100
AcDbLine
 10
50.78406920019998
 20
36.44145945459998
 30
0.0
 11
50.7980056422
 21
36.59928614079998
 31
0.0
  0
LWPOLYLINE
  5
63E53
330
1F
100
AcDbEntity
  8
1
100
AcDbPolyline
 90
        5
 70
     0
 43
0.0
 10
49.91018145689998
 20
24.90971957439997
 10
49.91403377960001
 20
24.95260489369999
 10
49.91825261199998
 20
24.99633108039998
 10
49.92282415390002
 20
25.04091123049999
 10
49.92774181589999
 20
25.08640607379998
  0
LINE
  5
63E54
330
1F
100
AcDbEntity
  8
1
100
AcDbLine
 10
50.45568137909999
 20
33.0528290212
 30
0.0
 11
50.44701186090001
 21
32.96322206929999
 31
0.0
  0
LWPOLYLINE
  5
63E55
330
1F
100
AcDbEntity
  8
1
100
AcDbPolyline
 90
       15
 70
     0
 43
0.0
 10
50.05372636379999
 20
26.12049162469997
 10
50.05921675730002
 20
26.17566286090001
 10
50.06445021500002
 20
26.23101450579999
 10
50.0693936934
 20
26.28641922009997
 10
50.07403140829999
 20
26.3418821195
 10
50.07834649430001
 20
26.39740391349999
 10
50.08231076380003
 20
26.45284896430001
 10
50.08591035009999
 20
26.50820417429998
 10
50.08913293899997
 20
26.5634846366
 10
50.09195906849999
 20
26.6185954743
 10
50.09437764489994
 20
26.67352049270001
 10
50.09637900500002
 20
26.72827455
 10
50.09795061259999
 20
26.78280816189998
 10
50.09908334890003
 20
26.83710338809998
 10
50.09976938290001
 20
26.89117406159998
  0
LINE
  5
63E56
330
1F
100
AcDbEntity
  8
1
100
AcDbLine
 10
50.04205566360003
 20
26.01072430869998
 30
0.0
 11
50.05372636379999
 21
26.12049162469997
 31
0.0
  0
LINE
  5
63E57
330
1F
100
AcDbEntity
  8
1
100
AcDbLine
 10
50.44701186090001
 20
32.96322206929999
 30
0.0
 11
50.44087075120001
 21
32.90834009489997
 31
0.0
  0
LINE
  5
63E58
330
1F
100
AcDbEntity
  8
1
100
AcDbLine
 10
50.0296104102
 20
25.90175484489997
 30
0.0
 11
50.04205566360003
 21
26.01072430869998
 31
0.0
  0
LINE
  5
63E59
330
1F
100
AcDbEntity
  8
1
100
AcDbLine
 10
49.92774181589999
 20
25.08640607379998
 30
0.0
 11
49.9384966783
 21
25.1799071286
 31
0.0
  0
LINE
  5
63E5A
330
1F
100
AcDbEntity
  8
1
100
AcDbLine
 10
50.01656973109999
 20
25.7936770486
 30
0.0
 11
50.0296104102
 21
25.90175484489997
 31
0.0
  0
LINE
  5
63E5B
330
1F
100
AcDbEntity
  8
1
100
AcDbLine
 10
49.9384966783
 20
25.1799071286
 30
0.0
 11
49.9502927563
 21
25.27647294840001
 31
0.0
  0
LINE
  5
63E5C
330
1F
100
AcDbEntity
  8
1
100
AcDbLine
 10
50.67466499989996
 20
26.25841906099997
 30
0.0
 11
50.7087096479
 21
26.52980452789997
 31
0.0
  0
LINE
  5
63E5D
330
1F
100
AcDbEntity
  8
1
100
AcDbLine
 10
49.99635789989998
 20
25.63375442009998
 30
0.0
 11
50.01656973109999
 21
25.7936770486
 31
0.0
  0
LINE
  5
63E5E
330
1F
100
AcDbEntity
  8
1
100
AcDbLine
 10
50.7087096479
 20
26.52980452789997
 30
0.0
 11
50.74292000349996
 21
26.7969332716
 31
0.0
  0
LWPOLYLINE
  5
63E5F
330
1F
100
AcDbEntity
  8
1
100
AcDbPolyline
 90
        3
 70
     0
 43
0.0
 10
49.9502927563
 20
25.27647294840001
 10
49.97607370489999
 20
25.47749987759998
 10
49.99635789989998
 20
25.63375442009998
  0
LWPOLYLINE
  5
63E60
330
1F
100
AcDbEntity
  8
1
100
AcDbPolyline
 90
       10
 70
     0
 43
0.0
 10
50.45818051809999
 20
26.33216263499999
 10
50.45639826169997
 20
26.3186425462
 10
50.45433124129997
 20
26.30494607519999
 10
50.45197945679999
 20
26.29107322189998
 10
50.44934471179999
 20
26.27702286829997
 10
50.44642520270002
 20
26.26279613239997
 10
50.44321551910002
 20
26.2483963685
 10
50.43971385750001
 20
26.23382469469998
 10
50.43592202150001
 20
26.21907999279998
 10
50.4322408534
 20
26.20558894669998
  0
LINE
  5
63E61
330
1F
100
AcDbEntity
  8
1
100
AcDbLine
 10
50.74292000349996
 20
26.7969332716
 30
0.0
 11
50.77733573969999
 21
27.0599968678
 31
0.0
  0
LINE
  5
63E62
330
1F
100
AcDbEntity
  8
1
100
AcDbLine
 10
50.77733573969999
 20
27.0599968678
 30
0.0
 11
50.78406920019998
 21
27.11079960319998
 31
0.0
  0
LINE
  5
63E63
330
1F
100
AcDbEntity
  8
1
100
AcDbLine
 10
50.36191325300001
 20
35.36515368520002
 30
0.0
 11
50.33376338720001
 21
35.16298032469997
 31
0.0
  0
LINE
  5
63E64
330
1F
100
AcDbEntity
  8
1
100
AcDbLine
 10
50.45818051809999
 20
26.33216263499999
 30
0.0
 11
50.46781089759995
 21
26.39215211079998
 31
0.0
  0
LWPOLYLINE
  5
63E65
330
1F
100
AcDbEntity
  8
1
100
AcDbPolyline
 90
       10
 70
     0
 43
0.0
 10
50.43184001099999
 20
26.20416226289997
 10
50.42789318529995
 20
26.18200917340001
 10
50.42405334079998
 20
26.15955817599998
 10
50.42032047739997
 20
26.13680927059998
 10
50.41669567370002
 20
26.11376220119998
 10
50.41317785119995
 20
26.09041722389999
 10
50.40976377399999
 20
26.06677510679998
 10
50.4064523637
 20
26.04283610590001
 10
50.40324469869998
 20
26.01859996520001
 10
50.4001407792
 20
25.99406668469998
  0
LINE
  5
63E66
330
1F
100
AcDbEntity
  8
1
100
AcDbLine
 10
50.32723581250002
 20
28.34166955939998
 30
0.0
 11
50.22940209450002
 21
27.84118158930001
 31
0.0
  0
LINE
  5
63E67
330
1F
100
AcDbEntity
  8
1
100
AcDbLine
 10
50.49449492029999
 20
26.34321170489999
 30
0.0
 11
50.47947760989996
 21
26.28394199960001
 31
0.0
  0
LINE
  5
63E68
330
1F
100
AcDbEntity
  8
1
100
AcDbLine
 10
50.51297094739997
 20
26.41458699819998
 30
0.0
 11
50.49449492029999
 21
26.34321170489999
 31
0.0
  0
LINE
  5
63E69
330
1F
100
AcDbEntity
  8
1
100
AcDbLine
 10
50.52868606509995
 20
26.4739304637
 30
0.0
 11
50.51297094739997
 21
26.41458699819998
 31
0.0
  0
LINE
  5
63E6A
330
1F
100
AcDbEntity
  8
1
100
AcDbLine
 10
50.54062203269999
 20
26.51811437149998
 30
0.0
 11
50.52868606509995
 21
26.4739304637
 31
0.0
  0
LINE
  5
63E6B
330
1F
100
AcDbEntity
  8
1
100
AcDbLine
 10
50.55376005969995
 20
26.56577145059997
 30
0.0
 11
50.54062203269999
 21
26.51811437149998
 31
0.0
  0
LINE
  5
63E6C
330
1F
100
AcDbEntity
  8
1
100
AcDbLine
 10
50.43170005809995
 20
26.20366737159999
 30
0.0
 11
50.4322408534
 21
26.20558894669998
 31
0.0
  0
LINE
  5
63E6D
330
1F
100
AcDbEntity
  8
1
100
AcDbLine
 10
50.56803993089997
 20
26.61639972789997
 30
0.0
 11
50.55376005969995
 21
26.56577145059997
 31
0.0
  0
LINE
  5
63E6E
330
1F
100
AcDbEntity
  8
1
100
AcDbLine
 10
50.58313359419995
 20
26.6685866237
 30
0.0
 11
50.56803993089997
 21
26.61639972789997
 31
0.0
  0
LINE
  5
63E6F
330
1F
100
AcDbEntity
  8
1
100
AcDbLine
 10
50.59879829319999
 20
26.72153757209998
 30
0.0
 11
50.58313359419995
 21
26.6685866237
 31
0.0
  0
LINE
  5
63E70
330
1F
100
AcDbEntity
  8
1
100
AcDbLine
 10
50.6149599387
 20
26.77499762539996
 30
0.0
 11
50.59879829319999
 21
26.72153757209998
 31
0.0
  0
LINE
  5
63E71
330
1F
100
AcDbEntity
  8
sk3
100
AcDbLine
 10
48.01972895899993
 20
21.31650747509998
 30
0.0
 11
49.88027104100002
 21
27.38349252499999
 31
0.0
  0
LINE
  5
63E72
330
1F
100
AcDbEntity
  8
1
100
AcDbLine
 10
50.63173238599998
 20
26.8293179825
 30
0.0
 11
50.6149599387
 21
26.77499762539996
 31
0.0
  0
LINE
  5
63E73
330
1F
100
AcDbEntity
  8
1
100
AcDbLine
 10
50.64928303319999
 20
26.88489238879997
 30
0.0
 11
50.63173238599998
 21
26.8293179825
 31
0.0
  0
LINE
  5
63E74
330
1F
100
AcDbEntity
  8
1
100
AcDbLine
 10
50.66761914859998
 20
26.94159897129997
 30
0.0
 11
50.64928303319999
 21
26.88489238879997
 31
0.0
  0
LINE
  5
63E75
330
1F
100
AcDbEntity
  8
1
100
AcDbLine
 10
50.68662855770003
 20
26.99900026559998
 30
0.0
 11
50.66761914859998
 21
26.94159897129997
 31
0.0
  0
LWPOLYLINE
  5
63E76
330
1F
100
AcDbEntity
  8
1
100
AcDbPolyline
 90
       14
 70
     0
 43
0.0
 10
50.09999999999999
 20
29.31911806289996
 10
50.14448750309995
 20
29.45027192299999
 10
50.21685362260001
 20
29.68281137099997
 10
50.2819362326
 20
29.91302335149998
 10
50.33975696610003
 20
30.14095448129996
 10
50.39034893830001
 20
30.36667848059999
 10
50.43373576490001
 20
30.59022507099998
 10
50.4699199686
 20
30.8116269332
 10
50.49889437619999
 20
31.03095957770002
 10
50.5206312421
 20
31.24822461909999
 10
50.53510339000002
 20
31.46336841669998
 10
50.54229337800001
 20
31.6763801236
 10
50.54218054489997
 20
31.88727915779998
 10
50.53357880639999
 20
32.11684576989997
  0
LINE
  5
63E77
330
1F
100
AcDbEntity
  8
1
100
AcDbLine
 10
50.70609921179999
 20
27.05647923809998
 30
0.0
 11
50.68662855770003
 21
26.99900026559998
 31
0.0
  0
LINE
  5
63E78
330
1F
100
AcDbEntity
  8
1
100
AcDbLine
 10
50.72584724590001
 20
27.11348755389999
 30
0.0
 11
50.70609921179999
 21
27.05647923809998
 31
0.0
  0
LINE
  5
63E79
330
1F
100
AcDbEntity
  8
1
100
AcDbLine
 10
50.36191325300001
 20
26.627006165
 30
0.0
 11
50.33376338720001
 21
26.54828434860001
 31
0.0
  0
LWPOLYLINE
  5
63E7A
330
1F
100
AcDbEntity
  8
1
100
AcDbPolyline
 90
        3
 70
     0
 43
0.0
 10
50.75552531930004
 20
27.19675281700002
 10
50.74564581489998
 20
27.16935326129996
 10
50.72584724590001
 20
27.11348755389999
  0
LINE
  5
63E7B
330
1F
100
AcDbEntity
  8
1
100
AcDbLine
 10
50.75552531930004
 20
27.19675281700002
 30
0.0
 11
50.42505462239998
 21
26.4419526098
 31
0.0
  0
LINE
  5
63E7C
330
1F
100
AcDbEntity
  8
1
100
AcDbLine
 10
50.75552531930004
 20
27.19675281700002
 30
0.0
 11
50.7980056422
 21
27.28249224719998
 31
0.0
  0
LINE
  5
63E7D
330
1F
100
AcDbEntity
  8
1
100
AcDbLine
 10
50.75552531930004
 20
27.19675281700002
 30
0.0
 11
50.36191325300001
 21
26.627006165
 31
0.0
  0
LWPOLYLINE
  5
63E7E
330
1F
100
AcDbEntity
  8
1
100
AcDbPolyline
 90
       18
 70
     0
 43
0.0
 10
50.62720934319995
 20
26.07142601469998
 10
50.62890978550001
 20
26.07367717999999
 10
50.63086949000001
 20
26.07701726149998
 10
50.63288838899996
 20
26.08122344339999
 10
50.634960406
 20
26.0863002007
 10
50.63709161770001
 20
26.0922430584
 10
50.6393002538
 20
26.0990385907
 10
50.64158309739998
 20
26.10665227610001
 10
50.64394336539999
 20
26.11511863610001
 10
50.6464089392
 20
26.12452780969999
 10
50.64897802119998
 20
26.13485451829998
 10
50.65165240899998
 20
26.14612404039998
 10
50.65446537619997
 20
26.1585023514
 10
50.65741523239998
 20
26.17196957879996
 10
50.66050366799996
 20
26.186545595
 10
50.66376902809998
 20
26.20245599219997
 10
50.66722409430003
 20
26.21977596759997
 10
50.67466499989996
 20
26.25841906099997
  0
LWPOLYLINE
  5
63E7F
330
1F
100
AcDbEntity
  8
1
100
AcDbPolyline
 90
        5
 70
     0
 43
0.0
 10
50.50055589689995
 20
25.9271861882
 10
50.52292482320002
 20
25.95381779200001
 10
50.56241956829999
 20
25.99942582999999
 10
50.6038038229
 20
26.0457933796
 10
50.62720831019999
 20
26.07141406020001
  0
LINE
  5
63E80
330
1F
100
AcDbEntity
  8
1
100
AcDbLine
 10
50.62700927569998
 20
26.07120319879998
 30
0.0
 11
50.62720934319995
 21
26.07142601469998
 31
0.0
  0
LWPOLYLINE
  5
63E81
330
1F
100
AcDbEntity
  8
1
100
AcDbPolyline
 90
       19
 70
     0
 43
0.0
 10
50.27264051860001
 20
28.84257087269999
 10
50.26751572090001
 20
28.86584063279999
 10
50.26245868290001
 20
28.88814921819998
 10
50.2574694045
 20
28.90949662889999
 10
50.25256784079997
 20
28.92978199899999
 10
50.24773403669994
 20
28.9491061943
 10
50.24290812729995
 20
28.967771813
 10
50.23809004630002
 20
28.98580427860002
 10
50.23327985989997
 20
29.0031781675
 10
50.22841790189997
 20
29.02011980619999
 10
50.22350240899999
 20
29.03665619989998
 10
50.2185351444
 20
29.05276034340001
 10
50.2134617319
 20
29.06857754799998
 10
50.2082816372
 20
29.08412487539998
 10
50.20299539469997
 20
29.09938526379996
 10
50.19755023049999
 20
29.11445283949999
 10
50.19192855340003
 20
29.12935897789997
 10
50.18614795460002
 20
29.1440723036
 10
50.18020843419995
 20
29.15859281649998
  0
LWPOLYLINE
  5
63E82
330
1F
100
AcDbEntity
  8
1
100
AcDbPolyline
 90
        7
 70
     0
 43
0.0
 10
50.43295384980002
 20
25.63454929709998
 10
50.43635430380001
 20
25.61395338509998
 10
50.4370383191
 20
25.60943529999999
 10
50.43766631210002
 20
25.60491863289998
 10
50.43823828269998
 20
25.60040338389999
 10
50.43875423090003
 20
25.59588955299999
 10
50.43921415670002
 20
25.59137714009998
  0
LINE
  5
63E83
330
1F
100
AcDbEntity
  8
1
100
AcDbLine
 10
50.32723581250002
 20
28.34166955939998
 30
0.0
 11
50.27264051860001
 21
28.84257087269999
 31
0.0
  0
LWPOLYLINE
  5
63E84
330
1F
100
AcDbEntity
  8
1
100
AcDbPolyline
 90
        5
 70
     0
 43
0.0
 10
50.47608096580001
 20
26.31828920259997
 10
50.47411167619998
 20
26.33699394809999
 10
50.47207639459998
 20
26.35553974039998
 10
50.46997588380003
 20
26.37392584729999
 10
50.46781089759995
 20
26.39215211079998
  0
LWPOLYLINE
  5
63E85
330
1F
100
AcDbEntity
  8
1
100
AcDbPolyline
 90
        9
 70
     0
 43
0.0
 10
50.41699952900001
 20
25.75961477919998
 10
50.41848384680003
 20
25.74433584270001
 10
50.42011314550001
 20
25.72895484229999
 10
50.42188742499999
 20
25.71347177809999
 10
50.42380533110002
 20
25.6978850634
 10
50.425868218
 20
25.68219628489997
 10
50.42808014870002
 20
25.66641020219997
 10
50.43044247739996
 20
25.6505284018
 10
50.43295384980002
 20
25.63454929709998
  0
LINE
  5
63E86
330
1F
100
AcDbEntity
  8
1
100
AcDbLine
 10
50.47981934559999
 20
26.28040026340001
 30
0.0
 11
50.47608096580001
 21
26.31828920259997
 31
0.0
  0
LINE
  5
63E87
330
1F
100
AcDbEntity
  8
1
100
AcDbLine
 10
50.43921415670002
 20
25.59137714009998
 30
0.0
 11
50.44711407360001
 21
25.508220552
 31
0.0
  0
LWPOLYLINE
  5
63E88
330
1F
100
AcDbEntity
  8
1
100
AcDbPolyline
 90
        3
 70
     0
 43
0.0
 10
50.48491887540001
 20
26.22236144009999
 10
50.4832874654
 20
26.2418678936
 10
50.47981934559999
 20
26.28040026340001
  0
LINE
  5
63E89
330
1F
100
AcDbEntity
  8
1
100
AcDbLine
 10
50.46027149559998
 20
25.35174668590001
 30
0.0
 11
50.44711407360001
 21
25.508220552
 31
0.0
  0
LINE
  5
63E8A
330
1F
100
AcDbEntity
  8
1
100
AcDbLine
 10
50.47245507000003
 20
25.19513578509999
 30
0.0
 11
50.46027149559998
 21
25.35174668590001
 31
0.0
  0
LINE
  5
63E8B
330
1F
100
AcDbEntity
  8
1
100
AcDbLine
 10
50.48366595670001
 20
25.03839356379997
 30
0.0
 11
50.47245507000003
 21
25.19513578509999
 31
0.0
  0
LINE
  5
63E8C
330
1F
100
AcDbEntity
  8
1
100
AcDbLine
 10
50.49317716639999
 20
24.893217033
 30
0.0
 11
50.48366595670001
 21
25.03839356379997
 31
0.0
  0
LINE
  5
63E8D
330
1F
100
AcDbEntity
  8
sk3
100
AcDbLine
 10
47.80000000000001
 20
19.85055768919997
 30
0.0
 11
47.80000000000001
 21
18.16499441200001
 31
0.0
  0
LINE
  5
63E8E
330
1F
100
AcDbEntity
  8
1
100
AcDbLine
 10
47.76538000919996
 20
32.49561645509998
 30
0.0
 11
47.75910646399998
 21
32.2363842962
 31
0.0
  0
LINE
  5
63E8F
330
1F
100
AcDbEntity
  8
1
100
AcDbLine
 10
50.75552531930004
 20
36.40542162829998
 30
0.0
 11
50.7980056422
 21
36.59928614079998
 31
0.0
  0
LINE
  5
63E90
330
1F
100
AcDbEntity
  8
1
100
AcDbLine
 10
50.75552531930004
 20
36.40542162829998
 30
0.0
 11
50.39281543754805
 21
35.44682433178181
 31
0.0
  0
LINE
  5
63E91
330
1F
100
AcDbEntity
  8
1
100
AcDbLine
 10
50.39281543754805
 20
35.44682433178181
 30
0.0
 11
50.36191325300001
 21
35.36515368520002
 31
0.0
  0
LINE
  5
63E92
330
1F
100
AcDbEntity
  8
1
100
AcDbLine
 10
50.1337641156
 20
27.73662224129997
 30
0.0
 11
50.09999999999999
 21
27.69909317169997
 31
0.0
  0
LINE
  5
63E93
330
1F
100
AcDbEntity
  8
1
100
AcDbLine
 10
50.17592964570003
 20
27.78304585759999
 30
0.0
 11
50.1337641156
 21
27.73662224129997
 31
0.0
  0
LINE
  5
63E94
330
1F
100
AcDbEntity
  8
1
100
AcDbLine
 10
50.21178309859999
 20
27.82211945529998
 30
0.0
 11
50.17592964570003
 21
27.78304585759999
 31
0.0
  0
LINE
  5
63E95
330
1F
100
AcDbEntity
  8
1
100
AcDbLine
 10
50.22940209450002
 20
27.84118158930001
 30
0.0
 11
50.21178309859999
 21
27.82211945529998
 31
0.0
  0
LINE
  5
63E96
330
1F
100
AcDbEntity
  8
1
100
AcDbLine
 10
50.50299937590001
 20
25.79847674049999
 30
0.0
 11
50.41993371799995
 21
25.73064868479999
 31
0.0
  0
LINE
  5
63E97
330
1F
100
AcDbEntity
  8
1
100
AcDbLine
 10
50.49111032779996
 20
26.1369676616
 30
0.0
 11
50.67466499989996
 21
26.25841906099997
 31
0.0
  0
LINE
  5
63E98
330
1F
100
AcDbEntity
  8
1
100
AcDbLine
 10
50.75552531930004
 20
36.40542162829998
 30
0.0
 11
50.78406920019998
 21
36.44145945459998
 31
0.0
  0
LINE
  5
63E99
330
1F
100
AcDbEntity
  8
1
100
AcDbLine
 10
50.33376338720001
 20
26.54828434860001
 30
0.0
 11
50.09999999999999
 21
26.4587173405
 31
0.0
  0
LINE
  5
63E9A
330
1F
100
AcDbEntity
  8
1
100
AcDbLine
 10
50.198981828
 20
27.30079885319998
 30
0.0
 11
50.31424953589999
 21
27.31971903289998
 31
0.0
  0
LWPOLYLINE
  5
63E9B
330
1F
100
AcDbEntity
  8
1
100
AcDbPolyline
 90
        4
 70
     0
 43
0.0
 10
50.31424953589999
 20
27.31971903289998
 10
50.440879405
 20
27.3394775405
 10
50.50308115119998
 20
27.3487758253
 10
50.56453950919999
 20
27.35768703559997
  0
LINE
  5
63E9C
330
1F
100
AcDbEntity
  8
1
100
AcDbLine
 10
50.21461451380003
 20
26.367886955
 30
0.0
 11
50.31728867229995
 21
26.3824906448
 31
0.0
  0
LINE
  5
63E9D
330
1F
100
AcDbEntity
  8
1
100
AcDbLine
 10
50.56453950919999
 20
27.35768703559997
 30
0.0
 11
50.64460749279996
 21
27.36886981539998
 31
0.0
  0
LINE
  5
63E9E
330
1F
100
AcDbEntity
  8
1
100
AcDbLine
 10
50.11483826880004
 20
26.35415826950002
 30
0.0
 11
50.21461451380003
 21
26.367886955
 31
0.0
  0
LINE
  5
63E9F
330
1F
100
AcDbEntity
  8
1
100
AcDbLine
 10
50.09999999999999
 20
26.3521557644
 30
0.0
 11
50.11483826880004
 21
26.35415826950002
 31
0.0
  0
LWPOLYLINE
  5
63EA0
330
1F
100
AcDbEntity
  8
1
100
AcDbPolyline
 90
        3
 70
     0
 43
0.0
 10
50.64460749279996
 20
27.36886981539998
 10
50.70218416769998
 20
27.37660201579998
 10
50.72121479949996
 20
27.37909924399999
  0
LINE
  5
63EA1
330
1F
100
AcDbEntity
  8
1
100
AcDbLine
 10
50.09999999999999
 20
27.5265047185
 30
0.0
 11
50.17718271199999
 21
27.5326310839
 31
0.0
  0
LINE
  5
63EA2
330
1F
100
AcDbEntity
  8
1
100
AcDbLine
 10
50.17718271199999
 20
27.5326310839
 30
0.0
 11
50.32528854419997
 21
27.54373851070001
 31
0.0
  0
LINE
  5
63EA3
330
1F
100
AcDbEntity
  8
1
100
AcDbLine
 10
50.32528854419997
 20
27.54373851070001
 30
0.0
 11
50.47046311969996
 21
27.55376875009999
 31
0.0
  0
LINE
  5
63EA4
330
1F
100
AcDbEntity
  8
1
100
AcDbLine
 10
50.46781089759995
 20
26.39215211079998
 30
0.0
 11
50.31728867229995
 21
26.3824906448
 31
0.0
  0
LINE
  5
63EA5
330
1F
100
AcDbEntity
  8
1
100
AcDbLine
 10
50.47046311969996
 20
27.55376875009999
 30
0.0
 11
50.61272765309997
 21
27.56273258730001
 31
0.0
  0
LINE
  5
63EA6
330
1F
100
AcDbEntity
  8
1
100
AcDbLine
 10
50.61272765309997
 20
27.56273258730001
 30
0.0
 11
50.73923896290001
 21
27.56995049819999
 31
0.0
  0
LINE
  5
63EA7
330
1F
100
AcDbEntity
  8
1
100
AcDbLine
 10
50.73923896290001
 20
27.56995049819999
 30
0.0
 11
50.7952205135
 21
27.57290965039998
 31
0.0
  0
LINE
  5
63EA8
330
1F
100
AcDbEntity
  8
1
100
AcDbLine
 10
50.09999999999999
 20
25.82430626020001
 30
0.0
 11
50.41144213259994
 21
25.83830575709999
 31
0.0
  0
LWPOLYLINE
  5
63EA9
330
1F
100
AcDbEntity
  8
1
100
AcDbPolyline
 90
        4
 70
     0
 43
0.0
 10
50.44711407360001
 20
25.508220552
 10
50.31486418980001
 20
25.51360548749999
 10
50.18515416450004
 20
25.51799897369999
 10
50.09999999999999
 20
25.52027700489997
  0
LINE
  5
63EAA
330
1F
100
AcDbEntity
  8
1
100
AcDbLine
 10
37.71239688950004
 20
33.75196962969999
 30
0.0
 11
37.71729937090004
 21
33.70721335980001
 31
0.0
  0
LINE
  5
63EAB
330
1F
100
AcDbEntity
  8
1
100
AcDbLine
 10
38.18495770990001
 20
35.16402236700002
 30
0.0
 11
38.11378082369996
 21
36.36530332209999
 31
0.0
  0
LINE
  5
63EAC
330
1F
100
AcDbEntity
  8
1
100
AcDbLine
 10
37.84049563410003
 20
34.99826095889999
 30
0.0
 11
37.88416565570003
 21
34.23512103980001
 31
0.0
  0
LINE
  5
63EAD
330
1F
100
AcDbEntity
  8
1
100
AcDbLine
 10
37.60849628930003
 20
31.67540275969996
 30
0.0
 11
37.5715703436
 21
32.32068897979998
 31
0.0
  0
LWPOLYLINE
  5
63EAE
330
1F
100
AcDbEntity
  8
1
100
AcDbPolyline
 90
        9
 70
     0
 43
0.0
 10
38.19553463260002
 20
37.3674442186
 10
38.19537479960002
 20
37.39018866069999
 10
38.19493097609998
 20
37.4263226696
 10
38.19425370810001
 20
37.46291466489997
 10
38.19334108179999
 20
37.49996406180001
 10
38.19218735599998
 20
37.5374691052
 10
38.19079061699998
 20
37.5754292103
 10
38.18915277849999
 20
37.61384496200002
 10
38.18727384049996
 20
37.65271636029998
  0
LINE
  5
63EAF
330
1F
100
AcDbEntity
  8
1
100
AcDbLine
 10
38.195556372
 20
37.31929284739998
 30
0.0
 11
38.19553463260002
 21
37.3674442186
 31
0.0
  0
LINE
  5
63EB0
330
1F
100
AcDbEntity
  8
1
100
AcDbLine
 10
37.62718363790003
 20
31.73112130450001
 30
0.0
 11
37.62826854719998
 21
32.16532167009997
 31
0.0
  0
LINE
  5
63EB1
330
1F
100
AcDbEntity
  8
1
100
AcDbLine
 10
37.70584558619999
 20
32.95775655269999
 30
0.0
 11
37.70224973789999
 21
32.62947667809998
 31
0.0
  0
LINE
  5
63EB2
330
1F
100
AcDbEntity
  8
1
100
AcDbLine
 10
37.71729937090004
 20
33.70721335980001
 30
0.0
 11
37.70584558619999
 21
32.95775655269999
 31
0.0
  0
LINE
  5
63EB3
330
1F
100
AcDbEntity
  8
1
100
AcDbLine
 10
37.62826854719998
 20
32.16532167009997
 30
0.0
 11
37.63514302049998
 21
32.37389829549999
 31
0.0
  0
LINE
  5
63EB4
330
1F
100
AcDbEntity
  8
1
100
AcDbLine
 10
37.63514302049998
 20
32.37389829549999
 30
0.0
 11
37.64267320689999
 21
32.5782083827
 31
0.0
  0
LINE
  5
63EB5
330
1F
100
AcDbEntity
  8
1
100
AcDbLine
 10
37.64267320689999
 20
32.5782083827
 30
0.0
 11
37.6515733087
 21
32.79839923969998
 31
0.0
  0
LINE
  5
63EB6
330
1F
100
AcDbEntity
  8
1
100
AcDbLine
 10
37.6515733087
 20
32.79839923969998
 30
0.0
 11
37.65793086880001
 21
32.9462103735
 31
0.0
  0
LWPOLYLINE
  5
63EB7
330
1F
100
AcDbEntity
  8
1
100
AcDbPolyline
 90
        3
 70
     0
 43
0.0
 10
38.13124606050002
 20
36.59272425059997
 10
38.13328091760002
 20
36.62176051059997
 10
38.1356029392
 20
36.65118453919998
  0
LINE
  5
63EB8
330
1F
100
AcDbEntity
  8
1
100
AcDbLine
 10
38.18833325130004
 20
37.2145583218
 30
0.0
 11
38.195556372
 21
37.31929284739998
 31
0.0
  0
LINE
  5
63EB9
330
1F
100
AcDbEntity
  8
1
100
AcDbLine
 10
37.66115058349999
 20
32.99085284349998
 30
0.0
 11
37.71239688950004
 21
33.75196962969999
 31
0.0
  0
LINE
  5
63EBA
330
1F
100
AcDbEntity
  8
1
100
AcDbLine
 10
37.65793086880001
 20
32.9462103735
 30
0.0
 11
37.66115058349999
 21
32.99085284349998
 31
0.0
  0
LINE
  5
63EBB
330
1F
100
AcDbEntity
  8
1
100
AcDbLine
 10
38.1807203697
 20
37.11235610219997
 30
0.0
 11
38.18833325130004
 21
37.2145583218
 31
0.0
  0
LINE
  5
63EBC
330
1F
100
AcDbEntity
  8
1
100
AcDbLine
 10
38.13124606050002
 20
36.59272425059997
 30
0.0
 11
38.11378082369996
 21
36.36530332209999
 31
0.0
  0
LINE
  5
63EBD
330
1F
100
AcDbEntity
  8
1
100
AcDbLine
 10
38.17271451610003
 20
37.01268772369998
 30
0.0
 11
38.1807203697
 21
37.11235610219997
 31
0.0
  0
LINE
  5
63EBE
330
1F
100
AcDbEntity
  8
1
100
AcDbLine
 10
37.62718363790003
 20
31.73112130450001
 30
0.0
 11
37.70224973789999
 21
32.62947667809998
 31
0.0
  0
LWPOLYLINE
  5
63EBF
330
1F
100
AcDbEntity
  8
1
100
AcDbPolyline
 90
        8
 70
     0
 43
0.0
 10
38.1356029392
 20
36.65118453919998
 10
38.13821212529999
 20
36.68099633639999
 10
38.14110670060001
 20
36.71119823629998
 10
38.14428844050002
 20
36.74178790489996
 10
38.14776267119999
 20
36.7727583396
 10
38.15153116819999
 20
36.80410720619999
 10
38.15559215600001
 20
36.83583683899998
 10
38.15994563469997
 20
36.86794723789997
  0
LWPOLYLINE
  5
63EC0
330
1F
100
AcDbEntity
  8
1
100
AcDbPolyline
 90
        3
 70
     0
 43
0.0
 10
38.15994563469997
 20
36.86794723789997
 10
38.16430284719996
 20
36.915559327
 10
38.17271451610003
 20
37.01268772369998
  0
LINE
  5
63EC1
330
1F
100
AcDbEntity
  8
1
100
AcDbLine
 10
38.15066788569999
 20
34.92499723749999
 30
0.0
 11
38.18495770990001
 21
35.16402236700002
 31
0.0
  0
LWPOLYLINE
  5
63EC2
330
1F
100
AcDbEntity
  8
1
100
AcDbPolyline
 90
       22
 70
     0
 43
0.0
 10
37.18810028860003
 20
32.49847562320001
 10
37.19422080880003
 20
32.5315021816
 10
37.20127873019999
 20
32.56335108820001
 10
37.20947234639999
 20
32.59522661909999
 10
37.21880304339999
 20
32.62710135789998
 10
37.22926838640001
 20
32.65896811129998
 10
37.24084388620003
 20
32.69076399180001
 10
37.25351716080002
 20
32.72244932309998
 10
37.26729910969999
 20
32.75402914499999
 10
37.28220005779997
 20
32.78550758019999
 10
37.29822829710002
 20
32.81689529160001
 10
37.31537412469999
 20
32.84815186619999
 10
37.33362074600001
 20
32.87920467879998
 10
37.35295527660003
 20
32.91002336829997
 10
37.37338870860003
 20
32.9406081396
 10
37.39493984950002
 20
32.97093135299999
 10
37.4176145857
 20
33.00099511789996
 10
37.4414050538
 20
33.03077019119998
 10
37.46630923290002
 20
33.06018124849997
 10
37.49232559819998
 20
33.08919389579997
 10
37.51945329649999
 20
33.1178159325
 10
37.54769115669998
 20
33.14603502899998
  0
LINE
  5
63EC3
330
1F
100
AcDbEntity
  8
1
100
AcDbLine
 10
37.76331105559996
 20
33.9222729559
 30
0.0
 11
37.71729937090004
 21
33.70721335980001
 31
0.0
  0
LWPOLYLINE
  5
63EC4
330
1F
100
AcDbEntity
  8
1
100
AcDbPolyline
 90
       10
 70
     0
 43
0.0
 10
37.95366571430003
 20
32.42294509980001
 10
37.93913314380001
 20
32.35885467149997
 10
37.92554845550001
 20
32.29539029629997
 10
37.91291164939995
 20
32.23255197419998
 10
37.90122941980002
 20
32.17032929899999
 10
37.89049507229999
 20
32.10873267700002
 10
37.8806885235
 20
32.04779332680001
 10
37.8718030787
 20
31.98752165450001
 10
37.86384543259999
 20
31.92790725409999
 10
37.85681558499999
 20
31.86895012549998
  0
LINE
  5
63EC5
330
1F
100
AcDbEntity
  8
1
100
AcDbLine
 10
37.76331105559996
 20
33.9222729559
 30
0.0
 11
37.71239688950004
 21
33.75196962969999
 31
0.0
  0
LWPOLYLINE
  5
63EC6
330
1F
100
AcDbEntity
  8
1
100
AcDbPolyline
 90
       20
 70
     0
 43
0.0
 10
37.85681558499999
 20
31.86895012549998
 10
37.85273570499999
 20
31.8571646546
 10
37.84861263869999
 20
31.84542683809998
 10
37.84444638610001
 20
31.83373667619999
 10
37.84023772450002
 20
31.822095748
 10
37.83598587660004
 20
31.8105024744
 10
37.83168851080001
 20
31.79895211730001
 10
37.82734556330002
 20
31.78744465669999
 10
37.82295709779999
 20
31.7759801125
 10
37.81852097469999
 20
31.76455380649998
 10
37.81403687279999
 20
31.75316526579998
 10
37.80950511320003
 20
31.74181496329997
 10
37.80492451869998
 20
31.73049963879997
 10
37.80029405219997
 20
31.71921750430001
 10
37.79561475090003
 20
31.70797034789997
 10
37.79088854860004
 20
31.69676027419998
 10
37.7861148211
 20
31.6855870264
 10
37.78129419279998
 20
31.67445086129998
 10
37.7764304703
 20
31.66335465329998
 10
37.77152320089999
 20
31.6522989489
  0
LWPOLYLINE
  5
63EC7
330
1F
100
AcDbEntity
  8
1
100
AcDbPolyline
 90
       20
 70
     0
 43
0.0
 10
37.34836155250003
 20
31.87867965099999
 10
37.35546843520001
 20
31.89849582200002
 10
37.3640208288
 20
31.9209406321
 10
37.37337909659999
 20
31.94418377839999
 10
37.38354015469997
 20
31.96822307639998
 10
37.39450708700002
 20
31.99306071059998
 10
37.40631581290001
 20
32.01873079110001
 10
37.41896350579995
 20
32.04523159660001
 10
37.4324529923
 20
32.07256484829999
 10
37.44682867160003
 20
32.10076981969998
 10
37.46208835049996
 20
32.12984586730001
 10
37.4782342222
 20
32.15979363450002
 10
37.49531726520002
 20
32.19065432539996
 10
37.51333588849997
 20
32.22242811619999
 10
37.53229168320002
 20
32.25511483070001
 10
37.55224040109999
 20
32.2887551445
 10
37.57318141299999
 20
32.32335053069999
 10
37.59511534809997
 20
32.35889951610001
 10
37.61809984529998
 20
32.39543835649998
 10
37.63695372429999
 20
32.42487867849998
  0
LINE
  5
63EC8
330
1F
100
AcDbEntity
  8
1
100
AcDbLine
 10
38.15066788569999
 20
34.92499723749999
 30
0.0
 11
37.88416565570245
 21
34.23512103975735
 31
0.0
  0
LINE
  5
63EC9
330
1F
100
AcDbEntity
  8
1
100
AcDbLine
 10
37.88416565570245
 20
34.23512103975735
 30
0.0
 11
37.76331105559996
 21
33.9222729559
 31
0.0
  0
LWPOLYLINE
  5
63ECA
330
1F
100
AcDbEntity
  8
1
100
AcDbPolyline
 90
        3
 70
     0
 43
0.0
 10
37.77152320089999
 20
31.6522989489
 10
37.76158454430001
 20
31.63030864689999
 10
37.75676076410003
 20
31.61981244989997
  0
LWPOLYLINE
  5
63ECB
330
1F
100
AcDbEntity
  8
1
100
AcDbPolyline
 90
       16
 70
     0
 43
0.0
 10
48.59759545969996
 20
32.75126283079997
 10
48.54526046230001
 20
32.73286421610001
 10
48.49224640910001
 20
32.7145983887
 10
48.43857633990001
 20
32.69647164209998
 10
48.3842247824
 20
32.67847425770002
 10
48.3292644636
 20
32.66062923770001
 10
48.27386982889999
 20
32.6429903139
 10
48.21808438170001
 20
32.62556701349998
 10
48.16192166249999
 20
32.60835938689999
 10
48.10551631889999
 20
32.59140387239997
 10
48.04887958619997
 20
32.574698457
 10
47.99206043859999
 20
32.55825238569999
 10
47.935253483
 20
32.54211549219999
 10
47.87854492439999
 20
32.5263042628
 10
47.82191050409998
 20
32.51080421119998
 10
47.76538000919996
 20
32.49561645509998
  0
LWPOLYLINE
  5
63ECC
330
1F
100
AcDbEntity
  8
1
100
AcDbPolyline
 90
        3
 70
     0
 43
0.0
 10
50.72121479949996
 20
27.37909924399999
 10
50.77782357529994
 20
27.38635191009996
 10
50.79653208680003
 20
27.38869012069998
  0
LINE
  5
63ECD
330
1F
100
AcDbEntity
  8
1
100
AcDbLine
 10
1.699999999999988
 20
27.81500000000001
 30
0.0
 11
11.69999999999999
 21
27.81500000000001
 31
0.0
  0
LINE
  5
63ECE
330
1F
100
AcDbEntity
  8
1
100
AcDbLine
 10
50.75552531930004
 20
27.19675281700002
 30
0.0
 11
50.09999999999999
 21
27.2119894973
 31
0.0
  0
LWPOLYLINE
  5
63ECF
330
1F
100
AcDbEntity
  8
1
100
AcDbPolyline
 90
       12
 70
     0
 43
0.0
 10
37.34853306191178
 20
35.1887326168289
 10
37.3498116852
 20
35.20951051329998
 10
37.36868187189998
 20
35.4006954358
 10
37.39478252409995
 20
35.59420973669997
 10
37.4281166019
 20
35.79005364169997
 10
37.46871105190002
 20
35.98827032009997
 10
37.51659012260001
 20
36.18883716750001
 10
37.57175551340004
 20
36.39165491399996
 10
37.6342114126
 20
36.59665485860003
 10
37.70397458950004
 20
36.8037942246
 10
37.78111023739999
 20
37.0131081487
 10
37.86569380509997
 20
37.2246443218
  0
LINE
  5
63ED0
330
1F
100
AcDbEntity
  8
1
100
AcDbLine
 10
37.86569380509997
 20
37.2246443218
 30
0.0
 11
37.88049186749999
 21
37.26005422499999
 31
0.0
  0
LINE
  5
63ED1
330
1F
100
AcDbEntity
  8
1
100
AcDbLine
 10
37.88049186749999
 20
37.26005422499999
 30
0.0
 11
37.91072662189999
 21
37.33108692700002
 31
0.0
  0
LINE
  5
63ED2
330
1F
100
AcDbEntity
  8
1
100
AcDbLine
 10
37.91072662189999
 20
37.33108692700002
 30
0.0
 11
37.9418152774
 21
37.402400278
 31
0.0
  0
LINE
  5
63ED3
330
1F
100
AcDbEntity
  8
1
100
AcDbLine
 10
37.9418152774
 20
37.402400278
 30
0.0
 11
37.97375873909999
 21
37.47398929629996
 31
0.0
  0
LINE
  5
63ED4
330
1F
100
AcDbEntity
  8
1
100
AcDbLine
 10
37.97375873909999
 20
37.47398929629996
 30
0.0
 11
38.00655910899997
 21
37.54584966360001
 31
0.0
  0
LINE
  5
63ED5
330
1F
100
AcDbEntity
  8
1
100
AcDbLine
 10
38.00655910899997
 20
37.54584966360001
 30
0.0
 11
38.03069803419999
 21
37.59773696020001
 31
0.0
  0
LINE
  5
63ED6
330
1F
100
AcDbEntity
  8
1
100
AcDbLine
 10
38.03069803419999
 20
37.59773696020001
 30
0.0
 11
38.05526621360002
 21
37.64972593849997
 31
0.0
  0
LINE
  5
63ED7
330
1F
100
AcDbEntity
  8
1
100
AcDbLine
 10
38.05526621360002
 20
37.64972593849997
 30
0.0
 11
38.08026368309999
 21
37.70181480210001
 31
0.0
  0
LWPOLYLINE
  5
63ED8
330
1F
100
AcDbEntity
  8
1
100
AcDbPolyline
 90
        3
 70
     0
 43
0.0
 10
38.08026368309999
 20
37.70181480210001
 10
38.1056904134
 20
37.75400162559997
 10
38.1185647726
 20
37.78013123529998
  0
LWPOLYLINE
  5
63ED9
330
1F
100
AcDbEntity
  8
1
100
AcDbPolyline
 90
        3
 70
     0
 43
0.0
 10
37.68113978950004
 20
33.27650149840001
 10
37.5600479016
 20
33.1580385923
 10
37.54769115669998
 20
33.14603502899998
  0
LINE
  5
63EDA
330
1F
100
AcDbEntity
  8
1
100
AcDbLine
 10
38.1950446948
 20
32.44481597209999
 30
0.0
 11
37.95366571430003
 21
32.42294509980001
 31
0.0
  0
LINE
  5
63EDB
330
1F
100
AcDbEntity
  8
1
100
AcDbLine
 10
38.43642063359999
 20
32.4655489062
 30
0.0
 11
38.1950446948
 21
32.44481597209999
 31
0.0
  0
LINE
  5
63EDC
330
1F
100
AcDbEntity
  8
1
100
AcDbLine
 10
38.6642893476
 20
32.48407373579998
 30
0.0
 11
38.43642063359999
 21
32.4655489062
 31
0.0
  0
LINE
  5
63EDD
330
1F
100
AcDbEntity
  8
1
100
AcDbLine
 10
38.91524944470001
 20
32.50329186750001
 30
0.0
 11
38.6642893476
 21
32.48407373579998
 31
0.0
  0
LWPOLYLINE
  5
63EDE
330
1F
100
AcDbEntity
  8
1
100
AcDbPolyline
 90
        3
 70
     0
 43
0.0
 10
39.24921086899997
 20
32.5269277712
 10
39.16579263210002
 20
32.52123213559999
 10
38.91524944470001
 20
32.50329186750001
  0
LWPOLYLINE
  5
63EDF
330
1F
100
AcDbEntity
  8
1
100
AcDbPolyline
 90
       10
 70
     0
 43
0.0
 10
50.44711407360001
 20
32.82870986849999
 10
50.31486418980001
 20
32.82070004520001
 10
50.18515416450004
 20
32.81195809930002
 10
50.05798399770004
 20
32.80248403090001
 10
49.93334623700002
 20
32.79226743539998
 10
49.81124833489997
 20
32.78131871729998
 10
49.69171264859998
 20
32.76966909029999
 10
49.57474663069999
 20
32.75732895899996
 10
49.46034282860001
 20
32.74428791879997
 10
49.34850124239997
 20
32.73054596969998
  0
LWPOLYLINE
  5
63EE0
330
1F
100
AcDbEntity
  8
1
100
AcDbPolyline
 90
        7
 70
     0
 43
0.0
 10
27.75147134989999
 20
31.29440766979998
 10
29.47875177829997
 20
31.33284952439999
 10
31.18518015579997
 20
31.37774034149997
 10
32.87075648219994
 20
31.4290801211
 10
34.54089272869999
 20
31.48720620209998
 10
36.19017692419999
 20
31.55178124559997
 10
37.73453578319678
 20
31.61884729747391
  0
LWPOLYLINE
  5
63EE1
330
1F
100
AcDbEntity
  8
1
100
AcDbPolyline
 90
       11
 70
     0
 43
0.0
 10
37.73453578319678
 20
31.61884729747391
 10
37.80237315530002
 20
31.621793235
 10
39.37808222460001
 20
31.69746554679999
 10
40.91670332960001
 20
31.7785748045
 10
42.40019814900001
 20
31.86343886199998
 10
43.82282940649995
 20
31.95182603649998
 10
45.1903343784
 20
32.0439680107
 10
46.50188657299994
 20
32.13887768689999
 10
47.75721049279994
 20
32.2362260323
 10
48.95658163510001
 20
32.33634207969998
 10
50.09999999999999
 20
32.43922582899997
  0
LINE
  5
63EE2
330
1F
100
AcDbEntity
  8
1
100
AcDbLine
 10
50.09999999999999
 20
27.31497001439996
 30
0.0
 11
50.1117374227
 21
27.31336778129996
 31
0.0
  0
LINE
  5
63EE3
330
1F
100
AcDbEntity
  8
1
100
AcDbLine
 10
50.1117374227
 20
27.31336778129996
 30
0.0
 11
50.16641689489998
 21
27.30561392559998
 31
0.0
  0
LINE
  5
63EE4
330
1F
100
AcDbEntity
  8
1
100
AcDbLine
 10
50.16641689489998
 20
27.30561392559998
 30
0.0
 11
50.23009494179999
 21
27.29616188669998
 31
0.0
  0
LWPOLYLINE
  5
63EE5
330
1F
100
AcDbEntity
  8
1
100
AcDbPolyline
 90
        8
 70
     0
 43
0.0
 10
50.23009494179999
 20
27.29616188669998
 10
50.27315195700004
 20
27.28949860009996
 10
50.32520415490001
 20
27.28113432529999
 10
50.37637755750001
 20
27.272565895
 10
50.42667071580002
 20
27.26379505829998
 10
50.47608285269999
 20
27.2548246295
 10
50.52461384619997
 20
27.24565842149998
 10
50.57226368729999
 20
27.23630128340001
  0
LINE
  5
63EE6
330
1F
100
AcDbEntity
  8
1
100
AcDbLine
 10
50.25091055519999
 20
27.9512124262
 30
0.0
 11
50.4334095925
 21
27.9232263418
 31
0.0
  0
LINE
  5
63EE7
330
1F
100
AcDbEntity
  8
1
100
AcDbLine
 10
50.4334095925
 20
27.9232263418
 30
0.0
 11
50.55166558090002
 21
27.9046621161
 31
0.0
  0
LINE
  5
63EE8
330
1F
100
AcDbEntity
  8
1
100
AcDbLine
 10
50.57226368729999
 20
27.23630128340001
 30
0.0
 11
50.61425278839999
 21
27.2277509243
 31
0.0
  0
LINE
  5
63EE9
330
1F
100
AcDbEntity
  8
1
100
AcDbLine
 10
50.61425278839999
 20
27.2277509243
 30
0.0
 11
50.65551621819998
 21
27.21906014950001
 31
0.0
  0
LINE
  5
63EEA
330
1F
100
AcDbEntity
  8
1
100
AcDbLine
 10
50.65551621819998
 20
27.21906014950001
 30
0.0
 11
50.69605638999999
 21
27.21023427279998
 31
0.0
  0
LWPOLYLINE
  5
63EEB
330
1F
100
AcDbEntity
  8
1
100
AcDbPolyline
 90
        3
 70
     0
 43
0.0
 10
50.69605638999999
 20
27.21023427279998
 10
50.73588128579996
 20
27.20127784919997
 10
50.75552531930004
 20
27.19675281700002
  0
LWPOLYLINE
  5
63EEC
330
1F
100
AcDbEntity
  8
1
100
AcDbPolyline
 90
       15
 70
     0
 43
0.0
 10
47.76537998109998
 20
32.4956152969
 10
47.69564446319992
 20
32.48455023329997
 10
47.62550546759996
 20
32.4746467177
 10
47.55499823149998
 20
32.4659122618
 10
47.48412770919995
 20
32.45835178059998
 10
47.41296041769999
 20
32.45197649399996
 10
47.34162511619999
 20
32.4467987968
 10
47.27019655710001
 20
32.44282306389998
 10
47.19867438579996
 20
32.44004959459998
 10
47.12707541579999
 20
32.43848107090001
 10
47.05539902659995
 20
32.4381211703
 10
46.98372082349999
 20
32.4389754436
 10
46.91217188910002
 20
32.44104566279999
 10
46.84082061859996
 20
32.44432979289998
 10
46.76967301860003
 20
32.44882726189998
  0
LINE
  5
63EED
330
1F
100
AcDbEntity
  8
1
100
AcDbLine
 10
49.34850124239997
 20
32.73054596969998
 30
0.0
 11
49.29551841610003
 21
32.73049092769999
 31
0.0
  0
LINE
  5
63EEE
330
1F
100
AcDbEntity
  8
1
100
AcDbLine
 10
49.29551841610003
 20
32.73049092769999
 30
0.0
 11
49.2425984011
 21
32.7306766425
 31
0.0
  0
LINE
  5
63EEF
330
1F
100
AcDbEntity
  8
1
100
AcDbLine
 10
49.2425984011
 20
32.7306766425
 30
0.0
 11
49.18972947340001
 21
32.73110378599999
 31
0.0
  0
LINE
  5
63EF0
330
1F
100
AcDbEntity
  8
1
100
AcDbLine
 10
49.18972947340001
 20
32.73110378599999
 30
0.0
 11
49.13687228779995
 21
32.73177471299999
 31
0.0
  0
LINE
  5
63EF1
330
1F
100
AcDbEntity
  8
1
100
AcDbLine
 10
49.13687228779995
 20
32.73177471299999
 30
0.0
 11
49.08399182989999
 21
32.73269096559999
 31
0.0
  0
LINE
  5
63EF2
330
1F
100
AcDbEntity
  8
1
100
AcDbLine
 10
49.08399182989999
 20
32.73269096559999
 30
0.0
 11
49.03106936979998
 21
32.73385307709999
 31
0.0
  0
LINE
  5
63EF3
330
1F
100
AcDbEntity
  8
1
100
AcDbLine
 10
49.03106936979998
 20
32.73385307709999
 30
0.0
 11
48.97807466269998
 21
32.73526181369998
 31
0.0
  0
LINE
  5
63EF4
330
1F
100
AcDbEntity
  8
1
100
AcDbLine
 10
48.97807466269998
 20
32.73526181369998
 30
0.0
 11
48.925035434
 21
32.73691328389999
 31
0.0
  0
LINE
  5
63EF5
330
1F
100
AcDbEntity
  8
1
100
AcDbLine
 10
48.925035434
 20
32.73691328389999
 30
0.0
 11
48.84543869829997
 21
32.73983536869998
 31
0.0
  0
LINE
  5
63EF6
330
1F
100
AcDbEntity
  8
1
100
AcDbLine
 10
48.84543869829997
 20
32.73983536869998
 30
0.0
 11
48.76589133369998
 21
32.74325981289998
 31
0.0
  0
LINE
  5
63EF7
330
1F
100
AcDbEntity
  8
1
100
AcDbLine
 10
48.68781569509994
 20
32.74704734899997
 30
0.0
 11
48.59759545969996
 21
32.75126283079997
 31
0.0
  0
LINE
  5
63EF8
330
1F
100
AcDbEntity
  8
1
100
AcDbLine
 10
48.76589133369998
 20
32.74325981289998
 30
0.0
 11
48.68781569509994
 21
32.74704734899997
 31
0.0
  0
LWPOLYLINE
  5
63EF9
330
1F
100
AcDbEntity
  8
1
100
AcDbPolyline
 90
       16
 70
     0
 43
0.0
 10
46.76967301860003
 20
32.44882726189998
 10
46.20649018139997
 20
32.49581935029997
 10
45.71305137349995
 20
32.53190930129996
 10
45.21897152809993
 20
32.56276655919997
 10
44.72460221300003
 20
32.58836351949998
 10
44.22984714619997
 20
32.60871033039997
 10
43.73456050300001
 20
32.62382575919999
 10
43.23870019259999
 20
32.633729248
 10
42.74222622709999
 20
32.63843660489998
 10
42.24499548430003
 20
32.6379549677
 10
41.74703041949999
 20
32.63228671680001
 10
41.24851052849999
 20
32.62145266009999
 10
40.74952804719993
 20
32.60547974430001
 10
40.25010775480001
 20
32.58439275459999
 10
39.75007241699998
 20
32.55820507110001
 10
39.24921086899997
 20
32.5269277712
  0
LINE
  5
63EFA
330
1F
100
AcDbEntity
  8
1
100
AcDbLine
 10
50.31728867229995
 20
26.3824906448
 30
0.0
 11
50.45818051809999
 21
26.33216263499999
 31
0.0
  0
LWPOLYLINE
  5
63EFB
330
1F
100
AcDbEntity
  8
1
100
AcDbPolyline
 90
        3
 70
     0
 43
0.0
 10
37.73453578319999
 20
31.61884729739997
 10
37.7020729912
 20
31.63159775499999
 10
37.67539396381489
 20
31.64314533757249
  0
LWPOLYLINE
  5
63EFC
330
1F
100
AcDbEntity
  8
1
100
AcDbPolyline
 90
        2
 70
     0
 43
0.0
 10
37.67539396381489
 20
31.64314533757249
 10
37.66454528809999
 20
31.6478410102
  0
LINE
  5
63EFD
330
1F
100
AcDbEntity
  8
1
100
AcDbLine
 10
24.49293887279998
 20
29.3011158639
 30
0.0
 11
27.6758800737
 21
31.29384460069998
 31
0.0
  0
LINE
  5
63EFE
330
1F
100
AcDbEntity
  8
1
100
AcDbLine
 10
31.55033904570001
 20
33.55363046579997
 30
0.0
 11
30.77976183189998
 21
33.09510113309999
 31
0.0
  0
LINE
  5
63EFF
330
1F
100
AcDbEntity
  8
1
100
AcDbLine
 10
32.33913613890002
 20
34.0215117771
 30
0.0
 11
31.55033904570001
 21
33.55363046579997
 31
0.0
  0
LINE
  5
63F00
330
1F
100
AcDbEntity
  8
1
100
AcDbLine
 10
30.27313665500003
 20
32.79446633389999
 30
0.0
 11
30.77976183189998
 21
33.09510113309999
 31
0.0
  0
LINE
  5
63F01
330
1F
100
AcDbEntity
  8
1
100
AcDbLine
 10
33.14675983889998
 20
34.49907571339999
 30
0.0
 11
32.33913613890002
 21
34.0215117771
 31
0.0
  0
LINE
  5
63F02
330
1F
100
AcDbEntity
  8
1
100
AcDbLine
 10
29.90656123190002
 20
32.57862226159999
 30
0.0
 11
30.27313665500003
 21
32.79446633389999
 31
0.0
  0
LINE
  5
63F03
330
1F
100
AcDbEntity
  8
1
100
AcDbLine
 10
29.45614556639998
 20
32.31526454270001
 30
0.0
 11
29.90656123190002
 21
32.57862226159999
 31
0.0
  0
LINE
  5
63F04
330
1F
100
AcDbEntity
  8
1
100
AcDbLine
 10
28.90196507140002
 20
31.9939361366
 30
0.0
 11
29.45614556639998
 21
32.31526454270001
 31
0.0
  0
LWPOLYLINE
  5
63F05
330
1F
100
AcDbEntity
  8
1
100
AcDbPolyline
 90
       28
 70
     0
 43
0.0
 10
33.14675983889998
 20
34.49907571339999
 10
33.23627923329997
 20
34.55066400230001
 10
33.32676296360001
 20
34.60034975729998
 10
33.4182110296
 20
34.64813297860001
 10
33.51068604790004
 20
34.69403395980001
 10
33.604125402
 20
34.7380324073
 10
33.69834124250002
 20
34.7800674395
 10
33.79329869980001
 20
34.82012070649997
 10
33.8890326435
 20
34.85821055829998
 10
33.98545983240001
 20
34.89433116279999
 10
34.08258446219998
 20
34.92848521829997
 10
34.1804023373
 20
34.96067002649998
 10
34.27881762919998
 20
34.9908716611
 10
34.37786298050003
 20
35.0190960227
 10
34.47750574870003
 20
35.04533721059998
 10
34.57755217840003
 20
35.0695635968
 10
34.67796515390001
 20
35.09176350579999
 10
34.77878179099997
 20
35.111948613
 10
34.8799196809
 20
35.1301223162
 10
34.98140118369998
 20
35.14628723469999
 10
35.08320393930001
 20
35.16044074930002
 10
35.1851784598
 20
35.17257839950001
 10
35.28728727390001
 20
35.18269662179999
 10
35.38956785279999
 20
35.19079897969998
 10
35.4919831222
 20
35.19689170399998
 10
35.59452072419996
 20
35.20097687159999
 10
35.69719301679999
 20
35.2030524055
 10
35.80000000000001
 20
35.20311830579998
  0
LINE
  5
63F06
330
1F
100
AcDbEntity
  8
1
100
AcDbLine
 10
27.74968185080002
 20
31.33487099039998
 30
0.0
 11
28.90196507140002
 21
31.9939361366
 31
0.0
  0
LINE
  5
63F07
330
1F
100
AcDbEntity
  8
1
100
AcDbLine
 10
27.69308519369997
 20
31.30301618149998
 30
0.0
 11
27.74968185080002
 21
31.33487099039998
 31
0.0
  0
LINE
  5
63F08
330
1F
100
AcDbEntity
  8
1
100
AcDbLine
 10
27.68542609690002
 20
31.29876165200002
 30
0.0
 11
27.69308519369997
 21
31.30301618149998
 31
0.0
  0
LINE
  5
63F09
330
1F
100
AcDbEntity
  8
1
100
AcDbLine
 10
27.6763929773
 20
31.29384267309998
 30
0.0
 11
27.68542609690002
 21
31.29876165200002
 31
0.0
  0
LWPOLYLINE
  5
63F0A
330
1F
100
AcDbEntity
  8
1
100
AcDbPolyline
 90
       10
 70
     0
 43
0.0
 10
38.1185647726
 20
37.78013123529998
 10
38.2516081375
 20
37.79290349820001
 10
38.38200771049998
 20
37.80578407969996
 10
38.5097634915
 20
37.81877297989998
 10
38.6348819813
 20
37.83187489099997
 10
38.75735667909999
 20
37.84508512079997
 10
38.87716808279999
 20
37.85838959209999
 10
38.99430969169996
 20
37.87178361270001
 10
39.10878800640001
 20
37.88527187479998
 10
39.22060302700004
 20
37.8988543785
  0
LINE
  5
63F0B
330
1F
100
AcDbEntity
  8
1
100
AcDbLine
 10
37.36791373160003
 20
35.18855257270001
 30
0.0
 11
37.34853306191178
 21
35.1887326168289
 31
0.0
  0
LINE
  5
63F0C
330
1F
100
AcDbEntity
  8
1
100
AcDbLine
 10
37.34853306191178
 20
35.1887326168289
 30
0.0
 11
35.80000000000001
 21
35.20311830579998
 31
0.0
  0
LWPOLYLINE
  5
63F0D
330
1F
100
AcDbEntity
  8
1
100
AcDbPolyline
 90
       13
 70
     0
 43
0.0
 10
37.84049563410003
 20
34.99826095889999
 10
37.79881138830001
 20
35.00845378029997
 10
37.75749243190001
 20
35.01969683169999
 10
37.71653876480002
 20
35.0319901132
 10
37.67591750309995
 20
35.04534538829999
 10
37.63566153059995
 20
35.0597508934
 10
37.59586949940001
 20
35.0751713378
 10
37.55654257679996
 20
35.09160920140001
 10
37.51767959530003
 20
35.10906200430002
 10
37.47937570509999
 20
35.1274870159
 10
37.44166262269999
 20
35.14686999279998
 10
37.40450863159995
 20
35.16722517839999
 10
37.36791373160003
 20
35.18855257270001
  0
LWPOLYLINE
  5
63F0E
330
1F
100
AcDbEntity
  8
1
100
AcDbPolyline
 90
       33
 70
     0
 43
0.0
 10
37.66454528809999
 20
31.6478410102
 10
37.62822376149998
 20
31.66512239639998
 10
37.59325467950004
 20
31.6833454542
 10
37.55965694309995
 20
31.70250906689998
 10
37.52741467710001
 20
31.72262207839998
 10
37.49662157080002
 20
31.74357323800001
 10
37.46730190300002
 20
31.7653408659
 10
37.4394339447
 20
31.78792537329999
 10
37.41304188089995
 20
31.81122571169999
 10
37.38814037360004
 20
31.83521429039998
 10
37.3647166861
 20
31.8598789853
 10
37.34275342690001
 20
31.88512634209998
 10
37.32226596499996
 20
31.9109144955
 10
37.30324013489997
 20
31.93723329079997
 10
37.2856138848
 20
31.96402864199999
 10
37.26939067839999
 20
31.9912636136
 10
37.25456774309999
 20
32.01892141680001
 10
37.24107351059996
 20
32.04697679139999
 10
37.22890437110005
 20
32.0754029452
 10
37.21806429980001
 20
32.10417621200001
 10
37.2084930456
 20
32.13327717529999
 10
37.20018594539997
 20
32.16269606149996
 10
37.19314777620002
 20
32.19239609980001
 10
37.18733228360003
 20
32.22231643579998
 10
37.182740948
 20
32.25240465419999
 10
37.17937181370002
 20
32.28266416279998
 10
37.17717343189998
 20
32.3131189327
 10
37.17613380910001
 20
32.34373531319999
 10
37.17626450680001
 20
32.37450595349999
 10
37.17754974369999
 20
32.40550092439999
 10
37.17998430500001
 20
32.4367450221
 10
37.18357338930002
 20
32.46818346049999
 10
37.18810028860003
 20
32.49847562320001
  0
LINE
  5
63F0F
330
1F
100
AcDbEntity
  8
1
100
AcDbLine
 10
39.22060302700004
 20
37.8988543785
 30
0.0
 11
39.3545696827
 21
37.9083108757
 31
0.0
  0
LINE
  5
63F10
330
1F
100
AcDbEntity
  8
1
100
AcDbLine
 10
39.3545696827
 20
37.9083108757
 30
0.0
 11
39.48851802219997
 21
37.91714954479998
 31
0.0
  0
LINE
  5
63F11
330
1F
100
AcDbEntity
  8
1
100
AcDbLine
 10
39.48851802219997
 20
37.91714954479998
 30
0.0
 11
39.62288408709998
 21
37.92539444739997
 31
0.0
  0
LINE
  5
63F12
330
1F
100
AcDbEntity
  8
1
100
AcDbLine
 10
39.62288408709998
 20
37.92539444739997
 30
0.0
 11
39.75762191280001
 21
37.93305595719998
 31
0.0
  0
LINE
  5
63F13
330
1F
100
AcDbEntity
  8
1
100
AcDbLine
 10
39.75762191280001
 20
37.93305595719998
 30
0.0
 11
39.98264118370002
 21
37.9449535525
 31
0.0
  0
LWPOLYLINE
  5
63F14
330
1F
100
AcDbEntity
  8
1
100
AcDbPolyline
 90
       14
 70
     0
 43
0.0
 10
42.32490332430001
 20
37.90724259840001
 10
42.82484061040003
 20
37.91015623669999
 10
43.32438427980003
 20
37.91209261879997
 10
43.82318016419995
 20
37.91306373849999
 10
44.3213266688
 20
37.91307219309998
 10
44.81897291069995
 20
37.91211897549998
 10
45.31616395999998
 20
37.91020252439999
 10
45.81293990369997
 20
37.90730762849999
 10
46.30944160489995
 20
37.9034135884
 10
46.80564306429997
 20
37.89849675480001
 10
47.30136294710002
 20
37.89252528169998
 10
47.79650773469995
 20
37.88546452319998
 10
48.29105027610001
 20
37.87727545930001
 10
48.78516065579995
 20
37.8679017964
  0
LINE
  5
63F15
330
1F
100
AcDbEntity
  8
1
100
AcDbLine
 10
41.68120885399995
 20
37.90252962779998
 30
0.0
 11
42.32490332430001
 21
37.90724259840001
 31
0.0
  0
LINE
  5
63F16
330
1F
100
AcDbEntity
  8
1
100
AcDbLine
 10
41.53743555610001
 20
37.90264371029998
 30
0.0
 11
41.68120885399995
 21
37.90252962779998
 31
0.0
  0
LINE
  5
63F17
330
1F
100
AcDbEntity
  8
1
100
AcDbLine
 10
41.39416858729996
 20
37.90366399539998
 30
0.0
 11
41.53743555610001
 21
37.90264371029998
 31
0.0
  0
LINE
  5
63F18
330
1F
100
AcDbEntity
  8
1
100
AcDbLine
 10
41.25208757370001
 20
37.90556480399998
 30
0.0
 11
41.39416858729996
 21
37.90366399539998
 31
0.0
  0
LINE
  5
63F19
330
1F
100
AcDbEntity
  8
1
100
AcDbLine
 10
41.11130898329998
 20
37.9083268816
 30
0.0
 11
41.25208757370001
 21
37.90556480399998
 31
0.0
  0
LINE
  5
63F1A
330
1F
100
AcDbEntity
  8
1
100
AcDbLine
 10
48.78516065579995
 20
37.8679017964
 30
0.0
 11
49.44336873689997
 21
37.85346323719996
 31
0.0
  0
LINE
  5
63F1B
330
1F
100
AcDbEntity
  8
1
100
AcDbLine
 10
49.44336873689997
 20
37.85346323719996
 30
0.0
 11
49.77223143090004
 21
37.8453710969
 31
0.0
  0
LINE
  5
63F1C
330
1F
100
AcDbEntity
  8
1
100
AcDbLine
 10
40.97219315320001
 20
37.91192873539997
 30
0.0
 11
41.11130898329998
 21
37.9083268816
 31
0.0
  0
LINE
  5
63F1D
330
1F
100
AcDbEntity
  8
1
100
AcDbLine
 10
49.77223143090004
 20
37.8453710969
 30
0.0
 11
50.1374999514
 21
37.83566092099999
 31
0.0
  0
LWPOLYLINE
  5
63F1E
330
1F
100
AcDbEntity
  8
1
100
AcDbPolyline
 90
        3
 70
     0
 43
0.0
 10
50.1374999514
 20
37.83566092099999
 10
50.49254556649995
 20
37.8254650512
 10
50.55166558090002
 20
37.8236925701
  0
LWPOLYLINE
  5
63F1F
330
1F
100
AcDbEntity
  8
1
100
AcDbPolyline
 90
        3
 70
     0
 43
0.0
 10
40.76791182029999
 20
37.91884014239999
 10
40.835387105
 20
37.91633938239999
 10
40.97219315320001
 20
37.91192873539997
  0
LWPOLYLINE
  5
63F20
330
1F
100
AcDbEntity
  8
1
100
AcDbPolyline
 90
       16
 70
     0
 43
0.0
 10
39.98264118370002
 20
37.9449535525
 10
40.03084652299998
 20
37.93856613469997
 10
40.07985672089998
 20
37.93280099299999
 10
40.12965161430003
 20
37.92766909919997
 10
40.18025627879999
 20
37.92317779139999
 10
40.23160451089995
 20
37.91934322039998
 10
40.28353396570003
 20
37.91618428219998
 10
40.33600380370001
 20
37.91370743730001
 10
40.38900131860001
 20
37.91191764180001
 10
40.44239915500003
 20
37.91082222629997
 10
40.49618607709999
 20
37.91042320009997
 10
40.55031506680001
 20
37.91072305789997
 10
40.60459950270001
 20
37.91171989509998
 10
40.65895491199998
 20
37.91340762340001
 10
40.71340254919997
 20
37.9157826957
 10
40.76791210930003
 20
37.918840887
  0
LINE
  5
63F21
330
1F
100
AcDbEntity
  8
1
100
AcDbLine
 10
50.79758825489998
 20
27.73938531700002
 30
0.0
 11
50.78464632919997
 21
27.74725020379996
 31
0.0
  0
LWPOLYLINE
  5
63F22
330
1F
100
AcDbEntity
  8
1
100
AcDbPolyline
 90
        3
 70
     0
 43
0.0
 10
50.78464632919997
 20
27.74725020379996
 10
50.77163079549999
 20
27.75531260270002
 10
50.7650953927
 20
27.75941786430002
  0
LINE
  5
63F23
330
1F
100
AcDbEntity
  8
1
100
AcDbLine
 10
50.36191325300001
 20
26.627006165
 30
0.0
 11
50.09999999999999
 21
26.79854580739998
 31
0.0
  0
LINE
  5
63F24
330
1F
100
AcDbEntity
  8
1
100
AcDbLine
 10
37.84517170539999
 20
32.51132371020002
 30
0.0
 11
37.8731850085
 21
32.48944281910001
 31
0.0
  0
LWPOLYLINE
  5
63F25
330
1F
100
AcDbEntity
  8
1
100
AcDbPolyline
 90
        5
 70
     0
 43
0.0
 10
37.8731850085
 20
32.48944281910001
 10
37.87664180600001
 20
32.48671618309997
 10
37.88009309719996
 20
32.48396181
 10
37.8835388823
 20
32.4811796998
 10
37.88697916119998
 20
32.4783698525
  0
LINE
  5
63F26
330
1F
100
AcDbEntity
  8
1
100
AcDbLine
 10
37.82095997120001
 20
32.53054784549998
 30
0.0
 11
37.84517170539999
 21
32.51132371020002
 31
0.0
  0
LINE
  5
63F27
330
1F
100
AcDbEntity
  8
1
100
AcDbLine
 10
37.79709076489996
 20
32.54980880039996
 30
0.0
 11
37.82095997120001
 21
32.53054784549998
 31
0.0
  0
LINE
  5
63F28
330
1F
100
AcDbEntity
  8
1
100
AcDbLine
 10
37.77357713719999
 20
32.56908528219997
 30
0.0
 11
37.79709076489996
 21
32.54980880039996
 31
0.0
  0
LINE
  5
63F29
330
1F
100
AcDbEntity
  8
1
100
AcDbLine
 10
37.88697916119998
 20
32.4783698525
 30
0.0
 11
37.95366571430003
 21
32.42294509980001
 31
0.0
  0
LINE
  5
63F2A
330
1F
100
AcDbEntity
  8
1
100
AcDbLine
 10
37.75522213950001
 20
32.58434957399997
 30
0.0
 11
37.77357713719999
 21
32.56908528219997
 31
0.0
  0
LINE
  5
63F2B
330
1F
100
AcDbEntity
  8
1
100
AcDbLine
 10
37.74183296409999
 20
32.5956027859
 30
0.0
 11
37.75522213950001
 21
32.58434957399997
 31
0.0
  0
LINE
  5
63F2C
330
1F
100
AcDbEntity
  8
1
100
AcDbLine
 10
37.72853964579997
 20
32.60687722559997
 30
0.0
 11
37.74183296409999
 21
32.5956027859
 31
0.0
  0
LINE
  5
63F2D
330
1F
100
AcDbEntity
  8
1
100
AcDbLine
 10
37.71534500230001
 20
32.61816885910001
 30
0.0
 11
37.72853964579997
 21
32.60687722559997
 31
0.0
  0
LINE
  5
63F2E
330
1F
100
AcDbEntity
  8
1
100
AcDbLine
 10
37.70224973789999
 20
32.62947667809998
 30
0.0
 11
37.71534500230001
 21
32.61816885910001
 31
0.0
  0
LINE
  5
63F2F
330
1F
100
AcDbEntity
  8
1
100
AcDbLine
 10
37.65880899119998
 20
31.67383357179999
 30
0.0
 11
37.62718363790003
 21
31.73112130450001
 31
0.0
  0
LINE
  5
63F30
330
1F
100
AcDbEntity
  8
1
100
AcDbLine
 10
37.67539396380005
 20
31.64314533759999
 30
0.0
 11
37.65880899119998
 21
31.67383357179999
 31
0.0
  0
LINE
  5
63F31
330
1F
100
AcDbEntity
  8
1
100
AcDbLine
 10
50.7650953927
 20
27.75941786430002
 30
0.0
 11
50.75197222149999
 21
27.76777694319998
 31
0.0
  0
LINE
  5
63F32
330
1F
100
AcDbEntity
  8
1
100
AcDbLine
 10
50.75197222149999
 20
27.76777694319998
 30
0.0
 11
50.73877914180002
 21
27.77633408349998
 31
0.0
  0
LINE
  5
63F33
330
1F
100
AcDbEntity
  8
1
100
AcDbLine
 10
50.61368672969996
 20
27.86392932279998
 30
0.0
 11
50.55166558090002
 21
27.9046621161
 31
0.0
  0
LWPOLYLINE
  5
63F34
330
1F
100
AcDbEntity
  8
1
100
AcDbPolyline
 90
       10
 70
     0
 43
0.0
 10
50.73877914180002
 20
27.77633408349998
 10
50.72738559430002
 20
27.78384551149996
 10
50.71592428630004
 20
27.79151953379999
 10
50.70439521779997
 20
27.79935615039996
 10
50.69279711249999
 20
27.80735488579997
 10
50.68113124669995
 20
27.81551621549998
 10
50.66940144950002
 20
27.8238415661
 10
50.65760899709997
 20
27.83233141289996
 10
50.64575261329998
 20
27.8409852807
 10
50.63048069569996
 20
27.85227555559997
  0
LWPOLYLINE
  5
63F35
330
1F
100
AcDbEntity
  8
1
100
AcDbPolyline
 90
        6
 70
     0
 43
0.0
 10
50.63048069569996
 20
27.85227555559997
 10
50.62712669639998
 20
27.85470073110001
 10
50.62377030020002
 20
27.85707869549998
 10
50.62041150700003
 20
27.85940944899998
 10
50.61705031680003
 20
27.86169299140001
 10
50.61368672969996
 20
27.86392932279998
  0
LWPOLYLINE
  5
63F36
330
1F
100
AcDbEntity
  8
1
100
AcDbPolyline
 90
       28
 70
     0
 43
0.0
 10
49.9693012322
 20
24.24005153820001
 10
49.96623426579998
 20
24.24285351109998
 10
49.95967277170001
 20
24.25003587579998
 10
49.95328238169995
 20
24.2587622125
 10
49.94708299719994
 20
24.26903738809996
 10
49.94109632829998
 20
24.28084074379996
 10
49.93537658920002
 20
24.294181285
 10
49.92994733649999
 20
24.30905863700001
 10
49.92482331130003
 20
24.32546150129998
 10
49.92004650159995
 20
24.34338576129999
 10
49.91563506009999
 20
24.36283412529999
 10
49.91160270469999
 20
24.3837960353
 10
49.90798427389998
 20
24.40625072869999
 10
49.90479403529997
 20
24.4302092185
 10
49.90204160799999
 20
24.4556573377
 10
49.89975344599995
 20
24.48254048259999
 10
49.89794043239999
 20
24.51086557959998
 10
49.89660626149995
 20
24.5406287087
 10
49.89576445889998
 20
24.57176322439999
 10
49.89542065689997
 20
24.6042871003
 10
49.89557346599998
 20
24.63819114479999
 10
49.89622330259999
 20
24.6733721961
 10
49.89737295459997
 20
24.70986905049998
 10
49.89901316299998
 20
24.74765782089999
 10
49.90112377219995
 20
24.7865461743
 10
49.90369264450001
 20
24.82647832
 10
49.90671546589999
 20
24.8675323552
 10
49.91018145689998
 20
24.90971957439997
  0
LINE
  5
63F37
330
1F
100
AcDbEntity
  8
1
100
AcDbLine
 10
50.46781089759995
 20
26.39215211079998
 30
0.0
 11
50.33376338720001
 21
26.54828434860001
 31
0.0
  0
LWPOLYLINE
  5
63F38
330
1F
100
AcDbEntity
  8
1
100
AcDbPolyline
 90
        7
 70
     0
 43
0.0
 10
38.14536980099999
 20
37.7314248791
 10
38.1399057003
 20
37.73924253279999
 10
38.13876910649998
 20
37.74096446200001
 10
38.13768878500003
 20
37.74269214529998
 10
38.13666473579997
 20
37.74442558279999
 10
38.13569695889999
 20
37.74616477439999
 10
38.13478545429999
 20
37.74790972009997
  0
LWPOLYLINE
  5
63F39
330
1F
100
AcDbEntity
  8
1
100
AcDbPolyline
 90
        9
 70
     0
 43
0.0
 10
38.17384622270004
 20
37.683423905
 10
38.17083300960002
 20
37.6893404866
 10
38.16766434159999
 20
37.6952813571
 10
38.1643402185
 20
37.70124651649998
 10
38.16086183890002
 20
37.70723674930001
 10
38.15722800419997
 20
37.7132512709
 10
38.15343511909996
 20
37.71928772800001
 10
38.14948198529999
 20
37.7253453359
 10
38.14536980099999
 20
37.7314248791
  0
LINE
  5
63F3A
330
1F
100
AcDbEntity
  8
1
100
AcDbLine
 10
38.13478545429999
 20
37.74790972009997
 30
0.0
 11
38.1185647726
 21
37.78013123529998
 31
0.0
  0
LWPOLYLINE
  5
63F3B
330
1F
100
AcDbEntity
  8
1
100
AcDbPolyline
 90
       10
 70
     0
 43
0.0
 10
38.18727384049996
 20
37.65271636029998
 10
38.1859758297
 20
37.65610448289998
 10
38.18462946649999
 20
37.65949867989998
 10
38.1832347509
 20
37.66289895139998
 10
38.18179186199998
 20
37.66630545419999
 10
38.1803006207
 20
37.66971803129998
 10
38.17876048980003
 20
37.67313621209998
 10
38.17717129030001
 20
37.6765598395
 10
38.17553320130003
 20
37.67998907049999
 10
38.17384622270004
 20
37.683423905
  0
LINE
  5
63F3C
330
1F
100
AcDbEntity
  8
1
100
AcDbLine
 10
50.09999999999999
 20
29.2511487968
 30
0.0
 11
50.18020843419995
 21
29.15859281649998
 31
0.0
  0
LINE
  5
63F3D
330
1F
100
AcDbEntity
  8
1
100
AcDbLine
 10
50.79758825489998
 20
37.58419042519999
 30
0.0
 11
50.77163079549999
 21
37.60878521950001
 31
0.0
  0
LINE
  5
63F3E
330
1F
100
AcDbEntity
  8
1
100
AcDbLine
 10
50.77163079549999
 20
37.60878521950001
 30
0.0
 11
50.74538445329998
 21
37.6339306334
 31
0.0
  0
LINE
  5
63F3F
330
1F
100
AcDbEntity
  8
1
100
AcDbLine
 10
50.61705031680003
 20
37.7604543666
 30
0.0
 11
50.55166558090002
 21
37.8236925701
 31
0.0
  0
LINE
  5
63F40
330
1F
100
AcDbEntity
  8
1
100
AcDbLine
 10
50.74538445329998
 20
37.6339306334
 30
0.0
 11
50.71592428630004
 21
37.66248155459998
 31
0.0
  0
LINE
  5
63F41
330
1F
100
AcDbEntity
  8
1
100
AcDbLine
 10
50.71592428630004
 20
37.66248155459998
 30
0.0
 11
50.69279711249999
 21
37.6851368368
 31
0.0
  0
LINE
  5
63F42
330
1F
100
AcDbEntity
  8
1
100
AcDbLine
 10
50.62377030020002
 20
37.7538656002
 30
0.0
 11
50.61705031680003
 21
37.7604543666
 31
0.0
  0
LINE
  5
63F43
330
1F
100
AcDbEntity
  8
1
100
AcDbLine
 10
50.69279711249999
 20
37.6851368368
 30
0.0
 11
50.66940144950002
 21
37.70826609140001
 31
0.0
  0
LINE
  5
63F44
330
1F
100
AcDbEntity
  8
1
100
AcDbLine
 10
50.63048069569996
 20
37.74719804529998
 30
0.0
 11
50.62377030020002
 21
37.7538656002
 31
0.0
  0
LWPOLYLINE
  5
63F45
330
1F
100
AcDbEntity
  8
1
100
AcDbPolyline
 90
        3
 70
     0
 43
0.0
 10
50.66940144950002
 20
37.70826609140001
 10
50.64575261329998
 20
37.7318616222
 10
50.63048069569996
 20
37.74719804529998
  0
LWPOLYLINE
  5
63F46
330
1F
100
AcDbEntity
  8
1
100
AcDbPolyline
 90
        8
 70
     0
 43
0.0
 10
49.34850124239997
 20
32.73054596969998
 10
49.37174273390002
 20
32.6742023341
 10
49.39349013610002
 20
32.61866967009998
 10
49.4137498355
 20
32.56394479000001
 10
49.43252245960002
 20
32.51004156689996
 10
49.44982104759995
 20
32.45693930570001
 10
49.46566643829999
 20
32.40458504539997
 10
49.47177108689999
 20
32.38269836009998
  0
LINE
  5
63F47
330
1F
100
AcDbEntity
  8
1
100
AcDbLine
 10
50.75552531930004
 20
27.19675281700002
 30
0.0
 11
50.78406920019998
 21
27.11079960319998
 31
0.0
  0
LINE
  5
63F48
330
1F
100
AcDbEntity
  8
1
100
AcDbLine
 10
0.0
 20
18.16499441200001
 30
0.0
 11
0.0
 21
26.86856537529998
 31
0.0
  0
ARC
  5
63F49
330
1F
100
AcDbEntity
  8
1
100
AcDbCircle
 10
16.53321838950001
 20
-42.01500000000002
 30
0.0
 40
15.0
100
AcDbArc
 50
57.95074978369829
 51
108.7969050350004
  0
ARC
  5
63F4A
330
1F
100
AcDbEntity
  8
sk3
100
AcDbCircle
 10
52.80000000000001
 20
-19.8505576891
 30
0.0
 40
5.0
100
AcDbArc
 50
180.0
 51
197.0490309721002
  0
ARC
  5
63F4B
330
1F
100
AcDbEntity
  8
sk3
100
AcDbCircle
 10
45.09999999999999
 20
-28.84944231080004
 30
0.0
 40
5.0
100
AcDbArc
 50
0.0
 51
17.0490309721002
  0
ARC
  5
63F4C
330
1F
100
AcDbEntity
  8
1
100
AcDbCircle
 10
27.69133779839999
 20
-34.29288765820003
 30
0.0
 40
2.9983170644
100
AcDbArc
 50
88.80735992430148
 51
90.2721953873001
  0
ARC
  5
63F4D
330
1F
100
AcDbEntity
  8
1
100
AcDbCircle
 10
1.69999999999996
 20
-25.81500000000001
 30
0.0
 40
2.0
100
AcDbArc
 50
211.7883306171011
 51
270.0
  0
ARC
  5
63F4E
330
1F
100
AcDbEntity
  8
1
100
AcDbCircle
 10
16.53321838950001
 20
42.015
 30
0.0
 40
15.0
100
AcDbArc
 50
251.2030949649995
 51
302.0492502163017
  0
ARC
  5
63F4F
330
1F
100
AcDbEntity
  8
sk3
100
AcDbCircle
 10
52.80000000000001
 20
19.85055768919997
 30
0.0
 40
5.0
100
AcDbArc
 50
162.9509690278998
 51
180.0
  0
ARC
  5
63F50
330
1F
100
AcDbEntity
  8
sk3
100
AcDbCircle
 10
45.09999999999999
 20
28.84944231089999
 30
0.0
 40
5.0
100
AcDbArc
 50
342.9509690278998
 51
0.0
  0
ARC
  5
63F51
330
1F
100
AcDbEntity
  8
1
100
AcDbCircle
 10
27.69133779840001
 20
34.29296104309996
 30
0.0
 40
2.9991562774
100
AcDbArc
 50
269.7046948461007
 51
271.1488663072989
  0
ARC
  5
63F52
330
1F
100
AcDbEntity
  8
1
100
AcDbCircle
 10
1.699999999999988
 20
25.81500000000001
 30
0.0
 40
2.0
100
AcDbArc
 50
90.0
 51
148.2116693828989
  0
LINE
  5
63FF2
330
1F
100
AcDbEntity
  8
cut
100
AcDbLine
 10
37.76574418879994
 20
34.02462369610001
 30
0.0
 11
38.15310101889997
 21
35.03471324380001
 31
0.0
1001
ACAD
1000
RTMaterial
1005
0
  0
LINE
  5
63FF3
330
1F
100
AcDbEntity
  8
cut
100
AcDbLine
 10
38.15310101889997
 20
35.03471324380001
 30
0.0
 11
38.18739084299995
 21
35.27537424740004
 31
0.0
1001
ACAD
1000
RTMaterial
1005
0
  0
LINE
  5
63FF4
330
1F
100
AcDbEntity
  8
cut
100
AcDbLine
 10
37.71973250399992
 20
33.80964127520002
 30
0.0
 11
37.76574418869996
 21
34.02462369610001
 31
0.0
1001
ACAD
1000
RTMaterial
1005
0
  0
LINE
  5
63FF5
330
1F
100
AcDbEntity
  8
cut
100
AcDbLine
 10
38.12099790579998
 20
37.92558121460004
 30
0.0
 11
38.12099790579998
 21
36.53287276610001
 31
0.0
1001
ACAD
1000
RTMaterial
1005
0
  0
LINE
  5
63FF6
330
1F
100
AcDbEntity
  8
cut
100
AcDbLine
 10
38.18993267109994
 20
37.43290738150003
 30
0.0
 11
38.18993267109994
 21
37.3341927454
 31
0.0
1001
ACAD
1000
RTMaterial
1005
0
  0
LINE
  5
63FF7
330
1F
100
AcDbEntity
  8
cut
100
AcDbLine
 10
37.70467198759991
 20
32.73649334800004
 30
0.0
 11
37.71973250399992
 21
33.80964127520002
 31
0.0
1001
ACAD
1000
RTMaterial
1005
0
  0
LINE
  5
63FF8
330
1F
100
AcDbEntity
  8
cut
100
AcDbLine
 10
38.11621395679992
 20
36.47726259830003
 30
0.0
 11
38.19842474729995
 21
37.43290738150003
 31
0.0
1001
ACAD
1000
RTMaterial
1005
0
  0
LINE
  5
63FF9
330
1F
100
AcDbEntity
  8
cut
100
AcDbLine
 10
38.18739084299995
 20
35.27537424740004
 30
0.0
 11
38.11621395679992
 21
36.47726259830003
 31
0.0
1001
ACAD
1000
RTMaterial
1005
0
  0
LINE
  5
63FFA
330
1F
100
AcDbEntity
  8
cut
100
AcDbLine
 10
38.19842474729995
 20
37.43290738150003
 30
0.0
 11
38.18993267109994
 21
37.78147346780003
 31
0.0
1001
ACAD
1000
RTMaterial
1005
0
  0
LINE
  5
63FFB
330
1F
100
AcDbEntity
  8
cut
100
AcDbLine
 10
37.95609884739997
 20
32.53321216220002
 30
0.0
 11
50.44954720679999
 21
32.93187811680002
 31
0.0
1001
ACAD
1000
RTMaterial
1005
0
  0
LINE
  5
63FFC
330
1F
100
AcDbEntity
  8
cut
100
AcDbLine
 10
50.36434638609995
 20
35.5344064391
 30
0.0
 11
50.75795845249996
 21
36.61034717230001
 31
0.0
1001
ACAD
1000
RTMaterial
1005
0
  0
LINE
  5
63FFD
330
1F
100
AcDbEntity
  8
cut
100
AcDbLine
 10
38.12099790579998
 20
37.92558121460004
 30
0.0
 11
40.79999999999995
 21
38.1
 31
0.0
1001
ACAD
1000
RTMaterial
1005
0
  0
LINE
  5
63FFE
330
1F
100
AcDbEntity
  8
cut
100
AcDbLine
 10
40.79999999999995
 20
38.1
 30
0.0
 11
50.55409871399996
 21
38.1
 31
0.0
1001
ACAD
1000
RTMaterial
1005
0
  0
LINE
  5
63FFF
330
1F
100
AcDbEntity
  8
cut
100
AcDbLine
 10
37.95609884739997
 20
32.53321216220002
 30
0.0
 11
37.70467198759991
 21
32.73649334800004
 31
0.0
1001
ACAD
1000
RTMaterial
1005
0
  0
LINE
  5
64000
330
1F
100
AcDbEntity
  8
cut
100
AcDbLine
 10
50.75795845249996
 20
36.61034717230001
 30
0.0
 11
50.79999999999995
 21
36.8149305725
 31
0.0
1001
ACAD
1000
RTMaterial
1005
0
  0
LINE
  5
64001
330
1F
100
AcDbEntity
  8
cut
100
AcDbLine
 10
38.18993267109994
 20
37.78147346780003
 30
0.0
 11
38.12099790579998
 21
37.92558121460004
 31
0.0
1001
ACAD
1000
RTMaterial
1005
0
  0
LINE
  5
64002
330
1F
100
AcDbEntity
  8
cut
100
AcDbLine
 10
50.43505800359992
 20
34.02338923650004
 30
0.0
 11
50.46061365119993
 21
34.2685692398
 31
0.0
1001
ACAD
1000
RTMaterial
1005
0
  0
LINE
  5
64003
330
1F
100
AcDbEntity
  8
cut
100
AcDbLine
 10
50.33619652029995
 20
35.32202205120004
 30
0.0
 11
50.36434638609995
 21
35.5344064391
 31
0.0
1001
ACAD
1000
RTMaterial
1005
0
  0
LINE
  5
64004
330
1F
100
AcDbEntity
  8
cut
100
AcDbLine
 10
50.41364945569995
 20
33.25691387190003
 30
0.0
 11
50.40205187459998
 21
33.58213905050005
 31
0.0
1001
ACAD
1000
RTMaterial
1005
0
  0
LINE
  5
64005
330
1F
100
AcDbEntity
  8
cut
100
AcDbLine
 10
50.36434638609995
 20
35.5344064391
 30
0.0
 11
50.36434638609995
 21
35.13958689420003
 31
0.0
1001
ACAD
1000
RTMaterial
1005
0
  0
LINE
  5
64006
330
1F
100
AcDbEntity
  8
cut
100
AcDbLine
 10
50.43505800359992
 20
34.02338923650004
 30
0.0
 11
50.43505800359992
 21
33.06307043250001
 31
0.0
1001
ACAD
1000
RTMaterial
1005
0
  0
LINE
  5
64007
330
1F
100
AcDbEntity
  8
cut
100
AcDbLine
 10
50.7999999999999
 20
36.81493057249969
 30
0.0
 11
50.79999999999995
 21
37.85654972970002
 31
0.0
1001
ACAD
1000
RTMaterial
1005
0
  0
LINE
  5
64008
330
1F
100
AcDbEntity
  8
cut
100
AcDbLine
 10
50.46061365119993
 20
34.2685692398
 30
0.0
 11
50.47024403069997
 21
34.4532797709
 31
0.0
1001
ACAD
1000
RTMaterial
1005
0
  0
LINE
  5
64009
330
1F
100
AcDbEntity
  8
cut
100
AcDbLine
 10
50.40205187459998
 20
33.58213905050005
 30
0.0
 11
50.43505800359992
 21
34.02338923650004
 31
0.0
1001
ACAD
1000
RTMaterial
1005
0
  0
LINE
  5
6400A
330
1F
100
AcDbEntity
  8
cut
100
AcDbLine
 10
50.47024403069997
 20
34.4532797709
 30
0.0
 11
50.33619652029995
 21
35.32202205120004
 31
0.0
1001
ACAD
1000
RTMaterial
1005
0
  0
LINE
  5
6400B
330
1F
100
AcDbEntity
  8
cut
100
AcDbLine
 10
50.44954720679999
 20
32.93187811680002
 30
0.0
 11
50.41364945569995
 21
33.25691387190003
 31
0.0
1001
ACAD
1000
RTMaterial
1005
0
  0
LINE
  5
6400C
330
1F
100
AcDbEntity
  8
cut
100
AcDbLine
 10
50.79999999999995
 20
37.85654972970002
 30
0.0
 11
50.55409871399996
 21
38.1
 31
0.0
1001
ACAD
1000
RTMaterial
1005
0
  0
VIEWPORT
  5
6B
102
{ACAD_XDICTIONARY
360
640BA
102
}
330
50
100
AcDbEntity
 67
     1
  8
0
100
AcDbViewport
 10
155.3592437148233
 20
160.4455827878762
 30
0.0
 40
349.5854424261001
 41
282.2272140146125
 68
     1
 69
     1
 12
155.3592437148233
 22
160.4455827878762
 13
0.0
 23
0.0
 14
10.0
 24
10.0
 15
10.0
 25
10.0
 16
0.0
 26
0.0
 36
1.0
 17
0.0
 27
0.0
 37
0.0
 42
50.0
 43
0.0
 44
0.0
 45
282.2272140146125
 50
0.0
 51
0.0
 72
  1000
 90
    32864
  1

281
     0
 71
     1
 74
     0
110
0.0
120
0.0
130
0.0
111
1.0
121
0.0
131
0.0
112
0.0
122
1.0
132
0.0
 79
     0
146
0.0
  0
VIEWPORT
  5
6D
102
{ACAD_XDICTIONARY
360
640BC
102
}
330
50
100
AcDbEntity
 67
     1
  8
0
100
AcDbViewport
 10
133.3499939441681
 20
101.5999939441681
 30
0.0
 40
213.3599903106689
 41
162.5599903106689
 68
     2
 69
     2
 12
210.0
 22
148.5
 13
0.0
 23
0.0
 14
10.0
 24
10.0
 15
10.0
 25
10.0
 16
0.0
 26
0.0
 36
1.0
 17
0.0
 27
0.0
 37
0.0
 42
50.0
 43
0.0
 44
0.0
 45
324.0677920111345
 50
0.0
 51
0.0
 72
   100
 90
    32864
  1

281
     0
 71
     1
 74
     0
110
0.0
120
0.0
130
0.0
111
1.0
121
0.0
131
0.0
112
0.0
122
1.0
132
0.0
 79
     0
146
0.0
  0
ENDSEC
  0
SECTION
  2
OBJECTS
  0
DICTIONARY
  5
C
330
0
100
AcDbDictionary
281
     1
  3
ACAD_COLOR
350
85
  3
ACAD_GROUP
350
D
  3
ACAD_LAYOUT
350
1A
  3
ACAD_MATERIAL
350
84
  3
ACAD_MLINESTYLE
350
17
  3
ACAD_PLOTSETTINGS
350
19
  3
ACAD_PLOTSTYLENAME
350
E
  3
ACAD_TABLESTYLE
350
A1
  3
ACDBHEADERROUNDTRIPXREC
350
640B5
  3
AcDbVariableDictionary
350
5E
  3
ASE_INDEX_DICTIONARY
350
349E9
  3
DWGPROPS
350
640B4
  0
DICTIONARY
  5
E2
330
2
100
AcDbDictionary
280
     1
281
     1
  3
ACAD_LAYERFILTERS
360
640B2
  3
ACAD_LAYERSTATES
360
3759A
  3
ACLYDICTIONARY
360
640B1
  0
DICTIONARY
  5
31EE
330
1F
100
AcDbDictionary
280
     1
281
     1
  3
ACAD_SORTENTS
360
31EF
  0
DICTIONARY
  5
43668
330
680
100
AcDbDictionary
280
     1
281
     1
  3
ACAD_SORTENTS
360
629EB
  0
DICTIONARY
  5
640BE
330
71
100
AcDbDictionary
280
     1
281
     1
  3
ACAD_XREC_ROUNDTRIP
360
640BF
  0
DICTIONARY
  5
640C0
330
73
100
AcDbDictionary
280
     1
281
     1
  3
ACAD_XREC_ROUNDTRIP
360
640C1
  0
DICTIONARY
  5
640BA
330
6B
100
AcDbDictionary
280
     1
281
     1
  3
ACAD_XREC_ROUNDTRIP
360
640BB
  0
DICTIONARY
  5
640BC
330
6D
100
AcDbDictionary
280
     1
281
     1
  3
ACAD_XREC_ROUNDTRIP
360
640BD
  0
DICTIONARY
  5
85
102
{ACAD_REACTORS
330
C
102
}
330
C
100
AcDbDictionary
281
     1
  0
DICTIONARY
  5
D
102
{ACAD_REACTORS
330
C
102
}
330
C
100
AcDbDictionary
281
     1
  0
DICTIONARY
  5
1A
102
{ACAD_REACTORS
330
C
102
}
330
C
100
AcDbDictionary
281
     1
  3
\M+1838C\M+18343\M+18341\M+18345\M+183671
350
51
  3
\M+1838C\M+18343\M+18341\M+18345\M+183672
350
56
  3
Model
350
22
  0
DICTIONARY
  5
84
102
{ACAD_REACTORS
330
C
102
}
330
C
100
AcDbDictionary
281
     1
  0
DICTIONARY
  5
17
102
{ACAD_REACTORS
330
C
102
}
330
C
100
AcDbDictionary
281
     1
  3
Standard
350
18
  0
DICTIONARY
  5
19
102
{ACAD_REACTORS
330
C
102
}
330
C
100
AcDbDictionary
281
     1
  0
ACDBDICTIONARYWDFLT
  5
E
102
{ACAD_REACTORS
330
C
102
}
330
C
100
AcDbDictionary
281
     1
  3
Normal
350
F
100
AcDbDictionaryWithDefault
340
F
  0
DICTIONARY
  5
A1
102
{ACAD_REACTORS
330
C
102
}
330
C
100
AcDbDictionary
281
     1
  3
Standard
350
A2
  0
DICTIONARY
  5
640B5
102
{ACAD_REACTORS
330
C
102
}
330
C
100
AcDbDictionary
281
     1
  0
DICTIONARY
  5
5E
102
{ACAD_REACTORS
330
C
102
}
330
C
100
AcDbDictionary
281
     1
  3
CTABLESTYLE
350
B8
  3
DIMASSOC
350
5F
  3
HIDETEXT
350
63
  3
PROJECTNAME
350
31CE
  0
DICTIONARY
  5
349E9
102
{ACAD_REACTORS
330
C
102
}
330
C
100
AcDbDictionary
281
     1
  3
ASEBlockHierarchyIndexRecord
350
349EA
1001
DCO15
1040
1842496176.844
  0
XRECORD
  5
640B4
102
{ACAD_REACTORS
330
C
102
}
330
C
100
AcDbXrecord
280
     1
  1
DWGPROPS COOKIE
  2

  3

  4

  6

  7

  8

  9

300
=
301
=
302
=
303
=
304
=
305
=
306
=
307
=
308
=
309
=
 40
2.375712337962962
 41
2455489.391063368
 42
2458543.753035313
  1

 90
        0
  0
DICTIONARY
  5
640B2
102
{ACAD_REACTORS
330
E2
102
}
330
E2
100
AcDbDictionary
281
     1
  0
DICTIONARY
  5
3759A
102
{ACAD_REACTORS
330
E2
102
}
330
E2
100
AcDbDictionary
281
     1
  0
DICTIONARY
  5
640B1
102
{ACAD_REACTORS
330
E2
102
}
330
E2
100
AcDbDictionary
281
     1
1001
ACAD
1000
<All
  0
SORTENTSTABLE
  5
31EF
102
{ACAD_REACTORS
330
31EE
102
}
330
31EE
100
AcDbSortentsTable
330
1F
331
68C
  5
435D5
  0
SORTENTSTABLE
  5
629EB
102
{ACAD_REACTORS
330
43668
102
}
330
43668
100
AcDbSortentsTable
330
680
  0
XRECORD
  5
640BF
102
{ACAD_REACTORS
330
640BE
102
}
330
640BE
100
AcDbXrecord
280
     1
102
SHADEPLOT
 70
     0
  0
XRECORD
  5
640C1
102
{ACAD_REACTORS
330
640C0
102
}
330
640C0
100
AcDbXrecord
280
     1
102
SHADEPLOT
 70
     0
  0
XRECORD
  5
640BB
102
{ACAD_REACTORS
330
640BA
102
}
330
640BA
100
AcDbXrecord
280
     1
102
SHADEPLOT
 70
     0
  0
XRECORD
  5
640BD
102
{ACAD_REACTORS
330
640BC
102
}
330
640BC
100
AcDbXrecord
280
     1
102
SHADEPLOT
 70
     0
  0
LAYOUT
  5
51
102
{ACAD_XDICTIONARY
360
B2
102
}
102
{ACAD_REACTORS
330
1A
102
}
330
1A
100
AcDbPlotSettings
  1

  2
none_device
  4
Letter_(8.50_x_11.00_Inches)
  6

 40
6.349999904632567
 41
6.349999904632567
 42
6.350006103515625
 43
6.350006103515625
 44
215.8999938964844
 45
279.3999938964844
 46
0.0
 47
0.0
 48
0.0
 49
0.0
140
0.0
141
0.0
142
1.0
143
1.0
 70
   688
 72
     1
 73
     1
 74
     5
  7

 75
    16
147
1.0
148
0.0
149
0.0
100
AcDbLayout
  1
\M+1838C\M+18343\M+18341\M+18345\M+183671
 70
     1
 71
     1
 10
-6.350006103515625
 20
-6.349999904632567
 11
273.0499877929688
 21
209.5499939918518
 12
0.0
 22
0.0
 32
0.0
 14
26.66999878883364
 24
20.31999878883365
 34
0.0
 15
240.0299890995025
 25
182.8799890995025
 35
0.0
146
0.0
 13
0.0
 23
0.0
 33
0.0
 16
1.0
 26
0.0
 36
0.0
 17
0.0
 27
1.0
 37
0.0
 76
     0
330
50
331
6B
  0
LAYOUT
  5
56
102
{ACAD_XDICTIONARY
360
B5
102
}
102
{ACAD_REACTORS
330
1A
102
}
330
1A
100
AcDbPlotSettings
  1

  2
none_device
  4
Letter_(8.50_x_11.00_Inches)
  6

 40
6.349999904632567
 41
6.349999904632567
 42
6.350006103515625
 43
6.350006103515625
 44
215.8999938964844
 45
279.3999938964844
 46
0.0
 47
0.0
 48
0.0
 49
0.0
140
0.0
141
0.0
142
1.0
143
1.0
 70
   688
 72
     1
 73
     1
 74
     5
  7

 75
    16
147
1.0
148
0.0
149
0.0
100
AcDbLayout
  1
\M+1838C\M+18343\M+18341\M+18345\M+183672
 70
     1
 71
     2
 10
-6.350006103515625
 20
-6.349999904632567
 11
273.0499877929688
 21
209.5499939918518
 12
0.0
 22
0.0
 32
0.0
 14
26.66999878883363
 24
20.31999878883363
 34
0.0
 15
240.0299890995026
 25
182.8799890995025
 35
0.0
146
0.0
 13
0.0
 23
0.0
 33
0.0
 16
1.0
 26
0.0
 36
0.0
 17
0.0
 27
1.0
 37
0.0
 76
     0
330
55
331
71
  0
LAYOUT
  5
22
102
{ACAD_XDICTIONARY
360
640B6
102
}
102
{ACAD_REACTORS
330
1A
102
}
330
1A
100
AcDbPlotSettings
  1

  2
none_device
  4
ANSI_A_(8.50_x_11.00_Inches)
  6

 40
6.349999904632567
 41
19.04999923706055
 42
6.350006103515625
 43
19.04998779296875
 44
215.8999938964844
 45
279.3999938964844
 46
0.0
 47
0.0
 48
0.0
 49
0.0
140
0.0
141
0.0
142
1.0
143
78.436453180766
 70
 11952
 72
     0
 73
     1
 74
     0
  7

 75
     0
147
0.0127491741332998
148
0.0
149
0.0
100
AcDbLayout
  1
Model
 70
     1
 71
     0
 10
0.0
 20
0.0
 11
12.0
 21
9.0
 12
0.0
 22
0.0
 32
0.0
 14
0.0
 24
0.0
 34
0.0
 15
0.0
 25
0.0
 35
0.0
146
0.0
 13
0.0
 23
0.0
 33
0.0
 16
1.0
 26
0.0
 36
0.0
 17
0.0
 27
1.0
 37
0.0
 76
     0
330
1F
  0
MLINESTYLE
  5
18
102
{ACAD_REACTORS
330
17
102
}
330
17
100
AcDbMlineStyle
  2
STANDARD
 70
     0
  3

 62
   256
 51
90.0
 52
90.0
 71
     2
 49
0.5
 62
   256
  6
BYLAYER
 49
-0.5
 62
   256
  6
BYLAYER
  0
ACDBPLACEHOLDER
  5
F
102
{ACAD_REACTORS
330
E
102
}
330
E
  0
TABLESTYLE
  5
A2
102
{ACAD_REACTORS
330
A1
102
}
330
A1
100
AcDbTableStyle
  3
Standard
 70
     0
 71
     0
 40
1.5
 41
1.5
280
     0
281
     0
  7
Standard
140
4.5
170
     2
 62
     0
 63
     7
283
     0
274
    -2
284
     1
 64
     0
275
    -2
285
     1
 65
     0
276
    -2
286
     1
 66
     0
277
    -2
287
     1
 67
     0
278
    -2
288
     1
 68
     0
279
    -2
289
     1
 69
     0
  7
Standard
140
6.0
170
     5
 62
     0
 63
     7
283
     0
274
    -2
284
     1
 64
     0
275
    -2
285
     1
 65
     0
276
    -2
286
     1
 66
     0
277
    -2
287
     1
 67
     0
278
    -2
288
     1
 68
     0
279
    -2
289
     1
 69
     0
  7
Standard
140
4.5
170
     5
 62
     0
 63
     7
283
     0
274
    -2
284
     1
 64
     0
275
    -2
285
     1
 65
     0
276
    -2
286
     1
 66
     0
277
    -2
287
     1
 67
     0
278
    -2
288
     1
 68
     0
279
    -2
289
     1
 69
     0
  0
DICTIONARYVAR
  5
B8
102
{ACAD_REACTORS
330
5E
102
}
330
5E
100
DictionaryVariables
280
     0
  1
STANDARD
  0
DICTIONARYVAR
  5
5F
102
{ACAD_REACTORS
330
5E
102
}
330
5E
100
DictionaryVariables
280
     0
  1
2
  0
DICTIONARYVAR
  5
63
102
{ACAD_REACTORS
330
5E
102
}
330
5E
100
DictionaryVariables
280
     0
  1
1
  0
DICTIONARYVAR
  5
31CE
102
{ACAD_REACTORS
330
5E
102
}
330
5E
100
DictionaryVariables
280
     0
  1

  0
XRECORD
  5
349EA
102
{ACAD_REACTORS
330
349E9
102
}
330
349E9
100
AcDbXrecord
280
     1
330
68C
330
431D
330
431E
330
4329
330
4334
330
4335
330
4B09
330
4B0A
330
5153
330
5154
330
515D
330
515E
330
516A
330
516B
330
5177
330
5178
330
85B4
330
85B5
330
8620
330
8621
330
862A
330
862B
330
8637
330
8638
330
8644
330
8645
330
9773
330
9774
330
977D
330
977E
330
978A
330
978B
330
9797
330
9798
330
BD86
330
BD87
330
BD8F
330
BD90
330
BD98
330
BDA0
330
BDA1
330
BDDD
330
BDDE
330
BDE7
330
BDE8
330
BDF4
330
BDF5
330
BE01
330
BE02
330
E473
330
E474
330
E48D
330
E48E
330
E485
330
E47C
330
E47D
330
E4CC
330
E4CD
330
E4D7
330
E4D8
330
1C63B
330
1C63C
330
1C705
330
1C706
330
1C719
330
1C71A
330
1C72E
330
1C72F
330
1C738
330
1C739
330
27043
330
27044
330
2703A
330
2703B
330
2CF2C
330
2CF2D
330
2CF38
330
2CF39
330
2CF42
330
2CF43
330
2CF4F
330
2CF50
330
2CF59
330
2CF5A
330
2FA31
330
2FA32
330
2FA3D
330
2FA3E
330
2FA4A
330
2FA4B
330
2FA54
330
2FA55
330
329D8
330
329D9
330
329E1
330
329E2
330
329EA
330
329EB
330
329F3
330
329F4
330
32E63
330
32E64
330
32E6F
330
32E70
330
32E79
330
32E7A
330
32E88
330
32E89
330
32E92
330
32E93
  0
DICTIONARY
  5
B2
330
51
100
AcDbDictionary
280
     1
281
     1
  3
ACAD_XREC_ROUNDTRIP
360
640B8
  3
ADSK_XREC_LAYOUTTHUMBNAIL
360
B3
  0
DICTIONARY
  5
B5
330
56
100
AcDbDictionary
280
     1
281
     1
  3
ACAD_XREC_ROUNDTRIP
360
640B9
  3
ADSK_XREC_LAYOUTTHUMBNAIL
360
B6
  0
DICTIONARY
  5
640B6
330
22
100
AcDbDictionary
280
     1
281
     1
  3
ACAD_XREC_ROUNDTRIP
360
640B7
  0
XRECORD
  5
640B8
102
{ACAD_REACTORS
330
B2
102
}
330
B2
100
AcDbXrecord
280
     1
102
SHADEPLOT
 70
     0
102
SHADEPLOTRESLEVEL
 70
     2
102
SHADEPLOTCUSTOMDPI
 70
   300
  0
XRECORD
  5
B3
102
{ACAD_REACTORS
330
B2
102
}
330
B2
100
AcDbXrecord
280
     1
310
28000000B40000008B0000000100080000000000BC61000000000000000000000001000000000000FFFFFF0000000000FFFFFF000000000000000000000000000000000000000000000000000000000000000000330000006600000099000000CC000000FF00000000330000333300006633000099330000CC330000FF3300
310
0000660000336600006666000099660000CC660000FF66000000990000339900006699000099990000CC990000FF99000000CC000033CC000066CC000099CC0000CCCC0000FFCC000000FF000033FF000066FF000099FF0000CCFF0000FFFF000000003300330033006600330099003300CC003300FF003300003333003333
310
33006633330099333300CC333300FF33330000663300336633006666330099663300CC663300FF66330000993300339933006699330099993300CC993300FF99330000CC330033CC330066CC330099CC3300CCCC3300FFCC330000FF330033FF330066FF330099FF3300CCFF3300FFFF330000006600330066006600660099
310
006600CC006600FF00660000336600333366006633660099336600CC336600FF33660000666600336666006666660099666600CC666600FF66660000996600339966006699660099996600CC996600FF99660000CC660033CC660066CC660099CC6600CCCC6600FFCC660000FF660033FF660066FF660099FF6600CCFF6600
310
FFFF660000009900330099006600990099009900CC009900FF00990000339900333399006633990099339900CC339900FF33990000669900336699006666990099669900CC669900FF66990000999900339999006699990099999900CC999900FF99990000CC990033CC990066CC990099CC9900CCCC9900FFCC990000FF99
310
0033FF990066FF990099FF9900CCFF9900FFFF99000000CC003300CC006600CC009900CC00CC00CC00FF00CC000033CC003333CC006633CC009933CC00CC33CC00FF33CC000066CC003366CC006666CC009966CC00CC66CC00FF66CC000099CC003399CC006699CC009999CC00CC99CC00FF99CC0000CCCC0033CCCC0066CC
310
CC0099CCCC00CCCCCC00FFCCCC0000FFCC0033FFCC0066FFCC0099FFCC00CCFFCC00FFFFCC000000FF003300FF006600FF009900FF00CC00FF00FF00FF000033FF003333FF006633FF009933FF00CC33FF00FF33FF000066FF003366FF006666FF009966FF00CC66FF00FF66FF000099FF003399FF006699FF009999FF00CC
310
99FF00FF99FF0000CCFF0033CCFF0066CCFF0099CCFF00CCCCFF00FFCCFF0000FFFF0033FFFF0066FFFF0099FFFF00CCFFFF00FFFFFF00000000000D0D0D001A1A1A00282828003535350043434300505050005D5D5D006B6B6B00787878008686860093939300A1A1A100AEAEAE00BBBBBB00C9C9C900D6D6D600E4E4E400
310
F1F1F100FFFFFF0000000000000000000000000000000000000000000000000000000000000000000000000000000000EFEFEFE2E2E2E2E2E2E2E2E2E2E2E2E2E2E2E2E2E2E2E2E2E2E2E2E2E2E2E2E2E2E2E2E2E2E2E2E2E2E2E2E2E2E2E2E2E2E2E2E2E2E2E2E2E2E2E2E2E2E2E2E2E2E2E2E2E2E2E2E2E2E2E2E2E2E2E2
310
E2E2E2E2E2E2E2E2E2E2E2E2E2E2E2E2E2E2E2E2E2E2E2E2E2E2E2E2E2E2E2E2E2E2E2E2E2E2E2E2E2E2E2E2E2E2E2E2E2E2E2E2E2E2E2E2E2E2E2E2E2E2E2E2E2E2E2E2E2E2E2E2E2E2E2E2E2E2E2E2E2E2E2E2E2E2E2E2E2E2E2E2E2E2E2E2E2E2E2E2E2E2E2E2E2E2E2E2E2E2E2E2E2E2E2E2E2E2E2E2E2E2E2E2E2E2E2
310
E2E2E2E2E2E2E2E2E2E2E2E2E2E2E2E2E2E2E2E2E2E2E2E2E2E2E2E2E2E2E2E2E2E2E2E2E2E2E2E2E2E2E2E2E2E2E2E2E2E2E2E2E2E2E2E2E2E2E2E2E2E2E2E2E2E2E2E2E2E2E2E2E2E2E2E2E2E2E2E2E2E2E2E2E2E2E2E2E2E2E2E2E2E2E2E2E2E2E2E2E2E2E2E2E2E2E2E2E2E2E2E2E2E2E2E2E2E2E2E2E2E2E2E2E2E2E2
310
E2E2E2E2E2E2E2E2E2E2E2E2E2E2E2E2E2E2E2E2E2E2E2E2E2E2E2E2F5F5F5F5F5F5F5F5F5F5F5F5F5F5F5F5F5F5F5F5F5F5F5F5F5F5F5F5F5F5F5F5F5F5F5F5F5F5F5F5F5F5F5F5F5F5F5F5F5F5F5F5F5F5F5F5F5F5F5F5F5F5F5F5F5F5F5F5F5F5F5F5F5F5F5F5F5F5F5F5F5F5F5F5F5F5F5F5F5F5F5F5F5F5F5F5F5F5F5
310
F5F5F5F5F5F5F5F5F5F5F5F5F5F5F5F5F5F5F5F5F5F5F5F5F5F5F5F5F5F5F5F5F5F5F5F5F5F5F5F5F5F5F5F5F5F5F5F5F5F5F5F5F5F5F5F5F5F5F5F5F5F5F5F5F5F5F5F5F5F5F5F5F5F5F5F5F5F5F5E2E2F5F5F5F5F5F5F5F5F5F5F5F5F5F5F5F5F5F5F5F5F5F5F5F5F5F5F5F5F5F5F5F5F5F5F5F5F5F5F5F5F5F5F5F5F5F5
310
F5F5F5F5F5F5F5F5F5F5F5F5F5F5F5F5F5F5F5F5F5F5F5F5F5F5F5F5F5F5F5F5F5F5F5F5F5F5F5F5F5F5F5F5F5F5F5F5F5F5F5F5F5F5F5F5F5F5F5F5F5F5F5F5F5F5F5F5F5F5F5F5F5F5F5F5F5F5F5F5F5F5F5F5F5F5F5F5F5F5F5F5F5F5F5F5F5F5F5F5F5F5F5F5F5F5F5F5F5F5F5F5F5F5F5F5F5F5F5F5F5F5F5F5F5F5F5
310
F5F5F5F5F5E2E2F5F5F5F5F5F5F5F5F5F5F5F5F5F5F5F5F5F5F5F5F5F5F5F5F5F5F5F5F5F5F5F5F5F5F5F5F5F5F5F5F5F5F5F5F5F5F5F5F5F5F5F5F5F5F5F5F5F5F5F5F5F5F5F5F5F5F5F5F5F5F5F5F5F5F5F5F5F5F5F5F5F5F5F5F5F5F5F5F5F5F5F5F5F5F5F5F5F5F5F5F5F5F5F5F5F5F5F5F5F5F5F5F5F5F5F5F5F5F5F5
310
F5F5F5F5F5F5F5F5F5F5F5F5F5F5F5F5F5F5F5F5F5F5F5F5F5F5F5F5F5F5F5F5F5F5F5F5F5F5F5F5F5F5F5F5F5F5F5F5F5F5F5F5F5F5F5F5F5F5E2E2F5F5F5F5E2E2E2E2E2E2E2E2F5F5F5F5F5F5F5F5F5E2E2E2E2E2E2E2E2E2E2E2E2E2E2E2F5F5F5F5F5F5F5F5F5E2E2E2E2E2E2E2E2E2E2E2E2E2E2E2E2F5F5F5F5F5F5
310
F5F5E2E2E2E2E2E2E2E2E2E2E2E2E2E2E2E2F5F5F5F5F5F5F5F5E2E2E2E2E2E2E2E2E2E2E2E2E2E2E2E2F5F5F5F5F5F5F5F5E2E2E2E2E2E2E2E2E2E2E2E2E2E2E2E2F5F5F5F5F5F5F5F5F5E2E2E2E2E2E2E2E2E2E2E2E2E2E2E2F5F5F5F5F5F5F5F5F5E2E2E2E2E2E2E2E2F5F5F5F5E2E2F5F5F5F5E2F5F5F5F5F5F5F5F5F5
310
F5F5F5F5F5F5F5F5F5F5F5F5F5F5F5F5F5F5F5F5F5F5F5F5F5F5F5F5F5F5F5F5F5F5F5F5F5F5F5F5F5F5F5F5F5F5F5F5F5F5F5F5F5F5F5F5F5F5F5F5F5F5F5F5F5F5F5F5F5F5F5F5F5F5F5F5F5F5F5F5F5F5F5F5F5F5F5F5F5F5F5F5F5F5F5F5F5F5F5F5F5F5F5F5F5F5F5F5F5F5F5F5F5F5F5F5F5F5F5F5F5F5F5F5F5F5F5
310
F5F5F5F5F5F5F5F5F5F5F5F5F5F5F5F5F5F5F5F5F5F5F5F5F5F5F5F5F5F5F5F5E2F5F5F5F5E2E2F5F5F5F5E2F5F5F5F5F5F5F5F5F5F5F5F5F5F5F5F5F5F5F5F5F5F5F5F5F5F5F5F5F5F5F5F5F5F5F5F5F5F5F5F5F5F5F5F5F5F5F5F5F5F5F5F5F5F5F5F5F5F5F5F5F5F5F5F5F5F5F5F5F5F5F5F5F5F5F5F5F5F5F5F5F5F5F5
310
F5F5F5F5F5F5F5F5F5F5F5F5F5F5F5F5F5F5F5F5F5F5F5F5F5F5F5F5F5F5F5F5F5F5F5F5F5F5F5F5F5F5F5F5F5F5F5F5F5F5F5F5F5F5F5F5F5F5F5F5F5F5F5F5F5F5F5F5F5F5F5F5F5F5F5F5F5F5F5F5F5F5F5F5F5E2F5F5F5F5E2E2F5F5F5F5E2F5F5F5F5F5F5F5F5F5F5F5F5F5F5F5F5F5F5F5F5F5F5F5F5F5F5F5F5F5F5
310
F5F5F5F5F5F5F5F5F5F5F5F5F5F5F5F5F5F5F5F5F5F5F5F5F5F5F5F5F5F5F5F5F5F5F5F5F5F5F5F5F5F5F5F5F5F5F5F5F5F5F5F5F5F5F5F5F5F5F5F5F5F5F5F5F5F5F5F5F5F5F5F5F5F5F5F5F5F5F5F5F5F5F5F5F5F5F5F5F5F5F5F5F5F5F5F5F5F5F5F5F5F5F5F5F5F5F5F5F5F5F5F5F5F5F5F5F5F5F5F5F5F5F5F5F5F5F5
310
F5F5F5F5F5F5F5F5F5F5F5E2F5F5F5F5E2E2F5F5F5F5E2F5F5F5F5F5F5F5F5F5F5F5F5F5F5F5F5F5F5F5F5F5F5F5F5F5F5F5F5F5F5F5F5F5F5F5F5F5F5F5F5F5F5F5F5F5F5F5F5F5F5F5F5F5F5F5F5F5F5F5F5F5F5F5F5F5F5F5F5F5F5F5F5F5F5F5F5F5F5F5F5F5F5F5F5F5F5F5F5F5F5F5F5F5F5F5F5F5F5F5F5F5F5F5F5
310
F5F5F5F5F5F5F5F5F5F5F5F5F5F5F5F5F5F5F5F5F5F5F5F5F5F5F5F5F5F5F5F5F5F5F5F5F5F5F5F5F5F5F5F5F5F5F5F5F5F5F5F5F5F5F5F5F5F5F5F5F5F5F5F5E2F5F5F5F5E2E2F5F5F5F5E2F5F5F5F5F5F5F5F5F5F5F5F5F5F5F5F5F5F5F5F5F5F5F5F5F5F5F5F5F5F5F5F5F5F5F5F5F5F5F5F5F5F5F5F5F5F5F5F5F5F5F5
310
F5F5F5F5F5F5F5F5F5F5F5F5F5F5F5F5F5F5F5F5F5F5F5F5F5F5F5F5F5F5F5F5F5F5F5F5F5F5F5F5F5F5F5F5F5F5F5F5F5F5F5F5F5F5F5F5F5F5F5F5F5F5F5F5F5F5F5F5F5F5F5F5F5F5F5F5F5F5F5F5F5F5F5F5F5F5F5F5F5F5F5F5F5F5F5F5F5F5F5F5F5F5F5F5F5F5F5F5F5F5F5F5F5F5F5F5F5E2F5F5F5F5E2E2F5F5F5
310
F5E2F5F5F5F5F5F5F5F5F5F5F5F5F5F5F5F5F5F5F5F5F5F5F5F5F5F5F5F5F5F5F5F5F5F5F5F5F5F5F5F5F5F5F5F5F5F5F5F5F5F5F5F5F5F5F5F5F5F5F5F5F5F5F5F5F5F5F5F5F5F5F5F5F5F5F5F5F5F5F5F5F5F5F5F5F5F5F5F5F5F5F5F5F5F5F5F5F5F5F5F5F5F5F5F5F5F5F5F5F5F5F5F5F5F5F5F5F5F5F5F5F5F5F5F5F5
310
F5F5F5F5F5F5F5F5F5F5F5F5F5F5F5F5F5F5F5F5F5F5F5F5F5F5F5F5F5F5F5F5F5F5F5F5F5F5F5F5F5F5F5E2F5F5F5F5E2E2F5F5F5F5E2F5F5F5F5F5F5F5F5F5F5F5F5F5F5F5F5F5F5F5F5F5F5F5F5F5F5F5F5F5F5F5F5F5F5F5F5F5F5F5F5F5F5F5F5F5F5F5F5F5F5F5F5F5F5F5F5F5F5F5F5F5F5F5F5F5F5F5F5F5F5F5F5
310
F5F5F5F5F5F5F5F5F5F5F5F5F5F5F5F5F5F5F5F5F5F5F5F5F5F5F5F5F5F5F5F5F5F5F5F5F5F5F5F5F5F5F5F5F5F5F5F5F5F5F5F5F5F5F5F5F5F5F5F5F5F5F5F5F5F5F5F5F5F5F5F5F5F5F5F5F5F5F5F5F5F5F5F5F5F5F5F5F5F5F5F5F5F5F5F5E2F5F5F5F5E2E2F5F5F5F5E2F5F5F5F5F5F5F5F5F5F5F5F5F5F5F5F5F5F5F5
310
F5F5F5F5F5F5F5F5F5F5F5F5F5F5F5F5F5F5F5F5F5F5F5F5F5F5F5F5F5F5F5F5F5F5F5F5F5F5F5F5F5F5F5F5F5F5F5F5F5F5F5F5F5F5F5F5F5F5F5F5F5F5F5F5F5F5F5F5F5F5F5F5F5F5F5F5F5F5F5F5F5F5F5F5F5F5F5F5F5F5F5F5F5F5F5F5F5F5F5F5F5F5F5F5F5F5F5F5F5F5F5F5F5F5F5F5F5F5F5F5F5F5F5F5F5F5F5
310
F5F5F5F5F5F5F5F5F5F5F5F5F5F5F5F5F5F5F5F5F5F5E2F5F5F5F5E2E2F5F5F5F5F5F5F5F5F5F5F5F5F5F5F5F5F5F5F5F5F5F5F5F5F5F5F5F5F5F5F5F5F5F5F5F5F5F5F5F5F5F5F5F5F5F5F5F5F5F5F5F5F5F5F5F5F5F5F5F5F5F5F5F5F5F5F5F5F5F5F5F5F5F5F5F5F5F5F5F5F5F5F5F5F5F5F5F5F5F5F5F5F5F5F5F5F5F5
310
F5F5F5F5F5F5F5F5F5F5F5F5F5F5F5F5F5F5F5F5F5F5F5F5F5F5F5F5F5F5F5F5F5F5F5F5F5F5F5F5F5F5F5F5F5F5F5F5F5F5F5F5F5F5F5F5F5F5F5F5F5F5F5F5F5F5F5F5F5F5F5F5F5F5F5F5F5F5F5F5E2E2F5F5F5F5F5F5F5F5F5F5F5F5F5F5F5F5F5F5F5F5F5F5F5F5F5F5F5F5F5F5F5F5F5F5F5F5F5F5F5F5F5F5F5F5F5
310
F5F5F5F5F5F5F5F5F5F5F5F5F5F5F5F5F5F5F5F5F5F5F5F5F5F5F5F5F5F5F5F5F5F5F5F5F5F5F5F5F5F5F5F5F5F5F5F5F5F5F5F5F5F5F5F5F5F5F5F5F5F5F5F5F5F5F5F5F5F5F5F5F5F5F5F5F5F5F5F5F5F5F5F5F5F5F5F5F5F5F5F5F5F5F5F5F5F5F5F5F5F5F5F5F5F5F5F5F5F5F5F5F5F5F5F5F5F5F5F5F5F5F5F5F5F5F5
310
F5F5F5F5F5F5E2E2F5F5F5F5F5F5F5F5F5F5F5F5F5F5F5F5F5F5F5F5F5F5F5F5F5F5F5F5F5F5F5F5F5F5F5F5F5F5F5F5F5F5F5F5F5F5F5F5F5F5F5F5F5F5F5F5F5F5F5F5F5F5F5F5F5F5F5F5F5F5F5F5F5F5F5F5F5F5F5F5F5F5F5F5F5F5F5F5F5F5F5F5F5F5F5F5F5F5F5F5F5F5F5F5F5F5F5F5F5F5F5F5F5F5F5F5F5F5F5
310
F5F5F5F5F5F5F5F5F5F5F5F5F5F5F5F5F5F5F5F5F5F5F5F5F5F5F5F5F5F5F5F5F5F5F5F5F5F5F5F5F5F5F5F5F5F5F5F5F5F5F5F5F5F5F5F5F5F5F5E2E2F5F5F5F5F5F5F5F5F5F5F5F5F5F5F5F5F5F5F5F5F5F5F5F5F5F5F5F5F5F5F5F5F5F5F5F5F5F5F5F5F5F5F5F5F5F5F5F5F5F5F5F5F5F5F5F5F5F5F5F5F5F5F5F5F5F5
310
F5F5F5F5F5F5F5F5F5F5F5F5F5F5F5F5F5F5F5F5F5F5F5F5F5F5F5F5F5F5F5F5F5F5F5F5F5F5F5F5F5F5F5F5F5F5F5F5F5F5F5F5F5F5F5F5F5F5F5F5F5F5F5F5F5F5F5F5F5F5F5F5F5F5F5F5F5F5F5F5F5F5F5F5F5F5F5F5F5F5F5F5F5F5F5F5F5F5F5F5F5F5F5F5F5F5F5F5F5F5F5F5E2E2F5F5F5F5F5F5F5F5F5F5F5F5F5
310
F5F5F5F5F5F5F5F5E2E2E2E2E2E2E2E2E2E2E2E2E2E2E2E2E2E2E2E2E2E2E2E2E2E2E2E2E2E2E2E2E2E2E2E2E2E2E2E2E2E2E2E2E2E2E2E2E2E2E2E2E2E2E2E2E2E2E2E2E2E2E2E2E2E2E2E2E2E2E2E2E2E2E2E2E2E2E2E2E2E2E2E2E2E2E2E2E2E2E2E2E2E2E2E2E2E2E2E2E2E2E2E2E2E2E2E2E2E2E2E2E2E2E2E2E2E2E2
310
E2E2E2E2E2E2E2E2E2E2E2E2E2E2E2E2E2F5F5F5F5F5F5F5F5F5F5F5F5F5F5F5F5F5F5F5F5F5E2E2F5F5F5F5F5F5F5F5F5F5F5F5F5F5F5F5F5F5F5F5F5E22D2D2D2DF5F5F5F5E2F5F5F5F5F5F5F52DF5F5F5F5F5F5F5F5F5F5F5F5F5F5F5F5F5F5E2F5F5F5F5F5F5F5F5F5F5F5F5F5F5F5F5F5F5F5F5F5F5F5F5F5F5F5F5F5
310
F5F5F5F5F5F5F5F5F5F5F5F5F5F5F5F5F5F5F5F5F5F5F5F5F5F5F5F5F5F5F5F5F5F5F5F5F5F5F5F5F5F5F5F5F5F5F5F5F5F5F5F5F5F5F5F5F5F5F5F5F5F5F5F5F5F5F5F5F5E2F5F5F5F5F5F5F5F5F5F5F5F5F5F5F5F5F5F5F5F5F5E2E2F5F5F5F5F5F5F5F5F5F5F5F5F5F5F5F5F5F5F5F5F5E2DCF5F52DF5F5F5F5E2F5F5F5
310
F5F5F5F52DF5F5F5F5F5F5F5F5F5F5F5F5F5F5F5F5F5F5E2F5F5F5F5F5F5F5F5F5F5F5F5F5F5F5F5F5F5F5F5F5F5F5F5F5F5F5F5F5F5F5F5F5F5F5F5F5F5F5F5F5F5F5F5F5F5F5F5F5F5F5F5F5F5F5F5F5F5F5F5F5F5F5F5F5F5F5F5F5F5F5F5F5F5F5F5F5F5F5F5F5F5F5F5F5F5F5F5F5F5F5F5F5F5F5F5F5F5E2F5F5F5F5
310
F5F5F5F5F5F5F5F5F5F5F5F5F5F5F5F5F5E2E2F5F5F5F5F5F5F5F5F5F5F5F5F5F5F5F5F5F5F5F5F5E2DCF5F52DF5F5F5F5E2F5F5F5F5F5F5F52DF5F5F5F5F5F5F5F5F5F5F5F5F5F5F5F5F5F5E2E2F5F5F5F5F5F5F5F5F5F5F5F5F5F5F5F5F5F5F5F5F5F5F5F5F5F5F5F5F5F5F5F5F5F5F5F5F5F5F5F5F5F5F5F5F5F5F5F5F5
310
F5F5F5F5F5F5F5F5F5F5F5F5F5F5F5F5F5F5F5F5F5F5F5F5F5F5F5F5F5F5F5F5F5F5F5F5F5F5F5F5F5F5F5F5F5F5F5F5E2F5F5F5F5F5F5F5F5F5F5F5F5F5F5F5F5F5F5F5F5F5E2E2F5F5F5F5F5F5F5F5F5F5F5F5F5F5F5F5F5F5F5F5F5E2BEF5F52D2D2D2D2D2D2D2D2D2D2D2D2D2DE2E2E2E2E2E2E2E2E2E2E2E2E2E2E2E2
310
E2E2E2E2F5F5F5F5F5F5F5F5F5F5F5F5F5F5F5F5F5F5F5F5F5F5F5F5F5F5F5F5F5F5F5F5F5F5F5F5F5F5F5F5F5F5F5F5F5F5F5F5F5F5F5F5F5F5F5F5F5F5F5F5F5F5F5F5F5F5F5F5F5F5F5F5F5F5F5F5F5F5F5F5F5F5F5F5F5F5F5F5F5F5F5F5F5F5F5F5F5E2F5F5F5F5F5F5F5F5F5F5F5F5F5F5F5F5F5F5F5F5F5E2E2F5F5
310
F5F5E2F5F5F5F5F5F5F5F5F5F5F5F5F5F5F5F5E2DCF5F5F5F5F5F5F5E2F5F5F5F5F5F5F5E2F5F5F5F5F5F5F5F5F5F5F5F5F5F5F5F5F5F5F5F5F5F5F5F5F5F5F5F5F5F5F5F5F5F5F5F5F5F5F5F5F5F5F5F5F5F5F5F5F5F5F5F5F5F5F5F5F5F5F5F5F5F5F5F5F5F5F5F5F5F5F5F5F5F5F5F5F5F5F5F5F5F5F5F5F5F5F5F5F5F5
310
F5F5F5F5F5F5F5F5F5F5F5F5F5F5F5F5F5F5F5F5F5F5F5F5F5F5F5E2F5F5F5F5F5F5F5F5F5F5F5F5F5F5F5F5E2F5F5F5F5E2E2F5F5F5F5E2F5F5F5F5F5F5F5F5F5F5F5F5F5F5F5F5E2F5F5F5F5F5F5F5F5E2F5F5F5F5F5F5F5E2F5F5F5F5F5F5F5F5F5F5F5F5F5F5F5F5F5F5F5F5F5F5F5F5F5F5F5F5F5F5F5F5F5F5F5F5F5
310
F5F5F5F5F5F5F5F5F5F5F5F5F5F5F5F5F5F5F5F5F5F5F5F5F5F5F5F5F5F5F5F5F5F5F5F5F5F5F5F5F5F5F5F5F5F5F5F5F5F5F5F5F5F5F5F5F5F5F5F5F5F5F5F5F5F5F5F5F5F5F5F5F5F5F5F5F5F5F5F5E2F5F5F5F5F5F5F5F5F5F5F5F5F5F5F5F5E2F5F5F5F5E2E2F5F5F5F5E2F5F5F5F5F5F5F5F5F5F5F5F5F5F5F5F5E2E2
310
E2E2E2E2E2E2E2E2F5F5F5F5F5F5F5E2F5F5F5F5F5F5F5F5F5F5F5F5F5F5F5F5F5F5F5F5F5F5F5F5F5F5F5F5F5F5F5F5F5F5F5F5F5F5F5F5F5F5F5F5F5F5F5F5F5F5F5F5F5F5F5F5F5F5F5F5F5F5F5F5F5F5F5F5F5F5F5F5F5F5F5F5F5F5F5F5F5F5F5F5F5F5F5F5F5F5F5F5F5F5F5F5F5F5F5F5F5F5F5F5F5F5F5F5F5F5F5
310
F5F5F5F5F5F5E2F5F5F5F5F5F5F5F5F5F5F5F5F5F5F5F5E2F5F5F5F5E2E2F5F5F5F5E2F5F5F5F5F5F5F5F5F5F5F5F5F5F5F5F5E2E2E2E2F5F5F5F5F5F5F5F5F5F5F5F5F5E2F5F5F5F5F5F5F5F5F5F5F5F5F5F5F5F5F5F5F5F5F5F5F5F5F5F5F5F5F5F5F5F5F5F5F5F5F5F5F5F5F5F5F5F5F5F5F5F5F5F5F5F5F5F5F5F5F5F5
310
F5F5F5F5F5F5F5F5F5F5F5F5F5F5F5F5F5F5F5F5F5F5F5F5F5F5F5F5F5F5F5F5F5F5F5F5F5F5F5F5F5F5F5F5F5F5F5F5F5F5F5F5F5F5F5F5F5F5F5E2F5F5F5F5F5F5F5F5F5F5F5F5F5F5F5F5E2F5F5F5F5E2E2F5F5F5F5E2F5F5F5F5F5F5F5F5F5F5F5F5F5F5F5F5E2E2E2E2F5F5F5F5F5F5F5F5F5F5F5F5F5E2F5F5F5F5F5
310
F5F5F5F5F5F5F5F5F5F5F5F5F5F5F5F5F5F5F5F5F5F5F5F5F5F5F5F5F5F5F5F5F5F5F5F5F5F5F5F5F5F5F5F5F5F5F5F5F5F5F5F5F5F5F5F5F5F5F5F5F5F5F5F5F5F5F5F5F5F5F5F5F5F5F5F5F5F5F5F5F5F5F5F5F5F5F5F5F5F5F5F5F5F5F5F5F5F5F5F5F5F5F5F5F5F5F5F5F5F5F5F5E2F5F5F5F5F5F5F5F5F5F5F5F5F5F5
310
F5F5E2F5F5F5F5E2E2F5F5F5F5E2F5F5F5F5F5F5F5F5F5F5F5F5F5F5F5F5E2F5F5F5F5F5F5F5F5F5F5F5F5F5F5F5F5E2F5F5F5F5F5F5F5F5F5F5F5F5F5F5F5F5F5F5F5F5F5F5F5F5F5F5F5F5F5F5F5F5F5F5F5F5F5F5F5F5F5F5F5F5F5F5F5F5F5F5F5F5F5F5F5F5F5F5F5F5F5F5F5F5F5F5F5F5F5F5F5F5F5F5F5F5F5F5F5
310
F5F5F5F5F5F5F5F5F5F5F5F5F5F5F5F5F5F5F5F5F5F5F5F5F5F5F5F5F5F5F5F5F5F5F5F5F5F5E2F5F5F5F5F5F5F5F5F5F5F5F5F5F5F5F5E2F5F5F5F5E2E2F5F5F5F5E2F5F5F5F5F5F5F5F5F5F5F5F5F5F5F5F5E2E2E2E2E2E2E2E2E2E2E2E2E2E2E2E2E2E2F5F5F5F5F5F5F5F5F5F5F5F5F5F5F5F5F5F5F5F5F5F5F5F5F5F5
310
F5F5F5F5F5F5F5F5F5F5F5F5F5F5F5F5F5F5F5F5F5F5F5F5F5F5F5F5F5F5F5F5F5F5F5F5F5F5F5F5F5F5F5F5F5F5F5F5F5F5F5F5F5F5F5F5F5F5F5F5F5F5F5F5F5F5F5F5F5F5F5F5F5F5F5F5F5F5F5F5F5F5F5F5F5F5F5F5F5F5F5E2F5F5F5F5F5F5F5F5F5F5F5F5F5F5F5F5E2F5F5F5F5E2E2F5F5F5F5E2F5F5F5F5F5F5F5
310
F5F5F5F5F5F5F5F5F5E2E2E2F5F5F5F5F5F5F5F5F5F5F5F5F5F5F5F5F5F5F5F5F5F5F5F5F5F5F5F5F5F5F5F5F5F5F5F5F5F5F5F5F5F5F5F5F5F5F5F5F5F5F5F5F5F5F5F5F5F5F5F5F5F5F5F5F5F5F5F5F5F5F5F5F5F5F5F5F5F5F5F5F5F5F5F5F5F5F5F5F5F5F5F5F5F5F5F5F5F5F5F5F5F5F5F5F5F5F5F5F5F5F5F5F5F5F5
310
F5F5F5F5F5F5F5F5F5F5F5F5F5F5F5F5F5E2F5F5F5F5F5F5F5F5F5F5F5F5F5F5F5F5E2F5F5F5F5E2E2F5F5F5F5E2F5F5F5F5F5F5F5F5F5F5F5F5F5F5F5F5E2E2E2F5F5F5F5F5F5F5F5F5F5F5F5F5F5F5F5F5F5F5F5F5F5F5F5F5F5F5F5F5F5F5F5F5F5F5F5F5F5F5F5F5F5F5F5F5F5F5F5F5F5F5F5F5F5F5F5F5F5F5F5F5F5
310
F5F5F5F5F5F5F5F5F5F5F5F5F5F5F5F5F5F5F5F5F5F5F5F5F5F5F5F5F5F5F5F5F5F5F5F5F5F5F5F5F5F5F5F5F5F5F5F5F5F5F5F5F5F5F5F5F5F5F5F5F5F5F5F5F5F5F5F5F5F5E2F5F5F5F5F5F5F5F5F5F5F5F5F5F5F5F5E2F5F5F5F5E2E2F5F5F5F5E2F5F5F5F5F5F5F5F5F5F5F5F5F5F5F5F5E2F5F5F5F5F5F5F5F5F5F5F5
310
F5F5F5F5F5F5F5F5F5F5F5F5F5F5F5F5F5F5F5F5F5F5F5F5F5F5F5F5F5F5F5F5F5F5F5F5F5F5F5F5F5F5F5F5F5F5F5F5F5F5F5F5F5F5F5F5F5F5F5F5F5F5F5F5F5F5F5F5F5F5F5F5F5F5F5F5F5F5F5F5F5F5F5F5F5F5F5F5F5F5F5F5F5F5F5F5F5F5F5F5F5F5F5F5F5F5F5F5F5F5F5F5F5F5F5F5F5F5F5F5F5F5F5E2F5F5F5
310
F5F5F5F5F5F5F5F5F5F5F5F5F5E2F5F5F5F5E2E2F5F5F5F5E2F5F5F5F5F5F5F5F5F5F5F5F5F5F5F5F5E20F0F0F0F0F0F0F0F0F0F0FF5F5F5F5F5F5F5F5F5F5F5F5F5F5F5F5F5F5F5F5F5F5F5F5F5F5F5F5F5F5F5F5F5F5F5F5F5F5F5F5F5F5F5F5F5F5F5F5F5F5F5F5F5F5F5F5F5F5F5F5F5F5F5F5F5F5F5F5F5F5F5F5F5F5
310
F5F5F5F5F5F5F5F5F5F5F5F5F5F5F5F5F5F5F5F5F5F5F5F5F5F5F5F5F5F5F5F5F5F5F5F5F5F5F5F5F5F5F5F5F5F5F5F5F5E2F5F5F5F5F5F5F5F5F5F5F5F5F5F5F5F5E2F5F5F5F5E2E2F5F5F5F5E2F5F5F5F5F5F5F5F5F5F5F5F5F5F5F5F5E20F0F0F0F0F0F0F0F0F0FF5F5F5F5F5F5F5F5F5F5F5F5F5F5F5F5F5F5F5F5F5F5
310
F5F5F5F5F5F5F5F5F5F5F5F5F5F5F5F5F5F5F5F5F5F5F5F5F5F5F5F5F5F5F5F5F5F5F5F5F5F5F5F5F5F5F5F5F5F5F5F5F5F5F5F5F5F5F5F5F5F5F5F5F5F5F5F5F5F5F5F5F5F5F5F5F5F5F5F5F5F5F5F5F5F5F5F5F5F5F5F5F5F5F5F5F5F5F5F5F5F5F5F5F5F5E2F5F5F5F5F5F5F5F5F5F5F5F5F5F5F5F5E2F5F5F5F5E2E2F5
310
F5F5F5E2F5F5F5F5F5F5F5F5F5F5F5F5F5F5F5F5E2F5F5F5F5F5F5F5F5F5F5F5F5F5F5F5F5F5F5F5F5F5F5F5F5F5F5F5F5F5F5F5F5F5F5F5F5F5F5F5F5F5F5F5F5F5F5F5F5F5F5F5F5F5F5F5F5F5F5F5F5F5F5F5F5F5F5F5F5F5F5F5F5F5F5F5F5F5F5F5F5F5F5F5F5F5F5F5F5F5F5F5F5F5F5F5F5F5F5F5F5F5F5F5F5F5F5
310
F5F5F5F5F5F5F5F5F5F5F5F5F5F5F5F5F5F5F5F5F5F5F5F5F5F5F5F5E2F5F5F5F5F5F5F5F5F5F5F5F5F5F5F5F5E2F5F5F5F5E2E2F5F5F5F5E2F5F5F5F5F5F5F5F5F5F5F5F5F5F5F5F5E2F5F5F5F5F5F5F5F5F5F5F5F5F5F5F5F5F5F5F5F5F5F5F5F5F5F5F5F5F5F5F5F5F5F5F5F5F5F5F5F5F5F5F5F5F5F5F5F5F5F5F5F5F5
310
F5F5F5F5F5F5F5F5F5F5F5F5F5F5F5F5F5F5F5F5F5F5F5F5F5F5F5F5F5F5F5F5F5F5F5F5F5F5F5F5F5F5F5F5F5F5F5F5F5F5F5F5F5F5F5F5F5F5F5F5F5F5F5F5F5F5F5F5F5F5F5F5F5F5F5F5F5F5F5F5F5E2F5F5F5F5F5F5F5F5F5F5F5F5F5F5F5F5E2F5F5F5F5E2E2F5F5F5F5E2F5F5F5F5F5F5F5F5F5F5F5F5F5F5F5F5E2
310
F5F5F5F5F5F5F5F5F5F5F5F5F5F5F5F5F5F5F5F5F5F5F5F5F5F5F5F5F5F5F5F5F5F5F5F5F5F5F5F5F5F5F5F5F5F5F5F5F5F5F5F5F5F5F5F5F5F5F5F5F5F5F5F5F5F5F5F5F5F5F5F5F5F5F5F5F5F5F5F5F5F5F5F5F5F5F5F5F5F5F5F5F5F5F5F5F5F5F5F5F5F5F5F5F5F5F5F5F5F5F5F5F5F5F5F5F5F5F5F5F5F5F5F5F5F5F5
310
F5F5F5F5F5F5F5E2F5F5F5F5F5F5F5F5F5F5F5F5F5F5F5F5E2F5F5F5F5E2E2F5F5F5F5E2F5F5F5F5F5F5F5F5F5F5F5F5F5F5F5F5E2F5F5F5F5F5F5F5F5F5F5F5F5F5F5F5F5F5F5F5F5F5F5F5F5F5F5F5F5F5F5F5F5F5F5F5F5F5F5F5F5F5F5F5F5F5F5F5F5F5F5F5F5F5F5F5F5F5F5F5F5F5F5F5F5F5F5F5F5F5F5F5F5F5F5
310
F5F5F5F5F5F5F5F5F5F5F5F5F5F5F5F5F5F5F5F5F5F5F5F5F5F5F5F5F5F5F5F5F5F5F5F5F5F5F5F5F5F5F5F5F5F5F5F5F5F5F5F5F5F5F5F5F5F5F5F5E2F5F5F5F5F5F5F5F5F5F5F5F5F5F5F5F5E2F5F5F5F5E2E2F5F5F5F5F5F5F5F5F5F5F5F5F5F5F5F5F5F5F5F5F5E2F5F5F5F5F5F5F5F5F5F5F5F5F5F5F5F5F5F5F5F5F5
310
F5F5F5F5F5F5F5F5F5F5F5F5F5F5F5F5F5F5F5F5F5F5F5F5F5F5F5F5F5F5F5F5F5F5F5F5F5F5F5F5F5F5F5F5F5F5F5F5F5F5F5F5F5F5F5F5F5F5F5F5F5F5F5F5F5F5F5F5F5F5F5F5F5F5F5F5F5F5F5F5F5F5F5F5F5F5F5F5F5F5F5F5F5F5F5F5F5F5F5F5F5F5F5F5F5F5F5F5F5F5F5F5F5E2F5F5F5F5F5F5F5F5F5F5F5F5F5
310
F5F5F5F5F5F5F5F5E2E2F5F5F5F5F5F5F5F5F5F5F5F5F5F5F5F5F5F5F5F5F5E2F5F5F5F5F5F5F5F5F5F5F5F5F5F5F5F5F5F5F5F5F5F5F5F5F5F5F5F5F5F5F5F5F5F5F5F5F5F5F5F5F5F5F5F5F5F5F5F5F5F5F5F5F5F5F5F5F5F5F5F5F5F5F5F5F5F5F5F5F5F5F5F5F5F5F5F5F5F5F5F5F5F5F5F5F5F5F5F5F5F5F5F5F5F5F5
310
F5F5F5F5F5F5F5F5F5F5F5F5F5F5F5F5F5F5F5F5F5F5F5F5F5F5F5F5F5F5F5F5F5F5F5F5F5F5F5E2F5F5F5F5F5F5F5F5F5F5F5F5F5F5F5F5F5F5F5F5F5E2E2F5F5F5F5F5F5F5F5F5F5F5F5F5F5F5F5F5F5F5F5F5E2F5F5F5F5F5F5F5F5F5F5F5F5F5F5F5F5F5F5F5F5F5F5F5F5F5F5F5F5F5F5F5F5F5F5F5F5F5F5F5F5F5F5
310
F5F5F5F5F5F5F5F5F5F5F5F5F5F5F5F5F5F5F5F5F5F5F5F5F5F5F5F5F5F5F5F5F5F5F5F5F5F5F5F5F5F5F5F5F5F5F5F5F5F5F5F5F5F5F5F5F5F5F5F5F5F5F5F5F5F5F5F5F5F5F5F5F5F5F5F5F5F5F5F5F5F5F5F5F5F5F5F5F5F5F5F5E2F5F5F5F5F5F5F5F5F5F5F5F5F5F5F5F5F5F5F5F5F5E2E2F5F5F5F5F5F5F5F5F5F5F5
310
F5F5F5F5F5F5F5F5F5F5E2F5F5F5F5F5F5F5F5F5F5F5F5F5F5F5F5F5F5F5F5F5F5F5F5F5F5F5F5F5F5F5F5F5F5F5F5F5F5F5F5F5F5F5F5F5F5F5F5F5F5F5F5F5F5F5F5F5F5F5F5F5F5F5F5F5F5F5F5F5F5F5F5F5F5F5F5F5F5F5F5F5F5F5F5F5F5F5F5F5F5F5F5F5F5F5F5F5F5F5F5F5F5F5F5F5F5F5F5F5F5F5F5F5F5F5F5
310
F5F5F5F5F5F5F5F5F5F5F5F5F5F5F5F5F5F5E2F5F5F5F5F5F5F5F5F5F5F5F5F5F5F5F5F5F5F5F5F5E2E2F5F5F5F5F5F5F5F5F5F5F5F5F5F5F5F5F5F5F5F5F5E2F5F5F5F5F5F5F5F5F5F5F5F5F5F5F5F5F5F5F5F5F5F5F5F5F5F5F5F5F5F5F5F5F5F5F5F5F5F5F5F5F5F5F5F5F5F5F5F5F5F5F5F5F5F5F5F5F5F5F5F5F5F5F5
310
F5F5F5F5F5F5F5F5F5F5F5F5F5F5F5F5F5F5F5F5F5F5F5F5F5F5F5F5F5F5F5F5F5F5F5F5F5F5F5F5F5F5F5F5F5F5F5F5F5F5F5F5F5F5F5F5F5F5F5F5F5F5F5F5F5F5F5F5F5F5F5E2F5F5F5F5F5F5F5F5F5F5F5F5F5F5F5F5F5F5F5F5F5E2E2F5F5F5F5F5F5F5F5F5F5F5F5F5F5F5F5F5F5F5F5F5E2F5F5F5F5F5F5F5F5F5F5
310
F5F5F5F5F5F5F5F5F5F5F5F5F5F5F5F5F5F5F5F5F5F5F5F5F5F5F5F5F5F5F5F5F5F5F5F5F5F5F5F5F5F5F5F5F5F5F5F5F5F5F5F5F5F5F5F5F5F5F5F5F5F5F5F5F5F5F5F5F5F5F5F5F5F5F5F5F5F5F5F5F5F5F5F5F5F5F5F5F5F5F5F5F5F5F5F5F5F5F5F5F5F5F5F5F5F5F5F5F5F5F5F5F5F5F5F5F5F5F5F5F5F5F5F5E2F5F5
310
F5F5F5F5F5F5F5F5F5F5F5F5F5F5F5F5F5F5F5E2E2F5F5F5F5F5F5F5F5F5F5F5F5F5F5F5F5F5F5F5F5F5E2F5F5F5F5F5F5F5F5F5F5F5F5F5F5F5F5F5F5F5F5F5F5F5F5F5F5F5F5F5F5F5F5F5F5F5F5F5F5F5F5F5F5F5F5F5F5F5F5F5F5F5F5F5F5F5F5F5F5F5F5F5F5F5F5F5F5F5F5F5F5F5F5F5F5F5F5F5F5F5F5F5F5F5F5
310
F5F5F5F5F5F5F5F5F5F5F5F5F5F5F5F5F5F5F5F5F5F5F5F5F5F5F5F5F5F5F5F5F5F5F5F5F5F5F5F5F5F5F5F5F5F5F5F5F5F5E2F5F5F5F5F5F5F5F5F5F5F5F5F5F5F5F5F5F5F5F5F5E2E2F5F5F5F5F5F5F5F5F5F5F5F5F5F5F5F5F5F5F5F5F5E2F5F5F5F5F5F5F5F5F5F5F5F5F5F5F5F5F5F5F5F5F5F5F5F5F5F5F5F5F5F5F5
310
F5F5F5F5F5F5F5F5F5F5F5F5F5F5F5F5F5F5F5F5F5F5F5F5F5F5F5F5F5F5F5F5F5F5F5F5F5F5F5F5F5F5F5F5F5F5F5F5F5F5F5F5F5F5F5F5F5F5F5F5F5F5F5F5F5F5F5F5F5F5F5F5F5F5F5F5F5F5F5F5F5F5F5F5F5F5F5F5F5F5F5F5F5F5F5F5F5F5F5F5F5F5F5E2F5F5F5F5F5F5F5F5F5F5F5F5F5F5F5F5F5F5F5F5F5E2E2
310
F5F5F5F5F5F5F5F5F5F5F5F5F5F5F5F5F5F5F5F5F5E2F5F5F5F5F5F5F5F5F5F5F5F5F5F5F5F5F5F5F5F5F5F5F5F5F5F5F5F5F5F5F5F5F5F5F5F5F5F5F5F5F5F5F5F5F5F5F5F5F5F5F5F5F5F5F5F5F5F5F5F5F5F5F5F5F5F5F5F5F5F5F5F5F5F5F5F5F5F5F5F5F5F5F5F5F5F5F5F5F5F5F5F5F5F5F5F5F5F5F5F5F5F5F5F5F5
310
F5F5F5F5F5F5F5F5F5F5F5F5F5F5F5F5F5F5F5F5F5F5F5F5F5F5F5F5F5E2F5F5F5F5F5F5F5F5F5F5F5F5F5F5F5F5F5F5F5F5F5E2E2F5F5F5F5F5F5F5F5F5F5F5F5F5F5F5F5F5F5F5F5F5E2F5F5F5F5F5F5F5F5F5F5F5F5F5F5F5F5F5F5F5F5F5F5F5F5F5F5F5F5F5F5F5F5F5F5F5F5F5F5F5F5F5F5F5F5F5F5F5F5F5F5F5F5
310
F5F5F5F5F5F5F5F5F5F5F5F5F5F5F5F5F5F5F5F5F5F5F5F5F5F5F5F5F5F5F5F5F5F5F5F5F5F5F5F5F5F5F5F5F5F5F5F5F5F5F5F5F5F5F5F5F5F5F5F5F5F5F5F5F5F5F5F5F5F5F5F5F5F5F5F5F5F5F5F5F5F5E2F5F5F5F5F5F5F5F5F5F5F5F5F5F5F5F5F5F5F5F5F5E2E2F5F5F5F5E2F5F5F5F5F5F5F5F5F5F5F5F5F5F5F5F5
310
E2F5F5F5F5F5F5F5F5F5F5F5F5F5F5F5F5F5F5F5F5F5F5F5F5F5F5F5F5F5F5F5F5F5F5F5F5F5F5F5F5F5F5F5F5F5F5F5F5F5F5F5F5F5F5F5F5F5F5F5F5F5F5F5F5F5F5F5F5F5F5F5F5F5F5F5F5F5F5F5F5F5F5F5F5F5F5F5F5F5F5F5F5F5F5F5F5F5F5F5F5F5F5F5F5F5F5F5F5F5F5F5F5F5F5F5F5F5F5F5F5F5F5F5F5F5F5
310
F5F5F5F5F5F5F5F5E2F5F5F5F5F5F5F5F5F5F5F5F5F5F5F5F5E2F5F5F5F5E2E2F5F5F5F5E2F5F5F5F5F5F5F5F5F5F5F5F5F5F5F5F5E2F5F5F5F5F5F5F5F5F5F5F5F5F5F5F5F5F5F5F5F5F5F5F5F5F5F5F5F5F5F5F5F5F5F5F5F5F5F5F5F5F5F5F5F5F5F5F5F5F5F5F5F5F5F5F5F5F5F5F5F5F5F5F5F5F5F5F5F5F5F5F5F5F5
310
F5F5F5F5F5F5F5F5F5F5F5F5F5F5F5F5F5F5F5F5F5F5F5F5F5F5F5F5F5F5F5F5F5F5F5F5F5F5F5F5F5F5F5F5F5F5F5F5F5F5F5F5F5F5F5F5F5F5F5F5F5E2F5F5F5F5F5F5F5F5F5F5F5F5F5F5F5F5E2F5F5F5F5E2E2F5F5F5F5E2F5F5F5F5F5F5F5F5F5F5F5F5F5F5F5F5E2F5F5F5F5F5F5F5F5F5F5F5F5F5F5F5F5F5F5F5F5
310
F5F5F5F5F5F5F5F5F5F5F5F5F5F5F5F5F5F5F5F5F5F5F5F5F5F5F5F5F5F5F5F5F5F5F5F5F5F5F5F5F5F5F5F5F5F5F5F5F5F5F5F5F5F5F5F5F5F5F5F5F5F5F5F5F5F5F5F5F5F5F5F5F5F5F5F5F5F5F5F5F5F5F5F5F5F5F5F5F5F5F5F5F5F5F5F5F5F5F5F5F5F5F5F5F5F5F5F5F5F5F5F5F5F5E2F5F5F5F5F5F5F5F5F5F5F5F5
310
F5F5F5F5E2F5F5F5F5E2E2F5F5F5F5E2F5F5F5F5F5F5F5F5F5F5F5F5F5F5F5F5E2F5F5F5F5F5F5F5F5F5F5F5F5F5F5F5F5F5F5F5F5F5F5F5F5F5F5F5F5F5F5F5F5F5F5F5F5F5F5F5F5F5F5F5F5F5F5F5F5F5F5F5F5F5F5F5F5F5F5F5F5F5F5F5F5F5F5F5F5F5F5F5F5F5F5F5F5F5F5F5F5F5F5F5F5F5F5F5F5F5F5F5F5F5F5
310
F5F5F5F5F5F5F5F5F5F5F5F5F5F5F5F5F5F5F5F5F5F5F5F5F5F5F5F5F5F5F5F5F5F5F5F5F5F5F5F5E2F5F5F5F5F5F5F5F5F5F5F5F5F5F5F5F5E2F5F5F5F5E2E2F5F5F5F5E2F5F5F5F5F5F5F5F5F5F5F5F5F5F5F5F5E2F5F5F5F5F5F5F5F5F5F5F5F5F5F5F5F5F5F5F5F5F5F5F5F5F5F5F5F5F5F5F5F5F5F5F5F5F5F5F5F5F5
310
F5F5F5F5F5F5F5F5F5F5F5F5F5F5F5F5F5F5F5F5F5F5F5F5F5F5F5F5F5F5F5F5F5F5F5F5F5F5F5F5F5F5F5F5F5F5F5F5F5F5F5F5F5F5F5F5F5F5F5F5F5F5F5F5F5F5F5F5F5F5F5F5F5F5F5F5F5F5F5F5F5F5F5F5F5F5F5F5F5F5F5F5F5E2F5F5F5F5F5F5F5F5F5F5F5F5F5F5F5F5E2F5F5F5F5E2E2F5F5F5F5E2F5F5F5F5F5
310
F5F5F5F5F5F5F5F5F5F5F5E2F5F5F5F5F5F5F5F5F5F5F5F5F5F5F5F5F5F5F5F5F5F5F5F5F5F5F5F5F5F5F5F5F5F5F5F5F5F5F5F5F5F5F5F5F5F5F5F5F5F5F5F5F5F5F5F5F5F5F5F5F5F5F5F5F5F5F5F5F5F5F5F5F5F5F5F5F5F5F5F5F5F5F5F5F5F5F5F5F5F5F5F5F5F5F5F5F5F5F5F5F5F5F5F5F5F5F5F5F5F5F5F5F5F5F5
310
F5F5F5F5F5F5F5F5F5F5F5F5F5F5F5F5F5F5F5E2F5F5F5F5F5F5F5F5F5F5F5F5F5F5F5F5E2F5F5F5F5E2E2F5F5F5F5E2F5F5F5F5F5F5F5F5F5F5F5F5F5F5F5F5E2F5F5F5F5F5F5F5F5F5F5F5F5F5F5F5F5F5F5F5F5F5F5F5F5F5F5F5F5F5F5F5F5F5F5F5F5F5F5F5F5F5F5F5F5F5F5F5F5F5F5F5F5F5F5F5F5F5F5F5F5F5F5
310
F5F5F5F5F5F5F5F5F5F5F5F5F5F5F5F5F5F5F5F5F5F5F5F5F5F5F5F5F5F5F5F5F5F5F5F5F5F5F5F5F5F5F5F5F5F5F5F5F5F5F5F5F5F5F5F5F5F5F5F5F5F5F5F5F5F5F5F5F5F5F5F5E2F5F5F5F5F5F5F5F5F5F5F5F5F5F5F5F5E2F5F5F5F5E2E2F5F5F5F5E2F5F5F5F5F5F5F5F5F5F5F5F5F5F5F5F5E2F5F5F5F5F5F5F5F5F5
310
F5F5F5F5F5F5F5F5F5F5F5F5F5F5F5F5F5F5F5F5F5F5F5F5F5F5F5F5F5F5F5F5F5F5F5F5F5F5F5F5F5F5F5F5F5F5F5F5F5F5F5F5F5F5F5F5F5F5F5F5F5F5F5F5F5F5F5F5F5F5F5F5F5F5F5F5F5F5F5F5F5F5F5F5F5F5F5F5F5F5F5F5F5F5F5F5F5F5F5F5F5F5F5F5F5F5F5F5F5F5F5F5F5F5F5F5F5F5F5F5F5F5F5F5F5E2F5
310
F5F5F5F5F5F5F5F5F5F5F5F5F5F5F5E2F5F5F5F5E2E2F5F5F5F5E2F5F5F5F5F5F5F5F5F5F5F5F5F5F5F5F5E2F5F5F5F5F5F5F5F5F5F5F5F5F5F5F5F5F5F5F5F5F5F5F5F5F5F5F5F5F5F5F5F5F5F5F5F5F5F5F5F5F5F5F5F5F5F5F5F5F5F5F5F5F5F5F5F5F5F5F5F5F5F5F5F5F5F5F5F5F5F5F5F5F5F5F5F5F5F5F5F5F5F5F5
310
F5F5F5F5F5F5F5F5F5F5F5F5F5F5F5F5F5F5F5F5F5F5F5F5F5F5F5F5F5F5F5F5F5F5F5F5F5F5F5F5F5F5F5F5F5F5F5F5F5F5F5E2F5F5F5F5F5F5F5F5F5F5F5F5F5F5F5F5E2F5F5F5F5E2E2F5F5F5F5E2F5F5F5F5F5F5F5F5F5F5F5F5F5F5F5F5E2F5F5F5F5F5F5F5F5F5F5F5F5F5F5F5F5F5F5F5F5F5F5F5F5F5F5F5F5F5F5
310
F5F5F5F5F5F5F5F5F5F5F5F5F5F5F5F5F5F5F5F5F5F5F5F5F5F5F5F5F5F5F5F5F5F5F5F5F5F5F5F5F5F5F5F5F5F5F5F5F5F5F5F5F5F5F5F5F5F5F5F5F5F5F5F5F5F5F5F5F5F5F5F5F5F5F5F5F5F5F5F5F5F5F5F5F5F5F5F5F5F5F5F5F5F5F5F5F5F5F5F5F5F5F5F5E2F5F5F5F5F5F5F5F5F5F5F5F5F5F5F5F5E2F5F5F5F5E2
310
E2F5F5F5F5E2F5F5F5F5F5F5F5F5F5F5F5F5F5F5F5F5E2F5F5F5F5F5F5F5F5F5F5F5F5F5F5F5F5F5F5F5F5F5F5F5F5F5F5F5F5F5F5F5F5F5F5F5F5F5F5F5F5F5F5F5F5F5F5F5F5F5F5F5F5F5F5F5F5F5F5F5F5F5F5F5F5F5F5F5F5F5F5F5F5F5F5F5F5F5F5F5F5F5F5F5F5F5F5F5F5F5F5F5F5F5F5F5F5F5F5F5F5F5F5F5F5
310
F5F5F5F5F5F5F5F5F5F5F5F5F5F5F5F5F5F5F5F5F5F5F5F5F5F5F5F5F5F5E2F5F5F5F5F5F5F5F5F5F5F5F5F5F5F5F5E2F5F5F5F5E2E2F5F5F5F5E2F5F5F5F5F5F5F5F5F5F5F5F5F5F5F5F5E2F5F5F5F5F5F5F5F5F5F5F5F5F5F5F5F5F5F5F5F5F5F5F5F5F5F5F5F5F5F5F5F5F5F5F5F5F5F5F5F5F5F5F5F5F5F5F5F5F5F5F5
310
F5F5F5F5F5F5F5F5F5F5F5F5F5F5F5F5F5F5F5F5F5F5F5F5F5F5F5F5F5F5F5F5F5F5F5F5F5F5F5F5F5F5F5F5F5F5F5F5F5F5F5F5F5F5F5F5F5F5F5F5F5F5F5F5F5F5F5F5F5F5F5F5F5F5F5F5F5F5F5F5F5F5F5E2F5F5F5F5F5F5F5F5F5F5F5F5F5F5F5F5E2F5F5F5F5E2E2F5F5F5F5E2F5F5F5F5F5F5F5F5F5F5F5F5F5F5F5
310
F5E2F5F5F5F5F5F5F5F5F5F5F5F5F5F5F5F5F5F5F5F5F5F5F5F5F5F5F5F5F5F5F5F5F5F5F5F5F5F5F5F5F5F5F5F5F5F5F5F5F5F5F5F5F5F5F5F5F5F5F5F5F5F5F5F5F5F5F5F5F5F5F5F5F5F5F5F5F5F5F5F5F5F5F5F5F5F5F5F5F5F5F5F5F5F5F5F5F5F5F5F5F5F5F5F5F5F5F5F5F5F5F5F5F5F5F5F5F5F5F5F5F5F5F5F5F5
310
F5F5F5F5F5F5F5F5F5E2F5F5F5F5F5F5F5F5F5F5F5F5F5F5F5F5E2F5F5F5F5E2E2F5F5F5F5E2F5F5F5F5F5F5F5F5F5F5F5F5F5F5F5F5E2F5F5F5F5F5F5F5F5F5F5F5F5F5F5F5F5F5F5F5F5F5F5F5F5F5F5F5F5F5F5F5F5F5F5F5F5F5F5F5F5F5F5F5F5F5F5F5F5F5F5F5F5F5F5F5F5F5F5F5F5F5F5F5F5F5F5F5F5F5F5F5F5
310
F5F5F5F5F5F5F5F5F5F5F5F5F5F5F5F5F5F5F5F5F5F5F5F5F5F5F5F5F5F5F5F5F5F5F5F5F5F5F5F5F5F5F5F5F5F5F5F5F5F5F5F5F5F5F5F5F5F5F5F5F5F5E2F5F5F5F5F5F5F5F5F5F5F5F5F5F5F5F5E2F5F5F5F5E2E2F5F5F5F5E2F5F5F5F5F5F5F5F5F5F5F5F5F5F5F5F5E2F5F5F5F5F5F5F5F5F5F5F5F5F5F5F5F5F5F5F5
310
F5F5F5F5F5F5F5F5F5F5F5F5F5F5F5F5F5F5F5F5F5F5F5F5F5F5F5F5F5F5F5F5F5F5F5F5F5F5F5F5F5F5F5F5F5F5F5F5F5F5F5F5F5F5F5F5F5F5F5F5F5F5F5F5F5F5F5F5F5F5F5F5F5F5F5F5F5F5F5F5F5F5F5F5F5F5F5F5F5F5F5F5F5F5F5F5F5F5F5F5F5F5F5F5F5F5F5F5F5F5F5F5F5F5F5E2F5F5F5F5F5F5F5F5F5F5F5
310
F5F5F5F5F5E2F5F5F5F5E2E2F5F5F5F5E2F5F5F5F5F5F5F5F5F5F5F5F5F5F5F5F5E2F5F5F5F5F5F5F5F5F5F5F5F5F5F5F5F5F5F5F5F5F5F5F5F5F5F5F5F5F5F5F5F5F5F5F5F5F5F5F5F5F5F5F5F5F5F5F5F5F5F5F5F5F5F5F5F5F5F5F5F5F5F5F5F5F5F5F5F5F5F5F5F5F5F5F5F5F5F5F5F5F5F5F5F5F5F5F5F5F5F5F5F5F5
310
F5F5F5F5F5F5F5F5F5F5F5F5F5F5F5F5F5F5F5F5F5F5F5F5F5F5F5F5F5F5F5F5F5F5F5F5F5F5F5F5F5E2F5F5F5F5F5F5F5F5F5F5F5F5F5F5F5F5E2F5F5F5F5E2E2F5F5F5F5F5F5F5F5F5F5F5F5F5F5F5F5F5F5F5F5F5E2F5F5F5F5F5F5F5F5F5F5F5F5F5F5F5F5F5F5F5F5F5F5F5F5F5F5F5F5F5F5F5F5F5F5F5F5F5F5F5F5
310
F5F5F5F5F5F5F5F5F5F5F5F5F5F5F5F5F5F5F5F5F5F5F5F5F5F5F5F5F5F5F5F5F5F5F5F5F5F5F5F5F5F5F5F5F5F5F5F5F5F5F5F5F5F5F5F5F5F5F5F5F5F5F5F5F5F5F5F5F5F5F5F5F5F5F5F5F5F5F5F5F5F5F5F5F5F5F5F5F5F5F5F5F5F5E2F5F5F5F5F5F5F5F5F5F5F5F5F5F5F5F5F5F5F5F5F5E2E2F5F5F5F5F5F5F5F5F5
310
F5F5F5F5F5F5F5F5F5F5F5F5E2F5F5F5F5F5F5F5F5F5F5F5F5F5F5F5F5F5F5F5F5F5F5F5F5F5F5F5F5F5F5F5F5F5F5F5F5F5F5F5F5F5F5F5F5F5F5F5F5F5F5F5F5F5F5F5F5F5F5F5F5F5F5F5F5F5F5F5F5F5F5F5F5F5F5F5F5F5F5F5F5F5F5F5F5F5F5F5F5F5F5F5F5F5F5F5F5F5F5F5F5F5F5F5F5F5F5F5F5F5F5F5F5F5F5
310
F5F5F5F5F5F5F5F5F5F5F5F5F5F5F5F5F5F5F5F5E2F5F5F5F5F5F5F5F5F5F5F5F5F5F5F5F5F5F5F5F5F5E2E2F5F5F5F5F5F5F5F5F5F5F5F5F5F5F5F5F5F5F5F5F5E2F5F5F5F5F5F5F5F5F5F5F5F5F5F5F5F5F5F5F5F5F5F5F5F5F5F5F5F5F5F5F5F5F5F5F5F5F5F5F5F5F5F5F5F5F5F5F5F5F5F5F5F5F5F5F5F5F5F5F5F5F5
310
F5F5F5F5F5F5F5F5F5F5F5F5F5F5F5F5F5F5F5F5F5F5F5F5F5F5F5F5F5F5F5F5F5F5F5F5F5F5F5F5F5F5F5F5F5F5F5F5F5F5F5F5F5F5F5F5F5F5F5F5F5F5F5F5F5F5F5F5F5F5F5F5F5E2F5F5F5F5F5F5F5F5F5F5F5F5F5F5F5F5F5F5F5F5F5E2E2F5F5F5F5F5F5F5F5F5F5F5F5F5F5F5F5F5F5F5F5F5E2F5F5F5F5F5F5F5F5
310
F5F5F5F5F5F5F5F5F5F5F5F5F5F5F5F5F5F5F5F5F5F5F5F5F5F5F5F5F5F5F5F5F5F5F5F5F5F5F5F5F5F5F5F5F5F5F5F5F5F5F5F5F5F5F5F5F5F5F5F5F5F5F5F5F5F5F5F5F5F5F5F5F5F5F5F5F5F5F5F5F5F5F5F5F5F5F5F5F5F5F5F5F5F5F5F5F5F5DCF5F5F5F5F5F5F5F5F5F5F5F5F5F5F5F5F5F5F5F5F5F5F5F5F5F5F5E2
310
F5F5F5F5F5F5F5F5F5F5F5F5F5F5F5F5F5F5F5F5F5E2E2F5F5F5F5F5F5F5F5F5F5F5F5F5F5F5F5F5F5F5F5F5E2F5F5F5F5F5F5F5F5F5F5F5F5F5F5F5F5F5F5F5F5F5F5F5F5F5F5F5F5F5F5F5F5F5F5F5F5F5F5F5F5F5F5F5F5F5F5F5F5F5F5F5F5F5F5F5F5F5F5F5F5F5F5F5F5F5F5F5F5F5F5F5F5F5F5F5F5F5F5F5F5F5E2
310
ECE2E2E2E2E2E2E2E2E2E2E2E2E2E2E2E2E2E2E2E2E2E2E2DCE2E2E2E2E2E2E2E2E2E2E2E2E2E2E2E2E2E2E2E2E2E2E2ECE2F5F5E2F5F5F5F5F5F5F5F5F5F5F5F5F5F5F5F5F5F5F5F5F5E2E2F5F5F5F5F5F5F5F5F5F5F5F5F5F5F5F5F5F5F5F5F5E2F5F5F5F5F5F5F5F5F5F5F5F5F5F5F5F5F5F5F5F5F5F5F5F5F5F5F5F5F5
310
F5F5F5F5F5F5F5F5F5F5F5F5F5F5F5F5F5F5F5F5F5F5F5F5F5F5F5F5F5F5F5F5F5F5F5F5F5F5F5F5F5F5F5F5F5F5F5F5F5F5F5E2F5F5ECF5F5F5F5F5F5F5F5F5F5F5F5F5F5F5F5F5F5F5F5F5F5DCF5F5F5F5F5F5F5F5F5F5F5F5F5F5F5F5F5F5F5F5F5F5ECF5F5E2F5E2F5F5F5F5F5F5F5F5F5F5F5F5F5F5F5F5F5F5F5F5F5
310
E2E2F5F5F5F5F5F5F5F5F5F5F5F5F5F5F5F5F5F5F5F5F5E2F5F5F5F5F5F5F5F5F5F5F5F5F5F5F5F5F5F5F5F5F5F5F5F5F5F5F5F5F5F5F5F5F5F5F5F5F5F5F5F5F5F5F5F5F5F5F5F5F5F5F5F5F5F5F5F5F5F5F5F5F5F5F5F5F5F5F5F5F5F5F5F5F5F5F5F5F5F5F5E2F5F5F5F5ECF5F5F5F5F5F5F5F5F5F5F5F5F5F5F5F5F5F5
310
F5F5F5DCF5F5F5F5F5F5F5F5F5F5F5F5F5F5F5F5F5F5F5F5F5ECF5F5F5F5E2E2F5F5F5F5F5F5F5F5F5F5F5F5F5F5F5F5F5F5F5F5F5E2E2F5F5F5F5F5F5F5F5F5F5F5F5F5F5F5F5F5F5F5F5F5E2F5F5F5F5F5F5F5F5F5F5F5F5F5F5F5F5F5F5F5F5F5F5F5F5F5F5F5F5F5F5F5F5F5F5F5F5F5F5F5F5F5F5F5F5F5F5F5F5F5F5
310
F5F5F5F5F5F5F5F5F5F5F5F5F5F5F5F5F5F5F5F5F5F5F5F5F5F5F5F5E2E2E2E2E2E2ECE2E2E2E2E2E2E2E2E2ECECECECECECE2ECECECECECDCECECECECECE2ECECECECECECE2E2E2E2E2E2E2E2ECE2E2E2E2E2E2E2F5F5F5F5F5F5F5F5F5F5F5F5F5F5F5F5F5F5F5F5F5E2E2F5F5F5F5F5F5F5F5F5F5F5F5F5F5F5F5F5F5F5
310
F5F5E2F5F5F5F5F5F5F5F5F5F5F5F5F5F5F5F5F5F5F5F5F5F5F5F5F5F5F5F5F5F5F5F5F5F5F5F5F5F5F5F5F5F5F5F5F5F5F5F5F5F5F5F5F5F5F5F5F5F5F5F5F5F5F5F5F5F5F5F5F5F5F5F5F5F5F5F5F5F5E2F5F5F5F5F5F5F5F5F5F5F5F5F5F5F5ECF5F5F5F5F5F5F5F5F5F5F5DCF5F5F5F5F5F5F5F5F5F5ECF5F5F5F5F5F5
310
F5F5F5F5F5F5F5F5F5E2E2F5F5F5F5F5F5F5F5F5F5F5F5F5F5F5F5F5F5F5F5F5E2E2F5F5F5F5E2F5F5F5F5F5F5F5F5F5F5F5F5F5F5F5F5E2F5F5F5F5F5F5F5F5F5F5F5F5F5F5F5F5F5F5F5F5F5F5F5F5F5F5F5F5F5F5F5F5F5F5F5F5F5F5F5F5F5F5F5F5F5F5F5F5F5F5F5F5F5F5F5F5F5F5F5F5F5F5F5F5F5F5F5F5F5F5F5
310
F5F5F5F5F5F5F5E2F5F5F5F5F5F5F5F5F5F5F5F5F5F5F5ECECECECECECECECECECECECECECECECECECECECECECECECF5F5F5F5F5F5F5F5F5F5F5F5F5F5F5E2E2F5F5F5F5F5F5F5F5F5F5F5F5F5F5F5F5E2F5F5F5F5E2E2F5F5F5F5E2F5F5F5F5F5F5F5F5F5F5F5F5F5F5F5F5E2F5F5F5F5F5F5F5F5F5F5F5F5F5F5F5F5F5F5
310
F5F5F5F5F5F5F5F5F5F5F5F5F5F5F5F5F5F5F5F5F5F5F5F5F5F5F5F5F5F5F5F5F5F5F5F5F5F5F5F5F5F5F5F5F5F5F5F5F5F5F5F5F5F5F5F5F5F5F5F5F5E2F5F5F5F5F5F5F5F5F5F5F5F5F5F5F5F5F5F5F5ECF5F5F5F5F5F5DCF5F5F5F5F5ECF5F5F5F5F5F5F5F5F5F5F5F5F5F5F5F5F5F5F5F5E2E2F5F5F5F5F5F5F5F5F5F5
310
F5F5F5F5F5F5E2F5F5F5F5E2E2F5F5F5F5E2F5F5F5F5F5F5F5F5F5F5F5F5F5F5F5F5E2F5F5F5F5F5F5F5F5F5F5F5F5F5F5F5F5F5F5F5F5F5F5F5F5F5F5F5F5F5F5F5F5F5F5F5F5F5F5F5F5F5F5F5F5F5F5F5F5F5F5F5F5F5F5F5F5F5F5F5F5F5F5F5F5F5F5F5F5F5F5F5F5F5F5F5F5F5F5F5F5E2F5F5F5F5F5F5F5F5F5F5F5
310
F5F5F5F5F5ECECECECECECF5ECECECECECF5ECECECECECF5F5F5F5F5F5F5F5F5F5F5F5F5F5F5F5F5E2F5E2F5F5F5F5F5F5F5F5F5F5F5F5F5F5F5F5E2F5F5F5F5E2E2F5F5F5F5E2F5F5F5F5F5F5F5F5F5F5F5F5F5F5F5F5E2F5F5F5F5F5F5F5F5F5F5F5F5F5F5F5F5F5F5F5F5F5F5F5F5F5F5F5F5F5F5F5F5F5F5F5F5F5F5F5
310
F5F5F5F5F5F5F5F5F5F5F5F5F5F5F5F5F5F5F5F5F5F5F5F5F5F5F5F5F5F5F5F5F5F5F5F5F5F5F5F5F5F5E2E2F5F5F5F5F5F5F5F5F5F5F5F5F5F5ECF5F5F5F5F5F5F5F5DCF5F5F5F5F5F5F5ECF5F5F5F5F5F5F5F5F5F5F5F5F5F5F5E2E2F5F5E2F5F5F5F5F5F5F5F5F5F5F5F5F5F5F5F5E2F5F5F5F5E2E2F5F5F5F5E2F5F5F5
310
F5F5F5F5F5F5F5F5F5F5F5F5F5E2F5F5F5F5F5F5F5F5F5F5F5F5F5F5F5F5F5F5F5F5F5F5F5F5F5F5F5F5F5F5F5F5F5F5F5F5F5F5F5F5F5F5F5F5F5F5F5F5F5F5F5F5F5F5F5F5F5F5F5F5F5F5F5F5F5F5F5F5F5F5F5F5F5F5F5F5F5F5F5F5F5F5F5E2F5F5F5F5F5F5F5F5F5F5F5F5F5ECF5F5F5F5F5F5F5F5DCF5F5F5F5F5F5
310
F5ECF5F5F5F5F5F5F5F5F5F5F5F5F5E2E2F5F5F5F5E2F5F5F5F5F5F5F5F5F5F5F5F5F5F5F5F5E2F5F5F5F5E2E2F5F5F5F5E2F5F5F5F5F5F5F5F5F5F5F5F5F5F5F5F5E2F5F5F5F5F5F5F5F5F5F5F5F5F5F5F5F5F5F5F5F5F5F5F5F5F5F5F5F5F5F5F5F5F5F5F5F5F5F5F5F5F5F5F5F5F5F5F5F5F5F5F5F5F5F5F5F5F5F5F5F5
310
F5F5F5F5F5F5F5F5F5F5F5F5F5F5F5F5F5F5F5F5F5F5F5F5E2E2F5F5F5F5F5F5F5F5F5F5F5ECF5F5F5F5F5F5F5F5DCF5F5F5F5F5F5F5ECF5F5F5F5F5F5F5F5F5F5F5F5E2F5F5F5F5F5F5E2F5F5F5F5F5F5F5F5F5F5F5F5F5F5F5F5E2F5F5F5F5E2E2F5F5F5F5E2F5F5F5F5F5F5F5F5F5F5F5F5F5F5F5F5E2F5F5F5F5F5F5F5
310
F5F5F5F5F5F5F5F5F5F5F5F5F5F5F5F5F5F5F5F5F5F5F5F5F5F5F5F5F5F5F5F5F5F5F5F5F5F5F5F5F5F5F5F5F5F5F5F5F5F5F5F5F5F5F5F5F5F5F5F5F5F5F5F5F5F5F5F5F5F5F5F5F5F5F5F5F5F5F5E2F5F5F5F5F5F5F5F5F5F5ECF5F5F5F5F5F5F5F5DCF5F5F5F5F5F5F5ECF5F5F5F5F5F5F5F5F5F5E2E2F5F5F5F5F5F5F5
310
E2F5F5F5F5F5F5F5F5F5F5F5F5F5F5F5F5E2F5F5F5F5E2E2F5F5F5F5E2F5F5F5F5F5F5F5F5F5F5F5F5F5F5F5F5E2F5F5F5F5F5F5F5F5F5F5F5F5F5F5F5F5F5F5F5F5F5F5F5F5F5F5F5F5F5F5F5F5F5F5F5F5F5F5F5F5F5F5F5F5F5F5F5F5F5F5F5F5F5F5F5F5F5F5F5F5F5F5F5F5F5F5F5F5F5F5F5F5F5F5F5F5F5F5F5F5F5
310
F5F5F5F5F5F5E2E2F5F5F5F5F5F5F5F5F5ECECECECECF5ECECECECECF5ECECECECECF5F5F5F5F5F5F5F5E2E2F5F5F5F5F5F5F5F5F5E2F5F5F5F5F5F5F5F5F5F5F5F5F5F5F5F5E2F5F5F5F5E2E2F5F5F5F5E2F5F5F5F5F5F5F5F5F5F5F5F5F5F5F5F5E2F5F5F5F5F5F5F5F5F5F5F5F5F5F5F5F5F5F5F5F5F5F5F5F5F5F5F5F5
310
F5F5F5F5F5F5F5F5F5F5F5F5F5F5F5F5F5F5F5F5F5F5F5F5F5F5F5F5F5F5F5F5F5F5F5F5F5F5F5F5F5F5F5F5F5F5F5F5F5F5F5F5F5F5F5F5F5F5F5F5F5E2E2F5F5F5F5F5F5F5ECF5F5F5F5F5F5F5DCF5F5F5F5F5F5F5ECF5F5F5F5F5F5F5E2F5F5F5F5F5F5F5F5F5F5F5E2F5F5F5F5F5F5F5F5F5F5F5F5F5F5F5F5E2F5F5F5
310
F5E2E2F5F5F5F5E2F5F5F5F5F5F5F5F5F5F5F5F5F5F5F5F5E2F5F5F5F5F5F5F5F5F5F5F5F5F5F5F5F5F5F5F5F5F5F5F5F5F5F5F5F5F5F5F5F5F5F5F5F5F5F5F5F5F5F5F5F5F5F5F5F5F5F5F5F5F5F5F5F5F5F5F5F5F5F5F5F5F5F5F5F5F5F5F5F5F5F5F5F5F5F5F5F5F5F5F5F5F5F5F5F5F5F5E2F5F5F5F5F5F5F5ECF5F5F5
310
F5F5F5F5DCF5F5F5F5F5F5F5ECF5F5F5F5F5F5F5E2F5F5F5F5F5F5F5F5F5F5F5E2F5F5F5F5F5F5F5F5F5F5F5F5F5F5F5F5E2F5F5F5F5E2E2F5F5F5F5E2F5F5F5F5F5F5F5F5F5F5F5F5F5F5F5F5E2F5F5F5F5F5F5F5F5F5F5F5F5F5F5F5F5F5F5F5F5F5F5F5F5F5F5F5F5F5F5F5F5F5F5F5F5F5F5F5F5F5F5F5F5F5F5F5F5F5
310
F5F5F5F5F5F5F5F5F5F5F5F5F5F5F5F5F5F5F5F5F5F5F5F5F5F5F5F5F5F5F5F5F5F5F5F5F5F5F5F5F5E2F5F5F5F5F5F5F5ECF5F5F5F5F5F5F5DCF5F5F5F5F5F5F5ECF5F5F5F5F5F5F5E2F5F5F5F5F5F5F5F5F5F5F5E2F5F5F5F5F5F5F5F5F5F5F5F5F5F5F5F5E2F5F5F5F5E2E2F5F5F5F5E2F5F5F5F5F5F5F5F5F5F5F5F5F5
310
F5F5F5E2F5F5F5F5F5F5F5F5F5F5F5F5F5F5F5F5F5F5F5F5F5F5F5F5F5F5F5F5F5F5F5F5F5F5F5F5F5F5F5F5F5F5F5F5F5F5F5F5F5F5F5F5F5F5F5F5F5F5F5F5F5F5F5F5F5F5F5F5F5F5F5F5F5F5F5F5F5F5F5F5F5F5F5F5F5F5F5F5F5F5E2F5F5F5F5F5F5F5ECF5F5F5F5E2E2E2E2E2E2E2F5F5F5F5ECF5F5F5F5F5F5F5E2
310
F5F5F5F5F5F5F5F5F5F5F5E2F5F5F5F5F5F5F5F5F5F5F5F5F5F5F5F5E2F5F5F5F5E2E2F5F5F5F5E2F5F5F5F5F5F5F5F5F5F5F5F5F5F5F5F5E2F5F5F5F5F5F5F5F5F5F5F5F5F5F5F5F5F5F5F5F5F5F5F5F5F5F5F5F5F5F5F5F5F5F5F5F5F5F5F5F5F5F5F5F5F5F5F5F5F5F5F5F5F5F5F5F5F5F5F5F5F5F5F5F5F5F5F5F5F5F5
310
F5F5F5F5F5F5F5F5F5F5F5F5F5F5F5F5F5F5F5F5E2F5F5F5F5F5F5F5ECECECECECECF5F5DCF5F5ECECECECECECF5F5F5F5F5F5F5E2F5F5F5F5F5F5F5F5F5F5F5E2F5F5F5F5F5F5F5F5F5F5F5F5F5F5F5F5E2F5F5F5F5E2E2F5F5F5F5E2F5F5F5F5F5F5F5F5F5F5F5F5F5F5F5F5E2F5F5F5F5F5F5F5F5F5F5F5F5F5F5F5F5F5
310
F5F5F5F5F5F5F5F5F5F5F5F5F5F5F5F5F5F5F5F5F5F5F5F5F5F5F5F5F5F5F5F5F5F5F5F5F5F5F5F5F5F5F5F5F5F5F5F5F5F5F5F5F5F5F5F5F5F5F5F5F5F5F5F5F5F5F5F5F5F5F5F5F5E2F5F5F5F5F5F5F5ECF5F5F5F5E2F5F5DCF5F5E2F5F5F5F5ECF5F5F5F5F5F5F5E2F5F5F5F5F5F5F5F5F5F5F5E2F5F5F5F5F5F5F5F5F5
310
F5F5F5F5F5F5F5E2F5F5F5F5E2E2F5F5F5F5E2F5F5F5F5F5F5F5F5F5F5F5F5F5F5F5F5E2F5F5F5F5F5F5F5F5F5F5F5F5F5F5F5F5F5F5F5F5F5F5F5F5F5F5F5F5F5F5F5F5F5F5F5F5F5F5F5F5F5F5F5F5F5F5F5F5F5F5F5F5F5F5F5F5F5F5F5F5F5F5F5F5F5F5F5F5F5F5F5F5F5F5F5F5F5F5F5F5F5F5F5F5F5F5F5F5F5F5E2
310
E2E2E2E2E2E2E2E2E2E2E2E2ECF5F5DCF5F5E2E2E2E2E2E2E2E2E2E2E2E2E2E2F5F5F5F5F5F5F5F5F5F5F5E2F5F5F5F5F5F5F5F5F5F5F5F5F5F5F5F5E2F5F5F5F5E2E2F5F5F5F5E2F5F5F5F5F5F5F5F5F5F5F5F5F5F5F5F5E2F5F5F5F5F5F5F5F5F5F5F5F5F5F5F5F5F5F5F5F5F5F5F5F5F5F5F5F5F5F5F5F5F5F5F5F5F5F5
310
F5F5F5F5F5F5F5F5F5F5F5F5F5F5F5F5F5F5F5F5F5F5F5F5F5F5F5F5F5F5F5F5F5F5F5F5F5F5F5F5F5F5F5F5F5F5F5F5F5F5F5F5F5F5F5F5F5F5F5F5F5F5F5F5F5F5F5F5DCF5F5F5F5F5F5F5F5F5F5F5F5F5F5F5F5F5F5F5F5F5F5F5F5F5F5F5E2F5F5F5F5F5F5F5F5F5F5F5F5F5F5F5F5E2F5F5F5F5E2E2F5F5F5F5F5F5F5
310
F5F5F5F5F5F5F5F5F5F5F5F5F5F5E2F5F5F5F5F5F5F5F5F5F5F5F5F5F5F5F5F5F5F5F5F5F5F5F5F5F5F5F5F5F5F5F5F5F5F5F5F5F5F5F5F5F5F5F5F5F5F5F5F5F5F5F5F5F5F5F5F5F5F5F5F5F5F5F5F5F5F5F5F5F5F5F5F5F5F5F5F5F5F5F5F5F5F5F5F5F5F5F5F5F5F5F5F5F5F5F5F5F5F5F5F5F5F5F5F5F5F5F5F5F5F5F5
310
F5F5F5F5F5F5F5F5F5F5F5F5F5F5F5F5F5F5F5F5F5F5E2F5F5F5F5F5F5F5F5F5F5F5F5F5F5F5F5F5F5F5F5F5E2E2F5F5F5F5F5F5F5F5F5F5F5F5F5F5F5F5F5F5F5F5F5E2F5F5F5F5F5F5F5F5F5F5F5F5F5F5F5F5F5F5F5F5F5F5F5F5F5F5F5F5F5F5F5F5F5F5F5F5F5F5F5F5F5F5F5F5F5F5F5F5F5F5F5F5F5F5F5F5F5F5F5
310
F5F5F5F5F5F5F5F5F5F5F5F5F5F5F5F5F5F5F5F5F5F5F5F5F5F5F5F5F5F5F5F5F5F5F5F5F5F5F5F5F5F5F5F5F5F5F5F5F5F5F5F5F5F5F5F5F5F5F5F5F5F5F5F5F5F5F5F5F5F5F5F5F5F5F5E2F5F5F5F5F5F5F5F5F5F5F5F5F5F5F5F5F5F5F5F5F5E2E2F5F5F5F5F5F5F5F5F5F5F5F5F5F5F5F5F5F5F5F5F5E2F5F5F5F5F5F5
310
F5F5F5F5F5F5F5F5F5F5F5F5F5F5F5F5F5F5F5F5F5F5F5F5F5F5F5F5F5F5F5F5F5F5F5F5F5F5F5F5F5F5F5F5F5F5F5F5F5F5F5F5F5F5F5F5F5F5F5F5F5F5F5F5F5F5F5F5F5F5F5F5F5F5F5F5F5F5F5F5F5F5F5F5F5F5F5F5F5F5F5F5F5F5F5F5F5F5F5F5F5F5F5F5F5F5F5F5F5F5F5F5F5F5F5F5F5F5F5F5F5F5F5F5F5F5F5
310
F5E2F5F5F5F5F5F5F5F5F5F5F5F5F5F5F5F5F5F5F5F5F5E2E2F5F5F5F5F5F5F5F5F5F5F5F5F5F5F5F5F5F5F5F5F5E2F5F5F5F5F5F5F5F5F5F5F5F5F5F5F5F5F5F5F5F5F5F5F5F5F5F5F5F5F5F5F5F5F5F5F5F5F5F5F5F5F5F5F5F5F5F5F5F5F5F5F5F5F5F5F5F5F5F5F5F5F5F5F5F5F5F5F5F5F5F5F5F5F5F5F5F5F5F5F5F5
310
F5F5F5F5F5F5F5F5F5F5F5F5F5F5F5F5F5F5F5F5F5F5F5F5F5F5F5F5F5F5F5F5F5F5F5F5F5F5F5F5F5F5F5F5F5F5F5F5F5F5F5F5F5F5E2F5F5F5F5F5F5F5F5F5F5F5F5F5F5F5F5F5F5F5F5F5E2E2F5F5F5F5F5F5F5F5F5F5F5F5F5F5F5F5F5F5F5F5F5E2F5F5F5F5F5F5F5F5F5F5F5F5F5F5F5F5F5F5F5F5F5F5F5F5F5F5F5
310
F5F5F5F5F5F5F5F5F5F5F5F5F5F5F5F5F5F5F5F5F5F5F5F5F5F5F5F5F5F5F5F5F5F5F5F5F5F5F5F5F5F5F5F5F5F5F5F5F5F5F5F5F5F5F5F5F5F5F5F5F5F5F5F5F5F5F5F5F5F5F5F5F5F5F5F5F5F5F5F5F5F5F5F5F5F5F5F5F5F5F5F5F5F5F5F5F5F5F5F5F5F5F5F5F5F5F5E2F5F5F5F5F5F5F5F5F5F5F5F5F5F5F5F5F5F5F5
310
F5F5E2E2F5F5F5F5F5F5F5F5F5F5F5F5F5F5F5F5F5F5F5F5F5E2F5F5F5F5F5F5F5F5F5F5F5F5F5F5F5F5F5F5F5F5F5F5F5F5F5F5F5F5F5F5F5F5F5F5F5F5F5F5F5F5F5F5F5F5F5F5F5F5F5F5F5F5F5F5F5F5F5F5F5F5F5F5F5F5F5F5F5F5F5F5F5F5F5F5F5F5F5F5F5F5F5F5F5F5F5F5F5F5F5F5F5F5F5F5F5F5F5F5F5F5F5
310
F5F5F5F5F5F5F5F5F5F5F5F5F5F5F5F5F5F5F5F5F5F5F5F5F5F5F5F5F5F5F5F5F5E2F5F5F5F5F5F5F5F5F5F5F5F5F5F5F5F5F5F5F5F5F5E2E2F5F5F5F5F5F5F5F5F5F5F5F5F5F5F5F5F5F5F5F5F5E2F5F5F5F5F5F5F5F5F5F5F5F5F5F5F5F5F5F5F5F5F5F5F5F5F5F5F5F5F5F5F5F5F5F5F5F5F5F5F5F5F5F5F5F5F5F5F5F5
310
F5F5F5F5F5F5F5F5F5F5F5F5F5F5F5F5F5F5F5F5F5F5F5F5F5F5F5F5F5F5F5F5F5F5F5F5F5F5F5F5F5F5F5F5F5F5F5F5F5F5F5F5F5F5F5F5F5F5F5F5F5F5F5F5F5F5F5F5F5F5F5F5F5F5F5F5F5F5F5F5F5F5F5F5F5F5E2F5F5F5F5F5F5F5F5F5F5F5F5F5F5F5F5F5F5F5F5F5E2E2F5F5F5F5F5F5F5F5F5F5F5F5F5F5F5F5F5
310
F5F5F5F5E2F5F5F5F5F5F5F5F5F5F5F5F5F5F5F5F5F5F5F5F5F5F5F5F5F5F5F5F5F5F5F5F5F5F5F5F5F5F5F5F5F5F5F5F5F5F5F5F5F5F5F5F5F5F5F5F5F5F5F5F5F5F5F5F5F5F5F5F5F5F5F5F5F5F5F5F5F5F5F5F5F5F5F5F5F5F5F5F5F5F5F5F5F5F5F5F5F5F5F5F5F5F5F5F5F5F5F5F5F5F5F5F5F5F5F5F5F5F5F5F5F5F5
310
F5F5F5F5F5F5F5F5F5F5F5F5E2F5F5F5F5F5F5F5F5F5F5F5F5F5F5F5F5F5F5F5F5F5E2E2F5F5F5F5F5F5F5F5F5F5F5F5F5F5F5F5F5F5F5F5F5E2F5F5F5F5F5F5F5F5F5F5F5F5F5F5F5F5F5F5F5F5F5F5F5F5F5F5F5F5F5F5F5F5F5F5F5F5F5F5F5F5F5F5F5F5F5F5F5F5F5F5F5F5F5F5F5F5F5F5F5F5F5F5F5F5F5F5F5F5F5
310
F5F5F5F5F5F5F5F5F5F5F5F5F5F5F5F5F5F5F5F5F5F5F5F5F5F5F5F5F5F5F5F5F5F5F5F5F5F5F5F5F5F5F5F5F5F5F5F5F5F5F5F5F5F5F5F5F5F5F5F5F5F5F5F5F5E2F5F5F5F5F5F5F5F5F5F5F5F5F5F5F5F5F5F5F5F5F5E2E2F5F5F5F5F5F5F5F5F5F5F5F5F5F5F5F5F5F5F5F5F5E2F5F5F5F5F5F5F5F5F5F5F5F5F5F5F5F5
310
F5F5F5F5F5F5F5F5F5F5F5F5F5F5F5F5F5F5F5F5F5F5F5F5F5F5F5F5F5F5F5F5F5F5F5F5F5F5F5F5F5F5F5F5F5F5F5F5F5F5F5F5F5F5F5F5F5F5F5F5F5F5F5F5F5F5F5F5F5F5F5F5F5F5F5F5F5F5F5F5F5F5F5F5F5F5F5F5F5F5F5F5F5F5F5F5F5F5F5F5F5F5F5F5F5F5F5F5F5F5F5F5F5F5F5F5F5F5E2F5F5F5F5F5F5F5F5
310
F5F5F5F5F5F5F5F5F5F5F5F5F5E2E2F5F5F5F5E2F5F5F5F5F5F5F5F5F5F5F5F5F5F5F5F5E2F5F5F5F5F5F5F5F5F5F5F5F5F5F5F5F5F5F5F5F5F5F5F5F5F5F5F5F5F5F5F5F5F5F5F5F5F5F5F5F5F5F5F5F5F5F5F5F5F5F5F5F5F5F5F5F5F5F5F5F5F5F5F5F5F5F5F5F5F5F5F5F5F5F5F5F5F5F5F5F5F5F5F5F5F5F5F5F5F5F5
310
F5F5F5F5F5F5F5F5F5F5F5F5F5F5F5F5F5F5F5F5F5F5F5F5F5F5F5F5F5F5F5F5F5F5F5F5F5F5F5F5F5F5F5F5E2F5F5F5F5F5F5F5F5F5F5F5F5F5F5F5F5E2F5F5F5F5E2E2F5F5F5F5E2F5F5F5F5F5F5F5F5F5F5F5F5F5F5F5F5E2F5F5F5F5F5F5F5F5F5F5F5F5F5F5F5F5F5F5F5F5F5F5F5F5F5F5F5F5F5F5F5F5F5F5F5F5F5
310
F5F5F5F5F5F5F5F5F5F5F5F5F5F5F5F5F5F5F5F5F5F5F5F5F5F5F5F5F5F5F5F5F5F5F5F5F5F5F5F5F5F5F5F5F5F5F5F5F5F5F5F5F5F5F5F5F5F5F5F5F5F5F5F5F5F5F5F5F5F5F5F5F5F5F5F5F5F5F5F5F5F5F5F5F5F5F5F5F5F5F5F5F5F5F5F5F5E2F5F5F5F5F5F5F5F5F5F5F5F5F5F5F5F5E2F5F5F5F5E2E2F5F5F5F5E2F5
310
F5F5F5F5F5F5F5F5F5F5F5F5F5F5F5E2F5F5F5F5F5F5F5F5F5F5F5F5F5F5F5F5F5F5F5F5F5F5F5F5F5F5F5F5F5F5F5F5F5F5F5F5F5F5F5F5F5F5F5F5F5F5F5F5F5F5F5F5F5F5F5F5F5F5F5F5F5F5F5F5F5F5F5F5F5F5F5F5F5F5F5F5F5F5F5F5F5F5F5F5F5F5F5F5F5F5F5F5F5F5F5F5F5F5F5F5F5F5F5F5F5F5F5F5F5F5F5
310
F5F5F5F5F5F5F5F5F5F5F5F5F5F5F5F5F5F5F5F5F5F5F5E2F5F5F5F5F5F5F5F5F5F5F5F5F5F5F5F5E2F5F5F5F5E2E2F5F5F5F5E2F5F5F5F5F5F5F5F5F5F5F5F5F5F5F5F5E2F5F5F5F5F5F5F5F5F5F5F5F5F5F5F5F5F5F5F5F5F5F5F5F5F5F5F5F5F5F5F5F5F5F5F5F5F5F5F5F5F5F5F5F5F5F5F5F5F5F5F5F5F5F5F5F5F5F5
310
F5F5F5F5F5F5F5F5F5F5F5F5F5F5F5F5F5F5F5F5F5F5F5F5F5F5F5F5F5F5F5F5F5F5F5F5F5F5F5F5F5F5F5F5F5F5F5F5F5F5F5F5F5F5F5F5F5F5F5F5F5F5F5F5F5F5F5F5F5F5F5F5F5F5F5F5E2F5F5F5F5F5F5F5F5F5F5F5F5F5F5F5F5E2F5F5F5F5E2E2F5F5F5F5E2F5F5F5F5F5F5F5F5F5F5F5F5F5F5F5F5E2F5F5F5F5F5
310
F5F5F5F5F5F5F5F5F5F5F5F5F5F5F5F5F5F5F5F5F5F5F5F5F5F5F5F5F5F5F5F5F5F5F5F5F5F5F5F5F5F5F5F5F5F5F5F5F5F5F5F5F5F5F5F5F5F5F5F5F5F5F5F5F5F5F5F5F5F5F5F5F5F5F5F5F5F5F5F5F5F5F5F5F5F5F5F5F5F5F5F5F5F5F5F5F5F5F5F5F5F5F5F5F5F5F5F5F5F5F5F5F5F5F5F5F5F5F5F5F5F5F5F5F5F5F5
310
F5F5E2F5F5F5F5F5F5F5F5F5F5F5F5F5F5F5F5E2F5F5F5F5E2E2F5F5F5F5E2F5F5F5F5F5F5F5F5F5F5F5F5F5F5F5F5E2F5F5F5F5F5F5F5F5F5F5F5F5F5F5F5F5F5F5F5F5F5F5F5F5F5F5F5F5F5F5F5F5F5F5F5F5F5F5F5F5F5F5F5F5F5F5F5F5F5F5F5F5F5F5F5F5F5F5F5F5F5F5F5F5F5F5F5F5F5F5F5F5F5F5F5F5F5F5F5
310
F5F5F5F5F5F5F5F5F5F5F5F5F5F5F5F5F5F5F5F5F5F5F5F5F5F5F5F5F5F5F5F5F5F5F5F5F5F5F5F5F5F5F5F5F5F5F5F5F5F5F5F5F5F5F5E2F5F5F5F5F5F5F5F5F5F5F5F5F5F5F5F5E2F5F5F5F5E2E2F5F5F5F5E2F5F5F5F5F5F5F5F5F5F5F5F5F5F5F5F5E2F5F5F5F5F5F5F5F5F5F5F5F5F5F5F5F5F5F5F5F5F5F5F5F5F5F5
310
F5F5F5F5F5F5F5F5F5F5F5F5F5F5F5F5F5F5F5F5F5F5F5F5F5F5F5F5F5F5F5F5F5F5F5F5F5F5F5F5F5F5F5F5F5F5F5F5F5F5F5F5F5F5F5F5F5F5F5F5F5F5F5F5F5F5F5F5F5F5F5F5F5F5F5F5F5F5F5F5F5F5F5F5F5F5F5F5F5F5F5F5F5F5F5F5F5F5F5F5F5F5F5F5F5F5F5F5E2F5F5F5F5F5F5F5F5F5F5F5F5F5F5F5F5E2F5
310
F5F5F5E2E2F5F5F5F5E2F5F5F5F5F5F5F5F5F5F5F5F5F5F5F5F5E2F5F5F5F5F5F5F5F5F5F5F5F5F5F5F5F5F5F5F5F5F5F5F5F5F5F5F5F5F5F5F5F5F5F5F5F5F5F5F5F5F5F5F5F5F5F5F5F5F5F5F5F5F5F5F5F5F5F5F5F5F5F5F5F5F5F5F5F5F5F5F5F5F5F5F5F5F5F5F5F5F5F5F5F5F5F5F5F5F5F5F5F5F5F5F5F5F5F5F5F5
310
F5F5F5F5F5F5F5F5F5F5F5F5F5F5F5F5F5F5F5F5F5F5F5F5F5F5F5F5F5F5F5F5F5F5E2F5F5F5F5F5F5F5F5F5F5F5F5F5F5F5F5E2F5F5F5F5E2E2F5F5F5F5E2F5F5F5F5F5F5F5F5F5F5F5F5F5F5F5F5E2F5F5F5F5F5F5F5F5F5F5F5F5F5F5F5F5F5F5F5F5F5F5F5F5F5F5F5F5F5F5F5F5F5F5F5F5F5F5F5F5F5F5F5F5F5F5F5
310
F5F5F5F5F5F5F5F5F5F5F5F5F5F5F5F5F5F5F5F5F5F5F5F5F5F5F5F5F5F5F5F5F5F5F5F5F5F5F5F5F5F5F5F5F5F5F5F5F5F5F5F5F5F5F5F5F5F5F5F5F5F5F5F5F5F5F5F5F5F5F5F5F5F5F5F5F5F5F5F5F5F5F5F5F5F5F5E2F5F5F5F5F5F5F5F5F5F5F5F5F5F5F5F5E2F5F5F5F5E2E2F5F5F5F5E2F5F5F5F5F5F5F5F5F5F5F5
310
F5F5F5F5F5E2F5F5F5F5F5F5F5F5F5F5F5F5F5F5F5F5F5F5F5F5F5F5F5F5F5F5F5F5F5F5F5F5F5F5F5F5F5F5F5F5F5F5F5F5F5F5F5F5F5F5F5F5F5F5F5F5F5F5F5F5F5F5F5F5F5F5F5F5F5F5F5F5F5F5F5F5F5F5F5F5F5F5F5F5F5F5F5F5F5F5F5F5F5F5F5F5F5F5F5F5F5F5F5F5F5F5F5F5F5F5F5F5F5F5F5F5F5F5F5F5F5
310
F5F5F5F5F5F5F5F5F5F5F5F5F5E2F5F5F5F5F5F5F5F5F5F5F5F5F5F5F5F5E2F5F5F5F5E2E2F5F5F5F5E2F5F5F5F5F5F5F5F5F5F5F5F5F5F5F5F5E2F5F5F5F5F5F5F5F5F5F5F5F5F5F5F5F5F5F5F5F5F5F5F5F5F5F5F5F5F5F5F5F5F5F5F5F5F5F5F5F5F5F5F5F5F5F5F5F5F5F5F5F5F5F5F5F5F5F5F5F5F5F5F5F5F5F5F5F5
310
F5F5F5F5F5F5F5F5F5F5F5F5F5F5F5F5F5F5F5F5F5F5F5F5F5F5F5F5F5F5F5F5F5F5F5F5F5F5F5F5F5F5F5F5F5F5F5F5F5F5F5F5F5F5F5F5F5F5F5F5F5F5F5F5F5F5E2F5F5F5F5F5F5F5F5F5F5F5F5F5F5F5F5E2F5F5F5F5E2E2F5F5F5F5E2F5F5F5F5F5F5F5F5F5F5F5F5F5F5F5F5E2F5F5F5F5F5F5F5F5F5F5F5F5F5F5F5
310
F5F5F5F5F5F5F5F5F5F5F5F5F5F5F5F5F5F5F5F5F5F5F5F5F5F5F5F5F5F5F5F5F5F5F5F5F5F5F5F5F5F5F5F5F5F5F5F5F5F5F5F5F5F5F5F5F5F5F5F5F5F5F5F5F5F5F5F5F5F5F5F5F5F5F5F5F5F5F5F5F5F5F5F5F5F5F5F5F5F5F5F5F5F5F5F5F5F5F5F5F5F5F5F5F5F5F5F5F5F5F5F5F5F5F5F5F5F5F5E2F5F5F5F5F5F5F5
310
F5F5F5F5F5F5F5F5F5E2F5F5F5F5E2E2F5F5F5F5E2F5F5F5F5F5F5F5F5F5F5F5F5F5F5F5F5E2F5F5F5F5F5F5F5F5F5F5F5F5F5F5F5F5F5F5F5F5F5F5F5F5F5F5F5F5F5F5F5F5F5F5F5F5F5F5F5F5F5F5F5F5F5F5F5F5F5F5F5F5F5F5F5F5F5F5F5F5F5F5F5F5F5F5F5F5F5F5F5F5F5F5F5F5F5F5F5F5F5F5F5F5F5F5F5F5F5
310
F5F5F5F5F5F5F5F5F5F5F5F5F5F5F5F5F5F5F5F5F5F5F5F5F5F5F5F5F5F5F5F5F5F5F5F5F5F5F5F5F5F5F5F5F5E2F5F5F5F5F5F5F5F5F5F5F5F5F5F5F5F5E2F5F5F5F5E2E2F5F5F5F5E2F5F5F5F5F5F5F5F5F5F5F5F5F5F5F5F5E2F5F5F5F5F5F5F5F5F5F5F5F5F5F5F5F5F5F5F5F5F5F5F5F5F5F5F5F5F5F5F5F5F5F5F5F5
310
F5F5F5F5F5F5F5F5F5F5F5F5F5F5F5F5F5F5F5F5F5F5F5F5F5F5F5F5F5F5F5F5F5F5F5F5F5F5F5F5F5F5F5F5F5F5F5F5F5F5F5F5F5F5F5F5F5F5F5F5F5F5F5F5F5F5F5F5F5F5F5F5F5F5F5F5F5F5F5F5F5F5F5F5F5F5F5F5F5F5F5F5F5F5F5F5F5F5E2F5F5F5F5F5F5F5F5F5F5F5F5F5F5F5F5E2F5F5F5F5E2E2F5F5F5F5E2
310
F5F5F5F5F5F5F5F5F5F5F5F5F5F5F5F5E2F5F5F5F5F5F5F5F5F5F5F5F5F5F5F5F5F5F5F5F5F5F5F5F5F5F5F5F5F5F5F5F5F5F5F5F5F5F5F5F5F5F5F5F5F5F5F5F5F5F5F5F5F5F5F5F5F5F5F5F5F5F5F5F5F5F5F5F5F5F5F5F5F5F5F5F5F5F5F5F5F5F5F5F5F5F5F5F5F5F5F5F5F5F5F5F5F5F5F5F5F5F5F5F5F5F5F5F5F5F5
310
F5F5F5F5F5F5F5F5F5F5F5F5F5F5F5F5F5F5F5F5F5F5F5F5E2F5F5F5F5F5F5F5F5F5F5F5F5F5F5F5F5E2F5F5F5F5E2E2F5F5F5F5E2F5F5F5F5F5F5F5F5F5F5F5F5F5F5F5F5E2F5F5F5F5F5F5F5F5F5F5F5F5F5F5F5F5F5F5F5F5F5F5F5F5F5F5F5F5F5F5F5F5F5F5F5F5F5F5F5F5F5F5F5F5F5F5F5F5F5F5F5F5F5F5F5F5F5
310
F5F5F5F5F5F5F5F5F5F5F5F5F5F5F5F5F5F5F5F5F5F5F5F5F5F5F5F5F5F5F5F5F5F5F5F5F5F5F5F5F5F5F5F5F5F5F5F5F5F5F5F5F5F5F5F5F5F5F5F5F5F5F5F5F5F5F5F5F5F5F5F5F5F5F5F5F5E2F5F5F5F5F5F5F5F5F5F5F5F5F5F5F5F5E2F5F5F5F5E2E2F5F5F5F5F5F5F5F5F5F5F5F5F5F5F5F5F5F5F5F5F5E2F5F5F5F5
310
F5F5F5F5F5F5F5F5F5F5F5F5F5F5F5F5F5F5F5F5F5F5F5F5F5F5F5F5F5F5F5F5F5F5F5F5F5F5F5F5F5F5F5F5F5F5F5F5F5F5F5F5F5F5F5F5F5F5F5F5F5F5F5F5F5F5F5F5F5F5F5F5F5F5F5F5F5F5F5F5F5F5F5F5F5F5F5F5F5F5F5F5F5F5F5F5F5F5F5F5F5F5F5F5F5F5F5F5F5F5F5F5F5F5F5F5F5F5F5F5F5F5F5F5F5F5F5
310
F5F5F5E2F5F5F5F5F5F5F5F5F5F5F5F5F5F5F5F5F5F5F5F5F5E2E2F5F5F5F5F5F5F5F5F5F5F5F5F5F5F5F5F5F5F5F5F5E2F5F5F5F5F5F5F5F5F5F5F5F5F5F5F5F5F5F5F5F5F5F5F5F5F5F5F5F5F5F5F5F5F5F5F5F5F5F5F5F5F5F5F5F5F5F5F5F5F5F5F5F5F5F5F5F5F5F5F5F5F5F5F5F5F5F5F5F5F5F5F5F5F5F5F5F5F5F5
310
F5F5F5F5F5F5F5F5F5F5F5F5F5F5F5F5F5F5F5F5F5F5F5F5F5F5F5F5F5F5F5F5F5F5F5F5F5F5F5F5F5F5F5F5F5F5F5F5F5F5F5F5F5F5F5F5E2F5F5F5F5F5F5F5F5F5F5F5F5F5F5F5F5F5F5F5F5F5E2E2F5F5F5F5F5F5F5F5F5F5F5F5F5F5F5F5F5F5F5F5F5E2F5F5F5F5F5F5F5F5F5F5F5F5F5F5F5F5F5F5F5F5F5F5F5F5F5
310
F5F5F5F5F5F5F5F5F5F5F5F5F5F5F5F5F5F5F5F5F5F5F5F5F5F5F5F5F5F5F5F5F5F5F5F5F5F5F5F5F5F5F5F5F5F5F5F5F5F5F5F5F5F5F5F5F5F5F5F5F5F5F5F5F5F5F5F5F5F5F5F5F5F5F5F5F5F5F5F5F5F5F5F5F5F5F5F5F5F5F5F5F5F5F5F5F5F5F5F5F5F5F5F5F5F5F5F5F5E2F5F5F5F5F5F5F5F5F5F5F5F5F5F5F5F5F5
310
F5F5F5F5E2E2F5F5F5F5F5F5F5F5F5F5F5F5F5F5F5F5F5F5F5F5F5E2F5F5F5F5F5F5F5F5F5F5F5F5F5F5F5F5F5F5F5F5F5F5F5F5F5F5F5F5F5F5F5F5F5F5F5F5F5F5F5F5F5F5F5F5F5F5F5F5F5F5F5F5F5F5F5F5F5F5F5F5F5F5F5F5F5F5F5F5F5F5F5F5F5F5F5F5F5F5F5F5F5F5F5F5F5F5F5F5F5F5F5F5F5F5F5F5F5F5F5
310
F5F5F5F5F5F5F5F5F5F5F5F5F5F5F5F5F5F5F5F5F5F5F5F5F5F5F5F5F5F5F5F5F5F5F5E2F5F5F5F5F5F5F5F5F5F5F5F5F5F5F5F5F5F5F5F5F5E2E2F5F5F5F5F5F5F5F5F5F5F5F5F5F5F5F5F5F5F5F5F5E2E2E2E2E2E2E2E2E2E2E2E2E2E2E2E2E2E2E2E2E2E2E2E2E2E2E2E2E2E2E2E2E2E2E2E2E2E2E2E2E2E2E2E2E2E2E2
310
E2E2E2E2E2E2E2E2E2E2E2E2E2E2E2E2E2E2E2E2E2E2E2E2E2E2E2E2E2E2E2E2E2E2E2E2E2E2E2E2E2E2E2E2E2E2E2E2E2E2E2E2E2E2E2E2E2E2E2E2E2E2E2E2E2E2E2E2E2E2E2E2E2E2E2E2E2E2E2E2E2E2E2E2E2E2E2E2E2F5F5F5F5F5F5F5F5F5F5F5F5F5F5F5F5F5F5F5F5F5E2E2F5F5F5F5F5F5F5F5F5F5F5F5F5F5F5
310
F5F5F5F5F5F5F5F5F5F5F5F5F5F5F5F5F5F5F5F5F5F5F5F5F5F5F5F5F5F5F5F5F5F5F5F5F5F5F5F5F5F5F5F5F5F5F5F5F5F5F5F5F5F5F5F5F5F5F5F5F5F5F5F5F5F5F5F5F5F5F5F5F5F5F5F5F5F5F5F5F5F5F5F5F5F5F5F5F5F5F5F5F5F5F5F5F5F5F5F5F5F5F5F5F5F5F5F5F5F5F5F5F5F5F5F5F5F5F5F5F5F5F5F5F5F5F5
310
F5F5F5F5F5F5F5F5F5F5F5F5F5F5F5F5F5F5F5F5F5F5F5F5F5F5F5F5F5F5F5F5F5F5F5F5E2E2F5F5F5F5F5F5F5F5F5F5F5F5F5F5F5F5F5F5F5F5F5F5F5F5F5F5F5F5F5F5F5F5F5F5F5F5F5F5F5F5F5F5F5F5F5F5F5F5F5F5F5F5F5F5F5F5F5F5F5F5F5F5F5F5F5F5F5F5F5F5F5F5F5F5F5F5F5F5F5F5F5F5F5F5F5F5F5F5F5
310
F5F5F5F5F5F5F5F5F5F5F5F5F5F5F5F5F5F5F5F5F5F5F5F5F5F5F5F5F5F5F5F5F5F5F5F5F5F5F5F5F5F5F5F5F5F5F5F5F5F5F5F5F5F5F5F5F5F5F5F5F5F5F5F5F5F5F5F5F5F5F5F5F5F5F5F5F5F5F5F5F5F5F5F5F5F5F5F5F5E2E2F5F5F5F5F5F5F5F5F5F5F5F5F5F5F5F5F5F5F5F5F5F5F5F5F5F5F5F5F5F5F5F5F5F5F5F5
310
F5F5F5F5F5F5F5F5F5F5F5F5F5F5F5F5F5F5F5F5F5F5F5F5F5F5F5F5F5F5F5F5F5F5F5F5F5F5F5F5F5F5F5F5F5F5F5F5F5F5F5F5F5F5F5F5F5F5F5F5F5F5F5F5F5F5F5F5F5F5F5F5F5F5F5F5F5F5F5F5F5F5F5F5F5F5F5F5F5F5F5F5F5F5F5F5F5F5F5F5F5F5F5F5F5F5F5F5F5F5F5F5F5F5F5F5F5F5F5F5F5F5F5F5F5F5F5
310
F5F5F5F5F5F5F5F5F5F5F5F5F5F5F5E2E2F5F5F5F5F5F5F5F5F5F5F5F5F5F5F5F5F5F5F5F5F5F5F5F5F5F5F5F5F5F5F5F5F5F5F5F5F5F5F5F5F5F5F5F5F5F5F5F5F5F5F5F5F5F5F5F5F5F5F5F5F5F5F5F5F5F5F5F5F5F5F5F5F5F5F5F5F5F5F5F5F5F5F5F5F5F5F5F5F5F5F5F5F5F5F5F5F5F5F5F5F5F5F5F5F5F5F5F5F5F5
310
F5F5F5F5F5F5F5F5F5F5F5F5F5F5F5F5F5F5F5F5F5F5F5F5F5F5F5F5F5F5F5F5F5F5F5F5F5F5F5F5F5F5F5F5F5F5F5F5F5F5F5F5F5F5F5F5F5F5F5F5F5F5F5F5F5F5F5F5E2E2F5F5F5F5E2F5F5F5F5F5F5F5F5F5F5F5F5F5F5F5F5F5F5F5F5F5F5F5F5F5F5F5F5F5F5F5F5F5F5F5F5F5F5F5F5F5F5F5F5F5F5F5F5F5F5F5F5
310
F5F5F5F5F5F5F5F5F5F5F5F5F5F5F5F5F5F5F5F5F5F5F5F5F5F5F5F5F5F5F5F5F5F5F5F5F5F5F5F5F5F5F5F5F5F5F5F5F5F5F5F5F5F5F5F5F5F5F5F5F5F5F5F5F5F5F5F5F5F5F5F5F5F5F5F5F5F5F5F5F5F5F5F5F5F5F5F5F5F5F5F5F5F5F5F5F5F5F5F5F5F5F5F5F5F5F5F5F5F5F5F5F5F5F5F5E2F5F5F5F5E2E2F5F5F5F5
310
E2F5F5F5F5F5F5F5F5F5F5F5F5F5F5F5F5F5F5F5F5F5F5F5F5F5F5F5F5F5F5F5F5F5F5F5F5F5F5F5F5F5F5F5F5F5F5F5F5F5F5F5F5F5F5F5F5F5F5F5F5F5F5F5F5F5F5F5F5F5F5F5F5F5F5F5F5F5F5F5F5F5F5F5F5F5F5F5F5F5F5F5F5F5F5F5F5F5F5F5F5F5F5F5F5F5F5F5F5F5F5F5F5F5F5F5F5F5F5F5F5F5F5F5F5F5F5
310
F5F5F5F5F5F5F5F5F5F5F5F5F5F5F5F5F5F5F5F5F5F5F5F5F5F5F5F5F5F5F5F5F5F5F5F5F5F5F5F5F5F5E2F5F5F5F5E2E2F5F5F5F5E2F5F5F5F5F5F5F5F5F5F5F5F5F5F5F5F5F5F5F5F5F5F5F5F5F5F5F5F5F5F5F5F5F5F5F5F5F5F5F5F5F5F5F5F5F5F5F5F5F5F5F5F5F5F5F5F5F5F5F5F5F5F5F5F5F5F5F5F5F5F5F5F5F5
310
F5F5F5F5F5F5F5F5F5F5F5F5F5F5F5F5F5F5F5F5F5F5F5F5F5F5F5F5F5F5F5F5F5F5F5F5F5F5F5F5F5F5F5F5F5F5F5F5F5F5F5F5F5F5F5F5F5F5F5F5F5F5F5F5F5F5F5F5F5F5F5F5F5F5F5F5F5F5F5F5F5F5F5F5F5F5F5F5F5F5F5F5F5F5F5E2F5F5F5F5E2E2F5F5F5F5E2F5F5F5F5F5F5F5F5F5F5F5F5F5F5F5F5F5F5F5F5
310
F5F5F5F5F5F5F5F5F5F5F5F5F5F5F5F5F5F5F5F5F5F5F5F5F5F5F5F5F5F5F5F5F5F5F5F5F5F5F5F5F5F5F5F5F5F5F5F5F5F5F5F5F5F5F5F5F5F5F5F5F5F5F5F5F5F5F5F5F5F5F5F5F5F5F5F5F5F5F5F5F5F5F5F5F5F5F5F5F5F5F5F5F5F5F5F5F5F5F5F5F5F5F5F5F5F5F5F5F5F5F5F5F5F5F5F5F5F5F5F5F5F5F5F5F5F5F5
310
F5F5F5F5F5F5F5F5F5F5F5F5F5F5F5F5F5F5F5F5F5E2F5F5F5F5E2E2F5F5F5F5E2F5F5F5F5F5F5F5F5F5F5F5F5F5F5F5F5F5F5F5F5F5F5F5F5F5F5F5F5F5F5F5F5F5F5F5F5F5F5F5F5F5F5F5F5F5F5F5F5F5F5F5F5F5F5F5F5F5F5F5F5F5F5F5F5F5F5F5F5F5F5F5F5F5F5F5F5F5F5F5F5F5F5F5F5F5F5F5F5F5F5F5F5F5F5
310
F5F5F5F5F5F5F5F5F5F5F5F5F5F5F5F5F5F5F5F5F5F5F5F5F5F5F5F5F5F5F5F5F5F5F5F5F5F5F5F5F5F5F5F5F5F5F5F5F5F5F5F5F5F5F5F5F5F5F5F5F5F5F5F5F5F5F5F5F5F5F5F5F5F5E2F5F5F5F5E2E2F5F5F5F5E2F5F5F5F5F5F5F5F5F5F5F5F5F5F5F5F5F5F5F5F5F5F5F5F5F5F5F5F5F5F5F5F5F5F5F5F5F5F5F5F5F5
310
F5F5F5F5F5F5F5F5F5F5F5F5F5F5F5F5F5F5F5F5F5F5F5F5F5F5F5F5F5F5F5F5F5F5F5F5F5F5F5F5F5F5F5F5F5F5F5F5F5F5F5F5F5F5F5F5F5F5F5F5F5F5F5F5F5F5F5F5F5F5F5F5F5F5F5F5F5F5F5F5F5F5F5F5F5F5F5F5F5F5F5F5F5F5F5F5F5F5F5F5F5F5F5F5F5F5F5F5F5F5F5F5F5F5F5F5F5F5F5F5F5F5F5F5F5F5F5
310
E2F5F5F5F5E2E2F5F5F5F5E2F5F5F5F5F5F5F5F5F5F5F5F5F5F5F5F5F5F5F5F5F5F5F5F5F5F5F5F5F5F5F5F5F5F5F5F5F5F5F5F5F5F5F5F5F5F5F5F5F5F5F5F5F5F5F5F5F5F5F5F5F5F5F5F5F5F5F5F5F5F5F5F5F5F5F5F5F5F5F5F5F5F5F5F5F5F5F5F5F5F5F5F5F5F5F5F5F5F5F5F5F5F5F5F5F5F5F5F5F5F5F5F5F5F5F5
310
F5F5F5F5F5F5F5F5F5F5F5F5F5F5F5F5F5F5F5F5F5F5F5F5F5F5F5F5F5F5F5F5F5F5F5F5F5F5F5F5F5F5F5F5F5F5F5F5F5F5F5F5F5E2F5F5F5F5E2E2F5F5F5F5E2F5F5F5F5F5F5F5F5F5F5F5F5F5F5F5F5F5F5F5F5F5F5F5F5F5F5F5F5F5F5F5F5F5F5F5F5F5F5F5F5F5F5F5F5F5F5F5F5F5F5F5F5F5F5F5F5F5F5F5F5F5F5
310
F5F5F5F5F5F5F5F5F5F5F5F5F5F5F5F5F5F5F5F5F5F5F5F5F5F5F5F5F5F5F5F5F5F5F5F5F5F5F5F5F5F5F5F5F5F5F5F5F5F5F5F5F5F5F5F5F5F5F5F5F5F5F5F5F5F5F5F5F5F5F5F5F5F5F5F5F5F5F5F5F5F5F5F5F5F5F5F5F5F5F5F5F5F5F5F5F5F5F5F5F5F5F5F5F5F5E2F5F5F5F5E2E2F5F5F5F5E2E2E2E2E2E2E2E2F5F5
310
F5F5F5F5F5F5F5E2E2E2E2E2E2E2E2E2E2E2E2E2E2E2F5F5F5F5F5F5F5F5F5E2E2E2E2E2E2E2E2E2E2E2E2E2E2E2E2F5F5F5F5F5F5F5F5E2E2E2E2E2E2E2E2E2E2E2E2E2E2E2E2F5F5F5F5F5F5F5F5E2E2E2E2E2E2E2E2E2E2E2E2E2E2E2E2F5F5F5F5F5F5F5F5E2E2E2E2E2E2E2E2E2E2E2E2E2E2E2E2F5F5F5F5F5F5F5F5
310
F5E2E2E2E2E2E2E2E2E2E2E2E2E2E2E2F5F5F5F5F5F5F5F5F5E2E2E2E2E2E2E2E2F5F5F5F5E2E2F5F5F5F5F5F5F5F5F5F5F5F5F5F5F5F5F5F5F5F5F5F5F5F5F5F5F5F5F5F5F5F5F5F5F5F5F5F5F5F5F5F5F5F5F5F5F5F5F5F5F5F5F5F5F5F5F5F5F5F5F5F5F5F5F5F5F5F5F5F5F5F5F5F5F5F5F5F5F5F5F5F5F5F5F5F5F5F5
310
F5F5F5F5F5F5F5F5F5F5F5F5F5F5F5F5F5F5F5F5F5F5F5F5F5F5F5F5F5F5F5F5F5F5F5F5F5F5F5F5F5F5F5F5F5F5F5F5F5F5F5F5F5F5F5F5F5F5F5F5F5F5F5F5F5F5F5F5F5F5F5F5F5F5F5F5F5F5F5F5F5F5F5F5F5F5F5F5F5F5E2E2F5F5F5F5F5F5F5F5F5F5F5F5F5F5F5F5F5F5F5F5F5F5F5F5F5F5F5F5F5F5F5F5F5F5F5
310
F5F5F5F5F5F5F5F5F5F5F5F5F5F5F5F5F5F5F5F5F5F5F5F5F5F5F5F5F5F5F5F5F5F5F5F5F5F5F5F5F5F5F5F5F5F5F5F5F5F5F5F5F5F5F5F5F5F5F5F5F5F5F5F5F5F5F5F5F5F5F5F5F5F5F5F5F5F5F5F5F5F5F5F5F5F5F5F5F5F5F5F5F5F5F5F5F5F5F5F5F5F5F5F5F5F5F5F5F5F5F5F5F5F5F5F5F5F5F5F5F5F5F5F5F5F5F5
310
F5F5F5F5F5F5F5F5F5F5F5F5F5F5F5F5E2E2F5F5F5F5F5F5F5F5F5F5F5F5F5F5F5F5F5F5F5F5F5F5F5F5F5F5F5F5F5F5F5F5F5F5F5F5F5F5F5F5F5F5F5F5F5F5F5F5F5F5F5F5F5F5F5F5F5F5F5F5F5F5F5F5F5F5F5F5F5F5F5F5F5F5F5F5F5F5F5F5F5F5F5F5F5F5F5F5F5F5F5F5F5F5F5F5F5F5F5F5F5F5F5F5F5F5F5F5F5
310
F5F5F5F5F5F5F5F5F5F5F5F5F5F5F5F5F5F5F5F5F5F5F5F5F5F5F5F5F5F5F5F5F5F5F5F5F5F5F5F5F5F5F5F5F5F5F5F5F5F5F5F5F5F5F5F5F5F5F5F5F5F5F5F5F5F5F5F5F5E2E2E2E2E2E2E2E2E2E2E2E2E2E2E2E2E2E2E2E2E2E2E2E2E2E2E2E2E2E2E2E2E2E2E2E2E2E2E2E2E2E2E2E2E2E2E2E2E2E2E2E2E2E2E2E2E2E2
310
E2E2E2E2E2E2E2E2E2E2E2E2E2E2E2E2E2E2E2E2E2E2E2E2E2E2E2E2E2E2E2E2E2E2E2E2E2E2E2E2E2E2E2E2E2E2E2E2E2E2E2E2E2E2E2E2E2E2E2E2E2E2E2E2E2E2E2E2E2E2E2E2E2E2E2E2E2E2E2E2E2E2E2E2E2E2E2E2E2E2E2E2E2E2E2E2E2E2E2E2E2E2E2E2E2E2E2E2E2E2E2E2E2E2E2E2E2E2E2E2E2E2E2EFEFEFEF
310
EFEFEFEFEFEFEFEFEFEFEFEFEFEFEFEFEFEFEFEFEFEFEFEFEFEFEFEFEFEFEFEFEFEFEFEFEFEFEFEFEFEFEFEFEFEFEFEFEFEFEFEFEFEFEFEFEFEFEFEFEFEFEFEFEFEFEFEFEFEFEFEFEFEFEFEFEFEFEFEFEFEFEFEFEFEFEFEFEFEFEFEFEFEFEFEFEFEFEFEFEFEFEFEFEFEFEFEFEFEFEFEFEFEFEFEFEFEFEFEFEFEFEFEFEFEFEF
310
EFEFEFEFEFEFEFEFEFEFEFEFEFEFEFEFEFEFEFEFEFEFEFEFEFEFEFEFEFEFEFEFEFEFEFEFEFEFEFEFEFEFEFEFEFEFEFEFEF
  0
XRECORD
  5
640B9
102
{ACAD_REACTORS
330
B5
102
}
330
B5
100
AcDbXrecord
280
     1
102
SHADEPLOT
 70
     0
102
SHADEPLOTRESLEVEL
 70
     2
102
SHADEPLOTCUSTOMDPI
 70
   300
  0
XRECORD
  5
B6
102
{ACAD_REACTORS
330
B5
102
}
330
B5
100
AcDbXrecord
280
     1
310
28000000B40000008B0000000100080000000000BC610000000000000000000000010000000000000000000000000000FFFFFF000000000000000000000000000000000000000000000000000000000000000000330000006600000099000000CC000000FF00000000330000333300006633000099330000CC330000FF3300
310
0000660000336600006666000099660000CC660000FF66000000990000339900006699000099990000CC990000FF99000000CC000033CC000066CC000099CC0000CCCC0000FFCC000000FF000033FF000066FF000099FF0000CCFF0000FFFF000000003300330033006600330099003300CC003300FF003300003333003333
310
33006633330099333300CC333300FF33330000663300336633006666330099663300CC663300FF66330000993300339933006699330099993300CC993300FF99330000CC330033CC330066CC330099CC3300CCCC3300FFCC330000FF330033FF330066FF330099FF3300CCFF3300FFFF330000006600330066006600660099
310
006600CC006600FF00660000336600333366006633660099336600CC336600FF33660000666600336666006666660099666600CC666600FF66660000996600339966006699660099996600CC996600FF99660000CC660033CC660066CC660099CC6600CCCC6600FFCC660000FF660033FF660066FF660099FF6600CCFF6600
310
FFFF660000009900330099006600990099009900CC009900FF00990000339900333399006633990099339900CC339900FF33990000669900336699006666990099669900CC669900FF66990000999900339999006699990099999900CC999900FF99990000CC990033CC990066CC990099CC9900CCCC9900FFCC990000FF99
310
0033FF990066FF990099FF9900CCFF9900FFFF99000000CC003300CC006600CC009900CC00CC00CC00FF00CC000033CC003333CC006633CC009933CC00CC33CC00FF33CC000066CC003366CC006666CC009966CC00CC66CC00FF66CC000099CC003399CC006699CC009999CC00CC99CC00FF99CC0000CCCC0033CCCC0066CC
310
CC0099CCCC00CCCCCC00FFCCCC0000FFCC0033FFCC0066FFCC0099FFCC00CCFFCC00FFFFCC000000FF003300FF006600FF009900FF00CC00FF00FF00FF000033FF003333FF006633FF009933FF00CC33FF00FF33FF000066FF003366FF006666FF009966FF00CC66FF00FF66FF000099FF003399FF006699FF009999FF00CC
310
99FF00FF99FF0000CCFF0033CCFF0066CCFF0099CCFF00CCCCFF00FFCCFF0000FFFF0033FFFF0066FFFF0099FFFF00CCFFFF00FFFFFF00000000000D0D0D001A1A1A00282828003535350043434300505050005D5D5D006B6B6B00787878008686860093939300A1A1A100AEAEAE00BBBBBB00C9C9C900D6D6D600E4E4E400
310
F1F1F100FFFFFF0000000000000000000000000000000000000000000000000000000000000000000000000000000000F5F5F5F5F5F5F5F5F5F5F5F5F5F5F5F5F5F5F5F5F5F5F5F5F5F5F5F5F5F5F5F5F5F5F5F5F5F5F5F5F5F5F5F5F5F5F5F5F5F5F5F5F5F5F5F5F5F5F5F5F5F5F5F5F5F5F5F5F5F5F5F5F5F5F5F5F5F5F5
310
F5F5F5F5F5F5F5F5F5F5F5F5F5F5F5F5F5F5F5F5F5F5F5F5F5F5F5F5F5F5F5F5F5F5F5F5F5F5F5F5F5F5F5F5F5F5F5F5F5F5F5F5F5F5F5F5F5F5F5F5F5F5F5F5F5F5F5F5F5F5F5F5F5F5F5F5F5F5F5F5F5F5F5F5F5F5F5F5F5F5F5F5F5F5F5F5F5F5F5F5F5F5E2E2E2E2E2E2E2E2E2E2E2E2E2E2E2E2E2E2E2E2E2E2E2E2E2
310
E2E2E2E2E2E2E2E2E2E2E2E2E2E2E2E2E2E2E2E2E2E2E2E2E2E2E2E2E2E2E2E2E2E2E2E2E2E2E2E2E2E2E2E2E2E2E2E2E2E2E2E2E2E2E2E2E2E2E2E2E2E2E2E2E2E2E2E2E2E2E2E2E2E2E2E2E2E2E2E2E2E2E2E2E2E2E2E2E2E2E2E2E2E2E2E2E2E2E2E2E2E2E2E2E2E2E2E2E2E2E2E2E2E2E2E2E2E2E2E2E2E2E2E2E2E2E2
310
E2E2E2E2E2E2E2E2E2E2E2E2E2E2E2E2E2E2E2E2E2E2E2E2E2E2F5F5E2E2E2E2E2E2E2E2E2E2E2E2E2E2E2E2E2E2E2E2E2E2E2E2E2E2E2E2E2E2E2E2E2E2E2E2E2E2E2E2E2E2E2E2E2E2E2E2E2E2E2E2E2E2E2E2E2E2E2E2E2E2E2E2E2E2E2E2E2E2E2E2E2E2E2E2E2E2E2E2E2E2E2E2E2E2E2E2E2E2E2E2E2E2E2E2E2E2E2
310
E2E2E2E2E2E2E2E2E2E2E2E2E2E2E2E2E2E2E2E2E2E2E2E2E2E2E2E2E2E2E2E2E2E2E2E2E2E2E2E2E2E2E2E2E2E2E2E2E2E2E2E2E2E2E2E2E2E2E2E2E2E2E2E2E2E2E2E2E2E2E2E2E2E2E2E2E2E2E2F5F5E2E2E2E2E2E2E2E2E2E2E2E2E2E2E2E2E2E2E2E2E2E2E2E2E2E2E2E2E2E2E2E2E2E2E2E2E2E2E2E2E2E2E2E2E2E2
310
E2E2E2E2E2E2E2E2E2E2E2E2E2E2E2E2E2E2E2E2E2E2E2E2E2E2E2E2E2E2E2E2E2E2E2E2E2E2E2E2E2E2E2E2E2E2E2E2E2E2E2E2E2E2E2E2E2E2E2E2E2E2E2E2E2E2E2E2E2E2E2E2E2E2E2E2E2E2E2E2E2E2E2E2E2E2E2E2E2E2E2E2E2E2E2E2E2E2E2E2E2E2E2E2E2E2E2E2E2E2E2E2E2E2E2E2E2E2E2E2E2E2E2E2E2E2E2
310
E2E2E2E2E2F5F5E2E2E2E2E2E2E2E2E2E2E2E2E2E2E2E2E2E2E2E2E2E2E2E2E2E2E2E2E2E2E2E2E2E2E2E2E2E2E2E2E2E2E2E2E2E2E2E2E2E2E2E2E2E2E2E2E2E2E2E2E2E2E2E2E2E2E2E2E2E2E2E2E2E2E2E2E2E2E2E2E2E2E2E2E2E2E2E2E2E2E2E2E2E2E2E2E2E2E2E2E2E2E2E2E2E2E2E2E2E2E2E2E2E2E2E2E2E2E2E2
310
E2E2E2E2E2E2E2E2E2E2E2E2E2E2E2E2E2E2E2E2E2E2E2E2E2E2E2E2E2E2E2E2E2E2E2E2E2E2E2E2E2E2E2E2E2E2E2E2E2E2E2E2E2E2E2E2E2E2F5F5E2E2E2F5F5F5F5F5F5F5F5E2E2E2E2E2E2E2E2E2F5F5F5F5F5F5F5F5F5F5F5F5F5F5F5F5E2E2E2E2E2E2E2E2E2F5F5F5F5F5F5F5F5F5F5F5F5F5F5F5E2E2E2E2E2E2E2
310
E2E2F5F5F5F5F5F5F5F5F5F5F5F5F5F5F5F5E2E2E2E2E2E2E2E2F5F5F5F5F5F5F5F5F5F5F5F5F5F5F5F5E2E2E2E2E2E2E2E2E2F5F5F5F5F5F5F5F5F5F5F5F5F5F5F5E2E2E2E2E2E2E2E2E2F5F5F5F5F5F5F5F5F5F5F5F5F5F5F5F5E2E2E2E2E2E2E2E2E2F5F5F5F5F5F5F5F5E2E2E2F5F5E2E2E2F5E2E2E2E2E2E2E2E2E2E2
310
E2E2E2E2E2E2E2E2E2E2E2E2E2E2E2E2E2E2E2E2E2E2E2E2E2E2E2E2E2E2E2E2E2E2E2E2E2E2E2E2E2E2E2E2E2E2E2E2E2E2E2E2E2E2E2E2E2E2E2E2E2E2E2E2E2E2E2E2E2E2E2E2E2E2E2E2E2E2E2E2E2E2E2E2E2E2E2E2E2E2E2E2E2E2E2E2E2E2E2E2E2E2E2E2E2E2E2E2E2E2E2E2E2E2E2E2E2E2E2E2E2E2E2E2E2E2E2
310
E2E2E2E2E2E2E2E2E2E2E2E2E2E2E2E2E2E2E2E2E2E2E2E2E2E2E2E2E2E2E2E2E2F5E2E2E2F5F5E2E2E2F5E2E2E2E2E2E2E2E2E2E2E2E2E2E2E2E2E2E2E2E2E2E2E2E2E2E2E2E2E2E2E2E2E2E2E2E2E2E2E2E2E2E2E2E2E2E2E2E2E2E2E2E2E2E2E2E2E2E2E2E2E2E2E2E2E2E2E2E2E2E2E2E2E2E2E2E2E2E2E2E2E2E2E2E2
310
E2E2E2E2E2E2E2E2E2E2E2E2E2E2E2E2E2E2E2E2E2E2E2E2E2E2E2E2E2E2E2E2E2E2E2E2E2E2E2E2E2E2E2E2E2E2E2E2E2E2E2E2E2E2E2E2E2E2E2E2E2E2E2E2E2E2E2E2E2E2E2E2E2E2E2E2E2E2E2E2E2E2E2E2E2E2F5E2E2E2F5F5E2E2E2F5E2E2E2E2E2E2E2E2E2E2E2E2E2E2E2E2E2E2E2E2E2E2E2E2E2E2E2E2E2E2E2
310
E2E2E2E2E2E2E2E2E2E2E2E2E2E2E2E2E2E2E2E2E2E2E2E2E2E2E2E2E2E2E2E2E2E2E2E2E2E2E2E2E2E2E2E2E2E2E2E2E2E2E2E2E2E2E2E2E2E2E2E2E2E2E2E2E2E2E2E2E2E2E2E2E2E2E2E2E2E2E2E2E2E2E2E2E2E2E2E2E2E2E2E2E2E2E2E2E2E2E2E2E2E2E2E2E2E2E2E2E2E2E2E2E2E2E2E2E2E2E2E2E2E2E2E2E2E2E2
310
E2E2E2E2E2E2E2E2E2E2E2E2F5E2E2E2F5F5E2E2E2F5E2E2E2E2E2E2E2E2E2E2E2E2E2E2E2E2E2E2E2E2E2E2E2E2E2E2E2E2E2E2E2E2E2E2E2E2E2E2E2E2E2E2E2E2E2E2E2E2E2E2E2E2E2E2E2E2E2E2E2E2E2E2E2E2E2E2E2E2E2E2E2E2E2E2E2E2E2E2E2E2E2E2E2E2E2E2E2E2E2E2E2E2E2E2E2E2E2E2E2E2E2E2E2E2E2
310
E2E2E2E2E2E2E2E2E2E2E2E2E2E2E2E2E2E2E2E2E2E2E2E2E2E2E2E2E2E2E2E2E2E2E2E2E2E2E2E2E2E2E2E2E2E2E2E2E2E2E2E2E2E2E2E2E2E2E2E2E2E2E2E2E2F5E2E2E2F5F5E2E2E2F5E2E2E2E2E2E2E2E2E2E2E2E2E2E2E2E2E2E2E2E2E2E2E2E2E2E2E2E2E2E2E2E2E2E2E2E2E2E2E2E2E2E2E2E2E2E2E2E2E2E2E2E2
310
E2E2E2E2E2E2E2E2E2E2E2E2E2E2E2E2E2E2E2E2E2E2E2E2E2E2E2E2E2E2E2E2E2E2E2E2E2E2E2E2E2E2E2E2E2E2E2E2E2E2E2E2E2E2E2E2E2E2E2E2E2E2E2E2E2E2E2E2E2E2E2E2E2E2E2E2E2E2E2E2E2E2E2E2E2E2E2E2E2E2E2E2E2E2E2E2E2E2E2E2E2E2E2E2E2E2E2E2E2E2E2E2E2E2E2E2E2E2F5E2E2E2F5F5E2E2E2
310
F5E2E2E2E2E2E2E2E2E2E2E2E2E2E2E2E2E2E2E2E2E2E2E2E2E2E2E2E2E2E2E2E2E2E2E2E2E2E2E2E2E2E2E2E2E2E2E2E2E2E2E2E2E2E2E2E2E2E2E2E2E2E2E2E2E2E2E2E2E2E2E2E2E2E2E2E2E2E2E2E2E2E2E2E2E2E2E2E2E2E2E2E2E2E2E2E2E2E2E2E2E2E2E2E2E2E2E2E2E2E2E2E2E2E2E2E2E2E2E2E2E2E2E2E2E2E2
310
E2E2E2E2E2E2E2E2E2E2E2E2E2E2E2E2E2E2E2E2E2E2E2E2E2E2E2E2E2E2E2E2E2E2E2E2E2E2E2E2E2E2E2E2F5E2E2E2F5F5E2E2E2F5E2E2E2E2E2E2E2E2E2E2E2E2E2E2E2E2E2E2E2E2E2E2E2E2E2E2E2E2E2E2E2E2E2E2E2E2E2E2E2E2E2E2E2E2E2E2E2E2E2E2E2E2E2E2E2E2E2E2E2E2E2E2E2E2E2E2E2E2E2E2E2E2E2
310
E2E2E2E2E2E2E2E2E2E2E2E2E2E2E2E2E2E2E2E2E2E2E2E2E2E2E2E2E2E2E2E2E2E2E2E2E2E2E2E2E2E2E2E2E2E2E2E2E2E2E2E2E2E2E2E2E2E2E2E2E2E2E2E2E2E2E2E2E2E2E2E2E2E2E2E2E2E2E2E2E2E2E2E2E2E2E2E2E2E2E2E2E2E2E2E2E2F5E2E2E2F5F5E2E2E2F5E2E2E2E2E2E2E2E2E2E2E2E2E2E2E2E2E2E2E2E2
310
E2E2E2E2E2E2E2E2E2E2E2E2E2E2E2E2E2E2E2E2E2E2E2E2E2E2E2E2E2E2E2E2E2E2E2E2E2E2E2E2E2E2E2E2E2E2E2E2E2E2E2E2E2E2E2E2E2E2E2E2E2E2E2E2E2E2E2E2E2E2E2E2E2E2E2E2E2E2E2E2E2E2E2E2E2E2E2E2E2E2E2E2E2E2E2E2E2E2E2E2E2E2E2E2E2E2E2E2E2E2E2E2E2E2E2E2E2E2E2E2E2E2E2E2E2E2E2
310
E2E2E2E2E2E2E2E2E2E2E2E2E2E2E2E2E2E2E2E2E2E2E2F5E2E2E2F5F5E2E2E2E2E2E2E2E2E2E2E2E2E2E2E2E2E2E2E2E2E2E2E2E2E2E2E2E2E2E2E2E2E2E2E2E2E2E2E2E2E2E2E2E2E2E2E2E2E2E2E2E2E2E2E2E2E2E2E2E2E2E2E2E2E2E2E2E2E2E2E2E2E2E2E2E2E2E2E2E2E2E2E2E2E2E2E2E2E2E2E2E2E2E2E2E2E2E2
310
E2E2E2E2E2E2E2E2E2E2E2E2E2E2E2E2E2E2E2E2E2E2E2E2E2E2E2E2E2E2E2E2E2E2E2E2E2E2E2E2E2E2E2E2E2E2E2E2E2E2E2E2E2E2E2E2E2E2E2E2E2E2E2E2E2E2E2E2E2E2E2E2E2E2E2E2E2E2E2E2F5F5E2E2E2E2E2E2E2E2E2E2E2E2E2E2E2E2E2E2E2E2E2E2E2E2E2E2E2E2E2E2E2E2E2E2E2E2E2E2E2E2E2E2E2E2E2
310
E2E2E2E2E2E2E2E2E2E2E2E2E2E2E2E2E2E2E2E2E2E2E2E2E2E2E2E2E2E2E2E2E2E2E2E2E2E2E2E2E2E2E2E2E2E2E2E2E2E2E2E2E2E2E2E2E2E2E2E2E2E2E2E2E2E2E2E2E2E2E2E2E2E2E2E2E2E2E2E2E2E2E2E2E2E2E2E2E2E2E2E2E2E2E2E2E2E2E2E2E2E2E2E2E2E2E2E2E2E2E2E2E2E2E2E2E2E2E2E2E2E2E2E2E2E2E2
310
E2E2E2E2E2E2F5F5E2E2E2E2E2E2E2E2E2E2E2E2E2E2E2E2E2E2E2E2E2E2E2E2E2E2E2E2E2E2E2E2E2E2E2E2E2E2E2E2E2E2E2E2E2E2E2E2E2E2E2E2E2E2E2E2E2E2E2E2E2E2E2E2E2E2E2E2E2E2E2E2E2E2E2E2E2E2E2E2E2E2E2E2E2E2E2E2E2E2E2E2E2E2E2E2E2E2E2E2E2E2E2E2E2E2E2E2E2E2E2E2E2E2E2E2E2E2E2
310
E2E2E2E2E2E2E2E2E2E2E2E2E2E2E2E2E2E2E2E2E2E2E2E2E2E2E2E2E2E2E2E2E2E2E2E2E2E2E2E2E2E2E2E2E2E2E2E2E2E2E2E2E2E2E2E2E2E2E2F5F5E2E2E2E2E2E2E2E2E2E2E2E2E2E2E2E2E2E2E2E2E2E2E2E2E2E2E2E2E2E2E2E2E2E2E2E2E2E2E2E2E2E2E2E2E2E2E2E2E2E2E2E2E2E2E2E2E2E2E2E2E2E2E2E2E2E2
310
E2E2E2E2E2E2E2E2E2E2E2E2E2E2E2E2E2E2E2E2E2E2E2E2E2E2E2E2E2E2E2E2E2E2E2E2E2E2E2E2E2E2E2E2E2E2E2E2E2E2E2E2E2E2E2E2E2E2E2E2E2E2E2E2E2E2E2E2E2E2E2E2E2E2E2E2E2E2E2E2E2E2E2E2E2E2E2E2E2E2E2E2E2E2E2E2E2E2E2E2E2E2E2E2E2E2E2E2E2E2E2E2F5F5E2E2E2E2E2E2E2E2E2E2E2E2E2
310
E2E2E2E2E2E2E2F5F5F5F5F5F5F5F5F5F5F5F5F5F5F5F5F5F5F5F5F5F5F5F5F5F5F5F5F5F5F5F5F5F5F5F5F5F5F5F5F5F5F5F5F5F5F5F5F5F5F5F5F5F5F5F5F5F5F5F5F5F5F5F5F5F5F5F5F5F5F5F5F5F5F5F5F5F5F5F5F5F5F5F5F5F5F5F5F5F5F5F5F5F5F5F5F5F5F5F5F5F5F5F5F5F5F5F5F5F5F5F5F5F5F5F5F5F5F5F5
310
F5F5F5F5F5F5F5F5F5F5F5F5F5F5F5F5F5F5E2E2E2E2E2E2E2E2E2E2E2E2E2E2E2E2E2E2E2E2F5F5E2E2E2E2E2E2E2E2E2E2E2E2E2E2E2E2E2E2E2E2F5E2E2E2E2E2E2E2E2E2E2E2E2E2E2E2E2E2E2E2E2E2E2E2E2E2E2E2E2E2E2E2E2E2E2E2E2E2E2E2E2E2E2E2E2E2E2E2E2E2E2E2E2E2E2E2E2E2E2E2E2E2E2E2E2E2E2
310
E2E2E2E2E2E2E2E2E2E2E2E2E2E2E2E2E2E2E2E2E2E2E2E2E2E2E2E2E2E2E2E2E2E2E2E2E2E2E2E2E2E2E2E2E2E2E2E2E2E2E2E2E2E2E2E2E2E2E2E2E2E2E2E2E2E2E2E2E2E2F5E2E2E2E2E2E2E2E2E2E2E2E2E2E2E2E2E2E2E2E2F5F5E2E2E2E2E2E2E2E2E2E2E2E2E2E2E2E2E2E2E2E2F5E2E2E2E2E2E2E2E2E2E2E2E2E2
310
E2E2E2E2E2E2E2E2E2E2E2E2E2E2E2E2E2E2E2E2E2E2E2E2E2E2E2E2E2E2E2E2E2E2E2E2E2E2E2E2E2E2E2E2E2E2E2E2E2E2E2E2E2E2E2E2E2E2E2E2E2E2E2E2E2E2E2E2E2E2E2E2E2E2E2E2E2E2E2E2E2E2E2E2E2E2E2E2E2E2E2E2E2E2E2E2E2E2E2E2E2E2E2E2E2E2E2E2E2E2E2E2E2E2E2E2E2E2E2E2E2E2E2F5E2E2E2
310
E2E2E2E2E2E2E2E2E2E2E2E2E2E2E2E2E2F5F5E2E2E2E2E2E2E2E2E2E2E2E2E2E2E2E2E2E2E2E2F5E2E2E2E2E2E2E2E2E2E2E2E2E2E2E2E2E2E2E2E2E2E2E2E2E2E2E2E2E2E2E2E2E2E2E2E2E2E2E2E2E2E2E2E2E2E2E2E2E2E2E2E2E2E2E2E2E2E2E2E2E2E2E2E2E2E2E2E2E2E2E2E2E2E2E2E2E2E2E2E2E2E2E2E2E2E2E2
310
E2E2E2E2E2E2E2E2E2E2E2E2E2E2E2E2E2E2E2E2E2E2E2E2E2E2E2E2E2E2E2E2E2E2E2E2E2E2E2E2E2E2E2E2E2E2E2E2E2F5E2E2E2E2E2E2E2E2E2E2E2E2E2E2E2E2E2E2E2E2F5F5E2E2E2E2E2E2E2E2E2E2E2E2E2E2E2E2E2E2E2E2F5E2E2E2E2E2E2E2E2E2E2E2E2E2E2E2E2E2E2E2E2E2E2E2E2E2E2E2E2E2E2E2E2E2E2
310
E2E2E2E2E2E2E2E2E2E2E2E2E2E2E2E2E2E2E2E2E2E2E2E2E2E2E2E2E2E2E2E2E2E2E2E2E2E2E2E2E2E2E2E2E2E2E2E2E2E2E2E2E2E2E2E2E2E2E2E2E2E2E2E2E2E2E2E2E2E2E2E2E2E2E2E2E2E2E2E2E2E2E2E2E2E2E2E2E2E2E2E2E2E2E2E2E2E2E2E2E2E2F5E2E2E2E2E2E2E2E2E2E2E2E2E2E2E2E2E2E2E2E2F5F5E2E2
310
E2F5E2E2E2E2E2E2E2E2E2E2E2E2E2E2E2E2F5E2E2E2E2E2E2E2E2E2E2E2E2E2E2E2E2E2E2E2E2E2E2E2E2E2E2E2E2E2E2E2E2E2E2E2E2E2E2E2E2E2E2E2E2E2E2E2E2E2E2E2E2E2E2E2E2E2E2E2E2E2E2E2E2E2E2E2E2E2E2E2E2E2E2E2E2E2E2E2E2E2E2E2E2E2E2E2E2E2E2E2E2E2E2E2E2E2E2E2E2E2E2E2E2E2E2E2E2
310
E2E2E2E2E2E2E2E2E2E2E2E2E2E2E2E2E2E2E2E2E2E2E2E2E2E2E2E2F5E2E2E2E2E2E2E2E2E2E2E2E2E2E2E2E2F5E2E2E2F5F5E2E2E2F5E2E2E2E2E2E2E2E2E2E2E2E2E2E2E2E2F5E2E2E2E2E2E2E2E2E2E2E2E2E2E2E2E2E2E2E2E2E2E2E2E2E2E2E2E2E2E2E2E2E2E2E2E2E2E2E2E2E2E2E2E2E2E2E2E2E2E2E2E2E2E2E2
310
E2E2E2E2E2E2E2E2E2E2E2E2E2E2E2E2E2E2E2E2E2E2E2E2E2E2E2E2E2E2E2E2E2E2E2E2E2E2E2E2E2E2E2E2E2E2E2E2E2E2E2E2E2E2E2E2E2E2E2E2E2E2E2E2E2E2E2E2E2E2E2E2E2E2E2E2E2E2E2E2E2F5E2E2E2E2E2E2E2E2E2E2E2E2E2E2E2E2F5E2E2E2F5F5E2E2E2F5E2E2E2E2E2E2E2E2E2E2E2E2E2E2E2E2F5E2E2
310
E2E2E2E2E2E2E2E2E2E2E2E2E2E2E2E2E2E2E2E2E2E2E2E2E2E2E2E2E2E2E2E2E2E2E2E2E2E2E2E2E2E2E2E2E2E2E2E2E2E2E2E2E2E2E2E2E2E2E2E2E2E2E2E2E2E2E2E2E2E2E2E2E2E2E2E2E2E2E2E2E2E2E2E2E2E2E2E2E2E2E2E2E2E2E2E2E2E2E2E2E2E2E2E2E2E2E2E2E2E2E2E2E2E2E2E2E2E2E2E2E2E2E2E2E2E2E2
310
E2E2E2E2E2E2E2F5E2E2E2E2E2E2E2E2E2E2E2E2E2E2E2E2F5E2E2E2F5F5E2E2E2F5E2E2E2E2E2E2E2E2E2E2E2E2E2E2E2E2F5E2E2E2E2E2E2E2E2E2E2E2E2E2E2E2E2E2E2E2E2E2E2E2E2E2E2E2E2E2E2E2E2E2E2E2E2E2E2E2E2E2E2E2E2E2E2E2E2E2E2E2E2E2E2E2E2E2E2E2E2E2E2E2E2E2E2E2E2E2E2E2E2E2E2E2E2
310
E2E2E2E2E2E2E2E2E2E2E2E2E2E2E2E2E2E2E2E2E2E2E2E2E2E2E2E2E2E2E2E2E2E2E2E2E2E2E2E2E2E2E2E2E2E2E2E2E2E2E2E2E2E2E2E2E2E2E2E2F5E2E2E2E2E2E2E2E2E2E2E2E2E2E2E2E2F5E2E2E2F5F5E2E2E2F5E2E2E2E2E2E2E2E2E2E2E2E2E2E2E2E2F5E2E2E2E2E2E2E2E2E2E2E2E2E2E2E2E2E2E2E2E2E2E2E2
310
E2E2E2E2E2E2E2E2E2E2E2E2E2E2E2E2E2E2E2E2E2E2E2E2E2E2E2E2E2E2E2E2E2E2E2E2E2E2E2E2E2E2E2E2E2E2E2E2E2E2E2E2E2E2E2E2E2E2E2E2E2E2E2E2E2E2E2E2E2E2E2E2E2E2E2E2E2E2E2E2E2E2E2E2E2E2E2E2E2E2E2E2E2E2E2E2E2E2E2E2E2E2E2E2E2E2E2E2E2E2E2E2E2F5E2E2E2E2E2E2E2E2E2E2E2E2E2
310
E2E2E2F5E2E2E2F5F5E2E2E2F5E2E2E2E2E2E2E2E2E2E2E2E2E2E2E2E2F5E2E2E2E2E2E2E2E2E2E2E2E2E2E2E2E2E2E2E2E2E2E2E2E2E2E2E2E2E2E2E2E2E2E2E2E2E2E2E2E2E2E2E2E2E2E2E2E2E2E2E2E2E2E2E2E2E2E2E2E2E2E2E2E2E2E2E2E2E2E2E2E2E2E2E2E2E2E2E2E2E2E2E2E2E2E2E2E2E2E2E2E2E2E2E2E2E2
310
E2E2E2E2E2E2E2E2E2E2E2E2E2E2E2E2E2E2E2E2E2E2E2E2E2E2E2E2E2E2E2E2E2E2E2E2E2E2E2F5E2E2E2E2E2E2E2E2E2E2E2E2E2E2E2E2F5E2E2E2F5F5E2E2E2F5E2E2E2E2E2E2E2E2E2E2E2E2E2E2E2E2F5E2E2E2E2E2E2E2E2E2E2E2E2E2E2E2E2E2E2E2E2E2E2E2E2E2E2E2E2E2E2E2E2E2E2E2E2E2E2E2E2E2E2E2E2
310
E2E2E2E2E2E2E2E2E2E2E2E2E2E2E2E2E2E2E2E2E2E2E2E2E2E2E2E2E2E2E2E2E2E2E2E2E2E2E2E2E2E2E2E2E2E2E2E2E2E2E2E2E2E2E2E2E2E2E2E2E2E2E2E2E2E2E2E2E2E2E2E2E2E2E2E2E2E2E2E2E2E2E2E2E2E2E2E2E2E2E2E2F5E2E2E2E2E2E2E2E2E2E2E2E2E2E2E2E2F5E2E2E2F5F5E2E2E2F5E2E2E2E2E2E2E2E2
310
E2E2E2E2E2E2E2E2F5E2E2E2E2E2E2E2E2E2E2E2E2E2E2E2E2E2E2E2E2E2E2E2E2E2E2E2E2E2E2E2E2E2E2E2E2E2E2E2E2E2E2E2E2E2E2E2E2E2E2E2E2E2E2E2E2E2E2E2E2E2E2E2E2E2E2E2E2E2E2E2E2E2E2E2E2E2E2E2E2E2E2E2E2E2E2E2E2E2E2E2E2E2E2E2E2E2E2E2E2E2E2E2E2E2E2E2E2E2E2E2E2E2E2E2E2E2E2
310
E2E2E2E2E2E2E2E2E2E2E2E2E2E2E2E2E2E2F5E2E2E2E2E2E2E2E2E2E2E2E2E2E2E2E2F5E2E2E2F5F5E2E2E2F5E2E2E2E2E2E2E2E2E2E2E2E2E2E2E2E2F5E2E2E2E2E2E2E2E2E2E2E2E2E2E2E2E2E2E2E2E2E2E2E2E2E2E2E2E2E2E2E2E2E2E2E2E2E2E2E2E2E2E2E2E2E2E2E2E2E2E2E2E2E2E2E2E2E2E2E2E2E2E2E2E2E2
310
E2E2E2E2E2E2E2E2E2E2E2E2E2E2E2E2E2E2E2E2E2E2E2E2E2E2E2E2E2E2E2E2E2E2E2E2E2E2E2E2E2E2E2E2E2E2E2E2E2E2E2E2E2E2E2E2E2E2E2E2E2E2E2E2E2E2E2E2E2E2E2F5E2E2E2E2E2E2E2E2E2E2E2E2E2E2E2E2F5E2E2E2F5F5E2E2E2F5E2E2E2E2E2E2E2E2E2E2E2E2E2E2E2E2F5E2E2E2E2E2E2E2E2E2E2E2E2
310
E2E2E2E2E2E2E2E2E2E2E2E2E2E2E2E2E2E2E2E2E2E2E2E2E2E2E2E2E2E2E2E2E2E2E2E2E2E2E2E2E2E2E2E2E2E2E2E2E2E2E2E2E2E2E2E2E2E2E2E2E2E2E2E2E2E2E2E2E2E2E2E2E2E2E2E2E2E2E2E2E2E2E2E2E2E2E2E2E2E2E2E2E2E2E2E2E2E2E2E2E2E2E2E2E2E2E2E2E2E2E2E2E2E2E2E2E2E2E2E2E2E2E2E2F5E2E2
310
E2E2E2E2E2E2E2E2E2E2E2E2E2E2F5E2E2E2F5F5E2E2E2F5E2E2E2E2E2E2E2E2E2E2E2E2E2E2E2E2F5E2E2E2E2E2E2E2E2E2E2E2E2E2E2E2E2E2E2E2E2E2E2E2E2E2E2E2E2E2E2E2E2E2E2E2E2E2E2E2E2E2E2E2E2E2E2E2E2E2E2E2E2E2E2E2E2E2E2E2E2E2E2E2E2E2E2E2E2E2E2E2E2E2E2E2E2E2E2E2E2E2E2E2E2E2E2
310
E2E2E2E2E2E2E2E2E2E2E2E2E2E2E2E2E2E2E2E2E2E2E2E2E2E2E2E2E2E2E2E2E2E2E2E2E2E2E2E2E2E2E2E2E2E2E2E2E2E2F5E2E2E2E2E2E2E2E2E2E2E2E2E2E2E2E2F5E2E2E2F5F5E2E2E2F5E2E2E2E2E2E2E2E2E2E2E2E2E2E2E2E2F5E2E2E2E2E2E2E2E2E2E2E2E2E2E2E2E2E2E2E2E2E2E2E2E2E2E2E2E2E2E2E2E2E2
310
E2E2E2E2E2E2E2E2E2E2E2E2E2E2E2E2E2E2E2E2E2E2E2E2E2E2E2E2E2E2E2E2E2E2E2E2E2E2E2E2E2E2E2E2E2E2E2E2E2E2E2E2E2E2E2E2E2E2E2E2E2E2E2E2E2E2E2E2E2E2E2E2E2E2E2E2E2E2E2E2E2E2E2E2E2E2E2E2E2E2E2E2E2E2E2E2E2E2E2E2E2E2E2F5E2E2E2E2E2E2E2E2E2E2E2E2E2E2E2E2F5E2E2E2F5F5E2
310
E2E2F5E2E2E2E2E2E2E2E2E2E2E2E2E2E2E2E2F5E2E2E2E2E2E2E2E2E2E2E2E2E2E2E2E2E2E2E2E2E2E2E2E2E2E2E2E2E2E2E2E2E2E2E2E2E2E2E2E2E2E2E2E2E2E2E2E2E2E2E2E2E2E2E2E2E2E2E2E2E2E2E2E2E2E2E2E2E2E2E2E2E2E2E2E2E2E2E2E2E2E2E2E2E2E2E2E2E2E2E2E2E2E2E2E2E2E2E2E2E2E2E2E2E2E2E2
310
E2E2E2E2E2E2E2E2E2E2E2E2E2E2E2E2E2E2E2E2E2E2E2E2E2E2E2E2E2F5E2E2E2E2E2E2E2E2E2E2E2E2E2E2E2E2F5E2E2E2F5F5E2E2E2F5E2E2E2E2E2E2E2E2E2E2E2E2E2E2E2E2F5E2E2E2E2E2E2E2E2E2E2E2E2E2E2E2E2E2E2E2E2E2E2E2E2E2E2E2E2E2E2E2E2E2E2E2E2E2E2E2E2E2E2E2E2E2E2E2E2E2E2E2E2E2E2
310
E2E2E2E2E2E2E2E2E2E2E2E2E2E2E2E2E2E2E2E2E2E2E2E2E2E2E2E2E2E2E2E2E2E2E2E2E2E2E2E2E2E2E2E2E2E2E2E2E2E2E2E2E2E2E2E2E2E2E2E2E2E2E2E2E2E2E2E2E2E2E2E2E2E2E2E2E2E2E2E2E2E2F5E2E2E2E2E2E2E2E2E2E2E2E2E2E2E2E2F5E2E2E2F5F5E2E2E2F5E2E2E2E2E2E2E2E2E2E2E2E2E2E2E2E2F5E2
310
E2E2E2E2E2E2E2E2E2E2E2E2E2E2E2E2E2E2E2E2E2E2E2E2E2E2E2E2E2E2E2E2E2E2E2E2E2E2E2E2E2E2E2E2E2E2E2E2E2E2E2E2E2E2E2E2E2E2E2E2E2E2E2E2E2E2E2E2E2E2E2E2E2E2E2E2E2E2E2E2E2E2E2E2E2E2E2E2E2E2E2E2E2E2E2E2E2E2E2E2E2E2E2E2E2E2E2E2E2E2E2E2E2E2E2E2E2E2E2E2E2E2E2E2E2E2E2
310
E2E2E2E2E2E2E2E2F5E2E2E2E2E2E2E2E2E2E2E2E2E2E2E2E2F5E2E2E2F5F5E2E2E2F5E2E2E2E2E2E2E2E2E2E2E2E2E2E2E2E2F5E2E2E2E2E2E2E2E2E2E2E2E2E2E2E2E2E2E2E2E2E2E2E2E2E2E2E2E2E2E2E2E2E2E2E2E2E2E2E2E2E2E2E2E2E2E2E2E2E2E2E2E2E2E2E2E2E2E2E2E2E2E2E2E2E2E2E2E2E2E2E2E2E2E2E2
310
E2E2E2E2E2E2E2E2E2E2E2E2E2E2E2E2E2E2E2E2E2E2E2E2E2E2E2E2E2E2E2E2E2E2E2E2E2E2E2E2E2E2E2E2E2E2E2E2E2E2E2E2E2E2E2E2E2E2E2E2E2F5E2E2E2E2E2E2E2E2E2E2E2E2E2E2E2E2F5E2E2E2F5F5E2E2E2F5E2E2E2E2E2E2E2E2E2E2E2E2E2E2E2E2F5E2E2E2E2E2E2E2E2E2E2E2E2E2E2E2E2E2E2E2E2E2E2
310
E2E2E2E2E2E2E2E2E2E2E2E2E2E2E2E2E2E2E2E2E2E2E2E2E2E2E2E2E2E2E2E2E2E2E2E2E2E2E2E2E2E2E2E2E2E2E2E2E2E2E2E2E2E2E2E2E2E2E2E2E2E2E2E2E2E2E2E2E2E2E2E2E2E2E2E2E2E2E2E2E2E2E2E2E2E2E2E2E2E2E2E2E2E2E2E2E2E2E2E2E2E2E2E2E2E2E2E2E2E2E2E2E2E2F5E2E2E2E2E2E2E2E2E2E2E2E2
310
E2E2E2E2F5E2E2E2F5F5E2E2E2E2E2E2E2E2E2E2E2E2E2E2E2E2E2E2E2E2F5E2E2E2E2E2E2E2E2E2E2E2E2E2E2E2E2E2E2E2E2E2E2E2E2E2E2E2E2E2E2E2E2E2E2E2E2E2E2E2E2E2E2E2E2E2E2E2E2E2E2E2E2E2E2E2E2E2E2E2E2E2E2E2E2E2E2E2E2E2E2E2E2E2E2E2E2E2E2E2E2E2E2E2E2E2E2E2E2E2E2E2E2E2E2E2E2
310
E2E2E2E2E2E2E2E2E2E2E2E2E2E2E2E2E2E2E2E2E2E2E2E2E2E2E2E2E2E2E2E2E2E2E2E2E2E2E2E2F5E2E2E2E2E2E2E2E2E2E2E2E2E2E2E2E2E2E2E2E2F5F5E2E2E2E2E2E2E2E2E2E2E2E2E2E2E2E2E2E2E2E2F5E2E2E2E2E2E2E2E2E2E2E2E2E2E2E2E2E2E2E2E2E2E2E2E2E2E2E2E2E2E2E2E2E2E2E2E2E2E2E2E2E2E2E2
310
E2E2E2E2E2E2E2E2E2E2E2E2E2E2E2E2E2E2E2E2E2E2E2E2E2E2E2E2E2E2E2E2E2E2E2E2E2E2E2E2E2E2E2E2E2E2E2E2E2E2E2E2E2E2E2E2E2E2E2E2E2E2E2E2E2E2E2E2E2E2E2E2E2E2E2E2E2E2E2E2E2E2E2E2E2E2E2E2E2E2E2E2E2F5E2E2E2E2E2E2E2E2E2E2E2E2E2E2E2E2E2E2E2E2F5F5E2E2E2E2E2E2E2E2E2E2E2
310
E2E2E2E2E2E2E2E2E2F5E2E2E2E2E2E2E2E2E2E2E2E2E2E2E2E2E2E2E2E2E2E2E2E2E2E2E2E2E2E2E2E2E2E2E2E2E2E2E2E2E2E2E2E2E2E2E2E2E2E2E2E2E2E2E2E2E2E2E2E2E2E2E2E2E2E2E2E2E2E2E2E2E2E2E2E2E2E2E2E2E2E2E2E2E2E2E2E2E2E2E2E2E2E2E2E2E2E2E2E2E2E2E2E2E2E2E2E2E2E2E2E2E2E2E2E2E2
310
E2E2E2E2E2E2E2E2E2E2E2E2E2E2E2E2E2E2E2F5E2E2E2E2E2E2E2E2E2E2E2E2E2E2E2E2E2E2E2E2F5F5E2E2E2E2E2E2E2E2E2E2E2E2E2E2E2E2E2E2E2E2F5E2E2E2E2E2E2E2E2E2E2E2E2E2E2E2E2E2E2E2E2E2E2E2E2E2E2E2E2E2E2E2E2E2E2E2E2E2E2E2E2E2E2E2E2E2E2E2E2E2E2E2E2E2E2E2E2E2E2E2E2E2E2E2E2
310
E2E2E2E2E2E2E2E2E2E2E2E2E2E2E2E2E2E2E2E2E2E2E2E2E2E2E2E2E2E2E2E2E2E2E2E2E2E2E2E2E2E2E2E2E2E2E2E2E2E2E2E2E2E2E2E2E2E2E2E2E2E2E2E2E2E2E2E2E2E2E2E2F5E2E2E2E2E2E2E2E2E2E2E2E2E2E2E2E2E2E2E2E2F5F5E2E2E2E2E2E2E2E2E2E2E2E2E2E2E2E2E2E2E2E2F5E2E2E2E2E2E2E2E2E2E2E2
310
E2E2E2E2E2E2E2E2E2E2E2E2E2E2E2E2E2E2E2E2E2E2E2E2E2E2E2E2E2E2E2E2E2E2E2E2E2E2E2E2E2E2E2E2E2E2E2E2E2E2E2E2E2E2E2E2E2E2E2E2E2E2E2E2E2E2E2E2E2E2E2E2E2E2E2E2E2E2E2E2E2E2E2E2E2E2E2E2E2E2E2E2E2E2E2E2E2E2E2E2E2E2E2E2E2E2E2E2E2E2E2E2E2E2E2E2E2E2E2E2E2E2E2E2E2F5E2
310
E2E2E2E2E2E2E2E2E2E2E2E2E2E2E2E2E2E2E2F5F5E2E2E2E2E2E2E2E2E2E2E2E2E2E2E2E2E2E2E2E2F5E2E2E2E2E2E2E2E2E2E2E2E2E2E2E2E2E2E2E2E2E2E2E2E2E2E2E2E2E2E2E2E2E2E2E2E2E2E2E2E2E2E2E2E2E2E2E2E2E2E2E2E2E2E2E2E2E2E2E2E2E2E2E2E2E2E2E2E2E2E2E2E2E2E2E2E2E2E2E2E2E2E2E2E2E2
310
E2E2E2E2E2E2E2E2E2E2E2E2E2E2E2E2E2E2E2E2E2E2E2E2E2E2E2E2E2E2E2E2E2E2E2E2E2E2E2E2E2E2E2E2E2E2E2E2E2E2E2F5E2E2E2E2E2E2E2E2E2E2E2E2E2E2E2E2E2E2E2E2F5F5E2E2E2E2E2E2E2E2E2E2E2E2E2E2E2E2E2E2E2E2F5E2E2E2E2E2E2E2E2E2E2E2E2E2E2E2E2E2E2E2E2E2E2E2E2E2E2E2E2E2E2E2E2
310
E2E2E2E2E2E2E2E2E2E2E2E2E2E2E2E2E2E2E2E2E2E2E2E2E2E2E2E2E2E2E2E2E2E2E2E2E2E2E2E2E2E2E2E2E2E2E2E2E2E2E2E2E2E2E2E2E2E2E2E2E2E2E2E2E2E2E2E2E2E2E2E2E2E2E2E2E2E2E2E2E2E2E2E2E2E2E2E2E2E2E2E2E2E2E2E2E2E2E2E2E2E2E2E2F5E2E2E2E2E2E2E2E2E2E2E2E2E2E2E2E2E2E2E2E2F5F5
310
E2E2E2E2E2E2E2E2E2E2E2E2E2E2E2E2E2E2E2E2F5E2E2E2E2E2E2E2E2E2E2E2E2E2E2E2E2E2E2E2E2E2E2E2E2E2E2E2E2E2E2E2E2E2E2E2E2E2E2E2E2E2E2E2E2E2E2E2E2E2E2E2E2E2E2E2E2E2E2E2E2E2E2E2E2E2E2E2E2E2E2E2E2E2E2E2E2E2E2E2E2E2E2E2E2E2E2E2E2E2E2E2E2E2E2E2E2E2E2E2E2E2E2E2E2E2E2
310
E2E2E2E2E2E2E2E2E2E2E2E2E2E2E2E2E2E2E2E2E2E2E2E2E2E2E2E2E2E2F5E2E2E2E2E2E2E2E2E2E2E2E2E2E2E2E2E2E2E2E2F5F5E2E2E2E2E2E2E2E2E2E2E2E2E2E2E2E2E2E2E2E2F5E2E2E2E2E2E2E2E2E2E2E2E2E2E2E2E2E2E2E2E2E2E2E2E2E2E2E2E2E2E2E2E2E2E2E2E2E2E2E2E2E2E2E2E2E2E2E2E2E2E2E2E2E2
310
E2E2E2E2E2E2E2E2E2E2E2E2E2E2E2E2E2E2E2E2E2E2E2E2E2E2E2E2E2E2E2E2E2E2E2E2E2E2E2E2E2E2E2E2E2E2E2E2E2E2E2E2E2E2E2E2E2E2E2E2E2E2E2E2E2E2E2E2E2E2E2E2E2E2E2E2E2E2E2E2E2E2E2F5E2E2E2E2E2E2E2E2E2E2E2E2E2E2E2E2E2E2E2E2F5F5E2E2E2F5E2E2E2E2E2E2E2E2E2E2E2E2E2E2E2E2F5
310
E2E2E2E2E2E2E2E2E2E2E2E2E2E2E2E2E2E2E2E2E2E2E2E2E2E2E2E2E2E2E2E2E2E2E2E2E2E2E2E2E2E2E2E2E2E2E2E2E2E2E2E2E2E2E2E2E2E2E2E2E2E2E2E2E2E2E2E2E2E2E2E2E2E2E2E2E2E2E2E2E2E2E2E2E2E2E2E2E2E2E2E2E2E2E2E2E2E2E2E2E2E2E2E2E2E2E2E2E2E2E2E2E2E2E2E2E2E2E2E2E2E2E2E2E2E2E2
310
E2E2E2E2E2E2E2E2E2F5E2E2E2E2E2E2E2E2E2E2E2E2E2E2E2E2F5E2E2E2F5F5E2E2E2F5E2E2E2E2E2E2E2E2E2E2E2E2E2E2E2E2F5E2E2E2E2E2E2E2E2E2E2E2E2E2E2E2E2E2E2E2E2E2E2E2E2E2E2E2E2E2E2E2E2E2E2E2E2E2E2E2E2E2E2E2E2E2E2E2E2E2E2E2E2E2E2E2E2E2E2E2E2E2E2E2E2E2E2E2E2E2E2E2E2E2E2
310
E2E2E2E2E2E2E2E2E2E2E2E2E2E2E2E2E2E2E2E2E2E2E2E2E2E2E2E2E2E2E2E2E2E2E2E2E2E2E2E2E2E2E2E2E2E2E2E2E2E2E2E2E2E2E2E2E2E2E2E2E2E2F5E2E2E2E2E2E2E2E2E2E2E2E2E2E2E2E2F5E2E2E2F5F5E2E2E2F5E2E2E2E2E2E2E2E2E2E2E2E2E2E2E2E2F5E2E2E2E2E2E2E2E2E2E2E2E2E2E2E2E2E2E2E2E2E2
310
E2E2E2E2E2E2E2E2E2E2E2E2E2E2E2E2E2E2E2E2E2E2E2E2E2E2E2E2E2E2E2E2E2E2E2E2E2E2E2E2E2E2E2E2E2E2E2E2E2E2E2E2E2E2E2E2E2E2E2E2E2E2E2E2E2E2E2E2E2E2E2E2E2E2E2E2E2E2E2E2E2E2E2E2E2E2E2E2E2E2E2E2E2E2E2E2E2E2E2E2E2E2E2E2E2E2E2E2E2E2E2E2E2E2E2F5E2E2E2E2E2E2E2E2E2E2E2
310
E2E2E2E2E2F5E2E2E2F5F5E2E2E2F5E2E2E2E2E2E2E2E2E2E2E2E2E2E2E2E2F5E2E2E2E2E2E2E2E2E2E2E2E2E2E2E2E2E2E2E2E2E2E2E2E2E2E2E2E2E2E2E2E2E2E2E2E2E2E2E2E2E2E2E2E2E2E2E2E2E2E2E2E2E2E2E2E2E2E2E2E2E2E2E2E2E2E2E2E2E2E2E2E2E2E2E2E2E2E2E2E2E2E2E2E2E2E2E2E2E2E2E2E2E2E2E2
310
E2E2E2E2E2E2E2E2E2E2E2E2E2E2E2E2E2E2E2E2E2E2E2E2E2E2E2E2E2E2E2E2E2E2E2E2E2E2E2E2E2F5E2E2E2E2E2E2E2E2E2E2E2E2E2E2E2E2F5E2E2E2F5F5E2E2E2F5E2E2E2E2E2E2E2E2E2E2E2E2E2E2E2E2F5E2E2E2E2E2E2E2E2E2E2E2E2E2E2E2E2E2E2E2E2E2E2E2E2E2E2E2E2E2E2E2E2E2E2E2E2E2E2E2E2E2E2
310
E2E2E2E2E2E2E2E2E2E2E2E2E2E2E2E2E2E2E2E2E2E2E2E2E2E2E2E2E2E2E2E2E2E2E2E2E2E2E2E2E2E2E2E2E2E2E2E2E2E2E2E2E2E2E2E2E2E2E2E2E2E2E2E2E2E2E2E2E2E2E2E2E2E2E2E2E2E2E2E2E2E2E2E2E2E2E2E2E2E2E2E2E2E2F5E2E2E2E2E2E2E2E2E2E2E2E2E2E2E2E2F5E2E2E2F5F5E2E2E2F5E2E2E2E2E2E2
310
E2E2E2E2E2E2E2E2E2E2F5E2E2E2E2E2E2E2E2E2E2E2E2E2E2E2E2E2E2E2E2E2E2E2E2E2E2E2E2E2E2E2E2E2E2E2E2E2E2E2E2E2E2E2E2E2E2E2E2E2E2E2E2E2E2E2E2E2E2E2E2E2E2E2E2E2E2E2E2E2E2E2E2E2E2E2E2E2E2E2E2E2E2E2E2E2E2E2E2E2E2E2E2E2E2E2E2E2E2E2E2E2E2E2E2E2E2E2E2E2E2E2E2E2E2E2E2
310
E2E2E2E2E2E2E2E2E2E2E2E2E2E2E2E2E2E2E2E2F5E2E2E2E2E2E2E2E2E2E2E2E2E2E2E2E2F5E2E2E2F5F5E2E2E2F5E2E2E2E2E2E2E2E2E2E2E2E2E2E2E2E2F5E2E2E2E2E2E2E2E2E2E2E2E2E2E2E2E2E2E2E2E2E2E2E2E2E2E2E2E2E2E2E2E2E2E2E2E2E2E2E2E2E2E2E2E2E2E2E2E2E2E2E2E2E2E2E2E2E2E2E2E2E2E2E2
310
E2E2E2E2E2E2E2E2E2E2E2E2E2E2E2E2E2E2E2E2E2E2E2E2E2E2E2E2E2E2E2E2E2E2E2E2E2E2E2E2E2E2E2E2E2E2E2E2E2E2E2E2E2E2E2E2E2E2E2E2E2E2E2E2E2E2E2E2E2E2E2E2E2F5E2E2E2E2E2E2E2E2E2E2E2E2E2E2E2E2F5E2E2E2F5F5E2E2E2F5E2E2E2E2E2E2E2E2E2E2E2E2E2E2E2E2F5E2E2E2E2E2E2E2E2E2E2
310
E2E2E2E2E2E2E2E2E2E2E2E2E2E2E2E2E2E2E2E2E2E2E2E2E2E2E2E2E2E2E2E2E2E2E2E2E2E2E2E2E2E2E2E2E2E2E2E2E2E2E2E2E2E2E2E2E2E2E2E2E2E2E2E2E2E2E2E2E2E2E2E2E2E2E2E2E2E2E2E2E2E2E2E2E2E2E2E2E2E2E2E2E2E2E2E2E2E2E2E2E2E2E2E2E2E2E2E2E2E2E2E2E2E2E2E2E2E2E2E2E2E2E2E2E2E2F5
310
E2E2E2E2E2E2E2E2E2E2E2E2E2E2E2E2F5E2E2E2F5F5E2E2E2F5E2E2E2E2E2E2E2E2E2E2E2E2E2E2E2E2F5E2E2E2E2E2E2E2E2E2E2E2E2E2E2E2E2E2E2E2E2E2E2E2E2E2E2E2E2E2E2E2E2E2E2E2E2E2E2E2E2E2E2E2E2E2E2E2E2E2E2E2E2E2E2E2E2E2E2E2E2E2E2E2E2E2E2E2E2E2E2E2E2E2E2E2E2E2E2E2E2E2E2E2E2
310
E2E2E2E2E2E2E2E2E2E2E2E2E2E2E2E2E2E2E2E2E2E2E2E2E2E2E2E2E2E2E2E2E2E2E2E2E2E2E2E2E2E2E2E2E2E2E2E2E2E2E2E2F5E2E2E2E2E2E2E2E2E2E2E2E2E2E2E2E2F5E2E2E2F5F5E2E2E2F5E2E2E2E2E2E2E2E2E2E2E2E2E2E2E2E2F5E2E2E2E2E2E2E2E2E2E2E2E2E2E2E2E2E2E2E2E2E2E2E2E2E2E2E2E2E2E2E2
310
E2E2E2E2E2E2E2E2E2E2E2E2E2E2E2E2E2E2E2E2E2E2E2E2E2E2E2E2E2E2E2E2E2E2E2E2E2E2E2E2E2E2E2E2E2E2E2E2E2E2E2E2E2E2E2E2E2E2E2E2E2E2E2E2E2E2E2E2E2E2E2E2E2E2E2E2E2E2E2E2E2E2E2E2E2E2E2E2E2E2E2E2E2E2E2E2E2E2E2E2E2E2E2E2E2F5E2E2E2E2E2E2E2E2E2E2E2E2E2E2E2E2F5E2E2E2F5
310
F5E2E2E2F5E2E2E2E2E2E2E2E2E2E2E2E2E2E2E2E2F5E2E2E2E2E2E2E2E2E2E2E2E2E2E2E2E2E2E2E2E2E2E2E2E2E2E2E2E2E2E2E2E2E2E2E2E2E2E2E2E2E2E2E2E2E2E2E2E2E2E2E2E2E2E2E2E2E2E2E2E2E2E2E2E2E2E2E2E2E2E2E2E2E2E2E2E2E2E2E2E2E2E2E2E2E2E2E2E2E2E2E2E2E2E2E2E2E2E2E2E2E2E2E2E2E2
310
E2E2E2E2E2E2E2E2E2E2E2E2E2E2E2E2E2E2E2E2E2E2E2E2E2E2E2E2E2E2E2F5E2E2E2E2E2E2E2E2E2E2E2E2E2E2E2E2F5E2E2E2F5F5E2E2E2F5E2E2E2E2E2E2E2E2E2E2E2E2E2E2E2E2F5E2E2E2E2E2E2E2E2E2E2E2E2E2E2E2E2E2E2E2E2E2E2E2E2E2E2E2E2E2E2E2E2E2E2E2E2E2E2E2E2E2E2E2E2E2E2E2E2E2E2E2E2
310
E2E2E2E2E2E2E2E2E2E2E2E2E2E2E2E2E2E2E2E2E2E2E2E2E2E2E2E2E2E2E2E2E2E2E2E2E2E2E2E2E2E2E2E2E2E2E2E2E2E2E2E2E2E2E2E2E2E2E2E2E2E2E2E2E2E2E2E2E2E2E2E2E2E2E2E2E2E2E2E2E2E2E2E2F5E2E2E2E2E2E2E2E2E2E2E2E2E2E2E2E2F5E2E2E2F5F5E2E2E2F5E2E2E2E2E2E2E2E2E2E2E2E2E2E2E2E2
310
F5E2E2E2E2E2E2E2E2E2E2E2E2E2E2E2E2E2E2E2E2E2E2E2E2E2E2E2E2E2E2E2E2E2E2E2E2E2E2E2E2E2E2E2E2E2E2E2E2E2E2E2E2E2E2E2E2E2E2E2E2E2E2E2E2E2E2E2E2E2E2E2E2E2E2E2E2E2E2E2E2E2E2E2E2E2E2E2E2E2E2E2E2E2E2E2E2E2E2E2E2E2E2E2E2E2E2E2E2E2E2E2E2E2E2E2E2E2E2E2E2E2E2E2E2E2E2
310
E2E2E2E2E2E2E2E2E2E2F5E2E2E2E2E2E2E2E2E2E2E2E2E2E2E2E2F5E2E2E2F5F5E2E2E2F5E2E2E2E2E2E2E2E2E2E2E2E2E2E2E2E2F5E2E2E2E2E2E2E2E2E2E2E2E2E2E2E2E2E2E2E2E2E2E2E2E2E2E2E2E2E2E2E2E2E2E2E2E2E2E2E2E2E2E2E2E2E2E2E2E2E2E2E2E2E2E2E2E2E2E2E2E2E2E2E2E2E2E2E2E2E2E2E2E2E2
310
E2E2E2E2E2E2E2E2E2E2E2E2E2E2E2E2E2E2E2E2E2E2E2E2E2E2E2E2E2E2E2E2E2E2E2E2E2E2E2E2E2E2E2E2E2E2E2E2E2E2E2E2E2E2E2E2E2E2E2E2E2E2E2F5E2E2E2E2E2E2E2E2E2E2E2E2E2E2E2E2F5E2E2E2F5F5E2E2E2F5E2E2E2E2E2E2E2E2E2E2E2E2E2E2E2E2F5E2E2E2E2E2E2E2E2E2E2E2E2E2E2E2E2E2E2E2E2
310
E2E2E2E2E2E2E2E2E2E2E2E2E2E2E2E2E2E2E2E2E2E2E2E2E2E2E2E2E2E2E2E2E2E2E2E2E2E2E2E2E2E2E2E2E2E2E2E2E2E2E2E2E2E2E2E2E2E2E2E2E2E2E2E2E2E2E2E2E2E2E2E2E2E2E2E2E2E2E2E2E2E2E2E2E2E2E2E2E2E2E2E2E2E2E2E2E2E2E2E2E2E2E2E2E2E2E2E2E2E2E2E2E2E2E2E2F5E2E2E2E2E2E2E2E2E2E2
310
E2E2E2E2E2E2F5E2E2E2F5F5E2E2E2F5E2E2E2E2E2E2E2E2E2E2E2E2E2E2E2E2F5E2E2E2E2E2E2E2E2E2E2E2E2E2E2E2E2E2E2E2E2E2E2E2E2E2E2E2E2E2E2E2E2E2E2E2E2E2E2E2E2E2E2E2E2E2E2E2E2E2E2E2E2E2E2E2E2E2E2E2E2E2E2E2E2E2E2E2E2E2E2E2E2E2E2E2E2E2E2E2E2E2E2E2E2E2E2E2E2E2E2E2E2E2E2
310
E2E2E2E2E2E2E2E2E2E2E2E2E2E2E2E2E2E2E2E2E2E2E2E2E2E2E2E2E2E2E2E2E2E2E2E2E2E2E2E2E2E2F5E2E2E2E2E2E2E2E2E2E2E2E2E2E2E2E2F5E2E2E2F5F5E2E2E2E2E2E2E2E2E2E2E2E2E2E2E2E2E2E2E2E2F5E2E2E2E2E2E2E2E2E2E2E2E2E2E2E2E2E2E2E2E2E2E2E2E2E2E2E2E2E2E2E2E2E2E2E2E2E2E2E2E2E2
310
E2E2E2E2E2E2E2E2E2E2E2E2E2E2E2E2E2E2E2E2E2E2E2E2E2E2E2E2E2E2E2E2E2E2E2E2E2E2E2E2E2E2E2E2E2E2E2E2E2E2E2E2E2E2E2E2E2E2E2E2E2E2E2E2E2E2E2E2E2E2E2E2E2E2E2E2E2E2E2E2E2E2E2E2E2E2E2E2E2E2E2E2E2E2E2F5E2E2E2E2E2E2E2E2E2E2E2E2E2E2E2E2E2E2E2E2F5F5E2E2E2E2E2E2E2E2E2
310
E2E2E2E2E2E2E2E2E2E2E2F5E2E2E2E2E2E2E2E2E2E2E2E2E2E2E2E2E2E2E2E2E2E2E2E2E2E2E2E2E2E2E2E2E2E2E2E2E2E2E2E2E2E2E2E2E2E2E2E2E2E2E2E2E2E2E2E2E2E2E2E2E2E2E2E2E2E2E2E2E2E2E2E2E2E2E2E2E2E2E2E2E2E2E2E2E2E2E2E2E2E2E2E2E2E2E2E2E2E2E2E2E2E2E2E2E2E2E2E2E2E2E2E2E2E2E2
310
E2E2E2E2E2E2E2E2E2E2E2E2E2E2E2E2E2E2E2E2E2F5E2E2E2E2E2E2E2E2E2E2E2E2E2E2E2E2E2E2E2E2F5F5E2E2E2E2E2E2E2E2E2E2E2E2E2E2E2E2E2E2E2E2F5E2E2E2E2E2E2E2E2E2E2E2E2E2E2E2E2E2E2E2E2E2E2E2E2E2E2E2E2E2E2E2E2E2E2E2E2E2E2E2E2E2E2E2E2E2E2E2E2E2E2E2E2E2E2E2E2E2E2E2E2E2E2
310
E2E2E2E2E2E2E2E2E2E2E2E2E2E2E2E2E2E2E2E2E2E2E2E2E2E2E2E2E2E2E2E2E2E2E2E2E2E2E2E2E2E2E2E2E2E2E2E2E2E2E2E2E2E2E2E2E2E2E2E2E2E2E2E2E2E2E2E2E2E2E2E2E2E2F5E2E2E2E2E2E2E2E2E2E2E2E2E2E2E2E2E2E2E2E2F5F5E2E2E2E2E2E2E2E2E2E2E2E2E2E2E2E2E2E2E2E2F5E2E2E2E2E2E2E2E2E2
310
E2E2E2E2E2E2E2E2E2E2E2E2E2E2E2E2E2E2E2E2E2E2E2E2E2E2E2E2E2E2E2E2E2E2E2E2E2E2E2E2E2E2E2E2E2E2E2E2E2E2E2E2E2E2E2E2E2E2E2E2E2E2E2E2E2E2E2E2E2E2E2E2E2E2E2E2E2E2E2E2E2E2E2E2E2E2E2E2E2E2E2E2E2E2E2E2E2E2E2E2E2E2E2E2E2E2E2E2E2E2E2E2E2E2E2E2E2E2E2E2E2E2E2E2E2E2E2
310
F5E2E2E2E2E2E2E2E2E2E2E2E2E2E2E2E2E2E2E2E2F5F5E2E2E2E2E2E2E2E2E2E2E2E2E2E2E2E2E2E2E2E2F5E2E2E2E2E2E2E2E2E2E2E2E2E2E2E2E2E2E2E2E2E2E2E2E2E2E2E2E2E2E2E2E2E2E2E2E2E2E2E2E2E2E2E2E2E2E2E2E2E2E2E2E2E2E2E2E2E2E2E2E2E2E2E2E2E2E2E2E2E2E2E2E2E2E2E2E2E2E2E2E2E2E2E2
310
E2E2E2E2E2E2E2E2E2E2E2E2E2E2E2E2E2E2E2E2E2E2E2E2E2E2E2E2E2E2E2E2E2E2E2E2E2E2E2E2E2E2E2E2E2E2E2E2E2E2E2E2E2F5E2E2E2E2E2E2E2E2E2E2E2E2E2E2E2E2E2E2E2E2F5F5E2E2E2E2E2E2E2E2E2E2E2E2E2E2E2E2E2E2E2E2F5E2E2E2E2E2E2E2E2E2E2E2E2E2E2E2E2E2E2E2E2E2E2E2E2E2E2E2E2E2E2
310
E2E2E2E2E2E2E2E2E2E2E2E2E2E2E2E2E2E2E2E2E2E2E2E2E2E2E2E2E2E2E2E2E2E2E2E2E2E2E2E2E2E2E2E2E2E2E2E2E2E2E2E2E2E2E2E2E2E2E2E2E2E2E2E2E2E2E2E2E2E2E2E2E2E2E2E2E2E2E2E2E2E2E2E2E2E2E2E2E2E2E2E2E2E2E2E2E2E2E2E2E2E2E2E2E2E2F5E2E2E2E2E2E2E2E2E2E2E2E2E2E2E2E2E2E2E2E2
310
F5F5E2E2E2E2E2E2E2E2E2E2E2E2E2E2E2E2E2E2E2E2F5E2E2E2E2E2E2E2E2E2E2E2E2E2E2E2E2E2E2E2E2E2E2E2E2E2E2E2E2E2E2E2E2E2E2E2E2E2E2E2E2E2E2E2E2E2E2E2E2E2E2E2E2E2E2E2E2E2E2E2E2E2E2E2E2E2E2E2E2E2E2E2E2E2E2E2E2E2E2E2E2E2E2E2E2E2E2E2E2E2E2E2E2E2E2E2E2E2E2E2E2E2E2E2E2
310
E2E2E2E2E2E2E2E2E2E2E2E2E2E2E2E2E2E2E2E2E2E2E2E2E2E2E2E2E2E2E2E2F5E2E2E2E2E2E2E2E2E2E2E2E2E2E2E2E2E2E2E2E2F5F5E2E2E2E2E2E2E2E2E2E2E2E2E2E2E2E2E2E2E2E2F5E2E2E2E2E2E2E2E2E2E2E2E2E2E2E2E2E2E2E2E2E2E2E2E2E2E2E2E2E2E2E2E2E2E2E2E2E2E2E2E2E2E2E2E2E2E2E2E2E2E2E2
310
E2E2E2E2E2E2E2E2E2E2E2E2E2E2E2E2E2E2E2E2E2E2E2E2E2E2E2E2E2E2E2E2E2E2E2E2E2E2E2E2E2E2E2E2E2E2E2E2E2E2E2E2E2E2E2E2E2E2E2E2E2E2E2E2E2E2E2E2E2E2E2E2E2E2E2E2E2E2E2E2E2E2E2E2E2F5E2E2E2E2E2E2E2E2E2E2E2E2E2E2E2E2E2E2E2E2F5F5E2E2E2E2E2E2E2E2E2E2E2E2E2E2E2E2E2E2E2
310
E2F5E2E2E2E2E2E2E2E2E2E2E2E2E2E2E2E2E2E2E2E2E2E2E2E2E2E2E2E2E2E2E2E2E2E2E2E2E2E2E2E2E2E2E2E2E2E2E2E2E2E2E2E2E2E2E2E2E2E2E2E2E2E2E2E2E2E2E2E2E2E2E2E2E2E2E2E2E2E2E2E2E2E2E2E2E2E2E2E2E2E2E2E2E2E2E2E2E2E2E2E2E2E2E2E2E2E2E2E2E2E2E2E2E2E2E2E2E2E2E2E2E2E2E2E2E2
310
E2E2E2E2E2E2E2E2E2E2E2F5E2E2E2E2E2E2E2E2E2E2E2E2E2E2E2E2E2E2E2E2F5F5E2E2E2E2E2E2E2E2E2E2E2E2E2E2E2E2E2E2E2E2F5E2E2E2E2E2E2E2E2E2E2E2E2E2E2E2E2E2E2E2E2E2E2E2E2E2E2E2E2E2E2E2E2E2E2E2E2E2E2E2E2E2E2E2E2E2E2E2E2E2E2E2E2E2E2E2E2E2E2E2E2E2E2E2E2E2E2E2E2E2E2E2E2
310
E2E2E2E2E2E2E2E2E2E2E2E2E2E2E2E2E2E2E2E2E2E2E2E2E2E2E2E2E2E2E2E2E2E2E2E2E2E2E2E2E2E2E2E2E2E2E2E2E2E2E2E2E2E2E2E2E2E2E2E2E2E2E2E2F5E2E2E2E2E2E2E2E2E2E2E2E2E2E2E2E2E2E2E2E2F5F5E2E2E2F5E2E2E2E2E2E2E2E2E2E2E2E2E2E2E2E2F5E2E2E2E2E2E2E2E2E2E2E2E2E2E2E2E2E2E2E2
310
E2E2E2E2E2E2E2E2E2E2E2E2E2E2E2E2E2E2E2E2E2E2E2E2E2E2E2E2E2E2E2E2E2E2E2E2E2E2E2E2E2E2E2E2E2E2E2E2E2E2E2E2E2E2E2E2E2E2E2E2E2E2E2E2E2E2E2E2E2E2E2E2E2E2E2E2E2E2E2E2E2E2E2E2E2E2E2E2E2E2E2E2E2E2E2E2E2E2E2E2E2E2E2E2E2E2E2E2E2E2E2E2E2E2E2E2E2F5E2E2E2E2E2E2E2E2E2
310
E2E2E2E2E2E2E2F5E2E2E2F5F5E2E2E2F5E2E2E2E2E2E2E2E2E2E2E2E2E2E2E2E2F5E2E2E2E2E2E2E2E2E2E2E2E2E2E2E2E2E2E2E2E2E2E2E2E2E2E2E2E2E2E2E2E2E2E2E2E2E2E2E2E2E2E2E2E2E2E2E2E2E2E2E2E2E2E2E2E2E2E2E2E2E2E2E2E2E2E2E2E2E2E2E2E2E2E2E2E2E2E2E2E2E2E2E2E2E2E2E2E2E2E2E2E2E2
310
E2E2E2E2E2E2E2E2E2E2E2E2E2E2E2E2E2E2E2E2E2E2E2E2E2E2E2E2E2E2E2E2E2E2E2E2E2E2E2E2E2E2E2F5E2E2E2E2E2E2E2E2E2E2E2E2E2E2E2E2F5E2E2E2F5F5E2E2E2F5E2E2E2E2E2E2E2E2E2E2E2E2E2E2E2E2F5E2E2E2E2E2E2E2E2E2E2E2E2E2E2E2E2E2E2E2E2E2E2E2E2E2E2E2E2E2E2E2E2E2E2E2E2E2E2E2E2
310
E2E2E2E2E2E2E2E2E2E2E2E2E2E2E2E2E2E2E2E2E2E2E2E2E2E2E2E2E2E2E2E2E2E2E2E2E2E2E2E2E2E2E2E2E2E2E2E2E2E2E2E2E2E2E2E2E2E2E2E2E2E2E2E2E2E2E2E2E2E2E2E2E2E2E2E2E2E2E2E2E2E2E2E2E2E2E2E2E2E2E2E2E2E2E2E2F5E2E2E2E2E2E2E2E2E2E2E2E2E2E2E2E2F5E2E2E2F5F5E2E2E2F5E2E2E2E2
310
E2E2E2E2E2E2E2E2E2E2E2E2F5E2E2E2E2E2E2E2E2E2E2E2E2E2E2E2E2E2E2E2E2E2E2E2E2E2E2E2E2E2E2E2E2E2E2E2E2E2E2E2E2E2E2E2E2E2E2E2E2E2E2E2E2E2E2E2E2E2E2E2E2E2E2E2E2E2E2E2E2E2E2E2E2E2E2E2E2E2E2E2E2E2E2E2E2E2E2E2E2E2E2E2E2E2E2E2E2E2E2E2E2E2E2E2E2E2E2E2E2E2E2E2E2E2E2
310
E2E2E2E2E2E2E2E2E2E2E2E2E2E2E2E2E2E2E2E2E2E2F5E2E2E2E2E2E2E2E2E2E2E2E2E2E2E2E2F5E2E2E2F5F5E2E2E2F5E2E2E2E2E2E2E2E2E2E2E2E2E2E2E2E2F5E2E2E2E2E2E2E2E2E2E2E2E2E2E2E2E2E2E2E2E2E2E2E2E2E2E2E2E2E2E2E2E2E2E2E2E2E2E2E2E2E2E2E2E2E2E2E2E2E2E2E2E2E2E2E2E2E2E2E2E2E2
310
E2E2E2E2E2E2E2E2E2E2E2E2E2E2E2E2E2E2E2E2E2E2E2E2E2E2E2E2E2E2E2E2E2E2E2E2E2E2E2E2E2E2E2E2E2E2E2E2E2E2E2E2E2E2E2E2E2E2E2E2E2E2E2E2E2E2E2E2E2E2E2E2E2E2E2F5E2E2E2E2E2E2E2E2E2E2E2E2E2E2E2E2F5E2E2E2F5F5E2E2E2F5E2E2E2E2E2E2E2E2E2E2E2E2E2E2E2E2F5E2E2E2E2E2E2E2E2
310
E2E2E2E2E2E2E2E2E2E2E2E2E2E2E2E2E2E2E2E2E2E2E2E2E2E2E2E2E2E2E2E2E2E2E2E2E2E2E2E2E2E2E2E2E2E2E2E2E2E2E2E2E2E2E2E2E2E2E2E2E2E2E2E2E2E2E2E2E2E2E2E2E2E2E2E2E2E2E2E2E2E2E2E2E2E2E2E2E2E2E2E2E2E2E2E2E2E2E2E2E2E2E2E2E2E2E2E2E2E2E2E2E2E2E2E2E2E2E2E2E2E2E2E2E2E2E2
310
E2F5E2E2E2E2E2E2E2E2E2E2E2E2E2E2E2E2F5E2E2E2F5F5E2E2E2F5E2E2E2E2E2E2E2E2E2E2E2E2E2E2E2E2F5E2E2E2E2E2E2E2E2E2E2E2E2E2E2E2E2E2E2E2E2E2E2E2E2E2E2E2E2E2E2E2E2E2E2E2E2E2E2E2E2E2E2E2E2E2E2E2E2E2E2E2E2E2E2E2E2E2E2E2E2E2E2E2E2E2E2E2E2E2E2E2E2E2E2E2E2E2E2E2E2E2E2
310
E2E2E2E2E2E2E2E2E2E2E2E2E2E2E2E2E2E2E2E2E2E2E2E2E2E2E2E2E2E2E2E2E2E2E2E2E2E2E2E2E2E2E2E2E2E2E2E2E2E2E2E2E2E2F5E2E2E2E2E2E2E2E2E2E2E2E2E2E2E2E2F5E2E2E2F5F5E2E2E2F5E2E2E2E2E2E2E2E2E2E2E2E2E2E2E2E2F5E2E2E2E2E2E2E2E2E2E2E2E2E2E2E2E2E2E2E2E2E2E2E2E2E2E2E2E2E2
310
E2E2E2E2E2E2E2E2E2E2E2E2E2E2E2E2E2E2E2E2E2E2E2E2E2E2E2E2E2E2E2E2E2E2E2E2E2E2E2E2E2E2E2E2E2E2E2E2E2E2E2E2E2E2E2E2E2E2E2E2E2E2E2E2E2E2E2E2E2E2E2E2E2E2E2E2E2E2E2E2E2E2E2E2E2E2E2E2E2E2E2E2E2E2E2E2E2E2E2E2E2E2E2E2E2E2E2F5E2E2E2E2E2E2E2E2E2E2E2E2E2E2E2E2F5E2E2
310
E2F5F5E2E2E2F5E2E2E2E2E2E2E2E2E2E2E2E2E2E2E2E2F5E2E2E2E2E2E2E2E2E2E2E2E2E2E2E2E2E2E2E2E2E2E2E2E2E2E2E2E2E2E2E2E2E2E2E2E2E2E2E2E2E2E2E2E2E2E2E2E2E2E2E2E2E2E2E2E2E2E2E2E2E2E2E2E2E2E2E2E2E2E2E2E2E2E2E2E2E2E2E2E2E2E2E2E2E2E2E2E2E2E2E2E2E2E2E2E2E2E2E2E2E2E2E2
310
E2E2E2E2E2E2E2E2E2E2E2E2E2E2E2E2E2E2E2E2E2E2E2E2E2E2E2E2E2E2E2E2E2F5E2E2E2E2E2E2E2E2E2E2E2E2E2E2E2E2F5E2E2E2F5F5E2E2E2F5E2E2E2E2E2E2E2E2E2E2E2E2E2E2E2E2F5E2E2E2E2E2E2E2E2E2E2E2E2E2E2E2E2E2E2E2E2E2E2E2E2E2E2E2E2E2E2E2E2E2E2E2E2E2E2E2E2E2E2E2E2E2E2E2E2E2E2
310
E2E2E2E2E2E2E2E2E2E2E2E2E2E2E2E2E2E2E2E2E2E2E2E2E2E2E2E2E2E2E2E2E2E2E2E2E2E2E2E2E2E2E2E2E2E2E2E2E2E2E2E2E2E2E2E2E2E2E2E2E2E2E2E2E2E2E2E2E2E2E2E2E2E2E2E2E2E2E2E2E2E2E2E2E2E2F5E2E2E2E2E2E2E2E2E2E2E2E2E2E2E2E2F5E2E2E2F5F5E2E2E2F5E2E2E2E2E2E2E2E2E2E2E2E2E2E2
310
E2E2F5E2E2E2E2E2E2E2E2E2E2E2E2E2E2E2E2E2E2E2E2E2E2E2E2E2E2E2E2E2E2E2E2E2E2E2E2E2E2E2E2E2E2E2E2E2E2E2E2E2E2E2E2E2E2E2E2E2E2E2E2E2E2E2E2E2E2E2E2E2E2E2E2E2E2E2E2E2E2E2E2E2E2E2E2E2E2E2E2E2E2E2E2E2E2E2E2E2E2E2E2E2E2E2E2E2E2E2E2E2E2E2E2E2E2E2E2E2E2E2E2E2E2E2E2
310
E2E2E2E2E2E2E2E2E2E2E2E2F5E2E2E2E2E2E2E2E2E2E2E2E2E2E2E2E2F5E2E2E2F5F5E2E2E2F5E2E2E2E2E2E2E2E2E2E2E2E2E2E2E2E2F5E2E2E2E2E2E2E2E2E2E2E2E2E2E2E2E2E2E2E2E2E2E2E2E2E2E2E2E2E2E2E2E2E2E2E2E2E2E2E2E2E2E2E2E2E2E2E2E2E2E2E2E2E2E2E2E2E2E2E2E2E2E2E2E2E2E2E2E2E2E2E2
310
E2E2E2E2E2E2E2E2E2E2E2E2E2E2E2E2E2E2E2E2E2E2E2E2E2E2E2E2E2E2E2E2E2E2E2E2E2E2E2E2E2E2E2E2E2E2E2E2E2E2E2E2E2E2E2E2E2E2E2E2E2E2E2E2E2F5E2E2E2E2E2E2E2E2E2E2E2E2E2E2E2E2F5E2E2E2F5F5E2E2E2F5E2E2E2E2E2E2E2E2E2E2E2E2E2E2E2E2F5E2E2E2E2E2E2E2E2E2E2E2E2E2E2E2E2E2E2
310
E2E2E2E2E2E2E2E2E2E2E2E2E2E2E2E2E2E2E2E2E2E2E2E2E2E2E2E2E2E2E2E2E2E2E2E2E2E2E2E2E2E2E2E2E2E2E2E2E2E2E2E2E2E2E2E2E2E2E2E2E2E2E2E2E2E2E2E2E2E2E2E2E2E2E2E2E2E2E2E2E2E2E2E2E2E2E2E2E2E2E2E2E2E2E2E2E2E2E2E2E2E2E2E2E2E2E2E2E2E2E2E2E2E2E2E2E2E2F5E2E2E2E2E2E2E2E2
310
E2E2E2E2E2E2E2E2F5E2E2E2F5F5E2E2E2F5E2E2E2E2E2E2E2E2E2E2E2E2E2E2E2E2F5E2E2E2E2E2E2E2E2E2E2E2E2E2E2E2E2E2E2E2E2E2E2E2E2E2E2E2E2E2E2E2E2E2E2E2E2E2E2E2E2E2E2E2E2E2E2E2E2E2E2E2E2E2E2E2E2E2E2E2E2E2E2E2E2E2E2E2E2E2E2E2E2E2E2E2E2E2E2E2E2E2E2E2E2E2E2E2E2E2E2E2E2
310
E2E2E2E2E2E2E2E2E2E2E2E2E2E2E2E2E2E2E2E2E2E2E2E2E2E2E2E2E2E2E2E2E2E2E2E2E2E2E2E2E2E2E2E2F5E2E2E2E2E2E2E2E2E2E2E2E2E2E2E2E2F5E2E2E2F5F5E2E2E2F5E2E2E2E2E2E2E2E2E2E2E2E2E2E2E2E2F5E2E2E2E2E2E2E2E2E2E2E2E2E2E2E2E2E2E2E2E2E2E2E2E2E2E2E2E2E2E2E2E2E2E2E2E2E2E2E2
310
E2E2E2E2E2E2E2E2E2E2E2E2E2E2E2E2E2E2E2E2E2E2E2E2E2E2E2E2E2E2E2E2E2E2E2E2E2E2E2E2E2E2E2E2E2E2E2E2E2E2E2E2E2E2E2E2E2E2E2E2E2E2E2E2E2E2E2E2E2E2E2E2E2E2E2E2E2E2E2E2E2E2E2E2E2E2E2E2E2E2E2E2E2E2E2E2E2F5E2E2E2E2E2E2E2E2E2E2E2E2E2E2E2E2F5E2E2E2F5F5E2E2E2F5E2E2E2
310
E2E2E2E2E2E2E2E2E2E2E2E2E2F5E2E2E2E2E2E2E2E2E2E2E2E2E2E2E2E2E2E2E2E2E2E2E2E2E2E2E2E2E2E2E2E2E2E2E2E2E2E2E2E2E2E2E2E2E2E2E2E2E2E2E2E2E2E2E2E2E2E2E2E2E2E2E2E2E2E2E2E2E2E2E2E2E2E2E2E2E2E2E2E2E2E2E2E2E2E2E2E2E2E2E2E2E2E2E2E2E2E2E2E2E2E2E2E2E2E2E2E2E2E2E2E2E2
310
E2E2E2E2E2E2E2E2E2E2E2E2E2E2E2E2E2E2E2E2E2E2E2F5E2E2E2E2E2E2E2E2E2E2E2E2E2E2E2E2F5E2E2E2F5F5E2E2E2E2E2E2E2E2E2E2E2E2E2E2E2E2E2E2E2E2F5E2E2E2E2E2E2E2E2E2E2E2E2E2E2E2E2E2E2E2E2E2E2E2E2E2E2E2E2E2E2E2E2E2E2E2E2E2E2E2E2E2E2E2E2E2E2E2E2E2E2E2E2E2E2E2E2E2E2E2E2
310
E2E2E2E2E2E2E2E2E2E2E2E2E2E2E2E2E2E2E2E2E2E2E2E2E2E2E2E2E2E2E2E2E2E2E2E2E2E2E2E2E2E2E2E2E2E2E2E2E2E2E2E2E2E2E2E2E2E2E2E2E2E2E2E2E2E2E2E2E2E2E2E2E2E2E2E2F5E2E2E2E2E2E2E2E2E2E2E2E2E2E2E2E2E2E2E2E2F5F5E2E2E2E2E2E2E2E2E2E2E2E2E2E2E2E2E2E2E2E2F5E2E2E2E2E2E2E2
310
E2E2E2E2E2E2E2E2E2E2E2E2E2E2E2E2E2E2E2E2E2E2E2E2E2E2E2E2E2E2E2E2E2E2E2E2E2E2E2E2E2E2E2E2E2E2E2E2E2E2E2E2E2E2E2E2E2E2E2E2E2E2E2E2E2E2E2E2E2E2E2E2E2E2E2E2E2E2E2E2E2E2E2E2E2E2E2E2E2E2E2E2E2E2E2E2E2E2E2E2E2E2E2E2E2E2E2E2E2E2E2E2E2E2E2E2E2E2E2E2E2E2E2E2E2E2E2
310
E2E2F5E2E2E2E2E2E2E2E2E2E2E2E2E2E2E2E2E2E2E2E2F5F5E2E2E2E2E2E2E2E2E2E2E2E2E2E2E2E2E2E2E2E2F5E2E2E2E2E2E2E2E2E2E2E2E2E2E2E2E2E2E2E2E2E2E2E2E2E2E2E2E2E2E2E2E2E2E2E2E2E2E2E2E2E2E2E2E2E2E2E2E2E2E2E2E2E2E2E2E2E2E2E2E2E2E2E2E2E2E2E2E2E2E2E2E2E2E2E2E2E2E2E2E2E2
310
E2E2E2E2E2E2E2E2E2E2E2E2E2E2E2E2E2E2E2E2E2E2E2E2E2E2E2E2E2E2E2E2E2E2E2E2E2E2E2E2E2E2E2E2E2E2E2E2E2E2E2E2E2E2E2F5E2E2E2E2E2E2E2E2E2E2E2E2E2E2E2E2E2E2E2E2F5F5E2E2E2E2E2E2E2E2E2E2E2E2E2E2E2E2E2E2E2E2F5E2E2E2E2E2E2E2E2E2E2E2E2E2E2E2E2E2E2E2E2E2E2E2E2E2E2E2E2
310
E2E2E2E2E2E2E2E2E2E2E2E2E2E2E2E2E2E2E2E2E2E2E2E2E2E2E2E2E2E2E2E2E2E2E2E2E2E2E2E2E2E2E2E2E2E2E2E2E2E2E2E2E2E2E2E2E2E2E2E2E2E2E2E2E2E2E2E2E2E2E2E2E2E2E2E2E2E2E2E2E2E2E2E2E2E2E2E2E2E2E2E2E2E2E2E2E2E2E2E2E2E2E2E2E2E2E2E2F5E2E2E2E2E2E2E2E2E2E2E2E2E2E2E2E2E2E2
310
E2E2F5F5E2E2E2E2E2E2E2E2E2E2E2E2E2E2E2E2E2E2E2E2F5E2E2E2E2E2E2E2E2E2E2E2E2E2E2E2E2E2E2E2E2E2E2E2E2E2E2E2E2E2E2E2E2E2E2E2E2E2E2E2E2E2E2E2E2E2E2E2E2E2E2E2E2E2E2E2E2E2E2E2E2E2E2E2E2E2E2E2E2E2E2E2E2E2E2E2E2E2E2E2E2E2E2E2E2E2E2E2E2E2E2E2E2E2E2E2E2E2E2E2E2E2E2
310
E2E2E2E2E2E2E2E2E2E2E2E2E2E2E2E2E2E2E2E2E2E2E2E2E2E2E2E2E2E2E2E2E2E2F5E2E2E2E2E2E2E2E2E2E2E2E2E2E2E2E2E2E2E2E2F5F5E2E2E2E2E2E2E2E2E2E2E2E2E2E2E2E2E2E2E2E2F5E2E2E2E2E2E2E2E2E2E2E2E2E2E2E2E2E2E2E2E2E2E2E2E2E2E2E2E2E2E2E2E2E2E2E2E2E2E2E2E2E2E2E2E2E2E2E2E2E2
310
E2E2E2E2E2E2E2E2E2E2E2E2E2E2E2E2E2E2E2E2E2E2E2E2E2E2E2E2E2E2E2E2E2E2E2E2E2E2E2E2E2E2E2E2E2E2E2E2E2E2E2E2E2E2E2E2E2E2E2E2E2E2E2E2E2E2E2E2E2E2E2E2E2E2E2E2E2E2E2E2E2E2E2E2E2E2E2F5E2E2E2E2E2E2E2E2E2E2E2E2E2E2E2E2E2E2E2E2F5F5E2E2E2E2E2E2E2E2E2E2E2E2E2E2E2E2E2
310
E2E2E2F5E2E2E2E2E2E2E2E2E2E2E2E2E2E2E2E2E2E2E2E2E2E2E2E2E2E2E2E2E2E2E2E2E2E2E2E2E2E2E2E2E2E2E2E2E2E2E2E2E2E2E2E2E2E2E2E2E2E2E2E2E2E2E2E2E2E2E2E2E2E2E2E2E2E2E2E2E2E2E2E2E2E2E2E2E2E2E2E2E2E2E2E2E2E2E2E2E2E2E2E2E2E2E2E2E2E2E2E2E2E2E2E2E2E2E2E2E2E2E2E2E2E2E2
310
E2E2E2E2E2E2E2E2E2E2E2E2E2F5E2E2E2E2E2E2E2E2E2E2E2E2E2E2E2E2E2E2E2E2F5F5E2E2E2E2E2E2E2E2E2E2E2E2E2E2E2E2E2E2E2E2F5E2E2E2E2E2E2E2E2E2E2E2E2E2E2E2E2E2E2E2E2E2E2E2E2E2E2E2E2E2E2E2E2E2E2E2E2E2E2E2E2E2E2E2E2E2E2E2E2E2E2E2E2E2E2E2E2E2E2E2E2E2E2E2E2E2E2E2E2E2E2
310
E2E2E2E2E2E2E2E2E2E2E2E2E2E2E2E2E2E2E2E2E2E2E2E2E2E2E2E2E2E2E2E2E2E2E2E2E2E2E2E2E2E2E2E2E2E2E2E2E2E2E2E2E2E2E2E2E2E2E2E2E2E2E2E2E2E2F5E2E2E2E2E2E2E2E2E2E2E2E2E2E2E2E2E2E2E2E2F5F5E2E2E2E2E2E2E2E2E2E2E2E2E2E2E2E2E2E2E2E2F5E2E2E2E2E2E2E2E2E2E2E2E2E2E2E2E2E2
310
E2E2E2E2E2E2E2E2E2E2E2E2E2E2E2E2E2E2E2E2E2E2E2E2E2E2E2E2E2E2E2E2E2E2E2E2E2E2E2E2E2E2E2E2E2E2E2E2E2E2E2E2E2E2E2E2E2E2E2E2E2E2E2E2E2E2E2E2E2E2E2E2E2E2E2E2E2E2E2E2E2E2E2E2E2E2E2E2E2E2E2E2E2E2E2E2E2E2E2E2E2E2E2E2E2E2E2E2E2E2E2E2E2E2E2E2E2E2E2F5E2E2E2E2E2E2E2
310
E2E2E2E2E2E2E2E2E2E2E2E2E2F5F5E2E2E2F5E2E2E2E2E2E2E2E2E2E2E2E2E2E2E2E2F5E2E2E2E2E2E2E2E2E2E2E2E2E2E2E2E2E2E2E2E2E2E2E2E2E2E2E2E2E2E2E2E2E2E2E2E2E2E2E2E2E2E2E2E2E2E2E2E2E2E2E2E2E2E2E2E2E2E2E2E2E2E2E2E2E2E2E2E2E2E2E2E2E2E2E2E2E2E2E2E2E2E2E2E2E2E2E2E2E2E2E2
310
E2E2E2E2E2E2E2E2E2E2E2E2E2E2E2E2E2E2E2E2E2E2E2E2E2E2E2E2E2E2E2E2E2E2E2E2E2E2E2E2E2E2E2E2E2F5E2E2E2E2E2E2E2E2E2E2E2E2E2E2E2E2F5E2E2E2F5F5E2E2E2F5E2E2E2E2E2E2E2E2E2E2E2E2E2E2E2E2F5E2E2E2E2E2E2E2E2E2E2E2E2E2E2E2E2E2E2E2E2E2E2E2E2E2E2E2E2E2E2E2E2E2E2E2E2E2E2
310
E2E2E2E2E2E2E2E2E2E2E2E2E2E2E2E2E2E2E2E2E2E2E2E2E2E2E2E2E2E2E2E2E2E2E2E2E2E2E2E2E2E2E2E2E2E2E2E2E2E2E2E2E2E2E2E2E2E2E2E2E2E2E2E2E2E2E2E2E2E2E2E2E2E2E2E2E2E2E2E2E2E2E2E2E2E2E2E2E2E2E2E2E2E2E2E2E2E2F5E2E2E2E2E2E2E2E2E2E2E2E2E2E2E2E2F5E2E2E2F5F5E2E2E2F5E2E2
310
E2E2E2E2E2E2E2E2E2E2E2E2E2E2F5E2E2E2E2E2E2E2E2E2E2E2E2E2E2E2E2E2E2E2E2E2E2E2E2E2E2E2E2E2E2E2E2E2E2E2E2E2E2E2E2E2E2E2E2E2E2E2E2E2E2E2E2E2E2E2E2E2E2E2E2E2E2E2E2E2E2E2E2E2E2E2E2E2E2E2E2E2E2E2E2E2E2E2E2E2E2E2E2E2E2E2E2E2E2E2E2E2E2E2E2E2E2E2E2E2E2E2E2E2E2E2E2
310
E2E2E2E2E2E2E2E2E2E2E2E2E2E2E2E2E2E2E2E2E2E2E2E2F5E2E2E2E2E2E2E2E2E2E2E2E2E2E2E2E2F5E2E2E2F5F5E2E2E2F5E2E2E2E2E2E2E2E2E2E2E2E2E2E2E2E2F5E2E2E2E2E2E2E2E2E2E2E2E2E2E2E2E2E2E2E2E2E2E2E2E2E2E2E2E2E2E2E2E2E2E2E2E2E2E2E2E2E2E2E2E2E2E2E2E2E2E2E2E2E2E2E2E2E2E2E2
310
E2E2E2E2E2E2E2E2E2E2E2E2E2E2E2E2E2E2E2E2E2E2E2E2E2E2E2E2E2E2E2E2E2E2E2E2E2E2E2E2E2E2E2E2E2E2E2E2E2E2E2E2E2E2E2E2E2E2E2E2E2E2E2E2E2E2E2E2E2E2E2E2E2E2E2E2E2F5E2E2E2E2E2E2E2E2E2E2E2E2E2E2E2E2F5E2E2E2F5F5E2E2E2F5E2E2E2E2E2E2E2E2E2E2E2E2E2E2E2E2F5E2E2E2E2E2E2
310
E2E2E2E2E2E2E2E2E2E2E2E2E2E2E2E2E2E2E2E2E2E2E2E2E2E2E2E2E2E2E2E2E2E2E2E2E2E2E2E2E2E2E2E2E2E2E2E2E2E2E2E2E2E2E2E2E2E2E2E2E2E2E2E2E2E2E2E2E2E2E2E2E2E2E2E2E2E2E2E2E2E2E2E2E2E2E2E2E2E2E2E2E2E2E2E2E2E2E2E2E2E2E2E2E2E2E2E2E2E2E2E2E2E2E2E2E2E2E2E2E2E2E2E2E2E2E2
310
E2E2E2F5E2E2E2E2E2E2E2E2E2E2E2E2E2E2E2E2F5E2E2E2F5F5E2E2E2F5E2E2E2E2E2E2E2E2E2E2E2E2E2E2E2E2F5E2E2E2E2E2E2E2E2E2E2E2E2E2E2E2E2E2E2E2E2E2E2E2E2E2E2E2E2E2E2E2E2E2E2E2E2E2E2E2E2E2E2E2E2E2E2E2E2E2E2E2E2E2E2E2E2E2E2E2E2E2E2E2E2E2E2E2E2E2E2E2E2E2E2E2E2E2E2E2E2
310
E2E2E2E2E2E2E2E2E2E2E2E2E2E2E2E2E2E2E2E2E2E2E2E2E2E2E2E2E2E2E2E2E2E2E2E2E2E2E2E2E2E2E2E2E2E2E2E2E2E2E2E2E2E2E2E2F5E2E2E2E2E2E2E2E2E2E2E2E2E2E2E2E2F5E2E2E2F5F5E2E2E2F5E2E2E2E2E2E2E2E2E2E2E2E2E2E2E2E2F5E2E2E2E2E2E2E2E2E2E2E2E2E2E2E2E2E2E2E2E2E2E2E2E2E2E2E2
310
E2E2E2E2E2E2E2E2E2E2E2E2E2E2E2E2E2E2E2E2E2E2E2E2E2E2E2E2E2E2E2E2E2E2E2E2E2E2E2E2E2E2E2E2E2E2E2E2E2E2E2E2E2E2E2E2E2E2E2E2E2E2E2E2E2E2E2E2E2E2E2E2E2E2E2E2E2E2E2E2E2E2E2E2E2E2E2E2E2E2E2E2E2E2E2E2E2E2E2E2E2E2E2E2E2E2E2E2E2F5E2E2E2E2E2E2E2E2E2E2E2E2E2E2E2E2F5
310
E2E2E2F5F5E2E2E2F5E2E2E2E2E2E2E2E2E2E2E2E2E2E2E2E2F5E2E2E2E2E2E2E2E2E2E2E2E2E2E2E2E2E2E2E2E2E2E2E2E2E2E2E2E2E2E2E2E2E2E2E2E2E2E2E2E2E2E2E2E2E2E2E2E2E2E2E2E2E2E2E2E2E2E2E2E2E2E2E2E2E2E2E2E2E2E2E2E2E2E2E2E2E2E2E2E2E2E2E2E2E2E2E2E2E2E2E2E2E2E2E2E2E2E2E2E2E2
310
E2E2E2E2E2E2E2E2E2E2E2E2E2E2E2E2E2E2E2E2E2E2E2E2E2E2E2E2E2E2E2E2E2E2E2F5E2E2E2E2E2E2E2E2E2E2E2E2E2E2E2E2F5E2E2E2F5F5E2E2E2F5E2E2E2E2E2E2E2E2E2E2E2E2E2E2E2E2F5E2E2E2E2E2E2E2E2E2E2E2E2E2E2E2E2E2E2E2E2E2E2E2E2E2E2E2E2E2E2E2E2E2E2E2E2E2E2E2E2E2E2E2E2E2E2E2E2
310
E2E2E2E2E2E2E2E2E2E2E2E2E2E2E2E2E2E2E2E2E2E2E2E2E2E2E2E2E2E2E2E2E2E2E2E2E2E2E2E2E2E2E2E2E2E2E2E2E2E2E2E2E2E2E2E2E2E2E2E2E2E2E2E2E2E2E2E2E2E2E2E2E2E2E2E2E2E2E2E2E2E2E2E2E2E2E2E2F5E2E2E2E2E2E2E2E2E2E2E2E2E2E2E2E2F5E2E2E2F5F5E2E2E2F5E2E2E2E2E2E2E2E2E2E2E2E2
310
E2E2E2E2F5E2E2E2E2E2E2E2E2E2E2E2E2E2E2E2E2E2E2E2E2E2E2E2E2E2E2E2E2E2E2E2E2E2E2E2E2E2E2E2E2E2E2E2E2E2E2E2E2E2E2E2E2E2E2E2E2E2E2E2E2E2E2E2E2E2E2E2E2E2E2E2E2E2E2E2E2E2E2E2E2E2E2E2E2E2E2E2E2E2E2E2E2E2E2E2E2E2E2E2E2E2E2E2E2E2E2E2E2E2E2E2E2E2E2E2E2E2E2E2E2E2E2
310
E2E2E2E2E2E2E2E2E2E2E2E2E2E2F5E2E2E2E2E2E2E2E2E2E2E2E2E2E2E2E2F5E2E2E2F5F5E2E2E2F5E2E2E2E2E2E2E2E2E2E2E2E2E2E2E2E2F5E2E2E2E2E2E2E2E2E2E2E2E2E2E2E2E2E2E2E2E2E2E2E2E2E2E2E2E2E2E2E2E2E2E2E2E2E2E2E2E2E2E2E2E2E2E2E2E2E2E2E2E2E2E2E2E2E2E2E2E2E2E2E2E2E2E2E2E2E2
310
E2E2E2E2E2E2E2E2E2E2E2E2E2E2E2E2E2E2E2E2E2E2E2E2E2E2E2E2E2E2E2E2E2E2E2E2E2E2E2E2E2E2E2E2E2E2E2E2E2E2E2E2E2E2E2E2E2E2E2E2E2E2E2E2E2E2E2F5E2E2E2E2E2E2E2E2E2E2E2E2E2E2E2E2F5E2E2E2F5F5E2E2E2F5E2E2E2E2E2E2E2E2E2E2E2E2E2E2E2E2F5E2E2E2E2E2E2E2E2E2E2E2E2E2E2E2E2
310
E2E2E2E2E2E2E2E2E2E2E2E2E2E2E2E2E2E2E2E2E2E2E2E2E2E2E2E2E2E2E2E2E2E2E2E2E2E2E2E2E2E2E2E2E2E2E2E2E2E2E2E2E2E2E2E2E2E2E2E2E2E2E2E2E2E2E2E2E2E2E2E2E2E2E2E2E2E2E2E2E2E2E2E2E2E2E2E2E2E2E2E2E2E2E2E2E2E2E2E2E2E2E2E2E2E2E2E2E2E2E2E2E2E2E2E2E2E2E2E2F5E2E2E2E2E2E2
310
E2E2E2E2E2E2E2E2E2E2F5E2E2E2F5F5E2E2E2F5E2E2E2E2E2E2E2E2E2E2E2E2E2E2E2E2F5E2E2E2E2E2E2E2E2E2E2E2E2E2E2E2E2E2E2E2E2E2E2E2E2E2E2E2E2E2E2E2E2E2E2E2E2E2E2E2E2E2E2E2E2E2E2E2E2E2E2E2E2E2E2E2E2E2E2E2E2E2E2E2E2E2E2E2E2E2E2E2E2E2E2E2E2E2E2E2E2E2E2E2E2E2E2E2E2E2E2
310
E2E2E2E2E2E2E2E2E2E2E2E2E2E2E2E2E2E2E2E2E2E2E2E2E2E2E2E2E2E2E2E2E2E2E2E2E2E2E2E2E2E2E2E2E2E2F5E2E2E2E2E2E2E2E2E2E2E2E2E2E2E2E2F5E2E2E2F5F5E2E2E2F5E2E2E2E2E2E2E2E2E2E2E2E2E2E2E2E2F5E2E2E2E2E2E2E2E2E2E2E2E2E2E2E2E2E2E2E2E2E2E2E2E2E2E2E2E2E2E2E2E2E2E2E2E2E2
310
E2E2E2E2E2E2E2E2E2E2E2E2E2E2E2E2E2E2E2E2E2E2E2E2E2E2E2E2E2E2E2E2E2E2E2E2E2E2E2E2E2E2E2E2E2E2E2E2E2E2E2E2E2E2E2E2E2E2E2E2E2E2E2E2E2E2E2E2E2E2E2E2E2E2E2E2E2E2E2E2E2E2E2E2E2E2E2E2E2E2E2E2E2E2E2E2E2E2E2F5E2E2E2E2E2E2E2E2E2E2E2E2E2E2E2E2F5E2E2E2F5F5E2E2E2F5E2
310
E2E2E2E2E2E2E2E2E2E2E2E2E2E2E2F5E2E2E2E2E2E2E2E2E2E2E2E2E2E2E2E2E2E2E2E2E2E2E2E2E2E2E2E2E2E2E2E2E2E2E2E2E2E2E2E2E2E2E2E2E2E2E2E2E2E2E2E2E2E2E2E2E2E2E2E2E2E2E2E2E2E2E2E2E2E2E2E2E2E2E2E2E2E2E2E2E2E2E2E2E2E2E2E2E2E2E2E2E2E2E2E2E2E2E2E2E2E2E2E2E2E2E2E2E2E2E2
310
E2E2E2E2E2E2E2E2E2E2E2E2E2E2E2E2E2E2E2E2E2E2E2E2E2F5E2E2E2E2E2E2E2E2E2E2E2E2E2E2E2E2F5E2E2E2F5F5E2E2E2F5E2E2E2E2E2E2E2E2E2E2E2E2E2E2E2E2F5E2E2E2E2E2E2E2E2E2E2E2E2E2E2E2E2E2E2E2E2E2E2E2E2E2E2E2E2E2E2E2E2E2E2E2E2E2E2E2E2E2E2E2E2E2E2E2E2E2E2E2E2E2E2E2E2E2E2
310
E2E2E2E2E2E2E2E2E2E2E2E2E2E2E2E2E2E2E2E2E2E2E2E2E2E2E2E2E2E2E2E2E2E2E2E2E2E2E2E2E2E2E2E2E2E2E2E2E2E2E2E2E2E2E2E2E2E2E2E2E2E2E2E2E2E2E2E2E2E2E2E2E2E2E2E2E2E2F5E2E2E2E2E2E2E2E2E2E2E2E2E2E2E2E2F5E2E2E2F5F5E2E2E2F5E2E2E2E2E2E2E2E2E2E2E2E2E2E2E2E2F5E2E2E2E2E2
310
E2E2E2E2E2E2E2E2E2E2E2E2E2E2E2E2E2E2E2E2E2E2E2E2E2E2E2E2E2E2E2E2E2E2E2E2E2E2E2E2E2E2E2E2E2E2E2E2E2E2E2E2E2E2E2E2E2E2E2E2E2E2E2E2E2E2E2E2E2E2E2E2E2E2E2E2E2E2E2E2E2E2E2E2E2E2E2E2E2E2E2E2E2E2E2E2E2E2E2E2E2E2E2E2E2E2E2E2E2E2E2E2E2E2E2E2E2E2E2E2E2E2E2E2E2E2E2
310
E2E2E2E2F5E2E2E2E2E2E2E2E2E2E2E2E2E2E2E2E2F5E2E2E2F5F5E2E2E2E2E2E2E2E2E2E2E2E2E2E2E2E2E2E2E2E2F5E2E2E2E2E2E2E2E2E2E2E2E2E2E2E2E2E2E2E2E2E2E2E2E2E2E2E2E2E2E2E2E2E2E2E2E2E2E2E2E2E2E2E2E2E2E2E2E2E2E2E2E2E2E2E2E2E2E2E2E2E2E2E2E2E2E2E2E2E2E2E2E2E2E2E2E2E2E2E2
310
E2E2E2E2E2E2E2E2E2E2E2E2E2E2E2E2E2E2E2E2E2E2E2E2E2E2E2E2E2E2E2E2E2E2E2E2E2E2E2E2E2E2E2E2E2E2E2E2E2E2E2E2E2E2E2E2E2F5E2E2E2E2E2E2E2E2E2E2E2E2E2E2E2E2E2E2E2E2F5F5E2E2E2E2E2E2E2E2E2E2E2E2E2E2E2E2E2E2E2E2F5E2E2E2E2E2E2E2E2E2E2E2E2E2E2E2E2E2E2E2E2E2E2E2E2E2E2
310
E2E2E2E2E2E2E2E2E2E2E2E2E2E2E2E2E2E2E2E2E2E2E2E2E2E2E2E2E2E2E2E2E2E2E2E2E2E2E2E2E2E2E2E2E2E2E2E2E2E2E2E2E2E2E2E2E2E2E2E2E2E2E2E2E2E2E2E2E2E2E2E2E2E2E2E2E2E2E2E2E2E2E2E2E2E2E2E2E2E2E2E2E2E2E2E2E2E2E2E2E2E2E2E2E2E2E2E2E2E2F5E2E2E2E2E2E2E2E2E2E2E2E2E2E2E2E2
310
E2E2E2E2F5F5E2E2E2E2E2E2E2E2E2E2E2E2E2E2E2E2E2E2E2E2F5E2E2E2E2E2E2E2E2E2E2E2E2E2E2E2E2E2E2E2E2E2E2E2E2E2E2E2E2E2E2E2E2E2E2E2E2E2E2E2E2E2E2E2E2E2E2E2E2E2E2E2E2E2E2E2E2E2E2E2E2E2E2E2E2E2E2E2E2E2E2E2E2E2E2E2E2E2E2E2E2E2E2E2E2E2E2E2E2E2E2E2E2E2E2E2E2E2E2E2E2
310
E2E2E2E2E2E2E2E2E2E2E2E2E2E2E2E2E2E2E2E2E2E2E2E2E2E2E2E2E2E2E2E2E2E2E2E2F5E2E2E2E2E2E2E2E2E2E2E2E2E2E2E2E2E2E2E2E2F5F5E2E2E2E2E2E2E2E2E2E2E2E2E2E2E2E2E2E2E2E2F5E2E2E2E2E2E2E2E2E2E2E2E2E2E2E2E2E2E2E2E2E2E2E2E2E2E2E2E2E2E2E2E2E2E2E2E2E2E2E2E2E2E2E2E2E2E2E2
310
E2E2E2E2E2E2E2E2E2E2E2E2E2E2E2E2E2E2E2E2E2E2E2E2E2E2E2E2E2E2E2E2E2E2E2E2E2E2E2E2E2E2E2E2E2E2E2E2E2E2E2E2E2E2E2E2E2E2E2E2E2E2E2E2E2E2E2E2E2E2E2E2E2E2E2E2E2E2E2E2E2E2E2E2E2E2E2E2E2F5E2E2E2E2E2E2E2E2E2E2E2E2E2E2E2E2E2E2E2E2F5F5E2E2E2E2E2E2E2E2E2E2E2E2E2E2E2
310
E2E2E2E2E2F5F5F5F5F5F5F5F5F5F5F5F5F5F5F5F5F5F5F5F5F5F5F5F5F5F5F5F5F5F5F5F5F5F5F5F5F5F5F5F5F5F5F5F5F5F5F5F5F5F5F5F5F5F5F5F5F5F5F5F5F5F5F5F5F5F5F5F5F5F5F5F5F5F5F5F5F5F5F5F5F5F5F5F5F5F5F5F5F5F5F5F5F5F5F5F5F5F5F5F5F5F5F5F5F5F5F5F5F5F5F5F5F5F5F5F5F5F5F5F5F5F5
310
F5F5F5F5F5F5F5F5F5F5F5F5F5F5F5F5E2E2E2E2E2E2E2E2E2E2E2E2E2E2E2E2E2E2E2E2F5F5E2E2E2E2E2E2E2E2E2E2E2E2E2E2E2E2E2E2E2E2E2E2E2E2E2E2E2E2E2E2E2E2E2E2E2E2E2E2E2E2E2E2E2E2E2E2E2E2E2E2E2E2E2E2E2E2E2E2E2E2E2E2E2E2E2E2E2E2E2E2E2E2E2E2E2E2E2E2E2E2E2E2E2E2E2E2E2E2E2
310
E2E2E2E2E2E2E2E2E2E2E2E2E2E2E2E2E2E2E2E2E2E2E2E2E2E2E2E2E2E2E2E2E2E2E2E2E2E2E2E2E2E2E2E2E2E2E2E2E2E2E2E2E2E2E2E2E2E2E2E2E2E2E2E2E2E2E2E2E2E2E2E2E2E2E2E2E2E2E2E2E2E2E2E2E2E2E2E2E2F5F5E2E2E2E2E2E2E2E2E2E2E2E2E2E2E2E2E2E2E2E2E2E2E2E2E2E2E2E2E2E2E2E2E2E2E2E2
310
E2E2E2E2E2E2E2E2E2E2E2E2E2E2E2E2E2E2E2E2E2E2E2E2E2E2E2E2E2E2E2E2E2E2E2E2E2E2E2E2E2E2E2E2E2E2E2E2E2E2E2E2E2E2E2E2E2E2E2E2E2E2E2E2E2E2E2E2E2E2E2E2E2E2E2E2E2E2E2E2E2E2E2E2E2E2E2E2E2E2E2E2E2E2E2E2E2E2E2E2E2E2E2E2E2E2E2E2E2E2E2E2E2E2E2E2E2E2E2E2E2E2E2E2E2E2E2
310
E2E2E2E2E2E2E2E2E2E2E2E2E2E2E2F5F5E2E2E2E2E2E2E2E2E2E2E2E2E2E2E2E2E2E2E2E2E2E2E2E2E2E2E2E2E2E2E2E2E2E2E2E2E2E2E2E2E2E2E2E2E2E2E2E2E2E2E2E2E2E2E2E2E2E2E2E2E2E2E2E2E2E2E2E2E2E2E2E2E2E2E2E2E2E2E2E2E2E2E2E2E2E2E2E2E2E2E2E2E2E2E2E2E2E2E2E2E2E2E2E2E2E2E2E2E2E2
310
E2E2E2E2E2E2E2E2E2E2E2E2E2E2E2E2E2E2E2E2E2E2E2E2E2E2E2E2E2E2E2E2E2E2E2E2E2E2E2E2E2E2E2E2E2E2E2E2E2E2E2E2E2E2E2E2E2E2E2E2E2E2E2E2E2E2E2E2F5F5E2E2E2E2E2E2E2E2E2E2E2E2E2E2E2E2E2E2E2E2E2E2E2E2E2E2E2E2E2E2E2E2E2E2E2E2E2E2E2E2E2E2E2E2E2E2E2E2E2E2E2E2E2E2E2E2E2
310
E2E2E2E2E2E2E2E2E2E2E2E2E2E2E2E2E2E2E2E2E2E2E2E2E2E2E2E2E2E2E2E2E2E2E2E2E2E2E2E2E2E2E2E2E2E2E2E2E2E2E2E2E2E2E2E2E2E2E2E2E2E2E2E2E2E2E2E2E2E2E2E2E2E2E2E2E2E2E2E2E2E2E2E2E2E2E2E2E2E2E2E2E2E2E2E2E2E2E2E2E2E2E2E2E2E2E2E2E2E2E2E2E2E2E2E2E2E2E2E2E2F5F5E2E2E2F5
310
E2E2E2E2E2E2E2E2E2E2E2E2E2E2E2E2E2E2E2E2E2E2E2E2E2E2E2E2E2E2E2E2E2E2E2E2E2E2E2E2E2E2E2E2E2E2E2E2E2E2E2E2E2E2E2E2E2E2E2E2E2E2E2E2E2E2E2E2E2E2E2E2E2E2E2E2E2E2E2E2E2E2E2E2E2E2E2E2E2E2E2E2E2E2E2E2E2E2E2E2E2E2E2E2E2E2E2E2E2E2E2E2E2E2E2E2E2E2E2E2E2E2E2E2E2E2E2
310
E2E2E2E2E2E2E2E2E2E2E2E2E2E2E2E2E2E2E2E2E2E2E2E2E2E2E2E2E2E2E2E2E2E2E2E2E2E2E2E2E2E2E2F5E2E2E2F5F5E2E2E2F5E2E2E2E2E2E2E2E2E2E2E2E2E2E2E2E2E2E2E2E2E2E2E2E2E2E2E2E2E2E2E2E2E2E2E2E2E2E2E2E2E2E2E2E2E2E2E2E2E2E2E2E2E2E2E2E2E2E2E2E2E2E2E2E2E2E2E2E2E2E2E2E2E2E2
310
E2E2E2E2E2E2E2E2E2E2E2E2E2E2E2E2E2E2E2E2E2E2E2E2E2E2E2E2E2E2E2E2E2E2E2E2E2E2E2E2E2E2E2E2E2E2E2E2E2E2E2E2E2E2E2E2E2E2E2E2E2E2E2E2E2E2E2E2E2E2E2E2E2E2E2E2E2E2E2E2E2E2E2E2E2E2E2E2E2E2E2E2E2E2E2E2F5E2E2E2F5F5E2E2E2F5E2E2E2E2E2E2E2E2E2E2E2E2E2E2E2E2E2E2E2E2E2
310
E2E2E2E2E2E2E2E2E2E2E2E2E2E2E2E2E2E2E2E2E2E2E2E2E2E2E2E2E2E2E2E2E2E2E2E2E2E2E2E2E2E2E2E2E2E2E2E2E2E2E2E2E2E2E2E2E2E2E2E2E2E2E2E2E2E2E2E2E2E2E2E2E2E2E2E2E2E2E2E2E2E2E2E2E2E2E2E2E2E2E2E2E2E2E2E2E2E2E2E2E2E2E2E2E2E2E2E2E2E2E2E2E2E2E2E2E2E2E2E2E2E2E2E2E2E2E2
310
E2E2E2E2E2E2E2E2E2E2E2E2E2E2E2E2E2E2E2E2E2E2F5E2E2E2F5F5E2E2E2F5E2E2E2E2E2E2E2E2E2E2E2E2E2E2E2E2E2E2E2E2E2E2E2E2E2E2E2E2E2E2E2E2E2E2E2E2E2E2E2E2E2E2E2E2E2E2E2E2E2E2E2E2E2E2E2E2E2E2E2E2E2E2E2E2E2E2E2E2E2E2E2E2E2E2E2E2E2E2E2E2E2E2E2E2E2E2E2E2E2E2E2E2E2E2E2
310
E2E2E2E2E2E2E2E2E2E2E2E2E2E2E2E2E2E2E2E2E2E2E2E2E2E2E2E2E2E2E2E2E2E2E2E2E2E2E2E2E2E2E2E2E2E2E2E2E2E2E2E2E2E2E2E2E2E2E2E2E2E2E2E2E2E2E2E2E2E2E2E2E2E2E2F5E2E2E2F5F5E2E2E2F5E2E2E2E2E2E2E2E2E2E2E2E2E2E2E2E2E2E2E2E2E2E2E2E2E2E2E2E2E2E2E2E2E2E2E2E2E2E2E2E2E2E2
310
E2E2E2E2E2E2E2E2E2E2E2E2E2E2E2E2E2E2E2E2E2E2E2E2E2E2E2E2E2E2E2E2E2E2E2E2E2E2E2E2E2E2E2E2E2E2E2E2E2E2E2E2E2E2E2E2E2E2E2E2E2E2E2E2E2E2E2E2E2E2E2E2E2E2E2E2E2E2E2E2E2E2E2E2E2E2E2E2E2E2E2E2E2E2E2E2E2E2E2E2E2E2E2E2E2E2E2E2E2E2E2E2E2E2E2E2E2E2E2E2E2E2E2E2E2E2E2
310
E2F5E2E2E2F5F5E2E2E2F5E2E2E2E2E2E2E2E2E2E2E2E2E2E2E2E2E2E2E2E2E2E2E2E2E2E2E2E2E2E2E2E2E2E2E2E2E2E2E2E2E2E2E2E2E2E2E2E2E2E2E2E2E2E2E2E2E2E2E2E2E2E2E2E2E2E2E2E2E2E2E2E2E2E2E2E2E2E2E2E2E2E2E2E2E2E2E2E2E2E2E2E2E2E2E2E2E2E2E2E2E2E2E2E2E2E2E2E2E2E2E2E2E2E2E2E2
310
E2E2E2E2E2E2E2E2E2E2E2E2E2E2E2E2E2E2E2E2E2E2E2E2E2E2E2E2E2E2E2E2E2E2E2E2E2E2E2E2E2E2E2E2E2E2E2E2E2E2E2E2E2E2F5E2E2E2F5F5E2E2E2F5E2E2E2E2E2E2E2E2E2E2E2E2E2E2E2E2E2E2E2E2E2E2E2E2E2E2E2E2E2E2E2E2E2E2E2E2E2E2E2E2E2E2E2E2E2E2E2E2E2E2E2E2E2E2E2E2E2E2E2E2E2E2E2
310
E2E2E2E2E2E2E2E2E2E2E2E2E2E2E2E2E2E2E2E2E2E2E2E2E2E2E2E2E2E2E2E2E2E2E2E2E2E2E2E2E2E2E2E2E2E2E2E2E2E2E2E2E2E2E2E2E2E2E2E2E2E2E2E2E2E2E2E2E2E2E2E2E2E2E2E2E2E2E2E2E2E2E2E2E2E2E2E2E2E2E2E2E2E2E2E2E2E2E2E2E2E2E2E2E2E2E2F5E2E2E2F5F5E2E2E2F5E2E2E2E2E2E2E2E2E2E2
310
E2E2E2E2E2E2E2E2E2E2E2E2E2E2E2E2E2E2E2E2E2E2E2E2E2E2E2E2E2E2E2E2E2E2E2E2E2E2E2E2E2E2E2E2E2E2E2E2E2E2E2E2E2E2E2E2E2E2E2E2E2E2E2E2E2E2E2E2E2E2E2E2E2E2E2E2E2E2E2E2E2E2E2E2E2E2E2E2E2E2E2E2E2E2E2E2E2E2E2E2E2E2E2E2E2E2E2E2E2E2E2E2E2E2E2E2E2E2E2E2E2E2E2E2E2E2E2
310
E2E2E2E2E2E2E2E2E2E2E2E2E2E2E2E2E2E2E2E2E2E2E2E2E2E2E2E2E2E2E2E2E2F5E2E2E2F5F5E2E2E2F5F5F5F5F5F5F5F5E2E2E2E2E2E2E2E2E2F5F5F5F5F5F5F5F5F5F5F5F5F5F5F5F5E2E2E2E2E2E2E2E2E2F5F5F5F5F5F5F5F5F5F5F5F5F5F5F5E2E2E2E2E2E2E2E2E2F5F5F5F5F5F5F5F5F5F5F5F5F5F5F5F5E2E2E2
310
E2E2E2E2E2F5F5F5F5F5F5F5F5F5F5F5F5F5F5F5F5E2E2E2E2E2E2E2E2E2F5F5F5F5F5F5F5F5F5F5F5F5F5F5F5E2E2E2E2E2E2E2E2E2F5F5F5F5F5F5F5F5F5F5F5F5F5F5F5F5E2E2E2E2E2E2E2E2E2F5F5F5F5F5F5F5F5E2E2E2F5F5E2E2E2E2E2E2E2E2E2E2E2E2E2E2E2E2E2E2E2E2E2E2E2E2E2E2E2E2E2E2E2E2E2E2E2
310
E2E2E2E2E2E2E2E2E2E2E2E2E2E2E2E2E2E2E2E2E2E2E2E2E2E2E2E2E2E2E2E2E2E2E2E2E2E2E2E2E2E2E2E2E2E2E2E2E2E2E2E2E2E2E2E2E2E2E2E2E2E2E2E2E2E2E2E2E2E2E2E2E2E2E2E2E2E2E2E2E2E2E2E2E2E2E2E2E2E2E2E2E2E2E2E2E2E2E2E2E2E2E2E2E2E2E2E2E2E2E2E2E2E2E2E2E2E2E2E2E2E2E2E2E2E2E2
310
E2E2E2E2E2E2E2E2E2E2E2E2E2E2E2E2F5F5E2E2E2E2E2E2E2E2E2E2E2E2E2E2E2E2E2E2E2E2E2E2E2E2E2E2E2E2E2E2E2E2E2E2E2E2E2E2E2E2E2E2E2E2E2E2E2E2E2E2E2E2E2E2E2E2E2E2E2E2E2E2E2E2E2E2E2E2E2E2E2E2E2E2E2E2E2E2E2E2E2E2E2E2E2E2E2E2E2E2E2E2E2E2E2E2E2E2E2E2E2E2E2E2E2E2E2E2E2
310
E2E2E2E2E2E2E2E2E2E2E2E2E2E2E2E2E2E2E2E2E2E2E2E2E2E2E2E2E2E2E2E2E2E2E2E2E2E2E2E2E2E2E2E2E2E2E2E2E2E2E2E2E2E2E2E2E2E2E2E2E2E2E2E2E2E2E2E2E2F5F5E2E2E2E2E2E2E2E2E2E2E2E2E2E2E2E2E2E2E2E2E2E2E2E2E2E2E2E2E2E2E2E2E2E2E2E2E2E2E2E2E2E2E2E2E2E2E2E2E2E2E2E2E2E2E2E2
310
E2E2E2E2E2E2E2E2E2E2E2E2E2E2E2E2E2E2E2E2E2E2E2E2E2E2E2E2E2E2E2E2E2E2E2E2E2E2E2E2E2E2E2E2E2E2E2E2E2E2E2E2E2E2E2E2E2E2E2E2E2E2E2E2E2E2E2E2E2E2E2E2E2E2E2E2E2E2E2E2E2E2E2E2E2E2E2E2E2E2E2E2E2E2E2E2E2E2E2E2E2E2E2E2E2E2E2E2E2E2E2E2E2E2E2E2E2E2E2E2E2E2F5F5E2E2E2
310
E2E2E2E2E2E2E2E2E2E2E2E2E2E2E2E2E2E2E2E2E2E2E2E2E2E2E2E2E2E2E2E2E2E2E2E2E2E2E2E2E2E2E2E2E2E2E2E2E2E2E2E2E2E2E2E2E2E2E2E2E2E2E2E2E2E2E2E2E2E2E2E2E2E2E2E2E2E2E2E2E2E2E2E2E2E2E2E2E2E2E2E2E2E2E2E2E2E2E2E2E2E2E2E2E2E2E2E2E2E2E2E2E2E2E2E2E2E2E2E2E2E2E2E2E2E2E2
310
E2E2E2E2E2E2E2E2E2E2E2E2E2E2E2E2E2E2E2E2E2E2E2E2E2E2E2E2E2E2E2E2E2E2E2E2E2E2E2E2E2E2E2E2E2E2E2E2F5
  0
XRECORD
  5
640B7
102
{ACAD_REACTORS
330
640B6
102
}
330
640B6
100
AcDbXrecord
280
     1
102
SHADEPLOT
 70
     0
102
SHADEPLOTRESLEVEL
 70
     2
102
SHADEPLOTCUSTOMDPI
 70
   300
  0
ENDSEC
  0
EOF
