  0
SECTION
  2
HEADER
  9
$ACADVER
  1
AC1015
  9
$ACADMAINTVER
 70
    20
  9
$DWGCODEPAGE
  3
ANSI_936
  9
$INSBASE
 10
0.0
 20
0.0
 30
0.0
  9
$EXTMIN
 10
-41.9271850117
 20
-73.61930702480481
 30
0.0
  9
$EXTMAX
 10
399.8557300492828
 20
106.4462060379446
 30
0.0
  9
$LIMMIN
 10
0.0
 20
0.0
  9
$LIMMAX
 10
420.0
 20
297.0
  9
$ORTHOMODE
 70
     0
  9
$REGENMODE
 70
     1
  9
$FILLMODE
 70
     1
  9
$QTEXTMODE
 70
     0
  9
$MIRRTEXT
 70
     1
  9
$LTSCALE
 40
1.0
  9
$ATTMODE
 70
     1
  9
$TEXTSIZE
 40
3.5
  9
$TRACEWID
 40
1.0
  9
$TEXTSTYLE
  7
simplex
  9
$CLAYER
  8
0
  9
$CELTYPE
  6
ByLayer
  9
$CECOLOR
 62
   256
  9
$CELTSCALE
 40
1.0
  9
$DISPSILH
 70
     0
  9
$DIMSCALE
 40
0.0
  9
$DIMASZ
 40
3.5
  9
$DIMEXO
 40
0.0
  9
$DIMDLI
 40
0.38
  9
$DIMRND
 40
0.0
  9
$DIMDLE
 40
0.0
  9
$DIMEXE
 40
1.5
  9
$DIMTP
 40
0.0
  9
$DIMTM
 40
0.0
  9
$DIMTXT
 40
3.5
  9
$DIMCEN
 40
0.09
  9
$DIMTSZ
 40
0.0
  9
$DIMTOL
 70
     0
  9
$DIMLIM
 70
     0
  9
$DIMTIH
 70
     0
  9
$DIMTOH
 70
     0
  9
$DIMSE1
 70
     0
  9
$DIMSE2
 70
     0
  9
$DIMTAD
 70
     1
  9
$DIMZIN
 70
     8
  9
$DIMBLK
  1

  9
$DIMASO
 70
     1
  9
$DIMSHO
 70
     1
  9
$DIMPOST
  1

  9
$DIMAPOST
  1

  9
$DIMALT
 70
     0
  9
$DIMALTD
 70
     2
  9
$DIMALTF
 40
25.4
  9
$DIMLFAC
 40
1.0
  9
$DIMTOFL
 70
     0
  9
$DIMTVP
 40
0.0
  9
$DIMTIX
 70
     0
  9
$DIMSOXD
 70
     0
  9
$DIMSAH
 70
     0
  9
$DIMBLK1
  1

  9
$DIMBLK2
  1

  9
$DIMSTYLE
  2
\M+18352\M+18373\M+1815B - ISO-25
  9
$DIMCLRD
 70
   256
  9
$DIMCLRE
 70
   256
  9
$DIMCLRT
 70
   256
  9
$DIMTFAC
 40
1.0
  9
$DIMGAP
 40
2.299999999999998
  9
$DIMJUST
 70
     0
  9
$DIMSD1
 70
     0
  9
$DIMSD2
 70
     0
  9
$DIMTOLJ
 70
     1
  9
$DIMTZIN
 70
     8
  9
$DIMALTZ
 70
     0
  9
$DIMALTTZ
 70
     0
  9
$DIMUPT
 70
     0
  9
$DIMDEC
 70
     2
  9
$DIMTDEC
 70
     2
  9
$DIMALTU
 70
     2
  9
$DIMALTTD
 70
     2
  9
$DIMTXSTY
  7
simplex
  9
$DIMAUNIT
 70
     0
  9
$DIMADEC
 70
     0
  9
$DIMALTRND
 40
0.0
  9
$DIMAZIN
 70
     0
  9
$DIMDSEP
 70
    46
  9
$DIMATFIT
 70
     3
  9
$DIMFRAC
 70
     0
  9
$DIMLDRBLK
  1

  9
$DIMLUNIT
 70
     2
  9
$DIMLWD
 70
    -1
  9
$DIMLWE
 70
    -1
  9
$DIMTMOVE
 70
     0
  9
$LUNITS
 70
     2
  9
$LUPREC
 70
     4
  9
$SKETCHINC
 40
1.0
  9
$FILLETRAD
 40
0.8
  9
$AUNITS
 70
     0
  9
$AUPREC
 70
     0
  9
$MENU
  1
.
  9
$ELEVATION
 40
0.0
  9
$PELEVATION
 40
0.0
  9
$THICKNESS
 40
0.0
  9
$LIMCHECK
 70
     0
  9
$CHAMFERA
 40
10.0
  9
$CHAMFERB
 40
10.0
  9
$CHAMFERC
 40
20.0
  9
$CHAMFERD
 40
0.0
  9
$SKPOLY
 70
     0
  9
$TDCREATE
 40
2455489.391063368
  9
$TDUCREATE
 40
2455489.057730035
  9
$TDUPDATE
 40
2458543.755231053
  9
$TDUUPDATE
 40
2458543.421897720
  9
$TDINDWG
 40
2.3779082639
  9
$TDUSRTIMER
 40
2.3778526273
  9
$USRTIMER
 70
     1
  9
$ANGBASE
 50
0.0
  9
$ANGDIR
 70
     0
  9
$PDMODE
 70
     0
  9
$PDSIZE
 40
0.0
  9
$PLINEWID
 40
0.0
  9
$SPLFRAME
 70
     0
  9
$SPLINETYPE
 70
     6
  9
$SPLINESEGS
 70
     8
  9
$HANDSEED
  5
64808
  9
$SURFTAB1
 70
     6
  9
$SURFTAB2
 70
     6
  9
$SURFTYPE
 70
     6
  9
$SURFU
 70
     6
  9
$SURFV
 70
     6
  9
$UCSBASE
  2

  9
$UCSNAME
  2

  9
$UCSORG
 10
0.0
 20
0.0
 30
0.0
  9
$UCSXDIR
 10
1.0
 20
0.0
 30
0.0
  9
$UCSYDIR
 10
0.0
 20
1.0
 30
0.0
  9
$UCSORTHOREF
  2

  9
$UCSORTHOVIEW
 70
     0
  9
$UCSORGTOP
 10
0.0
 20
0.0
 30
0.0
  9
$UCSORGBOTTOM
 10
0.0
 20
0.0
 30
0.0
  9
$UCSORGLEFT
 10
0.0
 20
0.0
 30
0.0
  9
$UCSORGRIGHT
 10
0.0
 20
0.0
 30
0.0
  9
$UCSORGFRONT
 10
0.0
 20
0.0
 30
0.0
  9
$UCSORGBACK
 10
0.0
 20
0.0
 30
0.0
  9
$PUCSBASE
  2

  9
$PUCSNAME
  2

  9
$PUCSORG
 10
0.0
 20
0.0
 30
0.0
  9
$PUCSXDIR
 10
1.0
 20
0.0
 30
0.0
  9
$PUCSYDIR
 10
0.0
 20
1.0
 30
0.0
  9
$PUCSORTHOREF
  2

  9
$PUCSORTHOVIEW
 70
     0
  9
$PUCSORGTOP
 10
0.0
 20
0.0
 30
0.0
  9
$PUCSORGBOTTOM
 10
0.0
 20
0.0
 30
0.0
  9
$PUCSORGLEFT
 10
0.0
 20
0.0
 30
0.0
  9
$PUCSORGRIGHT
 10
0.0
 20
0.0
 30
0.0
  9
$PUCSORGFRONT
 10
0.0
 20
0.0
 30
0.0
  9
$PUCSORGBACK
 10
0.0
 20
0.0
 30
0.0
  9
$USERI1
 70
     0
  9
$USERI2
 70
     0
  9
$USERI3
 70
     0
  9
$USERI4
 70
     0
  9
$USERI5
 70
     0
  9
$USERR1
 40
0.0
  9
$USERR2
 40
0.0
  9
$USERR3
 40
0.0
  9
$USERR4
 40
0.0
  9
$USERR5
 40
0.0
  9
$WORLDVIEW
 70
     1
  9
$SHADEDGE
 70
     3
  9
$SHADEDIF
 70
    70
  9
$TILEMODE
 70
     1
  9
$MAXACTVP
 70
    64
  9
$PINSBASE
 10
0.0
 20
0.0
 30
0.0
  9
$PLIMCHECK
 70
     0
  9
$PEXTMIN
 10
26.66999878883364
 20
20.31999878883365
 30
0.0
  9
$PEXTMAX
 10
240.0299890995025
 20
182.8799890995025
 30
0.0
  9
$PLIMMIN
 10
-6.350006103515625
 20
-6.349999904632567
  9
$PLIMMAX
 10
273.0499877929688
 20
209.5499939918518
  9
$UNITMODE
 70
     0
  9
$VISRETAIN
 70
     1
  9
$PLINEGEN
 70
     0
  9
$PSLTSCALE
 70
     1
  9
$TREEDEPTH
 70
  3020
  9
$CMLSTYLE
  2
Standard
  9
$CMLJUST
 70
     0
  9
$CMLSCALE
 40
20.0
  9
$PROXYGRAPHICS
 70
     1
  9
$MEASUREMENT
 70
     1
  9
$CELWEIGHT
370
    -1
  9
$ENDCAPS
280
     0
  9
$JOINSTYLE
280
     0
  9
$LWDISPLAY
290
     0
  9
$INSUNITS
 70
     4
  9
$HYPERLINKBASE
  1

  9
$STYLESHEET
  1

  9
$XEDIT
290
     1
  9
$CEPSNTYPE
380
     0
  9
$PSTYLEMODE
290
     1
  9
$FINGERPRINTGUID
  2
{601DDA01-5B13-4A4C-8F56-1333B78D855B}
  9
$VERSIONGUID
  2
{0DC8BC98-64F6-4581-B673-F4E9D7B420EF}
  9
$EXTNAMES
290
     1
  9
$PSVPSCALE
 40
0.0
  9
$OLESTARTUP
290
     0
  0
ENDSEC
  0
SECTION
  2
CLASSES
  0
CLASS
  1
ACDBDICTIONARYWDFLT
  2
AcDbDictionaryWithDefault
  3
ObjectDBX Classes
 90
        0
280
     0
281
     0
  0
CLASS
  1
ACDBPLACEHOLDER
  2
AcDbPlaceHolder
  3
ObjectDBX Classes
 90
        0
280
     0
281
     0
  0
CLASS
  1
LAYOUT
  2
AcDbLayout
  3
ObjectDBX Classes
 90
        0
280
     0
281
     0
  0
CLASS
  1
DICTIONARYVAR
  2
AcDbDictionaryVar
  3
ObjectDBX Classes
 90
        0
280
     0
281
     0
  0
CLASS
  1
TABLESTYLE
  2
AcDbTableStyle
  3
ObjectDBX Classes
 90
     2047
280
     0
281
     0
  0
CLASS
  1
SORTENTSTABLE
  2
AcDbSortentsTable
  3
ObjectDBX Classes
 90
        0
280
     0
281
     0
  0
CLASS
  1
DIMASSOC
  2
AcDbDimAssoc
  3
"AcDbDimAssoc|Product Desc:     AcDim ARX App For Dimension|Company:          Autodesk, Inc.|WEB Address:      www.autodesk.com"
 90
    32768
280
     0
281
     0
  0
CLASS
  1
ACAD_EVALUATION_GRAPH
  2
AcDbEvalGraph
  3
ObjectDBX Classes
 90
    33921
280
     0
281
     0
  0
CLASS
  1
ACAECUSTOBJ
  2
AcAeEditorObj
  3
AcAeEditorObj
 90
    33792
280
     0
281
     0
  0
CLASS
  1
ACDB_DYNAMICBLOCKPURGEPREVENTER_VERSION
  2
AcDbDynamicBlockPurgePreventer
  3
ObjectDBX Classes
 90
    33921
280
     0
281
     0
  0
ENDSEC
  0
SECTION
  2
TABLES
  0
TABLE
  2
VPORT
  5
8
330
0
100
AcDbSymbolTable
 70
     6
  0
VPORT
  5
647F9
330
8
100
AcDbSymbolTableRecord
100
AcDbViewportTableRecord
  2
*Active
 70
     0
 10
0.0
 20
0.0
 11
1.0
 21
1.0
 12
27.06126717285687
 22
-9.021986955883278
 13
0.0
 23
0.0
 14
10.0
 24
10.0
 15
10.0
 25
10.0
 16
0.0
 26
0.0
 36
1.0
 17
0.0
 27
0.0
 37
0.0
 40
293.9357810333184
 41
1.456521739130434
 42
50.0
 43
0.0
 44
0.0
 50
0.0
 51
0.0
 71
     0
 72
  1000
 73
     1
 74
     1
 75
     0
 76
     0
 77
     0
 78
     0
281
     0
 65
     1
110
0.0
120
0.0
130
0.0
111
1.0
121
0.0
131
0.0
112
0.0
122
1.0
132
0.0
 79
     0
146
0.0
  0
ENDTAB
  0
TABLE
  2
LTYPE
  5
5
330
0
100
AcDbSymbolTable
 70
     5
  0
LTYPE
  5
14
330
5
100
AcDbSymbolTableRecord
100
AcDbLinetypeTableRecord
  2
ByBlock
 70
     0
  3

 72
    65
 73
     0
 40
0.0
  0
LTYPE
  5
15
330
5
100
AcDbSymbolTableRecord
100
AcDbLinetypeTableRecord
  2
ByLayer
 70
     0
  3

 72
    65
 73
     0
 40
0.0
  0
LTYPE
  5
16
330
5
100
AcDbSymbolTableRecord
100
AcDbLinetypeTableRecord
  2
Continuous
 70
     0
  3
Solid line
 72
    65
 73
     0
 40
0.0
  0
LTYPE
  5
D7
330
5
100
AcDbSymbolTableRecord
100
AcDbLinetypeTableRecord
  2
HIDDEN
 70
     0
  3
Hidden __ __ __ __ __ __ __ __ __ __ __ __ __ _
 72
    65
 73
     2
 40
9.524999999999996
 49
6.349999999999997
 74
     0
 49
-3.174999999999998
 74
     0
  0
LTYPE
  5
D9
330
5
100
AcDbSymbolTableRecord
100
AcDbLinetypeTableRecord
  2
CENTER
 70
     0
  3
Center ____ _ ____ _ ____ _ ____ _ ____ _ ____
 72
    65
 73
     4
 40
50.8
 49
31.75
 74
     0
 49
-6.349999999999997
 74
     0
 49
6.349999999999997
 74
     0
 49
-6.349999999999997
 74
     0
  0
LTYPE
  5
35815
330
5
100
AcDbSymbolTableRecord
100
AcDbLinetypeTableRecord
  2
PHANTOM
 70
     0
  3
_____ _ _ _____ _ _ _____ _ _ _____
 72
    65
 73
     6
 40
0.8
 49
0.45
 74
     0
 49
-0.05
 74
     0
 49
0.1
 74
     0
 49
-0.05
 74
     0
 49
0.1
 74
     0
 49
-0.05
 74
     0
  0
LTYPE
  5
54773
330
5
100
AcDbSymbolTableRecord
100
AcDbLinetypeTableRecord
  2
CENTER2
 70
     0
  3
Center (.5x) ___ _ ___ _ ___ _ ___ _ ___ _ ___
 72
    65
 73
     4
 40
28.575
 49
19.05
 74
     0
 49
-3.174999999999998
 74
     0
 49
3.174999999999998
 74
     0
 49
-3.174999999999998
 74
     0
  0
ENDTAB
  0
TABLE
  2
LAYER
  5
2
102
{ACAD_XDICTIONARY
360
E2
102
}
330
0
100
AcDbSymbolTable
 70
    14
  0
LAYER
  5
10
330
2
100
AcDbSymbolTableRecord
100
AcDbLayerTableRecord
  2
0
 70
     0
 62
     7
  6
Continuous
370
    -3
390
F
  0
LAYER
  5
D1
330
2
100
AcDbSymbolTableRecord
100
AcDbLayerTableRecord
  2
1
 70
     0
 62
     4
  6
Continuous
370
    50
390
F
1001
AcAecLayerStandard
1000

1000

  0
LAYER
  5
D3
330
2
100
AcDbSymbolTableRecord
100
AcDbLayerTableRecord
  2
2
 70
     0
 62
     7
  6
Continuous
370
    25
390
F
1001
AcAecLayerStandard
1000

1000

  0
LAYER
  5
D4
330
2
100
AcDbSymbolTableRecord
100
AcDbLayerTableRecord
  2
3
 70
     0
 62
     1
  6
HIDDEN
370
    35
390
F
1001
AcAecLayerStandard
1000

1000

  0
LAYER
  5
D8
330
2
100
AcDbSymbolTableRecord
100
AcDbLayerTableRecord
  2
4
 70
     0
 62
     2
  6
CENTER
370
    25
390
F
1001
AcAecLayerStandard
1000

1000

  0
LAYER
  5
DA
330
2
100
AcDbSymbolTableRecord
100
AcDbLayerTableRecord
  2
6
 70
     0
 62
     5
  6
Continuous
370
    35
390
F
1001
AcAecLayerStandard
1000

1000

  0
LAYER
  5
DB
330
2
100
AcDbSymbolTableRecord
100
AcDbLayerTableRecord
  2
cut
 70
     0
 62
     1
  6
Continuous
370
    25
390
F
1001
AcAecLayerStandard
1000

1000

  0
LAYER
  5
DC
330
2
100
AcDbSymbolTableRecord
100
AcDbLayerTableRecord
  2
nocut
 70
     0
 62
     7
  6
Continuous
370
    25
390
F
1001
AcAecLayerStandard
1000

1000

  0
LAYER
  5
DD
330
2
100
AcDbSymbolTableRecord
100
AcDbLayerTableRecord
  2
sk1
 70
     0
 62
     4
  6
Continuous
370
    50
390
F
1001
AcAecLayerStandard
1000

1000

  0
LAYER
  5
DE
330
2
100
AcDbSymbolTableRecord
100
AcDbLayerTableRecord
  2
sk2
 70
     0
 62
     7
  6
Continuous
370
    25
390
F
1001
AcAecLayerStandard
1000

1000

  0
LAYER
  5
DF
330
2
100
AcDbSymbolTableRecord
100
AcDbLayerTableRecord
  2
sk3
 70
     0
 62
     1
  6
HIDDEN
370
    35
390
F
1001
AcAecLayerStandard
1000

1000

  0
LAYER
  5
E0
330
2
100
AcDbSymbolTableRecord
100
AcDbLayerTableRecord
  2
sk4
 70
     0
 62
     2
  6
CENTER
370
    25
390
F
1001
AcAecLayerStandard
1000

1000

  0
LAYER
  5
E1
330
2
100
AcDbSymbolTableRecord
100
AcDbLayerTableRecord
  2
sk6
 70
     0
 62
     5
  6
Continuous
370
    35
390
F
1001
AcAecLayerStandard
1000

1000

  0
LAYER
  5
31B6
330
2
100
AcDbSymbolTableRecord
100
AcDbLayerTableRecord
  2
Defpoints
 70
     0
 62
     7
  6
Continuous
290
     0
370
    -3
390
F
  0
ENDTAB
  0
TABLE
  2
STYLE
  5
3
330
0
100
AcDbSymbolTable
 70
    11
  0
STYLE
  5
11
330
3
100
AcDbSymbolTableRecord
100
AcDbTextStyleTableRecord
  2
Standard
 70
     0
 40
0.0
 41
1.0
 50
0.0
 71
     0
 42
2.5
  3
txt.shx
  4
@extfont2.shx
  0
STYLE
  5
D6
330
3
100
AcDbSymbolTableRecord
100
AcDbTextStyleTableRecord
  2

 70
     1
 40
0.0
 41
1.0
 50
0.0
 71
     0
 42
2.5
  3
ltypeshp.shx
  4

  0
STYLE
  5
24A
330
3
100
AcDbSymbolTableRecord
100
AcDbTextStyleTableRecord
  2
simplex
 70
     0
 40
3.5
 41
1.0
 50
0.0
 71
     0
 42
3.5
  3
txt.shx
  4

  0
STYLE
  5
69E
330
3
100
AcDbSymbolTableRecord
100
AcDbTextStyleTableRecord
  2
MX_NOTE_STANDARD
 70
     0
 40
0.0
 41
1.0
 50
0.0
 71
     0
 42
4.2
  3
txt.shx
  4
extfont.shx
  0
STYLE
  5
3524
330
3
100
AcDbSymbolTableRecord
100
AcDbTextStyleTableRecord
  2
TEXTSTYLE_2
 70
     0
 40
0.0
 41
0.775
 50
0.0
 71
     0
 42
0.2
  3
gdt
  4

  0
STYLE
  5
3525
330
3
100
AcDbSymbolTableRecord
100
AcDbTextStyleTableRecord
  2
TEXTSTYLE_3
 70
     0
 40
0.0
 41
0.75
 50
0.0
 71
     0
 42
0.2
  3
txt
  4

  0
STYLE
  5
3526
330
3
100
AcDbSymbolTableRecord
100
AcDbTextStyleTableRecord
  2
TEXTSTYLE_13
 70
     0
 40
0.0
 41
1.0
 50
0.0
 71
     0
 42
0.2
  3
txt
  4

  0
STYLE
  5
519A
330
3
100
AcDbSymbolTableRecord
100
AcDbTextStyleTableRecord
  2
TEXTSTYLE_14
 70
     0
 40
0.0
 41
1.0
 50
0.0
 71
     0
 42
0.2
  3
txt
  4

  0
STYLE
  5
6F72
330
3
100
AcDbSymbolTableRecord
100
AcDbTextStyleTableRecord
  2
TEXTSTYLE_4
 70
     0
 40
0.0
 41
0.75
 50
0.0
 71
     0
 42
0.2
  3
txt
  4

  0
STYLE
  5
6F73
330
3
100
AcDbSymbolTableRecord
100
AcDbTextStyleTableRecord
  2
TEXTSTYLE_17
 70
     0
 40
0.0
 41
1.0
 50
0.0
 71
     0
 42
0.2
  3
txt
  4

  0
STYLE
  5
FE12
330
3
100
AcDbSymbolTableRecord
100
AcDbTextStyleTableRecord
  2
TEXTSTYLE_12
 70
     0
 40
0.0
 41
1.0
 50
0.0
 71
     0
 42
0.2
  3
txt
  4

  0
ENDTAB
  0
TABLE
  2
VIEW
  5
6
330
0
100
AcDbSymbolTable
 70
     0
  0
ENDTAB
  0
TABLE
  2
UCS
  5
7
330
0
100
AcDbSymbolTable
 70
     0
  0
ENDTAB
  0
TABLE
  2
APPID
  5
9
330
0
100
AcDbSymbolTable
 70
    11
  0
APPID
  5
12
330
9
100
AcDbSymbolTableRecord
100
AcDbRegAppTableRecord
  2
ACAD
 70
     0
  0
APPID
  5
D2
330
9
100
AcDbSymbolTableRecord
100
AcDbRegAppTableRecord
  2
AcAecLayerStandard
 70
     0
  0
APPID
  5
E6
330
9
100
AcDbSymbolTableRecord
100
AcDbRegAppTableRecord
  2
ACAD_DSTYLE_DIMTEXT_FILL
 70
     0
  0
APPID
  5
4C84
330
9
100
AcDbSymbolTableRecord
100
AcDbRegAppTableRecord
  2
ACAD_EXEMPT_FROM_CAD_STANDARDS
 70
     0
  0
APPID
  5
3493E
330
9
100
AcDbSymbolTableRecord
100
AcDbRegAppTableRecord
  2
DCO15
 70
     0
  0
APPID
  5
4366A
330
9
100
AcDbSymbolTableRecord
100
AcDbRegAppTableRecord
  2
ACAUTHENVIRON
 70
     0
  0
APPID
  5
4366D
330
9
100
AcDbSymbolTableRecord
100
AcDbRegAppTableRecord
  2
AcDbDynamicBlockTrueName
 70
     0
  0
APPID
  5
4366E
330
9
100
AcDbSymbolTableRecord
100
AcDbRegAppTableRecord
  2
AcDbDynamicBlockGUID
 70
     0
  0
APPID
  5
43670
330
9
100
AcDbSymbolTableRecord
100
AcDbRegAppTableRecord
  2
AcDbBlockRepETag
 70
     0
  0
APPID
  5
45C9F
330
9
100
AcDbSymbolTableRecord
100
AcDbRegAppTableRecord
  2
ACAD_DSTYLE_DIMEXT_ENABLED
 70
     0
  0
APPID
  5
45CA0
330
9
100
AcDbSymbolTableRecord
100
AcDbRegAppTableRecord
  2
ACAD_DSTYLE_DIMEXT_LENGTH
 70
     0
  0
ENDTAB
  0
TABLE
  2
DIMSTYLE
  5
A
330
0
100
AcDbSymbolTable
 70
     9
100
AcDbDimStyleTable
 71
     2
340
1BF
340
27
  0
DIMSTYLE
105
27
330
A
100
AcDbSymbolTableRecord
100
AcDbDimStyleTableRecord
  2
ISO-25
 70
     0
 41
2.5
 42
0.625
 43
3.75
 44
1.25
 73
     0
 74
     0
 77
     1
 78
     8
140
2.5
141
2.5
143
0.03937007874016
147
0.625
171
     3
172
     1
271
     2
272
     2
274
     3
278
    44
283
     0
284
     8
340
11
  0
DIMSTYLE
105
1BF
102
{ACAD_REACTORS
330
643FF
330
643FC
330
643FB
330
643FE
330
643FD
330
64400
102
}
330
A
100
AcDbSymbolTableRecord
100
AcDbDimStyleTableRecord
  2
\M+18352\M+18373\M+1815B - ISO-25
 70
     0
 40
0.0
 41
3.5
 42
0.0
 44
1.5
 73
     0
 74
     0
 77
     1
 78
     8
140
3.5
147
2.299999999999998
176
   256
177
   256
178
   256
271
     2
272
     2
284
     8
340
24A
371
    -1
372
    -1
  0
DIMSTYLE
105
69F
330
A
100
AcDbSymbolTableRecord
100
AcDbDimStyleTableRecord
  2
MXDIMSTYLE
 70
     0
 41
2.5
 42
0.5
 43
3.75
 44
1.5
 73
     0
 74
     0
 77
     1
 78
     8
140
4.2
141
2.5
143
0.03937
147
1.0
171
     4
172
     1
173
     1
271
     2
272
     2
274
     4
283
     0
288
     1
340
69E
341
697
343
697
344
697
  0
DIMSTYLE
105
3527
330
A
100
AcDbSymbolTableRecord
100
AcDbDimStyleTableRecord
  2
STANDARD
 70
     0
 41
3.0
 47
0.001
 48
0.001
 71
     1
 73
     0
 74
     0
 77
     1
 78
     8
140
4.0
271
     3
272
     3
284
     8
340
11
341
34B1
342
34B1
343
34B1
344
34B1
  0
DIMSTYLE
105
3528
330
A
100
AcDbSymbolTableRecord
100
AcDbDimStyleTableRecord
  2
DIMSTYLE_1
 70
     0
 41
3.0
 73
     0
 74
     0
 77
     1
 78
     8
140
4.0
271
     3
272
     3
284
     8
340
11
341
34B1
342
34B1
343
34B1
344
34B1
  0
DIMSTYLE
105
3529
330
A
100
AcDbSymbolTableRecord
100
AcDbDimStyleTableRecord
  2
DIMSTYLE_2
 70
     0
 41
3.0
 47
0.001
 48
0.001
 73
     0
 74
     0
 77
     1
 78
     8
140
4.0
271
     3
272
     3
284
     8
340
11
341
34B1
342
34B1
343
34B1
344
34B1
  0
DIMSTYLE
105
352A
330
A
100
AcDbSymbolTableRecord
100
AcDbDimStyleTableRecord
  2
DIMSTYLE_3
 70
     0
 41
3.0
 47
-0.1
 48
0.3
 71
     1
 73
     0
 74
     0
 77
     1
 78
     8
140
4.0
146
0.5
271
     3
272
     3
284
     8
340
11
341
34B1
342
34B1
343
34B1
344
34B1
  0
DIMSTYLE
105
352B
330
A
100
AcDbSymbolTableRecord
100
AcDbDimStyleTableRecord
  2
DIMSTYLE_4
 70
     0
 41
3.0
 47
0.1
 48
0.1
 71
     1
 73
     0
 74
     0
 77
     1
 78
     8
140
4.0
271
     3
272
     3
284
     8
340
11
341
34B1
342
34B1
343
34B1
344
34B1
  0
DIMSTYLE
105
27245
330
A
100
AcDbSymbolTableRecord
100
AcDbDimStyleTableRecord
  2
DIMSTYLE_5
 70
     0
 41
3.0
 47
0.001
 48
0.001
 73
     0
 74
     0
 77
     1
 78
     8
140
4.0
271
     3
272
     3
284
     8
340
11
341
34B1
342
34B1
343
34B1
344
34B1
  0
ENDTAB
  0
TABLE
  2
BLOCK_RECORD
  5
1
330
0
100
AcDbSymbolTable
 70
    39
  0
BLOCK_RECORD
  5
1F
102
{ACAD_XDICTIONARY
360
31EE
102
}
330
1
100
AcDbSymbolTableRecord
100
AcDbBlockTableRecord
  2
*Model_Space
340
22
  0
BLOCK_RECORD
  5
50
330
1
100
AcDbSymbolTableRecord
100
AcDbBlockTableRecord
  2
*Paper_Space
340
51
  0
BLOCK_RECORD
  5
55
330
1
100
AcDbSymbolTableRecord
100
AcDbBlockTableRecord
  2
*Paper_Space0
340
56
  0
BLOCK_RECORD
  5
680
102
{ACAD_XDICTIONARY
360
43668
102
}
330
1
100
AcDbSymbolTableRecord
100
AcDbBlockTableRecord
  2
zero block
340
0
102
{BLKREFS
331
68C
331
643A8
102
}
1001
ACAD
1000
DesignCenter Data
1002
{
1070
     1
1070
     4
1002
}
1001
AcDbDynamicBlockGUID
1000
{A89DF4EB-B2CB-439E-AC69-1EAC9F242D1C}
1001
AcDbBlockRepETag
1070
     1
1071
        7
  0
BLOCK_RECORD
  5
697
330
1
100
AcDbSymbolTableRecord
100
AcDbBlockTableRecord
  2
_OPEN30
340
0
  0
BLOCK_RECORD
  5
32F1
330
1
100
AcDbSymbolTableRecord
100
AcDbBlockTableRecord
  2
_None
340
0
  0
BLOCK_RECORD
  5
34B1
330
1
100
AcDbSymbolTableRecord
100
AcDbBlockTableRecord
  2
_OPEN
340
0
  0
BLOCK_RECORD
  5
637FB
330
1
100
AcDbSymbolTableRecord
100
AcDbBlockTableRecord
  2
*D10
340
0
  0
BLOCK_RECORD
  5
646E4
330
1
100
AcDbSymbolTableRecord
100
AcDbBlockTableRecord
  2
*D33
340
0
  0
BLOCK_RECORD
  5
646EE
330
1
100
AcDbSymbolTableRecord
100
AcDbBlockTableRecord
  2
*D34
340
0
  0
BLOCK_RECORD
  5
646FB
330
1
100
AcDbSymbolTableRecord
100
AcDbBlockTableRecord
  2
*D35
340
0
  0
BLOCK_RECORD
  5
64707
330
1
100
AcDbSymbolTableRecord
100
AcDbBlockTableRecord
  2
*D36
340
0
  0
BLOCK_RECORD
  5
64713
330
1
100
AcDbSymbolTableRecord
100
AcDbBlockTableRecord
  2
*D37
340
0
  0
BLOCK_RECORD
  5
6471F
330
1
100
AcDbSymbolTableRecord
100
AcDbBlockTableRecord
  2
*D38
340
0
  0
ENDTAB
  0
ENDSEC
  0
SECTION
  2
BLOCKS
  0
BLOCK
  5
20
330
1F
100
AcDbEntity
  8
0
100
AcDbBlockBegin
  2
*Model_Space
 70
     0
 10
0.0
 20
0.0
 30
0.0
  3
*Model_Space
  1

  0
ENDBLK
  5
21
330
1F
100
AcDbEntity
  8
0
100
AcDbBlockEnd
  0
BLOCK
  5
52
330
50
100
AcDbEntity
 67
     1
  8
0
100
AcDbBlockBegin
  2
*Paper_Space
 70
     0
 10
0.0
 20
0.0
 30
0.0
  3
*Paper_Space
  1

  0
ENDBLK
  5
53
330
50
100
AcDbEntity
 67
     1
  8
0
100
AcDbBlockEnd
  0
BLOCK
  5
57
330
55
100
AcDbEntity
 67
     1
  8
0
100
AcDbBlockBegin
  2
*Paper_Space0
 70
     0
 10
0.0
 20
0.0
 30
0.0
  3
*Paper_Space0
  1

  0
VIEWPORT
  5
71
102
{ACAD_XDICTIONARY
360
64804
102
}
330
55
100
AcDbEntity
 67
     1
  8
0
100
AcDbViewport
 10
150.1652135264906
 20
101.599997546291
 30
0.0
 40
339.1973820494347
 41
164.5360435314421
 68
     0
 69
     0
 12
150.1652135264906
 22
101.599997546291
 13
0.0
 23
0.0
 14
10.0
 24
10.0
 15
10.0
 25
10.0
 16
0.0
 26
0.0
 36
1.0
 17
0.0
 27
0.0
 37
0.0
 42
50.0
 43
0.0
 44
0.0
 45
164.5360435314421
 50
0.0
 51
0.0
 72
  1000
 90
    32864
  1

281
     0
 71
     1
 74
     0
110
0.0
120
0.0
130
0.0
111
1.0
121
0.0
131
0.0
112
0.0
122
1.0
132
0.0
 79
     0
146
0.0
  0
VIEWPORT
  5
73
102
{ACAD_XDICTIONARY
360
64806
102
}
330
55
100
AcDbEntity
 67
     1
  8
0
100
AcDbViewport
 10
133.3499939441681
 20
101.5999939441681
 30
0.0
 40
213.3599903106689
 41
162.5599903106689
 68
     0
 69
     0
 12
210.0
 22
148.5
 13
0.0
 23
0.0
 14
10.0
 24
10.0
 15
10.0
 25
10.0
 16
0.0
 26
0.0
 36
1.0
 17
0.0
 27
0.0
 37
0.0
 42
50.0
 43
0.0
 44
0.0
 45
324.0677920111345
 50
0.0
 51
0.0
 72
   100
 90
    32864
  1

281
     0
 71
     1
 74
     0
110
0.0
120
0.0
130
0.0
111
1.0
121
0.0
131
0.0
112
0.0
122
1.0
132
0.0
 79
     0
146
0.0
  0
ENDBLK
  5
58
330
55
100
AcDbEntity
 67
     1
  8
0
100
AcDbBlockEnd
  0
BLOCK
  5
68A
330
680
100
AcDbEntity
  8
0
100
AcDbBlockBegin
  2
zero block
 70
     0
 10
0.0
 20
0.0
 30
0.0
  3
zero block
  1

  0
HATCH
  5
43661
330
680
100
AcDbEntity
  8
0
 62
     7
100
AcDbHatch
 10
0.0
 20
0.0
 30
0.0
210
0.0
220
0.0
230
1.0
  2
SOLID
 70
     1
 71
     0
 91
        2
 92
        7
 72
     1
 73
     1
 93
        3
 10
0.0
 20
0.9999999999999875
 42
0.4142135623730915
 10
-1.0
 20
0.0
 42
0.0
 10
0.0
 20
0.0
 42
0.0
 97
        0
 92
        7
 72
     1
 73
     1
 93
        3
 10
1.000000000000007
 20
0.0
 42
0.0
 10
0.0
 20
0.0
 42
0.0
 10
0.0
 20
-1.0
 42
0.4142135623730974
 97
        0
 75
     0
 76
     1
 47
0.0090601366782909
 98
        2
 10
-0.380591363650975
 20
0.4885804701532896
 10
0.4350764810977559
 20
-0.4536738423704725
1001
AcDbBlockRepETag
1070
     1
1071
        0
1005
43661
  0
LINE
  5
43662
330
680
100
AcDbEntity
  8
0
 62
     7
 48
0.2
100
AcDbLine
 10
-1.0
 20
0.0
 30
0.0
 11
1.000000000000007
 21
0.0
 31
0.0
1001
AcDbBlockRepETag
1070
     1
1071
        1
1005
43662
  0
LINE
  5
43663
330
680
100
AcDbEntity
  8
0
 62
     7
 48
0.2
100
AcDbLine
 10
0.0
 20
-1.0
 30
0.0
 11
0.0
 21
0.9999999999999875
 31
0.0
1001
AcDbBlockRepETag
1070
     1
1071
        2
1005
43663
  0
ARC
  5
43664
330
680
100
AcDbEntity
  8
0
 62
     7
 48
0.2
100
AcDbCircle
 10
0.0
 20
0.0
 30
0.0
 40
1.0
100
AcDbArc
 50
270.0
 51
0.0
1001
AcDbBlockRepETag
1070
     1
1071
        3
1005
43664
  0
ARC
  5
43665
330
680
100
AcDbEntity
  8
0
 62
     7
 48
0.2
100
AcDbCircle
 10
0.0
 20
0.0
 30
0.0
 40
1.0
100
AcDbArc
 50
0.0
 51
90.0
1001
AcDbBlockRepETag
1070
     1
1071
        4
1005
43665
  0
ARC
  5
43666
330
680
100
AcDbEntity
  8
0
 62
     7
 48
0.2
100
AcDbCircle
 10
0.0
 20
0.0
 30
0.0
 40
1.0
100
AcDbArc
 50
180.0
 51
270.0
1001
AcDbBlockRepETag
1070
     1
1071
        5
1005
43666
  0
ARC
  5
43667
330
680
100
AcDbEntity
  8
0
 62
     7
 48
0.2
100
AcDbCircle
 10
0.0
 20
0.0
 30
0.0
 40
1.0
100
AcDbArc
 50
90.0
 51
180.0
1001
AcDbBlockRepETag
1070
     1
1071
        6
1005
43667
  0
ENDBLK
  5
68B
330
680
100
AcDbEntity
  8
0
100
AcDbBlockEnd
  0
BLOCK
  5
698
330
697
100
AcDbEntity
  8
0
  6
ByBlock
 62
     0
370
    -2
100
AcDbBlockBegin
  2
_OPEN30
 70
     2
 10
0.0
 20
0.0
 30
0.0
  3
_OPEN30
  1

  0
LINE
  5
699
330
697
100
AcDbEntity
  8
0
  6
ByBlock
 62
     0
370
    -2
100
AcDbLine
 10
-1.0
 20
0.267949
 30
0.0
 11
0.0
 21
0.0
 31
0.0
  0
LINE
  5
69A
330
697
100
AcDbEntity
  8
0
  6
ByBlock
 62
     0
370
    -2
100
AcDbLine
 10
0.0
 20
0.0
 30
0.0
 11
-1.0
 21
-0.267949
 31
0.0
  0
LINE
  5
69B
330
697
100
AcDbEntity
  8
0
  6
ByBlock
 62
     0
370
    -2
100
AcDbLine
 10
0.0
 20
0.0
 30
0.0
 11
-1.0
 21
0.0
 31
0.0
  0
ENDBLK
  5
69C
330
697
100
AcDbEntity
  8
0
  6
ByBlock
 62
     0
370
    -2
100
AcDbBlockEnd
  0
BLOCK
  5
32F2
330
32F1
100
AcDbEntity
  8
0
100
AcDbBlockBegin
  2
_None
 70
     0
 10
0.0
 20
0.0
 30
0.0
  3
_None
  1

  0
ENDBLK
  5
32F3
330
32F1
100
AcDbEntity
  8
0
100
AcDbBlockEnd
  0
BLOCK
  5
34B2
330
34B1
100
AcDbEntity
  8
0
100
AcDbBlockBegin
  2
_OPEN
 70
     0
 10
0.0
 20
0.0
 30
0.0
  3
_OPEN
  1

  0
LINE
  5
34B3
330
34B1
100
AcDbEntity
  8
0
  6
ByBlock
 62
     0
100
AcDbLine
 10
0.0
 20
0.0
 30
0.0
 11
-1.0
 21
0.1766666667
 31
0.0
  0
LINE
  5
34B4
330
34B1
100
AcDbEntity
  8
0
  6
ByBlock
 62
     0
100
AcDbLine
 10
-1.0
 20
-0.1766666667
 30
0.0
 11
0.0
 21
0.0
 31
0.0
  0
LINE
  5
34B5
330
34B1
100
AcDbEntity
  8
0
  6
ByBlock
 62
     0
100
AcDbLine
 10
-1.0
 20
0.0
 30
0.0
 11
0.0
 21
0.0
 31
0.0
  0
ENDBLK
  5
34B6
330
34B1
100
AcDbEntity
  8
0
  6
ByBlock
 62
     0
100
AcDbBlockEnd
  0
BLOCK
  5
63805
330
637FB
100
AcDbEntity
  8
0
100
AcDbBlockBegin
  2
*D10
 70
     1
 10
0.0
 20
0.0
 30
0.0
  3
*D10
  1

  0
LINE
  5
6386B
330
637FB
100
AcDbEntity
  8
2
100
AcDbLine
 10
0.0
 20
47.43856537529999
 30
0.0
 11
0.0000000000000022
 21
83.11278082901118
 31
0.0
  0
LINE
  5
6386C
330
637FB
100
AcDbEntity
  8
2
100
AcDbLine
 10
50.79999999999995
 20
50.20659958725435
 30
0.0
 11
50.79999999999995
 21
83.11278082901118
 31
0.0
  0
LINE
  5
6386D
330
637FB
100
AcDbEntity
  8
2
100
AcDbLine
 10
3.500000000000001
 20
81.61278082901118
 30
0.0
 11
47.29999999999995
 21
81.61278082901118
 31
0.0
  0
SOLID
  5
6386E
330
637FB
100
AcDbEntity
  8
2
100
AcDbTrace
 10
3.500000000000001
 20
82.19611416234451
 30
0.0
 11
3.500000000000001
 21
81.02944749567786
 31
0.0
 12
0.0000000000000021
 22
81.61278082901118
 32
0.0
 13
0.0000000000000021
 23
81.61278082901118
 33
0.0
  0
SOLID
  5
6386F
330
637FB
100
AcDbEntity
  8
2
100
AcDbTrace
 10
47.29999999999995
 20
82.19611416234451
 30
0.0
 11
47.29999999999995
 21
81.02944749567786
 31
0.0
 12
50.79999999999995
 22
81.61278082901118
 32
0.0
 13
50.79999999999995
 23
81.61278082901118
 33
0.0
  0
MTEXT
  5
63870
330
637FB
100
AcDbEntity
  8
2
100
AcDbMText
 10
25.40000000000001
 20
87.41278082901121
 30
0.0
 40
3.5
 41
0.0
 71
     2
 72
     1
  1
\A1;50.8 [2.000"]
  7
simplex
 73
     1
 44
1.0
1001
ACAD
1000
MTEXTBEGIN
1070
    73
1070
     1
1070
    44
1040
1.0
1070
    74
1070
     0
1000
MTEXTEND
  0
POINT
  5
63871
330
637FB
100
AcDbEntity
  8
Defpoints
 62
     0
100
AcDbPoint
 10
0.0
 20
47.43856537529999
 30
0.0
  0
POINT
  5
63872
330
637FB
100
AcDbEntity
  8
Defpoints
 62
     0
100
AcDbPoint
 10
50.79999999999995
 20
50.20659958725435
 30
0.0
  0
POINT
  5
63873
330
637FB
100
AcDbEntity
  8
Defpoints
 62
     0
100
AcDbPoint
 10
50.79999999999995
 20
81.61278082901118
 30
0.0
  0
ENDBLK
  5
63806
330
637FB
100
AcDbEntity
  8
0
100
AcDbBlockEnd
  0
BLOCK
  5
646EC
330
646E4
100
AcDbEntity
  8
0
100
AcDbBlockBegin
  2
*D33
 70
     1
 10
0.0
 20
0.0
 30
0.0
  3
*D33
  1

  0
LINE
  5
647B2
330
646E4
100
AcDbEntity
  8
2
100
AcDbLine
 10
50.80000000000001
 20
38.1
 30
0.0
 11
79.86479909060007
 21
38.1
 31
0.0
  0
LINE
  5
647B3
330
646E4
100
AcDbEntity
  8
2
100
AcDbLine
 10
78.36479909060007
 20
34.59999999999999
 30
0.0
 11
78.36479909060004
 21
-38.1
 31
0.0
  0
SOLID
  5
647B4
330
646E4
100
AcDbEntity
  8
2
100
AcDbTrace
 10
77.78146575726674
 20
34.59999999999999
 30
0.0
 11
78.9481324239334
 21
34.59999999999999
 31
0.0
 12
78.36479909060007
 22
38.1
 32
0.0
 13
78.36479909060007
 23
38.1
 33
0.0
  0
MTEXT
  5
647B5
330
646E4
100
AcDbEntity
  8
2
100
AcDbMText
 10
72.56479909060006
 20
-2.200000000000023
 30
0.0
 40
3.5
 41
0.0
 71
     2
 72
     1
  1
\A1;%%c76.2 [%%C3.000"]
  7
simplex
 11
0.0000000000000001
 21
1.0
 31
0.0
 73
     1
 44
1.0
1001
ACAD
1000
MTEXTBEGIN
1070
    73
1070
     1
1070
    44
1040
1.0
1070
    74
1070
     0
1000
MTEXTEND
  0
POINT
  5
647B6
330
646E4
100
AcDbEntity
  8
Defpoints
 62
     0
100
AcDbPoint
 10
50.80000000000001
 20
38.1
 30
0.0
  0
POINT
  5
647B7
330
646E4
100
AcDbEntity
  8
Defpoints
 62
     0
100
AcDbPoint
 10
50.80000000000001
 20
-38.1
 30
0.0
  0
POINT
  5
647B8
330
646E4
100
AcDbEntity
  8
Defpoints
 62
     0
100
AcDbPoint
 10
78.36479909060004
 20
-38.1
 30
0.0
  0
ENDBLK
  5
646ED
330
646E4
100
AcDbEntity
  8
0
100
AcDbBlockEnd
  0
BLOCK
  5
646F9
330
646EE
100
AcDbEntity
  8
0
100
AcDbBlockBegin
  2
*D34
 70
     1
 10
0.0
 20
0.0
 30
0.0
  3
*D34
  1

  0
LINE
  5
647B9
330
646EE
100
AcDbEntity
  8
2
100
AcDbLine
 10
50.80000000000001
 20
39.86819169229998
 30
0.0
 11
50.80000000000001
 21
59.93528881828945
 31
0.0
  0
LINE
  5
647BA
330
646EE
100
AcDbEntity
  8
2
100
AcDbLine
 10
40.8
 20
38.43232980473636
 30
0.0
 11
40.8
 21
59.93528881828945
 31
0.0
  0
LINE
  5
647BB
330
646EE
100
AcDbEntity
  8
2
100
AcDbLine
 10
54.30000000000001
 20
58.43528881828945
 30
0.0
 11
57.80000000000001
 21
58.43528881828945
 31
0.0
  0
LINE
  5
647BC
330
646EE
100
AcDbEntity
  8
2
100
AcDbLine
 10
37.30000000000001
 20
58.43528881828945
 30
0.0
 11
-12.21666666666667
 21
58.43528881828945
 31
0.0
  0
SOLID
  5
647BD
330
646EE
100
AcDbEntity
  8
2
100
AcDbTrace
 10
54.30000000000001
 20
59.01862215162278
 30
0.0
 11
54.30000000000001
 21
57.85195548495611
 31
0.0
 12
50.80000000000001
 22
58.43528881828945
 32
0.0
 13
50.80000000000001
 23
58.43528881828945
 33
0.0
  0
SOLID
  5
647BE
330
646EE
100
AcDbEntity
  8
2
100
AcDbTrace
 10
37.30000000000001
 20
59.01862215162278
 30
0.0
 11
37.30000000000001
 21
57.85195548495611
 31
0.0
 12
40.8
 22
58.43528881828945
 32
0.0
 13
40.8
 23
58.43528881828945
 33
0.0
  0
MTEXT
  5
647BF
330
646EE
100
AcDbEntity
  8
2
100
AcDbMText
 10
10.79166666666667
 20
64.23528881828945
 30
0.0
 40
3.5
 41
0.0
 71
     2
 72
     1
  1
\A1;10 [.394"](MAX)
  7
simplex
 73
     1
 44
1.0
1001
ACAD
1000
MTEXTBEGIN
1070
    73
1070
     1
1070
    44
1040
1.0
1070
    74
1070
     0
1000
MTEXTEND
  0
POINT
  5
647C0
330
646EE
100
AcDbEntity
  8
Defpoints
 62
     0
100
AcDbPoint
 10
50.80000000000001
 20
39.86819169229998
 30
0.0
  0
POINT
  5
647C1
330
646EE
100
AcDbEntity
  8
Defpoints
 62
     0
100
AcDbPoint
 10
40.8
 20
38.43232980473636
 30
0.0
  0
POINT
  5
647C2
330
646EE
100
AcDbEntity
  8
Defpoints
 62
     0
100
AcDbPoint
 10
40.8
 20
58.43528881828945
 30
0.0
  0
ENDBLK
  5
646FA
330
646EE
100
AcDbEntity
  8
0
100
AcDbBlockEnd
  0
BLOCK
  5
64705
330
646FB
100
AcDbEntity
  8
0
100
AcDbBlockBegin
  2
*D35
 70
     1
 10
0.0
 20
0.0
 30
0.0
  3
*D35
  1

  0
LINE
  5
647C3
330
646FB
100
AcDbEntity
  8
sk2
100
AcDbLine
 10
5.255754160700007
 20
27.81500000170002
 30
0.0
 11
-31.44336941544122
 21
27.81500000170002
 31
0.0
  0
LINE
  5
647C4
330
646FB
100
AcDbEntity
  8
sk2
100
AcDbLine
 10
3.497292622299994
 20
-27.81499999829998
 30
0.0
 11
-31.44336941544124
 21
-27.81499999829997
 31
0.0
  0
LINE
  5
647C5
330
646FB
100
AcDbEntity
  8
sk2
100
AcDbLine
 10
-29.94336941544122
 20
24.31500000170002
 30
0.0
 11
-29.94336941544123
 21
-24.31499999829997
 31
0.0
  0
SOLID
  5
647C6
330
646FB
100
AcDbEntity
  8
sk2
100
AcDbTrace
 10
-30.52670274877455
 20
24.31500000170002
 30
0.0
 11
-29.36003608210789
 21
24.31500000170002
 31
0.0
 12
-29.94336941544122
 22
27.81500000170002
 32
0.0
 13
-29.94336941544122
 23
27.81500000170002
 33
0.0
  0
SOLID
  5
647C7
330
646FB
100
AcDbEntity
  8
sk2
100
AcDbTrace
 10
-30.52670274877457
 20
-24.31499999829997
 30
0.0
 11
-29.3600360821079
 21
-24.31499999829997
 31
0.0
 12
-29.94336941544123
 22
-27.81499999829997
 32
0.0
 13
-29.94336941544123
 23
-27.81499999829997
 33
0.0
  0
MTEXT
  5
647C8
330
646FB
100
AcDbEntity
  8
sk2
100
AcDbMText
 10
-35.74336941544122
 20
0.1125095313908564
 30
0.0
 40
3.5
 41
0.0
 71
     2
 72
     1
  1
\A1;%%c55.63 [%%C2.190"]
  7
simplex
 11
0.0000000000000001
 21
1.0
 31
0.0
 73
     1
 44
1.0
1001
ACAD
1000
MTEXTBEGIN
1070
    73
1070
     1
1070
    44
1040
1.0
1070
    74
1070
     0
1000
MTEXTEND
  0
POINT
  5
647C9
330
646FB
100
AcDbEntity
  8
Defpoints
 62
     0
100
AcDbPoint
 10
5.255754160700007
 20
27.81500000170002
 30
0.0
  0
POINT
  5
647CA
330
646FB
100
AcDbEntity
  8
Defpoints
 62
     0
100
AcDbPoint
 10
3.497292622299994
 20
-27.81499999829998
 30
0.0
  0
POINT
  5
647CB
330
646FB
100
AcDbEntity
  8
Defpoints
 62
     0
100
AcDbPoint
 10
-29.94336941544123
 20
-27.81499999829997
 30
0.0
  0
ENDBLK
  5
64706
330
646FB
100
AcDbEntity
  8
0
100
AcDbBlockEnd
  0
BLOCK
  5
64711
330
64707
100
AcDbEntity
  8
0
100
AcDbBlockBegin
  2
*D36
 70
     1
 10
0.0
 20
0.0
 30
0.0
  3
*D36
  1

  0
LINE
  5
647CC
330
64707
100
AcDbEntity
  8
sk2
100
AcDbLine
 10
4.0
 20
-12.70000000000002
 30
0.0
 11
-19.08509230760001
 21
-12.70000000000001
 31
0.0
  0
LINE
  5
647CD
330
64707
100
AcDbEntity
  8
sk2
100
AcDbLine
 10
4.0
 20
12.69999999999999
 30
0.0
 11
-19.0850923076
 21
12.69999999999999
 31
0.0
  0
LINE
  5
647CE
330
64707
100
AcDbEntity
  8
sk2
100
AcDbLine
 10
-17.58509230760001
 20
-9.200000000000011
 30
0.0
 11
-17.5850923076
 21
9.199999999999993
 31
0.0
  0
SOLID
  5
647CF
330
64707
100
AcDbEntity
  8
sk2
100
AcDbTrace
 10
-18.16842564093334
 20
-9.200000000000011
 30
0.0
 11
-17.00175897426668
 21
-9.200000000000011
 31
0.0
 12
-17.58509230760001
 22
-12.70000000000001
 32
0.0
 13
-17.58509230760001
 23
-12.70000000000001
 33
0.0
  0
SOLID
  5
647D0
330
64707
100
AcDbEntity
  8
sk2
100
AcDbTrace
 10
-18.16842564093333
 20
9.199999999999993
 30
0.0
 11
-17.00175897426667
 21
9.199999999999993
 31
0.0
 12
-17.5850923076
 22
12.69999999999999
 32
0.0
 13
-17.5850923076
 23
12.69999999999999
 33
0.0
  0
MTEXT
  5
647D1
330
64707
100
AcDbEntity
  8
sk2
100
AcDbMText
 10
-23.38509230760001
 20
-0.0000000000000109
 30
0.0
 40
3.5
 41
0.0
 71
     2
 72
     1
  1
\A1;%%c25.4 [%%C1.000"]
  7
simplex
 11
0.0000000000000001
 21
1.0
 31
0.0
 73
     1
 44
1.0
1001
ACAD
1000
MTEXTBEGIN
1070
    73
1070
     1
1070
    44
1040
1.0
1070
    74
1070
     0
1000
MTEXTEND
  0
POINT
  5
647D2
330
64707
100
AcDbEntity
  8
Defpoints
 62
     0
100
AcDbPoint
 10
4.0
 20
-12.70000000000002
 30
0.0
  0
POINT
  5
647D3
330
64707
100
AcDbEntity
  8
Defpoints
 62
     0
100
AcDbPoint
 10
4.0
 20
12.69999999999999
 30
0.0
  0
POINT
  5
647D4
330
64707
100
AcDbEntity
  8
Defpoints
 62
     0
100
AcDbPoint
 10
-17.5850923076
 20
12.69999999999999
 30
0.0
  0
ENDBLK
  5
64712
330
64707
100
AcDbEntity
  8
0
100
AcDbBlockEnd
  0
BLOCK
  5
6471D
330
64713
100
AcDbEntity
  8
0
100
AcDbBlockBegin
  2
*D37
 70
     1
 10
0.0
 20
0.0
 30
0.0
  3
*D37
  1

  0
LINE
  5
647D5
330
64713
100
AcDbEntity
  8
2
100
AcDbLine
 10
0.0
 20
26.86856537519998
 30
0.0
 11
0.0000000000000028
 21
72.27930671180001
 31
0.0
  0
LINE
  5
647D6
330
64713
100
AcDbEntity
  8
2
100
AcDbLine
 10
50.80000000000001
 20
37.06305266618278
 30
0.0
 11
50.80000000000001
 21
72.27930671180001
 31
0.0
  0
LINE
  5
647D7
330
64713
100
AcDbEntity
  8
2
100
AcDbLine
 10
3.500000000000002
 20
70.77930671180002
 30
0.0
 11
47.30000000000001
 21
70.77930671180002
 31
0.0
  0
SOLID
  5
647D8
330
64713
100
AcDbEntity
  8
2
100
AcDbTrace
 10
3.500000000000002
 20
71.36264004513335
 30
0.0
 11
3.500000000000002
 21
70.19597337846668
 31
0.0
 12
0.0000000000000027
 22
70.77930671180002
 32
0.0
 13
0.0000000000000027
 23
70.77930671180002
 33
0.0
  0
SOLID
  5
647D9
330
64713
100
AcDbEntity
  8
2
100
AcDbTrace
 10
47.30000000000001
 20
71.36264004513335
 30
0.0
 11
47.30000000000001
 21
70.19597337846668
 31
0.0
 12
50.80000000000001
 22
70.77930671180002
 32
0.0
 13
50.80000000000001
 23
70.77930671180002
 33
0.0
  0
MTEXT
  5
647DA
330
64713
100
AcDbEntity
  8
2
100
AcDbMText
 10
25.40000000000004
 20
76.57930671180001
 30
0.0
 40
3.5
 41
0.0
 71
     2
 72
     1
  1
\A1;50.8 [2.000"]
  7
simplex
 73
     1
 44
1.0
1001
ACAD
1000
MTEXTBEGIN
1070
    73
1070
     1
1070
    44
1040
1.0
1070
    74
1070
     0
1000
MTEXTEND
  0
POINT
  5
647DB
330
64713
100
AcDbEntity
  8
Defpoints
 62
     0
100
AcDbPoint
 10
0.0
 20
26.86856537519998
 30
0.0
  0
POINT
  5
647DC
330
64713
100
AcDbEntity
  8
Defpoints
 62
     0
100
AcDbPoint
 10
50.80000000000001
 20
37.06305266618278
 30
0.0
  0
POINT
  5
647DD
330
64713
100
AcDbEntity
  8
Defpoints
 62
     0
100
AcDbPoint
 10
50.80000000000001
 20
70.77930671180002
 30
0.0
  0
ENDBLK
  5
6471E
330
64713
100
AcDbEntity
  8
0
100
AcDbBlockEnd
  0
BLOCK
  5
64729
330
6471F
100
AcDbEntity
  8
0
100
AcDbBlockBegin
  2
*D38
 70
     1
 10
0.0
 20
0.0
 30
0.0
  3
*D38
  1

  0
LINE
  5
647DE
330
6471F
100
AcDbEntity
  8
sk2
100
AcDbLine
 10
0.0
 20
-26.8685653753
 30
0.0
 11
-0.000000000000002
 21
-59.63084963575955
 31
0.0
  0
LINE
  5
647DF
330
6471F
100
AcDbEntity
  8
sk2
100
AcDbLine
 10
26.0
 20
-12.01686345200002
 30
0.0
 11
26.0
 21
-59.63084963575955
 31
0.0
  0
LINE
  5
647E0
330
6471F
100
AcDbEntity
  8
sk2
100
AcDbLine
 10
3.499999999999998
 20
-58.13084963575954
 30
0.0
 11
22.5
 21
-58.13084963575954
 31
0.0
  0
LINE
  5
647E1
330
6471F
100
AcDbEntity
  8
sk2
100
AcDbLine
 10
26.0
 20
-58.13084963575954
 30
0.0
 11
67.35000000000001
 21
-58.13084963575954
 31
0.0
  0
SOLID
  5
647E2
330
6471F
100
AcDbEntity
  8
sk2
100
AcDbTrace
 10
3.499999999999998
 20
-57.54751630242621
 30
0.0
 11
3.499999999999998
 21
-58.71418296909288
 31
0.0
 12
-0.0000000000000019
 22
-58.13084963575954
 32
0.0
 13
-0.0000000000000019
 23
-58.13084963575954
 33
0.0
  0
SOLID
  5
647E3
330
6471F
100
AcDbEntity
  8
sk2
100
AcDbTrace
 10
22.5
 20
-57.54751630242621
 30
0.0
 11
22.5
 21
-58.71418296909288
 31
0.0
 12
26.0
 22
-58.13084963575954
 32
0.0
 13
26.0
 23
-58.13084963575954
 33
0.0
  0
MTEXT
  5
647E4
330
6471F
100
AcDbEntity
  8
sk2
100
AcDbMText
 10
48.42500000000001
 20
-52.33084963575954
 30
0.0
 40
3.5
 41
0.0
 71
     2
 72
     1
  1
\A1;26 [%%C1.024"]
  7
simplex
 73
     1
 44
1.0
1001
ACAD
1000
MTEXTBEGIN
1070
    73
1070
     1
1070
    44
1040
1.0
1070
    74
1070
     0
1000
MTEXTEND
  0
POINT
  5
647E5
330
6471F
100
AcDbEntity
  8
Defpoints
 62
     0
100
AcDbPoint
 10
0.0
 20
-26.8685653753
 30
0.0
  0
POINT
  5
647E6
330
6471F
100
AcDbEntity
  8
Defpoints
 62
     0
100
AcDbPoint
 10
26.0
 20
-12.01686345200002
 30
0.0
  0
POINT
  5
647E7
330
6471F
100
AcDbEntity
  8
Defpoints
 62
     0
100
AcDbPoint
 10
26.0
 20
-58.13084963575954
 30
0.0
  0
ENDBLK
  5
6472A
330
6471F
100
AcDbEntity
  8
0
100
AcDbBlockEnd
  0
ENDSEC
  0
SECTION
  2
ENTITIES
  0
INSERT
  5
68C
330
1F
100
AcDbEntity
  8
0
100
AcDbBlockReference
  2
zero block
 10
0.0000000000000072
 20
0.0
 30
0.0
 50
180.0
  0
MTEXT
  5
643FA
330
1F
100
AcDbEntity
  8
sk6
100
AcDbMText
 10
-7.666239605672785
 20
91.71680078495148
 30
0.0
 40
5.0
 41
70.03712541027798
 71
     1
 72
     5
  1
VOX400UR0308C
  7
simplex
 73
     1
 44
1.0
1001
ACAD
1000
MTEXTBEGIN
1070
    73
1070
     1
1070
    44
1040
1.0
1070
    74
1070
     0
1000
MTEXTEND
  0
DIMENSION
  5
643FB
330
1F
100
AcDbEntity
  8
2
100
AcDbDimension
  2
*D33
 10
78.36479909060004
 20
-38.1
 30
0.0
 11
78.36479909060006
 21
-2.200000000000024
 31
0.0
 70
   160
  1
%%c<>
 71
     2
 42
76.19999999999999
  3
\M+18352\M+18373\M+1815B - ISO-25
100
AcDbAlignedDimension
 13
50.80000000000001
 23
38.1
 33
0.0
 14
50.80000000000001
 24
-38.1
 34
0.0
 50
270.0
100
AcDbRotatedDimension
1001
ACAD
1000
DSTYLE
1002
{
1070
     4
1000
%%C[]"
1070
    40
1040
1.0
1070
    76
1070
     1
1070
   143
1040
0.03937
1070
   170
1070
     1
1070
   171
1070
     3
1070
   173
1070
     1
1070
   271
1070
     8
1070
   285
1070
     4
1070
   344
1005
32F1
1002
}
  0
DIMENSION
  5
643FC
330
1F
100
AcDbEntity
  8
2
100
AcDbDimension
  2
*D34
 10
40.8
 20
58.43528881828945
 30
0.0
 11
10.79166666666667
 21
58.43528881828945
 31
0.0
 70
   160
  1
<>(MAX)
 71
     2
 42
10.0
  3
\M+18352\M+18373\M+1815B - ISO-25
100
AcDbAlignedDimension
 13
50.80000000000001
 23
39.86819169229998
 33
0.0
 14
40.8
 24
38.43232980473636
 34
0.0
 50
180.0
100
AcDbRotatedDimension
1001
ACAD
1000
DSTYLE
1002
{
1070
     4
1000
"
1070
    40
1040
1.0
1070
   143
1040
0.03937
1070
   170
1070
     1
1070
   171
1070
     3
1070
   271
1070
     8
1070
   285
1070
     4
1002
}
  0
DIMENSION
  5
643FD
330
1F
100
AcDbEntity
  8
sk2
100
AcDbDimension
  2
*D35
 10
-29.94336941544123
 20
-27.81499999829997
 30
0.0
 11
-29.94336941544123
 21
0.1125095313908559
 31
0.0
 70
   160
  1
%%c<>
 71
     2
 42
55.62999999999999
  3
\M+18352\M+18373\M+1815B - ISO-25
100
AcDbAlignedDimension
 13
5.255754160700007
 23
27.81500000170002
 33
0.0
 14
3.497292622299994
 24
-27.81499999829998
 34
0.0
 50
270.0
100
AcDbRotatedDimension
1001
ACAD
1000
DSTYLE
1002
{
1070
     4
1000
%%C[]"
1070
    40
1040
1.0
1070
   143
1040
0.03937
1070
   170
1070
     1
1070
   171
1070
     3
1070
   271
1070
     8
1070
   285
1070
     4
1002
}
  0
DIMENSION
  5
643FE
330
1F
100
AcDbEntity
  8
sk2
100
AcDbDimension
  2
*D36
 10
-17.5850923076
 20
12.69999999999999
 30
0.0
 11
-17.5850923076
 21
-0.0000000000000114
 31
0.0
 70
   160
  1
%%c<>
 71
     2
 42
25.40000000000001
  3
\M+18352\M+18373\M+1815B - ISO-25
100
AcDbAlignedDimension
 13
4.0
 23
-12.70000000000002
 33
0.0
 14
4.0
 24
12.69999999999999
 34
0.0
 50
90.0
100
AcDbRotatedDimension
1001
ACAD
1000
DSTYLE
1002
{
1070
     4
1000
%%C[]"
1070
    40
1040
1.0
1070
   143
1040
0.03937
1070
   170
1070
     1
1070
   171
1070
     3
1070
   271
1070
     8
1070
   285
1070
     4
1002
}
  0
DIMENSION
  5
643FF
330
1F
100
AcDbEntity
  8
2
100
AcDbDimension
  2
*D37
 10
50.80000000000001
 20
70.77930671180002
 30
0.0
 11
25.40000000000004
 21
70.77930671180002
 31
0.0
 70
   160
 71
     2
 42
50.80000000000001
  3
\M+18352\M+18373\M+1815B - ISO-25
100
AcDbAlignedDimension
 13
0.0
 23
26.86856537519998
 33
0.0
 14
50.80000000000001
 24
37.06305266618278
 34
0.0
100
AcDbRotatedDimension
1001
ACAD
1000
DSTYLE
1002
{
1070
     4
1000
"
1070
    40
1040
1.0
1070
   143
1040
0.03937
1070
   170
1070
     1
1070
   171
1070
     3
1070
   271
1070
     8
1070
   285
1070
     4
1002
}
  0
DIMENSION
  5
64400
330
1F
100
AcDbEntity
  8
sk2
100
AcDbDimension
  2
*D38
 10
26.0
 20
-58.13084963575954
 30
0.0
 11
48.42500000000001
 21
-58.13084963575954
 31
0.0
 70
   160
 71
     2
 42
26.0
  3
\M+18352\M+18373\M+1815B - ISO-25
100
AcDbAlignedDimension
 13
0.0
 23
-26.8685653753
 33
0.0
 14
26.0
 24
-12.01686345200002
 34
0.0
100
AcDbRotatedDimension
1001
ACAD
1000
DSTYLE
1002
{
1070
     4
1000
%%C[]"
1070
    40
1040
1.0
1070
   143
1040
0.03937
1070
   170
1070
     1
1070
   171
1070
     3
1070
   271
1070
     8
1070
   285
1070
     4
1002
}
  0
LINE
  5
64401
330
1F
100
AcDbEntity
  8
1
100
AcDbLine
 10
50.12007713970001
 20
-32.93427161299999
 30
0.0
 11
50.09999999999997
 21
-32.84721547469999
 31
0.0
  0
LWPOLYLINE
  5
64402
330
1F
100
AcDbEntity
  8
1
100
AcDbPolyline
 90
       10
 70
     0
 43
0.0
 10
50.4836659568
 20
-26.68959928520002
 10
50.48003699510002
 20
-26.67346786809999
 10
50.47630004799998
 20
-26.65730286840002
 10
50.47245506999999
 20
-26.64110446410002
 10
50.46850201340001
 20
-26.62487282420001
 10
50.46444083470001
 20
-26.60860813559998
 10
50.46027149560001
 20
-26.59231060309999
 10
50.4559939534
 20
-26.57598041369999
 10
50.45160816110001
 20
-26.55961773640001
 10
50.44711407370002
 20
-26.54322274900001
  0
LINE
  5
64403
330
1F
100
AcDbEntity
  8
1
100
AcDbLine
 10
50.7555253193
 20
-30.60983218050001
 30
0.0
 11
50.79800564220002
 21
-30.8364781459
 31
0.0
  0
LWPOLYLINE
  5
64404
330
1F
100
AcDbEntity
  8
1
100
AcDbPolyline
 90
        9
 70
     0
 43
0.0
 10
50.4754291475
 20
-28.05884555469999
 10
50.47434573460003
 20
-28.05289639700001
 10
50.47186010569999
 20
-28.03813056780001
 10
50.46963144700001
 20
-28.02317819850002
 10
50.46766129690002
 20
-28.00803474279999
 10
50.46595219170001
 20
-27.99270252469998
 10
50.46450705749998
 20
-27.97719099369999
 10
50.46332768010003
 20
-27.96150301099999
 10
50.4624153055
 20
-27.94563459070001
  0
LINE
  5
64405
330
1F
100
AcDbEntity
  8
1
100
AcDbLine
 10
49.98650023909999
 20
-27.37124611500002
 30
0.0
 11
49.94102315679999
 21
-27.10100414780001
 31
0.0
  0
LWPOLYLINE
  5
64406
330
1F
100
AcDbEntity
  8
1
100
AcDbPolyline
 90
       22
 70
     0
 43
0.0
 10
49.94102315679999
 20
-27.10100414780001
 10
49.92987769700002
 20
-27.03286985430002
 10
49.92475707069999
 20
-27.00047168579999
 10
49.91998418760002
 20
-26.96928258809999
 10
49.9155769743
 20
-26.93929357070003
 10
49.91154935949999
 20
-26.9104903093
 10
49.9079363425
 20
-26.8829736648
 10
49.90475238830001
 20
-26.85673519369999
 10
49.90200690399999
 20
-26.83176340860001
 10
49.89972587990004
 20
-26.80815785860004
 10
49.89792072090001
 20
-26.78592186129999
 10
49.89659455260002
 20
-26.76503767259999
 10
49.89575876870003
 20
-26.74557750509999
 10
49.8954186855
 20
-26.72755135320001
 10
49.89557317650002
 20
-26.71094128730003
 10
49.89622139850002
 20
-26.69578157550001
 10
49.8973626675
 20
-26.68207298590002
 10
49.89899128990001
 20
-26.66981188719999
 10
49.90109633340001
 20
-26.65902963120001
 10
49.90366861720002
 20
-26.6497384531
 10
49.90670064010001
 20
-26.64192958090001
 10
49.91018145690003
 20
-26.63560514020004
  0
LINE
  5
64407
330
1F
100
AcDbEntity
  8
1
100
AcDbLine
 10
50.0002820032
 20
-27.45620257200002
 30
0.0
 11
49.98650023909999
 21
-27.37124611500002
 31
0.0
  0
LWPOLYLINE
  5
64408
330
1F
100
AcDbEntity
  8
1
100
AcDbPolyline
 90
       10
 70
     0
 43
0.0
 10
50.51987621630002
 20
-26.8879205005
 10
50.51668700749999
 20
-26.8661966808
 10
50.51329015030003
 20
-26.84439396719998
 10
50.50968522690002
 20
-26.8225127339
 10
50.5058716995
 20
-26.80055329730001
 10
50.5018492625
 20
-26.7785160979
 10
50.49761785030003
 20
-26.75640169770004
 10
50.49317716650003
 20
-26.73421053730002
 10
50.4885266748
 20
-26.71194293860003
 10
50.4836659568
 20
-26.68959928520002
  0
LINE
  5
64409
330
1F
100
AcDbEntity
  8
1
100
AcDbLine
 10
50.4348525341
 20
-31.01136351649998
 30
0.0
 11
50.37188928910001
 21
-30.57801954640002
 31
0.0
  0
LWPOLYLINE
  5
6440A
330
1F
100
AcDbEntity
  8
1
100
AcDbPolyline
 90
        8
 70
     0
 43
0.0
 10
50.50299937590001
 20
-28.19268059810001
 10
50.5023340205
 20
-28.182767206
 10
50.50134794080003
 20
-28.1730594764
 10
50.50003175460003
 20
-28.16354355000001
 10
50.49837807490002
 20
-28.1542066072
 10
50.49638144069999
 20
-28.14503692279999
 10
50.49403824540002
 20
-28.13602382649999
 10
50.49322241740004
 20
-28.13319659050002
  0
LINE
  5
6440B
330
1F
100
AcDbEntity
  8
1
100
AcDbLine
 10
50.45818051810002
 20
-27.84411197430002
 30
0.0
 11
50.45704489580001
 21
-27.82453728590002
 31
0.0
  0
LINE
  5
6440C
330
1F
100
AcDbEntity
  8
1
100
AcDbLine
 10
50.45818051810002
 20
-27.84411197430002
 30
0.0
 11
50.4624153055
 21
-27.94563459070001
 31
0.0
  0
LWPOLYLINE
  5
6440D
330
1F
100
AcDbEntity
  8
1
100
AcDbPolyline
 90
        6
 70
     0
 43
0.0
 10
50.50299937590001
 20
-28.19268059810001
 10
50.50333903120002
 20
-28.20305337110003
 10
50.50333797830001
 20
-28.2135946928
 10
50.5030680307
 20
-28.2241382812
 10
50.50259758580003
 20
-28.2344313237
 10
50.50214859870002
 20
-28.24192187020004
  0
LINE
  5
6440E
330
1F
100
AcDbEntity
  8
1
100
AcDbLine
 10
50.63940859270002
 20
-32.59005088629999
 30
0.0
 11
50.62700927580002
 21
-32.11026992640002
 31
0.0
  0
LWPOLYLINE
  5
6440F
330
1F
100
AcDbEntity
  8
1
100
AcDbPolyline
 90
       23
 70
     0
 43
0.0
 10
50.09999999999997
 20
-28.58438989620001
 10
50.09976077460001
 20
-28.53245423640002
 10
50.09904899440002
 20
-28.48060160219998
 10
50.09787349549998
 20
-28.42883321759999
 10
50.09624179799999
 20
-28.37711792160002
 10
50.09416337010003
 20
-28.32548819750002
 10
50.09165282900003
 20
-28.27403990930004
 10
50.08872178330003
 20
-28.22277213430002
 10
50.08538177899999
 20
-28.1716840981
 10
50.08165292970002
 20
-28.12087066149999
 10
50.07754779240002
 20
-28.0703100675
 10
50.07308166819999
 20
-28.020018945
 10
50.0682854627
 20
-27.97014832480002
 10
50.06317762460003
 20
-27.92069966969999
 10
50.05777493740001
 20
-27.87166265320002
 10
50.05211289120004
 20
-27.8231691579
 10
50.04621462460002
 20
-27.77523618730001
 10
50.04009730420003
 20
-27.72783417030003
 10
50.03379202030004
 20
-27.68102364110001
 10
50.02731668970003
 20
-27.63477774840001
 10
50.0206940175
 20
-27.58910699030001
 10
50.01396603180001
 20
-27.544126431
 10
50.0002820032
 20
-27.45620257200002
  0
LWPOLYLINE
  5
64410
330
1F
100
AcDbEntity
  8
1
100
AcDbPolyline
 90
        3
 70
     0
 43
0.0
 10
50.79522051350005
 20
-31.61624620950002
 10
50.79538362710002
 20
-31.6532995723
 10
50.79758825489998
 20
-31.96497695559998
  0
LINE
  5
64411
330
1F
100
AcDbEntity
  8
1
100
AcDbLine
 10
50.09999999999997
 20
-28.8494423109
 30
0.0
 11
50.09999999999997
 21
-33.48101068599999
 31
0.0
  0
LINE
  5
64412
330
1F
100
AcDbEntity
  8
1
100
AcDbLine
 10
50.09999999999997
 20
-28.58438989620001
 30
0.0
 11
50.09999999999997
 21
-18.32099441200003
 31
0.0
  0
LINE
  5
64413
330
1F
100
AcDbEntity
  8
1
100
AcDbLine
 10
50.79653208689999
 20
-31.13289840899998
 30
0.0
 11
50.79522051350005
 21
-31.61624620950002
 31
0.0
  0
LINE
  5
64414
330
1F
100
AcDbEntity
  8
1
100
AcDbLine
 10
50.79800564220002
 20
-30.8364781459
 30
0.0
 11
50.79744886580002
 21
-30.99641973890002
 31
0.0
  0
LINE
  5
64415
330
1F
100
AcDbEntity
  8
1
100
AcDbLine
 10
50.79744886580002
 20
-30.99641973890002
 30
0.0
 11
50.79653208689999
 21
-31.13289840899998
 31
0.0
  0
LWPOLYLINE
  5
64416
330
1F
100
AcDbEntity
  8
1
100
AcDbPolyline
 90
        5
 70
     0
 43
0.0
 10
50.54022266850004
 20
-27.31713261550003
 10
50.54229337799998
 20
-27.2670731785
 10
50.54218054500001
 20
-27.14333276680004
 10
50.5347237382
 20
-27.01695289610002
 10
50.51987621630002
 20
-26.8879205005
  0
LINE
  5
64417
330
1F
100
AcDbEntity
  8
1
100
AcDbLine
 10
50.62700927580002
 20
-32.11026992640002
 30
0.0
 11
50.63086949000001
 21
-32.02882252250001
 31
0.0
  0
LINE
  5
64418
330
1F
100
AcDbEntity
  8
1
100
AcDbLine
 10
50.63086949000001
 20
-32.02882252250001
 30
0.0
 11
50.63496040610004
 21
-31.95014650570003
 31
0.0
  0
LINE
  5
64419
330
1F
100
AcDbEntity
  8
1
100
AcDbLine
 10
50.29794638700002
 20
-28.35165352480003
 30
0.0
 11
50.30667731650002
 21
-28.18912080550001
 31
0.0
  0
LINE
  5
6441A
330
1F
100
AcDbEntity
  8
1
100
AcDbLine
 10
50.49188218320001
 20
-28.33995654259999
 30
0.0
 11
50.37188928910001
 21
-30.57801954640002
 31
0.0
  0
LINE
  5
6441B
330
1F
100
AcDbEntity
  8
1
100
AcDbLine
 10
50.63496040610004
 20
-31.95014650570003
 30
0.0
 11
50.63930025389999
 21
-31.87375718800003
 31
0.0
  0
LINE
  5
6441C
330
1F
100
AcDbEntity
  8
1
100
AcDbLine
 10
50.63930025389999
 20
-31.87375718800003
 30
0.0
 11
50.64394336550003
 21
-31.79802944800001
 31
0.0
  0
LINE
  5
6441D
330
1F
100
AcDbEntity
  8
1
100
AcDbLine
 10
50.47579865970002
 20
-28.64534799930002
 30
0.0
 11
50.4760207459
 21
-28.64194778789999
 31
0.0
  0
LINE
  5
6441E
330
1F
100
AcDbEntity
  8
1
100
AcDbLine
 10
50.47607638970001
 20
-28.64109586300002
 30
0.0
 11
50.502150073
 21
-28.24189929759999
 31
0.0
  0
LWPOLYLINE
  5
6441F
330
1F
100
AcDbEntity
  8
1
100
AcDbPolyline
 90
       13
 70
     0
 43
0.0
 10
50.29794638700002
 20
-28.35165352480003
 10
50.2941148532
 20
-28.40873496169999
 10
50.28663632819996
 20
-28.48352720219998
 10
50.27685845159999
 20
-28.55375020059998
 10
50.26491760240003
 20
-28.62028171469999
 10
50.25091485170003
 20
-28.68371317169998
 10
50.2351122432
 20
-28.74410937399999
 10
50.21798281249999
 20
-28.8014650339
 10
50.19981581960002
 20
-28.8562364805
 10
50.1809378739
 20
-28.9084961808
 10
50.16168771540001
 20
-28.95816728419999
 10
50.14224946220003
 20
-29.00547340840001
 10
50.12989454870004
 20
-29.03398701500001
  0
LINE
  5
64420
330
1F
100
AcDbEntity
  8
1
100
AcDbLine
 10
50.64394336550003
 20
-31.79802944800001
 30
0.0
 11
50.651652409
 21
-31.6828388049
 31
0.0
  0
LINE
  5
64421
330
1F
100
AcDbEntity
  8
1
100
AcDbLine
 10
50.53510339000002
 20
-27.38818004700002
 30
0.0
 11
50.54022266850004
 21
-27.31713261550003
 31
0.0
  0
LWPOLYLINE
  5
64422
330
1F
100
AcDbEntity
  8
1
100
AcDbPolyline
 90
        7
 70
     0
 43
0.0
 10
50.50197788540001
 20
-28.2444686881
 10
50.50122501600004
 20
-28.25450915820002
 10
50.50036377720002
 20
-28.2645010215
 10
50.49942012479999
 20
-28.27436249070003
 10
50.4983872697
 20
-28.28431181509998
 10
50.49728550910001
 20
-28.29427619079999
 10
50.4961494527
 20
-28.30408836370002
  0
LINE
  5
64423
330
1F
100
AcDbEntity
  8
1
100
AcDbLine
 10
50.651652409
 20
-31.6828388049
 30
0.0
 11
50.66050366799998
 21
-31.56238226399999
 31
0.0
  0
LWPOLYLINE
  5
64424
330
1F
100
AcDbEntity
  8
1
100
AcDbPolyline
 90
        3
 70
     0
 43
0.0
 10
50.66050366799998
 20
-31.56238226399999
 10
50.67085608490001
 20
-31.43277304770001
 10
50.674665
 20
-31.38728676479999
  0
LINE
  5
64425
330
1F
100
AcDbEntity
  8
1
100
AcDbLine
 10
50.48537259149998
 20
-28.4058703124
 30
0.0
 11
50.47391522270001
 21
-28.54039127820002
 31
0.0
  0
LINE
  5
64426
330
1F
100
AcDbEntity
  8
1
100
AcDbLine
 10
50.47391522270001
 20
-28.54039127820002
 30
0.0
 11
50.4688729641
 21
-28.5947455333
 31
0.0
  0
LWPOLYLINE
  5
64427
330
1F
100
AcDbEntity
  8
1
100
AcDbPolyline
 90
        3
 70
     0
 43
0.0
 10
50.49188218320001
 20
-28.33995654259999
 10
50.48717293380002
 20
-28.3863182729
 10
50.48537259149998
 20
-28.4058703124
  0
LINE
  5
64428
330
1F
100
AcDbEntity
  8
1
100
AcDbLine
 10
50.4688729641
 20
-28.5947455333
 30
0.0
 11
50.46290432460003
 21
-28.65008748520002
 31
0.0
  0
LINE
  5
64429
330
1F
100
AcDbEntity
  8
1
100
AcDbLine
 10
50.49280136030003
 20
-28.3319694189
 30
0.0
 11
50.49188218320001
 21
-28.33995654259999
 31
0.0
  0
LINE
  5
6442A
330
1F
100
AcDbEntity
  8
1
100
AcDbLine
 10
50.76863722180002
 20
-30.85846338719998
 30
0.0
 11
50.7840692002
 21
-30.76171236640002
 31
0.0
  0
LINE
  5
6442B
330
1F
100
AcDbEntity
  8
1
100
AcDbLine
 10
50.75352916560001
 20
-30.95047303780002
 30
0.0
 11
50.76863722180002
 21
-30.85846338719998
 31
0.0
  0
LINE
  5
6442C
330
1F
100
AcDbEntity
  8
1
100
AcDbLine
 10
50.73986626610002
 20
-31.03136990610003
 30
0.0
 11
50.75352916560001
 21
-30.95047303780002
 31
0.0
  0
LINE
  5
6442D
330
1F
100
AcDbEntity
  8
1
100
AcDbLine
 10
50.72574790390001
 20
-31.1126570631
 30
0.0
 11
50.73986626610002
 21
-31.03136990610003
 31
0.0
  0
LINE
  5
6442E
330
1F
100
AcDbEntity
  8
1
100
AcDbLine
 10
50.7133037166
 20
-31.18236715640002
 30
0.0
 11
50.72574790390001
 21
-31.1126570631
 31
0.0
  0
LINE
  5
6442F
330
1F
100
AcDbEntity
  8
1
100
AcDbLine
 10
50.70131092760002
 20
-31.24783433610004
 30
0.0
 11
50.7133037166
 21
-31.18236715640002
 31
0.0
  0
LINE
  5
64430
330
1F
100
AcDbEntity
  8
1
100
AcDbLine
 10
50.68742120429999
 20
-31.32156152800003
 30
0.0
 11
50.70131092760002
 21
-31.24783433610004
 31
0.0
  0
LINE
  5
64431
330
1F
100
AcDbEntity
  8
1
100
AcDbLine
 10
50.674665
 20
-31.38728676479999
 30
0.0
 11
50.68742120429999
 21
-31.32156152800003
 31
0.0
  0
LWPOLYLINE
  5
64432
330
1F
100
AcDbEntity
  8
1
100
AcDbPolyline
 90
        8
 70
     0
 43
0.0
 10
49.21505092750002
 20
-35.1356618296
 10
49.21585320240001
 20
-35.13921128620002
 10
49.2179583173
 20
-35.1479200768
 10
49.22021086790002
 20
-35.15668327700002
 10
49.22261219330002
 20
-35.16549994900001
 10
49.22516631049996
 20
-35.17436727960002
 10
49.22787455830001
 20
-35.18328433110001
 10
49.23073559780005
 20
-35.1922520411
  0
LINE
  5
64433
330
1F
100
AcDbEntity
  8
1
100
AcDbLine
 10
49.23793427870004
 20
-35.21649639590001
 30
0.0
 11
49.24759133000003
 21
-35.26331777109999
 31
0.0
  0
LINE
  5
64434
330
1F
100
AcDbEntity
  8
1
100
AcDbLine
 10
50.32723581249999
 20
-29.30307395590002
 30
0.0
 11
50.27264051860001
 21
-29.77829441169999
 31
0.0
  0
LINE
  5
64435
330
1F
100
AcDbEntity
  8
1
100
AcDbLine
 10
50.18870141030004
 20
-30.27805476000002
 30
0.0
 11
50.22940209450002
 21
-29.93225579800002
 31
0.0
  0
LINE
  5
64436
330
1F
100
AcDbEntity
  8
1
100
AcDbLine
 10
50.09999999999997
 20
-31.02195076180001
 30
0.0
 11
50.18870141030004
 21
-30.27805476000002
 31
0.0
  0
LINE
  5
64437
330
1F
100
AcDbEntity
  8
1
100
AcDbLine
 10
50.4961494527
 20
-28.30408836370002
 30
0.0
 11
50.49280136030003
 21
-28.3319694189
 31
0.0
  0
LINE
  5
64438
330
1F
100
AcDbEntity
  8
1
100
AcDbLine
 10
50.27264051860001
 20
-29.77829441169999
 30
0.0
 11
50.23809004630004
 21
-30.05139503980001
 31
0.0
  0
LWPOLYLINE
  5
64439
330
1F
100
AcDbEntity
  8
1
100
AcDbPolyline
 90
        4
 70
     0
 43
0.0
 10
50.46290432460003
 20
-28.65008748520002
 10
50.45568137920003
 20
-28.70615868829998
 10
50.44701186090001
 20
-28.76214421590002
 10
50.43685146030004
 20
-28.81735793140002
  0
LINE
  5
6443A
330
1F
100
AcDbEntity
  8
1
100
AcDbLine
 10
50.23809004630004
 20
-30.05139503980001
 30
0.0
 11
50.20299539470002
 21
-30.32372119620001
 31
0.0
  0
LINE
  5
6443B
330
1F
100
AcDbEntity
  8
1
100
AcDbLine
 10
50.20299539470002
 20
-30.32372119620001
 30
0.0
 11
50.18020843420001
 21
-30.49822952559998
 31
0.0
  0
LINE
  5
6443C
330
1F
100
AcDbEntity
  8
1
100
AcDbLine
 10
50.17051517200002
 20
-30.56416326710003
 30
0.0
 11
50.09999999999997
 21
-31.05314148210002
 31
0.0
  0
LINE
  5
6443D
330
1F
100
AcDbEntity
  8
1
100
AcDbLine
 10
50.18020843420001
 20
-30.49822952559998
 30
0.0
 11
50.17051517200002
 21
-30.56416326710003
 31
0.0
  0
LINE
  5
6443E
330
1F
100
AcDbEntity
  8
1
100
AcDbLine
 10
50.32723581249999
 20
-29.30307395590002
 30
0.0
 11
50.22940209450002
 21
-29.93225579800002
 31
0.0
  0
LWPOLYLINE
  5
6443F
330
1F
100
AcDbEntity
  8
1
100
AcDbPolyline
 90
       11
 70
     0
 43
0.0
 10
50.43685146030004
 20
-28.81735793140002
 10
50.42530549710003
 20
-28.87225577800001
 10
50.41263250330001
 20
-28.92681866300002
 10
50.39928186980001
 20
-28.98012097590001
 10
50.38545698780004
 20
-29.0323369182
 10
50.37128832940002
 20
-29.0837592924
 10
50.35714608300001
 20
-29.13371929070001
 10
50.34303777100001
 20
-29.18224801950002
 10
50.32881481729996
 20
-29.22946540320001
 10
50.31455761070001
 20
-29.27480182989999
 10
50.31393509830002
 20
-29.27672090800001
  0
LWPOLYLINE
  5
64440
330
1F
100
AcDbEntity
  8
1
100
AcDbPolyline
 90
        4
 70
     0
 43
0.0
 10
50.09999999999997
 20
-31.708179946
 10
50.10066698010001
 20
-31.70513736539999
 10
50.10720851710002
 20
-31.67771796110003
 10
50.11427219530003
 20
-31.6504100267
  0
LWPOLYLINE
  5
64441
330
1F
100
AcDbEntity
  8
1
100
AcDbPolyline
 90
        3
 70
     0
 43
0.0
 10
50.09999999999997
 20
-29.36755474210001
 10
50.10261564410001
 20
-29.3560581248
 10
50.11097702950002
 20
-29.31557661639999
  0
LINE
  5
64442
330
1F
100
AcDbEntity
  8
1
100
AcDbLine
 10
50.63940859270002
 20
-32.59005088629999
 30
0.0
 11
50.79758825489998
 21
-31.96497695559998
 31
0.0
  0
LWPOLYLINE
  5
64443
330
1F
100
AcDbEntity
  8
1
100
AcDbPolyline
 90
       52
 70
     0
 43
0.0
 10
50.03992134970002
 20
-33.96753422839998
 10
50.02667253010002
 20
-34.0174981095
 10
50.01220094920004
 20
-34.06696206070002
 10
49.99650905920003
 20
-34.11590126010001
 10
49.97960204380001
 20
-34.16425765329999
 10
49.96147965690003
 20
-34.2120420391
 10
49.94213587299999
 20
-34.25933617910002
 10
49.92155496540002
 20
-34.3061735451
 10
49.89975672199998
 20
-34.35248324329999
 10
49.8767882173
 20
-34.39819259769999
 10
49.85264693569999
 20
-34.44328298619999
 10
49.82733977700002
 20
-34.48773757230001
 10
49.8009282113
 20
-34.5314857921
 10
49.77343226150001
 20
-34.57448435640002
 10
49.7448364727
 20
-34.61674377520001
 10
49.71514913400003
 20
-34.65827483960001
 10
49.6843706418
 20
-34.6990746619
 10
49.65250478210004
 20
-34.73911850690001
 10
49.61956483350002
 20
-34.7783856067
 10
49.5855276602
 20
-34.81689035160002
 10
49.55042039040001
 20
-34.85459437520001
 10
49.5143318593
 20
-34.89139774110001
 10
49.47726088200003
 20
-34.92728281070001
 10
49.43921282409997
 20
-34.96224495820003
 10
49.4002866143
 20
-34.9962032581
 10
49.36050833380003
 20
-35.02912613769999
 10
49.31985606310004
 20
-35.06102530230001
 10
49.27835679740002
 20
-35.0918850084
 10
49.23601309460003
 20
-35.12170181070003
 10
49.1928261809
 20
-35.15046267919999
 10
49.14882100850002
 20
-35.17813810519999
 10
49.10396005130002
 20
-35.20474196980001
 10
49.05828428530004
 20
-35.2302466876
 10
49.01193647639999
 20
-35.25456071230003
 10
48.9649131918
 20
-35.27766990539999
 10
48.91722115000002
 20
-35.2995765446
 10
48.86901842620003
 20
-35.3202137307
 10
48.8203376523
 20
-35.3395595673
 10
48.7711491293
 20
-35.35762621890001
 10
48.72151739060001
 20
-35.37439823230001
 10
48.67145151920002
 20
-35.3898725765
 10
48.62094482290001
 20
-35.4040448904
 10
48.57003805599998
 20
-35.4168982109
 10
48.51869221090002
 20
-35.42843730570002
 10
48.4669481382
 20
-35.43865203670001
 10
48.41496626970002
 20
-35.44750347749999
 10
48.36274247860001
 20
-35.45498168009999
 10
48.31028219110002
 20
-35.46109297539999
 10
48.257760042
 20
-35.4658232404
 10
48.20523447400001
 20
-35.4691671451
 10
48.15264773130002
 20
-35.47112816169999
 10
48.09999999999996
 20
-35.4717057917
  0
LINE
  5
64444
330
1F
100
AcDbEntity
  8
1
100
AcDbLine
 10
50.29312314860002
 20
-30.85856877009999
 30
0.0
 11
50.37188928910001
 21
-30.57801954640002
 31
0.0
  0
LINE
  5
64445
330
1F
100
AcDbEntity
  8
1
100
AcDbLine
 10
50.09999999999997
 20
-31.76112316320001
 30
0.0
 11
50.21061724710003
 21
-31.39067860509999
 31
0.0
  0
LWPOLYLINE
  5
64446
330
1F
100
AcDbEntity
  8
1
100
AcDbPolyline
 90
        8
 70
     0
 43
0.0
 10
50.17955599480001
 20
-31.4607501456
 10
50.17341134270001
 20
-31.47563046010001
 10
50.16211327269999
 20
-31.50411605570004
 10
50.15139641620004
 20
-31.5327415989
 10
50.14124288019999
 20
-31.56165714079998
 10
50.1316593116
 20
-31.59092047110002
 10
50.12266759069999
 20
-31.62050039379997
 10
50.11427219530003
 20
-31.6504100267
  0
LINE
  5
64447
330
1F
100
AcDbEntity
  8
1
100
AcDbLine
 10
50.09999999999997
 20
-31.81643571009999
 30
0.0
 11
50.4348525341
 21
-31.01136351649998
 31
0.0
  0
LWPOLYLINE
  5
64448
330
1F
100
AcDbEntity
  8
1
100
AcDbPolyline
 90
        4
 70
     0
 43
0.0
 10
50.21062010960003
 20
-31.3906787129
 10
50.19769582850003
 20
-31.41890722399998
 10
50.1852847486
 20
-31.44721957660002
 10
50.17955599480001
 20
-31.4607501456
  0
LWPOLYLINE
  5
64449
330
1F
100
AcDbEntity
  8
1
100
AcDbPolyline
 90
       11
 70
     0
 43
0.0
 10
50.33644888200001
 20
-28.12926554559999
 10
50.3522968336
 20
-28.09671074689999
 10
50.3904117454
 20
-28.01135584219998
 10
50.4240515264
 20
-27.92509209959999
 10
50.4533578498
 20
-27.83762581000002
 10
50.47854126799999
 20
-27.74822801619999
 10
50.49956384480001
 20
-27.65680012630001
 10
50.51639240620002
 20
-27.56329334760001
 10
50.52905370479999
 20
-27.46713496940002
 10
50.53741716020002
 20
-27.3682016942
 10
50.53837012329998
 20
-27.35164807800001
  0
LINE
  5
6444A
330
1F
100
AcDbEntity
  8
1
100
AcDbLine
 10
50.18662957700001
 20
-28.43200860539997
 30
0.0
 11
50.23063167550001
 21
-28.34283311840002
 31
0.0
  0
LINE
  5
6444B
330
1F
100
AcDbEntity
  8
1
100
AcDbLine
 10
50.13035653840001
 20
-28.54579207169999
 30
0.0
 11
50.18662957700001
 21
-28.43200860539997
 31
0.0
  0
LWPOLYLINE
  5
6444C
330
1F
100
AcDbEntity
  8
1
100
AcDbPolyline
 90
        3
 70
     0
 43
0.0
 10
50.23063167550001
 20
-28.34283311840002
 10
50.33195010720001
 20
-28.13829474230002
 10
50.33644404720002
 20
-28.12927791830002
  0
LINE
  5
6444D
330
1F
100
AcDbEntity
  8
1
100
AcDbLine
 10
50.13035653840001
 20
-28.54579207169999
 30
0.0
 11
50.1224685041
 21
-28.56148967930002
 31
0.0
  0
LINE
  5
6444E
330
1F
100
AcDbEntity
  8
1
100
AcDbLine
 10
50.1224685041
 20
-28.56148967930002
 30
0.0
 11
50.10030497970001
 21
-28.60345506030002
 31
0.0
  0
LWPOLYLINE
  5
6444F
330
1F
100
AcDbEntity
  8
1
100
AcDbPolyline
 90
       24
 70
     0
 43
0.0
 10
50.11097702950002
 20
-29.31557661639999
 10
50.11511626130001
 20
-29.3085147985
 10
50.1192938243
 20
-29.30150452790001
 10
50.12350971850003
 20
-29.29454580469999
 10
50.12776317640001
 20
-29.2876394864
 10
50.1320549655
 20
-29.28078471539999
 10
50.13638738770001
 20
-29.27397891910002
 10
50.14076050260001
 20
-29.2672221075
 10
50.1451742507
 20
-29.2605142706
 10
50.14963075510002
 20
-29.25385280559999
 10
50.15413032700002
 20
-29.2472374898
 10
50.15867265530002
 20
-29.24066854590002
 10
50.16325892960003
 20
-29.23414403920002
 10
50.16789016389996
 20
-29.22766305930004
 10
50.17256534440003
 20
-29.2212265167
 10
50.17728261960002
 20
-29.21483520800001
 10
50.1820425736
 20
-29.20848918550003
 10
50.18684462249999
 20
-29.20218839700002
 10
50.19168516229999
 20
-29.19593348149998
 10
50.19656459350002
 20
-29.18972501379997
 10
50.20148251570001
 20
-29.18356241910002
 10
50.20643412410001
 20
-29.1774446128
 10
50.21141781710003
 20
-29.17137123340001
 10
50.2164351964
 20
-29.1653426423
  0
LWPOLYLINE
  5
64450
330
1F
100
AcDbEntity
  8
1
100
AcDbPolyline
 90
        3
 70
     0
 43
0.0
 10
49.59332531370003
 20
-34.80806921199999
 10
49.58657935979999
 20
-34.8186272808
 10
49.50183989000001
 20
-34.940880521
  0
LWPOLYLINE
  5
64451
330
1F
100
AcDbEntity
  8
1
100
AcDbPolyline
 90
       10
 70
     0
 43
0.0
 10
50.4348525341
 20
-31.01136351649998
 10
50.40403814390001
 20
-31.05594667239998
 10
50.37474617950002
 20
-31.09985633410005
 10
50.34697218280001
 20
-31.14310887149999
 10
50.3207082202
 20
-31.1857303708
 10
50.29592231900003
 20
-31.22775231079998
 10
50.27256655880001
 20
-31.26920744149999
 10
50.25059826490002
 20
-31.31013935450004
 10
50.2299710222
 20
-31.35060729980002
 10
50.21062010960003
 20
-31.3906787129
  0
LWPOLYLINE
  5
64452
330
1F
100
AcDbEntity
  8
1
100
AcDbPolyline
 90
        8
 70
     0
 43
0.0
 10
49.50183989000001
 20
-34.940880521
 10
49.48699496810002
 20
-34.96137670870002
 10
49.47193133330003
 20
-34.98192276680001
 10
49.45664869250001
 20
-35.0025182727
 10
49.44114661240002
 20
-35.02316284369999
 10
49.42542493370002
 20
-35.0438560078
 10
49.40948377970002
 20
-35.06459720690001
 10
49.39332300140001
 20
-35.08538597009998
  0
LWPOLYLINE
  5
64453
330
1F
100
AcDbEntity
  8
1
100
AcDbPolyline
 90
        4
 70
     0
 43
0.0
 10
50.45135272670004
 20
-30.98854770219998
 10
50.44714717370002
 20
-30.99428331960002
 10
50.4429664973
 20
-31.00004196559999
 10
50.4348525341
 20
-31.01136351649998
  0
LINE
  5
64454
330
1F
100
AcDbEntity
  8
1
100
AcDbLine
 10
50.51999870190002
 20
-32.7461459724
 30
0.0
 11
50.55089996260003
 21
-32.70518415200001
 31
0.0
  0
LINE
  5
64455
330
1F
100
AcDbEntity
  8
1
100
AcDbLine
 10
50.55089996260003
 20
-32.70518415200001
 30
0.0
 11
50.58268766280002
 21
-32.66347695430003
 31
0.0
  0
LINE
  5
64456
330
1F
100
AcDbEntity
  8
1
100
AcDbLine
 10
50.58268766280002
 20
-32.66347695430003
 30
0.0
 11
50.6009210748
 21
-32.63971906960001
 31
0.0
  0
LINE
  5
64457
330
1F
100
AcDbEntity
  8
1
100
AcDbLine
 10
50.6009210748
 20
-32.63971906960001
 30
0.0
 11
50.63940859270002
 21
-32.59005088629999
 31
0.0
  0
LINE
  5
64458
330
1F
100
AcDbEntity
  8
1
100
AcDbLine
 10
49.39332300140001
 20
-35.08538597009998
 30
0.0
 11
49.37694216870003
 21
-35.10622190980001
 31
0.0
  0
LINE
  5
64459
330
1F
100
AcDbEntity
  8
1
100
AcDbLine
 10
49.37694216870003
 20
-35.10622190980001
 30
0.0
 11
49.36034099060001
 21
-35.12710459390002
 31
0.0
  0
LINE
  5
6445A
330
1F
100
AcDbEntity
  8
1
100
AcDbLine
 10
49.36034099060001
 20
-35.12710459390002
 30
0.0
 11
49.33605710840001
 21
-35.15724652400002
 31
0.0
  0
LINE
  5
6445B
330
1F
100
AcDbEntity
  8
1
100
AcDbLine
 10
49.33605710840001
 20
-35.15724652400002
 30
0.0
 11
49.31133224909999
 21
-35.18746264710003
 31
0.0
  0
LINE
  5
6445C
330
1F
100
AcDbEntity
  8
1
100
AcDbLine
 10
49.31133224909999
 20
-35.18746264710003
 30
0.0
 11
49.28616647220002
 21
-35.21775149230001
 31
0.0
  0
LWPOLYLINE
  5
6445D
330
1F
100
AcDbEntity
  8
1
100
AcDbPolyline
 90
        3
 70
     0
 43
0.0
 10
49.28616647220002
 20
-35.21775149230001
 10
49.2605599032
 20
-35.24811151410001
 10
49.24759133000003
 20
-35.26331777109999
  0
LINE
  5
6445E
330
1F
100
AcDbEntity
  8
1
100
AcDbLine
 10
50.46413103940006
 20
-30.97131867450004
 30
0.0
 11
50.45135272670004
 21
-30.98854770219998
 31
0.0
  0
LINE
  5
6445F
330
1F
100
AcDbEntity
  8
1
100
AcDbLine
 10
50.50350361280004
 20
-30.91863922090002
 30
0.0
 11
50.49449492030004
 21
-30.93069190610002
 31
0.0
  0
LINE
  5
64460
330
1F
100
AcDbEntity
  8
1
100
AcDbLine
 10
50.49449492030004
 20
-30.93069190610002
 30
0.0
 11
50.48577678650002
 21
-30.94235299450004
 31
0.0
  0
LINE
  5
64461
330
1F
100
AcDbEntity
  8
1
100
AcDbLine
 10
50.48577678650002
 20
-30.94235299450004
 30
0.0
 11
50.46413103940006
 21
-30.97131867450004
 31
0.0
  0
LINE
  5
64462
330
1F
100
AcDbEntity
  8
1
100
AcDbLine
 10
50.52868606520005
 20
-30.88503718670002
 30
0.0
 11
50.50350361280004
 21
-30.91863922090002
 31
0.0
  0
LINE
  5
64463
330
1F
100
AcDbEntity
  8
1
100
AcDbLine
 10
50.54062203270001
 20
-30.86924737840003
 30
0.0
 11
50.52868606520005
 21
-30.88503718670002
 31
0.0
  0
LWPOLYLINE
  5
64464
330
1F
100
AcDbEntity
  8
1
100
AcDbPolyline
 90
        5
 70
     0
 43
0.0
 10
50.57548273120002
 20
-30.82437317289998
 10
50.56803993089999
 20
-30.83377222660002
 10
50.56079515639999
 20
-30.84302680420002
 10
50.55376005970001
 20
-30.85210214840002
 10
50.54062203270001
 20
-30.86924737840003
  0
LINE
  5
64465
330
1F
100
AcDbEntity
  8
1
100
AcDbLine
 10
50.59092027870002
 20
-30.8051149306
 30
0.0
 11
50.57548273120002
 21
-30.82437317289998
 31
0.0
  0
LINE
  5
64466
330
1F
100
AcDbEntity
  8
1
100
AcDbLine
 10
50.60679876399999
 20
-30.78551850030001
 30
0.0
 11
50.59092027870002
 21
-30.8051149306
 31
0.0
  0
LINE
  5
64467
330
1F
100
AcDbEntity
  8
1
100
AcDbLine
 10
50.2384399632
 20
-29.13913746860001
 30
0.0
 11
50.24335382990003
 21
-29.1331402431
 31
0.0
  0
LINE
  5
64468
330
1F
100
AcDbEntity
  8
1
100
AcDbLine
 10
50.6317323861
 20
-30.75507269799999
 30
0.0
 11
50.60679876399999
 21
-30.78551850030001
 31
0.0
  0
LINE
  5
64469
330
1F
100
AcDbEntity
  8
1
100
AcDbLine
 10
50.64928303319999
 20
-30.7339076266
 30
0.0
 11
50.6317323861
 21
-30.75507269799999
 31
0.0
  0
LINE
  5
6446A
330
1F
100
AcDbEntity
  8
1
100
AcDbLine
 10
50.233553588
 20
-29.1450325987
 30
0.0
 11
50.2384399632
 21
-29.13913746860001
 31
0.0
  0
LINE
  5
6446B
330
1F
100
AcDbEntity
  8
1
100
AcDbLine
 10
50.66761914860001
 20
-30.7120462133
 30
0.0
 11
50.64928303319999
 21
-30.7339076266
 31
0.0
  0
LINE
  5
6446C
330
1F
100
AcDbEntity
  8
1
100
AcDbLine
 10
50.22628400159999
 20
-29.1536943017
 30
0.0
 11
50.233553588
 21
-29.1450325987
 31
0.0
  0
LINE
  5
6446D
330
1F
100
AcDbEntity
  8
1
100
AcDbLine
 10
50.2164351964
 20
-29.1653426423
 30
0.0
 11
50.22628400159999
 21
-29.1536943017
 31
0.0
  0
LINE
  5
6446E
330
1F
100
AcDbEntity
  8
1
100
AcDbLine
 10
50.6866285577
 20
-30.68964499719999
 30
0.0
 11
50.66761914860001
 21
-30.7120462133
 31
0.0
  0
LINE
  5
6446F
330
1F
100
AcDbEntity
  8
1
100
AcDbLine
 10
50.71595621360001
 20
-30.65539956399998
 30
0.0
 11
50.6866285577
 21
-30.68964499719999
 31
0.0
  0
LWPOLYLINE
  5
64470
330
1F
100
AcDbEntity
  8
1
100
AcDbPolyline
 90
        3
 70
     0
 43
0.0
 10
50.7555253193
 20
-30.60983218050001
 10
50.74564581490003
 20
-30.62113777570002
 10
50.71595621360001
 20
-30.65539956399998
  0
LINE
  5
64471
330
1F
100
AcDbEntity
  8
1
100
AcDbLine
 10
50.12230980260003
 20
-33.03321917619999
 30
0.0
 11
50.09999999999997
 21
-33.0536930806
 31
0.0
  0
LWPOLYLINE
  5
64472
330
1F
100
AcDbEntity
  8
1
100
AcDbPolyline
 90
        3
 70
     0
 43
0.0
 10
49.91018145690003
 20
-26.63560514020004
 10
49.91402961450001
 20
-26.63088610460001
 10
49.91498478100002
 20
-26.6299878256
  0
LWPOLYLINE
  5
64473
330
1F
100
AcDbEntity
  8
1
100
AcDbPolyline
 90
       11
 70
     0
 43
0.0
 10
50.09999999999997
 20
-28.40604713379999
 10
50.14448750310001
 20
-28.35389406660002
 10
50.2168536227
 20
-28.25774539619999
 10
50.28193623270002
 20
-28.15883174880001
 10
50.33975696609999
 20
-28.0571358119
 10
50.39034893830001
 20
-27.95263480739999
 10
50.43373576499999
 20
-27.84533146430002
 10
50.46991996859998
 20
-27.73523332559999
 10
50.49889437620004
 20
-27.62232160010002
 10
50.5206312421
 20
-27.50661416930002
 10
50.53510339000002
 20
-27.38818004700002
  0
LINE
  5
64474
330
1F
100
AcDbEntity
  8
1
100
AcDbLine
 10
50.62700927580002
 20
-32.11026992640002
 30
0.0
 11
50.09999999999997
 21
-32.42210687190001
 31
0.0
  0
LWPOLYLINE
  5
64475
330
1F
100
AcDbEntity
  8
1
100
AcDbPolyline
 90
        9
 70
     0
 43
0.0
 10
50.382792193
 20
-32.74853419750002
 10
50.4042188331
 20
-32.73590742849999
 10
50.4260967127
 20
-32.72352655899999
 10
50.44841804960004
 20
-32.71139213340001
 10
50.47117399510003
 20
-32.69950524950001
 10
50.49435799360001
 20
-32.68786579180002
 10
50.51796602110002
 20
-32.67647253990001
 10
50.54199198960003
 20
-32.66532547500001
 10
50.56642750720001
 20
-32.65442567169998
  0
LWPOLYLINE
  5
64476
330
1F
100
AcDbEntity
  8
1
100
AcDbPolyline
 90
       16
 70
     0
 43
0.0
 10
50.51999870190002
 20
-32.7461459724
 10
50.48670498220002
 20
-32.76218599960001
 10
50.45424249410001
 20
-32.7787216644
 10
50.42263310470002
 20
-32.795751911
 10
50.39187171949999
 20
-32.81329155530001
 10
50.36200987389998
 20
-32.83132408020001
 10
50.33314656889999
 20
-32.84979782250002
 10
50.30530380940001
 20
-32.86870271390001
 10
50.27848830069999
 20
-32.88803878110002
 10
50.25276199030002
 20
-32.90776372150001
 10
50.22812552600001
 20
-32.927877115
 10
50.2045963784
 20
-32.94836522419999
 10
50.18224624390001
 20
-32.9691601653
 10
50.16109405859999
 20
-32.99023096869999
 10
50.14111648560001
 20
-33.0115873085
 10
50.1223120677
 20
-33.03321913739998
  0
LWPOLYLINE
  5
64477
330
1F
100
AcDbEntity
  8
1
100
AcDbPolyline
 90
        4
 70
     0
 43
0.0
 10
49.91498478100002
 20
-26.6299878256
 10
49.91824603760003
 20
-26.62760189649998
 10
49.92281687760002
 20
-26.6257595763
 10
49.92773582470002
 20
-26.62538477270003
  0
LINE
  5
64478
330
1F
100
AcDbEntity
  8
1
100
AcDbLine
 10
50.56642750720001
 20
-32.65442567169998
 30
0.0
 11
50.5912654055
 21
-32.64377360800001
 31
0.0
  0
LINE
  5
64479
330
1F
100
AcDbEntity
  8
1
100
AcDbLine
 10
50.5912654055
 20
-32.64377360800001
 30
0.0
 11
50.6009210748
 21
-32.63971906960001
 31
0.0
  0
LWPOLYLINE
  5
6447A
330
1F
100
AcDbEntity
  8
1
100
AcDbPolyline
 90
        3
 70
     0
 43
0.0
 10
49.24759133000003
 20
-35.26331777109999
 10
49.11363332760001
 20
-35.2641763327
 10
48.98979107650001
 20
-35.26544388070004
  0
LWPOLYLINE
  5
6447B
330
1F
100
AcDbEntity
  8
1
100
AcDbPolyline
 90
       10
 70
     0
 43
0.0
 10
48.09999999999996
 20
-35.4717057917
 10
46.7427081614
 20
-35.46874849990003
 10
45.38307240130001
 20
-35.46538060680001
 10
44.02109271970002
 20
-35.46160103680001
 10
42.6567688307
 20
-35.45740883720001
 10
41.29010102010002
 20
-35.4528028436
 10
39.92109014600004
 20
-35.44778156940001
 10
38.54973649429999
 20
-35.44234370309999
 10
37.17603977889999
 20
-35.43648821900001
 10
35.80000000000001
 20
-35.43021396560003
  0
LWPOLYLINE
  5
6447C
330
1F
100
AcDbEntity
  8
1
100
AcDbPolyline
 90
       28
 70
     0
 43
0.0
 10
35.80000000000001
 20
-35.43021396560003
 10
35.69253381710004
 20
-35.4285599326
 10
35.58524237350003
 20
-35.42462998210002
 10
35.47812530740001
 20
-35.4184250212
 10
35.37107083010003
 20
-35.40993009829997
 10
35.2641891534
 20
-35.3991641632
 10
35.15781251670003
 20
-35.38618002109999
 10
35.05198831650003
 20
-35.3709769386
 10
34.94666597130001
 20
-35.35356409550003
 10
34.84203042900001
 20
-35.3340101611
 10
34.73806502790001
 20
-35.31231145240003
 10
34.63478177940004
 20
-35.28848490650001
 10
34.53240843060001
 20
-35.26263102269999
 10
34.43091999520002
 20
-35.23473986400001
 10
34.33033557429999
 20
-35.2048398064
 10
34.23094904780004
 20
-35.1730893566
 10
34.13280905139999
 20
-35.1395066787
 10
34.03586028240003
 20
-35.10409702320001
 10
33.94024089390001
 20
-35.0669997453
 10
33.84592963510002
 20
-35.02821441110001
 10
33.7529404693
 20
-34.98777042189999
 10
33.66146473480001
 20
-34.94585165949999
 10
33.5714832255
 20
-34.90245213980001
 10
33.48300770970002
 20
-34.8576117355
 10
33.39627674530004
 20
-34.8115815141
 10
33.31136781820001
 20
-34.76445636459999
 10
33.22819670200002
 20
-34.71617747889999
 10
33.14675983890001
 20
-34.66676493040001
  0
LWPOLYLINE
  5
6447D
330
1F
100
AcDbEntity
  8
1
100
AcDbPolyline
 90
       19
 70
     0
 43
0.0
 10
28.89358869100002
 20
-32.0562095963
 10
30.50986793920003
 20
-32.15109285719999
 10
32.06635983460004
 20
-32.24757982840002
 10
33.56306437690003
 20
-32.34567051000002
 10
34.99738064810003
 20
-32.4454782408
 10
36.37190956640001
 20
-32.54688968200003
 10
37.69445388610001
 20
-32.64956481670001
 10
38.96561116250001
 20
-32.75345758989999
 10
40.18478384030004
 20
-32.8586140566
 10
41.357982009
 20
-32.96483236500001
 10
42.48554958639997
 20
-33.07206476550002
 10
43.56714265469998
 20
-33.18035900770002
 10
44.60773954920003
 20
-33.28965648820002
 10
45.6075344036
 20
-33.39989537399998
 10
46.5663330841
 20
-33.5111374981
 10
47.48853152560002
 20
-33.62350975609999
 10
48.37559503940003
 20
-33.7370544463
 10
49.22605831410004
 20
-33.8517292704
 10
50.03992134970002
 20
-33.96753422839998
  0
LINE
  5
6447E
330
1F
100
AcDbEntity
  8
1
100
AcDbLine
 10
31.76935989350003
 20
-33.81871719490002
 30
0.0
 11
29.84530115639998
 21
-32.6431213962
 31
0.0
  0
LINE
  5
6447F
330
1F
100
AcDbEntity
  8
1
100
AcDbLine
 10
32.32665805900001
 20
-34.16087206929999
 30
0.0
 11
31.76935989350003
 21
-33.81871719490002
 31
0.0
  0
LINE
  5
64480
330
1F
100
AcDbEntity
  8
1
100
AcDbLine
 10
29.84530115639998
 20
-32.6431213962
 30
0.0
 11
29.30564100910002
 21
-32.31195581189999
 31
0.0
  0
LWPOLYLINE
  5
64481
330
1F
100
AcDbEntity
  8
1
100
AcDbPolyline
 90
        3
 70
     0
 43
0.0
 10
33.14675983890001
 20
-34.66676493040001
 10
32.93361216870002
 20
-34.53504409740001
 10
32.32665805900001
 20
-34.16087206929999
  0
LINE
  5
64482
330
1F
100
AcDbEntity
  8
1
100
AcDbLine
 10
29.30564100910002
 20
-32.31195581189999
 30
0.0
 11
29.0852985857
 21
-32.17568001480001
 31
0.0
  0
LWPOLYLINE
  5
64483
330
1F
100
AcDbEntity
  8
1
100
AcDbPolyline
 90
        3
 70
     0
 43
0.0
 10
29.0852985857
 20
-32.17568001480001
 10
28.9543023761
 20
-32.09424390440001
 10
24.49293887290003
 20
-29.30111586390001
  0
LINE
  5
64484
330
1F
100
AcDbEntity
  8
1
100
AcDbLine
 10
50.7555253193
 20
-30.60983218050001
 30
0.0
 11
50.37188928910001
 21
-30.57801954640002
 31
0.0
  0
LINE
  5
64485
330
1F
100
AcDbEntity
  8
1
100
AcDbLine
 10
50.09999999999997
 20
-30.7547892404
 30
0.0
 11
50.1315858232
 21
-30.75760383070002
 31
0.0
  0
LINE
  5
64486
330
1F
100
AcDbEntity
  8
1
100
AcDbLine
 10
1.699999999999988
 20
-27.81500000000003
 30
0.0
 11
11.69999999999999
 21
-27.81500000000003
 31
0.0
  0
LINE
  5
64487
330
1F
100
AcDbEntity
  8
1
100
AcDbLine
 10
50.11097702950002
 20
-29.31557661639999
 30
0.0
 11
50.09999999999997
 21
-29.3145968819
 31
0.0
  0
LINE
  5
64488
330
1F
100
AcDbEntity
  8
1
100
AcDbLine
 10
50.09999999999997
 20
-30.26982373680002
 30
0.0
 11
50.18870141030004
 21
-30.27805476000002
 31
0.0
  0
LWPOLYLINE
  5
64489
330
1F
100
AcDbEntity
  8
1
100
AcDbPolyline
 90
        4
 70
     0
 43
0.0
 10
50.44711407370002
 20
-26.54322274900001
 10
50.31486418980001
 20
-26.5242426977
 10
50.1851541645
 20
-26.50512586779999
 10
50.09999999999997
 20
-26.49223349700004
  0
LWPOLYLINE
  5
6448A
330
1F
100
AcDbEntity
  8
1
100
AcDbPolyline
 90
       36
 70
     0
 43
0.0
 10
49.92773582470002
 20
-26.62538477270003
 10
49.9329771205
 20
-26.62646631440001
 10
49.93849689260002
 20
-26.6289574555
 10
49.94427870130002
 20
-26.63287357910002
 10
49.95030173060001
 20
-26.63821703160002
 10
49.95651666620003
 20
-26.64492368680001
 10
49.96290473260003
 20
-26.65300949919998
 10
49.96944419720001
 20
-26.66247820840002
 10
49.97608371660001
 20
-26.67324890770002
 10
49.98280189620004
 20
-26.68533299649999
 10
49.98957853490003
 20
-26.6987394873
 10
49.99636727600003
 20
-26.71338453660002
 10
50.00314866540001
 20
-26.72928263530001
 10
50.00990032479998
 20
-26.74643883010002
 10
50.01657553720002
 20
-26.76475516459999
 10
50.0231524886
 20
-26.78423551250002
 10
50.0296134054
 20
-26.80489436550003
 10
50.03592186280002
 20
-26.82664927180002
 10
50.04205742639999
 20
-26.84950141910004
 10
50.0480025164
 20
-26.87346566309999
 10
50.05372819280004
 20
-26.89847912779999
 10
50.05921848399998
 20
-26.92456088969999
 10
50.0644518286
 20
-26.95170522289999
 10
50.06939518999999
 20
-26.97981128309999
 10
50.07403277650002
 20
-27.00888979600002
 10
50.07834773260004
 20
-27.03894132410002
 10
50.08231189460002
 20
-27.06984923840002
 10
50.08591143420003
 20
-27.10161350800003
 10
50.08913397380002
 20
-27.13424324710003
 10
50.091959957
 20
-27.167634851
 10
50.0943782757
 20
-27.20178165740002
 10
50.09637937229999
 20
-27.23669704789998
 10
50.09795079389999
 20
-27.2723066337
 10
50.09908342330001
 20
-27.30858698009999
 10
50.09976940000001
 20
-27.3455658387
 10
50.09999999999997
 20
-27.38324492940002
  0
LWPOLYLINE
  5
6448B
330
1F
100
AcDbEntity
  8
1
100
AcDbPolyline
 90
        8
 70
     0
 43
0.0
 10
50.24335382990003
 20
-29.1331402431
 10
50.21773123189999
 20
-29.1130896231
 10
50.19307218510002
 20
-29.09266554110003
 10
50.16939586240005
 20
-29.07187184680001
 10
50.14670169979999
 20
-29.05069333910001
 10
50.12503122870004
 20
-29.02915287020002
 10
50.10445808380004
 20
-29.00731385539998
 10
50.09999999999997
 20
-29.00224522260002
  0
LINE
  5
6448C
330
1F
100
AcDbEntity
  8
1
100
AcDbLine
 10
50.11219274740003
 20
-29.80235791550001
 30
0.0
 11
50.09999999999997
 21
-29.7892617748
 31
0.0
  0
LINE
  5
6448D
330
1F
100
AcDbEntity
  8
1
100
AcDbLine
 10
50.13376411560003
 20
-29.82571927870002
 30
0.0
 11
50.11219274740003
 21
-29.80235791550001
 31
0.0
  0
LINE
  5
6448E
330
1F
100
AcDbEntity
  8
1
100
AcDbLine
 10
50.15501069539999
 20
-29.8489619053
 30
0.0
 11
50.13376411560003
 21
-29.82571927870002
 31
0.0
  0
LINE
  5
6448F
330
1F
100
AcDbEntity
  8
1
100
AcDbLine
 10
50.17592964569999
 20
-29.87208063879999
 30
0.0
 11
50.15501069539999
 21
-29.8489619053
 31
0.0
  0
LINE
  5
64490
330
1F
100
AcDbEntity
  8
1
100
AcDbLine
 10
50.19992168539999
 20
-29.89888466030001
 30
0.0
 11
50.17592964569999
 21
-29.87208063879999
 31
0.0
  0
LWPOLYLINE
  5
64491
330
1F
100
AcDbEntity
  8
1
100
AcDbPolyline
 90
        7
 70
     0
 43
0.0
 10
49.23073559780005
 20
-35.1922520411
 10
49.23458872580003
 20
-35.2038059439
 10
49.2353712938
 20
-35.20634233019999
 10
49.2360971331
 20
-35.20887956850001
 10
49.23676624370003
 20
-35.21141765890003
 10
49.23737862560003
 20
-35.21395660140001
 10
49.23793427870004
 20
-35.21649639590001
  0
LWPOLYLINE
  5
64492
330
1F
100
AcDbEntity
  8
1
100
AcDbPolyline
 90
        3
 70
     0
 43
0.0
 10
50.22940209450002
 20
-29.93225579800002
 10
50.22355209670002
 20
-29.92559475120002
 10
50.19992168539999
 20
-29.89888466030001
  0
LINE
  5
64493
330
1F
100
AcDbEntity
  8
1
100
AcDbLine
 10
50.4348525341
 20
-31.01136351649998
 30
0.0
 11
50.674665
 21
-31.38728676479999
 31
0.0
  0
LINE
  5
64494
330
1F
100
AcDbEntity
  8
1
100
AcDbLine
 10
50.2998780048
 20
-29.24892350350002
 30
0.0
 11
50.32723581249999
 21
-29.30307395590002
 31
0.0
  0
LINE
  5
64495
330
1F
100
AcDbEntity
  8
1
100
AcDbLine
 10
50.2813898432
 20
-29.21162319180002
 30
0.0
 11
50.2998780048
 21
-29.24892350350002
 31
0.0
  0
LINE
  5
64496
330
1F
100
AcDbEntity
  8
1
100
AcDbLine
 10
50.26477781239998
 20
-29.17766398410002
 30
0.0
 11
50.2813898432
 21
-29.21162319180002
 31
0.0
  0
LWPOLYLINE
  5
64497
330
1F
100
AcDbEntity
  8
1
100
AcDbPolyline
 90
        3
 70
     0
 43
0.0
 10
50.24335382990003
 20
-29.1331402431
 10
50.24863215199999
 20
-29.14419002239998
 10
50.26477781239998
 20
-29.17766398410002
  0
LINE
  5
64498
330
1F
100
AcDbEntity
  8
1
100
AcDbLine
 10
50.50299937590001
 20
-28.19268059810001
 30
0.0
 11
50.39143483020001
 21
-28.00873230770004
 31
0.0
  0
LINE
  5
64499
330
1F
100
AcDbEntity
  8
1
100
AcDbLine
 10
50.7555253193
 20
-30.60983218050001
 30
0.0
 11
50.42043575760001
 21
-29.6750480492
 31
0.0
  0
LWPOLYLINE
  5
6449A
330
1F
100
AcDbEntity
  8
1
100
AcDbPolyline
 90
        9
 70
     0
 43
0.0
 10
50.49322241740004
 20
-28.13319659050002
 10
50.49280974470002
 20
-28.1317948848
 10
50.4895973122
 20
-28.1204980081
 10
50.48655983630002
 20
-28.10911126619999
 10
50.48369711440003
 20
-28.09763581730003
 10
50.48100951690003
 20
-28.08607566650001
 10
50.47849662479999
 20
-28.07443220539997
 10
50.4761574391
 20
-28.06270412629999
 10
50.47542979710001
 20
-28.05884904440001
  0
LINE
  5
6449B
330
1F
100
AcDbEntity
  8
1
100
AcDbLine
 10
0.0
 20
-26.8685653753
 30
0.0
 11
0.0
 21
-18.32099441200003
 31
0.0
  0
LINE
  5
6449C
330
1F
100
AcDbEntity
  8
4
100
AcDbLine
 10
56.96577754530006
 20
0.0
 30
0.0
 11
-4.977085223899962
 21
0.0
 31
0.0
  0
LINE
  5
6449D
330
1F
100
AcDbEntity
  8
1
100
AcDbLine
 10
50.7840692002
 20
-16.25416893300001
 30
0.0
 11
50.79800564220002
 21
-16.23779294779999
 31
0.0
  0
LINE
  5
6449E
330
1F
100
AcDbEntity
  8
1
100
AcDbLine
 10
50.62700927580002
 20
-18.1435679873
 30
0.0
 11
50.47406615310001
 21
-18.32100558799998
 31
0.0
  0
LINE
  5
6449F
330
1F
100
AcDbEntity
  8
1
100
AcDbLine
 10
50.7555253193
 20
-16.05781936099998
 30
0.0
 11
50.46197170100004
 21
-16.38775919059998
 31
0.0
  0
LWPOLYLINE
  5
644A0
330
1F
100
AcDbEntity
  8
1
100
AcDbPolyline
 90
        7
 70
     0
 43
0.0
 10
50.14457536280002
 20
-18.32100558799998
 10
50.2168536227
 20
-17.9910673482
 10
50.28193623270002
 20
-17.65850211689999
 10
50.33975696609999
 20
-17.32364764889999
 10
50.39034893830001
 20
-16.9864106528
 10
50.43373576499999
 20
-16.6467711976
 10
50.46991996859998
 20
-16.3047141092
  0
LWPOLYLINE
  5
644A1
330
1F
100
AcDbEntity
  8
1
100
AcDbPolyline
 90
        9
 70
     0
 43
0.0
 10
50.14902636440002
 20
-18.32100558799998
 10
50.20167697210005
 20
-18.08384582969998
 10
50.26580587460003
 20
-17.76284202230002
 10
50.32343581180001
 20
-17.43869290450001
 10
50.37444456530002
 20
-17.11172141969999
 10
50.41872951080003
 20
-16.78220527180002
 10
50.45624898540001
 20
-16.4501001003
 10
50.48699311430002
 20
-16.1151862053
 10
50.49596902729999
 20
-15.9997181153
  0
LWPOLYLINE
  5
644A2
330
1F
100
AcDbEntity
  8
1
100
AcDbPolyline
 90
        4
 70
     0
 43
0.0
 10
50.40604290299999
 20
-17.14531431629999
 10
50.37474617950002
 20
-17.26963016629997
 10
50.34697218280001
 20
-17.385921741
 10
50.32081529520002
 20
-17.50145315059998
  0
LINE
  5
644A3
330
1F
100
AcDbEntity
  8
1
100
AcDbLine
 10
50.4348525341
 20
-17.03631033309997
 30
0.0
 11
50.40604290299999
 21
-17.14531431629999
 31
0.0
  0
LINE
  5
644A4
330
1F
100
AcDbEntity
  8
1
100
AcDbLine
 10
50.4429664973
 20
-17.00673518169998
 30
0.0
 11
50.4348525341
 21
-17.03631033309997
 31
0.0
  0
LINE
  5
644A5
330
1F
100
AcDbEntity
  8
1
100
AcDbLine
 10
50.45135272670004
 20
-16.97672222930001
 30
0.0
 11
50.4429664973
 21
-17.00673518169998
 31
0.0
  0
LINE
  5
644A6
330
1F
100
AcDbEntity
  8
1
100
AcDbLine
 10
50.46843774109999
 20
-16.91688297250002
 30
0.0
 11
50.45135272670004
 21
-16.97672222930001
 31
0.0
  0
LINE
  5
644A7
330
1F
100
AcDbEntity
  8
1
100
AcDbLine
 10
50.49013154549999
 20
-16.842371648
 30
0.0
 11
50.46843774109999
 21
-16.91688297250002
 31
0.0
  0
LINE
  5
644A8
330
1F
100
AcDbEntity
  8
1
100
AcDbLine
 10
50.51297094740005
 20
-16.76527860719997
 30
0.0
 11
50.49013154549999
 21
-16.842371648
 31
0.0
  0
LINE
  5
644A9
330
1F
100
AcDbEntity
  8
1
100
AcDbLine
 10
50.52868606520005
 20
-16.7131196908
 30
0.0
 11
50.51297094740005
 21
-16.76527860719997
 31
0.0
  0
LINE
  5
644AA
330
1F
100
AcDbEntity
  8
1
100
AcDbLine
 10
50.54062203270001
 20
-16.67408950640001
 30
0.0
 11
50.52868606520005
 21
-16.7131196908
 31
0.0
  0
LINE
  5
644AB
330
1F
100
AcDbEntity
  8
1
100
AcDbLine
 10
50.55376005970001
 20
-16.6318777392
 30
0.0
 11
50.54062203270001
 21
-16.67408950640001
 31
0.0
  0
LINE
  5
644AC
330
1F
100
AcDbEntity
  8
1
100
AcDbLine
 10
50.56803993089999
 20
-16.58691920590001
 30
0.0
 11
50.55376005970001
 21
-16.6318777392
 31
0.0
  0
LINE
  5
644AD
330
1F
100
AcDbEntity
  8
1
100
AcDbLine
 10
50.58313359420004
 20
-16.5404998203
 30
0.0
 11
50.56803993089999
 21
-16.58691920590001
 31
0.0
  0
LINE
  5
644AE
330
1F
100
AcDbEntity
  8
1
100
AcDbLine
 10
50.59879829319999
 20
-16.4932154171
 30
0.0
 11
50.58313359420004
 21
-16.5404998203
 31
0.0
  0
LINE
  5
644AF
330
1F
100
AcDbEntity
  8
1
100
AcDbLine
 10
50.61495993870003
 20
-16.44525184649998
 30
0.0
 11
50.59879829319999
 21
-16.4932154171
 31
0.0
  0
LINE
  5
644B0
330
1F
100
AcDbEntity
  8
1
100
AcDbLine
 10
50.6317323861
 20
-16.3962423746
 30
0.0
 11
50.61495993870003
 21
-16.44525184649998
 31
0.0
  0
LINE
  5
644B1
330
1F
100
AcDbEntity
  8
1
100
AcDbLine
 10
50.64928303319999
 20
-16.34585359989998
 30
0.0
 11
50.6317323861
 21
-16.3962423746
 31
0.0
  0
LINE
  5
644B2
330
1F
100
AcDbEntity
  8
1
100
AcDbLine
 10
50.66761914860001
 20
-16.29417475259998
 30
0.0
 11
50.64928303319999
 21
-16.34585359989998
 31
0.0
  0
LINE
  5
644B3
330
1F
100
AcDbEntity
  8
1
100
AcDbLine
 10
50.6866285577
 20
-16.24159247360001
 30
0.0
 11
50.66761914860001
 21
-16.29417475259998
 31
0.0
  0
LINE
  5
644B4
330
1F
100
AcDbEntity
  8
1
100
AcDbLine
 10
50.70609921179999
 20
-16.1886007324
 30
0.0
 11
50.6866285577
 21
-16.24159247360001
 31
0.0
  0
LINE
  5
644B5
330
1F
100
AcDbEntity
  8
1
100
AcDbLine
 10
50.72584724590001
 20
-16.13569277950003
 30
0.0
 11
50.70609921179999
 21
-16.1886007324
 31
0.0
  0
LWPOLYLINE
  5
644B6
330
1F
100
AcDbEntity
  8
1
100
AcDbPolyline
 90
        3
 70
     0
 43
0.0
 10
50.7555253193
 20
-16.05781936099998
 10
50.74564581490003
 20
-16.08352763709999
 10
50.72584724590001
 20
-16.13569277950003
  0
LWPOLYLINE
  5
644B7
330
1F
100
AcDbEntity
  8
1
100
AcDbPolyline
 90
        7
 70
     0
 43
0.0
 10
50.43295384990003
 20
12.34585251129999
 10
50.43635430380001
 20
12.330759672
 10
50.4370383191
 20
12.32745395449998
 10
50.43766631210002
 20
12.3241539322
 10
50.43823828270001
 20
12.32085960519998
 10
50.4387542309
 20
12.3175709736
 10
50.43921415670002
 20
12.31428803719998
  0
LINE
  5
644B8
330
1F
100
AcDbEntity
  8
1
100
AcDbLine
 10
50.7555253193
 20
11.9072913079
 30
0.0
 11
50.7840692002
 21
11.7450355326
 31
0.0
  0
LWPOLYLINE
  5
644B9
330
1F
100
AcDbEntity
  8
1
100
AcDbPolyline
 90
       22
 70
     0
 43
0.0
 10
49.94244679659999
 20
18.32100558799998
 10
49.94820629860001
 20
18.28743568659999
 10
49.95460135740001
 20
18.25313594799998
 10
49.96120480810001
 20
18.22044963370001
 10
49.96796164990001
 20
18.18940360319999
 10
49.9748492407
 20
18.1600123954
 10
49.98184310920001
 20
18.13227100049997
 10
49.9888886779
 20
18.10617956359999
 10
49.99596234350002
 20
18.08175219069997
 10
50.00303987380002
 20
18.0589867422
 10
50.01006990479999
 20
18.03786093049999
 10
50.01702889730001
 20
18.0183876184
 10
50.02389354400003
 20
18.00056737819996
 10
50.03061763389999
 20
17.984360794
 10
50.03717847490003
 20
17.9697789912
 10
50.04355415200001
 20
17.95682491729997
 10
50.04970470170002
 20
17.94544765579998
 10
50.05560887420003
 20
17.9356562758
 10
50.06124630310001
 20
17.92745575089998
 10
50.06658339470004
 20
17.92078936549998
 10
50.0716005097
 20
17.91566421519998
 10
50.07339555100003
 20
17.91414488749999
  0
LINE
  5
644BA
330
1F
100
AcDbEntity
  8
1
100
AcDbLine
 10
50.45818051810002
 20
12.42733126139998
 30
0.0
 11
50.46781089760003
 21
12.3710368844
 31
0.0
  0
LWPOLYLINE
  5
644BB
330
1F
100
AcDbEntity
  8
1
100
AcDbPolyline
 90
        9
 70
     0
 43
0.0
 10
50.4169995291
 20
12.4371096381
 10
50.41848384690002
 20
12.42599977469999
 10
50.42011314549998
 20
12.4148044243
 10
50.42188742510004
 20
12.40352358699999
 10
50.4238053311
 20
12.39215623479998
 10
50.42586821810002
 20
12.38070339569997
 10
50.42808014870002
 20
12.36916815289999
 10
50.43044247740002
 20
12.35755153400001
 10
50.43295384990003
 20
12.34585251129999
  0
LINE
  5
644BC
330
1F
100
AcDbEntity
  8
1
100
AcDbLine
 10
50.43921415670002
 20
12.31428803719998
 30
0.0
 11
50.44711407370002
 21
12.25383680009999
 31
0.0
  0
LINE
  5
644BD
330
1F
100
AcDbEntity
  8
1
100
AcDbLine
 10
50.47207639470002
 20
12.33069911229998
 30
0.0
 11
50.46781089760003
 21
12.3710368844
 31
0.0
  0
LINE
  5
644BE
330
1F
100
AcDbEntity
  8
1
100
AcDbLine
 10
50.47608096580001
 20
12.28967859870001
 30
0.0
 11
50.47207639470002
 21
12.33069911229998
 31
0.0
  0
LWPOLYLINE
  5
644BF
330
1F
100
AcDbEntity
  8
1
100
AcDbPolyline
 90
       10
 70
     0
 43
0.0
 10
50.79522051350005
 20
11.77971937989999
 10
50.79538362710002
 20
11.77797180049998
 10
50.79557159650002
 20
11.7764374728
 10
50.79578442159998
 20
11.7751163967
 10
50.79602192080002
 20
11.77400662790001
 10
50.7962842757
 20
11.77311011069996
 10
50.79657203210004
 20
11.77243267799996
 10
50.79688537160001
 20
11.77197627409998
 10
50.79722411260002
 20
11.77173895460001
 10
50.79734940699998
 20
11.77170754789999
  0
LINE
  5
644C0
330
1F
100
AcDbEntity
  8
1
100
AcDbLine
 10
50.47981934560002
 20
12.24797325389996
 30
0.0
 11
50.47608096580001
 21
12.28967859870001
 31
0.0
  0
LWPOLYLINE
  5
644C1
330
1F
100
AcDbEntity
  8
1
100
AcDbPolyline
 90
        3
 70
     0
 43
0.0
 10
50.48491887540001
 20
12.18411727200001
 10
50.4832874654
 20
12.20557545190002
 10
50.47981934560002
 20
12.24797325389996
  0
LINE
  5
644C2
330
1F
100
AcDbEntity
  8
1
100
AcDbLine
 10
50.46027149560001
 20
12.07244601059999
 30
0.0
 11
50.44711407370002
 21
12.25383680009999
 31
0.0
  0
LWPOLYLINE
  5
644C3
330
1F
100
AcDbEntity
  8
1
100
AcDbPolyline
 90
       10
 70
     0
 43
0.0
 10
50.41144213270001
 20
12.49415446829998
 10
50.41187716530004
 20
12.48791156649999
 10
50.4123576529
 20
12.4816446447
 10
50.41288359540001
 20
12.47535370280001
 10
50.4134547809
 20
12.4690385183
 10
50.41407142139999
 20
12.46269931379997
 10
50.41473415280004
 20
12.4563367567
 10
50.41544318720003
 20
12.4499510697
 10
50.41619831260002
 20
12.44354203010002
 10
50.4169995291
 20
12.4371096381
  0
LINE
  5
644C4
330
1F
100
AcDbEntity
  8
1
100
AcDbLine
 10
50.47245506999999
 20
11.8910652812
 30
0.0
 11
50.46027149560001
 21
12.07244601059999
 31
0.0
  0
LINE
  5
644C5
330
1F
100
AcDbEntity
  8
1
100
AcDbLine
 10
50.4836659568
 20
11.7097028675
 30
0.0
 11
50.47245506999999
 21
11.8910652812
 31
0.0
  0
LINE
  5
644C6
330
1F
100
AcDbEntity
  8
1
100
AcDbLine
 10
50.49317716650003
 20
11.5418758206
 30
0.0
 11
50.4836659568
 21
11.7097028675
 31
0.0
  0
LINE
  5
644C7
330
1F
100
AcDbEntity
  8
1
100
AcDbLine
 10
50.5018492625
 20
11.37423450359999
 30
0.0
 11
50.49317716650003
 21
11.5418758206
 31
0.0
  0
LINE
  5
644C8
330
1F
100
AcDbEntity
  8
1
100
AcDbLine
 10
50.50968522690002
 20
11.20678502069997
 30
0.0
 11
50.5018492625
 21
11.37423450359999
 31
0.0
  0
LWPOLYLINE
  5
644C9
330
1F
100
AcDbEntity
  8
1
100
AcDbPolyline
 90
        3
 70
     0
 43
0.0
 10
50.51987621630002
 20
10.95598588969999
 10
50.51668700749999
 20
11.03953471479997
 10
50.50968522690002
 20
11.20678502069997
  0
LWPOLYLINE
  5
644CA
330
1F
100
AcDbEntity
  8
1
100
AcDbPolyline
 90
       10
 70
     0
 43
0.0
 10
50.50299937590001
 20
11.71786036739998
 10
50.5023340205
 20
11.77302284279999
 10
50.50134794080003
 20
11.82734614639997
 10
50.50003175460003
 20
11.88083034710001
 10
50.49837807490002
 20
11.93347572409999
 10
50.49638144069999
 20
11.98528223030001
 10
50.49403824540002
 20
12.03624949109999
 10
50.49134662780002
 20
12.08637751589997
 10
50.4883063766
 20
12.1356666968
 10
50.48491887540001
 20
12.18411727200001
  0
LINE
  5
644CB
330
1F
100
AcDbEntity
  8
1
100
AcDbLine
 10
50.79578442159998
 20
-16.94386161610001
 30
0.0
 11
50.79758825489998
 21
-17.11806633770001
 31
0.0
  0
LINE
  5
644CC
330
1F
100
AcDbEntity
  8
1
100
AcDbLine
 10
50.79522051350005
 20
-16.85939804129998
 30
0.0
 11
50.79578442159998
 21
-16.94386161610001
 31
0.0
  0
LWPOLYLINE
  5
644CD
330
1F
100
AcDbEntity
  8
1
100
AcDbPolyline
 90
        3
 70
     0
 43
0.0
 10
50.50299937590001
 20
11.71786036739998
 10
50.50333903120002
 20
11.66002413569998
 10
50.50333797830001
 20
11.60194337769999
  0
LINE
  5
644CE
330
1F
100
AcDbEntity
  8
1
100
AcDbLine
 10
50.79653208689999
 20
-16.4763082316
 30
0.0
 11
50.79522051350005
 21
-16.85939804129998
 31
0.0
  0
LINE
  5
644CF
330
1F
100
AcDbEntity
  8
1
100
AcDbLine
 10
50.79800564220002
 20
-16.23779294779999
 30
0.0
 11
50.79744886580002
 21
-16.36521552410002
 31
0.0
  0
LWPOLYLINE
  5
644D0
330
1F
100
AcDbEntity
  8
1
100
AcDbPolyline
 90
        4
 70
     0
 43
0.0
 10
50.50333797830001
 20
11.60194337769999
 10
50.50259758580003
 20
11.48930344830001
 10
50.50197788540001
 20
11.43615213539998
 10
50.5012576764
 20
11.38595002950001
  0
LINE
  5
644D1
330
1F
100
AcDbEntity
  8
1
100
AcDbLine
 10
50.79744886580002
 20
-16.36521552410002
 30
0.0
 11
50.79653208689999
 21
-16.4763082316
 31
0.0
  0
LWPOLYLINE
  5
644D2
330
1F
100
AcDbEntity
  8
1
100
AcDbPolyline
 90
        3
 70
     0
 43
0.0
 10
50.79800564220002
 20
11.8795923017
 10
50.7979459675
 20
11.87613678229999
 10
50.79786041600002
 20
11.87237486089997
  0
LINE
  5
644D3
330
1F
100
AcDbEntity
  8
1
100
AcDbLine
 10
50.79554511250001
 20
11.79834073719998
 30
0.0
 11
50.79522051350005
 21
11.77971937989999
 31
0.0
  0
LINE
  5
644D4
330
1F
100
AcDbEntity
  8
1
100
AcDbLine
 10
50.79598135270001
 20
11.81756394109998
 30
0.0
 11
50.79554511250001
 21
11.79834073719998
 31
0.0
  0
LINE
  5
644D5
330
1F
100
AcDbEntity
  8
1
100
AcDbLine
 10
50.79653208689999
 20
11.83741724379998
 30
0.0
 11
50.79598135270001
 21
11.81756394109998
 31
0.0
  0
LWPOLYLINE
  5
644D6
330
1F
100
AcDbEntity
  8
1
100
AcDbPolyline
 90
        3
 70
     0
 43
0.0
 10
50.79786041600002
 20
11.87237486089997
 10
50.79761186519999
 20
11.86393347469999
 10
50.79744886580002
 20
11.85925401
  0
LINE
  5
644D7
330
1F
100
AcDbEntity
  8
1
100
AcDbLine
 10
50.62700927580002
 20
-18.1435679873
 30
0.0
 11
50.63288838900001
 21
-18.01782457230001
 31
0.0
  0
LINE
  5
644D8
330
1F
100
AcDbEntity
  8
1
100
AcDbLine
 10
50.63288838900001
 20
-18.01782457230001
 30
0.0
 11
50.63930025389999
 21
-17.89380023680002
 31
0.0
  0
LINE
  5
644D9
330
1F
100
AcDbEntity
  8
1
100
AcDbLine
 10
50.63930025389999
 20
-17.89380023680002
 30
0.0
 11
50.64640893920003
 21
-17.76722329950002
 31
0.0
  0
LINE
  5
644DA
330
1F
100
AcDbEntity
  8
1
100
AcDbLine
 10
50.64640893920003
 20
-17.76722329950002
 30
0.0
 11
50.65446537620002
 21
-17.63345717770002
 31
0.0
  0
LWPOLYLINE
  5
644DB
330
1F
100
AcDbEntity
  8
1
100
AcDbPolyline
 90
        7
 70
     0
 43
0.0
 10
50.49809126260001
 20
-15.97105150879997
 10
50.5206312421
 20
-15.6131058158
 10
50.53510339000002
 20
-15.26372556340001
 10
50.54229337799998
 20
-14.91209863239999
 10
50.54218054500001
 20
-14.5582675423
 10
50.5347237382
 20
-14.2021354382
 10
50.51987621630002
 20
-13.84358238230001
  0
LINE
  5
644DC
330
1F
100
AcDbEntity
  8
1
100
AcDbLine
 10
50.65446537620002
 20
-17.63345717770002
 30
0.0
 11
50.6637690281
 21
-17.48796939780001
 31
0.0
  0
LINE
  5
644DD
330
1F
100
AcDbEntity
  8
1
100
AcDbLine
 10
50.6637690281
 20
-17.48796939780001
 30
0.0
 11
50.674665
 21
-17.3261248416
 31
0.0
  0
LINE
  5
644DE
330
1F
100
AcDbEntity
  8
1
100
AcDbLine
 10
50.46991996859998
 20
-16.3047141092
 30
0.0
 11
50.49809126260001
 21
-15.97105150879997
 31
0.0
  0
LINE
  5
644DF
330
1F
100
AcDbEntity
  8
1
100
AcDbLine
 10
50.73315693810002
 20
-16.76659968840002
 30
0.0
 11
50.7840692002
 21
-16.25416893300001
 31
0.0
  0
LWPOLYLINE
  5
644E0
330
1F
100
AcDbEntity
  8
1
100
AcDbPolyline
 90
       10
 70
     0
 43
0.0
 10
50.33678889690003
 20
-17.35309822180002
 10
50.32881481729996
 20
-17.42875072570001
 10
50.31455761070001
 20
-17.55832515259999
 10
50.30027092840001
 20
-17.68220355700001
 10
50.28583768330003
 20
-17.80110470529999
 10
50.27125468370002
 20
-17.91527053129999
 10
50.25658190560003
 20
-18.02480141500001
 10
50.24187992210002
 20
-18.12993182459999
 10
50.22716829160001
 20
-18.2310903128
 10
50.21360965710002
 20
-18.32100558799998
  0
LINE
  5
644E1
330
1F
100
AcDbEntity
  8
1
100
AcDbLine
 10
50.68742120429999
 20
-17.2067515848
 30
0.0
 11
50.73315693810002
 21
-16.76659968840002
 31
0.0
  0
LINE
  5
644E2
330
1F
100
AcDbEntity
  8
1
100
AcDbLine
 10
50.674665
 20
-17.3261248416
 30
0.0
 11
50.68742120429999
 21
-17.2067515848
 31
0.0
  0
LINE
  5
644E3
330
1F
100
AcDbEntity
  8
1
100
AcDbLine
 10
50.65478587310003
 20
-18.32100558799998
 30
0.0
 11
50.79758825489998
 21
-17.11806633770001
 31
0.0
  0
LINE
  5
644E4
330
1F
100
AcDbEntity
  8
1
100
AcDbLine
 10
0.5
 20
4.762499999999988
 30
0.0
 11
0.0
 21
5.262499999999988
 31
0.0
  0
LINE
  5
644E5
330
1F
100
AcDbEntity
  8
1
100
AcDbLine
 10
50.7555253193
 20
-16.05781936099998
 30
0.0
 11
50.7840692002
 21
-16.25416893300001
 31
0.0
  0
LINE
  5
644E6
330
1F
100
AcDbEntity
  8
1
100
AcDbLine
 10
50.4348525341
 20
-17.03631033309997
 30
0.0
 11
50.41166601910001
 21
-16.83476341669997
 31
0.0
  0
LINE
  5
644E7
330
1F
100
AcDbEntity
  8
1
100
AcDbLine
 10
49.99596234430001
 20
-2.177974090800006
 30
0.0
 11
50.04970470220001
 21
-2.639303740299993
 31
0.0
  0
LINE
  5
644E8
330
1F
100
AcDbEntity
  8
1
100
AcDbLine
 10
50.04970470220001
 20
-2.639303740299993
 30
0.0
 11
50.0612463034
 21
-2.741438147100012
 31
0.0
  0
LINE
  5
644E9
330
1F
100
AcDbEntity
  8
1
100
AcDbLine
 10
49.98184310990001
 20
-2.050192820500001
 30
0.0
 11
49.99596234430001
 21
-2.177974090800006
 31
0.0
  0
LWPOLYLINE
  5
644EA
330
1F
100
AcDbEntity
  8
1
100
AcDbPolyline
 90
       13
 70
     0
 43
0.0
 10
50.0612463034
 20
-2.741438147100012
 10
50.07160050999999
 20
-2.838126613400021
 10
50.07627906089999
 20
-2.884414292799988
 10
50.08059172560002
 20
-2.929330355200022
 10
50.0845222982
 20
-2.972881969100001
 10
50.08805162039999
 20
-3.015052619300007
 10
50.09115385650003
 20
-3.055804154699984
 10
50.09381616909997
 20
-3.095139606600014
 10
50.09602250450001
 20
-3.133043838999981
 10
50.09775214080002
 20
-3.169449537500014
 10
50.09899557229999
 20
-3.204328793400009
 10
50.09974754879999
 20
-3.237694139399991
 10
50.09999999999997
 20
-3.269537766299976
  0
LINE
  5
644EB
330
1F
100
AcDbEntity
  8
1
100
AcDbLine
 10
49.96796165070001
 20
-1.917821775300012
 30
0.0
 11
49.98184310990001
 21
-2.050192820500001
 31
0.0
  0
LINE
  5
644EC
330
1F
100
AcDbEntity
  8
1
100
AcDbLine
 10
50.4559939534
 20
-12.9955829587
 30
0.0
 11
50.44711407370002
 21
-12.90793648200002
 31
0.0
  0
LINE
  5
644ED
330
1F
100
AcDbEntity
  8
1
100
AcDbLine
 10
50.46444083470001
 20
-13.0831328573
 30
0.0
 11
50.4559939534
 21
-12.9955829587
 31
0.0
  0
LINE
  5
644EE
330
1F
100
AcDbEntity
  8
1
100
AcDbLine
 10
50.47245506999999
 20
-13.17058391820001
 30
0.0
 11
50.46444083470001
 21
-13.0831328573
 31
0.0
  0
LINE
  5
644EF
330
1F
100
AcDbEntity
  8
1
100
AcDbLine
 10
50.48003699510002
 20
-13.25793366439998
 30
0.0
 11
50.47245506999999
 21
-13.17058391820001
 31
0.0
  0
LINE
  5
644F0
330
1F
100
AcDbEntity
  8
1
100
AcDbLine
 10
50.4885266748
 20
-13.3621183882
 30
0.0
 11
50.48003699510002
 21
-13.25793366439998
 31
0.0
  0
LINE
  5
644F1
330
1F
100
AcDbEntity
  8
1
100
AcDbLine
 10
50.49761785030003
 20
-13.48297591149998
 30
0.0
 11
50.4885266748
 21
-13.3621183882
 31
0.0
  0
LINE
  5
644F2
330
1F
100
AcDbEntity
  8
1
100
AcDbLine
 10
50.5058716995
 20
-13.6035099899
 30
0.0
 11
50.49761785030003
 21
-13.48297591149998
 31
0.0
  0
LINE
  5
644F3
330
1F
100
AcDbEntity
  8
1
100
AcDbLine
 10
50.51329015030003
 20
-13.72371398550001
 30
0.0
 11
50.5058716995
 21
-13.6035099899
 31
0.0
  0
LINE
  5
644F4
330
1F
100
AcDbEntity
  8
1
100
AcDbLine
 10
50.51987621630002
 20
-13.84358238230001
 30
0.0
 11
50.51329015030003
 21
-13.72371398550001
 31
0.0
  0
LINE
  5
644F5
330
1F
100
AcDbEntity
  8
1
100
AcDbLine
 10
50.63429236400003
 20
-18.32100558799998
 30
0.0
 11
50.62700927580002
 21
-18.1435679873
 31
0.0
  0
LINE
  5
644F6
330
1F
100
AcDbEntity
  8
1
100
AcDbLine
 10
50.09999999999997
 20
-18.32100558799998
 30
0.0
 11
50.09999999999997
 21
-3.269537766299976
 31
0.0
  0
LINE
  5
644F7
330
1F
100
AcDbEntity
  8
1
100
AcDbLine
 10
50.09999999999997
 20
2.045170571200003
 30
0.0
 11
50.09999999999997
 21
18.32100558799998
 31
0.0
  0
LWPOLYLINE
  5
644F8
330
1F
100
AcDbEntity
  8
1
100
AcDbPolyline
 90
       11
 70
     0
 43
0.0
 10
50.09999999999997
 20
2.045170571200003
 10
50.09974756880001
 20
2.015357808499999
 10
50.098995637
 20
1.984006303099988
 10
50.09775225190003
 20
1.951123890199994
 10
50.09602263100004
 20
1.916700901799998
 10
50.09381626250001
 20
1.88076248639998
 10
50.09115389030004
 20
1.843367570499992
 10
50.08805156960002
 20
1.804530210199999
 10
50.08452213670003
 20
1.764248668300005
 10
50.08059148630002
 20
1.722556300299999
 10
50.07627884749999
 20
1.679469662900004
  0
LINE
  5
644F9
330
1F
100
AcDbEntity
  8
1
100
AcDbLine
 10
50.79744886580002
 20
11.85925401
 30
0.0
 11
50.79704341440003
 21
11.84895924210001
 31
0.0
  0
LINE
  5
644FA
330
1F
100
AcDbEntity
  8
1
100
AcDbLine
 10
50.79704341440003
 20
11.84895924210001
 30
0.0
 11
50.79653208689999
 21
11.83741724379998
 31
0.0
  0
LINE
  5
644FB
330
1F
100
AcDbEntity
  8
1
100
AcDbLine
 10
50.32723581249999
 20
1.434759266399993
 30
0.0
 11
50.22940209450002
 21
-0.2320206820000124
 31
0.0
  0
LINE
  5
644FC
330
1F
100
AcDbEntity
  8
1
100
AcDbLine
 10
50.62700927580002
 20
10.02739244719998
 30
0.0
 11
50.64394336550003
 21
10.2279093091
 31
0.0
  0
LWPOLYLINE
  5
644FD
330
1F
100
AcDbEntity
  8
1
100
AcDbPolyline
 90
        3
 70
     0
 43
0.0
 10
50.64394336550003
 20
10.2279093091
 10
50.67085608490001
 20
10.53455510179998
 10
50.674665
 20
10.57738409779999
  0
LWPOLYLINE
  5
644FE
330
1F
100
AcDbEntity
  8
1
100
AcDbPolyline
 90
       34
 70
     0
 43
0.0
 10
49.95460102450002
 20
0.6036844701000064
 10
49.9482059281
 20
0.5348693069000206
 10
49.94204301100007
 20
0.465054937299982
 10
49.93613279499999
 20
0.394244781999987
 10
49.93052730950001
 20
0.3226111528000217
 10
49.92524853810002
 20
0.2501343060000067
 10
49.92031369950002
 20
0.1768144840999923
 10
49.91576821730001
 20
0.1028510767000057
 10
49.91163110790001
 20
0.0282244406999723
 10
49.90791518740002
 20
-0.0470689850000099
 10
49.9046557922
 20
-0.122808137800007
 10
49.90186782550001
 20
-0.1990117793000081
 10
49.89955885370003
 20
-0.2756872627000177
 10
49.89775131400003
 20
-0.352598211399993
 10
49.8964550588
 20
-0.4297617965000029
 10
49.89567186409999
 20
-0.5071888676000072
 10
49.8954094279
 20
-0.5846345616000122
 10
49.89567192130002
 20
-0.6621134750000124
 10
49.89645517299999
 20
-0.7396397912000055
 10
49.89775148640001
 20
-0.8169681370000319
 10
49.8995590886
 20
-0.8941100321999897
 10
49.9018681236
 20
-0.9710822886999892
 10
49.90465614620004
 20
-1.047646684500023
 10
49.90791559010003
 20
-1.123811214400006
 10
49.91163155190003
 20
-1.1995945914
 10
49.91576868690003
 20
-1.274773057899977
 10
49.92031417430002
 20
-1.349350876699986
 10
49.92524900350002
 20
-1.423347812799988
 10
49.93052775870004
 20
-1.49656106079999
 10
49.93613322409999
 20
-1.568991201599999
 10
49.94204341389999
 20
-1.640658143999985
 10
49.94820629930001
 20
-1.711385281499985
 10
49.95460135810001
 20
-1.781169906299993
 10
49.96796165070001
 20
-1.917821775300012
  0
LINE
  5
644FF
330
1F
100
AcDbEntity
  8
1
100
AcDbLine
 10
50.674665
 20
10.57738409779999
 30
0.0
 11
50.7840692002
 21
11.7450355326
 31
0.0
  0
LINE
  5
64500
330
1F
100
AcDbEntity
  8
1
100
AcDbLine
 10
50.63940859270002
 20
10.10915622129998
 30
0.0
 11
50.79758825489998
 21
11.7717207196
 31
0.0
  0
LINE
  5
64501
330
1F
100
AcDbEntity
  8
1
100
AcDbLine
 10
49.96796140190003
 20
0.7382310008999867
 30
0.0
 11
49.95460102450002
 21
0.6036844701000064
 31
0.0
  0
LINE
  5
64502
330
1F
100
AcDbEntity
  8
1
100
AcDbLine
 10
50.7840692002
 20
11.7450355326
 30
0.0
 11
50.79800564220002
 21
11.8795923017
 31
0.0
  0
LINE
  5
64503
330
1F
100
AcDbEntity
  8
1
100
AcDbLine
 10
49.98184294710004
 20
0.8682851235000157
 30
0.0
 11
49.96796140190003
 21
0.7382310008999867
 31
0.0
  0
LINE
  5
64504
330
1F
100
AcDbEntity
  8
1
100
AcDbLine
 10
50.07627884749999
 20
1.679469662900004
 30
0.0
 11
50.06658338200001
 21
1.58908983829999
 31
0.0
  0
LINE
  5
64505
330
1F
100
AcDbEntity
  8
1
100
AcDbLine
 10
49.99596225699997
 20
0.9935504633999983
 30
0.0
 11
49.98184294710004
 21
0.8682851235000157
 31
0.0
  0
LINE
  5
64506
330
1F
100
AcDbEntity
  8
1
100
AcDbLine
 10
50.06658338200001
 20
1.58908983829999
 30
0.0
 11
50.05560887909999
 21
1.493096869699989
 31
0.0
  0
LWPOLYLINE
  5
64507
330
1F
100
AcDbEntity
  8
1
100
AcDbPolyline
 90
       10
 70
     0
 43
0.0
 10
50.00399619820001
 20
-0.2563937856999985
 10
50.01944340600002
 20
-0.1235610553999891
 10
50.03399611729998
 20
0.006751579299987
 10
50.04765433200001
 20
0.1345441185000027
 10
50.06041220420001
 20
0.2598243951999848
 10
50.07227557970001
 20
0.382584576399978
 10
50.08326199629999
 20
0.5028011626999956
 10
50.09337729970003
 20
0.6204663213000004
 10
50.10261564410001
 20
0.7355878851000171
 10
50.11097702950002
 20
0.8481658540999887
  0
LINE
  5
64508
330
1F
100
AcDbEntity
  8
1
100
AcDbLine
 10
50.02389356040001
 20
1.228953941500009
 30
0.0
 11
49.99596225699997
 21
0.9935504633999983
 31
0.0
  0
LINE
  5
64509
330
1F
100
AcDbEntity
  8
1
100
AcDbLine
 10
50.05560887909999
 20
1.493096869699989
 30
0.0
 11
50.02389356040001
 21
1.228953941500009
 31
0.0
  0
LINE
  5
6450A
330
1F
100
AcDbEntity
  8
1
100
AcDbLine
 10
50.63940859270002
 20
10.10915622129998
 30
0.0
 11
50.62700927580002
 21
10.02739244719998
 31
0.0
  0
LINE
  5
6450B
330
1F
100
AcDbEntity
  8
1
100
AcDbLine
 10
50.11097702950002
 20
0.8481658540999887
 30
0.0
 11
50.12350971850003
 21
0.9277997485000071
 31
0.0
  0
LWPOLYLINE
  5
6450C
330
1F
100
AcDbEntity
  8
1
100
AcDbPolyline
 90
       15
 70
     0
 43
0.0
 10
50.09999999999997
 20
4.215046429000004
 10
50.14448750310001
 20
4.490461425599981
 10
50.2168536227
 20
4.984047620199987
 10
50.28193623270002
 20
5.478029270199982
 10
50.33975696609999
 20
5.972502515100018
 10
50.39034893830001
 20
6.467612805300007
 10
50.43373576499999
 20
6.963401728899981
 10
50.46991996859998
 20
7.459908512800012
 10
50.49889437620004
 20
7.957275640300025
 10
50.5206312421
 20
8.455479985499977
 10
50.53510339000002
 20
8.954340646000019
 10
50.54229337799998
 20
9.453763795399993
 10
50.54218054500001
 20
9.953723036500008
 10
50.5347237382
 20
10.45439391979997
 10
50.51987621630002
 20
10.95598588969999
  0
LINE
  5
6450D
330
1F
100
AcDbEntity
  8
1
100
AcDbLine
 10
50.12350971850003
 20
0.9277997485000071
 30
0.0
 11
50.13638738770001
 21
1.007281861399974
 31
0.0
  0
LINE
  5
6450E
330
1F
100
AcDbEntity
  8
1
100
AcDbLine
 10
50.13638738770001
 20
1.007281861399974
 30
0.0
 11
50.14963075510002
 21
1.086717736999986
 31
0.0
  0
LINE
  5
6450F
330
1F
100
AcDbEntity
  8
1
100
AcDbLine
 10
50.14963075510002
 20
1.086717736999986
 30
0.0
 11
50.16325892960003
 21
1.166209373800001
 31
0.0
  0
LINE
  5
64510
330
1F
100
AcDbEntity
  8
1
100
AcDbLine
 10
50.16325892960003
 20
1.166209373800001
 30
0.0
 11
50.17728261960002
 21
1.24582356030001
 31
0.0
  0
LINE
  5
64511
330
1F
100
AcDbEntity
  8
1
100
AcDbLine
 10
50.17728261960002
 20
1.24582356030001
 30
0.0
 11
50.19656459350002
 21
1.352056274700004
 31
0.0
  0
LINE
  5
64512
330
1F
100
AcDbEntity
  8
1
100
AcDbLine
 10
50.19656459350002
 20
1.352056274700004
 30
0.0
 11
50.2164351964
 21
1.45817331249998
 31
0.0
  0
LINE
  5
64513
330
1F
100
AcDbEntity
  8
1
100
AcDbLine
 10
50.2164351964
 20
1.45817331249998
 30
0.0
 11
50.24335382990003
 21
1.600068002100009
 31
0.0
  0
LINE
  5
64514
330
1F
100
AcDbEntity
  8
1
100
AcDbLine
 10
50.7555253193
 20
-16.05781936099998
 30
0.0
 11
50.79800564220002
 21
-16.23779294779999
 31
0.0
  0
LINE
  5
64515
330
1F
100
AcDbEntity
  8
1
100
AcDbLine
 10
50.53450397720002
 20
11.07062536159998
 30
0.0
 11
50.51824397630003
 21
10.99874625659997
 31
0.0
  0
LINE
  5
64516
330
1F
100
AcDbEntity
  8
1
100
AcDbLine
 10
50.54702947890001
 20
11.12489638920002
 30
0.0
 11
50.53450397720002
 21
11.07062536159998
 31
0.0
  0
LINE
  5
64517
330
1F
100
AcDbEntity
  8
1
100
AcDbLine
 10
50.56079515639999
 20
11.18331211440001
 30
0.0
 11
50.54702947890001
 21
11.12489638920002
 31
0.0
  0
LINE
  5
64518
330
1F
100
AcDbEntity
  8
1
100
AcDbLine
 10
50.57548273120002
 20
11.2441873267
 30
0.0
 11
50.56079515639999
 21
11.18331211440001
 31
0.0
  0
LINE
  5
64519
330
1F
100
AcDbEntity
  8
1
100
AcDbLine
 10
50.59092027870002
 20
11.3067047017
 30
0.0
 11
50.57548273120002
 21
11.2441873267
 31
0.0
  0
LINE
  5
6451A
330
1F
100
AcDbEntity
  8
1
100
AcDbLine
 10
50.42174328240003
 20
12.40444004350002
 30
0.0
 11
50.43184001100001
 21
12.44529460549997
 31
0.0
  0
LINE
  5
6451B
330
1F
100
AcDbEntity
  8
1
100
AcDbLine
 10
50.60679876399999
 20
11.36972515289999
 30
0.0
 11
50.59092027870002
 21
11.3067047017
 31
0.0
  0
LINE
  5
6451C
330
1F
100
AcDbEntity
  8
1
100
AcDbLine
 10
50.62327160320001
 20
11.4338546763
 30
0.0
 11
50.60679876399999
 21
11.36972515289999
 31
0.0
  0
LINE
  5
6451D
330
1F
100
AcDbEntity
  8
1
100
AcDbLine
 10
50.64039650850003
 20
11.4992273333
 30
0.0
 11
50.62327160320001
 21
11.4338546763
 31
0.0
  0
LINE
  5
6451E
330
1F
100
AcDbEntity
  8
1
100
AcDbLine
 10
50.65836312630001
 20
11.56636631789998
 30
0.0
 11
50.64039650850003
 21
11.4992273333
 31
0.0
  0
LINE
  5
6451F
330
1F
100
AcDbEntity
  8
1
100
AcDbLine
 10
50.67704716699998
 20
11.63467302319998
 30
0.0
 11
50.65836312630001
 21
11.56636631789998
 31
0.0
  0
LINE
  5
64520
330
1F
100
AcDbEntity
  8
1
100
AcDbLine
 10
50.69631845530003
 20
11.70364774339997
 30
0.0
 11
50.67704716699998
 21
11.63467302319998
 31
0.0
  0
LINE
  5
64521
330
1F
100
AcDbEntity
  8
1
100
AcDbLine
 10
50.71595621360001
 20
11.7725714961
 30
0.0
 11
50.69631845530003
 21
11.70364774339997
 31
0.0
  0
LINE
  5
64522
330
1F
100
AcDbEntity
  8
1
100
AcDbLine
 10
50.73574693950002
 20
11.84064122049997
 30
0.0
 11
50.71595621360001
 21
11.7725714961
 31
0.0
  0
LINE
  5
64523
330
1F
100
AcDbEntity
  8
1
100
AcDbLine
 10
50.7555253193
 20
11.9072913079
 30
0.0
 11
50.73574693950002
 21
11.84064122049997
 31
0.0
  0
LINE
  5
64524
330
1F
100
AcDbEntity
  8
1
100
AcDbLine
 10
5.560000000000002
 20
3.762499999999988
 30
0.0
 11
4.560000000000002
 21
4.762499999999988
 31
0.0
  0
LINE
  5
64525
330
1F
100
AcDbEntity
  8
1
100
AcDbLine
 10
50.7555253193
 20
11.9072913079
 30
0.0
 11
50.50345111080003
 21
11.3408831797
 31
0.0
  0
LWPOLYLINE
  5
64526
330
1F
100
AcDbEntity
  8
1
100
AcDbPolyline
 90
        7
 70
     0
 43
0.0
 10
50.1315858232
 20
-0.2908104978999972
 10
50.13763681810002
 20
-0.2845316975999879
 10
50.14376162089999
 20
-0.2783289527000079
 10
50.14996023180001
 20
-0.2722022632999881
 10
50.15623266750001
 20
-0.2661526843000104
 10
50.16257891110001
 20
-0.2601791607999928
 10
50.1689989123
 20
-0.2542785280000146
  0
LINE
  5
64527
330
1F
100
AcDbEntity
  8
1
100
AcDbLine
 10
50.1689989123
 20
-0.2542785280000146
 30
0.0
 11
50.18238732830003
 21
-0.2424138564000202
 31
0.0
  0
LWPOLYLINE
  5
64528
330
1F
100
AcDbEntity
  8
1
100
AcDbPolyline
 90
       10
 70
     0
 43
0.0
 10
50.09645632270002
 20
-0.3306345286000294
 10
50.1001196709
 20
-0.3274307428999919
 10
50.10384315960004
 20
-0.3239229486000283
 10
50.1076267889
 20
-0.3201111455999808
 10
50.11147076950002
 20
-0.3159970245999943
 10
50.11537489060001
 20
-0.3115788950000251
 10
50.11933851980001
 20
-0.3068516846999785
 10
50.12336144620002
 20
-0.301813703099981
 10
50.12744388070001
 20
-0.2964666409000074
 10
50.1315858232
 20
-0.2908104978999972
  0
LINE
  5
64529
330
1F
100
AcDbEntity
  8
1
100
AcDbLine
 10
50.18238732830003
 20
-0.2424138564000202
 30
0.0
 11
50.18870141030004
 21
-0.2370108087000062
 31
0.0
  0
LINE
  5
6452A
330
1F
100
AcDbEntity
  8
1
100
AcDbLine
 10
50.62700927580002
 20
10.02739244719998
 30
0.0
 11
50.54219037060002
 21
9.910186005399992
 31
0.0
  0
LINE
  5
6452B
330
1F
100
AcDbEntity
  8
1
100
AcDbLine
 10
50.44711407370002
 20
-12.90793648200002
 30
0.0
 11
50.09999999999997
 21
-12.85089123680001
 31
0.0
  0
LINE
  5
6452C
330
1F
100
AcDbEntity
  8
1
100
AcDbLine
 10
0.5
 20
-4.762500000000017
 30
0.0
 11
4.560000000000002
 21
-4.762500000000017
 31
0.0
  0
LWPOLYLINE
  5
6452D
330
1F
100
AcDbEntity
  8
1
100
AcDbPolyline
 90
        5
 70
     0
 43
0.0
 10
50.18870141030004
 20
-0.2370108087000062
 10
50.19303949339999
 20
-0.2355776593000201
 10
50.19742374630002
 20
-0.2343627228999878
 10
50.20185416889995
 20
-0.2333659996000108
 10
50.20447369819999
 20
-0.2329093223999905
  0
LINE
  5
6452E
330
1F
100
AcDbEntity
  8
1
100
AcDbLine
 10
50.09645632270002
 20
-0.3306345286000294
 30
0.0
 11
50.02715961019998
 21
-0.3505253794000112
 31
0.0
  0
LWPOLYLINE
  5
6452F
330
1F
100
AcDbEntity
  8
1
100
AcDbPolyline
 90
        3
 70
     0
 43
0.0
 10
49.9667590775
 20
-0.356632773799987
 10
49.98706206120002
 20
-0.3546628500000111
 10
50.02715961019998
 20
-0.3505253794000112
  0
LWPOLYLINE
  5
64530
330
1F
100
AcDbEntity
  8
1
100
AcDbPolyline
 90
        3
 70
     0
 43
0.0
 10
50.11097702950002
 20
0.8481658540999887
 10
49.996834363
 20
0.8253352992999793
 10
49.97677635760002
 20
0.8215804313999797
  0
LWPOLYLINE
  5
64531
330
1F
100
AcDbEntity
  8
1
100
AcDbPolyline
 90
        7
 70
     0
 43
0.0
 10
50.09030795510003
 20
-0.246554842800009
 10
50.0761385804
 20
-0.2492571416999851
 10
50.07303580870001
 20
-0.2497876432000226
 10
50.06993899970002
 20
-0.2502618453999901
 10
50.06684815319999
 20
-0.2506797483000014
 10
50.06376326930001
 20
-0.2510413516999961
 10
50.06068434799999
 20
-0.2513466558000061
  0
LWPOLYLINE
  5
64532
330
1F
100
AcDbEntity
  8
1
100
AcDbPolyline
 90
        9
 70
     0
 43
0.0
 10
50.17592964569999
 20
-0.2348673123999845
 10
50.16551100589999
 20
-0.2358276589999946
 10
50.15501069539999
 20
-0.236930273300004
 10
50.1444287143
 20
-0.2381751553000129
 10
50.13376411560003
 20
-0.239560887500005
 10
50.1230178463
 20
-0.241088887300009
 10
50.11219274740003
 20
-0.2427634073000036
 10
50.10128976600004
 20
-0.2445858650000048
 10
50.09030795510003
 20
-0.246554842800009
  0
LINE
  5
64533
330
1F
100
AcDbEntity
  8
1
100
AcDbLine
 10
50.06068434799999
 20
-0.2513466558000061
 30
0.0
 11
50.00399619820001
 21
-0.2563937856999985
 31
0.0
  0
LINE
  5
64534
330
1F
100
AcDbEntity
  8
1
100
AcDbLine
 10
49.9256456343
 20
-0.3603714648000107
 30
0.0
 11
49.9667590775
 21
-0.356632773799987
 31
0.0
  0
LINE
  5
64535
330
1F
100
AcDbEntity
  8
1
100
AcDbLine
 10
49.8975811716
 20
-0.3627264568999919
 30
0.0
 11
49.9256456343
 21
-0.3603714648000107
 31
0.0
  0
LINE
  5
64536
330
1F
100
AcDbEntity
  8
1
100
AcDbLine
 10
49.89990565510002
 20
-0.2641708100000244
 30
0.0
 11
50.00399619820001
 21
-0.2563937856999985
 31
0.0
  0
LWPOLYLINE
  5
64537
330
1F
100
AcDbEntity
  8
1
100
AcDbPolyline
 90
       10
 70
     0
 43
0.0
 10
50.22940209450002
 20
-0.2320206820000124
 10
50.22355209670002
 20
-0.2321573428000079
 10
50.21767909810001
 20
-0.2323387428000103
 10
50.21178309870004
 20
-0.2325648820000197
 10
50.20586389249999
 20
-0.2328355355000156
 10
50.19992168539999
 20
-0.2331509282000184
 10
50.1939570955
 20
-0.233511734800004
 10
50.18797032850002
 20
-0.2339181801000052
 10
50.1819611786
 20
-0.2343700393000176
 10
50.17592964569999
 20
-0.2348673123999845
  0
LINE
  5
64538
330
1F
100
AcDbEntity
  8
1
100
AcDbLine
 10
4.560000000000002
 20
4.762499999999988
 30
0.0
 11
0.5
 21
4.762499999999988
 31
0.0
  0
LINE
  5
64539
330
1F
100
AcDbEntity
  8
1
100
AcDbLine
 10
50.17608369430002
 20
-0.2348546117000012
 30
0.0
 11
50.18870141030004
 21
-0.2370108087000062
 31
0.0
  0
LINE
  5
6453A
330
1F
100
AcDbEntity
  8
1
100
AcDbLine
 10
50.07643950150001
 20
-0.277204068799989
 30
0.0
 11
50.1315858232
 21
-0.2908104978999972
 31
0.0
  0
LINE
  5
6453B
330
1F
100
AcDbEntity
  8
1
100
AcDbLine
 10
50.02063170069999
 20
-0.2631044250999821
 30
0.0
 11
50.07643950150001
 21
-0.277204068799989
 31
0.0
  0
LINE
  5
6453C
330
1F
100
AcDbEntity
  8
1
100
AcDbLine
 10
49.99666678880001
 20
-0.2569469659999868
 30
0.0
 11
50.02063170069999
 21
-0.2631044250999821
 31
0.0
  0
LINE
  5
6453D
330
1F
100
AcDbEntity
  8
1
100
AcDbLine
 10
50.4348525341
 20
-17.03631033309997
 30
0.0
 11
50.674665
 21
-17.3261248416
 31
0.0
  0
LINE
  5
6453E
330
1F
100
AcDbEntity
  8
1
100
AcDbLine
 10
50.79734940699998
 20
11.77170754789999
 30
0.0
 11
50.79758825489998
 21
11.7717207196
 31
0.0
  0
LINE
  5
6453F
330
1F
100
AcDbEntity
  8
1
100
AcDbLine
 10
50.7555253193
 20
11.9072913079
 30
0.0
 11
50.49961868350004
 21
11.893980586
 31
0.0
  0
LINE
  5
64540
330
1F
100
AcDbEntity
  8
1
100
AcDbLine
 10
50.50299937590001
 20
11.71786036739998
 30
0.0
 11
50.48373499130002
 21
11.71802026210001
 31
0.0
  0
LINE
  5
64541
330
1F
100
AcDbEntity
  8
1
100
AcDbLine
 10
50.5305593761
 20
10.59507804359997
 30
0.0
 11
50.674665
 21
10.57738409779999
 31
0.0
  0
LINE
  5
64542
330
1F
100
AcDbEntity
  8
1
100
AcDbLine
 10
50.7555253193
 20
-16.05781936099998
 30
0.0
 11
50.5216625136
 21
-15.58820931000002
 31
0.0
  0
LINE
  5
64543
330
1F
100
AcDbEntity
  8
1
100
AcDbLine
 10
50.09999999999997
 20
12.51008167179998
 30
0.0
 11
50.41144213270001
 21
12.49415446829998
 31
0.0
  0
LWPOLYLINE
  5
64544
330
1F
100
AcDbEntity
  8
1
100
AcDbPolyline
 90
        4
 70
     0
 43
0.0
 10
50.44711407370002
 20
12.25383680009999
 10
50.31486418980001
 20
12.26874640929998
 10
50.1851541645
 20
12.28273115999998
 10
50.09999999999997
 20
12.29147616869999
  0
LINE
  5
64545
330
1F
100
AcDbEntity
  8
1
100
AcDbLine
 10
50.7555253193
 20
11.9072913079
 30
0.0
 11
50.49783216990005
 21
11.94764027609999
 31
0.0
  0
LINE
  5
64546
330
1F
100
AcDbEntity
  8
1
100
AcDbLine
 10
4.560000000000002
 20
-4.762500000000017
 30
0.0
 11
5.560000000000002
 21
-3.762500000000017
 31
0.0
  0
LWPOLYLINE
  5
64547
330
1F
100
AcDbEntity
  8
1
100
AcDbPolyline
 90
        3
 70
     0
 43
0.0
 10
50.49716394970002
 20
11.96497853139998
 10
50.52461384630001
 20
11.95949760740001
 10
50.57226368729999
 20
11.94957671869999
  0
LINE
  5
64548
330
1F
100
AcDbEntity
  8
1
100
AcDbLine
 10
50.57226368729999
 20
11.94957671869999
 30
0.0
 11
50.61425278839999
 21
11.94048414870001
 31
0.0
  0
LINE
  5
64549
330
1F
100
AcDbEntity
  8
1
100
AcDbLine
 10
50.61425278839999
 20
11.94048414870001
 30
0.0
 11
50.6555162182
 21
11.93121473490001
 31
0.0
  0
LINE
  5
6454A
330
1F
100
AcDbEntity
  8
1
100
AcDbLine
 10
50.6555162182
 20
11.93121473490001
 30
0.0
 11
50.69605639010001
 21
11.9217721521
 31
0.0
  0
LWPOLYLINE
  5
6454B
330
1F
100
AcDbEntity
  8
1
100
AcDbPolyline
 90
        3
 70
     0
 43
0.0
 10
50.69605639010001
 20
11.9217721521
 10
50.7358812859
 20
11.91215954789999
 10
50.7555253193
 20
11.9072913079
  0
LINE
  5
6454C
330
1F
100
AcDbEntity
  8
1
100
AcDbLine
 10
0.0
 20
-5.262500000000017
 30
0.0
 11
0.5
 21
-4.762500000000017
 31
0.0
  0
LINE
  5
6454D
330
1F
100
AcDbEntity
  8
1
100
AcDbLine
 10
50.2998780048
 20
1.485813385200003
 30
0.0
 11
50.32723581249999
 21
1.434759266399993
 31
0.0
  0
LINE
  5
6454E
330
1F
100
AcDbEntity
  8
1
100
AcDbLine
 10
50.2870309939
 20
1.510788131299982
 30
0.0
 11
50.2998780048
 21
1.485813385200003
 31
0.0
  0
LINE
  5
6454F
330
1F
100
AcDbEntity
  8
1
100
AcDbLine
 10
50.27580058450002
 20
1.533029342299982
 30
0.0
 11
50.2870309939
 21
1.510788131299982
 31
0.0
  0
LINE
  5
64550
330
1F
100
AcDbEntity
  8
1
100
AcDbLine
 10
50.26477781239998
 20
1.555326237600013
 30
0.0
 11
50.27580058450002
 21
1.533029342299982
 31
0.0
  0
LWPOLYLINE
  5
64551
330
1F
100
AcDbEntity
  8
1
100
AcDbPolyline
 90
        8
 70
     0
 43
0.0
 10
50.24335382990003
 20
1.600068002100009
 10
50.21773123189999
 20
1.652720179299983
 10
50.19307218510002
 20
1.706064252200008
 10
50.16939586240005
 20
1.760077293599998
 10
50.14670169979999
 20
1.814785214700009
 10
50.12503122870004
 20
1.870115096499993
 10
50.10445808380004
 20
1.925891563600004
 10
50.09749454190004
 20
1.945994935499975
  0
LINE
  5
64552
330
1F
100
AcDbEntity
  8
1
100
AcDbLine
 10
50.25396226220002
 20
1.577672946700005
 30
0.0
 11
50.26477781239998
 21
1.555326237600013
 31
0.0
  0
LINE
  5
64553
330
1F
100
AcDbEntity
  8
1
100
AcDbLine
 10
50.24335382990003
 20
1.600068002100009
 30
0.0
 11
50.25396226220002
 21
1.577672946700005
 31
0.0
  0
LINE
  5
64554
330
1F
100
AcDbEntity
  8
1
100
AcDbLine
 10
50.7555253193
 20
11.9072913079
 30
0.0
 11
50.79800564220002
 21
11.8795923017
 31
0.0
  0
LINE
  5
64555
330
1F
100
AcDbEntity
  8
1
100
AcDbLine
 10
50.43184001100001
 20
12.44529460549997
 30
0.0
 11
50.42789318530004
 21
12.44837583999997
 31
0.0
  0
LINE
  5
64556
330
1F
100
AcDbEntity
  8
1
100
AcDbLine
 10
50.42789318530004
 20
12.44837583999997
 30
0.0
 11
50.42032047740002
 21
12.45464088769998
 31
0.0
  0
LINE
  5
64557
330
1F
100
AcDbEntity
  8
1
100
AcDbLine
 10
50.42032047740002
 20
12.45464088769998
 30
0.0
 11
50.41435626150001
 21
12.45996470449998
 31
0.0
  0
LWPOLYLINE
  5
64558
330
1F
100
AcDbEntity
  8
1
100
AcDbPolyline
 90
       10
 70
     0
 43
0.0
 10
50.45818051810002
 20
12.42733126139998
 10
50.45639826170003
 20
12.4291833975
 10
50.45433124130003
 20
12.43107152999998
 10
50.45197945690003
 20
12.43299565889997
 10
50.44934471179999
 20
12.43495584920001
 10
50.4464252027
 20
12.43695203579999
 10
50.44321551909996
 20
12.4389840243
 10
50.43971385750001
 20
12.44105174959999
 10
50.43592202150001
 20
12.44315527669999
 10
50.43184001100001
 20
12.44529460549997
  0
LINE
  5
64559
330
1F
100
AcDbEntity
  8
1
100
AcDbLine
 10
5.560000000000002
 20
-3.762500000000017
 30
0.0
 11
5.560000000000002
 21
3.762499999999988
 31
0.0
  0
LWPOLYLINE
  5
6455A
330
1F
100
AcDbEntity
  8
1
100
AcDbPolyline
 90
       12
 70
     0
 43
0.0
 10
50.07339555100003
 20
17.91414488749999
 10
50.07627906040003
 20
17.9120867485
 10
50.08059172520001
 20
17.90999930559998
 10
50.08452229790001
 20
17.90941013139999
 10
50.08805162020002
 20
17.91032358529999
 10
50.09115385639995
 20
17.91267634139997
 10
50.09381616909997
 20
17.91648611389999
 10
50.09602250460003
 20
17.92174745370002
 10
50.09775214090002
 20
17.92836299889998
 10
50.09899557229999
 20
17.93630474810001
 10
50.09974754879999
 20
17.94561336539999
 10
50.09999999999997
 20
17.95629485229996
  0
LINE
  5
6455B
330
1F
100
AcDbEntity
  8
1
100
AcDbLine
 10
0.0
 20
-18.32100558799998
 30
0.0
 11
0.0
 21
-5.262500000000017
 31
0.0
  0
LINE
  5
6455C
330
1F
100
AcDbEntity
  8
1
100
AcDbLine
 10
0.0
 20
5.262499999999988
 30
0.0
 11
0.0
 21
18.32100558799998
 31
0.0
  0
LINE
  5
6455D
330
1F
100
AcDbEntity
  8
1
100
AcDbLine
 10
50.64394336550003
 20
21.7237730034
 30
0.0
 11
50.64897802130002
 21
21.7564479783
 31
0.0
  0
LWPOLYLINE
  5
6455E
330
1F
100
AcDbEntity
  8
1
100
AcDbPolyline
 90
       10
 70
     0
 43
0.0
 10
50.45818051810002
 20
22.58658347299999
 10
50.45639826170003
 20
22.57764304650001
 10
50.45433124130003
 20
22.56858980210001
 10
50.45197945690003
 20
22.55942373979998
 10
50.44934471179999
 20
22.55014409170002
 10
50.4464252027
 20
22.5407516258
 10
50.44321551909996
 20
22.53124864539998
 10
50.43971385750001
 20
22.5216359186
 10
50.43592202150001
 20
22.51191267729999
 10
50.43184001100001
 20
22.50207892159997
  0
LWPOLYLINE
  5
6455F
330
1F
100
AcDbEntity
  8
1
100
AcDbPolyline
 90
        8
 70
     0
 43
0.0
 10
50.62700927580002
 20
21.62809067729998
 10
50.62890978560003
 20
21.63727541519998
 10
50.63086949000001
 20
21.64724565530002
 10
50.63288838900001
 20
21.65800139739999
 10
50.63496040610004
 20
21.66952111409998
 10
50.63709161770001
 20
21.68182633289999
 10
50.63930025389999
 20
21.69498163649999
 10
50.64394336550003
 20
21.7237730034
  0
LINE
  5
64560
330
1F
100
AcDbEntity
  8
1
100
AcDbLine
 10
50.51798777560001
 20
22.19686365440001
 30
0.0
 11
50.5004031148
 21
22.1236550299
 31
0.0
  0
LINE
  5
64561
330
1F
100
AcDbEntity
  8
1
100
AcDbLine
 10
50.53450397720002
 20
22.2640883767
 30
0.0
 11
50.51798777560001
 21
22.19686365440001
 31
0.0
  0
LWPOLYLINE
  5
64562
330
1F
100
AcDbEntity
  8
1
100
AcDbPolyline
 90
        8
 70
     0
 43
0.0
 10
50.42405334080001
 20
22.4726114273
 10
50.42032047740002
 20
22.45757898080001
 10
50.41669567370002
 20
22.44234721559999
 10
50.41317785120003
 20
22.42691631760002
 10
50.40976377409998
 20
22.41128684319996
 10
50.40645236370003
 20
22.39545897810001
 10
50.40324469880002
 20
22.3794325367
 10
50.40014077920003
 20
22.36320751900001
  0
LINE
  5
64563
330
1F
100
AcDbEntity
  8
1
100
AcDbLine
 10
50.54702947890001
 20
22.3139968927
 30
0.0
 11
50.53450397720002
 21
22.2640883767
 31
0.0
  0
LINE
  5
64564
330
1F
100
AcDbEntity
  8
1
100
AcDbLine
 10
50.56079515639999
 20
22.3676842026
 30
0.0
 11
50.54702947890001
 21
22.3139968927
 31
0.0
  0
LINE
  5
64565
330
1F
100
AcDbEntity
  8
1
100
AcDbLine
 10
50.57548273120002
 20
22.42360421239998
 30
0.0
 11
50.56079515639999
 21
22.3676842026
 31
0.0
  0
LWPOLYLINE
  5
64566
330
1F
100
AcDbEntity
  8
1
100
AcDbPolyline
 90
        3
 70
     0
 43
0.0
 10
50.43184001100001
 20
22.50207892159997
 10
50.42789318530004
 20
22.48744474100002
 10
50.42405334080001
 20
22.4726114273
  0
LINE
  5
64567
330
1F
100
AcDbEntity
  8
1
100
AcDbLine
 10
50.59092027870002
 20
22.48099692290002
 30
0.0
 11
50.57548273120002
 21
22.42360421239998
 31
0.0
  0
LINE
  5
64568
330
1F
100
AcDbEntity
  8
1
100
AcDbLine
 10
50.60679876399999
 20
22.53878680940002
 30
0.0
 11
50.59092027870002
 21
22.48099692290002
 31
0.0
  0
LINE
  5
64569
330
1F
100
AcDbEntity
  8
1
100
AcDbLine
 10
50.62327160320001
 20
22.59751842120002
 30
0.0
 11
50.60679876399999
 21
22.53878680940002
 31
0.0
  0
LINE
  5
6456A
330
1F
100
AcDbEntity
  8
1
100
AcDbLine
 10
50.64039650850003
 20
22.65730881120001
 30
0.0
 11
50.62327160320001
 21
22.59751842120002
 31
0.0
  0
LINE
  5
6456B
330
1F
100
AcDbEntity
  8
1
100
AcDbLine
 10
50.65836312630001
 20
22.71864083510002
 30
0.0
 11
50.64039650850003
 21
22.65730881120001
 31
0.0
  0
LINE
  5
6456C
330
1F
100
AcDbEntity
  8
1
100
AcDbLine
 10
50.67704716699998
 20
22.78095884819999
 30
0.0
 11
50.65836312630001
 21
22.71864083510002
 31
0.0
  0
LINE
  5
6456D
330
1F
100
AcDbEntity
  8
1
100
AcDbLine
 10
50.69631845530003
 20
22.84379920639998
 30
0.0
 11
50.67704716699998
 21
22.78095884819999
 31
0.0
  0
LINE
  5
6456E
330
1F
100
AcDbEntity
  8
1
100
AcDbLine
 10
50.71595621360001
 20
22.90648520400001
 30
0.0
 11
50.69631845530003
 21
22.84379920639998
 31
0.0
  0
LINE
  5
6456F
330
1F
100
AcDbEntity
  8
1
100
AcDbLine
 10
50.73574693950002
 20
22.96829803269999
 30
0.0
 11
50.71595621360001
 21
22.90648520400001
 31
0.0
  0
LINE
  5
64570
330
1F
100
AcDbEntity
  8
1
100
AcDbLine
 10
50.7555253193
 20
23.02872627940002
 30
0.0
 11
50.73574693950002
 21
22.96829803269999
 31
0.0
  0
LINE
  5
64571
330
1F
100
AcDbEntity
  8
1
100
AcDbLine
 10
50.45818051810002
 20
22.58658347299999
 30
0.0
 11
50.46781089760003
 21
22.61073981780001
 31
0.0
  0
LINE
  5
64572
330
1F
100
AcDbEntity
  8
1
100
AcDbLine
 10
50.7555253193
 20
23.02872627940002
 30
0.0
 11
50.48703653729996
 21
22.40144196829999
 31
0.0
  0
LINE
  5
64573
330
1F
100
AcDbEntity
  8
1
100
AcDbLine
 10
50.36191325299999
 20
22.62017917639997
 30
0.0
 11
50.36092822880002
 21
22.61874815049998
 31
0.0
  0
LINE
  5
64574
330
1F
100
AcDbEntity
  8
1
100
AcDbLine
 10
50.7555253193
 20
23.02872627940002
 30
0.0
 11
50.79800564220002
 21
23.0802754483
 31
0.0
  0
LINE
  5
64575
330
1F
100
AcDbEntity
  8
1
100
AcDbLine
 10
50.62700927580002
 20
21.62809067729998
 30
0.0
 11
50.49736034680001
 21
21.47121912049997
 31
0.0
  0
LINE
  5
64576
330
1F
100
AcDbEntity
  8
1
100
AcDbLine
 10
50.7555253193
 20
23.02872627940002
 30
0.0
 11
50.36191325299999
 21
22.62017917639997
 31
0.0
  0
LWPOLYLINE
  5
64577
330
1F
100
AcDbEntity
  8
1
100
AcDbPolyline
 90
        5
 70
     0
 43
0.0
 10
50.43295384990003
 20
32.95330980400001
 10
50.43635430380001
 20
32.93310622990001
 10
50.4370383191
 20
32.92866794400001
 10
50.43766631210002
 20
32.924225404
 10
50.43823828270001
 20
32.91977860999998
  0
LWPOLYLINE
  5
64578
330
1F
100
AcDbEntity
  8
1
100
AcDbPolyline
 90
        4
 70
     0
 43
0.0
 10
50.45639999210004
 20
32.81725789299998
 10
50.45099672500001
 20
32.84985891290001
 10
50.44546476030004
 20
32.88223617540001
 10
50.44087075119313
 20
32.90834009473842
  0
LINE
  5
64579
330
1F
100
AcDbEntity
  8
1
100
AcDbLine
 10
50.46781089760003
 20
34.33904618030002
 30
0.0
 11
50.4499111560391
 21
34.44906842690637
 31
0.0
  0
LINE
  5
6457A
330
1F
100
AcDbEntity
  8
1
100
AcDbLine
 10
50.4499111560391
 20
34.44906842690637
 30
0.0
 11
50.33376338720001
 21
35.16298032460003
 31
0.0
  0
LWPOLYLINE
  5
6457B
330
1F
100
AcDbEntity
  8
1
100
AcDbPolyline
 90
        8
 70
     0
 43
0.0
 10
50.47630004799998
 20
32.65890469460001
 10
50.47245506999999
 20
32.68325191860002
 10
50.46850201340001
 20
32.70756941190001
 10
50.46444083470001
 20
32.7318571493
 10
50.46027149560001
 20
32.7561150791
 10
50.4559939534
 20
32.7803431765
 10
50.45160816110001
 20
32.80454144339998
 10
50.44711407370002
 20
32.82870986839999
  0
LWPOLYLINE
  5
6457C
330
1F
100
AcDbEntity
  8
1
100
AcDbPolyline
 90
       10
 70
     0
 43
0.0
 10
50.48491887540001
 20
34.24825999620001
 10
50.4832874654
 20
34.25870955990002
 10
50.48158746819999
 20
34.26906941850001
 10
50.47981934560002
 20
34.27933906819999
 10
50.47798367070001
 20
34.28951773620003
 10
50.47608096580001
 20
34.2996052792
 10
50.47411167630002
 20
34.30960217979998
 10
50.47207639470002
 20
34.31950834859998
 10
50.46997588380003
 20
34.32932312650001
 10
50.46781089760003
 20
34.33904618030002
  0
LINE
  5
6457D
330
1F
100
AcDbEntity
  8
1
100
AcDbLine
 10
50.4836659568
 20
32.61012106039999
 30
0.0
 11
50.47630004799998
 21
32.65890469460001
 31
0.0
  0
LWPOLYLINE
  5
6457E
330
1F
100
AcDbEntity
  8
1
100
AcDbPolyline
 90
        4
 70
     0
 43
0.0
 10
50.42774684030002
 20
32.98688081280003
 10
50.42808014870002
 20
32.9846029043
 10
50.43044247740002
 20
32.9689973516
 10
50.43295384990003
 20
32.95330980400001
  0
LWPOLYLINE
  5
6457F
330
1F
100
AcDbEntity
  8
1
100
AcDbPolyline
 90
        6
 70
     0
 43
0.0
 10
50.48028348899999
 20
32.65906030850002
 10
50.47667154880002
 20
32.6847010985
 10
50.47181039139999
 20
32.71815442850002
 10
50.4668095856
 20
32.75140116690002
 10
50.46167187030002
 20
32.78443712650001
 10
50.45639999210004
 20
32.81725789299998
  0
LINE
  5
64580
330
1F
100
AcDbEntity
  8
1
100
AcDbLine
 10
50.49504457790002
 20
32.550440205
 30
0.0
 11
50.48012386019999
 21
32.66018132920001
 31
0.0
  0
LINE
  5
64581
330
1F
100
AcDbEntity
  8
1
100
AcDbLine
 10
50.43823828270001
 20
32.91977860999998
 30
0.0
 11
50.4387542309
 21
32.9153275619
 31
0.0
  0
LINE
  5
64582
330
1F
100
AcDbEntity
  8
1
100
AcDbLine
 10
50.4387542309
 20
32.9153275619
 30
0.0
 11
50.43921415670002
 21
32.9108722597
 31
0.0
  0
LWPOLYLINE
  5
64583
330
1F
100
AcDbEntity
  8
1
100
AcDbPolyline
 90
        7
 70
     0
 43
0.0
 10
50.4169995291
 20
33.07646789440003
 10
50.41848384690002
 20
33.06137494870001
 10
50.42011314549998
 20
33.04619484859998
 10
50.42188742510004
 20
33.03092759409998
 10
50.4238053311
 20
33.0155714654
 10
50.42586821810002
 20
33.0001281822
 10
50.42774684030002
 20
32.98688081280003
  0
LINE
  5
64584
330
1F
100
AcDbEntity
  8
1
100
AcDbLine
 10
50.43921415670002
 20
32.9108722597
 30
0.0
 11
50.44711407370002
 21
32.82870986839999
 31
0.0
  0
LWPOLYLINE
  5
64585
330
1F
100
AcDbEntity
  8
1
100
AcDbPolyline
 90
        3
 70
     0
 43
0.0
 10
50.51977681970001
 20
32.31669058979998
 10
50.50857177530002
 20
32.43382487909997
 10
50.49504457790002
 20
32.550440205
  0
LWPOLYLINE
  5
64586
330
1F
100
AcDbEntity
  8
1
100
AcDbPolyline
 90
       10
 70
     0
 43
0.0
 10
50.51987621630002
 20
32.3031912793
 10
50.51668700749999
 20
32.33745722139997
 10
50.51329015030003
 20
32.3716827762
 10
50.50968522690002
 20
32.4058678392
 10
50.5058716995
 20
32.4400123435
 10
50.5018492625
 20
32.4741161506
 10
50.49761785030003
 20
32.50817904420002
 10
50.49317716650003
 20
32.54220087909999
 10
50.4885266748
 20
32.57618158659997
 10
50.4836659568
 20
32.61012106039999
  0
LINE
  5
64587
330
1F
100
AcDbEntity
  8
1
100
AcDbLine
 10
50.51987621630002
 20
32.3031912793
 30
0.0
 11
50.51977681970001
 21
32.31669058979998
 31
0.0
  0
LINE
  5
64588
330
1F
100
AcDbEntity
  8
1
100
AcDbLine
 10
50.53357880650003
 20
32.11684576990001
 30
0.0
 11
50.51987621630002
 21
32.3031912793
 31
0.0
  0
LINE
  5
64589
330
1F
100
AcDbEntity
  8
1
100
AcDbLine
 10
50.44991115600002
 20
34.4490684269
 30
0.0
 11
50.39281543760004
 21
35.44682433170001
 31
0.0
  0
LWPOLYLINE
  5
6458A
330
1F
100
AcDbEntity
  8
1
100
AcDbPolyline
 90
       10
 70
     0
 43
0.0
 10
50.41144213270001
 20
33.15441217310001
 10
50.41187716530004
 20
33.14584449240002
 10
50.4123576529
 20
33.13725334690003
 10
50.41288359540001
 20
33.1286387367
 10
50.4134547809
 20
33.120000307
 10
50.41407142139999
 20
33.11133841249997
 10
50.41473415280004
 20
33.1026541176
 10
50.41544318720003
 20
33.09394777699998
 10
50.41619831260002
 20
33.0852190359
 10
50.4169995291
 20
33.07646789440003
  0
LWPOLYLINE
  5
6458B
330
1F
100
AcDbEntity
  8
1
100
AcDbPolyline
 90
        3
 70
     0
 43
0.0
 10
50.51987621630002
 20
20.7384227492
 10
50.51668700749999
 20
20.81653923920001
 10
50.50968522690002
 20
20.97284555900001
  0
LWPOLYLINE
  5
6458C
330
1F
100
AcDbEntity
  8
1
100
AcDbPolyline
 90
        5
 70
     0
 43
0.0
 10
50.79744886580002
 20
23.11584056569998
 10
50.797259443
 20
23.12250910240002
 10
50.79704341440003
 20
23.12902172260002
 10
50.79680096240003
 20
23.13538084929999
 10
50.79653208689999
 20
23.14158648269998
  0
LINE
  5
6458D
330
1F
100
AcDbEntity
  8
1
100
AcDbLine
 10
50.40014077920003
 20
22.36320751900001
 30
0.0
 11
50.4004293895
 21
22.35230149979998
 31
0.0
  0
LWPOLYLINE
  5
6458E
330
1F
100
AcDbEntity
  8
1
100
AcDbPolyline
 90
       10
 70
     0
 43
0.0
 10
50.50299937590001
 20
34.021137705
 10
50.5023340205
 20
34.04790410589999
 10
50.50134794080003
 20
34.07431461510002
 10
50.50003175460003
 20
34.10035631670002
 10
50.49837807490002
 20
34.1260174041
 10
50.49638144069999
 20
34.1512868808
 10
50.49403824540002
 20
34.1761545233
 10
50.49134662780002
 20
34.2006111922
 10
50.4883063766
 20
34.22464879639998
 10
50.48491887540001
 20
34.24825999620001
  0
LINE
  5
6458F
330
1F
100
AcDbEntity
  8
1
100
AcDbLine
 10
50.79774898779999
 20
23.1020502817
 30
0.0
 11
50.79744886580002
 21
23.11584056569998
 31
0.0
  0
LINE
  5
64590
330
1F
100
AcDbEntity
  8
1
100
AcDbLine
 10
50.79653208689999
 20
23.14158648269998
 30
0.0
 11
50.79598135270001
 21
23.17602137240001
 31
0.0
  0
LWPOLYLINE
  5
64591
330
1F
100
AcDbEntity
  8
1
100
AcDbPolyline
 90
       10
 70
     0
 43
0.0
 10
50.50299937590001
 20
21.98115607710002
 10
50.5023340205
 20
22.03429520859998
 10
50.50134794080003
 20
22.08664530780001
 10
50.50003175460003
 20
22.13820155409999
 10
50.49837807490002
 20
22.18895970989999
 10
50.49638144069999
 20
22.23891558859998
 10
50.49403824540002
 20
22.28806503979999
 10
50.49134662780002
 20
22.33640462190002
 10
50.4883063766
 20
22.38393158740001
 10
50.48491887540001
 20
22.43064335220001
  0
LWPOLYLINE
  5
64592
330
1F
100
AcDbEntity
  8
1
100
AcDbPolyline
 90
        8
 70
     0
 43
0.0
 10
50.50299937590001
 20
34.021137705
 10
50.50333903120002
 20
33.99305416380001
 10
50.50333797830001
 20
33.96496850170001
 10
50.5030680307
 20
33.9373439117
 10
50.50259758580003
 20
33.91086774549999
 10
50.50197788540001
 20
33.88553116919999
 10
50.50122501600004
 20
33.86063691519999
 10
50.50036377720002
 20
33.83637082479999
  0
LINE
  5
64593
330
1F
100
AcDbEntity
  8
1
100
AcDbLine
 10
50.79598135270001
 20
23.17602137240001
 30
0.0
 11
50.79542450819999
 21
23.22611271510002
 31
0.0
  0
LWPOLYLINE
  5
64594
330
1F
100
AcDbEntity
  8
1
100
AcDbPolyline
 90
       10
 70
     0
 43
0.0
 10
50.40014077920003
 20
33.469716845
 10
50.4004293895
 20
33.43639138109998
 10
50.40095833660001
 20
33.40263837269998
 10
50.4017276205
 20
33.36845781990002
 10
50.40273532520001
 20
33.33384912620002
 10
50.40398336670003
 20
33.29881288799999
 10
50.40547749330002
 20
33.26335089460002
 10
50.40721962120002
 20
33.22746374260001
 10
50.40920783440004
 20
33.19115083540001
 10
50.41144213270001
 20
33.15441217310001
  0
LWPOLYLINE
  5
64595
330
1F
100
AcDbEntity
  8
1
100
AcDbPolyline
 90
        3
 70
     0
 43
0.0
 10
50.79800564220002
 20
23.0802754483
 10
50.7979459675
 20
23.08767994970001
 10
50.79774898779999
 20
23.1020502817
  0
LINE
  5
64596
330
1F
100
AcDbEntity
  8
1
100
AcDbLine
 10
50.79542450819999
 20
23.22611271510002
 30
0.0
 11
50.79522051350005
 21
23.25293092219998
 31
0.0
  0
LWPOLYLINE
  5
64597
330
1F
100
AcDbEntity
  8
1
100
AcDbPolyline
 90
        3
 70
     0
 43
0.0
 10
50.50299937590001
 20
21.98115607710002
 10
50.50333903120002
 20
21.9254338058
 10
50.50333797830001
 20
21.86951995319998
  0
LINE
  5
64598
330
1F
100
AcDbEntity
  8
1
100
AcDbLine
 10
50.79761186519999
 20
36.70782520549997
 30
0.0
 11
50.79653208689999
 21
36.8489466913
 31
0.0
  0
LINE
  5
64599
330
1F
100
AcDbEntity
  8
1
100
AcDbLine
 10
50.79653208689999
 20
36.8489466913
 30
0.0
 11
50.79542450819999
 21
37.16668945929999
 31
0.0
  0
LINE
  5
6459A
330
1F
100
AcDbEntity
  8
1
100
AcDbLine
 10
50.79800564220002
 20
36.59928614069997
 30
0.0
 11
50.79761186519999
 21
36.70782520549997
 31
0.0
  0
LINE
  5
6459B
330
1F
100
AcDbEntity
  8
1
100
AcDbLine
 10
50.79542450819999
 20
37.16668945929999
 30
0.0
 11
50.79522051350005
 21
37.26328159600001
 31
0.0
  0
LINE
  5
6459C
330
1F
100
AcDbEntity
  8
1
100
AcDbLine
 10
50.09999999999997
 20
18.320994412
 30
0.0
 11
50.09999999999997
 21
27.6990931716
 31
0.0
  0
LINE
  5
6459D
330
1F
100
AcDbEntity
  8
1
100
AcDbLine
 10
50.09999999999997
 20
27.6990931716
 30
0.0
 11
50.09999999999997
 21
29.25114879670001
 31
0.0
  0
LINE
  5
6459E
330
1F
100
AcDbEntity
  8
1
100
AcDbLine
 10
50.09999999999997
 20
29.25114879670001
 30
0.0
 11
50.09999999999997
 21
29.3191180628
 31
0.0
  0
LINE
  5
6459F
330
1F
100
AcDbEntity
  8
1
100
AcDbLine
 10
50.09999999999997
 20
29.3191180628
 30
0.0
 11
50.09999999999997
 21
32.21589005190001
 31
0.0
  0
LINE
  5
645A0
330
1F
100
AcDbEntity
  8
1
100
AcDbLine
 10
50.79522051350005
 20
37.26328159600001
 30
0.0
 11
50.79657203210004
 21
37.4723898515
 31
0.0
  0
LWPOLYLINE
  5
645A1
330
1F
100
AcDbEntity
  8
1
100
AcDbPolyline
 90
       29
 70
     0
 43
0.0
 10
50.09999999999997
 20
24.59625347850002
 10
50.09976096389999
 20
24.56793971740002
 10
50.09904973799999
 20
24.54061430870002
 10
50.09787513760002
 20
24.5142739133
 10
50.09624464630002
 20
24.4888813572
 10
50.09416772
 20
24.46446634400002
 10
50.09165902860002
 20
24.44112537539999
 10
50.08873026180001
 20
24.41885523510001
 10
50.08539293330002
 20
24.39764983190003
 10
50.0816670284
 20
24.37760073359999
 10
50.07756502610004
 20
24.35869787229999
 10
50.07310223409999
 20
24.34093991609998
 10
50.0683095043
 20
24.32443117610001
 10
50.06320524430001
 20
24.30917243049999
 10
50.0578062088
 20
24.2951501252
 10
50.05214784650002
 20
24.2824470647
 10
50.04625326299998
 20
24.27106289920002
 10
50.04013959229999
 20
24.2609839893
 10
50.03383788319999
 20
24.25227286269998
 10
50.02736602190004
 20
24.2449176781
 10
50.020746683
 20
24.2389141354
 10
50.01402185170002
 20
24.23433573850002
 10
50.00721387229996
 20
24.23117561530001
 10
50.00034346540002
 20
24.22942355469999
 10
49.99345431210002
 20
24.22914813989999
 10
49.98656632210003
 20
24.23034437960001
 10
49.97970305749999
 20
24.23299930240001
 10
49.97291758470002
 20
24.2371702806
 10
49.969301223
 20
24.24005154600002
  0
LINE
  5
645A2
330
1F
100
AcDbEntity
  8
1
100
AcDbLine
 10
50.50333797830001
 20
21.86951995319998
 30
0.0
 11
50.50259758580003
 21
21.76122119670001
 31
0.0
  0
LINE
  5
645A3
330
1F
100
AcDbEntity
  8
1
100
AcDbLine
 10
50.79657203210004
 20
37.4723898515
 30
0.0
 11
50.79758825489998
 21
37.58419042510002
 31
0.0
  0
LINE
  5
645A4
330
1F
100
AcDbEntity
  8
1
100
AcDbLine
 10
50.50259758580003
 20
21.76122119670001
 30
0.0
 11
50.50122501600004
 21
21.65985204499998
 31
0.0
  0
LINE
  5
645A5
330
1F
100
AcDbEntity
  8
1
100
AcDbLine
 10
50.79522051350005
 20
23.25293092219998
 30
0.0
 11
50.79578442159998
 21
23.28788536620002
 31
0.0
  0
LINE
  5
645A6
330
1F
100
AcDbEntity
  8
1
100
AcDbLine
 10
50.50122501600004
 20
21.65985204499998
 30
0.0
 11
50.4983872697
 21
21.51513894850001
 31
0.0
  0
LINE
  5
645A7
330
1F
100
AcDbEntity
  8
1
100
AcDbLine
 10
50.79578442159998
 20
23.28788536620002
 30
0.0
 11
50.79688537160001
 21
23.33966345670001
 31
0.0
  0
LINE
  5
645A8
330
1F
100
AcDbEntity
  8
1
100
AcDbLine
 10
50.79688537160001
 20
23.33966345670001
 30
0.0
 11
50.79758825489998
 21
23.36779408269999
 31
0.0
  0
LINE
  5
645A9
330
1F
100
AcDbEntity
  8
1
100
AcDbLine
 10
50.4983872697
 20
21.51513894850001
 30
0.0
 11
50.4927445591
 21
21.29301593690002
 31
0.0
  0
LINE
  5
645AA
330
1F
100
AcDbEntity
  8
1
100
AcDbLine
 10
50.50036377720002
 20
33.83637082479999
 30
0.0
 11
50.4983872697
 21
33.78973814799997
 31
0.0
  0
LWPOLYLINE
  5
645AB
330
1F
100
AcDbEntity
  8
1
100
AcDbPolyline
 90
        7
 70
     0
 43
0.0
 10
50.51747258609998
 20
18.320994412
 10
50.5206312421
 20
18.3893923645
 10
50.53510339000002
 20
18.85979687219999
 10
50.54229337799998
 20
19.32983563409999
 10
50.54218054500001
 20
19.79949538289999
 10
50.5347237382
 20
20.26895427630001
 10
50.51987621630002
 20
20.7384227492
  0
LINE
  5
645AC
330
1F
100
AcDbEntity
  8
1
100
AcDbLine
 10
50.4983872697
 20
33.78973814799997
 30
0.0
 11
50.4961494527
 21
33.74464582409999
 31
0.0
  0
LINE
  5
645AD
330
1F
100
AcDbEntity
  8
1
100
AcDbLine
 10
50.49188218320001
 20
33.6668265049
 30
0.0
 11
50.4784393754
 21
33.3985767257
 31
0.0
  0
LWPOLYLINE
  5
645AE
330
1F
100
AcDbEntity
  8
1
100
AcDbPolyline
 90
        5
 70
     0
 43
0.0
 10
50.4784393754
 20
33.3985767257
 10
50.47391522270001
 20
33.31251085770001
 10
50.4688729641
 20
33.22709480729999
 10
50.46290432460003
 20
33.14083968589998
 10
50.45568137920003
 20
33.0528290211
  0
LINE
  5
645AF
330
1F
100
AcDbEntity
  8
1
100
AcDbLine
 10
50.45818051810002
 20
34.15864973199999
 30
0.0
 11
50.46781089760003
 21
34.33904618030002
 31
0.0
  0
LINE
  5
645B0
330
1F
100
AcDbEntity
  8
1
100
AcDbLine
 10
50.4961494527
 20
33.74464582409999
 30
0.0
 11
50.49188218320001
 21
33.6668265049
 31
0.0
  0
LWPOLYLINE
  5
645B1
330
1F
100
AcDbEntity
  8
1
100
AcDbPolyline
 90
       10
 70
     0
 43
0.0
 10
50.45818051810002
 20
34.15864973199999
 10
50.45639826170003
 20
34.13112960979999
 10
50.45433124130003
 20
34.1032361147
 10
50.45197945690003
 20
34.07496924659998
 10
50.44934471179999
 20
34.04632683679998
 10
50.4464252027
 20
34.01731105409999
 10
50.44321551909996
 20
33.9879284049
 10
50.43971385750001
 20
33.9581810581
 10
50.43592202150001
 20
33.9280668448
 10
50.43184001100001
 20
33.89758576510002
  0
LINE
  5
645B2
330
1F
100
AcDbEntity
  8
1
100
AcDbLine
 10
50.40645236370003
 20
33.56898049769998
 30
0.0
 11
50.40014077920003
 21
33.469716845
 31
0.0
  0
LINE
  5
645B3
330
1F
100
AcDbEntity
  8
1
100
AcDbLine
 10
50.41317785120003
 20
33.66585666229997
 30
0.0
 11
50.40645236370003
 21
33.56898049769998
 31
0.0
  0
LINE
  5
645B4
330
1F
100
AcDbEntity
  8
1
100
AcDbLine
 10
50.42032047740002
 20
33.7603439582
 30
0.0
 11
50.41317785120003
 21
33.66585666229997
 31
0.0
  0
LINE
  5
645B5
330
1F
100
AcDbEntity
  8
1
100
AcDbLine
 10
50.7840692002
 20
22.91573321229998
 30
0.0
 11
50.79800564220002
 21
23.0802754483
 31
0.0
  0
LWPOLYLINE
  5
645B6
330
1F
100
AcDbEntity
  8
1
100
AcDbPolyline
 90
        3
 70
     0
 43
0.0
 10
50.43184001100001
 20
33.89758576510002
 10
50.42789318530004
 20
33.85243686370002
 10
50.42032047740002
 20
33.7603439582
  0
LINE
  5
645B7
330
1F
100
AcDbEntity
  8
1
100
AcDbLine
 10
50.7840692002
 20
36.44145945450001
 30
0.0
 11
50.79800564220002
 21
36.59928614069997
 31
0.0
  0
LWPOLYLINE
  5
645B8
330
1F
100
AcDbEntity
  8
1
100
AcDbPolyline
 90
        5
 70
     0
 43
0.0
 10
49.91018145690003
 20
24.9097195743
 10
49.91403377960003
 20
24.95260489359998
 10
49.91825261199998
 20
24.99633108030002
 10
49.9228241539
 20
25.04091123039998
 10
49.92774181589999
 20
25.08640607370001
  0
LINE
  5
645B9
330
1F
100
AcDbEntity
  8
1
100
AcDbLine
 10
50.45568137920003
 20
33.0528290211
 30
0.0
 11
50.44701186090001
 21
32.96322206920001
 31
0.0
  0
LWPOLYLINE
  5
645BA
330
1F
100
AcDbEntity
  8
1
100
AcDbPolyline
 90
       15
 70
     0
 43
0.0
 10
50.05372636389996
 20
26.12049162460002
 10
50.05921675740001
 20
26.17566286089999
 10
50.06445021510003
 20
26.23101450569999
 10
50.06939369350004
 20
26.28641922
 10
50.07403140830001
 20
26.3418821194
 10
50.07834649430001
 20
26.39740391339998
 10
50.08231076390001
 20
26.4528489642
 10
50.08591035020001
 20
26.50820417420002
 10
50.08913293900002
 20
26.5634846365
 10
50.09195906850004
 20
26.61859547420002
 10
50.09437764490002
 20
26.67352049269999
 10
50.09637900510004
 20
26.72827454989999
 10
50.09795061270001
 20
26.78280816179998
 10
50.09908334889999
 20
26.83710338799996
 10
50.09976938290001
 20
26.89117406150001
  0
LINE
  5
645BB
330
1F
100
AcDbEntity
  8
1
100
AcDbLine
 10
50.04205566359999
 20
26.0107243086
 30
0.0
 11
50.05372636389996
 21
26.12049162460002
 31
0.0
  0
LINE
  5
645BC
330
1F
100
AcDbEntity
  8
1
100
AcDbLine
 10
50.674665
 20
21.93763330889999
 30
0.0
 11
50.72574790390001
 21
22.39884326199997
 31
0.0
  0
LINE
  5
645BD
330
1F
100
AcDbEntity
  8
1
100
AcDbLine
 10
50.44701186090001
 20
32.96322206920001
 30
0.0
 11
50.44087075120003
 21
32.90834009480001
 31
0.0
  0
LINE
  5
645BE
330
1F
100
AcDbEntity
  8
1
100
AcDbLine
 10
50.72574790390001
 20
22.39884326199997
 30
0.0
 11
50.77102057499999
 21
22.80098416179999
 31
0.0
  0
LINE
  5
645BF
330
1F
100
AcDbEntity
  8
1
100
AcDbLine
 10
50.77102057499999
 20
22.80098416179999
 30
0.0
 11
50.7840692002
 21
22.91573321229998
 31
0.0
  0
LINE
  5
645C0
330
1F
100
AcDbEntity
  8
1
100
AcDbLine
 10
50.02961041030002
 20
25.9017548448
 30
0.0
 11
50.04205566359999
 21
26.0107243086
 31
0.0
  0
LINE
  5
645C1
330
1F
100
AcDbEntity
  8
1
100
AcDbLine
 10
49.92774181589999
 20
25.08640607370001
 30
0.0
 11
49.93849667830002
 21
25.17990712850002
 31
0.0
  0
LINE
  5
645C2
330
1F
100
AcDbEntity
  8
1
100
AcDbLine
 10
50.01656973110002
 20
25.7936770485
 30
0.0
 11
50.02961041030002
 21
25.9017548448
 31
0.0
  0
LINE
  5
645C3
330
1F
100
AcDbEntity
  8
1
100
AcDbLine
 10
49.93849667830002
 20
25.17990712850002
 30
0.0
 11
49.9502927563
 21
25.27647294830001
 31
0.0
  0
LINE
  5
645C4
330
1F
100
AcDbEntity
  8
1
100
AcDbLine
 10
49.99635789990003
 20
25.63375441999998
 30
0.0
 11
50.01656973110002
 21
25.7936770485
 31
0.0
  0
LWPOLYLINE
  5
645C5
330
1F
100
AcDbEntity
  8
1
100
AcDbPolyline
 90
        3
 70
     0
 43
0.0
 10
49.9502927563
 20
25.27647294830001
 10
49.97607370490001
 20
25.47749987749998
 10
49.99635789990003
 20
25.63375441999998
  0
LINE
  5
645C6
330
1F
100
AcDbEntity
  8
1
100
AcDbLine
 10
50.6637690281
 20
21.85853119549998
 30
0.0
 11
50.674665
 21
21.93763330889999
 31
0.0
  0
LINE
  5
645C7
330
1F
100
AcDbEntity
  8
1
100
AcDbLine
 10
50.36191325299999
 20
35.36515368510001
 30
0.0
 11
50.33376338720001
 21
35.16298032460003
 31
0.0
  0
LINE
  5
645C8
330
1F
100
AcDbEntity
  8
1
100
AcDbLine
 10
50.65446537620002
 20
21.79341382920001
 30
0.0
 11
50.6637690281
 21
21.85853119549998
 31
0.0
  0
LINE
  5
645C9
330
1F
100
AcDbEntity
  8
1
100
AcDbLine
 10
50.64897802130002
 20
21.7564479783
 30
0.0
 11
50.65446537620002
 21
21.79341382920001
 31
0.0
  0
LINE
  5
645CA
330
1F
100
AcDbEntity
  8
1
100
AcDbLine
 10
50.32723581249999
 20
28.34166955929999
 30
0.0
 11
50.22940209450002
 21
27.84118158929999
 31
0.0
  0
LINE
  5
645CB
330
1F
100
AcDbEntity
  8
1
100
AcDbLine
 10
50.7555253193
 20
36.40542162819997
 30
0.0
 11
50.79800564220002
 21
36.59928614069997
 31
0.0
  0
LWPOLYLINE
  5
645CC
330
1F
100
AcDbEntity
  8
1
100
AcDbPolyline
 90
       14
 70
     0
 43
0.0
 10
50.09999999999997
 20
29.31911806280002
 10
50.14448750310001
 20
29.45027192289999
 10
50.2168536227
 20
29.6828113709
 10
50.28193623270002
 20
29.91302335139997
 10
50.33975696609999
 20
30.14095448120003
 10
50.39034893830001
 20
30.36667848049999
 10
50.43373576499999
 20
30.59022507089998
 10
50.46991996859998
 20
30.8116269331
 10
50.49889437620004
 20
31.03095957760003
 10
50.5206312421
 20
31.24822461909997
 10
50.53510339000002
 20
31.46336841659999
 10
50.54229337799998
 20
31.67638012359998
 10
50.54218054500001
 20
31.88727915769999
 10
50.53357880650003
 20
32.11684576990001
  0
LINE
  5
645CD
330
1F
100
AcDbEntity
  8
1
100
AcDbLine
 10
50.50299937590001
 20
21.98115607710002
 30
0.0
 11
50.4472091314
 21
21.94916692139998
 31
0.0
  0
LWPOLYLINE
  5
645CE
330
1F
100
AcDbEntity
  8
1
100
AcDbPolyline
 90
       19
 70
     0
 43
0.0
 10
50.27264051860001
 20
28.84257087260002
 10
50.26751572090001
 20
28.86584063269999
 10
50.26245868290001
 20
28.88814921810001
 10
50.2574694045
 20
28.90949662879999
 10
50.25256784080003
 20
28.92978199889999
 10
50.24773403670002
 20
28.9491061942
 10
50.24290812730001
 20
28.9677718129
 10
50.23809004630004
 20
28.98580427850001
 10
50.23327985990005
 20
29.00317816739998
 10
50.22841790200001
 20
29.02011980609998
 10
50.22350240900005
 20
29.03665619979998
 10
50.21853514440002
 20
29.05276034330001
 10
50.21346173190003
 20
29.06857754789999
 10
50.20828163729999
 20
29.0841248753
 10
50.20299539470002
 20
29.09938526370002
 10
50.19755023049999
 20
29.1144528394
 10
50.1919285534
 20
29.12935897780002
 10
50.18614795460002
 20
29.1440723035
 10
50.18020843420001
 20
29.15859281639999
  0
LWPOLYLINE
  5
645CF
330
1F
100
AcDbEntity
  8
1
100
AcDbPolyline
 90
        7
 70
     0
 43
0.0
 10
50.43295384990003
 20
22.06814512530002
 10
50.43635430380001
 20
22.04874522760002
 10
50.4370383191
 20
22.04449117780001
 10
50.43766631210002
 20
22.04023996609999
 10
50.43823828270001
 20
22.03599159249998
 10
50.4387542309
 20
22.03174605699999
 10
50.43921415670002
 20
22.02750335970002
  0
LINE
  5
645D0
330
1F
100
AcDbEntity
  8
1
100
AcDbLine
 10
50.32723581249999
 20
28.34166955929999
 30
0.0
 11
50.27264051860001
 21
28.84257087260002
 31
0.0
  0
LINE
  5
645D1
330
1F
100
AcDbEntity
  8
1
100
AcDbLine
 10
50.47207639470002
 20
22.57189490809999
 30
0.0
 11
50.46781089760003
 21
22.61073981780001
 31
0.0
  0
LWPOLYLINE
  5
645D2
330
1F
100
AcDbEntity
  8
1
100
AcDbPolyline
 90
        9
 70
     0
 43
0.0
 10
50.4169995291
 20
22.18582157299997
 10
50.41848384690002
 20
22.17145785310001
 10
50.42011314549998
 20
22.15699454560001
 10
50.42188742510004
 20
22.1424316506
 10
50.4238053311
 20
22.12776771710003
 10
50.42586821810002
 20
22.11300419600002
 10
50.42808014870002
 20
22.09814544010001
 10
50.43044247740002
 20
22.08319290010002
 10
50.43295384990003
 20
22.06814512530002
  0
LINE
  5
645D3
330
1F
100
AcDbEntity
  8
1
100
AcDbLine
 10
50.43921415670002
 20
22.02750335970002
 30
0.0
 11
50.44711407370002
 21
21.9493327056
 31
0.0
  0
LINE
  5
645D4
330
1F
100
AcDbEntity
  8
1
100
AcDbLine
 10
50.47608096580001
 20
22.53237948679998
 30
0.0
 11
50.47207639470002
 21
22.57189490809999
 31
0.0
  0
LINE
  5
645D5
330
1F
100
AcDbEntity
  8
1
100
AcDbLine
 10
50.47981934560002
 20
22.49219271460001
 30
0.0
 11
50.47608096580001
 21
22.53237948679998
 31
0.0
  0
LWPOLYLINE
  5
645D6
330
1F
100
AcDbEntity
  8
1
100
AcDbPolyline
 90
        3
 70
     0
 43
0.0
 10
50.48491887540001
 20
22.43064335220001
 10
50.4832874654
 20
22.45132858310001
 10
50.47981934560002
 20
22.49219271460001
  0
LINE
  5
645D7
330
1F
100
AcDbEntity
  8
1
100
AcDbLine
 10
50.46027149560001
 20
21.7804148834
 30
0.0
 11
50.44711407370002
 21
21.9493327056
 31
0.0
  0
LINE
  5
645D8
330
1F
100
AcDbEntity
  8
1
100
AcDbLine
 10
50.47245506999999
 20
21.6114036331
 30
0.0
 11
50.46027149560001
 21
21.7804148834
 31
0.0
  0
LINE
  5
645D9
330
1F
100
AcDbEntity
  8
1
100
AcDbLine
 10
50.4836659568
 20
21.44230564960003
 30
0.0
 11
50.47245506999999
 21
21.6114036331
 31
0.0
  0
LINE
  5
645DA
330
1F
100
AcDbEntity
  8
1
100
AcDbLine
 10
50.49317716650003
 20
21.2857344327
 30
0.0
 11
50.4836659568
 21
21.44230564960003
 31
0.0
  0
LINE
  5
645DB
330
1F
100
AcDbEntity
  8
1
100
AcDbLine
 10
50.5018492625
 20
21.12924602699999
 30
0.0
 11
50.49317716650003
 21
21.2857344327
 31
0.0
  0
LWPOLYLINE
  5
645DC
330
1F
100
AcDbEntity
  8
1
100
AcDbPolyline
 90
       10
 70
     0
 43
0.0
 10
50.41144213270001
 20
22.25974270729998
 10
50.41187716530004
 20
22.25163870809999
 10
50.4123576529
 20
22.24350711330001
 10
50.41288359540001
 20
22.2353479228
 10
50.4134547809
 20
22.22716082909997
 10
50.41407142139999
 20
22.21894613979998
 10
50.41473415280004
 20
22.21070477729998
 10
50.41544318720003
 20
22.202437049
 10
50.41619831260002
 20
22.19414264760002
 10
50.4169995291
 20
22.18582157299997
  0
LINE
  5
645DD
330
1F
100
AcDbEntity
  8
1
100
AcDbLine
 10
50.50968522690002
 20
20.97284555900001
 30
0.0
 11
50.5018492625
 21
21.12924602699999
 31
0.0
  0
LWPOLYLINE
  5
645DE
330
1F
100
AcDbEntity
  8
1
100
AcDbPolyline
 90
        9
 70
     0
 43
0.0
 10
50.4004293895
 20
22.35230149979998
 10
50.40095833660001
 20
22.3412478633
 10
50.4017276205
 20
22.3300466096
 10
50.40273532520001
 20
22.318697606
 10
50.40398336670003
 20
22.30720098509998
 10
50.40547749330002
 20
22.29555714499998
 10
50.40721962120002
 20
22.2837662183
 10
50.40920783440004
 20
22.27182807240001
 10
50.41144213270001
 20
22.25974270729998
  0
LINE
  5
645DF
330
1F
100
AcDbEntity
  8
1
100
AcDbLine
 10
50.7555253193
 20
36.40542162819997
 30
0.0
 11
50.39281543759409
 21
35.4468243318035
 31
0.0
  0
LINE
  5
645E0
330
1F
100
AcDbEntity
  8
1
100
AcDbLine
 10
50.39281543759409
 20
35.4468243318035
 30
0.0
 11
50.36191325299999
 21
35.36515368510001
 31
0.0
  0
LINE
  5
645E1
330
1F
100
AcDbEntity
  8
1
100
AcDbLine
 10
50.13376411560003
 20
27.73662224120001
 30
0.0
 11
50.09999999999997
 21
27.6990931716
 31
0.0
  0
LINE
  5
645E2
330
1F
100
AcDbEntity
  8
1
100
AcDbLine
 10
50.17592964569999
 20
27.78304585749999
 30
0.0
 11
50.13376411560003
 21
27.73662224120001
 31
0.0
  0
LINE
  5
645E3
330
1F
100
AcDbEntity
  8
1
100
AcDbLine
 10
50.21178309870004
 20
27.82211945519998
 30
0.0
 11
50.17592964569999
 21
27.78304585749999
 31
0.0
  0
LINE
  5
645E4
330
1F
100
AcDbEntity
  8
1
100
AcDbLine
 10
50.22940209450002
 20
27.84118158929999
 30
0.0
 11
50.21178309870004
 21
27.82211945519998
 31
0.0
  0
LINE
  5
645E5
330
1F
100
AcDbEntity
  8
1
100
AcDbLine
 10
50.50331311970001
 20
21.86443751589998
 30
0.0
 11
50.674665
 21
21.93763330889999
 31
0.0
  0
LINE
  5
645E6
330
1F
100
AcDbEntity
  8
1
100
AcDbLine
 10
50.7555253193
 20
23.02872627940002
 30
0.0
 11
50.7840692002
 21
22.91573321229998
 31
0.0
  0
LINE
  5
645E7
330
1F
100
AcDbEntity
  8
1
100
AcDbLine
 10
50.7555253193
 20
36.40542162819997
 30
0.0
 11
50.7840692002
 21
36.44145945450001
 31
0.0
  0
LINE
  5
645E8
330
1F
100
AcDbEntity
  8
1
100
AcDbLine
 10
50.16729213089999
 20
22.61016697620002
 30
0.0
 11
50.31728867229998
 21
22.62201790499998
 31
0.0
  0
LINE
  5
645E9
330
1F
100
AcDbEntity
  8
1
100
AcDbLine
 10
50.09999999999997
 20
23.2094650697
 30
0.0
 11
50.17718271200002
 21
23.21535692819998
 31
0.0
  0
LINE
  5
645EA
330
1F
100
AcDbEntity
  8
1
100
AcDbLine
 10
50.09999999999997
 20
22.60507262109998
 30
0.0
 11
50.16729213089999
 21
22.61016697620002
 31
0.0
  0
LINE
  5
645EB
330
1F
100
AcDbEntity
  8
1
100
AcDbLine
 10
50.17718271200002
 20
23.21535692819998
 30
0.0
 11
50.32528854430001
 21
23.22595639560001
 31
0.0
  0
LINE
  5
645EC
330
1F
100
AcDbEntity
  8
1
100
AcDbLine
 10
50.32528854430001
 20
23.22595639560001
 30
0.0
 11
50.47046311970001
 21
23.23540879879998
 31
0.0
  0
LINE
  5
645ED
330
1F
100
AcDbEntity
  8
1
100
AcDbLine
 10
50.47046311970001
 20
23.23540879879998
 30
0.0
 11
50.61272765310002
 21
23.24372216249998
 31
0.0
  0
LINE
  5
645EE
330
1F
100
AcDbEntity
  8
1
100
AcDbLine
 10
50.61272765310002
 20
23.24372216249998
 30
0.0
 11
50.73923896290001
 21
23.25028563339998
 31
0.0
  0
LINE
  5
645EF
330
1F
100
AcDbEntity
  8
1
100
AcDbLine
 10
50.73923896290001
 20
23.25028563339998
 30
0.0
 11
50.79522051350005
 21
23.25293092219998
 31
0.0
  0
LINE
  5
645F0
330
1F
100
AcDbEntity
  8
1
100
AcDbLine
 10
50.09999999999997
 20
22.2550057007
 30
0.0
 11
50.41144213270001
 21
22.25974270729998
 31
0.0
  0
LINE
  5
645F1
330
1F
100
AcDbEntity
  8
1
100
AcDbLine
 10
50.47240844690003
 20
23.0980947665
 30
0.0
 11
50.56453950920001
 21
23.11135303579999
 31
0.0
  0
LWPOLYLINE
  5
645F2
330
1F
100
AcDbEntity
  8
1
100
AcDbPolyline
 90
       10
 70
     0
 43
0.0
 10
50.47240844690003
 20
23.0980947665
 10
50.4685010222
 20
23.09756428969999
 10
50.46330951679999
 20
23.09700766120001
 10
50.45824149730001
 20
23.09663833409999
 10
50.4532969151
 20
23.09645626940002
 10
50.44847581089999
 20
23.09646143359998
 10
50.44377830400001
 20
23.0966537813
 10
50.43920441970001
 20
23.09703325569998
 10
50.43475410080003
 20
23.09759980549998
 10
50.43145867120003
 20
23.0981546863
  0
LINE
  5
645F3
330
1F
100
AcDbEntity
  8
1
100
AcDbLine
 10
50.56453950920001
 20
23.11135303579999
 30
0.0
 11
50.64460749280002
 21
23.12231438010002
 31
0.0
  0
LINE
  5
645F4
330
1F
100
AcDbEntity
  8
1
100
AcDbLine
 10
50.64460749280002
 20
23.12231438010002
 30
0.0
 11
50.70218416770001
 21
23.12985948889997
 31
0.0
  0
LINE
  5
645F5
330
1F
100
AcDbEntity
  8
1
100
AcDbLine
 10
50.70218416770001
 20
23.12985948889997
 30
0.0
 11
50.75903450819999
 21
23.13702239150001
 31
0.0
  0
LINE
  5
645F6
330
1F
100
AcDbEntity
  8
1
100
AcDbLine
 10
50.75903450819999
 20
23.13702239150001
 30
0.0
 11
50.79653208689999
 21
23.14158648269998
 31
0.0
  0
LWPOLYLINE
  5
645F7
330
1F
100
AcDbEntity
  8
1
100
AcDbPolyline
 90
        4
 70
     0
 43
0.0
 10
50.44711407370002
 20
21.9493327056
 10
50.31486418980001
 20
21.95794254539999
 10
50.1851541645
 20
21.9655545185
 10
50.09999999999997
 20
21.96998337720001
  0
LINE
  5
645F8
330
1F
100
AcDbEntity
  8
1
100
AcDbLine
 10
50.7555253193
 20
23.02872627940002
 30
0.0
 11
50.09999999999997
 21
23.0725945783
 31
0.0
  0
LINE
  5
645F9
330
1F
100
AcDbEntity
  8
1
100
AcDbLine
 10
50.46781089760003
 20
22.61073981780001
 30
0.0
 11
50.31728867229998
 21
22.62201790499998
 31
0.0
  0
LINE
  5
645FA
330
1F
100
AcDbEntity
  8
1
100
AcDbLine
 10
50.09999999999997
 20
23.15248408699999
 30
0.0
 11
50.1117374227
 21
23.15081274330001
 31
0.0
  0
LWPOLYLINE
  5
645FB
330
1F
100
AcDbEntity
  8
1
100
AcDbPolyline
 90
        7
 70
     0
 43
0.0
 10
50.1117374227
 20
23.15081274330001
 10
50.1664168949
 20
23.1427147608
 10
50.22022239490002
 20
23.13440958059999
 10
50.27315195700001
 20
23.12589255989998
 10
50.32520415490001
 20
23.11716058740001
 10
50.37637755750001
 20
23.10821210249998
 10
50.43145867120003
 20
23.0981546863
  0
LINE
  5
645FC
330
1F
100
AcDbEntity
  8
1
100
AcDbLine
 10
50.09999999999997
 20
23.5825326213
 30
0.0
 11
50.25590854030003
 21
23.5556726079
 31
0.0
  0
LINE
  5
645FD
330
1F
100
AcDbEntity
  8
1
100
AcDbLine
 10
50.25590854030003
 20
23.5556726079
 30
0.0
 11
50.4334095925
 21
23.5242757087
 31
0.0
  0
LINE
  5
645FE
330
1F
100
AcDbEntity
  8
1
100
AcDbLine
 10
50.4334095925
 20
23.5242757087
 30
0.0
 11
50.55166558089999
 21
23.50288075799998
 31
0.0
  0
LWPOLYLINE
  5
645FF
330
1F
100
AcDbEntity
  8
1
100
AcDbPolyline
 90
        4
 70
     0
 43
0.0
 10
50.43145867120003
 20
23.0981546863
 10
50.47608285280003
 20
23.0896666413
 10
50.52461384630001
 20
23.08007337589998
 10
50.57226368729999
 20
23.0702709743
  0
LINE
  5
64600
330
1F
100
AcDbEntity
  8
1
100
AcDbLine
 10
37.71239688950001
 20
33.75196962960001
 30
0.0
 11
37.71729937090001
 21
33.70721335970002
 31
0.0
  0
LINE
  5
64601
330
1F
100
AcDbEntity
  8
1
100
AcDbLine
 10
37.88802222780004
 20
34.4969469808
 30
0.0
 11
37.90143768290003
 21
34.2798319616
 31
0.0
  0
LINE
  5
64602
330
1F
100
AcDbEntity
  8
1
100
AcDbLine
 10
38.18495770990003
 20
35.16402236690002
 30
0.0
 11
38.11378082370004
 21
36.36530332199999
 31
0.0
  0
LINE
  5
64603
330
1F
100
AcDbEntity
  8
1
100
AcDbLine
 10
37.85446116680001
 20
35.08208149210001
 30
0.0
 11
37.88802222780004
 21
34.4969469808
 31
0.0
  0
LINE
  5
64604
330
1F
100
AcDbEntity
  8
1
100
AcDbLine
 10
37.5875613723
 20
32.04124345060002
 30
0.0
 11
37.57157030299999
 21
32.32068968909999
 31
0.0
  0
LWPOLYLINE
  5
64605
330
1F
100
AcDbEntity
  8
1
100
AcDbPolyline
 90
        9
 70
     0
 43
0.0
 10
38.19553463260002
 20
37.3674442185
 10
38.19537479970001
 20
37.39018866059999
 10
38.19493097610001
 20
37.4263226695
 10
38.19425370810001
 20
37.46291466480001
 10
38.19334108180001
 20
37.49996406170001
 10
38.19218735610002
 20
37.5374691051
 10
38.190790617
 20
37.57542921019999
 10
38.18915277850005
 20
37.61384496190002
 10
38.18727384049998
 20
37.6527163602
  0
LINE
  5
64606
330
1F
100
AcDbEntity
  8
1
100
AcDbLine
 10
38.195556372
 20
37.31929284729998
 30
0.0
 11
38.19553463260002
 21
37.3674442185
 31
0.0
  0
LINE
  5
64607
330
1F
100
AcDbEntity
  8
1
100
AcDbLine
 10
37.62793626260003
 20
32.01743914310001
 30
0.0
 11
37.62826854720001
 21
32.16532167010001
 31
0.0
  0
LINE
  5
64608
330
1F
100
AcDbEntity
  8
1
100
AcDbLine
 10
37.7058455863
 20
32.95775655260003
 30
0.0
 11
37.70224973800001
 21
32.62947667799998
 31
0.0
  0
LINE
  5
64609
330
1F
100
AcDbEntity
  8
1
100
AcDbLine
 10
37.71729937090001
 20
33.70721335970002
 30
0.0
 11
37.7058455863
 21
32.95775655260003
 31
0.0
  0
LINE
  5
6460A
330
1F
100
AcDbEntity
  8
1
100
AcDbLine
 10
37.62826854720001
 20
32.16532167010001
 30
0.0
 11
37.63514302060003
 21
32.37389829539998
 31
0.0
  0
LINE
  5
6460B
330
1F
100
AcDbEntity
  8
1
100
AcDbLine
 10
37.63514302060003
 20
32.37389829539998
 30
0.0
 11
37.642673207
 21
32.57820838260001
 31
0.0
  0
LINE
  5
6460C
330
1F
100
AcDbEntity
  8
1
100
AcDbLine
 10
37.642673207
 20
32.57820838260001
 30
0.0
 11
37.65157330880001
 21
32.79839923960003
 31
0.0
  0
LINE
  5
6460D
330
1F
100
AcDbEntity
  8
1
100
AcDbLine
 10
37.65157330880001
 20
32.79839923960003
 30
0.0
 11
37.65793086880001
 21
32.94621037339999
 31
0.0
  0
LWPOLYLINE
  5
6460E
330
1F
100
AcDbEntity
  8
1
100
AcDbPolyline
 90
        3
 70
     0
 43
0.0
 10
38.13124606049999
 20
36.59272425049997
 10
38.13328091760002
 20
36.62176051049997
 10
38.13560293920003
 20
36.65118453909997
  0
LINE
  5
6460F
330
1F
100
AcDbEntity
  8
1
100
AcDbLine
 10
38.1883332514
 20
37.2145583217
 30
0.0
 11
38.195556372
 21
37.31929284729998
 31
0.0
  0
LINE
  5
64610
330
1F
100
AcDbEntity
  8
1
100
AcDbLine
 10
37.66115058350005
 20
32.99085284339998
 30
0.0
 11
37.71239688950001
 21
33.75196962960001
 31
0.0
  0
LINE
  5
64611
330
1F
100
AcDbEntity
  8
1
100
AcDbLine
 10
37.65793086880001
 20
32.94621037339999
 30
0.0
 11
37.66115058350005
 21
32.99085284339998
 31
0.0
  0
LINE
  5
64612
330
1F
100
AcDbEntity
  8
1
100
AcDbLine
 10
38.18072036970003
 20
37.11235610210002
 30
0.0
 11
38.1883332514
 21
37.2145583217
 31
0.0
  0
LINE
  5
64613
330
1F
100
AcDbEntity
  8
1
100
AcDbLine
 10
38.13124606049999
 20
36.59272425049997
 30
0.0
 11
38.11378082370004
 21
36.36530332199999
 31
0.0
  0
LINE
  5
64614
330
1F
100
AcDbEntity
  8
1
100
AcDbLine
 10
38.17271451620002
 20
37.01268772359997
 30
0.0
 11
38.18072036970003
 21
37.11235610210002
 31
0.0
  0
LINE
  5
64615
330
1F
100
AcDbEntity
  8
1
100
AcDbLine
 10
37.65008659910001
 20
32.00521304749998
 30
0.0
 11
37.70224973800001
 21
32.62947667799998
 31
0.0
  0
LWPOLYLINE
  5
64616
330
1F
100
AcDbEntity
  8
1
100
AcDbPolyline
 90
        8
 70
     0
 43
0.0
 10
38.13560293920003
 20
36.65118453909997
 10
38.1382121254
 20
36.68099633629998
 10
38.14110670069999
 20
36.71119823620001
 10
38.14428844049999
 20
36.74178790479999
 10
38.14776267120004
 20
36.7727583395
 10
38.15153116819999
 20
36.80410720609998
 10
38.15559215600004
 20
36.83583683889998
 10
38.15994563480001
 20
36.86794723780002
  0
LWPOLYLINE
  5
64617
330
1F
100
AcDbEntity
  8
1
100
AcDbPolyline
 90
        3
 70
     0
 43
0.0
 10
38.15994563480001
 20
36.86794723780002
 10
38.16430284730001
 20
36.91555932690003
 10
38.17271451620002
 20
37.01268772359997
  0
LINE
  5
64618
330
1F
100
AcDbEntity
  8
1
100
AcDbLine
 10
38.15066788580003
 20
34.92499723739999
 30
0.0
 11
38.18495770990003
 21
35.16402236690002
 31
0.0
  0
LWPOLYLINE
  5
64619
330
1F
100
AcDbEntity
  8
1
100
AcDbPolyline
 90
       22
 70
     0
 43
0.0
 10
37.23067143520001
 20
32.75403917080002
 10
37.2318365845
 20
32.76082298999998
 10
37.2378456129
 20
32.79110745499997
 10
37.24512486470002
 20
32.82130951370002
 10
37.25367575540003
 20
32.85142216229997
 10
37.26349587409999
 20
32.8814165917
 10
37.27452755710004
 20
32.91123609069999
 10
37.2867626389
 20
32.9408479956
 10
37.30020803159999
 20
32.97024902530001
 10
37.31482860860001
 20
32.9994262065
 10
37.33063167110001
 20
33.0283806452
 10
37.34760864550001
 20
33.05707901260002
 10
37.36570050750001
 20
33.0854562765
 10
37.38489605870004
 20
33.11348136679999
 10
37.40520499049998
 20
33.14115302260002
 10
37.42659952010001
 20
33.16845033429999
 10
37.44908709630005
 20
33.19537100870002
 10
37.4726587598
 20
33.22188817690002
 10
37.49726204410001
 20
33.24794379730001
 10
37.52287888750001
 20
33.27350877199999
 10
37.5495257032
 20
33.2985839177
 10
37.5772016834
 20
33.32315595449998
  0
LINE
  5
6461A
330
1F
100
AcDbEntity
  8
1
100
AcDbLine
 10
37.76331105560001
 20
33.9222729558
 30
0.0
 11
37.71729937090001
 21
33.70721335970002
 31
0.0
  0
LWPOLYLINE
  5
6461B
330
1F
100
AcDbEntity
  8
1
100
AcDbPolyline
 90
       10
 70
     0
 43
0.0
 10
37.9536657143
 20
32.4229450997
 10
37.9391331439
 20
32.35885467139997
 10
37.92554845560002
 20
32.29539029620003
 10
37.91291164940003
 20
32.23255197409998
 10
37.90122941979999
 20
32.17032929889999
 10
37.89049507240003
 20
32.10873267690002
 10
37.88068852350003
 20
32.0477933267
 10
37.87180307880004
 20
31.9875216545
 10
37.86384543260002
 20
31.92790725399999
 10
37.8621912534
 20
31.91403417159998
  0
LINE
  5
6461C
330
1F
100
AcDbEntity
  8
1
100
AcDbLine
 10
37.76331105560001
 20
33.9222729558
 30
0.0
 11
37.71239688950001
 21
33.75196962960001
 31
0.0
  0
LINE
  5
6461D
330
1F
100
AcDbEntity
  8
1
100
AcDbLine
 10
38.15066788580003
 20
34.92499723739999
 30
0.0
 11
37.90143768287132
 21
34.27983196161111
 31
0.0
  0
LINE
  5
6461E
330
1F
100
AcDbEntity
  8
1
100
AcDbLine
 10
37.90143768287132
 20
34.27983196161111
 30
0.0
 11
37.76331105560001
 21
33.9222729558
 31
0.0
  0
LWPOLYLINE
  5
6461F
330
1F
100
AcDbEntity
  8
1
100
AcDbPolyline
 90
       10
 70
     0
 43
0.0
 10
37.46345661610002
 20
32.13238225210003
 10
37.47816115770002
 20
32.15965992210002
 10
37.4952460591
 20
32.19052722359999
 10
37.51326709930001
 20
32.22230818540001
 10
37.53222587260004
 20
32.25500263249998
 10
37.55217818310001
 20
32.28865128449999
 10
37.57312339990003
 20
32.3232556152
 10
37.59506215400004
 20
32.35881415080001
 10
37.61805214240002
 20
32.39536318909998
 10
37.6369537352
 20
32.42487897889998
  0
LWPOLYLINE
  5
64620
330
1F
100
AcDbEntity
  8
1
100
AcDbPolyline
 90
       16
 70
     0
 43
0.0
 10
48.59759545970002
 20
32.75126283069997
 10
48.54526046240002
 20
32.73286421609999
 10
48.49224640910001
 20
32.71459838870001
 10
48.43857633990001
 20
32.69647164200002
 10
48.38422478240002
 20
32.67847425760002
 10
48.3292644636
 20
32.66062923760002
 10
48.27386982889999
 20
32.6429903138
 10
48.21808438170001
 20
32.6255670134
 10
48.16192166249999
 20
32.6083593868
 10
48.10551631890001
 20
32.59140387229999
 10
48.04887958620003
 20
32.57469845690002
 10
47.99206043860002
 20
32.55825238560002
 10
47.935253483
 20
32.54211549210001
 10
47.87854492439999
 20
32.5263042627
 10
47.82191050409998
 20
32.51080421120003
 10
47.76538000920001
 20
32.49561645499998
  0
LINE
  5
64621
330
1F
100
AcDbEntity
  8
1
100
AcDbLine
 10
1.699999999999988
 20
27.815
 30
0.0
 11
11.69999999999999
 21
27.815
 31
0.0
  0
LINE
  5
64622
330
1F
100
AcDbEntity
  8
1
100
AcDbLine
 10
50.57226368729999
 20
23.0702709743
 30
0.0
 11
50.61425278839999
 21
23.06130500870001
 31
0.0
  0
LINE
  5
64623
330
1F
100
AcDbEntity
  8
1
100
AcDbLine
 10
50.61425278839999
 20
23.06130500870001
 30
0.0
 11
50.6555162182
 21
23.05218292109998
 31
0.0
  0
LINE
  5
64624
330
1F
100
AcDbEntity
  8
1
100
AcDbLine
 10
50.6555162182
 20
23.05218292109998
 30
0.0
 11
50.69605639010001
 21
23.042909646
 31
0.0
  0
LWPOLYLINE
  5
64625
330
1F
100
AcDbEntity
  8
1
100
AcDbPolyline
 90
        3
 70
     0
 43
0.0
 10
50.69605639010001
 20
23.042909646
 10
50.7358812859
 20
23.03348941229999
 10
50.7555253193
 20
23.02872627940002
  0
LINE
  5
64626
330
1F
100
AcDbEntity
  8
1
100
AcDbLine
 10
50.31728867229998
 20
22.62201790499998
 30
0.0
 11
50.45818051810002
 21
22.58658347299999
 31
0.0
  0
LWPOLYLINE
  5
64627
330
1F
100
AcDbEntity
  8
1
100
AcDbPolyline
 90
       11
 70
     0
 43
0.0
 10
37.3503582475
 20
35.21504805549998
 10
37.36868187190004
 20
35.4006954357
 10
37.39478252410001
 20
35.59420973659999
 10
37.42811660200004
 20
35.7900536416
 10
37.46871105190002
 20
35.98827032
 10
37.51659012260004
 20
36.1888371675
 10
37.57175551340001
 20
36.39165491389997
 10
37.63421141260002
 20
36.59665485850002
 10
37.70397458960002
 20
36.8037942245
 10
37.78111023740001
 20
37.0131081486
 10
37.86569380510002
 20
37.2246443217
  0
LINE
  5
64628
330
1F
100
AcDbEntity
  8
1
100
AcDbLine
 10
37.86569380510002
 20
37.2246443217
 30
0.0
 11
37.88049186750001
 21
37.26005422490003
 31
0.0
  0
LINE
  5
64629
330
1F
100
AcDbEntity
  8
1
100
AcDbLine
 10
37.88049186750001
 20
37.26005422490003
 30
0.0
 11
37.91072662190004
 21
37.33108692690001
 31
0.0
  0
LINE
  5
6462A
330
1F
100
AcDbEntity
  8
1
100
AcDbLine
 10
37.91072662190004
 20
37.33108692690001
 30
0.0
 11
37.94181527740003
 21
37.4024002779
 31
0.0
  0
LINE
  5
6462B
330
1F
100
AcDbEntity
  8
1
100
AcDbLine
 10
37.94181527740003
 20
37.4024002779
 30
0.0
 11
37.97375873909999
 21
37.47398929620003
 31
0.0
  0
LINE
  5
6462C
330
1F
100
AcDbEntity
  8
1
100
AcDbLine
 10
37.97375873909999
 20
37.47398929620003
 30
0.0
 11
38.00655910900002
 21
37.54584966350001
 31
0.0
  0
LINE
  5
6462D
330
1F
100
AcDbEntity
  8
1
100
AcDbLine
 10
38.00655910900002
 20
37.54584966350001
 30
0.0
 11
38.03069803420001
 21
37.59773696010001
 31
0.0
  0
LINE
  5
6462E
330
1F
100
AcDbEntity
  8
1
100
AcDbLine
 10
38.03069803420001
 20
37.59773696010001
 30
0.0
 11
38.05526621370004
 21
37.6497259384
 31
0.0
  0
LINE
  5
6462F
330
1F
100
AcDbEntity
  8
1
100
AcDbLine
 10
38.05526621370004
 20
37.6497259384
 30
0.0
 11
38.0802636832
 21
37.701814802
 31
0.0
  0
LWPOLYLINE
  5
64630
330
1F
100
AcDbEntity
  8
1
100
AcDbPolyline
 90
        3
 70
     0
 43
0.0
 10
38.0802636832
 20
37.701814802
 10
38.1056904134
 20
37.75400162549997
 10
38.11856477260003
 20
37.7801312352
  0
LINE
  5
64631
330
1F
100
AcDbEntity
  8
1
100
AcDbLine
 10
37.69094386540002
 20
33.42191831670002
 30
0.0
 11
37.5772016834
 21
33.32315595449998
 31
0.0
  0
LINE
  5
64632
330
1F
100
AcDbEntity
  8
1
100
AcDbLine
 10
39.97927943580001
 20
32.03345389089998
 30
0.0
 11
39.94971731790002
 21
32.01619350870001
 31
0.0
  0
LINE
  5
64633
330
1F
100
AcDbEntity
  8
1
100
AcDbLine
 10
39.94971731790002
 20
32.01619350870001
 30
0.0
 11
39.92058922210004
 21
31.99942419600001
 31
0.0
  0
LINE
  5
64634
330
1F
100
AcDbEntity
  8
1
100
AcDbLine
 10
39.92058922210004
 20
31.99942419600001
 30
0.0
 11
39.89189514850006
 21
31.98314595280002
 31
0.0
  0
LWPOLYLINE
  5
64635
330
1F
100
AcDbEntity
  8
1
100
AcDbPolyline
 90
       68
 70
     0
 43
0.0
 10
39.89189514850006
 20
31.98314595280002
 10
39.86110863460004
 20
31.96662483460003
 10
39.8298986666
 20
31.95119051799998
 10
39.79826431630002
 20
31.936789449
 10
39.76614377040002
 20
31.92337542999999
 10
39.7335973138
 20
31.91089335849999
 10
39.70080733440003
 20
31.89928097699999
 10
39.66776797690002
 20
31.88849244990001
 10
39.63448412950001
 20
31.87848830900001
 10
39.6011544241
 20
31.86922134
 10
39.56777628650002
 20
31.86065689190002
 10
39.53435171080002
 20
31.8527581775
 10
39.50108626970001
 20
31.84547987030001
 10
39.46801117799998
 20
31.83880044440002
 10
39.435094905
 20
31.83268414400001
 10
39.40244896710004
 20
31.8270705974
 10
39.3701124941
 20
31.82194251030001
 10
39.33804620850003
 20
31.81727543240001
 10
39.3062440541
 20
31.81300522399998
 10
39.27474304740002
 20
31.80911698499996
 10
39.24350611440002
 20
31.80559743749999
 10
39.21241608170004
 20
31.80239069229998
 10
39.18147104850002
 20
31.79948177100002
 10
39.15067289900003
 20
31.79686761630001
 10
39.11991014420002
 20
31.79451401879999
 10
39.08914639470001
 20
31.7924097225
 10
39.05841803909999
 20
31.79055467469999
 10
39.02772275680002
 20
31.78893360449999
 10
38.99707918260003
 20
31.78754253310001
 10
38.96646868479999
 20
31.78637913710003
 10
38.93583304370003
 20
31.78543202780003
 10
38.9052045789
 20
31.78469751429998
 10
38.87455097210003
 20
31.78417743850001
 10
38.84371704620003
 20
31.78386982499998
 10
38.8126655357
 20
31.78377224370001
 10
38.78143370420003
 20
31.78388940790001
 10
38.74997816770002
 20
31.78423118659998
 10
38.71829037940003
 20
31.78479959929999
 10
38.68637888290002
 20
31.78559941080002
 10
38.65422592979999
 20
31.78664603819999
 10
38.62188039270001
 20
31.7879402019
 10
38.5892934007
 20
31.78949301440002
 10
38.55630059270001
 20
31.79133777380001
 10
38.5228901648
 20
31.79347900580001
 10
38.48907394010002
 20
31.7959311759
 10
38.45472300580002
 20
31.7987465281
 10
38.41980191060003
 20
31.80193822280001
 10
38.38434617000002
 20
31.80552255729998
 10
38.34833334230001
 20
31.80956238799999
 10
38.3117196764
 20
31.8140824795
 10
38.27454908420003
 20
31.81910128249999
 10
38.23693065710003
 20
31.8246789193
 10
38.19885801150002
 20
31.8308447883
 10
38.16033786580002
 20
31.83762745749999
 10
38.12149903150001
 20
31.84509276620003
 10
38.08232664549999
 20
31.85327995179998
 10
38.04283619270001
 20
31.86222430859999
 10
38.00320210930002
 20
31.87199277549999
 10
37.9633469929
 20
31.88265599260001
 10
37.92334930920004
 20
31.89423582699999
 10
37.88361739060003
 20
31.90672622520001
 10
37.84414807880001
 20
31.92018826979998
 10
37.80494605300001
 20
31.93465492339999
 10
37.76643140420004
 20
31.9500660978
 10
37.72862138440002
 20
31.96647258819999
 10
37.69150063330002
 20
31.98390633350002
 10
37.65544018850003
 20
32.00225808120001
 10
37.62793626259989
 20
32.01743914303273
  0
LWPOLYLINE
  5
64636
330
1F
100
AcDbEntity
  8
1
100
AcDbPolyline
 90
       29
 70
     0
 43
0.0
 10
37.62793626259989
 20
32.01743914303273
 10
37.62047516170003
 20
32.02155737089999
 10
37.5865724834
 20
32.0418349153
 10
37.55400063569999
 20
32.0629576883
 10
37.52279120450001
 20
32.08493977289999
 10
37.49291456110001
 20
32.1078016111
 10
37.46454696170002
 20
32.13139392240002
 10
37.43772158990001
 20
32.15570943210003
 10
37.4124068886
 20
32.18076388229997
 10
37.38868154330001
 20
32.20641994499999
 10
37.36656936700001
 20
32.23265872690002
 10
37.34604773170003
 20
32.2594873601
 10
37.32712523060005
 20
32.28679074979999
 10
37.30981594760002
 20
32.3145450129
 10
37.29410652580003
 20
32.34274868909998
 10
37.27996403490002
 20
32.37130895339999
 10
37.2673955064
 20
32.40020099679998
 10
37.25639421130001
 20
32.42941616350001
 10
37.24690628940005
 20
32.45887853319999
 10
37.23893483680001
 20
32.48856194999999
 10
37.23247667850003
 20
32.51845463339999
 10
37.22746832460004
 20
32.54849778980001
 10
37.22390973600003
 20
32.57866708350003
 10
37.22180056080004
 20
32.60894740169999
 10
37.2210766764
 20
32.63929134799997
 10
37.22173691180001
 20
32.66967793429998
 10
37.22378179180001
 20
32.70008889760001
 10
37.2271496047
 20
32.73047945479999
 10
37.23067143520001
 20
32.75403917080002
  0
LWPOLYLINE
  5
64637
330
1F
100
AcDbEntity
  8
1
100
AcDbPolyline
 90
       15
 70
     0
 43
0.0
 10
47.76537998120002
 20
32.4956152968
 10
47.69564446330003
 20
32.4845502332
 10
47.62550546760002
 20
32.47464671759999
 10
47.5549982315
 20
32.4659122617
 10
47.4841277092
 20
32.45835178049998
 10
47.41296041769999
 20
32.45197649389999
 10
47.34162511630001
 20
32.4467987967
 10
47.27019655710003
 20
32.44282306380001
 10
47.19867438580002
 20
32.44004959449998
 10
47.12707541590001
 20
32.43848107080001
 10
47.05539902659999
 20
32.43812117019999
 10
46.98372082360001
 20
32.4389754435
 10
46.91217188909996
 20
32.44104566269999
 10
46.84082061860002
 20
32.44432979280001
 10
46.76967301870002
 20
32.44882726179998
  0
LINE
  5
64638
330
1F
100
AcDbEntity
  8
1
100
AcDbLine
 10
38.1950446948
 20
32.44481597199999
 30
0.0
 11
37.9536657143
 21
32.4229450997
 31
0.0
  0
LINE
  5
64639
330
1F
100
AcDbEntity
  8
1
100
AcDbLine
 10
38.43642063360002
 20
32.46554890610001
 30
0.0
 11
38.1950446948
 21
32.44481597199999
 31
0.0
  0
LINE
  5
6463A
330
1F
100
AcDbEntity
  8
1
100
AcDbLine
 10
38.66428934760003
 20
32.48407373569998
 30
0.0
 11
38.43642063360002
 21
32.46554890610001
 31
0.0
  0
LINE
  5
6463B
330
1F
100
AcDbEntity
  8
1
100
AcDbLine
 10
38.91524944470001
 20
32.50329186740001
 30
0.0
 11
38.66428934760003
 21
32.48407373569998
 31
0.0
  0
LWPOLYLINE
  5
6463C
330
1F
100
AcDbEntity
  8
1
100
AcDbPolyline
 90
        3
 70
     0
 43
0.0
 10
39.24921086900003
 20
32.52692777109999
 10
39.16579263210002
 20
32.5212321356
 10
38.91524944470001
 20
32.50329186740001
  0
LWPOLYLINE
  5
6463D
330
1F
100
AcDbEntity
  8
1
100
AcDbPolyline
 90
       10
 70
     0
 43
0.0
 10
50.44711407370002
 20
32.82870986839999
 10
50.31486418980001
 20
32.82070004510001
 10
50.1851541645
 20
32.81195809920002
 10
50.05798399780002
 20
32.8024840308
 10
49.93334623710004
 20
32.79226743530001
 10
49.81124833490003
 20
32.78131871720002
 10
49.6917126486
 20
32.76966909019999
 10
49.57474663069999
 20
32.75732895889999
 10
49.46034282860001
 20
32.74428791870003
 10
49.34850124249999
 20
32.73054596960003
  0
LWPOLYLINE
  5
6463E
330
1F
100
AcDbEntity
  8
1
100
AcDbPolyline
 90
        5
 70
     0
 43
0.0
 10
43.51151777100002
 20
31.76876851580002
 10
44.59397438239998
 20
31.7891207806
 10
46.43118458600002
 20
31.8275767868
 10
48.26652645850003
 20
31.87091279159998
 10
50.09999999999997
 20
31.91912879510002
  0
LINE
  5
6463F
330
1F
100
AcDbEntity
  8
1
100
AcDbLine
 10
50.09999999999997
 20
32.21589005190001
 30
0.0
 11
39.97927943580001
 21
32.03345389089998
 31
0.0
  0
LWPOLYLINE
  5
64640
330
1F
100
AcDbEntity
  8
1
100
AcDbPolyline
 90
       10
 70
     0
 43
0.0
 10
28.26937183120003
 20
31.66540913969999
 10
30.03357378960004
 20
31.6592615774
 10
31.81221242830003
 20
31.65808128100002
 10
33.60528774720001
 20
31.6618682504
 10
35.41550106360001
 20
31.67061440679999
 10
37.24015106030004
 20
31.6843278291
 10
39.0711337857
 20
31.70303275399999
 10
40.90848160909999
 20
31.72677442830002
 10
42.75216216130002
 20
31.75550760510001
 10
43.51151777100002
 20
31.76876851580002
  0
LINE
  5
64641
330
1F
100
AcDbEntity
  8
1
100
AcDbLine
 10
49.34850124249999
 20
32.73054596960003
 30
0.0
 11
49.29551841620003
 21
32.73049092760003
 31
0.0
  0
LINE
  5
64642
330
1F
100
AcDbEntity
  8
1
100
AcDbLine
 10
49.29551841620003
 20
32.73049092760003
 30
0.0
 11
49.2425984011
 21
32.7306766424
 31
0.0
  0
LINE
  5
64643
330
1F
100
AcDbEntity
  8
1
100
AcDbLine
 10
49.2425984011
 20
32.7306766424
 30
0.0
 11
49.18972947340001
 21
32.73110378589999
 31
0.0
  0
LINE
  5
64644
330
1F
100
AcDbEntity
  8
1
100
AcDbLine
 10
49.18972947340001
 20
32.73110378589999
 30
0.0
 11
49.13687228790002
 21
32.73177471290001
 31
0.0
  0
LINE
  5
64645
330
1F
100
AcDbEntity
  8
1
100
AcDbLine
 10
49.13687228790002
 20
32.73177471290001
 30
0.0
 11
49.08399183
 21
32.73269096549999
 31
0.0
  0
LINE
  5
64646
330
1F
100
AcDbEntity
  8
1
100
AcDbLine
 10
49.08399183
 20
32.73269096549999
 30
0.0
 11
49.03106936980001
 21
32.73385307699999
 31
0.0
  0
LINE
  5
64647
330
1F
100
AcDbEntity
  8
1
100
AcDbLine
 10
49.03106936980001
 20
32.73385307699999
 30
0.0
 11
48.97807466270001
 21
32.73526181360001
 31
0.0
  0
LINE
  5
64648
330
1F
100
AcDbEntity
  8
1
100
AcDbLine
 10
48.97807466270001
 20
32.73526181360001
 30
0.0
 11
48.92503543410001
 21
32.73691328379999
 31
0.0
  0
LINE
  5
64649
330
1F
100
AcDbEntity
  8
1
100
AcDbLine
 10
48.92503543410001
 20
32.73691328379999
 30
0.0
 11
48.84543869830003
 21
32.73983536870003
 31
0.0
  0
LINE
  5
6464A
330
1F
100
AcDbEntity
  8
1
100
AcDbLine
 10
48.84543869830003
 20
32.73983536870003
 30
0.0
 11
48.76589133370003
 21
32.7432598128
 31
0.0
  0
LINE
  5
6464B
330
1F
100
AcDbEntity
  8
1
100
AcDbLine
 10
48.68781569510002
 20
32.74704734889997
 30
0.0
 11
48.59759545970002
 21
32.75126283069997
 31
0.0
  0
LINE
  5
6464C
330
1F
100
AcDbEntity
  8
1
100
AcDbLine
 10
48.76589133370003
 20
32.7432598128
 30
0.0
 11
48.68781569510002
 21
32.74704734889997
 31
0.0
  0
LWPOLYLINE
  5
6464D
330
1F
100
AcDbEntity
  8
1
100
AcDbPolyline
 90
       16
 70
     0
 43
0.0
 10
46.76967301870002
 20
32.44882726179998
 10
46.20649018139999
 20
32.49581935019998
 10
45.71305137350003
 20
32.53190930120002
 10
45.21897152810001
 20
32.5627665591
 10
44.72460221299999
 20
32.58836351940002
 10
44.22984714620002
 20
32.6087103303
 10
43.73456050310003
 20
32.62382575909999
 10
43.23870019260001
 20
32.6337292479
 10
42.74222622719998
 20
32.63843660479998
 10
42.24499548429998
 20
32.6379549676
 10
41.74703041950002
 20
32.63228671670001
 10
41.24851052850002
 20
32.62145265999999
 10
40.74952804720001
 20
32.60547974420001
 10
40.2501077549
 20
32.58439275449999
 10
39.75007241700001
 20
32.55820507100001
 10
39.24921086900003
 20
32.52692777109999
  0
LWPOLYLINE
  5
6464E
330
1F
100
AcDbEntity
  8
1
100
AcDbPolyline
 90
       10
 70
     0
 43
0.0
 10
50.79758825489998
 20
23.36779408269999
 10
50.79112646000002
 20
23.3708725013
 10
50.78464632920002
 20
23.37400112949999
 10
50.77814786249999
 20
23.37717996719999
 10
50.7716307956
 20
23.38040892499998
 10
50.7650953927
 20
23.38368809229999
 10
50.75854244659999
 20
23.38701773819997
 10
50.75197222159999
 20
23.39039795220001
 10
50.74538445330003
 20
23.3938286449
 10
50.73877914179999
 20
23.39730981600002
  0
LINE
  5
6464F
330
1F
100
AcDbEntity
  8
1
100
AcDbLine
 10
50.61368672980001
 20
23.46984057389997
 30
0.0
 11
50.55166558089999
 21
23.50288075799998
 31
0.0
  0
LWPOLYLINE
  5
64650
330
1F
100
AcDbEntity
  8
1
100
AcDbPolyline
 90
       10
 70
     0
 43
0.0
 10
50.73877914179999
 20
23.39730981600002
 10
50.72738559430002
 20
23.4034104536
 10
50.71592428630001
 20
23.40967507100001
 10
50.70439521780002
 20
23.41610366839999
 10
50.69279711249999
 20
23.42269550289998
 10
50.68113124679999
 20
23.42945131729999
 10
50.66940144950002
 20
23.43637333979998
 10
50.65760899720001
 20
23.44346231310002
 10
50.64575261339999
 20
23.4507174945
 10
50.63048069569996
 20
23.46021804739999
  0
LINE
  5
64651
330
1F
100
AcDbEntity
  8
1
100
AcDbLine
 10
50.36191325299999
 20
22.62017917639997
 30
0.0
 11
50.09999999999997
 21
22.76200024880001
 31
0.0
  0
LINE
  5
64652
330
1F
100
AcDbEntity
  8
1
100
AcDbLine
 10
24.49293887290003
 20
29.30111586379999
 30
0.0
 11
28.29925249710004
 21
31.68409938510001
 31
0.0
  0
LINE
  5
64653
330
1F
100
AcDbEntity
  8
1
100
AcDbLine
 10
28.29925249710004
 20
31.68409938510001
 30
0.0
 11
28.36574076350002
 21
31.72506083010001
 31
0.0
  0
LINE
  5
64654
330
1F
100
AcDbEntity
  8
1
100
AcDbLine
 10
28.36574076350002
 20
31.72506083010001
 30
0.0
 11
28.44101747790001
 21
31.77095950609999
 31
0.0
  0
LINE
  5
64655
330
1F
100
AcDbEntity
  8
1
100
AcDbLine
 10
28.44101747790001
 20
31.77095950609999
 30
0.0
 11
28.57252270250001
 21
31.8501245725
 31
0.0
  0
LINE
  5
64656
330
1F
100
AcDbEntity
  8
1
100
AcDbLine
 10
28.57252270250001
 20
31.8501245725
 30
0.0
 11
28.72846565800001
 21
31.94291489200001
 31
0.0
  0
LINE
  5
64657
330
1F
100
AcDbEntity
  8
1
100
AcDbLine
 10
32.54357882850002
 20
34.16600172470001
 30
0.0
 11
33.14675983890001
 21
34.52220130179998
 31
0.0
  0
LINE
  5
64658
330
1F
100
AcDbEntity
  8
1
100
AcDbLine
 10
28.72846565800001
 20
31.94291489200001
 30
0.0
 11
28.91155444720002
 21
32.05088171210003
 31
0.0
  0
LINE
  5
64659
330
1F
100
AcDbEntity
  8
1
100
AcDbLine
 10
32.16648338420004
 20
33.94446514249998
 30
0.0
 11
32.54357882850002
 21
34.16600172470001
 31
0.0
  0
LINE
  5
6465A
330
1F
100
AcDbEntity
  8
1
100
AcDbLine
 10
31.79408168730001
 20
33.72637634739999
 30
0.0
 11
32.16648338420004
 21
33.94446514249998
 31
0.0
  0
LINE
  5
6465B
330
1F
100
AcDbEntity
  8
1
100
AcDbLine
 10
28.91155444720002
 20
32.05088171210003
 30
0.0
 11
29.125266482
 21
32.17603825179998
 31
0.0
  0
LINE
  5
6465C
330
1F
100
AcDbEntity
  8
1
100
AcDbLine
 10
31.09185504100003
 20
33.31717135610001
 30
0.0
 11
31.79408168730001
 21
33.72637634739999
 31
0.0
  0
LINE
  5
6465D
330
1F
100
AcDbEntity
  8
1
100
AcDbLine
 10
29.125266482
 20
32.17603825179998
 30
0.0
 11
29.46351320790001
 21
32.3729876402
 31
0.0
  0
LINE
  5
6465E
330
1F
100
AcDbEntity
  8
1
100
AcDbLine
 10
29.46351320790001
 20
32.3729876402
 30
0.0
 11
29.98399671350004
 21
32.67483327950001
 31
0.0
  0
LINE
  5
6465F
330
1F
100
AcDbEntity
  8
1
100
AcDbLine
 10
29.98399671350004
 20
32.67483327950001
 30
0.0
 11
31.09185504100003
 21
33.31717135610001
 31
0.0
  0
LWPOLYLINE
  5
64660
330
1F
100
AcDbEntity
  8
1
100
AcDbPolyline
 90
       28
 70
     0
 43
0.0
 10
33.14675983890001
 20
34.52220130179998
 10
33.23631754160002
 20
34.57395605170001
 10
33.32683625749999
 20
34.62380118780001
 10
33.41831598670004
 20
34.67173670999998
 10
33.51081940850003
 20
34.7177826704
 10
33.60428384350001
 20
34.76191901690001
 10
33.69852125370002
 20
34.80408559370002
 10
33.79349657470001
 20
34.84426396799998
 10
33.88924487100002
 20
34.88247257249998
 10
33.98568329810002
 20
34.9187065493
 10
34.08281618050001
 20
34.9529687006
 10
34.18063919370002
 20
34.98525622420002
 10
34.27905652000001
 20
35.01555585540001
 10
34.37810077820001
 20
35.0438735374
 10
34.47773934950002
 20
35.07020332710002
 10
34.57777855970002
 20
35.0945141302
 10
34.67818133980001
 20
35.11679426109998
 10
34.77898475870004
 20
35.13705540539999
 10
34.88010634910001
 20
35.15530152570001
 10
34.98154934160002
 20
35.17153430120001
 10
35.08331050550001
 20
35.18575205260001
 10
35.18529768100004
 20
35.19795370499998
 10
35.28754617260003
 20
35.20813954159999
 10
35.39002067569999
 20
35.216309279
 10
35.49252311730001
 20
35.22246099240002
 10
35.59498747310005
 20
35.22659403999997
 10
35.69747976729999
 20
35.22870906360001
 10
35.80000000000001
 20
35.2288060631
  0
LWPOLYLINE
  5
64661
330
1F
100
AcDbEntity
  8
1
100
AcDbPolyline
 90
       10
 70
     0
 43
0.0
 10
38.11856477260003
 20
37.7801312352
 10
38.2516081375
 20
37.79290349810001
 10
38.38200771050001
 20
37.80578407970001
 10
38.50976349150002
 20
37.81877297979998
 10
38.63488198130003
 20
37.8318748909
 10
38.75735667910002
 20
37.84508512069999
 10
38.87716808280004
 20
37.85838959200001
 10
38.99430969170001
 20
37.87178361260001
 10
39.10878800640001
 20
37.88527187470001
 10
39.22060302710003
 20
37.89885437839999
  0
LINE
  5
64662
330
1F
100
AcDbEntity
  8
1
100
AcDbLine
 10
39.22060302710003
 20
37.89885437839999
 30
0.0
 11
39.3545696827
 21
37.90831087559999
 31
0.0
  0
LINE
  5
64663
330
1F
100
AcDbEntity
  8
1
100
AcDbLine
 10
39.3545696827
 20
37.90831087559999
 30
0.0
 11
39.40812540460004
 21
37.9119191877
 31
0.0
  0
LINE
  5
64664
330
1F
100
AcDbEntity
  8
1
100
AcDbLine
 10
37.48833529480001
 20
35.21380827229999
 30
0.0
 11
37.35035812218695
 21
35.215033948726
 31
0.0
  0
LINE
  5
64665
330
1F
100
AcDbEntity
  8
1
100
AcDbLine
 10
37.35035812218695
 20
35.215033948726
 30
0.0
 11
35.80000000000001
 21
35.2288060631
 31
0.0
  0
LWPOLYLINE
  5
64666
330
1F
100
AcDbEntity
  8
1
100
AcDbPolyline
 90
       10
 70
     0
 43
0.0
 10
37.85446116680001
 20
35.08208149210001
 10
37.81216783740001
 20
35.09243185210002
 10
37.7702518616
 20
35.10386298030002
 10
37.72871323960004
 20
35.11637487650001
 10
37.68751755049999
 20
35.12997991530003
 10
37.64669921520005
 20
35.14466572219999
 10
37.60636149580003
 20
35.16039517370001
 10
37.56653881290001
 20
35.17715589530002
 10
37.5271967459
 20
35.1949602615
 10
37.48833529480001
 20
35.21380827229999
  0
LWPOLYLINE
  5
64667
330
1F
100
AcDbEntity
  8
1
100
AcDbPolyline
 90
        6
 70
     0
 43
0.0
 10
50.63048069569996
 20
23.46021804739999
 10
50.62712669650003
 20
23.46224565809999
 10
50.62377030020002
 20
23.46422171609999
 10
50.620411507
 20
23.46614622139998
 10
50.61705031690002
 20
23.468019174
 10
50.61368672980001
 20
23.46984057389997
  0
LINE
  5
64668
330
1F
100
AcDbEntity
  8
1
100
AcDbLine
 10
39.40812540460004
 20
37.9119191877
 30
0.0
 11
39.54219524070001
 21
37.9205174606
 31
0.0
  0
LINE
  5
64669
330
1F
100
AcDbEntity
  8
1
100
AcDbLine
 10
39.54219524070001
 20
37.9205174606
 30
0.0
 11
39.67676049240001
 21
37.92852861499998
 31
0.0
  0
LWPOLYLINE
  5
6466A
330
1F
100
AcDbEntity
  8
1
100
AcDbPolyline
 90
        3
 70
     0
 43
0.0
 10
39.67676049240001
 20
37.92852861499998
 10
39.83844812550001
 20
37.93738338190002
 10
39.98264118380001
 20
37.9449535524
  0
LWPOLYLINE
  5
6466B
330
1F
100
AcDbEntity
  8
1
100
AcDbPolyline
 90
       14
 70
     0
 43
0.0
 10
42.32490332430001
 20
37.9072425983
 10
42.8248406104
 20
37.91015623659999
 10
43.32438427990001
 20
37.9120926187
 10
43.82318016420001
 20
37.91306373839999
 10
44.32132666880002
 20
37.91307219299998
 10
44.81897291070001
 20
37.91211897540001
 10
45.31616396000001
 20
37.91020252440001
 10
45.81293990379998
 20
37.90730762839999
 10
46.30944160490003
 20
37.9034135883
 10
46.80564306429999
 20
37.89849675470001
 10
47.30136294710002
 20
37.89252528159997
 10
47.7965077348
 20
37.88546452310001
 10
48.29105027620002
 20
37.87727545920001
 10
48.7851606559
 20
37.8679017963
  0
LINE
  5
6466C
330
1F
100
AcDbEntity
  8
1
100
AcDbLine
 10
41.68120885409999
 20
37.90252962770001
 30
0.0
 11
42.32490332430001
 21
37.9072425983
 31
0.0
  0
LINE
  5
6466D
330
1F
100
AcDbEntity
  8
1
100
AcDbLine
 10
41.53743555610001
 20
37.90264371019997
 30
0.0
 11
41.68120885409999
 21
37.90252962770001
 31
0.0
  0
LINE
  5
6466E
330
1F
100
AcDbEntity
  8
1
100
AcDbLine
 10
41.39416858729996
 20
37.90366399530001
 30
0.0
 11
41.53743555610001
 21
37.90264371019997
 31
0.0
  0
LINE
  5
6466F
330
1F
100
AcDbEntity
  8
1
100
AcDbLine
 10
41.25208757370001
 20
37.90556480389998
 30
0.0
 11
41.39416858729996
 21
37.90366399530001
 31
0.0
  0
LINE
  5
64670
330
1F
100
AcDbEntity
  8
1
100
AcDbLine
 10
41.11130898330003
 20
37.90832688149999
 30
0.0
 11
41.25208757370001
 21
37.90556480389998
 31
0.0
  0
LINE
  5
64671
330
1F
100
AcDbEntity
  8
1
100
AcDbLine
 10
48.7851606559
 20
37.8679017963
 30
0.0
 11
49.44336873700001
 21
37.85346323710002
 31
0.0
  0
LINE
  5
64672
330
1F
100
AcDbEntity
  8
1
100
AcDbLine
 10
49.44336873700001
 20
37.85346323710002
 30
0.0
 11
49.7722314309
 21
37.8453710968
 31
0.0
  0
LINE
  5
64673
330
1F
100
AcDbEntity
  8
1
100
AcDbLine
 10
40.97219315320001
 20
37.91192873530003
 30
0.0
 11
41.11130898330003
 21
37.90832688149999
 31
0.0
  0
LINE
  5
64674
330
1F
100
AcDbEntity
  8
1
100
AcDbLine
 10
49.7722314309
 20
37.8453710968
 30
0.0
 11
50.1374999514
 21
37.83566092089998
 31
0.0
  0
LWPOLYLINE
  5
64675
330
1F
100
AcDbEntity
  8
1
100
AcDbPolyline
 90
        3
 70
     0
 43
0.0
 10
50.1374999514
 20
37.83566092089998
 10
50.4925455666
 20
37.8254650511
 10
50.55166558089999
 20
37.82369256999999
  0
LWPOLYLINE
  5
64676
330
1F
100
AcDbEntity
  8
1
100
AcDbPolyline
 90
        3
 70
     0
 43
0.0
 10
40.7679118204
 20
37.91884014229998
 10
40.8353871051
 20
37.91633938229998
 10
40.97219315320001
 20
37.91192873530003
  0
LWPOLYLINE
  5
64677
330
1F
100
AcDbEntity
  8
1
100
AcDbPolyline
 90
       16
 70
     0
 43
0.0
 10
39.98264118380001
 20
37.9449535524
 10
40.030846523
 20
37.93856613460003
 10
40.07985672090001
 20
37.93280099289999
 10
40.12965161440002
 20
37.92766909909997
 10
40.1802562789
 20
37.92317779129999
 10
40.23160451089998
 20
37.91934322030002
 10
40.2835339657
 20
37.9161842821
 10
40.33600380380002
 20
37.9137074372
 10
40.38900131860001
 20
37.91191764179999
 10
40.44239915499997
 20
37.91082222620004
 10
40.49618607720001
 20
37.91042320000001
 10
40.55031506680001
 20
37.91072305780004
 10
40.60459950270001
 20
37.91171989510002
 10
40.65895491210002
 20
37.9134076233
 10
40.71340254929999
 20
37.9157826956
 10
40.76791210940001
 20
37.9188408869
  0
LINE
  5
64678
330
1F
100
AcDbEntity
  8
1
100
AcDbLine
 10
37.84517170550001
 20
32.51132371010001
 30
0.0
 11
37.87318500860005
 21
32.489442819
 31
0.0
  0
LWPOLYLINE
  5
64679
330
1F
100
AcDbEntity
  8
1
100
AcDbPolyline
 90
        5
 70
     0
 43
0.0
 10
37.87318500860005
 20
32.489442819
 10
37.87664180600004
 20
32.48671618299997
 10
37.88009309720002
 20
32.48396180989999
 10
37.8835388823
 20
32.4811796997
 10
37.88697916120003
 20
32.47836985239999
  0
LINE
  5
6467A
330
1F
100
AcDbEntity
  8
1
100
AcDbLine
 10
37.82095997130003
 20
32.53054784540001
 30
0.0
 11
37.84517170550001
 21
32.51132371010001
 31
0.0
  0
LINE
  5
6467B
330
1F
100
AcDbEntity
  8
1
100
AcDbLine
 10
37.79709076500001
 20
32.5498088004
 30
0.0
 11
37.82095997130003
 21
32.53054784540001
 31
0.0
  0
LINE
  5
6467C
330
1F
100
AcDbEntity
  8
1
100
AcDbLine
 10
37.77357713730001
 20
32.56908528210002
 30
0.0
 11
37.79709076500001
 21
32.5498088004
 31
0.0
  0
LINE
  5
6467D
330
1F
100
AcDbEntity
  8
1
100
AcDbLine
 10
37.88697916120003
 20
32.47836985239999
 30
0.0
 11
37.9536657143
 21
32.4229450997
 31
0.0
  0
LINE
  5
6467E
330
1F
100
AcDbEntity
  8
1
100
AcDbLine
 10
37.75522213950001
 20
32.58434957389997
 30
0.0
 11
37.77357713730001
 21
32.56908528210002
 31
0.0
  0
LINE
  5
6467F
330
1F
100
AcDbEntity
  8
1
100
AcDbLine
 10
37.74183296410001
 20
32.5956027858
 30
0.0
 11
37.75522213950001
 21
32.58434957389997
 31
0.0
  0
LINE
  5
64680
330
1F
100
AcDbEntity
  8
1
100
AcDbLine
 10
37.72853964580003
 20
32.60687722549997
 30
0.0
 11
37.74183296410001
 21
32.5956027858
 31
0.0
  0
LINE
  5
64681
330
1F
100
AcDbEntity
  8
1
100
AcDbLine
 10
37.71534500230001
 20
32.6181688591
 30
0.0
 11
37.72853964580003
 21
32.60687722549997
 31
0.0
  0
LINE
  5
64682
330
1F
100
AcDbEntity
  8
1
100
AcDbLine
 10
37.70224973800001
 20
32.62947667799998
 30
0.0
 11
37.71534500230001
 21
32.6181688591
 31
0.0
  0
LWPOLYLINE
  5
64683
330
1F
100
AcDbEntity
  8
1
100
AcDbPolyline
 90
       28
 70
     0
 43
0.0
 10
49.969301223
 20
24.24005154600002
 10
49.96623426580001
 20
24.24285351100002
 10
49.95967277170001
 20
24.25003587569998
 10
49.95328238179999
 20
24.2587622124
 10
49.94708299720002
 20
24.26903738799999
 10
49.94109632839999
 20
24.28084074370003
 10
49.93537658920002
 20
24.29418128489999
 10
49.92994733650005
 20
24.3090586369
 10
49.9248233113
 20
24.32546150120001
 10
49.92004650160001
 20
24.34338576120001
 10
49.9156350602
 20
24.36283412519998
 10
49.9116027048
 20
24.3837960352
 10
49.90798427389996
 20
24.40625072859999
 10
49.90479403530002
 20
24.4302092184
 10
49.90204160799999
 20
24.4556573376
 10
49.89975344610002
 20
24.48254048249999
 10
49.89794043240005
 20
24.51086557950001
 10
49.89660626149998
 20
24.5406287086
 10
49.8957644589
 20
24.57176322429999
 10
49.89542065690002
 20
24.6042871002
 10
49.89557346600003
 20
24.63819114469999
 10
49.89622330260002
 20
24.673372196
 10
49.89737295460002
 20
24.70986905039999
 10
49.899013163
 20
24.74765782080002
 10
49.9011237722
 20
24.78654617429999
 10
49.90369264449999
 20
24.82647831989999
 10
49.90671546600004
 20
24.86753235510001
 10
49.91018145690003
 20
24.9097195743
  0
LWPOLYLINE
  5
64684
330
1F
100
AcDbEntity
  8
1
100
AcDbPolyline
 90
        7
 70
     0
 43
0.0
 10
38.1453698011
 20
37.731424879
 10
38.13990570030004
 20
37.73924253269999
 10
38.13876910650001
 20
37.74096446190001
 10
38.13768878499999
 20
37.74269214530003
 10
38.13666473580003
 20
37.74442558269999
 10
38.13569695889999
 20
37.74616477429999
 10
38.13478545440003
 20
37.74790972
  0
LWPOLYLINE
  5
64685
330
1F
100
AcDbEntity
  8
1
100
AcDbPolyline
 90
        9
 70
     0
 43
0.0
 10
38.17384622270001
 20
37.6834239049
 10
38.17083300970001
 20
37.68934048650002
 10
38.16766434160001
 20
37.695281357
 10
38.16434021850003
 20
37.70124651639998
 10
38.16086183889999
 20
37.70723674920001
 10
38.15722800420002
 20
37.71325127080003
 10
38.15343511920003
 20
37.7192877279
 10
38.14948198530004
 20
37.7253453358
 10
38.1453698011
 20
37.731424879
  0
LINE
  5
64686
330
1F
100
AcDbEntity
  8
1
100
AcDbLine
 10
38.13478545440003
 20
37.74790972
 30
0.0
 11
38.11856477260003
 21
37.7801312352
 31
0.0
  0
LWPOLYLINE
  5
64687
330
1F
100
AcDbEntity
  8
1
100
AcDbPolyline
 90
       10
 70
     0
 43
0.0
 10
38.18727384049998
 20
37.6527163602
 10
38.18597582970003
 20
37.6561044828
 10
38.18462946650001
 20
37.65949867979998
 10
38.18323475100001
 20
37.66289895130001
 10
38.18179186210003
 20
37.66630545409999
 10
38.1803006207
 20
37.6697180313
 10
38.17876048990001
 20
37.673136212
 10
38.17717129040003
 20
37.6765598394
 10
38.17553320130003
 20
37.67998907039999
 10
38.17384622270001
 20
37.6834239049
  0
LINE
  5
64688
330
1F
100
AcDbEntity
  8
1
100
AcDbLine
 10
50.09999999999997
 20
29.2511487967
 30
0.0
 11
50.18020843420001
 21
29.15859281639999
 31
0.0
  0
LINE
  5
64689
330
1F
100
AcDbEntity
  8
1
100
AcDbLine
 10
50.79758825489998
 20
37.58419042510002
 30
0.0
 11
50.7716307956
 21
37.6087852194
 31
0.0
  0
LINE
  5
6468A
330
1F
100
AcDbEntity
  8
1
100
AcDbLine
 10
50.7716307956
 20
37.6087852194
 30
0.0
 11
50.74538445330003
 21
37.6339306333
 31
0.0
  0
LINE
  5
6468B
330
1F
100
AcDbEntity
  8
1
100
AcDbLine
 10
50.61705031690002
 20
37.7604543665
 30
0.0
 11
50.55166558089999
 21
37.82369256999999
 31
0.0
  0
LINE
  5
6468C
330
1F
100
AcDbEntity
  8
1
100
AcDbLine
 10
50.74538445330003
 20
37.6339306333
 30
0.0
 11
50.71592428630001
 21
37.66248155460002
 31
0.0
  0
LINE
  5
6468D
330
1F
100
AcDbEntity
  8
1
100
AcDbLine
 10
50.71592428630001
 20
37.66248155460002
 30
0.0
 11
50.69279711249999
 21
37.6851368367
 31
0.0
  0
LINE
  5
6468E
330
1F
100
AcDbEntity
  8
1
100
AcDbLine
 10
50.62377030020002
 20
37.7538656001
 30
0.0
 11
50.61705031690002
 21
37.7604543665
 31
0.0
  0
LINE
  5
6468F
330
1F
100
AcDbEntity
  8
1
100
AcDbLine
 10
50.69279711249999
 20
37.6851368367
 30
0.0
 11
50.66940144950002
 21
37.70826609130001
 31
0.0
  0
LINE
  5
64690
330
1F
100
AcDbEntity
  8
1
100
AcDbLine
 10
50.63048069569996
 20
37.74719804519997
 30
0.0
 11
50.62377030020002
 21
37.7538656001
 31
0.0
  0
LWPOLYLINE
  5
64691
330
1F
100
AcDbEntity
  8
1
100
AcDbPolyline
 90
        3
 70
     0
 43
0.0
 10
50.66940144950002
 20
37.70826609130001
 10
50.64575261339999
 20
37.73186162210001
 10
50.63048069569996
 20
37.74719804519997
  0
LINE
  5
64692
330
1F
100
AcDbEntity
  8
1
100
AcDbLine
 10
0.0
 20
18.320994412
 30
0.0
 11
0.0
 21
26.86856537519998
 31
0.0
  0
ARC
  5
64693
330
1F
100
AcDbEntity
  8
1
100
AcDbCircle
 10
16.53321838950001
 20
-42.01499999999998
 30
0.0
 40
15.0
100
AcDbArc
 50
57.95074978370012
 51
108.7969050350004
  0
ARC
  5
64694
330
1F
100
AcDbEntity
  8
1
100
AcDbCircle
 10
1.699999999999988
 20
-25.81500000000004
 30
0.0
 40
2.0
100
AcDbArc
 50
211.7883306171011
 51
270.0
  0
ARC
  5
64695
330
1F
100
AcDbEntity
  8
1
100
AcDbCircle
 10
48.09999999999996
 20
-33.48101068599999
 30
0.0
 40
2.0
100
AcDbArc
 50
345.9208669498004
 51
0.0
  0
ARC
  5
64696
330
1F
100
AcDbEntity
  8
1
100
AcDbCircle
 10
16.53321838950001
 20
42.01499999999998
 30
0.0
 40
15.0
100
AcDbArc
 50
251.2030949649995
 51
302.0492502162999
  0
ARC
  5
64697
330
1F
100
AcDbEntity
  8
1
100
AcDbCircle
 10
1.699999999999988
 20
25.815
 30
0.0
 40
2.0
100
AcDbArc
 50
90.0
 51
148.2116693828989
  0
LINE
  5
64699
330
1F
100
AcDbEntity
  8
nocut
100
AcDbLine
 10
50.0999999999999
 20
0.0
 30
0.0
 11
50.0999999999999
 21
33.48101068599999
 31
0.0
  0
LINE
  5
6469A
330
1F
100
AcDbEntity
  8
nocut
100
AcDbLine
 10
50.09999999999988
 20
0.0
 30
0.0
 11
0.0
 21
0.0
 31
0.0
  0
LINE
  5
6469B
330
1F
100
AcDbEntity
  8
nocut
100
AcDbLine
 10
-0.0000000000000284
 20
26.86856537530002
 30
0.0
 11
0.0
 21
0.0
 31
0.0
  0
LINE
  5
6469C
330
1F
100
AcDbEntity
  8
nocut
100
AcDbLine
 10
24.49293887279996
 20
29.30111586390001
 30
0.0
 11
33.14675983889993
 21
34.71897206469999
 31
0.0
  0
LINE
  5
6469D
330
1F
100
AcDbEntity
  8
nocut
100
AcDbLine
 10
1.69999999999996
 20
27.81499999999994
 30
0.0
 11
11.69999999999996
 21
27.81499999999994
 31
0.0
  0
LINE
  5
6469E
330
1F
100
AcDbEntity
  8
nocut
100
AcDbLine
 10
1.69999999999996
 20
27.81499999999994
 30
0.0
 11
11.69999999999996
 21
27.81499999999994
 31
0.0
  0
LINE
  5
6469F
330
1F
100
AcDbEntity
  8
nocut
100
AcDbLine
 10
35.79999999999996
 20
35.48101068599999
 30
0.0
 11
48.09999999999991
 21
35.48101068599999
 31
0.0
  0
ARC
  5
646A0
330
1F
100
AcDbEntity
  8
nocut
100
AcDbCircle
 10
16.53321838949995
 20
42.01499999999998
 30
0.0
 40
15.0
100
AcDbArc
 50
251.2030949649995
 51
302.0492502163017
  0
ARC
  5
646A1
330
1F
100
AcDbEntity
  8
nocut
100
AcDbCircle
 10
35.79999999999996
 20
30.48101068599999
 30
0.0
 40
5.0
100
AcDbArc
 50
90.0
 51
122.0492502163017
  0
ARC
  5
646A2
330
1F
100
AcDbEntity
  8
nocut
100
AcDbCircle
 10
1.69999999999996
 20
25.81499999999994
 30
0.0
 40
2.0
100
AcDbArc
 50
90.0
 51
148.2116693829011
  0
ARC
  5
646A3
330
1F
100
AcDbEntity
  8
nocut
100
AcDbCircle
 10
48.09999999999991
 20
33.48101068599999
 30
0.0
 40
2.0
100
AcDbArc
 50
0.0
 51
90.0
  0
LINE
  5
646A4
330
1F
100
AcDbEntity
  8
sk3
100
AcDbLine
 10
47.80000000000001
 20
-18.16499441200001
 30
0.0
 11
47.80000000000001
 21
-19.8505576891
 31
0.0
  0
LINE
  5
646A5
330
1F
100
AcDbEntity
  8
sk3
100
AcDbLine
 10
48.01972895899993
 20
-21.31650747500001
 30
0.0
 11
49.88027104100002
 21
-27.38349252490002
 31
0.0
  0
LINE
  5
646A6
330
1F
100
AcDbEntity
  8
sk3
100
AcDbLine
 10
14.92774653980001
 20
-12.7
 30
0.0
 11
16.0
 21
-13.2
 31
0.0
  0
LINE
  5
646A7
330
1F
100
AcDbEntity
  8
sk3
100
AcDbLine
 10
47.80000000000001
 20
-18.165005588
 30
0.0
 11
47.80000000000001
 21
18.165005588
 31
0.0
  0
LINE
  5
646A8
330
1F
100
AcDbEntity
  8
sk3
100
AcDbLine
 10
46.79999978639997
 20
-10.00000000000001
 30
0.0
 11
46.79999978639997
 21
9.999999999999978
 31
0.0
  0
LINE
  5
646A9
330
1F
100
AcDbEntity
  8
sk3
100
AcDbLine
 10
16.0
 20
-13.2
 30
0.0
 11
26.0
 21
-13.2
 31
0.0
  0
LINE
  5
646AA
330
1F
100
AcDbEntity
  8
sk3
100
AcDbLine
 10
1.199999850899985
 20
-13.10000000000001
 30
0.0
 11
4.0
 21
-13.10000000000001
 31
0.0
  0
LINE
  5
646AB
330
1F
100
AcDbEntity
  8
sk3
100
AcDbLine
 10
4.0
 20
-12.7
 30
0.0
 11
14.92774653980001
 21
-12.7
 31
0.0
  0
LINE
  5
646AC
330
1F
100
AcDbEntity
  8
sk3
100
AcDbLine
 10
34.0
 20
-10.00000000000001
 30
0.0
 11
46.79999978639997
 21
-10.00000000000001
 31
0.0
  0
LINE
  5
646AD
330
1F
100
AcDbEntity
  8
sk3
100
AcDbLine
 10
1.199999851699999
 20
13.10000000000001
 30
0.0
 11
0.0
 21
14.29999983820001
 31
0.0
  0
LINE
  5
646AE
330
1F
100
AcDbEntity
  8
sk3
100
AcDbLine
 10
26.0
 20
-6.850000000000008
 30
0.0
 11
33.4999999195
 21
-6.850000000000008
 31
0.0
  0
LINE
  5
646AF
330
1F
100
AcDbEntity
  8
sk3
100
AcDbLine
 10
33.4999999195
 20
-6.850000000000008
 30
0.0
 11
34.0
 21
-7.350000086299999
 31
0.0
  0
LINE
  5
646B0
330
1F
100
AcDbEntity
  8
sk3
100
AcDbLine
 10
34.0
 20
-10.00000000000001
 30
0.0
 11
34.0
 21
9.999999999999985
 31
0.0
  0
LINE
  5
646B1
330
1F
100
AcDbEntity
  8
sk3
100
AcDbLine
 10
33.4999999195
 20
6.850000000000008
 30
0.0
 11
33.4999999195
 21
-6.850000000000008
 31
0.0
  0
LINE
  5
646B2
330
1F
100
AcDbEntity
  8
sk3
100
AcDbLine
 10
46.79999978639997
 20
9.999999999999978
 30
0.0
 11
47.80000000000001
 21
11.00000023509999
 31
0.0
  0
LINE
  5
646B3
330
1F
100
AcDbEntity
  8
sk3
100
AcDbLine
 10
33.4999999195
 20
6.850000000000008
 30
0.0
 11
34.0
 21
7.350000086399987
 31
0.0
  0
LINE
  5
646B4
330
1F
100
AcDbEntity
  8
sk3
100
AcDbLine
 10
46.79999978639997
 20
-10.00000000000001
 30
0.0
 11
47.80000000000001
 21
-11.000000235
 31
0.0
  0
LINE
  5
646B5
330
1F
100
AcDbEntity
  8
sk3
100
AcDbLine
 10
26.0
 20
-13.2
 30
0.0
 11
26.0
 21
13.19999999999999
 31
0.0
  0
LINE
  5
646B6
330
1F
100
AcDbEntity
  8
sk3
100
AcDbLine
 10
26.0
 20
6.850000000000008
 30
0.0
 11
33.4999999195
 21
6.850000000000008
 31
0.0
  0
LINE
  5
646B7
330
1F
100
AcDbEntity
  8
sk3
100
AcDbLine
 10
34.0
 20
9.999999999999985
 30
0.0
 11
46.79999978639997
 21
9.999999999999978
 31
0.0
  0
LINE
  5
646B8
330
1F
100
AcDbEntity
  8
sk3
100
AcDbLine
 10
4.0
 20
12.7
 30
0.0
 11
14.92774653980001
 21
12.69999999999999
 31
0.0
  0
LINE
  5
646B9
330
1F
100
AcDbEntity
  8
sk3
100
AcDbLine
 10
1.199999850899985
 20
-13.10000000000001
 30
0.0
 11
0.0
 21
-14.29999983720002
 31
0.0
  0
LINE
  5
646BA
330
1F
100
AcDbEntity
  8
sk3
100
AcDbLine
 10
1.199999851699999
 20
13.10000000000001
 30
0.0
 11
4.0
 21
13.10000000000001
 31
0.0
  0
LINE
  5
646BB
330
1F
100
AcDbEntity
  8
sk3
100
AcDbLine
 10
16.0
 20
13.19999999999999
 30
0.0
 11
26.0
 21
13.19999999999999
 31
0.0
  0
LINE
  5
646BC
330
1F
100
AcDbEntity
  8
sk3
100
AcDbLine
 10
16.0
 20
13.19999999999999
 30
0.0
 11
16.0
 21
-13.2
 31
0.0
  0
LINE
  5
646BD
330
1F
100
AcDbEntity
  8
sk3
100
AcDbLine
 10
14.92774653980001
 20
12.69999999999999
 30
0.0
 11
14.92774653980001
 21
-12.7
 31
0.0
  0
LINE
  5
646BE
330
1F
100
AcDbEntity
  8
sk3
100
AcDbLine
 10
14.92774653980001
 20
12.69999999999999
 30
0.0
 11
16.0
 21
13.19999999999999
 31
0.0
  0
LINE
  5
646BF
330
1F
100
AcDbEntity
  8
sk3
100
AcDbLine
 10
4.0
 20
-13.10000000000001
 30
0.0
 11
4.0
 21
-4.762500000000002
 31
0.0
  0
LINE
  5
646C0
330
1F
100
AcDbEntity
  8
sk3
100
AcDbLine
 10
4.0
 20
4.762500000000002
 30
0.0
 11
4.0
 21
13.10000000000001
 31
0.0
  0
LINE
  5
646C1
330
1F
100
AcDbEntity
  8
sk3
100
AcDbLine
 10
1.199999851699999
 20
13.10000000000001
 30
0.0
 11
1.199999999999988
 21
4.762500000000002
 31
0.0
  0
LINE
  5
646C2
330
1F
100
AcDbEntity
  8
sk3
100
AcDbLine
 10
1.199999999999988
 20
-4.762500000000002
 30
0.0
 11
1.199999850899985
 21
-13.10000000000001
 31
0.0
  0
LINE
  5
646C3
330
1F
100
AcDbEntity
  8
sk3
100
AcDbLine
 10
48.01972895899993
 20
21.31650747509998
 30
0.0
 11
49.88027104100002
 21
27.38349252499998
 31
0.0
  0
LINE
  5
646C4
330
1F
100
AcDbEntity
  8
sk3
100
AcDbLine
 10
47.80000000000001
 20
19.85055768919997
 30
0.0
 11
47.80000000000001
 21
18.16499441200001
 31
0.0
  0
ARC
  5
646C5
330
1F
100
AcDbEntity
  8
sk3
100
AcDbCircle
 10
52.80000000000001
 20
-19.8505576891
 30
0.0
 40
5.0
100
AcDbArc
 50
180.0
 51
197.0490309721001
  0
ARC
  5
646C6
330
1F
100
AcDbEntity
  8
sk3
100
AcDbCircle
 10
45.09999999999999
 20
-28.84944231080004
 30
0.0
 40
5.0
100
AcDbArc
 50
0.0
 51
17.04903097210056
  0
ARC
  5
646C7
330
1F
100
AcDbEntity
  8
sk3
100
AcDbCircle
 10
52.80000000000001
 20
19.85055768919997
 30
0.0
 40
5.0
100
AcDbArc
 50
162.9509690278994
 51
180.0
  0
ARC
  5
646C8
330
1F
100
AcDbEntity
  8
sk3
100
AcDbCircle
 10
45.09999999999999
 20
28.84944231089999
 30
0.0
 40
5.0
100
AcDbArc
 50
342.9509690278995
 51
0.0
  0
LINE
  5
646C9
330
1F
100
AcDbEntity
  8
cut
100
AcDbLine
 10
37.76574418879994
 20
34.02462369610001
 30
0.0
 11
38.15310101889997
 21
35.03471324380001
 31
0.0
1001
ACAD
1000
RTMaterial
1005
0
  0
LINE
  5
646CA
330
1F
100
AcDbEntity
  8
cut
100
AcDbLine
 10
38.15310101889997
 20
35.03471324380001
 30
0.0
 11
38.18739084299995
 21
35.27537424740004
 31
0.0
1001
ACAD
1000
RTMaterial
1005
0
  0
LINE
  5
646CB
330
1F
100
AcDbEntity
  8
cut
100
AcDbLine
 10
37.71973250399992
 20
33.80964127520002
 30
0.0
 11
37.76574418869996
 21
34.02462369610001
 31
0.0
1001
ACAD
1000
RTMaterial
1005
0
  0
LINE
  5
646CC
330
1F
100
AcDbEntity
  8
cut
100
AcDbLine
 10
38.12099790579998
 20
37.92558121460004
 30
0.0
 11
38.12099790579998
 21
36.53287276610001
 31
0.0
1001
ACAD
1000
RTMaterial
1005
0
  0
LINE
  5
646CD
330
1F
100
AcDbEntity
  8
cut
100
AcDbLine
 10
38.18993267109994
 20
37.43290738150003
 30
0.0
 11
38.18993267109994
 21
37.3341927454
 31
0.0
1001
ACAD
1000
RTMaterial
1005
0
  0
LINE
  5
646CE
330
1F
100
AcDbEntity
  8
cut
100
AcDbLine
 10
37.70467198759991
 20
32.73649334800004
 30
0.0
 11
37.71973250399992
 21
33.80964127520002
 31
0.0
1001
ACAD
1000
RTMaterial
1005
0
  0
LINE
  5
646CF
330
1F
100
AcDbEntity
  8
cut
100
AcDbLine
 10
38.11621395679992
 20
36.47726259830003
 30
0.0
 11
38.19842474729995
 21
37.43290738150003
 31
0.0
1001
ACAD
1000
RTMaterial
1005
0
  0
LINE
  5
646D0
330
1F
100
AcDbEntity
  8
cut
100
AcDbLine
 10
38.18739084299995
 20
35.27537424740004
 30
0.0
 11
38.11621395679992
 21
36.47726259830003
 31
0.0
1001
ACAD
1000
RTMaterial
1005
0
  0
LINE
  5
646D1
330
1F
100
AcDbEntity
  8
cut
100
AcDbLine
 10
38.19842474729995
 20
37.43290738150003
 30
0.0
 11
38.18993267109994
 21
37.78147346780003
 31
0.0
1001
ACAD
1000
RTMaterial
1005
0
  0
LINE
  5
646D2
330
1F
100
AcDbEntity
  8
cut
100
AcDbLine
 10
37.95609884739997
 20
32.53321216220002
 30
0.0
 11
50.44954720679999
 21
32.93187811680002
 31
0.0
1001
ACAD
1000
RTMaterial
1005
0
  0
LINE
  5
646D3
330
1F
100
AcDbEntity
  8
cut
100
AcDbLine
 10
50.36434638609995
 20
35.5344064391
 30
0.0
 11
50.75795845249996
 21
36.61034717230001
 31
0.0
1001
ACAD
1000
RTMaterial
1005
0
  0
LINE
  5
646D4
330
1F
100
AcDbEntity
  8
cut
100
AcDbLine
 10
38.12099790579998
 20
37.92558121460004
 30
0.0
 11
40.79999999999995
 21
38.1
 31
0.0
1001
ACAD
1000
RTMaterial
1005
0
  0
LINE
  5
646D5
330
1F
100
AcDbEntity
  8
cut
100
AcDbLine
 10
40.79999999999995
 20
38.1
 30
0.0
 11
50.55409871399996
 21
38.1
 31
0.0
1001
ACAD
1000
RTMaterial
1005
0
  0
LINE
  5
646D6
330
1F
100
AcDbEntity
  8
cut
100
AcDbLine
 10
37.95609884739997
 20
32.53321216220002
 30
0.0
 11
37.70467198759991
 21
32.73649334800004
 31
0.0
1001
ACAD
1000
RTMaterial
1005
0
  0
LINE
  5
646D7
330
1F
100
AcDbEntity
  8
cut
100
AcDbLine
 10
50.75795845249996
 20
36.61034717230001
 30
0.0
 11
50.79999999999995
 21
36.8149305725
 31
0.0
1001
ACAD
1000
RTMaterial
1005
0
  0
LINE
  5
646D8
330
1F
100
AcDbEntity
  8
cut
100
AcDbLine
 10
38.18993267109994
 20
37.78147346780003
 30
0.0
 11
38.12099790579998
 21
37.92558121460004
 31
0.0
1001
ACAD
1000
RTMaterial
1005
0
  0
LINE
  5
646D9
330
1F
100
AcDbEntity
  8
cut
100
AcDbLine
 10
50.43505800359992
 20
34.02338923650004
 30
0.0
 11
50.46061365119993
 21
34.2685692398
 31
0.0
1001
ACAD
1000
RTMaterial
1005
0
  0
LINE
  5
646DA
330
1F
100
AcDbEntity
  8
cut
100
AcDbLine
 10
50.33619652029995
 20
35.32202205120004
 30
0.0
 11
50.36434638609995
 21
35.5344064391
 31
0.0
1001
ACAD
1000
RTMaterial
1005
0
  0
LINE
  5
646DB
330
1F
100
AcDbEntity
  8
cut
100
AcDbLine
 10
50.41364945569995
 20
33.25691387190003
 30
0.0
 11
50.40205187459998
 21
33.58213905050005
 31
0.0
1001
ACAD
1000
RTMaterial
1005
0
  0
LINE
  5
646DC
330
1F
100
AcDbEntity
  8
cut
100
AcDbLine
 10
50.36434638609995
 20
35.5344064391
 30
0.0
 11
50.36434638609995
 21
35.13958689420003
 31
0.0
1001
ACAD
1000
RTMaterial
1005
0
  0
LINE
  5
646DD
330
1F
100
AcDbEntity
  8
cut
100
AcDbLine
 10
50.43505800359992
 20
34.02338923650004
 30
0.0
 11
50.43505800359992
 21
33.06307043250001
 31
0.0
1001
ACAD
1000
RTMaterial
1005
0
  0
LINE
  5
646DE
330
1F
100
AcDbEntity
  8
cut
100
AcDbLine
 10
50.7999999999999
 20
36.81493057249969
 30
0.0
 11
50.79999999999995
 21
37.85654972970002
 31
0.0
1001
ACAD
1000
RTMaterial
1005
0
  0
LINE
  5
646DF
330
1F
100
AcDbEntity
  8
cut
100
AcDbLine
 10
50.46061365119993
 20
34.2685692398
 30
0.0
 11
50.47024403069997
 21
34.4532797709
 31
0.0
1001
ACAD
1000
RTMaterial
1005
0
  0
LINE
  5
646E0
330
1F
100
AcDbEntity
  8
cut
100
AcDbLine
 10
50.40205187459998
 20
33.58213905050005
 30
0.0
 11
50.43505800359992
 21
34.02338923650004
 31
0.0
1001
ACAD
1000
RTMaterial
1005
0
  0
LINE
  5
646E1
330
1F
100
AcDbEntity
  8
cut
100
AcDbLine
 10
50.47024403069997
 20
34.4532797709
 30
0.0
 11
50.33619652029995
 21
35.32202205120004
 31
0.0
1001
ACAD
1000
RTMaterial
1005
0
  0
LINE
  5
646E2
330
1F
100
AcDbEntity
  8
cut
100
AcDbLine
 10
50.44954720679999
 20
32.93187811680002
 30
0.0
 11
50.41364945569995
 21
33.25691387190003
 31
0.0
1001
ACAD
1000
RTMaterial
1005
0
  0
LINE
  5
646E3
330
1F
100
AcDbEntity
  8
cut
100
AcDbLine
 10
50.79999999999995
 20
37.85654972970002
 30
0.0
 11
50.55409871399996
 21
38.1
 31
0.0
1001
ACAD
1000
RTMaterial
1005
0
  0
VIEWPORT
  5
6B
102
{ACAD_XDICTIONARY
360
64800
102
}
330
50
100
AcDbEntity
 67
     1
  8
0
100
AcDbViewport
 10
155.3592437148233
 20
160.4455827878762
 30
0.0
 40
349.5854424261001
 41
282.2272140146125
 68
     1
 69
     1
 12
155.3592437148233
 22
160.4455827878762
 13
0.0
 23
0.0
 14
10.0
 24
10.0
 15
10.0
 25
10.0
 16
0.0
 26
0.0
 36
1.0
 17
0.0
 27
0.0
 37
0.0
 42
50.0
 43
0.0
 44
0.0
 45
282.2272140146125
 50
0.0
 51
0.0
 72
  1000
 90
    32864
  1

281
     0
 71
     1
 74
     0
110
0.0
120
0.0
130
0.0
111
1.0
121
0.0
131
0.0
112
0.0
122
1.0
132
0.0
 79
     0
146
0.0
  0
VIEWPORT
  5
6D
102
{ACAD_XDICTIONARY
360
64802
102
}
330
50
100
AcDbEntity
 67
     1
  8
0
100
AcDbViewport
 10
133.3499939441681
 20
101.5999939441681
 30
0.0
 40
213.3599903106689
 41
162.5599903106689
 68
     2
 69
     2
 12
210.0
 22
148.5
 13
0.0
 23
0.0
 14
10.0
 24
10.0
 15
10.0
 25
10.0
 16
0.0
 26
0.0
 36
1.0
 17
0.0
 27
0.0
 37
0.0
 42
50.0
 43
0.0
 44
0.0
 45
324.0677920111345
 50
0.0
 51
0.0
 72
   100
 90
    32864
  1

281
     0
 71
     1
 74
     0
110
0.0
120
0.0
130
0.0
111
1.0
121
0.0
131
0.0
112
0.0
122
1.0
132
0.0
 79
     0
146
0.0
  0
ENDSEC
  0
SECTION
  2
OBJECTS
  0
DICTIONARY
  5
C
330
0
100
AcDbDictionary
281
     1
  3
ACAD_COLOR
350
85
  3
ACAD_GROUP
350
D
  3
ACAD_LAYOUT
350
1A
  3
ACAD_MATERIAL
350
84
  3
ACAD_MLINESTYLE
350
17
  3
ACAD_PLOTSETTINGS
350
19
  3
ACAD_PLOTSTYLENAME
350
E
  3
ACAD_TABLESTYLE
350
A1
  3
ACDBHEADERROUNDTRIPXREC
350
647FB
  3
AcDbVariableDictionary
350
5E
  3
ASE_INDEX_DICTIONARY
350
349E9
  3
DWGPROPS
350
647FA
  0
DICTIONARY
  5
E2
330
2
100
AcDbDictionary
280
     1
281
     1
  3
ACAD_LAYERFILTERS
360
647F8
  3
ACAD_LAYERSTATES
360
3759A
  3
ACLYDICTIONARY
360
647F7
  0
DICTIONARY
  5
31EE
330
1F
100
AcDbDictionary
280
     1
281
     1
  3
ACAD_SORTENTS
360
31EF
  0
DICTIONARY
  5
43668
330
680
100
AcDbDictionary
280
     1
281
     1
  3
ACAD_SORTENTS
360
643F5
  0
DICTIONARY
  5
64804
330
71
100
AcDbDictionary
280
     1
281
     1
  3
ACAD_XREC_ROUNDTRIP
360
64805
  0
DICTIONARY
  5
64806
330
73
100
AcDbDictionary
280
     1
281
     1
  3
ACAD_XREC_ROUNDTRIP
360
64807
  0
DICTIONARY
  5
64800
330
6B
100
AcDbDictionary
280
     1
281
     1
  3
ACAD_XREC_ROUNDTRIP
360
64801
  0
DICTIONARY
  5
64802
330
6D
100
AcDbDictionary
280
     1
281
     1
  3
ACAD_XREC_ROUNDTRIP
360
64803
  0
DICTIONARY
  5
85
102
{ACAD_REACTORS
330
C
102
}
330
C
100
AcDbDictionary
281
     1
  0
DICTIONARY
  5
D
102
{ACAD_REACTORS
330
C
102
}
330
C
100
AcDbDictionary
281
     1
  0
DICTIONARY
  5
1A
102
{ACAD_REACTORS
330
C
102
}
330
C
100
AcDbDictionary
281
     1
  3
\M+1838C\M+18343\M+18341\M+18345\M+183671
350
51
  3
\M+1838C\M+18343\M+18341\M+18345\M+183672
350
56
  3
Model
350
22
  0
DICTIONARY
  5
84
102
{ACAD_REACTORS
330
C
102
}
330
C
100
AcDbDictionary
281
     1
  0
DICTIONARY
  5
17
102
{ACAD_REACTORS
330
C
102
}
330
C
100
AcDbDictionary
281
     1
  3
Standard
350
18
  0
DICTIONARY
  5
19
102
{ACAD_REACTORS
330
C
102
}
330
C
100
AcDbDictionary
281
     1
  0
ACDBDICTIONARYWDFLT
  5
E
102
{ACAD_REACTORS
330
C
102
}
330
C
100
AcDbDictionary
281
     1
  3
Normal
350
F
100
AcDbDictionaryWithDefault
340
F
  0
DICTIONARY
  5
A1
102
{ACAD_REACTORS
330
C
102
}
330
C
100
AcDbDictionary
281
     1
  3
Standard
350
A2
  0
DICTIONARY
  5
647FB
102
{ACAD_REACTORS
330
C
102
}
330
C
100
AcDbDictionary
281
     1
  0
DICTIONARY
  5
5E
102
{ACAD_REACTORS
330
C
102
}
330
C
100
AcDbDictionary
281
     1
  3
CTABLESTYLE
350
B8
  3
DIMASSOC
350
5F
  3
HIDETEXT
350
63
  3
PROJECTNAME
350
31CE
  0
DICTIONARY
  5
349E9
102
{ACAD_REACTORS
330
C
102
}
330
C
100
AcDbDictionary
281
     1
  3
ASEBlockHierarchyIndexRecord
350
349EA
1001
DCO15
1040
1842496176.844
  0
XRECORD
  5
647FA
102
{ACAD_REACTORS
330
C
102
}
330
C
100
AcDbXrecord
280
     1
  1
DWGPROPS COOKIE
  2

  3

  4

  6

  7

  8

  9

300
=
301
=
302
=
303
=
304
=
305
=
306
=
307
=
308
=
309
=
 40
2.377907905092592
 41
2455489.391063368
 42
2458543.755231053
  1

 90
        0
  0
DICTIONARY
  5
647F8
102
{ACAD_REACTORS
330
E2
102
}
330
E2
100
AcDbDictionary
281
     1
  0
DICTIONARY
  5
3759A
102
{ACAD_REACTORS
330
E2
102
}
330
E2
100
AcDbDictionary
281
     1
  0
DICTIONARY
  5
647F7
102
{ACAD_REACTORS
330
E2
102
}
330
E2
100
AcDbDictionary
281
     1
1001
ACAD
1000
<All
  0
SORTENTSTABLE
  5
31EF
102
{ACAD_REACTORS
330
31EE
102
}
330
31EE
100
AcDbSortentsTable
330
1F
331
68C
  5
435D5
  0
SORTENTSTABLE
  5
643F5
102
{ACAD_REACTORS
330
43668
102
}
330
43668
100
AcDbSortentsTable
330
680
  0
XRECORD
  5
64805
102
{ACAD_REACTORS
330
64804
102
}
330
64804
100
AcDbXrecord
280
     1
102
SHADEPLOT
 70
     0
  0
XRECORD
  5
64807
102
{ACAD_REACTORS
330
64806
102
}
330
64806
100
AcDbXrecord
280
     1
102
SHADEPLOT
 70
     0
  0
XRECORD
  5
64801
102
{ACAD_REACTORS
330
64800
102
}
330
64800
100
AcDbXrecord
280
     1
102
SHADEPLOT
 70
     0
  0
XRECORD
  5
64803
102
{ACAD_REACTORS
330
64802
102
}
330
64802
100
AcDbXrecord
280
     1
102
SHADEPLOT
 70
     0
  0
LAYOUT
  5
51
102
{ACAD_XDICTIONARY
360
B2
102
}
102
{ACAD_REACTORS
330
1A
102
}
330
1A
100
AcDbPlotSettings
  1

  2
none_device
  4
Letter_(8.50_x_11.00_Inches)
  6

 40
6.349999904632567
 41
6.349999904632567
 42
6.350006103515625
 43
6.350006103515625
 44
215.8999938964844
 45
279.3999938964844
 46
0.0
 47
0.0
 48
0.0
 49
0.0
140
0.0
141
0.0
142
1.0
143
1.0
 70
   688
 72
     1
 73
     1
 74
     5
  7

 75
    16
147
1.0
148
0.0
149
0.0
100
AcDbLayout
  1
\M+1838C\M+18343\M+18341\M+18345\M+183671
 70
     1
 71
     1
 10
-6.350006103515625
 20
-6.349999904632567
 11
273.0499877929688
 21
209.5499939918518
 12
0.0
 22
0.0
 32
0.0
 14
26.66999878883364
 24
20.31999878883365
 34
0.0
 15
240.0299890995025
 25
182.8799890995025
 35
0.0
146
0.0
 13
0.0
 23
0.0
 33
0.0
 16
1.0
 26
0.0
 36
0.0
 17
0.0
 27
1.0
 37
0.0
 76
     0
330
50
331
6B
  0
LAYOUT
  5
56
102
{ACAD_XDICTIONARY
360
B5
102
}
102
{ACAD_REACTORS
330
1A
102
}
330
1A
100
AcDbPlotSettings
  1

  2
none_device
  4
Letter_(8.50_x_11.00_Inches)
  6

 40
6.349999904632567
 41
6.349999904632567
 42
6.350006103515625
 43
6.350006103515625
 44
215.8999938964844
 45
279.3999938964844
 46
0.0
 47
0.0
 48
0.0
 49
0.0
140
0.0
141
0.0
142
1.0
143
1.0
 70
   688
 72
     1
 73
     1
 74
     5
  7

 75
    16
147
1.0
148
0.0
149
0.0
100
AcDbLayout
  1
\M+1838C\M+18343\M+18341\M+18345\M+183672
 70
     1
 71
     2
 10
-6.350006103515625
 20
-6.349999904632567
 11
273.0499877929688
 21
209.5499939918518
 12
0.0
 22
0.0
 32
0.0
 14
26.66999878883363
 24
20.31999878883363
 34
0.0
 15
240.0299890995026
 25
182.8799890995025
 35
0.0
146
0.0
 13
0.0
 23
0.0
 33
0.0
 16
1.0
 26
0.0
 36
0.0
 17
0.0
 27
1.0
 37
0.0
 76
     0
330
55
331
71
  0
LAYOUT
  5
22
102
{ACAD_XDICTIONARY
360
647FC
102
}
102
{ACAD_REACTORS
330
1A
102
}
330
1A
100
AcDbPlotSettings
  1

  2
none_device
  4
ANSI_A_(8.50_x_11.00_Inches)
  6

 40
6.349999904632567
 41
19.04999923706055
 42
6.350006103515625
 43
19.04998779296875
 44
215.8999938964844
 45
279.3999938964844
 46
0.0
 47
0.0
 48
0.0
 49
0.0
140
0.0
141
0.0
142
1.0
143
78.436453180766
 70
 11952
 72
     0
 73
     1
 74
     0
  7

 75
     0
147
0.0127491741332998
148
0.0
149
0.0
100
AcDbLayout
  1
Model
 70
     1
 71
     0
 10
0.0
 20
0.0
 11
12.0
 21
9.0
 12
0.0
 22
0.0
 32
0.0
 14
0.0
 24
0.0
 34
0.0
 15
0.0
 25
0.0
 35
0.0
146
0.0
 13
0.0
 23
0.0
 33
0.0
 16
1.0
 26
0.0
 36
0.0
 17
0.0
 27
1.0
 37
0.0
 76
     0
330
1F
  0
MLINESTYLE
  5
18
102
{ACAD_REACTORS
330
17
102
}
330
17
100
AcDbMlineStyle
  2
STANDARD
 70
     0
  3

 62
   256
 51
90.0
 52
90.0
 71
     2
 49
0.5
 62
   256
  6
BYLAYER
 49
-0.5
 62
   256
  6
BYLAYER
  0
ACDBPLACEHOLDER
  5
F
102
{ACAD_REACTORS
330
E
102
}
330
E
  0
TABLESTYLE
  5
A2
102
{ACAD_REACTORS
330
A1
102
}
330
A1
100
AcDbTableStyle
  3
Standard
 70
     0
 71
     0
 40
1.5
 41
1.5
280
     0
281
     0
  7
Standard
140
4.5
170
     2
 62
     0
 63
     7
283
     0
274
    -2
284
     1
 64
     0
275
    -2
285
     1
 65
     0
276
    -2
286
     1
 66
     0
277
    -2
287
     1
 67
     0
278
    -2
288
     1
 68
     0
279
    -2
289
     1
 69
     0
  7
Standard
140
6.0
170
     5
 62
     0
 63
     7
283
     0
274
    -2
284
     1
 64
     0
275
    -2
285
     1
 65
     0
276
    -2
286
     1
 66
     0
277
    -2
287
     1
 67
     0
278
    -2
288
     1
 68
     0
279
    -2
289
     1
 69
     0
  7
Standard
140
4.5
170
     5
 62
     0
 63
     7
283
     0
274
    -2
284
     1
 64
     0
275
    -2
285
     1
 65
     0
276
    -2
286
     1
 66
     0
277
    -2
287
     1
 67
     0
278
    -2
288
     1
 68
     0
279
    -2
289
     1
 69
     0
  0
DICTIONARYVAR
  5
B8
102
{ACAD_REACTORS
330
5E
102
}
330
5E
100
DictionaryVariables
280
     0
  1
STANDARD
  0
DICTIONARYVAR
  5
5F
102
{ACAD_REACTORS
330
5E
102
}
330
5E
100
DictionaryVariables
280
     0
  1
2
  0
DICTIONARYVAR
  5
63
102
{ACAD_REACTORS
330
5E
102
}
330
5E
100
DictionaryVariables
280
     0
  1
1
  0
DICTIONARYVAR
  5
31CE
102
{ACAD_REACTORS
330
5E
102
}
330
5E
100
DictionaryVariables
280
     0
  1

  0
XRECORD
  5
349EA
102
{ACAD_REACTORS
330
349E9
102
}
330
349E9
100
AcDbXrecord
280
     1
330
68C
330
431D
330
431E
330
4329
330
4334
330
4335
330
4B09
330
4B0A
330
5153
330
5154
330
515D
330
515E
330
516A
330
516B
330
5177
330
5178
330
85B4
330
85B5
330
8620
330
8621
330
862A
330
862B
330
8637
330
8638
330
8644
330
8645
330
9773
330
9774
330
977D
330
977E
330
978A
330
978B
330
9797
330
9798
330
BD86
330
BD87
330
BD8F
330
BD90
330
BD98
330
BDA0
330
BDA1
330
BDDD
330
BDDE
330
BDE7
330
BDE8
330
BDF4
330
BDF5
330
BE01
330
BE02
330
E473
330
E474
330
E48D
330
E48E
330
E485
330
E47C
330
E47D
330
E4CC
330
E4CD
330
E4D7
330
E4D8
330
1C63B
330
1C63C
330
1C705
330
1C706
330
1C719
330
1C71A
330
1C72E
330
1C72F
330
1C738
330
1C739
330
27043
330
27044
330
2703A
330
2703B
330
2CF2C
330
2CF2D
330
2CF38
330
2CF39
330
2CF42
330
2CF43
330
2CF4F
330
2CF50
330
2CF59
330
2CF5A
330
2FA31
330
2FA32
330
2FA3D
330
2FA3E
330
2FA4A
330
2FA4B
330
2FA54
330
2FA55
330
329D8
330
329D9
330
329E1
330
329E2
330
329EA
330
329EB
330
329F3
330
329F4
330
32E63
330
32E64
330
32E6F
330
32E70
330
32E79
330
32E7A
330
32E88
330
32E89
330
32E92
330
32E93
  0
DICTIONARY
  5
B2
330
51
100
AcDbDictionary
280
     1
281
     1
  3
ACAD_XREC_ROUNDTRIP
360
647FE
  3
ADSK_XREC_LAYOUTTHUMBNAIL
360
B3
  0
DICTIONARY
  5
B5
330
56
100
AcDbDictionary
280
     1
281
     1
  3
ACAD_XREC_ROUNDTRIP
360
647FF
  3
ADSK_XREC_LAYOUTTHUMBNAIL
360
B6
  0
DICTIONARY
  5
647FC
330
22
100
AcDbDictionary
280
     1
281
     1
  3
ACAD_XREC_ROUNDTRIP
360
647FD
  0
XRECORD
  5
647FE
102
{ACAD_REACTORS
330
B2
102
}
330
B2
100
AcDbXrecord
280
     1
102
SHADEPLOT
 70
     0
102
SHADEPLOTRESLEVEL
 70
     2
102
SHADEPLOTCUSTOMDPI
 70
   300
  0
XRECORD
  5
B3
102
{ACAD_REACTORS
330
B2
102
}
330
B2
100
AcDbXrecord
280
     1
310
28000000B40000008B0000000100080000000000BC61000000000000000000000001000000000000FFFFFF0000000000FFFFFF000000000000000000000000000000000000000000000000000000000000000000330000006600000099000000CC000000FF00000000330000333300006633000099330000CC330000FF3300
310
0000660000336600006666000099660000CC660000FF66000000990000339900006699000099990000CC990000FF99000000CC000033CC000066CC000099CC0000CCCC0000FFCC000000FF000033FF000066FF000099FF0000CCFF0000FFFF000000003300330033006600330099003300CC003300FF003300003333003333
310
33006633330099333300CC333300FF33330000663300336633006666330099663300CC663300FF66330000993300339933006699330099993300CC993300FF99330000CC330033CC330066CC330099CC3300CCCC3300FFCC330000FF330033FF330066FF330099FF3300CCFF3300FFFF330000006600330066006600660099
310
006600CC006600FF00660000336600333366006633660099336600CC336600FF33660000666600336666006666660099666600CC666600FF66660000996600339966006699660099996600CC996600FF99660000CC660033CC660066CC660099CC6600CCCC6600FFCC660000FF660033FF660066FF660099FF6600CCFF6600
310
FFFF660000009900330099006600990099009900CC009900FF00990000339900333399006633990099339900CC339900FF33990000669900336699006666990099669900CC669900FF66990000999900339999006699990099999900CC999900FF99990000CC990033CC990066CC990099CC9900CCCC9900FFCC990000FF99
310
0033FF990066FF990099FF9900CCFF9900FFFF99000000CC003300CC006600CC009900CC00CC00CC00FF00CC000033CC003333CC006633CC009933CC00CC33CC00FF33CC000066CC003366CC006666CC009966CC00CC66CC00FF66CC000099CC003399CC006699CC009999CC00CC99CC00FF99CC0000CCCC0033CCCC0066CC
310
CC0099CCCC00CCCCCC00FFCCCC0000FFCC0033FFCC0066FFCC0099FFCC00CCFFCC00FFFFCC000000FF003300FF006600FF009900FF00CC00FF00FF00FF000033FF003333FF006633FF009933FF00CC33FF00FF33FF000066FF003366FF006666FF009966FF00CC66FF00FF66FF000099FF003399FF006699FF009999FF00CC
310
99FF00FF99FF0000CCFF0033CCFF0066CCFF0099CCFF00CCCCFF00FFCCFF0000FFFF0033FFFF0066FFFF0099FFFF00CCFFFF00FFFFFF00000000000D0D0D001A1A1A00282828003535350043434300505050005D5D5D006B6B6B00787878008686860093939300A1A1A100AEAEAE00BBBBBB00C9C9C900D6D6D600E4E4E400
310
F1F1F100FFFFFF0000000000000000000000000000000000000000000000000000000000000000000000000000000000EFEFEFE2E2E2E2E2E2E2E2E2E2E2E2E2E2E2E2E2E2E2E2E2E2E2E2E2E2E2E2E2E2E2E2E2E2E2E2E2E2E2E2E2E2E2E2E2E2E2E2E2E2E2E2E2E2E2E2E2E2E2E2E2E2E2E2E2E2E2E2E2E2E2E2E2E2E2E2
310
E2E2E2E2E2E2E2E2E2E2E2E2E2E2E2E2E2E2E2E2E2E2E2E2E2E2E2E2E2E2E2E2E2E2E2E2E2E2E2E2E2E2E2E2E2E2E2E2E2E2E2E2E2E2E2E2E2E2E2E2E2E2E2E2E2E2E2E2E2E2E2E2E2E2E2E2E2E2E2E2E2E2E2E2E2E2E2E2E2E2E2E2E2E2E2E2E2E2E2E2E2E2E2E2E2E2E2E2E2E2E2E2E2E2E2E2E2E2E2E2E2E2E2E2E2E2E2
310
E2E2E2E2E2E2E2E2E2E2E2E2E2E2E2E2E2E2E2E2E2E2E2E2E2E2E2E2E2E2E2E2E2E2E2E2E2E2E2E2E2E2E2E2E2E2E2E2E2E2E2E2E2E2E2E2E2E2E2E2E2E2E2E2E2E2E2E2E2E2E2E2E2E2E2E2E2E2E2E2E2E2E2E2E2E2E2E2E2E2E2E2E2E2E2E2E2E2E2E2E2E2E2E2E2E2E2E2E2E2E2E2E2E2E2E2E2E2E2E2E2E2E2E2E2E2E2
310
E2E2E2E2E2E2E2E2E2E2E2E2E2E2E2E2E2E2E2E2E2E2E2E2E2E2E2E2F5F5F5F5F5F5F5F5F5F5F5F5F5F5F5F5F5F5F5F5F5F5F5F5F5F5F5F5F5F5F5F5F5F5F5F5F5F5F5F5F5F5F5F5F5F5F5F5F5F5F5F5F5F5F5F5F5F5F5F5F5F5F5F5F5F5F5F5F5F5F5F5F5F5F5F5F5F5F5F5F5F5F5F5F5F5F5F5F5F5F5F5F5F5F5F5F5F5F5
310
F5F5F5F5F5F5F5F5F5F5F5F5F5F5F5F5F5F5F5F5F5F5F5F5F5F5F5F5F5F5F5F5F5F5F5F5F5F5F5F5F5F5F5F5F5F5F5F5F5F5F5F5F5F5F5F5F5F5F5F5F5F5F5F5F5F5F5F5F5F5F5F5F5F5F5F5F5F5F5E2E2F5F5F5F5F5F5F5F5F5F5F5F5F5F5F5F5F5F5F5F5F5F5F5F5F5F5F5F5F5F5F5F5F5F5F5F5F5F5F5F5F5F5F5F5F5F5
310
F5F5F5F5F5F5F5F5F5F5F5F5F5F5F5F5F5F5F5F5F5F5F5F5F5F5F5F5F5F5F5F5F5F5F5F5F5F5F5F5F5F5F5F5F5F5F5F5F5F5F5F5F5F5F5F5F5F5F5F5F5F5F5F5F5F5F5F5F5F5F5F5F5F5F5F5F5F5F5F5F5F5F5F5F5F5F5F5F5F5F5F5F5F5F5F5F5F5F5F5F5F5F5F5F5F5F5F5F5F5F5F5F5F5F5F5F5F5F5F5F5F5F5F5F5F5F5
310
F5F5F5F5F5E2E2F5F5F5F5F5F5F5F5F5F5F5F5F5F5F5F5F5F5F5F5F5F5F5F5F5F5F5F5F5F5F5F5F5F5F5F5F5F5F5F5F5F5F5F5F5F5F5F5F5F5F5F5F5F5F5F5F5F5F5F5F5F5F5F5F5F5F5F5F5F5F5F5F5F5F5F5F5F5F5F5F5F5F5F5F5F5F5F5F5F5F5F5F5F5F5F5F5F5F5F5F5F5F5F5F5F5F5F5F5F5F5F5F5F5F5F5F5F5F5F5
310
F5F5F5F5F5F5F5F5F5F5F5F5F5F5F5F5F5F5F5F5F5F5F5F5F5F5F5F5F5F5F5F5F5F5F5F5F5F5F5F5F5F5F5F5F5F5F5F5F5F5F5F5F5F5F5F5F5F5E2E2F5F5F5F5E2E2E2E2E2E2E2E2F5F5F5F5F5F5F5F5F5E2E2E2E2E2E2E2E2E2E2E2E2E2E2E2F5F5F5F5F5F5F5F5F5E2E2E2E2E2E2E2E2E2E2E2E2E2E2E2E2F5F5F5F5F5F5
310
F5F5E2E2E2E2E2E2E2E2E2E2E2E2E2E2E2E2F5F5F5F5F5F5F5F5E2E2E2E2E2E2E2E2E2E2E2E2E2E2E2E2F5F5F5F5F5F5F5F5E2E2E2E2E2E2E2E2E2E2E2E2E2E2E2E2F5F5F5F5F5F5F5F5F5E2E2E2E2E2E2E2E2E2E2E2E2E2E2E2F5F5F5F5F5F5F5F5F5E2E2E2E2E2E2E2E2F5F5F5F5E2E2F5F5F5F5E2F5F5F5F5F5F5F5F5F5
310
F5F5F5F5F5F5F5F5F5F5F5F5F5F5F5F5F5F5F5F5F5F5F5F5F5F5F5F5F5F5F5F5F5F5F5F5F5F5F5F5F5F5F5F5F5F5F5F5F5F5F5F5F5F5F5F5F5F5F5F5F5F5F5F5F5F5F5F5F5F5F5F5F5F5F5F5F5F5F5F5F5F5F5F5F5F5F5F5F5F5F5F5F5F5F5F5F5F5F5F5F5F5F5F5F5F5F5F5F5F5F5F5F5F5F5F5F5F5F5F5F5F5F5F5F5F5F5
310
F5F5F5F5F5F5F5F5F5F5F5F5F5F5F5F5F5F5F5F5F5F5F5F5F5F5F5F5F5F5F5F5E2F5F5F5F5E2E2F5F5F5F5E2F5F5F5F5F5F5F5F5F5F5F5F5F5F5F5F5F5F5F5F5F5F5F5F5F5F5F5F5F5F5F5F5F5F5F5F5F5F5F5F5F5F5F5F5F5F5F5F5F5F5F5F5F5F5F5F5F5F5F5F5F5F5F5F5F5F5F5F5F5F5F5F5F5F5F5F5F5F5F5F5F5F5F5
310
F5F5F5F5F5F5F5F5F5F5F5F5F5F5F5F5F5F5F5F5F5F5F5F5F5F5F5F5F5F5F5F5F5F5F5F5F5F5F5F5F5F5F5F5F5F5F5F5F5F5F5F5F5F5F5F5F5F5F5F5F5F5F5F5F5F5F5F5F5F5F5F5F5F5F5F5F5F5F5F5F5F5F5F5F5E2F5F5F5F5E2E2F5F5F5F5E2F5F5F5F5F5F5F5F5F5F5F5F5F5F5F5F5F5F5F5F5F5F5F5F5F5F5F5F5F5F5
310
F5F5F5F5F5F5F5F5F5F5F5F5F5F5F5F5F5F5F5F5F5F5F5F5F5F5F5F5F5F5F5F5F5F5F5F5F5F5F5F5F5F5F5F5F5F5F5F5F5F5F5F5F5F5F5F5F5F5F5F5F5F5F5F5F5F5F5F5F5F5F5F5F5F5F5F5F5F5F5F5F5F5F5F5F5F5F5F5F5F5F5F5F5F5F5F5F5F5F5F5F5F5F5F5F5F5F5F5F5F5F5F5F5F5F5F5F5F5F5F5F5F5F5F5F5F5F5
310
F5F5F5F5F5F5F5F5F5F5F5E2F5F5F5F5E2E2F5F5F5F5E2F5F5F5F5F5F5F5F5F5F5F5F5F5F5F5F5F5F5F5F5F5F5F5F5F5F5F5F5F5F5F5F5F5F5F5F5F5F5F5F5F5F5F5F5F5F5F5F5F5F5F5F5F5F5F5F5F5F5F5F5F5F5F5F5F5F5F5F5F5F5F5F5F5F5F5F5F5F5F5F5F5F5F5F5F5F5F5F5F5F5F5F5F5F5F5F5F5F5F5F5F5F5F5F5
310
F5F5F5F5F5F5F5F5F5F5F5F5F5F5F5F5F5F5F5F5F5F5F5F5F5F5F5F5F5F5F5F5F5F5F5F5F5F5F5F5F5F5F5F5F5F5F5F5F5F5F5F5F5F5F5F5F5F5F5F5F5F5F5F5E2F5F5F5F5E2E2F5F5F5F5E2F5F5F5F5F5F5F5F5F5F5F5F5F5F5F5F5F5F5F5F5F5F5F5F5F5F5F5F5F5F5F5F5F5F5F5F5F5F5F5F5F5F5F5F5F5F5F5F5F5F5F5
310
F5F5F5F5F5F5F5F5F5F5F5F5F5F5F5F5F5F5F5F5F5F5F5F5F5F5F5F5F5F5F5F5F5F5F5F5F5F5F5F5F5F5F5F5F5F5F5F5F5F5F5F5F5F5F5F5F5F5F5F5F5F5F5F5F5F5F5F5F5F5F5F5F5F5F5F5F5F5F5F5F5F5F5F5F5F5F5F5F5F5F5F5F5F5F5F5F5F5F5F5F5F5F5F5F5F5F5F5F5F5F5F5F5F5F5F5F5E2F5F5F5F5E2E2F5F5F5
310
F5E2F5F5F5F5F5F5F5F5F5F5F5F5F5F5F5F5F5F5F5F5F5F5F5F5F5F5F5F5F5F5F5F5F5F5F5F5F5F5F5F5F5F5F5F5F5F5F5F5F5F5F5F5F5F5F5F5F5F5F5F5F5F5F5F5F5F5F5F5F5F5F5F5F5F5F5F5F5F5F5F5F5F5F5F5F5F5F5F5F5F5F5F5F5F5F5F5F5F5F5F5F5F5F5F5F5F5F5F5F5F5F5F5F5F5F5F5F5F5F5F5F5F5F5F5F5
310
F5F5F5F5F5F5F5F5F5F5F5F5F5F5F5F5F5F5F5F5F5F5F5F5F5F5F5F5F5F5F5F5F5F5F5F5F5F5F5F5F5F5F5E2F5F5F5F5E2E2F5F5F5F5E2F5F5F5F5F5F5F5F5F5F5F5F5F5F5F5F5F5F5F5F5F5F5F5F5F5F5F5F5F5F5F5F5F5F5F5F5F5F5F5F5F5F5F5F5F5F5F5F5F5F5F5F5F5F5F5F5F5F5F5F5F5F5F5F5F5F5F5F5F5F5F5F5
310
F5F5F5F5F5F5F5F5F5F5F5F5F5F5F5F5F5F5F5F5F5F5F5F5F5F5F5F5F5F5F5F5F5F5F5F5F5F5F5F5F5F5F5F5F5F5F5F5F5F5F5F5F5F5F5F5F5F5F5F5F5F5F5F5F5F5F5F5F5F5F5F5F5F5F5F5F5F5F5F5F5F5F5F5F5F5F5F5F5F5F5F5F5F5F5F5E2F5F5F5F5E2E2F5F5F5F5E2F5F5F5F5F5F5F5F5F5F5F5F5F5F5F5F5F5F5F5
310
F5F5F5F5F5F5F5F5F5F5F5F5F5F5F5F5F5F5F5F5F5F5F5F5F5F5F5F5F5F5F5F5F5F5F5F5F5F5F5F5F5F5F5F5F5F5F5F5F5F5F5F5F5F5F5F5F5F5F5F5F5F5F5F5F5F5F5F5F5F5F5F5F5F5F5F5F5F5F5F5F5F5F5F5F5F5F5F5F5F5F5F5F5F5F5F5F5F5F5F5F5F5F5F5F5F5F5F5F5F5F5F5F5F5F5F5F5F5F5F5F5F5F5F5F5F5F5
310
F5F5F5F5F5F5F5F5F5F5F5F5F5F5F5F5F5F5F5F5F5F5E2F5F5F5F5E2E2F5F5F5F5F5F5F5F5F5F5F5F5F5F5F5F5F5F5F5F5F5F5F5F5F5F5F5F5F5F5F5F5F5F5F5F5F5F5F5F5F5F5F5F5F5F5F5F5F5F5F5F5F5F5F5F5F5F5F5F5F5F5F5F5F5F5F5F5F5F5F5F5F5F5F5F5F5F5F5F5F5F5F5F5F5F5F5F5F5F5F5F5F5F5F5F5F5F5
310
F5F5F5F5F5F5F5F5F5F5F5F5F5F5F5F5F5F5F5F5F5F5F5F5F5F5F5F5F5F5F5F5F5F5F5F5F5F5F5F5F5F5F5F5F5F5F5F5F5F5F5F5F5F5F5F5F5F5F5F5F5F5F5F5F5F5F5F5F5F5F5F5F5F5F5F5F5F5F5F5E2E2F5F5F5F5F5F5F5F5F5F5F5F5F5F5F5F5F5F5F5F5F5F5F5F5F5F5F5F5F5F5F5F5F5F5F5F5F5F5F5F5F5F5F5F5F5
310
F5F5F5F5F5F5F5F5F5F5F5F5F5F5F5F5F5F5F5F5F5F5F5F5F5F5F5F5F5F5F5F5F5F5F5F5F5F5F5F5F5F5F5F5F5F5F5F5F5F5F5F5F5F5F5F5F5F5F5F5F5F5F5F5F5F5F5F5F5F5F5F5F5F5F5F5F5F5F5F5F5F5F5F5F5F5F5F5F5F5F5F5F5F5F5F5F5F5F5F5F5F5F5F5F5F5F5F5F5F5F5F5F5F5F5F5F5F5F5F5F5F5F5F5F5F5F5
310
F5F5F5F5F5F5E2E2F5F5F5F5F5F5F5F5F5F5F5F5F5F5F5F5F5F5F5F5F5F5F5F5F5F5F5F5F5F5F5F5F5F5F5F5F5F5F5F5F5F5F5F5F5F5F5F5F5F5F5F5F5F5F5F5F5F5F5F5F5F5F5F5F5F5F5F5F5F5F5F5F5F5F5F5F5F5F5F5F5F5F5F5F5F5F5F5F5F5F5F5F5F5F5F5F5F5F5F5F5F5F5F5F5F5F5F5F5F5F5F5F5F5F5F5F5F5F5
310
F5F5F5F5F5F5F5F5F5F5F5F5F5F5F5F5F5F5F5F5F5F5F5F5F5F5F5F5F5F5F5F5F5F5F5F5F5F5F5F5F5F5F5F5F5F5F5F5F5F5F5F5F5F5F5F5F5F5F5E2E2F5F5F5F5F5F5F5F5F5F5F5F5F5F5F5F5F5F5F5F5F5F5F5F5F5F5F5F5F5F5F5F5F5F5F5F5F5F5F5F5F5F5F5F5F5F5F5F5F5F5F5F5F5F5F5F5F5F5F5F5F5F5F5F5F5F5
310
F5F5F5F5F5F5F5F5F5F5F5F5F5F5F5F5F5F5F5F5F5F5F5F5F5F5F5F5F5F5F5F5F5F5F5F5F5F5F5F5F5F5F5F5F5F5F5F5F5F5F5F5F5F5F5F5F5F5F5F5F5F5F5F5F5F5F5F5F5F5F5F5F5F5F5F5F5F5F5F5F5F5F5F5F5F5F5F5F5F5F5F5F5F5F5F5F5F5F5F5F5F5F5F5F5F5F5F5F5F5F5F5E2E2F5F5F5F5F5F5F5F5F5F5F5F5F5
310
F5F5F5F5F5F5F5F5E2E2E2E2E2E2E2E2E2E2E2E2E2E2E2E2E2E2E2E2E2E2E2E2E2E2E2E2E2E2E2E2E2E2E2E2E2E2E2E2E2E2E2E2E2E2E2E2E2E2E2E2E2E2E2E2E2E2E2E2E2E2E2E2E2E2E2E2E2E2E2E2E2E2E2E2E2E2E2E2E2E2E2E2E2E2E2E2E2E2E2E2E2E2E2E2E2E2E2E2E2E2E2E2E2E2E2E2E2E2E2E2E2E2E2E2E2E2E2
310
E2E2E2E2E2E2E2E2E2E2E2E2E2E2E2E2E2F5F5F5F5F5F5F5F5F5F5F5F5F5F5F5F5F5F5F5F5F5E2E2F5F5F5F5F5F5F5F5F5F5F5F5F5F5F5F5F5F5F5F5F5E22D2D2D2DF5F5F5F5E2F5F5F5F5F5F5F52DF5F5F5F5F5F5F5F5F5F5F5F5F5F5F5F5F5F5E2F5F5F5F5F5F5F5F5F5F5F5F5F5F5F5F5F5F5F5F5F5F5F5F5F5F5F5F5F5
310
F5F5F5F5F5F5F5F5F5F5F5F5F5F5F5F5F5F5F5F5F5F5F5F5F5F5F5F5F5F5F5F5F5F5F5F5F5F5F5F5F5F5F5F5F5F5F5F5F5F5F5F5F5F5F5F5F5F5F5F5F5F5F5F5F5F5F5F5F5E2F5F5F5F5F5F5F5F5F5F5F5F5F5F5F5F5F5F5F5F5F5E2E2F5F5F5F5F5F5F5F5F5F5F5F5F5F5F5F5F5F5F5F5F5E2DCF5F52DF5F5F5F5E2F5F5F5
310
F5F5F5F52DF5F5F5F5F5F5F5F5F5F5F5F5F5F5F5F5F5F5E2F5F5F5F5F5F5F5F5F5F5F5F5F5F5F5F5F5F5F5F5F5F5F5F5F5F5F5F5F5F5F5F5F5F5F5F5F5F5F5F5F5F5F5F5F5F5F5F5F5F5F5F5F5F5F5F5F5F5F5F5F5F5F5F5F5F5F5F5F5F5F5F5F5F5F5F5F5F5F5F5F5F5F5F5F5F5F5F5F5F5F5F5F5F5F5F5F5F5E2F5F5F5F5
310
F5F5F5F5F5F5F5F5F5F5F5F5F5F5F5F5F5E2E2F5F5F5F5F5F5F5F5F5F5F5F5F5F5F5F5F5F5F5F5F5E2DCF5F52DF5F5F5F5E2F5F5F5F5F5F5F52DF5F5F5F5F5F5F5F5F5F5F5F5F5F5F5F5F5F5E2E2F5F5F5F5F5F5F5F5F5F5F5F5F5F5F5F5F5F5F5F5F5F5F5F5F5F5F5F5F5F5F5F5F5F5F5F5F5F5F5F5F5F5F5F5F5F5F5F5F5
310
F5F5F5F5F5F5F5F5F5F5F5F5F5F5F5F5F5F5F5F5F5F5F5F5F5F5F5F5F5F5F5F5F5F5F5F5F5F5F5F5F5F5F5F5F5F5F5F5E2F5F5F5F5F5F5F5F5F5F5F5F5F5F5F5F5F5F5F5F5F5E2E2F5F5F5F5F5F5F5F5F5F5F5F5F5F5F5F5F5F5F5F5F5E2BEF5F52D2D2D2D2D2D2D2D2D2D2D2D2D2DE2E2E2E2E2E2E2E2E2E2E2E2E2E2E2E2
310
E2E2E2E2F5F5F5F5F5F5F5F5F5F5F5F5F5F5F5F5F5F5F5F5F5F5F5F5F5F5F5F5F5F5F5F5F5F5F5F5F5F5F5F5F5F5F5F5F5F5F5F5F5F5F5F5F5F5F5F5F5F5F5F5F5F5F5F5F5F5F5F5F5F5F5F5F5F5F5F5F5F5F5F5F5F5F5F5F5F5F5F5F5F5F5F5F5F5F5F5F5E2F5F5F5F5F5F5F5F5F5F5F5F5F5F5F5F5F5F5F5F5F5E2E2F5F5
310
F5F5E2F5F5F5F5F5F5F5F5F5F5F5F5F5F5F5F5E2DCF5F5F5F5F5F5F5E2F5F5F5F5F5F5F5E2F5F5F5F5F5F5F5F5F5F5F5F5F5F5F5F5F5F5F5F5F5F5F5F5F5F5F5F5F5F5F5F5F5F5F5F5F5F5F5F5F5F5F5F5F5F5F5F5F5F5F5F5F5F5F5F5F5F5F5F5F5F5F5F5F5F5F5F5F5F5F5F5F5F5F5F5F5F5F5F5F5F5F5F5F5F5F5F5F5F5
310
F5F5F5F5F5F5F5F5F5F5F5F5F5F5F5F5F5F5F5F5F5F5F5F5F5F5F5E2F5F5F5F5F5F5F5F5F5F5F5F5F5F5F5F5E2F5F5F5F5E2E2F5F5F5F5E2F5F5F5F5F5F5F5F5F5F5F5F5F5F5F5F5E2F5F5F5F5F5F5F5F5E2F5F5F5F5F5F5F5E2F5F5F5F5F5F5F5F5F5F5F5F5F5F5F5F5F5F5F5F5F5F5F5F5F5F5F5F5F5F5F5F5F5F5F5F5F5
310
F5F5F5F5F5F5F5F5F5F5F5F5F5F5F5F5F5F5F5F5F5F5F5F5F5F5F5F5F5F5F5F5F5F5F5F5F5F5F5F5F5F5F5F5F5F5F5F5F5F5F5F5F5F5F5F5F5F5F5F5F5F5F5F5F5F5F5F5F5F5F5F5F5F5F5F5F5F5F5F5E2F5F5F5F5F5F5F5F5F5F5F5F5F5F5F5F5E2F5F5F5F5E2E2F5F5F5F5E2F5F5F5F5F5F5F5F5F5F5F5F5F5F5F5F5E2E2
310
E2E2E2E2E2E2E2E2F5F5F5F5F5F5F5E2F5F5F5F5F5F5F5F5F5F5F5F5F5F5F5F5F5F5F5F5F5F5F5F5F5F5F5F5F5F5F5F5F5F5F5F5F5F5F5F5F5F5F5F5F5F5F5F5F5F5F5F5F5F5F5F5F5F5F5F5F5F5F5F5F5F5F5F5F5F5F5F5F5F5F5F5F5F5F5F5F5F5F5F5F5F5F5F5F5F5F5F5F5F5F5F5F5F5F5F5F5F5F5F5F5F5F5F5F5F5F5
310
F5F5F5F5F5F5E2F5F5F5F5F5F5F5F5F5F5F5F5F5F5F5F5E2F5F5F5F5E2E2F5F5F5F5E2F5F5F5F5F5F5F5F5F5F5F5F5F5F5F5F5E2E2E2E2F5F5F5F5F5F5F5F5F5F5F5F5F5E2F5F5F5F5F5F5F5F5F5F5F5F5F5F5F5F5F5F5F5F5F5F5F5F5F5F5F5F5F5F5F5F5F5F5F5F5F5F5F5F5F5F5F5F5F5F5F5F5F5F5F5F5F5F5F5F5F5F5
310
F5F5F5F5F5F5F5F5F5F5F5F5F5F5F5F5F5F5F5F5F5F5F5F5F5F5F5F5F5F5F5F5F5F5F5F5F5F5F5F5F5F5F5F5F5F5F5F5F5F5F5F5F5F5F5F5F5F5F5E2F5F5F5F5F5F5F5F5F5F5F5F5F5F5F5F5E2F5F5F5F5E2E2F5F5F5F5E2F5F5F5F5F5F5F5F5F5F5F5F5F5F5F5F5E2E2E2E2F5F5F5F5F5F5F5F5F5F5F5F5F5E2F5F5F5F5F5
310
F5F5F5F5F5F5F5F5F5F5F5F5F5F5F5F5F5F5F5F5F5F5F5F5F5F5F5F5F5F5F5F5F5F5F5F5F5F5F5F5F5F5F5F5F5F5F5F5F5F5F5F5F5F5F5F5F5F5F5F5F5F5F5F5F5F5F5F5F5F5F5F5F5F5F5F5F5F5F5F5F5F5F5F5F5F5F5F5F5F5F5F5F5F5F5F5F5F5F5F5F5F5F5F5F5F5F5F5F5F5F5F5E2F5F5F5F5F5F5F5F5F5F5F5F5F5F5
310
F5F5E2F5F5F5F5E2E2F5F5F5F5E2F5F5F5F5F5F5F5F5F5F5F5F5F5F5F5F5E2F5F5F5F5F5F5F5F5F5F5F5F5F5F5F5F5E2F5F5F5F5F5F5F5F5F5F5F5F5F5F5F5F5F5F5F5F5F5F5F5F5F5F5F5F5F5F5F5F5F5F5F5F5F5F5F5F5F5F5F5F5F5F5F5F5F5F5F5F5F5F5F5F5F5F5F5F5F5F5F5F5F5F5F5F5F5F5F5F5F5F5F5F5F5F5F5
310
F5F5F5F5F5F5F5F5F5F5F5F5F5F5F5F5F5F5F5F5F5F5F5F5F5F5F5F5F5F5F5F5F5F5F5F5F5F5E2F5F5F5F5F5F5F5F5F5F5F5F5F5F5F5F5E2F5F5F5F5E2E2F5F5F5F5E2F5F5F5F5F5F5F5F5F5F5F5F5F5F5F5F5E2E2E2E2E2E2E2E2E2E2E2E2E2E2E2E2E2E2F5F5F5F5F5F5F5F5F5F5F5F5F5F5F5F5F5F5F5F5F5F5F5F5F5F5
310
F5F5F5F5F5F5F5F5F5F5F5F5F5F5F5F5F5F5F5F5F5F5F5F5F5F5F5F5F5F5F5F5F5F5F5F5F5F5F5F5F5F5F5F5F5F5F5F5F5F5F5F5F5F5F5F5F5F5F5F5F5F5F5F5F5F5F5F5F5F5F5F5F5F5F5F5F5F5F5F5F5F5F5F5F5F5F5F5F5F5F5E2F5F5F5F5F5F5F5F5F5F5F5F5F5F5F5F5E2F5F5F5F5E2E2F5F5F5F5E2F5F5F5F5F5F5F5
310
F5F5F5F5F5F5F5F5F5E2E2E2F5F5F5F5F5F5F5F5F5F5F5F5F5F5F5F5F5F5F5F5F5F5F5F5F5F5F5F5F5F5F5F5F5F5F5F5F5F5F5F5F5F5F5F5F5F5F5F5F5F5F5F5F5F5F5F5F5F5F5F5F5F5F5F5F5F5F5F5F5F5F5F5F5F5F5F5F5F5F5F5F5F5F5F5F5F5F5F5F5F5F5F5F5F5F5F5F5F5F5F5F5F5F5F5F5F5F5F5F5F5F5F5F5F5F5
310
F5F5F5F5F5F5F5F5F5F5F5F5F5F5F5F5F5E2F5F5F5F5F5F5F5F5F5F5F5F5F5F5F5F5E2F5F5F5F5E2E2F5F5F5F5E2F5F5F5F5F5F5F5F5F5F5F5F5F5F5F5F5E2E2E2F5F5F5F5F5F5F5F5F5F5F5F5F5F5F5F5F5F5F5F5F5F5F5F5F5F5F5F5F5F5F5F5F5F5F5F5F5F5F5F5F5F5F5F5F5F5F5F5F5F5F5F5F5F5F5F5F5F5F5F5F5F5
310
F5F5F5F5F5F5F5F5F5F5F5F5F5F5F5F5F5F5F5F5F5F5F5F5F5F5F5F5F5F5F5F5F5F5F5F5F5F5F5F5F5F5F5F5F5F5F5F5F5F5F5F5F5F5F5F5F5F5F5F5F5F5F5F5F5F5F5F5F5F5E2F5F5F5F5F5F5F5F5F5F5F5F5F5F5F5F5E2F5F5F5F5E2E2F5F5F5F5E2F5F5F5F5F5F5F5F5F5F5F5F5F5F5F5F5E2F5F5F5F5F5F5F5F5F5F5F5
310
F5F5F5F5F5F5F5F5F5F5F5F5F5F5F5F5F5F5F5F5F5F5F5F5F5F5F5F5F5F5F5F5F5F5F5F5F5F5F5F5F5F5F5F5F5F5F5F5F5F5F5F5F5F5F5F5F5F5F5F5F5F5F5F5F5F5F5F5F5F5F5F5F5F5F5F5F5F5F5F5F5F5F5F5F5F5F5F5F5F5F5F5F5F5F5F5F5F5F5F5F5F5F5F5F5F5F5F5F5F5F5F5F5F5F5F5F5F5F5F5F5F5F5E2F5F5F5
310
F5F5F5F5F5F5F5F5F5F5F5F5F5E2F5F5F5F5E2E2F5F5F5F5E2F5F5F5F5F5F5F5F5F5F5F5F5F5F5F5F5E20F0F0F0F0F0F0F0F0F0F0FF5F5F5F5F5F5F5F5F5F5F5F5F5F5F5F5F5F5F5F5F5F5F5F5F5F5F5F5F5F5F5F5F5F5F5F5F5F5F5F5F5F5F5F5F5F5F5F5F5F5F5F5F5F5F5F5F5F5F5F5F5F5F5F5F5F5F5F5F5F5F5F5F5F5
310
F5F5F5F5F5F5F5F5F5F5F5F5F5F5F5F5F5F5F5F5F5F5F5F5F5F5F5F5F5F5F5F5F5F5F5F5F5F5F5F5F5F5F5F5F5F5F5F5F5E2F5F5F5F5F5F5F5F5F5F5F5F5F5F5F5F5E2F5F5F5F5E2E2F5F5F5F5E2F5F5F5F5F5F5F5F5F5F5F5F5F5F5F5F5E20F0F0F0F0F0F0F0F0F0FF5F5F5F5F5F5F5F5F5F5F5F5F5F5F5F5F5F5F5F5F5F5
310
F5F5F5F5F5F5F5F5F5F5F5F5F5F5F5F5F5F5F5F5F5F5F5F5F5F5F5F5F5F5F5F5F5F5F5F5F5F5F5F5F5F5F5F5F5F5F5F5F5F5F5F5F5F5F5F5F5F5F5F5F5F5F5F5F5F5F5F5F5F5F5F5F5F5F5F5F5F5F5F5F5F5F5F5F5F5F5F5F5F5F5F5F5F5F5F5F5F5F5F5F5F5E2F5F5F5F5F5F5F5F5F5F5F5F5F5F5F5F5E2F5F5F5F5E2E2F5
310
F5F5F5E2F5F5F5F5F5F5F5F5F5F5F5F5F5F5F5F5E2F5F5F5F5F5F5F5F5F5F5F5F5F5F5F5F5F5F5F5F5F5F5F5F5F5F5F5F5F5F5F5F5F5F5F5F5F5F5F5F5F5F5F5F5F5F5F5F5F5F5F5F5F5F5F5F5F5F5F5F5F5F5F5F5F5F5F5F5F5F5F5F5F5F5F5F5F5F5F5F5F5F5F5F5F5F5F5F5F5F5F5F5F5F5F5F5F5F5F5F5F5F5F5F5F5F5
310
F5F5F5F5F5F5F5F5F5F5F5F5F5F5F5F5F5F5F5F5F5F5F5F5F5F5F5F5E2F5F5F5F5F5F5F5F5F5F5F5F5F5F5F5F5E2F5F5F5F5E2E2F5F5F5F5E2F5F5F5F5F5F5F5F5F5F5F5F5F5F5F5F5E2F5F5F5F5F5F5F5F5F5F5F5F5F5F5F5F5F5F5F5F5F5F5F5F5F5F5F5F5F5F5F5F5F5F5F5F5F5F5F5F5F5F5F5F5F5F5F5F5F5F5F5F5F5
310
F5F5F5F5F5F5F5F5F5F5F5F5F5F5F5F5F5F5F5F5F5F5F5F5F5F5F5F5F5F5F5F5F5F5F5F5F5F5F5F5F5F5F5F5F5F5F5F5F5F5F5F5F5F5F5F5F5F5F5F5F5F5F5F5F5F5F5F5F5F5F5F5F5F5F5F5F5F5F5F5F5E2F5F5F5F5F5F5F5F5F5F5F5F5F5F5F5F5E2F5F5F5F5E2E2F5F5F5F5E2F5F5F5F5F5F5F5F5F5F5F5F5F5F5F5F5E2
310
F5F5F5F5F5F5F5F5F5F5F5F5F5F5F5F5F5F5F5F5F5F5F5F5F5F5F5F5F5F5F5F5F5F5F5F5F5F5F5F5F5F5F5F5F5F5F5F5F5F5F5F5F5F5F5F5F5F5F5F5F5F5F5F5F5F5F5F5F5F5F5F5F5F5F5F5F5F5F5F5F5F5F5F5F5F5F5F5F5F5F5F5F5F5F5F5F5F5F5F5F5F5F5F5F5F5F5F5F5F5F5F5F5F5F5F5F5F5F5F5F5F5F5F5F5F5F5
310
F5F5F5F5F5F5F5E2F5F5F5F5F5F5F5F5F5F5F5F5F5F5F5F5E2F5F5F5F5E2E2F5F5F5F5E2F5F5F5F5F5F5F5F5F5F5F5F5F5F5F5F5E2F5F5F5F5F5F5F5F5F5F5F5F5F5F5F5F5F5F5F5F5F5F5F5F5F5F5F5F5F5F5F5F5F5F5F5F5F5F5F5F5F5F5F5F5F5F5F5F5F5F5F5F5F5F5F5F5F5F5F5F5F5F5F5F5F5F5F5F5F5F5F5F5F5F5
310
F5F5F5F5F5F5F5F5F5F5F5F5F5F5F5F5F5F5F5F5F5F5F5F5F5F5F5F5F5F5F5F5F5F5F5F5F5F5F5F5F5F5F5F5F5F5F5F5F5F5F5F5F5F5F5F5F5F5F5F5E2F5F5F5F5F5F5F5F5F5F5F5F5F5F5F5F5E2F5F5F5F5E2E2F5F5F5F5F5F5F5F5F5F5F5F5F5F5F5F5F5F5F5F5F5E2F5F5F5F5F5F5F5F5F5F5F5F5F5F5F5F5F5F5F5F5F5
310
F5F5F5F5F5F5F5F5F5F5F5F5F5F5F5F5F5F5F5F5F5F5F5F5F5F5F5F5F5F5F5F5F5F5F5F5F5F5F5F5F5F5F5F5F5F5F5F5F5F5F5F5F5F5F5F5F5F5F5F5F5F5F5F5F5F5F5F5F5F5F5F5F5F5F5F5F5F5F5F5F5F5F5F5F5F5F5F5F5F5F5F5F5F5F5F5F5F5F5F5F5F5F5F5F5F5F5F5F5F5F5F5F5E2F5F5F5F5F5F5F5F5F5F5F5F5F5
310
F5F5F5F5F5F5F5F5E2E2F5F5F5F5F5F5F5F5F5F5F5F5F5F5F5F5F5F5F5F5F5E2F5F5F5F5F5F5F5F5F5F5F5F5F5F5F5F5F5F5F5F5F5F5F5F5F5F5F5F5F5F5F5F5F5F5F5F5F5F5F5F5F5F5F5F5F5F5F5F5F5F5F5F5F5F5F5F5F5F5F5F5F5F5F5F5F5F5F5F5F5F5F5F5F5F5F5F5F5F5F5F5F5F5F5F5F5F5F5F5F5F5F5F5F5F5F5
310
F5F5F5F5F5F5F5F5F5F5F5F5F5F5F5F5F5F5F5F5F5F5F5F5F5F5F5F5F5F5F5F5F5F5F5F5F5F5F5E2F5F5F5F5F5F5F5F5F5F5F5F5F5F5F5F5F5F5F5F5F5E2E2F5F5F5F5F5F5F5F5F5F5F5F5F5F5F5F5F5F5F5F5F5E2F5F5F5F5F5F5F5F5F5F5F5F5F5F5F5F5F5F5F5F5F5F5F5F5F5F5F5F5F5F5F5F5F5F5F5F5F5F5F5F5F5F5
310
F5F5F5F5F5F5F5F5F5F5F5F5F5F5F5F5F5F5F5F5F5F5F5F5F5F5F5F5F5F5F5F5F5F5F5F5F5F5F5F5F5F5F5F5F5F5F5F5F5F5F5F5F5F5F5F5F5F5F5F5F5F5F5F5F5F5F5F5F5F5F5F5F5F5F5F5F5F5F5F5F5F5F5F5F5F5F5F5F5F5F5F5E2F5F5F5F5F5F5F5F5F5F5F5F5F5F5F5F5F5F5F5F5F5E2E2F5F5F5F5F5F5F5F5F5F5F5
310
F5F5F5F5F5F5F5F5F5F5E2F5F5F5F5F5F5F5F5F5F5F5F5F5F5F5F5F5F5F5F5F5F5F5F5F5F5F5F5F5F5F5F5F5F5F5F5F5F5F5F5F5F5F5F5F5F5F5F5F5F5F5F5F5F5F5F5F5F5F5F5F5F5F5F5F5F5F5F5F5F5F5F5F5F5F5F5F5F5F5F5F5F5F5F5F5F5F5F5F5F5F5F5F5F5F5F5F5F5F5F5F5F5F5F5F5F5F5F5F5F5F5F5F5F5F5F5
310
F5F5F5F5F5F5F5F5F5F5F5F5F5F5F5F5F5F5E2F5F5F5F5F5F5F5F5F5F5F5F5F5F5F5F5F5F5F5F5F5E2E2F5F5F5F5F5F5F5F5F5F5F5F5F5F5F5F5F5F5F5F5F5E2F5F5F5F5F5F5F5F5F5F5F5F5F5F5F5F5F5F5F5F5F5F5F5F5F5F5F5F5F5F5F5F5F5F5F5F5F5F5F5F5F5F5F5F5F5F5F5F5F5F5F5F5F5F5F5F5F5F5F5F5F5F5F5
310
F5F5F5F5F5F5F5F5F5F5F5F5F5F5F5F5F5F5F5F5F5F5F5F5F5F5F5F5F5F5F5F5F5F5F5F5F5F5F5F5F5F5F5F5F5F5F5F5F5F5F5F5F5F5F5F5F5F5F5F5F5F5F5F5F5F5F5F5F5F5F5E2F5F5F5F5F5F5F5F5F5F5F5F5F5F5F5F5F5F5F5F5F5E2E2F5F5F5F5F5F5F5F5F5F5F5F5F5F5F5F5F5F5F5F5F5E2F5F5F5F5F5F5F5F5F5F5
310
F5F5F5F5F5F5F5F5F5F5F5F5F5F5F5F5F5F5F5F5F5F5F5F5F5F5F5F5F5F5F5F5F5F5F5F5F5F5F5F5F5F5F5F5F5F5F5F5F5F5F5F5F5F5F5F5F5F5F5F5F5F5F5F5F5F5F5F5F5F5F5F5F5F5F5F5F5F5F5F5F5F5F5F5F5F5F5F5F5F5F5F5F5F5F5F5F5F5F5F5F5F5F5F5F5F5F5F5F5F5F5F5F5F5F5F5F5F5F5F5F5F5F5F5E2F5F5
310
F5F5F5F5F5F5F5F5F5F5F5F5F5F5F5F5F5F5F5E2E2F5F5F5F5F5F5F5F5F5F5F5F5F5F5F5F5F5F5F5F5F5E2F5F5F5F5F5F5F5F5F5F5F5F5F5F5F5F5F5F5F5F5F5F5F5F5F5F5F5F5F5F5F5F5F5F5F5F5F5F5F5F5F5F5F5F5F5F5F5F5F5F5F5F5F5F5F5F5F5F5F5F5F5F5F5F5F5F5F5F5F5F5F5F5F5F5F5F5F5F5F5F5F5F5F5F5
310
F5F5F5F5F5F5F5F5F5F5F5F5F5F5F5F5F5F5F5F5F5F5F5F5F5F5F5F5F5F5F5F5F5F5F5F5F5F5F5F5F5F5F5F5F5F5F5F5F5F5E2F5F5F5F5F5F5F5F5F5F5F5F5F5F5F5F5F5F5F5F5F5E2E2F5F5F5F5F5F5F5F5F5F5F5F5F5F5F5F5F5F5F5F5F5E2F5F5F5F5F5F5F5F5F5F5F5F5F5F5F5F5F5F5F5F5F5F5F5F5F5F5F5F5F5F5F5
310
F5F5F5F5F5F5F5F5F5F5F5F5F5F5F5F5F5F5F5F5F5F5F5F5F5F5F5F5F5F5F5F5F5F5F5F5F5F5F5F5F5F5F5F5F5F5F5F5F5F5F5F5F5F5F5F5F5F5F5F5F5F5F5F5F5F5F5F5F5F5F5F5F5F5F5F5F5F5F5F5F5F5F5F5F5F5F5F5F5F5F5F5F5F5F5F5F5F5F5F5F5F5F5E2F5F5F5F5F5F5F5F5F5F5F5F5F5F5F5F5F5F5F5F5F5E2E2
310
F5F5F5F5F5F5F5F5F5F5F5F5F5F5F5F5F5F5F5F5F5E2F5F5F5F5F5F5F5F5F5F5F5F5F5F5F5F5F5F5F5F5F5F5F5F5F5F5F5F5F5F5F5F5F5F5F5F5F5F5F5F5F5F5F5F5F5F5F5F5F5F5F5F5F5F5F5F5F5F5F5F5F5F5F5F5F5F5F5F5F5F5F5F5F5F5F5F5F5F5F5F5F5F5F5F5F5F5F5F5F5F5F5F5F5F5F5F5F5F5F5F5F5F5F5F5F5
310
F5F5F5F5F5F5F5F5F5F5F5F5F5F5F5F5F5F5F5F5F5F5F5F5F5F5F5F5F5E2F5F5F5F5F5F5F5F5F5F5F5F5F5F5F5F5F5F5F5F5F5E2E2F5F5F5F5F5F5F5F5F5F5F5F5F5F5F5F5F5F5F5F5F5E2F5F5F5F5F5F5F5F5F5F5F5F5F5F5F5F5F5F5F5F5F5F5F5F5F5F5F5F5F5F5F5F5F5F5F5F5F5F5F5F5F5F5F5F5F5F5F5F5F5F5F5F5
310
F5F5F5F5F5F5F5F5F5F5F5F5F5F5F5F5F5F5F5F5F5F5F5F5F5F5F5F5F5F5F5F5F5F5F5F5F5F5F5F5F5F5F5F5F5F5F5F5F5F5F5F5F5F5F5F5F5F5F5F5F5F5F5F5F5F5F5F5F5F5F5F5F5F5F5F5F5F5F5F5F5F5E2F5F5F5F5F5F5F5F5F5F5F5F5F5F5F5F5F5F5F5F5F5E2E2F5F5F5F5E2F5F5F5F5F5F5F5F5F5F5F5F5F5F5F5F5
310
E2F5F5F5F5F5F5F5F5F5F5F5F5F5F5F5F5F5F5F5F5F5F5F5F5F5F5F5F5F5F5F5F5F5F5F5F5F5F5F5F5F5F5F5F5F5F5F5F5F5F5F5F5F5F5F5F5F5F5F5F5F5F5F5F5F5F5F5F5F5F5F5F5F5F5F5F5F5F5F5F5F5F5F5F5F5F5F5F5F5F5F5F5F5F5F5F5F5F5F5F5F5F5F5F5F5F5F5F5F5F5F5F5F5F5F5F5F5F5F5F5F5F5F5F5F5F5
310
F5F5F5F5F5F5F5F5E2F5F5F5F5F5F5F5F5F5F5F5F5F5F5F5F5E2F5F5F5F5E2E2F5F5F5F5E2F5F5F5F5F5F5F5F5F5F5F5F5F5F5F5F5E2F5F5F5F5F5F5F5F5F5F5F5F5F5F5F5F5F5F5F5F5F5F5F5F5F5F5F5F5F5F5F5F5F5F5F5F5F5F5F5F5F5F5F5F5F5F5F5F5F5F5F5F5F5F5F5F5F5F5F5F5F5F5F5F5F5F5F5F5F5F5F5F5F5
310
F5F5F5F5F5F5F5F5F5F5F5F5F5F5F5F5F5F5F5F5F5F5F5F5F5F5F5F5F5F5F5F5F5F5F5F5F5F5F5F5F5F5F5F5F5F5F5F5F5F5F5F5F5F5F5F5F5F5F5F5F5E2F5F5F5F5F5F5F5F5F5F5F5F5F5F5F5F5E2F5F5F5F5E2E2F5F5F5F5E2F5F5F5F5F5F5F5F5F5F5F5F5F5F5F5F5E2F5F5F5F5F5F5F5F5F5F5F5F5F5F5F5F5F5F5F5F5
310
F5F5F5F5F5F5F5F5F5F5F5F5F5F5F5F5F5F5F5F5F5F5F5F5F5F5F5F5F5F5F5F5F5F5F5F5F5F5F5F5F5F5F5F5F5F5F5F5F5F5F5F5F5F5F5F5F5F5F5F5F5F5F5F5F5F5F5F5F5F5F5F5F5F5F5F5F5F5F5F5F5F5F5F5F5F5F5F5F5F5F5F5F5F5F5F5F5F5F5F5F5F5F5F5F5F5F5F5F5F5F5F5F5F5E2F5F5F5F5F5F5F5F5F5F5F5F5
310
F5F5F5F5E2F5F5F5F5E2E2F5F5F5F5E2F5F5F5F5F5F5F5F5F5F5F5F5F5F5F5F5E2F5F5F5F5F5F5F5F5F5F5F5F5F5F5F5F5F5F5F5F5F5F5F5F5F5F5F5F5F5F5F5F5F5F5F5F5F5F5F5F5F5F5F5F5F5F5F5F5F5F5F5F5F5F5F5F5F5F5F5F5F5F5F5F5F5F5F5F5F5F5F5F5F5F5F5F5F5F5F5F5F5F5F5F5F5F5F5F5F5F5F5F5F5F5
310
F5F5F5F5F5F5F5F5F5F5F5F5F5F5F5F5F5F5F5F5F5F5F5F5F5F5F5F5F5F5F5F5F5F5F5F5F5F5F5F5E2F5F5F5F5F5F5F5F5F5F5F5F5F5F5F5F5E2F5F5F5F5E2E2F5F5F5F5E2F5F5F5F5F5F5F5F5F5F5F5F5F5F5F5F5E2F5F5F5F5F5F5F5F5F5F5F5F5F5F5F5F5F5F5F5F5F5F5F5F5F5F5F5F5F5F5F5F5F5F5F5F5F5F5F5F5F5
310
F5F5F5F5F5F5F5F5F5F5F5F5F5F5F5F5F5F5F5F5F5F5F5F5F5F5F5F5F5F5F5F5F5F5F5F5F5F5F5F5F5F5F5F5F5F5F5F5F5F5F5F5F5F5F5F5F5F5F5F5F5F5F5F5F5F5F5F5F5F5F5F5F5F5F5F5F5F5F5F5F5F5F5F5F5F5F5F5F5F5F5F5F5E2F5F5F5F5F5F5F5F5F5F5F5F5F5F5F5F5E2F5F5F5F5E2E2F5F5F5F5E2F5F5F5F5F5
310
F5F5F5F5F5F5F5F5F5F5F5E2F5F5F5F5F5F5F5F5F5F5F5F5F5F5F5F5F5F5F5F5F5F5F5F5F5F5F5F5F5F5F5F5F5F5F5F5F5F5F5F5F5F5F5F5F5F5F5F5F5F5F5F5F5F5F5F5F5F5F5F5F5F5F5F5F5F5F5F5F5F5F5F5F5F5F5F5F5F5F5F5F5F5F5F5F5F5F5F5F5F5F5F5F5F5F5F5F5F5F5F5F5F5F5F5F5F5F5F5F5F5F5F5F5F5F5
310
F5F5F5F5F5F5F5F5F5F5F5F5F5F5F5F5F5F5F5E2F5F5F5F5F5F5F5F5F5F5F5F5F5F5F5F5E2F5F5F5F5E2E2F5F5F5F5E2F5F5F5F5F5F5F5F5F5F5F5F5F5F5F5F5E2F5F5F5F5F5F5F5F5F5F5F5F5F5F5F5F5F5F5F5F5F5F5F5F5F5F5F5F5F5F5F5F5F5F5F5F5F5F5F5F5F5F5F5F5F5F5F5F5F5F5F5F5F5F5F5F5F5F5F5F5F5F5
310
F5F5F5F5F5F5F5F5F5F5F5F5F5F5F5F5F5F5F5F5F5F5F5F5F5F5F5F5F5F5F5F5F5F5F5F5F5F5F5F5F5F5F5F5F5F5F5F5F5F5F5F5F5F5F5F5F5F5F5F5F5F5F5F5F5F5F5F5F5F5F5F5E2F5F5F5F5F5F5F5F5F5F5F5F5F5F5F5F5E2F5F5F5F5E2E2F5F5F5F5E2F5F5F5F5F5F5F5F5F5F5F5F5F5F5F5F5E2F5F5F5F5F5F5F5F5F5
310
F5F5F5F5F5F5F5F5F5F5F5F5F5F5F5F5F5F5F5F5F5F5F5F5F5F5F5F5F5F5F5F5F5F5F5F5F5F5F5F5F5F5F5F5F5F5F5F5F5F5F5F5F5F5F5F5F5F5F5F5F5F5F5F5F5F5F5F5F5F5F5F5F5F5F5F5F5F5F5F5F5F5F5F5F5F5F5F5F5F5F5F5F5F5F5F5F5F5F5F5F5F5F5F5F5F5F5F5F5F5F5F5F5F5F5F5F5F5F5F5F5F5F5F5F5E2F5
310
F5F5F5F5F5F5F5F5F5F5F5F5F5F5F5E2F5F5F5F5E2E2F5F5F5F5E2F5F5F5F5F5F5F5F5F5F5F5F5F5F5F5F5E2F5F5F5F5F5F5F5F5F5F5F5F5F5F5F5F5F5F5F5F5F5F5F5F5F5F5F5F5F5F5F5F5F5F5F5F5F5F5F5F5F5F5F5F5F5F5F5F5F5F5F5F5F5F5F5F5F5F5F5F5F5F5F5F5F5F5F5F5F5F5F5F5F5F5F5F5F5F5F5F5F5F5F5
310
F5F5F5F5F5F5F5F5F5F5F5F5F5F5F5F5F5F5F5F5F5F5F5F5F5F5F5F5F5F5F5F5F5F5F5F5F5F5F5F5F5F5F5F5F5F5F5F5F5F5F5E2F5F5F5F5F5F5F5F5F5F5F5F5F5F5F5F5E2F5F5F5F5E2E2F5F5F5F5E2F5F5F5F5F5F5F5F5F5F5F5F5F5F5F5F5E2F5F5F5F5F5F5F5F5F5F5F5F5F5F5F5F5F5F5F5F5F5F5F5F5F5F5F5F5F5F5
310
F5F5F5F5F5F5F5F5F5F5F5F5F5F5F5F5F5F5F5F5F5F5F5F5F5F5F5F5F5F5F5F5F5F5F5F5F5F5F5F5F5F5F5F5F5F5F5F5F5F5F5F5F5F5F5F5F5F5F5F5F5F5F5F5F5F5F5F5F5F5F5F5F5F5F5F5F5F5F5F5F5F5F5F5F5F5F5F5F5F5F5F5F5F5F5F5F5F5F5F5F5F5F5F5E2F5F5F5F5F5F5F5F5F5F5F5F5F5F5F5F5E2F5F5F5F5E2
310
E2F5F5F5F5E2F5F5F5F5F5F5F5F5F5F5F5F5F5F5F5F5E2F5F5F5F5F5F5F5F5F5F5F5F5F5F5F5F5F5F5F5F5F5F5F5F5F5F5F5F5F5F5F5F5F5F5F5F5F5F5F5F5F5F5F5F5F5F5F5F5F5F5F5F5F5F5F5F5F5F5F5F5F5F5F5F5F5F5F5F5F5F5F5F5F5F5F5F5F5F5F5F5F5F5F5F5F5F5F5F5F5F5F5F5F5F5F5F5F5F5F5F5F5F5F5F5
310
F5F5F5F5F5F5F5F5F5F5F5F5F5F5F5F5F5F5F5F5F5F5F5F5F5F5F5F5F5F5E2F5F5F5F5F5F5F5F5F5F5F5F5F5F5F5F5E2F5F5F5F5E2E2F5F5F5F5E2F5F5F5F5F5F5F5F5F5F5F5F5F5F5F5F5E2F5F5F5F5F5F5F5F5F5F5F5F5F5F5F5F5F5F5F5F5F5F5F5F5F5F5F5F5F5F5F5F5F5F5F5F5F5F5F5F5F5F5F5F5F5F5F5F5F5F5F5
310
F5F5F5F5F5F5F5F5F5F5F5F5F5F5F5F5F5F5F5F5F5F5F5F5F5F5F5F5F5F5F5F5F5F5F5F5F5F5F5F5F5F5F5F5F5F5F5F5F5F5F5F5F5F5F5F5F5F5F5F5F5F5F5F5F5F5F5F5F5F5F5F5F5F5F5F5F5F5F5F5F5F5F5E2F5F5F5F5F5F5F5F5F5F5F5F5F5F5F5F5E2F5F5F5F5E2E2F5F5F5F5E2F5F5F5F5F5F5F5F5F5F5F5F5F5F5F5
310
F5E2F5F5F5F5F5F5F5F5F5F5F5F5F5F5F5F5F5F5F5F5F5F5F5F5F5F5F5F5F5F5F5F5F5F5F5F5F5F5F5F5F5F5F5F5F5F5F5F5F5F5F5F5F5F5F5F5F5F5F5F5F5F5F5F5F5F5F5F5F5F5F5F5F5F5F5F5F5F5F5F5F5F5F5F5F5F5F5F5F5F5F5F5F5F5F5F5F5F5F5F5F5F5F5F5F5F5F5F5F5F5F5F5F5F5F5F5F5F5F5F5F5F5F5F5F5
310
F5F5F5F5F5F5F5F5F5E2F5F5F5F5F5F5F5F5F5F5F5F5F5F5F5F5E2F5F5F5F5E2E2F5F5F5F5E2F5F5F5F5F5F5F5F5F5F5F5F5F5F5F5F5E2F5F5F5F5F5F5F5F5F5F5F5F5F5F5F5F5F5F5F5F5F5F5F5F5F5F5F5F5F5F5F5F5F5F5F5F5F5F5F5F5F5F5F5F5F5F5F5F5F5F5F5F5F5F5F5F5F5F5F5F5F5F5F5F5F5F5F5F5F5F5F5F5
310
F5F5F5F5F5F5F5F5F5F5F5F5F5F5F5F5F5F5F5F5F5F5F5F5F5F5F5F5F5F5F5F5F5F5F5F5F5F5F5F5F5F5F5F5F5F5F5F5F5F5F5F5F5F5F5F5F5F5F5F5F5F5E2F5F5F5F5F5F5F5F5F5F5F5F5F5F5F5F5E2F5F5F5F5E2E2F5F5F5F5E2F5F5F5F5F5F5F5F5F5F5F5F5F5F5F5F5E2F5F5F5F5F5F5F5F5F5F5F5F5F5F5F5F5F5F5F5
310
F5F5F5F5F5F5F5F5F5F5F5F5F5F5F5F5F5F5F5F5F5F5F5F5F5F5F5F5F5F5F5F5F5F5F5F5F5F5F5F5F5F5F5F5F5F5F5F5F5F5F5F5F5F5F5F5F5F5F5F5F5F5F5F5F5F5F5F5F5F5F5F5F5F5F5F5F5F5F5F5F5F5F5F5F5F5F5F5F5F5F5F5F5F5F5F5F5F5F5F5F5F5F5F5F5F5F5F5F5F5F5F5F5F5F5E2F5F5F5F5F5F5F5F5F5F5F5
310
F5F5F5F5F5E2F5F5F5F5E2E2F5F5F5F5E2F5F5F5F5F5F5F5F5F5F5F5F5F5F5F5F5E2F5F5F5F5F5F5F5F5F5F5F5F5F5F5F5F5F5F5F5F5F5F5F5F5F5F5F5F5F5F5F5F5F5F5F5F5F5F5F5F5F5F5F5F5F5F5F5F5F5F5F5F5F5F5F5F5F5F5F5F5F5F5F5F5F5F5F5F5F5F5F5F5F5F5F5F5F5F5F5F5F5F5F5F5F5F5F5F5F5F5F5F5F5
310
F5F5F5F5F5F5F5F5F5F5F5F5F5F5F5F5F5F5F5F5F5F5F5F5F5F5F5F5F5F5F5F5F5F5F5F5F5F5F5F5F5E2F5F5F5F5F5F5F5F5F5F5F5F5F5F5F5F5E2F5F5F5F5E2E2F5F5F5F5F5F5F5F5F5F5F5F5F5F5F5F5F5F5F5F5F5E2F5F5F5F5F5F5F5F5F5F5F5F5F5F5F5F5F5F5F5F5F5F5F5F5F5F5F5F5F5F5F5F5F5F5F5F5F5F5F5F5
310
F5F5F5F5F5F5F5F5F5F5F5F5F5F5F5F5F5F5F5F5F5F5F5F5F5F5F5F5F5F5F5F5F5F5F5F5F5F5F5F5F5F5F5F5F5F5F5F5F5F5F5F5F5F5F5F5F5F5F5F5F5F5F5F5F5F5F5F5F5F5F5F5F5F5F5F5F5F5F5F5F5F5F5F5F5F5F5F5F5F5F5F5F5F5E2F5F5F5F5F5F5F5F5F5F5F5F5F5F5F5F5F5F5F5F5F5E2E2F5F5F5F5F5F5F5F5F5
310
F5F5F5F5F5F5F5F5F5F5F5F5E2F5F5F5F5F5F5F5F5F5F5F5F5F5F5F5F5F5F5F5F5F5F5F5F5F5F5F5F5F5F5F5F5F5F5F5F5F5F5F5F5F5F5F5F5F5F5F5F5F5F5F5F5F5F5F5F5F5F5F5F5F5F5F5F5F5F5F5F5F5F5F5F5F5F5F5F5F5F5F5F5F5F5F5F5F5F5F5F5F5F5F5F5F5F5F5F5F5F5F5F5F5F5F5F5F5F5F5F5F5F5F5F5F5F5
310
F5F5F5F5F5F5F5F5F5F5F5F5F5F5F5F5F5F5F5F5E2F5F5F5F5F5F5F5F5F5F5F5F5F5F5F5F5F5F5F5F5F5E2E2F5F5F5F5F5F5F5F5F5F5F5F5F5F5F5F5F5F5F5F5F5E2F5F5F5F5F5F5F5F5F5F5F5F5F5F5F5F5F5F5F5F5F5F5F5F5F5F5F5F5F5F5F5F5F5F5F5F5F5F5F5F5F5F5F5F5F5F5F5F5F5F5F5F5F5F5F5F5F5F5F5F5F5
310
F5F5F5F5F5F5F5F5F5F5F5F5F5F5F5F5F5F5F5F5F5F5F5F5F5F5F5F5F5F5F5F5F5F5F5F5F5F5F5F5F5F5F5F5F5F5F5F5F5F5F5F5F5F5F5F5F5F5F5F5F5F5F5F5F5F5F5F5F5F5F5F5F5E2F5F5F5F5F5F5F5F5F5F5F5F5F5F5F5F5F5F5F5F5F5E2E2F5F5F5F5F5F5F5F5F5F5F5F5F5F5F5F5F5F5F5F5F5E2F5F5F5F5F5F5F5F5
310
F5F5F5F5F5F5F5F5F5F5F5F5F5F5F5F5F5F5F5F5F5F5F5F5F5F5F5F5F5F5F5F5F5F5F5F5F5F5F5F5F5F5F5F5F5F5F5F5F5F5F5F5F5F5F5F5F5F5F5F5F5F5F5F5F5F5F5F5F5F5F5F5F5F5F5F5F5F5F5F5F5F5F5F5F5F5F5F5F5F5F5F5F5F5F5F5F5F5DCF5F5F5F5F5F5F5F5F5F5F5F5F5F5F5F5F5F5F5F5F5F5F5F5F5F5F5E2
310
F5F5F5F5F5F5F5F5F5F5F5F5F5F5F5F5F5F5F5F5F5E2E2F5F5F5F5F5F5F5F5F5F5F5F5F5F5F5F5F5F5F5F5F5E2F5F5F5F5F5F5F5F5F5F5F5F5F5F5F5F5F5F5F5F5F5F5F5F5F5F5F5F5F5F5F5F5F5F5F5F5F5F5F5F5F5F5F5F5F5F5F5F5F5F5F5F5F5F5F5F5F5F5F5F5F5F5F5F5F5F5F5F5F5F5F5F5F5F5F5F5F5F5F5F5F5E2
310
ECE2E2E2E2E2E2E2E2E2E2E2E2E2E2E2E2E2E2E2E2E2E2E2DCE2E2E2E2E2E2E2E2E2E2E2E2E2E2E2E2E2E2E2E2E2E2E2ECE2F5F5E2F5F5F5F5F5F5F5F5F5F5F5F5F5F5F5F5F5F5F5F5F5E2E2F5F5F5F5F5F5F5F5F5F5F5F5F5F5F5F5F5F5F5F5F5E2F5F5F5F5F5F5F5F5F5F5F5F5F5F5F5F5F5F5F5F5F5F5F5F5F5F5F5F5F5
310
F5F5F5F5F5F5F5F5F5F5F5F5F5F5F5F5F5F5F5F5F5F5F5F5F5F5F5F5F5F5F5F5F5F5F5F5F5F5F5F5F5F5F5F5F5F5F5F5F5F5F5E2F5F5ECF5F5F5F5F5F5F5F5F5F5F5F5F5F5F5F5F5F5F5F5F5F5DCF5F5F5F5F5F5F5F5F5F5F5F5F5F5F5F5F5F5F5F5F5F5ECF5F5E2F5E2F5F5F5F5F5F5F5F5F5F5F5F5F5F5F5F5F5F5F5F5F5
310
E2E2F5F5F5F5F5F5F5F5F5F5F5F5F5F5F5F5F5F5F5F5F5E2F5F5F5F5F5F5F5F5F5F5F5F5F5F5F5F5F5F5F5F5F5F5F5F5F5F5F5F5F5F5F5F5F5F5F5F5F5F5F5F5F5F5F5F5F5F5F5F5F5F5F5F5F5F5F5F5F5F5F5F5F5F5F5F5F5F5F5F5F5F5F5F5F5F5F5F5F5F5F5E2F5F5F5F5ECF5F5F5F5F5F5F5F5F5F5F5F5F5F5F5F5F5F5
310
F5F5F5DCF5F5F5F5F5F5F5F5F5F5F5F5F5F5F5F5F5F5F5F5F5ECF5F5F5F5E2E2F5F5F5F5F5F5F5F5F5F5F5F5F5F5F5F5F5F5F5F5F5E2E2F5F5F5F5F5F5F5F5F5F5F5F5F5F5F5F5F5F5F5F5F5E2F5F5F5F5F5F5F5F5F5F5F5F5F5F5F5F5F5F5F5F5F5F5F5F5F5F5F5F5F5F5F5F5F5F5F5F5F5F5F5F5F5F5F5F5F5F5F5F5F5F5
310
F5F5F5F5F5F5F5F5F5F5F5F5F5F5F5F5F5F5F5F5F5F5F5F5F5F5F5F5E2E2E2E2E2E2ECE2E2E2E2E2E2E2E2E2ECECECECECECE2ECECECECECDCECECECECECE2ECECECECECECE2E2E2E2E2E2E2E2ECE2E2E2E2E2E2E2F5F5F5F5F5F5F5F5F5F5F5F5F5F5F5F5F5F5F5F5F5E2E2F5F5F5F5F5F5F5F5F5F5F5F5F5F5F5F5F5F5F5
310
F5F5E2F5F5F5F5F5F5F5F5F5F5F5F5F5F5F5F5F5F5F5F5F5F5F5F5F5F5F5F5F5F5F5F5F5F5F5F5F5F5F5F5F5F5F5F5F5F5F5F5F5F5F5F5F5F5F5F5F5F5F5F5F5F5F5F5F5F5F5F5F5F5F5F5F5F5F5F5F5F5E2F5F5F5F5F5F5F5F5F5F5F5F5F5F5F5ECF5F5F5F5F5F5F5F5F5F5F5DCF5F5F5F5F5F5F5F5F5F5ECF5F5F5F5F5F5
310
F5F5F5F5F5F5F5F5F5E2E2F5F5F5F5F5F5F5F5F5F5F5F5F5F5F5F5F5F5F5F5F5E2E2F5F5F5F5E2F5F5F5F5F5F5F5F5F5F5F5F5F5F5F5F5E2F5F5F5F5F5F5F5F5F5F5F5F5F5F5F5F5F5F5F5F5F5F5F5F5F5F5F5F5F5F5F5F5F5F5F5F5F5F5F5F5F5F5F5F5F5F5F5F5F5F5F5F5F5F5F5F5F5F5F5F5F5F5F5F5F5F5F5F5F5F5F5
310
F5F5F5F5F5F5F5E2F5F5F5F5F5F5F5F5F5F5F5F5F5F5F5ECECECECECECECECECECECECECECECECECECECECECECECECF5F5F5F5F5F5F5F5F5F5F5F5F5F5F5E2E2F5F5F5F5F5F5F5F5F5F5F5F5F5F5F5F5E2F5F5F5F5E2E2F5F5F5F5E2F5F5F5F5F5F5F5F5F5F5F5F5F5F5F5F5E2F5F5F5F5F5F5F5F5F5F5F5F5F5F5F5F5F5F5
310
F5F5F5F5F5F5F5F5F5F5F5F5F5F5F5F5F5F5F5F5F5F5F5F5F5F5F5F5F5F5F5F5F5F5F5F5F5F5F5F5F5F5F5F5F5F5F5F5F5F5F5F5F5F5F5F5F5F5F5F5F5E2F5F5F5F5F5F5F5F5F5F5F5F5F5F5F5F5F5F5F5ECF5F5F5F5F5F5DCF5F5F5F5F5ECF5F5F5F5F5F5F5F5F5F5F5F5F5F5F5F5F5F5F5F5E2E2F5F5F5F5F5F5F5F5F5F5
310
F5F5F5F5F5F5E2F5F5F5F5E2E2F5F5F5F5E2F5F5F5F5F5F5F5F5F5F5F5F5F5F5F5F5E2F5F5F5F5F5F5F5F5F5F5F5F5F5F5F5F5F5F5F5F5F5F5F5F5F5F5F5F5F5F5F5F5F5F5F5F5F5F5F5F5F5F5F5F5F5F5F5F5F5F5F5F5F5F5F5F5F5F5F5F5F5F5F5F5F5F5F5F5F5F5F5F5F5F5F5F5F5F5F5F5E2F5F5F5F5F5F5F5F5F5F5F5
310
F5F5F5F5F5ECECECECECECF5ECECECECECF5ECECECECECF5F5F5F5F5F5F5F5F5F5F5F5F5F5F5F5F5E2F5E2F5F5F5F5F5F5F5F5F5F5F5F5F5F5F5F5E2F5F5F5F5E2E2F5F5F5F5E2F5F5F5F5F5F5F5F5F5F5F5F5F5F5F5F5E2F5F5F5F5F5F5F5F5F5F5F5F5F5F5F5F5F5F5F5F5F5F5F5F5F5F5F5F5F5F5F5F5F5F5F5F5F5F5F5
310
F5F5F5F5F5F5F5F5F5F5F5F5F5F5F5F5F5F5F5F5F5F5F5F5F5F5F5F5F5F5F5F5F5F5F5F5F5F5F5F5F5F5E2E2F5F5F5F5F5F5F5F5F5F5F5F5F5F5ECF5F5F5F5F5F5F5F5DCF5F5F5F5F5F5F5ECF5F5F5F5F5F5F5F5F5F5F5F5F5F5F5E2E2F5F5E2F5F5F5F5F5F5F5F5F5F5F5F5F5F5F5F5E2F5F5F5F5E2E2F5F5F5F5E2F5F5F5
310
F5F5F5F5F5F5F5F5F5F5F5F5F5E2F5F5F5F5F5F5F5F5F5F5F5F5F5F5F5F5F5F5F5F5F5F5F5F5F5F5F5F5F5F5F5F5F5F5F5F5F5F5F5F5F5F5F5F5F5F5F5F5F5F5F5F5F5F5F5F5F5F5F5F5F5F5F5F5F5F5F5F5F5F5F5F5F5F5F5F5F5F5F5F5F5F5F5E2F5F5F5F5F5F5F5F5F5F5F5F5F5ECF5F5F5F5F5F5F5F5DCF5F5F5F5F5F5
310
F5ECF5F5F5F5F5F5F5F5F5F5F5F5F5E2E2F5F5F5F5E2F5F5F5F5F5F5F5F5F5F5F5F5F5F5F5F5E2F5F5F5F5E2E2F5F5F5F5E2F5F5F5F5F5F5F5F5F5F5F5F5F5F5F5F5E2F5F5F5F5F5F5F5F5F5F5F5F5F5F5F5F5F5F5F5F5F5F5F5F5F5F5F5F5F5F5F5F5F5F5F5F5F5F5F5F5F5F5F5F5F5F5F5F5F5F5F5F5F5F5F5F5F5F5F5F5
310
F5F5F5F5F5F5F5F5F5F5F5F5F5F5F5F5F5F5F5F5F5F5F5F5E2E2F5F5F5F5F5F5F5F5F5F5F5ECF5F5F5F5F5F5F5F5DCF5F5F5F5F5F5F5ECF5F5F5F5F5F5F5F5F5F5F5F5E2F5F5F5F5F5F5E2F5F5F5F5F5F5F5F5F5F5F5F5F5F5F5F5E2F5F5F5F5E2E2F5F5F5F5E2F5F5F5F5F5F5F5F5F5F5F5F5F5F5F5F5E2F5F5F5F5F5F5F5
310
F5F5F5F5F5F5F5F5F5F5F5F5F5F5F5F5F5F5F5F5F5F5F5F5F5F5F5F5F5F5F5F5F5F5F5F5F5F5F5F5F5F5F5F5F5F5F5F5F5F5F5F5F5F5F5F5F5F5F5F5F5F5F5F5F5F5F5F5F5F5F5F5F5F5F5F5F5F5F5E2F5F5F5F5F5F5F5F5F5F5ECF5F5F5F5F5F5F5F5DCF5F5F5F5F5F5F5ECF5F5F5F5F5F5F5F5F5F5E2E2F5F5F5F5F5F5F5
310
E2F5F5F5F5F5F5F5F5F5F5F5F5F5F5F5F5E2F5F5F5F5E2E2F5F5F5F5E2F5F5F5F5F5F5F5F5F5F5F5F5F5F5F5F5E2F5F5F5F5F5F5F5F5F5F5F5F5F5F5F5F5F5F5F5F5F5F5F5F5F5F5F5F5F5F5F5F5F5F5F5F5F5F5F5F5F5F5F5F5F5F5F5F5F5F5F5F5F5F5F5F5F5F5F5F5F5F5F5F5F5F5F5F5F5F5F5F5F5F5F5F5F5F5F5F5F5
310
F5F5F5F5F5F5E2E2F5F5F5F5F5F5F5F5F5ECECECECECF5ECECECECECF5ECECECECECF5F5F5F5F5F5F5F5E2E2F5F5F5F5F5F5F5F5F5E2F5F5F5F5F5F5F5F5F5F5F5F5F5F5F5F5E2F5F5F5F5E2E2F5F5F5F5E2F5F5F5F5F5F5F5F5F5F5F5F5F5F5F5F5E2F5F5F5F5F5F5F5F5F5F5F5F5F5F5F5F5F5F5F5F5F5F5F5F5F5F5F5F5
310
F5F5F5F5F5F5F5F5F5F5F5F5F5F5F5F5F5F5F5F5F5F5F5F5F5F5F5F5F5F5F5F5F5F5F5F5F5F5F5F5F5F5F5F5F5F5F5F5F5F5F5F5F5F5F5F5F5F5F5F5F5E2E2F5F5F5F5F5F5F5ECF5F5F5F5F5F5F5DCF5F5F5F5F5F5F5ECF5F5F5F5F5F5F5E2F5F5F5F5F5F5F5F5F5F5F5E2F5F5F5F5F5F5F5F5F5F5F5F5F5F5F5F5E2F5F5F5
310
F5E2E2F5F5F5F5E2F5F5F5F5F5F5F5F5F5F5F5F5F5F5F5F5E2F5F5F5F5F5F5F5F5F5F5F5F5F5F5F5F5F5F5F5F5F5F5F5F5F5F5F5F5F5F5F5F5F5F5F5F5F5F5F5F5F5F5F5F5F5F5F5F5F5F5F5F5F5F5F5F5F5F5F5F5F5F5F5F5F5F5F5F5F5F5F5F5F5F5F5F5F5F5F5F5F5F5F5F5F5F5F5F5F5F5E2F5F5F5F5F5F5F5ECF5F5F5
310
F5F5F5F5DCF5F5F5F5F5F5F5ECF5F5F5F5F5F5F5E2F5F5F5F5F5F5F5F5F5F5F5E2F5F5F5F5F5F5F5F5F5F5F5F5F5F5F5F5E2F5F5F5F5E2E2F5F5F5F5E2F5F5F5F5F5F5F5F5F5F5F5F5F5F5F5F5E2F5F5F5F5F5F5F5F5F5F5F5F5F5F5F5F5F5F5F5F5F5F5F5F5F5F5F5F5F5F5F5F5F5F5F5F5F5F5F5F5F5F5F5F5F5F5F5F5F5
310
F5F5F5F5F5F5F5F5F5F5F5F5F5F5F5F5F5F5F5F5F5F5F5F5F5F5F5F5F5F5F5F5F5F5F5F5F5F5F5F5F5E2F5F5F5F5F5F5F5ECF5F5F5F5F5F5F5DCF5F5F5F5F5F5F5ECF5F5F5F5F5F5F5E2F5F5F5F5F5F5F5F5F5F5F5E2F5F5F5F5F5F5F5F5F5F5F5F5F5F5F5F5E2F5F5F5F5E2E2F5F5F5F5E2F5F5F5F5F5F5F5F5F5F5F5F5F5
310
F5F5F5E2F5F5F5F5F5F5F5F5F5F5F5F5F5F5F5F5F5F5F5F5F5F5F5F5F5F5F5F5F5F5F5F5F5F5F5F5F5F5F5F5F5F5F5F5F5F5F5F5F5F5F5F5F5F5F5F5F5F5F5F5F5F5F5F5F5F5F5F5F5F5F5F5F5F5F5F5F5F5F5F5F5F5F5F5F5F5F5F5F5F5E2F5F5F5F5F5F5F5ECF5F5F5F5E2E2E2E2E2E2E2F5F5F5F5ECF5F5F5F5F5F5F5E2
310
F5F5F5F5F5F5F5F5F5F5F5E2F5F5F5F5F5F5F5F5F5F5F5F5F5F5F5F5E2F5F5F5F5E2E2F5F5F5F5E2F5F5F5F5F5F5F5F5F5F5F5F5F5F5F5F5E2F5F5F5F5F5F5F5F5F5F5F5F5F5F5F5F5F5F5F5F5F5F5F5F5F5F5F5F5F5F5F5F5F5F5F5F5F5F5F5F5F5F5F5F5F5F5F5F5F5F5F5F5F5F5F5F5F5F5F5F5F5F5F5F5F5F5F5F5F5F5
310
F5F5F5F5F5F5F5F5F5F5F5F5F5F5F5F5F5F5F5F5E2F5F5F5F5F5F5F5ECECECECECECF5F5DCF5F5ECECECECECECF5F5F5F5F5F5F5E2F5F5F5F5F5F5F5F5F5F5F5E2F5F5F5F5F5F5F5F5F5F5F5F5F5F5F5F5E2F5F5F5F5E2E2F5F5F5F5E2F5F5F5F5F5F5F5F5F5F5F5F5F5F5F5F5E2F5F5F5F5F5F5F5F5F5F5F5F5F5F5F5F5F5
310
F5F5F5F5F5F5F5F5F5F5F5F5F5F5F5F5F5F5F5F5F5F5F5F5F5F5F5F5F5F5F5F5F5F5F5F5F5F5F5F5F5F5F5F5F5F5F5F5F5F5F5F5F5F5F5F5F5F5F5F5F5F5F5F5F5F5F5F5F5F5F5F5F5E2F5F5F5F5F5F5F5ECF5F5F5F5E2F5F5DCF5F5E2F5F5F5F5ECF5F5F5F5F5F5F5E2F5F5F5F5F5F5F5F5F5F5F5E2F5F5F5F5F5F5F5F5F5
310
F5F5F5F5F5F5F5E2F5F5F5F5E2E2F5F5F5F5E2F5F5F5F5F5F5F5F5F5F5F5F5F5F5F5F5E2F5F5F5F5F5F5F5F5F5F5F5F5F5F5F5F5F5F5F5F5F5F5F5F5F5F5F5F5F5F5F5F5F5F5F5F5F5F5F5F5F5F5F5F5F5F5F5F5F5F5F5F5F5F5F5F5F5F5F5F5F5F5F5F5F5F5F5F5F5F5F5F5F5F5F5F5F5F5F5F5F5F5F5F5F5F5F5F5F5F5E2
310
E2E2E2E2E2E2E2E2E2E2E2E2ECF5F5DCF5F5E2E2E2E2E2E2E2E2E2E2E2E2E2E2F5F5F5F5F5F5F5F5F5F5F5E2F5F5F5F5F5F5F5F5F5F5F5F5F5F5F5F5E2F5F5F5F5E2E2F5F5F5F5E2F5F5F5F5F5F5F5F5F5F5F5F5F5F5F5F5E2F5F5F5F5F5F5F5F5F5F5F5F5F5F5F5F5F5F5F5F5F5F5F5F5F5F5F5F5F5F5F5F5F5F5F5F5F5F5
310
F5F5F5F5F5F5F5F5F5F5F5F5F5F5F5F5F5F5F5F5F5F5F5F5F5F5F5F5F5F5F5F5F5F5F5F5F5F5F5F5F5F5F5F5F5F5F5F5F5F5F5F5F5F5F5F5F5F5F5F5F5F5F5F5F5F5F5F5DCF5F5F5F5F5F5F5F5F5F5F5F5F5F5F5F5F5F5F5F5F5F5F5F5F5F5F5E2F5F5F5F5F5F5F5F5F5F5F5F5F5F5F5F5E2F5F5F5F5E2E2F5F5F5F5F5F5F5
310
F5F5F5F5F5F5F5F5F5F5F5F5F5F5E2F5F5F5F5F5F5F5F5F5F5F5F5F5F5F5F5F5F5F5F5F5F5F5F5F5F5F5F5F5F5F5F5F5F5F5F5F5F5F5F5F5F5F5F5F5F5F5F5F5F5F5F5F5F5F5F5F5F5F5F5F5F5F5F5F5F5F5F5F5F5F5F5F5F5F5F5F5F5F5F5F5F5F5F5F5F5F5F5F5F5F5F5F5F5F5F5F5F5F5F5F5F5F5F5F5F5F5F5F5F5F5F5
310
F5F5F5F5F5F5F5F5F5F5F5F5F5F5F5F5F5F5F5F5F5F5E2F5F5F5F5F5F5F5F5F5F5F5F5F5F5F5F5F5F5F5F5F5E2E2F5F5F5F5F5F5F5F5F5F5F5F5F5F5F5F5F5F5F5F5F5E2F5F5F5F5F5F5F5F5F5F5F5F5F5F5F5F5F5F5F5F5F5F5F5F5F5F5F5F5F5F5F5F5F5F5F5F5F5F5F5F5F5F5F5F5F5F5F5F5F5F5F5F5F5F5F5F5F5F5F5
310
F5F5F5F5F5F5F5F5F5F5F5F5F5F5F5F5F5F5F5F5F5F5F5F5F5F5F5F5F5F5F5F5F5F5F5F5F5F5F5F5F5F5F5F5F5F5F5F5F5F5F5F5F5F5F5F5F5F5F5F5F5F5F5F5F5F5F5F5F5F5F5F5F5F5F5E2F5F5F5F5F5F5F5F5F5F5F5F5F5F5F5F5F5F5F5F5F5E2E2F5F5F5F5F5F5F5F5F5F5F5F5F5F5F5F5F5F5F5F5F5E2F5F5F5F5F5F5
310
F5F5F5F5F5F5F5F5F5F5F5F5F5F5F5F5F5F5F5F5F5F5F5F5F5F5F5F5F5F5F5F5F5F5F5F5F5F5F5F5F5F5F5F5F5F5F5F5F5F5F5F5F5F5F5F5F5F5F5F5F5F5F5F5F5F5F5F5F5F5F5F5F5F5F5F5F5F5F5F5F5F5F5F5F5F5F5F5F5F5F5F5F5F5F5F5F5F5F5F5F5F5F5F5F5F5F5F5F5F5F5F5F5F5F5F5F5F5F5F5F5F5F5F5F5F5F5
310
F5E2F5F5F5F5F5F5F5F5F5F5F5F5F5F5F5F5F5F5F5F5F5E2E2F5F5F5F5F5F5F5F5F5F5F5F5F5F5F5F5F5F5F5F5F5E2F5F5F5F5F5F5F5F5F5F5F5F5F5F5F5F5F5F5F5F5F5F5F5F5F5F5F5F5F5F5F5F5F5F5F5F5F5F5F5F5F5F5F5F5F5F5F5F5F5F5F5F5F5F5F5F5F5F5F5F5F5F5F5F5F5F5F5F5F5F5F5F5F5F5F5F5F5F5F5F5
310
F5F5F5F5F5F5F5F5F5F5F5F5F5F5F5F5F5F5F5F5F5F5F5F5F5F5F5F5F5F5F5F5F5F5F5F5F5F5F5F5F5F5F5F5F5F5F5F5F5F5F5F5F5F5E2F5F5F5F5F5F5F5F5F5F5F5F5F5F5F5F5F5F5F5F5F5E2E2F5F5F5F5F5F5F5F5F5F5F5F5F5F5F5F5F5F5F5F5F5E2F5F5F5F5F5F5F5F5F5F5F5F5F5F5F5F5F5F5F5F5F5F5F5F5F5F5F5
310
F5F5F5F5F5F5F5F5F5F5F5F5F5F5F5F5F5F5F5F5F5F5F5F5F5F5F5F5F5F5F5F5F5F5F5F5F5F5F5F5F5F5F5F5F5F5F5F5F5F5F5F5F5F5F5F5F5F5F5F5F5F5F5F5F5F5F5F5F5F5F5F5F5F5F5F5F5F5F5F5F5F5F5F5F5F5F5F5F5F5F5F5F5F5F5F5F5F5F5F5F5F5F5F5F5F5F5E2F5F5F5F5F5F5F5F5F5F5F5F5F5F5F5F5F5F5F5
310
F5F5E2E2F5F5F5F5F5F5F5F5F5F5F5F5F5F5F5F5F5F5F5F5F5E2F5F5F5F5F5F5F5F5F5F5F5F5F5F5F5F5F5F5F5F5F5F5F5F5F5F5F5F5F5F5F5F5F5F5F5F5F5F5F5F5F5F5F5F5F5F5F5F5F5F5F5F5F5F5F5F5F5F5F5F5F5F5F5F5F5F5F5F5F5F5F5F5F5F5F5F5F5F5F5F5F5F5F5F5F5F5F5F5F5F5F5F5F5F5F5F5F5F5F5F5F5
310
F5F5F5F5F5F5F5F5F5F5F5F5F5F5F5F5F5F5F5F5F5F5F5F5F5F5F5F5F5F5F5F5F5E2F5F5F5F5F5F5F5F5F5F5F5F5F5F5F5F5F5F5F5F5F5E2E2F5F5F5F5F5F5F5F5F5F5F5F5F5F5F5F5F5F5F5F5F5E2F5F5F5F5F5F5F5F5F5F5F5F5F5F5F5F5F5F5F5F5F5F5F5F5F5F5F5F5F5F5F5F5F5F5F5F5F5F5F5F5F5F5F5F5F5F5F5F5
310
F5F5F5F5F5F5F5F5F5F5F5F5F5F5F5F5F5F5F5F5F5F5F5F5F5F5F5F5F5F5F5F5F5F5F5F5F5F5F5F5F5F5F5F5F5F5F5F5F5F5F5F5F5F5F5F5F5F5F5F5F5F5F5F5F5F5F5F5F5F5F5F5F5F5F5F5F5F5F5F5F5F5F5F5F5F5E2F5F5F5F5F5F5F5F5F5F5F5F5F5F5F5F5F5F5F5F5F5E2E2F5F5F5F5F5F5F5F5F5F5F5F5F5F5F5F5F5
310
F5F5F5F5E2F5F5F5F5F5F5F5F5F5F5F5F5F5F5F5F5F5F5F5F5F5F5F5F5F5F5F5F5F5F5F5F5F5F5F5F5F5F5F5F5F5F5F5F5F5F5F5F5F5F5F5F5F5F5F5F5F5F5F5F5F5F5F5F5F5F5F5F5F5F5F5F5F5F5F5F5F5F5F5F5F5F5F5F5F5F5F5F5F5F5F5F5F5F5F5F5F5F5F5F5F5F5F5F5F5F5F5F5F5F5F5F5F5F5F5F5F5F5F5F5F5F5
310
F5F5F5F5F5F5F5F5F5F5F5F5E2F5F5F5F5F5F5F5F5F5F5F5F5F5F5F5F5F5F5F5F5F5E2E2F5F5F5F5F5F5F5F5F5F5F5F5F5F5F5F5F5F5F5F5F5E2F5F5F5F5F5F5F5F5F5F5F5F5F5F5F5F5F5F5F5F5F5F5F5F5F5F5F5F5F5F5F5F5F5F5F5F5F5F5F5F5F5F5F5F5F5F5F5F5F5F5F5F5F5F5F5F5F5F5F5F5F5F5F5F5F5F5F5F5F5
310
F5F5F5F5F5F5F5F5F5F5F5F5F5F5F5F5F5F5F5F5F5F5F5F5F5F5F5F5F5F5F5F5F5F5F5F5F5F5F5F5F5F5F5F5F5F5F5F5F5F5F5F5F5F5F5F5F5F5F5F5F5F5F5F5F5E2F5F5F5F5F5F5F5F5F5F5F5F5F5F5F5F5F5F5F5F5F5E2E2F5F5F5F5F5F5F5F5F5F5F5F5F5F5F5F5F5F5F5F5F5E2F5F5F5F5F5F5F5F5F5F5F5F5F5F5F5F5
310
F5F5F5F5F5F5F5F5F5F5F5F5F5F5F5F5F5F5F5F5F5F5F5F5F5F5F5F5F5F5F5F5F5F5F5F5F5F5F5F5F5F5F5F5F5F5F5F5F5F5F5F5F5F5F5F5F5F5F5F5F5F5F5F5F5F5F5F5F5F5F5F5F5F5F5F5F5F5F5F5F5F5F5F5F5F5F5F5F5F5F5F5F5F5F5F5F5F5F5F5F5F5F5F5F5F5F5F5F5F5F5F5F5F5F5F5F5F5E2F5F5F5F5F5F5F5F5
310
F5F5F5F5F5F5F5F5F5F5F5F5F5E2E2F5F5F5F5E2F5F5F5F5F5F5F5F5F5F5F5F5F5F5F5F5E2F5F5F5F5F5F5F5F5F5F5F5F5F5F5F5F5F5F5F5F5F5F5F5F5F5F5F5F5F5F5F5F5F5F5F5F5F5F5F5F5F5F5F5F5F5F5F5F5F5F5F5F5F5F5F5F5F5F5F5F5F5F5F5F5F5F5F5F5F5F5F5F5F5F5F5F5F5F5F5F5F5F5F5F5F5F5F5F5F5F5
310
F5F5F5F5F5F5F5F5F5F5F5F5F5F5F5F5F5F5F5F5F5F5F5F5F5F5F5F5F5F5F5F5F5F5F5F5F5F5F5F5F5F5F5F5E2F5F5F5F5F5F5F5F5F5F5F5F5F5F5F5F5E2F5F5F5F5E2E2F5F5F5F5E2F5F5F5F5F5F5F5F5F5F5F5F5F5F5F5F5E2F5F5F5F5F5F5F5F5F5F5F5F5F5F5F5F5F5F5F5F5F5F5F5F5F5F5F5F5F5F5F5F5F5F5F5F5F5
310
F5F5F5F5F5F5F5F5F5F5F5F5F5F5F5F5F5F5F5F5F5F5F5F5F5F5F5F5F5F5F5F5F5F5F5F5F5F5F5F5F5F5F5F5F5F5F5F5F5F5F5F5F5F5F5F5F5F5F5F5F5F5F5F5F5F5F5F5F5F5F5F5F5F5F5F5F5F5F5F5F5F5F5F5F5F5F5F5F5F5F5F5F5F5F5F5F5E2F5F5F5F5F5F5F5F5F5F5F5F5F5F5F5F5E2F5F5F5F5E2E2F5F5F5F5E2F5
310
F5F5F5F5F5F5F5F5F5F5F5F5F5F5F5E2F5F5F5F5F5F5F5F5F5F5F5F5F5F5F5F5F5F5F5F5F5F5F5F5F5F5F5F5F5F5F5F5F5F5F5F5F5F5F5F5F5F5F5F5F5F5F5F5F5F5F5F5F5F5F5F5F5F5F5F5F5F5F5F5F5F5F5F5F5F5F5F5F5F5F5F5F5F5F5F5F5F5F5F5F5F5F5F5F5F5F5F5F5F5F5F5F5F5F5F5F5F5F5F5F5F5F5F5F5F5F5
310
F5F5F5F5F5F5F5F5F5F5F5F5F5F5F5F5F5F5F5F5F5F5F5E2F5F5F5F5F5F5F5F5F5F5F5F5F5F5F5F5E2F5F5F5F5E2E2F5F5F5F5E2F5F5F5F5F5F5F5F5F5F5F5F5F5F5F5F5E2F5F5F5F5F5F5F5F5F5F5F5F5F5F5F5F5F5F5F5F5F5F5F5F5F5F5F5F5F5F5F5F5F5F5F5F5F5F5F5F5F5F5F5F5F5F5F5F5F5F5F5F5F5F5F5F5F5F5
310
F5F5F5F5F5F5F5F5F5F5F5F5F5F5F5F5F5F5F5F5F5F5F5F5F5F5F5F5F5F5F5F5F5F5F5F5F5F5F5F5F5F5F5F5F5F5F5F5F5F5F5F5F5F5F5F5F5F5F5F5F5F5F5F5F5F5F5F5F5F5F5F5F5F5F5F5E2F5F5F5F5F5F5F5F5F5F5F5F5F5F5F5F5E2F5F5F5F5E2E2F5F5F5F5E2F5F5F5F5F5F5F5F5F5F5F5F5F5F5F5F5E2F5F5F5F5F5
310
F5F5F5F5F5F5F5F5F5F5F5F5F5F5F5F5F5F5F5F5F5F5F5F5F5F5F5F5F5F5F5F5F5F5F5F5F5F5F5F5F5F5F5F5F5F5F5F5F5F5F5F5F5F5F5F5F5F5F5F5F5F5F5F5F5F5F5F5F5F5F5F5F5F5F5F5F5F5F5F5F5F5F5F5F5F5F5F5F5F5F5F5F5F5F5F5F5F5F5F5F5F5F5F5F5F5F5F5F5F5F5F5F5F5F5F5F5F5F5F5F5F5F5F5F5F5F5
310
F5F5E2F5F5F5F5F5F5F5F5F5F5F5F5F5F5F5F5E2F5F5F5F5E2E2F5F5F5F5E2F5F5F5F5F5F5F5F5F5F5F5F5F5F5F5F5E2F5F5F5F5F5F5F5F5F5F5F5F5F5F5F5F5F5F5F5F5F5F5F5F5F5F5F5F5F5F5F5F5F5F5F5F5F5F5F5F5F5F5F5F5F5F5F5F5F5F5F5F5F5F5F5F5F5F5F5F5F5F5F5F5F5F5F5F5F5F5F5F5F5F5F5F5F5F5F5
310
F5F5F5F5F5F5F5F5F5F5F5F5F5F5F5F5F5F5F5F5F5F5F5F5F5F5F5F5F5F5F5F5F5F5F5F5F5F5F5F5F5F5F5F5F5F5F5F5F5F5F5F5F5F5F5E2F5F5F5F5F5F5F5F5F5F5F5F5F5F5F5F5E2F5F5F5F5E2E2F5F5F5F5E2F5F5F5F5F5F5F5F5F5F5F5F5F5F5F5F5E2F5F5F5F5F5F5F5F5F5F5F5F5F5F5F5F5F5F5F5F5F5F5F5F5F5F5
310
F5F5F5F5F5F5F5F5F5F5F5F5F5F5F5F5F5F5F5F5F5F5F5F5F5F5F5F5F5F5F5F5F5F5F5F5F5F5F5F5F5F5F5F5F5F5F5F5F5F5F5F5F5F5F5F5F5F5F5F5F5F5F5F5F5F5F5F5F5F5F5F5F5F5F5F5F5F5F5F5F5F5F5F5F5F5F5F5F5F5F5F5F5F5F5F5F5F5F5F5F5F5F5F5F5F5F5F5E2F5F5F5F5F5F5F5F5F5F5F5F5F5F5F5F5E2F5
310
F5F5F5E2E2F5F5F5F5E2F5F5F5F5F5F5F5F5F5F5F5F5F5F5F5F5E2F5F5F5F5F5F5F5F5F5F5F5F5F5F5F5F5F5F5F5F5F5F5F5F5F5F5F5F5F5F5F5F5F5F5F5F5F5F5F5F5F5F5F5F5F5F5F5F5F5F5F5F5F5F5F5F5F5F5F5F5F5F5F5F5F5F5F5F5F5F5F5F5F5F5F5F5F5F5F5F5F5F5F5F5F5F5F5F5F5F5F5F5F5F5F5F5F5F5F5F5
310
F5F5F5F5F5F5F5F5F5F5F5F5F5F5F5F5F5F5F5F5F5F5F5F5F5F5F5F5F5F5F5F5F5F5E2F5F5F5F5F5F5F5F5F5F5F5F5F5F5F5F5E2F5F5F5F5E2E2F5F5F5F5E2F5F5F5F5F5F5F5F5F5F5F5F5F5F5F5F5E2F5F5F5F5F5F5F5F5F5F5F5F5F5F5F5F5F5F5F5F5F5F5F5F5F5F5F5F5F5F5F5F5F5F5F5F5F5F5F5F5F5F5F5F5F5F5F5
310
F5F5F5F5F5F5F5F5F5F5F5F5F5F5F5F5F5F5F5F5F5F5F5F5F5F5F5F5F5F5F5F5F5F5F5F5F5F5F5F5F5F5F5F5F5F5F5F5F5F5F5F5F5F5F5F5F5F5F5F5F5F5F5F5F5F5F5F5F5F5F5F5F5F5F5F5F5F5F5F5F5F5F5F5F5F5F5E2F5F5F5F5F5F5F5F5F5F5F5F5F5F5F5F5E2F5F5F5F5E2E2F5F5F5F5E2F5F5F5F5F5F5F5F5F5F5F5
310
F5F5F5F5F5E2F5F5F5F5F5F5F5F5F5F5F5F5F5F5F5F5F5F5F5F5F5F5F5F5F5F5F5F5F5F5F5F5F5F5F5F5F5F5F5F5F5F5F5F5F5F5F5F5F5F5F5F5F5F5F5F5F5F5F5F5F5F5F5F5F5F5F5F5F5F5F5F5F5F5F5F5F5F5F5F5F5F5F5F5F5F5F5F5F5F5F5F5F5F5F5F5F5F5F5F5F5F5F5F5F5F5F5F5F5F5F5F5F5F5F5F5F5F5F5F5F5
310
F5F5F5F5F5F5F5F5F5F5F5F5F5E2F5F5F5F5F5F5F5F5F5F5F5F5F5F5F5F5E2F5F5F5F5E2E2F5F5F5F5E2F5F5F5F5F5F5F5F5F5F5F5F5F5F5F5F5E2F5F5F5F5F5F5F5F5F5F5F5F5F5F5F5F5F5F5F5F5F5F5F5F5F5F5F5F5F5F5F5F5F5F5F5F5F5F5F5F5F5F5F5F5F5F5F5F5F5F5F5F5F5F5F5F5F5F5F5F5F5F5F5F5F5F5F5F5
310
F5F5F5F5F5F5F5F5F5F5F5F5F5F5F5F5F5F5F5F5F5F5F5F5F5F5F5F5F5F5F5F5F5F5F5F5F5F5F5F5F5F5F5F5F5F5F5F5F5F5F5F5F5F5F5F5F5F5F5F5F5F5F5F5F5F5E2F5F5F5F5F5F5F5F5F5F5F5F5F5F5F5F5E2F5F5F5F5E2E2F5F5F5F5E2F5F5F5F5F5F5F5F5F5F5F5F5F5F5F5F5E2F5F5F5F5F5F5F5F5F5F5F5F5F5F5F5
310
F5F5F5F5F5F5F5F5F5F5F5F5F5F5F5F5F5F5F5F5F5F5F5F5F5F5F5F5F5F5F5F5F5F5F5F5F5F5F5F5F5F5F5F5F5F5F5F5F5F5F5F5F5F5F5F5F5F5F5F5F5F5F5F5F5F5F5F5F5F5F5F5F5F5F5F5F5F5F5F5F5F5F5F5F5F5F5F5F5F5F5F5F5F5F5F5F5F5F5F5F5F5F5F5F5F5F5F5F5F5F5F5F5F5F5F5F5F5F5E2F5F5F5F5F5F5F5
310
F5F5F5F5F5F5F5F5F5E2F5F5F5F5E2E2F5F5F5F5E2F5F5F5F5F5F5F5F5F5F5F5F5F5F5F5F5E2F5F5F5F5F5F5F5F5F5F5F5F5F5F5F5F5F5F5F5F5F5F5F5F5F5F5F5F5F5F5F5F5F5F5F5F5F5F5F5F5F5F5F5F5F5F5F5F5F5F5F5F5F5F5F5F5F5F5F5F5F5F5F5F5F5F5F5F5F5F5F5F5F5F5F5F5F5F5F5F5F5F5F5F5F5F5F5F5F5
310
F5F5F5F5F5F5F5F5F5F5F5F5F5F5F5F5F5F5F5F5F5F5F5F5F5F5F5F5F5F5F5F5F5F5F5F5F5F5F5F5F5F5F5F5F5E2F5F5F5F5F5F5F5F5F5F5F5F5F5F5F5F5E2F5F5F5F5E2E2F5F5F5F5E2F5F5F5F5F5F5F5F5F5F5F5F5F5F5F5F5E2F5F5F5F5F5F5F5F5F5F5F5F5F5F5F5F5F5F5F5F5F5F5F5F5F5F5F5F5F5F5F5F5F5F5F5F5
310
F5F5F5F5F5F5F5F5F5F5F5F5F5F5F5F5F5F5F5F5F5F5F5F5F5F5F5F5F5F5F5F5F5F5F5F5F5F5F5F5F5F5F5F5F5F5F5F5F5F5F5F5F5F5F5F5F5F5F5F5F5F5F5F5F5F5F5F5F5F5F5F5F5F5F5F5F5F5F5F5F5F5F5F5F5F5F5F5F5F5F5F5F5F5F5F5F5F5E2F5F5F5F5F5F5F5F5F5F5F5F5F5F5F5F5E2F5F5F5F5E2E2F5F5F5F5E2
310
F5F5F5F5F5F5F5F5F5F5F5F5F5F5F5F5E2F5F5F5F5F5F5F5F5F5F5F5F5F5F5F5F5F5F5F5F5F5F5F5F5F5F5F5F5F5F5F5F5F5F5F5F5F5F5F5F5F5F5F5F5F5F5F5F5F5F5F5F5F5F5F5F5F5F5F5F5F5F5F5F5F5F5F5F5F5F5F5F5F5F5F5F5F5F5F5F5F5F5F5F5F5F5F5F5F5F5F5F5F5F5F5F5F5F5F5F5F5F5F5F5F5F5F5F5F5F5
310
F5F5F5F5F5F5F5F5F5F5F5F5F5F5F5F5F5F5F5F5F5F5F5F5E2F5F5F5F5F5F5F5F5F5F5F5F5F5F5F5F5E2F5F5F5F5E2E2F5F5F5F5E2F5F5F5F5F5F5F5F5F5F5F5F5F5F5F5F5E2F5F5F5F5F5F5F5F5F5F5F5F5F5F5F5F5F5F5F5F5F5F5F5F5F5F5F5F5F5F5F5F5F5F5F5F5F5F5F5F5F5F5F5F5F5F5F5F5F5F5F5F5F5F5F5F5F5
310
F5F5F5F5F5F5F5F5F5F5F5F5F5F5F5F5F5F5F5F5F5F5F5F5F5F5F5F5F5F5F5F5F5F5F5F5F5F5F5F5F5F5F5F5F5F5F5F5F5F5F5F5F5F5F5F5F5F5F5F5F5F5F5F5F5F5F5F5F5F5F5F5F5F5F5F5F5E2F5F5F5F5F5F5F5F5F5F5F5F5F5F5F5F5E2F5F5F5F5E2E2F5F5F5F5F5F5F5F5F5F5F5F5F5F5F5F5F5F5F5F5F5E2F5F5F5F5
310
F5F5F5F5F5F5F5F5F5F5F5F5F5F5F5F5F5F5F5F5F5F5F5F5F5F5F5F5F5F5F5F5F5F5F5F5F5F5F5F5F5F5F5F5F5F5F5F5F5F5F5F5F5F5F5F5F5F5F5F5F5F5F5F5F5F5F5F5F5F5F5F5F5F5F5F5F5F5F5F5F5F5F5F5F5F5F5F5F5F5F5F5F5F5F5F5F5F5F5F5F5F5F5F5F5F5F5F5F5F5F5F5F5F5F5F5F5F5F5F5F5F5F5F5F5F5F5
310
F5F5F5E2F5F5F5F5F5F5F5F5F5F5F5F5F5F5F5F5F5F5F5F5F5E2E2F5F5F5F5F5F5F5F5F5F5F5F5F5F5F5F5F5F5F5F5F5E2F5F5F5F5F5F5F5F5F5F5F5F5F5F5F5F5F5F5F5F5F5F5F5F5F5F5F5F5F5F5F5F5F5F5F5F5F5F5F5F5F5F5F5F5F5F5F5F5F5F5F5F5F5F5F5F5F5F5F5F5F5F5F5F5F5F5F5F5F5F5F5F5F5F5F5F5F5F5
310
F5F5F5F5F5F5F5F5F5F5F5F5F5F5F5F5F5F5F5F5F5F5F5F5F5F5F5F5F5F5F5F5F5F5F5F5F5F5F5F5F5F5F5F5F5F5F5F5F5F5F5F5F5F5F5F5E2F5F5F5F5F5F5F5F5F5F5F5F5F5F5F5F5F5F5F5F5F5E2E2F5F5F5F5F5F5F5F5F5F5F5F5F5F5F5F5F5F5F5F5F5E2F5F5F5F5F5F5F5F5F5F5F5F5F5F5F5F5F5F5F5F5F5F5F5F5F5
310
F5F5F5F5F5F5F5F5F5F5F5F5F5F5F5F5F5F5F5F5F5F5F5F5F5F5F5F5F5F5F5F5F5F5F5F5F5F5F5F5F5F5F5F5F5F5F5F5F5F5F5F5F5F5F5F5F5F5F5F5F5F5F5F5F5F5F5F5F5F5F5F5F5F5F5F5F5F5F5F5F5F5F5F5F5F5F5F5F5F5F5F5F5F5F5F5F5F5F5F5F5F5F5F5F5F5F5F5F5E2F5F5F5F5F5F5F5F5F5F5F5F5F5F5F5F5F5
310
F5F5F5F5E2E2F5F5F5F5F5F5F5F5F5F5F5F5F5F5F5F5F5F5F5F5F5E2F5F5F5F5F5F5F5F5F5F5F5F5F5F5F5F5F5F5F5F5F5F5F5F5F5F5F5F5F5F5F5F5F5F5F5F5F5F5F5F5F5F5F5F5F5F5F5F5F5F5F5F5F5F5F5F5F5F5F5F5F5F5F5F5F5F5F5F5F5F5F5F5F5F5F5F5F5F5F5F5F5F5F5F5F5F5F5F5F5F5F5F5F5F5F5F5F5F5F5
310
F5F5F5F5F5F5F5F5F5F5F5F5F5F5F5F5F5F5F5F5F5F5F5F5F5F5F5F5F5F5F5F5F5F5F5E2F5F5F5F5F5F5F5F5F5F5F5F5F5F5F5F5F5F5F5F5F5E2E2F5F5F5F5F5F5F5F5F5F5F5F5F5F5F5F5F5F5F5F5F5E2E2E2E2E2E2E2E2E2E2E2E2E2E2E2E2E2E2E2E2E2E2E2E2E2E2E2E2E2E2E2E2E2E2E2E2E2E2E2E2E2E2E2E2E2E2E2
310
E2E2E2E2E2E2E2E2E2E2E2E2E2E2E2E2E2E2E2E2E2E2E2E2E2E2E2E2E2E2E2E2E2E2E2E2E2E2E2E2E2E2E2E2E2E2E2E2E2E2E2E2E2E2E2E2E2E2E2E2E2E2E2E2E2E2E2E2E2E2E2E2E2E2E2E2E2E2E2E2E2E2E2E2E2E2E2E2E2F5F5F5F5F5F5F5F5F5F5F5F5F5F5F5F5F5F5F5F5F5E2E2F5F5F5F5F5F5F5F5F5F5F5F5F5F5F5
310
F5F5F5F5F5F5F5F5F5F5F5F5F5F5F5F5F5F5F5F5F5F5F5F5F5F5F5F5F5F5F5F5F5F5F5F5F5F5F5F5F5F5F5F5F5F5F5F5F5F5F5F5F5F5F5F5F5F5F5F5F5F5F5F5F5F5F5F5F5F5F5F5F5F5F5F5F5F5F5F5F5F5F5F5F5F5F5F5F5F5F5F5F5F5F5F5F5F5F5F5F5F5F5F5F5F5F5F5F5F5F5F5F5F5F5F5F5F5F5F5F5F5F5F5F5F5F5
310
F5F5F5F5F5F5F5F5F5F5F5F5F5F5F5F5F5F5F5F5F5F5F5F5F5F5F5F5F5F5F5F5F5F5F5F5E2E2F5F5F5F5F5F5F5F5F5F5F5F5F5F5F5F5F5F5F5F5F5F5F5F5F5F5F5F5F5F5F5F5F5F5F5F5F5F5F5F5F5F5F5F5F5F5F5F5F5F5F5F5F5F5F5F5F5F5F5F5F5F5F5F5F5F5F5F5F5F5F5F5F5F5F5F5F5F5F5F5F5F5F5F5F5F5F5F5F5
310
F5F5F5F5F5F5F5F5F5F5F5F5F5F5F5F5F5F5F5F5F5F5F5F5F5F5F5F5F5F5F5F5F5F5F5F5F5F5F5F5F5F5F5F5F5F5F5F5F5F5F5F5F5F5F5F5F5F5F5F5F5F5F5F5F5F5F5F5F5F5F5F5F5F5F5F5F5F5F5F5F5F5F5F5F5F5F5F5F5E2E2F5F5F5F5F5F5F5F5F5F5F5F5F5F5F5F5F5F5F5F5F5F5F5F5F5F5F5F5F5F5F5F5F5F5F5F5
310
F5F5F5F5F5F5F5F5F5F5F5F5F5F5F5F5F5F5F5F5F5F5F5F5F5F5F5F5F5F5F5F5F5F5F5F5F5F5F5F5F5F5F5F5F5F5F5F5F5F5F5F5F5F5F5F5F5F5F5F5F5F5F5F5F5F5F5F5F5F5F5F5F5F5F5F5F5F5F5F5F5F5F5F5F5F5F5F5F5F5F5F5F5F5F5F5F5F5F5F5F5F5F5F5F5F5F5F5F5F5F5F5F5F5F5F5F5F5F5F5F5F5F5F5F5F5F5
310
F5F5F5F5F5F5F5F5F5F5F5F5F5F5F5E2E2F5F5F5F5F5F5F5F5F5F5F5F5F5F5F5F5F5F5F5F5F5F5F5F5F5F5F5F5F5F5F5F5F5F5F5F5F5F5F5F5F5F5F5F5F5F5F5F5F5F5F5F5F5F5F5F5F5F5F5F5F5F5F5F5F5F5F5F5F5F5F5F5F5F5F5F5F5F5F5F5F5F5F5F5F5F5F5F5F5F5F5F5F5F5F5F5F5F5F5F5F5F5F5F5F5F5F5F5F5F5
310
F5F5F5F5F5F5F5F5F5F5F5F5F5F5F5F5F5F5F5F5F5F5F5F5F5F5F5F5F5F5F5F5F5F5F5F5F5F5F5F5F5F5F5F5F5F5F5F5F5F5F5F5F5F5F5F5F5F5F5F5F5F5F5F5F5F5F5F5E2E2F5F5F5F5E2F5F5F5F5F5F5F5F5F5F5F5F5F5F5F5F5F5F5F5F5F5F5F5F5F5F5F5F5F5F5F5F5F5F5F5F5F5F5F5F5F5F5F5F5F5F5F5F5F5F5F5F5
310
F5F5F5F5F5F5F5F5F5F5F5F5F5F5F5F5F5F5F5F5F5F5F5F5F5F5F5F5F5F5F5F5F5F5F5F5F5F5F5F5F5F5F5F5F5F5F5F5F5F5F5F5F5F5F5F5F5F5F5F5F5F5F5F5F5F5F5F5F5F5F5F5F5F5F5F5F5F5F5F5F5F5F5F5F5F5F5F5F5F5F5F5F5F5F5F5F5F5F5F5F5F5F5F5F5F5F5F5F5F5F5F5F5F5F5F5E2F5F5F5F5E2E2F5F5F5F5
310
E2F5F5F5F5F5F5F5F5F5F5F5F5F5F5F5F5F5F5F5F5F5F5F5F5F5F5F5F5F5F5F5F5F5F5F5F5F5F5F5F5F5F5F5F5F5F5F5F5F5F5F5F5F5F5F5F5F5F5F5F5F5F5F5F5F5F5F5F5F5F5F5F5F5F5F5F5F5F5F5F5F5F5F5F5F5F5F5F5F5F5F5F5F5F5F5F5F5F5F5F5F5F5F5F5F5F5F5F5F5F5F5F5F5F5F5F5F5F5F5F5F5F5F5F5F5F5
310
F5F5F5F5F5F5F5F5F5F5F5F5F5F5F5F5F5F5F5F5F5F5F5F5F5F5F5F5F5F5F5F5F5F5F5F5F5F5F5F5F5F5E2F5F5F5F5E2E2F5F5F5F5E2F5F5F5F5F5F5F5F5F5F5F5F5F5F5F5F5F5F5F5F5F5F5F5F5F5F5F5F5F5F5F5F5F5F5F5F5F5F5F5F5F5F5F5F5F5F5F5F5F5F5F5F5F5F5F5F5F5F5F5F5F5F5F5F5F5F5F5F5F5F5F5F5F5
310
F5F5F5F5F5F5F5F5F5F5F5F5F5F5F5F5F5F5F5F5F5F5F5F5F5F5F5F5F5F5F5F5F5F5F5F5F5F5F5F5F5F5F5F5F5F5F5F5F5F5F5F5F5F5F5F5F5F5F5F5F5F5F5F5F5F5F5F5F5F5F5F5F5F5F5F5F5F5F5F5F5F5F5F5F5F5F5F5F5F5F5F5F5F5F5E2F5F5F5F5E2E2F5F5F5F5E2F5F5F5F5F5F5F5F5F5F5F5F5F5F5F5F5F5F5F5F5
310
F5F5F5F5F5F5F5F5F5F5F5F5F5F5F5F5F5F5F5F5F5F5F5F5F5F5F5F5F5F5F5F5F5F5F5F5F5F5F5F5F5F5F5F5F5F5F5F5F5F5F5F5F5F5F5F5F5F5F5F5F5F5F5F5F5F5F5F5F5F5F5F5F5F5F5F5F5F5F5F5F5F5F5F5F5F5F5F5F5F5F5F5F5F5F5F5F5F5F5F5F5F5F5F5F5F5F5F5F5F5F5F5F5F5F5F5F5F5F5F5F5F5F5F5F5F5F5
310
F5F5F5F5F5F5F5F5F5F5F5F5F5F5F5F5F5F5F5F5F5E2F5F5F5F5E2E2F5F5F5F5E2F5F5F5F5F5F5F5F5F5F5F5F5F5F5F5F5F5F5F5F5F5F5F5F5F5F5F5F5F5F5F5F5F5F5F5F5F5F5F5F5F5F5F5F5F5F5F5F5F5F5F5F5F5F5F5F5F5F5F5F5F5F5F5F5F5F5F5F5F5F5F5F5F5F5F5F5F5F5F5F5F5F5F5F5F5F5F5F5F5F5F5F5F5F5
310
F5F5F5F5F5F5F5F5F5F5F5F5F5F5F5F5F5F5F5F5F5F5F5F5F5F5F5F5F5F5F5F5F5F5F5F5F5F5F5F5F5F5F5F5F5F5F5F5F5F5F5F5F5F5F5F5F5F5F5F5F5F5F5F5F5F5F5F5F5F5F5F5F5F5E2F5F5F5F5E2E2F5F5F5F5E2F5F5F5F5F5F5F5F5F5F5F5F5F5F5F5F5F5F5F5F5F5F5F5F5F5F5F5F5F5F5F5F5F5F5F5F5F5F5F5F5F5
310
F5F5F5F5F5F5F5F5F5F5F5F5F5F5F5F5F5F5F5F5F5F5F5F5F5F5F5F5F5F5F5F5F5F5F5F5F5F5F5F5F5F5F5F5F5F5F5F5F5F5F5F5F5F5F5F5F5F5F5F5F5F5F5F5F5F5F5F5F5F5F5F5F5F5F5F5F5F5F5F5F5F5F5F5F5F5F5F5F5F5F5F5F5F5F5F5F5F5F5F5F5F5F5F5F5F5F5F5F5F5F5F5F5F5F5F5F5F5F5F5F5F5F5F5F5F5F5
310
E2F5F5F5F5E2E2F5F5F5F5E2F5F5F5F5F5F5F5F5F5F5F5F5F5F5F5F5F5F5F5F5F5F5F5F5F5F5F5F5F5F5F5F5F5F5F5F5F5F5F5F5F5F5F5F5F5F5F5F5F5F5F5F5F5F5F5F5F5F5F5F5F5F5F5F5F5F5F5F5F5F5F5F5F5F5F5F5F5F5F5F5F5F5F5F5F5F5F5F5F5F5F5F5F5F5F5F5F5F5F5F5F5F5F5F5F5F5F5F5F5F5F5F5F5F5F5
310
F5F5F5F5F5F5F5F5F5F5F5F5F5F5F5F5F5F5F5F5F5F5F5F5F5F5F5F5F5F5F5F5F5F5F5F5F5F5F5F5F5F5F5F5F5F5F5F5F5F5F5F5F5E2F5F5F5F5E2E2F5F5F5F5E2F5F5F5F5F5F5F5F5F5F5F5F5F5F5F5F5F5F5F5F5F5F5F5F5F5F5F5F5F5F5F5F5F5F5F5F5F5F5F5F5F5F5F5F5F5F5F5F5F5F5F5F5F5F5F5F5F5F5F5F5F5F5
310
F5F5F5F5F5F5F5F5F5F5F5F5F5F5F5F5F5F5F5F5F5F5F5F5F5F5F5F5F5F5F5F5F5F5F5F5F5F5F5F5F5F5F5F5F5F5F5F5F5F5F5F5F5F5F5F5F5F5F5F5F5F5F5F5F5F5F5F5F5F5F5F5F5F5F5F5F5F5F5F5F5F5F5F5F5F5F5F5F5F5F5F5F5F5F5F5F5F5F5F5F5F5F5F5F5F5E2F5F5F5F5E2E2F5F5F5F5E2E2E2E2E2E2E2E2F5F5
310
F5F5F5F5F5F5F5E2E2E2E2E2E2E2E2E2E2E2E2E2E2E2F5F5F5F5F5F5F5F5F5E2E2E2E2E2E2E2E2E2E2E2E2E2E2E2E2F5F5F5F5F5F5F5F5E2E2E2E2E2E2E2E2E2E2E2E2E2E2E2E2F5F5F5F5F5F5F5F5E2E2E2E2E2E2E2E2E2E2E2E2E2E2E2E2F5F5F5F5F5F5F5F5E2E2E2E2E2E2E2E2E2E2E2E2E2E2E2E2F5F5F5F5F5F5F5F5
310
F5E2E2E2E2E2E2E2E2E2E2E2E2E2E2E2F5F5F5F5F5F5F5F5F5E2E2E2E2E2E2E2E2F5F5F5F5E2E2F5F5F5F5F5F5F5F5F5F5F5F5F5F5F5F5F5F5F5F5F5F5F5F5F5F5F5F5F5F5F5F5F5F5F5F5F5F5F5F5F5F5F5F5F5F5F5F5F5F5F5F5F5F5F5F5F5F5F5F5F5F5F5F5F5F5F5F5F5F5F5F5F5F5F5F5F5F5F5F5F5F5F5F5F5F5F5F5
310
F5F5F5F5F5F5F5F5F5F5F5F5F5F5F5F5F5F5F5F5F5F5F5F5F5F5F5F5F5F5F5F5F5F5F5F5F5F5F5F5F5F5F5F5F5F5F5F5F5F5F5F5F5F5F5F5F5F5F5F5F5F5F5F5F5F5F5F5F5F5F5F5F5F5F5F5F5F5F5F5F5F5F5F5F5F5F5F5F5F5E2E2F5F5F5F5F5F5F5F5F5F5F5F5F5F5F5F5F5F5F5F5F5F5F5F5F5F5F5F5F5F5F5F5F5F5F5
310
F5F5F5F5F5F5F5F5F5F5F5F5F5F5F5F5F5F5F5F5F5F5F5F5F5F5F5F5F5F5F5F5F5F5F5F5F5F5F5F5F5F5F5F5F5F5F5F5F5F5F5F5F5F5F5F5F5F5F5F5F5F5F5F5F5F5F5F5F5F5F5F5F5F5F5F5F5F5F5F5F5F5F5F5F5F5F5F5F5F5F5F5F5F5F5F5F5F5F5F5F5F5F5F5F5F5F5F5F5F5F5F5F5F5F5F5F5F5F5F5F5F5F5F5F5F5F5
310
F5F5F5F5F5F5F5F5F5F5F5F5F5F5F5F5E2E2F5F5F5F5F5F5F5F5F5F5F5F5F5F5F5F5F5F5F5F5F5F5F5F5F5F5F5F5F5F5F5F5F5F5F5F5F5F5F5F5F5F5F5F5F5F5F5F5F5F5F5F5F5F5F5F5F5F5F5F5F5F5F5F5F5F5F5F5F5F5F5F5F5F5F5F5F5F5F5F5F5F5F5F5F5F5F5F5F5F5F5F5F5F5F5F5F5F5F5F5F5F5F5F5F5F5F5F5F5
310
F5F5F5F5F5F5F5F5F5F5F5F5F5F5F5F5F5F5F5F5F5F5F5F5F5F5F5F5F5F5F5F5F5F5F5F5F5F5F5F5F5F5F5F5F5F5F5F5F5F5F5F5F5F5F5F5F5F5F5F5F5F5F5F5F5F5F5F5F5E2E2E2E2E2E2E2E2E2E2E2E2E2E2E2E2E2E2E2E2E2E2E2E2E2E2E2E2E2E2E2E2E2E2E2E2E2E2E2E2E2E2E2E2E2E2E2E2E2E2E2E2E2E2E2E2E2E2
310
E2E2E2E2E2E2E2E2E2E2E2E2E2E2E2E2E2E2E2E2E2E2E2E2E2E2E2E2E2E2E2E2E2E2E2E2E2E2E2E2E2E2E2E2E2E2E2E2E2E2E2E2E2E2E2E2E2E2E2E2E2E2E2E2E2E2E2E2E2E2E2E2E2E2E2E2E2E2E2E2E2E2E2E2E2E2E2E2E2E2E2E2E2E2E2E2E2E2E2E2E2E2E2E2E2E2E2E2E2E2E2E2E2E2E2E2E2E2E2E2E2E2E2EFEFEFEF
310
EFEFEFEFEFEFEFEFEFEFEFEFEFEFEFEFEFEFEFEFEFEFEFEFEFEFEFEFEFEFEFEFEFEFEFEFEFEFEFEFEFEFEFEFEFEFEFEFEFEFEFEFEFEFEFEFEFEFEFEFEFEFEFEFEFEFEFEFEFEFEFEFEFEFEFEFEFEFEFEFEFEFEFEFEFEFEFEFEFEFEFEFEFEFEFEFEFEFEFEFEFEFEFEFEFEFEFEFEFEFEFEFEFEFEFEFEFEFEFEFEFEFEFEFEFEFEF
310
EFEFEFEFEFEFEFEFEFEFEFEFEFEFEFEFEFEFEFEFEFEFEFEFEFEFEFEFEFEFEFEFEFEFEFEFEFEFEFEFEFEFEFEFEFEFEFEFEF
  0
XRECORD
  5
647FF
102
{ACAD_REACTORS
330
B5
102
}
330
B5
100
AcDbXrecord
280
     1
102
SHADEPLOT
 70
     0
102
SHADEPLOTRESLEVEL
 70
     2
102
SHADEPLOTCUSTOMDPI
 70
   300
  0
XRECORD
  5
B6
102
{ACAD_REACTORS
330
B5
102
}
330
B5
100
AcDbXrecord
280
     1
310
28000000B40000008B0000000100080000000000BC610000000000000000000000010000000000000000000000000000FFFFFF000000000000000000000000000000000000000000000000000000000000000000330000006600000099000000CC000000FF00000000330000333300006633000099330000CC330000FF3300
310
0000660000336600006666000099660000CC660000FF66000000990000339900006699000099990000CC990000FF99000000CC000033CC000066CC000099CC0000CCCC0000FFCC000000FF000033FF000066FF000099FF0000CCFF0000FFFF000000003300330033006600330099003300CC003300FF003300003333003333
310
33006633330099333300CC333300FF33330000663300336633006666330099663300CC663300FF66330000993300339933006699330099993300CC993300FF99330000CC330033CC330066CC330099CC3300CCCC3300FFCC330000FF330033FF330066FF330099FF3300CCFF3300FFFF330000006600330066006600660099
310
006600CC006600FF00660000336600333366006633660099336600CC336600FF33660000666600336666006666660099666600CC666600FF66660000996600339966006699660099996600CC996600FF99660000CC660033CC660066CC660099CC6600CCCC6600FFCC660000FF660033FF660066FF660099FF6600CCFF6600
310
FFFF660000009900330099006600990099009900CC009900FF00990000339900333399006633990099339900CC339900FF33990000669900336699006666990099669900CC669900FF66990000999900339999006699990099999900CC999900FF99990000CC990033CC990066CC990099CC9900CCCC9900FFCC990000FF99
310
0033FF990066FF990099FF9900CCFF9900FFFF99000000CC003300CC006600CC009900CC00CC00CC00FF00CC000033CC003333CC006633CC009933CC00CC33CC00FF33CC000066CC003366CC006666CC009966CC00CC66CC00FF66CC000099CC003399CC006699CC009999CC00CC99CC00FF99CC0000CCCC0033CCCC0066CC
310
CC0099CCCC00CCCCCC00FFCCCC0000FFCC0033FFCC0066FFCC0099FFCC00CCFFCC00FFFFCC000000FF003300FF006600FF009900FF00CC00FF00FF00FF000033FF003333FF006633FF009933FF00CC33FF00FF33FF000066FF003366FF006666FF009966FF00CC66FF00FF66FF000099FF003399FF006699FF009999FF00CC
310
99FF00FF99FF0000CCFF0033CCFF0066CCFF0099CCFF00CCCCFF00FFCCFF0000FFFF0033FFFF0066FFFF0099FFFF00CCFFFF00FFFFFF00000000000D0D0D001A1A1A00282828003535350043434300505050005D5D5D006B6B6B00787878008686860093939300A1A1A100AEAEAE00BBBBBB00C9C9C900D6D6D600E4E4E400
310
F1F1F100FFFFFF0000000000000000000000000000000000000000000000000000000000000000000000000000000000F5F5F5F5F5F5F5F5F5F5F5F5F5F5F5F5F5F5F5F5F5F5F5F5F5F5F5F5F5F5F5F5F5F5F5F5F5F5F5F5F5F5F5F5F5F5F5F5F5F5F5F5F5F5F5F5F5F5F5F5F5F5F5F5F5F5F5F5F5F5F5F5F5F5F5F5F5F5F5
310
F5F5F5F5F5F5F5F5F5F5F5F5F5F5F5F5F5F5F5F5F5F5F5F5F5F5F5F5F5F5F5F5F5F5F5F5F5F5F5F5F5F5F5F5F5F5F5F5F5F5F5F5F5F5F5F5F5F5F5F5F5F5F5F5F5F5F5F5F5F5F5F5F5F5F5F5F5F5F5F5F5F5F5F5F5F5F5F5F5F5F5F5F5F5F5F5F5F5F5F5F5F5E2E2E2E2E2E2E2E2E2E2E2E2E2E2E2E2E2E2E2E2E2E2E2E2E2
310
E2E2E2E2E2E2E2E2E2E2E2E2E2E2E2E2E2E2E2E2E2E2E2E2E2E2E2E2E2E2E2E2E2E2E2E2E2E2E2E2E2E2E2E2E2E2E2E2E2E2E2E2E2E2E2E2E2E2E2E2E2E2E2E2E2E2E2E2E2E2E2E2E2E2E2E2E2E2E2E2E2E2E2E2E2E2E2E2E2E2E2E2E2E2E2E2E2E2E2E2E2E2E2E2E2E2E2E2E2E2E2E2E2E2E2E2E2E2E2E2E2E2E2E2E2E2E2
310
E2E2E2E2E2E2E2E2E2E2E2E2E2E2E2E2E2E2E2E2E2E2E2E2E2E2F5F5E2E2E2E2E2E2E2E2E2E2E2E2E2E2E2E2E2E2E2E2E2E2E2E2E2E2E2E2E2E2E2E2E2E2E2E2E2E2E2E2E2E2E2E2E2E2E2E2E2E2E2E2E2E2E2E2E2E2E2E2E2E2E2E2E2E2E2E2E2E2E2E2E2E2E2E2E2E2E2E2E2E2E2E2E2E2E2E2E2E2E2E2E2E2E2E2E2E2E2
310
E2E2E2E2E2E2E2E2E2E2E2E2E2E2E2E2E2E2E2E2E2E2E2E2E2E2E2E2E2E2E2E2E2E2E2E2E2E2E2E2E2E2E2E2E2E2E2E2E2E2E2E2E2E2E2E2E2E2E2E2E2E2E2E2E2E2E2E2E2E2E2E2E2E2E2E2E2E2E2F5F5E2E2E2E2E2E2E2E2E2E2E2E2E2E2E2E2E2E2E2E2E2E2E2E2E2E2E2E2E2E2E2E2E2E2E2E2E2E2E2E2E2E2E2E2E2E2
310
E2E2E2E2E2E2E2E2E2E2E2E2E2E2E2E2E2E2E2E2E2E2E2E2E2E2E2E2E2E2E2E2E2E2E2E2E2E2E2E2E2E2E2E2E2E2E2E2E2E2E2E2E2E2E2E2E2E2E2E2E2E2E2E2E2E2E2E2E2E2E2E2E2E2E2E2E2E2E2E2E2E2E2E2E2E2E2E2E2E2E2E2E2E2E2E2E2E2E2E2E2E2E2E2E2E2E2E2E2E2E2E2E2E2E2E2E2E2E2E2E2E2E2E2E2E2E2
310
E2E2E2E2E2F5F5E2E2E2E2E2E2E2E2E2E2E2E2E2E2E2E2E2E2E2E2E2E2E2E2E2E2E2E2E2E2E2E2E2E2E2E2E2E2E2E2E2E2E2E2E2E2E2E2E2E2E2E2E2E2E2E2E2E2E2E2E2E2E2E2E2E2E2E2E2E2E2E2E2E2E2E2E2E2E2E2E2E2E2E2E2E2E2E2E2E2E2E2E2E2E2E2E2E2E2E2E2E2E2E2E2E2E2E2E2E2E2E2E2E2E2E2E2E2E2E2
310
E2E2E2E2E2E2E2E2E2E2E2E2E2E2E2E2E2E2E2E2E2E2E2E2E2E2E2E2E2E2E2E2E2E2E2E2E2E2E2E2E2E2E2E2E2E2E2E2E2E2E2E2E2E2E2E2E2E2F5F5E2E2E2F5F5F5F5F5F5F5F5E2E2E2E2E2E2E2E2E2F5F5F5F5F5F5F5F5F5F5F5F5F5F5F5F5E2E2E2E2E2E2E2E2E2F5F5F5F5F5F5F5F5F5F5F5F5F5F5F5E2E2E2E2E2E2E2
310
E2E2F5F5F5F5F5F5F5F5F5F5F5F5F5F5F5F5E2E2E2E2E2E2E2E2F5F5F5F5F5F5F5F5F5F5F5F5F5F5F5F5E2E2E2E2E2E2E2E2E2F5F5F5F5F5F5F5F5F5F5F5F5F5F5F5E2E2E2E2E2E2E2E2E2F5F5F5F5F5F5F5F5F5F5F5F5F5F5F5F5E2E2E2E2E2E2E2E2E2F5F5F5F5F5F5F5F5E2E2E2F5F5E2E2E2F5E2E2E2E2E2E2E2E2E2E2
310
E2E2E2E2E2E2E2E2E2E2E2E2E2E2E2E2E2E2E2E2E2E2E2E2E2E2E2E2E2E2E2E2E2E2E2E2E2E2E2E2E2E2E2E2E2E2E2E2E2E2E2E2E2E2E2E2E2E2E2E2E2E2E2E2E2E2E2E2E2E2E2E2E2E2E2E2E2E2E2E2E2E2E2E2E2E2E2E2E2E2E2E2E2E2E2E2E2E2E2E2E2E2E2E2E2E2E2E2E2E2E2E2E2E2E2E2E2E2E2E2E2E2E2E2E2E2E2
310
E2E2E2E2E2E2E2E2E2E2E2E2E2E2E2E2E2E2E2E2E2E2E2E2E2E2E2E2E2E2E2E2E2F5E2E2E2F5F5E2E2E2F5E2E2E2E2E2E2E2E2E2E2E2E2E2E2E2E2E2E2E2E2E2E2E2E2E2E2E2E2E2E2E2E2E2E2E2E2E2E2E2E2E2E2E2E2E2E2E2E2E2E2E2E2E2E2E2E2E2E2E2E2E2E2E2E2E2E2E2E2E2E2E2E2E2E2E2E2E2E2E2E2E2E2E2E2
310
E2E2E2E2E2E2E2E2E2E2E2E2E2E2E2E2E2E2E2E2E2E2E2E2E2E2E2E2E2E2E2E2E2E2E2E2E2E2E2E2E2E2E2E2E2E2E2E2E2E2E2E2E2E2E2E2E2E2E2E2E2E2E2E2E2E2E2E2E2E2E2E2E2E2E2E2E2E2E2E2E2E2E2E2E2E2F5E2E2E2F5F5E2E2E2F5E2E2E2E2E2E2E2E2E2E2E2E2E2E2E2E2E2E2E2E2E2E2E2E2E2E2E2E2E2E2E2
310
E2E2E2E2E2E2E2E2E2E2E2E2E2E2E2E2E2E2E2E2E2E2E2E2E2E2E2E2E2E2E2E2E2E2E2E2E2E2E2E2E2E2E2E2E2E2E2E2E2E2E2E2E2E2E2E2E2E2E2E2E2E2E2E2E2E2E2E2E2E2E2E2E2E2E2E2E2E2E2E2E2E2E2E2E2E2E2E2E2E2E2E2E2E2E2E2E2E2E2E2E2E2E2E2E2E2E2E2E2E2E2E2E2E2E2E2E2E2E2E2E2E2E2E2E2E2E2
310
E2E2E2E2E2E2E2E2E2E2E2E2F5E2E2E2F5F5E2E2E2F5E2E2E2E2E2E2E2E2E2E2E2E2E2E2E2E2E2E2E2E2E2E2E2E2E2E2E2E2E2E2E2E2E2E2E2E2E2E2E2E2E2E2E2E2E2E2E2E2E2E2E2E2E2E2E2E2E2E2E2E2E2E2E2E2E2E2E2E2E2E2E2E2E2E2E2E2E2E2E2E2E2E2E2E2E2E2E2E2E2E2E2E2E2E2E2E2E2E2E2E2E2E2E2E2E2
310
E2E2E2E2E2E2E2E2E2E2E2E2E2E2E2E2E2E2E2E2E2E2E2E2E2E2E2E2E2E2E2E2E2E2E2E2E2E2E2E2E2E2E2E2E2E2E2E2E2E2E2E2E2E2E2E2E2E2E2E2E2E2E2E2E2F5E2E2E2F5F5E2E2E2F5E2E2E2E2E2E2E2E2E2E2E2E2E2E2E2E2E2E2E2E2E2E2E2E2E2E2E2E2E2E2E2E2E2E2E2E2E2E2E2E2E2E2E2E2E2E2E2E2E2E2E2E2
310
E2E2E2E2E2E2E2E2E2E2E2E2E2E2E2E2E2E2E2E2E2E2E2E2E2E2E2E2E2E2E2E2E2E2E2E2E2E2E2E2E2E2E2E2E2E2E2E2E2E2E2E2E2E2E2E2E2E2E2E2E2E2E2E2E2E2E2E2E2E2E2E2E2E2E2E2E2E2E2E2E2E2E2E2E2E2E2E2E2E2E2E2E2E2E2E2E2E2E2E2E2E2E2E2E2E2E2E2E2E2E2E2E2E2E2E2E2E2F5E2E2E2F5F5E2E2E2
310
F5E2E2E2E2E2E2E2E2E2E2E2E2E2E2E2E2E2E2E2E2E2E2E2E2E2E2E2E2E2E2E2E2E2E2E2E2E2E2E2E2E2E2E2E2E2E2E2E2E2E2E2E2E2E2E2E2E2E2E2E2E2E2E2E2E2E2E2E2E2E2E2E2E2E2E2E2E2E2E2E2E2E2E2E2E2E2E2E2E2E2E2E2E2E2E2E2E2E2E2E2E2E2E2E2E2E2E2E2E2E2E2E2E2E2E2E2E2E2E2E2E2E2E2E2E2E2
310
E2E2E2E2E2E2E2E2E2E2E2E2E2E2E2E2E2E2E2E2E2E2E2E2E2E2E2E2E2E2E2E2E2E2E2E2E2E2E2E2E2E2E2E2F5E2E2E2F5F5E2E2E2F5E2E2E2E2E2E2E2E2E2E2E2E2E2E2E2E2E2E2E2E2E2E2E2E2E2E2E2E2E2E2E2E2E2E2E2E2E2E2E2E2E2E2E2E2E2E2E2E2E2E2E2E2E2E2E2E2E2E2E2E2E2E2E2E2E2E2E2E2E2E2E2E2E2
310
E2E2E2E2E2E2E2E2E2E2E2E2E2E2E2E2E2E2E2E2E2E2E2E2E2E2E2E2E2E2E2E2E2E2E2E2E2E2E2E2E2E2E2E2E2E2E2E2E2E2E2E2E2E2E2E2E2E2E2E2E2E2E2E2E2E2E2E2E2E2E2E2E2E2E2E2E2E2E2E2E2E2E2E2E2E2E2E2E2E2E2E2E2E2E2E2E2F5E2E2E2F5F5E2E2E2F5E2E2E2E2E2E2E2E2E2E2E2E2E2E2E2E2E2E2E2E2
310
E2E2E2E2E2E2E2E2E2E2E2E2E2E2E2E2E2E2E2E2E2E2E2E2E2E2E2E2E2E2E2E2E2E2E2E2E2E2E2E2E2E2E2E2E2E2E2E2E2E2E2E2E2E2E2E2E2E2E2E2E2E2E2E2E2E2E2E2E2E2E2E2E2E2E2E2E2E2E2E2E2E2E2E2E2E2E2E2E2E2E2E2E2E2E2E2E2E2E2E2E2E2E2E2E2E2E2E2E2E2E2E2E2E2E2E2E2E2E2E2E2E2E2E2E2E2E2
310
E2E2E2E2E2E2E2E2E2E2E2E2E2E2E2E2E2E2E2E2E2E2E2F5E2E2E2F5F5E2E2E2E2E2E2E2E2E2E2E2E2E2E2E2E2E2E2E2E2E2E2E2E2E2E2E2E2E2E2E2E2E2E2E2E2E2E2E2E2E2E2E2E2E2E2E2E2E2E2E2E2E2E2E2E2E2E2E2E2E2E2E2E2E2E2E2E2E2E2E2E2E2E2E2E2E2E2E2E2E2E2E2E2E2E2E2E2E2E2E2E2E2E2E2E2E2E2
310
E2E2E2E2E2E2E2E2E2E2E2E2E2E2E2E2E2E2E2E2E2E2E2E2E2E2E2E2E2E2E2E2E2E2E2E2E2E2E2E2E2E2E2E2E2E2E2E2E2E2E2E2E2E2E2E2E2E2E2E2E2E2E2E2E2E2E2E2E2E2E2E2E2E2E2E2E2E2E2E2F5F5E2E2E2E2E2E2E2E2E2E2E2E2E2E2E2E2E2E2E2E2E2E2E2E2E2E2E2E2E2E2E2E2E2E2E2E2E2E2E2E2E2E2E2E2E2
310
E2E2E2E2E2E2E2E2E2E2E2E2E2E2E2E2E2E2E2E2E2E2E2E2E2E2E2E2E2E2E2E2E2E2E2E2E2E2E2E2E2E2E2E2E2E2E2E2E2E2E2E2E2E2E2E2E2E2E2E2E2E2E2E2E2E2E2E2E2E2E2E2E2E2E2E2E2E2E2E2E2E2E2E2E2E2E2E2E2E2E2E2E2E2E2E2E2E2E2E2E2E2E2E2E2E2E2E2E2E2E2E2E2E2E2E2E2E2E2E2E2E2E2E2E2E2E2
310
E2E2E2E2E2E2F5F5E2E2E2E2E2E2E2E2E2E2E2E2E2E2E2E2E2E2E2E2E2E2E2E2E2E2E2E2E2E2E2E2E2E2E2E2E2E2E2E2E2E2E2E2E2E2E2E2E2E2E2E2E2E2E2E2E2E2E2E2E2E2E2E2E2E2E2E2E2E2E2E2E2E2E2E2E2E2E2E2E2E2E2E2E2E2E2E2E2E2E2E2E2E2E2E2E2E2E2E2E2E2E2E2E2E2E2E2E2E2E2E2E2E2E2E2E2E2E2
310
E2E2E2E2E2E2E2E2E2E2E2E2E2E2E2E2E2E2E2E2E2E2E2E2E2E2E2E2E2E2E2E2E2E2E2E2E2E2E2E2E2E2E2E2E2E2E2E2E2E2E2E2E2E2E2E2E2E2E2F5F5E2E2E2E2E2E2E2E2E2E2E2E2E2E2E2E2E2E2E2E2E2E2E2E2E2E2E2E2E2E2E2E2E2E2E2E2E2E2E2E2E2E2E2E2E2E2E2E2E2E2E2E2E2E2E2E2E2E2E2E2E2E2E2E2E2E2
310
E2E2E2E2E2E2E2E2E2E2E2E2E2E2E2E2E2E2E2E2E2E2E2E2E2E2E2E2E2E2E2E2E2E2E2E2E2E2E2E2E2E2E2E2E2E2E2E2E2E2E2E2E2E2E2E2E2E2E2E2E2E2E2E2E2E2E2E2E2E2E2E2E2E2E2E2E2E2E2E2E2E2E2E2E2E2E2E2E2E2E2E2E2E2E2E2E2E2E2E2E2E2E2E2E2E2E2E2E2E2E2E2F5F5E2E2E2E2E2E2E2E2E2E2E2E2E2
310
E2E2E2E2E2E2E2F5F5F5F5F5F5F5F5F5F5F5F5F5F5F5F5F5F5F5F5F5F5F5F5F5F5F5F5F5F5F5F5F5F5F5F5F5F5F5F5F5F5F5F5F5F5F5F5F5F5F5F5F5F5F5F5F5F5F5F5F5F5F5F5F5F5F5F5F5F5F5F5F5F5F5F5F5F5F5F5F5F5F5F5F5F5F5F5F5F5F5F5F5F5F5F5F5F5F5F5F5F5F5F5F5F5F5F5F5F5F5F5F5F5F5F5F5F5F5F5
310
F5F5F5F5F5F5F5F5F5F5F5F5F5F5F5F5F5F5E2E2E2E2E2E2E2E2E2E2E2E2E2E2E2E2E2E2E2E2F5F5E2E2E2E2E2E2E2E2E2E2E2E2E2E2E2E2E2E2E2E2F5E2E2E2E2E2E2E2E2E2E2E2E2E2E2E2E2E2E2E2E2E2E2E2E2E2E2E2E2E2E2E2E2E2E2E2E2E2E2E2E2E2E2E2E2E2E2E2E2E2E2E2E2E2E2E2E2E2E2E2E2E2E2E2E2E2E2
310
E2E2E2E2E2E2E2E2E2E2E2E2E2E2E2E2E2E2E2E2E2E2E2E2E2E2E2E2E2E2E2E2E2E2E2E2E2E2E2E2E2E2E2E2E2E2E2E2E2E2E2E2E2E2E2E2E2E2E2E2E2E2E2E2E2E2E2E2E2E2F5E2E2E2E2E2E2E2E2E2E2E2E2E2E2E2E2E2E2E2E2F5F5E2E2E2E2E2E2E2E2E2E2E2E2E2E2E2E2E2E2E2E2F5E2E2E2E2E2E2E2E2E2E2E2E2E2
310
E2E2E2E2E2E2E2E2E2E2E2E2E2E2E2E2E2E2E2E2E2E2E2E2E2E2E2E2E2E2E2E2E2E2E2E2E2E2E2E2E2E2E2E2E2E2E2E2E2E2E2E2E2E2E2E2E2E2E2E2E2E2E2E2E2E2E2E2E2E2E2E2E2E2E2E2E2E2E2E2E2E2E2E2E2E2E2E2E2E2E2E2E2E2E2E2E2E2E2E2E2E2E2E2E2E2E2E2E2E2E2E2E2E2E2E2E2E2E2E2E2E2E2F5E2E2E2
310
E2E2E2E2E2E2E2E2E2E2E2E2E2E2E2E2E2F5F5E2E2E2E2E2E2E2E2E2E2E2E2E2E2E2E2E2E2E2E2F5E2E2E2E2E2E2E2E2E2E2E2E2E2E2E2E2E2E2E2E2E2E2E2E2E2E2E2E2E2E2E2E2E2E2E2E2E2E2E2E2E2E2E2E2E2E2E2E2E2E2E2E2E2E2E2E2E2E2E2E2E2E2E2E2E2E2E2E2E2E2E2E2E2E2E2E2E2E2E2E2E2E2E2E2E2E2E2
310
E2E2E2E2E2E2E2E2E2E2E2E2E2E2E2E2E2E2E2E2E2E2E2E2E2E2E2E2E2E2E2E2E2E2E2E2E2E2E2E2E2E2E2E2E2E2E2E2E2F5E2E2E2E2E2E2E2E2E2E2E2E2E2E2E2E2E2E2E2E2F5F5E2E2E2E2E2E2E2E2E2E2E2E2E2E2E2E2E2E2E2E2F5E2E2E2E2E2E2E2E2E2E2E2E2E2E2E2E2E2E2E2E2E2E2E2E2E2E2E2E2E2E2E2E2E2E2
310
E2E2E2E2E2E2E2E2E2E2E2E2E2E2E2E2E2E2E2E2E2E2E2E2E2E2E2E2E2E2E2E2E2E2E2E2E2E2E2E2E2E2E2E2E2E2E2E2E2E2E2E2E2E2E2E2E2E2E2E2E2E2E2E2E2E2E2E2E2E2E2E2E2E2E2E2E2E2E2E2E2E2E2E2E2E2E2E2E2E2E2E2E2E2E2E2E2E2E2E2E2E2F5E2E2E2E2E2E2E2E2E2E2E2E2E2E2E2E2E2E2E2E2F5F5E2E2
310
E2F5E2E2E2E2E2E2E2E2E2E2E2E2E2E2E2E2F5E2E2E2E2E2E2E2E2E2E2E2E2E2E2E2E2E2E2E2E2E2E2E2E2E2E2E2E2E2E2E2E2E2E2E2E2E2E2E2E2E2E2E2E2E2E2E2E2E2E2E2E2E2E2E2E2E2E2E2E2E2E2E2E2E2E2E2E2E2E2E2E2E2E2E2E2E2E2E2E2E2E2E2E2E2E2E2E2E2E2E2E2E2E2E2E2E2E2E2E2E2E2E2E2E2E2E2E2
310
E2E2E2E2E2E2E2E2E2E2E2E2E2E2E2E2E2E2E2E2E2E2E2E2E2E2E2E2F5E2E2E2E2E2E2E2E2E2E2E2E2E2E2E2E2F5E2E2E2F5F5E2E2E2F5E2E2E2E2E2E2E2E2E2E2E2E2E2E2E2E2F5E2E2E2E2E2E2E2E2E2E2E2E2E2E2E2E2E2E2E2E2E2E2E2E2E2E2E2E2E2E2E2E2E2E2E2E2E2E2E2E2E2E2E2E2E2E2E2E2E2E2E2E2E2E2E2
310
E2E2E2E2E2E2E2E2E2E2E2E2E2E2E2E2E2E2E2E2E2E2E2E2E2E2E2E2E2E2E2E2E2E2E2E2E2E2E2E2E2E2E2E2E2E2E2E2E2E2E2E2E2E2E2E2E2E2E2E2E2E2E2E2E2E2E2E2E2E2E2E2E2E2E2E2E2E2E2E2E2F5E2E2E2E2E2E2E2E2E2E2E2E2E2E2E2E2F5E2E2E2F5F5E2E2E2F5E2E2E2E2E2E2E2E2E2E2E2E2E2E2E2E2F5E2E2
310
E2E2E2E2E2E2E2E2E2E2E2E2E2E2E2E2E2E2E2E2E2E2E2E2E2E2E2E2E2E2E2E2E2E2E2E2E2E2E2E2E2E2E2E2E2E2E2E2E2E2E2E2E2E2E2E2E2E2E2E2E2E2E2E2E2E2E2E2E2E2E2E2E2E2E2E2E2E2E2E2E2E2E2E2E2E2E2E2E2E2E2E2E2E2E2E2E2E2E2E2E2E2E2E2E2E2E2E2E2E2E2E2E2E2E2E2E2E2E2E2E2E2E2E2E2E2E2
310
E2E2E2E2E2E2E2F5E2E2E2E2E2E2E2E2E2E2E2E2E2E2E2E2F5E2E2E2F5F5E2E2E2F5E2E2E2E2E2E2E2E2E2E2E2E2E2E2E2E2F5E2E2E2E2E2E2E2E2E2E2E2E2E2E2E2E2E2E2E2E2E2E2E2E2E2E2E2E2E2E2E2E2E2E2E2E2E2E2E2E2E2E2E2E2E2E2E2E2E2E2E2E2E2E2E2E2E2E2E2E2E2E2E2E2E2E2E2E2E2E2E2E2E2E2E2E2
310
E2E2E2E2E2E2E2E2E2E2E2E2E2E2E2E2E2E2E2E2E2E2E2E2E2E2E2E2E2E2E2E2E2E2E2E2E2E2E2E2E2E2E2E2E2E2E2E2E2E2E2E2E2E2E2E2E2E2E2E2F5E2E2E2E2E2E2E2E2E2E2E2E2E2E2E2E2F5E2E2E2F5F5E2E2E2F5E2E2E2E2E2E2E2E2E2E2E2E2E2E2E2E2F5E2E2E2E2E2E2E2E2E2E2E2E2E2E2E2E2E2E2E2E2E2E2E2
310
E2E2E2E2E2E2E2E2E2E2E2E2E2E2E2E2E2E2E2E2E2E2E2E2E2E2E2E2E2E2E2E2E2E2E2E2E2E2E2E2E2E2E2E2E2E2E2E2E2E2E2E2E2E2E2E2E2E2E2E2E2E2E2E2E2E2E2E2E2E2E2E2E2E2E2E2E2E2E2E2E2E2E2E2E2E2E2E2E2E2E2E2E2E2E2E2E2E2E2E2E2E2E2E2E2E2E2E2E2E2E2E2E2F5E2E2E2E2E2E2E2E2E2E2E2E2E2
310
E2E2E2F5E2E2E2F5F5E2E2E2F5E2E2E2E2E2E2E2E2E2E2E2E2E2E2E2E2F5E2E2E2E2E2E2E2E2E2E2E2E2E2E2E2E2E2E2E2E2E2E2E2E2E2E2E2E2E2E2E2E2E2E2E2E2E2E2E2E2E2E2E2E2E2E2E2E2E2E2E2E2E2E2E2E2E2E2E2E2E2E2E2E2E2E2E2E2E2E2E2E2E2E2E2E2E2E2E2E2E2E2E2E2E2E2E2E2E2E2E2E2E2E2E2E2E2
310
E2E2E2E2E2E2E2E2E2E2E2E2E2E2E2E2E2E2E2E2E2E2E2E2E2E2E2E2E2E2E2E2E2E2E2E2E2E2E2F5E2E2E2E2E2E2E2E2E2E2E2E2E2E2E2E2F5E2E2E2F5F5E2E2E2F5E2E2E2E2E2E2E2E2E2E2E2E2E2E2E2E2F5E2E2E2E2E2E2E2E2E2E2E2E2E2E2E2E2E2E2E2E2E2E2E2E2E2E2E2E2E2E2E2E2E2E2E2E2E2E2E2E2E2E2E2E2
310
E2E2E2E2E2E2E2E2E2E2E2E2E2E2E2E2E2E2E2E2E2E2E2E2E2E2E2E2E2E2E2E2E2E2E2E2E2E2E2E2E2E2E2E2E2E2E2E2E2E2E2E2E2E2E2E2E2E2E2E2E2E2E2E2E2E2E2E2E2E2E2E2E2E2E2E2E2E2E2E2E2E2E2E2E2E2E2E2E2E2E2E2F5E2E2E2E2E2E2E2E2E2E2E2E2E2E2E2E2F5E2E2E2F5F5E2E2E2F5E2E2E2E2E2E2E2E2
310
E2E2E2E2E2E2E2E2F5E2E2E2E2E2E2E2E2E2E2E2E2E2E2E2E2E2E2E2E2E2E2E2E2E2E2E2E2E2E2E2E2E2E2E2E2E2E2E2E2E2E2E2E2E2E2E2E2E2E2E2E2E2E2E2E2E2E2E2E2E2E2E2E2E2E2E2E2E2E2E2E2E2E2E2E2E2E2E2E2E2E2E2E2E2E2E2E2E2E2E2E2E2E2E2E2E2E2E2E2E2E2E2E2E2E2E2E2E2E2E2E2E2E2E2E2E2E2
310
E2E2E2E2E2E2E2E2E2E2E2E2E2E2E2E2E2E2F5E2E2E2E2E2E2E2E2E2E2E2E2E2E2E2E2F5E2E2E2F5F5E2E2E2F5E2E2E2E2E2E2E2E2E2E2E2E2E2E2E2E2F5E2E2E2E2E2E2E2E2E2E2E2E2E2E2E2E2E2E2E2E2E2E2E2E2E2E2E2E2E2E2E2E2E2E2E2E2E2E2E2E2E2E2E2E2E2E2E2E2E2E2E2E2E2E2E2E2E2E2E2E2E2E2E2E2E2
310
E2E2E2E2E2E2E2E2E2E2E2E2E2E2E2E2E2E2E2E2E2E2E2E2E2E2E2E2E2E2E2E2E2E2E2E2E2E2E2E2E2E2E2E2E2E2E2E2E2E2E2E2E2E2E2E2E2E2E2E2E2E2E2E2E2E2E2E2E2E2E2F5E2E2E2E2E2E2E2E2E2E2E2E2E2E2E2E2F5E2E2E2F5F5E2E2E2F5E2E2E2E2E2E2E2E2E2E2E2E2E2E2E2E2F5E2E2E2E2E2E2E2E2E2E2E2E2
310
E2E2E2E2E2E2E2E2E2E2E2E2E2E2E2E2E2E2E2E2E2E2E2E2E2E2E2E2E2E2E2E2E2E2E2E2E2E2E2E2E2E2E2E2E2E2E2E2E2E2E2E2E2E2E2E2E2E2E2E2E2E2E2E2E2E2E2E2E2E2E2E2E2E2E2E2E2E2E2E2E2E2E2E2E2E2E2E2E2E2E2E2E2E2E2E2E2E2E2E2E2E2E2E2E2E2E2E2E2E2E2E2E2E2E2E2E2E2E2E2E2E2E2E2F5E2E2
310
E2E2E2E2E2E2E2E2E2E2E2E2E2E2F5E2E2E2F5F5E2E2E2F5E2E2E2E2E2E2E2E2E2E2E2E2E2E2E2E2F5E2E2E2E2E2E2E2E2E2E2E2E2E2E2E2E2E2E2E2E2E2E2E2E2E2E2E2E2E2E2E2E2E2E2E2E2E2E2E2E2E2E2E2E2E2E2E2E2E2E2E2E2E2E2E2E2E2E2E2E2E2E2E2E2E2E2E2E2E2E2E2E2E2E2E2E2E2E2E2E2E2E2E2E2E2E2
310
E2E2E2E2E2E2E2E2E2E2E2E2E2E2E2E2E2E2E2E2E2E2E2E2E2E2E2E2E2E2E2E2E2E2E2E2E2E2E2E2E2E2E2E2E2E2E2E2E2E2F5E2E2E2E2E2E2E2E2E2E2E2E2E2E2E2E2F5E2E2E2F5F5E2E2E2F5E2E2E2E2E2E2E2E2E2E2E2E2E2E2E2E2F5E2E2E2E2E2E2E2E2E2E2E2E2E2E2E2E2E2E2E2E2E2E2E2E2E2E2E2E2E2E2E2E2E2
310
E2E2E2E2E2E2E2E2E2E2E2E2E2E2E2E2E2E2E2E2E2E2E2E2E2E2E2E2E2E2E2E2E2E2E2E2E2E2E2E2E2E2E2E2E2E2E2E2E2E2E2E2E2E2E2E2E2E2E2E2E2E2E2E2E2E2E2E2E2E2E2E2E2E2E2E2E2E2E2E2E2E2E2E2E2E2E2E2E2E2E2E2E2E2E2E2E2E2E2E2E2E2E2F5E2E2E2E2E2E2E2E2E2E2E2E2E2E2E2E2F5E2E2E2F5F5E2
310
E2E2F5E2E2E2E2E2E2E2E2E2E2E2E2E2E2E2E2F5E2E2E2E2E2E2E2E2E2E2E2E2E2E2E2E2E2E2E2E2E2E2E2E2E2E2E2E2E2E2E2E2E2E2E2E2E2E2E2E2E2E2E2E2E2E2E2E2E2E2E2E2E2E2E2E2E2E2E2E2E2E2E2E2E2E2E2E2E2E2E2E2E2E2E2E2E2E2E2E2E2E2E2E2E2E2E2E2E2E2E2E2E2E2E2E2E2E2E2E2E2E2E2E2E2E2E2
310
E2E2E2E2E2E2E2E2E2E2E2E2E2E2E2E2E2E2E2E2E2E2E2E2E2E2E2E2E2F5E2E2E2E2E2E2E2E2E2E2E2E2E2E2E2E2F5E2E2E2F5F5E2E2E2F5E2E2E2E2E2E2E2E2E2E2E2E2E2E2E2E2F5E2E2E2E2E2E2E2E2E2E2E2E2E2E2E2E2E2E2E2E2E2E2E2E2E2E2E2E2E2E2E2E2E2E2E2E2E2E2E2E2E2E2E2E2E2E2E2E2E2E2E2E2E2E2
310
E2E2E2E2E2E2E2E2E2E2E2E2E2E2E2E2E2E2E2E2E2E2E2E2E2E2E2E2E2E2E2E2E2E2E2E2E2E2E2E2E2E2E2E2E2E2E2E2E2E2E2E2E2E2E2E2E2E2E2E2E2E2E2E2E2E2E2E2E2E2E2E2E2E2E2E2E2E2E2E2E2E2F5E2E2E2E2E2E2E2E2E2E2E2E2E2E2E2E2F5E2E2E2F5F5E2E2E2F5E2E2E2E2E2E2E2E2E2E2E2E2E2E2E2E2F5E2
310
E2E2E2E2E2E2E2E2E2E2E2E2E2E2E2E2E2E2E2E2E2E2E2E2E2E2E2E2E2E2E2E2E2E2E2E2E2E2E2E2E2E2E2E2E2E2E2E2E2E2E2E2E2E2E2E2E2E2E2E2E2E2E2E2E2E2E2E2E2E2E2E2E2E2E2E2E2E2E2E2E2E2E2E2E2E2E2E2E2E2E2E2E2E2E2E2E2E2E2E2E2E2E2E2E2E2E2E2E2E2E2E2E2E2E2E2E2E2E2E2E2E2E2E2E2E2E2
310
E2E2E2E2E2E2E2E2F5E2E2E2E2E2E2E2E2E2E2E2E2E2E2E2E2F5E2E2E2F5F5E2E2E2F5E2E2E2E2E2E2E2E2E2E2E2E2E2E2E2E2F5E2E2E2E2E2E2E2E2E2E2E2E2E2E2E2E2E2E2E2E2E2E2E2E2E2E2E2E2E2E2E2E2E2E2E2E2E2E2E2E2E2E2E2E2E2E2E2E2E2E2E2E2E2E2E2E2E2E2E2E2E2E2E2E2E2E2E2E2E2E2E2E2E2E2E2
310
E2E2E2E2E2E2E2E2E2E2E2E2E2E2E2E2E2E2E2E2E2E2E2E2E2E2E2E2E2E2E2E2E2E2E2E2E2E2E2E2E2E2E2E2E2E2E2E2E2E2E2E2E2E2E2E2E2E2E2E2E2F5E2E2E2E2E2E2E2E2E2E2E2E2E2E2E2E2F5E2E2E2F5F5E2E2E2F5E2E2E2E2E2E2E2E2E2E2E2E2E2E2E2E2F5E2E2E2E2E2E2E2E2E2E2E2E2E2E2E2E2E2E2E2E2E2E2
310
E2E2E2E2E2E2E2E2E2E2E2E2E2E2E2E2E2E2E2E2E2E2E2E2E2E2E2E2E2E2E2E2E2E2E2E2E2E2E2E2E2E2E2E2E2E2E2E2E2E2E2E2E2E2E2E2E2E2E2E2E2E2E2E2E2E2E2E2E2E2E2E2E2E2E2E2E2E2E2E2E2E2E2E2E2E2E2E2E2E2E2E2E2E2E2E2E2E2E2E2E2E2E2E2E2E2E2E2E2E2E2E2E2E2F5E2E2E2E2E2E2E2E2E2E2E2E2
310
E2E2E2E2F5E2E2E2F5F5E2E2E2E2E2E2E2E2E2E2E2E2E2E2E2E2E2E2E2E2F5E2E2E2E2E2E2E2E2E2E2E2E2E2E2E2E2E2E2E2E2E2E2E2E2E2E2E2E2E2E2E2E2E2E2E2E2E2E2E2E2E2E2E2E2E2E2E2E2E2E2E2E2E2E2E2E2E2E2E2E2E2E2E2E2E2E2E2E2E2E2E2E2E2E2E2E2E2E2E2E2E2E2E2E2E2E2E2E2E2E2E2E2E2E2E2E2
310
E2E2E2E2E2E2E2E2E2E2E2E2E2E2E2E2E2E2E2E2E2E2E2E2E2E2E2E2E2E2E2E2E2E2E2E2E2E2E2E2F5E2E2E2E2E2E2E2E2E2E2E2E2E2E2E2E2E2E2E2E2F5F5E2E2E2E2E2E2E2E2E2E2E2E2E2E2E2E2E2E2E2E2F5E2E2E2E2E2E2E2E2E2E2E2E2E2E2E2E2E2E2E2E2E2E2E2E2E2E2E2E2E2E2E2E2E2E2E2E2E2E2E2E2E2E2E2
310
E2E2E2E2E2E2E2E2E2E2E2E2E2E2E2E2E2E2E2E2E2E2E2E2E2E2E2E2E2E2E2E2E2E2E2E2E2E2E2E2E2E2E2E2E2E2E2E2E2E2E2E2E2E2E2E2E2E2E2E2E2E2E2E2E2E2E2E2E2E2E2E2E2E2E2E2E2E2E2E2E2E2E2E2E2E2E2E2E2E2E2E2E2F5E2E2E2E2E2E2E2E2E2E2E2E2E2E2E2E2E2E2E2E2F5F5E2E2E2E2E2E2E2E2E2E2E2
310
E2E2E2E2E2E2E2E2E2F5E2E2E2E2E2E2E2E2E2E2E2E2E2E2E2E2E2E2E2E2E2E2E2E2E2E2E2E2E2E2E2E2E2E2E2E2E2E2E2E2E2E2E2E2E2E2E2E2E2E2E2E2E2E2E2E2E2E2E2E2E2E2E2E2E2E2E2E2E2E2E2E2E2E2E2E2E2E2E2E2E2E2E2E2E2E2E2E2E2E2E2E2E2E2E2E2E2E2E2E2E2E2E2E2E2E2E2E2E2E2E2E2E2E2E2E2E2
310
E2E2E2E2E2E2E2E2E2E2E2E2E2E2E2E2E2E2E2F5E2E2E2E2E2E2E2E2E2E2E2E2E2E2E2E2E2E2E2E2F5F5E2E2E2E2E2E2E2E2E2E2E2E2E2E2E2E2E2E2E2E2F5E2E2E2E2E2E2E2E2E2E2E2E2E2E2E2E2E2E2E2E2E2E2E2E2E2E2E2E2E2E2E2E2E2E2E2E2E2E2E2E2E2E2E2E2E2E2E2E2E2E2E2E2E2E2E2E2E2E2E2E2E2E2E2E2
310
E2E2E2E2E2E2E2E2E2E2E2E2E2E2E2E2E2E2E2E2E2E2E2E2E2E2E2E2E2E2E2E2E2E2E2E2E2E2E2E2E2E2E2E2E2E2E2E2E2E2E2E2E2E2E2E2E2E2E2E2E2E2E2E2E2E2E2E2E2E2E2E2F5E2E2E2E2E2E2E2E2E2E2E2E2E2E2E2E2E2E2E2E2F5F5E2E2E2E2E2E2E2E2E2E2E2E2E2E2E2E2E2E2E2E2F5E2E2E2E2E2E2E2E2E2E2E2
310
E2E2E2E2E2E2E2E2E2E2E2E2E2E2E2E2E2E2E2E2E2E2E2E2E2E2E2E2E2E2E2E2E2E2E2E2E2E2E2E2E2E2E2E2E2E2E2E2E2E2E2E2E2E2E2E2E2E2E2E2E2E2E2E2E2E2E2E2E2E2E2E2E2E2E2E2E2E2E2E2E2E2E2E2E2E2E2E2E2E2E2E2E2E2E2E2E2E2E2E2E2E2E2E2E2E2E2E2E2E2E2E2E2E2E2E2E2E2E2E2E2E2E2E2E2F5E2
310
E2E2E2E2E2E2E2E2E2E2E2E2E2E2E2E2E2E2E2F5F5E2E2E2E2E2E2E2E2E2E2E2E2E2E2E2E2E2E2E2E2F5E2E2E2E2E2E2E2E2E2E2E2E2E2E2E2E2E2E2E2E2E2E2E2E2E2E2E2E2E2E2E2E2E2E2E2E2E2E2E2E2E2E2E2E2E2E2E2E2E2E2E2E2E2E2E2E2E2E2E2E2E2E2E2E2E2E2E2E2E2E2E2E2E2E2E2E2E2E2E2E2E2E2E2E2E2
310
E2E2E2E2E2E2E2E2E2E2E2E2E2E2E2E2E2E2E2E2E2E2E2E2E2E2E2E2E2E2E2E2E2E2E2E2E2E2E2E2E2E2E2E2E2E2E2E2E2E2E2F5E2E2E2E2E2E2E2E2E2E2E2E2E2E2E2E2E2E2E2E2F5F5E2E2E2E2E2E2E2E2E2E2E2E2E2E2E2E2E2E2E2E2F5E2E2E2E2E2E2E2E2E2E2E2E2E2E2E2E2E2E2E2E2E2E2E2E2E2E2E2E2E2E2E2E2
310
E2E2E2E2E2E2E2E2E2E2E2E2E2E2E2E2E2E2E2E2E2E2E2E2E2E2E2E2E2E2E2E2E2E2E2E2E2E2E2E2E2E2E2E2E2E2E2E2E2E2E2E2E2E2E2E2E2E2E2E2E2E2E2E2E2E2E2E2E2E2E2E2E2E2E2E2E2E2E2E2E2E2E2E2E2E2E2E2E2E2E2E2E2E2E2E2E2E2E2E2E2E2E2E2F5E2E2E2E2E2E2E2E2E2E2E2E2E2E2E2E2E2E2E2E2F5F5
310
E2E2E2E2E2E2E2E2E2E2E2E2E2E2E2E2E2E2E2E2F5E2E2E2E2E2E2E2E2E2E2E2E2E2E2E2E2E2E2E2E2E2E2E2E2E2E2E2E2E2E2E2E2E2E2E2E2E2E2E2E2E2E2E2E2E2E2E2E2E2E2E2E2E2E2E2E2E2E2E2E2E2E2E2E2E2E2E2E2E2E2E2E2E2E2E2E2E2E2E2E2E2E2E2E2E2E2E2E2E2E2E2E2E2E2E2E2E2E2E2E2E2E2E2E2E2E2
310
E2E2E2E2E2E2E2E2E2E2E2E2E2E2E2E2E2E2E2E2E2E2E2E2E2E2E2E2E2E2F5E2E2E2E2E2E2E2E2E2E2E2E2E2E2E2E2E2E2E2E2F5F5E2E2E2E2E2E2E2E2E2E2E2E2E2E2E2E2E2E2E2E2F5E2E2E2E2E2E2E2E2E2E2E2E2E2E2E2E2E2E2E2E2E2E2E2E2E2E2E2E2E2E2E2E2E2E2E2E2E2E2E2E2E2E2E2E2E2E2E2E2E2E2E2E2E2
310
E2E2E2E2E2E2E2E2E2E2E2E2E2E2E2E2E2E2E2E2E2E2E2E2E2E2E2E2E2E2E2E2E2E2E2E2E2E2E2E2E2E2E2E2E2E2E2E2E2E2E2E2E2E2E2E2E2E2E2E2E2E2E2E2E2E2E2E2E2E2E2E2E2E2E2E2E2E2E2E2E2E2E2F5E2E2E2E2E2E2E2E2E2E2E2E2E2E2E2E2E2E2E2E2F5F5E2E2E2F5E2E2E2E2E2E2E2E2E2E2E2E2E2E2E2E2F5
310
E2E2E2E2E2E2E2E2E2E2E2E2E2E2E2E2E2E2E2E2E2E2E2E2E2E2E2E2E2E2E2E2E2E2E2E2E2E2E2E2E2E2E2E2E2E2E2E2E2E2E2E2E2E2E2E2E2E2E2E2E2E2E2E2E2E2E2E2E2E2E2E2E2E2E2E2E2E2E2E2E2E2E2E2E2E2E2E2E2E2E2E2E2E2E2E2E2E2E2E2E2E2E2E2E2E2E2E2E2E2E2E2E2E2E2E2E2E2E2E2E2E2E2E2E2E2E2
310
E2E2E2E2E2E2E2E2E2F5E2E2E2E2E2E2E2E2E2E2E2E2E2E2E2E2F5E2E2E2F5F5E2E2E2F5E2E2E2E2E2E2E2E2E2E2E2E2E2E2E2E2F5E2E2E2E2E2E2E2E2E2E2E2E2E2E2E2E2E2E2E2E2E2E2E2E2E2E2E2E2E2E2E2E2E2E2E2E2E2E2E2E2E2E2E2E2E2E2E2E2E2E2E2E2E2E2E2E2E2E2E2E2E2E2E2E2E2E2E2E2E2E2E2E2E2E2
310
E2E2E2E2E2E2E2E2E2E2E2E2E2E2E2E2E2E2E2E2E2E2E2E2E2E2E2E2E2E2E2E2E2E2E2E2E2E2E2E2E2E2E2E2E2E2E2E2E2E2E2E2E2E2E2E2E2E2E2E2E2E2F5E2E2E2E2E2E2E2E2E2E2E2E2E2E2E2E2F5E2E2E2F5F5E2E2E2F5E2E2E2E2E2E2E2E2E2E2E2E2E2E2E2E2F5E2E2E2E2E2E2E2E2E2E2E2E2E2E2E2E2E2E2E2E2E2
310
E2E2E2E2E2E2E2E2E2E2E2E2E2E2E2E2E2E2E2E2E2E2E2E2E2E2E2E2E2E2E2E2E2E2E2E2E2E2E2E2E2E2E2E2E2E2E2E2E2E2E2E2E2E2E2E2E2E2E2E2E2E2E2E2E2E2E2E2E2E2E2E2E2E2E2E2E2E2E2E2E2E2E2E2E2E2E2E2E2E2E2E2E2E2E2E2E2E2E2E2E2E2E2E2E2E2E2E2E2E2E2E2E2E2E2F5E2E2E2E2E2E2E2E2E2E2E2
310
E2E2E2E2E2F5E2E2E2F5F5E2E2E2F5E2E2E2E2E2E2E2E2E2E2E2E2E2E2E2E2F5E2E2E2E2E2E2E2E2E2E2E2E2E2E2E2E2E2E2E2E2E2E2E2E2E2E2E2E2E2E2E2E2E2E2E2E2E2E2E2E2E2E2E2E2E2E2E2E2E2E2E2E2E2E2E2E2E2E2E2E2E2E2E2E2E2E2E2E2E2E2E2E2E2E2E2E2E2E2E2E2E2E2E2E2E2E2E2E2E2E2E2E2E2E2E2
310
E2E2E2E2E2E2E2E2E2E2E2E2E2E2E2E2E2E2E2E2E2E2E2E2E2E2E2E2E2E2E2E2E2E2E2E2E2E2E2E2E2F5E2E2E2E2E2E2E2E2E2E2E2E2E2E2E2E2F5E2E2E2F5F5E2E2E2F5E2E2E2E2E2E2E2E2E2E2E2E2E2E2E2E2F5E2E2E2E2E2E2E2E2E2E2E2E2E2E2E2E2E2E2E2E2E2E2E2E2E2E2E2E2E2E2E2E2E2E2E2E2E2E2E2E2E2E2
310
E2E2E2E2E2E2E2E2E2E2E2E2E2E2E2E2E2E2E2E2E2E2E2E2E2E2E2E2E2E2E2E2E2E2E2E2E2E2E2E2E2E2E2E2E2E2E2E2E2E2E2E2E2E2E2E2E2E2E2E2E2E2E2E2E2E2E2E2E2E2E2E2E2E2E2E2E2E2E2E2E2E2E2E2E2E2E2E2E2E2E2E2E2E2F5E2E2E2E2E2E2E2E2E2E2E2E2E2E2E2E2F5E2E2E2F5F5E2E2E2F5E2E2E2E2E2E2
310
E2E2E2E2E2E2E2E2E2E2F5E2E2E2E2E2E2E2E2E2E2E2E2E2E2E2E2E2E2E2E2E2E2E2E2E2E2E2E2E2E2E2E2E2E2E2E2E2E2E2E2E2E2E2E2E2E2E2E2E2E2E2E2E2E2E2E2E2E2E2E2E2E2E2E2E2E2E2E2E2E2E2E2E2E2E2E2E2E2E2E2E2E2E2E2E2E2E2E2E2E2E2E2E2E2E2E2E2E2E2E2E2E2E2E2E2E2E2E2E2E2E2E2E2E2E2E2
310
E2E2E2E2E2E2E2E2E2E2E2E2E2E2E2E2E2E2E2E2F5E2E2E2E2E2E2E2E2E2E2E2E2E2E2E2E2F5E2E2E2F5F5E2E2E2F5E2E2E2E2E2E2E2E2E2E2E2E2E2E2E2E2F5E2E2E2E2E2E2E2E2E2E2E2E2E2E2E2E2E2E2E2E2E2E2E2E2E2E2E2E2E2E2E2E2E2E2E2E2E2E2E2E2E2E2E2E2E2E2E2E2E2E2E2E2E2E2E2E2E2E2E2E2E2E2E2
310
E2E2E2E2E2E2E2E2E2E2E2E2E2E2E2E2E2E2E2E2E2E2E2E2E2E2E2E2E2E2E2E2E2E2E2E2E2E2E2E2E2E2E2E2E2E2E2E2E2E2E2E2E2E2E2E2E2E2E2E2E2E2E2E2E2E2E2E2E2E2E2E2E2F5E2E2E2E2E2E2E2E2E2E2E2E2E2E2E2E2F5E2E2E2F5F5E2E2E2F5E2E2E2E2E2E2E2E2E2E2E2E2E2E2E2E2F5E2E2E2E2E2E2E2E2E2E2
310
E2E2E2E2E2E2E2E2E2E2E2E2E2E2E2E2E2E2E2E2E2E2E2E2E2E2E2E2E2E2E2E2E2E2E2E2E2E2E2E2E2E2E2E2E2E2E2E2E2E2E2E2E2E2E2E2E2E2E2E2E2E2E2E2E2E2E2E2E2E2E2E2E2E2E2E2E2E2E2E2E2E2E2E2E2E2E2E2E2E2E2E2E2E2E2E2E2E2E2E2E2E2E2E2E2E2E2E2E2E2E2E2E2E2E2E2E2E2E2E2E2E2E2E2E2E2F5
310
E2E2E2E2E2E2E2E2E2E2E2E2E2E2E2E2F5E2E2E2F5F5E2E2E2F5E2E2E2E2E2E2E2E2E2E2E2E2E2E2E2E2F5E2E2E2E2E2E2E2E2E2E2E2E2E2E2E2E2E2E2E2E2E2E2E2E2E2E2E2E2E2E2E2E2E2E2E2E2E2E2E2E2E2E2E2E2E2E2E2E2E2E2E2E2E2E2E2E2E2E2E2E2E2E2E2E2E2E2E2E2E2E2E2E2E2E2E2E2E2E2E2E2E2E2E2E2
310
E2E2E2E2E2E2E2E2E2E2E2E2E2E2E2E2E2E2E2E2E2E2E2E2E2E2E2E2E2E2E2E2E2E2E2E2E2E2E2E2E2E2E2E2E2E2E2E2E2E2E2E2F5E2E2E2E2E2E2E2E2E2E2E2E2E2E2E2E2F5E2E2E2F5F5E2E2E2F5E2E2E2E2E2E2E2E2E2E2E2E2E2E2E2E2F5E2E2E2E2E2E2E2E2E2E2E2E2E2E2E2E2E2E2E2E2E2E2E2E2E2E2E2E2E2E2E2
310
E2E2E2E2E2E2E2E2E2E2E2E2E2E2E2E2E2E2E2E2E2E2E2E2E2E2E2E2E2E2E2E2E2E2E2E2E2E2E2E2E2E2E2E2E2E2E2E2E2E2E2E2E2E2E2E2E2E2E2E2E2E2E2E2E2E2E2E2E2E2E2E2E2E2E2E2E2E2E2E2E2E2E2E2E2E2E2E2E2E2E2E2E2E2E2E2E2E2E2E2E2E2E2E2E2F5E2E2E2E2E2E2E2E2E2E2E2E2E2E2E2E2F5E2E2E2F5
310
F5E2E2E2F5E2E2E2E2E2E2E2E2E2E2E2E2E2E2E2E2F5E2E2E2E2E2E2E2E2E2E2E2E2E2E2E2E2E2E2E2E2E2E2E2E2E2E2E2E2E2E2E2E2E2E2E2E2E2E2E2E2E2E2E2E2E2E2E2E2E2E2E2E2E2E2E2E2E2E2E2E2E2E2E2E2E2E2E2E2E2E2E2E2E2E2E2E2E2E2E2E2E2E2E2E2E2E2E2E2E2E2E2E2E2E2E2E2E2E2E2E2E2E2E2E2E2
310
E2E2E2E2E2E2E2E2E2E2E2E2E2E2E2E2E2E2E2E2E2E2E2E2E2E2E2E2E2E2E2F5E2E2E2E2E2E2E2E2E2E2E2E2E2E2E2E2F5E2E2E2F5F5E2E2E2F5E2E2E2E2E2E2E2E2E2E2E2E2E2E2E2E2F5E2E2E2E2E2E2E2E2E2E2E2E2E2E2E2E2E2E2E2E2E2E2E2E2E2E2E2E2E2E2E2E2E2E2E2E2E2E2E2E2E2E2E2E2E2E2E2E2E2E2E2E2
310
E2E2E2E2E2E2E2E2E2E2E2E2E2E2E2E2E2E2E2E2E2E2E2E2E2E2E2E2E2E2E2E2E2E2E2E2E2E2E2E2E2E2E2E2E2E2E2E2E2E2E2E2E2E2E2E2E2E2E2E2E2E2E2E2E2E2E2E2E2E2E2E2E2E2E2E2E2E2E2E2E2E2E2E2F5E2E2E2E2E2E2E2E2E2E2E2E2E2E2E2E2F5E2E2E2F5F5E2E2E2F5E2E2E2E2E2E2E2E2E2E2E2E2E2E2E2E2
310
F5E2E2E2E2E2E2E2E2E2E2E2E2E2E2E2E2E2E2E2E2E2E2E2E2E2E2E2E2E2E2E2E2E2E2E2E2E2E2E2E2E2E2E2E2E2E2E2E2E2E2E2E2E2E2E2E2E2E2E2E2E2E2E2E2E2E2E2E2E2E2E2E2E2E2E2E2E2E2E2E2E2E2E2E2E2E2E2E2E2E2E2E2E2E2E2E2E2E2E2E2E2E2E2E2E2E2E2E2E2E2E2E2E2E2E2E2E2E2E2E2E2E2E2E2E2E2
310
E2E2E2E2E2E2E2E2E2E2F5E2E2E2E2E2E2E2E2E2E2E2E2E2E2E2E2F5E2E2E2F5F5E2E2E2F5E2E2E2E2E2E2E2E2E2E2E2E2E2E2E2E2F5E2E2E2E2E2E2E2E2E2E2E2E2E2E2E2E2E2E2E2E2E2E2E2E2E2E2E2E2E2E2E2E2E2E2E2E2E2E2E2E2E2E2E2E2E2E2E2E2E2E2E2E2E2E2E2E2E2E2E2E2E2E2E2E2E2E2E2E2E2E2E2E2E2
310
E2E2E2E2E2E2E2E2E2E2E2E2E2E2E2E2E2E2E2E2E2E2E2E2E2E2E2E2E2E2E2E2E2E2E2E2E2E2E2E2E2E2E2E2E2E2E2E2E2E2E2E2E2E2E2E2E2E2E2E2E2E2E2F5E2E2E2E2E2E2E2E2E2E2E2E2E2E2E2E2F5E2E2E2F5F5E2E2E2F5E2E2E2E2E2E2E2E2E2E2E2E2E2E2E2E2F5E2E2E2E2E2E2E2E2E2E2E2E2E2E2E2E2E2E2E2E2
310
E2E2E2E2E2E2E2E2E2E2E2E2E2E2E2E2E2E2E2E2E2E2E2E2E2E2E2E2E2E2E2E2E2E2E2E2E2E2E2E2E2E2E2E2E2E2E2E2E2E2E2E2E2E2E2E2E2E2E2E2E2E2E2E2E2E2E2E2E2E2E2E2E2E2E2E2E2E2E2E2E2E2E2E2E2E2E2E2E2E2E2E2E2E2E2E2E2E2E2E2E2E2E2E2E2E2E2E2E2E2E2E2E2E2E2E2F5E2E2E2E2E2E2E2E2E2E2
310
E2E2E2E2E2E2F5E2E2E2F5F5E2E2E2F5E2E2E2E2E2E2E2E2E2E2E2E2E2E2E2E2F5E2E2E2E2E2E2E2E2E2E2E2E2E2E2E2E2E2E2E2E2E2E2E2E2E2E2E2E2E2E2E2E2E2E2E2E2E2E2E2E2E2E2E2E2E2E2E2E2E2E2E2E2E2E2E2E2E2E2E2E2E2E2E2E2E2E2E2E2E2E2E2E2E2E2E2E2E2E2E2E2E2E2E2E2E2E2E2E2E2E2E2E2E2E2
310
E2E2E2E2E2E2E2E2E2E2E2E2E2E2E2E2E2E2E2E2E2E2E2E2E2E2E2E2E2E2E2E2E2E2E2E2E2E2E2E2E2E2F5E2E2E2E2E2E2E2E2E2E2E2E2E2E2E2E2F5E2E2E2F5F5E2E2E2E2E2E2E2E2E2E2E2E2E2E2E2E2E2E2E2E2F5E2E2E2E2E2E2E2E2E2E2E2E2E2E2E2E2E2E2E2E2E2E2E2E2E2E2E2E2E2E2E2E2E2E2E2E2E2E2E2E2E2
310
E2E2E2E2E2E2E2E2E2E2E2E2E2E2E2E2E2E2E2E2E2E2E2E2E2E2E2E2E2E2E2E2E2E2E2E2E2E2E2E2E2E2E2E2E2E2E2E2E2E2E2E2E2E2E2E2E2E2E2E2E2E2E2E2E2E2E2E2E2E2E2E2E2E2E2E2E2E2E2E2E2E2E2E2E2E2E2E2E2E2E2E2E2E2E2F5E2E2E2E2E2E2E2E2E2E2E2E2E2E2E2E2E2E2E2E2F5F5E2E2E2E2E2E2E2E2E2
310
E2E2E2E2E2E2E2E2E2E2E2F5E2E2E2E2E2E2E2E2E2E2E2E2E2E2E2E2E2E2E2E2E2E2E2E2E2E2E2E2E2E2E2E2E2E2E2E2E2E2E2E2E2E2E2E2E2E2E2E2E2E2E2E2E2E2E2E2E2E2E2E2E2E2E2E2E2E2E2E2E2E2E2E2E2E2E2E2E2E2E2E2E2E2E2E2E2E2E2E2E2E2E2E2E2E2E2E2E2E2E2E2E2E2E2E2E2E2E2E2E2E2E2E2E2E2E2
310
E2E2E2E2E2E2E2E2E2E2E2E2E2E2E2E2E2E2E2E2E2F5E2E2E2E2E2E2E2E2E2E2E2E2E2E2E2E2E2E2E2E2F5F5E2E2E2E2E2E2E2E2E2E2E2E2E2E2E2E2E2E2E2E2F5E2E2E2E2E2E2E2E2E2E2E2E2E2E2E2E2E2E2E2E2E2E2E2E2E2E2E2E2E2E2E2E2E2E2E2E2E2E2E2E2E2E2E2E2E2E2E2E2E2E2E2E2E2E2E2E2E2E2E2E2E2E2
310
E2E2E2E2E2E2E2E2E2E2E2E2E2E2E2E2E2E2E2E2E2E2E2E2E2E2E2E2E2E2E2E2E2E2E2E2E2E2E2E2E2E2E2E2E2E2E2E2E2E2E2E2E2E2E2E2E2E2E2E2E2E2E2E2E2E2E2E2E2E2E2E2E2E2F5E2E2E2E2E2E2E2E2E2E2E2E2E2E2E2E2E2E2E2E2F5F5E2E2E2E2E2E2E2E2E2E2E2E2E2E2E2E2E2E2E2E2F5E2E2E2E2E2E2E2E2E2
310
E2E2E2E2E2E2E2E2E2E2E2E2E2E2E2E2E2E2E2E2E2E2E2E2E2E2E2E2E2E2E2E2E2E2E2E2E2E2E2E2E2E2E2E2E2E2E2E2E2E2E2E2E2E2E2E2E2E2E2E2E2E2E2E2E2E2E2E2E2E2E2E2E2E2E2E2E2E2E2E2E2E2E2E2E2E2E2E2E2E2E2E2E2E2E2E2E2E2E2E2E2E2E2E2E2E2E2E2E2E2E2E2E2E2E2E2E2E2E2E2E2E2E2E2E2E2E2
310
F5E2E2E2E2E2E2E2E2E2E2E2E2E2E2E2E2E2E2E2E2F5F5E2E2E2E2E2E2E2E2E2E2E2E2E2E2E2E2E2E2E2E2F5E2E2E2E2E2E2E2E2E2E2E2E2E2E2E2E2E2E2E2E2E2E2E2E2E2E2E2E2E2E2E2E2E2E2E2E2E2E2E2E2E2E2E2E2E2E2E2E2E2E2E2E2E2E2E2E2E2E2E2E2E2E2E2E2E2E2E2E2E2E2E2E2E2E2E2E2E2E2E2E2E2E2E2
310
E2E2E2E2E2E2E2E2E2E2E2E2E2E2E2E2E2E2E2E2E2E2E2E2E2E2E2E2E2E2E2E2E2E2E2E2E2E2E2E2E2E2E2E2E2E2E2E2E2E2E2E2E2F5E2E2E2E2E2E2E2E2E2E2E2E2E2E2E2E2E2E2E2E2F5F5E2E2E2E2E2E2E2E2E2E2E2E2E2E2E2E2E2E2E2E2F5E2E2E2E2E2E2E2E2E2E2E2E2E2E2E2E2E2E2E2E2E2E2E2E2E2E2E2E2E2E2
310
E2E2E2E2E2E2E2E2E2E2E2E2E2E2E2E2E2E2E2E2E2E2E2E2E2E2E2E2E2E2E2E2E2E2E2E2E2E2E2E2E2E2E2E2E2E2E2E2E2E2E2E2E2E2E2E2E2E2E2E2E2E2E2E2E2E2E2E2E2E2E2E2E2E2E2E2E2E2E2E2E2E2E2E2E2E2E2E2E2E2E2E2E2E2E2E2E2E2E2E2E2E2E2E2E2E2F5E2E2E2E2E2E2E2E2E2E2E2E2E2E2E2E2E2E2E2E2
310
F5F5E2E2E2E2E2E2E2E2E2E2E2E2E2E2E2E2E2E2E2E2F5E2E2E2E2E2E2E2E2E2E2E2E2E2E2E2E2E2E2E2E2E2E2E2E2E2E2E2E2E2E2E2E2E2E2E2E2E2E2E2E2E2E2E2E2E2E2E2E2E2E2E2E2E2E2E2E2E2E2E2E2E2E2E2E2E2E2E2E2E2E2E2E2E2E2E2E2E2E2E2E2E2E2E2E2E2E2E2E2E2E2E2E2E2E2E2E2E2E2E2E2E2E2E2E2
310
E2E2E2E2E2E2E2E2E2E2E2E2E2E2E2E2E2E2E2E2E2E2E2E2E2E2E2E2E2E2E2E2F5E2E2E2E2E2E2E2E2E2E2E2E2E2E2E2E2E2E2E2E2F5F5E2E2E2E2E2E2E2E2E2E2E2E2E2E2E2E2E2E2E2E2F5E2E2E2E2E2E2E2E2E2E2E2E2E2E2E2E2E2E2E2E2E2E2E2E2E2E2E2E2E2E2E2E2E2E2E2E2E2E2E2E2E2E2E2E2E2E2E2E2E2E2E2
310
E2E2E2E2E2E2E2E2E2E2E2E2E2E2E2E2E2E2E2E2E2E2E2E2E2E2E2E2E2E2E2E2E2E2E2E2E2E2E2E2E2E2E2E2E2E2E2E2E2E2E2E2E2E2E2E2E2E2E2E2E2E2E2E2E2E2E2E2E2E2E2E2E2E2E2E2E2E2E2E2E2E2E2E2E2F5E2E2E2E2E2E2E2E2E2E2E2E2E2E2E2E2E2E2E2E2F5F5E2E2E2E2E2E2E2E2E2E2E2E2E2E2E2E2E2E2E2
310
E2F5E2E2E2E2E2E2E2E2E2E2E2E2E2E2E2E2E2E2E2E2E2E2E2E2E2E2E2E2E2E2E2E2E2E2E2E2E2E2E2E2E2E2E2E2E2E2E2E2E2E2E2E2E2E2E2E2E2E2E2E2E2E2E2E2E2E2E2E2E2E2E2E2E2E2E2E2E2E2E2E2E2E2E2E2E2E2E2E2E2E2E2E2E2E2E2E2E2E2E2E2E2E2E2E2E2E2E2E2E2E2E2E2E2E2E2E2E2E2E2E2E2E2E2E2E2
310
E2E2E2E2E2E2E2E2E2E2E2F5E2E2E2E2E2E2E2E2E2E2E2E2E2E2E2E2E2E2E2E2F5F5E2E2E2E2E2E2E2E2E2E2E2E2E2E2E2E2E2E2E2E2F5E2E2E2E2E2E2E2E2E2E2E2E2E2E2E2E2E2E2E2E2E2E2E2E2E2E2E2E2E2E2E2E2E2E2E2E2E2E2E2E2E2E2E2E2E2E2E2E2E2E2E2E2E2E2E2E2E2E2E2E2E2E2E2E2E2E2E2E2E2E2E2E2
310
E2E2E2E2E2E2E2E2E2E2E2E2E2E2E2E2E2E2E2E2E2E2E2E2E2E2E2E2E2E2E2E2E2E2E2E2E2E2E2E2E2E2E2E2E2E2E2E2E2E2E2E2E2E2E2E2E2E2E2E2E2E2E2E2F5E2E2E2E2E2E2E2E2E2E2E2E2E2E2E2E2E2E2E2E2F5F5E2E2E2F5E2E2E2E2E2E2E2E2E2E2E2E2E2E2E2E2F5E2E2E2E2E2E2E2E2E2E2E2E2E2E2E2E2E2E2E2
310
E2E2E2E2E2E2E2E2E2E2E2E2E2E2E2E2E2E2E2E2E2E2E2E2E2E2E2E2E2E2E2E2E2E2E2E2E2E2E2E2E2E2E2E2E2E2E2E2E2E2E2E2E2E2E2E2E2E2E2E2E2E2E2E2E2E2E2E2E2E2E2E2E2E2E2E2E2E2E2E2E2E2E2E2E2E2E2E2E2E2E2E2E2E2E2E2E2E2E2E2E2E2E2E2E2E2E2E2E2E2E2E2E2E2E2E2E2F5E2E2E2E2E2E2E2E2E2
310
E2E2E2E2E2E2E2F5E2E2E2F5F5E2E2E2F5E2E2E2E2E2E2E2E2E2E2E2E2E2E2E2E2F5E2E2E2E2E2E2E2E2E2E2E2E2E2E2E2E2E2E2E2E2E2E2E2E2E2E2E2E2E2E2E2E2E2E2E2E2E2E2E2E2E2E2E2E2E2E2E2E2E2E2E2E2E2E2E2E2E2E2E2E2E2E2E2E2E2E2E2E2E2E2E2E2E2E2E2E2E2E2E2E2E2E2E2E2E2E2E2E2E2E2E2E2E2
310
E2E2E2E2E2E2E2E2E2E2E2E2E2E2E2E2E2E2E2E2E2E2E2E2E2E2E2E2E2E2E2E2E2E2E2E2E2E2E2E2E2E2E2F5E2E2E2E2E2E2E2E2E2E2E2E2E2E2E2E2F5E2E2E2F5F5E2E2E2F5E2E2E2E2E2E2E2E2E2E2E2E2E2E2E2E2F5E2E2E2E2E2E2E2E2E2E2E2E2E2E2E2E2E2E2E2E2E2E2E2E2E2E2E2E2E2E2E2E2E2E2E2E2E2E2E2E2
310
E2E2E2E2E2E2E2E2E2E2E2E2E2E2E2E2E2E2E2E2E2E2E2E2E2E2E2E2E2E2E2E2E2E2E2E2E2E2E2E2E2E2E2E2E2E2E2E2E2E2E2E2E2E2E2E2E2E2E2E2E2E2E2E2E2E2E2E2E2E2E2E2E2E2E2E2E2E2E2E2E2E2E2E2E2E2E2E2E2E2E2E2E2E2E2E2F5E2E2E2E2E2E2E2E2E2E2E2E2E2E2E2E2F5E2E2E2F5F5E2E2E2F5E2E2E2E2
310
E2E2E2E2E2E2E2E2E2E2E2E2F5E2E2E2E2E2E2E2E2E2E2E2E2E2E2E2E2E2E2E2E2E2E2E2E2E2E2E2E2E2E2E2E2E2E2E2E2E2E2E2E2E2E2E2E2E2E2E2E2E2E2E2E2E2E2E2E2E2E2E2E2E2E2E2E2E2E2E2E2E2E2E2E2E2E2E2E2E2E2E2E2E2E2E2E2E2E2E2E2E2E2E2E2E2E2E2E2E2E2E2E2E2E2E2E2E2E2E2E2E2E2E2E2E2E2
310
E2E2E2E2E2E2E2E2E2E2E2E2E2E2E2E2E2E2E2E2E2E2F5E2E2E2E2E2E2E2E2E2E2E2E2E2E2E2E2F5E2E2E2F5F5E2E2E2F5E2E2E2E2E2E2E2E2E2E2E2E2E2E2E2E2F5E2E2E2E2E2E2E2E2E2E2E2E2E2E2E2E2E2E2E2E2E2E2E2E2E2E2E2E2E2E2E2E2E2E2E2E2E2E2E2E2E2E2E2E2E2E2E2E2E2E2E2E2E2E2E2E2E2E2E2E2E2
310
E2E2E2E2E2E2E2E2E2E2E2E2E2E2E2E2E2E2E2E2E2E2E2E2E2E2E2E2E2E2E2E2E2E2E2E2E2E2E2E2E2E2E2E2E2E2E2E2E2E2E2E2E2E2E2E2E2E2E2E2E2E2E2E2E2E2E2E2E2E2E2E2E2E2E2F5E2E2E2E2E2E2E2E2E2E2E2E2E2E2E2E2F5E2E2E2F5F5E2E2E2F5E2E2E2E2E2E2E2E2E2E2E2E2E2E2E2E2F5E2E2E2E2E2E2E2E2
310
E2E2E2E2E2E2E2E2E2E2E2E2E2E2E2E2E2E2E2E2E2E2E2E2E2E2E2E2E2E2E2E2E2E2E2E2E2E2E2E2E2E2E2E2E2E2E2E2E2E2E2E2E2E2E2E2E2E2E2E2E2E2E2E2E2E2E2E2E2E2E2E2E2E2E2E2E2E2E2E2E2E2E2E2E2E2E2E2E2E2E2E2E2E2E2E2E2E2E2E2E2E2E2E2E2E2E2E2E2E2E2E2E2E2E2E2E2E2E2E2E2E2E2E2E2E2E2
310
E2F5E2E2E2E2E2E2E2E2E2E2E2E2E2E2E2E2F5E2E2E2F5F5E2E2E2F5E2E2E2E2E2E2E2E2E2E2E2E2E2E2E2E2F5E2E2E2E2E2E2E2E2E2E2E2E2E2E2E2E2E2E2E2E2E2E2E2E2E2E2E2E2E2E2E2E2E2E2E2E2E2E2E2E2E2E2E2E2E2E2E2E2E2E2E2E2E2E2E2E2E2E2E2E2E2E2E2E2E2E2E2E2E2E2E2E2E2E2E2E2E2E2E2E2E2E2
310
E2E2E2E2E2E2E2E2E2E2E2E2E2E2E2E2E2E2E2E2E2E2E2E2E2E2E2E2E2E2E2E2E2E2E2E2E2E2E2E2E2E2E2E2E2E2E2E2E2E2E2E2E2E2F5E2E2E2E2E2E2E2E2E2E2E2E2E2E2E2E2F5E2E2E2F5F5E2E2E2F5E2E2E2E2E2E2E2E2E2E2E2E2E2E2E2E2F5E2E2E2E2E2E2E2E2E2E2E2E2E2E2E2E2E2E2E2E2E2E2E2E2E2E2E2E2E2
310
E2E2E2E2E2E2E2E2E2E2E2E2E2E2E2E2E2E2E2E2E2E2E2E2E2E2E2E2E2E2E2E2E2E2E2E2E2E2E2E2E2E2E2E2E2E2E2E2E2E2E2E2E2E2E2E2E2E2E2E2E2E2E2E2E2E2E2E2E2E2E2E2E2E2E2E2E2E2E2E2E2E2E2E2E2E2E2E2E2E2E2E2E2E2E2E2E2E2E2E2E2E2E2E2E2E2E2F5E2E2E2E2E2E2E2E2E2E2E2E2E2E2E2E2F5E2E2
310
E2F5F5E2E2E2F5E2E2E2E2E2E2E2E2E2E2E2E2E2E2E2E2F5E2E2E2E2E2E2E2E2E2E2E2E2E2E2E2E2E2E2E2E2E2E2E2E2E2E2E2E2E2E2E2E2E2E2E2E2E2E2E2E2E2E2E2E2E2E2E2E2E2E2E2E2E2E2E2E2E2E2E2E2E2E2E2E2E2E2E2E2E2E2E2E2E2E2E2E2E2E2E2E2E2E2E2E2E2E2E2E2E2E2E2E2E2E2E2E2E2E2E2E2E2E2E2
310
E2E2E2E2E2E2E2E2E2E2E2E2E2E2E2E2E2E2E2E2E2E2E2E2E2E2E2E2E2E2E2E2E2F5E2E2E2E2E2E2E2E2E2E2E2E2E2E2E2E2F5E2E2E2F5F5E2E2E2F5E2E2E2E2E2E2E2E2E2E2E2E2E2E2E2E2F5E2E2E2E2E2E2E2E2E2E2E2E2E2E2E2E2E2E2E2E2E2E2E2E2E2E2E2E2E2E2E2E2E2E2E2E2E2E2E2E2E2E2E2E2E2E2E2E2E2E2
310
E2E2E2E2E2E2E2E2E2E2E2E2E2E2E2E2E2E2E2E2E2E2E2E2E2E2E2E2E2E2E2E2E2E2E2E2E2E2E2E2E2E2E2E2E2E2E2E2E2E2E2E2E2E2E2E2E2E2E2E2E2E2E2E2E2E2E2E2E2E2E2E2E2E2E2E2E2E2E2E2E2E2E2E2E2E2F5E2E2E2E2E2E2E2E2E2E2E2E2E2E2E2E2F5E2E2E2F5F5E2E2E2F5E2E2E2E2E2E2E2E2E2E2E2E2E2E2
310
E2E2F5E2E2E2E2E2E2E2E2E2E2E2E2E2E2E2E2E2E2E2E2E2E2E2E2E2E2E2E2E2E2E2E2E2E2E2E2E2E2E2E2E2E2E2E2E2E2E2E2E2E2E2E2E2E2E2E2E2E2E2E2E2E2E2E2E2E2E2E2E2E2E2E2E2E2E2E2E2E2E2E2E2E2E2E2E2E2E2E2E2E2E2E2E2E2E2E2E2E2E2E2E2E2E2E2E2E2E2E2E2E2E2E2E2E2E2E2E2E2E2E2E2E2E2E2
310
E2E2E2E2E2E2E2E2E2E2E2E2F5E2E2E2E2E2E2E2E2E2E2E2E2E2E2E2E2F5E2E2E2F5F5E2E2E2F5E2E2E2E2E2E2E2E2E2E2E2E2E2E2E2E2F5E2E2E2E2E2E2E2E2E2E2E2E2E2E2E2E2E2E2E2E2E2E2E2E2E2E2E2E2E2E2E2E2E2E2E2E2E2E2E2E2E2E2E2E2E2E2E2E2E2E2E2E2E2E2E2E2E2E2E2E2E2E2E2E2E2E2E2E2E2E2E2
310
E2E2E2E2E2E2E2E2E2E2E2E2E2E2E2E2E2E2E2E2E2E2E2E2E2E2E2E2E2E2E2E2E2E2E2E2E2E2E2E2E2E2E2E2E2E2E2E2E2E2E2E2E2E2E2E2E2E2E2E2E2E2E2E2E2F5E2E2E2E2E2E2E2E2E2E2E2E2E2E2E2E2F5E2E2E2F5F5E2E2E2F5E2E2E2E2E2E2E2E2E2E2E2E2E2E2E2E2F5E2E2E2E2E2E2E2E2E2E2E2E2E2E2E2E2E2E2
310
E2E2E2E2E2E2E2E2E2E2E2E2E2E2E2E2E2E2E2E2E2E2E2E2E2E2E2E2E2E2E2E2E2E2E2E2E2E2E2E2E2E2E2E2E2E2E2E2E2E2E2E2E2E2E2E2E2E2E2E2E2E2E2E2E2E2E2E2E2E2E2E2E2E2E2E2E2E2E2E2E2E2E2E2E2E2E2E2E2E2E2E2E2E2E2E2E2E2E2E2E2E2E2E2E2E2E2E2E2E2E2E2E2E2E2E2E2E2F5E2E2E2E2E2E2E2E2
310
E2E2E2E2E2E2E2E2F5E2E2E2F5F5E2E2E2F5E2E2E2E2E2E2E2E2E2E2E2E2E2E2E2E2F5E2E2E2E2E2E2E2E2E2E2E2E2E2E2E2E2E2E2E2E2E2E2E2E2E2E2E2E2E2E2E2E2E2E2E2E2E2E2E2E2E2E2E2E2E2E2E2E2E2E2E2E2E2E2E2E2E2E2E2E2E2E2E2E2E2E2E2E2E2E2E2E2E2E2E2E2E2E2E2E2E2E2E2E2E2E2E2E2E2E2E2E2
310
E2E2E2E2E2E2E2E2E2E2E2E2E2E2E2E2E2E2E2E2E2E2E2E2E2E2E2E2E2E2E2E2E2E2E2E2E2E2E2E2E2E2E2E2F5E2E2E2E2E2E2E2E2E2E2E2E2E2E2E2E2F5E2E2E2F5F5E2E2E2F5E2E2E2E2E2E2E2E2E2E2E2E2E2E2E2E2F5E2E2E2E2E2E2E2E2E2E2E2E2E2E2E2E2E2E2E2E2E2E2E2E2E2E2E2E2E2E2E2E2E2E2E2E2E2E2E2
310
E2E2E2E2E2E2E2E2E2E2E2E2E2E2E2E2E2E2E2E2E2E2E2E2E2E2E2E2E2E2E2E2E2E2E2E2E2E2E2E2E2E2E2E2E2E2E2E2E2E2E2E2E2E2E2E2E2E2E2E2E2E2E2E2E2E2E2E2E2E2E2E2E2E2E2E2E2E2E2E2E2E2E2E2E2E2E2E2E2E2E2E2E2E2E2E2E2F5E2E2E2E2E2E2E2E2E2E2E2E2E2E2E2E2F5E2E2E2F5F5E2E2E2F5E2E2E2
310
E2E2E2E2E2E2E2E2E2E2E2E2E2F5E2E2E2E2E2E2E2E2E2E2E2E2E2E2E2E2E2E2E2E2E2E2E2E2E2E2E2E2E2E2E2E2E2E2E2E2E2E2E2E2E2E2E2E2E2E2E2E2E2E2E2E2E2E2E2E2E2E2E2E2E2E2E2E2E2E2E2E2E2E2E2E2E2E2E2E2E2E2E2E2E2E2E2E2E2E2E2E2E2E2E2E2E2E2E2E2E2E2E2E2E2E2E2E2E2E2E2E2E2E2E2E2E2
310
E2E2E2E2E2E2E2E2E2E2E2E2E2E2E2E2E2E2E2E2E2E2E2F5E2E2E2E2E2E2E2E2E2E2E2E2E2E2E2E2F5E2E2E2F5F5E2E2E2E2E2E2E2E2E2E2E2E2E2E2E2E2E2E2E2E2F5E2E2E2E2E2E2E2E2E2E2E2E2E2E2E2E2E2E2E2E2E2E2E2E2E2E2E2E2E2E2E2E2E2E2E2E2E2E2E2E2E2E2E2E2E2E2E2E2E2E2E2E2E2E2E2E2E2E2E2E2
310
E2E2E2E2E2E2E2E2E2E2E2E2E2E2E2E2E2E2E2E2E2E2E2E2E2E2E2E2E2E2E2E2E2E2E2E2E2E2E2E2E2E2E2E2E2E2E2E2E2E2E2E2E2E2E2E2E2E2E2E2E2E2E2E2E2E2E2E2E2E2E2E2E2E2E2E2F5E2E2E2E2E2E2E2E2E2E2E2E2E2E2E2E2E2E2E2E2F5F5E2E2E2E2E2E2E2E2E2E2E2E2E2E2E2E2E2E2E2E2F5E2E2E2E2E2E2E2
310
E2E2E2E2E2E2E2E2E2E2E2E2E2E2E2E2E2E2E2E2E2E2E2E2E2E2E2E2E2E2E2E2E2E2E2E2E2E2E2E2E2E2E2E2E2E2E2E2E2E2E2E2E2E2E2E2E2E2E2E2E2E2E2E2E2E2E2E2E2E2E2E2E2E2E2E2E2E2E2E2E2E2E2E2E2E2E2E2E2E2E2E2E2E2E2E2E2E2E2E2E2E2E2E2E2E2E2E2E2E2E2E2E2E2E2E2E2E2E2E2E2E2E2E2E2E2E2
310
E2E2F5E2E2E2E2E2E2E2E2E2E2E2E2E2E2E2E2E2E2E2E2F5F5E2E2E2E2E2E2E2E2E2E2E2E2E2E2E2E2E2E2E2E2F5E2E2E2E2E2E2E2E2E2E2E2E2E2E2E2E2E2E2E2E2E2E2E2E2E2E2E2E2E2E2E2E2E2E2E2E2E2E2E2E2E2E2E2E2E2E2E2E2E2E2E2E2E2E2E2E2E2E2E2E2E2E2E2E2E2E2E2E2E2E2E2E2E2E2E2E2E2E2E2E2E2
310
E2E2E2E2E2E2E2E2E2E2E2E2E2E2E2E2E2E2E2E2E2E2E2E2E2E2E2E2E2E2E2E2E2E2E2E2E2E2E2E2E2E2E2E2E2E2E2E2E2E2E2E2E2E2E2F5E2E2E2E2E2E2E2E2E2E2E2E2E2E2E2E2E2E2E2E2F5F5E2E2E2E2E2E2E2E2E2E2E2E2E2E2E2E2E2E2E2E2F5E2E2E2E2E2E2E2E2E2E2E2E2E2E2E2E2E2E2E2E2E2E2E2E2E2E2E2E2
310
E2E2E2E2E2E2E2E2E2E2E2E2E2E2E2E2E2E2E2E2E2E2E2E2E2E2E2E2E2E2E2E2E2E2E2E2E2E2E2E2E2E2E2E2E2E2E2E2E2E2E2E2E2E2E2E2E2E2E2E2E2E2E2E2E2E2E2E2E2E2E2E2E2E2E2E2E2E2E2E2E2E2E2E2E2E2E2E2E2E2E2E2E2E2E2E2E2E2E2E2E2E2E2E2E2E2E2E2F5E2E2E2E2E2E2E2E2E2E2E2E2E2E2E2E2E2E2
310
E2E2F5F5E2E2E2E2E2E2E2E2E2E2E2E2E2E2E2E2E2E2E2E2F5E2E2E2E2E2E2E2E2E2E2E2E2E2E2E2E2E2E2E2E2E2E2E2E2E2E2E2E2E2E2E2E2E2E2E2E2E2E2E2E2E2E2E2E2E2E2E2E2E2E2E2E2E2E2E2E2E2E2E2E2E2E2E2E2E2E2E2E2E2E2E2E2E2E2E2E2E2E2E2E2E2E2E2E2E2E2E2E2E2E2E2E2E2E2E2E2E2E2E2E2E2E2
310
E2E2E2E2E2E2E2E2E2E2E2E2E2E2E2E2E2E2E2E2E2E2E2E2E2E2E2E2E2E2E2E2E2E2F5E2E2E2E2E2E2E2E2E2E2E2E2E2E2E2E2E2E2E2E2F5F5E2E2E2E2E2E2E2E2E2E2E2E2E2E2E2E2E2E2E2E2F5E2E2E2E2E2E2E2E2E2E2E2E2E2E2E2E2E2E2E2E2E2E2E2E2E2E2E2E2E2E2E2E2E2E2E2E2E2E2E2E2E2E2E2E2E2E2E2E2E2
310
E2E2E2E2E2E2E2E2E2E2E2E2E2E2E2E2E2E2E2E2E2E2E2E2E2E2E2E2E2E2E2E2E2E2E2E2E2E2E2E2E2E2E2E2E2E2E2E2E2E2E2E2E2E2E2E2E2E2E2E2E2E2E2E2E2E2E2E2E2E2E2E2E2E2E2E2E2E2E2E2E2E2E2E2E2E2E2F5E2E2E2E2E2E2E2E2E2E2E2E2E2E2E2E2E2E2E2E2F5F5E2E2E2E2E2E2E2E2E2E2E2E2E2E2E2E2E2
310
E2E2E2F5E2E2E2E2E2E2E2E2E2E2E2E2E2E2E2E2E2E2E2E2E2E2E2E2E2E2E2E2E2E2E2E2E2E2E2E2E2E2E2E2E2E2E2E2E2E2E2E2E2E2E2E2E2E2E2E2E2E2E2E2E2E2E2E2E2E2E2E2E2E2E2E2E2E2E2E2E2E2E2E2E2E2E2E2E2E2E2E2E2E2E2E2E2E2E2E2E2E2E2E2E2E2E2E2E2E2E2E2E2E2E2E2E2E2E2E2E2E2E2E2E2E2E2
310
E2E2E2E2E2E2E2E2E2E2E2E2E2F5E2E2E2E2E2E2E2E2E2E2E2E2E2E2E2E2E2E2E2E2F5F5E2E2E2E2E2E2E2E2E2E2E2E2E2E2E2E2E2E2E2E2F5E2E2E2E2E2E2E2E2E2E2E2E2E2E2E2E2E2E2E2E2E2E2E2E2E2E2E2E2E2E2E2E2E2E2E2E2E2E2E2E2E2E2E2E2E2E2E2E2E2E2E2E2E2E2E2E2E2E2E2E2E2E2E2E2E2E2E2E2E2E2
310
E2E2E2E2E2E2E2E2E2E2E2E2E2E2E2E2E2E2E2E2E2E2E2E2E2E2E2E2E2E2E2E2E2E2E2E2E2E2E2E2E2E2E2E2E2E2E2E2E2E2E2E2E2E2E2E2E2E2E2E2E2E2E2E2E2E2F5E2E2E2E2E2E2E2E2E2E2E2E2E2E2E2E2E2E2E2E2F5F5E2E2E2E2E2E2E2E2E2E2E2E2E2E2E2E2E2E2E2E2F5E2E2E2E2E2E2E2E2E2E2E2E2E2E2E2E2E2
310
E2E2E2E2E2E2E2E2E2E2E2E2E2E2E2E2E2E2E2E2E2E2E2E2E2E2E2E2E2E2E2E2E2E2E2E2E2E2E2E2E2E2E2E2E2E2E2E2E2E2E2E2E2E2E2E2E2E2E2E2E2E2E2E2E2E2E2E2E2E2E2E2E2E2E2E2E2E2E2E2E2E2E2E2E2E2E2E2E2E2E2E2E2E2E2E2E2E2E2E2E2E2E2E2E2E2E2E2E2E2E2E2E2E2E2E2E2E2E2F5E2E2E2E2E2E2E2
310
E2E2E2E2E2E2E2E2E2E2E2E2E2F5F5E2E2E2F5E2E2E2E2E2E2E2E2E2E2E2E2E2E2E2E2F5E2E2E2E2E2E2E2E2E2E2E2E2E2E2E2E2E2E2E2E2E2E2E2E2E2E2E2E2E2E2E2E2E2E2E2E2E2E2E2E2E2E2E2E2E2E2E2E2E2E2E2E2E2E2E2E2E2E2E2E2E2E2E2E2E2E2E2E2E2E2E2E2E2E2E2E2E2E2E2E2E2E2E2E2E2E2E2E2E2E2E2
310
E2E2E2E2E2E2E2E2E2E2E2E2E2E2E2E2E2E2E2E2E2E2E2E2E2E2E2E2E2E2E2E2E2E2E2E2E2E2E2E2E2E2E2E2E2F5E2E2E2E2E2E2E2E2E2E2E2E2E2E2E2E2F5E2E2E2F5F5E2E2E2F5E2E2E2E2E2E2E2E2E2E2E2E2E2E2E2E2F5E2E2E2E2E2E2E2E2E2E2E2E2E2E2E2E2E2E2E2E2E2E2E2E2E2E2E2E2E2E2E2E2E2E2E2E2E2E2
310
E2E2E2E2E2E2E2E2E2E2E2E2E2E2E2E2E2E2E2E2E2E2E2E2E2E2E2E2E2E2E2E2E2E2E2E2E2E2E2E2E2E2E2E2E2E2E2E2E2E2E2E2E2E2E2E2E2E2E2E2E2E2E2E2E2E2E2E2E2E2E2E2E2E2E2E2E2E2E2E2E2E2E2E2E2E2E2E2E2E2E2E2E2E2E2E2E2E2F5E2E2E2E2E2E2E2E2E2E2E2E2E2E2E2E2F5E2E2E2F5F5E2E2E2F5E2E2
310
E2E2E2E2E2E2E2E2E2E2E2E2E2E2F5E2E2E2E2E2E2E2E2E2E2E2E2E2E2E2E2E2E2E2E2E2E2E2E2E2E2E2E2E2E2E2E2E2E2E2E2E2E2E2E2E2E2E2E2E2E2E2E2E2E2E2E2E2E2E2E2E2E2E2E2E2E2E2E2E2E2E2E2E2E2E2E2E2E2E2E2E2E2E2E2E2E2E2E2E2E2E2E2E2E2E2E2E2E2E2E2E2E2E2E2E2E2E2E2E2E2E2E2E2E2E2E2
310
E2E2E2E2E2E2E2E2E2E2E2E2E2E2E2E2E2E2E2E2E2E2E2E2F5E2E2E2E2E2E2E2E2E2E2E2E2E2E2E2E2F5E2E2E2F5F5E2E2E2F5E2E2E2E2E2E2E2E2E2E2E2E2E2E2E2E2F5E2E2E2E2E2E2E2E2E2E2E2E2E2E2E2E2E2E2E2E2E2E2E2E2E2E2E2E2E2E2E2E2E2E2E2E2E2E2E2E2E2E2E2E2E2E2E2E2E2E2E2E2E2E2E2E2E2E2E2
310
E2E2E2E2E2E2E2E2E2E2E2E2E2E2E2E2E2E2E2E2E2E2E2E2E2E2E2E2E2E2E2E2E2E2E2E2E2E2E2E2E2E2E2E2E2E2E2E2E2E2E2E2E2E2E2E2E2E2E2E2E2E2E2E2E2E2E2E2E2E2E2E2E2E2E2E2E2F5E2E2E2E2E2E2E2E2E2E2E2E2E2E2E2E2F5E2E2E2F5F5E2E2E2F5E2E2E2E2E2E2E2E2E2E2E2E2E2E2E2E2F5E2E2E2E2E2E2
310
E2E2E2E2E2E2E2E2E2E2E2E2E2E2E2E2E2E2E2E2E2E2E2E2E2E2E2E2E2E2E2E2E2E2E2E2E2E2E2E2E2E2E2E2E2E2E2E2E2E2E2E2E2E2E2E2E2E2E2E2E2E2E2E2E2E2E2E2E2E2E2E2E2E2E2E2E2E2E2E2E2E2E2E2E2E2E2E2E2E2E2E2E2E2E2E2E2E2E2E2E2E2E2E2E2E2E2E2E2E2E2E2E2E2E2E2E2E2E2E2E2E2E2E2E2E2E2
310
E2E2E2F5E2E2E2E2E2E2E2E2E2E2E2E2E2E2E2E2F5E2E2E2F5F5E2E2E2F5E2E2E2E2E2E2E2E2E2E2E2E2E2E2E2E2F5E2E2E2E2E2E2E2E2E2E2E2E2E2E2E2E2E2E2E2E2E2E2E2E2E2E2E2E2E2E2E2E2E2E2E2E2E2E2E2E2E2E2E2E2E2E2E2E2E2E2E2E2E2E2E2E2E2E2E2E2E2E2E2E2E2E2E2E2E2E2E2E2E2E2E2E2E2E2E2E2
310
E2E2E2E2E2E2E2E2E2E2E2E2E2E2E2E2E2E2E2E2E2E2E2E2E2E2E2E2E2E2E2E2E2E2E2E2E2E2E2E2E2E2E2E2E2E2E2E2E2E2E2E2E2E2E2E2F5E2E2E2E2E2E2E2E2E2E2E2E2E2E2E2E2F5E2E2E2F5F5E2E2E2F5E2E2E2E2E2E2E2E2E2E2E2E2E2E2E2E2F5E2E2E2E2E2E2E2E2E2E2E2E2E2E2E2E2E2E2E2E2E2E2E2E2E2E2E2
310
E2E2E2E2E2E2E2E2E2E2E2E2E2E2E2E2E2E2E2E2E2E2E2E2E2E2E2E2E2E2E2E2E2E2E2E2E2E2E2E2E2E2E2E2E2E2E2E2E2E2E2E2E2E2E2E2E2E2E2E2E2E2E2E2E2E2E2E2E2E2E2E2E2E2E2E2E2E2E2E2E2E2E2E2E2E2E2E2E2E2E2E2E2E2E2E2E2E2E2E2E2E2E2E2E2E2E2E2E2F5E2E2E2E2E2E2E2E2E2E2E2E2E2E2E2E2F5
310
E2E2E2F5F5E2E2E2F5E2E2E2E2E2E2E2E2E2E2E2E2E2E2E2E2F5E2E2E2E2E2E2E2E2E2E2E2E2E2E2E2E2E2E2E2E2E2E2E2E2E2E2E2E2E2E2E2E2E2E2E2E2E2E2E2E2E2E2E2E2E2E2E2E2E2E2E2E2E2E2E2E2E2E2E2E2E2E2E2E2E2E2E2E2E2E2E2E2E2E2E2E2E2E2E2E2E2E2E2E2E2E2E2E2E2E2E2E2E2E2E2E2E2E2E2E2E2
310
E2E2E2E2E2E2E2E2E2E2E2E2E2E2E2E2E2E2E2E2E2E2E2E2E2E2E2E2E2E2E2E2E2E2E2F5E2E2E2E2E2E2E2E2E2E2E2E2E2E2E2E2F5E2E2E2F5F5E2E2E2F5E2E2E2E2E2E2E2E2E2E2E2E2E2E2E2E2F5E2E2E2E2E2E2E2E2E2E2E2E2E2E2E2E2E2E2E2E2E2E2E2E2E2E2E2E2E2E2E2E2E2E2E2E2E2E2E2E2E2E2E2E2E2E2E2E2
310
E2E2E2E2E2E2E2E2E2E2E2E2E2E2E2E2E2E2E2E2E2E2E2E2E2E2E2E2E2E2E2E2E2E2E2E2E2E2E2E2E2E2E2E2E2E2E2E2E2E2E2E2E2E2E2E2E2E2E2E2E2E2E2E2E2E2E2E2E2E2E2E2E2E2E2E2E2E2E2E2E2E2E2E2E2E2E2E2F5E2E2E2E2E2E2E2E2E2E2E2E2E2E2E2E2F5E2E2E2F5F5E2E2E2F5E2E2E2E2E2E2E2E2E2E2E2E2
310
E2E2E2E2F5E2E2E2E2E2E2E2E2E2E2E2E2E2E2E2E2E2E2E2E2E2E2E2E2E2E2E2E2E2E2E2E2E2E2E2E2E2E2E2E2E2E2E2E2E2E2E2E2E2E2E2E2E2E2E2E2E2E2E2E2E2E2E2E2E2E2E2E2E2E2E2E2E2E2E2E2E2E2E2E2E2E2E2E2E2E2E2E2E2E2E2E2E2E2E2E2E2E2E2E2E2E2E2E2E2E2E2E2E2E2E2E2E2E2E2E2E2E2E2E2E2E2
310
E2E2E2E2E2E2E2E2E2E2E2E2E2E2F5E2E2E2E2E2E2E2E2E2E2E2E2E2E2E2E2F5E2E2E2F5F5E2E2E2F5E2E2E2E2E2E2E2E2E2E2E2E2E2E2E2E2F5E2E2E2E2E2E2E2E2E2E2E2E2E2E2E2E2E2E2E2E2E2E2E2E2E2E2E2E2E2E2E2E2E2E2E2E2E2E2E2E2E2E2E2E2E2E2E2E2E2E2E2E2E2E2E2E2E2E2E2E2E2E2E2E2E2E2E2E2E2
310
E2E2E2E2E2E2E2E2E2E2E2E2E2E2E2E2E2E2E2E2E2E2E2E2E2E2E2E2E2E2E2E2E2E2E2E2E2E2E2E2E2E2E2E2E2E2E2E2E2E2E2E2E2E2E2E2E2E2E2E2E2E2E2E2E2E2E2F5E2E2E2E2E2E2E2E2E2E2E2E2E2E2E2E2F5E2E2E2F5F5E2E2E2F5E2E2E2E2E2E2E2E2E2E2E2E2E2E2E2E2F5E2E2E2E2E2E2E2E2E2E2E2E2E2E2E2E2
310
E2E2E2E2E2E2E2E2E2E2E2E2E2E2E2E2E2E2E2E2E2E2E2E2E2E2E2E2E2E2E2E2E2E2E2E2E2E2E2E2E2E2E2E2E2E2E2E2E2E2E2E2E2E2E2E2E2E2E2E2E2E2E2E2E2E2E2E2E2E2E2E2E2E2E2E2E2E2E2E2E2E2E2E2E2E2E2E2E2E2E2E2E2E2E2E2E2E2E2E2E2E2E2E2E2E2E2E2E2E2E2E2E2E2E2E2E2E2E2E2F5E2E2E2E2E2E2
310
E2E2E2E2E2E2E2E2E2E2F5E2E2E2F5F5E2E2E2F5E2E2E2E2E2E2E2E2E2E2E2E2E2E2E2E2F5E2E2E2E2E2E2E2E2E2E2E2E2E2E2E2E2E2E2E2E2E2E2E2E2E2E2E2E2E2E2E2E2E2E2E2E2E2E2E2E2E2E2E2E2E2E2E2E2E2E2E2E2E2E2E2E2E2E2E2E2E2E2E2E2E2E2E2E2E2E2E2E2E2E2E2E2E2E2E2E2E2E2E2E2E2E2E2E2E2E2
310
E2E2E2E2E2E2E2E2E2E2E2E2E2E2E2E2E2E2E2E2E2E2E2E2E2E2E2E2E2E2E2E2E2E2E2E2E2E2E2E2E2E2E2E2E2E2F5E2E2E2E2E2E2E2E2E2E2E2E2E2E2E2E2F5E2E2E2F5F5E2E2E2F5E2E2E2E2E2E2E2E2E2E2E2E2E2E2E2E2F5E2E2E2E2E2E2E2E2E2E2E2E2E2E2E2E2E2E2E2E2E2E2E2E2E2E2E2E2E2E2E2E2E2E2E2E2E2
310
E2E2E2E2E2E2E2E2E2E2E2E2E2E2E2E2E2E2E2E2E2E2E2E2E2E2E2E2E2E2E2E2E2E2E2E2E2E2E2E2E2E2E2E2E2E2E2E2E2E2E2E2E2E2E2E2E2E2E2E2E2E2E2E2E2E2E2E2E2E2E2E2E2E2E2E2E2E2E2E2E2E2E2E2E2E2E2E2E2E2E2E2E2E2E2E2E2E2E2F5E2E2E2E2E2E2E2E2E2E2E2E2E2E2E2E2F5E2E2E2F5F5E2E2E2F5E2
310
E2E2E2E2E2E2E2E2E2E2E2E2E2E2E2F5E2E2E2E2E2E2E2E2E2E2E2E2E2E2E2E2E2E2E2E2E2E2E2E2E2E2E2E2E2E2E2E2E2E2E2E2E2E2E2E2E2E2E2E2E2E2E2E2E2E2E2E2E2E2E2E2E2E2E2E2E2E2E2E2E2E2E2E2E2E2E2E2E2E2E2E2E2E2E2E2E2E2E2E2E2E2E2E2E2E2E2E2E2E2E2E2E2E2E2E2E2E2E2E2E2E2E2E2E2E2E2
310
E2E2E2E2E2E2E2E2E2E2E2E2E2E2E2E2E2E2E2E2E2E2E2E2E2F5E2E2E2E2E2E2E2E2E2E2E2E2E2E2E2E2F5E2E2E2F5F5E2E2E2F5E2E2E2E2E2E2E2E2E2E2E2E2E2E2E2E2F5E2E2E2E2E2E2E2E2E2E2E2E2E2E2E2E2E2E2E2E2E2E2E2E2E2E2E2E2E2E2E2E2E2E2E2E2E2E2E2E2E2E2E2E2E2E2E2E2E2E2E2E2E2E2E2E2E2E2
310
E2E2E2E2E2E2E2E2E2E2E2E2E2E2E2E2E2E2E2E2E2E2E2E2E2E2E2E2E2E2E2E2E2E2E2E2E2E2E2E2E2E2E2E2E2E2E2E2E2E2E2E2E2E2E2E2E2E2E2E2E2E2E2E2E2E2E2E2E2E2E2E2E2E2E2E2E2E2F5E2E2E2E2E2E2E2E2E2E2E2E2E2E2E2E2F5E2E2E2F5F5E2E2E2F5E2E2E2E2E2E2E2E2E2E2E2E2E2E2E2E2F5E2E2E2E2E2
310
E2E2E2E2E2E2E2E2E2E2E2E2E2E2E2E2E2E2E2E2E2E2E2E2E2E2E2E2E2E2E2E2E2E2E2E2E2E2E2E2E2E2E2E2E2E2E2E2E2E2E2E2E2E2E2E2E2E2E2E2E2E2E2E2E2E2E2E2E2E2E2E2E2E2E2E2E2E2E2E2E2E2E2E2E2E2E2E2E2E2E2E2E2E2E2E2E2E2E2E2E2E2E2E2E2E2E2E2E2E2E2E2E2E2E2E2E2E2E2E2E2E2E2E2E2E2E2
310
E2E2E2E2F5E2E2E2E2E2E2E2E2E2E2E2E2E2E2E2E2F5E2E2E2F5F5E2E2E2E2E2E2E2E2E2E2E2E2E2E2E2E2E2E2E2E2F5E2E2E2E2E2E2E2E2E2E2E2E2E2E2E2E2E2E2E2E2E2E2E2E2E2E2E2E2E2E2E2E2E2E2E2E2E2E2E2E2E2E2E2E2E2E2E2E2E2E2E2E2E2E2E2E2E2E2E2E2E2E2E2E2E2E2E2E2E2E2E2E2E2E2E2E2E2E2E2
310
E2E2E2E2E2E2E2E2E2E2E2E2E2E2E2E2E2E2E2E2E2E2E2E2E2E2E2E2E2E2E2E2E2E2E2E2E2E2E2E2E2E2E2E2E2E2E2E2E2E2E2E2E2E2E2E2E2F5E2E2E2E2E2E2E2E2E2E2E2E2E2E2E2E2E2E2E2E2F5F5E2E2E2E2E2E2E2E2E2E2E2E2E2E2E2E2E2E2E2E2F5E2E2E2E2E2E2E2E2E2E2E2E2E2E2E2E2E2E2E2E2E2E2E2E2E2E2
310
E2E2E2E2E2E2E2E2E2E2E2E2E2E2E2E2E2E2E2E2E2E2E2E2E2E2E2E2E2E2E2E2E2E2E2E2E2E2E2E2E2E2E2E2E2E2E2E2E2E2E2E2E2E2E2E2E2E2E2E2E2E2E2E2E2E2E2E2E2E2E2E2E2E2E2E2E2E2E2E2E2E2E2E2E2E2E2E2E2E2E2E2E2E2E2E2E2E2E2E2E2E2E2E2E2E2E2E2E2E2F5E2E2E2E2E2E2E2E2E2E2E2E2E2E2E2E2
310
E2E2E2E2F5F5E2E2E2E2E2E2E2E2E2E2E2E2E2E2E2E2E2E2E2E2F5E2E2E2E2E2E2E2E2E2E2E2E2E2E2E2E2E2E2E2E2E2E2E2E2E2E2E2E2E2E2E2E2E2E2E2E2E2E2E2E2E2E2E2E2E2E2E2E2E2E2E2E2E2E2E2E2E2E2E2E2E2E2E2E2E2E2E2E2E2E2E2E2E2E2E2E2E2E2E2E2E2E2E2E2E2E2E2E2E2E2E2E2E2E2E2E2E2E2E2E2
310
E2E2E2E2E2E2E2E2E2E2E2E2E2E2E2E2E2E2E2E2E2E2E2E2E2E2E2E2E2E2E2E2E2E2E2E2F5E2E2E2E2E2E2E2E2E2E2E2E2E2E2E2E2E2E2E2E2F5F5E2E2E2E2E2E2E2E2E2E2E2E2E2E2E2E2E2E2E2E2F5E2E2E2E2E2E2E2E2E2E2E2E2E2E2E2E2E2E2E2E2E2E2E2E2E2E2E2E2E2E2E2E2E2E2E2E2E2E2E2E2E2E2E2E2E2E2E2
310
E2E2E2E2E2E2E2E2E2E2E2E2E2E2E2E2E2E2E2E2E2E2E2E2E2E2E2E2E2E2E2E2E2E2E2E2E2E2E2E2E2E2E2E2E2E2E2E2E2E2E2E2E2E2E2E2E2E2E2E2E2E2E2E2E2E2E2E2E2E2E2E2E2E2E2E2E2E2E2E2E2E2E2E2E2E2E2E2E2F5E2E2E2E2E2E2E2E2E2E2E2E2E2E2E2E2E2E2E2E2F5F5E2E2E2E2E2E2E2E2E2E2E2E2E2E2E2
310
E2E2E2E2E2F5F5F5F5F5F5F5F5F5F5F5F5F5F5F5F5F5F5F5F5F5F5F5F5F5F5F5F5F5F5F5F5F5F5F5F5F5F5F5F5F5F5F5F5F5F5F5F5F5F5F5F5F5F5F5F5F5F5F5F5F5F5F5F5F5F5F5F5F5F5F5F5F5F5F5F5F5F5F5F5F5F5F5F5F5F5F5F5F5F5F5F5F5F5F5F5F5F5F5F5F5F5F5F5F5F5F5F5F5F5F5F5F5F5F5F5F5F5F5F5F5F5
310
F5F5F5F5F5F5F5F5F5F5F5F5F5F5F5F5E2E2E2E2E2E2E2E2E2E2E2E2E2E2E2E2E2E2E2E2F5F5E2E2E2E2E2E2E2E2E2E2E2E2E2E2E2E2E2E2E2E2E2E2E2E2E2E2E2E2E2E2E2E2E2E2E2E2E2E2E2E2E2E2E2E2E2E2E2E2E2E2E2E2E2E2E2E2E2E2E2E2E2E2E2E2E2E2E2E2E2E2E2E2E2E2E2E2E2E2E2E2E2E2E2E2E2E2E2E2E2
310
E2E2E2E2E2E2E2E2E2E2E2E2E2E2E2E2E2E2E2E2E2E2E2E2E2E2E2E2E2E2E2E2E2E2E2E2E2E2E2E2E2E2E2E2E2E2E2E2E2E2E2E2E2E2E2E2E2E2E2E2E2E2E2E2E2E2E2E2E2E2E2E2E2E2E2E2E2E2E2E2E2E2E2E2E2E2E2E2E2F5F5E2E2E2E2E2E2E2E2E2E2E2E2E2E2E2E2E2E2E2E2E2E2E2E2E2E2E2E2E2E2E2E2E2E2E2E2
310
E2E2E2E2E2E2E2E2E2E2E2E2E2E2E2E2E2E2E2E2E2E2E2E2E2E2E2E2E2E2E2E2E2E2E2E2E2E2E2E2E2E2E2E2E2E2E2E2E2E2E2E2E2E2E2E2E2E2E2E2E2E2E2E2E2E2E2E2E2E2E2E2E2E2E2E2E2E2E2E2E2E2E2E2E2E2E2E2E2E2E2E2E2E2E2E2E2E2E2E2E2E2E2E2E2E2E2E2E2E2E2E2E2E2E2E2E2E2E2E2E2E2E2E2E2E2E2
310
E2E2E2E2E2E2E2E2E2E2E2E2E2E2E2F5F5E2E2E2E2E2E2E2E2E2E2E2E2E2E2E2E2E2E2E2E2E2E2E2E2E2E2E2E2E2E2E2E2E2E2E2E2E2E2E2E2E2E2E2E2E2E2E2E2E2E2E2E2E2E2E2E2E2E2E2E2E2E2E2E2E2E2E2E2E2E2E2E2E2E2E2E2E2E2E2E2E2E2E2E2E2E2E2E2E2E2E2E2E2E2E2E2E2E2E2E2E2E2E2E2E2E2E2E2E2E2
310
E2E2E2E2E2E2E2E2E2E2E2E2E2E2E2E2E2E2E2E2E2E2E2E2E2E2E2E2E2E2E2E2E2E2E2E2E2E2E2E2E2E2E2E2E2E2E2E2E2E2E2E2E2E2E2E2E2E2E2E2E2E2E2E2E2E2E2E2F5F5E2E2E2E2E2E2E2E2E2E2E2E2E2E2E2E2E2E2E2E2E2E2E2E2E2E2E2E2E2E2E2E2E2E2E2E2E2E2E2E2E2E2E2E2E2E2E2E2E2E2E2E2E2E2E2E2E2
310
E2E2E2E2E2E2E2E2E2E2E2E2E2E2E2E2E2E2E2E2E2E2E2E2E2E2E2E2E2E2E2E2E2E2E2E2E2E2E2E2E2E2E2E2E2E2E2E2E2E2E2E2E2E2E2E2E2E2E2E2E2E2E2E2E2E2E2E2E2E2E2E2E2E2E2E2E2E2E2E2E2E2E2E2E2E2E2E2E2E2E2E2E2E2E2E2E2E2E2E2E2E2E2E2E2E2E2E2E2E2E2E2E2E2E2E2E2E2E2E2E2F5F5E2E2E2F5
310
E2E2E2E2E2E2E2E2E2E2E2E2E2E2E2E2E2E2E2E2E2E2E2E2E2E2E2E2E2E2E2E2E2E2E2E2E2E2E2E2E2E2E2E2E2E2E2E2E2E2E2E2E2E2E2E2E2E2E2E2E2E2E2E2E2E2E2E2E2E2E2E2E2E2E2E2E2E2E2E2E2E2E2E2E2E2E2E2E2E2E2E2E2E2E2E2E2E2E2E2E2E2E2E2E2E2E2E2E2E2E2E2E2E2E2E2E2E2E2E2E2E2E2E2E2E2E2
310
E2E2E2E2E2E2E2E2E2E2E2E2E2E2E2E2E2E2E2E2E2E2E2E2E2E2E2E2E2E2E2E2E2E2E2E2E2E2E2E2E2E2E2F5E2E2E2F5F5E2E2E2F5E2E2E2E2E2E2E2E2E2E2E2E2E2E2E2E2E2E2E2E2E2E2E2E2E2E2E2E2E2E2E2E2E2E2E2E2E2E2E2E2E2E2E2E2E2E2E2E2E2E2E2E2E2E2E2E2E2E2E2E2E2E2E2E2E2E2E2E2E2E2E2E2E2E2
310
E2E2E2E2E2E2E2E2E2E2E2E2E2E2E2E2E2E2E2E2E2E2E2E2E2E2E2E2E2E2E2E2E2E2E2E2E2E2E2E2E2E2E2E2E2E2E2E2E2E2E2E2E2E2E2E2E2E2E2E2E2E2E2E2E2E2E2E2E2E2E2E2E2E2E2E2E2E2E2E2E2E2E2E2E2E2E2E2E2E2E2E2E2E2E2E2F5E2E2E2F5F5E2E2E2F5E2E2E2E2E2E2E2E2E2E2E2E2E2E2E2E2E2E2E2E2E2
310
E2E2E2E2E2E2E2E2E2E2E2E2E2E2E2E2E2E2E2E2E2E2E2E2E2E2E2E2E2E2E2E2E2E2E2E2E2E2E2E2E2E2E2E2E2E2E2E2E2E2E2E2E2E2E2E2E2E2E2E2E2E2E2E2E2E2E2E2E2E2E2E2E2E2E2E2E2E2E2E2E2E2E2E2E2E2E2E2E2E2E2E2E2E2E2E2E2E2E2E2E2E2E2E2E2E2E2E2E2E2E2E2E2E2E2E2E2E2E2E2E2E2E2E2E2E2E2
310
E2E2E2E2E2E2E2E2E2E2E2E2E2E2E2E2E2E2E2E2E2E2F5E2E2E2F5F5E2E2E2F5E2E2E2E2E2E2E2E2E2E2E2E2E2E2E2E2E2E2E2E2E2E2E2E2E2E2E2E2E2E2E2E2E2E2E2E2E2E2E2E2E2E2E2E2E2E2E2E2E2E2E2E2E2E2E2E2E2E2E2E2E2E2E2E2E2E2E2E2E2E2E2E2E2E2E2E2E2E2E2E2E2E2E2E2E2E2E2E2E2E2E2E2E2E2E2
310
E2E2E2E2E2E2E2E2E2E2E2E2E2E2E2E2E2E2E2E2E2E2E2E2E2E2E2E2E2E2E2E2E2E2E2E2E2E2E2E2E2E2E2E2E2E2E2E2E2E2E2E2E2E2E2E2E2E2E2E2E2E2E2E2E2E2E2E2E2E2E2E2E2E2E2F5E2E2E2F5F5E2E2E2F5E2E2E2E2E2E2E2E2E2E2E2E2E2E2E2E2E2E2E2E2E2E2E2E2E2E2E2E2E2E2E2E2E2E2E2E2E2E2E2E2E2E2
310
E2E2E2E2E2E2E2E2E2E2E2E2E2E2E2E2E2E2E2E2E2E2E2E2E2E2E2E2E2E2E2E2E2E2E2E2E2E2E2E2E2E2E2E2E2E2E2E2E2E2E2E2E2E2E2E2E2E2E2E2E2E2E2E2E2E2E2E2E2E2E2E2E2E2E2E2E2E2E2E2E2E2E2E2E2E2E2E2E2E2E2E2E2E2E2E2E2E2E2E2E2E2E2E2E2E2E2E2E2E2E2E2E2E2E2E2E2E2E2E2E2E2E2E2E2E2E2
310
E2F5E2E2E2F5F5E2E2E2F5E2E2E2E2E2E2E2E2E2E2E2E2E2E2E2E2E2E2E2E2E2E2E2E2E2E2E2E2E2E2E2E2E2E2E2E2E2E2E2E2E2E2E2E2E2E2E2E2E2E2E2E2E2E2E2E2E2E2E2E2E2E2E2E2E2E2E2E2E2E2E2E2E2E2E2E2E2E2E2E2E2E2E2E2E2E2E2E2E2E2E2E2E2E2E2E2E2E2E2E2E2E2E2E2E2E2E2E2E2E2E2E2E2E2E2E2
310
E2E2E2E2E2E2E2E2E2E2E2E2E2E2E2E2E2E2E2E2E2E2E2E2E2E2E2E2E2E2E2E2E2E2E2E2E2E2E2E2E2E2E2E2E2E2E2E2E2E2E2E2E2E2F5E2E2E2F5F5E2E2E2F5E2E2E2E2E2E2E2E2E2E2E2E2E2E2E2E2E2E2E2E2E2E2E2E2E2E2E2E2E2E2E2E2E2E2E2E2E2E2E2E2E2E2E2E2E2E2E2E2E2E2E2E2E2E2E2E2E2E2E2E2E2E2E2
310
E2E2E2E2E2E2E2E2E2E2E2E2E2E2E2E2E2E2E2E2E2E2E2E2E2E2E2E2E2E2E2E2E2E2E2E2E2E2E2E2E2E2E2E2E2E2E2E2E2E2E2E2E2E2E2E2E2E2E2E2E2E2E2E2E2E2E2E2E2E2E2E2E2E2E2E2E2E2E2E2E2E2E2E2E2E2E2E2E2E2E2E2E2E2E2E2E2E2E2E2E2E2E2E2E2E2E2F5E2E2E2F5F5E2E2E2F5E2E2E2E2E2E2E2E2E2E2
310
E2E2E2E2E2E2E2E2E2E2E2E2E2E2E2E2E2E2E2E2E2E2E2E2E2E2E2E2E2E2E2E2E2E2E2E2E2E2E2E2E2E2E2E2E2E2E2E2E2E2E2E2E2E2E2E2E2E2E2E2E2E2E2E2E2E2E2E2E2E2E2E2E2E2E2E2E2E2E2E2E2E2E2E2E2E2E2E2E2E2E2E2E2E2E2E2E2E2E2E2E2E2E2E2E2E2E2E2E2E2E2E2E2E2E2E2E2E2E2E2E2E2E2E2E2E2E2
310
E2E2E2E2E2E2E2E2E2E2E2E2E2E2E2E2E2E2E2E2E2E2E2E2E2E2E2E2E2E2E2E2E2F5E2E2E2F5F5E2E2E2F5F5F5F5F5F5F5F5E2E2E2E2E2E2E2E2E2F5F5F5F5F5F5F5F5F5F5F5F5F5F5F5F5E2E2E2E2E2E2E2E2E2F5F5F5F5F5F5F5F5F5F5F5F5F5F5F5E2E2E2E2E2E2E2E2E2F5F5F5F5F5F5F5F5F5F5F5F5F5F5F5F5E2E2E2
310
E2E2E2E2E2F5F5F5F5F5F5F5F5F5F5F5F5F5F5F5F5E2E2E2E2E2E2E2E2E2F5F5F5F5F5F5F5F5F5F5F5F5F5F5F5E2E2E2E2E2E2E2E2E2F5F5F5F5F5F5F5F5F5F5F5F5F5F5F5F5E2E2E2E2E2E2E2E2E2F5F5F5F5F5F5F5F5E2E2E2F5F5E2E2E2E2E2E2E2E2E2E2E2E2E2E2E2E2E2E2E2E2E2E2E2E2E2E2E2E2E2E2E2E2E2E2E2
310
E2E2E2E2E2E2E2E2E2E2E2E2E2E2E2E2E2E2E2E2E2E2E2E2E2E2E2E2E2E2E2E2E2E2E2E2E2E2E2E2E2E2E2E2E2E2E2E2E2E2E2E2E2E2E2E2E2E2E2E2E2E2E2E2E2E2E2E2E2E2E2E2E2E2E2E2E2E2E2E2E2E2E2E2E2E2E2E2E2E2E2E2E2E2E2E2E2E2E2E2E2E2E2E2E2E2E2E2E2E2E2E2E2E2E2E2E2E2E2E2E2E2E2E2E2E2E2
310
E2E2E2E2E2E2E2E2E2E2E2E2E2E2E2E2F5F5E2E2E2E2E2E2E2E2E2E2E2E2E2E2E2E2E2E2E2E2E2E2E2E2E2E2E2E2E2E2E2E2E2E2E2E2E2E2E2E2E2E2E2E2E2E2E2E2E2E2E2E2E2E2E2E2E2E2E2E2E2E2E2E2E2E2E2E2E2E2E2E2E2E2E2E2E2E2E2E2E2E2E2E2E2E2E2E2E2E2E2E2E2E2E2E2E2E2E2E2E2E2E2E2E2E2E2E2E2
310
E2E2E2E2E2E2E2E2E2E2E2E2E2E2E2E2E2E2E2E2E2E2E2E2E2E2E2E2E2E2E2E2E2E2E2E2E2E2E2E2E2E2E2E2E2E2E2E2E2E2E2E2E2E2E2E2E2E2E2E2E2E2E2E2E2E2E2E2E2F5F5E2E2E2E2E2E2E2E2E2E2E2E2E2E2E2E2E2E2E2E2E2E2E2E2E2E2E2E2E2E2E2E2E2E2E2E2E2E2E2E2E2E2E2E2E2E2E2E2E2E2E2E2E2E2E2E2
310
E2E2E2E2E2E2E2E2E2E2E2E2E2E2E2E2E2E2E2E2E2E2E2E2E2E2E2E2E2E2E2E2E2E2E2E2E2E2E2E2E2E2E2E2E2E2E2E2E2E2E2E2E2E2E2E2E2E2E2E2E2E2E2E2E2E2E2E2E2E2E2E2E2E2E2E2E2E2E2E2E2E2E2E2E2E2E2E2E2E2E2E2E2E2E2E2E2E2E2E2E2E2E2E2E2E2E2E2E2E2E2E2E2E2E2E2E2E2E2E2E2E2F5F5E2E2E2
310
E2E2E2E2E2E2E2E2E2E2E2E2E2E2E2E2E2E2E2E2E2E2E2E2E2E2E2E2E2E2E2E2E2E2E2E2E2E2E2E2E2E2E2E2E2E2E2E2E2E2E2E2E2E2E2E2E2E2E2E2E2E2E2E2E2E2E2E2E2E2E2E2E2E2E2E2E2E2E2E2E2E2E2E2E2E2E2E2E2E2E2E2E2E2E2E2E2E2E2E2E2E2E2E2E2E2E2E2E2E2E2E2E2E2E2E2E2E2E2E2E2E2E2E2E2E2E2
310
E2E2E2E2E2E2E2E2E2E2E2E2E2E2E2E2E2E2E2E2E2E2E2E2E2E2E2E2E2E2E2E2E2E2E2E2E2E2E2E2E2E2E2E2E2E2E2E2F5
  0
XRECORD
  5
647FD
102
{ACAD_REACTORS
330
647FC
102
}
330
647FC
100
AcDbXrecord
280
     1
102
SHADEPLOT
 70
     0
102
SHADEPLOTRESLEVEL
 70
     2
102
SHADEPLOTCUSTOMDPI
 70
   300
  0
ENDSEC
  0
EOF
