  0
SECTION
  2
HEADER
  9
$ACADVER
  1
AC1015
  9
$ACADMAINTVER
 70
    20
  9
$DWGCODEPAGE
  3
ANSI_936
  9
$INSBASE
 10
0.0
 20
0.0
 30
0.0
  9
$EXTMIN
 10
-34.14109275694095
 20
-55.61993101690109
 30
0.0
  9
$EXTMAX
 10
263.6686958042093
 20
116.9498852489232
 30
0.0
  9
$LIMMIN
 10
0.0
 20
0.0
  9
$LIMMAX
 10
420.0
 20
297.0
  9
$ORTHOMODE
 70
     0
  9
$REGENMODE
 70
     1
  9
$FILLMODE
 70
     1
  9
$QTEXTMODE
 70
     0
  9
$MIRRTEXT
 70
     1
  9
$LTSCALE
 40
1.0
  9
$ATTMODE
 70
     1
  9
$TEXTSIZE
 40
3.5
  9
$TRACEWID
 40
1.0
  9
$TEXTSTYLE
  7
simplex
  9
$CLAYER
  8
0
  9
$CELTYPE
  6
ByLayer
  9
$CECOLOR
 62
   256
  9
$CELTSCALE
 40
1.0
  9
$DISPSILH
 70
     0
  9
$DIMSCALE
 40
0.0
  9
$DIMASZ
 40
3.5
  9
$DIMEXO
 40
0.0
  9
$DIMDLI
 40
0.38
  9
$DIMRND
 40
0.0
  9
$DIMDLE
 40
0.0
  9
$DIMEXE
 40
1.5
  9
$DIMTP
 40
0.0
  9
$DIMTM
 40
0.0
  9
$DIMTXT
 40
3.5
  9
$DIMCEN
 40
0.09
  9
$DIMTSZ
 40
0.0
  9
$DIMTOL
 70
     0
  9
$DIMLIM
 70
     0
  9
$DIMTIH
 70
     0
  9
$DIMTOH
 70
     0
  9
$DIMSE1
 70
     0
  9
$DIMSE2
 70
     0
  9
$DIMTAD
 70
     1
  9
$DIMZIN
 70
     8
  9
$DIMBLK
  1

  9
$DIMASO
 70
     1
  9
$DIMSHO
 70
     1
  9
$DIMPOST
  1

  9
$DIMAPOST
  1

  9
$DIMALT
 70
     0
  9
$DIMALTD
 70
     2
  9
$DIMALTF
 40
25.4
  9
$DIMLFAC
 40
1.0
  9
$DIMTOFL
 70
     0
  9
$DIMTVP
 40
0.0
  9
$DIMTIX
 70
     0
  9
$DIMSOXD
 70
     0
  9
$DIMSAH
 70
     0
  9
$DIMBLK1
  1

  9
$DIMBLK2
  1

  9
$DIMSTYLE
  2
\M+18352\M+18373\M+1815B - ISO-25
  9
$DIMCLRD
 70
   256
  9
$DIMCLRE
 70
   256
  9
$DIMCLRT
 70
   256
  9
$DIMTFAC
 40
1.0
  9
$DIMGAP
 40
2.299999999999998
  9
$DIMJUST
 70
     0
  9
$DIMSD1
 70
     0
  9
$DIMSD2
 70
     0
  9
$DIMTOLJ
 70
     1
  9
$DIMTZIN
 70
     8
  9
$DIMALTZ
 70
     0
  9
$DIMALTTZ
 70
     0
  9
$DIMUPT
 70
     0
  9
$DIMDEC
 70
     2
  9
$DIMTDEC
 70
     2
  9
$DIMALTU
 70
     2
  9
$DIMALTTD
 70
     2
  9
$DIMTXSTY
  7
simplex
  9
$DIMAUNIT
 70
     0
  9
$DIMADEC
 70
     0
  9
$DIMALTRND
 40
0.0
  9
$DIMAZIN
 70
     0
  9
$DIMDSEP
 70
    46
  9
$DIMATFIT
 70
     3
  9
$DIMFRAC
 70
     0
  9
$DIMLDRBLK
  1

  9
$DIMLUNIT
 70
     2
  9
$DIMLWD
 70
    -1
  9
$DIMLWE
 70
    -1
  9
$DIMTMOVE
 70
     0
  9
$LUNITS
 70
     2
  9
$LUPREC
 70
     4
  9
$SKETCHINC
 40
1.0
  9
$FILLETRAD
 40
0.8
  9
$AUNITS
 70
     0
  9
$AUPREC
 70
     0
  9
$MENU
  1
.
  9
$ELEVATION
 40
0.0
  9
$PELEVATION
 40
0.0
  9
$THICKNESS
 40
0.0
  9
$LIMCHECK
 70
     0
  9
$CHAMFERA
 40
10.0
  9
$CHAMFERB
 40
10.0
  9
$CHAMFERC
 40
20.0
  9
$CHAMFERD
 40
0.0
  9
$SKPOLY
 70
     0
  9
$TDCREATE
 40
2455489.391063368
  9
$TDUCREATE
 40
2455489.057730035
  9
$TDUPDATE
 40
2458517.776256099
  9
$TDUUPDATE
 40
2458517.442922766
  9
$TDINDWG
 40
2.2463502546
  9
$TDUSRTIMER
 40
2.2462958565
  9
$USRTIMER
 70
     1
  9
$ANGBASE
 50
0.0
  9
$ANGDIR
 70
     0
  9
$PDMODE
 70
     0
  9
$PDSIZE
 40
0.0
  9
$PLINEWID
 40
0.0
  9
$SPLFRAME
 70
     0
  9
$SPLINETYPE
 70
     6
  9
$SPLINESEGS
 70
     8
  9
$HANDSEED
  5
5B33B
  9
$SURFTAB1
 70
     6
  9
$SURFTAB2
 70
     6
  9
$SURFTYPE
 70
     6
  9
$SURFU
 70
     6
  9
$SURFV
 70
     6
  9
$UCSBASE
  2

  9
$UCSNAME
  2

  9
$UCSORG
 10
0.0
 20
0.0
 30
0.0
  9
$UCSXDIR
 10
1.0
 20
0.0
 30
0.0
  9
$UCSYDIR
 10
0.0
 20
1.0
 30
0.0
  9
$UCSORTHOREF
  2

  9
$UCSORTHOVIEW
 70
     0
  9
$UCSORGTOP
 10
0.0
 20
0.0
 30
0.0
  9
$UCSORGBOTTOM
 10
0.0
 20
0.0
 30
0.0
  9
$UCSORGLEFT
 10
0.0
 20
0.0
 30
0.0
  9
$UCSORGRIGHT
 10
0.0
 20
0.0
 30
0.0
  9
$UCSORGFRONT
 10
0.0
 20
0.0
 30
0.0
  9
$UCSORGBACK
 10
0.0
 20
0.0
 30
0.0
  9
$PUCSBASE
  2

  9
$PUCSNAME
  2

  9
$PUCSORG
 10
0.0
 20
0.0
 30
0.0
  9
$PUCSXDIR
 10
1.0
 20
0.0
 30
0.0
  9
$PUCSYDIR
 10
0.0
 20
1.0
 30
0.0
  9
$PUCSORTHOREF
  2

  9
$PUCSORTHOVIEW
 70
     0
  9
$PUCSORGTOP
 10
0.0
 20
0.0
 30
0.0
  9
$PUCSORGBOTTOM
 10
0.0
 20
0.0
 30
0.0
  9
$PUCSORGLEFT
 10
0.0
 20
0.0
 30
0.0
  9
$PUCSORGRIGHT
 10
0.0
 20
0.0
 30
0.0
  9
$PUCSORGFRONT
 10
0.0
 20
0.0
 30
0.0
  9
$PUCSORGBACK
 10
0.0
 20
0.0
 30
0.0
  9
$USERI1
 70
     0
  9
$USERI2
 70
     0
  9
$USERI3
 70
     0
  9
$USERI4
 70
     0
  9
$USERI5
 70
     0
  9
$USERR1
 40
0.0
  9
$USERR2
 40
0.0
  9
$USERR3
 40
0.0
  9
$USERR4
 40
0.0
  9
$USERR5
 40
0.0
  9
$WORLDVIEW
 70
     1
  9
$SHADEDGE
 70
     3
  9
$SHADEDIF
 70
    70
  9
$TILEMODE
 70
     1
  9
$MAXACTVP
 70
    64
  9
$PINSBASE
 10
0.0
 20
0.0
 30
0.0
  9
$PLIMCHECK
 70
     0
  9
$PEXTMIN
 10
26.66999878883364
 20
20.31999878883365
 30
0.0
  9
$PEXTMAX
 10
240.0299890995025
 20
182.8799890995025
 30
0.0
  9
$PLIMMIN
 10
-6.350006103515625
 20
-6.349999904632567
  9
$PLIMMAX
 10
273.0499877929688
 20
209.5499939918518
  9
$UNITMODE
 70
     0
  9
$VISRETAIN
 70
     1
  9
$PLINEGEN
 70
     0
  9
$PSLTSCALE
 70
     1
  9
$TREEDEPTH
 70
  3020
  9
$CMLSTYLE
  2
Standard
  9
$CMLJUST
 70
     0
  9
$CMLSCALE
 40
20.0
  9
$PROXYGRAPHICS
 70
     1
  9
$MEASUREMENT
 70
     1
  9
$CELWEIGHT
370
    -1
  9
$ENDCAPS
280
     0
  9
$JOINSTYLE
280
     0
  9
$LWDISPLAY
290
     0
  9
$INSUNITS
 70
     4
  9
$HYPERLINKBASE
  1

  9
$STYLESHEET
  1

  9
$XEDIT
290
     1
  9
$CEPSNTYPE
380
     0
  9
$PSTYLEMODE
290
     1
  9
$FINGERPRINTGUID
  2
{601DDA01-5B13-4A4C-8F56-1333B78D855B}
  9
$VERSIONGUID
  2
{34B83234-21BD-4374-A888-1539D8F05E93}
  9
$EXTNAMES
290
     1
  9
$PSVPSCALE
 40
0.0
  9
$OLESTARTUP
290
     0
  0
ENDSEC
  0
SECTION
  2
CLASSES
  0
CLASS
  1
ACDBDICTIONARYWDFLT
  2
AcDbDictionaryWithDefault
  3
ObjectDBX Classes
 90
        0
280
     0
281
     0
  0
CLASS
  1
ACDBPLACEHOLDER
  2
AcDbPlaceHolder
  3
ObjectDBX Classes
 90
        0
280
     0
281
     0
  0
CLASS
  1
LAYOUT
  2
AcDbLayout
  3
ObjectDBX Classes
 90
        0
280
     0
281
     0
  0
CLASS
  1
DICTIONARYVAR
  2
AcDbDictionaryVar
  3
ObjectDBX Classes
 90
        0
280
     0
281
     0
  0
CLASS
  1
TABLESTYLE
  2
AcDbTableStyle
  3
ObjectDBX Classes
 90
     2047
280
     0
281
     0
  0
CLASS
  1
SORTENTSTABLE
  2
AcDbSortentsTable
  3
ObjectDBX Classes
 90
        0
280
     0
281
     0
  0
CLASS
  1
DIMASSOC
  2
AcDbDimAssoc
  3
"AcDbDimAssoc|Product Desc:     AcDim ARX App For Dimension|Company:          Autodesk, Inc.|WEB Address:      www.autodesk.com"
 90
        0
280
     0
281
     0
  0
CLASS
  1
ACAD_EVALUATION_GRAPH
  2
AcDbEvalGraph
  3
ObjectDBX Classes
 90
    33921
280
     0
281
     0
  0
CLASS
  1
ACAECUSTOBJ
  2
AcAeEditorObj
  3
AcAeEditorObj
 90
    33792
280
     0
281
     0
  0
CLASS
  1
ACDB_DYNAMICBLOCKPURGEPREVENTER_VERSION
  2
AcDbDynamicBlockPurgePreventer
  3
ObjectDBX Classes
 90
    33921
280
     0
281
     0
  0
ENDSEC
  0
SECTION
  2
TABLES
  0
TABLE
  2
VPORT
  5
8
330
0
100
AcDbSymbolTable
 70
    13
  0
VPORT
  5
5B32C
330
8
100
AcDbSymbolTableRecord
100
AcDbViewportTableRecord
  2
*Active
 70
     0
 10
0.0
 20
0.0
 11
1.0
 21
1.0
 12
20.6768899009588
 22
8.212872312085181
 13
0.0
 23
0.0
 14
10.0
 24
10.0
 15
10.0
 25
10.0
 16
0.0
 26
0.0
 36
1.0
 17
0.0
 27
0.0
 37
0.0
 40
291.4299751744722
 41
1.386206896551724
 42
50.0
 43
0.0
 44
0.0
 50
0.0
 51
0.0
 71
     0
 72
  1000
 73
     1
 74
     1
 75
     0
 76
     0
 77
     0
 78
     0
281
     0
 65
     1
110
0.0
120
0.0
130
0.0
111
1.0
121
0.0
131
0.0
112
0.0
122
1.0
132
0.0
 79
     0
146
0.0
  0
ENDTAB
  0
TABLE
  2
LTYPE
  5
5
330
0
100
AcDbSymbolTable
 70
     4
  0
LTYPE
  5
14
330
5
100
AcDbSymbolTableRecord
100
AcDbLinetypeTableRecord
  2
ByBlock
 70
     0
  3

 72
    65
 73
     0
 40
0.0
  0
LTYPE
  5
15
330
5
100
AcDbSymbolTableRecord
100
AcDbLinetypeTableRecord
  2
ByLayer
 70
     0
  3

 72
    65
 73
     0
 40
0.0
  0
LTYPE
  5
16
330
5
100
AcDbSymbolTableRecord
100
AcDbLinetypeTableRecord
  2
Continuous
 70
     0
  3
Solid line
 72
    65
 73
     0
 40
0.0
  0
LTYPE
  5
D7
330
5
100
AcDbSymbolTableRecord
100
AcDbLinetypeTableRecord
  2
HIDDEN
 70
     0
  3
Hidden __ __ __ __ __ __ __ __ __ __ __ __ __ _
 72
    65
 73
     2
 40
9.524999999999996
 49
6.349999999999997
 74
     0
 49
-3.174999999999998
 74
     0
  0
LTYPE
  5
D9
330
5
100
AcDbSymbolTableRecord
100
AcDbLinetypeTableRecord
  2
CENTER
 70
     0
  3
Center ____ _ ____ _ ____ _ ____ _ ____ _ ____
 72
    65
 73
     4
 40
50.8
 49
31.75
 74
     0
 49
-6.349999999999997
 74
     0
 49
6.349999999999997
 74
     0
 49
-6.349999999999997
 74
     0
  0
LTYPE
  5
35815
330
5
100
AcDbSymbolTableRecord
100
AcDbLinetypeTableRecord
  2
PHANTOM
 70
     0
  3
_____ _ _ _____ _ _ _____ _ _ _____
 72
    65
 73
     6
 40
0.8
 49
0.45
 74
     0
 49
-0.05
 74
     0
 49
0.1
 74
     0
 49
-0.05
 74
     0
 49
0.1
 74
     0
 49
-0.05
 74
     0
  0
ENDTAB
  0
TABLE
  2
LAYER
  5
2
102
{ACAD_XDICTIONARY
360
E2
102
}
330
0
100
AcDbSymbolTable
 70
    14
  0
LAYER
  5
10
330
2
100
AcDbSymbolTableRecord
100
AcDbLayerTableRecord
  2
0
 70
     0
 62
     7
  6
Continuous
370
    -3
390
F
  0
LAYER
  5
D1
330
2
100
AcDbSymbolTableRecord
100
AcDbLayerTableRecord
  2
1
 70
     0
 62
     4
  6
Continuous
370
    50
390
F
1001
AcAecLayerStandard
1000

1000

  0
LAYER
  5
D3
330
2
100
AcDbSymbolTableRecord
100
AcDbLayerTableRecord
  2
2
 70
     0
 62
     7
  6
Continuous
370
    25
390
F
1001
AcAecLayerStandard
1000

1000

  0
LAYER
  5
D4
330
2
100
AcDbSymbolTableRecord
100
AcDbLayerTableRecord
  2
3
 70
     0
 62
     1
  6
HIDDEN
370
    35
390
F
1001
AcAecLayerStandard
1000

1000

  0
LAYER
  5
D8
330
2
100
AcDbSymbolTableRecord
100
AcDbLayerTableRecord
  2
4
 70
     0
 62
     2
  6
CENTER
370
    25
390
F
1001
AcAecLayerStandard
1000

1000

  0
LAYER
  5
DA
330
2
100
AcDbSymbolTableRecord
100
AcDbLayerTableRecord
  2
6
 70
     0
 62
     5
  6
Continuous
370
    35
390
F
1001
AcAecLayerStandard
1000

1000

  0
LAYER
  5
DB
330
2
100
AcDbSymbolTableRecord
100
AcDbLayerTableRecord
  2
cut
 70
     0
 62
     1
  6
Continuous
370
    25
390
F
1001
AcAecLayerStandard
1000

1000

  0
LAYER
  5
DC
330
2
100
AcDbSymbolTableRecord
100
AcDbLayerTableRecord
  2
nocut
 70
     0
 62
     7
  6
Continuous
370
    25
390
F
1001
AcAecLayerStandard
1000

1000

  0
LAYER
  5
DD
330
2
100
AcDbSymbolTableRecord
100
AcDbLayerTableRecord
  2
sk1
 70
     0
 62
     4
  6
Continuous
370
    50
390
F
1001
AcAecLayerStandard
1000

1000

  0
LAYER
  5
DE
330
2
100
AcDbSymbolTableRecord
100
AcDbLayerTableRecord
  2
sk2
 70
     0
 62
     7
  6
Continuous
370
    25
390
F
1001
AcAecLayerStandard
1000

1000

  0
LAYER
  5
DF
330
2
100
AcDbSymbolTableRecord
100
AcDbLayerTableRecord
  2
sk3
 70
     0
 62
     1
  6
HIDDEN
370
    35
390
F
1001
AcAecLayerStandard
1000

1000

  0
LAYER
  5
E0
330
2
100
AcDbSymbolTableRecord
100
AcDbLayerTableRecord
  2
sk4
 70
     0
 62
     2
  6
CENTER
370
    25
390
F
1001
AcAecLayerStandard
1000

1000

  0
LAYER
  5
E1
330
2
100
AcDbSymbolTableRecord
100
AcDbLayerTableRecord
  2
sk6
 70
     0
 62
     5
  6
Continuous
370
    35
390
F
1001
AcAecLayerStandard
1000

1000

  0
LAYER
  5
31B6
330
2
100
AcDbSymbolTableRecord
100
AcDbLayerTableRecord
  2
Defpoints
 70
     0
 62
     7
  6
Continuous
290
     0
370
    -3
390
F
  0
ENDTAB
  0
TABLE
  2
STYLE
  5
3
330
0
100
AcDbSymbolTable
 70
    11
  0
STYLE
  5
11
330
3
100
AcDbSymbolTableRecord
100
AcDbTextStyleTableRecord
  2
Standard
 70
     0
 40
0.0
 41
1.0
 50
0.0
 71
     0
 42
2.5
  3
txt.shx
  4
@extfont2.shx
  0
STYLE
  5
D6
330
3
100
AcDbSymbolTableRecord
100
AcDbTextStyleTableRecord
  2

 70
     1
 40
0.0
 41
1.0
 50
0.0
 71
     0
 42
2.5
  3
ltypeshp.shx
  4

  0
STYLE
  5
24A
330
3
100
AcDbSymbolTableRecord
100
AcDbTextStyleTableRecord
  2
simplex
 70
     0
 40
3.5
 41
1.0
 50
0.0
 71
     0
 42
3.5
  3
txt.shx
  4

  0
STYLE
  5
69E
330
3
100
AcDbSymbolTableRecord
100
AcDbTextStyleTableRecord
  2
MX_NOTE_STANDARD
 70
     0
 40
0.0
 41
1.0
 50
0.0
 71
     0
 42
4.2
  3
txt.shx
  4
extfont.shx
  0
STYLE
  5
3524
330
3
100
AcDbSymbolTableRecord
100
AcDbTextStyleTableRecord
  2
TEXTSTYLE_2
 70
     0
 40
0.0
 41
0.775
 50
0.0
 71
     0
 42
0.2
  3
gdt
  4

  0
STYLE
  5
3525
330
3
100
AcDbSymbolTableRecord
100
AcDbTextStyleTableRecord
  2
TEXTSTYLE_3
 70
     0
 40
0.0
 41
0.75
 50
0.0
 71
     0
 42
0.2
  3
txt
  4

  0
STYLE
  5
3526
330
3
100
AcDbSymbolTableRecord
100
AcDbTextStyleTableRecord
  2
TEXTSTYLE_13
 70
     0
 40
0.0
 41
1.0
 50
0.0
 71
     0
 42
0.2
  3
txt
  4

  0
STYLE
  5
519A
330
3
100
AcDbSymbolTableRecord
100
AcDbTextStyleTableRecord
  2
TEXTSTYLE_14
 70
     0
 40
0.0
 41
1.0
 50
0.0
 71
     0
 42
0.2
  3
txt
  4

  0
STYLE
  5
6F72
330
3
100
AcDbSymbolTableRecord
100
AcDbTextStyleTableRecord
  2
TEXTSTYLE_4
 70
     0
 40
0.0
 41
0.75
 50
0.0
 71
     0
 42
0.2
  3
txt
  4

  0
STYLE
  5
6F73
330
3
100
AcDbSymbolTableRecord
100
AcDbTextStyleTableRecord
  2
TEXTSTYLE_17
 70
     0
 40
0.0
 41
1.0
 50
0.0
 71
     0
 42
0.2
  3
txt
  4

  0
STYLE
  5
FE12
330
3
100
AcDbSymbolTableRecord
100
AcDbTextStyleTableRecord
  2
TEXTSTYLE_12
 70
     0
 40
0.0
 41
1.0
 50
0.0
 71
     0
 42
0.2
  3
txt
  4

  0
ENDTAB
  0
TABLE
  2
VIEW
  5
6
330
0
100
AcDbSymbolTable
 70
     0
  0
ENDTAB
  0
TABLE
  2
UCS
  5
7
330
0
100
AcDbSymbolTable
 70
     0
  0
ENDTAB
  0
TABLE
  2
APPID
  5
9
330
0
100
AcDbSymbolTable
 70
    11
  0
APPID
  5
12
330
9
100
AcDbSymbolTableRecord
100
AcDbRegAppTableRecord
  2
ACAD
 70
     0
  0
APPID
  5
D2
330
9
100
AcDbSymbolTableRecord
100
AcDbRegAppTableRecord
  2
AcAecLayerStandard
 70
     0
  0
APPID
  5
E6
330
9
100
AcDbSymbolTableRecord
100
AcDbRegAppTableRecord
  2
ACAD_DSTYLE_DIMTEXT_FILL
 70
     0
  0
APPID
  5
4C84
330
9
100
AcDbSymbolTableRecord
100
AcDbRegAppTableRecord
  2
ACAD_EXEMPT_FROM_CAD_STANDARDS
 70
     0
  0
APPID
  5
3493E
330
9
100
AcDbSymbolTableRecord
100
AcDbRegAppTableRecord
  2
DCO15
 70
     0
  0
APPID
  5
4366A
330
9
100
AcDbSymbolTableRecord
100
AcDbRegAppTableRecord
  2
ACAUTHENVIRON
 70
     0
  0
APPID
  5
4366D
330
9
100
AcDbSymbolTableRecord
100
AcDbRegAppTableRecord
  2
AcDbDynamicBlockTrueName
 70
     0
  0
APPID
  5
4366E
330
9
100
AcDbSymbolTableRecord
100
AcDbRegAppTableRecord
  2
AcDbDynamicBlockGUID
 70
     0
  0
APPID
  5
43670
330
9
100
AcDbSymbolTableRecord
100
AcDbRegAppTableRecord
  2
AcDbBlockRepETag
 70
     0
  0
APPID
  5
45C9F
330
9
100
AcDbSymbolTableRecord
100
AcDbRegAppTableRecord
  2
ACAD_DSTYLE_DIMEXT_ENABLED
 70
     0
  0
APPID
  5
45CA0
330
9
100
AcDbSymbolTableRecord
100
AcDbRegAppTableRecord
  2
ACAD_DSTYLE_DIMEXT_LENGTH
 70
     0
  0
ENDTAB
  0
TABLE
  2
DIMSTYLE
  5
A
330
0
100
AcDbSymbolTable
 70
     9
100
AcDbDimStyleTable
 71
     2
340
1BF
340
27
  0
DIMSTYLE
105
27
330
A
100
AcDbSymbolTableRecord
100
AcDbDimStyleTableRecord
  2
ISO-25
 70
     0
 41
2.5
 42
0.625
 43
3.75
 44
1.25
 73
     0
 74
     0
 77
     1
 78
     8
140
2.5
141
2.5
143
0.03937007874016
147
0.625
171
     3
172
     1
271
     2
272
     2
274
     3
278
    44
283
     0
284
     8
340
11
  0
DIMSTYLE
105
1BF
102
{ACAD_REACTORS
330
5B245
330
5B07D
330
5B07F
330
5B080
330
5B081
330
5B082
330
5B083
102
}
330
A
100
AcDbSymbolTableRecord
100
AcDbDimStyleTableRecord
  2
\M+18352\M+18373\M+1815B - ISO-25
 70
     0
 40
0.0
 41
3.5
 42
0.0
 44
1.5
 73
     0
 74
     0
 77
     1
 78
     8
140
3.5
147
2.299999999999998
176
   256
177
   256
178
   256
271
     2
272
     2
284
     8
340
24A
371
    -1
372
    -1
  0
DIMSTYLE
105
69F
330
A
100
AcDbSymbolTableRecord
100
AcDbDimStyleTableRecord
  2
MXDIMSTYLE
 70
     0
 41
2.5
 42
0.5
 43
3.75
 44
1.5
 73
     0
 74
     0
 77
     1
 78
     8
140
4.2
141
2.5
143
0.03937
147
1.0
171
     4
172
     1
173
     1
271
     2
272
     2
274
     4
283
     0
288
     1
340
69E
341
697
343
697
344
697
  0
DIMSTYLE
105
3527
330
A
100
AcDbSymbolTableRecord
100
AcDbDimStyleTableRecord
  2
STANDARD
 70
     0
 41
3.0
 47
0.001
 48
0.001
 71
     1
 73
     0
 74
     0
 77
     1
 78
     8
140
4.0
271
     3
272
     3
284
     8
340
11
341
34B1
342
34B1
343
34B1
344
34B1
  0
DIMSTYLE
105
3528
330
A
100
AcDbSymbolTableRecord
100
AcDbDimStyleTableRecord
  2
DIMSTYLE_1
 70
     0
 41
3.0
 73
     0
 74
     0
 77
     1
 78
     8
140
4.0
271
     3
272
     3
284
     8
340
11
341
34B1
342
34B1
343
34B1
344
34B1
  0
DIMSTYLE
105
3529
330
A
100
AcDbSymbolTableRecord
100
AcDbDimStyleTableRecord
  2
DIMSTYLE_2
 70
     0
 41
3.0
 47
0.001
 48
0.001
 73
     0
 74
     0
 77
     1
 78
     8
140
4.0
271
     3
272
     3
284
     8
340
11
341
34B1
342
34B1
343
34B1
344
34B1
  0
DIMSTYLE
105
352A
330
A
100
AcDbSymbolTableRecord
100
AcDbDimStyleTableRecord
  2
DIMSTYLE_3
 70
     0
 41
3.0
 47
-0.1
 48
0.3
 71
     1
 73
     0
 74
     0
 77
     1
 78
     8
140
4.0
146
0.5
271
     3
272
     3
284
     8
340
11
341
34B1
342
34B1
343
34B1
344
34B1
  0
DIMSTYLE
105
352B
330
A
100
AcDbSymbolTableRecord
100
AcDbDimStyleTableRecord
  2
DIMSTYLE_4
 70
     0
 41
3.0
 47
0.1
 48
0.1
 71
     1
 73
     0
 74
     0
 77
     1
 78
     8
140
4.0
271
     3
272
     3
284
     8
340
11
341
34B1
342
34B1
343
34B1
344
34B1
  0
DIMSTYLE
105
27245
330
A
100
AcDbSymbolTableRecord
100
AcDbDimStyleTableRecord
  2
DIMSTYLE_5
 70
     0
 41
3.0
 47
0.001
 48
0.001
 73
     0
 74
     0
 77
     1
 78
     8
140
4.0
271
     3
272
     3
284
     8
340
11
341
34B1
342
34B1
343
34B1
344
34B1
  0
ENDTAB
  0
TABLE
  2
BLOCK_RECORD
  5
1
330
0
100
AcDbSymbolTable
 70
   148
  0
BLOCK_RECORD
  5
1F
102
{ACAD_XDICTIONARY
360
31EE
102
}
330
1
100
AcDbSymbolTableRecord
100
AcDbBlockTableRecord
  2
*Model_Space
340
22
  0
BLOCK_RECORD
  5
50
330
1
100
AcDbSymbolTableRecord
100
AcDbBlockTableRecord
  2
*Paper_Space
340
51
  0
BLOCK_RECORD
  5
55
330
1
100
AcDbSymbolTableRecord
100
AcDbBlockTableRecord
  2
*Paper_Space0
340
56
  0
BLOCK_RECORD
  5
680
102
{ACAD_XDICTIONARY
360
43668
102
}
330
1
100
AcDbSymbolTableRecord
100
AcDbBlockTableRecord
  2
zero block
340
0
102
{BLKREFS
331
68C
102
}
1001
ACAD
1000
DesignCenter Data
1002
{
1070
     1
1070
     4
1002
}
1001
AcDbDynamicBlockGUID
1000
{A89DF4EB-B2CB-439E-AC69-1EAC9F242D1C}
1001
AcDbBlockRepETag
1070
     1
1071
        7
  0
BLOCK_RECORD
  5
697
330
1
100
AcDbSymbolTableRecord
100
AcDbBlockTableRecord
  2
_OPEN30
340
0
  0
BLOCK_RECORD
  5
32F1
330
1
100
AcDbSymbolTableRecord
100
AcDbBlockTableRecord
  2
_None
340
0
  0
BLOCK_RECORD
  5
34B1
330
1
100
AcDbSymbolTableRecord
100
AcDbBlockTableRecord
  2
_OPEN
340
0
  0
BLOCK_RECORD
  5
5A185
330
1
100
AcDbSymbolTableRecord
100
AcDbBlockTableRecord
  2
*D100
340
0
  0
BLOCK_RECORD
  5
5B252
330
1
100
AcDbSymbolTableRecord
100
AcDbBlockTableRecord
  2
*D141
340
0
  0
BLOCK_RECORD
  5
5B25F
330
1
100
AcDbSymbolTableRecord
100
AcDbBlockTableRecord
  2
*D142
340
0
  0
BLOCK_RECORD
  5
5B269
330
1
100
AcDbSymbolTableRecord
100
AcDbBlockTableRecord
  2
*D143
340
0
  0
BLOCK_RECORD
  5
5B275
330
1
100
AcDbSymbolTableRecord
100
AcDbBlockTableRecord
  2
*D144
340
0
  0
BLOCK_RECORD
  5
5B281
330
1
100
AcDbSymbolTableRecord
100
AcDbBlockTableRecord
  2
*D145
340
0
  0
BLOCK_RECORD
  5
5B28D
330
1
100
AcDbSymbolTableRecord
100
AcDbBlockTableRecord
  2
*D146
340
0
  0
BLOCK_RECORD
  5
5B299
330
1
100
AcDbSymbolTableRecord
100
AcDbBlockTableRecord
  2
*D147
340
0
  0
ENDTAB
  0
ENDSEC
  0
SECTION
  2
BLOCKS
  0
BLOCK
  5
20
330
1F
100
AcDbEntity
  8
0
100
AcDbBlockBegin
  2
*Model_Space
 70
     0
 10
0.0
 20
0.0
 30
0.0
  3
*Model_Space
  1

  0
ENDBLK
  5
21
330
1F
100
AcDbEntity
  8
0
100
AcDbBlockEnd
  0
BLOCK
  5
52
330
50
100
AcDbEntity
 67
     1
  8
0
100
AcDbBlockBegin
  2
*Paper_Space
 70
     0
 10
0.0
 20
0.0
 30
0.0
  3
*Paper_Space
  1

  0
ENDBLK
  5
53
330
50
100
AcDbEntity
 67
     1
  8
0
100
AcDbBlockEnd
  0
BLOCK
  5
57
330
55
100
AcDbEntity
 67
     1
  8
0
100
AcDbBlockBegin
  2
*Paper_Space0
 70
     0
 10
0.0
 20
0.0
 30
0.0
  3
*Paper_Space0
  1

  0
VIEWPORT
  5
71
102
{ACAD_XDICTIONARY
360
5B337
102
}
330
55
100
AcDbEntity
 67
     1
  8
0
100
AcDbViewport
 10
150.1652135264906
 20
101.599997546291
 30
0.0
 40
339.1973820494347
 41
164.5360435314421
 68
     0
 69
     0
 12
150.1652135264906
 22
101.599997546291
 13
0.0
 23
0.0
 14
10.0
 24
10.0
 15
10.0
 25
10.0
 16
0.0
 26
0.0
 36
1.0
 17
0.0
 27
0.0
 37
0.0
 42
50.0
 43
0.0
 44
0.0
 45
164.5360435314421
 50
0.0
 51
0.0
 72
  1000
 90
    32864
  1

281
     0
 71
     1
 74
     0
110
0.0
120
0.0
130
0.0
111
1.0
121
0.0
131
0.0
112
0.0
122
1.0
132
0.0
 79
     0
146
0.0
  0
VIEWPORT
  5
73
102
{ACAD_XDICTIONARY
360
5B339
102
}
330
55
100
AcDbEntity
 67
     1
  8
0
100
AcDbViewport
 10
133.3499939441681
 20
101.5999939441681
 30
0.0
 40
213.3599903106689
 41
162.5599903106689
 68
     0
 69
     0
 12
210.0
 22
148.5
 13
0.0
 23
0.0
 14
10.0
 24
10.0
 15
10.0
 25
10.0
 16
0.0
 26
0.0
 36
1.0
 17
0.0
 27
0.0
 37
0.0
 42
50.0
 43
0.0
 44
0.0
 45
324.0677920111345
 50
0.0
 51
0.0
 72
   100
 90
    32864
  1

281
     0
 71
     1
 74
     0
110
0.0
120
0.0
130
0.0
111
1.0
121
0.0
131
0.0
112
0.0
122
1.0
132
0.0
 79
     0
146
0.0
  0
ENDBLK
  5
58
330
55
100
AcDbEntity
 67
     1
  8
0
100
AcDbBlockEnd
  0
BLOCK
  5
68A
330
680
100
AcDbEntity
  8
0
100
AcDbBlockBegin
  2
zero block
 70
     0
 10
0.0
 20
0.0
 30
0.0
  3
zero block
  1

  0
HATCH
  5
43661
330
680
100
AcDbEntity
  8
0
 62
     7
100
AcDbHatch
 10
0.0
 20
0.0
 30
0.0
210
0.0
220
0.0
230
1.0
  2
SOLID
 70
     1
 71
     0
 91
        2
 92
        7
 72
     1
 73
     1
 93
        3
 10
0.0
 20
0.9999999999999875
 42
0.4142135623730915
 10
-1.0
 20
0.0
 42
0.0
 10
0.0
 20
0.0
 42
0.0
 97
        0
 92
        7
 72
     1
 73
     1
 93
        3
 10
1.000000000000007
 20
0.0
 42
0.0
 10
0.0
 20
0.0
 42
0.0
 10
0.0
 20
-1.0
 42
0.4142135623730974
 97
        0
 75
     0
 76
     1
 47
0.0090601366782909
 98
        2
 10
-0.380591363650975
 20
0.4885804701532896
 10
0.4350764810977559
 20
-0.4536738423704725
1001
AcDbBlockRepETag
1070
     1
1071
        0
1005
43661
  0
LINE
  5
43662
330
680
100
AcDbEntity
  8
0
 62
     7
 48
0.2
100
AcDbLine
 10
-1.0
 20
0.0
 30
0.0
 11
1.000000000000007
 21
0.0
 31
0.0
1001
AcDbBlockRepETag
1070
     1
1071
        1
1005
43662
  0
LINE
  5
43663
330
680
100
AcDbEntity
  8
0
 62
     7
 48
0.2
100
AcDbLine
 10
0.0
 20
-1.0
 30
0.0
 11
0.0
 21
0.9999999999999875
 31
0.0
1001
AcDbBlockRepETag
1070
     1
1071
        2
1005
43663
  0
ARC
  5
43664
330
680
100
AcDbEntity
  8
0
 62
     7
 48
0.2
100
AcDbCircle
 10
0.0
 20
0.0
 30
0.0
 40
1.0
100
AcDbArc
 50
270.0
 51
0.0
1001
AcDbBlockRepETag
1070
     1
1071
        3
1005
43664
  0
ARC
  5
43665
330
680
100
AcDbEntity
  8
0
 62
     7
 48
0.2
100
AcDbCircle
 10
0.0
 20
0.0
 30
0.0
 40
1.0
100
AcDbArc
 50
0.0
 51
90.0
1001
AcDbBlockRepETag
1070
     1
1071
        4
1005
43665
  0
ARC
  5
43666
330
680
100
AcDbEntity
  8
0
 62
     7
 48
0.2
100
AcDbCircle
 10
0.0
 20
0.0
 30
0.0
 40
1.0
100
AcDbArc
 50
180.0
 51
270.0
1001
AcDbBlockRepETag
1070
     1
1071
        5
1005
43666
  0
ARC
  5
43667
330
680
100
AcDbEntity
  8
0
 62
     7
 48
0.2
100
AcDbCircle
 10
0.0
 20
0.0
 30
0.0
 40
1.0
100
AcDbArc
 50
90.0
 51
180.0
1001
AcDbBlockRepETag
1070
     1
1071
        6
1005
43667
  0
ENDBLK
  5
68B
330
680
100
AcDbEntity
  8
0
100
AcDbBlockEnd
  0
BLOCK
  5
698
330
697
100
AcDbEntity
  8
0
  6
ByBlock
 62
     0
370
    -2
100
AcDbBlockBegin
  2
_OPEN30
 70
     2
 10
0.0
 20
0.0
 30
0.0
  3
_OPEN30
  1

  0
LINE
  5
699
330
697
100
AcDbEntity
  8
0
  6
ByBlock
 62
     0
370
    -2
100
AcDbLine
 10
-1.0
 20
0.267949
 30
0.0
 11
0.0
 21
0.0
 31
0.0
  0
LINE
  5
69A
330
697
100
AcDbEntity
  8
0
  6
ByBlock
 62
     0
370
    -2
100
AcDbLine
 10
0.0
 20
0.0
 30
0.0
 11
-1.0
 21
-0.267949
 31
0.0
  0
LINE
  5
69B
330
697
100
AcDbEntity
  8
0
  6
ByBlock
 62
     0
370
    -2
100
AcDbLine
 10
0.0
 20
0.0
 30
0.0
 11
-1.0
 21
0.0
 31
0.0
  0
ENDBLK
  5
69C
330
697
100
AcDbEntity
  8
0
  6
ByBlock
 62
     0
370
    -2
100
AcDbBlockEnd
  0
BLOCK
  5
32F2
330
32F1
100
AcDbEntity
  8
0
100
AcDbBlockBegin
  2
_None
 70
     0
 10
0.0
 20
0.0
 30
0.0
  3
_None
  1

  0
ENDBLK
  5
32F3
330
32F1
100
AcDbEntity
  8
0
100
AcDbBlockEnd
  0
BLOCK
  5
34B2
330
34B1
100
AcDbEntity
  8
0
100
AcDbBlockBegin
  2
_OPEN
 70
     0
 10
0.0
 20
0.0
 30
0.0
  3
_OPEN
  1

  0
LINE
  5
34B3
330
34B1
100
AcDbEntity
  8
0
  6
ByBlock
 62
     0
100
AcDbLine
 10
0.0
 20
0.0
 30
0.0
 11
-1.0
 21
0.1766666667
 31
0.0
  0
LINE
  5
34B4
330
34B1
100
AcDbEntity
  8
0
  6
ByBlock
 62
     0
100
AcDbLine
 10
-1.0
 20
-0.1766666667
 30
0.0
 11
0.0
 21
0.0
 31
0.0
  0
LINE
  5
34B5
330
34B1
100
AcDbEntity
  8
0
  6
ByBlock
 62
     0
100
AcDbLine
 10
-1.0
 20
0.0
 30
0.0
 11
0.0
 21
0.0
 31
0.0
  0
ENDBLK
  5
34B6
330
34B1
100
AcDbEntity
  8
0
  6
ByBlock
 62
     0
100
AcDbBlockEnd
  0
BLOCK
  5
5A18F
330
5A185
100
AcDbEntity
  8
0
100
AcDbBlockBegin
  2
*D100
 70
     1
 10
0.0
 20
0.0
 30
0.0
  3
*D100
  1

  0
LINE
  5
5A1E4
330
5A185
100
AcDbEntity
  8
sk2
100
AcDbLine
 10
0.0
 20
-10.72500100000004
 30
0.0
 11
-0.0000000000000021
 21
-44.39459184851272
 31
0.0
  0
LINE
  5
5A1E5
330
5A185
100
AcDbEntity
  8
sk2
100
AcDbLine
 10
19.0
 20
-9.200000000000017
 30
0.0
 11
19.0
 21
-44.39459184851272
 31
0.0
  0
LINE
  5
5A1E6
330
5A185
100
AcDbEntity
  8
sk2
100
AcDbLine
 10
3.499999999999998
 20
-42.89459184851271
 30
0.0
 11
15.5
 21
-42.89459184851271
 31
0.0
  0
LINE
  5
5A1E7
330
5A185
100
AcDbEntity
  8
sk2
100
AcDbLine
 10
19.0
 20
-42.89459184851271
 30
0.0
 11
53.93333333333334
 21
-42.89459184851271
 31
0.0
  0
SOLID
  5
5A1E8
330
5A185
100
AcDbEntity
  8
sk2
100
AcDbTrace
 10
3.499999999999998
 20
-42.31125851517938
 30
0.0
 11
3.499999999999998
 21
-43.47792518184605
 31
0.0
 12
-0.000000000000002
 22
-42.89459184851271
 32
0.0
 13
-0.000000000000002
 23
-42.89459184851271
 33
0.0
  0
SOLID
  5
5A1E9
330
5A185
100
AcDbEntity
  8
sk2
100
AcDbTrace
 10
15.5
 20
-42.31125851517938
 30
0.0
 11
15.5
 21
-43.47792518184605
 31
0.0
 12
19.0
 22
-42.89459184851271
 32
0.0
 13
19.0
 23
-42.89459184851271
 33
0.0
  0
MTEXT
  5
5A1EA
330
5A185
100
AcDbEntity
  8
sk2
100
AcDbMText
 10
38.21666666666667
 20
-38.84459184851272
 30
0.0
 40
3.5
 41
0.0
 71
     5
 72
     1
  1
\A1;19 [.748"]
  7
simplex
 73
     1
 44
1.0
1001
ACAD
1000
MTEXTBEGIN
1070
    73
1070
     1
1070
    44
1040
1.0
1070
    74
1070
     0
1000
MTEXTEND
  0
POINT
  5
5A1EB
330
5A185
100
AcDbEntity
  8
Defpoints
 62
     0
100
AcDbPoint
 10
0.0
 20
-10.72500100000004
 30
0.0
  0
POINT
  5
5A1EC
330
5A185
100
AcDbEntity
  8
Defpoints
 62
     0
100
AcDbPoint
 10
19.0
 20
-9.200000000000017
 30
0.0
  0
POINT
  5
5A1ED
330
5A185
100
AcDbEntity
  8
Defpoints
 62
     0
100
AcDbPoint
 10
19.0
 20
-42.89459184851271
 30
0.0
  0
ENDBLK
  5
5A190
330
5A185
100
AcDbEntity
  8
0
100
AcDbBlockEnd
  0
BLOCK
  5
5B25D
330
5B252
100
AcDbEntity
  8
0
100
AcDbBlockBegin
  2
*D141
 70
     1
 10
0.0
 20
0.0
 30
0.0
  3
*D141
  1

  0
LINE
  5
5B2E9
330
5B252
100
AcDbEntity
  8
2
100
AcDbLine
 10
63.50000000000008
 20
36.79000894387446
 30
0.0
 11
63.50000000000008
 21
64.27170001067157
 31
0.0
  0
LINE
  5
5B2EA
330
5B252
100
AcDbEntity
  8
2
100
AcDbLine
 10
48.00000000000006
 20
38.16758414727883
 30
0.0
 11
48.00000000000006
 21
64.27170001067157
 31
0.0
  0
LINE
  5
5B2EB
330
5B252
100
AcDbEntity
  8
2
100
AcDbLine
 10
60.00000000000008
 20
62.77170001067156
 30
0.0
 11
51.50000000000005
 21
62.77170001067156
 31
0.0
  0
LINE
  5
5B2EC
330
5B252
100
AcDbEntity
  8
2
100
AcDbLine
 10
48.00000000000006
 20
62.77170001067156
 30
0.0
 11
-5.016666666666615
 21
62.77170001067156
 31
0.0
  0
SOLID
  5
5B2ED
330
5B252
100
AcDbEntity
  8
2
100
AcDbTrace
 10
60.00000000000008
 20
63.3550333440049
 30
0.0
 11
60.00000000000008
 21
62.18836667733823
 31
0.0
 12
63.50000000000008
 22
62.77170001067156
 32
0.0
 13
63.50000000000008
 23
62.77170001067156
 33
0.0
  0
SOLID
  5
5B2EE
330
5B252
100
AcDbEntity
  8
2
100
AcDbTrace
 10
51.50000000000005
 20
63.3550333440049
 30
0.0
 11
51.50000000000005
 21
62.18836667733823
 31
0.0
 12
48.00000000000006
 22
62.77170001067156
 32
0.0
 13
48.00000000000006
 23
62.77170001067156
 33
0.0
  0
MTEXT
  5
5B2EF
330
5B252
100
AcDbEntity
  8
2
100
AcDbMText
 10
19.74166666666672
 20
66.82170001067156
 30
0.0
 40
3.5
 41
0.0
 71
     5
 72
     1
  1
\A1;15.5 [.610"](MAX)
  7
simplex
 73
     1
 44
1.0
1001
ACAD
1000
MTEXTBEGIN
1070
    73
1070
     1
1070
    44
1040
1.0
1070
    74
1070
     0
1000
MTEXTEND
  0
POINT
  5
5B2F0
330
5B252
100
AcDbEntity
  8
Defpoints
 62
     0
100
AcDbPoint
 10
63.50000000000008
 20
36.79000894387446
 30
0.0
  0
POINT
  5
5B2F1
330
5B252
100
AcDbEntity
  8
Defpoints
 62
     0
100
AcDbPoint
 10
48.00000000000006
 20
38.16758414727883
 30
0.0
  0
POINT
  5
5B2F2
330
5B252
100
AcDbEntity
  8
Defpoints
 62
     0
100
AcDbPoint
 10
48.00000000000006
 20
62.77170001067156
 30
0.0
  0
ENDBLK
  5
5B25E
330
5B252
100
AcDbEntity
  8
0
100
AcDbBlockEnd
  0
BLOCK
  5
5B267
330
5B25F
100
AcDbEntity
  8
0
100
AcDbBlockBegin
  2
*D142
 70
     1
 10
0.0
 20
0.0
 30
0.0
  3
*D142
  1

  0
LINE
  5
5B2F3
330
5B25F
100
AcDbEntity
  8
2
100
AcDbLine
 10
63.5
 20
38.1
 30
0.0
 11
88.94474054840616
 21
38.09999999999999
 31
0.0
  0
LINE
  5
5B2F4
330
5B25F
100
AcDbEntity
  8
2
100
AcDbLine
 10
87.44474054840615
 20
34.59999999999999
 30
0.0
 11
87.44474054840614
 21
-38.10000000000002
 31
0.0
  0
SOLID
  5
5B2F5
330
5B25F
100
AcDbEntity
  8
2
100
AcDbTrace
 10
86.86140721507284
 20
34.59999999999999
 30
0.0
 11
88.02807388173949
 21
34.59999999999999
 31
0.0
 12
87.44474054840615
 22
38.09999999999999
 32
0.0
 13
87.44474054840615
 23
38.09999999999999
 33
0.0
  0
MTEXT
  5
5B2F6
330
5B25F
100
AcDbEntity
  8
2
100
AcDbMText
 10
81.64474054840615
 20
-2.83333333330001
 30
0.0
 40
3.5
 41
0.0
 71
     2
 72
     1
  1
\A1;%%c76.2 [%%c3.000"]
  7
simplex
 11
0.0000000000000001
 21
1.0
 31
0.0
 73
     1
 44
1.0
1001
ACAD
1000
MTEXTBEGIN
1070
    73
1070
     1
1070
    44
1040
1.0
1070
    74
1070
     0
1000
MTEXTEND
  0
POINT
  5
5B2F7
330
5B25F
100
AcDbEntity
  8
Defpoints
 62
     0
100
AcDbPoint
 10
63.5
 20
38.1
 30
0.0
  0
POINT
  5
5B2F8
330
5B25F
100
AcDbEntity
  8
Defpoints
 62
     0
100
AcDbPoint
 10
63.5
 20
-38.10000000000002
 30
0.0
  0
POINT
  5
5B2F9
330
5B25F
100
AcDbEntity
  8
Defpoints
 62
     0
100
AcDbPoint
 10
87.44474054840614
 20
-38.10000000000002
 30
0.0
  0
ENDBLK
  5
5B268
330
5B25F
100
AcDbEntity
  8
0
100
AcDbBlockEnd
  0
BLOCK
  5
5B273
330
5B269
100
AcDbEntity
  8
0
100
AcDbBlockBegin
  2
*D143
 70
     1
 10
0.0
 20
0.0
 30
0.0
  3
*D143
  1

  0
LINE
  5
5B2FA
330
5B269
100
AcDbEntity
  8
sk2
100
AcDbLine
 10
2.0
 20
36.57500000000002
 30
0.0
 11
-26.36543943990682
 21
36.57500000000002
 31
0.0
  0
LINE
  5
5B2FB
330
5B269
100
AcDbEntity
  8
sk2
100
AcDbLine
 10
1.999999999999999
 20
-36.57500000000001
 30
0.0
 11
-26.36543943990683
 21
-36.57500000000001
 31
0.0
  0
LINE
  5
5B2FC
330
5B269
100
AcDbEntity
  8
sk2
100
AcDbLine
 10
-24.86543943990682
 20
33.07500000000003
 30
0.0
 11
-24.86543943990683
 21
-33.075
 31
0.0
  0
SOLID
  5
5B2FD
330
5B269
100
AcDbEntity
  8
sk2
100
AcDbTrace
 10
-25.44877277324015
 20
33.07500000000003
 30
0.0
 11
-24.28210610657349
 21
33.07500000000003
 31
0.0
 12
-24.86543943990682
 22
36.57500000000002
 32
0.0
 13
-24.86543943990682
 23
36.57500000000002
 33
0.0
  0
SOLID
  5
5B2FE
330
5B269
100
AcDbEntity
  8
sk2
100
AcDbTrace
 10
-25.44877277324016
 20
-33.075
 30
0.0
 11
-24.2821061065735
 21
-33.075
 31
0.0
 12
-24.86543943990683
 22
-36.57500000000001
 32
0.0
 13
-24.86543943990683
 23
-36.57500000000001
 33
0.0
  0
MTEXT
  5
5B2FF
330
5B269
100
AcDbEntity
  8
sk2
100
AcDbMText
 10
-30.66543943990682
 20
0.0000000000000005
 30
0.0
 40
3.5
 41
0.0
 71
     2
 72
     1
  1
\A1;%%c73.15 [%%c2.880"]
  7
simplex
 11
0.0000000000000001
 21
1.0
 31
0.0
 73
     1
 44
1.0
1001
ACAD
1000
MTEXTBEGIN
1070
    73
1070
     1
1070
    44
1040
1.0
1070
    74
1070
     0
1000
MTEXTEND
  0
POINT
  5
5B300
330
5B269
100
AcDbEntity
  8
Defpoints
 62
     0
100
AcDbPoint
 10
2.0
 20
36.57500000000002
 30
0.0
  0
POINT
  5
5B301
330
5B269
100
AcDbEntity
  8
Defpoints
 62
     0
100
AcDbPoint
 10
1.999999999999999
 20
-36.57500000000001
 30
0.0
  0
POINT
  5
5B302
330
5B269
100
AcDbEntity
  8
Defpoints
 62
     0
100
AcDbPoint
 10
-24.86543943990683
 20
-36.57500000000001
 30
0.0
  0
ENDBLK
  5
5B274
330
5B269
100
AcDbEntity
  8
0
100
AcDbBlockEnd
  0
BLOCK
  5
5B27F
330
5B275
100
AcDbEntity
  8
0
100
AcDbBlockBegin
  2
*D144
 70
     1
 10
0.0
 20
0.0
 30
0.0
  3
*D144
  1

  0
LINE
  5
5B303
330
5B275
100
AcDbEntity
  8
sk2
100
AcDbLine
 10
1.199999999999988
 20
15.875
 30
0.0
 11
-14.06468038385014
 21
15.875
 31
0.0
  0
LINE
  5
5B304
330
5B275
100
AcDbEntity
  8
sk2
100
AcDbLine
 10
1.199999999999988
 20
-15.875
 30
0.0
 11
-14.06468038385015
 21
-15.87499999999999
 31
0.0
  0
LINE
  5
5B305
330
5B275
100
AcDbEntity
  8
sk2
100
AcDbLine
 10
-12.56468038385014
 20
12.375
 30
0.0
 11
-12.56468038385015
 21
-12.375
 31
0.0
  0
SOLID
  5
5B306
330
5B275
100
AcDbEntity
  8
sk2
100
AcDbTrace
 10
-13.14801371718347
 20
12.375
 30
0.0
 11
-11.98134705051681
 21
12.375
 31
0.0
 12
-12.56468038385014
 22
15.875
 32
0.0
 13
-12.56468038385014
 23
15.875
 33
0.0
  0
SOLID
  5
5B307
330
5B275
100
AcDbEntity
  8
sk2
100
AcDbTrace
 10
-13.14801371718348
 20
-12.375
 30
0.0
 11
-11.98134705051681
 21
-12.375
 31
0.0
 12
-12.56468038385015
 22
-15.87499999999999
 32
0.0
 13
-12.56468038385015
 23
-15.87499999999999
 33
0.0
  0
MTEXT
  5
5B308
330
5B275
100
AcDbEntity
  8
sk2
100
AcDbMText
 10
-18.36468038385014
 20
0.0000000000000013
 30
0.0
 40
3.5
 41
0.0
 71
     2
 72
     1
  1
\A1;%%c31.75 [%%c1.250"]
  7
simplex
 11
0.0000000000000001
 21
1.0
 31
0.0
 73
     1
 44
1.0
1001
ACAD
1000
MTEXTBEGIN
1070
    73
1070
     1
1070
    44
1040
1.0
1070
    74
1070
     0
1000
MTEXTEND
  0
POINT
  5
5B309
330
5B275
100
AcDbEntity
  8
Defpoints
 62
     0
100
AcDbPoint
 10
1.199999999999988
 20
15.875
 30
0.0
  0
POINT
  5
5B30A
330
5B275
100
AcDbEntity
  8
Defpoints
 62
     0
100
AcDbPoint
 10
1.199999999999988
 20
-15.875
 30
0.0
  0
POINT
  5
5B30B
330
5B275
100
AcDbEntity
  8
Defpoints
 62
     0
100
AcDbPoint
 10
-12.56468038385015
 20
-15.87499999999999
 30
0.0
  0
ENDBLK
  5
5B280
330
5B275
100
AcDbEntity
  8
0
100
AcDbBlockEnd
  0
BLOCK
  5
5B28B
330
5B281
100
AcDbEntity
  8
0
100
AcDbBlockBegin
  2
*D145
 70
     1
 10
0.0
 20
0.0
 30
0.0
  3
*D145
  1

  0
LINE
  5
5B30C
330
5B281
100
AcDbEntity
  8
2
100
AcDbLine
 10
63.5
 20
36.904941055873
 30
0.0
 11
63.5
 21
79.1949848588963
 31
0.0
  0
LINE
  5
5B30D
330
5B281
100
AcDbEntity
  8
2
100
AcDbLine
 10
0.0
 20
34.575
 30
0.0
 11
0.0000000000000027
 21
79.1949848588963
 31
0.0
  0
LINE
  5
5B30E
330
5B281
100
AcDbEntity
  8
2
100
AcDbLine
 10
60.0
 20
77.69498485889631
 30
0.0
 11
3.500000000000002
 21
77.69498485889631
 31
0.0
  0
SOLID
  5
5B30F
330
5B281
100
AcDbEntity
  8
2
100
AcDbTrace
 10
60.0
 20
78.27831819222963
 30
0.0
 11
60.0
 21
77.11165152556297
 31
0.0
 12
63.5
 22
77.69498485889631
 32
0.0
 13
63.5
 23
77.69498485889631
 33
0.0
  0
SOLID
  5
5B310
330
5B281
100
AcDbEntity
  8
2
100
AcDbTrace
 10
3.500000000000002
 20
78.27831819222963
 30
0.0
 11
3.500000000000002
 21
77.11165152556297
 31
0.0
 12
0.0000000000000026
 22
77.69498485889631
 32
0.0
 13
0.0000000000000026
 23
77.69498485889631
 33
0.0
  0
MTEXT
  5
5B311
330
5B281
100
AcDbEntity
  8
2
100
AcDbMText
 10
31.75000000000003
 20
83.49498485889631
 30
0.0
 40
3.5
 41
0.0
 71
     2
 72
     1
  1
\A1;63.5 [2.500"]
  7
simplex
 73
     1
 44
1.0
1001
ACAD
1000
MTEXTBEGIN
1070
    73
1070
     1
1070
    44
1040
1.0
1070
    74
1070
     0
1000
MTEXTEND
  0
POINT
  5
5B312
330
5B281
100
AcDbEntity
  8
Defpoints
 62
     0
100
AcDbPoint
 10
63.5
 20
36.904941055873
 30
0.0
  0
POINT
  5
5B313
330
5B281
100
AcDbEntity
  8
Defpoints
 62
     0
100
AcDbPoint
 10
0.0
 20
34.575
 30
0.0
  0
POINT
  5
5B314
330
5B281
100
AcDbEntity
  8
Defpoints
 62
     0
100
AcDbPoint
 10
0.0000000000000026
 20
77.69498485889631
 30
0.0
  0
ENDBLK
  5
5B28C
330
5B281
100
AcDbEntity
  8
0
100
AcDbBlockEnd
  0
BLOCK
  5
5B297
330
5B28D
100
AcDbEntity
  8
0
100
AcDbBlockBegin
  2
*D146
 70
     1
 10
0.0
 20
0.0
 30
0.0
  3
*D146
  1

  0
LINE
  5
5B315
330
5B28D
100
AcDbEntity
  8
sk2
100
AcDbLine
 10
0.0
 20
-16.50000000000001
 30
0.0
 11
-0.0000000000000024
 21
-55.61993101690109
 31
0.0
  0
LINE
  5
5B316
330
5B28D
100
AcDbEntity
  8
sk2
100
AcDbLine
 10
32.0
 20
-15.69999999999999
 30
0.0
 11
32.0
 21
-55.61993101690109
 31
0.0
  0
LINE
  5
5B317
330
5B28D
100
AcDbEntity
  8
sk2
100
AcDbLine
 10
3.499999999999997
 20
-54.11993101690109
 30
0.0
 11
28.5
 21
-54.11993101690109
 31
0.0
  0
SOLID
  5
5B318
330
5B28D
100
AcDbEntity
  8
sk2
100
AcDbTrace
 10
3.499999999999997
 20
-53.53659768356775
 30
0.0
 11
3.499999999999997
 21
-54.70326435023443
 31
0.0
 12
-0.0000000000000023
 22
-54.11993101690109
 32
0.0
 13
-0.0000000000000023
 23
-54.11993101690109
 33
0.0
  0
SOLID
  5
5B319
330
5B28D
100
AcDbEntity
  8
sk2
100
AcDbTrace
 10
28.5
 20
-53.53659768356775
 30
0.0
 11
28.5
 21
-54.70326435023443
 31
0.0
 12
32.0
 22
-54.11993101690109
 32
0.0
 13
32.0
 23
-54.11993101690109
 33
0.0
  0
MTEXT
  5
5B31A
330
5B28D
100
AcDbEntity
  8
sk2
100
AcDbMText
 10
15.99999999999999
 20
-48.31993101690109
 30
0.0
 40
3.5
 41
0.0
 71
     2
 72
     1
  1
\A1;32 [1.260"]
  7
simplex
 73
     1
 44
1.0
1001
ACAD
1000
MTEXTBEGIN
1070
    73
1070
     1
1070
    44
1040
1.0
1070
    74
1070
     0
1000
MTEXTEND
  0
POINT
  5
5B31B
330
5B28D
100
AcDbEntity
  8
Defpoints
 62
     0
100
AcDbPoint
 10
0.0
 20
-16.50000000000001
 30
0.0
  0
POINT
  5
5B31C
330
5B28D
100
AcDbEntity
  8
Defpoints
 62
     0
100
AcDbPoint
 10
32.0
 20
-15.69999999999999
 30
0.0
  0
POINT
  5
5B31D
330
5B28D
100
AcDbEntity
  8
Defpoints
 62
     0
100
AcDbPoint
 10
32.0
 20
-54.11993101690109
 30
0.0
  0
ENDBLK
  5
5B298
330
5B28D
100
AcDbEntity
  8
0
100
AcDbBlockEnd
  0
BLOCK
  5
5B2A1
330
5B299
100
AcDbEntity
  8
0
100
AcDbBlockBegin
  2
*D147
 70
     1
 10
0.0
 20
0.0
 30
0.0
  3
*D147
  1

  0
LINE
  5
5B325
330
5B299
100
AcDbEntity
  8
2
100
AcDbLine
 10
95.25346011058459
 20
69.9763580248997
 30
0.0
 11
65.83596715122796
 21
40.0929922099409
 31
0.0
  0
MTEXT
  5
5B326
330
5B299
100
AcDbEntity
  8
2
100
AcDbMText
 10
78.88619966735203
 20
59.12299157198877
 30
0.0
 40
3.5
 41
0.0
 71
     5
 72
     1
  1
\A1;R0.4 [R.016"]
  7
simplex
 11
0.7015300387763902
 21
0.7126398842994943
 31
0.0
 73
     1
 44
1.0
1001
ACAD
1000
MTEXTBEGIN
1070
    73
1070
     1
1070
    44
1040
1.0
1070
    74
1070
     0
1000
MTEXTEND
  0
SOLID
  5
5B327
330
5B299
100
AcDbEntity
  8
2
100
AcDbTrace
 10
65.42026055205326
 20
40.50221806589379
 30
0.0
 11
66.25167375040267
 21
39.68376635398801
 31
0.0
 12
63.3806120155106
 22
37.59875261489268
 32
0.0
 13
63.3806120155106
 23
37.59875261489268
 33
0.0
  0
LINE
  5
5B328
330
5B299
100
AcDbEntity
  8
2
100
AcDbLine
 10
63.01
 20
37.31369666117283
 30
0.0
 11
63.18999999999999
 21
37.31369666117282
 31
0.0
  0
LINE
  5
5B329
330
5B299
100
AcDbEntity
  8
2
100
AcDbLine
 10
63.1
 20
37.22369666117283
 30
0.0
 11
63.1
 21
37.40369666117283
 31
0.0
  0
POINT
  5
5B32A
330
5B299
100
AcDbEntity
  8
Defpoints
 62
     0
100
AcDbPoint
 10
63.3806120155106
 20
37.59875261489268
 30
0.0
  0
POINT
  5
5B32B
330
5B299
100
AcDbEntity
  8
Defpoints
 62
     0
100
AcDbPoint
 10
63.09999999999999
 20
37.31369666117283
 30
0.0
  0
ENDBLK
  5
5B2A2
330
5B299
100
AcDbEntity
  8
0
100
AcDbBlockEnd
  0
ENDSEC
  0
SECTION
  2
ENTITIES
  0
INSERT
  5
68C
330
1F
100
AcDbEntity
  8
0
100
AcDbBlockReference
  2
zero block
 10
0.0000000000000072
 20
0.0
 30
0.0
 50
180.0
  0
DIMENSION
  5
5B07D
330
1F
100
AcDbEntity
  8
2
100
AcDbDimension
  2
*D141
 10
48.00000000000006
 20
62.77170001067156
 30
0.0
 11
19.74166666666672
 21
62.77170001067156
 31
0.0
 70
   160
  1
<>(MAX)
 71
     5
 42
15.50000000000003
  3
\M+18352\M+18373\M+1815B - ISO-25
100
AcDbAlignedDimension
 13
63.50000000000008
 23
36.79000894387446
 33
0.0
 14
48.00000000000006
 24
38.16758414727883
 34
0.0
 50
180.0
100
AcDbRotatedDimension
1001
ACAD
1000
DSTYLE
1002
{
1070
     4
1000
"
1070
    40
1040
1.0
1070
   143
1040
0.03937
1070
   170
1070
     1
1070
   171
1070
     3
1070
   271
1070
     8
1070
   285
1070
     4
1002
}
  0
MTEXT
  5
5B07E
330
1F
100
AcDbEntity
  8
sk6
100
AcDbMText
 10
-2.786348864391584
 20
101.3894167866956
 30
0.0
 40
5.0
 41
70.03712541027798
 71
     1
 72
     5
  1
AXD4000UR0303DA
  7
simplex
 73
     1
 44
1.0
1001
ACAD
1000
ACAD_MTEXT_DEFINED_HEIGHT_BEGIN
1070
    46
1040
0.0
1000
ACAD_MTEXT_DEFINED_HEIGHT_END
1000
MTEXTBEGIN
1070
    73
1070
     1
1070
    44
1040
1.0
1070
    74
1070
     0
1000
MTEXTEND
  0
DIMENSION
  5
5B07F
330
1F
100
AcDbEntity
  8
2
100
AcDbDimension
  2
*D142
 10
87.44474054840614
 20
-38.10000000000002
 30
0.0
 11
87.44474054840614
 21
-2.833333333300011
 31
0.0
 70
   160
  1
%%c<>
 71
     2
 42
76.20000000000001
  3
\M+18352\M+18373\M+1815B - ISO-25
100
AcDbAlignedDimension
 13
63.5
 23
38.1
 33
0.0
 14
63.5
 24
-38.10000000000002
 34
0.0
 50
270.0
100
AcDbRotatedDimension
1001
ACAD
1000
DSTYLE
1002
{
1070
     4
1000
%%c[]"
1070
    40
1040
1.0
1070
    76
1070
     1
1070
   143
1040
0.03937
1070
   170
1070
     1
1070
   171
1070
     3
1070
   173
1070
     1
1070
   271
1070
     8
1070
   285
1070
     4
1070
   344
1005
32F1
1002
}
  0
DIMENSION
  5
5B080
330
1F
100
AcDbEntity
  8
sk2
100
AcDbDimension
  2
*D143
 10
-24.86543943990683
 20
-36.57500000000001
 30
0.0
 11
-24.86543943990682
 21
0.0
 31
0.0
 70
   160
  1
%%c<>
 71
     2
 42
73.15000000000003
  3
\M+18352\M+18373\M+1815B - ISO-25
100
AcDbAlignedDimension
 13
2.0
 23
36.57500000000002
 33
0.0
 14
2.0
 24
-36.57500000000001
 34
0.0
 50
270.0
100
AcDbRotatedDimension
1001
ACAD
1000
DSTYLE
1002
{
1070
     4
1000
%%c[]"
1070
    40
1040
1.0
1070
   143
1040
0.03937
1070
   170
1070
     1
1070
   171
1070
     3
1070
   271
1070
     8
1070
   285
1070
     4
1002
}
  0
DIMENSION
  5
5B081
330
1F
100
AcDbEntity
  8
sk2
100
AcDbDimension
  2
*D144
 10
-12.56468038385015
 20
-15.87499999999999
 30
0.0
 11
-12.56468038385014
 21
0.0000000000000008
 31
0.0
 70
   160
  1
%%c<>
 71
     2
 42
31.75
  3
\M+18352\M+18373\M+1815B - ISO-25
100
AcDbAlignedDimension
 13
1.199999999999988
 23
15.875
 33
0.0
 14
1.199999999999988
 24
-15.875
 34
0.0
 50
270.0
100
AcDbRotatedDimension
1001
ACAD
1000
DSTYLE
1002
{
1070
     4
1000
%%c[]"
1070
    40
1040
1.0
1070
   143
1040
0.03937
1070
   170
1070
     1
1070
   171
1070
     3
1070
   271
1070
     8
1070
   285
1070
     4
1002
}
  0
DIMENSION
  5
5B082
330
1F
100
AcDbEntity
  8
2
100
AcDbDimension
  2
*D145
 10
0.0000000000000026
 20
77.69498485889631
 30
0.0
 11
31.75000000000003
 21
77.69498485889631
 31
0.0
 70
   160
 71
     2
 42
63.5
  3
\M+18352\M+18373\M+1815B - ISO-25
100
AcDbAlignedDimension
 13
63.5
 23
36.904941055873
 33
0.0
 14
0.0
 24
34.575
 34
0.0
 50
180.0
100
AcDbRotatedDimension
1001
ACAD
1000
DSTYLE
1002
{
1070
     4
1000
"
1070
    40
1040
1.0
1070
   143
1040
0.03937
1070
   170
1070
     1
1070
   171
1070
     3
1070
   271
1070
     8
1070
   285
1070
     4
1002
}
  0
DIMENSION
  5
5B083
330
1F
100
AcDbEntity
  8
sk2
100
AcDbDimension
  2
*D146
 10
32.0
 20
-54.11993101690109
 30
0.0
 11
15.99999999999999
 21
-54.11993101690109
 31
0.0
 70
   160
 71
     2
 42
32.0
  3
\M+18352\M+18373\M+1815B - ISO-25
100
AcDbAlignedDimension
 13
0.0
 23
-16.50000000000001
 33
0.0
 14
32.0
 24
-15.69999999999999
 34
0.0
100
AcDbRotatedDimension
1001
ACAD
1000
DSTYLE
1002
{
1070
     4
1000
"
1070
    40
1040
1.0
1070
   143
1040
0.03937
1070
   170
1070
     1
1070
   171
1070
     3
1070
   271
1070
     8
1070
   285
1070
     4
1002
}
  0
LINE
  5
5B084
330
1F
100
AcDbEntity
  8
1
100
AcDbLine
 10
2.0
 20
-36.57500000000001
 30
0.0
 11
17.0
 21
-36.57500000000001
 31
0.0
  0
LINE
  5
5B085
330
1F
100
AcDbEntity
  8
1
100
AcDbLine
 10
39.3165249759
 20
-36.19102236470001
 30
0.0
 11
47.84576677029997
 21
-36.19102236470001
 31
0.0
  0
LINE
  5
5B086
330
1F
100
AcDbEntity
  8
1
100
AcDbLine
 10
29.3310961855
 20
-34.4803693798
 30
0.0
 11
31.65038266119998
 21
-35.10182031790002
 31
0.0
  0
LINE
  5
5B087
330
1F
100
AcDbEntity
  8
1
100
AcDbLine
 10
60.24494573099997
 20
-31.96476554250001
 30
0.0
 11
57.48988944529997
 21
-35.9486823249
 31
0.0
  0
LINE
  5
5B088
330
1F
100
AcDbEntity
  8
1
100
AcDbLine
 10
63.3943479086
 20
-12.8661161924
 30
0.0
 11
62.4704859686
 21
-17.6474274575
 31
0.0
  0
LINE
  5
5B089
330
1F
100
AcDbEntity
  8
1
100
AcDbLine
 10
63.0059367579
 20
-16.2996691495
 30
0.0
 11
63.49769129630002
 21
-13.9299109068
 31
0.0
  0
LINE
  5
5B08A
330
1F
100
AcDbEntity
  8
1
100
AcDbLine
 10
62.98342040279997
 20
-16.39739491210001
 30
0.0
 11
62.57603734549999
 21
-18.0074203732
 31
0.0
  0
LINE
  5
5B08B
330
1F
100
AcDbEntity
  8
1
100
AcDbLine
 10
63.5
 20
-13.04947687889999
 30
0.0
 11
63.5
 21
-13.90800505840001
 31
0.0
  0
LINE
  5
5B08C
330
1F
100
AcDbEntity
  8
1
100
AcDbLine
 10
63.5
 20
-22.54686144710001
 30
0.0
 11
63.5
 21
-23.40538962660001
 31
0.0
  0
LINE
  5
5B08D
330
1F
100
AcDbEntity
  8
1
100
AcDbLine
 10
63.5
 20
35.5963383261
 30
0.0
 11
63.5
 21
37.31369666117283
 31
0.0
  0
LINE
  5
5B08E
330
1F
100
AcDbEntity
  8
1
100
AcDbLine
 10
62.57603734549999
 20
-18.42876759590001
 30
0.0
 11
62.57603734549999
 21
-18.2526566002
 31
0.0
  0
LINE
  5
5B08F
330
1F
100
AcDbEntity
  8
1
100
AcDbLine
 10
62.57603734549999
 20
-18.0074203732
 30
0.0
 11
62.57603734549999
 21
-17.8313093775
 31
0.0
  0
LINE
  5
5B090
330
1F
100
AcDbEntity
  8
1
100
AcDbLine
 10
40.9761453939
 20
-22.23402579870002
 30
0.0
 11
56.21760649310002
 21
-22.23402620420001
 31
0.0
  0
LINE
  5
5B091
330
1F
100
AcDbEntity
  8
1
100
AcDbLine
 10
0.0
 20
7.350000000000008
 30
0.0
 11
1.0
 21
6.350000000000008
 31
0.0
  0
LINE
  5
5B092
330
1F
100
AcDbEntity
  8
1
100
AcDbLine
 10
62.98342040279997
 20
-20.82044482730001
 30
0.0
 11
62.57603734549999
 21
-18.42876759590001
 31
0.0
  0
LINE
  5
5B093
330
1F
100
AcDbEntity
  8
1
100
AcDbLine
 10
61.49206629560001
 20
-17.453718522
 30
0.0
 11
61.49206629560001
 21
-12.16722086390001
 31
0.0
  0
LINE
  5
5B094
330
1F
100
AcDbEntity
  8
1
100
AcDbLine
 10
61.49206629560001
 20
-12.16722086390001
 30
0.0
 11
61.49206629560001
 21
-10.17286581670001
 31
0.0
  0
LINE
  5
5B095
330
1F
100
AcDbEntity
  8
1
100
AcDbLine
 10
61.4719629436
 20
-17.494346799
 30
0.0
 11
61.4719629436
 21
-11.270197808
 31
0.0
  0
LINE
  5
5B096
330
1F
100
AcDbEntity
  8
1
100
AcDbLine
 10
61.46590295990001
 20
-23.3165339498
 30
0.0
 11
61.46590295990001
 21
-23.2595717825
 31
0.0
  0
LINE
  5
5B097
330
1F
100
AcDbEntity
  8
1
100
AcDbLine
 10
60.80568504310003
 20
-11.3696216257
 30
0.0
 11
60.80568504310003
 21
-18.0783627206
 31
0.0
  0
LINE
  5
5B098
330
1F
100
AcDbEntity
  8
1
100
AcDbLine
 10
60.63226946950002
 20
-18.1080982154
 30
0.0
 11
60.63226946950002
 21
-10.978619302
 31
0.0
  0
LINE
  5
5B099
330
1F
100
AcDbEntity
  8
1
100
AcDbLine
 10
59.9330500959
 20
29.62041451420001
 30
0.0
 11
59.9330500959
 21
17.11787181189999
 31
0.0
  0
LINE
  5
5B09A
330
1F
100
AcDbEntity
  8
1
100
AcDbLine
 10
59.9330500959
 20
-22.97765423410002
 30
0.0
 11
59.9330500959
 21
-31.3790733469
 31
0.0
  0
LINE
  5
5B09B
330
1F
100
AcDbEntity
  8
1
100
AcDbLine
 10
46.76031154310002
 20
-19.8611333676
 30
0.0
 11
47.10075019389996
 21
-19.41754786860001
 31
0.0
  0
LINE
  5
5B09C
330
1F
100
AcDbEntity
  8
1
100
AcDbLine
 10
46.71278220459998
 20
-19.9214969894
 30
0.0
 11
46.76031154310002
 21
-19.8611333676
 31
0.0
  0
LINE
  5
5B09D
330
1F
100
AcDbEntity
  8
1
100
AcDbLine
 10
62.57603734549999
 20
-18.0074203732
 30
0.0
 11
62.46080656869998
 21
-18.0265485191
 31
0.0
  0
LINE
  5
5B09E
330
1F
100
AcDbEntity
  8
1
100
AcDbLine
 10
63.49501149899999
 20
-22.50112654440001
 30
0.0
 11
62.57105049869998
 21
-18.206929386
 31
0.0
  0
LINE
  5
5B09F
330
1F
100
AcDbEntity
  8
1
100
AcDbLine
 10
62.98342040279997
 20
-20.82044482730001
 30
0.0
 11
63.5
 21
-23.40538962660001
 31
0.0
  0
LINE
  5
5B0A0
330
1F
100
AcDbEntity
  8
1
100
AcDbLine
 10
63.12394644080001
 20
-23.5477590547
 30
0.0
 11
63.11175178849999
 21
-23.4867374753
 31
0.0
  0
LINE
  5
5B0A1
330
1F
100
AcDbEntity
  8
1
100
AcDbLine
 10
56.89282772080002
 20
26.26339638979999
 30
0.0
 11
56.89282772080002
 21
27.65023890949999
 31
0.0
  0
LINE
  5
5B0A2
330
1F
100
AcDbEntity
  8
1
100
AcDbLine
 10
47.10075019389996
 20
-19.41754786860001
 30
0.0
 11
48.70356578209999
 21
-16.494824316
 31
0.0
  0
LINE
  5
5B0A3
330
1F
100
AcDbEntity
  8
1
100
AcDbLine
 10
62.57603734549999
 20
-18.42876759590001
 30
0.0
 11
48.70356578209999
 21
-16.494824316
 31
0.0
  0
LINE
  5
5B0A4
330
1F
100
AcDbEntity
  8
1
100
AcDbLine
 10
45.81959101819998
 20
-19.52328373280001
 30
0.0
 11
46.71278219949999
 21
-19.92149699580001
 31
0.0
  0
LINE
  5
5B0A5
330
1F
100
AcDbEntity
  8
1
100
AcDbLine
 10
44.8059184334
 20
-18.96889755960001
 30
0.0
 11
45.5133772897
 21
-19.3715472998
 31
0.0
  0
LINE
  5
5B0A6
330
1F
100
AcDbEntity
  8
1
100
AcDbLine
 10
45.85230130299999
 20
-18.6362342939
 30
0.0
 11
46.00422014240002
 21
-18.06844007800001
 31
0.0
  0
LINE
  5
5B0A7
330
1F
100
AcDbEntity
  8
1
100
AcDbLine
 10
46.12933441400002
 20
-17.600827503
 30
0.0
 11
46.66806447449999
 21
-15.5873325779
 31
0.0
  0
LINE
  5
5B0A8
330
1F
100
AcDbEntity
  8
1
100
AcDbLine
 10
45.85230130299999
 20
-18.6362342939
 30
0.0
 11
45.5133772897
 21
-19.3715472998
 31
0.0
  0
LINE
  5
5B0A9
330
1F
100
AcDbEntity
  8
1
100
AcDbLine
 10
46.66806447449999
 20
-15.5873325779
 30
0.0
 11
48.70356578209999
 21
-16.494824316
 31
0.0
  0
LINE
  5
5B0AA
330
1F
100
AcDbEntity
  8
1
100
AcDbLine
 10
47.84576677029997
 20
-15.05206584250001
 30
0.0
 11
47.84576677029997
 21
12.30640024719999
 31
0.0
  0
LINE
  5
5B0AB
330
1F
100
AcDbEntity
  8
1
100
AcDbLine
 10
60.24494573099997
 20
16.53265706939999
 30
0.0
 11
57.48988944529997
 21
12.54874028709999
 31
0.0
  0
LINE
  5
5B0AC
330
1F
100
AcDbEntity
  8
1
100
AcDbLine
 10
7.139999999999986
 20
-6.350000000000008
 30
0.0
 11
1.0
 21
-6.350000000000008
 31
0.0
  0
LINE
  5
5B0AD
330
1F
100
AcDbEntity
  8
1
100
AcDbLine
 10
40.7649917144
 20
-22.2321758849
 30
0.0
 11
38.32910413529999
 21
-36.15333710110001
 31
0.0
  0
LINE
  5
5B0AE
330
1F
100
AcDbEntity
  8
1
100
AcDbLine
 10
62.92866230749999
 20
-12.6239782849
 30
0.0
 11
61.49206629560001
 21
-12.16722086390001
 31
0.0
  0
LINE
  5
5B0AF
330
1F
100
AcDbEntity
  8
1
100
AcDbLine
 10
46.37070981889999
 20
-15.28043614259999
 30
0.0
 11
46.66806447449999
 21
-15.5873325779
 31
0.0
  0
LINE
  5
5B0B0
330
1F
100
AcDbEntity
  8
1
100
AcDbLine
 10
46.77760854899998
 20
-15.12735217340001
 30
0.0
 11
46.92317030229998
 21
-15.27758484120001
 31
0.0
  0
LINE
  5
5B0B1
330
1F
100
AcDbEntity
  8
1
100
AcDbLine
 10
41.53163930019997
 20
36.77831902619999
 30
0.0
 11
41.53163930019997
 21
31.9659770821
 31
0.0
  0
LINE
  5
5B0B2
330
1F
100
AcDbEntity
  8
1
100
AcDbLine
 10
40.8494216807
 20
30.33045104420001
 30
0.0
 11
40.8494216807
 21
28.61339468510001
 31
0.0
  0
LINE
  5
5B0B3
330
1F
100
AcDbEntity
  8
1
100
AcDbLine
 10
40.9761453939
 20
-22.23402579870002
 30
0.0
 11
41.24832289509998
 21
-19.53981762779999
 31
0.0
  0
LINE
  5
5B0B4
330
1F
100
AcDbEntity
  8
1
100
AcDbLine
 10
63.3783475882
 20
35.16902981119998
 30
0.0
 11
63.09964982130001
 21
34.6963383266
 31
0.0
  0
LINE
  5
5B0B5
330
1F
100
AcDbEntity
  8
1
100
AcDbLine
 10
62.92866230749999
 20
34.41465261549999
 30
0.0
 11
59.33466249270001
 21
28.6627429452
 31
0.0
  0
LINE
  5
5B0B6
330
1F
100
AcDbEntity
  8
4
100
AcDbLine
 10
64.49206629560001
 20
-0.0000000000000071
 30
0.0
 11
-3.0
 21
0.0
 31
0.0
  0
LINE
  5
5B0B7
330
1F
100
AcDbEntity
  8
1
100
AcDbLine
 10
63.3783475882
 20
-12.8565004026
 30
0.0
 11
63.09964982130001
 21
-12.6990799303
 31
0.0
  0
LINE
  5
5B0B8
330
1F
100
AcDbEntity
  8
1
100
AcDbLine
 10
62.4704859686
 20
-17.6474274575
 30
0.0
 11
61.49206629560001
 21
-16.93642788700001
 31
0.0
  0
LINE
  5
5B0B9
330
1F
100
AcDbEntity
  8
1
100
AcDbLine
 10
39.3165249759
 20
36.80319515619999
 30
0.0
 11
39.3165249759
 21
36.78493689140001
 31
0.0
  0
LINE
  5
5B0BA
330
1F
100
AcDbEntity
  8
1
100
AcDbLine
 10
39.3165249759
 20
12.30640024719999
 30
0.0
 11
39.3165249759
 21
-19.3963079232
 31
0.0
  0
LINE
  5
5B0BB
330
1F
100
AcDbEntity
  8
1
100
AcDbLine
 10
36.72833452490002
 20
-19.0330002239
 30
0.0
 11
36.72833452490002
 21
12.73719787249999
 31
0.0
  0
LINE
  5
5B0BC
330
1F
100
AcDbEntity
  8
1
100
AcDbLine
 10
36.72833452490002
 20
36.4505224417
 30
0.0
 11
36.72833452490002
 21
36.4624534191
 31
0.0
  0
LINE
  5
5B0BD
330
1F
100
AcDbEntity
  8
1
100
AcDbLine
 10
40.7649917144
 20
26.26524672699999
 30
0.0
 11
38.32910413529999
 21
12.3440855108
 31
0.0
  0
LINE
  5
5B0BE
330
1F
100
AcDbEntity
  8
1
100
AcDbLine
 10
1.0
 20
6.350000000000008
 30
0.0
 11
7.139999999999986
 21
6.350000000000008
 31
0.0
  0
LINE
  5
5B0BF
330
1F
100
AcDbEntity
  8
1
100
AcDbLine
 10
62.4704859686
 20
-18.0365385203
 30
0.0
 11
62.46080656858518
 21
-18.02654851911906
 31
0.0
  0
LINE
  5
5B0C0
330
1F
100
AcDbEntity
  8
1
100
AcDbLine
 10
62.46080656858518
 20
-18.02654851911906
 30
0.0
 11
61.49206629560001
 21
-17.0267224497
 31
0.0
  0
LINE
  5
5B0C1
330
1F
100
AcDbEntity
  8
1
100
AcDbLine
 10
29.3310961855
 20
-34.4803693798
 30
0.0
 11
29.3310961855
 21
34.48036937979998
 31
0.0
  0
LINE
  5
5B0C2
330
1F
100
AcDbEntity
  8
1
100
AcDbLine
 10
39.3165249759
 20
12.30640024719999
 30
0.0
 11
47.84576677029997
 21
12.30640024719999
 31
0.0
  0
LINE
  5
5B0C3
330
1F
100
AcDbEntity
  8
1
100
AcDbLine
 10
41.52499571270001
 20
31.8794906454
 30
0.0
 11
42.23687283250001
 21
33.13151911119999
 31
0.0
  0
LINE
  5
5B0C4
330
1F
100
AcDbEntity
  8
1
100
AcDbLine
 10
41.48170633270001
 20
31.8794906454
 30
0.0
 11
41.53163930019997
 21
31.9659770821
 31
0.0
  0
LINE
  5
5B0C5
330
1F
100
AcDbEntity
  8
1
100
AcDbLine
 10
42.23687283250001
 20
33.13151911119999
 30
0.0
 11
41.53163930019997
 21
31.9659770821
 31
0.0
  0
LINE
  5
5B0C6
330
1F
100
AcDbEntity
  8
1
100
AcDbLine
 10
40.97190384799995
 20
30.7577595591
 30
0.0
 11
41.20694084032038
 21
31.13686242839525
 31
0.0
  0
LINE
  5
5B0C7
330
1F
100
AcDbEntity
  8
1
100
AcDbLine
 10
41.20694084032038
 20
31.13686242839525
 30
0.0
 11
41.26496410639998
 21
31.23045104369999
 31
0.0
  0
LINE
  5
5B0C8
330
1F
100
AcDbEntity
  8
1
100
AcDbLine
 10
59.042659369
 20
28.38082495480001
 30
0.0
 11
58.1494681877
 21
27.8571855263
 31
0.0
  0
LINE
  5
5B0C9
330
1F
100
AcDbEntity
  8
1
100
AcDbLine
 10
41.45160304289999
 20
31.5121367548
 30
0.0
 11
45.5133772897
 21
37.26404642510001
 31
0.0
  0
LINE
  5
5B0CA
330
1F
100
AcDbEntity
  8
1
100
AcDbLine
 10
17.0
 20
-36.57500000000001
 30
0.0
 11
17.0
 21
36.57500000000002
 31
0.0
  0
LINE
  5
5B0CB
330
1F
100
AcDbEntity
  8
1
100
AcDbLine
 10
1.0
 20
-6.350000000000008
 30
0.0
 11
0.0
 21
-7.350000000000008
 31
0.0
  0
LINE
  5
5B0CC
330
1F
100
AcDbEntity
  8
1
100
AcDbLine
 10
57.33671008869999
 20
26.26339637800001
 30
0.0
 11
40.9761453939
 21
26.26339681320001
 31
0.0
  0
LINE
  5
5B0CD
330
1F
100
AcDbEntity
  8
1
100
AcDbLine
 10
43.21846891709998
 20
27.9107675319
 30
0.0
 11
43.4299929277
 21
27.9107675319
 31
0.0
  0
LINE
  5
5B0CE
330
1F
100
AcDbEntity
  8
1
100
AcDbLine
 10
43.4299929277
 20
27.9107675319
 30
0.0
 11
56.86299092040002
 21
27.5535857055
 31
0.0
  0
LINE
  5
5B0CF
330
1F
100
AcDbEntity
  8
1
100
AcDbLine
 10
45.81959101819998
 20
37.54596441549999
 30
0.0
 11
46.71278219949999
 21
38.069603844
 31
0.0
  0
LINE
  5
5B0D0
330
1F
100
AcDbEntity
  8
1
100
AcDbLine
 10
41.52499571270001
 20
31.8794906454
 30
0.0
 11
41.48170633270001
 21
31.8794906454
 31
0.0
  0
LINE
  5
5B0D1
330
1F
100
AcDbEntity
  8
1
100
AcDbLine
 10
7.139999999999986
 20
6.350000000000008
 30
0.0
 11
7.139999999999986
 21
-6.350000000000008
 31
0.0
  0
LINE
  5
5B0D2
330
1F
100
AcDbEntity
  8
1
100
AcDbLine
 10
29.3310961855
 20
34.48036937979998
 30
0.0
 11
36.72833452490002
 21
36.4624534191
 31
0.0
  0
LINE
  5
5B0D3
330
1F
100
AcDbEntity
  8
1
100
AcDbLine
 10
2.0
 20
36.57500000000002
 30
0.0
 11
17.0
 21
36.57500000000002
 31
0.0
  0
LINE
  5
5B0D4
330
1F
100
AcDbEntity
  8
1
100
AcDbLine
 10
39.3165249759
 20
36.80319515619999
 30
0.0
 11
45.18794209979995
 21
36.80319515619999
 31
0.0
  0
LINE
  5
5B0D5
330
1F
100
AcDbEntity
  8
1
100
AcDbLine
 10
2.0
 20
-36.57500000000001
 30
0.0
 11
2.0
 21
-6.350000000000008
 31
0.0
  0
LINE
  5
5B0D6
330
1F
100
AcDbEntity
  8
1
100
AcDbLine
 10
2.0
 20
6.350000000000008
 30
0.0
 11
2.0
 21
36.57500000000002
 31
0.0
  0
LINE
  5
5B0D7
330
1F
100
AcDbEntity
  8
1
100
AcDbLine
 10
0.0
 20
-34.57500000000001
 30
0.0
 11
0.0
 21
-7.350000000000008
 31
0.0
  0
LINE
  5
5B0D8
330
1F
100
AcDbEntity
  8
1
100
AcDbLine
 10
0.0
 20
7.350000000000008
 30
0.0
 11
0.0
 21
34.575
 31
0.0
  0
LINE
  5
5B0D9
330
1F
100
AcDbEntity
  8
sk3
100
AcDbLine
 10
16.65968325470001
 20
-15.87499982849994
 30
0.0
 11
18.00000008310002
 21
-16.49999982179991
 31
0.0
  0
LINE
  5
5B0DA
330
1F
100
AcDbEntity
  8
nocut
100
AcDbLine
 10
61.49206629559998
 20
34.81718150960005
 30
0.0
 11
61.49206629559995
 21
0.0000000000000497
 31
0.0
  0
LINE
  5
5B0DB
330
1F
100
AcDbEntity
  8
sk3
100
AcDbLine
 10
18.0
 20
-16.5
 30
0.0
 11
31.19999999999999
 21
-16.5
 31
0.0
  0
LINE
  5
5B0DC
330
1F
100
AcDbEntity
  8
sk3
100
AcDbLine
 10
1.199999999999988
 20
-15.875
 30
0.0
 11
16.65968317470001
 21
-15.875
 31
0.0
  0
LINE
  5
5B0DD
330
1F
100
AcDbEntity
  8
sk3
100
AcDbLine
 10
56.4330500959
 20
26.47674707660002
 30
0.0
 11
56.4330500959
 21
-26.47674707669995
 31
0.0
  0
LINE
  5
5B0DE
330
1F
100
AcDbEntity
  8
sk3
100
AcDbLine
 10
55.4330500959
 20
13.0
 30
0.0
 11
55.4330500959
 21
-13.0
 31
0.0
  0
LINE
  5
5B0DF
330
1F
100
AcDbEntity
  8
sk3
100
AcDbLine
 10
42.40000000000001
 20
-13.0
 30
0.0
 11
55.4330500959
 21
-13.0
 31
0.0
  0
LINE
  5
5B0E0
330
1F
100
AcDbEntity
  8
sk3
100
AcDbLine
 10
1.199999895699988
 20
15.87499989570005
 30
0.0
 11
0.0
 21
17.07499977560002
 31
0.0
  0
LINE
  5
5B0E1
330
1F
100
AcDbEntity
  8
sk3
100
AcDbLine
 10
32.40000000000001
 20
-8.5
 30
0.0
 11
41.5
 21
-8.5
 31
0.0
  0
LINE
  5
5B0E2
330
1F
100
AcDbEntity
  8
sk3
100
AcDbLine
 10
41.49999988740001
 20
-8.500000112699922
 30
0.0
 11
41.99999988069999
 21
-9.000000119299954
 31
0.0
  0
LINE
  5
5B0E3
330
1F
100
AcDbEntity
  8
sk3
100
AcDbLine
 10
56.8928277208
 20
-27.75256643509994
 30
0.0
 11
59.9330500959
 21
-31.42284976840001
 31
0.0
  0
LINE
  5
5B0E4
330
1F
100
AcDbEntity
  8
sk3
100
AcDbLine
 10
42.0
 20
12.60000000000002
 30
0.0
 11
42.0
 21
-12.59999999999996
 31
0.0
  0
LINE
  5
5B0E5
330
1F
100
AcDbEntity
  8
sk3
100
AcDbLine
 10
41.5
 20
8.5
 30
0.0
 11
41.5
 21
-8.5
 31
0.0
  0
LINE
  5
5B0E6
330
1F
100
AcDbEntity
  8
sk3
100
AcDbLine
 10
59.9330500959
 20
31.42284976830007
 30
0.0
 11
61.46590295990001
 21
34.11720185070004
 31
0.0
  0
LINE
  5
5B0E7
330
1F
100
AcDbEntity
  8
sk3
100
AcDbLine
 10
55.4330502007
 20
12.99999989519999
 30
0.0
 11
56.43305020880001
 21
13.99999988710003
 31
0.0
  0
LINE
  5
5B0E8
330
1F
100
AcDbEntity
  8
nocut
100
AcDbLine
 10
61.49206629559998
 20
0.0000000000000497
 30
0.0
 11
0.0
 21
0.0
 31
0.0
  0
LINE
  5
5B0E9
330
1F
100
AcDbEntity
  8
sk3
100
AcDbLine
 10
55.4330502007
 20
-12.99999989519995
 30
0.0
 11
56.43305020880001
 21
-13.99999988719997
 31
0.0
  0
LINE
  5
5B0EA
330
1F
100
AcDbEntity
  8
sk3
100
AcDbLine
 10
59.9330500959
 20
-31.42284976840001
 30
0.0
 11
61.46590295990001
 21
-34.11720185079998
 31
0.0
  0
LINE
  5
5B0EB
330
1F
100
AcDbEntity
  8
sk3
100
AcDbLine
 10
56.8928277208
 20
27.75256643500001
 30
0.0
 11
59.9330500959
 21
31.42284976830007
 31
0.0
  0
LINE
  5
5B0EC
330
1F
100
AcDbEntity
  8
sk3
100
AcDbLine
 10
41.49999988740001
 20
8.500000112600048
 30
0.0
 11
41.99999988069999
 21
9.000000119200024
 31
0.0
  0
LINE
  5
5B0ED
330
1F
100
AcDbEntity
  8
sk3
100
AcDbLine
 10
32.40000000000001
 20
8.5
 30
0.0
 11
41.5
 21
8.5
 31
0.0
  0
LINE
  5
5B0EE
330
1F
100
AcDbEntity
  8
sk3
100
AcDbLine
 10
32.0
 20
15.70000000000003
 30
0.0
 11
32.0
 21
-15.69999999999999
 31
0.0
  0
LINE
  5
5B0EF
330
1F
100
AcDbEntity
  8
sk3
100
AcDbLine
 10
42.40000000000001
 20
13.0
 30
0.0
 11
55.4330500959
 21
13.0
 31
0.0
  0
LINE
  5
5B0F0
330
1F
100
AcDbEntity
  8
sk3
100
AcDbLine
 10
1.199999999999988
 20
15.875
 30
0.0
 11
16.65968317470001
 21
15.875
 31
0.0
  0
LINE
  5
5B0F1
330
1F
100
AcDbEntity
  8
sk3
100
AcDbLine
 10
18.0
 20
16.5
 30
0.0
 11
31.19999999999999
 21
16.5
 31
0.0
  0
LINE
  5
5B0F2
330
1F
100
AcDbEntity
  8
sk3
100
AcDbLine
 10
1.199999895699988
 20
-15.8749998957
 30
0.0
 11
0.0
 21
-17.07499977559996
 31
0.0
  0
LINE
  5
5B0F3
330
1F
100
AcDbEntity
  8
sk3
100
AcDbLine
 10
18.0
 20
16.5
 30
0.0
 11
18.0
 21
-16.5
 31
0.0
  0
LINE
  5
5B0F4
330
1F
100
AcDbEntity
  8
sk3
100
AcDbLine
 10
16.65968317470001
 20
15.875
 30
0.0
 11
16.65968317470001
 21
-15.875
 31
0.0
  0
LINE
  5
5B0F5
330
1F
100
AcDbEntity
  8
sk3
100
AcDbLine
 10
16.65968325470001
 20
15.87499982850005
 30
0.0
 11
18.00000008310002
 21
16.49999982180003
 31
0.0
  0
LINE
  5
5B0F6
330
1F
100
AcDbEntity
  8
nocut
100
AcDbLine
 10
29.33109618549995
 20
34.48036937980004
 30
0.0
 11
36.72833452489999
 21
36.46245341900004
 31
0.0
  0
LINE
  5
5B0F7
330
1F
100
AcDbEntity
  8
nocut
100
AcDbLine
 10
1.999999999999971
 20
36.57500000000005
 30
0.0
 11
16.99999999999997
 21
36.57500000000005
 31
0.0
  0
LINE
  5
5B0F8
330
1F
100
AcDbEntity
  8
nocut
100
AcDbLine
 10
39.31652497589997
 20
36.8031951561
 30
0.0
 11
47.84576677029995
 21
36.8031951561
 31
0.0
  0
LINE
  5
5B0F9
330
1F
100
AcDbEntity
  8
nocut
100
AcDbLine
 10
47.84576677029995
 20
36.8031951561
 30
0.0
 11
60.63226946949995
 21
36.38862604970001
 31
0.0
  0
LINE
  5
5B0FA
330
1F
100
AcDbEntity
  8
nocut
100
AcDbLine
 10
60.80568504309997
 20
36.27612214040005
 30
0.0
 11
61.47196294359995
 21
34.90457256190007
 31
0.0
  0
LINE
  5
5B0FB
330
1F
100
AcDbEntity
  8
sk3
100
AcDbLine
 10
1.199999999999988
 20
15.875
 30
0.0
 11
1.199999791399989
 21
6.350000000000022
 31
0.0
  0
LINE
  5
5B0FC
330
1F
100
AcDbEntity
  8
sk3
100
AcDbLine
 10
1.199999791399989
 20
-6.349999999999965
 30
0.0
 11
1.199999999999988
 21
-15.875
 31
0.0
  0
LINE
  5
5B0FD
330
1F
100
AcDbEntity
  8
nocut
100
AcDbLine
 10
0.0
 20
0.0
 30
0.0
 11
-0.0000000000000284
 21
34.57500000000005
 31
0.0
  0
ARC
  5
5B0FE
330
1F
100
AcDbEntity
  8
1
100
AcDbCircle
 10
138.2547742239
 20
-5.990699119700003
 30
0.0
 40
80.8978987777
100
AcDbArc
 50
164.6441641110002
 51
164.9073688289004
  0
ARC
  5
5B0FF
330
1F
100
AcDbEntity
  8
1
100
AcDbCircle
 10
82.82212949340001
 20
-19.5563244508
 30
0.0
 40
25.762349213
100
AcDbArc
 50
207.3183628048004
 51
208.7932358652005
  0
ARC
  5
5B100
330
1F
100
AcDbEntity
  8
1
100
AcDbCircle
 10
40.79109696289998
 20
0.5092275111999954
 30
0.0
 40
19.9600777422
100
AcDbArc
 50
258.2556959890002
 51
265.7633536268006
  0
ARC
  5
5B101
330
1F
100
AcDbEntity
  8
1
100
AcDbCircle
 10
39.31624025069999
 20
-23.2435501447
 30
0.0
 40
12.9474722232
100
AcDbArc
 50
265.6274344518
 51
270.0012599798007
  0
ARC
  5
5B102
330
1F
100
AcDbEntity
  8
1
100
AcDbCircle
 10
40.97601260869999
 20
-10.1974584668
 30
0.0
 40
12.0365673326
100
AcDbArc
 50
268.9954589423997
 51
270.0006320763995
  0
ARC
  5
5B103
330
1F
100
AcDbEntity
  8
1
100
AcDbCircle
 10
54.15372015439999
 20
-22.3493996014
 30
0.0
 40
8.908399279299997
100
AcDbArc
 50
3.711798331199763
 51
4.295446409399949
  0
ARC
  5
5B104
330
1F
100
AcDbEntity
  8
1
100
AcDbCircle
 10
54.35605042369999
 20
-22.4118751995
 30
0.0
 40
8.710864672999999
100
AcDbArc
 50
3.405094431199719
 51
4.208031182500065
  0
ARC
  5
5B105
330
1F
100
AcDbEntity
  8
1
100
AcDbCircle
 10
54.70833048680001
 20
-22.47149603610001
 30
0.0
 40
8.363134584199999
100
AcDbArc
 50
3.11804544410003
 51
3.956192036500159
  0
ARC
  5
5B106
330
1F
100
AcDbEntity
  8
1
100
AcDbCircle
 10
45.09593784970002
 20
-1.318878157100002
 30
0.0
 40
8.201008427799997
100
AcDbArc
 50
348.4789450732997
 51
350.9797578879999
  0
ARC
  5
5B107
330
1F
100
AcDbEntity
  8
1
100
AcDbCircle
 10
55.1288979377
 20
-22.53436385750001
 30
0.0
 40
7.947070905399999
100
AcDbArc
 50
2.851949611700331
 51
3.735571652400076
  0
ARC
  5
5B108
330
1F
100
AcDbEntity
  8
1
100
AcDbCircle
 10
57.86586780920001
 20
-3.633786949200008
 30
0.0
 40
7.8740399308
100
AcDbArc
 50
168.5002495869998
 51
171.0309293085994
  0
ARC
  5
5B109
330
1F
100
AcDbEntity
  8
1
100
AcDbCircle
 10
65.56050445099998
 20
-3.591486947500001
 30
0.0
 40
7.8551661058
100
AcDbArc
 50
168.5013426192003
 51
171.0339606908001
  0
ARC
  5
5B10A
330
1F
100
AcDbEntity
  8
1
100
AcDbCircle
 10
55.61890310369998
 20
-22.6003805736
 30
0.0
 40
7.461503944199999
100
AcDbArc
 50
2.603014412899683
 51
3.54548456300021
  0
ARC
  5
5B10B
330
1F
100
AcDbEntity
  8
1
100
AcDbCircle
 10
56.1752665763
 20
-22.66952289010001
 30
0.0
 40
6.9094987271
100
AcDbArc
 50
2.366494781699592
 51
3.38532402389973
  0
ARC
  5
5B10C
330
1F
100
AcDbEntity
  8
1
100
AcDbCircle
 10
56.79423167799999
 20
-22.74161584020001
 30
0.0
 40
6.294794847899999
100
AcDbArc
 50
2.135741945300248
 51
3.25479763329991
  0
ARC
  5
5B10D
330
1F
100
AcDbEntity
  8
1
100
AcDbCircle
 10
57.47182071630001
 20
-22.8163172399
 30
0.0
 40
5.621348188899997
100
AcDbArc
 50
1.900593278299624
 51
3.154042734999728
  0
ARC
  5
5B10E
330
1F
100
AcDbEntity
  8
1
100
AcDbCircle
 10
58.17359499310001
 20
-22.89453991360002
 30
0.0
 40
4.923599655
100
AcDbArc
 50
1.650413938799959
 51
3.081298089600293
  0
ARC
  5
5B10F
330
1F
100
AcDbEntity
  8
1
100
AcDbCircle
 10
58.84819907159999
 20
-22.9787827318
 30
0.0
 40
4.252964637399998
100
AcDbArc
 50
1.391107370199773
 51
3.046749426200156
  0
ARC
  5
5B110
330
1F
100
AcDbEntity
  8
1
100
AcDbCircle
 10
47.50144541830002
 20
-18.1433966971
 30
0.0
 40
3.1104474993
100
AcDbArc
 50
83.64442705949976
 51
89.02662832020075
  0
ARC
  5
5B111
330
1F
100
AcDbEntity
  8
1
100
AcDbCircle
 10
60.7467131713
 20
-15.8305922194
 30
0.0
 40
2.307406451399999
100
AcDbArc
 50
345.7800498091002
 51
348.2704764533999
  0
ARC
  5
5B112
330
1F
100
AcDbEntity
  8
1
100
AcDbCircle
 10
63.0538992912
 20
-24.08639321920001
 30
0.0
 40
0.5431697397999999
100
AcDbArc
 50
82.59050329750042
 51
84.41192958490017
  0
ARC
  5
5B113
330
1F
100
AcDbEntity
  8
1
100
AcDbCircle
 10
46.53429089639999
 20
-15.453026787
 30
0.0
 40
0.4263984245000004
100
AcDbArc
 50
44.10519665229945
 51
51.19704233769947
  0
ARC
  5
5B114
330
1F
100
AcDbEntity
  8
1
100
AcDbCircle
 10
59.70243218299998
 20
-6.422428304000014
 30
0.0
 40
0.3703277836
100
AcDbArc
 50
348.5524996242001
 51
0.0287218895994944
  0
ARC
  5
5B115
330
1F
100
AcDbEntity
  8
1
100
AcDbCircle
 10
63.206975102
 20
-13.15977778309999
 30
0.0
 40
0.3483470949
100
AcDbArc
 50
57.45980715739994
 51
60.53057794780023
  0
ARC
  5
5B116
330
1F
100
AcDbEntity
  8
1
100
AcDbCircle
 10
49.04980637529996
 20
-16.38811268030001
 30
0.0
 40
0.2997341904
100
AcDbArc
 50
11.86376125960032
 51
14.38165151920035
  0
ARC
  5
5B117
330
1F
100
AcDbEntity
  8
1
100
AcDbCircle
 10
49.06774894650002
 20
-16.38443606300001
 30
0.0
 40
0.2814190429
100
AcDbArc
 50
5.226309059100379
 51
11.88221645159951
  0
ARC
  5
5B118
330
1F
100
AcDbEntity
  8
1
100
AcDbCircle
 10
63.3146346913
 20
-12.991154206
 30
0.0
 40
0.1482858788
100
AcDbArc
 50
51.41673430220055
 51
57.48200602240019
  0
ARC
  5
5B119
330
1F
100
AcDbEntity
  8
1
100
AcDbCircle
 10
63.40222149189997
 20
-23.40545454170001
 30
0.0
 40
0.0977780914
100
AcDbArc
 50
341.5442989029001
 51
0.0393044008998276
  0
ARC
  5
5B11A
330
1F
100
AcDbEntity
  8
1
100
AcDbCircle
 10
39.31624025069999
 20
25.2538724673
 30
0.0
 40
12.9474722232
100
AcDbArc
 50
265.6274344518
 51
270.0012599796997
  0
ARC
  5
5B11B
330
1F
100
AcDbEntity
  8
1
100
AcDbCircle
 10
39.3165249759
 20
26.80319515619999
 30
0.0
 40
10.0
100
AcDbArc
 50
90.0
 51
104.9999999999995
  0
ARC
  5
5B11C
330
1F
100
AcDbEntity
  8
1
100
AcDbCircle
 10
39.28879789259998
 20
26.8167119892
 30
0.0
 40
9.968263464299999
100
AcDbArc
 50
89.84062952369963
 51
104.8839173721007
  0
ARC
  5
5B11D
330
1F
100
AcDbEntity
  8
1
100
AcDbCircle
 10
40.8550114352
 20
20.17412077709999
 30
0.0
 40
8.0482165235
100
AcDbArc
 50
87.24018597739945
 51
87.36171190060034
  0
ARC
  5
5B11E
330
1F
100
AcDbEntity
  8
1
100
AcDbCircle
 10
45.98361251670001
 20
28.30664971969998
 30
0.0
 40
5.5510590884
100
AcDbArc
 50
144.7282580927006
 51
148.2165325692004
  0
ARC
  5
5B11F
330
1F
100
AcDbEntity
  8
1
100
AcDbCircle
 10
82.8221294941
 20
28.94109816149998
 30
0.0
 40
25.7623492138
100
AcDbArc
 50
207.3183628049008
 51
208.7932358652005
  0
ARC
  5
5B120
330
1F
100
AcDbEntity
  8
1
100
AcDbCircle
 10
59.58859175020001
 20
37.40352968859998
 30
0.0
 40
4.3994589455
100
AcDbArc
 50
329.4757273125005
 51
329.8885240542004
  0
ARC
  5
5B121
330
1F
100
AcDbEntity
  8
1
100
AcDbCircle
 10
62.69069791610002
 20
35.59594486929999
 30
0.0
 40
0.8093010352
100
AcDbArc
 50
332.279432190099
 51
0.0278554146000002
  0
ARC
  5
5B122
330
1F
100
AcDbEntity
  8
1
100
AcDbCircle
 10
62.8424482872
 20
35.516479197
 30
0.0
 40
0.6380041843999999
100
AcDbArc
 50
329.8873592657004
 51
332.2575753288993
  0
ARC
  5
5B123
330
1F
100
AcDbEntity
  8
1
100
AcDbCircle
 10
57.13771962119998
 20
30.88198474889998
 30
0.0
 40
3.3397179598
100
AcDbArc
 50
265.2814572341005
 51
265.6331468756007
  0
ARC
  5
5B124
330
1F
100
AcDbEntity
  8
1
100
AcDbCircle
 10
55.3702847326
 20
31.58027741519999
 30
0.0
 40
0.453783189
100
AcDbArc
 50
90.05011790800038
 51
105.4631634802994
  0
ARC
  5
5B125
330
1F
100
AcDbEntity
  8
1
100
AcDbCircle
 10
56.66742348069999
 20
31.58027741519999
 30
0.0
 40
0.453783189
100
AcDbArc
 50
74.53683651970061
 51
89.94988209190031
  0
ARC
  5
5B126
330
1F
100
AcDbEntity
  8
1
100
AcDbCircle
 10
55.3702847326
 20
33.83974185849999
 30
0.0
 40
0.453783189
100
AcDbArc
 50
254.5368365197006
 51
269.9498820919996
  0
ARC
  5
5B127
330
1F
100
AcDbEntity
  8
1
100
AcDbCircle
 10
56.66742348069999
 20
33.83974185849999
 30
0.0
 40
0.453783189
100
AcDbArc
 50
270.0501179080003
 51
285.4631634802994
  0
ARC
  5
5B128
330
1F
100
AcDbEntity
  8
1
100
AcDbCircle
 10
55.1931134578
 20
33.1992079364
 30
0.0
 40
0.2108019198
100
AcDbArc
 50
74.54236362429954
 51
89.95306255059928
  0
ARC
  5
5B129
330
1F
100
AcDbEntity
  8
1
100
AcDbCircle
 10
55.1931134578
 20
32.22081133729999
 30
0.0
 40
0.2108019198
100
AcDbArc
 50
270.0469374494007
 51
285.4576363758002
  0
ARC
  5
5B12A
330
1F
100
AcDbEntity
  8
1
100
AcDbCircle
 10
56.84459475549999
 20
32.22081133729999
 30
0.0
 40
0.2108019198
100
AcDbArc
 50
254.5423636241998
 51
269.9530625507003
  0
ARC
  5
5B12B
330
1F
100
AcDbEntity
  8
1
100
AcDbCircle
 10
56.84459475549999
 20
33.1992079364
 30
0.0
 40
0.2108019198
100
AcDbArc
 50
90.04693744929975
 51
105.4576363758998
  0
ARC
  5
5B12C
330
1F
100
AcDbEntity
  8
1
100
AcDbCircle
 10
47.87420854819996
 20
31.8145853353
 30
0.0
 40
0.453783189
100
AcDbArc
 50
90.0501179080997
 51
105.4631634802994
  0
ARC
  5
5B12D
330
1F
100
AcDbEntity
  8
1
100
AcDbCircle
 10
49.17134729619999
 20
31.8145853353
 30
0.0
 40
0.453783189
100
AcDbArc
 50
74.53683651970061
 51
89.94988209190031
  0
ARC
  5
5B12E
330
1F
100
AcDbEntity
  8
1
100
AcDbCircle
 10
47.69703727340001
 20
33.43351585650001
 30
0.0
 40
0.2108019198
100
AcDbArc
 50
74.54236362419985
 51
89.95306255059928
  0
ARC
  5
5B12F
330
1F
100
AcDbEntity
  8
1
100
AcDbCircle
 10
47.69703727340001
 20
32.4551192574
 30
0.0
 40
0.2108019198
100
AcDbArc
 50
270.0469374494007
 51
285.4576363757005
  0
ARC
  5
5B130
330
1F
100
AcDbEntity
  8
1
100
AcDbCircle
 10
49.34851857099999
 20
32.4551192574
 30
0.0
 40
0.2108019198
100
AcDbArc
 50
254.5423636241998
 51
269.9530625507003
  0
ARC
  5
5B131
330
1F
100
AcDbEntity
  8
1
100
AcDbCircle
 10
49.34851857099999
 20
33.43351585650001
 30
0.0
 40
0.2108019198
100
AcDbArc
 50
90.04693744940073
 51
105.4576363758001
  0
ARC
  5
5B132
330
1F
100
AcDbEntity
  8
1
100
AcDbCircle
 10
42.96454880599998
 20
29.76335363189998
 30
0.0
 40
2.2317065396
100
AcDbArc
 50
158.0861261348
 51
198.5879705350001
  0
ARC
  5
5B133
330
1F
100
AcDbEntity
  8
1
100
AcDbCircle
 10
42.94891473209998
 20
29.7687031991
 30
0.0
 40
2.215187409799999
100
AcDbArc
 50
154.2480656289007
 51
154.8867110503533
  0
ARC
  5
5B134
330
1F
100
AcDbEntity
  8
1
100
AcDbCircle
 10
42.94821476199999
 20
29.76904192469999
 30
0.0
 40
2.214409790299999
100
AcDbArc
 50
153.4229010509004
 51
154.2480905855994
  0
ARC
  5
5B135
330
1F
100
AcDbEntity
  8
1
100
AcDbCircle
 10
42.94741028729996
 20
29.7694426705
 30
0.0
 40
2.2135110275
100
AcDbArc
 50
153.1835994855999
 51
153.4228616267004
  0
ARC
  5
5B136
330
1F
100
AcDbEntity
  8
1
100
AcDbCircle
 10
42.94046039069999
 20
29.77311098179999
 30
0.0
 40
2.2056536536
100
AcDbArc
 50
141.8080415950613
 51
153.1871967843003
  0
ARC
  5
5B137
330
1F
100
AcDbEntity
  8
1
100
AcDbCircle
 10
42.08348749839996
 20
29.76339165889999
 30
0.0
 40
2.2000035209
100
AcDbArc
 50
105.8748154548004
 51
187.8878522002995
  0
ARC
  5
5B138
330
1F
100
AcDbEntity
  8
1
100
AcDbCircle
 10
41.99006396119997
 20
29.70974528289999
 30
0.0
 40
2.1463509127
100
AcDbArc
 50
263.0504641672
 51
270.0348822423999
  0
ARC
  5
5B139
330
1F
100
AcDbEntity
  8
1
100
AcDbCircle
 10
42.54876076560001
 20
29.7800070205
 30
0.0
 40
1.8553915396
100
AcDbArc
 50
148.1984298175997
 51
149.1873848996991
  0
ARC
  5
5B13A
330
1F
100
AcDbEntity
  8
1
100
AcDbCircle
 10
41.65872591529995
 20
30.33084450099999
 30
0.0
 40
0.8093010352
100
AcDbArc
 50
152.2794321902004
 51
180.0278554146
  0
ARC
  5
5B13B
330
1F
100
AcDbEntity
  8
1
100
AcDbCircle
 10
41.37963988869995
 20
30.4772183314
 30
0.0
 40
0.4941614996000001
100
AcDbArc
 50
149.1800622163001
 51
152.0477155830298
  0
ARC
  5
5B13C
330
1F
100
AcDbEntity
  8
1
100
AcDbCircle
 10
41.37963988869995
 20
30.4772183314
 30
0.0
 40
0.4941614996000001
100
AcDbArc
 50
152.0477155830298
 51
152.2509917321005
  0
ARC
  5
5B13D
330
1F
100
AcDbEntity
  8
1
100
AcDbCircle
 10
41.2555843298
 20
28.613533488
 30
0.0
 40
0.4061614061000001
100
AcDbArc
 50
180.0195804418997
 51
189.0255148205004
  0
ARC
  5
5B13E
330
1F
100
AcDbEntity
  8
1
100
AcDbCircle
 10
47.87420854819996
 20
34.07404977859999
 30
0.0
 40
0.453783189
100
AcDbArc
 50
254.5368365197006
 51
269.9498820919003
  0
ARC
  5
5B13F
330
1F
100
AcDbEntity
  8
1
100
AcDbCircle
 10
49.17134729619999
 20
34.07404977859999
 30
0.0
 40
0.453783189
100
AcDbArc
 50
270.0501179080997
 51
285.4631634802994
  0
ARC
  5
5B140
330
1F
100
AcDbEntity
  8
1
100
AcDbCircle
 10
40.97601260869999
 20
38.2999641454
 30
0.0
 40
12.0365673329
100
AcDbArc
 50
268.9954589423997
 51
270.0006320763995
  0
ARC
  5
5B141
330
1F
100
AcDbEntity
  8
1
100
AcDbCircle
 10
41.51405096669998
 20
38.17399942010002
 30
0.0
 40
11.9106044908
100
AcDbArc
 50
267.4140869067994
 51
269.9997165716005
  0
ARC
  5
5B142
330
1F
100
AcDbEntity
  8
1
100
AcDbCircle
 10
25.44881050900003
 20
-48.96925677409999
 30
0.0
 40
15.0
100
AcDbArc
 50
75.00000000000048
 51
124.2811359469999
  0
ARC
  5
5B143
330
1F
100
AcDbEntity
  8
1
100
AcDbCircle
 10
2.0
 20
34.575
 30
0.0
 40
2.0
100
AcDbArc
 50
90.0
 51
180.0
  0
ARC
  5
5B144
330
1F
100
AcDbEntity
  8
1
100
AcDbCircle
 10
2.0
 20
-34.57500000000001
 30
0.0
 40
2.0
100
AcDbArc
 50
180.0
 51
270.0
  0
ARC
  5
5B145
330
1F
100
AcDbEntity
  8
1
100
AcDbCircle
 10
117.8713835757
 20
242.1349878288
 30
0.0
 40
271.5434565721
100
AcDbArc
 50
255.2132435005999
 51
255.3314394702997
  0
ARC
  5
5B146
330
1F
100
AcDbEntity
  8
1
100
AcDbCircle
 10
117.1631481954999
 20
241.2421265691
 30
0.0
 40
270.5007415717
100
AcDbArc
 50
255.4286736938004
 51
255.5494515843006
  0
ARC
  5
5B147
330
1F
100
AcDbEntity
  8
1
100
AcDbCircle
 10
116.3956430101
 20
240.0858769292
 30
0.0
 40
269.1899292167
100
AcDbArc
 50
255.6462298653004
 51
255.7697896145993
  0
ARC
  5
5B148
330
1F
100
AcDbEntity
  8
1
100
AcDbCircle
 10
115.7615182151
 20
239.4202167404
 30
0.0
 40
268.3891936064
100
AcDbArc
 50
255.8660768380004
 51
255.9922675925004
  0
ARC
  5
5B149
330
1F
100
AcDbEntity
  8
1
100
AcDbCircle
 10
115.1821276977
 20
238.9443406771
 30
0.0
 40
267.787598547
100
AcDbArc
 50
256.0879021167006
 51
256.2167088254997
  0
ARC
  5
5B14A
330
1F
100
AcDbEntity
  8
1
100
AcDbCircle
 10
114.5648890609
 20
238.2869888798
 30
0.0
 40
267.0024859849
100
AcDbArc
 50
256.3117396410004
 51
256.4433366842006
  0
ARC
  5
5B14B
330
1F
100
AcDbEntity
  8
1
100
AcDbCircle
 10
114.0771233906
 20
238.1361052405
 30
0.0
 40
266.7418314805
100
AcDbArc
 50
256.5375920102006
 51
256.6718082777993
  0
ARC
  5
5B14C
330
1F
100
AcDbEntity
  8
1
100
AcDbCircle
 10
113.4272403726
 20
237.2763410049
 30
0.0
 40
265.7557625914
100
AcDbArc
 50
256.7654153216007
 51
256.9027164777994
  0
ARC
  5
5B14D
330
1F
100
AcDbEntity
  8
1
100
AcDbCircle
 10
112.3716726096
 20
236.5104150679
 30
0.0
 40
264.772986265
100
AcDbArc
 50
257.2281426055998
 51
257.3714455108004
  0
ARC
  5
5B14E
330
1F
100
AcDbEntity
  8
1
100
AcDbCircle
 10
112.7518490775
 20
236.2648921062
 30
0.0
 40
264.6179248095
100
AcDbArc
 50
256.9955230361999
 51
257.1361100813995
  0
ARC
  5
5B14F
330
1F
100
AcDbEntity
  8
1
100
AcDbCircle
 10
111.7996853555
 20
235.8780448468
 30
0.0
 40
264.0311949422
100
AcDbArc
 50
257.4625643401004
 51
257.6091884191992
  0
ARC
  5
5B150
330
1F
100
AcDbEntity
  8
1
100
AcDbCircle
 10
111.0081230964
 20
234.2017049494
 30
0.0
 40
262.224376023
100
AcDbArc
 50
257.6995197548999
 51
257.8502282615005
  0
ARC
  5
5B151
330
1F
100
AcDbEntity
  8
1
100
AcDbCircle
 10
110.2696382028
 20
232.7059007489
 30
0.0
 40
260.6069673453
100
AcDbArc
 50
257.9397367504999
 51
258.0946294355991
  0
ARC
  5
5B152
330
1F
100
AcDbEntity
  8
1
100
AcDbCircle
 10
109.6984447472
 20
231.9442950155
 30
0.0
 40
259.7442199049
100
AcDbArc
 50
258.1832586378001
 51
258.3420953694002
  0
ARC
  5
5B153
330
1F
100
AcDbEntity
  8
1
100
AcDbCircle
 10
109.1211710238
 20
231.1049259433
 30
0.0
 40
258.8058198832
100
AcDbArc
 50
258.4297099240999
 51
258.5927506264001
  0
ARC
  5
5B154
330
1F
100
AcDbEntity
  8
1
100
AcDbCircle
 10
108.3624477249
 20
229.3122457058
 30
0.0
 40
256.8987854185
100
AcDbArc
 50
258.6795482320008
 51
258.8476749246997
  0
ARC
  5
5B155
330
1F
100
AcDbEntity
  8
1
100
AcDbCircle
 10
107.7328920716
 20
228.0885564475
 30
0.0
 40
255.5767203142
100
AcDbArc
 50
258.9330847873998
 51
259.1062201976994
  0
ARC
  5
5B156
330
1F
100
AcDbEntity
  8
1
100
AcDbCircle
 10
106.5051746349
 20
223.6756592421
 30
0.0
 40
251.0115970654
100
AcDbArc
 50
259.1910425324006
 51
259.3718589851992
  0
ARC
  5
5B157
330
1F
100
AcDbEntity
  8
1
100
AcDbCircle
 10
105.8831916933
 20
222.3265715207
 30
0.0
 40
249.5712014952
100
AcDbArc
 50
259.4550794813007
 51
259.6418458035994
  0
ARC
  5
5B158
330
1F
100
AcDbEntity
  8
1
100
AcDbCircle
 10
105.4765222631
 20
222.0877959647
 30
0.0
 40
249.2634535933
100
AcDbArc
 50
259.7239312389005
 51
259.9162191584007
  0
ARC
  5
5B159
330
1F
100
AcDbEntity
  8
1
100
AcDbCircle
 10
104.7122080435
 20
219.7539723729
 30
0.0
 40
246.8320983583
100
AcDbArc
 50
259.9960428846995
 51
260.1959934288996
  0
ARC
  5
5B15A
330
1F
100
AcDbEntity
  8
1
100
AcDbCircle
 10
49.71955799349998
 20
65.20505937289998
 30
0.0
 40
77.37301844310001
100
AcDbArc
 50
278.2377809718997
 51
278.7366334507999
  0
ARC
  5
5B15B
330
1F
100
AcDbEntity
  8
1
100
AcDbCircle
 10
52.199181431
 20
41.1203496751
 30
0.0
 40
12.6525939212
100
AcDbArc
 50
327.9954942000005
 51
329.4877297936003
  0
ARC
  5
5B15C
330
1F
100
AcDbEntity
  8
1
100
AcDbCircle
 10
25.44881050900003
 20
48.96925677419999
 30
0.0
 40
15.0
100
AcDbArc
 50
235.718864053
 51
284.9999999999996
  0
ARC
  5
5B15D
330
1F
100
AcDbEntity
  8
sk3
100
AcDbCircle
 10
58.4330500959
 20
-26.47674707669995
 30
0.0
 40
2.0
100
AcDbArc
 50
180.0
 51
219.636125552801
  0
ARC
  5
5B15E
330
1F
100
AcDbEntity
  8
sk3
100
AcDbCircle
 10
32.40000000000001
 20
-8.899999999999977
 30
0.0
 40
0.4
100
AcDbArc
 50
90.0
 51
180.0
  0
ARC
  5
5B15F
330
1F
100
AcDbEntity
  8
sk3
100
AcDbCircle
 10
42.40000000000001
 20
-12.59999999999996
 30
0.0
 40
0.4
100
AcDbArc
 50
180.0
 51
270.0
  0
ARC
  5
5B160
330
1F
100
AcDbEntity
  8
sk3
100
AcDbCircle
 10
61.29206629559999
 20
-34.21609984949995
 30
0.0
 40
0.2
100
AcDbArc
 50
0.0
 51
29.63612555280046
  0
ARC
  5
5B161
330
1F
100
AcDbEntity
  8
sk3
100
AcDbCircle
 10
31.19999999999999
 20
-15.69999999999999
 30
0.0
 40
0.8
100
AcDbArc
 50
270.0
 51
0.0
  0
ARC
  5
5B162
330
1F
100
AcDbEntity
  8
nocut
100
AcDbCircle
 10
39.31652497589997
 20
26.8031951561
 30
0.0
 40
10.0
100
AcDbArc
 50
90.0
 51
104.9999999999994
  0
ARC
  5
5B163
330
1F
100
AcDbEntity
  8
sk3
100
AcDbCircle
 10
58.4330500959
 20
26.47674707660002
 30
0.0
 40
2.0
100
AcDbArc
 50
140.3638744471989
 51
180.0
  0
ARC
  5
5B164
330
1F
100
AcDbEntity
  8
sk3
100
AcDbCircle
 10
32.40000000000001
 20
8.900000000000034
 30
0.0
 40
0.4
100
AcDbArc
 50
180.0
 51
270.0
  0
ARC
  5
5B165
330
1F
100
AcDbEntity
  8
sk3
100
AcDbCircle
 10
42.40000000000001
 20
12.60000000000002
 30
0.0
 40
0.4
100
AcDbArc
 50
90.0
 51
180.0
  0
ARC
  5
5B166
330
1F
100
AcDbEntity
  8
sk3
100
AcDbCircle
 10
61.29206629559999
 20
34.21609984940005
 30
0.0
 40
0.2
100
AcDbArc
 50
330.3638744471994
 51
0.0
  0
ARC
  5
5B167
330
1F
100
AcDbEntity
  8
nocut
100
AcDbCircle
 10
60.62578839509995
 20
36.18873108810003
 30
0.0
 40
0.2
100
AcDbArc
 50
25.90977561459995
 51
88.14298383590008
  0
ARC
  5
5B168
330
1F
100
AcDbEntity
  8
nocut
100
AcDbCircle
 10
61.29206629559996
 20
34.81718150960005
 30
0.0
 40
0.2
100
AcDbArc
 50
0.0
 51
25.90977561459995
  0
ARC
  5
5B169
330
1F
100
AcDbEntity
  8
nocut
100
AcDbCircle
 10
25.44881050899997
 20
48.96925677410002
 30
0.0
 40
15.0
100
AcDbArc
 50
235.718864053
 51
284.9999999999995
  0
ARC
  5
5B16A
330
1F
100
AcDbEntity
  8
nocut
100
AcDbCircle
 10
1.999999999999971
 20
34.57500000000005
 30
0.0
 40
2.0
100
AcDbArc
 50
90.0
 51
180.0
  0
ARC
  5
5B16B
330
1F
100
AcDbEntity
  8
sk3
100
AcDbCircle
 10
31.19999999999999
 20
15.70000000000003
 30
0.0
 40
0.8
100
AcDbArc
 50
0.0
 51
90.0
  0
SPLINE
  5
5B16C
330
1F
100
AcDbEntity
  8
1
100
AcDbSpline
210
0.0
220
0.0
230
1.0
 70
     8
 71
     3
 72
    15
 73
    11
 74
     0
 42
0.0000000001
 43
0.0000000001
 40
0.0
 40
0.0
 40
0.0
 40
0.0
 40
0.1259409039
 40
0.2517305122
 40
0.3772639386
 40
0.5024521479999999
 40
0.6272671653000002
 40
0.7517363108000003
 40
0.8759400846
 40
1.0
 40
1.0
 40
1.0
 40
1.0
 10
46.4082953189
 20
32.94431755689999
 30
0.0
 10
46.4082953189
 20
32.80057521179998
 30
0.0
 10
46.43618721339999
 20
32.51248846359999
 30
0.0
 10
46.5601574387
 20
32.09744063109999
 30
0.0
 10
46.76149075770001
 20
31.71468059119999
 30
0.0
 10
47.03254146720001
 20
31.3791193013
 30
0.0
 10
47.36292008070001
 20
31.10362887289999
 30
0.0
 10
47.74001624299995
 20
30.89885639539999
 30
0.0
 10
48.1491139343
 20
30.77272224709998
 30
0.0
 10
48.43327689200001
 20
30.74431755689999
 30
0.0
 10
48.5748723755
 20
30.74431755689999
 30
0.0
  0
SPLINE
  5
5B16D
330
1F
100
AcDbEntity
  8
1
100
AcDbSpline
210
0.0
220
0.0
230
1.0
 70
     8
 71
     3
 72
    13
 73
     9
 74
     0
 42
0.0000000001
 43
0.0000000001
 40
0.0
 40
0.0
 40
0.0
 40
0.0
 40
0.1248583695
 40
0.2500920269
 40
0.5
 40
0.7499079731000001
 40
0.8751416304999999
 40
1.0
 40
1.0
 40
1.0
 40
1.0
 10
49.49806105979999
 20
33.27486665939998
 30
0.0
 10
49.476632577
 20
33.2533110933
 30
0.0
 10
49.43788728830003
 20
33.205725645
 30
0.0
 10
49.380562242
 20
33.09765064370001
 30
0.0
 10
49.35018211029998
 20
32.94431755689999
 30
0.0
 10
49.380562242
 20
32.7909844701
 30
0.0
 10
49.43788728830003
 20
32.6829094689
 30
0.0
 10
49.476632577
 20
32.6353240206
 30
0.0
 10
49.49806105979999
 20
32.61376845449999
 30
0.0
  0
SPLINE
  5
5B16E
330
1F
100
AcDbEntity
  8
1
100
AcDbSpline
210
0.0
220
0.0
230
1.0
 70
     8
 71
     3
 72
    15
 73
    11
 74
     0
 42
0.0000000001
 43
0.0000000001
 40
0.0
 40
0.0
 40
0.0
 40
0.0
 40
0.1250742973
 40
0.2505920446
 40
0.3763383188
 40
0.5019758983
 40
0.6272252878
 40
0.7519302776000001
 40
0.8761234669
 40
1.0
 40
1.0
 40
1.0
 40
1.0
 10
49.49806105979999
 20
33.27486665939998
 30
0.0
 10
49.51290707729999
 20
33.28980072250002
 30
0.0
 10
49.5383608935
 20
33.32434776779999
 30
0.0
 10
49.55988236549996
 20
33.38485827989999
 30
0.0
 10
49.56320304720001
 20
33.4491351665
 30
0.0
 10
49.54797638619999
 20
33.511616894
 30
0.0
 10
49.51551879060002
 20
33.56694226279998
 30
0.0
 10
49.46856998369998
 20
33.61032763039999
 30
0.0
 10
49.41123422959998
 20
33.6379807899
 30
0.0
 10
49.3692020096
 20
33.64432224260001
 30
0.0
 10
49.3483458794
 20
33.6443177056
 30
0.0
  0
SPLINE
  5
5B16F
330
1F
100
AcDbEntity
  8
1
100
AcDbSpline
210
0.0
220
0.0
230
1.0
 70
     8
 71
     3
 72
    11
 73
     7
 74
     0
 42
0.0000000001
 43
0.0000000001
 40
0.0
 40
0.0
 40
0.0
 40
0.0
 40
0.2516589898
 40
0.5021517478000001
 40
0.7514631912000001
 40
1.0
 40
1.0
 40
1.0
 40
1.0
 10
48.72850456320001
 20
33.96724170570002
 30
0.0
 10
48.7411856704
 20
33.91826591500001
 30
0.0
 10
48.78268521849998
 20
33.8239383145
 30
0.0
 10
48.88654557279997
 20
33.71062363959999
 30
0.0
 10
49.02091044170001
 20
33.637187235
 30
0.0
 10
49.12178098790002
 20
33.62025796879999
 30
0.0
 10
49.17174423049999
 20
33.62026676319999
 30
0.0
  0
SPLINE
  5
5B170
330
1F
100
AcDbEntity
  8
1
100
AcDbSpline
210
0.0
220
0.0
230
1.0
 70
     8
 71
     3
 72
    11
 73
     7
 74
     0
 42
0.0000000001
 43
0.0000000001
 40
0.0
 40
0.0
 40
0.0
 40
0.0
 40
0.2516633133
 40
0.5021410186000002
 40
0.7514528673000001
 40
1.0
 40
1.0
 40
1.0
 40
1.0
 10
48.72850456320001
 20
33.96724170570002
 30
0.0
 10
48.72261832750002
 20
33.9899749768
 30
0.0
 10
48.7033591771
 20
34.03375966599998
 30
0.0
 10
48.65514912330002
 20
34.08635209449999
 30
0.0
 10
48.59279155429999
 20
34.1204543356
 30
0.0
 10
48.54597010770001
 20
34.12831755689999
 30
0.0
 10
48.52277792220002
 20
34.12831755689999
 30
0.0
  0
SPLINE
  5
5B171
330
1F
100
AcDbEntity
  8
1
100
AcDbSpline
210
0.0
220
0.0
230
1.0
 70
     8
 71
     3
 72
    15
 73
    11
 74
     0
 42
0.0000000001
 43
0.0000000001
 40
0.0
 40
0.0
 40
0.0
 40
0.0
 40
0.1259409039
 40
0.2517305122
 40
0.3772639386
 40
0.5024521479999999
 40
0.6272671653000002
 40
0.7517363108000003
 40
0.8759400846
 40
1.0
 40
1.0
 40
1.0
 40
1.0
 10
46.4082953189
 20
32.94431755689999
 30
0.0
 10
46.4082953189
 20
33.0880599021
 30
0.0
 10
46.43618721339999
 20
33.37614665029999
 30
0.0
 10
46.5601574387
 20
33.79119448269999
 30
0.0
 10
46.76149075770001
 20
34.1739545227
 30
0.0
 10
47.03254146720001
 20
34.5095158126
 30
0.0
 10
47.36292008070001
 20
34.78500624099999
 30
0.0
 10
47.74001624299995
 20
34.98977871849999
 30
0.0
 10
48.1491139343
 20
35.11591286679999
 30
0.0
 10
48.43327689200001
 20
35.14431755689998
 30
0.0
 10
48.5748723755
 20
35.14431755689998
 30
0.0
  0
SPLINE
  5
5B172
330
1F
100
AcDbEntity
  8
1
100
AcDbSpline
210
0.0
220
0.0
230
1.0
 70
     8
 71
     3
 72
    15
 73
    11
 74
     0
 42
0.0000000001
 43
0.0000000001
 40
0.0
 40
0.0
 40
0.0
 40
0.0
 40
0.1238765331
 40
0.2480697224
 40
0.3727747122
 40
0.4980241017
 40
0.6236616812
 40
0.7494079554000001
 40
0.8749257026999998
 40
1.0
 40
1.0
 40
1.0
 40
1.0
 10
49.3483458794
 20
32.24431740830002
 30
0.0
 10
49.3692020096
 20
32.24431287130001
 30
0.0
 10
49.41123422959998
 20
32.25065432400001
 30
0.0
 10
49.46856998369998
 20
32.27830748349999
 30
0.0
 10
49.51551879060002
 20
32.32169285110001
 30
0.0
 10
49.54797638619999
 20
32.3770182198
 30
0.0
 10
49.56320304720001
 20
32.43949994739998
 30
0.0
 10
49.55988236549996
 20
32.50377683399998
 30
0.0
 10
49.5383608935
 20
32.56428734609999
 30
0.0
 10
49.51290707729999
 20
32.59883439139999
 30
0.0
 10
49.49806105979999
 20
32.61376845449999
 30
0.0
  0
SPLINE
  5
5B173
330
1F
100
AcDbEntity
  8
1
100
AcDbSpline
210
0.0
220
0.0
230
1.0
 70
     8
 71
     3
 72
    11
 73
     7
 74
     0
 42
0.0000000001
 43
0.0000000001
 40
0.0
 40
0.0
 40
0.0
 40
0.0
 40
0.2485368088
 40
0.4978482522000001
 40
0.7483410102
 40
1.0
 40
1.0
 40
1.0
 40
1.0
 10
49.17174423049999
 20
32.2683683507
 30
0.0
 10
49.12178098790002
 20
32.26837714510001
 30
0.0
 10
49.02091044170001
 20
32.2514478789
 30
0.0
 10
48.88654557279997
 20
32.17801147429998
 30
0.0
 10
48.78268521849998
 20
32.06469679939998
 30
0.0
 10
48.7411856704
 20
31.97036919889999
 30
0.0
 10
48.72850456320001
 20
31.92139340820001
 30
0.0
  0
SPLINE
  5
5B174
330
1F
100
AcDbEntity
  8
1
100
AcDbSpline
210
0.0
220
0.0
230
1.0
 70
     8
 71
     3
 72
    11
 73
     7
 74
     0
 42
0.0000000001
 43
0.0000000001
 40
0.0
 40
0.0
 40
0.0
 40
0.0
 40
0.2485471327
 40
0.4978589814000002
 40
0.7483366867
 40
1.0
 40
1.0
 40
1.0
 40
1.0
 10
48.52277792220002
 20
31.76031755689999
 30
0.0
 10
48.54597010770001
 20
31.76031755689999
 30
0.0
 10
48.59279155429999
 20
31.76818077830001
 30
0.0
 10
48.65514912330002
 20
31.8022830194
 30
0.0
 10
48.7033591771
 20
31.85487544789999
 30
0.0
 10
48.72261832750002
 20
31.89866013710001
 30
0.0
 10
48.72850456320001
 20
31.92139340820001
 30
0.0
  0
SPLINE
  5
5B175
330
1F
100
AcDbEntity
  8
1
100
AcDbSpline
210
0.0
220
0.0
230
1.0
 70
     8
 71
     3
 72
    27
 73
    23
 74
     0
 42
0.0000000001
 43
0.0000000001
 40
0.0
 40
0.0
 40
0.0
 40
0.0
 40
0.0629516258
 40
0.09443999
 40
0.1259014154
 40
0.1886495372
 40
0.251224821
 40
0.2824800863
 40
0.3136893409
 40
0.3759053075
 40
0.4379886137
 40
0.5
 40
0.5620113863000002
 40
0.6240946925000001
 40
0.6863106591000001
 40
0.7175199137
 40
0.748775179
 40
0.8113504627999999
 40
0.8740985845999999
 40
0.9055600099999999
 40
0.9370483741999999
 40
1.0
 40
1.0
 40
1.0
 40
1.0
 10
46.65164319150003
 20
32.94431755689999
 30
0.0
 10
46.65164319150003
 20
33.06845867449999
 30
0.0
 10
46.66976216700001
 20
33.25534848679999
 30
0.0
 10
46.7293190428
 20
33.49666512719999
 30
0.0
 10
46.81179125659997
 20
33.73079522110001
 30
0.0
 10
46.95665450040002
 20
34.00628029699999
 30
0.0
 10
47.15203799029999
 20
34.24809148680001
 30
0.0
 10
47.33373701229999
 20
34.41530352289999
 30
0.0
 10
47.53038437009999
 20
34.56345958269999
 30
0.0
 10
47.80177306449997
 20
34.71088303619999
 30
0.0
 10
48.15516268439996
 20
34.8197771606
 30
0.0
 10
48.52277792220002
 20
34.85657506059999
 30
0.0
 10
48.89039316
 20
34.8197771606
 30
0.0
 10
49.24378277990001
 20
34.71088303619999
 30
0.0
 10
49.51517147430002
 20
34.56345958269999
 30
0.0
 10
49.71181883209999
 20
34.41530352289999
 30
0.0
 10
49.89351785399998
 20
34.24809148680001
 30
0.0
 10
50.08890134400002
 20
34.00628029699999
 30
0.0
 10
50.23376458769999
 20
33.73079522110001
 30
0.0
 10
50.31623680159999
 20
33.49666512719999
 30
0.0
 10
50.37579367740002
 20
33.25534848679999
 30
0.0
 10
50.39391265289999
 20
33.06845867449999
 30
0.0
 10
50.39391265289999
 20
32.94431755689999
 30
0.0
  0
SPLINE
  5
5B176
330
1F
100
AcDbEntity
  8
1
100
AcDbSpline
210
0.0
220
0.0
230
1.0
 70
     8
 71
     3
 72
    27
 73
    23
 74
     0
 42
0.0000000001
 43
0.0000000001
 40
0.0
 40
0.0
 40
0.0
 40
0.0
 40
0.0629516258
 40
0.09443999
 40
0.1259014154
 40
0.1886495372
 40
0.251224821
 40
0.2824800863
 40
0.3136893409
 40
0.3759053075
 40
0.4379886137
 40
0.5
 40
0.5620113863000002
 40
0.6240946925000001
 40
0.6863106591000001
 40
0.7175199137
 40
0.748775179
 40
0.8113504627999999
 40
0.8740985845999999
 40
0.9055600099999999
 40
0.9370483741999999
 40
1.0
 40
1.0
 40
1.0
 40
1.0
 10
46.65164319150003
 20
32.94431755689999
 30
0.0
 10
46.65164319150003
 20
32.82017643939999
 30
0.0
 10
46.66976216700001
 20
32.63328662709998
 30
0.0
 10
46.7293190428
 20
32.39196998670002
 30
0.0
 10
46.81179125659997
 20
32.15783989279998
 30
0.0
 10
46.95665450040002
 20
31.88235481679999
 30
0.0
 10
47.15203799029999
 20
31.64054362699999
 30
0.0
 10
47.33373701229999
 20
31.47333159099999
 30
0.0
 10
47.53038437009999
 20
31.32517553119999
 30
0.0
 10
47.80177306449997
 20
31.17775207769998
 30
0.0
 10
48.15516268439996
 20
31.0688579533
 30
0.0
 10
48.52277792220002
 20
31.0320600533
 30
0.0
 10
48.89039316
 20
31.0688579533
 30
0.0
 10
49.24378277990001
 20
31.17775207769998
 30
0.0
 10
49.51517147430002
 20
31.32517553119999
 30
0.0
 10
49.71181883209999
 20
31.47333159099999
 30
0.0
 10
49.89351785399998
 20
31.64054362699999
 30
0.0
 10
50.08890134400002
 20
31.88235481679999
 30
0.0
 10
50.23376458769999
 20
32.15783989279998
 30
0.0
 10
50.31623680159999
 20
32.39196998670002
 30
0.0
 10
50.37579367740002
 20
32.63328662709998
 30
0.0
 10
50.39391265289999
 20
32.82017643939999
 30
0.0
 10
50.39391265289999
 20
32.94431755689999
 30
0.0
  0
SPLINE
  5
5B177
330
1F
100
AcDbEntity
  8
1
100
AcDbSpline
210
0.0
220
0.0
230
1.0
 70
     8
 71
     3
 72
    11
 73
     7
 74
     0
 42
0.0000000001
 43
0.0000000001
 40
0.0
 40
0.0
 40
0.0
 40
0.0
 40
0.2516589898
 40
0.5021517478000001
 40
0.7514631912000001
 40
1.0
 40
1.0
 40
1.0
 40
1.0
 10
48.31705128119998
 20
31.92139340820001
 30
0.0
 10
48.30437017400001
 20
31.97036919889999
 30
0.0
 10
48.26287062590001
 20
32.06469679939998
 30
0.0
 10
48.15901027160001
 20
32.17801147429998
 30
0.0
 10
48.0246454027
 20
32.2514478789
 30
0.0
 10
47.9237748564
 20
32.26837714510001
 30
0.0
 10
47.87381161389999
 20
32.2683683507
 30
0.0
  0
SPLINE
  5
5B178
330
1F
100
AcDbEntity
  8
1
100
AcDbSpline
210
0.0
220
0.0
230
1.0
 70
     8
 71
     3
 72
    11
 73
     7
 74
     0
 42
0.0000000001
 43
0.0000000001
 40
0.0
 40
0.0
 40
0.0
 40
0.0
 40
0.2516633133
 40
0.5021410186000002
 40
0.7514528673000001
 40
1.0
 40
1.0
 40
1.0
 40
1.0
 10
48.31705128119998
 20
31.92139340820001
 30
0.0
 10
48.32293751680001
 20
31.89866013710001
 30
0.0
 10
48.34219666720002
 20
31.85487544789999
 30
0.0
 10
48.39040672110002
 20
31.8022830194
 30
0.0
 10
48.45276429009999
 20
31.76818077830001
 30
0.0
 10
48.49958573670003
 20
31.76031755689999
 30
0.0
 10
48.52277792220002
 20
31.76031755689999
 30
0.0
  0
SPLINE
  5
5B179
330
1F
100
AcDbEntity
  8
1
100
AcDbSpline
210
0.0
220
0.0
230
1.0
 70
     8
 71
     3
 72
    13
 73
     9
 74
     0
 42
0.0000000001
 43
0.0000000001
 40
0.0
 40
0.0
 40
0.0
 40
0.0
 40
0.1248583695
 40
0.2500920269
 40
0.5
 40
0.7499079731000001
 40
0.8751416304999999
 40
1.0
 40
1.0
 40
1.0
 40
1.0
 10
47.54749478459999
 20
32.61376845449999
 30
0.0
 10
47.56892326729999
 20
32.6353240206
 30
0.0
 10
47.6076685561
 20
32.6829094689
 30
0.0
 10
47.6649936023
 20
32.7909844701
 30
0.0
 10
47.69537373400001
 20
32.94431755689999
 30
0.0
 10
47.6649936023
 20
33.09765064370001
 30
0.0
 10
47.6076685561
 20
33.205725645
 30
0.0
 10
47.56892326729999
 20
33.2533110933
 30
0.0
 10
47.54749478459999
 20
33.27486665939998
 30
0.0
  0
SPLINE
  5
5B17A
330
1F
100
AcDbEntity
  8
1
100
AcDbSpline
210
0.0
220
0.0
230
1.0
 70
     8
 71
     3
 72
    15
 73
    11
 74
     0
 42
0.0000000001
 43
0.0000000001
 40
0.0
 40
0.0
 40
0.0
 40
0.0
 40
0.1240599154
 40
0.2482636892
 40
0.3727328347
 40
0.4975478520000002
 40
0.6227360614000002
 40
0.7482694878000001
 40
0.8740590961
 40
1.0
 40
1.0
 40
1.0
 40
1.0
 10
48.5748723755
 20
30.74431755689999
 30
0.0
 10
48.71646785900001
 20
30.74431755689999
 30
0.0
 10
49.00063081670001
 20
30.77272224709998
 30
0.0
 10
49.409728508
 20
30.89885639539999
 30
0.0
 10
49.78682467029997
 20
31.10362887289999
 30
0.0
 10
50.11720328380002
 20
31.3791193013
 30
0.0
 10
50.38825399330002
 20
31.71468059119999
 30
0.0
 10
50.58958731229996
 20
32.09744063109999
 30
0.0
 10
50.71355753759999
 20
32.51248846359999
 30
0.0
 10
50.74144943209998
 20
32.80057521179998
 30
0.0
 10
50.74144943209998
 20
32.94431755689999
 30
0.0
  0
SPLINE
  5
5B17B
330
1F
100
AcDbEntity
  8
1
100
AcDbSpline
210
0.0
220
0.0
230
1.0
 70
     8
 71
     3
 72
    15
 73
    11
 74
     0
 42
0.0000000001
 43
0.0000000001
 40
0.0
 40
0.0
 40
0.0
 40
0.0
 40
0.1250742973
 40
0.2505920446
 40
0.3763383188
 40
0.5019758983
 40
0.6272252878
 40
0.7519302776000001
 40
0.8761234669
 40
1.0
 40
1.0
 40
1.0
 40
1.0
 10
47.54749478459999
 20
32.61376845449999
 30
0.0
 10
47.5326487671
 20
32.59883439139999
 30
0.0
 10
47.50719495080002
 20
32.56428734609999
 30
0.0
 10
47.4856734788
 20
32.50377683399998
 30
0.0
 10
47.48235279720001
 20
32.43949994739998
 30
0.0
 10
47.49757945819999
 20
32.3770182198
 30
0.0
 10
47.53003705380002
 20
32.32169285110001
 30
0.0
 10
47.5769858607
 20
32.27830748349999
 30
0.0
 10
47.63432161479999
 20
32.25065432400001
 30
0.0
 10
47.6763538348
 20
32.24431287130001
 30
0.0
 10
47.69720996500001
 20
32.24431740830002
 30
0.0
  0
SPLINE
  5
5B17C
330
1F
100
AcDbEntity
  8
1
100
AcDbSpline
210
0.0
220
0.0
230
1.0
 70
     8
 71
     3
 72
    15
 73
    11
 74
     0
 42
0.0000000001
 43
0.0000000001
 40
0.0
 40
0.0
 40
0.0
 40
0.0
 40
0.1240599154
 40
0.2482636892
 40
0.3727328347
 40
0.4975478520000002
 40
0.6227360614000002
 40
0.7482694878000001
 40
0.8740590961
 40
1.0
 40
1.0
 40
1.0
 40
1.0
 10
48.5748723755
 20
35.14431755689998
 30
0.0
 10
48.71646785900001
 20
35.14431755689998
 30
0.0
 10
49.00063081670001
 20
35.11591286679999
 30
0.0
 10
49.409728508
 20
34.98977871849999
 30
0.0
 10
49.78682467029997
 20
34.78500624099999
 30
0.0
 10
50.11720328380002
 20
34.5095158126
 30
0.0
 10
50.38825399330002
 20
34.1739545227
 30
0.0
 10
50.58958731229996
 20
33.79119448269999
 30
0.0
 10
50.71355753759999
 20
33.37614665029999
 30
0.0
 10
50.74144943209998
 20
33.0880599021
 30
0.0
 10
50.74144943209998
 20
32.94431755689999
 30
0.0
  0
SPLINE
  5
5B17D
330
1F
100
AcDbEntity
  8
1
100
AcDbSpline
210
0.0
220
0.0
230
1.0
 70
     8
 71
     3
 72
    15
 73
    11
 74
     0
 42
0.0000000001
 43
0.0000000001
 40
0.0
 40
0.0
 40
0.0
 40
0.0
 40
0.1238765331
 40
0.2480697224
 40
0.3727747122
 40
0.4980241017
 40
0.6236616812
 40
0.7494079554000001
 40
0.8749257026999998
 40
1.0
 40
1.0
 40
1.0
 40
1.0
 10
47.69720996500001
 20
33.6443177056
 30
0.0
 10
47.6763538348
 20
33.64432224260001
 30
0.0
 10
47.63432161479999
 20
33.6379807899
 30
0.0
 10
47.5769858607
 20
33.61032763039999
 30
0.0
 10
47.53003705380002
 20
33.56694226279998
 30
0.0
 10
47.49757945819999
 20
33.511616894
 30
0.0
 10
47.48235279720001
 20
33.4491351665
 30
0.0
 10
47.4856734788
 20
33.38485827989999
 30
0.0
 10
47.50719495080002
 20
33.32434776779999
 30
0.0
 10
47.5326487671
 20
33.28980072250002
 30
0.0
 10
47.54749478459999
 20
33.27486665939998
 30
0.0
  0
SPLINE
  5
5B17E
330
1F
100
AcDbEntity
  8
1
100
AcDbSpline
210
0.0
220
0.0
230
1.0
 70
     8
 71
     3
 72
    11
 73
     7
 74
     0
 42
0.0000000001
 43
0.0000000001
 40
0.0
 40
0.0
 40
0.0
 40
0.0
 40
0.2485368088
 40
0.4978482522000001
 40
0.7483410102
 40
1.0
 40
1.0
 40
1.0
 40
1.0
 10
47.87381161389999
 20
33.62026676319999
 30
0.0
 10
47.9237748564
 20
33.62025796879999
 30
0.0
 10
48.0246454027
 20
33.637187235
 30
0.0
 10
48.15901027160001
 20
33.71062363959999
 30
0.0
 10
48.26287062590001
 20
33.8239383145
 30
0.0
 10
48.30437017400001
 20
33.91826591500001
 30
0.0
 10
48.31705128119998
 20
33.96724170570002
 30
0.0
  0
SPLINE
  5
5B17F
330
1F
100
AcDbEntity
  8
1
100
AcDbSpline
210
0.0
220
0.0
230
1.0
 70
     8
 71
     3
 72
    11
 73
     7
 74
     0
 42
0.0000000001
 43
0.0000000001
 40
0.0
 40
0.0
 40
0.0
 40
0.0
 40
0.2485471327
 40
0.4978589814000002
 40
0.7483366867
 40
1.0
 40
1.0
 40
1.0
 40
1.0
 10
48.52277792220002
 20
34.12831755689999
 30
0.0
 10
48.49958573670003
 20
34.12831755689999
 30
0.0
 10
48.45276429009999
 20
34.1204543356
 30
0.0
 10
48.39040672110002
 20
34.08635209449999
 30
0.0
 10
48.34219666720002
 20
34.03375966599998
 30
0.0
 10
48.32293751680001
 20
33.9899749768
 30
0.0
 10
48.31705128119998
 20
33.96724170570002
 30
0.0
  0
SPLINE
  5
5B180
330
1F
100
AcDbEntity
  8
1
100
AcDbSpline
210
0.0
220
0.0
230
1.0
 70
     8
 71
     3
 72
    15
 73
    11
 74
     0
 42
0.0000000001
 43
0.0000000001
 40
0.0
 40
0.0
 40
0.0
 40
0.0
 40
0.1259409039
 40
0.2517305122
 40
0.3772639386
 40
0.5024521479999999
 40
0.6272671653000002
 40
0.7517363108000003
 40
0.8759400846
 40
1.0
 40
1.0
 40
1.0
 40
1.0
 10
53.90437150330001
 20
32.71000963689998
 30
0.0
 10
53.90437150330001
 20
32.5662672917
 30
0.0
 10
53.93226339789999
 20
32.27818054349999
 30
0.0
 10
54.0562336232
 20
31.86313271109998
 30
0.0
 10
54.2575669421
 20
31.48037267109998
 30
0.0
 10
54.5286176516
 20
31.14481138119999
 30
0.0
 10
54.85899626509999
 20
30.8693209528
 30
0.0
 10
55.23609242740002
 20
30.6645484753
 30
0.0
 10
55.64519011869998
 20
30.53841432699999
 30
0.0
 10
55.92935307650001
 20
30.51000963689998
 30
0.0
 10
56.07094855990002
 20
30.51000963689998
 30
0.0
  0
SPLINE
  5
5B181
330
1F
100
AcDbEntity
  8
1
100
AcDbSpline
210
0.0
220
0.0
230
1.0
 70
     8
 71
     3
 72
    13
 73
     9
 74
     0
 42
0.0000000001
 43
0.0000000001
 40
0.0
 40
0.0
 40
0.0
 40
0.0
 40
0.1248583695
 40
0.2500920269
 40
0.5
 40
0.7499079731000001
 40
0.8751416304999999
 40
1.0
 40
1.0
 40
1.0
 40
1.0
 10
56.99413724420003
 20
33.04055873929998
 30
0.0
 10
56.97270876150003
 20
33.01900317320002
 30
0.0
 10
56.93396347270001
 20
32.97141772489999
 30
0.0
 10
56.87663842650002
 20
32.86334272359999
 30
0.0
 10
56.84625829480001
 20
32.71000963689998
 30
0.0
 10
56.87663842650002
 20
32.55667655010002
 30
0.0
 10
56.93396347270001
 20
32.4486015488
 30
0.0
 10
56.97270876150003
 20
32.4010161005
 30
0.0
 10
56.99413724420003
 20
32.37946053439998
 30
0.0
  0
SPLINE
  5
5B182
330
1F
100
AcDbEntity
  8
1
100
AcDbSpline
210
0.0
220
0.0
230
1.0
 70
     8
 71
     3
 72
    15
 73
    11
 74
     0
 42
0.0000000001
 43
0.0000000001
 40
0.0
 40
0.0
 40
0.0
 40
0.0
 40
0.1250742973
 40
0.2505920446
 40
0.3763383188
 40
0.5019758983
 40
0.6272252878
 40
0.7519302776000001
 40
0.8761234669
 40
1.0
 40
1.0
 40
1.0
 40
1.0
 10
56.99413724420003
 20
33.04055873929998
 30
0.0
 10
57.00898326180001
 20
33.0554928024
 30
0.0
 10
57.03443707799999
 20
33.09003984769999
 30
0.0
 10
57.05595855000002
 20
33.15055035979999
 30
0.0
 10
57.05927923159999
 20
33.21482724639999
 30
0.0
 10
57.0440525706
 20
33.27730897389999
 30
0.0
 10
57.01159497509999
 20
33.33263434269999
 30
0.0
 10
56.96464616809999
 20
33.37601971029999
 30
0.0
 10
56.90731041400002
 20
33.40367286980001
 30
0.0
 10
56.8652781941
 20
33.41001432250002
 30
0.0
 10
56.84442206380001
 20
33.41000978549999
 30
0.0
  0
SPLINE
  5
5B183
330
1F
100
AcDbEntity
  8
1
100
AcDbSpline
210
0.0
220
0.0
230
1.0
 70
     8
 71
     3
 72
    11
 73
     7
 74
     0
 42
0.0000000001
 43
0.0000000001
 40
0.0
 40
0.0
 40
0.0
 40
0.0
 40
0.2516589898
 40
0.5021517478000001
 40
0.7514631912000001
 40
1.0
 40
1.0
 40
1.0
 40
1.0
 10
56.2245807477
 20
33.7329337856
 30
0.0
 10
56.23726185490003
 20
33.6839579949
 30
0.0
 10
56.278761403
 20
33.58963039439999
 30
0.0
 10
56.3826217573
 20
33.47631571950001
 30
0.0
 10
56.51698662610002
 20
33.40287931490002
 30
0.0
 10
56.61785717240002
 20
33.3859500487
 30
0.0
 10
56.66782041499999
 20
33.3859588431
 30
0.0
  0
SPLINE
  5
5B184
330
1F
100
AcDbEntity
  8
1
100
AcDbSpline
210
0.0
220
0.0
230
1.0
 70
     8
 71
     3
 72
    11
 73
     7
 74
     0
 42
0.0000000001
 43
0.0000000001
 40
0.0
 40
0.0
 40
0.0
 40
0.0
 40
0.2516633133
 40
0.5021410186000002
 40
0.7514528673000001
 40
1.0
 40
1.0
 40
1.0
 40
1.0
 10
56.2245807477
 20
33.7329337856
 30
0.0
 10
56.21869451200002
 20
33.75566705670002
 30
0.0
 10
56.1994353616
 20
33.7994517459
 30
0.0
 10
56.1512253077
 20
33.85204417439999
 30
0.0
 10
56.08886773870001
 20
33.88614641549998
 30
0.0
 10
56.04204629209999
 20
33.89400963689999
 30
0.0
 10
56.01885410659997
 20
33.89400963689999
 30
0.0
  0
SPLINE
  5
5B185
330
1F
100
AcDbEntity
  8
1
100
AcDbSpline
210
0.0
220
0.0
230
1.0
 70
     8
 71
     3
 72
    15
 73
    11
 74
     0
 42
0.0000000001
 43
0.0000000001
 40
0.0
 40
0.0
 40
0.0
 40
0.0
 40
0.1259409039
 40
0.2517305122
 40
0.3772639386
 40
0.5024521479999999
 40
0.6272671653000002
 40
0.7517363108000003
 40
0.8759400846
 40
1.0
 40
1.0
 40
1.0
 40
1.0
 10
53.90437150330001
 20
32.71000963689998
 30
0.0
 10
53.90437150330001
 20
32.85375198199999
 30
0.0
 10
53.93226339789999
 20
33.14183873019999
 30
0.0
 10
54.0562336232
 20
33.55688656269999
 30
0.0
 10
54.2575669421
 20
33.93964660260002
 30
0.0
 10
54.5286176516
 20
34.27520789250001
 30
0.0
 10
54.85899626509999
 20
34.55069832090001
 30
0.0
 10
55.23609242740002
 20
34.75547079840001
 30
0.0
 10
55.64519011869998
 20
34.88160494670001
 30
0.0
 10
55.92935307650001
 20
34.91000963689999
 30
0.0
 10
56.07094855990002
 20
34.91000963689999
 30
0.0
  0
SPLINE
  5
5B186
330
1F
100
AcDbEntity
  8
1
100
AcDbSpline
210
0.0
220
0.0
230
1.0
 70
     8
 71
     3
 72
    15
 73
    11
 74
     0
 42
0.0000000001
 43
0.0000000001
 40
0.0
 40
0.0
 40
0.0
 40
0.0
 40
0.1238765331
 40
0.2480697224
 40
0.3727747122
 40
0.4980241017
 40
0.6236616812
 40
0.7494079554000001
 40
0.8749257026999998
 40
1.0
 40
1.0
 40
1.0
 40
1.0
 10
56.84442206380001
 20
32.01000948820001
 30
0.0
 10
56.8652781941
 20
32.01000495119999
 30
0.0
 10
56.90731041400002
 20
32.0163464039
 30
0.0
 10
56.96464616809999
 20
32.04399956340001
 30
0.0
 10
57.01159497509999
 20
32.08738493099999
 30
0.0
 10
57.0440525706
 20
32.1427102998
 30
0.0
 10
57.05927923159999
 20
32.2051920273
 30
0.0
 10
57.05595855000002
 20
32.2694689139
 30
0.0
 10
57.03443707799999
 20
32.32997942599999
 30
0.0
 10
57.00898326180001
 20
32.36452647130001
 30
0.0
 10
56.99413724420003
 20
32.37946053439998
 30
0.0
  0
SPLINE
  5
5B187
330
1F
100
AcDbEntity
  8
1
100
AcDbSpline
210
0.0
220
0.0
230
1.0
 70
     8
 71
     3
 72
    11
 73
     7
 74
     0
 42
0.0000000001
 43
0.0000000001
 40
0.0
 40
0.0
 40
0.0
 40
0.0
 40
0.2485368088
 40
0.4978482522000001
 40
0.7483410102
 40
1.0
 40
1.0
 40
1.0
 40
1.0
 10
56.66782041499999
 20
32.03406043059999
 30
0.0
 10
56.61785717240002
 20
32.03406922500001
 30
0.0
 10
56.51698662610002
 20
32.01713995879999
 30
0.0
 10
56.3826217573
 20
31.9437035542
 30
0.0
 10
56.278761403
 20
31.83038887929999
 30
0.0
 10
56.23726185490003
 20
31.73606127879998
 30
0.0
 10
56.2245807477
 20
31.6870854881
 30
0.0
  0
SPLINE
  5
5B188
330
1F
100
AcDbEntity
  8
1
100
AcDbSpline
210
0.0
220
0.0
230
1.0
 70
     8
 71
     3
 72
    11
 73
     7
 74
     0
 42
0.0000000001
 43
0.0000000001
 40
0.0
 40
0.0
 40
0.0
 40
0.0
 40
0.2485471327
 40
0.4978589814000002
 40
0.7483366867
 40
1.0
 40
1.0
 40
1.0
 40
1.0
 10
56.01885410659997
 20
31.52600963689997
 30
0.0
 10
56.04204629209999
 20
31.52600963689997
 30
0.0
 10
56.08886773870001
 20
31.5338728582
 30
0.0
 10
56.1512253077
 20
31.56797509929999
 30
0.0
 10
56.1994353616
 20
31.62056752779998
 30
0.0
 10
56.21869451200002
 20
31.66435221699999
 30
0.0
 10
56.2245807477
 20
31.6870854881
 30
0.0
  0
SPLINE
  5
5B189
330
1F
100
AcDbEntity
  8
1
100
AcDbSpline
210
0.0
220
0.0
230
1.0
 70
     8
 71
     3
 72
    27
 73
    23
 74
     0
 42
0.0000000001
 43
0.0000000001
 40
0.0
 40
0.0
 40
0.0
 40
0.0
 40
0.0629516258
 40
0.09443999
 40
0.1259014154
 40
0.1886495372
 40
0.251224821
 40
0.2824800863
 40
0.3136893409
 40
0.3759053075
 40
0.4379886137
 40
0.5
 40
0.5620113863000002
 40
0.6240946925000001
 40
0.6863106591000001
 40
0.7175199137
 40
0.748775179
 40
0.8113504627999999
 40
0.8740985845999999
 40
0.9055600099999999
 40
0.9370483741999999
 40
1.0
 40
1.0
 40
1.0
 40
1.0
 10
54.14771937590001
 20
32.71000963689998
 30
0.0
 10
54.14771937590001
 20
32.83415075439999
 30
0.0
 10
54.16583835149999
 20
33.02104056670001
 30
0.0
 10
54.2253952273
 20
33.26235720710001
 30
0.0
 10
54.3078674411
 20
33.49648730099999
 30
0.0
 10
54.4527306848
 20
33.77197237690001
 30
0.0
 10
54.64811417479999
 20
34.01378356679999
 30
0.0
 10
54.82981319680004
 20
34.18099560280001
 30
0.0
 10
55.02646055459999
 20
34.32915166260001
 30
0.0
 10
55.29784924890001
 20
34.47657511610001
 30
0.0
 10
55.65123886890001
 20
34.58546924049999
 30
0.0
 10
56.01885410659997
 20
34.6222671405
 30
0.0
 10
56.38646934439996
 20
34.58546924049999
 30
0.0
 10
56.73985896439996
 20
34.47657511610001
 30
0.0
 10
57.0112476587
 20
34.32915166260001
 30
0.0
 10
57.2078950165
 20
34.18099560280001
 30
0.0
 10
57.38959403849998
 20
34.01378356679999
 30
0.0
 10
57.58497752849999
 20
33.77197237690001
 30
0.0
 10
57.72984077220002
 20
33.49648730099999
 30
0.0
 10
57.81231298599999
 20
33.26235720710001
 30
0.0
 10
57.8718698618
 20
33.02104056670001
 30
0.0
 10
57.88998883739998
 20
32.83415075439999
 30
0.0
 10
57.88998883739998
 20
32.71000963689998
 30
0.0
  0
SPLINE
  5
5B18A
330
1F
100
AcDbEntity
  8
1
100
AcDbSpline
210
0.0
220
0.0
230
1.0
 70
     8
 71
     3
 72
    27
 73
    23
 74
     0
 42
0.0000000001
 43
0.0000000001
 40
0.0
 40
0.0
 40
0.0
 40
0.0
 40
0.0629516258
 40
0.09443999
 40
0.1259014154
 40
0.1886495372
 40
0.251224821
 40
0.2824800863
 40
0.3136893409
 40
0.3759053075
 40
0.4379886137
 40
0.5
 40
0.5620113863000002
 40
0.6240946925000001
 40
0.6863106591000001
 40
0.7175199137
 40
0.748775179
 40
0.8113504627999999
 40
0.8740985845999999
 40
0.9055600099999999
 40
0.9370483741999999
 40
1.0
 40
1.0
 40
1.0
 40
1.0
 10
54.14771937590001
 20
32.71000963689998
 30
0.0
 10
54.14771937590001
 20
32.5858685193
 30
0.0
 10
54.16583835149999
 20
32.398978707
 30
0.0
 10
54.2253952273
 20
32.1576620666
 30
0.0
 10
54.3078674411
 20
31.92353197269999
 30
0.0
 10
54.4527306848
 20
31.64804689679999
 30
0.0
 10
54.64811417479999
 20
31.40623570689999
 30
0.0
 10
54.82981319680004
 20
31.23902367090001
 30
0.0
 10
55.02646055459999
 20
31.09086761109998
 30
0.0
 10
55.29784924890001
 20
30.9434441576
 30
0.0
 10
55.65123886890001
 20
30.8345500332
 30
0.0
 10
56.01885410659997
 20
30.7977521332
 30
0.0
 10
56.38646934439996
 20
30.8345500332
 30
0.0
 10
56.73985896439996
 20
30.9434441576
 30
0.0
 10
57.0112476587
 20
31.09086761109998
 30
0.0
 10
57.2078950165
 20
31.23902367090001
 30
0.0
 10
57.38959403849998
 20
31.40623570689999
 30
0.0
 10
57.58497752849999
 20
31.64804689679999
 30
0.0
 10
57.72984077220002
 20
31.92353197269999
 30
0.0
 10
57.81231298599999
 20
32.1576620666
 30
0.0
 10
57.8718698618
 20
32.398978707
 30
0.0
 10
57.88998883739998
 20
32.5858685193
 30
0.0
 10
57.88998883739998
 20
32.71000963689998
 30
0.0
  0
SPLINE
  5
5B18B
330
1F
100
AcDbEntity
  8
1
100
AcDbSpline
210
0.0
220
0.0
230
1.0
 70
     8
 71
     3
 72
    11
 73
     7
 74
     0
 42
0.0000000001
 43
0.0000000001
 40
0.0
 40
0.0
 40
0.0
 40
0.0
 40
0.2516589898
 40
0.5021517478000001
 40
0.7514631912000001
 40
1.0
 40
1.0
 40
1.0
 40
1.0
 10
55.81312746560001
 20
31.6870854881
 30
0.0
 10
55.8004463584
 20
31.73606127879998
 30
0.0
 10
55.75894681029999
 20
31.83038887929999
 30
0.0
 10
55.65508645599999
 20
31.9437035542
 30
0.0
 10
55.5207215872
 20
32.01713995879999
 30
0.0
 10
55.4198510409
 20
32.03406922500001
 30
0.0
 10
55.36988779830003
 20
32.03406043059999
 30
0.0
  0
SPLINE
  5
5B18C
330
1F
100
AcDbEntity
  8
1
100
AcDbSpline
210
0.0
220
0.0
230
1.0
 70
     8
 71
     3
 72
    11
 73
     7
 74
     0
 42
0.0000000001
 43
0.0000000001
 40
0.0
 40
0.0
 40
0.0
 40
0.0
 40
0.2516633133
 40
0.5021410186000002
 40
0.7514528673000001
 40
1.0
 40
1.0
 40
1.0
 40
1.0
 10
55.81312746560001
 20
31.6870854881
 30
0.0
 10
55.81901370130001
 20
31.66435221699999
 30
0.0
 10
55.83827285170002
 20
31.62056752779998
 30
0.0
 10
55.88648290550001
 20
31.56797509929999
 30
0.0
 10
55.94884047459999
 20
31.5338728582
 30
0.0
 10
55.9956619212
 20
31.52600963689997
 30
0.0
 10
56.01885410659997
 20
31.52600963689997
 30
0.0
  0
SPLINE
  5
5B18D
330
1F
100
AcDbEntity
  8
1
100
AcDbSpline
210
0.0
220
0.0
230
1.0
 70
     8
 71
     3
 72
    13
 73
     9
 74
     0
 42
0.0000000001
 43
0.0000000001
 40
0.0
 40
0.0
 40
0.0
 40
0.0
 40
0.1248583695
 40
0.2500920269
 40
0.5
 40
0.7499079731000001
 40
0.8751416304999999
 40
1.0
 40
1.0
 40
1.0
 40
1.0
 10
55.04357096909998
 20
32.37946053439998
 30
0.0
 10
55.06499945179999
 20
32.4010161005
 30
0.0
 10
55.1037447406
 20
32.4486015488
 30
0.0
 10
55.16106978679999
 20
32.55667655010002
 30
0.0
 10
55.19144991849998
 20
32.71000963689998
 30
0.0
 10
55.16106978679999
 20
32.86334272359999
 30
0.0
 10
55.1037447406
 20
32.97141772489999
 30
0.0
 10
55.06499945179999
 20
33.01900317320002
 30
0.0
 10
55.04357096909998
 20
33.04055873929998
 30
0.0
  0
SPLINE
  5
5B18E
330
1F
100
AcDbEntity
  8
1
100
AcDbSpline
210
0.0
220
0.0
230
1.0
 70
     8
 71
     3
 72
    15
 73
    11
 74
     0
 42
0.0000000001
 43
0.0000000001
 40
0.0
 40
0.0
 40
0.0
 40
0.0
 40
0.1240599154
 40
0.2482636892
 40
0.3727328347
 40
0.4975478520000002
 40
0.6227360614000002
 40
0.7482694878000001
 40
0.8740590961
 40
1.0
 40
1.0
 40
1.0
 40
1.0
 10
56.07094855990002
 20
30.51000963689998
 30
0.0
 10
56.21254404340001
 20
30.51000963689998
 30
0.0
 10
56.49670700119997
 20
30.53841432699999
 30
0.0
 10
56.9058046925
 20
30.6645484753
 30
0.0
 10
57.28290085480001
 20
30.8693209528
 30
0.0
 10
57.61327946830002
 20
31.14481138119999
 30
0.0
 10
57.8843301778
 20
31.48037267109998
 30
0.0
 10
58.08566349670002
 20
31.86313271109998
 30
0.0
 10
58.20963372200001
 20
32.27818054349999
 30
0.0
 10
58.2375256166
 20
32.5662672917
 30
0.0
 10
58.2375256166
 20
32.71000963689997
 30
0.0
  0
SPLINE
  5
5B18F
330
1F
100
AcDbEntity
  8
1
100
AcDbSpline
210
0.0
220
0.0
230
1.0
 70
     8
 71
     3
 72
    15
 73
    11
 74
     0
 42
0.0000000001
 43
0.0000000001
 40
0.0
 40
0.0
 40
0.0
 40
0.0
 40
0.1250742973
 40
0.2505920446
 40
0.3763383188
 40
0.5019758983
 40
0.6272252878
 40
0.7519302776000001
 40
0.8761234669
 40
1.0
 40
1.0
 40
1.0
 40
1.0
 10
55.04357096909998
 20
32.37946053439998
 30
0.0
 10
55.0287249515
 20
32.36452647130001
 30
0.0
 10
55.0032711353
 20
32.32997942599999
 30
0.0
 10
54.98174966330001
 20
32.2694689139
 30
0.0
 10
54.9784289817
 20
32.2051920273
 30
0.0
 10
54.99365564259995
 20
32.1427102998
 30
0.0
 10
55.0261132382
 20
32.08738493099999
 30
0.0
 10
55.0730620452
 20
32.04399956340001
 30
0.0
 10
55.13039779920001
 20
32.0163464039
 30
0.0
 10
55.17243001920002
 20
32.01000495119999
 30
0.0
 10
55.19328614950001
 20
32.01000948820001
 30
0.0
  0
SPLINE
  5
5B190
330
1F
100
AcDbEntity
  8
1
100
AcDbSpline
210
0.0
220
0.0
230
1.0
 70
     8
 71
     3
 72
    15
 73
    11
 74
     0
 42
0.0000000001
 43
0.0000000001
 40
0.0
 40
0.0
 40
0.0
 40
0.0
 40
0.1240599154
 40
0.2482636892
 40
0.3727328347
 40
0.4975478520000002
 40
0.6227360614000002
 40
0.7482694878000001
 40
0.8740590961
 40
1.0
 40
1.0
 40
1.0
 40
1.0
 10
56.07094855990002
 20
34.91000963689999
 30
0.0
 10
56.21254404340001
 20
34.91000963689999
 30
0.0
 10
56.49670700119997
 20
34.88160494670001
 30
0.0
 10
56.9058046925
 20
34.75547079840001
 30
0.0
 10
57.28290085480001
 20
34.55069832090001
 30
0.0
 10
57.61327946830002
 20
34.27520789250001
 30
0.0
 10
57.8843301778
 20
33.93964660260002
 30
0.0
 10
58.08566349670002
 20
33.55688656269999
 30
0.0
 10
58.20963372200001
 20
33.14183873019999
 30
0.0
 10
58.2375256166
 20
32.85375198199998
 30
0.0
 10
58.2375256166
 20
32.71000963689997
 30
0.0
  0
SPLINE
  5
5B191
330
1F
100
AcDbEntity
  8
1
100
AcDbSpline
210
0.0
220
0.0
230
1.0
 70
     8
 71
     3
 72
    15
 73
    11
 74
     0
 42
0.0000000001
 43
0.0000000001
 40
0.0
 40
0.0
 40
0.0
 40
0.0
 40
0.1238765331
 40
0.2480697224
 40
0.3727747122
 40
0.4980241017
 40
0.6236616812
 40
0.7494079554000001
 40
0.8749257026999998
 40
1.0
 40
1.0
 40
1.0
 40
1.0
 10
55.19328614950001
 20
33.41000978549999
 30
0.0
 10
55.17243001920002
 20
33.41001432250002
 30
0.0
 10
55.13039779920001
 20
33.40367286980001
 30
0.0
 10
55.0730620452
 20
33.37601971029999
 30
0.0
 10
55.0261132382
 20
33.33263434269999
 30
0.0
 10
54.99365564259995
 20
33.27730897389999
 30
0.0
 10
54.9784289817
 20
33.21482724639999
 30
0.0
 10
54.98174966330001
 20
33.15055035979999
 30
0.0
 10
55.0032711353
 20
33.09003984769999
 30
0.0
 10
55.0287249515
 20
33.0554928024
 30
0.0
 10
55.04357096909998
 20
33.04055873929998
 30
0.0
  0
SPLINE
  5
5B192
330
1F
100
AcDbEntity
  8
1
100
AcDbSpline
210
0.0
220
0.0
230
1.0
 70
     8
 71
     3
 72
    11
 73
     7
 74
     0
 42
0.0000000001
 43
0.0000000001
 40
0.0
 40
0.0
 40
0.0
 40
0.0
 40
0.2485368088
 40
0.4978482522000001
 40
0.7483410102
 40
1.0
 40
1.0
 40
1.0
 40
1.0
 10
55.36988779830003
 20
33.3859588431
 30
0.0
 10
55.4198510409
 20
33.3859500487
 30
0.0
 10
55.5207215872
 20
33.40287931490002
 30
0.0
 10
55.65508645599999
 20
33.47631571950001
 30
0.0
 10
55.75894681029999
 20
33.58963039439999
 30
0.0
 10
55.8004463584
 20
33.6839579949
 30
0.0
 10
55.81312746560001
 20
33.7329337856
 30
0.0
  0
SPLINE
  5
5B193
330
1F
100
AcDbEntity
  8
1
100
AcDbSpline
210
0.0
220
0.0
230
1.0
 70
     8
 71
     3
 72
    11
 73
     7
 74
     0
 42
0.0000000001
 43
0.0000000001
 40
0.0
 40
0.0
 40
0.0
 40
0.0
 40
0.2485471327
 40
0.4978589814000002
 40
0.7483366867
 40
1.0
 40
1.0
 40
1.0
 40
1.0
 10
56.01885410659997
 20
33.89400963689999
 30
0.0
 10
55.9956619212
 20
33.89400963689999
 30
0.0
 10
55.94884047459999
 20
33.88614641549998
 30
0.0
 10
55.88648290550001
 20
33.85204417439999
 30
0.0
 10
55.83827285170002
 20
33.7994517459
 30
0.0
 10
55.81901370130001
 20
33.75566705670002
 30
0.0
 10
55.81312746560001
 20
33.7329337856
 30
0.0
  0
SPLINE
  5
5B194
330
1F
100
AcDbEntity
  8
1
100
AcDbSpline
210
0.0
220
0.0
230
1.0
 70
     8
 71
     3
 72
     9
 73
     5
 74
     0
 42
0.0000000001
 43
0.0000000001
 40
0.0
 40
0.0
 40
0.0
 40
0.0
 40
0.2933869591
 40
1.0
 40
1.0
 40
1.0
 40
1.0
 10
63.09964982130001
 20
-12.6990799303
 30
0.0
 10
63.08372990990003
 20
-12.69008768040001
 30
0.0
 10
63.02869061729999
 20
-12.66082307979999
 30
0.0
 10
62.9706285995
 20
-12.6373212255
 30
0.0
 10
62.92866230749999
 20
-12.6239782849
 30
0.0
  0
SPLINE
  5
5B195
330
1F
100
AcDbEntity
  8
1
100
AcDbSpline
210
0.0
220
0.0
230
1.0
 70
     8
 71
     3
 72
    10
 73
     6
 74
     0
 42
0.0000000001
 43
0.0000000001
 40
0.0
 40
0.0
 40
0.0
 40
0.0
 40
0.2376655069
 40
0.4773686687
 40
1.0
 40
1.0
 40
1.0
 40
1.0
 10
63.49999885569999
 20
-13.0494824993
 30
0.0
 10
63.49999883170003
 20
-13.0333536066
 30
0.0
 10
63.49605146729999
 20
-13.00079047710001
 30
0.0
 10
63.47107424
 20
-12.937041729
 30
0.0
 10
63.43483596709996
 20
-12.897364764
 30
0.0
 10
63.40711280209998
 20
-12.87524263540001
 30
0.0
  0
SPLINE
  5
5B196
330
1F
100
AcDbEntity
  8
1
100
AcDbSpline
210
0.0
220
0.0
230
1.0
 70
     8
 71
     3
 72
     9
 73
     5
 74
     0
 42
0.0000000001
 43
0.0000000001
 40
0.0
 40
0.0
 40
0.0
 40
0.0
 40
0.2459206516
 40
1.0
 40
1.0
 40
1.0
 40
1.0
 10
63.49999956019999
 20
-13.9080072183
 30
0.0
 10
63.4999995595
 20
-13.90981439500001
 30
0.0
 10
63.499801381
 20
-13.9171622953
 30
0.0
 10
63.4988174559
 20
-13.92448396030001
 30
0.0
 10
63.49769152409999
 20
-13.9299098094
 30
0.0
  0
SPLINE
  5
5B197
330
1F
100
AcDbEntity
  8
1
100
AcDbSpline
210
0.0
220
0.0
230
1.0
 70
     8
 71
     3
 72
    11
 73
     7
 74
     0
 42
0.0000000001
 43
0.0000000001
 40
0.0
 40
0.0
 40
0.0
 40
0.0
 40
0.2755855346
 40
0.5277333148
 40
0.7653314538
 40
1.0
 40
1.0
 40
1.0
 40
1.0
 10
62.4704859686
 20
-17.6474274575
 30
0.0
 10
62.48683378570001
 20
-17.65930711530002
 30
0.0
 10
62.51638398939999
 20
-17.684711072
 30
0.0
 10
62.5506151157
 20
-17.72980206940001
 30
0.0
 10
62.57153412529999
 20
-17.7792744507
 30
0.0
 10
62.57603734549999
 20
-17.81410142059998
 30
0.0
 10
62.57603734549999
 20
-17.8313093775
 30
0.0
  0
SPLINE
  5
5B198
330
1F
100
AcDbEntity
  8
1
100
AcDbSpline
210
0.0
220
0.0
230
1.0
 70
     8
 71
     3
 72
    15
 73
    11
 74
     0
 42
0.0000000001
 43
0.0000000001
 40
0.0
 40
0.0
 40
0.0
 40
0.0
 40
0.12605686
 40
0.2519680995
 40
0.3776186528
 40
0.5029160917000001
 40
0.6278015214
 40
0.7522554676000001
 40
0.8763001429
 40
1.0
 40
1.0
 40
1.0
 40
1.0
 10
51.2487827177
 20
32.98538677789999
 30
0.0
 10
51.2465558927
 20
32.85584401369999
 30
0.0
 10
51.22211910519999
 20
32.5968089491
 30
0.0
 10
51.12642264509998
 20
32.2191587081
 30
0.0
 10
50.97407799249999
 20
31.86133574779999
 30
0.0
 10
50.76887772750001
 20
31.53223038330001
 30
0.0
 10
50.51592117070001
 20
31.23985041859999
 30
0.0
 10
50.221425555
 20
30.99129903209999
 30
0.0
 10
49.89274858330003
 20
30.79261771560002
 30
0.0
 10
49.6556350818
 20
30.69639397729999
 30
0.0
 10
49.53440760909998
 20
30.6580753482
 30
0.0
  0
SPLINE
  5
5B199
330
1F
100
AcDbEntity
  8
1
100
AcDbSpline
210
0.0
220
0.0
230
1.0
 70
     8
 71
     3
 72
    15
 73
    11
 74
     0
 42
0.0000000001
 43
0.0000000001
 40
0.0
 40
0.0
 40
0.0
 40
0.0
 40
0.1236745748
 40
0.2477063826
 40
0.3721608072
 40
0.4970584386
 40
0.6223745347000002
 40
0.7480421420000001
 40
0.8739592626
 40
1.0
 40
1.0
 40
1.0
 40
1.0
 10
49.53440760920003
 20
35.3996070703
 30
0.0
 10
49.65901616389999
 20
35.3602197196
 30
0.0
 10
49.90260325119999
 20
35.2607397262
 30
0.0
 10
50.23919732170003
 20
35.05421778929997
 30
0.0
 10
50.53921779160001
 20
34.7953176474
 30
0.0
 10
50.79474240229996
 20
34.4906926704
 30
0.0
 10
50.9991364766
 20
34.14816654570001
 30
0.0
 10
51.1470306921
 20
33.77654868639999
 30
0.0
 10
51.23453847429999
 20
33.38559714929997
 30
0.0
 10
51.25107182479999
 20
33.1185527275
 30
0.0
 10
51.2487827177
 20
32.98538677789999
 30
0.0
  0
SPLINE
  5
5B19A
330
1F
100
AcDbEntity
  8
1
100
AcDbSpline
210
0.0
220
0.0
230
1.0
 70
     8
 71
     3
 72
    15
 73
    11
 74
     0
 42
0.0000000001
 43
0.0000000001
 40
0.0
 40
0.0
 40
0.0
 40
0.0
 40
0.12605686
 40
0.2519680995
 40
0.3776186528
 40
0.5029160917000001
 40
0.6278015214
 40
0.7522554676000001
 40
0.8763001429
 40
1.0
 40
1.0
 40
1.0
 40
1.0
 10
58.63371593290001
 20
32.85449372969998
 30
0.0
 10
58.63148910790002
 20
32.72495096539998
 30
0.0
 10
58.60705232039999
 20
32.4659159009
 30
0.0
 10
58.5113558603
 20
32.08826565979999
 30
0.0
 10
58.3590112077
 20
31.73044269949999
 30
0.0
 10
58.15381094260001
 20
31.40133733500001
 30
0.0
 10
57.90085438580002
 20
31.10895737039999
 30
0.0
 10
57.60635877009997
 20
30.86040598389999
 30
0.0
 10
57.27768179849999
 20
30.66172466729998
 30
0.0
 10
57.04056829700002
 20
30.565500929
 30
0.0
 10
56.91934082430001
 20
30.52718230000001
 30
0.0
  0
SPLINE
  5
5B19B
330
1F
100
AcDbEntity
  8
1
100
AcDbSpline
210
0.0
220
0.0
230
1.0
 70
     8
 71
     3
 72
    15
 73
    11
 74
     0
 42
0.0000000001
 43
0.0000000001
 40
0.0
 40
0.0
 40
0.0
 40
0.0
 40
0.1236745748
 40
0.2477063826
 40
0.3721608072
 40
0.4970584386
 40
0.6223745347000002
 40
0.7480421420000001
 40
0.8739592626
 40
1.0
 40
1.0
 40
1.0
 40
1.0
 10
56.91934082430001
 20
35.268714022
 30
0.0
 10
57.04394937910001
 20
35.2293266713
 30
0.0
 10
57.28753646639995
 20
35.12984667789999
 30
0.0
 10
57.62413053680001
 20
34.92332474099999
 30
0.0
 10
57.9241510068
 20
34.6644245991
 30
0.0
 10
58.17967561740005
 20
34.35979962209998
 30
0.0
 10
58.38406969170001
 20
34.01727349749999
 30
0.0
 10
58.53196390729999
 20
33.6456556381
 30
0.0
 10
58.61947168950002
 20
33.25470410099999
 30
0.0
 10
58.63600503999998
 20
32.9876596792
 30
0.0
 10
58.63371593290001
 20
32.85449372969998
 30
0.0
  0
LINE
  5
5B19C
330
1F
100
AcDbEntity
  8
1
100
AcDbLine
 10
63.11765242250584
 20
37.71330696131496
 30
0.0
 11
62.68203173310002
 21
37.73255011009999
 31
0.0
  0
ARC
  5
5B19D
102
{ACAD_REACTORS
330
5B247
102
}
330
1F
100
AcDbEntity
  8
1
100
AcDbCircle
 10
63.09999999999999
 20
37.31369666117283
 30
0.0
 40
0.4
100
AcDbArc
 50
0.0
 51
87.47065527281902
  0
LINE
  5
5B19E
330
1F
100
AcDbEntity
  8
1
100
AcDbLine
 10
61.83347568159999
 20
37.7687776823
 30
0.0
 11
62.68203173310002
 21
37.73255011009999
 31
0.0
  0
LINE
  5
5B19F
330
1F
100
AcDbEntity
  8
1
100
AcDbLine
 10
61.01010282380002
 20
37.80261385059998
 30
0.0
 11
61.83347568159999
 21
37.7687776823
 31
0.0
  0
LINE
  5
5B1A0
330
1F
100
AcDbEntity
  8
1
100
AcDbLine
 10
60.21007653790002
 20
37.8341547798
 30
0.0
 11
61.01010282380002
 21
37.80261385059998
 31
0.0
  0
LINE
  5
5B1A1
330
1F
100
AcDbEntity
  8
1
100
AcDbLine
 10
59.43174479160001
 20
37.8634878712
 30
0.0
 11
60.21007653790002
 21
37.8341547798
 31
0.0
  0
LINE
  5
5B1A2
330
1F
100
AcDbEntity
  8
1
100
AcDbLine
 10
58.6735864789
 20
37.89069451199998
 30
0.0
 11
59.43174479160001
 21
37.8634878712
 31
0.0
  0
LINE
  5
5B1A3
330
1F
100
AcDbEntity
  8
1
100
AcDbLine
 10
57.93420191130002
 20
37.91585057799999
 30
0.0
 11
58.6735864789
 21
37.89069451199998
 31
0.0
  0
LINE
  5
5B1A4
330
1F
100
AcDbEntity
  8
1
100
AcDbLine
 10
57.21250090109998
 20
37.93901691359997
 30
0.0
 11
57.93420191130002
 21
37.91585057799999
 31
0.0
  0
LINE
  5
5B1A5
330
1F
100
AcDbEntity
  8
1
100
AcDbLine
 10
56.50748826420002
 20
37.96025023920001
 30
0.0
 11
57.21250090109998
 21
37.93901691359997
 31
0.0
  0
LINE
  5
5B1A6
330
1F
100
AcDbEntity
  8
1
100
AcDbLine
 10
55.81831848569999
 20
37.97960039859999
 30
0.0
 11
56.50748826420002
 21
37.96025023920001
 31
0.0
  0
LINE
  5
5B1A7
330
1F
100
AcDbEntity
  8
1
100
AcDbLine
 10
55.144215508
 20
37.99711444550002
 30
0.0
 11
55.81831848569999
 21
37.97960039859999
 31
0.0
  0
LINE
  5
5B1A8
330
1F
100
AcDbEntity
  8
1
100
AcDbLine
 10
54.48446535619999
 20
38.01283703109999
 30
0.0
 11
55.144215508
 21
37.99711444550002
 31
0.0
  0
LINE
  5
5B1A9
330
1F
100
AcDbEntity
  8
1
100
AcDbLine
 10
53.83844199360004
 20
38.02680911099999
 30
0.0
 11
54.48446535619999
 21
38.01283703109999
 31
0.0
  0
LINE
  5
5B1AA
330
1F
100
AcDbEntity
  8
1
100
AcDbLine
 10
53.20562136490003
 20
38.03906725440001
 30
0.0
 11
53.83844199360004
 21
38.02680911099999
 31
0.0
  0
LINE
  5
5B1AB
330
1F
100
AcDbEntity
  8
1
100
AcDbLine
 10
52.58551557589999
 20
38.0496469913
 30
0.0
 11
53.20562136490003
 21
38.03906725440001
 31
0.0
  0
LINE
  5
5B1AC
330
1F
100
AcDbEntity
  8
1
100
AcDbLine
 10
51.97766779840003
 20
38.0585830804
 30
0.0
 11
52.58551557589999
 21
38.0496469913
 31
0.0
  0
LINE
  5
5B1AD
330
1F
100
AcDbEntity
  8
1
100
AcDbLine
 10
51.38166771150003
 20
38.0659087424
 30
0.0
 11
51.97766779840003
 21
38.0585830804
 31
0.0
  0
LINE
  5
5B1AE
330
1F
100
AcDbEntity
  8
1
100
AcDbLine
 10
50.79715151709999
 20
38.0716556734
 30
0.0
 11
51.38166771150003
 21
38.0659087424
 31
0.0
  0
LINE
  5
5B1AF
330
1F
100
AcDbEntity
  8
1
100
AcDbLine
 10
50.22377519739999
 20
38.075855405
 30
0.0
 11
50.79715151709999
 21
38.0716556734
 31
0.0
  0
LINE
  5
5B1B0
330
1F
100
AcDbEntity
  8
1
100
AcDbLine
 10
49.66122742580001
 20
38.07853866420001
 30
0.0
 11
50.22377519739999
 21
38.075855405
 31
0.0
  0
LINE
  5
5B1B1
330
1F
100
AcDbEntity
  8
1
100
AcDbLine
 10
49.10920931070001
 20
38.0797364014
 30
0.0
 11
49.66122742580001
 21
38.07853866420001
 31
0.0
  0
LINE
  5
5B1B2
330
1F
100
AcDbEntity
  8
1
100
AcDbLine
 10
48.56744429689999
 20
38.0794792999
 30
0.0
 11
49.10920931070001
 21
38.0797364014
 31
0.0
  0
LINE
  5
5B1B3
330
1F
100
AcDbEntity
  8
1
100
AcDbLine
 10
48.0752898563
 20
38.0779320838
 30
0.0
 11
48.56744429689999
 21
38.0794792999
 31
0.0
  0
LINE
  5
5B1B4
330
1F
100
AcDbEntity
  8
1
100
AcDbLine
 10
48.03568042730001
 20
38.07779767279999
 30
0.0
 11
48.0752898563
 21
38.0779320838
 31
0.0
  0
LINE
  5
5B1B5
330
1F
100
AcDbEntity
  8
1
100
AcDbLine
 10
47.5136734852
 20
38.074722313
 30
0.0
 11
48.03568042730001
 21
38.07779767279999
 31
0.0
  0
LINE
  5
5B1B6
330
1F
100
AcDbEntity
  8
1
100
AcDbLine
 10
47.00117821550001
 20
38.07028493269999
 30
0.0
 11
47.5136734852
 21
38.074722313
 31
0.0
  0
LINE
  5
5B1B7
330
1F
100
AcDbEntity
  8
1
100
AcDbLine
 10
46.75235585929999
 20
38.067465199
 30
0.0
 11
47.00117821550001
 21
38.07028493269999
 31
0.0
  0
LINE
  5
5B1B8
330
1F
100
AcDbEntity
  8
1
100
AcDbLine
 10
46.71278220459998
 20
38.06960384209999
 30
0.0
 11
46.75235585929999
 21
38.067465199
 31
0.0
  0
LINE
  5
5B1B9
330
1F
100
AcDbEntity
  8
1
100
AcDbLine
 10
41.2425267637
 20
28.2130026073
 30
0.0
 11
41.67397429009997
 21
28.19423926019999
 31
0.0
  0
LINE
  5
5B1BA
330
1F
100
AcDbEntity
  8
1
100
AcDbLine
 10
42.53702181209999
 20
28.15801168799999
 30
0.0
 11
41.67397429009997
 21
28.19423926019999
 31
0.0
  0
LINE
  5
5B1BB
330
1F
100
AcDbEntity
  8
1
100
AcDbLine
 10
43.37581134639996
 20
28.12417551969999
 30
0.0
 11
42.53702181209999
 21
28.15801168799999
 31
0.0
  0
LINE
  5
5B1BC
330
1F
100
AcDbEntity
  8
1
100
AcDbLine
 10
44.19210081310001
 20
28.0926345905
 30
0.0
 11
43.37581134639996
 21
28.12417551969999
 31
0.0
  0
LINE
  5
5B1BD
330
1F
100
AcDbEntity
  8
1
100
AcDbLine
 10
44.98747017420001
 20
28.06330149910002
 30
0.0
 11
44.19210081310001
 21
28.0926345905
 31
0.0
  0
LINE
  5
5B1BE
330
1F
100
AcDbEntity
  8
1
100
AcDbLine
 10
45.76337311420002
 20
28.0360948583
 30
0.0
 11
44.98747017420001
 21
28.06330149910002
 31
0.0
  0
LINE
  5
5B1BF
330
1F
100
AcDbEntity
  8
1
100
AcDbLine
 10
46.52114623650001
 20
28.0109387923
 30
0.0
 11
45.76337311420002
 21
28.0360948583
 31
0.0
  0
LINE
  5
5B1C0
330
1F
100
AcDbEntity
  8
1
100
AcDbLine
 10
47.26182810349999
 20
27.9877724567
 30
0.0
 11
46.52114623650001
 21
28.0109387923
 31
0.0
  0
LINE
  5
5B1C1
330
1F
100
AcDbEntity
  8
1
100
AcDbLine
 10
47.98636563709999
 20
27.96653913109998
 30
0.0
 11
47.26182810349999
 21
27.9877724567
 31
0.0
  0
LINE
  5
5B1C2
330
1F
100
AcDbEntity
  8
1
100
AcDbLine
 10
48.69556152689998
 20
27.9471889717
 30
0.0
 11
47.98636563709999
 21
27.96653913109998
 31
0.0
  0
LINE
  5
5B1C3
330
1F
100
AcDbEntity
  8
1
100
AcDbLine
 10
49.39015143470001
 20
27.9296749248
 30
0.0
 11
48.69556152689998
 21
27.9471889717
 31
0.0
  0
LINE
  5
5B1C4
330
1F
100
AcDbEntity
  8
1
100
AcDbLine
 10
50.07081111069999
 20
27.91395233920001
 30
0.0
 11
49.39015143470001
 21
27.9296749248
 31
0.0
  0
LINE
  5
5B1C5
330
1F
100
AcDbEntity
  8
1
100
AcDbLine
 10
50.7381315181
 20
27.89998025929998
 30
0.0
 11
50.07081111069999
 21
27.91395233920001
 31
0.0
  0
LINE
  5
5B1C6
330
1F
100
AcDbEntity
  8
1
100
AcDbLine
 10
51.39260531049996
 20
27.8877221159
 30
0.0
 11
50.7381315181
 21
27.89998025929998
 31
0.0
  0
LINE
  5
5B1C7
330
1F
100
AcDbEntity
  8
1
100
AcDbLine
 10
52.0346901993
 20
27.87714237899999
 30
0.0
 11
51.39260531049996
 21
27.8877221159
 31
0.0
  0
LINE
  5
5B1C8
330
1F
100
AcDbEntity
  8
1
100
AcDbLine
 10
52.66481387249999
 20
27.8682062899
 30
0.0
 11
52.0346901993
 21
27.87714237899999
 31
0.0
  0
LINE
  5
5B1C9
330
1F
100
AcDbEntity
  8
1
100
AcDbLine
 10
53.28335913620001
 20
27.86088062789999
 30
0.0
 11
52.66481387249999
 21
27.8682062899
 31
0.0
  0
LINE
  5
5B1CA
330
1F
100
AcDbEntity
  8
1
100
AcDbLine
 10
53.8906639015
 20
27.85513369689997
 30
0.0
 11
53.28335913620001
 21
27.86088062789999
 31
0.0
  0
LINE
  5
5B1CB
330
1F
100
AcDbEntity
  8
1
100
AcDbLine
 10
54.48704694679998
 20
27.85093396529999
 30
0.0
 11
53.8906639015
 21
27.85513369689997
 31
0.0
  0
LINE
  5
5B1CC
330
1F
100
AcDbEntity
  8
1
100
AcDbLine
 10
55.07279548959999
 20
27.84825070609997
 30
0.0
 11
54.48704694679998
 21
27.85093396529999
 31
0.0
  0
LINE
  5
5B1CD
330
1F
100
AcDbEntity
  8
1
100
AcDbLine
 10
55.64818470830002
 20
27.84705296889999
 30
0.0
 11
55.07279548959999
 21
27.84825070609997
 31
0.0
  0
LINE
  5
5B1CE
330
1F
100
AcDbEntity
  8
1
100
AcDbLine
 10
56.21346821340001
 20
27.8473100704
 30
0.0
 11
55.64818470830002
 21
27.84705296889999
 31
0.0
  0
LINE
  5
5B1CF
330
1F
100
AcDbEntity
  8
1
100
AcDbLine
 10
56.72749139990003
 20
27.84885728649998
 30
0.0
 11
56.21346821340001
 21
27.8473100704
 31
0.0
  0
LINE
  5
5B1D0
330
1F
100
AcDbEntity
  8
1
100
AcDbLine
 10
56.76887587259995
 20
27.8489916975
 30
0.0
 11
56.72749139990003
 21
27.84885728649998
 31
0.0
  0
LINE
  5
5B1D1
330
1F
100
AcDbEntity
  8
1
100
AcDbLine
 10
57.31463006540002
 20
27.85206705730001
 30
0.0
 11
56.76887587259995
 21
27.8489916975
 31
0.0
  0
LINE
  5
5B1D2
330
1F
100
AcDbEntity
  8
1
100
AcDbLine
 10
57.85095416009998
 20
27.85650443760002
 30
0.0
 11
57.31463006540002
 21
27.85206705730001
 31
0.0
  0
LINE
  5
5B1D3
330
1F
100
AcDbEntity
  8
1
100
AcDbLine
 10
58.1115451007
 20
27.85932417129999
 30
0.0
 11
57.85095416009998
 21
27.85650443760002
 31
0.0
  0
LINE
  5
5B1D4
330
1F
100
AcDbEntity
  8
1
100
AcDbLine
 10
58.14946817970002
 20
27.85718553219999
 30
0.0
 11
58.1115451007
 21
27.85932417129999
 31
0.0
  0
SPLINE
  5
5B1D5
330
1F
100
AcDbEntity
  8
1
100
AcDbSpline
210
0.0
220
0.0
230
1.0
 70
     8
 71
     3
 72
     9
 73
     5
 74
     0
 42
0.0000000001
 43
0.0000000001
 40
0.0
 40
0.0
 40
0.0
 40
0.0
 40
0.4961699619
 40
1.0
 40
1.0
 40
1.0
 40
1.0
 10
59.33466249270001
 20
28.6627429452
 30
0.0
 10
59.2988313246
 20
28.60539802229999
 30
0.0
 10
59.21182295439999
 20
28.49850767039999
 30
0.0
 10
59.1018933428
 20
28.41555127639998
 30
0.0
 10
59.042659369
 20
28.38082495480001
 30
0.0
  0
SPLINE
  5
5B1D6
330
1F
100
AcDbEntity
  8
1
100
AcDbSpline
210
0.0
220
0.0
230
1.0
 70
     8
 71
     3
 72
     9
 73
     5
 74
     0
 42
0.0000000001
 43
0.0000000001
 40
0.0
 40
0.0
 40
0.0
 40
0.0
 40
0.5009053941000003
 40
1.0
 40
1.0
 40
1.0
 40
1.0
 10
45.5133772897
 20
37.26404642510001
 30
0.0
 10
45.55369217789999
 20
37.3211366476
 30
0.0
 10
45.64652535670001
 20
37.426857188
 30
0.0
 10
45.7595165049
 20
37.51074532189999
 30
0.0
 10
45.81959101819998
 20
37.54596441549999
 30
0.0
  0
SPLINE
  5
5B1D7
330
1F
100
AcDbEntity
  8
1
100
AcDbSpline
210
0.0
220
0.0
230
1.0
 70
     8
 71
     3
 72
     9
 73
     5
 74
     0
 42
0.0000000001
 43
0.0000000001
 40
0.0
 40
0.0
 40
0.0
 40
0.0
 40
0.4990030289
 40
1.0
 40
1.0
 40
1.0
 40
1.0
 10
40.97398061989998
 20
28.32153503099997
 30
0.0
 10
40.94249834259994
 20
28.3514656449
 30
0.0
 10
40.88900095459999
 20
28.4223922506
 30
0.0
 10
40.86129483209996
 20
28.5067444871
 30
0.0
 10
40.85445330929997
 20
28.54981744
 30
0.0
  0
SPLINE
  5
5B1D8
330
1F
100
AcDbEntity
  8
1
100
AcDbSpline
210
0.0
220
0.0
230
1.0
 70
     8
 71
     3
 72
     9
 73
     5
 74
     0
 42
0.0000000001
 43
0.0000000001
 40
0.0
 40
0.0
 40
0.0
 40
0.0
 40
0.5009572921000001
 40
1.0
 40
1.0
 40
1.0
 40
1.0
 10
40.97398062029998
 20
28.32153503150001
 30
0.0
 10
41.0076315634
 20
28.28954263849998
 30
0.0
 10
41.08672165580003
 20
28.23707613269997
 30
0.0
 10
41.179301501
 20
28.2159355604
 30
0.0
 10
41.22550661119999
 20
28.2138049716
 30
0.0
  0
SPLINE
  5
5B1D9
330
1F
100
AcDbEntity
  8
1
100
AcDbSpline
210
0.0
220
0.0
230
1.0
 70
     8
 71
     3
 72
    15
 73
    11
 74
     0
 42
0.0000000001
 43
0.0000000001
 40
0.0
 40
0.0
 40
0.0
 40
0.0
 40
0.1242633073
 40
0.2484648042
 40
0.3728074703
 40
0.4974638851
 40
0.6225393486000002
 40
0.7480500227000002
 40
0.8739206654
 40
1.0
 40
1.0
 40
1.0
 40
1.0
 10
56.91934079779997
 20
35.26871393559999
 30
0.0
 10
56.73942745299999
 20
35.32558158099997
 30
0.0
 10
56.3648139382
 20
35.3972330759
 30
0.0
 10
55.79433235199999
 20
35.370423289
 30
0.0
 10
55.24497072720001
 20
35.21115873769999
 30
0.0
 10
54.74662190340001
 20
34.92795079269999
 30
0.0
 10
54.32586300130001
 20
34.53617004330002
 30
0.0
 10
54.00514962630001
 20
34.05679168539999
 30
0.0
 10
53.8015070587
 20
33.51589533729998
 30
0.0
 10
53.75097645560001
 20
33.13269816260002
 30
0.0
 10
53.74768603450002
 20
32.9412820202
 30
0.0
  0
SPLINE
  5
5B1DA
330
1F
100
AcDbEntity
  8
1
100
AcDbSpline
210
0.0
220
0.0
230
1.0
 70
     8
 71
     3
 72
    15
 73
    11
 74
     0
 42
0.0000000001
 43
0.0000000001
 40
0.0
 40
0.0
 40
0.0
 40
0.0
 40
0.1260729474
 40
0.2519576428
 40
0.377489771
 40
0.5025820911
 40
0.6272431568
 40
0.7515765699000001
 40
0.8757587706999997
 40
1.0
 40
1.0
 40
1.0
 40
1.0
 10
46.36275281929999
 20
33.0721750684
 30
0.0
 10
46.35940038569998
 20
32.87715142949999
 30
0.0
 10
46.3982939832
 20
32.48509405820002
 30
0.0
 10
46.5903402278
 20
31.9281658367
 30
0.0
 10
46.90551375279997
 20
31.43183940660001
 30
0.0
 10
47.3264770193
 20
31.02411955029999
 30
0.0
 10
47.82992236839999
 20
30.7276579584
 30
0.0
 10
48.38799581970002
 20
30.55915299899999
 30
0.0
 10
48.96918005340001
 20
30.52796048480001
 30
0.0
 10
49.3511272611
 20
30.60014175389999
 30
0.0
 10
49.5344074873
 20
30.65807551689997
 30
0.0
  0
SPLINE
  5
5B1DB
330
1F
100
AcDbEntity
  8
1
100
AcDbSpline
210
0.0
220
0.0
230
1.0
 70
     8
 71
     3
 72
    27
 73
    23
 74
     0
 42
0.0000000001
 43
0.0000000001
 40
0.0
 40
0.0
 40
0.0
 40
0.0
 40
0.0629521917
 40
0.0944453447
 40
0.1259138081
 40
0.1886748095
 40
0.2512665646999999
 40
0.2825302162
 40
0.3137474903
 40
0.3759775664
 40
0.43807047
 40
0.5000854596000001
 40
0.5620938876000002
 40
0.6241681273
 40
0.6863703304000001
 40
0.7175715783
 40
0.7488185878
 40
0.8113776532999999
 40
0.8741110176000001
 40
0.9055689423
 40
0.9370542709
 40
1.0
 40
1.0
 40
1.0
 40
1.0
 10
45.78881859079999
 20
33.08088931269998
 30
0.0
 10
45.78546951709998
 20
32.8860611323
 30
0.0
 10
45.80886758740001
 20
32.59225243920001
 30
0.0
 10
45.89582263970001
 20
32.2118853865
 30
0.0
 10
46.01892619
 20
31.8421334122
 30
0.0
 10
46.23885573109999
 20
31.40576212439999
 30
0.0
 10
46.53895749150001
 20
31.020844334
 30
0.0
 10
46.8195983525
 20
30.7533674738
 30
0.0
 10
47.12421864929999
 20
30.5153941056
 30
0.0
 10
47.54613854769999
 20
30.27648107699999
 30
0.0
 10
48.09779764069998
 20
30.09574841029999
 30
0.0
 10
48.67373251039999
 20
30.0277651773
 30
0.0
 10
49.25165904279999
 20
30.07528527519999
 30
0.0
 10
49.80920981630001
 20
30.2363520056
 30
0.0
 10
50.23911185630002
 20
30.46017598179998
 30
0.0
 10
50.55173551070001
 20
30.68721603599998
 30
0.0
 10
50.84140233470003
 20
30.9445876697
 30
0.0
 10
51.1545634355
 20
31.3186542376
 30
0.0
 10
51.38935157049999
 20
31.7469686382
 30
0.0
 10
51.5250826878
 20
32.11212256590001
 30
0.0
 10
51.62506138490005
 20
32.4891969304
 30
0.0
 10
51.65853604240002
 20
32.7819849264
 30
0.0
 10
51.66188477220001
 20
32.9767931059
 30
0.0
  0
SPLINE
  5
5B1DC
330
1F
100
AcDbEntity
  8
1
100
AcDbSpline
210
0.0
220
0.0
230
1.0
 70
     8
 71
     3
 72
    27
 73
    23
 74
     0
 42
0.0000000001
 43
0.0000000001
 40
0.0
 40
0.0
 40
0.0
 40
0.0
 40
0.0629521917
 40
0.0944453447
 40
0.1259138081
 40
0.1886748095
 40
0.2512665646999999
 40
0.2825302162
 40
0.3137474903
 40
0.3759775664
 40
0.43807047
 40
0.5000854596000001
 40
0.5620938876000002
 40
0.6241681273
 40
0.6863703304000001
 40
0.7175715783
 40
0.7488185878
 40
0.8113776532999999
 40
0.8741110176000001
 40
0.9055689423
 40
0.9370542709
 40
1.0
 40
1.0
 40
1.0
 40
1.0
 10
51.66188477220001
 20
32.9767931059
 30
0.0
 10
51.66523384589999
 20
33.17162128630001
 30
0.0
 10
51.64183577560002
 20
33.46542997939997
 30
0.0
 10
51.55488072330001
 20
33.8457970321
 30
0.0
 10
51.43177717310004
 20
34.2155490064
 30
0.0
 10
51.21184763189996
 20
34.65192029420001
 30
0.0
 10
50.91174587150002
 20
35.03683808459999
 30
0.0
 10
50.63110501049999
 20
35.3043149448
 30
0.0
 10
50.32648471379999
 20
35.542288313
 30
0.0
 10
49.90456481529998
 20
35.7812013416
 30
0.0
 10
49.35290572229999
 20
35.96193400830001
 30
0.0
 10
48.77697085259999
 20
36.0299172413
 30
0.0
 10
48.19904432029995
 20
35.98239714340001
 30
0.0
 10
47.64149354670002
 20
35.821330413
 30
0.0
 10
47.21159150670001
 20
35.59750643679999
 30
0.0
 10
46.89896785229999
 20
35.3704663826
 30
0.0
 10
46.6093010284
 20
35.1130947488
 30
0.0
 10
46.29613992750001
 20
34.73902818099998
 30
0.0
 10
46.06135179259999
 20
34.31071378039999
 30
0.0
 10
45.92562067520001
 20
33.9455598527
 30
0.0
 10
45.8256419781
 20
33.56848548809998
 30
0.0
 10
45.7921673207
 20
33.2756974922
 30
0.0
 10
45.78881859079999
 20
33.08088931269998
 30
0.0
  0
SPLINE
  5
5B1DD
330
1F
100
AcDbEntity
  8
1
100
AcDbSpline
210
0.0
220
0.0
230
1.0
 70
     8
 71
     3
 72
    27
 73
    23
 74
     0
 42
0.0000000001
 43
0.0000000001
 40
0.0
 40
0.0
 40
0.0
 40
0.0
 40
0.0629521917
 40
0.0944453447
 40
0.1259138081
 40
0.1886748095
 40
0.2512665646999999
 40
0.2825302162
 40
0.3137474903
 40
0.3759775664
 40
0.43807047
 40
0.5000854596000001
 40
0.5620938876000002
 40
0.6241681273
 40
0.6863703304000001
 40
0.7175715783
 40
0.7488185878
 40
0.8113776532999999
 40
0.8741110176000001
 40
0.9055689423
 40
0.9370542709
 40
1.0
 40
1.0
 40
1.0
 40
1.0
 10
53.17375180599999
 20
32.94999626439999
 30
0.0
 10
53.1704027323
 20
32.75516808400002
 30
0.0
 10
53.19380080259998
 20
32.4613593909
 30
0.0
 10
53.28075585490001
 20
32.0809923382
 30
0.0
 10
53.40385940509998
 20
31.71124036389999
 30
0.0
 10
53.62378894630001
 20
31.27486907609998
 30
0.0
 10
53.92389070670003
 20
30.8899512857
 30
0.0
 10
54.2045315677
 20
30.62247442549999
 30
0.0
 10
54.50915186439999
 20
30.3845010573
 30
0.0
 10
54.93107176290002
 20
30.14558802869999
 30
0.0
 10
55.4827308559
 20
29.964855362
 30
0.0
 10
56.0586657256
 20
29.896872129
 30
0.0
 10
56.63659225790002
 20
29.94439222689998
 30
0.0
 10
57.1941430315
 20
30.1054589573
 30
0.0
 10
57.62404507150001
 20
30.32928293349999
 30
0.0
 10
57.93666872590001
 20
30.55632298769999
 30
0.0
 10
58.22633554979995
 20
30.81369462149999
 30
0.0
 10
58.53949665069999
 20
31.18776118929998
 30
0.0
 10
58.7742847856
 20
31.61607558990001
 30
0.0
 10
58.91001590299999
 20
31.9812295176
 30
0.0
 10
59.00999460009995
 20
32.35830388219998
 30
0.0
 10
59.04346925749999
 20
32.65109187809998
 30
0.0
 10
59.0468179874
 20
32.84590005760001
 30
0.0
  0
SPLINE
  5
5B1DE
330
1F
100
AcDbEntity
  8
1
100
AcDbSpline
210
0.0
220
0.0
230
1.0
 70
     8
 71
     3
 72
    27
 73
    23
 74
     0
 42
0.0000000001
 43
0.0000000001
 40
0.0
 40
0.0
 40
0.0
 40
0.0
 40
0.0629521917
 40
0.0944453447
 40
0.1259138081
 40
0.1886748095
 40
0.2512665646999999
 40
0.2825302162
 40
0.3137474903
 40
0.3759775664
 40
0.43807047
 40
0.5000854596000001
 40
0.5620938876000002
 40
0.6241681273
 40
0.6863703304000001
 40
0.7175715783
 40
0.7488185878
 40
0.8113776532999999
 40
0.8741110176000001
 40
0.9055689423
 40
0.9370542709
 40
1.0
 40
1.0
 40
1.0
 40
1.0
 10
59.0468179874
 20
32.84590005760001
 30
0.0
 10
59.05016706110001
 20
33.04072823799999
 30
0.0
 10
59.02676899080001
 20
33.33453693109999
 30
0.0
 10
58.93981393849998
 20
33.71490398379999
 30
0.0
 10
58.81671038819999
 20
34.0846559581
 30
0.0
 10
58.59678084709997
 20
34.5210272459
 30
0.0
 10
58.29667908670001
 20
34.90594503630001
 30
0.0
 10
58.01603822569996
 20
35.1734218965
 30
0.0
 10
57.7114179289
 20
35.41139526469999
 30
0.0
 10
57.28949803049999
 20
35.6503082933
 30
0.0
 10
56.73783893750002
 20
35.83104096
 30
0.0
 10
56.16190406769999
 20
35.899024193
 30
0.0
 10
55.58397753540001
 20
35.85150409510001
 30
0.0
 10
55.02642676189998
 20
35.69043736469999
 30
0.0
 10
54.59652472189998
 20
35.46661338849999
 30
0.0
 10
54.28390106740002
 20
35.23957333429999
 30
0.0
 10
53.99423424349999
 20
34.9822017006
 30
0.0
 10
53.6810731427
 20
34.6081351327
 30
0.0
 10
53.44628500769999
 20
34.1798207321
 30
0.0
 10
53.3105538904
 20
33.81466680439999
 30
0.0
 10
53.21057519330003
 20
33.43759243989999
 30
0.0
 10
53.1771005358
 20
33.1448044439
 30
0.0
 10
53.17375180599999
 20
32.94999626439999
 30
0.0
  0
SPLINE
  5
5B1DF
330
1F
100
AcDbEntity
  8
1
100
AcDbSpline
210
0.0
220
0.0
230
1.0
 70
     8
 71
     3
 72
    15
 73
    11
 74
     0
 42
0.0000000001
 43
0.0000000001
 40
0.0
 40
0.0
 40
0.0
 40
0.0
 40
0.1260729474
 40
0.2519576428
 40
0.377489771
 40
0.5025820911
 40
0.6272431568
 40
0.7515765699000001
 40
0.8757587706999997
 40
1.0
 40
1.0
 40
1.0
 40
1.0
 10
53.74768603450002
 20
32.9412820202
 30
0.0
 10
53.74433360090001
 20
32.74625838119999
 30
0.0
 10
53.78322719839999
 20
32.3542010099
 30
0.0
 10
53.97527344290001
 20
31.79727278840001
 30
0.0
 10
54.29044696800002
 20
31.3009463583
 30
0.0
 10
54.71141023450002
 20
30.89322650209998
 30
0.0
 10
55.21485558360001
 20
30.59676491010002
 30
0.0
 10
55.77292903489999
 20
30.4282599507
 30
0.0
 10
56.3541132686
 20
30.3970674365
 30
0.0
 10
56.73606047630002
 20
30.4692487056
 30
0.0
 10
56.91934070240001
 20
30.52718246859999
 30
0.0
  0
SPLINE
  5
5B1E0
330
1F
100
AcDbEntity
  8
1
100
AcDbSpline
210
0.0
220
0.0
230
1.0
 70
     8
 71
     3
 72
    15
 73
    11
 74
     0
 42
0.0000000001
 43
0.0000000001
 40
0.0
 40
0.0
 40
0.0
 40
0.0
 40
0.1242633073
 40
0.2484648042
 40
0.3728074703
 40
0.4974638851
 40
0.6225393486000002
 40
0.7480500227000002
 40
0.8739206654
 40
1.0
 40
1.0
 40
1.0
 40
1.0
 10
49.53440758259995
 20
35.3996069838
 30
0.0
 10
49.35449423789998
 20
35.45647462930001
 30
0.0
 10
48.97988072300001
 20
35.5281261242
 30
0.0
 10
48.40939913689999
 20
35.5013163373
 30
0.0
 10
47.86003751199999
 20
35.34205178599999
 30
0.0
 10
47.3616886883
 20
35.05884384090001
 30
0.0
 10
46.94092978610001
 20
34.6670630916
 30
0.0
 10
46.62021641109999
 20
34.1876847337
 30
0.0
 10
46.41657384360001
 20
33.64678838559999
 30
0.0
 10
46.3660432405
 20
33.2635912108
 30
0.0
 10
46.36275281929999
 20
33.0721750684
 30
0.0
  0
SPLINE
  5
5B1E1
330
1F
100
AcDbEntity
  8
1
100
AcDbSpline
210
0.0
220
0.0
230
1.0
 70
     8
 71
     3
 72
     9
 73
     5
 74
     0
 42
0.0000000001
 43
0.0000000001
 40
0.0
 40
0.0
 40
0.0
 40
0.0
 40
0.2457385327
 40
1.0
 40
1.0
 40
1.0
 40
1.0
 10
63.49999885569999
 20
-22.5468558268
 30
0.0
 10
63.49999885009999
 20
-22.5430839731
 30
0.0
 10
63.49957216589999
 20
-22.52773655990002
 30
0.0
 10
63.4974472964
 20
-22.5124471649
 30
0.0
 10
63.49501202599999
 20
-22.50112899400001
 30
0.0
  0
SPLINE
  5
5B1E2
330
1F
100
AcDbEntity
  8
1
100
AcDbSpline
210
0.0
220
0.0
230
1.0
 70
     8
 71
     3
 72
     9
 73
     5
 74
     0
 42
0.0000000001
 43
0.0000000001
 40
0.0
 40
0.0
 40
0.0
 40
0.0
 40
0.2811534708
 40
1.0
 40
1.0
 40
1.0
 40
1.0
 10
62.4704859686
 20
-18.0365385203
 30
0.0
 10
62.48347444560002
 20
-18.049943783
 30
0.0
 10
62.52723653439995
 20
-18.09960552460001
 30
0.0
 10
62.56101180549999
 20
-18.1602735987
 30
0.0
 10
62.57105049869998
 20
-18.206929386
 30
0.0
  0
LINE
  5
5B1E3
330
1F
100
AcDbEntity
  8
1
100
AcDbLine
 10
63.1067908144
 20
-23.54580478690001
 30
0.0
 11
62.68203173310002
 21
-23.47338846310001
 31
0.0
  0
SPLINE
  5
5B1E4
330
1F
100
AcDbEntity
  8
1
100
AcDbSpline
210
0.0
220
0.0
230
1.0
 70
     8
 71
     3
 72
     8
 73
     4
 74
     0
 42
0.0000000001
 43
0.0000000001
 40
0.0
 40
0.0
 40
0.0
 40
0.0
 40
1.0
 40
1.0
 40
1.0
 40
1.0
 10
48.0752898563
 20
-20.28430212650002
 30
0.0
 10
48.23930027970004
 20
-20.3282227282
 30
0.0
 10
48.40335207709998
 20
-20.3719891126
 30
0.0
 10
48.56744429689999
 20
-20.41560312
 30
0.0
  0
LINE
  5
5B1E5
330
1F
100
AcDbEntity
  8
1
100
AcDbLine
 10
48.03568042730001
 20
-20.27369184850002
 30
0.0
 11
48.0752898563
 21
-20.28430212650002
 31
0.0
  0
SPLINE
  5
5B1E6
330
1F
100
AcDbEntity
  8
1
100
AcDbSpline
210
0.0
220
0.0
230
1.0
 70
     8
 71
     3
 72
     8
 73
     4
 74
     0
 42
0.0000000001
 43
0.0000000001
 40
0.0
 40
0.0
 40
0.0
 40
0.0
 40
1.0
 40
1.0
 40
1.0
 40
1.0
 10
47.5136734852
 20
-20.13231165630002
 30
0.0
 10
47.6876292393
 20
-20.1796099612
 30
0.0
 10
47.86163188900002
 20
-20.22673612090001
 30
0.0
 10
48.03568042730001
 20
-20.27369184850002
 30
0.0
  0
SPLINE
  5
5B1E7
330
1F
100
AcDbEntity
  8
1
100
AcDbSpline
210
0.0
220
0.0
230
1.0
 70
     8
 71
     3
 72
     8
 73
     4
 74
     0
 42
0.0000000001
 43
0.0000000001
 40
0.0
 40
0.0
 40
0.0
 40
0.0
 40
1.0
 40
1.0
 40
1.0
 40
1.0
 10
47.00117821550001
 20
-19.99149636759999
 30
0.0
 10
47.17196482040001
 20
-20.03859881800001
 30
0.0
 10
47.34279691860002
 20
-20.08553661800002
 30
0.0
 10
47.5136734852
 20
-20.13231165630002
 30
0.0
  0
LINE
  5
5B1E8
330
1F
100
AcDbEntity
  8
1
100
AcDbLine
 10
46.75235585929999
 20
-19.9222913185
 30
0.0
 11
47.00117821550001
 21
-19.99149636759999
 31
0.0
  0
LINE
  5
5B1E9
330
1F
100
AcDbEntity
  8
1
100
AcDbLine
 10
46.71278220459998
 20
-19.9214969894
 30
0.0
 11
46.75235585929999
 21
-19.9222913185
 31
0.0
  0
SPLINE
  5
5B1EA
330
1F
100
AcDbEntity
  8
1
100
AcDbSpline
210
0.0
220
0.0
230
1.0
 70
     8
 71
     3
 72
     9
 73
     5
 74
     0
 42
0.0000000001
 43
0.0000000001
 40
0.0
 40
0.0
 40
0.0
 40
0.0
 40
0.4578758105
 40
1.0
 40
1.0
 40
1.0
 40
1.0
 10
45.5133772897
 20
-19.3715472998
 30
0.0
 10
45.55872180709999
 20
-19.3973551018
 30
0.0
 10
45.65977265340001
 20
-19.4501767082
 30
0.0
 10
45.7631699518
 20
-19.49812941259999
 30
0.0
 10
45.81959101819998
 20
-19.52328373280001
 30
0.0
  0
SPLINE
  5
5B1EB
330
1F
100
AcDbEntity
  8
1
100
AcDbSpline
210
0.0
220
0.0
230
1.0
 70
     8
 71
     3
 72
    10
 73
     6
 74
     0
 42
0.0000000001
 43
0.0000000001
 40
0.0
 40
0.0
 40
0.0
 40
0.0
 40
0.2224119024
 40
0.4664264278
 40
1.0
 40
1.0
 40
1.0
 40
1.0
 10
63.3754416422
 20
-23.53229746530002
 30
0.0
 10
63.35754383930001
 20
-23.5380699116
 30
0.0
 10
63.31902414680001
 20
-23.54720999960001
 30
0.0
 10
63.23487459990002
 20
-23.556654392
 30
0.0
 10
63.16865593630001
 20
-23.55355508940001
 30
0.0
 10
63.1239148937
 20
-23.5477553621
 30
0.0
  0
SPLINE
  5
5B1EC
330
1F
100
AcDbEntity
  8
1
100
AcDbSpline
210
0.0
220
0.0
230
1.0
 70
     8
 71
     3
 72
    11
 73
     7
 74
     0
 42
0.0000000001
 43
0.0000000001
 40
0.0
 40
0.0
 40
0.0
 40
0.0
 40
0.2106635093
 40
0.4422293145000002
 40
0.7040181703
 40
1.0
 40
1.0
 40
1.0
 40
1.0
 10
63.49497018240001
 20
-23.43640559200002
 30
0.0
 10
63.49144552119998
 20
-23.44696293420001
 30
0.0
 10
63.48019347479999
 20
-23.46796428620002
 30
0.0
 10
63.4535298289
 20
-23.49447339580001
 30
0.0
 10
63.41784108749997
 20
-23.51656904480001
 30
0.0
 10
63.3903245898
 20
-23.5274973786
 30
0.0
 10
63.37544164249999
 20
-23.53229746570001
 30
0.0
  0
SPLINE
  5
5B1ED
330
1F
100
AcDbEntity
  8
1
100
AcDbSpline
210
0.0
220
0.0
230
1.0
 70
     8
 71
     3
 72
    16
 73
    12
 74
     0
 42
0.0000000001
 43
0.0000000001
 40
0.0
 40
0.0
 40
0.0
 40
0.0
 40
0.0621644779
 40
0.0938199478
 40
0.1253062833
 40
0.2506100422
 40
0.3756447696
 40
0.5005796062
 40
0.6254661861999999
 40
0.7503259392000004
 40
1.0
 40
1.0
 40
1.0
 40
1.0
 10
63.11175178849999
 20
-23.4867374753
 30
0.0
 10
63.11431761439999
 20
-23.4868171812
 30
0.0
 10
63.11678409340001
 20
-23.4819970744
 30
0.0
 10
63.1179246693
 20
-23.47726548070001
 30
0.0
 10
63.1193312666
 20
-23.4694999824
 30
0.0
 10
63.12005889080001
 20
-23.45793099140001
 30
0.0
 10
63.12024990640001
 20
-23.44241204070002
 30
0.0
 10
63.11989787799999
 20
-23.4269396868
 30
0.0
 10
63.11923057080003
 20
-23.41147970750002
 30
0.0
 10
63.11802787189995
 20
-23.390891291
 30
0.0
 10
63.1168663427
 20
-23.37546738410002
 30
0.0
 10
63.11601882880001
 20
-23.36519206070001
 30
0.0
  0
SPLINE
  5
5B1EE
330
1F
100
AcDbEntity
  8
1
100
AcDbSpline
210
0.0
220
0.0
230
1.0
 70
     8
 71
     3
 72
     9
 73
     5
 74
     0
 42
0.0000000001
 43
0.0000000001
 40
0.0
 40
0.0
 40
0.0
 40
0.0
 40
0.5001822891
 40
1.0
 40
1.0
 40
1.0
 40
1.0
 10
63.11601882880001
 20
-23.36519206070001
 30
0.0
 10
63.11672641569998
 20
-23.34483707860001
 30
0.0
 10
63.11604692610001
 20
-23.30408206040002
 30
0.0
 10
63.11388378000001
 20
-23.26342294000001
 30
0.0
 10
63.1125721793
 20
-23.2431128151
 30
0.0
  0
SPLINE
  5
5B1EF
330
1F
100
AcDbEntity
  8
1
100
AcDbSpline
210
0.0
220
0.0
230
1.0
 70
     8
 71
     3
 72
     8
 73
     4
 74
     0
 42
0.0000000001
 43
0.0000000001
 40
0.0
 40
0.0
 40
0.0
 40
0.0
 40
1.0
 40
1.0
 40
1.0
 40
1.0
 10
63.1125721793
 20
-23.2431128151
 30
0.0
 10
63.11268022869999
 20
-23.20231170780001
 30
0.0
 10
63.11094360639998
 20
-23.16150787590002
 30
0.0
 10
63.10861831849999
 20
-23.12077293920001
 30
0.0
  0
SPLINE
  5
5B1F0
330
1F
100
AcDbEntity
  8
1
100
AcDbSpline
210
0.0
220
0.0
230
1.0
 70
     8
 71
     3
 72
     8
 73
     4
 74
     0
 42
0.0000000001
 43
0.0000000001
 40
0.0
 40
0.0
 40
0.0
 40
0.0
 40
1.0
 40
1.0
 40
1.0
 40
1.0
 10
63.10861831849999
 20
-23.12077293920001
 30
0.0
 10
63.1082102634
 20
-23.07990286790002
 30
0.0
 10
63.10657614689995
 20
-23.03904315330001
 30
0.0
 10
63.10439062240004
 20
-22.9982295193
 30
0.0
  0
SPLINE
  5
5B1F1
330
1F
100
AcDbEntity
  8
1
100
AcDbSpline
210
0.0
220
0.0
230
1.0
 70
     8
 71
     3
 72
     8
 73
     4
 74
     0
 42
0.0000000001
 43
0.0000000001
 40
0.0
 40
0.0
 40
0.0
 40
0.0
 40
1.0
 40
1.0
 40
1.0
 40
1.0
 10
63.10439062240004
 20
-22.9982295193
 30
0.0
 10
63.10367472339999
 20
-22.95730982630002
 30
0.0
 10
63.10204024950002
 20
-22.91640391880001
 30
0.0
 10
63.09991023170002
 20
-22.87553343050001
 30
0.0
  0
SPLINE
  5
5B1F2
330
1F
100
AcDbEntity
  8
1
100
AcDbSpline
210
0.0
220
0.0
230
1.0
 70
     8
 71
     3
 72
     9
 73
     5
 74
     0
 42
0.0000000001
 43
0.0000000001
 40
0.0
 40
0.0
 40
0.0
 40
0.0
 40
0.2551181422
 40
1.0
 40
1.0
 40
1.0
 40
1.0
 10
62.57105049869998
 20
-18.206929386
 30
0.0
 10
62.57187418020001
 20
-18.21075752440001
 30
0.0
 10
62.57472997829998
 20
-18.22583955509999
 30
0.0
 10
62.57603734549999
 20
-18.2412235803
 30
0.0
 10
62.57603734549999
 20
-18.2526566002
 30
0.0
  0
SPLINE
  5
5B1F3
330
1F
100
AcDbEntity
  8
1
100
AcDbSpline
210
0.0
220
0.0
230
1.0
 70
     8
 71
     3
 72
    21
 73
    17
 74
     0
 42
0.0000000001
 43
0.0000000001
 40
0.0
 40
0.0
 40
0.0
 40
0.0
 40
0.0295005336
 40
0.059497146
 40
0.0899751206
 40
0.1207894214
 40
0.1829339752
 40
0.2454874211
 40
0.3082208771999999
 40
0.3710431067
 40
0.4339113151
 40
0.4968036473
 40
0.6226097164
 40
0.7484227051000003
 40
0.8742221448
 40
1.0
 40
1.0
 40
1.0
 40
1.0
 10
45.81959101819998
 20
-19.52328373280001
 30
0.0
 10
45.81128264
 20
-19.5195795915
 30
0.0
 10
45.79559788169999
 20
-19.5094434345
 30
0.0
 10
45.77725604209999
 20
-19.4882641218
 30
0.0
 10
45.76364141009998
 20
-19.4634548616
 30
0.0
 10
45.75051712509997
 20
-19.4276240537
 30
0.0
 10
45.74131678150002
 20
-19.3803109687
 30
0.0
 10
45.73706768950001
 20
-19.3226140311
 30
0.0
 10
45.73726844570001
 20
-19.26456505190002
 30
0.0
 10
45.74061575479999
 20
-19.206541027
 30
0.0
 10
45.74631680769999
 20
-19.1486575561
 30
0.0
 10
45.75637649769999
 20
-19.07173055960001
 30
0.0
 10
45.77263477349996
 20
-18.9760865938
 30
0.0
 10
45.79622216989998
 20
-18.862106095
 30
0.0
 10
45.82288594439996
 20
-18.7488194964
 30
0.0
 10
45.8422767612
 20
-18.67370085740001
 30
0.0
 10
45.85230130299999
 20
-18.6362342939
 30
0.0
  0
SPLINE
  5
5B1F4
330
1F
100
AcDbEntity
  8
1
100
AcDbSpline
210
0.0
220
0.0
230
1.0
 70
     8
 71
     3
 72
    11
 73
     7
 74
     0
 42
0.0000000001
 43
0.0000000001
 40
0.0
 40
0.0
 40
0.0
 40
0.0
 40
0.2503191345
 40
0.5003749805
 40
0.7502529194
 40
1.0
 40
1.0
 40
1.0
 40
1.0
 10
63.03709653580003
 20
-21.68216517100002
 30
0.0
 10
63.04347715920002
 20
-21.61023786360002
 30
0.0
 10
63.0477572975
 20
-21.4656927253
 30
0.0
 10
63.03826895349999
 20
-21.2493675436
 30
0.0
 10
63.01662034670002
 20
-21.03409467770001
 30
0.0
 10
62.9955178056
 20
-20.891466639
 30
0.0
 10
62.98342040279997
 20
-20.82044482730001
 30
0.0
  0
SPLINE
  5
5B1F5
330
1F
100
AcDbEntity
  8
1
100
AcDbSpline
210
0.0
220
0.0
230
1.0
 70
     8
 71
     3
 72
     8
 73
     4
 74
     0
 42
0.0000000001
 43
0.0000000001
 40
0.0
 40
0.0
 40
0.0
 40
0.0
 40
0.1443493850152663
 40
0.1443493850152663
 40
0.1443493850152663
 40
0.1443493850152663
 10
44.6823217648
 20
-19.08783028670001
 30
0.0
 10
44.72155171101127
 20
-19.04629743256333
 30
0.0
 10
44.76283755024695
 20
-19.00663248686404
 30
0.0
 10
44.80588258401468
 20
-18.9688567096661
 30
0.0
  0
SPLINE
  5
5B1F6
330
1F
100
AcDbEntity
  8
1
100
AcDbSpline
210
0.0
220
0.0
230
1.0
 70
     8
 71
     3
 72
     9
 73
     5
 74
     0
 42
0.0000000001
 43
0.0000000001
 40
0.1443493850152663
 40
0.1443493850152663
 40
0.1443493850152663
 40
0.1443493850152663
 40
0.4901332621
 40
1.0
 40
1.0
 40
1.0
 40
1.0
 10
44.80588258401468
 20
-18.9688567096661
 30
0.0
 10
44.90899544912224
 20
-18.87836616342645
 30
0.0
 10
45.18913032576793
 20
-18.68127024738196
 30
0.0
 10
45.50610493479999
 20
-18.55234323840001
 30
0.0
 10
45.70030079409997
 20
-18.49747997620001
 30
0.0
  0
SPLINE
  5
5B1F7
330
1F
100
AcDbEntity
  8
1
100
AcDbSpline
210
0.0
220
0.0
230
1.0
 70
     8
 71
     3
 72
     9
 73
     5
 74
     0
 42
0.0000000001
 43
0.0000000001
 40
0.0
 40
0.0
 40
0.0
 40
0.0
 40
0.5173728622000004
 40
1.0
 40
1.0
 40
1.0
 40
1.0
 10
38.32910413529999
 20
-36.15333710110001
 30
0.0
 10
38.05169988439999
 20
-36.1320911736
 30
0.0
 10
37.516372117
 20
-36.0788898139
 30
0.0
 10
36.98408722229999
 20
-36.0008306272
 30
0.0
 10
36.72833452490002
 20
-35.95670000350001
 30
0.0
  0
SPLINE
  5
5B1F8
330
1F
100
AcDbEntity
  8
1
100
AcDbSpline
210
0.0
220
0.0
230
1.0
 70
     8
 71
     3
 72
    35
 73
    31
 74
     0
 42
0.0000000001
 43
0.0000000001
 40
0.0
 40
0.0
 40
0.0
 40
0.0
 40
0.0626843413
 40
0.1253142752
 40
0.1878891843
 40
0.2504143462
 40
0.281669552
 40
0.3129206908
 40
0.3441732828
 40
0.3754352116
 40
0.4067169256
 40
0.4380254718
 40
0.4537163060000001
 40
0.4694167518
 40
0.4851127477000003
 40
0.5007826813000003
 40
0.5164120454
 40
0.532001454
 40
0.5475604916
 40
0.5631004024
 40
0.594128949
 40
0.6251743009000002
 40
0.6562463165
 40
0.6873499404000001
 40
0.7184869312000001
 40
0.749657166
 40
0.8120817931999997
 40
0.8746257526999999
 40
0.9372712478
 40
1.0
 40
1.0
 40
1.0
 40
1.0
 10
53.13170723549996
 20
-2.956849344800005
 30
0.0
 10
53.0957536818
 20
-3.133417015400013
 30
0.0
 10
53.01258238259999
 20
-3.484193295099998
 30
0.0
 10
52.85590629150004
 20
-4.001410854900001
 30
0.0
 10
52.6674061537
 20
-4.507442100400012
 30
0.0
 10
52.48199217299998
 20
-4.917382236400001
 30
0.0
 10
52.31391679939997
 20
-5.235191732300009
 30
0.0
 10
52.1766585956
 20
-5.467282559899999
 30
0.0
 10
52.02641240439999
 20
-5.691261857
 30
0.0
 10
51.86043336170001
 20
-5.904150770100009
 30
0.0
 10
51.67475476589999
 20
-6.100488254300003
 30
0.0
 10
51.4980631359
 20
-6.242047498200008
 30
0.0
 10
51.34012229689997
 20
-6.329873348400013
 30
0.0
 10
51.21275343970001
 20
-6.377575890800002
 30
0.0
 10
51.0781994377
 20
-6.399819238800006
 30
0.0
 10
50.94203481380001
 20
-6.389440445900007
 30
0.0
 10
50.81329826970002
 20
-6.345064925500011
 30
0.0
 10
50.69858421340001
 20
-6.273126340900006
 30
0.0
 10
50.59912890959998
 20
-6.182189405900004
 30
0.0
 10
50.48491264840001
 20
-6.044363814900009
 30
0.0
 10
50.3704999741
 20
-5.851420747199995
 30
0.0
 10
50.26507319520002
 20
-5.604840826900002
 30
0.0
 10
50.18279422109998
 20
-5.349497050300001
 30
0.0
 10
50.1185535582
 20
-5.088899769500002
 30
0.0
 10
50.06906460879998
 20
-4.824858586100006
 30
0.0
 10
50.01989080509997
 20
-4.469589385999995
 30
0.0
 10
49.98618430139996
 20
-4.021540349000005
 30
0.0
 10
49.98340447490003
 20
-3.481856835599998
 30
0.0
 10
50.01555774119998
 20
-2.942277935999996
 30
0.0
 10
50.05995855290001
 20
-2.58432227210001
 30
0.0
 10
50.08810657679998
 20
-2.406214123400005
 30
0.0
  0
SPLINE
  5
5B1F9
330
1F
100
AcDbEntity
  8
1
100
AcDbSpline
210
0.0
220
0.0
230
1.0
 70
     8
 71
     3
 72
    15
 73
    11
 74
     0
 42
0.0000000001
 43
0.0000000001
 40
0.0
 40
0.0
 40
0.0
 40
0.0
 40
0.1642087443
 40
0.3174748687
 40
0.4592907538000003
 40
0.589493856
 40
0.7082085241
 40
0.8157962501999998
 40
0.9128161873999999
 40
1.0
 40
1.0
 40
1.0
 40
1.0
 10
36.72833452490002
 20
-35.95670000350001
 30
0.0
 10
36.45048553520002
 20
-35.9087566218
 30
0.0
 10
35.9126032264
 20
-35.82009109920001
 30
0.0
 10
35.13306976170003
 20
-35.70062383490001
 30
0.0
 10
34.41058235520001
 20
-35.59451536830001
 30
0.0
 10
33.7467761609
 20
-35.4971374826
 30
0.0
 10
33.14175694700001
 20
-35.4039820756
 30
0.0
 10
32.59442524060001
 20
-35.31081999139999
 30
0.0
 10
32.10281551580002
 20
-35.21380169010001
 30
0.0
 10
31.79498095689999
 20
-35.14056531450002
 30
0.0
 10
31.65038266119998
 20
-35.10182031790002
 30
0.0
  0
SPLINE
  5
5B1FA
330
1F
100
AcDbEntity
  8
1
100
AcDbSpline
210
0.0
220
0.0
230
1.0
 70
     8
 71
     3
 72
    15
 73
    11
 74
     0
 42
0.0000000001
 43
0.0000000001
 40
0.0
 40
0.0
 40
0.0
 40
0.0
 40
0.119752075
 40
0.2383001522
 40
0.3572969393999999
 40
0.4783103057
 40
0.6025554493000001
 40
0.7307746026000001
 40
0.8632668420999999
 40
1.0
 40
1.0
 40
1.0
 40
1.0
 10
57.33671008869999
 20
26.26339637800001
 30
0.0
 10
57.2465026598
 20
25.88111919240001
 30
0.0
 10
57.11449561990002
 20
25.10804072269998
 30
0.0
 10
57.07654155930001
 20
23.9331127814
 30
0.0
 10
57.20207065400001
 20
22.76006778949997
 30
0.0
 10
57.48538113200004
 20
21.596171578
 30
0.0
 10
57.9149122231
 20
20.4463111859
 30
0.0
 10
58.4759681484
 20
19.31312484189999
 30
0.0
 10
59.15285201340001
 20
18.1975637516
 30
0.0
 10
59.66353045580001
 20
17.47632262939999
 30
0.0
 10
59.9330500959
 20
17.11787181189999
 30
0.0
  0
SPLINE
  5
5B1FB
330
1F
100
AcDbEntity
  8
1
100
AcDbSpline
210
0.0
220
0.0
230
1.0
 70
     8
 71
     3
 72
    15
 73
    11
 74
     0
 42
0.0000000001
 43
0.0000000001
 40
0.0
 40
0.0
 40
0.0
 40
0.0
 40
0.1193143077
 40
0.237717683
 40
0.356791948
 40
0.4779980471
 40
0.6024467020000001
 40
0.7308057853000001
 40
0.8633369695999999
 40
1.0
 40
1.0
 40
1.0
 40
1.0
 10
57.28693704299999
 20
-22.45707735440001
 30
0.0
 10
57.2082690666
 20
-22.83116157410002
 30
0.0
 10
57.09791429990002
 20
-23.58730587090001
 30
0.0
 10
57.08591303209999
 20
-24.7337383262
 30
0.0
 10
57.2291367057
 20
-25.8773729202
 30
0.0
 10
57.52148767170002
 20
-27.01171391760001
 30
0.0
 10
57.95184088759999
 20
-28.1324824935
 30
0.0
 10
58.50643315500002
 20
-29.23736538240002
 30
0.0
 10
59.1706832166
 20
-30.32551753880002
 30
0.0
 10
59.6699148244
 20
-31.02959094860001
 30
0.0
 10
59.9330500959
 20
-31.37955080010001
 30
0.0
  0
SPLINE
  5
5B1FC
330
1F
100
AcDbEntity
  8
1
100
AcDbSpline
210
0.0
220
0.0
230
1.0
 70
     8
 71
     3
 72
     9
 73
     5
 74
     0
 42
0.0000000001
 43
0.0000000001
 40
0.0
 40
0.0
 40
0.0
 40
0.0
 40
0.5688894808000004
 40
1.0
 40
1.0
 40
1.0
 40
1.0
 10
57.03083300900004
 20
27.8503711983
 30
0.0
 10
57.00348325400003
 20
27.81324920580001
 30
0.0
 10
56.9560627251
 20
27.74751988679998
 30
0.0
 10
56.91094524189995
 20
27.68011695979999
 30
0.0
 10
56.89282772080002
 20
27.65023890949999
 30
0.0
  0
LINE
  5
5B1FD
330
1F
100
AcDbEntity
  8
1
100
AcDbLine
 10
60.80568504310003
 20
-18.0783627206
 30
0.0
 11
61.4719629436
 21
-17.494346799
 31
0.0
  0
SPLINE
  5
5B1FE
330
1F
100
AcDbEntity
  8
1
100
AcDbSpline
210
0.0
220
0.0
230
1.0
 70
     8
 71
     3
 72
    28
 73
    24
 74
     0
 42
0.0000000001
 43
0.0000000001
 40
0.0
 40
0.0
 40
0.0
 40
0.0
 40
0.031356331
 40
0.0627419995
 40
0.0941485516
 40
0.1255381952
 40
0.1412501645
 40
0.156940616
 40
0.1726037046
 40
0.1882381141
 40
0.2193883517
 40
0.2504908499
 40
0.2815691856
 40
0.3126404477
 40
0.3747709454
 40
0.4369734799
 40
0.4992552912
 40
0.5616170239000004
 40
0.6240562512
 40
0.6865689597
 40
0.7491503223999999
 40
0.8744737187
 40
1.0
 40
1.0
 40
1.0
 40
1.0
 10
59.3465193847
 20
-6.088304379000014
 30
0.0
 10
59.30660450529998
 20
-6.123064094500008
 30
0.0
 10
59.22355204110004
 20
-6.189113450199997
 30
0.0
 10
59.08793204290001
 20
-6.272888418600004
 30
0.0
 10
58.94019527130001
 20
-6.333994765000014
 30
0.0
 10
58.8079399634
 20
-6.356441061099999
 30
0.0
 10
58.7017058225
 20
-6.351658674100008
 30
0.0
 10
58.6234453468
 20
-6.336341526799998
 30
0.0
 10
58.54842701689998
 20
-6.309760387699995
 30
0.0
 10
58.45456056929998
 20
-6.261187412200001
 30
0.0
 10
58.34986139840001
 20
-6.1798291841
 30
0.0
 10
58.2445110532
 20
-6.061949618300005
 30
0.0
 10
58.15565504560002
 20
-5.931606087600009
 30
0.0
 10
58.0550259675
 20
-5.7472607861
 30
0.0
 10
57.95590004709999
 20
-5.503557852200003
 30
0.0
 10
57.8668618353
 20
-5.201072255699997
 30
0.0
 10
57.80054525849999
 20
-4.892485928600009
 30
0.0
 10
57.75268116680002
 20
-4.580191383200002
 30
0.0
 10
57.72061207240003
 20
-4.265523728700003
 30
0.0
 10
57.70263107249999
 20
-3.949385369400005
 30
0.0
 10
57.69601734860001
 20
-3.526641447300015
 30
0.0
 10
57.7185722248
 20
-2.997534332599997
 30
0.0
 10
57.76825711599997
 20
-2.576556130100001
 30
0.0
 10
57.80132148509998
 20
-2.367267093099997
 30
0.0
  0
SPLINE
  5
5B1FF
330
1F
100
AcDbEntity
  8
1
100
AcDbSpline
210
0.0
220
0.0
230
1.0
 70
     8
 71
     3
 72
     8
 73
     4
 74
     0
 42
0.0000000001
 43
0.0000000001
 40
0.0
 40
0.0
 40
0.0
 40
0.0
 40
1.0
 40
1.0
 40
1.0
 40
1.0
 10
57.48988944529997
 20
-35.9486823249
 30
0.0
 10
54.2751941889
 20
-36.0299504276
 30
0.0
 10
51.06048630910001
 20
-36.1107205417
 30
0.0
 10
47.84576677029997
 20
-36.19102236470001
 30
0.0
  0
SPLINE
  5
5B200
330
1F
100
AcDbEntity
  8
1
100
AcDbSpline
210
0.0
220
0.0
230
1.0
 70
     8
 71
     3
 72
    10
 73
     6
 74
     0
 42
0.0000000001
 43
0.0000000001
 40
0.0
 40
0.0
 40
0.0
 40
0.0
 40
0.0584063918
 40
0.1171804878
 40
0.1189345799341735
 40
0.1189345799341735
 40
0.1189345799341735
 40
0.1189345799341735
 10
45.48186675970001
 20
-16.54097325660001
 30
0.0
 10
45.48269914339999
 20
-16.4856838507
 30
0.0
 10
45.49172827849997
 20
-16.3747230646
 30
0.0
 10
45.51584324552743
 20
-16.26440804528151
 30
0.0
 10
45.53188750520203
 20
-16.20935314790606
 30
0.0
 10
45.53235562375468
 20
-16.20775859419884
 30
0.0
  0
SPLINE
  5
5B201
330
1F
100
AcDbEntity
  8
1
100
AcDbSpline
210
0.0
220
0.0
230
1.0
 70
     8
 71
     3
 72
    13
 73
     9
 74
     0
 42
0.0000000001
 43
0.0000000001
 40
0.1189345799341735
 40
0.1189345799341735
 40
0.1189345799341735
 40
0.1189345799341735
 40
0.1764972256
 40
0.2364889034
 40
0.3585331568
 40
0.483560498
 40
0.6109929256000001
 40
0.724411975045611
 40
0.724411975045611
 40
0.724411975045611
 40
0.724411975045611
 10
45.53235562375468
 20
-16.20775859419884
 30
0.0
 10
45.54771749776904
 20
-16.15543139413025
 30
0.0
 10
45.58603871862644
 20
-16.05060054402189
 30
0.0
 10
45.69074856430001
 20
-15.8487619838
 30
0.0
 10
45.8725907136
 20
-15.6180595225
 30
0.0
 10
46.15006575599998
 20
-15.3934530722
 30
0.0
 10
46.45768656360965
 20
-15.23005503181511
 30
0.0
 10
46.67380966135579
 20
-15.15553372763121
 30
0.0
 10
46.77756140168327
 20
-15.12717965440689
 30
0.0
  0
SPLINE
  5
5B202
330
1F
100
AcDbEntity
  8
1
100
AcDbSpline
210
0.0
220
0.0
230
1.0
 70
     8
 71
     3
 72
     9
 73
     5
 74
     0
 42
0.0000000001
 43
0.0000000001
 40
0.724411975045611
 40
0.724411975045611
 40
0.724411975045611
 40
0.724411975045611
 40
0.7400771667
 40
1.0
 40
1.0
 40
1.0
 40
1.0
 10
46.77756140168327
 20
-15.12717965440689
 30
0.0
 10
46.79189136569414
 20
-15.12326345167541
 30
0.0
 10
47.04465320872486
 20
-15.05662962353182
 30
0.0
 10
47.3082395829
 20
-15.0293013114
 30
0.0
 10
47.5542848403
 20
-15.03339804090001
 30
0.0
  0
SPLINE
  5
5B203
330
1F
100
AcDbEntity
  8
1
100
AcDbSpline
210
0.0
220
0.0
230
1.0
 70
     8
 71
     3
 72
     8
 73
     4
 74
     0
 42
0.0000000001
 43
0.0000000001
 40
0.0
 40
0.0
 40
0.0
 40
0.0
 40
1.0
 40
1.0
 40
1.0
 40
1.0
 10
33.23602649670002
 20
-18.30371398170001
 30
0.0
 10
34.4000909344
 20
-18.54699243429999
 30
0.0
 10
35.56419461139999
 20
-18.79008319570001
 30
0.0
 10
36.72833452490002
 20
-19.0330002239
 30
0.0
  0
SPLINE
  5
5B204
330
1F
100
AcDbEntity
  8
1
100
AcDbSpline
210
0.0
220
0.0
230
1.0
 70
     8
 71
     3
 72
     9
 73
     5
 74
     0
 42
0.0000000001
 43
0.0000000001
 40
0.0
 40
0.0
 40
0.0
 40
0.0
 40
0.2535127323
 40
1.0
 40
1.0
 40
1.0
 40
1.0
 10
45.5323364507
 20
-16.2077529655
 30
0.0
 10
45.53650478060001
 20
-16.21739864860001
 30
0.0
 10
45.55421646590002
 20
-16.25488278990001
 30
0.0
 10
45.57715611099999
 20
-16.28991849170001
 30
0.0
 10
45.59683620979996
 20
-16.3137940504
 30
0.0
  0
SPLINE
  5
5B205
330
1F
100
AcDbEntity
  8
1
100
AcDbSpline
210
0.0
220
0.0
230
1.0
 70
     8
 71
     3
 72
    24
 73
    20
 74
     0
 42
0.0000000001
 43
0.0000000001
 40
0.0
 40
0.0
 40
0.0
 40
0.0
 40
0.2263639468
 40
0.4272303486000001
 40
0.5994067589000001
 40
0.6742888679000001
 40
0.7415517187000003
 40
0.801135816
 40
0.852955765
 40
0.8969323921999999
 40
0.9330112278999999
 40
0.9480687446000001
 40
0.9611279339999999
 40
0.9721889603000001
 40
0.9812667729999999
 40
0.9883949891
 40
0.9936557645999998
 40
0.9972803006999999
 40
1.0
 40
1.0
 40
1.0
 40
1.0
 10
56.88342615409999
 20
27.5519620938
 30
0.0
 10
56.82084038330001
 20
27.46854539969999
 30
0.0
 10
56.7150744713
 20
27.3014023639
 30
0.0
 10
56.60218462220001
 20
27.04858563010001
 30
0.0
 10
56.54083085589999
 20
26.8511210466
 30
0.0
 10
56.5081072968
 20
26.7100263251
 30
0.0
 10
56.4908149021
 20
26.61868872369999
 30
0.0
 10
56.47838681759996
 20
26.53730659769998
 30
0.0
 10
56.46980493519999
 20
26.46622858789999
 30
0.0
 10
56.46427801310005
 20
26.40571858889999
 30
0.0
 10
56.46157408229999
 20
26.3619749825
 30
0.0
 10
56.46062748100002
 20
26.3324129451
 30
0.0
 10
56.46048565509997
 20
26.31436341910001
 30
0.0
 10
56.46084831709998
 20
26.2990667915
 30
0.0
 10
56.46173034
 20
26.2865383523
 30
0.0
 10
56.46311231819999
 20
26.2767107224
 30
0.0
 10
56.465077774
 20
26.2696166882
 30
0.0
 10
56.4676585654
 20
26.26473228769999
 30
0.0
 10
56.47059732080001
 20
26.26339492039999
 30
0.0
 10
56.47185027369999
 20
26.2633949294
 30
0.0
  0
SPLINE
  5
5B206
330
1F
100
AcDbEntity
  8
1
100
AcDbSpline
210
0.0
220
0.0
230
1.0
 70
     8
 71
     3
 72
    15
 73
    11
 74
     0
 42
0.0000000001
 43
0.0000000001
 40
0.0
 40
0.0
 40
0.0
 40
0.0
 40
0.2353643341
 40
0.4353584871000001
 40
0.6005769274000004
 40
0.7319593284999999
 40
0.8310671428
 40
0.9011739945999998
 40
0.9508666006999998
 40
1.0
 40
1.0
 40
1.0
 40
1.0
 10
56.89282772080002
 20
27.65023890949999
 30
0.0
 10
56.88837649689998
 20
27.6428982865
 30
0.0
 10
56.88037520930001
 20
27.62917676369999
 30
0.0
 10
56.8701651298
 20
27.6097855936
 30
0.0
 10
56.8626234923
 20
27.5933071531
 30
0.0
 10
56.85759336860002
 20
27.57975211900001
 30
0.0
 10
56.8550576328
 20
27.56905373139999
 30
0.0
 10
56.85466092490003
 20
27.56099221619999
 30
0.0
 10
56.85740628490001
 20
27.5549354882
 30
0.0
 10
56.86120489509997
 20
27.5537332462
 30
0.0
 10
56.86299092040002
 20
27.5535857055
 30
0.0
  0
SPLINE
  5
5B207
330
1F
100
AcDbEntity
  8
1
100
AcDbSpline
210
0.0
220
0.0
230
1.0
 70
     8
 71
     3
 72
    13
 73
     9
 74
     0
 42
0.0000000001
 43
0.0000000001
 40
0.0
 40
0.0
 40
0.0
 40
0.0
 40
0.113821479
 40
0.2302694536
 40
0.3499808808
 40
0.4733125807
 40
0.7303205212
 40
1.0
 40
1.0
 40
1.0
 40
1.0
 10
30.46651144570001
 20
-19.24567134300001
 30
0.0
 10
30.5314298543
 20
-19.1477485443
 30
0.0
 10
30.68096672490003
 20
-18.96112494420001
 30
0.0
 10
30.95318626720001
 20
-18.7211846615
 30
0.0
 10
31.26932768960001
 20
-18.5237849373
 30
0.0
 10
31.74585847750001
 20
-18.32084440630001
 30
0.0
 10
32.41530797959999
 20
-18.19943358580001
 30
0.0
 10
32.96354853759999
 20
-18.24676654469999
 30
0.0
 10
33.2360266794
 20
-18.303711898
 30
0.0
  0
SPLINE
  5
5B208
330
1F
100
AcDbEntity
  8
1
100
AcDbSpline
210
0.0
220
0.0
230
1.0
 70
     8
 71
     3
 72
    10
 73
     6
 74
     0
 42
0.0000000001
 43
0.0000000001
 40
0.0
 40
0.0
 40
0.0
 40
0.0
 40
0.5033928134000001
 40
0.7538096593000001
 40
1.0
 40
1.0
 40
1.0
 40
1.0
 10
61.46590295990001
 20
-9.911202884499999
 30
0.0
 10
61.47258517970001
 20
-9.954851142800009
 30
0.0
 10
61.48163167439998
 20
-10.0203850229
 30
0.0
 10
61.48990637970001
 20
-10.1077166392
 30
0.0
 10
61.49206629560001
 20
-10.1512704025
 30
0.0
 10
61.49206629560001
 20
-10.17286581670001
 30
0.0
  0
SPLINE
  5
5B209
330
1F
100
AcDbEntity
  8
1
100
AcDbSpline
210
0.0
220
0.0
230
1.0
 70
     8
 71
     3
 72
     9
 73
     5
 74
     0
 42
0.0000000001
 43
0.0000000001
 40
0.0
 40
0.0
 40
0.0
 40
0.0
 40
0.2618743343
 40
1.0
 40
1.0
 40
1.0
 40
1.0
 10
61.46590295990001
 20
-23.3165339498
 30
0.0
 10
61.46729307110001
 20
-23.31181791110001
 30
0.0
 10
61.47254839729999
 20
-23.2937938277
 30
0.0
 10
61.4775846739
 20
-23.27570375130001
 30
0.0
 10
61.4810575877
 20
-23.26228777960002
 30
0.0
  0
SPLINE
  5
5B20A
330
1F
100
AcDbEntity
  8
1
100
AcDbSpline
210
0.0
220
0.0
230
1.0
 70
     8
 71
     3
 72
     9
 73
     5
 74
     0
 42
0.0000000001
 43
0.0000000001
 40
0.0
 40
0.0
 40
0.0
 40
0.0
 40
0.5208637791
 40
1.0
 40
1.0
 40
1.0
 40
1.0
 10
61.4719629436
 20
-17.494346799
 30
0.0
 10
61.4780255087
 20
-17.4890318545
 30
0.0
 10
61.48830945990005
 20
-17.4768359872
 30
0.0
 10
61.49206629560001
 20
-17.46113508429999
 30
0.0
 10
61.49206629560001
 20
-17.453718522
 30
0.0
  0
SPLINE
  5
5B20B
330
1F
100
AcDbEntity
  8
1
100
AcDbSpline
210
0.0
220
0.0
230
1.0
 70
     8
 71
     3
 72
     9
 73
     5
 74
     0
 42
0.0000000001
 43
0.0000000001
 40
0.0
 40
0.0
 40
0.0
 40
0.0
 40
0.248151601
 40
1.0
 40
1.0
 40
1.0
 40
1.0
 10
60.06539302580001
 20
-6.495927242299998
 30
0.0
 10
60.06375493119998
 20
-6.503973562400005
 30
0.0
 10
60.05606201750001
 20
-6.536169877100007
 30
0.0
 10
60.04394801740002
 20
-6.567284247300008
 30
0.0
 10
60.03275146819999
 20
-6.589501142800003
 30
0.0
  0
SPLINE
  5
5B20C
330
1F
100
AcDbEntity
  8
1
100
AcDbSpline
210
0.0
220
0.0
230
1.0
 70
     8
 71
     3
 72
     9
 73
     5
 74
     0
 42
0.0000000001
 43
0.0000000001
 40
0.0
 40
0.0
 40
0.0
 40
0.0
 40
0.502033795
 40
1.0
 40
1.0
 40
1.0
 40
1.0
 10
41.99137068099997
 20
27.563394768
 30
0.0
 10
42.18851945549999
 20
27.56338938500001
 30
0.0
 10
42.58263171639998
 20
27.6164495737
 30
0.0
 10
42.9510823727
 20
27.7641485338
 30
0.0
 10
43.12256471199998
 20
27.85813879679998
 30
0.0
  0
LINE
  5
5B20D
330
1F
100
AcDbEntity
  8
1
100
AcDbLine
 10
43.12256471199998
 20
27.85813879679998
 30
0.0
 11
43.21846891709998
 21
27.9107675319
 31
0.0
  0
LINE
  5
5B20E
330
1F
100
AcDbEntity
  8
1
100
AcDbLine
 10
49.94544719360002
 20
-16.6226921235
 30
0.0
 11
49.34799803959998
 21
-16.35880164160001
 31
0.0
  0
SPLINE
  5
5B20F
330
1F
100
AcDbEntity
  8
1
100
AcDbSpline
210
0.0
220
0.0
230
1.0
 70
     8
 71
     3
 72
    11
 73
     7
 74
     0
 42
0.0000000001
 43
0.0000000001
 40
0.0
 40
0.0
 40
0.0
 40
0.0
 40
0.295564502
 40
0.5679091863
 40
0.8047255554999999
 40
1.0
 40
1.0
 40
1.0
 40
1.0
 10
60.63226946950002
 20
-18.1080982154
 30
0.0
 10
60.64985992619998
 20
-18.11050341820001
 30
0.0
 10
60.68400327540001
 20
-18.11297177430002
 30
0.0
 10
60.7324290748
 20
-18.1094498953
 30
0.0
 10
60.77364569009995
 20
-18.0989044652
 30
0.0
 10
60.79686352259995
 20
-18.0860938409
 30
0.0
 10
60.80568504310003
 20
-18.0783627206
 30
0.0
  0
LINE
  5
5B210
330
1F
100
AcDbEntity
  8
1
100
AcDbLine
 10
46.18045248939995
 20
-17.81544816130001
 30
0.0
 11
46.07105844590001
 21
-17.3561535872
 31
0.0
  0
SPLINE
  5
5B211
330
1F
100
AcDbEntity
  8
1
100
AcDbSpline
210
0.0
220
0.0
230
1.0
 70
     8
 71
     3
 72
     8
 73
     4
 74
     0
 42
0.0000000001
 43
0.0000000001
 40
0.0
 40
0.0
 40
0.0
 40
0.0
 40
0.0069892442347294
 40
0.0069892442347294
 40
0.0069892442347294
 40
0.0069892442347294
 10
49.35708178999999
 20
-16.32113758630001
 30
0.0
 10
49.35143394192715
 20
-16.31865383885189
 30
0.0
 10
49.34578603931263
 20
-16.31617021496371
 30
0.0
 10
49.34013808107121
 20
-16.31368671715912
 30
0.0
  0
SPLINE
  5
5B212
330
1F
100
AcDbEntity
  8
1
100
AcDbSpline
210
0.0
220
0.0
230
1.0
 70
     8
 71
     3
 72
    12
 73
     8
 74
     0
 42
0.0000000001
 43
0.0000000001
 40
0.0069892442347294
 40
0.0069892442347294
 40
0.0069892442347294
 40
0.0069892442347294
 40
0.2488687412
 40
0.4981376365
 40
0.7481743076999999
 40
0.8737420634000001
 40
1.0
 40
1.0
 40
1.0
 40
1.0
 10
49.34013808107121
 20
-16.31368671715912
 30
0.0
 10
49.14467699079708
 20
-16.22773934151815
 30
0.0
 10
48.7476482095941
 20
-16.05352553176141
 30
0.0
 10
48.14780331509999
 20
-15.7922123723
 30
0.0
 10
47.6410257096
 20
-15.57434680130002
 30
0.0
 10
47.23254179439999
 20
-15.4028377907
 30
0.0
 10
47.02673531709999
 20
-15.3187764892
 30
0.0
 10
46.92317030229998
 20
-15.27758484120001
 30
0.0
  0
SPLINE
  5
5B213
330
1F
100
AcDbEntity
  8
1
100
AcDbSpline
210
0.0
220
0.0
230
1.0
 70
     8
 71
     3
 72
    10
 73
     6
 74
     0
 42
0.0000000001
 43
0.0000000001
 40
0.0
 40
0.0
 40
0.0
 40
0.0
 40
0.4997243110000002
 40
0.7495355345000001
 40
1.0
 40
1.0
 40
1.0
 40
1.0
 10
46.07105844590001
 20
-17.3561535872
 30
0.0
 10
45.9738650653
 20
-17.19162160110001
 30
0.0
 10
45.8403356414
 20
-16.93723406719999
 30
0.0
 10
45.69003858799999
 20
-16.5854793032
 30
0.0
 10
45.62553337740001
 20
-16.4051716806
 30
0.0
 10
45.59683620979996
 20
-16.3137940504
 30
0.0
  0
SPLINE
  5
5B214
330
1F
100
AcDbEntity
  8
1
100
AcDbSpline
210
0.0
220
0.0
230
1.0
 70
     8
 71
     3
 72
    21
 73
    17
 74
     0
 42
0.0000000001
 43
0.0000000001
 40
0.0
 40
0.0
 40
0.0
 40
0.0
 40
0.0062047393
 40
0.0140849606
 40
0.0238412774
 40
0.035570595
 40
0.0650768711
 40
0.1026194023
 40
0.1479814803
 40
0.2007832605
 40
0.260558656
 40
0.326735503
 40
0.4757077588000004
 40
0.641937479
 40
0.8189810704999999
 40
1.0
 40
1.0
 40
1.0
 40
1.0
 10
30.15092887520001
 20
34.5361373707
 30
0.0
 10
30.15373170020001
 20
34.54225377250001
 30
0.0
 10
30.16259248599999
 20
34.5549562879
 30
0.0
 10
30.18126346459999
 20
34.5729284973
 30
0.0
 10
30.20678697700001
 20
34.59207380299999
 30
0.0
 10
30.2537022061
 20
34.62140942720001
 30
0.0
 10
30.33013960920002
 20
34.6598641658
 30
0.0
 10
30.44229119950001
 20
34.70767326939998
 30
0.0
 10
30.5799971923
 20
34.75964896719998
 30
0.0
 10
30.74187686170004
 20
34.81558494619999
 30
0.0
 10
30.9263226875
 20
34.87519622479999
 30
0.0
 10
31.2112951675
 20
34.9627437276
 30
0.0
 10
31.6085236687
 20
35.077826238
 30
0.0
 10
32.12275988549999
 20
35.22087279969999
 30
0.0
 10
32.67135308139998
 20
35.37003742920001
 30
0.0
 10
33.04635869570001
 20
35.47061995859997
 30
0.0
 10
33.23602667930001
 20
35.52115628439999
 30
0.0
  0
SPLINE
  5
5B215
330
1F
100
AcDbEntity
  8
1
100
AcDbSpline
210
0.0
220
0.0
230
1.0
 70
     8
 71
     3
 72
    14
 73
    10
 74
     0
 42
0.0000000001
 43
0.0000000001
 40
0.0
 40
0.0
 40
0.0
 40
0.0
 40
0.3439183295
 40
0.4916949757
 40
0.6236261891
 40
0.7399775239000001
 40
0.8410911322
 40
0.9274807856999998
 40
1.0
 40
1.0
 40
1.0
 40
1.0
 10
30.28195271070001
 20
32.4252130095
 30
0.0
 10
30.20878783990003
 20
32.66055470250001
 30
0.0
 10
30.12285553680002
 20
33.00358882819998
 30
0.0
 10
30.05875021560001
 20
33.44611431
 30
0.0
 10
30.03747118590002
 20
33.72939028929997
 30
0.0
 10
30.0376118543
 20
33.9800264717
 30
0.0
 10
30.05665442080001
 20
34.1972832551
 30
0.0
 10
30.09238602709999
 20
34.38052195510002
 30
0.0
 10
30.12927977369998
 20
34.4888941058
 30
0.0
 10
30.15092887520001
 20
34.5361373707
 30
0.0
  0
SPLINE
  5
5B216
330
1F
100
AcDbEntity
  8
1
100
AcDbSpline
210
0.0
220
0.0
230
1.0
 70
     8
 71
     3
 72
    25
 73
    21
 74
     0
 42
0.0000000001
 43
0.0000000001
 40
0.0
 40
0.0
 40
0.0
 40
0.0
 40
0.0409952352
 40
0.0815363664
 40
0.1216197856
 40
0.1612365414
 40
0.2389567862
 40
0.3146240152
 40
0.3880601671
 40
0.4590770407
 40
0.5274851186000003
 40
0.593097662
 40
0.6557335098000002
 40
0.7152208073000002
 40
0.7714027817
 40
0.8241479626
 40
0.8733641595999998
 40
0.9190191499
 40
0.9611690423999995
 40
1.0
 40
1.0
 40
1.0
 40
1.0
 10
36.72833452490002
 20
12.73719787249999
 30
0.0
 10
36.4460509271
 20
12.85687701639999
 30
0.0
 10
35.89682904630001
 20
13.12486991199999
 30
0.0
 10
35.12233586670002
 20
13.60443199119999
 30
0.0
 10
34.40456957830003
 20
14.14836728269999
 30
0.0
 10
33.5311886989
 20
14.93973714010001
 30
0.0
 10
32.58281434220001
 20
16.03611260639998
 30
0.0
 10
31.660272013
 20
17.46512143189999
 30
0.0
 10
30.9369132519
 20
18.94774093929999
 30
0.0
 10
30.38749125650003
 20
20.444431227
 30
0.0
 10
29.98664713459999
 20
21.9263553192
 30
0.0
 10
29.71117934110001
 20
23.3723860113
 30
0.0
 10
29.5407799985
 20
24.76702472389999
 30
0.0
 10
29.4583860578
 20
26.09875873769998
 30
0.0
 10
29.4501814784
 20
27.35892300090001
 30
0.0
 10
29.50559071580002
 20
28.540951854
 30
0.0
 10
29.61715555180001
 20
29.63990337939998
 30
0.0
 10
29.7805561989
 20
30.6522806804
 30
0.0
 10
29.99445586490003
 20
31.57571309949998
 30
0.0
 10
30.17911601430001
 20
32.1536106498
 30
0.0
 10
30.28195271070001
 20
32.4252130095
 30
0.0
  0
SPLINE
  5
5B217
330
1F
100
AcDbEntity
  8
1
100
AcDbSpline
210
0.0
220
0.0
230
1.0
 70
     8
 71
     3
 72
    15
 73
    11
 74
     0
 42
0.0000000001
 43
0.0000000001
 40
0.0
 40
0.0
 40
0.0
 40
0.0
 40
0.115482456
 40
0.2406306602
 40
0.3722864661
 40
0.5068259222
 40
0.6404320765
 40
0.7693495975
 40
0.8901450545999999
 40
1.0
 40
1.0
 40
1.0
 40
1.0
 10
50.1082393305
 20
-5.027100521200011
 30
0.0
 10
50.18947214029998
 20
-5.009466256799996
 30
0.0
 10
50.3615827482
 20
-4.985338286000001
 30
0.0
 10
50.6299674151
 20
-4.979353445599997
 30
0.0
 10
50.91121401590001
 20
-5.002086375700002
 30
0.0
 10
51.19493525330003
 20
-5.052739431600002
 30
0.0
 10
51.47070941109999
 20
-5.129446509600001
 30
0.0
 10
51.7284274511
 20
-5.229393608700007
 30
0.0
 10
51.95861784299999
 20
-5.348850659000007
 30
0.0
 10
52.09565691399999
 20
-5.443787721800006
 30
0.0
 10
52.15665671939999
 20
-5.4941041175
 30
0.0
  0
SPLINE
  5
5B218
330
1F
100
AcDbEntity
  8
1
100
AcDbSpline
210
0.0
220
0.0
230
1.0
 70
     8
 71
     3
 72
    15
 73
    11
 74
     0
 42
0.0000000001
 43
0.0000000001
 40
0.0
 40
0.0
 40
0.0
 40
0.0
 40
0.1286361617
 40
0.2557510549
 40
0.3808479753
 40
0.5042315768
 40
0.6267648891
 40
0.7496021680000001
 40
0.8738195043999999
 40
1.0
 40
1.0
 40
1.0
 40
1.0
 10
39.90429738910001
 20
29.4614751962
 30
0.0
 10
39.92090671170002
 20
29.34159298269998
 30
0.0
 10
39.97148379939998
 20
29.10527100670001
 30
0.0
 10
40.0988183751
 20
28.76889965389998
 30
0.0
 10
40.27442638099995
 20
28.46051873459999
 30
0.0
 10
40.49462871049999
 20
28.1876558938
 30
0.0
 10
40.75553429729999
 20
27.95646948859998
 30
0.0
 10
41.05281858900002
 20
27.7727253124
 30
0.0
 10
41.38056350299999
 20
27.64197735889999
 30
0.0
 10
41.6125245062
 20
27.5935537358
 30
0.0
 10
41.73036602759998
 20
27.5791633851
 30
0.0
  0
LINE
  5
5B219
330
1F
100
AcDbEntity
  8
1
100
AcDbLine
 10
43.21846891709998
 20
27.9107675319
 30
0.0
 11
56.862962998
 21
27.55249964439999
 31
0.0
  0
LINE
  5
5B21A
330
1F
100
AcDbEntity
  8
1
100
AcDbLine
 10
56.862962998
 20
27.55249964439999
 30
0.0
 11
56.88342615409999
 21
27.5519620938
 31
0.0
  0
SPLINE
  5
5B21B
330
1F
100
AcDbEntity
  8
1
100
AcDbSpline
210
0.0
220
0.0
230
1.0
 70
     8
 71
     3
 72
    31
 73
    27
 74
     0
 42
0.0000000001
 43
0.0000000001
 40
0.0
 40
0.0
 40
0.0
 40
0.0
 40
0.0625037931
 40
0.1250363708
 40
0.1875816775
 40
0.2501216309
 40
0.312633271
 40
0.3438996518
 40
0.3751563806
 40
0.4063997314
 40
0.4376235466
 40
0.4688206398000001
 40
0.4844460312
 40
0.5000716913000001
 40
0.5156987875
 40
0.5313280578000003
 40
0.562533278
 40
0.5937698500000002
 40
0.6250262429
 40
0.6562931520000001
 40
0.6875644005
 40
0.7500687705
 40
0.8125814056999999
 40
0.8750821605
 40
0.9375580431999999
 40
1.0
 40
1.0
 40
1.0
 40
1.0
 10
50.14989471759998
 20
-2.063989484299995
 30
0.0
 10
50.18091789529996
 20
-1.911664594900003
 30
0.0
 10
50.2522494611
 20
-1.608727669100005
 30
0.0
 10
50.38963759220002
 20
-1.162488040599995
 30
0.0
 10
50.56139602709999
 20
-0.7280038269000074
 30
0.0
 10
50.77318800670003
 20
-0.3114261446000057
 30
0.0
 10
50.99027909330001
 20
0.0128658648999931
 30
0.0
 10
51.19421872599997
 20
0.2481631027999924
 30
0.0
 10
51.36442857590001
 20
0.4083007849000069
 30
0.0
 10
51.55375492569999
 20
0.5456544440999949
 30
0.0
 10
51.76315134340001
 20
0.6505819451999884
 30
0.0
 10
51.9531897437
 20
0.6993907201999861
 30
0.0
 10
52.10874739639999
 20
0.707490312600001
 30
0.0
 10
52.22528045659998
 20
0.6969350725999988
 30
0.0
 10
52.33901641980001
 20
0.6693713598999978
 30
0.0
 10
52.48357246330002
 20
0.6111927736999974
 30
0.0
 10
52.64692571330002
 20
0.5020667210999932
 30
0.0
 10
52.80809943599999
 20
0.3318163359999886
 30
0.0
 10
52.93776811169999
 20
0.1369549884999941
 30
0.0
 10
53.04049800740003
 20
-0.0730692630000078
 30
0.0
 10
53.14738922999999
 20
-0.3655662923999898
 30
0.0
 10
53.23411594849995
 20
-0.7460061493000012
 30
0.0
 10
53.28303046920002
 20
-1.21054156160001
 30
0.0
 10
53.2889284638
 20
-1.677361270500014
 30
0.0
 10
53.2595515632
 20
-2.142915277
 30
0.0
 10
53.2198409197
 20
-2.451277490700007
 30
0.0
 10
53.1955245046
 20
-2.604660118600008
 30
0.0
  0
SPLINE
  5
5B21C
330
1F
100
AcDbEntity
  8
1
100
AcDbSpline
210
0.0
220
0.0
230
1.0
 70
     8
 71
     3
 72
     9
 73
     5
 74
     0
 42
0.0000000001
 43
0.0000000001
 40
0.0
 40
0.0
 40
0.0
 40
0.0
 40
0.4997885959000001
 40
1.0
 40
1.0
 40
1.0
 40
1.0
 10
30.1509288753
 20
-20.1854551693
 30
0.0
 10
30.1613899194
 20
-20.01919180030002
 30
0.0
 10
30.22530798490001
 20
-19.68763997560001
 30
0.0
 10
30.37438197810002
 20
-19.384639249
 30
0.0
 10
30.46651144570001
 20
-19.24567134300001
 30
0.0
  0
SPLINE
  5
5B21D
330
1F
100
AcDbEntity
  8
1
100
AcDbSpline
210
0.0
220
0.0
230
1.0
 70
     8
 71
     3
 72
    11
 73
     7
 74
     0
 42
0.0000000001
 43
0.0000000001
 40
0.0
 40
0.0
 40
0.0
 40
0.0
 40
0.2303712244
 40
0.4735841067
 40
0.7301955734000001
 40
1.0
 40
1.0
 40
1.0
 40
1.0
 10
30.28195271070001
 20
-26.99927361290002
 30
0.0
 10
30.19964641279998
 20
-26.4815044102
 30
0.0
 10
30.08455248340002
 20
-25.40829160900001
 30
0.0
 10
30.02579336740001
 20
-23.7467535072
 30
0.0
 10
30.05202664830003
 20
-21.99492200910002
 30
0.0
 10
30.11237246759999
 20
-20.79825425020002
 30
0.0
 10
30.1509288753
 20
-20.1854551693
 30
0.0
  0
SPLINE
  5
5B21E
330
1F
100
AcDbEntity
  8
1
100
AcDbSpline
210
0.0
220
0.0
230
1.0
 70
     8
 71
     3
 72
    13
 73
     9
 74
     0
 42
0.0000000001
 43
0.0000000001
 40
0.0
 40
0.0
 40
0.0
 40
0.0
 40
0.2569339407
 40
0.5082160165000002
 40
0.6321813694000003
 40
0.7552111702
 40
0.8776653804
 40
1.0
 40
1.0
 40
1.0
 40
1.0
 10
46.18045248939995
 20
-17.81544816130001
 30
0.0
 10
46.07798826679998
 20
-17.7371058936
 30
0.0
 10
45.88780306979995
 20
-17.56470530600001
 30
0.0
 10
45.6976848921
 20
-17.30726852330001
 30
0.0
 10
45.58621496279997
 20
-17.08271941340001
 30
0.0
 10
45.52504448249999
 20
-16.9070571506
 30
0.0
 10
45.48814641130002
 20
-16.72556527269999
 30
0.0
 10
45.48094229489999
 20
-16.60237896230001
 30
0.0
 10
45.48186675970001
 20
-16.54097325660001
 30
0.0
  0
SPLINE
  5
5B21F
330
1F
100
AcDbEntity
  8
1
100
AcDbSpline
210
0.0
220
0.0
230
1.0
 70
     8
 71
     3
 72
    19
 73
    15
 74
     0
 42
0.0000000001
 43
0.0000000001
 40
0.0
 40
0.0
 40
0.0
 40
0.0
 40
0.1389711582
 40
0.2865505927
 40
0.4356997119
 40
0.5792002365
 40
0.6467828965
 40
0.7106056261
 40
0.7701143008
 40
0.8249363216999999
 40
0.8749394418999999
 40
0.9203085453999999
 40
0.9616360226000001
 40
1.0
 40
1.0
 40
1.0
 40
1.0
 10
57.93514591740001
 20
-5.424943362800007
 30
0.0
 10
58.05246158920002
 20
-5.413088966800003
 30
0.0
 10
58.29656212580002
 20
-5.408510530300006
 30
0.0
 10
58.6647901268
 20
-5.450192506100009
 30
0.0
 10
59.02888514290001
 20
-5.537623024500007
 30
0.0
 10
59.31571311549999
 20
-5.646175326200008
 30
0.0
 10
59.52364222799999
 20
-5.752316936799999
 30
0.0
 10
59.66169114670001
 20
-5.8374450453
 30
0.0
 10
59.78278229119997
 20
-5.928320576000004
 30
0.0
 10
59.88503154009999
 20
-6.023572429899999
 30
0.0
 10
59.9668428873
 20
-6.121805215500003
 30
0.0
 10
60.02687304630001
 20
-6.221704639400009
 30
0.0
 10
60.06393671970002
 20
-6.321875750700009
 30
0.0
 10
60.0727599201
 20
-6.389691917900009
 30
0.0
 10
60.0727599201
 20
-6.422242661799998
 30
0.0
  0
SPLINE
  5
5B220
330
1F
100
AcDbEntity
  8
1
100
AcDbSpline
210
0.0
220
0.0
230
1.0
 70
     8
 71
     3
 72
     9
 73
     5
 74
     0
 42
0.0000000001
 43
0.0000000001
 40
0.0
 40
0.0
 40
0.0
 40
0.0
 40
0.4636526311
 40
1.0
 40
1.0
 40
1.0
 40
1.0
 10
44.6823217648
 20
36.7945560805
 30
0.0
 10
44.76025015279995
 20
36.79664677019997
 30
0.0
 10
44.92836647240003
 20
36.79957013330001
 30
0.0
 10
45.09649639840001
 20
36.80097576200001
 30
0.0
 10
45.18667374699998
 20
36.80151949949999
 30
0.0
  0
SPLINE
  5
5B221
330
1F
100
AcDbEntity
  8
1
100
AcDbSpline
210
0.0
220
0.0
230
1.0
 70
     8
 71
     3
 72
     9
 73
     5
 74
     0
 42
0.0000000001
 43
0.0000000001
 40
0.0
 40
0.0
 40
0.0
 40
0.0
 40
0.4999219423
 40
1.0
 40
1.0
 40
1.0
 40
1.0
 10
57.86299642920003
 20
-2.025599082699997
 30
0.0
 10
57.9117583828
 20
-1.786152267700003
 30
0.0
 10
58.03214966029997
 20
-1.311523260800001
 30
0.0
 10
58.20600852479998
 20
-0.8528854855000105
 30
0.0
 10
58.30969188880001
 20
-0.6315270315000064
 30
0.0
  0
SPLINE
  5
5B222
330
1F
100
AcDbEntity
  8
1
100
AcDbSpline
210
0.0
220
0.0
230
1.0
 70
     8
 71
     3
 72
    11
 73
     7
 74
     0
 42
0.0000000001
 43
0.0000000001
 40
0.0
 40
0.0
 40
0.0
 40
0.0
 40
0.3394426072
 40
0.6233608279000002
 40
0.84514712
 40
1.0
 40
1.0
 40
1.0
 40
1.0
 10
41.73080798159998
 20
31.90765478989999
 30
0.0
 10
41.70758794080001
 20
31.90392675119999
 30
0.0
 10
41.66496856079999
 20
31.89695813929998
 30
0.0
 10
41.60712688420002
 20
31.88778889229999
 30
0.0
 10
41.5617827506
 20
31.88170030729998
 30
0.0
 10
41.53572429709996
 20
31.8794906454
 30
0.0
 10
41.52499571270001
 20
31.8794906454
 30
0.0
  0
SPLINE
  5
5B223
330
1F
100
AcDbEntity
  8
1
100
AcDbSpline
210
0.0
220
0.0
230
1.0
 70
     8
 71
     3
 72
    11
 73
     7
 74
     0
 42
0.0000000001
 43
0.0000000001
 40
0.0
 40
0.0
 40
0.0
 40
0.0
 40
0.2507202675
 40
0.5009099893000001
 40
0.7506349992
 40
1.0
 40
1.0
 40
1.0
 40
1.0
 10
41.36766612579998
 20
28.20752084719999
 30
0.0
 10
41.44119266380002
 20
28.13288339080001
 30
0.0
 10
41.5990789699
 20
27.994149018
 30
0.0
 10
41.86304465870001
 20
27.82273281939998
 30
0.0
 10
42.14854453529997
 20
27.6915918629
 30
0.0
 10
42.3495597491
 20
27.6328034581
 30
0.0
 10
42.45144440839999
 20
27.61093870379999
 30
0.0
  0
SPLINE
  5
5B224
330
1F
100
AcDbEntity
  8
1
100
AcDbSpline
210
0.0
220
0.0
230
1.0
 70
     8
 71
     3
 72
    17
 73
    13
 74
     0
 42
0.0000000001
 43
0.0000000001
 40
0.0
 40
0.0
 40
0.0
 40
0.0
 40
0.1251767936
 40
0.1877815183
 40
0.2503728605
 40
0.3754448398
 40
0.5004552140000002
 40
0.562970723
 40
0.6254709885000001
 40
0.7503607918000002
 40
0.8752000418000001
 40
1.0
 40
1.0
 40
1.0
 40
1.0
 10
33.2360264644
 20
35.52115628439999
 30
0.0
 10
33.35554687389998
 20
35.1461228794
 30
0.0
 10
33.57207815670003
 20
34.59438786099999
 30
0.0
 10
33.93044408040001
 20
33.89293048410002
 30
0.0
 10
34.33381841420001
 20
33.21660425050001
 30
0.0
 10
34.91967883310002
 20
32.4232933982
 30
0.0
 10
35.60426608310002
 20
31.7137272319
 30
0.0
 10
36.20355836150003
 20
31.2040663406
 30
0.0
 10
36.83469500839999
 20
30.73508042570001
 30
0.0
 10
37.6792792846
 20
30.22835963439998
 30
0.0
 10
38.76291114590001
 20
29.7591196842
 30
0.0
 10
39.52056831580004
 20
29.5436603977
 30
0.0
 10
39.90429913080001
 20
29.46147519650001
 30
0.0
  0
SPLINE
  5
5B225
330
1F
100
AcDbEntity
  8
1
100
AcDbSpline
210
0.0
220
0.0
230
1.0
 70
     8
 71
     3
 72
     8
 73
     4
 74
     0
 42
0.0000000001
 43
0.0000000001
 40
0.0
 40
0.0
 40
0.0
 40
0.0
 40
1.0
 40
1.0
 40
1.0
 40
1.0
 10
33.2360264644
 20
35.52115628439999
 30
0.0
 10
34.40003414700001
 20
35.83130178359997
 30
0.0
 10
35.56413936459998
 20
36.14108142189997
 30
0.0
 10
36.72833452490002
 20
36.4505224417
 30
0.0
  0
SPLINE
  5
5B226
330
1F
100
AcDbEntity
  8
1
100
AcDbSpline
210
0.0
220
0.0
230
1.0
 70
     8
 71
     3
 72
    17
 73
    13
 74
     0
 42
0.0000000001
 43
0.0000000001
 40
0.0
 40
0.0
 40
0.0
 40
0.0
 40
0.1190388252
 40
0.2415064371
 40
0.3659375085
 40
0.4286876562
 40
0.4916930496
 40
0.6182205344
 40
0.7452693258
 40
0.8089411253000001
 40
0.8726493381
 40
1.0
 40
1.0
 40
1.0
 40
1.0
 10
30.28195271070001
 20
32.4252130095
 30
0.0
 10
30.5423688171
 20
31.99434159590001
 30
0.0
 10
31.11920672000002
 20
31.1483176237
 30
0.0
 10
32.13685007650003
 20
29.9775978957
 30
0.0
 10
33.11311613759997
 20
29.09911526150001
 30
0.0
 10
33.96317188660001
 20
28.4679935856
 30
0.0
 10
34.8589877622
 20
27.88719537929998
 30
0.0
 10
36.0507067328
 20
27.268229835
 30
0.0
 10
37.3153694259
 20
26.80796713010001
 30
0.0
 10
38.3585498921
 20
26.54106655679999
 30
0.0
 10
39.41816030799998
 20
26.34338059099999
 30
0.0
 10
40.22646629159999
 20
26.27469555670001
 30
0.0
 10
40.7649917144
 20
26.26524672699999
 30
0.0
  0
SPLINE
  5
5B227
330
1F
100
AcDbEntity
  8
1
100
AcDbSpline
210
0.0
220
0.0
230
1.0
 70
     8
 71
     3
 72
    15
 73
    11
 74
     0
 42
0.0000000001
 43
0.0000000001
 40
0.0
 40
0.0
 40
0.0
 40
0.0
 40
0.1252184183
 40
0.2503791931
 40
0.3754721174
 40
0.5004932193000001
 40
0.6254450566
 40
0.7503364909
 40
0.8751818768999999
 40
1.0
 40
1.0
 40
1.0
 40
1.0
 10
30.15092887520001
 20
34.5361373707
 30
0.0
 10
30.33791885380003
 20
33.96171332300003
 30
0.0
 10
30.79925189759999
 20
32.83950928679998
 30
0.0
 10
31.73551763130002
 20
31.28118091080001
 30
0.0
 10
32.89517045049999
 20
29.88180203660002
 30
0.0
 10
34.25164224099999
 20
28.6738803852
 30
0.0
 10
35.7739808735
 20
27.68489762840002
 30
0.0
 10
37.42755311900001
 20
26.9374879313
 30
0.0
 10
39.17404192230004
 20
26.44873755410001
 30
0.0
 10
40.37512718560001
 20
26.30269202439999
 30
0.0
 10
40.97667573409998
 20
26.275523585
 30
0.0
  0
SPLINE
  5
5B228
330
1F
100
AcDbEntity
  8
1
100
AcDbSpline
210
0.0
220
0.0
230
1.0
 70
     8
 71
     3
 72
    32
 73
    28
 74
     0
 42
0.0000000001
 43
0.0000000001
 40
0.0
 40
0.0
 40
0.0
 40
0.0
 40
0.005198536
 40
0.0132907848
 40
0.0237160324
 40
0.0359185831
 40
0.0639558104
 40
0.0950253105
 40
0.1278856718
 40
0.1618743354
 40
0.1966141497
 40
0.2318755172
 40
0.3034132118
 40
0.3757533563
 40
0.4484690161
 40
0.5212305651
 40
0.5936881218
 40
0.6653673968
 40
0.7355358244
 40
0.8030240116999999
 40
0.86601774
 40
0.8950517195999998
 40
0.9219384073
 40
0.9462668281
 40
0.9676254906999998
 40
0.985633711
 40
1.0
 40
1.0
 40
1.0
 40
1.0
 10
49.1668569032
 20
26.263738823
 30
0.0
 10
49.1767980962
 20
26.2644977834
 30
0.0
 10
49.2021037547
 20
26.26768619459998
 30
0.0
 10
49.24714042019999
 20
26.27399707519999
 30
0.0
 10
49.30540906880001
 20
26.2827397327
 30
0.0
 10
49.4014622313
 20
26.297412755
 30
0.0
 10
49.53663580349999
 20
26.3182025208
 30
0.0
 10
49.71105826990001
 20
26.34441630359999
 30
0.0
 10
49.89691507990002
 20
26.37133701949999
 30
0.0
 10
50.08992065300001
 20
26.39798055129998
 30
0.0
 10
50.28769015439999
 20
26.42375109429999
 30
0.0
 10
50.55715649729996
 20
26.45655643619999
 30
0.0
 10
50.89877125340001
 20
26.4933470254
 30
0.0
 10
51.31268253599998
 20
26.528901322
 30
0.0
 10
51.72971532859998
 20
26.5541584532
 30
0.0
 10
52.1475508277
 20
26.5672155887
 30
0.0
 10
52.56362289470001
 20
26.5661725873
 30
0.0
 10
52.9744019281
 20
26.54933681750001
 30
0.0
 10
53.37460723310002
 20
26.51575719789999
 30
0.0
 10
53.75637007539999
 20
26.4662894831
 30
0.0
 10
54.05785177869995
 20
26.4138262907
 30
0.0
 10
54.28149987730001
 20
26.36915609869999
 30
0.0
 10
54.43212172670001
 20
26.3375120641
 30
0.0
 10
54.56830769879999
 20
26.30878880879999
 30
0.0
 10
54.68818204080003
 20
26.28515025819999
 30
0.0
 10
54.78993047910001
 20
26.2688153873
 30
0.0
 10
54.85196173290001
 20
26.26339490719998
 30
0.0
 10
54.87951442429999
 20
26.2633949294
 30
0.0
  0
SPLINE
  5
5B229
330
1F
100
AcDbEntity
  8
1
100
AcDbSpline
210
0.0
220
0.0
230
1.0
 70
     8
 71
     3
 72
    19
 73
    15
 74
     0
 42
0.0000000001
 43
0.0000000001
 40
0.0
 40
0.0
 40
0.0
 40
0.0
 40
0.0287062456
 40
0.0396322724
 40
0.0523130349
 40
0.0831604893
 40
0.1214872656
 40
0.1673155463
 40
0.2205916269
 40
0.281179968
 40
0.4234896712
 40
0.5923876366
 40
0.7854837305000001
 40
1.0
 40
1.0
 40
1.0
 40
1.0
 10
41.5139920478
 20
26.2633949294
 30
0.0
 10
41.5269230012
 20
26.2633948841
 30
0.0
 10
41.54213932369998
 20
26.2790539557
 30
0.0
 10
41.55418373479998
 20
26.29863007039998
 30
0.0
 10
41.56542371910001
 20
26.32064320309999
 30
0.0
 10
41.57872402420003
 20
26.35500695539999
 30
0.0
 10
41.5937982449
 20
26.4046350056
 30
0.0
 10
41.60860668790002
 20
26.46475507359999
 30
0.0
 10
41.62313276279999
 20
26.535224785
 30
0.0
 10
41.64308684229999
 20
26.6488934913
 30
0.0
 10
41.66613944639999
 20
26.81482641379998
 30
0.0
 10
41.6905413366
 20
27.0407001592
 30
0.0
 10
41.71248536499999
 20
27.29948403789999
 30
0.0
 10
41.72466222420001
 20
27.48270133519999
 30
0.0
 10
41.73036602759998
 20
27.5791633851
 30
0.0
  0
SPLINE
  5
5B22A
330
1F
100
AcDbEntity
  8
1
100
AcDbSpline
210
0.0
220
0.0
230
1.0
 70
     8
 71
     3
 72
    14
 73
    10
 74
     0
 42
0.0000000001
 43
0.0000000001
 40
0.0
 40
0.0
 40
0.0
 40
0.0
 40
0.2595838591
 40
0.3878981413
 40
0.5146326836
 40
0.6394416531
 40
0.7619994220000002
 40
0.8821187720999999
 40
1.0
 40
1.0
 40
1.0
 40
1.0
 10
47.84576677029997
 20
-15.05206584250001
 30
0.0
 10
48.08520379229998
 20
-15.07927255050001
 30
0.0
 10
48.44009198770002
 20
-15.16333946460001
 30
0.0
 10
48.87806656889996
 20
-15.3562965472
 30
0.0
 10
49.18091312060003
 20
-15.5391171361
 30
0.0
 10
49.45117487249999
 20
-15.7591944537
 30
0.0
 10
49.6794006252
 20
-16.01504071560001
 30
0.0
 10
49.8534808514
 20
-16.30338990860001
 30
0.0
 10
49.92432760939999
 20
-16.5153175187
 30
0.0
 10
49.94544719360002
 20
-16.6226921235
 30
0.0
  0
SPLINE
  5
5B22B
330
1F
100
AcDbEntity
  8
1
100
AcDbSpline
210
0.0
220
0.0
230
1.0
 70
     8
 71
     3
 72
     8
 73
     4
 74
     0
 42
0.0000000001
 43
0.0000000001
 40
0.0
 40
0.0
 40
0.0
 40
0.0
 40
1.0
 40
1.0
 40
1.0
 40
1.0
 10
57.48988944529997
 20
12.54874028709999
 30
0.0
 10
54.2751941889
 20
12.46747218439998
 30
0.0
 10
51.06048630910001
 20
12.38670207019999
 30
0.0
 10
47.84576677029997
 20
12.30640024719999
 30
0.0
  0
SPLINE
  5
5B22C
330
1F
100
AcDbEntity
  8
1
100
AcDbSpline
210
0.0
220
0.0
230
1.0
 70
     8
 71
     3
 72
    15
 73
    11
 74
     0
 42
0.0000000001
 43
0.0000000001
 40
0.0
 40
0.0
 40
0.0
 40
0.0
 40
0.1107197858
 40
0.2318155618
 40
0.3605703070000001
 40
0.4937237009000003
 40
0.6277306897
 40
0.7589929193000004
 40
0.8840856506999998
 40
1.0
 40
1.0
 40
1.0
 40
1.0
 10
52.17366803259998
 20
-5.467023351799994
 30
0.0
 10
52.1106330973
 20
-5.417064233800005
 30
0.0
 10
51.97028598660001
 20
-5.322860853199998
 30
0.0
 10
51.73625161929999
 20
-5.20413582990001
 30
0.0
 10
51.47585366779998
 20
-5.104780783999999
 30
0.0
 10
51.19816550569999
 20
-5.028306959800005
 30
0.0
 10
50.9128346604
 20
-4.977373660400004
 30
0.0
 10
50.62979209489999
 20
-4.953758222800004
 30
0.0
 10
50.35894258759999
 20
-4.958249546900006
 30
0.0
 10
50.18478602799999
 20
-4.980892610099999
 30
0.0
 10
50.10226152799998
 20
-4.997634658600006
 30
0.0
  0
SPLINE
  5
5B22D
330
1F
100
AcDbEntity
  8
1
100
AcDbSpline
210
0.0
220
0.0
230
1.0
 70
     8
 71
     3
 72
    19
 73
    15
 74
     0
 42
0.0000000001
 43
0.0000000001
 40
0.0
 40
0.0
 40
0.0
 40
0.0
 40
0.0383701899
 40
0.0796843065
 40
0.1250140444
 40
0.1749516235
 40
0.2296861612
 40
0.2890925509
 40
0.3528070705
 40
0.4202856543
 40
0.5636333765
 40
0.7127730299
 40
0.8605592503
 40
1.0
 40
1.0
 40
1.0
 40
1.0
 10
60.12200030779997
 20
-6.429761848500007
 30
0.0
 10
60.12200030779997
 20
-6.396292702900012
 30
0.0
 10
60.11297673849998
 20
-6.326581953100003
 30
0.0
 10
60.07505218740004
 20
-6.223584082200005
 30
0.0
 10
60.013610753
 20
-6.120843347800004
 30
0.0
 10
59.92985626080002
 20
-6.019783711100004
 30
0.0
 10
59.82515292849999
 20
-5.921745026799996
 30
0.0
 10
59.70112024920002
 20
-5.828149749800004
 30
0.0
 10
59.55967017590001
 20
-5.740395690599996
 30
0.0
 10
59.34649657860001
 20
-5.630829896500003
 30
0.0
 10
59.05217048409998
 20
-5.518461099900008
 30
0.0
 10
58.67812883300001
 20
-5.427350573000012
 30
0.0
 10
58.29917387450001
 20
-5.382958291500003
 30
0.0
 10
58.0476371618
 20
-5.386419096099999
 30
0.0
 10
57.92655079060001
 20
-5.397904990400007
 30
0.0
  0
SPLINE
  5
5B22E
330
1F
100
AcDbEntity
  8
1
100
AcDbSpline
210
0.0
220
0.0
230
1.0
 70
     8
 71
     3
 72
    18
 73
    14
 74
     0
 42
0.0000000001
 43
0.0000000001
 40
0.0
 40
0.0
 40
0.0
 40
0.0
 40
0.0351052402
 40
0.0577424941
 40
0.0827737638
 40
0.1376532404
 40
0.1966817635
 40
0.3217857359
 40
0.4524089052000001
 40
0.5863858221
 40
0.7226674561
 40
0.8606620401999999
 40
1.0
 40
1.0
 40
1.0
 40
1.0
 10
60.80568504310003
 20
-11.3696216257
 30
0.0
 10
60.80065175479996
 20
-11.3703505789
 30
0.0
 10
60.7923584934
 20
-11.3653266922
 30
0.0
 10
60.7841914352
 20
-11.3569316547
 30
0.0
 10
60.77488973250002
 20
-11.3451999483
 30
0.0
 10
60.7641590723
 20
-11.32818251120001
 30
0.0
 10
60.74768689949999
 20
-11.2976903208
 30
0.0
 10
60.72872663179999
 20
-11.2561859151
 30
0.0
 10
60.70757099479999
 20
-11.2038318875
 30
0.0
 10
60.68748060299999
 20
-11.14933282380001
 30
0.0
 10
60.66827597790001
 20
-11.0933888933
 30
0.0
 10
60.64984398499999
 20
-11.03636989200001
 30
0.0
 10
60.63806243509995
 20
-10.9979565302
 30
0.0
 10
60.63226946950002
 20
-10.978619302
 30
0.0
  0
SPLINE
  5
5B22F
330
1F
100
AcDbEntity
  8
1
100
AcDbSpline
210
0.0
220
0.0
230
1.0
 70
     8
 71
     3
 72
     9
 73
     5
 74
     0
 42
0.0000000001
 43
0.0000000001
 40
0.0
 40
0.0
 40
0.0
 40
0.0
 40
0.5087463940000001
 40
1.0
 40
1.0
 40
1.0
 40
1.0
 10
38.32910413529999
 20
12.3440855108
 30
0.0
 10
38.04946595900003
 20
12.36550253099999
 30
0.0
 10
37.50235217849999
 20
12.4544217098
 30
0.0
 10
36.97766544349998
 20
12.63148960199999
 30
0.0
 10
36.72833452490002
 20
12.73719787249999
 30
0.0
  0
SPLINE
  5
5B230
330
1F
100
AcDbEntity
  8
1
100
AcDbSpline
210
0.0
220
0.0
230
1.0
 70
     8
 71
     3
 72
    14
 73
    10
 74
     0
 42
0.0000000001
 43
0.0000000001
 40
0.0
 40
0.0
 40
0.0
 40
0.0
 40
0.3072777315
 40
0.4547163266
 40
0.5950305639
 40
0.724244572
 40
0.8366462971999998
 40
0.9271854213000001
 40
1.0
 40
1.0
 40
1.0
 40
1.0
 10
61.49206629560001
 20
-11.1906977832
 30
0.0
 10
61.49206629560001
 20
-11.1994885901
 30
0.0
 10
61.49177435310003
 20
-11.2125057005
 30
0.0
 10
61.4903650155
 20
-11.22947667950001
 30
0.0
 10
61.48870473529999
 20
-11.2412965986
 30
0.0
 10
61.48628393429999
 20
-11.25197711780001
 30
0.0
 10
61.48292037240003
 20
-11.26089746080001
 30
0.0
 10
61.47841956920001
 20
-11.26757333040001
 30
0.0
 10
61.47402188540002
 20
-11.2698812927
 30
0.0
 10
61.4719629436
 20
-11.270197808
 30
0.0
  0
SPLINE
  5
5B231
330
1F
100
AcDbEntity
  8
1
100
AcDbSpline
210
0.0
220
0.0
230
1.0
 70
     8
 71
     3
 72
    16
 73
    12
 74
     0
 42
0.0000000001
 43
0.0000000001
 40
0.0
 40
0.0
 40
0.0
 40
0.0
 40
0.0588779057
 40
0.1173334299
 40
0.1758149372
 40
0.2346546544
 40
0.3542075426
 40
0.4771505059
 40
0.6037400916
 40
0.7336655329
 40
1.0
 40
1.0
 40
1.0
 40
1.0
 10
30.28195271070001
 20
-26.99927361290002
 30
0.0
 10
30.40847519389999
 20
-26.80042846130002
 30
0.0
 10
30.67750650080001
 20
-26.41462950780002
 30
0.0
 10
31.12712463939999
 20
-25.87224224530002
 30
0.0
 10
31.61865645259999
 20
-25.36771513890002
 30
0.0
 10
32.33108119799999
 20
-24.74082855000002
 30
0.0
 10
33.32280437099999
 20
-24.04647959170001
 30
0.0
 10
34.63889501279999
 20
-23.366724429
 30
0.0
 10
36.067214278
 20
-22.8389349995
 30
0.0
 10
38.10309515660001
 20
-22.3402137094
 30
0.0
 10
39.69903446660001
 20
-22.21347287090001
 30
0.0
 10
40.7649917144
 20
-22.2321758849
 30
0.0
  0
SPLINE
  5
5B232
330
1F
100
AcDbEntity
  8
1
100
AcDbSpline
210
0.0
220
0.0
230
1.0
 70
     8
 71
     3
 72
    11
 73
     7
 74
     0
 42
0.0000000001
 43
0.0000000001
 40
0.0
 40
0.0
 40
0.0
 40
0.0
 40
0.2221619427
 40
0.4617340646
 40
0.7207285664000001
 40
1.0
 40
1.0
 40
1.0
 40
1.0
 10
30.15092887520001
 20
-20.18545517000001
 30
0.0
 10
30.28360427080003
 20
-19.99172148479999
 30
0.0
 10
30.59561506530002
 20
-19.6131992155
 30
0.0
 10
31.1636690043
 20
-19.1023378023
 30
0.0
 10
31.8411516319
 20
-18.63331686710002
 30
0.0
 10
32.34228214270002
 20
-18.36166679819999
 30
0.0
 10
32.60788297849999
 20
-18.2328970627
 30
0.0
  0
LINE
  5
5B233
330
1F
100
AcDbEntity
  8
1
100
AcDbLine
 10
49.35708178999999
 20
-16.32113758630001
 30
0.0
 11
49.34799803959998
 21
-16.35880164160001
 31
0.0
  0
SPLINE
  5
5B234
330
1F
100
AcDbEntity
  8
1
100
AcDbSpline
210
0.0
220
0.0
230
1.0
 70
     8
 71
     3
 72
     9
 73
     5
 74
     0
 42
0.0000000001
 43
0.0000000001
 40
0.0
 40
0.0
 40
0.0
 40
0.0
 40
0.5036059392
 40
1.0
 40
1.0
 40
1.0
 40
1.0
 10
46.92317030229998
 20
-15.27758484120001
 30
0.0
 10
46.9128177629
 20
-15.2551190839
 30
0.0
 10
46.88861702549997
 20
-15.2120829583
 30
0.0
 10
46.85743826990003
 20
-15.17377369900001
 30
0.0
 10
46.84047190349997
 20
-15.15626289550001
 30
0.0
  0
SPLINE
  5
5B235
330
1F
100
AcDbEntity
  8
1
100
AcDbSpline
210
0.0
220
0.0
230
1.0
 70
     8
 71
     3
 72
    25
 73
    21
 74
     0
 42
0.0000000001
 43
0.0000000001
 40
0.0
 40
0.0
 40
0.0
 40
0.0
 40
0.0625655938
 40
0.1162160523
 40
0.1633206582
 40
0.1852890357
 40
0.2066577872
 40
0.2277747262
 40
0.2489657124
 40
0.2926534803
 40
0.3396075801
 40
0.3910168263
 40
0.4475758549
 40
0.5096499429
 40
0.5773976861
 40
0.6508496529
 40
0.7299557241
 40
0.814613212
 40
0.9046827962
 40
1.0
 40
1.0
 40
1.0
 40
1.0
 10
31.65038266119998
 20
-35.10182031790002
 30
0.0
 10
31.46299957529999
 20
-35.0516111714
 30
0.0
 10
31.11788666939998
 20
-34.94571399490001
 30
0.0
 10
30.6531035628
 20
-34.74093831650002
 30
0.0
 10
30.33237563349999
 20
-34.5317821331
 30
0.0
 10
30.12325544779998
 20
-34.34425801270001
 30
0.0
 10
29.9888768054
 20
-34.1958295765
 30
0.0
 10
29.8722968891
 20
-34.03603342920001
 30
0.0
 10
29.737789072
 20
-33.80532956360001
 30
0.0
 10
29.60812124910001
 20
-33.48155654800001
 30
0.0
 10
29.51045049150002
 20
-33.05074423230002
 30
0.0
 10
29.46038390130002
 20
-32.57216242550001
 30
0.0
 10
29.45165699560002
 20
-32.044514906
 30
0.0
 10
29.47944799869998
 20
-31.4669889999
 30
0.0
 10
29.54020603920003
 20
-30.83946067280001
 30
0.0
 10
29.6313989359
 20
-30.16236110440001
 30
0.0
 10
29.75144838580002
 20
-29.4366121979
 30
0.0
 10
29.89968616490003
 20
-28.66357590420001
 30
0.0
 10
30.07632669670002
 20
-27.84504248900001
 30
0.0
 10
30.2100489261
 20
-27.28593748570002
 30
0.0
 10
30.28195271070001
 20
-26.99927361290002
 30
0.0
  0
ELLIPSE
  5
5B236
330
1F
100
AcDbEntity
  8
1
100
AcDbEllipse
 10
22.56600028810002
 20
0.0
 30
0.0
 11
-20.5415919087
 21
-33.3947478774
 31
0.0
210
0.0
220
0.0
230
1.0
 40
0.7530197841
 41
1.4779578078
 42
1.499263586299998
  0
ELLIPSE
  5
5B237
330
1F
100
AcDbEntity
  8
1
100
AcDbEllipse
 10
49.20449442159998
 20
0.0
 30
0.0
 11
-208.7029598217
 21
-32.1135846624
 31
0.0
210
0.0
220
0.0
230
0.9999999999999998
 40
0.0861394841
 41
1.520773097899998
 42
1.535874852899999
  0
ELLIPSE
  5
5B238
330
1F
100
AcDbEntity
  8
1
100
AcDbEllipse
 10
26.06756289939998
 20
0.0
 30
0.0
 11
-420.6601526638
 21
31.93308485300003
 31
0.0
210
0.0
220
0.0
230
0.9999999999999998
 40
0.0434941688
 41
-4.6775865892
 42
-4.6723177375
  0
ELLIPSE
  5
5B239
330
1F
100
AcDbEntity
  8
1
100
AcDbEllipse
 10
194.403602264
 20
-162.7545392509
 30
0.0
 11
-127.2645592894
 21
204.0314590104999
 31
0.0
210
0.0
220
0.0
230
1.0
 40
0.2123378981
 41
0.3873943193
 42
0.3924326603
  0
ELLIPSE
  5
5B23A
330
1F
100
AcDbEntity
  8
1
100
AcDbEllipse
 10
194.403602264
 20
-162.7545392509
 30
0.0
 11
-127.2645592894
 21
204.0314590104999
 31
0.0
210
0.0
220
0.0
230
1.0
 40
0.2123378981
 41
0.209682322
 42
0.3798640792
  0
ELLIPSE
  5
5B23B
330
1F
100
AcDbEntity
  8
1
100
AcDbEllipse
 10
194.403602264
 20
-66.99043838890002
 30
0.0
 11
-114.4670604137999
 21
127.9934435738999
 31
0.0
210
0.0
220
0.0
230
1.0
 40
0.550823062
 41
0.4877218324000001
 42
0.7015063786
  0
ELLIPSE
  5
5B23C
330
1F
100
AcDbEntity
  8
1
100
AcDbEllipse
 10
21.94162412910001
 20
5.994349385700004
 30
0.0
 11
-213.4663493555
 21
32.83804301620001
 31
0.0
210
0.0
220
0.0
230
1.0
 40
0.0846712519
 41
-4.567810408099997
 42
-4.5171234325
  0
ELLIPSE
  5
5B23D
330
1F
100
AcDbEntity
  8
1
100
AcDbEllipse
 10
46.69457043869999
 20
29.82464838739999
 30
0.0
 11
-3.2818191199
 21
-1.907885075999999
 31
0.0
210
0.0
220
0.0
230
1.0
 40
0.0461254087
 41
0.0791760477
 42
0.5317759947999999
  0
ELLIPSE
  5
5B23E
330
1F
100
AcDbEntity
  8
1
100
AcDbEllipse
 10
194.403602264
 20
229.7449776399
 30
0.0
 11
133.900553188
 21
261.945053657
 31
0.0
210
0.0
220
0.0
230
1.0
 40
0.0457865025
 41
2.902792181499996
 42
3.1044679204
  0
ELLIPSE
  5
5B23F
330
1F
100
AcDbEntity
  8
1
100
AcDbEllipse
 10
42.23687283250001
 20
29.13151911119999
 30
0.0
 11
5.4884877501
 21
10.2818954692
 31
0.0
210
0.0
220
0.0
230
1.0
 40
0.1695740137
 41
0.8246332215999998
 42
1.2632060001
  0
ELLIPSE
  5
5B240
330
1F
100
AcDbEntity
  8
1
100
AcDbEllipse
 10
75.47869163599995
 20
0.1656904482999906
 30
0.0
 11
-6.578177744299991
 21
35.7699787309
 31
0.0
210
0.0
220
0.0
230
1.0
 40
0.4692027315
 41
1.659807213499999
 42
1.800337400699999
  0
ELLIPSE
  5
5B241
330
1F
100
AcDbEntity
  8
1
100
AcDbEllipse
 10
49.20449442159998
 20
0.0
 30
0.0
 11
-208.7212915929
 21
0.0000000000000128
 31
0.0
210
0.0
220
0.0
230
1.0
 40
0.1763269807
 41
-1.549128549199996
 42
-1.534026794199998
  0
ELLIPSE
  5
5B242
330
1F
100
AcDbEntity
  8
1
100
AcDbEllipse
 10
75.47869163599995
 20
0.1656904482999906
 30
0.0
 11
-6.578177744299991
 21
35.7699787309
 31
0.0
210
0.0
220
0.0
230
1.0
 40
0.4692027315
 41
1.1325856701
 42
1.506928762299998
  0
ELLIPSE
  5
5B243
330
1F
100
AcDbEntity
  8
1
100
AcDbEllipse
 10
26.06756289939998
 20
0.0
 30
0.0
 11
-420.6624455434996
 21
0.0000000000000258
 31
0.0
210
0.0
220
0.0
230
1.0
 40
0.0874886635
 41
-1.6075658594
 42
-1.6022970077
  0
ELLIPSE
  5
5B244
330
1F
100
AcDbEntity
  8
1
100
AcDbEllipse
 10
59.11674264040001
 20
-3.6368344973
 30
0.0
 11
-0.8384543768999995
 21
2.999870243999996
 31
0.0
210
0.0
220
0.0
230
1.0
 40
0.2240491901
 41
2.4620126608
 42
6.237734594099997
  0
DIMENSION
  5
5B245
102
{ACAD_XDICTIONARY
360
5B246
102
}
102
{ACAD_REACTORS
330
5B247
102
}
330
1F
100
AcDbEntity
  8
2
100
AcDbDimension
  2
*D147
 10
63.09999999999999
 20
37.31369666117283
 30
0.0
 11
78.88619966735203
 21
59.12299157198877
 31
0.0
 70
    36
 71
     5
 42
0.4000000000000768
  3
\M+18352\M+18373\M+1815B - ISO-25
100
AcDbRadialDimension
 15
63.3806120155106
 25
37.59875261489268
 35
0.0
 40
0.0
1001
ACAD
1000
DSTYLE
1002
{
1070
     4
1000
"
1070
    40
1040
1.0
1070
   143
1040
0.03937
1070
   170
1070
     1
1070
   171
1070
     3
1070
   271
1070
     8
1070
   285
1070
     4
1002
}
  0
LINE
  5
5B248
330
1F
100
AcDbEntity
  8
cut
100
AcDbLine
 10
63.5
 20
35.38197897219993
 30
0.0
 11
63.5
 21
37.31338371840002
 31
0.0
  0
LINE
  5
5B249
330
1F
100
AcDbEntity
  8
cut
100
AcDbLine
 10
59.35652873480001
 20
28.0945640132
 30
0.0
 11
63.5
 21
35.38197897219993
 31
0.0
  0
LINE
  5
5B24A
330
1F
100
AcDbEntity
  8
cut
100
AcDbLine
 10
40.8494216807
 20
28.61340565189994
 30
0.0
 11
40.8494216807
 21
30.54481039809997
 31
0.0
  0
LINE
  5
5B24B
330
1F
100
AcDbEntity
  8
cut
100
AcDbLine
 10
44.99289294589996
 20
37.83222535710001
 30
0.0
 11
40.8494216807
 21
30.54481039809997
 31
0.0
  0
LINE
  5
5B24C
330
1F
100
AcDbEntity
  8
cut
100
AcDbLine
 10
59.23291596069998
 20
28.02209518039996
 30
0.0
 11
59.35652873480001
 21
28.0945640132
 31
0.0
  0
LINE
  5
5B24D
330
1F
100
AcDbEntity
  8
cut
100
AcDbLine
 10
59.23291596069998
 20
28.02209518039996
 30
0.0
 11
41.23920586239998
 21
28.21343869809999
 31
0.0
  0
LINE
  5
5B24E
330
1F
100
AcDbEntity
  8
cut
100
AcDbLine
 10
45.1165057201
 20
37.90469418989996
 30
0.0
 11
44.99289294589996
 21
37.83222535710001
 31
0.0
  0
LINE
  5
5B24F
330
1F
100
AcDbEntity
  8
cut
100
AcDbLine
 10
45.1165057201
 20
37.90469418989996
 30
0.0
 11
63.11021581839998
 21
37.71335067229995
 31
0.0
  0
SPLINE
  5
5B250
330
1F
100
AcDbEntity
  8
cut
100
AcDbSpline
210
0.0
220
0.0
230
1.0
 70
     8
 71
     3
 72
    13
 73
     9
 74
     0
 42
0.0000000001
 43
0.0000000001
 40
0.0
 40
0.0
 40
0.0
 40
0.0
 40
0.12622921
 40
0.252305889
 40
0.5024565671
 40
0.7511535786
 40
0.8756464090999999
 40
1.0
 40
1.0
 40
1.0
 40
1.0
 10
40.8494216807
 20
28.61340565189994
 30
0.0
 10
40.8494216807
 20
28.58744783429995
 30
0.0
 10
40.8543987012
 20
28.53539947229996
 30
0.0
 10
40.8840423716
 20
28.43590326250001
 30
0.0
 10
40.95567719349998
 20
28.32504601929992
 30
0.0
 10
41.0643786727
 20
28.25059659779999
 30
0.0
 10
41.1623502937
 20
28.21932641210003
 30
0.0
 10
41.2136351982
 20
28.21371107049998
 30
0.0
 10
41.23920586239998
 20
28.21343869809999
 30
0.0
  0
SPLINE
  5
5B251
330
1F
100
AcDbEntity
  8
cut
100
AcDbSpline
210
0.0
220
0.0
230
1.0
 70
     8
 71
     3
 72
    13
 73
     9
 74
     0
 42
0.0000000001
 43
0.0000000001
 40
0.0
 40
0.0
 40
0.0
 40
0.0
 40
0.12622921
 40
0.2523058889
 40
0.5024565671
 40
0.7511535786
 40
0.8756464090999999
 40
1.0
 40
1.0
 40
1.0
 40
1.0
 10
63.5
 20
37.31338371840002
 30
0.0
 10
63.5
 20
37.33934153609994
 30
0.0
 10
63.49502297950002
 20
37.39138989799993
 30
0.0
 10
63.4653793091
 20
37.4908861079
 30
0.0
 10
63.39374448719997
 20
37.60174335099997
 30
0.0
 10
63.285043008
 20
37.67619277250003
 30
0.0
 10
63.18707138699998
 20
37.70746295820004
 30
0.0
 10
63.1357864825
 20
37.71307829979992
 30
0.0
 10
63.11021581839998
 20
37.71335067229995
 30
0.0
  0
VIEWPORT
  5
6B
102
{ACAD_XDICTIONARY
360
5B333
102
}
330
50
100
AcDbEntity
 67
     1
  8
0
100
AcDbViewport
 10
155.3592437148233
 20
160.4455827878762
 30
0.0
 40
349.5854424261001
 41
282.2272140146125
 68
     1
 69
     1
 12
155.3592437148233
 22
160.4455827878762
 13
0.0
 23
0.0
 14
10.0
 24
10.0
 15
10.0
 25
10.0
 16
0.0
 26
0.0
 36
1.0
 17
0.0
 27
0.0
 37
0.0
 42
50.0
 43
0.0
 44
0.0
 45
282.2272140146125
 50
0.0
 51
0.0
 72
  1000
 90
    32864
  1

281
     0
 71
     1
 74
     0
110
0.0
120
0.0
130
0.0
111
1.0
121
0.0
131
0.0
112
0.0
122
1.0
132
0.0
 79
     0
146
0.0
  0
VIEWPORT
  5
6D
102
{ACAD_XDICTIONARY
360
5B335
102
}
330
50
100
AcDbEntity
 67
     1
  8
0
100
AcDbViewport
 10
133.3499939441681
 20
101.5999939441681
 30
0.0
 40
213.3599903106689
 41
162.5599903106689
 68
     2
 69
     2
 12
210.0
 22
148.5
 13
0.0
 23
0.0
 14
10.0
 24
10.0
 15
10.0
 25
10.0
 16
0.0
 26
0.0
 36
1.0
 17
0.0
 27
0.0
 37
0.0
 42
50.0
 43
0.0
 44
0.0
 45
324.0677920111345
 50
0.0
 51
0.0
 72
   100
 90
    32864
  1

281
     0
 71
     1
 74
     0
110
0.0
120
0.0
130
0.0
111
1.0
121
0.0
131
0.0
112
0.0
122
1.0
132
0.0
 79
     0
146
0.0
  0
ENDSEC
  0
SECTION
  2
OBJECTS
  0
DICTIONARY
  5
C
330
0
100
AcDbDictionary
281
     1
  3
ACAD_COLOR
350
85
  3
ACAD_GROUP
350
D
  3
ACAD_LAYOUT
350
1A
  3
ACAD_MATERIAL
350
84
  3
ACAD_MLINESTYLE
350
17
  3
ACAD_PLOTSETTINGS
350
19
  3
ACAD_PLOTSTYLENAME
350
E
  3
ACAD_TABLESTYLE
350
A1
  3
ACDBHEADERROUNDTRIPXREC
350
5B32E
  3
AcDbVariableDictionary
350
5E
  3
ASE_INDEX_DICTIONARY
350
349E9
  3
DWGPROPS
350
5B32D
  0
DICTIONARY
  5
E2
330
2
100
AcDbDictionary
280
     1
281
     1
  3
ACAD_LAYERFILTERS
360
4E9A4
  3
ACAD_LAYERSTATES
360
3759A
  3
ACLYDICTIONARY
360
4E9A3
  0
DICTIONARY
  5
31EE
330
1F
100
AcDbDictionary
280
     1
281
     1
  3
ACAD_SORTENTS
360
31EF
  0
DICTIONARY
  5
43668
330
680
100
AcDbDictionary
280
     1
281
     1
  3
ACAD_SORTENTS
360
43669
  0
DICTIONARY
  5
5B337
330
71
100
AcDbDictionary
280
     1
281
     1
  3
ACAD_XREC_ROUNDTRIP
360
5B338
  0
DICTIONARY
  5
5B339
330
73
100
AcDbDictionary
280
     1
281
     1
  3
ACAD_XREC_ROUNDTRIP
360
5B33A
  0
DICTIONARY
  5
5B246
330
5B245
100
AcDbDictionary
280
     1
281
     1
  3
ACAD_DIMASSOC
360
5B247
  0
DICTIONARY
  5
5B333
330
6B
100
AcDbDictionary
280
     1
281
     1
  3
ACAD_XREC_ROUNDTRIP
360
5B334
  0
DICTIONARY
  5
5B335
330
6D
100
AcDbDictionary
280
     1
281
     1
  3
ACAD_XREC_ROUNDTRIP
360
5B336
  0
DICTIONARY
  5
85
102
{ACAD_REACTORS
330
C
102
}
330
C
100
AcDbDictionary
281
     1
  0
DICTIONARY
  5
D
102
{ACAD_REACTORS
330
C
102
}
330
C
100
AcDbDictionary
281
     1
  0
DICTIONARY
  5
1A
102
{ACAD_REACTORS
330
C
102
}
330
C
100
AcDbDictionary
281
     1
  3
\M+1838C\M+18343\M+18341\M+18345\M+183671
350
51
  3
\M+1838C\M+18343\M+18341\M+18345\M+183672
350
56
  3
Model
350
22
  0
DICTIONARY
  5
84
102
{ACAD_REACTORS
330
C
102
}
330
C
100
AcDbDictionary
281
     1
  0
DICTIONARY
  5
17
102
{ACAD_REACTORS
330
C
102
}
330
C
100
AcDbDictionary
281
     1
  3
Standard
350
18
  0
DICTIONARY
  5
19
102
{ACAD_REACTORS
330
C
102
}
330
C
100
AcDbDictionary
281
     1
  0
ACDBDICTIONARYWDFLT
  5
E
102
{ACAD_REACTORS
330
C
102
}
330
C
100
AcDbDictionary
281
     1
  3
Normal
350
F
100
AcDbDictionaryWithDefault
340
F
  0
DICTIONARY
  5
A1
102
{ACAD_REACTORS
330
C
102
}
330
C
100
AcDbDictionary
281
     1
  3
Standard
350
A2
  0
DICTIONARY
  5
5B32E
102
{ACAD_REACTORS
330
C
102
}
330
C
100
AcDbDictionary
281
     1
  0
DICTIONARY
  5
5E
102
{ACAD_REACTORS
330
C
102
}
330
C
100
AcDbDictionary
281
     1
  3
CTABLESTYLE
350
B8
  3
DIMASSOC
350
5F
  3
HIDETEXT
350
63
  3
PROJECTNAME
350
31CE
  0
DICTIONARY
  5
349E9
102
{ACAD_REACTORS
330
C
102
}
330
C
100
AcDbDictionary
281
     1
  3
ASEBlockHierarchyIndexRecord
350
349EA
1001
DCO15
1040
1842496176.844
  0
XRECORD
  5
5B32D
102
{ACAD_REACTORS
330
C
102
}
330
C
100
AcDbXrecord
280
     1
  1
DWGPROPS COOKIE
  2

  3

  4

  6

  7

  8

  9

300
=
301
=
302
=
303
=
304
=
305
=
306
=
307
=
308
=
309
=
 40
2.246349351851852
 41
2455489.391063368
 42
2458517.776256099
  1

 90
        0
  0
DICTIONARY
  5
4E9A4
102
{ACAD_REACTORS
330
E2
102
}
330
E2
100
AcDbDictionary
281
     1
  0
DICTIONARY
  5
3759A
102
{ACAD_REACTORS
330
E2
102
}
330
E2
100
AcDbDictionary
281
     1
  0
DICTIONARY
  5
4E9A3
102
{ACAD_REACTORS
330
E2
102
}
330
E2
100
AcDbDictionary
281
     1
1001
ACAD
1000
<All
  0
SORTENTSTABLE
  5
31EF
102
{ACAD_REACTORS
330
31EE
102
}
330
31EE
100
AcDbSortentsTable
330
1F
331
68C
  5
435D5
  0
SORTENTSTABLE
  5
43669
102
{ACAD_REACTORS
330
43668
102
}
330
43668
100
AcDbSortentsTable
330
680
  0
XRECORD
  5
5B338
102
{ACAD_REACTORS
330
5B337
102
}
330
5B337
100
AcDbXrecord
280
     1
102
SHADEPLOT
 70
     0
  0
XRECORD
  5
5B33A
102
{ACAD_REACTORS
330
5B339
102
}
330
5B339
100
AcDbXrecord
280
     1
102
SHADEPLOT
 70
     0
  0
DIMASSOC
  5
5B247
102
{ACAD_REACTORS
330
5B246
102
}
330
5B246
100
AcDbDimAssoc
330
5B245
 90
        2
 70
     0
 71
     0
  1
AcDbOsnapPointRef
 72
     3
331
5B19D
 73
     2
 91
        0
 40
0.0
 10
0.0
 20
0.0
 30
0.0
 75
     0
  0
XRECORD
  5
5B334
102
{ACAD_REACTORS
330
5B333
102
}
330
5B333
100
AcDbXrecord
280
     1
102
SHADEPLOT
 70
     0
  0
XRECORD
  5
5B336
102
{ACAD_REACTORS
330
5B335
102
}
330
5B335
100
AcDbXrecord
280
     1
102
SHADEPLOT
 70
     0
  0
LAYOUT
  5
51
102
{ACAD_XDICTIONARY
360
B2
102
}
102
{ACAD_REACTORS
330
1A
102
}
330
1A
100
AcDbPlotSettings
  1

  2
none_device
  4
Letter_(8.50_x_11.00_Inches)
  6

 40
6.349999904632567
 41
6.349999904632567
 42
6.350006103515625
 43
6.350006103515625
 44
215.8999938964844
 45
279.3999938964844
 46
0.0
 47
0.0
 48
0.0
 49
0.0
140
0.0
141
0.0
142
1.0
143
1.0
 70
   688
 72
     1
 73
     1
 74
     5
  7

 75
    16
147
1.0
148
0.0
149
0.0
100
AcDbLayout
  1
\M+1838C\M+18343\M+18341\M+18345\M+183671
 70
     1
 71
     1
 10
-6.350006103515625
 20
-6.349999904632567
 11
273.0499877929688
 21
209.5499939918518
 12
0.0
 22
0.0
 32
0.0
 14
26.66999878883364
 24
20.31999878883365
 34
0.0
 15
240.0299890995025
 25
182.8799890995025
 35
0.0
146
0.0
 13
0.0
 23
0.0
 33
0.0
 16
1.0
 26
0.0
 36
0.0
 17
0.0
 27
1.0
 37
0.0
 76
     0
330
50
331
6B
  0
LAYOUT
  5
56
102
{ACAD_XDICTIONARY
360
B5
102
}
102
{ACAD_REACTORS
330
1A
102
}
330
1A
100
AcDbPlotSettings
  1

  2
none_device
  4
Letter_(8.50_x_11.00_Inches)
  6

 40
6.349999904632567
 41
6.349999904632567
 42
6.350006103515625
 43
6.350006103515625
 44
215.8999938964844
 45
279.3999938964844
 46
0.0
 47
0.0
 48
0.0
 49
0.0
140
0.0
141
0.0
142
1.0
143
1.0
 70
   688
 72
     1
 73
     1
 74
     5
  7

 75
    16
147
1.0
148
0.0
149
0.0
100
AcDbLayout
  1
\M+1838C\M+18343\M+18341\M+18345\M+183672
 70
     1
 71
     2
 10
-6.350006103515625
 20
-6.349999904632567
 11
273.0499877929688
 21
209.5499939918518
 12
0.0
 22
0.0
 32
0.0
 14
26.66999878883363
 24
20.31999878883363
 34
0.0
 15
240.0299890995026
 25
182.8799890995025
 35
0.0
146
0.0
 13
0.0
 23
0.0
 33
0.0
 16
1.0
 26
0.0
 36
0.0
 17
0.0
 27
1.0
 37
0.0
 76
     0
330
55
331
71
  0
LAYOUT
  5
22
102
{ACAD_XDICTIONARY
360
5B32F
102
}
102
{ACAD_REACTORS
330
1A
102
}
330
1A
100
AcDbPlotSettings
  1

  2
none_device
  4
ANSI_A_(8.50_x_11.00_Inches)
  6

 40
6.349999904632567
 41
19.04999923706055
 42
6.350006103515625
 43
19.04998779296875
 44
215.8999938964844
 45
279.3999938964844
 46
0.0
 47
0.0
 48
0.0
 49
0.0
140
0.0
141
0.0
142
1.0
143
78.436453180766
 70
 11952
 72
     0
 73
     1
 74
     0
  7

 75
     0
147
0.0127491741332998
148
0.0
149
0.0
100
AcDbLayout
  1
Model
 70
     1
 71
     0
 10
0.0
 20
0.0
 11
12.0
 21
9.0
 12
0.0
 22
0.0
 32
0.0
 14
0.0
 24
0.0
 34
0.0
 15
0.0
 25
0.0
 35
0.0
146
0.0
 13
0.0
 23
0.0
 33
0.0
 16
1.0
 26
0.0
 36
0.0
 17
0.0
 27
1.0
 37
0.0
 76
     0
330
1F
  0
MLINESTYLE
  5
18
102
{ACAD_REACTORS
330
17
102
}
330
17
100
AcDbMlineStyle
  2
STANDARD
 70
     0
  3

 62
   256
 51
90.0
 52
90.0
 71
     2
 49
0.5
 62
   256
  6
BYLAYER
 49
-0.5
 62
   256
  6
BYLAYER
  0
ACDBPLACEHOLDER
  5
F
102
{ACAD_REACTORS
330
E
102
}
330
E
  0
TABLESTYLE
  5
A2
102
{ACAD_REACTORS
330
A1
102
}
330
A1
100
AcDbTableStyle
  3
Standard
 70
     0
 71
     0
 40
1.5
 41
1.5
280
     0
281
     0
  7
Standard
140
4.5
170
     2
 62
     0
 63
     7
283
     0
274
    -2
284
     1
 64
     0
275
    -2
285
     1
 65
     0
276
    -2
286
     1
 66
     0
277
    -2
287
     1
 67
     0
278
    -2
288
     1
 68
     0
279
    -2
289
     1
 69
     0
  7
Standard
140
6.0
170
     5
 62
     0
 63
     7
283
     0
274
    -2
284
     1
 64
     0
275
    -2
285
     1
 65
     0
276
    -2
286
     1
 66
     0
277
    -2
287
     1
 67
     0
278
    -2
288
     1
 68
     0
279
    -2
289
     1
 69
     0
  7
Standard
140
4.5
170
     5
 62
     0
 63
     7
283
     0
274
    -2
284
     1
 64
     0
275
    -2
285
     1
 65
     0
276
    -2
286
     1
 66
     0
277
    -2
287
     1
 67
     0
278
    -2
288
     1
 68
     0
279
    -2
289
     1
 69
     0
  0
DICTIONARYVAR
  5
B8
102
{ACAD_REACTORS
330
5E
102
}
330
5E
100
DictionaryVariables
280
     0
  1
STANDARD
  0
DICTIONARYVAR
  5
5F
102
{ACAD_REACTORS
330
5E
102
}
330
5E
100
DictionaryVariables
280
     0
  1
2
  0
DICTIONARYVAR
  5
63
102
{ACAD_REACTORS
330
5E
102
}
330
5E
100
DictionaryVariables
280
     0
  1
1
  0
DICTIONARYVAR
  5
31CE
102
{ACAD_REACTORS
330
5E
102
}
330
5E
100
DictionaryVariables
280
     0
  1

  0
XRECORD
  5
349EA
102
{ACAD_REACTORS
330
349E9
102
}
330
349E9
100
AcDbXrecord
280
     1
330
68C
330
431D
330
431E
330
4329
330
4334
330
4335
330
4B09
330
4B0A
330
5153
330
5154
330
515D
330
515E
330
516A
330
516B
330
5177
330
5178
330
85B4
330
85B5
330
8620
330
8621
330
862A
330
862B
330
8637
330
8638
330
8644
330
8645
330
9773
330
9774
330
977D
330
977E
330
978A
330
978B
330
9797
330
9798
330
BD86
330
BD87
330
BD8F
330
BD90
330
BD98
330
BDA0
330
BDA1
330
BDDD
330
BDDE
330
BDE7
330
BDE8
330
BDF4
330
BDF5
330
BE01
330
BE02
330
E473
330
E474
330
E48D
330
E48E
330
E485
330
E47C
330
E47D
330
E4CC
330
E4CD
330
E4D7
330
E4D8
330
1C63B
330
1C63C
330
1C705
330
1C706
330
1C719
330
1C71A
330
1C72E
330
1C72F
330
1C738
330
1C739
330
27043
330
27044
330
2703A
330
2703B
330
2CF2C
330
2CF2D
330
2CF38
330
2CF39
330
2CF42
330
2CF43
330
2CF4F
330
2CF50
330
2CF59
330
2CF5A
330
2FA31
330
2FA32
330
2FA3D
330
2FA3E
330
2FA4A
330
2FA4B
330
2FA54
330
2FA55
330
329D8
330
329D9
330
329E1
330
329E2
330
329EA
330
329EB
330
329F3
330
329F4
330
32E63
330
32E64
330
32E6F
330
32E70
330
32E79
330
32E7A
330
32E88
330
32E89
330
32E92
330
32E93
  0
DICTIONARY
  5
B2
330
51
100
AcDbDictionary
280
     1
281
     1
  3
ACAD_XREC_ROUNDTRIP
360
5B331
  3
ADSK_XREC_LAYOUTTHUMBNAIL
360
B3
  0
DICTIONARY
  5
B5
330
56
100
AcDbDictionary
280
     1
281
     1
  3
ACAD_XREC_ROUNDTRIP
360
5B332
  3
ADSK_XREC_LAYOUTTHUMBNAIL
360
B6
  0
DICTIONARY
  5
5B32F
330
22
100
AcDbDictionary
280
     1
281
     1
  3
ACAD_XREC_ROUNDTRIP
360
5B330
  0
XRECORD
  5
5B331
102
{ACAD_REACTORS
330
B2
102
}
330
B2
100
AcDbXrecord
280
     1
102
SHADEPLOT
 70
     0
102
SHADEPLOTRESLEVEL
 70
     2
102
SHADEPLOTCUSTOMDPI
 70
   300
  0
XRECORD
  5
B3
102
{ACAD_REACTORS
330
B2
102
}
330
B2
100
AcDbXrecord
280
     1
310
28000000B40000008B0000000100080000000000BC61000000000000000000000001000000000000FFFFFF0000000000FFFFFF000000000000000000000000000000000000000000000000000000000000000000330000006600000099000000CC000000FF00000000330000333300006633000099330000CC330000FF3300
310
0000660000336600006666000099660000CC660000FF66000000990000339900006699000099990000CC990000FF99000000CC000033CC000066CC000099CC0000CCCC0000FFCC000000FF000033FF000066FF000099FF0000CCFF0000FFFF000000003300330033006600330099003300CC003300FF003300003333003333
310
33006633330099333300CC333300FF33330000663300336633006666330099663300CC663300FF66330000993300339933006699330099993300CC993300FF99330000CC330033CC330066CC330099CC3300CCCC3300FFCC330000FF330033FF330066FF330099FF3300CCFF3300FFFF330000006600330066006600660099
310
006600CC006600FF00660000336600333366006633660099336600CC336600FF33660000666600336666006666660099666600CC666600FF66660000996600339966006699660099996600CC996600FF99660000CC660033CC660066CC660099CC6600CCCC6600FFCC660000FF660033FF660066FF660099FF6600CCFF6600
310
FFFF660000009900330099006600990099009900CC009900FF00990000339900333399006633990099339900CC339900FF33990000669900336699006666990099669900CC669900FF66990000999900339999006699990099999900CC999900FF99990000CC990033CC990066CC990099CC9900CCCC9900FFCC990000FF99
310
0033FF990066FF990099FF9900CCFF9900FFFF99000000CC003300CC006600CC009900CC00CC00CC00FF00CC000033CC003333CC006633CC009933CC00CC33CC00FF33CC000066CC003366CC006666CC009966CC00CC66CC00FF66CC000099CC003399CC006699CC009999CC00CC99CC00FF99CC0000CCCC0033CCCC0066CC
310
CC0099CCCC00CCCCCC00FFCCCC0000FFCC0033FFCC0066FFCC0099FFCC00CCFFCC00FFFFCC000000FF003300FF006600FF009900FF00CC00FF00FF00FF000033FF003333FF006633FF009933FF00CC33FF00FF33FF000066FF003366FF006666FF009966FF00CC66FF00FF66FF000099FF003399FF006699FF009999FF00CC
310
99FF00FF99FF0000CCFF0033CCFF0066CCFF0099CCFF00CCCCFF00FFCCFF0000FFFF0033FFFF0066FFFF0099FFFF00CCFFFF00FFFFFF00000000000D0D0D001A1A1A00282828003535350043434300505050005D5D5D006B6B6B00787878008686860093939300A1A1A100AEAEAE00BBBBBB00C9C9C900D6D6D600E4E4E400
310
F1F1F100FFFFFF0000000000000000000000000000000000000000000000000000000000000000000000000000000000EFEFEFE2E2E2E2E2E2E2E2E2E2E2E2E2E2E2E2E2E2E2E2E2E2E2E2E2E2E2E2E2E2E2E2E2E2E2E2E2E2E2E2E2E2E2E2E2E2E2E2E2E2E2E2E2E2E2E2E2E2E2E2E2E2E2E2E2E2E2E2E2E2E2E2E2E2E2E2
310
E2E2E2E2E2E2E2E2E2E2E2E2E2E2E2E2E2E2E2E2E2E2E2E2E2E2E2E2E2E2E2E2E2E2E2E2E2E2E2E2E2E2E2E2E2E2E2E2E2E2E2E2E2E2E2E2E2E2E2E2E2E2E2E2E2E2E2E2E2E2E2E2E2E2E2E2E2E2E2E2E2E2E2E2E2E2E2E2E2E2E2E2E2E2E2E2E2E2E2E2E2E2E2E2E2E2E2E2E2E2E2E2E2E2E2E2E2E2E2E2E2E2E2E2E2E2E2
310
E2E2E2E2E2E2E2E2E2E2E2E2E2E2E2E2E2E2E2E2E2E2E2E2E2E2E2E2E2E2E2E2E2E2E2E2E2E2E2E2E2E2E2E2E2E2E2E2E2E2E2E2E2E2E2E2E2E2E2E2E2E2E2E2E2E2E2E2E2E2E2E2E2E2E2E2E2E2E2E2E2E2E2E2E2E2E2E2E2E2E2E2E2E2E2E2E2E2E2E2E2E2E2E2E2E2E2E2E2E2E2E2E2E2E2E2E2E2E2E2E2E2E2E2E2E2E2
310
E2E2E2E2E2E2E2E2E2E2E2E2E2E2E2E2E2E2E2E2E2E2E2E2E2E2E2E2F5F5F5F5F5F5F5F5F5F5F5F5F5F5F5F5F5F5F5F5F5F5F5F5F5F5F5F5F5F5F5F5F5F5F5F5F5F5F5F5F5F5F5F5F5F5F5F5F5F5F5F5F5F5F5F5F5F5F5F5F5F5F5F5F5F5F5F5F5F5F5F5F5F5F5F5F5F5F5F5F5F5F5F5F5F5F5F5F5F5F5F5F5F5F5F5F5F5F5
310
F5F5F5F5F5F5F5F5F5F5F5F5F5F5F5F5F5F5F5F5F5F5F5F5F5F5F5F5F5F5F5F5F5F5F5F5F5F5F5F5F5F5F5F5F5F5F5F5F5F5F5F5F5F5F5F5F5F5F5F5F5F5F5F5F5F5F5F5F5F5F5F5F5F5F5F5F5F5F5E2E2F5F5F5F5F5F5F5F5F5F5F5F5F5F5F5F5F5F5F5F5F5F5F5F5F5F5F5F5F5F5F5F5F5F5F5F5F5F5F5F5F5F5F5F5F5F5
310
F5F5F5F5F5F5F5F5F5F5F5F5F5F5F5F5F5F5F5F5F5F5F5F5F5F5F5F5F5F5F5F5F5F5F5F5F5F5F5F5F5F5F5F5F5F5F5F5F5F5F5F5F5F5F5F5F5F5F5F5F5F5F5F5F5F5F5F5F5F5F5F5F5F5F5F5F5F5F5F5F5F5F5F5F5F5F5F5F5F5F5F5F5F5F5F5F5F5F5F5F5F5F5F5F5F5F5F5F5F5F5F5F5F5F5F5F5F5F5F5F5F5F5F5F5F5F5
310
F5F5F5F5F5E2E2F5F5F5F5F5F5F5F5F5F5F5F5F5F5F5F5F5F5F5F5F5F5F5F5F5F5F5F5F5F5F5F5F5F5F5F5F5F5F5F5F5F5F5F5F5F5F5F5F5F5F5F5F5F5F5F5F5F5F5F5F5F5F5F5F5F5F5F5F5F5F5F5F5F5F5F5F5F5F5F5F5F5F5F5F5F5F5F5F5F5F5F5F5F5F5F5F5F5F5F5F5F5F5F5F5F5F5F5F5F5F5F5F5F5F5F5F5F5F5F5
310
F5F5F5F5F5F5F5F5F5F5F5F5F5F5F5F5F5F5F5F5F5F5F5F5F5F5F5F5F5F5F5F5F5F5F5F5F5F5F5F5F5F5F5F5F5F5F5F5F5F5F5F5F5F5F5F5F5F5E2E2F5F5F5F5E2E2E2E2E2E2E2E2F5F5F5F5F5F5F5F5F5E2E2E2E2E2E2E2E2E2E2E2E2E2E2E2F5F5F5F5F5F5F5F5F5E2E2E2E2E2E2E2E2E2E2E2E2E2E2E2E2F5F5F5F5F5F5
310
F5F5E2E2E2E2E2E2E2E2E2E2E2E2E2E2E2E2F5F5F5F5F5F5F5F5E2E2E2E2E2E2E2E2E2E2E2E2E2E2E2E2F5F5F5F5F5F5F5F5E2E2E2E2E2E2E2E2E2E2E2E2E2E2E2E2F5F5F5F5F5F5F5F5F5E2E2E2E2E2E2E2E2E2E2E2E2E2E2E2F5F5F5F5F5F5F5F5F5E2E2E2E2E2E2E2E2F5F5F5F5E2E2F5F5F5F5E2F5F5F5F5F5F5F5F5F5
310
F5F5F5F5F5F5F5F5F5F5F5F5F5F5F5F5F5F5F5F5F5F5F5F5F5F5F5F5F5F5F5F5F5F5F5F5F5F5F5F5F5F5F5F5F5F5F5F5F5F5F5F5F5F5F5F5F5F5F5F5F5F5F5F5F5F5F5F5F5F5F5F5F5F5F5F5F5F5F5F5F5F5F5F5F5F5F5F5F5F5F5F5F5F5F5F5F5F5F5F5F5F5F5F5F5F5F5F5F5F5F5F5F5F5F5F5F5F5F5F5F5F5F5F5F5F5F5
310
F5F5F5F5F5F5F5F5F5F5F5F5F5F5F5F5F5F5F5F5F5F5F5F5F5F5F5F5F5F5F5F5E2F5F5F5F5E2E2F5F5F5F5E2F5F5F5F5F5F5F5F5F5F5F5F5F5F5F5F5F5F5F5F5F5F5F5F5F5F5F5F5F5F5F5F5F5F5F5F5F5F5F5F5F5F5F5F5F5F5F5F5F5F5F5F5F5F5F5F5F5F5F5F5F5F5F5F5F5F5F5F5F5F5F5F5F5F5F5F5F5F5F5F5F5F5F5
310
F5F5F5F5F5F5F5F5F5F5F5F5F5F5F5F5F5F5F5F5F5F5F5F5F5F5F5F5F5F5F5F5F5F5F5F5F5F5F5F5F5F5F5F5F5F5F5F5F5F5F5F5F5F5F5F5F5F5F5F5F5F5F5F5F5F5F5F5F5F5F5F5F5F5F5F5F5F5F5F5F5F5F5F5F5E2F5F5F5F5E2E2F5F5F5F5E2F5F5F5F5F5F5F5F5F5F5F5F5F5F5F5F5F5F5F5F5F5F5F5F5F5F5F5F5F5F5
310
F5F5F5F5F5F5F5F5F5F5F5F5F5F5F5F5F5F5F5F5F5F5F5F5F5F5F5F5F5F5F5F5F5F5F5F5F5F5F5F5F5F5F5F5F5F5F5F5F5F5F5F5F5F5F5F5F5F5F5F5F5F5F5F5F5F5F5F5F5F5F5F5F5F5F5F5F5F5F5F5F5F5F5F5F5F5F5F5F5F5F5F5F5F5F5F5F5F5F5F5F5F5F5F5F5F5F5F5F5F5F5F5F5F5F5F5F5F5F5F5F5F5F5F5F5F5F5
310
F5F5F5F5F5F5F5F5F5F5F5E2F5F5F5F5E2E2F5F5F5F5E2F5F5F5F5F5F5F5F5F5F5F5F5F5F5F5F5F5F5F5F5F5F5F5F5F5F5F5F5F5F5F5F5F5F5F5F5F5F5F5F5F5F5F5F5F5F5F5F5F5F5F5F5F5F5F5F5F5F5F5F5F5F5F5F5F5F5F5F5F5F5F5F5F5F5F5F5F5F5F5F5F5F5F5F5F5F5F5F5F5F5F5F5F5F5F5F5F5F5F5F5F5F5F5F5
310
F5F5F5F5F5F5F5F5F5F5F5F5F5F5F5F5F5F5F5F5F5F5F5F5F5F5F5F5F5F5F5F5F5F5F5F5F5F5F5F5F5F5F5F5F5F5F5F5F5F5F5F5F5F5F5F5F5F5F5F5F5F5F5F5E2F5F5F5F5E2E2F5F5F5F5E2F5F5F5F5F5F5F5F5F5F5F5F5F5F5F5F5F5F5F5F5F5F5F5F5F5F5F5F5F5F5F5F5F5F5F5F5F5F5F5F5F5F5F5F5F5F5F5F5F5F5F5
310
F5F5F5F5F5F5F5F5F5F5F5F5F5F5F5F5F5F5F5F5F5F5F5F5F5F5F5F5F5F5F5F5F5F5F5F5F5F5F5F5F5F5F5F5F5F5F5F5F5F5F5F5F5F5F5F5F5F5F5F5F5F5F5F5F5F5F5F5F5F5F5F5F5F5F5F5F5F5F5F5F5F5F5F5F5F5F5F5F5F5F5F5F5F5F5F5F5F5F5F5F5F5F5F5F5F5F5F5F5F5F5F5F5F5F5F5F5E2F5F5F5F5E2E2F5F5F5
310
F5E2F5F5F5F5F5F5F5F5F5F5F5F5F5F5F5F5F5F5F5F5F5F5F5F5F5F5F5F5F5F5F5F5F5F5F5F5F5F5F5F5F5F5F5F5F5F5F5F5F5F5F5F5F5F5F5F5F5F5F5F5F5F5F5F5F5F5F5F5F5F5F5F5F5F5F5F5F5F5F5F5F5F5F5F5F5F5F5F5F5F5F5F5F5F5F5F5F5F5F5F5F5F5F5F5F5F5F5F5F5F5F5F5F5F5F5F5F5F5F5F5F5F5F5F5F5
310
F5F5F5F5F5F5F5F5F5F5F5F5F5F5F5F5F5F5F5F5F5F5F5F5F5F5F5F5F5F5F5F5F5F5F5F5F5F5F5F5F5F5F5E2F5F5F5F5E2E2F5F5F5F5E2F5F5F5F5F5F5F5F5F5F5F5F5F5F5F5F5F5F5F5F5F5F5F5F5F5F5F5F5F5F5F5F5F5F5F5F5F5F5F5F5F5F5F5F5F5F5F5F5F5F5F5F5F5F5F5F5F5F5F5F5F5F5F5F5F5F5F5F5F5F5F5F5
310
F5F5F5F5F5F5F5F5F5F5F5F5F5F5F5F5F5F5F5F5F5F5F5F5F5F5F5F5F5F5F5F5F5F5F5F5F5F5F5F5F5F5F5F5F5F5F5F5F5F5F5F5F5F5F5F5F5F5F5F5F5F5F5F5F5F5F5F5F5F5F5F5F5F5F5F5F5F5F5F5F5F5F5F5F5F5F5F5F5F5F5F5F5F5F5F5E2F5F5F5F5E2E2F5F5F5F5E2F5F5F5F5F5F5F5F5F5F5F5F5F5F5F5F5F5F5F5
310
F5F5F5F5F5F5F5F5F5F5F5F5F5F5F5F5F5F5F5F5F5F5F5F5F5F5F5F5F5F5F5F5F5F5F5F5F5F5F5F5F5F5F5F5F5F5F5F5F5F5F5F5F5F5F5F5F5F5F5F5F5F5F5F5F5F5F5F5F5F5F5F5F5F5F5F5F5F5F5F5F5F5F5F5F5F5F5F5F5F5F5F5F5F5F5F5F5F5F5F5F5F5F5F5F5F5F5F5F5F5F5F5F5F5F5F5F5F5F5F5F5F5F5F5F5F5F5
310
F5F5F5F5F5F5F5F5F5F5F5F5F5F5F5F5F5F5F5F5F5F5E2F5F5F5F5E2E2F5F5F5F5F5F5F5F5F5F5F5F5F5F5F5F5F5F5F5F5F5F5F5F5F5F5F5F5F5F5F5F5F5F5F5F5F5F5F5F5F5F5F5F5F5F5F5F5F5F5F5F5F5F5F5F5F5F5F5F5F5F5F5F5F5F5F5F5F5F5F5F5F5F5F5F5F5F5F5F5F5F5F5F5F5F5F5F5F5F5F5F5F5F5F5F5F5F5
310
F5F5F5F5F5F5F5F5F5F5F5F5F5F5F5F5F5F5F5F5F5F5F5F5F5F5F5F5F5F5F5F5F5F5F5F5F5F5F5F5F5F5F5F5F5F5F5F5F5F5F5F5F5F5F5F5F5F5F5F5F5F5F5F5F5F5F5F5F5F5F5F5F5F5F5F5F5F5F5F5E2E2F5F5F5F5F5F5F5F5F5F5F5F5F5F5F5F5F5F5F5F5F5F5F5F5F5F5F5F5F5F5F5F5F5F5F5F5F5F5F5F5F5F5F5F5F5
310
F5F5F5F5F5F5F5F5F5F5F5F5F5F5F5F5F5F5F5F5F5F5F5F5F5F5F5F5F5F5F5F5F5F5F5F5F5F5F5F5F5F5F5F5F5F5F5F5F5F5F5F5F5F5F5F5F5F5F5F5F5F5F5F5F5F5F5F5F5F5F5F5F5F5F5F5F5F5F5F5F5F5F5F5F5F5F5F5F5F5F5F5F5F5F5F5F5F5F5F5F5F5F5F5F5F5F5F5F5F5F5F5F5F5F5F5F5F5F5F5F5F5F5F5F5F5F5
310
F5F5F5F5F5F5E2E2F5F5F5F5F5F5F5F5F5F5F5F5F5F5F5F5F5F5F5F5F5F5F5F5F5F5F5F5F5F5F5F5F5F5F5F5F5F5F5F5F5F5F5F5F5F5F5F5F5F5F5F5F5F5F5F5F5F5F5F5F5F5F5F5F5F5F5F5F5F5F5F5F5F5F5F5F5F5F5F5F5F5F5F5F5F5F5F5F5F5F5F5F5F5F5F5F5F5F5F5F5F5F5F5F5F5F5F5F5F5F5F5F5F5F5F5F5F5F5
310
F5F5F5F5F5F5F5F5F5F5F5F5F5F5F5F5F5F5F5F5F5F5F5F5F5F5F5F5F5F5F5F5F5F5F5F5F5F5F5F5F5F5F5F5F5F5F5F5F5F5F5F5F5F5F5F5F5F5F5E2E2F5F5F5F5F5F5F5F5F5F5F5F5F5F5F5F5F5F5F5F5F5F5F5F5F5F5F5F5F5F5F5F5F5F5F5F5F5F5F5F5F5F5F5F5F5F5F5F5F5F5F5F5F5F5F5F5F5F5F5F5F5F5F5F5F5F5
310
F5F5F5F5F5F5F5F5F5F5F5F5F5F5F5F5F5F5F5F5F5F5F5F5F5F5F5F5F5F5F5F5F5F5F5F5F5F5F5F5F5F5F5F5F5F5F5F5F5F5F5F5F5F5F5F5F5F5F5F5F5F5F5F5F5F5F5F5F5F5F5F5F5F5F5F5F5F5F5F5F5F5F5F5F5F5F5F5F5F5F5F5F5F5F5F5F5F5F5F5F5F5F5F5F5F5F5F5F5F5F5F5E2E2F5F5F5F5F5F5F5F5F5F5F5F5F5
310
F5F5F5F5F5F5F5F5E2E2E2E2E2E2E2E2E2E2E2E2E2E2E2E2E2E2E2E2E2E2E2E2E2E2E2E2E2E2E2E2E2E2E2E2E2E2E2E2E2E2E2E2E2E2E2E2E2E2E2E2E2E2E2E2E2E2E2E2E2E2E2E2E2E2E2E2E2E2E2E2E2E2E2E2E2E2E2E2E2E2E2E2E2E2E2E2E2E2E2E2E2E2E2E2E2E2E2E2E2E2E2E2E2E2E2E2E2E2E2E2E2E2E2E2E2E2E2
310
E2E2E2E2E2E2E2E2E2E2E2E2E2E2E2E2E2F5F5F5F5F5F5F5F5F5F5F5F5F5F5F5F5F5F5F5F5F5E2E2F5F5F5F5F5F5F5F5F5F5F5F5F5F5F5F5F5F5F5F5F5E22D2D2D2DF5F5F5F5E2F5F5F5F5F5F5F52DF5F5F5F5F5F5F5F5F5F5F5F5F5F5F5F5F5F5E2F5F5F5F5F5F5F5F5F5F5F5F5F5F5F5F5F5F5F5F5F5F5F5F5F5F5F5F5F5
310
F5F5F5F5F5F5F5F5F5F5F5F5F5F5F5F5F5F5F5F5F5F5F5F5F5F5F5F5F5F5F5F5F5F5F5F5F5F5F5F5F5F5F5F5F5F5F5F5F5F5F5F5F5F5F5F5F5F5F5F5F5F5F5F5F5F5F5F5F5E2F5F5F5F5F5F5F5F5F5F5F5F5F5F5F5F5F5F5F5F5F5E2E2F5F5F5F5F5F5F5F5F5F5F5F5F5F5F5F5F5F5F5F5F5E2DCF5F52DF5F5F5F5E2F5F5F5
310
F5F5F5F52DF5F5F5F5F5F5F5F5F5F5F5F5F5F5F5F5F5F5E2F5F5F5F5F5F5F5F5F5F5F5F5F5F5F5F5F5F5F5F5F5F5F5F5F5F5F5F5F5F5F5F5F5F5F5F5F5F5F5F5F5F5F5F5F5F5F5F5F5F5F5F5F5F5F5F5F5F5F5F5F5F5F5F5F5F5F5F5F5F5F5F5F5F5F5F5F5F5F5F5F5F5F5F5F5F5F5F5F5F5F5F5F5F5F5F5F5F5E2F5F5F5F5
310
F5F5F5F5F5F5F5F5F5F5F5F5F5F5F5F5F5E2E2F5F5F5F5F5F5F5F5F5F5F5F5F5F5F5F5F5F5F5F5F5E2DCF5F52DF5F5F5F5E2F5F5F5F5F5F5F52DF5F5F5F5F5F5F5F5F5F5F5F5F5F5F5F5F5F5E2E2F5F5F5F5F5F5F5F5F5F5F5F5F5F5F5F5F5F5F5F5F5F5F5F5F5F5F5F5F5F5F5F5F5F5F5F5F5F5F5F5F5F5F5F5F5F5F5F5F5
310
F5F5F5F5F5F5F5F5F5F5F5F5F5F5F5F5F5F5F5F5F5F5F5F5F5F5F5F5F5F5F5F5F5F5F5F5F5F5F5F5F5F5F5F5F5F5F5F5E2F5F5F5F5F5F5F5F5F5F5F5F5F5F5F5F5F5F5F5F5F5E2E2F5F5F5F5F5F5F5F5F5F5F5F5F5F5F5F5F5F5F5F5F5E2BEF5F52D2D2D2D2D2D2D2D2D2D2D2D2D2DE2E2E2E2E2E2E2E2E2E2E2E2E2E2E2E2
310
E2E2E2E2F5F5F5F5F5F5F5F5F5F5F5F5F5F5F5F5F5F5F5F5F5F5F5F5F5F5F5F5F5F5F5F5F5F5F5F5F5F5F5F5F5F5F5F5F5F5F5F5F5F5F5F5F5F5F5F5F5F5F5F5F5F5F5F5F5F5F5F5F5F5F5F5F5F5F5F5F5F5F5F5F5F5F5F5F5F5F5F5F5F5F5F5F5F5F5F5F5E2F5F5F5F5F5F5F5F5F5F5F5F5F5F5F5F5F5F5F5F5F5E2E2F5F5
310
F5F5E2F5F5F5F5F5F5F5F5F5F5F5F5F5F5F5F5E2DCF5F5F5F5F5F5F5E2F5F5F5F5F5F5F5E2F5F5F5F5F5F5F5F5F5F5F5F5F5F5F5F5F5F5F5F5F5F5F5F5F5F5F5F5F5F5F5F5F5F5F5F5F5F5F5F5F5F5F5F5F5F5F5F5F5F5F5F5F5F5F5F5F5F5F5F5F5F5F5F5F5F5F5F5F5F5F5F5F5F5F5F5F5F5F5F5F5F5F5F5F5F5F5F5F5F5
310
F5F5F5F5F5F5F5F5F5F5F5F5F5F5F5F5F5F5F5F5F5F5F5F5F5F5F5E2F5F5F5F5F5F5F5F5F5F5F5F5F5F5F5F5E2F5F5F5F5E2E2F5F5F5F5E2F5F5F5F5F5F5F5F5F5F5F5F5F5F5F5F5E2F5F5F5F5F5F5F5F5E2F5F5F5F5F5F5F5E2F5F5F5F5F5F5F5F5F5F5F5F5F5F5F5F5F5F5F5F5F5F5F5F5F5F5F5F5F5F5F5F5F5F5F5F5F5
310
F5F5F5F5F5F5F5F5F5F5F5F5F5F5F5F5F5F5F5F5F5F5F5F5F5F5F5F5F5F5F5F5F5F5F5F5F5F5F5F5F5F5F5F5F5F5F5F5F5F5F5F5F5F5F5F5F5F5F5F5F5F5F5F5F5F5F5F5F5F5F5F5F5F5F5F5F5F5F5F5E2F5F5F5F5F5F5F5F5F5F5F5F5F5F5F5F5E2F5F5F5F5E2E2F5F5F5F5E2F5F5F5F5F5F5F5F5F5F5F5F5F5F5F5F5E2E2
310
E2E2E2E2E2E2E2E2F5F5F5F5F5F5F5E2F5F5F5F5F5F5F5F5F5F5F5F5F5F5F5F5F5F5F5F5F5F5F5F5F5F5F5F5F5F5F5F5F5F5F5F5F5F5F5F5F5F5F5F5F5F5F5F5F5F5F5F5F5F5F5F5F5F5F5F5F5F5F5F5F5F5F5F5F5F5F5F5F5F5F5F5F5F5F5F5F5F5F5F5F5F5F5F5F5F5F5F5F5F5F5F5F5F5F5F5F5F5F5F5F5F5F5F5F5F5F5
310
F5F5F5F5F5F5E2F5F5F5F5F5F5F5F5F5F5F5F5F5F5F5F5E2F5F5F5F5E2E2F5F5F5F5E2F5F5F5F5F5F5F5F5F5F5F5F5F5F5F5F5E2E2E2E2F5F5F5F5F5F5F5F5F5F5F5F5F5E2F5F5F5F5F5F5F5F5F5F5F5F5F5F5F5F5F5F5F5F5F5F5F5F5F5F5F5F5F5F5F5F5F5F5F5F5F5F5F5F5F5F5F5F5F5F5F5F5F5F5F5F5F5F5F5F5F5F5
310
F5F5F5F5F5F5F5F5F5F5F5F5F5F5F5F5F5F5F5F5F5F5F5F5F5F5F5F5F5F5F5F5F5F5F5F5F5F5F5F5F5F5F5F5F5F5F5F5F5F5F5F5F5F5F5F5F5F5F5E2F5F5F5F5F5F5F5F5F5F5F5F5F5F5F5F5E2F5F5F5F5E2E2F5F5F5F5E2F5F5F5F5F5F5F5F5F5F5F5F5F5F5F5F5E2E2E2E2F5F5F5F5F5F5F5F5F5F5F5F5F5E2F5F5F5F5F5
310
F5F5F5F5F5F5F5F5F5F5F5F5F5F5F5F5F5F5F5F5F5F5F5F5F5F5F5F5F5F5F5F5F5F5F5F5F5F5F5F5F5F5F5F5F5F5F5F5F5F5F5F5F5F5F5F5F5F5F5F5F5F5F5F5F5F5F5F5F5F5F5F5F5F5F5F5F5F5F5F5F5F5F5F5F5F5F5F5F5F5F5F5F5F5F5F5F5F5F5F5F5F5F5F5F5F5F5F5F5F5F5F5E2F5F5F5F5F5F5F5F5F5F5F5F5F5F5
310
F5F5E2F5F5F5F5E2E2F5F5F5F5E2F5F5F5F5F5F5F5F5F5F5F5F5F5F5F5F5E2F5F5F5F5F5F5F5F5F5F5F5F5F5F5F5F5E2F5F5F5F5F5F5F5F5F5F5F5F5F5F5F5F5F5F5F5F5F5F5F5F5F5F5F5F5F5F5F5F5F5F5F5F5F5F5F5F5F5F5F5F5F5F5F5F5F5F5F5F5F5F5F5F5F5F5F5F5F5F5F5F5F5F5F5F5F5F5F5F5F5F5F5F5F5F5F5
310
F5F5F5F5F5F5F5F5F5F5F5F5F5F5F5F5F5F5F5F5F5F5F5F5F5F5F5F5F5F5F5F5F5F5F5F5F5F5E2F5F5F5F5F5F5F5F5F5F5F5F5F5F5F5F5E2F5F5F5F5E2E2F5F5F5F5E2F5F5F5F5F5F5F5F5F5F5F5F5F5F5F5F5E2E2E2E2E2E2E2E2E2E2E2E2E2E2E2E2E2E2F5F5F5F5F5F5F5F5F5F5F5F5F5F5F5F5F5F5F5F5F5F5F5F5F5F5
310
F5F5F5F5F5F5F5F5F5F5F5F5F5F5F5F5F5F5F5F5F5F5F5F5F5F5F5F5F5F5F5F5F5F5F5F5F5F5F5F5F5F5F5F5F5F5F5F5F5F5F5F5F5F5F5F5F5F5F5F5F5F5F5F5F5F5F5F5F5F5F5F5F5F5F5F5F5F5F5F5F5F5F5F5F5F5F5F5F5F5F5E2F5F5F5F5F5F5F5F5F5F5F5F5F5F5F5F5E2F5F5F5F5E2E2F5F5F5F5E2F5F5F5F5F5F5F5
310
F5F5F5F5F5F5F5F5F5E2E2E2F5F5F5F5F5F5F5F5F5F5F5F5F5F5F5F5F5F5F5F5F5F5F5F5F5F5F5F5F5F5F5F5F5F5F5F5F5F5F5F5F5F5F5F5F5F5F5F5F5F5F5F5F5F5F5F5F5F5F5F5F5F5F5F5F5F5F5F5F5F5F5F5F5F5F5F5F5F5F5F5F5F5F5F5F5F5F5F5F5F5F5F5F5F5F5F5F5F5F5F5F5F5F5F5F5F5F5F5F5F5F5F5F5F5F5
310
F5F5F5F5F5F5F5F5F5F5F5F5F5F5F5F5F5E2F5F5F5F5F5F5F5F5F5F5F5F5F5F5F5F5E2F5F5F5F5E2E2F5F5F5F5E2F5F5F5F5F5F5F5F5F5F5F5F5F5F5F5F5E2E2E2F5F5F5F5F5F5F5F5F5F5F5F5F5F5F5F5F5F5F5F5F5F5F5F5F5F5F5F5F5F5F5F5F5F5F5F5F5F5F5F5F5F5F5F5F5F5F5F5F5F5F5F5F5F5F5F5F5F5F5F5F5F5
310
F5F5F5F5F5F5F5F5F5F5F5F5F5F5F5F5F5F5F5F5F5F5F5F5F5F5F5F5F5F5F5F5F5F5F5F5F5F5F5F5F5F5F5F5F5F5F5F5F5F5F5F5F5F5F5F5F5F5F5F5F5F5F5F5F5F5F5F5F5F5E2F5F5F5F5F5F5F5F5F5F5F5F5F5F5F5F5E2F5F5F5F5E2E2F5F5F5F5E2F5F5F5F5F5F5F5F5F5F5F5F5F5F5F5F5E2F5F5F5F5F5F5F5F5F5F5F5
310
F5F5F5F5F5F5F5F5F5F5F5F5F5F5F5F5F5F5F5F5F5F5F5F5F5F5F5F5F5F5F5F5F5F5F5F5F5F5F5F5F5F5F5F5F5F5F5F5F5F5F5F5F5F5F5F5F5F5F5F5F5F5F5F5F5F5F5F5F5F5F5F5F5F5F5F5F5F5F5F5F5F5F5F5F5F5F5F5F5F5F5F5F5F5F5F5F5F5F5F5F5F5F5F5F5F5F5F5F5F5F5F5F5F5F5F5F5F5F5F5F5F5F5E2F5F5F5
310
F5F5F5F5F5F5F5F5F5F5F5F5F5E2F5F5F5F5E2E2F5F5F5F5E2F5F5F5F5F5F5F5F5F5F5F5F5F5F5F5F5E20F0F0F0F0F0F0F0F0F0F0FF5F5F5F5F5F5F5F5F5F5F5F5F5F5F5F5F5F5F5F5F5F5F5F5F5F5F5F5F5F5F5F5F5F5F5F5F5F5F5F5F5F5F5F5F5F5F5F5F5F5F5F5F5F5F5F5F5F5F5F5F5F5F5F5F5F5F5F5F5F5F5F5F5F5
310
F5F5F5F5F5F5F5F5F5F5F5F5F5F5F5F5F5F5F5F5F5F5F5F5F5F5F5F5F5F5F5F5F5F5F5F5F5F5F5F5F5F5F5F5F5F5F5F5F5E2F5F5F5F5F5F5F5F5F5F5F5F5F5F5F5F5E2F5F5F5F5E2E2F5F5F5F5E2F5F5F5F5F5F5F5F5F5F5F5F5F5F5F5F5E20F0F0F0F0F0F0F0F0F0FF5F5F5F5F5F5F5F5F5F5F5F5F5F5F5F5F5F5F5F5F5F5
310
F5F5F5F5F5F5F5F5F5F5F5F5F5F5F5F5F5F5F5F5F5F5F5F5F5F5F5F5F5F5F5F5F5F5F5F5F5F5F5F5F5F5F5F5F5F5F5F5F5F5F5F5F5F5F5F5F5F5F5F5F5F5F5F5F5F5F5F5F5F5F5F5F5F5F5F5F5F5F5F5F5F5F5F5F5F5F5F5F5F5F5F5F5F5F5F5F5F5F5F5F5F5E2F5F5F5F5F5F5F5F5F5F5F5F5F5F5F5F5E2F5F5F5F5E2E2F5
310
F5F5F5E2F5F5F5F5F5F5F5F5F5F5F5F5F5F5F5F5E2F5F5F5F5F5F5F5F5F5F5F5F5F5F5F5F5F5F5F5F5F5F5F5F5F5F5F5F5F5F5F5F5F5F5F5F5F5F5F5F5F5F5F5F5F5F5F5F5F5F5F5F5F5F5F5F5F5F5F5F5F5F5F5F5F5F5F5F5F5F5F5F5F5F5F5F5F5F5F5F5F5F5F5F5F5F5F5F5F5F5F5F5F5F5F5F5F5F5F5F5F5F5F5F5F5F5
310
F5F5F5F5F5F5F5F5F5F5F5F5F5F5F5F5F5F5F5F5F5F5F5F5F5F5F5F5E2F5F5F5F5F5F5F5F5F5F5F5F5F5F5F5F5E2F5F5F5F5E2E2F5F5F5F5E2F5F5F5F5F5F5F5F5F5F5F5F5F5F5F5F5E2F5F5F5F5F5F5F5F5F5F5F5F5F5F5F5F5F5F5F5F5F5F5F5F5F5F5F5F5F5F5F5F5F5F5F5F5F5F5F5F5F5F5F5F5F5F5F5F5F5F5F5F5F5
310
F5F5F5F5F5F5F5F5F5F5F5F5F5F5F5F5F5F5F5F5F5F5F5F5F5F5F5F5F5F5F5F5F5F5F5F5F5F5F5F5F5F5F5F5F5F5F5F5F5F5F5F5F5F5F5F5F5F5F5F5F5F5F5F5F5F5F5F5F5F5F5F5F5F5F5F5F5F5F5F5F5E2F5F5F5F5F5F5F5F5F5F5F5F5F5F5F5F5E2F5F5F5F5E2E2F5F5F5F5E2F5F5F5F5F5F5F5F5F5F5F5F5F5F5F5F5E2
310
F5F5F5F5F5F5F5F5F5F5F5F5F5F5F5F5F5F5F5F5F5F5F5F5F5F5F5F5F5F5F5F5F5F5F5F5F5F5F5F5F5F5F5F5F5F5F5F5F5F5F5F5F5F5F5F5F5F5F5F5F5F5F5F5F5F5F5F5F5F5F5F5F5F5F5F5F5F5F5F5F5F5F5F5F5F5F5F5F5F5F5F5F5F5F5F5F5F5F5F5F5F5F5F5F5F5F5F5F5F5F5F5F5F5F5F5F5F5F5F5F5F5F5F5F5F5F5
310
F5F5F5F5F5F5F5E2F5F5F5F5F5F5F5F5F5F5F5F5F5F5F5F5E2F5F5F5F5E2E2F5F5F5F5E2F5F5F5F5F5F5F5F5F5F5F5F5F5F5F5F5E2F5F5F5F5F5F5F5F5F5F5F5F5F5F5F5F5F5F5F5F5F5F5F5F5F5F5F5F5F5F5F5F5F5F5F5F5F5F5F5F5F5F5F5F5F5F5F5F5F5F5F5F5F5F5F5F5F5F5F5F5F5F5F5F5F5F5F5F5F5F5F5F5F5F5
310
F5F5F5F5F5F5F5F5F5F5F5F5F5F5F5F5F5F5F5F5F5F5F5F5F5F5F5F5F5F5F5F5F5F5F5F5F5F5F5F5F5F5F5F5F5F5F5F5F5F5F5F5F5F5F5F5F5F5F5F5E2F5F5F5F5F5F5F5F5F5F5F5F5F5F5F5F5E2F5F5F5F5E2E2F5F5F5F5F5F5F5F5F5F5F5F5F5F5F5F5F5F5F5F5F5E2F5F5F5F5F5F5F5F5F5F5F5F5F5F5F5F5F5F5F5F5F5
310
F5F5F5F5F5F5F5F5F5F5F5F5F5F5F5F5F5F5F5F5F5F5F5F5F5F5F5F5F5F5F5F5F5F5F5F5F5F5F5F5F5F5F5F5F5F5F5F5F5F5F5F5F5F5F5F5F5F5F5F5F5F5F5F5F5F5F5F5F5F5F5F5F5F5F5F5F5F5F5F5F5F5F5F5F5F5F5F5F5F5F5F5F5F5F5F5F5F5F5F5F5F5F5F5F5F5F5F5F5F5F5F5F5E2F5F5F5F5F5F5F5F5F5F5F5F5F5
310
F5F5F5F5F5F5F5F5E2E2F5F5F5F5F5F5F5F5F5F5F5F5F5F5F5F5F5F5F5F5F5E2F5F5F5F5F5F5F5F5F5F5F5F5F5F5F5F5F5F5F5F5F5F5F5F5F5F5F5F5F5F5F5F5F5F5F5F5F5F5F5F5F5F5F5F5F5F5F5F5F5F5F5F5F5F5F5F5F5F5F5F5F5F5F5F5F5F5F5F5F5F5F5F5F5F5F5F5F5F5F5F5F5F5F5F5F5F5F5F5F5F5F5F5F5F5F5
310
F5F5F5F5F5F5F5F5F5F5F5F5F5F5F5F5F5F5F5F5F5F5F5F5F5F5F5F5F5F5F5F5F5F5F5F5F5F5F5E2F5F5F5F5F5F5F5F5F5F5F5F5F5F5F5F5F5F5F5F5F5E2E2F5F5F5F5F5F5F5F5F5F5F5F5F5F5F5F5F5F5F5F5F5E2F5F5F5F5F5F5F5F5F5F5F5F5F5F5F5F5F5F5F5F5F5F5F5F5F5F5F5F5F5F5F5F5F5F5F5F5F5F5F5F5F5F5
310
F5F5F5F5F5F5F5F5F5F5F5F5F5F5F5F5F5F5F5F5F5F5F5F5F5F5F5F5F5F5F5F5F5F5F5F5F5F5F5F5F5F5F5F5F5F5F5F5F5F5F5F5F5F5F5F5F5F5F5F5F5F5F5F5F5F5F5F5F5F5F5F5F5F5F5F5F5F5F5F5F5F5F5F5F5F5F5F5F5F5F5F5E2F5F5F5F5F5F5F5F5F5F5F5F5F5F5F5F5F5F5F5F5F5E2E2F5F5F5F5F5F5F5F5F5F5F5
310
F5F5F5F5F5F5F5F5F5F5E2F5F5F5F5F5F5F5F5F5F5F5F5F5F5F5F5F5F5F5F5F5F5F5F5F5F5F5F5F5F5F5F5F5F5F5F5F5F5F5F5F5F5F5F5F5F5F5F5F5F5F5F5F5F5F5F5F5F5F5F5F5F5F5F5F5F5F5F5F5F5F5F5F5F5F5F5F5F5F5F5F5F5F5F5F5F5F5F5F5F5F5F5F5F5F5F5F5F5F5F5F5F5F5F5F5F5F5F5F5F5F5F5F5F5F5F5
310
F5F5F5F5F5F5F5F5F5F5F5F5F5F5F5F5F5F5E2F5F5F5F5F5F5F5F5F5F5F5F5F5F5F5F5F5F5F5F5F5E2E2F5F5F5F5F5F5F5F5F5F5F5F5F5F5F5F5F5F5F5F5F5E2F5F5F5F5F5F5F5F5F5F5F5F5F5F5F5F5F5F5F5F5F5F5F5F5F5F5F5F5F5F5F5F5F5F5F5F5F5F5F5F5F5F5F5F5F5F5F5F5F5F5F5F5F5F5F5F5F5F5F5F5F5F5F5
310
F5F5F5F5F5F5F5F5F5F5F5F5F5F5F5F5F5F5F5F5F5F5F5F5F5F5F5F5F5F5F5F5F5F5F5F5F5F5F5F5F5F5F5F5F5F5F5F5F5F5F5F5F5F5F5F5F5F5F5F5F5F5F5F5F5F5F5F5F5F5F5E2F5F5F5F5F5F5F5F5F5F5F5F5F5F5F5F5F5F5F5F5F5E2E2F5F5F5F5F5F5F5F5F5F5F5F5F5F5F5F5F5F5F5F5F5E2F5F5F5F5F5F5F5F5F5F5
310
F5F5F5F5F5F5F5F5F5F5F5F5F5F5F5F5F5F5F5F5F5F5F5F5F5F5F5F5F5F5F5F5F5F5F5F5F5F5F5F5F5F5F5F5F5F5F5F5F5F5F5F5F5F5F5F5F5F5F5F5F5F5F5F5F5F5F5F5F5F5F5F5F5F5F5F5F5F5F5F5F5F5F5F5F5F5F5F5F5F5F5F5F5F5F5F5F5F5F5F5F5F5F5F5F5F5F5F5F5F5F5F5F5F5F5F5F5F5F5F5F5F5F5F5E2F5F5
310
F5F5F5F5F5F5F5F5F5F5F5F5F5F5F5F5F5F5F5E2E2F5F5F5F5F5F5F5F5F5F5F5F5F5F5F5F5F5F5F5F5F5E2F5F5F5F5F5F5F5F5F5F5F5F5F5F5F5F5F5F5F5F5F5F5F5F5F5F5F5F5F5F5F5F5F5F5F5F5F5F5F5F5F5F5F5F5F5F5F5F5F5F5F5F5F5F5F5F5F5F5F5F5F5F5F5F5F5F5F5F5F5F5F5F5F5F5F5F5F5F5F5F5F5F5F5F5
310
F5F5F5F5F5F5F5F5F5F5F5F5F5F5F5F5F5F5F5F5F5F5F5F5F5F5F5F5F5F5F5F5F5F5F5F5F5F5F5F5F5F5F5F5F5F5F5F5F5F5E2F5F5F5F5F5F5F5F5F5F5F5F5F5F5F5F5F5F5F5F5F5E2E2F5F5F5F5F5F5F5F5F5F5F5F5F5F5F5F5F5F5F5F5F5E2F5F5F5F5F5F5F5F5F5F5F5F5F5F5F5F5F5F5F5F5F5F5F5F5F5F5F5F5F5F5F5
310
F5F5F5F5F5F5F5F5F5F5F5F5F5F5F5F5F5F5F5F5F5F5F5F5F5F5F5F5F5F5F5F5F5F5F5F5F5F5F5F5F5F5F5F5F5F5F5F5F5F5F5F5F5F5F5F5F5F5F5F5F5F5F5F5F5F5F5F5F5F5F5F5F5F5F5F5F5F5F5F5F5F5F5F5F5F5F5F5F5F5F5F5F5F5F5F5F5F5F5F5F5F5F5E2F5F5F5F5F5F5F5F5F5F5F5F5F5F5F5F5F5F5F5F5F5E2E2
310
F5F5F5F5F5F5F5F5F5F5F5F5F5F5F5F5F5F5F5F5F5E2F5F5F5F5F5F5F5F5F5F5F5F5F5F5F5F5F5F5F5F5F5F5F5F5F5F5F5F5F5F5F5F5F5F5F5F5F5F5F5F5F5F5F5F5F5F5F5F5F5F5F5F5F5F5F5F5F5F5F5F5F5F5F5F5F5F5F5F5F5F5F5F5F5F5F5F5F5F5F5F5F5F5F5F5F5F5F5F5F5F5F5F5F5F5F5F5F5F5F5F5F5F5F5F5F5
310
F5F5F5F5F5F5F5F5F5F5F5F5F5F5F5F5F5F5F5F5F5F5F5F5F5F5F5F5F5E2F5F5F5F5F5F5F5F5F5F5F5F5F5F5F5F5F5F5F5F5F5E2E2F5F5F5F5F5F5F5F5F5F5F5F5F5F5F5F5F5F5F5F5F5E2F5F5F5F5F5F5F5F5F5F5F5F5F5F5F5F5F5F5F5F5F5F5F5F5F5F5F5F5F5F5F5F5F5F5F5F5F5F5F5F5F5F5F5F5F5F5F5F5F5F5F5F5
310
F5F5F5F5F5F5F5F5F5F5F5F5F5F5F5F5F5F5F5F5F5F5F5F5F5F5F5F5F5F5F5F5F5F5F5F5F5F5F5F5F5F5F5F5F5F5F5F5F5F5F5F5F5F5F5F5F5F5F5F5F5F5F5F5F5F5F5F5F5F5F5F5F5F5F5F5F5F5F5F5F5F5E2F5F5F5F5F5F5F5F5F5F5F5F5F5F5F5F5F5F5F5F5F5E2E2F5F5F5F5E2F5F5F5F5F5F5F5F5F5F5F5F5F5F5F5F5
310
E2F5F5F5F5F5F5F5F5F5F5F5F5F5F5F5F5F5F5F5F5F5F5F5F5F5F5F5F5F5F5F5F5F5F5F5F5F5F5F5F5F5F5F5F5F5F5F5F5F5F5F5F5F5F5F5F5F5F5F5F5F5F5F5F5F5F5F5F5F5F5F5F5F5F5F5F5F5F5F5F5F5F5F5F5F5F5F5F5F5F5F5F5F5F5F5F5F5F5F5F5F5F5F5F5F5F5F5F5F5F5F5F5F5F5F5F5F5F5F5F5F5F5F5F5F5F5
310
F5F5F5F5F5F5F5F5E2F5F5F5F5F5F5F5F5F5F5F5F5F5F5F5F5E2F5F5F5F5E2E2F5F5F5F5E2F5F5F5F5F5F5F5F5F5F5F5F5F5F5F5F5E2F5F5F5F5F5F5F5F5F5F5F5F5F5F5F5F5F5F5F5F5F5F5F5F5F5F5F5F5F5F5F5F5F5F5F5F5F5F5F5F5F5F5F5F5F5F5F5F5F5F5F5F5F5F5F5F5F5F5F5F5F5F5F5F5F5F5F5F5F5F5F5F5F5
310
F5F5F5F5F5F5F5F5F5F5F5F5F5F5F5F5F5F5F5F5F5F5F5F5F5F5F5F5F5F5F5F5F5F5F5F5F5F5F5F5F5F5F5F5F5F5F5F5F5F5F5F5F5F5F5F5F5F5F5F5F5E2F5F5F5F5F5F5F5F5F5F5F5F5F5F5F5F5E2F5F5F5F5E2E2F5F5F5F5E2F5F5F5F5F5F5F5F5F5F5F5F5F5F5F5F5E2F5F5F5F5F5F5F5F5F5F5F5F5F5F5F5F5F5F5F5F5
310
F5F5F5F5F5F5F5F5F5F5F5F5F5F5F5F5F5F5F5F5F5F5F5F5F5F5F5F5F5F5F5F5F5F5F5F5F5F5F5F5F5F5F5F5F5F5F5F5F5F5F5F5F5F5F5F5F5F5F5F5F5F5F5F5F5F5F5F5F5F5F5F5F5F5F5F5F5F5F5F5F5F5F5F5F5F5F5F5F5F5F5F5F5F5F5F5F5F5F5F5F5F5F5F5F5F5F5F5F5F5F5F5F5F5E2F5F5F5F5F5F5F5F5F5F5F5F5
310
F5F5F5F5E2F5F5F5F5E2E2F5F5F5F5E2F5F5F5F5F5F5F5F5F5F5F5F5F5F5F5F5E2F5F5F5F5F5F5F5F5F5F5F5F5F5F5F5F5F5F5F5F5F5F5F5F5F5F5F5F5F5F5F5F5F5F5F5F5F5F5F5F5F5F5F5F5F5F5F5F5F5F5F5F5F5F5F5F5F5F5F5F5F5F5F5F5F5F5F5F5F5F5F5F5F5F5F5F5F5F5F5F5F5F5F5F5F5F5F5F5F5F5F5F5F5F5
310
F5F5F5F5F5F5F5F5F5F5F5F5F5F5F5F5F5F5F5F5F5F5F5F5F5F5F5F5F5F5F5F5F5F5F5F5F5F5F5F5E2F5F5F5F5F5F5F5F5F5F5F5F5F5F5F5F5E2F5F5F5F5E2E2F5F5F5F5E2F5F5F5F5F5F5F5F5F5F5F5F5F5F5F5F5E2F5F5F5F5F5F5F5F5F5F5F5F5F5F5F5F5F5F5F5F5F5F5F5F5F5F5F5F5F5F5F5F5F5F5F5F5F5F5F5F5F5
310
F5F5F5F5F5F5F5F5F5F5F5F5F5F5F5F5F5F5F5F5F5F5F5F5F5F5F5F5F5F5F5F5F5F5F5F5F5F5F5F5F5F5F5F5F5F5F5F5F5F5F5F5F5F5F5F5F5F5F5F5F5F5F5F5F5F5F5F5F5F5F5F5F5F5F5F5F5F5F5F5F5F5F5F5F5F5F5F5F5F5F5F5F5E2F5F5F5F5F5F5F5F5F5F5F5F5F5F5F5F5E2F5F5F5F5E2E2F5F5F5F5E2F5F5F5F5F5
310
F5F5F5F5F5F5F5F5F5F5F5E2F5F5F5F5F5F5F5F5F5F5F5F5F5F5F5F5F5F5F5F5F5F5F5F5F5F5F5F5F5F5F5F5F5F5F5F5F5F5F5F5F5F5F5F5F5F5F5F5F5F5F5F5F5F5F5F5F5F5F5F5F5F5F5F5F5F5F5F5F5F5F5F5F5F5F5F5F5F5F5F5F5F5F5F5F5F5F5F5F5F5F5F5F5F5F5F5F5F5F5F5F5F5F5F5F5F5F5F5F5F5F5F5F5F5F5
310
F5F5F5F5F5F5F5F5F5F5F5F5F5F5F5F5F5F5F5E2F5F5F5F5F5F5F5F5F5F5F5F5F5F5F5F5E2F5F5F5F5E2E2F5F5F5F5E2F5F5F5F5F5F5F5F5F5F5F5F5F5F5F5F5E2F5F5F5F5F5F5F5F5F5F5F5F5F5F5F5F5F5F5F5F5F5F5F5F5F5F5F5F5F5F5F5F5F5F5F5F5F5F5F5F5F5F5F5F5F5F5F5F5F5F5F5F5F5F5F5F5F5F5F5F5F5F5
310
F5F5F5F5F5F5F5F5F5F5F5F5F5F5F5F5F5F5F5F5F5F5F5F5F5F5F5F5F5F5F5F5F5F5F5F5F5F5F5F5F5F5F5F5F5F5F5F5F5F5F5F5F5F5F5F5F5F5F5F5F5F5F5F5F5F5F5F5F5F5F5F5E2F5F5F5F5F5F5F5F5F5F5F5F5F5F5F5F5E2F5F5F5F5E2E2F5F5F5F5E2F5F5F5F5F5F5F5F5F5F5F5F5F5F5F5F5E2F5F5F5F5F5F5F5F5F5
310
F5F5F5F5F5F5F5F5F5F5F5F5F5F5F5F5F5F5F5F5F5F5F5F5F5F5F5F5F5F5F5F5F5F5F5F5F5F5F5F5F5F5F5F5F5F5F5F5F5F5F5F5F5F5F5F5F5F5F5F5F5F5F5F5F5F5F5F5F5F5F5F5F5F5F5F5F5F5F5F5F5F5F5F5F5F5F5F5F5F5F5F5F5F5F5F5F5F5F5F5F5F5F5F5F5F5F5F5F5F5F5F5F5F5F5F5F5F5F5F5F5F5F5F5F5E2F5
310
F5F5F5F5F5F5F5F5F5F5F5F5F5F5F5E2F5F5F5F5E2E2F5F5F5F5E2F5F5F5F5F5F5F5F5F5F5F5F5F5F5F5F5E2F5F5F5F5F5F5F5F5F5F5F5F5F5F5F5F5F5F5F5F5F5F5F5F5F5F5F5F5F5F5F5F5F5F5F5F5F5F5F5F5F5F5F5F5F5F5F5F5F5F5F5F5F5F5F5F5F5F5F5F5F5F5F5F5F5F5F5F5F5F5F5F5F5F5F5F5F5F5F5F5F5F5F5
310
F5F5F5F5F5F5F5F5F5F5F5F5F5F5F5F5F5F5F5F5F5F5F5F5F5F5F5F5F5F5F5F5F5F5F5F5F5F5F5F5F5F5F5F5F5F5F5F5F5F5F5E2F5F5F5F5F5F5F5F5F5F5F5F5F5F5F5F5E2F5F5F5F5E2E2F5F5F5F5E2F5F5F5F5F5F5F5F5F5F5F5F5F5F5F5F5E2F5F5F5F5F5F5F5F5F5F5F5F5F5F5F5F5F5F5F5F5F5F5F5F5F5F5F5F5F5F5
310
F5F5F5F5F5F5F5F5F5F5F5F5F5F5F5F5F5F5F5F5F5F5F5F5F5F5F5F5F5F5F5F5F5F5F5F5F5F5F5F5F5F5F5F5F5F5F5F5F5F5F5F5F5F5F5F5F5F5F5F5F5F5F5F5F5F5F5F5F5F5F5F5F5F5F5F5F5F5F5F5F5F5F5F5F5F5F5F5F5F5F5F5F5F5F5F5F5F5F5F5F5F5F5F5E2F5F5F5F5F5F5F5F5F5F5F5F5F5F5F5F5E2F5F5F5F5E2
310
E2F5F5F5F5E2F5F5F5F5F5F5F5F5F5F5F5F5F5F5F5F5E2F5F5F5F5F5F5F5F5F5F5F5F5F5F5F5F5F5F5F5F5F5F5F5F5F5F5F5F5F5F5F5F5F5F5F5F5F5F5F5F5F5F5F5F5F5F5F5F5F5F5F5F5F5F5F5F5F5F5F5F5F5F5F5F5F5F5F5F5F5F5F5F5F5F5F5F5F5F5F5F5F5F5F5F5F5F5F5F5F5F5F5F5F5F5F5F5F5F5F5F5F5F5F5F5
310
F5F5F5F5F5F5F5F5F5F5F5F5F5F5F5F5F5F5F5F5F5F5F5F5F5F5F5F5F5F5E2F5F5F5F5F5F5F5F5F5F5F5F5F5F5F5F5E2F5F5F5F5E2E2F5F5F5F5E2F5F5F5F5F5F5F5F5F5F5F5F5F5F5F5F5E2F5F5F5F5F5F5F5F5F5F5F5F5F5F5F5F5F5F5F5F5F5F5F5F5F5F5F5F5F5F5F5F5F5F5F5F5F5F5F5F5F5F5F5F5F5F5F5F5F5F5F5
310
F5F5F5F5F5F5F5F5F5F5F5F5F5F5F5F5F5F5F5F5F5F5F5F5F5F5F5F5F5F5F5F5F5F5F5F5F5F5F5F5F5F5F5F5F5F5F5F5F5F5F5F5F5F5F5F5F5F5F5F5F5F5F5F5F5F5F5F5F5F5F5F5F5F5F5F5F5F5F5F5F5F5F5E2F5F5F5F5F5F5F5F5F5F5F5F5F5F5F5F5E2F5F5F5F5E2E2F5F5F5F5E2F5F5F5F5F5F5F5F5F5F5F5F5F5F5F5
310
F5E2F5F5F5F5F5F5F5F5F5F5F5F5F5F5F5F5F5F5F5F5F5F5F5F5F5F5F5F5F5F5F5F5F5F5F5F5F5F5F5F5F5F5F5F5F5F5F5F5F5F5F5F5F5F5F5F5F5F5F5F5F5F5F5F5F5F5F5F5F5F5F5F5F5F5F5F5F5F5F5F5F5F5F5F5F5F5F5F5F5F5F5F5F5F5F5F5F5F5F5F5F5F5F5F5F5F5F5F5F5F5F5F5F5F5F5F5F5F5F5F5F5F5F5F5F5
310
F5F5F5F5F5F5F5F5F5E2F5F5F5F5F5F5F5F5F5F5F5F5F5F5F5F5E2F5F5F5F5E2E2F5F5F5F5E2F5F5F5F5F5F5F5F5F5F5F5F5F5F5F5F5E2F5F5F5F5F5F5F5F5F5F5F5F5F5F5F5F5F5F5F5F5F5F5F5F5F5F5F5F5F5F5F5F5F5F5F5F5F5F5F5F5F5F5F5F5F5F5F5F5F5F5F5F5F5F5F5F5F5F5F5F5F5F5F5F5F5F5F5F5F5F5F5F5
310
F5F5F5F5F5F5F5F5F5F5F5F5F5F5F5F5F5F5F5F5F5F5F5F5F5F5F5F5F5F5F5F5F5F5F5F5F5F5F5F5F5F5F5F5F5F5F5F5F5F5F5F5F5F5F5F5F5F5F5F5F5F5E2F5F5F5F5F5F5F5F5F5F5F5F5F5F5F5F5E2F5F5F5F5E2E2F5F5F5F5E2F5F5F5F5F5F5F5F5F5F5F5F5F5F5F5F5E2F5F5F5F5F5F5F5F5F5F5F5F5F5F5F5F5F5F5F5
310
F5F5F5F5F5F5F5F5F5F5F5F5F5F5F5F5F5F5F5F5F5F5F5F5F5F5F5F5F5F5F5F5F5F5F5F5F5F5F5F5F5F5F5F5F5F5F5F5F5F5F5F5F5F5F5F5F5F5F5F5F5F5F5F5F5F5F5F5F5F5F5F5F5F5F5F5F5F5F5F5F5F5F5F5F5F5F5F5F5F5F5F5F5F5F5F5F5F5F5F5F5F5F5F5F5F5F5F5F5F5F5F5F5F5F5E2F5F5F5F5F5F5F5F5F5F5F5
310
F5F5F5F5F5E2F5F5F5F5E2E2F5F5F5F5E2F5F5F5F5F5F5F5F5F5F5F5F5F5F5F5F5E2F5F5F5F5F5F5F5F5F5F5F5F5F5F5F5F5F5F5F5F5F5F5F5F5F5F5F5F5F5F5F5F5F5F5F5F5F5F5F5F5F5F5F5F5F5F5F5F5F5F5F5F5F5F5F5F5F5F5F5F5F5F5F5F5F5F5F5F5F5F5F5F5F5F5F5F5F5F5F5F5F5F5F5F5F5F5F5F5F5F5F5F5F5
310
F5F5F5F5F5F5F5F5F5F5F5F5F5F5F5F5F5F5F5F5F5F5F5F5F5F5F5F5F5F5F5F5F5F5F5F5F5F5F5F5F5E2F5F5F5F5F5F5F5F5F5F5F5F5F5F5F5F5E2F5F5F5F5E2E2F5F5F5F5F5F5F5F5F5F5F5F5F5F5F5F5F5F5F5F5F5E2F5F5F5F5F5F5F5F5F5F5F5F5F5F5F5F5F5F5F5F5F5F5F5F5F5F5F5F5F5F5F5F5F5F5F5F5F5F5F5F5
310
F5F5F5F5F5F5F5F5F5F5F5F5F5F5F5F5F5F5F5F5F5F5F5F5F5F5F5F5F5F5F5F5F5F5F5F5F5F5F5F5F5F5F5F5F5F5F5F5F5F5F5F5F5F5F5F5F5F5F5F5F5F5F5F5F5F5F5F5F5F5F5F5F5F5F5F5F5F5F5F5F5F5F5F5F5F5F5F5F5F5F5F5F5F5E2F5F5F5F5F5F5F5F5F5F5F5F5F5F5F5F5F5F5F5F5F5E2E2F5F5F5F5F5F5F5F5F5
310
F5F5F5F5F5F5F5F5F5F5F5F5E2F5F5F5F5F5F5F5F5F5F5F5F5F5F5F5F5F5F5F5F5F5F5F5F5F5F5F5F5F5F5F5F5F5F5F5F5F5F5F5F5F5F5F5F5F5F5F5F5F5F5F5F5F5F5F5F5F5F5F5F5F5F5F5F5F5F5F5F5F5F5F5F5F5F5F5F5F5F5F5F5F5F5F5F5F5F5F5F5F5F5F5F5F5F5F5F5F5F5F5F5F5F5F5F5F5F5F5F5F5F5F5F5F5F5
310
F5F5F5F5F5F5F5F5F5F5F5F5F5F5F5F5F5F5F5F5E2F5F5F5F5F5F5F5F5F5F5F5F5F5F5F5F5F5F5F5F5F5E2E2F5F5F5F5F5F5F5F5F5F5F5F5F5F5F5F5F5F5F5F5F5E2F5F5F5F5F5F5F5F5F5F5F5F5F5F5F5F5F5F5F5F5F5F5F5F5F5F5F5F5F5F5F5F5F5F5F5F5F5F5F5F5F5F5F5F5F5F5F5F5F5F5F5F5F5F5F5F5F5F5F5F5F5
310
F5F5F5F5F5F5F5F5F5F5F5F5F5F5F5F5F5F5F5F5F5F5F5F5F5F5F5F5F5F5F5F5F5F5F5F5F5F5F5F5F5F5F5F5F5F5F5F5F5F5F5F5F5F5F5F5F5F5F5F5F5F5F5F5F5F5F5F5F5F5F5F5F5E2F5F5F5F5F5F5F5F5F5F5F5F5F5F5F5F5F5F5F5F5F5E2E2F5F5F5F5F5F5F5F5F5F5F5F5F5F5F5F5F5F5F5F5F5E2F5F5F5F5F5F5F5F5
310
F5F5F5F5F5F5F5F5F5F5F5F5F5F5F5F5F5F5F5F5F5F5F5F5F5F5F5F5F5F5F5F5F5F5F5F5F5F5F5F5F5F5F5F5F5F5F5F5F5F5F5F5F5F5F5F5F5F5F5F5F5F5F5F5F5F5F5F5F5F5F5F5F5F5F5F5F5F5F5F5F5F5F5F5F5F5F5F5F5F5F5F5F5F5F5F5F5F5DCF5F5F5F5F5F5F5F5F5F5F5F5F5F5F5F5F5F5F5F5F5F5F5F5F5F5F5E2
310
F5F5F5F5F5F5F5F5F5F5F5F5F5F5F5F5F5F5F5F5F5E2E2F5F5F5F5F5F5F5F5F5F5F5F5F5F5F5F5F5F5F5F5F5E2F5F5F5F5F5F5F5F5F5F5F5F5F5F5F5F5F5F5F5F5F5F5F5F5F5F5F5F5F5F5F5F5F5F5F5F5F5F5F5F5F5F5F5F5F5F5F5F5F5F5F5F5F5F5F5F5F5F5F5F5F5F5F5F5F5F5F5F5F5F5F5F5F5F5F5F5F5F5F5F5F5E2
310
ECE2E2E2E2E2E2E2E2E2E2E2E2E2E2E2E2E2E2E2E2E2E2E2DCE2E2E2E2E2E2E2E2E2E2E2E2E2E2E2E2E2E2E2E2E2E2E2ECE2F5F5E2F5F5F5F5F5F5F5F5F5F5F5F5F5F5F5F5F5F5F5F5F5E2E2F5F5F5F5F5F5F5F5F5F5F5F5F5F5F5F5F5F5F5F5F5E2F5F5F5F5F5F5F5F5F5F5F5F5F5F5F5F5F5F5F5F5F5F5F5F5F5F5F5F5F5
310
F5F5F5F5F5F5F5F5F5F5F5F5F5F5F5F5F5F5F5F5F5F5F5F5F5F5F5F5F5F5F5F5F5F5F5F5F5F5F5F5F5F5F5F5F5F5F5F5F5F5F5E2F5F5ECF5F5F5F5F5F5F5F5F5F5F5F5F5F5F5F5F5F5F5F5F5F5DCF5F5F5F5F5F5F5F5F5F5F5F5F5F5F5F5F5F5F5F5F5F5ECF5F5E2F5E2F5F5F5F5F5F5F5F5F5F5F5F5F5F5F5F5F5F5F5F5F5
310
E2E2F5F5F5F5F5F5F5F5F5F5F5F5F5F5F5F5F5F5F5F5F5E2F5F5F5F5F5F5F5F5F5F5F5F5F5F5F5F5F5F5F5F5F5F5F5F5F5F5F5F5F5F5F5F5F5F5F5F5F5F5F5F5F5F5F5F5F5F5F5F5F5F5F5F5F5F5F5F5F5F5F5F5F5F5F5F5F5F5F5F5F5F5F5F5F5F5F5F5F5F5F5E2F5F5F5F5ECF5F5F5F5F5F5F5F5F5F5F5F5F5F5F5F5F5F5
310
F5F5F5DCF5F5F5F5F5F5F5F5F5F5F5F5F5F5F5F5F5F5F5F5F5ECF5F5F5F5E2E2F5F5F5F5F5F5F5F5F5F5F5F5F5F5F5F5F5F5F5F5F5E2E2F5F5F5F5F5F5F5F5F5F5F5F5F5F5F5F5F5F5F5F5F5E2F5F5F5F5F5F5F5F5F5F5F5F5F5F5F5F5F5F5F5F5F5F5F5F5F5F5F5F5F5F5F5F5F5F5F5F5F5F5F5F5F5F5F5F5F5F5F5F5F5F5
310
F5F5F5F5F5F5F5F5F5F5F5F5F5F5F5F5F5F5F5F5F5F5F5F5F5F5F5F5E2E2E2E2E2E2ECE2E2E2E2E2E2E2E2E2ECECECECECECE2ECECECECECDCECECECECECE2ECECECECECECE2E2E2E2E2E2E2E2ECE2E2E2E2E2E2E2F5F5F5F5F5F5F5F5F5F5F5F5F5F5F5F5F5F5F5F5F5E2E2F5F5F5F5F5F5F5F5F5F5F5F5F5F5F5F5F5F5F5
310
F5F5E2F5F5F5F5F5F5F5F5F5F5F5F5F5F5F5F5F5F5F5F5F5F5F5F5F5F5F5F5F5F5F5F5F5F5F5F5F5F5F5F5F5F5F5F5F5F5F5F5F5F5F5F5F5F5F5F5F5F5F5F5F5F5F5F5F5F5F5F5F5F5F5F5F5F5F5F5F5F5E2F5F5F5F5F5F5F5F5F5F5F5F5F5F5F5ECF5F5F5F5F5F5F5F5F5F5F5DCF5F5F5F5F5F5F5F5F5F5ECF5F5F5F5F5F5
310
F5F5F5F5F5F5F5F5F5E2E2F5F5F5F5F5F5F5F5F5F5F5F5F5F5F5F5F5F5F5F5F5E2E2F5F5F5F5E2F5F5F5F5F5F5F5F5F5F5F5F5F5F5F5F5E2F5F5F5F5F5F5F5F5F5F5F5F5F5F5F5F5F5F5F5F5F5F5F5F5F5F5F5F5F5F5F5F5F5F5F5F5F5F5F5F5F5F5F5F5F5F5F5F5F5F5F5F5F5F5F5F5F5F5F5F5F5F5F5F5F5F5F5F5F5F5F5
310
F5F5F5F5F5F5F5E2F5F5F5F5F5F5F5F5F5F5F5F5F5F5F5ECECECECECECECECECECECECECECECECECECECECECECECECF5F5F5F5F5F5F5F5F5F5F5F5F5F5F5E2E2F5F5F5F5F5F5F5F5F5F5F5F5F5F5F5F5E2F5F5F5F5E2E2F5F5F5F5E2F5F5F5F5F5F5F5F5F5F5F5F5F5F5F5F5E2F5F5F5F5F5F5F5F5F5F5F5F5F5F5F5F5F5F5
310
F5F5F5F5F5F5F5F5F5F5F5F5F5F5F5F5F5F5F5F5F5F5F5F5F5F5F5F5F5F5F5F5F5F5F5F5F5F5F5F5F5F5F5F5F5F5F5F5F5F5F5F5F5F5F5F5F5F5F5F5F5E2F5F5F5F5F5F5F5F5F5F5F5F5F5F5F5F5F5F5F5ECF5F5F5F5F5F5DCF5F5F5F5F5ECF5F5F5F5F5F5F5F5F5F5F5F5F5F5F5F5F5F5F5F5E2E2F5F5F5F5F5F5F5F5F5F5
310
F5F5F5F5F5F5E2F5F5F5F5E2E2F5F5F5F5E2F5F5F5F5F5F5F5F5F5F5F5F5F5F5F5F5E2F5F5F5F5F5F5F5F5F5F5F5F5F5F5F5F5F5F5F5F5F5F5F5F5F5F5F5F5F5F5F5F5F5F5F5F5F5F5F5F5F5F5F5F5F5F5F5F5F5F5F5F5F5F5F5F5F5F5F5F5F5F5F5F5F5F5F5F5F5F5F5F5F5F5F5F5F5F5F5F5E2F5F5F5F5F5F5F5F5F5F5F5
310
F5F5F5F5F5ECECECECECECF5ECECECECECF5ECECECECECF5F5F5F5F5F5F5F5F5F5F5F5F5F5F5F5F5E2F5E2F5F5F5F5F5F5F5F5F5F5F5F5F5F5F5F5E2F5F5F5F5E2E2F5F5F5F5E2F5F5F5F5F5F5F5F5F5F5F5F5F5F5F5F5E2F5F5F5F5F5F5F5F5F5F5F5F5F5F5F5F5F5F5F5F5F5F5F5F5F5F5F5F5F5F5F5F5F5F5F5F5F5F5F5
310
F5F5F5F5F5F5F5F5F5F5F5F5F5F5F5F5F5F5F5F5F5F5F5F5F5F5F5F5F5F5F5F5F5F5F5F5F5F5F5F5F5F5E2E2F5F5F5F5F5F5F5F5F5F5F5F5F5F5ECF5F5F5F5F5F5F5F5DCF5F5F5F5F5F5F5ECF5F5F5F5F5F5F5F5F5F5F5F5F5F5F5E2E2F5F5E2F5F5F5F5F5F5F5F5F5F5F5F5F5F5F5F5E2F5F5F5F5E2E2F5F5F5F5E2F5F5F5
310
F5F5F5F5F5F5F5F5F5F5F5F5F5E2F5F5F5F5F5F5F5F5F5F5F5F5F5F5F5F5F5F5F5F5F5F5F5F5F5F5F5F5F5F5F5F5F5F5F5F5F5F5F5F5F5F5F5F5F5F5F5F5F5F5F5F5F5F5F5F5F5F5F5F5F5F5F5F5F5F5F5F5F5F5F5F5F5F5F5F5F5F5F5F5F5F5F5E2F5F5F5F5F5F5F5F5F5F5F5F5F5ECF5F5F5F5F5F5F5F5DCF5F5F5F5F5F5
310
F5ECF5F5F5F5F5F5F5F5F5F5F5F5F5E2E2F5F5F5F5E2F5F5F5F5F5F5F5F5F5F5F5F5F5F5F5F5E2F5F5F5F5E2E2F5F5F5F5E2F5F5F5F5F5F5F5F5F5F5F5F5F5F5F5F5E2F5F5F5F5F5F5F5F5F5F5F5F5F5F5F5F5F5F5F5F5F5F5F5F5F5F5F5F5F5F5F5F5F5F5F5F5F5F5F5F5F5F5F5F5F5F5F5F5F5F5F5F5F5F5F5F5F5F5F5F5
310
F5F5F5F5F5F5F5F5F5F5F5F5F5F5F5F5F5F5F5F5F5F5F5F5E2E2F5F5F5F5F5F5F5F5F5F5F5ECF5F5F5F5F5F5F5F5DCF5F5F5F5F5F5F5ECF5F5F5F5F5F5F5F5F5F5F5F5E2F5F5F5F5F5F5E2F5F5F5F5F5F5F5F5F5F5F5F5F5F5F5F5E2F5F5F5F5E2E2F5F5F5F5E2F5F5F5F5F5F5F5F5F5F5F5F5F5F5F5F5E2F5F5F5F5F5F5F5
310
F5F5F5F5F5F5F5F5F5F5F5F5F5F5F5F5F5F5F5F5F5F5F5F5F5F5F5F5F5F5F5F5F5F5F5F5F5F5F5F5F5F5F5F5F5F5F5F5F5F5F5F5F5F5F5F5F5F5F5F5F5F5F5F5F5F5F5F5F5F5F5F5F5F5F5F5F5F5F5E2F5F5F5F5F5F5F5F5F5F5ECF5F5F5F5F5F5F5F5DCF5F5F5F5F5F5F5ECF5F5F5F5F5F5F5F5F5F5E2E2F5F5F5F5F5F5F5
310
E2F5F5F5F5F5F5F5F5F5F5F5F5F5F5F5F5E2F5F5F5F5E2E2F5F5F5F5E2F5F5F5F5F5F5F5F5F5F5F5F5F5F5F5F5E2F5F5F5F5F5F5F5F5F5F5F5F5F5F5F5F5F5F5F5F5F5F5F5F5F5F5F5F5F5F5F5F5F5F5F5F5F5F5F5F5F5F5F5F5F5F5F5F5F5F5F5F5F5F5F5F5F5F5F5F5F5F5F5F5F5F5F5F5F5F5F5F5F5F5F5F5F5F5F5F5F5
310
F5F5F5F5F5F5E2E2F5F5F5F5F5F5F5F5F5ECECECECECF5ECECECECECF5ECECECECECF5F5F5F5F5F5F5F5E2E2F5F5F5F5F5F5F5F5F5E2F5F5F5F5F5F5F5F5F5F5F5F5F5F5F5F5E2F5F5F5F5E2E2F5F5F5F5E2F5F5F5F5F5F5F5F5F5F5F5F5F5F5F5F5E2F5F5F5F5F5F5F5F5F5F5F5F5F5F5F5F5F5F5F5F5F5F5F5F5F5F5F5F5
310
F5F5F5F5F5F5F5F5F5F5F5F5F5F5F5F5F5F5F5F5F5F5F5F5F5F5F5F5F5F5F5F5F5F5F5F5F5F5F5F5F5F5F5F5F5F5F5F5F5F5F5F5F5F5F5F5F5F5F5F5F5E2E2F5F5F5F5F5F5F5ECF5F5F5F5F5F5F5DCF5F5F5F5F5F5F5ECF5F5F5F5F5F5F5E2F5F5F5F5F5F5F5F5F5F5F5E2F5F5F5F5F5F5F5F5F5F5F5F5F5F5F5F5E2F5F5F5
310
F5E2E2F5F5F5F5E2F5F5F5F5F5F5F5F5F5F5F5F5F5F5F5F5E2F5F5F5F5F5F5F5F5F5F5F5F5F5F5F5F5F5F5F5F5F5F5F5F5F5F5F5F5F5F5F5F5F5F5F5F5F5F5F5F5F5F5F5F5F5F5F5F5F5F5F5F5F5F5F5F5F5F5F5F5F5F5F5F5F5F5F5F5F5F5F5F5F5F5F5F5F5F5F5F5F5F5F5F5F5F5F5F5F5F5E2F5F5F5F5F5F5F5ECF5F5F5
310
F5F5F5F5DCF5F5F5F5F5F5F5ECF5F5F5F5F5F5F5E2F5F5F5F5F5F5F5F5F5F5F5E2F5F5F5F5F5F5F5F5F5F5F5F5F5F5F5F5E2F5F5F5F5E2E2F5F5F5F5E2F5F5F5F5F5F5F5F5F5F5F5F5F5F5F5F5E2F5F5F5F5F5F5F5F5F5F5F5F5F5F5F5F5F5F5F5F5F5F5F5F5F5F5F5F5F5F5F5F5F5F5F5F5F5F5F5F5F5F5F5F5F5F5F5F5F5
310
F5F5F5F5F5F5F5F5F5F5F5F5F5F5F5F5F5F5F5F5F5F5F5F5F5F5F5F5F5F5F5F5F5F5F5F5F5F5F5F5F5E2F5F5F5F5F5F5F5ECF5F5F5F5F5F5F5DCF5F5F5F5F5F5F5ECF5F5F5F5F5F5F5E2F5F5F5F5F5F5F5F5F5F5F5E2F5F5F5F5F5F5F5F5F5F5F5F5F5F5F5F5E2F5F5F5F5E2E2F5F5F5F5E2F5F5F5F5F5F5F5F5F5F5F5F5F5
310
F5F5F5E2F5F5F5F5F5F5F5F5F5F5F5F5F5F5F5F5F5F5F5F5F5F5F5F5F5F5F5F5F5F5F5F5F5F5F5F5F5F5F5F5F5F5F5F5F5F5F5F5F5F5F5F5F5F5F5F5F5F5F5F5F5F5F5F5F5F5F5F5F5F5F5F5F5F5F5F5F5F5F5F5F5F5F5F5F5F5F5F5F5F5E2F5F5F5F5F5F5F5ECF5F5F5F5E2E2E2E2E2E2E2F5F5F5F5ECF5F5F5F5F5F5F5E2
310
F5F5F5F5F5F5F5F5F5F5F5E2F5F5F5F5F5F5F5F5F5F5F5F5F5F5F5F5E2F5F5F5F5E2E2F5F5F5F5E2F5F5F5F5F5F5F5F5F5F5F5F5F5F5F5F5E2F5F5F5F5F5F5F5F5F5F5F5F5F5F5F5F5F5F5F5F5F5F5F5F5F5F5F5F5F5F5F5F5F5F5F5F5F5F5F5F5F5F5F5F5F5F5F5F5F5F5F5F5F5F5F5F5F5F5F5F5F5F5F5F5F5F5F5F5F5F5
310
F5F5F5F5F5F5F5F5F5F5F5F5F5F5F5F5F5F5F5F5E2F5F5F5F5F5F5F5ECECECECECECF5F5DCF5F5ECECECECECECF5F5F5F5F5F5F5E2F5F5F5F5F5F5F5F5F5F5F5E2F5F5F5F5F5F5F5F5F5F5F5F5F5F5F5F5E2F5F5F5F5E2E2F5F5F5F5E2F5F5F5F5F5F5F5F5F5F5F5F5F5F5F5F5E2F5F5F5F5F5F5F5F5F5F5F5F5F5F5F5F5F5
310
F5F5F5F5F5F5F5F5F5F5F5F5F5F5F5F5F5F5F5F5F5F5F5F5F5F5F5F5F5F5F5F5F5F5F5F5F5F5F5F5F5F5F5F5F5F5F5F5F5F5F5F5F5F5F5F5F5F5F5F5F5F5F5F5F5F5F5F5F5F5F5F5F5E2F5F5F5F5F5F5F5ECF5F5F5F5E2F5F5DCF5F5E2F5F5F5F5ECF5F5F5F5F5F5F5E2F5F5F5F5F5F5F5F5F5F5F5E2F5F5F5F5F5F5F5F5F5
310
F5F5F5F5F5F5F5E2F5F5F5F5E2E2F5F5F5F5E2F5F5F5F5F5F5F5F5F5F5F5F5F5F5F5F5E2F5F5F5F5F5F5F5F5F5F5F5F5F5F5F5F5F5F5F5F5F5F5F5F5F5F5F5F5F5F5F5F5F5F5F5F5F5F5F5F5F5F5F5F5F5F5F5F5F5F5F5F5F5F5F5F5F5F5F5F5F5F5F5F5F5F5F5F5F5F5F5F5F5F5F5F5F5F5F5F5F5F5F5F5F5F5F5F5F5F5E2
310
E2E2E2E2E2E2E2E2E2E2E2E2ECF5F5DCF5F5E2E2E2E2E2E2E2E2E2E2E2E2E2E2F5F5F5F5F5F5F5F5F5F5F5E2F5F5F5F5F5F5F5F5F5F5F5F5F5F5F5F5E2F5F5F5F5E2E2F5F5F5F5E2F5F5F5F5F5F5F5F5F5F5F5F5F5F5F5F5E2F5F5F5F5F5F5F5F5F5F5F5F5F5F5F5F5F5F5F5F5F5F5F5F5F5F5F5F5F5F5F5F5F5F5F5F5F5F5
310
F5F5F5F5F5F5F5F5F5F5F5F5F5F5F5F5F5F5F5F5F5F5F5F5F5F5F5F5F5F5F5F5F5F5F5F5F5F5F5F5F5F5F5F5F5F5F5F5F5F5F5F5F5F5F5F5F5F5F5F5F5F5F5F5F5F5F5F5DCF5F5F5F5F5F5F5F5F5F5F5F5F5F5F5F5F5F5F5F5F5F5F5F5F5F5F5E2F5F5F5F5F5F5F5F5F5F5F5F5F5F5F5F5E2F5F5F5F5E2E2F5F5F5F5F5F5F5
310
F5F5F5F5F5F5F5F5F5F5F5F5F5F5E2F5F5F5F5F5F5F5F5F5F5F5F5F5F5F5F5F5F5F5F5F5F5F5F5F5F5F5F5F5F5F5F5F5F5F5F5F5F5F5F5F5F5F5F5F5F5F5F5F5F5F5F5F5F5F5F5F5F5F5F5F5F5F5F5F5F5F5F5F5F5F5F5F5F5F5F5F5F5F5F5F5F5F5F5F5F5F5F5F5F5F5F5F5F5F5F5F5F5F5F5F5F5F5F5F5F5F5F5F5F5F5F5
310
F5F5F5F5F5F5F5F5F5F5F5F5F5F5F5F5F5F5F5F5F5F5E2F5F5F5F5F5F5F5F5F5F5F5F5F5F5F5F5F5F5F5F5F5E2E2F5F5F5F5F5F5F5F5F5F5F5F5F5F5F5F5F5F5F5F5F5E2F5F5F5F5F5F5F5F5F5F5F5F5F5F5F5F5F5F5F5F5F5F5F5F5F5F5F5F5F5F5F5F5F5F5F5F5F5F5F5F5F5F5F5F5F5F5F5F5F5F5F5F5F5F5F5F5F5F5F5
310
F5F5F5F5F5F5F5F5F5F5F5F5F5F5F5F5F5F5F5F5F5F5F5F5F5F5F5F5F5F5F5F5F5F5F5F5F5F5F5F5F5F5F5F5F5F5F5F5F5F5F5F5F5F5F5F5F5F5F5F5F5F5F5F5F5F5F5F5F5F5F5F5F5F5F5E2F5F5F5F5F5F5F5F5F5F5F5F5F5F5F5F5F5F5F5F5F5E2E2F5F5F5F5F5F5F5F5F5F5F5F5F5F5F5F5F5F5F5F5F5E2F5F5F5F5F5F5
310
F5F5F5F5F5F5F5F5F5F5F5F5F5F5F5F5F5F5F5F5F5F5F5F5F5F5F5F5F5F5F5F5F5F5F5F5F5F5F5F5F5F5F5F5F5F5F5F5F5F5F5F5F5F5F5F5F5F5F5F5F5F5F5F5F5F5F5F5F5F5F5F5F5F5F5F5F5F5F5F5F5F5F5F5F5F5F5F5F5F5F5F5F5F5F5F5F5F5F5F5F5F5F5F5F5F5F5F5F5F5F5F5F5F5F5F5F5F5F5F5F5F5F5F5F5F5F5
310
F5E2F5F5F5F5F5F5F5F5F5F5F5F5F5F5F5F5F5F5F5F5F5E2E2F5F5F5F5F5F5F5F5F5F5F5F5F5F5F5F5F5F5F5F5F5E2F5F5F5F5F5F5F5F5F5F5F5F5F5F5F5F5F5F5F5F5F5F5F5F5F5F5F5F5F5F5F5F5F5F5F5F5F5F5F5F5F5F5F5F5F5F5F5F5F5F5F5F5F5F5F5F5F5F5F5F5F5F5F5F5F5F5F5F5F5F5F5F5F5F5F5F5F5F5F5F5
310
F5F5F5F5F5F5F5F5F5F5F5F5F5F5F5F5F5F5F5F5F5F5F5F5F5F5F5F5F5F5F5F5F5F5F5F5F5F5F5F5F5F5F5F5F5F5F5F5F5F5F5F5F5F5E2F5F5F5F5F5F5F5F5F5F5F5F5F5F5F5F5F5F5F5F5F5E2E2F5F5F5F5F5F5F5F5F5F5F5F5F5F5F5F5F5F5F5F5F5E2F5F5F5F5F5F5F5F5F5F5F5F5F5F5F5F5F5F5F5F5F5F5F5F5F5F5F5
310
F5F5F5F5F5F5F5F5F5F5F5F5F5F5F5F5F5F5F5F5F5F5F5F5F5F5F5F5F5F5F5F5F5F5F5F5F5F5F5F5F5F5F5F5F5F5F5F5F5F5F5F5F5F5F5F5F5F5F5F5F5F5F5F5F5F5F5F5F5F5F5F5F5F5F5F5F5F5F5F5F5F5F5F5F5F5F5F5F5F5F5F5F5F5F5F5F5F5F5F5F5F5F5F5F5F5F5E2F5F5F5F5F5F5F5F5F5F5F5F5F5F5F5F5F5F5F5
310
F5F5E2E2F5F5F5F5F5F5F5F5F5F5F5F5F5F5F5F5F5F5F5F5F5E2F5F5F5F5F5F5F5F5F5F5F5F5F5F5F5F5F5F5F5F5F5F5F5F5F5F5F5F5F5F5F5F5F5F5F5F5F5F5F5F5F5F5F5F5F5F5F5F5F5F5F5F5F5F5F5F5F5F5F5F5F5F5F5F5F5F5F5F5F5F5F5F5F5F5F5F5F5F5F5F5F5F5F5F5F5F5F5F5F5F5F5F5F5F5F5F5F5F5F5F5F5
310
F5F5F5F5F5F5F5F5F5F5F5F5F5F5F5F5F5F5F5F5F5F5F5F5F5F5F5F5F5F5F5F5F5E2F5F5F5F5F5F5F5F5F5F5F5F5F5F5F5F5F5F5F5F5F5E2E2F5F5F5F5F5F5F5F5F5F5F5F5F5F5F5F5F5F5F5F5F5E2F5F5F5F5F5F5F5F5F5F5F5F5F5F5F5F5F5F5F5F5F5F5F5F5F5F5F5F5F5F5F5F5F5F5F5F5F5F5F5F5F5F5F5F5F5F5F5F5
310
F5F5F5F5F5F5F5F5F5F5F5F5F5F5F5F5F5F5F5F5F5F5F5F5F5F5F5F5F5F5F5F5F5F5F5F5F5F5F5F5F5F5F5F5F5F5F5F5F5F5F5F5F5F5F5F5F5F5F5F5F5F5F5F5F5F5F5F5F5F5F5F5F5F5F5F5F5F5F5F5F5F5F5F5F5F5E2F5F5F5F5F5F5F5F5F5F5F5F5F5F5F5F5F5F5F5F5F5E2E2F5F5F5F5F5F5F5F5F5F5F5F5F5F5F5F5F5
310
F5F5F5F5E2F5F5F5F5F5F5F5F5F5F5F5F5F5F5F5F5F5F5F5F5F5F5F5F5F5F5F5F5F5F5F5F5F5F5F5F5F5F5F5F5F5F5F5F5F5F5F5F5F5F5F5F5F5F5F5F5F5F5F5F5F5F5F5F5F5F5F5F5F5F5F5F5F5F5F5F5F5F5F5F5F5F5F5F5F5F5F5F5F5F5F5F5F5F5F5F5F5F5F5F5F5F5F5F5F5F5F5F5F5F5F5F5F5F5F5F5F5F5F5F5F5F5
310
F5F5F5F5F5F5F5F5F5F5F5F5E2F5F5F5F5F5F5F5F5F5F5F5F5F5F5F5F5F5F5F5F5F5E2E2F5F5F5F5F5F5F5F5F5F5F5F5F5F5F5F5F5F5F5F5F5E2F5F5F5F5F5F5F5F5F5F5F5F5F5F5F5F5F5F5F5F5F5F5F5F5F5F5F5F5F5F5F5F5F5F5F5F5F5F5F5F5F5F5F5F5F5F5F5F5F5F5F5F5F5F5F5F5F5F5F5F5F5F5F5F5F5F5F5F5F5
310
F5F5F5F5F5F5F5F5F5F5F5F5F5F5F5F5F5F5F5F5F5F5F5F5F5F5F5F5F5F5F5F5F5F5F5F5F5F5F5F5F5F5F5F5F5F5F5F5F5F5F5F5F5F5F5F5F5F5F5F5F5F5F5F5F5E2F5F5F5F5F5F5F5F5F5F5F5F5F5F5F5F5F5F5F5F5F5E2E2F5F5F5F5F5F5F5F5F5F5F5F5F5F5F5F5F5F5F5F5F5E2F5F5F5F5F5F5F5F5F5F5F5F5F5F5F5F5
310
F5F5F5F5F5F5F5F5F5F5F5F5F5F5F5F5F5F5F5F5F5F5F5F5F5F5F5F5F5F5F5F5F5F5F5F5F5F5F5F5F5F5F5F5F5F5F5F5F5F5F5F5F5F5F5F5F5F5F5F5F5F5F5F5F5F5F5F5F5F5F5F5F5F5F5F5F5F5F5F5F5F5F5F5F5F5F5F5F5F5F5F5F5F5F5F5F5F5F5F5F5F5F5F5F5F5F5F5F5F5F5F5F5F5F5F5F5F5E2F5F5F5F5F5F5F5F5
310
F5F5F5F5F5F5F5F5F5F5F5F5F5E2E2F5F5F5F5E2F5F5F5F5F5F5F5F5F5F5F5F5F5F5F5F5E2F5F5F5F5F5F5F5F5F5F5F5F5F5F5F5F5F5F5F5F5F5F5F5F5F5F5F5F5F5F5F5F5F5F5F5F5F5F5F5F5F5F5F5F5F5F5F5F5F5F5F5F5F5F5F5F5F5F5F5F5F5F5F5F5F5F5F5F5F5F5F5F5F5F5F5F5F5F5F5F5F5F5F5F5F5F5F5F5F5F5
310
F5F5F5F5F5F5F5F5F5F5F5F5F5F5F5F5F5F5F5F5F5F5F5F5F5F5F5F5F5F5F5F5F5F5F5F5F5F5F5F5F5F5F5F5E2F5F5F5F5F5F5F5F5F5F5F5F5F5F5F5F5E2F5F5F5F5E2E2F5F5F5F5E2F5F5F5F5F5F5F5F5F5F5F5F5F5F5F5F5E2F5F5F5F5F5F5F5F5F5F5F5F5F5F5F5F5F5F5F5F5F5F5F5F5F5F5F5F5F5F5F5F5F5F5F5F5F5
310
F5F5F5F5F5F5F5F5F5F5F5F5F5F5F5F5F5F5F5F5F5F5F5F5F5F5F5F5F5F5F5F5F5F5F5F5F5F5F5F5F5F5F5F5F5F5F5F5F5F5F5F5F5F5F5F5F5F5F5F5F5F5F5F5F5F5F5F5F5F5F5F5F5F5F5F5F5F5F5F5F5F5F5F5F5F5F5F5F5F5F5F5F5F5F5F5F5E2F5F5F5F5F5F5F5F5F5F5F5F5F5F5F5F5E2F5F5F5F5E2E2F5F5F5F5E2F5
310
F5F5F5F5F5F5F5F5F5F5F5F5F5F5F5E2F5F5F5F5F5F5F5F5F5F5F5F5F5F5F5F5F5F5F5F5F5F5F5F5F5F5F5F5F5F5F5F5F5F5F5F5F5F5F5F5F5F5F5F5F5F5F5F5F5F5F5F5F5F5F5F5F5F5F5F5F5F5F5F5F5F5F5F5F5F5F5F5F5F5F5F5F5F5F5F5F5F5F5F5F5F5F5F5F5F5F5F5F5F5F5F5F5F5F5F5F5F5F5F5F5F5F5F5F5F5F5
310
F5F5F5F5F5F5F5F5F5F5F5F5F5F5F5F5F5F5F5F5F5F5F5E2F5F5F5F5F5F5F5F5F5F5F5F5F5F5F5F5E2F5F5F5F5E2E2F5F5F5F5E2F5F5F5F5F5F5F5F5F5F5F5F5F5F5F5F5E2F5F5F5F5F5F5F5F5F5F5F5F5F5F5F5F5F5F5F5F5F5F5F5F5F5F5F5F5F5F5F5F5F5F5F5F5F5F5F5F5F5F5F5F5F5F5F5F5F5F5F5F5F5F5F5F5F5F5
310
F5F5F5F5F5F5F5F5F5F5F5F5F5F5F5F5F5F5F5F5F5F5F5F5F5F5F5F5F5F5F5F5F5F5F5F5F5F5F5F5F5F5F5F5F5F5F5F5F5F5F5F5F5F5F5F5F5F5F5F5F5F5F5F5F5F5F5F5F5F5F5F5F5F5F5F5E2F5F5F5F5F5F5F5F5F5F5F5F5F5F5F5F5E2F5F5F5F5E2E2F5F5F5F5E2F5F5F5F5F5F5F5F5F5F5F5F5F5F5F5F5E2F5F5F5F5F5
310
F5F5F5F5F5F5F5F5F5F5F5F5F5F5F5F5F5F5F5F5F5F5F5F5F5F5F5F5F5F5F5F5F5F5F5F5F5F5F5F5F5F5F5F5F5F5F5F5F5F5F5F5F5F5F5F5F5F5F5F5F5F5F5F5F5F5F5F5F5F5F5F5F5F5F5F5F5F5F5F5F5F5F5F5F5F5F5F5F5F5F5F5F5F5F5F5F5F5F5F5F5F5F5F5F5F5F5F5F5F5F5F5F5F5F5F5F5F5F5F5F5F5F5F5F5F5F5
310
F5F5E2F5F5F5F5F5F5F5F5F5F5F5F5F5F5F5F5E2F5F5F5F5E2E2F5F5F5F5E2F5F5F5F5F5F5F5F5F5F5F5F5F5F5F5F5E2F5F5F5F5F5F5F5F5F5F5F5F5F5F5F5F5F5F5F5F5F5F5F5F5F5F5F5F5F5F5F5F5F5F5F5F5F5F5F5F5F5F5F5F5F5F5F5F5F5F5F5F5F5F5F5F5F5F5F5F5F5F5F5F5F5F5F5F5F5F5F5F5F5F5F5F5F5F5F5
310
F5F5F5F5F5F5F5F5F5F5F5F5F5F5F5F5F5F5F5F5F5F5F5F5F5F5F5F5F5F5F5F5F5F5F5F5F5F5F5F5F5F5F5F5F5F5F5F5F5F5F5F5F5F5F5E2F5F5F5F5F5F5F5F5F5F5F5F5F5F5F5F5E2F5F5F5F5E2E2F5F5F5F5E2F5F5F5F5F5F5F5F5F5F5F5F5F5F5F5F5E2F5F5F5F5F5F5F5F5F5F5F5F5F5F5F5F5F5F5F5F5F5F5F5F5F5F5
310
F5F5F5F5F5F5F5F5F5F5F5F5F5F5F5F5F5F5F5F5F5F5F5F5F5F5F5F5F5F5F5F5F5F5F5F5F5F5F5F5F5F5F5F5F5F5F5F5F5F5F5F5F5F5F5F5F5F5F5F5F5F5F5F5F5F5F5F5F5F5F5F5F5F5F5F5F5F5F5F5F5F5F5F5F5F5F5F5F5F5F5F5F5F5F5F5F5F5F5F5F5F5F5F5F5F5F5F5E2F5F5F5F5F5F5F5F5F5F5F5F5F5F5F5F5E2F5
310
F5F5F5E2E2F5F5F5F5E2F5F5F5F5F5F5F5F5F5F5F5F5F5F5F5F5E2F5F5F5F5F5F5F5F5F5F5F5F5F5F5F5F5F5F5F5F5F5F5F5F5F5F5F5F5F5F5F5F5F5F5F5F5F5F5F5F5F5F5F5F5F5F5F5F5F5F5F5F5F5F5F5F5F5F5F5F5F5F5F5F5F5F5F5F5F5F5F5F5F5F5F5F5F5F5F5F5F5F5F5F5F5F5F5F5F5F5F5F5F5F5F5F5F5F5F5F5
310
F5F5F5F5F5F5F5F5F5F5F5F5F5F5F5F5F5F5F5F5F5F5F5F5F5F5F5F5F5F5F5F5F5F5E2F5F5F5F5F5F5F5F5F5F5F5F5F5F5F5F5E2F5F5F5F5E2E2F5F5F5F5E2F5F5F5F5F5F5F5F5F5F5F5F5F5F5F5F5E2F5F5F5F5F5F5F5F5F5F5F5F5F5F5F5F5F5F5F5F5F5F5F5F5F5F5F5F5F5F5F5F5F5F5F5F5F5F5F5F5F5F5F5F5F5F5F5
310
F5F5F5F5F5F5F5F5F5F5F5F5F5F5F5F5F5F5F5F5F5F5F5F5F5F5F5F5F5F5F5F5F5F5F5F5F5F5F5F5F5F5F5F5F5F5F5F5F5F5F5F5F5F5F5F5F5F5F5F5F5F5F5F5F5F5F5F5F5F5F5F5F5F5F5F5F5F5F5F5F5F5F5F5F5F5F5E2F5F5F5F5F5F5F5F5F5F5F5F5F5F5F5F5E2F5F5F5F5E2E2F5F5F5F5E2F5F5F5F5F5F5F5F5F5F5F5
310
F5F5F5F5F5E2F5F5F5F5F5F5F5F5F5F5F5F5F5F5F5F5F5F5F5F5F5F5F5F5F5F5F5F5F5F5F5F5F5F5F5F5F5F5F5F5F5F5F5F5F5F5F5F5F5F5F5F5F5F5F5F5F5F5F5F5F5F5F5F5F5F5F5F5F5F5F5F5F5F5F5F5F5F5F5F5F5F5F5F5F5F5F5F5F5F5F5F5F5F5F5F5F5F5F5F5F5F5F5F5F5F5F5F5F5F5F5F5F5F5F5F5F5F5F5F5F5
310
F5F5F5F5F5F5F5F5F5F5F5F5F5E2F5F5F5F5F5F5F5F5F5F5F5F5F5F5F5F5E2F5F5F5F5E2E2F5F5F5F5E2F5F5F5F5F5F5F5F5F5F5F5F5F5F5F5F5E2F5F5F5F5F5F5F5F5F5F5F5F5F5F5F5F5F5F5F5F5F5F5F5F5F5F5F5F5F5F5F5F5F5F5F5F5F5F5F5F5F5F5F5F5F5F5F5F5F5F5F5F5F5F5F5F5F5F5F5F5F5F5F5F5F5F5F5F5
310
F5F5F5F5F5F5F5F5F5F5F5F5F5F5F5F5F5F5F5F5F5F5F5F5F5F5F5F5F5F5F5F5F5F5F5F5F5F5F5F5F5F5F5F5F5F5F5F5F5F5F5F5F5F5F5F5F5F5F5F5F5F5F5F5F5F5E2F5F5F5F5F5F5F5F5F5F5F5F5F5F5F5F5E2F5F5F5F5E2E2F5F5F5F5E2F5F5F5F5F5F5F5F5F5F5F5F5F5F5F5F5E2F5F5F5F5F5F5F5F5F5F5F5F5F5F5F5
310
F5F5F5F5F5F5F5F5F5F5F5F5F5F5F5F5F5F5F5F5F5F5F5F5F5F5F5F5F5F5F5F5F5F5F5F5F5F5F5F5F5F5F5F5F5F5F5F5F5F5F5F5F5F5F5F5F5F5F5F5F5F5F5F5F5F5F5F5F5F5F5F5F5F5F5F5F5F5F5F5F5F5F5F5F5F5F5F5F5F5F5F5F5F5F5F5F5F5F5F5F5F5F5F5F5F5F5F5F5F5F5F5F5F5F5F5F5F5F5E2F5F5F5F5F5F5F5
310
F5F5F5F5F5F5F5F5F5E2F5F5F5F5E2E2F5F5F5F5E2F5F5F5F5F5F5F5F5F5F5F5F5F5F5F5F5E2F5F5F5F5F5F5F5F5F5F5F5F5F5F5F5F5F5F5F5F5F5F5F5F5F5F5F5F5F5F5F5F5F5F5F5F5F5F5F5F5F5F5F5F5F5F5F5F5F5F5F5F5F5F5F5F5F5F5F5F5F5F5F5F5F5F5F5F5F5F5F5F5F5F5F5F5F5F5F5F5F5F5F5F5F5F5F5F5F5
310
F5F5F5F5F5F5F5F5F5F5F5F5F5F5F5F5F5F5F5F5F5F5F5F5F5F5F5F5F5F5F5F5F5F5F5F5F5F5F5F5F5F5F5F5F5E2F5F5F5F5F5F5F5F5F5F5F5F5F5F5F5F5E2F5F5F5F5E2E2F5F5F5F5E2F5F5F5F5F5F5F5F5F5F5F5F5F5F5F5F5E2F5F5F5F5F5F5F5F5F5F5F5F5F5F5F5F5F5F5F5F5F5F5F5F5F5F5F5F5F5F5F5F5F5F5F5F5
310
F5F5F5F5F5F5F5F5F5F5F5F5F5F5F5F5F5F5F5F5F5F5F5F5F5F5F5F5F5F5F5F5F5F5F5F5F5F5F5F5F5F5F5F5F5F5F5F5F5F5F5F5F5F5F5F5F5F5F5F5F5F5F5F5F5F5F5F5F5F5F5F5F5F5F5F5F5F5F5F5F5F5F5F5F5F5F5F5F5F5F5F5F5F5F5F5F5F5E2F5F5F5F5F5F5F5F5F5F5F5F5F5F5F5F5E2F5F5F5F5E2E2F5F5F5F5E2
310
F5F5F5F5F5F5F5F5F5F5F5F5F5F5F5F5E2F5F5F5F5F5F5F5F5F5F5F5F5F5F5F5F5F5F5F5F5F5F5F5F5F5F5F5F5F5F5F5F5F5F5F5F5F5F5F5F5F5F5F5F5F5F5F5F5F5F5F5F5F5F5F5F5F5F5F5F5F5F5F5F5F5F5F5F5F5F5F5F5F5F5F5F5F5F5F5F5F5F5F5F5F5F5F5F5F5F5F5F5F5F5F5F5F5F5F5F5F5F5F5F5F5F5F5F5F5F5
310
F5F5F5F5F5F5F5F5F5F5F5F5F5F5F5F5F5F5F5F5F5F5F5F5E2F5F5F5F5F5F5F5F5F5F5F5F5F5F5F5F5E2F5F5F5F5E2E2F5F5F5F5E2F5F5F5F5F5F5F5F5F5F5F5F5F5F5F5F5E2F5F5F5F5F5F5F5F5F5F5F5F5F5F5F5F5F5F5F5F5F5F5F5F5F5F5F5F5F5F5F5F5F5F5F5F5F5F5F5F5F5F5F5F5F5F5F5F5F5F5F5F5F5F5F5F5F5
310
F5F5F5F5F5F5F5F5F5F5F5F5F5F5F5F5F5F5F5F5F5F5F5F5F5F5F5F5F5F5F5F5F5F5F5F5F5F5F5F5F5F5F5F5F5F5F5F5F5F5F5F5F5F5F5F5F5F5F5F5F5F5F5F5F5F5F5F5F5F5F5F5F5F5F5F5F5E2F5F5F5F5F5F5F5F5F5F5F5F5F5F5F5F5E2F5F5F5F5E2E2F5F5F5F5F5F5F5F5F5F5F5F5F5F5F5F5F5F5F5F5F5E2F5F5F5F5
310
F5F5F5F5F5F5F5F5F5F5F5F5F5F5F5F5F5F5F5F5F5F5F5F5F5F5F5F5F5F5F5F5F5F5F5F5F5F5F5F5F5F5F5F5F5F5F5F5F5F5F5F5F5F5F5F5F5F5F5F5F5F5F5F5F5F5F5F5F5F5F5F5F5F5F5F5F5F5F5F5F5F5F5F5F5F5F5F5F5F5F5F5F5F5F5F5F5F5F5F5F5F5F5F5F5F5F5F5F5F5F5F5F5F5F5F5F5F5F5F5F5F5F5F5F5F5F5
310
F5F5F5E2F5F5F5F5F5F5F5F5F5F5F5F5F5F5F5F5F5F5F5F5F5E2E2F5F5F5F5F5F5F5F5F5F5F5F5F5F5F5F5F5F5F5F5F5E2F5F5F5F5F5F5F5F5F5F5F5F5F5F5F5F5F5F5F5F5F5F5F5F5F5F5F5F5F5F5F5F5F5F5F5F5F5F5F5F5F5F5F5F5F5F5F5F5F5F5F5F5F5F5F5F5F5F5F5F5F5F5F5F5F5F5F5F5F5F5F5F5F5F5F5F5F5F5
310
F5F5F5F5F5F5F5F5F5F5F5F5F5F5F5F5F5F5F5F5F5F5F5F5F5F5F5F5F5F5F5F5F5F5F5F5F5F5F5F5F5F5F5F5F5F5F5F5F5F5F5F5F5F5F5F5E2F5F5F5F5F5F5F5F5F5F5F5F5F5F5F5F5F5F5F5F5F5E2E2F5F5F5F5F5F5F5F5F5F5F5F5F5F5F5F5F5F5F5F5F5E2F5F5F5F5F5F5F5F5F5F5F5F5F5F5F5F5F5F5F5F5F5F5F5F5F5
310
F5F5F5F5F5F5F5F5F5F5F5F5F5F5F5F5F5F5F5F5F5F5F5F5F5F5F5F5F5F5F5F5F5F5F5F5F5F5F5F5F5F5F5F5F5F5F5F5F5F5F5F5F5F5F5F5F5F5F5F5F5F5F5F5F5F5F5F5F5F5F5F5F5F5F5F5F5F5F5F5F5F5F5F5F5F5F5F5F5F5F5F5F5F5F5F5F5F5F5F5F5F5F5F5F5F5F5F5F5E2F5F5F5F5F5F5F5F5F5F5F5F5F5F5F5F5F5
310
F5F5F5F5E2E2F5F5F5F5F5F5F5F5F5F5F5F5F5F5F5F5F5F5F5F5F5E2F5F5F5F5F5F5F5F5F5F5F5F5F5F5F5F5F5F5F5F5F5F5F5F5F5F5F5F5F5F5F5F5F5F5F5F5F5F5F5F5F5F5F5F5F5F5F5F5F5F5F5F5F5F5F5F5F5F5F5F5F5F5F5F5F5F5F5F5F5F5F5F5F5F5F5F5F5F5F5F5F5F5F5F5F5F5F5F5F5F5F5F5F5F5F5F5F5F5F5
310
F5F5F5F5F5F5F5F5F5F5F5F5F5F5F5F5F5F5F5F5F5F5F5F5F5F5F5F5F5F5F5F5F5F5F5E2F5F5F5F5F5F5F5F5F5F5F5F5F5F5F5F5F5F5F5F5F5E2E2F5F5F5F5F5F5F5F5F5F5F5F5F5F5F5F5F5F5F5F5F5E2E2E2E2E2E2E2E2E2E2E2E2E2E2E2E2E2E2E2E2E2E2E2E2E2E2E2E2E2E2E2E2E2E2E2E2E2E2E2E2E2E2E2E2E2E2E2
310
E2E2E2E2E2E2E2E2E2E2E2E2E2E2E2E2E2E2E2E2E2E2E2E2E2E2E2E2E2E2E2E2E2E2E2E2E2E2E2E2E2E2E2E2E2E2E2E2E2E2E2E2E2E2E2E2E2E2E2E2E2E2E2E2E2E2E2E2E2E2E2E2E2E2E2E2E2E2E2E2E2E2E2E2E2E2E2E2E2F5F5F5F5F5F5F5F5F5F5F5F5F5F5F5F5F5F5F5F5F5E2E2F5F5F5F5F5F5F5F5F5F5F5F5F5F5F5
310
F5F5F5F5F5F5F5F5F5F5F5F5F5F5F5F5F5F5F5F5F5F5F5F5F5F5F5F5F5F5F5F5F5F5F5F5F5F5F5F5F5F5F5F5F5F5F5F5F5F5F5F5F5F5F5F5F5F5F5F5F5F5F5F5F5F5F5F5F5F5F5F5F5F5F5F5F5F5F5F5F5F5F5F5F5F5F5F5F5F5F5F5F5F5F5F5F5F5F5F5F5F5F5F5F5F5F5F5F5F5F5F5F5F5F5F5F5F5F5F5F5F5F5F5F5F5F5
310
F5F5F5F5F5F5F5F5F5F5F5F5F5F5F5F5F5F5F5F5F5F5F5F5F5F5F5F5F5F5F5F5F5F5F5F5E2E2F5F5F5F5F5F5F5F5F5F5F5F5F5F5F5F5F5F5F5F5F5F5F5F5F5F5F5F5F5F5F5F5F5F5F5F5F5F5F5F5F5F5F5F5F5F5F5F5F5F5F5F5F5F5F5F5F5F5F5F5F5F5F5F5F5F5F5F5F5F5F5F5F5F5F5F5F5F5F5F5F5F5F5F5F5F5F5F5F5
310
F5F5F5F5F5F5F5F5F5F5F5F5F5F5F5F5F5F5F5F5F5F5F5F5F5F5F5F5F5F5F5F5F5F5F5F5F5F5F5F5F5F5F5F5F5F5F5F5F5F5F5F5F5F5F5F5F5F5F5F5F5F5F5F5F5F5F5F5F5F5F5F5F5F5F5F5F5F5F5F5F5F5F5F5F5F5F5F5F5E2E2F5F5F5F5F5F5F5F5F5F5F5F5F5F5F5F5F5F5F5F5F5F5F5F5F5F5F5F5F5F5F5F5F5F5F5F5
310
F5F5F5F5F5F5F5F5F5F5F5F5F5F5F5F5F5F5F5F5F5F5F5F5F5F5F5F5F5F5F5F5F5F5F5F5F5F5F5F5F5F5F5F5F5F5F5F5F5F5F5F5F5F5F5F5F5F5F5F5F5F5F5F5F5F5F5F5F5F5F5F5F5F5F5F5F5F5F5F5F5F5F5F5F5F5F5F5F5F5F5F5F5F5F5F5F5F5F5F5F5F5F5F5F5F5F5F5F5F5F5F5F5F5F5F5F5F5F5F5F5F5F5F5F5F5F5
310
F5F5F5F5F5F5F5F5F5F5F5F5F5F5F5E2E2F5F5F5F5F5F5F5F5F5F5F5F5F5F5F5F5F5F5F5F5F5F5F5F5F5F5F5F5F5F5F5F5F5F5F5F5F5F5F5F5F5F5F5F5F5F5F5F5F5F5F5F5F5F5F5F5F5F5F5F5F5F5F5F5F5F5F5F5F5F5F5F5F5F5F5F5F5F5F5F5F5F5F5F5F5F5F5F5F5F5F5F5F5F5F5F5F5F5F5F5F5F5F5F5F5F5F5F5F5F5
310
F5F5F5F5F5F5F5F5F5F5F5F5F5F5F5F5F5F5F5F5F5F5F5F5F5F5F5F5F5F5F5F5F5F5F5F5F5F5F5F5F5F5F5F5F5F5F5F5F5F5F5F5F5F5F5F5F5F5F5F5F5F5F5F5F5F5F5F5E2E2F5F5F5F5E2F5F5F5F5F5F5F5F5F5F5F5F5F5F5F5F5F5F5F5F5F5F5F5F5F5F5F5F5F5F5F5F5F5F5F5F5F5F5F5F5F5F5F5F5F5F5F5F5F5F5F5F5
310
F5F5F5F5F5F5F5F5F5F5F5F5F5F5F5F5F5F5F5F5F5F5F5F5F5F5F5F5F5F5F5F5F5F5F5F5F5F5F5F5F5F5F5F5F5F5F5F5F5F5F5F5F5F5F5F5F5F5F5F5F5F5F5F5F5F5F5F5F5F5F5F5F5F5F5F5F5F5F5F5F5F5F5F5F5F5F5F5F5F5F5F5F5F5F5F5F5F5F5F5F5F5F5F5F5F5F5F5F5F5F5F5F5F5F5F5E2F5F5F5F5E2E2F5F5F5F5
310
E2F5F5F5F5F5F5F5F5F5F5F5F5F5F5F5F5F5F5F5F5F5F5F5F5F5F5F5F5F5F5F5F5F5F5F5F5F5F5F5F5F5F5F5F5F5F5F5F5F5F5F5F5F5F5F5F5F5F5F5F5F5F5F5F5F5F5F5F5F5F5F5F5F5F5F5F5F5F5F5F5F5F5F5F5F5F5F5F5F5F5F5F5F5F5F5F5F5F5F5F5F5F5F5F5F5F5F5F5F5F5F5F5F5F5F5F5F5F5F5F5F5F5F5F5F5F5
310
F5F5F5F5F5F5F5F5F5F5F5F5F5F5F5F5F5F5F5F5F5F5F5F5F5F5F5F5F5F5F5F5F5F5F5F5F5F5F5F5F5F5E2F5F5F5F5E2E2F5F5F5F5E2F5F5F5F5F5F5F5F5F5F5F5F5F5F5F5F5F5F5F5F5F5F5F5F5F5F5F5F5F5F5F5F5F5F5F5F5F5F5F5F5F5F5F5F5F5F5F5F5F5F5F5F5F5F5F5F5F5F5F5F5F5F5F5F5F5F5F5F5F5F5F5F5F5
310
F5F5F5F5F5F5F5F5F5F5F5F5F5F5F5F5F5F5F5F5F5F5F5F5F5F5F5F5F5F5F5F5F5F5F5F5F5F5F5F5F5F5F5F5F5F5F5F5F5F5F5F5F5F5F5F5F5F5F5F5F5F5F5F5F5F5F5F5F5F5F5F5F5F5F5F5F5F5F5F5F5F5F5F5F5F5F5F5F5F5F5F5F5F5F5E2F5F5F5F5E2E2F5F5F5F5E2F5F5F5F5F5F5F5F5F5F5F5F5F5F5F5F5F5F5F5F5
310
F5F5F5F5F5F5F5F5F5F5F5F5F5F5F5F5F5F5F5F5F5F5F5F5F5F5F5F5F5F5F5F5F5F5F5F5F5F5F5F5F5F5F5F5F5F5F5F5F5F5F5F5F5F5F5F5F5F5F5F5F5F5F5F5F5F5F5F5F5F5F5F5F5F5F5F5F5F5F5F5F5F5F5F5F5F5F5F5F5F5F5F5F5F5F5F5F5F5F5F5F5F5F5F5F5F5F5F5F5F5F5F5F5F5F5F5F5F5F5F5F5F5F5F5F5F5F5
310
F5F5F5F5F5F5F5F5F5F5F5F5F5F5F5F5F5F5F5F5F5E2F5F5F5F5E2E2F5F5F5F5E2F5F5F5F5F5F5F5F5F5F5F5F5F5F5F5F5F5F5F5F5F5F5F5F5F5F5F5F5F5F5F5F5F5F5F5F5F5F5F5F5F5F5F5F5F5F5F5F5F5F5F5F5F5F5F5F5F5F5F5F5F5F5F5F5F5F5F5F5F5F5F5F5F5F5F5F5F5F5F5F5F5F5F5F5F5F5F5F5F5F5F5F5F5F5
310
F5F5F5F5F5F5F5F5F5F5F5F5F5F5F5F5F5F5F5F5F5F5F5F5F5F5F5F5F5F5F5F5F5F5F5F5F5F5F5F5F5F5F5F5F5F5F5F5F5F5F5F5F5F5F5F5F5F5F5F5F5F5F5F5F5F5F5F5F5F5F5F5F5F5E2F5F5F5F5E2E2F5F5F5F5E2F5F5F5F5F5F5F5F5F5F5F5F5F5F5F5F5F5F5F5F5F5F5F5F5F5F5F5F5F5F5F5F5F5F5F5F5F5F5F5F5F5
310
F5F5F5F5F5F5F5F5F5F5F5F5F5F5F5F5F5F5F5F5F5F5F5F5F5F5F5F5F5F5F5F5F5F5F5F5F5F5F5F5F5F5F5F5F5F5F5F5F5F5F5F5F5F5F5F5F5F5F5F5F5F5F5F5F5F5F5F5F5F5F5F5F5F5F5F5F5F5F5F5F5F5F5F5F5F5F5F5F5F5F5F5F5F5F5F5F5F5F5F5F5F5F5F5F5F5F5F5F5F5F5F5F5F5F5F5F5F5F5F5F5F5F5F5F5F5F5
310
E2F5F5F5F5E2E2F5F5F5F5E2F5F5F5F5F5F5F5F5F5F5F5F5F5F5F5F5F5F5F5F5F5F5F5F5F5F5F5F5F5F5F5F5F5F5F5F5F5F5F5F5F5F5F5F5F5F5F5F5F5F5F5F5F5F5F5F5F5F5F5F5F5F5F5F5F5F5F5F5F5F5F5F5F5F5F5F5F5F5F5F5F5F5F5F5F5F5F5F5F5F5F5F5F5F5F5F5F5F5F5F5F5F5F5F5F5F5F5F5F5F5F5F5F5F5F5
310
F5F5F5F5F5F5F5F5F5F5F5F5F5F5F5F5F5F5F5F5F5F5F5F5F5F5F5F5F5F5F5F5F5F5F5F5F5F5F5F5F5F5F5F5F5F5F5F5F5F5F5F5F5E2F5F5F5F5E2E2F5F5F5F5E2F5F5F5F5F5F5F5F5F5F5F5F5F5F5F5F5F5F5F5F5F5F5F5F5F5F5F5F5F5F5F5F5F5F5F5F5F5F5F5F5F5F5F5F5F5F5F5F5F5F5F5F5F5F5F5F5F5F5F5F5F5F5
310
F5F5F5F5F5F5F5F5F5F5F5F5F5F5F5F5F5F5F5F5F5F5F5F5F5F5F5F5F5F5F5F5F5F5F5F5F5F5F5F5F5F5F5F5F5F5F5F5F5F5F5F5F5F5F5F5F5F5F5F5F5F5F5F5F5F5F5F5F5F5F5F5F5F5F5F5F5F5F5F5F5F5F5F5F5F5F5F5F5F5F5F5F5F5F5F5F5F5F5F5F5F5F5F5F5F5E2F5F5F5F5E2E2F5F5F5F5E2E2E2E2E2E2E2E2F5F5
310
F5F5F5F5F5F5F5E2E2E2E2E2E2E2E2E2E2E2E2E2E2E2F5F5F5F5F5F5F5F5F5E2E2E2E2E2E2E2E2E2E2E2E2E2E2E2E2F5F5F5F5F5F5F5F5E2E2E2E2E2E2E2E2E2E2E2E2E2E2E2E2F5F5F5F5F5F5F5F5E2E2E2E2E2E2E2E2E2E2E2E2E2E2E2E2F5F5F5F5F5F5F5F5E2E2E2E2E2E2E2E2E2E2E2E2E2E2E2E2F5F5F5F5F5F5F5F5
310
F5E2E2E2E2E2E2E2E2E2E2E2E2E2E2E2F5F5F5F5F5F5F5F5F5E2E2E2E2E2E2E2E2F5F5F5F5E2E2F5F5F5F5F5F5F5F5F5F5F5F5F5F5F5F5F5F5F5F5F5F5F5F5F5F5F5F5F5F5F5F5F5F5F5F5F5F5F5F5F5F5F5F5F5F5F5F5F5F5F5F5F5F5F5F5F5F5F5F5F5F5F5F5F5F5F5F5F5F5F5F5F5F5F5F5F5F5F5F5F5F5F5F5F5F5F5F5
310
F5F5F5F5F5F5F5F5F5F5F5F5F5F5F5F5F5F5F5F5F5F5F5F5F5F5F5F5F5F5F5F5F5F5F5F5F5F5F5F5F5F5F5F5F5F5F5F5F5F5F5F5F5F5F5F5F5F5F5F5F5F5F5F5F5F5F5F5F5F5F5F5F5F5F5F5F5F5F5F5F5F5F5F5F5F5F5F5F5F5E2E2F5F5F5F5F5F5F5F5F5F5F5F5F5F5F5F5F5F5F5F5F5F5F5F5F5F5F5F5F5F5F5F5F5F5F5
310
F5F5F5F5F5F5F5F5F5F5F5F5F5F5F5F5F5F5F5F5F5F5F5F5F5F5F5F5F5F5F5F5F5F5F5F5F5F5F5F5F5F5F5F5F5F5F5F5F5F5F5F5F5F5F5F5F5F5F5F5F5F5F5F5F5F5F5F5F5F5F5F5F5F5F5F5F5F5F5F5F5F5F5F5F5F5F5F5F5F5F5F5F5F5F5F5F5F5F5F5F5F5F5F5F5F5F5F5F5F5F5F5F5F5F5F5F5F5F5F5F5F5F5F5F5F5F5
310
F5F5F5F5F5F5F5F5F5F5F5F5F5F5F5F5E2E2F5F5F5F5F5F5F5F5F5F5F5F5F5F5F5F5F5F5F5F5F5F5F5F5F5F5F5F5F5F5F5F5F5F5F5F5F5F5F5F5F5F5F5F5F5F5F5F5F5F5F5F5F5F5F5F5F5F5F5F5F5F5F5F5F5F5F5F5F5F5F5F5F5F5F5F5F5F5F5F5F5F5F5F5F5F5F5F5F5F5F5F5F5F5F5F5F5F5F5F5F5F5F5F5F5F5F5F5F5
310
F5F5F5F5F5F5F5F5F5F5F5F5F5F5F5F5F5F5F5F5F5F5F5F5F5F5F5F5F5F5F5F5F5F5F5F5F5F5F5F5F5F5F5F5F5F5F5F5F5F5F5F5F5F5F5F5F5F5F5F5F5F5F5F5F5F5F5F5F5E2E2E2E2E2E2E2E2E2E2E2E2E2E2E2E2E2E2E2E2E2E2E2E2E2E2E2E2E2E2E2E2E2E2E2E2E2E2E2E2E2E2E2E2E2E2E2E2E2E2E2E2E2E2E2E2E2E2
310
E2E2E2E2E2E2E2E2E2E2E2E2E2E2E2E2E2E2E2E2E2E2E2E2E2E2E2E2E2E2E2E2E2E2E2E2E2E2E2E2E2E2E2E2E2E2E2E2E2E2E2E2E2E2E2E2E2E2E2E2E2E2E2E2E2E2E2E2E2E2E2E2E2E2E2E2E2E2E2E2E2E2E2E2E2E2E2E2E2E2E2E2E2E2E2E2E2E2E2E2E2E2E2E2E2E2E2E2E2E2E2E2E2E2E2E2E2E2E2E2E2E2E2EFEFEFEF
310
EFEFEFEFEFEFEFEFEFEFEFEFEFEFEFEFEFEFEFEFEFEFEFEFEFEFEFEFEFEFEFEFEFEFEFEFEFEFEFEFEFEFEFEFEFEFEFEFEFEFEFEFEFEFEFEFEFEFEFEFEFEFEFEFEFEFEFEFEFEFEFEFEFEFEFEFEFEFEFEFEFEFEFEFEFEFEFEFEFEFEFEFEFEFEFEFEFEFEFEFEFEFEFEFEFEFEFEFEFEFEFEFEFEFEFEFEFEFEFEFEFEFEFEFEFEFEF
310
EFEFEFEFEFEFEFEFEFEFEFEFEFEFEFEFEFEFEFEFEFEFEFEFEFEFEFEFEFEFEFEFEFEFEFEFEFEFEFEFEFEFEFEFEFEFEFEFEF
  0
XRECORD
  5
5B332
102
{ACAD_REACTORS
330
B5
102
}
330
B5
100
AcDbXrecord
280
     1
102
SHADEPLOT
 70
     0
102
SHADEPLOTRESLEVEL
 70
     2
102
SHADEPLOTCUSTOMDPI
 70
   300
  0
XRECORD
  5
B6
102
{ACAD_REACTORS
330
B5
102
}
330
B5
100
AcDbXrecord
280
     1
310
28000000B40000008B0000000100080000000000BC610000000000000000000000010000000000000000000000000000FFFFFF000000000000000000000000000000000000000000000000000000000000000000330000006600000099000000CC000000FF00000000330000333300006633000099330000CC330000FF3300
310
0000660000336600006666000099660000CC660000FF66000000990000339900006699000099990000CC990000FF99000000CC000033CC000066CC000099CC0000CCCC0000FFCC000000FF000033FF000066FF000099FF0000CCFF0000FFFF000000003300330033006600330099003300CC003300FF003300003333003333
310
33006633330099333300CC333300FF33330000663300336633006666330099663300CC663300FF66330000993300339933006699330099993300CC993300FF99330000CC330033CC330066CC330099CC3300CCCC3300FFCC330000FF330033FF330066FF330099FF3300CCFF3300FFFF330000006600330066006600660099
310
006600CC006600FF00660000336600333366006633660099336600CC336600FF33660000666600336666006666660099666600CC666600FF66660000996600339966006699660099996600CC996600FF99660000CC660033CC660066CC660099CC6600CCCC6600FFCC660000FF660033FF660066FF660099FF6600CCFF6600
310
FFFF660000009900330099006600990099009900CC009900FF00990000339900333399006633990099339900CC339900FF33990000669900336699006666990099669900CC669900FF66990000999900339999006699990099999900CC999900FF99990000CC990033CC990066CC990099CC9900CCCC9900FFCC990000FF99
310
0033FF990066FF990099FF9900CCFF9900FFFF99000000CC003300CC006600CC009900CC00CC00CC00FF00CC000033CC003333CC006633CC009933CC00CC33CC00FF33CC000066CC003366CC006666CC009966CC00CC66CC00FF66CC000099CC003399CC006699CC009999CC00CC99CC00FF99CC0000CCCC0033CCCC0066CC
310
CC0099CCCC00CCCCCC00FFCCCC0000FFCC0033FFCC0066FFCC0099FFCC00CCFFCC00FFFFCC000000FF003300FF006600FF009900FF00CC00FF00FF00FF000033FF003333FF006633FF009933FF00CC33FF00FF33FF000066FF003366FF006666FF009966FF00CC66FF00FF66FF000099FF003399FF006699FF009999FF00CC
310
99FF00FF99FF0000CCFF0033CCFF0066CCFF0099CCFF00CCCCFF00FFCCFF0000FFFF0033FFFF0066FFFF0099FFFF00CCFFFF00FFFFFF00000000000D0D0D001A1A1A00282828003535350043434300505050005D5D5D006B6B6B00787878008686860093939300A1A1A100AEAEAE00BBBBBB00C9C9C900D6D6D600E4E4E400
310
F1F1F100FFFFFF0000000000000000000000000000000000000000000000000000000000000000000000000000000000F5F5F5F5F5F5F5F5F5F5F5F5F5F5F5F5F5F5F5F5F5F5F5F5F5F5F5F5F5F5F5F5F5F5F5F5F5F5F5F5F5F5F5F5F5F5F5F5F5F5F5F5F5F5F5F5F5F5F5F5F5F5F5F5F5F5F5F5F5F5F5F5F5F5F5F5F5F5F5
310
F5F5F5F5F5F5F5F5F5F5F5F5F5F5F5F5F5F5F5F5F5F5F5F5F5F5F5F5F5F5F5F5F5F5F5F5F5F5F5F5F5F5F5F5F5F5F5F5F5F5F5F5F5F5F5F5F5F5F5F5F5F5F5F5F5F5F5F5F5F5F5F5F5F5F5F5F5F5F5F5F5F5F5F5F5F5F5F5F5F5F5F5F5F5F5F5F5F5F5F5F5F5E2E2E2E2E2E2E2E2E2E2E2E2E2E2E2E2E2E2E2E2E2E2E2E2E2
310
E2E2E2E2E2E2E2E2E2E2E2E2E2E2E2E2E2E2E2E2E2E2E2E2E2E2E2E2E2E2E2E2E2E2E2E2E2E2E2E2E2E2E2E2E2E2E2E2E2E2E2E2E2E2E2E2E2E2E2E2E2E2E2E2E2E2E2E2E2E2E2E2E2E2E2E2E2E2E2E2E2E2E2E2E2E2E2E2E2E2E2E2E2E2E2E2E2E2E2E2E2E2E2E2E2E2E2E2E2E2E2E2E2E2E2E2E2E2E2E2E2E2E2E2E2E2E2
310
E2E2E2E2E2E2E2E2E2E2E2E2E2E2E2E2E2E2E2E2E2E2E2E2E2E2F5F5E2E2E2E2E2E2E2E2E2E2E2E2E2E2E2E2E2E2E2E2E2E2E2E2E2E2E2E2E2E2E2E2E2E2E2E2E2E2E2E2E2E2E2E2E2E2E2E2E2E2E2E2E2E2E2E2E2E2E2E2E2E2E2E2E2E2E2E2E2E2E2E2E2E2E2E2E2E2E2E2E2E2E2E2E2E2E2E2E2E2E2E2E2E2E2E2E2E2E2
310
E2E2E2E2E2E2E2E2E2E2E2E2E2E2E2E2E2E2E2E2E2E2E2E2E2E2E2E2E2E2E2E2E2E2E2E2E2E2E2E2E2E2E2E2E2E2E2E2E2E2E2E2E2E2E2E2E2E2E2E2E2E2E2E2E2E2E2E2E2E2E2E2E2E2E2E2E2E2E2F5F5E2E2E2E2E2E2E2E2E2E2E2E2E2E2E2E2E2E2E2E2E2E2E2E2E2E2E2E2E2E2E2E2E2E2E2E2E2E2E2E2E2E2E2E2E2E2
310
E2E2E2E2E2E2E2E2E2E2E2E2E2E2E2E2E2E2E2E2E2E2E2E2E2E2E2E2E2E2E2E2E2E2E2E2E2E2E2E2E2E2E2E2E2E2E2E2E2E2E2E2E2E2E2E2E2E2E2E2E2E2E2E2E2E2E2E2E2E2E2E2E2E2E2E2E2E2E2E2E2E2E2E2E2E2E2E2E2E2E2E2E2E2E2E2E2E2E2E2E2E2E2E2E2E2E2E2E2E2E2E2E2E2E2E2E2E2E2E2E2E2E2E2E2E2E2
310
E2E2E2E2E2F5F5E2E2E2E2E2E2E2E2E2E2E2E2E2E2E2E2E2E2E2E2E2E2E2E2E2E2E2E2E2E2E2E2E2E2E2E2E2E2E2E2E2E2E2E2E2E2E2E2E2E2E2E2E2E2E2E2E2E2E2E2E2E2E2E2E2E2E2E2E2E2E2E2E2E2E2E2E2E2E2E2E2E2E2E2E2E2E2E2E2E2E2E2E2E2E2E2E2E2E2E2E2E2E2E2E2E2E2E2E2E2E2E2E2E2E2E2E2E2E2E2
310
E2E2E2E2E2E2E2E2E2E2E2E2E2E2E2E2E2E2E2E2E2E2E2E2E2E2E2E2E2E2E2E2E2E2E2E2E2E2E2E2E2E2E2E2E2E2E2E2E2E2E2E2E2E2E2E2E2E2F5F5E2E2E2F5F5F5F5F5F5F5F5E2E2E2E2E2E2E2E2E2F5F5F5F5F5F5F5F5F5F5F5F5F5F5F5F5E2E2E2E2E2E2E2E2E2F5F5F5F5F5F5F5F5F5F5F5F5F5F5F5E2E2E2E2E2E2E2
310
E2E2F5F5F5F5F5F5F5F5F5F5F5F5F5F5F5F5E2E2E2E2E2E2E2E2F5F5F5F5F5F5F5F5F5F5F5F5F5F5F5F5E2E2E2E2E2E2E2E2E2F5F5F5F5F5F5F5F5F5F5F5F5F5F5F5E2E2E2E2E2E2E2E2E2F5F5F5F5F5F5F5F5F5F5F5F5F5F5F5F5E2E2E2E2E2E2E2E2E2F5F5F5F5F5F5F5F5E2E2E2F5F5E2E2E2F5E2E2E2E2E2E2E2E2E2E2
310
E2E2E2E2E2E2E2E2E2E2E2E2E2E2E2E2E2E2E2E2E2E2E2E2E2E2E2E2E2E2E2E2E2E2E2E2E2E2E2E2E2E2E2E2E2E2E2E2E2E2E2E2E2E2E2E2E2E2E2E2E2E2E2E2E2E2E2E2E2E2E2E2E2E2E2E2E2E2E2E2E2E2E2E2E2E2E2E2E2E2E2E2E2E2E2E2E2E2E2E2E2E2E2E2E2E2E2E2E2E2E2E2E2E2E2E2E2E2E2E2E2E2E2E2E2E2E2
310
E2E2E2E2E2E2E2E2E2E2E2E2E2E2E2E2E2E2E2E2E2E2E2E2E2E2E2E2E2E2E2E2E2F5E2E2E2F5F5E2E2E2F5E2E2E2E2E2E2E2E2E2E2E2E2E2E2E2E2E2E2E2E2E2E2E2E2E2E2E2E2E2E2E2E2E2E2E2E2E2E2E2E2E2E2E2E2E2E2E2E2E2E2E2E2E2E2E2E2E2E2E2E2E2E2E2E2E2E2E2E2E2E2E2E2E2E2E2E2E2E2E2E2E2E2E2E2
310
E2E2E2E2E2E2E2E2E2E2E2E2E2E2E2E2E2E2E2E2E2E2E2E2E2E2E2E2E2E2E2E2E2E2E2E2E2E2E2E2E2E2E2E2E2E2E2E2E2E2E2E2E2E2E2E2E2E2E2E2E2E2E2E2E2E2E2E2E2E2E2E2E2E2E2E2E2E2E2E2E2E2E2E2E2E2F5E2E2E2F5F5E2E2E2F5E2E2E2E2E2E2E2E2E2E2E2E2E2E2E2E2E2E2E2E2E2E2E2E2E2E2E2E2E2E2E2
310
E2E2E2E2E2E2E2E2E2E2E2E2E2E2E2E2E2E2E2E2E2E2E2E2E2E2E2E2E2E2E2E2E2E2E2E2E2E2E2E2E2E2E2E2E2E2E2E2E2E2E2E2E2E2E2E2E2E2E2E2E2E2E2E2E2E2E2E2E2E2E2E2E2E2E2E2E2E2E2E2E2E2E2E2E2E2E2E2E2E2E2E2E2E2E2E2E2E2E2E2E2E2E2E2E2E2E2E2E2E2E2E2E2E2E2E2E2E2E2E2E2E2E2E2E2E2E2
310
E2E2E2E2E2E2E2E2E2E2E2E2F5E2E2E2F5F5E2E2E2F5E2E2E2E2E2E2E2E2E2E2E2E2E2E2E2E2E2E2E2E2E2E2E2E2E2E2E2E2E2E2E2E2E2E2E2E2E2E2E2E2E2E2E2E2E2E2E2E2E2E2E2E2E2E2E2E2E2E2E2E2E2E2E2E2E2E2E2E2E2E2E2E2E2E2E2E2E2E2E2E2E2E2E2E2E2E2E2E2E2E2E2E2E2E2E2E2E2E2E2E2E2E2E2E2E2
310
E2E2E2E2E2E2E2E2E2E2E2E2E2E2E2E2E2E2E2E2E2E2E2E2E2E2E2E2E2E2E2E2E2E2E2E2E2E2E2E2E2E2E2E2E2E2E2E2E2E2E2E2E2E2E2E2E2E2E2E2E2E2E2E2E2F5E2E2E2F5F5E2E2E2F5E2E2E2E2E2E2E2E2E2E2E2E2E2E2E2E2E2E2E2E2E2E2E2E2E2E2E2E2E2E2E2E2E2E2E2E2E2E2E2E2E2E2E2E2E2E2E2E2E2E2E2E2
310
E2E2E2E2E2E2E2E2E2E2E2E2E2E2E2E2E2E2E2E2E2E2E2E2E2E2E2E2E2E2E2E2E2E2E2E2E2E2E2E2E2E2E2E2E2E2E2E2E2E2E2E2E2E2E2E2E2E2E2E2E2E2E2E2E2E2E2E2E2E2E2E2E2E2E2E2E2E2E2E2E2E2E2E2E2E2E2E2E2E2E2E2E2E2E2E2E2E2E2E2E2E2E2E2E2E2E2E2E2E2E2E2E2E2E2E2E2E2F5E2E2E2F5F5E2E2E2
310
F5E2E2E2E2E2E2E2E2E2E2E2E2E2E2E2E2E2E2E2E2E2E2E2E2E2E2E2E2E2E2E2E2E2E2E2E2E2E2E2E2E2E2E2E2E2E2E2E2E2E2E2E2E2E2E2E2E2E2E2E2E2E2E2E2E2E2E2E2E2E2E2E2E2E2E2E2E2E2E2E2E2E2E2E2E2E2E2E2E2E2E2E2E2E2E2E2E2E2E2E2E2E2E2E2E2E2E2E2E2E2E2E2E2E2E2E2E2E2E2E2E2E2E2E2E2E2
310
E2E2E2E2E2E2E2E2E2E2E2E2E2E2E2E2E2E2E2E2E2E2E2E2E2E2E2E2E2E2E2E2E2E2E2E2E2E2E2E2E2E2E2E2F5E2E2E2F5F5E2E2E2F5E2E2E2E2E2E2E2E2E2E2E2E2E2E2E2E2E2E2E2E2E2E2E2E2E2E2E2E2E2E2E2E2E2E2E2E2E2E2E2E2E2E2E2E2E2E2E2E2E2E2E2E2E2E2E2E2E2E2E2E2E2E2E2E2E2E2E2E2E2E2E2E2E2
310
E2E2E2E2E2E2E2E2E2E2E2E2E2E2E2E2E2E2E2E2E2E2E2E2E2E2E2E2E2E2E2E2E2E2E2E2E2E2E2E2E2E2E2E2E2E2E2E2E2E2E2E2E2E2E2E2E2E2E2E2E2E2E2E2E2E2E2E2E2E2E2E2E2E2E2E2E2E2E2E2E2E2E2E2E2E2E2E2E2E2E2E2E2E2E2E2E2F5E2E2E2F5F5E2E2E2F5E2E2E2E2E2E2E2E2E2E2E2E2E2E2E2E2E2E2E2E2
310
E2E2E2E2E2E2E2E2E2E2E2E2E2E2E2E2E2E2E2E2E2E2E2E2E2E2E2E2E2E2E2E2E2E2E2E2E2E2E2E2E2E2E2E2E2E2E2E2E2E2E2E2E2E2E2E2E2E2E2E2E2E2E2E2E2E2E2E2E2E2E2E2E2E2E2E2E2E2E2E2E2E2E2E2E2E2E2E2E2E2E2E2E2E2E2E2E2E2E2E2E2E2E2E2E2E2E2E2E2E2E2E2E2E2E2E2E2E2E2E2E2E2E2E2E2E2E2
310
E2E2E2E2E2E2E2E2E2E2E2E2E2E2E2E2E2E2E2E2E2E2E2F5E2E2E2F5F5E2E2E2E2E2E2E2E2E2E2E2E2E2E2E2E2E2E2E2E2E2E2E2E2E2E2E2E2E2E2E2E2E2E2E2E2E2E2E2E2E2E2E2E2E2E2E2E2E2E2E2E2E2E2E2E2E2E2E2E2E2E2E2E2E2E2E2E2E2E2E2E2E2E2E2E2E2E2E2E2E2E2E2E2E2E2E2E2E2E2E2E2E2E2E2E2E2E2
310
E2E2E2E2E2E2E2E2E2E2E2E2E2E2E2E2E2E2E2E2E2E2E2E2E2E2E2E2E2E2E2E2E2E2E2E2E2E2E2E2E2E2E2E2E2E2E2E2E2E2E2E2E2E2E2E2E2E2E2E2E2E2E2E2E2E2E2E2E2E2E2E2E2E2E2E2E2E2E2E2F5F5E2E2E2E2E2E2E2E2E2E2E2E2E2E2E2E2E2E2E2E2E2E2E2E2E2E2E2E2E2E2E2E2E2E2E2E2E2E2E2E2E2E2E2E2E2
310
E2E2E2E2E2E2E2E2E2E2E2E2E2E2E2E2E2E2E2E2E2E2E2E2E2E2E2E2E2E2E2E2E2E2E2E2E2E2E2E2E2E2E2E2E2E2E2E2E2E2E2E2E2E2E2E2E2E2E2E2E2E2E2E2E2E2E2E2E2E2E2E2E2E2E2E2E2E2E2E2E2E2E2E2E2E2E2E2E2E2E2E2E2E2E2E2E2E2E2E2E2E2E2E2E2E2E2E2E2E2E2E2E2E2E2E2E2E2E2E2E2E2E2E2E2E2E2
310
E2E2E2E2E2E2F5F5E2E2E2E2E2E2E2E2E2E2E2E2E2E2E2E2E2E2E2E2E2E2E2E2E2E2E2E2E2E2E2E2E2E2E2E2E2E2E2E2E2E2E2E2E2E2E2E2E2E2E2E2E2E2E2E2E2E2E2E2E2E2E2E2E2E2E2E2E2E2E2E2E2E2E2E2E2E2E2E2E2E2E2E2E2E2E2E2E2E2E2E2E2E2E2E2E2E2E2E2E2E2E2E2E2E2E2E2E2E2E2E2E2E2E2E2E2E2E2
310
E2E2E2E2E2E2E2E2E2E2E2E2E2E2E2E2E2E2E2E2E2E2E2E2E2E2E2E2E2E2E2E2E2E2E2E2E2E2E2E2E2E2E2E2E2E2E2E2E2E2E2E2E2E2E2E2E2E2E2F5F5E2E2E2E2E2E2E2E2E2E2E2E2E2E2E2E2E2E2E2E2E2E2E2E2E2E2E2E2E2E2E2E2E2E2E2E2E2E2E2E2E2E2E2E2E2E2E2E2E2E2E2E2E2E2E2E2E2E2E2E2E2E2E2E2E2E2
310
E2E2E2E2E2E2E2E2E2E2E2E2E2E2E2E2E2E2E2E2E2E2E2E2E2E2E2E2E2E2E2E2E2E2E2E2E2E2E2E2E2E2E2E2E2E2E2E2E2E2E2E2E2E2E2E2E2E2E2E2E2E2E2E2E2E2E2E2E2E2E2E2E2E2E2E2E2E2E2E2E2E2E2E2E2E2E2E2E2E2E2E2E2E2E2E2E2E2E2E2E2E2E2E2E2E2E2E2E2E2E2E2F5F5E2E2E2E2E2E2E2E2E2E2E2E2E2
310
E2E2E2E2E2E2E2F5F5F5F5F5F5F5F5F5F5F5F5F5F5F5F5F5F5F5F5F5F5F5F5F5F5F5F5F5F5F5F5F5F5F5F5F5F5F5F5F5F5F5F5F5F5F5F5F5F5F5F5F5F5F5F5F5F5F5F5F5F5F5F5F5F5F5F5F5F5F5F5F5F5F5F5F5F5F5F5F5F5F5F5F5F5F5F5F5F5F5F5F5F5F5F5F5F5F5F5F5F5F5F5F5F5F5F5F5F5F5F5F5F5F5F5F5F5F5F5
310
F5F5F5F5F5F5F5F5F5F5F5F5F5F5F5F5F5F5E2E2E2E2E2E2E2E2E2E2E2E2E2E2E2E2E2E2E2E2F5F5E2E2E2E2E2E2E2E2E2E2E2E2E2E2E2E2E2E2E2E2F5E2E2E2E2E2E2E2E2E2E2E2E2E2E2E2E2E2E2E2E2E2E2E2E2E2E2E2E2E2E2E2E2E2E2E2E2E2E2E2E2E2E2E2E2E2E2E2E2E2E2E2E2E2E2E2E2E2E2E2E2E2E2E2E2E2E2
310
E2E2E2E2E2E2E2E2E2E2E2E2E2E2E2E2E2E2E2E2E2E2E2E2E2E2E2E2E2E2E2E2E2E2E2E2E2E2E2E2E2E2E2E2E2E2E2E2E2E2E2E2E2E2E2E2E2E2E2E2E2E2E2E2E2E2E2E2E2E2F5E2E2E2E2E2E2E2E2E2E2E2E2E2E2E2E2E2E2E2E2F5F5E2E2E2E2E2E2E2E2E2E2E2E2E2E2E2E2E2E2E2E2F5E2E2E2E2E2E2E2E2E2E2E2E2E2
310
E2E2E2E2E2E2E2E2E2E2E2E2E2E2E2E2E2E2E2E2E2E2E2E2E2E2E2E2E2E2E2E2E2E2E2E2E2E2E2E2E2E2E2E2E2E2E2E2E2E2E2E2E2E2E2E2E2E2E2E2E2E2E2E2E2E2E2E2E2E2E2E2E2E2E2E2E2E2E2E2E2E2E2E2E2E2E2E2E2E2E2E2E2E2E2E2E2E2E2E2E2E2E2E2E2E2E2E2E2E2E2E2E2E2E2E2E2E2E2E2E2E2E2F5E2E2E2
310
E2E2E2E2E2E2E2E2E2E2E2E2E2E2E2E2E2F5F5E2E2E2E2E2E2E2E2E2E2E2E2E2E2E2E2E2E2E2E2F5E2E2E2E2E2E2E2E2E2E2E2E2E2E2E2E2E2E2E2E2E2E2E2E2E2E2E2E2E2E2E2E2E2E2E2E2E2E2E2E2E2E2E2E2E2E2E2E2E2E2E2E2E2E2E2E2E2E2E2E2E2E2E2E2E2E2E2E2E2E2E2E2E2E2E2E2E2E2E2E2E2E2E2E2E2E2E2
310
E2E2E2E2E2E2E2E2E2E2E2E2E2E2E2E2E2E2E2E2E2E2E2E2E2E2E2E2E2E2E2E2E2E2E2E2E2E2E2E2E2E2E2E2E2E2E2E2E2F5E2E2E2E2E2E2E2E2E2E2E2E2E2E2E2E2E2E2E2E2F5F5E2E2E2E2E2E2E2E2E2E2E2E2E2E2E2E2E2E2E2E2F5E2E2E2E2E2E2E2E2E2E2E2E2E2E2E2E2E2E2E2E2E2E2E2E2E2E2E2E2E2E2E2E2E2E2
310
E2E2E2E2E2E2E2E2E2E2E2E2E2E2E2E2E2E2E2E2E2E2E2E2E2E2E2E2E2E2E2E2E2E2E2E2E2E2E2E2E2E2E2E2E2E2E2E2E2E2E2E2E2E2E2E2E2E2E2E2E2E2E2E2E2E2E2E2E2E2E2E2E2E2E2E2E2E2E2E2E2E2E2E2E2E2E2E2E2E2E2E2E2E2E2E2E2E2E2E2E2E2F5E2E2E2E2E2E2E2E2E2E2E2E2E2E2E2E2E2E2E2E2F5F5E2E2
310
E2F5E2E2E2E2E2E2E2E2E2E2E2E2E2E2E2E2F5E2E2E2E2E2E2E2E2E2E2E2E2E2E2E2E2E2E2E2E2E2E2E2E2E2E2E2E2E2E2E2E2E2E2E2E2E2E2E2E2E2E2E2E2E2E2E2E2E2E2E2E2E2E2E2E2E2E2E2E2E2E2E2E2E2E2E2E2E2E2E2E2E2E2E2E2E2E2E2E2E2E2E2E2E2E2E2E2E2E2E2E2E2E2E2E2E2E2E2E2E2E2E2E2E2E2E2E2
310
E2E2E2E2E2E2E2E2E2E2E2E2E2E2E2E2E2E2E2E2E2E2E2E2E2E2E2E2F5E2E2E2E2E2E2E2E2E2E2E2E2E2E2E2E2F5E2E2E2F5F5E2E2E2F5E2E2E2E2E2E2E2E2E2E2E2E2E2E2E2E2F5E2E2E2E2E2E2E2E2E2E2E2E2E2E2E2E2E2E2E2E2E2E2E2E2E2E2E2E2E2E2E2E2E2E2E2E2E2E2E2E2E2E2E2E2E2E2E2E2E2E2E2E2E2E2E2
310
E2E2E2E2E2E2E2E2E2E2E2E2E2E2E2E2E2E2E2E2E2E2E2E2E2E2E2E2E2E2E2E2E2E2E2E2E2E2E2E2E2E2E2E2E2E2E2E2E2E2E2E2E2E2E2E2E2E2E2E2E2E2E2E2E2E2E2E2E2E2E2E2E2E2E2E2E2E2E2E2E2F5E2E2E2E2E2E2E2E2E2E2E2E2E2E2E2E2F5E2E2E2F5F5E2E2E2F5E2E2E2E2E2E2E2E2E2E2E2E2E2E2E2E2F5E2E2
310
E2E2E2E2E2E2E2E2E2E2E2E2E2E2E2E2E2E2E2E2E2E2E2E2E2E2E2E2E2E2E2E2E2E2E2E2E2E2E2E2E2E2E2E2E2E2E2E2E2E2E2E2E2E2E2E2E2E2E2E2E2E2E2E2E2E2E2E2E2E2E2E2E2E2E2E2E2E2E2E2E2E2E2E2E2E2E2E2E2E2E2E2E2E2E2E2E2E2E2E2E2E2E2E2E2E2E2E2E2E2E2E2E2E2E2E2E2E2E2E2E2E2E2E2E2E2E2
310
E2E2E2E2E2E2E2F5E2E2E2E2E2E2E2E2E2E2E2E2E2E2E2E2F5E2E2E2F5F5E2E2E2F5E2E2E2E2E2E2E2E2E2E2E2E2E2E2E2E2F5E2E2E2E2E2E2E2E2E2E2E2E2E2E2E2E2E2E2E2E2E2E2E2E2E2E2E2E2E2E2E2E2E2E2E2E2E2E2E2E2E2E2E2E2E2E2E2E2E2E2E2E2E2E2E2E2E2E2E2E2E2E2E2E2E2E2E2E2E2E2E2E2E2E2E2E2
310
E2E2E2E2E2E2E2E2E2E2E2E2E2E2E2E2E2E2E2E2E2E2E2E2E2E2E2E2E2E2E2E2E2E2E2E2E2E2E2E2E2E2E2E2E2E2E2E2E2E2E2E2E2E2E2E2E2E2E2E2F5E2E2E2E2E2E2E2E2E2E2E2E2E2E2E2E2F5E2E2E2F5F5E2E2E2F5E2E2E2E2E2E2E2E2E2E2E2E2E2E2E2E2F5E2E2E2E2E2E2E2E2E2E2E2E2E2E2E2E2E2E2E2E2E2E2E2
310
E2E2E2E2E2E2E2E2E2E2E2E2E2E2E2E2E2E2E2E2E2E2E2E2E2E2E2E2E2E2E2E2E2E2E2E2E2E2E2E2E2E2E2E2E2E2E2E2E2E2E2E2E2E2E2E2E2E2E2E2E2E2E2E2E2E2E2E2E2E2E2E2E2E2E2E2E2E2E2E2E2E2E2E2E2E2E2E2E2E2E2E2E2E2E2E2E2E2E2E2E2E2E2E2E2E2E2E2E2E2E2E2E2F5E2E2E2E2E2E2E2E2E2E2E2E2E2
310
E2E2E2F5E2E2E2F5F5E2E2E2F5E2E2E2E2E2E2E2E2E2E2E2E2E2E2E2E2F5E2E2E2E2E2E2E2E2E2E2E2E2E2E2E2E2E2E2E2E2E2E2E2E2E2E2E2E2E2E2E2E2E2E2E2E2E2E2E2E2E2E2E2E2E2E2E2E2E2E2E2E2E2E2E2E2E2E2E2E2E2E2E2E2E2E2E2E2E2E2E2E2E2E2E2E2E2E2E2E2E2E2E2E2E2E2E2E2E2E2E2E2E2E2E2E2E2
310
E2E2E2E2E2E2E2E2E2E2E2E2E2E2E2E2E2E2E2E2E2E2E2E2E2E2E2E2E2E2E2E2E2E2E2E2E2E2E2F5E2E2E2E2E2E2E2E2E2E2E2E2E2E2E2E2F5E2E2E2F5F5E2E2E2F5E2E2E2E2E2E2E2E2E2E2E2E2E2E2E2E2F5E2E2E2E2E2E2E2E2E2E2E2E2E2E2E2E2E2E2E2E2E2E2E2E2E2E2E2E2E2E2E2E2E2E2E2E2E2E2E2E2E2E2E2E2
310
E2E2E2E2E2E2E2E2E2E2E2E2E2E2E2E2E2E2E2E2E2E2E2E2E2E2E2E2E2E2E2E2E2E2E2E2E2E2E2E2E2E2E2E2E2E2E2E2E2E2E2E2E2E2E2E2E2E2E2E2E2E2E2E2E2E2E2E2E2E2E2E2E2E2E2E2E2E2E2E2E2E2E2E2E2E2E2E2E2E2E2E2F5E2E2E2E2E2E2E2E2E2E2E2E2E2E2E2E2F5E2E2E2F5F5E2E2E2F5E2E2E2E2E2E2E2E2
310
E2E2E2E2E2E2E2E2F5E2E2E2E2E2E2E2E2E2E2E2E2E2E2E2E2E2E2E2E2E2E2E2E2E2E2E2E2E2E2E2E2E2E2E2E2E2E2E2E2E2E2E2E2E2E2E2E2E2E2E2E2E2E2E2E2E2E2E2E2E2E2E2E2E2E2E2E2E2E2E2E2E2E2E2E2E2E2E2E2E2E2E2E2E2E2E2E2E2E2E2E2E2E2E2E2E2E2E2E2E2E2E2E2E2E2E2E2E2E2E2E2E2E2E2E2E2E2
310
E2E2E2E2E2E2E2E2E2E2E2E2E2E2E2E2E2E2F5E2E2E2E2E2E2E2E2E2E2E2E2E2E2E2E2F5E2E2E2F5F5E2E2E2F5E2E2E2E2E2E2E2E2E2E2E2E2E2E2E2E2F5E2E2E2E2E2E2E2E2E2E2E2E2E2E2E2E2E2E2E2E2E2E2E2E2E2E2E2E2E2E2E2E2E2E2E2E2E2E2E2E2E2E2E2E2E2E2E2E2E2E2E2E2E2E2E2E2E2E2E2E2E2E2E2E2E2
310
E2E2E2E2E2E2E2E2E2E2E2E2E2E2E2E2E2E2E2E2E2E2E2E2E2E2E2E2E2E2E2E2E2E2E2E2E2E2E2E2E2E2E2E2E2E2E2E2E2E2E2E2E2E2E2E2E2E2E2E2E2E2E2E2E2E2E2E2E2E2E2F5E2E2E2E2E2E2E2E2E2E2E2E2E2E2E2E2F5E2E2E2F5F5E2E2E2F5E2E2E2E2E2E2E2E2E2E2E2E2E2E2E2E2F5E2E2E2E2E2E2E2E2E2E2E2E2
310
E2E2E2E2E2E2E2E2E2E2E2E2E2E2E2E2E2E2E2E2E2E2E2E2E2E2E2E2E2E2E2E2E2E2E2E2E2E2E2E2E2E2E2E2E2E2E2E2E2E2E2E2E2E2E2E2E2E2E2E2E2E2E2E2E2E2E2E2E2E2E2E2E2E2E2E2E2E2E2E2E2E2E2E2E2E2E2E2E2E2E2E2E2E2E2E2E2E2E2E2E2E2E2E2E2E2E2E2E2E2E2E2E2E2E2E2E2E2E2E2E2E2E2E2F5E2E2
310
E2E2E2E2E2E2E2E2E2E2E2E2E2E2F5E2E2E2F5F5E2E2E2F5E2E2E2E2E2E2E2E2E2E2E2E2E2E2E2E2F5E2E2E2E2E2E2E2E2E2E2E2E2E2E2E2E2E2E2E2E2E2E2E2E2E2E2E2E2E2E2E2E2E2E2E2E2E2E2E2E2E2E2E2E2E2E2E2E2E2E2E2E2E2E2E2E2E2E2E2E2E2E2E2E2E2E2E2E2E2E2E2E2E2E2E2E2E2E2E2E2E2E2E2E2E2E2
310
E2E2E2E2E2E2E2E2E2E2E2E2E2E2E2E2E2E2E2E2E2E2E2E2E2E2E2E2E2E2E2E2E2E2E2E2E2E2E2E2E2E2E2E2E2E2E2E2E2E2F5E2E2E2E2E2E2E2E2E2E2E2E2E2E2E2E2F5E2E2E2F5F5E2E2E2F5E2E2E2E2E2E2E2E2E2E2E2E2E2E2E2E2F5E2E2E2E2E2E2E2E2E2E2E2E2E2E2E2E2E2E2E2E2E2E2E2E2E2E2E2E2E2E2E2E2E2
310
E2E2E2E2E2E2E2E2E2E2E2E2E2E2E2E2E2E2E2E2E2E2E2E2E2E2E2E2E2E2E2E2E2E2E2E2E2E2E2E2E2E2E2E2E2E2E2E2E2E2E2E2E2E2E2E2E2E2E2E2E2E2E2E2E2E2E2E2E2E2E2E2E2E2E2E2E2E2E2E2E2E2E2E2E2E2E2E2E2E2E2E2E2E2E2E2E2E2E2E2E2E2E2F5E2E2E2E2E2E2E2E2E2E2E2E2E2E2E2E2F5E2E2E2F5F5E2
310
E2E2F5E2E2E2E2E2E2E2E2E2E2E2E2E2E2E2E2F5E2E2E2E2E2E2E2E2E2E2E2E2E2E2E2E2E2E2E2E2E2E2E2E2E2E2E2E2E2E2E2E2E2E2E2E2E2E2E2E2E2E2E2E2E2E2E2E2E2E2E2E2E2E2E2E2E2E2E2E2E2E2E2E2E2E2E2E2E2E2E2E2E2E2E2E2E2E2E2E2E2E2E2E2E2E2E2E2E2E2E2E2E2E2E2E2E2E2E2E2E2E2E2E2E2E2E2
310
E2E2E2E2E2E2E2E2E2E2E2E2E2E2E2E2E2E2E2E2E2E2E2E2E2E2E2E2E2F5E2E2E2E2E2E2E2E2E2E2E2E2E2E2E2E2F5E2E2E2F5F5E2E2E2F5E2E2E2E2E2E2E2E2E2E2E2E2E2E2E2E2F5E2E2E2E2E2E2E2E2E2E2E2E2E2E2E2E2E2E2E2E2E2E2E2E2E2E2E2E2E2E2E2E2E2E2E2E2E2E2E2E2E2E2E2E2E2E2E2E2E2E2E2E2E2E2
310
E2E2E2E2E2E2E2E2E2E2E2E2E2E2E2E2E2E2E2E2E2E2E2E2E2E2E2E2E2E2E2E2E2E2E2E2E2E2E2E2E2E2E2E2E2E2E2E2E2E2E2E2E2E2E2E2E2E2E2E2E2E2E2E2E2E2E2E2E2E2E2E2E2E2E2E2E2E2E2E2E2E2F5E2E2E2E2E2E2E2E2E2E2E2E2E2E2E2E2F5E2E2E2F5F5E2E2E2F5E2E2E2E2E2E2E2E2E2E2E2E2E2E2E2E2F5E2
310
E2E2E2E2E2E2E2E2E2E2E2E2E2E2E2E2E2E2E2E2E2E2E2E2E2E2E2E2E2E2E2E2E2E2E2E2E2E2E2E2E2E2E2E2E2E2E2E2E2E2E2E2E2E2E2E2E2E2E2E2E2E2E2E2E2E2E2E2E2E2E2E2E2E2E2E2E2E2E2E2E2E2E2E2E2E2E2E2E2E2E2E2E2E2E2E2E2E2E2E2E2E2E2E2E2E2E2E2E2E2E2E2E2E2E2E2E2E2E2E2E2E2E2E2E2E2E2
310
E2E2E2E2E2E2E2E2F5E2E2E2E2E2E2E2E2E2E2E2E2E2E2E2E2F5E2E2E2F5F5E2E2E2F5E2E2E2E2E2E2E2E2E2E2E2E2E2E2E2E2F5E2E2E2E2E2E2E2E2E2E2E2E2E2E2E2E2E2E2E2E2E2E2E2E2E2E2E2E2E2E2E2E2E2E2E2E2E2E2E2E2E2E2E2E2E2E2E2E2E2E2E2E2E2E2E2E2E2E2E2E2E2E2E2E2E2E2E2E2E2E2E2E2E2E2E2
310
E2E2E2E2E2E2E2E2E2E2E2E2E2E2E2E2E2E2E2E2E2E2E2E2E2E2E2E2E2E2E2E2E2E2E2E2E2E2E2E2E2E2E2E2E2E2E2E2E2E2E2E2E2E2E2E2E2E2E2E2E2F5E2E2E2E2E2E2E2E2E2E2E2E2E2E2E2E2F5E2E2E2F5F5E2E2E2F5E2E2E2E2E2E2E2E2E2E2E2E2E2E2E2E2F5E2E2E2E2E2E2E2E2E2E2E2E2E2E2E2E2E2E2E2E2E2E2
310
E2E2E2E2E2E2E2E2E2E2E2E2E2E2E2E2E2E2E2E2E2E2E2E2E2E2E2E2E2E2E2E2E2E2E2E2E2E2E2E2E2E2E2E2E2E2E2E2E2E2E2E2E2E2E2E2E2E2E2E2E2E2E2E2E2E2E2E2E2E2E2E2E2E2E2E2E2E2E2E2E2E2E2E2E2E2E2E2E2E2E2E2E2E2E2E2E2E2E2E2E2E2E2E2E2E2E2E2E2E2E2E2E2E2F5E2E2E2E2E2E2E2E2E2E2E2E2
310
E2E2E2E2F5E2E2E2F5F5E2E2E2E2E2E2E2E2E2E2E2E2E2E2E2E2E2E2E2E2F5E2E2E2E2E2E2E2E2E2E2E2E2E2E2E2E2E2E2E2E2E2E2E2E2E2E2E2E2E2E2E2E2E2E2E2E2E2E2E2E2E2E2E2E2E2E2E2E2E2E2E2E2E2E2E2E2E2E2E2E2E2E2E2E2E2E2E2E2E2E2E2E2E2E2E2E2E2E2E2E2E2E2E2E2E2E2E2E2E2E2E2E2E2E2E2E2
310
E2E2E2E2E2E2E2E2E2E2E2E2E2E2E2E2E2E2E2E2E2E2E2E2E2E2E2E2E2E2E2E2E2E2E2E2E2E2E2E2F5E2E2E2E2E2E2E2E2E2E2E2E2E2E2E2E2E2E2E2E2F5F5E2E2E2E2E2E2E2E2E2E2E2E2E2E2E2E2E2E2E2E2F5E2E2E2E2E2E2E2E2E2E2E2E2E2E2E2E2E2E2E2E2E2E2E2E2E2E2E2E2E2E2E2E2E2E2E2E2E2E2E2E2E2E2E2
310
E2E2E2E2E2E2E2E2E2E2E2E2E2E2E2E2E2E2E2E2E2E2E2E2E2E2E2E2E2E2E2E2E2E2E2E2E2E2E2E2E2E2E2E2E2E2E2E2E2E2E2E2E2E2E2E2E2E2E2E2E2E2E2E2E2E2E2E2E2E2E2E2E2E2E2E2E2E2E2E2E2E2E2E2E2E2E2E2E2E2E2E2E2F5E2E2E2E2E2E2E2E2E2E2E2E2E2E2E2E2E2E2E2E2F5F5E2E2E2E2E2E2E2E2E2E2E2
310
E2E2E2E2E2E2E2E2E2F5E2E2E2E2E2E2E2E2E2E2E2E2E2E2E2E2E2E2E2E2E2E2E2E2E2E2E2E2E2E2E2E2E2E2E2E2E2E2E2E2E2E2E2E2E2E2E2E2E2E2E2E2E2E2E2E2E2E2E2E2E2E2E2E2E2E2E2E2E2E2E2E2E2E2E2E2E2E2E2E2E2E2E2E2E2E2E2E2E2E2E2E2E2E2E2E2E2E2E2E2E2E2E2E2E2E2E2E2E2E2E2E2E2E2E2E2E2
310
E2E2E2E2E2E2E2E2E2E2E2E2E2E2E2E2E2E2E2F5E2E2E2E2E2E2E2E2E2E2E2E2E2E2E2E2E2E2E2E2F5F5E2E2E2E2E2E2E2E2E2E2E2E2E2E2E2E2E2E2E2E2F5E2E2E2E2E2E2E2E2E2E2E2E2E2E2E2E2E2E2E2E2E2E2E2E2E2E2E2E2E2E2E2E2E2E2E2E2E2E2E2E2E2E2E2E2E2E2E2E2E2E2E2E2E2E2E2E2E2E2E2E2E2E2E2E2
310
E2E2E2E2E2E2E2E2E2E2E2E2E2E2E2E2E2E2E2E2E2E2E2E2E2E2E2E2E2E2E2E2E2E2E2E2E2E2E2E2E2E2E2E2E2E2E2E2E2E2E2E2E2E2E2E2E2E2E2E2E2E2E2E2E2E2E2E2E2E2E2E2F5E2E2E2E2E2E2E2E2E2E2E2E2E2E2E2E2E2E2E2E2F5F5E2E2E2E2E2E2E2E2E2E2E2E2E2E2E2E2E2E2E2E2F5E2E2E2E2E2E2E2E2E2E2E2
310
E2E2E2E2E2E2E2E2E2E2E2E2E2E2E2E2E2E2E2E2E2E2E2E2E2E2E2E2E2E2E2E2E2E2E2E2E2E2E2E2E2E2E2E2E2E2E2E2E2E2E2E2E2E2E2E2E2E2E2E2E2E2E2E2E2E2E2E2E2E2E2E2E2E2E2E2E2E2E2E2E2E2E2E2E2E2E2E2E2E2E2E2E2E2E2E2E2E2E2E2E2E2E2E2E2E2E2E2E2E2E2E2E2E2E2E2E2E2E2E2E2E2E2E2E2F5E2
310
E2E2E2E2E2E2E2E2E2E2E2E2E2E2E2E2E2E2E2F5F5E2E2E2E2E2E2E2E2E2E2E2E2E2E2E2E2E2E2E2E2F5E2E2E2E2E2E2E2E2E2E2E2E2E2E2E2E2E2E2E2E2E2E2E2E2E2E2E2E2E2E2E2E2E2E2E2E2E2E2E2E2E2E2E2E2E2E2E2E2E2E2E2E2E2E2E2E2E2E2E2E2E2E2E2E2E2E2E2E2E2E2E2E2E2E2E2E2E2E2E2E2E2E2E2E2E2
310
E2E2E2E2E2E2E2E2E2E2E2E2E2E2E2E2E2E2E2E2E2E2E2E2E2E2E2E2E2E2E2E2E2E2E2E2E2E2E2E2E2E2E2E2E2E2E2E2E2E2E2F5E2E2E2E2E2E2E2E2E2E2E2E2E2E2E2E2E2E2E2E2F5F5E2E2E2E2E2E2E2E2E2E2E2E2E2E2E2E2E2E2E2E2F5E2E2E2E2E2E2E2E2E2E2E2E2E2E2E2E2E2E2E2E2E2E2E2E2E2E2E2E2E2E2E2E2
310
E2E2E2E2E2E2E2E2E2E2E2E2E2E2E2E2E2E2E2E2E2E2E2E2E2E2E2E2E2E2E2E2E2E2E2E2E2E2E2E2E2E2E2E2E2E2E2E2E2E2E2E2E2E2E2E2E2E2E2E2E2E2E2E2E2E2E2E2E2E2E2E2E2E2E2E2E2E2E2E2E2E2E2E2E2E2E2E2E2E2E2E2E2E2E2E2E2E2E2E2E2E2E2E2F5E2E2E2E2E2E2E2E2E2E2E2E2E2E2E2E2E2E2E2E2F5F5
310
E2E2E2E2E2E2E2E2E2E2E2E2E2E2E2E2E2E2E2E2F5E2E2E2E2E2E2E2E2E2E2E2E2E2E2E2E2E2E2E2E2E2E2E2E2E2E2E2E2E2E2E2E2E2E2E2E2E2E2E2E2E2E2E2E2E2E2E2E2E2E2E2E2E2E2E2E2E2E2E2E2E2E2E2E2E2E2E2E2E2E2E2E2E2E2E2E2E2E2E2E2E2E2E2E2E2E2E2E2E2E2E2E2E2E2E2E2E2E2E2E2E2E2E2E2E2E2
310
E2E2E2E2E2E2E2E2E2E2E2E2E2E2E2E2E2E2E2E2E2E2E2E2E2E2E2E2E2E2F5E2E2E2E2E2E2E2E2E2E2E2E2E2E2E2E2E2E2E2E2F5F5E2E2E2E2E2E2E2E2E2E2E2E2E2E2E2E2E2E2E2E2F5E2E2E2E2E2E2E2E2E2E2E2E2E2E2E2E2E2E2E2E2E2E2E2E2E2E2E2E2E2E2E2E2E2E2E2E2E2E2E2E2E2E2E2E2E2E2E2E2E2E2E2E2E2
310
E2E2E2E2E2E2E2E2E2E2E2E2E2E2E2E2E2E2E2E2E2E2E2E2E2E2E2E2E2E2E2E2E2E2E2E2E2E2E2E2E2E2E2E2E2E2E2E2E2E2E2E2E2E2E2E2E2E2E2E2E2E2E2E2E2E2E2E2E2E2E2E2E2E2E2E2E2E2E2E2E2E2E2F5E2E2E2E2E2E2E2E2E2E2E2E2E2E2E2E2E2E2E2E2F5F5E2E2E2F5E2E2E2E2E2E2E2E2E2E2E2E2E2E2E2E2F5
310
E2E2E2E2E2E2E2E2E2E2E2E2E2E2E2E2E2E2E2E2E2E2E2E2E2E2E2E2E2E2E2E2E2E2E2E2E2E2E2E2E2E2E2E2E2E2E2E2E2E2E2E2E2E2E2E2E2E2E2E2E2E2E2E2E2E2E2E2E2E2E2E2E2E2E2E2E2E2E2E2E2E2E2E2E2E2E2E2E2E2E2E2E2E2E2E2E2E2E2E2E2E2E2E2E2E2E2E2E2E2E2E2E2E2E2E2E2E2E2E2E2E2E2E2E2E2E2
310
E2E2E2E2E2E2E2E2E2F5E2E2E2E2E2E2E2E2E2E2E2E2E2E2E2E2F5E2E2E2F5F5E2E2E2F5E2E2E2E2E2E2E2E2E2E2E2E2E2E2E2E2F5E2E2E2E2E2E2E2E2E2E2E2E2E2E2E2E2E2E2E2E2E2E2E2E2E2E2E2E2E2E2E2E2E2E2E2E2E2E2E2E2E2E2E2E2E2E2E2E2E2E2E2E2E2E2E2E2E2E2E2E2E2E2E2E2E2E2E2E2E2E2E2E2E2E2
310
E2E2E2E2E2E2E2E2E2E2E2E2E2E2E2E2E2E2E2E2E2E2E2E2E2E2E2E2E2E2E2E2E2E2E2E2E2E2E2E2E2E2E2E2E2E2E2E2E2E2E2E2E2E2E2E2E2E2E2E2E2E2F5E2E2E2E2E2E2E2E2E2E2E2E2E2E2E2E2F5E2E2E2F5F5E2E2E2F5E2E2E2E2E2E2E2E2E2E2E2E2E2E2E2E2F5E2E2E2E2E2E2E2E2E2E2E2E2E2E2E2E2E2E2E2E2E2
310
E2E2E2E2E2E2E2E2E2E2E2E2E2E2E2E2E2E2E2E2E2E2E2E2E2E2E2E2E2E2E2E2E2E2E2E2E2E2E2E2E2E2E2E2E2E2E2E2E2E2E2E2E2E2E2E2E2E2E2E2E2E2E2E2E2E2E2E2E2E2E2E2E2E2E2E2E2E2E2E2E2E2E2E2E2E2E2E2E2E2E2E2E2E2E2E2E2E2E2E2E2E2E2E2E2E2E2E2E2E2E2E2E2E2E2F5E2E2E2E2E2E2E2E2E2E2E2
310
E2E2E2E2E2F5E2E2E2F5F5E2E2E2F5E2E2E2E2E2E2E2E2E2E2E2E2E2E2E2E2F5E2E2E2E2E2E2E2E2E2E2E2E2E2E2E2E2E2E2E2E2E2E2E2E2E2E2E2E2E2E2E2E2E2E2E2E2E2E2E2E2E2E2E2E2E2E2E2E2E2E2E2E2E2E2E2E2E2E2E2E2E2E2E2E2E2E2E2E2E2E2E2E2E2E2E2E2E2E2E2E2E2E2E2E2E2E2E2E2E2E2E2E2E2E2E2
310
E2E2E2E2E2E2E2E2E2E2E2E2E2E2E2E2E2E2E2E2E2E2E2E2E2E2E2E2E2E2E2E2E2E2E2E2E2E2E2E2E2F5E2E2E2E2E2E2E2E2E2E2E2E2E2E2E2E2F5E2E2E2F5F5E2E2E2F5E2E2E2E2E2E2E2E2E2E2E2E2E2E2E2E2F5E2E2E2E2E2E2E2E2E2E2E2E2E2E2E2E2E2E2E2E2E2E2E2E2E2E2E2E2E2E2E2E2E2E2E2E2E2E2E2E2E2E2
310
E2E2E2E2E2E2E2E2E2E2E2E2E2E2E2E2E2E2E2E2E2E2E2E2E2E2E2E2E2E2E2E2E2E2E2E2E2E2E2E2E2E2E2E2E2E2E2E2E2E2E2E2E2E2E2E2E2E2E2E2E2E2E2E2E2E2E2E2E2E2E2E2E2E2E2E2E2E2E2E2E2E2E2E2E2E2E2E2E2E2E2E2E2E2F5E2E2E2E2E2E2E2E2E2E2E2E2E2E2E2E2F5E2E2E2F5F5E2E2E2F5E2E2E2E2E2E2
310
E2E2E2E2E2E2E2E2E2E2F5E2E2E2E2E2E2E2E2E2E2E2E2E2E2E2E2E2E2E2E2E2E2E2E2E2E2E2E2E2E2E2E2E2E2E2E2E2E2E2E2E2E2E2E2E2E2E2E2E2E2E2E2E2E2E2E2E2E2E2E2E2E2E2E2E2E2E2E2E2E2E2E2E2E2E2E2E2E2E2E2E2E2E2E2E2E2E2E2E2E2E2E2E2E2E2E2E2E2E2E2E2E2E2E2E2E2E2E2E2E2E2E2E2E2E2E2
310
E2E2E2E2E2E2E2E2E2E2E2E2E2E2E2E2E2E2E2E2F5E2E2E2E2E2E2E2E2E2E2E2E2E2E2E2E2F5E2E2E2F5F5E2E2E2F5E2E2E2E2E2E2E2E2E2E2E2E2E2E2E2E2F5E2E2E2E2E2E2E2E2E2E2E2E2E2E2E2E2E2E2E2E2E2E2E2E2E2E2E2E2E2E2E2E2E2E2E2E2E2E2E2E2E2E2E2E2E2E2E2E2E2E2E2E2E2E2E2E2E2E2E2E2E2E2E2
310
E2E2E2E2E2E2E2E2E2E2E2E2E2E2E2E2E2E2E2E2E2E2E2E2E2E2E2E2E2E2E2E2E2E2E2E2E2E2E2E2E2E2E2E2E2E2E2E2E2E2E2E2E2E2E2E2E2E2E2E2E2E2E2E2E2E2E2E2E2E2E2E2E2F5E2E2E2E2E2E2E2E2E2E2E2E2E2E2E2E2F5E2E2E2F5F5E2E2E2F5E2E2E2E2E2E2E2E2E2E2E2E2E2E2E2E2F5E2E2E2E2E2E2E2E2E2E2
310
E2E2E2E2E2E2E2E2E2E2E2E2E2E2E2E2E2E2E2E2E2E2E2E2E2E2E2E2E2E2E2E2E2E2E2E2E2E2E2E2E2E2E2E2E2E2E2E2E2E2E2E2E2E2E2E2E2E2E2E2E2E2E2E2E2E2E2E2E2E2E2E2E2E2E2E2E2E2E2E2E2E2E2E2E2E2E2E2E2E2E2E2E2E2E2E2E2E2E2E2E2E2E2E2E2E2E2E2E2E2E2E2E2E2E2E2E2E2E2E2E2E2E2E2E2E2F5
310
E2E2E2E2E2E2E2E2E2E2E2E2E2E2E2E2F5E2E2E2F5F5E2E2E2F5E2E2E2E2E2E2E2E2E2E2E2E2E2E2E2E2F5E2E2E2E2E2E2E2E2E2E2E2E2E2E2E2E2E2E2E2E2E2E2E2E2E2E2E2E2E2E2E2E2E2E2E2E2E2E2E2E2E2E2E2E2E2E2E2E2E2E2E2E2E2E2E2E2E2E2E2E2E2E2E2E2E2E2E2E2E2E2E2E2E2E2E2E2E2E2E2E2E2E2E2E2
310
E2E2E2E2E2E2E2E2E2E2E2E2E2E2E2E2E2E2E2E2E2E2E2E2E2E2E2E2E2E2E2E2E2E2E2E2E2E2E2E2E2E2E2E2E2E2E2E2E2E2E2E2F5E2E2E2E2E2E2E2E2E2E2E2E2E2E2E2E2F5E2E2E2F5F5E2E2E2F5E2E2E2E2E2E2E2E2E2E2E2E2E2E2E2E2F5E2E2E2E2E2E2E2E2E2E2E2E2E2E2E2E2E2E2E2E2E2E2E2E2E2E2E2E2E2E2E2
310
E2E2E2E2E2E2E2E2E2E2E2E2E2E2E2E2E2E2E2E2E2E2E2E2E2E2E2E2E2E2E2E2E2E2E2E2E2E2E2E2E2E2E2E2E2E2E2E2E2E2E2E2E2E2E2E2E2E2E2E2E2E2E2E2E2E2E2E2E2E2E2E2E2E2E2E2E2E2E2E2E2E2E2E2E2E2E2E2E2E2E2E2E2E2E2E2E2E2E2E2E2E2E2E2E2F5E2E2E2E2E2E2E2E2E2E2E2E2E2E2E2E2F5E2E2E2F5
310
F5E2E2E2F5E2E2E2E2E2E2E2E2E2E2E2E2E2E2E2E2F5E2E2E2E2E2E2E2E2E2E2E2E2E2E2E2E2E2E2E2E2E2E2E2E2E2E2E2E2E2E2E2E2E2E2E2E2E2E2E2E2E2E2E2E2E2E2E2E2E2E2E2E2E2E2E2E2E2E2E2E2E2E2E2E2E2E2E2E2E2E2E2E2E2E2E2E2E2E2E2E2E2E2E2E2E2E2E2E2E2E2E2E2E2E2E2E2E2E2E2E2E2E2E2E2E2
310
E2E2E2E2E2E2E2E2E2E2E2E2E2E2E2E2E2E2E2E2E2E2E2E2E2E2E2E2E2E2E2F5E2E2E2E2E2E2E2E2E2E2E2E2E2E2E2E2F5E2E2E2F5F5E2E2E2F5E2E2E2E2E2E2E2E2E2E2E2E2E2E2E2E2F5E2E2E2E2E2E2E2E2E2E2E2E2E2E2E2E2E2E2E2E2E2E2E2E2E2E2E2E2E2E2E2E2E2E2E2E2E2E2E2E2E2E2E2E2E2E2E2E2E2E2E2E2
310
E2E2E2E2E2E2E2E2E2E2E2E2E2E2E2E2E2E2E2E2E2E2E2E2E2E2E2E2E2E2E2E2E2E2E2E2E2E2E2E2E2E2E2E2E2E2E2E2E2E2E2E2E2E2E2E2E2E2E2E2E2E2E2E2E2E2E2E2E2E2E2E2E2E2E2E2E2E2E2E2E2E2E2E2F5E2E2E2E2E2E2E2E2E2E2E2E2E2E2E2E2F5E2E2E2F5F5E2E2E2F5E2E2E2E2E2E2E2E2E2E2E2E2E2E2E2E2
310
F5E2E2E2E2E2E2E2E2E2E2E2E2E2E2E2E2E2E2E2E2E2E2E2E2E2E2E2E2E2E2E2E2E2E2E2E2E2E2E2E2E2E2E2E2E2E2E2E2E2E2E2E2E2E2E2E2E2E2E2E2E2E2E2E2E2E2E2E2E2E2E2E2E2E2E2E2E2E2E2E2E2E2E2E2E2E2E2E2E2E2E2E2E2E2E2E2E2E2E2E2E2E2E2E2E2E2E2E2E2E2E2E2E2E2E2E2E2E2E2E2E2E2E2E2E2E2
310
E2E2E2E2E2E2E2E2E2E2F5E2E2E2E2E2E2E2E2E2E2E2E2E2E2E2E2F5E2E2E2F5F5E2E2E2F5E2E2E2E2E2E2E2E2E2E2E2E2E2E2E2E2F5E2E2E2E2E2E2E2E2E2E2E2E2E2E2E2E2E2E2E2E2E2E2E2E2E2E2E2E2E2E2E2E2E2E2E2E2E2E2E2E2E2E2E2E2E2E2E2E2E2E2E2E2E2E2E2E2E2E2E2E2E2E2E2E2E2E2E2E2E2E2E2E2E2
310
E2E2E2E2E2E2E2E2E2E2E2E2E2E2E2E2E2E2E2E2E2E2E2E2E2E2E2E2E2E2E2E2E2E2E2E2E2E2E2E2E2E2E2E2E2E2E2E2E2E2E2E2E2E2E2E2E2E2E2E2E2E2E2F5E2E2E2E2E2E2E2E2E2E2E2E2E2E2E2E2F5E2E2E2F5F5E2E2E2F5E2E2E2E2E2E2E2E2E2E2E2E2E2E2E2E2F5E2E2E2E2E2E2E2E2E2E2E2E2E2E2E2E2E2E2E2E2
310
E2E2E2E2E2E2E2E2E2E2E2E2E2E2E2E2E2E2E2E2E2E2E2E2E2E2E2E2E2E2E2E2E2E2E2E2E2E2E2E2E2E2E2E2E2E2E2E2E2E2E2E2E2E2E2E2E2E2E2E2E2E2E2E2E2E2E2E2E2E2E2E2E2E2E2E2E2E2E2E2E2E2E2E2E2E2E2E2E2E2E2E2E2E2E2E2E2E2E2E2E2E2E2E2E2E2E2E2E2E2E2E2E2E2E2E2F5E2E2E2E2E2E2E2E2E2E2
310
E2E2E2E2E2E2F5E2E2E2F5F5E2E2E2F5E2E2E2E2E2E2E2E2E2E2E2E2E2E2E2E2F5E2E2E2E2E2E2E2E2E2E2E2E2E2E2E2E2E2E2E2E2E2E2E2E2E2E2E2E2E2E2E2E2E2E2E2E2E2E2E2E2E2E2E2E2E2E2E2E2E2E2E2E2E2E2E2E2E2E2E2E2E2E2E2E2E2E2E2E2E2E2E2E2E2E2E2E2E2E2E2E2E2E2E2E2E2E2E2E2E2E2E2E2E2E2
310
E2E2E2E2E2E2E2E2E2E2E2E2E2E2E2E2E2E2E2E2E2E2E2E2E2E2E2E2E2E2E2E2E2E2E2E2E2E2E2E2E2E2F5E2E2E2E2E2E2E2E2E2E2E2E2E2E2E2E2F5E2E2E2F5F5E2E2E2E2E2E2E2E2E2E2E2E2E2E2E2E2E2E2E2E2F5E2E2E2E2E2E2E2E2E2E2E2E2E2E2E2E2E2E2E2E2E2E2E2E2E2E2E2E2E2E2E2E2E2E2E2E2E2E2E2E2E2
310
E2E2E2E2E2E2E2E2E2E2E2E2E2E2E2E2E2E2E2E2E2E2E2E2E2E2E2E2E2E2E2E2E2E2E2E2E2E2E2E2E2E2E2E2E2E2E2E2E2E2E2E2E2E2E2E2E2E2E2E2E2E2E2E2E2E2E2E2E2E2E2E2E2E2E2E2E2E2E2E2E2E2E2E2E2E2E2E2E2E2E2E2E2E2E2F5E2E2E2E2E2E2E2E2E2E2E2E2E2E2E2E2E2E2E2E2F5F5E2E2E2E2E2E2E2E2E2
310
E2E2E2E2E2E2E2E2E2E2E2F5E2E2E2E2E2E2E2E2E2E2E2E2E2E2E2E2E2E2E2E2E2E2E2E2E2E2E2E2E2E2E2E2E2E2E2E2E2E2E2E2E2E2E2E2E2E2E2E2E2E2E2E2E2E2E2E2E2E2E2E2E2E2E2E2E2E2E2E2E2E2E2E2E2E2E2E2E2E2E2E2E2E2E2E2E2E2E2E2E2E2E2E2E2E2E2E2E2E2E2E2E2E2E2E2E2E2E2E2E2E2E2E2E2E2E2
310
E2E2E2E2E2E2E2E2E2E2E2E2E2E2E2E2E2E2E2E2E2F5E2E2E2E2E2E2E2E2E2E2E2E2E2E2E2E2E2E2E2E2F5F5E2E2E2E2E2E2E2E2E2E2E2E2E2E2E2E2E2E2E2E2F5E2E2E2E2E2E2E2E2E2E2E2E2E2E2E2E2E2E2E2E2E2E2E2E2E2E2E2E2E2E2E2E2E2E2E2E2E2E2E2E2E2E2E2E2E2E2E2E2E2E2E2E2E2E2E2E2E2E2E2E2E2E2
310
E2E2E2E2E2E2E2E2E2E2E2E2E2E2E2E2E2E2E2E2E2E2E2E2E2E2E2E2E2E2E2E2E2E2E2E2E2E2E2E2E2E2E2E2E2E2E2E2E2E2E2E2E2E2E2E2E2E2E2E2E2E2E2E2E2E2E2E2E2E2E2E2E2E2F5E2E2E2E2E2E2E2E2E2E2E2E2E2E2E2E2E2E2E2E2F5F5E2E2E2E2E2E2E2E2E2E2E2E2E2E2E2E2E2E2E2E2F5E2E2E2E2E2E2E2E2E2
310
E2E2E2E2E2E2E2E2E2E2E2E2E2E2E2E2E2E2E2E2E2E2E2E2E2E2E2E2E2E2E2E2E2E2E2E2E2E2E2E2E2E2E2E2E2E2E2E2E2E2E2E2E2E2E2E2E2E2E2E2E2E2E2E2E2E2E2E2E2E2E2E2E2E2E2E2E2E2E2E2E2E2E2E2E2E2E2E2E2E2E2E2E2E2E2E2E2E2E2E2E2E2E2E2E2E2E2E2E2E2E2E2E2E2E2E2E2E2E2E2E2E2E2E2E2E2E2
310
F5E2E2E2E2E2E2E2E2E2E2E2E2E2E2E2E2E2E2E2E2F5F5E2E2E2E2E2E2E2E2E2E2E2E2E2E2E2E2E2E2E2E2F5E2E2E2E2E2E2E2E2E2E2E2E2E2E2E2E2E2E2E2E2E2E2E2E2E2E2E2E2E2E2E2E2E2E2E2E2E2E2E2E2E2E2E2E2E2E2E2E2E2E2E2E2E2E2E2E2E2E2E2E2E2E2E2E2E2E2E2E2E2E2E2E2E2E2E2E2E2E2E2E2E2E2E2
310
E2E2E2E2E2E2E2E2E2E2E2E2E2E2E2E2E2E2E2E2E2E2E2E2E2E2E2E2E2E2E2E2E2E2E2E2E2E2E2E2E2E2E2E2E2E2E2E2E2E2E2E2E2F5E2E2E2E2E2E2E2E2E2E2E2E2E2E2E2E2E2E2E2E2F5F5E2E2E2E2E2E2E2E2E2E2E2E2E2E2E2E2E2E2E2E2F5E2E2E2E2E2E2E2E2E2E2E2E2E2E2E2E2E2E2E2E2E2E2E2E2E2E2E2E2E2E2
310
E2E2E2E2E2E2E2E2E2E2E2E2E2E2E2E2E2E2E2E2E2E2E2E2E2E2E2E2E2E2E2E2E2E2E2E2E2E2E2E2E2E2E2E2E2E2E2E2E2E2E2E2E2E2E2E2E2E2E2E2E2E2E2E2E2E2E2E2E2E2E2E2E2E2E2E2E2E2E2E2E2E2E2E2E2E2E2E2E2E2E2E2E2E2E2E2E2E2E2E2E2E2E2E2E2E2F5E2E2E2E2E2E2E2E2E2E2E2E2E2E2E2E2E2E2E2E2
310
F5F5E2E2E2E2E2E2E2E2E2E2E2E2E2E2E2E2E2E2E2E2F5E2E2E2E2E2E2E2E2E2E2E2E2E2E2E2E2E2E2E2E2E2E2E2E2E2E2E2E2E2E2E2E2E2E2E2E2E2E2E2E2E2E2E2E2E2E2E2E2E2E2E2E2E2E2E2E2E2E2E2E2E2E2E2E2E2E2E2E2E2E2E2E2E2E2E2E2E2E2E2E2E2E2E2E2E2E2E2E2E2E2E2E2E2E2E2E2E2E2E2E2E2E2E2E2
310
E2E2E2E2E2E2E2E2E2E2E2E2E2E2E2E2E2E2E2E2E2E2E2E2E2E2E2E2E2E2E2E2F5E2E2E2E2E2E2E2E2E2E2E2E2E2E2E2E2E2E2E2E2F5F5E2E2E2E2E2E2E2E2E2E2E2E2E2E2E2E2E2E2E2E2F5E2E2E2E2E2E2E2E2E2E2E2E2E2E2E2E2E2E2E2E2E2E2E2E2E2E2E2E2E2E2E2E2E2E2E2E2E2E2E2E2E2E2E2E2E2E2E2E2E2E2E2
310
E2E2E2E2E2E2E2E2E2E2E2E2E2E2E2E2E2E2E2E2E2E2E2E2E2E2E2E2E2E2E2E2E2E2E2E2E2E2E2E2E2E2E2E2E2E2E2E2E2E2E2E2E2E2E2E2E2E2E2E2E2E2E2E2E2E2E2E2E2E2E2E2E2E2E2E2E2E2E2E2E2E2E2E2E2F5E2E2E2E2E2E2E2E2E2E2E2E2E2E2E2E2E2E2E2E2F5F5E2E2E2E2E2E2E2E2E2E2E2E2E2E2E2E2E2E2E2
310
E2F5E2E2E2E2E2E2E2E2E2E2E2E2E2E2E2E2E2E2E2E2E2E2E2E2E2E2E2E2E2E2E2E2E2E2E2E2E2E2E2E2E2E2E2E2E2E2E2E2E2E2E2E2E2E2E2E2E2E2E2E2E2E2E2E2E2E2E2E2E2E2E2E2E2E2E2E2E2E2E2E2E2E2E2E2E2E2E2E2E2E2E2E2E2E2E2E2E2E2E2E2E2E2E2E2E2E2E2E2E2E2E2E2E2E2E2E2E2E2E2E2E2E2E2E2E2
310
E2E2E2E2E2E2E2E2E2E2E2F5E2E2E2E2E2E2E2E2E2E2E2E2E2E2E2E2E2E2E2E2F5F5E2E2E2E2E2E2E2E2E2E2E2E2E2E2E2E2E2E2E2E2F5E2E2E2E2E2E2E2E2E2E2E2E2E2E2E2E2E2E2E2E2E2E2E2E2E2E2E2E2E2E2E2E2E2E2E2E2E2E2E2E2E2E2E2E2E2E2E2E2E2E2E2E2E2E2E2E2E2E2E2E2E2E2E2E2E2E2E2E2E2E2E2E2
310
E2E2E2E2E2E2E2E2E2E2E2E2E2E2E2E2E2E2E2E2E2E2E2E2E2E2E2E2E2E2E2E2E2E2E2E2E2E2E2E2E2E2E2E2E2E2E2E2E2E2E2E2E2E2E2E2E2E2E2E2E2E2E2E2F5E2E2E2E2E2E2E2E2E2E2E2E2E2E2E2E2E2E2E2E2F5F5E2E2E2F5E2E2E2E2E2E2E2E2E2E2E2E2E2E2E2E2F5E2E2E2E2E2E2E2E2E2E2E2E2E2E2E2E2E2E2E2
310
E2E2E2E2E2E2E2E2E2E2E2E2E2E2E2E2E2E2E2E2E2E2E2E2E2E2E2E2E2E2E2E2E2E2E2E2E2E2E2E2E2E2E2E2E2E2E2E2E2E2E2E2E2E2E2E2E2E2E2E2E2E2E2E2E2E2E2E2E2E2E2E2E2E2E2E2E2E2E2E2E2E2E2E2E2E2E2E2E2E2E2E2E2E2E2E2E2E2E2E2E2E2E2E2E2E2E2E2E2E2E2E2E2E2E2E2E2F5E2E2E2E2E2E2E2E2E2
310
E2E2E2E2E2E2E2F5E2E2E2F5F5E2E2E2F5E2E2E2E2E2E2E2E2E2E2E2E2E2E2E2E2F5E2E2E2E2E2E2E2E2E2E2E2E2E2E2E2E2E2E2E2E2E2E2E2E2E2E2E2E2E2E2E2E2E2E2E2E2E2E2E2E2E2E2E2E2E2E2E2E2E2E2E2E2E2E2E2E2E2E2E2E2E2E2E2E2E2E2E2E2E2E2E2E2E2E2E2E2E2E2E2E2E2E2E2E2E2E2E2E2E2E2E2E2E2
310
E2E2E2E2E2E2E2E2E2E2E2E2E2E2E2E2E2E2E2E2E2E2E2E2E2E2E2E2E2E2E2E2E2E2E2E2E2E2E2E2E2E2E2F5E2E2E2E2E2E2E2E2E2E2E2E2E2E2E2E2F5E2E2E2F5F5E2E2E2F5E2E2E2E2E2E2E2E2E2E2E2E2E2E2E2E2F5E2E2E2E2E2E2E2E2E2E2E2E2E2E2E2E2E2E2E2E2E2E2E2E2E2E2E2E2E2E2E2E2E2E2E2E2E2E2E2E2
310
E2E2E2E2E2E2E2E2E2E2E2E2E2E2E2E2E2E2E2E2E2E2E2E2E2E2E2E2E2E2E2E2E2E2E2E2E2E2E2E2E2E2E2E2E2E2E2E2E2E2E2E2E2E2E2E2E2E2E2E2E2E2E2E2E2E2E2E2E2E2E2E2E2E2E2E2E2E2E2E2E2E2E2E2E2E2E2E2E2E2E2E2E2E2E2E2F5E2E2E2E2E2E2E2E2E2E2E2E2E2E2E2E2F5E2E2E2F5F5E2E2E2F5E2E2E2E2
310
E2E2E2E2E2E2E2E2E2E2E2E2F5E2E2E2E2E2E2E2E2E2E2E2E2E2E2E2E2E2E2E2E2E2E2E2E2E2E2E2E2E2E2E2E2E2E2E2E2E2E2E2E2E2E2E2E2E2E2E2E2E2E2E2E2E2E2E2E2E2E2E2E2E2E2E2E2E2E2E2E2E2E2E2E2E2E2E2E2E2E2E2E2E2E2E2E2E2E2E2E2E2E2E2E2E2E2E2E2E2E2E2E2E2E2E2E2E2E2E2E2E2E2E2E2E2E2
310
E2E2E2E2E2E2E2E2E2E2E2E2E2E2E2E2E2E2E2E2E2E2F5E2E2E2E2E2E2E2E2E2E2E2E2E2E2E2E2F5E2E2E2F5F5E2E2E2F5E2E2E2E2E2E2E2E2E2E2E2E2E2E2E2E2F5E2E2E2E2E2E2E2E2E2E2E2E2E2E2E2E2E2E2E2E2E2E2E2E2E2E2E2E2E2E2E2E2E2E2E2E2E2E2E2E2E2E2E2E2E2E2E2E2E2E2E2E2E2E2E2E2E2E2E2E2E2
310
E2E2E2E2E2E2E2E2E2E2E2E2E2E2E2E2E2E2E2E2E2E2E2E2E2E2E2E2E2E2E2E2E2E2E2E2E2E2E2E2E2E2E2E2E2E2E2E2E2E2E2E2E2E2E2E2E2E2E2E2E2E2E2E2E2E2E2E2E2E2E2E2E2E2E2F5E2E2E2E2E2E2E2E2E2E2E2E2E2E2E2E2F5E2E2E2F5F5E2E2E2F5E2E2E2E2E2E2E2E2E2E2E2E2E2E2E2E2F5E2E2E2E2E2E2E2E2
310
E2E2E2E2E2E2E2E2E2E2E2E2E2E2E2E2E2E2E2E2E2E2E2E2E2E2E2E2E2E2E2E2E2E2E2E2E2E2E2E2E2E2E2E2E2E2E2E2E2E2E2E2E2E2E2E2E2E2E2E2E2E2E2E2E2E2E2E2E2E2E2E2E2E2E2E2E2E2E2E2E2E2E2E2E2E2E2E2E2E2E2E2E2E2E2E2E2E2E2E2E2E2E2E2E2E2E2E2E2E2E2E2E2E2E2E2E2E2E2E2E2E2E2E2E2E2E2
310
E2F5E2E2E2E2E2E2E2E2E2E2E2E2E2E2E2E2F5E2E2E2F5F5E2E2E2F5E2E2E2E2E2E2E2E2E2E2E2E2E2E2E2E2F5E2E2E2E2E2E2E2E2E2E2E2E2E2E2E2E2E2E2E2E2E2E2E2E2E2E2E2E2E2E2E2E2E2E2E2E2E2E2E2E2E2E2E2E2E2E2E2E2E2E2E2E2E2E2E2E2E2E2E2E2E2E2E2E2E2E2E2E2E2E2E2E2E2E2E2E2E2E2E2E2E2E2
310
E2E2E2E2E2E2E2E2E2E2E2E2E2E2E2E2E2E2E2E2E2E2E2E2E2E2E2E2E2E2E2E2E2E2E2E2E2E2E2E2E2E2E2E2E2E2E2E2E2E2E2E2E2E2F5E2E2E2E2E2E2E2E2E2E2E2E2E2E2E2E2F5E2E2E2F5F5E2E2E2F5E2E2E2E2E2E2E2E2E2E2E2E2E2E2E2E2F5E2E2E2E2E2E2E2E2E2E2E2E2E2E2E2E2E2E2E2E2E2E2E2E2E2E2E2E2E2
310
E2E2E2E2E2E2E2E2E2E2E2E2E2E2E2E2E2E2E2E2E2E2E2E2E2E2E2E2E2E2E2E2E2E2E2E2E2E2E2E2E2E2E2E2E2E2E2E2E2E2E2E2E2E2E2E2E2E2E2E2E2E2E2E2E2E2E2E2E2E2E2E2E2E2E2E2E2E2E2E2E2E2E2E2E2E2E2E2E2E2E2E2E2E2E2E2E2E2E2E2E2E2E2E2E2E2E2F5E2E2E2E2E2E2E2E2E2E2E2E2E2E2E2E2F5E2E2
310
E2F5F5E2E2E2F5E2E2E2E2E2E2E2E2E2E2E2E2E2E2E2E2F5E2E2E2E2E2E2E2E2E2E2E2E2E2E2E2E2E2E2E2E2E2E2E2E2E2E2E2E2E2E2E2E2E2E2E2E2E2E2E2E2E2E2E2E2E2E2E2E2E2E2E2E2E2E2E2E2E2E2E2E2E2E2E2E2E2E2E2E2E2E2E2E2E2E2E2E2E2E2E2E2E2E2E2E2E2E2E2E2E2E2E2E2E2E2E2E2E2E2E2E2E2E2E2
310
E2E2E2E2E2E2E2E2E2E2E2E2E2E2E2E2E2E2E2E2E2E2E2E2E2E2E2E2E2E2E2E2E2F5E2E2E2E2E2E2E2E2E2E2E2E2E2E2E2E2F5E2E2E2F5F5E2E2E2F5E2E2E2E2E2E2E2E2E2E2E2E2E2E2E2E2F5E2E2E2E2E2E2E2E2E2E2E2E2E2E2E2E2E2E2E2E2E2E2E2E2E2E2E2E2E2E2E2E2E2E2E2E2E2E2E2E2E2E2E2E2E2E2E2E2E2E2
310
E2E2E2E2E2E2E2E2E2E2E2E2E2E2E2E2E2E2E2E2E2E2E2E2E2E2E2E2E2E2E2E2E2E2E2E2E2E2E2E2E2E2E2E2E2E2E2E2E2E2E2E2E2E2E2E2E2E2E2E2E2E2E2E2E2E2E2E2E2E2E2E2E2E2E2E2E2E2E2E2E2E2E2E2E2E2F5E2E2E2E2E2E2E2E2E2E2E2E2E2E2E2E2F5E2E2E2F5F5E2E2E2F5E2E2E2E2E2E2E2E2E2E2E2E2E2E2
310
E2E2F5E2E2E2E2E2E2E2E2E2E2E2E2E2E2E2E2E2E2E2E2E2E2E2E2E2E2E2E2E2E2E2E2E2E2E2E2E2E2E2E2E2E2E2E2E2E2E2E2E2E2E2E2E2E2E2E2E2E2E2E2E2E2E2E2E2E2E2E2E2E2E2E2E2E2E2E2E2E2E2E2E2E2E2E2E2E2E2E2E2E2E2E2E2E2E2E2E2E2E2E2E2E2E2E2E2E2E2E2E2E2E2E2E2E2E2E2E2E2E2E2E2E2E2E2
310
E2E2E2E2E2E2E2E2E2E2E2E2F5E2E2E2E2E2E2E2E2E2E2E2E2E2E2E2E2F5E2E2E2F5F5E2E2E2F5E2E2E2E2E2E2E2E2E2E2E2E2E2E2E2E2F5E2E2E2E2E2E2E2E2E2E2E2E2E2E2E2E2E2E2E2E2E2E2E2E2E2E2E2E2E2E2E2E2E2E2E2E2E2E2E2E2E2E2E2E2E2E2E2E2E2E2E2E2E2E2E2E2E2E2E2E2E2E2E2E2E2E2E2E2E2E2E2
310
E2E2E2E2E2E2E2E2E2E2E2E2E2E2E2E2E2E2E2E2E2E2E2E2E2E2E2E2E2E2E2E2E2E2E2E2E2E2E2E2E2E2E2E2E2E2E2E2E2E2E2E2E2E2E2E2E2E2E2E2E2E2E2E2E2F5E2E2E2E2E2E2E2E2E2E2E2E2E2E2E2E2F5E2E2E2F5F5E2E2E2F5E2E2E2E2E2E2E2E2E2E2E2E2E2E2E2E2F5E2E2E2E2E2E2E2E2E2E2E2E2E2E2E2E2E2E2
310
E2E2E2E2E2E2E2E2E2E2E2E2E2E2E2E2E2E2E2E2E2E2E2E2E2E2E2E2E2E2E2E2E2E2E2E2E2E2E2E2E2E2E2E2E2E2E2E2E2E2E2E2E2E2E2E2E2E2E2E2E2E2E2E2E2E2E2E2E2E2E2E2E2E2E2E2E2E2E2E2E2E2E2E2E2E2E2E2E2E2E2E2E2E2E2E2E2E2E2E2E2E2E2E2E2E2E2E2E2E2E2E2E2E2E2E2E2E2F5E2E2E2E2E2E2E2E2
310
E2E2E2E2E2E2E2E2F5E2E2E2F5F5E2E2E2F5E2E2E2E2E2E2E2E2E2E2E2E2E2E2E2E2F5E2E2E2E2E2E2E2E2E2E2E2E2E2E2E2E2E2E2E2E2E2E2E2E2E2E2E2E2E2E2E2E2E2E2E2E2E2E2E2E2E2E2E2E2E2E2E2E2E2E2E2E2E2E2E2E2E2E2E2E2E2E2E2E2E2E2E2E2E2E2E2E2E2E2E2E2E2E2E2E2E2E2E2E2E2E2E2E2E2E2E2E2
310
E2E2E2E2E2E2E2E2E2E2E2E2E2E2E2E2E2E2E2E2E2E2E2E2E2E2E2E2E2E2E2E2E2E2E2E2E2E2E2E2E2E2E2E2F5E2E2E2E2E2E2E2E2E2E2E2E2E2E2E2E2F5E2E2E2F5F5E2E2E2F5E2E2E2E2E2E2E2E2E2E2E2E2E2E2E2E2F5E2E2E2E2E2E2E2E2E2E2E2E2E2E2E2E2E2E2E2E2E2E2E2E2E2E2E2E2E2E2E2E2E2E2E2E2E2E2E2
310
E2E2E2E2E2E2E2E2E2E2E2E2E2E2E2E2E2E2E2E2E2E2E2E2E2E2E2E2E2E2E2E2E2E2E2E2E2E2E2E2E2E2E2E2E2E2E2E2E2E2E2E2E2E2E2E2E2E2E2E2E2E2E2E2E2E2E2E2E2E2E2E2E2E2E2E2E2E2E2E2E2E2E2E2E2E2E2E2E2E2E2E2E2E2E2E2E2F5E2E2E2E2E2E2E2E2E2E2E2E2E2E2E2E2F5E2E2E2F5F5E2E2E2F5E2E2E2
310
E2E2E2E2E2E2E2E2E2E2E2E2E2F5E2E2E2E2E2E2E2E2E2E2E2E2E2E2E2E2E2E2E2E2E2E2E2E2E2E2E2E2E2E2E2E2E2E2E2E2E2E2E2E2E2E2E2E2E2E2E2E2E2E2E2E2E2E2E2E2E2E2E2E2E2E2E2E2E2E2E2E2E2E2E2E2E2E2E2E2E2E2E2E2E2E2E2E2E2E2E2E2E2E2E2E2E2E2E2E2E2E2E2E2E2E2E2E2E2E2E2E2E2E2E2E2E2
310
E2E2E2E2E2E2E2E2E2E2E2E2E2E2E2E2E2E2E2E2E2E2E2F5E2E2E2E2E2E2E2E2E2E2E2E2E2E2E2E2F5E2E2E2F5F5E2E2E2E2E2E2E2E2E2E2E2E2E2E2E2E2E2E2E2E2F5E2E2E2E2E2E2E2E2E2E2E2E2E2E2E2E2E2E2E2E2E2E2E2E2E2E2E2E2E2E2E2E2E2E2E2E2E2E2E2E2E2E2E2E2E2E2E2E2E2E2E2E2E2E2E2E2E2E2E2E2
310
E2E2E2E2E2E2E2E2E2E2E2E2E2E2E2E2E2E2E2E2E2E2E2E2E2E2E2E2E2E2E2E2E2E2E2E2E2E2E2E2E2E2E2E2E2E2E2E2E2E2E2E2E2E2E2E2E2E2E2E2E2E2E2E2E2E2E2E2E2E2E2E2E2E2E2E2F5E2E2E2E2E2E2E2E2E2E2E2E2E2E2E2E2E2E2E2E2F5F5E2E2E2E2E2E2E2E2E2E2E2E2E2E2E2E2E2E2E2E2F5E2E2E2E2E2E2E2
310
E2E2E2E2E2E2E2E2E2E2E2E2E2E2E2E2E2E2E2E2E2E2E2E2E2E2E2E2E2E2E2E2E2E2E2E2E2E2E2E2E2E2E2E2E2E2E2E2E2E2E2E2E2E2E2E2E2E2E2E2E2E2E2E2E2E2E2E2E2E2E2E2E2E2E2E2E2E2E2E2E2E2E2E2E2E2E2E2E2E2E2E2E2E2E2E2E2E2E2E2E2E2E2E2E2E2E2E2E2E2E2E2E2E2E2E2E2E2E2E2E2E2E2E2E2E2E2
310
E2E2F5E2E2E2E2E2E2E2E2E2E2E2E2E2E2E2E2E2E2E2E2F5F5E2E2E2E2E2E2E2E2E2E2E2E2E2E2E2E2E2E2E2E2F5E2E2E2E2E2E2E2E2E2E2E2E2E2E2E2E2E2E2E2E2E2E2E2E2E2E2E2E2E2E2E2E2E2E2E2E2E2E2E2E2E2E2E2E2E2E2E2E2E2E2E2E2E2E2E2E2E2E2E2E2E2E2E2E2E2E2E2E2E2E2E2E2E2E2E2E2E2E2E2E2E2
310
E2E2E2E2E2E2E2E2E2E2E2E2E2E2E2E2E2E2E2E2E2E2E2E2E2E2E2E2E2E2E2E2E2E2E2E2E2E2E2E2E2E2E2E2E2E2E2E2E2E2E2E2E2E2E2F5E2E2E2E2E2E2E2E2E2E2E2E2E2E2E2E2E2E2E2E2F5F5E2E2E2E2E2E2E2E2E2E2E2E2E2E2E2E2E2E2E2E2F5E2E2E2E2E2E2E2E2E2E2E2E2E2E2E2E2E2E2E2E2E2E2E2E2E2E2E2E2
310
E2E2E2E2E2E2E2E2E2E2E2E2E2E2E2E2E2E2E2E2E2E2E2E2E2E2E2E2E2E2E2E2E2E2E2E2E2E2E2E2E2E2E2E2E2E2E2E2E2E2E2E2E2E2E2E2E2E2E2E2E2E2E2E2E2E2E2E2E2E2E2E2E2E2E2E2E2E2E2E2E2E2E2E2E2E2E2E2E2E2E2E2E2E2E2E2E2E2E2E2E2E2E2E2E2E2E2E2F5E2E2E2E2E2E2E2E2E2E2E2E2E2E2E2E2E2E2
310
E2E2F5F5E2E2E2E2E2E2E2E2E2E2E2E2E2E2E2E2E2E2E2E2F5E2E2E2E2E2E2E2E2E2E2E2E2E2E2E2E2E2E2E2E2E2E2E2E2E2E2E2E2E2E2E2E2E2E2E2E2E2E2E2E2E2E2E2E2E2E2E2E2E2E2E2E2E2E2E2E2E2E2E2E2E2E2E2E2E2E2E2E2E2E2E2E2E2E2E2E2E2E2E2E2E2E2E2E2E2E2E2E2E2E2E2E2E2E2E2E2E2E2E2E2E2E2
310
E2E2E2E2E2E2E2E2E2E2E2E2E2E2E2E2E2E2E2E2E2E2E2E2E2E2E2E2E2E2E2E2E2E2F5E2E2E2E2E2E2E2E2E2E2E2E2E2E2E2E2E2E2E2E2F5F5E2E2E2E2E2E2E2E2E2E2E2E2E2E2E2E2E2E2E2E2F5E2E2E2E2E2E2E2E2E2E2E2E2E2E2E2E2E2E2E2E2E2E2E2E2E2E2E2E2E2E2E2E2E2E2E2E2E2E2E2E2E2E2E2E2E2E2E2E2E2
310
E2E2E2E2E2E2E2E2E2E2E2E2E2E2E2E2E2E2E2E2E2E2E2E2E2E2E2E2E2E2E2E2E2E2E2E2E2E2E2E2E2E2E2E2E2E2E2E2E2E2E2E2E2E2E2E2E2E2E2E2E2E2E2E2E2E2E2E2E2E2E2E2E2E2E2E2E2E2E2E2E2E2E2E2E2E2E2F5E2E2E2E2E2E2E2E2E2E2E2E2E2E2E2E2E2E2E2E2F5F5E2E2E2E2E2E2E2E2E2E2E2E2E2E2E2E2E2
310
E2E2E2F5E2E2E2E2E2E2E2E2E2E2E2E2E2E2E2E2E2E2E2E2E2E2E2E2E2E2E2E2E2E2E2E2E2E2E2E2E2E2E2E2E2E2E2E2E2E2E2E2E2E2E2E2E2E2E2E2E2E2E2E2E2E2E2E2E2E2E2E2E2E2E2E2E2E2E2E2E2E2E2E2E2E2E2E2E2E2E2E2E2E2E2E2E2E2E2E2E2E2E2E2E2E2E2E2E2E2E2E2E2E2E2E2E2E2E2E2E2E2E2E2E2E2E2
310
E2E2E2E2E2E2E2E2E2E2E2E2E2F5E2E2E2E2E2E2E2E2E2E2E2E2E2E2E2E2E2E2E2E2F5F5E2E2E2E2E2E2E2E2E2E2E2E2E2E2E2E2E2E2E2E2F5E2E2E2E2E2E2E2E2E2E2E2E2E2E2E2E2E2E2E2E2E2E2E2E2E2E2E2E2E2E2E2E2E2E2E2E2E2E2E2E2E2E2E2E2E2E2E2E2E2E2E2E2E2E2E2E2E2E2E2E2E2E2E2E2E2E2E2E2E2E2
310
E2E2E2E2E2E2E2E2E2E2E2E2E2E2E2E2E2E2E2E2E2E2E2E2E2E2E2E2E2E2E2E2E2E2E2E2E2E2E2E2E2E2E2E2E2E2E2E2E2E2E2E2E2E2E2E2E2E2E2E2E2E2E2E2E2E2F5E2E2E2E2E2E2E2E2E2E2E2E2E2E2E2E2E2E2E2E2F5F5E2E2E2E2E2E2E2E2E2E2E2E2E2E2E2E2E2E2E2E2F5E2E2E2E2E2E2E2E2E2E2E2E2E2E2E2E2E2
310
E2E2E2E2E2E2E2E2E2E2E2E2E2E2E2E2E2E2E2E2E2E2E2E2E2E2E2E2E2E2E2E2E2E2E2E2E2E2E2E2E2E2E2E2E2E2E2E2E2E2E2E2E2E2E2E2E2E2E2E2E2E2E2E2E2E2E2E2E2E2E2E2E2E2E2E2E2E2E2E2E2E2E2E2E2E2E2E2E2E2E2E2E2E2E2E2E2E2E2E2E2E2E2E2E2E2E2E2E2E2E2E2E2E2E2E2E2E2E2F5E2E2E2E2E2E2E2
310
E2E2E2E2E2E2E2E2E2E2E2E2E2F5F5E2E2E2F5E2E2E2E2E2E2E2E2E2E2E2E2E2E2E2E2F5E2E2E2E2E2E2E2E2E2E2E2E2E2E2E2E2E2E2E2E2E2E2E2E2E2E2E2E2E2E2E2E2E2E2E2E2E2E2E2E2E2E2E2E2E2E2E2E2E2E2E2E2E2E2E2E2E2E2E2E2E2E2E2E2E2E2E2E2E2E2E2E2E2E2E2E2E2E2E2E2E2E2E2E2E2E2E2E2E2E2E2
310
E2E2E2E2E2E2E2E2E2E2E2E2E2E2E2E2E2E2E2E2E2E2E2E2E2E2E2E2E2E2E2E2E2E2E2E2E2E2E2E2E2E2E2E2E2F5E2E2E2E2E2E2E2E2E2E2E2E2E2E2E2E2F5E2E2E2F5F5E2E2E2F5E2E2E2E2E2E2E2E2E2E2E2E2E2E2E2E2F5E2E2E2E2E2E2E2E2E2E2E2E2E2E2E2E2E2E2E2E2E2E2E2E2E2E2E2E2E2E2E2E2E2E2E2E2E2E2
310
E2E2E2E2E2E2E2E2E2E2E2E2E2E2E2E2E2E2E2E2E2E2E2E2E2E2E2E2E2E2E2E2E2E2E2E2E2E2E2E2E2E2E2E2E2E2E2E2E2E2E2E2E2E2E2E2E2E2E2E2E2E2E2E2E2E2E2E2E2E2E2E2E2E2E2E2E2E2E2E2E2E2E2E2E2E2E2E2E2E2E2E2E2E2E2E2E2E2F5E2E2E2E2E2E2E2E2E2E2E2E2E2E2E2E2F5E2E2E2F5F5E2E2E2F5E2E2
310
E2E2E2E2E2E2E2E2E2E2E2E2E2E2F5E2E2E2E2E2E2E2E2E2E2E2E2E2E2E2E2E2E2E2E2E2E2E2E2E2E2E2E2E2E2E2E2E2E2E2E2E2E2E2E2E2E2E2E2E2E2E2E2E2E2E2E2E2E2E2E2E2E2E2E2E2E2E2E2E2E2E2E2E2E2E2E2E2E2E2E2E2E2E2E2E2E2E2E2E2E2E2E2E2E2E2E2E2E2E2E2E2E2E2E2E2E2E2E2E2E2E2E2E2E2E2E2
310
E2E2E2E2E2E2E2E2E2E2E2E2E2E2E2E2E2E2E2E2E2E2E2E2F5E2E2E2E2E2E2E2E2E2E2E2E2E2E2E2E2F5E2E2E2F5F5E2E2E2F5E2E2E2E2E2E2E2E2E2E2E2E2E2E2E2E2F5E2E2E2E2E2E2E2E2E2E2E2E2E2E2E2E2E2E2E2E2E2E2E2E2E2E2E2E2E2E2E2E2E2E2E2E2E2E2E2E2E2E2E2E2E2E2E2E2E2E2E2E2E2E2E2E2E2E2E2
310
E2E2E2E2E2E2E2E2E2E2E2E2E2E2E2E2E2E2E2E2E2E2E2E2E2E2E2E2E2E2E2E2E2E2E2E2E2E2E2E2E2E2E2E2E2E2E2E2E2E2E2E2E2E2E2E2E2E2E2E2E2E2E2E2E2E2E2E2E2E2E2E2E2E2E2E2E2F5E2E2E2E2E2E2E2E2E2E2E2E2E2E2E2E2F5E2E2E2F5F5E2E2E2F5E2E2E2E2E2E2E2E2E2E2E2E2E2E2E2E2F5E2E2E2E2E2E2
310
E2E2E2E2E2E2E2E2E2E2E2E2E2E2E2E2E2E2E2E2E2E2E2E2E2E2E2E2E2E2E2E2E2E2E2E2E2E2E2E2E2E2E2E2E2E2E2E2E2E2E2E2E2E2E2E2E2E2E2E2E2E2E2E2E2E2E2E2E2E2E2E2E2E2E2E2E2E2E2E2E2E2E2E2E2E2E2E2E2E2E2E2E2E2E2E2E2E2E2E2E2E2E2E2E2E2E2E2E2E2E2E2E2E2E2E2E2E2E2E2E2E2E2E2E2E2E2
310
E2E2E2F5E2E2E2E2E2E2E2E2E2E2E2E2E2E2E2E2F5E2E2E2F5F5E2E2E2F5E2E2E2E2E2E2E2E2E2E2E2E2E2E2E2E2F5E2E2E2E2E2E2E2E2E2E2E2E2E2E2E2E2E2E2E2E2E2E2E2E2E2E2E2E2E2E2E2E2E2E2E2E2E2E2E2E2E2E2E2E2E2E2E2E2E2E2E2E2E2E2E2E2E2E2E2E2E2E2E2E2E2E2E2E2E2E2E2E2E2E2E2E2E2E2E2E2
310
E2E2E2E2E2E2E2E2E2E2E2E2E2E2E2E2E2E2E2E2E2E2E2E2E2E2E2E2E2E2E2E2E2E2E2E2E2E2E2E2E2E2E2E2E2E2E2E2E2E2E2E2E2E2E2E2F5E2E2E2E2E2E2E2E2E2E2E2E2E2E2E2E2F5E2E2E2F5F5E2E2E2F5E2E2E2E2E2E2E2E2E2E2E2E2E2E2E2E2F5E2E2E2E2E2E2E2E2E2E2E2E2E2E2E2E2E2E2E2E2E2E2E2E2E2E2E2
310
E2E2E2E2E2E2E2E2E2E2E2E2E2E2E2E2E2E2E2E2E2E2E2E2E2E2E2E2E2E2E2E2E2E2E2E2E2E2E2E2E2E2E2E2E2E2E2E2E2E2E2E2E2E2E2E2E2E2E2E2E2E2E2E2E2E2E2E2E2E2E2E2E2E2E2E2E2E2E2E2E2E2E2E2E2E2E2E2E2E2E2E2E2E2E2E2E2E2E2E2E2E2E2E2E2E2E2E2E2F5E2E2E2E2E2E2E2E2E2E2E2E2E2E2E2E2F5
310
E2E2E2F5F5E2E2E2F5E2E2E2E2E2E2E2E2E2E2E2E2E2E2E2E2F5E2E2E2E2E2E2E2E2E2E2E2E2E2E2E2E2E2E2E2E2E2E2E2E2E2E2E2E2E2E2E2E2E2E2E2E2E2E2E2E2E2E2E2E2E2E2E2E2E2E2E2E2E2E2E2E2E2E2E2E2E2E2E2E2E2E2E2E2E2E2E2E2E2E2E2E2E2E2E2E2E2E2E2E2E2E2E2E2E2E2E2E2E2E2E2E2E2E2E2E2E2
310
E2E2E2E2E2E2E2E2E2E2E2E2E2E2E2E2E2E2E2E2E2E2E2E2E2E2E2E2E2E2E2E2E2E2E2F5E2E2E2E2E2E2E2E2E2E2E2E2E2E2E2E2F5E2E2E2F5F5E2E2E2F5E2E2E2E2E2E2E2E2E2E2E2E2E2E2E2E2F5E2E2E2E2E2E2E2E2E2E2E2E2E2E2E2E2E2E2E2E2E2E2E2E2E2E2E2E2E2E2E2E2E2E2E2E2E2E2E2E2E2E2E2E2E2E2E2E2
310
E2E2E2E2E2E2E2E2E2E2E2E2E2E2E2E2E2E2E2E2E2E2E2E2E2E2E2E2E2E2E2E2E2E2E2E2E2E2E2E2E2E2E2E2E2E2E2E2E2E2E2E2E2E2E2E2E2E2E2E2E2E2E2E2E2E2E2E2E2E2E2E2E2E2E2E2E2E2E2E2E2E2E2E2E2E2E2E2F5E2E2E2E2E2E2E2E2E2E2E2E2E2E2E2E2F5E2E2E2F5F5E2E2E2F5E2E2E2E2E2E2E2E2E2E2E2E2
310
E2E2E2E2F5E2E2E2E2E2E2E2E2E2E2E2E2E2E2E2E2E2E2E2E2E2E2E2E2E2E2E2E2E2E2E2E2E2E2E2E2E2E2E2E2E2E2E2E2E2E2E2E2E2E2E2E2E2E2E2E2E2E2E2E2E2E2E2E2E2E2E2E2E2E2E2E2E2E2E2E2E2E2E2E2E2E2E2E2E2E2E2E2E2E2E2E2E2E2E2E2E2E2E2E2E2E2E2E2E2E2E2E2E2E2E2E2E2E2E2E2E2E2E2E2E2E2
310
E2E2E2E2E2E2E2E2E2E2E2E2E2E2F5E2E2E2E2E2E2E2E2E2E2E2E2E2E2E2E2F5E2E2E2F5F5E2E2E2F5E2E2E2E2E2E2E2E2E2E2E2E2E2E2E2E2F5E2E2E2E2E2E2E2E2E2E2E2E2E2E2E2E2E2E2E2E2E2E2E2E2E2E2E2E2E2E2E2E2E2E2E2E2E2E2E2E2E2E2E2E2E2E2E2E2E2E2E2E2E2E2E2E2E2E2E2E2E2E2E2E2E2E2E2E2E2
310
E2E2E2E2E2E2E2E2E2E2E2E2E2E2E2E2E2E2E2E2E2E2E2E2E2E2E2E2E2E2E2E2E2E2E2E2E2E2E2E2E2E2E2E2E2E2E2E2E2E2E2E2E2E2E2E2E2E2E2E2E2E2E2E2E2E2E2F5E2E2E2E2E2E2E2E2E2E2E2E2E2E2E2E2F5E2E2E2F5F5E2E2E2F5E2E2E2E2E2E2E2E2E2E2E2E2E2E2E2E2F5E2E2E2E2E2E2E2E2E2E2E2E2E2E2E2E2
310
E2E2E2E2E2E2E2E2E2E2E2E2E2E2E2E2E2E2E2E2E2E2E2E2E2E2E2E2E2E2E2E2E2E2E2E2E2E2E2E2E2E2E2E2E2E2E2E2E2E2E2E2E2E2E2E2E2E2E2E2E2E2E2E2E2E2E2E2E2E2E2E2E2E2E2E2E2E2E2E2E2E2E2E2E2E2E2E2E2E2E2E2E2E2E2E2E2E2E2E2E2E2E2E2E2E2E2E2E2E2E2E2E2E2E2E2E2E2E2E2F5E2E2E2E2E2E2
310
E2E2E2E2E2E2E2E2E2E2F5E2E2E2F5F5E2E2E2F5E2E2E2E2E2E2E2E2E2E2E2E2E2E2E2E2F5E2E2E2E2E2E2E2E2E2E2E2E2E2E2E2E2E2E2E2E2E2E2E2E2E2E2E2E2E2E2E2E2E2E2E2E2E2E2E2E2E2E2E2E2E2E2E2E2E2E2E2E2E2E2E2E2E2E2E2E2E2E2E2E2E2E2E2E2E2E2E2E2E2E2E2E2E2E2E2E2E2E2E2E2E2E2E2E2E2E2
310
E2E2E2E2E2E2E2E2E2E2E2E2E2E2E2E2E2E2E2E2E2E2E2E2E2E2E2E2E2E2E2E2E2E2E2E2E2E2E2E2E2E2E2E2E2E2F5E2E2E2E2E2E2E2E2E2E2E2E2E2E2E2E2F5E2E2E2F5F5E2E2E2F5E2E2E2E2E2E2E2E2E2E2E2E2E2E2E2E2F5E2E2E2E2E2E2E2E2E2E2E2E2E2E2E2E2E2E2E2E2E2E2E2E2E2E2E2E2E2E2E2E2E2E2E2E2E2
310
E2E2E2E2E2E2E2E2E2E2E2E2E2E2E2E2E2E2E2E2E2E2E2E2E2E2E2E2E2E2E2E2E2E2E2E2E2E2E2E2E2E2E2E2E2E2E2E2E2E2E2E2E2E2E2E2E2E2E2E2E2E2E2E2E2E2E2E2E2E2E2E2E2E2E2E2E2E2E2E2E2E2E2E2E2E2E2E2E2E2E2E2E2E2E2E2E2E2E2F5E2E2E2E2E2E2E2E2E2E2E2E2E2E2E2E2F5E2E2E2F5F5E2E2E2F5E2
310
E2E2E2E2E2E2E2E2E2E2E2E2E2E2E2F5E2E2E2E2E2E2E2E2E2E2E2E2E2E2E2E2E2E2E2E2E2E2E2E2E2E2E2E2E2E2E2E2E2E2E2E2E2E2E2E2E2E2E2E2E2E2E2E2E2E2E2E2E2E2E2E2E2E2E2E2E2E2E2E2E2E2E2E2E2E2E2E2E2E2E2E2E2E2E2E2E2E2E2E2E2E2E2E2E2E2E2E2E2E2E2E2E2E2E2E2E2E2E2E2E2E2E2E2E2E2E2
310
E2E2E2E2E2E2E2E2E2E2E2E2E2E2E2E2E2E2E2E2E2E2E2E2E2F5E2E2E2E2E2E2E2E2E2E2E2E2E2E2E2E2F5E2E2E2F5F5E2E2E2F5E2E2E2E2E2E2E2E2E2E2E2E2E2E2E2E2F5E2E2E2E2E2E2E2E2E2E2E2E2E2E2E2E2E2E2E2E2E2E2E2E2E2E2E2E2E2E2E2E2E2E2E2E2E2E2E2E2E2E2E2E2E2E2E2E2E2E2E2E2E2E2E2E2E2E2
310
E2E2E2E2E2E2E2E2E2E2E2E2E2E2E2E2E2E2E2E2E2E2E2E2E2E2E2E2E2E2E2E2E2E2E2E2E2E2E2E2E2E2E2E2E2E2E2E2E2E2E2E2E2E2E2E2E2E2E2E2E2E2E2E2E2E2E2E2E2E2E2E2E2E2E2E2E2E2F5E2E2E2E2E2E2E2E2E2E2E2E2E2E2E2E2F5E2E2E2F5F5E2E2E2F5E2E2E2E2E2E2E2E2E2E2E2E2E2E2E2E2F5E2E2E2E2E2
310
E2E2E2E2E2E2E2E2E2E2E2E2E2E2E2E2E2E2E2E2E2E2E2E2E2E2E2E2E2E2E2E2E2E2E2E2E2E2E2E2E2E2E2E2E2E2E2E2E2E2E2E2E2E2E2E2E2E2E2E2E2E2E2E2E2E2E2E2E2E2E2E2E2E2E2E2E2E2E2E2E2E2E2E2E2E2E2E2E2E2E2E2E2E2E2E2E2E2E2E2E2E2E2E2E2E2E2E2E2E2E2E2E2E2E2E2E2E2E2E2E2E2E2E2E2E2E2
310
E2E2E2E2F5E2E2E2E2E2E2E2E2E2E2E2E2E2E2E2E2F5E2E2E2F5F5E2E2E2E2E2E2E2E2E2E2E2E2E2E2E2E2E2E2E2E2F5E2E2E2E2E2E2E2E2E2E2E2E2E2E2E2E2E2E2E2E2E2E2E2E2E2E2E2E2E2E2E2E2E2E2E2E2E2E2E2E2E2E2E2E2E2E2E2E2E2E2E2E2E2E2E2E2E2E2E2E2E2E2E2E2E2E2E2E2E2E2E2E2E2E2E2E2E2E2E2
310
E2E2E2E2E2E2E2E2E2E2E2E2E2E2E2E2E2E2E2E2E2E2E2E2E2E2E2E2E2E2E2E2E2E2E2E2E2E2E2E2E2E2E2E2E2E2E2E2E2E2E2E2E2E2E2E2E2F5E2E2E2E2E2E2E2E2E2E2E2E2E2E2E2E2E2E2E2E2F5F5E2E2E2E2E2E2E2E2E2E2E2E2E2E2E2E2E2E2E2E2F5E2E2E2E2E2E2E2E2E2E2E2E2E2E2E2E2E2E2E2E2E2E2E2E2E2E2
310
E2E2E2E2E2E2E2E2E2E2E2E2E2E2E2E2E2E2E2E2E2E2E2E2E2E2E2E2E2E2E2E2E2E2E2E2E2E2E2E2E2E2E2E2E2E2E2E2E2E2E2E2E2E2E2E2E2E2E2E2E2E2E2E2E2E2E2E2E2E2E2E2E2E2E2E2E2E2E2E2E2E2E2E2E2E2E2E2E2E2E2E2E2E2E2E2E2E2E2E2E2E2E2E2E2E2E2E2E2E2F5E2E2E2E2E2E2E2E2E2E2E2E2E2E2E2E2
310
E2E2E2E2F5F5E2E2E2E2E2E2E2E2E2E2E2E2E2E2E2E2E2E2E2E2F5E2E2E2E2E2E2E2E2E2E2E2E2E2E2E2E2E2E2E2E2E2E2E2E2E2E2E2E2E2E2E2E2E2E2E2E2E2E2E2E2E2E2E2E2E2E2E2E2E2E2E2E2E2E2E2E2E2E2E2E2E2E2E2E2E2E2E2E2E2E2E2E2E2E2E2E2E2E2E2E2E2E2E2E2E2E2E2E2E2E2E2E2E2E2E2E2E2E2E2E2
310
E2E2E2E2E2E2E2E2E2E2E2E2E2E2E2E2E2E2E2E2E2E2E2E2E2E2E2E2E2E2E2E2E2E2E2E2F5E2E2E2E2E2E2E2E2E2E2E2E2E2E2E2E2E2E2E2E2F5F5E2E2E2E2E2E2E2E2E2E2E2E2E2E2E2E2E2E2E2E2F5E2E2E2E2E2E2E2E2E2E2E2E2E2E2E2E2E2E2E2E2E2E2E2E2E2E2E2E2E2E2E2E2E2E2E2E2E2E2E2E2E2E2E2E2E2E2E2
310
E2E2E2E2E2E2E2E2E2E2E2E2E2E2E2E2E2E2E2E2E2E2E2E2E2E2E2E2E2E2E2E2E2E2E2E2E2E2E2E2E2E2E2E2E2E2E2E2E2E2E2E2E2E2E2E2E2E2E2E2E2E2E2E2E2E2E2E2E2E2E2E2E2E2E2E2E2E2E2E2E2E2E2E2E2E2E2E2E2F5E2E2E2E2E2E2E2E2E2E2E2E2E2E2E2E2E2E2E2E2F5F5E2E2E2E2E2E2E2E2E2E2E2E2E2E2E2
310
E2E2E2E2E2F5F5F5F5F5F5F5F5F5F5F5F5F5F5F5F5F5F5F5F5F5F5F5F5F5F5F5F5F5F5F5F5F5F5F5F5F5F5F5F5F5F5F5F5F5F5F5F5F5F5F5F5F5F5F5F5F5F5F5F5F5F5F5F5F5F5F5F5F5F5F5F5F5F5F5F5F5F5F5F5F5F5F5F5F5F5F5F5F5F5F5F5F5F5F5F5F5F5F5F5F5F5F5F5F5F5F5F5F5F5F5F5F5F5F5F5F5F5F5F5F5F5
310
F5F5F5F5F5F5F5F5F5F5F5F5F5F5F5F5E2E2E2E2E2E2E2E2E2E2E2E2E2E2E2E2E2E2E2E2F5F5E2E2E2E2E2E2E2E2E2E2E2E2E2E2E2E2E2E2E2E2E2E2E2E2E2E2E2E2E2E2E2E2E2E2E2E2E2E2E2E2E2E2E2E2E2E2E2E2E2E2E2E2E2E2E2E2E2E2E2E2E2E2E2E2E2E2E2E2E2E2E2E2E2E2E2E2E2E2E2E2E2E2E2E2E2E2E2E2E2
310
E2E2E2E2E2E2E2E2E2E2E2E2E2E2E2E2E2E2E2E2E2E2E2E2E2E2E2E2E2E2E2E2E2E2E2E2E2E2E2E2E2E2E2E2E2E2E2E2E2E2E2E2E2E2E2E2E2E2E2E2E2E2E2E2E2E2E2E2E2E2E2E2E2E2E2E2E2E2E2E2E2E2E2E2E2E2E2E2E2F5F5E2E2E2E2E2E2E2E2E2E2E2E2E2E2E2E2E2E2E2E2E2E2E2E2E2E2E2E2E2E2E2E2E2E2E2E2
310
E2E2E2E2E2E2E2E2E2E2E2E2E2E2E2E2E2E2E2E2E2E2E2E2E2E2E2E2E2E2E2E2E2E2E2E2E2E2E2E2E2E2E2E2E2E2E2E2E2E2E2E2E2E2E2E2E2E2E2E2E2E2E2E2E2E2E2E2E2E2E2E2E2E2E2E2E2E2E2E2E2E2E2E2E2E2E2E2E2E2E2E2E2E2E2E2E2E2E2E2E2E2E2E2E2E2E2E2E2E2E2E2E2E2E2E2E2E2E2E2E2E2E2E2E2E2E2
310
E2E2E2E2E2E2E2E2E2E2E2E2E2E2E2F5F5E2E2E2E2E2E2E2E2E2E2E2E2E2E2E2E2E2E2E2E2E2E2E2E2E2E2E2E2E2E2E2E2E2E2E2E2E2E2E2E2E2E2E2E2E2E2E2E2E2E2E2E2E2E2E2E2E2E2E2E2E2E2E2E2E2E2E2E2E2E2E2E2E2E2E2E2E2E2E2E2E2E2E2E2E2E2E2E2E2E2E2E2E2E2E2E2E2E2E2E2E2E2E2E2E2E2E2E2E2E2
310
E2E2E2E2E2E2E2E2E2E2E2E2E2E2E2E2E2E2E2E2E2E2E2E2E2E2E2E2E2E2E2E2E2E2E2E2E2E2E2E2E2E2E2E2E2E2E2E2E2E2E2E2E2E2E2E2E2E2E2E2E2E2E2E2E2E2E2E2F5F5E2E2E2E2E2E2E2E2E2E2E2E2E2E2E2E2E2E2E2E2E2E2E2E2E2E2E2E2E2E2E2E2E2E2E2E2E2E2E2E2E2E2E2E2E2E2E2E2E2E2E2E2E2E2E2E2E2
310
E2E2E2E2E2E2E2E2E2E2E2E2E2E2E2E2E2E2E2E2E2E2E2E2E2E2E2E2E2E2E2E2E2E2E2E2E2E2E2E2E2E2E2E2E2E2E2E2E2E2E2E2E2E2E2E2E2E2E2E2E2E2E2E2E2E2E2E2E2E2E2E2E2E2E2E2E2E2E2E2E2E2E2E2E2E2E2E2E2E2E2E2E2E2E2E2E2E2E2E2E2E2E2E2E2E2E2E2E2E2E2E2E2E2E2E2E2E2E2E2E2F5F5E2E2E2F5
310
E2E2E2E2E2E2E2E2E2E2E2E2E2E2E2E2E2E2E2E2E2E2E2E2E2E2E2E2E2E2E2E2E2E2E2E2E2E2E2E2E2E2E2E2E2E2E2E2E2E2E2E2E2E2E2E2E2E2E2E2E2E2E2E2E2E2E2E2E2E2E2E2E2E2E2E2E2E2E2E2E2E2E2E2E2E2E2E2E2E2E2E2E2E2E2E2E2E2E2E2E2E2E2E2E2E2E2E2E2E2E2E2E2E2E2E2E2E2E2E2E2E2E2E2E2E2E2
310
E2E2E2E2E2E2E2E2E2E2E2E2E2E2E2E2E2E2E2E2E2E2E2E2E2E2E2E2E2E2E2E2E2E2E2E2E2E2E2E2E2E2E2F5E2E2E2F5F5E2E2E2F5E2E2E2E2E2E2E2E2E2E2E2E2E2E2E2E2E2E2E2E2E2E2E2E2E2E2E2E2E2E2E2E2E2E2E2E2E2E2E2E2E2E2E2E2E2E2E2E2E2E2E2E2E2E2E2E2E2E2E2E2E2E2E2E2E2E2E2E2E2E2E2E2E2E2
310
E2E2E2E2E2E2E2E2E2E2E2E2E2E2E2E2E2E2E2E2E2E2E2E2E2E2E2E2E2E2E2E2E2E2E2E2E2E2E2E2E2E2E2E2E2E2E2E2E2E2E2E2E2E2E2E2E2E2E2E2E2E2E2E2E2E2E2E2E2E2E2E2E2E2E2E2E2E2E2E2E2E2E2E2E2E2E2E2E2E2E2E2E2E2E2E2F5E2E2E2F5F5E2E2E2F5E2E2E2E2E2E2E2E2E2E2E2E2E2E2E2E2E2E2E2E2E2
310
E2E2E2E2E2E2E2E2E2E2E2E2E2E2E2E2E2E2E2E2E2E2E2E2E2E2E2E2E2E2E2E2E2E2E2E2E2E2E2E2E2E2E2E2E2E2E2E2E2E2E2E2E2E2E2E2E2E2E2E2E2E2E2E2E2E2E2E2E2E2E2E2E2E2E2E2E2E2E2E2E2E2E2E2E2E2E2E2E2E2E2E2E2E2E2E2E2E2E2E2E2E2E2E2E2E2E2E2E2E2E2E2E2E2E2E2E2E2E2E2E2E2E2E2E2E2E2
310
E2E2E2E2E2E2E2E2E2E2E2E2E2E2E2E2E2E2E2E2E2E2F5E2E2E2F5F5E2E2E2F5E2E2E2E2E2E2E2E2E2E2E2E2E2E2E2E2E2E2E2E2E2E2E2E2E2E2E2E2E2E2E2E2E2E2E2E2E2E2E2E2E2E2E2E2E2E2E2E2E2E2E2E2E2E2E2E2E2E2E2E2E2E2E2E2E2E2E2E2E2E2E2E2E2E2E2E2E2E2E2E2E2E2E2E2E2E2E2E2E2E2E2E2E2E2E2
310
E2E2E2E2E2E2E2E2E2E2E2E2E2E2E2E2E2E2E2E2E2E2E2E2E2E2E2E2E2E2E2E2E2E2E2E2E2E2E2E2E2E2E2E2E2E2E2E2E2E2E2E2E2E2E2E2E2E2E2E2E2E2E2E2E2E2E2E2E2E2E2E2E2E2E2F5E2E2E2F5F5E2E2E2F5E2E2E2E2E2E2E2E2E2E2E2E2E2E2E2E2E2E2E2E2E2E2E2E2E2E2E2E2E2E2E2E2E2E2E2E2E2E2E2E2E2E2
310
E2E2E2E2E2E2E2E2E2E2E2E2E2E2E2E2E2E2E2E2E2E2E2E2E2E2E2E2E2E2E2E2E2E2E2E2E2E2E2E2E2E2E2E2E2E2E2E2E2E2E2E2E2E2E2E2E2E2E2E2E2E2E2E2E2E2E2E2E2E2E2E2E2E2E2E2E2E2E2E2E2E2E2E2E2E2E2E2E2E2E2E2E2E2E2E2E2E2E2E2E2E2E2E2E2E2E2E2E2E2E2E2E2E2E2E2E2E2E2E2E2E2E2E2E2E2E2
310
E2F5E2E2E2F5F5E2E2E2F5E2E2E2E2E2E2E2E2E2E2E2E2E2E2E2E2E2E2E2E2E2E2E2E2E2E2E2E2E2E2E2E2E2E2E2E2E2E2E2E2E2E2E2E2E2E2E2E2E2E2E2E2E2E2E2E2E2E2E2E2E2E2E2E2E2E2E2E2E2E2E2E2E2E2E2E2E2E2E2E2E2E2E2E2E2E2E2E2E2E2E2E2E2E2E2E2E2E2E2E2E2E2E2E2E2E2E2E2E2E2E2E2E2E2E2E2
310
E2E2E2E2E2E2E2E2E2E2E2E2E2E2E2E2E2E2E2E2E2E2E2E2E2E2E2E2E2E2E2E2E2E2E2E2E2E2E2E2E2E2E2E2E2E2E2E2E2E2E2E2E2E2F5E2E2E2F5F5E2E2E2F5E2E2E2E2E2E2E2E2E2E2E2E2E2E2E2E2E2E2E2E2E2E2E2E2E2E2E2E2E2E2E2E2E2E2E2E2E2E2E2E2E2E2E2E2E2E2E2E2E2E2E2E2E2E2E2E2E2E2E2E2E2E2E2
310
E2E2E2E2E2E2E2E2E2E2E2E2E2E2E2E2E2E2E2E2E2E2E2E2E2E2E2E2E2E2E2E2E2E2E2E2E2E2E2E2E2E2E2E2E2E2E2E2E2E2E2E2E2E2E2E2E2E2E2E2E2E2E2E2E2E2E2E2E2E2E2E2E2E2E2E2E2E2E2E2E2E2E2E2E2E2E2E2E2E2E2E2E2E2E2E2E2E2E2E2E2E2E2E2E2E2E2F5E2E2E2F5F5E2E2E2F5E2E2E2E2E2E2E2E2E2E2
310
E2E2E2E2E2E2E2E2E2E2E2E2E2E2E2E2E2E2E2E2E2E2E2E2E2E2E2E2E2E2E2E2E2E2E2E2E2E2E2E2E2E2E2E2E2E2E2E2E2E2E2E2E2E2E2E2E2E2E2E2E2E2E2E2E2E2E2E2E2E2E2E2E2E2E2E2E2E2E2E2E2E2E2E2E2E2E2E2E2E2E2E2E2E2E2E2E2E2E2E2E2E2E2E2E2E2E2E2E2E2E2E2E2E2E2E2E2E2E2E2E2E2E2E2E2E2E2
310
E2E2E2E2E2E2E2E2E2E2E2E2E2E2E2E2E2E2E2E2E2E2E2E2E2E2E2E2E2E2E2E2E2F5E2E2E2F5F5E2E2E2F5F5F5F5F5F5F5F5E2E2E2E2E2E2E2E2E2F5F5F5F5F5F5F5F5F5F5F5F5F5F5F5F5E2E2E2E2E2E2E2E2E2F5F5F5F5F5F5F5F5F5F5F5F5F5F5F5E2E2E2E2E2E2E2E2E2F5F5F5F5F5F5F5F5F5F5F5F5F5F5F5F5E2E2E2
310
E2E2E2E2E2F5F5F5F5F5F5F5F5F5F5F5F5F5F5F5F5E2E2E2E2E2E2E2E2E2F5F5F5F5F5F5F5F5F5F5F5F5F5F5F5E2E2E2E2E2E2E2E2E2F5F5F5F5F5F5F5F5F5F5F5F5F5F5F5F5E2E2E2E2E2E2E2E2E2F5F5F5F5F5F5F5F5E2E2E2F5F5E2E2E2E2E2E2E2E2E2E2E2E2E2E2E2E2E2E2E2E2E2E2E2E2E2E2E2E2E2E2E2E2E2E2E2
310
E2E2E2E2E2E2E2E2E2E2E2E2E2E2E2E2E2E2E2E2E2E2E2E2E2E2E2E2E2E2E2E2E2E2E2E2E2E2E2E2E2E2E2E2E2E2E2E2E2E2E2E2E2E2E2E2E2E2E2E2E2E2E2E2E2E2E2E2E2E2E2E2E2E2E2E2E2E2E2E2E2E2E2E2E2E2E2E2E2E2E2E2E2E2E2E2E2E2E2E2E2E2E2E2E2E2E2E2E2E2E2E2E2E2E2E2E2E2E2E2E2E2E2E2E2E2E2
310
E2E2E2E2E2E2E2E2E2E2E2E2E2E2E2E2F5F5E2E2E2E2E2E2E2E2E2E2E2E2E2E2E2E2E2E2E2E2E2E2E2E2E2E2E2E2E2E2E2E2E2E2E2E2E2E2E2E2E2E2E2E2E2E2E2E2E2E2E2E2E2E2E2E2E2E2E2E2E2E2E2E2E2E2E2E2E2E2E2E2E2E2E2E2E2E2E2E2E2E2E2E2E2E2E2E2E2E2E2E2E2E2E2E2E2E2E2E2E2E2E2E2E2E2E2E2E2
310
E2E2E2E2E2E2E2E2E2E2E2E2E2E2E2E2E2E2E2E2E2E2E2E2E2E2E2E2E2E2E2E2E2E2E2E2E2E2E2E2E2E2E2E2E2E2E2E2E2E2E2E2E2E2E2E2E2E2E2E2E2E2E2E2E2E2E2E2E2F5F5E2E2E2E2E2E2E2E2E2E2E2E2E2E2E2E2E2E2E2E2E2E2E2E2E2E2E2E2E2E2E2E2E2E2E2E2E2E2E2E2E2E2E2E2E2E2E2E2E2E2E2E2E2E2E2E2
310
E2E2E2E2E2E2E2E2E2E2E2E2E2E2E2E2E2E2E2E2E2E2E2E2E2E2E2E2E2E2E2E2E2E2E2E2E2E2E2E2E2E2E2E2E2E2E2E2E2E2E2E2E2E2E2E2E2E2E2E2E2E2E2E2E2E2E2E2E2E2E2E2E2E2E2E2E2E2E2E2E2E2E2E2E2E2E2E2E2E2E2E2E2E2E2E2E2E2E2E2E2E2E2E2E2E2E2E2E2E2E2E2E2E2E2E2E2E2E2E2E2E2F5F5E2E2E2
310
E2E2E2E2E2E2E2E2E2E2E2E2E2E2E2E2E2E2E2E2E2E2E2E2E2E2E2E2E2E2E2E2E2E2E2E2E2E2E2E2E2E2E2E2E2E2E2E2E2E2E2E2E2E2E2E2E2E2E2E2E2E2E2E2E2E2E2E2E2E2E2E2E2E2E2E2E2E2E2E2E2E2E2E2E2E2E2E2E2E2E2E2E2E2E2E2E2E2E2E2E2E2E2E2E2E2E2E2E2E2E2E2E2E2E2E2E2E2E2E2E2E2E2E2E2E2E2
310
E2E2E2E2E2E2E2E2E2E2E2E2E2E2E2E2E2E2E2E2E2E2E2E2E2E2E2E2E2E2E2E2E2E2E2E2E2E2E2E2E2E2E2E2E2E2E2E2F5
  0
XRECORD
  5
5B330
102
{ACAD_REACTORS
330
5B32F
102
}
330
5B32F
100
AcDbXrecord
280
     1
102
SHADEPLOT
 70
     0
102
SHADEPLOTRESLEVEL
 70
     2
102
SHADEPLOTCUSTOMDPI
 70
   300
  0
ENDSEC
  0
EOF
