  0
SECTION
  2
HEADER
  9
$ACADVER
  1
AC1015
  9
$ACADMAINTVER
 70
    20
  9
$DWGCODEPAGE
  3
ANSI_936
  9
$INSBASE
 10
0.0
 20
0.0
 30
0.0
  9
$EXTMIN
 10
-131.9486419999395
 20
-261.696815175541
 30
0.0
  9
$EXTMAX
 10
259.5286479717487
 20
89.07870708909856
 30
0.0
  9
$LIMMIN
 10
0.0
 20
0.0
  9
$LIMMAX
 10
420.0
 20
297.0
  9
$ORTHOMODE
 70
     0
  9
$REGENMODE
 70
     1
  9
$FILLMODE
 70
     1
  9
$QTEXTMODE
 70
     0
  9
$MIRRTEXT
 70
     1
  9
$LTSCALE
 40
1.0
  9
$ATTMODE
 70
     1
  9
$TEXTSIZE
 40
3.5
  9
$TRACEWID
 40
1.0
  9
$TEXTSTYLE
  7
simplex
  9
$CLAYER
  8
0
  9
$CELTYPE
  6
ByLayer
  9
$CECOLOR
 62
   256
  9
$CELTSCALE
 40
1.0
  9
$DISPSILH
 70
     0
  9
$DIMSCALE
 40
0.0
  9
$DIMASZ
 40
3.5
  9
$DIMEXO
 40
0.0
  9
$DIMDLI
 40
0.38
  9
$DIMRND
 40
0.0
  9
$DIMDLE
 40
0.0
  9
$DIMEXE
 40
1.5
  9
$DIMTP
 40
0.0
  9
$DIMTM
 40
0.0
  9
$DIMTXT
 40
3.5
  9
$DIMCEN
 40
0.09
  9
$DIMTSZ
 40
0.0
  9
$DIMTOL
 70
     0
  9
$DIMLIM
 70
     0
  9
$DIMTIH
 70
     0
  9
$DIMTOH
 70
     0
  9
$DIMSE1
 70
     0
  9
$DIMSE2
 70
     0
  9
$DIMTAD
 70
     1
  9
$DIMZIN
 70
     8
  9
$DIMBLK
  1

  9
$DIMASO
 70
     1
  9
$DIMSHO
 70
     1
  9
$DIMPOST
  1

  9
$DIMAPOST
  1

  9
$DIMALT
 70
     0
  9
$DIMALTD
 70
     2
  9
$DIMALTF
 40
25.4
  9
$DIMLFAC
 40
1.0
  9
$DIMTOFL
 70
     0
  9
$DIMTVP
 40
0.0
  9
$DIMTIX
 70
     0
  9
$DIMSOXD
 70
     0
  9
$DIMSAH
 70
     0
  9
$DIMBLK1
  1

  9
$DIMBLK2
  1

  9
$DIMSTYLE
  2
\M+18352\M+18373\M+1815B - ISO-25
  9
$DIMCLRD
 70
   256
  9
$DIMCLRE
 70
   256
  9
$DIMCLRT
 70
   256
  9
$DIMTFAC
 40
1.0
  9
$DIMGAP
 40
2.299999999999998
  9
$DIMJUST
 70
     0
  9
$DIMSD1
 70
     0
  9
$DIMSD2
 70
     0
  9
$DIMTOLJ
 70
     1
  9
$DIMTZIN
 70
     8
  9
$DIMALTZ
 70
     0
  9
$DIMALTTZ
 70
     0
  9
$DIMUPT
 70
     0
  9
$DIMDEC
 70
     2
  9
$DIMTDEC
 70
     2
  9
$DIMALTU
 70
     2
  9
$DIMALTTD
 70
     2
  9
$DIMTXSTY
  7
simplex
  9
$DIMAUNIT
 70
     0
  9
$DIMADEC
 70
     0
  9
$DIMALTRND
 40
0.0
  9
$DIMAZIN
 70
     0
  9
$DIMDSEP
 70
    46
  9
$DIMATFIT
 70
     3
  9
$DIMFRAC
 70
     0
  9
$DIMLDRBLK
  1

  9
$DIMLUNIT
 70
     2
  9
$DIMLWD
 70
    -1
  9
$DIMLWE
 70
    -1
  9
$DIMTMOVE
 70
     0
  9
$LUNITS
 70
     2
  9
$LUPREC
 70
     4
  9
$SKETCHINC
 40
1.0
  9
$FILLETRAD
 40
0.5
  9
$AUNITS
 70
     0
  9
$AUPREC
 70
     0
  9
$MENU
  1
.
  9
$ELEVATION
 40
0.0
  9
$PELEVATION
 40
0.0
  9
$THICKNESS
 40
0.0
  9
$LIMCHECK
 70
     0
  9
$CHAMFERA
 40
10.0
  9
$CHAMFERB
 40
10.0
  9
$CHAMFERC
 40
20.0
  9
$CHAMFERD
 40
0.0
  9
$SKPOLY
 70
     0
  9
$TDCREATE
 40
2455489.391063368
  9
$TDUCREATE
 40
2455489.057730035
  9
$TDUPDATE
 40
2458572.982561875
  9
$TDUUPDATE
 40
2458572.649228542
  9
$TDINDWG
 40
2.6536493750
  9
$TDUSRTIMER
 40
2.6535936227
  9
$USRTIMER
 70
     1
  9
$ANGBASE
 50
0.0
  9
$ANGDIR
 70
     0
  9
$PDMODE
 70
     0
  9
$PDSIZE
 40
0.0
  9
$PLINEWID
 40
0.0
  9
$SPLFRAME
 70
     0
  9
$SPLINETYPE
 70
     6
  9
$SPLINESEGS
 70
     8
  9
$HANDSEED
  5
56875
  9
$SURFTAB1
 70
     6
  9
$SURFTAB2
 70
     6
  9
$SURFTYPE
 70
     6
  9
$SURFU
 70
     6
  9
$SURFV
 70
     6
  9
$UCSBASE
  2

  9
$UCSNAME
  2

  9
$UCSORG
 10
0.0
 20
0.0
 30
0.0
  9
$UCSXDIR
 10
1.0
 20
0.0
 30
0.0
  9
$UCSYDIR
 10
0.0
 20
1.0
 30
0.0
  9
$UCSORTHOREF
  2

  9
$UCSORTHOVIEW
 70
     0
  9
$UCSORGTOP
 10
0.0
 20
0.0
 30
0.0
  9
$UCSORGBOTTOM
 10
0.0
 20
0.0
 30
0.0
  9
$UCSORGLEFT
 10
0.0
 20
0.0
 30
0.0
  9
$UCSORGRIGHT
 10
0.0
 20
0.0
 30
0.0
  9
$UCSORGFRONT
 10
0.0
 20
0.0
 30
0.0
  9
$UCSORGBACK
 10
0.0
 20
0.0
 30
0.0
  9
$PUCSBASE
  2

  9
$PUCSNAME
  2

  9
$PUCSORG
 10
0.0
 20
0.0
 30
0.0
  9
$PUCSXDIR
 10
1.0
 20
0.0
 30
0.0
  9
$PUCSYDIR
 10
0.0
 20
1.0
 30
0.0
  9
$PUCSORTHOREF
  2

  9
$PUCSORTHOVIEW
 70
     0
  9
$PUCSORGTOP
 10
0.0
 20
0.0
 30
0.0
  9
$PUCSORGBOTTOM
 10
0.0
 20
0.0
 30
0.0
  9
$PUCSORGLEFT
 10
0.0
 20
0.0
 30
0.0
  9
$PUCSORGRIGHT
 10
0.0
 20
0.0
 30
0.0
  9
$PUCSORGFRONT
 10
0.0
 20
0.0
 30
0.0
  9
$PUCSORGBACK
 10
0.0
 20
0.0
 30
0.0
  9
$USERI1
 70
     0
  9
$USERI2
 70
     0
  9
$USERI3
 70
     0
  9
$USERI4
 70
     0
  9
$USERI5
 70
     0
  9
$USERR1
 40
0.0
  9
$USERR2
 40
0.0
  9
$USERR3
 40
0.0
  9
$USERR4
 40
0.0
  9
$USERR5
 40
0.0
  9
$WORLDVIEW
 70
     1
  9
$SHADEDGE
 70
     3
  9
$SHADEDIF
 70
    70
  9
$TILEMODE
 70
     1
  9
$MAXACTVP
 70
    64
  9
$PINSBASE
 10
0.0
 20
0.0
 30
0.0
  9
$PLIMCHECK
 70
     0
  9
$PEXTMIN
 10
26.66999878883364
 20
20.31999878883365
 30
0.0
  9
$PEXTMAX
 10
240.0299890995025
 20
182.8799890995025
 30
0.0
  9
$PLIMMIN
 10
-6.350006103515625
 20
-6.349999904632567
  9
$PLIMMAX
 10
273.0499877929688
 20
209.5499939918518
  9
$UNITMODE
 70
     0
  9
$VISRETAIN
 70
     1
  9
$PLINEGEN
 70
     0
  9
$PSLTSCALE
 70
     1
  9
$TREEDEPTH
 70
  3020
  9
$CMLSTYLE
  2
Standard
  9
$CMLJUST
 70
     0
  9
$CMLSCALE
 40
20.0
  9
$PROXYGRAPHICS
 70
     1
  9
$MEASUREMENT
 70
     1
  9
$CELWEIGHT
370
    -1
  9
$ENDCAPS
280
     0
  9
$JOINSTYLE
280
     0
  9
$LWDISPLAY
290
     0
  9
$INSUNITS
 70
     4
  9
$HYPERLINKBASE
  1

  9
$STYLESHEET
  1

  9
$XEDIT
290
     1
  9
$CEPSNTYPE
380
     0
  9
$PSTYLEMODE
290
     1
  9
$FINGERPRINTGUID
  2
{601DDA01-5B13-4A4C-8F56-1333B78D855B}
  9
$VERSIONGUID
  2
{78C5D47B-8804-4A3D-97BE-214901A1DA76}
  9
$EXTNAMES
290
     1
  9
$PSVPSCALE
 40
0.0
  9
$OLESTARTUP
290
     0
  0
ENDSEC
  0
SECTION
  2
CLASSES
  0
CLASS
  1
ACDBDICTIONARYWDFLT
  2
AcDbDictionaryWithDefault
  3
ObjectDBX Classes
 90
        0
280
     0
281
     0
  0
CLASS
  1
ACDBPLACEHOLDER
  2
AcDbPlaceHolder
  3
ObjectDBX Classes
 90
        0
280
     0
281
     0
  0
CLASS
  1
LAYOUT
  2
AcDbLayout
  3
ObjectDBX Classes
 90
        0
280
     0
281
     0
  0
CLASS
  1
DICTIONARYVAR
  2
AcDbDictionaryVar
  3
ObjectDBX Classes
 90
        0
280
     0
281
     0
  0
CLASS
  1
TABLESTYLE
  2
AcDbTableStyle
  3
ObjectDBX Classes
 90
     2047
280
     0
281
     0
  0
CLASS
  1
SORTENTSTABLE
  2
AcDbSortentsTable
  3
ObjectDBX Classes
 90
        0
280
     0
281
     0
  0
CLASS
  1
DIMASSOC
  2
AcDbDimAssoc
  3
"AcDbDimAssoc|Product Desc:     AcDim ARX App For Dimension|Company:          Autodesk, Inc.|WEB Address:      www.autodesk.com"
 90
        0
280
     0
281
     0
  0
CLASS
  1
ACAD_EVALUATION_GRAPH
  2
AcDbEvalGraph
  3
ObjectDBX Classes
 90
    33921
280
     0
281
     0
  0
CLASS
  1
ACAECUSTOBJ
  2
AcAeEditorObj
  3
AcAeEditorObj
 90
    33792
280
     0
281
     0
  0
CLASS
  1
ACDB_DYNAMICBLOCKPURGEPREVENTER_VERSION
  2
AcDbDynamicBlockPurgePreventer
  3
ObjectDBX Classes
 90
    33921
280
     0
281
     0
  0
ENDSEC
  0
SECTION
  2
TABLES
  0
TABLE
  2
VPORT
  5
8
330
0
100
AcDbSymbolTable
 70
     2
  0
VPORT
  5
56866
330
8
100
AcDbSymbolTableRecord
100
AcDbViewportTableRecord
  2
*Active
 70
     0
 10
0.0
 20
0.0
 11
1.0
 21
1.0
 12
50.1684607727887
 22
-1.260818047151587
 13
0.0
 23
0.0
 14
10.0
 24
10.0
 15
10.0
 25
10.0
 16
0.0
 26
0.0
 36
1.0
 17
0.0
 27
0.0
 37
0.0
 40
597.7718718609626
 41
1.508350730688935
 42
50.0
 43
0.0
 44
0.0
 50
0.0
 51
0.0
 71
     0
 72
  1000
 73
     1
 74
     1
 75
     0
 76
     0
 77
     0
 78
     0
281
     0
 65
     1
110
0.0
120
0.0
130
0.0
111
1.0
121
0.0
131
0.0
112
0.0
122
1.0
132
0.0
 79
     0
146
0.0
  0
ENDTAB
  0
TABLE
  2
LTYPE
  5
5
330
0
100
AcDbSymbolTable
 70
     4
  0
LTYPE
  5
14
330
5
100
AcDbSymbolTableRecord
100
AcDbLinetypeTableRecord
  2
ByBlock
 70
     0
  3

 72
    65
 73
     0
 40
0.0
  0
LTYPE
  5
15
330
5
100
AcDbSymbolTableRecord
100
AcDbLinetypeTableRecord
  2
ByLayer
 70
     0
  3

 72
    65
 73
     0
 40
0.0
  0
LTYPE
  5
16
330
5
100
AcDbSymbolTableRecord
100
AcDbLinetypeTableRecord
  2
Continuous
 70
     0
  3
Solid line
 72
    65
 73
     0
 40
0.0
  0
LTYPE
  5
D7
330
5
100
AcDbSymbolTableRecord
100
AcDbLinetypeTableRecord
  2
HIDDEN
 70
     0
  3
Hidden __ __ __ __ __ __ __ __ __ __ __ __ __ _
 72
    65
 73
     2
 40
9.524999999999996
 49
6.349999999999997
 74
     0
 49
-3.174999999999998
 74
     0
  0
LTYPE
  5
D9
330
5
100
AcDbSymbolTableRecord
100
AcDbLinetypeTableRecord
  2
CENTER
 70
     0
  3
Center ____ _ ____ _ ____ _ ____ _ ____ _ ____
 72
    65
 73
     4
 40
50.8
 49
31.75
 74
     0
 49
-6.349999999999997
 74
     0
 49
6.349999999999997
 74
     0
 49
-6.349999999999997
 74
     0
  0
LTYPE
  5
35815
330
5
100
AcDbSymbolTableRecord
100
AcDbLinetypeTableRecord
  2
PHANTOM
 70
     0
  3
_____ _ _ _____ _ _ _____ _ _ _____
 72
    65
 73
     6
 40
0.8
 49
0.45
 74
     0
 49
-0.05
 74
     0
 49
0.1
 74
     0
 49
-0.05
 74
     0
 49
0.1
 74
     0
 49
-0.05
 74
     0
  0
ENDTAB
  0
TABLE
  2
LAYER
  5
2
102
{ACAD_XDICTIONARY
360
E2
102
}
330
0
100
AcDbSymbolTable
 70
    14
  0
LAYER
  5
10
330
2
100
AcDbSymbolTableRecord
100
AcDbLayerTableRecord
  2
0
 70
     0
 62
     7
  6
Continuous
370
    -3
390
F
  0
LAYER
  5
D1
330
2
100
AcDbSymbolTableRecord
100
AcDbLayerTableRecord
  2
1
 70
     0
 62
     4
  6
Continuous
370
    50
390
F
1001
AcAecLayerStandard
1000

1000

  0
LAYER
  5
D3
330
2
100
AcDbSymbolTableRecord
100
AcDbLayerTableRecord
  2
2
 70
     0
 62
     7
  6
Continuous
370
    25
390
F
1001
AcAecLayerStandard
1000

1000

  0
LAYER
  5
D4
330
2
100
AcDbSymbolTableRecord
100
AcDbLayerTableRecord
  2
3
 70
     0
 62
     1
  6
HIDDEN
370
    35
390
F
1001
AcAecLayerStandard
1000

1000

  0
LAYER
  5
D8
330
2
100
AcDbSymbolTableRecord
100
AcDbLayerTableRecord
  2
4
 70
     0
 62
     2
  6
CENTER
370
    25
390
F
1001
AcAecLayerStandard
1000

1000

  0
LAYER
  5
DA
330
2
100
AcDbSymbolTableRecord
100
AcDbLayerTableRecord
  2
6
 70
     0
 62
     5
  6
Continuous
370
    35
390
F
1001
AcAecLayerStandard
1000

1000

  0
LAYER
  5
DB
330
2
100
AcDbSymbolTableRecord
100
AcDbLayerTableRecord
  2
cut
 70
     0
 62
     1
  6
Continuous
370
    25
390
F
1001
AcAecLayerStandard
1000

1000

  0
LAYER
  5
DC
330
2
100
AcDbSymbolTableRecord
100
AcDbLayerTableRecord
  2
nocut
 70
     0
 62
     7
  6
Continuous
370
    25
390
F
1001
AcAecLayerStandard
1000

1000

  0
LAYER
  5
DD
330
2
100
AcDbSymbolTableRecord
100
AcDbLayerTableRecord
  2
sk1
 70
     0
 62
     4
  6
Continuous
370
    50
390
F
1001
AcAecLayerStandard
1000

1000

  0
LAYER
  5
DE
330
2
100
AcDbSymbolTableRecord
100
AcDbLayerTableRecord
  2
sk2
 70
     0
 62
     7
  6
Continuous
370
    25
390
F
1001
AcAecLayerStandard
1000

1000

  0
LAYER
  5
DF
330
2
100
AcDbSymbolTableRecord
100
AcDbLayerTableRecord
  2
sk3
 70
     0
 62
     1
  6
HIDDEN
370
    35
390
F
1001
AcAecLayerStandard
1000

1000

  0
LAYER
  5
E0
330
2
100
AcDbSymbolTableRecord
100
AcDbLayerTableRecord
  2
sk4
 70
     0
 62
     2
  6
CENTER
370
    25
390
F
1001
AcAecLayerStandard
1000

1000

  0
LAYER
  5
E1
330
2
100
AcDbSymbolTableRecord
100
AcDbLayerTableRecord
  2
sk6
 70
     0
 62
     5
  6
Continuous
370
    35
390
F
1001
AcAecLayerStandard
1000

1000

  0
LAYER
  5
31B6
330
2
100
AcDbSymbolTableRecord
100
AcDbLayerTableRecord
  2
Defpoints
 70
     0
 62
     7
  6
Continuous
290
     0
370
    -3
390
F
  0
ENDTAB
  0
TABLE
  2
STYLE
  5
3
330
0
100
AcDbSymbolTable
 70
    12
  0
STYLE
  5
11
330
3
100
AcDbSymbolTableRecord
100
AcDbTextStyleTableRecord
  2
Standard
 70
     0
 40
0.0
 41
1.0
 50
0.0
 71
     0
 42
2.5
  3
txt.shx
  4
@extfont2.shx
  0
STYLE
  5
D6
330
3
100
AcDbSymbolTableRecord
100
AcDbTextStyleTableRecord
  2

 70
     1
 40
0.0
 41
1.0
 50
0.0
 71
     0
 42
2.5
  3
ltypeshp.shx
  4

  0
STYLE
  5
24A
330
3
100
AcDbSymbolTableRecord
100
AcDbTextStyleTableRecord
  2
simplex
 70
     0
 40
3.5
 41
1.0
 50
0.0
 71
     0
 42
3.5
  3
txt.shx
  4

  0
STYLE
  5
69E
330
3
100
AcDbSymbolTableRecord
100
AcDbTextStyleTableRecord
  2
MX_NOTE_STANDARD
 70
     0
 40
0.0
 41
1.0
 50
0.0
 71
     0
 42
4.2
  3
txt.shx
  4
extfont.shx
  0
STYLE
  5
3524
330
3
100
AcDbSymbolTableRecord
100
AcDbTextStyleTableRecord
  2
TEXTSTYLE_2
 70
     0
 40
0.0
 41
0.775
 50
0.0
 71
     0
 42
0.2
  3
gdt
  4

  0
STYLE
  5
3525
330
3
100
AcDbSymbolTableRecord
100
AcDbTextStyleTableRecord
  2
TEXTSTYLE_3
 70
     0
 40
0.0
 41
0.75
 50
0.0
 71
     0
 42
0.2
  3
txt
  4

  0
STYLE
  5
3526
330
3
100
AcDbSymbolTableRecord
100
AcDbTextStyleTableRecord
  2
TEXTSTYLE_13
 70
     0
 40
0.0
 41
1.0
 50
0.0
 71
     0
 42
0.2
  3
txt
  4

  0
STYLE
  5
519A
330
3
100
AcDbSymbolTableRecord
100
AcDbTextStyleTableRecord
  2
TEXTSTYLE_14
 70
     0
 40
0.0
 41
1.0
 50
0.0
 71
     0
 42
0.2
  3
txt
  4

  0
STYLE
  5
6F72
330
3
100
AcDbSymbolTableRecord
100
AcDbTextStyleTableRecord
  2
TEXTSTYLE_4
 70
     0
 40
0.0
 41
0.75
 50
0.0
 71
     0
 42
0.2
  3
txt
  4

  0
STYLE
  5
6F73
330
3
100
AcDbSymbolTableRecord
100
AcDbTextStyleTableRecord
  2
TEXTSTYLE_17
 70
     0
 40
0.0
 41
1.0
 50
0.0
 71
     0
 42
0.2
  3
txt
  4

  0
STYLE
  5
FE12
330
3
100
AcDbSymbolTableRecord
100
AcDbTextStyleTableRecord
  2
TEXTSTYLE_12
 70
     0
 40
0.0
 41
1.0
 50
0.0
 71
     0
 42
0.2
  3
txt
  4

  0
STYLE
  5
3AAB8
330
3
100
AcDbSymbolTableRecord
100
AcDbTextStyleTableRecord
  2
TEXTSTYLE_20
 70
     0
 40
0.0
 41
0.6
 50
0.0
 71
     0
 42
0.2
  3
txt
  4

  0
ENDTAB
  0
TABLE
  2
VIEW
  5
6
330
0
100
AcDbSymbolTable
 70
     0
  0
ENDTAB
  0
TABLE
  2
UCS
  5
7
330
0
100
AcDbSymbolTable
 70
     0
  0
ENDTAB
  0
TABLE
  2
APPID
  5
9
330
0
100
AcDbSymbolTable
 70
    11
  0
APPID
  5
12
330
9
100
AcDbSymbolTableRecord
100
AcDbRegAppTableRecord
  2
ACAD
 70
     0
  0
APPID
  5
D2
330
9
100
AcDbSymbolTableRecord
100
AcDbRegAppTableRecord
  2
AcAecLayerStandard
 70
     0
  0
APPID
  5
E6
330
9
100
AcDbSymbolTableRecord
100
AcDbRegAppTableRecord
  2
ACAD_DSTYLE_DIMTEXT_FILL
 70
     0
  0
APPID
  5
4C84
330
9
100
AcDbSymbolTableRecord
100
AcDbRegAppTableRecord
  2
ACAD_EXEMPT_FROM_CAD_STANDARDS
 70
     0
  0
APPID
  5
3493E
330
9
100
AcDbSymbolTableRecord
100
AcDbRegAppTableRecord
  2
DCO15
 70
     0
  0
APPID
  5
3BAB0
330
9
100
AcDbSymbolTableRecord
100
AcDbRegAppTableRecord
  2
ACAD_DSTYLE_DIMEXT_ENABLED
 70
     0
  0
APPID
  5
3BAB1
330
9
100
AcDbSymbolTableRecord
100
AcDbRegAppTableRecord
  2
ACAD_DSTYLE_DIMEXT_LENGTH
 70
     0
  0
APPID
  5
3BEB4
330
9
100
AcDbSymbolTableRecord
100
AcDbRegAppTableRecord
  2
ACAUTHENVIRON
 70
     0
  0
APPID
  5
3BEB7
330
9
100
AcDbSymbolTableRecord
100
AcDbRegAppTableRecord
  2
AcDbDynamicBlockTrueName
 70
     0
  0
APPID
  5
3BEB8
330
9
100
AcDbSymbolTableRecord
100
AcDbRegAppTableRecord
  2
AcDbDynamicBlockGUID
 70
     0
  0
APPID
  5
3BEBA
330
9
100
AcDbSymbolTableRecord
100
AcDbRegAppTableRecord
  2
AcDbBlockRepETag
 70
     0
  0
ENDTAB
  0
TABLE
  2
DIMSTYLE
  5
A
330
0
100
AcDbSymbolTable
 70
    11
100
AcDbDimStyleTable
 71
     5
340
1BF
340
27
340
352A
340
3527
340
69F
  0
DIMSTYLE
105
27
330
A
100
AcDbSymbolTableRecord
100
AcDbDimStyleTableRecord
  2
ISO-25
 70
     0
 41
2.5
 42
0.625
 43
3.75
 44
1.25
 73
     0
 74
     0
 77
     1
 78
     8
140
2.5
141
2.5
143
0.03937007874016
147
0.625
171
     3
172
     1
271
     2
272
     2
274
     3
278
    44
283
     0
284
     8
340
11
  0
DIMSTYLE
105
1BF
102
{ACAD_REACTORS
330
56280
330
56283
330
563F9
330
5644D
330
56762
330
56772
330
56773
102
}
330
A
100
AcDbSymbolTableRecord
100
AcDbDimStyleTableRecord
  2
\M+18352\M+18373\M+1815B - ISO-25
 70
     0
 40
0.0
 41
3.5
 42
0.0
 44
1.5
 73
     0
 74
     0
 77
     1
 78
     8
140
3.5
147
2.299999999999998
176
   256
177
   256
178
   256
271
     2
272
     2
284
     8
340
24A
371
    -1
372
    -1
  0
DIMSTYLE
105
69F
330
A
100
AcDbSymbolTableRecord
100
AcDbDimStyleTableRecord
  2
MXDIMSTYLE
 70
     0
 41
2.5
 42
0.5
 43
3.75
 44
1.5
 73
     0
 74
     0
 77
     1
 78
     8
140
4.2
141
2.5
143
0.03937
147
1.0
171
     4
172
     1
173
     1
271
     2
272
     2
274
     4
283
     0
288
     1
340
69E
341
697
343
697
344
697
  0
DIMSTYLE
105
3527
330
A
100
AcDbSymbolTableRecord
100
AcDbDimStyleTableRecord
  2
STANDARD
 70
     0
 41
3.0
 47
0.001
 48
0.001
 71
     1
 73
     0
 74
     0
 77
     1
 78
     8
140
4.0
271
     3
272
     3
284
     8
340
11
341
34B1
342
34B1
343
34B1
344
34B1
  0
DIMSTYLE
105
3528
330
A
100
AcDbSymbolTableRecord
100
AcDbDimStyleTableRecord
  2
DIMSTYLE_1
 70
     0
 41
3.0
 73
     0
 74
     0
 77
     1
 78
     8
140
4.0
271
     3
272
     3
284
     8
340
11
341
34B1
342
34B1
343
34B1
344
34B1
  0
DIMSTYLE
105
3529
330
A
100
AcDbSymbolTableRecord
100
AcDbDimStyleTableRecord
  2
DIMSTYLE_2
 70
     0
 41
3.0
 47
0.001
 48
0.001
 73
     0
 74
     0
 77
     1
 78
     8
140
4.0
271
     3
272
     3
284
     8
340
11
341
34B1
342
34B1
343
34B1
344
34B1
  0
DIMSTYLE
105
352A
330
A
100
AcDbSymbolTableRecord
100
AcDbDimStyleTableRecord
  2
DIMSTYLE_3
 70
     0
 41
3.0
 47
-0.1
 48
0.3
 71
     1
 73
     0
 74
     0
 77
     1
 78
     8
140
4.0
146
0.5
271
     3
272
     3
284
     8
340
11
341
34B1
342
34B1
343
34B1
344
34B1
  0
DIMSTYLE
105
352B
330
A
100
AcDbSymbolTableRecord
100
AcDbDimStyleTableRecord
  2
DIMSTYLE_4
 70
     0
 41
3.0
 47
0.1
 48
0.1
 71
     1
 73
     0
 74
     0
 77
     1
 78
     8
140
4.0
271
     3
272
     3
284
     8
340
11
341
34B1
342
34B1
343
34B1
344
34B1
  0
DIMSTYLE
105
27245
330
A
100
AcDbSymbolTableRecord
100
AcDbDimStyleTableRecord
  2
DIMSTYLE_5
 70
     0
 41
3.0
 47
0.001
 48
0.001
 73
     0
 74
     0
 77
     1
 78
     8
140
4.0
271
     3
272
     3
284
     8
340
11
341
34B1
342
34B1
343
34B1
344
34B1
  0
DIMSTYLE
105
3AAB9
330
A
100
AcDbSymbolTableRecord
100
AcDbDimStyleTableRecord
  2
DIMSTYLE_6
 70
     0
 41
3.0
 42
0.0
 44
1.0
 47
0.05
 48
0.05
 71
     1
 73
     0
 74
     0
 77
     1
 78
     8
140
4.0
147
1.0
271
     3
272
     3
284
     8
340
11
341
34B1
342
34B1
343
34B1
344
34B1
  0
DIMSTYLE
105
532EA
330
A
100
AcDbSymbolTableRecord
100
AcDbDimStyleTableRecord
  2
NEW-DIMSTYLE
 70
     0
 40
0.0
 41
4.57
 42
0.0
 44
5.0
 73
     0
 74
     0
 77
     1
 78
     8
140
4.57
147
2.299999999999998
271
     2
340
24A
  0
ENDTAB
  0
TABLE
  2
BLOCK_RECORD
  5
1
330
0
100
AcDbSymbolTable
 70
    28
  0
BLOCK_RECORD
  5
1F
102
{ACAD_XDICTIONARY
360
31EE
102
}
330
1
100
AcDbSymbolTableRecord
100
AcDbBlockTableRecord
  2
*Model_Space
340
22
  0
BLOCK_RECORD
  5
50
330
1
100
AcDbSymbolTableRecord
100
AcDbBlockTableRecord
  2
*Paper_Space
340
51
  0
BLOCK_RECORD
  5
55
330
1
100
AcDbSymbolTableRecord
100
AcDbBlockTableRecord
  2
*Paper_Space0
340
56
  0
BLOCK_RECORD
  5
680
102
{ACAD_XDICTIONARY
360
3BEB2
102
}
330
1
100
AcDbSymbolTableRecord
100
AcDbBlockTableRecord
  2
zero block
340
0
102
{BLKREFS
331
68C
331
5669D
102
}
1001
ACAD
1000
DesignCenter Data
1002
{
1070
     1
1070
     4
1002
}
1001
AcDbDynamicBlockGUID
1000
{C2E8894D-A8DA-456D-ABB6-198B00672C1A}
1001
AcDbBlockRepETag
1070
     1
1071
        7
  0
BLOCK_RECORD
  5
697
330
1
100
AcDbSymbolTableRecord
100
AcDbBlockTableRecord
  2
_OPEN30
340
0
  0
BLOCK_RECORD
  5
34B1
330
1
100
AcDbSymbolTableRecord
100
AcDbBlockTableRecord
  2
_OPEN
340
0
  0
BLOCK_RECORD
  5
50E6F
330
1
100
AcDbSymbolTableRecord
100
AcDbBlockTableRecord
  2
_None
340
0
  0
BLOCK_RECORD
  5
542BC
330
1
100
AcDbSymbolTableRecord
100
AcDbBlockTableRecord
  2
*D5
340
0
  0
BLOCK_RECORD
  5
564BA
330
1
100
AcDbSymbolTableRecord
100
AcDbBlockTableRecord
  2
*D6
340
0
  0
BLOCK_RECORD
  5
564C6
330
1
100
AcDbSymbolTableRecord
100
AcDbBlockTableRecord
  2
*D7
340
0
  0
BLOCK_RECORD
  5
564D3
330
1
100
AcDbSymbolTableRecord
100
AcDbBlockTableRecord
  2
*D8
340
0
  0
BLOCK_RECORD
  5
564DF
330
1
100
AcDbSymbolTableRecord
100
AcDbBlockTableRecord
  2
*D9
340
0
  0
BLOCK_RECORD
  5
5650D
330
1
100
AcDbSymbolTableRecord
100
AcDbBlockTableRecord
  2
*D10
340
0
  0
BLOCK_RECORD
  5
5652C
330
1
100
AcDbSymbolTableRecord
100
AcDbBlockTableRecord
  2
*D11
340
0
  0
BLOCK_RECORD
  5
56594
330
1
100
AcDbSymbolTableRecord
100
AcDbBlockTableRecord
  2
*D12
340
0
  0
BLOCK_RECORD
  5
56649
330
1
100
AcDbSymbolTableRecord
100
AcDbBlockTableRecord
  2
*D13
340
0
  0
BLOCK_RECORD
  5
56656
330
1
100
AcDbSymbolTableRecord
100
AcDbBlockTableRecord
  2
*D14
340
0
  0
BLOCK_RECORD
  5
56663
330
1
100
AcDbSymbolTableRecord
100
AcDbBlockTableRecord
  2
*D15
340
0
  0
BLOCK_RECORD
  5
5666F
330
1
100
AcDbSymbolTableRecord
100
AcDbBlockTableRecord
  2
*D16
340
0
  0
BLOCK_RECORD
  5
5667C
330
1
100
AcDbSymbolTableRecord
100
AcDbBlockTableRecord
  2
*D17
340
0
  0
BLOCK_RECORD
  5
56688
330
1
100
AcDbSymbolTableRecord
100
AcDbBlockTableRecord
  2
*D18
340
0
  0
BLOCK_RECORD
  5
56692
330
1
100
AcDbSymbolTableRecord
100
AcDbBlockTableRecord
  2
*D19
340
0
  0
BLOCK_RECORD
  5
56787
330
1
100
AcDbSymbolTableRecord
100
AcDbBlockTableRecord
  2
*D21
340
0
  0
BLOCK_RECORD
  5
56793
330
1
100
AcDbSymbolTableRecord
100
AcDbBlockTableRecord
  2
*D22
340
0
  0
BLOCK_RECORD
  5
567A0
330
1
100
AcDbSymbolTableRecord
100
AcDbBlockTableRecord
  2
*D23
340
0
  0
BLOCK_RECORD
  5
567AC
330
1
100
AcDbSymbolTableRecord
100
AcDbBlockTableRecord
  2
*D24
340
0
  0
BLOCK_RECORD
  5
567B6
330
1
100
AcDbSymbolTableRecord
100
AcDbBlockTableRecord
  2
*D25
340
0
  0
BLOCK_RECORD
  5
567E6
330
1
100
AcDbSymbolTableRecord
100
AcDbBlockTableRecord
  2
*D26
340
0
  0
BLOCK_RECORD
  5
567F0
330
1
100
AcDbSymbolTableRecord
100
AcDbBlockTableRecord
  2
*D27
340
0
  0
ENDTAB
  0
ENDSEC
  0
SECTION
  2
BLOCKS
  0
BLOCK
  5
20
330
1F
100
AcDbEntity
  8
0
100
AcDbBlockBegin
  2
*Model_Space
 70
     0
 10
0.0
 20
0.0
 30
0.0
  3
*Model_Space
  1

  0
ENDBLK
  5
21
330
1F
100
AcDbEntity
  8
0
100
AcDbBlockEnd
  0
BLOCK
  5
52
330
50
100
AcDbEntity
 67
     1
  8
0
100
AcDbBlockBegin
  2
*Paper_Space
 70
     0
 10
0.0
 20
0.0
 30
0.0
  3
*Paper_Space
  1

  0
ENDBLK
  5
53
330
50
100
AcDbEntity
 67
     1
  8
0
100
AcDbBlockEnd
  0
BLOCK
  5
57
330
55
100
AcDbEntity
 67
     1
  8
0
100
AcDbBlockBegin
  2
*Paper_Space0
 70
     0
 10
0.0
 20
0.0
 30
0.0
  3
*Paper_Space0
  1

  0
VIEWPORT
  5
71
102
{ACAD_XDICTIONARY
360
56871
102
}
330
55
100
AcDbEntity
 67
     1
  8
0
100
AcDbViewport
 10
150.1652135264906
 20
101.599997546291
 30
0.0
 40
339.1973820494347
 41
164.5360435314421
 68
     0
 69
     0
 12
150.1652135264906
 22
101.599997546291
 13
0.0
 23
0.0
 14
10.0
 24
10.0
 15
10.0
 25
10.0
 16
0.0
 26
0.0
 36
1.0
 17
0.0
 27
0.0
 37
0.0
 42
50.0
 43
0.0
 44
0.0
 45
164.5360435314421
 50
0.0
 51
0.0
 72
  1000
 90
    32864
  1

281
     0
 71
     1
 74
     0
110
0.0
120
0.0
130
0.0
111
1.0
121
0.0
131
0.0
112
0.0
122
1.0
132
0.0
 79
     0
146
0.0
  0
VIEWPORT
  5
73
102
{ACAD_XDICTIONARY
360
56873
102
}
330
55
100
AcDbEntity
 67
     1
  8
0
100
AcDbViewport
 10
133.3499939441681
 20
101.5999939441681
 30
0.0
 40
213.3599903106689
 41
162.5599903106689
 68
     0
 69
     0
 12
210.0
 22
148.5
 13
0.0
 23
0.0
 14
10.0
 24
10.0
 15
10.0
 25
10.0
 16
0.0
 26
0.0
 36
1.0
 17
0.0
 27
0.0
 37
0.0
 42
50.0
 43
0.0
 44
0.0
 45
324.0677920111345
 50
0.0
 51
0.0
 72
   100
 90
    32864
  1

281
     0
 71
     1
 74
     0
110
0.0
120
0.0
130
0.0
111
1.0
121
0.0
131
0.0
112
0.0
122
1.0
132
0.0
 79
     0
146
0.0
  0
ENDBLK
  5
58
330
55
100
AcDbEntity
 67
     1
  8
0
100
AcDbBlockEnd
  0
BLOCK
  5
68A
330
680
100
AcDbEntity
  8
0
100
AcDbBlockBegin
  2
zero block
 70
     0
 10
0.0
 20
0.0
 30
0.0
  3
zero block
  1

  0
HATCH
  5
3BEAB
330
680
100
AcDbEntity
  8
0
 62
     7
100
AcDbHatch
 10
0.0
 20
0.0
 30
0.0
210
0.0
220
0.0
230
1.0
  2
SOLID
 70
     1
 71
     0
 91
        2
 92
        7
 72
     1
 73
     1
 93
        3
 10
0.0
 20
0.9999999999999875
 42
0.4142135623730915
 10
-1.0
 20
0.0
 42
0.0
 10
0.0
 20
0.0
 42
0.0
 97
        0
 92
        7
 72
     1
 73
     1
 93
        3
 10
1.000000000000007
 20
0.0
 42
0.0
 10
0.0
 20
0.0
 42
0.0
 10
0.0
 20
-1.0
 42
0.4142135623730974
 97
        0
 75
     0
 76
     1
 47
0.0090601366782909
 98
        2
 10
-0.380591363650975
 20
0.4885804701532896
 10
0.4350764810977559
 20
-0.4536738423704725
1001
AcDbBlockRepETag
1070
     1
1071
        0
1005
3BEAB
  0
LINE
  5
3BEAC
330
680
100
AcDbEntity
  8
0
 62
     7
 48
0.2
100
AcDbLine
 10
-1.0
 20
0.0
 30
0.0
 11
1.000000000000007
 21
0.0
 31
0.0
1001
AcDbBlockRepETag
1070
     1
1071
        1
1005
3BEAC
  0
LINE
  5
3BEAD
330
680
100
AcDbEntity
  8
0
 62
     7
 48
0.2
100
AcDbLine
 10
0.0
 20
-1.0
 30
0.0
 11
0.0
 21
0.9999999999999875
 31
0.0
1001
AcDbBlockRepETag
1070
     1
1071
        2
1005
3BEAD
  0
ARC
  5
3BEAE
330
680
100
AcDbEntity
  8
0
 62
     7
 48
0.2
100
AcDbCircle
 10
0.0
 20
0.0
 30
0.0
 40
1.0
100
AcDbArc
 50
270.0
 51
0.0
1001
AcDbBlockRepETag
1070
     1
1071
        3
1005
3BEAE
  0
ARC
  5
3BEAF
330
680
100
AcDbEntity
  8
0
 62
     7
 48
0.2
100
AcDbCircle
 10
0.0
 20
0.0
 30
0.0
 40
1.0
100
AcDbArc
 50
0.0
 51
90.0
1001
AcDbBlockRepETag
1070
     1
1071
        4
1005
3BEAF
  0
ARC
  5
3BEB0
330
680
100
AcDbEntity
  8
0
 62
     7
 48
0.2
100
AcDbCircle
 10
0.0
 20
0.0
 30
0.0
 40
1.0
100
AcDbArc
 50
180.0
 51
270.0
1001
AcDbBlockRepETag
1070
     1
1071
        5
1005
3BEB0
  0
ARC
  5
3BEB1
330
680
100
AcDbEntity
  8
0
 62
     7
 48
0.2
100
AcDbCircle
 10
0.0
 20
0.0
 30
0.0
 40
1.0
100
AcDbArc
 50
90.0
 51
180.0
1001
AcDbBlockRepETag
1070
     1
1071
        6
1005
3BEB1
  0
ENDBLK
  5
68B
330
680
100
AcDbEntity
  8
0
100
AcDbBlockEnd
  0
BLOCK
  5
698
330
697
100
AcDbEntity
  8
0
  6
ByBlock
 62
     0
370
    -2
100
AcDbBlockBegin
  2
_OPEN30
 70
     2
 10
0.0
 20
0.0
 30
0.0
  3
_OPEN30
  1

  0
LINE
  5
699
330
697
100
AcDbEntity
  8
0
  6
ByBlock
 62
     0
370
    -2
100
AcDbLine
 10
-1.0
 20
0.267949
 30
0.0
 11
0.0
 21
0.0
 31
0.0
  0
LINE
  5
69A
330
697
100
AcDbEntity
  8
0
  6
ByBlock
 62
     0
370
    -2
100
AcDbLine
 10
0.0
 20
0.0
 30
0.0
 11
-1.0
 21
-0.267949
 31
0.0
  0
LINE
  5
69B
330
697
100
AcDbEntity
  8
0
  6
ByBlock
 62
     0
370
    -2
100
AcDbLine
 10
0.0
 20
0.0
 30
0.0
 11
-1.0
 21
0.0
 31
0.0
  0
ENDBLK
  5
69C
330
697
100
AcDbEntity
  8
0
  6
ByBlock
 62
     0
370
    -2
100
AcDbBlockEnd
  0
BLOCK
  5
34B2
330
34B1
100
AcDbEntity
  8
0
100
AcDbBlockBegin
  2
_OPEN
 70
     0
 10
0.0
 20
0.0
 30
0.0
  3
_OPEN
  1

  0
LINE
  5
34B3
330
34B1
100
AcDbEntity
  8
0
  6
ByBlock
 62
     0
100
AcDbLine
 10
0.0
 20
0.0
 30
0.0
 11
-1.0
 21
0.1766666667
 31
0.0
  0
LINE
  5
34B4
330
34B1
100
AcDbEntity
  8
0
  6
ByBlock
 62
     0
100
AcDbLine
 10
-1.0
 20
-0.1766666667
 30
0.0
 11
0.0
 21
0.0
 31
0.0
  0
LINE
  5
34B5
330
34B1
100
AcDbEntity
  8
0
  6
ByBlock
 62
     0
100
AcDbLine
 10
-1.0
 20
0.0
 30
0.0
 11
0.0
 21
0.0
 31
0.0
  0
ENDBLK
  5
34B6
330
34B1
100
AcDbEntity
  8
0
  6
ByBlock
 62
     0
100
AcDbBlockEnd
  0
BLOCK
  5
50E70
330
50E6F
100
AcDbEntity
  8
0
100
AcDbBlockBegin
  2
_None
 70
     0
 10
0.0
 20
0.0
 30
0.0
  3
_None
  1

  0
ENDBLK
  5
50E71
330
50E6F
100
AcDbEntity
  8
0
100
AcDbBlockEnd
  0
BLOCK
  5
542C7
330
542BC
100
AcDbEntity
  8
0
100
AcDbBlockBegin
  2
*D5
 70
     1
 10
0.0
 20
0.0
 30
0.0
  3
*D5
  1

  0
LINE
  5
5525D
330
542BC
100
AcDbEntity
  8
2
100
AcDbLine
 10
101.5999999999999
 20
7.02703834946041
 30
0.0
 11
101.5999999999999
 21
30.64144139851817
 31
0.0
  0
LINE
  5
5525E
330
542BC
100
AcDbEntity
  8
2
100
AcDbLine
 10
77.60000000000002
 20
9.300031000000032
 30
0.0
 11
77.60000000000002
 21
30.64144139851817
 31
0.0
  0
LINE
  5
5525F
330
542BC
100
AcDbEntity
  8
2
100
AcDbLine
 10
98.09999999999993
 20
29.14144139851817
 30
0.0
 11
81.10000000000002
 21
29.14144139851817
 31
0.0
  0
LINE
  5
55260
330
542BC
100
AcDbEntity
  8
2
100
AcDbLine
 10
77.60000000000002
 20
29.14144139851817
 30
0.0
 11
41.50000000000003
 21
29.14144139851817
 31
0.0
  0
SOLID
  5
55261
330
542BC
100
AcDbEntity
  8
2
100
AcDbTrace
 10
98.09999999999993
 20
29.7247747318515
 30
0.0
 11
98.09999999999993
 21
28.55810806518484
 31
0.0
 12
101.5999999999999
 22
29.14144139851817
 32
0.0
 13
101.5999999999999
 23
29.14144139851817
 33
0.0
  0
SOLID
  5
55262
330
542BC
100
AcDbEntity
  8
2
100
AcDbTrace
 10
81.10000000000002
 20
29.7247747318515
 30
0.0
 11
81.10000000000002
 21
28.55810806518484
 31
0.0
 12
77.60000000000002
 22
29.14144139851817
 32
0.0
 13
77.60000000000002
 23
29.14144139851817
 33
0.0
  0
MTEXT
  5
55263
330
542BC
100
AcDbEntity
  8
2
100
AcDbMText
 10
57.80000000000002
 20
33.19144139851817
 30
0.0
 40
3.5
 41
0.0
 71
     5
 72
     1
  1
\A1;24 [.945"]
  7
simplex
 73
     1
 44
1.0
1001
ACAD
1000
MTEXTBEGIN
1070
    73
1070
     1
1070
    44
1040
1.0
1070
    74
1070
     0
1000
MTEXTEND
  0
POINT
  5
55264
330
542BC
100
AcDbEntity
  8
Defpoints
 62
     0
100
AcDbPoint
 10
101.5999999999999
 20
7.02703834946041
 30
0.0
  0
POINT
  5
55265
330
542BC
100
AcDbEntity
  8
Defpoints
 62
     0
100
AcDbPoint
 10
77.60000000000002
 20
9.300031000000032
 30
0.0
  0
POINT
  5
55266
330
542BC
100
AcDbEntity
  8
Defpoints
 62
     0
100
AcDbPoint
 10
77.60000000000002
 20
29.14144139851817
 30
0.0
  0
ENDBLK
  5
542C8
330
542BC
100
AcDbEntity
  8
0
100
AcDbBlockEnd
  0
BLOCK
  5
564C4
330
564BA
100
AcDbEntity
  8
0
100
AcDbBlockBegin
  2
*D6
 70
     1
 10
0.0
 20
0.0
 30
0.0
  3
*D6
  1

  0
LINE
  5
5680E
330
564BA
100
AcDbEntity
  8
2
100
AcDbLine
 10
155.5749999999999
 20
30.39062183468946
 30
0.0
 11
155.5749999999999
 21
43.76990414400578
 31
0.0
  0
LINE
  5
5680F
330
564BA
100
AcDbEntity
  8
2
100
AcDbLine
 10
53.975
 20
9.515888750352843
 30
0.0
 11
53.975
 21
43.76990414400578
 31
0.0
  0
LINE
  5
56810
330
564BA
100
AcDbEntity
  8
2
100
AcDbLine
 10
152.0749999999999
 20
42.26990414400577
 30
0.0
 11
57.475
 21
42.26990414400577
 31
0.0
  0
SOLID
  5
56811
330
564BA
100
AcDbEntity
  8
2
100
AcDbTrace
 10
152.0749999999999
 20
42.85323747733911
 30
0.0
 11
152.0749999999999
 21
41.68657081067244
 31
0.0
 12
155.5749999999999
 22
42.26990414400577
 32
0.0
 13
155.5749999999999
 23
42.26990414400577
 33
0.0
  0
SOLID
  5
56812
330
564BA
100
AcDbEntity
  8
2
100
AcDbTrace
 10
57.475
 20
42.85323747733911
 30
0.0
 11
57.475
 21
41.68657081067244
 31
0.0
 12
53.975
 22
42.26990414400577
 32
0.0
 13
53.975
 23
42.26990414400577
 33
0.0
  0
MTEXT
  5
56813
330
564BA
100
AcDbEntity
  8
2
100
AcDbMText
 10
104.7749999999999
 20
46.31990414400577
 30
0.0
 40
3.5
 41
0.0
 71
     5
 72
     1
  1
\A1;101.6 [4.000"]
  7
simplex
 73
     1
 44
1.0
1001
ACAD
1000
MTEXTBEGIN
1070
    73
1070
     1
1070
    44
1040
1.0
1070
    74
1070
     0
1000
MTEXTEND
  0
POINT
  5
56814
330
564BA
100
AcDbEntity
  8
Defpoints
 62
     0
100
AcDbPoint
 10
155.5749999999999
 20
30.39062183468946
 30
0.0
  0
POINT
  5
56815
330
564BA
100
AcDbEntity
  8
Defpoints
 62
     0
100
AcDbPoint
 10
53.975
 20
9.515888750352843
 30
0.0
  0
POINT
  5
56816
330
564BA
100
AcDbEntity
  8
Defpoints
 62
     0
100
AcDbPoint
 10
53.975
 20
42.26990414400577
 30
0.0
  0
ENDBLK
  5
564C5
330
564BA
100
AcDbEntity
  8
0
100
AcDbBlockEnd
  0
BLOCK
  5
564D1
330
564C6
100
AcDbEntity
  8
0
100
AcDbBlockBegin
  2
*D7
 70
     1
 10
0.0
 20
0.0
 30
0.0
  3
*D7
  1

  0
LINE
  5
56821
330
564C6
100
AcDbEntity
  8
2
100
AcDbLine
 10
114.8002842968881
 20
-9.299968866847535
 30
0.0
 11
108.7927086897862
 21
-9.299968866847535
 31
0.0
  0
LINE
  5
56822
330
564C6
100
AcDbEntity
  8
2
100
AcDbLine
 10
114.9900625075052
 20
9.300031133152486
 30
0.0
 11
108.7927086897862
 21
9.300031133152486
 31
0.0
  0
LINE
  5
56823
330
564C6
100
AcDbEntity
  8
2
100
AcDbLine
 10
110.2927086897863
 20
5.800031133152486
 30
0.0
 11
110.2927086897863
 21
-5.799968866847535
 31
0.0
  0
LINE
  5
56824
330
564C6
100
AcDbEntity
  8
2
100
AcDbLine
 10
110.2927086897863
 20
-9.299968866847535
 30
0.0
 11
110.2927086897862
 21
-55.89996886684759
 31
0.0
  0
SOLID
  5
56825
330
564C6
100
AcDbEntity
  8
2
100
AcDbTrace
 10
109.7093753564529
 20
5.800031133152487
 30
0.0
 11
110.8760420231196
 21
5.800031133152486
 31
0.0
 12
110.2927086897863
 22
9.300031133152486
 32
0.0
 13
110.2927086897863
 23
9.300031133152486
 33
0.0
  0
SOLID
  5
56826
330
564C6
100
AcDbEntity
  8
2
100
AcDbTrace
 10
109.7093753564529
 20
-5.799968866847534
 30
0.0
 11
110.8760420231196
 21
-5.799968866847535
 31
0.0
 12
110.2927086897863
 22
-9.299968866847535
 32
0.0
 13
110.2927086897863
 23
-9.299968866847535
 33
0.0
  0
MTEXT
  5
56827
330
564C6
100
AcDbEntity
  8
2
100
AcDbMText
 10
106.2427086897863
 20
-34.34996886684757
 30
0.0
 40
3.5
 41
0.0
 71
     5
 72
     1
  1
\A1;%%c18.6 [%%C.732"]
  7
simplex
 11
0.0000000000000001
 21
1.0
 31
0.0
 73
     1
 44
1.0
1001
ACAD
1000
MTEXTBEGIN
1070
    73
1070
     1
1070
    44
1040
1.0
1070
    74
1070
     0
1000
MTEXTEND
  0
POINT
  5
56828
330
564C6
100
AcDbEntity
  8
Defpoints
 62
     0
100
AcDbPoint
 10
114.8002842968881
 20
-9.299968866847535
 30
0.0
  0
POINT
  5
56829
330
564C6
100
AcDbEntity
  8
Defpoints
 62
     0
100
AcDbPoint
 10
114.9900625075052
 20
9.300031133152486
 30
0.0
  0
POINT
  5
5682A
330
564C6
100
AcDbEntity
  8
Defpoints
 62
     0
100
AcDbPoint
 10
110.2927086897863
 20
9.300031133152486
 30
0.0
  0
ENDBLK
  5
564D2
330
564C6
100
AcDbEntity
  8
0
100
AcDbBlockEnd
  0
BLOCK
  5
564DD
330
564D3
100
AcDbEntity
  8
0
100
AcDbBlockBegin
  2
*D8
 70
     1
 10
0.0
 20
0.0
 30
0.0
  3
*D8
  1

  0
LINE
  5
5682B
330
564D3
100
AcDbEntity
  8
sk2
100
AcDbLine
 10
-25.4
 20
8.325012133152455
 30
0.0
 11
-25.4
 21
56.42108818086788
 31
0.0
  0
LINE
  5
5682C
330
564D3
100
AcDbEntity
  8
sk2
100
AcDbLine
 10
155.5749999999999
 20
7.027038482612852
 30
0.0
 11
155.5749999999999
 21
56.42108818086788
 31
0.0
  0
LINE
  5
5682D
330
564D3
100
AcDbEntity
  8
sk2
100
AcDbLine
 10
-21.89999999999999
 20
54.92108818086788
 30
0.0
 11
152.0749999999999
 21
54.92108818086788
 31
0.0
  0
SOLID
  5
5682E
330
564D3
100
AcDbEntity
  8
sk2
100
AcDbTrace
 10
-21.89999999999999
 20
55.50442151420122
 30
0.0
 11
-21.89999999999999
 21
54.33775484753454
 31
0.0
 12
-25.4
 22
54.92108818086788
 32
0.0
 13
-25.4
 23
54.92108818086788
 33
0.0
  0
SOLID
  5
5682F
330
564D3
100
AcDbEntity
  8
sk2
100
AcDbTrace
 10
152.0749999999999
 20
55.50442151420122
 30
0.0
 11
152.0749999999999
 21
54.33775484753454
 31
0.0
 12
155.5749999999999
 22
54.92108818086788
 32
0.0
 13
155.5749999999999
 23
54.92108818086788
 33
0.0
  0
MTEXT
  5
56830
330
564D3
100
AcDbEntity
  8
sk2
100
AcDbMText
 10
65.08750299999999
 20
58.97108818086788
 30
0.0
 40
3.5
 41
0.0
 71
     5
 72
     1
  1
\A1;180.975 [7.125"]
  7
simplex
 73
     1
 44
0.892857
1001
ACAD
1000
MTEXTBEGIN
1070
    73
1070
     1
1070
    44
1040
0.892857
1070
    74
1070
     0
1000
MTEXTEND
  0
POINT
  5
56831
330
564D3
100
AcDbEntity
  8
Defpoints
 62
     0
100
AcDbPoint
 10
-25.4
 20
8.325012133152455
 30
0.0
  0
POINT
  5
56832
330
564D3
100
AcDbEntity
  8
Defpoints
 62
     0
100
AcDbPoint
 10
155.5749999999999
 20
7.027038482612852
 30
0.0
  0
POINT
  5
56833
330
564D3
100
AcDbEntity
  8
Defpoints
 62
     0
100
AcDbPoint
 10
155.5749999999999
 20
54.92108818086788
 30
0.0
  0
ENDBLK
  5
564DE
330
564D3
100
AcDbEntity
  8
0
100
AcDbBlockEnd
  0
BLOCK
  5
564EA
330
564DF
100
AcDbEntity
  8
0
100
AcDbBlockBegin
  2
*D9
 70
     1
 10
0.0
 20
0.0
 30
0.0
  3
*D9
  1

  0
LINE
  5
5660F
330
564DF
100
AcDbEntity
  8
sk2
100
AcDbLine
 10
-78.17500099993947
 20
-9.524977866847535
 30
0.0
 11
-108.5986429999393
 21
-9.524977866847525
 31
0.0
  0
LINE
  5
56610
330
564DF
100
AcDbEntity
  8
sk2
100
AcDbLine
 10
-78.17500099993947
 20
9.525022133152477
 30
0.0
 11
-108.5986429999393
 21
9.525022133152484
 31
0.0
  0
LINE
  5
56611
330
564DF
100
AcDbEntity
  8
sk2
100
AcDbLine
 10
-107.0986429999393
 20
6.025022133152482
 30
0.0
 11
-107.0986429999393
 21
-6.024977866847526
 31
0.0
  0
LINE
  5
56612
330
564DF
100
AcDbEntity
  8
sk2
100
AcDbLine
 10
-107.0986429999393
 20
-9.524977866847526
 30
0.0
 11
-107.0986429999393
 21
-62.28332120018093
 31
0.0
  0
SOLID
  5
56613
330
564DF
100
AcDbEntity
  8
sk2
100
AcDbTrace
 10
-107.6819763332726
 20
6.025022133152482
 30
0.0
 11
-106.515309666606
 21
6.025022133152482
 31
0.0
 12
-107.0986429999393
 22
9.525022133152482
 32
0.0
 13
-107.0986429999393
 23
9.525022133152482
 33
0.0
  0
SOLID
  5
56614
330
564DF
100
AcDbEntity
  8
sk2
100
AcDbTrace
 10
-107.6819763332726
 20
-6.024977866847526
 30
0.0
 11
-106.515309666606
 21
-6.024977866847526
 31
0.0
 12
-107.0986429999393
 22
-9.524977866847526
 32
0.0
 13
-107.0986429999393
 23
-9.524977866847526
 33
0.0
  0
MTEXT
  5
56615
330
564DF
100
AcDbEntity
  8
sk2
100
AcDbMText
 10
-111.1486429999393
 20
-39.56665453351428
 30
0.0
 40
3.5
 41
0.0
 71
     5
 72
     1
  1
\A1;%%c19.05 [%%C.750"]
  7
simplex
 11
0.0000000000000001
 21
1.0
 31
0.0
 73
     1
 44
0.892857
1001
ACAD
1000
MTEXTBEGIN
1070
    73
1070
     1
1070
    44
1040
0.892857
1070
    74
1070
     0
1000
MTEXTEND
  0
POINT
  5
56616
330
564DF
100
AcDbEntity
  8
Defpoints
 62
     0
100
AcDbPoint
 10
-78.17500099993947
 20
-9.524977866847535
 30
0.0
  0
POINT
  5
56617
330
564DF
100
AcDbEntity
  8
Defpoints
 62
     0
100
AcDbPoint
 10
-78.17500099993947
 20
9.525022133152477
 30
0.0
  0
POINT
  5
56618
330
564DF
100
AcDbEntity
  8
Defpoints
 62
     0
100
AcDbPoint
 10
-107.0986429999393
 20
9.525022133152482
 30
0.0
  0
ENDBLK
  5
564EB
330
564DF
100
AcDbEntity
  8
0
100
AcDbBlockEnd
  0
BLOCK
  5
56516
330
5650D
100
AcDbEntity
  8
0
100
AcDbBlockBegin
  2
*D10
 70
     1
 10
0.0
 20
0.0
 30
0.0
  3
*D10
  1

  0
LINE
  5
56834
330
5650D
100
AcDbEntity
  8
2
100
AcDbLine
 10
154.075006
 20
9.999999998900106
 30
0.0
 11
177.075006
 21
9.999999998900099
 31
0.0
  0
LINE
  5
56835
330
5650D
100
AcDbEntity
  8
2
100
AcDbLine
 10
175.575006
 20
6.499999998900099
 30
0.0
 11
175.575006
 21
-9.999999999999982
 31
0.0
  0
LINE
  5
56836
330
5650D
100
AcDbEntity
  8
2
100
AcDbLine
 10
175.575006
 20
-9.999999999999982
 30
0.0
 11
175.575006
 21
-52.51666666666663
 31
0.0
  0
SOLID
  5
56837
330
5650D
100
AcDbEntity
  8
2
100
AcDbTrace
 10
174.9916726666666
 20
6.499999998900099
 30
0.0
 11
176.1583393333333
 21
6.499999998900099
 31
0.0
 12
175.575006
 22
9.999999998900099
 32
0.0
 13
175.575006
 23
9.999999998900099
 33
0.0
  0
MTEXT
  5
56838
330
5650D
100
AcDbEntity
  8
2
100
AcDbMText
 10
171.525006
 20
-33.00833333333328
 30
0.0
 40
3.5
 41
0.0
 71
     5
 72
     1
  1
\A1;%%c20 [%%c.787"]
  7
simplex
 11
0.0000000000000001
 21
1.0
 31
0.0
 73
     1
 44
1.0
1001
ACAD
1000
MTEXTBEGIN
1070
    73
1070
     1
1070
    44
1040
1.0
1070
    74
1070
     0
1000
MTEXTEND
  0
POINT
  5
56839
330
5650D
100
AcDbEntity
  8
Defpoints
 62
     0
100
AcDbPoint
 10
154.075006
 20
9.999999998900106
 30
0.0
  0
POINT
  5
5683A
330
5650D
100
AcDbEntity
  8
Defpoints
 62
     0
100
AcDbPoint
 10
145.575006
 20
-9.999999999999973
 30
0.0
  0
POINT
  5
5683B
330
5650D
100
AcDbEntity
  8
Defpoints
 62
     0
100
AcDbPoint
 10
175.575006
 20
-9.999999999999982
 30
0.0
  0
ENDBLK
  5
56517
330
5650D
100
AcDbEntity
  8
0
100
AcDbBlockEnd
  0
BLOCK
  5
56537
330
5652C
100
AcDbEntity
  8
0
100
AcDbBlockBegin
  2
*D11
 70
     1
 10
0.0
 20
0.0
 30
0.0
  3
*D11
  1

  0
LINE
  5
56817
330
5652C
100
AcDbEntity
  8
2
100
AcDbLine
 10
155.5749999999999
 20
7.027038482612852
 30
0.0
 11
155.5749999999999
 21
30.64144153167061
 31
0.0
  0
LINE
  5
56818
330
5652C
100
AcDbEntity
  8
2
100
AcDbLine
 10
131.575
 20
9.300031133152456
 30
0.0
 11
131.575
 21
30.64144153167061
 31
0.0
  0
LINE
  5
56819
330
5652C
100
AcDbEntity
  8
2
100
AcDbLine
 10
152.0749999999999
 20
29.14144153167061
 30
0.0
 11
135.075
 21
29.14144153167061
 31
0.0
  0
LINE
  5
5681A
330
5652C
100
AcDbEntity
  8
2
100
AcDbLine
 10
131.575
 20
29.14144153167061
 30
0.0
 11
95.47500000000002
 21
29.14144153167061
 31
0.0
  0
SOLID
  5
5681B
330
5652C
100
AcDbEntity
  8
2
100
AcDbTrace
 10
152.0749999999999
 20
29.72477486500394
 30
0.0
 11
152.0749999999999
 21
28.55810819833728
 31
0.0
 12
155.5749999999999
 22
29.14144153167061
 32
0.0
 13
155.5749999999999
 23
29.14144153167061
 33
0.0
  0
SOLID
  5
5681C
330
5652C
100
AcDbEntity
  8
2
100
AcDbTrace
 10
135.075
 20
29.72477486500394
 30
0.0
 11
135.075
 21
28.55810819833728
 31
0.0
 12
131.575
 22
29.14144153167061
 32
0.0
 13
131.575
 23
29.14144153167061
 33
0.0
  0
MTEXT
  5
5681D
330
5652C
100
AcDbEntity
  8
2
100
AcDbMText
 10
111.775
 20
33.19144153167061
 30
0.0
 40
3.5
 41
0.0
 71
     5
 72
     1
  1
\A1;24 [.945"]
  7
simplex
 73
     1
 44
1.0
1001
ACAD
1000
MTEXTBEGIN
1070
    73
1070
     1
1070
    44
1040
1.0
1070
    74
1070
     0
1000
MTEXTEND
  0
POINT
  5
5681E
330
5652C
100
AcDbEntity
  8
Defpoints
 62
     0
100
AcDbPoint
 10
155.5749999999999
 20
7.027038482612852
 30
0.0
  0
POINT
  5
5681F
330
5652C
100
AcDbEntity
  8
Defpoints
 62
     0
100
AcDbPoint
 10
131.575
 20
9.300031133152456
 30
0.0
  0
POINT
  5
56820
330
5652C
100
AcDbEntity
  8
Defpoints
 62
     0
100
AcDbPoint
 10
131.575
 20
29.14144153167061
 30
0.0
  0
ENDBLK
  5
56538
330
5652C
100
AcDbEntity
  8
0
100
AcDbBlockEnd
  0
BLOCK
  5
5659C
330
56594
100
AcDbEntity
  8
0
100
AcDbBlockBegin
  2
*D12
 70
     1
 10
0.0
 20
0.0
 30
0.0
  3
*D12
  1

  0
LINE
  5
56843
330
56594
100
AcDbEntity
  8
2
100
AcDbLine
 10
196.5835326650077
 20
34.44851070736684
 30
0.0
 11
158.3386296643132
 21
11.02096507263444
 31
0.0
  0
MTEXT
  5
56844
330
56594
100
AcDbEntity
  8
2
100
AcDbMText
 10
176.8378263247619
 20
27.10240928383774
 30
0.0
 40
3.5
 41
0.0
 71
     5
 72
     1
  1
\A1;R1.5 [R.0591"]
  7
simplex
 11
0.8527291638950838
 21
0.5223533028925836
 31
0.0
 73
     1
 44
1.0
1001
ACAD
1000
MTEXTBEGIN
1070
    73
1070
     1
1070
    44
1040
1.0
1070
    74
1070
     0
1000
MTEXTEND
  0
SOLID
  5
56845
330
56594
100
AcDbEntity
  8
2
100
AcDbTrace
 10
158.0339235709592
 20
11.5183904182399
 30
0.0
 11
158.6433357576672
 21
10.52353972702898
 31
0.0
 12
155.3540775906804
 22
9.192728512510399
 32
0.0
 13
155.3540775906804
 23
9.192728512510399
 33
0.0
  0
LINE
  5
56846
330
56594
100
AcDbEntity
  8
2
100
AcDbLine
 10
153.9849838448377
 20
8.409198558171489
 30
0.0
 11
154.1649838448377
 21
8.409198558171482
 31
0.0
  0
LINE
  5
56847
330
56594
100
AcDbEntity
  8
2
100
AcDbLine
 10
154.0749838448377
 20
8.319198558171493
 30
0.0
 11
154.0749838448377
 21
8.499198558171492
 31
0.0
  0
POINT
  5
56848
330
56594
100
AcDbEntity
  8
Defpoints
 62
     0
100
AcDbPoint
 10
155.3540775906804
 20
9.192728512510399
 30
0.0
  0
POINT
  5
56849
330
56594
100
AcDbEntity
  8
Defpoints
 62
     0
100
AcDbPoint
 10
154.0749838448377
 20
8.409198558171482
 30
0.0
  0
ENDBLK
  5
5659D
330
56594
100
AcDbEntity
  8
0
100
AcDbBlockEnd
  0
BLOCK
  5
5664A
330
56649
100
AcDbEntity
  8
0
100
AcDbBlockBegin
  2
*D13
 70
     1
 10
0.0
 20
0.0
 30
0.0
  3
*D13
  1

  0
LINE
  5
5664B
330
56649
100
AcDbEntity
  8
2
100
AcDbLine
 10
114.8002842930635
 20
-9.299968999999975
 30
0.0
 11
108.7927086859616
 21
-9.299968999999975
 31
0.0
  0
LINE
  5
5664C
330
56649
100
AcDbEntity
  8
2
100
AcDbLine
 10
114.9900625036806
 20
9.300031000000046
 30
0.0
 11
108.7927086859616
 21
9.300031000000046
 31
0.0
  0
LINE
  5
5664D
330
56649
100
AcDbEntity
  8
2
100
AcDbLine
 10
110.2927086859616
 20
5.800031000000046
 30
0.0
 11
110.2927086859616
 21
-5.799968999999975
 31
0.0
  0
LINE
  5
5664E
330
56649
100
AcDbEntity
  8
2
100
AcDbLine
 10
110.2927086859616
 20
-9.299968999999975
 30
0.0
 11
110.2927086859616
 21
-55.89996900000002
 31
0.0
  0
SOLID
  5
5664F
330
56649
100
AcDbEntity
  8
2
100
AcDbTrace
 10
109.7093753526283
 20
5.800031000000047
 30
0.0
 11
110.8760420192949
 21
5.800031000000046
 31
0.0
 12
110.2927086859616
 22
9.300031000000046
 32
0.0
 13
110.2927086859616
 23
9.300031000000046
 33
0.0
  0
SOLID
  5
56650
330
56649
100
AcDbEntity
  8
2
100
AcDbTrace
 10
109.7093753526283
 20
-5.799968999999975
 30
0.0
 11
110.8760420192949
 21
-5.799968999999975
 31
0.0
 12
110.2927086859616
 22
-9.299968999999975
 32
0.0
 13
110.2927086859616
 23
-9.299968999999975
 33
0.0
  0
MTEXT
  5
56651
330
56649
100
AcDbEntity
  8
2
100
AcDbMText
 10
106.2427086859616
 20
-34.34996900000002
 30
0.0
 40
3.5
 41
0.0
 71
     5
 72
     1
  1
\A1;%%c18.6 [%%C.732"]
  7
simplex
 11
0.0000000000000001
 21
1.0
 31
0.0
 73
     1
 44
1.0
1001
ACAD
1000
MTEXTBEGIN
1070
    73
1070
     1
1070
    44
1040
1.0
1070
    74
1070
     0
1000
MTEXTEND
  0
POINT
  5
56652
330
56649
100
AcDbEntity
  8
Defpoints
 62
     0
100
AcDbPoint
 10
114.8002842930635
 20
-9.299968999999975
 30
0.0
  0
POINT
  5
56653
330
56649
100
AcDbEntity
  8
Defpoints
 62
     0
100
AcDbPoint
 10
114.9900625036806
 20
9.300031000000046
 30
0.0
  0
POINT
  5
56654
330
56649
100
AcDbEntity
  8
Defpoints
 62
     0
100
AcDbPoint
 10
110.2927086859616
 20
9.300031000000046
 30
0.0
  0
ENDBLK
  5
56655
330
56649
100
AcDbEntity
  8
0
100
AcDbBlockEnd
  0
BLOCK
  5
56657
330
56656
100
AcDbEntity
  8
0
100
AcDbBlockBegin
  2
*D14
 70
     1
 10
0.0
 20
0.0
 30
0.0
  3
*D14
  1

  0
LINE
  5
56658
330
56656
100
AcDbEntity
  8
2
100
AcDbLine
 10
155.5749999961753
 20
0.0138176701074144
 30
0.0
 11
155.5749999961753
 21
30.64144139851817
 31
0.0
  0
LINE
  5
56659
330
56656
100
AcDbEntity
  8
2
100
AcDbLine
 10
131.5749999961753
 20
9.300031000000046
 30
0.0
 11
131.5749999961753
 21
30.64144139851817
 31
0.0
  0
LINE
  5
5665A
330
56656
100
AcDbEntity
  8
2
100
AcDbLine
 10
152.0749999961753
 20
29.14144139851817
 30
0.0
 11
135.0749999961752
 21
29.14144139851817
 31
0.0
  0
LINE
  5
5665B
330
56656
100
AcDbEntity
  8
2
100
AcDbLine
 10
131.5749999961753
 20
29.14144139851817
 30
0.0
 11
95.47499999617537
 21
29.14144139851817
 31
0.0
  0
SOLID
  5
5665C
330
56656
100
AcDbEntity
  8
2
100
AcDbTrace
 10
152.0749999961753
 20
29.7247747318515
 30
0.0
 11
152.0749999961753
 21
28.55810806518484
 31
0.0
 12
155.5749999961753
 22
29.14144139851817
 32
0.0
 13
155.5749999961753
 23
29.14144139851817
 33
0.0
  0
SOLID
  5
5665D
330
56656
100
AcDbEntity
  8
2
100
AcDbTrace
 10
135.0749999961752
 20
29.7247747318515
 30
0.0
 11
135.0749999961752
 21
28.55810806518484
 31
0.0
 12
131.5749999961753
 22
29.14144139851817
 32
0.0
 13
131.5749999961753
 23
29.14144139851817
 33
0.0
  0
MTEXT
  5
5665E
330
56656
100
AcDbEntity
  8
2
100
AcDbMText
 10
111.7749999961753
 20
33.19144139851817
 30
0.0
 40
3.5
 41
0.0
 71
     5
 72
     1
  1
\A1;24 [.945"]
  7
simplex
 73
     1
 44
1.0
1001
ACAD
1000
MTEXTBEGIN
1070
    73
1070
     1
1070
    44
1040
1.0
1070
    74
1070
     0
1000
MTEXTEND
  0
POINT
  5
5665F
330
56656
100
AcDbEntity
  8
Defpoints
 62
     0
100
AcDbPoint
 10
155.5749999961753
 20
0.0138176701074144
 30
0.0
  0
POINT
  5
56660
330
56656
100
AcDbEntity
  8
Defpoints
 62
     0
100
AcDbPoint
 10
131.5749999961753
 20
9.300031000000046
 30
0.0
  0
POINT
  5
56661
330
56656
100
AcDbEntity
  8
Defpoints
 62
     0
100
AcDbPoint
 10
131.5749999961753
 20
29.14144139851817
 30
0.0
  0
ENDBLK
  5
56662
330
56656
100
AcDbEntity
  8
0
100
AcDbBlockEnd
  0
BLOCK
  5
56664
330
56663
100
AcDbEntity
  8
0
100
AcDbBlockBegin
  2
*D15
 70
     1
 10
0.0
 20
0.0
 30
0.0
  3
*D15
  1

  0
LINE
  5
56665
330
56663
100
AcDbEntity
  8
sk2
100
AcDbLine
 10
-98.42499899999999
 20
8.325021000000049
 30
0.0
 11
-98.42499899999999
 21
59.26993823960413
 31
0.0
  0
LINE
  5
56666
330
56663
100
AcDbEntity
  8
sk2
100
AcDbLine
 10
155.575001
 20
0.1101689999999564
 30
0.0
 11
155.575001
 21
59.26993823960413
 31
0.0
  0
LINE
  5
56667
330
56663
100
AcDbEntity
  8
sk2
100
AcDbLine
 10
-94.924999
 20
57.76993823960413
 30
0.0
 11
152.075001
 21
57.76993823960413
 31
0.0
  0
SOLID
  5
56668
330
56663
100
AcDbEntity
  8
sk2
100
AcDbTrace
 10
-94.924999
 20
58.35327157293747
 30
0.0
 11
-94.924999
 21
57.1866049062708
 31
0.0
 12
-98.42499899999999
 22
57.76993823960413
 32
0.0
 13
-98.42499899999999
 23
57.76993823960413
 33
0.0
  0
SOLID
  5
56669
330
56663
100
AcDbEntity
  8
sk2
100
AcDbTrace
 10
152.075001
 20
58.35327157293747
 30
0.0
 11
152.075001
 21
57.1866049062708
 31
0.0
 12
155.575001
 22
57.76993823960413
 32
0.0
 13
155.575001
 23
57.76993823960413
 33
0.0
  0
MTEXT
  5
5666A
330
56663
100
AcDbEntity
  8
sk2
100
AcDbMText
 10
28.574997
 20
61.81993823960413
 30
0.0
 40
3.5
 41
0.0
 71
     5
 72
     1
  1
\A1;254 [10.000"]
  7
simplex
 73
     1
 44
0.892857
1001
ACAD
1000
MTEXTBEGIN
1070
    73
1070
     1
1070
    44
1040
0.892857
1070
    74
1070
     0
1000
MTEXTEND
  0
POINT
  5
5666B
330
56663
100
AcDbEntity
  8
Defpoints
 62
     0
100
AcDbPoint
 10
-98.42499899999999
 20
8.325021000000049
 30
0.0
  0
POINT
  5
5666C
330
56663
100
AcDbEntity
  8
Defpoints
 62
     0
100
AcDbPoint
 10
155.575001
 20
0.1101689999999564
 30
0.0
  0
POINT
  5
5666D
330
56663
100
AcDbEntity
  8
Defpoints
 62
     0
100
AcDbPoint
 10
155.575001
 20
57.76993823960413
 30
0.0
  0
ENDBLK
  5
5666E
330
56663
100
AcDbEntity
  8
0
100
AcDbBlockEnd
  0
BLOCK
  5
56670
330
5666F
100
AcDbEntity
  8
0
100
AcDbBlockBegin
  2
*D16
 70
     1
 10
0.0
 20
0.0
 30
0.0
  3
*D16
  1

  0
LINE
  5
56671
330
5666F
100
AcDbEntity
  8
sk2
100
AcDbLine
 10
-97.22499999993951
 20
-9.52496899999994
 30
0.0
 11
-127.6486419999395
 21
-9.524968999999931
 31
0.0
  0
LINE
  5
56672
330
5666F
100
AcDbEntity
  8
sk2
100
AcDbLine
 10
-97.22499999993951
 20
9.525031000000067
 30
0.0
 11
-127.6486419999395
 21
9.525031000000078
 31
0.0
  0
LINE
  5
56673
330
5666F
100
AcDbEntity
  8
sk2
100
AcDbLine
 10
-126.1486419999395
 20
6.025031000000077
 30
0.0
 11
-126.1486419999395
 21
-6.024968999999932
 31
0.0
  0
LINE
  5
56674
330
5666F
100
AcDbEntity
  8
sk2
100
AcDbLine
 10
-126.1486419999395
 20
-9.524968999999931
 30
0.0
 11
-126.1486419999395
 21
-62.28331233333335
 31
0.0
  0
SOLID
  5
56675
330
5666F
100
AcDbEntity
  8
sk2
100
AcDbTrace
 10
-126.7319753332728
 20
6.025031000000077
 30
0.0
 11
-125.5653086666062
 21
6.025031000000077
 31
0.0
 12
-126.1486419999395
 22
9.525031000000078
 32
0.0
 13
-126.1486419999395
 23
9.525031000000078
 33
0.0
  0
SOLID
  5
56676
330
5666F
100
AcDbEntity
  8
sk2
100
AcDbTrace
 10
-126.7319753332728
 20
-6.024968999999932
 30
0.0
 11
-125.5653086666062
 21
-6.024968999999932
 31
0.0
 12
-126.1486419999395
 22
-9.524968999999931
 32
0.0
 13
-126.1486419999395
 23
-9.524968999999931
 33
0.0
  0
MTEXT
  5
56677
330
5666F
100
AcDbEntity
  8
sk2
100
AcDbMText
 10
-130.1986419999395
 20
-39.56664566666672
 30
0.0
 40
3.5
 41
0.0
 71
     5
 72
     1
  1
\A1;%%c19.05 [%%C.750"]
  7
simplex
 11
0.0000000000000001
 21
1.0
 31
0.0
 73
     1
 44
0.892857
1001
ACAD
1000
MTEXTBEGIN
1070
    73
1070
     1
1070
    44
1040
0.892857
1070
    74
1070
     0
1000
MTEXTEND
  0
POINT
  5
56678
330
5666F
100
AcDbEntity
  8
Defpoints
 62
     0
100
AcDbPoint
 10
-97.22499999993951
 20
-9.52496899999994
 30
0.0
  0
POINT
  5
56679
330
5666F
100
AcDbEntity
  8
Defpoints
 62
     0
100
AcDbPoint
 10
-97.22499999993951
 20
9.525031000000067
 30
0.0
  0
POINT
  5
5667A
330
5666F
100
AcDbEntity
  8
Defpoints
 62
     0
100
AcDbPoint
 10
-126.1486419999395
 20
9.525031000000078
 30
0.0
  0
ENDBLK
  5
5667B
330
5666F
100
AcDbEntity
  8
0
100
AcDbBlockEnd
  0
BLOCK
  5
5667D
330
5667C
100
AcDbEntity
  8
0
100
AcDbBlockBegin
  2
*D17
 70
     1
 10
0.0
 20
0.0
 30
0.0
  3
*D17
  1

  0
LINE
  5
5667E
330
5667C
100
AcDbEntity
  8
2
100
AcDbLine
 10
155.575001
 20
0.1101689999999564
 30
0.0
 11
155.575001
 21
44.69184915212713
 31
0.0
  0
LINE
  5
5667F
330
5667C
100
AcDbEntity
  8
2
100
AcDbLine
 10
0.0000009999999975
 20
9.372547905736665
 30
0.0
 11
0.0000009999999996
 21
44.69184915212713
 31
0.0
  0
LINE
  5
56680
330
5667C
100
AcDbEntity
  8
2
100
AcDbLine
 10
152.075001
 20
43.19184915212713
 30
0.0
 11
3.500000999999998
 21
43.19184915212713
 31
0.0
  0
SOLID
  5
56681
330
5667C
100
AcDbEntity
  8
2
100
AcDbTrace
 10
152.075001
 20
43.77518248546047
 30
0.0
 11
152.075001
 21
42.60851581879379
 31
0.0
 12
155.575001
 22
43.19184915212713
 32
0.0
 13
155.575001
 23
43.19184915212713
 33
0.0
  0
SOLID
  5
56682
330
5667C
100
AcDbEntity
  8
2
100
AcDbTrace
 10
3.500000999999998
 20
43.77518248546047
 30
0.0
 11
3.500000999999998
 21
42.60851581879379
 31
0.0
 12
0.0000009999999995
 22
43.19184915212713
 32
0.0
 13
0.0000009999999995
 23
43.19184915212713
 33
0.0
  0
MTEXT
  5
56683
330
5667C
100
AcDbEntity
  8
2
100
AcDbMText
 10
77.78750099999995
 20
47.24184915212711
 30
0.0
 40
3.5
 41
0.0
 71
     5
 72
     1
  1
\A1;155.575 [6.125"]
  7
simplex
 73
     1
 44
1.0
1001
ACAD
1000
MTEXTBEGIN
1070
    73
1070
     1
1070
    44
1040
1.0
1070
    74
1070
     0
1000
MTEXTEND
  0
POINT
  5
56684
330
5667C
100
AcDbEntity
  8
Defpoints
 62
     0
100
AcDbPoint
 10
155.575001
 20
0.1101689999999564
 30
0.0
  0
POINT
  5
56685
330
5667C
100
AcDbEntity
  8
Defpoints
 62
     0
100
AcDbPoint
 10
0.0000009999999975
 20
9.372547905736665
 30
0.0
  0
POINT
  5
56686
330
5667C
100
AcDbEntity
  8
Defpoints
 62
     0
100
AcDbPoint
 10
0.0000009999999995
 20
43.19184915212713
 30
0.0
  0
ENDBLK
  5
56687
330
5667C
100
AcDbEntity
  8
0
100
AcDbBlockEnd
  0
BLOCK
  5
56689
330
56688
100
AcDbEntity
  8
0
100
AcDbBlockBegin
  2
*D18
 70
     1
 10
0.0
 20
0.0
 30
0.0
  3
*D18
  1

  0
LINE
  5
5668A
330
56688
100
AcDbEntity
  8
2
100
AcDbLine
 10
146.174896103255
 20
9.52498700000001
 30
0.0
 11
183.2381490522007
 21
9.524986999999999
 31
0.0
  0
LINE
  5
5668B
330
56688
100
AcDbEntity
  8
2
100
AcDbLine
 10
181.7381490522007
 20
6.024987
 30
0.0
 11
181.7381490522007
 21
-9.525013000000008
 31
0.0
  0
SOLID
  5
5668C
330
56688
100
AcDbEntity
  8
2
100
AcDbTrace
 10
181.1548157188673
 20
6.024987
 30
0.0
 11
182.3214823855339
 21
6.024986999999998
 31
0.0
 12
181.7381490522007
 22
9.524986999999999
 32
0.0
 13
181.7381490522007
 23
9.524986999999999
 33
0.0
  0
MTEXT
  5
5668D
330
56688
100
AcDbEntity
  8
2
100
AcDbMText
 10
177.6881490522007
 20
-1.750012999999974
 30
0.0
 40
3.5
 41
0.0
 71
     5
 72
     1
  1
\A1;%%c19.05 [%%c.750"]
  7
simplex
 11
0.0000000000000001
 21
1.0
 31
0.0
 73
     1
 44
1.0
1001
ACAD
1000
MTEXTBEGIN
1070
    73
1070
     1
1070
    44
1040
1.0
1070
    74
1070
     0
1000
MTEXTEND
  0
POINT
  5
5668E
330
56688
100
AcDbEntity
  8
Defpoints
 62
     0
100
AcDbPoint
 10
146.174896103255
 20
9.52498700000001
 30
0.0
  0
POINT
  5
5668F
330
56688
100
AcDbEntity
  8
Defpoints
 62
     0
100
AcDbPoint
 10
160.1040109961984
 20
-9.525012999999999
 30
0.0
  0
POINT
  5
56690
330
56688
100
AcDbEntity
  8
Defpoints
 62
     0
100
AcDbPoint
 10
181.7381490522007
 20
-9.525013000000008
 30
0.0
  0
ENDBLK
  5
56691
330
56688
100
AcDbEntity
  8
0
100
AcDbBlockEnd
  0
BLOCK
  5
56693
330
56692
100
AcDbEntity
  8
0
100
AcDbBlockBegin
  2
*D19
 70
     1
 10
0.0
 20
0.0
 30
0.0
  3
*D19
  1

  0
LINE
  5
56694
330
56692
100
AcDbEntity
  8
2
100
AcDbLine
 10
197.6290280705258
 20
43.64090171552131
 30
0.0
 11
155.9933877350134
 21
8.413082921056526
 31
0.0
  0
MTEXT
  5
56695
330
56692
100
AcDbEntity
  8
2
100
AcDbMText
 10
176.7803491361248
 20
31.30604469156792
 30
0.0
 40
3.5
 41
0.0
 71
     5
 72
     1
  1
\A1;R9.525 [R.375"]
  7
simplex
 11
0.7634074271660733
 21
0.645917254876874
 31
0.0
 73
     1
 44
1.0
1001
ACAD
1000
MTEXTBEGIN
1070
    73
1070
     1
1070
    44
1040
1.0
1070
    74
1070
     0
1000
MTEXTEND
  0
SOLID
  5
56696
330
56692
100
AcDbEntity
  8
2
100
AcDbTrace
 10
155.6166026696686
 20
8.858403920236737
 30
0.0
 11
156.3701728003583
 21
7.967761921876331
 31
0.0
 12
153.3214617399322
 22
6.152372528987469
 32
0.0
 13
153.3214617399322
 23
6.152372528987469
 33
0.0
  0
LINE
  5
56697
330
56692
100
AcDbEntity
  8
2
100
AcDbLine
 10
145.9600059961753
 20
0.0000106762852852
 30
0.0
 11
146.1400059961754
 21
0.0000106762852852
 31
0.0
  0
LINE
  5
56698
330
56692
100
AcDbEntity
  8
2
100
AcDbLine
 10
146.0500059961754
 20
-0.0899893237147183
 30
0.0
 11
146.0500059961753
 21
0.0900106762852744
 31
0.0
  0
POINT
  5
56699
330
56692
100
AcDbEntity
  8
Defpoints
 62
     0
100
AcDbPoint
 10
153.3214617399322
 20
6.152372528987469
 30
0.0
  0
POINT
  5
5669A
330
56692
100
AcDbEntity
  8
Defpoints
 62
     0
100
AcDbPoint
 10
146.0500059961754
 20
0.0000106762852852
 30
0.0
  0
ENDBLK
  5
5669B
330
56692
100
AcDbEntity
  8
0
100
AcDbBlockEnd
  0
BLOCK
  5
56791
330
56787
100
AcDbEntity
  8
0
100
AcDbBlockBegin
  2
*D21
 70
     1
 10
0.0
 20
0.0
 30
0.0
  3
*D21
  1

  0
LINE
  5
5684A
330
56787
100
AcDbEntity
  8
sk2
100
AcDbLine
 10
-98.42499899999999
 20
8.325021133152489
 30
0.0
 11
-98.42499899999999
 21
59.26993837275657
 31
0.0
  0
LINE
  5
5684B
330
56787
100
AcDbEntity
  8
sk2
100
AcDbLine
 10
155.575001
 20
0.1101691331523966
 30
0.0
 11
155.575001
 21
59.26993837275657
 31
0.0
  0
LINE
  5
5684C
330
56787
100
AcDbEntity
  8
sk2
100
AcDbLine
 10
-94.924999
 20
57.76993837275657
 30
0.0
 11
152.075001
 21
57.76993837275657
 31
0.0
  0
SOLID
  5
5684D
330
56787
100
AcDbEntity
  8
sk2
100
AcDbTrace
 10
-94.924999
 20
58.35327170608991
 30
0.0
 11
-94.924999
 21
57.18660503942324
 31
0.0
 12
-98.42499899999999
 22
57.76993837275657
 32
0.0
 13
-98.42499899999999
 23
57.76993837275657
 33
0.0
  0
SOLID
  5
5684E
330
56787
100
AcDbEntity
  8
sk2
100
AcDbTrace
 10
152.075001
 20
58.35327170608991
 30
0.0
 11
152.075001
 21
57.18660503942324
 31
0.0
 12
155.575001
 22
57.76993837275657
 32
0.0
 13
155.575001
 23
57.76993837275657
 33
0.0
  0
MTEXT
  5
5684F
330
56787
100
AcDbEntity
  8
sk2
100
AcDbMText
 10
28.574997
 20
61.81993837275657
 30
0.0
 40
3.5
 41
0.0
 71
     5
 72
     1
  1
\A1;254 [10.000"]
  7
simplex
 73
     1
 44
0.892857
1001
ACAD
1000
MTEXTBEGIN
1070
    73
1070
     1
1070
    44
1040
0.892857
1070
    74
1070
     0
1000
MTEXTEND
  0
POINT
  5
56850
330
56787
100
AcDbEntity
  8
Defpoints
 62
     0
100
AcDbPoint
 10
-98.42499899999999
 20
8.325021133152489
 30
0.0
  0
POINT
  5
56851
330
56787
100
AcDbEntity
  8
Defpoints
 62
     0
100
AcDbPoint
 10
155.575001
 20
0.1101691331523966
 30
0.0
  0
POINT
  5
56852
330
56787
100
AcDbEntity
  8
Defpoints
 62
     0
100
AcDbPoint
 10
155.575001
 20
57.76993837275657
 30
0.0
  0
ENDBLK
  5
56792
330
56787
100
AcDbEntity
  8
0
100
AcDbBlockEnd
  0
BLOCK
  5
5679E
330
56793
100
AcDbEntity
  8
0
100
AcDbBlockBegin
  2
*D22
 70
     1
 10
0.0
 20
0.0
 30
0.0
  3
*D22
  1

  0
LINE
  5
56853
330
56793
100
AcDbEntity
  8
sk2
100
AcDbLine
 10
-97.22499999993951
 20
-9.524968866847501
 30
0.0
 11
-127.6486419999395
 21
-9.524968866847492
 31
0.0
  0
LINE
  5
56854
330
56793
100
AcDbEntity
  8
sk2
100
AcDbLine
 10
-97.22499999993951
 20
9.525031133152509
 30
0.0
 11
-127.6486419999395
 21
9.525031133152518
 31
0.0
  0
LINE
  5
56855
330
56793
100
AcDbEntity
  8
sk2
100
AcDbLine
 10
-126.1486419999395
 20
6.025031133152518
 30
0.0
 11
-126.1486419999395
 21
-6.024968866847492
 31
0.0
  0
LINE
  5
56856
330
56793
100
AcDbEntity
  8
sk2
100
AcDbLine
 10
-126.1486419999395
 20
-9.524968866847492
 30
0.0
 11
-126.1486419999395
 21
-62.28331220018091
 31
0.0
  0
SOLID
  5
56857
330
56793
100
AcDbEntity
  8
sk2
100
AcDbTrace
 10
-126.7319753332728
 20
6.025031133152518
 30
0.0
 11
-125.5653086666062
 21
6.025031133152517
 31
0.0
 12
-126.1486419999395
 22
9.525031133152518
 32
0.0
 13
-126.1486419999395
 23
9.525031133152518
 33
0.0
  0
SOLID
  5
56858
330
56793
100
AcDbEntity
  8
sk2
100
AcDbTrace
 10
-126.7319753332728
 20
-6.024968866847492
 30
0.0
 11
-125.5653086666062
 21
-6.024968866847493
 31
0.0
 12
-126.1486419999395
 22
-9.524968866847492
 32
0.0
 13
-126.1486419999395
 23
-9.524968866847492
 33
0.0
  0
MTEXT
  5
56859
330
56793
100
AcDbEntity
  8
sk2
100
AcDbMText
 10
-130.1986419999395
 20
-39.56664553351428
 30
0.0
 40
3.5
 41
0.0
 71
     5
 72
     1
  1
\A1;%%c19.05 [%%C.750"]
  7
simplex
 11
0.0000000000000001
 21
1.0
 31
0.0
 73
     1
 44
0.892857
1001
ACAD
1000
MTEXTBEGIN
1070
    73
1070
     1
1070
    44
1040
0.892857
1070
    74
1070
     0
1000
MTEXTEND
  0
POINT
  5
5685A
330
56793
100
AcDbEntity
  8
Defpoints
 62
     0
100
AcDbPoint
 10
-97.22499999993951
 20
-9.524968866847501
 30
0.0
  0
POINT
  5
5685B
330
56793
100
AcDbEntity
  8
Defpoints
 62
     0
100
AcDbPoint
 10
-97.22499999993951
 20
9.525031133152509
 30
0.0
  0
POINT
  5
5685C
330
56793
100
AcDbEntity
  8
Defpoints
 62
     0
100
AcDbPoint
 10
-126.1486419999395
 20
9.525031133152518
 30
0.0
  0
ENDBLK
  5
5679F
330
56793
100
AcDbEntity
  8
0
100
AcDbBlockEnd
  0
BLOCK
  5
567AA
330
567A0
100
AcDbEntity
  8
0
100
AcDbBlockBegin
  2
*D23
 70
     1
 10
0.0
 20
0.0
 30
0.0
  3
*D23
  1

  0
LINE
  5
5685D
330
567A0
100
AcDbEntity
  8
2
100
AcDbLine
 10
155.575001
 20
0.1101691331523966
 30
0.0
 11
155.575001
 21
44.69184928527957
 31
0.0
  0
LINE
  5
5685E
330
567A0
100
AcDbEntity
  8
2
100
AcDbLine
 10
0.0000009999999975
 20
9.372548038889107
 30
0.0
 11
0.0000009999999996
 21
44.69184928527957
 31
0.0
  0
LINE
  5
5685F
330
567A0
100
AcDbEntity
  8
2
100
AcDbLine
 10
152.075001
 20
43.19184928527957
 30
0.0
 11
3.500000999999999
 21
43.19184928527957
 31
0.0
  0
SOLID
  5
56860
330
567A0
100
AcDbEntity
  8
2
100
AcDbTrace
 10
152.075001
 20
43.77518261861291
 30
0.0
 11
152.075001
 21
42.60851595194623
 31
0.0
 12
155.575001
 22
43.19184928527957
 32
0.0
 13
155.575001
 23
43.19184928527957
 33
0.0
  0
SOLID
  5
56861
330
567A0
100
AcDbEntity
  8
2
100
AcDbTrace
 10
3.500000999999999
 20
43.77518261861291
 30
0.0
 11
3.500000999999999
 21
42.60851595194623
 31
0.0
 12
0.0000009999999995
 22
43.19184928527957
 32
0.0
 13
0.0000009999999995
 23
43.19184928527957
 33
0.0
  0
MTEXT
  5
56862
330
567A0
100
AcDbEntity
  8
2
100
AcDbMText
 10
77.78750099999996
 20
47.24184928527956
 30
0.0
 40
3.5
 41
0.0
 71
     5
 72
     1
  1
\A1;155.575 [6.125"]
  7
simplex
 73
     1
 44
1.0
1001
ACAD
1000
MTEXTBEGIN
1070
    73
1070
     1
1070
    44
1040
1.0
1070
    74
1070
     0
1000
MTEXTEND
  0
POINT
  5
56863
330
567A0
100
AcDbEntity
  8
Defpoints
 62
     0
100
AcDbPoint
 10
155.575001
 20
0.1101691331523966
 30
0.0
  0
POINT
  5
56864
330
567A0
100
AcDbEntity
  8
Defpoints
 62
     0
100
AcDbPoint
 10
0.0000009999999975
 20
9.372548038889107
 30
0.0
  0
POINT
  5
56865
330
567A0
100
AcDbEntity
  8
Defpoints
 62
     0
100
AcDbPoint
 10
0.0000009999999995
 20
43.19184928527957
 30
0.0
  0
ENDBLK
  5
567AB
330
567A0
100
AcDbEntity
  8
0
100
AcDbBlockEnd
  0
BLOCK
  5
567B4
330
567AC
100
AcDbEntity
  8
0
100
AcDbBlockBegin
  2
*D24
 70
     1
 10
0.0
 20
0.0
 30
0.0
  3
*D24
  1

  0
LINE
  5
567DF
330
567AC
100
AcDbEntity
  8
2
100
AcDbLine
 10
208.0745160044779
 20
-189.8885158422076
 30
0.0
 11
245.1377689534235
 21
-189.8885158422076
 31
0.0
  0
LINE
  5
567E0
330
567AC
100
AcDbEntity
  8
2
100
AcDbLine
 10
243.6377689534235
 20
-193.3885158422076
 30
0.0
 11
243.6377689534235
 21
-208.9385158422077
 31
0.0
  0
SOLID
  5
567E1
330
567AC
100
AcDbEntity
  8
2
100
AcDbTrace
 10
243.0544356200902
 20
-193.3885158422076
 30
0.0
 11
244.2211022867569
 21
-193.3885158422076
 31
0.0
 12
243.6377689534236
 22
-189.8885158422076
 32
0.0
 13
243.6377689534236
 23
-189.8885158422076
 33
0.0
  0
MTEXT
  5
567E2
330
567AC
100
AcDbEntity
  8
2
100
AcDbMText
 10
239.5877689534235
 20
-201.1635158422076
 30
0.0
 40
3.5
 41
0.0
 71
     5
 72
     1
  1
\A1;%%c19.05 [%%c.750"]
  7
simplex
 11
0.0000000000000001
 21
1.0
 31
0.0
 73
     1
 44
1.0
1001
ACAD
1000
MTEXTBEGIN
1070
    73
1070
     1
1070
    44
1040
1.0
1070
    74
1070
     0
1000
MTEXTEND
  0
POINT
  5
567E3
330
567AC
100
AcDbEntity
  8
Defpoints
 62
     0
100
AcDbPoint
 10
208.0745160044779
 20
-189.8885158422076
 30
0.0
  0
POINT
  5
567E4
330
567AC
100
AcDbEntity
  8
Defpoints
 62
     0
100
AcDbPoint
 10
222.0036308974213
 20
-208.9385158422077
 30
0.0
  0
POINT
  5
567E5
330
567AC
100
AcDbEntity
  8
Defpoints
 62
     0
100
AcDbPoint
 10
243.6377689534235
 20
-208.9385158422077
 30
0.0
  0
ENDBLK
  5
567B5
330
567AC
100
AcDbEntity
  8
0
100
AcDbBlockEnd
  0
BLOCK
  5
567C1
330
567B6
100
AcDbEntity
  8
0
100
AcDbBlockBegin
  2
*D25
 70
     1
 10
0.0
 20
0.0
 30
0.0
  3
*D25
  1

  0
LINE
  5
567FD
330
567B6
100
AcDbEntity
  8
2
100
AcDbLine
 10
176.6999041942864
 20
-208.7134718422076
 30
0.0
 11
170.6923285871844
 21
-208.7134718422076
 31
0.0
  0
LINE
  5
567FE
330
567B6
100
AcDbEntity
  8
2
100
AcDbLine
 10
176.8896824049034
 20
-190.1134718422076
 30
0.0
 11
170.6923285871845
 21
-190.1134718422076
 31
0.0
  0
LINE
  5
567FF
330
567B6
100
AcDbEntity
  8
2
100
AcDbLine
 10
172.1923285871844
 20
-193.6134718422076
 30
0.0
 11
172.1923285871844
 21
-205.2134718422077
 31
0.0
  0
LINE
  5
56800
330
567B6
100
AcDbEntity
  8
2
100
AcDbLine
 10
172.1923285871844
 20
-208.7134718422076
 30
0.0
 11
172.1923285871844
 21
-255.3134718422077
 31
0.0
  0
SOLID
  5
56801
330
567B6
100
AcDbEntity
  8
2
100
AcDbTrace
 10
171.6089952538511
 20
-193.6134718422076
 30
0.0
 11
172.7756619205178
 21
-193.6134718422076
 31
0.0
 12
172.1923285871844
 22
-190.1134718422076
 32
0.0
 13
172.1923285871844
 23
-190.1134718422076
 33
0.0
  0
SOLID
  5
56802
330
567B6
100
AcDbEntity
  8
2
100
AcDbTrace
 10
171.6089952538511
 20
-205.2134718422077
 30
0.0
 11
172.7756619205178
 21
-205.2134718422077
 31
0.0
 12
172.1923285871844
 22
-208.7134718422076
 32
0.0
 13
172.1923285871844
 23
-208.7134718422076
 33
0.0
  0
MTEXT
  5
56803
330
567B6
100
AcDbEntity
  8
2
100
AcDbMText
 10
168.1423285871844
 20
-233.7634718422077
 30
0.0
 40
3.5
 41
0.0
 71
     5
 72
     1
  1
\A1;%%c18.6 [%%C.732"]
  7
simplex
 11
0.0000000000000001
 21
1.0
 31
0.0
 73
     1
 44
1.0
1001
ACAD
1000
MTEXTBEGIN
1070
    73
1070
     1
1070
    44
1040
1.0
1070
    74
1070
     0
1000
MTEXTEND
  0
POINT
  5
56804
330
567B6
100
AcDbEntity
  8
Defpoints
 62
     0
100
AcDbPoint
 10
176.6999041942864
 20
-208.7134718422076
 30
0.0
  0
POINT
  5
56805
330
567B6
100
AcDbEntity
  8
Defpoints
 62
     0
100
AcDbPoint
 10
176.8896824049034
 20
-190.1134718422076
 30
0.0
  0
POINT
  5
56806
330
567B6
100
AcDbEntity
  8
Defpoints
 62
     0
100
AcDbPoint
 10
172.1923285871844
 20
-190.1134718422076
 30
0.0
  0
ENDBLK
  5
567C2
330
567B6
100
AcDbEntity
  8
0
100
AcDbBlockEnd
  0
BLOCK
  5
567EE
330
567E6
100
AcDbEntity
  8
0
100
AcDbBlockBegin
  2
*D26
 70
     1
 10
0.0
 20
0.0
 30
0.0
  3
*D26
  1

  0
LINE
  5
56807
330
567E6
100
AcDbEntity
  8
2
100
AcDbLine
 10
259.5286479717486
 20
-155.7726011266863
 30
0.0
 11
217.8930076362362
 21
-191.0004199211511
 31
0.0
  0
MTEXT
  5
56808
330
567E6
100
AcDbEntity
  8
2
100
AcDbMText
 10
238.6799690373476
 20
-168.1074581506398
 30
0.0
 40
3.5
 41
0.0
 71
     5
 72
     1
  1
\A1;R9.525 [R.375"]
  7
simplex
 11
0.7634074271660736
 21
0.645917254876874
 31
0.0
 73
     1
 44
1.0
1001
ACAD
1000
MTEXTBEGIN
1070
    73
1070
     1
1070
    44
1040
1.0
1070
    74
1070
     0
1000
MTEXTEND
  0
SOLID
  5
56809
330
567E6
100
AcDbEntity
  8
2
100
AcDbTrace
 10
217.5162225708914
 20
-190.5550989219709
 30
0.0
 11
218.2697927015811
 21
-191.4457409203313
 31
0.0
 12
215.221081641155
 22
-193.2611303132202
 32
0.0
 13
215.221081641155
 23
-193.2611303132202
 33
0.0
  0
LINE
  5
5680A
330
567E6
100
AcDbEntity
  8
2
100
AcDbLine
 10
207.8596258973982
 20
-199.4134921659224
 30
0.0
 11
208.0396258973982
 21
-199.4134921659224
 31
0.0
  0
LINE
  5
5680B
330
567E6
100
AcDbEntity
  8
2
100
AcDbLine
 10
207.9496258973982
 20
-199.5034921659224
 30
0.0
 11
207.9496258973982
 21
-199.3234921659224
 31
0.0
  0
POINT
  5
5680C
330
567E6
100
AcDbEntity
  8
Defpoints
 62
     0
100
AcDbPoint
 10
215.221081641155
 20
-193.2611303132202
 30
0.0
  0
POINT
  5
5680D
330
567E6
100
AcDbEntity
  8
Defpoints
 62
     0
100
AcDbPoint
 10
207.9496258973982
 20
-199.4134921659224
 30
0.0
  0
ENDBLK
  5
567EF
330
567E6
100
AcDbEntity
  8
0
100
AcDbBlockEnd
  0
BLOCK
  5
567FB
330
567F0
100
AcDbEntity
  8
0
100
AcDbBlockBegin
  2
*D27
 70
     1
 10
0.0
 20
0.0
 30
0.0
  3
*D27
  1

  0
LINE
  5
567F1
330
567F0
100
AcDbEntity
  8
2
100
AcDbLine
 10
217.4746198973982
 20
-199.3996851721002
 30
0.0
 11
217.4746198973982
 21
-168.7720614436895
 31
0.0
  0
LINE
  5
567F2
330
567F0
100
AcDbEntity
  8
2
100
AcDbLine
 10
193.4746198973981
 20
-190.1134718422076
 30
0.0
 11
193.4746198973981
 21
-168.7720614436895
 31
0.0
  0
LINE
  5
567F3
330
567F0
100
AcDbEntity
  8
2
100
AcDbLine
 10
213.9746198973981
 20
-170.2720614436895
 30
0.0
 11
196.9746198973981
 21
-170.2720614436895
 31
0.0
  0
LINE
  5
567F4
330
567F0
100
AcDbEntity
  8
2
100
AcDbLine
 10
193.4746198973981
 20
-170.2720614436895
 30
0.0
 11
157.3746198973981
 21
-170.2720614436895
 31
0.0
  0
SOLID
  5
567F5
330
567F0
100
AcDbEntity
  8
2
100
AcDbTrace
 10
213.9746198973981
 20
-169.6887281103561
 30
0.0
 11
213.9746198973981
 21
-170.8553947770228
 31
0.0
 12
217.4746198973982
 22
-170.2720614436895
 32
0.0
 13
217.4746198973982
 23
-170.2720614436895
 33
0.0
  0
SOLID
  5
567F6
330
567F0
100
AcDbEntity
  8
2
100
AcDbTrace
 10
196.9746198973981
 20
-169.6887281103561
 30
0.0
 11
196.9746198973981
 21
-170.8553947770228
 31
0.0
 12
193.4746198973981
 22
-170.2720614436895
 32
0.0
 13
193.4746198973981
 23
-170.2720614436895
 33
0.0
  0
MTEXT
  5
567F7
330
567F0
100
AcDbEntity
  8
2
100
AcDbMText
 10
173.6746198973981
 20
-166.2220614436895
 30
0.0
 40
3.5
 41
0.0
 71
     5
 72
     1
  1
\A1;24 [.945"]
  7
simplex
 73
     1
 44
1.0
1001
ACAD
1000
MTEXTBEGIN
1070
    73
1070
     1
1070
    44
1040
1.0
1070
    74
1070
     0
1000
MTEXTEND
  0
POINT
  5
567F8
330
567F0
100
AcDbEntity
  8
Defpoints
 62
     0
100
AcDbPoint
 10
217.4746198973982
 20
-199.3996851721002
 30
0.0
  0
POINT
  5
567F9
330
567F0
100
AcDbEntity
  8
Defpoints
 62
     0
100
AcDbPoint
 10
193.4746198973981
 20
-190.1134718422076
 30
0.0
  0
POINT
  5
567FA
330
567F0
100
AcDbEntity
  8
Defpoints
 62
     0
100
AcDbPoint
 10
193.4746198973981
 20
-170.2720614436895
 30
0.0
  0
ENDBLK
  5
567FC
330
567F0
100
AcDbEntity
  8
0
100
AcDbBlockEnd
  0
ENDSEC
  0
SECTION
  2
ENTITIES
  0
INSERT
  5
68C
330
1F
100
AcDbEntity
  8
0
100
AcDbBlockReference
  2
zero block
 10
0.0
 20
0.0
 30
0.0
  0
MTEXT
  5
53DFB
330
1F
100
AcDbEntity
  8
sk6
100
AcDbMText
 10
-78.53516903596937
 20
89.07870708909854
 30
0.0
 40
5.0
 41
70.03712541027798
 71
     1
 72
     5
  1
SRFU12S12LW\PSUFT20R15
  7
simplex
 73
     1
 44
1.0
1001
ACAD
1000
ACAD_MTEXT_COLUMN_INFO_BEGIN
1070
    75
1070
     2
1070
    79
1070
     0
1070
    76
1070
     1
1070
    78
1070
     0
1070
    48
1040
59.04341590052445
1070
    49
1040
17.5
1070
    50
1070
     1
1040
0.0
1000
ACAD_MTEXT_COLUMN_INFO_END
1000
ACAD_MTEXT_DEFINED_HEIGHT_BEGIN
1070
    46
1040
0.0
1000
ACAD_MTEXT_DEFINED_HEIGHT_END
1000
MTEXTBEGIN
1070
    73
1070
     1
1070
    44
1040
1.0
1070
    74
1070
     0
1000
MTEXTEND
  0
DIMENSION
  5
56280
102
{ACAD_XDICTIONARY
360
56281
102
}
102
{ACAD_REACTORS
330
56282
102
}
330
1F
100
AcDbEntity
  8
2
100
AcDbDimension
  2
*D11
 10
131.575
 20
29.14144153167061
 30
0.0
 11
111.775
 21
33.19144153167061
 31
0.0
 70
    32
 71
     5
 42
23.99999999999989
  3
\M+18352\M+18373\M+1815B - ISO-25
100
AcDbAlignedDimension
 13
155.5749999999999
 23
7.027038482612852
 33
0.0
 14
131.575
 24
9.300031133152456
 34
0.0
 50
180.0
100
AcDbRotatedDimension
1001
ACAD
1000
DSTYLE
1002
{
1070
     4
1000
"
1070
    40
1040
1.0
1070
   143
1040
0.03937
1070
   170
1070
     1
1070
   171
1070
     3
1070
   271
1070
     8
1070
   285
1070
     4
1002
}
  0
DIMENSION
  5
56283
330
1F
100
AcDbEntity
  8
2
100
AcDbDimension
  2
*D7
 10
110.2927086897863
 20
9.300031133152486
 30
0.0
 11
110.2927086897863
 21
-34.34996886684757
 31
0.0
 70
   160
  1
%%c<>
 71
     5
 42
18.60000000000002
  3
\M+18352\M+18373\M+1815B - ISO-25
100
AcDbAlignedDimension
 13
114.8002842968881
 23
-9.299968866847535
 33
0.0
 14
114.9900625075052
 24
9.300031133152486
 34
0.0
 50
270.0
100
AcDbRotatedDimension
1001
ACAD
1000
DSTYLE
1002
{
1070
     4
1000
%%C[]"
1070
    40
1040
1.0
1070
   143
1040
0.03937
1070
   170
1070
     1
1070
   171
1070
     3
1070
   271
1070
     8
1070
   285
1070
     4
1002
}
  0
SPLINE
  5
56285
330
1F
100
AcDbEntity
  8
1
100
AcDbSpline
210
0.0
220
0.0
230
1.0
 70
     8
 71
     3
 72
    10
 73
     6
 74
     4
 42
0.0000000001
 43
0.0000000001
 44
0.000001
 12
0.9959101553832343
 22
-0.0903491140218995
 32
0.0
 13
0.9824277678813343
 23
-0.1866431913992558
 33
0.0
 40
0.0
 40
0.0
 40
0.0
 40
0.0
 40
0.2021055945012286
 40
0.42833135206144
 40
0.6758636495256802
 40
0.6758636495256802
 40
0.6758636495256802
 40
0.6758636495256802
 10
136.6808489594726
 20
9.074737930027424
 30
0.0
 10
136.7479419641471
 20
9.068651242893405
 30
0.0
 10
136.8899495955238
 20
9.053429266801247
 30
0.0
 10
137.1127727406177
 20
9.01992039626379
 30
0.0
 10
137.2683824523321
 20
8.992908998778879
 30
0.0
 10
137.3494433198242
 20
8.977508926121174
 30
0.0
 11
136.6808489594726
 21
9.074737930027424
 31
0.0
 11
136.8817766938476
 21
9.052948379246174
 31
0.0
 11
137.1056154999999
 21
9.020172500339924
 31
0.0
 11
137.3494433198242
 21
8.977508926121174
 31
0.0
  0
SPLINE
  5
56286
330
1F
100
AcDbEntity
  8
1
100
AcDbSpline
210
0.0
220
0.0
230
1.0
 70
     8
 71
     3
 72
    47
 73
    43
 74
    41
 42
0.0000000001
 43
0.0000000001
 44
0.000001
 12
-0.9999999690484479
 22
-0.0002488033421133
 32
0.0
 13
0.9999999685521048
 23
-0.0002507903296894
 33
0.0
 40
0.0
 40
0.0
 40
0.0
 40
0.0
 40
0.4500639720985332
 40
0.8959485888982232
 40
1.191304801459404
 40
1.486816615524902
 40
1.785831016514315
 40
2.073244113150652
 40
2.368341678515736
 40
2.662228446819083
 40
2.948784443830396
 40
3.232224318899104
 40
3.531077361431591
 40
3.882237252846945
 40
4.229753878224997
 40
4.58308774081851
 40
4.929408382840608
 40
5.277496673287322
 40
5.722068780334574
 40
6.168456027443321
 40
6.613407203131435
 40
7.061345600655671
 40
7.512815786772399
 40
7.959527579216344
 40
8.404985700370572
 40
8.851021064228785
 40
9.141332370285672
 40
9.432527611006502
 40
9.729127591883599
 40
10.01942694871506
 40
10.30917308752308
 40
10.60160863062472
 40
10.95630604829193
 40
11.29856678801469
 40
11.64837944602214
 40
11.99924207410441
 40
12.34505588393605
 40
12.64215686729149
 40
12.93740326680138
 40
13.23397775726082
 40
13.68210193950055
 40
14.1331534540462
 40
14.1331534540462
 40
14.1331534540462
 40
14.1331534540462
 10
145.4250124726562
 20
4.500030898777423
 30
0.0
 10
145.2749911532667
 20
4.499993572970615
 30
0.0
 10
144.976134901498
 20
4.48507109467121
 30
0.0
 10
144.5828241039909
 20
4.425746754881986
 30
0.0
 10
144.2462701570344
 20
4.346251811353797
 30
0.0
 10
143.9624805263273
 20
4.259188883177692
 30
0.0
 10
143.687532202765
 20
4.154519737902661
 30
0.0
 10
143.4201324739219
 20
4.032222985721276
 30
0.0
 10
143.1626917640612
 20
3.893699143919738
 30
0.0
 10
142.9151100181525
 20
3.73878294044781
 30
0.0
 10
142.6811794039406
 20
3.57052744793604
 30
0.0
 10
142.4571044888102
 20
3.386736804260731
 30
0.0
 10
142.2296211931826
 20
3.174120702026103
 30
0.0
 10
142.0035073647107
 20
2.92985374827753
 30
0.0
 10
141.7857304936444
 20
2.654563946968828
 30
0.0
 10
141.5909438999712
 20
2.364475416519065
 30
0.0
 10
141.4191736591422
 20
2.059989995882427
 30
0.0
 10
141.2585294787218
 20
1.715591701050328
 30
0.0
 10
141.1173351983122
 20
1.326717219957133
 30
0.0
 10
141.0072759741462
 20
0.8944808878614967
 30
0.0
 10
140.940369729086
 20
0.4523590147874568
 30
0.0
 10
140.9175083600624
 20
0.0040810516710528
 30
0.0
 10
140.9395404019779
 20
-0.4448402596444617
 30
0.0
 10
141.0060597297787
 20
-0.8885005935470145
 30
0.0
 10
141.1157638955092
 20
-1.321608555649959
 30
0.0
 10
141.2500014953503
 20
-1.692696896690003
 30
0.0
 10
141.3925622789538
 20
-2.004368937995712
 30
0.0
 10
141.5313321731876
 20
-2.262321888550483
 30
0.0
 10
141.6866580817074
 20
-2.510657571724186
 30
0.0
 10
141.8575516867564
 20
-2.747940005123343
 30
0.0
 10
142.0424876481815
 20
-2.972655614486667
 30
0.0
 10
142.2562484914519
 20
-3.200614208208879
 30
0.0
 10
142.4988045945493
 20
-3.424595974492836
 30
0.0
 10
142.7729653114402
 20
-3.640961606831567
 30
0.0
 10
143.0618935936661
 20
-3.83492920108632
 30
0.0
 10
143.3660683662191
 20
-4.00641042591495
 30
0.0
 10
143.6666657678564
 20
-4.14639522178897
 30
0.0
 10
143.9590540955793
 20
-4.257928967440294
 30
0.0
 10
144.2424436377601
 20
-4.345210887710662
 30
0.0
 10
144.5799741091887
 20
-4.425210579790839
 30
0.0
 10
144.9747271256819
 20
-4.484969749913827
 30
0.0
 10
145.2746619725359
 20
-4.49996191234802
 30
0.0
 10
145.4250124726562
 20
-4.4999996188007
 30
0.0
 11
145.4250124726562
 21
4.500030898777423
 31
0.0
 11
144.9755114350585
 21
4.477508926121173
 31
0.0
 11
144.5346087250976
 21
4.411041640964923
 31
0.0
 11
144.2471636567382
 21
4.343140029636856
 31
0.0
 11
143.964647177246
 21
4.256470107761798
 31
0.0
 11
143.6851977143554
 21
4.150085830418048
 31
0.0
 11
143.4238222871093
 21
4.030548476902423
 31
0.0
 11
143.1639574799804
 21
3.890716933933674
 31
0.0
 11
142.9148196015624
 21
3.734833144871174
 31
0.0
 11
142.6821917329101
 21
3.567505264011799
 31
0.0
 11
142.4630373749999
 21
3.387756728855549
 31
0.0
 11
142.2447069916992
 21
3.183685683933674
 31
0.0
 11
142.006151083496
 21
2.925995254246174
 31
0.0
 11
141.7905520234374
 21
2.653442764011798
 31
0.0
 11
141.5935763154296
 21
2.360107803074328
 31
0.0
 11
141.4234179291992
 21
2.058472060886856
 31
0.0
 11
141.2762774262695
 21
1.743011855808731
 31
0.0
 11
141.124544027832
 21
1.325134658543049
 31
0.0
 11
141.0144060883788
 21
0.8925479886211745
 31
0.0
 11
140.9478243623046
 21
0.4526065823712031
 31
0.0
 11
140.9250124726562
 21
0.0052494046368849
 31
0.0
 11
140.9471377167968
 21
-0.4456783297382004
 31
0.0
 11
141.0133837495117
 21
-0.8874507906756148
 31
0.0
 11
141.1227511201171
 21
-1.31927452114445
 31
0.0
 11
141.2744845185546
 21
-1.73870811489442
 31
0.0
 11
141.3952349458007
 21
-2.002715683253824
 31
0.0
 11
141.5331972871093
 21
-2.2591548922382
 31
0.0
 11
141.690477255371
 21
-2.5106197359882
 31
0.0
 11
141.8601321015624
 21
-2.746184921535075
 31
0.0
 11
142.0442522797851
 21
-2.96990928676945
 31
0.0
 11
142.2442873749999
 21
-3.183227157863115
 31
0.0
 11
142.5048769746093
 21
-3.423858261378825
 31
0.0
 11
142.7735461030273
 21
-3.63589439419124
 31
0.0
 11
143.0639818940429
 21
-3.830871200831978
 31
0.0
 11
143.3696230683593
 21
-4.0031734469257
 31
0.0
 11
143.6831072602539
 21
-4.149169540675615
 31
0.0
 11
143.9606951508789
 21
-4.25506553676945
 31
0.0
 11
144.2428683076171
 21
-4.34194908169124
 31
0.0
 11
144.5314425263671
 21
-4.410369491847575
 31
0.0
 11
144.974527243164
 21
-4.477386093410075
 31
0.0
 11
145.4250124726562
 21
-4.4999996188007
 31
0.0
  0
SPLINE
  5
56287
330
1F
100
AcDbEntity
  8
1
100
AcDbSpline
210
0.0
220
0.0
230
1.0
 70
     8
 71
     3
 72
    16
 73
    12
 74
    10
 42
0.0000000001
 43
0.0000000001
 44
0.000001
 12
0.971374906312096
 22
-0.2375516604597128
 32
0.0
 13
0.9474750794729757
 23
-0.3198296011592397
 33
0.0
 40
0.0
 40
0.0
 40
0.0
 40
0.0
 40
0.6162145973288097
 40
1.266626627454415
 40
1.94437054875421
 40
2.643145743297828
 40
3.346122528223204
 40
4.065749713953458
 40
5.218353512666015
 40
6.376518205591048
 40
7.579724141645026
 40
7.579724141645026
 40
7.579724141645026
 40
7.579724141645026
 10
138.3257616791992
 20
8.764130019871174
 30
0.0
 10
138.5252868114486
 20
8.715335752939516
 30
0.0
 10
138.934691811708
 20
8.612055570619652
 30
0.0
 10
139.5603461378964
 20
8.442791763652866
 30
0.0
 10
140.2104944305261
 20
8.258898504236796
 30
0.0
 10
140.8755790882871
 20
8.063567746312271
 30
0.0
 10
141.5524559790013
 20
7.858936251878082
 30
0.0
 10
142.372390066479
 20
7.604824756787088
 30
0.0
 10
143.3349669138338
 20
7.298492373847672
 30
0.0
 10
144.4483501656739
 20
6.934626670514933
 30
0.0
 10
145.1950038225122
 20
6.68546394748574
 30
0.0
 10
145.5750063691406
 20
6.557190322605548
 30
0.0
 11
138.3257616791992
 21
8.764130019871174
 31
0.0
 11
138.9232043061523
 21
8.613190078464924
 31
0.0
 11
139.5512255463867
 21
8.444000625339924
 31
0.0
 11
140.2034395966796
 21
8.259735488621174
 31
0.0
 11
140.8739718232421
 21
8.063080215183674
 31
0.0
 11
141.546907309082
 21
7.859772109714923
 31
0.0
 11
142.2343233857421
 21
7.646881484714923
 31
0.0
 11
143.3327425751953
 21
7.297638320652423
 31
0.0
 11
144.4337099824218
 21
6.938171767918021
 31
0.0
 11
145.5750063691406
 21
6.557190322605548
 31
0.0
  0
SPLINE
  5
56288
330
1F
100
AcDbEntity
  8
1
100
AcDbSpline
210
0.0
220
0.0
230
1.0
 70
     8
 71
     3
 72
    25
 73
    21
 74
    19
 42
0.0000000001
 43
0.0000000001
 44
0.000001
 12
0.9468450350588154
 22
-0.3216900365017087
 32
0.0
 13
0.472672644905016
 23
-0.8812380897115698
 33
0.0
 40
0.0
 40
0.0
 40
0.0
 40
0.0
 40
0.6624445206007508
 40
1.343635475875902
 40
2.03704007900978
 40
2.744199950257093
 40
3.498205810178802
 40
4.256610477156733
 40
5.026797246402711
 40
5.793620296026269
 40
6.519210198597755
 40
7.232934175056456
 40
7.940540043673067
 40
8.625243546979159
 40
9.231306695479142
 40
9.806264088917801
 40
10.35277308570664
 40
10.85315577138681
 40
11.19387071088574
 40
11.49794782721776
 40
11.49794782721776
 40
11.49794782721776
 40
11.49794782721776
 10
145.6502550874023
 20
6.531738662449298
 30
0.0
 10
145.8593325225132
 20
6.460704728445161
 30
0.0
 10
146.2804103108454
 20
6.307632134697271
 30
0.0
 10
146.9081535417812
 20
6.048261593561336
 30
0.0
 10
147.5376867452486
 20
5.755840542629982
 30
0.0
 10
148.1756350119805
 20
5.425483379182868
 30
0.0
 10
148.817122765784
 20
5.056348064985013
 30
0.0
 10
149.4590393077148
 20
4.647386077617935
 30
0.0
 10
150.0852891838194
 20
4.207330038759543
 30
0.0
 10
150.6824601753704
 20
3.7462574487317
 30
0.0
 10
151.2445444158982
 20
3.271742656868414
 30
0.0
 10
151.771688719531
 20
2.787431261349311
 30
0.0
 10
152.2684700684651
 20
2.291129697355002
 30
0.0
 10
152.7199235195838
 20
1.801060639993895
 30
0.0
 10
153.1229104474974
 20
1.327189075693314
 30
0.0
 10
153.4791860242487
 20
0.8746155943380474
 30
0.0
 10
153.7970007096103
 20
0.4371075884015255
 30
0.0
 10
154.0535005338082
 20
0.0520446867897884
 30
0.0
 10
154.2529151407229
 20
-0.2735486290552813
 30
0.0
 10
154.3577508684838
 20
-0.4612458000466823
 30
0.0
 10
154.4056605134277
 20
-0.5505672457538254
 30
0.0
 11
145.6502550874023
 21
6.531738662449298
 31
0.0
 11
146.2728289399414
 21
6.305389785496173
 31
0.0
 11
146.9024447236328
 21
6.045380019871173
 31
0.0
 11
147.5313586030273
 21
5.753357314793048
 31
0.0
 11
148.159341696289
 21
5.428223037449298
 31
0.0
 11
148.8129214082031
 21
5.052246474949298
 31
0.0
 11
149.4525660310058
 21
4.644775771824356
 31
0.0
 11
150.0827730927734
 21
4.202026748386856
 31
0.0
 11
150.6897372041015
 21
3.733398818699299
 31
0.0
 11
151.2441843781738
 21
3.265350722996174
 31
0.0
 11
151.7697314057617
 21
2.782440566746174
 31
0.0
 11
152.2702845368652
 21
2.282287978855548
 31
0.0
 11
152.7340868745117
 21
1.778595351902423
 31
0.0
 11
153.1265925202636
 21
1.316803359714924
 31
0.0
 11
153.482023123291
 21
0.8648685452617995
 31
0.0
 11
153.8028696809082
 21
0.4224552151836747
 31
0.0
 11
154.0798243317871
 21
0.0057071683087315
 31
0.0
 11
154.2572153840332
 21
-0.2851863863788253
 31
0.0
 11
154.4056605134277
 21
-0.5505672457538254
 31
0.0
  0
SPLINE
  5
56289
330
1F
100
AcDbEntity
  8
1
100
AcDbSpline
210
0.0
220
0.0
230
1.0
 70
     8
 71
     3
 72
    11
 73
     7
 74
     5
 42
0.0000000001
 43
0.0000000001
 44
0.000001
 12
-0.9469616152808802
 22
0.3213466962404101
 32
0.0
 13
-0.9475844315216047
 23
0.3195054696525196
 33
0.0
 40
0.0
 40
0.0
 40
0.0
 40
0.0
 40
0.0198802755307323
 40
0.0397533242843519
 40
0.0596021423994924
 40
0.0794365036403571
 40
0.0794365036403571
 40
0.0794365036403571
 40
0.0794365036403571
 10
145.6502550874023
 20
6.531738662449298
 30
0.0
 10
145.6439798014594
 20
6.533868149403348
 30
0.0
 10
145.6314273209915
 20
6.53811398795286
 30
0.0
 10
145.612613528926
 20
6.544497898165412
 30
0.0
 10
145.5938012026311
 20
6.550838369758883
 30
0.0
 10
145.5812712797809
 20
6.555077926971041
 30
0.0
 10
145.5750063691406
 20
6.557190322605548
 30
0.0
 11
145.6502550874023
 21
6.531738662449298
 31
0.0
 11
145.6314257416992
 21
6.538116836277423
 31
0.0
 11
145.6126040253906
 21
6.544495010105548
 31
0.0
 11
145.593797567871
 21
6.550842666355548
 31
0.0
 11
145.5750063691406
 21
6.557190322605548
 31
0.0
  0
SPLINE
  5
5628A
330
1F
100
AcDbEntity
  8
1
100
AcDbSpline
210
0.0
220
0.0
230
1.0
 70
     8
 71
     3
 72
    22
 73
    18
 74
    16
 42
0.0000000001
 43
0.0000000001
 44
0.000001
 12
0.9501051262673982
 22
0.3119298784028415
 32
0.0
 13
0.066472848683105
 23
0.9977882342400882
 33
0.0
 40
0.0
 40
0.0
 40
0.0
 40
0.0
 40
0.1773883036630847
 40
0.9247315811028427
 40
1.674737135718249
 40
2.424737316490579
 40
3.172070191313928
 40
3.91910664114196
 40
4.668827456206394
 40
5.418510117280306
 40
6.165520863528305
 40
6.911032564144441
 40
7.659269650239618
 40
8.407429476083704
 40
9.152836368564274
 40
9.788513183690712
 40
10.4241707574835
 40
10.4241707574835
 40
10.4241707574835
 40
10.4241707574835
 10
148.3462313447265
 20
-8.290740585597575
 30
0.0
 10
148.4024105236099
 20
-8.272296348267005
 30
0.0
 10
148.6942974926134
 20
-8.17318796856761
 30
0.0
 10
149.213341949912
 20
-7.965616939199632
 30
0.0
 10
149.8838425897794
 20
-7.629674853224181
 30
0.0
 10
150.5241599592656
 20
-7.239198378128079
 30
0.0
 10
151.1286864360795
 20
-6.796929070471805
 30
0.0
 10
151.6926869801991
 20
-6.304160068897985
 30
0.0
 10
152.2138479630052
 20
-5.765262642471109
 30
0.0
 10
152.6883694159809
 20
-5.184883510120894
 30
0.0
 10
153.1116037963479
 20
-4.567748057640879
 30
0.0
 10
153.4796003876689
 20
-3.916719755069264
 30
0.0
 10
153.7915238953622
 20
-3.236662047855213
 30
0.0
 10
154.0451974315728
 20
-2.53282615223354
 30
0.0
 10
154.227993518603
 20
-1.846061609101282
 30
0.0
 10
154.3476200804941
 20
-1.183949605028438
 30
0.0
 10
154.3915758568553
 20
-0.761984461799174
 30
0.0
 10
154.4056605134277
 20
-0.5505672457538254
 30
0.0
 11
148.3462313447265
 21
-8.290740585597575
 31
0.0
 11
148.5142000947265
 21
-8.233703232082008
 31
0.0
 11
149.2082003388671
 21
-7.956420517238199
 31
0.0
 11
149.8788088593749
 21
-7.620574569972574
 31
0.0
 11
150.5190714631347
 21
-7.229980087550699
 31
0.0
 11
151.1220301423339
 21
-6.788451767238199
 31
0.0
 11
151.684804800537
 21
-6.297179794582008
 31
0.0
 11
152.2060755524902
 21
-5.758330917628824
 31
0.0
 11
152.6804941926269
 21
-5.177856064113115
 31
0.0
 11
153.1027163300781
 21
-4.561614609035075
 31
0.0
 11
153.469816092041
 21
-3.91274986294124
 31
0.0
 11
153.7818163666992
 21
-3.232665634425615
 31
0.0
 11
154.0352762971191
 21
-2.52874717739445
 31
0.0
 11
154.2267397675781
 21
-1.808349228175615
 31
0.0
 11
154.3397578034667
 21
-1.18279991176945
 31
0.0
 11
154.4056605134277
 21
-0.5505672457538254
 31
0.0
  0
SPLINE
  5
5628B
330
1F
100
AcDbEntity
  8
1
100
AcDbSpline
210
0.0
220
0.0
230
1.0
 70
     8
 71
     3
 72
    11
 73
     7
 74
     5
 42
0.0000000001
 43
0.0000000001
 44
0.000001
 12
0.999999603147441
 22
0.0008909012070156
 32
0.0
 13
0.9508619751644026
 23
0.3096150903726288
 33
0.0
 40
0.0
 40
0.0
 40
0.0
 40
0.0
 40
0.7473246493751336
 40
1.497319414912224
 40
2.247314232719068
 40
2.80470049245647
 40
2.80470049245647
 40
2.80470049245647
 40
2.80470049245647
 10
145.5750063691406
 20
-8.734160995753825
 30
0.0
 10
145.8241144867397
 20
-8.733939064943104
 30
0.0
 10
146.3234724032562
 20
-8.712727018291396
 30
0.0
 10
147.0673332161864
 20
-8.617469938976325
 30
0.0
 10
147.7388505400236
 20
-8.4742925567223
 30
0.0
 10
148.1575187308072
 20
-8.35220241890266
 30
0.0
 10
148.3341845307617
 20
-8.294677353175641
 30
0.0
 11
145.5750063691406
 21
-8.734160995753825
 31
0.0
 11
146.3216494355468
 21
-8.702239609035075
 31
0.0
 11
147.0656069550781
 21
-8.607268905910075
 31
0.0
 11
147.7990664277343
 21
-8.450652694972575
 31
0.0
 11
148.3341845307617
 21
-8.294677353175641
 31
0.0
  0
ARC
  5
5628C
330
1F
100
AcDbEntity
  8
1
100
AcDbCircle
 10
145.575006
 20
0.0000001331524402
 30
0.0
 40
4.050004
100
AcDbArc
 50
270.0000429999985
 51
0.0000050000005032
  0
ARC
  5
5628D
330
1F
100
AcDbEntity
  8
1
100
AcDbCircle
 10
145.575006
 20
0.0000001331524402
 30
0.0
 40
4.050004
100
AcDbArc
 50
359.9999949999995
 51
89.99999699999904
  0
ARC
  5
5628E
330
1F
100
AcDbEntity
  8
1
100
AcDbCircle
 10
145.575006
 20
0.0000001331524402
 30
0.0
 40
4.050004
100
AcDbArc
 50
89.99999699999904
 51
179.9999980000004
  0
ARC
  5
5628F
330
1F
100
AcDbEntity
  8
1
100
AcDbCircle
 10
145.575006
 20
0.0000001331524402
 30
0.0
 40
4.050004
100
AcDbArc
 50
180.0000890000011
 51
270.0000429999985
  0
ARC
  5
56290
330
1F
100
AcDbEntity
  8
1
100
AcDbCircle
 10
145.575006
 20
2.22952313315244
 30
0.0
 40
0.8260009999999999
100
AcDbArc
 50
223.6651810000034
 51
316.3348239999998
  0
ARC
  5
56291
330
1F
100
AcDbEntity
  8
1
100
AcDbCircle
 10
143.915239
 20
0.0000001331524402
 30
0.0
 40
0.321227
100
AcDbArc
 50
103.665615
 51
256.3343789999976
  0
ARC
  5
56292
330
1F
100
AcDbEntity
  8
1
100
AcDbCircle
 10
146.404894
 20
1.437409133152413
 30
0.0
 40
0.321227
100
AcDbArc
 50
343.6656079999973
 51
136.3343920000022
  0
ARC
  5
56293
330
1F
100
AcDbEntity
  8
1
100
AcDbCircle
 10
143.644205
 20
1.114777133152415
 30
0.0
 40
0.8260009999999999
100
AcDbArc
 50
283.6651760000001
 51
16.33482599999908
  0
ARC
  5
56294
330
1F
100
AcDbEntity
  8
1
100
AcDbCircle
 10
147.234781
 20
0.0000001331524402
 30
0.0
 40
0.321227
100
AcDbArc
 50
283.6656199999975
 51
76.33437700000127
  0
ARC
  5
56295
330
1F
100
AcDbEntity
  8
1
100
AcDbCircle
 10
146.404894
 20
-1.437377866847582
 30
0.0
 40
0.321227
100
AcDbArc
 50
223.6655969999994
 51
16.33438900000057
  0
ARC
  5
56296
330
1F
100
AcDbEntity
  8
1
100
AcDbCircle
 10
147.505815
 20
-1.114745866847528
 30
0.0
 40
0.8260009999999999
100
AcDbArc
 50
103.665171000002
 51
196.334825999999
  0
ARC
  5
56297
330
1F
100
AcDbEntity
  8
1
100
AcDbCircle
 10
147.505815
 20
1.114777133152415
 30
0.0
 40
0.8260009999999999
100
AcDbArc
 50
163.6651770000019
 51
256.3348289999979
  0
ARC
  5
56298
330
1F
100
AcDbEntity
  8
1
100
AcDbCircle
 10
144.745127
 20
-1.437377866847582
 30
0.0
 40
0.321227
100
AcDbArc
 50
163.6656079999973
 51
316.3344009999987
  0
ARC
  5
56299
330
1F
100
AcDbEntity
  8
1
100
AcDbCircle
 10
144.745127
 20
1.437409133152413
 30
0.0
 40
0.321227
100
AcDbArc
 50
43.66559900000132
 51
196.3343849999985
  0
ARC
  5
5629A
330
1F
100
AcDbEntity
  8
1
100
AcDbCircle
 10
145.575006
 20
-2.229491866847553
 30
0.0
 40
0.8260009999999999
100
AcDbArc
 50
43.66517600000026
 51
136.3348230000023
  0
ARC
  5
5629B
330
1F
100
AcDbEntity
  8
1
100
AcDbCircle
 10
143.644205
 20
-1.114745866847528
 30
0.0
 40
0.8260009999999999
100
AcDbArc
 50
343.6651699999999
 51
76.33484099999974
  0
ARC
  5
5629C
330
1F
100
AcDbEntity
  8
1
100
AcDbCircle
 10
145.575006
 20
0.0000001331524402
 30
0.0
 40
3.000001999999998
100
AcDbArc
 50
270.0000499999985
 51
89.99997299999794
  0
ARC
  5
5629D
330
1F
100
AcDbEntity
  8
1
100
AcDbCircle
 10
145.575014
 20
0.0000001331524402
 30
0.0
 40
3.000001999999998
100
AcDbArc
 50
90.000044999998
 51
269.9999619999988
  0
ARC
  5
5629E
330
1F
100
AcDbEntity
  8
1
100
AcDbCircle
 10
145.425012
 20
0.0000001331524402
 30
0.0
 40
4.300003
100
AcDbArc
 50
89.999921999998
 51
179.9999470000005
  0
ARC
  5
5629F
330
1F
100
AcDbEntity
  8
1
100
AcDbCircle
 10
145.425012
 20
0.0000001331524402
 30
0.0
 40
4.300003
100
AcDbArc
 50
0.0000499999985184
 51
89.99993599999811
  0
ARC
  5
562A0
330
1F
100
AcDbEntity
  8
1
100
AcDbCircle
 10
145.425012
 20
0.0000311331524756
 30
0.0
 40
4.300003
100
AcDbArc
 50
269.9999959999976
 51
359.9999499999983
  0
ARC
  5
562A1
330
1F
100
AcDbEntity
  8
1
100
AcDbCircle
 10
145.425012
 20
0.0000311331524756
 30
0.0
 40
4.300003
100
AcDbArc
 50
180.0000529999995
 51
270.0000089999996
  0
ARC
  5
562A2
330
1F
100
AcDbEntity
  8
1
100
AcDbCircle
 10
145.575006
 20
0.0000001331524402
 30
0.0
 40
4.500003999999997
100
AcDbArc
 50
270.0000429999985
 51
90.00000100000141
  0
ARC
  5
562A3
330
1F
100
AcDbEntity
  8
1
100
AcDbCircle
 10
128.006166
 20
0.0000001331524402
 30
0.0
 40
0.8
100
AcDbArc
 50
329.9999970000009
 51
29.99999899999997
  0
LINE
  5
562A4
330
1F
100
AcDbEntity
  8
1
100
AcDbLine
 10
140.575006
 20
8.841736133152409
 30
0.0
 11
140.575006
 21
8.268646133152428
 31
0.0
  0
LINE
  5
562A5
330
1F
100
AcDbEntity
  8
1
100
AcDbLine
 10
140.575006
 20
-8.764098866847573
 30
0.0
 11
140.575006
 21
-8.841735866847526
 31
0.0
  0
LINE
  5
562A6
330
1F
100
AcDbEntity
  8
1
100
AcDbLine
 10
140.575006
 20
8.15075713315241
 30
0.0
 11
140.575006
 21
8.268646133152428
 31
0.0
  0
LINE
  5
562A7
330
1F
100
AcDbEntity
  8
1
100
AcDbLine
 10
145.575006
 20
4.040039133152446
 30
0.0
 11
145.575006
 21
4.050019133152432
 31
0.0
  0
LINE
  5
562A8
330
1F
100
AcDbEntity
  8
1
100
AcDbLine
 10
140.575006
 20
9.074738133152436
 30
0.0
 11
140.575006
 21
8.841743251516504
 31
0.0
  0
LINE
  5
562A9
330
1F
100
AcDbEntity
  8
1
100
AcDbLine
 10
149.625009
 20
0.0000001331524402
 30
0.0
 11
149.6249979999999
 21
0.0000001331524402
 31
0.0
  0
LINE
  5
562AA
330
1F
100
AcDbEntity
  8
1
100
AcDbLine
 10
137.884033
 20
8.764123133152452
 30
0.0
 11
137.349456
 21
8.977515133152421
 31
0.0
  0
LINE
  5
562AB
330
1F
100
AcDbEntity
  8
1
100
AcDbLine
 10
140.575007
 20
-8.841729866847542
 30
0.0
 11
140.575006
 21
-8.977477866847578
 31
0.0
  0
LINE
  5
562AC
330
1F
100
AcDbEntity
  8
1
100
AcDbLine
 10
140.575006
 20
-8.734160866847531
 30
0.0
 11
140.575006
 21
-8.764098866847573
 31
0.0
  0
LINE
  5
562AD
330
1F
100
AcDbEntity
  8
1
100
AcDbLine
 10
140.575006
 20
-8.734160866847531
 30
0.0
 11
145.575006
 21
-8.734160866847531
 31
0.0
  0
LINE
  5
562AE
330
1F
100
AcDbEntity
  8
1
100
AcDbLine
 10
136.680857
 20
9.074738133152436
 30
0.0
 11
140.575006
 21
9.074738133152436
 31
0.0
  0
LINE
  5
562AF
330
1F
100
AcDbEntity
  8
1
100
AcDbLine
 10
140.575006
 20
9.084961133152431
 30
0.0
 11
140.575006
 21
9.074738133152436
 31
0.0
  0
LINE
  5
562B0
330
1F
100
AcDbEntity
  8
1
100
AcDbLine
 10
135.575006
 20
9.084961133152431
 30
0.0
 11
140.575006
 21
9.084961133152431
 31
0.0
  0
LINE
  5
562B1
330
1F
100
AcDbEntity
  8
1
100
AcDbLine
 10
135.575006
 20
-9.084929866847542
 30
0.0
 11
140.575006
 21
-9.084929866847542
 31
0.0
  0
LINE
  5
562B2
330
1F
100
AcDbEntity
  8
1
100
AcDbLine
 10
140.575006
 20
-8.977477866847578
 30
0.0
 11
140.575006
 21
-9.084929866847542
 31
0.0
  0
LINE
  5
562B3
330
1F
100
AcDbEntity
  8
1
100
AcDbLine
 10
137.075006
 20
-8.977477866847578
 30
0.0
 11
140.575006
 21
-8.977477866847578
 31
0.0
  0
LINE
  5
562B4
330
1F
100
AcDbEntity
  8
1
100
AcDbLine
 10
137.075006
 20
-8.764098866847573
 30
0.0
 11
137.075006
 21
-8.977477866847578
 31
0.0
  0
LINE
  5
562B5
330
1F
100
AcDbEntity
  8
1
100
AcDbLine
 10
137.075006
 20
-8.764098866847573
 30
0.0
 11
140.575006
 21
-8.764098866847573
 31
0.0
  0
LINE
  5
562B6
330
1F
100
AcDbEntity
  8
1
100
AcDbLine
 10
145.425012
 20
-4.499999866847588
 30
0.0
 11
145.575006
 21
-4.499999866847588
 31
0.0
  0
LINE
  5
562B7
330
1F
100
AcDbEntity
  8
1
100
AcDbLine
 10
145.425012
 20
4.50000013315244
 30
0.0
 11
145.575006
 21
4.50000013315244
 31
0.0
  0
LINE
  5
562B8
330
1F
100
AcDbEntity
  8
1
100
AcDbLine
 10
137.075006
 20
8.764130133152406
 30
0.0
 11
138.325769
 21
8.764130133152406
 31
0.0
  0
LINE
  5
562B9
330
1F
100
AcDbEntity
  8
1
100
AcDbLine
 10
137.075006
 20
8.977509133152407
 30
0.0
 11
137.075006
 21
8.764130133152406
 31
0.0
  0
LINE
  5
562BA
330
1F
100
AcDbEntity
  8
1
100
AcDbLine
 10
137.075006
 20
8.977509133152407
 30
0.0
 11
137.349451
 21
8.977509133152407
 31
0.0
  0
LINE
  5
562BB
330
1F
100
AcDbEntity
  8
1
100
AcDbLine
 10
148.334181
 20
-8.294683866847549
 30
0.0
 11
148.3462299999999
 21
-8.290735866847569
 31
0.0
  0
LINE
  5
562BC
330
1F
100
AcDbEntity
  8
1
100
AcDbLine
 10
131.575006
 20
-9.299968866847535
 30
0.0
 11
135.575007
 21
-9.084918866847514
 31
0.0
  0
LINE
  5
562BD
330
1F
100
AcDbEntity
  8
1
100
AcDbLine
 10
135.574991
 20
-9.084929866847542
 30
0.0
 11
135.574991
 21
9.084961133152431
 31
0.0
  0
LINE
  5
562BE
330
1F
100
AcDbEntity
  8
1
100
AcDbLine
 10
131.575006
 20
9.300031133152456
 30
0.0
 11
135.575011
 21
9.084945133152473
 31
0.0
  0
LINE
  5
562BF
330
1F
100
AcDbEntity
  8
1
100
AcDbLine
 10
131.575006
 20
-9.299968866847535
 30
0.0
 11
131.575006
 21
0.0000311331524756
 31
0.0
  0
LINE
  5
562C0
102
{ACAD_REACTORS
330
56282
102
}
330
1F
100
AcDbEntity
  8
1
100
AcDbLine
 10
131.574993
 20
0.0000311331524756
 30
0.0
 11
131.575
 21
9.300031133152456
 31
0.0
  0
LINE
  5
562C3
330
1F
100
AcDbEntity
  8
1
100
AcDbLine
 10
0.0
 20
-9.524993866847554
 30
0.0
 11
0.0
 21
0.0000001331524402
 31
0.0
  0
LINE
  5
562C5
330
1F
100
AcDbEntity
  8
4
100
AcDbLine
 10
0.0000000038246526
 20
0.0000001331524402
 30
0.0
 11
160.1039789999999
 21
0.0000001331524402
 31
0.0
  0
LINE
  5
562C8
330
1F
100
AcDbEntity
  8
1
100
AcDbLine
 10
131.575006
 20
-9.299968866847535
 30
0.0
 11
0.2249699999999848
 21
-9.299968866847535
 31
0.0
  0
LINE
  5
562C9
330
1F
100
AcDbEntity
  8
1
100
AcDbLine
 10
0.0000049999999874
 20
-9.524980866847526
 30
0.0
 11
0.2249699999999848
 21
-9.299968866847507
 31
0.0
  0
LINE
  5
562CA
330
1F
100
AcDbEntity
  8
1
100
AcDbLine
 10
0.2249699999999848
 20
-9.299968866847507
 30
0.0
 11
0.2249699999999848
 21
0.0000001331524402
 31
0.0
  0
LINE
  5
562CC
330
1F
100
AcDbEntity
  8
1
100
AcDbLine
 10
0.0
 20
0.0000001331524402
 30
0.0
 11
0.0
 21
9.525025133152466
 31
0.0
  0
LINE
  5
562CE
330
1F
100
AcDbEntity
  8
1
100
AcDbLine
 10
131.575006
 20
9.300031133152456
 30
0.0
 11
0.2249699999999848
 21
9.300031133152456
 31
0.0
  0
LINE
  5
562CF
330
1F
100
AcDbEntity
  8
1
100
AcDbLine
 10
0.2249699999999848
 20
9.300031133152456
 30
0.0
 11
0.2249699999999848
 21
0.0000001331524118
 31
0.0
  0
LINE
  5
562D0
330
1F
100
AcDbEntity
  8
1
100
AcDbLine
 10
0.0000000000163709
 20
9.525025133152466
 30
0.0
 11
0.2249699999999848
 21
9.300031133152456
 31
0.0
  0
LINE
  5
562D3
330
1F
100
AcDbEntity
  8
1
100
AcDbLine
 10
123.574998
 20
9.275017133152431
 30
0.0
 11
128.698983
 21
0.4000141331524958
 31
0.0
  0
LINE
  5
562D4
330
1F
100
AcDbEntity
  8
1
100
AcDbLine
 10
123.574999
 20
-9.274992866847554
 30
0.0
 11
128.6989919999999
 21
-0.3999768668475383
 31
0.0
  0
LINE
  5
562D5
330
1F
100
AcDbEntity
  8
1
100
AcDbLine
 10
128.641252
 20
-0.4999998668475599
 30
0.0
 11
128.641252
 21
0.5000001331524402
 31
0.0
  0
LINE
  5
562D7
330
1F
100
AcDbEntity
  8
nocut
100
AcDbLine
 10
135.5750060038245
 20
9.08496099999999
 30
0.0
 11
145.5770060038247
 21
9.08496099999999
 31
0.0
1001
ACAD
1000
RTMaterial
1005
0
  0
ARC
  5
562D8
330
1F
100
AcDbEntity
  8
nocut
100
AcDbCircle
 10
145.5770060038247
 20
0.0000309999995807
 30
0.0
 40
9.084930000000424
100
AcDbArc
 50
0.0000000000032569
 51
90.0
  0
LINE
  5
562D9
330
1F
100
AcDbEntity
  8
nocut
100
AcDbLine
 10
0.0000000038246526
 20
0.0000000000000284
 30
0.0
 11
0.0000000038246526
 21
9.5249999989
 31
0.0
1001
ACAD
1000
RTMaterial
1005
0
  0
LINE
  5
562DA
330
1F
100
AcDbEntity
  8
nocut
100
AcDbLine
 10
154.6619360037722
 20
0.0000000000000284
 30
0.0
 11
0.0000000038246526
 21
-0.0000000000000152
 31
0.0
1001
ACAD
1000
RTMaterial
1005
0
  0
LINE
  5
562DB
330
1F
100
AcDbEntity
  8
nocut
100
AcDbLine
 10
0.2250000038246753
 20
9.299999998900032
 30
0.0
 11
0.0000000038246526
 21
9.524999998900026
 31
0.0
1001
ACAD
1000
RTMaterial
1005
0
  0
LINE
  5
562DC
330
1F
100
AcDbEntity
  8
nocut
100
AcDbLine
 10
0.2249699999999847
 20
9.29999999890003
 30
0.0
 11
131.5750000038247
 21
9.299999998900032
 31
0.0
1001
ACAD
1000
RTMaterial
1005
0
  0
LINE
  5
562DD
330
1F
100
AcDbEntity
  8
nocut
100
AcDbLine
 10
135.5750060038246
 20
9.08496099999999
 30
0.0
 11
131.5750060038246
 21
9.300031000000046
 31
0.0
  0
LINE
  5
562DE
330
1F
100
AcDbEntity
  8
nocut
100
AcDbLine
 10
131.5750060038246
 20
9.300031000000046
 30
0.0
 11
135.5750060038246
 21
9.08496099999999
 31
0.0
  0
LINE
  5
562E0
330
1F
100
AcDbEntity
  8
cut
100
AcDbLine
 10
140.575006
 20
-0.0000000010998917
 30
0.0
 11
140.575006
 21
-9.21500000109998
 31
0.0
1001
ACAD
1000
RTMaterial
1005
0
  0
DIMENSION
  5
563F9
330
1F
100
AcDbEntity
  8
2
100
AcDbDimension
  2
*D10
 10
175.575006
 20
-9.999999999999982
 30
0.0
 11
171.525006
 21
-33.00833333333328
 31
0.0
 70
    32
  1
%%c<>
 71
     5
 42
19.99999999890008
  3
\M+18352\M+18373\M+1815B - ISO-25
100
AcDbAlignedDimension
 13
154.075006
 23
9.999999998900106
 33
0.0
 14
145.575006
 24
-9.999999999999973
 34
0.0
 50
270.0
100
AcDbRotatedDimension
1001
ACAD
1000
DSTYLE
1002
{
1070
    76
1070
     1
1070
   344
1005
50E6F
1070
     4
1000
%%c[]"
1070
    40
1040
1.0
1070
    75
1070
     0
1070
   143
1040
0.03937
1070
   170
1070
     1
1070
   171
1070
     3
1070
   173
1070
     1
1070
   271
1070
     8
1070
   285
1070
     4
1070
   343
1005
0
1002
}
  0
SPLINE
  5
563FA
330
1F
100
AcDbEntity
  8
1
100
AcDbSpline
210
0.0
220
0.0
230
1.0
 70
     8
 71
     3
 72
    49
 73
    45
 74
    43
 42
0.0000000001
 43
0.0000000001
 44
0.000001
 12
-0.9997904570197825
 22
-0.0204705166562703
 32
0.0
 13
-0.9970443011314142
 23
-0.0768287809441873
 33
0.0
 40
0.0
 40
0.0
 40
0.0
 40
0.0
 40
0.0501343918481176
 40
0.1015680919192603
 40
0.127734382997797
 40
0.1542028675364338
 40
0.1810298850207541
 40
0.2082717757867449
 40
0.3213130509788465
 40
0.3507400872290153
 40
0.3806255194705142
 40
0.4110316218940622
 40
0.4420206698673229
 40
0.4738841167897196
 40
0.5057476325111458
 40
0.5387355006165531
 40
0.5552294625679816
 40
0.5717234430085535
 40
0.5808894351059458
 40
0.5900558216703739
 40
0.60838975543827
 40
0.6269849026835192
 40
0.6455816524925077
 40
0.6831297625037833
 40
0.7207783644270912
 40
0.75842694397088
 40
0.7772538596348899
 40
0.7960825395754969
 40
0.8149113321703527
 40
0.8243263923749314
 40
0.8337418865795417
 40
0.8439891662089694
 40
0.8542364837528413
 40
0.874731232470933
 40
0.9157211844985765
 40
0.9567117429409561
 40
0.9977029081640679
 40
1.083654196886667
 40
1.169608159106375
 40
1.259800204353257
 40
1.349995202011808
 40
1.444722738339492
 40
1.539453539854222
 40
1.57475442422592
 40
1.57475442422592
 40
1.57475442422592
 40
1.57475442422592
 10
152.6516008271733
 20
9.882770544056342
 30
0.0
 10
152.6348928649938
 20
9.882428451755215
 30
0.0
 10
152.6010413878271
 20
9.881864693388374
 30
0.0
 10
152.5584733469415
 20
9.880934329448013
 30
0.0
 10
152.5237912471929
 20
9.880218564455091
 30
0.0
 10
152.497309797742
 20
9.879663495790753
 30
0.0
 10
152.4704699056802
 20
9.879100451603434
 30
0.0
 10
152.4147788809184
 20
9.877926592053986
 30
0.0
 10
152.3582216275248
 20
9.876722529636957
 30
0.0
 10
152.3007836669113
 20
9.875486985487599
 30
0.0
 10
152.2708844520181
 20
9.874841098348962
 30
0.0
 10
152.2404647491031
 20
9.874181143650208
 30
0.0
 10
152.2093859273281
 20
9.873503932617849
 30
0.0
 10
152.1778214816635
 20
9.872813149911994
 30
0.0
 10
152.1455909970879
 20
9.872104371730342
 30
0.0
 10
152.1184824776359
 20
9.871506336194116
 30
0.0
 10
152.0964959680365
 20
9.871017770177612
 30
0.0
 10
152.0824480457237
 20
9.870709195390755
 30
0.0
 10
152.070842300822
 20
9.870443258321692
 30
0.0
 10
152.0586240268198
 20
9.87013699303727
 30
0.0
 10
152.0432647485512
 20
9.869710759782943
 30
0.0
 10
152.024765267451
 20
9.869128060931467
 30
0.0
 10
151.9998673342422
 20
9.868250822321474
 30
0.0
 10
151.9686286202353
 20
9.866973596273549
 30
0.0
 10
151.9310572573048
 20
9.865153203189199
 30
0.0
 10
151.8997313586407
 20
9.863398101500539
 30
0.0
 10
151.8746775786136
 20
9.861852010201237
 30
0.0
 10
151.8558896538462
 20
9.860621522218345
 30
0.0
 10
151.8402363226712
 20
9.85953661611586
 30
0.0
 10
151.8277156835141
 20
9.858634117668032
 30
0.0
 10
151.8180496621336
 20
9.857916594653167
 30
0.0
 10
151.8081076988194
 20
9.857169021982727
 30
0.0
 10
151.7944828168506
 20
9.856147593340809
 30
0.0
 10
151.7706392514658
 20
9.854357437511607
 30
0.0
 10
151.7365768581733
 20
9.851797943531408
 30
0.0
 10
151.6957019138021
 20
9.848721448513373
 30
0.0
 10
151.639882602786
 20
9.844513817796759
 30
0.0
 10
151.5691188442419
 20
9.839166967444242
 30
0.0
 10
151.4820029955191
 20
9.832563483195963
 30
0.0
 10
151.3934782750369
 20
9.825831326803848
 30
0.0
 10
151.3020392178173
 20
9.818854201836764
 30
0.0
 10
151.2090933992515
 20
9.811738776003926
 30
0.0
 10
151.1343939148979
 20
9.805998158270082
 30
0.0
 10
151.0911777920626
 20
9.802672501403655
 30
0.0
 10
151.0794456102
 20
9.801768460099479
 30
0.0
 11
152.6516008271733
 21
9.882770544056342
 31
0.0
 11
152.6014752479
 21
9.881830018199508
 31
0.0
 11
152.5500525643999
 21
9.880765123899491
 31
0.0
 11
152.5238919449999
 21
9.880220243399492
 31
0.0
 11
152.4974292432
 21
9.879666923999508
 31
0.0
 11
152.4706081334
 21
9.879103906899471
 31
0.0
 11
152.4433722896999
 21
9.87852991369948
 31
0.0
 11
152.3303566259
 21
9.876123678399466
 31
0.0
 11
152.3009363952001
 21
9.875490826999481
 31
0.0
 11
152.2710579334
 21
9.874845387599492
 31
0.0
 11
152.240658984
 21
9.874185880099474
 31
0.0
 11
152.2096772898998
 21
9.873510799099475
 31
0.0
 11
152.1778214717
 21
9.872813586399473
 31
0.0
 11
152.1459656532999
 21
9.872113246199461
 31
0.0
 11
152.1129858266999
 21
9.871384900299489
 31
0.0
 11
152.0964959133
 21
9.871019470599492
 31
0.0
 11
152.080006
 21
9.870653202899488
 31
0.0
 11
152.0708424650999
 21
9.870440975799482
 31
0.0
 11
152.0616789429
 21
9.87021183499948
 31
0.0
 11
152.0433520762001
 21
9.869702819699456
 31
0.0
 11
152.0247661421999
 21
9.869117520199466
 31
0.0
 11
152.0061809248999
 21
9.868462675399484
 31
0.0
 11
151.9686641559001
 21
9.866928822499488
 31
0.0
 11
151.9310596643999
 21
9.865106859999457
 31
0.0
 11
151.893470034
 21
9.86300083909947
 31
0.0
 11
151.8746788626
 21
9.861841247899491
 31
0.0
 11
151.8558904408
 21
9.860610633299472
 31
0.0
 11
151.8371066831
 21
9.859309137799499
 31
0.0
 11
151.8277160203999
 21
9.858631778999466
 31
0.0
 11
151.8183262186998
 21
9.857936684399502
 31
0.0
 11
151.8081076299999
 21
9.857170403899461
 31
0.0
 11
151.7978890255999
 21
9.856403825799503
 31
0.0
 11
151.7774517697998
 21
9.854869777399473
 31
0.0
 11
151.7365770702998
 21
9.851798112599482
 31
0.0
 11
151.6957021202
 21
9.84872169379949
 31
0.0
 11
151.6548269193999
 21
9.84564052469949
 31
0.0
 11
151.5691199392
 21
9.839164595799474
 31
0.0
 11
151.4834118544999
 21
9.832667833699474
 31
0.0
 11
151.3934794913
 21
9.825828596499491
 31
0.0
 11
151.3035459084
 21
9.818966500399485
 31
0.0
 11
151.2090947827
 21
9.811735241899466
 31
0.0
 11
151.1146423089001
 21
9.804478861299486
 31
0.0
 11
151.0794456102
 21
9.801768460099479
 31
0.0
  0
SPLINE
  5
563FB
330
1F
100
AcDbEntity
  8
1
100
AcDbSpline
210
0.0
220
0.0
230
1.0
 70
     8
 71
     3
 72
    18
 73
    14
 74
    12
 42
0.0000000001
 43
0.0000000001
 44
0.000001
 12
0.0515922785316099
 22
-0.9986682315944154
 32
0.0
 13
0.0566727812937915
 23
-0.9983928063945704
 33
0.0
 40
0.0
 40
0.0
 40
0.0
 40
0.0
 40
0.0490283246545314
 40
0.0934162747333665
 40
0.1375421064642612
 40
0.1835612368857758
 40
0.2297542151095752
 40
0.2751383245141957
 40
0.319786682385482
 40
0.3650843474166497
 40
0.4133967282866086
 40
0.4670469899737663
 40
0.5285012915252266
 40
0.5285012915252266
 40
0.5285012915252266
 40
0.5285012915252266
 10
155.4202994355999
 20
-4.779340536000545
 30
0.0
 10
155.4211425965937
 20
-4.795661546094137
 30
0.0
 10
155.4227588477824
 20
-4.826758332201889
 30
0.0
 10
155.4251588171074
 20
-4.872542843837589
 30
0.0
 10
155.4275294152414
 20
-4.917324447884528
 30
0.0
 10
155.4299557340732
 20
-4.962705614633807
 30
0.0
 10
155.4324301825458
 20
-5.008504225799688
 30
0.0
 10
155.434903150899
 20
-5.053845319849141
 30
0.0
 10
155.4373807074791
 20
-5.098887277222154
 30
0.0
 10
155.4399313057596
 20
-5.144902778547276
 30
0.0
 10
155.4426673177955
 20
-5.193913239452363
 30
0.0
 10
155.4457246953565
 20
-5.248299686433201
 30
0.0
 10
155.4478903840695
 20
-5.286606705503548
 30
0.0
 10
155.4490513128
 20
-5.307058549700542
 30
0.0
 11
155.4202994355999
 21
-4.779340536000545
 31
0.0
 11
155.4228419276
 21
-4.828302897400504
 31
0.0
 11
155.4251662205
 21
-4.872629951900478
 31
0.0
 11
155.4274988438
 21
-4.916694086000518
 31
0.0
 11
155.4299559375999
 21
-4.962647574400506
 31
0.0
 11
155.4324476937
 21
-5.008773298800547
 31
0.0
 11
155.4349190322999
 21
-5.054090072100534
 31
0.0
 11
155.4373709371
 21
-5.098671055700492
 31
0.0
 11
155.4398775715999
 21
-5.143899313800516
 31
0.0
 11
155.4425701124998
 21
-5.192136607600531
 31
0.0
 11
155.4455805262
 21
-5.245702346200545
 31
0.0
 11
155.4490513128
 21
-5.307058549700542
 31
0.0
  0
SPLINE
  5
563FC
330
1F
100
AcDbEntity
  8
1
100
AcDbSpline
210
0.0
220
0.0
230
1.0
 70
     8
 71
     3
 72
    17
 73
    13
 74
    11
 42
0.0000000001
 43
0.0000000001
 44
0.000001
 12
0.0506273393449981
 22
-0.9987176139984947
 32
0.0
 13
0.0563495330189093
 23
-0.9984111027670669
 33
0.0
 40
0.0
 40
0.0
 40
0.0
 40
0.0
 40
0.1113424233121162
 40
0.2254287724320169
 40
0.3367061899274483
 40
0.4430332034614299
 40
0.5478334457026481
 40
0.6537760202323452
 40
0.7610033680935957
 40
0.8689002479227813
 40
0.9768183952429264
 40
1.084187299186175
 40
1.084187299186175
 40
1.084187299186175
 40
1.084187299186175
 10
155.4490513128
 20
-5.307058549700542
 30
0.0
 10
155.4509303030162
 20
-5.344125096149571
 30
0.0
 10
155.4547545036002
 20
-5.419170649805056
 30
0.0
 10
155.460525024721
 20
-5.531257609824161
 30
0.0
 10
155.4662730797713
 20
-5.641671691132648
 30
0.0
 10
155.4719210750346
 20
-5.748991404517466
 30
0.0
 10
155.4775443555266
 20
-5.854531653882993
 30
0.0
 10
155.4832407286974
 20
-5.960368528649009
 30
0.0
 10
155.4890477231968
 20
-6.067233141360723
 30
0.0
 10
155.4949386110556
 20
-6.174752679213346
 30
0.0
 10
155.5008877503347
 20
-6.282316272228106
 30
0.0
 10
155.5049082562007
 20
-6.35396591750424
 30
0.0
 10
155.5069249854
 20
-6.38969868610053
 30
0.0
 11
155.4490513128
 21
-5.307058549700542
 31
0.0
 11
155.4547173253999
 21
-5.41825670380055
 31
0.0
 11
155.4605832198998
 21
-5.532192144200536
 31
0.0
 11
155.4663686107
 21
-5.643319041600506
 31
0.0
 11
155.4719604285999
 21
-5.749498939700544
 31
0.0
 11
155.4775344572999
 21
-5.854150855100499
 31
0.0
 11
155.4832277539999
 21
-5.959940343700537
 31
0.0
 11
155.4890445804
 21
-6.06700980140053
 31
0.0
 11
155.4949485136
 21
-6.174745033400513
 31
0.0
 11
155.5009133130999
 21
-6.282498211800514
 31
0.0
 11
155.5069249854
 21
-6.38969868610053
 31
0.0
  0
SPLINE
  5
563FD
330
1F
100
AcDbEntity
  8
1
100
AcDbSpline
210
0.0
220
0.0
230
1.0
 70
     8
 71
     3
 72
    23
 73
    19
 74
    17
 42
0.0000000001
 43
0.0000000001
 44
0.000001
 12
0.0504523662547171
 22
-0.998726468428318
 32
0.0
 13
0.0583075796085066
 23
-0.9982986658110876
 33
0.0
 40
0.0
 40
0.0
 40
0.0
 40
0.0
 40
0.1146211636940991
 40
0.2266281293602288
 40
0.3313667938440447
 40
0.4257347868803691
 40
0.5099786702069146
 40
0.5850815332301789
 40
0.6521247424389657
 40
0.7111981296916397
 40
0.7636141604176583
 40
0.8118304683433111
 40
0.8583166991207283
 40
0.9051040277875916
 40
0.9522784441855517
 40
0.9994130760643617
 40
1.046127566802108
 40
1.092052241670012
 40
1.092052241670012
 40
1.092052241670012
 40
1.092052241670012
 10
155.5069249854
 20
-6.38969868610053
 30
0.0
 10
155.5088526217104
 20
-6.427857082774981
 30
0.0
 10
155.5126963543161
 20
-6.503301957724634
 30
0.0
 10
155.51843094045
 20
-6.613608602014648
 30
0.0
 10
155.5238460014555
 20
-6.717171667157048
 30
0.0
 10
155.5287573842532
 20
-6.811494070389916
 30
0.0
 10
155.5330930103995
 20
-6.895954450951501
 30
0.0
 10
155.5369165414992
 20
-6.971320842878516
 30
0.0
 10
155.5403586127815
 20
-7.03830562856508
 30
0.0
 10
155.5434930907911
 20
-7.09773392506908
 30
0.0
 10
155.5463951232645
 20
-7.150890045932758
 30
0.0
 10
155.5491760668458
 20
-7.199850694914451
 30
0.0
 10
155.551967090059
 20
-7.246931394300879
 30
0.0
 10
155.5548814372542
 20
-7.293656646743309
 30
0.0
 10
155.5579022145686
 20
-7.340591670114999
 30
0.0
 10
155.5609294274261
 20
-7.38750193413818
 30
0.0
 10
155.563871237243
 20
-7.434000286422193
 30
0.0
 10
155.5657120460545
 20
-7.464825161051049
 30
0.0
 10
155.5666046315998
 20
-7.480107341600527
 30
0.0
 11
155.5069249854
 21
-6.38969868610053
 31
0.0
 11
155.5127597189
 21
-6.504171314800514
 31
0.0
 11
155.5185614947999
 21
-6.616027923200504
 31
0.0
 11
155.5240215338
 21
-6.720624128600518
 31
0.0
 11
155.528919672
 21
-6.814864905700545
 31
0.0
 11
155.5332393363
 21
-6.898997964500522
 31
0.0
 11
155.5370602712999
 21
-6.97400356550051
 31
0.0
 11
155.5405100145001
 21
-7.040957961000515
 31
0.0
 11
155.5436282007
 21
-7.099948994100514
 31
0.0
 11
155.546490413
 21
-7.152286820200514
 31
0.0
 11
155.5492279807
 21
-7.200425350600512
 31
0.0
 11
155.551983886
 21
-7.246829818900494
 31
0.0
 11
155.5548877585999
 21
-7.293526946000525
 31
0.0
 11
155.5579034058999
 21
-7.340604875400543
 31
0.0
 11
155.5609275271999
 21
-7.387642394200526
 31
0.0
 11
155.5638591552999
 21
-7.434264804100536
 31
0.0
 11
155.5666046315998
 21
-7.480107341600527
 31
0.0
  0
SPLINE
  5
563FE
330
1F
100
AcDbEntity
  8
1
100
AcDbSpline
210
0.0
220
0.0
230
1.0
 70
     8
 71
     3
 72
    51
 73
    47
 74
    45
 42
0.0000000001
 43
0.0000000001
 44
0.000001
 12
0.0519585751108598
 22
-0.9986492409612342
 32
0.0
 13
0.0007280325313989
 23
-0.9999997349842816
 33
0.0
 40
0.0
 40
0.0
 40
0.0
 40
0.0
 40
0.0276025498076686
 40
0.0516163174780981
 40
0.0727715601085047
 40
0.0917472831289692
 40
0.1092221083858904
 40
0.1258820524610225
 40
0.1423516346594966
 40
0.1589356184665191
 40
0.1755671507197293
 40
0.1921072722112216
 40
0.2084010090983602
 40
0.2244263249786245
 40
0.2400949180331877
 40
0.2547795126457277
 40
0.2677316671993282
 40
0.2789001099008051
 40
0.2886578119831505
 40
0.2973374466856533
 40
0.3052155799365482
 40
0.3125518388504007
 40
0.3196053796087672
 40
0.3265926283864141
 40
0.3335804323002965
 40
0.3405769392680666
 40
0.3475499435991655
 40
0.354539799782317
 40
0.3617808506634123
 40
0.3695332841730212
 40
0.3780368148979912
 40
0.3873489803264398
 40
0.3973942254959761
 40
0.4081272711013237
 40
0.4196657677741435
 40
0.4321874503347898
 40
0.4458688137146649
 40
0.4608821717447685
 40
0.4773489736912193
 40
0.4953559234648261
 40
0.5149958491999329
 40
0.536492748904386
 40
0.5601718284149248
 40
0.5863621776670795
 40
0.6153925483391384
 40
0.6475915780988798
 40
0.6475915780988798
 40
0.6475915780988798
 40
0.6475915780988798
 10
155.5666046315998
 20
-7.480107341600527
 30
0.0
 10
155.5670826946522
 20
-7.489295763405202
 30
0.0
 10
155.5679477709263
 20
-7.506479472927988
 30
0.0
 10
155.5691020540468
 20
-7.530709209914039
 30
0.0
 10
155.570055265727
 20
-7.552069561991898
 30
0.0
 10
155.5708560789464
 20
-7.571254811640953
 30
0.0
 10
155.571543880629
 20
-7.588944966942811
 30
0.0
 10
155.5721510539161
 20
-7.605802176100144
 30
0.0
 10
155.5726987250884
 20
-7.622364318388485
 30
0.0
 10
155.5731947618665
 20
-7.638918616330439
 30
0.0
 10
155.5736368018642
 20
-7.655497967936458
 30
0.0
 10
155.5740214927644
 20
-7.671981973175851
 30
0.0
 10
155.5743484299108
 20
-7.688265111040696
 30
0.0
 10
155.5746182943649
 20
-7.704258743323759
 30
0.0
 10
155.5748304844958
 20
-7.719716813350002
 30
0.0
 10
155.5749849166531
 20
-7.734151122188437
 30
0.0
 10
155.575087397017
 20
-7.747085794972319
 30
0.0
 10
155.5751492255915
 20
-7.758378401737546
 30
0.0
 10
155.5751822217768
 20
-7.768246946593299
 30
0.0
 10
155.5751945424951
 20
-7.777018765693082
 30
0.0
 10
155.5751938642098
 20
-7.784983443251114
 30
0.0
 10
155.5751856597213
 20
-7.792406083856732
 30
0.0
 10
155.5751728961618
 20
-7.799531755569155
 30
0.0
 10
155.5751575608261
 20
-7.806541270008384
 30
0.0
 10
155.5751414028279
 20
-7.813531771201883
 30
0.0
 10
155.5751262449781
 20
-7.820517526588716
 30
0.0
 10
155.5751142979723
 20
-7.827503972593745
 30
0.0
 10
155.5751061275001
 20
-7.83457193847598
 30
0.0
 10
155.5750981424037
 20
-7.841899714318577
 30
0.0
 10
155.5750916261162
 20
-7.849732050063919
 30
0.0
 10
155.5750858218941
 20
-7.858254757980333
 30
0.0
 10
155.5750802040894
 20
-7.867541736726228
 30
0.0
 10
155.5750734169998
 20
-7.877571886511161
 30
0.0
 10
155.5750651547744
 20
-7.888344145833975
 30
0.0
 10
155.5750558596104
 20
-7.899941883720128
 30
0.0
 10
155.5750459389709
 20
-7.912522394017224
 30
0.0
 10
155.5750363414512
 20
-7.926261192022245
 30
0.0
 10
155.5750278819339
 20
-7.941315030808921
 30
0.0
 10
155.5750205520789
 20
-7.957810732461832
 30
0.0
 10
155.5750143695827
 20
-7.975848623913658
 30
0.0
 10
155.575009420569
 20
-7.995563215062584
 30
0.0
 10
155.5750066003357
 20
-8.017168516600827
 30
0.0
 10
155.5750071302936
 20
-8.040957292839571
 30
0.0
 10
155.5750120852649
 20
-8.067257225708122
 30
0.0
 10
155.575023779754
 20
-8.096397140016206
 30
0.0
 10
155.5750348359196
 20
-8.116806937425069
 30
0.0
 10
155.5750426499
 20
-8.127539944500567
 30
0.0
 11
155.5666046315998
 21
-7.480107341600527
 31
0.0
 11
155.5679956625999
 21
-7.507674867300493
 31
0.0
 11
155.5691356104999
 21
-7.531661562400557
 31
0.0
 11
155.5700779623998
 21
-7.552795807700562
 31
0.0
 11
155.5708685472
 21
-7.571755056300531
 31
0.0
 11
155.5715469174999
 21
-7.589216711400553
 31
0.0
 11
155.5721461117999
 21
-7.605865878700541
 31
0.0
 11
155.5726899881999
 21
-7.622326480500503
 31
0.0
 11
155.5731861839999
 21
-7.638903042100507
 31
0.0
 11
155.5736293809
 21
-7.655528671100539
 31
0.0
 11
155.5740153638
 21
-7.672064291600491
 31
0.0
 11
155.5743424544
 21
-7.688354748700561
 31
0.0
 11
155.5746128048
 21
-7.704377788100514
 31
0.0
 11
155.5748278244999
 21
-7.720044910500547
 31
0.0
 11
155.574984875
 21
-7.734728670800535
 31
0.0
 11
155.5750874324
 21
-7.747680425600519
 31
0.0
 11
155.575148564
 21
-7.75884870820053
 31
0.0
 11
155.575181084
 21
-7.768606364700503
 31
0.0
 11
155.5751936561
 21
-7.777286001100519
 31
0.0
 11
155.5751934582999
 21
-7.785164148400524
 31
0.0
 11
155.5751856954
 21
-7.792500422300491
 31
0.0
 11
155.5751733798999
 21
-7.799553980200556
 31
0.0
 11
155.5751584020999
 21
-7.806541258100508
 31
0.0
 11
155.5751425408
 21
-7.813529127400527
 31
0.0
 11
155.5751276614
 21
-7.82052580520056
 31
0.0
 11
155.5751153920999
 21
-7.827499253500518
 31
0.0
 11
155.5751056516
 21
-7.83448896820053
 31
0.0
 11
155.5750977276999
 21
-7.84172968790054
 31
0.0
 11
155.5750910652
 21
-7.849481980400553
 31
0.0
 11
155.5750851339
 21
-7.857985437400515
 31
0.0
 11
155.5750792612
 21
-7.867297557400518
 31
0.0
 11
155.5750724373999
 21
-7.877342770700494
 31
0.0
 11
155.5750643097001
 21
-7.888075791800531
 31
0.0
 11
155.5750551524999
 21
-7.899614268600514
 31
0.0
 11
155.5750454284
 21
-7.912135934700501
 31
0.0
 11
155.5750359527999
 21
-7.9258172848005
 31
0.0
 11
155.5750274383
 21
-7.940830632500508
 31
0.0
 11
155.5750200495
 21
-7.957297426400514
 31
0.0
 11
155.575013822
 21
-7.975304369800511
 31
0.0
 11
155.5750089548
 21
-7.994944290400525
 31
0.0
 11
155.5750062183
 21
-8.016441186000491
 31
0.0
 11
155.5750067359999
 21
-8.040120262100542
 31
0.0
 11
155.5750117901
 21
-8.066310607900533
 31
0.0
 11
155.5750230014
 21
-8.09534097370053
 31
0.0
 11
155.5750426499
 21
-8.127539944500567
 31
0.0
  0
SPLINE
  5
563FF
330
1F
100
AcDbEntity
  8
1
100
AcDbSpline
210
0.0
220
0.0
230
1.0
 70
     8
 71
     3
 72
    22
 73
    18
 74
    16
 42
0.0000000001
 43
0.0000000001
 44
0.000001
 12
-0.2382177141457797
 22
-0.9712117795142106
 32
0.0
 13
-0.3859148111503707
 23
-0.9225344213278839
 33
0.0
 40
0.0
 40
0.0
 40
0.0
 40
0.0
 40
0.0156358222972409
 40
0.0312733242903551
 40
0.0469126745976633
 40
0.0625540825539556
 40
0.0781980102574297
 40
0.0938441266270151
 40
0.1094928045087132
 40
0.1251435419746352
 40
0.1407961231207908
 40
0.1564506671884283
 40
0.1721069671869427
 40
0.1877654197993383
 40
0.2034258594400815
 40
0.2190883542941064
 40
0.2347527909645365
 40
0.2347527909645365
 40
0.2347527909645365
 40
0.2347527909645365
 10
155.5325862075001
 20
-8.568043247800543
 30
0.0
 10
155.5313446308846
 20
-8.573105146066367
 30
0.0
 10
155.52880863298
 20
-8.583216640906517
 30
0.0
 10
155.5248469459762
 20
-8.59834431937247
 30
0.0
 10
155.5207277125639
 20
-8.613431805546863
 30
0.0
 10
155.5164521779365
 20
-8.628477967435827
 30
0.0
 10
155.5120198160586
 20
-8.643481034318613
 30
0.0
 10
155.5074312840981
 20
-8.658439610493427
 30
0.0
 10
155.5026870297773
 20
-8.673351911932412
 30
0.0
 10
155.4977875669693
 20
-8.688216211071724
 30
0.0
 10
155.4927334748502
 20
-8.703030713829935
 30
0.0
 10
155.4875253175101
 20
-8.71779372399747
 30
0.0
 10
155.4821636415374
 20
-8.732503758921039
 30
0.0
 10
155.476648818779
 20
-8.747159162533925
 30
0.0
 10
155.4709822680992
 20
-8.761758791253178
 30
0.0
 10
155.4651635727078
 20
-8.776300584494123
 30
0.0
 10
155.4611837536397
 20
-8.785954988794127
 30
0.0
 10
155.4591687075999
 20
-8.790771982800521
 30
0.0
 11
155.5325862075001
 21
-8.568043247800543
 31
0.0
 11
155.5287826704
 21
-8.583209473500545
 31
0.0
 11
155.5248214219999
 21
-8.59833700920049
 31
0.0
 11
155.5207028376
 21
-8.613424359300521
 31
0.0
 11
155.5164272868
 21
-8.628470035500496
 31
0.0
 11
155.5119950303001
 21
-8.643472935500511
 31
0.0
 11
155.507406619
 21
-8.658431111000508
 31
0.0
 11
155.5026624094
 21
-8.673343294900547
 31
0.0
 11
155.4977630242998
 21
-8.688207387900519
 31
0.0
 11
155.4927090474
 21
-8.703021578000544
 31
0.0
 11
155.4875009786001
 21
-8.717784378600555
 31
0.0
 11
155.4821394271999
 21
-8.732493994700547
 31
0.0
 11
155.4766248166
 21
-8.747149203500496
 31
0.0
 11
155.4709577711
 21
-8.761748313400545
 31
0.0
 11
155.4651388557999
 21
-8.77628979910051
 31
0.0
 11
155.4591687075999
 21
-8.790771982800521
 31
0.0
  0
SPLINE
  5
56400
330
1F
100
AcDbEntity
  8
1
100
AcDbSpline
210
0.0
220
0.0
230
1.0
 70
     8
 71
     3
 72
    22
 73
    18
 74
    16
 42
0.0000000001
 43
0.0000000001
 44
0.000001
 12
-0.3863981097483918
 22
-0.9223320989659146
 32
0.0
 13
-0.5231643076470807
 23
-0.8522318388819741
 33
0.0
 40
0.0
 40
0.0
 40
0.0
 40
0.0
 40
0.0156139816944912
 40
0.0312303914146973
 40
0.0468484893826627
 40
0.0624685431145724
 40
0.0780904925371647
 40
0.0937142726398997
 40
0.1093404025066996
 40
0.124968554931833
 40
0.1405990077508715
 40
0.1562313369177874
 40
0.171865108411628
 40
0.187500409410609
 40
0.2031368777950067
 40
0.2187748556326161
 40
0.2344144700086362
 40
0.2344144700086362
 40
0.2344144700086362
 40
0.2344144700086362
 10
155.4591687075999
 20
-8.790771982800521
 30
0.0
 10
155.4571576365957
 20
-8.795572408303685
 30
0.0
 10
155.4530857524818
 20
-8.805153383677158
 30
0.0
 10
155.4468302313857
 20
-8.819462163906306
 30
0.0
 10
155.4404270595879
 20
-8.833707717668167
 30
0.0
 10
155.4338779583664
 20
-8.847888804252411
 30
0.0
 10
155.4271827104365
 20
-8.86200357942662
 30
0.0
 10
155.4203421620767
 20
-8.876050762859652
 30
0.0
 10
155.4133569272007
 20
-8.890028873918621
 30
0.0
 10
155.4062276852744
 20
-8.903936588067754
 30
0.0
 10
155.398955232736
 20
-8.917772289685549
 30
0.0
 10
155.3915403834913
 20
-8.931534330172404
 30
0.0
 10
155.3839840770773
 20
-8.945221058806854
 30
0.0
 10
155.3762871175602
 20
-8.958830767231978
 30
0.0
 10
155.3684509687819
 20
-8.972362438344132
 30
0.0
 10
155.3604756070973
 20
-8.985814183826898
 30
0.0
 10
155.3550667299755
 20
-8.994727499594162
 30
0.0
 10
155.3523393672999
 20
-8.999170358700522
 30
0.0
 11
155.4591687075999
 21
-8.790771982800521
 31
0.0
 11
155.4530616377001
 21
-8.805142175800511
 31
0.0
 11
155.4468064038001
 21
-8.819451147400542
 31
0.0
 11
155.4404039355999
 21
-8.833696688300532
 31
0.0
 11
155.4338548255
 21
-8.847877461800491
 31
0.0
 11
155.4271597391999
 21
-8.861992010500529
 31
0.0
 11
155.4203193897999
 21
-8.876038777100546
 31
0.0
 11
155.4133342477
 21
-8.890016735900557
 31
0.0
 11
155.406205185
 21
-8.903924116300544
 31
0.0
 11
155.3989328033001
 21
-8.917759690100496
 31
0.0
 11
155.3915180374999
 21
-8.931521610700512
 31
0.0
 11
155.3839618776
 21
-8.94520804770056
 31
0.0
 11
155.3762650791999
 21
-8.958817637000521
 31
0.0
 11
155.3684286019
 21
-8.972348663300492
 31
0.0
 11
155.3604531054001
 21
-8.985800002000559
 31
0.0
 11
155.3523393672999
 21
-8.999170358700522
 31
0.0
  0
SPLINE
  5
56401
330
1F
100
AcDbEntity
  8
1
100
AcDbSpline
210
0.0
220
0.0
230
1.0
 70
     8
 71
     3
 72
    13
 73
     9
 74
     7
 42
0.0000000001
 43
0.0000000001
 44
0.000001
 12
-0.9997224236787534
 22
0.0235600423148829
 32
0.0
 13
-0.9996688542342699
 23
0.0257328947835721
 33
0.0
 40
0.0
 40
0.0
 40
0.0
 40
0.0
 40
0.1295618701761237
 40
0.259172528246952
 40
0.3887834850122625
 40
0.518550313687233
 40
0.6484250096572663
 40
0.7784033136700286
 40
0.7784033136700286
 40
0.7784033136700286
 40
0.7784033136700286
 10
150.6460817257999
 20
-9.791337186900506
 30
0.0
 10
150.6029064235103
 20
-9.790319692519258
 30
0.0
 10
150.5165399908248
 20
-9.788266031806713
 30
0.0
 10
150.386983366644
 20
-9.785133128833734
 30
0.0
 10
150.2573596516255
 20
-9.781948987294001
 30
0.0
 10
150.1276491134249
 20
-9.778715703984261
 30
0.0
 10
149.9978172787733
 20
-9.775434975217864
 30
0.0
 10
149.9112279590826
 20
-9.773219083307596
 30
0.0
 10
149.867916205
 20
-9.772104177300493
 30
0.0
 11
150.6460817257999
 21
-9.791337186900506
 31
0.0
 11
150.5165564400999
 21
-9.788258301800508
 31
0.0
 11
150.3869836457998
 21
-9.785125424100499
 31
0.0
 11
150.2574117658
 21
-9.78194289460049
 31
0.0
 11
150.1276852375999
 21
-9.778709153000503
 31
0.0
 11
149.9978519896999
 21
-9.775428430500484
 31
0.0
 11
149.867916205
 21
-9.772104177300493
 31
0.0
  0
SPLINE
  5
56402
330
1F
100
AcDbEntity
  8
1
100
AcDbSpline
210
0.0
220
0.0
230
1.0
 70
     8
 71
     3
 72
    12
 73
     8
 74
     6
 42
0.0000000001
 43
0.0000000001
 44
0.000001
 12
-0.9996545393395866
 22
0.0262831120257685
 32
0.0
 13
-0.9996035206037316
 23
0.0281567327050792
 33
0.0
 40
0.0
 40
0.0
 40
0.0
 40
0.0
 40
0.1553766950649309
 40
0.3109298113867693
 40
0.4666509789873718
 40
0.6225323853070551
 40
0.7785656025623604
 40
0.7785656025623604
 40
0.7785656025623604
 40
0.7785656025623604
 10
149.867916205
 20
-9.772104177300493
 30
0.0
 10
149.8161418654902
 20
-9.770742916272965
 30
0.0
 10
149.7125350087367
 20
-9.767995635878556
 30
0.0
 10
149.5570410751591
 20
-9.763807333573305
 30
0.0
 10
149.4013806110853
 20
-9.759553854702373
 30
0.0
 10
149.2455617181673
 20
-9.755239859434187
 30
0.0
 10
149.1416309576999
 20
-9.752328016864295
 30
0.0
 10
149.0896405066
 20
-9.750863555000504
 30
0.0
 11
149.867916205
 21
-9.772104177300493
 31
0.0
 11
149.7125940575999
 21
-9.767987233400504
 31
0.0
 11
149.557097326
 21
-9.763799181100496
 31
0.0
 11
149.4014342660999
 21
-9.759545517400511
 31
0.0
 11
149.2456125633
 21
-9.755231782600503
 31
0.0
 11
149.0896405066
 21
-9.750863555000504
 31
0.0
  0
SPLINE
  5
56403
330
1F
100
AcDbEntity
  8
1
100
AcDbSpline
210
0.0
220
0.0
230
1.0
 70
     8
 71
     3
 72
    12
 73
     8
 74
     6
 42
0.0000000001
 43
0.0000000001
 44
0.000001
 12
-0.9995796714821864
 22
0.0289910392977652
 32
0.0
 13
-0.9995330785220593
 23
0.0305552767981999
 33
0.0
 40
0.0
 40
0.0
 40
0.0
 40
0.0
 40
0.1554126776822233
 40
0.3110002561035021
 40
0.4667550574545049
 40
0.6226686105447394
 40
0.7787326980194446
 40
0.7787326980194446
 40
0.7787326980194446
 40
0.7787326980194446
 10
149.0896405066
 20
-9.750863555000504
 30
0.0
 10
149.0378580554994
 20
-9.749361696651819
 30
0.0
 10
148.934235456318
 20
-9.746336302960223
 30
0.0
 10
148.7787183333018
 20
-9.741740270316689
 30
0.0
 10
148.6230358407255
 20
-9.737088297442635
 30
0.0
 10
148.4671959803624
 20
-9.732385058115045
 30
0.0
 10
148.3632516082001
 20
-9.729220003730844
 30
0.0
 10
148.3112545356
 20
-9.727630476600495
 30
0.0
 11
149.0896405066
 21
-9.750863555000504
 31
0.0
 11
148.9342939742
 21
-9.746329644300516
 31
0.0
 11
148.7787742826001
 21
-9.741733864800494
 31
0.0
 11
148.6230889738
 21
-9.737081699400533
 31
0.0
 11
148.4672463715999
 21
-9.732378703300554
 31
0.0
 11
148.3112545356
 21
-9.727630476600495
 31
0.0
  0
SPLINE
  5
56404
330
1F
100
AcDbEntity
  8
1
100
AcDbSpline
210
0.0
220
0.0
230
1.0
 70
     8
 71
     3
 72
    12
 73
     8
 74
     6
 42
0.0000000001
 43
0.0000000001
 44
0.000001
 12
-0.9994982068273007
 22
0.0316754565714673
 32
0.0
 13
-0.9994576284511412
 23
0.0329309722118985
 33
0.0
 40
0.0
 40
0.0
 40
0.0
 40
0.0
 40
0.1554501920057915
 40
0.3110740523114387
 40
0.466863686248359
 40
0.6228106202607976
 40
0.778906310804334
 40
0.778906310804334
 40
0.778906310804334
 40
0.778906310804334
 10
148.3112545356
 20
-9.727630476600495
 30
0.0
 10
148.259463806213
 20
-9.725989157998526
 30
0.0
 10
148.1558250183035
 20
-9.722687904208417
 30
0.0
 10
148.0002841451185
 20
-9.717687484501182
 30
0.0
 10
147.8445791133303
 20
-9.712640347776281
 30
0.0
 10
147.688718088507
 20
-9.707551208949652
 30
0.0
 10
147.5847599890274
 20
-9.704135186049722
 30
0.0
 10
147.5327563128
 20
-9.702421725100492
 30
0.0
 11
148.3112545356
 21
-9.727630476600495
 31
0.0
 11
148.1558830922999
 21
-9.722682985700487
 31
0.0
 11
148.0003395771
 21
-9.717682818900501
 31
0.0
 11
147.8446317276999
 21
-9.712635484300532
 31
0.0
 11
147.6887678506
 21
-9.707546566200532
 31
0.0
 11
147.5327563128
 21
-9.702421725100492
 31
0.0
  0
SPLINE
  5
56405
330
1F
100
AcDbEntity
  8
1
100
AcDbSpline
210
0.0
220
0.0
230
1.0
 70
     8
 71
     3
 72
    52
 73
    48
 74
    46
 42
0.0000000001
 43
0.0000000001
 44
0.000001
 12
0.9929584595755571
 22
0.1184630641058077
 32
0.0
 13
0.9879429596879122
 23
0.154818307712907
 33
0.0
 40
0.0
 40
0.0
 40
0.0
 40
0.0
 40
0.0031813481729009
 40
0.006335649678503
 40
0.0094639614807361
 40
0.0125676516091859
 40
0.0156485858415056
 40
0.0187082723412234
 40
0.0217483051858397
 40
0.0247700666362237
 40
0.0277747140604091
 40
0.0307639808565578
 40
0.0337392306250636
 40
0.0367018633630191
 40
0.0396525758136537
 40
0.0425938294416125
 40
0.0455284660662629
 40
0.0484565706184605
 40
0.0513783534111688
 40
0.0542944633803197
 40
0.0572061745568683
 40
0.0601137785644701
 40
0.063017555456491
 40
0.065915612756182
 40
0.0688058197235541
 40
0.0716878366390773
 40
0.0745615615504136
 40
0.0774284385668344
 40
0.0802901817884437
 40
0.0831488551069648
 40
0.0860050549567409
 40
0.0888590848254665
 40
0.0917118411718045
 40
0.0945651460921708
 40
0.0974198796552932
 40
0.1002766986389894
 40
0.1031372295785171
 40
0.1060028803778607
 40
0.1088742744019953
 40
0.1117523118073516
 40
0.1146385854751455
 40
0.1175343318442741
 40
0.1204412452044326
 40
0.1233608187552762
 40
0.1262948901110709
 40
0.129244582600033
 40
0.1322103368672245
 40
0.1322103368672245
 40
0.1322103368672245
 40
0.1322103368672245
 10
154.203543587
 20
-9.781845906100526
 30
0.0
 10
154.2045965691937
 20
-9.781720282016344
 30
0.0
 10
154.2066934572619
 20
-9.781469059158281
 30
0.0
 10
154.209825340623
 20
-9.781090706952978
 30
0.0
 10
154.2129311588579
 20
-9.780712442239828
 30
0.0
 10
154.2160123395869
 20
-9.780334181025358
 30
0.0
 10
154.2190704590774
 20
-9.779955813903173
 30
0.0
 10
154.2221071676327
 20
-9.77957721492608
 30
0.0
 10
154.2251239549167
 20
-9.779198271132505
 30
0.0
 10
154.228122193927
 20
-9.778818877824621
 30
0.0
 10
154.2311033031379
 20
-9.778438918693494
 30
0.0
 10
154.2340686942314
 20
-9.778058272346873
 30
0.0
 10
154.2370198584692
 20
-9.77767680122174
 30
0.0
 10
154.2399579438174
 20
-9.777294406622445
 30
0.0
 10
154.2428844606168
 20
-9.776910937884444
 30
0.0
 10
154.2458013950304
 20
-9.776526175776849
 30
0.0
 10
154.2487105301214
 20
-9.776139920199035
 30
0.0
 10
154.2516129044472
 20
-9.775752064400924
 30
0.0
 10
154.2545088317927
 20
-9.77536259608807
 30
0.0
 10
154.2573990186078
 20
-9.774971448457566
 30
0.0
 10
154.2602841978855
 20
-9.774578548313646
 30
0.0
 10
154.2631649804942
 20
-9.774183836546121
 30
0.0
 10
154.2660409314818
 20
-9.773787396314574
 30
0.0
 10
154.2689108163615
 20
-9.773389423268339
 30
0.0
 10
154.2717731967033
 20
-9.772990146026332
 30
0.0
 10
154.2746272257754
 20
-9.772589714488443
 30
0.0
 10
154.2774732371048
 20
-9.772188113984233
 30
0.0
 10
154.2803122418727
 20
-9.77178523208034
 30
0.0
 10
154.2831459654824
 20
-9.771380850533024
 30
0.0
 10
154.2859758528897
 20
-9.770974785596575
 30
0.0
 10
154.2888028830666
 20
-9.770566916201257
 30
0.0
 10
154.2916276495247
 20
-9.7701571744697
 30
0.0
 10
154.2944511498191
 20
-9.769745431700723
 30
0.0
 10
154.2972745712153
 20
-9.769331527997648
 30
0.0
 10
154.3000990214267
 20
-9.76891531142442
 30
0.0
 10
154.3029255432607
 20
-9.768496636565933
 30
0.0
 10
154.3057553531105
 20
-9.768075328973779
 30
0.0
 10
154.3085896558138
 20
-9.767651212105146
 30
0.0
 10
154.3114294162921
 20
-9.767224142116049
 30
0.0
 10
154.3142756600575
 20
-9.76679396338212
 30
0.0
 10
154.3171296142124
 20
-9.766360486567894
 30
0.0
 10
154.3199927670029
 20
-9.765923478841735
 30
0.0
 10
154.3228665732003
 20
-9.765482708276998
 30
0.0
 10
154.32575268499
 20
-9.765037908302172
 30
0.0
 10
154.3286525657697
 20
-9.764588836893292
 30
0.0
 10
154.3315673315955
 20
-9.764135301961715
 30
0.0
 10
154.3335154828505
 20
-9.763830729819401
 30
0.0
 10
154.3344921482
 20
-9.763677678800489
 30
0.0
 11
154.203543587
 21
-9.781845906100526
 31
0.0
 11
154.2067023490998
 21
-9.781467463300515
 31
0.0
 11
154.2098338891
 21
-9.781089137100508
 31
0.0
 11
154.2129392639999
 21
-9.780710898000537
 31
0.0
 11
154.2160198390997
 21
-9.780332672400504
 31
0.0
 11
154.2190774731
 21
-9.779954318500557
 31
0.0
 11
154.2221136691
 21
-9.779575730700512
 31
0.0
 11
154.2251300148
 21
-9.779196785600504
 31
0.0
 11
154.2281278871
 21
-9.778817379400519
 31
0.0
 11
154.2311084392999
 21
-9.778437431100512
 31
0.0
 11
154.2340733954999
 21
-9.778056780600481
 31
0.0
 11
154.2370241123999
 21
-9.777675308800496
 31
0.0
 11
154.2399619822
 21
-9.777292886100523
 31
0.0
 11
154.2428876993001
 21
-9.776909469300534
 31
0.0
 11
154.2458037072999
 21
-9.776524780500494
 31
0.0
 11
154.2487128257998
 21
-9.776138482900506
 31
0.0
 11
154.2516151407
 21
-9.775750595900516
 31
0.0
 11
154.2545108621999
 21
-9.775361121700512
 31
0.0
 11
154.2574006351001
 21
-9.774970002500479
 31
0.0
 11
154.2602857232999
 21
-9.774577093400496
 31
0.0
 11
154.2631664168999
 21
-9.774182378700542
 31
0.0
 11
154.2660429945
 21
-9.773785843400533
 31
0.0
 11
154.2689135827999
 21
-9.773387770600519
 31
0.0
 11
154.2717760734
 21
-9.772988482000528
 31
0.0
 11
154.2746301325
 21
-9.772588056600511
 31
0.0
 11
154.2774756619
 21
-9.772186540700515
 31
0.0
 11
154.2803140940999
 21
-9.771783762600476
 31
0.0
 11
154.2831471282999
 21
-9.77137950780056
 31
0.0
 11
154.2859768092
 21
-9.770973506400506
 31
0.0
 11
154.2888037283
 21
-9.77056569210049
 31
0.0
 11
154.291628187
 21
-9.770156038900495
 31
0.0
 11
154.2944510733
 21
-9.769744433700537
 31
0.0
 11
154.2972741907
 21
-9.769330626400543
 31
0.0
 11
154.30009841
 21
-9.76891449880051
 31
0.0
 11
154.3029243807999
 21
-9.768495962900516
 31
0.0
 11
154.3057537115998
 21
-9.768074785700491
 31
0.0
 11
154.308587794
 21
-9.767650761700506
 31
0.0
 11
154.3114272432999
 21
-9.767223798500481
 31
0.0
 11
154.3142729481999
 21
-9.766793760200528
 31
0.0
 11
154.3171264818999
 21
-9.766360404200526
 31
0.0
 11
154.3199890646
 21
-9.765923537200508
 31
0.0
 11
154.3228623685
 21
-9.765482892600543
 31
0.0
 11
154.3257478663999
 21
-9.765038229900511
 31
0.0
 11
154.3286473708001
 21
-9.764589251400508
 31
0.0
 11
154.3315619877
 21
-9.76413576440049
 31
0.0
 11
154.3344921482
 21
-9.763677678800489
 31
0.0
  0
SPLINE
  5
56406
330
1F
100
AcDbEntity
  8
1
100
AcDbSpline
210
0.0
220
0.0
230
1.0
 70
     8
 71
     3
 72
    49
 73
    45
 74
    43
 42
0.0000000001
 43
0.0000000001
 44
0.000001
 12
0.9779613301940019
 22
0.2087861026150406
 32
0.0
 13
0.9708871459790126
 23
0.2395373661304796
 33
0.0
 40
0.0
 40
0.0
 40
0.0
 40
0.0
 40
0.0031991018708739
 40
0.0063710498787634
 40
0.0095178874648778
 40
0.0126412498846259
 40
0.0157429393818662
 40
0.0188243935225057
 40
0.0218870406298742
 40
0.0249325074806809
 40
0.027962154257094
 40
0.0309776922581197
 40
0.0339803597586328
 40
0.036972067875976
 40
0.0399539990245991
 40
0.0429277335940465
 40
0.0458941985979582
 40
0.0488534973807335
 40
0.0518063039880419
 40
0.0547517253726949
 40
0.0576883844483229
 40
0.0606157781543312
 40
0.0635343698921647
 40
0.0664438860294507
 40
0.0693442039456156
 40
0.0722369152580389
 40
0.0751234772836763
 40
0.0780055378445594
 40
0.0808848536976171
 40
0.0837620420796133
 40
0.0866384573983091
 40
0.089515529460886
 40
0.0923941700207607
 40
0.0952761899253662
 40
0.0981626194214172
 40
0.1010541209778849
 40
0.1039524159460762
 40
0.1068586323055813
 40
0.1097734970225828
 40
0.1126988472580421
 40
0.1156360687070007
 40
0.1185862242093799
 40
0.1215513943352075
 40
0.1245327348696741
 40
0.1245327348696741
 40
0.1245327348696741
 40
0.1245327348696741
 10
154.3344921482
 20
-9.763677678800489
 30
0.0
 10
154.3355350141736
 20
-9.763455036129993
 30
0.0
 10
154.33761169787
 20
-9.763010719858968
 30
0.0
 10
154.3407135282967
 20
-9.762344216904667
 30
0.0
 10
154.3437901006174
 20
-9.761680347244841
 30
0.0
 10
154.346843214175
 20
-9.761018799187674
 30
0.0
 10
154.3498744696302
 20
-9.760359296949912
 30
0.0
 10
154.3528853990124
 20
-9.759701573215092
 30
0.0
 10
154.355877476079
 20
-9.759045367416891
 30
0.0
 10
154.3588521482833
 20
-9.758390418962033
 30
0.0
 10
154.3618109541034
 20
-9.757736441547622
 30
0.0
 10
154.3647553044718
 20
-9.757083171435073
 30
0.0
 10
154.3676867885465
 20
-9.756430299948915
 30
0.0
 10
154.3706068223088
 20
-9.755777551460147
 30
0.0
 10
154.3735169319919
 20
-9.755124620496456
 30
0.0
 10
154.3764183227668
 20
-9.754471268729401
 30
0.0
 10
154.3793118481211
 20
-9.753817333127777
 30
0.0
 10
154.3821980663836
 20
-9.753162714922549
 30
0.0
 10
154.3850769439782
 20
-9.752507448234517
 30
0.0
 10
154.3879479662864
 20
-9.751851677056729
 30
0.0
 10
154.390810236703
 20
-9.751195634863446
 30
0.0
 10
154.3936632998922
 20
-9.75053945628189
 30
0.0
 10
154.3965070591543
 20
-9.749883194033264
 30
0.0
 10
154.3993415413669
 20
-9.749226872147239
 30
0.0
 10
154.4021671397411
 20
-9.748570429402189
 30
0.0
 10
154.4049848090863
 20
-9.747913671994112
 30
0.0
 10
154.407796078124
 20
-9.747256268396638
 30
0.0
 10
154.4106025281474
 20
-9.746597869971237
 30
0.0
 10
154.413405466807
 20
-9.745938187545194
 30
0.0
 10
154.4162061057297
 20
-9.745276950735988
 30
0.0
 10
154.4190055497415
 20
-9.744613910980948
 30
0.0
 10
154.4218049984208
 20
-9.743948793713759
 30
0.0
 10
154.4246057985781
 20
-9.743281285774738
 30
0.0
 10
154.4274091666146
 20
-9.742611101246879
 30
0.0
 10
154.4302162373124
 20
-9.741937970132006
 30
0.0
 10
154.4330281157673
 20
-9.741261626534701
 30
0.0
 10
154.4358459380215
 20
-9.740581793894127
 30
0.0
 10
154.4386708602369
 20
-9.739898187369659
 30
0.0
 10
154.4415040753817
 20
-9.739210510101255
 30
0.0
 10
154.4443468591073
 20
-9.738518441694962
 30
0.0
 10
154.4472005949429
 20
-9.73782163161063
 30
0.0
 10
154.4500667443535
 20
-9.737119706463543
 30
0.0
 10
154.4529466933787
 20
-9.736412307226217
 30
0.0
 10
154.4548713195991
 20
-9.735938162286881
 30
0.0
 10
154.455836168
 20
-9.735700114800494
 30
0.0
 11
154.3344921482
 21
-9.763677678800489
 31
0.0
 11
154.3376204521
 21
-9.763008365800516
 31
0.0
 11
154.3407216201
 21
-9.762341999600524
 31
0.0
 11
154.3437976643
 21
-9.761678231800516
 31
0.0
 11
154.3468501963999
 21
-9.761016792600512
 31
0.0
 11
154.3498809899999
 21
-9.760357369900503
 31
0.0
 11
154.3528914610999
 21
-9.759699722500499
 31
0.0
 11
154.3558830156
 21
-9.759043605500494
 31
0.0
 11
154.3588572521998
 21
-9.758388726000561
 31
0.0
 11
154.3618155081001
 21
-9.757734842600511
 31
0.0
 11
154.3647594623
 21
-9.757081632800492
 31
0.0
 11
154.367690331
 21
-9.756428871500503
 31
0.0
 11
154.3706099860999
 21
-9.755776182100502
 31
0.0
 11
154.3735195872
 21
-9.755123341400519
 31
0.0
 11
154.3764206814
 21
-9.754470035000508
 31
0.0
 11
154.3793141773999
 21
-9.753816087300519
 31
0.0
 11
154.3822001800999
 21
-9.753161502200498
 31
0.0
 11
154.3850793507999
 21
-9.752506156300539
 31
0.0
 11
154.3879508227
 21
-9.751850273300503
 31
0.0
 11
154.3908132579
 21
-9.75119418780048
 31
0.0
 11
154.3936661711
 21
-9.750538041700506
 31
0.0
 11
154.3965100189999
 21
-9.7498817605005
 31
0.0
 11
154.3993445399999
 21
-9.749225434500514
 31
0.0
 11
154.4021696198
 21
-9.74856912040056
 31
0.0
 11
154.4049868135
 21
-9.747912485100526
 31
0.0
 11
154.4077975443999
 21
-9.747255221400537
 31
0.0
 11
154.4106034202999
 21
-9.746596974200512
 31
0.0
 11
154.4134061539999
 21
-9.745937358800516
 31
0.0
 11
154.4162063482999
 21
-9.745276248000518
 31
0.0
 11
154.4190053228001
 21
-9.744613342300482
 31
0.0
 11
154.4218044696999
 21
-9.743948321400553
 31
0.0
 11
154.4246046762999
 21
-9.743280980900491
 31
0.0
 11
154.4274077038001
 21
-9.742610904900542
 31
0.0
 11
154.4302145532
 21
-9.741937854700495
 31
0.0
 11
154.4330258673001
 21
-9.741261674900499
 31
0.0
 11
154.4358433177999
 21
-9.740581959800492
 31
0.0
 11
154.4386679986
 21
-9.739898438700519
 31
0.0
 11
154.4415006132999
 21
-9.739210932900533
 31
0.0
 11
154.4443429436
 21
-9.738518998600511
 31
0.0
 11
154.4471963314999
 21
-9.737822294400556
 31
0.0
 11
154.4500618045999
 21
-9.737120552300522
 31
0.0
 11
154.4529413780999
 21
-9.736413258400515
 31
0.0
 11
154.455836168
 21
-9.735700114800494
 31
0.0
  0
SPLINE
  5
56407
330
1F
100
AcDbEntity
  8
1
100
AcDbSpline
210
0.0
220
0.0
230
1.0
 70
     8
 71
     3
 72
    49
 73
    45
 74
    43
 42
0.0000000001
 43
0.0000000001
 44
0.000001
 12
0.9558125474824942
 22
0.2939768257448619
 32
0.0
 13
0.9463732718980441
 23
0.3230752702343381
 33
0.0
 40
0.0
 40
0.0
 40
0.0
 40
0.0
 40
0.0032279228759836
 40
0.0064266149005196
 40
0.0095984394213914
 40
0.0127448369515541
 40
0.0158676209967436
 40
0.0189683693978937
 40
0.0220482834729814
 40
0.0251092436380509
 40
0.0281525558695892
 40
0.031180079980113
 40
0.0341930867766846
 40
0.0371936128155334
 40
0.0401833389501976
 40
0.0431635705261838
 40
0.0461360905592426
 40
0.0491016328893318
 40
0.0520592913950788
 40
0.0550082558435972
 40
0.0579486181887575
 40
0.0608790955143606
 40
0.0637980246896791
 40
0.0667048820751059
 40
0.0696018616461317
 40
0.0724915962160578
 40
0.0753761795879754
 40
0.0782560953119828
 40
0.0811316899668891
 40
0.0840045783265887
 40
0.0868758833840983
 40
0.0897461374124899
 40
0.0926161707634816
 40
0.0954879104415435
 40
0.0983627607042639
 40
0.1012426143976247
 40
0.1041287799356746
 40
0.1070230428233542
 40
0.1099261711915076
 40
0.1128385504974585
 40
0.1157618032054001
 40
0.1186974408253631
 40
0.1216464378893613
 40
0.1246106927935793
 40
0.1246106927935793
 40
0.1246106927935793
 40
0.1246106927935793
 10
154.455836168
 20
-9.735700114800494
 30
0.0
 10
154.456864597729
 20
-9.735383803293549
 30
0.0
 10
154.4589118775957
 20
-9.734753177760001
 30
0.0
 10
154.4619687900289
 20
-9.733808741595085
 30
0.0
 10
154.4649989599769
 20
-9.732869811640536
 30
0.0
 10
154.4680041956687
 20
-9.731935904570418
 30
0.0
 10
154.470986053479
 20
-9.731006608370616
 30
0.0
 10
154.4739460119642
 20
-9.730081528946479
 30
0.0
 10
154.4768855694193
 20
-9.729160260221799
 30
0.0
 10
154.4798061361126
 20
-9.728242417938552
 30
0.0
 10
154.4827093301664
 20
-9.727327546801548
 30
0.0
 10
154.4855965743188
 20
-9.726415247306723
 30
0.0
 10
154.488469522006
 20
-9.725505041538392
 30
0.0
 10
154.4913297681872
 20
-9.724596464282718
 30
0.0
 10
154.4941789171804
 20
-9.723689041556651
 30
0.0
 10
154.4970184912793
 20
-9.722782320139669
 30
0.0
 10
154.4998497106807
 20
-9.72187593833606
 30
0.0
 10
154.5026730925284
 20
-9.720969755947452
 30
0.0
 10
154.505488330747
 20
-9.720063896320379
 30
0.0
 10
154.5082949160381
 20
-9.719158549618011
 30
0.0
 10
154.5110922200318
 20
-9.718253945856471
 30
0.0
 10
154.5138793444811
 20
-9.71735040433573
 30
0.0
 10
154.516655196931
 20
-9.716448310539226
 30
0.0
 10
154.5194197878746
 20
-9.715547693833832
 30
0.0
 10
154.522174488829
 20
-9.71464813824442
 30
0.0
 10
154.5249214990016
 20
-9.713748951640504
 30
0.0
 10
154.5276624738293
 20
-9.712849613273426
 30
0.0
 10
154.5303983433969
 20
-9.711949836051012
 30
0.0
 10
154.5331298854142
 20
-9.711049380575925
 30
0.0
 10
154.5358580792365
 20
-9.710147938250599
 30
0.0
 10
154.538583962021
 20
-9.709245178046375
 30
0.0
 10
154.5413083218882
 20
-9.708340848601242
 30
0.0
 10
154.5440322005849
 20
-9.707434611867899
 30
0.0
 10
154.5467569145998
 20
-9.706526034821228
 30
0.0
 10
154.5494841150817
 20
-9.705614568421067
 30
0.0
 10
154.5522152561961
 20
-9.704699724720246
 30
0.0
 10
154.5549519112612
 20
-9.703780971377867
 30
0.0
 10
154.5576952968713
 20
-9.702857891469776
 30
0.0
 10
154.5604463370022
 20
-9.701930163145227
 30
0.0
 10
154.5632059033948
 20
-9.700997479764458
 30
0.0
 10
154.5659751016733
 20
-9.700059452831652
 30
0.0
 10
154.5687552223059
 20
-9.699115627533476
 30
0.0
 10
154.5715476416526
 20
-9.698165516073503
 30
0.0
 10
154.5734132387957
 20
-9.697529339918602
 30
0.0
 10
154.5743483359999
 20
-9.697210114100528
 30
0.0
 11
154.455836168
 21
-9.735700114800494
 31
0.0
 11
154.4589210572
 21
-9.734749876100494
 31
0.0
 11
154.4619772196
 21
-9.733805670000519
 31
0.0
 11
154.4650069343
 21
-9.732866876100528
 31
0.0
 11
154.4680115968001
 21
-9.731933139700515
 31
0.0
 11
154.4709929570999
 21
-9.731003989400534
 31
0.0
 11
154.4739525383999
 21
-9.73007901760056
 31
0.0
 11
154.4768915030999
 21
-9.729157924000503
 31
0.0
 11
154.47981166
 21
-9.728240199600547
 31
0.0
 11
154.4827142684
 21
-9.727325502500493
 31
0.0
 11
154.4856011142
 21
-9.726413318800522
 31
0.0
 11
154.4884734201999
 21
-9.725503307100495
 31
0.0
 11
154.4913331375998
 21
-9.724594889400492
 31
0.0
 11
154.4941818769
 21
-9.723687589800505
 31
0.0
 11
154.4970208893
 21
-9.722781041400507
 31
0.0
 11
154.4998518797
 21
-9.721874727600519
 31
0.0
 11
154.5026755525
 21
-9.720968447500496
 31
0.0
 11
154.5054910504999
 21
-9.720062500900496
 31
0.0
 11
154.5082976087001
 21
-9.719157160900492
 31
0.0
 11
154.511095321
 21
-9.718252424300516
 31
0.0
 11
154.5138829736
 21
-9.717348712200504
 31
0.0
 11
154.5166589921999
 21
-9.716446566400547
 31
0.0
 11
154.5194228873999
 21
-9.715546180000526
 31
0.0
 11
154.5221767530999
 21
-9.714646902100495
 31
0.0
 11
154.5249230984
 21
-9.713747939400519
 31
0.0
 11
154.527663918
 21
-9.712848659600496
 31
0.0
 11
154.5303996751999
 21
-9.711948928000508
 31
0.0
 11
154.5331307029
 21
-9.711048651700506
 31
0.0
 11
154.5358585377
 21
-9.710147338400533
 31
0.0
 11
154.538584248
 21
-9.709244646200515
 31
0.0
 11
154.5413083406999
 21
-9.708340416600519
 31
0.0
 11
154.5440316050001
 21
-9.707434395300479
 31
0.0
 11
154.5467558696999
 21
-9.706525978800499
 31
0.0
 11
154.5494824662
 21
-9.705614724400502
 31
0.0
 11
154.5522131879999
 21
-9.704700030600491
 31
0.0
 11
154.5549492730999
 21
-9.703781477500511
 31
0.0
 11
154.5576924105
 21
-9.702858489500499
 31
0.0
 11
154.5604433237
 21
-9.701930811700519
 31
0.0
 11
154.5632023731999
 21
-9.700998310300519
 31
0.0
 11
154.5659710905
 21
-9.700060452800528
 31
0.0
 11
154.5687509008
 21
-9.699116738700496
 31
0.0
 11
154.5715427196
 21
-9.698166836500488
 31
0.0
 11
154.5743483359999
 21
-9.697210114100528
 31
0.0
  0
SPLINE
  5
56408
330
1F
100
AcDbEntity
  8
1
100
AcDbSpline
210
0.0
220
0.0
230
1.0
 70
     8
 71
     3
 72
    50
 73
    46
 74
    44
 42
0.0000000001
 43
0.0000000001
 44
0.000001
 12
0.9265723513654974
 22
0.3761165745949167
 32
0.0
 13
0.9143796647886354
 23
0.4048577881442112
 33
0.0
 40
0.0
 40
0.0
 40
0.0
 40
0.0
 40
0.0031847836817589
 40
0.0063403317424866
 40
0.0094682667991777
 40
0.012570258604667
 40
0.0156480347962907
 40
0.0187028521050795
 40
0.0217365889486983
 40
0.0247505735022912
 40
0.0277459910321128
 40
0.0307248837331098
 40
0.0336886698127607
 40
0.0366388671518575
 40
0.0395775667532424
 40
0.0425054347859983
 40
0.0454230528349943
 40
0.0483313443445767
 40
0.051231463004942
 40
0.0541226221616484
 40
0.0570039074419885
 40
0.059875002308555
 40
0.0627367124589426
 40
0.0655887698148281
 40
0.0684308194082308
 40
0.071263263078522
 40
0.0740878560880221
 40
0.0769055583327216
 40
0.0797171875467605
 40
0.0825241976405419
 40
0.0853285348903193
 40
0.0881311280863369
 40
0.0909327248147169
 40
0.0937351735373667
 40
0.0965396859296715
 40
0.0993468676711995
 40
0.102157598339006
 40
0.1049736626659549
 40
0.1077962227283852
 40
0.110625867517936
 40
0.1134640079905595
 40
0.1163122435503159
 40
0.1191714759252447
 40
0.1220424515889714
 40
0.1249267626152116
 40
0.1249267626152116
 40
0.1249267626152116
 40
0.1249267626152116
 10
154.5743483359999
 20
-9.697210114100528
 30
0.0
 10
154.5753319801681
 20
-9.696810830790791
 30
0.0
 10
154.5772899099376
 20
-9.696015118906426
 30
0.0
 10
154.5802127851595
 20
-9.694824446869681
 30
0.0
 10
154.5831091413213
 20
-9.693641829815691
 30
0.0
 10
154.5859805520997
 20
-9.69246670070402
 30
0.0
 10
154.5888284761349
 20
-9.691298533008868
 30
0.0
 10
154.5916544343693
 20
-9.690136768557126
 30
0.0
 10
154.5944598225643
 20
-9.688980894605906
 30
0.0
 10
154.5972460125337
 20
-9.687830402585532
 30
0.0
 10
154.6000144247587
 20
-9.686684758530782
 30
0.0
 10
154.6027665055395
 20
-9.685543412180114
 30
0.0
 10
154.6055038016213
 20
-9.684405765869268
 30
0.0
 10
154.6082278728357
 20
-9.683271210864656
 30
0.0
 10
154.6109400456551
 20
-9.682139229986052
 30
0.0
 10
154.6136413569603
 20
-9.681009422364205
 30
0.0
 10
154.6163324835316
 20
-9.679881534662273
 30
0.0
 10
154.6190142511207
 20
-9.678755248457356
 30
0.0
 10
154.6216870640365
 20
-9.677630419581952
 30
0.0
 10
154.6243507616852
 20
-9.676507140777223
 30
0.0
 10
154.6270047324222
 20
-9.675385696338452
 30
0.0
 10
154.629648854101
 20
-9.674266165217431
 30
0.0
 10
154.6322832029246
 20
-9.673148542192711
 30
0.0
 10
154.6349078431469
 20
-9.672032826580764
 30
0.0
 10
154.6375227151828
 20
-9.6709190703864
 30
0.0
 10
154.6401283797979
 20
-9.669807060861408
 30
0.0
 10
154.6427257999316
 20
-9.668696410928966
 30
0.0
 10
154.6453160647025
 20
-9.667586675911495
 30
0.0
 10
154.6479001696962
 20
-9.666477447816312
 30
0.0
 10
154.6504794113375
 20
-9.665368185877074
 30
0.0
 10
154.6530551184256
 20
-9.664258330849262
 30
0.0
 10
154.6556284020257
 20
-9.663147413107113
 30
0.0
 10
154.6582003420626
 20
-9.66203497312078
 30
0.0
 10
154.6607721036705
 20
-9.660920510808093
 30
0.0
 10
154.6633448071424
 20
-9.659803541558728
 30
0.0
 10
154.6659192753701
 20
-9.658683706712135
 30
0.0
 10
154.668496505424
 20
-9.657560569144493
 30
0.0
 10
154.6710776630902
 20
-9.656433614645905
 30
0.0
 10
154.6736638239605
 20
-9.65530236451628
 30
0.0
 10
154.6762559482983
 20
-9.65416638731607
 30
0.0
 10
154.678855128694
 20
-9.653025190406189
 30
0.0
 10
154.6814625517404
 20
-9.651878235982502
 30
0.0
 10
154.684079199906
 20
-9.650725072325716
 30
0.0
 10
154.6867060522515
 20
-9.649565246153882
 30
0.0
 10
154.6884604934503
 20
-9.648789162261316
 30
0.0
 10
154.6893396119001
 20
-9.648399917000515
 30
0.0
 11
154.5743483359999
 21
-9.697210114100528
 31
0.0
 11
154.5772987737
 21
-9.696011043700508
 31
0.0
 11
154.5802211492
 21
-9.694820573800484
 31
0.0
 11
154.5831169914
 21
-9.693638162800539
 31
0.0
 11
154.5859878706
 21
-9.692463245400515
 31
0.0
 11
154.5888354085
 21
-9.691295228700539
 31
0.0
 11
154.5916607889998
 21
-9.690133693000518
 31
0.0
 11
154.5944657690999
 21
-9.68897797730048
 31
0.0
 11
154.5972515951
 21
-9.687827625200524
 31
0.0
 11
154.6000193794
 21
-9.686682230200544
 31
0.0
 11
154.6027710245999
 21
-9.685541054000507
 31
0.0
 11
154.6055078545
 21
-9.684403591300508
 31
0.0
 11
154.6082312833
 21
-9.683269294400533
 31
0.0
 11
154.6109432522
 21
-9.68213739010048
 31
0.0
 11
154.6136443856
 21
-9.681007649300511
 31
0.0
 11
154.6163352292001
 21
-9.6798798738005
 31
0.0
 11
154.6190166431
 21
-9.678753731000512
 31
0.0
 11
154.6216896985
 21
-9.677628796200508
 31
0.0
 11
154.6243536777001
 21
-9.676505396100507
 31
0.0
 11
154.6270077461999
 21
-9.675383909000544
 31
0.0
 11
154.629651621
 21
-9.674264482300486
 31
0.0
 11
154.6322860523
 21
-9.673146825200516
 31
0.0
 11
154.6349108013998
 21
-9.67203106520051
 31
0.0
 11
154.6375255498999
 21
-9.670917364300491
 31
0.0
 11
154.6401306758
 21
-9.6698055881005
 31
0.0
 11
154.6427278009
 21
-9.668695068500511
 31
0.0
 11
154.6453178141
 21
-9.667585446300536
 31
0.0
 11
154.6479014726001
 21
-9.666476415800532
 31
0.0
 11
154.650480117
 21
-9.665367417500505
 31
0.0
 11
154.6530555384
 21
-9.664257693100497
 31
0.0
 11
154.6556285918
 21
-9.663146883000507
 31
0.0
 11
154.6581999648999
 21
-9.662034697200509
 31
0.0
 11
154.6607713545
 21
-9.660920405600537
 31
0.0
 11
154.6633438713999
 21
-9.659803527300509
 31
0.0
 11
154.6659180694
 21
-9.658683820100492
 31
0.0
 11
154.6684947528
 21
-9.657560931000515
 31
0.0
 11
154.6710755543
 21
-9.656434142200508
 31
0.0
 11
154.6736615341999
 21
-9.655302981000515
 31
0.0
 11
154.6762532268001
 21
-9.654167202200511
 31
0.0
 11
154.6788519182
 21
-9.653026228300518
 31
0.0
 11
154.6814590654
 21
-9.651879402300494
 31
0.0
 11
154.6840754854
 21
-9.650726345000492
 31
0.0
 11
154.6867018520999
 21
-9.649566737500519
 31
0.0
 11
154.6893396119001
 21
-9.648399917000515
 31
0.0
  0
SPLINE
  5
56409
330
1F
100
AcDbEntity
  8
1
100
AcDbSpline
210
0.0
220
0.0
230
1.0
 70
     8
 71
     3
 72
    50
 73
    46
 74
    44
 42
0.0000000001
 43
0.0000000001
 44
0.000001
 12
0.8482949943631016
 22
0.5295239395329597
 32
0.0
 13
0.8279814298108638
 23
0.5607555188211327
 33
0.0
 40
0.0
 40
0.0
 40
0.0
 40
0.0
 40
0.0032626636295557
 40
0.0064912535548775
 40
0.0096878205657316
 40
0.0128543651693056
 40
0.0159927674538658
 40
0.0191047268642155
 40
0.0221918291935492
 40
0.0252558610486741
 40
0.0282982568534187
 40
0.0313207471977537
 40
0.0343242311005911
 40
0.0373099478746809
 40
0.0402801196908467
 40
0.0432374122651486
 40
0.0461841916616503
 40
0.0491202398544044
 40
0.0520443215013701
 40
0.054955271919645
 40
0.0578529786622968
 40
0.0607368244589382
 40
0.0636059885535902
 40
0.0664614100574277
 40
0.0693045062890626
 40
0.0721370526064421
 40
0.0749605549067561
 40
0.0777755899031292
 40
0.0805832304052379
 40
0.0833848113357188
 40
0.0861818373479849
 40
0.0889756844281784
 40
0.0917677688704344
 40
0.0945593398022513
 40
0.0973510145787841
 40
0.1001439537307784
 40
0.1029395379685659
 40
0.1057387778250697
 40
0.1085430600691317
 40
0.1113533220716895
 40
0.1141701404517181
 40
0.1169951308505553
 40
0.1198302832255012
 40
0.1226765367685183
 40
0.1255346580312168
 40
0.1255346580312168
 40
0.1255346580312168
 40
0.1255346580312168
 10
154.7999762174999
 20
-9.589549075600499
 30
0.0
 10
154.800898784575
 20
-9.588973189434335
 30
0.0
 10
154.8027337470596
 20
-9.587826571146592
 30
0.0
 10
154.8054707229244
 20
-9.586112752763916
 30
0.0
 10
154.8081789711048
 20
-9.584413429663339
 30
0.0
 10
154.8108602070449
 20
-9.582727621054925
 30
0.0
 10
154.8135160431402
 20
-9.581054401923241
 30
0.0
 10
154.8161479711772
 20
-9.579392914927783
 30
0.0
 10
154.8187574532219
 20
-9.577742313789537
 30
0.0
 10
154.821345873397
 20
-9.576101794054427
 30
0.0
 10
154.8239146534402
 20
-9.574470520266014
 30
0.0
 10
154.8264649623173
 20
-9.572847810652902
 30
0.0
 10
154.828997911572
 20
-9.571233014189102
 30
0.0
 10
154.8315147484873
 20
-9.569625387802913
 30
0.0
 10
154.8340172134856
 20
-9.568023866341061
 30
0.0
 10
154.8365073591367
 20
-9.566427175516473
 30
0.0
 10
154.8389865490968
 20
-9.564834473467874
 30
0.0
 10
154.8414550508509
 20
-9.563245617784993
 30
0.0
 10
154.8439121427311
 20
-9.561661103720195
 30
0.0
 10
154.8463571344335
 20
-9.56008141014734
 30
0.0
 10
154.8487895100924
 20
-9.558506906202145
 30
0.0
 10
154.8512088510922
 20
-9.556937900195849
 30
0.0
 10
154.8536150338067
 20
-9.555374511011299
 30
0.0
 10
154.8560085032032
 20
-9.553816487769893
 30
0.0
 10
154.8583904278496
 20
-9.552263104864893
 30
0.0
 10
154.8607621318407
 20
-9.550713529226372
 30
0.0
 10
154.8631247019173
 20
-9.549167076716898
 30
0.0
 10
154.865479026748
 20
-9.547623188135569
 30
0.0
 10
154.8678259455545
 20
-9.546081332755207
 30
0.0
 10
154.8701665540203
 20
-9.544540806842164
 30
0.0
 10
154.8725020297568
 20
-9.543000847288929
 30
0.0
 10
154.8748335704113
 20
-9.541460672077542
 30
0.0
 10
154.8771622999797
 20
-9.539919542215312
 30
0.0
 10
154.8794891292101
 20
-9.538376854687403
 30
0.0
 10
154.8818148958741
 20
-9.536832050699752
 30
0.0
 10
154.8841404724265
 20
-9.535284544416041
 30
0.0
 10
154.8864668382844
 20
-9.533733674189852
 30
0.0
 10
154.8887950333231
 20
-9.532178733141552
 30
0.0
 10
154.8911259722122
 20
-9.530619093044418
 30
0.0
 10
154.8934604472981
 20
-9.529054202998969
 30
0.0
 10
154.8957993124562
 20
-9.527483466937448
 30
0.0
 10
154.8981437105647
 20
-9.52590608987122
 30
0.0
 10
154.9004948817494
 20
-9.524321204906595
 30
0.0
 10
154.9028538285206
 20
-9.52272809916502
 30
0.0
 10
154.9044286676233
 20
-9.521662535257705
 30
0.0
 10
154.9052174913999
 20
-9.521128299500533
 30
0.0
 11
154.7999762174999
 21
-9.589549075600499
 31
0.0
 11
154.8027431038
 21
-9.587820113800518
 31
0.0
 11
154.8054794877999
 21
-9.58610664370056
 31
0.0
 11
154.8081871529
 21
-9.584407653900484
 31
0.0
 11
154.8108678354001
 21
-9.582722152300533
 31
0.0
 11
154.8135231659
 21
-9.581049204700493
 31
0.0
 11
154.8161546182
 21
-9.579387966700494
 31
0.0
 11
154.8187635665999
 21
-9.577737649000511
 31
0.0
 11
154.8213515519
 21
-9.576097349700518
 31
0.0
 11
154.8239198138999
 21
-9.574466349700514
 31
0.0
 11
154.8264698394998
 21
-9.572843766400552
 31
0.0
 11
154.8290024111
 21
-9.571229158900537
 31
0.0
 11
154.8315185961
 21
-9.569621900200528
 31
0.0
 11
154.834020287
 21
-9.568020829100504
 31
0.0
 11
154.8365097454
 21
-9.566424538200491
 31
0.0
 11
154.8389889757998
 21
-9.564831774200539
 31
0.0
 11
154.8414578059999
 21
-9.563242676400506
 31
0.0
 11
154.8439152093001
 21
-9.561657936100543
 31
0.0
 11
154.8463602208
 21
-9.560078210000511
 31
0.0
 11
154.8487927607
 21
-9.558503585700492
 31
0.0
 11
154.8512123259
 21
-9.556934425800506
 31
0.0
 11
154.8536182441
 21
-9.555371205900511
 31
0.0
 11
154.8560113188
 21
-9.553813442800533
 31
0.0
 11
154.8583927523
 21
-9.552260389300499
 31
0.0
 11
154.8607640438999
 21
-9.550711098100491
 31
0.0
 11
154.8631264640998
 21
-9.549164764300511
 31
0.0
 11
154.8654805039
 21
-9.547621088700537
 31
0.0
 11
154.8678270677
 21
-9.546079497800519
 31
0.0
 11
154.8701672767
 21
-9.544539270700511
 31
0.0
 11
154.8725023914
 21
-9.542999589400494
 31
0.0
 11
154.8748335621001
 21
-9.541459702500503
 31
0.0
 11
154.8771619701
 21
-9.539918832400502
 31
0.0
 11
154.8794886548
 21
-9.538376290000512
 31
0.0
 11
154.8818141271
 21
-9.536831732400514
 31
0.0
 11
154.8841393487
 21
-9.535284513700533
 31
0.0
 11
154.8864654623
 21
-9.533733862600538
 31
0.0
 11
154.8887933002
 21
-9.532179209600514
 31
0.0
 11
154.8911240050999
 21
-9.530619772600543
 31
0.0
 11
154.8934583442001
 21
-9.529055016500477
 31
0.0
 11
154.8957967832
 21
-9.527484604400539
 31
0.0
 11
154.8981406484
 21
-9.525907617300504
 31
0.0
 11
154.9004915732
 21
-9.524322922200523
 31
0.0
 11
154.9028503162999
 21
-9.522729968500527
 31
0.0
 11
154.9052174913999
 21
-9.521128299500533
 31
0.0
  0
SPLINE
  5
5640A
330
1F
100
AcDbEntity
  8
1
100
AcDbSpline
210
0.0
220
0.0
230
1.0
 70
     8
 71
     3
 72
    50
 73
    46
 74
    44
 42
0.0000000001
 43
0.0000000001
 44
0.000001
 12
0.8000132896748388
 22
0.5999822800247041
 32
0.0
 13
0.7736768514614588
 23
0.6335804049311216
 33
0.0
 40
0.0
 40
0.0
 40
0.0
 40
0.0
 40
0.0032927523545204
 40
0.0065502429967399
 40
0.0097739380864521
 40
0.0129662015724587
 40
0.0161289039621671
 40
0.0192630630358953
 40
0.022369746197907
 40
0.0254509740224561
 40
0.0285088282382686
 40
0.0315452912581533
 40
0.0345614631311132
 40
0.0375584998119979
 40
0.0405398363641143
 40
0.0435074467045965
 40
0.0464610443515457
 40
0.0494004332730331
 40
0.0523262216963494
 40
0.0552384397552275
 40
0.058136304423499
 40
0.0610196873667756
 40
0.0638893585746651
 40
0.0667457629332987
 40
0.0695890065858877
 40
0.0724204340893812
 40
0.0752417453345073
 40
0.0780540445977406
 40
0.0808589128725765
 40
0.0836577873917568
 40
0.0864508886011011
 40
0.089238140470861
 40
0.0920225084817917
 40
0.0948069163853907
 40
0.0975914002271825
 40
0.100376196396967
 40
0.1031626261383485
 40
0.1059519534874915
 40
0.1087450369840976
 40
0.11154351136733
 40
0.1143489257354719
 40
0.1171619999345799
 40
0.1199840957898729
 40
0.1228167444986334
 40
0.1256605935622464
 40
0.1256605935622464
 40
0.1256605935622464
 40
0.1256605935622464
 10
154.9052174913999
 20
-9.521128299500533
 30
0.0
 10
154.9060955732809
 20
-9.520469768478793
 30
0.0
 10
154.9078416520348
 20
-9.519158849267084
 30
0.0
 10
154.9104450267724
 20
-9.517200055478289
 30
0.0
 10
154.9130196324938
 20
-9.515258741442963
 30
0.0
 10
154.9155670366646
 20
-9.513333835509165
 30
0.0
 10
154.9180886828016
 20
-9.511424349533351
 30
0.0
 10
154.920585666016
 20
-9.509529550947753
 30
0.0
 10
154.9230591182002
 20
-9.507648672660543
 30
0.0
 10
154.9255104498983
 20
-9.505780727892258
 30
0.0
 10
154.92794130977
 20
-9.503924538915736
 30
0.0
 10
154.9303530977379
 20
-9.502079107671477
 30
0.0
 10
154.9327469655453
 20
-9.500243619399952
 30
0.0
 10
154.935124443173
 20
-9.498416956717365
 30
0.0
 10
154.9374872962038
 20
-9.496597830609641
 30
0.0
 10
154.939836868789
 20
-9.494785192755054
 30
0.0
 10
154.9421735654126
 20
-9.492978758481555
 30
0.0
 10
154.9444974785587
 20
-9.491178583608107
 30
0.0
 10
154.9468087311919
 20
-9.489384590665338
 30
0.0
 10
154.9491073051123
 20
-9.487596839429183
 30
0.0
 10
154.9513929854747
 20
-9.48581553663454
 30
0.0
 10
154.9536657530086
 20
-9.484040738691923
 30
0.0
 10
154.9559259110615
 20
-9.482272250030796
 30
0.0
 10
154.9581738228935
 20
-9.480509824730674
 30
0.0
 10
154.9604100018569
 20
-9.478753097819765
 30
0.0
 10
154.962635288267
 20
-9.477001443267774
 30
0.0
 10
154.9648507806096
 20
-9.475254025047249
 30
0.0
 10
154.9670576373094
 20
-9.473509955792911
 30
0.0
 10
154.9692569392361
 20
-9.471768391202701
 30
0.0
 10
154.9714495532062
 20
-9.470028691114524
 30
0.0
 10
154.9736358377452
 20
-9.468290463492053
 30
0.0
 10
154.9758166403619
 20
-9.466553113005605
 30
0.0
 10
154.9779934869169
 20
-9.464815449371924
 30
0.0
 10
154.9801679143462
 20
-9.463076236299102
 30
0.0
 10
154.9823407486342
 20
-9.461334805068617
 30
0.0
 10
154.9845123962981
 20
-9.459590817752575
 30
0.0
 10
154.9866835815159
 20
-9.457843678303513
 30
0.0
 10
154.9888551872531
 20
-9.456092657254608
 30
0.0
 10
154.9910281749117
 20
-9.454336955996831
 30
0.0
 10
154.9932035765256
 20
-9.45257571221831
 30
0.0
 10
154.9953823845684
 20
-9.450808088299776
 30
0.0
 10
154.9975655175825
 20
-9.449033299993118
 30
0.0
 10
154.9997538863373
 20
-9.447250563038313
 30
0.0
 10
155.001948379419
 20
-9.445459104330776
 30
0.0
 10
155.00341292407
 20
-9.444261021547635
 30
0.0
 10
155.0041463307999
 20
-9.44366041920054
 30
0.0
 11
154.9052174913999
 21
-9.521128299500533
 31
0.0
 11
154.907850696
 21
-9.519151323200533
 31
0.0
 11
154.9104536511999
 21
-9.517192797400554
 31
0.0
 11
154.9130275856
 21
-9.515251920800494
 31
0.0
 11
154.9155744398
 21
-9.513327345000533
 31
0.0
 11
154.9180957551
 21
-9.511418011500495
 31
0.0
 11
154.9205923887999
 21
-9.509523370900495
 31
0.0
 11
154.9230652351
 21
-9.507642840200503
 31
0.0
 11
154.9255159430999
 21
-9.505775254300516
 31
0.0
 11
154.9279462055001
 21
-9.503919404300518
 31
0.0
 11
154.9303576309
 21
-9.502074134700508
 31
0.0
 11
154.9327511233998
 21
-9.500238821200554
 31
0.0
 11
154.9351276284
 21
-9.498412801400489
 31
0.0
 11
154.9374898938999
 21
-9.496594018200511
 31
0.0
 11
154.9398395079
 21
-9.494781292900567
 31
0.0
 11
154.9421762615
 21
-9.492974827200498
 31
0.0
 11
154.9445000109001
 21
-9.491174773700519
 31
0.0
 11
154.9468112544
 21
-9.489380787100515
 31
0.0
 11
154.9491100326
 21
-9.487592875100547
 31
0.0
 11
154.9513957450001
 21
-9.485811545600512
 31
0.0
 11
154.9536683086
 21
-9.484036905300538
 31
0.0
 11
154.9559283481
 21
-9.482268507600506
 31
0.0
 11
154.9581762304
 21
-9.480506103800538
 31
0.0
 11
154.9604120551999
 21
-9.478749653400511
 31
0.0
 11
154.9626368946
 21
-9.476998348900508
 31
0.0
 11
154.9648520964
 21
-9.475251158500498
 31
0.0
 11
154.9670585372
 21
-9.473507414700547
 31
0.0
 11
154.9692574644999
 21
-9.471766150400554
 31
0.0
 11
154.9714500096
 21
-9.470026483400515
 31
0.0
 11
154.9736363557
 21
-9.468288278700557
 31
0.0
 11
154.9758164424
 21
-9.466551594300511
 31
0.0
 11
154.9779925863
 21
-9.46481458940056
 31
0.0
 11
154.9801670670999
 21
-9.463075437900499
 31
0.0
 11
154.9823399046
 21
-9.461334111500491
 31
0.0
 11
154.9845112747
 21
-9.459590456400519
 31
0.0
 11
154.9866821973998
 21
-9.457843637400515
 31
0.0
 11
154.9888536447
 21
-9.456092851000533
 31
0.0
 11
154.99102627
 21
-9.454337544700507
 31
0.0
 11
154.9932013272999
 21
-9.452576674400518
 31
0.0
 11
154.9953799997999
 21
-9.450809244800524
 31
0.0
 11
154.9975628232999
 21
-9.449034779000498
 31
0.0
 11
154.9997508287999
 21
-9.447252391700516
 31
0.0
 11
155.0019451746
 21
-9.445461085900518
 31
0.0
 11
155.0041463307999
 21
-9.44366041920054
 31
0.0
  0
SPLINE
  5
5640B
330
1F
100
AcDbEntity
  8
1
100
AcDbSpline
210
0.0
220
0.0
230
1.0
 70
     8
 71
     3
 72
    50
 73
    46
 74
    44
 42
0.0000000001
 43
0.0000000001
 44
0.000001
 12
0.7461547120731709
 22
0.6657725930458565
 32
0.0
 13
0.712125270609945
 23
0.7020524189536797
 33
0.0
 40
0.0
 40
0.0
 40
0.0
 40
0.0
 40
0.0033229631995575
 40
0.006608734834832
 40
0.0098593876593663
 40
0.0130762016361516
 40
0.0162610708337787
 40
0.0194164869189353
 40
0.0225438904544752
 40
0.0256448965468724
 40
0.0287216364620443
 40
0.0317754537171014
 40
0.0348067194315671
 40
0.0378164324685302
 40
0.0408076554695
 40
0.0437834023898808
 40
0.0467439215203455
 40
0.0496896404996047
 40
0.0526211018306019
 40
0.0555374188930223
 40
0.058438105345632
 40
0.0613238218264522
 40
0.0641944360570908
 40
0.0670499515556863
 40
0.0698916286682295
 40
0.0727207770267163
 40
0.0755381909788008
 40
0.0783451590490324
 40
0.0811435547023494
 40
0.0839344364196384
 40
0.0867195812085801
 40
0.0895003041617079
 40
0.0922781646651951
 40
0.0950544801854677
 40
0.0978296374163881
 40
0.1006043719124016
 40
0.1033805408273429
 40
0.1061591137211003
 40
0.1089408797086135
 40
0.1117275045825757
 40
0.1145203214718362
 40
0.1173199378567345
 40
0.1201274707997565
 40
0.1229446616236321
 40
0.125772221747955
 40
0.125772221747955
 40
0.125772221747955
 40
0.125772221747955
 10
155.0041463307999
 20
-9.44366041920054
 30
0.0
 10
155.0049728123497
 20
-9.442922973258552
 30
0.0
 10
155.0066156630998
 20
-9.441455368527453
 30
0.0
 10
155.0090640086187
 20
-9.439263007917091
 30
0.0
 10
155.0114834537529
 20
-9.437091416821161
 30
0.0
 10
155.0138753625682
 20
-9.434939503406209
 30
0.0
 10
155.0162411966422
 20
-9.432806075046103
 30
0.0
 10
155.0185824557405
 20
-9.430689901235012
 30
0.0
 10
155.0209005490035
 20
-9.428589789725382
 30
0.0
 10
155.0231968501622
 20
-9.426504687627975
 30
0.0
 10
155.0254724873309
 20
-9.424433319861012
 30
0.0
 10
155.0277285749185
 20
-9.422375012749238
 30
0.0
 10
155.0299658307288
 20
-9.420329216839403
 30
0.0
 10
155.0321853791131
 20
-9.418294978019384
 30
0.0
 10
155.0343889915705
 20
-9.416270744265069
 30
0.0
 10
155.0365782468433
 20
-9.414255123407537
 30
0.0
 10
155.0387540724222
 20
-9.412247312571325
 30
0.0
 10
155.0409167880813
 20
-9.410247064988967
 30
0.0
 10
155.0430664342029
 20
-9.408254388871633
 30
0.0
 10
155.0452028292132
 20
-9.406269501049727
 30
0.0
 10
155.0473258207656
 20
-9.404292591864122
 30
0.0
 10
155.0494354412507
 20
-9.402323680977803
 30
0.0
 10
155.0515318418991
 20
-9.400362675977067
 30
0.0
 10
155.0536153196068
 20
-9.398409347450861
 30
0.0
 10
155.055686520064
 20
-9.396463135199454
 30
0.0
 10
155.0577462779861
 20
-9.394523295148728
 30
0.0
 10
155.0597954314049
 20
-9.392589072977497
 30
0.0
 10
155.0618349515256
 20
-9.390659581591171
 30
0.0
 10
155.0638658693591
 20
-9.388733868954517
 30
0.0
 10
155.0658893290115
 20
-9.386810865633426
 30
0.0
 10
155.0679063353798
 20
-9.38488962588638
 30
0.0
 10
155.0699180095371
 20
-9.382969083858533
 30
0.0
 10
155.0719253566043
 20
-9.381048274100942
 30
0.0
 10
155.0739291549164
 20
-9.379126441804208
 30
0.0
 10
155.075929977677
 20
-9.377203015122789
 30
0.0
 10
155.077928538059
 20
-9.375277308111005
 30
0.0
 10
155.079925520893
 20
-9.373348326076847
 30
0.0
 10
155.0819219625179
 20
-9.371415412886598
 30
0.0
 10
155.0839186132497
 20
-9.369477707782278
 30
0.0
 10
155.0859163697416
 20
-9.367534327312661
 30
0.0
 10
155.0879160637185
 20
-9.365584408080096
 30
0.0
 10
155.0899183966232
 20
-9.363627215278572
 30
0.0
 10
155.0919241623071
 20
-9.361661914098146
 30
0.0
 10
155.0939341751516
 20
-9.359687641456941
 30
0.0
 10
155.0952749153603
 20
-9.358367499475498
 30
0.0
 10
155.0959461076999
 20
-9.357705801000491
 30
0.0
 11
155.0041463307999
 21
-9.44366041920054
 31
0.0
 11
155.0066244491999
 21
-9.4414466038005
 31
0.0
 11
155.0090722216
 21
-9.439254662200511
 31
0.0
 11
155.0114912644
 21
-9.437083296500503
 31
0.0
 11
155.0138825981
 21
-9.434931731700515
 31
0.0
 11
155.0162476945999
 21
-9.432798776300526
 31
0.0
 11
155.0185884628
 21
-9.430682831000495
 31
0.0
 11
155.0209060250999
 21
-9.428582993800516
 31
0.0
 11
155.0232016284001
 21
-9.426498240100499
 31
0.0
 11
155.0254769174998
 21
-9.424427172300511
 31
0.0
 11
155.0277329125
 21
-9.42236895000056
 31
0.0
 11
155.0299699193001
 21
-9.420323377700556
 31
0.0
 11
155.0321887123998
 21
-9.418289828100538
 31
0.0
 11
155.0343915821999
 21
-9.416266273200532
 31
0.0
 11
155.0365807739
 21
-9.414250707600528
 31
0.0
 11
155.0387564920999
 21
-9.412242992600511
 31
0.0
 11
155.0409190723
 21
-9.410242866800528
 31
0.0
 11
155.0430689327
 21
-9.408249988900507
 31
0.0
 11
155.0452054439
 21
-9.406264989700533
 31
0.0
 11
155.0473282718001
 21
-9.404288229600496
 31
0.0
 11
155.049437922
 21
-9.402319287600532
 31
0.0
 11
155.0515343193001
 21
-9.400358282400503
 31
0.0
 11
155.0536174880001
 21
-9.39840524020056
 31
0.0
 11
155.0556883678
 21
-9.39645932590048
 31
0.0
 11
155.0577479304
 21
-9.394519666400556
 31
0.0
 11
155.0597967689
 21
-9.392585738100477
 31
0.0
 11
155.0618358328
 21
-9.390656675000514
 31
0.0
 11
155.0638664919
 21
-9.388731204200496
 31
0.0
 11
155.0658895195
 21
-9.386808608100494
 31
0.0
 11
155.0679062057
 21
-9.38488766990048
 31
0.0
 11
155.0699175009999
 21
-9.382967486000495
 31
0.0
 11
155.0719245279999
 21
-9.381046979300519
 31
0.0
 11
155.0739282298
 21
-9.379125235100532
 31
0.0
 11
155.0759288744
 21
-9.377201979500538
 31
0.0
 11
155.0779269841
 21
-9.37527669080049
 31
0.0
 11
155.0799238967
 21
-9.373348053800498
 31
0.0
 11
155.0819202688999
 21
-9.371415400700557
 31
0.0
 11
155.0839166452999
 21
-9.369478166100492
 31
0.0
 11
155.0859141954999
 21
-9.367535170000538
 31
0.0
 11
155.0879138451
 21
-9.365585458900511
 31
0.0
 11
155.0899159958
 21
-9.36362858170051
 31
0.0
 11
155.0919214108
 21
-9.361663728400515
 31
0.0
 11
155.0939312936
 21
-9.359689646700561
 31
0.0
 11
155.0959461076999
 21
-9.357705801000491
 31
0.0
  0
SPLINE
  5
5640C
330
1F
100
AcDbEntity
  8
1
100
AcDbSpline
210
0.0
220
0.0
230
1.0
 70
     8
 71
     3
 72
    51
 73
    47
 74
    45
 42
0.0000000001
 43
0.0000000001
 44
0.000001
 12
0.6871176663778776
 22
0.7265461530772975
 32
0.0
 13
0.6435327375447497
 23
0.7654185885567193
 33
0.0
 40
0.0
 40
0.0
 40
0.0
 40
0.0
 40
0.0032773807217957
 40
0.0065167956435217
 40
0.0097205019265335
 40
0.012890001928914
 40
0.0160273501945565
 40
0.0191342352296419
 40
0.0222121131334757
 40
0.0252632112489443
 40
0.0282888905252214
 40
0.0312910260532251
 40
0.0342708822952097
 40
0.0372289749977289
 40
0.0401675096599772
 40
0.0430897612311442
 40
0.0459962191150723
 40
0.0488866413749334
 40
0.0517616271716835
 40
0.0546209647660556
 40
0.0574638850246572
 40
0.0602907064391342
 40
0.0631018662720929
 40
0.0658973350372528
 40
0.0686779433806553
 40
0.0714451633140521
 40
0.0742001913192258
 40
0.0769448241930501
 40
0.0796803360451894
 40
0.0824076702078341
 40
0.0851281543386526
 40
0.0878423464378656
 40
0.0905507476778193
 40
0.0932556768660191
 40
0.0959593391009669
 40
0.0986622735272064
 40
0.1013646720598063
 40
0.1040677229774992
 40
0.1067726495273126
 40
0.1094803134579941
 40
0.1121921617933282
 40
0.1149092914081424
 40
0.1176322821865099
 40
0.1203623332646177
 40
0.1231007368432595
 40
0.1258486510957444
 40
0.1258486510957444
 40
0.1258486510957444
 40
0.1258486510957444
 10
155.0959461076999
 20
-9.357705801000491
 30
0.0
 10
155.096696756431
 20
-9.356912078215295
 30
0.0
 10
155.0981883248979
 20
-9.355332849641639
 30
0.0
 10
155.1004100655464
 20
-9.352974341974521
 30
0.0
 10
155.1026040927651
 20
-9.350639134624984
 30
0.0
 10
155.1047718135498
 20
-9.348325897841965
 30
0.0
 10
155.1069144602713
 20
-9.346033397835572
 30
0.0
 10
155.1090333907823
 20
-9.343760538328078
 30
0.0
 10
155.1111294733865
 20
-9.34150568868074
 30
0.0
 10
155.1132043026306
 20
-9.339268043343089
 30
0.0
 10
155.1152590717798
 20
-9.337046231755037
 30
0.0
 10
155.117294874993
 20
-9.334839229521456
 30
0.0
 10
155.1193125770411
 20
-9.332646183423081
 30
0.0
 10
155.1213131215447
 20
-9.330466163040842
 30
0.0
 10
155.1232978975882
 20
-9.328297736959921
 30
0.0
 10
155.125268280298
 20
-9.32613947275133
 30
0.0
 10
155.1272250884285
 20
-9.323990534583366
 30
0.0
 10
155.129168537564
 20
-9.321850743588221
 30
0.0
 10
155.131098685255
 20
-9.319720092991703
 30
0.0
 10
155.1330154714322
 20
-9.317598706492711
 30
0.0
 10
155.1349187738043
 20
-9.315486777564895
 30
0.0
 10
155.1368086159358
 20
-9.313384339808164
 30
0.0
 10
155.138685185702
 20
-9.311291242905141
 30
0.0
 10
155.1405487837429
 20
-9.309207208258323
 30
0.0
 10
155.1423999390509
 20
-9.307131698668532
 30
0.0
 10
155.1442394487882
 20
-9.305063868451252
 30
0.0
 10
155.1460683195504
 20
-9.303002627124248
 30
0.0
 10
155.1478875084827
 20
-9.300946928465982
 30
0.0
 10
155.1496979112601
 20
-9.298895784505557
 30
0.0
 10
155.1515003152323
 20
-9.296848320226953
 30
0.0
 10
155.1532953455094
 20
-9.294803835812778
 30
0.0
 10
155.1550835265328
 20
-9.292761739211552
 30
0.0
 10
155.1568655967505
 20
-9.29072118665268
 30
0.0
 10
155.1586426505536
 20
-9.288680916332452
 30
0.0
 10
155.1604157832982
 20
-9.286639650562737
 30
0.0
 10
155.1621856178565
 20
-9.28459664043744
 30
0.0
 10
155.1639525580687
 20
-9.282551395796417
 30
0.0
 10
155.1657171298483
 20
-9.280503230873613
 30
0.0
 10
155.1674800892073
 20
-9.278451363203025
 30
0.0
 10
155.1692419099911
 20
-9.276394654916519
 30
0.0
 10
155.1710034958737
 20
-9.274332392955727
 30
0.0
 10
155.1727655165724
 20
-9.272263786730585
 30
0.0
 10
155.1745285492787
 20
-9.270188075681502
 30
0.0
 10
155.1762932181641
 20
-9.268104453892124
 30
0.0
 10
155.178060264128
 20
-9.266011962043592
 30
0.0
 10
155.1792381566063
 20
-9.264613040550017
 30
0.0
 10
155.1798276142001
 20
-9.263911939000479
 30
0.0
 11
155.0959461076999
 21
-9.357705801000491
 31
0.0
 11
155.098196452
 21
-9.355323131600528
 31
0.0
 11
155.1004175775999
 21
-9.352965115500552
 31
0.0
 11
155.1026111190999
 21
-9.350630195000519
 31
0.0
 11
155.1047781861
 21
-9.348317354900556
 31
0.0
 11
155.1069202590999
 21
-9.34602517090056
 31
0.0
 11
155.1090385611
 21
-9.343752479100515
 31
0.0
 11
155.1111341954
 21
-9.341498231100528
 31
0.0
 11
155.1132086958
 21
-9.33926090230048
 31
0.0
 11
155.115263041
 21
-9.337039552600515
 31
0.0
 11
155.1172985535
 21
-9.33483285800051
 31
0.0
 11
155.1193161357
 21
-9.332639937500541
 31
0.0
 11
155.1213161794
 21
-9.330460457500493
 31
0.0
 11
155.1233002146999
 21
-9.32829283540056
 31
0.0
 11
155.1252704838
 21
-9.32613469040055
 31
0.0
 11
155.1272273426
 21
-9.323985691300519
 31
0.0
 11
155.1291706537999
 21
-9.321846046800516
 31
0.0
 11
155.1311008452998
 21
-9.319715342600515
 31
0.0
 11
155.1330177997
 21
-9.317593764500513
 31
0.0
 11
155.1349210273999
 21
-9.315481913100512
 31
0.0
 11
155.1368107685
 21
-9.313379582400498
 31
0.0
 11
155.1386873412
 21
-9.311286476800518
 31
0.0
 11
155.1405507511
 21
-9.309202647200519
 31
0.0
 11
155.1424015761999
 21
-9.307127502400504
 31
0.0
 11
155.1442408172999
 21
-9.305059968800518
 31
0.0
 11
155.146069287
 21
-9.302999174100476
 31
0.0
 11
155.1478881909
 21
-9.300943792100524
 31
0.0
 11
155.1496983819999
 21
-9.298892882500496
 31
0.0
 11
155.1515004898999
 21
-9.296845749000482
 31
0.0
 11
155.1532953938
 21
-9.294801403000519
 31
0.0
 11
155.155083461
 21
-9.292759430700558
 31
0.0
 11
155.156865019
 21
-9.290719459000538
 31
0.0
 11
155.1586415862
 21
-9.288679741700491
 31
0.0
 11
155.1604145968999
 21
-9.286638610200524
 31
0.0
 11
155.1621843863
 21
-9.284595648000504
 31
0.0
 11
155.1639510602001
 21
-9.282550699400561
 31
0.0
 11
155.1657153730999
 21
-9.280502852600477
 31
0.0
 11
155.1674780968
 21
-9.278451164700499
 31
0.0
 11
155.1692397896999
 21
-9.276394931400515
 31
0.0
 11
155.1710013394999
 21
-9.274333053600514
 31
0.0
 11
155.1727634083999
 21
-9.272264683800498
 31
0.0
 11
155.1745263289999
 21
-9.270189352700556
 31
0.0
 11
155.1762908302998
 21
-9.268106115600543
 31
0.0
 11
155.1780576954
 21
-9.266013952100507
 31
0.0
 11
155.1798276142001
 21
-9.263911939000479
 31
0.0
  0
SPLINE
  5
5640D
330
1F
100
AcDbEntity
  8
1
100
AcDbSpline
210
0.0
220
0.0
230
1.0
 70
     8
 71
     3
 72
    14
 73
    10
 74
     8
 42
0.0000000001
 43
0.0000000001
 44
0.000001
 12
0.0539559859262293
 22
-0.9985433148255156
 32
0.0
 13
0.0555539235162385
 23
-0.9984556883417271
 33
0.0
 40
0.0
 40
0.0
 40
0.0
 40
0.0
 40
0.1381140123894389
 40
0.2884825469597584
 40
0.4563056236511868
 40
0.6290548626618041
 40
0.7873552541892389
 40
0.9259806786465029
 40
1.048767832778081
 40
1.048767832778081
 40
1.048767832778081
 40
1.048767832778081
 10
155.3469318829001
 20
-3.438085684500521
 30
0.0
 10
155.349415908803
 20
-3.484056625752255
 30
0.0
 10
155.3546135877463
 20
-3.580076902206372
 30
0.0
 10
155.3628984545123
 20
-3.731952975796674
 30
0.0
 10
155.3717964339932
 20
-3.895357842069114
 30
0.0
 10
155.3808083694249
 20
-4.061404369822616
 30
0.0
 10
155.389326517383
 20
-4.217730821067631
 30
0.0
 10
155.3969953036673
 20
-4.357424811811531
 30
0.0
 10
155.4018186895103
 20
-4.444428743334544
 30
0.0
 10
155.4040924589001
 20
-4.485294587500533
 30
0.0
 11
155.3469318829001
 21
-3.438085684500521
 31
0.0
 11
155.3544029899001
 21
-3.57599747820049
 31
0.0
 11
155.3625802634001
 21
-3.726143501700533
 31
0.0
 11
155.3717032085
 21
-3.89371843090052
 31
0.0
 11
155.3810768401999
 21
-4.066213168500524
 31
0.0
 11
155.3896957599999
 21
-4.224278749900491
 31
0.0
 11
155.3972989038999
 21
-4.362695512900558
 31
0.0
 11
155.4040924589001
 21
-4.485294587500533
 31
0.0
  0
SPLINE
  5
5640E
330
1F
100
AcDbEntity
  8
1
100
AcDbSpline
210
0.0
220
0.0
230
1.0
 70
     8
 71
     3
 72
    51
 73
    47
 74
    45
 42
0.0000000001
 43
0.0000000001
 44
0.000001
 12
0.6233167545898803
 22
0.7819694517355132
 32
0.0
 13
0.568206056623109
 23
0.8228863088038446
 33
0.0
 40
0.0
 40
0.0
 40
0.0
 40
0.0
 40
0.003303578153761
 40
0.006567304094765
 40
0.0097930486487263
 40
0.0129830212101939
 40
0.0161389828647494
 40
0.0192629253064034
 40
0.0223564140584288
 40
0.0254213901709452
 40
0.0284595277371003
 40
0.031472601851184
 40
0.034462001977177
 40
0.0374283447922245
 40
0.0403740774815894
 40
0.043303184554143
 40
0.0462167505129021
 40
0.0491137646291382
 40
0.0519932874531704
 40
0.0548550718873117
 40
0.0576985509293294
 40
0.0605235401289982
 40
0.0633311000819481
 40
0.0661229607437213
 40
0.0689004710445058
 40
0.0716642060691896
 40
0.0744153626834153
 40
0.077155434913762
 40
0.0798852364504375
 40
0.0826060412743277
 40
0.0853194936046548
 40
0.08802650507688
 40
0.0907283106348958
 40
0.0934265401736293
 40
0.0961219419928622
 40
0.0988151660182018
 40
0.1015075515676647
 40
0.1042005389153942
 40
0.1068946414280823
 40
0.1095907961508507
 40
0.1122905866348665
 40
0.1149947924492349
 40
0.1177043691314079
 40
0.1204207737106638
 40
0.1231448771696096
 40
0.1258779709178775
 40
0.1258779709178775
 40
0.1258779709178775
 40
0.1258779709178775
 10
155.1798276142001
 20
-9.263911939000479
 30
0.0
 10
155.1805140060712
 20
-9.263050839934592
 30
0.0
 10
155.1818772292852
 20
-9.261338008501059
 30
0.0
 10
155.1839062061184
 20
-9.258780814990599
 30
0.0
 10
155.1859078432444
 20
-9.256250274258174
 30
0.0
 10
155.1878834742622
 20
-9.253744967855984
 30
0.0
 10
155.189834269555
 20
-9.25126329682949
 30
0.0
 10
155.1917612514747
 20
-9.24880382016266
 30
0.0
 10
155.1936659261253
 20
-9.246365399038717
 30
0.0
 10
155.1955493522587
 20
-9.243946677739399
 30
0.0
 10
155.1974127220002
 20
-9.241546316183338
 30
0.0
 10
155.1992570809779
 20
-9.239163092818666
 30
0.0
 10
155.2010832587556
 20
-9.236796064403122
 30
0.0
 10
155.2028922143653
 20
-9.234444104376361
 30
0.0
 10
155.2046854266446
 20
-9.232105394500113
 30
0.0
 10
155.2064644573064
 20
-9.229777983399513
 30
0.0
 10
155.2082301575074
 20
-9.22746082724363
 30
0.0
 10
155.2099823814983
 20
-9.225154185988248
 30
0.0
 10
155.2117207171723
 20
-9.222858674567099
 30
0.0
 10
155.2134448456864
 20
-9.220574792898235
 30
0.0
 10
155.2151546017165
 20
-9.218302841347124
 30
0.0
 10
155.2168500838302
 20
-9.216042773205048
 30
0.0
 10
155.2185318480213
 20
-9.213793927636015
 30
0.0
 10
155.2202007512189
 20
-9.211555230490674
 30
0.0
 10
155.2218575476418
 20
-9.209325732809947
 30
0.0
 10
155.2235028789961
 20
-9.207104623338191
 30
0.0
 10
155.2251374122642
 20
-9.204891049297456
 30
0.0
 10
155.2267618551977
 20
-9.202684089101616
 30
0.0
 10
155.2283769252236
 20
-9.200482796351746
 30
0.0
 10
155.2299833634595
 20
-9.198286179937689
 30
0.0
 10
155.2315819241238
 20
-9.196093217904635
 30
0.0
 10
155.2331733467076
 20
-9.193902893713236
 30
0.0
 10
155.2347583622711
 20
-9.191714190671103
 30
0.0
 10
155.2363376625326
 20
-9.18952613091147
 30
0.0
 10
155.2379118195443
 20
-9.187337890813299
 30
0.0
 10
155.2394813436377
 20
-9.185148721813343
 30
0.0
 10
155.2410468736858
 20
-9.182957683853295
 30
0.0
 10
155.2426090157405
 20
-9.180763869558454
 30
0.0
 10
155.2441682903176
 20
-9.178566475461131
 30
0.0
 10
155.2457252465835
 20
-9.176364660170495
 30
0.0
 10
155.2472804517512
 20
-9.174157486320762
 30
0.0
 10
155.2488342053449
 20
-9.171943822157235
 30
0.0
 10
155.2503874908293
 20
-9.169723068048135
 30
0.0
 10
155.2519407684998
 20
-9.167494219216241
 30
0.0
 10
155.2534946992211
 20
-9.165256275660862
 30
0.0
 10
155.2545296093261
 20
-9.163760292642546
 30
0.0
 10
155.2550472627998
 20
-9.163010617500503
 30
0.0
 11
155.1798276142001
 21
-9.263911939000479
 31
0.0
 11
155.1818847888
 21
-9.261327068600508
 31
0.0
 11
155.1839132152
 21
-9.258770293200511
 31
0.0
 11
155.1859141664999
 21
-9.256240237400504
 31
0.0
 11
155.1878891159
 21
-9.253735252700494
 31
0.0
 11
155.1898392743
 21
-9.251254002900537
 31
0.0
 11
155.1917659770999
 21
-9.248794975100537
 31
0.0
 11
155.1936702346999
 21
-9.246357053000506
 31
0.0
 11
155.1955533157
 21
-9.243938773600516
 31
0.0
 11
155.1974163161999
 21
-9.241538877500516
 31
0.0
 11
155.1992603865
 21
-9.239156019200519
 31
0.0
 11
155.2010864332999
 21
-9.236789152000568
 31
0.0
 11
155.2028948863001
 21
-9.234437837000511
 31
0.0
 11
155.2046872852
 21
-9.232100179500491
 31
0.0
 11
155.2064660911
 21
-9.229773053900489
 31
0.0
 11
155.2082319904
 21
-9.2274556281005
 31
0.0
 11
155.2099843985999
 21
-9.225148735700512
 31
0.0
 11
155.2117227789
 21
-9.222853156900498
 31
0.0
 11
155.2134470161
 21
-9.220569122600494
 31
0.0
 11
155.2151568040001
 21
-9.21829712020056
 31
0.0
 11
155.2168520687999
 21
-9.2160373331005
 31
0.0
 11
155.2185334824998
 21
-9.213788947600532
 31
0.0
 11
155.2202021118998
 21
-9.211550609300529
 31
0.0
 11
155.2218587887
 21
-9.209321263700561
 31
0.0
 11
155.2235038774999
 21
-9.207100473200538
 31
0.0
 11
155.2251381097
 21
-9.204887298100542
 31
0.0
 11
155.2267623865999
 21
-9.202680554700547
 31
0.0
 11
155.2283772001001
 21
-9.200479602700511
 31
0.0
 11
155.2299833094999
 21
-9.198283427100506
 31
0.0
 11
155.2315816857001
 21
-9.196090709000486
 31
0.0
 11
155.2331728609
 21
-9.193900716300504
 31
0.0
 11
155.2347575521998
 21
-9.19171245170051
 31
0.0
 11
155.2363367008999
 21
-9.189524592700479
 31
0.0
 11
155.2379107256999
 21
-9.187336527000551
 31
0.0
 11
155.2394799838
 21
-9.185147719400504
 31
0.0
 11
155.2410452287999
 21
-9.182957070800538
 31
0.0
 11
155.2426072652
 21
-9.180763394600488
 31
0.0
 11
155.2441663535
 21
-9.178566255000561
 31
0.0
 11
155.2457229947999
 21
-9.176364867700501
 31
0.0
 11
155.2472780678
 21
-9.174157899800492
 31
0.0
 11
155.2488319919998
 21
-9.171944653000506
 31
0.0
 11
155.2503852178
 21
-9.169724372600539
 31
0.0
 11
155.2519385153
 21
-9.167495832200499
 31
0.0
 11
155.2534923108
 21
-9.165258280800514
 31
0.0
 11
155.2550472627998
 21
-9.163010617500503
 31
0.0
  0
SPLINE
  5
5640F
330
1F
100
AcDbEntity
  8
1
100
AcDbSpline
210
0.0
220
0.0
230
1.0
 70
     8
 71
     3
 72
    51
 73
    47
 74
    45
 42
0.0000000001
 43
0.0000000001
 44
0.000001
 12
0.5551911845804627
 22
0.8317227594361854
 32
0.0
 13
0.4865586506114764
 23
0.8736479150751403
 33
0.0
 40
0.0
 40
0.0
 40
0.0
 40
0.0
 40
0.0033278195358073
 40
0.0066144431434002
 40
0.0098617951657878
 40
0.0130716322855926
 40
0.0162462145541149
 40
0.0193874046320375
 40
0.022496283938597
 40
0.025574648950127
 40
0.0286246653201451
 40
0.0316481727248688
 40
0.0346469030754188
 40
0.0376219033271857
 40
0.0405748289971602
 40
0.0435079743304014
 40
0.0464228371075563
 40
0.0493201145198427
 40
0.0522003039187523
 40
0.0550629725728715
 40
0.0579081920211897
 40
0.0607359581513967
 40
0.0635455476375919
 40
0.0663365954793771
 40
0.0691101721414657
 40
0.0718688742494715
 40
0.0746148774682821
 40
0.0773494562105826
 40
0.080073348621238
 40
0.0827878639910878
 40
0.0854941011495746
 40
0.0881937432677363
 40
0.0908881927997455
 40
0.0935789202986952
 40
0.0962662881214709
 40
0.0989508972645485
 40
0.1016343844550795
 40
0.1043176888767052
 40
0.1070015978833948
 40
0.1096877607389872
 40
0.1123772680238731
 40
0.1150707485141682
 40
0.1177695884838532
 40
0.120475010423475
 40
0.1231875229602702
 40
0.1259083143527949
 40
0.1259083143527949
 40
0.1259083143527949
 40
0.1259083143527949
 10
155.2550472627998
 20
-9.163010617500503
 30
0.0
 10
155.2556631214898
 20
-9.162088009751428
 30
0.0
 10
155.2568856520855
 20
-9.160253171593137
 30
0.0
 10
155.258703673831
 20
-9.157514391105229
 30
0.0
 10
155.260495318968
 20
-9.154805310710466
 30
0.0
 10
155.2622616666639
 20
-9.152124281299311
 30
0.0
 10
155.2640035524975
 20
-9.149469519588379
 30
0.0
 10
155.2657225056384
 20
-9.146839966503595
 30
0.0
 10
155.2674193658201
 20
-9.144234293912955
 30
0.0
 10
155.2690951764625
 20
-9.141651186442389
 30
0.0
 10
155.2707510665045
 20
-9.13908908215127
 30
0.0
 10
155.2723881540844
 20
-9.13654643752692
 30
0.0
 10
155.2740073414712
 20
-9.134022013228413
 30
0.0
 10
155.2756094914108
 20
-9.131514617237993
 30
0.0
 10
155.2771955580938
 20
-9.129022893278179
 30
0.0
 10
155.2787665671798
 20
-9.12654535222042
 30
0.0
 10
155.2803233625942
 20
-9.124080767775843
 30
0.0
 10
155.2818664620065
 20
-9.121628415886286
 30
0.0
 10
155.2833960360189
 20
-9.119188114287569
 30
0.0
 10
155.2849121444626
 20
-9.116759857312491
 30
0.0
 10
155.2864147586341
 20
-9.114343780968594
 30
0.0
 10
155.2879038002728
 20
-9.111940104404617
 30
0.0
 10
155.2893791157955
 20
-9.109549171166566
 30
0.0
 10
155.2908407424689
 20
-9.107171021549401
 30
0.0
 10
155.2922892955409
 20
-9.104804751991345
 30
0.0
 10
155.2937258228609
 20
-9.102448730663807
 30
0.0
 10
155.2951513959256
 20
-9.100101260458737
 30
0.0
 10
155.296566753587
 20
-9.097761167004307
 30
0.0
 10
155.2979724777002
 20
-9.095427518483562
 30
0.0
 10
155.2993691136601
 20
-9.093099429470736
 30
0.0
 10
155.3007573607346
 20
-9.090775739562364
 30
0.0
 10
155.3021379264863
 20
-9.088455257221788
 30
0.0
 10
155.3035115711246
 20
-9.086136678175977
 30
0.0
 10
155.3048788221843
 20
-9.083819072203244
 30
0.0
 10
155.3062400643382
 20
-9.081501735171473
 30
0.0
 10
155.3075957046255
 20
-9.079183912068566
 30
0.0
 10
155.3089462407229
 20
-9.076864678390746
 30
0.0
 10
155.3102921925632
 20
-9.074543050990005
 30
0.0
 10
155.3116340752084
 20
-9.072218039384903
 30
0.0
 10
155.3129724171528
 20
-9.069888602912392
 30
0.0
 10
155.3143077218602
 20
-9.06755374798101
 30
0.0
 10
155.315640400335
 20
-9.065212529093003
 30
0.0
 10
155.316970538939
 20
-9.062863767960848
 30
0.0
 10
155.3182991561689
 20
-9.060506860831921
 30
0.0
 10
155.3196264977999
 20
-9.058140841501783
 30
0.0
 10
155.320509355137
 20
-9.056559495109651
 30
0.0
 10
155.3209506299999
 20
-9.055767157200506
 30
0.0
 11
155.2550472627998
 21
-9.163010617500503
 31
0.0
 11
155.2568923730999
 21
-9.160241181200516
 31
0.0
 11
155.2587098003
 21
-9.157502864800532
 31
0.0
 11
155.2605007436
 21
-9.154794156000519
 31
0.0
 11
155.2622663250999
 21
-9.152113635200491
 31
0.0
 11
155.2640079397999
 21
-9.1494594441005
 31
0.0
 11
155.2657266671999
 21
-9.146830178700524
 31
0.0
 11
155.2674231983
 21
-9.144225010500546
 31
0.0
 11
155.269098607
 21
-9.141642506400526
 31
0.0
 11
155.2707541572
 21
-9.139080916000493
 31
0.0
 11
155.2723909247
 21
-9.136538755100533
 31
0.0
 11
155.2740099164999
 21
-9.134014623000496
 31
0.0
 11
155.275611762
 21
-9.131507690300507
 31
0.0
 11
155.2771974109
 21
-9.129016609800487
 31
0.0
 11
155.2787681454001
 21
-9.126539488600514
 31
0.0
 11
155.2803248095999
 21
-9.124075098900533
 31
0.0
 11
155.2818678135
 21
-9.121622885500499
 31
0.0
 11
155.2833974569999
 21
-9.119182459900514
 31
0.0
 11
155.2849135456
 21
-9.116754221300482
 31
0.0
 11
155.2864161533998
 21
-9.114338142000546
 31
0.0
 11
155.2879053148
 21
-9.111934258600539
 31
0.0
 11
155.2893806870999
 21
-9.109543220000515
 31
0.0
 11
155.2908421198999
 21
-9.107165372600519
 31
0.0
 11
155.2922902139
 21
-9.104799839400527
 31
0.0
 11
155.2937263566
 21
-9.102444435500528
 31
0.0
 11
155.2951517019999
 21
-9.100097326600517
 31
0.0
 11
155.2965669251
 21
-9.097757441900538
 31
0.0
 11
155.2979724167999
 21
-9.095424165500533
 31
0.0
 11
155.2993688568999
 21
-9.093096388800518
 31
0.0
 11
155.3007568089
 21
-9.090773178900519
 31
0.0
 11
155.302137128
 21
-9.088453096600543
 31
0.0
 11
155.3035105152
 21
-9.086134937700476
 31
0.0
 11
155.3048776970999
 21
-9.083817434200511
 31
0.0
 11
155.3062388297998
 21
-9.08150026840056
 31
0.0
 11
155.3075941866
 21
-9.079182914900512
 31
0.0
 11
155.3089445568
 21
-9.076863950500552
 31
0.0
 11
155.3102903686001
 21
-9.074542549200515
 31
0.0
 11
155.3116319672999
 21
-9.07221801280056
 31
0.0
 11
155.3129701204999
 21
-9.069888892100523
 31
0.0
 11
155.3143053064
 21
-9.067554216500552
 31
0.0
 11
155.3156377799
 21
-9.065213388700499
 31
0.0
 11
155.3169681753999
 21
-9.062865125800499
 31
0.0
 11
155.3182969583999
 21
-9.060508417600516
 31
0.0
 11
155.3196242835
 21
-9.058142786100518
 31
0.0
 11
155.3209506299999
 21
-9.055767157200506
 31
0.0
  0
SPLINE
  5
56410
330
1F
100
AcDbEntity
  8
1
100
AcDbSpline
210
0.0
220
0.0
230
1.0
 70
     8
 71
     3
 72
    19
 73
    15
 74
     0
 42
0.0000000001
 43
0.0000000001
 40
0.2587330665484847
 40
0.2587330665484847
 40
0.2587330665484847
 40
0.2587330665484847
 40
0.274190720641589
 40
0.3004093071680035
 40
0.329099494939822
 40
0.3594665460639707
 40
0.3911363367785558
 40
0.4241622111467941
 40
0.4591429034290963
 40
0.4970159649219773
 40
0.5386908107731562
 40
0.5848820643923615
 40
0.6359987561078248
 40
0.6922217494710682
 40
0.6922217494710682
 40
0.6922217494710682
 40
0.6922217494710682
 10
151.0794456102
 20
9.801768460099507
 30
0.0
 10
151.0743076082763
 20
9.801053897407939
 30
0.0
 10
151.0604189349102
 20
9.800746253467735
 30
0.0
 10
151.0369692415833
 20
9.800225442425952
 30
0.0
 10
151.0085510118012
 20
9.799592604519288
 30
0.0
 10
150.978316206761
 20
9.798917409740397
 30
0.0
 10
150.9466365830662
 20
9.798207714024924
 30
0.0
 10
150.9134195222987
 20
9.797461009806056
 30
0.0
 10
150.8781352947826
 20
9.796664818585012
 30
0.0
 10
150.8399688941722
 20
9.795799887217242
 30
0.0
 10
150.7980667044555
 20
9.794845647697655
 30
0.0
 10
150.7517512590069
 20
9.793784622664274
 30
0.0
 10
150.7005878666987
 20
9.792605405400903
 30
0.0
 10
150.6648176402799
 20
9.791773657509367
 30
0.0
 10
150.6460817257999
 20
9.791337186799497
 30
0.0
  0
SPLINE
  5
56411
330
1F
100
AcDbEntity
  8
1
100
AcDbSpline
210
0.0
220
0.0
230
1.0
 70
     8
 71
     3
 72
    62
 73
    58
 74
     0
 42
0.0000000001
 43
0.0000000001
 40
0.299721636081502
 40
0.299721636081502
 40
0.299721636081502
 40
0.299721636081502
 40
0.3009631775225939
 40
0.4311977341150869
 40
0.4967916310614358
 40
0.5632208363556197
 40
0.6305670262927757
 40
0.6976880414076918
 40
0.7631352218507092
 40
0.7947784207503086
 40
0.8254599201407227
 40
0.8551412383230555
 40
0.8843555971790543
 40
0.9137787912290558
 40
0.9440866226279409
 40
0.9759549105510425
 40
1.010059496621805
 40
1.087681022948079
 40
1.112866506327593
 40
1.125711765061434
 40
1.138575506528774
 40
1.164075658056688
 40
1.189479117850732
 40
1.21495011337498
 40
1.240391649606958
 40
1.265696328928749
 40
1.278431721233425
 40
1.291314563511452
 40
1.304344121156643
 40
1.31734149719607
 40
1.342246720409422
 40
1.371081664511845
 40
1.396219033497787
 40
1.419374917682501
 40
1.442265367833206
 40
1.46624378719111
 40
1.491213000376524
 40
1.542284540809004
 40
1.592578872225252
 40
1.642304318657938
 40
1.692238150457501
 40
1.742324636134525
 40
1.842345621030014
 40
1.942367181378503
 40
2.042389348888339
 40
2.142412193047074
 40
2.242435730422404
 40
2.342459897541122
 40
2.442484477512973
 40
2.542509656517982
 40
2.642535987928606
 40
2.742563782781719
 40
2.842591611896662
 40
2.942617349362796
 40
3.04264157082972
 40
3.142667568779791
 40
3.242694791022596
 40
3.242694791022596
 40
3.242694791022596
 40
3.242694791022596
 10
151.0380030253934
 20
-9.80024630551415
 30
0.0
 10
151.0384165961798
 20
-9.80026142738987
 30
0.0
 10
151.0822126983902
 20
-9.801862739206653
 30
0.0
 10
151.1478591609087
 20
-9.804254012001225
 30
0.0
 10
151.2352220245704
 20
-9.807392542888919
 30
0.0
 10
151.3016366076332
 20
-9.809750655550972
 30
0.0
 10
151.3685610663311
 20
-9.812093991617103
 30
0.0
 10
151.4351587581747
 20
-9.814415099401145
 30
0.0
 10
151.489862393129
 20
-9.816329787102262
 30
0.0
 10
151.5324263830771
 20
-9.817835859072063
 30
0.0
 10
151.5630754863405
 20
-9.818931299452344
 30
0.0
 10
151.5929149710482
 20
-9.820012309940553
 30
0.0
 10
151.6223351443268
 20
-9.821082281120283
 30
0.0
 10
151.6519642807726
 20
-9.822152602372538
 30
0.0
 10
151.6824781427861
 20
-9.823236515467867
 30
0.0
 10
151.7145524867903
 20
-9.824347338684477
 30
0.0
 10
151.7623903767838
 20
-9.825952455264172
 30
0.0
 10
151.8080046948458
 20
-9.827398579828779
 30
0.0
 10
151.8465378027654
 20
-9.828565800357436
 30
0.0
 10
151.8634961441805
 20
-9.829035393662394
 30
0.0
 10
151.8805604438782
 20
-9.829466218601339
 30
0.0
 10
151.9018119661209
 20
-9.829899535186456
 30
0.0
 10
151.9272676047769
 20
-9.830268940342506
 30
0.0
 10
151.952705219003
 20
-9.830511006335656
 30
0.0
 10
151.978110772495
 20
-9.830629440764028
 30
0.0
 10
151.9992714207676
 20
-9.830623898335858
 30
0.0
 10
152.0162455616342
 20
-9.830544130165435
 30
0.0
 10
152.0291277886651
 20
-9.830443402523226
 30
0.0
 10
152.042096942308
 20
-9.83030030941464
 30
0.0
 10
152.0590728107665
 20
-9.830072435667231
 30
0.0
 10
152.0813158276033
 20
-9.829716194071265
 30
0.0
 10
152.1076044262099
 20
-9.82926238028989
 30
0.0
 10
152.1333093652646
 20
-9.828783087725613
 30
0.0
 10
152.1570326890523
 20
-9.828316997668054
 30
0.0
 10
152.1803696703782
 20
-9.827853437703566
 30
0.0
 10
152.2043112558081
 20
-9.827392152538351
 30
0.0
 10
152.2376449993771
 20
-9.826760680251084
 30
0.0
 10
152.279749301098
 20
-9.825971573627812
 30
0.0
 10
152.3301037951357
 20
-9.825004778226483
 30
0.0
 10
152.3800788526012
 20
-9.82403136578452
 30
0.0
 10
152.429984578561
 20
-9.823056088050977
 30
0.0
 10
152.4966521276463
 20
-9.821745276150435
 30
0.0
 10
152.5800119241423
 20
-9.820084169931787
 30
0.0
 10
152.680013056811
 20
-9.818062193420272
 30
0.0
 10
152.7800141803766
 20
-9.816009332828144
 30
0.0
 10
152.8800153346617
 20
-9.813926089059947
 30
0.0
 10
152.9800165151116
 20
-9.811812320666463
 30
0.0
 10
153.0800176247358
 20
-9.809668042372292
 30
0.0
 10
153.1800186202529
 20
-9.807493134620726
 30
0.0
 10
153.2800196654823
 20
-9.805287551107623
 30
0.0
 10
153.3800211131661
 20
-9.80305182480032
 30
0.0
 10
153.4800227781691
 20
-9.800786492305576
 30
0.0
 10
153.5800235441574
 20
-9.79849041424498
 30
0.0
 10
153.6800223551992
 20
-9.796161314053762
 30
0.0
 10
153.7800197839781
 20
-9.793799322424119
 30
0.0
 10
153.8800170107198
 20
-9.791408021926256
 30
0.0
 10
153.9466819148089
 20
-9.789795313101393
 30
0.0
 10
153.9800144316
 20
-9.788983243800489
 30
0.0
  0
SPLINE
  5
56412
330
1F
100
AcDbEntity
  8
1
100
AcDbSpline
210
0.0
220
0.0
230
1.0
 70
     8
 71
     3
 72
    12
 73
     8
 74
     6
 42
0.0000000001
 43
0.0000000001
 44
0.000001
 12
-0.9994982068273007
 22
-0.0316754565714668
 32
0.0
 13
-0.9994576284511412
 23
-0.032930972211898
 33
0.0
 40
0.0
 40
0.0
 40
0.0
 40
0.0
 40
0.1554501920057772
 40
0.3110740523114242
 40
0.4668636862483586
 40
0.6228106202607828
 40
0.7789063108043333
 40
0.7789063108043333
 40
0.7789063108043333
 40
0.7789063108043333
 10
148.3112545356
 20
9.727630476499458
 30
0.0
 10
148.2594638062131
 20
9.725989157897489
 30
0.0
 10
148.1558250183035
 20
9.722687904107377
 30
0.0
 10
148.0002841451185
 20
9.717687484400153
 30
0.0
 10
147.8445791133303
 20
9.712640347675257
 30
0.0
 10
147.688718088507
 20
9.707551208848634
 30
0.0
 10
147.5847599890274
 20
9.704135185948709
 30
0.0
 10
147.5327563128
 20
9.70242172499948
 30
0.0
 11
148.3112545356
 21
9.727630476499458
 31
0.0
 11
148.1558830922999
 21
9.722682985599476
 31
0.0
 11
148.0003395771
 21
9.717682818799461
 31
0.0
 11
147.8446317276999
 21
9.712635484199466
 31
0.0
 11
147.6887678506
 21
9.707546566099466
 31
0.0
 11
147.5327563128
 21
9.70242172499948
 31
0.0
  0
SPLINE
  5
56413
330
1F
100
AcDbEntity
  8
1
100
AcDbSpline
210
0.0
220
0.0
230
1.0
 70
     8
 71
     3
 72
    12
 73
     8
 74
     6
 42
0.0000000001
 43
0.0000000001
 44
0.000001
 12
-0.999579671519459
 22
-0.0289910380126437
 32
0.0
 13
-0.9995330785220538
 23
-0.0305552767983813
 33
0.0
 40
0.0
 40
0.0
 40
0.0
 40
0.0
 40
0.1554126776792681
 40
0.3110002561034792
 40
0.4667550574545205
 40
0.6226686105448146
 40
0.7787326980195749
 40
0.7787326980195749
 40
0.7787326980195749
 40
0.7787326980195749
 10
149.0896405066
 20
9.750863554899467
 30
0.0
 10
149.0378580554985
 20
9.749361696617384
 30
0.0
 10
148.9342354563147
 20
9.74633630300584
 30
0.0
 10
148.7787183332983
 20
9.741740270370561
 30
0.0
 10
148.6230358407226
 20
9.737088297440568
 30
0.0
 10
148.4671959803617
 20
9.732385058040815
 30
0.0
 10
148.3632516082001
 20
9.729220003629817
 30
0.0
 10
148.3112545356
 20
9.727630476499458
 30
0.0
 11
149.0896405066
 21
9.750863554899467
 31
0.0
 11
148.9342939742
 21
9.746329644299491
 31
0.0
 11
148.7787742826001
 21
9.741733864699456
 31
0.0
 11
148.6230889738
 21
9.737081699299466
 31
0.0
 11
148.4672463715999
 21
9.732378703199486
 31
0.0
 11
148.3112545356
 21
9.727630476499458
 31
0.0
  0
SPLINE
  5
56414
330
1F
100
AcDbEntity
  8
1
100
AcDbSpline
210
0.0
220
0.0
230
1.0
 70
     8
 71
     3
 72
    12
 73
     8
 74
     6
 42
0.0000000001
 43
0.0000000001
 44
0.000001
 12
-0.9996545393395914
 22
-0.0262831120255853
 32
0.0
 13
-0.9996035206037266
 23
-0.0281567327052605
 33
0.0
 40
0.0
 40
0.0
 40
0.0
 40
0.0
 40
0.1553766950649302
 40
0.3109298113867682
 40
0.4666509789873707
 40
0.6225323853070542
 40
0.7785656025623603
 40
0.7785656025623603
 40
0.7785656025623603
 40
0.7785656025623603
 10
149.867916205
 20
9.772104177199453
 30
0.0
 10
149.8161418654902
 20
9.770742916171935
 30
0.0
 10
149.7125350087367
 20
9.767995635777552
 30
0.0
 10
149.5570410751592
 20
9.763807333472307
 30
0.0
 10
149.4013806110853
 20
9.759553854601374
 30
0.0
 10
149.2455617181674
 20
9.755239859333181
 30
0.0
 10
149.1416309576999
 20
9.752328016763266
 30
0.0
 10
149.0896405066
 20
9.750863554899467
 30
0.0
 11
149.867916205
 21
9.772104177199453
 31
0.0
 11
149.7125940575999
 21
9.767987233299493
 31
0.0
 11
149.557097326
 21
9.763799180999484
 31
0.0
 11
149.4014342660999
 21
9.759545517299471
 31
0.0
 11
149.2456125633
 21
9.755231782499492
 31
0.0
 11
149.0896405066
 21
9.750863554899467
 31
0.0
  0
SPLINE
  5
56415
330
1F
100
AcDbEntity
  8
1
100
AcDbSpline
210
0.0
220
0.0
230
1.0
 70
     8
 71
     3
 72
    13
 73
     9
 74
     7
 42
0.0000000001
 43
0.0000000001
 44
0.000001
 12
-0.9997224236787534
 22
-0.0235600423148824
 32
0.0
 13
-0.9996688542342637
 23
-0.0257328947838014
 33
0.0
 40
0.0
 40
0.0
 40
0.0
 40
0.0
 40
0.1295618701761237
 40
0.2591725282469519
 40
0.3887834850122624
 40
0.5185503136872329
 40
0.6484250096572664
 40
0.7784033136700294
 40
0.7784033136700294
 40
0.7784033136700294
 40
0.7784033136700294
 10
150.6460817257999
 20
9.791337186799497
 30
0.0
 10
150.6029064235103
 20
9.790319692418249
 30
0.0
 10
150.5165399908248
 20
9.78826603170571
 30
0.0
 10
150.386983366644
 20
9.785133128732731
 30
0.0
 10
150.2573596516255
 20
9.781948987192997
 30
0.0
 10
150.1276491134249
 20
9.778715703883257
 30
0.0
 10
149.9978172787733
 20
9.77543497511685
 30
0.0
 10
149.9112279590826
 20
9.773219083206566
 30
0.0
 10
149.867916205
 20
9.772104177199453
 30
0.0
 11
150.6460817257999
 21
9.791337186799497
 31
0.0
 11
150.5165564400999
 21
9.788258301699473
 31
0.0
 11
150.3869836457998
 21
9.78512542399946
 31
0.0
 11
150.2574117658
 21
9.781942894499481
 31
0.0
 11
150.1276852375999
 21
9.778709152899494
 31
0.0
 11
149.9978519896999
 21
9.7754284303995
 31
0.0
 11
149.867916205
 21
9.772104177199453
 31
0.0
  0
SPLINE
  5
56416
330
1F
100
AcDbEntity
  8
1
100
AcDbSpline
210
0.0
220
0.0
230
1.0
 70
     8
 71
     3
 72
    51
 73
    47
 74
    45
 42
0.0000000001
 43
0.0000000001
 44
0.000001
 12
0.0519585754910531
 22
0.9986492409414532
 32
0.0
 13
0.0007280325314
 23
0.9999997349842816
 33
0.0
 40
0.0
 40
0.0
 40
0.0
 40
0.0
 40
0.0276025497077981
 40
0.0516163174780466
 40
0.0727715601084541
 40
0.0917472830290187
 40
0.1092221082859408
 40
0.1258820523610738
 40
0.1423516346595386
 40
0.1589356183666175
 40
0.1755671506197708
 40
0.1921072721113216
 40
0.2084010089983999
 40
0.2244263249786953
 40
0.2400949179332235
 40
0.2547795125457635
 40
0.2677316670993648
 40
0.2789001098008676
 40
0.2886578118832404
 40
0.297337446585714
 40
0.3052155798365768
 40
0.3125518387504844
 40
0.3196053795087825
 40
0.3265926282864445
 40
0.3335804322002638
 40
0.3405769392679083
 40
0.3475499434988997
 40
0.3545397997826724
 40
0.3617808505635841
 40
0.3695332840731211
 40
0.3780368147981196
 40
0.387348980226498
 40
0.3973942253960832
 40
0.4081272710013988
 40
0.4196657677742337
 40
0.4321874502348898
 40
0.4458688136147639
 40
0.4608821716448374
 40
0.4773489735913175
 40
0.4953559234649101
 40
0.5149958491000018
 40
0.5364927488044841
 40
0.560171828414952
 40
0.5863621775671172
 40
0.6153925482391779
 40
0.6475915779988927
 40
0.6475915779988927
 40
0.6475915779988927
 40
0.6475915779988927
 10
155.5666046315998
 20
7.480107341599506
 30
0.0
 10
155.567082694654
 20
7.489295763370753
 30
0.0
 10
155.5679477709322
 20
7.506479472893326
 30
0.0
 10
155.5691020540442
 20
7.530709209879772
 30
0.0
 10
155.5700552657241
 20
7.552069561957597
 30
0.0
 10
155.5708560789491
 20
7.571254811573099
 30
0.0
 10
155.5715438806282
 20
7.588944966841767
 30
0.0
 10
155.5721510539189
 20
7.60580217603233
 30
0.0
 10
155.572698725084
 20
7.62236431832092
 30
0.0
 10
155.5731947618689
 20
7.63891861626266
 30
0.0
 10
155.5736368018638
 20
7.655497967835438
 30
0.0
 10
155.5740214927643
 20
7.671981973074798
 30
0.0
 10
155.5743484299122
 20
7.688265110972972
 30
0.0
 10
155.5746182943628
 20
7.704258743256068
 30
0.0
 10
155.5748304844968
 20
7.719716813282266
 30
0.0
 10
155.5749849166529
 20
7.734151122087364
 30
0.0
 10
155.575087397017
 20
7.747085794871255
 30
0.0
 10
155.5751492255915
 20
7.758378401636502
 30
0.0
 10
155.5751822217768
 20
7.76824694649226
 30
0.0
 10
155.5751945424952
 20
7.777018765592032
 30
0.0
 10
155.5751938642097
 20
7.784983443150064
 30
0.0
 10
155.5751856597214
 20
7.792406083755668
 30
0.0
 10
155.5751728961618
 20
7.799531755468088
 30
0.0
 10
155.5751575608262
 20
7.806541269907286
 30
0.0
 10
155.5751414028278
 20
7.813531771134055
 30
0.0
 10
155.5751262449782
 20
7.820517526520789
 30
0.0
 10
155.5751142979731
 20
7.827503972559281
 30
0.0
 10
155.5751061275006
 20
7.834571938408296
 30
0.0
 10
155.5750981424038
 20
7.841899714251008
 30
0.0
 10
155.5750916261162
 20
7.849732049962943
 30
0.0
 10
155.5750858218941
 20
7.858254757879322
 30
0.0
 10
155.5750802040893
 20
7.867541736625216
 30
0.0
 10
155.5750734169998
 20
7.877571886410138
 30
0.0
 10
155.5750651547743
 20
7.888344145766289
 30
0.0
 10
155.5750558596105
 20
7.899941883652442
 30
0.0
 10
155.5750459389708
 20
7.912522393949546
 30
0.0
 10
155.5750363414515
 20
7.926261191921227
 30
0.0
 10
155.5750278819338
 20
7.9413150307079
 30
0.0
 10
155.5750205520789
 20
7.957810732394147
 30
0.0
 10
155.5750143695827
 20
7.975848623845963
 30
0.0
 10
155.575009420569
 20
7.995563214994896
 30
0.0
 10
155.5750066003358
 20
8.017168516533118
 30
0.0
 10
155.5750071302936
 20
8.040957292771853
 30
0.0
 10
155.5750120852649
 20
8.067257225640378
 30
0.0
 10
155.5750237797541
 20
8.096397139915131
 30
0.0
 10
155.5750348359196
 20
8.116806937323984
 30
0.0
 10
155.5750426499
 20
8.127539944399472
 30
0.0
 11
155.5666046315998
 21
7.480107341599506
 31
0.0
 11
155.5679956625999
 21
7.507674867199482
 31
0.0
 11
155.5691356104999
 21
7.531661562399477
 31
0.0
 11
155.5700779623998
 21
7.552795807699482
 31
0.0
 11
155.5708685472
 21
7.571755056199463
 31
0.0
 11
155.5715469174999
 21
7.589216711299484
 31
0.0
 11
155.5721461117999
 21
7.605865878599472
 31
0.0
 11
155.5726899881999
 21
7.622326480499481
 31
0.0
 11
155.5731861839999
 21
7.638903041999497
 31
0.0
 11
155.5736293809
 21
7.655528670999472
 31
0.0
 11
155.5740153638
 21
7.672064291499481
 31
0.0
 11
155.5743424544
 21
7.688354748599492
 31
0.0
 11
155.5746128048
 21
7.704377788099491
 31
0.0
 11
155.5748278244999
 21
7.720044910399479
 31
0.0
 11
155.574984875
 21
7.734728670699468
 31
0.0
 11
155.5750874324
 21
7.747680425499452
 31
0.0
 11
155.575148564
 21
7.758848708099491
 31
0.0
 11
155.575181084
 21
7.768606364599492
 31
0.0
 11
155.5751936561
 21
7.777286000999481
 31
0.0
 11
155.5751934582999
 21
7.785164148299457
 31
0.0
 11
155.5751856954
 21
7.792500422199482
 31
0.0
 11
155.5751733798999
 21
7.799553980099488
 31
0.0
 11
155.5751584020999
 21
7.806541257999469
 31
0.0
 11
155.5751425408
 21
7.813529127299459
 31
0.0
 11
155.5751276614
 21
7.82052580519948
 31
0.0
 11
155.5751153921
 21
7.82749925339948
 31
0.0
 11
155.5751056516
 21
7.83448896819945
 31
0.0
 11
155.5750977277
 21
7.841729687799471
 31
0.0
 11
155.5750910652
 21
7.849481980299485
 31
0.0
 11
155.5750851339
 21
7.857985437299504
 31
0.0
 11
155.5750792612
 21
7.86729755729945
 31
0.0
 11
155.5750724373999
 21
7.877342770599481
 31
0.0
 11
155.5750643097001
 21
7.888075791699491
 31
0.0
 11
155.5750551524999
 21
7.899614268599492
 31
0.0
 11
155.5750454284
 21
7.91213593459949
 31
0.0
 11
155.5750359528001
 21
7.92581728469949
 31
0.0
 11
155.5750274383
 21
7.940830632399467
 31
0.0
 11
155.5750200495
 21
7.957297426299503
 31
0.0
 11
155.575013822
 21
7.975304369799487
 31
0.0
 11
155.5750089548
 21
7.994944290299486
 31
0.0
 11
155.5750062183
 21
8.016441185899481
 31
0.0
 11
155.5750067359999
 21
8.040120262099462
 31
0.0
 11
155.5750117901
 21
8.066310607799463
 31
0.0
 11
155.5750230014
 21
8.095340973599462
 31
0.0
 11
155.5750426499
 21
8.127539944399472
 31
0.0
  0
SPLINE
  5
56417
330
1F
100
AcDbEntity
  8
1
100
AcDbSpline
210
0.0
220
0.0
230
1.0
 70
     8
 71
     3
 72
    23
 73
    19
 74
    17
 42
0.0000000001
 43
0.0000000001
 44
0.000001
 12
0.050452366321599
 22
0.9987264684249394
 32
0.0
 13
0.0583075794120452
 23
0.9982986658225623
 33
0.0
 40
0.0
 40
0.0
 40
0.0
 40
0.0
 40
0.1146211635943157
 40
0.2266281292604258
 40
0.3313667937441939
 40
0.4257347867804837
 40
0.5099786701070576
 40
0.5850815331303494
 40
0.6521247424389922
 40
0.7111981295918181
 40
0.7636141603178092
 40
0.8118304682434603
 40
0.8583166991207157
 40
0.9051040276877284
 40
0.9522784440856909
 40
0.9994130759644992
 40
1.046127566702246
 40
1.092052241670018
 40
1.092052241670018
 40
1.092052241670018
 40
1.092052241670018
 10
155.5069249854
 20
6.389698686099477
 30
0.0
 10
155.5088526217113
 20
6.42785708274058
 30
0.0
 10
155.5126963543189
 20
6.503301957656819
 30
0.0
 10
155.5184309404497
 20
6.613608601913663
 30
0.0
 10
155.5238460014555
 20
6.717171667056021
 30
0.0
 10
155.5287573842534
 20
6.811494070288857
 30
0.0
 10
155.5330930103986
 20
6.895954450850508
 30
0.0
 10
155.5369165415038
 20
6.971320842810587
 30
0.0
 10
155.5403586127741
 20
7.038305628497784
 30
0.0
 10
155.5434930907952
 20
7.097733925001174
 30
0.0
 10
155.5463951232631
 20
7.150890045831801
 30
0.0
 10
155.5491760668507
 20
7.19985069484646
 30
0.0
 10
155.5519670900505
 20
7.246931394233676
 30
0.0
 10
155.5548814372592
 20
7.293656646675285
 30
0.0
 10
155.5579022145679
 20
7.340591670013968
 30
0.0
 10
155.5609294274259
 20
7.387501934037119
 30
0.0
 10
155.5638712372464
 20
7.434000286354269
 30
0.0
 10
155.5657120460556
 20
7.464825161016618
 30
0.0
 10
155.5666046315998
 20
7.480107341599506
 30
0.0
 11
155.5069249854
 21
6.389698686099477
 31
0.0
 11
155.5127597189
 21
6.504171314699504
 31
0.0
 11
155.5185614947999
 21
6.616027923099465
 31
0.0
 11
155.5240215338
 21
6.72062412849948
 31
0.0
 11
155.528919672
 21
6.814864905599477
 31
0.0
 11
155.5332393363
 21
6.898997964399483
 31
0.0
 11
155.5370602712999
 21
6.974003565399498
 31
0.0
 11
155.5405100145001
 21
7.040957960999492
 31
0.0
 11
155.5436282007
 21
7.099948993999503
 31
0.0
 11
155.546490413
 21
7.152286820099476
 31
0.0
 11
155.5492279807
 21
7.200425350499472
 31
0.0
 11
155.551983886
 21
7.246829818899469
 31
0.0
 11
155.5548877585999
 21
7.293526945899456
 31
0.0
 11
155.5579034058999
 21
7.340604875299476
 31
0.0
 11
155.5609275271999
 21
7.387642394099457
 31
0.0
 11
155.5638591552999
 21
7.434264803999467
 31
0.0
 11
155.5666046315998
 21
7.480107341599506
 31
0.0
  0
SPLINE
  5
56418
330
1F
100
AcDbEntity
  8
1
100
AcDbSpline
210
0.0
220
0.0
230
1.0
 70
     8
 71
     3
 72
    17
 73
    13
 74
    11
 42
0.0000000001
 43
0.0000000001
 44
0.000001
 12
0.0506273393449862
 22
0.9987176139984953
 32
0.0
 13
0.056349532941408
 23
0.9984111027714412
 33
0.0
 40
0.0
 40
0.0
 40
0.0
 40
0.0
 40
0.1113424233121159
 40
0.2254287724319908
 40
0.3367061900270501
 40
0.4430332034614548
 40
0.5478334457026828
 40
0.6537760202323489
 40
0.7610033680936286
 40
0.8689002479228125
 40
0.9768183952429879
 40
1.084187299286038
 40
1.084187299286038
 40
1.084187299286038
 40
1.084187299286038
 10
155.4490513128
 20
5.307058549599473
 30
0.0
 10
155.4509303030162
 20
5.344125096048501
 30
0.0
 10
155.4547545036007
 20
5.419170649703954
 30
0.0
 10
155.4605250247249
 20
5.531257609756123
 30
0.0
 10
155.4662730797641
 20
5.641671691065202
 30
0.0
 10
155.4719210750386
 20
5.748991404449446
 30
0.0
 10
155.477544355526
 20
5.854531653781975
 30
0.0
 10
155.4832407286976
 20
5.960368528547952
 30
0.0
 10
155.4890477231969
 20
6.06723314125967
 30
0.0
 10
155.4949386110553
 20
6.174752679112335
 30
0.0
 10
155.5008877503378
 20
6.282316272160227
 30
0.0
 10
155.5049082562016
 20
6.353965917469817
 30
0.0
 10
155.5069249854
 20
6.389698686099477
 30
0.0
 11
155.4490513128
 21
5.307058549599473
 31
0.0
 11
155.4547173253999
 21
5.418256703699483
 31
0.0
 11
155.4605832198998
 21
5.532192144099467
 31
0.0
 11
155.4663686107
 21
5.643319041599482
 31
0.0
 11
155.4719604285999
 21
5.749498939599477
 31
0.0
 11
155.4775344572999
 21
5.85415085499946
 31
0.0
 11
155.4832277539999
 21
5.959940343599469
 31
0.0
 11
155.4890445804
 21
6.067009801299491
 31
0.0
 11
155.4949485136
 21
6.174745033299472
 31
0.0
 11
155.5009133130999
 21
6.282498211699503
 31
0.0
 11
155.5069249854
 21
6.389698686099477
 31
0.0
  0
SPLINE
  5
56419
330
1F
100
AcDbEntity
  8
1
100
AcDbSpline
210
0.0
220
0.0
230
1.0
 70
     8
 71
     3
 72
    18
 73
    14
 74
    12
 42
0.0000000001
 43
0.0000000001
 44
0.000001
 12
0.0515922783083651
 22
0.9986682316059484
 32
0.0
 13
0.0566727814339497
 23
0.9983928063866144
 33
0.0
 40
0.0
 40
0.0
 40
0.0
 40
0.0
 40
0.0490283247544305
 40
0.0934162747334417
 40
0.1375421065641319
 40
0.1835612369856767
 40
0.2297542151095754
 40
0.2751383245141951
 40
0.319786682485374
 40
0.3650843474166754
 40
0.4133967283864913
 40
0.4670469900736047
 40
0.5285012915252397
 40
0.5285012915252397
 40
0.5285012915252397
 40
0.5285012915252397
 10
155.4202994355999
 20
4.779340535899478
 30
0.0
 10
155.4211425965918
 20
4.795661546026515
 30
0.0
 10
155.4227588477754
 20
4.826758332134556
 30
0.0
 10
155.4251588171148
 20
4.87254284380284
 30
0.0
 10
155.4275294152374
 20
4.917324447850371
 30
0.0
 10
155.4299557340703
 20
4.962705614599576
 30
0.0
 10
155.4324301825487
 20
5.00850422573181
 30
0.0
 10
155.434903150903
 20
5.053845319781193
 30
0.0
 10
155.4373807074712
 20
5.098887277154872
 30
0.0
 10
155.4399313057676
 20
5.144902778512462
 30
0.0
 10
155.4426673177918
 20
5.193913239418176
 30
0.0
 10
155.4457246953498
 20
5.248299686399178
 30
0.0
 10
155.4478903840685
 20
5.286606705435864
 30
0.0
 10
155.4490513128
 20
5.307058549599473
 30
0.0
 11
155.4202994355999
 21
4.779340535899478
 31
0.0
 11
155.4228419276
 21
4.828302897399481
 31
0.0
 11
155.4251662205
 21
4.872629951799495
 31
0.0
 11
155.4274988438
 21
4.916694085999465
 31
0.0
 11
155.4299559375999
 21
4.962647574399483
 31
0.0
 11
155.4324476937
 21
5.008773298699479
 31
0.0
 11
155.4349190322999
 21
5.054090071999467
 31
0.0
 11
155.4373709371
 21
5.098671055699468
 31
0.0
 11
155.4398775715999
 21
5.143899313699478
 31
0.0
 11
155.4425701124998
 21
5.192136607599507
 31
0.0
 11
155.4455805262
 21
5.245702346199465
 31
0.0
 11
155.4490513128
 21
5.307058549599473
 31
0.0
  0
SPLINE
  5
5641A
330
1F
100
AcDbEntity
  8
1
100
AcDbSpline
210
0.0
220
0.0
230
1.0
 70
     8
 71
     3
 72
    14
 73
    10
 74
     8
 42
0.0000000001
 43
0.0000000001
 44
0.000001
 12
0.0539559858510071
 22
0.9985433148295802
 32
0.0
 13
0.0555539235162392
 23
0.9984556883417269
 33
0.0
 40
0.0
 40
0.0
 40
0.0
 40
0.0
 40
0.1381140124893089
 40
0.2884825469597324
 40
0.4563056236511591
 40
0.6290548626617773
 40
0.7873552541892707
 40
0.9259806786464752
 40
1.048767832778082
 40
1.048767832778082
 40
1.048767832778082
 40
1.048767832778082
 10
155.3469318829001
 20
3.438085684399482
 30
0.0
 10
155.3494159088013
 20
3.484056625684644
 30
0.0
 10
155.3546135877398
 20
3.580076902139017
 30
0.0
 10
155.3628984545167
 20
3.731952975728715
 30
0.0
 10
155.3717964339925
 20
3.895357841968086
 30
0.0
 10
155.3808083694251
 20
4.061404369721559
 30
0.0
 10
155.389326517383
 20
4.217730820966584
 30
0.0
 10
155.3969953036673
 20
4.357424811710491
 30
0.0
 10
155.4018186895103
 20
4.444428743233495
 30
0.0
 10
155.4040924589001
 20
4.485294587399494
 30
0.0
 11
155.3469318829001
 21
3.438085684399482
 31
0.0
 11
155.3544029899001
 21
3.575997478199468
 31
0.0
 11
155.3625802634001
 21
3.726143501599466
 31
0.0
 11
155.3717032085
 21
3.893718430799451
 31
0.0
 11
155.3810768401999
 21
4.066213168399456
 31
0.0
 11
155.3896957599999
 21
4.224278749799482
 31
0.0
 11
155.3972989038999
 21
4.36269551279949
 31
0.0
 11
155.4040924589001
 21
4.485294587399494
 31
0.0
  0
ARC
  5
5641B
330
1F
100
AcDbEntity
  8
1
100
AcDbCircle
 10
145.585006
 20
12.21499999999949
 30
0.0
 40
3.0
100
AcDbArc
 50
270.0
 51
302.7237589999955
  0
ARC
  5
5641C
330
1F
100
AcDbEntity
  8
1
100
AcDbCircle
 10
154.091173
 20
-8.216863000000499
 30
0.0
 40
1.48383
100
AcDbArc
 50
355.2702519999995
 51
355.9890989999991
  0
ARC
  5
5641D
330
1F
100
AcDbEntity
  8
1
100
AcDbCircle
 10
154.0797259999999
 20
-8.213355000000516
 30
0.0
 40
1.495529
100
AcDbArc
 50
346.2806729999987
 51
355.1724609999994
  0
ARC
  5
5641E
330
1F
100
AcDbEntity
  8
1
100
AcDbCircle
 10
154.0432509999999
 20
-8.195516000000509
 30
0.0
 40
1.536091
100
AcDbArc
 50
328.0396800000001
 51
328.4540679999982
  0
ARC
  5
5641F
330
1F
100
AcDbEntity
  8
1
100
AcDbCircle
 10
153.9462139999999
 20
-8.296515000000511
 30
0.0
 40
1.570465999999995
100
AcDbArc
 50
331.0886079999938
 51
332.4809980000035
  0
ARC
  5
56420
330
1F
100
AcDbEntity
  8
1
100
AcDbCircle
 10
154.058004
 20
-7.61565700000051
 30
0.0
 40
2.171072999999998
100
AcDbArc
 50
273.0709250000023
 51
273.8437609999992
  0
ARC
  5
56421
330
1F
100
AcDbEntity
  8
1
100
AcDbCircle
 10
145.585006
 20
-12.21500000000051
 30
0.0
 40
3.0
100
AcDbArc
 50
57.27624099999672
 51
90.0
  0
ARC
  5
56422
330
1F
100
AcDbEntity
  8
1
100
AcDbCircle
 10
152.9836749999999
 20
-6.308460000000536
 30
0.0
 40
3.750266
100
AcDbArc
 50
297.0528259999985
 51
298.9674539999985
  0
LINE
  5
56423
330
1F
100
AcDbEntity
  8
1
100
AcDbLine
 10
155.575002
 20
-8.251571000000552
 30
0.0
 11
155.5713680000001
 21
-8.320652000000535
 31
0.0
  0
LINE
  5
56424
330
1F
100
AcDbEntity
  8
1
100
AcDbLine
 10
155.575018
 20
-8.167303000000515
 30
0.0
 11
155.575002
 21
-8.251571000000552
 31
0.0
  0
LINE
  5
56425
330
1F
100
AcDbEntity
  8
1
100
AcDbLine
 10
155.575043
 20
-8.12754000000055
 30
0.0
 11
155.575018
 21
-8.167303000000515
 31
0.0
  0
LINE
  5
56426
330
1F
100
AcDbEntity
  8
1
100
AcDbLine
 10
147.532756
 20
-9.702422000000552
 30
0.0
 11
147.2067739999999
 21
-9.691140000000499
 31
0.0
  0
LINE
  5
56427
330
1F
100
AcDbEntity
  8
1
100
AcDbLine
 10
155.4040919999999
 20
-4.485295000000518
 30
0.0
 11
155.4202990000001
 21
-4.779341000000528
 31
0.0
  0
LINE
  5
56428
330
1F
100
AcDbEntity
  8
1
100
AcDbLine
 10
155.2938289999999
 20
-2.466854000000523
 30
0.0
 11
155.346932
 21
-3.438086000000538
 31
0.0
  0
LINE
  5
56429
330
1F
100
AcDbEntity
  8
1
100
AcDbLine
 10
155.2379009999999
 20
-1.447751000000521
 30
0.0
 11
155.2938289999999
 21
-2.466854000000523
 31
0.0
  0
LINE
  5
5642A
330
1F
100
AcDbEntity
  8
1
100
AcDbLine
 10
155.189535
 20
-0.569803000000519
 30
0.0
 11
155.2379009999999
 21
-1.447751000000521
 31
0.0
  0
LINE
  5
5642B
330
1F
100
AcDbEntity
  8
1
100
AcDbLine
 10
155.1586489999999
 20
-0.2141730000005282
 30
0.0
 11
155.170996
 21
-0.2374550000005513
 31
0.0
  0
LINE
  5
5642C
330
1F
100
AcDbEntity
  8
1
100
AcDbLine
 10
155.170996
 20
-0.2374550000005513
 30
0.0
 11
155.189535
 21
-0.569803000000519
 31
0.0
  0
LINE
  5
5642D
330
1F
100
AcDbEntity
  8
1
100
AcDbLine
 10
153.9800139999999
 20
-9.788983000000511
 30
0.0
 11
154.1418259999999
 21
-9.784987000000539
 31
0.0
  0
LINE
  5
5642E
330
1F
100
AcDbEntity
  8
1
100
AcDbLine
 10
154.1418259999999
 20
-9.784987000000539
 30
0.0
 11
154.1743129999999
 21
-9.783612000000541
 31
0.0
  0
LINE
  5
5642F
330
1F
100
AcDbEntity
  8
1
100
AcDbLine
 10
155.158648
 20
0.2141729999994766
 30
0.0
 11
155.1585799999999
 21
0.0911439999994741
 31
0.0
  0
LINE
  5
56430
330
1F
100
AcDbEntity
  8
1
100
AcDbLine
 10
155.1585799999999
 20
-0.0911440000005257
 30
0.0
 11
155.1586504207314
 21
-0.214175678988596
 31
0.0
  0
LINE
  5
56431
330
1F
100
AcDbEntity
  8
1
100
AcDbLine
 10
155.1585799999999
 20
0.0911439999994741
 30
0.0
 11
155.1585799999999
 21
-0.0911440000005257
 31
0.0
  0
LINE
  5
56432
330
1F
100
AcDbEntity
  8
1
100
AcDbLine
 10
151.0380029999998
 20
-9.800247000000553
 30
0.0
 11
150.646082
 21
-9.79133700000051
 31
0.0
  0
LINE
  5
56433
330
1F
100
AcDbEntity
  8
1
100
AcDbLine
 10
147.532756
 20
9.702421999999472
 30
0.0
 11
147.2067739999999
 21
9.691139999999476
 31
0.0
  0
LINE
  5
56434
330
1F
100
AcDbEntity
  8
1
100
AcDbLine
 10
155.575043
 20
8.127539999999468
 30
0.0
 11
155.575018
 21
8.167302999999462
 31
0.0
  0
LINE
  5
56435
330
1F
100
AcDbEntity
  8
1
100
AcDbLine
 10
155.575006
 20
8.216822999999491
 30
0.0
 11
155.5749838348992
 21
8.409371229978942
 31
0.0
  0
LINE
  5
56436
330
1F
100
AcDbEntity
  8
1
100
AcDbLine
 10
155.575018
 20
8.167302999999462
 30
0.0
 11
155.575006
 21
8.216822999999491
 31
0.0
  0
LINE
  5
56437
330
1F
100
AcDbEntity
  8
1
100
AcDbLine
 10
155.4040919999999
 20
4.485294999999466
 30
0.0
 11
155.4202990000001
 21
4.779340999999448
 31
0.0
  0
LINE
  5
56438
330
1F
100
AcDbEntity
  8
1
100
AcDbLine
 10
155.2938289999999
 20
2.466853999999471
 30
0.0
 11
155.346932
 21
3.438085999999486
 31
0.0
  0
LINE
  5
56439
330
1F
100
AcDbEntity
  8
1
100
AcDbLine
 10
155.2379009999999
 20
1.44775099999947
 30
0.0
 11
155.2938289999999
 21
2.466853999999471
 31
0.0
  0
LINE
  5
5643A
330
1F
100
AcDbEntity
  8
1
100
AcDbLine
 10
155.189535
 20
0.5698029999994958
 30
0.0
 11
155.2379009999999
 21
1.44775099999947
 31
0.0
  0
LINE
  5
5643B
330
1F
100
AcDbEntity
  8
1
100
AcDbLine
 10
155.1586479998176
 20
0.2141726699793196
 30
0.0
 11
155.170996
 21
0.2374549999994713
 31
0.0
  0
LINE
  5
5643C
330
1F
100
AcDbEntity
  8
1
100
AcDbLine
 10
155.170996
 20
0.2374549999994713
 30
0.0
 11
155.189535
 21
0.5698029999994958
 31
0.0
  0
LINE
  5
5643D
330
1F
100
AcDbEntity
  8
1
100
AcDbLine
 10
140.5850059999998
 20
-9.215000000000516
 30
0.0
 11
140.5850059999998
 21
-8.734160866847531
 31
0.0
  0
LINE
  5
5643E
330
1F
100
AcDbEntity
  8
1
100
AcDbLine
 10
140.585006
 20
8.148631742552401
 30
0.0
 11
140.585006
 21
9.214999999999491
 31
0.0
  0
LINE
  5
5643F
330
1F
100
AcDbEntity
  8
1
100
AcDbLine
 10
141.36273
 20
-9.215000000000516
 30
0.0
 11
141.36273
 21
-8.734160866847531
 31
0.0
  0
LINE
  5
56440
330
1F
100
AcDbEntity
  8
1
100
AcDbLine
 10
141.36273
 20
7.915951924444327
 30
0.0
 11
141.36273
 21
9.214999999999461
 31
0.0
  0
LINE
  5
56441
330
1F
100
AcDbEntity
  8
1
100
AcDbLine
 10
145.585006
 20
9.214999999999491
 30
0.0
 11
140.585006
 21
9.214999999999491
 31
0.0
  0
LINE
  5
56442
330
1F
100
AcDbEntity
  8
1
100
AcDbLine
 10
150.25727
 20
9.78193999999948
 30
0.0
 11
150.252093
 21
9.78181199999949
 31
0.0
  0
LINE
  5
56443
330
1F
100
AcDbEntity
  8
1
100
AcDbLine
 10
155.338993
 20
-9.022137000000526
 30
0.0
 11
155.340445
 21
-9.019377000000533
 31
0.0
  0
LINE
  5
56444
330
1F
100
AcDbEntity
  8
1
100
AcDbLine
 10
155.345233
 20
-9.010728000000511
 30
0.0
 11
155.3464934715201
 21
-9.008617851374113
 31
0.0
  0
LINE
  5
56445
330
1F
100
AcDbEntity
  8
1
100
AcDbLine
 10
155.3445599999999
 20
-9.011894000000495
 30
0.0
 11
155.345233
 21
-9.010728000000511
 31
0.0
  0
LINE
  5
56446
330
1F
100
AcDbEntity
  8
1
100
AcDbLine
 10
155.343745
 20
-9.013331000000532
 30
0.0
 11
155.3445599999999
 21
-9.011894000000495
 31
0.0
  0
LINE
  5
56447
330
1F
100
AcDbEntity
  8
1
100
AcDbLine
 10
155.342786
 20
-9.015051000000511
 30
0.0
 11
155.343745
 21
-9.013331000000532
 31
0.0
  0
LINE
  5
56448
330
1F
100
AcDbEntity
  8
1
100
AcDbLine
 10
155.3416859999999
 20
-9.017063000000517
 30
0.0
 11
155.342786
 21
-9.015051000000511
 31
0.0
  0
LINE
  5
56449
330
1F
100
AcDbEntity
  8
1
100
AcDbLine
 10
155.340445
 20
-9.019377000000533
 30
0.0
 11
155.3416859999999
 21
-9.017063000000517
 31
0.0
  0
LINE
  5
5644A
330
1F
100
AcDbEntity
  8
1
100
AcDbLine
 10
140.5850059999998
 20
-9.215000000000516
 30
0.0
 11
145.585006
 21
-9.215000000000516
 31
0.0
  0
LINE
  5
5644B
330
1F
100
AcDbEntity
  8
1
100
AcDbLine
 10
152.6516008271733
 20
9.882770544056342
 30
0.0
 11
154.0468603154138
 21
9.908934890695546
 31
0.0
  0
ARC
  5
5644C
102
{ACAD_REACTORS
330
5644F
102
}
330
1F
100
AcDbEntity
  8
1
100
AcDbCircle
 10
154.0749838448377
 20
8.409198558171482
 30
0.0
 40
1.5
100
AcDbArc
 50
0.0065955772191328
 51
91.07430264110911
  0
DIMENSION
  5
5644D
102
{ACAD_XDICTIONARY
360
5644E
102
}
102
{ACAD_REACTORS
330
5644F
102
}
330
1F
100
AcDbEntity
  8
2
100
AcDbDimension
  2
*D12
 10
154.0749838448377
 20
8.409198558171482
 30
0.0
 11
176.8378263247619
 21
27.10240928383774
 31
0.0
 70
    36
 71
     5
 42
1.500000000000085
  3
\M+18352\M+18373\M+1815B - ISO-25
100
AcDbRadialDimension
 15
155.3540775906804
 25
9.192728512510399
 35
0.0
 40
0.0
1001
ACAD
1000
DSTYLE
1002
{
1070
     4
1000
"
1070
    40
1040
1.0
1070
   143
1040
0.03937
1070
   170
1070
     1
1070
   171
1070
     4
1070
   271
1070
     8
1070
   285
1070
     4
1002
}
  0
LINE
  5
56450
330
1F
100
AcDbEntity
  8
cut
100
AcDbLine
 10
147.575006
 20
9.764164992100091
 30
0.0
 11
152.075006
 21
9.999999998900106
 31
0.0
1001
ACAD
1000
RTMaterial
1005
0
  0
LINE
  5
56451
330
1F
100
AcDbEntity
  8
cut
100
AcDbLine
 10
140.575006
 20
9.214999998900085
 30
0.0
 11
145.844859252
 21
9.214999998900085
 31
0.0
1001
ACAD
1000
RTMaterial
1005
0
  0
LINE
  5
56452
330
1F
100
AcDbEntity
  8
cut
100
AcDbLine
 10
152.075006
 20
9.999999998900106
 30
0.0
 11
154.075006
 21
9.999999998900106
 31
0.0
1001
ACAD
1000
RTMaterial
1005
0
  0
LINE
  5
56453
330
1F
100
AcDbEntity
  8
cut
100
AcDbLine
 10
155.575006
 20
7.999999998899254
 30
0.0
 11
155.575006
 21
8.499999998900106
 31
0.0
1001
ACAD
1000
RTMaterial
1005
0
  0
LINE
  5
56454
330
1F
100
AcDbEntity
  8
cut
100
AcDbLine
 10
140.575006
 20
-9.215000001099866
 30
0.0
 11
140.575006
 21
9.214999998900085
 31
0.0
1001
ACAD
1000
RTMaterial
1005
0
  0
LINE
  5
56455
330
1F
100
AcDbEntity
  8
cut
100
AcDbLine
 10
155.1557437656999
 20
-0.0000000010998917
 30
0.0
 11
155.575006
 21
7.999999998900107
 31
0.0
1001
ACAD
1000
RTMaterial
1005
0
  0
ARC
  5
56456
330
1F
100
AcDbEntity
  8
cut
100
AcDbCircle
 10
145.844859252
 20
12.21499999890008
 30
0.0
 40
3.0
100
AcDbArc
 50
270.0
 51
305.2198642368032
1001
ACAD
1000
RTMaterial
1005
0
  0
ARC
  5
56457
330
1F
100
AcDbEntity
  8
cut
100
AcDbCircle
 10
154.075006
 20
8.499999998900106
 30
0.0
 40
1.5
100
AcDbArc
 50
0.0
 51
90.0
1001
ACAD
1000
RTMaterial
1005
0
  0
LINE
  5
56458
330
1F
100
AcDbEntity
  8
cut
100
AcDbLine
 10
147.5750060014731
 20
-9.764164993243667
 30
0.0
 11
152.0750060015088
 21
-9.999999999364804
 31
0.0
1001
ACAD
1000
RTMaterial
1005
0
  0
LINE
  5
56459
330
1F
100
AcDbEntity
  8
cut
100
AcDbLine
 10
140.5750060013904
 20
-9.215000001099806
 30
0.0
 11
145.8448592533902
 21
-9.21500000030474
 31
0.0
1001
ACAD
1000
RTMaterial
1005
0
  0
LINE
  5
5645A
330
1F
100
AcDbEntity
  8
cut
100
AcDbLine
 10
152.0750060015088
 20
-9.999999999364804
 30
0.0
 11
154.0750060015088
 21
-9.999999999063019
 31
0.0
1001
ACAD
1000
RTMaterial
1005
0
  0
LINE
  5
5645B
330
1F
100
AcDbEntity
  8
cut
100
AcDbLine
 10
155.575006001207
 20
-7.999999998835875
 30
0.0
 11
155.5750060012825
 21
-8.499999998836727
 31
0.0
1001
ACAD
1000
RTMaterial
1005
0
  0
LINE
  5
5645C
330
1F
100
AcDbEntity
  8
cut
100
AcDbLine
 10
155.1557437656999
 20
0.0000000011000054
 30
0.0
 11
155.575006001207
 21
-7.999999998836726
 31
0.0
1001
ACAD
1000
RTMaterial
1005
0
  0
ARC
  5
5645D
330
1F
100
AcDbEntity
  8
cut
100
AcDbCircle
 10
145.8448592538429
 20
-12.21500000030474
 30
0.0
 40
3.0
100
AcDbArc
 50
54.78013577184788
 51
90.00000000864378
1001
ACAD
1000
RTMaterial
1005
0
  0
ARC
  5
5645E
330
1F
100
AcDbEntity
  8
cut
100
AcDbCircle
 10
154.0750060012825
 20
-8.499999999063021
 30
0.0
 40
1.5
100
AcDbArc
 50
270.0000000086438
 51
0.0000000086437807
1001
ACAD
1000
RTMaterial
1005
0
  0
DIMENSION
  5
56762
330
1F
100
AcDbEntity
  8
sk2
100
AcDbDimension
  2
*D21
 10
155.575001
 20
57.76993837275657
 30
0.0
 11
28.574997
 21
57.76993837275657
 31
0.0
 70
   160
 71
     5
 41
0.892857
 42
254.0
  3
\M+18352\M+18373\M+1815B - ISO-25
100
AcDbAlignedDimension
 13
-98.42499899999999
 23
8.325021133152489
 33
0.0
 14
155.575001
 24
0.1101691331523966
 34
0.0
 50
180.0
100
AcDbRotatedDimension
1001
ACAD
1000
DSTYLE
1002
{
1070
     4
1000
"
1070
    40
1040
1.0
1070
   143
1040
0.03937
1070
   170
1070
     1
1070
   171
1070
     3
1070
   271
1070
     8
1070
   285
1070
     4
1002
}
  0
LINE
  5
56763
330
1F
100
AcDbEntity
  8
sk1
100
AcDbLine
 10
-98.42500300000004
 20
0.0000001331524402
 30
0.0
 11
-98.42500300000004
 21
-8.324980866847539
 31
0.0
  0
LINE
  5
56764
330
1F
100
AcDbEntity
  8
sk1
100
AcDbLine
 10
-97.22499000000002
 20
0.0000001331524402
 30
0.0
 11
-97.22499000000002
 21
-9.524993866847552
 31
0.0
  0
LINE
  5
56766
330
1F
100
AcDbEntity
  8
sk4
100
AcDbLine
 10
-105.091354
 20
0.0000001331524402
 30
0.0
 11
0.0
 21
0.0000001331524402
 31
0.0
  0
LINE
  5
56767
330
1F
100
AcDbEntity
  8
sk1
100
AcDbLine
 10
-97.22502099999999
 20
-9.524993866847552
 30
0.0
 11
0.0
 21
-9.524993866847552
 31
0.0
  0
LINE
  5
56768
330
1F
100
AcDbEntity
  8
sk1
100
AcDbLine
 10
-97.22500100000004
 20
-9.524980866847528
 30
0.0
 11
-98.42500000000001
 21
-8.324981866847537
 31
0.0
  0
LINE
  5
5676B
330
1F
100
AcDbEntity
  8
sk1
100
AcDbLine
 10
-98.42499899999999
 20
0.0000401331525097
 30
0.0
 11
-98.42499899999999
 21
8.325021133152489
 31
0.0
  0
LINE
  5
5676C
330
1F
100
AcDbEntity
  8
sk1
100
AcDbLine
 10
-97.22499000000002
 20
0.0000311331524756
 30
0.0
 11
-97.22499000000002
 21
9.525025133152468
 31
0.0
  0
LINE
  5
56770
330
1F
100
AcDbEntity
  8
sk1
100
AcDbLine
 10
-97.22501300000002
 20
9.525007133152456
 30
0.0
 11
-98.42499899999999
 21
8.325021133152489
 31
0.0
  0
LINE
  5
56771
330
1F
100
AcDbEntity
  8
sk1
100
AcDbLine
 10
-97.22502099999999
 20
9.525025133152468
 30
0.0
 11
0.0000009999999975
 21
9.525025133152439
 31
0.0
  0
DIMENSION
  5
56772
330
1F
100
AcDbEntity
  8
sk2
100
AcDbDimension
  2
*D22
 10
-126.1486419999395
 20
9.525031133152518
 30
0.0
 11
-126.1486419999395
 21
-39.56664553351428
 31
0.0
 70
   160
  1
%%c<>
 71
     5
 41
0.892857
 42
19.05000000000001
  3
\M+18352\M+18373\M+1815B - ISO-25
100
AcDbAlignedDimension
 13
-97.22499999993951
 23
-9.524968866847501
 33
0.0
 14
-97.22499999993951
 24
9.525031133152509
 34
0.0
 50
270.0
100
AcDbRotatedDimension
1001
ACAD
1000
DSTYLE
1002
{
1070
     4
1000
%%C[]"
1070
    40
1040
1.0
1070
   143
1040
0.03937
1070
   170
1070
     1
1070
   171
1070
     3
1070
   271
1070
     8
1070
   285
1070
     4
1002
}
  0
DIMENSION
  5
56773
330
1F
100
AcDbEntity
  8
2
100
AcDbDimension
  2
*D23
 10
0.0000009999999995
 20
43.19184928527957
 30
0.0
 11
77.78750099999996
 21
43.19184928527957
 31
0.0
 70
   160
 71
     5
 42
155.575
  3
\M+18352\M+18373\M+1815B - ISO-25
100
AcDbAlignedDimension
 13
155.575001
 23
0.1101691331523966
 33
0.0
 14
0.0000009999999975
 24
9.372548038889107
 34
0.0
 50
180.0
100
AcDbRotatedDimension
1001
ACAD
1000
DSTYLE
1002
{
1070
     4
1000
"
1070
    40
1040
1.0
1070
   143
1040
0.03937
1070
   170
1070
     1
1070
   171
1070
     3
1070
   271
1070
     8
1070
   285
1070
     4
1002
}
  0
VIEWPORT
  5
6B
102
{ACAD_XDICTIONARY
360
5686D
102
}
330
50
100
AcDbEntity
 67
     1
  8
0
100
AcDbViewport
 10
150.1652135264906
 20
160.4455827878762
 30
0.0
 40
339.1973820494346
 41
282.2272140146125
 68
     1
 69
     1
 12
150.1652135264906
 22
160.4455827878762
 13
0.0
 23
0.0
 14
10.0
 24
10.0
 15
10.0
 25
10.0
 16
0.0
 26
0.0
 36
1.0
 17
0.0
 27
0.0
 37
0.0
 42
50.0
 43
0.0
 44
0.0
 45
282.2272140146125
 50
0.0
 51
0.0
 72
  1000
 90
    32864
  1

281
     0
 71
     1
 74
     0
110
0.0
120
0.0
130
0.0
111
1.0
121
0.0
131
0.0
112
0.0
122
1.0
132
0.0
 79
     0
146
0.0
  0
VIEWPORT
  5
6D
102
{ACAD_XDICTIONARY
360
5686F
102
}
330
50
100
AcDbEntity
 67
     1
  8
0
100
AcDbViewport
 10
133.3499939441681
 20
101.5999939441681
 30
0.0
 40
213.3599903106689
 41
162.5599903106689
 68
     2
 69
     2
 12
210.0
 22
148.5
 13
0.0
 23
0.0
 14
10.0
 24
10.0
 15
10.0
 25
10.0
 16
0.0
 26
0.0
 36
1.0
 17
0.0
 27
0.0
 37
0.0
 42
50.0
 43
0.0
 44
0.0
 45
324.0677920111345
 50
0.0
 51
0.0
 72
   100
 90
    32864
  1

281
     0
 71
     1
 74
     0
110
0.0
120
0.0
130
0.0
111
1.0
121
0.0
131
0.0
112
0.0
122
1.0
132
0.0
 79
     0
146
0.0
  0
ENDSEC
  0
SECTION
  2
OBJECTS
  0
DICTIONARY
  5
C
330
0
100
AcDbDictionary
281
     1
  3
ACAD_COLOR
350
85
  3
ACAD_GROUP
350
D
  3
ACAD_LAYOUT
350
1A
  3
ACAD_MATERIAL
350
84
  3
ACAD_MLINESTYLE
350
17
  3
ACAD_PLOTSETTINGS
350
19
  3
ACAD_PLOTSTYLENAME
350
E
  3
ACAD_TABLESTYLE
350
A1
  3
ACDBHEADERROUNDTRIPXREC
350
56868
  3
AcDbVariableDictionary
350
5E
  3
ASE_INDEX_DICTIONARY
350
349E9
  3
DWGPROPS
350
56867
  0
DICTIONARY
  5
E2
330
2
100
AcDbDictionary
280
     1
281
     1
  3
ACAD_LAYERFILTERS
360
54D7C
  3
ACAD_LAYERSTATES
360
3759A
  3
ACLYDICTIONARY
360
54D7B
  0
DICTIONARY
  5
31EE
330
1F
100
AcDbDictionary
280
     1
281
     1
  3
ACAD_SORTENTS
360
31EF
  0
DICTIONARY
  5
3BEB2
330
680
100
AcDbDictionary
280
     1
281
     1
  3
ACAD_SORTENTS
360
56710
  0
DICTIONARY
  5
56871
330
71
100
AcDbDictionary
280
     1
281
     1
  3
ACAD_XREC_ROUNDTRIP
360
56872
  0
DICTIONARY
  5
56873
330
73
100
AcDbDictionary
280
     1
281
     1
  3
ACAD_XREC_ROUNDTRIP
360
56874
  0
DICTIONARY
  5
56281
330
56280
100
AcDbDictionary
280
     1
281
     1
  3
ACAD_DIMASSOC
360
56282
  0
DICTIONARY
  5
5644E
330
5644D
100
AcDbDictionary
280
     1
281
     1
  3
ACAD_DIMASSOC
360
5644F
  0
DICTIONARY
  5
5686D
330
6B
100
AcDbDictionary
280
     1
281
     1
  3
ACAD_XREC_ROUNDTRIP
360
5686E
  0
DICTIONARY
  5
5686F
330
6D
100
AcDbDictionary
280
     1
281
     1
  3
ACAD_XREC_ROUNDTRIP
360
56870
  0
DICTIONARY
  5
85
102
{ACAD_REACTORS
330
C
102
}
330
C
100
AcDbDictionary
281
     1
  0
DICTIONARY
  5
D
102
{ACAD_REACTORS
330
C
102
}
330
C
100
AcDbDictionary
281
     1
  0
DICTIONARY
  5
1A
102
{ACAD_REACTORS
330
C
102
}
330
C
100
AcDbDictionary
281
     1
  3
\M+1838C\M+18343\M+18341\M+18345\M+183671
350
51
  3
\M+1838C\M+18343\M+18341\M+18345\M+183672
350
56
  3
Model
350
22
  0
DICTIONARY
  5
84
102
{ACAD_REACTORS
330
C
102
}
330
C
100
AcDbDictionary
281
     1
  0
DICTIONARY
  5
17
102
{ACAD_REACTORS
330
C
102
}
330
C
100
AcDbDictionary
281
     1
  3
Standard
350
18
  0
DICTIONARY
  5
19
102
{ACAD_REACTORS
330
C
102
}
330
C
100
AcDbDictionary
281
     1
  0
ACDBDICTIONARYWDFLT
  5
E
102
{ACAD_REACTORS
330
C
102
}
330
C
100
AcDbDictionary
281
     1
  3
Normal
350
F
100
AcDbDictionaryWithDefault
340
F
  0
DICTIONARY
  5
A1
102
{ACAD_REACTORS
330
C
102
}
330
C
100
AcDbDictionary
281
     1
  3
Standard
350
A2
  0
DICTIONARY
  5
56868
102
{ACAD_REACTORS
330
C
102
}
330
C
100
AcDbDictionary
281
     1
  0
DICTIONARY
  5
5E
102
{ACAD_REACTORS
330
C
102
}
330
C
100
AcDbDictionary
281
     1
  3
CTABLESTYLE
350
B8
  3
DIMASSOC
350
5F
  3
HIDETEXT
350
63
  3
PROJECTNAME
350
31CE
  0
DICTIONARY
  5
349E9
102
{ACAD_REACTORS
330
C
102
}
330
C
100
AcDbDictionary
281
     1
  3
ASEBlockHierarchyIndexRecord
350
349EA
1001
DCO15
1040
1842496176.844
  0
XRECORD
  5
56867
102
{ACAD_REACTORS
330
C
102
}
330
C
100
AcDbXrecord
280
     1
  1
DWGPROPS COOKIE
  2

  3

  4

  6

  7

  8

  9

300
=
301
=
302
=
303
=
304
=
305
=
306
=
307
=
308
=
309
=
 40
2.653649189814814
 41
2455489.391063368
 42
2458572.982561875
  1

 90
        0
  0
DICTIONARY
  5
54D7C
102
{ACAD_REACTORS
330
E2
102
}
330
E2
100
AcDbDictionary
281
     1
  0
DICTIONARY
  5
3759A
102
{ACAD_REACTORS
330
E2
102
}
330
E2
100
AcDbDictionary
281
     1
  0
DICTIONARY
  5
54D7B
102
{ACAD_REACTORS
330
E2
102
}
330
E2
100
AcDbDictionary
281
     1
1001
ACAD
1000
<All
  0
SORTENTSTABLE
  5
31EF
102
{ACAD_REACTORS
330
31EE
102
}
330
31EE
100
AcDbSortentsTable
330
1F
331
53DFB
  5
53DFB
331
68C
  5
3C6B0
  0
SORTENTSTABLE
  5
56710
102
{ACAD_REACTORS
330
3BEB2
102
}
330
3BEB2
100
AcDbSortentsTable
330
680
  0
XRECORD
  5
56872
102
{ACAD_REACTORS
330
56871
102
}
330
56871
100
AcDbXrecord
280
     1
102
SHADEPLOT
 70
     0
  0
XRECORD
  5
56874
102
{ACAD_REACTORS
330
56873
102
}
330
56873
100
AcDbXrecord
280
     1
102
SHADEPLOT
 70
     0
  0
DIMASSOC
  5
56282
102
{ACAD_REACTORS
330
56281
102
}
330
56281
100
AcDbDimAssoc
330
56280
 90
        2
 70
     0
 71
     0
  1
AcDbOsnapPointRef
 72
     1
331
562C0
 73
     2
 91
        0
 40
1.0
 10
0.0
 20
0.0
 30
2.000000000000000E+50
 75
     0
  0
DIMASSOC
  5
5644F
102
{ACAD_REACTORS
330
5644E
102
}
330
5644E
100
AcDbDimAssoc
330
5644D
 90
        2
 70
     0
 71
     0
  1
AcDbOsnapPointRef
 72
     3
331
5644C
 73
     2
 91
        0
 40
0.0
 10
0.0
 20
0.0
 30
0.0
 75
     0
  0
XRECORD
  5
5686E
102
{ACAD_REACTORS
330
5686D
102
}
330
5686D
100
AcDbXrecord
280
     1
102
SHADEPLOT
 70
     0
  0
XRECORD
  5
56870
102
{ACAD_REACTORS
330
5686F
102
}
330
5686F
100
AcDbXrecord
280
     1
102
SHADEPLOT
 70
     0
  0
LAYOUT
  5
51
102
{ACAD_XDICTIONARY
360
B2
102
}
102
{ACAD_REACTORS
330
1A
102
}
330
1A
100
AcDbPlotSettings
  1

  2
none_device
  4
Letter_(8.50_x_11.00_Inches)
  6

 40
6.349999904632567
 41
6.349999904632567
 42
6.350006103515625
 43
6.350006103515625
 44
215.8999938964844
 45
279.3999938964844
 46
0.0
 47
0.0
 48
0.0
 49
0.0
140
0.0
141
0.0
142
1.0
143
1.0
 70
   688
 72
     1
 73
     1
 74
     5
  7

 75
    16
147
1.0
148
0.0
149
0.0
100
AcDbLayout
  1
\M+1838C\M+18343\M+18341\M+18345\M+183671
 70
     1
 71
     1
 10
-6.350006103515625
 20
-6.349999904632567
 11
273.0499877929688
 21
209.5499939918518
 12
0.0
 22
0.0
 32
0.0
 14
26.66999878883364
 24
20.31999878883365
 34
0.0
 15
240.0299890995025
 25
182.8799890995025
 35
0.0
146
0.0
 13
0.0
 23
0.0
 33
0.0
 16
1.0
 26
0.0
 36
0.0
 17
0.0
 27
1.0
 37
0.0
 76
     0
330
50
331
6B
  0
LAYOUT
  5
56
102
{ACAD_XDICTIONARY
360
B5
102
}
102
{ACAD_REACTORS
330
1A
102
}
330
1A
100
AcDbPlotSettings
  1

  2
none_device
  4
Letter_(8.50_x_11.00_Inches)
  6

 40
6.349999904632567
 41
6.349999904632567
 42
6.350006103515625
 43
6.350006103515625
 44
215.8999938964844
 45
279.3999938964844
 46
0.0
 47
0.0
 48
0.0
 49
0.0
140
0.0
141
0.0
142
1.0
143
1.0
 70
   688
 72
     1
 73
     1
 74
     5
  7

 75
    16
147
1.0
148
0.0
149
0.0
100
AcDbLayout
  1
\M+1838C\M+18343\M+18341\M+18345\M+183672
 70
     1
 71
     2
 10
-6.350006103515625
 20
-6.349999904632567
 11
273.0499877929688
 21
209.5499939918518
 12
0.0
 22
0.0
 32
0.0
 14
26.66999878883363
 24
20.31999878883363
 34
0.0
 15
240.0299890995026
 25
182.8799890995025
 35
0.0
146
0.0
 13
0.0
 23
0.0
 33
0.0
 16
1.0
 26
0.0
 36
0.0
 17
0.0
 27
1.0
 37
0.0
 76
     0
330
55
331
71
  0
LAYOUT
  5
22
102
{ACAD_XDICTIONARY
360
56869
102
}
102
{ACAD_REACTORS
330
1A
102
}
330
1A
100
AcDbPlotSettings
  1

  2
none_device
  4
ANSI_A_(8.50_x_11.00_Inches)
  6

 40
6.349999904632567
 41
19.04999923706055
 42
6.350006103515625
 43
19.04998779296875
 44
215.8999938964844
 45
279.3999938964844
 46
0.0
 47
0.0
 48
0.0
 49
0.0
140
0.0
141
0.0
142
1.0
143
78.436453180766
 70
 11952
 72
     0
 73
     1
 74
     0
  7

 75
     0
147
0.0127491741332998
148
0.0
149
0.0
100
AcDbLayout
  1
Model
 70
     1
 71
     0
 10
0.0
 20
0.0
 11
12.0
 21
9.0
 12
0.0
 22
0.0
 32
0.0
 14
0.0
 24
0.0
 34
0.0
 15
0.0
 25
0.0
 35
0.0
146
0.0
 13
0.0
 23
0.0
 33
0.0
 16
1.0
 26
0.0
 36
0.0
 17
0.0
 27
1.0
 37
0.0
 76
     0
330
1F
  0
MLINESTYLE
  5
18
102
{ACAD_REACTORS
330
17
102
}
330
17
100
AcDbMlineStyle
  2
STANDARD
 70
     0
  3

 62
   256
 51
90.0
 52
90.0
 71
     2
 49
0.5
 62
   256
  6
BYLAYER
 49
-0.5
 62
   256
  6
BYLAYER
  0
ACDBPLACEHOLDER
  5
F
102
{ACAD_REACTORS
330
E
102
}
330
E
  0
TABLESTYLE
  5
A2
102
{ACAD_REACTORS
330
A1
102
}
330
A1
100
AcDbTableStyle
  3
Standard
 70
     0
 71
     0
 40
1.5
 41
1.5
280
     0
281
     0
  7
Standard
140
4.5
170
     2
 62
     0
 63
     7
283
     0
274
    -2
284
     1
 64
     0
275
    -2
285
     1
 65
     0
276
    -2
286
     1
 66
     0
277
    -2
287
     1
 67
     0
278
    -2
288
     1
 68
     0
279
    -2
289
     1
 69
     0
  7
Standard
140
6.0
170
     5
 62
     0
 63
     7
283
     0
274
    -2
284
     1
 64
     0
275
    -2
285
     1
 65
     0
276
    -2
286
     1
 66
     0
277
    -2
287
     1
 67
     0
278
    -2
288
     1
 68
     0
279
    -2
289
     1
 69
     0
  7
Standard
140
4.5
170
     5
 62
     0
 63
     7
283
     0
274
    -2
284
     1
 64
     0
275
    -2
285
     1
 65
     0
276
    -2
286
     1
 66
     0
277
    -2
287
     1
 67
     0
278
    -2
288
     1
 68
     0
279
    -2
289
     1
 69
     0
  0
DICTIONARYVAR
  5
B8
102
{ACAD_REACTORS
330
5E
102
}
330
5E
100
DictionaryVariables
280
     0
  1
STANDARD
  0
DICTIONARYVAR
  5
5F
102
{ACAD_REACTORS
330
5E
102
}
330
5E
100
DictionaryVariables
280
     0
  1
2
  0
DICTIONARYVAR
  5
63
102
{ACAD_REACTORS
330
5E
102
}
330
5E
100
DictionaryVariables
280
     0
  1
1
  0
DICTIONARYVAR
  5
31CE
102
{ACAD_REACTORS
330
5E
102
}
330
5E
100
DictionaryVariables
280
     0
  1

  0
XRECORD
  5
349EA
102
{ACAD_REACTORS
330
349E9
102
}
330
349E9
100
AcDbXrecord
280
     1
330
68C
330
0
330
0
330
0
330
0
330
0
330
0
330
0
330
0
330
0
330
0
330
0
330
0
330
0
330
0
330
0
330
0
330
0
330
0
330
0
330
0
330
0
330
0
330
0
330
0
330
0
330
0
330
0
330
0
330
0
330
0
330
0
330
0
330
0
330
0
330
0
330
0
330
0
330
0
330
0
330
0
330
0
330
0
330
0
330
0
330
0
330
0
330
0
330
0
330
0
330
0
330
0
330
0
330
0
330
0
330
0
330
0
330
0
330
0
330
0
330
0
330
0
330
0
330
0
330
0
330
0
330
0
330
0
330
0
330
0
330
0
330
0
330
0
330
0
330
0
330
0
330
0
330
0
330
0
330
0
330
0
330
0
330
0
330
0
330
0
330
0
330
0
330
0
330
0
330
0
330
0
330
0
330
0
330
0
330
0
330
0
330
0
330
0
330
0
330
0
330
0
330
0
330
0
330
0
330
0
330
0
330
0
330
0
330
0
330
0
  0
DICTIONARY
  5
B2
330
51
100
AcDbDictionary
280
     1
281
     1
  3
ACAD_XREC_ROUNDTRIP
360
5686B
  3
ADSK_XREC_LAYOUTTHUMBNAIL
360
B3
  0
DICTIONARY
  5
B5
330
56
100
AcDbDictionary
280
     1
281
     1
  3
ACAD_XREC_ROUNDTRIP
360
5686C
  3
ADSK_XREC_LAYOUTTHUMBNAIL
360
B6
  0
DICTIONARY
  5
56869
330
22
100
AcDbDictionary
280
     1
281
     1
  3
ACAD_XREC_ROUNDTRIP
360
5686A
  0
XRECORD
  5
5686B
102
{ACAD_REACTORS
330
B2
102
}
330
B2
100
AcDbXrecord
280
     1
102
SHADEPLOT
 70
     0
102
SHADEPLOTRESLEVEL
 70
     2
102
SHADEPLOTCUSTOMDPI
 70
   300
  0
XRECORD
  5
B3
102
{ACAD_REACTORS
330
B2
102
}
330
B2
100
AcDbXrecord
280
     1
310
28000000B40000008B0000000100080000000000BC61000000000000000000000001000000000000FFFFFF0000000000FFFFFF000000000000000000000000000000000000000000000000000000000000000000330000006600000099000000CC000000FF00000000330000333300006633000099330000CC330000FF3300
310
0000660000336600006666000099660000CC660000FF66000000990000339900006699000099990000CC990000FF99000000CC000033CC000066CC000099CC0000CCCC0000FFCC000000FF000033FF000066FF000099FF0000CCFF0000FFFF000000003300330033006600330099003300CC003300FF003300003333003333
310
33006633330099333300CC333300FF33330000663300336633006666330099663300CC663300FF66330000993300339933006699330099993300CC993300FF99330000CC330033CC330066CC330099CC3300CCCC3300FFCC330000FF330033FF330066FF330099FF3300CCFF3300FFFF330000006600330066006600660099
310
006600CC006600FF00660000336600333366006633660099336600CC336600FF33660000666600336666006666660099666600CC666600FF66660000996600339966006699660099996600CC996600FF99660000CC660033CC660066CC660099CC6600CCCC6600FFCC660000FF660033FF660066FF660099FF6600CCFF6600
310
FFFF660000009900330099006600990099009900CC009900FF00990000339900333399006633990099339900CC339900FF33990000669900336699006666990099669900CC669900FF66990000999900339999006699990099999900CC999900FF99990000CC990033CC990066CC990099CC9900CCCC9900FFCC990000FF99
310
0033FF990066FF990099FF9900CCFF9900FFFF99000000CC003300CC006600CC009900CC00CC00CC00FF00CC000033CC003333CC006633CC009933CC00CC33CC00FF33CC000066CC003366CC006666CC009966CC00CC66CC00FF66CC000099CC003399CC006699CC009999CC00CC99CC00FF99CC0000CCCC0033CCCC0066CC
310
CC0099CCCC00CCCCCC00FFCCCC0000FFCC0033FFCC0066FFCC0099FFCC00CCFFCC00FFFFCC000000FF003300FF006600FF009900FF00CC00FF00FF00FF000033FF003333FF006633FF009933FF00CC33FF00FF33FF000066FF003366FF006666FF009966FF00CC66FF00FF66FF000099FF003399FF006699FF009999FF00CC
310
99FF00FF99FF0000CCFF0033CCFF0066CCFF0099CCFF00CCCCFF00FFCCFF0000FFFF0033FFFF0066FFFF0099FFFF00CCFFFF00FFFFFF00000000000D0D0D001A1A1A00282828003535350043434300505050005D5D5D006B6B6B00787878008686860093939300A1A1A100AEAEAE00BBBBBB00C9C9C900D6D6D600E4E4E400
310
F1F1F100FFFFFF0000000000000000000000000000000000000000000000000000000000000000000000000000000000E2E2E2E2E2E2E2E2E2E2E2E2E2E2E2E2E2E2E2E2E2E2E2E2E2E2E2E2E2E2E2E2E2E2E2E2E2E2E2E2E2E2E2E2E2E2E2E2E2E2E2E2E2E2E2E2E2E2E2E2E2E2E2E2E2E2E2E2E2E2E2E2E2E2E2E2E2E2E2
310
E2E2E2E2E2E2E2E2E2E2E2E2E2E2E2E2E2E2E2E2E2E2E2E2E2E2E2E2E2E2E2E2E2E2E2E2E2E2E2E2E2E2E2E2E2E2E2E2E2E2E2E2E2E2E2E2E2E2E2E2E2E2E2E2E2E2E2E2E2E2E2E2E2E2E2E2E2E2E2E2E2E2E2E2E2E2E2E2E2E2E2E2E2E2E2E2E2E2E2E2E2E2F5F5F5F5F5F5F5F5F5F5F5F5F5F5F5F5F5F5F5F5F5F5F5F5F5
310
F5F5F5F5F5F5F5F5F5F5F5F5F5F5F5F5F5F5F5F5F5F5F5F5F5F5F5F5F5F5F5F5F5F5F5F5F5F5F5F5F5F5F5F5F5F5F5F5F5F5F5F5F5F5F5F5F5F5F5F5F5F5F5F5F5F5F5F5F5F5F5F5F5F5F5F5F5F5F5F5F5F5F5F5F5F5F5F5F5F5F5F5F5F5F5F5F5F5F5F5F5F5F5F5F5F5F5F5F5F5F5F5F5F5F5F5F5F5F5F5F5F5F5F5F5F5F5
310
F5F5F5F5F5F5F5F5F5F5F5F5F5F5F5F5F5F5F5F5F5F5F5F5F5F5E2E2F5F5F5F5F5F5F5F5F5F5F5F5F5F5F5F5F5F5F5F5F5F5F5F5F5F5F5F5F5F5F5F5F5F5F5F5F5F5F5F5F5F5F5F5F5F5F5F5F5F5F5F5F5F5F5F5F5F5F5F5F5F5F5F5F5F5F5F5F5F5F5F5F5F5F5F5F5F5F5F5F5F5F5F5F5F5F5F5F5F5F5F5F5F5F5F5F5F5F5
310
F5F5F5F5F5F5F5F5F5F5F5F5F5F5F5F5F5F5F5F5F5F5F5F5F5F5F5F5F5F5F5F5F5F5F5F5F5F5F5F5F5F5F5F5F5F5F5F5F5F5F5F5F5F5F5F5F5F5F5F5F5F5F5F5F5F5F5F5F5F5F5F5F5F5F5F5F5F5F5E2E2F5F5F5F5F5F5F5F5F5F5F5F5F5F5F5F5F5F5F5F5F5F5F5F5F5F5F5F5F5F5F5F5F5F5F5F5F5F5F5F5F5F5F5F5F5F5
310
F5F5F5F5F5F5F5F5F5F5F5F5F5F5F5F5F5F5F5F5F5F5F5F5F5F5F5F5F5F5F5F5F5F5F5F5F5F5F5F5F5F5F5F5F5F5F5F5F5F5F5F5F5F5F5F5F5F5F5F5F5F5F5F5F5F5F5F5F5F5F5F5F5F5F5F5F5F5F5F5F5F5F5F5F5F5F5F5F5F5F5F5F5F5F5F5F5F5F5F5F5F5F5F5F5F5F5F5F5F5F5F5F5F5F5F5F5F5F5F5F5F5F5F5F5F5F5
310
F5F5F5F5F5E2E2F5F5F5F5E2E2E2E2E2E2E2E2F5F5F5F5F5F5F5F5F5E2E2E2E2E2E2E2E2E2E2E2E2E2E2E2F5F5F5F5F5F5F5F5F5E2E2E2E2E2E2E2E2E2E2E2E2E2E2E2E2F5F5F5F5F5F5F5F5E2E2E2E2E2E2E2E2E2E2E2E2E2E2E2E2F5F5F5F5F5F5F5F5E2E2E2E2E2E2E2E2E2E2E2E2E2E2E2E2F5F5F5F5F5F5F5F5E2E2E2
310
E2E2E2E2E2E2E2E2E2E2E2E2E2F5F5F5F5F5F5F5F5F5E2E2E2E2E2E2E2E2E2E2E2E2E2E2E2F5F5F5F5F5F5F5F5F5E2E2E2E2E2E2E2E2F5F5F5F5E2E2F5F5F5F5E2F5F5F5F5F5F5F5F5F5F5F5F5F5F5F5F5F5F5F5F5F5F5F5F5F5F5F5F5F5F5F5F5F5F5F5F5F5F5F5F5F5F5F5F5F5F5F5F5F5F5F5F5F5F5F5F5F5F5F5F5F5F5
310
F5F5F5F5F5F5F5F5F5F5F5F5F5F5F5F5F5F5F5F5F5F5F5F5F5F5F5F5F5F5F5F5F5F5F5F5F5F5F5F5F5F5F5F5F5F5F5F5F5F5F5F5F5F5F5F5F5F5F5F5F5F5F5F5F5F5F5F5F5F5F5F5F5F5F5F5F5F5F5F5F5F5F5F5F5F5F5F5F5F5F5F5F5F5F5F5F5F5F5F5F5F5F5F5F5F5E2F5F5F5F5E2E2F5F5F5F5E2F5F5F5F5F5F5F5F5F5
310
F5F5F5F5F5F5F5F5F5F5F5F5F5F5F5F5F5F5F5F5F5F5F5F5F5F5F5F5F5F5F5F5F5F5F5F5F5F5F5F5F5F5F5F5F5F5F5F5F5F5F5F5F5F5F5F5F5F5F5F5F5F5F5F5F5F5F5F5F5F5F5F5F5F5F5F5F5F5F5F5F5F5F5F5F5F5F5F5F5F5F5F5F5F5F5F5F5F5F5F5F5F5F5F5F5F5F5F5F5F5F5F5F5F5F5F5F5F5F5F5F5F5F5F5F5F5F5
310
F5F5F5F5F5F5F5F5F5F5F5F5F5F5F5F5F5F5F5F5F5F5F5F5F5F5F5F5F5F5F5F5E2F5F5F5F5E2E2F5F5F5F5E2F5F5F5F5F5F5F5F5F5F5F5F5F5F5F5F5F5F5F5F5F5F5F5F5F5F5F5F5F5F5F5F5F5F5F5F5F5F5F5F5F5F5F5F5F5F5F5F5F5F5F5F5F5F5F5F5F5F5F5F5F5F5F5F5F5F5F5F5F5F5F5F5F5F5F5F5F5F5F5F5F5F5F5
310
F5F5F5F5F5F5F5F5F5F5F5F5F5F5F5F5F5F5F5F5F5F5F5F5F5F5F5F5F5F5F5F5F5F5F5F5F5F5F5F5F5F5F5F5F5F5F5F5F5F5F5F5F5F5F5F5F5F5F5F5F5F5F5F5F5F5F5F5F5F5F5F5F5F5F5F5F5F5F5F5F5F5F5F5F5E2F5F5F5F5E2E2F5F5F5F5E2F5F5F5F5F5F5F5F5F5F5F5F5F5F5F5F5F5F5F5F5F5F5F5F5F5F5F5F5F5F5
310
F5F5F5F5F5F5F5F5F5F5F5F5F5F5F5F5F5F5F5F5F5F5F5F5F5F5F5F5F5F5F5F5F5F5F5F5F5F5F5F5F5F5F5F5F5F5F5F5F5F5F5F5F5F5F5F5F5F5F5F5F5F5F5F5F5F5F5F5F5F5F5F5F5F5F5F5F5F5F5F5F5F5F5F5F5F5F5F5F5F5F5F5F5F5F5F5F5F5F5F5F5F5F5F5F5F5F5F5F5F5F5F5F5F5F5F5F5F5F5F5F5F5F5F5F5F5F5
310
F5F5F5F5F5F5F5F5F5F5F5E2F5F5F5F5E2E2F5F5F5F5E2F5F5F5F5F5F5F5F5F5F5F5F5F5F5F5F5F5F5F5F5F5F5F5F5F5F5F5F5F5F5F5F5F5F5F5F5F5F5F5F5F5F5F5F5F5F5F5F5F5F5F5F5F5F5F5F5F5F5F5F5F5F5F5F5F5F5F5F5F5F5F5F5F5F5F5F5F5F5F5F5F5F5F5F5F5F5F5F5F5F5F5F5F5F5F5F5F5F5F5F5F5F5F5F5
310
F5F5F5F5F5F5F5F5F5F5F5F5F5F5F5F5F5F5F5F5F5F5F5F5F5F5F5F5F5F5F5F5F5F5F5F5F5F5F5F5F5F5F5F5F5F5F5F5F5F5F5F5F5F5F5F5F5F5F5F5F5F5F5F5E2F5F5F5F5E2E2F5F5F5F5E2F5F5F5F5F5F5F5F5F5F5F5F5F5F5F5F5F5F5F5F5F5F5F5F5F5F5F5F5F5F5F5F5F5F5F5F5F5F5F5F5F5F5F5F5F5F5F5F5F5F5F5
310
F5F5F5F5F5F5F5F5F5F5F5F5F5F5F5F5F5F5F5F5F5F5F5F5F5F5F5F5F5F5F5F5F5F5F5F5F5F5F5F5F5F5F5F5F5F5F5F5F5F5F5F5F5F5F5F5F5F5F5F5F5F5F5F5F5F5F5F5F5F5F5F5F5F5F5F5F5F5F5F5F5F5F5F5F5F5F5F5F5F5F5F5F5F5F5F5F5F5F5F5F5F5F5F5F5F5F5F5F5F5F5F5F5F5F5F5F5E2F5F5F5F5E2E2F5F5F5
310
F5E2F5F5F5F5F5F5F5F5F5F5F5F5F5F5F5F5F5F5F5F5F5F5F5F5F5F5F5F5F5F5F5F5F5F5F5F5F5F5F5F5F5F5F5F5F5F5F5F5F5F5F5F5F5F5F5F5F5F5F5F5F5F5F5F5F5F5F5F5F5F5F5F5F5F5F5F5F5F5F5F5F5F5F5F5F5F5F5F5F5F5F5F5F5F5F5F5F5F5F5F5F5F5F5F5F5F5F5F5F5F5F5F5F5F5F5F5F5F5F5F5F5F5F5F5F5
310
F5F5F5F5F5F5F5F5F5F5F5F5F5F5F5F5F5F5F5F5F5F5F5F5F5F5F5F5F5F5F5F5F5F5F5F5F5F5F5F5F5F5F5E2F5F5F5F5E2E2F5F5F5F5E2F5F5F5F5F5F5F5F5F5F5F5F5F5F5F5F5F5F5F5F5F5F5F5F5F5F5F5F5F5F5F5F5F5F5F5F5F5F5F5F5F5F5F5F5F5F5F5F5F5F5F5F5F5F5F5F5F5F5F5F5F5F5F5F5F5F5F5F5F5F5F5F5
310
F5F5F5F5F5F5F5F5F5F5F5F5F5F5F5F5F5F5F5F5F5F5F5F5F5F5F5F5F5F5F5F5F5F5F5F5F5F5F5F5F5F5F5F5F5F5F5F5F5F5F5F5F5F5F5F5F5F5F5F5F5F5F5F5F5F5F5F5F5F5F5F5F5F5F5F5F5F5F5F5F5F5F5F5F5F5F5F5F5F5F5F5F5F5F5F5E2F5F5F5F5E2E2F5F5F5F5F5F5F5F5F5F5F5F5F5F5F5F5F5F5F5F5F5F5F5F5
310
F5F5F5F5F5F5F5F5F5F5F5F5F5F5F5F5F5F5F5F5F5F5F5F5F5F5F5F5F5F5F5F5F5F5F5F5F5F5F5F5F5F5F5F5F5F5F5F5F5F5F5F5F5F5F5F5F5F5F5F5F5F5F5F5F5F5F5F5F5F5F5F5F5F5F5F5F5F5F5F5F5F5F5F5F5F5F5F5F5F5F5F5F5F5F5F5F5F5F5F5F5F5F5F5F5F5F5F5F5F5F5F5F5F5F5F5F5F5F5F5F5F5F5F5F5F5F5
310
F5F5F5F5F5F5F5F5F5F5F5F5F5F5F5F5F5F5F5F5F5F5F5F5F5F5F5E2E2F5F5F5F5F5F5F5F5F5F5F5F5F5F5F5F5F5F5F5F5F5F5F5F5F5F5F5F5F5F5F5F5F5F5F5F5F5F5F5F5F5F5F5F5F5F5F5F5F5F5F5F5F5F5F5F5F5F5F5F5F5F5F5F5F5F5F5F5F5F5F5F5F5F5F5F5F5F5F5F5F5F5F5F5F5F5F5F5F5F5F5F5F5F5F5F5F5F5
310
F5F5F5F5F5F5F5F5F5F5F5F5F5F5F5F5F5F5F5F5F5F5F5F5F5F5F5F5F5F5F5F5F5F5F5F5F5F5F5F5F5F5F5F5F5F5F5F5F5F5F5F5F5F5F5F5F5F5F5F5F5F5F5F5F5F5F5F5F5F5F5F5F5F5F5F5F5F5F5F5E2E2F5F5F5F5F5F5F5F5F5F5F5F5F5F5F5F5F5F5F5F5F5F5F5F5F5F5F5F5F5F5F5F5F5F5F5F5F5F5F5F5F5F5F5F5F5
310
F5F5F5F5F5F5F5F5F5F5F5F5F5F5F5F5F5F5F5F5F5F5F5F5F5F5F5F5F5F5F5F5F5F5F5F5F5F5F5F5F5F5F5F5F5F5F5F5F5F5F5F5F5F5F5F5F5F5F5F5F5F5F5F5F5F5F5F5F5F5F5F5F5F5F5F5F5F5F5F5F5F5F5F5F5F5F5F5F5F5F5F5F5F5F5F5F5F5F5F5F5F5F5F5F5F5F5F5F5F5F5F5F5F5F5F5F5F5F5F5F5F5F5F5F5F5F5
310
F5F5F5F5F5F5E2E2F5F5F5F5F5F5F5F5F5F5F5F5F5F5F5F5F5F5F5F5F5F5F5F5F5F5F5F5F5F5F5F5F5F5F5F5F5F5F5F5F5F5F5F5F5F5F5F5F5F5F5F5F5F5F5F5F5F5F5F5F5F5F5F5F5F5F5F5F5F5F5F5F5F5F5F5F5F5F5F5F5F5F5F5F5F5F5F5F5F5F5F5F5F5F5F5F5F5F5F5F5F5F5F5F5F5F5F5F5F5F5F5F5F5F5F5F5F5F5
310
F5F5F5F5F5F5F5F5F5F5F5F5F5F5F5F5F5F5F5F5F5F5F5F5F5F5F5F5F5F5F5F5F5F5F5F5F5F5F5F5F5F5F5F5F5F5F5F5F5F5F5F5F5F5F5F5F5F5F5E2E2F5F5F5F5F5F5F5F5F5F5F5F5F5F5F5F5F5F5F5F5F5E2E2E2E2E2E2E2E2E2E2E2E2E2E2E2E2E2E2E2E2E2E2E2E2E2E2E2E2E2E2E2E2E2E2E2E2E2E2E2E2E2E2E2E2E2
310
E2E2E2E2E2E2E2E2E2E2E2E2E2E2E2E2E2E2E2E2E2E2E2E2E2E2E2E2E2E2E2E2E2E2E2E2E2E2E2E2E2E2E2E2E2E2E2E2E2E2E2E2E2E2E2E2E2E2E2E2E2E2E2E2E2E2E2E2E2E2E2E2E2E2E2E2E2E2E2E2E2E2E2E2E2E2E2E2E2E2E2F5F5F5F5F5F5F5F5F5F5F5F5F5F5F5F5F5F5F5F5F5E2E2F5F5F5F5F5F5F5F5F5F5F5F5F5
310
F5F5F5F5F5F5F5F5E22D2D2D2D2D2D2D2D2D2D2D2DF5F5F5F5F5F5F5F5F5F5F5F5F5F5F5E2F5F5F5F5F5F5F5F5F5F5F5F5F5F5F5F5F5F5F5F5F5F5F5F5F5F5F5F5F5F5F5F5F5F5F5F5F5F5F5F5F5F5F5F5F5F5F5F5F5F5F5F5F5F5F5F5F5F5F5F5F5F5F5F5F5F5F5F5F5F5F5F5F5F5F5F5F5F5F5F5F5F5F5F5F5F5F5F5F5F5
310
F5F5F5F5F5F5F5F5F5F5F5F5F5F5F5F5E2F5F5F5F5F5F5F5F5F5F5F5F5F5F5F5F5F5F5F5F5F5E2E2F5F5F5F5F5F5F5F5F5F5F5F5F5F5F5F5F5F5F5F5F5E22D2D2DF5F5E2F5F5F5F5F52DF5F5F5F5F5F5F5F5F5F5F5F5F5F5F5E2F5F5F5F5F5F5F5F5F5F5F5F5F5F5F5F5F5F5F5F5F5F5F5F5F5F5F5F5F5F5F5F5F5F5F5F5F5
310
F5F5F5F5F5F5F5F5F5F5F5F5F5F5F5F5F5F5F5F5F5F5F5F5F5F5F5F5F5F5F5F5F5F5F5F5F5F5F5F5F5F5F5F5F5F5F5F5F5F5F5F5F5F5F5F5F5F5F5F5F5F5F5F5F5F5F5F5F5E2F5F5F5F5F5F5F5F5F5F5F5F5F5F5F5F5F5F5F5F5F5E2E2F5F5F5F5F5F5F5F5F5F5F5F5F5F5F5F5F5F5F5F5F5E2DCF52DF5F5E2F5F5F5F5F52D
310
F5F5F5F5F5F5F5F5F5F5F5F5F5F5F5E2F5F5F5F5F5F5F5F5F5F5F5F5F5F5F5F5F5F5F5F5F5F5F5F5F5F5F5F5F5F5F5F5F5F5F5F5F5F5F5F5F5F5F5F5F5F5F5F5F5F5F5F5F5F5F5F5F5F5F5F5F5F5F5F5F5F5F5F5F5F5F5F5F5F5F5F5F5F5F5F5F5F5F5F5F5F5F5F5F5F5F5F5F5F5F5F5F5F5F5F5F5F5F5F5F5F5E2F5F5F5F5
310
F5F5F5F5F5F5F5F5F5F5F5F5F5F5F5F5F5E2E2F5F5F5F5F5F5F5F5F5F5F5F5F5F5F5F5F5F5F5F5F5E2BEF52D2D2D2D2D2D2D2DE2E2E2E2E2E2E2E2E2E2E2E2E2E2E2E2E2E2F5F5F5F5F5F5F5F5F5F5F5F5F5F5F5F5F5F5F5F5F5F5F5F5F5F5F5F5F5F5F5F5F5F5F5F5F5F5F5F5F5F5F5F5F5F5F5F5F5F5F5F5F5F5F5F5F5F5
310
F5F5F5F5F5F5F5F5F5F5F5F5F5F5F5F5F5F5F5F5F5F5F5F5F5F5F5F5F5F5F5F5F5F5F5F5F5F5F5F5F5F5F5F5F5F5F5F5E2F5F5F5F5F5F5F5F5F5F5F5F5F5F5F5F5F5F5F5F5F5E2E2F5F5F5F5E2F5F5F5F5F5F5F5F5F5F5F5F5F5F5F5F5E2DCF5F5F5F5E2F5F5F5F5F5E2F5F5F5F5F5F5F5F5F5F5F5F5F5F5F5F5F5F5F5F5F5
310
F5F5F5F5F5F5F5F5F5F5F5F5F5F5F5F5F5F5F5F5F5F5F5F5F5F5F5F5F5F5F5F5F5F5F5F5F5F5F5F5F5F5F5F5F5F5F5F5F5F5F5F5F5F5F5F5F5F5F5F5F5F5F5F5F5F5F5F5F5F5F5F5F5F5F5F5F5F5F5F5F5F5F5F5F5F5F5F5F5F5F5F5F5F5F5F5F5F5F5F5F5E2F5F5F5F5F5F5F5F5F5F5F5F5F5F5F5F5E2F5F5F5F5E2E2F5F5
310
F5F5E2F5F5F5F5F5F5F5F5F5F5F5F5F5F5F5F5E2F5F5F5F5F5E2F5F5F5F5F5E2F5F5F5F5F5F5F5F5F5F5F5F5F5F5F5F5F5F5F5F5F5F5F5F5F5F5F5F5F5F5F5F5F5F5F5F5F5F5F5F5F5F5F5F5F5F5F5F5F5F5F5F5F5F5F5F5F5F5F5F5F5F5F5F5F5F5F5F5F5F5F5F5F5F5F5F5F5F5F5F5F5F5F5F5F5F5F5F5F5F5F5F5F5F5F5
310
F5F5F5F5F5F5F5F5F5F5F5F5F5F5F5F5F5F5F5F5F5F5F5F5F5F5F5E2F5F5F5F5F5F5F5F5F5F5F5F5F5F5F5F5E2F5F5F5F5E2E2F5F5F5F5E2F5F5F5F5F5F5F5F5F5F5F5F5F5F5F5F5E2F5F5F5F5F5E2F5F5F5F5F5E2F5F5F5F5F5F5F5F5F5F5F5F5F5F5F5F5F5F5F5F5F5F5F5F5F5F5F5F5F5F5F5F5F5F5F5F5F5F5F5F5F5F5
310
F5F5F5F5F5F5F5F5F5F5F5F5F5F5F5F5F5F5F5F5F5F5F5F5F5F5F5F5F5F5F5F5F5F5F5F5F5F5F5F5F5F5F5F5F5F5F5F5F5F5F5F5F5F5F5F5F5F5F5F5F5F5F5F5F5F5F5F5F5F5F5F5F5F5F5F5F5F5F5F5E2F5F5F5F5F5F5F5F5F5F5F5F5F5F5F5F5E2F5F5F5F5E2E2F5F5F5F5E2F5F5F5F5F5F5F5F5F5F5F5F5F5F5F5F5E2F5
310
F5F5F5F5E2F5F5F5F5F5E2F5F5F5F5F5F5F5F5F5F5F5F5F5F5F5F5F5F5F5F5F5F5F5F5F5F5F5F5F5F5F5F5F5F5F5F5F5F5F5F5F5F5F5F5F5F5F5F5F5F5F5F5F5F5F5F5F5F5F5F5F5F5F5F5F5F5F5F5F5F5F5F5F5F5F5F5F5F5F5F5F5F5F5F5F5F5F5F5F5F5F5F5F5F5F5F5F5F5F5F5F5F5F5F5F5F5F5F5F5F5F5F5F5F5F5F5
310
F5F5F5F5F5F5E2F5F5F5F5F5F5F5F5F5F5F5F5F5F5F5F5E2F5F5F5F5E2E2F5F5F5F5E2F5F5F5F5F5F5F5F5F5F5F5F5F5F5F5F5E2E2E2E2E2E2E2F5F5F5F5F5E2F5F5F5F5F5F5F5F5F5F5F5F5F5F5F5F5F5F5F5F5F5F5F5F5F5F5F5F5F5F5F5F5F5F5F5F5F5F5F5F5F5F5F5F5F5F5F5F5F5F5F5F5F5F5F5F5F5F5F5F5F5F5F5
310
F5F5F5F5F5F5F5F5F5F5F5F5F5F5F5F5F5F5F5F5F5F5F5F5F5F5F5F5F5F5F5F5F5F5F5F5F5F5F5F5F5F5F5F5F5F5F5F5F5F5F5F5F5F5F5F5F5F5F5E2F5F5F5F5F5F5F5F5F5F5F5F5F5F5F5F5E2F5F5F5F5E2E2F5F5F5F5E2F5F5F5F5F5F5F5F5F5F5F5F5F5F5F5F5E2E2E2E2F5E2E2F5F5F5F5F5E2F5F5F5F5F5F5F5F5F5F5
310
F5F5F5F5F5F5F5F5F5F5F5F5F5F5F5F5F5F5F5F5F5F5F5F5F5F5F5F5F5F5F5F5F5F5F5F5F5F5F5F5F5F5F5F5F5F5F5F5F5F5F5F5F5F5F5F5F5F5F5F5F5F5F5F5F5F5F5F5F5F5F5F5F5F5F5F5F5F5F5F5F5F5F5F5F5F5F5F5F5F5F5F5F5F5F5F5F5F5F5F5F5F5F5F5F5F5F5F5F5F5F5F5E2F5F5F5F5F5F5F5F5F5F5F5F5F5F5
310
F5F5E2F5F5F5F5E2E2F5F5F5F5E2F5F5F5F5F5F5F5F5F5F5F5F5F5F5F5F5E2E2E2E2F5F5F5F5F5F5F5F5E2F5F5F5F5F5F5F5F5F5F5F5F5F5F5F5F5F5F5F5F5F5F5F5F5F5F5F5F5F5F5F5F5F5F5F5F5F5F5F5F5F5F5F5F5F5F5F5F5F5F5F5F5F5F5F5F5F5F5F5F5F5F5F5F5F5F5F5F5F5F5F5F5F5F5F5F5F5F5F5F5F5F5F5F5
310
F5F5F5F5F5F5F5F5F5F5F5F5F5F5F5F5F5F5F5F5F5F5F5F5F5F5F5F5F5F5F5F5F5F5F5F5F5F5E2F5F5F5F5F5F5F5F5F5F5F5F5F5F5F5F5E2F5F5F5F5E2E2F5F5F5F5E2F5F5F5F5F5F5F5F5F5F5F5F5F5F5F5F5E2F5F5F5F5F5F5F5F5F5F5F5E2F5F5F5F5F5F5F5F5F5F5F5F5F5F5F5F5F5F5F5F5F5F5F5F5F5F5F5F5F5F5F5
310
F5F5F5F5F5F5F5F5F5F5F5F5F5F5F5F5F5F5F5F5F5F5F5F5F5F5F5F5F5F5F5F5F5F5F5F5F5F5F5F5F5F5F5F5F5F5F5F5F5F5F5F5F5F5F5F5F5F5F5F5F5F5F5F5F5F5F5F5F5F5F5F5F5F5F5F5F5F5F5F5F5F5F5F5F5F5F5F5F5F5F5E2F5F5F5F5F5F5F5F5F5F5F5F5F5F5F5F5E2F5F5F5F5E2E2F5F5F5F5E2F5F5F5F5F5F5F5
310
F5F5F5F5F5F5F5F5F5E2E2E2E2E2E2E2E2E2E2E2E2E2F5F5F5F5F5F5F5F5F5F5F5F5F5F5F5F5F5F5F5F5F5F5F5F5F5F5F5F5F5F5F5F5F5F5F5F5F5F5F5F5F5F5F5F5F5F5F5F5F5F5F5F5F5F5F5F5F5F5F5F5F5F5F5F5F5F5F5F5F5F5F5F5F5F5F5F5F5F5F5F5F5F5F5F5F5F5F5F5F5F5F5F5F5F5F5F5F5F5F5F5F5F5F5F5F5
310
F5F5F5F5F5F5F5F5F5F5F5F5F5F5F5F5F5E2F5F5F5F5F5F5F5F5F5F5F5F5F5F5F5F5E2F5F5F5F5E2E2F5F5F5F5E2F5F5F5F5F5F5F5F5F5F5F5F5F5F5F5F5E2E2E2F5F5F5F5F5F5F5F5F5F5F5F5F5F5F5F5F5F5F5F5F5F5F5F5F5F5F5F5F5F5F5F5F5F5F5F5F5F5F5F5F5F5F5F5F5F5F5F5F5F5F5F5F5F5F5F5F5F5F5F5F5F5
310
F5F5F5F5F5F5F5F5F5F5F5F5F5F5F5F5F5F5F5F5F5F5F5F5F5F5F5F5F5F5F5F5F5F5F5F5F5F5F5F5F5F5F5F5F5F5F5F5F5F5F5F5F5F5F5F5F5F5F5F5F5F5F5F5F5F5F5F5F5F5E2F5F5F5F5F5F5F5F5F5F5F5F5F5F5F5F5E2F5F5F5F5E2E2F5F5F5F5E2F5F5F5F5F5F5F5F5F5F5F5F5F5F5F5F5E2E2E2F5F5F5F5F5F5F5F5F5
310
F5F5F5F5F5F5F5F5F5F5F5F5F5F5F5F5F5F5F5F5F5F5F5F5F5F5F5F5F5F5F5F5F5F5F5F5F5F5F5F5F5F5F5F5F5F5F5F5F5F5F5F5F5F5F5F5F5F5F5F5F5F5F5F5F5F5F5F5F5F5F5F5F5F5F5F5F5F5F5F5F5F5F5F5F5F5F5F5F5F5F5F5F5F5F5F5F5F5F5F5F5F5F5F5F5F5F5F5F5F5F5F5F5F5F5F5F5F5F5F5F5F5F5E2F5F5F5
310
F5F5F5F5F5F5F5F5F5F5F5F5F5E2F5F5F5F5E2E2F5F5F5F5E2F5F5F5F5F5F5F5F5F5F5F5F5F5F5F5F5E2F5F5F5F5F5F5F5F5F5F5F5F5F5F5F5F5F5F5F5F5F5F5F5F5F5F5F5F5F5F5F5F5F5F5F5F5F5F5F5F5F5F5F5F5F5F5F5F5F5F5F5F5F5F5F5F5F5F5F5F5F5F5F5F5F5F5F5F5F5F5F5F5F5F5F5F5F5F5F5F5F5F5F5F5F5
310
F5F5F5F5F5F5F5F5F5F5F5F5F5F5F5F5F5F5F5F5F5F5F5F5F5F5F5F5F5F5F5F5F5F5F5F5F5F5F5F5F5F5F5F5F5F5F5F5F5E2F5F5F5F5F5F5F5F5F5F5F5F5F5F5F5F5E2F5F5F5F5E2E2F5F5F5F5E2F5F5F5F5F5F5F5F5F5F5F5F5F5F5F5F5E2F5F5F5F5F5F5F5F5F5F5F5F5F5F5F5F5F5F5F5F5F5F5F5F5F5F5F5F5F5F5F5F5
310
F5F5F5F5F5F5F5F5F5F5F5F5F5F5F5F5F5F5F5F5F5F5F5F5F5F5F5F5F5F5F5F5F5F5F5F5F5F5F5F5F5F5F5F5F5F5F5F5F5F5F5F5F5F5F5F5F5F5F5F5F5F5F5F5F5F5F5F5F5F5F5F5F5F5F5F5F5F5F5F5F5F5F5F5F5F5F5F5F5F5F5F5F5F5F5F5F5F5F5F5F5F5E2F5F5F5F5F5F5F5F5F5F5F5F5F5F5F5F5E2F5F5F5F5E2E2F5
310
F5F5F5E2F5F5F5F5F5F5F5F5F5F5F5F5F5F5F5F5E20F0F0F0F0F0F0F0F0F0F0FF5F5F5F5F5F5F5F5F5F5F5F5F5F5F5F5F5F5F5F5F5F5F5F5F5F5F5F5F5F5F5F5F5F5F5F5F5F5F5F5F5F5F5F5F5F5F5F5F5F5F5F5F5F5F5F5F5F5F5F5F5F5F5F5F5F5F5F5F5F5F5F5F5F5F5F5F5F5F5F5F5F5F5F5F5F5F5F5F5F5F5F5F5F5F5
310
F5F5F5F5F5F5F5F5F5F5F5F5F5F5F5F5F5F5F5F5F5F5F5F5F5F5F5F5E2F5F5F5F5F5F5F5F5F5F5F5F5F5F5F5F5E2F5F5F5F5E2E2F5F5F5F5E2F5F5F5F5F5F5F5F5F5F5F5F5F5F5F5F5E20F0F0F0F0F0F0F0F0F0F0FF5F5F5F5F5F5F5F5F5F5F5F5F5F5F5F5F5F5F5F5F5F5F5F5F5F5F5F5F5F5F5F5F5F5F5F5F5F5F5F5F5F5
310
F5F5F5F5F5F5F5F5F5F5F5F5F5F5F5F5F5F5F5F5F5F5F5F5F5F5F5F5F5F5F5F5F5F5F5F5F5F5F5F5F5F5F5F5F5F5F5F5F5F5F5F5F5F5F5F5F5F5F5F5F5F5F5F5F5F5F5F5F5F5F5F5F5F5F5F5F5F5F5F5F5E2F5F5F5F5F5F5F5F5F5F5F5F5F5F5F5F5E2F5F5F5F5E2E2F5F5F5F5E2F5F5F5F5F5F5F5F5F5F5F5F5F5F5F5F5E2
310
0F0F0F0F0F0F0F0F0F0FF5F5F5F5F5F5F5F5F5F5F5F5F5F5F5F5F5F5F5F5F5F5F5F5F5F5F5F5F5F5F5F5F5F5F5F5F5F5F5F5F5F5F5F5F5F5F5F5F5F5F5F5F5F5F5F5F5F5F5F5F5F5F5F5F5F5F5F5F5F5F5F5F5F5F5F5F5F5F5F5F5F5F5F5F5F5F5F5F5F5F5F5F5F5F5F5F5F5F5F5F5F5F5F5F5F5F5F5F5F5F5F5F5F5F5F5F5
310
F5F5F5F5F5F5F5E2F5F5F5F5F5F5F5F5F5F5F5F5F5F5F5F5E2F5F5F5F5E2E2F5F5F5F5E2F5F5F5F5F5F5F5F5F5F5F5F5F5F5F5F5E2F5F5F5F5F5F5F5F5F5F5F5F5F5F5F5F5F5F5F5F5F5F5F5F5F5F5F5F5F5F5F5F5F5F5F5F5F5F5F5F5F5F5F5F5F5F5F5F5F5F5F5F5F5F5F5F5F5F5F5F5F5F5F5F5F5F5F5F5F5F5F5F5F5F5
310
F5F5F5F5F5F5F5F5F5F5F5F5F5F5F5F5F5F5F5F5F5F5F5F5F5F5F5F5F5F5F5F5F5F5F5F5F5F5F5F5F5F5F5F5F5F5F5F5F5F5F5F5F5F5F5F5F5F5F5F5E2F5F5F5F5F5F5F5F5F5F5F5F5F5F5F5F5E2F5F5F5F5E2E2F5F5F5F5F5F5F5F5F5F5F5F5F5F5F5F5F5F5F5F5F5E2F5F5F5F5F5F5F5F5F5F5F5F5F5F5F5F5F5F5F5F5F5
310
F5F5F5F5F5F5F5F5F5F5F5F5F5F5F5F5F5F5F5F5F5F5F5F5F5F5F5F5F5F5F5F5F5F5F5F5F5F5F5F5F5F5F5F5F5F5F5F5F5F5F5F5F5F5F5F5F5F5F5F5F5F5F5F5F5F5F5F5F5F5F5F5F5F5F5F5F5F5F5F5F5F5F5F5F5F5F5F5F5F5F5F5F5F5F5F5F5F5F5F5F5F5F5F5F5F5F5F5F5F5F5F5F5E2F5F5F5F5F5F5F5F5F5F5F5F5F5
310
F5F5F5F5F5F5F5F5E2E2F5F5F5F5F5F5F5F5F5F5F5F5F5F5F5F5F5F5F5F5F5E2F5F5F5F5F5F5F5F5F5F5F5F5F5F5F5F5F5F5F5F5F5F5F5F5F5F5F5F5F5F5F5F5F5F5F5F5F5F5F5F5F5F5F5F5F5F5F5F5F5F5F5F5F5F5F5F5F5F5F5F5F5F5F5F5F5F5F5F5F5F5F5F5F5F5F5F5F5F5F5F5F5F5F5F5F5F5F5F5F5F5F5F5F5F5F5
310
F5F5F5F5F5F5F5F5F5F5F5F5F5F5F5F5F5F5F5F5F5F5F5F5F5F5F5F5F5F5F5F5F5F5F5F5F5F5F5E2F5F5F5F5F5F5F5F5F5F5F5F5F5F5F5F5F5F5F5F5F5E2E2F5F5F5F5F5F5F5F5F5F5F5F5F5F5F5F5F5F5F5F5F5E2F5F5F5F5F5F5F5F5F5F5F5F5F5F5F5F5F5F5F5F5F5F5F5F5F5F5F5F5F5F5F5F5F5F5F5F5F5F5F5F5F5F5
310
F5F5F5F5F5F5F5F5F5F5F5F5F5F5F5F5F5F5F5F5F5F5F5F5F5F5F5F5F5F5F5F5F5F5F5F5F5F5F5F5F5F5F5F5F5F5F5F5F5F5F5F5F5F5F5F5F5F5F5F5F5F5F5F5F5F5F5F5F5F5F5F5F5F5F5F5F5F5F5F5F5F5F5F5F5F5F5F5F5F5F5F5E2F5F5F5F5F5F5F5F5F5F5F5F5F5F5F5F5F5F5F5F5F5E2E2F5F5F5F5F5F5F5F5F5F5F5
310
F5F5F5F5F5F5F5F5F5F5E2F5F5F5F5F5F5F5F5F5F5F5F5F5F5F5F5F5F5F5F5F5F5F5F5F5F5F5F5F5F5F5F5F5F5F5F5F5F5F5F5F5F5F5F5F5F5F5F5F5F5F5F5F5F5F5F5F5F5F5F5F5F5F5F5F5F5F5F5F5F5F5F5F5F5F5F5F5F5F5F5F5F5F5F5F5F5F5F5F5F5F5F5F5F5F5F5F5F5F5F5F5F5F5F5F5F5F5F5F5F5F5F5F5F5F5F5
310
F5F5F5F5F5F5F5F5F5F5F5F5F5F5F5F5F5F5E2F5F5F5F5F5F5F5F5F5F5F5F5F5F5F5F5F5F5F5F5F5E2E2F5F5F5F5F5F5F5F5F5F5F5F5F5F5F5F5F5F5F5F5F5E2F5F5F5F5F5F5F5F5F5F5F5F5F5F5F5F5F5F5F5F5F5F5F5F5F5F5F5F5F5F5F5F5F5F5F5F5F5F5F5F5F5F5F5F5F5F5F5F5F5F5F5F5F5F5F5F5F5F5F5F5F5F5F5
310
F5F5F5F5F5F5F5F5F5F5F5F5F5F5F5F5F5F5F5F5F5F5F5F5F5F5F5F5F5F5F5F5F5F5F5F5F5F5F5F5F5F5F5F5F5F5F5F5F5F5F5F5F5F5F5F5F5F5F5F5F5F5F5F5F5F5F5F5F5F5F5E2F5F5F5F5F5F5F5F5F5F5F5F5F5F5F5F5F5F5F5F5F5E2E2F5F5F5F5F5F5F5F5F5F5F5F5F5F5F5F5F5F5F5F5F5E2F5F5F5F5F5F5F5F5F5F5
310
F5F5F5F5F5F5F5F5F5F5F5F5F5F5F5F5F5F5F5F5F5F5F5F5F5F5F5F5F5F5F5F5F5F5F5F5F5F5F5F5F5F5F5F5F5F5F5F5F5F5F5F5F5F5F5F5F5F5F5F5F5F5F5F5F5F5F5F5F5F5F5F5F5F5F5F5F5F5F5F5F5F5F5F5F5F5F5F5F5F5F5F5F5F5F5F5F5F5F5F5F5F5F5F5F5F5F5F5F5F5F5F5F5F5F5F5F5F5F5F5F5F5F5F5E2F5F5
310
F5F5F5F5F5F5F5F5F5F5F5F5F5F5F5F5F5F5F5E2E2F5F5F5F5F5F5F5F5F5F5F5F5F5F5F5F5F5F5F5F5F5E2F5F5F5F5F5F5F5F5F5F5F5F5F5F5F5F5F5F5F5F5F5F5F5F5F5F5F5F5F5F5F5F5F5F5F5F5F5F5F5F5F5F5F5F5F5F5F5F5F5F5F5F5F5F5F5F5F5F5F5F5F5F5F5F5F5F5F5F5F5F5F5F5F5F5F5F5F5F5F5F5F5F5F5F5
310
F5F5F5F5F5F5F5F5F5F5F5F5F5F5F5F5F5F5F5F5F5F5F5F5F5F5F5F5F5F5F5F5F5F5F5F5F5F5F5F5F5F5F5F5F5F5F5F5F5F5E2F5F5F5F5F5F5F5F5F5F5F5F5F5F5F5F5F5F5F5F5F5E2E2F5F5F5F5F5F5F5F5F5F5F5F5F5F5F5F5F5F5F5F5F5E2F5F5F5F5F5F5F5F5F5F5F5F5F5F5F5F5F5F5F5F5F5F5F5F5F5F5F5F5F5F5F5
310
F5F5F5F5F5F5F5F5F5F5F5F5F5F5F5F5F5F5F5F5F5F5F5F5F5F5F5F5F5F5F5F5F5F5F5F5F5F5F5F5F5F5F5F5F5F5F5F5F5F5F5F5F5F5F5F5F5F5F5F5F5F5F5F5F5F5F5F5F5F5F5F5F5F5F5F5F5F5F5F5F5F5F5F5F5F5F5F5F5F5F5F5F5F5F5F5F5F5F5F5F5F5F5E2F5F5F5F5F5F5F5F5F5F5F5F5F5F5F5F5F5F5F5F5F5E2E2
310
F5F5F5F5F5F5F5F5F5F5F5F5F5F5F5F5F5F5F5F5F5E2F5F5F5F5F5F5F5F5F5F5F5F5F5F5F5F5F5F5F5F5F5F5F5F5F5F5F5F5F5F5F5F5F5F5F5F5F5F5F5F5F5F5F5F5F5F5F5F5F5F5F5F5F5F5F5F5F5F5F5F5F5F5F5F5F5F5F5F5F5F5F5F5F5F5F5F5F5F5F5F5F5F5F5F5F5F5F5F5F5F5F5F5F5F5F5F5F5F5F5F5F5F5F5F5F5
310
F5F5F5F5F5F5F5F5F5F5F5F5F5F5F5F5F5F5F5F5F5F5F5F5F5F5F5F5F5E2F5F5F5F5F5F5F5F5F5F5F5F5F5F5F5F5F5F5F5F5F5E2E2F5F5F5F5E2F5F5F5F5F5F5F5F5F5F5F5F5F5F5F5F5E2F5F5F5F5F5F5F5F5F5F5F5F5F5F5F5F5F5F5F5F5F5F5F5F5F5F5F5F5F5F5F5F5F5F5F5F5F5F5F5F5F5F5F5F5F5F5F5F5F5F5F5F5
310
F5F5F5F5F5F5F5F5F5F5F5F5F5F5F5F5F5F5F5F5F5F5F5F5F5F5F5F5F5F5F5F5F5F5F5F5F5F5F5F5F5F5F5F5F5F5F5F5F5E2F0E2E2F5F5F5F5F5F5E2F0E2E2F5DCF5F5F5F5F5F5F0F0E2F5F5F5F5F5F5F5F5E2F5F5F5F5F5F5F5F5F5F5F5F5F5F5F5F5E2F5F5F5F5E2E2F5F5F5F5E2F5F5F5F5F5F5F5F5F5F5F5F5F5F5F5F5
310
E2F5F5F5F5F5F5F5F5F5F5F5F5F5F5F5F5F5F5F5F5F5F5F5F5F5F5F5F5F5F5F5F5F5F5F5F5F5F5F5F5F5F5F5F5F5F5F5F5F5F5F5F5F5F5F5F5F5F5F5F5F5F5F5F5F5F5F5F5F5F5F5F5F5F5F5F5F5F5F5F5F5F5F5F5F5F5F5F5F5F5F5F5F5F5F5F5F5F5F5F5E2DCDCF0F5E2F5F5F5F5F5E2F5F0E2E2DCF5F5F5F5F5E2F0F0F5
310
E2F5F5F5E2E2E2F5E2F5F5F5F5F5F5F5F5F5F5F5F5F5F5F5F5E2F5F5F5F5E2E2F5F5F5F5E2F5F5F5F5F5F5F5F5F5F5F5F5F5F5F5F5E2F5F5F5F5F5F5F5F5F5F5F5F5F5F5F5F5F5F5F5F5F5F5F5F5F5F5F5F5F5F5F5F5F5F5F5F5F5F5F5F5F5F5F5F5F5F5F5F5F5F5F5F5F5F5F5F5F5F5F5F5F5F5F5F5F5F5F5F5F5F5F5F5F5
310
F5F5F5F5F5F5F5F5F5F5F5F5F5F5F5F5F5F5F5F5F5F5F5F5F5F5E2F0DCF0DCE2E2E2F5F5F5E2E2F0F0F0E2DCF5F5F5F5E2F0F0F0E2E2F0E2E2E2E2E2E2E2F5F5F5F5F5F5F5F5F5F5F5F5F5F5F5F5E2F5F5F5F5E2E2F5F5F5F5E2F5F5F5F5F5F5F5F5F5F5F5F5F5F5F5F5E2F5F5F5F5F5F5F5F5F5F5F5F5F5F5F5F5F5F5F5F5
310
F5F5F5F5F5F5F5F5F5F5F5F5F5F5F5F5F5F5F5F5F5F5F5F5F5F5F5F5F5F5F5F5F5F5F5F5F5F5F5F5F5F5F5F5F5F5F5F5F5F5F5F5F5F5F5F5F5F5F5F5F5F5F5F5F5F5F5F5F5F5F5F5F5F5F5F5F5F5F5E2F0DCF0DCF0F0E2F5F5F5E2F0DCE2E2E2DCF5F5F5F5F0F0F0F0E2E2F0E2F5E2E2E2E2E2F5F5F5F5F5F5F5F5F5F5F5F5
310
F5F5F5F5E2F5F5F5F5E2E2F5F5F5F5E2F5F5F5F5F5F5F5F5F5F5F5F5F5F5F5F5E2F5F5F5F5F5F5F5F5F5F5F5F5F5F5F5F5F5F5F5F5F5F5F5F5F5F5F5F5F5F5F5F5F5F5F5F5F5F5F5F5F5F5F5F5F5F5F5F5F5F5F5F5F5F5F5F5F5F5F5F5F5F5F5F5F5F5F5F5F5F5F5F5F5F5F5F5F5F5F5F5F5F5F5F5F5F5F5F5F5F5F5F5F5F5
310
F5F5F5F5F5F5E2DCDCDCF0E2F5F5F5F5F5F0DCDCE2E2DCF5F5F5F5F5F0F0F0DCE2F0F5E2E2E2E2F5E2F5F5F5F5F5F5F5F5F5F5F5F5F5F5F5F5E2F5F5F5F5E2E2F5F5F5F5E2F5F5F5F5F5F5F5F5F5F5F5F5F5F5F5F5E2F5F5F5F5F5F5F5F5F5F5F5F5F5F5F5F5F5F5F5F5F5F5F5F5F5F5F5F5F5F5F5F5F5F5F5F5F5F5F5F5F5
310
F5F5F5F5F5F5F5F5F5F5F5F5F5F5F5F5F5F5F5F5F5F5F5F5F5F5F5F5F5F5F5F5F5F5F5F5F5F5F5F5F5F5F5F5F5F5F5F5F5F5F5F5F5F5F5F5F5F5F5E2F0F0F0E2F5F5F5F5F5E2F0E2E2E2E2DCF5F5F5F5F5F0F0E2E2F5F5F5F5E2E2E2F5E2F5F5F5F5F5F5F5F5F5F5F5F5F5F5F5F5E2F5F5F5F5E2E2F5F5F5F5E2F5F5F5F5F5
310
F5F5F5F5F5F5F5F5F5F5F5E2F5F5F5F5F5F5F5F5F5F5F5F5F5F5F5F5F5F5F5F5F5F5F5F5F5F5F5F5F5F5F5F5F5F5F5F5F5F5F5F5F5F5F5F5F5F5F5F5F5F5F5F5F5F5F5F5F5F5F5F5F5F5F5F5F5F5F5F5F5F5F5F5F5F5F5F5F5F5F5F5F5F5F5F5F5F5F5F5F5F5F5F5F5F5F5F5F5F5F5F5F5F5E2E2F5F5F5F5F5F5F5F5E2E2F5
310
F5DCF5F5F5F5F5F5F5F0E2F5F5F5F5F5E2F5F5E2F5F5F5F5F5F5F5F5F5F5F5F5F5F5F5F5E2F5F5F5F5E2E2F5F5F5F5E2F5F5F5F5F5F5F5F5F5F5F5F5F5F5F5F5E2F5F5F5F5F5F5F5F5F5F5F5F5F5F5F5F5F5F5F5F5F5F5F5F5F5F5F5F5F5F5F5F5F5F5F5F5F5F5F5F5F5F5F5F5F5F5F5F5F5F5F5F5F5F5F5F5F5F5F5F5F5F5
310
F5F5F5F5F5F5F5F5F5F5F5F5F5F5F5F5F5F5F5F5F5F5F5F5F5F5F5F5F5F5F5F5F5F5F5F5F5F5F5F5F5F5F5F5F5F5F5F5F5F5F5F5F5F5DCF5F5F5F5F5F5F5F5F5F5F5F5F5F5F5F5F5E2F5F5F5F5F5F5F5F5F5F5F5F5F5F5F5F5E2F5F5F5F5E2E2F5F5F5F5E2F5F5F5F5F5F5F5F5F5F5F5F5F5F5F5F5E2F5F5F5F5F5F5F5F5F5
310
F5F5F5F5F5F5F5F5F5F5F5F5F5F5F5F5F5F5F5F5F5F5F5F5F5F5F5F5F5F5F5F5F5F5F5F5F5F5F5F5F5F5F5F5F5F5F5F5F5F5F5F5F5F5F5F5F5F5F5F5F5F5F5F5F5F5F5F5F5F5F5F5F5F5F5F5F5F5F5F5F5F5F5F5F5F5F5F5F5F5F5F5F5F5F5F5F5F5F5F5F5F5F5F5F5F5F5DCF5F5F5F5F5F5F5F5F5F5F5F5F5F5F5F5F5E2F5
310
F5F5F5F5F5F5F5F5F5F5F5F5F5F5F5E2F5F5F5F5E2E2F5F5F5F5E2F5F5F5F5F5F5F5F5F5F5F5F5F5F5F5F5E2F5F5F5F5F5F5F5F5F5F5F5F5F5F5F5F5F5F5F5F5F5F5F5F5F5F5F5F5F5F5F5F5F5F5F5F5F5F5F5F5F5F5F5F5F5F5F5F5F5F5F5F5F5F5F5F5F5F5F5F5F5F5F5F5F5F5F5F5F5F5F5F5F5F5F5F5F5F5F5F5F5F5F5
310
F5F5F5F5F5F5F5F5F5F5F5F5F5F5F5F5F5F5F5F5F5F5F5F5F5F5F5F5F5F5F5F5F5DCF5F5F5F5F5F5F5F5F5F5F5F5F5F5F5F5F5E2F5F5F5F5F5F5F5F5F5F5F5F5F5F5F5F5E2F5F5F5F5E2E2F5F5F5F5E2F5F5F5F5F5F5F5F5F5F5F5F5F5F5F5F5E2F5F5F5F5F5F5F5F5F5F5F5F5F5F5F5F5F5F5F5F5F5F5F5F5F5F5F5F5F5F5
310
F5F5F5F5F5F5F5F5F5F5F5F5F5F5F5F5F5F5F5F5F5F5F5F5F5F5F5F5F5F5F5F5F5F5F5F5F5F5F5F5F5F5F5F5F5F5F5F5F5F5F5F5F5F5F5F5F5F5F5F5F5F5F5F5F5F5F5F5F5F5F5F5F5F5F5F5F5F5F5F5F5F5F5F5F5F5DCF5F5F5F5F5F5F5F5F5F5F5F5F5F5F5F5F5E2F5F5F5F5F5F5F5F5F5F5F5F5F5F5F5F5E2F5F5F5F5E2
310
E2F5F5F5F5E2F5F5F5F5F5F5F5F5F5F5F5F5F5F5F5F5E2F5F5F5F5F5F5F5F5F5F5F5F5F5F5F5F5F5F5F5F5F5F5F5F5F5F5F5F5F5F5F5F5F5F5F5F5F5F5F5F5F5F5F5F5F5F5F5F5F5F5F5F5F5F5F5F5F5F5F5F5F5F5F5F5F5F5F5F5F5F5F5F5F5F5F5F5F5F5F5F5F5F5F5F5F5F5F5F5F5F5F5F5F5F5F5F5F5F5F5F5F5F5F5F5
310
F5F5F5F5F5F5F5F5F5F5F5F5DCF5F5F5F5F5F5F5F5F5F5F5F5F5F5F5F5F5E2F5F5F5F5F5F5F5F5F5F5F5F5F5F5F5F5E2F5F5F5F5E2E2F5F5F5F5E2F5F5F5F5F5F5F5F5F5F5F5F5F5F5F5F5E2F5F5F5F5F5F5F5F5F5F5F5F5F5F5F5F5F5F5F5F5F5F5F5F5F5F5F5F5F5F5F5F5F5F5F5F5F5F5F5F5F5F5F5F5F5F5F5F5F5F5F5
310
F5F5F5F5F5F5F5F5F5F5F5F5F5F5F5F5F5F5F5F5F5F5F5F5F5F5F5F5F5F5F5F5F5F5F5F5F5F5F5F5F5F5F5F5F5F5F5F5F5F5F5F5F5F5F5F5F5F5F5F5F5F5F5F5F5DCF5F5F5F5F5F5F5F5F5F5F5F5F5F5F5F5F5E2F5F5F5F5F5F5F5F5F5F5F5F5F5F5F5F5E2F5F5F5F5E2E2F5F5F5F5E2F5F5F5F5F5F5F5F5F5F5F5F5F5F5F5
310
F5E2F5F5F5F5F5F5F5F5F5F5F5F5F5F5F5F5F5F5F5F5F5F5F5F5F5F5F5F5F5F5F5F5F5F5F5F5F5F5F5F5F5F5F5F5F5F5F5F5F5F5F5F5F5F5F5F5F5F5F5F5F5F5F5F5F5F5F5F5F5F5F5F5F5F5F5F5F5F5F5F5F5F5F5F5F5F5F5F5F5F5F5F5F5F5F5F5F5F5F5F5F5F5F5F5F5F5F5F5F5F5F5F5F5F5F5F5DCF5F5F5F5F5F5F5F5
310
F5F5F5F5F5F5F5F5F5E2F5F5F5F5F5F5F5F5F5F5F5F5F5F5F5F5E2F5F5F5F5E2E2F5F5F5F5E2F5F5F5F5F5F5F5F5F5F5F5F5F5F5F5F5E2F5F5F5F5F5F5F5F5F5F5F5F5F5F5F5F5F5F5F5F5F5F5F5F5F5F5F5F5F5F5F5F5F5F5F5F5F5F5F5F5F5F5F5F5F5F5F5F5F5F5F5F5F5F5F5F5F5F5F5F5F5F5F5F5F5F5F5F5F5F5F5F5
310
F5F5F5F5F5F5F5F5F5F5F5F5F5F5F5F5F5F5F5F5F5F5F5F5F5F5F5F5F5F5F5F5F5F5F5F5F5F5F5F5F5F5E2E2DCE2F5F5F5F5F5F5F5F5F5F5F5F5F5F5F5F5E2F5F5F5F5F5F5F5F5F5F5F5F5F5F5F5F5E2F5F5F5F5E2E2F5F5F5F5E2F5F5F5F5F5F5F5F5F5F5F5F5F5F5F5F5E2F5F5F5F5F5F5F5F5F5F5F5F5F5F5F5F5F5F5F5
310
F5F5F5F5F5F5F5F5F5F5F5F5F5F5F5F5F5F5F5F5F5F5F5F5F5F5F5F5F5F5F5F5F5F5F5F5F5F5F5F5F5F5F5F5F5F5F5F5F5F5F5F5F5F5F5F5F5F5F5F5F5F5F5F5F5F5F5F5F5F5F5F5F5F5F5F5F5F5F5F5F5F5F5F5F5F5F5F5F5F5F5F5F5F5F5F5F5DCF5F5F5F5F5F5F5F5F5F5F5F5F5F5F5F5F5E2F5F5F5F5F5F5F5F5F5F5F5
310
F5F5F5F5F5E2F5F5F5F5E2E2F5F5F5F5E2F5F5F5F5F5F5F5F5F5F5F5F5F5F5F5F5E2F5F5F5F5F5F5F5F5F5F5F5F5F5F5F5F5F5F5F5F5F5F5F5F5F5F5F5F5F5F5F5F5F5F5F5F5F5F5F5F5F5F5F5F5F5F5F5F5F5F5F5F5F5F5F5F5F5F5F5F5F5F5F5F5F5F5F5F5F5F5F5F5F5F5F5F5F5F5F5F5F5F5F5F5F5F5F5F5F5F5F5F5F5
310
F5F5F5F5F5F5F5F5F5F5F5F5F5F5F5F5F5F5F5F5F5F5F5DCF5F5F5F5F5F5F5F5F5F5F5F5F5F5F5F5F5E2F5F5F5F5F5F5F5F5F5F5F5F5F5F5F5F5E2F5F5F5F5E2E2F5F5F5F5F5F5F5F5F5F5F5F5F5F5F5F5F5F5F5F5F5E2F5F5F5F5F5F5F5F5F5F5F5F5F5F5F5F5F5F5F5F5F5F5F5F5F5F5F5F5F5F5F5F5F5F5F5F5F5F5F5F5
310
F5F5F5F5F5F5F5F5F5F5F5F5F5F5F5F5F5F5F5F5F5F5F5F5F5F5F5F5F5F5F5F5F5F5F5F5F5F5F5F5F5F5F5F5F5F5F5F5F5F5F5F5F5F5F5F5F5F5F5F5F5F5F5F5F5F5F5F5F5F5F5F5F5F5F5F5DCF5F5F5F5F5F5F5F5F5F5F5F5F5F5F5F5F5E2F5F5F5F5F5F5F5F5F5F5F5F5F5F5F5F5F5F5F5F5F5E2E2F5F5F5F5F5F5F5F5F5
310
F5F5F5F5F5F5F5F5F5F5F5F5E2F5F5F5F5F5F5F5F5F5F5F5F5F5F5F5F5F5F5F5F5F5F5F5F5F5F5F5F5F5F5F5F5F5F5F5F5F5F5F5F5F5F5F5F5F5F5F5F5F5F5F5F5F5F5F5F5F5F5F5F5F5F5F5F5F5F5F5F5F5F5F5F5F5F5F5F5F5F5F5F5F5F5F5F5F5F5F5F5F5F5F5F5F5F5F5F5F5F5F5F5F5F5F5F5F5F5F5F5F5F5F5F5F5F5
310
F5F5F5F5F5F5F5F5F5F5F5F5F5F5F5F5F5F5F5F5E2F5F5F5F5F5F5F5F5F5F5F5F5F5F5F5F5F5F5F5F5F5E2E2F5F5F5F5F5F5F5F5F5F5F5F5F5F5F5F5F5F5F5F5F5E2F5F5F5F5F5F5F5F5F5F5F5F5F5F5F5F5F5F5F5F5F5F5F5F5F5F5F5F5F5F5F5F5F5F5F5F5F5F5F5F5F5F5F5F5F5F5F5F5F5F5F5F5F5F5F5F5F5F5F5F5F5
310
F5F5F5F5F5F5F5F5F5F5F5F5F5F5F5F5F5F5F5F5F5F5F5F5F5F5F5F5F5F5F5F5F5F5F5F5F5F5F5F5F5F5F5F5F5F5F5F5F5F5F5F5F5F5F5F5F5F5F5F5F5F5F5F5F5F5F5F5F5F5F5F5F5E2F5F5F5F5F5F5F5F5F5F5F5F5F5F5F5F5F5F5F5F5F5E2E2F5F5F5F5F5F5F5F5F5F5F5F5F5F5F5F5F5F5F5F5F5E2F5F5F5F5F5F5F5F5
310
F5F5F5F5F5F5F5F5F5F5F5F5F5F5F5F5F5F5F5F5F5F5F5F5F5F5F5F5F5F5F5F5F5F5F5F5F5F5F5F5F5F5F5F5F5F5F5F5F5F5F5F5F5F5F5F5F5F5F5F5F5F5F5F5F5F5F5F5F5F5F5F5F5F5F5F5F5F5F5F5F5F5F5F5F5F5F5F5F5F5F5F5F5F5F5F5F5F5F5F5F5F5F5F5F5F5F5F5F5F5F5F5F5F5F5F5F5F5F5F5F5F5F5F5F5F5E2
310
F5F5F5F5F5F5F5F5F5F5F5F5F5F5F5F5F5F5F5F5F5E2E2F5F5F5F5F5F5F5F5F5F5F5F5F5F5F5F5F5F5F5F5F5E2F5F5F5F5F5F5F5F5F5F5F5F5F5F5F5F5F5F5F5F5F5F5F5F5F5F5F5F5F5F5F5F5F5F5F5F5F5F5F5F5F5F5F5F5F5F5F5F5F5F5F5F5F5F5F5F5F5F5F5F5F5F5F5F5F5F5F5F5F5F5F5F5F5F5F5F5F5F5F5F5F5F5
310
F5F5F5F5F5F5F5F5F5F5F5F5F5F5F5F5F5F5F5F5F5F5F5F5F5F5F5F5F5F5F5F5F5F5F5F5F5F5F5F5F5F5F5F5F5F5F5F5F5F5F5F5E2F5F5F5F5F5F5F5F5F5F5F5F5F5F5F5F5F5F5F5F5F5E2E2F5F5F5F5F5F5F5F5F5F5F5F5F5F5F5F5F5F5F5F5F5E2F5F5F5F5F5F5F5F5F5F5F5F5F5F5F5F5F5F5F5F5F5F5F5F5F5F5F5F5F5
310
F5F5F5F5F5F5F5F5F5F5F5F5F5F5F5F5F5F5F5F5F5F5F5F5F5F5F5F5F5F5F5F5F5F5F5F5F5F5F5F5F5F5F5F5F5F5F5F5F5F5F5F5F5F5F5F5F5F5F5F5F5F5F5F5F5F5F5F5F5F5F5F5F5F5F5F5F5F5F5F5F5F5F5F5F5F5F5F5F5F5F5F5F5F5F5F5F5F5F5F5F5F5F5F5F5E2F5F5F5F5F5F5F5F5F5F5F5F5F5F5F5F5F5F5F5F5F5
310
E2E2F5F5F5F5F5F5F5F5F5F5F5F5F5F5F5F5F5F5F5F5F5E2F5F5F5F5F5F5F5F5F5F5F5F5F5F5F5F5F5F5F5F5F5F5F5F5F5F5F5F5F5F5F5F5F5F5F5F5F5F5F5F5F5F5F5F5F5F5F5F5F5F5F5F5F5F5F5F5F5F5F5F5F5F5F5F5F5F5F5F5F5F5F5F5F5F5F5F5F5F5F5F5F5F5F5F5F5F5F5F5F5F5F5F5F5F5F5F5F5F5F5F5F5F5F5
310
F5F5F5F5F5F5F5F5F5F5F5F5F5F5F5F5F5F5F5F5F5F5F5F5F5F5F5F5F5F5F5E2F5F5F5F5F5F5F5F5F5F5F5F5F5F5F5F5F5F5F5F5F5E2E2F5F5F5F5F5F5F5F5F5F5F5F5F5F5F5F5F5F5F5F5F5E2F5F5F5F5F5F5F5F5F5F5F5F5F5F5F5F5F5F5F5F5F5F5F5F5F5F5F5F5F5F5F5F5F5F5F5F5F5F5F5F5F5F5F5F5F5F5F5F5F5F5
310
F5F5F5F5F5F5F5F5F5F5F5F5F5F5F5F5F5F5F5F5F5F5F5F5F5F5F5F5F5F5F5F5F5F5F5F5F5F5F5F5F5F5F5F5F5F5F5F5F5F5F5F5F5F5F5F5F5F5F5F5F5F5F5F5F5F5F5F5F5F5F5F5F5F5F5F5F5F5F5F5F5F5F5F5E2F5F5F5F5F5F5F5F5F5F5F5F5F5F5F5F5F5F5F5F5F5E2E2F5F5F5F5F5F5F5F5F5F5F5F5F5F5F5F5F5F5F5
310
F5F5E2F5F5F5F5F5F5F5F5F5F5F5F5F5F5F5F5F5F5F5F5F5F5F5F5F5F5F5F5F5F5F5F5F5F5F5F5F5F5F5F5F5F5F5F5F5F5F5F5F5F5F5F5F5F5F5F5F5F5F5F5F5F5F5F5F5F5F5F5F5F5F5F5F5F5F5F5F5F5F5F5F5F5F5F5F5F5F5F5F5F5F5F5F5F5F5F5F5F5F5F5F5F5F5F5F5F5F5F5F5F5F5F5F5F5F5F5F5F5F5F5F5F5F5F5
310
F5F5F5F5F5F5F5F5F5F5E2F5F5F5F5F5F5F5F5F5F5F5F5F5F5F5F5F5F5F5F5F5E2E2F5F5F5F5E2F5F5F5F5F5F5F5F5F5F5F5F5F5F5F5F5E2F5F5F5F5F5F5F5F5F5F5F5F5F5F5F5F5F5F5F5F5F5F5F5F5F5F5F5F5F5F5F5F5F5F5F5F5F5F5F5F5F5F5F5F5F5F5F5F5F5F5F5F5F5F5F5F5F5F5F5F5F5F5F5F5F5F5F5F5F5F5F5
310
F5F5F5F5F5F5F5F5F5F5F5F5F5F5F5F5F5F5F5F5F5F5F5F5F5F5F5F5F5F5F5F5F5F5F5F5F5F5F5F5F5F5F5F5F5F5F5F5F5F5F5F5F5F5F5F5F5F5F5F5F5F5F5E2F5F5F5F5F5F5F5F5F5F5F5F5F5F5F5F5E2F5F5F5F5E2E2F5F5F5F5E2F5F5F5F5F5F5F5F5F5F5F5F5F5F5F5F5E2F5F5F5F5F5F5F5F5F5F5F5F5F5F5F5F5F5F5
310
F5F5F5F5F5F5F5F5F5F5F5F5F5F5F5F5F5F5F5F5F5F5F5F5F5F5F5F5F5F5F5F5F5F5F5F5F5F5F5F5F5F5F5F5F5F5F5F5F5F5F5F5F5F5F5F5F5F5F5F5F5F5F5F5F5F5F5F5F5F5F5F5F5F5F5F5F5F5F5F5F5F5F5F5F5F5F5F5F5F5F5F5F5F5F5F5F5F5F5F5F5F5F5F5F5F5F5F5F5F5F5F5F5F5F5F5E2F5F5F5F5F5F5F5F5F5F5
310
F5F5F5F5F5F5E2F5F5F5F5E2E2F5F5F5F5E2F5F5F5F5F5F5F5F5F5F5F5F5F5F5F5F5E2F5F5F5F5F5F5F5F5F5F5F5F5F5F5F5F5F5F5F5F5F5F5F5F5F5F5F5F5F5F5F5F5F5F5F5F5F5F5F5F5F5F5F5F5F5F5F5F5F5F5F5F5F5F5F5F5F5F5F5F5F5F5F5F5F5F5F5F5F5F5F5F5F5F5F5F5F5F5F5F5F5F5F5F5F5F5F5F5F5F5F5F5
310
F5F5F5F5F5F5F5F5F5F5F5F5F5F5F5F5F5F5F5F5F5F5F5F5F5F5F5F5F5F5F5F5F5F5F5F5F5F5F5F5F5F5E2F5F5F5F5F5F5F5F5F5F5F5F5F5F5F5F5E2F5F5F5F5E2E2F5F5F5F5E2F5F5F5F5F5F5F5F5F5F5F5F5F5F5F5F5E2F5F5F5F5F5F5F5F5F5F5F5F5F5F5F5F5F5F5F5F5F5F5F5F5F5F5F5F5F5F5F5F5F5F5F5F5F5F5F5
310
F5F5F5F5F5F5F5F5F5F5F5F5F5F5F5F5F5F5F5F5F5F5F5F5F5F5F5F5F5F5F5F5F5F5F5F5F5F5F5F5F5F5F5F5F5F5F5F5F5F5F5F5F5F5F5F5F5F5F5F5F5F5F5F5F5F5F5F5F5F5F5F5F5F5F5F5F5F5F5F5F5F5F5F5F5F5F5F5F5F5F5F5F5F5F5E2F5F5F5F5F5F5F5F5F5F5F5F5F5F5F5F5E2F5F5F5F5E2E2F5F5F5F5E2F5F5F5
310
F5F5F5F5F5F5F5F5F5F5F5F5F5E2F5F5F5F5F5F5F5F5F5F5F5F5F5F5F5F5F5F5F5F5F5F5F5F5F5F5F5F5F5F5F5F5F5F5F5F5F5F5F5F5F5F5F5F5F5F5F5F5F5F5F5F5F5F5F5F5F5F5F5F5F5F5F5F5F5F5F5F5F5F5F5F5F5F5F5F5F5F5F5F5F5F5F5F5F5F5F5F5F5F5F5F5F5F5F5F5F5F5F5F5F5F5F5F5F5F5F5F5F5F5F5F5F5
310
F5F5F5F5F5F5F5F5F5F5F5F5F5F5F5F5F5F5F5F5F5E2F5F5F5F5F5F5F5F5F5F5F5F5F5F5F5F5E2F5F5F5F5E2E2F5F5F5F5E2F5F5F5F5F5F5F5F5F5F5F5F5F5F5F5F5E2F5F5F5F5F5F5F5F5F5F5F5F5F5F5F5F5F5F5F5F5F5F5F5F5F5F5F5F5F5F5F5F5F5F5F5F5F5F5F5F5F5F5F5F5F5F5F5F5F5F5F5F5F5F5F5F5F5F5F5F5
310
F5F5F5F5F5F5F5F5F5F5F5F5F5F5F5F5F5F5F5F5F5F5F5F5F5F5F5F5F5F5F5F5F5F5F5F5F5F5F5F5F5F5F5F5F5F5F5F5F5F5F5F5F5F5F5F5F5F5F5F5F5F5F5F5F5F5F5F5F5F5F5F5F5F5E2F5F5F5F5F5F5F5F5F5F5F5F5F5F5F5F5E2F5F5F5F5E2E2F5F5F5F5E2F5F5F5F5F5F5F5F5F5F5F5F5F5F5F5F5E2F5F5F5F5F5F5F5
310
F5F5F5F5F5F5F5F5F5F5F5F5F5F5F5F5F5F5F5F5F5F5F5F5F5F5F5F5F5F5F5F5F5F5F5F5F5F5F5F5F5F5F5F5F5F5F5F5F5F5F5F5F5F5F5F5F5F5F5F5F5F5F5F5F5F5F5F5F5F5F5F5F5F5F5F5F5F5F5F5F5F5F5F5F5F5F5F5F5F5F5F5F5F5F5F5F5F5F5F5F5F5F5F5F5F5F5F5F5F5F5F5F5F5F5F5F5F5F5F5F5F5F5F5F5F5F5
310
E2F5F5F5F5F5F5F5F5F5F5F5F5F5F5F5F5E2F5F5F5F5E2E2F5F5F5F5E2F5F5F5F5F5F5F5F5F5F5F5F5F5F5F5F5E2F5F5F5F5F5F5F5F5F5F5F5F5F5F5F5F5F5F5F5F5F5F5F5F5F5F5F5F5F5F5F5F5F5F5F5F5F5F5F5F5F5F5F5F5F5F5F5F5F5F5F5F5F5F5F5F5F5F5F5F5F5F5F5F5F5F5F5F5F5F5F5F5F5F5F5F5F5F5F5F5F5
310
F5F5F5F5F5F5F5F5F5F5F5F5F5F5F5F5F5F5F5F5F5F5F5F5F5F5F5F5F5F5F5F5F5F5F5F5F5F5F5F5F5F5F5F5F5F5F5F5F5F5F5F5F5E2F5F5F5F5F5F5F5F5F5F5F5F5F5F5F5F5E2F5F5F5F5E2E2F5F5F5F5E2F5F5F5F5F5F5F5F5F5F5F5F5F5F5F5F5E2F5F5F5F5F5F5F5F5F5F5F5F5F5F5F5F5F5F5F5F5F5F5F5F5F5F5F5F5
310
F5F5F5F5F5F5F5F5F5F5F5F5F5F5F5F5F5F5F5F5F5F5F5F5F5F5F5F5F5F5F5F5F5F5F5F5F5F5F5F5F5F5F5F5F5F5F5F5F5F5F5F5F5F5F5F5F5F5F5F5F5F5F5F5F5F5F5F5F5F5F5F5F5F5F5F5F5F5F5F5F5F5F5F5F5F5F5F5F5F5F5F5F5F5F5F5F5F5F5F5F5F5F5F5F5F5E2F5F5F5F5F5F5F5F5F5F5F5F5F5F5F5F5E2F5F5F5
310
F5E2E2F5F5F5F5E2F5F5F5F5F5F5F5F5F5F5F5F5F5F5F5F5E2F5F5F5F5F5F5F5F5F5F5F5F5F5F5F5F5F5F5F5F5F5F5F5F5F5F5F5F5F5F5F5F5F5F5F5F5F5F5F5F5F5F5F5F5F5F5F5F5F5F5F5F5F5F5F5F5F5F5F5F5F5F5F5F5F5F5F5F5F5F5F5F5F5F5F5F5F5F5F5F5F5F5F5F5F5F5F5F5F5F5F5F5F5F5F5F5F5F5F5F5F5F5
310
F5F5F5F5F5F5F5F5F5F5F5F5F5F5F5F5F5F5F5F5F5F5F5F5F5F5F5F5F5F5F5F5E2F5F5F5F5F5F5F5F5F5F5F5F5F5F5F5F5E2F5F5F5F5E2E2F5F5F5F5E2F5F5F5F5F5F5F5F5F5F5F5F5F5F5F5F5E2F5F5F5F5F5F5F5F5F5F5F5F5F5F5F5F5F5F5F5F5F5F5F5F5F5F5F5F5F5F5F5F5F5F5F5F5F5F5F5F5F5F5F5F5F5F5F5F5F5
310
F5F5F5F5F5F5F5F5F5F5F5F5F5F5F5F5F5F5F5F5F5F5F5F5F5F5F5F5F5F5F5F5F5F5F5F5F5F5F5F5F5F5F5F5F5F5F5F5F5F5F5F5F5F5F5F5F5F5F5F5F5F5F5F5F5F5F5F5F5F5F5F5F5F5F5F5F5F5F5F5F5F5F5F5F5E2F5F5F5F5F5F5F5F5F5F5F5F5F5F5F5F5E2F5F5F5F5E2E2F5F5F5F5E2F5F5F5F5F5F5F5F5F5F5F5F5F5
310
F5F5F5E2F5F5F5F5F5F5F5F5F5F5F5F5F5F5F5F5F5F5F5F5F5F5F5F5F5F5F5F5F5F5F5F5F5F5F5F5F5F5F5F5F5F5F5F5F5F5F5F5F5F5F5F5F5F5F5F5F5F5F5F5F5F5F5F5F5F5F5F5F5F5F5F5F5F5F5F5F5F5F5F5F5F5F5F5F5F5F5F5F5F5F5F5F5F5F5F5F5F5F5F5F5F5F5F5F5F5F5F5F5F5F5F5F5F5F5F5F5F5F5F5F5F5F5
310
F5F5F5F5F5F5F5F5F5F5F5E2F5F5F5F5F5F5F5F5F5F5F5F5F5F5F5F5E2F5F5F5F5E2E2F5F5F5F5E2F5F5F5F5F5F5F5F5F5F5F5F5F5F5F5F5E2F5F5F5F5F5F5F5F5F5F5F5F5F5F5F5F5F5F5F5F5F5F5F5F5F5F5F5F5F5F5F5F5F5F5F5F5F5F5F5F5F5F5F5F5F5F5F5F5F5F5F5F5F5F5F5F5F5F5F5F5F5F5F5F5F5F5F5F5F5F5
310
F5F5F5F5F5F5F5F5F5F5F5F5F5F5F5F5F5F5F5F5F5F5F5F5F5F5F5F5F5F5F5F5F5F5F5F5F5F5F5F5F5F5F5F5F5F5F5F5F5F5F5F5F5F5F5F5F5F5F5F5F5F5F5F5E2F5F5F5F5F5F5F5F5F5F5F5F5F5F5F5F5E2F5F5F5F5E2E2F5F5F5F5E2F5F5F5F5F5F5F5F5F5F5F5F5F5F5F5F5E2F5F5F5F5F5F5F5F5F5F5F5F5F5F5F5F5F5
310
F5F5F5F5F5F5F5F5F5F5F5F5F5F5F5F5F5F5F5F5F5F5F5F5F5F5F5F5F5F5F5F5F5F5F5F5F5F5F5F5F5F5F5F5F5F5F5F5F5F5F5F5F5F5F5F5F5F5F5F5F5F5F5F5F5F5F5F5F5F5F5F5F5F5F5F5F5F5F5F5F5F5F5F5F5F5F5F5F5F5F5F5F5F5F5F5F5F5F5F5F5F5F5F5F5F5F5F5F5F5F5F5F5F5F5F5F5E2F5F5F5F5F5F5F5F5F5
310
F5F5F5F5F5F5F5E2F5F5F5F5E2E2F5F5F5F5E2F5F5F5F5F5F5F5F5F5F5F5F5F5F5F5F5E2F5F5F5F5F5F5F5F5F5F5F5F5F5F5F5F5F5F5F5F5F5F5F5F5F5F5F5F5F5F5F5F5F5F5F5F5F5F5F5F5F5F5F5F5F5F5F5F5F5F5F5F5F5F5F5F5F5F5F5F5F5F5F5F5F5F5F5F5F5F5F5F5F5F5F5F5F5F5F5F5F5F5F5F5F5F5F5F5F5F5F5
310
F5F5F5F5F5F5F5F5F5F5F5F5F5F5F5F5F5F5F5F5F5F5F5F5F5F5F5F5F5F5F5F5F5F5F5F5F5F5F5F5F5F5F5E2F5F5F5F5F5F5F5F5F5F5F5F5F5F5F5F5E2F5F5F5F5E2E2F5F5F5F5E2F5F5F5F5F5F5F5F5F5F5F5F5F5F5F5F5E2F5F5F5F5F5F5F5F5F5F5F5F5F5F5F5F5F5F5F5F5F5F5F5F5F5F5F5F5F5F5F5F5F5F5F5F5F5F5
310
F5F5F5F5F5F5F5F5F5F5F5F5F5F5F5F5F5F5F5F5F5F5F5F5F5F5F5F5F5F5F5F5F5F5F5F5F5F5F5F5F5F5F5F5F5F5F5F5F5F5F5F5F5F5F5F5F5F5F5F5F5F5F5F5F5F5F5F5F5F5F5F5F5F5F5F5F5F5F5F5F5F5F5F5F5F5F5F5F5F5F5F5F5F5F5F5E2F5F5F5F5F5F5F5F5F5F5F5F5F5F5F5F5E2F5F5F5F5E2E2F5F5F5F5E2F5F5
310
F5F5F5F5F5F5F5F5F5F5F5F5F5F5E2F5F5F5F5F5F5F5F5F5F5F5F5F5F5F5F5F5F5F5F5F5F5F5F5F5F5F5F5F5F5F5F5F5F5F5F5F5F5F5F5F5F5F5F5F5F5F5F5F5F5F5F5F5F5F5F5F5F5F5F5F5F5F5F5F5F5F5F5F5F5F5F5F5F5F5F5F5F5F5F5F5F5F5F5F5F5F5F5F5F5F5F5F5F5F5F5F5F5F5F5F5F5F5F5F5F5F5F5F5F5F5F5
310
F5F5F5F5F5F5F5F5F5F5F5F5F5F5F5F5F5F5F5F5F5F5E2F5F5F5F5F5F5F5F5F5F5F5F5F5F5F5F5E2F5F5F5F5E2E2F5F5F5F5F5F5F5F5F5F5F5F5F5F5F5F5F5F5F5F5F5E2F5F5F5F5F5F5F5F5F5F5F5F5F5F5F5F5F5F5F5F5F5F5F5F5F5F5F5F5F5F5F5F5F5F5F5F5F5F5F5F5F5F5F5F5F5F5F5F5F5F5F5F5F5F5F5F5F5F5F5
310
F5F5F5F5F5F5F5F5F5F5F5F5F5F5F5F5F5F5F5F5F5F5F5F5F5F5F5F5F5F5F5F5F5F5F5F5F5F5F5F5F5F5F5F5F5F5F5F5F5F5F5F5F5F5F5F5F5F5F5F5F5F5F5F5F5F5F5F5F5F5F5F5F5F5F5E2F5F5F5F5F5F5F5F5F5F5F5F5F5F5F5F5F5F5F5F5F5E2E2F5F5F5F5F5F5F5F5F5F5F5F5F5F5F5F5F5F5F5F5F5E2F5F5F5F5F5F5
310
F5F5F5F5F5F5F5F5F5F5F5F5F5F5F5F5F5F5F5F5F5F5F5F5F5F5F5F5F5F5F5F5F5F5F5F5F5F5F5F5F5F5F5F5F5F5F5F5F5F5F5F5F5F5F5F5F5F5F5F5F5F5F5F5F5F5F5F5F5F5F5F5F5F5F5F5F5F5F5F5F5F5F5F5F5F5F5F5F5F5F5F5F5F5F5F5F5F5F5F5F5F5F5F5F5F5F5F5F5F5F5F5F5F5F5F5F5F5F5F5F5F5F5F5F5F5F5
310
F5E2F5F5F5F5F5F5F5F5F5F5F5F5F5F5F5F5F5F5F5F5F5E2E2F5F5F5F5F5F5F5F5F5F5F5F5F5F5F5F5F5F5F5F5F5E2F5F5F5F5F5F5F5F5F5F5F5F5F5F5F5F5F5F5F5F5F5F5F5F5F5F5F5F5F5F5F5F5F5F5F5F5F5F5F5F5F5F5F5F5F5F5F5F5F5F5F5F5F5F5F5F5F5F5F5F5F5F5F5F5F5F5F5F5F5F5F5F5F5F5F5F5F5F5F5F5
310
F5F5F5F5F5F5F5F5F5F5F5F5F5F5F5F5F5F5F5F5F5F5F5F5F5F5F5F5F5F5F5F5F5F5F5F5F5F5F5F5F5F5F5F5F5F5F5F5F5F5F5F5F5F5E2F5F5F5F5F5F5F5F5F5F5F5F5F5F5F5F5F5F5F5F5F5E2E2F5F5F5F5F5F5F5F5F5F5F5F5F5F5F5F5F5F5F5F5F5E2F5F5F5F5F5F5F5F5F5F5F5F5F5F5F5F5F5F5F5F5F5F5F5F5F5F5F5
310
F5F5F5F5F5F5F5F5F5F5F5F5F5F5F5F5F5F5F5F5F5F5F5F5F5F5F5F5F5F5F5F5F5F5F5F5F5F5F5F5F5F5F5F5F5F5F5F5F5F5F5F5F5F5F5F5F5F5F5F5F5F5F5F5F5F5F5F5F5F5F5F5F5F5F5F5F5F5F5F5F5F5F5F5F5F5F5F5F5F5F5F5F5F5F5F5F5F5F5F5F5F5F5F5F5F5F5E2F5F5F5F5F5F5F5F5F5F5F5F5F5F5F5F5F5F5F5
310
F5F5E2E2F5F5F5F5F5F5F5F5F5F5F5F5F5F5F5F5F5F5F5F5F5E2F5F5F5F5F5F5F5F5F5F5F5F5F5F5F5F5F5F5F5F5F5F5F5F5F5F5F5F5F5F5F5F5F5F5F5F5F5F5F5F5F5F5F5F5F5F5F5F5F5F5F5F5F5F5F5F5F5F5F5F5F5F5F5F5F5F5F5F5F5F5F5F5F5F5F5F5F5F5F5F5F5F5F5F5F5F5F5F5F5F5F5F5F5F5F5F5F5F5F5F5F5
310
F5F5F5F5F5F5F5F5F5F5F5F5F5F5F5F5F5F5F5F5F5F5F5F5F5F5F5F5F5F5F5F5F5E2F5F5F5F5F5F5F5F5F5F5F5F5F5F5F5F5F5F5F5F5F5E2E2F5F5F5F5F5F5F5F5F5F5F5F5F5F5F5F5F5F5F5F5F5E2F5F5F5F5F5F5F5F5F5F5F5F5F5F5F5F5F5F5F5F5F5F5F5F5F5F5F5F5F5F5F5F5F5F5F5F5F5F5F5F5F5F5F5F5F5F5F5F5
310
F5F5F5F5F5F5F5F5F5F5F5F5F5F5F5F5F5F5F5F5F5F5F5F5F5F5F5F5F5F5F5F5F5F5F5F5F5F5F5F5F5F5F5F5F5F5F5F5F5F5F5F5F5F5F5F5F5F5F5F5F5F5F5F5F5F5F5F5F5F5F5F5F5F5F5F5F5F5F5F5F5F5F5F5F5F5E2F5F5F5F5F5F5F5F5F5F5F5F5F5F5F5F5F5F5F5F5F5E2E2F5F5F5F5F5F5F5F5F5F5F5F5F5F5F5F5F5
310
F5F5F5F5E2F5F5F5F5F5F5F5F5F5F5F5F5F5F5F5F5F5F5F5F5F5F5F5F5F5F5F5F5F5F5F5F5F5F5F5F5F5F5F5F5F5F5F5F5F5F5F5F5F5F5F5F5F5F5F5F5F5F5F5F5F5F5F5F5F5F5F5F5F5F5F5F5F5F5F5F5F5F5F5F5F5F5F5F5F5F5F5F5F5F5F5F5F5F5F5F5F5F5F5F5F5F5F5F5F5F5F5F5F5F5F5F5F5F5F5F5F5F5F5F5F5F5
310
F5F5F5F5F5F5F5F5F5F5F5F5E2F5F5F5F5F5F5F5F5F5F5F5F5F5F5F5F5F5F5F5F5F5E2E2F5F5F5F5F5F5F5F5F5F5F5F5F5F5F5F5F5F5F5F5F5E2F5F5F5F5F5F5F5F5F5F5F5F5F5F5F5F5F5F5F5F5F5F5F5F5F5F5F5F5F5F5F5F5F5F5F5F5F5F5F5F5F5F5F5F5F5F5F5F5F5F5F5F5F5F5F5F5F5F5F5F5F5F5F5F5F5F5F5F5F5
310
F5F5F5F5F5F5F5F5F5F5F5F5F5F5F5F5F5F5F5F5F5F5F5F5F5F5F5F5F5F5F5F5F5F5F5F5F5F5F5F5F5F5F5F5F5F5F5F5F5F5F5F5F5F5F5F5F5F5F5F5F5F5F5F5F5E2F5F5F5F5F5F5F5F5F5F5F5F5F5F5F5F5F5F5F5F5F5E2E2F5F5F5F5F5F5F5F5F5F5F5F5F5F5F5F5F5F5F5F5F5E2F5F5F5F5F5F5F5F5F5F5F5F5F5F5F5F5
310
F5F5F5F5F5F5F5F5F5F5F5F5F5F5F5F5F5F5F5F5F5F5F5F5F5F5F5F5F5F5F5F5F5F5F5F5F5F5F5F5F5F5F5F5F5F5F5F5F5F5F5F5F5F5F5F5F5F5F5F5F5F5F5F5F5F5F5F5F5F5F5F5F5F5F5F5F5F5F5F5F5F5F5F5F5F5F5F5F5F5F5F5F5F5F5F5F5F5F5F5F5F5F5F5F5F5F5F5F5F5F5F5F5F5F5F5F5F5E2F5F5F5F5F5F5F5F5
310
F5F5F5F5F5F5F5F5F5F5F5F5F5E2E2F5F5F5F5E2F5F5F5F5F5F5F5F5F5F5F5F5F5F5F5F5E2F5F5F5F5F5F5F5F5F5F5F5F5F5F5F5F5F5F5F5F5F5F5F5F5F5F5F5F5F5F5F5F5F5F5F5F5F5F5F5F5F5F5F5F5F5F5F5F5F5F5F5F5F5F5F5F5F5F5F5F5F5F5F5F5F5F5F5F5F5F5F5F5F5F5F5F5F5F5F5F5F5F5F5F5F5F5F5F5F5F5
310
F5F5F5F5F5F5F5F5F5F5F5F5F5F5F5F5F5F5F5F5F5F5F5F5F5F5F5F5F5F5F5F5F5F5F5F5F5F5F5F5F5F5F5F5E2F5F5F5F5F5F5F5F5F5F5F5F5F5F5F5F5E2F5F5F5F5E2E2F5F5F5F5E2F5F5F5F5F5F5F5F5F5F5F5F5F5F5F5F5E2F5F5F5F5F5F5F5F5F5F5F5F5F5F5F5F5F5F5F5F5F5F5F5F5F5F5F5F5F5F5F5F5F5F5F5F5F5
310
F5F5F5F5F5F5F5F5F5F5F5F5F5F5F5F5F5F5F5F5F5F5F5F5F5F5F5F5F5F5F5F5F5F5F5F5F5F5F5F5F5F5F5F5F5F5F5F5F5F5F5F5F5F5F5F5F5F5F5F5F5F5F5F5F5F5F5F5F5F5F5F5F5F5F5F5F5F5F5F5F5F5F5F5F5F5F5F5F5F5F5F5F5F5F5F5F5E2F5F5F5F5F5F5F5F5F5F5F5F5F5F5F5F5E2F5F5F5F5E2E2F5F5F5F5E2F5
310
F5F5F5F5F5F5F5F5F5F5F5F5F5F5F5E2F5F5F5F5F5F5F5F5F5F5F5F5F5F5F5F5F5F5F5F5F5F5F5F5F5F5F5F5F5F5F5F5F5F5F5F5F5F5F5F5F5F5F5F5F5F5F5F5F5F5F5F5F5F5F5F5F5F5F5F5F5F5F5F5F5F5F5F5F5F5F5F5F5F5F5F5F5F5F5F5F5F5F5F5F5F5F5F5F5F5F5F5F5F5F5F5F5F5F5F5F5F5F5F5F5F5F5F5F5F5F5
310
F5F5F5F5F5F5F5F5F5F5F5F5F5F5F5F5F5F5F5F5F5F5F5E2F5F5F5F5F5F5F5F5F5F5F5F5F5F5F5F5E2F5F5F5F5E2E2F5F5F5F5E2F5F5F5F5F5F5F5F5F5F5F5F5F5F5F5F5E2F5F5F5F5F5F5F5F5F5F5F5F5F5F5F5F5F5F5F5F5F5F5F5F5F5F5F5F5F5F5F5F5F5F5F5F5F5F5F5F5F5F5F5F5F5F5F5F5F5F5F5F5F5F5F5F5F5F5
310
F5F5F5F5F5F5F5F5F5F5F5F5F5F5F5F5F5F5F5F5F5F5F5F5F5F5F5F5F5F5F5F5F5F5F5F5F5F5F5F5F5F5F5F5F5F5F5F5F5F5F5F5F5F5F5F5F5F5F5F5F5F5F5F5F5F5F5F5F5F5F5F5F5F5F5F5E2F5F5F5F5F5F5F5F5F5F5F5F5F5F5F5F5E2F5F5F5F5E2E2F5F5F5F5E2F5F5F5F5F5F5F5F5F5F5F5F5F5F5F5F5E2F5F5F5F5F5
310
F5F5F5F5F5F5F5F5F5F5F5F5F5F5F5F5F5F5F5F5F5F5F5F5F5F5F5F5F5F5F5F5F5F5F5F5F5F5F5F5F5F5F5F5F5F5F5F5F5F5F5F5F5F5F5F5F5F5F5F5F5F5F5F5F5F5F5F5F5F5F5F5F5F5F5F5F5F5F5F5F5F5F5F5F5F5F5F5F5F5F5F5F5F5F5F5F5F5F5F5F5F5F5F5F5F5F5F5F5F5F5F5F5F5F5F5F5F5F5F5F5F5F5F5F5F5F5
310
F5F5E2F5F5F5F5F5F5F5F5F5F5F5F5F5F5F5F5E2F5F5F5F5E2E2F5F5F5F5E2F5F5F5F5F5F5F5F5F5F5F5F5F5F5F5F5E2F5F5F5F5F5F5F5F5F5F5F5F5F5F5F5F5F5F5F5F5F5F5F5F5F5F5F5F5F5F5F5F5F5F5F5F5F5F5F5F5F5F5F5F5F5F5F5F5F5F5F5F5F5F5F5F5F5F5F5F5F5F5F5F5F5F5F5F5F5F5F5F5F5F5F5F5F5F5F5
310
F5F5F5F5F5F5F5F5F5F5F5F5F5F5F5F5F5F5F5F5F5F5F5F5F5F5F5F5F5F5F5F5F5F5F5F5F5F5F5F5F5F5F5F5F5F5F5F5F5F5F5F5F5F5F5E2F5F5F5F5F5F5F5F5F5F5F5F5F5F5F5F5E2F5F5F5F5E2E2F5F5F5F5E2F5F5F5F5F5F5F5F5F5F5F5F5F5F5F5F5E2F5F5F5F5F5F5F5F5F5F5F5F5F5F5F5F5F5F5F5F5F5F5F5F5F5F5
310
F5F5F5F5F5F5F5F5F5F5F5F5F5F5F5F5F5F5F5F5F5F5F5F5F5F5F5F5F5F5F5F5F5F5F5F5F5F5F5F5F5F5F5F5F5F5F5F5F5F5F5F5F5F5F5F5F5F5F5F5F5F5F5F5F5F5F5F5F5F5F5F5F5F5F5F5F5F5F5F5F5F5F5F5F5F5F5F5F5F5F5F5F5F5F5F5F5F5F5F5F5F5F5F5F5F5F5F5E2F5F5F5F5F5F5F5F5F5F5F5F5F5F5F5F5E2F5
310
F5F5F5E2E2F5F5F5F5E2F5F5F5F5F5F5F5F5F5F5F5F5F5F5F5F5E2F5F5F5F5F5F5F5F5F5F5F5F5F5F5F5F5F5F5F5F5F5F5F5F5F5F5F5F5F5F5F5F5F5F5F5F5F5F5F5F5F5F5F5F5F5F5F5F5F5F5F5F5F5F5F5F5F5F5F5F5F5F5F5F5F5F5F5F5F5F5F5F5F5F5F5F5F5F5F5F5F5F5F5F5F5F5F5F5F5F5F5F5F5F5F5F5F5F5F5F5
310
F5F5F5F5F5F5F5F5F5F5F5F5F5F5F5F5F5F5F5F5F5F5F5F5F5F5F5F5F5F5F5F5F5F5E2F5F5F5F5F5F5F5F5F5F5F5F5F5F5F5F5E2F5F5F5F5E2E2F5F5F5F5E2F5F5F5F5F5F5F5F5F5F5F5F5F5F5F5F5E2F5F5F5F5F5F5F5F5F5F5F5F5F5F5F5F5F5F5F5F5F5F5F5F5F5F5F5F5F5F5F5F5F5F5F5F5F5F5F5F5F5F5F5F5F5F5F5
310
F5F5F5F5F5F5F5F5F5F5F5F5F5F5F5F5F5F5F5F5F5F5F5F5F5F5F5F5F5F5F5F5F5F5F5F5F5F5F5F5F5F5F5F5F5F5F5F5F5F5F5F5F5F5F5F5F5F5F5F5F5F5F5F5F5F5F5F5F5F5F5F5F5F5F5F5F5F5F5F5F5F5F5F5F5F5F5E2F5F5F5F5F5F5F5F5F5F5F5F5F5F5F5F5E2F5F5F5F5E2E2F5F5F5F5E2F5F5F5F5F5F5F5F5F5F5F5
310
F5F5F5F5F5E2F5F5F5F5F5F5F5F5F5F5F5F5F5F5F5F5F5F5F5F5F5F5F5F5F5F5F5F5F5F5F5F5F5F5F5F5F5F5F5F5F5F5F5F5F5F5F5F5F5F5F5F5F5F5F5F5F5F5F5F5F5F5F5F5F5F5F5F5F5F5F5F5F5F5F5F5F5F5F5F5F5F5F5F5F5F5F5F5F5F5F5F5F5F5F5F5F5F5F5F5F5F5F5F5F5F5F5F5F5F5F5F5F5F5F5F5F5F5F5F5F5
310
F5F5F5F5F5F5F5F5F5F5F5F5F5E2F5F5F5F5F5F5F5F5F5F5F5F5F5F5F5F5E2F5F5F5F5E2E2F5F5F5F5E2F5F5F5F5F5F5F5F5F5F5F5F5F5F5F5F5E2F5F5F5F5F5F5F5F5F5F5F5F5F5F5F5F5F5F5F5F5F5F5F5F5F5F5F5F5F5F5F5F5F5F5F5F5F5F5F5F5F5F5F5F5F5F5F5F5F5F5F5F5F5F5F5F5F5F5F5F5F5F5F5F5F5F5F5F5
310
F5F5F5F5F5F5F5F5F5F5F5F5F5F5F5F5F5F5F5F5F5F5F5F5F5F5F5F5F5F5F5F5F5F5F5F5F5F5F5F5F5F5F5F5F5F5F5F5F5F5F5F5F5F5F5F5F5F5F5F5F5F5F5F5F5F5E2F5F5F5F5F5F5F5F5F5F5F5F5F5F5F5F5E2F5F5F5F5E2E2F5F5F5F5E2F5F5F5F5F5F5F5F5F5F5F5F5F5F5F5F5E2F5F5F5F5F5F5F5F5F5F5F5F5F5F5F5
310
F5F5F5F5F5F5F5F5F5F5F5F5F5F5F5F5F5F5F5F5F5F5F5F5F5F5F5F5F5F5F5F5F5F5F5F5F5F5F5F5F5F5F5F5F5F5F5F5F5F5F5F5F5F5F5F5F5F5F5F5F5F5F5F5F5F5F5F5F5F5F5F5F5F5F5F5F5F5F5F5F5F5F5F5F5F5F5F5F5F5F5F5F5F5F5F5F5F5F5F5F5F5F5F5F5F5F5F5F5F5F5F5F5F5F5F5F5F5F5E2F5F5F5F5F5F5F5
310
F5F5F5F5F5F5F5F5F5E2F5F5F5F5E2E2F5F5F5F5E2F5F5F5F5F5F5F5F5F5F5F5F5F5F5F5F5E2F5F5F5F5F5F5F5F5F5F5F5F5F5F5F5F5F5F5F5F5F5F5F5F5F5F5F5F5F5F5F5F5F5F5F5F5F5F5F5F5F5F5F5F5F5F5F5F5F5F5F5F5F5F5F5F5F5F5F5F5F5F5F5F5F5F5F5F5F5F5F5F5F5F5F5F5F5F5F5F5F5F5F5F5F5F5F5F5F5
310
F5F5F5F5F5F5F5F5F5F5F5F5F5F5F5F5F5F5F5F5F5F5F5F5F5F5F5F5F5F5F5F5F5F5F5F5F5F5F5F5F5F5F5F5F5E2F5F5F5F5F5F5F5F5F5F5F5F5F5F5F5F5E2F5F5F5F5E2E2F5F5F5F5E2F5F5F5F5F5F5F5F5F5F5F5F5F5F5F5F5E2F5F5F5F5F5F5F5F5F5F5F5F5F5F5F5F5F5F5F5F5F5F5F5F5F5F5F5F5F5F5F5F5F5F5F5F5
310
F5F5F5F5F5F5F5F5F5F5F5F5F5F5F5F5F5F5F5F5F5F5F5F5F5F5F5F5F5F5F5F5F5F5F5F5F5F5F5F5F5F5F5F5F5F5F5F5F5F5F5F5F5F5F5F5F5F5F5F5F5F5F5F5F5F5F5F5F5F5F5F5F5F5F5F5F5F5F5F5F5F5F5F5F5F5F5F5F5F5F5F5F5F5F5F5F5F5E2F5F5F5F5F5F5F5F5F5F5F5F5F5F5F5F5E2F5F5F5F5E2E2F5F5F5F5E2
310
F5F5F5F5F5F5F5F5F5F5F5F5F5F5F5F5E2F5F5F5F5F5F5F5F5F5F5F5F5F5F5F5F5F5F5F5F5F5F5F5F5F5F5F5F5F5F5F5F5F5F5F5F5F5F5F5F5F5F5F5F5F5F5F5F5F5F5F5F5F5F5F5F5F5F5F5F5F5F5F5F5F5F5F5F5F5F5F5F5F5F5F5F5F5F5F5F5F5F5F5F5F5F5F5F5F5F5F5F5F5F5F5F5F5F5F5F5F5F5F5F5F5F5F5F5F5F5
310
F5F5F5F5F5F5F5F5F5F5F5F5F5F5F5F5F5F5F5F5F5F5F5F5E2F5F5F5F5F5F5F5F5F5F5F5F5F5F5F5F5E2F5F5F5F5E2E2F5F5F5F5E2F5F5F5F5F5F5F5F5F5F5F5F5F5F5F5F5E2F5F5F5F5F5F5F5F5F5F5F5F5F5F5F5F5F5F5F5F5F5F5F5F5F5F5F5F5F5F5F5F5F5F5F5F5F5F5F5F5F5F5F5F5F5F5F5F5F5F5F5F5F5F5F5F5F5
310
F5F5F5F5F5F5F5F5F5F5F5F5F5F5F5F5F5F5F5F5F5F5F5F5F5F5F5F5F5F5F5F5F5F5F5F5F5F5F5F5F5F5F5F5F5F5F5F5F5F5F5F5F5F5F5F5F5F5F5F5F5F5F5F5F5F5F5F5F5F5F5F5F5F5F5F5F5E2F5F5F5F5F5F5F5F5F5F5F5F5F5F5F5F5E2F5F5F5F5E2E2F5F5F5F5E2F5F5F5F5F5F5F5F5F5F5F5F5F5F5F5F5E2F5F5F5F5
310
F5F5F5F5F5F5F5F5F5F5F5F5F5F5F5F5F5F5F5F5F5F5F5F5F5F5F5F5F5F5F5F5F5F5F5F5F5F5F5F5F5F5F5F5F5F5F5F5F5F5F5F5F5F5F5F5F5F5F5F5F5F5F5F5F5F5F5F5F5F5F5F5F5F5F5F5F5F5F5F5F5F5F5F5F5F5F5F5F5F5F5F5F5F5F5F5F5F5F5F5F5F5F5F5F5F5F5F5F5F5F5F5F5F5F5F5F5F5F5F5F5F5F5F5F5F5F5
310
F5F5F5E2F5F5F5F5F5F5F5F5F5F5F5F5F5F5F5F5E2F5F5F5F5E2E2F5F5F5F5F5F5F5F5F5F5F5F5F5F5F5F5F5F5F5F5F5E2F5F5F5F5F5F5F5F5F5F5F5F5F5F5F5F5F5F5F5F5F5F5F5F5F5F5F5F5F5F5F5F5F5F5F5F5F5F5F5F5F5F5F5F5F5F5F5F5F5F5F5F5F5F5F5F5F5F5F5F5F5F5F5F5F5F5F5F5F5F5F5F5F5F5F5F5F5F5
310
F5F5F5F5F5F5F5F5F5F5F5F5F5F5F5F5F5F5F5F5F5F5F5F5F5F5F5F5F5F5F5F5F5F5F5F5F5F5F5F5F5F5F5F5F5F5F5F5F5F5F5F5F5F5F5F5E2F5F5F5F5F5F5F5F5F5F5F5F5F5F5F5F5F5F5F5F5F5E2E2F5F5F5F5F5F5F5F5F5F5F5F5F5F5F5F5F5F5F5F5F5E2F5F5F5F5F5F5F5F5F5F5F5F5F5F5F5F5F5F5F5F5F5F5F5F5F5
310
F5F5F5F5F5F5F5F5F5F5F5F5F5F5F5F5F5F5F5F5F5F5F5F5F5F5F5F5F5F5F5F5F5F5F5F5F5F5F5F5F5F5F5F5F5F5F5F5F5F5F5F5F5F5F5F5F5F5F5F5F5F5F5F5F5F5F5F5F5F5F5F5F5F5F5F5F5F5F5F5F5F5F5F5F5F5F5F5F5F5F5F5F5F5F5F5F5F5F5F5F5F5F5F5F5F5F5F5F5E2F5F5F5F5F5F5F5F5F5F5F5F5F5F5F5F5F5
310
F5F5F5F5E2E2F5F5F5F5F5F5F5F5F5F5F5F5F5F5F5F5F5F5F5F5F5E2F5F5F5F5F5F5F5F5F5F5F5F5F5F5F5F5F5F5F5F5F5F5F5F5F5F5F5F5F5F5F5F5F5F5F5F5F5F5F5F5F5F5F5F5F5F5F5F5F5F5F5F5F5F5F5F5F5F5F5F5F5F5F5F5F5F5F5F5F5F5F5F5F5F5F5F5F5F5F5F5F5F5F5F5F5F5F5F5F5F5F5F5F5F5F5F5F5F5F5
310
F5F5F5F5F5F5F5F5F5F5F5F5F5F5F5F5F5F5F5F5F5F5F5F5F5F5F5F5F5F5F5F5F5F5F5E2F5F5F5F5F5F5F5F5F5F5F5F5F5F5F5F5F5F5F5F5F5E2E2F5F5F5F5F5F5F5F5F5F5F5F5F5F5F5F5F5F5F5F5F5E2F5F5F5F5F5F5F5F5F5F5F5F5F5F5F5F5F5F5F5F5F5F5F5F5F5F5F5F5F5F5F5F5F5F5F5F5F5F5F5F5F5F5F5F5F5F5
310
F5F5F5F5F5F5F5F5F5F5F5F5F5F5F5F5F5F5F5F5F5F5F5F5F5F5F5F5F5F5F5F5F5F5F5F5F5F5F5F5F5F5F5F5F5F5F5F5F5F5F5F5F5F5F5F5F5F5F5F5F5F5F5F5F5F5F5F5F5F5F5F5F5F5F5F5F5F5F5F5F5F5F5F5F5F5F5F5E2F5F5F5F5F5F5F5F5F5F5F5F5F5F5F5F5F5F5F5F5F5E2E2F5F5F5F5F5F5F5F5F5F5F5F5F5F5F5
310
F5F5F5F5F5F5E2E2E2E2E2E2E2E2E2E2E2E2E2E2E2E2E2E2E2E2E2E2E2E2E2E2E2E2E2E2E2E2E2E2E2E2E2E2E2E2E2E2E2E2E2E2E2E2E2E2E2E2E2E2E2E2E2E2E2E2E2E2E2E2E2E2E2E2E2E2E2E2E2E2E2E2E2E2E2E2E2E2E2E2E2E2E2E2E2E2E2E2E2E2E2E2E2E2E2E2E2E2E2E2E2E2E2E2E2E2E2E2E2E2E2E2E2E2E2E2E2
310
E2E2E2E2E2E2E2E2E2E2E2E2E2E2E2F5F5F5F5F5F5F5F5F5F5F5F5F5F5F5F5F5F5F5F5F5E2E2F5F5F5F5F5F5F5F5F5F5F5F5F5F5F5F5F5F5F5F5F5F5F5F5F5F5F5F5F5F5F5F5F5F5F5F5F5F5F5F5F5F5F5F5F5F5F5F5F5F5F5F5F5F5F5F5F5F5F5F5F5F5F5F5F5F5F5F5F5F5F5F5F5F5F5F5F5F5F5F5F5F5F5F5F5F5F5F5F5
310
F5F5F5F5F5F5F5F5F5F5F5F5F5F5F5F5F5F5F5F5F5F5F5F5F5F5F5F5F5F5F5F5F5F5F5F5F5F5F5F5F5F5F5F5F5F5F5F5F5F5F5F5F5F5F5F5F5F5F5F5F5F5F5F5F5F5F5F5F5F5F5F5F5F5F5F5F5F5F5F5F5F5F5F5F5F5F5F5F5E2E2F5F5F5F5F5F5F5F5F5F5F5F5F5F5F5F5F5F5F5F5F5F5F5F5F5F5F5F5F5F5F5F5F5F5F5F5
310
F5F5F5F5F5F5F5F5F5F5F5F5F5F5F5F5F5F5F5F5F5F5F5F5F5F5F5F5F5F5F5F5F5F5F5F5F5F5F5F5F5F5F5F5F5F5F5F5F5F5F5F5F5F5F5F5F5F5F5F5F5F5F5F5F5F5F5F5F5F5F5F5F5F5F5F5F5F5F5F5F5F5F5F5F5F5F5F5F5F5F5F5F5F5F5F5F5F5F5F5F5F5F5F5F5F5F5F5F5F5F5F5F5F5F5F5F5F5F5F5F5F5F5F5F5F5F5
310
F5F5F5F5F5F5F5F5F5F5F5F5F5F5F5E2E2F5F5F5F5F5F5F5F5F5F5F5F5F5F5F5F5F5F5F5F5F5F5F5F5F5F5F5F5F5F5F5F5F5F5F5F5F5F5F5F5F5F5F5F5F5F5F5F5F5F5F5F5F5F5F5F5F5F5F5F5F5F5F5F5F5F5F5F5F5F5F5F5F5F5F5F5F5F5F5F5F5F5F5F5F5F5F5F5F5F5F5F5F5F5F5F5F5F5F5F5F5F5F5F5F5F5F5F5F5F5
310
F5F5F5F5F5F5F5F5F5F5F5F5F5F5F5F5F5F5F5F5F5F5F5F5F5F5F5F5F5F5F5F5F5F5F5F5F5F5F5F5F5F5F5F5F5F5F5F5F5F5F5F5F5F5F5F5F5F5F5F5F5F5F5F5F5F5F5F5E2E2F5F5F5F5F5F5F5F5F5F5F5F5F5F5F5F5F5F5F5F5F5F5F5F5F5F5F5F5F5F5F5F5F5F5F5F5F5F5F5F5F5F5F5F5F5F5F5F5F5F5F5F5F5F5F5F5F5
310
F5F5F5F5F5F5F5F5F5F5F5F5F5F5F5F5F5F5F5F5F5F5F5F5F5F5F5F5F5F5F5F5F5F5F5F5F5F5F5F5F5F5F5F5F5F5F5F5F5F5F5F5F5F5F5F5F5F5F5F5F5F5F5F5F5F5F5F5F5F5F5F5F5F5F5F5F5F5F5F5F5F5F5F5F5F5F5F5F5F5F5F5F5F5F5F5F5F5F5F5F5F5F5F5F5F5F5F5F5F5F5F5F5F5F5F5F5F5F5F5F5E2E2F5F5F5F5
310
E2F5F5F5F5F5F5F5F5F5F5F5F5F5F5F5F5F5F5F5F5F5F5F5F5F5F5F5F5F5F5F5F5F5F5F5F5F5F5F5F5F5F5F5F5F5F5F5F5F5F5F5F5F5F5F5F5F5F5F5F5F5F5F5F5F5F5F5F5F5F5F5F5F5F5F5F5F5F5F5F5F5F5F5F5F5F5F5F5F5F5F5F5F5F5F5F5F5F5F5F5F5F5F5F5F5F5F5F5F5F5F5F5F5F5F5F5F5F5F5F5F5F5F5F5F5F5
310
F5F5F5F5F5F5F5F5F5F5F5F5F5F5F5F5F5F5F5F5F5F5F5F5F5F5F5F5F5F5F5F5F5F5F5F5F5F5F5F5F5F5E2F5F5F5F5E2E2F5F5F5F5E2F5F5F5F5F5F5F5F5F5F5F5F5F5F5F5F5F5F5F5F5F5F5F5F5F5F5F5F5F5F5F5F5F5F5F5F5F5F5F5F5F5F5F5F5F5F5F5F5F5F5F5F5F5F5F5F5F5F5F5F5F5F5F5F5F5F5F5F5F5F5F5F5F5
310
F5F5F5F5F5F5F5F5F5F5F5F5F5F5F5F5F5F5F5F5F5F5F5F5F5F5F5F5F5F5F5F5F5F5F5F5F5F5F5F5F5F5F5F5F5F5F5F5F5F5F5F5F5F5F5F5F5F5F5F5F5F5F5F5F5F5F5F5F5F5F5F5F5F5F5F5F5F5F5F5F5F5F5F5F5F5F5F5F5F5F5F5F5F5F5E2F5F5F5F5E2E2F5F5F5F5E2F5F5F5F5F5F5F5F5F5F5F5F5F5F5F5F5F5F5F5F5
310
F5F5F5F5F5F5F5F5F5F5F5F5F5F5F5F5F5F5F5F5F5F5F5F5F5F5F5F5F5F5F5F5F5F5F5F5F5F5F5F5F5F5F5F5F5F5F5F5F5F5F5F5F5F5F5F5F5F5F5F5F5F5F5F5F5F5F5F5F5F5F5F5F5F5F5F5F5F5F5F5F5F5F5F5F5F5F5F5F5F5F5F5F5F5F5F5F5F5F5F5F5F5F5F5F5F5F5F5F5F5F5F5F5F5F5F5F5F5F5F5F5F5F5F5F5F5F5
310
F5F5F5F5F5F5F5F5F5F5F5F5F5F5F5F5F5F5F5F5F5E2F5F5F5F5E2E2F5F5F5F5E2F5F5F5F5F5F5F5F5F5F5F5F5F5F5F5F5F5F5F5F5F5F5F5F5F5F5F5F5F5F5F5F5F5F5F5F5F5F5F5F5F5F5F5F5F5F5F5F5F5F5F5F5F5F5F5F5F5F5F5F5F5F5F5F5F5F5F5F5F5F5F5F5F5F5F5F5F5F5F5F5F5F5F5F5F5F5F5F5F5F5F5F5F5F5
310
F5F5F5F5F5F5F5F5F5F5F5F5F5F5F5F5F5F5F5F5F5F5F5F5F5F5F5F5F5F5F5F5F5F5F5F5F5F5F5F5F5F5F5F5F5F5F5F5F5F5F5F5F5F5F5F5F5F5F5F5F5F5F5F5F5F5F5F5F5F5F5F5F5F5E2F5F5F5F5E2E2F5F5F5F5E2F5F5F5F5F5F5F5F5F5F5F5F5F5F5F5F5F5F5F5F5F5F5F5F5F5F5F5F5F5F5F5F5F5F5F5F5F5F5F5F5F5
310
F5F5F5F5F5F5F5F5F5F5F5F5F5F5F5F5F5F5F5F5F5F5F5F5F5F5F5F5F5F5F5F5F5F5F5F5F5F5F5F5F5F5F5F5F5F5F5F5F5F5F5F5F5F5F5F5F5F5F5F5F5F5F5F5F5F5F5F5F5F5F5F5F5F5F5F5F5F5F5F5F5F5F5F5F5F5F5F5F5F5F5F5F5F5F5F5F5F5F5F5F5F5F5F5F5F5F5F5F5F5F5F5F5F5F5F5F5F5F5F5F5F5F5F5F5F5F5
310
E2F5F5F5F5E2E2F5F5F5F5E2F5F5F5F5F5F5F5F5F5F5F5F5F5F5F5F5F5F5F5F5F5F5F5F5F5F5F5F5F5F5F5F5F5F5F5F5F5F5F5F5F5F5F5F5F5F5F5F5F5F5F5F5F5F5F5F5F5F5F5F5F5F5F5F5F5F5F5F5F5F5F5F5F5F5F5F5F5F5F5F5F5F5F5F5F5F5F5F5F5F5F5F5F5F5F5F5F5F5F5F5F5F5F5F5F5F5F5F5F5F5F5F5F5F5F5
310
F5F5F5F5F5F5F5F5F5F5F5F5F5F5F5F5F5F5F5F5F5F5F5F5F5F5F5F5F5F5F5F5F5F5F5F5F5F5F5F5F5F5F5F5F5F5F5F5F5F5F5F5F5E2F5F5F5F5E2E2F5F5F5F5E2F5F5F5F5F5F5F5F5F5F5F5F5F5F5F5F5F5F5F5F5F5F5F5F5F5F5F5F5F5F5F5F5F5F5F5F5F5F5F5F5F5F5F5F5F5F5F5F5F5F5F5F5F5F5F5F5F5F5F5F5F5F5
310
F5F5F5F5F5F5F5F5F5F5F5F5F5F5F5F5F5F5F5F5F5F5F5F5F5F5F5F5F5F5F5F5F5F5F5F5F5F5F5F5F5F5F5F5F5F5F5F5F5F5F5F5F5F5F5F5F5F5F5F5F5F5F5F5F5F5F5F5F5F5F5F5F5F5F5F5F5F5F5F5F5F5F5F5F5F5F5F5F5F5F5F5F5F5F5F5F5F5F5F5F5F5F5F5F5F5E2F5F5F5F5E2E2F5F5F5F5E2F5F5F5F5F5F5F5F5F5
310
F5F5F5F5F5F5F5F5F5F5F5F5F5F5F5F5F5F5F5F5F5F5F5F5F5F5F5F5F5F5F5F5F5F5F5F5F5F5F5F5F5F5F5F5F5F5F5F5F5F5F5F5F5F5F5F5F5F5F5F5F5F5F5F5F5F5F5F5F5F5F5F5F5F5F5F5F5F5F5F5F5F5F5F5F5F5F5F5F5F5F5F5F5F5F5F5F5F5F5F5F5F5F5F5F5F5F5F5F5F5F5F5F5F5F5F5F5F5F5F5F5F5F5F5F5F5F5
310
F5F5F5F5F5F5F5F5F5F5F5F5F5F5F5F5F5F5F5F5F5F5F5F5F5F5F5F5F5F5F5F5E2F5F5F5F5E2E2F5F5F5F5E2E2E2E2E2E2E2E2F5F5F5F5F5F5F5F5F5E2E2E2E2E2E2E2E2E2E2E2E2E2E2E2F5F5F5F5F5F5F5F5F5E2E2E2E2E2E2E2E2E2E2E2E2E2E2E2E2F5F5F5F5F5F5F5F5E2E2E2E2E2E2E2E2E2E2E2E2E2E2E2E2F5F5F5
310
F5F5F5F5F5E2E2E2E2E2E2E2E2E2E2E2E2E2E2E2E2F5F5F5F5F5F5F5F5E2E2E2E2E2E2E2E2E2E2E2E2E2E2E2E2F5F5F5F5F5F5F5F5F5E2E2E2E2E2E2E2E2E2E2E2E2E2E2E2F5F5F5F5F5F5F5F5F5E2E2E2E2E2E2E2E2F5F5F5F5E2E2F5F5F5F5F5F5F5F5F5F5F5F5F5F5F5F5F5F5F5F5F5F5F5F5F5F5F5F5F5F5F5F5F5F5F5
310
F5F5F5F5F5F5F5F5F5F5F5F5F5F5F5F5F5F5F5F5F5F5F5F5F5F5F5F5F5F5F5F5F5F5F5F5F5F5F5F5F5F5F5F5F5F5F5F5F5F5F5F5F5F5F5F5F5F5F5F5F5F5F5F5F5F5F5F5F5F5F5F5F5F5F5F5F5F5F5F5F5F5F5F5F5F5F5F5F5F5F5F5F5F5F5F5F5F5F5F5F5F5F5F5F5F5F5F5F5F5F5F5F5F5F5F5F5F5F5F5F5F5F5F5F5F5F5
310
F5F5F5F5F5F5F5F5F5F5F5F5F5F5F5F5E2E2F5F5F5F5F5F5F5F5F5F5F5F5F5F5F5F5F5F5F5F5F5F5F5F5F5F5F5F5F5F5F5F5F5F5F5F5F5F5F5F5F5F5F5F5F5F5F5F5F5F5F5F5F5F5F5F5F5F5F5F5F5F5F5F5F5F5F5F5F5F5F5F5F5F5F5F5F5F5F5F5F5F5F5F5F5F5F5F5F5F5F5F5F5F5F5F5F5F5F5F5F5F5F5F5F5F5F5F5F5
310
F5F5F5F5F5F5F5F5F5F5F5F5F5F5F5F5F5F5F5F5F5F5F5F5F5F5F5F5F5F5F5F5F5F5F5F5F5F5F5F5F5F5F5F5F5F5F5F5F5F5F5F5F5F5F5F5F5F5F5F5F5F5F5F5F5F5F5F5F5E2E2F5F5F5F5F5F5F5F5F5F5F5F5F5F5F5F5F5F5F5F5F5F5F5F5F5F5F5F5F5F5F5F5F5F5F5F5F5F5F5F5F5F5F5F5F5F5F5F5F5F5F5F5F5F5F5F5
310
F5F5F5F5F5F5F5F5F5F5F5F5F5F5F5F5F5F5F5F5F5F5F5F5F5F5F5F5F5F5F5F5F5F5F5F5F5F5F5F5F5F5F5F5F5F5F5F5F5F5F5F5F5F5F5F5F5F5F5F5F5F5F5F5F5F5F5F5F5F5F5F5F5F5F5F5F5F5F5F5F5F5F5F5F5F5F5F5F5F5F5F5F5F5F5F5F5F5F5F5F5F5F5F5F5F5F5F5F5F5F5F5F5F5F5F5F5F5F5F5F5F5E2E2E2E2E2
310
E2E2E2E2E2E2E2E2E2E2E2E2E2E2E2E2E2E2E2E2E2E2E2E2E2E2E2E2E2E2E2E2E2E2E2E2E2E2E2E2E2E2E2E2E2E2E2E2E2E2E2E2E2E2E2E2E2E2E2E2E2E2E2E2E2E2E2E2E2E2E2E2E2E2E2E2E2E2E2E2E2E2E2E2E2E2E2E2E2E2E2E2E2E2E2E2E2E2E2E2E2E2E2E2E2E2E2E2E2E2E2E2E2E2E2E2E2E2E2E2E2E2E2E2E2E2E2
310
E2E2E2E2E2E2E2E2E2E2E2E2E2E2E2E2E2E2E2E2E2E2E2E2E2E2E2E2E2E2E2E2E2E2E2E2E2E2E2E2E2E2E2E2E2E2E2E2E2
  0
XRECORD
  5
5686C
102
{ACAD_REACTORS
330
B5
102
}
330
B5
100
AcDbXrecord
280
     1
102
SHADEPLOT
 70
     0
102
SHADEPLOTRESLEVEL
 70
     2
102
SHADEPLOTCUSTOMDPI
 70
   300
  0
XRECORD
  5
B6
102
{ACAD_REACTORS
330
B5
102
}
330
B5
100
AcDbXrecord
280
     1
310
28000000B40000008B0000000100080000000000BC610000000000000000000000010000000000000000000000000000FFFFFF000000000000000000000000000000000000000000000000000000000000000000330000006600000099000000CC000000FF00000000330000333300006633000099330000CC330000FF3300
310
0000660000336600006666000099660000CC660000FF66000000990000339900006699000099990000CC990000FF99000000CC000033CC000066CC000099CC0000CCCC0000FFCC000000FF000033FF000066FF000099FF0000CCFF0000FFFF000000003300330033006600330099003300CC003300FF003300003333003333
310
33006633330099333300CC333300FF33330000663300336633006666330099663300CC663300FF66330000993300339933006699330099993300CC993300FF99330000CC330033CC330066CC330099CC3300CCCC3300FFCC330000FF330033FF330066FF330099FF3300CCFF3300FFFF330000006600330066006600660099
310
006600CC006600FF00660000336600333366006633660099336600CC336600FF33660000666600336666006666660099666600CC666600FF66660000996600339966006699660099996600CC996600FF99660000CC660033CC660066CC660099CC6600CCCC6600FFCC660000FF660033FF660066FF660099FF6600CCFF6600
310
FFFF660000009900330099006600990099009900CC009900FF00990000339900333399006633990099339900CC339900FF33990000669900336699006666990099669900CC669900FF66990000999900339999006699990099999900CC999900FF99990000CC990033CC990066CC990099CC9900CCCC9900FFCC990000FF99
310
0033FF990066FF990099FF9900CCFF9900FFFF99000000CC003300CC006600CC009900CC00CC00CC00FF00CC000033CC003333CC006633CC009933CC00CC33CC00FF33CC000066CC003366CC006666CC009966CC00CC66CC00FF66CC000099CC003399CC006699CC009999CC00CC99CC00FF99CC0000CCCC0033CCCC0066CC
310
CC0099CCCC00CCCCCC00FFCCCC0000FFCC0033FFCC0066FFCC0099FFCC00CCFFCC00FFFFCC000000FF003300FF006600FF009900FF00CC00FF00FF00FF000033FF003333FF006633FF009933FF00CC33FF00FF33FF000066FF003366FF006666FF009966FF00CC66FF00FF66FF000099FF003399FF006699FF009999FF00CC
310
99FF00FF99FF0000CCFF0033CCFF0066CCFF0099CCFF00CCCCFF00FFCCFF0000FFFF0033FFFF0066FFFF0099FFFF00CCFFFF00FFFFFF00000000000D0D0D001A1A1A00282828003535350043434300505050005D5D5D006B6B6B00787878008686860093939300A1A1A100AEAEAE00BBBBBB00C9C9C900D6D6D600E4E4E400
310
F1F1F100FFFFFF0000000000000000000000000000000000000000000000000000000000000000000000000000000000F5F5F5F5F5F5F5F5F5F5F5F5F5F5F5F5F5F5F5F5F5F5F5F5F5F5F5F5F5F5F5F5F5F5F5F5F5F5F5F5F5F5F5F5F5F5F5F5F5F5F5F5F5F5F5F5F5F5F5F5F5F5F5F5F5F5F5F5F5F5F5F5F5F5F5F5F5F5F5
310
F5F5F5F5F5F5F5F5F5F5F5F5F5F5F5F5F5F5F5F5F5F5F5F5F5F5F5F5F5F5F5F5F5F5F5F5F5F5F5F5F5F5F5F5F5F5F5F5F5F5F5F5F5F5F5F5F5F5F5F5F5F5F5F5F5F5F5F5F5F5F5F5F5F5F5F5F5F5F5F5F5F5F5F5F5F5F5F5F5F5F5F5F5F5F5F5F5F5F5F5F5F5E2E2E2E2E2E2E2E2E2E2E2E2E2E2E2E2E2E2E2E2E2E2E2E2E2
310
E2E2E2E2E2E2E2E2E2E2E2E2E2E2E2E2E2E2E2E2E2E2E2E2E2E2E2E2E2E2E2E2E2E2E2E2E2E2E2E2E2E2E2E2E2E2E2E2E2E2E2E2E2E2E2E2E2E2E2E2E2E2E2E2E2E2E2E2E2E2E2E2E2E2E2E2E2E2E2E2E2E2E2E2E2E2E2E2E2E2E2E2E2E2E2E2E2E2E2E2E2E2E2E2E2E2E2E2E2E2E2E2E2E2E2E2E2E2E2E2E2E2E2E2E2E2E2
310
E2E2E2E2E2E2E2E2E2E2E2E2E2E2E2E2E2E2E2E2E2E2E2E2E2E2F5F5E2E2E2E2E2E2E2E2E2E2E2E2E2E2E2E2E2E2E2E2E2E2E2E2E2E2E2E2E2E2E2E2E2E2E2E2E2E2E2E2E2E2E2E2E2E2E2E2E2E2E2E2E2E2E2E2E2E2E2E2E2E2E2E2E2E2E2E2E2E2E2E2E2E2E2E2E2E2E2E2E2E2E2E2E2E2E2E2E2E2E2E2E2E2E2E2E2E2E2
310
E2E2E2E2E2E2E2E2E2E2E2E2E2E2E2E2E2E2E2E2E2E2E2E2E2E2E2E2E2E2E2E2E2E2E2E2E2E2E2E2E2E2E2E2E2E2E2E2E2E2E2E2E2E2E2E2E2E2E2E2E2E2E2E2E2E2E2E2E2E2E2E2E2E2E2E2E2E2E2F5F5E2E2E2E2E2E2E2E2E2E2E2E2E2E2E2E2E2E2E2E2E2E2E2E2E2E2E2E2E2E2E2E2E2E2E2E2E2E2E2E2E2E2E2E2E2E2
310
E2E2E2E2E2E2E2E2E2E2E2E2E2E2E2E2E2E2E2E2E2E2E2E2E2E2E2E2E2E2E2E2E2E2E2E2E2E2E2E2E2E2E2E2E2E2E2E2E2E2E2E2E2E2E2E2E2E2E2E2E2E2E2E2E2E2E2E2E2E2E2E2E2E2E2E2E2E2E2E2E2E2E2E2E2E2E2E2E2E2E2E2E2E2E2E2E2E2E2E2E2E2E2E2E2E2E2E2E2E2E2E2E2E2E2E2E2E2E2E2E2E2E2E2E2E2E2
310
E2E2E2E2E2F5F5E2E2E2E2E2E2E2E2E2E2E2E2E2E2E2E2E2E2E2E2E2E2E2E2E2E2E2E2E2E2E2E2E2E2E2E2E2E2E2E2E2E2E2E2E2E2E2E2E2E2E2E2E2E2E2E2E2E2E2E2E2E2E2E2E2E2E2E2E2E2E2E2E2E2E2E2E2E2E2E2E2E2E2E2E2E2E2E2E2E2E2E2E2E2E2E2E2E2E2E2E2E2E2E2E2E2E2E2E2E2E2E2E2E2E2E2E2E2E2E2
310
E2E2E2E2E2E2E2E2E2E2E2E2E2E2E2E2E2E2E2E2E2E2E2E2E2E2E2E2E2E2E2E2E2E2E2E2E2E2E2E2E2E2E2E2E2E2E2E2E2E2E2E2E2E2E2E2E2E2F5F5E2E2E2F5F5F5F5F5F5F5F5E2E2E2E2E2E2E2E2E2F5F5F5F5F5F5F5F5F5F5F5F5F5F5F5F5E2E2E2E2E2E2E2E2E2F5F5F5F5F5F5F5F5F5F5F5F5F5F5F5E2E2E2E2E2E2E2
310
E2E2F5F5F5F5F5F5F5F5F5F5F5F5F5F5F5F5E2E2E2E2E2E2E2E2F5F5F5F5F5F5F5F5F5F5F5F5F5F5F5F5E2E2E2E2E2E2E2E2E2F5F5F5F5F5F5F5F5F5F5F5F5F5F5F5E2E2E2E2E2E2E2E2E2F5F5F5F5F5F5F5F5F5F5F5F5F5F5F5F5E2E2E2E2E2E2E2E2E2F5F5F5F5F5F5F5F5E2E2E2F5F5E2E2E2F5E2E2E2E2E2E2E2E2E2E2
310
E2E2E2E2E2E2E2E2E2E2E2E2E2E2E2E2E2E2E2E2E2E2E2E2E2E2E2E2E2E2E2E2E2E2E2E2E2E2E2E2E2E2E2E2E2E2E2E2E2E2E2E2E2E2E2E2E2E2E2E2E2E2E2E2E2E2E2E2E2E2E2E2E2E2E2E2E2E2E2E2E2E2E2E2E2E2E2E2E2E2E2E2E2E2E2E2E2E2E2E2E2E2E2E2E2E2E2E2E2E2E2E2E2E2E2E2E2E2E2E2E2E2E2E2E2E2E2
310
E2E2E2E2E2E2E2E2E2E2E2E2E2E2E2E2E2E2E2E2E2E2E2E2E2E2E2E2E2E2E2E2E2F5E2E2E2F5F5E2E2E2F5E2E2E2E2E2E2E2E2E2E2E2E2E2E2E2E2E2E2E2E2E2E2E2E2E2E2E2E2E2E2E2E2E2E2E2E2E2E2E2E2E2E2E2E2E2E2E2E2E2E2E2E2E2E2E2E2E2E2E2E2E2E2E2E2E2E2E2E2E2E2E2E2E2E2E2E2E2E2E2E2E2E2E2E2
310
E2E2E2E2E2E2E2E2E2E2E2E2E2E2E2E2E2E2E2E2E2E2E2E2E2E2E2E2E2E2E2E2E2E2E2E2E2E2E2E2E2E2E2E2E2E2E2E2E2E2E2E2E2E2E2E2E2E2E2E2E2E2E2E2E2E2E2E2E2E2E2E2E2E2E2E2E2E2E2E2E2E2E2E2E2E2F5E2E2E2F5F5E2E2E2F5E2E2E2E2E2E2E2E2E2E2E2E2E2E2E2E2E2E2E2E2E2E2E2E2E2E2E2E2E2E2E2
310
E2E2E2E2E2E2E2E2E2E2E2E2E2E2E2E2E2E2E2E2E2E2E2E2E2E2E2E2E2E2E2E2E2E2E2E2E2E2E2E2E2E2E2E2E2E2E2E2E2E2E2E2E2E2E2E2E2E2E2E2E2E2E2E2E2E2E2E2E2E2E2E2E2E2E2E2E2E2E2E2E2E2E2E2E2E2E2E2E2E2E2E2E2E2E2E2E2E2E2E2E2E2E2E2E2E2E2E2E2E2E2E2E2E2E2E2E2E2E2E2E2E2E2E2E2E2E2
310
E2E2E2E2E2E2E2E2E2E2E2E2F5E2E2E2F5F5E2E2E2F5E2E2E2E2E2E2E2E2E2E2E2E2E2E2E2E2E2E2E2E2E2E2E2E2E2E2E2E2E2E2E2E2E2E2E2E2E2E2E2E2E2E2E2E2E2E2E2E2E2E2E2E2E2E2E2E2E2E2E2E2E2E2E2E2E2E2E2E2E2E2E2E2E2E2E2E2E2E2E2E2E2E2E2E2E2E2E2E2E2E2E2E2E2E2E2E2E2E2E2E2E2E2E2E2E2
310
E2E2E2E2E2E2E2E2E2E2E2E2E2E2E2E2E2E2E2E2E2E2E2E2E2E2E2E2E2E2E2E2E2E2E2E2E2E2E2E2E2E2E2E2E2E2E2E2E2E2E2E2E2E2E2E2E2E2E2E2E2E2E2E2E2F5E2E2E2F5F5E2E2E2F5E2E2E2E2E2E2E2E2E2E2E2E2E2E2E2E2E2E2E2E2E2E2E2E2E2E2E2E2E2E2E2E2E2E2E2E2E2E2E2E2E2E2E2E2E2E2E2E2E2E2E2E2
310
E2E2E2E2E2E2E2E2E2E2E2E2E2E2E2E2E2E2E2E2E2E2E2E2E2E2E2E2E2E2E2E2E2E2E2E2E2E2E2E2E2E2E2E2E2E2E2E2E2E2E2E2E2E2E2E2E2E2E2E2E2E2E2E2E2E2E2E2E2E2E2E2E2E2E2E2E2E2E2E2E2E2E2E2E2E2E2E2E2E2E2E2E2E2E2E2E2E2E2E2E2E2E2E2E2E2E2E2E2E2E2E2E2E2E2E2E2E2F5E2E2E2F5F5E2E2E2
310
F5E2E2E2E2E2E2E2E2E2E2E2E2E2E2E2E2E2E2E2E2E2E2E2E2E2E2E2E2E2E2E2E2E2E2E2E2E2E2E2E2E2E2E2E2E2E2E2E2E2E2E2E2E2E2E2E2E2E2E2E2E2E2E2E2E2E2E2E2E2E2E2E2E2E2E2E2E2E2E2E2E2E2E2E2E2E2E2E2E2E2E2E2E2E2E2E2E2E2E2E2E2E2E2E2E2E2E2E2E2E2E2E2E2E2E2E2E2E2E2E2E2E2E2E2E2E2
310
E2E2E2E2E2E2E2E2E2E2E2E2E2E2E2E2E2E2E2E2E2E2E2E2E2E2E2E2E2E2E2E2E2E2E2E2E2E2E2E2E2E2E2E2F5E2E2E2F5F5E2E2E2F5E2E2E2E2E2E2E2E2E2E2E2E2E2E2E2E2E2E2E2E2E2E2E2E2E2E2E2E2E2E2E2E2E2E2E2E2E2E2E2E2E2E2E2E2E2E2E2E2E2E2E2E2E2E2E2E2E2E2E2E2E2E2E2E2E2E2E2E2E2E2E2E2E2
310
E2E2E2E2E2E2E2E2E2E2E2E2E2E2E2E2E2E2E2E2E2E2E2E2E2E2E2E2E2E2E2E2E2E2E2E2E2E2E2E2E2E2E2E2E2E2E2E2E2E2E2E2E2E2E2E2E2E2E2E2E2E2E2E2E2E2E2E2E2E2E2E2E2E2E2E2E2E2E2E2E2E2E2E2E2E2E2E2E2E2E2E2E2E2E2E2E2F5E2E2E2F5F5E2E2E2F5E2E2E2E2E2E2E2E2E2E2E2E2E2E2E2E2E2E2E2E2
310
E2E2E2E2E2E2E2E2E2E2E2E2E2E2E2E2E2E2E2E2E2E2E2E2E2E2E2E2E2E2E2E2E2E2E2E2E2E2E2E2E2E2E2E2E2E2E2E2E2E2E2E2E2E2E2E2E2E2E2E2E2E2E2E2E2E2E2E2E2E2E2E2E2E2E2E2E2E2E2E2E2E2E2E2E2E2E2E2E2E2E2E2E2E2E2E2E2E2E2E2E2E2E2E2E2E2E2E2E2E2E2E2E2E2E2E2E2E2E2E2E2E2E2E2E2E2E2
310
E2E2E2E2E2E2E2E2E2E2E2E2E2E2E2E2E2E2E2E2E2E2E2F5E2E2E2F5F5E2E2E2E2E2E2E2E2E2E2E2E2E2E2E2E2E2E2E2E2E2E2E2E2E2E2E2E2E2E2E2E2E2E2E2E2E2E2E2E2E2E2E2E2E2E2E2E2E2E2E2E2E2E2E2E2E2E2E2E2E2E2E2E2E2E2E2E2E2E2E2E2E2E2E2E2E2E2E2E2E2E2E2E2E2E2E2E2E2E2E2E2E2E2E2E2E2E2
310
E2E2E2E2E2E2E2E2E2E2E2E2E2E2E2E2E2E2E2E2E2E2E2E2E2E2E2E2E2E2E2E2E2E2E2E2E2E2E2E2E2E2E2E2E2E2E2E2E2E2E2E2E2E2E2E2E2E2E2E2E2E2E2E2E2E2E2E2E2E2E2E2E2E2E2E2E2E2E2E2F5F5E2E2E2E2E2E2E2E2E2E2E2E2E2E2E2E2E2E2E2E2E2E2E2E2E2E2E2E2E2E2E2E2E2E2E2E2E2E2E2E2E2E2E2E2E2
310
E2E2E2E2E2E2E2E2E2E2E2E2E2E2E2E2E2E2E2E2E2E2E2E2E2E2E2E2E2E2E2E2E2E2E2E2E2E2E2E2E2E2E2E2E2E2E2E2E2E2E2E2E2E2E2E2E2E2E2E2E2E2E2E2E2E2E2E2E2E2E2E2E2E2E2E2E2E2E2E2E2E2E2E2E2E2E2E2E2E2E2E2E2E2E2E2E2E2E2E2E2E2E2E2E2E2E2E2E2E2E2E2E2E2E2E2E2E2E2E2E2E2E2E2E2E2E2
310
E2E2E2E2E2E2F5F5E2E2E2E2E2E2E2E2E2E2E2E2E2E2E2E2E2E2E2E2E2E2E2E2E2E2E2E2E2E2E2E2E2E2E2E2E2E2E2E2E2E2E2E2E2E2E2E2E2E2E2E2E2E2E2E2E2E2E2E2E2E2E2E2E2E2E2E2E2E2E2E2E2E2E2E2E2E2E2E2E2E2E2E2E2E2E2E2E2E2E2E2E2E2E2E2E2E2E2E2E2E2E2E2E2E2E2E2E2E2E2E2E2E2E2E2E2E2E2
310
E2E2E2E2E2E2E2E2E2E2E2E2E2E2E2E2E2E2E2E2E2E2E2E2E2E2E2E2E2E2E2E2E2E2E2E2E2E2E2E2E2E2E2E2E2E2E2E2E2E2E2E2E2E2E2E2E2E2E2F5F5E2E2E2E2E2E2E2E2E2E2E2E2E2E2E2E2E2E2E2E2E2E2E2E2E2E2E2E2E2E2E2E2E2E2E2E2E2E2E2E2E2E2E2E2E2E2E2E2E2E2E2E2E2E2E2E2E2E2E2E2E2E2E2E2E2E2
310
E2E2E2E2E2E2E2E2E2E2E2E2E2E2E2E2E2E2E2E2E2E2E2E2E2E2E2E2E2E2E2E2E2E2E2E2E2E2E2E2E2E2E2E2E2E2E2E2E2E2E2E2E2E2E2E2E2E2E2E2E2E2E2E2E2E2E2E2E2E2E2E2E2E2E2E2E2E2E2E2E2E2E2E2E2E2E2E2E2E2E2E2E2E2E2E2E2E2E2E2E2E2E2E2E2E2E2E2E2E2E2E2F5F5E2E2E2E2E2E2E2E2E2E2E2E2E2
310
E2E2E2E2E2E2E2F5F5F5F5F5F5F5F5F5F5F5F5F5F5F5F5F5F5F5F5F5F5F5F5F5F5F5F5F5F5F5F5F5F5F5F5F5F5F5F5F5F5F5F5F5F5F5F5F5F5F5F5F5F5F5F5F5F5F5F5F5F5F5F5F5F5F5F5F5F5F5F5F5F5F5F5F5F5F5F5F5F5F5F5F5F5F5F5F5F5F5F5F5F5F5F5F5F5F5F5F5F5F5F5F5F5F5F5F5F5F5F5F5F5F5F5F5F5F5F5
310
F5F5F5F5F5F5F5F5F5F5F5F5F5F5F5F5F5F5E2E2E2E2E2E2E2E2E2E2E2E2E2E2E2E2E2E2E2E2F5F5E2E2E2E2E2E2E2E2E2E2E2E2E2E2E2E2E2E2E2E2F5E2E2E2E2E2E2E2E2E2E2E2E2E2E2E2E2E2E2E2E2E2E2E2E2E2E2E2E2E2E2E2E2E2E2E2E2E2E2E2E2E2E2E2E2E2E2E2E2E2E2E2E2E2E2E2E2E2E2E2E2E2E2E2E2E2E2
310
E2E2E2E2E2E2E2E2E2E2E2E2E2E2E2E2E2E2E2E2E2E2E2E2E2E2E2E2E2E2E2E2E2E2E2E2E2E2E2E2E2E2E2E2E2E2E2E2E2E2E2E2E2E2E2E2E2E2E2E2E2E2E2E2E2E2E2E2E2E2F5E2E2E2E2E2E2E2E2E2E2E2E2E2E2E2E2E2E2E2E2F5F5E2E2E2E2E2E2E2E2E2E2E2E2E2E2E2E2E2E2E2E2F5E2E2E2E2E2E2E2E2E2E2E2E2E2
310
E2E2E2E2E2E2E2E2E2E2E2E2E2E2E2E2E2E2E2E2E2E2E2E2E2E2E2E2E2E2E2E2E2E2E2E2E2E2E2E2E2E2E2E2E2E2E2E2E2E2E2E2E2E2E2E2E2E2E2E2E2E2E2E2E2E2E2E2E2E2E2E2E2E2E2E2E2E2E2E2E2E2E2E2E2E2E2E2E2E2E2E2E2E2E2E2E2E2E2E2E2E2E2E2E2E2E2E2E2E2E2E2E2E2E2E2E2E2E2E2E2E2E2F5E2E2E2
310
E2E2E2E2E2E2E2E2E2E2E2E2E2E2E2E2E2F5F5E2E2E2E2E2E2E2E2E2E2E2E2E2E2E2E2E2E2E2E2F5E2E2E2E2E2E2E2E2E2E2E2E2E2E2E2E2E2E2E2E2E2E2E2E2E2E2E2E2E2E2E2E2E2E2E2E2E2E2E2E2E2E2E2E2E2E2E2E2E2E2E2E2E2E2E2E2E2E2E2E2E2E2E2E2E2E2E2E2E2E2E2E2E2E2E2E2E2E2E2E2E2E2E2E2E2E2E2
310
E2E2E2E2E2E2E2E2E2E2E2E2E2E2E2E2E2E2E2E2E2E2E2E2E2E2E2E2E2E2E2E2E2E2E2E2E2E2E2E2E2E2E2E2E2E2E2E2E2F5E2E2E2E2E2E2E2E2E2E2E2E2E2E2E2E2E2E2E2E2F5F5E2E2E2E2E2E2E2E2E2E2E2E2E2E2E2E2E2E2E2E2F5E2E2E2E2E2E2E2E2E2E2E2E2E2E2E2E2E2E2E2E2E2E2E2E2E2E2E2E2E2E2E2E2E2E2
310
E2E2E2E2E2E2E2E2E2E2E2E2E2E2E2E2E2E2E2E2E2E2E2E2E2E2E2E2E2E2E2E2E2E2E2E2E2E2E2E2E2E2E2E2E2E2E2E2E2E2E2E2E2E2E2E2E2E2E2E2E2E2E2E2E2E2E2E2E2E2E2E2E2E2E2E2E2E2E2E2E2E2E2E2E2E2E2E2E2E2E2E2E2E2E2E2E2E2E2E2E2E2F5E2E2E2E2E2E2E2E2E2E2E2E2E2E2E2E2E2E2E2E2F5F5E2E2
310
E2F5E2E2E2E2E2E2E2E2E2E2E2E2E2E2E2E2F5E2E2E2E2E2E2E2E2E2E2E2E2E2E2E2E2E2E2E2E2E2E2E2E2E2E2E2E2E2E2E2E2E2E2E2E2E2E2E2E2E2E2E2E2E2E2E2E2E2E2E2E2E2E2E2E2E2E2E2E2E2E2E2E2E2E2E2E2E2E2E2E2E2E2E2E2E2E2E2E2E2E2E2E2E2E2E2E2E2E2E2E2E2E2E2E2E2E2E2E2E2E2E2E2E2E2E2E2
310
E2E2E2E2E2E2E2E2E2E2E2E2E2E2E2E2E2E2E2E2E2E2E2E2E2E2E2E2F5E2E2E2E2E2E2E2E2E2E2E2E2E2E2E2E2F5E2E2E2F5F5E2E2E2F5E2E2E2E2E2E2E2E2E2E2E2E2E2E2E2E2F5E2E2E2E2E2E2E2E2E2E2E2E2E2E2E2E2E2E2E2E2E2E2E2E2E2E2E2E2E2E2E2E2E2E2E2E2E2E2E2E2E2E2E2E2E2E2E2E2E2E2E2E2E2E2E2
310
E2E2E2E2E2E2E2E2E2E2E2E2E2E2E2E2E2E2E2E2E2E2E2E2E2E2E2E2E2E2E2E2E2E2E2E2E2E2E2E2E2E2E2E2E2E2E2E2E2E2E2E2E2E2E2E2E2E2E2E2E2E2E2E2E2E2E2E2E2E2E2E2E2E2E2E2E2E2E2E2E2F5E2E2E2E2E2E2E2E2E2E2E2E2E2E2E2E2F5E2E2E2F5F5E2E2E2F5E2E2E2E2E2E2E2E2E2E2E2E2E2E2E2E2F5E2E2
310
E2E2E2E2E2E2E2E2E2E2E2E2E2E2E2E2E2E2E2E2E2E2E2E2E2E2E2E2E2E2E2E2E2E2E2E2E2E2E2E2E2E2E2E2E2E2E2E2E2E2E2E2E2E2E2E2E2E2E2E2E2E2E2E2E2E2E2E2E2E2E2E2E2E2E2E2E2E2E2E2E2E2E2E2E2E2E2E2E2E2E2E2E2E2E2E2E2E2E2E2E2E2E2E2E2E2E2E2E2E2E2E2E2E2E2E2E2E2E2E2E2E2E2E2E2E2E2
310
E2E2E2E2E2E2E2F5E2E2E2E2E2E2E2E2E2E2E2E2E2E2E2E2F5E2E2E2F5F5E2E2E2F5E2E2E2E2E2E2E2E2E2E2E2E2E2E2E2E2F5E2E2E2E2E2E2E2E2E2E2E2E2E2E2E2E2E2E2E2E2E2E2E2E2E2E2E2E2E2E2E2E2E2E2E2E2E2E2E2E2E2E2E2E2E2E2E2E2E2E2E2E2E2E2E2E2E2E2E2E2E2E2E2E2E2E2E2E2E2E2E2E2E2E2E2E2
310
E2E2E2E2E2E2E2E2E2E2E2E2E2E2E2E2E2E2E2E2E2E2E2E2E2E2E2E2E2E2E2E2E2E2E2E2E2E2E2E2E2E2E2E2E2E2E2E2E2E2E2E2E2E2E2E2E2E2E2E2F5E2E2E2E2E2E2E2E2E2E2E2E2E2E2E2E2F5E2E2E2F5F5E2E2E2F5E2E2E2E2E2E2E2E2E2E2E2E2E2E2E2E2F5E2E2E2E2E2E2E2E2E2E2E2E2E2E2E2E2E2E2E2E2E2E2E2
310
E2E2E2E2E2E2E2E2E2E2E2E2E2E2E2E2E2E2E2E2E2E2E2E2E2E2E2E2E2E2E2E2E2E2E2E2E2E2E2E2E2E2E2E2E2E2E2E2E2E2E2E2E2E2E2E2E2E2E2E2E2E2E2E2E2E2E2E2E2E2E2E2E2E2E2E2E2E2E2E2E2E2E2E2E2E2E2E2E2E2E2E2E2E2E2E2E2E2E2E2E2E2E2E2E2E2E2E2E2E2E2E2E2F5E2E2E2E2E2E2E2E2E2E2E2E2E2
310
E2E2E2F5E2E2E2F5F5E2E2E2F5E2E2E2E2E2E2E2E2E2E2E2E2E2E2E2E2F5E2E2E2E2E2E2E2E2E2E2E2E2E2E2E2E2E2E2E2E2E2E2E2E2E2E2E2E2E2E2E2E2E2E2E2E2E2E2E2E2E2E2E2E2E2E2E2E2E2E2E2E2E2E2E2E2E2E2E2E2E2E2E2E2E2E2E2E2E2E2E2E2E2E2E2E2E2E2E2E2E2E2E2E2E2E2E2E2E2E2E2E2E2E2E2E2E2
310
E2E2E2E2E2E2E2E2E2E2E2E2E2E2E2E2E2E2E2E2E2E2E2E2E2E2E2E2E2E2E2E2E2E2E2E2E2E2E2F5E2E2E2E2E2E2E2E2E2E2E2E2E2E2E2E2F5E2E2E2F5F5E2E2E2F5E2E2E2E2E2E2E2E2E2E2E2E2E2E2E2E2F5E2E2E2E2E2E2E2E2E2E2E2E2E2E2E2E2E2E2E2E2E2E2E2E2E2E2E2E2E2E2E2E2E2E2E2E2E2E2E2E2E2E2E2E2
310
E2E2E2E2E2E2E2E2E2E2E2E2E2E2E2E2E2E2E2E2E2E2E2E2E2E2E2E2E2E2E2E2E2E2E2E2E2E2E2E2E2E2E2E2E2E2E2E2E2E2E2E2E2E2E2E2E2E2E2E2E2E2E2E2E2E2E2E2E2E2E2E2E2E2E2E2E2E2E2E2E2E2E2E2E2E2E2E2E2E2E2E2F5E2E2E2E2E2E2E2E2E2E2E2E2E2E2E2E2F5E2E2E2F5F5E2E2E2F5E2E2E2E2E2E2E2E2
310
E2E2E2E2E2E2E2E2F5E2E2E2E2E2E2E2E2E2E2E2E2E2E2E2E2E2E2E2E2E2E2E2E2E2E2E2E2E2E2E2E2E2E2E2E2E2E2E2E2E2E2E2E2E2E2E2E2E2E2E2E2E2E2E2E2E2E2E2E2E2E2E2E2E2E2E2E2E2E2E2E2E2E2E2E2E2E2E2E2E2E2E2E2E2E2E2E2E2E2E2E2E2E2E2E2E2E2E2E2E2E2E2E2E2E2E2E2E2E2E2E2E2E2E2E2E2E2
310
E2E2E2E2E2E2E2E2E2E2E2E2E2E2E2E2E2E2F5E2E2E2E2E2E2E2E2E2E2E2E2E2E2E2E2F5E2E2E2F5F5E2E2E2F5E2E2E2E2E2E2E2E2E2E2E2E2E2E2E2E2F5E2E2E2E2E2E2E2E2E2E2E2E2E2E2E2E2E2E2E2E2E2E2E2E2E2E2E2E2E2E2E2E2E2E2E2E2E2E2E2E2E2E2E2E2E2E2E2E2E2E2E2E2E2E2E2E2E2E2E2E2E2E2E2E2E2
310
E2E2E2E2E2E2E2E2E2E2E2E2E2E2E2E2E2E2E2E2E2E2E2E2E2E2E2E2E2E2E2E2E2E2E2E2E2E2E2E2E2E2E2E2E2E2E2E2E2E2E2E2E2E2E2E2E2E2E2E2E2E2E2E2E2E2E2E2E2E2E2F5E2E2E2E2E2E2E2E2E2E2E2E2E2E2E2E2F5E2E2E2F5F5E2E2E2F5E2E2E2E2E2E2E2E2E2E2E2E2E2E2E2E2F5E2E2E2E2E2E2E2E2E2E2E2E2
310
E2E2E2E2E2E2E2E2E2E2E2E2E2E2E2E2E2E2E2E2E2E2E2E2E2E2E2E2E2E2E2E2E2E2E2E2E2E2E2E2E2E2E2E2E2E2E2E2E2E2E2E2E2E2E2E2E2E2E2E2E2E2E2E2E2E2E2E2E2E2E2E2E2E2E2E2E2E2E2E2E2E2E2E2E2E2E2E2E2E2E2E2E2E2E2E2E2E2E2E2E2E2E2E2E2E2E2E2E2E2E2E2E2E2E2E2E2E2E2E2E2E2E2E2F5E2E2
310
E2E2E2E2E2E2E2E2E2E2E2E2E2E2F5E2E2E2F5F5E2E2E2F5E2E2E2E2E2E2E2E2E2E2E2E2E2E2E2E2F5E2E2E2E2E2E2E2E2E2E2E2E2E2E2E2E2E2E2E2E2E2E2E2E2E2E2E2E2E2E2E2E2E2E2E2E2E2E2E2E2E2E2E2E2E2E2E2E2E2E2E2E2E2E2E2E2E2E2E2E2E2E2E2E2E2E2E2E2E2E2E2E2E2E2E2E2E2E2E2E2E2E2E2E2E2E2
310
E2E2E2E2E2E2E2E2E2E2E2E2E2E2E2E2E2E2E2E2E2E2E2E2E2E2E2E2E2E2E2E2E2E2E2E2E2E2E2E2E2E2E2E2E2E2E2E2E2E2F5E2E2E2E2E2E2E2E2E2E2E2E2E2E2E2E2F5E2E2E2F5F5E2E2E2F5E2E2E2E2E2E2E2E2E2E2E2E2E2E2E2E2F5E2E2E2E2E2E2E2E2E2E2E2E2E2E2E2E2E2E2E2E2E2E2E2E2E2E2E2E2E2E2E2E2E2
310
E2E2E2E2E2E2E2E2E2E2E2E2E2E2E2E2E2E2E2E2E2E2E2E2E2E2E2E2E2E2E2E2E2E2E2E2E2E2E2E2E2E2E2E2E2E2E2E2E2E2E2E2E2E2E2E2E2E2E2E2E2E2E2E2E2E2E2E2E2E2E2E2E2E2E2E2E2E2E2E2E2E2E2E2E2E2E2E2E2E2E2E2E2E2E2E2E2E2E2E2E2E2E2F5E2E2E2E2E2E2E2E2E2E2E2E2E2E2E2E2F5E2E2E2F5F5E2
310
E2E2F5E2E2E2E2E2E2E2E2E2E2E2E2E2E2E2E2F5E2E2E2E2E2E2E2E2E2E2E2E2E2E2E2E2E2E2E2E2E2E2E2E2E2E2E2E2E2E2E2E2E2E2E2E2E2E2E2E2E2E2E2E2E2E2E2E2E2E2E2E2E2E2E2E2E2E2E2E2E2E2E2E2E2E2E2E2E2E2E2E2E2E2E2E2E2E2E2E2E2E2E2E2E2E2E2E2E2E2E2E2E2E2E2E2E2E2E2E2E2E2E2E2E2E2E2
310
E2E2E2E2E2E2E2E2E2E2E2E2E2E2E2E2E2E2E2E2E2E2E2E2E2E2E2E2E2F5E2E2E2E2E2E2E2E2E2E2E2E2E2E2E2E2F5E2E2E2F5F5E2E2E2F5E2E2E2E2E2E2E2E2E2E2E2E2E2E2E2E2F5E2E2E2E2E2E2E2E2E2E2E2E2E2E2E2E2E2E2E2E2E2E2E2E2E2E2E2E2E2E2E2E2E2E2E2E2E2E2E2E2E2E2E2E2E2E2E2E2E2E2E2E2E2E2
310
E2E2E2E2E2E2E2E2E2E2E2E2E2E2E2E2E2E2E2E2E2E2E2E2E2E2E2E2E2E2E2E2E2E2E2E2E2E2E2E2E2E2E2E2E2E2E2E2E2E2E2E2E2E2E2E2E2E2E2E2E2E2E2E2E2E2E2E2E2E2E2E2E2E2E2E2E2E2E2E2E2E2F5E2E2E2E2E2E2E2E2E2E2E2E2E2E2E2E2F5E2E2E2F5F5E2E2E2F5E2E2E2E2E2E2E2E2E2E2E2E2E2E2E2E2F5E2
310
E2E2E2E2E2E2E2E2E2E2E2E2E2E2E2E2E2E2E2E2E2E2E2E2E2E2E2E2E2E2E2E2E2E2E2E2E2E2E2E2E2E2E2E2E2E2E2E2E2E2E2E2E2E2E2E2E2E2E2E2E2E2E2E2E2E2E2E2E2E2E2E2E2E2E2E2E2E2E2E2E2E2E2E2E2E2E2E2E2E2E2E2E2E2E2E2E2E2E2E2E2E2E2E2E2E2E2E2E2E2E2E2E2E2E2E2E2E2E2E2E2E2E2E2E2E2E2
310
E2E2E2E2E2E2E2E2F5E2E2E2E2E2E2E2E2E2E2E2E2E2E2E2E2F5E2E2E2F5F5E2E2E2F5E2E2E2E2E2E2E2E2E2E2E2E2E2E2E2E2F5E2E2E2E2E2E2E2E2E2E2E2E2E2E2E2E2E2E2E2E2E2E2E2E2E2E2E2E2E2E2E2E2E2E2E2E2E2E2E2E2E2E2E2E2E2E2E2E2E2E2E2E2E2E2E2E2E2E2E2E2E2E2E2E2E2E2E2E2E2E2E2E2E2E2E2
310
E2E2E2E2E2E2E2E2E2E2E2E2E2E2E2E2E2E2E2E2E2E2E2E2E2E2E2E2E2E2E2E2E2E2E2E2E2E2E2E2E2E2E2E2E2E2E2E2E2E2E2E2E2E2E2E2E2E2E2E2E2F5E2E2E2E2E2E2E2E2E2E2E2E2E2E2E2E2F5E2E2E2F5F5E2E2E2F5E2E2E2E2E2E2E2E2E2E2E2E2E2E2E2E2F5E2E2E2E2E2E2E2E2E2E2E2E2E2E2E2E2E2E2E2E2E2E2
310
E2E2E2E2E2E2E2E2E2E2E2E2E2E2E2E2E2E2E2E2E2E2E2E2E2E2E2E2E2E2E2E2E2E2E2E2E2E2E2E2E2E2E2E2E2E2E2E2E2E2E2E2E2E2E2E2E2E2E2E2E2E2E2E2E2E2E2E2E2E2E2E2E2E2E2E2E2E2E2E2E2E2E2E2E2E2E2E2E2E2E2E2E2E2E2E2E2E2E2E2E2E2E2E2E2E2E2E2E2E2E2E2E2E2F5E2E2E2E2E2E2E2E2E2E2E2E2
310
E2E2E2E2F5E2E2E2F5F5E2E2E2E2E2E2E2E2E2E2E2E2E2E2E2E2E2E2E2E2F5E2E2E2E2E2E2E2E2E2E2E2E2E2E2E2E2E2E2E2E2E2E2E2E2E2E2E2E2E2E2E2E2E2E2E2E2E2E2E2E2E2E2E2E2E2E2E2E2E2E2E2E2E2E2E2E2E2E2E2E2E2E2E2E2E2E2E2E2E2E2E2E2E2E2E2E2E2E2E2E2E2E2E2E2E2E2E2E2E2E2E2E2E2E2E2E2
310
E2E2E2E2E2E2E2E2E2E2E2E2E2E2E2E2E2E2E2E2E2E2E2E2E2E2E2E2E2E2E2E2E2E2E2E2E2E2E2E2F5E2E2E2E2E2E2E2E2E2E2E2E2E2E2E2E2E2E2E2E2F5F5E2E2E2E2E2E2E2E2E2E2E2E2E2E2E2E2E2E2E2E2F5E2E2E2E2E2E2E2E2E2E2E2E2E2E2E2E2E2E2E2E2E2E2E2E2E2E2E2E2E2E2E2E2E2E2E2E2E2E2E2E2E2E2E2
310
E2E2E2E2E2E2E2E2E2E2E2E2E2E2E2E2E2E2E2E2E2E2E2E2E2E2E2E2E2E2E2E2E2E2E2E2E2E2E2E2E2E2E2E2E2E2E2E2E2E2E2E2E2E2E2E2E2E2E2E2E2E2E2E2E2E2E2E2E2E2E2E2E2E2E2E2E2E2E2E2E2E2E2E2E2E2E2E2E2E2E2E2E2F5E2E2E2E2E2E2E2E2E2E2E2E2E2E2E2E2E2E2E2E2F5F5E2E2E2E2E2E2E2E2E2E2E2
310
E2E2E2E2E2E2E2E2E2F5E2E2E2E2E2E2E2E2E2E2E2E2E2E2E2E2E2E2E2E2E2E2E2E2E2E2E2E2E2E2E2E2E2E2E2E2E2E2E2E2E2E2E2E2E2E2E2E2E2E2E2E2E2E2E2E2E2E2E2E2E2E2E2E2E2E2E2E2E2E2E2E2E2E2E2E2E2E2E2E2E2E2E2E2E2E2E2E2E2E2E2E2E2E2E2E2E2E2E2E2E2E2E2E2E2E2E2E2E2E2E2E2E2E2E2E2E2
310
E2E2E2E2E2E2E2E2E2E2E2E2E2E2E2E2E2E2E2F5E2E2E2E2E2E2E2E2E2E2E2E2E2E2E2E2E2E2E2E2F5F5E2E2E2E2E2E2E2E2E2E2E2E2E2E2E2E2E2E2E2E2F5E2E2E2E2E2E2E2E2E2E2E2E2E2E2E2E2E2E2E2E2E2E2E2E2E2E2E2E2E2E2E2E2E2E2E2E2E2E2E2E2E2E2E2E2E2E2E2E2E2E2E2E2E2E2E2E2E2E2E2E2E2E2E2E2
310
E2E2E2E2E2E2E2E2E2E2E2E2E2E2E2E2E2E2E2E2E2E2E2E2E2E2E2E2E2E2E2E2E2E2E2E2E2E2E2E2E2E2E2E2E2E2E2E2E2E2E2E2E2E2E2E2E2E2E2E2E2E2E2E2E2E2E2E2E2E2E2E2F5E2E2E2E2E2E2E2E2E2E2E2E2E2E2E2E2E2E2E2E2F5F5E2E2E2E2E2E2E2E2E2E2E2E2E2E2E2E2E2E2E2E2F5E2E2E2E2E2E2E2E2E2E2E2
310
E2E2E2E2E2E2E2E2E2E2E2E2E2E2E2E2E2E2E2E2E2E2E2E2E2E2E2E2E2E2E2E2E2E2E2E2E2E2E2E2E2E2E2E2E2E2E2E2E2E2E2E2E2E2E2E2E2E2E2E2E2E2E2E2E2E2E2E2E2E2E2E2E2E2E2E2E2E2E2E2E2E2E2E2E2E2E2E2E2E2E2E2E2E2E2E2E2E2E2E2E2E2E2E2E2E2E2E2E2E2E2E2E2E2E2E2E2E2E2E2E2E2E2E2E2F5E2
310
E2E2E2E2E2E2E2E2E2E2E2E2E2E2E2E2E2E2E2F5F5E2E2E2E2E2E2E2E2E2E2E2E2E2E2E2E2E2E2E2E2F5E2E2E2E2E2E2E2E2E2E2E2E2E2E2E2E2E2E2E2E2E2E2E2E2E2E2E2E2E2E2E2E2E2E2E2E2E2E2E2E2E2E2E2E2E2E2E2E2E2E2E2E2E2E2E2E2E2E2E2E2E2E2E2E2E2E2E2E2E2E2E2E2E2E2E2E2E2E2E2E2E2E2E2E2E2
310
E2E2E2E2E2E2E2E2E2E2E2E2E2E2E2E2E2E2E2E2E2E2E2E2E2E2E2E2E2E2E2E2E2E2E2E2E2E2E2E2E2E2E2E2E2E2E2E2E2E2E2F5E2E2E2E2E2E2E2E2E2E2E2E2E2E2E2E2E2E2E2E2F5F5E2E2E2E2E2E2E2E2E2E2E2E2E2E2E2E2E2E2E2E2F5E2E2E2E2E2E2E2E2E2E2E2E2E2E2E2E2E2E2E2E2E2E2E2E2E2E2E2E2E2E2E2E2
310
E2E2E2E2E2E2E2E2E2E2E2E2E2E2E2E2E2E2E2E2E2E2E2E2E2E2E2E2E2E2E2E2E2E2E2E2E2E2E2E2E2E2E2E2E2E2E2E2E2E2E2E2E2E2E2E2E2E2E2E2E2E2E2E2E2E2E2E2E2E2E2E2E2E2E2E2E2E2E2E2E2E2E2E2E2E2E2E2E2E2E2E2E2E2E2E2E2E2E2E2E2E2E2E2F5E2E2E2E2E2E2E2E2E2E2E2E2E2E2E2E2E2E2E2E2F5F5
310
E2E2E2E2E2E2E2E2E2E2E2E2E2E2E2E2E2E2E2E2F5E2E2E2E2E2E2E2E2E2E2E2E2E2E2E2E2E2E2E2E2E2E2E2E2E2E2E2E2E2E2E2E2E2E2E2E2E2E2E2E2E2E2E2E2E2E2E2E2E2E2E2E2E2E2E2E2E2E2E2E2E2E2E2E2E2E2E2E2E2E2E2E2E2E2E2E2E2E2E2E2E2E2E2E2E2E2E2E2E2E2E2E2E2E2E2E2E2E2E2E2E2E2E2E2E2E2
310
E2E2E2E2E2E2E2E2E2E2E2E2E2E2E2E2E2E2E2E2E2E2E2E2E2E2E2E2E2E2F5E2E2E2E2E2E2E2E2E2E2E2E2E2E2E2E2E2E2E2E2F5F5E2E2E2E2E2E2E2E2E2E2E2E2E2E2E2E2E2E2E2E2F5E2E2E2E2E2E2E2E2E2E2E2E2E2E2E2E2E2E2E2E2E2E2E2E2E2E2E2E2E2E2E2E2E2E2E2E2E2E2E2E2E2E2E2E2E2E2E2E2E2E2E2E2E2
310
E2E2E2E2E2E2E2E2E2E2E2E2E2E2E2E2E2E2E2E2E2E2E2E2E2E2E2E2E2E2E2E2E2E2E2E2E2E2E2E2E2E2E2E2E2E2E2E2E2E2E2E2E2E2E2E2E2E2E2E2E2E2E2E2E2E2E2E2E2E2E2E2E2E2E2E2E2E2E2E2E2E2E2F5E2E2E2E2E2E2E2E2E2E2E2E2E2E2E2E2E2E2E2E2F5F5E2E2E2F5E2E2E2E2E2E2E2E2E2E2E2E2E2E2E2E2F5
310
E2E2E2E2E2E2E2E2E2E2E2E2E2E2E2E2E2E2E2E2E2E2E2E2E2E2E2E2E2E2E2E2E2E2E2E2E2E2E2E2E2E2E2E2E2E2E2E2E2E2E2E2E2E2E2E2E2E2E2E2E2E2E2E2E2E2E2E2E2E2E2E2E2E2E2E2E2E2E2E2E2E2E2E2E2E2E2E2E2E2E2E2E2E2E2E2E2E2E2E2E2E2E2E2E2E2E2E2E2E2E2E2E2E2E2E2E2E2E2E2E2E2E2E2E2E2E2
310
E2E2E2E2E2E2E2E2E2F5E2E2E2E2E2E2E2E2E2E2E2E2E2E2E2E2F5E2E2E2F5F5E2E2E2F5E2E2E2E2E2E2E2E2E2E2E2E2E2E2E2E2F5E2E2E2E2E2E2E2E2E2E2E2E2E2E2E2E2E2E2E2E2E2E2E2E2E2E2E2E2E2E2E2E2E2E2E2E2E2E2E2E2E2E2E2E2E2E2E2E2E2E2E2E2E2E2E2E2E2E2E2E2E2E2E2E2E2E2E2E2E2E2E2E2E2E2
310
E2E2E2E2E2E2E2E2E2E2E2E2E2E2E2E2E2E2E2E2E2E2E2E2E2E2E2E2E2E2E2E2E2E2E2E2E2E2E2E2E2E2E2E2E2E2E2E2E2E2E2E2E2E2E2E2E2E2E2E2E2E2F5E2E2E2E2E2E2E2E2E2E2E2E2E2E2E2E2F5E2E2E2F5F5E2E2E2F5E2E2E2E2E2E2E2E2E2E2E2E2E2E2E2E2F5E2E2E2E2E2E2E2E2E2E2E2E2E2E2E2E2E2E2E2E2E2
310
E2E2E2E2E2E2E2E2E2E2E2E2E2E2E2E2E2E2E2E2E2E2E2E2E2E2E2E2E2E2E2E2E2E2E2E2E2E2E2E2E2E2E2E2E2E2E2E2E2E2E2E2E2E2E2E2E2E2E2E2E2E2E2E2E2E2E2E2E2E2E2E2E2E2E2E2E2E2E2E2E2E2E2E2E2E2E2E2E2E2E2E2E2E2E2E2E2E2E2E2E2E2E2E2E2E2E2E2E2E2E2E2E2E2E2F5E2E2E2E2E2E2E2E2E2E2E2
310
E2E2E2E2E2F5E2E2E2F5F5E2E2E2F5E2E2E2E2E2E2E2E2E2E2E2E2E2E2E2E2F5E2E2E2E2E2E2E2E2E2E2E2E2E2E2E2E2E2E2E2E2E2E2E2E2E2E2E2E2E2E2E2E2E2E2E2E2E2E2E2E2E2E2E2E2E2E2E2E2E2E2E2E2E2E2E2E2E2E2E2E2E2E2E2E2E2E2E2E2E2E2E2E2E2E2E2E2E2E2E2E2E2E2E2E2E2E2E2E2E2E2E2E2E2E2E2
310
E2E2E2E2E2E2E2E2E2E2E2E2E2E2E2E2E2E2E2E2E2E2E2E2E2E2E2E2E2E2E2E2E2E2E2E2E2E2E2E2E2F5E2E2E2E2E2E2E2E2E2E2E2E2E2E2E2E2F5E2E2E2F5F5E2E2E2F5E2E2E2E2E2E2E2E2E2E2E2E2E2E2E2E2F5E2E2E2E2E2E2E2E2E2E2E2E2E2E2E2E2E2E2E2E2E2E2E2E2E2E2E2E2E2E2E2E2E2E2E2E2E2E2E2E2E2E2
310
E2E2E2E2E2E2E2E2E2E2E2E2E2E2E2E2E2E2E2E2E2E2E2E2E2E2E2E2E2E2E2E2E2E2E2E2E2E2E2E2E2E2E2E2E2E2E2E2E2E2E2E2E2E2E2E2E2E2E2E2E2E2E2E2E2E2E2E2E2E2E2E2E2E2E2E2E2E2E2E2E2E2E2E2E2E2E2E2E2E2E2E2E2E2F5E2E2E2E2E2E2E2E2E2E2E2E2E2E2E2E2F5E2E2E2F5F5E2E2E2F5E2E2E2E2E2E2
310
E2E2E2E2E2E2E2E2E2E2F5E2E2E2E2E2E2E2E2E2E2E2E2E2E2E2E2E2E2E2E2E2E2E2E2E2E2E2E2E2E2E2E2E2E2E2E2E2E2E2E2E2E2E2E2E2E2E2E2E2E2E2E2E2E2E2E2E2E2E2E2E2E2E2E2E2E2E2E2E2E2E2E2E2E2E2E2E2E2E2E2E2E2E2E2E2E2E2E2E2E2E2E2E2E2E2E2E2E2E2E2E2E2E2E2E2E2E2E2E2E2E2E2E2E2E2E2
310
E2E2E2E2E2E2E2E2E2E2E2E2E2E2E2E2E2E2E2E2F5E2E2E2E2E2E2E2E2E2E2E2E2E2E2E2E2F5E2E2E2F5F5E2E2E2F5E2E2E2E2E2E2E2E2E2E2E2E2E2E2E2E2F5E2E2E2E2E2E2E2E2E2E2E2E2E2E2E2E2E2E2E2E2E2E2E2E2E2E2E2E2E2E2E2E2E2E2E2E2E2E2E2E2E2E2E2E2E2E2E2E2E2E2E2E2E2E2E2E2E2E2E2E2E2E2E2
310
E2E2E2E2E2E2E2E2E2E2E2E2E2E2E2E2E2E2E2E2E2E2E2E2E2E2E2E2E2E2E2E2E2E2E2E2E2E2E2E2E2E2E2E2E2E2E2E2E2E2E2E2E2E2E2E2E2E2E2E2E2E2E2E2E2E2E2E2E2E2E2E2E2F5E2E2E2E2E2E2E2E2E2E2E2E2E2E2E2E2F5E2E2E2F5F5E2E2E2F5E2E2E2E2E2E2E2E2E2E2E2E2E2E2E2E2F5E2E2E2E2E2E2E2E2E2E2
310
E2E2E2E2E2E2E2E2E2E2E2E2E2E2E2E2E2E2E2E2E2E2E2E2E2E2E2E2E2E2E2E2E2E2E2E2E2E2E2E2E2E2E2E2E2E2E2E2E2E2E2E2E2E2E2E2E2E2E2E2E2E2E2E2E2E2E2E2E2E2E2E2E2E2E2E2E2E2E2E2E2E2E2E2E2E2E2E2E2E2E2E2E2E2E2E2E2E2E2E2E2E2E2E2E2E2E2E2E2E2E2E2E2E2E2E2E2E2E2E2E2E2E2E2E2E2F5
310
E2E2E2E2E2E2E2E2E2E2E2E2E2E2E2E2F5E2E2E2F5F5E2E2E2F5E2E2E2E2E2E2E2E2E2E2E2E2E2E2E2E2F5E2E2E2E2E2E2E2E2E2E2E2E2E2E2E2E2E2E2E2E2E2E2E2E2E2E2E2E2E2E2E2E2E2E2E2E2E2E2E2E2E2E2E2E2E2E2E2E2E2E2E2E2E2E2E2E2E2E2E2E2E2E2E2E2E2E2E2E2E2E2E2E2E2E2E2E2E2E2E2E2E2E2E2E2
310
E2E2E2E2E2E2E2E2E2E2E2E2E2E2E2E2E2E2E2E2E2E2E2E2E2E2E2E2E2E2E2E2E2E2E2E2E2E2E2E2E2E2E2E2E2E2E2E2E2E2E2E2F5E2E2E2E2E2E2E2E2E2E2E2E2E2E2E2E2F5E2E2E2F5F5E2E2E2F5E2E2E2E2E2E2E2E2E2E2E2E2E2E2E2E2F5E2E2E2E2E2E2E2E2E2E2E2E2E2E2E2E2E2E2E2E2E2E2E2E2E2E2E2E2E2E2E2
310
E2E2E2E2E2E2E2E2E2E2E2E2E2E2E2E2E2E2E2E2E2E2E2E2E2E2E2E2E2E2E2E2E2E2E2E2E2E2E2E2E2E2E2E2E2E2E2E2E2E2E2E2E2E2E2E2E2E2E2E2E2E2E2E2E2E2E2E2E2E2E2E2E2E2E2E2E2E2E2E2E2E2E2E2E2E2E2E2E2E2E2E2E2E2E2E2E2E2E2E2E2E2E2E2E2F5E2E2E2E2E2E2E2E2E2E2E2E2E2E2E2E2F5E2E2E2F5
310
F5E2E2E2F5E2E2E2E2E2E2E2E2E2E2E2E2E2E2E2E2F5E2E2E2E2E2E2E2E2E2E2E2E2E2E2E2E2E2E2E2E2E2E2E2E2E2E2E2E2E2E2E2E2E2E2E2E2E2E2E2E2E2E2E2E2E2E2E2E2E2E2E2E2E2E2E2E2E2E2E2E2E2E2E2E2E2E2E2E2E2E2E2E2E2E2E2E2E2E2E2E2E2E2E2E2E2E2E2E2E2E2E2E2E2E2E2E2E2E2E2E2E2E2E2E2E2
310
E2E2E2E2E2E2E2E2E2E2E2E2E2E2E2E2E2E2E2E2E2E2E2E2E2E2E2E2E2E2E2F5E2E2E2E2E2E2E2E2E2E2E2E2E2E2E2E2F5E2E2E2F5F5E2E2E2F5E2E2E2E2E2E2E2E2E2E2E2E2E2E2E2E2F5E2E2E2E2E2E2E2E2E2E2E2E2E2E2E2E2E2E2E2E2E2E2E2E2E2E2E2E2E2E2E2E2E2E2E2E2E2E2E2E2E2E2E2E2E2E2E2E2E2E2E2E2
310
E2E2E2E2E2E2E2E2E2E2E2E2E2E2E2E2E2E2E2E2E2E2E2E2E2E2E2E2E2E2E2E2E2E2E2E2E2E2E2E2E2E2E2E2E2E2E2E2E2E2E2E2E2E2E2E2E2E2E2E2E2E2E2E2E2E2E2E2E2E2E2E2E2E2E2E2E2E2E2E2E2E2E2E2F5E2E2E2E2E2E2E2E2E2E2E2E2E2E2E2E2F5E2E2E2F5F5E2E2E2F5E2E2E2E2E2E2E2E2E2E2E2E2E2E2E2E2
310
F5E2E2E2E2E2E2E2E2E2E2E2E2E2E2E2E2E2E2E2E2E2E2E2E2E2E2E2E2E2E2E2E2E2E2E2E2E2E2E2E2E2E2E2E2E2E2E2E2E2E2E2E2E2E2E2E2E2E2E2E2E2E2E2E2E2E2E2E2E2E2E2E2E2E2E2E2E2E2E2E2E2E2E2E2E2E2E2E2E2E2E2E2E2E2E2E2E2E2E2E2E2E2E2E2E2E2E2E2E2E2E2E2E2E2E2E2E2E2E2E2E2E2E2E2E2E2
310
E2E2E2E2E2E2E2E2E2E2F5E2E2E2E2E2E2E2E2E2E2E2E2E2E2E2E2F5E2E2E2F5F5E2E2E2F5E2E2E2E2E2E2E2E2E2E2E2E2E2E2E2E2F5E2E2E2E2E2E2E2E2E2E2E2E2E2E2E2E2E2E2E2E2E2E2E2E2E2E2E2E2E2E2E2E2E2E2E2E2E2E2E2E2E2E2E2E2E2E2E2E2E2E2E2E2E2E2E2E2E2E2E2E2E2E2E2E2E2E2E2E2E2E2E2E2E2
310
E2E2E2E2E2E2E2E2E2E2E2E2E2E2E2E2E2E2E2E2E2E2E2E2E2E2E2E2E2E2E2E2E2E2E2E2E2E2E2E2E2E2E2E2E2E2E2E2E2E2E2E2E2E2E2E2E2E2E2E2E2E2E2F5E2E2E2E2E2E2E2E2E2E2E2E2E2E2E2E2F5E2E2E2F5F5E2E2E2F5E2E2E2E2E2E2E2E2E2E2E2E2E2E2E2E2F5E2E2E2E2E2E2E2E2E2E2E2E2E2E2E2E2E2E2E2E2
310
E2E2E2E2E2E2E2E2E2E2E2E2E2E2E2E2E2E2E2E2E2E2E2E2E2E2E2E2E2E2E2E2E2E2E2E2E2E2E2E2E2E2E2E2E2E2E2E2E2E2E2E2E2E2E2E2E2E2E2E2E2E2E2E2E2E2E2E2E2E2E2E2E2E2E2E2E2E2E2E2E2E2E2E2E2E2E2E2E2E2E2E2E2E2E2E2E2E2E2E2E2E2E2E2E2E2E2E2E2E2E2E2E2E2E2E2F5E2E2E2E2E2E2E2E2E2E2
310
E2E2E2E2E2E2F5E2E2E2F5F5E2E2E2F5E2E2E2E2E2E2E2E2E2E2E2E2E2E2E2E2F5E2E2E2E2E2E2E2E2E2E2E2E2E2E2E2E2E2E2E2E2E2E2E2E2E2E2E2E2E2E2E2E2E2E2E2E2E2E2E2E2E2E2E2E2E2E2E2E2E2E2E2E2E2E2E2E2E2E2E2E2E2E2E2E2E2E2E2E2E2E2E2E2E2E2E2E2E2E2E2E2E2E2E2E2E2E2E2E2E2E2E2E2E2E2
310
E2E2E2E2E2E2E2E2E2E2E2E2E2E2E2E2E2E2E2E2E2E2E2E2E2E2E2E2E2E2E2E2E2E2E2E2E2E2E2E2E2E2F5E2E2E2E2E2E2E2E2E2E2E2E2E2E2E2E2F5E2E2E2F5F5E2E2E2E2E2E2E2E2E2E2E2E2E2E2E2E2E2E2E2E2F5E2E2E2E2E2E2E2E2E2E2E2E2E2E2E2E2E2E2E2E2E2E2E2E2E2E2E2E2E2E2E2E2E2E2E2E2E2E2E2E2E2
310
E2E2E2E2E2E2E2E2E2E2E2E2E2E2E2E2E2E2E2E2E2E2E2E2E2E2E2E2E2E2E2E2E2E2E2E2E2E2E2E2E2E2E2E2E2E2E2E2E2E2E2E2E2E2E2E2E2E2E2E2E2E2E2E2E2E2E2E2E2E2E2E2E2E2E2E2E2E2E2E2E2E2E2E2E2E2E2E2E2E2E2E2E2E2E2F5E2E2E2E2E2E2E2E2E2E2E2E2E2E2E2E2E2E2E2E2F5F5E2E2E2E2E2E2E2E2E2
310
E2E2E2E2E2E2E2E2E2E2E2F5E2E2E2E2E2E2E2E2E2E2E2E2E2E2E2E2E2E2E2E2E2E2E2E2E2E2E2E2E2E2E2E2E2E2E2E2E2E2E2E2E2E2E2E2E2E2E2E2E2E2E2E2E2E2E2E2E2E2E2E2E2E2E2E2E2E2E2E2E2E2E2E2E2E2E2E2E2E2E2E2E2E2E2E2E2E2E2E2E2E2E2E2E2E2E2E2E2E2E2E2E2E2E2E2E2E2E2E2E2E2E2E2E2E2E2
310
E2E2E2E2E2E2E2E2E2E2E2E2E2E2E2E2E2E2E2E2E2F5E2E2E2E2E2E2E2E2E2E2E2E2E2E2E2E2E2E2E2E2F5F5E2E2E2E2E2E2E2E2E2E2E2E2E2E2E2E2E2E2E2E2F5E2E2E2E2E2E2E2E2E2E2E2E2E2E2E2E2E2E2E2E2E2E2E2E2E2E2E2E2E2E2E2E2E2E2E2E2E2E2E2E2E2E2E2E2E2E2E2E2E2E2E2E2E2E2E2E2E2E2E2E2E2E2
310
E2E2E2E2E2E2E2E2E2E2E2E2E2E2E2E2E2E2E2E2E2E2E2E2E2E2E2E2E2E2E2E2E2E2E2E2E2E2E2E2E2E2E2E2E2E2E2E2E2E2E2E2E2E2E2E2E2E2E2E2E2E2E2E2E2E2E2E2E2E2E2E2E2E2F5E2E2E2E2E2E2E2E2E2E2E2E2E2E2E2E2E2E2E2E2F5F5E2E2E2E2E2E2E2E2E2E2E2E2E2E2E2E2E2E2E2E2F5E2E2E2E2E2E2E2E2E2
310
E2E2E2E2E2E2E2E2E2E2E2E2E2E2E2E2E2E2E2E2E2E2E2E2E2E2E2E2E2E2E2E2E2E2E2E2E2E2E2E2E2E2E2E2E2E2E2E2E2E2E2E2E2E2E2E2E2E2E2E2E2E2E2E2E2E2E2E2E2E2E2E2E2E2E2E2E2E2E2E2E2E2E2E2E2E2E2E2E2E2E2E2E2E2E2E2E2E2E2E2E2E2E2E2E2E2E2E2E2E2E2E2E2E2E2E2E2E2E2E2E2E2E2E2E2E2E2
310
F5E2E2E2E2E2E2E2E2E2E2E2E2E2E2E2E2E2E2E2E2F5F5E2E2E2E2E2E2E2E2E2E2E2E2E2E2E2E2E2E2E2E2F5E2E2E2E2E2E2E2E2E2E2E2E2E2E2E2E2E2E2E2E2E2E2E2E2E2E2E2E2E2E2E2E2E2E2E2E2E2E2E2E2E2E2E2E2E2E2E2E2E2E2E2E2E2E2E2E2E2E2E2E2E2E2E2E2E2E2E2E2E2E2E2E2E2E2E2E2E2E2E2E2E2E2E2
310
E2E2E2E2E2E2E2E2E2E2E2E2E2E2E2E2E2E2E2E2E2E2E2E2E2E2E2E2E2E2E2E2E2E2E2E2E2E2E2E2E2E2E2E2E2E2E2E2E2E2E2E2E2F5E2E2E2E2E2E2E2E2E2E2E2E2E2E2E2E2E2E2E2E2F5F5E2E2E2E2E2E2E2E2E2E2E2E2E2E2E2E2E2E2E2E2F5E2E2E2E2E2E2E2E2E2E2E2E2E2E2E2E2E2E2E2E2E2E2E2E2E2E2E2E2E2E2
310
E2E2E2E2E2E2E2E2E2E2E2E2E2E2E2E2E2E2E2E2E2E2E2E2E2E2E2E2E2E2E2E2E2E2E2E2E2E2E2E2E2E2E2E2E2E2E2E2E2E2E2E2E2E2E2E2E2E2E2E2E2E2E2E2E2E2E2E2E2E2E2E2E2E2E2E2E2E2E2E2E2E2E2E2E2E2E2E2E2E2E2E2E2E2E2E2E2E2E2E2E2E2E2E2E2E2F5E2E2E2E2E2E2E2E2E2E2E2E2E2E2E2E2E2E2E2E2
310
F5F5E2E2E2E2E2E2E2E2E2E2E2E2E2E2E2E2E2E2E2E2F5E2E2E2E2E2E2E2E2E2E2E2E2E2E2E2E2E2E2E2E2E2E2E2E2E2E2E2E2E2E2E2E2E2E2E2E2E2E2E2E2E2E2E2E2E2E2E2E2E2E2E2E2E2E2E2E2E2E2E2E2E2E2E2E2E2E2E2E2E2E2E2E2E2E2E2E2E2E2E2E2E2E2E2E2E2E2E2E2E2E2E2E2E2E2E2E2E2E2E2E2E2E2E2E2
310
E2E2E2E2E2E2E2E2E2E2E2E2E2E2E2E2E2E2E2E2E2E2E2E2E2E2E2E2E2E2E2E2F5E2E2E2E2E2E2E2E2E2E2E2E2E2E2E2E2E2E2E2E2F5F5E2E2E2E2E2E2E2E2E2E2E2E2E2E2E2E2E2E2E2E2F5E2E2E2E2E2E2E2E2E2E2E2E2E2E2E2E2E2E2E2E2E2E2E2E2E2E2E2E2E2E2E2E2E2E2E2E2E2E2E2E2E2E2E2E2E2E2E2E2E2E2E2
310
E2E2E2E2E2E2E2E2E2E2E2E2E2E2E2E2E2E2E2E2E2E2E2E2E2E2E2E2E2E2E2E2E2E2E2E2E2E2E2E2E2E2E2E2E2E2E2E2E2E2E2E2E2E2E2E2E2E2E2E2E2E2E2E2E2E2E2E2E2E2E2E2E2E2E2E2E2E2E2E2E2E2E2E2E2F5E2E2E2E2E2E2E2E2E2E2E2E2E2E2E2E2E2E2E2E2F5F5E2E2E2E2E2E2E2E2E2E2E2E2E2E2E2E2E2E2E2
310
E2F5E2E2E2E2E2E2E2E2E2E2E2E2E2E2E2E2E2E2E2E2E2E2E2E2E2E2E2E2E2E2E2E2E2E2E2E2E2E2E2E2E2E2E2E2E2E2E2E2E2E2E2E2E2E2E2E2E2E2E2E2E2E2E2E2E2E2E2E2E2E2E2E2E2E2E2E2E2E2E2E2E2E2E2E2E2E2E2E2E2E2E2E2E2E2E2E2E2E2E2E2E2E2E2E2E2E2E2E2E2E2E2E2E2E2E2E2E2E2E2E2E2E2E2E2E2
310
E2E2E2E2E2E2E2E2E2E2E2F5E2E2E2E2E2E2E2E2E2E2E2E2E2E2E2E2E2E2E2E2F5F5E2E2E2E2E2E2E2E2E2E2E2E2E2E2E2E2E2E2E2E2F5E2E2E2E2E2E2E2E2E2E2E2E2E2E2E2E2E2E2E2E2E2E2E2E2E2E2E2E2E2E2E2E2E2E2E2E2E2E2E2E2E2E2E2E2E2E2E2E2E2E2E2E2E2E2E2E2E2E2E2E2E2E2E2E2E2E2E2E2E2E2E2E2
310
E2E2E2E2E2E2E2E2E2E2E2E2E2E2E2E2E2E2E2E2E2E2E2E2E2E2E2E2E2E2E2E2E2E2E2E2E2E2E2E2E2E2E2E2E2E2E2E2E2E2E2E2E2E2E2E2E2E2E2E2E2E2E2E2F5E2E2E2E2E2E2E2E2E2E2E2E2E2E2E2E2E2E2E2E2F5F5E2E2E2F5E2E2E2E2E2E2E2E2E2E2E2E2E2E2E2E2F5E2E2E2E2E2E2E2E2E2E2E2E2E2E2E2E2E2E2E2
310
E2E2E2E2E2E2E2E2E2E2E2E2E2E2E2E2E2E2E2E2E2E2E2E2E2E2E2E2E2E2E2E2E2E2E2E2E2E2E2E2E2E2E2E2E2E2E2E2E2E2E2E2E2E2E2E2E2E2E2E2E2E2E2E2E2E2E2E2E2E2E2E2E2E2E2E2E2E2E2E2E2E2E2E2E2E2E2E2E2E2E2E2E2E2E2E2E2E2E2E2E2E2E2E2E2E2E2E2E2E2E2E2E2E2E2E2E2F5E2E2E2E2E2E2E2E2E2
310
E2E2E2E2E2E2E2F5E2E2E2F5F5E2E2E2F5E2E2E2E2E2E2E2E2E2E2E2E2E2E2E2E2F5E2E2E2E2E2E2E2E2E2E2E2E2E2E2E2E2E2E2E2E2E2E2E2E2E2E2E2E2E2E2E2E2E2E2E2E2E2E2E2E2E2E2E2E2E2E2E2E2E2E2E2E2E2E2E2E2E2E2E2E2E2E2E2E2E2E2E2E2E2E2E2E2E2E2E2E2E2E2E2E2E2E2E2E2E2E2E2E2E2E2E2E2E2
310
E2E2E2E2E2E2E2E2E2E2E2E2E2E2E2E2E2E2E2E2E2E2E2E2E2E2E2E2E2E2E2E2E2E2E2E2E2E2E2E2E2E2E2F5E2E2E2E2E2E2E2E2E2E2E2E2E2E2E2E2F5E2E2E2F5F5E2E2E2F5E2E2E2E2E2E2E2E2E2E2E2E2E2E2E2E2F5E2E2E2E2E2E2E2E2E2E2E2E2E2E2E2E2E2E2E2E2E2E2E2E2E2E2E2E2E2E2E2E2E2E2E2E2E2E2E2E2
310
E2E2E2E2E2E2E2E2E2E2E2E2E2E2E2E2E2E2E2E2E2E2E2E2E2E2E2E2E2E2E2E2E2E2E2E2E2E2E2E2E2E2E2E2E2E2E2E2E2E2E2E2E2E2E2E2E2E2E2E2E2E2E2E2E2E2E2E2E2E2E2E2E2E2E2E2E2E2E2E2E2E2E2E2E2E2E2E2E2E2E2E2E2E2E2E2F5E2E2E2E2E2E2E2E2E2E2E2E2E2E2E2E2F5E2E2E2F5F5E2E2E2F5E2E2E2E2
310
E2E2E2E2E2E2E2E2E2E2E2E2F5E2E2E2E2E2E2E2E2E2E2E2E2E2E2E2E2E2E2E2E2E2E2E2E2E2E2E2E2E2E2E2E2E2E2E2E2E2E2E2E2E2E2E2E2E2E2E2E2E2E2E2E2E2E2E2E2E2E2E2E2E2E2E2E2E2E2E2E2E2E2E2E2E2E2E2E2E2E2E2E2E2E2E2E2E2E2E2E2E2E2E2E2E2E2E2E2E2E2E2E2E2E2E2E2E2E2E2E2E2E2E2E2E2E2
310
E2E2E2E2E2E2E2E2E2E2E2E2E2E2E2E2E2E2E2E2E2E2F5E2E2E2E2E2E2E2E2E2E2E2E2E2E2E2E2F5E2E2E2F5F5E2E2E2F5E2E2E2E2E2E2E2E2E2E2E2E2E2E2E2E2F5E2E2E2E2E2E2E2E2E2E2E2E2E2E2E2E2E2E2E2E2E2E2E2E2E2E2E2E2E2E2E2E2E2E2E2E2E2E2E2E2E2E2E2E2E2E2E2E2E2E2E2E2E2E2E2E2E2E2E2E2E2
310
E2E2E2E2E2E2E2E2E2E2E2E2E2E2E2E2E2E2E2E2E2E2E2E2E2E2E2E2E2E2E2E2E2E2E2E2E2E2E2E2E2E2E2E2E2E2E2E2E2E2E2E2E2E2E2E2E2E2E2E2E2E2E2E2E2E2E2E2E2E2E2E2E2E2E2F5E2E2E2E2E2E2E2E2E2E2E2E2E2E2E2E2F5E2E2E2F5F5E2E2E2F5E2E2E2E2E2E2E2E2E2E2E2E2E2E2E2E2F5E2E2E2E2E2E2E2E2
310
E2E2E2E2E2E2E2E2E2E2E2E2E2E2E2E2E2E2E2E2E2E2E2E2E2E2E2E2E2E2E2E2E2E2E2E2E2E2E2E2E2E2E2E2E2E2E2E2E2E2E2E2E2E2E2E2E2E2E2E2E2E2E2E2E2E2E2E2E2E2E2E2E2E2E2E2E2E2E2E2E2E2E2E2E2E2E2E2E2E2E2E2E2E2E2E2E2E2E2E2E2E2E2E2E2E2E2E2E2E2E2E2E2E2E2E2E2E2E2E2E2E2E2E2E2E2E2
310
E2F5E2E2E2E2E2E2E2E2E2E2E2E2E2E2E2E2F5E2E2E2F5F5E2E2E2F5E2E2E2E2E2E2E2E2E2E2E2E2E2E2E2E2F5E2E2E2E2E2E2E2E2E2E2E2E2E2E2E2E2E2E2E2E2E2E2E2E2E2E2E2E2E2E2E2E2E2E2E2E2E2E2E2E2E2E2E2E2E2E2E2E2E2E2E2E2E2E2E2E2E2E2E2E2E2E2E2E2E2E2E2E2E2E2E2E2E2E2E2E2E2E2E2E2E2E2
310
E2E2E2E2E2E2E2E2E2E2E2E2E2E2E2E2E2E2E2E2E2E2E2E2E2E2E2E2E2E2E2E2E2E2E2E2E2E2E2E2E2E2E2E2E2E2E2E2E2E2E2E2E2E2F5E2E2E2E2E2E2E2E2E2E2E2E2E2E2E2E2F5E2E2E2F5F5E2E2E2F5E2E2E2E2E2E2E2E2E2E2E2E2E2E2E2E2F5E2E2E2E2E2E2E2E2E2E2E2E2E2E2E2E2E2E2E2E2E2E2E2E2E2E2E2E2E2
310
E2E2E2E2E2E2E2E2E2E2E2E2E2E2E2E2E2E2E2E2E2E2E2E2E2E2E2E2E2E2E2E2E2E2E2E2E2E2E2E2E2E2E2E2E2E2E2E2E2E2E2E2E2E2E2E2E2E2E2E2E2E2E2E2E2E2E2E2E2E2E2E2E2E2E2E2E2E2E2E2E2E2E2E2E2E2E2E2E2E2E2E2E2E2E2E2E2E2E2E2E2E2E2E2E2E2E2F5E2E2E2E2E2E2E2E2E2E2E2E2E2E2E2E2F5E2E2
310
E2F5F5E2E2E2F5E2E2E2E2E2E2E2E2E2E2E2E2E2E2E2E2F5E2E2E2E2E2E2E2E2E2E2E2E2E2E2E2E2E2E2E2E2E2E2E2E2E2E2E2E2E2E2E2E2E2E2E2E2E2E2E2E2E2E2E2E2E2E2E2E2E2E2E2E2E2E2E2E2E2E2E2E2E2E2E2E2E2E2E2E2E2E2E2E2E2E2E2E2E2E2E2E2E2E2E2E2E2E2E2E2E2E2E2E2E2E2E2E2E2E2E2E2E2E2E2
310
E2E2E2E2E2E2E2E2E2E2E2E2E2E2E2E2E2E2E2E2E2E2E2E2E2E2E2E2E2E2E2E2E2F5E2E2E2E2E2E2E2E2E2E2E2E2E2E2E2E2F5E2E2E2F5F5E2E2E2F5E2E2E2E2E2E2E2E2E2E2E2E2E2E2E2E2F5E2E2E2E2E2E2E2E2E2E2E2E2E2E2E2E2E2E2E2E2E2E2E2E2E2E2E2E2E2E2E2E2E2E2E2E2E2E2E2E2E2E2E2E2E2E2E2E2E2E2
310
E2E2E2E2E2E2E2E2E2E2E2E2E2E2E2E2E2E2E2E2E2E2E2E2E2E2E2E2E2E2E2E2E2E2E2E2E2E2E2E2E2E2E2E2E2E2E2E2E2E2E2E2E2E2E2E2E2E2E2E2E2E2E2E2E2E2E2E2E2E2E2E2E2E2E2E2E2E2E2E2E2E2E2E2E2E2F5E2E2E2E2E2E2E2E2E2E2E2E2E2E2E2E2F5E2E2E2F5F5E2E2E2F5E2E2E2E2E2E2E2E2E2E2E2E2E2E2
310
E2E2F5E2E2E2E2E2E2E2E2E2E2E2E2E2E2E2E2E2E2E2E2E2E2E2E2E2E2E2E2E2E2E2E2E2E2E2E2E2E2E2E2E2E2E2E2E2E2E2E2E2E2E2E2E2E2E2E2E2E2E2E2E2E2E2E2E2E2E2E2E2E2E2E2E2E2E2E2E2E2E2E2E2E2E2E2E2E2E2E2E2E2E2E2E2E2E2E2E2E2E2E2E2E2E2E2E2E2E2E2E2E2E2E2E2E2E2E2E2E2E2E2E2E2E2E2
310
E2E2E2E2E2E2E2E2E2E2E2E2F5E2E2E2E2E2E2E2E2E2E2E2E2E2E2E2E2F5E2E2E2F5F5E2E2E2F5E2E2E2E2E2E2E2E2E2E2E2E2E2E2E2E2F5E2E2E2E2E2E2E2E2E2E2E2E2E2E2E2E2E2E2E2E2E2E2E2E2E2E2E2E2E2E2E2E2E2E2E2E2E2E2E2E2E2E2E2E2E2E2E2E2E2E2E2E2E2E2E2E2E2E2E2E2E2E2E2E2E2E2E2E2E2E2E2
310
E2E2E2E2E2E2E2E2E2E2E2E2E2E2E2E2E2E2E2E2E2E2E2E2E2E2E2E2E2E2E2E2E2E2E2E2E2E2E2E2E2E2E2E2E2E2E2E2E2E2E2E2E2E2E2E2E2E2E2E2E2E2E2E2E2F5E2E2E2E2E2E2E2E2E2E2E2E2E2E2E2E2F5E2E2E2F5F5E2E2E2F5E2E2E2E2E2E2E2E2E2E2E2E2E2E2E2E2F5E2E2E2E2E2E2E2E2E2E2E2E2E2E2E2E2E2E2
310
E2E2E2E2E2E2E2E2E2E2E2E2E2E2E2E2E2E2E2E2E2E2E2E2E2E2E2E2E2E2E2E2E2E2E2E2E2E2E2E2E2E2E2E2E2E2E2E2E2E2E2E2E2E2E2E2E2E2E2E2E2E2E2E2E2E2E2E2E2E2E2E2E2E2E2E2E2E2E2E2E2E2E2E2E2E2E2E2E2E2E2E2E2E2E2E2E2E2E2E2E2E2E2E2E2E2E2E2E2E2E2E2E2E2E2E2E2E2F5E2E2E2E2E2E2E2E2
310
E2E2E2E2E2E2E2E2F5E2E2E2F5F5E2E2E2F5E2E2E2E2E2E2E2E2E2E2E2E2E2E2E2E2F5E2E2E2E2E2E2E2E2E2E2E2E2E2E2E2E2E2E2E2E2E2E2E2E2E2E2E2E2E2E2E2E2E2E2E2E2E2E2E2E2E2E2E2E2E2E2E2E2E2E2E2E2E2E2E2E2E2E2E2E2E2E2E2E2E2E2E2E2E2E2E2E2E2E2E2E2E2E2E2E2E2E2E2E2E2E2E2E2E2E2E2E2
310
E2E2E2E2E2E2E2E2E2E2E2E2E2E2E2E2E2E2E2E2E2E2E2E2E2E2E2E2E2E2E2E2E2E2E2E2E2E2E2E2E2E2E2E2F5E2E2E2E2E2E2E2E2E2E2E2E2E2E2E2E2F5E2E2E2F5F5E2E2E2F5E2E2E2E2E2E2E2E2E2E2E2E2E2E2E2E2F5E2E2E2E2E2E2E2E2E2E2E2E2E2E2E2E2E2E2E2E2E2E2E2E2E2E2E2E2E2E2E2E2E2E2E2E2E2E2E2
310
E2E2E2E2E2E2E2E2E2E2E2E2E2E2E2E2E2E2E2E2E2E2E2E2E2E2E2E2E2E2E2E2E2E2E2E2E2E2E2E2E2E2E2E2E2E2E2E2E2E2E2E2E2E2E2E2E2E2E2E2E2E2E2E2E2E2E2E2E2E2E2E2E2E2E2E2E2E2E2E2E2E2E2E2E2E2E2E2E2E2E2E2E2E2E2E2E2F5E2E2E2E2E2E2E2E2E2E2E2E2E2E2E2E2F5E2E2E2F5F5E2E2E2F5E2E2E2
310
E2E2E2E2E2E2E2E2E2E2E2E2E2F5E2E2E2E2E2E2E2E2E2E2E2E2E2E2E2E2E2E2E2E2E2E2E2E2E2E2E2E2E2E2E2E2E2E2E2E2E2E2E2E2E2E2E2E2E2E2E2E2E2E2E2E2E2E2E2E2E2E2E2E2E2E2E2E2E2E2E2E2E2E2E2E2E2E2E2E2E2E2E2E2E2E2E2E2E2E2E2E2E2E2E2E2E2E2E2E2E2E2E2E2E2E2E2E2E2E2E2E2E2E2E2E2E2
310
E2E2E2E2E2E2E2E2E2E2E2E2E2E2E2E2E2E2E2E2E2E2E2F5E2E2E2E2E2E2E2E2E2E2E2E2E2E2E2E2F5E2E2E2F5F5E2E2E2E2E2E2E2E2E2E2E2E2E2E2E2E2E2E2E2E2F5E2E2E2E2E2E2E2E2E2E2E2E2E2E2E2E2E2E2E2E2E2E2E2E2E2E2E2E2E2E2E2E2E2E2E2E2E2E2E2E2E2E2E2E2E2E2E2E2E2E2E2E2E2E2E2E2E2E2E2E2
310
E2E2E2E2E2E2E2E2E2E2E2E2E2E2E2E2E2E2E2E2E2E2E2E2E2E2E2E2E2E2E2E2E2E2E2E2E2E2E2E2E2E2E2E2E2E2E2E2E2E2E2E2E2E2E2E2E2E2E2E2E2E2E2E2E2E2E2E2E2E2E2E2E2E2E2E2F5E2E2E2E2E2E2E2E2E2E2E2E2E2E2E2E2E2E2E2E2F5F5E2E2E2E2E2E2E2E2E2E2E2E2E2E2E2E2E2E2E2E2F5E2E2E2E2E2E2E2
310
E2E2E2E2E2E2E2E2E2E2E2E2E2E2E2E2E2E2E2E2E2E2E2E2E2E2E2E2E2E2E2E2E2E2E2E2E2E2E2E2E2E2E2E2E2E2E2E2E2E2E2E2E2E2E2E2E2E2E2E2E2E2E2E2E2E2E2E2E2E2E2E2E2E2E2E2E2E2E2E2E2E2E2E2E2E2E2E2E2E2E2E2E2E2E2E2E2E2E2E2E2E2E2E2E2E2E2E2E2E2E2E2E2E2E2E2E2E2E2E2E2E2E2E2E2E2E2
310
E2E2F5E2E2E2E2E2E2E2E2E2E2E2E2E2E2E2E2E2E2E2E2F5F5E2E2E2E2E2E2E2E2E2E2E2E2E2E2E2E2E2E2E2E2F5E2E2E2E2E2E2E2E2E2E2E2E2E2E2E2E2E2E2E2E2E2E2E2E2E2E2E2E2E2E2E2E2E2E2E2E2E2E2E2E2E2E2E2E2E2E2E2E2E2E2E2E2E2E2E2E2E2E2E2E2E2E2E2E2E2E2E2E2E2E2E2E2E2E2E2E2E2E2E2E2E2
310
E2E2E2E2E2E2E2E2E2E2E2E2E2E2E2E2E2E2E2E2E2E2E2E2E2E2E2E2E2E2E2E2E2E2E2E2E2E2E2E2E2E2E2E2E2E2E2E2E2E2E2E2E2E2E2F5E2E2E2E2E2E2E2E2E2E2E2E2E2E2E2E2E2E2E2E2F5F5E2E2E2E2E2E2E2E2E2E2E2E2E2E2E2E2E2E2E2E2F5E2E2E2E2E2E2E2E2E2E2E2E2E2E2E2E2E2E2E2E2E2E2E2E2E2E2E2E2
310
E2E2E2E2E2E2E2E2E2E2E2E2E2E2E2E2E2E2E2E2E2E2E2E2E2E2E2E2E2E2E2E2E2E2E2E2E2E2E2E2E2E2E2E2E2E2E2E2E2E2E2E2E2E2E2E2E2E2E2E2E2E2E2E2E2E2E2E2E2E2E2E2E2E2E2E2E2E2E2E2E2E2E2E2E2E2E2E2E2E2E2E2E2E2E2E2E2E2E2E2E2E2E2E2E2E2E2E2F5E2E2E2E2E2E2E2E2E2E2E2E2E2E2E2E2E2E2
310
E2E2F5F5E2E2E2E2E2E2E2E2E2E2E2E2E2E2E2E2E2E2E2E2F5E2E2E2E2E2E2E2E2E2E2E2E2E2E2E2E2E2E2E2E2E2E2E2E2E2E2E2E2E2E2E2E2E2E2E2E2E2E2E2E2E2E2E2E2E2E2E2E2E2E2E2E2E2E2E2E2E2E2E2E2E2E2E2E2E2E2E2E2E2E2E2E2E2E2E2E2E2E2E2E2E2E2E2E2E2E2E2E2E2E2E2E2E2E2E2E2E2E2E2E2E2E2
310
E2E2E2E2E2E2E2E2E2E2E2E2E2E2E2E2E2E2E2E2E2E2E2E2E2E2E2E2E2E2E2E2E2E2F5E2E2E2E2E2E2E2E2E2E2E2E2E2E2E2E2E2E2E2E2F5F5E2E2E2E2E2E2E2E2E2E2E2E2E2E2E2E2E2E2E2E2F5E2E2E2E2E2E2E2E2E2E2E2E2E2E2E2E2E2E2E2E2E2E2E2E2E2E2E2E2E2E2E2E2E2E2E2E2E2E2E2E2E2E2E2E2E2E2E2E2E2
310
E2E2E2E2E2E2E2E2E2E2E2E2E2E2E2E2E2E2E2E2E2E2E2E2E2E2E2E2E2E2E2E2E2E2E2E2E2E2E2E2E2E2E2E2E2E2E2E2E2E2E2E2E2E2E2E2E2E2E2E2E2E2E2E2E2E2E2E2E2E2E2E2E2E2E2E2E2E2E2E2E2E2E2E2E2E2E2F5E2E2E2E2E2E2E2E2E2E2E2E2E2E2E2E2E2E2E2E2F5F5E2E2E2E2E2E2E2E2E2E2E2E2E2E2E2E2E2
310
E2E2E2F5E2E2E2E2E2E2E2E2E2E2E2E2E2E2E2E2E2E2E2E2E2E2E2E2E2E2E2E2E2E2E2E2E2E2E2E2E2E2E2E2E2E2E2E2E2E2E2E2E2E2E2E2E2E2E2E2E2E2E2E2E2E2E2E2E2E2E2E2E2E2E2E2E2E2E2E2E2E2E2E2E2E2E2E2E2E2E2E2E2E2E2E2E2E2E2E2E2E2E2E2E2E2E2E2E2E2E2E2E2E2E2E2E2E2E2E2E2E2E2E2E2E2E2
310
E2E2E2E2E2E2E2E2E2E2E2E2E2F5E2E2E2E2E2E2E2E2E2E2E2E2E2E2E2E2E2E2E2E2F5F5E2E2E2E2E2E2E2E2E2E2E2E2E2E2E2E2E2E2E2E2F5E2E2E2E2E2E2E2E2E2E2E2E2E2E2E2E2E2E2E2E2E2E2E2E2E2E2E2E2E2E2E2E2E2E2E2E2E2E2E2E2E2E2E2E2E2E2E2E2E2E2E2E2E2E2E2E2E2E2E2E2E2E2E2E2E2E2E2E2E2E2
310
E2E2E2E2E2E2E2E2E2E2E2E2E2E2E2E2E2E2E2E2E2E2E2E2E2E2E2E2E2E2E2E2E2E2E2E2E2E2E2E2E2E2E2E2E2E2E2E2E2E2E2E2E2E2E2E2E2E2E2E2E2E2E2E2E2E2F5E2E2E2E2E2E2E2E2E2E2E2E2E2E2E2E2E2E2E2E2F5F5E2E2E2E2E2E2E2E2E2E2E2E2E2E2E2E2E2E2E2E2F5E2E2E2E2E2E2E2E2E2E2E2E2E2E2E2E2E2
310
E2E2E2E2E2E2E2E2E2E2E2E2E2E2E2E2E2E2E2E2E2E2E2E2E2E2E2E2E2E2E2E2E2E2E2E2E2E2E2E2E2E2E2E2E2E2E2E2E2E2E2E2E2E2E2E2E2E2E2E2E2E2E2E2E2E2E2E2E2E2E2E2E2E2E2E2E2E2E2E2E2E2E2E2E2E2E2E2E2E2E2E2E2E2E2E2E2E2E2E2E2E2E2E2E2E2E2E2E2E2E2E2E2E2E2E2E2E2E2F5E2E2E2E2E2E2E2
310
E2E2E2E2E2E2E2E2E2E2E2E2E2F5F5E2E2E2F5E2E2E2E2E2E2E2E2E2E2E2E2E2E2E2E2F5E2E2E2E2E2E2E2E2E2E2E2E2E2E2E2E2E2E2E2E2E2E2E2E2E2E2E2E2E2E2E2E2E2E2E2E2E2E2E2E2E2E2E2E2E2E2E2E2E2E2E2E2E2E2E2E2E2E2E2E2E2E2E2E2E2E2E2E2E2E2E2E2E2E2E2E2E2E2E2E2E2E2E2E2E2E2E2E2E2E2E2
310
E2E2E2E2E2E2E2E2E2E2E2E2E2E2E2E2E2E2E2E2E2E2E2E2E2E2E2E2E2E2E2E2E2E2E2E2E2E2E2E2E2E2E2E2E2F5E2E2E2E2E2E2E2E2E2E2E2E2E2E2E2E2F5E2E2E2F5F5E2E2E2F5E2E2E2E2E2E2E2E2E2E2E2E2E2E2E2E2F5E2E2E2E2E2E2E2E2E2E2E2E2E2E2E2E2E2E2E2E2E2E2E2E2E2E2E2E2E2E2E2E2E2E2E2E2E2E2
310
E2E2E2E2E2E2E2E2E2E2E2E2E2E2E2E2E2E2E2E2E2E2E2E2E2E2E2E2E2E2E2E2E2E2E2E2E2E2E2E2E2E2E2E2E2E2E2E2E2E2E2E2E2E2E2E2E2E2E2E2E2E2E2E2E2E2E2E2E2E2E2E2E2E2E2E2E2E2E2E2E2E2E2E2E2E2E2E2E2E2E2E2E2E2E2E2E2E2F5E2E2E2E2E2E2E2E2E2E2E2E2E2E2E2E2F5E2E2E2F5F5E2E2E2F5E2E2
310
E2E2E2E2E2E2E2E2E2E2E2E2E2E2F5E2E2E2E2E2E2E2E2E2E2E2E2E2E2E2E2E2E2E2E2E2E2E2E2E2E2E2E2E2E2E2E2E2E2E2E2E2E2E2E2E2E2E2E2E2E2E2E2E2E2E2E2E2E2E2E2E2E2E2E2E2E2E2E2E2E2E2E2E2E2E2E2E2E2E2E2E2E2E2E2E2E2E2E2E2E2E2E2E2E2E2E2E2E2E2E2E2E2E2E2E2E2E2E2E2E2E2E2E2E2E2E2
310
E2E2E2E2E2E2E2E2E2E2E2E2E2E2E2E2E2E2E2E2E2E2E2E2F5E2E2E2E2E2E2E2E2E2E2E2E2E2E2E2E2F5E2E2E2F5F5E2E2E2F5E2E2E2E2E2E2E2E2E2E2E2E2E2E2E2E2F5E2E2E2E2E2E2E2E2E2E2E2E2E2E2E2E2E2E2E2E2E2E2E2E2E2E2E2E2E2E2E2E2E2E2E2E2E2E2E2E2E2E2E2E2E2E2E2E2E2E2E2E2E2E2E2E2E2E2E2
310
E2E2E2E2E2E2E2E2E2E2E2E2E2E2E2E2E2E2E2E2E2E2E2E2E2E2E2E2E2E2E2E2E2E2E2E2E2E2E2E2E2E2E2E2E2E2E2E2E2E2E2E2E2E2E2E2E2E2E2E2E2E2E2E2E2E2E2E2E2E2E2E2E2E2E2E2E2F5E2E2E2E2E2E2E2E2E2E2E2E2E2E2E2E2F5E2E2E2F5F5E2E2E2F5E2E2E2E2E2E2E2E2E2E2E2E2E2E2E2E2F5E2E2E2E2E2E2
310
E2E2E2E2E2E2E2E2E2E2E2E2E2E2E2E2E2E2E2E2E2E2E2E2E2E2E2E2E2E2E2E2E2E2E2E2E2E2E2E2E2E2E2E2E2E2E2E2E2E2E2E2E2E2E2E2E2E2E2E2E2E2E2E2E2E2E2E2E2E2E2E2E2E2E2E2E2E2E2E2E2E2E2E2E2E2E2E2E2E2E2E2E2E2E2E2E2E2E2E2E2E2E2E2E2E2E2E2E2E2E2E2E2E2E2E2E2E2E2E2E2E2E2E2E2E2E2
310
E2E2E2F5E2E2E2E2E2E2E2E2E2E2E2E2E2E2E2E2F5E2E2E2F5F5E2E2E2F5E2E2E2E2E2E2E2E2E2E2E2E2E2E2E2E2F5E2E2E2E2E2E2E2E2E2E2E2E2E2E2E2E2E2E2E2E2E2E2E2E2E2E2E2E2E2E2E2E2E2E2E2E2E2E2E2E2E2E2E2E2E2E2E2E2E2E2E2E2E2E2E2E2E2E2E2E2E2E2E2E2E2E2E2E2E2E2E2E2E2E2E2E2E2E2E2E2
310
E2E2E2E2E2E2E2E2E2E2E2E2E2E2E2E2E2E2E2E2E2E2E2E2E2E2E2E2E2E2E2E2E2E2E2E2E2E2E2E2E2E2E2E2E2E2E2E2E2E2E2E2E2E2E2E2F5E2E2E2E2E2E2E2E2E2E2E2E2E2E2E2E2F5E2E2E2F5F5E2E2E2F5E2E2E2E2E2E2E2E2E2E2E2E2E2E2E2E2F5E2E2E2E2E2E2E2E2E2E2E2E2E2E2E2E2E2E2E2E2E2E2E2E2E2E2E2
310
E2E2E2E2E2E2E2E2E2E2E2E2E2E2E2E2E2E2E2E2E2E2E2E2E2E2E2E2E2E2E2E2E2E2E2E2E2E2E2E2E2E2E2E2E2E2E2E2E2E2E2E2E2E2E2E2E2E2E2E2E2E2E2E2E2E2E2E2E2E2E2E2E2E2E2E2E2E2E2E2E2E2E2E2E2E2E2E2E2E2E2E2E2E2E2E2E2E2E2E2E2E2E2E2E2E2E2E2E2F5E2E2E2E2E2E2E2E2E2E2E2E2E2E2E2E2F5
310
E2E2E2F5F5E2E2E2F5E2E2E2E2E2E2E2E2E2E2E2E2E2E2E2E2F5E2E2E2E2E2E2E2E2E2E2E2E2E2E2E2E2E2E2E2E2E2E2E2E2E2E2E2E2E2E2E2E2E2E2E2E2E2E2E2E2E2E2E2E2E2E2E2E2E2E2E2E2E2E2E2E2E2E2E2E2E2E2E2E2E2E2E2E2E2E2E2E2E2E2E2E2E2E2E2E2E2E2E2E2E2E2E2E2E2E2E2E2E2E2E2E2E2E2E2E2E2
310
E2E2E2E2E2E2E2E2E2E2E2E2E2E2E2E2E2E2E2E2E2E2E2E2E2E2E2E2E2E2E2E2E2E2E2F5E2E2E2E2E2E2E2E2E2E2E2E2E2E2E2E2F5E2E2E2F5F5E2E2E2F5E2E2E2E2E2E2E2E2E2E2E2E2E2E2E2E2F5E2E2E2E2E2E2E2E2E2E2E2E2E2E2E2E2E2E2E2E2E2E2E2E2E2E2E2E2E2E2E2E2E2E2E2E2E2E2E2E2E2E2E2E2E2E2E2E2
310
E2E2E2E2E2E2E2E2E2E2E2E2E2E2E2E2E2E2E2E2E2E2E2E2E2E2E2E2E2E2E2E2E2E2E2E2E2E2E2E2E2E2E2E2E2E2E2E2E2E2E2E2E2E2E2E2E2E2E2E2E2E2E2E2E2E2E2E2E2E2E2E2E2E2E2E2E2E2E2E2E2E2E2E2E2E2E2E2F5E2E2E2E2E2E2E2E2E2E2E2E2E2E2E2E2F5E2E2E2F5F5E2E2E2F5E2E2E2E2E2E2E2E2E2E2E2E2
310
E2E2E2E2F5E2E2E2E2E2E2E2E2E2E2E2E2E2E2E2E2E2E2E2E2E2E2E2E2E2E2E2E2E2E2E2E2E2E2E2E2E2E2E2E2E2E2E2E2E2E2E2E2E2E2E2E2E2E2E2E2E2E2E2E2E2E2E2E2E2E2E2E2E2E2E2E2E2E2E2E2E2E2E2E2E2E2E2E2E2E2E2E2E2E2E2E2E2E2E2E2E2E2E2E2E2E2E2E2E2E2E2E2E2E2E2E2E2E2E2E2E2E2E2E2E2E2
310
E2E2E2E2E2E2E2E2E2E2E2E2E2E2F5E2E2E2E2E2E2E2E2E2E2E2E2E2E2E2E2F5E2E2E2F5F5E2E2E2F5E2E2E2E2E2E2E2E2E2E2E2E2E2E2E2E2F5E2E2E2E2E2E2E2E2E2E2E2E2E2E2E2E2E2E2E2E2E2E2E2E2E2E2E2E2E2E2E2E2E2E2E2E2E2E2E2E2E2E2E2E2E2E2E2E2E2E2E2E2E2E2E2E2E2E2E2E2E2E2E2E2E2E2E2E2E2
310
E2E2E2E2E2E2E2E2E2E2E2E2E2E2E2E2E2E2E2E2E2E2E2E2E2E2E2E2E2E2E2E2E2E2E2E2E2E2E2E2E2E2E2E2E2E2E2E2E2E2E2E2E2E2E2E2E2E2E2E2E2E2E2E2E2E2E2F5E2E2E2E2E2E2E2E2E2E2E2E2E2E2E2E2F5E2E2E2F5F5E2E2E2F5E2E2E2E2E2E2E2E2E2E2E2E2E2E2E2E2F5E2E2E2E2E2E2E2E2E2E2E2E2E2E2E2E2
310
E2E2E2E2E2E2E2E2E2E2E2E2E2E2E2E2E2E2E2E2E2E2E2E2E2E2E2E2E2E2E2E2E2E2E2E2E2E2E2E2E2E2E2E2E2E2E2E2E2E2E2E2E2E2E2E2E2E2E2E2E2E2E2E2E2E2E2E2E2E2E2E2E2E2E2E2E2E2E2E2E2E2E2E2E2E2E2E2E2E2E2E2E2E2E2E2E2E2E2E2E2E2E2E2E2E2E2E2E2E2E2E2E2E2E2E2E2E2E2E2F5E2E2E2E2E2E2
310
E2E2E2E2E2E2E2E2E2E2F5E2E2E2F5F5E2E2E2F5E2E2E2E2E2E2E2E2E2E2E2E2E2E2E2E2F5E2E2E2E2E2E2E2E2E2E2E2E2E2E2E2E2E2E2E2E2E2E2E2E2E2E2E2E2E2E2E2E2E2E2E2E2E2E2E2E2E2E2E2E2E2E2E2E2E2E2E2E2E2E2E2E2E2E2E2E2E2E2E2E2E2E2E2E2E2E2E2E2E2E2E2E2E2E2E2E2E2E2E2E2E2E2E2E2E2E2
310
E2E2E2E2E2E2E2E2E2E2E2E2E2E2E2E2E2E2E2E2E2E2E2E2E2E2E2E2E2E2E2E2E2E2E2E2E2E2E2E2E2E2E2E2E2E2F5E2E2E2E2E2E2E2E2E2E2E2E2E2E2E2E2F5E2E2E2F5F5E2E2E2F5E2E2E2E2E2E2E2E2E2E2E2E2E2E2E2E2F5E2E2E2E2E2E2E2E2E2E2E2E2E2E2E2E2E2E2E2E2E2E2E2E2E2E2E2E2E2E2E2E2E2E2E2E2E2
310
E2E2E2E2E2E2E2E2E2E2E2E2E2E2E2E2E2E2E2E2E2E2E2E2E2E2E2E2E2E2E2E2E2E2E2E2E2E2E2E2E2E2E2E2E2E2E2E2E2E2E2E2E2E2E2E2E2E2E2E2E2E2E2E2E2E2E2E2E2E2E2E2E2E2E2E2E2E2E2E2E2E2E2E2E2E2E2E2E2E2E2E2E2E2E2E2E2E2E2F5E2E2E2E2E2E2E2E2E2E2E2E2E2E2E2E2F5E2E2E2F5F5E2E2E2F5E2
310
E2E2E2E2E2E2E2E2E2E2E2E2E2E2E2F5E2E2E2E2E2E2E2E2E2E2E2E2E2E2E2E2E2E2E2E2E2E2E2E2E2E2E2E2E2E2E2E2E2E2E2E2E2E2E2E2E2E2E2E2E2E2E2E2E2E2E2E2E2E2E2E2E2E2E2E2E2E2E2E2E2E2E2E2E2E2E2E2E2E2E2E2E2E2E2E2E2E2E2E2E2E2E2E2E2E2E2E2E2E2E2E2E2E2E2E2E2E2E2E2E2E2E2E2E2E2E2
310
E2E2E2E2E2E2E2E2E2E2E2E2E2E2E2E2E2E2E2E2E2E2E2E2E2F5E2E2E2E2E2E2E2E2E2E2E2E2E2E2E2E2F5E2E2E2F5F5E2E2E2F5E2E2E2E2E2E2E2E2E2E2E2E2E2E2E2E2F5E2E2E2E2E2E2E2E2E2E2E2E2E2E2E2E2E2E2E2E2E2E2E2E2E2E2E2E2E2E2E2E2E2E2E2E2E2E2E2E2E2E2E2E2E2E2E2E2E2E2E2E2E2E2E2E2E2E2
310
E2E2E2E2E2E2E2E2E2E2E2E2E2E2E2E2E2E2E2E2E2E2E2E2E2E2E2E2E2E2E2E2E2E2E2E2E2E2E2E2E2E2E2E2E2E2E2E2E2E2E2E2E2E2E2E2E2E2E2E2E2E2E2E2E2E2E2E2E2E2E2E2E2E2E2E2E2E2F5E2E2E2E2E2E2E2E2E2E2E2E2E2E2E2E2F5E2E2E2F5F5E2E2E2F5E2E2E2E2E2E2E2E2E2E2E2E2E2E2E2E2F5E2E2E2E2E2
310
E2E2E2E2E2E2E2E2E2E2E2E2E2E2E2E2E2E2E2E2E2E2E2E2E2E2E2E2E2E2E2E2E2E2E2E2E2E2E2E2E2E2E2E2E2E2E2E2E2E2E2E2E2E2E2E2E2E2E2E2E2E2E2E2E2E2E2E2E2E2E2E2E2E2E2E2E2E2E2E2E2E2E2E2E2E2E2E2E2E2E2E2E2E2E2E2E2E2E2E2E2E2E2E2E2E2E2E2E2E2E2E2E2E2E2E2E2E2E2E2E2E2E2E2E2E2E2
310
E2E2E2E2F5E2E2E2E2E2E2E2E2E2E2E2E2E2E2E2E2F5E2E2E2F5F5E2E2E2E2E2E2E2E2E2E2E2E2E2E2E2E2E2E2E2E2F5E2E2E2E2E2E2E2E2E2E2E2E2E2E2E2E2E2E2E2E2E2E2E2E2E2E2E2E2E2E2E2E2E2E2E2E2E2E2E2E2E2E2E2E2E2E2E2E2E2E2E2E2E2E2E2E2E2E2E2E2E2E2E2E2E2E2E2E2E2E2E2E2E2E2E2E2E2E2E2
310
E2E2E2E2E2E2E2E2E2E2E2E2E2E2E2E2E2E2E2E2E2E2E2E2E2E2E2E2E2E2E2E2E2E2E2E2E2E2E2E2E2E2E2E2E2E2E2E2E2E2E2E2E2E2E2E2E2F5E2E2E2E2E2E2E2E2E2E2E2E2E2E2E2E2E2E2E2E2F5F5E2E2E2E2E2E2E2E2E2E2E2E2E2E2E2E2E2E2E2E2F5E2E2E2E2E2E2E2E2E2E2E2E2E2E2E2E2E2E2E2E2E2E2E2E2E2E2
310
E2E2E2E2E2E2E2E2E2E2E2E2E2E2E2E2E2E2E2E2E2E2E2E2E2E2E2E2E2E2E2E2E2E2E2E2E2E2E2E2E2E2E2E2E2E2E2E2E2E2E2E2E2E2E2E2E2E2E2E2E2E2E2E2E2E2E2E2E2E2E2E2E2E2E2E2E2E2E2E2E2E2E2E2E2E2E2E2E2E2E2E2E2E2E2E2E2E2E2E2E2E2E2E2E2E2E2E2E2E2F5E2E2E2E2E2E2E2E2E2E2E2E2E2E2E2E2
310
E2E2E2E2F5F5E2E2E2E2E2E2E2E2E2E2E2E2E2E2E2E2E2E2E2E2F5E2E2E2E2E2E2E2E2E2E2E2E2E2E2E2E2E2E2E2E2E2E2E2E2E2E2E2E2E2E2E2E2E2E2E2E2E2E2E2E2E2E2E2E2E2E2E2E2E2E2E2E2E2E2E2E2E2E2E2E2E2E2E2E2E2E2E2E2E2E2E2E2E2E2E2E2E2E2E2E2E2E2E2E2E2E2E2E2E2E2E2E2E2E2E2E2E2E2E2E2
310
E2E2E2E2E2E2E2E2E2E2E2E2E2E2E2E2E2E2E2E2E2E2E2E2E2E2E2E2E2E2E2E2E2E2E2E2F5E2E2E2E2E2E2E2E2E2E2E2E2E2E2E2E2E2E2E2E2F5F5E2E2E2E2E2E2E2E2E2E2E2E2E2E2E2E2E2E2E2E2F5E2E2E2E2E2E2E2E2E2E2E2E2E2E2E2E2E2E2E2E2E2E2E2E2E2E2E2E2E2E2E2E2E2E2E2E2E2E2E2E2E2E2E2E2E2E2E2
310
E2E2E2E2E2E2E2E2E2E2E2E2E2E2E2E2E2E2E2E2E2E2E2E2E2E2E2E2E2E2E2E2E2E2E2E2E2E2E2E2E2E2E2E2E2E2E2E2E2E2E2E2E2E2E2E2E2E2E2E2E2E2E2E2E2E2E2E2E2E2E2E2E2E2E2E2E2E2E2E2E2E2E2E2E2E2E2E2E2F5E2E2E2E2E2E2E2E2E2E2E2E2E2E2E2E2E2E2E2E2F5F5E2E2E2E2E2E2E2E2E2E2E2E2E2E2E2
310
E2E2E2E2E2F5F5F5F5F5F5F5F5F5F5F5F5F5F5F5F5F5F5F5F5F5F5F5F5F5F5F5F5F5F5F5F5F5F5F5F5F5F5F5F5F5F5F5F5F5F5F5F5F5F5F5F5F5F5F5F5F5F5F5F5F5F5F5F5F5F5F5F5F5F5F5F5F5F5F5F5F5F5F5F5F5F5F5F5F5F5F5F5F5F5F5F5F5F5F5F5F5F5F5F5F5F5F5F5F5F5F5F5F5F5F5F5F5F5F5F5F5F5F5F5F5F5
310
F5F5F5F5F5F5F5F5F5F5F5F5F5F5F5F5E2E2E2E2E2E2E2E2E2E2E2E2E2E2E2E2E2E2E2E2F5F5E2E2E2E2E2E2E2E2E2E2E2E2E2E2E2E2E2E2E2E2E2E2E2E2E2E2E2E2E2E2E2E2E2E2E2E2E2E2E2E2E2E2E2E2E2E2E2E2E2E2E2E2E2E2E2E2E2E2E2E2E2E2E2E2E2E2E2E2E2E2E2E2E2E2E2E2E2E2E2E2E2E2E2E2E2E2E2E2E2
310
E2E2E2E2E2E2E2E2E2E2E2E2E2E2E2E2E2E2E2E2E2E2E2E2E2E2E2E2E2E2E2E2E2E2E2E2E2E2E2E2E2E2E2E2E2E2E2E2E2E2E2E2E2E2E2E2E2E2E2E2E2E2E2E2E2E2E2E2E2E2E2E2E2E2E2E2E2E2E2E2E2E2E2E2E2E2E2E2E2F5F5E2E2E2E2E2E2E2E2E2E2E2E2E2E2E2E2E2E2E2E2E2E2E2E2E2E2E2E2E2E2E2E2E2E2E2E2
310
E2E2E2E2E2E2E2E2E2E2E2E2E2E2E2E2E2E2E2E2E2E2E2E2E2E2E2E2E2E2E2E2E2E2E2E2E2E2E2E2E2E2E2E2E2E2E2E2E2E2E2E2E2E2E2E2E2E2E2E2E2E2E2E2E2E2E2E2E2E2E2E2E2E2E2E2E2E2E2E2E2E2E2E2E2E2E2E2E2E2E2E2E2E2E2E2E2E2E2E2E2E2E2E2E2E2E2E2E2E2E2E2E2E2E2E2E2E2E2E2E2E2E2E2E2E2E2
310
E2E2E2E2E2E2E2E2E2E2E2E2E2E2E2F5F5E2E2E2E2E2E2E2E2E2E2E2E2E2E2E2E2E2E2E2E2E2E2E2E2E2E2E2E2E2E2E2E2E2E2E2E2E2E2E2E2E2E2E2E2E2E2E2E2E2E2E2E2E2E2E2E2E2E2E2E2E2E2E2E2E2E2E2E2E2E2E2E2E2E2E2E2E2E2E2E2E2E2E2E2E2E2E2E2E2E2E2E2E2E2E2E2E2E2E2E2E2E2E2E2E2E2E2E2E2E2
310
E2E2E2E2E2E2E2E2E2E2E2E2E2E2E2E2E2E2E2E2E2E2E2E2E2E2E2E2E2E2E2E2E2E2E2E2E2E2E2E2E2E2E2E2E2E2E2E2E2E2E2E2E2E2E2E2E2E2E2E2E2E2E2E2E2E2E2E2F5F5E2E2E2E2E2E2E2E2E2E2E2E2E2E2E2E2E2E2E2E2E2E2E2E2E2E2E2E2E2E2E2E2E2E2E2E2E2E2E2E2E2E2E2E2E2E2E2E2E2E2E2E2E2E2E2E2E2
310
E2E2E2E2E2E2E2E2E2E2E2E2E2E2E2E2E2E2E2E2E2E2E2E2E2E2E2E2E2E2E2E2E2E2E2E2E2E2E2E2E2E2E2E2E2E2E2E2E2E2E2E2E2E2E2E2E2E2E2E2E2E2E2E2E2E2E2E2E2E2E2E2E2E2E2E2E2E2E2E2E2E2E2E2E2E2E2E2E2E2E2E2E2E2E2E2E2E2E2E2E2E2E2E2E2E2E2E2E2E2E2E2E2E2E2E2E2E2E2E2E2F5F5E2E2E2F5
310
E2E2E2E2E2E2E2E2E2E2E2E2E2E2E2E2E2E2E2E2E2E2E2E2E2E2E2E2E2E2E2E2E2E2E2E2E2E2E2E2E2E2E2E2E2E2E2E2E2E2E2E2E2E2E2E2E2E2E2E2E2E2E2E2E2E2E2E2E2E2E2E2E2E2E2E2E2E2E2E2E2E2E2E2E2E2E2E2E2E2E2E2E2E2E2E2E2E2E2E2E2E2E2E2E2E2E2E2E2E2E2E2E2E2E2E2E2E2E2E2E2E2E2E2E2E2E2
310
E2E2E2E2E2E2E2E2E2E2E2E2E2E2E2E2E2E2E2E2E2E2E2E2E2E2E2E2E2E2E2E2E2E2E2E2E2E2E2E2E2E2E2F5E2E2E2F5F5E2E2E2F5E2E2E2E2E2E2E2E2E2E2E2E2E2E2E2E2E2E2E2E2E2E2E2E2E2E2E2E2E2E2E2E2E2E2E2E2E2E2E2E2E2E2E2E2E2E2E2E2E2E2E2E2E2E2E2E2E2E2E2E2E2E2E2E2E2E2E2E2E2E2E2E2E2E2
310
E2E2E2E2E2E2E2E2E2E2E2E2E2E2E2E2E2E2E2E2E2E2E2E2E2E2E2E2E2E2E2E2E2E2E2E2E2E2E2E2E2E2E2E2E2E2E2E2E2E2E2E2E2E2E2E2E2E2E2E2E2E2E2E2E2E2E2E2E2E2E2E2E2E2E2E2E2E2E2E2E2E2E2E2E2E2E2E2E2E2E2E2E2E2E2E2F5E2E2E2F5F5E2E2E2F5E2E2E2E2E2E2E2E2E2E2E2E2E2E2E2E2E2E2E2E2E2
310
E2E2E2E2E2E2E2E2E2E2E2E2E2E2E2E2E2E2E2E2E2E2E2E2E2E2E2E2E2E2E2E2E2E2E2E2E2E2E2E2E2E2E2E2E2E2E2E2E2E2E2E2E2E2E2E2E2E2E2E2E2E2E2E2E2E2E2E2E2E2E2E2E2E2E2E2E2E2E2E2E2E2E2E2E2E2E2E2E2E2E2E2E2E2E2E2E2E2E2E2E2E2E2E2E2E2E2E2E2E2E2E2E2E2E2E2E2E2E2E2E2E2E2E2E2E2E2
310
E2E2E2E2E2E2E2E2E2E2E2E2E2E2E2E2E2E2E2E2E2E2F5E2E2E2F5F5E2E2E2F5E2E2E2E2E2E2E2E2E2E2E2E2E2E2E2E2E2E2E2E2E2E2E2E2E2E2E2E2E2E2E2E2E2E2E2E2E2E2E2E2E2E2E2E2E2E2E2E2E2E2E2E2E2E2E2E2E2E2E2E2E2E2E2E2E2E2E2E2E2E2E2E2E2E2E2E2E2E2E2E2E2E2E2E2E2E2E2E2E2E2E2E2E2E2E2
310
E2E2E2E2E2E2E2E2E2E2E2E2E2E2E2E2E2E2E2E2E2E2E2E2E2E2E2E2E2E2E2E2E2E2E2E2E2E2E2E2E2E2E2E2E2E2E2E2E2E2E2E2E2E2E2E2E2E2E2E2E2E2E2E2E2E2E2E2E2E2E2E2E2E2E2F5E2E2E2F5F5E2E2E2F5E2E2E2E2E2E2E2E2E2E2E2E2E2E2E2E2E2E2E2E2E2E2E2E2E2E2E2E2E2E2E2E2E2E2E2E2E2E2E2E2E2E2
310
E2E2E2E2E2E2E2E2E2E2E2E2E2E2E2E2E2E2E2E2E2E2E2E2E2E2E2E2E2E2E2E2E2E2E2E2E2E2E2E2E2E2E2E2E2E2E2E2E2E2E2E2E2E2E2E2E2E2E2E2E2E2E2E2E2E2E2E2E2E2E2E2E2E2E2E2E2E2E2E2E2E2E2E2E2E2E2E2E2E2E2E2E2E2E2E2E2E2E2E2E2E2E2E2E2E2E2E2E2E2E2E2E2E2E2E2E2E2E2E2E2E2E2E2E2E2E2
310
E2F5E2E2E2F5F5E2E2E2F5E2E2E2E2E2E2E2E2E2E2E2E2E2E2E2E2E2E2E2E2E2E2E2E2E2E2E2E2E2E2E2E2E2E2E2E2E2E2E2E2E2E2E2E2E2E2E2E2E2E2E2E2E2E2E2E2E2E2E2E2E2E2E2E2E2E2E2E2E2E2E2E2E2E2E2E2E2E2E2E2E2E2E2E2E2E2E2E2E2E2E2E2E2E2E2E2E2E2E2E2E2E2E2E2E2E2E2E2E2E2E2E2E2E2E2E2
310
E2E2E2E2E2E2E2E2E2E2E2E2E2E2E2E2E2E2E2E2E2E2E2E2E2E2E2E2E2E2E2E2E2E2E2E2E2E2E2E2E2E2E2E2E2E2E2E2E2E2E2E2E2E2F5E2E2E2F5F5E2E2E2F5E2E2E2E2E2E2E2E2E2E2E2E2E2E2E2E2E2E2E2E2E2E2E2E2E2E2E2E2E2E2E2E2E2E2E2E2E2E2E2E2E2E2E2E2E2E2E2E2E2E2E2E2E2E2E2E2E2E2E2E2E2E2E2
310
E2E2E2E2E2E2E2E2E2E2E2E2E2E2E2E2E2E2E2E2E2E2E2E2E2E2E2E2E2E2E2E2E2E2E2E2E2E2E2E2E2E2E2E2E2E2E2E2E2E2E2E2E2E2E2E2E2E2E2E2E2E2E2E2E2E2E2E2E2E2E2E2E2E2E2E2E2E2E2E2E2E2E2E2E2E2E2E2E2E2E2E2E2E2E2E2E2E2E2E2E2E2E2E2E2E2E2F5E2E2E2F5F5E2E2E2F5E2E2E2E2E2E2E2E2E2E2
310
E2E2E2E2E2E2E2E2E2E2E2E2E2E2E2E2E2E2E2E2E2E2E2E2E2E2E2E2E2E2E2E2E2E2E2E2E2E2E2E2E2E2E2E2E2E2E2E2E2E2E2E2E2E2E2E2E2E2E2E2E2E2E2E2E2E2E2E2E2E2E2E2E2E2E2E2E2E2E2E2E2E2E2E2E2E2E2E2E2E2E2E2E2E2E2E2E2E2E2E2E2E2E2E2E2E2E2E2E2E2E2E2E2E2E2E2E2E2E2E2E2E2E2E2E2E2E2
310
E2E2E2E2E2E2E2E2E2E2E2E2E2E2E2E2E2E2E2E2E2E2E2E2E2E2E2E2E2E2E2E2E2F5E2E2E2F5F5E2E2E2F5F5F5F5F5F5F5F5E2E2E2E2E2E2E2E2E2F5F5F5F5F5F5F5F5F5F5F5F5F5F5F5F5E2E2E2E2E2E2E2E2E2F5F5F5F5F5F5F5F5F5F5F5F5F5F5F5E2E2E2E2E2E2E2E2E2F5F5F5F5F5F5F5F5F5F5F5F5F5F5F5F5E2E2E2
310
E2E2E2E2E2F5F5F5F5F5F5F5F5F5F5F5F5F5F5F5F5E2E2E2E2E2E2E2E2E2F5F5F5F5F5F5F5F5F5F5F5F5F5F5F5E2E2E2E2E2E2E2E2E2F5F5F5F5F5F5F5F5F5F5F5F5F5F5F5F5E2E2E2E2E2E2E2E2E2F5F5F5F5F5F5F5F5E2E2E2F5F5E2E2E2E2E2E2E2E2E2E2E2E2E2E2E2E2E2E2E2E2E2E2E2E2E2E2E2E2E2E2E2E2E2E2E2
310
E2E2E2E2E2E2E2E2E2E2E2E2E2E2E2E2E2E2E2E2E2E2E2E2E2E2E2E2E2E2E2E2E2E2E2E2E2E2E2E2E2E2E2E2E2E2E2E2E2E2E2E2E2E2E2E2E2E2E2E2E2E2E2E2E2E2E2E2E2E2E2E2E2E2E2E2E2E2E2E2E2E2E2E2E2E2E2E2E2E2E2E2E2E2E2E2E2E2E2E2E2E2E2E2E2E2E2E2E2E2E2E2E2E2E2E2E2E2E2E2E2E2E2E2E2E2E2
310
E2E2E2E2E2E2E2E2E2E2E2E2E2E2E2E2F5F5E2E2E2E2E2E2E2E2E2E2E2E2E2E2E2E2E2E2E2E2E2E2E2E2E2E2E2E2E2E2E2E2E2E2E2E2E2E2E2E2E2E2E2E2E2E2E2E2E2E2E2E2E2E2E2E2E2E2E2E2E2E2E2E2E2E2E2E2E2E2E2E2E2E2E2E2E2E2E2E2E2E2E2E2E2E2E2E2E2E2E2E2E2E2E2E2E2E2E2E2E2E2E2E2E2E2E2E2E2
310
E2E2E2E2E2E2E2E2E2E2E2E2E2E2E2E2E2E2E2E2E2E2E2E2E2E2E2E2E2E2E2E2E2E2E2E2E2E2E2E2E2E2E2E2E2E2E2E2E2E2E2E2E2E2E2E2E2E2E2E2E2E2E2E2E2E2E2E2E2F5F5E2E2E2E2E2E2E2E2E2E2E2E2E2E2E2E2E2E2E2E2E2E2E2E2E2E2E2E2E2E2E2E2E2E2E2E2E2E2E2E2E2E2E2E2E2E2E2E2E2E2E2E2E2E2E2E2
310
E2E2E2E2E2E2E2E2E2E2E2E2E2E2E2E2E2E2E2E2E2E2E2E2E2E2E2E2E2E2E2E2E2E2E2E2E2E2E2E2E2E2E2E2E2E2E2E2E2E2E2E2E2E2E2E2E2E2E2E2E2E2E2E2E2E2E2E2E2E2E2E2E2E2E2E2E2E2E2E2E2E2E2E2E2E2E2E2E2E2E2E2E2E2E2E2E2E2E2E2E2E2E2E2E2E2E2E2E2E2E2E2E2E2E2E2E2E2E2E2E2E2F5F5E2E2E2
310
E2E2E2E2E2E2E2E2E2E2E2E2E2E2E2E2E2E2E2E2E2E2E2E2E2E2E2E2E2E2E2E2E2E2E2E2E2E2E2E2E2E2E2E2E2E2E2E2E2E2E2E2E2E2E2E2E2E2E2E2E2E2E2E2E2E2E2E2E2E2E2E2E2E2E2E2E2E2E2E2E2E2E2E2E2E2E2E2E2E2E2E2E2E2E2E2E2E2E2E2E2E2E2E2E2E2E2E2E2E2E2E2E2E2E2E2E2E2E2E2E2E2E2E2E2E2E2
310
E2E2E2E2E2E2E2E2E2E2E2E2E2E2E2E2E2E2E2E2E2E2E2E2E2E2E2E2E2E2E2E2E2E2E2E2E2E2E2E2E2E2E2E2E2E2E2E2F5
  0
XRECORD
  5
5686A
102
{ACAD_REACTORS
330
56869
102
}
330
56869
100
AcDbXrecord
280
     1
102
SHADEPLOT
 70
     0
102
SHADEPLOTRESLEVEL
 70
     2
102
SHADEPLOTCUSTOMDPI
 70
   300
  0
ENDSEC
  0
EOF
