  0
SECTION
  2
HEADER
  9
$ACADVER
  1
AC1015
  9
$ACADMAINTVER
 70
    20
  9
$DWGCODEPAGE
  3
ANSI_936
  9
$INSBASE
 10
0.0
 20
0.0
 30
0.0
  9
$EXTMIN
 10
-125.4402099999999
 20
-155.9054576817225
 30
0.0
  9
$EXTMAX
 10
984.3223322381415
 20
146.0300163786225
 30
0.0
  9
$LIMMIN
 10
0.0
 20
0.0
  9
$LIMMAX
 10
420.0
 20
297.0
  9
$ORTHOMODE
 70
     0
  9
$REGENMODE
 70
     1
  9
$FILLMODE
 70
     1
  9
$QTEXTMODE
 70
     0
  9
$MIRRTEXT
 70
     1
  9
$LTSCALE
 40
1.0
  9
$ATTMODE
 70
     1
  9
$TEXTSIZE
 40
3.5
  9
$TRACEWID
 40
1.0
  9
$TEXTSTYLE
  7
simplex
  9
$CLAYER
  8
0
  9
$CELTYPE
  6
ByLayer
  9
$CECOLOR
 62
   256
  9
$CELTSCALE
 40
1.0
  9
$DISPSILH
 70
     0
  9
$DIMSCALE
 40
0.0
  9
$DIMASZ
 40
3.5
  9
$DIMEXO
 40
0.0
  9
$DIMDLI
 40
0.38
  9
$DIMRND
 40
0.0
  9
$DIMDLE
 40
0.0
  9
$DIMEXE
 40
1.5
  9
$DIMTP
 40
0.0
  9
$DIMTM
 40
0.0
  9
$DIMTXT
 40
3.5
  9
$DIMCEN
 40
0.09
  9
$DIMTSZ
 40
0.0
  9
$DIMTOL
 70
     0
  9
$DIMLIM
 70
     0
  9
$DIMTIH
 70
     0
  9
$DIMTOH
 70
     0
  9
$DIMSE1
 70
     0
  9
$DIMSE2
 70
     0
  9
$DIMTAD
 70
     1
  9
$DIMZIN
 70
     8
  9
$DIMBLK
  1

  9
$DIMASO
 70
     1
  9
$DIMSHO
 70
     1
  9
$DIMPOST
  1

  9
$DIMAPOST
  1

  9
$DIMALT
 70
     0
  9
$DIMALTD
 70
     2
  9
$DIMALTF
 40
25.4
  9
$DIMLFAC
 40
1.0
  9
$DIMTOFL
 70
     0
  9
$DIMTVP
 40
0.0
  9
$DIMTIX
 70
     0
  9
$DIMSOXD
 70
     0
  9
$DIMSAH
 70
     0
  9
$DIMBLK1
  1

  9
$DIMBLK2
  1

  9
$DIMSTYLE
  2
\M+18352\M+18373\M+1815B - ISO-25
  9
$DIMCLRD
 70
   256
  9
$DIMCLRE
 70
   256
  9
$DIMCLRT
 70
   256
  9
$DIMTFAC
 40
1.0
  9
$DIMGAP
 40
2.299999999999998
  9
$DIMJUST
 70
     0
  9
$DIMSD1
 70
     0
  9
$DIMSD2
 70
     0
  9
$DIMTOLJ
 70
     1
  9
$DIMTZIN
 70
     8
  9
$DIMALTZ
 70
     0
  9
$DIMALTTZ
 70
     0
  9
$DIMUPT
 70
     0
  9
$DIMDEC
 70
     2
  9
$DIMTDEC
 70
     2
  9
$DIMALTU
 70
     2
  9
$DIMALTTD
 70
     2
  9
$DIMTXSTY
  7
simplex
  9
$DIMAUNIT
 70
     0
  9
$DIMADEC
 70
     0
  9
$DIMALTRND
 40
0.0
  9
$DIMAZIN
 70
     0
  9
$DIMDSEP
 70
    46
  9
$DIMATFIT
 70
     3
  9
$DIMFRAC
 70
     0
  9
$DIMLDRBLK
  1

  9
$DIMLUNIT
 70
     2
  9
$DIMLWD
 70
    -1
  9
$DIMLWE
 70
    -1
  9
$DIMTMOVE
 70
     0
  9
$LUNITS
 70
     2
  9
$LUPREC
 70
     4
  9
$SKETCHINC
 40
1.0
  9
$FILLETRAD
 40
0.5
  9
$AUNITS
 70
     0
  9
$AUPREC
 70
     0
  9
$MENU
  1
.
  9
$ELEVATION
 40
0.0
  9
$PELEVATION
 40
0.0
  9
$THICKNESS
 40
0.0
  9
$LIMCHECK
 70
     0
  9
$CHAMFERA
 40
10.0
  9
$CHAMFERB
 40
10.0
  9
$CHAMFERC
 40
20.0
  9
$CHAMFERD
 40
0.0
  9
$SKPOLY
 70
     0
  9
$TDCREATE
 40
2455489.391063368
  9
$TDUCREATE
 40
2455489.057730035
  9
$TDUPDATE
 40
2458572.949049178
  9
$TDUUPDATE
 40
2458572.615715845
  9
$TDINDWG
 40
2.7259471991
  9
$TDUSRTIMER
 40
2.7258900231
  9
$USRTIMER
 70
     1
  9
$ANGBASE
 50
0.0
  9
$ANGDIR
 70
     0
  9
$PDMODE
 70
     0
  9
$PDSIZE
 40
0.0
  9
$PLINEWID
 40
0.0
  9
$SPLFRAME
 70
     0
  9
$SPLINETYPE
 70
     6
  9
$SPLINESEGS
 70
     8
  9
$HANDSEED
  5
56A59
  9
$SURFTAB1
 70
     6
  9
$SURFTAB2
 70
     6
  9
$SURFTYPE
 70
     6
  9
$SURFU
 70
     6
  9
$SURFV
 70
     6
  9
$UCSBASE
  2

  9
$UCSNAME
  2

  9
$UCSORG
 10
0.0
 20
0.0
 30
0.0
  9
$UCSXDIR
 10
1.0
 20
0.0
 30
0.0
  9
$UCSYDIR
 10
0.0
 20
1.0
 30
0.0
  9
$UCSORTHOREF
  2

  9
$UCSORTHOVIEW
 70
     0
  9
$UCSORGTOP
 10
0.0
 20
0.0
 30
0.0
  9
$UCSORGBOTTOM
 10
0.0
 20
0.0
 30
0.0
  9
$UCSORGLEFT
 10
0.0
 20
0.0
 30
0.0
  9
$UCSORGRIGHT
 10
0.0
 20
0.0
 30
0.0
  9
$UCSORGFRONT
 10
0.0
 20
0.0
 30
0.0
  9
$UCSORGBACK
 10
0.0
 20
0.0
 30
0.0
  9
$PUCSBASE
  2

  9
$PUCSNAME
  2

  9
$PUCSORG
 10
0.0
 20
0.0
 30
0.0
  9
$PUCSXDIR
 10
1.0
 20
0.0
 30
0.0
  9
$PUCSYDIR
 10
0.0
 20
1.0
 30
0.0
  9
$PUCSORTHOREF
  2

  9
$PUCSORTHOVIEW
 70
     0
  9
$PUCSORGTOP
 10
0.0
 20
0.0
 30
0.0
  9
$PUCSORGBOTTOM
 10
0.0
 20
0.0
 30
0.0
  9
$PUCSORGLEFT
 10
0.0
 20
0.0
 30
0.0
  9
$PUCSORGRIGHT
 10
0.0
 20
0.0
 30
0.0
  9
$PUCSORGFRONT
 10
0.0
 20
0.0
 30
0.0
  9
$PUCSORGBACK
 10
0.0
 20
0.0
 30
0.0
  9
$USERI1
 70
     0
  9
$USERI2
 70
     0
  9
$USERI3
 70
     0
  9
$USERI4
 70
     0
  9
$USERI5
 70
     0
  9
$USERR1
 40
0.0
  9
$USERR2
 40
0.0
  9
$USERR3
 40
0.0
  9
$USERR4
 40
0.0
  9
$USERR5
 40
0.0
  9
$WORLDVIEW
 70
     1
  9
$SHADEDGE
 70
     3
  9
$SHADEDIF
 70
    70
  9
$TILEMODE
 70
     1
  9
$MAXACTVP
 70
    64
  9
$PINSBASE
 10
0.0
 20
0.0
 30
0.0
  9
$PLIMCHECK
 70
     0
  9
$PEXTMIN
 10
26.66999878883364
 20
20.31999878883365
 30
0.0
  9
$PEXTMAX
 10
240.0299890995025
 20
182.8799890995025
 30
0.0
  9
$PLIMMIN
 10
-6.350006103515625
 20
-6.349999904632567
  9
$PLIMMAX
 10
273.0499877929688
 20
209.5499939918518
  9
$UNITMODE
 70
     0
  9
$VISRETAIN
 70
     1
  9
$PLINEGEN
 70
     0
  9
$PSLTSCALE
 70
     1
  9
$TREEDEPTH
 70
  3020
  9
$CMLSTYLE
  2
Standard
  9
$CMLJUST
 70
     0
  9
$CMLSCALE
 40
20.0
  9
$PROXYGRAPHICS
 70
     1
  9
$MEASUREMENT
 70
     1
  9
$CELWEIGHT
370
    -1
  9
$ENDCAPS
280
     0
  9
$JOINSTYLE
280
     0
  9
$LWDISPLAY
290
     0
  9
$INSUNITS
 70
     4
  9
$HYPERLINKBASE
  1

  9
$STYLESHEET
  1

  9
$XEDIT
290
     1
  9
$CEPSNTYPE
380
     0
  9
$PSTYLEMODE
290
     1
  9
$FINGERPRINTGUID
  2
{601DDA01-5B13-4A4C-8F56-1333B78D855B}
  9
$VERSIONGUID
  2
{A6B86CE9-011B-4D45-A2CF-13FBEF8E13D2}
  9
$EXTNAMES
290
     1
  9
$PSVPSCALE
 40
0.0
  9
$OLESTARTUP
290
     0
  0
ENDSEC
  0
SECTION
  2
CLASSES
  0
CLASS
  1
ACDBDICTIONARYWDFLT
  2
AcDbDictionaryWithDefault
  3
ObjectDBX Classes
 90
        0
280
     0
281
     0
  0
CLASS
  1
ACDBPLACEHOLDER
  2
AcDbPlaceHolder
  3
ObjectDBX Classes
 90
        0
280
     0
281
     0
  0
CLASS
  1
LAYOUT
  2
AcDbLayout
  3
ObjectDBX Classes
 90
        0
280
     0
281
     0
  0
CLASS
  1
DICTIONARYVAR
  2
AcDbDictionaryVar
  3
ObjectDBX Classes
 90
        0
280
     0
281
     0
  0
CLASS
  1
TABLESTYLE
  2
AcDbTableStyle
  3
ObjectDBX Classes
 90
     2047
280
     0
281
     0
  0
CLASS
  1
SORTENTSTABLE
  2
AcDbSortentsTable
  3
ObjectDBX Classes
 90
        0
280
     0
281
     0
  0
CLASS
  1
DIMASSOC
  2
AcDbDimAssoc
  3
"AcDbDimAssoc|Product Desc:     AcDim ARX App For Dimension|Company:          Autodesk, Inc.|WEB Address:      www.autodesk.com"
 90
        0
280
     0
281
     0
  0
CLASS
  1
ACAD_EVALUATION_GRAPH
  2
AcDbEvalGraph
  3
ObjectDBX Classes
 90
    33921
280
     0
281
     0
  0
CLASS
  1
ACAECUSTOBJ
  2
AcAeEditorObj
  3
AcAeEditorObj
 90
    33792
280
     0
281
     0
  0
CLASS
  1
ACDB_DYNAMICBLOCKPURGEPREVENTER_VERSION
  2
AcDbDynamicBlockPurgePreventer
  3
ObjectDBX Classes
 90
    33921
280
     0
281
     0
  0
ENDSEC
  0
SECTION
  2
TABLES
  0
TABLE
  2
VPORT
  5
8
330
0
100
AcDbSymbolTable
 70
     6
  0
VPORT
  5
56A4A
330
8
100
AcDbSymbolTableRecord
100
AcDbViewportTableRecord
  2
*Active
 70
     0
 10
0.0
 20
0.0
 11
1.0
 21
1.0
 12
66.16926932964452
 22
3.617377396001359
 13
0.0
 23
0.0
 14
10.0
 24
10.0
 15
10.0
 25
10.0
 16
0.0
 26
0.0
 36
1.0
 17
0.0
 27
0.0
 37
0.0
 40
516.0962586533888
 41
1.508350730688935
 42
50.0
 43
0.0
 44
0.0
 50
0.0
 51
0.0
 71
     0
 72
  1000
 73
     1
 74
     1
 75
     0
 76
     0
 77
     0
 78
     0
281
     0
 65
     1
110
0.0
120
0.0
130
0.0
111
1.0
121
0.0
131
0.0
112
0.0
122
1.0
132
0.0
 79
     0
146
0.0
  0
ENDTAB
  0
TABLE
  2
LTYPE
  5
5
330
0
100
AcDbSymbolTable
 70
     4
  0
LTYPE
  5
14
330
5
100
AcDbSymbolTableRecord
100
AcDbLinetypeTableRecord
  2
ByBlock
 70
     0
  3

 72
    65
 73
     0
 40
0.0
  0
LTYPE
  5
15
330
5
100
AcDbSymbolTableRecord
100
AcDbLinetypeTableRecord
  2
ByLayer
 70
     0
  3

 72
    65
 73
     0
 40
0.0
  0
LTYPE
  5
16
330
5
100
AcDbSymbolTableRecord
100
AcDbLinetypeTableRecord
  2
Continuous
 70
     0
  3
Solid line
 72
    65
 73
     0
 40
0.0
  0
LTYPE
  5
D7
330
5
100
AcDbSymbolTableRecord
100
AcDbLinetypeTableRecord
  2
HIDDEN
 70
     0
  3
Hidden __ __ __ __ __ __ __ __ __ __ __ __ __ _
 72
    65
 73
     2
 40
9.524999999999996
 49
6.349999999999997
 74
     0
 49
-3.174999999999998
 74
     0
  0
LTYPE
  5
D9
330
5
100
AcDbSymbolTableRecord
100
AcDbLinetypeTableRecord
  2
CENTER
 70
     0
  3
Center ____ _ ____ _ ____ _ ____ _ ____ _ ____
 72
    65
 73
     4
 40
50.8
 49
31.75
 74
     0
 49
-6.349999999999997
 74
     0
 49
6.349999999999997
 74
     0
 49
-6.349999999999997
 74
     0
  0
LTYPE
  5
35815
330
5
100
AcDbSymbolTableRecord
100
AcDbLinetypeTableRecord
  2
PHANTOM
 70
     0
  3
_____ _ _ _____ _ _ _____ _ _ _____
 72
    65
 73
     6
 40
0.8
 49
0.45
 74
     0
 49
-0.05
 74
     0
 49
0.1
 74
     0
 49
-0.05
 74
     0
 49
0.1
 74
     0
 49
-0.05
 74
     0
  0
ENDTAB
  0
TABLE
  2
LAYER
  5
2
102
{ACAD_XDICTIONARY
360
E2
102
}
330
0
100
AcDbSymbolTable
 70
    14
  0
LAYER
  5
10
330
2
100
AcDbSymbolTableRecord
100
AcDbLayerTableRecord
  2
0
 70
     0
 62
     7
  6
Continuous
370
    -3
390
F
  0
LAYER
  5
D1
330
2
100
AcDbSymbolTableRecord
100
AcDbLayerTableRecord
  2
1
 70
     0
 62
     4
  6
Continuous
370
    50
390
F
1001
AcAecLayerStandard
1000

1000

  0
LAYER
  5
D3
330
2
100
AcDbSymbolTableRecord
100
AcDbLayerTableRecord
  2
2
 70
     0
 62
     7
  6
Continuous
370
    25
390
F
1001
AcAecLayerStandard
1000

1000

  0
LAYER
  5
D4
330
2
100
AcDbSymbolTableRecord
100
AcDbLayerTableRecord
  2
3
 70
     0
 62
     1
  6
HIDDEN
370
    35
390
F
1001
AcAecLayerStandard
1000

1000

  0
LAYER
  5
D8
330
2
100
AcDbSymbolTableRecord
100
AcDbLayerTableRecord
  2
4
 70
     0
 62
     2
  6
CENTER
370
    25
390
F
1001
AcAecLayerStandard
1000

1000

  0
LAYER
  5
DA
330
2
100
AcDbSymbolTableRecord
100
AcDbLayerTableRecord
  2
6
 70
     0
 62
     5
  6
Continuous
370
    35
390
F
1001
AcAecLayerStandard
1000

1000

  0
LAYER
  5
DB
330
2
100
AcDbSymbolTableRecord
100
AcDbLayerTableRecord
  2
cut
 70
     0
 62
     1
  6
Continuous
370
    25
390
F
1001
AcAecLayerStandard
1000

1000

  0
LAYER
  5
DC
330
2
100
AcDbSymbolTableRecord
100
AcDbLayerTableRecord
  2
nocut
 70
     0
 62
     7
  6
Continuous
370
    25
390
F
1001
AcAecLayerStandard
1000

1000

  0
LAYER
  5
DD
330
2
100
AcDbSymbolTableRecord
100
AcDbLayerTableRecord
  2
sk1
 70
     0
 62
     4
  6
Continuous
370
    50
390
F
1001
AcAecLayerStandard
1000

1000

  0
LAYER
  5
DE
330
2
100
AcDbSymbolTableRecord
100
AcDbLayerTableRecord
  2
sk2
 70
     0
 62
     7
  6
Continuous
370
    25
390
F
1001
AcAecLayerStandard
1000

1000

  0
LAYER
  5
DF
330
2
100
AcDbSymbolTableRecord
100
AcDbLayerTableRecord
  2
sk3
 70
     0
 62
     1
  6
HIDDEN
370
    35
390
F
1001
AcAecLayerStandard
1000

1000

  0
LAYER
  5
E0
330
2
100
AcDbSymbolTableRecord
100
AcDbLayerTableRecord
  2
sk4
 70
     0
 62
     2
  6
CENTER
370
    25
390
F
1001
AcAecLayerStandard
1000

1000

  0
LAYER
  5
E1
330
2
100
AcDbSymbolTableRecord
100
AcDbLayerTableRecord
  2
sk6
 70
     0
 62
     5
  6
Continuous
370
    35
390
F
1001
AcAecLayerStandard
1000

1000

  0
LAYER
  5
31B6
330
2
100
AcDbSymbolTableRecord
100
AcDbLayerTableRecord
  2
Defpoints
 70
     0
 62
     7
  6
Continuous
290
     0
370
    -3
390
F
  0
ENDTAB
  0
TABLE
  2
STYLE
  5
3
330
0
100
AcDbSymbolTable
 70
    12
  0
STYLE
  5
11
330
3
100
AcDbSymbolTableRecord
100
AcDbTextStyleTableRecord
  2
Standard
 70
     0
 40
0.0
 41
1.0
 50
0.0
 71
     0
 42
2.5
  3
txt.shx
  4
@extfont2.shx
  0
STYLE
  5
D6
330
3
100
AcDbSymbolTableRecord
100
AcDbTextStyleTableRecord
  2

 70
     1
 40
0.0
 41
1.0
 50
0.0
 71
     0
 42
2.5
  3
ltypeshp.shx
  4

  0
STYLE
  5
24A
330
3
100
AcDbSymbolTableRecord
100
AcDbTextStyleTableRecord
  2
simplex
 70
     0
 40
3.5
 41
1.0
 50
0.0
 71
     0
 42
3.5
  3
txt.shx
  4

  0
STYLE
  5
69E
330
3
100
AcDbSymbolTableRecord
100
AcDbTextStyleTableRecord
  2
MX_NOTE_STANDARD
 70
     0
 40
0.0
 41
1.0
 50
0.0
 71
     0
 42
4.2
  3
txt.shx
  4
extfont.shx
  0
STYLE
  5
3524
330
3
100
AcDbSymbolTableRecord
100
AcDbTextStyleTableRecord
  2
TEXTSTYLE_2
 70
     0
 40
0.0
 41
0.775
 50
0.0
 71
     0
 42
0.2
  3
gdt
  4

  0
STYLE
  5
3525
330
3
100
AcDbSymbolTableRecord
100
AcDbTextStyleTableRecord
  2
TEXTSTYLE_3
 70
     0
 40
0.0
 41
0.75
 50
0.0
 71
     0
 42
0.2
  3
txt
  4

  0
STYLE
  5
3526
330
3
100
AcDbSymbolTableRecord
100
AcDbTextStyleTableRecord
  2
TEXTSTYLE_13
 70
     0
 40
0.0
 41
1.0
 50
0.0
 71
     0
 42
0.2
  3
txt
  4

  0
STYLE
  5
519A
330
3
100
AcDbSymbolTableRecord
100
AcDbTextStyleTableRecord
  2
TEXTSTYLE_14
 70
     0
 40
0.0
 41
1.0
 50
0.0
 71
     0
 42
0.2
  3
txt
  4

  0
STYLE
  5
6F72
330
3
100
AcDbSymbolTableRecord
100
AcDbTextStyleTableRecord
  2
TEXTSTYLE_4
 70
     0
 40
0.0
 41
0.75
 50
0.0
 71
     0
 42
0.2
  3
txt
  4

  0
STYLE
  5
6F73
330
3
100
AcDbSymbolTableRecord
100
AcDbTextStyleTableRecord
  2
TEXTSTYLE_17
 70
     0
 40
0.0
 41
1.0
 50
0.0
 71
     0
 42
0.2
  3
txt
  4

  0
STYLE
  5
FE12
330
3
100
AcDbSymbolTableRecord
100
AcDbTextStyleTableRecord
  2
TEXTSTYLE_12
 70
     0
 40
0.0
 41
1.0
 50
0.0
 71
     0
 42
0.2
  3
txt
  4

  0
STYLE
  5
3AAB8
330
3
100
AcDbSymbolTableRecord
100
AcDbTextStyleTableRecord
  2
TEXTSTYLE_20
 70
     0
 40
0.0
 41
0.6
 50
0.0
 71
     0
 42
0.2
  3
txt
  4

  0
ENDTAB
  0
TABLE
  2
VIEW
  5
6
330
0
100
AcDbSymbolTable
 70
     0
  0
ENDTAB
  0
TABLE
  2
UCS
  5
7
330
0
100
AcDbSymbolTable
 70
     0
  0
ENDTAB
  0
TABLE
  2
APPID
  5
9
330
0
100
AcDbSymbolTable
 70
    11
  0
APPID
  5
12
330
9
100
AcDbSymbolTableRecord
100
AcDbRegAppTableRecord
  2
ACAD
 70
     0
  0
APPID
  5
D2
330
9
100
AcDbSymbolTableRecord
100
AcDbRegAppTableRecord
  2
AcAecLayerStandard
 70
     0
  0
APPID
  5
E6
330
9
100
AcDbSymbolTableRecord
100
AcDbRegAppTableRecord
  2
ACAD_DSTYLE_DIMTEXT_FILL
 70
     0
  0
APPID
  5
4C84
330
9
100
AcDbSymbolTableRecord
100
AcDbRegAppTableRecord
  2
ACAD_EXEMPT_FROM_CAD_STANDARDS
 70
     0
  0
APPID
  5
3493E
330
9
100
AcDbSymbolTableRecord
100
AcDbRegAppTableRecord
  2
DCO15
 70
     0
  0
APPID
  5
3BAB0
330
9
100
AcDbSymbolTableRecord
100
AcDbRegAppTableRecord
  2
ACAD_DSTYLE_DIMEXT_ENABLED
 70
     0
  0
APPID
  5
3BAB1
330
9
100
AcDbSymbolTableRecord
100
AcDbRegAppTableRecord
  2
ACAD_DSTYLE_DIMEXT_LENGTH
 70
     0
  0
APPID
  5
3BEB4
330
9
100
AcDbSymbolTableRecord
100
AcDbRegAppTableRecord
  2
ACAUTHENVIRON
 70
     0
  0
APPID
  5
3BEB7
330
9
100
AcDbSymbolTableRecord
100
AcDbRegAppTableRecord
  2
AcDbDynamicBlockTrueName
 70
     0
  0
APPID
  5
3BEB8
330
9
100
AcDbSymbolTableRecord
100
AcDbRegAppTableRecord
  2
AcDbDynamicBlockGUID
 70
     0
  0
APPID
  5
3BEBA
330
9
100
AcDbSymbolTableRecord
100
AcDbRegAppTableRecord
  2
AcDbBlockRepETag
 70
     0
  0
ENDTAB
  0
TABLE
  2
DIMSTYLE
  5
A
330
0
100
AcDbSymbolTable
 70
    11
100
AcDbDimStyleTable
 71
     5
340
1BF
340
27
340
352A
340
3527
340
69F
  0
DIMSTYLE
105
27
330
A
100
AcDbSymbolTableRecord
100
AcDbDimStyleTableRecord
  2
ISO-25
 70
     0
 41
2.5
 42
0.625
 43
3.75
 44
1.25
 73
     0
 74
     0
 77
     1
 78
     8
140
2.5
141
2.5
143
0.03937007874016
147
0.625
171
     3
172
     1
271
     2
272
     2
274
     3
278
    44
283
     0
284
     8
340
11
  0
DIMSTYLE
105
1BF
102
{ACAD_REACTORS
330
56735
330
56738
330
5677C
330
5677F
330
5678C
330
567ED
330
56835
102
}
330
A
100
AcDbSymbolTableRecord
100
AcDbDimStyleTableRecord
  2
\M+18352\M+18373\M+1815B - ISO-25
 70
     0
 40
0.0
 41
3.5
 42
0.0
 44
1.5
 73
     0
 74
     0
 77
     1
 78
     8
140
3.5
147
2.299999999999998
176
   256
177
   256
178
   256
271
     2
272
     2
284
     8
340
24A
371
    -1
372
    -1
  0
DIMSTYLE
105
69F
330
A
100
AcDbSymbolTableRecord
100
AcDbDimStyleTableRecord
  2
MXDIMSTYLE
 70
     0
 41
2.5
 42
0.5
 43
3.75
 44
1.5
 73
     0
 74
     0
 77
     1
 78
     8
140
4.2
141
2.5
143
0.03937
147
1.0
171
     4
172
     1
173
     1
271
     2
272
     2
274
     4
283
     0
288
     1
340
69E
341
697
343
697
344
697
  0
DIMSTYLE
105
3527
330
A
100
AcDbSymbolTableRecord
100
AcDbDimStyleTableRecord
  2
STANDARD
 70
     0
 41
3.0
 47
0.001
 48
0.001
 71
     1
 73
     0
 74
     0
 77
     1
 78
     8
140
4.0
271
     3
272
     3
284
     8
340
11
341
34B1
342
34B1
343
34B1
344
34B1
  0
DIMSTYLE
105
3528
330
A
100
AcDbSymbolTableRecord
100
AcDbDimStyleTableRecord
  2
DIMSTYLE_1
 70
     0
 41
3.0
 73
     0
 74
     0
 77
     1
 78
     8
140
4.0
271
     3
272
     3
284
     8
340
11
341
34B1
342
34B1
343
34B1
344
34B1
  0
DIMSTYLE
105
3529
330
A
100
AcDbSymbolTableRecord
100
AcDbDimStyleTableRecord
  2
DIMSTYLE_2
 70
     0
 41
3.0
 47
0.001
 48
0.001
 73
     0
 74
     0
 77
     1
 78
     8
140
4.0
271
     3
272
     3
284
     8
340
11
341
34B1
342
34B1
343
34B1
344
34B1
  0
DIMSTYLE
105
352A
330
A
100
AcDbSymbolTableRecord
100
AcDbDimStyleTableRecord
  2
DIMSTYLE_3
 70
     0
 41
3.0
 47
-0.1
 48
0.3
 71
     1
 73
     0
 74
     0
 77
     1
 78
     8
140
4.0
146
0.5
271
     3
272
     3
284
     8
340
11
341
34B1
342
34B1
343
34B1
344
34B1
  0
DIMSTYLE
105
352B
330
A
100
AcDbSymbolTableRecord
100
AcDbDimStyleTableRecord
  2
DIMSTYLE_4
 70
     0
 41
3.0
 47
0.1
 48
0.1
 71
     1
 73
     0
 74
     0
 77
     1
 78
     8
140
4.0
271
     3
272
     3
284
     8
340
11
341
34B1
342
34B1
343
34B1
344
34B1
  0
DIMSTYLE
105
27245
330
A
100
AcDbSymbolTableRecord
100
AcDbDimStyleTableRecord
  2
DIMSTYLE_5
 70
     0
 41
3.0
 47
0.001
 48
0.001
 73
     0
 74
     0
 77
     1
 78
     8
140
4.0
271
     3
272
     3
284
     8
340
11
341
34B1
342
34B1
343
34B1
344
34B1
  0
DIMSTYLE
105
3AAB9
330
A
100
AcDbSymbolTableRecord
100
AcDbDimStyleTableRecord
  2
DIMSTYLE_6
 70
     0
 41
3.0
 42
0.0
 44
1.0
 47
0.05
 48
0.05
 71
     1
 73
     0
 74
     0
 77
     1
 78
     8
140
4.0
147
1.0
271
     3
272
     3
284
     8
340
11
341
34B1
342
34B1
343
34B1
344
34B1
  0
DIMSTYLE
105
532EA
330
A
100
AcDbSymbolTableRecord
100
AcDbDimStyleTableRecord
  2
NEW-DIMSTYLE
 70
     0
 40
0.0
 41
4.57
 42
0.0
 44
5.0
 73
     0
 74
     0
 77
     1
 78
     8
140
4.57
147
2.299999999999998
271
     2
340
24A
  0
ENDTAB
  0
TABLE
  2
BLOCK_RECORD
  5
1
330
0
100
AcDbSymbolTable
 70
   129
  0
BLOCK_RECORD
  5
1F
102
{ACAD_XDICTIONARY
360
31EE
102
}
330
1
100
AcDbSymbolTableRecord
100
AcDbBlockTableRecord
  2
*Model_Space
340
22
  0
BLOCK_RECORD
  5
50
330
1
100
AcDbSymbolTableRecord
100
AcDbBlockTableRecord
  2
*Paper_Space
340
51
  0
BLOCK_RECORD
  5
55
330
1
100
AcDbSymbolTableRecord
100
AcDbBlockTableRecord
  2
*Paper_Space0
340
56
  0
BLOCK_RECORD
  5
680
102
{ACAD_XDICTIONARY
360
3BEB2
102
}
330
1
100
AcDbSymbolTableRecord
100
AcDbBlockTableRecord
  2
zero block
340
0
102
{BLKREFS
331
68C
102
}
1001
ACAD
1000
DesignCenter Data
1002
{
1070
     1
1070
     4
1002
}
1001
AcDbDynamicBlockGUID
1000
{C2E8894D-A8DA-456D-ABB6-198B00672C1A}
1001
AcDbBlockRepETag
1070
     1
1071
        7
  0
BLOCK_RECORD
  5
697
330
1
100
AcDbSymbolTableRecord
100
AcDbBlockTableRecord
  2
_OPEN30
340
0
  0
BLOCK_RECORD
  5
34B1
330
1
100
AcDbSymbolTableRecord
100
AcDbBlockTableRecord
  2
_OPEN
340
0
  0
BLOCK_RECORD
  5
50E6F
330
1
100
AcDbSymbolTableRecord
100
AcDbBlockTableRecord
  2
_None
340
0
  0
BLOCK_RECORD
  5
54C03
330
1
100
AcDbSymbolTableRecord
100
AcDbBlockTableRecord
  2
*D10
340
0
  0
BLOCK_RECORD
  5
56915
330
1
100
AcDbSymbolTableRecord
100
AcDbBlockTableRecord
  2
*D117
340
0
  0
BLOCK_RECORD
  5
56921
330
1
100
AcDbSymbolTableRecord
100
AcDbBlockTableRecord
  2
*D118
340
0
  0
BLOCK_RECORD
  5
5692D
330
1
100
AcDbSymbolTableRecord
100
AcDbBlockTableRecord
  2
*D119
340
0
  0
BLOCK_RECORD
  5
56944
330
1
100
AcDbSymbolTableRecord
100
AcDbBlockTableRecord
  2
*D121
340
0
  0
BLOCK_RECORD
  5
5697A
330
1
100
AcDbSymbolTableRecord
100
AcDbBlockTableRecord
  2
*D125
340
0
  0
BLOCK_RECORD
  5
569A3
330
1
100
AcDbSymbolTableRecord
100
AcDbBlockTableRecord
  2
*D126
340
0
  0
BLOCK_RECORD
  5
569C7
330
1
100
AcDbSymbolTableRecord
100
AcDbBlockTableRecord
  2
*D128
340
0
  0
ENDTAB
  0
ENDSEC
  0
SECTION
  2
BLOCKS
  0
BLOCK
  5
20
330
1F
100
AcDbEntity
  8
0
100
AcDbBlockBegin
  2
*Model_Space
 70
     0
 10
0.0
 20
0.0
 30
0.0
  3
*Model_Space
  1

  0
ENDBLK
  5
21
330
1F
100
AcDbEntity
  8
0
100
AcDbBlockEnd
  0
BLOCK
  5
52
330
50
100
AcDbEntity
 67
     1
  8
0
100
AcDbBlockBegin
  2
*Paper_Space
 70
     0
 10
0.0
 20
0.0
 30
0.0
  3
*Paper_Space
  1

  0
ENDBLK
  5
53
330
50
100
AcDbEntity
 67
     1
  8
0
100
AcDbBlockEnd
  0
BLOCK
  5
57
330
55
100
AcDbEntity
 67
     1
  8
0
100
AcDbBlockBegin
  2
*Paper_Space0
 70
     0
 10
0.0
 20
0.0
 30
0.0
  3
*Paper_Space0
  1

  0
VIEWPORT
  5
71
102
{ACAD_XDICTIONARY
360
56A55
102
}
330
55
100
AcDbEntity
 67
     1
  8
0
100
AcDbViewport
 10
150.1652135264906
 20
101.599997546291
 30
0.0
 40
339.1973820494347
 41
164.5360435314421
 68
     0
 69
     0
 12
150.1652135264906
 22
101.599997546291
 13
0.0
 23
0.0
 14
10.0
 24
10.0
 15
10.0
 25
10.0
 16
0.0
 26
0.0
 36
1.0
 17
0.0
 27
0.0
 37
0.0
 42
50.0
 43
0.0
 44
0.0
 45
164.5360435314421
 50
0.0
 51
0.0
 72
  1000
 90
    32864
  1

281
     0
 71
     1
 74
     0
110
0.0
120
0.0
130
0.0
111
1.0
121
0.0
131
0.0
112
0.0
122
1.0
132
0.0
 79
     0
146
0.0
  0
VIEWPORT
  5
73
102
{ACAD_XDICTIONARY
360
56A57
102
}
330
55
100
AcDbEntity
 67
     1
  8
0
100
AcDbViewport
 10
133.3499939441681
 20
101.5999939441681
 30
0.0
 40
213.3599903106689
 41
162.5599903106689
 68
     0
 69
     0
 12
210.0
 22
148.5
 13
0.0
 23
0.0
 14
10.0
 24
10.0
 15
10.0
 25
10.0
 16
0.0
 26
0.0
 36
1.0
 17
0.0
 27
0.0
 37
0.0
 42
50.0
 43
0.0
 44
0.0
 45
324.0677920111345
 50
0.0
 51
0.0
 72
   100
 90
    32864
  1

281
     0
 71
     1
 74
     0
110
0.0
120
0.0
130
0.0
111
1.0
121
0.0
131
0.0
112
0.0
122
1.0
132
0.0
 79
     0
146
0.0
  0
ENDBLK
  5
58
330
55
100
AcDbEntity
 67
     1
  8
0
100
AcDbBlockEnd
  0
BLOCK
  5
68A
330
680
100
AcDbEntity
  8
0
100
AcDbBlockBegin
  2
zero block
 70
     0
 10
0.0
 20
0.0
 30
0.0
  3
zero block
  1

  0
HATCH
  5
3BEAB
330
680
100
AcDbEntity
  8
0
 62
     7
100
AcDbHatch
 10
0.0
 20
0.0
 30
0.0
210
0.0
220
0.0
230
1.0
  2
SOLID
 70
     1
 71
     0
 91
        2
 92
        7
 72
     1
 73
     1
 93
        3
 10
0.0
 20
0.9999999999999875
 42
0.4142135623730915
 10
-1.0
 20
0.0
 42
0.0
 10
0.0
 20
0.0
 42
0.0
 97
        0
 92
        7
 72
     1
 73
     1
 93
        3
 10
1.000000000000007
 20
0.0
 42
0.0
 10
0.0
 20
0.0
 42
0.0
 10
0.0
 20
-1.0
 42
0.4142135623730974
 97
        0
 75
     0
 76
     1
 47
0.0090601366782909
 98
        2
 10
-0.380591363650975
 20
0.4885804701532896
 10
0.4350764810977559
 20
-0.4536738423704725
1001
AcDbBlockRepETag
1070
     1
1071
        0
1005
3BEAB
  0
LINE
  5
3BEAC
330
680
100
AcDbEntity
  8
0
 62
     7
 48
0.2
100
AcDbLine
 10
-1.0
 20
0.0
 30
0.0
 11
1.000000000000007
 21
0.0
 31
0.0
1001
AcDbBlockRepETag
1070
     1
1071
        1
1005
3BEAC
  0
LINE
  5
3BEAD
330
680
100
AcDbEntity
  8
0
 62
     7
 48
0.2
100
AcDbLine
 10
0.0
 20
-1.0
 30
0.0
 11
0.0
 21
0.9999999999999875
 31
0.0
1001
AcDbBlockRepETag
1070
     1
1071
        2
1005
3BEAD
  0
ARC
  5
3BEAE
330
680
100
AcDbEntity
  8
0
 62
     7
 48
0.2
100
AcDbCircle
 10
0.0
 20
0.0
 30
0.0
 40
1.0
100
AcDbArc
 50
270.0
 51
0.0
1001
AcDbBlockRepETag
1070
     1
1071
        3
1005
3BEAE
  0
ARC
  5
3BEAF
330
680
100
AcDbEntity
  8
0
 62
     7
 48
0.2
100
AcDbCircle
 10
0.0
 20
0.0
 30
0.0
 40
1.0
100
AcDbArc
 50
0.0
 51
90.0
1001
AcDbBlockRepETag
1070
     1
1071
        4
1005
3BEAF
  0
ARC
  5
3BEB0
330
680
100
AcDbEntity
  8
0
 62
     7
 48
0.2
100
AcDbCircle
 10
0.0
 20
0.0
 30
0.0
 40
1.0
100
AcDbArc
 50
180.0
 51
270.0
1001
AcDbBlockRepETag
1070
     1
1071
        5
1005
3BEB0
  0
ARC
  5
3BEB1
330
680
100
AcDbEntity
  8
0
 62
     7
 48
0.2
100
AcDbCircle
 10
0.0
 20
0.0
 30
0.0
 40
1.0
100
AcDbArc
 50
90.0
 51
180.0
1001
AcDbBlockRepETag
1070
     1
1071
        6
1005
3BEB1
  0
ENDBLK
  5
68B
330
680
100
AcDbEntity
  8
0
100
AcDbBlockEnd
  0
BLOCK
  5
698
330
697
100
AcDbEntity
  8
0
  6
ByBlock
 62
     0
370
    -2
100
AcDbBlockBegin
  2
_OPEN30
 70
     2
 10
0.0
 20
0.0
 30
0.0
  3
_OPEN30
  1

  0
LINE
  5
699
330
697
100
AcDbEntity
  8
0
  6
ByBlock
 62
     0
370
    -2
100
AcDbLine
 10
-1.0
 20
0.267949
 30
0.0
 11
0.0
 21
0.0
 31
0.0
  0
LINE
  5
69A
330
697
100
AcDbEntity
  8
0
  6
ByBlock
 62
     0
370
    -2
100
AcDbLine
 10
0.0
 20
0.0
 30
0.0
 11
-1.0
 21
-0.267949
 31
0.0
  0
LINE
  5
69B
330
697
100
AcDbEntity
  8
0
  6
ByBlock
 62
     0
370
    -2
100
AcDbLine
 10
0.0
 20
0.0
 30
0.0
 11
-1.0
 21
0.0
 31
0.0
  0
ENDBLK
  5
69C
330
697
100
AcDbEntity
  8
0
  6
ByBlock
 62
     0
370
    -2
100
AcDbBlockEnd
  0
BLOCK
  5
34B2
330
34B1
100
AcDbEntity
  8
0
100
AcDbBlockBegin
  2
_OPEN
 70
     0
 10
0.0
 20
0.0
 30
0.0
  3
_OPEN
  1

  0
LINE
  5
34B3
330
34B1
100
AcDbEntity
  8
0
  6
ByBlock
 62
     0
100
AcDbLine
 10
0.0
 20
0.0
 30
0.0
 11
-1.0
 21
0.1766666667
 31
0.0
  0
LINE
  5
34B4
330
34B1
100
AcDbEntity
  8
0
  6
ByBlock
 62
     0
100
AcDbLine
 10
-1.0
 20
-0.1766666667
 30
0.0
 11
0.0
 21
0.0
 31
0.0
  0
LINE
  5
34B5
330
34B1
100
AcDbEntity
  8
0
  6
ByBlock
 62
     0
100
AcDbLine
 10
-1.0
 20
0.0
 30
0.0
 11
0.0
 21
0.0
 31
0.0
  0
ENDBLK
  5
34B6
330
34B1
100
AcDbEntity
  8
0
  6
ByBlock
 62
     0
100
AcDbBlockEnd
  0
BLOCK
  5
50E70
330
50E6F
100
AcDbEntity
  8
0
100
AcDbBlockBegin
  2
_None
 70
     0
 10
0.0
 20
0.0
 30
0.0
  3
_None
  1

  0
ENDBLK
  5
50E71
330
50E6F
100
AcDbEntity
  8
0
100
AcDbBlockEnd
  0
BLOCK
  5
54C0D
330
54C03
100
AcDbEntity
  8
0
100
AcDbBlockBegin
  2
*D10
 70
     1
 10
0.0
 20
0.0
 30
0.0
  3
*D10
  1

  0
LINE
  5
55EEF
330
54C03
100
AcDbEntity
  8
2
100
AcDbLine
 10
0.0
 20
12.69999999889995
 30
0.0
 11
0.0000000000000021
 21
46.77728057510418
 31
0.0
  0
LINE
  5
55EF0
330
54C03
100
AcDbEntity
  8
2
100
AcDbLine
 10
206.3750000000001
 20
9.51258192906647
 30
0.0
 11
206.3750000000001
 21
46.77728057510418
 31
0.0
  0
LINE
  5
55EF1
330
54C03
100
AcDbEntity
  8
2
100
AcDbLine
 10
3.500000000000001
 20
45.27728057510418
 30
0.0
 11
202.8750000000001
 21
45.27728057510418
 31
0.0
  0
SOLID
  5
55EF2
330
54C03
100
AcDbEntity
  8
2
100
AcDbTrace
 10
3.500000000000001
 20
45.86061390843751
 30
0.0
 11
3.500000000000001
 21
44.69394724177084
 31
0.0
 12
0.000000000000002
 22
45.27728057510418
 32
0.0
 13
0.000000000000002
 23
45.27728057510418
 33
0.0
  0
SOLID
  5
55EF3
330
54C03
100
AcDbEntity
  8
2
100
AcDbTrace
 10
202.8750000000001
 20
45.86061390843751
 30
0.0
 11
202.8750000000001
 21
44.69394724177084
 31
0.0
 12
206.3750000000001
 22
45.27728057510418
 32
0.0
 13
206.3750000000001
 23
45.27728057510418
 33
0.0
  0
MTEXT
  5
55EF4
330
54C03
100
AcDbEntity
  8
2
100
AcDbMText
 10
103.1875
 20
49.32728057510418
 30
0.0
 40
3.5
 41
0.0
 71
     5
 72
     1
  1
\A1;206.375 [8.125"]
  7
simplex
 73
     1
 44
1.0
1001
ACAD
1000
MTEXTBEGIN
1070
    73
1070
     1
1070
    44
1040
1.0
1070
    74
1070
     0
1000
MTEXTEND
  0
POINT
  5
55EF5
330
54C03
100
AcDbEntity
  8
Defpoints
 62
     0
100
AcDbPoint
 10
0.0
 20
12.69999999889995
 30
0.0
  0
POINT
  5
55EF6
330
54C03
100
AcDbEntity
  8
Defpoints
 62
     0
100
AcDbPoint
 10
206.3750000000001
 20
9.51258192906647
 30
0.0
  0
POINT
  5
55EF7
330
54C03
100
AcDbEntity
  8
Defpoints
 62
     0
100
AcDbPoint
 10
206.3750000000001
 20
45.27728057510418
 30
0.0
  0
ENDBLK
  5
54C0E
330
54C03
100
AcDbEntity
  8
0
100
AcDbBlockEnd
  0
BLOCK
  5
5691F
330
56915
100
AcDbEntity
  8
0
100
AcDbBlockBegin
  2
*D117
 70
     1
 10
0.0
 20
0.0
 30
0.0
  3
*D117
  1

  0
LINE
  5
56A10
330
56915
100
AcDbEntity
  8
sk2
100
AcDbLine
 10
-98.42500000000001
 20
11.5
 30
0.0
 11
-98.42500000000001
 21
61.80121142951396
 31
0.0
  0
LINE
  5
56A11
330
56915
100
AcDbEntity
  8
sk2
100
AcDbLine
 10
206.3750000000001
 20
9.51258192906647
 30
0.0
 11
206.3750000000001
 21
61.80121142951396
 31
0.0
  0
LINE
  5
56A12
330
56915
100
AcDbEntity
  8
sk2
100
AcDbLine
 10
-94.92500000000001
 20
60.30121142951395
 30
0.0
 11
202.8750000000001
 21
60.30121142951395
 31
0.0
  0
SOLID
  5
56A13
330
56915
100
AcDbEntity
  8
sk2
100
AcDbTrace
 10
-94.92500000000001
 20
60.88454476284729
 30
0.0
 11
-94.92500000000001
 21
59.71787809618062
 31
0.0
 12
-98.42500000000001
 22
60.30121142951395
 32
0.0
 13
-98.42500000000001
 23
60.30121142951395
 33
0.0
  0
SOLID
  5
56A14
330
56915
100
AcDbEntity
  8
sk2
100
AcDbTrace
 10
202.8750000000001
 20
60.88454476284729
 30
0.0
 11
202.8750000000001
 21
59.71787809618062
 31
0.0
 12
206.3750000000001
 22
60.30121142951395
 32
0.0
 13
206.3750000000001
 23
60.30121142951395
 33
0.0
  0
MTEXT
  5
56A15
330
56915
100
AcDbEntity
  8
sk2
100
AcDbMText
 10
60.14552188212997
 20
64.35121142951395
 30
0.0
 40
3.5
 41
0.0
 71
     5
 72
     1
  1
\A1;304.8 [12.000"]
  7
simplex
 73
     1
 44
0.892857
1001
ACAD
1000
MTEXTBEGIN
1070
    73
1070
     1
1070
    44
1040
0.892857
1070
    74
1070
     0
1000
MTEXTEND
  0
POINT
  5
56A16
330
56915
100
AcDbEntity
  8
Defpoints
 62
     0
100
AcDbPoint
 10
-98.42500000000001
 20
11.5
 30
0.0
  0
POINT
  5
56A17
330
56915
100
AcDbEntity
  8
Defpoints
 62
     0
100
AcDbPoint
 10
206.3750000000001
 20
9.51258192906647
 30
0.0
  0
POINT
  5
56A18
330
56915
100
AcDbEntity
  8
Defpoints
 62
     0
100
AcDbPoint
 10
206.3750000000001
 20
60.30121142951395
 30
0.0
  0
ENDBLK
  5
56920
330
56915
100
AcDbEntity
  8
0
100
AcDbBlockEnd
  0
BLOCK
  5
5692B
330
56921
100
AcDbEntity
  8
0
100
AcDbBlockBegin
  2
*D118
 70
     1
 10
0.0
 20
0.0
 30
0.0
  3
*D118
  1

  0
LINE
  5
56A19
330
56921
100
AcDbEntity
  8
2
100
AcDbLine
 10
0.0
 20
12.69999999889995
 30
0.0
 11
0.0000000000000021
 21
46.77728057510418
 31
0.0
  0
LINE
  5
56A1A
330
56921
100
AcDbEntity
  8
2
100
AcDbLine
 10
206.3750000000001
 20
9.51258192906647
 30
0.0
 11
206.3750000000001
 21
46.77728057510418
 31
0.0
  0
LINE
  5
56A1B
330
56921
100
AcDbEntity
  8
2
100
AcDbLine
 10
3.500000000000001
 20
45.27728057510418
 30
0.0
 11
202.8750000000001
 21
45.27728057510418
 31
0.0
  0
SOLID
  5
56A1C
330
56921
100
AcDbEntity
  8
2
100
AcDbTrace
 10
3.500000000000001
 20
45.86061390843751
 30
0.0
 11
3.500000000000001
 21
44.69394724177084
 31
0.0
 12
0.000000000000002
 22
45.27728057510418
 32
0.0
 13
0.000000000000002
 23
45.27728057510418
 33
0.0
  0
SOLID
  5
56A1D
330
56921
100
AcDbEntity
  8
2
100
AcDbTrace
 10
202.8750000000001
 20
45.86061390843751
 30
0.0
 11
202.8750000000001
 21
44.69394724177084
 31
0.0
 12
206.3750000000001
 22
45.27728057510418
 32
0.0
 13
206.3750000000001
 23
45.27728057510418
 33
0.0
  0
MTEXT
  5
56A1E
330
56921
100
AcDbEntity
  8
2
100
AcDbMText
 10
103.1875
 20
49.32728057510418
 30
0.0
 40
3.5
 41
0.0
 71
     5
 72
     1
  1
\A1;206.375 [8.125"]
  7
simplex
 73
     1
 44
1.0
1001
ACAD
1000
MTEXTBEGIN
1070
    73
1070
     1
1070
    44
1040
1.0
1070
    74
1070
     0
1000
MTEXTEND
  0
POINT
  5
56A1F
330
56921
100
AcDbEntity
  8
Defpoints
 62
     0
100
AcDbPoint
 10
0.0
 20
12.69999999889995
 30
0.0
  0
POINT
  5
56A20
330
56921
100
AcDbEntity
  8
Defpoints
 62
     0
100
AcDbPoint
 10
206.3750000000001
 20
9.51258192906647
 30
0.0
  0
POINT
  5
56A21
330
56921
100
AcDbEntity
  8
Defpoints
 62
     0
100
AcDbPoint
 10
206.3750000000001
 20
45.27728057510418
 30
0.0
  0
ENDBLK
  5
5692C
330
56921
100
AcDbEntity
  8
0
100
AcDbBlockEnd
  0
BLOCK
  5
56938
330
5692D
100
AcDbEntity
  8
0
100
AcDbBlockBegin
  2
*D119
 70
     1
 10
0.0
 20
0.0
 30
0.0
  3
*D119
  1

  0
LINE
  5
56A22
330
5692D
100
AcDbEntity
  8
sk2
100
AcDbLine
 10
-97.22498799999995
 20
-12.69999999999999
 30
0.0
 11
-121.1402099999999
 21
-12.69999999999998
 31
0.0
  0
LINE
  5
56A23
330
5692D
100
AcDbEntity
  8
sk2
100
AcDbLine
 10
-97.22498799999995
 20
12.69999999999999
 30
0.0
 11
-121.1402099999999
 21
12.69999999999999
 31
0.0
  0
LINE
  5
56A24
330
5692D
100
AcDbEntity
  8
sk2
100
AcDbLine
 10
-119.6402099999999
 20
9.199999999999995
 30
0.0
 11
-119.6402099999999
 21
-9.199999999999981
 31
0.0
  0
LINE
  5
56A25
330
5692D
100
AcDbEntity
  8
sk2
100
AcDbLine
 10
-119.6402099999999
 20
-12.69999999999998
 30
0.0
 11
-119.6402099999999
 21
-61.05000000000003
 31
0.0
  0
SOLID
  5
56A26
330
5692D
100
AcDbEntity
  8
sk2
100
AcDbTrace
 10
-120.2235433333332
 20
9.199999999999995
 30
0.0
 11
-119.0568766666666
 21
9.199999999999995
 31
0.0
 12
-119.6402099999999
 22
12.69999999999999
 32
0.0
 13
-119.6402099999999
 23
12.69999999999999
 33
0.0
  0
SOLID
  5
56A27
330
5692D
100
AcDbEntity
  8
sk2
100
AcDbTrace
 10
-120.2235433333332
 20
-9.199999999999981
 30
0.0
 11
-119.0568766666666
 21
-9.199999999999981
 31
0.0
 12
-119.6402099999999
 22
-12.69999999999998
 32
0.0
 13
-119.6402099999999
 23
-12.69999999999998
 33
0.0
  0
MTEXT
  5
56A28
330
5692D
100
AcDbEntity
  8
sk2
100
AcDbMText
 10
-123.6902099999999
 20
-38.62500000000006
 30
0.0
 40
3.5
 41
0.0
 71
     5
 72
     1
  1
\A1;%%C25.4 [%%C1.000"]
  7
simplex
 11
0.0000000000000001
 21
1.0
 31
0.0
 73
     1
 44
0.892857
1001
ACAD
1000
MTEXTBEGIN
1070
    73
1070
     1
1070
    44
1040
0.892857
1070
    74
1070
     0
1000
MTEXTEND
  0
POINT
  5
56A29
330
5692D
100
AcDbEntity
  8
Defpoints
 62
     0
100
AcDbPoint
 10
-97.22498799999995
 20
-12.69999999999999
 30
0.0
  0
POINT
  5
56A2A
330
5692D
100
AcDbEntity
  8
Defpoints
 62
     0
100
AcDbPoint
 10
-97.22498799999995
 20
12.69999999999999
 30
0.0
  0
POINT
  5
56A2B
330
5692D
100
AcDbEntity
  8
Defpoints
 62
     0
100
AcDbPoint
 10
-119.6402099999999
 20
12.69999999999999
 30
0.0
  0
ENDBLK
  5
56939
330
5692D
100
AcDbEntity
  8
0
100
AcDbBlockEnd
  0
BLOCK
  5
5694C
330
56944
100
AcDbEntity
  8
0
100
AcDbBlockBegin
  2
*D121
 70
     1
 10
0.0
 20
0.0
 30
0.0
  3
*D121
  1

  0
LINE
  5
56A35
330
56944
100
AcDbEntity
  8
2
100
AcDbLine
 10
203.375
 20
12.49999999889991
 30
0.0
 11
226.9342836183016
 21
12.4999999988999
 31
0.0
  0
LINE
  5
56A36
330
56944
100
AcDbEntity
  8
2
100
AcDbLine
 10
225.4342836183016
 20
-12.50000000000001
 30
0.0
 11
225.4342836183016
 21
8.999999998899902
 31
0.0
  0
SOLID
  5
56A37
330
56944
100
AcDbEntity
  8
2
100
AcDbTrace
 10
224.8509502849683
 20
8.999999998899902
 30
0.0
 11
226.0176169516349
 21
8.999999998899902
 31
0.0
 12
225.4342836183016
 22
12.4999999988999
 32
0.0
 13
225.4342836183016
 23
12.4999999988999
 33
0.0
  0
MTEXT
  5
56A38
330
56944
100
AcDbEntity
  8
2
100
AcDbMText
 10
221.3842836183016
 20
-7.579389114783452
 30
0.0
 40
3.5
 41
0.0
 71
     5
 72
     1
  1
\A1;%%c25 [%%c.984"]
  7
simplex
 11
0.0000000000000001
 21
1.0
 31
0.0
 73
     1
 44
1.0
1001
ACAD
1000
MTEXTBEGIN
1070
    73
1070
     1
1070
    44
1040
1.0
1070
    74
1070
     0
1000
MTEXTEND
  0
POINT
  5
56A39
330
56944
100
AcDbEntity
  8
Defpoints
 62
     0
100
AcDbPoint
 10
193.7436158523262
 20
-12.5
 30
0.0
  0
POINT
  5
56A3A
330
56944
100
AcDbEntity
  8
Defpoints
 62
     0
100
AcDbPoint
 10
203.375
 20
12.49999999889991
 30
0.0
  0
POINT
  5
56A3B
330
56944
100
AcDbEntity
  8
Defpoints
 62
     0
100
AcDbPoint
 10
225.4342836183016
 20
12.4999999988999
 30
0.0
  0
ENDBLK
  5
5694D
330
56944
100
AcDbEntity
  8
0
100
AcDbBlockEnd
  0
BLOCK
  5
56985
330
5697A
100
AcDbEntity
  8
0
100
AcDbBlockBegin
  2
*D125
 70
     1
 10
0.0
 20
0.0
 30
0.0
  3
*D125
  1

  0
LINE
  5
56A06
330
5697A
100
AcDbEntity
  8
2
100
AcDbLine
 10
88.41251799999998
 20
-12.25000000000003
 30
0.0
 11
94.37197874310095
 21
-12.25000000000003
 31
0.0
  0
LINE
  5
56A07
330
5697A
100
AcDbEntity
  8
2
100
AcDbLine
 10
88.41250799701072
 20
12.24999999999997
 30
0.0
 11
94.37197874310095
 21
12.24999999999997
 31
0.0
  0
LINE
  5
56A08
330
5697A
100
AcDbEntity
  8
2
100
AcDbLine
 10
92.87197874310095
 20
8.749999999999969
 30
0.0
 11
92.87197874310095
 21
-8.75000000000003
 31
0.0
  0
LINE
  5
56A09
330
5697A
100
AcDbEntity
  8
2
100
AcDbLine
 10
92.87197874310095
 20
-12.25000000000003
 30
0.0
 11
92.87197874310093
 21
-60.01666666666673
 31
0.0
  0
SOLID
  5
56A0A
330
5697A
100
AcDbEntity
  8
2
100
AcDbTrace
 10
92.28864540976763
 20
8.749999999999969
 30
0.0
 11
93.45531207643428
 21
8.749999999999969
 31
0.0
 12
92.87197874310095
 22
12.24999999999997
 32
0.0
 13
92.87197874310095
 23
12.24999999999997
 33
0.0
  0
SOLID
  5
56A0B
330
5697A
100
AcDbEntity
  8
2
100
AcDbTrace
 10
92.28864540976763
 20
-8.75000000000003
 30
0.0
 11
93.45531207643428
 21
-8.75000000000003
 31
0.0
 12
92.87197874310095
 22
-12.25000000000003
 32
0.0
 13
92.87197874310095
 23
-12.25000000000003
 33
0.0
  0
MTEXT
  5
56A0C
330
5697A
100
AcDbEntity
  8
2
100
AcDbMText
 10
88.82197874310095
 20
-37.88333333333338
 30
0.0
 40
3.5
 41
0.0
 71
     5
 72
     1
  1
\A1;%%c24.5 [%%C.965"]
  7
simplex
 11
0.0000000000000001
 21
1.0
 31
0.0
 73
     1
 44
1.0
1001
ACAD
1000
MTEXTBEGIN
1070
    73
1070
     1
1070
    44
1040
1.0
1070
    74
1070
     0
1000
MTEXTEND
  0
POINT
  5
56A0D
330
5697A
100
AcDbEntity
  8
Defpoints
 62
     0
100
AcDbPoint
 10
88.41251799999998
 20
-12.25000000000003
 30
0.0
  0
POINT
  5
56A0E
330
5697A
100
AcDbEntity
  8
Defpoints
 62
     0
100
AcDbPoint
 10
88.41250799701072
 20
12.24999999999997
 30
0.0
  0
POINT
  5
56A0F
330
5697A
100
AcDbEntity
  8
Defpoints
 62
     0
100
AcDbPoint
 10
92.87197874310095
 20
12.24999999999997
 30
0.0
  0
ENDBLK
  5
56986
330
5697A
100
AcDbEntity
  8
0
100
AcDbBlockEnd
  0
BLOCK
  5
569AD
330
569A3
100
AcDbEntity
  8
0
100
AcDbBlockBegin
  2
*D126
 70
     1
 10
0.0
 20
0.0
 30
0.0
  3
*D126
  1

  0
LINE
  5
56A2C
330
569A3
100
AcDbEntity
  8
2
100
AcDbLine
 10
176.3749999999999
 20
12.24999999889991
 30
0.0
 11
176.3749999999999
 21
33.20548622665552
 31
0.0
  0
LINE
  5
56A2D
330
569A3
100
AcDbEntity
  8
2
100
AcDbLine
 10
206.375
 20
9.512581927966209
 30
0.0
 11
206.375
 21
33.20548622665552
 31
0.0
  0
LINE
  5
56A2E
330
569A3
100
AcDbEntity
  8
2
100
AcDbLine
 10
179.8749999999999
 20
31.70548622665553
 30
0.0
 11
202.875
 21
31.70548622665553
 31
0.0
  0
SOLID
  5
56A2F
330
569A3
100
AcDbEntity
  8
2
100
AcDbTrace
 10
179.8749999999999
 20
32.28881955998886
 30
0.0
 11
179.8749999999999
 21
31.12215289332219
 31
0.0
 12
176.3749999999999
 22
31.70548622665553
 32
0.0
 13
176.3749999999999
 23
31.70548622665553
 33
0.0
  0
SOLID
  5
56A30
330
569A3
100
AcDbEntity
  8
2
100
AcDbTrace
 10
202.875
 20
32.28881955998886
 30
0.0
 11
202.875
 21
31.12215289332219
 31
0.0
 12
206.375
 22
31.70548622665553
 32
0.0
 13
206.375
 23
31.70548622665553
 33
0.0
  0
MTEXT
  5
56A31
330
569A3
100
AcDbEntity
  8
2
100
AcDbMText
 10
191.3749999999999
 20
35.75548622665552
 30
0.0
 40
3.5
 41
0.0
 71
     5
 72
     1
  1
\A1;30 [1.181"]
  7
simplex
 73
     1
 44
1.0
1001
ACAD
1000
MTEXTBEGIN
1070
    73
1070
     1
1070
    44
1040
1.0
1070
    74
1070
     0
1000
MTEXTEND
  0
POINT
  5
56A32
330
569A3
100
AcDbEntity
  8
Defpoints
 62
     0
100
AcDbPoint
 10
176.3749999999999
 20
12.24999999889991
 30
0.0
  0
POINT
  5
56A33
330
569A3
100
AcDbEntity
  8
Defpoints
 62
     0
100
AcDbPoint
 10
206.375
 20
9.512581927966209
 30
0.0
  0
POINT
  5
56A34
330
569A3
100
AcDbEntity
  8
Defpoints
 62
     0
100
AcDbPoint
 10
206.375
 20
31.70548622665553
 30
0.0
  0
ENDBLK
  5
569AE
330
569A3
100
AcDbEntity
  8
0
100
AcDbBlockEnd
  0
BLOCK
  5
569CF
330
569C7
100
AcDbEntity
  8
0
100
AcDbBlockBegin
  2
*D128
 70
     1
 10
0.0
 20
0.0
 30
0.0
  3
*D128
  1

  0
LINE
  5
56A43
330
569C7
100
AcDbEntity
  8
2
100
AcDbLine
 10
240.7171194995212
 20
34.57314916570918
 30
0.0
 11
209.1303007524544
 21
13.71900373992032
 31
0.0
  0
MTEXT
  5
56A44
330
569C7
100
AcDbEntity
  8
2
100
AcDbMText
 10
224.152709963053
 20
28.49010209140791
 30
0.0
 40
3.5
 41
0.0
 71
     5
 72
     1
  1
\A1;R1 [R.039"]
  7
simplex
 11
0.8345262548762695
 21
0.5509681750538662
 31
0.0
 73
     1
 44
1.0
1001
ACAD
1000
MTEXTBEGIN
1070
    73
1070
     1
1070
    44
1040
1.0
1070
    74
1070
     0
1000
MTEXTEND
  0
SOLID
  5
56A45
330
569C7
100
AcDbEntity
  8
2
100
AcDbTrace
 10
208.8089026503396
 20
14.20581072193148
 30
0.0
 11
209.4516988545691
 21
13.23219675790918
 31
0.0
 12
206.2094588603874
 22
11.7906151272318
 32
0.0
 13
206.2094588603874
 23
11.7906151272318
 33
0.0
  0
LINE
  5
56A46
330
569C7
100
AcDbEntity
  8
2
100
AcDbLine
 10
205.2849326055108
 20
11.23964695217775
 30
0.0
 11
205.4649326055109
 21
11.23964695217775
 31
0.0
  0
LINE
  5
56A47
330
569C7
100
AcDbEntity
  8
2
100
AcDbLine
 10
205.3749326055108
 20
11.14964695217774
 30
0.0
 11
205.3749326055108
 21
11.32964695217775
 31
0.0
  0
POINT
  5
56A48
330
569C7
100
AcDbEntity
  8
Defpoints
 62
     0
100
AcDbPoint
 10
206.2094588603874
 20
11.7906151272318
 30
0.0
  0
POINT
  5
56A49
330
569C7
100
AcDbEntity
  8
Defpoints
 62
     0
100
AcDbPoint
 10
205.3749326055108
 20
11.23964695217775
 30
0.0
  0
ENDBLK
  5
569D0
330
569C7
100
AcDbEntity
  8
0
100
AcDbBlockEnd
  0
ENDSEC
  0
SECTION
  2
ENTITIES
  0
INSERT
  5
68C
330
1F
100
AcDbEntity
  8
0
100
AcDbBlockReference
  2
zero block
 10
0.0
 20
0.0
 30
0.0
  0
MTEXT
  5
53DFB
330
1F
100
AcDbEntity
  8
sk6
100
AcDbMText
 10
-88.34009873463058
 20
91.33923152733039
 30
0.0
 40
5.0
 41
70.03712541027798
 71
     1
 72
     5
  1
SRFU16S16LW\PSUFT25R10
  7
simplex
 73
     1
 44
1.0
1001
ACAD
1000
ACAD_MTEXT_COLUMN_INFO_BEGIN
1070
    75
1070
     2
1070
    79
1070
     0
1070
    76
1070
     1
1070
    78
1070
     0
1070
    48
1040
59.04341590052445
1070
    49
1040
17.5
1070
    50
1070
     1
1040
0.0
1000
ACAD_MTEXT_COLUMN_INFO_END
1000
ACAD_MTEXT_DEFINED_HEIGHT_BEGIN
1070
    46
1040
0.0
1000
ACAD_MTEXT_DEFINED_HEIGHT_END
1000
MTEXTBEGIN
1070
    73
1070
     1
1070
    44
1040
1.0
1070
    74
1070
     0
1000
MTEXTEND
  0
DIMENSION
  5
56735
102
{ACAD_XDICTIONARY
360
56736
102
}
102
{ACAD_REACTORS
330
56737
102
}
330
1F
100
AcDbEntity
  8
2
100
AcDbDimension
  2
*D125
 10
92.87197874310095
 20
12.24999999999997
 30
0.0
 11
92.87197874310095
 21
-37.88333333333338
 31
0.0
 70
   160
  1
%%c<>
 71
     5
 42
24.5
  3
\M+18352\M+18373\M+1815B - ISO-25
100
AcDbAlignedDimension
 13
88.41251799999998
 23
-12.25000000000003
 33
0.0
 14
88.41250799701072
 24
12.24999999999997
 34
0.0
 50
270.0
100
AcDbRotatedDimension
1001
ACAD
1000
DSTYLE
1002
{
1070
     4
1000
%%C[]"
1070
    40
1040
1.0
1070
   143
1040
0.03937
1070
   170
1070
     1
1070
   171
1070
     3
1070
   271
1070
     8
1070
   285
1070
     4
1002
}
  0
DIMENSION
  5
56738
330
1F
100
AcDbEntity
  8
sk2
100
AcDbDimension
  2
*D117
 10
206.3750000000001
 20
60.30121142951395
 30
0.0
 11
60.14552188212997
 21
60.30121142951395
 31
0.0
 70
   160
 71
     5
 41
0.892857
 42
304.8000000000001
  3
\M+18352\M+18373\M+1815B - ISO-25
100
AcDbAlignedDimension
 13
-98.42500000000001
 23
11.5
 33
0.0
 14
206.3750000000001
 24
9.51258192906647
 34
0.0
 50
180.0
100
AcDbRotatedDimension
1001
ACAD
1000
DSTYLE
1002
{
1070
     4
1000
"
1070
    40
1040
1.0
1070
   143
1040
0.03937
1070
   170
1070
     1
1070
   171
1070
     3
1070
   271
1070
     8
1070
   285
1070
     4
1002
}
  0
SPLINE
  5
56739
330
1F
100
AcDbEntity
  8
1
100
AcDbSpline
210
0.0
220
0.0
230
1.0
 70
     8
 71
     3
 72
    10
 73
     6
 74
     4
 42
0.0000000001
 43
0.0000000001
 44
0.000001
 12
0.9939981913532239
 22
-0.1093965062811404
 32
0.0
 13
0.9846601879733476
 23
-0.1744829912062825
 33
0.0
 40
0.0
 40
0.0
 40
0.0
 40
0.0
 40
0.2729697609933898
 40
0.5696278389165157
 40
0.8867687606916065
 40
0.8867687606916065
 40
0.8867687606916065
 40
0.8867687606916065
 10
182.9790621572265
 20
11.29785149999998
 30
0.0
 10
183.069505973467
 20
11.28789752060896
 30
0.0
 10
183.2580194167972
 20
11.26498226160737
 30
0.0
 10
183.550402431298
 20
11.22140631274294
 30
0.0
 10
183.7522437035804
 20
11.18784824589366
 30
0.0
 10
183.8563357167968
 20
11.16940301367191
 30
0.0
 11
182.9790621572265
 21
11.29785149999998
 31
0.0
 11
183.2500201040038
 21
11.26477044531248
 31
0.0
 11
183.543522911621
 21
11.22161858984373
 31
0.0
 11
183.8563357167968
 21
11.16940301367191
 31
0.0
  0
SPLINE
  5
5673A
330
1F
100
AcDbEntity
  8
1
100
AcDbSpline
210
0.0
220
0.0
230
1.0
 70
     8
 71
     3
 72
    56
 73
    52
 74
    50
 42
0.0000000001
 43
0.0000000001
 44
0.000001
 12
-0.9999999973384662
 22
-0.0000729593564862
 32
0.0
 13
0.9999999688642722
 23
-0.0002495424907634
 33
0.0
 40
0.0
 40
0.0
 40
0.0
 40
0.0
 40
0.3454426790744767
 40
0.6888896339248645
 40
1.033155236005416
 40
1.287867330899129
 40
1.548111536117446
 40
1.800358867128052
 40
2.060957197460006
 40
2.393530606407313
 40
2.734671295356926
 40
3.074454177494019
 40
3.407139508863274
 40
3.736957054307866
 40
4.081619005168111
 40
4.420707103818556
 40
4.75623373510589
 40
5.091598916829686
 40
5.434016585142134
 40
5.769121316671273
 40
6.102741471089039
 40
6.615314631995238
 40
7.131163564364404
 40
7.644478160687537
 40
8.160279889619522
 40
8.680738616401143
 40
9.1960264355692
 40
9.536635767940779
 40
9.878551174166988
 40
10.2246115412113
 40
10.60145228066306
 40
10.97676858055232
 40
11.35889573095379
 40
11.50918079326284
 40
11.65604052546496
 40
11.80406806210345
 40
11.95290699754598
 40
12.09417303029831
 40
12.25060695890126
 40
12.54280924015624
 40
12.82845866301487
 40
13.11574013593827
 40
13.40469365475333
 40
13.6933789223156
 40
13.98638816610836
 40
14.26925018304905
 40
14.61197023292296
 40
14.95259428508418
 40
15.29467796946482
 40
15.81250869270005
 40
16.33267399543921
 40
16.33267399543921
 40
16.33267399543921
 40
16.33267399543921
 10
193.7250262075195
 20
5.199981626953103
 30
0.0
 10
193.6098786481344
 20
5.199973225861242
 30
0.0
 10
193.380175463128
 20
5.192343142509145
 30
0.0
 10
193.0372559781481
 20
5.158150002851584
 30
0.0
 10
192.7271731852838
 20
5.106308246427545
 30
0.0
 10
192.4477732423675
 20
5.042863205842195
 30
0.0
 10
192.2013822963007
 20
4.973959096771693
 30
0.0
 10
191.956841310016
 20
4.892356509592161
 30
0.0
 10
191.6941222636341
 20
4.790094910212246
 30
0.0
 10
191.4106354575644
 20
4.660613664967456
 30
0.0
 10
191.1128361652354
 20
4.500583622499902
 30
0.0
 10
190.8261526655977
 20
4.321331549256171
 30
0.0
 10
190.5546707911241
 20
4.126217535772639
 30
0.0
 10
190.2949652510246
 20
3.913115102032975
 30
0.0
 10
190.0480105334982
 20
3.682186362708762
 30
0.0
 10
189.8154621317796
 20
3.43415166437029
 30
0.0
 10
189.6014918596736
 20
3.173932007998615
 30
0.0
 10
189.4040702342172
 20
2.899577194490689
 30
0.0
 10
189.2250037027004
 20
2.613056833717735
 30
0.0
 10
189.065259461694
 20
2.315998710676325
 30
0.0
 10
188.9013263094291
 20
1.957710907268534
 30
0.0
 10
188.7463677342726
 20
1.530127764044323
 30
0.0
 10
188.6196327689424
 20
1.031228993287754
 30
0.0
 10
188.5426679596779
 20
0.5211755605642452
 30
0.0
 10
188.5164014713923
 20
0.0044676541967306
 30
0.0
 10
188.5417240698616
 20
-0.5129504150444859
 30
0.0
 10
188.6097531891672
 20
-0.967469380545026
 30
0.0
 10
188.7011708424943
 20
-1.356399510518144
 30
0.0
 10
188.8014162834046
 20
-1.684545388136854
 30
0.0
 10
188.927446462302
 20
-2.016628935361211
 30
0.0
 10
189.0808983960267
 20
-2.349349049600419
 30
0.0
 10
189.2638355576773
 20
-2.680601223759737
 30
0.0
 10
189.429124884778
 20
-2.934404947219491
 30
0.0
 10
189.5623022901613
 20
-3.117549499498636
 30
0.0
 10
189.652962963302
 20
-3.235051400799363
 30
0.0
 10
189.7466051004919
 20
-3.349567234116591
 30
0.0
 10
189.8422452211427
 20
-3.459965699370513
 30
0.0
 10
189.9428578538389
 20
-3.569683045527199
 30
0.0
 10
190.0798310872519
 20
-3.710797145767799
 30
0.0
 10
190.2578455665802
 20
-3.878987184942815
 30
0.0
 10
190.4782225144465
 20
-4.065205246988938
 30
0.0
 10
190.7076837180174
 20
-4.238324481941731
 30
0.0
 10
190.947195039781
 20
-4.399076278958006
 30
0.0
 10
191.1969448240746
 20
-4.547185150338151
 30
0.0
 10
191.4527456816602
 20
-4.680249810533496
 30
0.0
 10
191.7319595995141
 20
-4.806286088586119
 30
0.0
 10
192.0331464667069
 20
-4.921041525816463
 30
0.0
 10
192.3601014285375
 20
-5.021556478836856
 30
0.0
 10
192.7497641842296
 20
-5.113866396563338
 30
0.0
 10
193.2053907588483
 20
-5.182725495706705
 30
0.0
 10
193.5516301492771
 20
-5.199969001749479
 30
0.0
 10
193.7250185781249
 20
-5.200012269531242
 30
0.0
 11
193.7250262075195
 21
5.199981626953103
 31
0.0
 11
193.3797732167969
 21
5.188507017578103
 31
0.0
 11
193.0380221181641
 21
5.154418882812478
 31
0.0
 11
192.6984682851563
 21
5.097656187499978
 31
0.0
 11
192.4500780874023
 21
5.041259703124978
 31
0.0
 11
192.1994524770508
 21
4.97116082617191
 31
0.0
 11
191.9601717763671
 21
4.891326841796853
 31
0.0
 11
191.7173281484374
 21
4.796783384765546
 31
0.0
 11
191.4148073964843
 21
4.658630308593728
 31
0.0
 11
191.1143160634765
 21
4.497131285156285
 31
0.0
 11
190.8261996083984
 21
4.317016539062478
 31
0.0
 11
190.5560656362304
 21
4.122833189453103
 31
0.0
 11
190.3010836416016
 21
3.913635191406285
 31
0.0
 11
190.0493441396483
 21
3.678222593749978
 31
0.0
 11
189.8174258046874
 21
3.430847105468728
 31
0.0
 11
189.604313927246
 21
3.171691832031228
 31
0.0
 11
189.4084368520508
 21
2.899475035156285
 31
0.0
 11
189.2269640737304
 21
2.609100279296853
 31
0.0
 11
189.0682497792969
 21
2.313964781249978
 31
0.0
 11
188.9294482045898
 21
2.010589537109353
 31
0.0
 11
188.7548037343749
 21
1.528686460937478
 31
0.0
 11
188.6277972036133
 21
1.028716978515546
 31
0.0
 11
188.5512057119141
 21
0.5211486191406039
 31
0.0
 11
188.5250216298827
 21
0.0060119003906323
 31
0.0
 11
188.5504656606445
 21
-0.5138245253906462
 31
0.0
 11
188.6267290883788
 21
-1.023437562499992
 31
0.0
 11
188.7046633535155
 21
-1.35501104882806
 31
0.0
 11
188.8045626455077
 21
-1.682006898437492
 31
0.0
 11
188.9273424916991
 21
-2.005554261718742
 31
0.0
 11
189.0851794057616
 21
-2.347747865234424
 31
0.0
 11
189.2666064077148
 21
-2.67630011132806
 31
0.0
 11
189.4751711660155
 21
-2.99649054101556
 31
0.0
 11
189.5635500722655
 21
-3.118042054687492
 31
0.0
 11
189.6532641225585
 21
-3.234314027343685
 31
0.0
 11
189.7469683461913
 21
-3.348907533203117
 31
0.0
 11
189.844433861328
 21
-3.461395326171867
 31
0.0
 11
189.9399004750976
 21
-3.565521302734424
 31
0.0
 11
190.0488634877929
 21
-3.67776495507806
 31
0.0
 11
190.2612505727538
 21
-3.87844854882806
 31
0.0
 11
190.4794436269531
 21
-4.062805238281242
 31
0.0
 11
190.7087679677734
 21
-4.235839906249992
 31
0.0
 11
190.9487047963866
 21
-4.396850648437492
 31
0.0
 11
191.1969958120116
 21
-4.544128480468742
 31
0.0
 11
191.4569521718749
 21
-4.679321351562492
 31
0.0
 11
191.7147570424805
 21
-4.795715394531242
 31
0.0
 11
192.0350237661132
 21
-4.917724671874992
 31
0.0
 11
192.3606081777343
 21
-5.017822328124992
 31
0.0
 11
192.6934786611327
 21
-5.096679749999992
 31
0.0
 11
193.205502586914
 21
-5.174011292968742
 31
0.0
 11
193.7250185781249
 21
-5.200012269531242
 31
0.0
  0
SPLINE
  5
5673B
330
1F
100
AcDbEntity
  8
1
100
AcDbSpline
210
0.0
220
0.0
230
1.0
 70
     8
 71
     3
 72
     9
 73
     5
 74
     3
 42
0.0000000001
 43
0.0000000001
 44
0.000001
 12
0.9603132869219136
 22
-0.278923629262977
 32
0.0
 13
0.9442995354099643
 23
-0.3290872033740075
 33
0.0
 40
0.0
 40
0.0
 40
0.0
 40
0.0
 40
0.7348450070665525
 40
1.479601022990584
 40
1.479601022990584
 40
1.479601022990584
 40
1.479601022990584
 10
192.4656191640624
 20
8.97750848242191
 30
0.0
 10
192.7008463054338
 20
8.909186603649658
 30
0.0
 10
193.1726954943835
 20
8.765426205270642
 30
0.0
 10
193.6405958507268
 20
8.609284386283775
 30
0.0
 10
193.8750201040038
 20
8.527587828124978
 30
0.0
 11
192.4656191640624
 21
8.97750848242191
 31
0.0
 11
193.1685610585938
 21
8.763336119140603
 31
0.0
 11
193.8750201040038
 21
8.527587828124978
 31
0.0
  0
SPLINE
  5
5673C
330
1F
100
AcDbEntity
  8
1
100
AcDbSpline
210
0.0
220
0.0
230
1.0
 70
     8
 71
     3
 72
    18
 73
    14
 74
    12
 42
0.0000000001
 43
0.0000000001
 44
0.000001
 12
0.9775947559519691
 22
-0.2104958268831241
 32
0.0
 13
0.9602144660513591
 23
-0.2792636374211717
 33
0.0
 40
0.0
 40
0.0
 40
0.0
 40
0.0
 40
0.5333439082107759
 40
1.107779624537654
 40
1.723354797019663
 40
2.308162769073019
 40
2.916598674837099
 40
3.560113329748731
 40
4.183693023625603
 40
5.057589400325914
 40
5.956706750495188
 40
6.8431086281094
 40
7.765135339238771
 40
7.765135339238771
 40
7.765135339238771
 40
7.765135339238771
 10
184.9573107534179
 20
10.9524230332031
 30
0.0
 10
185.1311088226798
 20
10.91500081087915
 30
0.0
 10
185.4917203445172
 20
10.83551315103577
 30
0.0
 10
186.0512924708379
 20
10.70557153049097
 30
0.0
 10
186.6263786770559
 20
10.56671352635067
 30
0.0
 10
187.2113997534979
 20
10.42079568189095
 30
0.0
 10
187.8045140781821
 20
10.26889621010872
 30
0.0
 10
188.409233450553
 20
10.11026335992525
 30
0.0
 10
189.098651506745
 20
9.925813269163199
 30
0.0
 10
189.8692606851555
 20
9.715211177356366
 30
0.0
 10
190.7231477716059
 20
9.477060352086596
 30
0.0
 10
191.5913072829646
 20
9.230407204038129
 30
0.0
 10
192.170504702025
 20
9.063337993471719
 30
0.0
 10
192.4656191640624
 20
8.97750848242191
 30
0.0
 11
184.9573107534179
 21
10.9524230332031
 31
0.0
 11
185.4781313710937
 21
10.83752435156248
 31
0.0
 11
186.0377474599609
 21
10.70788567968748
 31
0.0
 11
186.6361590200195
 21
10.56353753515628
 31
0.0
 11
187.2036104970702
 21
10.42211907812498
 31
0.0
 11
187.7930422597655
 21
10.27124017187498
 31
0.0
 11
188.4155245595702
 21
10.1080626816406
 31
0.0
 11
189.0179262929688
 21
9.946929869140603
 31
0.0
 11
189.8609515004882
 21
9.716705259765603
 31
0.0
 11
190.7270327382813
 21
9.475219664062478
 31
0.0
 11
191.5797243886718
 21
9.233093199218728
 31
0.0
 11
192.4656191640624
 21
8.97750848242191
 31
0.0
  0
SPLINE
  5
5673D
330
1F
100
AcDbEntity
  8
1
100
AcDbSpline
210
0.0
220
0.0
230
1.0
 70
     8
 71
     3
 72
    37
 73
    33
 74
    31
 42
0.0000000001
 43
0.0000000001
 44
0.000001
 12
0.9441111917890602
 22
-0.3296271492742075
 32
0.0
 13
0.4601198425223931
 23
-0.8878568187028628
 33
0.0
 40
0.0
 40
0.0
 40
0.0
 40
0.0
 40
0.8083824956881612
 40
1.644479507183127
 40
2.493266844780014
 40
3.363734089813612
 40
4.312698579940848
 40
5.270568765785329
 40
5.759274703376273
 40
6.246744268859062
 40
6.735870884293051
 40
7.222377311771946
 40
7.690001998303121
 40
8.15385138967739
 40
8.616568337460048
 40
9.074054180044369
 40
9.535893699124182
 40
9.990685472413785
 40
10.44111490690937
 40
10.88260187309944
 40
11.28568693886663
 40
11.67935634278467
 40
12.06564315798046
 40
12.44054196975641
 40
12.81236820244359
 40
13.17015040462177
 40
13.51600763302904
 40
13.84532011729106
 40
14.14943727039562
 40
14.43553863186621
 40
14.70526531249986
 40
14.95418097071386
 40
14.95418097071386
 40
14.95418097071386
 40
14.95418097071386
 10
193.8750201040038
 20
8.527587828124978
 30
0.0
 10
194.1294210911458
 20
8.438766222266025
 30
0.0
 10
194.6433278383118
 20
8.247506331302474
 30
0.0
 10
195.409543862405
 20
7.924999061429588
 30
0.0
 10
196.1805158408328
 20
7.562294266439096
 30
0.0
 10
196.9690486317886
 20
7.150326132844782
 30
0.0
 10
197.7705971416508
 20
6.686508260843396
 30
0.0
 10
198.4435038742714
 20
6.256071037473105
 30
0.0
 10
198.974727691378
 20
5.890731240048467
 30
0.0
 10
199.370929284279
 20
5.605015304664675
 30
0.0
 10
199.7600689066839
 20
5.310972766797959
 30
0.0
 10
200.1374486446553
 20
5.012533329418971
 30
0.0
 10
200.5017625839569
 20
4.711342291079944
 30
0.0
 10
200.8536929308613
 20
4.40777868123996
 30
0.0
 10
201.196653862627
 20
4.099147331479457
 30
0.0
 10
201.5326831101317
 20
3.783963323880243
 30
0.0
 10
201.8601843512056
 20
3.463692075721496
 30
0.0
 10
202.1793028891342
 20
3.138356351649889
 30
0.0
 10
202.4870012815311
 20
2.811455798775028
 30
0.0
 10
202.7763579964301
 20
2.491088320198173
 30
0.0
 10
203.0469853245734
 20
2.179413673658416
 30
0.0
 10
203.299863384414
 20
1.876790528448736
 30
0.0
 10
203.5411390650657
 20
1.576805345868052
 30
0.0
 10
203.7723049831418
 20
1.278117812605671
 30
0.0
 10
203.992037575183
 20
0.9826809481782845
 30
0.0
 10
204.2004368559024
 20
0.6909623572626345
 30
0.0
 10
204.3950407591396
 20
0.4068855963831198
 30
0.0
 10
204.5740699534734
 20
0.1339038424991088
 30
0.0
 10
204.7369102979348
 20
-0.1257984186227645
 30
0.0
 10
204.8839762821419
 20
-0.3718699956123146
 30
0.0
 10
205.0164598174674
 20
-0.605150085248539
 30
0.0
 10
205.0978027180951
 20
-0.7577232885503236
 30
0.0
 10
205.135979729248
 20
-0.8313904433593961
 30
0.0
 11
193.8750201040038
 21
8.527587828124978
 31
0.0
 11
194.6326037221679
 21
8.245544371093728
 31
0.0
 11
195.4033175283202
 21
7.921417173828103
 31
0.0
 11
196.1713839345702
 21
7.56015008398441
 31
0.0
 11
196.9429674916991
 21
7.15719598242191
 31
0.0
 11
197.7643862539063
 21
6.682006773437478
 31
0.0
 11
198.571339684082
 21
6.165924009765546
 31
0.0
 11
198.9740191274413
 21
5.889007505859353
 31
0.0
 11
199.3694048696288
 21
5.603881773437478
 31
0.0
 11
199.7596636586913
 21
5.309020933593728
 31
0.0
 11
200.1412554555663
 21
5.007232603515546
 31
0.0
 11
200.5016756826171
 21
4.709289488281228
 31
0.0
 11
200.8529024892578
 21
4.406310972656285
 31
0.0
 11
201.1968661123046
 21
4.096801695312478
 31
0.0
 11
201.5305300527344
 21
3.783813414062478
 31
0.0
 11
201.8607226186523
 21
3.460906919921853
 31
0.0
 11
202.1791888051758
 21
3.136230406249978
 31
0.0
 11
202.4878969960937
 21
2.808227476562478
 31
0.0
 11
202.7838106923828
 21
2.480590757812478
 31
0.0
 11
203.0480624013671
 21
2.176208433593728
 31
0.0
 11
203.3004809194336
 21
1.87411492773441
 31
0.0
 11
203.5425577932128
 21
1.573089537109353
 31
0.0
 11
203.7719736867675
 21
1.276580748046853
 31
0.0
 11
203.9938517385254
 21
0.9782103867187288
 31
0.0
 11
204.2017679982909
 21
0.6870421738281039
 31
0.0
 11
204.397168236328
 21
0.4016723007812289
 31
0.0
 11
204.5776949697265
 21
0.1262511582031038
 31
0.0
 11
204.7391482167969
 21
-0.1314697890625212
 31
0.0
 11
204.8858347707519
 21
-0.3771057753906462
 31
0.0
 11
205.018792229248
 21
-0.6117859511718962
 31
0.0
 11
205.135979729248
 21
-0.8313904433593961
 31
0.0
  0
SPLINE
  5
5673E
330
1F
100
AcDbEntity
  8
1
100
AcDbSpline
210
0.0
220
0.0
230
1.0
 70
     8
 71
     3
 72
    64
 73
    60
 74
    58
 42
0.0000000001
 43
0.0000000001
 44
0.000001
 12
0.9999999976027297
 22
0.0000692426238353
 32
0.0
 13
-0.9999999719526073
 23
0.0002368433759521
 33
0.0
 40
0.0
 40
0.0
 40
0.0
 40
0.0
 40
0.3374190964439388
 40
0.6773914010440345
 40
1.019911651533067
 40
1.352142635755094
 40
1.693066038515867
 40
2.042667927938278
 40
2.310164618892713
 40
2.591203251274186
 40
2.885763865020361
 40
3.174760143389393
 40
3.284467825271951
 40
3.398621910127496
 40
3.517229077804008
 40
3.622135851970992
 40
3.72128016637536
 40
3.831251186483032
 40
3.952046973523863
 40
4.083636686280859
 40
4.275330389386269
 40
4.424017139584564
 40
4.529678794419077
 40
4.593807665578393
 40
4.734420365890501
 40
4.98574570157432
 40
5.236696413603083
 40
5.475218035428618
 40
5.70258332661526
 40
5.91874328224461
 40
6.123702580473008
 40
6.647465346935312
 40
7.144947289306853
 40
7.657727828884203
 40
8.163132935634697
 40
8.500766745983273
 40
8.841850067950213
 40
9.186445028031336
 40
9.514333228165293
 40
9.853441834433374
 40
10.20385901110022
 40
10.47236430950712
 40
10.75988189842916
 40
11.06640438449333
 40
11.35795789144741
 40
11.6539328390473
 40
11.86469131291777
 40
12.24627859719357
 40
12.56578312315866
 40
12.83643926831484
 40
13.13054947344818
 40
13.42336127629145
 40
13.72624593097755
 40
14.01483804142048
 40
14.28916038932714
 40
14.80751342159218
 40
15.30649973848992
 40
15.82270679006093
 40
16.33305485315853
 40
16.33305485315853
 40
16.33305485315853
 40
16.33305485315853
 10
193.8750201040038
 20
-5.200012269531242
 30
0.0
 10
193.9874931358822
 20
-5.200004481603372
 30
0.0
 10
194.2133576865125
 20
-5.192665835936566
 30
0.0
 10
194.5519425138862
 20
-5.159544140285277
 30
0.0
 10
194.8859327396285
 20
-5.10452729343433
 30
0.0
 10
195.2159414330474
 20
-5.027910199957602
 30
0.0
 10
195.5425795592334
 20
-4.929429139834724
 30
0.0
 10
195.841760888593
 20
-4.81704589295964
 30
0.0
 10
196.1154060542449
 20
-4.695308108950655
 30
0.0
 10
196.3659105651545
 20
-4.567616858785868
 30
0.0
 10
196.61518312775
 20
-4.422674217089166
 30
0.0
 10
196.8082272432476
 20
-4.295408090500302
 30
0.0
 10
196.9472608306704
 20
-4.195921953814917
 30
0.0
 10
197.0386510131011
 20
-4.127498297429241
 30
0.0
 10
197.1272046277711
 20
-4.058005043103662
 30
0.0
 10
197.2103985444334
 20
-3.989829676944168
 30
0.0
 10
197.2900510166744
 20
-3.921907373842884
 30
0.0
 10
197.3722822070122
 20
-3.848877531283392
 30
0.0
 10
197.4607741007187
 20
-3.766652241955114
 30
0.0
 10
197.5667875875606
 20
-3.663321904649365
 30
0.0
 10
197.6759769452992
 20
-3.550004707038908
 30
0.0
 10
197.7755978661353
 20
-3.439608607688569
 30
0.0
 10
197.8447939653821
 20
-3.359089984918568
 30
0.0
 10
197.9109352786845
 20
-3.279520119372023
 30
0.0
 10
198.0057795915099
 20
-3.16068968783324
 30
0.0
 10
198.1331322872416
 20
-2.988230577391959
 30
0.0
 10
198.2701214625217
 20
-2.782666708994071
 30
0.0
 10
198.3931535709984
 20
-2.577730889103293
 30
0.0
 10
198.5013557452859
 20
-2.377700429049099
 30
0.0
 10
198.5960326533185
 20
-2.183301655148682
 30
0.0
 10
198.7224162351301
 20
-1.894747519820441
 30
0.0
 10
198.8599947997951
 20
-1.509036716447127
 30
0.0
 10
198.9839128781814
 20
-1.012168064207628
 30
0.0
 10
199.0581559745788
 20
-0.5115981368245742
 30
0.0
 10
199.0804498553289
 20
-0.0594576417062172
 30
0.0
 10
199.0679035099779
 20
0.3353036593336469
 30
0.0
 10
199.0348172129127
 20
0.6750505079622542
 30
0.0
 10
198.9799441262718
 20
1.008671432734331
 30
0.0
 10
198.903796954515
 20
1.337386259527704
 30
0.0
 10
198.8061343690295
 20
1.66240620136989
 30
0.0
 10
198.6941245747181
 20
1.961732267402169
 30
0.0
 10
198.571501077397
 20
2.238015089310607
 30
0.0
 10
198.4409398678067
 20
2.494342317611028
 30
0.0
 10
198.292060857112
 20
2.749449899265414
 30
0.0
 10
198.1272294298828
 20
2.997914469788668
 30
0.0
 10
197.9677380891742
 20
3.211109811320653
 30
0.0
 10
197.7789959798582
 20
3.43934872589395
 30
0.0
 10
197.5720381752062
 20
3.662371594773105
 30
0.0
 10
197.3361074900394
 20
3.884600288046243
 30
0.0
 10
197.1102889755796
 20
4.074242430692038
 30
0.0
 10
196.8816349193433
 20
4.246061617732834
 30
0.0
 10
196.6346793058411
 20
4.410615038951505
 30
0.0
 10
196.3803207826772
 20
4.559897798265154
 30
0.0
 10
196.123357323341
 20
4.691612642069173
 30
0.0
 10
195.7940768096691
 20
4.838508334217266
 30
0.0
 10
195.3879191131975
 20
4.983718130327304
 30
0.0
 10
194.8913209436888
 20
5.10813005143666
 30
0.0
 10
194.387556752229
 20
5.18321512339034
 30
0.0
 10
194.045136120265
 20
5.19994133610038
 30
0.0
 10
193.8750201040038
 20
5.199981626953103
 30
0.0
 11
193.8750201040038
 21
-5.200012269531242
 31
0.0
 11
194.2122622304688
 21
-5.189056458984424
 31
0.0
 11
194.5506182485351
 21
-5.155944886718742
 31
0.0
 11
194.8885851674805
 21
-5.100280824218742
 31
0.0
 11
195.212208824707
 21
-5.025146546874992
 31
0.0
 11
195.5386172109374
 21
-4.926727357421867
 31
0.0
 11
195.8658953481445
 21
-4.803802552734424
 31
0.0
 11
196.1102953725585
 21
-4.695068421874992
 31
0.0
 11
196.3606844716796
 21
-4.567443910156242
 31
0.0
 11
196.6153231435546
 21
-4.419372621093685
 31
0.0
 11
196.8566103749999
 21
-4.260315003906242
 31
0.0
 11
196.9458285146484
 21
-4.196472230468742
 31
0.0
 11
197.0372057729491
 21
-4.128051820312492
 31
0.0
 11
197.1305208974609
 21
-4.054840150390617
 31
0.0
 11
197.2116595083008
 21
-3.988342347656242
 31
0.0
 11
197.2870989614257
 21
-3.924011292968742
 31
0.0
 11
197.369320946289
 21
-3.850982728515589
 31
0.0
 11
197.4578219228515
 21
-3.768768373046867
 31
0.0
 11
197.5520449453124
 21
-3.676910462890617
 31
0.0
 11
197.6850634389649
 21
-3.538879457031242
 31
0.0
 11
197.7846804433594
 21
-3.428497376953117
 31
0.0
 11
197.8535433583984
 21
-3.348358216796867
 31
0.0
 11
197.8945360952148
 21
-3.299041810546867
 31
0.0
 11
197.9822588735351
 21
-3.189148011718742
 31
0.0
 11
198.1315508657227
 21
-2.986969056640617
 31
0.0
 11
198.2707110219727
 21
-2.778137269531242
 31
0.0
 11
198.3934832387696
 21
-2.573638978515589
 31
0.0
 11
198.501660423828
 21
-2.373657289062492
 31
0.0
 11
198.5963106923827
 21
-2.179321351562492
 31
0.0
 11
198.678532677246
 21
-1.991577210937492
 31
0.0
 11
198.8545046621093
 21
-1.498260560546867
 31
0.0
 11
198.974888878418
 21
-1.015564027343714
 31
0.0
 11
199.050114708496
 21
-0.5083313613280894
 31
0.0
 11
199.075017052246
 21
-0.0035401015625212
 31
0.0
 11
199.0642901235352
 21
0.3339232773437288
 31
0.0
 11
199.0312319570313
 21
0.6734008164062857
 31
0.0
 11
198.9753084951171
 21
1.013427671874978
 31
0.0
 11
198.9013033681641
 21
1.332855162109353
 31
0.0
 11
198.8037310415038
 21
1.657623228515546
 31
0.0
 11
198.6809054189452
 21
1.98580926367191
 31
0.0
 11
198.5719881826171
 21
2.231231626953103
 31
0.0
 11
198.4414873891601
 21
2.487426695312478
 31
0.0
 11
198.2869921499024
 21
2.752166685546853
 31
0.0
 11
198.1258135610351
 21
2.995117124999978
 31
0.0
 11
197.948521690918
 21
3.232116636718728
 31
0.0
 11
197.8142062001952
 21
3.394531187499978
 31
0.0
 11
197.5546618276366
 21
3.674255308593728
 31
0.0
 11
197.3220721059569
 21
3.893310484374978
 31
0.0
 11
197.1148196035155
 21
4.067382749999978
 31
0.0
 11
196.8796816640624
 21
4.244049009765546
 31
0.0
 11
196.6360216909179
 21
4.406433042968728
 31
0.0
 11
196.3747912221679
 21
4.559722837890603
 31
0.0
 11
196.1179781728515
 21
4.69137566992191
 31
0.0
 11
195.8674517446288
 21
4.803131041015546
 31
0.0
 11
195.3793536000976
 21
4.97763055273441
 31
0.0
 11
194.895329552246
 21
5.098907408203103
 31
0.0
 11
194.3847552114258
 21
5.174957212890603
 31
0.0
 11
193.8750201040038
 21
5.199981626953103
 31
0.0
  0
SPLINE
  5
5673F
330
1F
100
AcDbEntity
  8
1
100
AcDbSpline
210
0.0
220
0.0
230
1.0
 70
     8
 71
     3
 72
    29
 73
    25
 74
    23
 42
0.0000000001
 43
0.0000000001
 44
0.000001
 12
0.9999998154086332
 22
0.0006076040649003
 32
0.0
 13
0.0859107384651211
 23
0.9963028380047793
 33
0.0
 40
0.0
 40
0.0
 40
0.0
 40
0.0
 40
0.7671199296735529
 40
1.536854420461743
 40
2.307476727085541
 40
3.077218851214675
 40
3.844339390606972
 40
4.611477114665504
 40
5.381269819471697
 40
6.151928265694416
 40
6.921700066999346
 40
7.688847781081404
 40
8.455184083126606
 40
9.224178949643706
 40
9.994047668203913
 40
10.76300917794192
 40
11.52930339426559
 40
12.29171394284823
 40
13.05694882906456
 40
13.82298959172495
 40
14.58794791634949
 40
15.35012882298955
 40
15.96307553540757
 40
16.57600564145749
 40
16.57600564145749
 40
16.57600564145749
 40
16.57600564145749
 10
193.8750201040038
 20
-10.92547613671874
 30
0.0
 10
194.1307267000271
 20
-10.9253207683229
 30
0.0
 10
194.6431767272965
 20
-10.90783559591682
 30
0.0
 10
195.408877256624
 20
-10.82936145395194
 30
0.0
 10
196.1685670667726
 20
-10.70011465466595
 30
0.0
 10
196.9170870843752
 20
-10.52064350210329
 30
0.0
 10
197.6507377225322
 20
-10.2915091881789
 30
0.0
 10
198.3668421673499
 20
-10.01227610796962
 30
0.0
 10
199.063493538922
 20
-9.684827001603082
 30
0.0
 10
199.7375544724588
 20
-9.311283547858351
 30
0.0
 10
200.3844470478439
 20
-8.894063049348005
 30
0.0
 10
201.0005434992272
 20
-8.434937409571006
 30
0.0
 10
201.5831959480171
 20
-7.934449696910036
 30
0.0
 10
202.1313211779276
 20
-7.395113794717815
 30
0.0
 10
202.6426950398788
 20
-6.819641967367942
 30
0.0
 10
203.1137412559179
 20
-6.211850619124845
 30
0.0
 10
203.5409732633294
 20
-5.575457779187644
 30
0.0
 10
203.922268009238
 20
-4.911961547645006
 30
0.0
 10
204.2573505908476
 20
-4.224080494936856
 30
0.0
 10
204.5448666522115
 20
-3.514065994732959
 30
0.0
 10
204.7820437523614
 20
-2.786742082140847
 30
0.0
 10
204.954272800672
 20
-2.093806129427804
 30
0.0
 10
205.071054867347
 20
-1.441118352760383
 30
0.0
 10
205.1184273032352
 20
-1.034945111411417
 30
0.0
 10
205.135979729248
 20
-0.8313904433593961
 30
0.0
 11
193.8750201040038
 21
-10.92547613671874
 31
0.0
 11
194.6416903310546
 21
-10.89920050195314
 31
0.0
 11
195.4074374013671
 21
-10.82095343164064
 31
0.0
 11
196.1671343618163
 21
-10.69165045312502
 31
0.0
 11
196.9156390004883
 21
-10.51208502343752
 31
0.0
 11
197.6478091054687
 21
-10.28317266992186
 31
0.0
 11
198.3626070791016
 21
-10.00466925195311
 31
0.0
 11
199.0593386464844
 21
-9.677337708984453
 31
0.0
 11
199.7334032827149
 21
-9.303772035156271
 31
0.0
 11
200.3802309804688
 21
-8.886444154296896
 31
0.0
 11
200.9952212148438
 21
-8.427856507812521
 31
0.0
 11
201.5766802602538
 21
-7.928680482421896
 31
0.0
 11
202.1248904042969
 21
-7.389404359375021
 31
0.0
 11
202.6362582021484
 21
-6.813903871093685
 31
0.0
 11
203.1071978383788
 21
-6.206024232421896
 31
0.0
 11
203.5341196828613
 21
-5.569671693359396
 31
0.0
 11
203.9141398244628
 21
-4.908721986328089
 31
0.0
 11
204.2492495351562
 21
-4.220764222656242
 31
0.0
 11
204.5366526418456
 21
-3.510681214843714
 31
0.0
 11
204.7735377126464
 21
-2.783325257812492
 31
0.0
 11
204.9571009450683
 21
-2.043579164062492
 31
0.0
 11
205.0648966604003
 21
-1.440185609374992
 31
0.0
 11
205.135979729248
 21
-0.8313904433593961
 31
0.0
  0
ARC
  5
56740
330
1F
100
AcDbEntity
  8
1
100
AcDbCircle
 10
193.725019
 20
-0.0000000000000568
 30
0.0
 40
5.000002999999998
100
AcDbArc
 50
269.9999960000009
 51
359.9999499999983
  0
ARC
  5
56741
330
1F
100
AcDbEntity
  8
1
100
AcDbCircle
 10
193.725019
 20
-0.0000000000000568
 30
0.0
 40
5.000002999999998
100
AcDbArc
 50
180.0000529999995
 51
270.0000089999996
  0
ARC
  5
56742
330
1F
100
AcDbEntity
  8
1
100
AcDbCircle
 10
193.725019
 20
-0.0000310000000354
 30
0.0
 40
5.000002999999998
100
AcDbArc
 50
89.99992200000127
 51
179.9999470000005
  0
ARC
  5
56743
330
1F
100
AcDbEntity
  8
1
100
AcDbCircle
 10
193.725019
 20
-0.0000310000000354
 30
0.0
 40
5.000002999999998
100
AcDbArc
 50
0.0000499999985184
 51
89.99993600000136
  0
ARC
  5
56744
330
1F
100
AcDbEntity
  8
1
100
AcDbCircle
 10
193.8750199999999
 20
-0.0000000000000568
 30
0.0
 40
4.750003999999997
100
AcDbArc
 50
270.0000430000017
 51
0.0000729999982277
  0
ARC
  5
56745
330
1F
100
AcDbEntity
  8
1
100
AcDbCircle
 10
193.8750199999999
 20
-0.0000000000000568
 30
0.0
 40
4.750003999999997
100
AcDbArc
 50
0.0000630000004781
 51
89.99995699999827
  0
ARC
  5
56746
330
1F
100
AcDbEntity
  8
1
100
AcDbCircle
 10
193.8750199999999
 20
-0.0000000000000568
 30
0.0
 40
4.750003999999997
100
AcDbArc
 50
89.9999970000023
 51
179.9999299999995
  0
ARC
  5
56747
330
1F
100
AcDbEntity
  8
1
100
AcDbCircle
 10
193.8750199999999
 20
-0.0000000000000568
 30
0.0
 40
4.750003999999997
100
AcDbArc
 50
180.0000210000001
 51
270.0000430000017
  0
ARC
  5
56748
330
1F
100
AcDbEntity
  8
1
100
AcDbCircle
 10
192.036412
 20
-0.0000000000000568
 30
0.0
 40
0.440895
100
AcDbArc
 50
103.4785079999975
 51
256.5214850000022
  0
ARC
  5
56749
330
1F
100
AcDbEntity
  8
1
100
AcDbCircle
 10
191.741132
 20
1.231994999999983
 30
0.0
 40
0.8260009999999999
100
AcDbArc
 50
283.4780969999961
 51
16.52191800000009
  0
ARC
  5
5674A
330
1F
100
AcDbEntity
  8
1
100
AcDbCircle
 10
192.9557159999999
 20
1.592254999999966
 30
0.0
 40
0.440895
100
AcDbArc
 50
43.47854799999637
 51
196.5214590000005
  0
ARC
  5
5674B
330
1F
100
AcDbEntity
  8
1
100
AcDbCircle
 10
195.713628
 20
-0.0000000000000568
 30
0.0
 40
0.440895
100
AcDbArc
 50
283.4785130000034
 51
76.5214970000015
  0
ARC
  5
5674C
330
1F
100
AcDbEntity
  8
1
100
AcDbCircle
 10
192.9557159999999
 20
-1.592285000000032
 30
0.0
 40
0.440895
100
AcDbArc
 50
163.4785359999997
 51
316.5214520000035
  0
ARC
  5
5674D
330
1F
100
AcDbEntity
  8
1
100
AcDbCircle
 10
196.008908
 20
-1.232024999999993
 30
0.0
 40
0.8260009999999999
100
AcDbArc
 50
103.4780990000003
 51
196.5219169999998
  0
ARC
  5
5674E
330
1F
100
AcDbEntity
  8
1
100
AcDbCircle
 10
193.8750199999999
 20
2.463988999999969
 30
0.0
 40
0.8260009999999999
100
AcDbArc
 50
223.478078000003
 51
316.5219299999982
  0
ARC
  5
5674F
330
1F
100
AcDbEntity
  8
1
100
AcDbCircle
 10
194.7943239999999
 20
1.592254999999966
 30
0.0
 40
0.440895
100
AcDbArc
 50
343.4785419999986
 51
136.5214570000025
  0
ARC
  5
56750
330
1F
100
AcDbEntity
  8
1
100
AcDbCircle
 10
193.8750199999999
 20
-2.464020000000004
 30
0.0
 40
0.8260009999999999
100
AcDbArc
 50
43.47808299999745
 51
136.5219250000028
  0
ARC
  5
56751
330
1F
100
AcDbEntity
  8
1
100
AcDbCircle
 10
194.7943239999999
 20
-1.592285000000032
 30
0.0
 40
0.440895
100
AcDbArc
 50
223.4785489999959
 51
16.52145399999783
  0
ARC
  5
56752
330
1F
100
AcDbEntity
  8
1
100
AcDbCircle
 10
196.008908
 20
1.231994999999983
 30
0.0
 40
0.8260009999999999
100
AcDbArc
 50
163.4780849999998
 51
256.5219009999996
  0
ARC
  5
56753
330
1F
100
AcDbEntity
  8
1
100
AcDbCircle
 10
193.8750199999999
 20
-0.0000000000000568
 30
0.0
 40
3.000002999999998
100
AcDbArc
 50
270.0000499999985
 51
89.99997300000119
  0
ARC
  5
56754
330
1F
100
AcDbEntity
  8
1
100
AcDbCircle
 10
193.8750199999999
 20
-0.0000000000000568
 30
0.0
 40
3.000002999999998
100
AcDbArc
 50
90.000044999998
 51
269.9999619999988
  0
ARC
  5
56755
330
1F
100
AcDbEntity
  8
1
100
AcDbCircle
 10
191.741132
 20
-1.232024999999993
 30
0.0
 40
0.8260009999999999
100
AcDbArc
 50
343.4780919999994
 51
76.52190599999688
  0
ARC
  5
56756
330
1F
100
AcDbEntity
  8
1
100
AcDbCircle
 10
174.523809
 20
-0.0000000000000284
 30
0.0
 40
0.8
100
AcDbArc
 50
329.999997000001
 51
29.99999899999826
  0
LINE
  5
56757
330
1F
100
AcDbEntity
  8
1
100
AcDbLine
 10
198.7250260000001
 20
-0.0000000000000568
 30
0.0
 11
198.6250199999999
 21
-0.0000000000000568
 31
0.0
  0
LINE
  5
56758
330
1F
100
AcDbEntity
  8
1
100
AcDbLine
 10
188.7250189999999
 20
-0.0000000000000284
 30
0.0
 11
189.1300249999999
 21
-0.0000000000000568
 31
0.0
  0
LINE
  5
56759
330
1F
100
AcDbEntity
  8
1
100
AcDbLine
 10
184.46371
 20
10.95242899999999
 30
0.0
 11
183.8563429999999
 21
11.16940199999999
 31
0.0
  0
LINE
  5
5675A
330
1F
100
AcDbEntity
  8
1
100
AcDbLine
 10
187.8750199999999
 20
-10.92547599999997
 30
0.0
 11
187.8750199999999
 21
-10.95245400000004
 31
0.0
  0
LINE
  5
5675B
330
1F
100
AcDbEntity
  8
1
100
AcDbLine
 10
188.997777
 20
-10.92547599999997
 30
0.0
 11
193.8750199999999
 21
-10.92547599999997
 31
0.0
  0
LINE
  5
5675C
330
1F
100
AcDbEntity
  8
1
100
AcDbLine
 10
187.8750199999999
 20
-10.92547599999997
 30
0.0
 11
188.997777
 21
-10.92547599999997
 31
0.0
  0
LINE
  5
5675D
330
1F
100
AcDbEntity
  8
1
100
AcDbLine
 10
182.9790769999999
 20
11.29785099999998
 30
0.0
 11
187.8750199999999
 21
11.29785099999998
 31
0.0
  0
LINE
  5
5675E
330
1F
100
AcDbEntity
  8
1
100
AcDbLine
 10
182.8750199999999
 20
-11.16943399999999
 30
0.0
 11
187.8750199999999
 21
-11.16943399999999
 31
0.0
  0
LINE
  5
5675F
330
1F
100
AcDbEntity
  8
1
100
AcDbLine
 10
182.8750199999999
 20
-10.95245400000004
 30
0.0
 11
182.8750199999999
 21
-11.16943399999999
 31
0.0
  0
LINE
  5
56760
330
1F
100
AcDbEntity
  8
1
100
AcDbLine
 10
182.8750199999999
 20
-10.95245400000004
 30
0.0
 11
187.8750199999999
 21
-10.95245400000004
 31
0.0
  0
LINE
  5
56761
330
1F
100
AcDbEntity
  8
1
100
AcDbLine
 10
193.725019
 20
-5.200011999999986
 30
0.0
 11
193.8750199999999
 21
-5.200011999999986
 31
0.0
  0
LINE
  5
56762
330
1F
100
AcDbEntity
  8
1
100
AcDbLine
 10
193.725019
 20
5.199981999999977
 30
0.0
 11
193.8750199999999
 21
5.199981999999977
 31
0.0
  0
LINE
  5
56763
330
1F
100
AcDbEntity
  8
1
100
AcDbLine
 10
182.8750199999999
 20
10.95242299999995
 30
0.0
 11
184.957318
 21
10.95242299999995
 31
0.0
  0
LINE
  5
56764
330
1F
100
AcDbEntity
  8
1
100
AcDbLine
 10
182.8750199999999
 20
11.16940299999999
 30
0.0
 11
182.8750199999999
 21
10.95242299999995
 31
0.0
  0
LINE
  5
56765
330
1F
100
AcDbEntity
  8
1
100
AcDbLine
 10
182.8750199999999
 20
11.16940299999999
 30
0.0
 11
183.8563429999999
 21
11.16940299999999
 31
0.0
  0
LINE
  5
56766
330
1F
100
AcDbEntity
  8
1
100
AcDbLine
 10
181.3750199999999
 20
-0.0000000000000284
 30
0.0
 11
181.3750199999999
 21
-11.32986500000001
 31
0.0
  0
LINE
  5
56767
330
1F
100
AcDbEntity
  8
1
100
AcDbLine
 10
181.3750199999999
 20
-0.0000000000000284
 30
0.0
 11
181.3750199999999
 21
11.32986399999998
 31
0.0
  0
LINE
  5
56768
330
1F
100
AcDbEntity
  8
1
100
AcDbLine
 10
176.3750199999999
 20
-12.25000000000003
 30
0.0
 11
176.3750199999999
 21
-0.0000000000000284
 31
0.0
  0
LINE
  5
56769
330
1F
100
AcDbEntity
  8
1
100
AcDbLine
 10
176.3749999940214
 20
-0.0000000000000284
 30
0.0
 11
176.3749999940214
 21
12.25
 31
0.0
  0
LINE
  5
5676A
330
1F
100
AcDbEntity
  8
1
100
AcDbLine
 10
193.8750199999999
 20
4.740020999999956
 30
0.0
 11
193.8750199999999
 21
4.749999999999943
 31
0.0
  0
LINE
  5
5676B
330
1F
100
AcDbEntity
  8
sk4
100
AcDbLine
 10
-104.788067
 20
0.0
 30
0.0
 11
0.0
 21
0.0
 31
0.0
  0
LINE
  5
5676C
330
1F
100
AcDbEntity
  8
4
100
AcDbLine
 10
0.0
 20
0.0000000000000568
 30
0.0
 11
216.3472379999999
 21
-0.0000000000000568
 31
0.0
  0
LINE
  5
5676D
330
1F
100
AcDbEntity
  8
sk1
100
AcDbLine
 10
-98.42500000000001
 20
11.5
 30
0.0
 11
-98.42500000000001
 21
0.0
 31
0.0
  0
LINE
  5
5676E
330
1F
100
AcDbEntity
  8
sk1
100
AcDbLine
 10
-97.22498799999995
 20
12.69998200000003
 30
0.0
 11
0.0
 21
12.69998200000003
 31
0.0
  0
LINE
  5
5676F
330
1F
100
AcDbEntity
  8
sk1
100
AcDbLine
 10
-97.22497699999998
 20
12.69999799999999
 30
0.0
 11
-98.42499499999997
 21
11.49997899999999
 31
0.0
  0
LINE
  5
56770
330
1F
100
AcDbEntity
  8
1
100
AcDbLine
 10
0.0
 20
12.69998200000003
 30
0.0
 11
0.4500090000000228
 21
12.24999300000002
 31
0.0
  0
LINE
  5
56771
330
1F
100
AcDbEntity
  8
1
100
AcDbLine
 10
0.4500160000000051
 20
12.25
 30
0.0
 11
0.4500160000000051
 21
-0.0000000000000284
 31
0.0
  0
LINE
  5
56772
330
1F
100
AcDbEntity
  8
sk1
100
AcDbLine
 10
-97.22498799999995
 20
-12.70001199999996
 30
0.0
 11
0.0000190000000657
 21
-12.70001199999998
 31
0.0
  0
LINE
  5
56773
330
1F
100
AcDbEntity
  8
1
100
AcDbLine
 10
0.4500160000000051
 20
-12.25003100000001
 30
0.0
 11
0.4500160000000051
 21
-0.0000000000000284
 31
0.0
  0
LINE
  5
56774
330
1F
100
AcDbEntity
  8
1
100
AcDbLine
 10
0.0000180000000682
 20
-12.70001299999998
 30
0.0
 11
0.4500090000000228
 21
-12.25002300000002
 31
0.0
  0
LINE
  5
56775
330
1F
100
AcDbEntity
  8
sk1
100
AcDbLine
 10
-98.42500000000001
 20
-11.5
 30
0.0
 11
-98.42500000000001
 21
0.0
 31
0.0
  0
LINE
  5
56776
330
1F
100
AcDbEntity
  8
1
100
AcDbLine
 10
0.0
 20
-12.69999700000002
 30
0.0
 11
0.0
 21
12.69999699999999
 31
0.0
  0
LINE
  5
56777
330
1F
100
AcDbEntity
  8
sk1
100
AcDbLine
 10
-97.22499700000003
 20
-12.70002299999999
 30
0.0
 11
-98.42499700000002
 21
-11.50002199999994
 31
0.0
  0
LINE
  5
56778
330
1F
100
AcDbEntity
  8
sk1
100
AcDbLine
 10
-97.22498799999995
 20
-12.70001199999996
 30
0.0
 11
-97.22498799999995
 21
12.69998200000003
 31
0.0
  0
LINE
  5
56779
330
1F
100
AcDbEntity
  8
1
100
AcDbLine
 10
168.375023
 20
12.24998800000003
 30
0.0
 11
175.216629
 21
0.3999790000000018
 31
0.0
  0
LINE
  5
5677A
330
1F
100
AcDbEntity
  8
1
100
AcDbLine
 10
168.3750189999999
 20
-12.25001799999998
 30
0.0
 11
175.216617
 21
-0.400022000000007
 31
0.0
  0
LINE
  5
5677B
330
1F
100
AcDbEntity
  8
1
100
AcDbLine
 10
175.158887
 20
-0.5000000000000285
 30
0.0
 11
175.158887
 21
0.4999999999999716
 31
0.0
  0
DIMENSION
  5
5677C
330
1F
100
AcDbEntity
  8
2
100
AcDbDimension
  2
*D118
 10
206.3750000000001
 20
45.27728057510418
 30
0.0
 11
103.1875
 21
49.32728057510418
 31
0.0
 70
    32
 71
     5
 42
206.3750000000001
  3
\M+18352\M+18373\M+1815B - ISO-25
100
AcDbAlignedDimension
 13
0.0
 23
12.69999999889995
 33
0.0
 14
206.3750000000001
 24
9.51258192906647
 34
0.0
 50
180.0
100
AcDbRotatedDimension
1001
ACAD
1000
DSTYLE
1002
{
1070
     4
1000
"
1070
    40
1040
1.0
1070
   143
1040
0.03937
1070
   170
1070
     1
1070
   171
1070
     3
1070
   271
1070
     8
1070
   285
1070
     4
1002
}
  0
LINE
  5
5677D
102
{ACAD_REACTORS
330
56737
102
}
330
1F
100
AcDbEntity
  8
1
100
AcDbLine
 10
176.3749999940216
 20
12.24999999999994
 30
0.0
 11
0.4500160000000051
 21
12.25
 31
0.0
  0
LINE
  5
5677E
102
{ACAD_REACTORS
330
56737
102
}
330
1F
100
AcDbEntity
  8
1
100
AcDbLine
 10
176.3750199999999
 20
-12.25000000000003
 30
0.0
 11
0.4500160000000051
 21
-12.25000000000003
 31
0.0
  0
DIMENSION
  5
5677F
330
1F
100
AcDbEntity
  8
sk2
100
AcDbDimension
  2
*D119
 10
-119.6402099999999
 20
12.69999999999999
 30
0.0
 11
-119.6402099999999
 21
-38.62500000000006
 31
0.0
 70
   160
  1
%%C<>
 71
     5
 41
0.892857
 42
25.39999999999998
  3
\M+18352\M+18373\M+1815B - ISO-25
100
AcDbAlignedDimension
 13
-97.22498799999995
 23
-12.69999999999999
 33
0.0
 14
-97.22498799999995
 24
12.69999999999999
 34
0.0
 50
270.0
100
AcDbRotatedDimension
1001
ACAD
1000
DSTYLE
1002
{
1070
     4
1000
%%C[]"
1070
    40
1040
1.0
1070
   143
1040
0.03937
1070
   170
1070
     1
1070
   171
1070
     3
1070
   271
1070
     8
1070
   285
1070
     4
1002
}
  0
LINE
  5
56780
330
1F
100
AcDbEntity
  8
1
100
AcDbLine
 10
181.3749999999999
 20
11.32999999889995
 30
0.0
 11
187.875
 21
11.32999999889998
 31
0.0
1001
ACAD
1000
RTMaterial
1005
0
  0
LINE
  5
56781
102
{ACAD_REACTORS
330
5678E
102
}
330
1F
100
AcDbEntity
  8
1
100
AcDbLine
 10
181.3749999999999
 20
11.32999999889995
 30
0.0
 11
176.3749999999999
 21
12.24999999889991
 31
0.0
1001
ACAD
1000
RTMaterial
1005
0
  0
ARC
  5
56782
330
1F
100
AcDbEntity
  8
nocut
100
AcDbCircle
 10
193.8784999999998
 20
0.0
 30
0.0
 40
11.32999999889999
100
AcDbArc
 50
0.0
 51
90.0
  0
LINE
  5
56783
330
1F
100
AcDbEntity
  8
nocut
100
AcDbLine
 10
205.2084999988999
 20
0.0
 30
0.0
 11
0.0
 21
0.0
 31
0.0
1001
ACAD
1000
RTMaterial
1005
0
  0
LINE
  5
56784
330
1F
100
AcDbEntity
  8
nocut
100
AcDbLine
 10
181.3749999999999
 20
11.3299999989
 30
0.0
 11
193.8784999999998
 21
11.32999999890006
 31
0.0
1001
ACAD
1000
RTMaterial
1005
0
  0
LINE
  5
56785
330
1F
100
AcDbEntity
  8
nocut
100
AcDbLine
 10
0.4500160000000051
 20
12.24999999889996
 30
0.0
 11
176.3749999999999
 21
12.24999999889996
 31
0.0
1001
ACAD
1000
RTMaterial
1005
0
  0
LINE
  5
56786
330
1F
100
AcDbEntity
  8
nocut
100
AcDbLine
 10
0.4500000000000455
 20
12.24999999889996
 30
0.0
 11
0.0
 21
12.69999999889995
 31
0.0
1001
ACAD
1000
RTMaterial
1005
0
  0
LINE
  5
56787
330
1F
100
AcDbEntity
  8
nocut
100
AcDbLine
 10
181.3749999999999
 20
11.3299999989
 30
0.0
 11
176.3749999999999
 21
12.24999999889996
 31
0.0
1001
ACAD
1000
RTMaterial
1005
0
  0
LINE
  5
56789
330
1F
100
AcDbEntity
  8
nocut
100
AcDbLine
 10
0.0
 20
12.69999999889995
 30
0.0
 11
0.0
 21
0.0000000000000568
 31
0.0
  0
LINE
  5
5678A
330
1F
100
AcDbEntity
  8
1
100
AcDbLine
 10
181.3749999999999
 20
-11.32999999890012
 30
0.0
 11
187.875
 21
-11.32999999890015
 31
0.0
1001
ACAD
1000
RTMaterial
1005
0
  0
LINE
  5
5678B
330
1F
100
AcDbEntity
  8
1
100
AcDbLine
 10
181.3749999999999
 20
-11.32999999890012
 30
0.0
 11
176.3750199999999
 21
-12.25000000000003
 31
0.0
1001
ACAD
1000
RTMaterial
1005
0
  0
DIMENSION
  5
5678C
102
{ACAD_XDICTIONARY
360
5678D
102
}
102
{ACAD_REACTORS
330
5678E
102
}
330
1F
100
AcDbEntity
  8
2
100
AcDbDimension
  2
*D126
 10
206.375
 20
31.70548622665553
 30
0.0
 11
191.3749999999999
 21
31.70548622665553
 31
0.0
 70
   160
 71
     5
 42
30.00000000000011
  3
\M+18352\M+18373\M+1815B - ISO-25
100
AcDbAlignedDimension
 13
176.3749999999999
 23
12.24999999889991
 33
0.0
 14
206.375
 24
9.512581927966209
 34
0.0
100
AcDbRotatedDimension
1001
ACAD
1000
DSTYLE
1002
{
1070
     4
1000
"
1070
    40
1040
1.0
1070
   143
1040
0.03937
1070
   170
1070
     1
1070
   171
1070
     3
1070
   271
1070
     8
1070
   285
1070
     4
1002
}
  0
DIMENSION
  5
567ED
330
1F
100
AcDbEntity
  8
2
100
AcDbDimension
  2
*D121
 10
225.4342836183016
 20
12.4999999988999
 30
0.0
 11
225.4342836183016
 21
-7.579389114783452
 31
0.0
 70
   160
  1
%%c<>
 71
     5
 42
24.99999999889991
  3
\M+18352\M+18373\M+1815B - ISO-25
100
AcDbAlignedDimension
 13
193.7436158523262
 23
-12.5
 33
0.0
 14
203.375
 24
12.49999999889991
 34
0.0
 50
270.0
100
AcDbRotatedDimension
1001
ACAD
1000
DSTYLE
1002
{
1070
    75
1070
     1
1070
   343
1005
50E6F
1070
     4
1000
%%c[]"
1070
    40
1040
1.0
1070
    76
1070
     0
1070
   143
1040
0.03937
1070
   170
1070
     1
1070
   171
1070
     3
1070
   173
1070
     1
1070
   271
1070
     8
1070
   285
1070
     4
1070
   344
1005
0
1002
}
  0
SPLINE
  5
567EE
330
1F
100
AcDbEntity
  8
1
100
AcDbSpline
210
0.0
220
0.0
230
1.0
 70
     8
 71
     3
 72
    12
 73
     8
 74
     6
 42
0.0000000001
 43
0.0000000001
 44
0.000001
 12
0.0537566380759423
 22
0.9985540665696436
 32
0.0
 13
0.0552813878764437
 23
0.9984708148736517
 33
0.0
 40
0.0
 40
0.0
 40
0.0
 40
0.0
 40
0.2209122770196051
 40
0.4175401307254177
 40
0.5973613852576813
 40
0.7637312137249407
 40
0.9175676701088244
 40
0.9175676701088244
 40
0.9175676701088244
 40
0.9175676701088244
 10
206.0788090422629
 20
5.144190706199879
 30
0.0
 10
206.0827675427038
 20
5.21772165705758
 30
0.0
 10
206.0902679827309
 20
5.356699455456407
 30
0.0
 10
206.1010488377469
 20
5.555527854763226
 30
0.0
 10
206.1109001833949
 20
5.73619912390518
 30
0.0
 10
206.1200298239298
 20
5.902624748179732
 30
0.0
 10
206.1259114702912
 20
6.009198001812279
 30
0.0
 10
206.1287462345628
 20
6.060398405799901
 30
0.0
 11
206.0788090422629
 21
5.144190706199879
 31
0.0
 11
206.090715036863
 21
5.364781912699868
 31
0.0
 11
206.101363528863
 21
5.561121213199839
 31
0.0
 11
206.1111550820631
 21
5.74067568209989
 31
0.0
 11
206.120267398963
 21
5.906795781999903
 31
0.0
 11
206.1287462345628
 21
6.060398405799901
 31
0.0
  0
SPLINE
  5
567EF
330
1F
100
AcDbEntity
  8
1
100
AcDbSpline
210
0.0
220
0.0
230
1.0
 70
     8
 71
     3
 72
    16
 73
    12
 74
    10
 42
0.0000000001
 43
0.0000000001
 44
0.000001
 12
0.0523642815861722
 22
0.998628049883421
 32
0.0
 13
0.0569679970418169
 23
0.998376004976604
 33
0.0
 40
0.0
 40
0.0
 40
0.0
 40
0.0
 40
0.0854285124863477
 40
0.1685700608950766
 40
0.2492343870075947
 40
0.3282451804660274
 40
0.4084813185550421
 40
0.4933911897960887
 40
0.5851106058513818
 40
0.6853132240075796
 40
0.7972341521209132
 40
0.7972341521209132
 40
0.7972341521209132
 40
0.7972341521209132
 10
206.1287462345628
 20
6.060398405799901
 30
0.0
 10
206.1302373687906
 20
6.088835508742789
 30
0.0
 10
206.1331957899474
 20
6.144947597069347
 30
0.0
 10
206.1376091243549
 20
6.227908422270246
 30
0.0
 10
206.1419512389548
 20
6.308730761133631
 30
0.0
 10
206.1462825729573
 20
6.388583801598656
 30
0.0
 10
206.1507340428642
 20
6.469847576277032
 30
0.0
 10
206.1554615357238
 20
6.55533877766453
 30
0.0
 10
206.1606032493143
 20
6.647472723610292
 30
0.0
 10
206.1662987944529
 20
6.748593442954586
 30
0.0
 10
206.1703067488624
 20
6.819187611905476
 30
0.0
 10
206.1724320525629
 20
6.856434001599836
 30
0.0
 11
206.1287462345628
 21
6.060398405799901
 31
0.0
 11
206.133241745363
 21
6.145708556399881
 31
0.0
 11
206.1376593641628
 21
6.228732659399838
 31
0.0
 11
206.1419868031628
 21
6.309280823899882
 31
0.0
 11
206.1462664345629
 21
6.388175629099919
 31
0.0
 11
206.1506545589629
 21
6.468291684299799
 31
0.0
 11
206.155342103463
 21
6.553072066899801
 31
0.0
 11
206.160452211363
 21
6.644649019499865
 31
0.0
 11
206.1660852081629
 21
6.744693182399885
 31
0.0
 11
206.1724320525629
 21
6.856434001599836
 31
0.0
  0
SPLINE
  5
567F0
330
1F
100
AcDbEntity
  8
1
100
AcDbSpline
210
0.0
220
0.0
230
1.0
 70
     8
 71
     3
 72
    20
 73
    16
 74
    14
 42
0.0000000001
 43
0.0000000001
 44
0.000001
 12
0.0504646768136971
 22
0.9987258464634273
 32
0.0
 13
0.0566339771029373
 23
0.9983950083196049
 33
0.0
 40
0.0
 40
0.0
 40
0.0
 40
0.0
 40
0.1299695316086983
 40
0.2634842210378501
 40
0.3944523656994926
 40
0.5221927303531916
 40
0.6478471449832548
 40
0.7733154705046026
 40
0.8993462909829316
 40
1.025951314724631
 40
1.153060762889081
 40
1.27968726531154
 40
1.405383091946248
 40
1.530137234819413
 40
1.653965431159819
 40
1.653965431159819
 40
1.653965431159819
 40
1.653965431159819
 10
206.1724320525629
 20
6.856434001599836
 30
0.0
 10
206.174618342699
 20
6.89970197842328
 30
0.0
 10
206.1790724107603
 20
6.98741704239967
 30
0.0
 10
206.1857989778251
 20
7.118728994626138
 30
0.0
 10
206.1925509599006
 20
7.249295600285762
 30
0.0
 10
206.1992287861335
 20
7.377242433052458
 30
0.0
 10
206.2058716059755
 20
7.503355310079285
 30
0.0
 10
206.2125452718702
 20
7.628895909639936
 30
0.0
 10
206.2192979216614
 20
7.754749612424859
 30
0.0
 10
206.2261436520175
 20
7.881146132847987
 30
0.0
 10
206.2330656340212
 20
8.007737358459053
 30
0.0
 10
206.2400367186353
 20
8.134022362963918
 30
0.0
 10
206.2470242150107
 20
8.259520149675722
 30
0.0
 10
206.2540159433014
 20
8.384083473247017
 30
0.0
 10
206.2586903329177
 20
8.466812303294688
 30
0.0
 10
206.2610279606631
 20
8.508022120999839
 30
0.0
 11
206.1724320525629
 21
6.856434001599836
 31
0.0
 11
206.1790209989629
 21
6.986236411399886
 31
0.0
 11
206.185852304963
 21
7.119576223599892
 31
0.0
 11
206.1926160755632
 21
7.250369596399877
 31
0.0
 11
206.199274319463
 21
7.377936318599836
 31
0.0
 11
206.205884009363
 21
7.503416771199908
 31
0.0
 11
206.2125446109628
 21
7.628708180199851
 31
0.0
 11
206.219297226563
 21
7.754557971499934
 31
0.0
 11
206.2261444422629
 21
7.880977699999903
 31
0.0
 11
206.2330844420628
 21
8.007897549899894
 31
0.0
 11
206.240062877263
 21
8.134331614299867
 31
0.0
 11
206.247050119963
 21
8.259833085799868
 31
0.0
 11
206.254039982063
 21
8.384391257099878
 31
0.0
 11
206.2610279606631
 21
8.508022120999839
 31
0.0
  0
SPLINE
  5
567F1
330
1F
100
AcDbEntity
  8
1
100
AcDbSpline
210
0.0
220
0.0
230
1.0
 70
     8
 71
     3
 72
    30
 73
    26
 74
    24
 42
0.0000000001
 43
0.0000000001
 44
0.000001
 12
0.0501108550457699
 22
0.9987436619105935
 32
0.0
 13
0.0685508447169234
 23
0.9976476240078941
 33
0.0
 40
0.0
 40
0.0
 40
0.0
 40
0.0
 40
0.1293520783930464
 40
0.2603192429101879
 40
0.3930945670089732
 40
0.5277045224369362
 40
0.659568533759785
 40
0.7806610712026744
 40
0.8876429477450827
 40
0.9818894022043988
 40
1.065234832682697
 40
1.139357155344317
 40
1.20578968228768
 40
1.265838053149865
 40
1.320505457373278
 40
1.369133043826469
 40
1.413180334557013
 40
1.454877083267379
 40
1.49578016481331
 40
1.535065932231218
 40
1.571692658061884
 40
1.606311803942294
 40
1.640121211670024
 40
1.67371329612085
 40
1.707260265385096
 40
1.707260265385096
 40
1.707260265385096
 40
1.707260265385096
 10
206.2610279606631
 20
8.508022120999839
 30
0.0
 10
206.2631886084132
 20
8.551085310483188
 30
0.0
 10
206.2675586504036
 20
8.637748283904699
 30
0.0
 10
206.2742220368342
 20
8.768610276076145
 30
0.0
 10
206.281064672983
 20
8.901218011163052
 30
0.0
 10
206.2880329438729
 20
9.034118574651699
 30
0.0
 10
206.2949274704215
 20
9.163123319056097
 30
0.0
 10
206.3013821526269
 20
9.28292904180941
 30
0.0
 10
206.3071539552661
 20
9.39021418709521
 30
0.0
 10
206.3122094951041
 20
9.484937296027624
 30
0.0
 10
206.3166266893524
 20
9.568725688338133
 30
0.0
 10
206.320495864642
 20
9.643258757041024
 30
0.0
 10
206.3239579585819
 20
9.710036811226387
 30
0.0
 10
206.3271129476602
 20
9.770337103072563
 30
0.0
 10
206.3300051031899
 20
9.824708032848434
 30
0.0
 10
206.3326701360021
 20
9.873749780787335
 30
0.0
 10
206.335159596395
 20
9.918471101465343
 30
0.0
 10
206.3375679163206
 20
9.960618074103194
 30
0.0
 10
206.3399522409892
 20
10.00117660435714
 30
0.0
 10
206.3423085171594
 20
10.04004379329763
 30
0.0
 10
206.3446071164114
 20
10.07681592725691
 30
0.0
 10
206.3468671512785
 20
10.11176137202216
 30
0.0
 10
206.3491223412243
 20
10.14569340604379
 30
0.0
 10
206.3513992871925
 20
10.17926577211122
 30
0.0
 10
206.3529232287694
 20
10.20159351134012
 30
0.0
 10
206.3536897864631
 20
10.21274952939984
 30
0.0
 11
206.2610279606631
 21
8.508022120999839
 31
0.0
 11
206.267543067763
 21
8.637210009099931
 31
0.0
 11
206.274207097963
 21
8.768007520099899
 31
0.0
 11
206.2810523602629
 21
8.900606272599929
 31
0.0
 11
206.2881047047629
 21
9.035031361999926
 31
0.0
 11
206.295129947063
 21
9.166708100899882
 31
0.0
 11
206.301634539263
 21
9.28762581239988
 31
0.0
 11
206.307374947163
 21
9.394453569199868
 31
0.0
 11
206.3123933070631
 21
9.488566321799908
 31
0.0
 11
206.316777731563
 21
9.571796349599878
 31
0.0
 11
206.3206288736631
 21
9.645818557799884
 31
0.0
 11
206.3240746567629
 21
9.712161658999889
 31
0.0
 11
206.3272167596631
 21
9.772127765099867
 31
0.0
 11
206.330124075763
 21
9.826717804799841
 31
0.0
 11
206.332765188663
 21
9.875273613099921
 31
0.0
 11
206.335215213363
 21
9.919252710599891
 31
0.0
 11
206.3375954986629
 21
9.960881460999871
 31
0.0
 11
206.3399975803629
 21
10.00171394439985
 31
0.0
 11
206.3423758541628
 21
10.04092764709986
 31
0.0
 11
206.3446633514629
 21
10.0774827900999
 31
0.0
 11
206.3468939470629
 21
10.11203006069985
 31
0.0
 11
206.3491337828629
 21
10.14576521759988
 31
0.0
 11
206.351401705163
 21
10.17928065669991
 31
0.0
 11
206.3536897864631
 21
10.21274952939984
 31
0.0
  0
SPLINE
  5
567F2
330
1F
100
AcDbEntity
  8
1
100
AcDbSpline
210
0.0
220
0.0
230
1.0
 70
     8
 71
     3
 72
    60
 73
    56
 74
    54
 42
0.0000000001
 43
0.0000000001
 44
0.000001
 12
0.0617078449968049
 22
0.9980942550009244
 32
0.0
 13
0.0007198759664901
 23
0.999999740889263
 33
0.0
 40
0.0
 40
0.0
 40
0.0
 40
0.0
 40
0.0432744837885932
 40
0.0823935686413708
 40
0.117753275128666
 40
0.1497220396493156
 40
0.178667736125607
 40
0.2049579182663405
 40
0.2289612973591754
 40
0.2510367030538518
 40
0.2714400706075915
 40
0.2902279561845108
 40
0.3074326456797626
 40
0.323088814384723
 40
0.3372401682802951
 40
0.349991265494681
 40
0.3615097087537369
 40
0.3719613084208726
 40
0.3814767611587875
 40
0.3900733407339416
 40
0.3977667556746879
 40
0.4047613026780376
 40
0.4113991159087026
 40
0.4179911797457342
 40
0.4246423719515261
 40
0.4312995505542793
 40
0.4379259624950536
 40
0.4445326626112591
 40
0.4513306213811464
 40
0.4586060647179321
 40
0.4666431659472768
 40
0.4757432275953821
 40
0.4862224114175458
 40
0.4982100138526698
 40
0.5109769144586024
 40
0.5237251080617603
 40
0.536408589982857
 40
0.5491335174157696
 40
0.5618998155987982
 40
0.5746609883569415
 40
0.587316263397412
 40
0.600032276931248
 40
0.6133728508367442
 40
0.6279311261331618
 40
0.6442952238062852
 40
0.6630490617362462
 40
0.6845048964668745
 40
0.7072608473498607
 40
0.7296861738991275
 40
0.7517301393963764
 40
0.7738938224330393
 40
0.7970569753997036
 40
0.8221667547043782
 40
0.8501715043166797
 40
0.8820608283995865
 40
0.8820608283995865
 40
0.8820608283995865
 40
0.8820608283995865
 10
206.3536897864631
 20
10.21274952939984
 30
0.0
 10
206.354579911509
 20
10.22714686728568
 30
0.0
 10
206.3562614010584
 20
10.25455986944641
 30
0.0
 10
206.358648996285
 20
10.29373828187974
 30
0.0
 10
206.3607558531614
 20
10.32915821215113
 30
0.0
 10
206.3626041094601
 20
10.36119635352969
 30
0.0
 10
206.3642172363187
 20
10.3902197971725
 30
0.0
 10
206.3656231040275
 20
10.41659546592458
 30
0.0
 10
206.3668499396623
 20
10.44068726097549
 30
0.0
 10
206.3679234104325
 20
10.46282198540092
 30
0.0
 10
206.3688629541696
 20
10.4832226014777
 30
0.0
 10
206.3696823513959
 20
10.50200340060647
 30
0.0
 10
206.3703920918152
 20
10.51920502831899
 30
0.0
 10
206.3710024796094
 20
10.53486388653246
 30
0.0
 10
206.371524437017
 20
10.54904049797722
 30
0.0
 10
206.3719697402916
 20
10.56183972687842
 30
0.0
 10
206.3723503418049
 20
10.57340718689943
 30
0.0
 10
206.372677052209
 20
10.58389727071565
 30
0.0
 10
206.372957878541
 20
10.59341434296348
 30
0.0
 10
206.3731985549432
 20
10.60201279405743
 30
0.0
 10
206.3734049443199
 20
10.60977156558405
 30
0.0
 10
206.3735849267502
 20
10.61687788021709
 30
0.0
 10
206.3737475376906
 20
10.62361739499945
 30
0.0
 10
206.3738995807355
 20
10.63024267524991
 30
0.0
 10
206.374043843718
 20
10.63687458620182
 30
0.0
 10
206.3741802876768
 20
10.64351811444169
 30
0.0
 10
206.374308357369
 20
10.65014697592943
 30
0.0
 10
206.3744291855132
 20
10.65682290784883
 30
0.0
 10
206.3745453455358
 20
10.6637152983223
 30
0.0
 10
206.374659822698
 20
10.67108457928665
 30
0.0
 10
206.3747744225312
 20
10.6792213108705
 30
0.0
 10
206.3748889318024
 20
10.68842605226723
 30
0.0
 10
206.3749997327841
 20
10.69894775893314
 30
0.0
 10
206.3750971112999
 20
10.71069192909755
 30
0.0
 10
206.3751690630905
 20
10.72319263543232
 30
0.0
 10
206.3752078800903
 20
10.73592545222357
 30
0.0
 10
206.3752111953951
 20
10.74864433187591
 30
0.0
 10
206.3751907449317
 20
10.76136922155842
 30
0.0
 10
206.3751582529038
 20
10.77411997968531
 30
0.0
 10
206.3751267814032
 20
10.78684752347163
 30
0.0
 10
206.3751065055543
 20
10.79955832913143
 30
0.0
 10
206.3750926352079
 20
10.81246227603986
 30
0.0
 10
206.3750822743539
 20
10.82600055973381
 30
0.0
 10
206.3750708586232
 20
10.84075487094946
 30
0.0
 10
206.3750553406261
 20
10.85731360069388
 30
0.0
 10
206.3750373284071
 20
10.87617151553266
 30
0.0
 10
206.3750205758891
 20
10.89716005018471
 30
0.0
 10
206.3750075565822
 20
10.91937241721581
 30
0.0
 10
206.3749974969087
 20
10.94178082931205
 30
0.0
 10
206.3749901874655
 20
10.96399181987027
 30
0.0
 10
206.3749861028532
 20
10.98644875341975
 30
0.0
 10
206.3749856982713
 20
11.00992762531624
 30
0.0
 10
206.374989910521
 20
11.03535351902317
 30
0.0
 10
206.3749995708592
 20
11.06368813537702
 30
0.0
 10
206.3750128768433
 20
11.08365282245987
 30
0.0
 10
206.3750205289628
 20
11.09428259439988
 30
0.0
 11
206.3536897864631
 21
10.21274952939984
 31
0.0
 11
206.3563442090628
 21
10.25594255279986
 31
0.0
 11
206.3587162809629
 21
10.29498965369987
 31
0.0
 11
206.360812925763
 21
10.33028714659986
 31
0.0
 11
206.3626514065629
 21
10.36220300439993
 31
0.0
 11
206.364255888763
 21
10.39110419919984
 31
0.0
 11
206.365653825563
 21
10.41735718989992
 31
0.0
 11
206.3668735481631
 21
10.44132956039988
 31
0.0
 11
206.367942099163
 21
10.46337909079989
 31
0.0
 11
206.3688801667629
 21
10.48376088379984
 31
0.0
 11
206.3696986289631
 21
10.50253093459986
 31
0.0
 11
206.3704075422631
 21
10.51972101369983
 31
0.0
 11
206.3710171033629
 21
10.53536531249989
 31
0.0
 11
206.3715375906629
 21
10.54950709229985
 31
0.0
 11
206.371980816363
 21
10.56225048479984
 31
0.0
 11
206.3723595024628
 21
10.57376270219993
 31
0.0
 11
206.3726847847631
 21
10.58420923949984
 31
0.0
 11
206.3729653876628
 21
10.59372055459988
 31
0.0
 11
206.373205878763
 21
10.60231377019988
 31
0.0
 11
206.373410429663
 21
10.61000446589992
 31
0.0
 11
206.373587504163
 21
10.61699677159993
 31
0.0
 11
206.3737475975629
 21
10.6236326543999
 31
0.0
 11
206.3738988211628
 21
10.6302229838999
 31
0.0
 11
206.3740434548629
 21
10.63687260379993
 31
0.0
 11
206.3741801445628
 21
10.64352837939987
 31
0.0
 11
206.374308134463
 21
10.6501535555999
 31
0.0
 11
206.3744276802629
 21
10.65675917449988
 31
0.0
 11
206.3745422202631
 21
10.66355616869987
 31
0.0
 11
206.374655208763
 21
10.67083073509991
 31
0.0
 11
206.3747683675631
 21
10.67886704019986
 31
0.0
 11
206.3748815216629
 21
10.68796639889984
 31
0.0
 11
206.3749917905629
 21
10.69844500319988
 31
0.0
 11
206.3750910508631
 21
10.7104321953999
 31
0.0
 11
206.375164334363
 21
10.72319888639992
 31
0.0
 11
206.3752030072631
 21
10.73594702199989
 31
0.0
 11
206.3752082498629
 21
10.74863050339991
 31
0.0
 11
206.375189774363
 21
10.76135541789989
 31
0.0
 11
206.375159409263
 21
10.77412168039984
 31
0.0
 11
206.375129568263
 21
10.78688281869983
 31
0.0
 11
206.375108632563
 21
10.79953807689992
 31
0.0
 11
206.3750944993628
 21
10.8122540830999
 31
0.0
 11
206.375083567063
 21
10.82559465309987
 31
0.0
 11
206.3750719509628
 21
10.84015292439989
 31
0.0
 11
206.3750570413629
 21
10.85651701599988
 31
0.0
 11
206.3750396463629
 21
10.87527084669989
 31
0.0
 11
206.3750226577629
 21
10.89672667569988
 31
0.0
 11
206.3750090161627
 21
10.91948262359989
 31
0.0
 11
206.3749988915631
 21
10.94190794899987
 31
0.0
 11
206.374991739963
 21
10.96395191449988
 31
0.0
 11
206.3749877582629
 21
10.98611559839992
 31
0.0
 11
206.3749873870631
 21
11.0092787526998
 31
0.0
 11
206.374991444163
 21
11.03438853319989
 31
0.0
 11
206.375001550263
 21
11.06239328279986
 31
0.0
 11
206.3750205289628
 21
11.09428259439988
 31
0.0
  0
SPLINE
  5
567F3
330
1F
100
AcDbEntity
  8
1
100
AcDbSpline
210
0.0
220
0.0
230
1.0
 70
     8
 71
     3
 72
    24
 73
    20
 74
     0
 42
0.0000000001
 43
0.0000000001
 40
0.487899064237684
 40
0.487899064237684
 40
0.487899064237684
 40
0.487899064237684
 40
0.5236648418388775
 40
0.5835404063895357
 40
0.6444439463131654
 40
0.7040897320836934
 40
0.7608884892163328
 40
0.8216121935209883
 40
0.8882564964476815
 40
0.9612742288492087
 40
1.041211352954175
 40
1.128859641138297
 40
1.225085230503133
 40
1.330891753639384
 40
1.447414246610523
 40
1.576366815720263
 40
1.719812078603109
 40
1.879584516116304
 40
2.058034587852425
 40
2.058034587852425
 40
2.058034587852425
 40
2.058034587852425
 10
201.6003134323312
 20
12.25507676184764
 30
0.0
 10
201.5943539829589
 20
12.25494244024679
 30
0.0
 10
201.5784178152432
 20
12.25458287083955
 30
0.0
 10
201.552333674708
 20
12.25399280983646
 30
0.0
 10
201.5222705921662
 20
12.25331091084518
 30
0.0
 10
201.4927202143642
 20
12.25263908300957
 30
0.0
 10
201.4631998375683
 20
12.25196634841762
 30
0.0
 10
201.4325133827394
 20
12.25126534169538
 30
0.0
 10
201.3991245175655
 20
12.25050053831842
 30
0.0
 10
201.3625343140172
 20
12.2496598529757
 30
0.0
 10
201.3224444426417
 20
12.24873559589036
 30
0.0
 10
201.2784877135439
 20
12.24771825159831
 30
0.0
 10
201.2302206866782
 20
12.24659621104001
 30
0.0
 10
201.1771427367914
 20
12.24535612026039
 30
0.0
 10
201.1186119652182
 20
12.24398065084318
 30
0.0
 10
201.0538100222043
 20
12.24244845188309
 30
0.0
 10
200.9818020266882
 20
12.24073500664161
 30
0.0
 10
200.9015470738384
 20
12.23881308500222
 30
0.0
 10
200.8451930391632
 20
12.23745409343576
 30
0.0
 10
200.8154600560631
 20
12.23673495279991
 30
0.0
  0
SPLINE
  5
567F4
330
1F
100
AcDbEntity
  8
1
100
AcDbSpline
210
0.0
220
0.0
230
1.0
 70
     8
 71
     3
 72
    15
 73
    11
 74
     9
 42
0.0000000001
 43
0.0000000001
 44
0.000001
 12
-0.9996952981782621
 22
-0.0246842216866443
 32
0.0
 13
-0.9996437941717914
 23
-0.0266886637699441
 33
0.0
 40
0.0
 40
0.0
 40
0.0
 40
0.0
 40
0.1282896066431957
 40
0.2566918152153812
 40
0.3852058623263814
 40
0.51381866076574
 40
0.6425190924699951
 40
0.7713050421614153
 40
0.900181115469423
 40
1.029150374371223
 40
1.029150374371223
 40
1.029150374371223
 40
1.029150374371223
 10
200.8154600560631
 20
12.23673495279991
 30
0.0
 10
200.7727098838743
 20
12.23567937643642
 30
0.0
 10
200.6871723649485
 20
12.2335531867372
 30
0.0
 10
200.5588109816491
 20
12.23032556823412
 30
0.0
 10
200.4303428571874
 20
12.22705745817228
 30
0.0
 10
200.3017762850169
 20
12.22375056238695
 30
0.0
 10
200.173119933248
 20
12.22040944305544
 30
0.0
 10
200.0443766087613
 20
12.21703706402877
 30
0.0
 10
199.9155444417795
 20
12.21363436933663
 30
0.0
 10
199.8296264071294
 20
12.21134822406239
 30
0.0
 10
199.7866519673628
 20
12.21020088499989
 30
0.0
 11
200.8154600560631
 21
12.23673495279991
 31
0.0
 11
200.687210014763
 21
12.23354886569984
 31
0.0
 11
200.5588483777631
 21
12.23032121559993
 31
0.0
 11
200.430375885963
 21
12.22705325859988
 31
0.0
 11
200.3018055871628
 21
12.22374700269984
 31
0.0
 11
200.173148530763
 21
12.22040570979993
 31
0.0
 11
200.0444067665628
 21
12.21703265639985
 31
0.0
 11
199.9155756152629
 21
12.21363044919985
 31
0.0
 11
199.7866519673628
 21
12.21020088499989
 31
0.0
  0
SPLINE
  5
567F5
330
1F
100
AcDbEntity
  8
1
100
AcDbSpline
210
0.0
220
0.0
230
1.0
 70
     8
 71
     3
 72
    15
 73
    11
 74
     9
 42
0.0000000001
 43
0.0000000001
 44
0.000001
 12
-0.9996187572485514
 22
-0.0276105080877133
 32
0.0
 13
-0.9995738757846494
 23
-0.0291901841182039
 33
0.0
 40
0.0
 40
0.0
 40
0.0
 40
0.0
 40
0.1283354155426486
 40
0.2567728937128316
 40
0.3853058315790946
 40
0.5139331379644128
 40
0.6426564717716863
 40
0.7714747182649058
 40
0.9003824744936189
 40
1.029374071479053
 40
1.029374071479053
 40
1.029374071479053
 40
1.029374071479053
 10
199.7866519673628
 20
12.21020088499989
 30
0.0
 10
199.7438898044975
 20
12.20901974965696
 30
0.0
 10
199.658331791611
 20
12.20664491355933
 30
0.0
 10
199.5299468634343
 20
12.20304895013098
 30
0.0
 10
199.4014655353214
 20
12.19941973002599
 30
0.0
 10
199.2728897590045
 20
12.19575965149283
 30
0.0
 10
199.1442196196261
 20
12.19207231919171
 30
0.0
 10
199.0154566888311
 20
12.18835957790469
 30
0.0
 10
198.8866049793898
 20
12.18462333141866
 30
0.0
 10
198.8006750077104
 20
12.18211918925513
 30
0.0
 10
198.757696130863
 20
12.1808640930999
 30
0.0
 11
199.7866519673628
 21
12.21020088499989
 31
0.0
 11
199.6583659379628
 21
12.20664077439989
 31
0.0
 11
199.5299788153629
 21
12.20304438379986
 31
0.0
 11
199.4014971298629
 21
12.19941492889984
 31
0.0
 11
199.2729218919628
 21
12.19575547579984
 31
0.0
 11
199.1442513739628
 21
12.19206844129985
 31
0.0
 11
199.0154866361629
 21
12.1883559536999
 31
0.0
 11
198.8866330232629
 21
12.18462030839987
 31
0.0
 11
198.757696130863
 21
12.1808640930999
 31
0.0
  0
SPLINE
  5
567F6
330
1F
100
AcDbEntity
  8
1
100
AcDbSpline
210
0.0
220
0.0
230
1.0
 70
     8
 71
     3
 72
    15
 73
    11
 74
     9
 42
0.0000000001
 43
0.0000000001
 44
0.000001
 12
-0.9995341523545667
 22
-0.0305201290435991
 32
0.0
 13
-0.9994985880247448
 23
-0.0316634258497375
 33
0.0
 40
0.0
 40
0.0
 40
0.0
 40
0.0
 40
0.1283545482250002
 40
0.2568116738954782
 40
0.3853670982437238
 40
0.5140174891475491
 40
0.6427625600596603
 40
0.7716018809101745
 40
0.9005310218899616
 40
1.029539878204208
 40
1.029539878204208
 40
1.029539878204208
 40
1.029539878204208
 10
198.757696130863
 20
12.1808640930999
 30
0.0
 10
198.714931212676
 20
12.17955829397485
 30
0.0
 10
198.6293674784277
 20
12.17693651796986
 30
0.0
 10
198.5009728113782
 20
12.17297717890946
 30
0.0
 10
198.3724802861412
 20
12.16899187160572
 30
0.0
 10
198.2438924665592
 20
12.16498297069685
 30
0.0
 10
198.1152106421701
 20
12.16095251889828
 30
0.0
 10
197.9864364441766
 20
12.15690330717825
 30
0.0
 10
197.8575748042974
 20
12.15283726591161
 30
0.0
 10
197.7716384844725
 20
12.1501179721852
 30
0.0
 10
197.728657094563
 20
12.14875635139992
 30
0.0
 11
198.757696130863
 21
12.1808640930999
 31
0.0
 11
198.6294017688631
 21
12.17693378499985
 31
0.0
 11
198.5010056703629
 21
12.17297448369993
 31
0.0
 11
198.3725120388628
 21
12.16898893309985
 31
0.0
 11
198.2439241276629
 21
12.16497989179993
 31
0.0
 11
198.1152421491631
 21
12.1609498636999
 31
0.0
 11
197.9864664659628
 21
12.15690100499989
 31
0.0
 11
197.857601440963
 21
12.15283557349988
 31
0.0
 11
197.728657094563
 21
12.14875635139992
 31
0.0
  0
SPLINE
  5
567F7
330
1F
100
AcDbEntity
  8
1
100
AcDbSpline
210
0.0
220
0.0
230
1.0
 70
     8
 71
     3
 72
    65
 73
    61
 74
     0
 42
0.0000000001
 43
0.0000000001
 40
0.9419477497939141
 40
0.9419477497939141
 40
0.9419477497939141
 40
0.9419477497939141
 40
1.18325501640758
 40
1.36448006477373
 40
1.547973306492441
 40
1.733955933042738
 40
1.91932492568833
 40
2.100146633509103
 40
2.187622997150551
 40
2.272487439531325
 40
2.354634843873518
 40
2.435514156910338
 40
2.516960783854464
 40
2.600810153758548
 40
2.68889774845452
 40
2.783059119494629
 40
2.885129886638043
 40
2.996945727104926
 40
3.047118671259485
 40
3.072569920303745
 40
3.098048858233416
 40
3.148676789993535
 40
3.199169925868345
 40
3.249766715896661
 40
3.300310614597601
 40
3.350632794626609
 40
3.375931600850294
 40
3.401469416971781
 40
3.427247291820325
 40
3.452971419375818
 40
3.478239089882622
 40
3.502647499567276
 40
3.574757492423596
 40
3.637601219467498
 40
3.695479133018868
 40
3.752691587595001
 40
3.812631083798102
 40
3.87505336605219
 40
3.938806233820863
 40
4.002737481348662
 40
4.128473863578824
 40
4.252784712384696
 40
4.377617852860025
 40
4.502833392692362
 40
4.627909176444532
 40
4.752883442657235
 40
5.002934766993358
 40
5.252988149918849
 40
5.503042812872905
 40
5.753098964661754
 40
6.00315669723973
 40
6.253215100372284
 40
6.503276845562252
 40
6.753342553412742
 40
7.00340989561648
 40
7.253471114100201
 40
7.50352521845234
 40
7.753585627883567
 40
8.003668049512281
 40
8.25375722195819
 40
8.25375722195819
 40
8.25375722195819
 40
8.25375722195819
 10
201.6003134510763
 20
-12.25507626998603
 30
0.0
 10
201.6405040626939
 20
-12.25655697579469
 30
0.0
 10
201.7108787593991
 20
-12.25913917191497
 30
0.0
 10
201.8118166632941
 20
-12.26279984855387
 30
0.0
 10
201.9035413538265
 20
-12.26608470142207
 30
0.0
 10
201.9959579984582
 20
-12.26934529577744
 30
0.0
 10
202.0879302480478
 20
-12.272573508155
 30
0.0
 10
202.1634945032984
 20
-12.27523691902837
 30
0.0
 10
202.2223175694696
 20
-12.27733356139691
 30
0.0
 10
202.2647047916878
 20
-12.27886014504537
 30
0.0
 10
202.305992459748
 20
-12.28036803823193
 30
0.0
 10
202.3467106585474
 20
-12.28186092590368
 30
0.0
 10
202.3877127235626
 20
-12.28335341634835
 30
0.0
 10
202.4299163493149
 20
-12.28486265478039
 30
0.0
 10
202.4742392219132
 20
-12.28640589963004
 30
0.0
 10
202.5215990126469
 20
-12.28800064137027
 30
0.0
 10
202.5729133940638
 20
-12.2896644159731
 30
0.0
 10
202.6169019646686
 20
-12.29103525496668
 30
0.0
 10
202.6481276565853
 20
-12.2919815568672
 30
0.0
 10
202.6649717174296
 20
-12.29244863441681
 30
0.0
 10
202.6818926843573
 20
-12.29287641293524
 30
0.0
 10
202.702988442112
 20
-12.29330711495504
 30
0.0
 10
202.7282721772542
 20
-12.29367583070962
 30
0.0
 10
202.7535434168862
 20
-12.29391859544762
 30
0.0
 10
202.7787870369718
 20
-12.29403827052294
 30
0.0
 10
202.7998146285995
 20
-12.29403461756936
 30
0.0
 10
202.8166742755354
 20
-12.29395745238724
 30
0.0
 10
202.8294430046628
 20
-12.29385935028637
 30
0.0
 10
202.8422822291193
 20
-12.29371935660356
 30
0.0
 10
202.8550760503424
 20
-12.29354911278994
 30
0.0
 10
202.8676413364035
 20
-12.2933602370357
 30
0.0
 10
202.8879363792428
 20
-12.2930330606971
 30
0.0
 10
202.9144929097613
 20
-12.29258178801081
 30
0.0
 10
202.9466261036321
 20
-12.29199159132679
 30
0.0
 10
202.9762762326022
 20
-12.29141761715408
 30
0.0
 10
203.0054422893215
 20
-12.29084668018487
 30
0.0
 10
203.0353659364339
 20
-12.29027852266762
 30
0.0
 10
203.0663796404949
 20
-12.28969955397406
 30
0.0
 10
203.0980585980003
 20
-12.28911233166121
 30
0.0
 10
203.1402880576522
 20
-12.28832762322264
 30
0.0
 10
203.1926084410932
 20
-12.28733767666478
 30
0.0
 10
203.2550769939601
 20
-12.28613848772153
 30
0.0
 10
203.317458675205
 20
-12.28493677946136
 30
0.0
 10
203.3799676758738
 20
-12.28372504551697
 30
0.0
 10
203.4424999776657
 20
-12.28250178950281
 30
0.0
 10
203.525833999982
 20
-12.28085818196985
 30
0.0
 10
203.6299931277933
 20
-12.27878135615373
 30
0.0
 10
203.7549940587303
 20
-12.27624977854259
 30
0.0
 10
203.8799950264013
 20
-12.27368056157468
 30
0.0
 10
204.0049959250807
 20
-12.27107299252515
 30
0.0
 10
204.1299966415238
 20
-12.26842708024071
 30
0.0
 10
204.254997469985
 20
-12.26574268970279
 30
0.0
 10
204.379998814283
 20
-12.26302067767148
 30
0.0
 10
204.5050008401243
 20
-12.26026178134657
 30
0.0
 10
204.6300019409109
 20
-12.25746519584152
 30
0.0
 10
204.7550001755449
 20
-12.25462725269716
 30
0.0
 10
204.8799962760579
 20
-12.25174654615193
 30
0.0
 10
205.0049950416826
 20
-12.24882839423514
 30
0.0
 10
205.1299990335426
 20
-12.24588380225037
 30
0.0
 10
205.2133372577436
 20
-12.24389573407063
 30
0.0
 10
205.255006785063
 20
-12.24289556850016
 30
0.0
  0
SPLINE
  5
567F8
330
1F
100
AcDbEntity
  8
1
100
AcDbSpline
210
0.0
220
0.0
230
1.0
 70
     8
 71
     3
 72
    65
 73
    61
 74
    59
 42
0.0000000001
 43
0.0000000001
 44
0.000001
 12
0.9993200971720092
 22
0.0368692743097341
 32
0.0
 13
0.9997120686114714
 23
-0.0239954135736991
 33
0.0
 40
0.0
 40
0.0
 40
0.0
 40
0.0
 40
0.1206536181303887
 40
0.2112661423199734
 40
0.3030127630153132
 40
0.3960040761773749
 40
0.4886885726174382
 40
0.579099426825871
 40
0.6228376088411531
 40
0.6652698302473056
 40
0.7063435326433904
 40
0.746783189356129
 40
0.7875065029627408
 40
0.8294311879762968
 40
0.8734749853094706
 40
0.9205556707415288
 40
0.9715910541598766
 40
1.027498974185738
 40
1.052585446149964
 40
1.06531107059223
 40
1.078050539454041
 40
1.103364505060528
 40
1.128611072669644
 40
1.153909467330306
 40
1.179181416322598
 40
1.204342505992045
 40
1.216991908943296
 40
1.229760816855589
 40
1.242649754148547
 40
1.255511817813218
 40
1.268145652969087
 40
1.280349857725569
 40
1.316404853918898
 40
1.347826717266513
 40
1.376765673898575
 40
1.405371901044402
 40
1.435341648974622
 40
1.466552789899927
 40
1.498429223560101
 40
1.530394847086565
 40
1.593263037713248
 40
1.655418461594108
 40
1.717835031247625
 40
1.780442800508818
 40
1.842980691656311
 40
1.905467823945029
 40
2.030493484152749
 40
2.155520173061035
 40
2.280547501109039
 40
2.405575572211329
 40
2.530604431420715
 40
2.655633621642765
 40
2.78066447360189
 40
2.905697280513155
 40
3.030730762208337
 40
3.155761157879
 40
3.28078852843516
 40
3.405818797500218
 40
3.530860026909937
 40
3.655904708460957
 40
3.655904708460957
 40
3.655904708460957
 40
3.655904708460957
 10
201.6003134316629
 20
12.25507679149984
 30
0.0
 10
201.6405039601277
 20
12.25655959528095
 30
0.0
 10
201.7108788070047
 20
12.25913759841518
 30
0.0
 10
201.8118166565769
 20
12.26279960422005
 30
0.0
 10
201.9035413590775
 20
12.26608413137592
 30
0.0
 10
201.9959580003688
 20
12.26934481451422
 30
0.0
 10
202.087930250942
 20
12.2725730030474
 30
0.0
 10
202.1634945061882
 20
12.27523641953149
 30
0.0
 10
202.2223175726217
 20
12.27733306120024
 30
0.0
 10
202.2647047950468
 20
12.27885964498344
 30
0.0
 10
202.3059924633202
 20
12.28036753813674
 30
0.0
 10
202.3467106623038
 20
12.28186042581828
 30
0.0
 10
202.3877127274492
 20
12.28335291626155
 30
0.0
 10
202.4299163532621
 20
12.28486215469465
 30
0.0
 10
202.4742392258465
 20
12.28640539954438
 30
0.0
 10
202.5215990164948
 20
12.2880001412841
 30
0.0
 10
202.5729133977622
 20
12.28966391588594
 30
0.0
 10
202.6169019682088
 20
12.29103475487849
 30
0.0
 10
202.648127659992
 20
12.29198105677795
 30
0.0
 10
202.6649717207376
 20
12.29244813432706
 30
0.0
 10
202.681892687513
 20
12.29287591284409
 30
0.0
 10
202.7029884450331
 20
12.29330661486281
 30
0.0
 10
202.7282721798565
 20
12.29367533061562
 30
0.0
 10
202.753543419142
 20
12.29391809535178
 30
0.0
 10
202.7787870388755
 20
12.29403777042537
 30
0.0
 10
202.7998146302151
 20
12.29403411747077
 30
0.0
 10
202.816674276933
 20
12.29395695228771
 30
0.0
 10
202.8294430059138
 20
12.29385885018638
 30
0.0
 10
202.8422822302391
 20
12.29371885650332
 30
0.0
 10
202.8550760513481
 20
12.29354861268842
 30
0.0
 10
202.8676413373103
 20
12.29335973693696
 30
0.0
 10
202.8879363800101
 20
12.29303256058011
 30
0.0
 10
202.9144929103667
 20
12.29258128808885
 30
0.0
 10
202.9466261040493
 20
12.29199109118292
 30
0.0
 10
202.9762762328669
 20
12.29141711706194
 30
0.0
 10
203.0054422894336
 20
12.29084618007911
 30
0.0
 10
203.0353659363743
 20
12.29027802256547
 30
0.0
 10
203.0663796402363
 20
12.28969905387035
 30
0.0
 10
203.0980585975203
 20
12.28911183155728
 30
0.0
 10
203.1402880568558
 20
12.28832712311836
 30
0.0
 10
203.1926084398805
 20
12.28733717656041
 30
0.0
 10
203.2550769922157
 20
12.28613798761839
 30
0.0
 10
203.3174586728736
 20
12.28493627935515
 30
0.0
 10
203.3799676728865
 20
12.28372454542443
 30
0.0
 10
203.4424999739435
 20
12.2825012893652
 30
0.0
 10
203.5258339950953
 20
12.28085768207069
 30
0.0
 10
203.6299931211236
 20
12.27878085598604
 30
0.0
 10
203.7549940494161
 20
12.27624927855785
 30
0.0
 10
203.8799950134883
 20
12.27368006131496
 30
0.0
 10
204.0049959070925
 20
12.27107249343413
 30
0.0
 10
204.1299966157065
 20
12.26842657724779
 30
0.0
 10
204.254997431496
 20
12.26574220219561
 30
0.0
 10
204.3799987481942
 20
12.2630201346131
 30
0.0
 10
204.505000693192
 20
12.26026145260516
 30
0.0
 10
204.6300016263904
 20
12.25746409417729
 30
0.0
 10
204.7549999031079
 20
12.25462924914024
 30
0.0
 10
204.8799960466118
 20
12.25174794583844
 30
0.0
 10
205.0049949446559
 20
12.24882974511513
 30
0.0
 10
205.1299990158161
 20
12.24588598284092
 30
0.0
 10
205.2133372259755
 20
12.24389573478288
 30
0.0
 10
205.255006785063
 20
12.24289556849987
 30
0.0
 11
201.6003134316629
 21
12.25507679149984
 31
0.0
 11
201.7208860800631
 21
12.25949709529993
 31
0.0
 11
201.8114391205629
 21
12.26277983909989
 31
0.0
 11
201.9031270033631
 21
12.26606230849984
 31
0.0
 11
201.9960603013631
 21
12.2693465875999
 31
0.0
 11
202.0886875779631
 21
12.27260288969989
 31
0.0
 11
202.1790421169628
 21
12.27579346809989
 31
0.0
 11
202.2227525109631
 21
12.27735231509984
 31
0.0
 11
202.2651572018629
 21
12.27888057619987
 31
0.0
 11
202.3062036271629
 21
12.28037723119985
 31
0.0
 11
202.3466162301631
 21
12.28185619509986
 31
0.0
 11
202.3873126815631
 21
12.28333508009984
 31
0.0
 11
202.429210652163
 21
12.28483149819988
 31
0.0
 11
202.4732278124629
 21
12.28636306139992
 31
0.0
 11
202.520281833363
 21
12.28794738189992
 31
0.0
 11
202.5712903854631
 21
12.28960207169984
 31
0.0
 11
202.6271711393631
 21
12.29134474279988
 31
0.0
 11
202.6522464619629
 21
12.29209259389984
 31
0.0
 11
202.6649672386629
 21
12.29244382149988
 31
0.0
 11
202.6777026817629
 21
12.29276407149984
 31
0.0
 11
202.7030113192629
 21
12.29328344059985
 31
0.0
 11
202.728255150663
 21
12.29365516369989
 31
0.0
 11
202.7535523740628
 21
12.29389865569987
 31
0.0
 11
202.7788240408629
 21
12.29401820029989
 31
0.0
 11
202.8039851296628
 21
12.29400981819992
 31
0.0
 11
202.8166343989631
 21
12.2939516173999
 31
0.0
 11
202.8294029288629
 21
12.29385333659991
 31
0.0
 11
202.8422911195628
 21
12.29371459229992
 31
0.0
 11
202.8551520635631
 21
12.29354487099988
 31
0.0
 11
202.8677844907631
 21
12.29335625169989
 31
0.0
 11
202.8799871306631
 21
12.29316081349987
 31
0.0
 11
202.9160369057629
 21
12.29254722709993
 31
0.0
 11
202.9474534943631
 21
12.29197149179993
 31
0.0
 11
202.976387098463
 21
12.29141491759992
 31
0.0
 11
203.004987919963
 21
12.29085881439988
 31
0.0
 11
203.0349522399631
 21
12.29028843689991
 31
0.0
 11
203.0661579250629
 21
12.28970486949993
 31
0.0
 11
203.0980288663629
 21
12.28911314209983
 31
0.0
 11
203.1299889547629
 21
12.2885182843998
 31
0.0
 11
203.192845929663
 21
12.28733077699985
 31
0.0
 11
203.254989945963
 21
12.28613996489992
 31
0.0
 11
203.3173949275631
 21
12.28493724919985
 31
0.0
 11
203.379990926363
 21
12.28372324669988
 31
0.0
 11
203.4425168592632
 21
12.28250027919989
 31
0.0
 11
203.5049918457628
 21
12.28126825649985
 31
0.0
 11
203.6299926521631
 21
12.27877533429989
 31
0.0
 11
203.7549937163628
 21
12.27624401229991
 31
0.0
 11
203.8799946451629
 21
12.27367467709985
 31
0.0
 11
204.004995526863
 21
12.27106710959992
 31
0.0
 11
204.1299963928629
 21
12.26842117279989
 31
0.0
 11
204.2549967776629
 21
12.26573693619991
 31
0.0
 11
204.379998019763
 21
12.26301505009985
 31
0.0
 11
204.5050004290631
 21
12.26025600549985
 31
0.0
 11
204.630002807063
 21
12.25745877249989
 31
0.0
 11
204.7550011994629
 21
12.25462059389986
 31
0.0
 11
204.879995082963
 21
12.2517408432999
 31
0.0
 11
205.0049912735628
 21
12.24882459629987
 31
0.0
 11
205.129997763963
 21
12.24587809369984
 31
0.0
 11
205.255006785063
 21
12.24289556849987
 31
0.0
  0
SPLINE
  5
567F9
330
1F
100
AcDbEntity
  8
1
100
AcDbSpline
210
0.0
220
0.0
230
1.0
 70
     8
 71
     3
 72
    30
 73
    26
 74
    24
 42
0.0000000001
 43
0.0000000001
 44
0.000001
 12
0.5215181867291583
 22
0.8532401660205234
 32
0.0
 13
0.4780875323105111
 23
0.8783121947515281
 33
0.0
 40
0.0
 40
0.0
 40
0.0
 40
0.0
 40
0.0022065053235961
 40
0.0043931567899198
 40
0.0065602879747212
 40
0.0087081556901401
 40
0.0108374657359334
 40
0.0129483876021594
 40
0.0150412107360573
 40
0.0171166279682062
 40
0.0191756102856036
 40
0.021219158144872
 40
0.0232479414647023
 40
0.0252629323674541
 40
0.0272649230446178
 40
0.0292544591247416
 40
0.0312324827989804
 40
0.0331999036153405
 40
0.0351576626761321
 40
0.0371065129093317
 40
0.0390472471695012
 40
0.040980591555978
 40
0.0429073498683344
 40
0.0448283705386163
 40
0.0466620072689272
 40
0.0466620072689272
 40
0.0466620072689272
 40
0.0466620072689272
 10
206.149093791463
 20
-11.82037614800015
 30
0.0
 10
206.1494773690148
 20
-11.81974858834394
 30
0.0
 10
206.150239728948
 20
-11.81849829379456
 30
0.0
 10
206.151374118721
 20
-11.81662877571258
 30
0.0
 10
206.1524943584325
 20
-11.81477354014208
 30
0.0
 10
206.1536007364849
 20
-11.81293226851483
 30
0.0
 10
206.1546935111313
 20
-11.81110468745399
 30
0.0
 10
206.1557729443322
 20
-11.80929051287711
 30
0.0
 10
206.1568392943067
 20
-11.80748946319659
 30
0.0
 10
206.1578929528384
 20
-11.80570102513599
 30
0.0
 10
206.1589344273516
 20
-11.80392447818937
 30
0.0
 10
206.1599642155293
 20
-11.80215910473461
 30
0.0
 10
206.1609828096233
 20
-11.80040418330628
 30
0.0
 10
206.1619906615176
 20
-11.79865904906057
 30
0.0
 10
206.1629881970243
 20
-11.79692306974709
 30
0.0
 10
206.163975832158
 20
-11.79519561881807
 30
0.0
 10
206.1649539972923
 20
-11.7934760327202
 30
0.0
 10
206.1659231821237
 20
-11.79176352985016
 30
0.0
 10
206.166883838971
 20
-11.79005737983206
 30
0.0
 10
206.167836395161
 20
-11.78835688277314
 30
0.0
 10
206.1687812374464
 20
-11.78666139813526
 30
0.0
 10
206.1697187554846
 20
-11.78497026755593
 30
0.0
 10
206.1706493424009
 20
-11.7832828133576
 30
0.0
 10
206.1715601796282
 20
-11.78162242799112
 30
0.0
 10
206.1721597157098
 20
-11.78052381846709
 30
0.0
 10
206.1724519286629
 20
-11.77998698330009
 30
0.0
 11
206.149093791463
 21
-11.82037614800015
 31
0.0
 11
206.150242468063
 21
-11.81849221990012
 31
0.0
 11
206.151376748863
 21
-11.8166227841001
 31
0.0
 11
206.1524968800629
 21
-11.81476760830014
 31
0.0
 11
206.153603066263
 21
-11.81292652490015
 31
0.0
 11
206.154695740363
 21
-11.81109897980013
 31
0.0
 11
206.1557750563629
 21
-11.80928487710014
 31
0.0
 11
206.1568412282629
 21
-11.80748401710014
 31
0.0
 11
206.1578946722629
 21
-11.80569585110015
 31
0.0
 11
206.158935940163
 21
-11.8039195875001
 31
0.0
 11
206.1599655914631
 21
-11.80215440510011
 31
0.0
 11
206.1609840126628
 21
-11.80039976450007
 31
0.0
 11
206.161991736463
 21
-11.79865486180011
 31
0.0
 11
206.162989198863
 21
-11.79691904510014
 31
0.0
 11
206.1639767078629
 21
-11.79519187340008
 31
0.0
 11
206.1649547633631
 21
-11.79347255870016
 31
0.0
 11
206.1659238419632
 21
-11.79176033740015
 31
0.0
 11
206.1668844291628
 21
-11.79005441480007
 31
0.0
 11
206.1678369113631
 21
-11.78835415650008
 31
0.0
 11
206.1687816890628
 21
-11.78665889040007
 31
0.0
 11
206.1697191241631
 21
-11.78496799950011
 31
0.0
 11
206.1706496103629
 21
-11.78328079580012
 31
0.0
 11
206.1715735564628
 21
-11.78159654890009
 31
0.0
 11
206.1724519286629
 21
-11.77998698330009
 31
0.0
  0
SPLINE
  5
567FA
330
1F
100
AcDbEntity
  8
1
100
AcDbSpline
210
0.0
220
0.0
230
1.0
 70
     8
 71
     3
 72
    42
 73
    38
 74
    36
 42
0.0000000001
 43
0.0000000001
 44
0.000001
 12
0.5847748923758401
 22
0.8111956146619782
 32
0.0
 13
0.5258557844892641
 23
0.850573743962968
 33
0.0
 40
0.0
 40
0.0
 40
0.0
 40
0.0
 40
0.0021928550738477
 40
0.0043661293286399
 40
0.0065210020731628
 40
0.0086587748219288
 40
0.0107801086307924
 40
0.0128851471182262
 40
0.0149737827751414
 40
0.0170460978889737
 40
0.0191023592704582
 40
0.0211430987867583
 40
0.023169453863033
 40
0.0251821522452353
 40
0.0271815897551164
 40
0.0291683990125763
 40
0.0311437519787511
 40
0.0331086234329914
 40
0.035063977993757
 40
0.0370106733570523
 40
0.0389491418966829
 40
0.0408801039435922
 40
0.0428044458481286
 40
0.0447230198793953
 40
0.0466366347535354
 40
0.048545973650938
 40
0.0504517104033562
 40
0.0523544409699527
 40
0.0542551279530947
 40
0.0561547416349267
 40
0.0580543282037193
 40
0.0599541944347982
 40
0.061854456525287
 40
0.0637555745295734
 40
0.0656586374506318
 40
0.0675642256659292
 40
0.0694727771563255
 40
0.0694727771563255
 40
0.0694727771563255
 40
0.0694727771563255
 10
206.1104070660629
 20
-11.87806312070012
 30
0.0
 10
206.1108345082595
 20
-11.87747017589362
 30
0.0
 10
206.1116844314743
 20
-11.87628875543856
 30
0.0
 10
206.1129503866921
 20
-11.87452178264348
 30
0.0
 10
206.1142022293652
 20
-11.87276729058968
 30
0.0
 10
206.1154406149717
 20
-11.87102447064598
 30
0.0
 10
206.1166659994431
 20
-11.86929279545907
 30
0.0
 10
206.1178785450314
 20
-11.86757210523302
 30
0.0
 10
206.1190783766633
 20
-11.86586244930748
 30
0.0
 10
206.1202653713468
 20
-11.86416365323447
 30
0.0
 10
206.1214398993728
 20
-11.86247562798107
 30
0.0
 10
206.1226023969319
 20
-11.86079790030916
 30
0.0
 10
206.1237533575274
 20
-11.85912984964122
 30
0.0
 10
206.1248932500961
 20
-11.85747089333335
 30
0.0
 10
206.126022443157
 20
-11.85582058372063
 30
0.0
 10
206.1271413847722
 20
-11.85417834798028
 30
0.0
 10
206.1282506271651
 20
-11.8525434505876
 30
0.0
 10
206.1293507776863
 20
-11.85091505956029
 30
0.0
 10
206.1304423795621
 20
-11.84929242591977
 30
0.0
 10
206.1315258684901
 20
-11.84767494618151
 30
0.0
 10
206.1326016308576
 20
-11.84606208179889
 30
0.0
 10
206.1336700541706
 20
-11.84445328345782
 30
0.0
 10
206.1347315978961
 20
-11.8428478816067
 30
0.0
 10
206.1357867325115
 20
-11.84124517867209
 30
0.0
 10
206.1368358862095
 20
-11.83964453035435
 30
0.0
 10
206.1378794474674
 20
-11.83804533752561
 30
0.0
 10
206.1389177672725
 20
-11.83644706129252
 30
0.0
 10
206.1399512205166
 20
-11.83484906752727
 30
0.0
 10
206.1409803123299
 20
-11.83325068828174
 30
0.0
 10
206.1420052739967
 20
-11.83165090192827
 30
0.0
 10
206.1430267914403
 20
-11.83004923877311
 30
0.0
 10
206.1440450222815
 20
-11.82844522807389
 30
0.0
 10
206.1450601158758
 20
-11.82683862628664
 30
0.0
 10
206.1460723315733
 20
-11.82522895086705
 30
0.0
 10
206.1470820133627
 20
-11.82361559000466
 30
0.0
 10
206.1480894936883
 20
-11.82199793375215
 30
0.0
 10
206.1487592505159
 20
-11.82091726926239
 30
0.0
 10
206.149093791463
 20
-11.82037614800015
 30
0.0
 11
206.1104070660629
 21
-11.87806312070012
 31
0.0
 11
206.1116876259628
 21
-11.87628302700011
 31
0.0
 11
206.112953262563
 21
-11.8745163471001
 31
0.0
 11
206.1142047263631
 21
-11.87276217320015
 31
0.0
 11
206.1154428307629
 21
-11.87101949250006
 31
0.0
 11
206.116668011463
 21
-11.86928780970015
 31
0.0
 11
206.117880402363
 21
-11.86756705000016
 31
0.0
 11
206.1190799923632
 21
-11.8658573438002
 31
0.0
 11
206.1202669077629
 21
-11.86415862680007
 31
0.0
 11
206.1214413325631
 21
-11.86247075000011
 31
0.0
 11
206.122603608063
 21
-11.8607933337002
 31
0.0
 11
206.1237544258631
 21
-11.85912548300007
 31
0.0
 11
206.124894238563
 21
-11.8574666355002
 31
0.0
 11
206.1260233073629
 21
-11.85581649990013
 31
0.0
 11
206.127142023963
 21
-11.8541745870001
 31
0.0
 11
206.128251078763
 21
-11.85253995840014
 31
0.0
 11
206.1293510442631
 21
-11.85091183380007
 31
0.0
 11
206.1304424813629
 21
-11.84928943730011
 31
0.0
 11
206.1315258849629
 21
-11.8476720773001
 31
0.0
 11
206.1326015089628
 21
-11.84605941270013
 31
0.0
 11
206.1336697635631
 21
-11.84445086050016
 31
0.0
 11
206.134731145363
 21
-11.84284569570013
 31
0.0
 11
206.135786126563
 21
-11.84124321810009
 31
0.0
 11
206.1368351498629
 21
-11.83964276030013
 31
0.0
 11
206.137878583763
 21
-11.83804375640011
 31
0.0
 11
206.1389167869631
 21
-11.83644564540009
 31
0.0
 11
206.139950071163
 21
-11.83484792880011
 31
0.0
 11
206.1409789433631
 21
-11.83324979430011
 31
0.0
 11
206.1420039366628
 21
-11.83165037300011
 31
0.0
 11
206.143025554363
 21
-11.83004882660009
 31
0.0
 11
206.1440439277628
 21
-11.82844488720013
 31
0.0
 11
206.1450590835629
 21
-11.82683844670015
 31
0.0
 11
206.1460712299629
 21
-11.82522910540012
 31
0.0
 11
206.147080903663
 21
-11.82361592770007
 31
0.0
 11
206.1480883644629
 21
-11.82199840530012
 31
0.0
 11
206.149093791463
 21
-11.82037614800015
 31
0.0
  0
SPLINE
  5
567FB
330
1F
100
AcDbEntity
  8
1
100
AcDbSpline
210
0.0
220
0.0
230
1.0
 70
     8
 71
     3
 72
    42
 73
    38
 74
    36
 42
0.0000000001
 43
0.0000000001
 44
0.000001
 12
0.644572482870125
 22
0.7645432063177611
 32
0.0
 13
0.5945634191335855
 23
0.8040487178201209
 33
0.0
 40
0.0
 40
0.0
 40
0.0
 40
0.0
 40
0.0021802120418722
 40
0.0043420457869978
 40
0.0064867418036827
 40
0.0086146198478403
 40
0.0107260173558746
 40
0.0128219022324992
 40
0.014902650978167
 40
0.016968107629224
 40
0.0190180906454873
 40
0.0210532072109718
 40
0.0230742823537629
 40
0.0250819089282248
 40
0.0270771423433464
 40
0.0290606434221548
 40
0.0310328680173682
 40
0.0329947531244708
 40
0.0349471546127629
 40
0.0368910035162082
 40
0.0388270179025315
 40
0.0407559342120843
 40
0.0426783857137447
 40
0.0445950624551545
 40
0.046506911503133
 40
0.048415007961889
 40
0.0503203118433994
 40
0.0522231497687394
 40
0.0541237020394702
 40
0.0560225510222637
 40
0.0579207493763968
 40
0.0598188052085778
 40
0.0617171564958503
 40
0.0636166099446403
 40
0.0655182834909762
 40
0.0674225995417353
 40
0.0693300290516845
 40
0.0693300290516845
 40
0.0693300290516845
 40
0.0693300290516845
 10
206.0673689756629
 20
-11.93240233360006
 30
0.0
 10
206.0678374105592
 20
-11.93184671149842
 30
0.0
 10
206.0687693545979
 20
-11.93073932680192
 30
0.0
 10
206.0701586834392
 20
-11.92908249751681
 30
0.0
 10
206.0715338862631
 20
-11.92743659342406
 30
0.0
 10
206.0728954102828
 20
-11.92580117276159
 30
0.0
 10
206.0742436425285
 20
-11.92417586157199
 30
0.0
 10
206.075578979026
 20
-11.92256026863472
 30
0.0
 10
206.0769017107065
 20
-11.92095412901074
 30
0.0
 10
206.0782118766288
 20
-11.91935746660468
 30
0.0
 10
206.0795095934386
 20
-11.91777026907465
 30
0.0
 10
206.0807950038971
 20
-11.9161921235262
 30
0.0
 10
206.0820687573259
 20
-11.91462269690515
 30
0.0
 10
206.0833313587833
 20
-11.91306134524845
 30
0.0
 10
206.0845833365925
 20
-11.91150751413141
 30
0.0
 10
206.0858251699114
 20
-11.90996066782986
 30
0.0
 10
206.0870573137536
 20
-11.90842030178146
 30
0.0
 10
206.088280258956
 20
-11.90688585668556
 30
0.0
 10
206.0894945909167
 20
-11.90535664596768
 30
0.0
 10
206.0907008444494
 20
-11.9038320359889
 30
0.0
 10
206.0918995255545
 20
-11.90231142102144
 30
0.0
 10
206.0930910741411
 20
-11.90079426958456
 30
0.0
 10
206.0942759209459
 20
-11.89928005484745
 30
0.0
 10
206.0954545348579
 20
-11.8977681906957
 30
0.0
 10
206.0966274743191
 20
-11.89625797406074
 30
0.0
 10
206.097795334023
 20
-11.8947486162327
 30
0.0
 10
206.0989586266741
 20
-11.89323952637363
 30
0.0
 10
206.1001174913089
 20
-11.89173020267176
 30
0.0
 10
206.10127223707
 20
-11.89022043342089
 30
0.0
 10
206.1024232331831
 20
-11.88870974738651
 30
0.0
 10
206.1035708926655
 20
-11.88719756949797
 30
0.0
 10
206.1047156000567
 20
-11.88568336361822
 30
0.0
 10
206.1058576854941
 20
-11.88416665539654
 30
0.0
 10
206.1069975977431
 20
-11.88264680552026
 30
0.0
 10
206.1081357771664
 20
-11.88112317499983
 30
0.0
 10
206.1092725922622
 20
-11.87959521121897
 30
0.0
 10
206.1100290367924
 20
-11.87857434278405
 30
0.0
 10
206.1104070660629
 20
-11.87806312070012
 30
0.0
 11
206.0673689756629
 21
-11.93240233360006
 31
0.0
 11
206.0687727767629
 21
-11.93073421060012
 31
0.0
 11
206.0701617726629
 21
-11.92907767050008
 31
0.0
 11
206.0715368122631
 21
-11.92743181130015
 31
0.0
 11
206.072898148863
 21
-11.92579643340013
 31
0.0
 11
206.0742460453627
 21
-11.92417132230014
 31
0.0
 11
206.0755811639631
 21
-11.92255577570012
 31
0.0
 11
206.076903786063
 21
-11.92094954390006
 31
0.0
 11
206.078213853363
 21
-11.91935278730011
 31
0.0
 11
206.0795112960629
 21
-11.91776568260013
 31
0.0
 11
206.080796559163
 21
-11.91618777570011
 31
0.0
 11
206.0820701756632
 21
-11.91461849590007
 31
0.0
 11
206.0833325538631
 21
-11.91305741940016
 31
0.0
 11
206.084584388763
 21
-11.91150375910013
 31
0.0
 11
206.085826122963
 21
-11.90995703110008
 31
0.0
 11
206.087058067563
 21
-11.90841690860009
 31
0.0
 11
206.0882808308631
 21
-11.90688268630015
 31
0.0
 11
206.0894949656629
 21
-11.90535371830015
 31
0.0
 11
206.090701066563
 21
-11.90382929580011
 31
0.0
 11
206.0918995914629
 21
-11.9023088734001
 31
0.0
 11
206.0930910054628
 21
-11.90079188790008
 31
0.0
 11
206.094275706063
 21
-11.89927785420013
 31
0.0
 11
206.095454121963
 21
-11.89776623950013
 31
0.0
 11
206.096626835363
 21
-11.89625630480009
 31
0.0
 11
206.097794501263
 21
-11.89474720560008
 31
0.0
 11
206.0989576980631
 21
-11.89323818370008
 31
0.0
 11
206.1001166328631
 21
-11.89172895340016
 31
0.0
 11
206.1012713899629
 21
-11.89021938500014
 31
0.0
 11
206.1024223009629
 21
-11.88870902240012
 31
0.0
 11
206.1035699839629
 21
-11.88719702300011
 31
0.0
 11
206.1047147224629
 21
-11.88568297420011
 31
0.0
 11
206.105856754263
 21
-11.88416651710014
 31
0.0
 11
206.1069965348631
 21
-11.88264699550007
 31
0.0
 11
206.108134700363
 21
-11.88112350000011
 31
0.0
 11
206.109271464363
 21
-11.87959567420012
 31
0.0
 11
206.1104070660629
 21
-11.87806312070012
 31
0.0
  0
SPLINE
  5
567FC
330
1F
100
AcDbEntity
  8
1
100
AcDbSpline
210
0.0
220
0.0
230
1.0
 70
     8
 71
     3
 72
    42
 73
    38
 74
    36
 42
0.0000000001
 43
0.0000000001
 44
0.000001
 12
0.7006062732084163
 22
0.7135480712194618
 32
0.0
 13
0.6585192966998246
 23
0.7525638417263805
 33
0.0
 40
0.0
 40
0.0
 40
0.0
 40
0.0
 40
0.002165766427775
 40
0.0043137475547612
 40
0.0064449748026003
 40
0.008560637855278
 40
0.010661853207409
 40
0.0127494211619894
 40
0.0148232541185084
 40
0.0168830262700509
 40
0.0189288622876706
 40
0.0209606482069448
 40
0.0229781140164622
 40
0.0249817917115761
 40
0.0269729260067144
 40
0.0289527104502031
 40
0.0309218338844551
 40
0.0328809803074946
 40
0.0348309355428806
 40
0.0367724862596923
 40
0.038706461687263
 40
0.040633645696962
 40
0.0425548119801749
 40
0.0444703668780654
 40
0.0463812198495724
 40
0.0482878134305145
 40
0.050190787114638
 40
0.0520909662082065
 40
0.0539890587319644
 40
0.055885826566169
 40
0.0577818737587203
 40
0.0596779161510975
 40
0.0615745129904953
 40
0.0634724961069145
 40
0.0653726533779751
 40
0.0672758471266773
 40
0.0691825197816197
 40
0.0691825197816197
 40
0.0691825197816197
 40
0.0691825197816197
 10
206.0202919891628
 20
-11.98308433440013
 30
0.0
 10
206.0207977723447
 20
-11.98256920824772
 30
0.0
 10
206.0218043587154
 20
-11.98154237427471
 30
0.0
 10
206.0233057720491
 20
-11.98000579956411
 30
0.0
 10
206.0247930496986
 20
-11.97847876673728
 30
0.0
 10
206.026267002923
 20
-11.97696052077424
 30
0.0
 10
206.0277283847179
 20
-11.97545035714606
 30
0.0
 10
206.0291776481435
 20
-11.97394787341761
 30
0.0
 10
206.0306149110449
 20
-11.97245301162343
 30
0.0
 10
206.0320401351221
 20
-11.97096587594848
 30
0.0
 10
206.0334532786679
 20
-11.96948657930983
 30
0.0
 10
206.0348543067778
 20
-11.96801521529897
 30
0.0
 10
206.036243303867
 20
-11.96655180335227
 30
0.0
 10
206.0376205734431
 20
-11.96509594646983
 30
0.0
 10
206.0389868763206
 20
-11.96364700888986
 30
0.0
 10
206.0403429696555
 20
-11.96220427887652
 30
0.0
 10
206.0416894569726
 20
-11.96076715664782
 30
0.0
 10
206.0430268506923
 20
-11.95933514321535
 30
0.0
 10
206.0443556811945
 20
-11.95790771163967
 30
0.0
 10
206.0456765081923
 20
-11.95648429607007
 30
0.0
 10
206.0469898874515
 20
-11.95506432781596
 30
0.0
 10
206.0482963678265
 20
-11.95364723764083
 30
0.0
 10
206.049596399062
 20
-11.95223255662984
 30
0.0
 10
206.0508904569476
 20
-11.95081978295471
 30
0.0
 10
206.0521789348694
 20
-11.9494084889113
 30
0.0
 10
206.053462208629
 20
-11.9479981259162
 30
0.0
 10
206.0547407881955
 20
-11.94658830555249
 30
0.0
 10
206.0560151331811
 20
-11.94517847374302
 30
0.0
 10
206.0572857554524
 20
-11.9437680689345
 30
0.0
 10
206.0585531063068
 20
-11.9423565742511
 30
0.0
 10
206.0598176374131
 20
-11.94094346975606
 30
0.0
 10
206.0610797515038
 20
-11.93952828244528
 30
0.0
 10
206.0623398986909
 20
-11.93811047994364
 30
0.0
 10
206.0635985413379
 20
-11.93668950877253
 30
0.0
 10
206.0648562047624
 20
-11.93526473636484
 30
0.0
 10
206.0661133240655
 20
-11.93383562394618
 30
0.0
 10
206.0669504487509
 20
-11.93288063123276
 30
0.0
 10
206.0673689756629
 20
-11.93240233360006
 30
0.0
 11
206.0202919891628
 21
-11.98308433440013
 31
0.0
 11
206.0218080705629
 21
-11.98153771910011
 31
0.0
 11
206.023309194363
 21
-11.98000136380011
 31
0.0
 11
206.024796125763
 21
-11.97847457920011
 31
0.0
 11
206.0262697349628
 21
-11.97695655740011
 31
0.0
 11
206.027730835963
 21
-11.9754465380002
 31
0.0
 11
206.0291800181628
 21
-11.97394398330016
 31
0.0
 11
206.0306172520629
 21
-11.97244899230009
 31
0.0
 11
206.0320423442629
 21
-11.97096183690007
 31
0.0
 11
206.0334554133631
 21
-11.96948246410011
 31
0.0
 11
206.034856413263
 21
-11.96801099360016
 31
0.0
 11
206.0362451907629
 21
-11.96654765860012
 31
0.0
 11
206.037622155563
 21
-11.96509209930013
 31
0.0
 11
206.0389881847629
 21
-11.96364345380016
 31
0.0
 11
206.0403441166629
 21
-11.96220089030009
 31
0.0
 11
206.041690444863
 21
-11.96076393440012
 31
0.0
 11
206.043027656463
 21
-11.95933211210013
 31
0.0
 11
206.044356304963
 21
-11.95790487210013
 31
0.0
 11
206.045676940663
 21
-11.95648165880015
 31
0.0
 11
206.046990139163
 21
-11.95506188200011
 31
0.0
 11
206.0482964413629
 21
-11.95364498110007
 31
0.0
 11
206.049596377663
 21
-11.95223039970011
 31
0.0
 11
206.0508902266631
 21
-11.95081784880011
 31
0.0
 11
206.0521786081629
 21
-11.94940666160011
 31
0.0
 11
206.0534618286631
 21
-11.94799650660013
 31
0.0
 11
206.0547403036628
 21
-11.94658692770014
 31
0.0
 11
206.056014581163
 21
-11.94517731550013
 31
0.0
 11
206.0572851265631
 21
-11.94376714420013
 31
0.0
 11
206.058552437463
 21
-11.94235584470016
 31
0.0
 11
206.059816902063
 21
-11.94094296200012
 31
0.0
 11
206.061078979963
 21
-11.9395279552001
 31
0.0
 11
206.0623390223629
 21
-11.93811039680008
 31
0.0
 11
206.063597558363
 21
-11.9366896530002
 31
0.0
 11
206.0648550830631
 21
-11.93526511890013
 31
0.0
 11
206.0661121361629
 21
-11.93383613000014
 31
0.0
 11
206.0673689756629
 21
-11.93240233360006
 31
0.0
  0
SPLINE
  5
567FD
330
1F
100
AcDbEntity
  8
1
100
AcDbSpline
210
0.0
220
0.0
230
1.0
 70
     8
 71
     3
 72
    12
 73
     8
 74
     6
 42
0.0000000001
 43
0.0000000001
 44
0.000001
 12
0.0537566380759419
 22
-0.9985540665696436
 32
0.0
 13
0.0552813878764529
 23
-0.9984708148736514
 33
0.0
 40
0.0
 40
0.0
 40
0.0
 40
0.0
 40
0.2209122770195928
 40
0.4175401307254178
 40
0.5973613852576532
 40
0.7637312137248557
 40
0.9175676701087679
 40
0.9175676701087679
 40
0.9175676701087679
 40
0.9175676701087679
 10
206.0788090422629
 20
-5.14419070630015
 30
0.0
 10
206.0827675427038
 20
-5.217721657157852
 30
0.0
 10
206.0902679827303
 20
-5.356699455556679
 30
0.0
 10
206.101048837747
 20
-5.555527854863527
 30
0.0
 10
206.1109001833949
 20
-5.736199124005395
 30
0.0
 10
206.1200298239296
 20
-5.902624748279976
 30
0.0
 10
206.1259114702912
 20
-6.009198001912466
 30
0.0
 10
206.1287462345628
 20
-6.060398405900116
 30
0.0
 11
206.0788090422629
 21
-5.14419070630015
 31
0.0
 11
206.0907150368628
 21
-5.36478191280014
 31
0.0
 11
206.101363528863
 21
-5.561121213300111
 31
0.0
 11
206.1111550820631
 21
-5.740675682200162
 31
0.0
 11
206.120267398963
 21
-5.906795782100118
 31
0.0
 11
206.1287462345628
 21
-6.060398405900116
 31
0.0
  0
SPLINE
  5
567FE
330
1F
100
AcDbEntity
  8
1
100
AcDbSpline
210
0.0
220
0.0
230
1.0
 70
     8
 71
     3
 72
    41
 73
    37
 74
    35
 42
0.0000000001
 43
0.0000000001
 44
0.000001
 12
0.7525912243647494
 22
0.6584880021755656
 32
0.0
 13
0.7174378700658707
 23
0.6966224964752051
 33
0.0
 40
0.0
 40
0.0
 40
0.0
 40
0.0
 40
0.0022131464720106
 40
0.0044084539595333
 40
0.006586548009865
 40
0.0087490930482861
 40
0.0108982063003758
 40
0.0130344040865204
 40
0.0151572223635205
 40
0.0172660959737814
 40
0.0193612743299418
 40
0.0214430248760099
 40
0.0235112455808439
 40
0.0255659069852016
 40
0.0276080055656237
 40
0.0296384899781409
 40
0.031658067242272
 40
0.0336677690241535
 40
0.035668777398808
 40
0.0376615391708702
 40
0.0396461675698843
 40
0.0416232845536294
 40
0.0435940300390701
 40
0.0455595795148155
 40
0.0475208603184234
 40
0.0494784649021435
 40
0.0514331229201115
 40
0.0533854837567468
 40
0.0553364071442507
 40
0.0572867288695352
 40
0.0592373490081077
 40
0.0611887739120292
 40
0.0631413646081826
 40
0.065096049642191
 40
0.0670536530330611
 40
0.0690151083873427
 40
0.0690151083873427
 40
0.0690151083873427
 40
0.0690151083873427
 10
205.9695184444629
 20
-12.02981831520014
 30
0.0
 10
205.9700736426673
 20
-12.02933253840052
 30
0.0
 10
205.9711788289244
 20
-12.02836405997411
 30
0.0
 10
205.9728278517077
 20
-12.02691457112837
 30
0.0
 10
205.9744620184767
 20
-12.02547373334619
 30
0.0
 10
205.976082463369
 20
-12.02404061930304
 30
0.0
 10
205.9776902873257
 20
-12.02261431876786
 30
0.0
 10
205.979286055875
 20
-12.02119438694876
 30
0.0
 10
205.9808696655437
 20
-12.01978097210721
 30
0.0
 10
205.9824409478772
 20
-12.01837428316426
 30
0.0
 10
205.9839999170583
 20
-12.01697436732922
 30
0.0
 10
205.9855467020272
 20
-12.01558116839015
 30
0.0
 10
205.9870813625033
 20
-12.01419469201858
 30
0.0
 10
205.9886041384593
 20
-12.01281478074523
 30
0.0
 10
205.9901155279244
 20
-12.01144104014315
 30
0.0
 10
205.9916162076603
 20
-12.01007290728995
 30
0.0
 10
205.9931068597896
 20
-12.00870980760004
 30
0.0
 10
205.9945882203899
 20
-12.00735111007338
 30
0.0
 10
205.9960609578196
 20
-12.00599623810109
 30
0.0
 10
205.9975255120996
 20
-12.0046448189691
 30
0.0
 10
205.9989821843466
 20
-12.00329660467784
 30
0.0
 10
206.0004314435914
 20
-12.00195118845241
 30
0.0
 10
206.0018740153418
 20
-12.00060791929928
 30
0.0
 10
206.0033106954305
 20
-11.99926607233857
 30
0.0
 10
206.0047421422038
 20
-11.99792504282126
 30
0.0
 10
206.0061689022254
 20
-11.99658432405169
 30
0.0
 10
206.007591451688
 20
-11.99524346976028
 30
0.0
 10
206.0090103287998
 20
-11.99390196961013
 30
0.0
 10
206.0104260943301
 20
-11.99255928567487
 30
0.0
 10
206.0118393662281
 20
-11.99121481894491
 30
0.0
 10
206.0132506735229
 20
-11.98986804791687
 30
0.0
 10
206.014660427723
 20
-11.98851855725689
 30
0.0
 10
206.0160690447339
 20
-11.98716592261542
 30
0.0
 10
206.0174770139921
 20
-11.98580964342545
 30
0.0
 10
206.0188849587253
 20
-11.98444908315667
 30
0.0
 10
206.0198229150457
 20
-11.983539799042
 30
0.0
 10
206.0202919891628
 20
-11.98308433440013
 30
0.0
 11
205.9695184444629
 21
-12.02981831520014
 31
0.0
 11
205.9711829146629
 21
-12.02835970630014
 31
0.0
 11
205.972831744263
 21
-12.02691033050007
 31
0.0
 11
205.974465443363
 21
-12.02546982610011
 31
0.0
 11
205.9760852968629
 21
-12.02403713930016
 31
0.0
 11
205.977692921563
 21
-12.02261090810009
 31
0.0
 11
205.9792887306628
 21
-12.02119082610011
 31
0.0
 11
205.980872404263
 21
-12.01977723780015
 31
0.0
 11
205.9824435489629
 21
-12.01837055720011
 31
0.0
 11
205.9840023792629
 21
-12.01697065610011
 31
0.0
 11
205.9855491220631
 21
-12.0155773931001
 31
0.0
 11
205.987083729063
 21
-12.01419087330009
 31
0.0
 11
205.988606206063
 21
-12.01281115340009
 31
0.0
 11
205.9901173177629
 21
-12.01143759970011
 31
0.0
 11
205.9916177893631
 21
-12.01006960610016
 31
0.0
 11
205.9931081640629
 21
-12.00870672550013
 31
0.0
 11
205.9945892211629
 21
-12.00734828790007
 31
0.0
 11
205.996061846563
 21
-12.00599351700015
 31
0.0
 11
205.9975263811629
 21
-12.00464213010014
 31
0.0
 11
205.9989829195631
 21
-12.00329406950016
 31
0.0
 11
206.000431928263
 21
-12.00194893040009
 31
0.0
 11
206.0018742503628
 21
-12.00060595240006
 31
0.0
 11
206.0033107499628
 21
-11.99926434550014
 31
0.0
 11
206.004742105463
 21
-11.99792348450012
 31
0.0
 11
206.0061687472628
 21
-11.99658296940015
 31
0.0
 11
206.0075912030629
 21
-11.99524230350016
 31
0.0
 11
206.0090099389629
 21
-11.99390104190013
 31
0.0
 11
206.0104255707631
 21
-11.99255859200008
 31
0.0
 11
206.0118386929628
 21
-11.99121437370013
 31
0.0
 11
206.013249942763
 21
-11.9898677587002
 31
0.0
 11
206.0146596689631
 21
-11.98851838700011
 31
0.0
 11
206.0160681130631
 21
-11.9871659969001
 31
0.0
 11
206.0174759231629
 21
-11.98580993100012
 31
0.0
 11
206.0188836675629
 21
-11.98444960000012
 31
0.0
 11
206.0202919891628
 21
-11.98308433440013
 31
0.0
  0
SPLINE
  5
567FF
330
1F
100
AcDbEntity
  8
1
100
AcDbSpline
210
0.0
220
0.0
230
1.0
 70
     8
 71
     3
 72
    41
 73
    37
 74
    35
 42
0.0000000001
 43
0.0000000001
 44
0.000001
 12
0.800265348110911
 22
0.599646039437369
 32
0.0
 13
0.771091088120963
 23
0.6367248493819205
 33
0.0
 40
0.0
 40
0.0
 40
0.0
 40
0.0
 40
0.0021967030596154
 40
0.0043767393203203
 40
0.0065412445039835
 40
0.0086912826736584
 40
0.0108282574953528
 40
0.0129523468078926
 40
0.0150634411796084
 40
0.0171616651001955
 40
0.0192477565458635
 40
0.0213216058639687
 40
0.0233829993360802
 40
0.0254320918441908
 40
0.027469774584922
 40
0.0294962891478462
 40
0.0315117982814013
 40
0.0335167929394464
 40
0.0355125521576582
 40
0.0375001959782134
 40
0.0394807500872503
 40
0.041454730492325
 40
0.0434229657324253
 40
0.0453860894752427
 40
0.0473450310562928
 40
0.0493005086178789
 40
0.0512534206975691
 40
0.0532042253621373
 40
0.0551536696267483
 40
0.0571026535419523
 40
0.0590521683900669
 40
0.0610032645711943
 40
0.0629564409717369
 40
0.0649119100217667
 40
0.066870205532958
 40
0.0688322683782376
 40
0.0688322683782376
 40
0.0688322683782376
 40
0.0688322683782376
 10
205.9154052127631
 20
-12.07234784500008
 30
0.0
 10
205.9159911945426
 20
-12.07190876357023
 30
0.0
 10
205.9171580991294
 20
-12.07103311364196
 30
0.0
 10
205.9189002553026
 20
-12.06972196770164
 30
0.0
 10
205.9206281598383
 20
-12.06841775634299
 30
0.0
 10
205.9223427974757
 20
-12.06711979753515
 30
0.0
 10
205.924044894802
 20
-12.06582759693339
 30
0.0
 10
205.925734864443
 20
-12.06454089340673
 30
0.0
 10
205.9274127790331
 20
-12.0632596829856
 30
0.0
 10
205.9290788594424
 20
-12.06198384801917
 30
0.0
 10
205.9307333256456
 20
-12.06071326965403
 30
0.0
 10
205.9323763075581
 20
-12.05944789670917
 30
0.0
 10
205.9340077812099
 20
-12.05818779658867
 30
0.0
 10
205.9356279866997
 20
-12.05693283266626
 30
0.0
 10
205.9372372829898
 20
-12.05568277378282
 30
0.0
 10
205.9388360296906
 20
-12.05443738520211
 30
0.0
 10
205.9404244801529
 20
-12.05319651274746
 30
0.0
 10
205.9420031590621
 20
-12.05195978771172
 30
0.0
 10
205.943572839786
 20
-12.05072664127638
 30
0.0
 10
205.945134432377
 20
-12.04949638997988
 30
0.0
 10
205.9466886436248
 20
-12.04826850326859
 30
0.0
 10
205.9482361013559
 20
-12.04704250731851
 30
0.0
 10
205.9497773285991
 20
-12.0458180064042
 30
0.0
 10
205.9513129539213
 20
-12.04459451611686
 30
0.0
 10
205.9528435745096
 20
-12.04337157168825
 30
0.0
 10
205.9543698538555
 20
-12.04214864988285
 30
0.0
 10
205.9558923301608
 20
-12.04092532232363
 30
0.0
 10
205.9574115467776
 20
-12.03970115169537
 30
0.0
 10
205.9589280451258
 20
-12.03847569750604
 30
0.0
 10
205.9604425021639
 20
-12.03724840424493
 30
0.0
 10
205.9619556701727
 20
-12.03601864877862
 30
0.0
 10
205.9634681942413
 20
-12.03478588817421
 30
0.0
 10
205.96498051543
 20
-12.03354974019822
 30
0.0
 10
205.9664929396594
 20
-12.0323099294485
 30
0.0
 10
205.9680058850415
 20
-12.03106608520872
 30
0.0
 10
205.9690141347381
 20
-12.03023474659002
 30
0.0
 10
205.9695184444629
 20
-12.02981831520014
 30
0.0
 11
205.9154052127631
 21
-12.07234784500008
 31
0.0
 11
205.9171622232629
 21
-12.07102935800014
 31
0.0
 11
205.918904052163
 21
-12.06971841920011
 31
0.0
 11
205.9206316386628
 21
-12.06841439340002
 31
0.0
 11
205.9223458607628
 21
-12.06711668320008
 31
0.0
 11
205.924047863163
 21
-12.06582448080007
 31
0.0
 11
205.9257378110631
 21
-12.06453771540009
 31
0.0
 11
205.927415640663
 21
-12.06325648960012
 31
0.0
 11
205.9290814741628
 21
-12.0619807641001
 31
0.0
 11
205.930735919563
 21
-12.06071012490008
 31
0.0
 11
205.932378911363
 21
-12.05944467260013
 31
0.0
 11
205.9340103019628
 21
-12.05818457170011
 31
0.0
 11
205.935630235763
 21
-12.05692976170007
 31
0.0
 11
205.9372394377631
 21
-12.05567972920011
 31
0.0
 11
205.938838117663
 21
-12.05443435630013
 31
0.0
 11
205.9404264222628
 21
-12.05319357260009
 31
0.0
 11
205.9420047560629
 21
-12.05195710440011
 31
0.0
 11
205.9435741411628
 21
-12.05072418840007
 31
0.0
 11
205.9451354705629
 21
-12.04949415430013
 31
0.0
 11
205.946689559463
 21
-12.0482663855002
 31
0.0
 11
205.948236820163
 21
-12.04704057760011
 31
0.0
 11
205.9497779077631
 21
-12.04581622940009
 31
0.0
 11
205.9513133223629
 21
-12.04459295790013
 31
0.0
 11
205.952843792363
 21
-12.04337019220008
 31
0.0
 11
205.954369878463
 21
-12.04214748990011
 31
0.0
 11
205.9558922793629
 21
-12.04092429240012
 31
0.0
 11
205.9574113477629
 21
-12.03970031380015
 31
0.0
 11
205.958927659263
 21
-12.03847508440015
 31
0.0
 11
205.9604419055629
 21
-12.03724803480008
 31
0.0
 11
205.9619548457629
 21
-12.03601853400016
 31
0.0
 11
205.963467280963
 21
-12.03478590910015
 31
0.0
 11
205.9649795815628
 21
-12.03354983190013
 31
0.0
 11
205.9664918944629
 21
-12.03231015360006
 31
0.0
 11
205.968004613663
 21
-12.03106652010012
 31
0.0
 11
205.9695184444629
 21
-12.02981831520014
 31
0.0
  0
SPLINE
  5
56800
330
1F
100
AcDbEntity
  8
1
100
AcDbSpline
210
0.0
220
0.0
230
1.0
 70
     8
 71
     3
 72
    41
 73
    37
 74
    35
 42
0.0000000001
 43
0.0000000001
 44
0.000001
 12
0.843390315682342
 22
0.5373013822923216
 32
0.0
 13
0.8193082197580736
 23
0.5733533300128783
 33
0.0
 40
0.0
 40
0.0
 40
0.0
 40
0.0
 40
0.0021816768942865
 40
0.0043470923843446
 40
0.0064974802810833
 40
0.0086339172923161
 40
0.010757470431142
 40
0.0128689863916122
 40
0.0149689940869029
 40
0.0170579403889208
 40
0.0191360175407774
 40
0.0212028933592348
 40
0.0232582328325045
 40
0.0253020331568583
 40
0.0273350897624726
 40
0.0293575183345318
 40
0.0313693897797864
 40
0.0333710309827818
 40
0.035363726392867
 40
0.0373484893153031
 40
0.0393265183654595
 40
0.0412982975625927
 40
0.0432644134671281
 40
0.0452257134506409
 40
0.0471829381928534
 40
0.0491369190002904
 40
0.0510882688720939
 40
0.053037775968486
 40
0.0549859536322613
 40
0.0569338151740182
 40
0.0588822129548966
 40
0.0608322085360196
 40
0.0627841766737169
 40
0.0647383148724868
 40
0.066695542880603
 40
0.0686566185808812
 40
0.0686566185808812
 40
0.0686566185808812
 40
0.0686566185808812
 10
205.8583044628629
 20
-12.11045949360016
 30
0.0
 10
205.8589177979177
 20
-12.11006875426315
 30
0.0
 10
205.8601393877576
 20
-12.10928938918283
 30
0.0
 10
205.8619637408547
 20
-12.10812210864225
 30
0.0
 10
205.8637738811915
 20
-12.10696059824948
 30
0.0
 10
205.8655707787252
 20
-12.1058042917308
 30
0.0
 10
205.8673552920109
 20
-12.1046526878392
 30
0.0
 10
205.8691281236204
 20
-12.10350538021996
 30
0.0
 10
205.8708898006301
 20
-12.1023620716401
 30
0.0
 10
205.8726406657513
 20
-12.10122258135803
 30
0.0
 10
205.8743808203729
 20
-12.10008688390195
 30
0.0
 10
205.8761101477307
 20
-12.09895509626434
 30
0.0
 10
205.8778284773567
 20
-12.09782737196642
 30
0.0
 10
205.8795359534317
 20
-12.09670365877312
 30
0.0
 10
205.8812328450114
 20
-12.09558382077483
 30
0.0
 10
205.8829194407699
 20
-12.09446770704204
 30
0.0
 10
205.8845958985719
 20
-12.09335525185344
 30
0.0
 10
205.8862627002123
 20
-12.09224617290817
 30
0.0
 10
205.8879205871351
 20
-12.09114001094014
 30
0.0
 10
205.8895705397342
 20
-12.09003614115946
 30
0.0
 10
205.8912133136894
 20
-12.08893408262665
 30
0.0
 10
205.8928495442428
 20
-12.08783343013459
 30
0.0
 10
205.8944797676673
 20
-12.08673384105782
 30
0.0
 10
205.8961045893111
 20
-12.08563492213383
 30
0.0
 10
205.8977246800044
 20
-12.08453623125933
 30
0.0
 10
205.8993406437555
 20
-12.08343736696491
 30
0.0
 10
205.9009530956263
 20
-12.08233791587725
 30
0.0
 10
205.9025625611263
 20
-12.08123752142424
 30
0.0
 10
205.9041696740107
 20
-12.08013574894124
 30
0.0
 10
205.9057750834691
 20
-12.07903214845549
 30
0.0
 10
205.9073795867584
 20
-12.07792616283993
 30
0.0
 10
205.9089838032041
 20
-12.07681735192994
 30
0.0
 10
205.9105881704871
 20
-12.07570539674384
 30
0.0
 10
205.9121930860194
 20
-12.07459000323396
 30
0.0
 10
205.9137990503616
 20
-12.07347080217826
 30
0.0
 10
205.9148696376161
 20
-12.07272264142779
 30
0.0
 10
205.9154052127631
 20
-12.07234784500008
 30
0.0
 11
205.8583044628629
 21
-12.11045949360016
 31
0.0
 11
205.8601436942629
 21
-12.10928606460015
 31
0.0
 11
205.8619676841629
 21
-12.10811898840006
 31
0.0
 11
205.863777498663
 21
-12.1069576477002
 31
0.0
 11
205.8655740681631
 21
-12.10580150450016
 31
0.0
 11
205.867358311863
 21
-12.10465002120008
 31
0.0
 11
205.8691309609628
 21
-12.10350277510014
 31
0.0
 11
205.8708924777629
 21
-12.10235951280015
 31
0.0
 11
205.8726432542628
 21
-12.10122002320008
 31
0.0
 11
205.8743834680629
 21
-12.10008423250014
 31
0.0
 11
205.8761128575629
 21
-12.09895235340013
 31
0.0
 11
205.877831159663
 21
-12.09782460140013
 31
0.0
 11
205.8795383893628
 21
-12.09670101020015
 31
0.0
 11
205.881235227863
 21
-12.09558117370011
 31
0.0
 11
205.8829217873629
 21
-12.09446505760013
 31
0.0
 11
205.8845981425629
 21
-12.09335265200013
 31
0.0
 11
205.8862645808629
 21
-12.09224380450007
 31
0.0
 11
205.8879221849632
 21
-12.09113782930012
 31
0.0
 11
205.8895718086631
 21
-12.09003418600014
 31
0.0
 11
205.8912144567628
 21
-12.08893222660021
 31
0.0
 11
205.8928505379629
 21
-12.08783169720016
 31
0.0
 11
205.8944805444628
 21
-12.08673228430007
 31
0.0
 11
205.8961051829631
 21
-12.08563352600015
 31
0.0
 11
205.897725069163
 21
-12.08453501630015
 31
0.0
 11
205.8993408917629
 21
-12.08343629540013
 31
0.0
 11
205.900953156563
 21
-12.08233702280012
 31
0.0
 11
205.9025625122629
 21
-12.08123675670015
 31
0.0
 11
205.9041693784629
 21
-12.0801352072001
 31
0.0
 11
205.905774585163
 21
-12.07903179890013
 31
0.0
 11
205.9073788268631
 21
-12.07792604350016
 31
0.0
 11
205.9089829675629
 21
-12.07681733010008
 31
0.0
 11
205.9105873037631
 21
-12.07570543480011
 31
0.0
 11
205.912191985163
 21
-12.07459023320007
 31
0.0
 11
205.9137977529629
 21
-12.07347118660016
 31
0.0
 11
205.9154052127631
 21
-12.07234784500008
 31
0.0
  0
SPLINE
  5
56801
330
1F
100
AcDbEntity
  8
1
100
AcDbSpline
210
0.0
220
0.0
230
1.0
 70
     8
 71
     3
 72
    41
 73
    37
 74
    35
 42
0.0000000001
 43
0.0000000001
 44
0.000001
 12
0.881731776567252
 22
0.4717510722738825
 32
0.0
 13
0.8619662190229442
 23
0.5069657160630193
 33
0.0
 40
0.0
 40
0.0
 40
0.0
 40
0.0
 40
0.0021649091964279
 40
0.004315187689422
 40
0.0064512015390078
 40
0.0085736064647485
 40
0.0106836565739275
 40
0.0127824776811783
 40
0.014871248772539
 40
0.0169508710683117
 40
0.0190213711920181
 40
0.0210817208907521
 40
0.0231312002082588
 40
0.0251691497050238
 40
0.0271957493410707
 40
0.029211654060273
 40
0.0312176957877801
 40
0.0332149285465403
 40
0.0352040150521754
 40
0.0371856372948056
 40
0.0391606535127484
 40
0.0411295512282731
 40
0.0430929335807445
 40
0.0450516693162237
 40
0.047006590148814
 40
0.0489584927334556
 40
0.0509080079072001
 40
0.0528558235152739
 40
0.0548026567625283
 40
0.0567492004026812
 40
0.0586962103225473
 40
0.0606443291449588
 40
0.0625942497590288
 40
0.0645465660484077
 40
0.0665023305301217
 40
0.0684624984207554
 40
0.0684624984207554
 40
0.0684624984207554
 40
0.0684624984207554
 10
205.7985999132629
 20
-12.14395343300009
 30
0.0
 10
205.7992362030069
 20
-12.14361300025516
 30
0.0
 10
205.8005040635282
 20
-12.14293365225765
 30
0.0
 10
205.802398259601
 20
-12.14191569065622
 30
0.0
 10
205.8042787326731
 20
-12.14090212649816
 30
0.0
 10
205.8061461692059
 20
-12.13989264130873
 30
0.0
 10
205.80800147651
 20
-12.13888679226932
 30
0.0
 10
205.8098457127108
 20
-12.13788404861458
 30
0.0
 10
205.8116798299845
 20
-12.13688393078522
 30
0.0
 10
205.8135044566277
 20
-12.13588613044899
 30
0.0
 10
205.8153195743948
 20
-12.13489069029319
 30
0.0
 10
205.81712469193
 20
-12.13389791401062
 30
0.0
 10
205.8189191191736
 20
-12.13290821840988
 30
0.0
 10
205.8207025203192
 20
-12.13192182854232
 30
0.0
 10
205.8224749612101
 20
-12.13093874857645
 30
0.0
 10
205.8242369418311
 20
-12.12995874033547
 30
0.0
 10
205.8259892152735
 20
-12.12898142114835
 30
0.0
 10
205.8277325349277
 20
-12.12800640342465
 30
0.0
 10
205.8294676086798
 20
-12.1270333204751
 30
0.0
 10
205.8311950858117
 20
-12.12606183442159
 30
0.0
 10
205.8329155630712
 20
-12.12509163301243
 30
0.0
 10
205.8346296128167
 20
-12.12412241416831
 30
0.0
 10
205.8363378090569
 20
-12.12315387154061
 30
0.0
 10
205.8380408240231
 20
-12.12218563933973
 30
0.0
 10
205.8397393842006
 20
-12.12121731663805
 30
0.0
 10
205.8414341453401
 20
-12.1202485385204
 30
0.0
 10
205.8431257198879
 20
-12.119278960923
 30
0.0
 10
205.8448146957352
 20
-12.11830825018444
 30
0.0
 10
205.846501677069
 20
-12.1173360595796
 30
0.0
 10
205.8481872860806
 20
-12.11636202820756
 30
0.0
 10
205.8498721217489
 20
-12.11538580470989
 30
0.0
 10
205.851556781433
 20
-12.11440703487435
 30
0.0
 10
205.8532418141719
 20
-12.1134253888649
 30
0.0
 10
205.8549278854259
 20
-12.11244046529055
 30
0.0
 10
205.8566157341295
 20
-12.11145181533791
 30
0.0
 10
205.857741263361
 20
-12.11079073957293
 30
0.0
 10
205.8583044628629
 20
-12.11045949360016
 30
0.0
 11
205.7985999132629
 21
-12.14395343300009
 31
0.0
 11
205.8005081470631
 21
-12.1429309496001
 31
0.0
 11
205.8024022245629
 21
-12.14191303110016
 31
0.0
 11
205.804282489263
 21
-12.14089954960013
 31
0.0
 11
205.8061495384629
 21
-12.13989023740009
 31
0.0
 11
205.8080044937631
 21
-12.13888453820016
 31
0.0
 11
205.809848361163
 21
-12.13788195150016
 31
0.0
 11
205.811682190563
 21
-12.13688194610012
 31
0.0
 11
205.813506785563
 21
-12.13588411920011
 31
0.0
 11
205.815322180863
 21
-12.13488848470013
 31
0.0
 11
205.8171274872632
 21
-12.1338955655001
 31
0.0
 11
205.8189220876629
 21
-12.13290573940014
 31
0.0
 11
205.8207054194629
 21
-12.13191935760011
 31
0.0
 11
205.8224776553632
 21
-12.13093636630015
 31
0.0
 11
205.8242393826629
 21
-12.12995647980011
 31
0.0
 11
205.8259913414629
 21
-12.12897932290013
 31
0.0
 11
205.8277344637629
 21
-12.1280044084001
 31
0.0
 11
205.8294693379628
 21
-12.12703143630011
 31
0.0
 11
205.8311965677628
 21
-12.12606009440014
 31
0.0
 11
205.832916908663
 21
-12.12508998080011
 31
0.0
 11
205.8346307917629
 21
-12.12412087300015
 31
0.0
 11
205.836338747363
 21
-12.12315248900012
 31
0.0
 11
205.8380415353629
 21
-12.1221844132001
 31
0.0
 11
205.8397398812628
 21
-12.1212162444001
 31
0.0
 11
205.841434478363
 21
-12.12024759570011
 31
0.0
 11
205.8431258740629
 21
-12.11927815910007
 31
0.0
 11
205.8448146638629
 21
-12.11830759590009
 31
0.0
 11
205.8465014667629
 21
-12.11733554940008
 31
0.0
 11
205.848186879163
 21
-12.11636167270012
 31
0.0
 11
205.849871550063
 21
-12.11538558380016
 31
0.0
 11
205.8515560288629
 21
-12.11440695480007
 31
0.0
 11
205.8532409066631
 21
-12.11342542960011
 31
0.0
 11
205.8549266873631
 21
-12.11244069920008
 31
0.0
 11
205.8566142689631
 21
-12.11145222010009
 31
0.0
 11
205.8583044628629
 21
-12.11045949360016
 31
0.0
  0
SPLINE
  5
56802
330
1F
100
AcDbEntity
  8
1
100
AcDbSpline
210
0.0
220
0.0
230
1.0
 70
     8
 71
     3
 72
    40
 73
    36
 74
    34
 42
0.0000000001
 43
0.0000000001
 44
0.000001
 12
0.9829897778219701
 22
0.1836602752298757
 32
0.0
 13
0.9755011572322501
 23
0.2199943004683095
 33
0.0
 40
0.0
 40
0.0
 40
0.0
 40
0.0
 40
0.0021557349551251
 40
0.0042994647909523
 40
0.0064323604603613
 40
0.0085556510871188
 40
0.0106701178927658
 40
0.0127767774775752
 40
0.0148765180154903
 40
0.0169692147624612
 40
0.0190548468340264
 40
0.0211338300904913
 40
0.023205682767666
 40
0.0252695835675879
 40
0.0273248589978503
 40
0.0293718896264264
 40
0.0314110862472385
 40
0.0334426628597278
 40
0.0354673152098408
 40
0.0374859476565843
 40
0.0394988570754857
 40
0.0415064551757081
 40
0.0435098718650207
 40
0.045509921113016
 40
0.0475076742916899
 40
0.0495037551839697
 40
0.0514991038895984
 40
0.0534942838975776
 40
0.0554897628785785
 40
0.057486496002584
 40
0.0594849522524742
 40
0.0614858191937991
 40
0.0634899050447033
 40
0.0654978452310393
 40
0.0675106811010354
 40
0.0675106811010354
 40
0.0675106811010354
 40
0.0675106811010354
 10
205.542266576663
 20
-12.22864930650007
 30
0.0
 10
205.5429729318046
 20
-12.22851733220835
 30
0.0
 10
205.5443815471047
 20
-12.22825325417216
 30
0.0
 10
205.5464884698122
 20
-12.22785559842933
 30
0.0
 10
205.548584284393
 20
-12.22745740837678
 30
0.0
 10
205.5506700375478
 20
-12.22705852879062
 30
0.0
 10
205.5527467246084
 20
-12.22665880888314
 30
0.0
 10
205.5548152284742
 20
-12.22625811459338
 30
0.0
 10
205.5568761348619
 20
-12.2258563651574
 30
0.0
 10
205.558929689679
 20
-12.22545354366281
 30
0.0
 10
205.5609759842623
 20
-12.22504966270941
 30
0.0
 10
205.5630149931553
 20
-12.22464475734244
 30
0.0
 10
205.5650464293298
 20
-12.22423891481873
 30
0.0
 10
205.5670696501427
 20
-12.22383229547932
 30
0.0
 10
205.5690842953445
 20
-12.22342500554177
 30
0.0
 10
205.5710904074663
 20
-12.22301707054467
 30
0.0
 10
205.5730883187857
 20
-12.22260845593456
 30
0.0
 10
205.575078464222
 20
-12.2221991043055
 30
0.0
 10
205.5770614394354
 20
-12.22178892276378
 30
0.0
 10
205.5790378665748
 20
-12.22137780974899
 30
0.0
 10
205.5810082745824
 20
-12.22096568021101
 30
0.0
 10
205.5829732655595
 20
-12.22055243135932
 30
0.0
 10
205.5849336096831
 20
-12.22013792181783
 30
0.0
 10
205.5868902914879
 20
-12.2197219608307
 30
0.0
 10
205.5888441296563
 20
-12.21930438861543
 30
0.0
 10
205.5907959832392
 20
-12.21888503294749
 30
0.0
 10
205.5927465450547
 20
-12.21846375369651
 30
0.0
 10
205.5946964564313
 20
-12.21804041871974
 30
0.0
 10
205.5966463630546
 20
-12.21761489218187
 30
0.0
 10
205.5985968792355
 20
-12.21718704216869
 30
0.0
 10
205.6005486902786
 20
-12.21675671826943
 30
0.0
 10
205.6025024330497
 20
-12.21632377787691
 30
0.0
 10
205.6044587979563
 20
-12.21588806351252
 30
0.0
 10
205.6064185897862
 20
-12.21544938899899
 30
0.0
 10
205.6077261710561
 20
-12.21515523703982
 30
0.0
 10
205.6083806789629
 20
-12.21500763290009
 30
0.0
 11
205.542266576663
 21
-12.22864930650007
 31
0.0
 11
205.5443853993631
 21
-12.22825208180006
 31
0.0
 11
205.546491938263
 21
-12.22785448780007
 31
0.0
 11
205.548587349663
 21
-12.22745635620015
 31
0.0
 11
205.550672846063
 21
-12.22705750200015
 31
0.0
 11
205.5527491990631
 21
-12.22665781850014
 31
0.0
 11
205.5548174106629
 21
-12.22625715000015
 31
0.0
 11
205.556878356063
 21
-12.22585536090014
 31
0.0
 11
205.5589319157629
 21
-12.2254525063002
 31
0.0
 11
205.5609780723628
 21
-12.22504862170012
 31
0.0
 11
205.563017236763
 21
-12.22464365660011
 31
0.0
 11
205.5650489394629
 21
-12.22423773500009
 31
0.0
 11
205.5670723785631
 21
-12.22383104970015
 31
0.0
 11
205.5690868977629
 21
-12.22342376730012
 31
0.0
 11
205.5710928742631
 21
-12.22301584670015
 31
0.0
 11
205.573090714463
 21
-12.22260723820011
 31
0.0
 11
205.5750806317631
 21
-12.22219793010015
 31
0.0
 11
205.577063311063
 21
-12.22178781140007
 31
0.0
 11
205.5790396408631
 21
-12.22137672510007
 31
0.0
 11
205.581009914363
 21
-12.22096463490015
 31
0.0
 11
205.582974536863
 21
-12.22055147920014
 31
0.0
 11
205.584934615863
 21
-12.22013704530013
 31
0.0
 11
205.586890948963
 21
-12.21972118180014
 31
0.0
 11
205.5888445846629
 21
-12.21930367940013
 31
0.0
 11
205.5907961329629
 21
-12.21888441840008
 31
0.0
 11
205.592746512463
 21
-12.21846320940011
 31
0.0
 11
205.5946962729629
 21
-12.21803993920014
 31
0.0
 11
205.596645870063
 21
-12.21761451220016
 31
0.0
 11
205.5985962351631
 21
-12.21718672650013
 31
0.0
 11
205.6005478239629
 21
-12.21675648060011
 31
0.0
 11
205.6025013051628
 21
-12.21632362380006
 31
0.0
 11
205.604457464563
 21
-12.21588797610008
 31
0.0
 11
205.6064169185631
 21
-12.21544939170007
 31
0.0
 11
205.6083806789629
 21
-12.21500763290009
 31
0.0
  0
SPLINE
  5
56803
330
1F
100
AcDbEntity
  8
1
100
AcDbSpline
210
0.0
220
0.0
230
1.0
 70
     8
 71
     3
 72
    41
 73
    37
 74
    35
 42
0.0000000001
 43
0.0000000001
 44
0.000001
 12
0.9943769463696765
 22
0.1058984821823119
 32
0.0
 13
0.9894598742051009
 23
0.1448073110655193
 33
0.0
 40
0.0
 40
0.0
 40
0.0
 40
0.0
 40
0.0020994898589587
 40
0.0041893106132882
 40
0.0062704561142251
 40
0.0083437188367814
 40
0.0104096062837312
 40
0.012468730303947
 40
0.0145222849571545
 40
0.0165707940506154
 40
0.0186144539774981
 40
0.0206535731643919
 40
0.0226888074982121
 40
0.0247196080196316
 40
0.0267451388280024
 40
0.0287646475284326
 40
0.0307782899665846
 40
0.0327858028697539
 40
0.0347867076592769
 40
0.0367805351868503
 40
0.0387679332500601
 40
0.0407500782052736
 40
0.042728349300022
 40
0.0447035658327664
 40
0.0466765343466318
 40
0.0486480137844756
 40
0.0506183812852578
 40
0.0525879881675562
 40
0.0545576898220793
 40
0.0565281245486313
 40
0.0584994833228418
 40
0.0604723394153176
 40
0.0624476152144629
 40
0.0644262339118042
 40
0.0664090661657608
 40
0.0683968396015477
 40
0.0683968396015477
 40
0.0683968396015477
 40
0.0683968396015477
 10
205.4744169264629
 20
-12.23724892320013
 30
0.0
 10
205.4751128212346
 20
-12.23717481227032
 30
0.0
 10
205.4765013120273
 20
-12.23702604905574
 30
0.0
 10
205.4785792872727
 20
-12.2368007567681
 30
0.0
 10
205.4806482880015
 20
-12.23657381087119
 30
0.0
 10
205.4827090753211
 20
-12.23634516785827
 30
0.0
 10
205.4847622835222
 20
-12.23611479445497
 30
0.0
 10
205.48680867962
 20
-12.23588263897838
 30
0.0
 10
205.4888490356516
 20
-12.23564864495463
 30
0.0
 10
205.4908839857073
 20
-12.23541276778434
 30
0.0
 10
205.4929138704097
 20
-12.23517499429525
 30
0.0
 10
205.494939073977
 20
-12.23493530444355
 30
0.0
 10
205.4969597337536
 20
-12.23469370557763
 30
0.0
 10
205.498975608375
 20
-12.23445025008826
 30
0.0
 10
205.5009859907539
 20
-12.23420504872962
 30
0.0
 10
205.5029904074426
 20
-12.2339581867979
 30
0.0
 10
205.5049885747113
 20
-12.2337097278544
 30
0.0
 10
205.5069802995714
 20
-12.23345972494456
 30
0.0
 10
205.508965182544
 20
-12.23320825818393
 30
0.0
 10
205.5109431256799
 20
-12.2329553708669
 30
0.0
 10
205.5129145782214
 20
-12.23270103570559
 30
0.0
 10
205.514880600108
 20
-12.23244514311653
 30
0.0
 10
205.5168423073521
 20
-12.23218757088506
 30
0.0
 10
205.5188006931502
 20
-12.23192820787375
 30
0.0
 10
205.5207565452281
 20
-12.23166696599969
 30
0.0
 10
205.522710504812
 20
-12.23140377329795
 30
0.0
 10
205.5246630624281
 20
-12.23113857542449
 30
0.0
 10
205.5266147402079
 20
-12.23087131161731
 30
0.0
 10
205.5285661462194
 20
-12.23060190680752
 30
0.0
 10
205.5305178352301
 20
-12.23033029047676
 30
0.0
 10
205.5324702685835
 20
-12.23005640290867
 30
0.0
 10
205.5344240011379
 20
-12.22978016922172
 30
0.0
 10
205.5363798290272
 20
-12.2295014775126
 30
0.0
 10
205.5383386460215
 20
-12.22922019824159
 30
0.0
 10
205.5403012810546
 20
-12.22893620735587
 30
0.0
 10
205.5416109693117
 20
-12.22874525454216
 30
0.0
 10
205.542266576663
 20
-12.22864930650007
 30
0.0
 11
205.4744169264629
 21
-12.23724892320013
 31
0.0
 11
205.4765044702628
 21
-12.23702526160014
 31
0.0
 11
205.4785821177629
 21
-12.23679999110016
 31
0.0
 11
205.480650858163
 21
-12.2365730506001
 31
0.0
 11
205.482711480063
 21
-12.23634439550011
 31
0.0
 11
205.4847644885628
 21
-12.23611400880008
 31
0.0
 11
205.486810492263
 21
-12.2358818588001
 31
0.0
 11
205.488850677863
 21
-12.2356478434001
 31
0.0
 11
205.4908855657629
 21
-12.23541193220006
 31
0.0
 11
205.4929153509631
 21
-12.23517413010012
 31
0.0
 11
205.4949403396629
 21
-12.23493442740016
 31
0.0
 11
205.4969611829631
 21
-12.23469277140015
 31
0.0
 11
205.4989773355631
 21
-12.23444925100011
 31
0.0
 11
205.5009879677629
 21
-12.2342039926001
 31
0.0
 11
205.5029923332629
 21
-12.23395711580008
 31
0.0
 11
205.5049905874628
 21
-12.23370863050013
 31
0.0
 11
205.5069824699629
 21
-12.23345859840015
 31
0.0
 11
205.5089675069628
 21
-12.23320710900009
 31
0.0
 11
205.5109452343629
 21
-12.23295425250012
 31
0.0
 11
205.5129162960629
 21
-12.23269997720012
 31
0.0
 11
205.5148818597629
 21
-12.23244415980014
 31
0.0
 11
205.5168432936627
 21
-12.23218664480009
 31
0.0
 11
205.5188014101629
 21
-12.23192734430012
 31
0.0
 11
205.5207570085629
 21
-12.2316661681001
 31
0.0
 11
205.5227108405629
 21
-12.23140302870013
 31
0.0
 11
205.524663279163
 21
-12.23113788680007
 31
0.0
 11
205.5266146715628
 21
-12.23087070460013
 31
0.0
 11
205.528565864063
 21
-12.23060137330014
 31
0.0
 11
205.5305174874629
 21
-12.23032981020014
 31
0.0
 11
205.5324697292629
 21
-12.23005599220016
 31
0.0
 11
205.5344231553629
 21
-12.22977984150009
 31
0.0
 11
205.5363786769628
 21
-12.22950122850011
 31
0.0
 11
205.538337205463
 21
-12.22922001910012
 31
0.0
 11
205.5402995997631
 21
-12.22893608300012
 31
0.0
 11
205.542266576663
 21
-12.22864930650007
 31
0.0
  0
SPLINE
  5
56804
330
1F
100
AcDbEntity
  8
1
100
AcDbSpline
210
0.0
220
0.0
230
1.0
 70
     8
 71
     3
 72
    15
 73
    11
 74
     9
 42
0.0000000001
 43
0.0000000001
 44
0.000001
 12
-0.9995341523545736
 22
0.0305201290433787
 32
0.0
 13
-0.9994985880247446
 23
0.0316634258497379
 33
0.0
 40
0.0
 40
0.0
 40
0.0
 40
0.0
 40
0.1283545482249993
 40
0.2568116738954773
 40
0.3853670982437229
 40
0.5140174891475482
 40
0.6427625600596603
 40
0.7716018809101755
 40
0.9005310218899635
 40
1.02953987820421
 40
1.02953987820421
 40
1.02953987820421
 40
1.02953987820421
 10
198.757696130863
 20
-12.18086409320011
 30
0.0
 10
198.714931212676
 20
-12.17955829407506
 30
0.0
 10
198.6293674784276
 20
-12.17693651807008
 30
0.0
 10
198.5009728113784
 20
-12.17297717900976
 30
0.0
 10
198.3724802861412
 20
-12.16899187170594
 30
0.0
 10
198.2438924665592
 20
-12.16498297079715
 30
0.0
 10
198.1152106421701
 20
-12.1609525189985
 30
0.0
 10
197.9864364441766
 20
-12.15690330727844
 30
0.0
 10
197.8575748042974
 20
-12.15283726601183
 30
0.0
 10
197.7716384844725
 20
-12.15011797228536
 30
0.0
 10
197.728657094563
 20
-12.14875635150008
 30
0.0
 11
198.757696130863
 21
-12.18086409320011
 31
0.0
 11
198.6294017688631
 21
-12.17693378510012
 31
0.0
 11
198.5010056703629
 21
-12.17297448380014
 31
0.0
 11
198.3725120388628
 21
-12.16898893320012
 31
0.0
 11
198.2439241276629
 21
-12.16497989190009
 31
0.0
 11
198.1152421491631
 21
-12.16094986380011
 31
0.0
 11
197.9864664659628
 21
-12.15690100510011
 31
0.0
 11
197.857601440963
 21
-12.15283557360016
 31
0.0
 11
197.728657094563
 21
-12.14875635150008
 31
0.0
  0
SPLINE
  5
56805
330
1F
100
AcDbEntity
  8
1
100
AcDbSpline
210
0.0
220
0.0
230
1.0
 70
     8
 71
     3
 72
    15
 73
    11
 74
     9
 42
0.0000000001
 43
0.0000000001
 44
0.000001
 12
-0.9996187572485576
 22
0.0276105080874927
 32
0.0
 13
-0.9995738757846494
 23
0.0291901841182045
 33
0.0
 40
0.0
 40
0.0
 40
0.0
 40
0.0
 40
0.1283354155426486
 40
0.2567728937128316
 40
0.385305831579093
 40
0.5139331379644112
 40
0.6426564717716863
 40
0.7714747182649058
 40
0.9003824744936197
 40
1.029374071479053
 40
1.029374071479053
 40
1.029374071479053
 40
1.029374071479053
 10
199.7866519673628
 20
-12.21020088510011
 30
0.0
 10
199.7438898044975
 20
-12.2090197497572
 30
0.0
 10
199.6583317916112
 20
-12.20664491365943
 30
0.0
 10
199.5299468634341
 20
-12.20304895023125
 30
0.0
 10
199.4014655353216
 20
-12.19941973012621
 30
0.0
 10
199.2728897590044
 20
-12.19575965159322
 30
0.0
 10
199.1442196196262
 20
-12.19207231929175
 30
0.0
 10
199.015456688831
 20
-12.18835957800488
 30
0.0
 10
198.8866049793896
 20
-12.18462333151879
 30
0.0
 10
198.8006750077104
 20
-12.18211918935535
 30
0.0
 10
198.757696130863
 20
-12.18086409320011
 30
0.0
 11
199.7866519673628
 21
-12.21020088510011
 31
0.0
 11
199.6583659379628
 21
-12.2066407745001
 31
0.0
 11
199.5299788153629
 21
-12.20304438390008
 31
0.0
 11
199.4014971298629
 21
-12.19941492900011
 31
0.0
 11
199.2729218919628
 21
-12.19575547590011
 31
0.0
 11
199.1442513739628
 21
-12.19206844140007
 31
0.0
 11
199.0154866361629
 21
-12.18835595380011
 31
0.0
 11
198.8866330232629
 21
-12.18462030850014
 31
0.0
 11
198.757696130863
 21
-12.18086409320011
 31
0.0
  0
SPLINE
  5
56806
330
1F
100
AcDbEntity
  8
1
100
AcDbSpline
210
0.0
220
0.0
230
1.0
 70
     8
 71
     3
 72
    15
 73
    11
 74
     9
 42
0.0000000001
 43
0.0000000001
 44
0.000001
 12
-0.9996952981782733
 22
0.0246842216861969
 32
0.0
 13
-0.9996437941717855
 23
0.0266886637701593
 33
0.0
 40
0.0
 40
0.0
 40
0.0
 40
0.0
 40
0.1282896066431936
 40
0.2566918152153812
 40
0.3852058623263785
 40
0.5138186607657371
 40
0.6425190924699916
 40
0.7713050421614125
 40
0.9001811154694204
 40
1.029150374371222
 40
1.029150374371222
 40
1.029150374371222
 40
1.029150374371222
 10
200.8154600560631
 20
-12.23673495290006
 30
0.0
 10
200.7727098838743
 20
-12.23567937653658
 30
0.0
 10
200.6871723649483
 20
-12.23355318683755
 30
0.0
 10
200.5588109816492
 20
-12.23032556833419
 30
0.0
 10
200.4303428571871
 20
-12.22705745827267
 30
0.0
 10
200.301776285017
 20
-12.2237505624872
 30
0.0
 10
200.173119933248
 20
-12.22040944315574
 30
0.0
 10
200.0443766087613
 20
-12.21703706412901
 30
0.0
 10
199.9155444417797
 20
-12.21363436943693
 30
0.0
 10
199.8296264071294
 20
-12.2113482241626
 30
0.0
 10
199.7866519673628
 20
-12.21020088510011
 30
0.0
 11
200.8154600560631
 21
-12.23673495290006
 31
0.0
 11
200.687210014763
 21
-12.23354886580011
 31
0.0
 11
200.5588483777631
 21
-12.23032121570009
 31
0.0
 11
200.430375885963
 21
-12.22705325870015
 31
0.0
 11
200.3018055871628
 21
-12.22374700280011
 31
0.0
 11
200.173148530763
 21
-12.22040570990015
 31
0.0
 11
200.0444067665628
 21
-12.21703265650012
 31
0.0
 11
199.9155756152629
 21
-12.21363044930013
 31
0.0
 11
199.7866519673628
 21
-12.21020088510011
 31
0.0
  0
SPLINE
  5
56807
330
1F
100
AcDbEntity
  8
1
100
AcDbSpline
210
0.0
220
0.0
230
1.0
 70
     8
 71
     3
 72
    24
 73
    20
 74
    18
 42
0.0000000001
 43
0.0000000001
 44
0.000001
 12
-0.9997460450447274
 22
0.0225354258319229
 32
0.0
 13
-0.9997076317538615
 23
0.0241795577520699
 33
0.0
 40
0.0
 40
0.0
 40
0.0
 40
0.0
 40
0.0178828971112327
 40
0.047820679290279
 40
0.0782724491080666
 40
0.1080953418156907
 40
0.1364947201858861
 40
0.1668565721046417
 40
0.2001787236499668
 40
0.236687590032044
 40
0.2766561521658919
 40
0.3204802963058166
 40
0.3685930910292219
 40
0.4214963526450452
 40
0.4797575991773265
 40
0.5442338837685066
 40
0.6159565152091034
 40
0.6958427337994464
 40
0.7850677676584418
 40
0.7850677676584418
 40
0.7850677676584418
 40
0.7850677676584418
 10
201.6003134513628
 20
-12.25507626220007
 30
0.0
 10
201.5943539994759
 20
-12.25494192929957
 30
0.0
 10
201.5784178279992
 20
-12.25458240540797
 30
0.0
 10
201.5523336787861
 20
-12.25399260914241
 30
0.0
 10
201.522270591793
 20
-12.25331091232854
 30
0.0
 10
201.492720217512
 20
-12.25263893699878
 30
0.0
 10
201.4631998488821
 20
-12.25196585278911
 30
0.0
 10
201.4325134105594
 20
-12.25126412888619
 30
0.0
 10
201.3991245539742
 20
-12.25049895075983
 30
0.0
 10
201.3625343476713
 20
-12.24965838046705
 30
0.0
 10
201.3224444770016
 20
-12.24873408809941
 30
0.0
 10
201.2784877475999
 20
-12.24771675459544
 30
0.0
 10
201.2302207207595
 20
-12.24659471092593
 30
0.0
 10
201.1771427708279
 20
-12.24535462019634
 30
0.0
 10
201.1186119991157
 20
-12.24397915469316
 30
0.0
 10
201.0538100565192
 20
-12.24244693739183
 30
0.0
 10
200.9818020590873
 20
-12.24073357296638
 30
0.0
 10
200.9015471155824
 20
-12.2388112957822
 30
0.0
 10
200.8451930384939
 20
-12.23745409351977
 30
0.0
 10
200.8154600560631
 20
-12.23673495290006
 30
0.0
 11
201.6003134513628
 21
-12.25507626220007
 31
0.0
 11
201.5824351042631
 21
-12.25467288330014
 31
0.0
 11
201.5525049776631
 21
-12.25399588410016
 31
0.0
 11
201.5220610372628
 21
-12.25330538730009
 31
0.0
 11
201.4922458491631
 21
-12.25262752430012
 31
0.0
 11
201.463853842163
 21
-12.25198049920016
 31
0.0
 11
201.4334999093628
 21
-12.25128708010015
 31
0.0
 11
201.4001864964628
 21
-12.25052399430012
 31
0.0
 11
201.3636872629629
 21
-12.24968538430011
 31
0.0
 11
201.323729319063
 21
-12.24876414900007
 31
0.0
 11
201.2799169081629
 21
-12.24775011700012
 31
0.0
 11
201.2318171090631
 21
-12.24663192840012
 31
0.0
 11
201.1789282817629
 21
-12.2453961929001
 31
0.0
 11
201.120683114463
 21
-12.24402749190011
 31
0.0
 11
201.056224842863
 21
-12.24250351410012
 31
0.0
 11
200.9845225036631
 21
-12.24079751670013
 31
0.0
 11
200.9046591814629
 21
-12.23888500580011
 31
0.0
 11
200.8154600560631
 21
-12.23673495290006
 31
0.0
  0
SPLINE
  5
56808
330
1F
100
AcDbEntity
  8
1
100
AcDbSpline
210
0.0
220
0.0
230
1.0
 70
     8
 71
     3
 72
    22
 73
    18
 74
    16
 42
0.0000000001
 43
0.0000000001
 44
0.000001
 12
-0.3921572058543344
 22
-0.9198982149653955
 32
0.0
 13
-0.528623876631518
 23
-0.8488561698280019
 33
0.0
 40
0.0
 40
0.0
 40
0.0
 40
0.0
 40
0.010305976362537
 40
0.0206147535927305
 40
0.0309265464299851
 40
0.041241105256992
 40
0.0515584470867853
 40
0.0618783234157784
 40
0.0722006225105462
 40
0.0825255085979962
 40
0.092852989075454
 40
0.1031833106961832
 40
0.1135163837619889
 40
0.1238521793700572
 40
0.134190448331392
 40
0.1445308122887018
 40
0.1548734196145533
 40
0.1548734196145533
 40
0.1548734196145533
 40
0.1548734196145533
 10
206.2965143953631
 20
-11.55960268150011
 30
0.0
 10
206.2951672077318
 20
-11.56276283125322
 30
0.0
 10
206.292439877806
 20
-11.56907015408833
 30
0.0
 10
206.2882511231463
 20
-11.57848982819198
 30
0.0
 10
206.283964541509
 20
-11.5878685476701
 30
0.0
 10
206.2795804774067
 20
-11.5972052461077
 30
0.0
 10
206.2750999633317
 20
-11.60649903746645
 30
0.0
 10
206.2705229826206
 20
-11.61574858234144
 30
0.0
 10
206.2658501259275
 20
-11.6249528825017
 30
0.0
 10
206.2610818348797
 20
-11.63411096475565
 30
0.0
 10
206.2562185254923
 20
-11.64322197566054
 30
0.0
 10
206.2512606357186
 20
-11.65228497765577
 30
0.0
 10
206.2462086921922
 20
-11.66129906649482
 30
0.0
 10
206.2410635305536
 20
-11.67026332820867
 30
0.0
 10
206.2358253811175
 20
-11.67917639689898
 30
0.0
 10
206.2304949115069
 20
-11.68803719876772
 30
0.0
 10
206.2268804257894
 20
-11.69390824378658
 30
0.0
 10
206.225057976063
 20
-11.69683470580014
 30
0.0
 11
206.2965143953631
 21
-11.55960268150011
 31
0.0
 11
206.2924241379631
 21
-11.56906228360014
 31
0.0
 11
206.2882357000628
 21
-11.57848190070012
 31
0.0
 11
206.283949398063
 21
-11.58786070340011
 31
0.0
 11
206.2795657629629
 21
-11.59719745310008
 31
0.0
 11
206.2750852444631
 21
-11.60649111820009
 31
0.0
 11
206.2705083607629
 21
-11.61574053440012
 31
0.0
 11
206.265835622363
 21
-11.62494461690011
 31
0.0
 11
206.2610674311629
 21
-11.6341025306001
 31
0.0
 11
206.2562042573629
 21
-11.64321330050006
 31
0.0
 11
206.2512464655631
 21
-11.65227616550009
 31
0.0
 11
206.2461946016631
 21
-11.66129007320012
 31
0.0
 11
206.2410491810631
 21
-11.67025403640014
 31
0.0
 11
206.2358108276628
 21
-11.67916689550014
 31
0.0
 11
206.2304802692631
 21
-11.68802738670013
 31
0.0
 11
206.225057976063
 21
-11.69683470580014
 31
0.0
  0
SPLINE
  5
56809
330
1F
100
AcDbEntity
  8
1
100
AcDbSpline
210
0.0
220
0.0
230
1.0
 70
     8
 71
     3
 72
    23
 73
    19
 74
    17
 42
0.0000000001
 43
0.0000000001
 44
0.000001
 12
-0.2422901253804503
 22
-0.9702038420574956
 32
0.0
 13
-0.3915625629086832
 23
-0.9201514871630559
 33
0.0
 40
0.0
 40
0.0
 40
0.0
 40
0.0
 40
0.0097666588534999
 40
0.0195346417021375
 40
0.0293037923556152
 40
0.0390743558338641
 40
0.0488462221313498
 40
0.058619317521529
 40
0.0683938304785831
 40
0.0781697694612519
 40
0.0879475174113195
 40
0.0977272048080268
 40
0.1075089590888032
 40
0.1172929349245162
 40
0.1270786982148538
 40
0.1368665641552266
 40
0.1466563722882838
 40
0.1564483300269383
 40
0.1564483300269383
 40
0.1564483300269383
 40
0.1564483300269383
 10
206.346209940963
 20
-11.41142698450011
 30
0.0
 10
206.3454211526302
 20
-11.41458553448134
 30
0.0
 10
206.3438122369908
 20
-11.42089531024095
 30
0.0
 10
206.3413053755874
 20
-11.43033623507872
 30
0.0
 10
206.3387051494351
 20
-11.43975323384873
 30
0.0
 10
206.3360118207127
 20
-11.44914537077255
 30
0.0
 10
206.3332261355231
 20
-11.45851190316981
 30
0.0
 10
206.3303477733502
 20
-11.46785175070926
 30
0.0
 10
206.3273771511269
 20
-11.47716408931291
 30
0.0
 10
206.3243144306294
 20
-11.48644817865252
 30
0.0
 10
206.3211598500404
 20
-11.49570328102072
 30
0.0
 10
206.3179136197233
 20
-11.50492869119569
 30
0.0
 10
206.3145760274822
 20
-11.51412365213582
 30
0.0
 10
206.3111471980162
 20
-11.5232871427234
 30
0.0
 10
206.307628109636
 20
-11.53241853354731
 30
0.0
 10
206.304018493183
 20
-11.54151661510479
 30
0.0
 10
206.3003186879344
 20
-11.55058061439601
 30
0.0
 10
206.2977924500525
 20
-11.5565993200083
 30
0.0
 10
206.2965143953631
 20
-11.55960268150011
 30
0.0
 11
206.346209940963
 21
-11.41142698450011
 31
0.0
 11
206.343796884363
 21
-11.42089089960006
 31
0.0
 11
206.3412902918628
 21
-11.43033184820012
 31
0.0
 11
206.338690442363
 21
-11.43974875160012
 31
0.0
 11
206.3359975113629
 21
-11.44914091150008
 31
0.0
 11
206.3332117786629
 21
-11.45850727480012
 31
0.0
 11
206.330333517463
 21
-11.46784691010015
 31
0.0
 11
206.3273629433632
 21
-11.47715908570012
 31
0.0
 11
206.3243003224629
 21
-11.48644289850011
 31
0.0
 11
206.3211458141629
 21
-11.49569780410013
 31
0.0
 11
206.317899666363
 21
-11.50492302120011
 31
0.0
 11
206.3145621236629
 21
-11.51411776400016
 31
0.0
 11
206.311133422663
 21
-11.52328127100008
 31
0.0
 11
206.307614032163
 21
-11.53241224700008
 31
0.0
 11
206.3040041624629
 21
-11.54151010740008
 31
0.0
 11
206.300304196963
 21
-11.55057381570009
 31
0.0
 11
206.2965143953631
 21
-11.55960268150011
 31
0.0
  0
SPLINE
  5
5680A
330
1F
100
AcDbEntity
  8
1
100
AcDbSpline
210
0.0
220
0.0
230
1.0
 70
     8
 71
     3
 72
    22
 73
    18
 74
    16
 42
0.0000000001
 43
0.0000000001
 44
0.000001
 12
-0.0924202070271411
 22
-0.9957200938682822
 32
0.0
 13
-0.2410830776333412
 23
-0.9705044820498441
 33
0.0
 40
0.0
 40
0.0
 40
0.0
 40
0.0
 40
0.0098508584371792
 40
0.0197066562732318
 40
0.0295663272909289
 40
0.0394298579702018
 40
0.0492970912289744
 40
0.059167842022875
 40
0.0690423245901177
 40
0.0789201446525809
 40
0.0888012456117369
 40
0.0986844926302199
 40
0.1085690857391849
 40
0.1184548278173522
 40
0.1283414807632657
 40
0.1382295073426493
 40
0.1481187325325329
 40
0.1481187325325329
 40
0.1481187325325329
 40
0.1481187325325329
 10
206.3709661100631
 20
-11.26553355790008
 30
0.0
 10
206.3706626372712
 20
-11.268803123796
 30
0.0
 10
206.3700225555428
 20
-11.27534088179976
 30
0.0
 10
206.3689634485244
 20
-11.28513941036016
 30
0.0
 10
206.3678052210835
 20
-11.29493098127631
 30
0.0
 10
206.3665480069319
 20
-11.30471417554395
 30
0.0
 10
206.3651919113777
 20
-11.31448788352287
 30
0.0
 10
206.3637370344151
 20
-11.32425106684832
 30
0.0
 10
206.3621834896342
 20
-11.3340026101211
 30
0.0
 10
206.3605313881201
 20
-11.3437414399049
 30
0.0
 10
206.3587809252538
 20
-11.35346604022612
 30
0.0
 10
206.3569323433599
 20
-11.36317476502532
 30
0.0
 10
206.3549859231092
 20
-11.37286592732448
 30
0.0
 10
206.3529419095125
 20
-11.38253813591191
 30
0.0
 10
206.3508004695547
 20
-11.39219041708429
 30
0.0
 10
206.3485617711763
 20
-11.40182178684037
 30
0.0
 10
206.3470046492443
 20
-11.40822780537652
 30
0.0
 10
206.346209940963
 20
-11.41142698450011
 30
0.0
 11
206.3709661100631
 21
-11.26553355790008
 31
0.0
 11
206.3700063339632
 21
-11.27533759600015
 31
0.0
 11
206.3689473644629
 21
-11.28513638760012
 31
0.0
 11
206.3677893503629
 21
-11.29492786320009
 31
0.0
 11
206.366532344563
 21
-11.30471100370016
 31
0.0
 11
206.3651764215631
 21
-11.31448464950011
 31
0.0
 11
206.3637216746631
 21
-11.32424761640016
 31
0.0
 11
206.3621681686629
 21
-11.33399912060008
 31
0.0
 11
206.3605160720629
 21
-11.34373777970012
 31
0.0
 11
206.3587655076629
 21
-11.35346254670014
 31
0.0
 11
206.356916806563
 21
-11.36317131680016
 31
0.0
 11
206.3549702759631
 21
-11.37286232150006
 31
0.0
 11
206.3529261267629
 21
-11.38253438770016
 31
0.0
 11
206.350784593863
 21
-11.39218630510015
 31
0.0
 11
206.3485457829631
 21
-11.40181755210011
 31
0.0
 11
206.346209940963
 21
-11.41142698450011
 31
0.0
  0
SPLINE
  5
5680B
330
1F
100
AcDbEntity
  8
1
100
AcDbSpline
210
0.0
220
0.0
230
1.0
 70
     8
 71
     3
 72
    60
 73
    56
 74
    54
 42
0.0000000001
 43
0.0000000001
 44
0.000001
 12
0.0617078449968043
 22
-0.9980942550009244
 32
0.0
 13
0.0007198759664897
 23
-0.999999740889263
 33
0.0
 40
0.0
 40
0.0
 40
0.0
 40
0.0
 40
0.0432744837885932
 40
0.0823935686413708
 40
0.117753275128666
 40
0.1497220396492021
 40
0.1786677361256071
 40
0.2049579182662269
 40
0.2289612973591186
 40
0.2510367030538518
 40
0.2714400706075915
 40
0.290227956184454
 40
0.3074326456797626
 40
0.3230888143846662
 40
0.3372401682802951
 40
0.349991265494681
 40
0.3615097087536232
 40
0.3719613084208726
 40
0.3814767611587308
 40
0.3900733407339416
 40
0.3977667556745743
 40
0.4047613026779239
 40
0.4113991159086458
 40
0.4179911796457161
 40
0.4246423719514152
 40
0.4312995505542819
 40
0.4379259624949995
 40
0.4445326626112049
 40
0.4513306213811492
 40
0.4586060647178212
 40
0.4666431659472795
 40
0.4757432275953848
 40
0.4862224114174917
 40
0.4982100138526157
 40
0.5109769144584914
 40
0.5237251080617631
 40
0.5364085899827461
 40
0.5491335174157155
 40
0.5618998155988009
 40
0.5746609883569443
 40
0.587316263397301
 40
0.600032276931194
 40
0.6133728508368038
 40
0.6279311261331077
 40
0.6442952238062879
 40
0.663049061736249
 40
0.6845048963668328
 40
0.7072608473498066
 40
0.7296861738991871
 40
0.7517301393963223
 40
0.7738938224329284
 40
0.7970569753997632
 40
0.8221667547043242
 40
0.8501715043166257
 40
0.8820608283995325
 40
0.8820608283995325
 40
0.8820608283995325
 40
0.8820608283995325
 10
206.3536897864631
 20
-10.21274952950011
 30
0.0
 10
206.354579911509
 20
-10.22714686738595
 30
0.0
 10
206.3562614010584
 20
-10.25455986954674
 30
0.0
 10
206.3586489962848
 20
-10.29373828197998
 30
0.0
 10
206.3607558531614
 20
-10.32915821225134
 30
0.0
 10
206.3626041094601
 20
-10.3611963536299
 30
0.0
 10
206.3642172363186
 20
-10.39021979727263
 30
0.0
 10
206.3656231040276
 20
-10.41659546602483
 30
0.0
 10
206.3668499396622
 20
-10.44068726107565
 30
0.0
 10
206.3679234104325
 20
-10.46282198550119
 30
0.0
 10
206.3688629541696
 20
-10.483222601578
 30
0.0
 10
206.369682351396
 20
-10.50200340070674
 30
0.0
 10
206.3703920918151
 20
-10.51920502841923
 30
0.0
 10
206.3710024796094
 20
-10.53486388663265
 30
0.0
 10
206.371524437017
 20
-10.54904049807743
 30
0.0
 10
206.3719697402917
 20
-10.56183972697869
 30
0.0
 10
206.3723503418047
 20
-10.57340718699964
 30
0.0
 10
206.3726770522093
 20
-10.58389727081592
 30
0.0
 10
206.3729578785408
 20
-10.59341434306372
 30
0.0
 10
206.3731985549432
 20
-10.60201279415759
 30
0.0
 10
206.3734049443196
 20
-10.60977156568424
 30
0.0
 10
206.3735849267505
 20
-10.6168778803173
 30
0.0
 10
206.3737475376888
 20
-10.62361739506639
 30
0.0
 10
206.3738995807387
 20
-10.63024267531676
 30
0.0
 10
206.3740438437163
 20
-10.63687458626862
 30
0.0
 10
206.3741802876771
 20
-10.6435181145419
 30
0.0
 10
206.374308357369
 20
-10.6501469760297
 30
0.0
 10
206.3744291855132
 20
-10.65682290794905
 30
0.0
 10
206.3745453455358
 20
-10.66371529842252
 30
0.0
 10
206.374659822698
 20
-10.67108457938687
 30
0.0
 10
206.3747744225311
 20
-10.67922131097069
 30
0.0
 10
206.3748889318025
 20
-10.68842605236756
 30
0.0
 10
206.374999732784
 20
-10.69894775903336
 30
0.0
 10
206.3750971112997
 20
-10.71069192919773
 30
0.0
 10
206.3751690630904
 20
-10.7231926355326
 30
0.0
 10
206.3752078800903
 20
-10.7359254523237
 30
0.0
 10
206.375211195395
 20
-10.74864433197615
 30
0.0
 10
206.3751907449317
 20
-10.76136922165855
 30
0.0
 10
206.3751582529038
 20
-10.77411997978555
 30
0.0
 10
206.3751267814032
 20
-10.78684752357185
 30
0.0
 10
206.3751065055543
 20
-10.79955832923173
 30
0.0
 10
206.3750926352078
 20
-10.81246227614002
 30
0.0
 10
206.3750822743539
 20
-10.82600055983405
 30
0.0
 10
206.3750708586231
 20
-10.84075487104968
 30
0.0
 10
206.3750553406262
 20
-10.85731360079413
 30
0.0
 10
206.375037328407
 20
-10.87617151559959
 30
0.0
 10
206.3750205758891
 20
-10.89716005025167
 30
0.0
 10
206.3750075565822
 20
-10.91937241728271
 30
0.0
 10
206.3749974969088
 20
-10.94178082941238
 30
0.0
 10
206.3749901874654
 20
-10.96399181997037
 30
0.0
 10
206.3749861028532
 20
-10.98644875352005
 30
0.0
 10
206.3749856982713
 20
-11.00992762541648
 30
0.0
 10
206.374989910521
 20
-11.03535351912339
 30
0.0
 10
206.3749995708592
 20
-11.06368813547718
 30
0.0
 10
206.3750128768433
 20
-11.08365282256008
 30
0.0
 10
206.3750205289628
 20
-11.0942825945001
 30
0.0
 11
206.3536897864631
 21
-10.21274952950011
 31
0.0
 11
206.3563442090628
 21
-10.25594255290013
 31
0.0
 11
206.3587162809629
 21
-10.29498965380014
 31
0.0
 11
206.360812925763
 21
-10.33028714670013
 31
0.0
 11
206.3626514065629
 21
-10.36220300450009
 31
0.0
 11
206.364255888763
 21
-10.39110419930011
 31
0.0
 11
206.365653825563
 21
-10.41735719000007
 31
0.0
 11
206.3668735481631
 21
-10.44132956050009
 31
0.0
 11
206.367942099163
 21
-10.46337909090016
 31
0.0
 11
206.3688801667629
 21
-10.48376088390011
 31
0.0
 11
206.3696986289631
 21
-10.50253093470007
 31
0.0
 11
206.3704075422631
 21
-10.51972101380011
 31
0.0
 11
206.3710171033629
 21
-10.5353653126001
 31
0.0
 11
206.3715375906629
 21
-10.54950709240012
 31
0.0
 11
206.371980816363
 21
-10.56225048490012
 31
0.0
 11
206.3723595024628
 21
-10.57376270230008
 31
0.0
 11
206.3726847847631
 21
-10.58420923960011
 31
0.0
 11
206.3729653876628
 21
-10.5937205547001
 31
0.0
 11
206.373205878763
 21
-10.60231377030016
 31
0.0
 11
206.373410429663
 21
-10.61000446600008
 31
0.0
 11
206.373587504163
 21
-10.61699677170008
 31
0.0
 11
206.3737475975629
 21
-10.62363265450011
 31
0.0
 11
206.3738988211628
 21
-10.63022298390012
 31
0.0
 11
206.3740434548629
 21
-10.63687260390008
 31
0.0
 11
206.3741801445628
 21
-10.64352837950014
 31
0.0
 11
206.374308134463
 21
-10.65015355570011
 31
0.0
 11
206.3744276802629
 21
-10.65675917460009
 31
0.0
 11
206.3745422202631
 21
-10.66355616880014
 31
0.0
 11
206.374655208763
 21
-10.67083073520007
 31
0.0
 11
206.3747683675631
 21
-10.67886704030013
 31
0.0
 11
206.3748815216629
 21
-10.68796639900011
 31
0.0
 11
206.3749917905629
 21
-10.69844500330009
 31
0.0
 11
206.3750910508631
 21
-10.71043219550012
 31
0.0
 11
206.375164334363
 21
-10.72319888650008
 31
0.0
 11
206.3752030072631
 21
-10.73594702210016
 31
0.0
 11
206.3752082498629
 21
-10.74863050350006
 31
0.0
 11
206.375189774363
 21
-10.7613554180001
 31
0.0
 11
206.375159409263
 21
-10.77412168050011
 31
0.0
 11
206.375129568263
 21
-10.78688281880011
 31
0.0
 11
206.375108632563
 21
-10.79953807700008
 31
0.0
 11
206.3750944993628
 21
-10.81225408320011
 31
0.0
 11
206.375083567063
 21
-10.8255946532002
 31
0.0
 11
206.3750719509628
 21
-10.8401529245001
 31
0.0
 11
206.3750570413629
 21
-10.85651701610015
 31
0.0
 11
206.3750396463629
 21
-10.87527084680016
 31
0.0
 11
206.3750226577629
 21
-10.89672667570011
 31
0.0
 11
206.3750090161627
 21
-10.9194826237001
 31
0.0
 11
206.3749988915631
 21
-10.9419079491002
 31
0.0
 11
206.374991739963
 21
-10.9639519146001
 31
0.0
 11
206.3749877582629
 21
-10.98611559850008
 31
0.0
 11
206.3749873870631
 21
-11.00927875280013
 31
0.0
 11
206.374991444163
 21
-11.0343885333001
 31
0.0
 11
206.375001550263
 21
-11.06239328290007
 31
0.0
 11
206.3750205289628
 21
-11.0942825945001
 31
0.0
  0
SPLINE
  5
5680C
330
1F
100
AcDbEntity
  8
1
100
AcDbSpline
210
0.0
220
0.0
230
1.0
 70
     8
 71
     3
 72
    30
 73
    26
 74
    24
 42
0.0000000001
 43
0.0000000001
 44
0.000001
 12
0.0501108550457803
 22
-0.9987436619105929
 32
0.0
 13
0.0685508443136677
 23
-0.9976476240356028
 33
0.0
 40
0.0
 40
0.0
 40
0.0
 40
0.0
 40
0.1293520783929329
 40
0.2603192429101311
 40
0.3930945670088597
 40
0.5277045224368225
 40
0.6595685337597848
 40
0.7806610712026174
 40
0.8876429477450827
 40
0.9818894022042851
 40
1.06523483268264
 40
1.139357155344317
 40
1.20578968228768
 40
1.265838053149865
 40
1.320505457373278
 40
1.369133043826355
 40
1.413180334556956
 40
1.454877083267379
 40
1.49578016481331
 40
1.535065932231161
 40
1.571692658062114
 40
1.606311803942124
 40
1.640121211669995
 40
1.673713296021006
 40
1.707260265385091
 40
1.707260265385091
 40
1.707260265385091
 40
1.707260265385091
 10
206.2610279606631
 20
-8.508022121100111
 30
0.0
 10
206.2631886084132
 20
-8.551085310583403
 30
0.0
 10
206.2675586504039
 20
-8.637748284004857
 30
0.0
 10
206.2742220368341
 20
-8.768610276176332
 30
0.0
 10
206.281064672983
 20
-8.901218011263267
 30
0.0
 10
206.2880329438729
 20
-9.034118574751886
 30
0.0
 10
206.2949274704216
 20
-9.163123319156255
 30
0.0
 10
206.3013821526267
 20
-9.282929041909625
 30
0.0
 10
206.3071539552662
 20
-9.390214187195454
 30
0.0
 10
206.3122094951043
 20
-9.484937296127839
 30
0.0
 10
206.3166266893524
 20
-9.568725688438348
 30
0.0
 10
206.320495864642
 20
-9.643258757141211
 30
0.0
 10
206.323957958582
 20
-9.710036811326659
 30
0.0
 10
206.3271129476602
 20
-9.770337103172863
 30
0.0
 10
206.33000510319
 20
-9.82470803294862
 30
0.0
 10
206.3326701360021
 20
-9.873749780887607
 30
0.0
 10
206.3351595963947
 20
-9.918471101565529
 30
0.0
 10
206.3375679163207
 20
-9.960618074203438
 30
0.0
 10
206.3399522409891
 20
-10.00117660445735
 30
0.0
 10
206.3423085171595
 20
-10.04004379339795
 30
0.0
 10
206.3446071164112
 20
-10.07681592735721
 30
0.0
 10
206.3468671512794
 20
-10.11176137212234
 30
0.0
 10
206.3491223412193
 20
-10.145693406111
 30
0.0
 10
206.3513992872007
 20
-10.17926577217761
 30
0.0
 10
206.3529232287717
 20
-10.20159351140688
 30
0.0
 10
206.3536897864631
 20
-10.21274952950011
 30
0.0
 11
206.2610279606631
 21
-8.508022121100111
 31
0.0
 11
206.267543067763
 21
-8.637210009200089
 31
0.0
 11
206.274207097963
 21
-8.768007520200114
 31
0.0
 11
206.2810523602629
 21
-8.900606272700088
 31
0.0
 11
206.2881047047629
 21
-9.035031362100085
 31
0.0
 11
206.295129947063
 21
-9.166708101000153
 31
0.0
 11
206.301634539263
 21
-9.287625812500095
 31
0.0
 11
206.307374947163
 21
-9.394453569300139
 31
0.0
 11
206.3123933070631
 21
-9.488566321900066
 31
0.0
 11
206.316777731563
 21
-9.571796349700093
 31
0.0
 11
206.3206288736631
 21
-9.645818557900156
 31
0.0
 11
206.3240746567629
 21
-9.712161659100161
 31
0.0
 11
206.3272167596631
 21
-9.772127765200139
 31
0.0
 11
206.330124075763
 21
-9.826717804900113
 31
0.0
 11
206.332765188663
 21
-9.875273613200079
 31
0.0
 11
206.335215213363
 21
-9.919252710700106
 31
0.0
 11
206.3375954986629
 21
-9.960881461100143
 31
0.0
 11
206.3399975803629
 21
-10.00171394450012
 31
0.0
 11
206.3423758541628
 21
-10.04092764720008
 31
0.0
 11
206.3446633514629
 21
-10.07748279020006
 31
0.0
 11
206.3468939470629
 21
-10.11203006080006
 31
0.0
 11
206.3491337828629
 21
-10.14576521770016
 31
0.0
 11
206.351401705163
 21
-10.17928065670014
 31
0.0
 11
206.3536897864631
 21
-10.21274952950011
 31
0.0
  0
SPLINE
  5
5680D
330
1F
100
AcDbEntity
  8
1
100
AcDbSpline
210
0.0
220
0.0
230
1.0
 70
     8
 71
     3
 72
    20
 73
    16
 74
    14
 42
0.0000000001
 43
0.0000000001
 44
0.000001
 12
0.0504646768136967
 22
-0.9987258464634273
 32
0.0
 13
0.0566339771029237
 23
-0.9983950083196058
 33
0.0
 40
0.0
 40
0.0
 40
0.0
 40
0.0
 40
0.1299695316086983
 40
0.2634842210377934
 40
0.3944523656994926
 40
0.5221927303531916
 40
0.6478471449831414
 40
0.7733154705046027
 40
0.8993462909828181
 40
1.025951314724574
 40
1.153060762889024
 40
1.27968726531154
 40
1.405383091946248
 40
1.530137234819413
 40
1.653965431159819
 40
1.653965431159819
 40
1.653965431159819
 40
1.653965431159819
 10
206.1724320525629
 20
-6.856434001700108
 30
0.0
 10
206.174618342699
 20
-6.899701978523552
 30
0.0
 10
206.1790724107602
 20
-6.987417042499998
 30
0.0
 10
206.185798977825
 20
-7.118728994726353
 30
0.0
 10
206.1925509599006
 20
-7.249295600386062
 30
0.0
 10
206.1992287861336
 20
-7.377242433152645
 30
0.0
 10
206.2058716059754
 20
-7.503355310179529
 30
0.0
 10
206.2125452718703
 20
-7.628895909740151
 30
0.0
 10
206.2192979216614
 20
-7.754749612525017
 30
0.0
 10
206.2261436520175
 20
-7.881146132948231
 30
0.0
 10
206.2330656340213
 20
-8.007737358559325
 30
0.0
 10
206.2400367186352
 20
-8.134022363064133
 30
0.0
 10
206.2470242150107
 20
-8.259520149775937
 30
0.0
 10
206.2540159433015
 20
-8.384083473347345
 30
0.0
 10
206.2586903329177
 20
-8.466812303394959
 30
0.0
 10
206.2610279606631
 20
-8.508022121100111
 30
0.0
 11
206.1724320525629
 21
-6.856434001700108
 31
0.0
 11
206.1790209989629
 21
-6.986236411500158
 31
0.0
 11
206.185852304963
 21
-7.119576223700107
 31
0.0
 11
206.1926160755632
 21
-7.250369596500149
 31
0.0
 11
206.199274319463
 21
-7.377936318700108
 31
0.0
 11
206.205884009363
 21
-7.503416771300067
 31
0.0
 11
206.2125446109628
 21
-7.628708180300122
 31
0.0
 11
206.219297226563
 21
-7.754557971600092
 31
0.0
 11
206.2261444422629
 21
-7.880977700100117
 31
0.0
 11
206.2330844420628
 21
-8.007897550000109
 31
0.0
 11
206.240062877263
 21
-8.134331614400139
 31
0.0
 11
206.247050119963
 21
-8.25983308590014
 31
0.0
 11
206.254039982063
 21
-8.384391257200149
 31
0.0
 11
206.2610279606631
 21
-8.508022121100111
 31
0.0
  0
SPLINE
  5
5680E
330
1F
100
AcDbEntity
  8
1
100
AcDbSpline
210
0.0
220
0.0
230
1.0
 70
     8
 71
     3
 72
    16
 73
    12
 74
    10
 42
0.0000000001
 43
0.0000000001
 44
0.000001
 12
0.0523642815861715
 22
-0.998628049883421
 32
0.0
 13
0.0569679970418007
 23
-0.9983760049766047
 33
0.0
 40
0.0
 40
0.0
 40
0.0
 40
0.0
 40
0.0854285124864044
 40
0.1685700608951334
 40
0.2492343870075947
 40
0.3282451804659707
 40
0.4084813185551556
 40
0.4933911897962022
 40
0.585110605851426
 40
0.6853132240076081
 40
0.7972341521209701
 40
0.7972341521209701
 40
0.7972341521209701
 40
0.7972341521209701
 10
206.1287462345628
 20
-6.060398405900116
 30
0.0
 10
206.1302373687906
 20
-6.088835508843033
 30
0.0
 10
206.1331957899474
 20
-6.144947597169561
 30
0.0
 10
206.1376091243549
 20
-6.227908422370546
 30
0.0
 10
206.1419512389548
 20
-6.308730761233817
 30
0.0
 10
206.1462825729575
 20
-6.388583801698985
 30
0.0
 10
206.1507340428641
 20
-6.469847576377276
 30
0.0
 10
206.155461535724
 20
-6.555338777764802
 30
0.0
 10
206.1606032493136
 20
-6.647472723710649
 30
0.0
 10
206.1662987944532
 20
-6.748593443054829
 30
0.0
 10
206.1703067488624
 20
-6.819187612005748
 30
0.0
 10
206.1724320525629
 20
-6.856434001700108
 30
0.0
 11
206.1287462345628
 21
-6.060398405900116
 31
0.0
 11
206.133241745363
 21
-6.145708556500153
 31
0.0
 11
206.1376593641628
 21
-6.22873265950011
 31
0.0
 11
206.1419868031628
 21
-6.309280824000097
 31
0.0
 11
206.1462664345629
 21
-6.388175629200077
 31
0.0
 11
206.1506545589629
 21
-6.468291684400128
 31
0.0
 11
206.155342103463
 21
-6.55307206700013
 31
0.0
 11
206.1604522113628
 21
-6.644649019600137
 31
0.0
 11
206.1660852081629
 21
-6.7446931825001
 31
0.0
 11
206.1724320525629
 21
-6.856434001700108
 31
0.0
  0
ARC
  5
5680F
330
1F
100
AcDbEntity
  8
1
100
AcDbCircle
 10
205.1290611306629
 20
-10.42866700000013
 30
0.0
 40
1.8495305
100
AcDbArc
 50
285.0200780000069
 51
287.113774
  0
ARC
  5
56810
330
1F
100
AcDbEntity
  8
1
100
AcDbCircle
 10
205.0632981306628
 20
-10.4652650000001
 30
0.0
 40
1.835383
100
AcDbArc
 50
289.4126370000055
 51
291.5276320000017
  0
ARC
  5
56811
330
1F
100
AcDbEntity
  8
1
100
AcDbCircle
 10
205.0177141306629
 20
-10.5407770000001
 30
0.0
 40
1.783243999999999
100
AcDbArc
 50
293.7809529999921
 51
295.9700880000097
  0
ARC
  5
56812
330
1F
100
AcDbEntity
  8
1
100
AcDbCircle
 10
205.3892096306629
 20
-10.91833650000012
 30
0.0
 40
1.321662
100
AcDbArc
 50
273.4000250000002
 51
273.6964119999963
  0
ARC
  5
56813
330
1F
100
AcDbEntity
  8
1
100
AcDbCircle
 10
205.3621406306632
 20
-11.15926200000012
 30
0.0
 40
1.0166665
100
AcDbArc
 50
325.2284510000001
 51
328.0782749999971
  0
ARC
  5
56814
330
1F
100
AcDbEntity
  8
1
100
AcDbCircle
 10
205.4034206306631
 20
-11.17720800000012
 30
0.0
 40
0.9715684999999998
100
AcDbArc
 50
354.7840119999988
 51
355.9414410000016
  0
ARC
  5
56815
330
1F
100
AcDbEntity
  8
1
100
AcDbCircle
 10
206.4749169662089
 20
-11.93543405837073
 30
0.0
 40
0.3400723319673814
100
AcDbArc
 50
144.7313882017002
 51
152.7998538176547
  0
ARC
  5
56816
330
1F
100
AcDbEntity
  8
1
100
AcDbCircle
 10
194.5849871306629
 20
-14.7650000000001
 30
0.0
 40
3.0
100
AcDbArc
 50
63.25191099999807
 51
90.0
  0
ARC
  5
56817
330
1F
100
AcDbEntity
  8
1
100
AcDbCircle
 10
194.5849871306629
 20
14.76499999999987
 30
0.0
 40
3.0
100
AcDbArc
 50
270.0
 51
296.7480890000019
  0
LINE
  5
56818
330
1F
100
AcDbEntity
  8
1
100
AcDbLine
 10
187.8849871306629
 20
-11.7650000000001
 30
0.0
 11
194.530158630663
 21
-11.7650000000001
 31
0.0
  0
LINE
  5
56819
330
1F
100
AcDbEntity
  8
1
100
AcDbLine
 10
194.530158630663
 20
-11.7650000000001
 30
0.0
 11
194.5849871306629
 21
-11.7650000000001
 31
0.0
  0
LINE
  5
5681A
330
1F
100
AcDbEntity
  8
1
100
AcDbLine
 10
194.5849871306629
 20
11.76499999999987
 30
0.0
 11
187.8849871306631
 21
11.76499999999987
 31
0.0
  0
LINE
  5
5681B
330
1F
100
AcDbEntity
  8
1
100
AcDbLine
 10
189.009121630663
 20
-11.7650000000001
 30
0.0
 11
189.0091216306631
 21
-10.92547599999997
 31
0.0
  0
LINE
  5
5681C
330
1F
100
AcDbEntity
  8
1
100
AcDbLine
 10
189.009121630663
 20
9.949307291579344
 30
0.0
 11
189.009121630663
 21
11.76499999999987
 31
0.0
  0
LINE
  5
5681D
330
1F
100
AcDbEntity
  8
1
100
AcDbLine
 10
187.8849871306629
 20
-11.7650000000001
 30
0.0
 11
187.884987130663
 21
-10.92547599999997
 31
0.0
  0
LINE
  5
5681E
330
1F
100
AcDbEntity
  8
1
100
AcDbLine
 10
187.8849871306631
 20
10.24737293253503
 30
0.0
 11
187.8849871306631
 21
11.76499999999987
 31
0.0
  0
LINE
  5
5681F
330
1F
100
AcDbEntity
  8
1
100
AcDbLine
 10
205.8201691306629
 20
0.3698299999998653
 30
0.0
 11
205.8502211306629
 21
0.9227554999998801
 31
0.0
  0
LINE
  5
56820
330
1F
100
AcDbEntity
  8
1
100
AcDbLine
 10
205.8002846303675
 20
0.3319590366422176
 30
0.0
 11
205.8201691306629
 21
0.3698299999998653
 31
0.0
  0
LINE
  5
56821
330
1F
100
AcDbEntity
  8
1
100
AcDbLine
 10
205.8502211306629
 20
0.9227554999998801
 30
0.0
 11
205.967110630663
 21
3.080857499999865
 31
0.0
  0
LINE
  5
56822
330
1F
100
AcDbEntity
  8
1
100
AcDbLine
 10
205.967110630663
 20
3.080857499999865
 30
0.0
 11
206.0788091306629
 21
5.144190499999865
 31
0.0
  0
LINE
  5
56823
330
1F
100
AcDbEntity
  8
1
100
AcDbLine
 10
206.3750206306629
 20
11.09428249999985
 30
0.0
 11
206.3749324229263
 21
11.24025124401407
 31
0.0
  0
ARC
  5
56824
102
{ACAD_REACTORS
330
56837
102
}
330
1F
100
AcDbEntity
  8
1
100
AcDbCircle
 10
205.3749326055108
 20
11.23964695217773
 30
0.0
 40
1.0
100
AcDbArc
 50
0.0346233739236728
 51
88.59245861885588
  0
LINE
  5
56825
330
1F
100
AcDbEntity
  8
1
100
AcDbLine
 10
197.7286571306629
 20
12.14875649999987
 30
0.0
 11
196.6994706306629
 21
12.11390049999989
 31
0.0
  0
LINE
  5
56826
330
1F
100
AcDbEntity
  8
1
100
AcDbLine
 10
196.6994706306629
 20
12.11390049999989
 30
0.0
 11
195.935193130663
 21
12.08601799999985
 31
0.0
  0
LINE
  5
56827
330
1F
100
AcDbEntity
  8
1
100
AcDbLine
 10
205.8001341306629
 20
0.0959244999999101
 30
0.0
 11
205.8001341306629
 21
-0.0959245000001374
 31
0.0
  0
LINE
  5
56828
330
1F
100
AcDbEntity
  8
1
100
AcDbLine
 10
205.8001341306629
 20
-0.0959245000001374
 30
0.0
 11
205.8002867779994
 21
-0.3319626374702125
 31
0.0
  0
LINE
  5
56829
330
1F
100
AcDbEntity
  8
1
100
AcDbLine
 10
205.8002846306629
 20
0.3319594999998685
 30
0.0
 11
205.8001341306629
 21
0.0959244999999101
 31
0.0
  0
LINE
  5
5682A
330
1F
100
AcDbEntity
  8
1
100
AcDbLine
 10
205.2550066306628
 20
-12.24289550000014
 30
0.0
 11
205.4675931306631
 21
-12.23767200000014
 31
0.0
  0
LINE
  5
5682B
330
1F
100
AcDbEntity
  8
1
100
AcDbLine
 10
205.2550066306628
 20
12.24289549999986
 30
0.0
 11
205.3994963660923
 21
12.2393452174889
 31
0.0
  0
LINE
  5
5682C
330
1F
100
AcDbEntity
  8
1
100
AcDbLine
 10
205.8201691306629
 20
-0.3698300000001495
 30
0.0
 11
205.8502211306629
 21
-0.9227555000001075
 31
0.0
  0
LINE
  5
5682D
330
1F
100
AcDbEntity
  8
1
100
AcDbLine
 10
205.8002851306631
 20
-0.3319595000000959
 30
0.0
 11
205.8201691306629
 21
-0.3698300000001495
 31
0.0
  0
LINE
  5
5682E
330
1F
100
AcDbEntity
  8
1
100
AcDbLine
 10
205.8502211306629
 20
-0.9227555000001075
 30
0.0
 11
205.967110630663
 21
-3.080857500000092
 31
0.0
  0
LINE
  5
5682F
330
1F
100
AcDbEntity
  8
1
100
AcDbLine
 10
205.967110630663
 20
-3.080857500000092
 30
0.0
 11
206.0788091306629
 21
-5.144190500000149
 31
0.0
  0
LINE
  5
56830
330
1F
100
AcDbEntity
  8
1
100
AcDbLine
 10
196.6994706306629
 20
-12.11390050000011
 30
0.0
 11
195.935193130663
 21
-12.08601800000008
 31
0.0
  0
LINE
  5
56831
330
1F
100
AcDbEntity
  8
1
100
AcDbLine
 10
197.7286571306629
 20
-12.1487565000001
 30
0.0
 11
196.6994706306629
 21
-12.11390050000011
 31
0.0
  0
LINE
  5
56832
330
1F
100
AcDbEntity
  8
1
100
AcDbLine
 10
206.3750206306629
 20
-11.09428250000007
 30
0.0
 11
206.3750001306628
 21
-11.12820650000014
 31
0.0
  0
LINE
  5
56833
330
1F
100
AcDbEntity
  8
1
100
AcDbLine
 10
206.3750001306628
 20
-11.12820650000014
 30
0.0
 11
206.3749836306631
 21
-11.20030200000008
 31
0.0
  0
LINE
  5
56834
330
1F
100
AcDbEntity
  8
1
100
AcDbLine
 10
206.3749836306631
 20
-11.20030200000008
 30
0.0
 11
206.372552630663
 21
-11.24597150000011
 31
0.0
  0
DIMENSION
  5
56835
102
{ACAD_XDICTIONARY
360
56836
102
}
102
{ACAD_REACTORS
330
56837
102
}
330
1F
100
AcDbEntity
  8
2
100
AcDbDimension
  2
*D128
 10
205.3749326055108
 20
11.23964695217775
 30
0.0
 11
224.152709963053
 21
28.49010209140791
 31
0.0
 70
    36
 71
     5
 42
1.000000000000341
  3
\M+18352\M+18373\M+1815B - ISO-25
100
AcDbRadialDimension
 15
206.2094588603874
 25
11.7906151272318
 35
0.0
 40
0.0
1001
ACAD
1000
DSTYLE
1002
{
1070
     4
1000
"
1070
    40
1040
1.0
1070
   143
1040
0.03937
1070
   170
1070
     1
1070
   171
1070
     3
1070
   271
1070
     8
1070
   285
1070
     4
1002
}
  0
LINE
  5
56838
330
1F
100
AcDbEntity
  8
cut
100
AcDbLine
 10
196.375
 20
12.15934943349987
 30
0.0
 11
202.875
 21
12.49999999889985
 31
0.0
1001
ACAD
1000
RTMaterial
1005
0
  0
LINE
  5
56839
330
1F
100
AcDbEntity
  8
cut
100
AcDbLine
 10
187.875
 20
11.76499999889984
 30
0.0
 11
194.8881963373999
 21
11.76499999889984
 31
0.0
1001
ACAD
1000
RTMaterial
1005
0
  0
LINE
  5
5683A
330
1F
100
AcDbEntity
  8
cut
100
AcDbLine
 10
202.875
 20
12.49999999889985
 30
0.0
 11
205.375
 21
12.49999999889985
 31
0.0
1001
ACAD
1000
RTMaterial
1005
0
  0
LINE
  5
5683B
330
1F
100
AcDbEntity
  8
cut
100
AcDbLine
 10
206.3749999999998
 20
10.99999999889803
 30
0.0
 11
206.375
 21
11.49999999889985
 31
0.0
1001
ACAD
1000
RTMaterial
1005
0
  0
LINE
  5
5683C
330
1F
100
AcDbEntity
  8
cut
100
AcDbLine
 10
187.875
 20
-11.76500000110013
 30
0.0
 11
187.875
 21
11.76499999889978
 31
0.0
1001
ACAD
1000
RTMaterial
1005
0
  0
LINE
  5
5683D
330
1F
100
AcDbEntity
  8
cut
100
AcDbLine
 10
205.7985144279001
 20
-0.0000000011001475
 30
0.0
 11
206.375
 21
10.99999999889985
 31
0.0
1001
ACAD
1000
RTMaterial
1005
0
  0
ARC
  5
5683E
330
1F
100
AcDbEntity
  8
cut
100
AcDbCircle
 10
194.8881963373999
 20
14.76499999889984
 30
0.0
 40
3.0
100
AcDbArc
 50
270.0
 51
299.709403338995
1001
ACAD
1000
RTMaterial
1005
0
  0
ARC
  5
5683F
330
1F
100
AcDbEntity
  8
cut
100
AcDbCircle
 10
205.375
 20
11.49999999889985
 30
0.0
 40
1.0
100
AcDbArc
 50
0.0
 51
90.0
1001
ACAD
1000
RTMaterial
1005
0
  0
LINE
  5
56840
330
1F
100
AcDbEntity
  8
cut
100
AcDbLine
 10
196.375
 20
-12.15934943570016
 30
0.0
 11
202.875
 21
-12.50000000110015
 31
0.0
1001
ACAD
1000
RTMaterial
1005
0
  0
LINE
  5
56841
330
1F
100
AcDbEntity
  8
cut
100
AcDbLine
 10
187.875
 20
-11.76500000110013
 30
0.0
 11
194.8881963373999
 21
-11.76500000110013
 31
0.0
1001
ACAD
1000
RTMaterial
1005
0
  0
LINE
  5
56842
330
1F
100
AcDbEntity
  8
cut
100
AcDbLine
 10
202.875
 20
-12.50000000110015
 30
0.0
 11
205.375
 21
-12.50000000110015
 31
0.0
1001
ACAD
1000
RTMaterial
1005
0
  0
LINE
  5
56843
330
1F
100
AcDbEntity
  8
cut
100
AcDbLine
 10
206.3749999999998
 20
-11.00000000109833
 30
0.0
 11
206.375
 21
-11.50000000110015
 31
0.0
1001
ACAD
1000
RTMaterial
1005
0
  0
LINE
  5
56844
330
1F
100
AcDbEntity
  8
cut
100
AcDbLine
 10
205.7985144279001
 20
-0.0000000011001475
 30
0.0
 11
206.375
 21
-11.00000000110014
 31
0.0
1001
ACAD
1000
RTMaterial
1005
0
  0
ARC
  5
56845
330
1F
100
AcDbEntity
  8
cut
100
AcDbCircle
 10
194.8881963373999
 20
-14.76500000110013
 30
0.0
 40
3.0
100
AcDbArc
 50
60.29059666100495
 51
90.0
1001
ACAD
1000
RTMaterial
1005
0
  0
ARC
  5
56846
330
1F
100
AcDbEntity
  8
cut
100
AcDbCircle
 10
205.375
 20
-11.50000000110015
 30
0.0
 40
1.0
100
AcDbArc
 50
270.0
 51
0.0
1001
ACAD
1000
RTMaterial
1005
0
  0
VIEWPORT
  5
6B
102
{ACAD_XDICTIONARY
360
56A51
102
}
330
50
100
AcDbEntity
 67
     1
  8
0
100
AcDbViewport
 10
150.1652135264906
 20
160.4455827878762
 30
0.0
 40
339.1973820494346
 41
282.2272140146125
 68
     1
 69
     1
 12
150.1652135264906
 22
160.4455827878762
 13
0.0
 23
0.0
 14
10.0
 24
10.0
 15
10.0
 25
10.0
 16
0.0
 26
0.0
 36
1.0
 17
0.0
 27
0.0
 37
0.0
 42
50.0
 43
0.0
 44
0.0
 45
282.2272140146125
 50
0.0
 51
0.0
 72
  1000
 90
    32864
  1

281
     0
 71
     1
 74
     0
110
0.0
120
0.0
130
0.0
111
1.0
121
0.0
131
0.0
112
0.0
122
1.0
132
0.0
 79
     0
146
0.0
  0
VIEWPORT
  5
6D
102
{ACAD_XDICTIONARY
360
56A53
102
}
330
50
100
AcDbEntity
 67
     1
  8
0
100
AcDbViewport
 10
133.3499939441681
 20
101.5999939441681
 30
0.0
 40
213.3599903106689
 41
162.5599903106689
 68
     2
 69
     2
 12
210.0
 22
148.5
 13
0.0
 23
0.0
 14
10.0
 24
10.0
 15
10.0
 25
10.0
 16
0.0
 26
0.0
 36
1.0
 17
0.0
 27
0.0
 37
0.0
 42
50.0
 43
0.0
 44
0.0
 45
324.0677920111345
 50
0.0
 51
0.0
 72
   100
 90
    32864
  1

281
     0
 71
     1
 74
     0
110
0.0
120
0.0
130
0.0
111
1.0
121
0.0
131
0.0
112
0.0
122
1.0
132
0.0
 79
     0
146
0.0
  0
ENDSEC
  0
SECTION
  2
OBJECTS
  0
DICTIONARY
  5
C
330
0
100
AcDbDictionary
281
     1
  3
ACAD_COLOR
350
85
  3
ACAD_GROUP
350
D
  3
ACAD_LAYOUT
350
1A
  3
ACAD_MATERIAL
350
84
  3
ACAD_MLINESTYLE
350
17
  3
ACAD_PLOTSETTINGS
350
19
  3
ACAD_PLOTSTYLENAME
350
E
  3
ACAD_TABLESTYLE
350
A1
  3
ACDBHEADERROUNDTRIPXREC
350
56A4C
  3
AcDbVariableDictionary
350
5E
  3
ASE_INDEX_DICTIONARY
350
349E9
  3
DWGPROPS
350
56A4B
  0
DICTIONARY
  5
E2
330
2
100
AcDbDictionary
280
     1
281
     1
  3
ACAD_LAYERFILTERS
360
56A05
  3
ACAD_LAYERSTATES
360
3759A
  3
ACLYDICTIONARY
360
56A04
  0
DICTIONARY
  5
31EE
330
1F
100
AcDbDictionary
280
     1
281
     1
  3
ACAD_SORTENTS
360
31EF
  0
DICTIONARY
  5
3BEB2
330
680
100
AcDbDictionary
280
     1
281
     1
  3
ACAD_SORTENTS
360
54B4E
  0
DICTIONARY
  5
56A55
330
71
100
AcDbDictionary
280
     1
281
     1
  3
ACAD_XREC_ROUNDTRIP
360
56A56
  0
DICTIONARY
  5
56A57
330
73
100
AcDbDictionary
280
     1
281
     1
  3
ACAD_XREC_ROUNDTRIP
360
56A58
  0
DICTIONARY
  5
56736
330
56735
100
AcDbDictionary
280
     1
281
     1
  3
ACAD_DIMASSOC
360
56737
  0
DICTIONARY
  5
5678D
330
5678C
100
AcDbDictionary
280
     1
281
     1
  3
ACAD_DIMASSOC
360
5678E
  0
DICTIONARY
  5
56836
330
56835
100
AcDbDictionary
280
     1
281
     1
  3
ACAD_DIMASSOC
360
56837
  0
DICTIONARY
  5
56A51
330
6B
100
AcDbDictionary
280
     1
281
     1
  3
ACAD_XREC_ROUNDTRIP
360
56A52
  0
DICTIONARY
  5
56A53
330
6D
100
AcDbDictionary
280
     1
281
     1
  3
ACAD_XREC_ROUNDTRIP
360
56A54
  0
DICTIONARY
  5
85
102
{ACAD_REACTORS
330
C
102
}
330
C
100
AcDbDictionary
281
     1
  0
DICTIONARY
  5
D
102
{ACAD_REACTORS
330
C
102
}
330
C
100
AcDbDictionary
281
     1
  0
DICTIONARY
  5
1A
102
{ACAD_REACTORS
330
C
102
}
330
C
100
AcDbDictionary
281
     1
  3
\M+1838C\M+18343\M+18341\M+18345\M+183671
350
51
  3
\M+1838C\M+18343\M+18341\M+18345\M+183672
350
56
  3
Model
350
22
  0
DICTIONARY
  5
84
102
{ACAD_REACTORS
330
C
102
}
330
C
100
AcDbDictionary
281
     1
  0
DICTIONARY
  5
17
102
{ACAD_REACTORS
330
C
102
}
330
C
100
AcDbDictionary
281
     1
  3
Standard
350
18
  0
DICTIONARY
  5
19
102
{ACAD_REACTORS
330
C
102
}
330
C
100
AcDbDictionary
281
     1
  0
ACDBDICTIONARYWDFLT
  5
E
102
{ACAD_REACTORS
330
C
102
}
330
C
100
AcDbDictionary
281
     1
  3
Normal
350
F
100
AcDbDictionaryWithDefault
340
F
  0
DICTIONARY
  5
A1
102
{ACAD_REACTORS
330
C
102
}
330
C
100
AcDbDictionary
281
     1
  3
Standard
350
A2
  0
DICTIONARY
  5
56A4C
102
{ACAD_REACTORS
330
C
102
}
330
C
100
AcDbDictionary
281
     1
  0
DICTIONARY
  5
5E
102
{ACAD_REACTORS
330
C
102
}
330
C
100
AcDbDictionary
281
     1
  3
CTABLESTYLE
350
B8
  3
DIMASSOC
350
5F
  3
HIDETEXT
350
63
  3
PROJECTNAME
350
31CE
  0
DICTIONARY
  5
349E9
102
{ACAD_REACTORS
330
C
102
}
330
C
100
AcDbDictionary
281
     1
  3
ASEBlockHierarchyIndexRecord
350
349EA
1001
DCO15
1040
1842496176.844
  0
XRECORD
  5
56A4B
102
{ACAD_REACTORS
330
C
102
}
330
C
100
AcDbXrecord
280
     1
  1
DWGPROPS COOKIE
  2

  3

  4

  6

  7

  8

  9

300
=
301
=
302
=
303
=
304
=
305
=
306
=
307
=
308
=
309
=
 40
2.72594667824074
 41
2455489.391063368
 42
2458572.949049178
  1

 90
        0
  0
DICTIONARY
  5
56A05
102
{ACAD_REACTORS
330
E2
102
}
330
E2
100
AcDbDictionary
281
     1
  0
DICTIONARY
  5
3759A
102
{ACAD_REACTORS
330
E2
102
}
330
E2
100
AcDbDictionary
281
     1
  0
DICTIONARY
  5
56A04
102
{ACAD_REACTORS
330
E2
102
}
330
E2
100
AcDbDictionary
281
     1
1001
ACAD
1000
<All
  0
SORTENTSTABLE
  5
31EF
102
{ACAD_REACTORS
330
31EE
102
}
330
31EE
100
AcDbSortentsTable
330
1F
331
68C
  5
3C6B0
331
53DFB
  5
53DFB
  0
SORTENTSTABLE
  5
54B4E
102
{ACAD_REACTORS
330
3BEB2
102
}
330
3BEB2
100
AcDbSortentsTable
330
680
  0
XRECORD
  5
56A56
102
{ACAD_REACTORS
330
56A55
102
}
330
56A55
100
AcDbXrecord
280
     1
102
SHADEPLOT
 70
     0
  0
XRECORD
  5
56A58
102
{ACAD_REACTORS
330
56A57
102
}
330
56A57
100
AcDbXrecord
280
     1
102
SHADEPLOT
 70
     0
  0
DIMASSOC
  5
56737
102
{ACAD_REACTORS
330
56736
102
}
330
56736
100
AcDbDimAssoc
330
56735
 90
        3
 70
     0
 71
     0
  1
AcDbOsnapPointRef
 72
     2
331
5677E
 73
     2
 91
        0
 40
0.5
 10
0.0
 20
0.0
 30
0.0
 75
     0
  1
AcDbOsnapPointRef
 72
     2
331
5677D
 73
     2
 91
        0
 40
0.5
 10
0.0
 20
0.0
 30
0.0
 75
     0
  0
DIMASSOC
  5
5678E
102
{ACAD_REACTORS
330
5678D
102
}
330
5678D
100
AcDbDimAssoc
330
5678C
 90
        1
 70
     0
 71
     0
  1
AcDbOsnapPointRef
 72
     1
331
56781
 73
     2
 91
        0
 40
1.0
 10
0.0
 20
0.0
 30
2.000000000000000E+50
 75
     0
  0
DIMASSOC
  5
56837
102
{ACAD_REACTORS
330
56836
102
}
330
56836
100
AcDbDimAssoc
330
56835
 90
        2
 70
     0
 71
     0
  1
AcDbOsnapPointRef
 72
     3
331
56824
 73
     2
 91
        0
 40
0.0
 10
0.0
 20
0.0
 30
0.0
 75
     0
  0
XRECORD
  5
56A52
102
{ACAD_REACTORS
330
56A51
102
}
330
56A51
100
AcDbXrecord
280
     1
102
SHADEPLOT
 70
     0
  0
XRECORD
  5
56A54
102
{ACAD_REACTORS
330
56A53
102
}
330
56A53
100
AcDbXrecord
280
     1
102
SHADEPLOT
 70
     0
  0
LAYOUT
  5
51
102
{ACAD_XDICTIONARY
360
B2
102
}
102
{ACAD_REACTORS
330
1A
102
}
330
1A
100
AcDbPlotSettings
  1

  2
none_device
  4
Letter_(8.50_x_11.00_Inches)
  6

 40
6.349999904632567
 41
6.349999904632567
 42
6.350006103515625
 43
6.350006103515625
 44
215.8999938964844
 45
279.3999938964844
 46
0.0
 47
0.0
 48
0.0
 49
0.0
140
0.0
141
0.0
142
1.0
143
1.0
 70
   688
 72
     1
 73
     1
 74
     5
  7

 75
    16
147
1.0
148
0.0
149
0.0
100
AcDbLayout
  1
\M+1838C\M+18343\M+18341\M+18345\M+183671
 70
     1
 71
     1
 10
-6.350006103515625
 20
-6.349999904632567
 11
273.0499877929688
 21
209.5499939918518
 12
0.0
 22
0.0
 32
0.0
 14
26.66999878883364
 24
20.31999878883365
 34
0.0
 15
240.0299890995025
 25
182.8799890995025
 35
0.0
146
0.0
 13
0.0
 23
0.0
 33
0.0
 16
1.0
 26
0.0
 36
0.0
 17
0.0
 27
1.0
 37
0.0
 76
     0
330
50
331
6B
  0
LAYOUT
  5
56
102
{ACAD_XDICTIONARY
360
B5
102
}
102
{ACAD_REACTORS
330
1A
102
}
330
1A
100
AcDbPlotSettings
  1

  2
none_device
  4
Letter_(8.50_x_11.00_Inches)
  6

 40
6.349999904632567
 41
6.349999904632567
 42
6.350006103515625
 43
6.350006103515625
 44
215.8999938964844
 45
279.3999938964844
 46
0.0
 47
0.0
 48
0.0
 49
0.0
140
0.0
141
0.0
142
1.0
143
1.0
 70
   688
 72
     1
 73
     1
 74
     5
  7

 75
    16
147
1.0
148
0.0
149
0.0
100
AcDbLayout
  1
\M+1838C\M+18343\M+18341\M+18345\M+183672
 70
     1
 71
     2
 10
-6.350006103515625
 20
-6.349999904632567
 11
273.0499877929688
 21
209.5499939918518
 12
0.0
 22
0.0
 32
0.0
 14
26.66999878883363
 24
20.31999878883363
 34
0.0
 15
240.0299890995026
 25
182.8799890995025
 35
0.0
146
0.0
 13
0.0
 23
0.0
 33
0.0
 16
1.0
 26
0.0
 36
0.0
 17
0.0
 27
1.0
 37
0.0
 76
     0
330
55
331
71
  0
LAYOUT
  5
22
102
{ACAD_XDICTIONARY
360
56A4D
102
}
102
{ACAD_REACTORS
330
1A
102
}
330
1A
100
AcDbPlotSettings
  1

  2
none_device
  4
ANSI_A_(8.50_x_11.00_Inches)
  6

 40
6.349999904632567
 41
19.04999923706055
 42
6.350006103515625
 43
19.04998779296875
 44
215.8999938964844
 45
279.3999938964844
 46
0.0
 47
0.0
 48
0.0
 49
0.0
140
0.0
141
0.0
142
1.0
143
78.436453180766
 70
 11952
 72
     0
 73
     1
 74
     0
  7

 75
     0
147
0.0127491741332998
148
0.0
149
0.0
100
AcDbLayout
  1
Model
 70
     1
 71
     0
 10
0.0
 20
0.0
 11
12.0
 21
9.0
 12
0.0
 22
0.0
 32
0.0
 14
0.0
 24
0.0
 34
0.0
 15
0.0
 25
0.0
 35
0.0
146
0.0
 13
0.0
 23
0.0
 33
0.0
 16
1.0
 26
0.0
 36
0.0
 17
0.0
 27
1.0
 37
0.0
 76
     0
330
1F
  0
MLINESTYLE
  5
18
102
{ACAD_REACTORS
330
17
102
}
330
17
100
AcDbMlineStyle
  2
STANDARD
 70
     0
  3

 62
   256
 51
90.0
 52
90.0
 71
     2
 49
0.5
 62
   256
  6
BYLAYER
 49
-0.5
 62
   256
  6
BYLAYER
  0
ACDBPLACEHOLDER
  5
F
102
{ACAD_REACTORS
330
E
102
}
330
E
  0
TABLESTYLE
  5
A2
102
{ACAD_REACTORS
330
A1
102
}
330
A1
100
AcDbTableStyle
  3
Standard
 70
     0
 71
     0
 40
1.5
 41
1.5
280
     0
281
     0
  7
Standard
140
4.5
170
     2
 62
     0
 63
     7
283
     0
274
    -2
284
     1
 64
     0
275
    -2
285
     1
 65
     0
276
    -2
286
     1
 66
     0
277
    -2
287
     1
 67
     0
278
    -2
288
     1
 68
     0
279
    -2
289
     1
 69
     0
  7
Standard
140
6.0
170
     5
 62
     0
 63
     7
283
     0
274
    -2
284
     1
 64
     0
275
    -2
285
     1
 65
     0
276
    -2
286
     1
 66
     0
277
    -2
287
     1
 67
     0
278
    -2
288
     1
 68
     0
279
    -2
289
     1
 69
     0
  7
Standard
140
4.5
170
     5
 62
     0
 63
     7
283
     0
274
    -2
284
     1
 64
     0
275
    -2
285
     1
 65
     0
276
    -2
286
     1
 66
     0
277
    -2
287
     1
 67
     0
278
    -2
288
     1
 68
     0
279
    -2
289
     1
 69
     0
  0
DICTIONARYVAR
  5
B8
102
{ACAD_REACTORS
330
5E
102
}
330
5E
100
DictionaryVariables
280
     0
  1
STANDARD
  0
DICTIONARYVAR
  5
5F
102
{ACAD_REACTORS
330
5E
102
}
330
5E
100
DictionaryVariables
280
     0
  1
2
  0
DICTIONARYVAR
  5
63
102
{ACAD_REACTORS
330
5E
102
}
330
5E
100
DictionaryVariables
280
     0
  1
1
  0
DICTIONARYVAR
  5
31CE
102
{ACAD_REACTORS
330
5E
102
}
330
5E
100
DictionaryVariables
280
     0
  1

  0
XRECORD
  5
349EA
102
{ACAD_REACTORS
330
349E9
102
}
330
349E9
100
AcDbXrecord
280
     1
330
68C
330
0
330
0
330
0
330
0
330
0
330
0
330
0
330
0
330
0
330
0
330
0
330
0
330
0
330
0
330
0
330
0
330
0
330
0
330
0
330
0
330
0
330
0
330
0
330
0
330
0
330
0
330
0
330
0
330
0
330
0
330
0
330
0
330
0
330
0
330
0
330
0
330
0
330
0
330
0
330
0
330
0
330
0
330
0
330
0
330
0
330
0
330
0
330
0
330
0
330
0
330
0
330
0
330
0
330
0
330
0
330
0
330
0
330
0
330
0
330
0
330
0
330
0
330
0
330
0
330
0
330
0
330
0
330
0
330
0
330
0
330
0
330
0
330
0
330
0
330
0
330
0
330
0
330
0
330
0
330
0
330
0
330
0
330
0
330
0
330
0
330
0
330
0
330
0
330
0
330
0
330
0
330
0
330
0
330
0
330
0
330
0
330
0
330
0
330
0
330
0
330
0
330
0
330
0
330
0
330
0
330
0
330
0
330
0
330
0
  0
DICTIONARY
  5
B2
330
51
100
AcDbDictionary
280
     1
281
     1
  3
ACAD_XREC_ROUNDTRIP
360
56A4F
  3
ADSK_XREC_LAYOUTTHUMBNAIL
360
B3
  0
DICTIONARY
  5
B5
330
56
100
AcDbDictionary
280
     1
281
     1
  3
ACAD_XREC_ROUNDTRIP
360
56A50
  3
ADSK_XREC_LAYOUTTHUMBNAIL
360
B6
  0
DICTIONARY
  5
56A4D
330
22
100
AcDbDictionary
280
     1
281
     1
  3
ACAD_XREC_ROUNDTRIP
360
56A4E
  0
XRECORD
  5
56A4F
102
{ACAD_REACTORS
330
B2
102
}
330
B2
100
AcDbXrecord
280
     1
102
SHADEPLOT
 70
     0
102
SHADEPLOTRESLEVEL
 70
     2
102
SHADEPLOTCUSTOMDPI
 70
   300
  0
XRECORD
  5
B3
102
{ACAD_REACTORS
330
B2
102
}
330
B2
100
AcDbXrecord
280
     1
310
28000000B40000008B0000000100080000000000BC61000000000000000000000001000000000000FFFFFF0000000000FFFFFF000000000000000000000000000000000000000000000000000000000000000000330000006600000099000000CC000000FF00000000330000333300006633000099330000CC330000FF3300
310
0000660000336600006666000099660000CC660000FF66000000990000339900006699000099990000CC990000FF99000000CC000033CC000066CC000099CC0000CCCC0000FFCC000000FF000033FF000066FF000099FF0000CCFF0000FFFF000000003300330033006600330099003300CC003300FF003300003333003333
310
33006633330099333300CC333300FF33330000663300336633006666330099663300CC663300FF66330000993300339933006699330099993300CC993300FF99330000CC330033CC330066CC330099CC3300CCCC3300FFCC330000FF330033FF330066FF330099FF3300CCFF3300FFFF330000006600330066006600660099
310
006600CC006600FF00660000336600333366006633660099336600CC336600FF33660000666600336666006666660099666600CC666600FF66660000996600339966006699660099996600CC996600FF99660000CC660033CC660066CC660099CC6600CCCC6600FFCC660000FF660033FF660066FF660099FF6600CCFF6600
310
FFFF660000009900330099006600990099009900CC009900FF00990000339900333399006633990099339900CC339900FF33990000669900336699006666990099669900CC669900FF66990000999900339999006699990099999900CC999900FF99990000CC990033CC990066CC990099CC9900CCCC9900FFCC990000FF99
310
0033FF990066FF990099FF9900CCFF9900FFFF99000000CC003300CC006600CC009900CC00CC00CC00FF00CC000033CC003333CC006633CC009933CC00CC33CC00FF33CC000066CC003366CC006666CC009966CC00CC66CC00FF66CC000099CC003399CC006699CC009999CC00CC99CC00FF99CC0000CCCC0033CCCC0066CC
310
CC0099CCCC00CCCCCC00FFCCCC0000FFCC0033FFCC0066FFCC0099FFCC00CCFFCC00FFFFCC000000FF003300FF006600FF009900FF00CC00FF00FF00FF000033FF003333FF006633FF009933FF00CC33FF00FF33FF000066FF003366FF006666FF009966FF00CC66FF00FF66FF000099FF003399FF006699FF009999FF00CC
310
99FF00FF99FF0000CCFF0033CCFF0066CCFF0099CCFF00CCCCFF00FFCCFF0000FFFF0033FFFF0066FFFF0099FFFF00CCFFFF00FFFFFF00000000000D0D0D001A1A1A00282828003535350043434300505050005D5D5D006B6B6B00787878008686860093939300A1A1A100AEAEAE00BBBBBB00C9C9C900D6D6D600E4E4E400
310
F1F1F100FFFFFF0000000000000000000000000000000000000000000000000000000000000000000000000000000000E2E2E2E2E2E2E2E2E2E2E2E2E2E2E2E2E2E2E2E2E2E2E2E2E2E2E2E2E2E2E2E2E2E2E2E2E2E2E2E2E2E2E2E2E2E2E2E2E2E2E2E2E2E2E2E2E2E2E2E2E2E2E2E2E2E2E2E2E2E2E2E2E2E2E2E2E2E2E2
310
E2E2E2E2E2E2E2E2E2E2E2E2E2E2E2E2E2E2E2E2E2E2E2E2E2E2E2E2E2E2E2E2E2E2E2E2E2E2E2E2E2E2E2E2E2E2E2E2E2E2E2E2E2E2E2E2E2E2E2E2E2E2E2E2E2E2E2E2E2E2E2E2E2E2E2E2E2E2E2E2E2E2E2E2E2E2E2E2E2E2E2E2E2E2E2E2E2E2E2E2E2E2F5F5F5F5F5F5F5F5F5F5F5F5F5F5F5F5F5F5F5F5F5F5F5F5F5
310
F5F5F5F5F5F5F5F5F5F5F5F5F5F5F5F5F5F5F5F5F5F5F5F5F5F5F5F5F5F5F5F5F5F5F5F5F5F5F5F5F5F5F5F5F5F5F5F5F5F5F5F5F5F5F5F5F5F5F5F5F5F5F5F5F5F5F5F5F5F5F5F5F5F5F5F5F5F5F5F5F5F5F5F5F5F5F5F5F5F5F5F5F5F5F5F5F5F5F5F5F5F5F5F5F5F5F5F5F5F5F5F5F5F5F5F5F5F5F5F5F5F5F5F5F5F5F5
310
F5F5F5F5F5F5F5F5F5F5F5F5F5F5F5F5F5F5F5F5F5F5F5F5F5F5E2E2F5F5F5F5F5F5F5F5F5F5F5F5F5F5F5F5F5F5F5F5F5F5F5F5F5F5F5F5F5F5F5F5F5F5F5F5F5F5F5F5F5F5F5F5F5F5F5F5F5F5F5F5F5F5F5F5F5F5F5F5F5F5F5F5F5F5F5F5F5F5F5F5F5F5F5F5F5F5F5F5F5F5F5F5F5F5F5F5F5F5F5F5F5F5F5F5F5F5F5
310
F5F5F5F5F5F5F5F5F5F5F5F5F5F5F5F5F5F5F5F5F5F5F5F5F5F5F5F5F5F5F5F5F5F5F5F5F5F5F5F5F5F5F5F5F5F5F5F5F5F5F5F5F5F5F5F5F5F5F5F5F5F5F5F5F5F5F5F5F5F5F5F5F5F5F5F5F5F5F5E2E2F5F5F5F5F5F5F5F5F5F5F5F5F5F5F5F5F5F5F5F5F5F5F5F5F5F5F5F5F5F5F5F5F5F5F5F5F5F5F5F5F5F5F5F5F5F5
310
F5F5F5F5F5F5F5F5F5F5F5F5F5F5F5F5F5F5F5F5F5F5F5F5F5F5F5F5F5F5F5F5F5F5F5F5F5F5F5F5F5F5F5F5F5F5F5F5F5F5F5F5F5F5F5F5F5F5F5F5F5F5F5F5F5F5F5F5F5F5F5F5F5F5F5F5F5F5F5F5F5F5F5F5F5F5F5F5F5F5F5F5F5F5F5F5F5F5F5F5F5F5F5F5F5F5F5F5F5F5F5F5F5F5F5F5F5F5F5F5F5F5F5F5F5F5F5
310
F5F5F5F5F5E2E2F5F5F5F5E2E2E2E2E2E2E2E2F5F5F5F5F5F5F5F5F5E2E2E2E2E2E2E2E2E2E2E2E2E2E2E2F5F5F5F5F5F5F5F5F5E2E2E2E2E2E2E2E2E2E2E2E2E2E2E2E2F5F5F5F5F5F5F5F5E2E2E2E2E2E2E2E2E2E2E2E2E2E2E2E2F5F5F5F5F5F5F5F5E2E2E2E2E2E2E2E2E2E2E2E2E2E2E2E2F5F5F5F5F5F5F5F5E2E2E2
310
E2E2E2E2E2E2E2E2E2E2E2E2E2F5F5F5F5F5F5F5F5F5E2E2E2E2E2E2E2E2E2E2E2E2E2E2E2F5F5F5F5F5F5F5F5F5E2E2E2E2E2E2E2E2F5F5F5F5E2E2F5F5F5F5E2F5F5F5F5F5F5F5F5F5F5F5F5F5F5F5F5F5F5F5F5F5F5F5F5F5F5F5F5F5F5F5F5F5F5F5F5F5F5F5F5F5F5F5F5F5F5F5F5F5F5F5F5F5F5F5F5F5F5F5F5F5F5
310
F5F5F5F5F5F5F5F5F5F5F5F5F5F5F5F5F5F5F5F5F5F5F5F5F5F5F5F5F5F5F5F5F5F5F5F5F5F5F5F5F5F5F5F5F5F5F5F5F5F5F5F5F5F5F5F5F5F5F5F5F5F5F5F5F5F5F5F5F5F5F5F5F5F5F5F5F5F5F5F5F5F5F5F5F5F5F5F5F5F5F5F5F5F5F5F5F5F5F5F5F5F5F5F5F5F5E2F5F5F5F5E2E2F5F5F5F5E2F5F5F5F5F5F5F5F5F5
310
F5F5F5F5F5F5F5F5F5F5F5F5F5F5F5F5F5F5F5F5F5F5F5F5F5F5F5F5F5F5F5F5F5F5F5F5F5F5F5F5F5F5F5F5F5F5F5F5F5F5F5F5F5F5F5F5F5F5F5F5F5F5F5F5F5F5F5F5F5F5F5F5F5F5F5F5F5F5F5F5F5F5F5F5F5F5F5F5F5F5F5F5F5F5F5F5F5F5F5F5F5F5F5F5F5F5F5F5F5F5F5F5F5F5F5F5F5F5F5F5F5F5F5F5F5F5F5
310
F5F5F5F5F5F5F5F5F5F5F5F5F5F5F5F5F5F5F5F5F5F5F5F5F5F5F5F5F5F5F5F5E2F5F5F5F5E2E2F5F5F5F5E2F5F5F5F5F5F5F5F5F5F5F5F5F5F5F5F5F5F5F5F5F5F5F5F5F5F5F5F5F5F5F5F5F5F5F5F5F5F5F5F5F5F5F5F5F5F5F5F5F5F5F5F5F5F5F5F5F5F5F5F5F5F5F5F5F5F5F5F5F5F5F5F5F5F5F5F5F5F5F5F5F5F5F5
310
F5F5F5F5F5F5F5F5F5F5F5F5F5F5F5F5F5F5F5F5F5F5F5F5F5F5F5F5F5F5F5F5F5F5F5F5F5F5F5F5F5F5F5F5F5F5F5F5F5F5F5F5F5F5F5F5F5F5F5F5F5F5F5F5F5F5F5F5F5F5F5F5F5F5F5F5F5F5F5F5F5F5F5F5F5E2F5F5F5F5E2E2F5F5F5F5E2F5F5F5F5F5F5F5F5F5F5F5F5F5F5F5F5F5F5F5F5F5F5F5F5F5F5F5F5F5F5
310
F5F5F5F5F5F5F5F5F5F5F5F5F5F5F5F5F5F5F5F5F5F5F5F5F5F5F5F5F5F5F5F5F5F5F5F5F5F5F5F5F5F5F5F5F5F5F5F5F5F5F5F5F5F5F5F5F5F5F5F5F5F5F5F5F5F5F5F5F5F5F5F5F5F5F5F5F5F5F5F5F5F5F5F5F5F5F5F5F5F5F5F5F5F5F5F5F5F5F5F5F5F5F5F5F5F5F5F5F5F5F5F5F5F5F5F5F5F5F5F5F5F5F5F5F5F5F5
310
F5F5F5F5F5F5F5F5F5F5F5E2F5F5F5F5E2E2F5F5F5F5E2F5F5F5F5F5F5F5F5F5F5F5F5F5F5F5F5F5F5F5F5F5F5F5F5F5F5F5F5F5F5F5F5F5F5F5F5F5F5F5F5F5F5F5F5F5F5F5F5F5F5F5F5F5F5F5F5F5F5F5F5F5F5F5F5F5F5F5F5F5F5F5F5F5F5F5F5F5F5F5F5F5F5F5F5F5F5F5F5F5F5F5F5F5F5F5F5F5F5F5F5F5F5F5F5
310
F5F5F5F5F5F5F5F5F5F5F5F5F5F5F5F5F5F5F5F5F5F5F5F5F5F5F5F5F5F5F5F5F5F5F5F5F5F5F5F5F5F5F5F5F5F5F5F5F5F5F5F5F5F5F5F5F5F5F5F5F5F5F5F5E2F5F5F5F5E2E2F5F5F5F5E2F5F5F5F5F5F5F5F5F5F5F5F5F5F5F5F5F5F5F5F5F5F5F5F5F5F5F5F5F5F5F5F5F5F5F5F5F5F5F5F5F5F5F5F5F5F5F5F5F5F5F5
310
F5F5F5F5F5F5F5F5F5F5F5F5F5F5F5F5F5F5F5F5F5F5F5F5F5F5F5F5F5F5F5F5F5F5F5F5F5F5F5F5F5F5F5F5F5F5F5F5F5F5F5F5F5F5F5F5F5F5F5F5F5F5F5F5F5F5F5F5F5F5F5F5F5F5F5F5F5F5F5F5F5F5F5F5F5F5F5F5F5F5F5F5F5F5F5F5F5F5F5F5F5F5F5F5F5F5F5F5F5F5F5F5F5F5F5F5F5E2F5F5F5F5E2E2F5F5F5
310
F5E2F5F5F5F5F5F5F5F5F5F5F5F5F5F5F5F5F5F5F5F5F5F5F5F5F5F5F5F5F5F5F5F5F5F5F5F5F5F5F5F5F5F5F5F5F5F5F5F5F5F5F5F5F5F5F5F5F5F5F5F5F5F5F5F5F5F5F5F5F5F5F5F5F5F5F5F5F5F5F5F5F5F5F5F5F5F5F5F5F5F5F5F5F5F5F5F5F5F5F5F5F5F5F5F5F5F5F5F5F5F5F5F5F5F5F5F5F5F5F5F5F5F5F5F5F5
310
F5F5F5F5F5F5F5F5F5F5F5F5F5F5F5F5F5F5F5F5F5F5F5F5F5F5F5F5F5F5F5F5F5F5F5F5F5F5F5F5F5F5F5E2F5F5F5F5E2E2F5F5F5F5E2F5F5F5F5F5F5F5F5F5F5F5F5F5F5F5F5F5F5F5F5F5F5F5F5F5F5F5F5F5F5F5F5F5F5F5F5F5F5F5F5F5F5F5F5F5F5F5F5F5F5F5F5F5F5F5F5F5F5F5F5F5F5F5F5F5F5F5F5F5F5F5F5
310
F5F5F5F5F5F5F5F5F5F5F5F5F5F5F5F5F5F5F5F5F5F5F5F5F5F5F5F5F5F5F5F5F5F5F5F5F5F5F5F5F5F5F5F5F5F5F5F5F5F5F5F5F5F5F5F5F5F5F5F5F5F5F5F5F5F5F5F5F5F5F5F5F5F5F5F5F5F5F5F5F5F5F5F5F5F5F5F5F5F5F5F5F5F5F5F5E2F5F5F5F5E2E2F5F5F5F5F5F5F5F5F5F5F5F5F5F5F5F5F5F5F5F5F5F5F5F5
310
F5F5F5F5F5F5F5F5F5F5F5F5F5F5F5F5F5F5F5F5F5F5F5F5F5F5F5F5F5F5F5F5F5F5F5F5F5F5F5F5F5F5F5F5F5F5F5F5F5F5F5F5F5F5F5F5F5F5F5F5F5F5F5F5F5F5F5F5F5F5F5F5F5F5F5F5F5F5F5F5F5F5F5F5F5F5F5F5F5F5F5F5F5F5F5F5F5F5F5F5F5F5F5F5F5F5F5F5F5F5F5F5F5F5F5F5F5F5F5F5F5F5F5F5F5F5F5
310
F5F5F5F5F5F5F5F5F5F5F5F5F5F5F5F5F5F5F5F5F5F5F5F5F5F5F5E2E2F5F5F5F5F5F5F5F5F5F5F5F5F5F5F5F5F5F5F5F5F5F5F5F5F5F5F5F5F5F5F5F5F5F5F5F5F5F5F5F5F5F5F5F5F5F5F5F5F5F5F5F5F5F5F5F5F5F5F5F5F5F5F5F5F5F5F5F5F5F5F5F5F5F5F5F5F5F5F5F5F5F5F5F5F5F5F5F5F5F5F5F5F5F5F5F5F5F5
310
F5F5F5F5F5F5F5F5F5F5F5F5F5F5F5F5F5F5F5F5F5F5F5F5F5F5F5F5F5F5F5F5F5F5F5F5F5F5F5F5F5F5F5F5F5F5F5F5F5F5F5F5F5F5F5F5F5F5F5F5F5F5F5F5F5F5F5F5F5F5F5F5F5F5F5F5F5F5F5F5E2E2F5F5F5F5F5F5F5F5F5F5F5F5F5F5F5F5F5F5F5F5F5F5F5F5F5F5F5F5F5F5F5F5F5F5F5F5F5F5F5F5F5F5F5F5F5
310
F5F5F5F5F5F5F5F5F5F5F5F5F5F5F5F5F5F5F5F5F5F5F5F5F5F5F5F5F5F5F5F5F5F5F5F5F5F5F5F5F5F5F5F5F5F5F5F5F5F5F5F5F5F5F5F5F5F5F5F5F5F5F5F5F5F5F5F5F5F5F5F5F5F5F5F5F5F5F5F5F5F5F5F5F5F5F5F5F5F5F5F5F5F5F5F5F5F5F5F5F5F5F5F5F5F5F5F5F5F5F5F5F5F5F5F5F5F5F5F5F5F5F5F5F5F5F5
310
F5F5F5F5F5F5E2E2F5F5F5F5F5F5F5F5F5F5F5F5F5F5F5F5F5F5F5F5F5F5F5F5F5F5F5F5F5F5F5F5F5F5F5F5F5F5F5F5F5F5F5F5F5F5F5F5F5F5F5F5F5F5F5F5F5F5F5F5F5F5F5F5F5F5F5F5F5F5F5F5F5F5F5F5F5F5F5F5F5F5F5F5F5F5F5F5F5F5F5F5F5F5F5F5F5F5F5F5F5F5F5F5F5F5F5F5F5F5F5F5F5F5F5F5F5F5F5
310
F5F5F5F5F5F5F5F5F5F5F5F5F5F5F5F5F5F5F5F5F5F5F5F5F5F5F5F5F5F5F5F5F5F5F5F5F5F5F5F5F5F5F5F5F5F5F5F5F5F5F5F5F5F5F5F5F5F5F5E2E2F5F5F5F5F5F5F5F5F5F5F5F5F5F5F5F5F5F5F5F5F5E2E2E2E2E2E2E2E2E2E2E2E2E2E2E2E2E2E2E2E2E2E2E2E2E2E2E2E2E2E2E2E2E2E2E2E2E2E2E2E2E2E2E2E2E2
310
E2E2E2E2E2E2E2E2E2E2E2E2E2E2E2E2E2E2E2E2E2E2E2E2E2E2E2E2E2E2E2E2E2E2E2E2E2E2E2E2E2E2E2E2E2E2E2E2E2E2E2E2E2E2E2E2E2E2E2E2E2E2E2E2E2E2E2E2E2E2E2E2E2E2E2E2E2E2E2E2E2E2E2E2E2E2E2E2E2E2E2F5F5F5F5F5F5F5F5F5F5F5F5F5F5F5F5F5F5F5F5F5E2E2F5F5F5F5F5F5F5F5F5F5F5F5F5
310
F5F5F5F5F5F5F5F5E22D2D2D2D2D2D2D2D2D2D2D2DF5F5F5F5F5F5F5F5F5F5F5F5F5F5F5E2F5F5F5F5F5F5F5F5F5F5F5F5F5F5F5F5F5F5F5F5F5F5F5F5F5F5F5F5F5F5F5F5F5F5F5F5F5F5F5F5F5F5F5F5F5F5F5F5F5F5F5F5F5F5F5F5F5F5F5F5F5F5F5F5F5F5F5F5F5F5F5F5F5F5F5F5F5F5F5F5F5F5F5F5F5F5F5F5F5F5
310
F5F5F5F5F5F5F5F5F5F5F5F5F5F5F5F5E2F5F5F5F5F5F5F5F5F5F5F5F5F5F5F5F5F5F5F5F5F5E2E2F5F5F5F5F5F5F5F5F5F5F5F5F5F5F5F5F5F5F5F5F5E22D2D2DF5F5E2F5F5F5F5F52DF5F5F5F5F5F5F5F5F5F5F5F5F5F5F5E2F5F5F5F5F5F5F5F5F5F5F5F5F5F5F5F5F5F5F5F5F5F5F5F5F5F5F5F5F5F5F5F5F5F5F5F5F5
310
F5F5F5F5F5F5F5F5F5F5F5F5F5F5F5F5F5F5F5F5F5F5F5F5F5F5F5F5F5F5F5F5F5F5F5F5F5F5F5F5F5F5F5F5F5F5F5F5F5F5F5F5F5F5F5F5F5F5F5F5F5F5F5F5F5F5F5F5F5E2F5F5F5F5F5F5F5F5F5F5F5F5F5F5F5F5F5F5F5F5F5E2E2F5F5F5F5F5F5F5F5F5F5F5F5F5F5F5F5F5F5F5F5F5E2DCF52DF5F5E2F5F5F5F5F52D
310
F5F5F5F5F5F5F5F5F5F5F5F5F5F5F5E2F5F5F5F5F5F5F5F5F5F5F5F5F5F5F5F5F5F5F5F5F5F5F5F5F5F5F5F5F5F5F5F5F5F5F5F5F5F5F5F5F5F5F5F5F5F5F5F5F5F5F5F5F5F5F5F5F5F5F5F5F5F5F5F5F5F5F5F5F5F5F5F5F5F5F5F5F5F5F5F5F5F5F5F5F5F5F5F5F5F5F5F5F5F5F5F5F5F5F5F5F5F5F5F5F5F5E2F5F5F5F5
310
F5F5F5F5F5F5F5F5F5F5F5F5F5F5F5F5F5E2E2F5F5F5F5F5F5F5F5F5F5F5F5F5F5F5F5F5F5F5F5F5E2BEF52D2D2D2D2D2D2D2DE2E2E2E2E2E2E2E2E2E2E2E2E2E2E2E2E2E2F5F5F5F5F5F5F5F5F5F5F5F5F5F5F5F5F5F5F5F5F5F5F5F5F5F5F5F5F5F5F5F5F5F5F5F5F5F5F5F5F5F5F5F5F5F5F5F5F5F5F5F5F5F5F5F5F5F5
310
F5F5F5F5F5F5F5F5F5F5F5F5F5F5F5F5F5F5F5F5F5F5F5F5F5F5F5F5F5F5F5F5F5F5F5F5F5F5F5F5F5F5F5F5F5F5F5F5E2F5F5F5F5F5F5F5F5F5F5F5F5F5F5F5F5F5F5F5F5F5E2E2F5F5F5F5E2F5F5F5F5F5F5F5F5F5F5F5F5F5F5F5F5E2DCF5F5F5F5E2F5F5F5F5F5E2F5F5F5F5F5F5F5F5F5F5F5F5F5F5F5F5F5F5F5F5F5
310
F5F5F5F5F5F5F5F5F5F5F5F5F5F5F5F5F5F5F5F5F5F5F5F5F5F5F5F5F5F5F5F5F5F5F5F5F5F5F5F5F5F5F5F5F5F5F5F5F5F5F5F5F5F5F5F5F5F5F5F5F5F5F5F5F5F5F5F5F5F5F5F5F5F5F5F5F5F5F5F5F5F5F5F5F5F5F5F5F5F5F5F5F5F5F5F5F5F5F5F5F5E2F5F5F5F5F5F5F5F5F5F5F5F5F5F5F5F5E2F5F5F5F5E2E2F5F5
310
F5F5E2F5F5F5F5F5F5F5F5F5F5F5F5F5F5F5F5E2F5F5F5F5F5E2F5F5F5F5F5E2F5F5F5F5F5F5F5F5F5F5F5F5F5F5F5F5F5F5F5F5F5F5F5F5F5F5F5F5F5F5F5F5F5F5F5F5F5F5F5F5F5F5F5F5F5F5F5F5F5F5F5F5F5F5F5F5F5F5F5F5F5F5F5F5F5F5F5F5F5F5F5F5F5F5F5F5F5F5F5F5F5F5F5F5F5F5F5F5F5F5F5F5F5F5F5
310
F5F5F5F5F5F5F5F5F5F5F5F5F5F5F5F5F5F5F5F5F5F5F5F5F5F5F5E2F5F5F5F5F5F5F5F5F5F5F5F5F5F5F5F5E2F5F5F5F5E2E2F5F5F5F5E2F5F5F5F5F5F5F5F5F5F5F5F5F5F5F5F5E2F5F5F5F5F5E2F5F5F5F5F5E2F5F5F5F5F5F5F5F5F5F5F5F5F5F5F5F5F5F5F5F5F5F5F5F5F5F5F5F5F5F5F5F5F5F5F5F5F5F5F5F5F5F5
310
F5F5F5F5F5F5F5F5F5F5F5F5F5F5F5F5F5F5F5F5F5F5F5F5F5F5F5F5F5F5F5F5F5F5F5F5F5F5F5F5F5F5F5F5F5F5F5F5F5F5F5F5F5F5F5F5F5F5F5F5F5F5F5F5F5F5F5F5F5F5F5F5F5F5F5F5F5F5F5F5E2F5F5F5F5F5F5F5F5F5F5F5F5F5F5F5F5E2F5F5F5F5E2E2F5F5F5F5E2F5F5F5F5F5F5F5F5F5F5F5F5F5F5F5F5E2F5
310
F5F5F5F5E2F5F5F5F5F5E2F5F5F5F5F5F5F5F5F5F5F5F5F5F5F5F5F5F5F5F5F5F5F5F5F5F5F5F5F5F5F5F5F5F5F5F5F5F5F5F5F5F5F5F5F5F5F5F5F5F5F5F5F5F5F5F5F5F5F5F5F5F5F5F5F5F5F5F5F5F5F5F5F5F5F5F5F5F5F5F5F5F5F5F5F5F5F5F5F5F5F5F5F5F5F5F5F5F5F5F5F5F5F5F5F5F5F5F5F5F5F5F5F5F5F5F5
310
F5F5F5F5F5F5E2F5F5F5F5F5F5F5F5F5F5F5F5F5F5F5F5E2F5F5F5F5E2E2F5F5F5F5E2F5F5F5F5F5F5F5F5F5F5F5F5F5F5F5F5E2E2E2E2E2E2E2F5F5F5F5F5E2F5F5F5F5F5F5F5F5F5F5F5F5F5F5F5F5F5F5F5F5F5F5F5F5F5F5F5F5F5F5F5F5F5F5F5F5F5F5F5F5F5F5F5F5F5F5F5F5F5F5F5F5F5F5F5F5F5F5F5F5F5F5F5
310
F5F5F5F5F5F5F5F5F5F5F5F5F5F5F5F5F5F5F5F5F5F5F5F5F5F5F5F5F5F5F5F5F5F5F5F5F5F5F5F5F5F5F5F5F5F5F5F5F5F5F5F5F5F5F5F5F5F5F5E2F5F5F5F5F5F5F5F5F5F5F5F5F5F5F5F5E2F5F5F5F5E2E2F5F5F5F5E2F5F5F5F5F5F5F5F5F5F5F5F5F5F5F5F5E2E2E2E2F5E2E2F5F5F5F5F5E2F5F5F5F5F5F5F5F5F5F5
310
F5F5F5F5F5F5F5F5F5F5F5F5F5F5F5F5F5F5F5F5F5F5F5F5F5F5F5F5F5F5F5F5F5F5F5F5F5F5F5F5F5F5F5F5F5F5F5F5F5F5F5F5F5F5F5F5F5F5F5F5F5F5F5F5F5F5F5F5F5F5F5F5F5F5F5F5F5F5F5F5F5F5F5F5F5F5F5F5F5F5F5F5F5F5F5F5F5F5F5F5F5F5F5F5F5F5F5F5F5F5F5F5E2F5F5F5F5F5F5F5F5F5F5F5F5F5F5
310
F5F5E2F5F5F5F5E2E2F5F5F5F5E2F5F5F5F5F5F5F5F5F5F5F5F5F5F5F5F5E2E2E2E2F5F5F5F5F5F5F5F5E2F5F5F5F5F5F5F5F5F5F5F5F5F5F5F5F5F5F5F5F5F5F5F5F5F5F5F5F5F5F5F5F5F5F5F5F5F5F5F5F5F5F5F5F5F5F5F5F5F5F5F5F5F5F5F5F5F5F5F5F5F5F5F5F5F5F5F5F5F5F5F5F5F5F5F5F5F5F5F5F5F5F5F5F5
310
F5F5F5F5F5F5F5F5F5F5F5F5F5F5F5F5F5F5F5F5F5F5F5F5F5F5F5F5F5F5F5F5F5F5F5F5F5F5E2F5F5F5F5F5F5F5F5F5F5F5F5F5F5F5F5E2F5F5F5F5E2E2F5F5F5F5E2F5F5F5F5F5F5F5F5F5F5F5F5F5F5F5F5E2F5F5F5F5F5F5F5F5F5F5F5E2F5F5F5F5F5F5F5F5F5F5F5F5F5F5F5F5F5F5F5F5F5F5F5F5F5F5F5F5F5F5F5
310
F5F5F5F5F5F5F5F5F5F5F5F5F5F5F5F5F5F5F5F5F5F5F5F5F5F5F5F5F5F5F5F5F5F5F5F5F5F5F5F5F5F5F5F5F5F5F5F5F5F5F5F5F5F5F5F5F5F5F5F5F5F5F5F5F5F5F5F5F5F5F5F5F5F5F5F5F5F5F5F5F5F5F5F5F5F5F5F5F5F5F5E2F5F5F5F5F5F5F5F5F5F5F5F5F5F5F5F5E2F5F5F5F5E2E2F5F5F5F5E2F5F5F5F5F5F5F5
310
F5F5F5F5F5F5F5F5F5E2E2E2E2E2E2E2E2E2E2E2E2E2F5F5F5F5F5F5F5F5F5F5F5F5F5F5F5F5F5F5F5F5F5F5F5F5F5F5F5F5F5F5F5F5F5F5F5F5F5F5F5F5F5F5F5F5F5F5F5F5F5F5F5F5F5F5F5F5F5F5F5F5F5F5F5F5F5F5F5F5F5F5F5F5F5F5F5F5F5F5F5F5F5F5F5F5F5F5F5F5F5F5F5F5F5F5F5F5F5F5F5F5F5F5F5F5F5
310
F5F5F5F5F5F5F5F5F5F5F5F5F5F5F5F5F5E2F5F5F5F5F5F5F5F5F5F5F5F5F5F5F5F5E2F5F5F5F5E2E2F5F5F5F5E2F5F5F5F5F5F5F5F5F5F5F5F5F5F5F5F5E2E2E2F5F5F5F5F5F5F5F5F5F5F5F5F5F5F5F5F5F5F5F5F5F5F5F5F5F5F5F5F5F5F5F5F5F5F5F5F5F5F5F5F5F5F5F5F5F5F5F5F5F5F5F5F5F5F5F5F5F5F5F5F5F5
310
F5F5F5F5F5F5F5F5F5F5F5F5F5F5F5F5F5F5F5F5F5F5F5F5F5F5F5F5F5F5F5F5F5F5F5F5F5F5F5F5F5F5F5F5F5F5F5F5F5F5F5F5F5F5F5F5F5F5F5F5F5F5F5F5F5F5F5F5F5F5E2F5F5F5F5F5F5F5F5F5F5F5F5F5F5F5F5E2F5F5F5F5E2E2F5F5F5F5E2F5F5F5F5F5F5F5F5F5F5F5F5F5F5F5F5E2E2E2F5F5F5F5F5F5F5F5F5
310
F5F5F5F5F5F5F5F5F5F5F5F5F5F5F5F5F5F5F5F5F5F5F5F5F5F5F5F5F5F5F5F5F5F5F5F5F5F5F5F5F5F5F5F5F5F5F5F5F5F5F5F5F5F5F5F5F5F5F5F5F5F5F5F5F5F5F5F5F5F5F5F5F5F5F5F5F5F5F5F5F5F5F5F5F5F5F5F5F5F5F5F5F5F5F5F5F5F5F5F5F5F5F5F5F5F5F5F5F5F5F5F5F5F5F5F5F5F5F5F5F5F5F5E2F5F5F5
310
F5F5F5F5F5F5F5F5F5F5F5F5F5E2F5F5F5F5E2E2F5F5F5F5E2F5F5F5F5F5F5F5F5F5F5F5F5F5F5F5F5E2F5F5F5F5F5F5F5F5F5F5F5F5F5F5F5F5F5F5F5F5F5F5F5F5F5F5F5F5F5F5F5F5F5F5F5F5F5F5F5F5F5F5F5F5F5F5F5F5F5F5F5F5F5F5F5F5F5F5F5F5F5F5F5F5F5F5F5F5F5F5F5F5F5F5F5F5F5F5F5F5F5F5F5F5F5
310
F5F5F5F5F5F5F5F5F5F5F5F5F5F5F5F5F5F5F5F5F5F5F5F5F5F5F5F5F5F5F5F5F5F5F5F5F5F5F5F5F5F5F5F5F5F5F5F5F5E2F5F5F5F5F5F5F5F5F5F5F5F5F5F5F5F5E2F5F5F5F5E2E2F5F5F5F5E2F5F5F5F5F5F5F5F5F5F5F5F5F5F5F5F5E2F5F5F5F5F5F5F5F5F5F5F5F5F5F5F5F5F5F5F5F5F5F5F5F5F5F5F5F5F5F5F5F5
310
F5F5F5F5F5F5F5F5F5F5F5F5F5F5F5F5F5F5F5F5F5F5F5F5F5F5F5F5F5F5F5F5F5F5F5F5F5F5F5F5F5F5F5F5F5F5F5F5F5F5F5F5F5F5F5F5F5F5F5F5F5F5F5F5F5F5F5F5F5F5F5F5F5F5F5F5F5F5F5F5F5F5F5F5F5F5F5F5F5F5F5F5F5F5F5F5F5F5F5F5F5F5E2F5F5F5F5F5F5F5F5F5F5F5F5F5F5F5F5E2F5F5F5F5E2E2F5
310
F5F5F5E2F5F5F5F5F5F5F5F5F5F5F5F5F5F5F5F5E20F0F0F0F0F0F0F0F0F0F0FF5F5F5F5F5F5F5F5F5F5F5F5F5F5F5F5F5F5F5F5F5F5F5F5F5F5F5F5F5F5F5F5F5F5F5F5F5F5F5F5F5F5F5F5F5F5F5F5F5F5F5F5F5F5F5F5F5F5F5F5F5F5F5F5F5F5F5F5F5F5F5F5F5F5F5F5F5F5F5F5F5F5F5F5F5F5F5F5F5F5F5F5F5F5F5
310
F5F5F5F5F5F5F5F5F5F5F5F5F5F5F5F5F5F5F5F5F5F5F5F5F5F5F5F5E2F5F5F5F5F5F5F5F5F5F5F5F5F5F5F5F5E2F5F5F5F5E2E2F5F5F5F5E2F5F5F5F5F5F5F5F5F5F5F5F5F5F5F5F5E20F0F0F0F0F0F0F0F0F0F0FF5F5F5F5F5F5F5F5F5F5F5F5F5F5F5F5F5F5F5F5F5F5F5F5F5F5F5F5F5F5F5F5F5F5F5F5F5F5F5F5F5F5
310
F5F5F5F5F5F5F5F5F5F5F5F5F5F5F5F5F5F5F5F5F5F5F5F5F5F5F5F5F5F5F5F5F5F5F5F5F5F5F5F5F5F5F5F5F5F5F5F5F5F5F5F5F5F5F5F5F5F5F5F5F5F5F5F5F5F5F5F5F5F5F5F5F5F5F5F5F5F5F5F5F5E2F5F5F5F5F5F5F5F5F5F5F5F5F5F5F5F5E2F5F5F5F5E2E2F5F5F5F5E2F5F5F5F5F5F5F5F5F5F5F5F5F5F5F5F5E2
310
0F0F0F0F0F0F0F0F0F0FF5F5F5F5F5F5F5F5F5F5F5F5F5F5F5F5F5F5F5F5F5F5F5F5F5F5F5F5F5F5F5F5F5F5F5F5F5F5F5F5F5F5F5F5F5F5F5F5F5F5F5F5F5F5F5F5F5F5F5F5F5F5F5F5F5F5F5F5F5F5F5F5F5F5F5F5F5F5F5F5F5F5F5F5F5F5F5F5F5F5F5F5F5F5F5F5F5F5F5F5F5F5F5F5F5F5F5F5F5F5F5F5F5F5F5F5F5
310
F5F5F5F5F5F5F5E2F5F5F5F5F5F5F5F5F5F5F5F5F5F5F5F5E2F5F5F5F5E2E2F5F5F5F5E2F5F5F5F5F5F5F5F5F5F5F5F5F5F5F5F5E2F5F5F5F5F5F5F5F5F5F5F5F5F5F5F5F5F5F5F5F5F5F5F5F5F5F5F5F5F5F5F5F5F5F5F5F5F5F5F5F5F5F5F5F5F5F5F5F5F5F5F5F5F5F5F5F5F5F5F5F5F5F5F5F5F5F5F5F5F5F5F5F5F5F5
310
F5F5F5F5F5F5F5F5F5F5F5F5F5F5F5F5F5F5F5F5F5F5F5F5F5F5F5F5F5F5F5F5F5F5F5F5F5F5F5F5F5F5F5F5F5F5F5F5F5F5F5F5F5F5F5F5F5F5F5F5E2F5F5F5F5F5F5F5F5F5F5F5F5F5F5F5F5E2F5F5F5F5E2E2F5F5F5F5F5F5F5F5F5F5F5F5F5F5F5F5F5F5F5F5F5E2F5F5F5F5F5F5F5F5F5F5F5F5F5F5F5F5F5F5F5F5F5
310
F5F5F5F5F5F5F5F5F5F5F5F5F5F5F5F5F5F5F5F5F5F5F5F5F5F5F5F5F5F5F5F5F5F5F5F5F5F5F5F5F5F5F5F5F5F5F5F5F5F5F5F5F5F5F5F5F5F5F5F5F5F5F5F5F5F5F5F5F5F5F5F5F5F5F5F5F5F5F5F5F5F5F5F5F5F5F5F5F5F5F5F5F5F5F5F5F5F5F5F5F5F5F5F5F5F5F5F5F5F5F5F5F5E2F5F5F5F5F5F5F5F5F5F5F5F5F5
310
F5F5F5F5F5F5F5F5E2E2F5F5F5F5F5F5F5F5F5F5F5F5F5F5F5F5F5F5F5F5F5E2F5F5F5F5F5F5F5F5F5F5F5F5F5F5F5F5F5F5F5F5F5F5F5F5F5F5F5F5F5F5F5F5F5F5F5F5F5F5F5F5F5F5F5F5F5F5F5F5F5F5F5F5F5F5F5F5F5F5F5F5F5F5F5F5F5F5F5F5F5F5F5F5F5F5F5F5F5F5F5F5F5F5F5F5F5F5F5F5F5F5F5F5F5F5F5
310
F5F5F5F5F5F5F5F5F5F5F5F5F5F5F5F5F5F5F5F5F5F5F5F5F5F5F5F5F5F5F5F5F5F5F5F5F5F5F5E2F5F5F5F5F5F5F5F5F5F5F5F5F5F5F5F5F5F5F5F5F5E2E2F5F5F5F5F5F5F5F5F5F5F5F5F5F5F5F5F5F5F5F5F5E2F5F5F5F5F5F5F5F5F5F5F5F5F5F5F5F5F5F5F5F5F5F5F5F5F5F5F5F5F5F5F5F5F5F5F5F5F5F5F5F5F5F5
310
F5F5F5F5F5F5F5F5F5F5F5F5F5F5F5F5F5F5F5F5F5F5F5F5F5F5F5F5F5F5F5F5F5F5F5F5F5F5F5F5F5F5F5F5F5F5F5F5F5F5F5F5F5F5F5F5F5F5F5F5F5F5F5F5F5F5F5F5F5F5F5F5F5F5F5F5F5F5F5F5F5F5F5F5F5F5F5F5F5F5F5F5E2F5F5F5F5F5F5F5F5F5F5F5F5F5F5F5F5F5F5F5F5F5E2E2F5F5F5F5F5F5F5F5F5F5F5
310
F5F5F5F5F5F5F5F5F5F5E2F5F5F5F5F5F5F5F5F5F5F5F5F5F5F5F5F5F5F5F5F5F5F5F5F5F5F5F5F5F5F5F5F5F5F5F5F5F5F5F5F5F5F5F5F5F5F5F5F5F5F5F5F5F5F5F5F5F5F5F5F5F5F5F5F5F5F5F5F5F5F5F5F5F5F5F5F5F5F5F5F5F5F5F5F5F5F5F5F5F5F5F5F5F5F5F5F5F5F5F5F5F5F5F5F5F5F5F5F5F5F5F5F5F5F5F5
310
F5F5F5F5F5F5F5F5F5F5F5F5F5F5F5F5F5F5E2F5F5F5F5F5F5F5F5F5F5F5F5F5F5F5F5F5F5F5F5F5E2E2F5F5F5F5F5F5F5F5F5F5F5F5F5F5F5F5F5F5F5F5F5E2F5F5F5F5F5F5F5F5F5F5F5F5F5F5F5F5F5F5F5F5F5F5F5F5F5F5F5F5F5F5F5F5F5F5F5F5F5F5F5F5F5F5F5F5F5F5F5F5F5F5F5F5F5F5F5F5F5F5F5F5F5F5F5
310
F5F5F5F5F5F5F5F5F5F5F5F5F5F5F5F5F5F5F5F5F5F5F5F5F5F5F5F5F5F5F5F5F5F5F5F5F5F5F5F5F5F5F5F5F5F5F5F5F5F5F5F5F5F5F5F5F5F5F5F5F5F5F5F5F5F5F5F5F5F5F5E2F5F5F5F5F5F5F5F5F5F5F5F5F5F5F5F5F5F5F5F5F5E2E2F5F5F5F5F5F5F5F5F5F5F5F5F5F5F5F5F5F5F5F5F5E2F5F5F5F5F5F5F5F5F5F5
310
F5F5F5F5F5F5F5F5F5F5F5F5F5F5F5F5F5F5F5F5F5F5F5F5F5F5F5F5F5F5F5F5F5F5F5F5F5F5F5F5F5F5F5F5F5F5F5F5F5F5F5F5F5F5F5F5F5F5F5F5F5F5F5F5F5F5F5F5F5F5F5F5F5F5F5F5F5F5F5F5F5F5F5F5F5F5F5F5F5F5F5F5F5F5F5F5F5F5F5F5F5F5F5F5F5F5F5F5F5F5F5F5F5F5F5F5F5F5F5F5F5F5F5F5E2F5F5
310
F5F5F5F5F5F5F5F5F5F5F5F5F5F5F5F5F5F5F5E2E2F5F5F5F5F5F5F5F5F5F5F5F5F5F5F5F5F5F5F5F5F5E2F5F5F5F5F5F5F5F5F5F5F5F5F5F5F5F5F5F5F5F5F5F5F5F5F5F5F5F5F5F5F5F5F5F5F5F5F5F5F5F5F5F5F5F5F5F5F5F5F5F5F5F5F5F5F5F5F5F5F5F5F5F5F5F5F5F5F5F5F5F5F5F5F5F5F5F5F5F5F5F5F5F5F5F5
310
F5F5F5F5F5F5F5F5F5F5F5F5F5F5F5F5F5F5F5F5F5F5F5F5F5F5F5F5F5F5F5F5F5F5F5F5F5F5F5F5F5F5F5F5F5F5F5F5F5F5E2F5F5F5F5F5F5F5F5F5F5F5F5F5F5F5F5F5F5F5F5F5E2E2F5F5F5F5F5F5F5F5F5F5F5F5F5F5F5F5F5F5F5F5F5E2F5F5F5F5F5F5F5F5F5F5F5F5F5F5F5F5F5F5F5F5F5F5F5F5F5F5F5F5F5F5F5
310
F5F5F5F5F5F5F5F5F5F5F5F5F5F5F5F5F5F5F5F5F5F5F5F5F5F5F5F5F5F5F5F5F5F5F5F5F5F5F5F5F5F5F5F5F5F5F5F5F5F5F5F5F5F5F5F5F5F5F5F5F5F5F5F5F5F5F5F5F5F5F5F5F5F5F5F5F5F5F5F5F5F5F5F5F5F5F5F5F5F5F5F5F5F5F5F5F5F5F5F5F5F5F5E2F5F5F5F5F5F5F5F5F5F5F5F5F5F5F5F5F5F5F5F5F5E2E2
310
F5F5F5F5F5F5F5F5F5F5F5F5F5F5F5F5F5F5F5F5F5E2F5F5F5F5F5F5F5F5F5F5F5F5F5F5F5F5F5F5F5F5F5F5F5F5F5F5F5F5F5F5F5F5F5F5F5F5F5F5F5F5F5F5F5F5F5F5F5F5F5F5F5F5F5F5F5F5F5F5F5F5F5F5F5F5F5F5F5F5F5F5F5F5F5F5F5F5F5F5F5F5F5F5F5F5F5F5F5F5F5F5F5F5F5F5F5F5F5F5F5F5F5F5F5F5F5
310
F5F5F5F5F5F5F5F5F5F5F5F5F5F5F5F5F5F5F5F5F5F5F5F5F5F5F5F5F5E2F5F5F5F5F5F5F5F5F5F5F5F5F5F5F5F5F5F5F5F5F5E2E2F5F5F5F5E2F5F5F5F5F5F5F5F5F5F5F5F5F5F5F5F5E2F5F5F5F5F5F5F5F5F5F5F5F5F5F5F5F5F5F5F5F5F5F5F5F5F5F5F5F5F5F5F5F5F5F5F5F5F5F5F5F5F5F5F5F5F5F5F5F5F5F5F5F5
310
F5F5F5F5F5F5F5F5F5F5F5F5F5F5F5F5F5F5F5F5F5F5F5F5F5F5F5F5F5F5F5F5F5F5F5F5F5F5F5F5F5F5F5F5F5F5F5F5F5E2F0E2E2F5F5F5F5F5F5E2F0E2E2F5DCF5F5F5F5F5F5F0F0E2F5F5F5F5F5F5F5F5E2F5F5F5F5F5F5F5F5F5F5F5F5F5F5F5F5E2F5F5F5F5E2E2F5F5F5F5E2F5F5F5F5F5F5F5F5F5F5F5F5F5F5F5F5
310
E2F5F5F5F5F5F5F5F5F5F5F5F5F5F5F5F5F5F5F5F5F5F5F5F5F5F5F5F5F5F5F5F5F5F5F5F5F5F5F5F5F5F5F5F5F5F5F5F5F5F5F5F5F5F5F5F5F5F5F5F5F5F5F5F5F5F5F5F5F5F5F5F5F5F5F5F5F5F5F5F5F5F5F5F5F5F5F5F5F5F5F5F5F5F5F5F5F5F5F5F5E2DCDCF0F5E2F5F5F5F5F5E2F5F0E2E2DCF5F5F5F5F5E2F0F0F5
310
E2F5F5F5E2E2E2F5E2F5F5F5F5F5F5F5F5F5F5F5F5F5F5F5F5E2F5F5F5F5E2E2F5F5F5F5E2F5F5F5F5F5F5F5F5F5F5F5F5F5F5F5F5E2F5F5F5F5F5F5F5F5F5F5F5F5F5F5F5F5F5F5F5F5F5F5F5F5F5F5F5F5F5F5F5F5F5F5F5F5F5F5F5F5F5F5F5F5F5F5F5F5F5F5F5F5F5F5F5F5F5F5F5F5F5F5F5F5F5F5F5F5F5F5F5F5F5
310
F5F5F5F5F5F5F5F5F5F5F5F5F5F5F5F5F5F5F5F5F5F5F5F5F5F5E2F0DCF0DCE2E2E2F5F5F5E2E2F0F0F0E2DCF5F5F5F5E2F0F0F0E2E2F0E2E2E2E2E2E2E2F5F5F5F5F5F5F5F5F5F5F5F5F5F5F5F5E2F5F5F5F5E2E2F5F5F5F5E2F5F5F5F5F5F5F5F5F5F5F5F5F5F5F5F5E2F5F5F5F5F5F5F5F5F5F5F5F5F5F5F5F5F5F5F5F5
310
F5F5F5F5F5F5F5F5F5F5F5F5F5F5F5F5F5F5F5F5F5F5F5F5F5F5F5F5F5F5F5F5F5F5F5F5F5F5F5F5F5F5F5F5F5F5F5F5F5F5F5F5F5F5F5F5F5F5F5F5F5F5F5F5F5F5F5F5F5F5F5F5F5F5F5F5F5F5F5E2F0DCF0DCF0F0E2F5F5F5E2F0DCE2E2E2DCF5F5F5F5F0F0F0F0E2E2F0E2F5E2E2E2E2E2F5F5F5F5F5F5F5F5F5F5F5F5
310
F5F5F5F5E2F5F5F5F5E2E2F5F5F5F5E2F5F5F5F5F5F5F5F5F5F5F5F5F5F5F5F5E2F5F5F5F5F5F5F5F5F5F5F5F5F5F5F5F5F5F5F5F5F5F5F5F5F5F5F5F5F5F5F5F5F5F5F5F5F5F5F5F5F5F5F5F5F5F5F5F5F5F5F5F5F5F5F5F5F5F5F5F5F5F5F5F5F5F5F5F5F5F5F5F5F5F5F5F5F5F5F5F5F5F5F5F5F5F5F5F5F5F5F5F5F5F5
310
F5F5F5F5F5F5E2DCDCDCF0E2F5F5F5F5F5F0DCDCE2E2DCF5F5F5F5F5F0F0F0DCE2F0F5E2E2E2E2F5E2F5F5F5F5F5F5F5F5F5F5F5F5F5F5F5F5E2F5F5F5F5E2E2F5F5F5F5E2F5F5F5F5F5F5F5F5F5F5F5F5F5F5F5F5E2F5F5F5F5F5F5F5F5F5F5F5F5F5F5F5F5F5F5F5F5F5F5F5F5F5F5F5F5F5F5F5F5F5F5F5F5F5F5F5F5F5
310
F5F5F5F5F5F5F5F5F5F5F5F5F5F5F5F5F5F5F5F5F5F5F5F5F5F5F5F5F5F5F5F5F5F5F5F5F5F5F5F5F5F5F5F5F5F5F5F5F5F5F5F5F5F5F5F5F5F5F5E2F0F0F0E2F5F5F5F5F5E2F0E2E2E2E2DCF5F5F5F5F5F0F0E2E2F5F5F5F5E2E2E2F5E2F5F5F5F5F5F5F5F5F5F5F5F5F5F5F5F5E2F5F5F5F5E2E2F5F5F5F5E2F5F5F5F5F5
310
F5F5F5F5F5F5F5F5F5F5F5E2F5F5F5F5F5F5F5F5F5F5F5F5F5F5F5F5F5F5F5F5F5F5F5F5F5F5F5F5F5F5F5F5F5F5F5F5F5F5F5F5F5F5F5F5F5F5F5F5F5F5F5F5F5F5F5F5F5F5F5F5F5F5F5F5F5F5F5F5F5F5F5F5F5F5F5F5F5F5F5F5F5F5F5F5F5F5F5F5F5F5F5F5F5F5F5F5F5F5F5F5F5F5E2E2F5F5F5F5F5F5F5F5E2E2F5
310
F5DCF5F5F5F5F5F5F5F0E2F5F5F5F5F5E2F5F5E2F5F5F5F5F5F5F5F5F5F5F5F5F5F5F5F5E2F5F5F5F5E2E2F5F5F5F5E2F5F5F5F5F5F5F5F5F5F5F5F5F5F5F5F5E2F5F5F5F5F5F5F5F5F5F5F5F5F5F5F5F5F5F5F5F5F5F5F5F5F5F5F5F5F5F5F5F5F5F5F5F5F5F5F5F5F5F5F5F5F5F5F5F5F5F5F5F5F5F5F5F5F5F5F5F5F5F5
310
F5F5F5F5F5F5F5F5F5F5F5F5F5F5F5F5F5F5F5F5F5F5F5F5F5F5F5F5F5F5F5F5F5F5F5F5F5F5F5F5F5F5F5F5F5F5F5F5F5F5F5F5F5F5DCF5F5F5F5F5F5F5F5F5F5F5F5F5F5F5F5F5E2F5F5F5F5F5F5F5F5F5F5F5F5F5F5F5F5E2F5F5F5F5E2E2F5F5F5F5E2F5F5F5F5F5F5F5F5F5F5F5F5F5F5F5F5E2F5F5F5F5F5F5F5F5F5
310
F5F5F5F5F5F5F5F5F5F5F5F5F5F5F5F5F5F5F5F5F5F5F5F5F5F5F5F5F5F5F5F5F5F5F5F5F5F5F5F5F5F5F5F5F5F5F5F5F5F5F5F5F5F5F5F5F5F5F5F5F5F5F5F5F5F5F5F5F5F5F5F5F5F5F5F5F5F5F5F5F5F5F5F5F5F5F5F5F5F5F5F5F5F5F5F5F5F5F5F5F5F5F5F5F5F5F5DCF5F5F5F5F5F5F5F5F5F5F5F5F5F5F5F5F5E2F5
310
F5F5F5F5F5F5F5F5F5F5F5F5F5F5F5E2F5F5F5F5E2E2F5F5F5F5E2F5F5F5F5F5F5F5F5F5F5F5F5F5F5F5F5E2F5F5F5F5F5F5F5F5F5F5F5F5F5F5F5F5F5F5F5F5F5F5F5F5F5F5F5F5F5F5F5F5F5F5F5F5F5F5F5F5F5F5F5F5F5F5F5F5F5F5F5F5F5F5F5F5F5F5F5F5F5F5F5F5F5F5F5F5F5F5F5F5F5F5F5F5F5F5F5F5F5F5F5
310
F5F5F5F5F5F5F5F5F5F5F5F5F5F5F5F5F5F5F5F5F5F5F5F5F5F5F5F5F5F5F5F5F5DCF5F5F5F5F5F5F5F5F5F5F5F5F5F5F5F5F5E2F5F5F5F5F5F5F5F5F5F5F5F5F5F5F5F5E2F5F5F5F5E2E2F5F5F5F5E2F5F5F5F5F5F5F5F5F5F5F5F5F5F5F5F5E2F5F5F5F5F5F5F5F5F5F5F5F5F5F5F5F5F5F5F5F5F5F5F5F5F5F5F5F5F5F5
310
F5F5F5F5F5F5F5F5F5F5F5F5F5F5F5F5F5F5F5F5F5F5F5F5F5F5F5F5F5F5F5F5F5F5F5F5F5F5F5F5F5F5F5F5F5F5F5F5F5F5F5F5F5F5F5F5F5F5F5F5F5F5F5F5F5F5F5F5F5F5F5F5F5F5F5F5F5F5F5F5F5F5F5F5F5F5DCF5F5F5F5F5F5F5F5F5F5F5F5F5F5F5F5F5E2F5F5F5F5F5F5F5F5F5F5F5F5F5F5F5F5E2F5F5F5F5E2
310
E2F5F5F5F5E2F5F5F5F5F5F5F5F5F5F5F5F5F5F5F5F5E2F5F5F5F5F5F5F5F5F5F5F5F5F5F5F5F5F5F5F5F5F5F5F5F5F5F5F5F5F5F5F5F5F5F5F5F5F5F5F5F5F5F5F5F5F5F5F5F5F5F5F5F5F5F5F5F5F5F5F5F5F5F5F5F5F5F5F5F5F5F5F5F5F5F5F5F5F5F5F5F5F5F5F5F5F5F5F5F5F5F5F5F5F5F5F5F5F5F5F5F5F5F5F5F5
310
F5F5F5F5F5F5F5F5F5F5F5F5DCF5F5F5F5F5F5F5F5F5F5F5F5F5F5F5F5F5E2F5F5F5F5F5F5F5F5F5F5F5F5F5F5F5F5E2F5F5F5F5E2E2F5F5F5F5E2F5F5F5F5F5F5F5F5F5F5F5F5F5F5F5F5E2F5F5F5F5F5F5F5F5F5F5F5F5F5F5F5F5F5F5F5F5F5F5F5F5F5F5F5F5F5F5F5F5F5F5F5F5F5F5F5F5F5F5F5F5F5F5F5F5F5F5F5
310
F5F5F5F5F5F5F5F5F5F5F5F5F5F5F5F5F5F5F5F5F5F5F5F5F5F5F5F5F5F5F5F5F5F5F5F5F5F5F5F5F5F5F5F5F5F5F5F5F5F5F5F5F5F5F5F5F5F5F5F5F5F5F5F5F5DCF5F5F5F5F5F5F5F5F5F5F5F5F5F5F5F5F5E2F5F5F5F5F5F5F5F5F5F5F5F5F5F5F5F5E2F5F5F5F5E2E2F5F5F5F5E2F5F5F5F5F5F5F5F5F5F5F5F5F5F5F5
310
F5E2F5F5F5F5F5F5F5F5F5F5F5F5F5F5F5F5F5F5F5F5F5F5F5F5F5F5F5F5F5F5F5F5F5F5F5F5F5F5F5F5F5F5F5F5F5F5F5F5F5F5F5F5F5F5F5F5F5F5F5F5F5F5F5F5F5F5F5F5F5F5F5F5F5F5F5F5F5F5F5F5F5F5F5F5F5F5F5F5F5F5F5F5F5F5F5F5F5F5F5F5F5F5F5F5F5F5F5F5F5F5F5F5F5F5F5F5DCF5F5F5F5F5F5F5F5
310
F5F5F5F5F5F5F5F5F5E2F5F5F5F5F5F5F5F5F5F5F5F5F5F5F5F5E2F5F5F5F5E2E2F5F5F5F5E2F5F5F5F5F5F5F5F5F5F5F5F5F5F5F5F5E2F5F5F5F5F5F5F5F5F5F5F5F5F5F5F5F5F5F5F5F5F5F5F5F5F5F5F5F5F5F5F5F5F5F5F5F5F5F5F5F5F5F5F5F5F5F5F5F5F5F5F5F5F5F5F5F5F5F5F5F5F5F5F5F5F5F5F5F5F5F5F5F5
310
F5F5F5F5F5F5F5F5F5F5F5F5F5F5F5F5F5F5F5F5F5F5F5F5F5F5F5F5F5F5F5F5F5F5F5F5F5F5F5F5F5F5E2E2DCE2F5F5F5F5F5F5F5F5F5F5F5F5F5F5F5F5E2F5F5F5F5F5F5F5F5F5F5F5F5F5F5F5F5E2F5F5F5F5E2E2F5F5F5F5E2F5F5F5F5F5F5F5F5F5F5F5F5F5F5F5F5E2F5F5F5F5F5F5F5F5F5F5F5F5F5F5F5F5F5F5F5
310
F5F5F5F5F5F5F5F5F5F5F5F5F5F5F5F5F5F5F5F5F5F5F5F5F5F5F5F5F5F5F5F5F5F5F5F5F5F5F5F5F5F5F5F5F5F5F5F5F5F5F5F5F5F5F5F5F5F5F5F5F5F5F5F5F5F5F5F5F5F5F5F5F5F5F5F5F5F5F5F5F5F5F5F5F5F5F5F5F5F5F5F5F5F5F5F5F5DCF5F5F5F5F5F5F5F5F5F5F5F5F5F5F5F5F5E2F5F5F5F5F5F5F5F5F5F5F5
310
F5F5F5F5F5E2F5F5F5F5E2E2F5F5F5F5E2F5F5F5F5F5F5F5F5F5F5F5F5F5F5F5F5E2F5F5F5F5F5F5F5F5F5F5F5F5F5F5F5F5F5F5F5F5F5F5F5F5F5F5F5F5F5F5F5F5F5F5F5F5F5F5F5F5F5F5F5F5F5F5F5F5F5F5F5F5F5F5F5F5F5F5F5F5F5F5F5F5F5F5F5F5F5F5F5F5F5F5F5F5F5F5F5F5F5F5F5F5F5F5F5F5F5F5F5F5F5
310
F5F5F5F5F5F5F5F5F5F5F5F5F5F5F5F5F5F5F5F5F5F5F5DCF5F5F5F5F5F5F5F5F5F5F5F5F5F5F5F5F5E2F5F5F5F5F5F5F5F5F5F5F5F5F5F5F5F5E2F5F5F5F5E2E2F5F5F5F5F5F5F5F5F5F5F5F5F5F5F5F5F5F5F5F5F5E2F5F5F5F5F5F5F5F5F5F5F5F5F5F5F5F5F5F5F5F5F5F5F5F5F5F5F5F5F5F5F5F5F5F5F5F5F5F5F5F5
310
F5F5F5F5F5F5F5F5F5F5F5F5F5F5F5F5F5F5F5F5F5F5F5F5F5F5F5F5F5F5F5F5F5F5F5F5F5F5F5F5F5F5F5F5F5F5F5F5F5F5F5F5F5F5F5F5F5F5F5F5F5F5F5F5F5F5F5F5F5F5F5F5F5F5F5F5DCF5F5F5F5F5F5F5F5F5F5F5F5F5F5F5F5F5E2F5F5F5F5F5F5F5F5F5F5F5F5F5F5F5F5F5F5F5F5F5E2E2F5F5F5F5F5F5F5F5F5
310
F5F5F5F5F5F5F5F5F5F5F5F5E2F5F5F5F5F5F5F5F5F5F5F5F5F5F5F5F5F5F5F5F5F5F5F5F5F5F5F5F5F5F5F5F5F5F5F5F5F5F5F5F5F5F5F5F5F5F5F5F5F5F5F5F5F5F5F5F5F5F5F5F5F5F5F5F5F5F5F5F5F5F5F5F5F5F5F5F5F5F5F5F5F5F5F5F5F5F5F5F5F5F5F5F5F5F5F5F5F5F5F5F5F5F5F5F5F5F5F5F5F5F5F5F5F5F5
310
F5F5F5F5F5F5F5F5F5F5F5F5F5F5F5F5F5F5F5F5E2F5F5F5F5F5F5F5F5F5F5F5F5F5F5F5F5F5F5F5F5F5E2E2F5F5F5F5F5F5F5F5F5F5F5F5F5F5F5F5F5F5F5F5F5E2F5F5F5F5F5F5F5F5F5F5F5F5F5F5F5F5F5F5F5F5F5F5F5F5F5F5F5F5F5F5F5F5F5F5F5F5F5F5F5F5F5F5F5F5F5F5F5F5F5F5F5F5F5F5F5F5F5F5F5F5F5
310
F5F5F5F5F5F5F5F5F5F5F5F5F5F5F5F5F5F5F5F5F5F5F5F5F5F5F5F5F5F5F5F5F5F5F5F5F5F5F5F5F5F5F5F5F5F5F5F5F5F5F5F5F5F5F5F5F5F5F5F5F5F5F5F5F5F5F5F5F5F5F5F5F5E2F5F5F5F5F5F5F5F5F5F5F5F5F5F5F5F5F5F5F5F5F5E2E2F5F5F5F5F5F5F5F5F5F5F5F5F5F5F5F5F5F5F5F5F5E2F5F5F5F5F5F5F5F5
310
F5F5F5F5F5F5F5F5F5F5F5F5F5F5F5F5F5F5F5F5F5F5F5F5F5F5F5F5F5F5F5F5F5F5F5F5F5F5F5F5F5F5F5F5F5F5F5F5F5F5F5F5F5F5F5F5F5F5F5F5F5F5F5F5F5F5F5F5F5F5F5F5F5F5F5F5F5F5F5F5F5F5F5F5F5F5F5F5F5F5F5F5F5F5F5F5F5F5F5F5F5F5F5F5F5F5F5F5F5F5F5F5F5F5F5F5F5F5F5F5F5F5F5F5F5F5E2
310
F5F5F5F5F5F5F5F5F5F5F5F5F5F5F5F5F5F5F5F5F5E2E2F5F5F5F5F5F5F5F5F5F5F5F5F5F5F5F5F5F5F5F5F5E2F5F5F5F5F5F5F5F5F5F5F5F5F5F5F5F5F5F5F5F5F5F5F5F5F5F5F5F5F5F5F5F5F5F5F5F5F5F5F5F5F5F5F5F5F5F5F5F5F5F5F5F5F5F5F5F5F5F5F5F5F5F5F5F5F5F5F5F5F5F5F5F5F5F5F5F5F5F5F5F5F5F5
310
F5F5F5F5F5F5F5F5F5F5F5F5F5F5F5F5F5F5F5F5F5F5F5F5F5F5F5F5F5F5F5F5F5F5F5F5F5F5F5F5F5F5F5F5F5F5F5F5F5F5F5F5E2F5F5F5F5F5F5F5F5F5F5F5F5F5F5F5F5F5F5F5F5F5E2E2F5F5F5F5F5F5F5F5F5F5F5F5F5F5F5F5F5F5F5F5F5E2F5F5F5F5F5F5F5F5F5F5F5F5F5F5F5F5F5F5F5F5F5F5F5F5F5F5F5F5F5
310
F5F5F5F5F5F5F5F5F5F5F5F5F5F5F5F5F5F5F5F5F5F5F5F5F5F5F5F5F5F5F5F5F5F5F5F5F5F5F5F5F5F5F5F5F5F5F5F5F5F5F5F5F5F5F5F5F5F5F5F5F5F5F5F5F5F5F5F5F5F5F5F5F5F5F5F5F5F5F5F5F5F5F5F5F5F5F5F5F5F5F5F5F5F5F5F5F5F5F5F5F5F5F5F5F5E2F5F5F5F5F5F5F5F5F5F5F5F5F5F5F5F5F5F5F5F5F5
310
E2E2F5F5F5F5F5F5F5F5F5F5F5F5F5F5F5F5F5F5F5F5F5E2F5F5F5F5F5F5F5F5F5F5F5F5F5F5F5F5F5F5F5F5F5F5F5F5F5F5F5F5F5F5F5F5F5F5F5F5F5F5F5F5F5F5F5F5F5F5F5F5F5F5F5F5F5F5F5F5F5F5F5F5F5F5F5F5F5F5F5F5F5F5F5F5F5F5F5F5F5F5F5F5F5F5F5F5F5F5F5F5F5F5F5F5F5F5F5F5F5F5F5F5F5F5F5
310
F5F5F5F5F5F5F5F5F5F5F5F5F5F5F5F5F5F5F5F5F5F5F5F5F5F5F5F5F5F5F5E2F5F5F5F5F5F5F5F5F5F5F5F5F5F5F5F5F5F5F5F5F5E2E2F5F5F5F5F5F5F5F5F5F5F5F5F5F5F5F5F5F5F5F5F5E2F5F5F5F5F5F5F5F5F5F5F5F5F5F5F5F5F5F5F5F5F5F5F5F5F5F5F5F5F5F5F5F5F5F5F5F5F5F5F5F5F5F5F5F5F5F5F5F5F5F5
310
F5F5F5F5F5F5F5F5F5F5F5F5F5F5F5F5F5F5F5F5F5F5F5F5F5F5F5F5F5F5F5F5F5F5F5F5F5F5F5F5F5F5F5F5F5F5F5F5F5F5F5F5F5F5F5F5F5F5F5F5F5F5F5F5F5F5F5F5F5F5F5F5F5F5F5F5F5F5F5F5F5F5F5F5E2F5F5F5F5F5F5F5F5F5F5F5F5F5F5F5F5F5F5F5F5F5E2E2F5F5F5F5F5F5F5F5F5F5F5F5F5F5F5F5F5F5F5
310
F5F5E2F5F5F5F5F5F5F5F5F5F5F5F5F5F5F5F5F5F5F5F5F5F5F5F5F5F5F5F5F5F5F5F5F5F5F5F5F5F5F5F5F5F5F5F5F5F5F5F5F5F5F5F5F5F5F5F5F5F5F5F5F5F5F5F5F5F5F5F5F5F5F5F5F5F5F5F5F5F5F5F5F5F5F5F5F5F5F5F5F5F5F5F5F5F5F5F5F5F5F5F5F5F5F5F5F5F5F5F5F5F5F5F5F5F5F5F5F5F5F5F5F5F5F5F5
310
F5F5F5F5F5F5F5F5F5F5E2F5F5F5F5F5F5F5F5F5F5F5F5F5F5F5F5F5F5F5F5F5E2E2F5F5F5F5E2F5F5F5F5F5F5F5F5F5F5F5F5F5F5F5F5E2F5F5F5F5F5F5F5F5F5F5F5F5F5F5F5F5F5F5F5F5F5F5F5F5F5F5F5F5F5F5F5F5F5F5F5F5F5F5F5F5F5F5F5F5F5F5F5F5F5F5F5F5F5F5F5F5F5F5F5F5F5F5F5F5F5F5F5F5F5F5F5
310
F5F5F5F5F5F5F5F5F5F5F5F5F5F5F5F5F5F5F5F5F5F5F5F5F5F5F5F5F5F5F5F5F5F5F5F5F5F5F5F5F5F5F5F5F5F5F5F5F5F5F5F5F5F5F5F5F5F5F5F5F5F5F5E2F5F5F5F5F5F5F5F5F5F5F5F5F5F5F5F5E2F5F5F5F5E2E2F5F5F5F5E2F5F5F5F5F5F5F5F5F5F5F5F5F5F5F5F5E2F5F5F5F5F5F5F5F5F5F5F5F5F5F5F5F5F5F5
310
F5F5F5F5F5F5F5F5F5F5F5F5F5F5F5F5F5F5F5F5F5F5F5F5F5F5F5F5F5F5F5F5F5F5F5F5F5F5F5F5F5F5F5F5F5F5F5F5F5F5F5F5F5F5F5F5F5F5F5F5F5F5F5F5F5F5F5F5F5F5F5F5F5F5F5F5F5F5F5F5F5F5F5F5F5F5F5F5F5F5F5F5F5F5F5F5F5F5F5F5F5F5F5F5F5F5F5F5F5F5F5F5F5F5F5F5E2F5F5F5F5F5F5F5F5F5F5
310
F5F5F5F5F5F5E2F5F5F5F5E2E2F5F5F5F5E2F5F5F5F5F5F5F5F5F5F5F5F5F5F5F5F5E2F5F5F5F5F5F5F5F5F5F5F5F5F5F5F5F5F5F5F5F5F5F5F5F5F5F5F5F5F5F5F5F5F5F5F5F5F5F5F5F5F5F5F5F5F5F5F5F5F5F5F5F5F5F5F5F5F5F5F5F5F5F5F5F5F5F5F5F5F5F5F5F5F5F5F5F5F5F5F5F5F5F5F5F5F5F5F5F5F5F5F5F5
310
F5F5F5F5F5F5F5F5F5F5F5F5F5F5F5F5F5F5F5F5F5F5F5F5F5F5F5F5F5F5F5F5F5F5F5F5F5F5F5F5F5F5E2F5F5F5F5F5F5F5F5F5F5F5F5F5F5F5F5E2F5F5F5F5E2E2F5F5F5F5E2F5F5F5F5F5F5F5F5F5F5F5F5F5F5F5F5E2F5F5F5F5F5F5F5F5F5F5F5F5F5F5F5F5F5F5F5F5F5F5F5F5F5F5F5F5F5F5F5F5F5F5F5F5F5F5F5
310
F5F5F5F5F5F5F5F5F5F5F5F5F5F5F5F5F5F5F5F5F5F5F5F5F5F5F5F5F5F5F5F5F5F5F5F5F5F5F5F5F5F5F5F5F5F5F5F5F5F5F5F5F5F5F5F5F5F5F5F5F5F5F5F5F5F5F5F5F5F5F5F5F5F5F5F5F5F5F5F5F5F5F5F5F5F5F5F5F5F5F5F5F5F5F5E2F5F5F5F5F5F5F5F5F5F5F5F5F5F5F5F5E2F5F5F5F5E2E2F5F5F5F5E2F5F5F5
310
F5F5F5F5F5F5F5F5F5F5F5F5F5E2F5F5F5F5F5F5F5F5F5F5F5F5F5F5F5F5F5F5F5F5F5F5F5F5F5F5F5F5F5F5F5F5F5F5F5F5F5F5F5F5F5F5F5F5F5F5F5F5F5F5F5F5F5F5F5F5F5F5F5F5F5F5F5F5F5F5F5F5F5F5F5F5F5F5F5F5F5F5F5F5F5F5F5F5F5F5F5F5F5F5F5F5F5F5F5F5F5F5F5F5F5F5F5F5F5F5F5F5F5F5F5F5F5
310
F5F5F5F5F5F5F5F5F5F5F5F5F5F5F5F5F5F5F5F5F5E2F5F5F5F5F5F5F5F5F5F5F5F5F5F5F5F5E2F5F5F5F5E2E2F5F5F5F5E2F5F5F5F5F5F5F5F5F5F5F5F5F5F5F5F5E2F5F5F5F5F5F5F5F5F5F5F5F5F5F5F5F5F5F5F5F5F5F5F5F5F5F5F5F5F5F5F5F5F5F5F5F5F5F5F5F5F5F5F5F5F5F5F5F5F5F5F5F5F5F5F5F5F5F5F5F5
310
F5F5F5F5F5F5F5F5F5F5F5F5F5F5F5F5F5F5F5F5F5F5F5F5F5F5F5F5F5F5F5F5F5F5F5F5F5F5F5F5F5F5F5F5F5F5F5F5F5F5F5F5F5F5F5F5F5F5F5F5F5F5F5F5F5F5F5F5F5F5F5F5F5F5E2F5F5F5F5F5F5F5F5F5F5F5F5F5F5F5F5E2F5F5F5F5E2E2F5F5F5F5E2F5F5F5F5F5F5F5F5F5F5F5F5F5F5F5F5E2F5F5F5F5F5F5F5
310
F5F5F5F5F5F5F5F5F5F5F5F5F5F5F5F5F5F5F5F5F5F5F5F5F5F5F5F5F5F5F5F5F5F5F5F5F5F5F5F5F5F5F5F5F5F5F5F5F5F5F5F5F5F5F5F5F5F5F5F5F5F5F5F5F5F5F5F5F5F5F5F5F5F5F5F5F5F5F5F5F5F5F5F5F5F5F5F5F5F5F5F5F5F5F5F5F5F5F5F5F5F5F5F5F5F5F5F5F5F5F5F5F5F5F5F5F5F5F5F5F5F5F5F5F5F5F5
310
E2F5F5F5F5F5F5F5F5F5F5F5F5F5F5F5F5E2F5F5F5F5E2E2F5F5F5F5E2F5F5F5F5F5F5F5F5F5F5F5F5F5F5F5F5E2F5F5F5F5F5F5F5F5F5F5F5F5F5F5F5F5F5F5F5F5F5F5F5F5F5F5F5F5F5F5F5F5F5F5F5F5F5F5F5F5F5F5F5F5F5F5F5F5F5F5F5F5F5F5F5F5F5F5F5F5F5F5F5F5F5F5F5F5F5F5F5F5F5F5F5F5F5F5F5F5F5
310
F5F5F5F5F5F5F5F5F5F5F5F5F5F5F5F5F5F5F5F5F5F5F5F5F5F5F5F5F5F5F5F5F5F5F5F5F5F5F5F5F5F5F5F5F5F5F5F5F5F5F5F5F5E2F5F5F5F5F5F5F5F5F5F5F5F5F5F5F5F5E2F5F5F5F5E2E2F5F5F5F5E2F5F5F5F5F5F5F5F5F5F5F5F5F5F5F5F5E2F5F5F5F5F5F5F5F5F5F5F5F5F5F5F5F5F5F5F5F5F5F5F5F5F5F5F5F5
310
F5F5F5F5F5F5F5F5F5F5F5F5F5F5F5F5F5F5F5F5F5F5F5F5F5F5F5F5F5F5F5F5F5F5F5F5F5F5F5F5F5F5F5F5F5F5F5F5F5F5F5F5F5F5F5F5F5F5F5F5F5F5F5F5F5F5F5F5F5F5F5F5F5F5F5F5F5F5F5F5F5F5F5F5F5F5F5F5F5F5F5F5F5F5F5F5F5F5F5F5F5F5F5F5F5F5E2F5F5F5F5F5F5F5F5F5F5F5F5F5F5F5F5E2F5F5F5
310
F5E2E2F5F5F5F5E2F5F5F5F5F5F5F5F5F5F5F5F5F5F5F5F5E2F5F5F5F5F5F5F5F5F5F5F5F5F5F5F5F5F5F5F5F5F5F5F5F5F5F5F5F5F5F5F5F5F5F5F5F5F5F5F5F5F5F5F5F5F5F5F5F5F5F5F5F5F5F5F5F5F5F5F5F5F5F5F5F5F5F5F5F5F5F5F5F5F5F5F5F5F5F5F5F5F5F5F5F5F5F5F5F5F5F5F5F5F5F5F5F5F5F5F5F5F5F5
310
F5F5F5F5F5F5F5F5F5F5F5F5F5F5F5F5F5F5F5F5F5F5F5F5F5F5F5F5F5F5F5F5E2F5F5F5F5F5F5F5F5F5F5F5F5F5F5F5F5E2F5F5F5F5E2E2F5F5F5F5E2F5F5F5F5F5F5F5F5F5F5F5F5F5F5F5F5E2F5F5F5F5F5F5F5F5F5F5F5F5F5F5F5F5F5F5F5F5F5F5F5F5F5F5F5F5F5F5F5F5F5F5F5F5F5F5F5F5F5F5F5F5F5F5F5F5F5
310
F5F5F5F5F5F5F5F5F5F5F5F5F5F5F5F5F5F5F5F5F5F5F5F5F5F5F5F5F5F5F5F5F5F5F5F5F5F5F5F5F5F5F5F5F5F5F5F5F5F5F5F5F5F5F5F5F5F5F5F5F5F5F5F5F5F5F5F5F5F5F5F5F5F5F5F5F5F5F5F5F5F5F5F5F5E2F5F5F5F5F5F5F5F5F5F5F5F5F5F5F5F5E2F5F5F5F5E2E2F5F5F5F5E2F5F5F5F5F5F5F5F5F5F5F5F5F5
310
F5F5F5E2F5F5F5F5F5F5F5F5F5F5F5F5F5F5F5F5F5F5F5F5F5F5F5F5F5F5F5F5F5F5F5F5F5F5F5F5F5F5F5F5F5F5F5F5F5F5F5F5F5F5F5F5F5F5F5F5F5F5F5F5F5F5F5F5F5F5F5F5F5F5F5F5F5F5F5F5F5F5F5F5F5F5F5F5F5F5F5F5F5F5F5F5F5F5F5F5F5F5F5F5F5F5F5F5F5F5F5F5F5F5F5F5F5F5F5F5F5F5F5F5F5F5F5
310
F5F5F5F5F5F5F5F5F5F5F5E2F5F5F5F5F5F5F5F5F5F5F5F5F5F5F5F5E2F5F5F5F5E2E2F5F5F5F5E2F5F5F5F5F5F5F5F5F5F5F5F5F5F5F5F5E2F5F5F5F5F5F5F5F5F5F5F5F5F5F5F5F5F5F5F5F5F5F5F5F5F5F5F5F5F5F5F5F5F5F5F5F5F5F5F5F5F5F5F5F5F5F5F5F5F5F5F5F5F5F5F5F5F5F5F5F5F5F5F5F5F5F5F5F5F5F5
310
F5F5F5F5F5F5F5F5F5F5F5F5F5F5F5F5F5F5F5F5F5F5F5F5F5F5F5F5F5F5F5F5F5F5F5F5F5F5F5F5F5F5F5F5F5F5F5F5F5F5F5F5F5F5F5F5F5F5F5F5F5F5F5F5E2F5F5F5F5F5F5F5F5F5F5F5F5F5F5F5F5E2F5F5F5F5E2E2F5F5F5F5E2F5F5F5F5F5F5F5F5F5F5F5F5F5F5F5F5E2F5F5F5F5F5F5F5F5F5F5F5F5F5F5F5F5F5
310
F5F5F5F5F5F5F5F5F5F5F5F5F5F5F5F5F5F5F5F5F5F5F5F5F5F5F5F5F5F5F5F5F5F5F5F5F5F5F5F5F5F5F5F5F5F5F5F5F5F5F5F5F5F5F5F5F5F5F5F5F5F5F5F5F5F5F5F5F5F5F5F5F5F5F5F5F5F5F5F5F5F5F5F5F5F5F5F5F5F5F5F5F5F5F5F5F5F5F5F5F5F5F5F5F5F5F5F5F5F5F5F5F5F5F5F5F5E2F5F5F5F5F5F5F5F5F5
310
F5F5F5F5F5F5F5E2F5F5F5F5E2E2F5F5F5F5E2F5F5F5F5F5F5F5F5F5F5F5F5F5F5F5F5E2F5F5F5F5F5F5F5F5F5F5F5F5F5F5F5F5F5F5F5F5F5F5F5F5F5F5F5F5F5F5F5F5F5F5F5F5F5F5F5F5F5F5F5F5F5F5F5F5F5F5F5F5F5F5F5F5F5F5F5F5F5F5F5F5F5F5F5F5F5F5F5F5F5F5F5F5F5F5F5F5F5F5F5F5F5F5F5F5F5F5F5
310
F5F5F5F5F5F5F5F5F5F5F5F5F5F5F5F5F5F5F5F5F5F5F5F5F5F5F5F5F5F5F5F5F5F5F5F5F5F5F5F5F5F5F5E2F5F5F5F5F5F5F5F5F5F5F5F5F5F5F5F5E2F5F5F5F5E2E2F5F5F5F5E2F5F5F5F5F5F5F5F5F5F5F5F5F5F5F5F5E2F5F5F5F5F5F5F5F5F5F5F5F5F5F5F5F5F5F5F5F5F5F5F5F5F5F5F5F5F5F5F5F5F5F5F5F5F5F5
310
F5F5F5F5F5F5F5F5F5F5F5F5F5F5F5F5F5F5F5F5F5F5F5F5F5F5F5F5F5F5F5F5F5F5F5F5F5F5F5F5F5F5F5F5F5F5F5F5F5F5F5F5F5F5F5F5F5F5F5F5F5F5F5F5F5F5F5F5F5F5F5F5F5F5F5F5F5F5F5F5F5F5F5F5F5F5F5F5F5F5F5F5F5F5F5F5E2F5F5F5F5F5F5F5F5F5F5F5F5F5F5F5F5E2F5F5F5F5E2E2F5F5F5F5E2F5F5
310
F5F5F5F5F5F5F5F5F5F5F5F5F5F5E2F5F5F5F5F5F5F5F5F5F5F5F5F5F5F5F5F5F5F5F5F5F5F5F5F5F5F5F5F5F5F5F5F5F5F5F5F5F5F5F5F5F5F5F5F5F5F5F5F5F5F5F5F5F5F5F5F5F5F5F5F5F5F5F5F5F5F5F5F5F5F5F5F5F5F5F5F5F5F5F5F5F5F5F5F5F5F5F5F5F5F5F5F5F5F5F5F5F5F5F5F5F5F5F5F5F5F5F5F5F5F5F5
310
F5F5F5F5F5F5F5F5F5F5F5F5F5F5F5F5F5F5F5F5F5F5E2F5F5F5F5F5F5F5F5F5F5F5F5F5F5F5F5E2F5F5F5F5E2E2F5F5F5F5F5F5F5F5F5F5F5F5F5F5F5F5F5F5F5F5F5E2F5F5F5F5F5F5F5F5F5F5F5F5F5F5F5F5F5F5F5F5F5F5F5F5F5F5F5F5F5F5F5F5F5F5F5F5F5F5F5F5F5F5F5F5F5F5F5F5F5F5F5F5F5F5F5F5F5F5F5
310
F5F5F5F5F5F5F5F5F5F5F5F5F5F5F5F5F5F5F5F5F5F5F5F5F5F5F5F5F5F5F5F5F5F5F5F5F5F5F5F5F5F5F5F5F5F5F5F5F5F5F5F5F5F5F5F5F5F5F5F5F5F5F5F5F5F5F5F5F5F5F5F5F5F5F5E2F5F5F5F5F5F5F5F5F5F5F5F5F5F5F5F5F5F5F5F5F5E2E2F5F5F5F5F5F5F5F5F5F5F5F5F5F5F5F5F5F5F5F5F5E2F5F5F5F5F5F5
310
F5F5F5F5F5F5F5F5F5F5F5F5F5F5F5F5F5F5F5F5F5F5F5F5F5F5F5F5F5F5F5F5F5F5F5F5F5F5F5F5F5F5F5F5F5F5F5F5F5F5F5F5F5F5F5F5F5F5F5F5F5F5F5F5F5F5F5F5F5F5F5F5F5F5F5F5F5F5F5F5F5F5F5F5F5F5F5F5F5F5F5F5F5F5F5F5F5F5F5F5F5F5F5F5F5F5F5F5F5F5F5F5F5F5F5F5F5F5F5F5F5F5F5F5F5F5F5
310
F5E2F5F5F5F5F5F5F5F5F5F5F5F5F5F5F5F5F5F5F5F5F5E2E2F5F5F5F5F5F5F5F5F5F5F5F5F5F5F5F5F5F5F5F5F5E2F5F5F5F5F5F5F5F5F5F5F5F5F5F5F5F5F5F5F5F5F5F5F5F5F5F5F5F5F5F5F5F5F5F5F5F5F5F5F5F5F5F5F5F5F5F5F5F5F5F5F5F5F5F5F5F5F5F5F5F5F5F5F5F5F5F5F5F5F5F5F5F5F5F5F5F5F5F5F5F5
310
F5F5F5F5F5F5F5F5F5F5F5F5F5F5F5F5F5F5F5F5F5F5F5F5F5F5F5F5F5F5F5F5F5F5F5F5F5F5F5F5F5F5F5F5F5F5F5F5F5F5F5F5F5F5E2F5F5F5F5F5F5F5F5F5F5F5F5F5F5F5F5F5F5F5F5F5E2E2F5F5F5F5F5F5F5F5F5F5F5F5F5F5F5F5F5F5F5F5F5E2F5F5F5F5F5F5F5F5F5F5F5F5F5F5F5F5F5F5F5F5F5F5F5F5F5F5F5
310
F5F5F5F5F5F5F5F5F5F5F5F5F5F5F5F5F5F5F5F5F5F5F5F5F5F5F5F5F5F5F5F5F5F5F5F5F5F5F5F5F5F5F5F5F5F5F5F5F5F5F5F5F5F5F5F5F5F5F5F5F5F5F5F5F5F5F5F5F5F5F5F5F5F5F5F5F5F5F5F5F5F5F5F5F5F5F5F5F5F5F5F5F5F5F5F5F5F5F5F5F5F5F5F5F5F5F5E2F5F5F5F5F5F5F5F5F5F5F5F5F5F5F5F5F5F5F5
310
F5F5E2E2F5F5F5F5F5F5F5F5F5F5F5F5F5F5F5F5F5F5F5F5F5E2F5F5F5F5F5F5F5F5F5F5F5F5F5F5F5F5F5F5F5F5F5F5F5F5F5F5F5F5F5F5F5F5F5F5F5F5F5F5F5F5F5F5F5F5F5F5F5F5F5F5F5F5F5F5F5F5F5F5F5F5F5F5F5F5F5F5F5F5F5F5F5F5F5F5F5F5F5F5F5F5F5F5F5F5F5F5F5F5F5F5F5F5F5F5F5F5F5F5F5F5F5
310
F5F5F5F5F5F5F5F5F5F5F5F5F5F5F5F5F5F5F5F5F5F5F5F5F5F5F5F5F5F5F5F5F5E2F5F5F5F5F5F5F5F5F5F5F5F5F5F5F5F5F5F5F5F5F5E2E2F5F5F5F5F5F5F5F5F5F5F5F5F5F5F5F5F5F5F5F5F5E2F5F5F5F5F5F5F5F5F5F5F5F5F5F5F5F5F5F5F5F5F5F5F5F5F5F5F5F5F5F5F5F5F5F5F5F5F5F5F5F5F5F5F5F5F5F5F5F5
310
F5F5F5F5F5F5F5F5F5F5F5F5F5F5F5F5F5F5F5F5F5F5F5F5F5F5F5F5F5F5F5F5F5F5F5F5F5F5F5F5F5F5F5F5F5F5F5F5F5F5F5F5F5F5F5F5F5F5F5F5F5F5F5F5F5F5F5F5F5F5F5F5F5F5F5F5F5F5F5F5F5F5F5F5F5F5E2F5F5F5F5F5F5F5F5F5F5F5F5F5F5F5F5F5F5F5F5F5E2E2F5F5F5F5F5F5F5F5F5F5F5F5F5F5F5F5F5
310
F5F5F5F5E2F5F5F5F5F5F5F5F5F5F5F5F5F5F5F5F5F5F5F5F5F5F5F5F5F5F5F5F5F5F5F5F5F5F5F5F5F5F5F5F5F5F5F5F5F5F5F5F5F5F5F5F5F5F5F5F5F5F5F5F5F5F5F5F5F5F5F5F5F5F5F5F5F5F5F5F5F5F5F5F5F5F5F5F5F5F5F5F5F5F5F5F5F5F5F5F5F5F5F5F5F5F5F5F5F5F5F5F5F5F5F5F5F5F5F5F5F5F5F5F5F5F5
310
F5F5F5F5F5F5F5F5F5F5F5F5E2F5F5F5F5F5F5F5F5F5F5F5F5F5F5F5F5F5F5F5F5F5E2E2F5F5F5F5F5F5F5F5F5F5F5F5F5F5F5F5F5F5F5F5F5E2F5F5F5F5F5F5F5F5F5F5F5F5F5F5F5F5F5F5F5F5F5F5F5F5F5F5F5F5F5F5F5F5F5F5F5F5F5F5F5F5F5F5F5F5F5F5F5F5F5F5F5F5F5F5F5F5F5F5F5F5F5F5F5F5F5F5F5F5F5
310
F5F5F5F5F5F5F5F5F5F5F5F5F5F5F5F5F5F5F5F5F5F5F5F5F5F5F5F5F5F5F5F5F5F5F5F5F5F5F5F5F5F5F5F5F5F5F5F5F5F5F5F5F5F5F5F5F5F5F5F5F5F5F5F5F5E2F5F5F5F5F5F5F5F5F5F5F5F5F5F5F5F5F5F5F5F5F5E2E2F5F5F5F5F5F5F5F5F5F5F5F5F5F5F5F5F5F5F5F5F5E2F5F5F5F5F5F5F5F5F5F5F5F5F5F5F5F5
310
F5F5F5F5F5F5F5F5F5F5F5F5F5F5F5F5F5F5F5F5F5F5F5F5F5F5F5F5F5F5F5F5F5F5F5F5F5F5F5F5F5F5F5F5F5F5F5F5F5F5F5F5F5F5F5F5F5F5F5F5F5F5F5F5F5F5F5F5F5F5F5F5F5F5F5F5F5F5F5F5F5F5F5F5F5F5F5F5F5F5F5F5F5F5F5F5F5F5F5F5F5F5F5F5F5F5F5F5F5F5F5F5F5F5F5F5F5F5E2F5F5F5F5F5F5F5F5
310
F5F5F5F5F5F5F5F5F5F5F5F5F5E2E2F5F5F5F5E2F5F5F5F5F5F5F5F5F5F5F5F5F5F5F5F5E2F5F5F5F5F5F5F5F5F5F5F5F5F5F5F5F5F5F5F5F5F5F5F5F5F5F5F5F5F5F5F5F5F5F5F5F5F5F5F5F5F5F5F5F5F5F5F5F5F5F5F5F5F5F5F5F5F5F5F5F5F5F5F5F5F5F5F5F5F5F5F5F5F5F5F5F5F5F5F5F5F5F5F5F5F5F5F5F5F5F5
310
F5F5F5F5F5F5F5F5F5F5F5F5F5F5F5F5F5F5F5F5F5F5F5F5F5F5F5F5F5F5F5F5F5F5F5F5F5F5F5F5F5F5F5F5E2F5F5F5F5F5F5F5F5F5F5F5F5F5F5F5F5E2F5F5F5F5E2E2F5F5F5F5E2F5F5F5F5F5F5F5F5F5F5F5F5F5F5F5F5E2F5F5F5F5F5F5F5F5F5F5F5F5F5F5F5F5F5F5F5F5F5F5F5F5F5F5F5F5F5F5F5F5F5F5F5F5F5
310
F5F5F5F5F5F5F5F5F5F5F5F5F5F5F5F5F5F5F5F5F5F5F5F5F5F5F5F5F5F5F5F5F5F5F5F5F5F5F5F5F5F5F5F5F5F5F5F5F5F5F5F5F5F5F5F5F5F5F5F5F5F5F5F5F5F5F5F5F5F5F5F5F5F5F5F5F5F5F5F5F5F5F5F5F5F5F5F5F5F5F5F5F5F5F5F5F5E2F5F5F5F5F5F5F5F5F5F5F5F5F5F5F5F5E2F5F5F5F5E2E2F5F5F5F5E2F5
310
F5F5F5F5F5F5F5F5F5F5F5F5F5F5F5E2F5F5F5F5F5F5F5F5F5F5F5F5F5F5F5F5F5F5F5F5F5F5F5F5F5F5F5F5F5F5F5F5F5F5F5F5F5F5F5F5F5F5F5F5F5F5F5F5F5F5F5F5F5F5F5F5F5F5F5F5F5F5F5F5F5F5F5F5F5F5F5F5F5F5F5F5F5F5F5F5F5F5F5F5F5F5F5F5F5F5F5F5F5F5F5F5F5F5F5F5F5F5F5F5F5F5F5F5F5F5F5
310
F5F5F5F5F5F5F5F5F5F5F5F5F5F5F5F5F5F5F5F5F5F5F5E2F5F5F5F5F5F5F5F5F5F5F5F5F5F5F5F5E2F5F5F5F5E2E2F5F5F5F5E2F5F5F5F5F5F5F5F5F5F5F5F5F5F5F5F5E2F5F5F5F5F5F5F5F5F5F5F5F5F5F5F5F5F5F5F5F5F5F5F5F5F5F5F5F5F5F5F5F5F5F5F5F5F5F5F5F5F5F5F5F5F5F5F5F5F5F5F5F5F5F5F5F5F5F5
310
F5F5F5F5F5F5F5F5F5F5F5F5F5F5F5F5F5F5F5F5F5F5F5F5F5F5F5F5F5F5F5F5F5F5F5F5F5F5F5F5F5F5F5F5F5F5F5F5F5F5F5F5F5F5F5F5F5F5F5F5F5F5F5F5F5F5F5F5F5F5F5F5F5F5F5F5E2F5F5F5F5F5F5F5F5F5F5F5F5F5F5F5F5E2F5F5F5F5E2E2F5F5F5F5E2F5F5F5F5F5F5F5F5F5F5F5F5F5F5F5F5E2F5F5F5F5F5
310
F5F5F5F5F5F5F5F5F5F5F5F5F5F5F5F5F5F5F5F5F5F5F5F5F5F5F5F5F5F5F5F5F5F5F5F5F5F5F5F5F5F5F5F5F5F5F5F5F5F5F5F5F5F5F5F5F5F5F5F5F5F5F5F5F5F5F5F5F5F5F5F5F5F5F5F5F5F5F5F5F5F5F5F5F5F5F5F5F5F5F5F5F5F5F5F5F5F5F5F5F5F5F5F5F5F5F5F5F5F5F5F5F5F5F5F5F5F5F5F5F5F5F5F5F5F5F5
310
F5F5E2F5F5F5F5F5F5F5F5F5F5F5F5F5F5F5F5E2F5F5F5F5E2E2F5F5F5F5E2F5F5F5F5F5F5F5F5F5F5F5F5F5F5F5F5E2F5F5F5F5F5F5F5F5F5F5F5F5F5F5F5F5F5F5F5F5F5F5F5F5F5F5F5F5F5F5F5F5F5F5F5F5F5F5F5F5F5F5F5F5F5F5F5F5F5F5F5F5F5F5F5F5F5F5F5F5F5F5F5F5F5F5F5F5F5F5F5F5F5F5F5F5F5F5F5
310
F5F5F5F5F5F5F5F5F5F5F5F5F5F5F5F5F5F5F5F5F5F5F5F5F5F5F5F5F5F5F5F5F5F5F5F5F5F5F5F5F5F5F5F5F5F5F5F5F5F5F5F5F5F5F5E2F5F5F5F5F5F5F5F5F5F5F5F5F5F5F5F5E2F5F5F5F5E2E2F5F5F5F5E2F5F5F5F5F5F5F5F5F5F5F5F5F5F5F5F5E2F5F5F5F5F5F5F5F5F5F5F5F5F5F5F5F5F5F5F5F5F5F5F5F5F5F5
310
F5F5F5F5F5F5F5F5F5F5F5F5F5F5F5F5F5F5F5F5F5F5F5F5F5F5F5F5F5F5F5F5F5F5F5F5F5F5F5F5F5F5F5F5F5F5F5F5F5F5F5F5F5F5F5F5F5F5F5F5F5F5F5F5F5F5F5F5F5F5F5F5F5F5F5F5F5F5F5F5F5F5F5F5F5F5F5F5F5F5F5F5F5F5F5F5F5F5F5F5F5F5F5F5F5F5F5F5E2F5F5F5F5F5F5F5F5F5F5F5F5F5F5F5F5E2F5
310
F5F5F5E2E2F5F5F5F5E2F5F5F5F5F5F5F5F5F5F5F5F5F5F5F5F5E2F5F5F5F5F5F5F5F5F5F5F5F5F5F5F5F5F5F5F5F5F5F5F5F5F5F5F5F5F5F5F5F5F5F5F5F5F5F5F5F5F5F5F5F5F5F5F5F5F5F5F5F5F5F5F5F5F5F5F5F5F5F5F5F5F5F5F5F5F5F5F5F5F5F5F5F5F5F5F5F5F5F5F5F5F5F5F5F5F5F5F5F5F5F5F5F5F5F5F5F5
310
F5F5F5F5F5F5F5F5F5F5F5F5F5F5F5F5F5F5F5F5F5F5F5F5F5F5F5F5F5F5F5F5F5F5E2F5F5F5F5F5F5F5F5F5F5F5F5F5F5F5F5E2F5F5F5F5E2E2F5F5F5F5E2F5F5F5F5F5F5F5F5F5F5F5F5F5F5F5F5E2F5F5F5F5F5F5F5F5F5F5F5F5F5F5F5F5F5F5F5F5F5F5F5F5F5F5F5F5F5F5F5F5F5F5F5F5F5F5F5F5F5F5F5F5F5F5F5
310
F5F5F5F5F5F5F5F5F5F5F5F5F5F5F5F5F5F5F5F5F5F5F5F5F5F5F5F5F5F5F5F5F5F5F5F5F5F5F5F5F5F5F5F5F5F5F5F5F5F5F5F5F5F5F5F5F5F5F5F5F5F5F5F5F5F5F5F5F5F5F5F5F5F5F5F5F5F5F5F5F5F5F5F5F5F5F5E2F5F5F5F5F5F5F5F5F5F5F5F5F5F5F5F5E2F5F5F5F5E2E2F5F5F5F5E2F5F5F5F5F5F5F5F5F5F5F5
310
F5F5F5F5F5E2F5F5F5F5F5F5F5F5F5F5F5F5F5F5F5F5F5F5F5F5F5F5F5F5F5F5F5F5F5F5F5F5F5F5F5F5F5F5F5F5F5F5F5F5F5F5F5F5F5F5F5F5F5F5F5F5F5F5F5F5F5F5F5F5F5F5F5F5F5F5F5F5F5F5F5F5F5F5F5F5F5F5F5F5F5F5F5F5F5F5F5F5F5F5F5F5F5F5F5F5F5F5F5F5F5F5F5F5F5F5F5F5F5F5F5F5F5F5F5F5F5
310
F5F5F5F5F5F5F5F5F5F5F5F5F5E2F5F5F5F5F5F5F5F5F5F5F5F5F5F5F5F5E2F5F5F5F5E2E2F5F5F5F5E2F5F5F5F5F5F5F5F5F5F5F5F5F5F5F5F5E2F5F5F5F5F5F5F5F5F5F5F5F5F5F5F5F5F5F5F5F5F5F5F5F5F5F5F5F5F5F5F5F5F5F5F5F5F5F5F5F5F5F5F5F5F5F5F5F5F5F5F5F5F5F5F5F5F5F5F5F5F5F5F5F5F5F5F5F5
310
F5F5F5F5F5F5F5F5F5F5F5F5F5F5F5F5F5F5F5F5F5F5F5F5F5F5F5F5F5F5F5F5F5F5F5F5F5F5F5F5F5F5F5F5F5F5F5F5F5F5F5F5F5F5F5F5F5F5F5F5F5F5F5F5F5F5E2F5F5F5F5F5F5F5F5F5F5F5F5F5F5F5F5E2F5F5F5F5E2E2F5F5F5F5E2F5F5F5F5F5F5F5F5F5F5F5F5F5F5F5F5E2F5F5F5F5F5F5F5F5F5F5F5F5F5F5F5
310
F5F5F5F5F5F5F5F5F5F5F5F5F5F5F5F5F5F5F5F5F5F5F5F5F5F5F5F5F5F5F5F5F5F5F5F5F5F5F5F5F5F5F5F5F5F5F5F5F5F5F5F5F5F5F5F5F5F5F5F5F5F5F5F5F5F5F5F5F5F5F5F5F5F5F5F5F5F5F5F5F5F5F5F5F5F5F5F5F5F5F5F5F5F5F5F5F5F5F5F5F5F5F5F5F5F5F5F5F5F5F5F5F5F5F5F5F5F5F5E2F5F5F5F5F5F5F5
310
F5F5F5F5F5F5F5F5F5E2F5F5F5F5E2E2F5F5F5F5E2F5F5F5F5F5F5F5F5F5F5F5F5F5F5F5F5E2F5F5F5F5F5F5F5F5F5F5F5F5F5F5F5F5F5F5F5F5F5F5F5F5F5F5F5F5F5F5F5F5F5F5F5F5F5F5F5F5F5F5F5F5F5F5F5F5F5F5F5F5F5F5F5F5F5F5F5F5F5F5F5F5F5F5F5F5F5F5F5F5F5F5F5F5F5F5F5F5F5F5F5F5F5F5F5F5F5
310
F5F5F5F5F5F5F5F5F5F5F5F5F5F5F5F5F5F5F5F5F5F5F5F5F5F5F5F5F5F5F5F5F5F5F5F5F5F5F5F5F5F5F5F5F5E2F5F5F5F5F5F5F5F5F5F5F5F5F5F5F5F5E2F5F5F5F5E2E2F5F5F5F5E2F5F5F5F5F5F5F5F5F5F5F5F5F5F5F5F5E2F5F5F5F5F5F5F5F5F5F5F5F5F5F5F5F5F5F5F5F5F5F5F5F5F5F5F5F5F5F5F5F5F5F5F5F5
310
F5F5F5F5F5F5F5F5F5F5F5F5F5F5F5F5F5F5F5F5F5F5F5F5F5F5F5F5F5F5F5F5F5F5F5F5F5F5F5F5F5F5F5F5F5F5F5F5F5F5F5F5F5F5F5F5F5F5F5F5F5F5F5F5F5F5F5F5F5F5F5F5F5F5F5F5F5F5F5F5F5F5F5F5F5F5F5F5F5F5F5F5F5F5F5F5F5F5E2F5F5F5F5F5F5F5F5F5F5F5F5F5F5F5F5E2F5F5F5F5E2E2F5F5F5F5E2
310
F5F5F5F5F5F5F5F5F5F5F5F5F5F5F5F5E2F5F5F5F5F5F5F5F5F5F5F5F5F5F5F5F5F5F5F5F5F5F5F5F5F5F5F5F5F5F5F5F5F5F5F5F5F5F5F5F5F5F5F5F5F5F5F5F5F5F5F5F5F5F5F5F5F5F5F5F5F5F5F5F5F5F5F5F5F5F5F5F5F5F5F5F5F5F5F5F5F5F5F5F5F5F5F5F5F5F5F5F5F5F5F5F5F5F5F5F5F5F5F5F5F5F5F5F5F5F5
310
F5F5F5F5F5F5F5F5F5F5F5F5F5F5F5F5F5F5F5F5F5F5F5F5E2F5F5F5F5F5F5F5F5F5F5F5F5F5F5F5F5E2F5F5F5F5E2E2F5F5F5F5E2F5F5F5F5F5F5F5F5F5F5F5F5F5F5F5F5E2F5F5F5F5F5F5F5F5F5F5F5F5F5F5F5F5F5F5F5F5F5F5F5F5F5F5F5F5F5F5F5F5F5F5F5F5F5F5F5F5F5F5F5F5F5F5F5F5F5F5F5F5F5F5F5F5F5
310
F5F5F5F5F5F5F5F5F5F5F5F5F5F5F5F5F5F5F5F5F5F5F5F5F5F5F5F5F5F5F5F5F5F5F5F5F5F5F5F5F5F5F5F5F5F5F5F5F5F5F5F5F5F5F5F5F5F5F5F5F5F5F5F5F5F5F5F5F5F5F5F5F5F5F5F5F5E2F5F5F5F5F5F5F5F5F5F5F5F5F5F5F5F5E2F5F5F5F5E2E2F5F5F5F5E2F5F5F5F5F5F5F5F5F5F5F5F5F5F5F5F5E2F5F5F5F5
310
F5F5F5F5F5F5F5F5F5F5F5F5F5F5F5F5F5F5F5F5F5F5F5F5F5F5F5F5F5F5F5F5F5F5F5F5F5F5F5F5F5F5F5F5F5F5F5F5F5F5F5F5F5F5F5F5F5F5F5F5F5F5F5F5F5F5F5F5F5F5F5F5F5F5F5F5F5F5F5F5F5F5F5F5F5F5F5F5F5F5F5F5F5F5F5F5F5F5F5F5F5F5F5F5F5F5F5F5F5F5F5F5F5F5F5F5F5F5F5F5F5F5F5F5F5F5F5
310
F5F5F5E2F5F5F5F5F5F5F5F5F5F5F5F5F5F5F5F5E2F5F5F5F5E2E2F5F5F5F5F5F5F5F5F5F5F5F5F5F5F5F5F5F5F5F5F5E2F5F5F5F5F5F5F5F5F5F5F5F5F5F5F5F5F5F5F5F5F5F5F5F5F5F5F5F5F5F5F5F5F5F5F5F5F5F5F5F5F5F5F5F5F5F5F5F5F5F5F5F5F5F5F5F5F5F5F5F5F5F5F5F5F5F5F5F5F5F5F5F5F5F5F5F5F5F5
310
F5F5F5F5F5F5F5F5F5F5F5F5F5F5F5F5F5F5F5F5F5F5F5F5F5F5F5F5F5F5F5F5F5F5F5F5F5F5F5F5F5F5F5F5F5F5F5F5F5F5F5F5F5F5F5F5E2F5F5F5F5F5F5F5F5F5F5F5F5F5F5F5F5F5F5F5F5F5E2E2F5F5F5F5F5F5F5F5F5F5F5F5F5F5F5F5F5F5F5F5F5E2F5F5F5F5F5F5F5F5F5F5F5F5F5F5F5F5F5F5F5F5F5F5F5F5F5
310
F5F5F5F5F5F5F5F5F5F5F5F5F5F5F5F5F5F5F5F5F5F5F5F5F5F5F5F5F5F5F5F5F5F5F5F5F5F5F5F5F5F5F5F5F5F5F5F5F5F5F5F5F5F5F5F5F5F5F5F5F5F5F5F5F5F5F5F5F5F5F5F5F5F5F5F5F5F5F5F5F5F5F5F5F5F5F5F5F5F5F5F5F5F5F5F5F5F5F5F5F5F5F5F5F5F5F5F5F5E2F5F5F5F5F5F5F5F5F5F5F5F5F5F5F5F5F5
310
F5F5F5F5E2E2F5F5F5F5F5F5F5F5F5F5F5F5F5F5F5F5F5F5F5F5F5E2F5F5F5F5F5F5F5F5F5F5F5F5F5F5F5F5F5F5F5F5F5F5F5F5F5F5F5F5F5F5F5F5F5F5F5F5F5F5F5F5F5F5F5F5F5F5F5F5F5F5F5F5F5F5F5F5F5F5F5F5F5F5F5F5F5F5F5F5F5F5F5F5F5F5F5F5F5F5F5F5F5F5F5F5F5F5F5F5F5F5F5F5F5F5F5F5F5F5F5
310
F5F5F5F5F5F5F5F5F5F5F5F5F5F5F5F5F5F5F5F5F5F5F5F5F5F5F5F5F5F5F5F5F5F5F5E2F5F5F5F5F5F5F5F5F5F5F5F5F5F5F5F5F5F5F5F5F5E2E2F5F5F5F5F5F5F5F5F5F5F5F5F5F5F5F5F5F5F5F5F5E2F5F5F5F5F5F5F5F5F5F5F5F5F5F5F5F5F5F5F5F5F5F5F5F5F5F5F5F5F5F5F5F5F5F5F5F5F5F5F5F5F5F5F5F5F5F5
310
F5F5F5F5F5F5F5F5F5F5F5F5F5F5F5F5F5F5F5F5F5F5F5F5F5F5F5F5F5F5F5F5F5F5F5F5F5F5F5F5F5F5F5F5F5F5F5F5F5F5F5F5F5F5F5F5F5F5F5F5F5F5F5F5F5F5F5F5F5F5F5F5F5F5F5F5F5F5F5F5F5F5F5F5F5F5F5F5E2F5F5F5F5F5F5F5F5F5F5F5F5F5F5F5F5F5F5F5F5F5E2E2F5F5F5F5F5F5F5F5F5F5F5F5F5F5F5
310
F5F5F5F5F5F5E2E2E2E2E2E2E2E2E2E2E2E2E2E2E2E2E2E2E2E2E2E2E2E2E2E2E2E2E2E2E2E2E2E2E2E2E2E2E2E2E2E2E2E2E2E2E2E2E2E2E2E2E2E2E2E2E2E2E2E2E2E2E2E2E2E2E2E2E2E2E2E2E2E2E2E2E2E2E2E2E2E2E2E2E2E2E2E2E2E2E2E2E2E2E2E2E2E2E2E2E2E2E2E2E2E2E2E2E2E2E2E2E2E2E2E2E2E2E2E2E2
310
E2E2E2E2E2E2E2E2E2E2E2E2E2E2E2F5F5F5F5F5F5F5F5F5F5F5F5F5F5F5F5F5F5F5F5F5E2E2F5F5F5F5F5F5F5F5F5F5F5F5F5F5F5F5F5F5F5F5F5F5F5F5F5F5F5F5F5F5F5F5F5F5F5F5F5F5F5F5F5F5F5F5F5F5F5F5F5F5F5F5F5F5F5F5F5F5F5F5F5F5F5F5F5F5F5F5F5F5F5F5F5F5F5F5F5F5F5F5F5F5F5F5F5F5F5F5F5
310
F5F5F5F5F5F5F5F5F5F5F5F5F5F5F5F5F5F5F5F5F5F5F5F5F5F5F5F5F5F5F5F5F5F5F5F5F5F5F5F5F5F5F5F5F5F5F5F5F5F5F5F5F5F5F5F5F5F5F5F5F5F5F5F5F5F5F5F5F5F5F5F5F5F5F5F5F5F5F5F5F5F5F5F5F5F5F5F5F5E2E2F5F5F5F5F5F5F5F5F5F5F5F5F5F5F5F5F5F5F5F5F5F5F5F5F5F5F5F5F5F5F5F5F5F5F5F5
310
F5F5F5F5F5F5F5F5F5F5F5F5F5F5F5F5F5F5F5F5F5F5F5F5F5F5F5F5F5F5F5F5F5F5F5F5F5F5F5F5F5F5F5F5F5F5F5F5F5F5F5F5F5F5F5F5F5F5F5F5F5F5F5F5F5F5F5F5F5F5F5F5F5F5F5F5F5F5F5F5F5F5F5F5F5F5F5F5F5F5F5F5F5F5F5F5F5F5F5F5F5F5F5F5F5F5F5F5F5F5F5F5F5F5F5F5F5F5F5F5F5F5F5F5F5F5F5
310
F5F5F5F5F5F5F5F5F5F5F5F5F5F5F5E2E2F5F5F5F5F5F5F5F5F5F5F5F5F5F5F5F5F5F5F5F5F5F5F5F5F5F5F5F5F5F5F5F5F5F5F5F5F5F5F5F5F5F5F5F5F5F5F5F5F5F5F5F5F5F5F5F5F5F5F5F5F5F5F5F5F5F5F5F5F5F5F5F5F5F5F5F5F5F5F5F5F5F5F5F5F5F5F5F5F5F5F5F5F5F5F5F5F5F5F5F5F5F5F5F5F5F5F5F5F5F5
310
F5F5F5F5F5F5F5F5F5F5F5F5F5F5F5F5F5F5F5F5F5F5F5F5F5F5F5F5F5F5F5F5F5F5F5F5F5F5F5F5F5F5F5F5F5F5F5F5F5F5F5F5F5F5F5F5F5F5F5F5F5F5F5F5F5F5F5F5E2E2F5F5F5F5F5F5F5F5F5F5F5F5F5F5F5F5F5F5F5F5F5F5F5F5F5F5F5F5F5F5F5F5F5F5F5F5F5F5F5F5F5F5F5F5F5F5F5F5F5F5F5F5F5F5F5F5F5
310
F5F5F5F5F5F5F5F5F5F5F5F5F5F5F5F5F5F5F5F5F5F5F5F5F5F5F5F5F5F5F5F5F5F5F5F5F5F5F5F5F5F5F5F5F5F5F5F5F5F5F5F5F5F5F5F5F5F5F5F5F5F5F5F5F5F5F5F5F5F5F5F5F5F5F5F5F5F5F5F5F5F5F5F5F5F5F5F5F5F5F5F5F5F5F5F5F5F5F5F5F5F5F5F5F5F5F5F5F5F5F5F5F5F5F5F5F5F5F5F5F5E2E2F5F5F5F5
310
E2F5F5F5F5F5F5F5F5F5F5F5F5F5F5F5F5F5F5F5F5F5F5F5F5F5F5F5F5F5F5F5F5F5F5F5F5F5F5F5F5F5F5F5F5F5F5F5F5F5F5F5F5F5F5F5F5F5F5F5F5F5F5F5F5F5F5F5F5F5F5F5F5F5F5F5F5F5F5F5F5F5F5F5F5F5F5F5F5F5F5F5F5F5F5F5F5F5F5F5F5F5F5F5F5F5F5F5F5F5F5F5F5F5F5F5F5F5F5F5F5F5F5F5F5F5F5
310
F5F5F5F5F5F5F5F5F5F5F5F5F5F5F5F5F5F5F5F5F5F5F5F5F5F5F5F5F5F5F5F5F5F5F5F5F5F5F5F5F5F5E2F5F5F5F5E2E2F5F5F5F5E2F5F5F5F5F5F5F5F5F5F5F5F5F5F5F5F5F5F5F5F5F5F5F5F5F5F5F5F5F5F5F5F5F5F5F5F5F5F5F5F5F5F5F5F5F5F5F5F5F5F5F5F5F5F5F5F5F5F5F5F5F5F5F5F5F5F5F5F5F5F5F5F5F5
310
F5F5F5F5F5F5F5F5F5F5F5F5F5F5F5F5F5F5F5F5F5F5F5F5F5F5F5F5F5F5F5F5F5F5F5F5F5F5F5F5F5F5F5F5F5F5F5F5F5F5F5F5F5F5F5F5F5F5F5F5F5F5F5F5F5F5F5F5F5F5F5F5F5F5F5F5F5F5F5F5F5F5F5F5F5F5F5F5F5F5F5F5F5F5F5E2F5F5F5F5E2E2F5F5F5F5E2F5F5F5F5F5F5F5F5F5F5F5F5F5F5F5F5F5F5F5F5
310
F5F5F5F5F5F5F5F5F5F5F5F5F5F5F5F5F5F5F5F5F5F5F5F5F5F5F5F5F5F5F5F5F5F5F5F5F5F5F5F5F5F5F5F5F5F5F5F5F5F5F5F5F5F5F5F5F5F5F5F5F5F5F5F5F5F5F5F5F5F5F5F5F5F5F5F5F5F5F5F5F5F5F5F5F5F5F5F5F5F5F5F5F5F5F5F5F5F5F5F5F5F5F5F5F5F5F5F5F5F5F5F5F5F5F5F5F5F5F5F5F5F5F5F5F5F5F5
310
F5F5F5F5F5F5F5F5F5F5F5F5F5F5F5F5F5F5F5F5F5E2F5F5F5F5E2E2F5F5F5F5E2F5F5F5F5F5F5F5F5F5F5F5F5F5F5F5F5F5F5F5F5F5F5F5F5F5F5F5F5F5F5F5F5F5F5F5F5F5F5F5F5F5F5F5F5F5F5F5F5F5F5F5F5F5F5F5F5F5F5F5F5F5F5F5F5F5F5F5F5F5F5F5F5F5F5F5F5F5F5F5F5F5F5F5F5F5F5F5F5F5F5F5F5F5F5
310
F5F5F5F5F5F5F5F5F5F5F5F5F5F5F5F5F5F5F5F5F5F5F5F5F5F5F5F5F5F5F5F5F5F5F5F5F5F5F5F5F5F5F5F5F5F5F5F5F5F5F5F5F5F5F5F5F5F5F5F5F5F5F5F5F5F5F5F5F5F5F5F5F5F5E2F5F5F5F5E2E2F5F5F5F5E2F5F5F5F5F5F5F5F5F5F5F5F5F5F5F5F5F5F5F5F5F5F5F5F5F5F5F5F5F5F5F5F5F5F5F5F5F5F5F5F5F5
310
F5F5F5F5F5F5F5F5F5F5F5F5F5F5F5F5F5F5F5F5F5F5F5F5F5F5F5F5F5F5F5F5F5F5F5F5F5F5F5F5F5F5F5F5F5F5F5F5F5F5F5F5F5F5F5F5F5F5F5F5F5F5F5F5F5F5F5F5F5F5F5F5F5F5F5F5F5F5F5F5F5F5F5F5F5F5F5F5F5F5F5F5F5F5F5F5F5F5F5F5F5F5F5F5F5F5F5F5F5F5F5F5F5F5F5F5F5F5F5F5F5F5F5F5F5F5F5
310
E2F5F5F5F5E2E2F5F5F5F5E2F5F5F5F5F5F5F5F5F5F5F5F5F5F5F5F5F5F5F5F5F5F5F5F5F5F5F5F5F5F5F5F5F5F5F5F5F5F5F5F5F5F5F5F5F5F5F5F5F5F5F5F5F5F5F5F5F5F5F5F5F5F5F5F5F5F5F5F5F5F5F5F5F5F5F5F5F5F5F5F5F5F5F5F5F5F5F5F5F5F5F5F5F5F5F5F5F5F5F5F5F5F5F5F5F5F5F5F5F5F5F5F5F5F5F5
310
F5F5F5F5F5F5F5F5F5F5F5F5F5F5F5F5F5F5F5F5F5F5F5F5F5F5F5F5F5F5F5F5F5F5F5F5F5F5F5F5F5F5F5F5F5F5F5F5F5F5F5F5F5E2F5F5F5F5E2E2F5F5F5F5E2F5F5F5F5F5F5F5F5F5F5F5F5F5F5F5F5F5F5F5F5F5F5F5F5F5F5F5F5F5F5F5F5F5F5F5F5F5F5F5F5F5F5F5F5F5F5F5F5F5F5F5F5F5F5F5F5F5F5F5F5F5F5
310
F5F5F5F5F5F5F5F5F5F5F5F5F5F5F5F5F5F5F5F5F5F5F5F5F5F5F5F5F5F5F5F5F5F5F5F5F5F5F5F5F5F5F5F5F5F5F5F5F5F5F5F5F5F5F5F5F5F5F5F5F5F5F5F5F5F5F5F5F5F5F5F5F5F5F5F5F5F5F5F5F5F5F5F5F5F5F5F5F5F5F5F5F5F5F5F5F5F5F5F5F5F5F5F5F5F5E2F5F5F5F5E2E2F5F5F5F5E2F5F5F5F5F5F5F5F5F5
310
F5F5F5F5F5F5F5F5F5F5F5F5F5F5F5F5F5F5F5F5F5F5F5F5F5F5F5F5F5F5F5F5F5F5F5F5F5F5F5F5F5F5F5F5F5F5F5F5F5F5F5F5F5F5F5F5F5F5F5F5F5F5F5F5F5F5F5F5F5F5F5F5F5F5F5F5F5F5F5F5F5F5F5F5F5F5F5F5F5F5F5F5F5F5F5F5F5F5F5F5F5F5F5F5F5F5F5F5F5F5F5F5F5F5F5F5F5F5F5F5F5F5F5F5F5F5F5
310
F5F5F5F5F5F5F5F5F5F5F5F5F5F5F5F5F5F5F5F5F5F5F5F5F5F5F5F5F5F5F5F5E2F5F5F5F5E2E2F5F5F5F5E2E2E2E2E2E2E2E2F5F5F5F5F5F5F5F5F5E2E2E2E2E2E2E2E2E2E2E2E2E2E2E2F5F5F5F5F5F5F5F5F5E2E2E2E2E2E2E2E2E2E2E2E2E2E2E2E2F5F5F5F5F5F5F5F5E2E2E2E2E2E2E2E2E2E2E2E2E2E2E2E2F5F5F5
310
F5F5F5F5F5E2E2E2E2E2E2E2E2E2E2E2E2E2E2E2E2F5F5F5F5F5F5F5F5E2E2E2E2E2E2E2E2E2E2E2E2E2E2E2E2F5F5F5F5F5F5F5F5F5E2E2E2E2E2E2E2E2E2E2E2E2E2E2E2F5F5F5F5F5F5F5F5F5E2E2E2E2E2E2E2E2F5F5F5F5E2E2F5F5F5F5F5F5F5F5F5F5F5F5F5F5F5F5F5F5F5F5F5F5F5F5F5F5F5F5F5F5F5F5F5F5F5
310
F5F5F5F5F5F5F5F5F5F5F5F5F5F5F5F5F5F5F5F5F5F5F5F5F5F5F5F5F5F5F5F5F5F5F5F5F5F5F5F5F5F5F5F5F5F5F5F5F5F5F5F5F5F5F5F5F5F5F5F5F5F5F5F5F5F5F5F5F5F5F5F5F5F5F5F5F5F5F5F5F5F5F5F5F5F5F5F5F5F5F5F5F5F5F5F5F5F5F5F5F5F5F5F5F5F5F5F5F5F5F5F5F5F5F5F5F5F5F5F5F5F5F5F5F5F5F5
310
F5F5F5F5F5F5F5F5F5F5F5F5F5F5F5F5E2E2F5F5F5F5F5F5F5F5F5F5F5F5F5F5F5F5F5F5F5F5F5F5F5F5F5F5F5F5F5F5F5F5F5F5F5F5F5F5F5F5F5F5F5F5F5F5F5F5F5F5F5F5F5F5F5F5F5F5F5F5F5F5F5F5F5F5F5F5F5F5F5F5F5F5F5F5F5F5F5F5F5F5F5F5F5F5F5F5F5F5F5F5F5F5F5F5F5F5F5F5F5F5F5F5F5F5F5F5F5
310
F5F5F5F5F5F5F5F5F5F5F5F5F5F5F5F5F5F5F5F5F5F5F5F5F5F5F5F5F5F5F5F5F5F5F5F5F5F5F5F5F5F5F5F5F5F5F5F5F5F5F5F5F5F5F5F5F5F5F5F5F5F5F5F5F5F5F5F5F5E2E2F5F5F5F5F5F5F5F5F5F5F5F5F5F5F5F5F5F5F5F5F5F5F5F5F5F5F5F5F5F5F5F5F5F5F5F5F5F5F5F5F5F5F5F5F5F5F5F5F5F5F5F5F5F5F5F5
310
F5F5F5F5F5F5F5F5F5F5F5F5F5F5F5F5F5F5F5F5F5F5F5F5F5F5F5F5F5F5F5F5F5F5F5F5F5F5F5F5F5F5F5F5F5F5F5F5F5F5F5F5F5F5F5F5F5F5F5F5F5F5F5F5F5F5F5F5F5F5F5F5F5F5F5F5F5F5F5F5F5F5F5F5F5F5F5F5F5F5F5F5F5F5F5F5F5F5F5F5F5F5F5F5F5F5F5F5F5F5F5F5F5F5F5F5F5F5F5F5F5F5E2E2E2E2E2
310
E2E2E2E2E2E2E2E2E2E2E2E2E2E2E2E2E2E2E2E2E2E2E2E2E2E2E2E2E2E2E2E2E2E2E2E2E2E2E2E2E2E2E2E2E2E2E2E2E2E2E2E2E2E2E2E2E2E2E2E2E2E2E2E2E2E2E2E2E2E2E2E2E2E2E2E2E2E2E2E2E2E2E2E2E2E2E2E2E2E2E2E2E2E2E2E2E2E2E2E2E2E2E2E2E2E2E2E2E2E2E2E2E2E2E2E2E2E2E2E2E2E2E2E2E2E2E2
310
E2E2E2E2E2E2E2E2E2E2E2E2E2E2E2E2E2E2E2E2E2E2E2E2E2E2E2E2E2E2E2E2E2E2E2E2E2E2E2E2E2E2E2E2E2E2E2E2E2
  0
XRECORD
  5
56A50
102
{ACAD_REACTORS
330
B5
102
}
330
B5
100
AcDbXrecord
280
     1
102
SHADEPLOT
 70
     0
102
SHADEPLOTRESLEVEL
 70
     2
102
SHADEPLOTCUSTOMDPI
 70
   300
  0
XRECORD
  5
B6
102
{ACAD_REACTORS
330
B5
102
}
330
B5
100
AcDbXrecord
280
     1
310
28000000B40000008B0000000100080000000000BC610000000000000000000000010000000000000000000000000000FFFFFF000000000000000000000000000000000000000000000000000000000000000000330000006600000099000000CC000000FF00000000330000333300006633000099330000CC330000FF3300
310
0000660000336600006666000099660000CC660000FF66000000990000339900006699000099990000CC990000FF99000000CC000033CC000066CC000099CC0000CCCC0000FFCC000000FF000033FF000066FF000099FF0000CCFF0000FFFF000000003300330033006600330099003300CC003300FF003300003333003333
310
33006633330099333300CC333300FF33330000663300336633006666330099663300CC663300FF66330000993300339933006699330099993300CC993300FF99330000CC330033CC330066CC330099CC3300CCCC3300FFCC330000FF330033FF330066FF330099FF3300CCFF3300FFFF330000006600330066006600660099
310
006600CC006600FF00660000336600333366006633660099336600CC336600FF33660000666600336666006666660099666600CC666600FF66660000996600339966006699660099996600CC996600FF99660000CC660033CC660066CC660099CC6600CCCC6600FFCC660000FF660033FF660066FF660099FF6600CCFF6600
310
FFFF660000009900330099006600990099009900CC009900FF00990000339900333399006633990099339900CC339900FF33990000669900336699006666990099669900CC669900FF66990000999900339999006699990099999900CC999900FF99990000CC990033CC990066CC990099CC9900CCCC9900FFCC990000FF99
310
0033FF990066FF990099FF9900CCFF9900FFFF99000000CC003300CC006600CC009900CC00CC00CC00FF00CC000033CC003333CC006633CC009933CC00CC33CC00FF33CC000066CC003366CC006666CC009966CC00CC66CC00FF66CC000099CC003399CC006699CC009999CC00CC99CC00FF99CC0000CCCC0033CCCC0066CC
310
CC0099CCCC00CCCCCC00FFCCCC0000FFCC0033FFCC0066FFCC0099FFCC00CCFFCC00FFFFCC000000FF003300FF006600FF009900FF00CC00FF00FF00FF000033FF003333FF006633FF009933FF00CC33FF00FF33FF000066FF003366FF006666FF009966FF00CC66FF00FF66FF000099FF003399FF006699FF009999FF00CC
310
99FF00FF99FF0000CCFF0033CCFF0066CCFF0099CCFF00CCCCFF00FFCCFF0000FFFF0033FFFF0066FFFF0099FFFF00CCFFFF00FFFFFF00000000000D0D0D001A1A1A00282828003535350043434300505050005D5D5D006B6B6B00787878008686860093939300A1A1A100AEAEAE00BBBBBB00C9C9C900D6D6D600E4E4E400
310
F1F1F100FFFFFF0000000000000000000000000000000000000000000000000000000000000000000000000000000000F5F5F5F5F5F5F5F5F5F5F5F5F5F5F5F5F5F5F5F5F5F5F5F5F5F5F5F5F5F5F5F5F5F5F5F5F5F5F5F5F5F5F5F5F5F5F5F5F5F5F5F5F5F5F5F5F5F5F5F5F5F5F5F5F5F5F5F5F5F5F5F5F5F5F5F5F5F5F5
310
F5F5F5F5F5F5F5F5F5F5F5F5F5F5F5F5F5F5F5F5F5F5F5F5F5F5F5F5F5F5F5F5F5F5F5F5F5F5F5F5F5F5F5F5F5F5F5F5F5F5F5F5F5F5F5F5F5F5F5F5F5F5F5F5F5F5F5F5F5F5F5F5F5F5F5F5F5F5F5F5F5F5F5F5F5F5F5F5F5F5F5F5F5F5F5F5F5F5F5F5F5F5E2E2E2E2E2E2E2E2E2E2E2E2E2E2E2E2E2E2E2E2E2E2E2E2E2
310
E2E2E2E2E2E2E2E2E2E2E2E2E2E2E2E2E2E2E2E2E2E2E2E2E2E2E2E2E2E2E2E2E2E2E2E2E2E2E2E2E2E2E2E2E2E2E2E2E2E2E2E2E2E2E2E2E2E2E2E2E2E2E2E2E2E2E2E2E2E2E2E2E2E2E2E2E2E2E2E2E2E2E2E2E2E2E2E2E2E2E2E2E2E2E2E2E2E2E2E2E2E2E2E2E2E2E2E2E2E2E2E2E2E2E2E2E2E2E2E2E2E2E2E2E2E2E2
310
E2E2E2E2E2E2E2E2E2E2E2E2E2E2E2E2E2E2E2E2E2E2E2E2E2E2F5F5E2E2E2E2E2E2E2E2E2E2E2E2E2E2E2E2E2E2E2E2E2E2E2E2E2E2E2E2E2E2E2E2E2E2E2E2E2E2E2E2E2E2E2E2E2E2E2E2E2E2E2E2E2E2E2E2E2E2E2E2E2E2E2E2E2E2E2E2E2E2E2E2E2E2E2E2E2E2E2E2E2E2E2E2E2E2E2E2E2E2E2E2E2E2E2E2E2E2E2
310
E2E2E2E2E2E2E2E2E2E2E2E2E2E2E2E2E2E2E2E2E2E2E2E2E2E2E2E2E2E2E2E2E2E2E2E2E2E2E2E2E2E2E2E2E2E2E2E2E2E2E2E2E2E2E2E2E2E2E2E2E2E2E2E2E2E2E2E2E2E2E2E2E2E2E2E2E2E2E2F5F5E2E2E2E2E2E2E2E2E2E2E2E2E2E2E2E2E2E2E2E2E2E2E2E2E2E2E2E2E2E2E2E2E2E2E2E2E2E2E2E2E2E2E2E2E2E2
310
E2E2E2E2E2E2E2E2E2E2E2E2E2E2E2E2E2E2E2E2E2E2E2E2E2E2E2E2E2E2E2E2E2E2E2E2E2E2E2E2E2E2E2E2E2E2E2E2E2E2E2E2E2E2E2E2E2E2E2E2E2E2E2E2E2E2E2E2E2E2E2E2E2E2E2E2E2E2E2E2E2E2E2E2E2E2E2E2E2E2E2E2E2E2E2E2E2E2E2E2E2E2E2E2E2E2E2E2E2E2E2E2E2E2E2E2E2E2E2E2E2E2E2E2E2E2E2
310
E2E2E2E2E2F5F5E2E2E2E2E2E2E2E2E2E2E2E2E2E2E2E2E2E2E2E2E2E2E2E2E2E2E2E2E2E2E2E2E2E2E2E2E2E2E2E2E2E2E2E2E2E2E2E2E2E2E2E2E2E2E2E2E2E2E2E2E2E2E2E2E2E2E2E2E2E2E2E2E2E2E2E2E2E2E2E2E2E2E2E2E2E2E2E2E2E2E2E2E2E2E2E2E2E2E2E2E2E2E2E2E2E2E2E2E2E2E2E2E2E2E2E2E2E2E2E2
310
E2E2E2E2E2E2E2E2E2E2E2E2E2E2E2E2E2E2E2E2E2E2E2E2E2E2E2E2E2E2E2E2E2E2E2E2E2E2E2E2E2E2E2E2E2E2E2E2E2E2E2E2E2E2E2E2E2E2F5F5E2E2E2F5F5F5F5F5F5F5F5E2E2E2E2E2E2E2E2E2F5F5F5F5F5F5F5F5F5F5F5F5F5F5F5F5E2E2E2E2E2E2E2E2E2F5F5F5F5F5F5F5F5F5F5F5F5F5F5F5E2E2E2E2E2E2E2
310
E2E2F5F5F5F5F5F5F5F5F5F5F5F5F5F5F5F5E2E2E2E2E2E2E2E2F5F5F5F5F5F5F5F5F5F5F5F5F5F5F5F5E2E2E2E2E2E2E2E2E2F5F5F5F5F5F5F5F5F5F5F5F5F5F5F5E2E2E2E2E2E2E2E2E2F5F5F5F5F5F5F5F5F5F5F5F5F5F5F5F5E2E2E2E2E2E2E2E2E2F5F5F5F5F5F5F5F5E2E2E2F5F5E2E2E2F5E2E2E2E2E2E2E2E2E2E2
310
E2E2E2E2E2E2E2E2E2E2E2E2E2E2E2E2E2E2E2E2E2E2E2E2E2E2E2E2E2E2E2E2E2E2E2E2E2E2E2E2E2E2E2E2E2E2E2E2E2E2E2E2E2E2E2E2E2E2E2E2E2E2E2E2E2E2E2E2E2E2E2E2E2E2E2E2E2E2E2E2E2E2E2E2E2E2E2E2E2E2E2E2E2E2E2E2E2E2E2E2E2E2E2E2E2E2E2E2E2E2E2E2E2E2E2E2E2E2E2E2E2E2E2E2E2E2E2
310
E2E2E2E2E2E2E2E2E2E2E2E2E2E2E2E2E2E2E2E2E2E2E2E2E2E2E2E2E2E2E2E2E2F5E2E2E2F5F5E2E2E2F5E2E2E2E2E2E2E2E2E2E2E2E2E2E2E2E2E2E2E2E2E2E2E2E2E2E2E2E2E2E2E2E2E2E2E2E2E2E2E2E2E2E2E2E2E2E2E2E2E2E2E2E2E2E2E2E2E2E2E2E2E2E2E2E2E2E2E2E2E2E2E2E2E2E2E2E2E2E2E2E2E2E2E2E2
310
E2E2E2E2E2E2E2E2E2E2E2E2E2E2E2E2E2E2E2E2E2E2E2E2E2E2E2E2E2E2E2E2E2E2E2E2E2E2E2E2E2E2E2E2E2E2E2E2E2E2E2E2E2E2E2E2E2E2E2E2E2E2E2E2E2E2E2E2E2E2E2E2E2E2E2E2E2E2E2E2E2E2E2E2E2E2F5E2E2E2F5F5E2E2E2F5E2E2E2E2E2E2E2E2E2E2E2E2E2E2E2E2E2E2E2E2E2E2E2E2E2E2E2E2E2E2E2
310
E2E2E2E2E2E2E2E2E2E2E2E2E2E2E2E2E2E2E2E2E2E2E2E2E2E2E2E2E2E2E2E2E2E2E2E2E2E2E2E2E2E2E2E2E2E2E2E2E2E2E2E2E2E2E2E2E2E2E2E2E2E2E2E2E2E2E2E2E2E2E2E2E2E2E2E2E2E2E2E2E2E2E2E2E2E2E2E2E2E2E2E2E2E2E2E2E2E2E2E2E2E2E2E2E2E2E2E2E2E2E2E2E2E2E2E2E2E2E2E2E2E2E2E2E2E2E2
310
E2E2E2E2E2E2E2E2E2E2E2E2F5E2E2E2F5F5E2E2E2F5E2E2E2E2E2E2E2E2E2E2E2E2E2E2E2E2E2E2E2E2E2E2E2E2E2E2E2E2E2E2E2E2E2E2E2E2E2E2E2E2E2E2E2E2E2E2E2E2E2E2E2E2E2E2E2E2E2E2E2E2E2E2E2E2E2E2E2E2E2E2E2E2E2E2E2E2E2E2E2E2E2E2E2E2E2E2E2E2E2E2E2E2E2E2E2E2E2E2E2E2E2E2E2E2E2
310
E2E2E2E2E2E2E2E2E2E2E2E2E2E2E2E2E2E2E2E2E2E2E2E2E2E2E2E2E2E2E2E2E2E2E2E2E2E2E2E2E2E2E2E2E2E2E2E2E2E2E2E2E2E2E2E2E2E2E2E2E2E2E2E2E2F5E2E2E2F5F5E2E2E2F5E2E2E2E2E2E2E2E2E2E2E2E2E2E2E2E2E2E2E2E2E2E2E2E2E2E2E2E2E2E2E2E2E2E2E2E2E2E2E2E2E2E2E2E2E2E2E2E2E2E2E2E2
310
E2E2E2E2E2E2E2E2E2E2E2E2E2E2E2E2E2E2E2E2E2E2E2E2E2E2E2E2E2E2E2E2E2E2E2E2E2E2E2E2E2E2E2E2E2E2E2E2E2E2E2E2E2E2E2E2E2E2E2E2E2E2E2E2E2E2E2E2E2E2E2E2E2E2E2E2E2E2E2E2E2E2E2E2E2E2E2E2E2E2E2E2E2E2E2E2E2E2E2E2E2E2E2E2E2E2E2E2E2E2E2E2E2E2E2E2E2E2F5E2E2E2F5F5E2E2E2
310
F5E2E2E2E2E2E2E2E2E2E2E2E2E2E2E2E2E2E2E2E2E2E2E2E2E2E2E2E2E2E2E2E2E2E2E2E2E2E2E2E2E2E2E2E2E2E2E2E2E2E2E2E2E2E2E2E2E2E2E2E2E2E2E2E2E2E2E2E2E2E2E2E2E2E2E2E2E2E2E2E2E2E2E2E2E2E2E2E2E2E2E2E2E2E2E2E2E2E2E2E2E2E2E2E2E2E2E2E2E2E2E2E2E2E2E2E2E2E2E2E2E2E2E2E2E2E2
310
E2E2E2E2E2E2E2E2E2E2E2E2E2E2E2E2E2E2E2E2E2E2E2E2E2E2E2E2E2E2E2E2E2E2E2E2E2E2E2E2E2E2E2E2F5E2E2E2F5F5E2E2E2F5E2E2E2E2E2E2E2E2E2E2E2E2E2E2E2E2E2E2E2E2E2E2E2E2E2E2E2E2E2E2E2E2E2E2E2E2E2E2E2E2E2E2E2E2E2E2E2E2E2E2E2E2E2E2E2E2E2E2E2E2E2E2E2E2E2E2E2E2E2E2E2E2E2
310
E2E2E2E2E2E2E2E2E2E2E2E2E2E2E2E2E2E2E2E2E2E2E2E2E2E2E2E2E2E2E2E2E2E2E2E2E2E2E2E2E2E2E2E2E2E2E2E2E2E2E2E2E2E2E2E2E2E2E2E2E2E2E2E2E2E2E2E2E2E2E2E2E2E2E2E2E2E2E2E2E2E2E2E2E2E2E2E2E2E2E2E2E2E2E2E2E2F5E2E2E2F5F5E2E2E2F5E2E2E2E2E2E2E2E2E2E2E2E2E2E2E2E2E2E2E2E2
310
E2E2E2E2E2E2E2E2E2E2E2E2E2E2E2E2E2E2E2E2E2E2E2E2E2E2E2E2E2E2E2E2E2E2E2E2E2E2E2E2E2E2E2E2E2E2E2E2E2E2E2E2E2E2E2E2E2E2E2E2E2E2E2E2E2E2E2E2E2E2E2E2E2E2E2E2E2E2E2E2E2E2E2E2E2E2E2E2E2E2E2E2E2E2E2E2E2E2E2E2E2E2E2E2E2E2E2E2E2E2E2E2E2E2E2E2E2E2E2E2E2E2E2E2E2E2E2
310
E2E2E2E2E2E2E2E2E2E2E2E2E2E2E2E2E2E2E2E2E2E2E2F5E2E2E2F5F5E2E2E2E2E2E2E2E2E2E2E2E2E2E2E2E2E2E2E2E2E2E2E2E2E2E2E2E2E2E2E2E2E2E2E2E2E2E2E2E2E2E2E2E2E2E2E2E2E2E2E2E2E2E2E2E2E2E2E2E2E2E2E2E2E2E2E2E2E2E2E2E2E2E2E2E2E2E2E2E2E2E2E2E2E2E2E2E2E2E2E2E2E2E2E2E2E2E2
310
E2E2E2E2E2E2E2E2E2E2E2E2E2E2E2E2E2E2E2E2E2E2E2E2E2E2E2E2E2E2E2E2E2E2E2E2E2E2E2E2E2E2E2E2E2E2E2E2E2E2E2E2E2E2E2E2E2E2E2E2E2E2E2E2E2E2E2E2E2E2E2E2E2E2E2E2E2E2E2E2F5F5E2E2E2E2E2E2E2E2E2E2E2E2E2E2E2E2E2E2E2E2E2E2E2E2E2E2E2E2E2E2E2E2E2E2E2E2E2E2E2E2E2E2E2E2E2
310
E2E2E2E2E2E2E2E2E2E2E2E2E2E2E2E2E2E2E2E2E2E2E2E2E2E2E2E2E2E2E2E2E2E2E2E2E2E2E2E2E2E2E2E2E2E2E2E2E2E2E2E2E2E2E2E2E2E2E2E2E2E2E2E2E2E2E2E2E2E2E2E2E2E2E2E2E2E2E2E2E2E2E2E2E2E2E2E2E2E2E2E2E2E2E2E2E2E2E2E2E2E2E2E2E2E2E2E2E2E2E2E2E2E2E2E2E2E2E2E2E2E2E2E2E2E2E2
310
E2E2E2E2E2E2F5F5E2E2E2E2E2E2E2E2E2E2E2E2E2E2E2E2E2E2E2E2E2E2E2E2E2E2E2E2E2E2E2E2E2E2E2E2E2E2E2E2E2E2E2E2E2E2E2E2E2E2E2E2E2E2E2E2E2E2E2E2E2E2E2E2E2E2E2E2E2E2E2E2E2E2E2E2E2E2E2E2E2E2E2E2E2E2E2E2E2E2E2E2E2E2E2E2E2E2E2E2E2E2E2E2E2E2E2E2E2E2E2E2E2E2E2E2E2E2E2
310
E2E2E2E2E2E2E2E2E2E2E2E2E2E2E2E2E2E2E2E2E2E2E2E2E2E2E2E2E2E2E2E2E2E2E2E2E2E2E2E2E2E2E2E2E2E2E2E2E2E2E2E2E2E2E2E2E2E2E2F5F5E2E2E2E2E2E2E2E2E2E2E2E2E2E2E2E2E2E2E2E2E2E2E2E2E2E2E2E2E2E2E2E2E2E2E2E2E2E2E2E2E2E2E2E2E2E2E2E2E2E2E2E2E2E2E2E2E2E2E2E2E2E2E2E2E2E2
310
E2E2E2E2E2E2E2E2E2E2E2E2E2E2E2E2E2E2E2E2E2E2E2E2E2E2E2E2E2E2E2E2E2E2E2E2E2E2E2E2E2E2E2E2E2E2E2E2E2E2E2E2E2E2E2E2E2E2E2E2E2E2E2E2E2E2E2E2E2E2E2E2E2E2E2E2E2E2E2E2E2E2E2E2E2E2E2E2E2E2E2E2E2E2E2E2E2E2E2E2E2E2E2E2E2E2E2E2E2E2E2E2F5F5E2E2E2E2E2E2E2E2E2E2E2E2E2
310
E2E2E2E2E2E2E2F5F5F5F5F5F5F5F5F5F5F5F5F5F5F5F5F5F5F5F5F5F5F5F5F5F5F5F5F5F5F5F5F5F5F5F5F5F5F5F5F5F5F5F5F5F5F5F5F5F5F5F5F5F5F5F5F5F5F5F5F5F5F5F5F5F5F5F5F5F5F5F5F5F5F5F5F5F5F5F5F5F5F5F5F5F5F5F5F5F5F5F5F5F5F5F5F5F5F5F5F5F5F5F5F5F5F5F5F5F5F5F5F5F5F5F5F5F5F5F5
310
F5F5F5F5F5F5F5F5F5F5F5F5F5F5F5F5F5F5E2E2E2E2E2E2E2E2E2E2E2E2E2E2E2E2E2E2E2E2F5F5E2E2E2E2E2E2E2E2E2E2E2E2E2E2E2E2E2E2E2E2F5E2E2E2E2E2E2E2E2E2E2E2E2E2E2E2E2E2E2E2E2E2E2E2E2E2E2E2E2E2E2E2E2E2E2E2E2E2E2E2E2E2E2E2E2E2E2E2E2E2E2E2E2E2E2E2E2E2E2E2E2E2E2E2E2E2E2
310
E2E2E2E2E2E2E2E2E2E2E2E2E2E2E2E2E2E2E2E2E2E2E2E2E2E2E2E2E2E2E2E2E2E2E2E2E2E2E2E2E2E2E2E2E2E2E2E2E2E2E2E2E2E2E2E2E2E2E2E2E2E2E2E2E2E2E2E2E2E2F5E2E2E2E2E2E2E2E2E2E2E2E2E2E2E2E2E2E2E2E2F5F5E2E2E2E2E2E2E2E2E2E2E2E2E2E2E2E2E2E2E2E2F5E2E2E2E2E2E2E2E2E2E2E2E2E2
310
E2E2E2E2E2E2E2E2E2E2E2E2E2E2E2E2E2E2E2E2E2E2E2E2E2E2E2E2E2E2E2E2E2E2E2E2E2E2E2E2E2E2E2E2E2E2E2E2E2E2E2E2E2E2E2E2E2E2E2E2E2E2E2E2E2E2E2E2E2E2E2E2E2E2E2E2E2E2E2E2E2E2E2E2E2E2E2E2E2E2E2E2E2E2E2E2E2E2E2E2E2E2E2E2E2E2E2E2E2E2E2E2E2E2E2E2E2E2E2E2E2E2E2F5E2E2E2
310
E2E2E2E2E2E2E2E2E2E2E2E2E2E2E2E2E2F5F5E2E2E2E2E2E2E2E2E2E2E2E2E2E2E2E2E2E2E2E2F5E2E2E2E2E2E2E2E2E2E2E2E2E2E2E2E2E2E2E2E2E2E2E2E2E2E2E2E2E2E2E2E2E2E2E2E2E2E2E2E2E2E2E2E2E2E2E2E2E2E2E2E2E2E2E2E2E2E2E2E2E2E2E2E2E2E2E2E2E2E2E2E2E2E2E2E2E2E2E2E2E2E2E2E2E2E2E2
310
E2E2E2E2E2E2E2E2E2E2E2E2E2E2E2E2E2E2E2E2E2E2E2E2E2E2E2E2E2E2E2E2E2E2E2E2E2E2E2E2E2E2E2E2E2E2E2E2E2F5E2E2E2E2E2E2E2E2E2E2E2E2E2E2E2E2E2E2E2E2F5F5E2E2E2E2E2E2E2E2E2E2E2E2E2E2E2E2E2E2E2E2F5E2E2E2E2E2E2E2E2E2E2E2E2E2E2E2E2E2E2E2E2E2E2E2E2E2E2E2E2E2E2E2E2E2E2
310
E2E2E2E2E2E2E2E2E2E2E2E2E2E2E2E2E2E2E2E2E2E2E2E2E2E2E2E2E2E2E2E2E2E2E2E2E2E2E2E2E2E2E2E2E2E2E2E2E2E2E2E2E2E2E2E2E2E2E2E2E2E2E2E2E2E2E2E2E2E2E2E2E2E2E2E2E2E2E2E2E2E2E2E2E2E2E2E2E2E2E2E2E2E2E2E2E2E2E2E2E2E2F5E2E2E2E2E2E2E2E2E2E2E2E2E2E2E2E2E2E2E2E2F5F5E2E2
310
E2F5E2E2E2E2E2E2E2E2E2E2E2E2E2E2E2E2F5E2E2E2E2E2E2E2E2E2E2E2E2E2E2E2E2E2E2E2E2E2E2E2E2E2E2E2E2E2E2E2E2E2E2E2E2E2E2E2E2E2E2E2E2E2E2E2E2E2E2E2E2E2E2E2E2E2E2E2E2E2E2E2E2E2E2E2E2E2E2E2E2E2E2E2E2E2E2E2E2E2E2E2E2E2E2E2E2E2E2E2E2E2E2E2E2E2E2E2E2E2E2E2E2E2E2E2E2
310
E2E2E2E2E2E2E2E2E2E2E2E2E2E2E2E2E2E2E2E2E2E2E2E2E2E2E2E2F5E2E2E2E2E2E2E2E2E2E2E2E2E2E2E2E2F5E2E2E2F5F5E2E2E2F5E2E2E2E2E2E2E2E2E2E2E2E2E2E2E2E2F5E2E2E2E2E2E2E2E2E2E2E2E2E2E2E2E2E2E2E2E2E2E2E2E2E2E2E2E2E2E2E2E2E2E2E2E2E2E2E2E2E2E2E2E2E2E2E2E2E2E2E2E2E2E2E2
310
E2E2E2E2E2E2E2E2E2E2E2E2E2E2E2E2E2E2E2E2E2E2E2E2E2E2E2E2E2E2E2E2E2E2E2E2E2E2E2E2E2E2E2E2E2E2E2E2E2E2E2E2E2E2E2E2E2E2E2E2E2E2E2E2E2E2E2E2E2E2E2E2E2E2E2E2E2E2E2E2E2F5E2E2E2E2E2E2E2E2E2E2E2E2E2E2E2E2F5E2E2E2F5F5E2E2E2F5E2E2E2E2E2E2E2E2E2E2E2E2E2E2E2E2F5E2E2
310
E2E2E2E2E2E2E2E2E2E2E2E2E2E2E2E2E2E2E2E2E2E2E2E2E2E2E2E2E2E2E2E2E2E2E2E2E2E2E2E2E2E2E2E2E2E2E2E2E2E2E2E2E2E2E2E2E2E2E2E2E2E2E2E2E2E2E2E2E2E2E2E2E2E2E2E2E2E2E2E2E2E2E2E2E2E2E2E2E2E2E2E2E2E2E2E2E2E2E2E2E2E2E2E2E2E2E2E2E2E2E2E2E2E2E2E2E2E2E2E2E2E2E2E2E2E2E2
310
E2E2E2E2E2E2E2F5E2E2E2E2E2E2E2E2E2E2E2E2E2E2E2E2F5E2E2E2F5F5E2E2E2F5E2E2E2E2E2E2E2E2E2E2E2E2E2E2E2E2F5E2E2E2E2E2E2E2E2E2E2E2E2E2E2E2E2E2E2E2E2E2E2E2E2E2E2E2E2E2E2E2E2E2E2E2E2E2E2E2E2E2E2E2E2E2E2E2E2E2E2E2E2E2E2E2E2E2E2E2E2E2E2E2E2E2E2E2E2E2E2E2E2E2E2E2E2
310
E2E2E2E2E2E2E2E2E2E2E2E2E2E2E2E2E2E2E2E2E2E2E2E2E2E2E2E2E2E2E2E2E2E2E2E2E2E2E2E2E2E2E2E2E2E2E2E2E2E2E2E2E2E2E2E2E2E2E2E2F5E2E2E2E2E2E2E2E2E2E2E2E2E2E2E2E2F5E2E2E2F5F5E2E2E2F5E2E2E2E2E2E2E2E2E2E2E2E2E2E2E2E2F5E2E2E2E2E2E2E2E2E2E2E2E2E2E2E2E2E2E2E2E2E2E2E2
310
E2E2E2E2E2E2E2E2E2E2E2E2E2E2E2E2E2E2E2E2E2E2E2E2E2E2E2E2E2E2E2E2E2E2E2E2E2E2E2E2E2E2E2E2E2E2E2E2E2E2E2E2E2E2E2E2E2E2E2E2E2E2E2E2E2E2E2E2E2E2E2E2E2E2E2E2E2E2E2E2E2E2E2E2E2E2E2E2E2E2E2E2E2E2E2E2E2E2E2E2E2E2E2E2E2E2E2E2E2E2E2E2E2F5E2E2E2E2E2E2E2E2E2E2E2E2E2
310
E2E2E2F5E2E2E2F5F5E2E2E2F5E2E2E2E2E2E2E2E2E2E2E2E2E2E2E2E2F5E2E2E2E2E2E2E2E2E2E2E2E2E2E2E2E2E2E2E2E2E2E2E2E2E2E2E2E2E2E2E2E2E2E2E2E2E2E2E2E2E2E2E2E2E2E2E2E2E2E2E2E2E2E2E2E2E2E2E2E2E2E2E2E2E2E2E2E2E2E2E2E2E2E2E2E2E2E2E2E2E2E2E2E2E2E2E2E2E2E2E2E2E2E2E2E2E2
310
E2E2E2E2E2E2E2E2E2E2E2E2E2E2E2E2E2E2E2E2E2E2E2E2E2E2E2E2E2E2E2E2E2E2E2E2E2E2E2F5E2E2E2E2E2E2E2E2E2E2E2E2E2E2E2E2F5E2E2E2F5F5E2E2E2F5E2E2E2E2E2E2E2E2E2E2E2E2E2E2E2E2F5E2E2E2E2E2E2E2E2E2E2E2E2E2E2E2E2E2E2E2E2E2E2E2E2E2E2E2E2E2E2E2E2E2E2E2E2E2E2E2E2E2E2E2E2
310
E2E2E2E2E2E2E2E2E2E2E2E2E2E2E2E2E2E2E2E2E2E2E2E2E2E2E2E2E2E2E2E2E2E2E2E2E2E2E2E2E2E2E2E2E2E2E2E2E2E2E2E2E2E2E2E2E2E2E2E2E2E2E2E2E2E2E2E2E2E2E2E2E2E2E2E2E2E2E2E2E2E2E2E2E2E2E2E2E2E2E2E2F5E2E2E2E2E2E2E2E2E2E2E2E2E2E2E2E2F5E2E2E2F5F5E2E2E2F5E2E2E2E2E2E2E2E2
310
E2E2E2E2E2E2E2E2F5E2E2E2E2E2E2E2E2E2E2E2E2E2E2E2E2E2E2E2E2E2E2E2E2E2E2E2E2E2E2E2E2E2E2E2E2E2E2E2E2E2E2E2E2E2E2E2E2E2E2E2E2E2E2E2E2E2E2E2E2E2E2E2E2E2E2E2E2E2E2E2E2E2E2E2E2E2E2E2E2E2E2E2E2E2E2E2E2E2E2E2E2E2E2E2E2E2E2E2E2E2E2E2E2E2E2E2E2E2E2E2E2E2E2E2E2E2E2
310
E2E2E2E2E2E2E2E2E2E2E2E2E2E2E2E2E2E2F5E2E2E2E2E2E2E2E2E2E2E2E2E2E2E2E2F5E2E2E2F5F5E2E2E2F5E2E2E2E2E2E2E2E2E2E2E2E2E2E2E2E2F5E2E2E2E2E2E2E2E2E2E2E2E2E2E2E2E2E2E2E2E2E2E2E2E2E2E2E2E2E2E2E2E2E2E2E2E2E2E2E2E2E2E2E2E2E2E2E2E2E2E2E2E2E2E2E2E2E2E2E2E2E2E2E2E2E2
310
E2E2E2E2E2E2E2E2E2E2E2E2E2E2E2E2E2E2E2E2E2E2E2E2E2E2E2E2E2E2E2E2E2E2E2E2E2E2E2E2E2E2E2E2E2E2E2E2E2E2E2E2E2E2E2E2E2E2E2E2E2E2E2E2E2E2E2E2E2E2E2F5E2E2E2E2E2E2E2E2E2E2E2E2E2E2E2E2F5E2E2E2F5F5E2E2E2F5E2E2E2E2E2E2E2E2E2E2E2E2E2E2E2E2F5E2E2E2E2E2E2E2E2E2E2E2E2
310
E2E2E2E2E2E2E2E2E2E2E2E2E2E2E2E2E2E2E2E2E2E2E2E2E2E2E2E2E2E2E2E2E2E2E2E2E2E2E2E2E2E2E2E2E2E2E2E2E2E2E2E2E2E2E2E2E2E2E2E2E2E2E2E2E2E2E2E2E2E2E2E2E2E2E2E2E2E2E2E2E2E2E2E2E2E2E2E2E2E2E2E2E2E2E2E2E2E2E2E2E2E2E2E2E2E2E2E2E2E2E2E2E2E2E2E2E2E2E2E2E2E2E2E2F5E2E2
310
E2E2E2E2E2E2E2E2E2E2E2E2E2E2F5E2E2E2F5F5E2E2E2F5E2E2E2E2E2E2E2E2E2E2E2E2E2E2E2E2F5E2E2E2E2E2E2E2E2E2E2E2E2E2E2E2E2E2E2E2E2E2E2E2E2E2E2E2E2E2E2E2E2E2E2E2E2E2E2E2E2E2E2E2E2E2E2E2E2E2E2E2E2E2E2E2E2E2E2E2E2E2E2E2E2E2E2E2E2E2E2E2E2E2E2E2E2E2E2E2E2E2E2E2E2E2E2
310
E2E2E2E2E2E2E2E2E2E2E2E2E2E2E2E2E2E2E2E2E2E2E2E2E2E2E2E2E2E2E2E2E2E2E2E2E2E2E2E2E2E2E2E2E2E2E2E2E2E2F5E2E2E2E2E2E2E2E2E2E2E2E2E2E2E2E2F5E2E2E2F5F5E2E2E2F5E2E2E2E2E2E2E2E2E2E2E2E2E2E2E2E2F5E2E2E2E2E2E2E2E2E2E2E2E2E2E2E2E2E2E2E2E2E2E2E2E2E2E2E2E2E2E2E2E2E2
310
E2E2E2E2E2E2E2E2E2E2E2E2E2E2E2E2E2E2E2E2E2E2E2E2E2E2E2E2E2E2E2E2E2E2E2E2E2E2E2E2E2E2E2E2E2E2E2E2E2E2E2E2E2E2E2E2E2E2E2E2E2E2E2E2E2E2E2E2E2E2E2E2E2E2E2E2E2E2E2E2E2E2E2E2E2E2E2E2E2E2E2E2E2E2E2E2E2E2E2E2E2E2E2F5E2E2E2E2E2E2E2E2E2E2E2E2E2E2E2E2F5E2E2E2F5F5E2
310
E2E2F5E2E2E2E2E2E2E2E2E2E2E2E2E2E2E2E2F5E2E2E2E2E2E2E2E2E2E2E2E2E2E2E2E2E2E2E2E2E2E2E2E2E2E2E2E2E2E2E2E2E2E2E2E2E2E2E2E2E2E2E2E2E2E2E2E2E2E2E2E2E2E2E2E2E2E2E2E2E2E2E2E2E2E2E2E2E2E2E2E2E2E2E2E2E2E2E2E2E2E2E2E2E2E2E2E2E2E2E2E2E2E2E2E2E2E2E2E2E2E2E2E2E2E2E2
310
E2E2E2E2E2E2E2E2E2E2E2E2E2E2E2E2E2E2E2E2E2E2E2E2E2E2E2E2E2F5E2E2E2E2E2E2E2E2E2E2E2E2E2E2E2E2F5E2E2E2F5F5E2E2E2F5E2E2E2E2E2E2E2E2E2E2E2E2E2E2E2E2F5E2E2E2E2E2E2E2E2E2E2E2E2E2E2E2E2E2E2E2E2E2E2E2E2E2E2E2E2E2E2E2E2E2E2E2E2E2E2E2E2E2E2E2E2E2E2E2E2E2E2E2E2E2E2
310
E2E2E2E2E2E2E2E2E2E2E2E2E2E2E2E2E2E2E2E2E2E2E2E2E2E2E2E2E2E2E2E2E2E2E2E2E2E2E2E2E2E2E2E2E2E2E2E2E2E2E2E2E2E2E2E2E2E2E2E2E2E2E2E2E2E2E2E2E2E2E2E2E2E2E2E2E2E2E2E2E2E2F5E2E2E2E2E2E2E2E2E2E2E2E2E2E2E2E2F5E2E2E2F5F5E2E2E2F5E2E2E2E2E2E2E2E2E2E2E2E2E2E2E2E2F5E2
310
E2E2E2E2E2E2E2E2E2E2E2E2E2E2E2E2E2E2E2E2E2E2E2E2E2E2E2E2E2E2E2E2E2E2E2E2E2E2E2E2E2E2E2E2E2E2E2E2E2E2E2E2E2E2E2E2E2E2E2E2E2E2E2E2E2E2E2E2E2E2E2E2E2E2E2E2E2E2E2E2E2E2E2E2E2E2E2E2E2E2E2E2E2E2E2E2E2E2E2E2E2E2E2E2E2E2E2E2E2E2E2E2E2E2E2E2E2E2E2E2E2E2E2E2E2E2E2
310
E2E2E2E2E2E2E2E2F5E2E2E2E2E2E2E2E2E2E2E2E2E2E2E2E2F5E2E2E2F5F5E2E2E2F5E2E2E2E2E2E2E2E2E2E2E2E2E2E2E2E2F5E2E2E2E2E2E2E2E2E2E2E2E2E2E2E2E2E2E2E2E2E2E2E2E2E2E2E2E2E2E2E2E2E2E2E2E2E2E2E2E2E2E2E2E2E2E2E2E2E2E2E2E2E2E2E2E2E2E2E2E2E2E2E2E2E2E2E2E2E2E2E2E2E2E2E2
310
E2E2E2E2E2E2E2E2E2E2E2E2E2E2E2E2E2E2E2E2E2E2E2E2E2E2E2E2E2E2E2E2E2E2E2E2E2E2E2E2E2E2E2E2E2E2E2E2E2E2E2E2E2E2E2E2E2E2E2E2E2F5E2E2E2E2E2E2E2E2E2E2E2E2E2E2E2E2F5E2E2E2F5F5E2E2E2F5E2E2E2E2E2E2E2E2E2E2E2E2E2E2E2E2F5E2E2E2E2E2E2E2E2E2E2E2E2E2E2E2E2E2E2E2E2E2E2
310
E2E2E2E2E2E2E2E2E2E2E2E2E2E2E2E2E2E2E2E2E2E2E2E2E2E2E2E2E2E2E2E2E2E2E2E2E2E2E2E2E2E2E2E2E2E2E2E2E2E2E2E2E2E2E2E2E2E2E2E2E2E2E2E2E2E2E2E2E2E2E2E2E2E2E2E2E2E2E2E2E2E2E2E2E2E2E2E2E2E2E2E2E2E2E2E2E2E2E2E2E2E2E2E2E2E2E2E2E2E2E2E2E2E2F5E2E2E2E2E2E2E2E2E2E2E2E2
310
E2E2E2E2F5E2E2E2F5F5E2E2E2E2E2E2E2E2E2E2E2E2E2E2E2E2E2E2E2E2F5E2E2E2E2E2E2E2E2E2E2E2E2E2E2E2E2E2E2E2E2E2E2E2E2E2E2E2E2E2E2E2E2E2E2E2E2E2E2E2E2E2E2E2E2E2E2E2E2E2E2E2E2E2E2E2E2E2E2E2E2E2E2E2E2E2E2E2E2E2E2E2E2E2E2E2E2E2E2E2E2E2E2E2E2E2E2E2E2E2E2E2E2E2E2E2E2
310
E2E2E2E2E2E2E2E2E2E2E2E2E2E2E2E2E2E2E2E2E2E2E2E2E2E2E2E2E2E2E2E2E2E2E2E2E2E2E2E2F5E2E2E2E2E2E2E2E2E2E2E2E2E2E2E2E2E2E2E2E2F5F5E2E2E2E2E2E2E2E2E2E2E2E2E2E2E2E2E2E2E2E2F5E2E2E2E2E2E2E2E2E2E2E2E2E2E2E2E2E2E2E2E2E2E2E2E2E2E2E2E2E2E2E2E2E2E2E2E2E2E2E2E2E2E2E2
310
E2E2E2E2E2E2E2E2E2E2E2E2E2E2E2E2E2E2E2E2E2E2E2E2E2E2E2E2E2E2E2E2E2E2E2E2E2E2E2E2E2E2E2E2E2E2E2E2E2E2E2E2E2E2E2E2E2E2E2E2E2E2E2E2E2E2E2E2E2E2E2E2E2E2E2E2E2E2E2E2E2E2E2E2E2E2E2E2E2E2E2E2E2F5E2E2E2E2E2E2E2E2E2E2E2E2E2E2E2E2E2E2E2E2F5F5E2E2E2E2E2E2E2E2E2E2E2
310
E2E2E2E2E2E2E2E2E2F5E2E2E2E2E2E2E2E2E2E2E2E2E2E2E2E2E2E2E2E2E2E2E2E2E2E2E2E2E2E2E2E2E2E2E2E2E2E2E2E2E2E2E2E2E2E2E2E2E2E2E2E2E2E2E2E2E2E2E2E2E2E2E2E2E2E2E2E2E2E2E2E2E2E2E2E2E2E2E2E2E2E2E2E2E2E2E2E2E2E2E2E2E2E2E2E2E2E2E2E2E2E2E2E2E2E2E2E2E2E2E2E2E2E2E2E2E2
310
E2E2E2E2E2E2E2E2E2E2E2E2E2E2E2E2E2E2E2F5E2E2E2E2E2E2E2E2E2E2E2E2E2E2E2E2E2E2E2E2F5F5E2E2E2E2E2E2E2E2E2E2E2E2E2E2E2E2E2E2E2E2F5E2E2E2E2E2E2E2E2E2E2E2E2E2E2E2E2E2E2E2E2E2E2E2E2E2E2E2E2E2E2E2E2E2E2E2E2E2E2E2E2E2E2E2E2E2E2E2E2E2E2E2E2E2E2E2E2E2E2E2E2E2E2E2E2
310
E2E2E2E2E2E2E2E2E2E2E2E2E2E2E2E2E2E2E2E2E2E2E2E2E2E2E2E2E2E2E2E2E2E2E2E2E2E2E2E2E2E2E2E2E2E2E2E2E2E2E2E2E2E2E2E2E2E2E2E2E2E2E2E2E2E2E2E2E2E2E2E2F5E2E2E2E2E2E2E2E2E2E2E2E2E2E2E2E2E2E2E2E2F5F5E2E2E2E2E2E2E2E2E2E2E2E2E2E2E2E2E2E2E2E2F5E2E2E2E2E2E2E2E2E2E2E2
310
E2E2E2E2E2E2E2E2E2E2E2E2E2E2E2E2E2E2E2E2E2E2E2E2E2E2E2E2E2E2E2E2E2E2E2E2E2E2E2E2E2E2E2E2E2E2E2E2E2E2E2E2E2E2E2E2E2E2E2E2E2E2E2E2E2E2E2E2E2E2E2E2E2E2E2E2E2E2E2E2E2E2E2E2E2E2E2E2E2E2E2E2E2E2E2E2E2E2E2E2E2E2E2E2E2E2E2E2E2E2E2E2E2E2E2E2E2E2E2E2E2E2E2E2E2F5E2
310
E2E2E2E2E2E2E2E2E2E2E2E2E2E2E2E2E2E2E2F5F5E2E2E2E2E2E2E2E2E2E2E2E2E2E2E2E2E2E2E2E2F5E2E2E2E2E2E2E2E2E2E2E2E2E2E2E2E2E2E2E2E2E2E2E2E2E2E2E2E2E2E2E2E2E2E2E2E2E2E2E2E2E2E2E2E2E2E2E2E2E2E2E2E2E2E2E2E2E2E2E2E2E2E2E2E2E2E2E2E2E2E2E2E2E2E2E2E2E2E2E2E2E2E2E2E2E2
310
E2E2E2E2E2E2E2E2E2E2E2E2E2E2E2E2E2E2E2E2E2E2E2E2E2E2E2E2E2E2E2E2E2E2E2E2E2E2E2E2E2E2E2E2E2E2E2E2E2E2E2F5E2E2E2E2E2E2E2E2E2E2E2E2E2E2E2E2E2E2E2E2F5F5E2E2E2E2E2E2E2E2E2E2E2E2E2E2E2E2E2E2E2E2F5E2E2E2E2E2E2E2E2E2E2E2E2E2E2E2E2E2E2E2E2E2E2E2E2E2E2E2E2E2E2E2E2
310
E2E2E2E2E2E2E2E2E2E2E2E2E2E2E2E2E2E2E2E2E2E2E2E2E2E2E2E2E2E2E2E2E2E2E2E2E2E2E2E2E2E2E2E2E2E2E2E2E2E2E2E2E2E2E2E2E2E2E2E2E2E2E2E2E2E2E2E2E2E2E2E2E2E2E2E2E2E2E2E2E2E2E2E2E2E2E2E2E2E2E2E2E2E2E2E2E2E2E2E2E2E2E2E2F5E2E2E2E2E2E2E2E2E2E2E2E2E2E2E2E2E2E2E2E2F5F5
310
E2E2E2E2E2E2E2E2E2E2E2E2E2E2E2E2E2E2E2E2F5E2E2E2E2E2E2E2E2E2E2E2E2E2E2E2E2E2E2E2E2E2E2E2E2E2E2E2E2E2E2E2E2E2E2E2E2E2E2E2E2E2E2E2E2E2E2E2E2E2E2E2E2E2E2E2E2E2E2E2E2E2E2E2E2E2E2E2E2E2E2E2E2E2E2E2E2E2E2E2E2E2E2E2E2E2E2E2E2E2E2E2E2E2E2E2E2E2E2E2E2E2E2E2E2E2E2
310
E2E2E2E2E2E2E2E2E2E2E2E2E2E2E2E2E2E2E2E2E2E2E2E2E2E2E2E2E2E2F5E2E2E2E2E2E2E2E2E2E2E2E2E2E2E2E2E2E2E2E2F5F5E2E2E2E2E2E2E2E2E2E2E2E2E2E2E2E2E2E2E2E2F5E2E2E2E2E2E2E2E2E2E2E2E2E2E2E2E2E2E2E2E2E2E2E2E2E2E2E2E2E2E2E2E2E2E2E2E2E2E2E2E2E2E2E2E2E2E2E2E2E2E2E2E2E2
310
E2E2E2E2E2E2E2E2E2E2E2E2E2E2E2E2E2E2E2E2E2E2E2E2E2E2E2E2E2E2E2E2E2E2E2E2E2E2E2E2E2E2E2E2E2E2E2E2E2E2E2E2E2E2E2E2E2E2E2E2E2E2E2E2E2E2E2E2E2E2E2E2E2E2E2E2E2E2E2E2E2E2E2F5E2E2E2E2E2E2E2E2E2E2E2E2E2E2E2E2E2E2E2E2F5F5E2E2E2F5E2E2E2E2E2E2E2E2E2E2E2E2E2E2E2E2F5
310
E2E2E2E2E2E2E2E2E2E2E2E2E2E2E2E2E2E2E2E2E2E2E2E2E2E2E2E2E2E2E2E2E2E2E2E2E2E2E2E2E2E2E2E2E2E2E2E2E2E2E2E2E2E2E2E2E2E2E2E2E2E2E2E2E2E2E2E2E2E2E2E2E2E2E2E2E2E2E2E2E2E2E2E2E2E2E2E2E2E2E2E2E2E2E2E2E2E2E2E2E2E2E2E2E2E2E2E2E2E2E2E2E2E2E2E2E2E2E2E2E2E2E2E2E2E2E2
310
E2E2E2E2E2E2E2E2E2F5E2E2E2E2E2E2E2E2E2E2E2E2E2E2E2E2F5E2E2E2F5F5E2E2E2F5E2E2E2E2E2E2E2E2E2E2E2E2E2E2E2E2F5E2E2E2E2E2E2E2E2E2E2E2E2E2E2E2E2E2E2E2E2E2E2E2E2E2E2E2E2E2E2E2E2E2E2E2E2E2E2E2E2E2E2E2E2E2E2E2E2E2E2E2E2E2E2E2E2E2E2E2E2E2E2E2E2E2E2E2E2E2E2E2E2E2E2
310
E2E2E2E2E2E2E2E2E2E2E2E2E2E2E2E2E2E2E2E2E2E2E2E2E2E2E2E2E2E2E2E2E2E2E2E2E2E2E2E2E2E2E2E2E2E2E2E2E2E2E2E2E2E2E2E2E2E2E2E2E2E2F5E2E2E2E2E2E2E2E2E2E2E2E2E2E2E2E2F5E2E2E2F5F5E2E2E2F5E2E2E2E2E2E2E2E2E2E2E2E2E2E2E2E2F5E2E2E2E2E2E2E2E2E2E2E2E2E2E2E2E2E2E2E2E2E2
310
E2E2E2E2E2E2E2E2E2E2E2E2E2E2E2E2E2E2E2E2E2E2E2E2E2E2E2E2E2E2E2E2E2E2E2E2E2E2E2E2E2E2E2E2E2E2E2E2E2E2E2E2E2E2E2E2E2E2E2E2E2E2E2E2E2E2E2E2E2E2E2E2E2E2E2E2E2E2E2E2E2E2E2E2E2E2E2E2E2E2E2E2E2E2E2E2E2E2E2E2E2E2E2E2E2E2E2E2E2E2E2E2E2E2E2F5E2E2E2E2E2E2E2E2E2E2E2
310
E2E2E2E2E2F5E2E2E2F5F5E2E2E2F5E2E2E2E2E2E2E2E2E2E2E2E2E2E2E2E2F5E2E2E2E2E2E2E2E2E2E2E2E2E2E2E2E2E2E2E2E2E2E2E2E2E2E2E2E2E2E2E2E2E2E2E2E2E2E2E2E2E2E2E2E2E2E2E2E2E2E2E2E2E2E2E2E2E2E2E2E2E2E2E2E2E2E2E2E2E2E2E2E2E2E2E2E2E2E2E2E2E2E2E2E2E2E2E2E2E2E2E2E2E2E2E2
310
E2E2E2E2E2E2E2E2E2E2E2E2E2E2E2E2E2E2E2E2E2E2E2E2E2E2E2E2E2E2E2E2E2E2E2E2E2E2E2E2E2F5E2E2E2E2E2E2E2E2E2E2E2E2E2E2E2E2F5E2E2E2F5F5E2E2E2F5E2E2E2E2E2E2E2E2E2E2E2E2E2E2E2E2F5E2E2E2E2E2E2E2E2E2E2E2E2E2E2E2E2E2E2E2E2E2E2E2E2E2E2E2E2E2E2E2E2E2E2E2E2E2E2E2E2E2E2
310
E2E2E2E2E2E2E2E2E2E2E2E2E2E2E2E2E2E2E2E2E2E2E2E2E2E2E2E2E2E2E2E2E2E2E2E2E2E2E2E2E2E2E2E2E2E2E2E2E2E2E2E2E2E2E2E2E2E2E2E2E2E2E2E2E2E2E2E2E2E2E2E2E2E2E2E2E2E2E2E2E2E2E2E2E2E2E2E2E2E2E2E2E2E2F5E2E2E2E2E2E2E2E2E2E2E2E2E2E2E2E2F5E2E2E2F5F5E2E2E2F5E2E2E2E2E2E2
310
E2E2E2E2E2E2E2E2E2E2F5E2E2E2E2E2E2E2E2E2E2E2E2E2E2E2E2E2E2E2E2E2E2E2E2E2E2E2E2E2E2E2E2E2E2E2E2E2E2E2E2E2E2E2E2E2E2E2E2E2E2E2E2E2E2E2E2E2E2E2E2E2E2E2E2E2E2E2E2E2E2E2E2E2E2E2E2E2E2E2E2E2E2E2E2E2E2E2E2E2E2E2E2E2E2E2E2E2E2E2E2E2E2E2E2E2E2E2E2E2E2E2E2E2E2E2E2
310
E2E2E2E2E2E2E2E2E2E2E2E2E2E2E2E2E2E2E2E2F5E2E2E2E2E2E2E2E2E2E2E2E2E2E2E2E2F5E2E2E2F5F5E2E2E2F5E2E2E2E2E2E2E2E2E2E2E2E2E2E2E2E2F5E2E2E2E2E2E2E2E2E2E2E2E2E2E2E2E2E2E2E2E2E2E2E2E2E2E2E2E2E2E2E2E2E2E2E2E2E2E2E2E2E2E2E2E2E2E2E2E2E2E2E2E2E2E2E2E2E2E2E2E2E2E2E2
310
E2E2E2E2E2E2E2E2E2E2E2E2E2E2E2E2E2E2E2E2E2E2E2E2E2E2E2E2E2E2E2E2E2E2E2E2E2E2E2E2E2E2E2E2E2E2E2E2E2E2E2E2E2E2E2E2E2E2E2E2E2E2E2E2E2E2E2E2E2E2E2E2E2F5E2E2E2E2E2E2E2E2E2E2E2E2E2E2E2E2F5E2E2E2F5F5E2E2E2F5E2E2E2E2E2E2E2E2E2E2E2E2E2E2E2E2F5E2E2E2E2E2E2E2E2E2E2
310
E2E2E2E2E2E2E2E2E2E2E2E2E2E2E2E2E2E2E2E2E2E2E2E2E2E2E2E2E2E2E2E2E2E2E2E2E2E2E2E2E2E2E2E2E2E2E2E2E2E2E2E2E2E2E2E2E2E2E2E2E2E2E2E2E2E2E2E2E2E2E2E2E2E2E2E2E2E2E2E2E2E2E2E2E2E2E2E2E2E2E2E2E2E2E2E2E2E2E2E2E2E2E2E2E2E2E2E2E2E2E2E2E2E2E2E2E2E2E2E2E2E2E2E2E2E2F5
310
E2E2E2E2E2E2E2E2E2E2E2E2E2E2E2E2F5E2E2E2F5F5E2E2E2F5E2E2E2E2E2E2E2E2E2E2E2E2E2E2E2E2F5E2E2E2E2E2E2E2E2E2E2E2E2E2E2E2E2E2E2E2E2E2E2E2E2E2E2E2E2E2E2E2E2E2E2E2E2E2E2E2E2E2E2E2E2E2E2E2E2E2E2E2E2E2E2E2E2E2E2E2E2E2E2E2E2E2E2E2E2E2E2E2E2E2E2E2E2E2E2E2E2E2E2E2E2
310
E2E2E2E2E2E2E2E2E2E2E2E2E2E2E2E2E2E2E2E2E2E2E2E2E2E2E2E2E2E2E2E2E2E2E2E2E2E2E2E2E2E2E2E2E2E2E2E2E2E2E2E2F5E2E2E2E2E2E2E2E2E2E2E2E2E2E2E2E2F5E2E2E2F5F5E2E2E2F5E2E2E2E2E2E2E2E2E2E2E2E2E2E2E2E2F5E2E2E2E2E2E2E2E2E2E2E2E2E2E2E2E2E2E2E2E2E2E2E2E2E2E2E2E2E2E2E2
310
E2E2E2E2E2E2E2E2E2E2E2E2E2E2E2E2E2E2E2E2E2E2E2E2E2E2E2E2E2E2E2E2E2E2E2E2E2E2E2E2E2E2E2E2E2E2E2E2E2E2E2E2E2E2E2E2E2E2E2E2E2E2E2E2E2E2E2E2E2E2E2E2E2E2E2E2E2E2E2E2E2E2E2E2E2E2E2E2E2E2E2E2E2E2E2E2E2E2E2E2E2E2E2E2E2F5E2E2E2E2E2E2E2E2E2E2E2E2E2E2E2E2F5E2E2E2F5
310
F5E2E2E2F5E2E2E2E2E2E2E2E2E2E2E2E2E2E2E2E2F5E2E2E2E2E2E2E2E2E2E2E2E2E2E2E2E2E2E2E2E2E2E2E2E2E2E2E2E2E2E2E2E2E2E2E2E2E2E2E2E2E2E2E2E2E2E2E2E2E2E2E2E2E2E2E2E2E2E2E2E2E2E2E2E2E2E2E2E2E2E2E2E2E2E2E2E2E2E2E2E2E2E2E2E2E2E2E2E2E2E2E2E2E2E2E2E2E2E2E2E2E2E2E2E2E2
310
E2E2E2E2E2E2E2E2E2E2E2E2E2E2E2E2E2E2E2E2E2E2E2E2E2E2E2E2E2E2E2F5E2E2E2E2E2E2E2E2E2E2E2E2E2E2E2E2F5E2E2E2F5F5E2E2E2F5E2E2E2E2E2E2E2E2E2E2E2E2E2E2E2E2F5E2E2E2E2E2E2E2E2E2E2E2E2E2E2E2E2E2E2E2E2E2E2E2E2E2E2E2E2E2E2E2E2E2E2E2E2E2E2E2E2E2E2E2E2E2E2E2E2E2E2E2E2
310
E2E2E2E2E2E2E2E2E2E2E2E2E2E2E2E2E2E2E2E2E2E2E2E2E2E2E2E2E2E2E2E2E2E2E2E2E2E2E2E2E2E2E2E2E2E2E2E2E2E2E2E2E2E2E2E2E2E2E2E2E2E2E2E2E2E2E2E2E2E2E2E2E2E2E2E2E2E2E2E2E2E2E2E2F5E2E2E2E2E2E2E2E2E2E2E2E2E2E2E2E2F5E2E2E2F5F5E2E2E2F5E2E2E2E2E2E2E2E2E2E2E2E2E2E2E2E2
310
F5E2E2E2E2E2E2E2E2E2E2E2E2E2E2E2E2E2E2E2E2E2E2E2E2E2E2E2E2E2E2E2E2E2E2E2E2E2E2E2E2E2E2E2E2E2E2E2E2E2E2E2E2E2E2E2E2E2E2E2E2E2E2E2E2E2E2E2E2E2E2E2E2E2E2E2E2E2E2E2E2E2E2E2E2E2E2E2E2E2E2E2E2E2E2E2E2E2E2E2E2E2E2E2E2E2E2E2E2E2E2E2E2E2E2E2E2E2E2E2E2E2E2E2E2E2E2
310
E2E2E2E2E2E2E2E2E2E2F5E2E2E2E2E2E2E2E2E2E2E2E2E2E2E2E2F5E2E2E2F5F5E2E2E2F5E2E2E2E2E2E2E2E2E2E2E2E2E2E2E2E2F5E2E2E2E2E2E2E2E2E2E2E2E2E2E2E2E2E2E2E2E2E2E2E2E2E2E2E2E2E2E2E2E2E2E2E2E2E2E2E2E2E2E2E2E2E2E2E2E2E2E2E2E2E2E2E2E2E2E2E2E2E2E2E2E2E2E2E2E2E2E2E2E2E2
310
E2E2E2E2E2E2E2E2E2E2E2E2E2E2E2E2E2E2E2E2E2E2E2E2E2E2E2E2E2E2E2E2E2E2E2E2E2E2E2E2E2E2E2E2E2E2E2E2E2E2E2E2E2E2E2E2E2E2E2E2E2E2E2F5E2E2E2E2E2E2E2E2E2E2E2E2E2E2E2E2F5E2E2E2F5F5E2E2E2F5E2E2E2E2E2E2E2E2E2E2E2E2E2E2E2E2F5E2E2E2E2E2E2E2E2E2E2E2E2E2E2E2E2E2E2E2E2
310
E2E2E2E2E2E2E2E2E2E2E2E2E2E2E2E2E2E2E2E2E2E2E2E2E2E2E2E2E2E2E2E2E2E2E2E2E2E2E2E2E2E2E2E2E2E2E2E2E2E2E2E2E2E2E2E2E2E2E2E2E2E2E2E2E2E2E2E2E2E2E2E2E2E2E2E2E2E2E2E2E2E2E2E2E2E2E2E2E2E2E2E2E2E2E2E2E2E2E2E2E2E2E2E2E2E2E2E2E2E2E2E2E2E2E2E2F5E2E2E2E2E2E2E2E2E2E2
310
E2E2E2E2E2E2F5E2E2E2F5F5E2E2E2F5E2E2E2E2E2E2E2E2E2E2E2E2E2E2E2E2F5E2E2E2E2E2E2E2E2E2E2E2E2E2E2E2E2E2E2E2E2E2E2E2E2E2E2E2E2E2E2E2E2E2E2E2E2E2E2E2E2E2E2E2E2E2E2E2E2E2E2E2E2E2E2E2E2E2E2E2E2E2E2E2E2E2E2E2E2E2E2E2E2E2E2E2E2E2E2E2E2E2E2E2E2E2E2E2E2E2E2E2E2E2E2
310
E2E2E2E2E2E2E2E2E2E2E2E2E2E2E2E2E2E2E2E2E2E2E2E2E2E2E2E2E2E2E2E2E2E2E2E2E2E2E2E2E2E2F5E2E2E2E2E2E2E2E2E2E2E2E2E2E2E2E2F5E2E2E2F5F5E2E2E2E2E2E2E2E2E2E2E2E2E2E2E2E2E2E2E2E2F5E2E2E2E2E2E2E2E2E2E2E2E2E2E2E2E2E2E2E2E2E2E2E2E2E2E2E2E2E2E2E2E2E2E2E2E2E2E2E2E2E2
310
E2E2E2E2E2E2E2E2E2E2E2E2E2E2E2E2E2E2E2E2E2E2E2E2E2E2E2E2E2E2E2E2E2E2E2E2E2E2E2E2E2E2E2E2E2E2E2E2E2E2E2E2E2E2E2E2E2E2E2E2E2E2E2E2E2E2E2E2E2E2E2E2E2E2E2E2E2E2E2E2E2E2E2E2E2E2E2E2E2E2E2E2E2E2E2F5E2E2E2E2E2E2E2E2E2E2E2E2E2E2E2E2E2E2E2E2F5F5E2E2E2E2E2E2E2E2E2
310
E2E2E2E2E2E2E2E2E2E2E2F5E2E2E2E2E2E2E2E2E2E2E2E2E2E2E2E2E2E2E2E2E2E2E2E2E2E2E2E2E2E2E2E2E2E2E2E2E2E2E2E2E2E2E2E2E2E2E2E2E2E2E2E2E2E2E2E2E2E2E2E2E2E2E2E2E2E2E2E2E2E2E2E2E2E2E2E2E2E2E2E2E2E2E2E2E2E2E2E2E2E2E2E2E2E2E2E2E2E2E2E2E2E2E2E2E2E2E2E2E2E2E2E2E2E2E2
310
E2E2E2E2E2E2E2E2E2E2E2E2E2E2E2E2E2E2E2E2E2F5E2E2E2E2E2E2E2E2E2E2E2E2E2E2E2E2E2E2E2E2F5F5E2E2E2E2E2E2E2E2E2E2E2E2E2E2E2E2E2E2E2E2F5E2E2E2E2E2E2E2E2E2E2E2E2E2E2E2E2E2E2E2E2E2E2E2E2E2E2E2E2E2E2E2E2E2E2E2E2E2E2E2E2E2E2E2E2E2E2E2E2E2E2E2E2E2E2E2E2E2E2E2E2E2E2
310
E2E2E2E2E2E2E2E2E2E2E2E2E2E2E2E2E2E2E2E2E2E2E2E2E2E2E2E2E2E2E2E2E2E2E2E2E2E2E2E2E2E2E2E2E2E2E2E2E2E2E2E2E2E2E2E2E2E2E2E2E2E2E2E2E2E2E2E2E2E2E2E2E2E2F5E2E2E2E2E2E2E2E2E2E2E2E2E2E2E2E2E2E2E2E2F5F5E2E2E2E2E2E2E2E2E2E2E2E2E2E2E2E2E2E2E2E2F5E2E2E2E2E2E2E2E2E2
310
E2E2E2E2E2E2E2E2E2E2E2E2E2E2E2E2E2E2E2E2E2E2E2E2E2E2E2E2E2E2E2E2E2E2E2E2E2E2E2E2E2E2E2E2E2E2E2E2E2E2E2E2E2E2E2E2E2E2E2E2E2E2E2E2E2E2E2E2E2E2E2E2E2E2E2E2E2E2E2E2E2E2E2E2E2E2E2E2E2E2E2E2E2E2E2E2E2E2E2E2E2E2E2E2E2E2E2E2E2E2E2E2E2E2E2E2E2E2E2E2E2E2E2E2E2E2E2
310
F5E2E2E2E2E2E2E2E2E2E2E2E2E2E2E2E2E2E2E2E2F5F5E2E2E2E2E2E2E2E2E2E2E2E2E2E2E2E2E2E2E2E2F5E2E2E2E2E2E2E2E2E2E2E2E2E2E2E2E2E2E2E2E2E2E2E2E2E2E2E2E2E2E2E2E2E2E2E2E2E2E2E2E2E2E2E2E2E2E2E2E2E2E2E2E2E2E2E2E2E2E2E2E2E2E2E2E2E2E2E2E2E2E2E2E2E2E2E2E2E2E2E2E2E2E2E2
310
E2E2E2E2E2E2E2E2E2E2E2E2E2E2E2E2E2E2E2E2E2E2E2E2E2E2E2E2E2E2E2E2E2E2E2E2E2E2E2E2E2E2E2E2E2E2E2E2E2E2E2E2E2F5E2E2E2E2E2E2E2E2E2E2E2E2E2E2E2E2E2E2E2E2F5F5E2E2E2E2E2E2E2E2E2E2E2E2E2E2E2E2E2E2E2E2F5E2E2E2E2E2E2E2E2E2E2E2E2E2E2E2E2E2E2E2E2E2E2E2E2E2E2E2E2E2E2
310
E2E2E2E2E2E2E2E2E2E2E2E2E2E2E2E2E2E2E2E2E2E2E2E2E2E2E2E2E2E2E2E2E2E2E2E2E2E2E2E2E2E2E2E2E2E2E2E2E2E2E2E2E2E2E2E2E2E2E2E2E2E2E2E2E2E2E2E2E2E2E2E2E2E2E2E2E2E2E2E2E2E2E2E2E2E2E2E2E2E2E2E2E2E2E2E2E2E2E2E2E2E2E2E2E2E2F5E2E2E2E2E2E2E2E2E2E2E2E2E2E2E2E2E2E2E2E2
310
F5F5E2E2E2E2E2E2E2E2E2E2E2E2E2E2E2E2E2E2E2E2F5E2E2E2E2E2E2E2E2E2E2E2E2E2E2E2E2E2E2E2E2E2E2E2E2E2E2E2E2E2E2E2E2E2E2E2E2E2E2E2E2E2E2E2E2E2E2E2E2E2E2E2E2E2E2E2E2E2E2E2E2E2E2E2E2E2E2E2E2E2E2E2E2E2E2E2E2E2E2E2E2E2E2E2E2E2E2E2E2E2E2E2E2E2E2E2E2E2E2E2E2E2E2E2E2
310
E2E2E2E2E2E2E2E2E2E2E2E2E2E2E2E2E2E2E2E2E2E2E2E2E2E2E2E2E2E2E2E2F5E2E2E2E2E2E2E2E2E2E2E2E2E2E2E2E2E2E2E2E2F5F5E2E2E2E2E2E2E2E2E2E2E2E2E2E2E2E2E2E2E2E2F5E2E2E2E2E2E2E2E2E2E2E2E2E2E2E2E2E2E2E2E2E2E2E2E2E2E2E2E2E2E2E2E2E2E2E2E2E2E2E2E2E2E2E2E2E2E2E2E2E2E2E2
310
E2E2E2E2E2E2E2E2E2E2E2E2E2E2E2E2E2E2E2E2E2E2E2E2E2E2E2E2E2E2E2E2E2E2E2E2E2E2E2E2E2E2E2E2E2E2E2E2E2E2E2E2E2E2E2E2E2E2E2E2E2E2E2E2E2E2E2E2E2E2E2E2E2E2E2E2E2E2E2E2E2E2E2E2E2F5E2E2E2E2E2E2E2E2E2E2E2E2E2E2E2E2E2E2E2E2F5F5E2E2E2E2E2E2E2E2E2E2E2E2E2E2E2E2E2E2E2
310
E2F5E2E2E2E2E2E2E2E2E2E2E2E2E2E2E2E2E2E2E2E2E2E2E2E2E2E2E2E2E2E2E2E2E2E2E2E2E2E2E2E2E2E2E2E2E2E2E2E2E2E2E2E2E2E2E2E2E2E2E2E2E2E2E2E2E2E2E2E2E2E2E2E2E2E2E2E2E2E2E2E2E2E2E2E2E2E2E2E2E2E2E2E2E2E2E2E2E2E2E2E2E2E2E2E2E2E2E2E2E2E2E2E2E2E2E2E2E2E2E2E2E2E2E2E2E2
310
E2E2E2E2E2E2E2E2E2E2E2F5E2E2E2E2E2E2E2E2E2E2E2E2E2E2E2E2E2E2E2E2F5F5E2E2E2E2E2E2E2E2E2E2E2E2E2E2E2E2E2E2E2E2F5E2E2E2E2E2E2E2E2E2E2E2E2E2E2E2E2E2E2E2E2E2E2E2E2E2E2E2E2E2E2E2E2E2E2E2E2E2E2E2E2E2E2E2E2E2E2E2E2E2E2E2E2E2E2E2E2E2E2E2E2E2E2E2E2E2E2E2E2E2E2E2E2
310
E2E2E2E2E2E2E2E2E2E2E2E2E2E2E2E2E2E2E2E2E2E2E2E2E2E2E2E2E2E2E2E2E2E2E2E2E2E2E2E2E2E2E2E2E2E2E2E2E2E2E2E2E2E2E2E2E2E2E2E2E2E2E2E2F5E2E2E2E2E2E2E2E2E2E2E2E2E2E2E2E2E2E2E2E2F5F5E2E2E2F5E2E2E2E2E2E2E2E2E2E2E2E2E2E2E2E2F5E2E2E2E2E2E2E2E2E2E2E2E2E2E2E2E2E2E2E2
310
E2E2E2E2E2E2E2E2E2E2E2E2E2E2E2E2E2E2E2E2E2E2E2E2E2E2E2E2E2E2E2E2E2E2E2E2E2E2E2E2E2E2E2E2E2E2E2E2E2E2E2E2E2E2E2E2E2E2E2E2E2E2E2E2E2E2E2E2E2E2E2E2E2E2E2E2E2E2E2E2E2E2E2E2E2E2E2E2E2E2E2E2E2E2E2E2E2E2E2E2E2E2E2E2E2E2E2E2E2E2E2E2E2E2E2E2E2F5E2E2E2E2E2E2E2E2E2
310
E2E2E2E2E2E2E2F5E2E2E2F5F5E2E2E2F5E2E2E2E2E2E2E2E2E2E2E2E2E2E2E2E2F5E2E2E2E2E2E2E2E2E2E2E2E2E2E2E2E2E2E2E2E2E2E2E2E2E2E2E2E2E2E2E2E2E2E2E2E2E2E2E2E2E2E2E2E2E2E2E2E2E2E2E2E2E2E2E2E2E2E2E2E2E2E2E2E2E2E2E2E2E2E2E2E2E2E2E2E2E2E2E2E2E2E2E2E2E2E2E2E2E2E2E2E2E2
310
E2E2E2E2E2E2E2E2E2E2E2E2E2E2E2E2E2E2E2E2E2E2E2E2E2E2E2E2E2E2E2E2E2E2E2E2E2E2E2E2E2E2E2F5E2E2E2E2E2E2E2E2E2E2E2E2E2E2E2E2F5E2E2E2F5F5E2E2E2F5E2E2E2E2E2E2E2E2E2E2E2E2E2E2E2E2F5E2E2E2E2E2E2E2E2E2E2E2E2E2E2E2E2E2E2E2E2E2E2E2E2E2E2E2E2E2E2E2E2E2E2E2E2E2E2E2E2
310
E2E2E2E2E2E2E2E2E2E2E2E2E2E2E2E2E2E2E2E2E2E2E2E2E2E2E2E2E2E2E2E2E2E2E2E2E2E2E2E2E2E2E2E2E2E2E2E2E2E2E2E2E2E2E2E2E2E2E2E2E2E2E2E2E2E2E2E2E2E2E2E2E2E2E2E2E2E2E2E2E2E2E2E2E2E2E2E2E2E2E2E2E2E2E2E2F5E2E2E2E2E2E2E2E2E2E2E2E2E2E2E2E2F5E2E2E2F5F5E2E2E2F5E2E2E2E2
310
E2E2E2E2E2E2E2E2E2E2E2E2F5E2E2E2E2E2E2E2E2E2E2E2E2E2E2E2E2E2E2E2E2E2E2E2E2E2E2E2E2E2E2E2E2E2E2E2E2E2E2E2E2E2E2E2E2E2E2E2E2E2E2E2E2E2E2E2E2E2E2E2E2E2E2E2E2E2E2E2E2E2E2E2E2E2E2E2E2E2E2E2E2E2E2E2E2E2E2E2E2E2E2E2E2E2E2E2E2E2E2E2E2E2E2E2E2E2E2E2E2E2E2E2E2E2E2
310
E2E2E2E2E2E2E2E2E2E2E2E2E2E2E2E2E2E2E2E2E2E2F5E2E2E2E2E2E2E2E2E2E2E2E2E2E2E2E2F5E2E2E2F5F5E2E2E2F5E2E2E2E2E2E2E2E2E2E2E2E2E2E2E2E2F5E2E2E2E2E2E2E2E2E2E2E2E2E2E2E2E2E2E2E2E2E2E2E2E2E2E2E2E2E2E2E2E2E2E2E2E2E2E2E2E2E2E2E2E2E2E2E2E2E2E2E2E2E2E2E2E2E2E2E2E2E2
310
E2E2E2E2E2E2E2E2E2E2E2E2E2E2E2E2E2E2E2E2E2E2E2E2E2E2E2E2E2E2E2E2E2E2E2E2E2E2E2E2E2E2E2E2E2E2E2E2E2E2E2E2E2E2E2E2E2E2E2E2E2E2E2E2E2E2E2E2E2E2E2E2E2E2E2F5E2E2E2E2E2E2E2E2E2E2E2E2E2E2E2E2F5E2E2E2F5F5E2E2E2F5E2E2E2E2E2E2E2E2E2E2E2E2E2E2E2E2F5E2E2E2E2E2E2E2E2
310
E2E2E2E2E2E2E2E2E2E2E2E2E2E2E2E2E2E2E2E2E2E2E2E2E2E2E2E2E2E2E2E2E2E2E2E2E2E2E2E2E2E2E2E2E2E2E2E2E2E2E2E2E2E2E2E2E2E2E2E2E2E2E2E2E2E2E2E2E2E2E2E2E2E2E2E2E2E2E2E2E2E2E2E2E2E2E2E2E2E2E2E2E2E2E2E2E2E2E2E2E2E2E2E2E2E2E2E2E2E2E2E2E2E2E2E2E2E2E2E2E2E2E2E2E2E2E2
310
E2F5E2E2E2E2E2E2E2E2E2E2E2E2E2E2E2E2F5E2E2E2F5F5E2E2E2F5E2E2E2E2E2E2E2E2E2E2E2E2E2E2E2E2F5E2E2E2E2E2E2E2E2E2E2E2E2E2E2E2E2E2E2E2E2E2E2E2E2E2E2E2E2E2E2E2E2E2E2E2E2E2E2E2E2E2E2E2E2E2E2E2E2E2E2E2E2E2E2E2E2E2E2E2E2E2E2E2E2E2E2E2E2E2E2E2E2E2E2E2E2E2E2E2E2E2E2
310
E2E2E2E2E2E2E2E2E2E2E2E2E2E2E2E2E2E2E2E2E2E2E2E2E2E2E2E2E2E2E2E2E2E2E2E2E2E2E2E2E2E2E2E2E2E2E2E2E2E2E2E2E2E2F5E2E2E2E2E2E2E2E2E2E2E2E2E2E2E2E2F5E2E2E2F5F5E2E2E2F5E2E2E2E2E2E2E2E2E2E2E2E2E2E2E2E2F5E2E2E2E2E2E2E2E2E2E2E2E2E2E2E2E2E2E2E2E2E2E2E2E2E2E2E2E2E2
310
E2E2E2E2E2E2E2E2E2E2E2E2E2E2E2E2E2E2E2E2E2E2E2E2E2E2E2E2E2E2E2E2E2E2E2E2E2E2E2E2E2E2E2E2E2E2E2E2E2E2E2E2E2E2E2E2E2E2E2E2E2E2E2E2E2E2E2E2E2E2E2E2E2E2E2E2E2E2E2E2E2E2E2E2E2E2E2E2E2E2E2E2E2E2E2E2E2E2E2E2E2E2E2E2E2E2E2F5E2E2E2E2E2E2E2E2E2E2E2E2E2E2E2E2F5E2E2
310
E2F5F5E2E2E2F5E2E2E2E2E2E2E2E2E2E2E2E2E2E2E2E2F5E2E2E2E2E2E2E2E2E2E2E2E2E2E2E2E2E2E2E2E2E2E2E2E2E2E2E2E2E2E2E2E2E2E2E2E2E2E2E2E2E2E2E2E2E2E2E2E2E2E2E2E2E2E2E2E2E2E2E2E2E2E2E2E2E2E2E2E2E2E2E2E2E2E2E2E2E2E2E2E2E2E2E2E2E2E2E2E2E2E2E2E2E2E2E2E2E2E2E2E2E2E2E2
310
E2E2E2E2E2E2E2E2E2E2E2E2E2E2E2E2E2E2E2E2E2E2E2E2E2E2E2E2E2E2E2E2E2F5E2E2E2E2E2E2E2E2E2E2E2E2E2E2E2E2F5E2E2E2F5F5E2E2E2F5E2E2E2E2E2E2E2E2E2E2E2E2E2E2E2E2F5E2E2E2E2E2E2E2E2E2E2E2E2E2E2E2E2E2E2E2E2E2E2E2E2E2E2E2E2E2E2E2E2E2E2E2E2E2E2E2E2E2E2E2E2E2E2E2E2E2E2
310
E2E2E2E2E2E2E2E2E2E2E2E2E2E2E2E2E2E2E2E2E2E2E2E2E2E2E2E2E2E2E2E2E2E2E2E2E2E2E2E2E2E2E2E2E2E2E2E2E2E2E2E2E2E2E2E2E2E2E2E2E2E2E2E2E2E2E2E2E2E2E2E2E2E2E2E2E2E2E2E2E2E2E2E2E2E2F5E2E2E2E2E2E2E2E2E2E2E2E2E2E2E2E2F5E2E2E2F5F5E2E2E2F5E2E2E2E2E2E2E2E2E2E2E2E2E2E2
310
E2E2F5E2E2E2E2E2E2E2E2E2E2E2E2E2E2E2E2E2E2E2E2E2E2E2E2E2E2E2E2E2E2E2E2E2E2E2E2E2E2E2E2E2E2E2E2E2E2E2E2E2E2E2E2E2E2E2E2E2E2E2E2E2E2E2E2E2E2E2E2E2E2E2E2E2E2E2E2E2E2E2E2E2E2E2E2E2E2E2E2E2E2E2E2E2E2E2E2E2E2E2E2E2E2E2E2E2E2E2E2E2E2E2E2E2E2E2E2E2E2E2E2E2E2E2E2
310
E2E2E2E2E2E2E2E2E2E2E2E2F5E2E2E2E2E2E2E2E2E2E2E2E2E2E2E2E2F5E2E2E2F5F5E2E2E2F5E2E2E2E2E2E2E2E2E2E2E2E2E2E2E2E2F5E2E2E2E2E2E2E2E2E2E2E2E2E2E2E2E2E2E2E2E2E2E2E2E2E2E2E2E2E2E2E2E2E2E2E2E2E2E2E2E2E2E2E2E2E2E2E2E2E2E2E2E2E2E2E2E2E2E2E2E2E2E2E2E2E2E2E2E2E2E2E2
310
E2E2E2E2E2E2E2E2E2E2E2E2E2E2E2E2E2E2E2E2E2E2E2E2E2E2E2E2E2E2E2E2E2E2E2E2E2E2E2E2E2E2E2E2E2E2E2E2E2E2E2E2E2E2E2E2E2E2E2E2E2E2E2E2E2F5E2E2E2E2E2E2E2E2E2E2E2E2E2E2E2E2F5E2E2E2F5F5E2E2E2F5E2E2E2E2E2E2E2E2E2E2E2E2E2E2E2E2F5E2E2E2E2E2E2E2E2E2E2E2E2E2E2E2E2E2E2
310
E2E2E2E2E2E2E2E2E2E2E2E2E2E2E2E2E2E2E2E2E2E2E2E2E2E2E2E2E2E2E2E2E2E2E2E2E2E2E2E2E2E2E2E2E2E2E2E2E2E2E2E2E2E2E2E2E2E2E2E2E2E2E2E2E2E2E2E2E2E2E2E2E2E2E2E2E2E2E2E2E2E2E2E2E2E2E2E2E2E2E2E2E2E2E2E2E2E2E2E2E2E2E2E2E2E2E2E2E2E2E2E2E2E2E2E2E2E2F5E2E2E2E2E2E2E2E2
310
E2E2E2E2E2E2E2E2F5E2E2E2F5F5E2E2E2F5E2E2E2E2E2E2E2E2E2E2E2E2E2E2E2E2F5E2E2E2E2E2E2E2E2E2E2E2E2E2E2E2E2E2E2E2E2E2E2E2E2E2E2E2E2E2E2E2E2E2E2E2E2E2E2E2E2E2E2E2E2E2E2E2E2E2E2E2E2E2E2E2E2E2E2E2E2E2E2E2E2E2E2E2E2E2E2E2E2E2E2E2E2E2E2E2E2E2E2E2E2E2E2E2E2E2E2E2E2
310
E2E2E2E2E2E2E2E2E2E2E2E2E2E2E2E2E2E2E2E2E2E2E2E2E2E2E2E2E2E2E2E2E2E2E2E2E2E2E2E2E2E2E2E2F5E2E2E2E2E2E2E2E2E2E2E2E2E2E2E2E2F5E2E2E2F5F5E2E2E2F5E2E2E2E2E2E2E2E2E2E2E2E2E2E2E2E2F5E2E2E2E2E2E2E2E2E2E2E2E2E2E2E2E2E2E2E2E2E2E2E2E2E2E2E2E2E2E2E2E2E2E2E2E2E2E2E2
310
E2E2E2E2E2E2E2E2E2E2E2E2E2E2E2E2E2E2E2E2E2E2E2E2E2E2E2E2E2E2E2E2E2E2E2E2E2E2E2E2E2E2E2E2E2E2E2E2E2E2E2E2E2E2E2E2E2E2E2E2E2E2E2E2E2E2E2E2E2E2E2E2E2E2E2E2E2E2E2E2E2E2E2E2E2E2E2E2E2E2E2E2E2E2E2E2E2F5E2E2E2E2E2E2E2E2E2E2E2E2E2E2E2E2F5E2E2E2F5F5E2E2E2F5E2E2E2
310
E2E2E2E2E2E2E2E2E2E2E2E2E2F5E2E2E2E2E2E2E2E2E2E2E2E2E2E2E2E2E2E2E2E2E2E2E2E2E2E2E2E2E2E2E2E2E2E2E2E2E2E2E2E2E2E2E2E2E2E2E2E2E2E2E2E2E2E2E2E2E2E2E2E2E2E2E2E2E2E2E2E2E2E2E2E2E2E2E2E2E2E2E2E2E2E2E2E2E2E2E2E2E2E2E2E2E2E2E2E2E2E2E2E2E2E2E2E2E2E2E2E2E2E2E2E2E2
310
E2E2E2E2E2E2E2E2E2E2E2E2E2E2E2E2E2E2E2E2E2E2E2F5E2E2E2E2E2E2E2E2E2E2E2E2E2E2E2E2F5E2E2E2F5F5E2E2E2E2E2E2E2E2E2E2E2E2E2E2E2E2E2E2E2E2F5E2E2E2E2E2E2E2E2E2E2E2E2E2E2E2E2E2E2E2E2E2E2E2E2E2E2E2E2E2E2E2E2E2E2E2E2E2E2E2E2E2E2E2E2E2E2E2E2E2E2E2E2E2E2E2E2E2E2E2E2
310
E2E2E2E2E2E2E2E2E2E2E2E2E2E2E2E2E2E2E2E2E2E2E2E2E2E2E2E2E2E2E2E2E2E2E2E2E2E2E2E2E2E2E2E2E2E2E2E2E2E2E2E2E2E2E2E2E2E2E2E2E2E2E2E2E2E2E2E2E2E2E2E2E2E2E2E2F5E2E2E2E2E2E2E2E2E2E2E2E2E2E2E2E2E2E2E2E2F5F5E2E2E2E2E2E2E2E2E2E2E2E2E2E2E2E2E2E2E2E2F5E2E2E2E2E2E2E2
310
E2E2E2E2E2E2E2E2E2E2E2E2E2E2E2E2E2E2E2E2E2E2E2E2E2E2E2E2E2E2E2E2E2E2E2E2E2E2E2E2E2E2E2E2E2E2E2E2E2E2E2E2E2E2E2E2E2E2E2E2E2E2E2E2E2E2E2E2E2E2E2E2E2E2E2E2E2E2E2E2E2E2E2E2E2E2E2E2E2E2E2E2E2E2E2E2E2E2E2E2E2E2E2E2E2E2E2E2E2E2E2E2E2E2E2E2E2E2E2E2E2E2E2E2E2E2E2
310
E2E2F5E2E2E2E2E2E2E2E2E2E2E2E2E2E2E2E2E2E2E2E2F5F5E2E2E2E2E2E2E2E2E2E2E2E2E2E2E2E2E2E2E2E2F5E2E2E2E2E2E2E2E2E2E2E2E2E2E2E2E2E2E2E2E2E2E2E2E2E2E2E2E2E2E2E2E2E2E2E2E2E2E2E2E2E2E2E2E2E2E2E2E2E2E2E2E2E2E2E2E2E2E2E2E2E2E2E2E2E2E2E2E2E2E2E2E2E2E2E2E2E2E2E2E2E2
310
E2E2E2E2E2E2E2E2E2E2E2E2E2E2E2E2E2E2E2E2E2E2E2E2E2E2E2E2E2E2E2E2E2E2E2E2E2E2E2E2E2E2E2E2E2E2E2E2E2E2E2E2E2E2E2F5E2E2E2E2E2E2E2E2E2E2E2E2E2E2E2E2E2E2E2E2F5F5E2E2E2E2E2E2E2E2E2E2E2E2E2E2E2E2E2E2E2E2F5E2E2E2E2E2E2E2E2E2E2E2E2E2E2E2E2E2E2E2E2E2E2E2E2E2E2E2E2
310
E2E2E2E2E2E2E2E2E2E2E2E2E2E2E2E2E2E2E2E2E2E2E2E2E2E2E2E2E2E2E2E2E2E2E2E2E2E2E2E2E2E2E2E2E2E2E2E2E2E2E2E2E2E2E2E2E2E2E2E2E2E2E2E2E2E2E2E2E2E2E2E2E2E2E2E2E2E2E2E2E2E2E2E2E2E2E2E2E2E2E2E2E2E2E2E2E2E2E2E2E2E2E2E2E2E2E2E2F5E2E2E2E2E2E2E2E2E2E2E2E2E2E2E2E2E2E2
310
E2E2F5F5E2E2E2E2E2E2E2E2E2E2E2E2E2E2E2E2E2E2E2E2F5E2E2E2E2E2E2E2E2E2E2E2E2E2E2E2E2E2E2E2E2E2E2E2E2E2E2E2E2E2E2E2E2E2E2E2E2E2E2E2E2E2E2E2E2E2E2E2E2E2E2E2E2E2E2E2E2E2E2E2E2E2E2E2E2E2E2E2E2E2E2E2E2E2E2E2E2E2E2E2E2E2E2E2E2E2E2E2E2E2E2E2E2E2E2E2E2E2E2E2E2E2E2
310
E2E2E2E2E2E2E2E2E2E2E2E2E2E2E2E2E2E2E2E2E2E2E2E2E2E2E2E2E2E2E2E2E2E2F5E2E2E2E2E2E2E2E2E2E2E2E2E2E2E2E2E2E2E2E2F5F5E2E2E2E2E2E2E2E2E2E2E2E2E2E2E2E2E2E2E2E2F5E2E2E2E2E2E2E2E2E2E2E2E2E2E2E2E2E2E2E2E2E2E2E2E2E2E2E2E2E2E2E2E2E2E2E2E2E2E2E2E2E2E2E2E2E2E2E2E2E2
310
E2E2E2E2E2E2E2E2E2E2E2E2E2E2E2E2E2E2E2E2E2E2E2E2E2E2E2E2E2E2E2E2E2E2E2E2E2E2E2E2E2E2E2E2E2E2E2E2E2E2E2E2E2E2E2E2E2E2E2E2E2E2E2E2E2E2E2E2E2E2E2E2E2E2E2E2E2E2E2E2E2E2E2E2E2E2E2F5E2E2E2E2E2E2E2E2E2E2E2E2E2E2E2E2E2E2E2E2F5F5E2E2E2E2E2E2E2E2E2E2E2E2E2E2E2E2E2
310
E2E2E2F5E2E2E2E2E2E2E2E2E2E2E2E2E2E2E2E2E2E2E2E2E2E2E2E2E2E2E2E2E2E2E2E2E2E2E2E2E2E2E2E2E2E2E2E2E2E2E2E2E2E2E2E2E2E2E2E2E2E2E2E2E2E2E2E2E2E2E2E2E2E2E2E2E2E2E2E2E2E2E2E2E2E2E2E2E2E2E2E2E2E2E2E2E2E2E2E2E2E2E2E2E2E2E2E2E2E2E2E2E2E2E2E2E2E2E2E2E2E2E2E2E2E2E2
310
E2E2E2E2E2E2E2E2E2E2E2E2E2F5E2E2E2E2E2E2E2E2E2E2E2E2E2E2E2E2E2E2E2E2F5F5E2E2E2E2E2E2E2E2E2E2E2E2E2E2E2E2E2E2E2E2F5E2E2E2E2E2E2E2E2E2E2E2E2E2E2E2E2E2E2E2E2E2E2E2E2E2E2E2E2E2E2E2E2E2E2E2E2E2E2E2E2E2E2E2E2E2E2E2E2E2E2E2E2E2E2E2E2E2E2E2E2E2E2E2E2E2E2E2E2E2E2
310
E2E2E2E2E2E2E2E2E2E2E2E2E2E2E2E2E2E2E2E2E2E2E2E2E2E2E2E2E2E2E2E2E2E2E2E2E2E2E2E2E2E2E2E2E2E2E2E2E2E2E2E2E2E2E2E2E2E2E2E2E2E2E2E2E2E2F5E2E2E2E2E2E2E2E2E2E2E2E2E2E2E2E2E2E2E2E2F5F5E2E2E2E2E2E2E2E2E2E2E2E2E2E2E2E2E2E2E2E2F5E2E2E2E2E2E2E2E2E2E2E2E2E2E2E2E2E2
310
E2E2E2E2E2E2E2E2E2E2E2E2E2E2E2E2E2E2E2E2E2E2E2E2E2E2E2E2E2E2E2E2E2E2E2E2E2E2E2E2E2E2E2E2E2E2E2E2E2E2E2E2E2E2E2E2E2E2E2E2E2E2E2E2E2E2E2E2E2E2E2E2E2E2E2E2E2E2E2E2E2E2E2E2E2E2E2E2E2E2E2E2E2E2E2E2E2E2E2E2E2E2E2E2E2E2E2E2E2E2E2E2E2E2E2E2E2E2E2F5E2E2E2E2E2E2E2
310
E2E2E2E2E2E2E2E2E2E2E2E2E2F5F5E2E2E2F5E2E2E2E2E2E2E2E2E2E2E2E2E2E2E2E2F5E2E2E2E2E2E2E2E2E2E2E2E2E2E2E2E2E2E2E2E2E2E2E2E2E2E2E2E2E2E2E2E2E2E2E2E2E2E2E2E2E2E2E2E2E2E2E2E2E2E2E2E2E2E2E2E2E2E2E2E2E2E2E2E2E2E2E2E2E2E2E2E2E2E2E2E2E2E2E2E2E2E2E2E2E2E2E2E2E2E2E2
310
E2E2E2E2E2E2E2E2E2E2E2E2E2E2E2E2E2E2E2E2E2E2E2E2E2E2E2E2E2E2E2E2E2E2E2E2E2E2E2E2E2E2E2E2E2F5E2E2E2E2E2E2E2E2E2E2E2E2E2E2E2E2F5E2E2E2F5F5E2E2E2F5E2E2E2E2E2E2E2E2E2E2E2E2E2E2E2E2F5E2E2E2E2E2E2E2E2E2E2E2E2E2E2E2E2E2E2E2E2E2E2E2E2E2E2E2E2E2E2E2E2E2E2E2E2E2E2
310
E2E2E2E2E2E2E2E2E2E2E2E2E2E2E2E2E2E2E2E2E2E2E2E2E2E2E2E2E2E2E2E2E2E2E2E2E2E2E2E2E2E2E2E2E2E2E2E2E2E2E2E2E2E2E2E2E2E2E2E2E2E2E2E2E2E2E2E2E2E2E2E2E2E2E2E2E2E2E2E2E2E2E2E2E2E2E2E2E2E2E2E2E2E2E2E2E2E2F5E2E2E2E2E2E2E2E2E2E2E2E2E2E2E2E2F5E2E2E2F5F5E2E2E2F5E2E2
310
E2E2E2E2E2E2E2E2E2E2E2E2E2E2F5E2E2E2E2E2E2E2E2E2E2E2E2E2E2E2E2E2E2E2E2E2E2E2E2E2E2E2E2E2E2E2E2E2E2E2E2E2E2E2E2E2E2E2E2E2E2E2E2E2E2E2E2E2E2E2E2E2E2E2E2E2E2E2E2E2E2E2E2E2E2E2E2E2E2E2E2E2E2E2E2E2E2E2E2E2E2E2E2E2E2E2E2E2E2E2E2E2E2E2E2E2E2E2E2E2E2E2E2E2E2E2E2
310
E2E2E2E2E2E2E2E2E2E2E2E2E2E2E2E2E2E2E2E2E2E2E2E2F5E2E2E2E2E2E2E2E2E2E2E2E2E2E2E2E2F5E2E2E2F5F5E2E2E2F5E2E2E2E2E2E2E2E2E2E2E2E2E2E2E2E2F5E2E2E2E2E2E2E2E2E2E2E2E2E2E2E2E2E2E2E2E2E2E2E2E2E2E2E2E2E2E2E2E2E2E2E2E2E2E2E2E2E2E2E2E2E2E2E2E2E2E2E2E2E2E2E2E2E2E2E2
310
E2E2E2E2E2E2E2E2E2E2E2E2E2E2E2E2E2E2E2E2E2E2E2E2E2E2E2E2E2E2E2E2E2E2E2E2E2E2E2E2E2E2E2E2E2E2E2E2E2E2E2E2E2E2E2E2E2E2E2E2E2E2E2E2E2E2E2E2E2E2E2E2E2E2E2E2E2F5E2E2E2E2E2E2E2E2E2E2E2E2E2E2E2E2F5E2E2E2F5F5E2E2E2F5E2E2E2E2E2E2E2E2E2E2E2E2E2E2E2E2F5E2E2E2E2E2E2
310
E2E2E2E2E2E2E2E2E2E2E2E2E2E2E2E2E2E2E2E2E2E2E2E2E2E2E2E2E2E2E2E2E2E2E2E2E2E2E2E2E2E2E2E2E2E2E2E2E2E2E2E2E2E2E2E2E2E2E2E2E2E2E2E2E2E2E2E2E2E2E2E2E2E2E2E2E2E2E2E2E2E2E2E2E2E2E2E2E2E2E2E2E2E2E2E2E2E2E2E2E2E2E2E2E2E2E2E2E2E2E2E2E2E2E2E2E2E2E2E2E2E2E2E2E2E2E2
310
E2E2E2F5E2E2E2E2E2E2E2E2E2E2E2E2E2E2E2E2F5E2E2E2F5F5E2E2E2F5E2E2E2E2E2E2E2E2E2E2E2E2E2E2E2E2F5E2E2E2E2E2E2E2E2E2E2E2E2E2E2E2E2E2E2E2E2E2E2E2E2E2E2E2E2E2E2E2E2E2E2E2E2E2E2E2E2E2E2E2E2E2E2E2E2E2E2E2E2E2E2E2E2E2E2E2E2E2E2E2E2E2E2E2E2E2E2E2E2E2E2E2E2E2E2E2E2
310
E2E2E2E2E2E2E2E2E2E2E2E2E2E2E2E2E2E2E2E2E2E2E2E2E2E2E2E2E2E2E2E2E2E2E2E2E2E2E2E2E2E2E2E2E2E2E2E2E2E2E2E2E2E2E2E2F5E2E2E2E2E2E2E2E2E2E2E2E2E2E2E2E2F5E2E2E2F5F5E2E2E2F5E2E2E2E2E2E2E2E2E2E2E2E2E2E2E2E2F5E2E2E2E2E2E2E2E2E2E2E2E2E2E2E2E2E2E2E2E2E2E2E2E2E2E2E2
310
E2E2E2E2E2E2E2E2E2E2E2E2E2E2E2E2E2E2E2E2E2E2E2E2E2E2E2E2E2E2E2E2E2E2E2E2E2E2E2E2E2E2E2E2E2E2E2E2E2E2E2E2E2E2E2E2E2E2E2E2E2E2E2E2E2E2E2E2E2E2E2E2E2E2E2E2E2E2E2E2E2E2E2E2E2E2E2E2E2E2E2E2E2E2E2E2E2E2E2E2E2E2E2E2E2E2E2E2E2F5E2E2E2E2E2E2E2E2E2E2E2E2E2E2E2E2F5
310
E2E2E2F5F5E2E2E2F5E2E2E2E2E2E2E2E2E2E2E2E2E2E2E2E2F5E2E2E2E2E2E2E2E2E2E2E2E2E2E2E2E2E2E2E2E2E2E2E2E2E2E2E2E2E2E2E2E2E2E2E2E2E2E2E2E2E2E2E2E2E2E2E2E2E2E2E2E2E2E2E2E2E2E2E2E2E2E2E2E2E2E2E2E2E2E2E2E2E2E2E2E2E2E2E2E2E2E2E2E2E2E2E2E2E2E2E2E2E2E2E2E2E2E2E2E2E2
310
E2E2E2E2E2E2E2E2E2E2E2E2E2E2E2E2E2E2E2E2E2E2E2E2E2E2E2E2E2E2E2E2E2E2E2F5E2E2E2E2E2E2E2E2E2E2E2E2E2E2E2E2F5E2E2E2F5F5E2E2E2F5E2E2E2E2E2E2E2E2E2E2E2E2E2E2E2E2F5E2E2E2E2E2E2E2E2E2E2E2E2E2E2E2E2E2E2E2E2E2E2E2E2E2E2E2E2E2E2E2E2E2E2E2E2E2E2E2E2E2E2E2E2E2E2E2E2
310
E2E2E2E2E2E2E2E2E2E2E2E2E2E2E2E2E2E2E2E2E2E2E2E2E2E2E2E2E2E2E2E2E2E2E2E2E2E2E2E2E2E2E2E2E2E2E2E2E2E2E2E2E2E2E2E2E2E2E2E2E2E2E2E2E2E2E2E2E2E2E2E2E2E2E2E2E2E2E2E2E2E2E2E2E2E2E2E2F5E2E2E2E2E2E2E2E2E2E2E2E2E2E2E2E2F5E2E2E2F5F5E2E2E2F5E2E2E2E2E2E2E2E2E2E2E2E2
310
E2E2E2E2F5E2E2E2E2E2E2E2E2E2E2E2E2E2E2E2E2E2E2E2E2E2E2E2E2E2E2E2E2E2E2E2E2E2E2E2E2E2E2E2E2E2E2E2E2E2E2E2E2E2E2E2E2E2E2E2E2E2E2E2E2E2E2E2E2E2E2E2E2E2E2E2E2E2E2E2E2E2E2E2E2E2E2E2E2E2E2E2E2E2E2E2E2E2E2E2E2E2E2E2E2E2E2E2E2E2E2E2E2E2E2E2E2E2E2E2E2E2E2E2E2E2E2
310
E2E2E2E2E2E2E2E2E2E2E2E2E2E2F5E2E2E2E2E2E2E2E2E2E2E2E2E2E2E2E2F5E2E2E2F5F5E2E2E2F5E2E2E2E2E2E2E2E2E2E2E2E2E2E2E2E2F5E2E2E2E2E2E2E2E2E2E2E2E2E2E2E2E2E2E2E2E2E2E2E2E2E2E2E2E2E2E2E2E2E2E2E2E2E2E2E2E2E2E2E2E2E2E2E2E2E2E2E2E2E2E2E2E2E2E2E2E2E2E2E2E2E2E2E2E2E2
310
E2E2E2E2E2E2E2E2E2E2E2E2E2E2E2E2E2E2E2E2E2E2E2E2E2E2E2E2E2E2E2E2E2E2E2E2E2E2E2E2E2E2E2E2E2E2E2E2E2E2E2E2E2E2E2E2E2E2E2E2E2E2E2E2E2E2E2F5E2E2E2E2E2E2E2E2E2E2E2E2E2E2E2E2F5E2E2E2F5F5E2E2E2F5E2E2E2E2E2E2E2E2E2E2E2E2E2E2E2E2F5E2E2E2E2E2E2E2E2E2E2E2E2E2E2E2E2
310
E2E2E2E2E2E2E2E2E2E2E2E2E2E2E2E2E2E2E2E2E2E2E2E2E2E2E2E2E2E2E2E2E2E2E2E2E2E2E2E2E2E2E2E2E2E2E2E2E2E2E2E2E2E2E2E2E2E2E2E2E2E2E2E2E2E2E2E2E2E2E2E2E2E2E2E2E2E2E2E2E2E2E2E2E2E2E2E2E2E2E2E2E2E2E2E2E2E2E2E2E2E2E2E2E2E2E2E2E2E2E2E2E2E2E2E2E2E2E2E2F5E2E2E2E2E2E2
310
E2E2E2E2E2E2E2E2E2E2F5E2E2E2F5F5E2E2E2F5E2E2E2E2E2E2E2E2E2E2E2E2E2E2E2E2F5E2E2E2E2E2E2E2E2E2E2E2E2E2E2E2E2E2E2E2E2E2E2E2E2E2E2E2E2E2E2E2E2E2E2E2E2E2E2E2E2E2E2E2E2E2E2E2E2E2E2E2E2E2E2E2E2E2E2E2E2E2E2E2E2E2E2E2E2E2E2E2E2E2E2E2E2E2E2E2E2E2E2E2E2E2E2E2E2E2E2
310
E2E2E2E2E2E2E2E2E2E2E2E2E2E2E2E2E2E2E2E2E2E2E2E2E2E2E2E2E2E2E2E2E2E2E2E2E2E2E2E2E2E2E2E2E2E2F5E2E2E2E2E2E2E2E2E2E2E2E2E2E2E2E2F5E2E2E2F5F5E2E2E2F5E2E2E2E2E2E2E2E2E2E2E2E2E2E2E2E2F5E2E2E2E2E2E2E2E2E2E2E2E2E2E2E2E2E2E2E2E2E2E2E2E2E2E2E2E2E2E2E2E2E2E2E2E2E2
310
E2E2E2E2E2E2E2E2E2E2E2E2E2E2E2E2E2E2E2E2E2E2E2E2E2E2E2E2E2E2E2E2E2E2E2E2E2E2E2E2E2E2E2E2E2E2E2E2E2E2E2E2E2E2E2E2E2E2E2E2E2E2E2E2E2E2E2E2E2E2E2E2E2E2E2E2E2E2E2E2E2E2E2E2E2E2E2E2E2E2E2E2E2E2E2E2E2E2E2F5E2E2E2E2E2E2E2E2E2E2E2E2E2E2E2E2F5E2E2E2F5F5E2E2E2F5E2
310
E2E2E2E2E2E2E2E2E2E2E2E2E2E2E2F5E2E2E2E2E2E2E2E2E2E2E2E2E2E2E2E2E2E2E2E2E2E2E2E2E2E2E2E2E2E2E2E2E2E2E2E2E2E2E2E2E2E2E2E2E2E2E2E2E2E2E2E2E2E2E2E2E2E2E2E2E2E2E2E2E2E2E2E2E2E2E2E2E2E2E2E2E2E2E2E2E2E2E2E2E2E2E2E2E2E2E2E2E2E2E2E2E2E2E2E2E2E2E2E2E2E2E2E2E2E2E2
310
E2E2E2E2E2E2E2E2E2E2E2E2E2E2E2E2E2E2E2E2E2E2E2E2E2F5E2E2E2E2E2E2E2E2E2E2E2E2E2E2E2E2F5E2E2E2F5F5E2E2E2F5E2E2E2E2E2E2E2E2E2E2E2E2E2E2E2E2F5E2E2E2E2E2E2E2E2E2E2E2E2E2E2E2E2E2E2E2E2E2E2E2E2E2E2E2E2E2E2E2E2E2E2E2E2E2E2E2E2E2E2E2E2E2E2E2E2E2E2E2E2E2E2E2E2E2E2
310
E2E2E2E2E2E2E2E2E2E2E2E2E2E2E2E2E2E2E2E2E2E2E2E2E2E2E2E2E2E2E2E2E2E2E2E2E2E2E2E2E2E2E2E2E2E2E2E2E2E2E2E2E2E2E2E2E2E2E2E2E2E2E2E2E2E2E2E2E2E2E2E2E2E2E2E2E2E2F5E2E2E2E2E2E2E2E2E2E2E2E2E2E2E2E2F5E2E2E2F5F5E2E2E2F5E2E2E2E2E2E2E2E2E2E2E2E2E2E2E2E2F5E2E2E2E2E2
310
E2E2E2E2E2E2E2E2E2E2E2E2E2E2E2E2E2E2E2E2E2E2E2E2E2E2E2E2E2E2E2E2E2E2E2E2E2E2E2E2E2E2E2E2E2E2E2E2E2E2E2E2E2E2E2E2E2E2E2E2E2E2E2E2E2E2E2E2E2E2E2E2E2E2E2E2E2E2E2E2E2E2E2E2E2E2E2E2E2E2E2E2E2E2E2E2E2E2E2E2E2E2E2E2E2E2E2E2E2E2E2E2E2E2E2E2E2E2E2E2E2E2E2E2E2E2E2
310
E2E2E2E2F5E2E2E2E2E2E2E2E2E2E2E2E2E2E2E2E2F5E2E2E2F5F5E2E2E2E2E2E2E2E2E2E2E2E2E2E2E2E2E2E2E2E2F5E2E2E2E2E2E2E2E2E2E2E2E2E2E2E2E2E2E2E2E2E2E2E2E2E2E2E2E2E2E2E2E2E2E2E2E2E2E2E2E2E2E2E2E2E2E2E2E2E2E2E2E2E2E2E2E2E2E2E2E2E2E2E2E2E2E2E2E2E2E2E2E2E2E2E2E2E2E2E2
310
E2E2E2E2E2E2E2E2E2E2E2E2E2E2E2E2E2E2E2E2E2E2E2E2E2E2E2E2E2E2E2E2E2E2E2E2E2E2E2E2E2E2E2E2E2E2E2E2E2E2E2E2E2E2E2E2E2F5E2E2E2E2E2E2E2E2E2E2E2E2E2E2E2E2E2E2E2E2F5F5E2E2E2E2E2E2E2E2E2E2E2E2E2E2E2E2E2E2E2E2F5E2E2E2E2E2E2E2E2E2E2E2E2E2E2E2E2E2E2E2E2E2E2E2E2E2E2
310
E2E2E2E2E2E2E2E2E2E2E2E2E2E2E2E2E2E2E2E2E2E2E2E2E2E2E2E2E2E2E2E2E2E2E2E2E2E2E2E2E2E2E2E2E2E2E2E2E2E2E2E2E2E2E2E2E2E2E2E2E2E2E2E2E2E2E2E2E2E2E2E2E2E2E2E2E2E2E2E2E2E2E2E2E2E2E2E2E2E2E2E2E2E2E2E2E2E2E2E2E2E2E2E2E2E2E2E2E2E2F5E2E2E2E2E2E2E2E2E2E2E2E2E2E2E2E2
310
E2E2E2E2F5F5E2E2E2E2E2E2E2E2E2E2E2E2E2E2E2E2E2E2E2E2F5E2E2E2E2E2E2E2E2E2E2E2E2E2E2E2E2E2E2E2E2E2E2E2E2E2E2E2E2E2E2E2E2E2E2E2E2E2E2E2E2E2E2E2E2E2E2E2E2E2E2E2E2E2E2E2E2E2E2E2E2E2E2E2E2E2E2E2E2E2E2E2E2E2E2E2E2E2E2E2E2E2E2E2E2E2E2E2E2E2E2E2E2E2E2E2E2E2E2E2E2
310
E2E2E2E2E2E2E2E2E2E2E2E2E2E2E2E2E2E2E2E2E2E2E2E2E2E2E2E2E2E2E2E2E2E2E2E2F5E2E2E2E2E2E2E2E2E2E2E2E2E2E2E2E2E2E2E2E2F5F5E2E2E2E2E2E2E2E2E2E2E2E2E2E2E2E2E2E2E2E2F5E2E2E2E2E2E2E2E2E2E2E2E2E2E2E2E2E2E2E2E2E2E2E2E2E2E2E2E2E2E2E2E2E2E2E2E2E2E2E2E2E2E2E2E2E2E2E2
310
E2E2E2E2E2E2E2E2E2E2E2E2E2E2E2E2E2E2E2E2E2E2E2E2E2E2E2E2E2E2E2E2E2E2E2E2E2E2E2E2E2E2E2E2E2E2E2E2E2E2E2E2E2E2E2E2E2E2E2E2E2E2E2E2E2E2E2E2E2E2E2E2E2E2E2E2E2E2E2E2E2E2E2E2E2E2E2E2E2F5E2E2E2E2E2E2E2E2E2E2E2E2E2E2E2E2E2E2E2E2F5F5E2E2E2E2E2E2E2E2E2E2E2E2E2E2E2
310
E2E2E2E2E2F5F5F5F5F5F5F5F5F5F5F5F5F5F5F5F5F5F5F5F5F5F5F5F5F5F5F5F5F5F5F5F5F5F5F5F5F5F5F5F5F5F5F5F5F5F5F5F5F5F5F5F5F5F5F5F5F5F5F5F5F5F5F5F5F5F5F5F5F5F5F5F5F5F5F5F5F5F5F5F5F5F5F5F5F5F5F5F5F5F5F5F5F5F5F5F5F5F5F5F5F5F5F5F5F5F5F5F5F5F5F5F5F5F5F5F5F5F5F5F5F5F5
310
F5F5F5F5F5F5F5F5F5F5F5F5F5F5F5F5E2E2E2E2E2E2E2E2E2E2E2E2E2E2E2E2E2E2E2E2F5F5E2E2E2E2E2E2E2E2E2E2E2E2E2E2E2E2E2E2E2E2E2E2E2E2E2E2E2E2E2E2E2E2E2E2E2E2E2E2E2E2E2E2E2E2E2E2E2E2E2E2E2E2E2E2E2E2E2E2E2E2E2E2E2E2E2E2E2E2E2E2E2E2E2E2E2E2E2E2E2E2E2E2E2E2E2E2E2E2E2
310
E2E2E2E2E2E2E2E2E2E2E2E2E2E2E2E2E2E2E2E2E2E2E2E2E2E2E2E2E2E2E2E2E2E2E2E2E2E2E2E2E2E2E2E2E2E2E2E2E2E2E2E2E2E2E2E2E2E2E2E2E2E2E2E2E2E2E2E2E2E2E2E2E2E2E2E2E2E2E2E2E2E2E2E2E2E2E2E2E2F5F5E2E2E2E2E2E2E2E2E2E2E2E2E2E2E2E2E2E2E2E2E2E2E2E2E2E2E2E2E2E2E2E2E2E2E2E2
310
E2E2E2E2E2E2E2E2E2E2E2E2E2E2E2E2E2E2E2E2E2E2E2E2E2E2E2E2E2E2E2E2E2E2E2E2E2E2E2E2E2E2E2E2E2E2E2E2E2E2E2E2E2E2E2E2E2E2E2E2E2E2E2E2E2E2E2E2E2E2E2E2E2E2E2E2E2E2E2E2E2E2E2E2E2E2E2E2E2E2E2E2E2E2E2E2E2E2E2E2E2E2E2E2E2E2E2E2E2E2E2E2E2E2E2E2E2E2E2E2E2E2E2E2E2E2E2
310
E2E2E2E2E2E2E2E2E2E2E2E2E2E2E2F5F5E2E2E2E2E2E2E2E2E2E2E2E2E2E2E2E2E2E2E2E2E2E2E2E2E2E2E2E2E2E2E2E2E2E2E2E2E2E2E2E2E2E2E2E2E2E2E2E2E2E2E2E2E2E2E2E2E2E2E2E2E2E2E2E2E2E2E2E2E2E2E2E2E2E2E2E2E2E2E2E2E2E2E2E2E2E2E2E2E2E2E2E2E2E2E2E2E2E2E2E2E2E2E2E2E2E2E2E2E2E2
310
E2E2E2E2E2E2E2E2E2E2E2E2E2E2E2E2E2E2E2E2E2E2E2E2E2E2E2E2E2E2E2E2E2E2E2E2E2E2E2E2E2E2E2E2E2E2E2E2E2E2E2E2E2E2E2E2E2E2E2E2E2E2E2E2E2E2E2E2F5F5E2E2E2E2E2E2E2E2E2E2E2E2E2E2E2E2E2E2E2E2E2E2E2E2E2E2E2E2E2E2E2E2E2E2E2E2E2E2E2E2E2E2E2E2E2E2E2E2E2E2E2E2E2E2E2E2E2
310
E2E2E2E2E2E2E2E2E2E2E2E2E2E2E2E2E2E2E2E2E2E2E2E2E2E2E2E2E2E2E2E2E2E2E2E2E2E2E2E2E2E2E2E2E2E2E2E2E2E2E2E2E2E2E2E2E2E2E2E2E2E2E2E2E2E2E2E2E2E2E2E2E2E2E2E2E2E2E2E2E2E2E2E2E2E2E2E2E2E2E2E2E2E2E2E2E2E2E2E2E2E2E2E2E2E2E2E2E2E2E2E2E2E2E2E2E2E2E2E2E2F5F5E2E2E2F5
310
E2E2E2E2E2E2E2E2E2E2E2E2E2E2E2E2E2E2E2E2E2E2E2E2E2E2E2E2E2E2E2E2E2E2E2E2E2E2E2E2E2E2E2E2E2E2E2E2E2E2E2E2E2E2E2E2E2E2E2E2E2E2E2E2E2E2E2E2E2E2E2E2E2E2E2E2E2E2E2E2E2E2E2E2E2E2E2E2E2E2E2E2E2E2E2E2E2E2E2E2E2E2E2E2E2E2E2E2E2E2E2E2E2E2E2E2E2E2E2E2E2E2E2E2E2E2E2
310
E2E2E2E2E2E2E2E2E2E2E2E2E2E2E2E2E2E2E2E2E2E2E2E2E2E2E2E2E2E2E2E2E2E2E2E2E2E2E2E2E2E2E2F5E2E2E2F5F5E2E2E2F5E2E2E2E2E2E2E2E2E2E2E2E2E2E2E2E2E2E2E2E2E2E2E2E2E2E2E2E2E2E2E2E2E2E2E2E2E2E2E2E2E2E2E2E2E2E2E2E2E2E2E2E2E2E2E2E2E2E2E2E2E2E2E2E2E2E2E2E2E2E2E2E2E2E2
310
E2E2E2E2E2E2E2E2E2E2E2E2E2E2E2E2E2E2E2E2E2E2E2E2E2E2E2E2E2E2E2E2E2E2E2E2E2E2E2E2E2E2E2E2E2E2E2E2E2E2E2E2E2E2E2E2E2E2E2E2E2E2E2E2E2E2E2E2E2E2E2E2E2E2E2E2E2E2E2E2E2E2E2E2E2E2E2E2E2E2E2E2E2E2E2E2F5E2E2E2F5F5E2E2E2F5E2E2E2E2E2E2E2E2E2E2E2E2E2E2E2E2E2E2E2E2E2
310
E2E2E2E2E2E2E2E2E2E2E2E2E2E2E2E2E2E2E2E2E2E2E2E2E2E2E2E2E2E2E2E2E2E2E2E2E2E2E2E2E2E2E2E2E2E2E2E2E2E2E2E2E2E2E2E2E2E2E2E2E2E2E2E2E2E2E2E2E2E2E2E2E2E2E2E2E2E2E2E2E2E2E2E2E2E2E2E2E2E2E2E2E2E2E2E2E2E2E2E2E2E2E2E2E2E2E2E2E2E2E2E2E2E2E2E2E2E2E2E2E2E2E2E2E2E2E2
310
E2E2E2E2E2E2E2E2E2E2E2E2E2E2E2E2E2E2E2E2E2E2F5E2E2E2F5F5E2E2E2F5E2E2E2E2E2E2E2E2E2E2E2E2E2E2E2E2E2E2E2E2E2E2E2E2E2E2E2E2E2E2E2E2E2E2E2E2E2E2E2E2E2E2E2E2E2E2E2E2E2E2E2E2E2E2E2E2E2E2E2E2E2E2E2E2E2E2E2E2E2E2E2E2E2E2E2E2E2E2E2E2E2E2E2E2E2E2E2E2E2E2E2E2E2E2E2
310
E2E2E2E2E2E2E2E2E2E2E2E2E2E2E2E2E2E2E2E2E2E2E2E2E2E2E2E2E2E2E2E2E2E2E2E2E2E2E2E2E2E2E2E2E2E2E2E2E2E2E2E2E2E2E2E2E2E2E2E2E2E2E2E2E2E2E2E2E2E2E2E2E2E2E2F5E2E2E2F5F5E2E2E2F5E2E2E2E2E2E2E2E2E2E2E2E2E2E2E2E2E2E2E2E2E2E2E2E2E2E2E2E2E2E2E2E2E2E2E2E2E2E2E2E2E2E2
310
E2E2E2E2E2E2E2E2E2E2E2E2E2E2E2E2E2E2E2E2E2E2E2E2E2E2E2E2E2E2E2E2E2E2E2E2E2E2E2E2E2E2E2E2E2E2E2E2E2E2E2E2E2E2E2E2E2E2E2E2E2E2E2E2E2E2E2E2E2E2E2E2E2E2E2E2E2E2E2E2E2E2E2E2E2E2E2E2E2E2E2E2E2E2E2E2E2E2E2E2E2E2E2E2E2E2E2E2E2E2E2E2E2E2E2E2E2E2E2E2E2E2E2E2E2E2E2
310
E2F5E2E2E2F5F5E2E2E2F5E2E2E2E2E2E2E2E2E2E2E2E2E2E2E2E2E2E2E2E2E2E2E2E2E2E2E2E2E2E2E2E2E2E2E2E2E2E2E2E2E2E2E2E2E2E2E2E2E2E2E2E2E2E2E2E2E2E2E2E2E2E2E2E2E2E2E2E2E2E2E2E2E2E2E2E2E2E2E2E2E2E2E2E2E2E2E2E2E2E2E2E2E2E2E2E2E2E2E2E2E2E2E2E2E2E2E2E2E2E2E2E2E2E2E2E2
310
E2E2E2E2E2E2E2E2E2E2E2E2E2E2E2E2E2E2E2E2E2E2E2E2E2E2E2E2E2E2E2E2E2E2E2E2E2E2E2E2E2E2E2E2E2E2E2E2E2E2E2E2E2E2F5E2E2E2F5F5E2E2E2F5E2E2E2E2E2E2E2E2E2E2E2E2E2E2E2E2E2E2E2E2E2E2E2E2E2E2E2E2E2E2E2E2E2E2E2E2E2E2E2E2E2E2E2E2E2E2E2E2E2E2E2E2E2E2E2E2E2E2E2E2E2E2E2
310
E2E2E2E2E2E2E2E2E2E2E2E2E2E2E2E2E2E2E2E2E2E2E2E2E2E2E2E2E2E2E2E2E2E2E2E2E2E2E2E2E2E2E2E2E2E2E2E2E2E2E2E2E2E2E2E2E2E2E2E2E2E2E2E2E2E2E2E2E2E2E2E2E2E2E2E2E2E2E2E2E2E2E2E2E2E2E2E2E2E2E2E2E2E2E2E2E2E2E2E2E2E2E2E2E2E2E2F5E2E2E2F5F5E2E2E2F5E2E2E2E2E2E2E2E2E2E2
310
E2E2E2E2E2E2E2E2E2E2E2E2E2E2E2E2E2E2E2E2E2E2E2E2E2E2E2E2E2E2E2E2E2E2E2E2E2E2E2E2E2E2E2E2E2E2E2E2E2E2E2E2E2E2E2E2E2E2E2E2E2E2E2E2E2E2E2E2E2E2E2E2E2E2E2E2E2E2E2E2E2E2E2E2E2E2E2E2E2E2E2E2E2E2E2E2E2E2E2E2E2E2E2E2E2E2E2E2E2E2E2E2E2E2E2E2E2E2E2E2E2E2E2E2E2E2E2
310
E2E2E2E2E2E2E2E2E2E2E2E2E2E2E2E2E2E2E2E2E2E2E2E2E2E2E2E2E2E2E2E2E2F5E2E2E2F5F5E2E2E2F5F5F5F5F5F5F5F5E2E2E2E2E2E2E2E2E2F5F5F5F5F5F5F5F5F5F5F5F5F5F5F5F5E2E2E2E2E2E2E2E2E2F5F5F5F5F5F5F5F5F5F5F5F5F5F5F5E2E2E2E2E2E2E2E2E2F5F5F5F5F5F5F5F5F5F5F5F5F5F5F5F5E2E2E2
310
E2E2E2E2E2F5F5F5F5F5F5F5F5F5F5F5F5F5F5F5F5E2E2E2E2E2E2E2E2E2F5F5F5F5F5F5F5F5F5F5F5F5F5F5F5E2E2E2E2E2E2E2E2E2F5F5F5F5F5F5F5F5F5F5F5F5F5F5F5F5E2E2E2E2E2E2E2E2E2F5F5F5F5F5F5F5F5E2E2E2F5F5E2E2E2E2E2E2E2E2E2E2E2E2E2E2E2E2E2E2E2E2E2E2E2E2E2E2E2E2E2E2E2E2E2E2E2
310
E2E2E2E2E2E2E2E2E2E2E2E2E2E2E2E2E2E2E2E2E2E2E2E2E2E2E2E2E2E2E2E2E2E2E2E2E2E2E2E2E2E2E2E2E2E2E2E2E2E2E2E2E2E2E2E2E2E2E2E2E2E2E2E2E2E2E2E2E2E2E2E2E2E2E2E2E2E2E2E2E2E2E2E2E2E2E2E2E2E2E2E2E2E2E2E2E2E2E2E2E2E2E2E2E2E2E2E2E2E2E2E2E2E2E2E2E2E2E2E2E2E2E2E2E2E2E2
310
E2E2E2E2E2E2E2E2E2E2E2E2E2E2E2E2F5F5E2E2E2E2E2E2E2E2E2E2E2E2E2E2E2E2E2E2E2E2E2E2E2E2E2E2E2E2E2E2E2E2E2E2E2E2E2E2E2E2E2E2E2E2E2E2E2E2E2E2E2E2E2E2E2E2E2E2E2E2E2E2E2E2E2E2E2E2E2E2E2E2E2E2E2E2E2E2E2E2E2E2E2E2E2E2E2E2E2E2E2E2E2E2E2E2E2E2E2E2E2E2E2E2E2E2E2E2E2
310
E2E2E2E2E2E2E2E2E2E2E2E2E2E2E2E2E2E2E2E2E2E2E2E2E2E2E2E2E2E2E2E2E2E2E2E2E2E2E2E2E2E2E2E2E2E2E2E2E2E2E2E2E2E2E2E2E2E2E2E2E2E2E2E2E2E2E2E2E2F5F5E2E2E2E2E2E2E2E2E2E2E2E2E2E2E2E2E2E2E2E2E2E2E2E2E2E2E2E2E2E2E2E2E2E2E2E2E2E2E2E2E2E2E2E2E2E2E2E2E2E2E2E2E2E2E2E2
310
E2E2E2E2E2E2E2E2E2E2E2E2E2E2E2E2E2E2E2E2E2E2E2E2E2E2E2E2E2E2E2E2E2E2E2E2E2E2E2E2E2E2E2E2E2E2E2E2E2E2E2E2E2E2E2E2E2E2E2E2E2E2E2E2E2E2E2E2E2E2E2E2E2E2E2E2E2E2E2E2E2E2E2E2E2E2E2E2E2E2E2E2E2E2E2E2E2E2E2E2E2E2E2E2E2E2E2E2E2E2E2E2E2E2E2E2E2E2E2E2E2E2F5F5E2E2E2
310
E2E2E2E2E2E2E2E2E2E2E2E2E2E2E2E2E2E2E2E2E2E2E2E2E2E2E2E2E2E2E2E2E2E2E2E2E2E2E2E2E2E2E2E2E2E2E2E2E2E2E2E2E2E2E2E2E2E2E2E2E2E2E2E2E2E2E2E2E2E2E2E2E2E2E2E2E2E2E2E2E2E2E2E2E2E2E2E2E2E2E2E2E2E2E2E2E2E2E2E2E2E2E2E2E2E2E2E2E2E2E2E2E2E2E2E2E2E2E2E2E2E2E2E2E2E2E2
310
E2E2E2E2E2E2E2E2E2E2E2E2E2E2E2E2E2E2E2E2E2E2E2E2E2E2E2E2E2E2E2E2E2E2E2E2E2E2E2E2E2E2E2E2E2E2E2E2F5
  0
XRECORD
  5
56A4E
102
{ACAD_REACTORS
330
56A4D
102
}
330
56A4D
100
AcDbXrecord
280
     1
102
SHADEPLOT
 70
     0
102
SHADEPLOTRESLEVEL
 70
     2
102
SHADEPLOTCUSTOMDPI
 70
   300
  0
ENDSEC
  0
EOF
