  0
SECTION
  2
HEADER
  9
$ACADVER
  1
AC1015
  9
$ACADMAINTVER
 70
    20
  9
$DWGCODEPAGE
  3
ANSI_936
  9
$INSBASE
 10
0.0
 20
0.0
 30
0.0
  9
$EXTMIN
 10
-122.000111
 20
-254.2341162441295
 30
0.0
  9
$EXTMAX
 10
208.8413520798833
 20
86.35759531491373
 30
0.0
  9
$LIMMIN
 10
0.0
 20
0.0
  9
$LIMMAX
 10
420.0
 20
297.0
  9
$ORTHOMODE
 70
     1
  9
$REGENMODE
 70
     1
  9
$FILLMODE
 70
     1
  9
$QTEXTMODE
 70
     0
  9
$MIRRTEXT
 70
     1
  9
$LTSCALE
 40
1.0
  9
$ATTMODE
 70
     1
  9
$TEXTSIZE
 40
3.5
  9
$TRACEWID
 40
1.0
  9
$TEXTSTYLE
  7
simplex
  9
$CLAYER
  8
0
  9
$CELTYPE
  6
ByLayer
  9
$CECOLOR
 62
   256
  9
$CELTSCALE
 40
1.0
  9
$DISPSILH
 70
     0
  9
$DIMSCALE
 40
0.0
  9
$DIMASZ
 40
3.5
  9
$DIMEXO
 40
0.0
  9
$DIMDLI
 40
0.38
  9
$DIMRND
 40
0.0
  9
$DIMDLE
 40
0.0
  9
$DIMEXE
 40
1.5
  9
$DIMTP
 40
0.0
  9
$DIMTM
 40
0.0
  9
$DIMTXT
 40
3.5
  9
$DIMCEN
 40
0.09
  9
$DIMTSZ
 40
0.0
  9
$DIMTOL
 70
     0
  9
$DIMLIM
 70
     0
  9
$DIMTIH
 70
     0
  9
$DIMTOH
 70
     0
  9
$DIMSE1
 70
     0
  9
$DIMSE2
 70
     0
  9
$DIMTAD
 70
     1
  9
$DIMZIN
 70
     8
  9
$DIMBLK
  1

  9
$DIMASO
 70
     1
  9
$DIMSHO
 70
     1
  9
$DIMPOST
  1

  9
$DIMAPOST
  1

  9
$DIMALT
 70
     0
  9
$DIMALTD
 70
     2
  9
$DIMALTF
 40
25.4
  9
$DIMLFAC
 40
1.0
  9
$DIMTOFL
 70
     0
  9
$DIMTVP
 40
0.0
  9
$DIMTIX
 70
     0
  9
$DIMSOXD
 70
     0
  9
$DIMSAH
 70
     0
  9
$DIMBLK1
  1

  9
$DIMBLK2
  1

  9
$DIMSTYLE
  2
\M+18352\M+18373\M+1815B - ISO-25
  9
$DIMCLRD
 70
   256
  9
$DIMCLRE
 70
   256
  9
$DIMCLRT
 70
   256
  9
$DIMTFAC
 40
1.0
  9
$DIMGAP
 40
2.299999999999998
  9
$DIMJUST
 70
     0
  9
$DIMSD1
 70
     0
  9
$DIMSD2
 70
     0
  9
$DIMTOLJ
 70
     1
  9
$DIMTZIN
 70
     8
  9
$DIMALTZ
 70
     0
  9
$DIMALTTZ
 70
     0
  9
$DIMUPT
 70
     0
  9
$DIMDEC
 70
     2
  9
$DIMTDEC
 70
     2
  9
$DIMALTU
 70
     2
  9
$DIMALTTD
 70
     2
  9
$DIMTXSTY
  7
simplex
  9
$DIMAUNIT
 70
     0
  9
$DIMADEC
 70
     0
  9
$DIMALTRND
 40
0.0
  9
$DIMAZIN
 70
     0
  9
$DIMDSEP
 70
    46
  9
$DIMATFIT
 70
     3
  9
$DIMFRAC
 70
     0
  9
$DIMLDRBLK
  1

  9
$DIMLUNIT
 70
     2
  9
$DIMLWD
 70
    -1
  9
$DIMLWE
 70
    -1
  9
$DIMTMOVE
 70
     0
  9
$LUNITS
 70
     2
  9
$LUPREC
 70
     4
  9
$SKETCHINC
 40
1.0
  9
$FILLETRAD
 40
0.5
  9
$AUNITS
 70
     0
  9
$AUPREC
 70
     0
  9
$MENU
  1
.
  9
$ELEVATION
 40
0.0
  9
$PELEVATION
 40
0.0
  9
$THICKNESS
 40
0.0
  9
$LIMCHECK
 70
     0
  9
$CHAMFERA
 40
10.0
  9
$CHAMFERB
 40
10.0
  9
$CHAMFERC
 40
20.0
  9
$CHAMFERD
 40
0.0
  9
$SKPOLY
 70
     0
  9
$TDCREATE
 40
2455489.391063368
  9
$TDUCREATE
 40
2455489.057730035
  9
$TDUPDATE
 40
2458573.021215776
  9
$TDUUPDATE
 40
2458572.687882442
  9
$TDINDWG
 40
2.7332519907
  9
$TDUSRTIMER
 40
2.7331964120
  9
$USRTIMER
 70
     1
  9
$ANGBASE
 50
0.0
  9
$ANGDIR
 70
     0
  9
$PDMODE
 70
     0
  9
$PDSIZE
 40
0.0
  9
$PLINEWID
 40
0.0
  9
$SPLFRAME
 70
     0
  9
$SPLINETYPE
 70
     6
  9
$SPLINESEGS
 70
     8
  9
$HANDSEED
  5
56CAD
  9
$SURFTAB1
 70
     6
  9
$SURFTAB2
 70
     6
  9
$SURFTYPE
 70
     6
  9
$SURFU
 70
     6
  9
$SURFV
 70
     6
  9
$UCSBASE
  2

  9
$UCSNAME
  2

  9
$UCSORG
 10
0.0
 20
0.0
 30
0.0
  9
$UCSXDIR
 10
1.0
 20
0.0
 30
0.0
  9
$UCSYDIR
 10
0.0
 20
1.0
 30
0.0
  9
$UCSORTHOREF
  2

  9
$UCSORTHOVIEW
 70
     0
  9
$UCSORGTOP
 10
0.0
 20
0.0
 30
0.0
  9
$UCSORGBOTTOM
 10
0.0
 20
0.0
 30
0.0
  9
$UCSORGLEFT
 10
0.0
 20
0.0
 30
0.0
  9
$UCSORGRIGHT
 10
0.0
 20
0.0
 30
0.0
  9
$UCSORGFRONT
 10
0.0
 20
0.0
 30
0.0
  9
$UCSORGBACK
 10
0.0
 20
0.0
 30
0.0
  9
$PUCSBASE
  2

  9
$PUCSNAME
  2

  9
$PUCSORG
 10
0.0
 20
0.0
 30
0.0
  9
$PUCSXDIR
 10
1.0
 20
0.0
 30
0.0
  9
$PUCSYDIR
 10
0.0
 20
1.0
 30
0.0
  9
$PUCSORTHOREF
  2

  9
$PUCSORTHOVIEW
 70
     0
  9
$PUCSORGTOP
 10
0.0
 20
0.0
 30
0.0
  9
$PUCSORGBOTTOM
 10
0.0
 20
0.0
 30
0.0
  9
$PUCSORGLEFT
 10
0.0
 20
0.0
 30
0.0
  9
$PUCSORGRIGHT
 10
0.0
 20
0.0
 30
0.0
  9
$PUCSORGFRONT
 10
0.0
 20
0.0
 30
0.0
  9
$PUCSORGBACK
 10
0.0
 20
0.0
 30
0.0
  9
$USERI1
 70
     0
  9
$USERI2
 70
     0
  9
$USERI3
 70
     0
  9
$USERI4
 70
     0
  9
$USERI5
 70
     0
  9
$USERR1
 40
0.0
  9
$USERR2
 40
0.0
  9
$USERR3
 40
0.0
  9
$USERR4
 40
0.0
  9
$USERR5
 40
0.0
  9
$WORLDVIEW
 70
     1
  9
$SHADEDGE
 70
     3
  9
$SHADEDIF
 70
    70
  9
$TILEMODE
 70
     1
  9
$MAXACTVP
 70
    64
  9
$PINSBASE
 10
0.0
 20
0.0
 30
0.0
  9
$PLIMCHECK
 70
     0
  9
$PEXTMIN
 10
26.66999878883364
 20
20.31999878883365
 30
0.0
  9
$PEXTMAX
 10
240.0299890995025
 20
182.8799890995025
 30
0.0
  9
$PLIMMIN
 10
-6.350006103515625
 20
-6.349999904632567
  9
$PLIMMAX
 10
273.0499877929688
 20
209.5499939918518
  9
$UNITMODE
 70
     0
  9
$VISRETAIN
 70
     1
  9
$PLINEGEN
 70
     0
  9
$PSLTSCALE
 70
     1
  9
$TREEDEPTH
 70
  3020
  9
$CMLSTYLE
  2
Standard
  9
$CMLJUST
 70
     0
  9
$CMLSCALE
 40
20.0
  9
$PROXYGRAPHICS
 70
     1
  9
$MEASUREMENT
 70
     1
  9
$CELWEIGHT
370
    -1
  9
$ENDCAPS
280
     0
  9
$JOINSTYLE
280
     0
  9
$LWDISPLAY
290
     0
  9
$INSUNITS
 70
     4
  9
$HYPERLINKBASE
  1

  9
$STYLESHEET
  1

  9
$XEDIT
290
     1
  9
$CEPSNTYPE
380
     0
  9
$PSTYLEMODE
290
     1
  9
$FINGERPRINTGUID
  2
{601DDA01-5B13-4A4C-8F56-1333B78D855B}
  9
$VERSIONGUID
  2
{14FBFCA5-5823-4570-BF63-EC28B253C9AF}
  9
$EXTNAMES
290
     1
  9
$PSVPSCALE
 40
0.0
  9
$OLESTARTUP
290
     0
  0
ENDSEC
  0
SECTION
  2
CLASSES
  0
CLASS
  1
ACDBDICTIONARYWDFLT
  2
AcDbDictionaryWithDefault
  3
ObjectDBX Classes
 90
        0
280
     0
281
     0
  0
CLASS
  1
ACDBPLACEHOLDER
  2
AcDbPlaceHolder
  3
ObjectDBX Classes
 90
        0
280
     0
281
     0
  0
CLASS
  1
LAYOUT
  2
AcDbLayout
  3
ObjectDBX Classes
 90
        0
280
     0
281
     0
  0
CLASS
  1
DICTIONARYVAR
  2
AcDbDictionaryVar
  3
ObjectDBX Classes
 90
        0
280
     0
281
     0
  0
CLASS
  1
TABLESTYLE
  2
AcDbTableStyle
  3
ObjectDBX Classes
 90
     2047
280
     0
281
     0
  0
CLASS
  1
SORTENTSTABLE
  2
AcDbSortentsTable
  3
ObjectDBX Classes
 90
        0
280
     0
281
     0
  0
CLASS
  1
DIMASSOC
  2
AcDbDimAssoc
  3
"AcDbDimAssoc|Product Desc:     AcDim ARX App For Dimension|Company:          Autodesk, Inc.|WEB Address:      www.autodesk.com"
 90
        0
280
     0
281
     0
  0
CLASS
  1
ACAD_EVALUATION_GRAPH
  2
AcDbEvalGraph
  3
ObjectDBX Classes
 90
    33921
280
     0
281
     0
  0
CLASS
  1
ACAECUSTOBJ
  2
AcAeEditorObj
  3
AcAeEditorObj
 90
    33792
280
     0
281
     0
  0
CLASS
  1
ACDB_DYNAMICBLOCKPURGEPREVENTER_VERSION
  2
AcDbDynamicBlockPurgePreventer
  3
ObjectDBX Classes
 90
    33921
280
     0
281
     0
  0
ENDSEC
  0
SECTION
  2
TABLES
  0
TABLE
  2
VPORT
  5
8
330
0
100
AcDbSymbolTable
 70
     2
  0
VPORT
  5
56C9E
330
8
100
AcDbSymbolTableRecord
100
AcDbViewportTableRecord
  2
*Active
 70
     0
 10
0.0
 20
0.0
 11
1.0
 21
1.0
 12
-7.297121967101531
 22
19.75234271256988
 13
0.0
 23
0.0
 14
10.0
 24
10.0
 15
10.0
 25
10.0
 16
0.0
 26
0.0
 36
1.0
 17
0.0
 27
0.0
 37
0.0
 40
337.7377329276544
 41
1.508350730688935
 42
50.0
 43
0.0
 44
0.0
 50
0.0
 51
0.0
 71
     0
 72
  1000
 73
     1
 74
     1
 75
     0
 76
     0
 77
     0
 78
     0
281
     0
 65
     1
110
0.0
120
0.0
130
0.0
111
1.0
121
0.0
131
0.0
112
0.0
122
1.0
132
0.0
 79
     0
146
0.0
  0
ENDTAB
  0
TABLE
  2
LTYPE
  5
5
330
0
100
AcDbSymbolTable
 70
     4
  0
LTYPE
  5
14
330
5
100
AcDbSymbolTableRecord
100
AcDbLinetypeTableRecord
  2
ByBlock
 70
     0
  3

 72
    65
 73
     0
 40
0.0
  0
LTYPE
  5
15
330
5
100
AcDbSymbolTableRecord
100
AcDbLinetypeTableRecord
  2
ByLayer
 70
     0
  3

 72
    65
 73
     0
 40
0.0
  0
LTYPE
  5
16
330
5
100
AcDbSymbolTableRecord
100
AcDbLinetypeTableRecord
  2
Continuous
 70
     0
  3
Solid line
 72
    65
 73
     0
 40
0.0
  0
LTYPE
  5
D7
330
5
100
AcDbSymbolTableRecord
100
AcDbLinetypeTableRecord
  2
HIDDEN
 70
     0
  3
Hidden __ __ __ __ __ __ __ __ __ __ __ __ __ _
 72
    65
 73
     2
 40
9.524999999999996
 49
6.349999999999997
 74
     0
 49
-3.174999999999998
 74
     0
  0
LTYPE
  5
D9
330
5
100
AcDbSymbolTableRecord
100
AcDbLinetypeTableRecord
  2
CENTER
 70
     0
  3
Center ____ _ ____ _ ____ _ ____ _ ____ _ ____
 72
    65
 73
     4
 40
50.8
 49
31.75
 74
     0
 49
-6.349999999999997
 74
     0
 49
6.349999999999997
 74
     0
 49
-6.349999999999997
 74
     0
  0
LTYPE
  5
35815
330
5
100
AcDbSymbolTableRecord
100
AcDbLinetypeTableRecord
  2
PHANTOM
 70
     0
  3
_____ _ _ _____ _ _ _____ _ _ _____
 72
    65
 73
     6
 40
0.8
 49
0.45
 74
     0
 49
-0.05
 74
     0
 49
0.1
 74
     0
 49
-0.05
 74
     0
 49
0.1
 74
     0
 49
-0.05
 74
     0
  0
ENDTAB
  0
TABLE
  2
LAYER
  5
2
102
{ACAD_XDICTIONARY
360
E2
102
}
330
0
100
AcDbSymbolTable
 70
    14
  0
LAYER
  5
10
330
2
100
AcDbSymbolTableRecord
100
AcDbLayerTableRecord
  2
0
 70
     0
 62
     7
  6
Continuous
370
    -3
390
F
  0
LAYER
  5
D1
330
2
100
AcDbSymbolTableRecord
100
AcDbLayerTableRecord
  2
1
 70
     0
 62
     4
  6
Continuous
370
    50
390
F
1001
AcAecLayerStandard
1000

1000

  0
LAYER
  5
D3
330
2
100
AcDbSymbolTableRecord
100
AcDbLayerTableRecord
  2
2
 70
     0
 62
     7
  6
Continuous
370
    25
390
F
1001
AcAecLayerStandard
1000

1000

  0
LAYER
  5
D4
330
2
100
AcDbSymbolTableRecord
100
AcDbLayerTableRecord
  2
3
 70
     0
 62
     1
  6
HIDDEN
370
    35
390
F
1001
AcAecLayerStandard
1000

1000

  0
LAYER
  5
D8
330
2
100
AcDbSymbolTableRecord
100
AcDbLayerTableRecord
  2
4
 70
     0
 62
     2
  6
CENTER
370
    25
390
F
1001
AcAecLayerStandard
1000

1000

  0
LAYER
  5
DA
330
2
100
AcDbSymbolTableRecord
100
AcDbLayerTableRecord
  2
6
 70
     0
 62
     5
  6
Continuous
370
    35
390
F
1001
AcAecLayerStandard
1000

1000

  0
LAYER
  5
DB
330
2
100
AcDbSymbolTableRecord
100
AcDbLayerTableRecord
  2
cut
 70
     0
 62
     1
  6
Continuous
370
    25
390
F
1001
AcAecLayerStandard
1000

1000

  0
LAYER
  5
DC
330
2
100
AcDbSymbolTableRecord
100
AcDbLayerTableRecord
  2
nocut
 70
     0
 62
     7
  6
Continuous
370
    25
390
F
1001
AcAecLayerStandard
1000

1000

  0
LAYER
  5
DD
330
2
100
AcDbSymbolTableRecord
100
AcDbLayerTableRecord
  2
sk1
 70
     0
 62
     4
  6
Continuous
370
    50
390
F
1001
AcAecLayerStandard
1000

1000

  0
LAYER
  5
DE
330
2
100
AcDbSymbolTableRecord
100
AcDbLayerTableRecord
  2
sk2
 70
     0
 62
     7
  6
Continuous
370
    25
390
F
1001
AcAecLayerStandard
1000

1000

  0
LAYER
  5
DF
330
2
100
AcDbSymbolTableRecord
100
AcDbLayerTableRecord
  2
sk3
 70
     0
 62
     1
  6
HIDDEN
370
    35
390
F
1001
AcAecLayerStandard
1000

1000

  0
LAYER
  5
E0
330
2
100
AcDbSymbolTableRecord
100
AcDbLayerTableRecord
  2
sk4
 70
     0
 62
     2
  6
CENTER
370
    25
390
F
1001
AcAecLayerStandard
1000

1000

  0
LAYER
  5
E1
330
2
100
AcDbSymbolTableRecord
100
AcDbLayerTableRecord
  2
sk6
 70
     0
 62
     5
  6
Continuous
370
    35
390
F
1001
AcAecLayerStandard
1000

1000

  0
LAYER
  5
31B6
330
2
100
AcDbSymbolTableRecord
100
AcDbLayerTableRecord
  2
Defpoints
 70
     0
 62
     7
  6
Continuous
290
     0
370
    -3
390
F
  0
ENDTAB
  0
TABLE
  2
STYLE
  5
3
330
0
100
AcDbSymbolTable
 70
    12
  0
STYLE
  5
11
330
3
100
AcDbSymbolTableRecord
100
AcDbTextStyleTableRecord
  2
Standard
 70
     0
 40
0.0
 41
1.0
 50
0.0
 71
     0
 42
2.5
  3
txt.shx
  4
@extfont2.shx
  0
STYLE
  5
D6
330
3
100
AcDbSymbolTableRecord
100
AcDbTextStyleTableRecord
  2

 70
     1
 40
0.0
 41
1.0
 50
0.0
 71
     0
 42
2.5
  3
ltypeshp.shx
  4

  0
STYLE
  5
24A
330
3
100
AcDbSymbolTableRecord
100
AcDbTextStyleTableRecord
  2
simplex
 70
     0
 40
3.5
 41
1.0
 50
0.0
 71
     0
 42
3.5
  3
txt.shx
  4

  0
STYLE
  5
69E
330
3
100
AcDbSymbolTableRecord
100
AcDbTextStyleTableRecord
  2
MX_NOTE_STANDARD
 70
     0
 40
0.0
 41
1.0
 50
0.0
 71
     0
 42
4.2
  3
txt.shx
  4
extfont.shx
  0
STYLE
  5
3524
330
3
100
AcDbSymbolTableRecord
100
AcDbTextStyleTableRecord
  2
TEXTSTYLE_2
 70
     0
 40
0.0
 41
0.775
 50
0.0
 71
     0
 42
0.2
  3
gdt
  4

  0
STYLE
  5
3525
330
3
100
AcDbSymbolTableRecord
100
AcDbTextStyleTableRecord
  2
TEXTSTYLE_3
 70
     0
 40
0.0
 41
0.75
 50
0.0
 71
     0
 42
0.2
  3
txt
  4

  0
STYLE
  5
3526
330
3
100
AcDbSymbolTableRecord
100
AcDbTextStyleTableRecord
  2
TEXTSTYLE_13
 70
     0
 40
0.0
 41
1.0
 50
0.0
 71
     0
 42
0.2
  3
txt
  4

  0
STYLE
  5
519A
330
3
100
AcDbSymbolTableRecord
100
AcDbTextStyleTableRecord
  2
TEXTSTYLE_14
 70
     0
 40
0.0
 41
1.0
 50
0.0
 71
     0
 42
0.2
  3
txt
  4

  0
STYLE
  5
6F72
330
3
100
AcDbSymbolTableRecord
100
AcDbTextStyleTableRecord
  2
TEXTSTYLE_4
 70
     0
 40
0.0
 41
0.75
 50
0.0
 71
     0
 42
0.2
  3
txt
  4

  0
STYLE
  5
6F73
330
3
100
AcDbSymbolTableRecord
100
AcDbTextStyleTableRecord
  2
TEXTSTYLE_17
 70
     0
 40
0.0
 41
1.0
 50
0.0
 71
     0
 42
0.2
  3
txt
  4

  0
STYLE
  5
FE12
330
3
100
AcDbSymbolTableRecord
100
AcDbTextStyleTableRecord
  2
TEXTSTYLE_12
 70
     0
 40
0.0
 41
1.0
 50
0.0
 71
     0
 42
0.2
  3
txt
  4

  0
STYLE
  5
3AAB8
330
3
100
AcDbSymbolTableRecord
100
AcDbTextStyleTableRecord
  2
TEXTSTYLE_20
 70
     0
 40
0.0
 41
0.6
 50
0.0
 71
     0
 42
0.2
  3
txt
  4

  0
ENDTAB
  0
TABLE
  2
VIEW
  5
6
330
0
100
AcDbSymbolTable
 70
     0
  0
ENDTAB
  0
TABLE
  2
UCS
  5
7
330
0
100
AcDbSymbolTable
 70
     0
  0
ENDTAB
  0
TABLE
  2
APPID
  5
9
330
0
100
AcDbSymbolTable
 70
    11
  0
APPID
  5
12
330
9
100
AcDbSymbolTableRecord
100
AcDbRegAppTableRecord
  2
ACAD
 70
     0
  0
APPID
  5
D2
330
9
100
AcDbSymbolTableRecord
100
AcDbRegAppTableRecord
  2
AcAecLayerStandard
 70
     0
  0
APPID
  5
E6
330
9
100
AcDbSymbolTableRecord
100
AcDbRegAppTableRecord
  2
ACAD_DSTYLE_DIMTEXT_FILL
 70
     0
  0
APPID
  5
4C84
330
9
100
AcDbSymbolTableRecord
100
AcDbRegAppTableRecord
  2
ACAD_EXEMPT_FROM_CAD_STANDARDS
 70
     0
  0
APPID
  5
3493E
330
9
100
AcDbSymbolTableRecord
100
AcDbRegAppTableRecord
  2
DCO15
 70
     0
  0
APPID
  5
3BAB0
330
9
100
AcDbSymbolTableRecord
100
AcDbRegAppTableRecord
  2
ACAD_DSTYLE_DIMEXT_ENABLED
 70
     0
  0
APPID
  5
3BAB1
330
9
100
AcDbSymbolTableRecord
100
AcDbRegAppTableRecord
  2
ACAD_DSTYLE_DIMEXT_LENGTH
 70
     0
  0
APPID
  5
3BEB4
330
9
100
AcDbSymbolTableRecord
100
AcDbRegAppTableRecord
  2
ACAUTHENVIRON
 70
     0
  0
APPID
  5
3BEB7
330
9
100
AcDbSymbolTableRecord
100
AcDbRegAppTableRecord
  2
AcDbDynamicBlockTrueName
 70
     0
  0
APPID
  5
3BEB8
330
9
100
AcDbSymbolTableRecord
100
AcDbRegAppTableRecord
  2
AcDbDynamicBlockGUID
 70
     0
  0
APPID
  5
3BEBA
330
9
100
AcDbSymbolTableRecord
100
AcDbRegAppTableRecord
  2
AcDbBlockRepETag
 70
     0
  0
ENDTAB
  0
TABLE
  2
DIMSTYLE
  5
A
330
0
100
AcDbSymbolTable
 70
    11
100
AcDbDimStyleTable
 71
     5
340
1BF
340
27
340
352A
340
3527
340
69F
  0
DIMSTYLE
105
27
330
A
100
AcDbSymbolTableRecord
100
AcDbDimStyleTableRecord
  2
ISO-25
 70
     0
 41
2.5
 42
0.625
 43
3.75
 44
1.25
 73
     0
 74
     0
 77
     1
 78
     8
140
2.5
141
2.5
143
0.03937007874016
147
0.625
171
     3
172
     1
271
     2
272
     2
274
     3
278
    44
283
     0
284
     8
340
11
  0
DIMSTYLE
105
1BF
102
{ACAD_REACTORS
330
566E3
330
566E4
330
567B9
330
56805
330
56B86
330
56B87
330
56B89
102
}
330
A
100
AcDbSymbolTableRecord
100
AcDbDimStyleTableRecord
  2
\M+18352\M+18373\M+1815B - ISO-25
 70
     0
 40
0.0
 41
3.5
 42
0.0
 44
1.5
 73
     0
 74
     0
 77
     1
 78
     8
140
3.5
147
2.299999999999998
176
   256
177
   256
178
   256
271
     2
272
     2
284
     8
340
24A
371
    -1
372
    -1
  0
DIMSTYLE
105
69F
330
A
100
AcDbSymbolTableRecord
100
AcDbDimStyleTableRecord
  2
MXDIMSTYLE
 70
     0
 41
2.5
 42
0.5
 43
3.75
 44
1.5
 73
     0
 74
     0
 77
     1
 78
     8
140
4.2
141
2.5
143
0.03937
147
1.0
171
     4
172
     1
173
     1
271
     2
272
     2
274
     4
283
     0
288
     1
340
69E
341
697
343
697
344
697
  0
DIMSTYLE
105
3527
330
A
100
AcDbSymbolTableRecord
100
AcDbDimStyleTableRecord
  2
STANDARD
 70
     0
 41
3.0
 47
0.001
 48
0.001
 71
     1
 73
     0
 74
     0
 77
     1
 78
     8
140
4.0
271
     3
272
     3
284
     8
340
11
341
34B1
342
34B1
343
34B1
344
34B1
  0
DIMSTYLE
105
3528
330
A
100
AcDbSymbolTableRecord
100
AcDbDimStyleTableRecord
  2
DIMSTYLE_1
 70
     0
 41
3.0
 73
     0
 74
     0
 77
     1
 78
     8
140
4.0
271
     3
272
     3
284
     8
340
11
341
34B1
342
34B1
343
34B1
344
34B1
  0
DIMSTYLE
105
3529
330
A
100
AcDbSymbolTableRecord
100
AcDbDimStyleTableRecord
  2
DIMSTYLE_2
 70
     0
 41
3.0
 47
0.001
 48
0.001
 73
     0
 74
     0
 77
     1
 78
     8
140
4.0
271
     3
272
     3
284
     8
340
11
341
34B1
342
34B1
343
34B1
344
34B1
  0
DIMSTYLE
105
352A
330
A
100
AcDbSymbolTableRecord
100
AcDbDimStyleTableRecord
  2
DIMSTYLE_3
 70
     0
 41
3.0
 47
-0.1
 48
0.3
 71
     1
 73
     0
 74
     0
 77
     1
 78
     8
140
4.0
146
0.5
271
     3
272
     3
284
     8
340
11
341
34B1
342
34B1
343
34B1
344
34B1
  0
DIMSTYLE
105
352B
330
A
100
AcDbSymbolTableRecord
100
AcDbDimStyleTableRecord
  2
DIMSTYLE_4
 70
     0
 41
3.0
 47
0.1
 48
0.1
 71
     1
 73
     0
 74
     0
 77
     1
 78
     8
140
4.0
271
     3
272
     3
284
     8
340
11
341
34B1
342
34B1
343
34B1
344
34B1
  0
DIMSTYLE
105
27245
330
A
100
AcDbSymbolTableRecord
100
AcDbDimStyleTableRecord
  2
DIMSTYLE_5
 70
     0
 41
3.0
 47
0.001
 48
0.001
 73
     0
 74
     0
 77
     1
 78
     8
140
4.0
271
     3
272
     3
284
     8
340
11
341
34B1
342
34B1
343
34B1
344
34B1
  0
DIMSTYLE
105
3AAB9
330
A
100
AcDbSymbolTableRecord
100
AcDbDimStyleTableRecord
  2
DIMSTYLE_6
 70
     0
 41
3.0
 42
0.0
 44
1.0
 47
0.05
 48
0.05
 71
     1
 73
     0
 74
     0
 77
     1
 78
     8
140
4.0
147
1.0
271
     3
272
     3
284
     8
340
11
341
34B1
342
34B1
343
34B1
344
34B1
  0
DIMSTYLE
105
532EA
330
A
100
AcDbSymbolTableRecord
100
AcDbDimStyleTableRecord
  2
NEW-DIMSTYLE
 70
     0
 40
0.0
 41
4.57
 42
0.0
 44
5.0
 73
     0
 74
     0
 77
     1
 78
     8
140
4.57
147
2.299999999999998
271
     2
340
24A
  0
ENDTAB
  0
TABLE
  2
BLOCK_RECORD
  5
1
330
0
100
AcDbSymbolTable
 70
    28
  0
BLOCK_RECORD
  5
1F
102
{ACAD_XDICTIONARY
360
31EE
102
}
330
1
100
AcDbSymbolTableRecord
100
AcDbBlockTableRecord
  2
*Model_Space
340
22
  0
BLOCK_RECORD
  5
50
330
1
100
AcDbSymbolTableRecord
100
AcDbBlockTableRecord
  2
*Paper_Space
340
51
  0
BLOCK_RECORD
  5
55
330
1
100
AcDbSymbolTableRecord
100
AcDbBlockTableRecord
  2
*Paper_Space0
340
56
  0
BLOCK_RECORD
  5
680
102
{ACAD_XDICTIONARY
360
3BEB2
102
}
330
1
100
AcDbSymbolTableRecord
100
AcDbBlockTableRecord
  2
zero block
340
0
102
{BLKREFS
331
68C
331
56AFD
102
}
1001
ACAD
1000
DesignCenter Data
1002
{
1070
     1
1070
     4
1002
}
1001
AcDbDynamicBlockGUID
1000
{C2E8894D-A8DA-456D-ABB6-198B00672C1A}
1001
AcDbBlockRepETag
1070
     1
1071
        7
  0
BLOCK_RECORD
  5
697
330
1
100
AcDbSymbolTableRecord
100
AcDbBlockTableRecord
  2
_OPEN30
340
0
  0
BLOCK_RECORD
  5
34B1
330
1
100
AcDbSymbolTableRecord
100
AcDbBlockTableRecord
  2
_OPEN
340
0
  0
BLOCK_RECORD
  5
50E6F
330
1
100
AcDbSymbolTableRecord
100
AcDbBlockTableRecord
  2
_None
340
0
  0
BLOCK_RECORD
  5
54892
330
1
100
AcDbSymbolTableRecord
100
AcDbBlockTableRecord
  2
*D5
340
0
  0
BLOCK_RECORD
  5
568E2
330
1
100
AcDbSymbolTableRecord
100
AcDbBlockTableRecord
  2
*D6
340
0
  0
BLOCK_RECORD
  5
568EF
330
1
100
AcDbSymbolTableRecord
100
AcDbBlockTableRecord
  2
*D7
340
0
  0
BLOCK_RECORD
  5
568FC
330
1
100
AcDbSymbolTableRecord
100
AcDbBlockTableRecord
  2
*D8
340
0
  0
BLOCK_RECORD
  5
56908
330
1
100
AcDbSymbolTableRecord
100
AcDbBlockTableRecord
  2
*D9
340
0
  0
BLOCK_RECORD
  5
56915
330
1
100
AcDbSymbolTableRecord
100
AcDbBlockTableRecord
  2
*D10
340
0
  0
BLOCK_RECORD
  5
56941
330
1
100
AcDbSymbolTableRecord
100
AcDbBlockTableRecord
  2
*D11
340
0
  0
BLOCK_RECORD
  5
569BB
330
1
100
AcDbSymbolTableRecord
100
AcDbBlockTableRecord
  2
*D12
340
0
  0
BLOCK_RECORD
  5
56AA8
330
1
100
AcDbSymbolTableRecord
100
AcDbBlockTableRecord
  2
*D13
340
0
  0
BLOCK_RECORD
  5
56AB4
330
1
100
AcDbSymbolTableRecord
100
AcDbBlockTableRecord
  2
*D14
340
0
  0
BLOCK_RECORD
  5
56AC0
330
1
100
AcDbSymbolTableRecord
100
AcDbBlockTableRecord
  2
*D15
340
0
  0
BLOCK_RECORD
  5
56ACD
330
1
100
AcDbSymbolTableRecord
100
AcDbBlockTableRecord
  2
*D16
340
0
  0
BLOCK_RECORD
  5
56ADA
330
1
100
AcDbSymbolTableRecord
100
AcDbBlockTableRecord
  2
*D17
340
0
  0
BLOCK_RECORD
  5
56AE7
330
1
100
AcDbSymbolTableRecord
100
AcDbBlockTableRecord
  2
*D18
340
0
  0
BLOCK_RECORD
  5
56AF1
330
1
100
AcDbSymbolTableRecord
100
AcDbBlockTableRecord
  2
*D19
340
0
  0
BLOCK_RECORD
  5
56BB3
330
1
100
AcDbSymbolTableRecord
100
AcDbBlockTableRecord
  2
*D21
340
0
  0
BLOCK_RECORD
  5
56BC0
330
1
100
AcDbSymbolTableRecord
100
AcDbBlockTableRecord
  2
*D22
340
0
  0
BLOCK_RECORD
  5
56BCC
330
1
100
AcDbSymbolTableRecord
100
AcDbBlockTableRecord
  2
*D23
340
0
  0
BLOCK_RECORD
  5
56BD8
330
1
100
AcDbSymbolTableRecord
100
AcDbBlockTableRecord
  2
*D24
340
0
  0
BLOCK_RECORD
  5
56BE5
330
1
100
AcDbSymbolTableRecord
100
AcDbBlockTableRecord
  2
*D25
340
0
  0
BLOCK_RECORD
  5
56BF2
330
1
100
AcDbSymbolTableRecord
100
AcDbBlockTableRecord
  2
*D26
340
0
  0
BLOCK_RECORD
  5
56BFC
330
1
100
AcDbSymbolTableRecord
100
AcDbBlockTableRecord
  2
*D27
340
0
  0
ENDTAB
  0
ENDSEC
  0
SECTION
  2
BLOCKS
  0
BLOCK
  5
20
330
1F
100
AcDbEntity
  8
0
100
AcDbBlockBegin
  2
*Model_Space
 70
     0
 10
0.0
 20
0.0
 30
0.0
  3
*Model_Space
  1

  0
ENDBLK
  5
21
330
1F
100
AcDbEntity
  8
0
100
AcDbBlockEnd
  0
BLOCK
  5
52
330
50
100
AcDbEntity
 67
     1
  8
0
100
AcDbBlockBegin
  2
*Paper_Space
 70
     0
 10
0.0
 20
0.0
 30
0.0
  3
*Paper_Space
  1

  0
ENDBLK
  5
53
330
50
100
AcDbEntity
 67
     1
  8
0
100
AcDbBlockEnd
  0
BLOCK
  5
57
330
55
100
AcDbEntity
 67
     1
  8
0
100
AcDbBlockBegin
  2
*Paper_Space0
 70
     0
 10
0.0
 20
0.0
 30
0.0
  3
*Paper_Space0
  1

  0
VIEWPORT
  5
71
102
{ACAD_XDICTIONARY
360
56CA9
102
}
330
55
100
AcDbEntity
 67
     1
  8
0
100
AcDbViewport
 10
150.1652135264906
 20
101.599997546291
 30
0.0
 40
339.1973820494347
 41
164.5360435314421
 68
     0
 69
     0
 12
150.1652135264906
 22
101.599997546291
 13
0.0
 23
0.0
 14
10.0
 24
10.0
 15
10.0
 25
10.0
 16
0.0
 26
0.0
 36
1.0
 17
0.0
 27
0.0
 37
0.0
 42
50.0
 43
0.0
 44
0.0
 45
164.5360435314421
 50
0.0
 51
0.0
 72
  1000
 90
    32864
  1

281
     0
 71
     1
 74
     0
110
0.0
120
0.0
130
0.0
111
1.0
121
0.0
131
0.0
112
0.0
122
1.0
132
0.0
 79
     0
146
0.0
  0
VIEWPORT
  5
73
102
{ACAD_XDICTIONARY
360
56CAB
102
}
330
55
100
AcDbEntity
 67
     1
  8
0
100
AcDbViewport
 10
133.3499939441681
 20
101.5999939441681
 30
0.0
 40
213.3599903106689
 41
162.5599903106689
 68
     0
 69
     0
 12
210.0
 22
148.5
 13
0.0
 23
0.0
 14
10.0
 24
10.0
 15
10.0
 25
10.0
 16
0.0
 26
0.0
 36
1.0
 17
0.0
 27
0.0
 37
0.0
 42
50.0
 43
0.0
 44
0.0
 45
324.0677920111345
 50
0.0
 51
0.0
 72
   100
 90
    32864
  1

281
     0
 71
     1
 74
     0
110
0.0
120
0.0
130
0.0
111
1.0
121
0.0
131
0.0
112
0.0
122
1.0
132
0.0
 79
     0
146
0.0
  0
ENDBLK
  5
58
330
55
100
AcDbEntity
 67
     1
  8
0
100
AcDbBlockEnd
  0
BLOCK
  5
68A
330
680
100
AcDbEntity
  8
0
100
AcDbBlockBegin
  2
zero block
 70
     0
 10
0.0
 20
0.0
 30
0.0
  3
zero block
  1

  0
HATCH
  5
3BEAB
330
680
100
AcDbEntity
  8
0
 62
     7
100
AcDbHatch
 10
0.0
 20
0.0
 30
0.0
210
0.0
220
0.0
230
1.0
  2
SOLID
 70
     1
 71
     0
 91
        2
 92
        7
 72
     1
 73
     1
 93
        3
 10
0.0
 20
0.9999999999999875
 42
0.4142135623730915
 10
-1.0
 20
0.0
 42
0.0
 10
0.0
 20
0.0
 42
0.0
 97
        0
 92
        7
 72
     1
 73
     1
 93
        3
 10
1.000000000000007
 20
0.0
 42
0.0
 10
0.0
 20
0.0
 42
0.0
 10
0.0
 20
-1.0
 42
0.4142135623730974
 97
        0
 75
     0
 76
     1
 47
0.0090601366782909
 98
        2
 10
-0.380591363650975
 20
0.4885804701532896
 10
0.4350764810977559
 20
-0.4536738423704725
1001
AcDbBlockRepETag
1070
     1
1071
        0
1005
3BEAB
  0
LINE
  5
3BEAC
330
680
100
AcDbEntity
  8
0
 62
     7
 48
0.2
100
AcDbLine
 10
-1.0
 20
0.0
 30
0.0
 11
1.000000000000007
 21
0.0
 31
0.0
1001
AcDbBlockRepETag
1070
     1
1071
        1
1005
3BEAC
  0
LINE
  5
3BEAD
330
680
100
AcDbEntity
  8
0
 62
     7
 48
0.2
100
AcDbLine
 10
0.0
 20
-1.0
 30
0.0
 11
0.0
 21
0.9999999999999875
 31
0.0
1001
AcDbBlockRepETag
1070
     1
1071
        2
1005
3BEAD
  0
ARC
  5
3BEAE
330
680
100
AcDbEntity
  8
0
 62
     7
 48
0.2
100
AcDbCircle
 10
0.0
 20
0.0
 30
0.0
 40
1.0
100
AcDbArc
 50
270.0
 51
0.0
1001
AcDbBlockRepETag
1070
     1
1071
        3
1005
3BEAE
  0
ARC
  5
3BEAF
330
680
100
AcDbEntity
  8
0
 62
     7
 48
0.2
100
AcDbCircle
 10
0.0
 20
0.0
 30
0.0
 40
1.0
100
AcDbArc
 50
0.0
 51
90.0
1001
AcDbBlockRepETag
1070
     1
1071
        4
1005
3BEAF
  0
ARC
  5
3BEB0
330
680
100
AcDbEntity
  8
0
 62
     7
 48
0.2
100
AcDbCircle
 10
0.0
 20
0.0
 30
0.0
 40
1.0
100
AcDbArc
 50
180.0
 51
270.0
1001
AcDbBlockRepETag
1070
     1
1071
        5
1005
3BEB0
  0
ARC
  5
3BEB1
330
680
100
AcDbEntity
  8
0
 62
     7
 48
0.2
100
AcDbCircle
 10
0.0
 20
0.0
 30
0.0
 40
1.0
100
AcDbArc
 50
90.0
 51
180.0
1001
AcDbBlockRepETag
1070
     1
1071
        6
1005
3BEB1
  0
ENDBLK
  5
68B
330
680
100
AcDbEntity
  8
0
100
AcDbBlockEnd
  0
BLOCK
  5
698
330
697
100
AcDbEntity
  8
0
  6
ByBlock
 62
     0
370
    -2
100
AcDbBlockBegin
  2
_OPEN30
 70
     2
 10
0.0
 20
0.0
 30
0.0
  3
_OPEN30
  1

  0
LINE
  5
699
330
697
100
AcDbEntity
  8
0
  6
ByBlock
 62
     0
370
    -2
100
AcDbLine
 10
-1.0
 20
0.267949
 30
0.0
 11
0.0
 21
0.0
 31
0.0
  0
LINE
  5
69A
330
697
100
AcDbEntity
  8
0
  6
ByBlock
 62
     0
370
    -2
100
AcDbLine
 10
0.0
 20
0.0
 30
0.0
 11
-1.0
 21
-0.267949
 31
0.0
  0
LINE
  5
69B
330
697
100
AcDbEntity
  8
0
  6
ByBlock
 62
     0
370
    -2
100
AcDbLine
 10
0.0
 20
0.0
 30
0.0
 11
-1.0
 21
0.0
 31
0.0
  0
ENDBLK
  5
69C
330
697
100
AcDbEntity
  8
0
  6
ByBlock
 62
     0
370
    -2
100
AcDbBlockEnd
  0
BLOCK
  5
34B2
330
34B1
100
AcDbEntity
  8
0
100
AcDbBlockBegin
  2
_OPEN
 70
     0
 10
0.0
 20
0.0
 30
0.0
  3
_OPEN
  1

  0
LINE
  5
34B3
330
34B1
100
AcDbEntity
  8
0
  6
ByBlock
 62
     0
100
AcDbLine
 10
0.0
 20
0.0
 30
0.0
 11
-1.0
 21
0.1766666667
 31
0.0
  0
LINE
  5
34B4
330
34B1
100
AcDbEntity
  8
0
  6
ByBlock
 62
     0
100
AcDbLine
 10
-1.0
 20
-0.1766666667
 30
0.0
 11
0.0
 21
0.0
 31
0.0
  0
LINE
  5
34B5
330
34B1
100
AcDbEntity
  8
0
  6
ByBlock
 62
     0
100
AcDbLine
 10
-1.0
 20
0.0
 30
0.0
 11
0.0
 21
0.0
 31
0.0
  0
ENDBLK
  5
34B6
330
34B1
100
AcDbEntity
  8
0
  6
ByBlock
 62
     0
100
AcDbBlockEnd
  0
BLOCK
  5
50E70
330
50E6F
100
AcDbEntity
  8
0
100
AcDbBlockBegin
  2
_None
 70
     0
 10
0.0
 20
0.0
 30
0.0
  3
_None
  1

  0
ENDBLK
  5
50E71
330
50E6F
100
AcDbEntity
  8
0
100
AcDbBlockEnd
  0
BLOCK
  5
5489C
330
54892
100
AcDbEntity
  8
0
100
AcDbBlockBegin
  2
*D5
 70
     1
 10
0.0
 20
0.0
 30
0.0
  3
*D5
  1

  0
LINE
  5
5569C
330
54892
100
AcDbEntity
  8
2
100
AcDbLine
 10
53.975009
 20
5.055141471329306
 30
0.0
 11
53.975009
 21
40.92700601619286
 31
0.0
  0
LINE
  5
5569D
330
54892
100
AcDbEntity
  8
2
100
AcDbLine
 10
0.0000089999999773
 20
7.937499999999992
 30
0.0
 11
0.0000089999999793
 21
40.92700601619286
 31
0.0
  0
LINE
  5
5569E
330
54892
100
AcDbEntity
  8
2
100
AcDbLine
 10
50.475009
 20
39.42700601619286
 30
0.0
 11
3.500008999999978
 21
39.42700601619286
 31
0.0
  0
SOLID
  5
5569F
330
54892
100
AcDbEntity
  8
2
100
AcDbTrace
 10
50.475009
 20
40.01033934952618
 30
0.0
 11
50.475009
 21
38.84367268285953
 31
0.0
 12
53.975009
 22
39.42700601619286
 32
0.0
 13
53.975009
 23
39.42700601619286
 33
0.0
  0
SOLID
  5
556A0
330
54892
100
AcDbEntity
  8
2
100
AcDbTrace
 10
3.500008999999978
 20
40.01033934952618
 30
0.0
 11
3.500008999999978
 21
38.84367268285953
 31
0.0
 12
0.0000089999999792
 22
39.42700601619286
 32
0.0
 13
0.0000089999999792
 23
39.42700601619286
 33
0.0
  0
MTEXT
  5
556A1
330
54892
100
AcDbEntity
  8
2
100
AcDbMText
 10
26.98750749999999
 20
43.47700601619285
 30
0.0
 40
3.5
 41
0.0
 71
     5
 72
     1
  1
\A1;53.975 [2.125"]
  7
simplex
 73
     1
 44
0.892857
1001
ACAD
1000
MTEXTBEGIN
1070
    73
1070
     1
1070
    44
1040
0.892857
1070
    74
1070
     0
1000
MTEXTEND
  0
POINT
  5
556A2
330
54892
100
AcDbEntity
  8
Defpoints
 62
     0
100
AcDbPoint
 10
53.975009
 20
5.055141471329306
 30
0.0
  0
POINT
  5
556A3
330
54892
100
AcDbEntity
  8
Defpoints
 62
     0
100
AcDbPoint
 10
0.0000089999999773
 20
7.937499999999992
 30
0.0
  0
POINT
  5
556A4
330
54892
100
AcDbEntity
  8
Defpoints
 62
     0
100
AcDbPoint
 10
0.0000089999999792
 20
39.42700601619286
 30
0.0
  0
ENDBLK
  5
5489D
330
54892
100
AcDbEntity
  8
0
100
AcDbBlockEnd
  0
BLOCK
  5
568ED
330
568E2
100
AcDbEntity
  8
0
100
AcDbBlockBegin
  2
*D6
 70
     1
 10
0.0
 20
0.0
 30
0.0
  3
*D6
  1

  0
LINE
  5
56C46
330
568E2
100
AcDbEntity
  8
2
100
AcDbLine
 10
94.29999999999997
 20
-7.699999998899982
 30
0.0
 11
79.27329896152919
 21
-7.699999998899977
 31
0.0
  0
LINE
  5
56C47
330
568E2
100
AcDbEntity
  8
2
100
AcDbLine
 10
94.29999999999997
 20
7.699999998899982
 30
0.0
 11
79.27329896152919
 21
7.699999998899986
 31
0.0
  0
LINE
  5
56C48
330
568E2
100
AcDbEntity
  8
2
100
AcDbLine
 10
80.77329896152919
 20
4.199999998899986
 30
0.0
 11
80.77329896152919
 21
-4.199999998899977
 31
0.0
  0
LINE
  5
56C49
330
568E2
100
AcDbEntity
  8
2
100
AcDbLine
 10
80.77329896152919
 20
-7.699999998899977
 30
0.0
 11
80.77329896152917
 21
-58.96666666556662
 31
0.0
  0
SOLID
  5
56C4A
330
568E2
100
AcDbEntity
  8
2
100
AcDbTrace
 10
80.18996562819586
 20
4.199999998899986
 30
0.0
 11
81.35663229486253
 21
4.199999998899986
 31
0.0
 12
80.77329896152919
 22
7.699999998899986
 32
0.0
 13
80.77329896152919
 23
7.699999998899986
 33
0.0
  0
SOLID
  5
56C4B
330
568E2
100
AcDbEntity
  8
2
100
AcDbTrace
 10
80.18996562819586
 20
-4.199999998899977
 30
0.0
 11
81.35663229486253
 21
-4.199999998899977
 31
0.0
 12
80.77329896152919
 22
-7.699999998899977
 32
0.0
 13
80.77329896152919
 23
-7.699999998899977
 33
0.0
  0
MTEXT
  5
56C4C
330
568E2
100
AcDbEntity
  8
2
100
AcDbMText
 10
76.7232989615292
 20
-37.70833333223328
 30
0.0
 40
3.5
 41
0.0
 71
     5
 72
     1
  1
\A1;%%c15.4 [%%C.606"]
  7
simplex
 11
0.0000000000000001
 21
1.0
 31
0.0
 73
     1
 44
1.0
1001
ACAD
1000
MTEXTBEGIN
1070
    73
1070
     1
1070
    44
1040
1.0
1070
    74
1070
     0
1000
MTEXTEND
  0
POINT
  5
56C4D
330
568E2
100
AcDbEntity
  8
Defpoints
 62
     0
100
AcDbPoint
 10
94.29999999999997
 20
-7.699999998899982
 30
0.0
  0
POINT
  5
56C4E
330
568E2
100
AcDbEntity
  8
Defpoints
 62
     0
100
AcDbPoint
 10
94.29999999999997
 20
7.699999998899982
 30
0.0
  0
POINT
  5
56C4F
330
568E2
100
AcDbEntity
  8
Defpoints
 62
     0
100
AcDbPoint
 10
80.77329896152919
 20
7.699999998899986
 30
0.0
  0
ENDBLK
  5
568EE
330
568E2
100
AcDbEntity
  8
0
100
AcDbBlockEnd
  0
BLOCK
  5
568FA
330
568EF
100
AcDbEntity
  8
0
100
AcDbBlockBegin
  2
*D7
 70
     1
 10
0.0
 20
0.0
 30
0.0
  3
*D7
  1

  0
LINE
  5
56C50
330
568EF
100
AcDbEntity
  8
2
100
AcDbLine
 10
94.30000000000005
 20
7.687499999999943
 30
0.0
 11
94.30000000000005
 21
25.26084676492738
 31
0.0
  0
LINE
  5
56C51
330
568EF
100
AcDbEntity
  8
2
100
AcDbLine
 10
114.3
 20
5.055141471329079
 30
0.0
 11
114.3
 21
25.26084676492738
 31
0.0
  0
LINE
  5
56C52
330
568EF
100
AcDbEntity
  8
2
100
AcDbLine
 10
110.8
 20
23.76084676492738
 30
0.0
 11
97.80000000000004
 21
23.76084676492738
 31
0.0
  0
LINE
  5
56C53
330
568EF
100
AcDbEntity
  8
2
100
AcDbLine
 10
94.30000000000005
 20
23.76084676492738
 30
0.0
 11
50.32499500000001
 21
23.76084676492738
 31
0.0
  0
SOLID
  5
56C54
330
568EF
100
AcDbEntity
  8
2
100
AcDbTrace
 10
110.8
 20
24.34418009826071
 30
0.0
 11
110.8
 21
23.17751343159405
 31
0.0
 12
114.3
 22
23.76084676492738
 32
0.0
 13
114.3
 23
23.76084676492738
 33
0.0
  0
SOLID
  5
56C55
330
568EF
100
AcDbEntity
  8
2
100
AcDbTrace
 10
97.80000000000004
 20
24.34418009826071
 30
0.0
 11
97.80000000000004
 21
23.17751343159405
 31
0.0
 12
94.30000000000005
 22
23.76084676492738
 32
0.0
 13
94.30000000000005
 23
23.76084676492738
 33
0.0
  0
MTEXT
  5
56C56
330
568EF
100
AcDbEntity
  8
2
100
AcDbMText
 10
66.33332833333334
 20
27.81084676492738
 30
0.0
 40
3.5
 41
0.0
 71
     5
 72
     1
  1
\A1;20 [.787"]
  7
simplex
 73
     1
 44
0.892857
1001
ACAD
1000
MTEXTBEGIN
1070
    73
1070
     1
1070
    44
1040
0.892857
1070
    74
1070
     0
1000
MTEXTEND
  0
POINT
  5
56C57
330
568EF
100
AcDbEntity
  8
Defpoints
 62
     0
100
AcDbPoint
 10
94.30000000000005
 20
7.687499999999943
 30
0.0
  0
POINT
  5
56C58
330
568EF
100
AcDbEntity
  8
Defpoints
 62
     0
100
AcDbPoint
 10
114.3
 20
5.055141471329079
 30
0.0
  0
POINT
  5
56C59
330
568EF
100
AcDbEntity
  8
Defpoints
 62
     0
100
AcDbPoint
 10
114.3
 20
23.76084676492738
 30
0.0
  0
ENDBLK
  5
568FB
330
568EF
100
AcDbEntity
  8
0
100
AcDbBlockEnd
  0
BLOCK
  5
56906
330
568FC
100
AcDbEntity
  8
0
100
AcDbBlockBegin
  2
*D8
 70
     1
 10
0.0
 20
0.0
 30
0.0
  3
*D8
  1

  0
LINE
  5
56C5A
330
568FC
100
AcDbEntity
  8
2
100
AcDbLine
 10
114.300009
 20
5.055141471329306
 30
0.0
 11
114.300009
 21
40.92700601619288
 31
0.0
  0
LINE
  5
56C5B
330
568FC
100
AcDbEntity
  8
2
100
AcDbLine
 10
60.32500899999998
 20
7.9375
 30
0.0
 11
60.32500899999998
 21
40.92700601619288
 31
0.0
  0
LINE
  5
56C5C
330
568FC
100
AcDbEntity
  8
2
100
AcDbLine
 10
110.800009
 20
39.42700601619288
 30
0.0
 11
63.82500899999998
 21
39.42700601619288
 31
0.0
  0
SOLID
  5
56C5D
330
568FC
100
AcDbEntity
  8
2
100
AcDbTrace
 10
110.800009
 20
40.01033934952622
 30
0.0
 11
110.800009
 21
38.84367268285955
 31
0.0
 12
114.300009
 22
39.42700601619288
 32
0.0
 13
114.300009
 23
39.42700601619288
 33
0.0
  0
SOLID
  5
56C5E
330
568FC
100
AcDbEntity
  8
2
100
AcDbTrace
 10
63.82500899999998
 20
40.01033934952622
 30
0.0
 11
63.82500899999998
 21
38.84367268285955
 31
0.0
 12
60.32500899999998
 22
39.42700601619288
 32
0.0
 13
60.32500899999998
 23
39.42700601619288
 33
0.0
  0
MTEXT
  5
56C5F
330
568FC
100
AcDbEntity
  8
2
100
AcDbMText
 10
87.31250749999999
 20
43.47700601619288
 30
0.0
 40
3.5
 41
0.0
 71
     5
 72
     1
  1
\A1;53.975 [2.125"]
  7
simplex
 73
     1
 44
0.892857
1001
ACAD
1000
MTEXTBEGIN
1070
    73
1070
     1
1070
    44
1040
0.892857
1070
    74
1070
     0
1000
MTEXTEND
  0
POINT
  5
56C60
330
568FC
100
AcDbEntity
  8
Defpoints
 62
     0
100
AcDbPoint
 10
114.300009
 20
5.055141471329306
 30
0.0
  0
POINT
  5
56C61
330
568FC
100
AcDbEntity
  8
Defpoints
 62
     0
100
AcDbPoint
 10
60.32500899999998
 20
7.9375
 30
0.0
  0
POINT
  5
56C62
330
568FC
100
AcDbEntity
  8
Defpoints
 62
     0
100
AcDbPoint
 10
60.32500899999998
 20
39.42700601619288
 30
0.0
  0
ENDBLK
  5
56907
330
568FC
100
AcDbEntity
  8
0
100
AcDbBlockEnd
  0
BLOCK
  5
56913
330
56908
100
AcDbEntity
  8
0
100
AcDbBlockBegin
  2
*D9
 70
     1
 10
0.0
 20
0.0
 30
0.0
  3
*D9
  1

  0
LINE
  5
56A38
330
56908
100
AcDbEntity
  8
sk2
100
AcDbLine
 10
-78.37500700000005
 20
-7.937499999999971
 30
0.0
 11
-108.815259
 21
-7.937499999999962
 31
0.0
  0
LINE
  5
56A39
330
56908
100
AcDbEntity
  8
sk2
100
AcDbLine
 10
-78.374999
 20
7.937500000000056
 30
0.0
 11
-108.815259
 21
7.937500000000063
 31
0.0
  0
LINE
  5
56A3A
330
56908
100
AcDbEntity
  8
sk2
100
AcDbLine
 10
-107.315259
 20
4.437500000000063
 30
0.0
 11
-107.315259
 21
-4.437499999999962
 31
0.0
  0
LINE
  5
56A3B
330
56908
100
AcDbEntity
  8
sk2
100
AcDbLine
 10
-107.315259
 20
-7.937499999999962
 30
0.0
 11
-107.315259
 21
-64.64375000000001
 31
0.0
  0
SOLID
  5
56A3C
330
56908
100
AcDbEntity
  8
sk2
100
AcDbTrace
 10
-107.8985923333333
 20
4.437500000000063
 30
0.0
 11
-106.7319256666667
 21
4.437500000000063
 31
0.0
 12
-107.315259
 22
7.937500000000063
 32
0.0
 13
-107.315259
 23
7.937500000000063
 33
0.0
  0
SOLID
  5
56A3D
330
56908
100
AcDbEntity
  8
sk2
100
AcDbTrace
 10
-107.8985923333333
 20
-4.437499999999962
 30
0.0
 11
-106.7319256666667
 21
-4.437499999999962
 31
0.0
 12
-107.315259
 22
-7.937499999999962
 32
0.0
 13
-107.315259
 23
-7.937499999999962
 33
0.0
  0
MTEXT
  5
56A3E
330
56908
100
AcDbEntity
  8
sk2
100
AcDbMText
 10
-111.365259
 20
-39.59375000000004
 30
0.0
 40
3.5
 41
0.0
 71
     5
 72
     1
  1
\A1;%%c15.875 [%%C.625"]
  7
simplex
 11
0.0000000000000001
 21
1.0
 31
0.0
 73
     1
 44
0.892857
1001
ACAD
1000
MTEXTBEGIN
1070
    73
1070
     1
1070
    44
1040
0.892857
1070
    74
1070
     0
1000
MTEXTEND
  0
POINT
  5
56A3F
330
56908
100
AcDbEntity
  8
Defpoints
 62
     0
100
AcDbPoint
 10
-78.37500700000005
 20
-7.937499999999971
 30
0.0
  0
POINT
  5
56A40
330
56908
100
AcDbEntity
  8
Defpoints
 62
     0
100
AcDbPoint
 10
-78.374999
 20
7.937500000000056
 30
0.0
  0
POINT
  5
56A41
330
56908
100
AcDbEntity
  8
Defpoints
 62
     0
100
AcDbPoint
 10
-107.315259
 20
7.937500000000063
 30
0.0
  0
ENDBLK
  5
56914
330
56908
100
AcDbEntity
  8
0
100
AcDbBlockEnd
  0
BLOCK
  5
5691F
330
56915
100
AcDbEntity
  8
0
100
AcDbBlockBegin
  2
*D10
 70
     1
 10
0.0
 20
0.0
 30
0.0
  3
*D10
  1

  0
LINE
  5
56C63
330
56915
100
AcDbEntity
  8
sk2
100
AcDbLine
 10
-19.04999100000002
 20
6.937514000000049
 30
0.0
 11
-19.04999100000001
 21
54.79558000973429
 31
0.0
  0
LINE
  5
56C64
330
56915
100
AcDbEntity
  8
sk2
100
AcDbLine
 10
114.300009
 20
5.055141471329079
 30
0.0
 11
114.300009
 21
54.79558000973429
 31
0.0
  0
LINE
  5
56C65
330
56915
100
AcDbEntity
  8
sk2
100
AcDbLine
 10
-15.54999100000001
 20
53.29558000973428
 30
0.0
 11
110.800009
 21
53.29558000973428
 31
0.0
  0
SOLID
  5
56C66
330
56915
100
AcDbEntity
  8
sk2
100
AcDbTrace
 10
-15.54999100000001
 20
53.87891334306762
 30
0.0
 11
-15.54999100000001
 21
52.71224667640095
 31
0.0
 12
-19.04999100000001
 22
53.29558000973428
 32
0.0
 13
-19.04999100000001
 23
53.29558000973428
 33
0.0
  0
SOLID
  5
56C67
330
56915
100
AcDbEntity
  8
sk2
100
AcDbTrace
 10
110.800009
 20
53.87891334306762
 30
0.0
 11
110.800009
 21
52.71224667640095
 31
0.0
 12
114.300009
 22
53.29558000973428
 32
0.0
 13
114.300009
 23
53.29558000973428
 33
0.0
  0
MTEXT
  5
56C68
330
56915
100
AcDbEntity
  8
sk2
100
AcDbMText
 10
47.55680759401418
 20
57.34558000973429
 30
0.0
 40
3.5
 41
0.0
 71
     5
 72
     1
  1
\A1;133.35 [5.250"]
  7
simplex
 73
     1
 44
0.892857
1001
ACAD
1000
MTEXTBEGIN
1070
    73
1070
     1
1070
    44
1040
0.892857
1070
    74
1070
     0
1000
MTEXTEND
  0
POINT
  5
56C69
330
56915
100
AcDbEntity
  8
Defpoints
 62
     0
100
AcDbPoint
 10
-19.04999100000002
 20
6.937514000000049
 30
0.0
  0
POINT
  5
56C6A
330
56915
100
AcDbEntity
  8
Defpoints
 62
     0
100
AcDbPoint
 10
114.300009
 20
5.055141471329079
 30
0.0
  0
POINT
  5
56C6B
330
56915
100
AcDbEntity
  8
Defpoints
 62
     0
100
AcDbPoint
 10
114.300009
 20
53.29558000973428
 30
0.0
  0
ENDBLK
  5
56920
330
56915
100
AcDbEntity
  8
0
100
AcDbBlockEnd
  0
BLOCK
  5
5694A
330
56941
100
AcDbEntity
  8
0
100
AcDbBlockBegin
  2
*D11
 70
     1
 10
0.0
 20
0.0
 30
0.0
  3
*D11
  1

  0
LINE
  5
56C6C
330
56941
100
AcDbEntity
  8
2
100
AcDbLine
 10
112.7999999999999
 20
7.999999998899943
 30
0.0
 11
131.4710616096827
 21
7.999999998899938
 31
0.0
  0
LINE
  5
56C6D
330
56941
100
AcDbEntity
  8
2
100
AcDbLine
 10
129.9710616096827
 20
4.499999998899939
 30
0.0
 11
129.9710616096827
 21
-8.00000000110006
 31
0.0
  0
LINE
  5
56C6E
330
56941
100
AcDbEntity
  8
2
100
AcDbLine
 10
129.9710616096827
 20
-8.00000000110006
 30
0.0
 11
129.9710616096827
 21
-49.35000000110008
 31
0.0
  0
SOLID
  5
56C6F
330
56941
100
AcDbEntity
  8
2
100
AcDbTrace
 10
129.3877282763493
 20
4.499999998899939
 30
0.0
 11
130.554394943016
 21
4.499999998899938
 31
0.0
 12
129.9710616096827
 22
7.999999998899939
 32
0.0
 13
129.9710616096827
 23
7.999999998899939
 33
0.0
  0
MTEXT
  5
56C70
330
56941
100
AcDbEntity
  8
2
100
AcDbMText
 10
125.9210616096827
 20
-30.42500000110007
 30
0.0
 40
3.5
 41
0.0
 71
     5
 72
     1
  1
\A1;%%c16 [%%c.630"]
  7
simplex
 11
0.0000000000000001
 21
1.0
 31
0.0
 73
     1
 44
1.0
1001
ACAD
1000
MTEXTBEGIN
1070
    73
1070
     1
1070
    44
1040
1.0
1070
    74
1070
     0
1000
MTEXTEND
  0
POINT
  5
56C71
330
56941
100
AcDbEntity
  8
Defpoints
 62
     0
100
AcDbPoint
 10
112.7999999999999
 20
-8.000000001100055
 30
0.0
  0
POINT
  5
56C72
330
56941
100
AcDbEntity
  8
Defpoints
 62
     0
100
AcDbPoint
 10
112.7999999999999
 20
7.999999998899943
 30
0.0
  0
POINT
  5
56C73
330
56941
100
AcDbEntity
  8
Defpoints
 62
     0
100
AcDbPoint
 10
129.9710616096827
 20
7.999999998899939
 30
0.0
  0
ENDBLK
  5
5694B
330
56941
100
AcDbEntity
  8
0
100
AcDbBlockEnd
  0
BLOCK
  5
569C3
330
569BB
100
AcDbEntity
  8
0
100
AcDbBlockBegin
  2
*D12
 70
     1
 10
0.0
 20
0.0
 30
0.0
  3
*D12
  1

  0
LINE
  5
56C7B
330
569BB
100
AcDbEntity
  8
2
100
AcDbLine
 10
148.4460395918841
 20
37.8235768486232
 30
0.0
 11
116.5454489663273
 21
9.71629554670644
 31
0.0
  0
MTEXT
  5
56C7C
330
569BB
100
AcDbEntity
  8
2
100
AcDbMText
 10
131.1313744865999
 20
27.96558812189516
 30
0.0
 40
3.5
 41
0.0
 71
     5
 72
     1
  1
\A1;R1.5 [R.059"]
  7
simplex
 11
0.7503078939762485
 21
0.661088544929442
 31
0.0
 73
     1
 44
1.0
1001
ACAD
1000
MTEXTBEGIN
1070
    73
1070
     1
1070
    44
1040
1.0
1070
    74
1070
     0
1000
MTEXTEND
  0
SOLID
  5
56C7D
330
569BB
100
AcDbEntity
  8
2
100
AcDbTrace
 10
116.1598139817851
 20
10.15397515152591
 30
0.0
 11
116.9310839508695
 21
9.278615941886968
 31
0.0
 12
113.9193713374105
 22
7.402485639453395
 32
0.0
 13
113.9193713374105
 23
7.402485639453395
 33
0.0
  0
LINE
  5
56C7E
330
569BB
100
AcDbEntity
  8
2
100
AcDbLine
 10
112.703909496446
 20
6.41085282205914
 30
0.0
 11
112.883909496446
 21
6.41085282205914
 31
0.0
  0
LINE
  5
56C7F
330
569BB
100
AcDbEntity
  8
2
100
AcDbLine
 10
112.793909496446
 20
6.320852822059144
 30
0.0
 11
112.793909496446
 21
6.500852822059137
 31
0.0
  0
POINT
  5
56C80
330
569BB
100
AcDbEntity
  8
Defpoints
 62
     0
100
AcDbPoint
 10
113.9193713374105
 20
7.402485639453395
 30
0.0
  0
POINT
  5
56C81
330
569BB
100
AcDbEntity
  8
Defpoints
 62
     0
100
AcDbPoint
 10
112.793909496446
 20
6.41085282205914
 30
0.0
  0
ENDBLK
  5
569C4
330
569BB
100
AcDbEntity
  8
0
100
AcDbBlockEnd
  0
BLOCK
  5
56AA9
330
56AA8
100
AcDbEntity
  8
0
100
AcDbBlockBegin
  2
*D13
 70
     1
 10
0.0
 20
0.0
 30
0.0
  3
*D13
  1

  0
LINE
  5
56AAA
330
56AA8
100
AcDbEntity
  8
sk2
100
AcDbLine
 10
-88.89999999999998
 20
6.937515000000032
 30
0.0
 11
-88.89999999999998
 21
52.56385882017696
 31
0.0
  0
LINE
  5
56AAB
330
56AA8
100
AcDbEntity
  8
sk2
100
AcDbLine
 10
114.3
 20
-0.0000000000000142
 30
0.0
 11
114.3
 21
52.56385882017696
 31
0.0
  0
LINE
  5
56AAC
330
56AA8
100
AcDbEntity
  8
sk2
100
AcDbLine
 10
-85.39999999999997
 20
51.06385882017696
 30
0.0
 11
110.8
 21
51.06385882017696
 31
0.0
  0
SOLID
  5
56AAD
330
56AA8
100
AcDbEntity
  8
sk2
100
AcDbTrace
 10
-85.39999999999997
 20
51.6471921535103
 30
0.0
 11
-85.39999999999997
 21
50.48052548684363
 31
0.0
 12
-88.89999999999998
 22
51.06385882017696
 32
0.0
 13
-88.89999999999998
 23
51.06385882017696
 33
0.0
  0
SOLID
  5
56AAE
330
56AA8
100
AcDbEntity
  8
sk2
100
AcDbTrace
 10
110.8
 20
51.6471921535103
 30
0.0
 11
110.8
 21
50.48052548684363
 31
0.0
 12
114.3
 22
51.06385882017696
 32
0.0
 13
114.3
 23
51.06385882017696
 33
0.0
  0
MTEXT
  5
56AAF
330
56AA8
100
AcDbEntity
  8
sk2
100
AcDbMText
 10
12.70000700000003
 20
55.11385882017695
 30
0.0
 40
3.5
 41
0.0
 71
     5
 72
     1
  1
\A1;203.2 [8.000"]
  7
simplex
 73
     1
 44
0.892857
1001
ACAD
1000
MTEXTBEGIN
1070
    73
1070
     1
1070
    44
1040
0.892857
1070
    74
1070
     0
1000
MTEXTEND
  0
POINT
  5
56AB0
330
56AA8
100
AcDbEntity
  8
Defpoints
 62
     0
100
AcDbPoint
 10
-88.89999999999998
 20
6.937515000000032
 30
0.0
  0
POINT
  5
56AB1
330
56AA8
100
AcDbEntity
  8
Defpoints
 62
     0
100
AcDbPoint
 10
114.3
 20
-0.0000000000000142
 30
0.0
  0
POINT
  5
56AB2
330
56AA8
100
AcDbEntity
  8
Defpoints
 62
     0
100
AcDbPoint
 10
114.3
 20
51.06385882017696
 30
0.0
  0
ENDBLK
  5
56AB3
330
56AA8
100
AcDbEntity
  8
0
100
AcDbBlockEnd
  0
BLOCK
  5
56AB5
330
56AB4
100
AcDbEntity
  8
0
100
AcDbBlockBegin
  2
*D14
 70
     1
 10
0.0
 20
0.0
 30
0.0
  3
*D14
  1

  0
LINE
  5
56AB6
330
56AB4
100
AcDbEntity
  8
2
100
AcDbLine
 10
114.3
 20
-0.0000000000000142
 30
0.0
 11
114.3
 21
38.17664276870477
 31
0.0
  0
LINE
  5
56AB7
330
56AB4
100
AcDbEntity
  8
2
100
AcDbLine
 10
0.0
 20
7.937499999999971
 30
0.0
 11
0.0000000000000019
 21
38.17664276870477
 31
0.0
  0
LINE
  5
56AB8
330
56AB4
100
AcDbEntity
  8
2
100
AcDbLine
 10
110.8
 20
36.67664276870477
 30
0.0
 11
3.500000000000001
 21
36.67664276870477
 31
0.0
  0
SOLID
  5
56AB9
330
56AB4
100
AcDbEntity
  8
2
100
AcDbTrace
 10
110.8
 20
37.25997610203811
 30
0.0
 11
110.8
 21
36.09330943537143
 31
0.0
 12
114.3
 22
36.67664276870477
 32
0.0
 13
114.3
 23
36.67664276870477
 33
0.0
  0
SOLID
  5
56ABA
330
56AB4
100
AcDbEntity
  8
2
100
AcDbTrace
 10
3.500000000000001
 20
37.25997610203811
 30
0.0
 11
3.500000000000001
 21
36.09330943537143
 31
0.0
 12
0.0000000000000018
 22
36.67664276870477
 32
0.0
 13
0.0000000000000018
 23
36.67664276870477
 33
0.0
  0
MTEXT
  5
56ABB
330
56AB4
100
AcDbEntity
  8
2
100
AcDbMText
 10
52.73115345473968
 20
40.72664276870475
 30
0.0
 40
3.5
 41
0.0
 71
     5
 72
     1
  1
\A1;114.3 [4.500"]
  7
simplex
 73
     1
 44
0.892857
1001
ACAD
1000
MTEXTBEGIN
1070
    73
1070
     1
1070
    44
1040
0.892857
1070
    74
1070
     0
1000
MTEXTEND
  0
POINT
  5
56ABC
330
56AB4
100
AcDbEntity
  8
Defpoints
 62
     0
100
AcDbPoint
 10
114.3
 20
-0.0000000000000142
 30
0.0
  0
POINT
  5
56ABD
330
56AB4
100
AcDbEntity
  8
Defpoints
 62
     0
100
AcDbPoint
 10
0.0
 20
7.937499999999971
 30
0.0
  0
POINT
  5
56ABE
330
56AB4
100
AcDbEntity
  8
Defpoints
 62
     0
100
AcDbPoint
 10
0.0000000000000018
 20
36.67664276870477
 30
0.0
  0
ENDBLK
  5
56ABF
330
56AB4
100
AcDbEntity
  8
0
100
AcDbBlockEnd
  0
BLOCK
  5
56AC1
330
56AC0
100
AcDbEntity
  8
0
100
AcDbBlockBegin
  2
*D15
 70
     1
 10
0.0
 20
0.0
 30
0.0
  3
*D15
  1

  0
LINE
  5
56AC2
330
56AC0
100
AcDbEntity
  8
2
100
AcDbLine
 10
94.29999999999999
 20
7.687499999999957
 30
0.0
 11
94.29999999999999
 21
25.26084676492738
 31
0.0
  0
LINE
  5
56AC3
330
56AC0
100
AcDbEntity
  8
2
100
AcDbLine
 10
114.3
 20
-0.0000000000000284
 30
0.0
 11
114.3
 21
25.26084676492738
 31
0.0
  0
LINE
  5
56AC4
330
56AC0
100
AcDbEntity
  8
2
100
AcDbLine
 10
110.8
 20
23.76084676492738
 30
0.0
 11
97.80000000000001
 21
23.76084676492738
 31
0.0
  0
LINE
  5
56AC5
330
56AC0
100
AcDbEntity
  8
2
100
AcDbLine
 10
94.29999999999999
 20
23.76084676492738
 30
0.0
 11
50.324995
 21
23.76084676492738
 31
0.0
  0
SOLID
  5
56AC6
330
56AC0
100
AcDbEntity
  8
2
100
AcDbTrace
 10
110.8
 20
24.34418009826071
 30
0.0
 11
110.8
 21
23.17751343159406
 31
0.0
 12
114.3
 22
23.76084676492738
 32
0.0
 13
114.3
 23
23.76084676492738
 33
0.0
  0
SOLID
  5
56AC7
330
56AC0
100
AcDbEntity
  8
2
100
AcDbTrace
 10
97.80000000000001
 20
24.34418009826071
 30
0.0
 11
97.80000000000001
 21
23.17751343159406
 31
0.0
 12
94.29999999999999
 22
23.76084676492738
 32
0.0
 13
94.29999999999999
 23
23.76084676492738
 33
0.0
  0
MTEXT
  5
56AC8
330
56AC0
100
AcDbEntity
  8
2
100
AcDbMText
 10
66.33332833333333
 20
27.81084676492738
 30
0.0
 40
3.5
 41
0.0
 71
     5
 72
     1
  1
\A1;20 [.787"]
  7
simplex
 73
     1
 44
0.892857
1001
ACAD
1000
MTEXTBEGIN
1070
    73
1070
     1
1070
    44
1040
0.892857
1070
    74
1070
     0
1000
MTEXTEND
  0
POINT
  5
56AC9
330
56AC0
100
AcDbEntity
  8
Defpoints
 62
     0
100
AcDbPoint
 10
94.29999999999999
 20
7.687499999999957
 30
0.0
  0
POINT
  5
56ACA
330
56AC0
100
AcDbEntity
  8
Defpoints
 62
     0
100
AcDbPoint
 10
114.3
 20
-0.0000000000000284
 30
0.0
  0
POINT
  5
56ACB
330
56AC0
100
AcDbEntity
  8
Defpoints
 62
     0
100
AcDbPoint
 10
114.3
 20
23.76084676492738
 30
0.0
  0
ENDBLK
  5
56ACC
330
56AC0
100
AcDbEntity
  8
0
100
AcDbBlockEnd
  0
BLOCK
  5
56ACE
330
56ACD
100
AcDbEntity
  8
0
100
AcDbBlockBegin
  2
*D16
 70
     1
 10
0.0
 20
0.0
 30
0.0
  3
*D16
  1

  0
LINE
  5
56ACF
330
56ACD
100
AcDbEntity
  8
sk2
100
AcDbLine
 10
-88.11453042549141
 20
-7.937499999999985
 30
0.0
 11
-117.700111
 21
-7.937499999999976
 31
0.0
  0
LINE
  5
56AD0
330
56ACD
100
AcDbEntity
  8
sk2
100
AcDbLine
 10
-87.89999900000003
 20
7.937499999999985
 30
0.0
 11
-117.700111
 21
7.937499999999992
 31
0.0
  0
LINE
  5
56AD1
330
56ACD
100
AcDbEntity
  8
sk2
100
AcDbLine
 10
-116.200111
 20
4.437499999999993
 30
0.0
 11
-116.200111
 21
-4.437499999999976
 31
0.0
  0
LINE
  5
56AD2
330
56ACD
100
AcDbEntity
  8
sk2
100
AcDbLine
 10
-116.200111
 20
-7.937499999999976
 30
0.0
 11
-116.200111
 21
-64.64375
 31
0.0
  0
SOLID
  5
56AD3
330
56ACD
100
AcDbEntity
  8
sk2
100
AcDbTrace
 10
-116.7834443333333
 20
4.437499999999993
 30
0.0
 11
-115.6167776666666
 21
4.437499999999993
 31
0.0
 12
-116.200111
 22
7.937499999999992
 32
0.0
 13
-116.200111
 23
7.937499999999992
 33
0.0
  0
SOLID
  5
56AD4
330
56ACD
100
AcDbEntity
  8
sk2
100
AcDbTrace
 10
-116.7834443333333
 20
-4.437499999999976
 30
0.0
 11
-115.6167776666666
 21
-4.437499999999976
 31
0.0
 12
-116.200111
 22
-7.937499999999976
 32
0.0
 13
-116.200111
 23
-7.937499999999976
 33
0.0
  0
MTEXT
  5
56AD5
330
56ACD
100
AcDbEntity
  8
sk2
100
AcDbMText
 10
-120.250111
 20
-39.59375000000002
 30
0.0
 40
3.5
 41
0.0
 71
     5
 72
     1
  1
\A1;%%c15.875 [%%C.625"]
  7
simplex
 11
0.0000000000000001
 21
1.0
 31
0.0
 73
     1
 44
0.892857
1001
ACAD
1000
MTEXTBEGIN
1070
    73
1070
     1
1070
    44
1040
0.892857
1070
    74
1070
     0
1000
MTEXTEND
  0
POINT
  5
56AD6
330
56ACD
100
AcDbEntity
  8
Defpoints
 62
     0
100
AcDbPoint
 10
-88.11453042549141
 20
-7.937499999999985
 30
0.0
  0
POINT
  5
56AD7
330
56ACD
100
AcDbEntity
  8
Defpoints
 62
     0
100
AcDbPoint
 10
-87.89999900000003
 20
7.937499999999985
 30
0.0
  0
POINT
  5
56AD8
330
56ACD
100
AcDbEntity
  8
Defpoints
 62
     0
100
AcDbPoint
 10
-116.200111
 20
7.937499999999992
 30
0.0
  0
ENDBLK
  5
56AD9
330
56ACD
100
AcDbEntity
  8
0
100
AcDbBlockEnd
  0
BLOCK
  5
56ADB
330
56ADA
100
AcDbEntity
  8
0
100
AcDbBlockBegin
  2
*D17
 70
     1
 10
0.0
 20
0.0
 30
0.0
  3
*D17
  1

  0
LINE
  5
56ADC
330
56ADA
100
AcDbEntity
  8
2
100
AcDbLine
 10
47.53544588842021
 20
-7.699999998899982
 30
0.0
 11
46.03544588842021
 21
-7.699999998899982
 31
0.0
  0
LINE
  5
56ADD
330
56ADA
100
AcDbEntity
  8
2
100
AcDbLine
 10
47.2734832883675
 20
7.699999998899982
 30
0.0
 11
49.03544588842021
 21
7.699999998899982
 31
0.0
  0
LINE
  5
56ADE
330
56ADA
100
AcDbEntity
  8
2
100
AcDbLine
 10
47.53544588842021
 20
4.199999998899983
 30
0.0
 11
47.53544588842021
 21
-4.199999998899983
 31
0.0
  0
LINE
  5
56ADF
330
56ADA
100
AcDbEntity
  8
2
100
AcDbLine
 10
47.53544588842021
 20
-7.699999998899982
 30
0.0
 11
47.5354458884202
 21
-53.71666666556664
 31
0.0
  0
SOLID
  5
56AE0
330
56ADA
100
AcDbEntity
  8
2
100
AcDbTrace
 10
46.95211255508687
 20
4.199999998899983
 30
0.0
 11
48.11877922175355
 21
4.199999998899983
 31
0.0
 12
47.53544588842021
 22
7.699999998899982
 32
0.0
 13
47.53544588842021
 23
7.699999998899982
 33
0.0
  0
SOLID
  5
56AE1
330
56ADA
100
AcDbEntity
  8
2
100
AcDbTrace
 10
46.95211255508687
 20
-4.199999998899983
 30
0.0
 11
48.11877922175355
 21
-4.199999998899983
 31
0.0
 12
47.53544588842021
 22
-7.699999998899982
 32
0.0
 13
47.53544588842021
 23
-7.699999998899982
 33
0.0
  0
MTEXT
  5
56AE2
330
56ADA
100
AcDbEntity
  8
2
100
AcDbMText
 10
43.4854458884202
 20
-32.4583333322333
 30
0.0
 40
3.5
 41
0.0
 71
     5
 72
     1
  1
\A1;%%c15.4 [%%C.606"]
  7
simplex
 11
0.0000000000000001
 21
1.0
 31
0.0
 73
     1
 44
1.0
1001
ACAD
1000
MTEXTBEGIN
1070
    73
1070
     1
1070
    44
1040
1.0
1070
    74
1070
     0
1000
MTEXTEND
  0
POINT
  5
56AE3
330
56ADA
100
AcDbEntity
  8
Defpoints
 62
     0
100
AcDbPoint
 10
47.53544588842021
 20
-7.699999998899982
 30
0.0
  0
POINT
  5
56AE4
330
56ADA
100
AcDbEntity
  8
Defpoints
 62
     0
100
AcDbPoint
 10
47.2734832883675
 20
7.699999998899982
 30
0.0
  0
POINT
  5
56AE5
330
56ADA
100
AcDbEntity
  8
Defpoints
 62
     0
100
AcDbPoint
 10
47.53544588842021
 20
7.699999998899982
 30
0.0
  0
ENDBLK
  5
56AE6
330
56ADA
100
AcDbEntity
  8
0
100
AcDbBlockEnd
  0
BLOCK
  5
56AE8
330
56AE7
100
AcDbEntity
  8
0
100
AcDbBlockBegin
  2
*D18
 70
     1
 10
0.0
 20
0.0
 30
0.0
  3
*D18
  1

  0
LINE
  5
56AE9
330
56AE7
100
AcDbEntity
  8
2
100
AcDbLine
 10
158.0277142309958
 20
46.9850490654879
 30
0.0
 11
114.8242095795229
 21
7.695175926280518
 31
0.0
  0
MTEXT
  5
56AEA
330
56AE7
100
AcDbEntity
  8
2
100
AcDbMText
 10
136.7703413812924
 20
33.12759260592458
 30
0.0
 40
3.5
 41
0.0
 71
     5
 72
     1
  1
\A1;R7.9375 [R.312"]
  7
simplex
 11
0.7398210779910688
 21
0.6728036656857132
 31
0.0
 73
     1
 44
1.0
1001
ACAD
1000
MTEXTBEGIN
1070
    73
1070
     1
1070
    44
1040
1.0
1070
    74
1070
     0
1000
MTEXTEND
  0
SOLID
  5
56AEB
330
56AE7
100
AcDbEntity
  8
2
100
AcDbTrace
 10
114.4317407745395
 20
8.126738221775305
 30
0.0
 11
115.2166783845062
 21
7.263613630785733
 31
0.0
 12
112.2348358065541
 22
5.340363096380521
 32
0.0
 13
112.2348358065541
 23
5.340363096380521
 33
0.0
  0
LINE
  5
56AEC
330
56AE7
100
AcDbEntity
  8
2
100
AcDbLine
 10
106.2725060000001
 20
-0.0000159999997678
 30
0.0
 11
106.4525060000001
 21
-0.0000159999997678
 31
0.0
  0
LINE
  5
56AED
330
56AE7
100
AcDbEntity
  8
2
100
AcDbLine
 10
106.3625060000001
 20
-0.0900159999997499
 30
0.0
 11
106.3625060000001
 21
0.0899840000002286
 31
0.0
  0
POINT
  5
56AEE
330
56AE7
100
AcDbEntity
  8
Defpoints
 62
     0
100
AcDbPoint
 10
112.2348358065541
 20
5.340363096380521
 30
0.0
  0
POINT
  5
56AEF
330
56AE7
100
AcDbEntity
  8
Defpoints
 62
     0
100
AcDbPoint
 10
106.3625060000001
 20
-0.0000159999997607
 30
0.0
  0
ENDBLK
  5
56AF0
330
56AE7
100
AcDbEntity
  8
0
100
AcDbBlockEnd
  0
BLOCK
  5
56AF2
330
56AF1
100
AcDbEntity
  8
0
100
AcDbBlockBegin
  2
*D19
 70
     1
 10
0.0
 20
0.0
 30
0.0
  3
*D19
  1

  0
LINE
  5
56AF3
330
56AF1
100
AcDbEntity
  8
2
100
AcDbLine
 10
106.5294137098221
 20
7.937484000000026
 30
0.0
 11
139.193003049855
 21
7.937484000000018
 31
0.0
  0
LINE
  5
56AF4
330
56AF1
100
AcDbEntity
  8
2
100
AcDbLine
 10
137.693003049855
 20
4.437484000000018
 30
0.0
 11
137.693003049855
 21
-7.937515999999977
 31
0.0
  0
LINE
  5
56AF5
330
56AF1
100
AcDbEntity
  8
2
100
AcDbLine
 10
137.693003049855
 20
-7.937515999999977
 30
0.0
 11
137.693003049855
 21
-61.53751600000001
 31
0.0
  0
SOLID
  5
56AF6
330
56AF1
100
AcDbEntity
  8
2
100
AcDbTrace
 10
137.1096697165216
 20
4.437484000000018
 30
0.0
 11
138.2763363831883
 21
4.437484000000016
 31
0.0
 12
137.693003049855
 22
7.937484000000018
 32
0.0
 13
137.693003049855
 23
7.937484000000018
 33
0.0
  0
MTEXT
  5
56AF7
330
56AF1
100
AcDbEntity
  8
2
100
AcDbMText
 10
133.643003049855
 20
-36.48751599999999
 30
0.0
 40
3.5
 41
0.0
 71
     5
 72
     1
  1
\A1;%%c15.875 [%%c.625"]
  7
simplex
 11
0.0000000000000001
 21
1.0
 31
0.0
 73
     1
 44
1.0
1001
ACAD
1000
MTEXTBEGIN
1070
    73
1070
     1
1070
    44
1040
1.0
1070
    74
1070
     0
1000
MTEXTEND
  0
POINT
  5
56AF8
330
56AF1
100
AcDbEntity
  8
Defpoints
 62
     0
100
AcDbPoint
 10
122.4150810000001
 20
-7.937515999999972
 30
0.0
  0
POINT
  5
56AF9
330
56AF1
100
AcDbEntity
  8
Defpoints
 62
     0
100
AcDbPoint
 10
106.5294137098221
 20
7.937484000000026
 30
0.0
  0
POINT
  5
56AFA
330
56AF1
100
AcDbEntity
  8
Defpoints
 62
     0
100
AcDbPoint
 10
137.693003049855
 20
7.937484000000018
 30
0.0
  0
ENDBLK
  5
56AFB
330
56AF1
100
AcDbEntity
  8
0
100
AcDbBlockEnd
  0
BLOCK
  5
56BBE
330
56BB3
100
AcDbEntity
  8
0
100
AcDbBlockBegin
  2
*D21
 70
     1
 10
0.0
 20
0.0
 30
0.0
  3
*D21
  1

  0
LINE
  5
56C07
330
56BB3
100
AcDbEntity
  8
2
100
AcDbLine
 10
98.34908373730776
 20
-197.2903662430295
 30
0.0
 11
96.84908373730772
 21
-197.2903662430295
 31
0.0
  0
LINE
  5
56C08
330
56BB3
100
AcDbEntity
  8
2
100
AcDbLine
 10
98.08712113725505
 20
-181.8903662452295
 30
0.0
 11
99.84908373730773
 21
-181.8903662452295
 31
0.0
  0
LINE
  5
56C09
330
56BB3
100
AcDbEntity
  8
2
100
AcDbLine
 10
98.34908373730772
 20
-185.3903662452295
 30
0.0
 11
98.34908373730772
 21
-193.7903662430295
 31
0.0
  0
LINE
  5
56C0A
330
56BB3
100
AcDbEntity
  8
2
100
AcDbLine
 10
98.34908373730772
 20
-197.2903662430295
 30
0.0
 11
98.34908373730771
 21
-243.3070329096962
 31
0.0
  0
SOLID
  5
56C0B
330
56BB3
100
AcDbEntity
  8
2
100
AcDbTrace
 10
97.76575040397439
 20
-185.3903662452295
 30
0.0
 11
98.93241707064106
 21
-185.3903662452295
 31
0.0
 12
98.34908373730772
 22
-181.8903662452295
 32
0.0
 13
98.34908373730772
 23
-181.8903662452295
 33
0.0
  0
SOLID
  5
56C0C
330
56BB3
100
AcDbEntity
  8
2
100
AcDbTrace
 10
97.76575040397439
 20
-193.7903662430295
 30
0.0
 11
98.93241707064106
 21
-193.7903662430295
 31
0.0
 12
98.34908373730772
 22
-197.2903662430295
 32
0.0
 13
98.34908373730772
 23
-197.2903662430295
 33
0.0
  0
MTEXT
  5
56C0D
330
56BB3
100
AcDbEntity
  8
2
100
AcDbMText
 10
94.29908373730775
 20
-222.0486995763629
 30
0.0
 40
3.5
 41
0.0
 71
     5
 72
     1
  1
\A1;%%c15.4 [%%C.606"]
  7
simplex
 11
0.0000000000000001
 21
1.0
 31
0.0
 73
     1
 44
1.0
1001
ACAD
1000
MTEXTBEGIN
1070
    73
1070
     1
1070
    44
1040
1.0
1070
    74
1070
     0
1000
MTEXTEND
  0
POINT
  5
56C0E
330
56BB3
100
AcDbEntity
  8
Defpoints
 62
     0
100
AcDbPoint
 10
98.34908373730776
 20
-197.2903662430295
 30
0.0
  0
POINT
  5
56C0F
330
56BB3
100
AcDbEntity
  8
Defpoints
 62
     0
100
AcDbPoint
 10
98.08712113725505
 20
-181.8903662452295
 30
0.0
  0
POINT
  5
56C10
330
56BB3
100
AcDbEntity
  8
Defpoints
 62
     0
100
AcDbPoint
 10
98.34908373730772
 20
-181.8903662452295
 30
0.0
  0
ENDBLK
  5
56BBF
330
56BB3
100
AcDbEntity
  8
0
100
AcDbBlockEnd
  0
BLOCK
  5
56BCA
330
56BC0
100
AcDbEntity
  8
0
100
AcDbBlockBegin
  2
*D22
 70
     1
 10
0.0
 20
0.0
 30
0.0
  3
*D22
  1

  0
LINE
  5
56C82
330
56BC0
100
AcDbEntity
  8
sk2
100
AcDbLine
 10
-88.89999999999997
 20
6.937515000000018
 30
0.0
 11
-88.89999999999997
 21
52.56385882017696
 31
0.0
  0
LINE
  5
56C83
330
56BC0
100
AcDbEntity
  8
sk2
100
AcDbLine
 10
114.3
 20
0.0
 30
0.0
 11
114.3
 21
52.56385882017696
 31
0.0
  0
LINE
  5
56C84
330
56BC0
100
AcDbEntity
  8
sk2
100
AcDbLine
 10
-85.39999999999997
 20
51.06385882017696
 30
0.0
 11
110.8
 21
51.06385882017696
 31
0.0
  0
SOLID
  5
56C85
330
56BC0
100
AcDbEntity
  8
sk2
100
AcDbTrace
 10
-85.39999999999997
 20
51.6471921535103
 30
0.0
 11
-85.39999999999997
 21
50.48052548684363
 31
0.0
 12
-88.89999999999997
 22
51.06385882017696
 32
0.0
 13
-88.89999999999997
 23
51.06385882017696
 33
0.0
  0
SOLID
  5
56C86
330
56BC0
100
AcDbEntity
  8
sk2
100
AcDbTrace
 10
110.8
 20
51.6471921535103
 30
0.0
 11
110.8
 21
50.48052548684363
 31
0.0
 12
114.3
 22
51.06385882017696
 32
0.0
 13
114.3
 23
51.06385882017696
 33
0.0
  0
MTEXT
  5
56C87
330
56BC0
100
AcDbEntity
  8
sk2
100
AcDbMText
 10
12.70000700000004
 20
55.11385882017695
 30
0.0
 40
3.5
 41
0.0
 71
     5
 72
     1
  1
\A1;203.2 [8.000"]
  7
simplex
 73
     1
 44
0.892857
1001
ACAD
1000
MTEXTBEGIN
1070
    73
1070
     1
1070
    44
1040
0.892857
1070
    74
1070
     0
1000
MTEXTEND
  0
POINT
  5
56C88
330
56BC0
100
AcDbEntity
  8
Defpoints
 62
     0
100
AcDbPoint
 10
-88.89999999999997
 20
6.937515000000018
 30
0.0
  0
POINT
  5
56C89
330
56BC0
100
AcDbEntity
  8
Defpoints
 62
     0
100
AcDbPoint
 10
114.3
 20
0.0
 30
0.0
  0
POINT
  5
56C8A
330
56BC0
100
AcDbEntity
  8
Defpoints
 62
     0
100
AcDbPoint
 10
114.3
 20
51.06385882017696
 30
0.0
  0
ENDBLK
  5
56BCB
330
56BC0
100
AcDbEntity
  8
0
100
AcDbBlockEnd
  0
BLOCK
  5
56BD6
330
56BCC
100
AcDbEntity
  8
0
100
AcDbBlockBegin
  2
*D23
 70
     1
 10
0.0
 20
0.0
 30
0.0
  3
*D23
  1

  0
LINE
  5
56C8B
330
56BCC
100
AcDbEntity
  8
2
100
AcDbLine
 10
114.3
 20
0.0
 30
0.0
 11
114.3
 21
38.17664276870477
 31
0.0
  0
LINE
  5
56C8C
330
56BCC
100
AcDbEntity
  8
2
100
AcDbLine
 10
0.0000000000000142
 20
7.937499999999971
 30
0.0
 11
0.0000000000000161
 21
38.17664276870477
 31
0.0
  0
LINE
  5
56C8D
330
56BCC
100
AcDbEntity
  8
2
100
AcDbLine
 10
110.8
 20
36.67664276870477
 30
0.0
 11
3.500000000000015
 21
36.67664276870477
 31
0.0
  0
SOLID
  5
56C8E
330
56BCC
100
AcDbEntity
  8
2
100
AcDbTrace
 10
110.8
 20
37.25997610203811
 30
0.0
 11
110.8
 21
36.09330943537143
 31
0.0
 12
114.3
 22
36.67664276870477
 32
0.0
 13
114.3
 23
36.67664276870477
 33
0.0
  0
SOLID
  5
56C8F
330
56BCC
100
AcDbEntity
  8
2
100
AcDbTrace
 10
3.500000000000015
 20
37.25997610203811
 30
0.0
 11
3.500000000000015
 21
36.09330943537143
 31
0.0
 12
0.000000000000016
 22
36.67664276870477
 32
0.0
 13
0.000000000000016
 23
36.67664276870477
 33
0.0
  0
MTEXT
  5
56C90
330
56BCC
100
AcDbEntity
  8
2
100
AcDbMText
 10
52.7311534547397
 20
40.72664276870476
 30
0.0
 40
3.5
 41
0.0
 71
     5
 72
     1
  1
\A1;114.3 [4.500"]
  7
simplex
 73
     1
 44
0.892857
1001
ACAD
1000
MTEXTBEGIN
1070
    73
1070
     1
1070
    44
1040
0.892857
1070
    74
1070
     0
1000
MTEXTEND
  0
POINT
  5
56C91
330
56BCC
100
AcDbEntity
  8
Defpoints
 62
     0
100
AcDbPoint
 10
114.3
 20
0.0
 30
0.0
  0
POINT
  5
56C92
330
56BCC
100
AcDbEntity
  8
Defpoints
 62
     0
100
AcDbPoint
 10
0.0000000000000142
 20
7.937499999999971
 30
0.0
  0
POINT
  5
56C93
330
56BCC
100
AcDbEntity
  8
Defpoints
 62
     0
100
AcDbPoint
 10
0.000000000000016
 20
36.67664276870477
 30
0.0
  0
ENDBLK
  5
56BD7
330
56BCC
100
AcDbEntity
  8
0
100
AcDbBlockEnd
  0
BLOCK
  5
56BE3
330
56BD8
100
AcDbEntity
  8
0
100
AcDbBlockBegin
  2
*D24
 70
     1
 10
0.0
 20
0.0
 30
0.0
  3
*D24
  1

  0
LINE
  5
56C23
330
56BD8
100
AcDbEntity
  8
2
100
AcDbLine
 10
145.1136378488875
 20
-181.9028662441296
 30
0.0
 11
145.1136378488875
 21
-164.3295194792021
 31
0.0
  0
LINE
  5
56C24
330
56BD8
100
AcDbEntity
  8
2
100
AcDbLine
 10
165.1136378488875
 20
-189.5903662441295
 30
0.0
 11
165.1136378488875
 21
-164.3295194792021
 31
0.0
  0
LINE
  5
56C25
330
56BD8
100
AcDbEntity
  8
2
100
AcDbLine
 10
161.6136378488875
 20
-165.8295194792021
 30
0.0
 11
148.6136378488875
 21
-165.8295194792021
 31
0.0
  0
LINE
  5
56C26
330
56BD8
100
AcDbEntity
  8
2
100
AcDbLine
 10
145.1136378488875
 20
-165.8295194792021
 30
0.0
 11
101.1386328488875
 21
-165.8295194792021
 31
0.0
  0
SOLID
  5
56C27
330
56BD8
100
AcDbEntity
  8
2
100
AcDbTrace
 10
161.6136378488875
 20
-165.2461861458688
 30
0.0
 11
161.6136378488875
 21
-166.4128528125355
 31
0.0
 12
165.1136378488875
 22
-165.8295194792021
 32
0.0
 13
165.1136378488875
 23
-165.8295194792021
 33
0.0
  0
SOLID
  5
56C28
330
56BD8
100
AcDbEntity
  8
2
100
AcDbTrace
 10
148.6136378488875
 20
-165.2461861458688
 30
0.0
 11
148.6136378488875
 21
-166.4128528125355
 31
0.0
 12
145.1136378488875
 22
-165.8295194792021
 32
0.0
 13
145.1136378488875
 23
-165.8295194792021
 33
0.0
  0
MTEXT
  5
56C29
330
56BD8
100
AcDbEntity
  8
2
100
AcDbMText
 10
117.1469661822208
 20
-161.7795194792021
 30
0.0
 40
3.5
 41
0.0
 71
     5
 72
     1
  1
\A1;20 [.787"]
  7
simplex
 73
     1
 44
0.892857
1001
ACAD
1000
MTEXTBEGIN
1070
    73
1070
     1
1070
    44
1040
0.892857
1070
    74
1070
     0
1000
MTEXTEND
  0
POINT
  5
56C2A
330
56BD8
100
AcDbEntity
  8
Defpoints
 62
     0
100
AcDbPoint
 10
145.1136378488875
 20
-181.9028662441296
 30
0.0
  0
POINT
  5
56C2B
330
56BD8
100
AcDbEntity
  8
Defpoints
 62
     0
100
AcDbPoint
 10
165.1136378488875
 20
-189.5903662441295
 30
0.0
  0
POINT
  5
56C2C
330
56BD8
100
AcDbEntity
  8
Defpoints
 62
     0
100
AcDbPoint
 10
165.1136378488875
 20
-165.8295194792021
 30
0.0
  0
ENDBLK
  5
56BE4
330
56BD8
100
AcDbEntity
  8
0
100
AcDbBlockEnd
  0
BLOCK
  5
56BF0
330
56BE5
100
AcDbEntity
  8
0
100
AcDbBlockBegin
  2
*D25
 70
     1
 10
0.0
 20
0.0
 30
0.0
  3
*D25
  1

  0
LINE
  5
56C94
330
56BE5
100
AcDbEntity
  8
sk2
100
AcDbLine
 10
-88.11453042549139
 20
-7.9375
 30
0.0
 11
-117.700111
 21
-7.937499999999992
 31
0.0
  0
LINE
  5
56C95
330
56BE5
100
AcDbEntity
  8
sk2
100
AcDbLine
 10
-87.89999900000003
 20
7.9375
 30
0.0
 11
-117.700111
 21
7.937500000000007
 31
0.0
  0
LINE
  5
56C96
330
56BE5
100
AcDbEntity
  8
sk2
100
AcDbLine
 10
-116.200111
 20
4.437500000000007
 30
0.0
 11
-116.200111
 21
-4.437499999999992
 31
0.0
  0
LINE
  5
56C97
330
56BE5
100
AcDbEntity
  8
sk2
100
AcDbLine
 10
-116.200111
 20
-7.937499999999992
 30
0.0
 11
-116.200111
 21
-64.64375000000001
 31
0.0
  0
SOLID
  5
56C98
330
56BE5
100
AcDbEntity
  8
sk2
100
AcDbTrace
 10
-116.7834443333333
 20
4.437500000000007
 30
0.0
 11
-115.6167776666666
 21
4.437500000000007
 31
0.0
 12
-116.200111
 22
7.937500000000007
 32
0.0
 13
-116.200111
 23
7.937500000000007
 33
0.0
  0
SOLID
  5
56C99
330
56BE5
100
AcDbEntity
  8
sk2
100
AcDbTrace
 10
-116.7834443333333
 20
-4.437499999999992
 30
0.0
 11
-115.6167776666666
 21
-4.437499999999992
 31
0.0
 12
-116.200111
 22
-7.937499999999992
 32
0.0
 13
-116.200111
 23
-7.937499999999992
 33
0.0
  0
MTEXT
  5
56C9A
330
56BE5
100
AcDbEntity
  8
sk2
100
AcDbMText
 10
-120.250111
 20
-39.59375000000003
 30
0.0
 40
3.5
 41
0.0
 71
     5
 72
     1
  1
\A1;%%c15.875 [%%C.625"]
  7
simplex
 11
0.0000000000000001
 21
1.0
 31
0.0
 73
     1
 44
0.892857
1001
ACAD
1000
MTEXTBEGIN
1070
    73
1070
     1
1070
    44
1040
0.892857
1070
    74
1070
     0
1000
MTEXTEND
  0
POINT
  5
56C9B
330
56BE5
100
AcDbEntity
  8
Defpoints
 62
     0
100
AcDbPoint
 10
-88.11453042549139
 20
-7.9375
 30
0.0
  0
POINT
  5
56C9C
330
56BE5
100
AcDbEntity
  8
Defpoints
 62
     0
100
AcDbPoint
 10
-87.89999900000003
 20
7.9375
 30
0.0
  0
POINT
  5
56C9D
330
56BE5
100
AcDbEntity
  8
Defpoints
 62
     0
100
AcDbPoint
 10
-116.200111
 20
7.937500000000007
 30
0.0
  0
ENDBLK
  5
56BF1
330
56BE5
100
AcDbEntity
  8
0
100
AcDbBlockEnd
  0
BLOCK
  5
56BFA
330
56BF2
100
AcDbEntity
  8
0
100
AcDbBlockBegin
  2
*D26
 70
     1
 10
0.0
 20
0.0
 30
0.0
  3
*D26
  1

  0
LINE
  5
56C37
330
56BF2
100
AcDbEntity
  8
2
100
AcDbLine
 10
208.8413520798831
 20
-142.6053171786413
 30
0.0
 11
165.6378474284104
 21
-181.895190317849
 31
0.0
  0
MTEXT
  5
56C38
330
56BF2
100
AcDbEntity
  8
2
100
AcDbMText
 10
187.5839792301797
 20
-156.4627736382047
 30
0.0
 40
3.5
 41
0.0
 71
     5
 72
     1
  1
\A1;R7.9375 [R.312"]
  7
simplex
 11
0.7398210779910644
 21
0.6728036656857182
 31
0.0
 73
     1
 44
1.0
1001
ACAD
1000
MTEXTBEGIN
1070
    73
1070
     1
1070
    44
1040
1.0
1070
    74
1070
     0
1000
MTEXTEND
  0
SOLID
  5
56C39
330
56BF2
100
AcDbEntity
  8
2
100
AcDbTrace
 10
165.245378623427
 20
-181.4636280223542
 30
0.0
 11
166.0303162333937
 21
-182.3267526133438
 31
0.0
 12
163.0484736554416
 22
-184.250003147749
 32
0.0
 13
163.0484736554416
 23
-184.250003147749
 33
0.0
  0
LINE
  5
56C3A
330
56BF2
100
AcDbEntity
  8
2
100
AcDbLine
 10
157.0861438488877
 20
-189.5903822441293
 30
0.0
 11
157.2661438488877
 21
-189.5903822441293
 31
0.0
  0
LINE
  5
56C3B
330
56BF2
100
AcDbEntity
  8
2
100
AcDbLine
 10
157.1761438488877
 20
-189.6803822441293
 30
0.0
 11
157.1761438488877
 21
-189.5003822441293
 31
0.0
  0
POINT
  5
56C3C
330
56BF2
100
AcDbEntity
  8
Defpoints
 62
     0
100
AcDbPoint
 10
163.0484736554416
 20
-184.250003147749
 30
0.0
  0
POINT
  5
56C3D
330
56BF2
100
AcDbEntity
  8
Defpoints
 62
     0
100
AcDbPoint
 10
157.1761438488876
 20
-189.5903822441293
 30
0.0
  0
ENDBLK
  5
56BFB
330
56BF2
100
AcDbEntity
  8
0
100
AcDbBlockEnd
  0
BLOCK
  5
56C05
330
56BFC
100
AcDbEntity
  8
0
100
AcDbBlockBegin
  2
*D27
 70
     1
 10
0.0
 20
0.0
 30
0.0
  3
*D27
  1

  0
LINE
  5
56C3E
330
56BFC
100
AcDbEntity
  8
2
100
AcDbLine
 10
157.3430515587096
 20
-181.6528822441295
 30
0.0
 11
190.0066408987425
 21
-181.6528822441295
 31
0.0
  0
LINE
  5
56C3F
330
56BFC
100
AcDbEntity
  8
2
100
AcDbLine
 10
188.5066408987425
 20
-185.1528822441295
 30
0.0
 11
188.5066408987425
 21
-197.5278822441295
 31
0.0
  0
LINE
  5
56C40
330
56BFC
100
AcDbEntity
  8
2
100
AcDbLine
 10
188.5066408987425
 20
-197.5278822441295
 30
0.0
 11
188.5066408987425
 21
-251.1278822441295
 31
0.0
  0
SOLID
  5
56C41
330
56BFC
100
AcDbEntity
  8
2
100
AcDbTrace
 10
187.9233075654092
 20
-185.1528822441295
 30
0.0
 11
189.0899742320758
 21
-185.1528822441295
 31
0.0
 12
188.5066408987425
 22
-181.6528822441295
 32
0.0
 13
188.5066408987425
 23
-181.6528822441295
 33
0.0
  0
MTEXT
  5
56C42
330
56BFC
100
AcDbEntity
  8
2
100
AcDbMText
 10
184.4566408987425
 20
-226.0778822441295
 30
0.0
 40
3.5
 41
0.0
 71
     5
 72
     1
  1
\A1;%%c15.875 [%%c.625"]
  7
simplex
 11
0.0000000000000001
 21
1.0
 31
0.0
 73
     1
 44
1.0
1001
ACAD
1000
MTEXTBEGIN
1070
    73
1070
     1
1070
    44
1040
1.0
1070
    74
1070
     0
1000
MTEXTEND
  0
POINT
  5
56C43
330
56BFC
100
AcDbEntity
  8
Defpoints
 62
     0
100
AcDbPoint
 10
173.2287188488876
 20
-197.5278822441295
 30
0.0
  0
POINT
  5
56C44
330
56BFC
100
AcDbEntity
  8
Defpoints
 62
     0
100
AcDbPoint
 10
157.3430515587096
 20
-181.6528822441295
 30
0.0
  0
POINT
  5
56C45
330
56BFC
100
AcDbEntity
  8
Defpoints
 62
     0
100
AcDbPoint
 10
188.5066408987425
 20
-181.6528822441295
 30
0.0
  0
ENDBLK
  5
56C06
330
56BFC
100
AcDbEntity
  8
0
100
AcDbBlockEnd
  0
ENDSEC
  0
SECTION
  2
ENTITIES
  0
INSERT
  5
68C
330
1F
100
AcDbEntity
  8
0
100
AcDbBlockReference
  2
zero block
 10
0.0
 20
0.0
 30
0.0
  0
MTEXT
  5
53AD9
330
1F
100
AcDbEntity
  8
sk6
100
AcDbMText
 10
-77.28028416281119
 20
86.35759531491373
 30
0.0
 40
5.0
 41
70.03712541027798
 71
     1
 72
     5
  1
SRFU10S10LW\PSUFT16R15
  7
simplex
 73
     1
 44
1.0
1001
ACAD
1000
ACAD_MTEXT_DEFINED_HEIGHT_BEGIN
1070
    46
1040
0.0
1000
ACAD_MTEXT_DEFINED_HEIGHT_END
1000
MTEXTBEGIN
1070
    73
1070
     1
1070
    44
1040
1.0
1070
    74
1070
     0
1000
MTEXTEND
  0
LWPOLYLINE
  5
566BB
330
1F
100
AcDbEntity
  8
1
100
AcDbPolyline
 90
       66
 70
     0
 43
0.0
 10
113.4617706963999
 20
-0.6544657744000233
 42
-0.0056909046567134
 10
113.4450181243831
 20
-0.8173133009156854
 42
-0.0056910368867449
 10
113.4245631212101
 20
-0.9797373530876996
 42
-0.0056910873725819
 10
113.4004163049748
 20
-1.141653729906209
 42
-0.0056910984707713
 10
113.3725901841323
 20
-1.302978522172081
 42
-0.0056910755169393
 10
113.3410991791277
 20
-1.463628131543315
 42
-0.0056910694029909
 10
113.3059596093465
 20
-1.623519292538303
 42
-0.0056910986942876
 10
113.2671896834678
 20
-1.782569166223111
 42
-0.0056911238915483
 10
113.2248094924126
 20
-1.940695338315691
 42
-0.0056911372092909
 10
113.1788410005473
 20
-2.09781585779757
 42
-0.0056911571919732
 10
113.1293080315967
 20
-2.253849299323205
 42
-0.0056911715784177
 10
113.0762362624798
 20
-2.408714791763087
 42
-0.005691091860814
 10
113.0196531940623
 20
-2.562332110613397
 42
-0.0056909200626064
 10
112.9595881472031
 20
-2.714621638209506
 42
-0.0056910618675328
 10
112.8960723295634
 20
-2.865504219766704
 42
-0.0056913043961811
 10
112.8291385324081
 20
-3.014902105857571
 42
-0.0056907549985412
 10
112.7588214807076
 20
-3.162737692851408
 42
-0.0056914914711686
 10
112.6851574837208
 20
-3.308934592531499
 42
-0.0056907277321216
 10
112.6081848091213
 20
-3.453417019563175
 42
-0.0056914077364443
 10
112.5279432448286
 20
-3.596110000434008
 42
-0.0056908383862592
 10
112.4444745567876
 20
-3.736939563847073
 42
-0.0056912092948962
 10
112.3578218308373
 20
-3.87583265250069
 42
-0.0056909688051329
 10
112.26803015038
 20
-4.012717418498623
 42
-0.0056910245682757
 10
112.1751458462307
 20
-4.14752279886531
 42
-0.0056911497399696
 10
112.0792172457411
 20
-4.280179078137705
 42
-0.005690872406839
 10
111.980293870638
 20
-4.410617380780308
 42
-0.0056913393859314
 10
111.8784271500726
 20
-4.538770242131704
 42
-0.0056907724582737
 10
111.7736697270153
 20
-4.66457114600891
 42
-0.0056914880905165
 10
111.666075995773
 20
-4.787954992063419
 42
-0.0056907231059509
 10
111.5557016338503
 20
-4.908857785424571
 42
-0.0056678974029382
 10
111.4430793670549
 20
-5.026730452270896
 42
-0.0056907238448078
 10
111.3273277616158
 20
-5.142495520777713
 42
-0.0056914844358631
 10
111.2089710627573
 20
-5.255595813681992
 42
-0.0056907748205526
 10
111.0880706652561
 20
-5.365972799951093
 42
-0.0056913338007302
 10
110.9646891242273
 20
-5.473569174619966
 42
-0.0056908766572875
 10
110.8388904899646
 20
-5.578329323231513
 42
-0.0056911436707039
 10
110.7107398158718
 20
-5.680198795458096
 42
-0.0056910292833749
 10
110.5803036495951
 20
-5.779124987650987
 42
-0.0056909640979332
 10
110.4476494369046
 20
-5.875056445794
 42
-0.0056912188444952
 10
110.312846054457
 20
-5.9679436507447
 42
-0.0056908311225073
 10
110.1759632305419
 20
-6.057738291570501
 42
-0.0056913995851162
 10
110.0370720014828
 20
-6.144393995702159
 42
-0.0056907490294686
 10
109.8962442542284
 20
-6.22786573197041
 42
-0.0056915216010712
 10
109.7535530229529
 20
-6.308110338958897
 42
-0.0056907178216101
 10
109.6090722128156
 20
-6.385086184099009
 42
-0.0056915357767657
 10
109.4628767014359
 20
-6.458753387459665
 42
-0.0056907375711992
 10
109.3150422572247
 20
-6.529073813719405
 42
-0.0056914339929191
 10
109.1656454522241
 20
-6.596010941659499
 42
-0.0056908082822798
 10
109.0147637511807
 20
-6.659530210134817
 42
-0.0056912619990218
 10
108.8624752747644
 20
-6.719598542343334
 42
-0.005690929396703
 10
108.7088590083391
 20
-6.776185005188295
 42
-0.005691070220134
 10
108.553994477028
 20
-6.829260060719491
 42
-0.0056911019485067
 10
108.3979620038216
 20
-6.878796433006696
 42
-0.0056909057247924
 10
108.2408423694215
 20
-6.924768227346987
 42
-0.005691287605776
 10
108.0827170579367
 20
-6.967151836945191
 42
-0.0056907982457563
 10
107.9236679567784
 20
-7.005925108284287
 42
-0.0056914739745901
 10
107.7637775056889
 20
-7.041068101820003
 42
-0.0056907068632362
 10
107.6031285245131
 20
-7.072562499269992
 42
-0.0056914875265298
 10
107.4418043536833
 20
-7.100392066546817
 42
-0.0056908233805731
 10
107.2798885554755
 20
-7.124542324321339
 42
-0.0056916520186013
 10
107.117464727373
 20
-7.145000681830397
 42
-0.0056903391899082
 10
106.9546172540008
 20
-7.161756774496068
 42
-0.0056911014128578
 10
106.7914317101711
 20
-7.174801936413301
 42
-0.0056924532105925
 10
106.6279913599682
 20
-7.184128914653313
 42
-0.0056912521161931
 10
106.4643763240504
 20
-7.18973230470749
 42
-0.0057087168763654
 10
106.2999999999999
 20
-7.191612125099992
  0
LWPOLYLINE
  5
566BC
330
1F
100
AcDbEntity
  8
1
100
AcDbPolyline
 90
       45
 70
     0
 43
0.0
 10
112.8947084727999
 20
0.2622278751999829
 42
0.0036483680040605
 10
112.7845229282146
 20
0.4213933820361433
 42
0.0035941097979407
 10
112.6720282289211
 20
0.578935743613215
 42
0.0034298536818941
 10
112.5573379153708
 20
0.7348871031327917
 42
0.0033605580659409
 10
112.4405408370321
 20
0.8892670150886772
 42
0.0033071451430027
 10
112.3216958615921
 20
1.042076077769791
 42
0.0032836751616642
 10
112.2008476053893
 20
1.193305848303565
 42
0.0032787188133124
 10
112.0780258865644
 20
1.342937292270363
 42
0.0032874841411816
 10
111.9532506032488
 20
1.49094358959337
 42
0.0033092919392613
 10
111.8265336796009
 20
1.637290961454368
 42
0.0033429604111758
 10
111.6978811901191
 20
1.781939714514776
 42
0.0033844323474382
 10
111.567294767022
 20
1.924844886090794
 42
0.0034324770759833
 10
111.4347723929595
 20
2.065956555959473
 42
0.0034875842808921
 10
111.300309880648
 20
2.205220708995283
 42
0.0035482482275513
 10
111.1639014595386
 20
2.342579417627888
 42
0.0036041999410095
 10
111.0255410744954
 20
2.477971515954493
 42
0.0035765826979552
 10
110.8852495082308
 20
2.611361633131139
 42
0.0035417893867546
 10
110.7430731669733
 20
2.742741071512965
 42
0.003507460062088
 10
110.5990587615211
 20
2.872103067963792
 42
0.0034690570610568
 10
110.4532533109971
 20
2.9994429909961
 42
0.0034363347945509
 10
110.3057038877501
 20
3.124758038991046
 42
0.0034233441494613
 10
110.1564492211316
 20
3.248037172542466
 42
0.0034416727474317
 10
110.005518038163
 20
3.369257966743163
 42
0.003481141977941
 10
109.8529230444495
 20
3.488377410682089
 42
0.0035169653896895
 10
109.6986758066277
 20
3.605349437694853
 42
0.0035543694127953
 10
109.5427899545783
 20
3.720128594017068
 42
0.0035959856079924
 10
109.3852787382215
 20
3.832666832131535
 42
0.0036395024873393
 10
109.2261556523603
 20
3.9429141370764
 42
0.0036844704260561
 10
109.0654348617016
 20
4.050818880574951
 42
0.003729732478692
 10
108.9031317998432
 20
4.156328627302571
 42
0.0037771174160109
 10
108.7392631911887
 20
4.259390031716178
 42
0.0038290228928371
 10
108.5738458807621
 20
4.359946821797136
 42
0.0038709342371056
 10
108.4068990874256
 20
4.457943430878883
 42
0.0039025887137019
 10
108.2384487934545
 20
4.55333221639097
 42
0.0038726055061318
 10
108.0685345720773
 20
4.646088335816613
 42
0.0038350659605513
 10
107.8972108760934
 20
4.736214747809809
 42
0.0038060859254337
 10
107.724529946226
 20
4.823712587397266
 42
0.0037773716061609
 10
107.5505418068965
 20
4.908581418223889
 42
0.0037491122134937
 10
107.3752959228732
 20
4.990821786035268
 42
0.0037250014980223
 10
107.1988403800446
 20
5.070433591634865
 42
0.0037033859384662
 10
107.0212215403775
 20
5.147415437266544
 42
0.0036854229919934
 10
106.8424846474909
 20
5.221764203862761
 42
0.0036676896236731
 10
106.6626740565489
 20
5.293476346063556
 42
0.0036528719749782
 10
106.4818318533068
 20
5.362549212435084
 42
0.0036563020859767
 10
106.2999999999999
 20
5.428971229299974
  0
ARC
  5
566BD
330
1F
100
AcDbEntity
  8
1
100
AcDbCircle
 10
106.2999999999999
 20
-0.0000000000000284
 30
0.0
 40
3.25
100
AcDbArc
 50
270.0
 51
90.0
  0
CIRCLE
  5
566BE
330
1F
100
AcDbEntity
  8
1
100
AcDbCircle
 10
106.2999999999999
 20
-0.0000000000000284
 30
0.0
 40
2.25
  0
CIRCLE
  5
566BF
330
1F
100
AcDbEntity
  8
1
100
AcDbCircle
 10
106.2999999999999
 20
-0.0000000000000284
 30
0.0
 40
3.0
  0
ARC
  5
566C0
330
1F
100
AcDbEntity
  8
1
100
AcDbCircle
 10
107.41475
 20
-1.930803637799981
 30
0.0
 40
0.8259999999999998
100
AcDbArc
 50
94.68549035500316
 51
145.3145096449979
  0
ARC
  5
566C1
330
1F
100
AcDbEntity
  8
1
100
AcDbCircle
 10
107.41475
 20
1.930803637699965
 30
0.0
 40
0.8259999999999998
100
AcDbArc
 50
214.685490355002
 51
265.3145096450001
  0
LWPOLYLINE
  5
566C2
330
1F
100
AcDbEntity
  8
1
100
AcDbPolyline
 90
       15
 70
     0
 43
0.0
 10
113.4617706963999
 20
-0.6544657744000233
 42
0.0035434142582436
 10
113.4249756994999
 20
-0.5860401729000273
 10
113.3875469153231
 20
-0.5187143401531104
 10
113.3493042216802
 20
-0.4518472392136347
 10
113.3103523733053
 20
-0.3853906916962444
 10
113.2707704780778
 20
-0.3193073594096916
 10
113.2306263230393
 20
-0.2535640214017008
 10
113.1899745815903
 20
-0.1881333169368133
 10
113.1488615232483
 20
-0.1229914157520113
 10
113.1073262910683
 20
-0.0581178489544243
 10
113.0653997434861
 20
0.0065034745109642
 10
113.0231130841133
 20
0.0708896637264616
 10
112.9804987711911
 20
0.1350596632805718
 10
112.9375750482131
 20
0.1990232831630862
 10
112.8947084731
 20
0.2622278746999882
  0
ARC
  5
566C3
330
1F
100
AcDbEntity
  8
1
100
AcDbCircle
 10
108.5294999999999
 20
-0.0000000000000284
 30
0.0
 40
0.8259999999999998
100
AcDbArc
 50
154.6854903549983
 51
205.3145096450017
  0
ARC
  5
566C4
330
1F
100
AcDbEntity
  8
1
100
AcDbCircle
 10
107.3040107231999
 20
-0.5796658613000432
 30
0.0
 40
0.5296682774
100
AcDbArc
 50
274.6854903549998
 51
25.31450964500175
  0
ARC
  5
566C5
330
1F
100
AcDbEntity
  8
1
100
AcDbCircle
 10
107.3040107231999
 20
0.5796658612999864
 30
0.0
 40
0.5296682774
100
AcDbArc
 50
334.6854903549982
 51
85.3145096450001
  0
ARC
  5
566C6
330
1F
100
AcDbEntity
  8
1
100
AcDbCircle
 10
106.1999999999999
 20
-0.0000000000000284
 30
0.0
 40
3.25
100
AcDbArc
 50
90.0
 51
270.0
  0
LWPOLYLINE
  5
566C7
330
1F
100
AcDbEntity
  8
1
100
AcDbPolyline
 90
        8
 70
     0
 43
0.0
 10
104.1112473288999
 20
6.137842256099985
 42
0.0007309376098484
 10
103.8490198727863
 20
6.221935151353108
 42
0.0007064351536926
 10
103.5865515541101
 20
6.305273927501191
 42
0.0007202156225459
 10
103.3238489917575
 20
6.387871802274303
 42
0.0008004904594429
 10
103.0608965722829
 20
6.469670317883639
 42
0.0008786752564622
 10
102.7976708359909
 20
6.550584782311716
 42
0.0009498701562682
 10
102.5349801695
 20
6.630284459900025
 42
0.0009322831270784
 10
102.2998536119483
 20
6.700659110725894
 42
0.0009317852074172
  0
LWPOLYLINE
  5
566C8
330
1F
100
AcDbEntity
  8
1
100
AcDbPolyline
 90
       13
 70
     0
 43
0.0
 10
106.2999999999999
 20
5.428971229299974
 42
0.0018924096800623
 10
106.1191011474136
 20
5.492512470279478
 42
0.0020202399374288
 10
105.9377102015327
 20
5.554636216571793
 42
0.0017824010118138
 10
105.7558409784879
 20
5.615345244052888
 42
0.0013323425140326
 10
105.5735976924519
 20
5.674923092820562
 42
0.0010540592504601
 10
105.3910732422413
 20
5.733633915738977
 42
0.0007692296525606
 10
105.2083349154854
 20
5.791675719536017
 10
105.0254542504239
 20
5.849267729247684
 10
104.8425010652256
 20
5.906628967328174
 10
104.6595404328673
 20
5.963966396468862
 10
104.476634024256
 20
6.02147666624387
 42
-0.000725166870507
 10
104.2938569937523
 20
6.079396518663144
 42
-0.0006773926047716
 10
104.1112473034
 20
6.137842266299968
  0
LINE
  5
566C9
330
1F
100
AcDbEntity
  8
1
100
AcDbLine
 10
106.2999999999999
 20
3.249999999999971
 30
0.0
 11
106.1999999999999
 21
3.249999999999971
 31
0.0
  0
LWPOLYLINE
  5
566CA
330
1F
100
AcDbEntity
  8
1
100
AcDbPolyline
 90
       10
 70
     0
 43
0.0
 10
99.79999999999996
 20
7.355149413899994
 10
99.72547933718189
 20
7.369818089433834
 10
99.65084075191086
 20
7.383876757296802
 10
99.5760900565253
 20
7.397327367832191
 10
99.50121627988437
 20
7.410073256121478
 10
99.4262067413878
 20
7.421993931753661
 10
99.35105201181297
 20
7.432959954158661
 42
0.0039780613159534
 10
99.27574370560053
 20
7.442816342288296
 42
0.0052382013601372
 10
99.20026827541818
 20
7.4512933122123
 42
0.00543876154963
 10
99.1246249529
 20
7.458111200199994
  0
LINE
  5
566CB
330
1F
100
AcDbEntity
  8
1
100
AcDbLine
 10
102.2999999999999
 20
7.458111200199994
 30
0.0
 11
99.1246249529
 21
7.458111200199994
 31
0.0
  0
LINE
  5
566CC
330
1F
100
AcDbEntity
  8
1
100
AcDbLine
 10
99.97490551079991
 20
7.218676122199667
 30
0.0
 11
99.79999999999989
 21
7.289342535599672
 31
0.0
  0
LINE
  5
566CD
330
1F
100
AcDbEntity
  8
1
100
AcDbLine
 10
100.4113301028999
 20
7.21867612219998
 30
0.0
 11
99.79999999999996
 21
7.21867612219998
 31
0.0
  0
LINE
  5
566CE
330
1F
100
AcDbEntity
  8
1
100
AcDbLine
 10
99.79999999999996
 20
7.21867612219998
 30
0.0
 11
99.79999999999996
 21
7.355149413899994
 31
0.0
  0
ARC
  5
566CF
330
1F
100
AcDbEntity
  8
1
100
AcDbCircle
 10
106.2999999999999
 20
-1.159331722599971
 30
0.0
 40
0.5296682774
100
AcDbArc
 50
214.685490355002
 51
325.3145096450038
  0
ARC
  5
566D0
330
1F
100
AcDbEntity
  8
1
100
AcDbCircle
 10
105.1852499999999
 20
-1.930803637799981
 30
0.0
 40
0.8259999999999998
100
AcDbArc
 50
34.68549035500203
 51
85.3145096450001
  0
ARC
  5
566D1
330
1F
100
AcDbEntity
  8
1
100
AcDbCircle
 10
105.2959892767999
 20
-0.5796658613000432
 30
0.0
 40
0.5296682774
100
AcDbArc
 50
154.6854903550045
 51
265.3145096450001
  0
ARC
  5
566D2
330
1F
100
AcDbEntity
  8
1
100
AcDbCircle
 10
104.0705
 20
-0.0000000000000284
 30
0.0
 40
0.8259999999999998
100
AcDbArc
 50
334.6854903549982
 51
25.31450964500175
  0
ARC
  5
566D3
330
1F
100
AcDbEntity
  8
1
100
AcDbCircle
 10
105.2959892767999
 20
0.5796658612999864
 30
0.0
 40
0.5296682774
100
AcDbArc
 50
94.68549035499989
 51
205.3145096450017
  0
ARC
  5
566D4
330
1F
100
AcDbEntity
  8
1
100
AcDbCircle
 10
106.2999999999999
 20
1.159331722599943
 30
0.0
 40
0.5296682774
100
AcDbArc
 50
34.6854903549962
 51
145.3145096449979
  0
ARC
  5
566D5
330
1F
100
AcDbEntity
  8
1
100
AcDbCircle
 10
105.1852499999999
 20
1.930803637699965
 30
0.0
 40
0.8259999999999998
100
AcDbArc
 50
274.6854903550032
 51
325.3145096449979
  0
LINE
  5
566D6
330
1F
100
AcDbEntity
  8
1
100
AcDbLine
 10
106.2999999999999
 20
-3.25
 30
0.0
 11
106.1999999999999
 21
-3.25
 31
0.0
  0
LINE
  5
566D7
330
1F
100
AcDbEntity
  8
1
100
AcDbLine
 10
106.2999999999999
 20
-7.191612125099992
 30
0.0
 11
102.2999999999999
 21
-7.191612125099992
 31
0.0
  0
LINE
  5
566D8
330
1F
100
AcDbEntity
  8
1
100
AcDbLine
 10
99.79999999999996
 20
-7.410079956300022
 30
0.0
 11
99.79999999999996
 21
-7.218676122299996
 31
0.0
  0
LINE
  5
566D9
330
1F
100
AcDbEntity
  8
1
100
AcDbLine
 10
102.2999999999999
 20
-7.218676122299996
 30
0.0
 11
99.79999999999996
 21
-7.218676122299996
 31
0.0
  0
LINE
  5
566DA
330
1F
100
AcDbEntity
  8
1
100
AcDbLine
 10
102.2999999999999
 20
-7.410079956300022
 30
0.0
 11
99.79999999999996
 21
-7.410079956300022
 31
0.0
  0
LINE
  5
566DB
330
1F
100
AcDbEntity
  8
1
100
AcDbLine
 10
98.29999999999998
 20
0.0
 30
0.0
 11
98.29999999999998
 21
-7.464535146800017
 31
0.0
  0
LINE
  5
566DC
330
1F
100
AcDbEntity
  8
1
100
AcDbLine
 10
98.29999999999998
 20
0.0
 30
0.0
 11
98.29999999999998
 21
7.464535146800017
 31
0.0
  0
LWPOLYLINE
  5
566DD
330
1F
100
AcDbEntity
  8
1
100
AcDbPolyline
 90
        9
 70
     0
 43
0.0
 10
102.2998536119483
 20
6.700659110725894
 42
0.0001142602704711
 10
102.2711442393676
 20
6.709186578893819
 42
0.0011590072123897
 10
102.006963037443
 20
6.786924511796569
 42
0.0012997887650828
 10
101.7424034282263
 20
6.863364508386779
 42
0.0014667914705964
 10
101.4774261690776
 20
6.938343834321187
 42
0.0016888004856247
 10
101.2119813196621
 20
7.011649791483961
 42
0.0019382025482841
 10
100.9460123018687
 20
7.083029931545411
 42
0.0024062225706561
 10
100.6794412140801
 20
7.152126637268452
 42
0.0026142691438676
 10
100.4113301028999
 20
7.21867612219998
  0
LINE
  5
566DE
330
1F
100
AcDbEntity
  8
1
100
AcDbLine
 10
98.29999999999998
 20
7.464999998899911
 30
0.0
 11
102.2999999999999
 21
7.464999998899911
 31
0.0
1001
ACAD
1000
RTMaterial
1005
0
  0
LINE
  5
566DF
330
1F
100
AcDbEntity
  8
1
100
AcDbLine
 10
98.29999999999998
 20
7.464999998899911
 30
0.0
 11
94.30000000000008
 21
7.699999998899982
 31
0.0
1001
ACAD
1000
RTMaterial
1005
0
  0
LINE
  5
566E0
330
1F
100
AcDbEntity
  8
1
100
AcDbLine
 10
98.29999999999991
 20
-7.464999998899911
 30
0.0
 11
102.2999999999998
 21
-7.464999998899941
 31
0.0
1001
ACAD
1000
RTMaterial
1005
0
  0
LINE
  5
566E1
330
1F
100
AcDbEntity
  8
1
100
AcDbLine
 10
98.29999999999991
 20
-7.464999998899911
 30
0.0
 11
94.29999999999997
 21
-7.699999998899982
 31
0.0
1001
ACAD
1000
RTMaterial
1005
0
  0
ARC
  5
566E2
330
1F
100
AcDbEntity
  8
nocut
100
AcDbCircle
 10
106.295
 20
-0.0000000000000568
 30
0.0
 40
7.464999998899977
100
AcDbArc
 50
0.0
 51
90.0
  0
DIMENSION
  5
566E3
330
1F
100
AcDbEntity
  8
2
100
AcDbDimension
  2
*D6
 10
80.77329896152919
 20
7.699999998899986
 30
0.0
 11
80.77329896152919
 21
-37.70833333223328
 31
0.0
 70
   160
  1
%%c<>
 71
     5
 42
15.39999999779996
  3
\M+18352\M+18373\M+1815B - ISO-25
100
AcDbAlignedDimension
 13
94.29999999999997
 23
-7.699999998899982
 33
0.0
 14
94.29999999999997
 24
7.699999998899982
 34
0.0
 50
270.0
100
AcDbRotatedDimension
1001
ACAD
1000
DSTYLE
1002
{
1070
     4
1000
%%C[]"
1070
    40
1040
1.0
1070
   143
1040
0.03937
1070
   170
1070
     1
1070
   171
1070
     3
1070
   271
1070
     8
1070
   285
1070
     4
1002
}
  0
DIMENSION
  5
566E4
330
1F
100
AcDbEntity
  8
2
100
AcDbDimension
  2
*D7
 10
114.3
 20
23.76084676492738
 30
0.0
 11
66.33332833333334
 21
23.76084676492738
 31
0.0
 70
   160
 71
     5
 41
0.892857
 42
19.99999999999997
  3
\M+18352\M+18373\M+1815B - ISO-25
100
AcDbAlignedDimension
 13
94.30000000000005
 23
7.687499999999943
 33
0.0
 14
114.3
 24
5.055141471329079
 34
0.0
 50
180.0
100
AcDbRotatedDimension
1001
ACAD
1000
DSTYLE
1002
{
1070
     4
1000
"
1070
    40
1040
1.0
1070
   143
1040
0.03937
1070
   170
1070
     1
1070
   171
1070
     3
1070
   271
1070
     8
1070
   285
1070
     4
1002
}
  0
LINE
  5
566E5
330
1F
100
AcDbEntity
  8
1
100
AcDbLine
 10
94.29999999999997
 20
-7.699999998899982
 30
0.0
 11
94.30000000000005
 21
7.695999999999968
 31
0.0
  0
LINE
  5
566E6
330
1F
100
AcDbEntity
  8
1
100
AcDbLine
 10
0.0
 20
-7.9375
 30
0.0
 11
0.0
 21
0.0
 31
0.0
  0
LINE
  5
566E7
330
1F
100
AcDbEntity
  8
4
100
AcDbLine
 10
0.0
 20
0.0
 30
0.0
 11
122.415075
 21
0.0
 31
0.0
  0
LINE
  5
566E8
330
1F
100
AcDbEntity
  8
1
100
AcDbLine
 10
0.0
 20
7.937499999999971
 30
0.0
 11
0.0
 21
0.0
 31
0.0
  0
LINE
  5
566E9
330
1F
100
AcDbEntity
  8
1
100
AcDbLine
 10
0.2374999999999545
 20
7.699999998899982
 30
0.0
 11
0.0
 21
7.937499998899993
 31
0.0
1001
ACAD
1000
RTMaterial
1005
0
  0
LINE
  5
566EA
330
1F
100
AcDbEntity
  8
1
100
AcDbLine
 10
0.2374999999999545
 20
7.699999998899982
 30
0.0
 11
94.29999999999997
 21
7.699999998899982
 31
0.0
1001
ACAD
1000
RTMaterial
1005
0
  0
LINE
  5
566EB
330
1F
100
AcDbEntity
  8
1
100
AcDbLine
 10
0.2374999999999545
 20
-7.699999998899982
 30
0.0
 11
0.0
 21
-7.937499998899993
 31
0.0
1001
ACAD
1000
RTMaterial
1005
0
  0
LINE
  5
566EC
330
1F
100
AcDbEntity
  8
1
100
AcDbLine
 10
0.2374999999999545
 20
-7.699999998899982
 30
0.0
 11
94.29999999999997
 21
-7.699999998899982
 31
0.0
1001
ACAD
1000
RTMaterial
1005
0
  0
LINE
  5
566ED
330
1F
100
AcDbEntity
  8
1
100
AcDbLine
 10
0.2374999999999545
 20
7.699999998899982
 30
0.0
 11
0.2374999999999545
 21
-7.699999998899982
 31
0.0
  0
LINE
  5
566EE
330
1F
100
AcDbEntity
  8
nocut
100
AcDbLine
 10
0.0
 20
0.0
 30
0.0
 11
0.0000000000001137
 21
7.937499998899993
 31
0.0
1001
ACAD
1000
RTMaterial
1005
0
  0
LINE
  5
566EF
330
1F
100
AcDbEntity
  8
nocut
100
AcDbLine
 10
0.2375000000000682
 20
7.699999998899982
 30
0.0
 11
0.0000000000001137
 21
7.937499998899993
 31
0.0
1001
ACAD
1000
RTMaterial
1005
0
  0
LINE
  5
566F0
330
1F
100
AcDbEntity
  8
nocut
100
AcDbLine
 10
113.7599999989001
 20
-0.0000000000000284
 30
0.0
 11
0.0
 21
0.0000000000000321
 31
0.0
1001
ACAD
1000
RTMaterial
1005
0
  0
LINE
  5
566F1
330
1F
100
AcDbEntity
  8
nocut
100
AcDbLine
 10
98.30000000000008
 20
7.464999998899911
 30
0.0
 11
106.295
 21
7.464999998899911
 31
0.0
1001
ACAD
1000
RTMaterial
1005
0
  0
LINE
  5
566F2
330
1F
100
AcDbEntity
  8
nocut
100
AcDbLine
 10
0.2374999999999545
 20
7.699999998899982
 30
0.0
 11
94.30000000000008
 21
7.699999998899982
 31
0.0
1001
ACAD
1000
RTMaterial
1005
0
  0
LINE
  5
566F3
330
1F
100
AcDbEntity
  8
nocut
100
AcDbLine
 10
98.29999999999998
 20
7.464535146800017
 30
0.0
 11
94.30000000000008
 21
7.699999998899982
 31
0.0
1001
ACAD
1000
RTMaterial
1005
0
  0
LINE
  5
566F5
330
1F
100
AcDbEntity
  8
1
100
AcDbLine
 10
102.2999995384616
 20
7.464999998899911
 30
0.0
 11
102.3000171782201
 21
6.700610486341303
 31
0.0
  0
LINE
  5
566F6
330
1F
100
AcDbEntity
  8
1
100
AcDbLine
 10
102.2999998523604
 20
-7.464999998899941
 30
0.0
 11
102.3000018705044
 21
-7.191612125099992
 31
0.0
  0
DIMENSION
  5
567B9
330
1F
100
AcDbEntity
  8
2
100
AcDbDimension
  2
*D11
 10
129.9710616096827
 20
7.999999998899939
 30
0.0
 11
129.9710616096827
 21
-30.42500000110007
 31
0.0
 70
   160
  1
%%c<>
 71
     5
 42
16.0
  3
\M+18352\M+18373\M+1815B - ISO-25
100
AcDbAlignedDimension
 13
112.7999999999999
 23
-8.000000001100055
 33
0.0
 14
112.7999999999999
 24
7.999999998899943
 34
0.0
 50
270.0
100
AcDbRotatedDimension
1001
ACAD
1000
DSTYLE
1002
{
1070
     4
1000
%%c[]"
1070
    40
1040
1.0
1070
    75
1070
     1
1070
   143
1040
0.03937
1070
   170
1070
     1
1070
   171
1070
     3
1070
   173
1070
     1
1070
   271
1070
     8
1070
   285
1070
     4
1070
   343
1005
50E6F
1002
}
  0
SPLINE
  5
567BA
330
1F
100
AcDbEntity
  8
1
100
AcDbSpline
210
0.0
220
0.0
230
1.0
 70
     8
 71
     3
 72
    14
 73
    10
 74
     8
 42
0.0000000001
 43
0.0000000001
 44
0.000001
 12
0.0516999175533795
 22
-0.9986626650300761
 32
0.0
 13
0.0564404773313484
 23
-0.9984059657867684
 33
0.0
 40
0.0
 40
0.0
 40
0.0
 40
0.0
 40
0.0526376800272934
 40
0.1048304713249381
 40
0.1590491743525668
 40
0.2163390104693187
 40
0.2774900723546909
 40
0.3438838136863904
 40
0.4181014278764829
 40
0.4181014278764829
 40
0.4181014278764829
 40
0.4181014278764829
 10
114.1739968267248
 20
-3.362600655299978
 30
0.0
 10
114.174903947964
 20
-3.380123083905663
 30
0.0
 10
114.1767235343532
 20
-3.415019170811365
 30
0.0
 10
114.1795210825256
 20
-3.467961704733779
 30
0.0
 10
114.1824378845949
 20
-3.522450806715635
 30
0.0
 10
114.1855524381085
 20
-3.579919675734714
 30
0.0
 10
114.1889277376791
 20
-3.641438701887447
 30
0.0
 10
114.1926569009285
 20
-3.708589377283096
 30
0.0
 10
114.1952873471009
 20
-3.755385962708731
 30
0.0
 10
114.1966836396247
 20
-3.780085732300014
 30
0.0
 11
114.1739968267248
 21
-3.362600655299978
 31
0.0
 11
114.1767367852247
 21
-3.415166983200058
 31
0.0
 11
114.1794903036247
 21
-3.467287102100008
 31
0.0
 11
114.1823880363247
 21
-3.521428328200008
 31
0.0
 11
114.1854886247247
 21
-3.57863420230003
 31
0.0
 11
114.1888389510247
 21
-3.639693409000038
 31
0.0
 11
114.1925202487248
 21
-3.705984998100027
 31
0.0
 11
114.1966836396247
 21
-3.780085732300014
 31
0.0
  0
SPLINE
  5
567BB
330
1F
100
AcDbEntity
  8
1
100
AcDbSpline
210
0.0
220
0.0
230
1.0
 70
     8
 71
     3
 72
    16
 73
    12
 74
    10
 42
0.0000000001
 43
0.0000000001
 44
0.000001
 12
0.0509680964853374
 22
-0.9987002819368088
 32
0.0
 13
0.0559064044531183
 23
-0.9984360139443712
 33
0.0
 40
0.0
 40
0.0
 40
0.0
 40
0.0
 40
0.0862878034082622
 40
0.1826332970574063
 40
0.2892888570443692
 40
0.3994272249935075
 40
0.5034473338800192
 40
0.6045638903265936
 40
0.7083092999935483
 40
0.8143287418592771
 40
0.9209133291018943
 40
0.9209133291018943
 40
0.9209133291018943
 40
0.9209133291018943
 10
114.1966836396247
 20
-3.780085732300014
 30
0.0
 10
114.1981496146545
 20
-3.808810950163861
 30
0.0
 10
114.2012659983187
 20
-3.869608902388507
 30
0.0
 10
114.2062644959827
 20
-3.965908888402604
 30
0.0
 10
114.2117154421064
 20
-4.070146271272124
 30
0.0
 10
114.2173579387479
 20
-4.176935324929951
 30
0.0
 10
114.2229634601734
 20
-4.281877405771603
 30
0.0
 10
114.2285252543839
 20
-4.384687774930104
 30
0.0
 10
114.2341833869111
 20
-4.488160330175665
 30
0.0
 10
114.2399883702448
 20
-4.593450244872517
 30
0.0
 10
114.2439312383437
 20
-4.664208490155269
 30
0.0
 10
114.2459174920247
 20
-4.699681120300077
 30
0.0
 11
114.1966836396247
 21
-3.780085732300014
 31
0.0
 11
114.2011041399247
 21
-3.866260231700003
 31
0.0
 11
114.2060932428247
 21
-3.962476461400021
 31
0.0
 11
114.2116652931247
 21
-4.068986371299978
 31
0.0
 11
114.2174754084248
 21
-4.178971386600004
 31
0.0
 11
114.2230260292247
 21
-4.282843292300093
 31
0.0
 11
114.2284866070247
 21
-4.383812298100018
 31
0.0
 11
114.2341488468246
 21
-4.487403078300096
 31
0.0
 11
114.2399882071247
 21
-4.593261584200056
 31
0.0
 11
114.2459174920247
 21
-4.699681120300077
 31
0.0
  0
SPLINE
  5
567BC
330
1F
100
AcDbEntity
  8
1
100
AcDbSpline
210
0.0
220
0.0
230
1.0
 70
     8
 71
     3
 72
    28
 73
    24
 74
    22
 42
0.0000000001
 43
0.0000000001
 44
0.000001
 12
0.0505037275180771
 22
-0.9987238725026951
 32
0.0
 13
0.0531323361641446
 23
-0.9985874798202411
 33
0.0
 40
0.0
 40
0.0
 40
0.0
 40
0.0
 40
0.0410107445533354
 40
0.082057594925446
 40
0.122998163117226
 40
0.1638820249867843
 40
0.2053937887705449
 40
0.2484375347210456
 40
0.2931084400105754
 40
0.338984821150768
 40
0.3861362564232923
 40
0.4339321108545777
 40
0.4795573267405099
 40
0.5247928896868405
 40
0.5722282028351505
 40
0.6190387387113519
 40
0.6650344570158319
 40
0.7106509715605977
 40
0.7550523293991475
 40
0.7977578114721837
 40
0.8393020143569502
 40
0.8801028348794822
 40
0.9200483445890043
 40
0.9200483445890043
 40
0.9200483445890043
 40
0.9200483445890043
 10
114.2459174920247
 20
-4.699681120300077
 30
0.0
 10
114.2466078905141
 20
-4.713333923504919
 30
0.0
 10
114.2479955291819
 20
-4.740651234512784
 30
0.0
 10
114.2500863339988
 20
-4.781597276776068
 30
0.0
 10
114.2521913859078
 20
-4.822500239623664
 30
0.0
 10
114.2543220554185
 20
-4.863557056435135
 30
0.0
 10
114.2565056818441
 20
-4.90531312384377
 30
0.0
 10
114.2587654462031
 20
-4.948329280547942
 30
0.0
 10
114.2611055750861
 20
-4.992798093680695
 30
0.0
 10
114.2635139506613
 20
-5.038634439875809
 30
0.0
 10
114.2659645600626
 20
-5.085511652460573
 30
0.0
 10
114.2683891152948
 20
-5.13230638847098
 30
0.0
 10
114.2707509942199
 20
-5.178464879416016
 30
0.0
 10
114.2731085257022
 20
-5.224503254315151
 30
0.0
 10
114.2755191089899
 20
-5.270934532884616
 30
0.0
 10
114.278009560388
 20
-5.317615361843813
 30
0.0
 10
114.2805658395813
 20
-5.363685458277685
 30
0.0
 10
114.2832005151738
 20
-5.408946794023476
 30
0.0
 10
114.2859319505814
 20
-5.453103579410305
 30
0.0
 10
114.2886568243201
 20
-5.495900599801601
 30
0.0
 10
114.2912778855215
 20
-5.537501616313148
 30
0.0
 10
114.2937407104354
 20
-5.578190774580334
 30
0.0
 10
114.2952259235413
 20
-5.605065343143059
 30
0.0
 10
114.2959333896247
 20
-5.618361705100048
 30
0.0
 11
114.2459174920247
 21
-4.699681120300077
 31
0.0
 11
114.2479957265248
 21
-4.740639181600066
 31
0.0
 11
114.2500898859248
 21
-4.781632576500007
 31
0.0
 11
114.2521942910248
 21
-4.8225190244
 31
0.0
 11
114.2543128984247
 21
-4.863347956400011
 31
0.0
 11
114.2564796259246
 21
-4.904803135100016
 31
0.0
 11
114.2587366330247
 21
-4.947787667000021
 31
0.0
 11
114.2610828669246
 21
-4.992396914300023
 31
0.0
 11
114.2634886558246
 21
-5.038210171000023
 31
0.0
 11
114.2659487357248
 21
-5.085297385900013
 31
0.0
 11
114.2684203297247
 21
-5.133029292100011
 31
0.0
 11
114.2707569304247
 21
-5.178594636100021
 31
0.0
 11
114.2730752279248
 21
-5.223770753900017
 31
0.0
 11
114.2755402686247
 21
-5.271141974000008
 31
0.0
 11
114.2780397692246
 21
-5.317885730500016
 31
0.0
 11
114.2805927084246
 21
-5.363810545400063
 31
0.0
 11
114.2832510081247
 21
-5.409349538200011
 31
0.0
 11
114.2859794427246
 21
-5.453666986500046
 31
0.0
 11
114.2886756528246
 21
-5.496287270499998
 31
0.0
 11
114.2912752628246
 21
-5.53775005779996
 31
0.0
 11
114.2937209497247
 21
-5.578477510600031
 31
0.0
 11
114.2959333896247
 21
-5.618361705100048
 31
0.0
  0
SPLINE
  5
567BD
330
1F
100
AcDbEntity
  8
1
100
AcDbSpline
210
0.0
220
0.0
230
1.0
 70
     8
 71
     3
 72
    35
 73
    31
 74
    29
 42
0.0000000001
 43
0.0000000001
 44
0.000001
 12
0.0474247764539818
 22
-0.9988748122654259
 32
0.0
 13
0.0007612412869908
 23
-0.9999997102558095
 33
0.0
 40
0.0
 40
0.0
 40
0.0
 40
0.0
 40
0.0260953297686269
 40
0.0525940039167128
 40
0.0782790358669114
 40
0.1022002538679549
 40
0.1240288035421311
 40
0.1438374634108355
 40
0.1618247354274959
 40
0.178426727184757
 40
0.1941817357515752
 40
0.2095837202217839
 40
0.2249195655485471
 40
0.2402270472552557
 40
0.2554624687291502
 40
0.2705472401957717
 40
0.2855310479076262
 40
0.300541402133909
 40
0.3155358590107898
 40
0.3304394175599649
 40
0.3456092452640523
 40
0.3617081238264821
 40
0.3793777420514322
 40
0.3991599845524352
 40
0.4213024024095086
 40
0.4459787087166815
 40
0.4733601381257972
 40
0.5036033486802716
 40
0.5368637897841634
 40
0.5732971077106561
 40
0.5732971077106561
 40
0.5732971077106561
 40
0.5732971077106561
 10
114.2959333896247
 20
-5.618361705100048
 30
0.0
 10
114.2963459113516
 20
-5.627050360974595
 30
0.0
 10
114.2971325119517
 20
-5.644564114589368
 30
0.0
 10
114.2981847771808
 20
-5.670636005273857
 30
0.0
 10
114.2990646641037
 20
-5.695989205049581
 30
0.0
 10
114.2997473909433
 20
-5.719791154459977
 30
0.0
 10
114.3002513168328
 20
-5.741638251156177
 30
0.0
 10
114.3006149506905
 20
-5.761509814685318
 30
0.0
 10
114.3008728691486
 20
-5.779640664463608
 30
0.0
 10
114.3010512076679
 20
-5.796421174794051
 30
0.0
 10
114.3011666157253
 20
-5.812340444321463
 30
0.0
 10
114.3012323338927
 20
-5.827837941412676
 30
0.0
 10
114.301251090686
 20
-5.843186386932617
 30
0.0
 10
114.3012346676435
 20
-5.858479301220231
 30
0.0
 10
114.3012019911512
 20
-5.873688490775808
 30
0.0
 10
114.3011720568036
 20
-5.888789795686564
 30
0.0
 10
114.3011553748915
 20
-5.903816098991593
 30
0.0
 10
114.3011449282604
 20
-5.918812301596377
 30
0.0
 10
114.3011367781874
 20
-5.933781755984506
 30
0.0
 10
114.3011263265485
 20
-5.948804366759725
 30
0.0
 10
114.3011147252957
 20
-5.964195117317776
 30
0.0
 10
114.3011027942663
 20
-5.980507887805736
 30
0.0
 10
114.3010921794821
 20
-5.998358131148048
 30
0.0
 10
114.3010832271691
 20
-6.018222888716469
 30
0.0
 10
114.3010758630842
 20
-6.040423209757815
 30
0.0
 10
114.3010704151525
 20
-6.065156593756837
 30
0.0
 10
114.3010687498905
 20
-6.092590242594061
 30
0.0
 10
114.3010727364001
 20
-6.122885269631761
 30
0.0
 10
114.3010851251431
 20
-6.156197590705644
 30
0.0
 10
114.3010982256761
 20
-6.179428840409986
 30
0.0
 10
114.3011074705247
 20
-6.191573276200037
 30
0.0
 11
114.2959333896247
 21
-5.618361705100048
 31
0.0
 11
114.2971078808246
 21
-5.644430684999996
 31
0.0
 11
114.2981714028248
 21
-5.670908009100023
 31
0.0
 11
114.2990594006246
 21
-5.696577703400031
 31
0.0
 11
114.2997449882246
 21
-5.720489129800021
 31
0.0
 11
114.3002496562248
 21
-5.74231191460003
 31
0.0
 11
114.3006129021246
 21
-5.762117424400023
 31
0.0
 11
114.3008683139248
 21
-5.780103512999992
 31
0.0
 11
114.3010437059247
 21
-5.796703983700034
 31
0.0
 11
114.3011585026247
 21
-5.812458380100017
 31
0.0
 11
114.3012236728248
 21
-5.827860152900051
 31
0.0
 11
114.3012442339247
 21
-5.843195944900023
 31
0.0
 11
114.3012308972246
 21
-5.858503397200044
 31
0.0
 11
114.3012013097248
 21
-5.873738775599996
 31
0.0
 11
114.3011731916247
 21
-5.888823512300027
 31
0.0
 11
114.3011554180248
 21
-5.903807304400025
 31
0.0
 11
114.3011443067246
 21
-5.918817651200035
 31
0.0
 11
114.3011353836246
 21
-5.933812103000001
 31
0.0
 11
114.3011252464247
 21
-5.948715656100056
 31
0.0
 11
114.3011140146247
 21
-5.963885477900042
 31
0.0
 11
114.3011025279246
 21
-5.979984350800029
 31
0.0
 11
114.3010919992246
 21
-5.99765396450001
 31
0.0
 11
114.3010829526247
 21
-6.017436203700035
 31
0.0
 11
114.3010755330247
 21
-6.03957861920005
 31
0.0
 11
114.3010702366247
 21
-6.064254923899986
 31
0.0
 11
114.3010686424247
 21
-6.091636352300063
 31
0.0
 11
114.3010727584246
 21
-6.121879561700004
 31
0.0
 11
114.3010847484246
 21
-6.155139999800006
 31
0.0
 11
114.3011074705247
 21
-6.191573276200037
 31
0.0
  0
SPLINE
  5
567BE
330
1F
100
AcDbEntity
  8
1
100
AcDbSpline
210
0.0
220
0.0
230
1.0
 70
     8
 71
     3
 72
    22
 73
    18
 74
    16
 42
0.0000000001
 43
0.0000000001
 44
0.000001
 12
-0.2385506103747538
 22
-0.9711300666181809
 32
0.0
 13
-0.3859688847139342
 23
-0.9225117994002472
 33
0.0
 40
0.0
 40
0.0
 40
0.0
 40
0.0
 40
0.0156126310393545
 40
0.0312270083673187
 40
0.0468433856758215
 40
0.0624618710955613
 40
0.078083061847079
 40
0.0937064238684146
 40
0.1093324591616649
 40
0.1249607215596032
 40
0.1405910201612313
 40
0.1562235780424727
 40
0.1718579267886689
 40
0.1874945227274829
 40
0.2031328917611471
 40
0.2187731165665626
 40
0.2344150361946768
 40
0.2344150361946768
 40
0.2344150361946768
 40
0.2344150361946768
 10
114.2585405918246
 20
-6.631004918600091
 30
0.0
 10
114.2572991242699
 20
-6.636058883740535
 30
0.0
 10
114.2547635157896
 20
-6.646154557653083
 30
0.0
 10
114.2508029375402
 20
-6.661258649151442
 30
0.0
 10
114.2466852902234
 20
-6.676322717375851
 30
0.0
 10
114.2424118499359
 20
-6.691345689020961
 30
0.0
 10
114.2379820817266
 20
-6.706325741155703
 30
0.0
 10
114.2333966386368
 20
-6.721261507077969
 30
0.0
 10
114.2286559635266
 20
-6.736151203972085
 30
0.0
 10
114.2237605430249
 20
-6.750993177975259
 30
0.0
 10
114.2187109319793
 20
-6.765785700657992
 30
0.0
 10
114.2135077095703
 20
-6.780527043513401
 30
0.0
 10
114.2081514071725
 20
-6.795215692374026
 30
0.0
 10
114.2026425415909
 20
-6.809849873273588
 30
0.0
 10
114.1969823964331
 20
-6.8244283171868
 30
0.0
 10
114.1911707093814
 20
-6.838948909282261
 30
0.0
 10
114.1871959195492
 20
-6.848589237792615
 30
0.0
 10
114.1851834881246
 20
-6.853399189600017
 30
0.0
 11
114.2585405918246
 21
-6.631004918600091
 31
0.0
 11
114.2547376471247
 21
-6.646147382400008
 31
0.0
 11
114.2507775026247
 21
-6.661251302300023
 31
0.0
 11
114.2466605088247
 21
-6.676315275700027
 31
0.0
 11
114.2423870614247
 21
-6.691337718600059
 31
0.0
 11
114.2379573802248
 21
-6.706317670200028
 31
0.0
 11
114.2333720698247
 21
-6.721252995400071
 31
0.0
 11
114.2286314447248
 21
-6.736142558300023
 31
0.0
 11
114.2237361046248
 21
-6.750984319700044
 31
0.0
 11
114.2186866212248
 21
-6.765776498800073
 31
0.0
 11
114.2134834549247
 21
-6.780517714100048
 31
0.0
 11
114.2081272989247
 21
-6.795205931900022
 31
0.0
 11
114.2026185525248
 21
-6.809839995300102
 31
0.0
 11
114.1969579465248
 21
-6.824417928300043
 31
0.0
 11
114.1911460398246
 21
-6.838938230400025
 31
0.0
 11
114.1851834881246
 21
-6.853399189600017
 31
0.0
  0
SPLINE
  5
567BF
330
1F
100
AcDbEntity
  8
1
100
AcDbSpline
210
0.0
220
0.0
230
1.0
 70
     8
 71
     3
 72
    22
 73
    18
 74
    16
 42
0.0000000001
 43
0.0000000001
 44
0.000001
 12
-0.3864738152804861
 22
-0.9223003795415811
 32
0.0
 13
-0.5232831335584509
 23
-0.852158883151052
 33
0.0
 40
0.0
 40
0.0
 40
0.0
 40
0.0
 40
0.0156282709887183
 40
0.0312585495536473
 40
0.0468905495140716
 40
0.0625240815333537
 40
0.0781595048255917
 40
0.0937964937695018
 40
0.1094356825763893
 40
0.1250767554084132
 40
0.1407197442978971
 40
0.1563646634358148
 40
0.1720106742178817
 40
0.1876583218735034
 40
0.2033069156678055
 40
0.2189570001570354
 40
0.2346086508002855
 40
0.2346086508002855
 40
0.2346086508002855
 40
0.2346086508002855
 10
114.1851834881246
 20
-6.853399189600017
 30
0.0
 10
114.1831701822862
 20
-6.858203843021508
 30
0.0
 10
114.1790938222204
 20
-6.867793115012435
 30
0.0
 10
114.1728314322258
 20
-6.882114193993099
 30
0.0
 10
114.1664213220263
 20
-6.896371704270165
 30
0.0
 10
114.1598651728598
 20
-6.910564536490173
 30
0.0
 10
114.1531627972415
 20
-6.924690747813455
 30
0.0
 10
114.1463150159825
 20
-6.938749143864867
 30
0.0
 10
114.1393224650978
 20
-6.952738202282644
 30
0.0
 10
114.1321858446378
 20
-6.966656561471412
 30
0.0
 10
114.1249059243662
 20
-6.980502665598713
 30
0.0
 10
114.1174835521993
 20
-6.994274801044564
 30
0.0
 10
114.1099196026058
 20
-7.007971465488579
 30
0.0
 10
114.1022148945106
 20
-7.021590850606106
 30
0.0
 10
114.0943708959222
 20
-7.035132066001697
 30
0.0
 10
114.086387576186
 20
-7.048593148169925
 30
0.0
 10
114.0809733000226
 20
-7.057512601389481
 30
0.0
 10
114.0782432184246
 20
-7.061958499100022
 30
0.0
 11
114.1851834881246
 21
-6.853399189600017
 31
0.0
 11
114.1790696226247
 21
-6.867782020200046
 31
0.0
 11
114.1728075820247
 21
-6.882103150899999
 31
0.0
 11
114.1663981173248
 21
-6.896360786900025
 31
0.0
 11
114.1598420122247
 21
-6.910553175300058
 31
0.0
 11
114.1531397624246
 21
-6.924679238799987
 31
0.0
 11
114.1462921965248
 21
-6.938737182800045
 31
0.0
 11
114.1392997397247
 21
-6.952726084800039
 31
0.0
 11
114.1321632608247
 21
-6.966644182499997
 31
0.0
 11
114.1248834786247
 21
-6.98049002870001
 31
0.0
 11
114.1174611272247
 21
-6.994262163400001
 31
0.0
 11
114.1098973923247
 21
-7.007958399200012
 31
0.0
 11
114.1021928112248
 21
-7.021577771200008
 31
0.0
 11
114.0943485058248
 21
-7.035118278100036
 31
0.0
 11
114.0863650396247
 21
-7.048578967800061
 31
0.0
 11
114.0782432184246
 21
-7.061958499100022
 31
0.0
  0
SPLINE
  5
567C0
330
1F
100
AcDbEntity
  8
1
100
AcDbSpline
210
0.0
220
0.0
230
1.0
 70
     8
 71
     3
 72
    17
 73
    13
 74
     0
 42
0.0000000001
 43
0.0000000001
 40
0.2768329774264162
 40
0.2768329774264162
 40
0.2768329774264162
 40
0.2768329774264162
 40
0.2988332328437515
 40
0.3278172602260509
 40
0.3604982304821973
 40
0.3964265387702226
 40
0.4360642078081826
 40
0.4801783292276645
 40
0.5293082896641599
 40
0.5836661663116423
 40
0.6434162935871252
 40
0.7093974416473277
 40
0.7093974416473277
 40
0.7093974416473277
 40
0.7093974416473277
 10
110.524634445788
 20
-7.852626218353825
 30
0.0
 10
110.517302890943
 20
-7.852460121003693
 30
0.0
 10
110.5003125691803
 20
-7.852073685843627
 30
0.0
 10
110.4724314590194
 20
-7.851434283598584
 30
0.0
 10
110.4399090707618
 20
-7.850681705576525
 30
0.0
 10
110.4038365746238
 20
-7.849839845726953
 30
0.0
 10
110.3639542346844
 20
-7.848901983372647
 30
0.0
 10
110.3196727015221
 20
-7.847854639137516
 30
0.0
 10
110.2704859357005
 20
-7.846685745168962
 30
0.0
 10
110.2160888330075
 20
-7.845384880533308
 30
0.0
 10
110.1560765329121
 20
-7.843938904425407
 30
0.0
 10
110.1141785037611
 20
-7.842919626200987
 30
0.0
 10
110.0921913555247
 20
-7.842382172200039
 30
0.0
  0
SPLINE
  5
567C1
330
1F
100
AcDbEntity
  8
1
100
AcDbSpline
210
0.0
220
0.0
230
1.0
 70
     8
 71
     3
 72
    19
 73
    15
 74
    13
 42
0.0000000001
 43
0.0000000001
 44
0.000001
 12
-0.9996937396554852
 22
0.024747260325758
 32
0.0
 13
-0.9996381366560974
 23
0.0268997349935865
 33
0.0
 40
0.0
 40
0.0
 40
0.0
 40
0.0
 40
0.0348316181519059
 40
0.0695626631686215
 40
0.1050327814923038
 40
0.1426425064885551
 40
0.1837334992602985
 40
0.2293517104614335
 40
0.2797778515912532
 40
0.3351552321958529
 40
0.3959689760053972
 40
0.4630690579314633
 40
0.5369143094375337
 40
0.6186820482569254
 40
0.6186820482569254
 40
0.6186820482569254
 40
0.6186820482569254
 10
110.0921913555247
 20
-7.842382172200039
 30
0.0
 10
110.0805843719885
 20
-7.842094843159381
 30
0.0
 10
110.0574039596359
 20
-7.841519372977469
 30
0.0
 10
110.022403937618
 20
-7.840645595544593
 30
0.0
 10
109.9864782924174
 20
-7.839743753608512
 30
0.0
 10
109.9484334686213
 20
-7.838783293454373
 30
0.0
 10
109.9070071895894
 20
-7.837730948295304
 30
0.0
 10
109.8613103266676
 20
-7.836563162842957
 30
0.0
 10
109.810853109529
 20
-7.835265104472592
 30
0.0
 10
109.7553326588911
 20
-7.833826371062772
 30
0.0
 10
109.6942564173104
 20
-7.832231196732194
 30
0.0
 10
109.6270266887369
 20
-7.830461128857693
 30
0.0
 10
109.5528151563231
 20
-7.828490525528353
 30
0.0
 10
109.5009627644486
 20
-7.827101343535145
 30
0.0
 10
109.4737167144246
 20
-7.826368166700056
 30
0.0
 11
110.0921913555247
 21
-7.842382172200039
 31
0.0
 11
110.0573704671248
 21
-7.841517661300052
 31
0.0
 11
110.0226502455247
 21
-7.840650620900043
 31
0.0
 11
109.9871913057248
 21
-7.83976013580004
 31
0.0
 11
109.9495935671247
 21
-7.838810638000004
 31
0.0
 11
109.9085158222247
 21
-7.837767283900027
 31
0.0
 11
109.8629124991246
 21
-7.836601872400045
 31
0.0
 11
109.8125030349246
 21
-7.835305047200017
 31
0.0
 11
109.7571442337247
 21
-7.833870646300018
 31
0.0
 11
109.6963512118247
 21
-7.832283269500031
 31
0.0
 11
109.6292743704248
 21
-7.830517475700012
 31
0.0
 11
109.5554551346247
 21
-7.828557581000005
 31
0.0
 11
109.4737167144246
 21
-7.826368166700056
 31
0.0
  0
SPLINE
  5
567C2
330
1F
100
AcDbEntity
  8
1
100
AcDbSpline
210
0.0
220
0.0
230
1.0
 70
     8
 71
     3
 72
    12
 73
     8
 74
     6
 42
0.0000000001
 43
0.0000000001
 44
0.000001
 12
-0.9996237013446114
 22
0.0274309261618902
 32
0.0
 13
-0.9995695808467337
 23
0.0293368888242354
 33
0.0
 40
0.0
 40
0.0
 40
0.0
 40
0.0
 40
0.1235159403793571
 40
0.247168451173144
 40
0.3709516889315387
 40
0.494859202390238
 40
0.6188876376864343
 40
0.6188876376864343
 40
0.6188876376864343
 40
0.6188876376864343
 10
109.4737167144246
 20
-7.826368166700056
 30
0.0
 10
109.4325602272589
 20
-7.825238781153269
 30
0.0
 10
109.3502022433013
 20
-7.822960623419758
 30
0.0
 10
109.2266003923916
 20
-7.819490038244238
 30
0.0
 10
109.1028694444242
 20
-7.815967133183421
 30
0.0
 10
108.979014551499
 20
-7.812394883148616
 30
0.0
 10
108.896404416352
 20
-7.809983624772438
 30
0.0
 10
108.8550793993246
 20
-7.808770755299994
 30
0.0
 11
109.4737167144246
 21
-7.826368166700056
 31
0.0
 11
109.3502479695246
 21
-7.822953892400014
 31
0.0
 11
109.2266441644248
 21
-7.819483521599996
 31
0.0
 11
109.1029110733248
 21
-7.815960451900045
 31
0.0
 11
108.9790550633247
 21
-7.812388350100056
 31
0.0
 11
108.8550793993246
 21
-7.808770755299994
 31
0.0
  0
SPLINE
  5
567C3
330
1F
100
AcDbEntity
  8
1
100
AcDbSpline
210
0.0
220
0.0
230
1.0
 70
     8
 71
     3
 72
    11
 73
     7
 74
     5
 42
0.0000000001
 43
0.0000000001
 44
0.000001
 12
-0.9995471848184536
 22
0.0300902861652148
 32
0.0
 13
-0.9994959083701687
 23
0.0317478999508855
 33
0.0
 40
0.0
 40
0.0
 40
0.0
 40
0.0
 40
0.1544496945575589
 40
0.3091061196496745
 40
0.4639597581267337
 40
0.6190098954842162
 40
0.6190098954842162
 40
0.6190098954842162
 40
0.6190098954842162
 10
108.8550793993246
 20
-7.808770755299994
 30
0.0
 10
108.8036194801943
 20
-7.807221610130872
 30
0.0
 10
108.7006315043543
 20
-7.804096569659261
 30
0.0
 10
108.5460515197717
 20
-7.799336490987441
 30
0.0
 10
108.3912734658187
 20
-7.794506291671814
 30
0.0
 10
108.2880237011851
 20
-7.791244898349401
 30
0.0
 10
108.2363663752247
 20
-7.789604059600002
 30
0.0
 11
108.8550793993246
 21
-7.808770755299994
 31
0.0
 11
108.7007007162247
 21
-7.804087670100009
 31
0.0
 11
108.5461175836246
 21
-7.79932687500004
 31
0.0
 11
108.3913392705247
 21
-7.794497544500038
 31
0.0
 11
108.2363663752247
 21
-7.789604059600002
 31
0.0
  0
SPLINE
  5
567C4
330
1F
100
AcDbEntity
  8
1
100
AcDbSpline
210
0.0
220
0.0
230
1.0
 70
     8
 71
     3
 72
    11
 73
     7
 74
     5
 42
0.0000000001
 43
0.0000000001
 44
0.000001
 12
-0.9994644399647436
 22
0.0327235885251255
 32
0.0
 13
-0.9994178676848633
 23
0.0341163560809342
 33
0.0
 40
0.0
 40
0.0
 40
0.0
 40
0.0
 40
0.1545120204157999
 40
0.3092312184098727
 40
0.4641407646729615
 40
0.619240171564033
 40
0.619240171564033
 40
0.619240171564033
 40
0.619240171564033
 10
108.2363663752247
 20
-7.789604059600002
 30
0.0
 10
108.1848899519072
 20
-7.787918663673911
 30
0.0
 10
108.0818687974256
 20
-7.784523759888642
 30
0.0
 10
107.9272411396875
 20
-7.779367902636431
 30
0.0
 10
107.7724195973347
 20
-7.774151770475763
 30
0.0
 10
107.6691429590961
 20
-7.770640232664566
 30
0.0
 10
107.6174732529247
 20
-7.768876423800088
 30
0.0
 11
108.2363663752247
 21
-7.789604059600002
 31
0.0
 11
108.0819381160246
 21
-7.784517007800013
 31
0.0
 11
107.9273048424246
 21
-7.779361283600017
 31
0.0
 11
107.7724831494247
 21
-7.774144943400036
 31
0.0
 11
107.6174732529247
 21
-7.768876423800088
 31
0.0
  0
SPLINE
  5
567C5
330
1F
100
AcDbEntity
  8
1
100
AcDbSpline
210
0.0
220
0.0
230
1.0
 70
     8
 71
     3
 72
    47
 73
    43
 74
    41
 42
0.0000000001
 43
0.0000000001
 44
0.000001
 12
0.9938704363684697
 22
0.1105511452348986
 32
0.0
 13
0.9878540558885001
 23
0.1553845689399049
 33
0.0
 40
0.0
 40
0.0
 40
0.0
 40
0.0
 40
0.0034137422229036
 40
0.0068004704745858
 40
0.01016127760189
 40
0.0134977223261234
 40
0.0168118649223279
 40
0.0201051542350248
 40
0.0233792265680151
 40
0.0266360128621846
 40
0.0298765514622292
 40
0.0331019647612634
 40
0.0363138990156862
 40
0.0395137885102501
 40
0.04270348753269
 40
0.0458854769558053
 40
0.0490618689046506
 40
0.0522334178426588
 40
0.0553994025087569
 40
0.058559524126108
 40
0.0617141239767473
 40
0.0648627450009038
 40
0.0680040603422536
 40
0.0711373398002048
 40
0.0742633068664349
 40
0.077382545292391
 40
0.080495169388788
 40
0.0836018248165169
 40
0.0867044247549811
 40
0.0898042051213872
 40
0.0929021107666645
 40
0.0959997109633327
 40
0.0990990999935095
 40
0.102201017044214
 40
0.1053063432189671
 40
0.1084167858899746
 40
0.1115337420176212
 40
0.1146575982338746
 40
0.1177890985930346
 40
0.1209301691290144
 40
0.1240823673998461
 40
0.1272475593013989
 40
0.1272475593013989
 40
0.1272475593013989
 40
0.1272475593013989
 10
112.9261202679247
 20
-7.833000075300012
 30
0.0
 10
112.9272512070823
 20
-7.832874277595919
 30
0.0
 10
112.9295039683516
 20
-7.83262216842942
 30
0.0
 10
112.9328695457013
 20
-7.832240997532815
 30
0.0
 10
112.9362090222406
 20
-7.831858348722862
 30
0.0
 10
112.9395239662803
 20
-7.831474163005342
 30
0.0
 10
112.9428160632652
 20
-7.831088357526349
 30
0.0
 10
112.9460870234178
 20
-7.830700836254812
 30
0.0
 10
112.9493385132995
 20
-7.830311498578217
 30
0.0
 10
112.9525720627425
 20
-7.829920250719845
 30
0.0
 10
112.9557890307564
 20
-7.829527011191909
 30
0.0
 10
112.9589906815148
 20
-7.829131702921568
 30
0.0
 10
112.9621784095011
 20
-7.828734225492921
 30
0.0
 10
112.9653538504794
 20
-7.828334440269852
 30
0.0
 10
112.9685189154123
 20
-7.827932165866845
 30
0.0
 10
112.9716757379491
 20
-7.827527179761889
 30
0.0
 10
112.9748260882147
 20
-7.827119305686639
 30
0.0
 10
112.9779706723299
 20
-7.826708461467484
 30
0.0
 10
112.9811094037153
 20
-7.826294700724647
 30
0.0
 10
112.9842420633717
 20
-7.825878124949213
 30
0.0
 10
112.9873685140905
 20
-7.825458781272677
 30
0.0
 10
112.9904882807612
 20
-7.825036774863608
 30
0.0
 10
112.993600534317
 20
-7.82461225774098
 30
0.0
 10
112.9967048361883
 20
-7.824185332290851
 30
0.0
 10
112.9998013792627
 20
-7.823756017110088
 30
0.0
 10
113.0028906335578
 20
-7.823324278927003
 30
0.0
 10
113.0059730389388
 20
-7.822890056084622
 30
0.0
 10
113.009049486042
 20
-7.822453309436103
 30
0.0
 10
113.0121212265864
 20
-7.822013881862332
 30
0.0
 10
113.0151896125195
 20
-7.821571612354242
 30
0.0
 10
113.0182558810141
 20
-7.821126346487899
 30
0.0
 10
113.0213215518133
 20
-7.820677884284253
 30
0.0
 10
113.0243880758744
 20
-7.820226028747729
 30
0.0
 10
113.0274566764296
 20
-7.819770610669692
 30
0.0
 10
113.0305284485154
 20
-7.819311475305449
 30
0.0
 10
113.0336047033262
 20
-7.81884843065224
 30
0.0
 10
113.0366865882892
 20
-7.818381303901482
 30
0.0
 10
113.0397749327695
 20
-7.81790996640802
 30
0.0
 10
113.0428707400024
 20
-7.817434259794962
 30
0.0
 10
113.0459753983151
 20
-7.816953961784791
 30
0.0
 10
113.0490906645806
 20
-7.81646878679385
 30
0.0
 10
113.0511710496056
 20
-7.816142627659749
 30
0.0
 10
113.0522132988247
 20
-7.815978687000003
 30
0.0
 11
112.9261202679247
 21
-7.833000075300012
 31
0.0
 11
112.9295128367247
 21
-7.832620409300054
 31
0.0
 11
112.9328780616246
 21
-7.832239256400065
 31
0.0
 11
112.9362170358247
 21
-7.831856625300041
 31
0.0
 11
112.9395313149246
 21
-7.831472463000088
 31
0.0
 11
112.9428229519247
 21
-7.831086647300048
 31
0.0
 11
112.9460933917246
 21
-7.8306991162
 31
0.0
 11
112.9493442647247
 21
-7.83030977650005
 31
0.0
 11
112.9525774930247
 21
-7.829918489600025
 31
0.0
 11
112.9557941118247
 21
-7.829525214900022
 31
0.0
 11
112.9589952393246
 21
-7.829129895400022
 31
0.0
 11
112.9621825130247
 21
-7.828732402399985
 31
0.0
 11
112.9653573593247
 21
-7.828332625100094
 31
0.0
 11
112.9685216205247
 21
-7.827930391700099
 31
0.0
 11
112.9716777594248
 21
-7.827525441000054
 31
0.0
 11
112.9748278718247
 21
-7.827117547400027
 31
0.0
 11
112.9779726991247
 21
-7.826706652700032
 31
0.0
 11
112.9811115284246
 21
-7.826292887399992
 31
0.0
 11
112.9842440736247
 21
-7.825876327900025
 31
0.0
 11
112.9873706739246
 21
-7.825456967200032
 31
0.0
 11
112.9904908774246
 21
-7.825034904100014
 31
0.0
 11
112.9936033706246
 21
-7.824610356700097
 31
0.0
 11
112.9967074320248
 21
-7.824183467100076
 31
0.0
 11
112.9998037804247
 21
-7.823754179700037
 31
0.0
 11
113.0028929908247
 21
-7.82332245540001
 31
0.0
 11
113.0059751702247
 21
-7.822888318600027
 31
0.0
 11
113.0090509697246
 21
-7.822451715200052
 31
0.0
 11
113.0121222849246
 21
-7.822012408999987
 31
0.0
 11
113.0151903401247
 21
-7.821570252700006
 31
0.0
 11
113.0182560709246
 21
-7.821125135400071
 31
0.0
 11
113.0213210302247
 21
-7.820676851300014
 31
0.0
 11
113.0243872894246
 21
-7.820225111200008
 31
0.0
 11
113.0274555784247
 21
-7.819769816700008
 31
0.0
 11
113.0305267671247
 21
-7.819310845400102
 31
0.0
 11
113.0336025419248
 21
-7.818847947600054
 31
0.0
 11
113.0366842814248
 21
-7.818380913600002
 31
0.0
 11
113.0397723647247
 21
-7.817909680700005
 31
0.0
 11
113.0428675240247
 21
-7.817434130300076
 31
0.0
 11
113.0459716591247
 21
-7.816953959500003
 31
0.0
 11
113.0490863046247
 21
-7.816468914400012
 31
0.0
 11
113.0522132988247
 21
-7.815978687000003
 31
0.0
  0
SPLINE
  5
567C6
330
1F
100
AcDbEntity
  8
1
100
AcDbSpline
210
0.0
220
0.0
230
1.0
 70
     8
 71
     3
 72
    42
 73
    38
 74
    36
 42
0.0000000001
 43
0.0000000001
 44
0.000001
 12
0.9808694813145095
 22
0.1946665369954609
 32
0.0
 13
0.9732282848903928
 23
0.2298406088777706
 33
0.0
 40
0.0
 40
0.0
 40
0.0
 40
0.0
 40
0.0033240049173683
 40
0.0066264172685771
 40
0.0099093069915611
 40
0.0131739990224046
 40
0.0164213743237696
 40
0.0196524636878496
 40
0.0228694000375443
 40
0.0260738445045959
 40
0.0292678149405443
 40
0.0324527360721554
 40
0.0356301599480208
 40
0.0388007723572798
 40
0.0419648676082668
 40
0.0451208979567253
 40
0.0482668334225135
 40
0.051401810073135
 40
0.0545253644390343
 40
0.0576386792847748
 40
0.0607434683604391
 40
0.0638416392906054
 40
0.0669339196413912
 40
0.0700208185704901
 40
0.0731037874514627
 40
0.0761841693987702
 40
0.0792637708534924
 40
0.0823443095336863
 40
0.0854277721714465
 40
0.0885153040634501
 40
0.0916072483548524
 40
0.0947042195099806
 40
0.0978079938216858
 40
0.1009200746992678
 40
0.104041199579233
 40
0.1071727357933115
 40
0.1103166515749242
 40
0.1103166515749242
 40
0.1103166515749242
 40
0.1103166515749242
 10
113.0522132988247
 20
-7.815978687000003
 30
0.0
 10
113.0533001038178
 20
-7.81576299615793
 30
0.0
 10
113.0554664044114
 20
-7.815331757015359
 30
0.0
 10
113.058705197348
 20
-7.814683135504559
 30
0.0
 10
113.0619238661329
 20
-7.814034721417685
 30
0.0
 10
113.0651238194947
 20
-7.813386312219694
 30
0.0
 10
113.0683061256449
 20
-7.812737767707135
 30
0.0
 10
113.0714721157078
 20
-7.812088888213988
 30
0.0
 10
113.0746233742909
 20
-7.811439414756566
 30
0.0
 10
113.0777618067158
 20
-7.810789013739455
 30
0.0
 10
113.0808890855472
 20
-7.8101373910478
 30
0.0
 10
113.0840068462953
 20
-7.809484252379373
 30
0.0
 10
113.0871162885948
 20
-7.808829387784239
 30
0.0
 10
113.0902182424366
 20
-7.80817266008707
 30
0.0
 10
113.0933125265589
 20
-7.807514143815817
 30
0.0
 10
113.0963980747718
 20
-7.806854103854494
 30
0.0
 10
113.099473444577
 20
-7.806192891155022
 30
0.0
 10
113.1025375480647
 20
-7.805530785974091
 30
0.0
 10
113.1055903447509
 20
-7.804867844969647
 30
0.0
 10
113.1086326336006
 20
-7.804203940986178
 30
0.0
 10
113.1116659847847
 20
-7.803538773351736
 30
0.0
 10
113.1146918188949
 20
-7.802872067218258
 30
0.0
 10
113.1177111632936
 20
-7.802203628740909
 30
0.0
 10
113.1207248961096
 20
-7.801533293236117
 30
0.0
 10
113.1237340949601
 20
-7.800860847556636
 30
0.0
 10
113.1267402584131
 20
-7.800185979183186
 30
0.0
 10
113.1297449703515
 20
-7.79950835006902
 30
0.0
 10
113.1327500225074
 20
-7.798827568411443
 30
0.0
 10
113.1357569901782
 20
-7.798143284328443
 30
0.0
 10
113.1387670006449
 20
-7.797455244018085
 30
0.0
 10
113.1417807344887
 20
-7.796763292130894
 30
0.0
 10
113.144799076717
 20
-7.796067223706982
 30
0.0
 10
113.1478232882986
 20
-7.795366742924942
 30
0.0
 10
113.150854668952
 20
-7.794661539614518
 30
0.0
 10
113.1538943845714
 20
-7.793951329953448
 30
0.0
 10
113.1569437508549
 20
-7.793235790533379
 30
0.0
 10
113.1589797959034
 20
-7.792755976105858
 30
0.0
 10
113.1599997118247
 20
-7.792515109600023
 30
0.0
 11
113.0522132988247
 21
-7.815978687000003
 31
0.0
 11
113.0554733401248
 21
-7.815329722400028
 31
0.0
 11
113.0587114601246
 21
-7.814681226900026
 31
0.0
 11
113.0619297007247
 21
-7.814032881699992
 31
0.0
 11
113.0651293719246
 21
-7.813384505800021
 31
0.0
 11
113.0683113476247
 21
-7.812736000200025
 31
0.0
 11
113.0714766477247
 21
-7.812087230700079
 31
0.0
 11
113.0746273706247
 21
-7.811437834800036
 31
0.0
 11
113.0777651509247
 21
-7.81078753580001
 31
0.0
 11
113.0808919710248
 21
-7.810135976399997
 31
0.0
 11
113.0840092311247
 21
-7.809482912000043
 31
0.0
 11
113.0871184548248
 21
-7.808828065300041
 31
0.0
 11
113.0902203170246
 21
-7.808171331900005
 31
0.0
 11
113.0933151092247
 21
-7.807512685900027
 31
0.0
 11
113.0964013216246
 21
-7.806852486100089
 31
0.0
 11
113.0994769745247
 21
-7.806191199299994
 31
0.0
 11
113.1025412296246
 21
-7.805529053000007
 31
0.0
 11
113.1055936407247
 21
-7.804866192500034
 31
0.0
 11
113.1086353702247
 21
-7.804202412400022
 31
0.0
 11
113.1116680982246
 21
-7.803537388500012
 31
0.0
 11
113.1146936926246
 21
-7.802870747300026
 31
0.0
 11
113.1177128677248
 21
-7.802202363300033
 31
0.0
 11
113.1207261240247
 21
-7.801532155200014
 31
0.0
 11
113.1237348811246
 21
-7.800859833800039
 31
0.0
 11
113.1267404517247
 21
-7.800185127500093
 31
0.0
 11
113.1297445994246
 21
-7.799507657599995
 31
0.0
 11
113.1327489997246
 21
-7.79882705770003
 31
0.0
 11
113.1357555890247
 21
-7.798142895200007
 31
0.0
 11
113.1387654818247
 21
-7.797454917600043
 31
0.0
 11
113.1417790100247
 21
-7.796763048199997
 31
0.0
 11
113.1447967696248
 21
-7.796067147899996
 31
0.0
 11
113.1478204879247
 21
-7.795366812800032
 31
0.0
 11
113.1508516249247
 21
-7.794661694100021
 31
0.0
 11
113.1538908936247
 21
-7.79395161230004
 31
0.0
 11
113.1569396195247
 21
-7.793236240700045
 31
0.0
 11
113.1599997118247
 21
-7.792515109600023
 31
0.0
  0
SPLINE
  5
567C7
330
1F
100
AcDbEntity
  8
1
100
AcDbSpline
210
0.0
220
0.0
230
1.0
 70
     8
 71
     3
 72
    42
 73
    38
 74
    36
 42
0.0000000001
 43
0.0000000001
 44
0.000001
 12
0.9627931290669417
 22
0.2702395060339757
 32
0.0
 13
0.952903535873035
 23
0.3032735585583877
 33
0.0
 40
0.0
 40
0.0
 40
0.0
 40
0.0
 40
0.0033444448501101
 40
0.0066651488321249
 40
0.0099639837966531
 40
0.013243146158415
 40
0.0165039742852668
 40
0.0197475292334366
 40
0.0229757744476704
 40
0.0261907997333696
 40
0.0293937006344382
 40
0.0325856239797948
 40
0.0357681772453004
 40
0.0389421957383377
 40
0.0421073364908212
 40
0.0452635776426146
 40
0.0484101802543919
 40
0.0515455632050743
 40
0.0546695158526923
 40
0.057782766888666
 40
0.060885835777702
 40
0.0639800554582078
 40
0.0670670898556678
 40
0.0701485471004089
 40
0.0732260339166548
 40
0.0763010765496272
 40
0.0793750632486764
 40
0.0824486860081009
 40
0.0855233118726824
 40
0.088600328326231
 40
0.0916804718166284
 40
0.0947651796790306
 40
0.0978560219157902
 40
0.1009544154293962
 40
0.1040617703316372
 40
0.1071792350971522
 40
0.1103082048022821
 40
0.1103082048022821
 40
0.1103082048022821
 40
0.1103082048022821
 10
113.1599997118247
 20
-7.792515109600023
 30
0.0
 10
113.1610730479988
 20
-7.792213842558606
 30
0.0
 10
113.163211770572
 20
-7.791612268513042
 30
0.0
 10
113.1664080416424
 20
-7.790709453682567
 30
0.0
 10
113.1695823974349
 20
-7.789809113387961
 30
0.0
 10
113.1727365894216
 20
-7.78891083236191
 30
0.0
 10
113.1758721071343
 20
-7.788014261411568
 30
0.0
 10
113.1789903637174
 20
-7.787119066138332
 30
0.0
 10
113.1820930112677
 20
-7.786224836186271
 30
0.0
 10
113.1851817108416
 20
-7.785331150285718
 30
0.0
 10
113.1882578601457
 20
-7.784437655916461
 30
0.0
 10
113.1913227009718
 20
-7.783544039773701
 30
0.0
 10
113.1943773903691
 20
-7.782650007444422
 30
0.0
 10
113.19742260756
 20
-7.781755399505519
 30
0.0
 10
113.2004585101754
 20
-7.780860207610546
 30
0.0
 10
113.2034847526027
 20
-7.779964571803954
 30
0.0
 10
113.2065005940276
 20
-7.779068750814444
 30
0.0
 10
113.2095052343275
 20
-7.778173024402699
 30
0.0
 10
113.2124983430299
 20
-7.777277535032302
 30
0.0
 10
113.2154802605058
 20
-7.776382224240862
 30
0.0
 10
113.2184518193096
 20
-7.775486883263382
 30
0.0
 10
113.2214141494217
 20
-7.774591209574433
 30
0.0
 10
113.2243687266911
 20
-7.773694790427816
 30
0.0
 10
113.2273171125511
 20
-7.772797180589902
 30
0.0
 10
113.2302608227632
 20
-7.771897942182848
 30
0.0
 10
113.2332013012875
 20
-7.770996652989371
 30
0.0
 10
113.2361396990149
 20
-7.770092974961856
 30
0.0
 10
113.2390771148678
 20
-7.769186581486215
 30
0.0
 10
113.2420146463117
 20
-7.768277141997749
 30
0.0
 10
113.2449534036537
 20
-7.767364317233679
 30
0.0
 10
113.2478945183341
 20
-7.766447756929906
 30
0.0
 10
113.2508391785951
 20
-7.765527088576095
 30
0.0
 10
113.2537887876666
 20
-7.764601867176319
 30
0.0
 10
113.2567447384925
 20
-7.763671645287898
 30
0.0
 10
113.2597082884336
 20
-7.762736012706307
 30
0.0
 10
113.2626806864135
 20
-7.761794556878271
 30
0.0
 10
113.2646650619594
 20
-7.761164015659074
 30
0.0
 10
113.2656589307246
 20
-7.760847704400043
 30
0.0
 11
113.1599997118247
 21
-7.792515109600023
 31
0.0
 11
113.1632192241248
 21
-7.791609536200006
 31
0.0
 11
113.1664148969247
 21
-7.790706885200072
 31
0.0
 11
113.1695885509247
 21
-7.789806732900011
 31
0.0
 11
113.1727423167247
 21
-7.788908557800047
 31
0.0
 11
113.1758774974246
 21
-7.788012064600045
 31
0.0
 11
113.1789951280247
 21
-7.787117028300053
 31
0.0
 11
113.1820971092246
 21
-7.786222968400032
 31
0.0
 11
113.1851854608248
 21
-7.785329360700097
 31
0.0
 11
113.1882612455247
 21
-7.784435949800034
 31
0.0
 11
113.1913255741247
 21
-7.78354246150004
 31
0.0
 11
113.1943799981246
 21
-7.782648486900049
 31
0.0
 11
113.1974253265248
 21
-7.781753828700026
 31
0.0
 11
113.2004612373247
 21
-7.780858619600074
 31
0.0
 11
113.2034877168247
 21
-7.779962902100031
 31
0.0
 11
113.2065040640247
 21
-7.779066922800004
 31
0.0
 11
113.2095087718246
 21
-7.778171171800089
 31
0.0
 11
113.2125016477247
 21
-7.777275751400019
 31
0.0
 11
113.2154833989247
 21
-7.776380493500049
 31
0.0
 11
113.2184545315248
 21
-7.775485287400008
 31
0.0
 11
113.2214163296247
 21
-7.774589784399972
 31
0.0
 11
113.2243703925247
 21
-7.773693534300058
 31
0.0
 11
113.2273182642248
 21
-7.772796096499995
 31
0.0
 11
113.2302614857247
 21
-7.771897025099995
 31
0.0
 11
113.2332015193247
 21
-7.770995891800018
 31
0.0
 11
113.2361396937247
 21
-7.770092303100022
 31
0.0
 11
113.2390766711246
 21
-7.769186066700021
 31
0.0
 11
113.2420137576246
 21
-7.768276787400075
 31
0.0
 11
113.2449522774247
 21
-7.767364059200096
 31
0.0
 11
113.2478929317247
 21
-7.766447665000008
 31
0.0
 11
113.2508370898247
 21
-7.765527175700036
 31
0.0
 11
113.2537862459246
 21
-7.764602117000002
 31
0.0
 11
113.2567417466247
 21
-7.763672055500045
 31
0.0
 11
113.2597049303247
 21
-7.762736554299997
 31
0.0
 11
113.2626768846246
 21
-7.761795251100032
 31
0.0
 11
113.2656589307246
 21
-7.760847704400043
 31
0.0
  0
SPLINE
  5
567C8
330
1F
100
AcDbEntity
  8
1
100
AcDbSpline
210
0.0
220
0.0
230
1.0
 70
     8
 71
     3
 72
    43
 73
    39
 74
    37
 42
0.0000000001
 43
0.0000000001
 44
0.000001
 12
0.9391136190088719
 22
0.3436067673839669
 32
0.0
 13
0.9268900165936502
 23
0.3753330482904787
 33
0.0
 40
0.0
 40
0.0
 40
0.0
 40
0.0
 40
0.0032734668696906
 40
0.0065221733701855
 40
0.0097483778811887
 40
0.0129537286478749
 40
0.0161397104438006
 40
0.0193084885901137
 40
0.0224610982566093
 40
0.0255985586942623
 40
0.0287226986126342
 40
0.0318347191687394
 40
0.0349366139845396
 40
0.0380302394656597
 40
0.0411171806762405
 40
0.0441965746328401
 40
0.0472669908180104
 40
0.0503259292083516
 40
0.053370869442529
 40
0.0564041487501535
 40
0.0594270139356029
 40
0.0624405151338487
 40
0.0654458566746553
 40
0.0684445626642342
 40
0.0714376759642471
 40
0.0744264897600852
 40
0.0774125048403045
 40
0.0803974907117947
 40
0.08338274577457
 40
0.0863686745849237
 40
0.0893560846844947
 40
0.0923465719945507
 40
0.0953414384356378
 40
0.0983418063652767
 40
0.1013494661578818
 40
0.1043658825781339
 40
0.1073915769571168
 40
0.1104273060898458
 40
0.1104273060898458
 40
0.1104273060898458
 40
0.1104273060898458
 10
113.2656589307246
 20
-7.760847704400043
 30
0.0
 10
113.2666836498309
 20
-7.760472775943632
 30
0.0
 10
113.2687249472451
 20
-7.759724688934965
 30
0.0
 10
113.271774813481
 20
-7.7586033927154
 30
0.0
 10
113.2748022222534
 20
-7.757486817275861
 30
0.0
 10
113.2778088819325
 20
-7.756374411016151
 30
0.0
 10
113.2807964693118
 20
-7.755265625767503
 30
0.0
 10
113.2837664670748
 20
-7.754159977312405
 30
0.0
 10
113.2867202102833
 20
-7.753057029286825
 30
0.0
 10
113.2896589270499
 20
-7.751956379330569
 30
0.0
 10
113.2925838954079
 20
-7.750857600308873
 30
0.0
 10
113.2954966953774
 20
-7.749760145111172
 30
0.0
 10
113.2983989133225
 20
-7.748663457025491
 30
0.0
 10
113.3012922528729
 20
-7.747566927421582
 30
0.0
 10
113.3041775251354
 20
-7.746470279331798
 30
0.0
 10
113.3070545164341
 20
-7.745373623245974
 30
0.0
 10
113.3099217418014
 20
-7.744277557384945
 30
0.0
 10
113.312777202712
 20
-7.743182883550034
 30
0.0
 10
113.3156200759328
 20
-7.742089960543061
 30
0.0
 10
113.3184507044857
 20
-7.740998700045426
 30
0.0
 10
113.3212705405091
 20
-7.739908581812881
 30
0.0
 10
113.3240806820855
 20
-7.738819216841942
 30
0.0
 10
113.3268823118964
 20
-7.737730178446342
 30
0.0
 10
113.3296766086465
 20
-7.736641036240014
 30
0.0
 10
113.3324647769473
 20
-7.735551344604393
 30
0.0
 10
113.3352480125093
 20
-7.734460656375619
 30
0.0
 10
113.3380277347521
 20
-7.733368431297076
 30
0.0
 10
113.3408053626683
 20
-7.732274123188762
 30
0.0
 10
113.3435819733833
 20
-7.731177314953628
 30
0.0
 10
113.3463583444769
 20
-7.730077703927971
 30
0.0
 10
113.3491353446792
 20
-7.728974948233465
 30
0.0
 10
113.3519141193044
 20
-7.727868591998
 30
0.0
 10
113.3546959094209
 20
-7.726758136155704
 30
0.0
 10
113.357482014537
 20
-7.725643053213964
 30
0.0
 10
113.360273782642
 20
-7.724522790765528
 30
0.0
 10
113.3630723738553
 20
-7.723396866199164
 30
0.0
 10
113.3658786271303
 20
-7.722264921852369
 30
0.0
 10
113.3677517266159
 20
-7.721507414856422
 30
0.0
 10
113.3686896556246
 20
-7.721127611700032
 30
0.0
 11
113.2656589307246
 21
-7.760847704400043
 31
0.0
 11
113.2687325017247
 21
-7.759721314699979
 31
0.0
 11
113.2717816620246
 21
-7.758600273700062
 31
0.0
 11
113.2748085556247
 21
-7.757483879400091
 31
0.0
 11
113.2778147511246
 21
-7.756371632300008
 31
0.0
 11
113.2808016615247
 21
-7.755263082900022
 31
0.0
 11
113.2837713353247
 21
-7.754157537600028
 31
0.0
 11
113.2867247595248
 21
-7.753054690300039
 31
0.0
 11
113.2896629046247
 21
-7.751954235800006
 31
0.0
 11
113.2925874973246
 21
-7.750855579700007
 31
0.0
 11
113.2954996746248
 21
-7.749758342000028
 31
0.0
 11
113.2984013129247
 21
-7.748661857199996
 31
0.0
 11
113.3012941577248
 21
-7.74756550129998
 31
0.0
 11
113.3041796983246
 21
-7.74646873970007
 31
0.0
 11
113.3070571347247
 21
-7.745371904800002
 31
0.0
 11
113.3099251381247
 21
-7.744275534900017
 31
0.0
 11
113.3127813832248
 21
-7.743180556499986
 31
0.0
 11
113.3156235290246
 21
-7.742087911699989
 31
0.0
 11
113.3184537696247
 21
-7.740996801900017
 31
0.0
 11
113.3212732789247
 21
-7.739906813299987
 31
0.0
 11
113.3240830459247
 21
-7.738817598999978
 31
0.0
 11
113.3268842018248
 21
-7.737728752100016
 31
0.0
 11
113.3296781742247
 21
-7.736639745400018
 31
0.0
 11
113.3324659406246
 21
-7.735550221900004
 31
0.0
 11
113.3352487100246
 21
-7.734459729099987
 31
0.0
 11
113.3380278830248
 21
-7.733367734300053
 31
0.0
 11
113.3408051081246
 21
-7.732273600800019
 31
0.0
 11
113.3435815934247
 21
-7.731176859200012
 31
0.0
 11
113.3463577144248
 21
-7.730077365200052
 31
0.0
 11
113.3491342205247
 21
-7.728974824099985
 31
0.0
 11
113.3519125924247
 21
-7.727868646599992
 31
0.0
 11
113.3546940357246
 21
-7.726758347199982
 31
0.0
 11
113.3574795875247
 21
-7.725643502600084
 31
0.0
 11
113.3602709033246
 21
-7.724523436800062
 31
0.0
 11
113.3630693341247
 21
-7.723397589300041
 31
0.0
 11
113.3658753543247
 21
-7.722265748400012
 31
0.0
 11
113.3686896556246
 21
-7.721127611700032
 31
0.0
  0
SPLINE
  5
567C9
330
1F
100
AcDbEntity
  8
1
100
AcDbSpline
210
0.0
220
0.0
230
1.0
 70
     8
 71
     3
 72
    44
 73
    40
 74
    38
 42
0.0000000001
 43
0.0000000001
 44
0.000001
 12
0.8368386557798347
 22
0.547449599682564
 32
0.0
 13
0.8150098846771387
 23
0.5794470535593024
 33
0.0
 40
0.0
 40
0.0
 40
0.0
 40
0.0
 40
0.0032687103867043
 40
0.0065095733371939
 40
0.0097246555440666
 40
0.0129152138903473
 40
0.0160821817479199
 40
0.0192272035392979
 40
0.0223526278681239
 40
0.0254598469525085
 40
0.0285503178799944
 40
0.0316259173562778
 40
0.0346880474587125
 40
0.0377363961577534
 40
0.0407708191960331
 40
0.0437918608522925
 40
0.0468002499781019
 40
0.0497953423000586
 40
0.0527765799043301
 40
0.0557443444079066
 40
0.0586998640879084
 40
0.0616433022358222
 40
0.0645748182519277
 40
0.067495277159757
 40
0.0704068292467111
 40
0.0733114011934593
 40
0.0762105371258986
 40
0.07910518708388
 40
0.0819965999213964
 40
0.0848856683488726
 40
0.0877738741509218
 40
0.0906624738071105
 40
0.0935530606975272
 40
0.0964465637489719
 40
0.0993435081162902
 40
0.1022452614096265
 40
0.1051530023817212
 40
0.1080674994963175
 40
0.1109902509105986
 40
0.1109902509105986
 40
0.1109902509105986
 40
0.1109902509105986
 10
113.5647853806247
 20
-7.61825113919999
 30
0.0
 10
113.5656971750268
 20
-7.617654654469096
 30
0.0
 10
113.5675123415864
 20
-7.616465766163213
 30
0.0
 10
113.5702220654826
 20
-7.61468670495395
 30
0.0
 10
113.5729080828953
 20
-7.612919005215674
 30
0.0
 10
113.5755716174455
 20
-7.611161952102183
 30
0.0
 10
113.5782137721632
 20
-7.609414903180747
 30
0.0
 10
113.5808359503238
 20
-7.607677010077573
 30
0.0
 10
113.5834396784926
 20
-7.605947333335217
 30
0.0
 10
113.5860264269745
 20
-7.604224961443819
 30
0.0
 10
113.5885975313517
 20
-7.60250906418422
 30
0.0
 10
113.5911543262061
 20
-7.600798803745316
 30
0.0
 10
113.5936976526003
 20
-7.599093665007162
 30
0.0
 10
113.5962277904325
 20
-7.597393505425978
 30
0.0
 10
113.5987447820618
 20
-7.595698341490619
 30
0.0
 10
113.6012489572967
 20
-7.594007995255387
 30
0.0
 10
113.6037405069068
 20
-7.592322380574472
 30
0.0
 10
113.6062193172237
 20
-7.59064161684943
 30
0.0
 10
113.6086851795159
 20
-7.588965889402427
 30
0.0
 10
113.6111384015131
 20
-7.587295032899969
 30
0.0
 10
113.6135794884557
 20
-7.58562874481994
 30
0.0
 10
113.6160088830496
 20
-7.583966762300187
 30
0.0
 10
113.6184269271778
 20
-7.582308889443132
 30
0.0
 10
113.6208345076578
 20
-7.580654553769119
 30
0.0
 10
113.6232329938052
 20
-7.579002844687686
 30
0.0
 10
113.6256239372247
 20
-7.577352717120202
 30
0.0
 10
113.6280085562381
 20
-7.57570334737694
 30
0.0
 10
113.6303878802073
 20
-7.574054035724131
 30
0.0
 10
113.6327627573678
 20
-7.572404202253336
 30
0.0
 10
113.6351341790064
 20
-7.570753162294117
 30
0.0
 10
113.6375031356881
 20
-7.569100225689205
 30
0.0
 10
113.6398708064413
 20
-7.567444564240828
 30
0.0
 10
113.6422382159713
 20
-7.565785450668769
 30
0.0
 10
113.6446061864816
 20
-7.564122293546631
 30
0.0
 10
113.646975476347
 20
-7.562454541561469
 30
0.0
 10
113.6493469096775
 20
-7.56078159218365
 30
0.0
 10
113.6517213741335
 20
-7.559102792327962
 30
0.0
 10
113.6540997901535
 20
-7.557417460076854
 30
0.0
 10
113.6556861901603
 20
-7.556290837765151
 30
0.0
 10
113.6564802139246
 20
-7.555726311200054
 30
0.0
 11
113.5647853806247
 21
-7.61825113919999
 31
0.0
 11
113.5675197714247
 21
-7.616460170800016
 31
0.0
 11
113.5702289048246
 21
-7.614681472200024
 31
0.0
 11
113.5729145513246
 21
-7.612913980800009
 31
0.0
 11
113.5755778003246
 21
-7.611157071900058
 31
0.0
 11
113.5782194685247
 21
-7.609410294700089
 31
0.0
 11
113.5808409624248
 21
-7.607672801000056
 31
0.0
 11
113.5834442709247
 21
-7.605943346500018
 31
0.0
 11
113.5860305816247
 21
-7.604221208899977
 31
0.0
 11
113.5886011327247
 21
-7.60250562470005
 31
0.0
 11
113.5911575074247
 21
-7.600795591299991
 31
0.0
 11
113.5937008906246
 21
-7.599090364200058
 31
0.0
 11
113.5962310415247
 21
-7.597390150399994
 31
0.0
 11
113.5987478590247
 21
-7.59569506389996
 31
0.0
 11
113.6012518129247
 21
-7.594004833700032
 31
0.0
 11
113.6037435244248
 21
-7.592319083100072
 31
0.0
 11
113.6062224769248
 21
-7.590638204000036
 31
0.0
 11
113.6086882266246
 21
-7.588962541699991
 31
0.0
 11
113.6111411073246
 21
-7.587291914099998
 31
0.0
 11
113.6135821508247
 21
-7.58562565980005
 31
0.0
 11
113.6160115073246
 21
-7.583963714800027
 31
0.0
 11
113.6184293235246
 21
-7.582306016799996
 31
0.0
 11
113.6208363269246
 21
-7.580652102700035
 31
0.0
 11
113.6232343013247
 21
-7.579000777099984
 31
0.0
 11
113.6256248414247
 21
-7.577350964200057
 31
0.0
 11
113.6280092230247
 21
-7.575701799600003
 31
0.0
 11
113.6303882303248
 21
-7.574052752499959
 31
0.0
 11
113.6327628904247
 21
-7.572403118000031
 31
0.0
 11
113.6351339354246
 21
-7.570752390800087
 31
0.0
 11
113.6375025781247
 21
-7.569099725100008
 31
0.0
 11
113.6398698432247
 21
-7.567444399300049
 31
0.0
 11
113.6422370280246
 21
-7.565785493800056
 31
0.0
 11
113.6446048825246
 21
-7.564122465900047
 31
0.0
 11
113.6469738242247
 21
-7.562455002100044
 31
0.0
 11
113.6493449574246
 21
-7.560782301100026
 31
0.0
 11
113.6517192287247
 21
-7.559103665799987
 31
0.0
 11
113.6540972470248
 21
-7.557418632300048
 31
0.0
 11
113.6564802139246
 21
-7.555726311200054
 31
0.0
  0
SPLINE
  5
567CA
330
1F
100
AcDbEntity
  8
1
100
AcDbSpline
210
0.0
220
0.0
230
1.0
 70
     8
 71
     3
 72
    44
 73
    40
 74
    38
 42
0.0000000001
 43
0.0000000001
 44
0.000001
 12
0.7931789311165327
 22
0.6089886560789412
 32
0.0
 13
0.7666242588275289
 23
0.6420959786333676
 33
0.0
 40
0.0
 40
0.0
 40
0.0
 40
0.0
 40
0.0032942388439952
 40
0.0065585620976787
 40
0.0097941477017567
 40
0.0130029016252001
 40
0.016186714939178
 40
0.0193473124295861
 40
0.0224864546567192
 40
0.0256054435273868
 40
0.0287061379611024
 40
0.0317896843168499
 40
0.0348579491193874
 40
0.0379121023311561
 40
0.0409531794727378
 40
0.0439808360184199
 40
0.0469938771958116
 40
0.049990550681222
 40
0.0529710395124958
 40
0.0559360594644243
 40
0.0588870775394291
 40
0.0618251494058558
 40
0.0647519775714586
 40
0.0676689192885481
 40
0.0705777789591557
 40
0.0734794366792002
 40
0.0763744952233167
 40
0.0792645125735148
 40
0.0821504457973886
 40
0.085032851445185
 40
0.0879131987369636
 40
0.0907928923226406
 40
0.0936734650043451
 40
0.0965560150686625
 40
0.0994417387571525
 40
0.1023316269399924
 40
0.1052269018033845
 40
0.1081290189201272
 40
0.1110396460322385
 40
0.1110396460322385
 40
0.1110396460322385
 40
0.1110396460322385
 10
113.6564802139246
 20
-7.555726311200054
 30
0.0
 10
113.6573511875397
 20
-7.555057593171251
 30
0.0
 10
113.6590844373999
 20
-7.553725203297668
 30
0.0
 10
113.6616704090659
 20
-7.551732435084206
 30
0.0
 10
113.6642314838248
 20
-7.549754045122449
 30
0.0
 10
113.6667690216163
 20
-7.547789088612848
 30
0.0
 10
113.6692845215825
 20
-7.54583650238489
 30
0.0
 10
113.6717794394484
 20
-7.543895246149749
 30
0.0
 10
113.6742550711142
 20
-7.541964393765447
 30
0.0
 10
113.6767127433187
 20
-7.540042985715053
 30
0.0
 10
113.6791536171539
 20
-7.538130182813079
 30
0.0
 10
113.6815789977146
 20
-7.536225024334497
 30
0.0
 10
113.6839900052631
 20
-7.534326685867902
 30
0.0
 10
113.6863877271419
 20
-7.532434360779044
 30
0.0
 10
113.6887726691253
 20
-7.530547695078567
 30
0.0
 10
113.6911447178989
 20
-7.528666822585401
 30
0.0
 10
113.6935030336727
 20
-7.526792456497261
 30
0.0
 10
113.6958469176899
 20
-7.524925204711069
 30
0.0
 10
113.6981761714771
 20
-7.523065280902304
 30
0.0
 10
113.7004914347618
 20
-7.521212228548114
 30
0.0
 10
113.702793571822
 20
-7.519365406052068
 30
0.0
 10
113.7050837001827
 20
-7.517523961754626
 30
0.0
 10
113.7073629050237
 20
-7.515687062045943
 30
0.0
 10
113.7096324617742
 20
-7.513853711561819
 30
0.0
 10
113.7118934283334
 20
-7.512023081835429
 30
0.0
 10
113.7141466635836
 20
-7.510194498208849
 30
0.0
 10
113.7163929598964
 20
-7.508367334381562
 30
0.0
 10
113.7186331266602
 20
-7.506540944285889
 30
0.0
 10
113.7208679582615
 20
-7.504714687824129
 30
0.0
 10
113.7230982234973
 20
-7.502887940341553
 30
0.0
 10
113.7253248036365
 20
-7.501059979056845
 30
0.0
 10
113.7275488277304
 20
-7.499229870178965
 30
0.0
 10
113.7297713251798
 20
-7.497396753447318
 30
0.0
 10
113.7319932679138
 20
-7.495559808158817
 30
0.0
 10
113.7342154850698
 20
-7.493718324469479
 30
0.0
 10
113.7364388342428
 20
-7.491871562245946
 30
0.0
 10
113.7386642360186
 20
-7.490018721974902
 30
0.0
 10
113.7408927802806
 20
-7.488158855083595
 30
0.0
 10
113.7423789110405
 20
-7.48691561772141
 30
0.0
 10
113.7431226968247
 20
-7.486292650400081
 30
0.0
 11
113.6564802139246
 21
-7.555726311200054
 31
0.0
 11
113.6590919347246
 21
-7.553718598900013
 31
0.0
 11
113.6616775679247
 21
-7.551726046900022
 31
0.0
 11
113.6642381005247
 21
-7.549748012200004
 31
0.0
 11
113.6667750915248
 21
-7.547783401200057
 31
0.0
 11
113.6692900825247
 21
-7.545831122000002
 31
0.0
 11
113.6717844783247
 21
-7.543890177499996
 31
0.0
 11
113.6742597068248
 21
-7.541959541900005
 31
0.0
 11
113.6767168296246
 21
-7.540038465400036
 31
0.0
 11
113.6791573428246
 21
-7.538125849500054
 31
0.0
 11
113.6815821770248
 21
-7.536221029200042
 31
0.0
 11
113.6839928250247
 21
-7.534322889300049
 31
0.0
 11
113.6863902278246
 21
-7.532430739699995
 31
0.0
 11
113.6887752176246
 21
-7.530543969400035
 31
0.0
 11
113.6911475428247
 21
-7.528662821700002
 31
0.0
 11
113.6935062873248
 21
-7.526788070299992
 31
0.0
 11
113.6958501026247
 21
-7.524920840900017
 31
0.0
 11
113.6981791567247
 21
-7.523061056700065
 31
0.0
 11
113.7004940327247
 21
-7.521208306900026
 31
0.0
 11
113.7027958974247
 21
-7.519361707700021
 31
0.0
 11
113.7050855932246
 21
-7.517520628200053
 31
0.0
 11
113.7073644628247
 21
-7.515684027399991
 31
0.0
 11
113.7096335758247
 21
-7.513851075599994
 31
0.0
 11
113.7118943452247
 21
-7.512020656600007
 31
0.0
 11
113.7141474614248
 21
-7.510192230600032
 31
0.0
 11
113.7163933973246
 21
-7.508365429900002
 31
0.0
 11
113.7186333640246
 21
-7.50653928060003
 31
0.0
 11
113.7208681029248
 21
-7.504713183700026
 31
0.0
 11
113.7230980429247
 21
-7.502886790800026
 31
0.0
 11
113.7253243163248
 21
-7.501059172000075
 31
0.0
 11
113.7275480011248
 21
-7.499229433100047
 31
0.0
 11
113.7297702700247
 21
-7.497396593400048
 31
0.0
 11
113.7319919562248
 21
-7.495559943600048
 31
0.0
 11
113.7342139649247
 21
-7.49371870790005
 31
0.0
 11
113.7364370396248
 21
-7.491872237400023
 31
0.0
 11
113.7386620981245
 21
-7.490019731200012
 31
0.0
 11
113.7408902335246
 21
-7.48816023439999
 31
0.0
 11
113.7431226968247
 21
-7.486292650400081
 31
0.0
  0
SPLINE
  5
567CB
330
1F
100
AcDbEntity
  8
1
100
AcDbSpline
210
0.0
220
0.0
230
1.0
 70
     8
 71
     3
 72
    44
 73
    40
 74
    38
 42
0.0000000001
 43
0.0000000001
 44
0.000001
 12
0.7451781700052547
 22
0.6668654249154172
 32
0.0
 13
0.7128486754662731
 23
0.7013178779169831
 33
0.0
 40
0.0
 40
0.0
 40
0.0
 40
0.0
 40
0.0033172671318521
 40
0.0066026621823193
 40
0.0098573520082936
 40
0.0130833825352836
 40
0.0162829791202996
 40
0.0194575678757387
 40
0.022609272832938
 40
0.0257397220409291
 40
0.0288495879646011
 40
0.0319402071852888
 40
0.0350139960327309
 40
0.0380730755316206
 40
0.0411180358598796
 40
0.0441477821207437
 40
0.0471621349998611
 40
0.050160247716319
 40
0.0531413194284209
 40
0.0561064646293622
 40
0.0590568023931964
 40
0.0619934027316061
 40
0.0649182367833043
 40
0.0678322340872643
 40
0.0707358776505035
 40
0.0736306649518475
 40
0.0765179007251726
 40
0.0793992038448597
 40
0.0822762502030574
 40
0.0851509181828145
 40
0.0880247485611514
 40
0.090898278264311
 40
0.0937716837577676
 40
0.0966460370546131
 40
0.0995230992136031
 40
0.1024039323744297
 40
0.1052891530725301
 40
0.1081803121212075
 40
0.1110791355568213
 40
0.1110791355568213
 40
0.1110791355568213
 40
0.1110791355568213
 10
113.7431226968247
 20
-7.486292650400081
 30
0.0
 10
113.7439466818416
 20
-7.485555260148267
 30
0.0
 10
113.7455857882925
 20
-7.484086506062134
 30
0.0
 10
113.748030035429
 20
-7.481890592099993
 30
0.0
 10
113.7504488592976
 20
-7.479711890065853
 30
0.0
 10
113.7528436639117
 20
-7.477549258318274
 30
0.0
 10
113.7552159111778
 20
-7.47540148994452
 30
0.0
 10
113.7575670761582
 20
-7.473267353532881
 30
0.0
 10
113.759898480266
 20
-7.471145744378503
 30
0.0
 10
113.7622112543986
 20
-7.469035721446819
 30
0.0
 10
113.7645063282552
 20
-7.466936512439366
 30
0.0
 10
113.7667848326973
 20
-7.464847175450991
 30
0.0
 10
113.7690482075353
 20
-7.462766390899384
 30
0.0
 10
113.7712977071843
 20
-7.46069300541123
 30
0.0
 10
113.7735338272421
 20
-7.458626769013508
 30
0.0
 10
113.7757564021902
 20
-7.456567845581545
 30
0.0
 10
113.7779649433334
 20
-7.45451675501887
 30
0.0
 10
113.7801590286235
 20
-7.452473944765452
 30
0.0
 10
113.7823385557191
 20
-7.45043957264616
 30
0.0
 10
113.7845039006001
 20
-7.44841334844733
 30
0.0
 10
113.7866558919316
 20
-7.446394552886889
 30
0.0
 10
113.7887955626819
 20
-7.444382266987366
 30
0.0
 10
113.7909238950359
 20
-7.442375609890747
 30
0.0
 10
113.7930417239948
 20
-7.440373829785629
 30
0.0
 10
113.795149767669
 20
-7.438376280967453
 30
0.0
 10
113.797248826426
 20
-7.436382222697909
 30
0.0
 10
113.7993399904158
 20
-7.434390669437298
 30
0.0
 10
113.8014243127765
 20
-7.432400510626549
 30
0.0
 10
113.8035030415332
 20
-7.43041056334343
 30
0.0
 10
113.8055774470527
 20
-7.428419705421147
 30
0.0
 10
113.807648458105
 20
-7.426427006868983
 30
0.0
 10
113.8097166073251
 20
-7.42443194437299
 30
0.0
 10
113.8117823082323
 20
-7.422434096238806
 30
0.0
 10
113.8138462662738
 20
-7.420432755772387
 30
0.0
 10
113.8159093941951
 20
-7.418427006062181
 30
0.0
 10
113.8179724911677
 20
-7.416416031309536
 30
0.0
 10
113.8200363021677
 20
-7.414399060622309
 30
0.0
 10
113.822101726014
 20
-7.412375164180999
 30
0.0
 10
113.8234784261424
 20
-7.411022545666808
 30
0.0
 10
113.8241672336246
 20
-7.410344880100034
 30
0.0
 11
113.7431226968247
 21
-7.486292650400081
 31
0.0
 11
113.7455932030246
 21
-7.484078868100048
 31
0.0
 11
113.7480371140247
 21
-7.481883181299982
 31
0.0
 11
113.7504553646247
 21
-7.479704890300034
 31
0.0
 11
113.7528495372246
 21
-7.477542700800049
 31
0.0
 11
113.7552213400247
 21
-7.475395189999991
 31
0.0
 11
113.7575718818247
 21
-7.473261463800008
 31
0.0
 11
113.7599027824248
 21
-7.471140152600035
 31
0.0
 11
113.7622152879246
 21
-7.469030213000017
 31
0.0
 11
113.7645099341247
 21
-7.466931240800043
 31
0.0
 11
113.7667877437247
 21
-7.464842380100003
 31
0.0
 11
113.7690505357247
 21
-7.46276203230004
 31
0.0
 11
113.7712999002248
 21
-7.460688793500048
 31
0.0
 11
113.7735362817247
 21
-7.458622305100013
 31
0.0
 11
113.7757588984248
 21
-7.45656334140002
 31
0.0
 11
113.7779676431247
 21
-7.454512057700035
 31
0.0
 11
113.7801619209248
 21
-7.45246906479999
 31
0.0
 11
113.7823411735246
 21
-7.450434945300023
 31
0.0
 11
113.7845062431247
 21
-7.448408975100014
 31
0.0
 11
113.7866579714245
 21
-7.446390422700027
 31
0.0
 11
113.7887971606247
 21
-7.444378586100035
 31
0.0
 11
113.7909252645246
 21
-7.442372140700022
 31
0.0
 11
113.7930429736248
 21
-7.440370470600007
 31
0.0
 11
113.7951506512246
 21
-7.438373263700007
 31
0.0
 11
113.7972493941247
 21
-7.436379507100035
 31
0.0
 11
113.7993401542247
 21
-7.434388315100044
 31
0.0
 11
113.8014241153247
 21
-7.432398571600026
 31
0.0
 11
113.8035024871248
 21
-7.430409123699995
 31
0.0
 11
113.8055766114246
 21
-7.428418679600007
 31
0.0
 11
113.8076475878247
 21
-7.426426167400016
 31
0.0
 11
113.8097157882247
 21
-7.424431206900087
 31
0.0
 11
113.8117813231246
 21
-7.4224336663
 31
0.0
 11
113.8138449449248
 21
-7.42043278950009
 31
0.0
 11
113.8159078956247
 21
-7.418427335700037
 31
0.0
 11
113.8179709102246
 21
-7.416416545500077
 31
0.0
 11
113.8200344009248
 21
-7.414399967000028
 31
0.0
 11
113.8220994438247
 21
-7.412376491200027
 31
0.0
 11
113.8241672336246
 21
-7.410344880100034
 31
0.0
  0
SPLINE
  5
567CC
330
1F
100
AcDbEntity
  8
1
100
AcDbSpline
210
0.0
220
0.0
230
1.0
 70
     8
 71
     3
 72
    13
 73
     9
 74
     7
 42
0.0000000001
 43
0.0000000001
 44
0.000001
 12
0.0536598278563212
 22
-0.9985592735909222
 32
0.0
 13
0.0566602510846105
 23
-0.9983935175806326
 33
0.0
 40
0.0
 40
0.0
 40
0.0
 40
0.0
 40
0.1173461408441589
 40
0.2212885654645163
 40
0.3139587850108777
 40
0.3969186700327147
 40
0.4711643223495442
 40
0.5377680450644223
 40
0.5377680450644223
 40
0.5377680450644223
 40
0.5377680450644223
 10
114.1444458060247
 20
-2.825645339900026
 30
0.0
 10
114.1465447305971
 20
-2.86470436562004
 30
0.0
 10
114.1505204902803
 20
-2.938360001577781
 30
0.0
 10
114.1562139055147
 20
-3.042857949904425
 30
0.0
 10
114.1613249085797
 20
-3.135908535126326
 30
0.0
 10
114.1659286400235
 20
-3.219073130104446
 30
0.0
 10
114.1700896197185
 20
-3.293560091841084
 30
0.0
 10
114.1727388988407
 20
-3.34043508029822
 30
0.0
 10
114.1739968267248
 20
-3.362600655299978
 30
0.0
 11
114.1444458060247
 21
-2.825645339900026
 31
0.0
 11
114.1507727514246
 21
-2.942820788900029
 31
0.0
 11
114.1564274068247
 21
-3.046609287500038
 31
0.0
 11
114.1615103985247
 21
-3.139139999800043
 31
0.0
 11
114.1660975253246
 21
-3.221972968099997
 31
0.0
 11
114.1702412128247
 21
-3.296102895900013
 31
0.0
 11
114.1739968267248
 21
-3.362600655299978
 31
0.0
  0
SPLINE
  5
567CD
330
1F
100
AcDbEntity
  8
1
100
AcDbSpline
210
0.0
220
0.0
230
1.0
 70
     8
 71
     3
 72
    44
 73
    40
 74
    38
 42
0.0000000001
 43
0.0000000001
 44
0.000001
 12
0.6931135329363862
 22
0.7208284334433828
 32
0.0
 13
0.6538295260969111
 23
0.7566418907276339
 33
0.0
 40
0.0
 40
0.0
 40
0.0
 40
0.0
 40
0.003338973937749
 40
0.0066441216131513
 40
0.0099172659961433
 40
0.0131605245064858
 40
0.016375568243228
 40
0.0195643426880004
 40
0.0227280550842039
 40
0.0258683225092145
 40
0.0289876042442907
 40
0.0320886835390805
 40
0.0351735355381948
 40
0.0382420884186052
 40
0.0412935179640766
 40
0.0443274614725012
 40
0.0473435219620151
 40
0.0503405309380974
 40
0.0533189922006647
 40
0.0562811180563394
 40
0.0592291478561658
 40
0.0621640642019275
 40
0.065086084652244
 40
0.0679959405208045
 40
0.070895474528345
 40
0.0737862562251187
 40
0.0766691195399308
 40
0.0795453360860858
 40
0.0824167613431775
 40
0.0852844961057436
 40
0.0881487065847266
 40
0.0910099747235864
 40
0.0938699290265836
 40
0.0967305341935492
 40
0.0995934385133507
 40
0.1024600773368304
 40
0.1053317706086859
 40
0.1082095303643137
 40
0.1110938721958325
 40
0.1110938721958325
 40
0.1110938721958325
 40
0.1110938721958325
 10
113.8241672336246
 20
-7.410344880100034
 30
0.0
 10
113.8249386629654
 20
-7.409542604315749
 30
0.0
 10
113.826472572222
 20
-7.407945089266263
 30
0.0
 10
113.8287587433743
 20
-7.405557319012569
 30
0.0
 10
113.831019487835
 20
-7.403189379647067
 30
0.0
 10
113.8332561635981
 20
-7.400839990830865
 30
0.0
 10
113.8354701514123
 20
-7.398507837020463
 30
0.0
 10
113.8376626101797
 20
-7.396191810183919
 30
0.0
 10
113.8398347029708
 20
-7.393890830693
 30
0.0
 10
113.8419876213704
 20
-7.391603610097224
 30
0.0
 10
113.844122918156
 20
-7.389328479010739
 30
0.0
 10
113.8462424181558
 20
-7.387063859264222
 30
0.0
 10
113.848347183508
 20
-7.384808613535479
 30
0.0
 10
113.8504374986234
 20
-7.382562523671419
 30
0.0
 10
113.852513104832
 20
-7.380325930397139
 30
0.0
 10
113.8545736748621
 20
-7.378099258549498
 30
0.0
 10
113.8566188052121
 20
-7.375883018627882
 30
0.0
 10
113.8586482908653
 20
-7.373677511126145
 30
0.0
 10
113.8606625160706
 20
-7.371482396650807
 30
0.0
 10
113.8626626296093
 20
-7.369296495479998
 30
0.0
 10
113.8646498798849
 20
-7.367118502582652
 30
0.0
 10
113.8666250608805
 20
-7.364947598303299
 30
0.0
 10
113.868588624366
 20
-7.362783331151763
 30
0.0
 10
113.8705412122082
 20
-7.360625034918098
 30
0.0
 10
113.872483763725
 20
-7.358471704715574
 30
0.0
 10
113.8744172352028
 20
-7.356322304862645
 30
0.0
 10
113.8763424492298
 20
-7.354175935464517
 30
0.0
 10
113.8782602889035
 20
-7.352031622864614
 30
0.0
 10
113.880171683493
 20
-7.349888315430557
 30
0.0
 10
113.882077337425
 20
-7.347745254696615
 30
0.0
 10
113.8839775720708
 20
-7.345601909786424
 30
0.0
 10
113.8858728609205
 20
-7.343457650429487
 30
0.0
 10
113.8877642364255
 20
-7.341311540109715
 30
0.0
 10
113.8896528004619
 20
-7.339162229172631
 30
0.0
 10
113.8915396470581
 20
-7.337008447187251
 30
0.0
 10
113.8934257099723
 20
-7.334849069110969
 30
0.0
 10
113.8953117800255
 20
-7.332683126834197
 30
0.0
 10
113.8971984402649
 20
-7.330509878207659
 30
0.0
 10
113.898455365507
 20
-7.329057558385627
 30
0.0
 10
113.8990839881246
 20
-7.328330087099992
 30
0.0
 11
113.8241672336246
 21
-7.410344880100034
 31
0.0
 11
113.8264797769248
 21
-7.407936386200013
 31
0.0
 11
113.8287654531247
 21
-7.405549012400022
 31
0.0
 11
113.8310256037247
 21
-7.403181524900013
 31
0.0
 11
113.8332617652246
 21
-7.400832468999986
 31
0.0
 11
113.8354751583247
 21
-7.398500705600008
 31
0.0
 11
113.8376671850248
 21
-7.396184889400011
 31
0.0
 11
113.8398387329248
 21
-7.393884204700063
 31
0.0
 11
113.8419909778247
 21
-7.391597518899992
 31
0.0
 11
113.8441256584247
 21
-7.389323085500016
 31
0.0
 11
113.8462446980247
 21
-7.387058939800019
 31
0.0
 11
113.8483494771247
 21
-7.384803677099987
 31
0.0
 11
113.8504399748247
 21
-7.382557384599996
 31
0.0
 11
113.8525156592248
 21
-7.38032070160002
 31
0.0
 11
113.8545763150247
 21
-7.378093931399995
 31
0.0
 11
113.8566217054247
 21
-7.375877404000013
 31
0.0
 11
113.8586510732247
 21
-7.373672018800013
 31
0.0
 11
113.8606647958246
 21
-7.371477446499987
 31
0.0
 11
113.8626644013247
 21
-7.369292094800036
 31
0.0
 11
113.8646514267247
 21
-7.367114342700027
 31
0.0
 11
113.8666265547247
 21
-7.364943490900052
 31
0.0
 11
113.8685899502247
 21
-7.362779403199986
 31
0.0
 11
113.8705421217246
 21
-7.360621561399987
 31
0.0
 11
113.8724843185247
 21
-7.358468618700065
 31
0.0
 11
113.8744175996246
 21
-7.356319424500063
 31
0.0
 11
113.8763425264248
 21
-7.354173370000031
 31
0.0
 11
113.8782599483246
 21
-7.35202951680005
 31
0.0
 11
113.8801710975247
 21
-7.349886485600015
 31
0.0
 11
113.8820766971247
 21
-7.347743454400037
 31
0.0
 11
113.8839768582247
 21
-7.345600282300003
 31
0.0
 11
113.8858719577246
 21
-7.343456525700012
 31
0.0
 11
113.8877630398247
 21
-7.341310976800022
 31
0.0
 11
113.8896513793246
 21
-7.339162150100056
 31
0.0
 11
113.8915380335246
 21
-7.337008790500042
 31
0.0
 11
113.8934239116247
 21
-7.334849796600017
 31
0.0
 11
113.8953098400246
 21
-7.332684148300038
 31
0.0
 11
113.8971964363246
 21
-7.330511052399991
 31
0.0
 11
113.8990839881246
 21
-7.328330087099992
 31
0.0
  0
SPLINE
  5
567CE
330
1F
100
AcDbEntity
  8
1
100
AcDbSpline
210
0.0
220
0.0
230
1.0
 70
     8
 71
     3
 72
    45
 73
    41
 74
    39
 42
0.0000000001
 43
0.0000000001
 44
0.000001
 12
0.6372743747039075
 22
0.7706369906419908
 32
0.0
 13
0.5897622233077108
 23
0.8075769436772857
 33
0.0
 40
0.0
 40
0.0
 40
0.0
 40
0.0
 40
0.003273064293926
 40
0.0065121632514268
 40
0.0097190970438356
 40
0.0128956267668761
 40
0.0160438430670014
 40
0.0191652835996308
 40
0.0222615454536578
 40
0.0253345327139721
 40
0.0283852095151564
 40
0.0314147708453247
 40
0.0344253616751028
 40
0.0374191188142714
 40
0.0403972167608697
 40
0.0433587881026938
 40
0.0463031632862843
 40
0.049230427909781
 40
0.0521400327880847
 40
0.0550319313337573
 40
0.0579075703148229
 40
0.0607678527882645
 40
0.0636135397122132
 40
0.0664461012663514
 40
0.069267393550817
 40
0.0720787878889365
 40
0.0748817992871836
 40
0.0776772208398092
 40
0.0804664945846131
 40
0.0832504482481468
 40
0.0860306523036554
 40
0.0888082401317052
 40
0.0915848193005612
 40
0.0943610279731022
 40
0.0971373949909057
 40
0.0999155617996175
 40
0.1026966395466217
 40
0.1054818996969416
 40
0.10827304551731
 40
0.1110708474879582
 40
0.1110708474879582
 40
0.1110708474879582
 40
0.1110708474879582
 10
113.8990839881246
 20
-7.328330087099992
 30
0.0
 10
113.899779268125
 20
-7.327489305627442
 30
0.0
 10
113.9011613290735
 20
-7.325815405398635
 30
0.0
 10
113.9032201376158
 20
-7.323314012785369
 30
0.0
 10
113.9052546811514
 20
-7.320834329218318
 30
0.0
 10
113.9072662364261
 20
-7.318374975160832
 30
0.0
 10
113.9092559776475
 20
-7.315934600060225
 30
0.0
 10
113.9112251815372
 20
-7.313512006579161
 30
0.0
 10
113.9131745453169
 20
-7.311105607328446
 30
0.0
 10
113.91510546952
 20
-7.308714631637358
 30
0.0
 10
113.9170187527935
 20
-7.306337992403058
 30
0.0
 10
113.9189153713631
 20
-7.303974643139358
 30
0.0
 10
113.9207965032341
 20
-7.301623197542175
 30
0.0
 10
113.9226633227234
 20
-7.299282275047175
 30
0.0
 10
113.9245163684611
 20
-7.296951272298194
 30
0.0
 10
113.9263555951935
 20
-7.294630316699727
 30
0.0
 10
113.9281807347636
 20
-7.292319822015862
 30
0.0
 10
113.9299915860239
 20
-7.290020119642404
 30
0.0
 10
113.9317880787962
 20
-7.287731379671798
 30
0.0
 10
113.9335704227166
 20
-7.285453414892193
 30
0.0
 10
113.9353391240389
 20
-7.28318565539364
 30
0.0
 10
113.9370948498319
 20
-7.280927315196271
 30
0.0
 10
113.9388382672217
 20
-7.278677598377235
 30
0.0
 10
113.940570232503
 20
-7.27643545361669
 30
0.0
 10
113.9422917188483
 20
-7.274199662728864
 30
0.0
 10
113.944003701404
 20
-7.271968990155926
 30
0.0
 10
113.9457069318515
 20
-7.269742475489021
 30
0.0
 10
113.947402170192
 20
-7.267519135030797
 30
0.0
 10
113.9490900321838
 20
-7.265298163226837
 30
0.0
 10
113.9507712823937
 20
-7.263078542235837
 30
0.0
 10
113.9524466235385
 20
-7.260859336466159
 30
0.0
 10
113.954116883824
 20
-7.258639379637912
 30
0.0
 10
113.9557827865751
 20
-7.256417815228682
 30
0.0
 10
113.9574445960015
 20
-7.254193695089943
 30
0.0
 10
113.9591030299385
 20
-7.251966397159709
 30
0.0
 10
113.9607587449074
 20
-7.24973505585967
 30
0.0
 10
113.9624124943267
 20
-7.247498569543248
 30
0.0
 10
113.9640650483763
 20
-7.245255823525483
 30
0.0
 10
113.9657170988949
 20
-7.243005786867169
 30
0.0
 10
113.9668171104878
 20
-7.241502230188211
 30
0.0
 10
113.9673671231246
 20
-7.240749083400054
 30
0.0
 11
113.8990839881246
 21
-7.328330087099992
 31
0.0
 11
113.9011678428247
 21
-7.325806116200019
 31
0.0
 11
113.9032261613247
 21
-7.323305137800068
 31
0.0
 11
113.9052601786248
 21
-7.320825841800021
 31
0.0
 11
113.9072710963246
 21
-7.318366941399992
 31
0.0
 11
113.9092603154248
 21
-7.31592688730003
 31
0.0
 11
113.9112288785247
 21
-7.313504551599997
 31
0.0
 11
113.9131779026246
 21
-7.31109869910002
 31
0.0
 11
113.9151086019248
 21
-7.308707958600074
 31
0.0
 11
113.9170216346247
 21
-7.30633163250004
 31
0.0
 11
113.9189177991248
 21
-7.30396883879998
 31
0.0
 11
113.9207984811246
 21
-7.301617948500016
 31
0.0
 11
113.9226650512246
 21
-7.29927733080003
 31
0.0
 11
113.9245182716247
 21
-7.296946100400098
 31
0.0
 11
113.9263576318247
 21
-7.294624968600054
 31
0.0
 11
113.9281827484247
 21
-7.292314494900003
 31
0.0
 11
113.9299937078247
 21
-7.290014647399991
 31
0.0
 11
113.9317902049247
 21
-7.287725893799994
 31
0.0
 11
113.9335722465247
 21
-7.28544830750004
 31
0.0
 11
113.9353407575246
 21
-7.283180784000045
 31
0.0
 11
113.9370963224246
 21
-7.280922642700054
 31
0.0
 11
113.9388394344247
 21
-7.2786733119
 31
0.0
 11
113.9405710162247
 21
-7.276431655400037
 31
0.0
 11
113.9422922185247
 21
-7.274196225400053
 31
0.0
 11
113.9440038883247
 21
-7.271965952100025
 31
0.0
 11
113.9457069528247
 21
-7.269739646100012
 31
0.0
 11
113.9474018944246
 21
-7.267516686700012
 31
0.0
 11
113.9490895837247
 21
-7.2652959332
 31
0.0
 11
113.9507705131246
 21
-7.263076729100042
 31
0.0
 11
113.9524456177247
 21
-7.260857821600004
 31
0.0
 11
113.9541155616247
 21
-7.258638301100027
 31
0.0
 11
113.9557812869247
 21
-7.256416874000045
 31
0.0
 11
113.9574431745248
 21
-7.254192980300011
 31
0.0
 11
113.9591014903246
 21
-7.251966206300059
 31
0.0
 11
113.9607571656246
 21
-7.249735233399995
 31
0.0
 11
113.9624108181247
 21
-7.24749914849999
 31
0.0
 11
113.9640631534247
 21
-7.245256904600032
 31
0.0
 11
113.9657151244247
 21
-7.243007101100054
 31
0.0
 11
113.9673671231246
 21
-7.240749083400054
 31
0.0
  0
SPLINE
  5
567CF
330
1F
100
AcDbEntity
  8
1
100
AcDbSpline
210
0.0
220
0.0
230
1.0
 70
     8
 71
     3
 72
    45
 73
    41
 74
    39
 42
0.0000000001
 43
0.0000000001
 44
0.000001
 12
0.5779666165754304
 22
0.8160604083793977
 32
0.0
 13
0.5208980167203043
 23
0.8536189174197428
 33
0.0
 40
0.0
 40
0.0
 40
0.0
 40
0.0
 40
0.0032920436657237
 40
0.0065485526045068
 40
0.0097712479520042
 40
0.0129622239426252
 40
0.0161230718663719
 40
0.0192555100726754
 40
0.0223614804709064
 40
0.025442461472626
 40
0.0285007739726479
 40
0.031537877819249
 40
0.0345552927582566
 40
0.0375547947822616
 40
0.0405361863752577
 40
0.0434990221601403
 40
0.0464433622065408
 40
0.0493679605525642
 40
0.0522725978278463
 40
0.0551590801012754
 40
0.058029752265096
 40
0.0608857455910959
 40
0.0637274682329246
 40
0.0665559307207203
 40
0.0693730079051996
 40
0.0721796534156934
 40
0.0749768738223431
 40
0.0777665766130446
 40
0.0805495364252726
 40
0.0833260815604092
 40
0.0860974943136568
 40
0.0888651914950116
 40
0.0916307947170251
 40
0.0943957829050315
 40
0.0971618157217749
 40
0.0999301305843808
 40
0.102701243661243
 40
0.1054754311465075
 40
0.1082541387404461
 40
0.1110387341284827
 40
0.1110387341284827
 40
0.1110387341284827
 40
0.1110387341284827
 10
113.9673671231246
 20
-7.240749083400054
 30
0.0
 10
113.968001353571
 20
-7.239853581233969
 30
0.0
 10
113.9692614476473
 20
-7.238071165350927
 30
0.0
 10
113.971137092726
 20
-7.235408356154508
 30
0.0
 10
113.9729888101277
 20
-7.232769906174967
 30
0.0
 10
113.9748177149266
 20
-7.230154408111788
 30
0.0
 10
113.9766249391042
 20
-7.227560466595949
 30
0.0
 10
113.978411180419
 20
-7.224986446925349
 30
0.0
 10
113.980177922618
 20
-7.222431306071388
 30
0.0
 10
113.9819262100622
 20
-7.219893450235637
 30
0.0
 10
113.9836571294251
 20
-7.21737151061939
 30
0.0
 10
113.9853717274769
 20
-7.214864073711702
 30
0.0
 10
113.9870709490304
 20
-7.212369876231633
 30
0.0
 10
113.9887554173927
 20
-7.209888104125184
 30
0.0
 10
113.9904253840506
 20
-7.207418482508465
 30
0.0
 10
113.9920807799343
 20
-7.204961210062506
 30
0.0
 10
113.9937213425668
 20
-7.202516776421738
 30
0.0
 10
113.9953468548014
 20
-7.200085610766212
 30
0.0
 10
113.996957425351
 20
-7.197667659880988
 30
0.0
 10
113.998553823621
 20
-7.19526187228867
 30
0.0
 10
114.0001370587431
 20
-7.192866815119791
 30
0.0
 10
114.0017078736482
 20
-7.190481438003101
 30
0.0
 10
114.0032667606845
 20
-7.188105058039765
 30
0.0
 10
114.0048143432722
 20
-7.185736781819873
 30
0.0
 10
114.0063513364267
 20
-7.183375558543269
 30
0.0
 10
114.0078784474426
 20
-7.181020333952403
 30
0.0
 10
114.0093963818457
 20
-7.178670039694807
 30
0.0
 10
114.010905804844
 20
-7.176323652451431
 30
0.0
 10
114.0124072515195
 20
-7.17398033410987
 30
0.0
 10
114.0139011402201
 20
-7.171639419372144
 30
0.0
 10
114.0153879965825
 20
-7.169300057618258
 30
0.0
 10
114.0168685749433
 20
-7.166961032895062
 30
0.0
 10
114.0183436380004
 20
-7.164621057266693
 30
0.0
 10
114.0198140439292
 20
-7.162278807295368
 30
0.0
 10
114.0212803369129
 20
-7.159932914165739
 30
0.0
 10
114.0227430586557
 20
-7.157582387737649
 30
0.0
 10
114.0242027461264
 20
-7.155226777475026
 30
0.0
 10
114.0256596790094
 20
-7.1528653908749
 30
0.0
 10
114.0271143576766
 20
-7.150497339138208
 30
0.0
 10
114.0280818991864
 20
-7.148915316566852
 30
0.0
 10
114.0285653959247
 20
-7.14812298879999
 30
0.0
 11
113.9673671231246
 21
-7.240749083400054
 31
0.0
 11
113.9692674488247
 21
-7.238060923099986
 31
0.0
 11
113.9711426047246
 21
-7.235398528600022
 31
0.0
 11
113.9729936921248
 21
-7.232760574900018
 31
0.0
 11
113.9748220157246
 21
-7.230145424300039
 31
0.0
 11
113.9766285923247
 21
-7.227551828600006
 31
0.0
 11
113.9784145280247
 21
-7.224978390700037
 31
0.0
 11
113.9801809637248
 21
-7.222423641900057
 31
0.0
 11
113.9819288100247
 21
-7.219886426000036
 31
0.0
 11
113.9836594456248
 21
-7.21736488580003
 31
0.0
 11
113.9853737510247
 21
-7.21485786620004
 31
0.0
 11
113.9870726322246
 21
-7.212364156700025
 31
0.0
 11
113.9887571306247
 21
-7.209882328800083
 31
0.0
 11
113.9904271735247
 21
-7.207412582799996
 31
0.0
 11
113.9920825513246
 21
-7.20495532550003
 31
0.0
 11
113.9937233385247
 21
-7.202510545500011
 31
0.0
 11
113.9953488845247
 21
-7.200079317500032
 31
0.0
 11
113.9969591145248
 21
-7.19766186610004
 31
0.0
 11
113.9985550738247
 21
-7.1952567282
 31
0.0
 11
114.0001380942247
 21
-7.192861984000009
 31
0.0
 11
114.0017088275247
 21
-7.190476718899978
 31
0.0
 11
114.0032675230248
 21
-7.188100619000032
 31
0.0
 11
114.0048147568248
 21
-7.185732864300026
 31
0.0
 11
114.0063515697246
 21
-7.183371905900022
 31
0.0
 11
114.0078784912247
 21
-7.181016961299994
 31
0.0
 11
114.0093960736248
 21
-7.178667199700066
 31
0.0
 11
114.0109053497247
 21
-7.176321028200013
 31
0.0
 11
114.0124067302247
 21
-7.173977800800023
 31
0.0
 11
114.0139003813247
 21
-7.171637245100008
 31
0.0
 11
114.0153869774247
 21
-7.169298281399981
 31
0.0
 11
114.0168672567247
 21
-7.166959711400089
 31
0.0
 11
114.0183420571247
 21
-7.164620157800036
 31
0.0
 11
114.0198121296247
 21
-7.162278357500007
 31
0.0
 11
114.0212783327247
 21
-7.159932852700045
 31
0.0
 11
114.0227412685246
 21
-7.157582572100032
 31
0.0
 11
114.0242011230247
 21
-7.155227096800011
 31
0.0
 11
114.0256579779246
 21
-7.152866168700049
 31
0.0
 11
114.0271125230247
 21
-7.150498531400009
 31
0.0
 11
114.0285653959247
 21
-7.14812298879999
 31
0.0
  0
SPLINE
  5
567D0
330
1F
100
AcDbEntity
  8
1
100
AcDbSpline
210
0.0
220
0.0
230
1.0
 70
     8
 71
     3
 72
    33
 73
    29
 74
    27
 42
0.0000000001
 43
0.0000000001
 44
0.000001
 12
0.5155080314811379
 22
0.8568847469049979
 32
0.0
 13
0.4715274032935008
 23
0.8818514092199935
 33
0.0
 40
0.0
 40
0.0
 40
0.0
 40
0.0
 40
0.0033126169912804
 40
0.0065875210287249
 40
0.0098274400464125
 40
0.013034282298529
 40
0.0162094887340403
 40
0.0193549704723223
 40
0.0224731858473528
 40
0.0255649416323348
 40
0.0286310265772256
 40
0.0316729303726279
 40
0.0346934436781834
 40
0.0376947462966137
 40
0.0406779564855661
 40
0.0436419577419973
 40
0.0465863749659207
 40
0.0495104254688769
 40
0.0524138405381919
 40
0.0552981032672631
 40
0.0581645578037781
 40
0.0610150807818367
 40
0.0638506591130895
 40
0.0666729045152358
 40
0.0694828693578755
 40
0.0722819973152195
 40
0.075071298237527
 40
0.0768094970889913
 40
0.0768094970889913
 40
0.0768094970889913
 40
0.0768094970889913
 10
114.0285653959247
 20
-7.14812298879999
 30
0.0
 10
114.0291346228128
 20
-7.147176811809267
 30
0.0
 10
114.0302647817647
 20
-7.145294137458234
 30
0.0
 10
114.0319453324839
 20
-7.142482249272914
 30
0.0
 10
114.0336023980612
 20
-7.139697407378498
 30
0.0
 10
114.0352371211764
 20
-7.136937948870696
 30
0.0
 10
114.0368504948954
 20
-7.134202438006944
 30
0.0
 10
114.0384435970131
 20
-7.131489275783976
 30
0.0
 10
114.0400173810635
 20
-7.128797035027843
 30
0.0
 10
114.0415726246913
 20
-7.126124618693047
 30
0.0
 10
114.0431098559158
 20
-7.12347115783753
 30
0.0
 10
114.0446300080588
 20
-7.120835254189647
 30
0.0
 10
114.0461342878028
 20
-7.118215131192441
 30
0.0
 10
114.0476237402468
 20
-7.11560906174775
 30
0.0
 10
114.0490987750666
 20
-7.113016455665613
 30
0.0
 10
114.0505593769419
 20
-7.110437460548503
 30
0.0
 10
114.0520052087082
 20
-7.10787276992135
 30
0.0
 10
114.0534361315092
 20
-7.105322864257905
 30
0.0
 10
114.054852094029
 20
-7.102787563192051
 30
0.0
 10
114.0562537230228
 20
-7.100266253367052
 30
0.0
 10
114.0576417875448
 20
-7.09775758120543
 30
0.0
 10
114.0590170194667
 20
-7.095260361796799
 30
0.0
 10
114.0603801706988
 20
-7.092773319173033
 30
0.0
 10
114.06173185606
 20
-7.090295415491344
 30
0.0
 10
114.0630727540959
 20
-7.08782547413611
 30
0.0
 10
114.0644034395247
 20
-7.085362490427264
 30
0.0
 10
114.0655599479606
 20
-7.083211471400864
 30
0.0
 10
114.0662724115277
 20
-7.081881065168897
 30
0.0
 10
114.0665456143247
 20
-7.081370120800008
 30
0.0
 11
114.0285653959247
 21
-7.14812298879999
 31
0.0
 11
114.0302702840246
 21
-7.145282790400036
 31
0.0
 11
114.0319502688246
 21
-7.14247165470001
 31
0.0
 11
114.0336068798248
 21
-7.139687326600004
 31
0.0
 11
114.0352412113248
 21
-7.136928246100032
 31
0.0
 11
114.0368541080246
 21
-7.134193248700023
 31
0.0
 11
114.0384466429248
 21
-7.131480758900032
 31
0.0
 11
114.0400201521246
 21
-7.128788721300018
 31
0.0
 11
114.0415751263247
 21
-7.126116499500048
 31
0.0
 11
114.0431120486247
 21
-7.123463458299987
 31
0.0
 11
114.0446317379246
 21
-7.120828367400029
 31
0.0
 11
114.0461356437247
 21
-7.118208872999978
 31
0.0
 11
114.0476249026247
 21
-7.1156031275
 31
0.0
 11
114.0491001126247
 21
-7.113010197900017
 31
0.0
 11
114.0505607651246
 21
-7.110431092600003
 31
0.0
 11
114.0520067232246
 21
-7.107866178400023
 31
0.0
 11
114.0534376543246
 21
-7.105316178500025
 31
0.0
 11
114.0548534961247
 21
-7.102781344800027
 31
0.0
 11
114.0562550106247
 21
-7.100260446800026
 31
0.0
 11
114.0576428952246
 21
-7.097752348999981
 31
0.0
 11
114.0590180941247
 21
-7.095255444000052
 31
0.0
 11
114.0603811121247
 21
-7.092768898300072
 31
0.0
 11
114.0617327456248
 21
-7.090291325900032
 31
0.0
 11
114.0630735133248
 21
-7.087821826700085
 31
0.0
 11
114.0644041122246
 21
-7.085359152399995
 31
0.0
 11
114.0657250235247
 21
-7.082902431499994
 31
0.0
 11
114.0665456143247
 21
-7.081370120800008
 31
0.0
  0
SPLINE
  5
567D1
330
1F
100
AcDbEntity
  8
1
100
AcDbSpline
210
0.0
220
0.0
230
1.0
 70
     8
 71
     3
 72
    27
 73
    23
 74
    21
 42
0.0000000001
 43
0.0000000001
 44
0.000001
 12
-0.9998274516620535
 22
-0.0185759765009597
 32
0.0
 13
-0.9997477832834512
 23
-0.022458179352423
 33
0.0
 40
0.0
 40
0.0
 40
0.0
 40
0.0
 40
0.0024403381894543
 40
0.0132658363054207
 40
0.0241545103605104
 40
0.0349584963238961
 40
0.0456215223325778
 40
0.0565348528189782
 40
0.0682019002167626
 40
0.0810433296122288
 40
0.0949715132698186
 40
0.1092113224052002
 40
0.1230122303327571
 40
0.1359877760905364
 40
0.1482938572499952
 40
0.1601184433821422
 40
0.1716517036577808
 40
0.1831012299903876
 40
0.194602819511234
 40
0.2060911410801281
 40
0.2176565493584261
 40
0.2297370937414666
 40
0.2297370937414666
 40
0.2297370937414666
 40
0.2297370937414666
 10
110.9402600076246
 20
7.861757866899985
 30
0.0
 10
110.9394467019202
 20
7.861742756345031
 30
0.0
 10
110.9350255240484
 20
7.861660368103302
 30
0.0
 10
110.9269754682009
 20
7.861507686987098
 30
0.0
 10
110.9161380648318
 20
7.861300369222794
 30
0.0
 10
110.9053548964426
 20
7.861089551410184
 30
0.0
 10
110.8945635875617
 20
7.860874688630063
 30
0.0
 10
110.8834847343646
 20
7.860649826526737
 30
0.0
 10
110.871679993259
 20
7.860405493263443
 30
0.0
 10
110.8588706322472
 20
7.860134814981728
 30
0.0
 10
110.8452040090199
 20
7.859839760297472
 30
0.0
 10
110.8312177711264
 20
7.859531524674093
 30
0.0
 10
110.817549121883
 20
7.859224905755943
 30
0.0
 10
110.8045249771951
 20
7.858928733859448
 30
0.0
 10
110.7921594973592
 20
7.858644864618352
 30
0.0
 10
110.7802746879098
 20
7.858370502512713
 30
0.0
 10
110.7686753344896
 20
7.858102132830152
 30
0.0
 10
110.7571836080271
 20
7.857836677513454
 30
0.0
 10
110.7457068417146
 20
7.857572231117356
 30
0.0
 10
110.7341913767706
 20
7.857310458861364
 30
0.0
 10
110.7224829609538
 20
7.85704500029275
 30
0.0
 10
110.7146029788141
 20
7.856867356277453
 30
0.0
 10
110.7105771463248
 20
7.856776920599976
 30
0.0
 11
110.9402600076246
 21
7.861757866899985
 31
0.0
 11
110.9378200919248
 21
7.861712445599984
 31
0.0
 11
110.9269965050247
 21
7.861508792299991
 31
0.0
 11
110.9161098314247
 21
7.86130006279999
 31
0.0
 11
110.9053079074247
 21
7.861088980400018
 31
0.0
 11
110.8946469950247
 21
7.860876671999995
 31
0.0
 11
110.8837359114248
 21
7.860655219199976
 31
0.0
 11
110.8720713620247
 21
7.860413791799977
 31
0.0
 11
110.8592327978247
 21
7.860142527699997
 31
0.0
 11
110.8453078571247
 21
7.859841971899959
 31
0.0
 11
110.8310715017247
 21
7.859528352399911
 31
0.0
 11
110.8172740609246
 21
7.859219005799991
 31
0.0
 11
110.8043018647247
 21
7.858924180299972
 31
0.0
 11
110.7919990208246
 21
7.858641912099963
 31
0.0
 11
110.7801775803247
 21
7.858369158299957
 31
0.0
 11
110.7686474009247
 21
7.858102557999906
 31
0.0
 11
110.7572009254247
 21
7.857838187799962
 31
0.0
 11
110.7457023719246
 21
7.857573722099949
 31
0.0
 11
110.7342170508246
 21
7.857311358099969
 31
0.0
 11
110.7226546217246
 21
7.857049113099924
 31
0.0
 11
110.7105771463248
 21
7.856776920599976
 31
0.0
  0
SPLINE
  5
567D2
330
1F
100
AcDbEntity
  8
1
100
AcDbSpline
210
0.0
220
0.0
230
1.0
 70
     8
 71
     3
 72
    55
 73
    51
 74
     0
 42
0.0000000001
 43
0.0000000001
 40
0.1717127073704968
 40
0.1717127073704968
 40
0.1717127073704968
 40
0.1717127073704968
 40
0.1754007675495172
 40
0.2240295675406685
 40
0.2474602542030816
 40
0.2706117037511993
 40
0.2938875892361868
 40
0.3176915881268698
 40
0.3424273875780449
 40
0.3684986882160544
 40
0.4262626563514769
 40
0.451507098580101
 40
0.4644110947963503
 40
0.4773353793336293
 40
0.5029325351432902
 40
0.5284154688590173
 40
0.5539737294630303
 40
0.5795031360455716
 40
0.6048898476622318
 40
0.6176685225979794
 40
0.6305992731226385
 40
0.6436829160103665
 40
0.6567327147260784
 40
0.6817032392026606
 40
0.7039873069724231
 40
0.7240692081922222
 40
0.7429710070006103
 40
0.7617147397035016
 40
0.7811064011511329
 40
0.8010881659493167
 40
0.8417265761619178
 40
0.8819021721850573
 40
0.9217388374515026
 40
0.9616996241302564
 40
1.001751518120794
 40
1.081764382305839
 40
1.161777987939974
 40
1.241791820900205
 40
1.321806518256442
 40
1.401821342811464
 40
1.481836557796098
 40
1.561852330026769
 40
1.641868325017564
 40
1.721885053701264
 40
1.80190292036312
 40
1.881921276574264
 40
1.961938241852431
 40
2.041953146180556
 40
2.121968086867553
 40
2.201982977519409
 40
2.201982977519409
 40
2.201982977519409
 40
2.201982977519409
 10
110.6962978402655
 20
-7.855866369523048
 30
0.0
 10
110.6975263054414
 20
-7.855913093369358
 30
0.0
 10
110.7149526497167
 20
-7.856576139622369
 30
0.0
 10
110.7401833735651
 20
-7.857541476893594
 30
0.0
 10
110.7718964309951
 20
-7.858773482575053
 30
0.0
 10
110.7951647945763
 20
-7.859679785431943
 30
0.0
 10
110.8185576974999
 20
-7.860585894432709
 30
0.0
 10
110.8424787934973
 20
-7.861500203240915
 30
0.0
 10
110.8673317346764
 20
-7.862431109665314
 30
0.0
 10
110.9034980065365
 20
-7.863751385312318
 30
0.0
 10
110.9398358975467
 20
-7.865017103871218
 30
0.0
 10
110.9717890088667
 20
-7.866081305272948
 30
0.0
 10
110.9888052745049
 20
-7.866602815141013
 30
0.0
 10
111.0059402997606
 20
-7.867085853942873
 30
0.0
 10
111.0272694372311
 20
-7.867583717735122
 30
0.0
 10
111.0528117885559
 20
-7.868029162857303
 30
0.0
 10
111.078333459779
 20
-7.868345954550497
 30
0.0
 10
111.1038242922044
 20
-7.868537788446608
 30
0.0
 10
111.1250559350639
 20
-7.868592070640397
 30
0.0
 10
111.1420879741178
 20
-7.868559952312486
 30
0.0
 10
111.1550188586966
 20
-7.86849534429941
 30
0.0
 10
111.1680398373792
 20
-7.868388731970718
 30
0.0
 10
111.1850735487293
 20
-7.868208230821345
 30
0.0
 10
111.2051732677189
 20
-7.867941544091955
 30
0.0
 10
111.2276163321784
 20
-7.867610855050847
 30
0.0
 10
111.2480362956202
 20
-7.867283028903352
 30
0.0
 10
111.2672760115144
 20
-7.866957002824753
 30
0.0
 10
111.286285616637
 20
-7.866631140981231
 30
0.0
 10
111.3056553271634
 20
-7.866309122572737
 30
0.0
 10
111.3323223817721
 20
-7.865873518081705
 30
0.0
 10
111.3659165872824
 20
-7.865330692023199
 30
0.0
 10
111.4061279430583
 20
-7.864663429710069
 30
0.0
 10
111.4461132767424
 20
-7.863989297124269
 30
0.0
 10
111.4860573333173
 20
-7.863312963536337
 30
0.0
 10
111.539391428359
 20
-7.862403506448139
 30
0.0
 10
111.6060742066172
 20
-7.86124800420267
 30
0.0
 10
111.6860752978378
 20
-7.85984256867831
 30
0.0
 10
111.7660764867314
 20
-7.858408177366434
 30
0.0
 10
111.8460776600483
 20
-7.856950470318699
 30
0.0
 10
111.9260788400909
 20
-7.855468043895506
 30
0.0
 10
112.0060799273924
 20
-7.853961473641014
 30
0.0
 10
112.0860809357962
 20
-7.85243019267741
 30
0.0
 10
112.1660819761183
 20
-7.850874411407537
 30
0.0
 10
112.246083238233
 20
-7.849294320094507
 30
0.0
 10
112.3260848132149
 20
-7.847690392633261
 30
0.0
 10
112.4060859799743
 20
-7.846062345867514
 30
0.0
 10
112.4860856299215
 20
-7.844408487995186
 30
0.0
 10
112.5660835792716
 20
-7.842727685843292
 30
0.0
 10
112.646080339621
 20
-7.841023374876407
 30
0.0
 10
112.6994111168801
 20
-7.839868592458477
 30
0.0
 10
112.7260764227246
 20
-7.839287797600056
 30
0.0
  0
SPLINE
  5
567D3
330
1F
100
AcDbEntity
  8
1
100
AcDbSpline
210
0.0
220
0.0
230
1.0
 70
     8
 71
     3
 72
    11
 73
     7
 74
     5
 42
0.0000000001
 43
0.0000000001
 44
0.000001
 12
-0.9994644399647375
 22
-0.0327235885253087
 32
0.0
 13
-0.9994178676848633
 23
-0.0341163560809333
 33
0.0
 40
0.0
 40
0.0
 40
0.0
 40
0.0
 40
0.1545120204158051
 40
0.309231218409867
 40
0.4641407646729704
 40
0.6192401715640349
 40
0.6192401715640349
 40
0.6192401715640349
 40
0.6192401715640349
 10
108.2363663752247
 20
7.789604059699946
 30
0.0
 10
108.1848899519072
 20
7.787918663773846
 30
0.0
 10
108.0818687974256
 20
7.784523759988712
 30
0.0
 10
107.9272411396875
 20
7.779367902736295
 30
0.0
 10
107.7724195973347
 20
7.774151770575665
 30
0.0
 10
107.6691429590961
 20
7.770640232764454
 30
0.0
 10
107.6174732529247
 20
7.768876423899975
 30
0.0
 11
108.2363663752247
 21
7.789604059699946
 31
0.0
 11
108.0819381160246
 21
7.784517007900014
 31
0.0
 11
107.9273048424246
 21
7.779361283700018
 31
0.0
 11
107.7724831494247
 21
7.774144943499982
 31
0.0
 11
107.6174732529247
 21
7.768876423899975
 31
0.0
  0
SPLINE
  5
567D4
330
1F
100
AcDbEntity
  8
1
100
AcDbSpline
210
0.0
220
0.0
230
1.0
 70
     8
 71
     3
 72
    11
 73
     7
 74
     5
 42
0.0000000001
 43
0.0000000001
 44
0.000001
 12
-0.9995471847795291
 22
-0.0300902874582124
 32
0.0
 13
-0.9994959083701687
 23
-0.031747899950885
 33
0.0
 40
0.0
 40
0.0
 40
0.0
 40
0.0
 40
0.1544496945607244
 40
0.3091061196493343
 40
0.4639597581267648
 40
0.6190098954842669
 40
0.6190098954842669
 40
0.6190098954842669
 40
0.6190098954842669
 10
108.8550793993247
 20
7.808770755399997
 30
0.0
 10
108.8036194801953
 20
7.807221610164275
 30
0.0
 10
108.700631504359
 20
7.804096569581297
 30
0.0
 10
108.5460515197693
 20
7.799336491135361
 30
0.0
 10
108.3912734658192
 20
7.794506291757928
 30
0.0
 10
108.2880237011851
 20
7.791244898449345
 30
0.0
 10
108.2363663752247
 20
7.789604059699946
 30
0.0
 11
108.8550793993247
 21
7.808770755399997
 31
0.0
 11
108.7007007162247
 21
7.804087670099967
 31
0.0
 11
108.5461175836248
 21
7.799326875099986
 31
0.0
 11
108.3913392705247
 21
7.794497544599927
 31
0.0
 11
108.2363663752247
 21
7.789604059699946
 31
0.0
  0
SPLINE
  5
567D5
330
1F
100
AcDbEntity
  8
1
100
AcDbSpline
210
0.0
220
0.0
230
1.0
 70
     8
 71
     3
 72
    12
 73
     8
 74
     6
 42
0.0000000001
 43
0.0000000001
 44
0.000001
 12
-0.9996237013556957
 22
-0.0274309257579632
 32
0.0
 13
-0.999569580894037
 23
-0.0293368872125063
 33
0.0
 40
0.0
 40
0.0
 40
0.0
 40
0.0
 40
0.1235159403791675
 40
0.2471684511758318
 40
0.3709516889314839
 40
0.4948592023930049
 40
0.6188876376862228
 40
0.6188876376862228
 40
0.6188876376862228
 40
0.6188876376862228
 10
109.4737167144246
 20
7.826368166799943
 30
0.0
 10
109.4325602272586
 20
7.825238781269788
 30
0.0
 10
109.3502022433002
 20
7.822960623529753
 30
0.0
 10
109.2266003923925
 20
7.819490038284608
 30
0.0
 10
109.1028694444261
 20
7.815967133153843
 30
0.0
 10
108.9790145515022
 20
7.812394883108826
 30
0.0
 10
108.896404416353
 20
7.809983624805777
 30
0.0
 10
108.8550793993247
 20
7.808770755399997
 30
0.0
 11
109.4737167144246
 21
7.826368166799943
 31
0.0
 11
109.3502479695247
 21
7.822953892499959
 31
0.0
 11
109.2266441644248
 21
7.819483521599955
 31
0.0
 11
109.1029110733247
 21
7.81596045199999
 31
0.0
 11
108.9790550633247
 21
7.812388350100014
 31
0.0
 11
108.8550793993247
 21
7.808770755399997
 31
0.0
  0
SPLINE
  5
567D6
330
1F
100
AcDbEntity
  8
1
100
AcDbSpline
210
0.0
220
0.0
230
1.0
 70
     8
 71
     3
 72
    19
 73
    15
 74
    13
 42
0.0000000001
 43
0.0000000001
 44
0.000001
 12
-0.9996937396554852
 22
-0.0247472603257576
 32
0.0
 13
-0.9996381366561076
 23
-0.0268997349932198
 33
0.0
 40
0.0
 40
0.0
 40
0.0
 40
0.0
 40
0.0348316181517922
 40
0.0695626631685008
 40
0.1050327814921903
 40
0.1426425064912989
 40
0.1837334992601624
 40
0.2293517104611979
 40
0.2797778515942428
 40
0.3351552321984077
 40
0.39596897600523
 40
0.4630690579313105
 40
0.5369143094373809
 40
0.6186820482567792
 40
0.6186820482567792
 40
0.6186820482567792
 40
0.6186820482567792
 10
110.0921913555246
 20
7.842382172299983
 30
0.0
 10
110.0805843719885
 20
7.842094843259327
 30
0.0
 10
110.0574039596358
 20
7.841519373080426
 30
0.0
 10
110.0224039376183
 20
7.840645595633933
 30
0.0
 10
109.9864782924154
 20
7.839743753749768
 30
0.0
 10
109.9484334686247
 20
7.838783293383293
 30
0.0
 10
109.9070071895873
 20
7.837730948439898
 30
0.0
 10
109.861310326666
 20
7.83656316296617
 30
0.0
 10
109.8108531095314
 20
7.835265104404134
 30
0.0
 10
109.7553326588879
 20
7.83382637121443
 30
0.0
 10
109.69425641731
 20
7.832231196815991
 30
0.0
 10
109.6270266887368
 20
7.830461128962544
 30
0.0
 10
109.5528151563231
 20
7.828490525626564
 30
0.0
 10
109.5009627644486
 20
7.827101343635021
 30
0.0
 10
109.4737167144246
 20
7.826368166799943
 30
0.0
 11
110.0921913555246
 21
7.842382172299983
 31
0.0
 11
110.0573704671248
 21
7.84151766139994
 31
0.0
 11
110.0226502455247
 21
7.840650620999987
 31
0.0
 11
109.9871913057248
 21
7.839760135899928
 31
0.0
 11
109.9495935671247
 21
7.838810637999962
 31
0.0
 11
109.9085158222247
 21
7.837767283999972
 31
0.0
 11
109.8629124991247
 21
7.83660187249999
 31
0.0
 11
109.8125030349246
 21
7.835305047199972
 31
0.0
 11
109.7571442337246
 21
7.833870646299921
 31
0.0
 11
109.6963512118247
 21
7.832283269599976
 31
0.0
 11
109.6292743704248
 21
7.830517475799957
 31
0.0
 11
109.5554551346247
 21
7.82855758109995
 31
0.0
 11
109.4737167144246
 21
7.826368166799943
 31
0.0
  0
SPLINE
  5
567D7
330
1F
100
AcDbEntity
  8
1
100
AcDbSpline
210
0.0
220
0.0
230
1.0
 70
     8
 71
     3
 72
    27
 73
    23
 74
    21
 42
0.0000000001
 43
0.0000000001
 44
0.000001
 12
-0.9997459890998053
 22
-0.022537907597019
 32
0.0
 13
-0.9997013790808125
 23
-0.0244367073052278
 33
0.0
 40
0.0
 40
0.0
 40
0.0
 40
0.0
 40
0.015871829824697
 40
0.032761039168351
 40
0.0504327619223662
 40
0.068556920332246
 40
0.0867330739002727
 40
0.1047482273721218
 40
0.1225896245294047
 40
0.1409125036293565
 40
0.1606452609610148
 40
0.1827392695038342
 40
0.2079882683253496
 40
0.2369722956765319
 40
0.2696532659104418
 40
0.305581574196894
 40
0.3452192432733431
 40
0.3893333647757442
 40
0.4384633253114349
 40
0.4928212020555646
 40
0.5525713293514492
 40
0.6185534753262069
 40
0.6185534753262069
 40
0.6185534753262069
 40
0.6185534753262069
 10
110.7105771463248
 20
7.856776920599976
 30
0.0
 10
110.7052878802558
 20
7.856657681321982
 30
0.0
 10
110.694370327575
 20
7.856410677760314
 30
0.0
 10
110.6775635918584
 20
7.856035587893609
 30
0.0
 10
110.6600062509817
 20
7.855644466383019
 30
0.0
 10
110.642020005165
 20
7.85524513457235
 30
0.0
 10
110.6239193010075
 20
7.854843697369595
 30
0.0
 10
110.6059128286295
 20
7.854444295600847
 30
0.0
 10
110.5878574735911
 20
7.854043186313727
 30
0.0
 10
110.5692297520859
 20
7.853628150322113
 30
0.0
 10
110.5491848898265
 20
7.853179537330245
 30
0.0
 10
110.5268319778345
 20
7.852675753028647
 30
0.0
 10
110.5013962040307
 20
7.852097536908478
 30
0.0
 10
110.4724324871418
 20
7.851433306960119
 30
0.0
 10
110.4399100912353
 20
7.850680728750112
 30
0.0
 10
110.4038375974654
 20
7.849838869455367
 30
0.0
 10
110.3639552567811
 20
7.848901005630519
 30
0.0
 10
110.319673723628
 20
7.847853667527903
 30
0.0
 10
110.2704869583127
 20
7.846684745925244
 30
0.0
 10
110.2160898526487
 20
7.845384001434187
 30
0.0
 10
110.1560772325679
 20
7.843937499077791
 30
0.0
 10
110.1141788362998
 20
7.842919634429502
 30
0.0
 10
110.0921913555246
 20
7.842382172299983
 30
0.0
 11
110.7105771463248
 21
7.856776920599976
 31
0.0
 11
110.6947093272247
 21
7.856420133399957
 31
0.0
 11
110.6778243398247
 21
7.856042520299956
 31
0.0
 11
110.6601569982247
 21
7.855649042100004
 31
0.0
 11
110.6420373086246
 21
7.855246591599986
 31
0.0
 11
110.6238656253246
 21
7.854843497999956
 31
0.0
 11
110.6058549040247
 21
7.854443906899951
 31
0.0
 11
110.5880179098248
 21
7.854047560000005
 31
0.0
 11
110.5696995790247
 21
7.853639324899951
 31
0.0
 11
110.5499717650247
 21
7.853197660199987
 31
0.0
 11
110.5278833669247
 21
7.852699780400008
 31
0.0
 11
110.5026408874246
 21
7.852126045299974
 31
0.0
 11
110.4736644766248
 21
7.851461620300008
 31
0.0
 11
110.4409922488247
 21
7.850705745000006
 31
0.0
 11
110.4050737156247
 21
7.849867706199951
 31
0.0
 11
110.3654469927246
 21
7.8489362348
 31
0.0
 11
110.3213451987248
 21
7.847893414200007
 31
0.0
 11
110.2722291100247
 21
7.846726005399978
 31
0.0
 11
110.2178867732247
 21
7.845426319099921
 31
0.0
 11
110.1581539902247
 21
7.843986755099969
 31
0.0
 11
110.0921913555246
 21
7.842382172299983
 31
0.0
  0
SPLINE
  5
567D8
330
1F
100
AcDbEntity
  8
1
100
AcDbSpline
210
0.0
220
0.0
230
1.0
 70
     8
 71
     3
 72
    35
 73
    31
 74
    29
 42
0.0000000001
 43
0.0000000001
 44
0.000001
 12
0.0474247762003648
 22
0.9988748122774671
 32
0.0
 13
0.0007612412861747
 23
0.9999997102558102
 33
0.0
 40
0.0
 40
0.0
 40
0.0
 40
0.0
 40
0.0260953298685816
 40
0.05259400401655
 40
0.0782790358668844
 40
0.1022002539678771
 40
0.124028803642015
 40
0.1438374634108892
 40
0.1618247355275209
 40
0.1784267272845721
 40
0.1941817358514607
 40
0.2095837202216952
 40
0.224919565648452
 40
0.2402270473551642
 40
0.2554624688290578
 40
0.2705472401956368
 40
0.285531048007534
 40
0.300541402133831
 40
0.3155358590106541
 40
0.3304394176598158
 40
0.3456092453639024
 40
0.3617081238264033
 40
0.3793777420512956
 40
0.3991599845523555
 40
0.4213024025094182
 40
0.4459787088166462
 40
0.4733601382255922
 40
0.503603348780239
 40
0.5368637898841281
 40
0.5732971078105648
 40
0.5732971078105648
 40
0.5732971078105648
 40
0.5732971078105648
 10
114.2959333896247
 20
5.618361705100006
 30
0.0
 10
114.296345911351
 20
5.627050361007938
 30
0.0
 10
114.2971325119497
 20
5.644564114656081
 30
0.0
 10
114.298184777178
 20
5.670636005340579
 30
0.0
 10
114.2990646641081
 20
5.695989205116055
 30
0.0
 10
114.2997473909415
 20
5.719791154526651
 30
0.0
 10
114.3002513168313
 20
5.741638251222854
 30
0.0
 10
114.300614950693
 20
5.761509814751967
 30
0.0
 10
114.3008728691465
 20
5.779640664530299
 30
0.0
 10
114.3010512076681
 20
5.796421174893994
 30
0.0
 10
114.3011666157249
 20
5.81234044438804
 30
0.0
 10
114.3012323338931
 20
5.827837941479278
 30
0.0
 10
114.3012510906859
 20
5.843186386999229
 30
0.0
 10
114.3012346676435
 20
5.858479301320175
 30
0.0
 10
114.3012019911513
 20
5.873688490842404
 30
0.0
 10
114.3011720568035
 20
5.88878979575316
 30
0.0
 10
114.3011553748914
 20
5.90381609902486
 30
0.0
 10
114.3011449282604
 20
5.918812301629644
 30
0.0
 10
114.3011367781874
 20
5.933781756017754
 30
0.0
 10
114.3011263265486
 20
5.948804366826283
 30
0.0
 10
114.3011147252957
 20
5.964195117384353
 30
0.0
 10
114.3011027942663
 20
5.980507887838985
 30
0.0
 10
114.3010921794821
 20
5.998358131147986
 30
0.0
 10
114.3010832271691
 20
6.018222888749734
 30
0.0
 10
114.3010758630842
 20
6.040423209824451
 30
0.0
 10
114.3010704151526
 20
6.065156593856764
 30
0.0
 10
114.3010687498905
 20
6.092590242694006
 30
0.0
 10
114.3010727364002
 20
6.122885269731705
 30
0.0
 10
114.3010851251431
 20
6.156197590805629
 30
0.0
 10
114.3010982256761
 20
6.17942884050995
 30
0.0
 10
114.3011074705247
 20
6.191573276299981
 30
0.0
 11
114.2959333896247
 21
5.618361705100006
 31
0.0
 11
114.2971078808246
 21
5.644430685099997
 31
0.0
 11
114.2981714028246
 21
5.670908009199912
 31
0.0
 11
114.2990594006246
 21
5.696577703399987
 31
0.0
 11
114.2997449882246
 21
5.720489129899965
 31
0.0
 11
114.3002496562248
 21
5.742311914699918
 31
0.0
 11
114.3006129021246
 21
5.762117424399981
 31
0.0
 11
114.3008683139248
 21
5.780103513099994
 31
0.0
 11
114.3010437059246
 21
5.796703983799978
 31
0.0
 11
114.3011585026247
 21
5.812458380199962
 31
0.0
 11
114.3012236728248
 21
5.827860152900007
 31
0.0
 11
114.3012442339247
 21
5.843195944999968
 31
0.0
 11
114.3012308972246
 21
5.85850339729999
 31
0.0
 11
114.3012013097248
 21
5.873738775699941
 31
0.0
 11
114.3011731916247
 21
5.888823512299929
 31
0.0
 11
114.3011554180247
 21
5.903807304499969
 31
0.0
 11
114.3011443067246
 21
5.918817651199994
 31
0.0
 11
114.3011353836246
 21
5.933812102999901
 31
0.0
 11
114.3011252464247
 21
5.948715656199943
 31
0.0
 11
114.3011140146247
 21
5.963885477999928
 31
0.0
 11
114.3011025279246
 21
5.979984350799987
 31
0.0
 11
114.3010919992246
 21
5.997653964499909
 31
0.0
 11
114.3010829526247
 21
6.017436203699991
 31
0.0
 11
114.3010755330247
 21
6.039578619299994
 31
0.0
 11
114.3010702366247
 21
6.064254923999987
 31
0.0
 11
114.3010686424247
 21
6.091636352399894
 31
0.0
 11
114.3010727584246
 21
6.121879561800008
 31
0.0
 11
114.3010847484246
 21
6.155139999900007
 31
0.0
 11
114.3011074705247
 21
6.191573276299981
 31
0.0
  0
SPLINE
  5
567D9
330
1F
100
AcDbEntity
  8
1
100
AcDbSpline
210
0.0
220
0.0
230
1.0
 70
     8
 71
     3
 72
    28
 73
    24
 74
    22
 42
0.0000000001
 43
0.0000000001
 44
0.000001
 12
0.0505037277036042
 22
0.9987238724933135
 32
0.0
 13
0.0531323364493326
 23
0.9985874798050669
 33
0.0
 40
0.0
 40
0.0
 40
0.0
 40
0.0
 40
0.0410107444534724
 40
0.0820575948256974
 40
0.1229981631173879
 40
0.1638820248870362
 40
0.2053937887705912
 40
0.2484375347211479
 40
0.29310844001062
 40
0.3389848210509635
 40
0.3861362564233951
 40
0.4339321107548276
 40
0.4795573266407659
 40
0.5247928895870913
 40
0.5722282028353105
 40
0.6190387387114534
 40
0.6650344570158758
 40
0.7106509715607558
 40
0.7550523293991932
 40
0.7977578114722861
 40
0.8393020142573169
 40
0.8801028348795361
 40
0.9200483444892881
 40
0.9200483444892881
 40
0.9200483444892881
 40
0.9200483444892881
 10
114.2459174920248
 20
4.699681120399908
 30
0.0
 10
114.246607890515
 20
4.713333923571377
 30
0.0
 10
114.247995529184
 20
4.740651234545892
 30
0.0
 10
114.2500863340027
 20
4.781597276809133
 30
0.0
 10
114.2521913859001
 20
4.822500239657368
 30
0.0
 10
114.2543220554263
 20
4.863557056501346
 30
0.0
 10
114.2565056818396
 20
4.905313123910606
 30
0.0
 10
114.2587654462044
 20
4.948329280647776
 30
0.0
 10
114.2611055750816
 20
4.992798093747506
 30
0.0
 10
114.2635139506691
 20
5.038634439941972
 30
0.0
 10
114.2659645600548
 20
5.08551165249425
 30
0.0
 10
114.2683891152991
 20
5.132306388504048
 30
0.0
 10
114.270750994219
 20
5.178464879416027
 30
0.0
 10
114.2731085257058
 20
5.224503254348269
 30
0.0
 10
114.2755191089862
 20
5.270934532951443
 30
0.0
 10
114.2780095603884
 20
5.317615361943733
 30
0.0
 10
114.2805658395812
 20
5.363685458377629
 30
0.0
 10
114.2832005151737
 20
5.408946794123417
 30
0.0
 10
114.2859319505822
 20
5.453103579510194
 30
0.0
 10
114.2886568243149
 20
5.495900599868539
 30
0.0
 10
114.2912778855304
 20
5.537501616379216
 30
0.0
 10
114.2937407104276
 20
5.578190774614079
 30
0.0
 10
114.2952259235393
 20
5.605065343176429
 30
0.0
 10
114.2959333896247
 20
5.618361705100006
 30
0.0
 11
114.2459174920248
 21
4.699681120399908
 31
0.0
 11
114.2479957265248
 21
4.74063918159991
 31
0.0
 11
114.2500898859248
 21
4.781632576499966
 31
0.0
 11
114.2521942910248
 21
4.822519024500002
 31
0.0
 11
114.2543128984247
 21
4.863347956399969
 31
0.0
 11
114.2564796259246
 21
4.904803135199904
 31
0.0
 11
114.2587366330247
 21
4.947787667099965
 31
0.0
 11
114.2610828669246
 21
4.99239691439991
 31
0.0
 11
114.2634886558246
 21
5.038210170999923
 31
0.0
 11
114.2659487357248
 21
5.085297385999957
 31
0.0
 11
114.2684203297247
 21
5.133029292099968
 31
0.0
 11
114.2707569304248
 21
5.17859463609998
 31
0.0
 11
114.2730752279248
 21
5.223770753899976
 31
0.0
 11
114.2755402686247
 21
5.271141974100011
 31
0.0
 11
114.2780397692246
 21
5.31788573059996
 31
0.0
 11
114.2805927084246
 21
5.36381054549995
 31
0.0
 11
114.2832510081247
 21
5.409349538300012
 31
0.0
 11
114.2859794427246
 21
5.453666986599934
 31
0.0
 11
114.2886756528246
 21
5.496287270599943
 31
0.0
 11
114.2912752628246
 21
5.537750057799974
 31
0.0
 11
114.2937209497246
 21
5.578477510699919
 31
0.0
 11
114.2959333896247
 21
5.618361705100006
 31
0.0
  0
SPLINE
  5
567DA
330
1F
100
AcDbEntity
  8
1
100
AcDbSpline
210
0.0
220
0.0
230
1.0
 70
     8
 71
     3
 72
    16
 73
    12
 74
    10
 42
0.0000000001
 43
0.0000000001
 44
0.000001
 12
0.0509680964600275
 22
0.9987002819381006
 32
0.0
 13
0.0559064043491259
 23
0.9984360139501941
 33
0.0
 40
0.0
 40
0.0
 40
0.0
 40
0.0
 40
0.0862878034083172
 40
0.1826332969576089
 40
0.2892888570444729
 40
0.3994272249936159
 40
0.5034473337801111
 40
0.604563890326649
 40
0.7083092999935249
 40
0.8143287417594807
 40
0.9209133291018268
 40
0.9209133291018268
 40
0.9209133291018268
 40
0.9209133291018268
 10
114.1966836396247
 20
3.780085732399903
 30
0.0
 10
114.1981496146538
 20
3.808810950263805
 30
0.0
 10
114.2012659983152
 20
3.869608902455285
 30
0.0
 10
114.2062644959898
 20
3.965908888468871
 30
0.0
 10
114.2117154421029
 20
4.070146271338954
 30
0.0
 10
114.2173579387436
 20
4.176935324996795
 30
0.0
 10
114.222963460182
 20
4.281877405837739
 30
0.0
 10
114.2285252543753
 20
4.384687774997128
 30
0.0
 10
114.2341833869275
 20
4.488160330241356
 30
0.0
 10
114.2399883702506
 20
4.593450244938746
 30
0.0
 10
114.2439312383457
 20
4.664208490221702
 30
0.0
 10
114.2459174920248
 20
4.699681120399908
 30
0.0
 11
114.1966836396247
 21
3.780085732399903
 31
0.0
 11
114.2011041399247
 21
3.866260231799948
 31
0.0
 11
114.2060932428247
 21
3.96247646139998
 31
0.0
 11
114.2116652931247
 21
4.068986371399978
 31
0.0
 11
114.2174754084247
 21
4.178971386700006
 31
0.0
 11
114.2230260292247
 21
4.282843292299935
 31
0.0
 11
114.2284866070248
 21
4.383812298199963
 31
0.0
 11
114.2341488468246
 21
4.487403078399985
 31
0.0
 11
114.2399882071247
 21
4.593261584200013
 31
0.0
 11
114.2459174920248
 21
4.699681120399908
 31
0.0
  0
SPLINE
  5
567DB
330
1F
100
AcDbEntity
  8
1
100
AcDbSpline
210
0.0
220
0.0
230
1.0
 70
     8
 71
     3
 72
    14
 73
    10
 74
     8
 42
0.0000000001
 43
0.0000000001
 44
0.000001
 12
0.0516999177532247
 22
0.9986626650197301
 32
0.0
 13
0.0564404773313718
 23
0.9984059657867669
 33
0.0
 40
0.0
 40
0.0
 40
0.0
 40
0.0
 40
0.0526376799272741
 40
0.1048304713250845
 40
0.1590491743525231
 40
0.2163390104692139
 40
0.2774900723546322
 40
0.3438838136863173
 40
0.4181014278763435
 40
0.4181014278763435
 40
0.4181014278763435
 40
0.4181014278763435
 10
114.1739968267248
 20
3.36260065539998
 30
0.0
 10
114.1749039479657
 20
3.380123083972188
 30
0.0
 10
114.176723534366
 20
3.415019170877361
 30
0.0
 10
114.1795210825158
 20
3.467961704800959
 30
0.0
 10
114.1824378846134
 20
3.522450806814652
 30
0.0
 10
114.185552438117
 20
3.579919675834196
 30
0.0
 10
114.1889277376858
 20
3.641438701987025
 30
0.0
 10
114.19265690093
 20
3.708589377382948
 30
0.0
 10
114.1952873471009
 20
3.755385962808642
 30
0.0
 10
114.1966836396247
 20
3.780085732399903
 30
0.0
 11
114.1739968267248
 21
3.36260065539998
 31
0.0
 11
114.1767367852247
 21
3.415166983199901
 31
0.0
 11
114.1794903036247
 21
3.467287102199953
 31
0.0
 11
114.1823880363247
 21
3.521428328299953
 31
0.0
 11
114.1854886247247
 21
3.578634202399917
 31
0.0
 11
114.1888389510247
 21
3.639693409099983
 31
0.0
 11
114.1925202487248
 21
3.705984998199973
 31
0.0
 11
114.1966836396247
 21
3.780085732399903
 31
0.0
  0
SPLINE
  5
567DC
330
1F
100
AcDbEntity
  8
1
100
AcDbSpline
210
0.0
220
0.0
230
1.0
 70
     8
 71
     3
 72
    13
 73
     9
 74
     7
 42
0.0000000001
 43
0.0000000001
 44
0.000001
 12
0.0536598277861278
 22
0.9985592735946941
 32
0.0
 13
0.0566602509257198
 23
0.9983935175896499
 33
0.0
 40
0.0
 40
0.0
 40
0.0
 40
0.0
 40
0.1173461409440063
 40
0.2212885655643584
 40
0.3139587850108828
 40
0.3969186701326134
 40
0.4711643223495587
 40
0.537768045164315
 40
0.537768045164315
 40
0.537768045164315
 40
0.537768045164315
 10
114.1444458060247
 20
2.825645339899984
 30
0.0
 10
114.1465447305962
 20
2.86470436565338
 30
0.0
 10
114.1505204902787
 20
2.938360001644481
 30
0.0
 10
114.1562139055098
 20
3.042857949971317
 30
0.0
 10
114.1613249085883
 20
3.13590853519249
 30
0.0
 10
114.1659286400149
 20
3.219073130138233
 30
0.0
 10
114.1700896197258
 20
3.293560091907333
 30
0.0
 10
114.1727388988423
 20
3.340435080364783
 30
0.0
 10
114.1739968267248
 20
3.36260065539998
 30
0.0
 11
114.1444458060247
 21
2.825645339899984
 31
0.0
 11
114.1507727514247
 21
2.942820788999973
 31
0.0
 11
114.1564274068247
 21
3.046609287599983
 31
0.0
 11
114.1615103985247
 21
3.139139999800001
 31
0.0
 11
114.1660975253246
 21
3.221972968199998
 31
0.0
 11
114.1702412128247
 21
3.29610289589997
 31
0.0
 11
114.1739968267248
 21
3.36260065539998
 31
0.0
  0
ARC
  5
567DD
330
1F
100
AcDbEntity
  8
1
100
AcDbCircle
 10
106.2110685806247
 20
10.46500000000001
 30
0.0
 40
3.0
100
AcDbArc
 50
270.0
 51
295.8597579999988
  0
ARC
  5
567DE
330
1F
100
AcDbEntity
  8
1
100
AcDbCircle
 10
112.8302475806246
 20
6.279265999999985
 30
0.0
 40
1.470823
100
AcDbArc
 50
2.097336999998009
 51
3.929238999998266
  0
ARC
  5
567DF
330
1F
100
AcDbEntity
  8
1
100
AcDbCircle
 10
106.2110685806247
 20
-10.46500000000005
 30
0.0
 40
3.0
100
AcDbArc
 50
64.14024200000112
 51
90.0
  0
ARC
  5
567E0
330
1F
100
AcDbEntity
  8
1
100
AcDbCircle
 10
114.1486670794968
 20
-7.123405099952342
 30
0.0
 40
0.0922555754652543
100
AcDbArc
 50
148.8910202473253
 51
152.8935128579593
  0
ARC
  5
567E1
330
1F
100
AcDbEntity
  8
1
100
AcDbCircle
 10
112.8171625806247
 20
-6.279465999999977
 30
0.0
 40
1.483902
100
AcDbArc
 50
355.3259000000013
 51
355.9917779999982
  0
ARC
  5
567E2
330
1F
100
AcDbEntity
  8
1
100
AcDbCircle
 10
112.8055615806247
 20
-6.275813999999988
 30
0.0
 40
1.495763999999999
100
AcDbArc
 50
346.2630430000001
 51
355.2226950000017
  0
ARC
  5
567E3
330
1F
100
AcDbEntity
  8
1
100
AcDbCircle
 10
112.7686385806246
 20
-6.257712999999986
 30
0.0
 40
1.536838999999999
100
AcDbArc
 50
327.8404539999986
 51
328.4453779999974
  0
ARC
  5
567E4
330
1F
100
AcDbEntity
  8
1
100
AcDbCircle
 10
112.7894855806246
 20
-5.845458000000028
 30
0.0
 40
1.992233
100
AcDbArc
 50
273.2229560000009
 51
273.9326379999982
  0
ARC
  5
567E5
330
1F
100
AcDbEntity
  8
1
100
AcDbCircle
 10
111.9858095806246
 20
-4.981468000000027
 30
0.0
 40
3.073401
100
AcDbArc
 50
298.8466259999999
 51
300.914294999999
  0
ARC
  5
567E6
330
1F
100
AcDbEntity
  8
1
100
AcDbCircle
 10
112.0391125806246
 20
-4.802563999999981
 30
0.0
 40
3.207148
100
AcDbArc
 50
294.492050999998
 51
296.4698239999989
  0
LINE
  5
567E7
330
1F
100
AcDbEntity
  8
1
100
AcDbLine
 10
109.1512825806247
 20
7.817347999999959
 30
0.0
 11
109.1279465806247
 21
7.816680999999995
 31
0.0
  0
LINE
  5
567E8
330
1F
100
AcDbEntity
  8
1
100
AcDbLine
 10
114.3010635806246
 20
-6.314153000000053
 30
0.0
 11
114.2974345806248
 21
-6.383190000000034
 31
0.0
  0
LINE
  5
567E9
330
1F
100
AcDbEntity
  8
1
100
AcDbLine
 10
114.3010825806247
 20
-6.229900000000008
 30
0.0
 11
114.3010635806246
 21
-6.314153000000053
 31
0.0
  0
LINE
  5
567EA
330
1F
100
AcDbEntity
  8
1
100
AcDbLine
 10
114.3011075806246
 20
-6.191573000000026
 30
0.0
 11
114.3010825806247
 21
-6.229900000000008
 31
0.0
  0
LINE
  5
567EB
330
1F
100
AcDbEntity
  8
1
100
AcDbLine
 10
107.6174735806246
 20
-7.768875999999997
 30
0.0
 11
107.5195785806247
 21
-7.765407000000002
 31
0.0
  0
LINE
  5
567EC
330
1F
100
AcDbEntity
  8
1
100
AcDbLine
 10
114.1010115806247
 20
-2.032881999999993
 30
0.0
 11
114.1444455806246
 21
-2.825645000000028
 31
0.0
  0
LINE
  5
567ED
330
1F
100
AcDbEntity
  8
1
100
AcDbLine
 10
114.0436685806246
 20
-0.9883540000000364
 30
0.0
 11
114.1010115806247
 21
-2.032881999999993
 31
0.0
  0
LINE
  5
567EE
330
1F
100
AcDbEntity
  8
1
100
AcDbLine
 10
114.0150545806247
 20
-0.4694960000000137
 30
0.0
 11
114.0436685806246
 21
-0.9883540000000364
 31
0.0
  0
LINE
  5
567EF
330
1F
100
AcDbEntity
  8
1
100
AcDbLine
 10
114.0009335806246
 20
-0.2176460000000233
 30
0.0
 11
114.0150545806247
 21
-0.4694960000000137
 31
0.0
  0
LINE
  5
567F0
330
1F
100
AcDbEntity
  8
1
100
AcDbLine
 10
112.7260765806246
 20
-7.83928800000003
 30
0.0
 11
112.8615725806246
 21
-7.836294000000029
 31
0.0
  0
LINE
  5
567F1
330
1F
100
AcDbEntity
  8
1
100
AcDbLine
 10
112.8615725806246
 20
-7.836294000000029
 30
0.0
 11
112.9014925806246
 21
-7.834540000000025
 31
0.0
  0
LINE
  5
567F2
330
1F
100
AcDbEntity
  8
1
100
AcDbLine
 10
113.9890885806247
 20
0.1953489999999434
 30
0.0
 11
113.9890235806247
 21
0.0669429999999594
 31
0.0
  0
LINE
  5
567F3
330
1F
100
AcDbEntity
  8
1
100
AcDbLine
 10
113.9890235806247
 20
-0.066943000000002
 30
0.0
 11
113.9890912280481
 21
-0.1953521013678241
 31
0.0
  0
LINE
  5
567F4
330
1F
100
AcDbEntity
  8
1
100
AcDbLine
 10
113.9890235806247
 20
0.0669429999999594
 30
0.0
 11
113.9890235806247
 21
-0.066943000000002
 31
0.0
  0
LINE
  5
567F5
330
1F
100
AcDbEntity
  8
1
100
AcDbLine
 10
107.6174735806246
 20
7.768875999999956
 30
0.0
 11
107.5195785806247
 21
7.765406999999959
 31
0.0
  0
LINE
  5
567F6
330
1F
100
AcDbEntity
  8
1
100
AcDbLine
 10
114.3011075806246
 20
6.191572999999983
 30
0.0
 11
114.3010825806247
 21
6.229899999999965
 31
0.0
  0
LINE
  5
567F7
330
1F
100
AcDbEntity
  8
1
100
AcDbLine
 10
114.3010685806246
 20
6.279400999999985
 30
0.0
 11
114.3010635806246
 21
6.314153000000011
 31
0.0
  0
LINE
  5
567F8
330
1F
100
AcDbEntity
  8
1
100
AcDbLine
 10
114.3010825806247
 20
6.229899999999965
 30
0.0
 11
114.3010685806246
 21
6.279400999999985
 31
0.0
  0
LINE
  5
567F9
330
1F
100
AcDbEntity
  8
1
100
AcDbLine
 10
114.3010635806246
 20
6.314153000000011
 30
0.0
 11
114.2918413919032
 21
6.489593133031497
 31
0.0
  0
LINE
  5
567FA
330
1F
100
AcDbEntity
  8
1
100
AcDbLine
 10
114.1010115806247
 20
2.032881999999951
 30
0.0
 11
114.1444455806246
 21
2.825644999999986
 31
0.0
  0
LINE
  5
567FB
330
1F
100
AcDbEntity
  8
1
100
AcDbLine
 10
114.0436685806246
 20
0.9883539999999939
 30
0.0
 11
114.1010115806247
 21
2.032881999999951
 31
0.0
  0
LINE
  5
567FC
330
1F
100
AcDbEntity
  8
1
100
AcDbLine
 10
114.0150545806247
 20
0.4694959999999712
 30
0.0
 11
114.0436685806246
 21
0.9883539999999939
 31
0.0
  0
LINE
  5
567FD
330
1F
100
AcDbEntity
  8
1
100
AcDbLine
 10
113.9890885801367
 20
0.1953480361444022
 30
0.0
 11
114.0009335806246
 21
0.2176459999999807
 31
0.0
  0
LINE
  5
567FE
330
1F
100
AcDbEntity
  8
1
100
AcDbLine
 10
114.0009335806246
 20
0.2176459999999807
 30
0.0
 11
114.0150545806247
 21
0.4694959999999712
 31
0.0
  0
LINE
  5
567FF
330
1F
100
AcDbEntity
  8
1
100
AcDbLine
 10
102.3110685806247
 20
7.30999999999998
 30
0.0
 11
102.4660685806246
 21
7.465000000000009
 31
0.0
  0
LINE
  5
56800
330
1F
100
AcDbEntity
  8
1
100
AcDbLine
 10
106.2110685806247
 20
7.465000000000009
 30
0.0
 11
102.4660685806246
 21
7.465000000000009
 31
0.0
  0
LINE
  5
56801
330
1F
100
AcDbEntity
  8
1
100
AcDbLine
 10
102.4660685806246
 20
-7.465000000000052
 30
0.0
 11
106.2110685806247
 21
-7.465000000000052
 31
0.0
  0
LINE
  5
56802
330
1F
100
AcDbEntity
  8
1
100
AcDbLine
 10
102.3110685806247
 20
-7.310000000000022
 30
0.0
 11
102.4660685806246
 21
-7.465000000000052
 31
0.0
  0
LINE
  5
56803
330
1F
100
AcDbEntity
  8
1
100
AcDbLine
 10
110.9402600076246
 20
7.861757866899985
 30
0.0
 11
112.7537605015258
 21
7.910315411858198
 31
0.0
  0
ARC
  5
56804
102
{ACAD_REACTORS
330
56807
102
}
330
1F
100
AcDbEntity
  8
1
100
AcDbCircle
 10
112.793909496446
 20
6.410852822059132
 30
0.0
 40
1.5
100
AcDbArc
 50
3.009041349568307
 51
91.53376181350839
  0
DIMENSION
  5
56805
102
{ACAD_XDICTIONARY
360
56806
102
}
102
{ACAD_REACTORS
330
56807
102
}
330
1F
100
AcDbEntity
  8
2
100
AcDbDimension
  2
*D12
 10
112.793909496446
 20
6.41085282205914
 30
0.0
 11
131.1313744865999
 21
27.96558812189516
 31
0.0
 70
    36
 71
     5
 42
1.500000000000127
  3
\M+18352\M+18373\M+1815B - ISO-25
100
AcDbRadialDimension
 15
113.9193713374105
 25
7.402485639453395
 35
0.0
 40
0.0
1001
ACAD
1000
DSTYLE
1002
{
1070
     4
1000
"
1070
    40
1040
1.0
1070
   143
1040
0.03937
1070
   170
1070
     1
1070
   171
1070
     3
1070
   271
1070
     8
1070
   285
1070
     4
1002
}
  0
LINE
  5
56808
330
1F
100
AcDbEntity
  8
1
100
AcDbLine
 10
113.9890895806246
 20
-0.195348999999986
 30
0.0
 11
114.0009335806246
 21
-0.2176460000000233
 31
0.0
  0
LINE
  5
56809
330
1F
100
AcDbEntity
  8
1
100
AcDbLine
 10
110.6962978402655
 20
-7.855866369523048
 30
0.0
 11
110.524634445788
 21
-7.852626218353825
 31
0.0
  0
LINE
  5
5680A
330
1F
100
AcDbEntity
  8
cut
100
AcDbLine
 10
107.9
 20
7.827054327199995
 30
0.0
 11
111.1999999999999
 21
7.999999998899943
 31
0.0
1001
ACAD
1000
RTMaterial
1005
0
  0
LINE
  5
5680B
330
1F
100
AcDbEntity
  8
cut
100
AcDbLine
 10
102.3000000000001
 20
7.464999998899975
 30
0.0
 11
106.4712793718
 21
7.464999998899975
 31
0.0
1001
ACAD
1000
RTMaterial
1005
0
  0
LINE
  5
5680C
330
1F
100
AcDbEntity
  8
cut
100
AcDbLine
 10
111.1999999999999
 20
7.999999998899943
 30
0.0
 11
112.7999999999999
 21
7.999999998899943
 31
0.0
1001
ACAD
1000
RTMaterial
1005
0
  0
LINE
  5
5680D
330
1F
100
AcDbEntity
  8
cut
100
AcDbLine
 10
114.3
 20
5.999999998900397
 30
0.0
 11
114.3
 21
6.499999998899943
 31
0.0
1001
ACAD
1000
RTMaterial
1005
0
  0
LINE
  5
5680E
330
1F
100
AcDbEntity
  8
cut
100
AcDbLine
 10
113.9855533243
 20
-0.0000000011000552
 30
0.0
 11
114.3
 21
5.999999998899943
 31
0.0
1001
ACAD
1000
RTMaterial
1005
0
  0
ARC
  5
5680F
330
1F
100
AcDbEntity
  8
cut
100
AcDbCircle
 10
106.4712793718
 20
10.46499999889997
 30
0.0
 40
3.0
100
AcDbArc
 50
270.0
 51
298.4401306930016
1001
ACAD
1000
RTMaterial
1005
0
  0
ARC
  5
56810
330
1F
100
AcDbEntity
  8
cut
100
AcDbCircle
 10
112.7999999999999
 20
6.499999998899943
 30
0.0
 40
1.5
100
AcDbArc
 50
0.0
 51
90.0
1001
ACAD
1000
RTMaterial
1005
0
  0
LINE
  5
56811
330
1F
100
AcDbEntity
  8
cut
100
AcDbLine
 10
107.9
 20
-7.827054329399992
 30
0.0
 11
111.1999999999999
 21
-8.000000001100055
 31
0.0
1001
ACAD
1000
RTMaterial
1005
0
  0
LINE
  5
56812
330
1F
100
AcDbEntity
  8
cut
100
AcDbLine
 10
102.3000000000001
 20
-7.46500000110003
 30
0.0
 11
106.4712793718
 21
-7.46500000110003
 31
0.0
1001
ACAD
1000
RTMaterial
1005
0
  0
LINE
  5
56813
330
1F
100
AcDbEntity
  8
cut
100
AcDbLine
 10
111.1999999999999
 20
-8.000000001100055
 30
0.0
 11
112.7999999999999
 21
-8.000000001100055
 31
0.0
1001
ACAD
1000
RTMaterial
1005
0
  0
LINE
  5
56814
330
1F
100
AcDbEntity
  8
cut
100
AcDbLine
 10
114.3
 20
-6.000000001100452
 30
0.0
 11
114.3
 21
-6.500000001100055
 31
0.0
1001
ACAD
1000
RTMaterial
1005
0
  0
LINE
  5
56815
330
1F
100
AcDbEntity
  8
cut
100
AcDbLine
 10
102.2999999999999
 20
7.464999998899975
 30
0.0
 11
102.2999999999999
 21
-7.46500000110003
 31
0.0
1001
ACAD
1000
RTMaterial
1005
0
  0
LINE
  5
56816
330
1F
100
AcDbEntity
  8
cut
100
AcDbLine
 10
113.9855533243
 20
-0.0000000011000552
 30
0.0
 11
114.3
 21
-6.000000001100055
 31
0.0
1001
ACAD
1000
RTMaterial
1005
0
  0
ARC
  5
56817
330
1F
100
AcDbEntity
  8
cut
100
AcDbCircle
 10
106.4712793718
 20
-10.46500000110003
 30
0.0
 40
3.0
100
AcDbArc
 50
61.55986930699842
 51
90.0
1001
ACAD
1000
RTMaterial
1005
0
  0
ARC
  5
56818
330
1F
100
AcDbEntity
  8
cut
100
AcDbCircle
 10
112.7999999999999
 20
-6.500000001100055
 30
0.0
 40
1.5
100
AcDbArc
 50
270.0
 51
0.0
1001
ACAD
1000
RTMaterial
1005
0
  0
LINE
  5
568D6
330
1F
100
AcDbEntity
  8
1
100
AcDbLine
 10
103.1743418320972
 20
-7.465000000000052
 30
0.0
 11
103.1743418320972
 21
-7.191612125099992
 31
0.0
  0
LINE
  5
568D7
330
1F
100
AcDbEntity
  8
1
100
AcDbLine
 10
103.1743418320972
 20
6.434071439746054
 30
0.0
 11
103.1743418320972
 21
7.464999998800017
 31
0.0
  0
LINE
  5
568D8
330
1F
100
AcDbEntity
  8
1
100
AcDbLine
 10
102.3100148320972
 20
7.30999999999998
 30
0.0
 11
102.3100148320972
 21
6.697637543922133
 31
0.0
  0
LINE
  5
568D9
330
1F
100
AcDbEntity
  8
1
100
AcDbLine
 10
102.3100148320972
 20
-7.191612125099992
 30
0.0
 11
102.3100148320972
 21
-7.310000000000022
 31
0.0
  0
DIMENSION
  5
56B86
330
1F
100
AcDbEntity
  8
sk2
100
AcDbDimension
  2
*D22
 10
114.3
 20
51.06385882017696
 30
0.0
 11
12.70000700000004
 21
51.06385882017696
 31
0.0
 70
   160
 71
     5
 41
0.892857
 42
203.2
  3
\M+18352\M+18373\M+1815B - ISO-25
100
AcDbAlignedDimension
 13
-88.89999999999997
 23
6.937515000000018
 33
0.0
 14
114.3
 24
0.0
 34
0.0
 50
180.0
100
AcDbRotatedDimension
1001
ACAD
1000
DSTYLE
1002
{
1070
     4
1000
"
1070
    40
1040
1.0
1070
   143
1040
0.03937
1070
   170
1070
     1
1070
   171
1070
     3
1070
   271
1070
     8
1070
   285
1070
     4
1002
}
  0
DIMENSION
  5
56B87
330
1F
100
AcDbEntity
  8
2
100
AcDbDimension
  2
*D23
 10
0.000000000000016
 20
36.67664276870477
 30
0.0
 11
52.7311534547397
 21
36.67664276870477
 31
0.0
 70
   160
 71
     5
 41
0.892857
 42
114.3
  3
\M+18352\M+18373\M+1815B - ISO-25
100
AcDbAlignedDimension
 13
114.3
 23
0.0
 33
0.0
 14
0.0000000000000142
 24
7.937499999999971
 34
0.0
 50
180.0
100
AcDbRotatedDimension
1001
ACAD
1000
DSTYLE
1002
{
1070
     4
1000
"
1070
    40
1040
1.0
1070
   143
1040
0.03937
1070
   170
1070
     1
1070
   171
1070
     3
1070
   271
1070
     8
1070
   285
1070
     4
1002
}
  0
DIMENSION
  5
56B89
330
1F
100
AcDbEntity
  8
sk2
100
AcDbDimension
  2
*D25
 10
-116.200111
 20
7.937500000000007
 30
0.0
 11
-116.200111
 21
-39.59375000000003
 31
0.0
 70
   160
  1
%%c<>
 71
     5
 41
0.892857
 42
15.875
  3
\M+18352\M+18373\M+1815B - ISO-25
100
AcDbAlignedDimension
 13
-88.11453042549139
 23
-7.9375
 33
0.0
 14
-87.89999900000003
 24
7.9375
 34
0.0
 50
270.0
100
AcDbRotatedDimension
1001
ACAD
1000
DSTYLE
1002
{
1070
     4
1000
%%C[]"
1070
    40
1040
1.0
1070
   143
1040
0.03937
1070
   170
1070
     1
1070
   171
1070
     3
1070
   271
1070
     8
1070
   285
1070
     4
1002
}
  0
LINE
  5
56B8B
330
1F
100
AcDbEntity
  8
sk1
100
AcDbLine
 10
-88.89999999999997
 20
0.0
 30
0.0
 11
-88.89999999999997
 21
-6.9375
 31
0.0
  0
LINE
  5
56B8D
330
1F
100
AcDbEntity
  8
sk4
100
AcDbLine
 10
-94.77087999999996
 20
0.0
 30
0.0
 11
0.0000000000000142
 21
0.0
 31
0.0
  0
LINE
  5
56B8F
330
1F
100
AcDbEntity
  8
sk1
100
AcDbLine
 10
-87.89999999999995
 20
-7.9375
 30
0.0
 11
-0.0000059999999706
 21
-7.9375
 31
0.0
  0
LINE
  5
56B90
330
1F
100
AcDbEntity
  8
sk1
100
AcDbLine
 10
-87.90001100000003
 20
-7.937498000000005
 30
0.0
 11
-88.90001099999995
 21
-6.937498000000005
 31
0.0
  0
LINE
  5
56B91
330
1F
100
AcDbEntity
  8
sk1
100
AcDbLine
 10
-87.89999999999995
 20
-7.9375
 30
0.0
 11
-87.89999999999995
 21
0.0
 31
0.0
  0
LINE
  5
56B92
330
1F
100
AcDbEntity
  8
sk1
100
AcDbLine
 10
-88.89999999999997
 20
0.0
 30
0.0
 11
-88.89999999999997
 21
6.9375
 31
0.0
  0
LINE
  5
56B94
330
1F
100
AcDbEntity
  8
sk1
100
AcDbLine
 10
-87.89999999999995
 20
7.9375
 30
0.0
 11
-87.89999999999995
 21
0.0
 31
0.0
  0
LINE
  5
56B95
330
1F
100
AcDbEntity
  8
sk1
100
AcDbLine
 10
-87.89999599999998
 20
7.937518000000011
 30
0.0
 11
-88.89999700000002
 21
6.937517000000013
 31
0.0
  0
LINE
  5
56B96
330
1F
100
AcDbEntity
  8
sk1
100
AcDbLine
 10
-87.89999999999995
 20
7.9375
 30
0.0
 11
0.0000000000000142
 21
7.937499999999971
 31
0.0
  0
VIEWPORT
  5
6B
102
{ACAD_XDICTIONARY
360
56CA5
102
}
330
50
100
AcDbEntity
 67
     1
  8
0
100
AcDbViewport
 10
150.1652135264906
 20
160.4455827878762
 30
0.0
 40
339.1973820494346
 41
282.2272140146125
 68
     1
 69
     1
 12
150.1652135264906
 22
160.4455827878762
 13
0.0
 23
0.0
 14
10.0
 24
10.0
 15
10.0
 25
10.0
 16
0.0
 26
0.0
 36
1.0
 17
0.0
 27
0.0
 37
0.0
 42
50.0
 43
0.0
 44
0.0
 45
282.2272140146125
 50
0.0
 51
0.0
 72
  1000
 90
    32864
  1

281
     0
 71
     1
 74
     0
110
0.0
120
0.0
130
0.0
111
1.0
121
0.0
131
0.0
112
0.0
122
1.0
132
0.0
 79
     0
146
0.0
  0
VIEWPORT
  5
6D
102
{ACAD_XDICTIONARY
360
56CA7
102
}
330
50
100
AcDbEntity
 67
     1
  8
0
100
AcDbViewport
 10
133.3499939441681
 20
101.5999939441681
 30
0.0
 40
213.3599903106689
 41
162.5599903106689
 68
     2
 69
     2
 12
210.0
 22
148.5
 13
0.0
 23
0.0
 14
10.0
 24
10.0
 15
10.0
 25
10.0
 16
0.0
 26
0.0
 36
1.0
 17
0.0
 27
0.0
 37
0.0
 42
50.0
 43
0.0
 44
0.0
 45
324.0677920111345
 50
0.0
 51
0.0
 72
   100
 90
    32864
  1

281
     0
 71
     1
 74
     0
110
0.0
120
0.0
130
0.0
111
1.0
121
0.0
131
0.0
112
0.0
122
1.0
132
0.0
 79
     0
146
0.0
  0
ENDSEC
  0
SECTION
  2
OBJECTS
  0
DICTIONARY
  5
C
330
0
100
AcDbDictionary
281
     1
  3
ACAD_COLOR
350
85
  3
ACAD_GROUP
350
D
  3
ACAD_LAYOUT
350
1A
  3
ACAD_MATERIAL
350
84
  3
ACAD_MLINESTYLE
350
17
  3
ACAD_PLOTSETTINGS
350
19
  3
ACAD_PLOTSTYLENAME
350
E
  3
ACAD_TABLESTYLE
350
A1
  3
ACDBHEADERROUNDTRIPXREC
350
56CA0
  3
AcDbVariableDictionary
350
5E
  3
ASE_INDEX_DICTIONARY
350
349E9
  3
DWGPROPS
350
56C9F
  0
DICTIONARY
  5
E2
330
2
100
AcDbDictionary
280
     1
281
     1
  3
ACAD_LAYERFILTERS
360
556D1
  3
ACAD_LAYERSTATES
360
3759A
  3
ACLYDICTIONARY
360
556D0
  0
DICTIONARY
  5
31EE
330
1F
100
AcDbDictionary
280
     1
281
     1
  3
ACAD_SORTENTS
360
31EF
  0
DICTIONARY
  5
3BEB2
330
680
100
AcDbDictionary
280
     1
281
     1
  3
ACAD_SORTENTS
360
56B56
  0
DICTIONARY
  5
56CA9
330
71
100
AcDbDictionary
280
     1
281
     1
  3
ACAD_XREC_ROUNDTRIP
360
56CAA
  0
DICTIONARY
  5
56CAB
330
73
100
AcDbDictionary
280
     1
281
     1
  3
ACAD_XREC_ROUNDTRIP
360
56CAC
  0
DICTIONARY
  5
56806
330
56805
100
AcDbDictionary
280
     1
281
     1
  3
ACAD_DIMASSOC
360
56807
  0
DICTIONARY
  5
56CA5
330
6B
100
AcDbDictionary
280
     1
281
     1
  3
ACAD_XREC_ROUNDTRIP
360
56CA6
  0
DICTIONARY
  5
56CA7
330
6D
100
AcDbDictionary
280
     1
281
     1
  3
ACAD_XREC_ROUNDTRIP
360
56CA8
  0
DICTIONARY
  5
85
102
{ACAD_REACTORS
330
C
102
}
330
C
100
AcDbDictionary
281
     1
  0
DICTIONARY
  5
D
102
{ACAD_REACTORS
330
C
102
}
330
C
100
AcDbDictionary
281
     1
  0
DICTIONARY
  5
1A
102
{ACAD_REACTORS
330
C
102
}
330
C
100
AcDbDictionary
281
     1
  3
\M+1838C\M+18343\M+18341\M+18345\M+183671
350
51
  3
\M+1838C\M+18343\M+18341\M+18345\M+183672
350
56
  3
Model
350
22
  0
DICTIONARY
  5
84
102
{ACAD_REACTORS
330
C
102
}
330
C
100
AcDbDictionary
281
     1
  0
DICTIONARY
  5
17
102
{ACAD_REACTORS
330
C
102
}
330
C
100
AcDbDictionary
281
     1
  3
Standard
350
18
  0
DICTIONARY
  5
19
102
{ACAD_REACTORS
330
C
102
}
330
C
100
AcDbDictionary
281
     1
  0
ACDBDICTIONARYWDFLT
  5
E
102
{ACAD_REACTORS
330
C
102
}
330
C
100
AcDbDictionary
281
     1
  3
Normal
350
F
100
AcDbDictionaryWithDefault
340
F
  0
DICTIONARY
  5
A1
102
{ACAD_REACTORS
330
C
102
}
330
C
100
AcDbDictionary
281
     1
  3
Standard
350
A2
  0
DICTIONARY
  5
56CA0
102
{ACAD_REACTORS
330
C
102
}
330
C
100
AcDbDictionary
281
     1
  0
DICTIONARY
  5
5E
102
{ACAD_REACTORS
330
C
102
}
330
C
100
AcDbDictionary
281
     1
  3
CTABLESTYLE
350
B8
  3
DIMASSOC
350
5F
  3
HIDETEXT
350
63
  3
PROJECTNAME
350
31CE
  0
DICTIONARY
  5
349E9
102
{ACAD_REACTORS
330
C
102
}
330
C
100
AcDbDictionary
281
     1
  3
ASEBlockHierarchyIndexRecord
350
349EA
1001
DCO15
1040
1842496176.844
  0
XRECORD
  5
56C9F
102
{ACAD_REACTORS
330
C
102
}
330
C
100
AcDbXrecord
280
     1
  1
DWGPROPS COOKIE
  2

  3

  4

  6

  7

  8

  9

300
=
301
=
302
=
303
=
304
=
305
=
306
=
307
=
308
=
309
=
 40
2.733251828703703
 41
2455489.391063368
 42
2458573.021215776
  1

 90
        0
  0
DICTIONARY
  5
556D1
102
{ACAD_REACTORS
330
E2
102
}
330
E2
100
AcDbDictionary
281
     1
  0
DICTIONARY
  5
3759A
102
{ACAD_REACTORS
330
E2
102
}
330
E2
100
AcDbDictionary
281
     1
  0
DICTIONARY
  5
556D0
102
{ACAD_REACTORS
330
E2
102
}
330
E2
100
AcDbDictionary
281
     1
1001
ACAD
1000
<All
  0
SORTENTSTABLE
  5
31EF
102
{ACAD_REACTORS
330
31EE
102
}
330
31EE
100
AcDbSortentsTable
330
1F
331
68C
  5
3C6B0
331
53AD9
  5
53ADC
  0
SORTENTSTABLE
  5
56B56
102
{ACAD_REACTORS
330
3BEB2
102
}
330
3BEB2
100
AcDbSortentsTable
330
680
  0
XRECORD
  5
56CAA
102
{ACAD_REACTORS
330
56CA9
102
}
330
56CA9
100
AcDbXrecord
280
     1
102
SHADEPLOT
 70
     0
  0
XRECORD
  5
56CAC
102
{ACAD_REACTORS
330
56CAB
102
}
330
56CAB
100
AcDbXrecord
280
     1
102
SHADEPLOT
 70
     0
  0
DIMASSOC
  5
56807
102
{ACAD_REACTORS
330
56806
102
}
330
56806
100
AcDbDimAssoc
330
56805
 90
        2
 70
     0
 71
     0
  1
AcDbOsnapPointRef
 72
     3
331
56804
 73
     2
 91
        0
 40
0.0
 10
0.0
 20
0.0
 30
0.0
 75
     0
  0
XRECORD
  5
56CA6
102
{ACAD_REACTORS
330
56CA5
102
}
330
56CA5
100
AcDbXrecord
280
     1
102
SHADEPLOT
 70
     0
  0
XRECORD
  5
56CA8
102
{ACAD_REACTORS
330
56CA7
102
}
330
56CA7
100
AcDbXrecord
280
     1
102
SHADEPLOT
 70
     0
  0
LAYOUT
  5
51
102
{ACAD_XDICTIONARY
360
B2
102
}
102
{ACAD_REACTORS
330
1A
102
}
330
1A
100
AcDbPlotSettings
  1

  2
none_device
  4
Letter_(8.50_x_11.00_Inches)
  6

 40
6.349999904632567
 41
6.349999904632567
 42
6.350006103515625
 43
6.350006103515625
 44
215.8999938964844
 45
279.3999938964844
 46
0.0
 47
0.0
 48
0.0
 49
0.0
140
0.0
141
0.0
142
1.0
143
1.0
 70
   688
 72
     1
 73
     1
 74
     5
  7

 75
    16
147
1.0
148
0.0
149
0.0
100
AcDbLayout
  1
\M+1838C\M+18343\M+18341\M+18345\M+183671
 70
     1
 71
     1
 10
-6.350006103515625
 20
-6.349999904632567
 11
273.0499877929688
 21
209.5499939918518
 12
0.0
 22
0.0
 32
0.0
 14
26.66999878883364
 24
20.31999878883365
 34
0.0
 15
240.0299890995025
 25
182.8799890995025
 35
0.0
146
0.0
 13
0.0
 23
0.0
 33
0.0
 16
1.0
 26
0.0
 36
0.0
 17
0.0
 27
1.0
 37
0.0
 76
     0
330
50
331
6B
  0
LAYOUT
  5
56
102
{ACAD_XDICTIONARY
360
B5
102
}
102
{ACAD_REACTORS
330
1A
102
}
330
1A
100
AcDbPlotSettings
  1

  2
none_device
  4
Letter_(8.50_x_11.00_Inches)
  6

 40
6.349999904632567
 41
6.349999904632567
 42
6.350006103515625
 43
6.350006103515625
 44
215.8999938964844
 45
279.3999938964844
 46
0.0
 47
0.0
 48
0.0
 49
0.0
140
0.0
141
0.0
142
1.0
143
1.0
 70
   688
 72
     1
 73
     1
 74
     5
  7

 75
    16
147
1.0
148
0.0
149
0.0
100
AcDbLayout
  1
\M+1838C\M+18343\M+18341\M+18345\M+183672
 70
     1
 71
     2
 10
-6.350006103515625
 20
-6.349999904632567
 11
273.0499877929688
 21
209.5499939918518
 12
0.0
 22
0.0
 32
0.0
 14
26.66999878883363
 24
20.31999878883363
 34
0.0
 15
240.0299890995026
 25
182.8799890995025
 35
0.0
146
0.0
 13
0.0
 23
0.0
 33
0.0
 16
1.0
 26
0.0
 36
0.0
 17
0.0
 27
1.0
 37
0.0
 76
     0
330
55
331
71
  0
LAYOUT
  5
22
102
{ACAD_XDICTIONARY
360
56CA1
102
}
102
{ACAD_REACTORS
330
1A
102
}
330
1A
100
AcDbPlotSettings
  1

  2
none_device
  4
ANSI_A_(8.50_x_11.00_Inches)
  6

 40
6.349999904632567
 41
19.04999923706055
 42
6.350006103515625
 43
19.04998779296875
 44
215.8999938964844
 45
279.3999938964844
 46
0.0
 47
0.0
 48
0.0
 49
0.0
140
0.0
141
0.0
142
1.0
143
78.436453180766
 70
 11952
 72
     0
 73
     1
 74
     0
  7

 75
     0
147
0.0127491741332998
148
0.0
149
0.0
100
AcDbLayout
  1
Model
 70
     1
 71
     0
 10
0.0
 20
0.0
 11
12.0
 21
9.0
 12
0.0
 22
0.0
 32
0.0
 14
0.0
 24
0.0
 34
0.0
 15
0.0
 25
0.0
 35
0.0
146
0.0
 13
0.0
 23
0.0
 33
0.0
 16
1.0
 26
0.0
 36
0.0
 17
0.0
 27
1.0
 37
0.0
 76
     0
330
1F
  0
MLINESTYLE
  5
18
102
{ACAD_REACTORS
330
17
102
}
330
17
100
AcDbMlineStyle
  2
STANDARD
 70
     0
  3

 62
   256
 51
90.0
 52
90.0
 71
     2
 49
0.5
 62
   256
  6
BYLAYER
 49
-0.5
 62
   256
  6
BYLAYER
  0
ACDBPLACEHOLDER
  5
F
102
{ACAD_REACTORS
330
E
102
}
330
E
  0
TABLESTYLE
  5
A2
102
{ACAD_REACTORS
330
A1
102
}
330
A1
100
AcDbTableStyle
  3
Standard
 70
     0
 71
     0
 40
1.5
 41
1.5
280
     0
281
     0
  7
Standard
140
4.5
170
     2
 62
     0
 63
     7
283
     0
274
    -2
284
     1
 64
     0
275
    -2
285
     1
 65
     0
276
    -2
286
     1
 66
     0
277
    -2
287
     1
 67
     0
278
    -2
288
     1
 68
     0
279
    -2
289
     1
 69
     0
  7
Standard
140
6.0
170
     5
 62
     0
 63
     7
283
     0
274
    -2
284
     1
 64
     0
275
    -2
285
     1
 65
     0
276
    -2
286
     1
 66
     0
277
    -2
287
     1
 67
     0
278
    -2
288
     1
 68
     0
279
    -2
289
     1
 69
     0
  7
Standard
140
4.5
170
     5
 62
     0
 63
     7
283
     0
274
    -2
284
     1
 64
     0
275
    -2
285
     1
 65
     0
276
    -2
286
     1
 66
     0
277
    -2
287
     1
 67
     0
278
    -2
288
     1
 68
     0
279
    -2
289
     1
 69
     0
  0
DICTIONARYVAR
  5
B8
102
{ACAD_REACTORS
330
5E
102
}
330
5E
100
DictionaryVariables
280
     0
  1
STANDARD
  0
DICTIONARYVAR
  5
5F
102
{ACAD_REACTORS
330
5E
102
}
330
5E
100
DictionaryVariables
280
     0
  1
2
  0
DICTIONARYVAR
  5
63
102
{ACAD_REACTORS
330
5E
102
}
330
5E
100
DictionaryVariables
280
     0
  1
1
  0
DICTIONARYVAR
  5
31CE
102
{ACAD_REACTORS
330
5E
102
}
330
5E
100
DictionaryVariables
280
     0
  1

  0
XRECORD
  5
349EA
102
{ACAD_REACTORS
330
349E9
102
}
330
349E9
100
AcDbXrecord
280
     1
330
68C
330
0
330
0
330
0
330
0
330
0
330
0
330
0
330
0
330
0
330
0
330
0
330
0
330
0
330
0
330
0
330
0
330
0
330
0
330
0
330
0
330
0
330
0
330
0
330
0
330
0
330
0
330
0
330
0
330
0
330
0
330
0
330
0
330
0
330
0
330
0
330
0
330
0
330
0
330
0
330
0
330
0
330
0
330
0
330
0
330
0
330
0
330
0
330
0
330
0
330
0
330
0
330
0
330
0
330
0
330
0
330
0
330
0
330
0
330
0
330
0
330
0
330
0
330
0
330
0
330
0
330
0
330
0
330
0
330
0
330
0
330
0
330
0
330
0
330
0
330
0
330
0
330
0
330
0
330
0
330
0
330
0
330
0
330
0
330
0
330
0
330
0
330
0
330
0
330
0
330
0
330
0
330
0
330
0
330
0
330
0
330
0
330
0
330
0
330
0
330
0
330
0
330
0
330
0
330
0
330
0
330
0
330
0
330
0
330
0
  0
DICTIONARY
  5
B2
330
51
100
AcDbDictionary
280
     1
281
     1
  3
ACAD_XREC_ROUNDTRIP
360
56CA3
  3
ADSK_XREC_LAYOUTTHUMBNAIL
360
B3
  0
DICTIONARY
  5
B5
330
56
100
AcDbDictionary
280
     1
281
     1
  3
ACAD_XREC_ROUNDTRIP
360
56CA4
  3
ADSK_XREC_LAYOUTTHUMBNAIL
360
B6
  0
DICTIONARY
  5
56CA1
330
22
100
AcDbDictionary
280
     1
281
     1
  3
ACAD_XREC_ROUNDTRIP
360
56CA2
  0
XRECORD
  5
56CA3
102
{ACAD_REACTORS
330
B2
102
}
330
B2
100
AcDbXrecord
280
     1
102
SHADEPLOT
 70
     0
102
SHADEPLOTRESLEVEL
 70
     2
102
SHADEPLOTCUSTOMDPI
 70
   300
  0
XRECORD
  5
B3
102
{ACAD_REACTORS
330
B2
102
}
330
B2
100
AcDbXrecord
280
     1
310
28000000B40000008B0000000100080000000000BC61000000000000000000000001000000000000FFFFFF0000000000FFFFFF000000000000000000000000000000000000000000000000000000000000000000330000006600000099000000CC000000FF00000000330000333300006633000099330000CC330000FF3300
310
0000660000336600006666000099660000CC660000FF66000000990000339900006699000099990000CC990000FF99000000CC000033CC000066CC000099CC0000CCCC0000FFCC000000FF000033FF000066FF000099FF0000CCFF0000FFFF000000003300330033006600330099003300CC003300FF003300003333003333
310
33006633330099333300CC333300FF33330000663300336633006666330099663300CC663300FF66330000993300339933006699330099993300CC993300FF99330000CC330033CC330066CC330099CC3300CCCC3300FFCC330000FF330033FF330066FF330099FF3300CCFF3300FFFF330000006600330066006600660099
310
006600CC006600FF00660000336600333366006633660099336600CC336600FF33660000666600336666006666660099666600CC666600FF66660000996600339966006699660099996600CC996600FF99660000CC660033CC660066CC660099CC6600CCCC6600FFCC660000FF660033FF660066FF660099FF6600CCFF6600
310
FFFF660000009900330099006600990099009900CC009900FF00990000339900333399006633990099339900CC339900FF33990000669900336699006666990099669900CC669900FF66990000999900339999006699990099999900CC999900FF99990000CC990033CC990066CC990099CC9900CCCC9900FFCC990000FF99
310
0033FF990066FF990099FF9900CCFF9900FFFF99000000CC003300CC006600CC009900CC00CC00CC00FF00CC000033CC003333CC006633CC009933CC00CC33CC00FF33CC000066CC003366CC006666CC009966CC00CC66CC00FF66CC000099CC003399CC006699CC009999CC00CC99CC00FF99CC0000CCCC0033CCCC0066CC
310
CC0099CCCC00CCCCCC00FFCCCC0000FFCC0033FFCC0066FFCC0099FFCC00CCFFCC00FFFFCC000000FF003300FF006600FF009900FF00CC00FF00FF00FF000033FF003333FF006633FF009933FF00CC33FF00FF33FF000066FF003366FF006666FF009966FF00CC66FF00FF66FF000099FF003399FF006699FF009999FF00CC
310
99FF00FF99FF0000CCFF0033CCFF0066CCFF0099CCFF00CCCCFF00FFCCFF0000FFFF0033FFFF0066FFFF0099FFFF00CCFFFF00FFFFFF00000000000D0D0D001A1A1A00282828003535350043434300505050005D5D5D006B6B6B00787878008686860093939300A1A1A100AEAEAE00BBBBBB00C9C9C900D6D6D600E4E4E400
310
F1F1F100FFFFFF0000000000000000000000000000000000000000000000000000000000000000000000000000000000E2E2E2E2E2E2E2E2E2E2E2E2E2E2E2E2E2E2E2E2E2E2E2E2E2E2E2E2E2E2E2E2E2E2E2E2E2E2E2E2E2E2E2E2E2E2E2E2E2E2E2E2E2E2E2E2E2E2E2E2E2E2E2E2E2E2E2E2E2E2E2E2E2E2E2E2E2E2E2
310
E2E2E2E2E2E2E2E2E2E2E2E2E2E2E2E2E2E2E2E2E2E2E2E2E2E2E2E2E2E2E2E2E2E2E2E2E2E2E2E2E2E2E2E2E2E2E2E2E2E2E2E2E2E2E2E2E2E2E2E2E2E2E2E2E2E2E2E2E2E2E2E2E2E2E2E2E2E2E2E2E2E2E2E2E2E2E2E2E2E2E2E2E2E2E2E2E2E2E2E2E2E2F5F5F5F5F5F5F5F5F5F5F5F5F5F5F5F5F5F5F5F5F5F5F5F5F5
310
F5F5F5F5F5F5F5F5F5F5F5F5F5F5F5F5F5F5F5F5F5F5F5F5F5F5F5F5F5F5F5F5F5F5F5F5F5F5F5F5F5F5F5F5F5F5F5F5F5F5F5F5F5F5F5F5F5F5F5F5F5F5F5F5F5F5F5F5F5F5F5F5F5F5F5F5F5F5F5F5F5F5F5F5F5F5F5F5F5F5F5F5F5F5F5F5F5F5F5F5F5F5F5F5F5F5F5F5F5F5F5F5F5F5F5F5F5F5F5F5F5F5F5F5F5F5F5
310
F5F5F5F5F5F5F5F5F5F5F5F5F5F5F5F5F5F5F5F5F5F5F5F5F5F5E2E2F5F5F5F5F5F5F5F5F5F5F5F5F5F5F5F5F5F5F5F5F5F5F5F5F5F5F5F5F5F5F5F5F5F5F5F5F5F5F5F5F5F5F5F5F5F5F5F5F5F5F5F5F5F5F5F5F5F5F5F5F5F5F5F5F5F5F5F5F5F5F5F5F5F5F5F5F5F5F5F5F5F5F5F5F5F5F5F5F5F5F5F5F5F5F5F5F5F5F5
310
F5F5F5F5F5F5F5F5F5F5F5F5F5F5F5F5F5F5F5F5F5F5F5F5F5F5F5F5F5F5F5F5F5F5F5F5F5F5F5F5F5F5F5F5F5F5F5F5F5F5F5F5F5F5F5F5F5F5F5F5F5F5F5F5F5F5F5F5F5F5F5F5F5F5F5F5F5F5F5E2E2F5F5F5F5F5F5F5F5F5F5F5F5F5F5F5F5F5F5F5F5F5F5F5F5F5F5F5F5F5F5F5F5F5F5F5F5F5F5F5F5F5F5F5F5F5F5
310
F5F5F5F5F5F5F5F5F5F5F5F5F5F5F5F5F5F5F5F5F5F5F5F5F5F5F5F5F5F5F5F5F5F5F5F5F5F5F5F5F5F5F5F5F5F5F5F5F5F5F5F5F5F5F5F5F5F5F5F5F5F5F5F5F5F5F5F5F5F5F5F5F5F5F5F5F5F5F5F5F5F5F5F5F5F5F5F5F5F5F5F5F5F5F5F5F5F5F5F5F5F5F5F5F5F5F5F5F5F5F5F5F5F5F5F5F5F5F5F5F5F5F5F5F5F5F5
310
F5F5F5F5F5E2E2F5F5F5F5E2E2E2E2E2E2E2E2F5F5F5F5F5F5F5F5F5E2E2E2E2E2E2E2E2E2E2E2E2E2E2E2F5F5F5F5F5F5F5F5F5E2E2E2E2E2E2E2E2E2E2E2E2E2E2E2E2F5F5F5F5F5F5F5F5E2E2E2E2E2E2E2E2E2E2E2E2E2E2E2E2F5F5F5F5F5F5F5F5E2E2E2E2E2E2E2E2E2E2E2E2E2E2E2E2F5F5F5F5F5F5F5F5E2E2E2
310
E2E2E2E2E2E2E2E2E2E2E2E2E2F5F5F5F5F5F5F5F5F5E2E2E2E2E2E2E2E2E2E2E2E2E2E2E2F5F5F5F5F5F5F5F5F5E2E2E2E2E2E2E2E2F5F5F5F5E2E2F5F5F5F5E2F5F5F5F5F5F5F5F5F5F5F5F5F5F5F5F5F5F5F5F5F5F5F5F5F5F5F5F5F5F5F5F5F5F5F5F5F5F5F5F5F5F5F5F5F5F5F5F5F5F5F5F5F5F5F5F5F5F5F5F5F5F5
310
F5F5F5F5F5F5F5F5F5F5F5F5F5F5F5F5F5F5F5F5F5F5F5F5F5F5F5F5F5F5F5F5F5F5F5F5F5F5F5F5F5F5F5F5F5F5F5F5F5F5F5F5F5F5F5F5F5F5F5F5F5F5F5F5F5F5F5F5F5F5F5F5F5F5F5F5F5F5F5F5F5F5F5F5F5F5F5F5F5F5F5F5F5F5F5F5F5F5F5F5F5F5F5F5F5F5E2F5F5F5F5E2E2F5F5F5F5E2F5F5F5F5F5F5F5F5F5
310
F5F5F5F5F5F5F5F5F5F5F5F5F5F5F5F5F5F5F5F5F5F5F5F5F5F5F5F5F5F5F5F5F5F5F5F5F5F5F5F5F5F5F5F5F5F5F5F5F5F5F5F5F5F5F5F5F5F5F5F5F5F5F5F5F5F5F5F5F5F5F5F5F5F5F5F5F5F5F5F5F5F5F5F5F5F5F5F5F5F5F5F5F5F5F5F5F5F5F5F5F5F5F5F5F5F5F5F5F5F5F5F5F5F5F5F5F5F5F5F5F5F5F5F5F5F5F5
310
F5F5F5F5F5F5F5F5F5F5F5F5F5F5F5F5F5F5F5F5F5F5F5F5F5F5F5F5F5F5F5F5E2F5F5F5F5E2E2F5F5F5F5E2F5F5F5F5F5F5F5F5F5F5F5F5F5F5F5F5F5F5F5F5F5F5F5F5F5F5F5F5F5F5F5F5F5F5F5F5F5F5F5F5F5F5F5F5F5F5F5F5F5F5F5F5F5F5F5F5F5F5F5F5F5F5F5F5F5F5F5F5F5F5F5F5F5F5F5F5F5F5F5F5F5F5F5
310
F5F5F5F5F5F5F5F5F5F5F5F5F5F5F5F5F5F5F5F5F5F5F5F5F5F5F5F5F5F5F5F5F5F5F5F5F5F5F5F5F5F5F5F5F5F5F5F5F5F5F5F5F5F5F5F5F5F5F5F5F5F5F5F5F5F5F5F5F5F5F5F5F5F5F5F5F5F5F5F5F5F5F5F5F5E2F5F5F5F5E2E2F5F5F5F5E2F5F5F5F5F5F5F5F5F5F5F5F5F5F5F5F5F5F5F5F5F5F5F5F5F5F5F5F5F5F5
310
F5F5F5F5F5F5F5F5F5F5F5F5F5F5F5F5F5F5F5F5F5F5F5F5F5F5F5F5F5F5F5F5F5F5F5F5F5F5F5F5F5F5F5F5F5F5F5F5F5F5F5F5F5F5F5F5F5F5F5F5F5F5F5F5F5F5F5F5F5F5F5F5F5F5F5F5F5F5F5F5F5F5F5F5F5F5F5F5F5F5F5F5F5F5F5F5F5F5F5F5F5F5F5F5F5F5F5F5F5F5F5F5F5F5F5F5F5F5F5F5F5F5F5F5F5F5F5
310
F5F5F5F5F5F5F5F5F5F5F5E2F5F5F5F5E2E2F5F5F5F5E2F5F5F5F5F5F5F5F5F5F5F5F5F5F5F5F5F5F5F5F5F5F5F5F5F5F5F5F5F5F5F5F5F5F5F5F5F5F5F5F5F5F5F5F5F5F5F5F5F5F5F5F5F5F5F5F5F5F5F5F5F5F5F5F5F5F5F5F5F5F5F5F5F5F5F5F5F5F5F5F5F5F5F5F5F5F5F5F5F5F5F5F5F5F5F5F5F5F5F5F5F5F5F5F5
310
F5F5F5F5F5F5F5F5F5F5F5F5F5F5F5F5F5F5F5F5F5F5F5F5F5F5F5F5F5F5F5F5F5F5F5F5F5F5F5F5F5F5F5F5F5F5F5F5F5F5F5F5F5F5F5F5F5F5F5F5F5F5F5F5E2F5F5F5F5E2E2F5F5F5F5E2F5F5F5F5F5F5F5F5F5F5F5F5F5F5F5F5F5F5F5F5F5F5F5F5F5F5F5F5F5F5F5F5F5F5F5F5F5F5F5F5F5F5F5F5F5F5F5F5F5F5F5
310
F5F5F5F5F5F5F5F5F5F5F5F5F5F5F5F5F5F5F5F5F5F5F5F5F5F5F5F5F5F5F5F5F5F5F5F5F5F5F5F5F5F5F5F5F5F5F5F5F5F5F5F5F5F5F5F5F5F5F5F5F5F5F5F5F5F5F5F5F5F5F5F5F5F5F5F5F5F5F5F5F5F5F5F5F5F5F5F5F5F5F5F5F5F5F5F5F5F5F5F5F5F5F5F5F5F5F5F5F5F5F5F5F5F5F5F5F5E2F5F5F5F5E2E2F5F5F5
310
F5E2F5F5F5F5F5F5F5F5F5F5F5F5F5F5F5F5F5F5F5F5F5F5F5F5F5F5F5F5F5F5F5F5F5F5F5F5F5F5F5F5F5F5F5F5F5F5F5F5F5F5F5F5F5F5F5F5F5F5F5F5F5F5F5F5F5F5F5F5F5F5F5F5F5F5F5F5F5F5F5F5F5F5F5F5F5F5F5F5F5F5F5F5F5F5F5F5F5F5F5F5F5F5F5F5F5F5F5F5F5F5F5F5F5F5F5F5F5F5F5F5F5F5F5F5F5
310
F5F5F5F5F5F5F5F5F5F5F5F5F5F5F5F5F5F5F5F5F5F5F5F5F5F5F5F5F5F5F5F5F5F5F5F5F5F5F5F5F5F5F5E2F5F5F5F5E2E2F5F5F5F5E2F5F5F5F5F5F5F5F5F5F5F5F5F5F5F5F5F5F5F5F5F5F5F5F5F5F5F5F5F5F5F5F5F5F5F5F5F5F5F5F5F5F5F5F5F5F5F5F5F5F5F5F5F5F5F5F5F5F5F5F5F5F5F5F5F5F5F5F5F5F5F5F5
310
F5F5F5F5F5F5F5F5F5F5F5F5F5F5F5F5F5F5F5F5F5F5F5F5F5F5F5F5F5F5F5F5F5F5F5F5F5F5F5F5F5F5F5F5F5F5F5F5F5F5F5F5F5F5F5F5F5F5F5F5F5F5F5F5F5F5F5F5F5F5F5F5F5F5F5F5F5F5F5F5F5F5F5F5F5F5F5F5F5F5F5F5F5F5F5F5E2F5F5F5F5E2E2F5F5F5F5F5F5F5F5F5F5F5F5F5F5F5F5F5F5F5F5F5F5F5F5
310
F5F5F5F5F5F5F5F5F5F5F5F5F5F5F5F5F5F5F5F5F5F5F5F5F5F5F5F5F5F5F5F5F5F5F5F5F5F5F5F5F5F5F5F5F5F5F5F5F5F5F5F5F5F5F5F5F5F5F5F5F5F5F5F5F5F5F5F5F5F5F5F5F5F5F5F5F5F5F5F5F5F5F5F5F5F5F5F5F5F5F5F5F5F5F5F5F5F5F5F5F5F5F5F5F5F5F5F5F5F5F5F5F5F5F5F5F5F5F5F5F5F5F5F5F5F5F5
310
F5F5F5F5F5F5F5F5F5F5F5F5F5F5F5F5F5F5F5F5F5F5F5F5F5F5F5E2E2F5F5F5F5F5F5F5F5F5F5F5F5F5F5F5F5F5F5F5F5F5F5F5F5F5F5F5F5F5F5F5F5F5F5F5F5F5F5F5F5F5F5F5F5F5F5F5F5F5F5F5F5F5F5F5F5F5F5F5F5F5F5F5F5F5F5F5F5F5F5F5F5F5F5F5F5F5F5F5F5F5F5F5F5F5F5F5F5F5F5F5F5F5F5F5F5F5F5
310
F5F5F5F5F5F5F5F5F5F5F5F5F5F5F5F5F5F5F5F5F5F5F5F5F5F5F5F5F5F5F5F5F5F5F5F5F5F5F5F5F5F5F5F5F5F5F5F5F5F5F5F5F5F5F5F5F5F5F5F5F5F5F5F5F5F5F5F5F5F5F5F5F5F5F5F5F5F5F5F5E2E2F5F5F5F5F5F5F5F5F5F5F5F5F5F5F5F5F5F5F5F5F5F5F5F5F5F5F5F5F5F5F5F5F5F5F5F5F5F5F5F5F5F5F5F5F5
310
F5F5F5F5F5F5F5F5F5F5F5F5F5F5F5F5F5F5F5F5F5F5F5F5F5F5F5F5F5F5F5F5F5F5F5F5F5F5F5F5F5F5F5F5F5F5F5F5F5F5F5F5F5F5F5F5F5F5F5F5F5F5F5F5F5F5F5F5F5F5F5F5F5F5F5F5F5F5F5F5F5F5F5F5F5F5F5F5F5F5F5F5F5F5F5F5F5F5F5F5F5F5F5F5F5F5F5F5F5F5F5F5F5F5F5F5F5F5F5F5F5F5F5F5F5F5F5
310
F5F5F5F5F5F5E2E2F5F5F5F5F5F5F5F5F5F5F5F5F5F5F5F5F5F5F5F5F5F5F5F5F5F5F5F5F5F5F5F5F5F5F5F5F5F5F5F5F5F5F5F5F5F5F5F5F5F5F5F5F5F5F5F5F5F5F5F5F5F5F5F5F5F5F5F5F5F5F5F5F5F5F5F5F5F5F5F5F5F5F5F5F5F5F5F5F5F5F5F5F5F5F5F5F5F5F5F5F5F5F5F5F5F5F5F5F5F5F5F5F5F5F5F5F5F5F5
310
F5F5F5F5F5F5F5F5F5F5F5F5F5F5F5F5F5F5F5F5F5F5F5F5F5F5F5F5F5F5F5F5F5F5F5F5F5F5F5F5F5F5F5F5F5F5F5F5F5F5F5F5F5F5F5F5F5F5F5E2E2F5F5F5F5F5F5F5F5F5F5F5F5F5F5F5F5F5F5F5F5F5E2E2E2E2E2E2E2E2E2E2E2E2E2E2E2E2E2E2E2E2E2E2E2E2E2E2E2E2E2E2E2E2E2E2E2E2E2E2E2E2E2E2E2E2E2
310
E2E2E2E2E2E2E2E2E2E2E2E2E2E2E2E2E2E2E2E2E2E2E2E2E2E2E2E2E2E2E2E2E2E2E2E2E2E2E2E2E2E2E2E2E2E2E2E2E2E2E2E2E2E2E2E2E2E2E2E2E2E2E2E2E2E2E2E2E2E2E2E2E2E2E2E2E2E2E2E2E2E2E2E2E2E2E2E2E2E2E2F5F5F5F5F5F5F5F5F5F5F5F5F5F5F5F5F5F5F5F5F5E2E2F5F5F5F5F5F5F5F5F5F5F5F5F5
310
F5F5F5F5F5F5F5F5E22D2D2D2D2D2D2D2D2D2D2D2DF5F5F5F5F5F5F5F5F5F5F5F5F5F5F5E2F5F5F5F5F5F5F5F5F5F5F5F5F5F5F5F5F5F5F5F5F5F5F5F5F5F5F5F5F5F5F5F5F5F5F5F5F5F5F5F5F5F5F5F5F5F5F5F5F5F5F5F5F5F5F5F5F5F5F5F5F5F5F5F5F5F5F5F5F5F5F5F5F5F5F5F5F5F5F5F5F5F5F5F5F5F5F5F5F5F5
310
F5F5F5F5F5F5F5F5F5F5F5F5F5F5F5F5E2F5F5F5F5F5F5F5F5F5F5F5F5F5F5F5F5F5F5F5F5F5E2E2F5F5F5F5F5F5F5F5F5F5F5F5F5F5F5F5F5F5F5F5F5E22D2D2DF5F5E2F5F5F5F5F52DF5F5F5F5F5F5F5F5F5F5F5F5F5F5F5E2F5F5F5F5F5F5F5F5F5F5F5F5F5F5F5F5F5F5F5F5F5F5F5F5F5F5F5F5F5F5F5F5F5F5F5F5F5
310
F5F5F5F5F5F5F5F5F5F5F5F5F5F5F5F5F5F5F5F5F5F5F5F5F5F5F5F5F5F5F5F5F5F5F5F5F5F5F5F5F5F5F5F5F5F5F5F5F5F5F5F5F5F5F5F5F5F5F5F5F5F5F5F5F5F5F5F5F5E2F5F5F5F5F5F5F5F5F5F5F5F5F5F5F5F5F5F5F5F5F5E2E2F5F5F5F5F5F5F5F5F5F5F5F5F5F5F5F5F5F5F5F5F5E2DCF52DF5F5E2F5F5F5F5F52D
310
F5F5F5F5F5F5F5F5F5F5F5F5F5F5F5E2F5F5F5F5F5F5F5F5F5F5F5F5F5F5F5F5F5F5F5F5F5F5F5F5F5F5F5F5F5F5F5F5F5F5F5F5F5F5F5F5F5F5F5F5F5F5F5F5F5F5F5F5F5F5F5F5F5F5F5F5F5F5F5F5F5F5F5F5F5F5F5F5F5F5F5F5F5F5F5F5F5F5F5F5F5F5F5F5F5F5F5F5F5F5F5F5F5F5F5F5F5F5F5F5F5F5E2F5F5F5F5
310
F5F5F5F5F5F5F5F5F5F5F5F5F5F5F5F5F5E2E2F5F5F5F5F5F5F5F5F5F5F5F5F5F5F5F5F5F5F5F5F5E2BEF52D2D2D2D2D2D2D2DE2E2E2E2E2E2E2E2E2E2E2E2E2E2E2E2E2E2F5F5F5F5F5F5F5F5F5F5F5F5F5F5F5F5F5F5F5F5F5F5F5F5F5F5F5F5F5F5F5F5F5F5F5F5F5F5F5F5F5F5F5F5F5F5F5F5F5F5F5F5F5F5F5F5F5F5
310
F5F5F5F5F5F5F5F5F5F5F5F5F5F5F5F5F5F5F5F5F5F5F5F5F5F5F5F5F5F5F5F5F5F5F5F5F5F5F5F5F5F5F5F5F5F5F5F5E2F5F5F5F5F5F5F5F5F5F5F5F5F5F5F5F5F5F5F5F5F5E2E2F5F5F5F5E2F5F5F5F5F5F5F5F5F5F5F5F5F5F5F5F5E2DCF5F5F5F5E2F5F5F5F5F5E2F5F5F5F5F5F5F5F5F5F5F5F5F5F5F5F5F5F5F5F5F5
310
F5F5F5F5F5F5F5F5F5F5F5F5F5F5F5F5F5F5F5F5F5F5F5F5F5F5F5F5F5F5F5F5F5F5F5F5F5F5F5F5F5F5F5F5F5F5F5F5F5F5F5F5F5F5F5F5F5F5F5F5F5F5F5F5F5F5F5F5F5F5F5F5F5F5F5F5F5F5F5F5F5F5F5F5F5F5F5F5F5F5F5F5F5F5F5F5F5F5F5F5F5E2F5F5F5F5F5F5F5F5F5F5F5F5F5F5F5F5E2F5F5F5F5E2E2F5F5
310
F5F5E2F5F5F5F5F5F5F5F5F5F5F5F5F5F5F5F5E2F5F5F5F5F5E2F5F5F5F5F5E2F5F5F5F5F5F5F5F5F5F5F5F5F5F5F5F5F5F5F5F5F5F5F5F5F5F5F5F5F5F5F5F5F5F5F5F5F5F5F5F5F5F5F5F5F5F5F5F5F5F5F5F5F5F5F5F5F5F5F5F5F5F5F5F5F5F5F5F5F5F5F5F5F5F5F5F5F5F5F5F5F5F5F5F5F5F5F5F5F5F5F5F5F5F5F5
310
F5F5F5F5F5F5F5F5F5F5F5F5F5F5F5F5F5F5F5F5F5F5F5F5F5F5F5E2F5F5F5F5F5F5F5F5F5F5F5F5F5F5F5F5E2F5F5F5F5E2E2F5F5F5F5E2F5F5F5F5F5F5F5F5F5F5F5F5F5F5F5F5E2F5F5F5F5F5E2F5F5F5F5F5E2F5F5F5F5F5F5F5F5F5F5F5F5F5F5F5F5F5F5F5F5F5F5F5F5F5F5F5F5F5F5F5F5F5F5F5F5F5F5F5F5F5F5
310
F5F5F5F5F5F5F5F5F5F5F5F5F5F5F5F5F5F5F5F5F5F5F5F5F5F5F5F5F5F5F5F5F5F5F5F5F5F5F5F5F5F5F5F5F5F5F5F5F5F5F5F5F5F5F5F5F5F5F5F5F5F5F5F5F5F5F5F5F5F5F5F5F5F5F5F5F5F5F5F5E2F5F5F5F5F5F5F5F5F5F5F5F5F5F5F5F5E2F5F5F5F5E2E2F5F5F5F5E2F5F5F5F5F5F5F5F5F5F5F5F5F5F5F5F5E2F5
310
F5F5F5F5E2F5F5F5F5F5E2F5F5F5F5F5F5F5F5F5F5F5F5F5F5F5F5F5F5F5F5F5F5F5F5F5F5F5F5F5F5F5F5F5F5F5F5F5F5F5F5F5F5F5F5F5F5F5F5F5F5F5F5F5F5F5F5F5F5F5F5F5F5F5F5F5F5F5F5F5F5F5F5F5F5F5F5F5F5F5F5F5F5F5F5F5F5F5F5F5F5F5F5F5F5F5F5F5F5F5F5F5F5F5F5F5F5F5F5F5F5F5F5F5F5F5F5
310
F5F5F5F5F5F5E2F5F5F5F5F5F5F5F5F5F5F5F5F5F5F5F5E2F5F5F5F5E2E2F5F5F5F5E2F5F5F5F5F5F5F5F5F5F5F5F5F5F5F5F5E2E2E2E2E2E2E2F5F5F5F5F5E2F5F5F5F5F5F5F5F5F5F5F5F5F5F5F5F5F5F5F5F5F5F5F5F5F5F5F5F5F5F5F5F5F5F5F5F5F5F5F5F5F5F5F5F5F5F5F5F5F5F5F5F5F5F5F5F5F5F5F5F5F5F5F5
310
F5F5F5F5F5F5F5F5F5F5F5F5F5F5F5F5F5F5F5F5F5F5F5F5F5F5F5F5F5F5F5F5F5F5F5F5F5F5F5F5F5F5F5F5F5F5F5F5F5F5F5F5F5F5F5F5F5F5F5E2F5F5F5F5F5F5F5F5F5F5F5F5F5F5F5F5E2F5F5F5F5E2E2F5F5F5F5E2F5F5F5F5F5F5F5F5F5F5F5F5F5F5F5F5E2E2E2E2F5E2E2F5F5F5F5F5E2F5F5F5F5F5F5F5F5F5F5
310
F5F5F5F5F5F5F5F5F5F5F5F5F5F5F5F5F5F5F5F5F5F5F5F5F5F5F5F5F5F5F5F5F5F5F5F5F5F5F5F5F5F5F5F5F5F5F5F5F5F5F5F5F5F5F5F5F5F5F5F5F5F5F5F5F5F5F5F5F5F5F5F5F5F5F5F5F5F5F5F5F5F5F5F5F5F5F5F5F5F5F5F5F5F5F5F5F5F5F5F5F5F5F5F5F5F5F5F5F5F5F5F5E2F5F5F5F5F5F5F5F5F5F5F5F5F5F5
310
F5F5E2F5F5F5F5E2E2F5F5F5F5E2F5F5F5F5F5F5F5F5F5F5F5F5F5F5F5F5E2E2E2E2F5F5F5F5F5F5F5F5E2F5F5F5F5F5F5F5F5F5F5F5F5F5F5F5F5F5F5F5F5F5F5F5F5F5F5F5F5F5F5F5F5F5F5F5F5F5F5F5F5F5F5F5F5F5F5F5F5F5F5F5F5F5F5F5F5F5F5F5F5F5F5F5F5F5F5F5F5F5F5F5F5F5F5F5F5F5F5F5F5F5F5F5F5
310
F5F5F5F5F5F5F5F5F5F5F5F5F5F5F5F5F5F5F5F5F5F5F5F5F5F5F5F5F5F5F5F5F5F5F5F5F5F5E2F5F5F5F5F5F5F5F5F5F5F5F5F5F5F5F5E2F5F5F5F5E2E2F5F5F5F5E2F5F5F5F5F5F5F5F5F5F5F5F5F5F5F5F5E2F5F5F5F5F5F5F5F5F5F5F5E2F5F5F5F5F5F5F5F5F5F5F5F5F5F5F5F5F5F5F5F5F5F5F5F5F5F5F5F5F5F5F5
310
F5F5F5F5F5F5F5F5F5F5F5F5F5F5F5F5F5F5F5F5F5F5F5F5F5F5F5F5F5F5F5F5F5F5F5F5F5F5F5F5F5F5F5F5F5F5F5F5F5F5F5F5F5F5F5F5F5F5F5F5F5F5F5F5F5F5F5F5F5F5F5F5F5F5F5F5F5F5F5F5F5F5F5F5F5F5F5F5F5F5F5E2F5F5F5F5F5F5F5F5F5F5F5F5F5F5F5F5E2F5F5F5F5E2E2F5F5F5F5E2F5F5F5F5F5F5F5
310
F5F5F5F5F5F5F5F5F5E2E2E2E2E2E2E2E2E2E2E2E2E2F5F5F5F5F5F5F5F5F5F5F5F5F5F5F5F5F5F5F5F5F5F5F5F5F5F5F5F5F5F5F5F5F5F5F5F5F5F5F5F5F5F5F5F5F5F5F5F5F5F5F5F5F5F5F5F5F5F5F5F5F5F5F5F5F5F5F5F5F5F5F5F5F5F5F5F5F5F5F5F5F5F5F5F5F5F5F5F5F5F5F5F5F5F5F5F5F5F5F5F5F5F5F5F5F5
310
F5F5F5F5F5F5F5F5F5F5F5F5F5F5F5F5F5E2F5F5F5F5F5F5F5F5F5F5F5F5F5F5F5F5E2F5F5F5F5E2E2F5F5F5F5E2F5F5F5F5F5F5F5F5F5F5F5F5F5F5F5F5E2E2E2F5F5F5F5F5F5F5F5F5F5F5F5F5F5F5F5F5F5F5F5F5F5F5F5F5F5F5F5F5F5F5F5F5F5F5F5F5F5F5F5F5F5F5F5F5F5F5F5F5F5F5F5F5F5F5F5F5F5F5F5F5F5
310
F5F5F5F5F5F5F5F5F5F5F5F5F5F5F5F5F5F5F5F5F5F5F5F5F5F5F5F5F5F5F5F5F5F5F5F5F5F5F5F5F5F5F5F5F5F5F5F5F5F5F5F5F5F5F5F5F5F5F5F5F5F5F5F5F5F5F5F5F5F5E2F5F5F5F5F5F5F5F5F5F5F5F5F5F5F5F5E2F5F5F5F5E2E2F5F5F5F5E2F5F5F5F5F5F5F5F5F5F5F5F5F5F5F5F5E2E2E2F5F5F5F5F5F5F5F5F5
310
F5F5F5F5F5F5F5F5F5F5F5F5F5F5F5F5F5F5F5F5F5F5F5F5F5F5F5F5F5F5F5F5F5F5F5F5F5F5F5F5F5F5F5F5F5F5F5F5F5F5F5F5F5F5F5F5F5F5F5F5F5F5F5F5F5F5F5F5F5F5F5F5F5F5F5F5F5F5F5F5F5F5F5F5F5F5F5F5F5F5F5F5F5F5F5F5F5F5F5F5F5F5F5F5F5F5F5F5F5F5F5F5F5F5F5F5F5F5F5F5F5F5F5E2F5F5F5
310
F5F5F5F5F5F5F5F5F5F5F5F5F5E2F5F5F5F5E2E2F5F5F5F5E2F5F5F5F5F5F5F5F5F5F5F5F5F5F5F5F5E2F5F5F5F5F5F5F5F5F5F5F5F5F5F5F5F5F5F5F5F5F5F5F5F5F5F5F5F5F5F5F5F5F5F5F5F5F5F5F5F5F5F5F5F5F5F5F5F5F5F5F5F5F5F5F5F5F5F5F5F5F5F5F5F5F5F5F5F5F5F5F5F5F5F5F5F5F5F5F5F5F5F5F5F5F5
310
F5F5F5F5F5F5F5F5F5F5F5F5F5F5F5F5F5F5F5F5F5F5F5F5F5F5F5F5F5F5F5F5F5F5F5F5F5F5F5F5F5F5F5F5F5F5F5F5F5E2F5F5F5F5F5F5F5F5F5F5F5F5F5F5F5F5E2F5F5F5F5E2E2F5F5F5F5E2F5F5F5F5F5F5F5F5F5F5F5F5F5F5F5F5E2F5F5F5F5F5F5F5F5F5F5F5F5F5F5F5F5F5F5F5F5F5F5F5F5F5F5F5F5F5F5F5F5
310
F5F5F5F5F5F5F5F5F5F5F5F5F5F5F5F5F5F5F5F5F5F5F5F5F5F5F5F5F5F5F5F5F5F5F5F5F5F5F5F5F5F5F5F5F5F5F5F5F5F5F5F5F5F5F5F5F5F5F5F5F5F5F5F5F5F5F5F5F5F5F5F5F5F5F5F5F5F5F5F5F5F5F5F5F5F5F5F5F5F5F5F5F5F5F5F5F5F5F5F5F5F5E2F5F5F5F5F5F5F5F5F5F5F5F5F5F5F5F5E2F5F5F5F5E2E2F5
310
F5F5F5E2F5F5F5F5F5F5F5F5F5F5F5F5F5F5F5F5E20F0F0F0F0F0F0F0F0F0F0FF5F5F5F5F5F5F5F5F5F5F5F5F5F5F5F5F5F5F5F5F5F5F5F5F5F5F5F5F5F5F5F5F5F5F5F5F5F5F5F5F5F5F5F5F5F5F5F5F5F5F5F5F5F5F5F5F5F5F5F5F5F5F5F5F5F5F5F5F5F5F5F5F5F5F5F5F5F5F5F5F5F5F5F5F5F5F5F5F5F5F5F5F5F5F5
310
F5F5F5F5F5F5F5F5F5F5F5F5F5F5F5F5F5F5F5F5F5F5F5F5F5F5F5F5E2F5F5F5F5F5F5F5F5F5F5F5F5F5F5F5F5E2F5F5F5F5E2E2F5F5F5F5E2F5F5F5F5F5F5F5F5F5F5F5F5F5F5F5F5E20F0F0F0F0F0F0F0F0F0F0FF5F5F5F5F5F5F5F5F5F5F5F5F5F5F5F5F5F5F5F5F5F5F5F5F5F5F5F5F5F5F5F5F5F5F5F5F5F5F5F5F5F5
310
F5F5F5F5F5F5F5F5F5F5F5F5F5F5F5F5F5F5F5F5F5F5F5F5F5F5F5F5F5F5F5F5F5F5F5F5F5F5F5F5F5F5F5F5F5F5F5F5F5F5F5F5F5F5F5F5F5F5F5F5F5F5F5F5F5F5F5F5F5F5F5F5F5F5F5F5F5F5F5F5F5E2F5F5F5F5F5F5F5F5F5F5F5F5F5F5F5F5E2F5F5F5F5E2E2F5F5F5F5E2F5F5F5F5F5F5F5F5F5F5F5F5F5F5F5F5E2
310
0F0F0F0F0F0F0F0F0F0FF5F5F5F5F5F5F5F5F5F5F5F5F5F5F5F5F5F5F5F5F5F5F5F5F5F5F5F5F5F5F5F5F5F5F5F5F5F5F5F5F5F5F5F5F5F5F5F5F5F5F5F5F5F5F5F5F5F5F5F5F5F5F5F5F5F5F5F5F5F5F5F5F5F5F5F5F5F5F5F5F5F5F5F5F5F5F5F5F5F5F5F5F5F5F5F5F5F5F5F5F5F5F5F5F5F5F5F5F5F5F5F5F5F5F5F5F5
310
F5F5F5F5F5F5F5E2F5F5F5F5F5F5F5F5F5F5F5F5F5F5F5F5E2F5F5F5F5E2E2F5F5F5F5E2F5F5F5F5F5F5F5F5F5F5F5F5F5F5F5F5E2F5F5F5F5F5F5F5F5F5F5F5F5F5F5F5F5F5F5F5F5F5F5F5F5F5F5F5F5F5F5F5F5F5F5F5F5F5F5F5F5F5F5F5F5F5F5F5F5F5F5F5F5F5F5F5F5F5F5F5F5F5F5F5F5F5F5F5F5F5F5F5F5F5F5
310
F5F5F5F5F5F5F5F5F5F5F5F5F5F5F5F5F5F5F5F5F5F5F5F5F5F5F5F5F5F5F5F5F5F5F5F5F5F5F5F5F5F5F5F5F5F5F5F5F5F5F5F5F5F5F5F5F5F5F5F5E2F5F5F5F5F5F5F5F5F5F5F5F5F5F5F5F5E2F5F5F5F5E2E2F5F5F5F5F5F5F5F5F5F5F5F5F5F5F5F5F5F5F5F5F5E2F5F5F5F5F5F5F5F5F5F5F5F5F5F5F5F5F5F5F5F5F5
310
F5F5F5F5F5F5F5F5F5F5F5F5F5F5F5F5F5F5F5F5F5F5F5F5F5F5F5F5F5F5F5F5F5F5F5F5F5F5F5F5F5F5F5F5F5F5F5F5F5F5F5F5F5F5F5F5F5F5F5F5F5F5F5F5F5F5F5F5F5F5F5F5F5F5F5F5F5F5F5F5F5F5F5F5F5F5F5F5F5F5F5F5F5F5F5F5F5F5F5F5F5F5F5F5F5F5F5F5F5F5F5F5F5E2F5F5F5F5F5F5F5F5F5F5F5F5F5
310
F5F5F5F5F5F5F5F5E2E2F5F5F5F5F5F5F5F5F5F5F5F5F5F5F5F5F5F5F5F5F5E2F5F5F5F5F5F5F5F5F5F5F5F5F5F5F5F5F5F5F5F5F5F5F5F5F5F5F5F5F5F5F5F5F5F5F5F5F5F5F5F5F5F5F5F5F5F5F5F5F5F5F5F5F5F5F5F5F5F5F5F5F5F5F5F5F5F5F5F5F5F5F5F5F5F5F5F5F5F5F5F5F5F5F5F5F5F5F5F5F5F5F5F5F5F5F5
310
F5F5F5F5F5F5F5F5F5F5F5F5F5F5F5F5F5F5F5F5F5F5F5F5F5F5F5F5F5F5F5F5F5F5F5F5F5F5F5E2F5F5F5F5F5F5F5F5F5F5F5F5F5F5F5F5F5F5F5F5F5E2E2F5F5F5F5F5F5F5F5F5F5F5F5F5F5F5F5F5F5F5F5F5E2F5F5F5F5F5F5F5F5F5F5F5F5F5F5F5F5F5F5F5F5F5F5F5F5F5F5F5F5F5F5F5F5F5F5F5F5F5F5F5F5F5F5
310
F5F5F5F5F5F5F5F5F5F5F5F5F5F5F5F5F5F5F5F5F5F5F5F5F5F5F5F5F5F5F5F5F5F5F5F5F5F5F5F5F5F5F5F5F5F5F5F5F5F5F5F5F5F5F5F5F5F5F5F5F5F5F5F5F5F5F5F5F5F5F5F5F5F5F5F5F5F5F5F5F5F5F5F5F5F5F5F5F5F5F5F5E2F5F5F5F5F5F5F5F5F5F5F5F5F5F5F5F5F5F5F5F5F5E2E2F5F5F5F5F5F5F5F5F5F5F5
310
F5F5F5F5F5F5F5F5F5F5E2F5F5F5F5F5F5F5F5F5F5F5F5F5F5F5F5F5F5F5F5F5F5F5F5F5F5F5F5F5F5F5F5F5F5F5F5F5F5F5F5F5F5F5F5F5F5F5F5F5F5F5F5F5F5F5F5F5F5F5F5F5F5F5F5F5F5F5F5F5F5F5F5F5F5F5F5F5F5F5F5F5F5F5F5F5F5F5F5F5F5F5F5F5F5F5F5F5F5F5F5F5F5F5F5F5F5F5F5F5F5F5F5F5F5F5F5
310
F5F5F5F5F5F5F5F5F5F5F5F5F5F5F5F5F5F5E2F5F5F5F5F5F5F5F5F5F5F5F5F5F5F5F5F5F5F5F5F5E2E2F5F5F5F5F5F5F5F5F5F5F5F5F5F5F5F5F5F5F5F5F5E2F5F5F5F5F5F5F5F5F5F5F5F5F5F5F5F5F5F5F5F5F5F5F5F5F5F5F5F5F5F5F5F5F5F5F5F5F5F5F5F5F5F5F5F5F5F5F5F5F5F5F5F5F5F5F5F5F5F5F5F5F5F5F5
310
F5F5F5F5F5F5F5F5F5F5F5F5F5F5F5F5F5F5F5F5F5F5F5F5F5F5F5F5F5F5F5F5F5F5F5F5F5F5F5F5F5F5F5F5F5F5F5F5F5F5F5F5F5F5F5F5F5F5F5F5F5F5F5F5F5F5F5F5F5F5F5E2F5F5F5F5F5F5F5F5F5F5F5F5F5F5F5F5F5F5F5F5F5E2E2F5F5F5F5F5F5F5F5F5F5F5F5F5F5F5F5F5F5F5F5F5E2F5F5F5F5F5F5F5F5F5F5
310
F5F5F5F5F5F5F5F5F5F5F5F5F5F5F5F5F5F5F5F5F5F5F5F5F5F5F5F5F5F5F5F5F5F5F5F5F5F5F5F5F5F5F5F5F5F5F5F5F5F5F5F5F5F5F5F5F5F5F5F5F5F5F5F5F5F5F5F5F5F5F5F5F5F5F5F5F5F5F5F5F5F5F5F5F5F5F5F5F5F5F5F5F5F5F5F5F5F5F5F5F5F5F5F5F5F5F5F5F5F5F5F5F5F5F5F5F5F5F5F5F5F5F5F5E2F5F5
310
F5F5F5F5F5F5F5F5F5F5F5F5F5F5F5F5F5F5F5E2E2F5F5F5F5F5F5F5F5F5F5F5F5F5F5F5F5F5F5F5F5F5E2F5F5F5F5F5F5F5F5F5F5F5F5F5F5F5F5F5F5F5F5F5F5F5F5F5F5F5F5F5F5F5F5F5F5F5F5F5F5F5F5F5F5F5F5F5F5F5F5F5F5F5F5F5F5F5F5F5F5F5F5F5F5F5F5F5F5F5F5F5F5F5F5F5F5F5F5F5F5F5F5F5F5F5F5
310
F5F5F5F5F5F5F5F5F5F5F5F5F5F5F5F5F5F5F5F5F5F5F5F5F5F5F5F5F5F5F5F5F5F5F5F5F5F5F5F5F5F5F5F5F5F5F5F5F5F5E2F5F5F5F5F5F5F5F5F5F5F5F5F5F5F5F5F5F5F5F5F5E2E2F5F5F5F5F5F5F5F5F5F5F5F5F5F5F5F5F5F5F5F5F5E2F5F5F5F5F5F5F5F5F5F5F5F5F5F5F5F5F5F5F5F5F5F5F5F5F5F5F5F5F5F5F5
310
F5F5F5F5F5F5F5F5F5F5F5F5F5F5F5F5F5F5F5F5F5F5F5F5F5F5F5F5F5F5F5F5F5F5F5F5F5F5F5F5F5F5F5F5F5F5F5F5F5F5F5F5F5F5F5F5F5F5F5F5F5F5F5F5F5F5F5F5F5F5F5F5F5F5F5F5F5F5F5F5F5F5F5F5F5F5F5F5F5F5F5F5F5F5F5F5F5F5F5F5F5F5F5E2F5F5F5F5F5F5F5F5F5F5F5F5F5F5F5F5F5F5F5F5F5E2E2
310
F5F5F5F5F5F5F5F5F5F5F5F5F5F5F5F5F5F5F5F5F5E2F5F5F5F5F5F5F5F5F5F5F5F5F5F5F5F5F5F5F5F5F5F5F5F5F5F5F5F5F5F5F5F5F5F5F5F5F5F5F5F5F5F5F5F5F5F5F5F5F5F5F5F5F5F5F5F5F5F5F5F5F5F5F5F5F5F5F5F5F5F5F5F5F5F5F5F5F5F5F5F5F5F5F5F5F5F5F5F5F5F5F5F5F5F5F5F5F5F5F5F5F5F5F5F5F5
310
F5F5F5F5F5F5F5F5F5F5F5F5F5F5F5F5F5F5F5F5F5F5F5F5F5F5F5F5F5E2F5F5F5F5F5F5F5F5F5F5F5F5F5F5F5F5F5F5F5F5F5E2E2F5F5F5F5E2F5F5F5F5F5F5F5F5F5F5F5F5F5F5F5F5E2F5F5F5F5F5F5F5F5F5F5F5F5F5F5F5F5F5F5F5F5F5F5F5F5F5F5F5F5F5F5F5F5F5F5F5F5F5F5F5F5F5F5F5F5F5F5F5F5F5F5F5F5
310
F5F5F5F5F5F5F5F5F5F5F5F5F5F5F5F5F5F5F5F5F5F5F5F5F5F5F5F5F5F5F5F5F5F5F5F5F5F5F5F5F5F5F5F5F5F5F5F5F5E2F0E2E2F5F5F5F5F5F5E2F0E2E2F5DCF5F5F5F5F5F5F0F0E2F5F5F5F5F5F5F5F5E2F5F5F5F5F5F5F5F5F5F5F5F5F5F5F5F5E2F5F5F5F5E2E2F5F5F5F5E2F5F5F5F5F5F5F5F5F5F5F5F5F5F5F5F5
310
E2F5F5F5F5F5F5F5F5F5F5F5F5F5F5F5F5F5F5F5F5F5F5F5F5F5F5F5F5F5F5F5F5F5F5F5F5F5F5F5F5F5F5F5F5F5F5F5F5F5F5F5F5F5F5F5F5F5F5F5F5F5F5F5F5F5F5F5F5F5F5F5F5F5F5F5F5F5F5F5F5F5F5F5F5F5F5F5F5F5F5F5F5F5F5F5F5F5F5F5F5E2DCDCF0F5E2F5F5F5F5F5E2F5F0E2E2DCF5F5F5F5F5E2F0F0F5
310
E2F5F5F5E2E2E2F5E2F5F5F5F5F5F5F5F5F5F5F5F5F5F5F5F5E2F5F5F5F5E2E2F5F5F5F5E2F5F5F5F5F5F5F5F5F5F5F5F5F5F5F5F5E2F5F5F5F5F5F5F5F5F5F5F5F5F5F5F5F5F5F5F5F5F5F5F5F5F5F5F5F5F5F5F5F5F5F5F5F5F5F5F5F5F5F5F5F5F5F5F5F5F5F5F5F5F5F5F5F5F5F5F5F5F5F5F5F5F5F5F5F5F5F5F5F5F5
310
F5F5F5F5F5F5F5F5F5F5F5F5F5F5F5F5F5F5F5F5F5F5F5F5F5F5E2F0DCF0DCE2E2E2F5F5F5E2E2F0F0F0E2DCF5F5F5F5E2F0F0F0E2E2F0E2E2E2E2E2E2E2F5F5F5F5F5F5F5F5F5F5F5F5F5F5F5F5E2F5F5F5F5E2E2F5F5F5F5E2F5F5F5F5F5F5F5F5F5F5F5F5F5F5F5F5E2F5F5F5F5F5F5F5F5F5F5F5F5F5F5F5F5F5F5F5F5
310
F5F5F5F5F5F5F5F5F5F5F5F5F5F5F5F5F5F5F5F5F5F5F5F5F5F5F5F5F5F5F5F5F5F5F5F5F5F5F5F5F5F5F5F5F5F5F5F5F5F5F5F5F5F5F5F5F5F5F5F5F5F5F5F5F5F5F5F5F5F5F5F5F5F5F5F5F5F5F5E2F0DCF0DCF0F0E2F5F5F5E2F0DCE2E2E2DCF5F5F5F5F0F0F0F0E2E2F0E2F5E2E2E2E2E2F5F5F5F5F5F5F5F5F5F5F5F5
310
F5F5F5F5E2F5F5F5F5E2E2F5F5F5F5E2F5F5F5F5F5F5F5F5F5F5F5F5F5F5F5F5E2F5F5F5F5F5F5F5F5F5F5F5F5F5F5F5F5F5F5F5F5F5F5F5F5F5F5F5F5F5F5F5F5F5F5F5F5F5F5F5F5F5F5F5F5F5F5F5F5F5F5F5F5F5F5F5F5F5F5F5F5F5F5F5F5F5F5F5F5F5F5F5F5F5F5F5F5F5F5F5F5F5F5F5F5F5F5F5F5F5F5F5F5F5F5
310
F5F5F5F5F5F5E2DCDCDCF0E2F5F5F5F5F5F0DCDCE2E2DCF5F5F5F5F5F0F0F0DCE2F0F5E2E2E2E2F5E2F5F5F5F5F5F5F5F5F5F5F5F5F5F5F5F5E2F5F5F5F5E2E2F5F5F5F5E2F5F5F5F5F5F5F5F5F5F5F5F5F5F5F5F5E2F5F5F5F5F5F5F5F5F5F5F5F5F5F5F5F5F5F5F5F5F5F5F5F5F5F5F5F5F5F5F5F5F5F5F5F5F5F5F5F5F5
310
F5F5F5F5F5F5F5F5F5F5F5F5F5F5F5F5F5F5F5F5F5F5F5F5F5F5F5F5F5F5F5F5F5F5F5F5F5F5F5F5F5F5F5F5F5F5F5F5F5F5F5F5F5F5F5F5F5F5F5E2F0F0F0E2F5F5F5F5F5E2F0E2E2E2E2DCF5F5F5F5F5F0F0E2E2F5F5F5F5E2E2E2F5E2F5F5F5F5F5F5F5F5F5F5F5F5F5F5F5F5E2F5F5F5F5E2E2F5F5F5F5E2F5F5F5F5F5
310
F5F5F5F5F5F5F5F5F5F5F5E2F5F5F5F5F5F5F5F5F5F5F5F5F5F5F5F5F5F5F5F5F5F5F5F5F5F5F5F5F5F5F5F5F5F5F5F5F5F5F5F5F5F5F5F5F5F5F5F5F5F5F5F5F5F5F5F5F5F5F5F5F5F5F5F5F5F5F5F5F5F5F5F5F5F5F5F5F5F5F5F5F5F5F5F5F5F5F5F5F5F5F5F5F5F5F5F5F5F5F5F5F5F5E2E2F5F5F5F5F5F5F5F5E2E2F5
310
F5DCF5F5F5F5F5F5F5F0E2F5F5F5F5F5E2F5F5E2F5F5F5F5F5F5F5F5F5F5F5F5F5F5F5F5E2F5F5F5F5E2E2F5F5F5F5E2F5F5F5F5F5F5F5F5F5F5F5F5F5F5F5F5E2F5F5F5F5F5F5F5F5F5F5F5F5F5F5F5F5F5F5F5F5F5F5F5F5F5F5F5F5F5F5F5F5F5F5F5F5F5F5F5F5F5F5F5F5F5F5F5F5F5F5F5F5F5F5F5F5F5F5F5F5F5F5
310
F5F5F5F5F5F5F5F5F5F5F5F5F5F5F5F5F5F5F5F5F5F5F5F5F5F5F5F5F5F5F5F5F5F5F5F5F5F5F5F5F5F5F5F5F5F5F5F5F5F5F5F5F5F5DCF5F5F5F5F5F5F5F5F5F5F5F5F5F5F5F5F5E2F5F5F5F5F5F5F5F5F5F5F5F5F5F5F5F5E2F5F5F5F5E2E2F5F5F5F5E2F5F5F5F5F5F5F5F5F5F5F5F5F5F5F5F5E2F5F5F5F5F5F5F5F5F5
310
F5F5F5F5F5F5F5F5F5F5F5F5F5F5F5F5F5F5F5F5F5F5F5F5F5F5F5F5F5F5F5F5F5F5F5F5F5F5F5F5F5F5F5F5F5F5F5F5F5F5F5F5F5F5F5F5F5F5F5F5F5F5F5F5F5F5F5F5F5F5F5F5F5F5F5F5F5F5F5F5F5F5F5F5F5F5F5F5F5F5F5F5F5F5F5F5F5F5F5F5F5F5F5F5F5F5F5DCF5F5F5F5F5F5F5F5F5F5F5F5F5F5F5F5F5E2F5
310
F5F5F5F5F5F5F5F5F5F5F5F5F5F5F5E2F5F5F5F5E2E2F5F5F5F5E2F5F5F5F5F5F5F5F5F5F5F5F5F5F5F5F5E2F5F5F5F5F5F5F5F5F5F5F5F5F5F5F5F5F5F5F5F5F5F5F5F5F5F5F5F5F5F5F5F5F5F5F5F5F5F5F5F5F5F5F5F5F5F5F5F5F5F5F5F5F5F5F5F5F5F5F5F5F5F5F5F5F5F5F5F5F5F5F5F5F5F5F5F5F5F5F5F5F5F5F5
310
F5F5F5F5F5F5F5F5F5F5F5F5F5F5F5F5F5F5F5F5F5F5F5F5F5F5F5F5F5F5F5F5F5DCF5F5F5F5F5F5F5F5F5F5F5F5F5F5F5F5F5E2F5F5F5F5F5F5F5F5F5F5F5F5F5F5F5F5E2F5F5F5F5E2E2F5F5F5F5E2F5F5F5F5F5F5F5F5F5F5F5F5F5F5F5F5E2F5F5F5F5F5F5F5F5F5F5F5F5F5F5F5F5F5F5F5F5F5F5F5F5F5F5F5F5F5F5
310
F5F5F5F5F5F5F5F5F5F5F5F5F5F5F5F5F5F5F5F5F5F5F5F5F5F5F5F5F5F5F5F5F5F5F5F5F5F5F5F5F5F5F5F5F5F5F5F5F5F5F5F5F5F5F5F5F5F5F5F5F5F5F5F5F5F5F5F5F5F5F5F5F5F5F5F5F5F5F5F5F5F5F5F5F5F5DCF5F5F5F5F5F5F5F5F5F5F5F5F5F5F5F5F5E2F5F5F5F5F5F5F5F5F5F5F5F5F5F5F5F5E2F5F5F5F5E2
310
E2F5F5F5F5E2F5F5F5F5F5F5F5F5F5F5F5F5F5F5F5F5E2F5F5F5F5F5F5F5F5F5F5F5F5F5F5F5F5F5F5F5F5F5F5F5F5F5F5F5F5F5F5F5F5F5F5F5F5F5F5F5F5F5F5F5F5F5F5F5F5F5F5F5F5F5F5F5F5F5F5F5F5F5F5F5F5F5F5F5F5F5F5F5F5F5F5F5F5F5F5F5F5F5F5F5F5F5F5F5F5F5F5F5F5F5F5F5F5F5F5F5F5F5F5F5F5
310
F5F5F5F5F5F5F5F5F5F5F5F5DCF5F5F5F5F5F5F5F5F5F5F5F5F5F5F5F5F5E2F5F5F5F5F5F5F5F5F5F5F5F5F5F5F5F5E2F5F5F5F5E2E2F5F5F5F5E2F5F5F5F5F5F5F5F5F5F5F5F5F5F5F5F5E2F5F5F5F5F5F5F5F5F5F5F5F5F5F5F5F5F5F5F5F5F5F5F5F5F5F5F5F5F5F5F5F5F5F5F5F5F5F5F5F5F5F5F5F5F5F5F5F5F5F5F5
310
F5F5F5F5F5F5F5F5F5F5F5F5F5F5F5F5F5F5F5F5F5F5F5F5F5F5F5F5F5F5F5F5F5F5F5F5F5F5F5F5F5F5F5F5F5F5F5F5F5F5F5F5F5F5F5F5F5F5F5F5F5F5F5F5F5DCF5F5F5F5F5F5F5F5F5F5F5F5F5F5F5F5F5E2F5F5F5F5F5F5F5F5F5F5F5F5F5F5F5F5E2F5F5F5F5E2E2F5F5F5F5E2F5F5F5F5F5F5F5F5F5F5F5F5F5F5F5
310
F5E2F5F5F5F5F5F5F5F5F5F5F5F5F5F5F5F5F5F5F5F5F5F5F5F5F5F5F5F5F5F5F5F5F5F5F5F5F5F5F5F5F5F5F5F5F5F5F5F5F5F5F5F5F5F5F5F5F5F5F5F5F5F5F5F5F5F5F5F5F5F5F5F5F5F5F5F5F5F5F5F5F5F5F5F5F5F5F5F5F5F5F5F5F5F5F5F5F5F5F5F5F5F5F5F5F5F5F5F5F5F5F5F5F5F5F5F5DCF5F5F5F5F5F5F5F5
310
F5F5F5F5F5F5F5F5F5E2F5F5F5F5F5F5F5F5F5F5F5F5F5F5F5F5E2F5F5F5F5E2E2F5F5F5F5E2F5F5F5F5F5F5F5F5F5F5F5F5F5F5F5F5E2F5F5F5F5F5F5F5F5F5F5F5F5F5F5F5F5F5F5F5F5F5F5F5F5F5F5F5F5F5F5F5F5F5F5F5F5F5F5F5F5F5F5F5F5F5F5F5F5F5F5F5F5F5F5F5F5F5F5F5F5F5F5F5F5F5F5F5F5F5F5F5F5
310
F5F5F5F5F5F5F5F5F5F5F5F5F5F5F5F5F5F5F5F5F5F5F5F5F5F5F5F5F5F5F5F5F5F5F5F5F5F5F5F5F5F5E2E2DCE2F5F5F5F5F5F5F5F5F5F5F5F5F5F5F5F5E2F5F5F5F5F5F5F5F5F5F5F5F5F5F5F5F5E2F5F5F5F5E2E2F5F5F5F5E2F5F5F5F5F5F5F5F5F5F5F5F5F5F5F5F5E2F5F5F5F5F5F5F5F5F5F5F5F5F5F5F5F5F5F5F5
310
F5F5F5F5F5F5F5F5F5F5F5F5F5F5F5F5F5F5F5F5F5F5F5F5F5F5F5F5F5F5F5F5F5F5F5F5F5F5F5F5F5F5F5F5F5F5F5F5F5F5F5F5F5F5F5F5F5F5F5F5F5F5F5F5F5F5F5F5F5F5F5F5F5F5F5F5F5F5F5F5F5F5F5F5F5F5F5F5F5F5F5F5F5F5F5F5F5DCF5F5F5F5F5F5F5F5F5F5F5F5F5F5F5F5F5E2F5F5F5F5F5F5F5F5F5F5F5
310
F5F5F5F5F5E2F5F5F5F5E2E2F5F5F5F5E2F5F5F5F5F5F5F5F5F5F5F5F5F5F5F5F5E2F5F5F5F5F5F5F5F5F5F5F5F5F5F5F5F5F5F5F5F5F5F5F5F5F5F5F5F5F5F5F5F5F5F5F5F5F5F5F5F5F5F5F5F5F5F5F5F5F5F5F5F5F5F5F5F5F5F5F5F5F5F5F5F5F5F5F5F5F5F5F5F5F5F5F5F5F5F5F5F5F5F5F5F5F5F5F5F5F5F5F5F5F5
310
F5F5F5F5F5F5F5F5F5F5F5F5F5F5F5F5F5F5F5F5F5F5F5DCF5F5F5F5F5F5F5F5F5F5F5F5F5F5F5F5F5E2F5F5F5F5F5F5F5F5F5F5F5F5F5F5F5F5E2F5F5F5F5E2E2F5F5F5F5F5F5F5F5F5F5F5F5F5F5F5F5F5F5F5F5F5E2F5F5F5F5F5F5F5F5F5F5F5F5F5F5F5F5F5F5F5F5F5F5F5F5F5F5F5F5F5F5F5F5F5F5F5F5F5F5F5F5
310
F5F5F5F5F5F5F5F5F5F5F5F5F5F5F5F5F5F5F5F5F5F5F5F5F5F5F5F5F5F5F5F5F5F5F5F5F5F5F5F5F5F5F5F5F5F5F5F5F5F5F5F5F5F5F5F5F5F5F5F5F5F5F5F5F5F5F5F5F5F5F5F5F5F5F5F5DCF5F5F5F5F5F5F5F5F5F5F5F5F5F5F5F5F5E2F5F5F5F5F5F5F5F5F5F5F5F5F5F5F5F5F5F5F5F5F5E2E2F5F5F5F5F5F5F5F5F5
310
F5F5F5F5F5F5F5F5F5F5F5F5E2F5F5F5F5F5F5F5F5F5F5F5F5F5F5F5F5F5F5F5F5F5F5F5F5F5F5F5F5F5F5F5F5F5F5F5F5F5F5F5F5F5F5F5F5F5F5F5F5F5F5F5F5F5F5F5F5F5F5F5F5F5F5F5F5F5F5F5F5F5F5F5F5F5F5F5F5F5F5F5F5F5F5F5F5F5F5F5F5F5F5F5F5F5F5F5F5F5F5F5F5F5F5F5F5F5F5F5F5F5F5F5F5F5F5
310
F5F5F5F5F5F5F5F5F5F5F5F5F5F5F5F5F5F5F5F5E2F5F5F5F5F5F5F5F5F5F5F5F5F5F5F5F5F5F5F5F5F5E2E2F5F5F5F5F5F5F5F5F5F5F5F5F5F5F5F5F5F5F5F5F5E2F5F5F5F5F5F5F5F5F5F5F5F5F5F5F5F5F5F5F5F5F5F5F5F5F5F5F5F5F5F5F5F5F5F5F5F5F5F5F5F5F5F5F5F5F5F5F5F5F5F5F5F5F5F5F5F5F5F5F5F5F5
310
F5F5F5F5F5F5F5F5F5F5F5F5F5F5F5F5F5F5F5F5F5F5F5F5F5F5F5F5F5F5F5F5F5F5F5F5F5F5F5F5F5F5F5F5F5F5F5F5F5F5F5F5F5F5F5F5F5F5F5F5F5F5F5F5F5F5F5F5F5F5F5F5F5E2F5F5F5F5F5F5F5F5F5F5F5F5F5F5F5F5F5F5F5F5F5E2E2F5F5F5F5F5F5F5F5F5F5F5F5F5F5F5F5F5F5F5F5F5E2F5F5F5F5F5F5F5F5
310
F5F5F5F5F5F5F5F5F5F5F5F5F5F5F5F5F5F5F5F5F5F5F5F5F5F5F5F5F5F5F5F5F5F5F5F5F5F5F5F5F5F5F5F5F5F5F5F5F5F5F5F5F5F5F5F5F5F5F5F5F5F5F5F5F5F5F5F5F5F5F5F5F5F5F5F5F5F5F5F5F5F5F5F5F5F5F5F5F5F5F5F5F5F5F5F5F5F5F5F5F5F5F5F5F5F5F5F5F5F5F5F5F5F5F5F5F5F5F5F5F5F5F5F5F5F5E2
310
F5F5F5F5F5F5F5F5F5F5F5F5F5F5F5F5F5F5F5F5F5E2E2F5F5F5F5F5F5F5F5F5F5F5F5F5F5F5F5F5F5F5F5F5E2F5F5F5F5F5F5F5F5F5F5F5F5F5F5F5F5F5F5F5F5F5F5F5F5F5F5F5F5F5F5F5F5F5F5F5F5F5F5F5F5F5F5F5F5F5F5F5F5F5F5F5F5F5F5F5F5F5F5F5F5F5F5F5F5F5F5F5F5F5F5F5F5F5F5F5F5F5F5F5F5F5F5
310
F5F5F5F5F5F5F5F5F5F5F5F5F5F5F5F5F5F5F5F5F5F5F5F5F5F5F5F5F5F5F5F5F5F5F5F5F5F5F5F5F5F5F5F5F5F5F5F5F5F5F5F5E2F5F5F5F5F5F5F5F5F5F5F5F5F5F5F5F5F5F5F5F5F5E2E2F5F5F5F5F5F5F5F5F5F5F5F5F5F5F5F5F5F5F5F5F5E2F5F5F5F5F5F5F5F5F5F5F5F5F5F5F5F5F5F5F5F5F5F5F5F5F5F5F5F5F5
310
F5F5F5F5F5F5F5F5F5F5F5F5F5F5F5F5F5F5F5F5F5F5F5F5F5F5F5F5F5F5F5F5F5F5F5F5F5F5F5F5F5F5F5F5F5F5F5F5F5F5F5F5F5F5F5F5F5F5F5F5F5F5F5F5F5F5F5F5F5F5F5F5F5F5F5F5F5F5F5F5F5F5F5F5F5F5F5F5F5F5F5F5F5F5F5F5F5F5F5F5F5F5F5F5F5E2F5F5F5F5F5F5F5F5F5F5F5F5F5F5F5F5F5F5F5F5F5
310
E2E2F5F5F5F5F5F5F5F5F5F5F5F5F5F5F5F5F5F5F5F5F5E2F5F5F5F5F5F5F5F5F5F5F5F5F5F5F5F5F5F5F5F5F5F5F5F5F5F5F5F5F5F5F5F5F5F5F5F5F5F5F5F5F5F5F5F5F5F5F5F5F5F5F5F5F5F5F5F5F5F5F5F5F5F5F5F5F5F5F5F5F5F5F5F5F5F5F5F5F5F5F5F5F5F5F5F5F5F5F5F5F5F5F5F5F5F5F5F5F5F5F5F5F5F5F5
310
F5F5F5F5F5F5F5F5F5F5F5F5F5F5F5F5F5F5F5F5F5F5F5F5F5F5F5F5F5F5F5E2F5F5F5F5F5F5F5F5F5F5F5F5F5F5F5F5F5F5F5F5F5E2E2F5F5F5F5F5F5F5F5F5F5F5F5F5F5F5F5F5F5F5F5F5E2F5F5F5F5F5F5F5F5F5F5F5F5F5F5F5F5F5F5F5F5F5F5F5F5F5F5F5F5F5F5F5F5F5F5F5F5F5F5F5F5F5F5F5F5F5F5F5F5F5F5
310
F5F5F5F5F5F5F5F5F5F5F5F5F5F5F5F5F5F5F5F5F5F5F5F5F5F5F5F5F5F5F5F5F5F5F5F5F5F5F5F5F5F5F5F5F5F5F5F5F5F5F5F5F5F5F5F5F5F5F5F5F5F5F5F5F5F5F5F5F5F5F5F5F5F5F5F5F5F5F5F5F5F5F5F5E2F5F5F5F5F5F5F5F5F5F5F5F5F5F5F5F5F5F5F5F5F5E2E2F5F5F5F5F5F5F5F5F5F5F5F5F5F5F5F5F5F5F5
310
F5F5E2F5F5F5F5F5F5F5F5F5F5F5F5F5F5F5F5F5F5F5F5F5F5F5F5F5F5F5F5F5F5F5F5F5F5F5F5F5F5F5F5F5F5F5F5F5F5F5F5F5F5F5F5F5F5F5F5F5F5F5F5F5F5F5F5F5F5F5F5F5F5F5F5F5F5F5F5F5F5F5F5F5F5F5F5F5F5F5F5F5F5F5F5F5F5F5F5F5F5F5F5F5F5F5F5F5F5F5F5F5F5F5F5F5F5F5F5F5F5F5F5F5F5F5F5
310
F5F5F5F5F5F5F5F5F5F5E2F5F5F5F5F5F5F5F5F5F5F5F5F5F5F5F5F5F5F5F5F5E2E2F5F5F5F5E2F5F5F5F5F5F5F5F5F5F5F5F5F5F5F5F5E2F5F5F5F5F5F5F5F5F5F5F5F5F5F5F5F5F5F5F5F5F5F5F5F5F5F5F5F5F5F5F5F5F5F5F5F5F5F5F5F5F5F5F5F5F5F5F5F5F5F5F5F5F5F5F5F5F5F5F5F5F5F5F5F5F5F5F5F5F5F5F5
310
F5F5F5F5F5F5F5F5F5F5F5F5F5F5F5F5F5F5F5F5F5F5F5F5F5F5F5F5F5F5F5F5F5F5F5F5F5F5F5F5F5F5F5F5F5F5F5F5F5F5F5F5F5F5F5F5F5F5F5F5F5F5F5E2F5F5F5F5F5F5F5F5F5F5F5F5F5F5F5F5E2F5F5F5F5E2E2F5F5F5F5E2F5F5F5F5F5F5F5F5F5F5F5F5F5F5F5F5E2F5F5F5F5F5F5F5F5F5F5F5F5F5F5F5F5F5F5
310
F5F5F5F5F5F5F5F5F5F5F5F5F5F5F5F5F5F5F5F5F5F5F5F5F5F5F5F5F5F5F5F5F5F5F5F5F5F5F5F5F5F5F5F5F5F5F5F5F5F5F5F5F5F5F5F5F5F5F5F5F5F5F5F5F5F5F5F5F5F5F5F5F5F5F5F5F5F5F5F5F5F5F5F5F5F5F5F5F5F5F5F5F5F5F5F5F5F5F5F5F5F5F5F5F5F5F5F5F5F5F5F5F5F5F5F5E2F5F5F5F5F5F5F5F5F5F5
310
F5F5F5F5F5F5E2F5F5F5F5E2E2F5F5F5F5E2F5F5F5F5F5F5F5F5F5F5F5F5F5F5F5F5E2F5F5F5F5F5F5F5F5F5F5F5F5F5F5F5F5F5F5F5F5F5F5F5F5F5F5F5F5F5F5F5F5F5F5F5F5F5F5F5F5F5F5F5F5F5F5F5F5F5F5F5F5F5F5F5F5F5F5F5F5F5F5F5F5F5F5F5F5F5F5F5F5F5F5F5F5F5F5F5F5F5F5F5F5F5F5F5F5F5F5F5F5
310
F5F5F5F5F5F5F5F5F5F5F5F5F5F5F5F5F5F5F5F5F5F5F5F5F5F5F5F5F5F5F5F5F5F5F5F5F5F5F5F5F5F5E2F5F5F5F5F5F5F5F5F5F5F5F5F5F5F5F5E2F5F5F5F5E2E2F5F5F5F5E2F5F5F5F5F5F5F5F5F5F5F5F5F5F5F5F5E2F5F5F5F5F5F5F5F5F5F5F5F5F5F5F5F5F5F5F5F5F5F5F5F5F5F5F5F5F5F5F5F5F5F5F5F5F5F5F5
310
F5F5F5F5F5F5F5F5F5F5F5F5F5F5F5F5F5F5F5F5F5F5F5F5F5F5F5F5F5F5F5F5F5F5F5F5F5F5F5F5F5F5F5F5F5F5F5F5F5F5F5F5F5F5F5F5F5F5F5F5F5F5F5F5F5F5F5F5F5F5F5F5F5F5F5F5F5F5F5F5F5F5F5F5F5F5F5F5F5F5F5F5F5F5F5E2F5F5F5F5F5F5F5F5F5F5F5F5F5F5F5F5E2F5F5F5F5E2E2F5F5F5F5E2F5F5F5
310
F5F5F5F5F5F5F5F5F5F5F5F5F5E2F5F5F5F5F5F5F5F5F5F5F5F5F5F5F5F5F5F5F5F5F5F5F5F5F5F5F5F5F5F5F5F5F5F5F5F5F5F5F5F5F5F5F5F5F5F5F5F5F5F5F5F5F5F5F5F5F5F5F5F5F5F5F5F5F5F5F5F5F5F5F5F5F5F5F5F5F5F5F5F5F5F5F5F5F5F5F5F5F5F5F5F5F5F5F5F5F5F5F5F5F5F5F5F5F5F5F5F5F5F5F5F5F5
310
F5F5F5F5F5F5F5F5F5F5F5F5F5F5F5F5F5F5F5F5F5E2F5F5F5F5F5F5F5F5F5F5F5F5F5F5F5F5E2F5F5F5F5E2E2F5F5F5F5E2F5F5F5F5F5F5F5F5F5F5F5F5F5F5F5F5E2F5F5F5F5F5F5F5F5F5F5F5F5F5F5F5F5F5F5F5F5F5F5F5F5F5F5F5F5F5F5F5F5F5F5F5F5F5F5F5F5F5F5F5F5F5F5F5F5F5F5F5F5F5F5F5F5F5F5F5F5
310
F5F5F5F5F5F5F5F5F5F5F5F5F5F5F5F5F5F5F5F5F5F5F5F5F5F5F5F5F5F5F5F5F5F5F5F5F5F5F5F5F5F5F5F5F5F5F5F5F5F5F5F5F5F5F5F5F5F5F5F5F5F5F5F5F5F5F5F5F5F5F5F5F5F5E2F5F5F5F5F5F5F5F5F5F5F5F5F5F5F5F5E2F5F5F5F5E2E2F5F5F5F5E2F5F5F5F5F5F5F5F5F5F5F5F5F5F5F5F5E2F5F5F5F5F5F5F5
310
F5F5F5F5F5F5F5F5F5F5F5F5F5F5F5F5F5F5F5F5F5F5F5F5F5F5F5F5F5F5F5F5F5F5F5F5F5F5F5F5F5F5F5F5F5F5F5F5F5F5F5F5F5F5F5F5F5F5F5F5F5F5F5F5F5F5F5F5F5F5F5F5F5F5F5F5F5F5F5F5F5F5F5F5F5F5F5F5F5F5F5F5F5F5F5F5F5F5F5F5F5F5F5F5F5F5F5F5F5F5F5F5F5F5F5F5F5F5F5F5F5F5F5F5F5F5F5
310
E2F5F5F5F5F5F5F5F5F5F5F5F5F5F5F5F5E2F5F5F5F5E2E2F5F5F5F5E2F5F5F5F5F5F5F5F5F5F5F5F5F5F5F5F5E2F5F5F5F5F5F5F5F5F5F5F5F5F5F5F5F5F5F5F5F5F5F5F5F5F5F5F5F5F5F5F5F5F5F5F5F5F5F5F5F5F5F5F5F5F5F5F5F5F5F5F5F5F5F5F5F5F5F5F5F5F5F5F5F5F5F5F5F5F5F5F5F5F5F5F5F5F5F5F5F5F5
310
F5F5F5F5F5F5F5F5F5F5F5F5F5F5F5F5F5F5F5F5F5F5F5F5F5F5F5F5F5F5F5F5F5F5F5F5F5F5F5F5F5F5F5F5F5F5F5F5F5F5F5F5F5E2F5F5F5F5F5F5F5F5F5F5F5F5F5F5F5F5E2F5F5F5F5E2E2F5F5F5F5E2F5F5F5F5F5F5F5F5F5F5F5F5F5F5F5F5E2F5F5F5F5F5F5F5F5F5F5F5F5F5F5F5F5F5F5F5F5F5F5F5F5F5F5F5F5
310
F5F5F5F5F5F5F5F5F5F5F5F5F5F5F5F5F5F5F5F5F5F5F5F5F5F5F5F5F5F5F5F5F5F5F5F5F5F5F5F5F5F5F5F5F5F5F5F5F5F5F5F5F5F5F5F5F5F5F5F5F5F5F5F5F5F5F5F5F5F5F5F5F5F5F5F5F5F5F5F5F5F5F5F5F5F5F5F5F5F5F5F5F5F5F5F5F5F5F5F5F5F5F5F5F5F5E2F5F5F5F5F5F5F5F5F5F5F5F5F5F5F5F5E2F5F5F5
310
F5E2E2F5F5F5F5E2F5F5F5F5F5F5F5F5F5F5F5F5F5F5F5F5E2F5F5F5F5F5F5F5F5F5F5F5F5F5F5F5F5F5F5F5F5F5F5F5F5F5F5F5F5F5F5F5F5F5F5F5F5F5F5F5F5F5F5F5F5F5F5F5F5F5F5F5F5F5F5F5F5F5F5F5F5F5F5F5F5F5F5F5F5F5F5F5F5F5F5F5F5F5F5F5F5F5F5F5F5F5F5F5F5F5F5F5F5F5F5F5F5F5F5F5F5F5F5
310
F5F5F5F5F5F5F5F5F5F5F5F5F5F5F5F5F5F5F5F5F5F5F5F5F5F5F5F5F5F5F5F5E2F5F5F5F5F5F5F5F5F5F5F5F5F5F5F5F5E2F5F5F5F5E2E2F5F5F5F5E2F5F5F5F5F5F5F5F5F5F5F5F5F5F5F5F5E2F5F5F5F5F5F5F5F5F5F5F5F5F5F5F5F5F5F5F5F5F5F5F5F5F5F5F5F5F5F5F5F5F5F5F5F5F5F5F5F5F5F5F5F5F5F5F5F5F5
310
F5F5F5F5F5F5F5F5F5F5F5F5F5F5F5F5F5F5F5F5F5F5F5F5F5F5F5F5F5F5F5F5F5F5F5F5F5F5F5F5F5F5F5F5F5F5F5F5F5F5F5F5F5F5F5F5F5F5F5F5F5F5F5F5F5F5F5F5F5F5F5F5F5F5F5F5F5F5F5F5F5F5F5F5F5E2F5F5F5F5F5F5F5F5F5F5F5F5F5F5F5F5E2F5F5F5F5E2E2F5F5F5F5E2F5F5F5F5F5F5F5F5F5F5F5F5F5
310
F5F5F5E2F5F5F5F5F5F5F5F5F5F5F5F5F5F5F5F5F5F5F5F5F5F5F5F5F5F5F5F5F5F5F5F5F5F5F5F5F5F5F5F5F5F5F5F5F5F5F5F5F5F5F5F5F5F5F5F5F5F5F5F5F5F5F5F5F5F5F5F5F5F5F5F5F5F5F5F5F5F5F5F5F5F5F5F5F5F5F5F5F5F5F5F5F5F5F5F5F5F5F5F5F5F5F5F5F5F5F5F5F5F5F5F5F5F5F5F5F5F5F5F5F5F5F5
310
F5F5F5F5F5F5F5F5F5F5F5E2F5F5F5F5F5F5F5F5F5F5F5F5F5F5F5F5E2F5F5F5F5E2E2F5F5F5F5E2F5F5F5F5F5F5F5F5F5F5F5F5F5F5F5F5E2F5F5F5F5F5F5F5F5F5F5F5F5F5F5F5F5F5F5F5F5F5F5F5F5F5F5F5F5F5F5F5F5F5F5F5F5F5F5F5F5F5F5F5F5F5F5F5F5F5F5F5F5F5F5F5F5F5F5F5F5F5F5F5F5F5F5F5F5F5F5
310
F5F5F5F5F5F5F5F5F5F5F5F5F5F5F5F5F5F5F5F5F5F5F5F5F5F5F5F5F5F5F5F5F5F5F5F5F5F5F5F5F5F5F5F5F5F5F5F5F5F5F5F5F5F5F5F5F5F5F5F5F5F5F5F5E2F5F5F5F5F5F5F5F5F5F5F5F5F5F5F5F5E2F5F5F5F5E2E2F5F5F5F5E2F5F5F5F5F5F5F5F5F5F5F5F5F5F5F5F5E2F5F5F5F5F5F5F5F5F5F5F5F5F5F5F5F5F5
310
F5F5F5F5F5F5F5F5F5F5F5F5F5F5F5F5F5F5F5F5F5F5F5F5F5F5F5F5F5F5F5F5F5F5F5F5F5F5F5F5F5F5F5F5F5F5F5F5F5F5F5F5F5F5F5F5F5F5F5F5F5F5F5F5F5F5F5F5F5F5F5F5F5F5F5F5F5F5F5F5F5F5F5F5F5F5F5F5F5F5F5F5F5F5F5F5F5F5F5F5F5F5F5F5F5F5F5F5F5F5F5F5F5F5F5F5F5E2F5F5F5F5F5F5F5F5F5
310
F5F5F5F5F5F5F5E2F5F5F5F5E2E2F5F5F5F5E2F5F5F5F5F5F5F5F5F5F5F5F5F5F5F5F5E2F5F5F5F5F5F5F5F5F5F5F5F5F5F5F5F5F5F5F5F5F5F5F5F5F5F5F5F5F5F5F5F5F5F5F5F5F5F5F5F5F5F5F5F5F5F5F5F5F5F5F5F5F5F5F5F5F5F5F5F5F5F5F5F5F5F5F5F5F5F5F5F5F5F5F5F5F5F5F5F5F5F5F5F5F5F5F5F5F5F5F5
310
F5F5F5F5F5F5F5F5F5F5F5F5F5F5F5F5F5F5F5F5F5F5F5F5F5F5F5F5F5F5F5F5F5F5F5F5F5F5F5F5F5F5F5E2F5F5F5F5F5F5F5F5F5F5F5F5F5F5F5F5E2F5F5F5F5E2E2F5F5F5F5E2F5F5F5F5F5F5F5F5F5F5F5F5F5F5F5F5E2F5F5F5F5F5F5F5F5F5F5F5F5F5F5F5F5F5F5F5F5F5F5F5F5F5F5F5F5F5F5F5F5F5F5F5F5F5F5
310
F5F5F5F5F5F5F5F5F5F5F5F5F5F5F5F5F5F5F5F5F5F5F5F5F5F5F5F5F5F5F5F5F5F5F5F5F5F5F5F5F5F5F5F5F5F5F5F5F5F5F5F5F5F5F5F5F5F5F5F5F5F5F5F5F5F5F5F5F5F5F5F5F5F5F5F5F5F5F5F5F5F5F5F5F5F5F5F5F5F5F5F5F5F5F5F5E2F5F5F5F5F5F5F5F5F5F5F5F5F5F5F5F5E2F5F5F5F5E2E2F5F5F5F5E2F5F5
310
F5F5F5F5F5F5F5F5F5F5F5F5F5F5E2F5F5F5F5F5F5F5F5F5F5F5F5F5F5F5F5F5F5F5F5F5F5F5F5F5F5F5F5F5F5F5F5F5F5F5F5F5F5F5F5F5F5F5F5F5F5F5F5F5F5F5F5F5F5F5F5F5F5F5F5F5F5F5F5F5F5F5F5F5F5F5F5F5F5F5F5F5F5F5F5F5F5F5F5F5F5F5F5F5F5F5F5F5F5F5F5F5F5F5F5F5F5F5F5F5F5F5F5F5F5F5F5
310
F5F5F5F5F5F5F5F5F5F5F5F5F5F5F5F5F5F5F5F5F5F5E2F5F5F5F5F5F5F5F5F5F5F5F5F5F5F5F5E2F5F5F5F5E2E2F5F5F5F5F5F5F5F5F5F5F5F5F5F5F5F5F5F5F5F5F5E2F5F5F5F5F5F5F5F5F5F5F5F5F5F5F5F5F5F5F5F5F5F5F5F5F5F5F5F5F5F5F5F5F5F5F5F5F5F5F5F5F5F5F5F5F5F5F5F5F5F5F5F5F5F5F5F5F5F5F5
310
F5F5F5F5F5F5F5F5F5F5F5F5F5F5F5F5F5F5F5F5F5F5F5F5F5F5F5F5F5F5F5F5F5F5F5F5F5F5F5F5F5F5F5F5F5F5F5F5F5F5F5F5F5F5F5F5F5F5F5F5F5F5F5F5F5F5F5F5F5F5F5F5F5F5F5E2F5F5F5F5F5F5F5F5F5F5F5F5F5F5F5F5F5F5F5F5F5E2E2F5F5F5F5F5F5F5F5F5F5F5F5F5F5F5F5F5F5F5F5F5E2F5F5F5F5F5F5
310
F5F5F5F5F5F5F5F5F5F5F5F5F5F5F5F5F5F5F5F5F5F5F5F5F5F5F5F5F5F5F5F5F5F5F5F5F5F5F5F5F5F5F5F5F5F5F5F5F5F5F5F5F5F5F5F5F5F5F5F5F5F5F5F5F5F5F5F5F5F5F5F5F5F5F5F5F5F5F5F5F5F5F5F5F5F5F5F5F5F5F5F5F5F5F5F5F5F5F5F5F5F5F5F5F5F5F5F5F5F5F5F5F5F5F5F5F5F5F5F5F5F5F5F5F5F5F5
310
F5E2F5F5F5F5F5F5F5F5F5F5F5F5F5F5F5F5F5F5F5F5F5E2E2F5F5F5F5F5F5F5F5F5F5F5F5F5F5F5F5F5F5F5F5F5E2F5F5F5F5F5F5F5F5F5F5F5F5F5F5F5F5F5F5F5F5F5F5F5F5F5F5F5F5F5F5F5F5F5F5F5F5F5F5F5F5F5F5F5F5F5F5F5F5F5F5F5F5F5F5F5F5F5F5F5F5F5F5F5F5F5F5F5F5F5F5F5F5F5F5F5F5F5F5F5F5
310
F5F5F5F5F5F5F5F5F5F5F5F5F5F5F5F5F5F5F5F5F5F5F5F5F5F5F5F5F5F5F5F5F5F5F5F5F5F5F5F5F5F5F5F5F5F5F5F5F5F5F5F5F5F5E2F5F5F5F5F5F5F5F5F5F5F5F5F5F5F5F5F5F5F5F5F5E2E2F5F5F5F5F5F5F5F5F5F5F5F5F5F5F5F5F5F5F5F5F5E2F5F5F5F5F5F5F5F5F5F5F5F5F5F5F5F5F5F5F5F5F5F5F5F5F5F5F5
310
F5F5F5F5F5F5F5F5F5F5F5F5F5F5F5F5F5F5F5F5F5F5F5F5F5F5F5F5F5F5F5F5F5F5F5F5F5F5F5F5F5F5F5F5F5F5F5F5F5F5F5F5F5F5F5F5F5F5F5F5F5F5F5F5F5F5F5F5F5F5F5F5F5F5F5F5F5F5F5F5F5F5F5F5F5F5F5F5F5F5F5F5F5F5F5F5F5F5F5F5F5F5F5F5F5F5F5E2F5F5F5F5F5F5F5F5F5F5F5F5F5F5F5F5F5F5F5
310
F5F5E2E2F5F5F5F5F5F5F5F5F5F5F5F5F5F5F5F5F5F5F5F5F5E2F5F5F5F5F5F5F5F5F5F5F5F5F5F5F5F5F5F5F5F5F5F5F5F5F5F5F5F5F5F5F5F5F5F5F5F5F5F5F5F5F5F5F5F5F5F5F5F5F5F5F5F5F5F5F5F5F5F5F5F5F5F5F5F5F5F5F5F5F5F5F5F5F5F5F5F5F5F5F5F5F5F5F5F5F5F5F5F5F5F5F5F5F5F5F5F5F5F5F5F5F5
310
F5F5F5F5F5F5F5F5F5F5F5F5F5F5F5F5F5F5F5F5F5F5F5F5F5F5F5F5F5F5F5F5F5E2F5F5F5F5F5F5F5F5F5F5F5F5F5F5F5F5F5F5F5F5F5E2E2F5F5F5F5F5F5F5F5F5F5F5F5F5F5F5F5F5F5F5F5F5E2F5F5F5F5F5F5F5F5F5F5F5F5F5F5F5F5F5F5F5F5F5F5F5F5F5F5F5F5F5F5F5F5F5F5F5F5F5F5F5F5F5F5F5F5F5F5F5F5
310
F5F5F5F5F5F5F5F5F5F5F5F5F5F5F5F5F5F5F5F5F5F5F5F5F5F5F5F5F5F5F5F5F5F5F5F5F5F5F5F5F5F5F5F5F5F5F5F5F5F5F5F5F5F5F5F5F5F5F5F5F5F5F5F5F5F5F5F5F5F5F5F5F5F5F5F5F5F5F5F5F5F5F5F5F5F5E2F5F5F5F5F5F5F5F5F5F5F5F5F5F5F5F5F5F5F5F5F5E2E2F5F5F5F5F5F5F5F5F5F5F5F5F5F5F5F5F5
310
F5F5F5F5E2F5F5F5F5F5F5F5F5F5F5F5F5F5F5F5F5F5F5F5F5F5F5F5F5F5F5F5F5F5F5F5F5F5F5F5F5F5F5F5F5F5F5F5F5F5F5F5F5F5F5F5F5F5F5F5F5F5F5F5F5F5F5F5F5F5F5F5F5F5F5F5F5F5F5F5F5F5F5F5F5F5F5F5F5F5F5F5F5F5F5F5F5F5F5F5F5F5F5F5F5F5F5F5F5F5F5F5F5F5F5F5F5F5F5F5F5F5F5F5F5F5F5
310
F5F5F5F5F5F5F5F5F5F5F5F5E2F5F5F5F5F5F5F5F5F5F5F5F5F5F5F5F5F5F5F5F5F5E2E2F5F5F5F5F5F5F5F5F5F5F5F5F5F5F5F5F5F5F5F5F5E2F5F5F5F5F5F5F5F5F5F5F5F5F5F5F5F5F5F5F5F5F5F5F5F5F5F5F5F5F5F5F5F5F5F5F5F5F5F5F5F5F5F5F5F5F5F5F5F5F5F5F5F5F5F5F5F5F5F5F5F5F5F5F5F5F5F5F5F5F5
310
F5F5F5F5F5F5F5F5F5F5F5F5F5F5F5F5F5F5F5F5F5F5F5F5F5F5F5F5F5F5F5F5F5F5F5F5F5F5F5F5F5F5F5F5F5F5F5F5F5F5F5F5F5F5F5F5F5F5F5F5F5F5F5F5F5E2F5F5F5F5F5F5F5F5F5F5F5F5F5F5F5F5F5F5F5F5F5E2E2F5F5F5F5F5F5F5F5F5F5F5F5F5F5F5F5F5F5F5F5F5E2F5F5F5F5F5F5F5F5F5F5F5F5F5F5F5F5
310
F5F5F5F5F5F5F5F5F5F5F5F5F5F5F5F5F5F5F5F5F5F5F5F5F5F5F5F5F5F5F5F5F5F5F5F5F5F5F5F5F5F5F5F5F5F5F5F5F5F5F5F5F5F5F5F5F5F5F5F5F5F5F5F5F5F5F5F5F5F5F5F5F5F5F5F5F5F5F5F5F5F5F5F5F5F5F5F5F5F5F5F5F5F5F5F5F5F5F5F5F5F5F5F5F5F5F5F5F5F5F5F5F5F5F5F5F5F5E2F5F5F5F5F5F5F5F5
310
F5F5F5F5F5F5F5F5F5F5F5F5F5E2E2F5F5F5F5E2F5F5F5F5F5F5F5F5F5F5F5F5F5F5F5F5E2F5F5F5F5F5F5F5F5F5F5F5F5F5F5F5F5F5F5F5F5F5F5F5F5F5F5F5F5F5F5F5F5F5F5F5F5F5F5F5F5F5F5F5F5F5F5F5F5F5F5F5F5F5F5F5F5F5F5F5F5F5F5F5F5F5F5F5F5F5F5F5F5F5F5F5F5F5F5F5F5F5F5F5F5F5F5F5F5F5F5
310
F5F5F5F5F5F5F5F5F5F5F5F5F5F5F5F5F5F5F5F5F5F5F5F5F5F5F5F5F5F5F5F5F5F5F5F5F5F5F5F5F5F5F5F5E2F5F5F5F5F5F5F5F5F5F5F5F5F5F5F5F5E2F5F5F5F5E2E2F5F5F5F5E2F5F5F5F5F5F5F5F5F5F5F5F5F5F5F5F5E2F5F5F5F5F5F5F5F5F5F5F5F5F5F5F5F5F5F5F5F5F5F5F5F5F5F5F5F5F5F5F5F5F5F5F5F5F5
310
F5F5F5F5F5F5F5F5F5F5F5F5F5F5F5F5F5F5F5F5F5F5F5F5F5F5F5F5F5F5F5F5F5F5F5F5F5F5F5F5F5F5F5F5F5F5F5F5F5F5F5F5F5F5F5F5F5F5F5F5F5F5F5F5F5F5F5F5F5F5F5F5F5F5F5F5F5F5F5F5F5F5F5F5F5F5F5F5F5F5F5F5F5F5F5F5F5E2F5F5F5F5F5F5F5F5F5F5F5F5F5F5F5F5E2F5F5F5F5E2E2F5F5F5F5E2F5
310
F5F5F5F5F5F5F5F5F5F5F5F5F5F5F5E2F5F5F5F5F5F5F5F5F5F5F5F5F5F5F5F5F5F5F5F5F5F5F5F5F5F5F5F5F5F5F5F5F5F5F5F5F5F5F5F5F5F5F5F5F5F5F5F5F5F5F5F5F5F5F5F5F5F5F5F5F5F5F5F5F5F5F5F5F5F5F5F5F5F5F5F5F5F5F5F5F5F5F5F5F5F5F5F5F5F5F5F5F5F5F5F5F5F5F5F5F5F5F5F5F5F5F5F5F5F5F5
310
F5F5F5F5F5F5F5F5F5F5F5F5F5F5F5F5F5F5F5F5F5F5F5E2F5F5F5F5F5F5F5F5F5F5F5F5F5F5F5F5E2F5F5F5F5E2E2F5F5F5F5E2F5F5F5F5F5F5F5F5F5F5F5F5F5F5F5F5E2F5F5F5F5F5F5F5F5F5F5F5F5F5F5F5F5F5F5F5F5F5F5F5F5F5F5F5F5F5F5F5F5F5F5F5F5F5F5F5F5F5F5F5F5F5F5F5F5F5F5F5F5F5F5F5F5F5F5
310
F5F5F5F5F5F5F5F5F5F5F5F5F5F5F5F5F5F5F5F5F5F5F5F5F5F5F5F5F5F5F5F5F5F5F5F5F5F5F5F5F5F5F5F5F5F5F5F5F5F5F5F5F5F5F5F5F5F5F5F5F5F5F5F5F5F5F5F5F5F5F5F5F5F5F5F5E2F5F5F5F5F5F5F5F5F5F5F5F5F5F5F5F5E2F5F5F5F5E2E2F5F5F5F5E2F5F5F5F5F5F5F5F5F5F5F5F5F5F5F5F5E2F5F5F5F5F5
310
F5F5F5F5F5F5F5F5F5F5F5F5F5F5F5F5F5F5F5F5F5F5F5F5F5F5F5F5F5F5F5F5F5F5F5F5F5F5F5F5F5F5F5F5F5F5F5F5F5F5F5F5F5F5F5F5F5F5F5F5F5F5F5F5F5F5F5F5F5F5F5F5F5F5F5F5F5F5F5F5F5F5F5F5F5F5F5F5F5F5F5F5F5F5F5F5F5F5F5F5F5F5F5F5F5F5F5F5F5F5F5F5F5F5F5F5F5F5F5F5F5F5F5F5F5F5F5
310
F5F5E2F5F5F5F5F5F5F5F5F5F5F5F5F5F5F5F5E2F5F5F5F5E2E2F5F5F5F5E2F5F5F5F5F5F5F5F5F5F5F5F5F5F5F5F5E2F5F5F5F5F5F5F5F5F5F5F5F5F5F5F5F5F5F5F5F5F5F5F5F5F5F5F5F5F5F5F5F5F5F5F5F5F5F5F5F5F5F5F5F5F5F5F5F5F5F5F5F5F5F5F5F5F5F5F5F5F5F5F5F5F5F5F5F5F5F5F5F5F5F5F5F5F5F5F5
310
F5F5F5F5F5F5F5F5F5F5F5F5F5F5F5F5F5F5F5F5F5F5F5F5F5F5F5F5F5F5F5F5F5F5F5F5F5F5F5F5F5F5F5F5F5F5F5F5F5F5F5F5F5F5F5E2F5F5F5F5F5F5F5F5F5F5F5F5F5F5F5F5E2F5F5F5F5E2E2F5F5F5F5E2F5F5F5F5F5F5F5F5F5F5F5F5F5F5F5F5E2F5F5F5F5F5F5F5F5F5F5F5F5F5F5F5F5F5F5F5F5F5F5F5F5F5F5
310
F5F5F5F5F5F5F5F5F5F5F5F5F5F5F5F5F5F5F5F5F5F5F5F5F5F5F5F5F5F5F5F5F5F5F5F5F5F5F5F5F5F5F5F5F5F5F5F5F5F5F5F5F5F5F5F5F5F5F5F5F5F5F5F5F5F5F5F5F5F5F5F5F5F5F5F5F5F5F5F5F5F5F5F5F5F5F5F5F5F5F5F5F5F5F5F5F5F5F5F5F5F5F5F5F5F5F5F5E2F5F5F5F5F5F5F5F5F5F5F5F5F5F5F5F5E2F5
310
F5F5F5E2E2F5F5F5F5E2F5F5F5F5F5F5F5F5F5F5F5F5F5F5F5F5E2F5F5F5F5F5F5F5F5F5F5F5F5F5F5F5F5F5F5F5F5F5F5F5F5F5F5F5F5F5F5F5F5F5F5F5F5F5F5F5F5F5F5F5F5F5F5F5F5F5F5F5F5F5F5F5F5F5F5F5F5F5F5F5F5F5F5F5F5F5F5F5F5F5F5F5F5F5F5F5F5F5F5F5F5F5F5F5F5F5F5F5F5F5F5F5F5F5F5F5F5
310
F5F5F5F5F5F5F5F5F5F5F5F5F5F5F5F5F5F5F5F5F5F5F5F5F5F5F5F5F5F5F5F5F5F5E2F5F5F5F5F5F5F5F5F5F5F5F5F5F5F5F5E2F5F5F5F5E2E2F5F5F5F5E2F5F5F5F5F5F5F5F5F5F5F5F5F5F5F5F5E2F5F5F5F5F5F5F5F5F5F5F5F5F5F5F5F5F5F5F5F5F5F5F5F5F5F5F5F5F5F5F5F5F5F5F5F5F5F5F5F5F5F5F5F5F5F5F5
310
F5F5F5F5F5F5F5F5F5F5F5F5F5F5F5F5F5F5F5F5F5F5F5F5F5F5F5F5F5F5F5F5F5F5F5F5F5F5F5F5F5F5F5F5F5F5F5F5F5F5F5F5F5F5F5F5F5F5F5F5F5F5F5F5F5F5F5F5F5F5F5F5F5F5F5F5F5F5F5F5F5F5F5F5F5F5F5E2F5F5F5F5F5F5F5F5F5F5F5F5F5F5F5F5E2F5F5F5F5E2E2F5F5F5F5E2F5F5F5F5F5F5F5F5F5F5F5
310
F5F5F5F5F5E2F5F5F5F5F5F5F5F5F5F5F5F5F5F5F5F5F5F5F5F5F5F5F5F5F5F5F5F5F5F5F5F5F5F5F5F5F5F5F5F5F5F5F5F5F5F5F5F5F5F5F5F5F5F5F5F5F5F5F5F5F5F5F5F5F5F5F5F5F5F5F5F5F5F5F5F5F5F5F5F5F5F5F5F5F5F5F5F5F5F5F5F5F5F5F5F5F5F5F5F5F5F5F5F5F5F5F5F5F5F5F5F5F5F5F5F5F5F5F5F5F5
310
F5F5F5F5F5F5F5F5F5F5F5F5F5E2F5F5F5F5F5F5F5F5F5F5F5F5F5F5F5F5E2F5F5F5F5E2E2F5F5F5F5E2F5F5F5F5F5F5F5F5F5F5F5F5F5F5F5F5E2F5F5F5F5F5F5F5F5F5F5F5F5F5F5F5F5F5F5F5F5F5F5F5F5F5F5F5F5F5F5F5F5F5F5F5F5F5F5F5F5F5F5F5F5F5F5F5F5F5F5F5F5F5F5F5F5F5F5F5F5F5F5F5F5F5F5F5F5
310
F5F5F5F5F5F5F5F5F5F5F5F5F5F5F5F5F5F5F5F5F5F5F5F5F5F5F5F5F5F5F5F5F5F5F5F5F5F5F5F5F5F5F5F5F5F5F5F5F5F5F5F5F5F5F5F5F5F5F5F5F5F5F5F5F5F5E2F5F5F5F5F5F5F5F5F5F5F5F5F5F5F5F5E2F5F5F5F5E2E2F5F5F5F5E2F5F5F5F5F5F5F5F5F5F5F5F5F5F5F5F5E2F5F5F5F5F5F5F5F5F5F5F5F5F5F5F5
310
F5F5F5F5F5F5F5F5F5F5F5F5F5F5F5F5F5F5F5F5F5F5F5F5F5F5F5F5F5F5F5F5F5F5F5F5F5F5F5F5F5F5F5F5F5F5F5F5F5F5F5F5F5F5F5F5F5F5F5F5F5F5F5F5F5F5F5F5F5F5F5F5F5F5F5F5F5F5F5F5F5F5F5F5F5F5F5F5F5F5F5F5F5F5F5F5F5F5F5F5F5F5F5F5F5F5F5F5F5F5F5F5F5F5F5F5F5F5F5E2F5F5F5F5F5F5F5
310
F5F5F5F5F5F5F5F5F5E2F5F5F5F5E2E2F5F5F5F5E2F5F5F5F5F5F5F5F5F5F5F5F5F5F5F5F5E2F5F5F5F5F5F5F5F5F5F5F5F5F5F5F5F5F5F5F5F5F5F5F5F5F5F5F5F5F5F5F5F5F5F5F5F5F5F5F5F5F5F5F5F5F5F5F5F5F5F5F5F5F5F5F5F5F5F5F5F5F5F5F5F5F5F5F5F5F5F5F5F5F5F5F5F5F5F5F5F5F5F5F5F5F5F5F5F5F5
310
F5F5F5F5F5F5F5F5F5F5F5F5F5F5F5F5F5F5F5F5F5F5F5F5F5F5F5F5F5F5F5F5F5F5F5F5F5F5F5F5F5F5F5F5F5E2F5F5F5F5F5F5F5F5F5F5F5F5F5F5F5F5E2F5F5F5F5E2E2F5F5F5F5E2F5F5F5F5F5F5F5F5F5F5F5F5F5F5F5F5E2F5F5F5F5F5F5F5F5F5F5F5F5F5F5F5F5F5F5F5F5F5F5F5F5F5F5F5F5F5F5F5F5F5F5F5F5
310
F5F5F5F5F5F5F5F5F5F5F5F5F5F5F5F5F5F5F5F5F5F5F5F5F5F5F5F5F5F5F5F5F5F5F5F5F5F5F5F5F5F5F5F5F5F5F5F5F5F5F5F5F5F5F5F5F5F5F5F5F5F5F5F5F5F5F5F5F5F5F5F5F5F5F5F5F5F5F5F5F5F5F5F5F5F5F5F5F5F5F5F5F5F5F5F5F5F5E2F5F5F5F5F5F5F5F5F5F5F5F5F5F5F5F5E2F5F5F5F5E2E2F5F5F5F5E2
310
F5F5F5F5F5F5F5F5F5F5F5F5F5F5F5F5E2F5F5F5F5F5F5F5F5F5F5F5F5F5F5F5F5F5F5F5F5F5F5F5F5F5F5F5F5F5F5F5F5F5F5F5F5F5F5F5F5F5F5F5F5F5F5F5F5F5F5F5F5F5F5F5F5F5F5F5F5F5F5F5F5F5F5F5F5F5F5F5F5F5F5F5F5F5F5F5F5F5F5F5F5F5F5F5F5F5F5F5F5F5F5F5F5F5F5F5F5F5F5F5F5F5F5F5F5F5F5
310
F5F5F5F5F5F5F5F5F5F5F5F5F5F5F5F5F5F5F5F5F5F5F5F5E2F5F5F5F5F5F5F5F5F5F5F5F5F5F5F5F5E2F5F5F5F5E2E2F5F5F5F5E2F5F5F5F5F5F5F5F5F5F5F5F5F5F5F5F5E2F5F5F5F5F5F5F5F5F5F5F5F5F5F5F5F5F5F5F5F5F5F5F5F5F5F5F5F5F5F5F5F5F5F5F5F5F5F5F5F5F5F5F5F5F5F5F5F5F5F5F5F5F5F5F5F5F5
310
F5F5F5F5F5F5F5F5F5F5F5F5F5F5F5F5F5F5F5F5F5F5F5F5F5F5F5F5F5F5F5F5F5F5F5F5F5F5F5F5F5F5F5F5F5F5F5F5F5F5F5F5F5F5F5F5F5F5F5F5F5F5F5F5F5F5F5F5F5F5F5F5F5F5F5F5F5E2F5F5F5F5F5F5F5F5F5F5F5F5F5F5F5F5E2F5F5F5F5E2E2F5F5F5F5E2F5F5F5F5F5F5F5F5F5F5F5F5F5F5F5F5E2F5F5F5F5
310
F5F5F5F5F5F5F5F5F5F5F5F5F5F5F5F5F5F5F5F5F5F5F5F5F5F5F5F5F5F5F5F5F5F5F5F5F5F5F5F5F5F5F5F5F5F5F5F5F5F5F5F5F5F5F5F5F5F5F5F5F5F5F5F5F5F5F5F5F5F5F5F5F5F5F5F5F5F5F5F5F5F5F5F5F5F5F5F5F5F5F5F5F5F5F5F5F5F5F5F5F5F5F5F5F5F5F5F5F5F5F5F5F5F5F5F5F5F5F5F5F5F5F5F5F5F5F5
310
F5F5F5E2F5F5F5F5F5F5F5F5F5F5F5F5F5F5F5F5E2F5F5F5F5E2E2F5F5F5F5F5F5F5F5F5F5F5F5F5F5F5F5F5F5F5F5F5E2F5F5F5F5F5F5F5F5F5F5F5F5F5F5F5F5F5F5F5F5F5F5F5F5F5F5F5F5F5F5F5F5F5F5F5F5F5F5F5F5F5F5F5F5F5F5F5F5F5F5F5F5F5F5F5F5F5F5F5F5F5F5F5F5F5F5F5F5F5F5F5F5F5F5F5F5F5F5
310
F5F5F5F5F5F5F5F5F5F5F5F5F5F5F5F5F5F5F5F5F5F5F5F5F5F5F5F5F5F5F5F5F5F5F5F5F5F5F5F5F5F5F5F5F5F5F5F5F5F5F5F5F5F5F5F5E2F5F5F5F5F5F5F5F5F5F5F5F5F5F5F5F5F5F5F5F5F5E2E2F5F5F5F5F5F5F5F5F5F5F5F5F5F5F5F5F5F5F5F5F5E2F5F5F5F5F5F5F5F5F5F5F5F5F5F5F5F5F5F5F5F5F5F5F5F5F5
310
F5F5F5F5F5F5F5F5F5F5F5F5F5F5F5F5F5F5F5F5F5F5F5F5F5F5F5F5F5F5F5F5F5F5F5F5F5F5F5F5F5F5F5F5F5F5F5F5F5F5F5F5F5F5F5F5F5F5F5F5F5F5F5F5F5F5F5F5F5F5F5F5F5F5F5F5F5F5F5F5F5F5F5F5F5F5F5F5F5F5F5F5F5F5F5F5F5F5F5F5F5F5F5F5F5F5F5F5F5E2F5F5F5F5F5F5F5F5F5F5F5F5F5F5F5F5F5
310
F5F5F5F5E2E2F5F5F5F5F5F5F5F5F5F5F5F5F5F5F5F5F5F5F5F5F5E2F5F5F5F5F5F5F5F5F5F5F5F5F5F5F5F5F5F5F5F5F5F5F5F5F5F5F5F5F5F5F5F5F5F5F5F5F5F5F5F5F5F5F5F5F5F5F5F5F5F5F5F5F5F5F5F5F5F5F5F5F5F5F5F5F5F5F5F5F5F5F5F5F5F5F5F5F5F5F5F5F5F5F5F5F5F5F5F5F5F5F5F5F5F5F5F5F5F5F5
310
F5F5F5F5F5F5F5F5F5F5F5F5F5F5F5F5F5F5F5F5F5F5F5F5F5F5F5F5F5F5F5F5F5F5F5E2F5F5F5F5F5F5F5F5F5F5F5F5F5F5F5F5F5F5F5F5F5E2E2F5F5F5F5F5F5F5F5F5F5F5F5F5F5F5F5F5F5F5F5F5E2F5F5F5F5F5F5F5F5F5F5F5F5F5F5F5F5F5F5F5F5F5F5F5F5F5F5F5F5F5F5F5F5F5F5F5F5F5F5F5F5F5F5F5F5F5F5
310
F5F5F5F5F5F5F5F5F5F5F5F5F5F5F5F5F5F5F5F5F5F5F5F5F5F5F5F5F5F5F5F5F5F5F5F5F5F5F5F5F5F5F5F5F5F5F5F5F5F5F5F5F5F5F5F5F5F5F5F5F5F5F5F5F5F5F5F5F5F5F5F5F5F5F5F5F5F5F5F5F5F5F5F5F5F5F5F5E2F5F5F5F5F5F5F5F5F5F5F5F5F5F5F5F5F5F5F5F5F5E2E2F5F5F5F5F5F5F5F5F5F5F5F5F5F5F5
310
F5F5F5F5F5F5E2E2E2E2E2E2E2E2E2E2E2E2E2E2E2E2E2E2E2E2E2E2E2E2E2E2E2E2E2E2E2E2E2E2E2E2E2E2E2E2E2E2E2E2E2E2E2E2E2E2E2E2E2E2E2E2E2E2E2E2E2E2E2E2E2E2E2E2E2E2E2E2E2E2E2E2E2E2E2E2E2E2E2E2E2E2E2E2E2E2E2E2E2E2E2E2E2E2E2E2E2E2E2E2E2E2E2E2E2E2E2E2E2E2E2E2E2E2E2E2E2
310
E2E2E2E2E2E2E2E2E2E2E2E2E2E2E2F5F5F5F5F5F5F5F5F5F5F5F5F5F5F5F5F5F5F5F5F5E2E2F5F5F5F5F5F5F5F5F5F5F5F5F5F5F5F5F5F5F5F5F5F5F5F5F5F5F5F5F5F5F5F5F5F5F5F5F5F5F5F5F5F5F5F5F5F5F5F5F5F5F5F5F5F5F5F5F5F5F5F5F5F5F5F5F5F5F5F5F5F5F5F5F5F5F5F5F5F5F5F5F5F5F5F5F5F5F5F5F5
310
F5F5F5F5F5F5F5F5F5F5F5F5F5F5F5F5F5F5F5F5F5F5F5F5F5F5F5F5F5F5F5F5F5F5F5F5F5F5F5F5F5F5F5F5F5F5F5F5F5F5F5F5F5F5F5F5F5F5F5F5F5F5F5F5F5F5F5F5F5F5F5F5F5F5F5F5F5F5F5F5F5F5F5F5F5F5F5F5F5E2E2F5F5F5F5F5F5F5F5F5F5F5F5F5F5F5F5F5F5F5F5F5F5F5F5F5F5F5F5F5F5F5F5F5F5F5F5
310
F5F5F5F5F5F5F5F5F5F5F5F5F5F5F5F5F5F5F5F5F5F5F5F5F5F5F5F5F5F5F5F5F5F5F5F5F5F5F5F5F5F5F5F5F5F5F5F5F5F5F5F5F5F5F5F5F5F5F5F5F5F5F5F5F5F5F5F5F5F5F5F5F5F5F5F5F5F5F5F5F5F5F5F5F5F5F5F5F5F5F5F5F5F5F5F5F5F5F5F5F5F5F5F5F5F5F5F5F5F5F5F5F5F5F5F5F5F5F5F5F5F5F5F5F5F5F5
310
F5F5F5F5F5F5F5F5F5F5F5F5F5F5F5E2E2F5F5F5F5F5F5F5F5F5F5F5F5F5F5F5F5F5F5F5F5F5F5F5F5F5F5F5F5F5F5F5F5F5F5F5F5F5F5F5F5F5F5F5F5F5F5F5F5F5F5F5F5F5F5F5F5F5F5F5F5F5F5F5F5F5F5F5F5F5F5F5F5F5F5F5F5F5F5F5F5F5F5F5F5F5F5F5F5F5F5F5F5F5F5F5F5F5F5F5F5F5F5F5F5F5F5F5F5F5F5
310
F5F5F5F5F5F5F5F5F5F5F5F5F5F5F5F5F5F5F5F5F5F5F5F5F5F5F5F5F5F5F5F5F5F5F5F5F5F5F5F5F5F5F5F5F5F5F5F5F5F5F5F5F5F5F5F5F5F5F5F5F5F5F5F5F5F5F5F5E2E2F5F5F5F5F5F5F5F5F5F5F5F5F5F5F5F5F5F5F5F5F5F5F5F5F5F5F5F5F5F5F5F5F5F5F5F5F5F5F5F5F5F5F5F5F5F5F5F5F5F5F5F5F5F5F5F5F5
310
F5F5F5F5F5F5F5F5F5F5F5F5F5F5F5F5F5F5F5F5F5F5F5F5F5F5F5F5F5F5F5F5F5F5F5F5F5F5F5F5F5F5F5F5F5F5F5F5F5F5F5F5F5F5F5F5F5F5F5F5F5F5F5F5F5F5F5F5F5F5F5F5F5F5F5F5F5F5F5F5F5F5F5F5F5F5F5F5F5F5F5F5F5F5F5F5F5F5F5F5F5F5F5F5F5F5F5F5F5F5F5F5F5F5F5F5F5F5F5F5F5E2E2F5F5F5F5
310
E2F5F5F5F5F5F5F5F5F5F5F5F5F5F5F5F5F5F5F5F5F5F5F5F5F5F5F5F5F5F5F5F5F5F5F5F5F5F5F5F5F5F5F5F5F5F5F5F5F5F5F5F5F5F5F5F5F5F5F5F5F5F5F5F5F5F5F5F5F5F5F5F5F5F5F5F5F5F5F5F5F5F5F5F5F5F5F5F5F5F5F5F5F5F5F5F5F5F5F5F5F5F5F5F5F5F5F5F5F5F5F5F5F5F5F5F5F5F5F5F5F5F5F5F5F5F5
310
F5F5F5F5F5F5F5F5F5F5F5F5F5F5F5F5F5F5F5F5F5F5F5F5F5F5F5F5F5F5F5F5F5F5F5F5F5F5F5F5F5F5E2F5F5F5F5E2E2F5F5F5F5E2F5F5F5F5F5F5F5F5F5F5F5F5F5F5F5F5F5F5F5F5F5F5F5F5F5F5F5F5F5F5F5F5F5F5F5F5F5F5F5F5F5F5F5F5F5F5F5F5F5F5F5F5F5F5F5F5F5F5F5F5F5F5F5F5F5F5F5F5F5F5F5F5F5
310
F5F5F5F5F5F5F5F5F5F5F5F5F5F5F5F5F5F5F5F5F5F5F5F5F5F5F5F5F5F5F5F5F5F5F5F5F5F5F5F5F5F5F5F5F5F5F5F5F5F5F5F5F5F5F5F5F5F5F5F5F5F5F5F5F5F5F5F5F5F5F5F5F5F5F5F5F5F5F5F5F5F5F5F5F5F5F5F5F5F5F5F5F5F5F5E2F5F5F5F5E2E2F5F5F5F5E2F5F5F5F5F5F5F5F5F5F5F5F5F5F5F5F5F5F5F5F5
310
F5F5F5F5F5F5F5F5F5F5F5F5F5F5F5F5F5F5F5F5F5F5F5F5F5F5F5F5F5F5F5F5F5F5F5F5F5F5F5F5F5F5F5F5F5F5F5F5F5F5F5F5F5F5F5F5F5F5F5F5F5F5F5F5F5F5F5F5F5F5F5F5F5F5F5F5F5F5F5F5F5F5F5F5F5F5F5F5F5F5F5F5F5F5F5F5F5F5F5F5F5F5F5F5F5F5F5F5F5F5F5F5F5F5F5F5F5F5F5F5F5F5F5F5F5F5F5
310
F5F5F5F5F5F5F5F5F5F5F5F5F5F5F5F5F5F5F5F5F5E2F5F5F5F5E2E2F5F5F5F5E2F5F5F5F5F5F5F5F5F5F5F5F5F5F5F5F5F5F5F5F5F5F5F5F5F5F5F5F5F5F5F5F5F5F5F5F5F5F5F5F5F5F5F5F5F5F5F5F5F5F5F5F5F5F5F5F5F5F5F5F5F5F5F5F5F5F5F5F5F5F5F5F5F5F5F5F5F5F5F5F5F5F5F5F5F5F5F5F5F5F5F5F5F5F5
310
F5F5F5F5F5F5F5F5F5F5F5F5F5F5F5F5F5F5F5F5F5F5F5F5F5F5F5F5F5F5F5F5F5F5F5F5F5F5F5F5F5F5F5F5F5F5F5F5F5F5F5F5F5F5F5F5F5F5F5F5F5F5F5F5F5F5F5F5F5F5F5F5F5F5E2F5F5F5F5E2E2F5F5F5F5E2F5F5F5F5F5F5F5F5F5F5F5F5F5F5F5F5F5F5F5F5F5F5F5F5F5F5F5F5F5F5F5F5F5F5F5F5F5F5F5F5F5
310
F5F5F5F5F5F5F5F5F5F5F5F5F5F5F5F5F5F5F5F5F5F5F5F5F5F5F5F5F5F5F5F5F5F5F5F5F5F5F5F5F5F5F5F5F5F5F5F5F5F5F5F5F5F5F5F5F5F5F5F5F5F5F5F5F5F5F5F5F5F5F5F5F5F5F5F5F5F5F5F5F5F5F5F5F5F5F5F5F5F5F5F5F5F5F5F5F5F5F5F5F5F5F5F5F5F5F5F5F5F5F5F5F5F5F5F5F5F5F5F5F5F5F5F5F5F5F5
310
E2F5F5F5F5E2E2F5F5F5F5E2F5F5F5F5F5F5F5F5F5F5F5F5F5F5F5F5F5F5F5F5F5F5F5F5F5F5F5F5F5F5F5F5F5F5F5F5F5F5F5F5F5F5F5F5F5F5F5F5F5F5F5F5F5F5F5F5F5F5F5F5F5F5F5F5F5F5F5F5F5F5F5F5F5F5F5F5F5F5F5F5F5F5F5F5F5F5F5F5F5F5F5F5F5F5F5F5F5F5F5F5F5F5F5F5F5F5F5F5F5F5F5F5F5F5F5
310
F5F5F5F5F5F5F5F5F5F5F5F5F5F5F5F5F5F5F5F5F5F5F5F5F5F5F5F5F5F5F5F5F5F5F5F5F5F5F5F5F5F5F5F5F5F5F5F5F5F5F5F5F5E2F5F5F5F5E2E2F5F5F5F5E2F5F5F5F5F5F5F5F5F5F5F5F5F5F5F5F5F5F5F5F5F5F5F5F5F5F5F5F5F5F5F5F5F5F5F5F5F5F5F5F5F5F5F5F5F5F5F5F5F5F5F5F5F5F5F5F5F5F5F5F5F5F5
310
F5F5F5F5F5F5F5F5F5F5F5F5F5F5F5F5F5F5F5F5F5F5F5F5F5F5F5F5F5F5F5F5F5F5F5F5F5F5F5F5F5F5F5F5F5F5F5F5F5F5F5F5F5F5F5F5F5F5F5F5F5F5F5F5F5F5F5F5F5F5F5F5F5F5F5F5F5F5F5F5F5F5F5F5F5F5F5F5F5F5F5F5F5F5F5F5F5F5F5F5F5F5F5F5F5F5E2F5F5F5F5E2E2F5F5F5F5E2F5F5F5F5F5F5F5F5F5
310
F5F5F5F5F5F5F5F5F5F5F5F5F5F5F5F5F5F5F5F5F5F5F5F5F5F5F5F5F5F5F5F5F5F5F5F5F5F5F5F5F5F5F5F5F5F5F5F5F5F5F5F5F5F5F5F5F5F5F5F5F5F5F5F5F5F5F5F5F5F5F5F5F5F5F5F5F5F5F5F5F5F5F5F5F5F5F5F5F5F5F5F5F5F5F5F5F5F5F5F5F5F5F5F5F5F5F5F5F5F5F5F5F5F5F5F5F5F5F5F5F5F5F5F5F5F5F5
310
F5F5F5F5F5F5F5F5F5F5F5F5F5F5F5F5F5F5F5F5F5F5F5F5F5F5F5F5F5F5F5F5E2F5F5F5F5E2E2F5F5F5F5E2E2E2E2E2E2E2E2F5F5F5F5F5F5F5F5F5E2E2E2E2E2E2E2E2E2E2E2E2E2E2E2F5F5F5F5F5F5F5F5F5E2E2E2E2E2E2E2E2E2E2E2E2E2E2E2E2F5F5F5F5F5F5F5F5E2E2E2E2E2E2E2E2E2E2E2E2E2E2E2E2F5F5F5
310
F5F5F5F5F5E2E2E2E2E2E2E2E2E2E2E2E2E2E2E2E2F5F5F5F5F5F5F5F5E2E2E2E2E2E2E2E2E2E2E2E2E2E2E2E2F5F5F5F5F5F5F5F5F5E2E2E2E2E2E2E2E2E2E2E2E2E2E2E2F5F5F5F5F5F5F5F5F5E2E2E2E2E2E2E2E2F5F5F5F5E2E2F5F5F5F5F5F5F5F5F5F5F5F5F5F5F5F5F5F5F5F5F5F5F5F5F5F5F5F5F5F5F5F5F5F5F5
310
F5F5F5F5F5F5F5F5F5F5F5F5F5F5F5F5F5F5F5F5F5F5F5F5F5F5F5F5F5F5F5F5F5F5F5F5F5F5F5F5F5F5F5F5F5F5F5F5F5F5F5F5F5F5F5F5F5F5F5F5F5F5F5F5F5F5F5F5F5F5F5F5F5F5F5F5F5F5F5F5F5F5F5F5F5F5F5F5F5F5F5F5F5F5F5F5F5F5F5F5F5F5F5F5F5F5F5F5F5F5F5F5F5F5F5F5F5F5F5F5F5F5F5F5F5F5F5
310
F5F5F5F5F5F5F5F5F5F5F5F5F5F5F5F5E2E2F5F5F5F5F5F5F5F5F5F5F5F5F5F5F5F5F5F5F5F5F5F5F5F5F5F5F5F5F5F5F5F5F5F5F5F5F5F5F5F5F5F5F5F5F5F5F5F5F5F5F5F5F5F5F5F5F5F5F5F5F5F5F5F5F5F5F5F5F5F5F5F5F5F5F5F5F5F5F5F5F5F5F5F5F5F5F5F5F5F5F5F5F5F5F5F5F5F5F5F5F5F5F5F5F5F5F5F5F5
310
F5F5F5F5F5F5F5F5F5F5F5F5F5F5F5F5F5F5F5F5F5F5F5F5F5F5F5F5F5F5F5F5F5F5F5F5F5F5F5F5F5F5F5F5F5F5F5F5F5F5F5F5F5F5F5F5F5F5F5F5F5F5F5F5F5F5F5F5F5E2E2F5F5F5F5F5F5F5F5F5F5F5F5F5F5F5F5F5F5F5F5F5F5F5F5F5F5F5F5F5F5F5F5F5F5F5F5F5F5F5F5F5F5F5F5F5F5F5F5F5F5F5F5F5F5F5F5
310
F5F5F5F5F5F5F5F5F5F5F5F5F5F5F5F5F5F5F5F5F5F5F5F5F5F5F5F5F5F5F5F5F5F5F5F5F5F5F5F5F5F5F5F5F5F5F5F5F5F5F5F5F5F5F5F5F5F5F5F5F5F5F5F5F5F5F5F5F5F5F5F5F5F5F5F5F5F5F5F5F5F5F5F5F5F5F5F5F5F5F5F5F5F5F5F5F5F5F5F5F5F5F5F5F5F5F5F5F5F5F5F5F5F5F5F5F5F5F5F5F5F5E2E2E2E2E2
310
E2E2E2E2E2E2E2E2E2E2E2E2E2E2E2E2E2E2E2E2E2E2E2E2E2E2E2E2E2E2E2E2E2E2E2E2E2E2E2E2E2E2E2E2E2E2E2E2E2E2E2E2E2E2E2E2E2E2E2E2E2E2E2E2E2E2E2E2E2E2E2E2E2E2E2E2E2E2E2E2E2E2E2E2E2E2E2E2E2E2E2E2E2E2E2E2E2E2E2E2E2E2E2E2E2E2E2E2E2E2E2E2E2E2E2E2E2E2E2E2E2E2E2E2E2E2E2
310
E2E2E2E2E2E2E2E2E2E2E2E2E2E2E2E2E2E2E2E2E2E2E2E2E2E2E2E2E2E2E2E2E2E2E2E2E2E2E2E2E2E2E2E2E2E2E2E2E2
  0
XRECORD
  5
56CA4
102
{ACAD_REACTORS
330
B5
102
}
330
B5
100
AcDbXrecord
280
     1
102
SHADEPLOT
 70
     0
102
SHADEPLOTRESLEVEL
 70
     2
102
SHADEPLOTCUSTOMDPI
 70
   300
  0
XRECORD
  5
B6
102
{ACAD_REACTORS
330
B5
102
}
330
B5
100
AcDbXrecord
280
     1
310
28000000B40000008B0000000100080000000000BC610000000000000000000000010000000000000000000000000000FFFFFF000000000000000000000000000000000000000000000000000000000000000000330000006600000099000000CC000000FF00000000330000333300006633000099330000CC330000FF3300
310
0000660000336600006666000099660000CC660000FF66000000990000339900006699000099990000CC990000FF99000000CC000033CC000066CC000099CC0000CCCC0000FFCC000000FF000033FF000066FF000099FF0000CCFF0000FFFF000000003300330033006600330099003300CC003300FF003300003333003333
310
33006633330099333300CC333300FF33330000663300336633006666330099663300CC663300FF66330000993300339933006699330099993300CC993300FF99330000CC330033CC330066CC330099CC3300CCCC3300FFCC330000FF330033FF330066FF330099FF3300CCFF3300FFFF330000006600330066006600660099
310
006600CC006600FF00660000336600333366006633660099336600CC336600FF33660000666600336666006666660099666600CC666600FF66660000996600339966006699660099996600CC996600FF99660000CC660033CC660066CC660099CC6600CCCC6600FFCC660000FF660033FF660066FF660099FF6600CCFF6600
310
FFFF660000009900330099006600990099009900CC009900FF00990000339900333399006633990099339900CC339900FF33990000669900336699006666990099669900CC669900FF66990000999900339999006699990099999900CC999900FF99990000CC990033CC990066CC990099CC9900CCCC9900FFCC990000FF99
310
0033FF990066FF990099FF9900CCFF9900FFFF99000000CC003300CC006600CC009900CC00CC00CC00FF00CC000033CC003333CC006633CC009933CC00CC33CC00FF33CC000066CC003366CC006666CC009966CC00CC66CC00FF66CC000099CC003399CC006699CC009999CC00CC99CC00FF99CC0000CCCC0033CCCC0066CC
310
CC0099CCCC00CCCCCC00FFCCCC0000FFCC0033FFCC0066FFCC0099FFCC00CCFFCC00FFFFCC000000FF003300FF006600FF009900FF00CC00FF00FF00FF000033FF003333FF006633FF009933FF00CC33FF00FF33FF000066FF003366FF006666FF009966FF00CC66FF00FF66FF000099FF003399FF006699FF009999FF00CC
310
99FF00FF99FF0000CCFF0033CCFF0066CCFF0099CCFF00CCCCFF00FFCCFF0000FFFF0033FFFF0066FFFF0099FFFF00CCFFFF00FFFFFF00000000000D0D0D001A1A1A00282828003535350043434300505050005D5D5D006B6B6B00787878008686860093939300A1A1A100AEAEAE00BBBBBB00C9C9C900D6D6D600E4E4E400
310
F1F1F100FFFFFF0000000000000000000000000000000000000000000000000000000000000000000000000000000000F5F5F5F5F5F5F5F5F5F5F5F5F5F5F5F5F5F5F5F5F5F5F5F5F5F5F5F5F5F5F5F5F5F5F5F5F5F5F5F5F5F5F5F5F5F5F5F5F5F5F5F5F5F5F5F5F5F5F5F5F5F5F5F5F5F5F5F5F5F5F5F5F5F5F5F5F5F5F5
310
F5F5F5F5F5F5F5F5F5F5F5F5F5F5F5F5F5F5F5F5F5F5F5F5F5F5F5F5F5F5F5F5F5F5F5F5F5F5F5F5F5F5F5F5F5F5F5F5F5F5F5F5F5F5F5F5F5F5F5F5F5F5F5F5F5F5F5F5F5F5F5F5F5F5F5F5F5F5F5F5F5F5F5F5F5F5F5F5F5F5F5F5F5F5F5F5F5F5F5F5F5F5E2E2E2E2E2E2E2E2E2E2E2E2E2E2E2E2E2E2E2E2E2E2E2E2E2
310
E2E2E2E2E2E2E2E2E2E2E2E2E2E2E2E2E2E2E2E2E2E2E2E2E2E2E2E2E2E2E2E2E2E2E2E2E2E2E2E2E2E2E2E2E2E2E2E2E2E2E2E2E2E2E2E2E2E2E2E2E2E2E2E2E2E2E2E2E2E2E2E2E2E2E2E2E2E2E2E2E2E2E2E2E2E2E2E2E2E2E2E2E2E2E2E2E2E2E2E2E2E2E2E2E2E2E2E2E2E2E2E2E2E2E2E2E2E2E2E2E2E2E2E2E2E2E2
310
E2E2E2E2E2E2E2E2E2E2E2E2E2E2E2E2E2E2E2E2E2E2E2E2E2E2F5F5E2E2E2E2E2E2E2E2E2E2E2E2E2E2E2E2E2E2E2E2E2E2E2E2E2E2E2E2E2E2E2E2E2E2E2E2E2E2E2E2E2E2E2E2E2E2E2E2E2E2E2E2E2E2E2E2E2E2E2E2E2E2E2E2E2E2E2E2E2E2E2E2E2E2E2E2E2E2E2E2E2E2E2E2E2E2E2E2E2E2E2E2E2E2E2E2E2E2E2
310
E2E2E2E2E2E2E2E2E2E2E2E2E2E2E2E2E2E2E2E2E2E2E2E2E2E2E2E2E2E2E2E2E2E2E2E2E2E2E2E2E2E2E2E2E2E2E2E2E2E2E2E2E2E2E2E2E2E2E2E2E2E2E2E2E2E2E2E2E2E2E2E2E2E2E2E2E2E2E2F5F5E2E2E2E2E2E2E2E2E2E2E2E2E2E2E2E2E2E2E2E2E2E2E2E2E2E2E2E2E2E2E2E2E2E2E2E2E2E2E2E2E2E2E2E2E2E2
310
E2E2E2E2E2E2E2E2E2E2E2E2E2E2E2E2E2E2E2E2E2E2E2E2E2E2E2E2E2E2E2E2E2E2E2E2E2E2E2E2E2E2E2E2E2E2E2E2E2E2E2E2E2E2E2E2E2E2E2E2E2E2E2E2E2E2E2E2E2E2E2E2E2E2E2E2E2E2E2E2E2E2E2E2E2E2E2E2E2E2E2E2E2E2E2E2E2E2E2E2E2E2E2E2E2E2E2E2E2E2E2E2E2E2E2E2E2E2E2E2E2E2E2E2E2E2E2
310
E2E2E2E2E2F5F5E2E2E2E2E2E2E2E2E2E2E2E2E2E2E2E2E2E2E2E2E2E2E2E2E2E2E2E2E2E2E2E2E2E2E2E2E2E2E2E2E2E2E2E2E2E2E2E2E2E2E2E2E2E2E2E2E2E2E2E2E2E2E2E2E2E2E2E2E2E2E2E2E2E2E2E2E2E2E2E2E2E2E2E2E2E2E2E2E2E2E2E2E2E2E2E2E2E2E2E2E2E2E2E2E2E2E2E2E2E2E2E2E2E2E2E2E2E2E2E2
310
E2E2E2E2E2E2E2E2E2E2E2E2E2E2E2E2E2E2E2E2E2E2E2E2E2E2E2E2E2E2E2E2E2E2E2E2E2E2E2E2E2E2E2E2E2E2E2E2E2E2E2E2E2E2E2E2E2E2F5F5E2E2E2F5F5F5F5F5F5F5F5E2E2E2E2E2E2E2E2E2F5F5F5F5F5F5F5F5F5F5F5F5F5F5F5F5E2E2E2E2E2E2E2E2E2F5F5F5F5F5F5F5F5F5F5F5F5F5F5F5E2E2E2E2E2E2E2
310
E2E2F5F5F5F5F5F5F5F5F5F5F5F5F5F5F5F5E2E2E2E2E2E2E2E2F5F5F5F5F5F5F5F5F5F5F5F5F5F5F5F5E2E2E2E2E2E2E2E2E2F5F5F5F5F5F5F5F5F5F5F5F5F5F5F5E2E2E2E2E2E2E2E2E2F5F5F5F5F5F5F5F5F5F5F5F5F5F5F5F5E2E2E2E2E2E2E2E2E2F5F5F5F5F5F5F5F5E2E2E2F5F5E2E2E2F5E2E2E2E2E2E2E2E2E2E2
310
E2E2E2E2E2E2E2E2E2E2E2E2E2E2E2E2E2E2E2E2E2E2E2E2E2E2E2E2E2E2E2E2E2E2E2E2E2E2E2E2E2E2E2E2E2E2E2E2E2E2E2E2E2E2E2E2E2E2E2E2E2E2E2E2E2E2E2E2E2E2E2E2E2E2E2E2E2E2E2E2E2E2E2E2E2E2E2E2E2E2E2E2E2E2E2E2E2E2E2E2E2E2E2E2E2E2E2E2E2E2E2E2E2E2E2E2E2E2E2E2E2E2E2E2E2E2E2
310
E2E2E2E2E2E2E2E2E2E2E2E2E2E2E2E2E2E2E2E2E2E2E2E2E2E2E2E2E2E2E2E2E2F5E2E2E2F5F5E2E2E2F5E2E2E2E2E2E2E2E2E2E2E2E2E2E2E2E2E2E2E2E2E2E2E2E2E2E2E2E2E2E2E2E2E2E2E2E2E2E2E2E2E2E2E2E2E2E2E2E2E2E2E2E2E2E2E2E2E2E2E2E2E2E2E2E2E2E2E2E2E2E2E2E2E2E2E2E2E2E2E2E2E2E2E2E2
310
E2E2E2E2E2E2E2E2E2E2E2E2E2E2E2E2E2E2E2E2E2E2E2E2E2E2E2E2E2E2E2E2E2E2E2E2E2E2E2E2E2E2E2E2E2E2E2E2E2E2E2E2E2E2E2E2E2E2E2E2E2E2E2E2E2E2E2E2E2E2E2E2E2E2E2E2E2E2E2E2E2E2E2E2E2E2F5E2E2E2F5F5E2E2E2F5E2E2E2E2E2E2E2E2E2E2E2E2E2E2E2E2E2E2E2E2E2E2E2E2E2E2E2E2E2E2E2
310
E2E2E2E2E2E2E2E2E2E2E2E2E2E2E2E2E2E2E2E2E2E2E2E2E2E2E2E2E2E2E2E2E2E2E2E2E2E2E2E2E2E2E2E2E2E2E2E2E2E2E2E2E2E2E2E2E2E2E2E2E2E2E2E2E2E2E2E2E2E2E2E2E2E2E2E2E2E2E2E2E2E2E2E2E2E2E2E2E2E2E2E2E2E2E2E2E2E2E2E2E2E2E2E2E2E2E2E2E2E2E2E2E2E2E2E2E2E2E2E2E2E2E2E2E2E2E2
310
E2E2E2E2E2E2E2E2E2E2E2E2F5E2E2E2F5F5E2E2E2F5E2E2E2E2E2E2E2E2E2E2E2E2E2E2E2E2E2E2E2E2E2E2E2E2E2E2E2E2E2E2E2E2E2E2E2E2E2E2E2E2E2E2E2E2E2E2E2E2E2E2E2E2E2E2E2E2E2E2E2E2E2E2E2E2E2E2E2E2E2E2E2E2E2E2E2E2E2E2E2E2E2E2E2E2E2E2E2E2E2E2E2E2E2E2E2E2E2E2E2E2E2E2E2E2E2
310
E2E2E2E2E2E2E2E2E2E2E2E2E2E2E2E2E2E2E2E2E2E2E2E2E2E2E2E2E2E2E2E2E2E2E2E2E2E2E2E2E2E2E2E2E2E2E2E2E2E2E2E2E2E2E2E2E2E2E2E2E2E2E2E2E2F5E2E2E2F5F5E2E2E2F5E2E2E2E2E2E2E2E2E2E2E2E2E2E2E2E2E2E2E2E2E2E2E2E2E2E2E2E2E2E2E2E2E2E2E2E2E2E2E2E2E2E2E2E2E2E2E2E2E2E2E2E2
310
E2E2E2E2E2E2E2E2E2E2E2E2E2E2E2E2E2E2E2E2E2E2E2E2E2E2E2E2E2E2E2E2E2E2E2E2E2E2E2E2E2E2E2E2E2E2E2E2E2E2E2E2E2E2E2E2E2E2E2E2E2E2E2E2E2E2E2E2E2E2E2E2E2E2E2E2E2E2E2E2E2E2E2E2E2E2E2E2E2E2E2E2E2E2E2E2E2E2E2E2E2E2E2E2E2E2E2E2E2E2E2E2E2E2E2E2E2E2F5E2E2E2F5F5E2E2E2
310
F5E2E2E2E2E2E2E2E2E2E2E2E2E2E2E2E2E2E2E2E2E2E2E2E2E2E2E2E2E2E2E2E2E2E2E2E2E2E2E2E2E2E2E2E2E2E2E2E2E2E2E2E2E2E2E2E2E2E2E2E2E2E2E2E2E2E2E2E2E2E2E2E2E2E2E2E2E2E2E2E2E2E2E2E2E2E2E2E2E2E2E2E2E2E2E2E2E2E2E2E2E2E2E2E2E2E2E2E2E2E2E2E2E2E2E2E2E2E2E2E2E2E2E2E2E2E2
310
E2E2E2E2E2E2E2E2E2E2E2E2E2E2E2E2E2E2E2E2E2E2E2E2E2E2E2E2E2E2E2E2E2E2E2E2E2E2E2E2E2E2E2E2F5E2E2E2F5F5E2E2E2F5E2E2E2E2E2E2E2E2E2E2E2E2E2E2E2E2E2E2E2E2E2E2E2E2E2E2E2E2E2E2E2E2E2E2E2E2E2E2E2E2E2E2E2E2E2E2E2E2E2E2E2E2E2E2E2E2E2E2E2E2E2E2E2E2E2E2E2E2E2E2E2E2E2
310
E2E2E2E2E2E2E2E2E2E2E2E2E2E2E2E2E2E2E2E2E2E2E2E2E2E2E2E2E2E2E2E2E2E2E2E2E2E2E2E2E2E2E2E2E2E2E2E2E2E2E2E2E2E2E2E2E2E2E2E2E2E2E2E2E2E2E2E2E2E2E2E2E2E2E2E2E2E2E2E2E2E2E2E2E2E2E2E2E2E2E2E2E2E2E2E2E2F5E2E2E2F5F5E2E2E2F5E2E2E2E2E2E2E2E2E2E2E2E2E2E2E2E2E2E2E2E2
310
E2E2E2E2E2E2E2E2E2E2E2E2E2E2E2E2E2E2E2E2E2E2E2E2E2E2E2E2E2E2E2E2E2E2E2E2E2E2E2E2E2E2E2E2E2E2E2E2E2E2E2E2E2E2E2E2E2E2E2E2E2E2E2E2E2E2E2E2E2E2E2E2E2E2E2E2E2E2E2E2E2E2E2E2E2E2E2E2E2E2E2E2E2E2E2E2E2E2E2E2E2E2E2E2E2E2E2E2E2E2E2E2E2E2E2E2E2E2E2E2E2E2E2E2E2E2E2
310
E2E2E2E2E2E2E2E2E2E2E2E2E2E2E2E2E2E2E2E2E2E2E2F5E2E2E2F5F5E2E2E2E2E2E2E2E2E2E2E2E2E2E2E2E2E2E2E2E2E2E2E2E2E2E2E2E2E2E2E2E2E2E2E2E2E2E2E2E2E2E2E2E2E2E2E2E2E2E2E2E2E2E2E2E2E2E2E2E2E2E2E2E2E2E2E2E2E2E2E2E2E2E2E2E2E2E2E2E2E2E2E2E2E2E2E2E2E2E2E2E2E2E2E2E2E2E2
310
E2E2E2E2E2E2E2E2E2E2E2E2E2E2E2E2E2E2E2E2E2E2E2E2E2E2E2E2E2E2E2E2E2E2E2E2E2E2E2E2E2E2E2E2E2E2E2E2E2E2E2E2E2E2E2E2E2E2E2E2E2E2E2E2E2E2E2E2E2E2E2E2E2E2E2E2E2E2E2E2F5F5E2E2E2E2E2E2E2E2E2E2E2E2E2E2E2E2E2E2E2E2E2E2E2E2E2E2E2E2E2E2E2E2E2E2E2E2E2E2E2E2E2E2E2E2E2
310
E2E2E2E2E2E2E2E2E2E2E2E2E2E2E2E2E2E2E2E2E2E2E2E2E2E2E2E2E2E2E2E2E2E2E2E2E2E2E2E2E2E2E2E2E2E2E2E2E2E2E2E2E2E2E2E2E2E2E2E2E2E2E2E2E2E2E2E2E2E2E2E2E2E2E2E2E2E2E2E2E2E2E2E2E2E2E2E2E2E2E2E2E2E2E2E2E2E2E2E2E2E2E2E2E2E2E2E2E2E2E2E2E2E2E2E2E2E2E2E2E2E2E2E2E2E2E2
310
E2E2E2E2E2E2F5F5E2E2E2E2E2E2E2E2E2E2E2E2E2E2E2E2E2E2E2E2E2E2E2E2E2E2E2E2E2E2E2E2E2E2E2E2E2E2E2E2E2E2E2E2E2E2E2E2E2E2E2E2E2E2E2E2E2E2E2E2E2E2E2E2E2E2E2E2E2E2E2E2E2E2E2E2E2E2E2E2E2E2E2E2E2E2E2E2E2E2E2E2E2E2E2E2E2E2E2E2E2E2E2E2E2E2E2E2E2E2E2E2E2E2E2E2E2E2E2
310
E2E2E2E2E2E2E2E2E2E2E2E2E2E2E2E2E2E2E2E2E2E2E2E2E2E2E2E2E2E2E2E2E2E2E2E2E2E2E2E2E2E2E2E2E2E2E2E2E2E2E2E2E2E2E2E2E2E2E2F5F5E2E2E2E2E2E2E2E2E2E2E2E2E2E2E2E2E2E2E2E2E2E2E2E2E2E2E2E2E2E2E2E2E2E2E2E2E2E2E2E2E2E2E2E2E2E2E2E2E2E2E2E2E2E2E2E2E2E2E2E2E2E2E2E2E2E2
310
E2E2E2E2E2E2E2E2E2E2E2E2E2E2E2E2E2E2E2E2E2E2E2E2E2E2E2E2E2E2E2E2E2E2E2E2E2E2E2E2E2E2E2E2E2E2E2E2E2E2E2E2E2E2E2E2E2E2E2E2E2E2E2E2E2E2E2E2E2E2E2E2E2E2E2E2E2E2E2E2E2E2E2E2E2E2E2E2E2E2E2E2E2E2E2E2E2E2E2E2E2E2E2E2E2E2E2E2E2E2E2E2F5F5E2E2E2E2E2E2E2E2E2E2E2E2E2
310
E2E2E2E2E2E2E2F5F5F5F5F5F5F5F5F5F5F5F5F5F5F5F5F5F5F5F5F5F5F5F5F5F5F5F5F5F5F5F5F5F5F5F5F5F5F5F5F5F5F5F5F5F5F5F5F5F5F5F5F5F5F5F5F5F5F5F5F5F5F5F5F5F5F5F5F5F5F5F5F5F5F5F5F5F5F5F5F5F5F5F5F5F5F5F5F5F5F5F5F5F5F5F5F5F5F5F5F5F5F5F5F5F5F5F5F5F5F5F5F5F5F5F5F5F5F5F5
310
F5F5F5F5F5F5F5F5F5F5F5F5F5F5F5F5F5F5E2E2E2E2E2E2E2E2E2E2E2E2E2E2E2E2E2E2E2E2F5F5E2E2E2E2E2E2E2E2E2E2E2E2E2E2E2E2E2E2E2E2F5E2E2E2E2E2E2E2E2E2E2E2E2E2E2E2E2E2E2E2E2E2E2E2E2E2E2E2E2E2E2E2E2E2E2E2E2E2E2E2E2E2E2E2E2E2E2E2E2E2E2E2E2E2E2E2E2E2E2E2E2E2E2E2E2E2E2
310
E2E2E2E2E2E2E2E2E2E2E2E2E2E2E2E2E2E2E2E2E2E2E2E2E2E2E2E2E2E2E2E2E2E2E2E2E2E2E2E2E2E2E2E2E2E2E2E2E2E2E2E2E2E2E2E2E2E2E2E2E2E2E2E2E2E2E2E2E2E2F5E2E2E2E2E2E2E2E2E2E2E2E2E2E2E2E2E2E2E2E2F5F5E2E2E2E2E2E2E2E2E2E2E2E2E2E2E2E2E2E2E2E2F5E2E2E2E2E2E2E2E2E2E2E2E2E2
310
E2E2E2E2E2E2E2E2E2E2E2E2E2E2E2E2E2E2E2E2E2E2E2E2E2E2E2E2E2E2E2E2E2E2E2E2E2E2E2E2E2E2E2E2E2E2E2E2E2E2E2E2E2E2E2E2E2E2E2E2E2E2E2E2E2E2E2E2E2E2E2E2E2E2E2E2E2E2E2E2E2E2E2E2E2E2E2E2E2E2E2E2E2E2E2E2E2E2E2E2E2E2E2E2E2E2E2E2E2E2E2E2E2E2E2E2E2E2E2E2E2E2E2F5E2E2E2
310
E2E2E2E2E2E2E2E2E2E2E2E2E2E2E2E2E2F5F5E2E2E2E2E2E2E2E2E2E2E2E2E2E2E2E2E2E2E2E2F5E2E2E2E2E2E2E2E2E2E2E2E2E2E2E2E2E2E2E2E2E2E2E2E2E2E2E2E2E2E2E2E2E2E2E2E2E2E2E2E2E2E2E2E2E2E2E2E2E2E2E2E2E2E2E2E2E2E2E2E2E2E2E2E2E2E2E2E2E2E2E2E2E2E2E2E2E2E2E2E2E2E2E2E2E2E2E2
310
E2E2E2E2E2E2E2E2E2E2E2E2E2E2E2E2E2E2E2E2E2E2E2E2E2E2E2E2E2E2E2E2E2E2E2E2E2E2E2E2E2E2E2E2E2E2E2E2E2F5E2E2E2E2E2E2E2E2E2E2E2E2E2E2E2E2E2E2E2E2F5F5E2E2E2E2E2E2E2E2E2E2E2E2E2E2E2E2E2E2E2E2F5E2E2E2E2E2E2E2E2E2E2E2E2E2E2E2E2E2E2E2E2E2E2E2E2E2E2E2E2E2E2E2E2E2E2
310
E2E2E2E2E2E2E2E2E2E2E2E2E2E2E2E2E2E2E2E2E2E2E2E2E2E2E2E2E2E2E2E2E2E2E2E2E2E2E2E2E2E2E2E2E2E2E2E2E2E2E2E2E2E2E2E2E2E2E2E2E2E2E2E2E2E2E2E2E2E2E2E2E2E2E2E2E2E2E2E2E2E2E2E2E2E2E2E2E2E2E2E2E2E2E2E2E2E2E2E2E2E2F5E2E2E2E2E2E2E2E2E2E2E2E2E2E2E2E2E2E2E2E2F5F5E2E2
310
E2F5E2E2E2E2E2E2E2E2E2E2E2E2E2E2E2E2F5E2E2E2E2E2E2E2E2E2E2E2E2E2E2E2E2E2E2E2E2E2E2E2E2E2E2E2E2E2E2E2E2E2E2E2E2E2E2E2E2E2E2E2E2E2E2E2E2E2E2E2E2E2E2E2E2E2E2E2E2E2E2E2E2E2E2E2E2E2E2E2E2E2E2E2E2E2E2E2E2E2E2E2E2E2E2E2E2E2E2E2E2E2E2E2E2E2E2E2E2E2E2E2E2E2E2E2E2
310
E2E2E2E2E2E2E2E2E2E2E2E2E2E2E2E2E2E2E2E2E2E2E2E2E2E2E2E2F5E2E2E2E2E2E2E2E2E2E2E2E2E2E2E2E2F5E2E2E2F5F5E2E2E2F5E2E2E2E2E2E2E2E2E2E2E2E2E2E2E2E2F5E2E2E2E2E2E2E2E2E2E2E2E2E2E2E2E2E2E2E2E2E2E2E2E2E2E2E2E2E2E2E2E2E2E2E2E2E2E2E2E2E2E2E2E2E2E2E2E2E2E2E2E2E2E2E2
310
E2E2E2E2E2E2E2E2E2E2E2E2E2E2E2E2E2E2E2E2E2E2E2E2E2E2E2E2E2E2E2E2E2E2E2E2E2E2E2E2E2E2E2E2E2E2E2E2E2E2E2E2E2E2E2E2E2E2E2E2E2E2E2E2E2E2E2E2E2E2E2E2E2E2E2E2E2E2E2E2E2F5E2E2E2E2E2E2E2E2E2E2E2E2E2E2E2E2F5E2E2E2F5F5E2E2E2F5E2E2E2E2E2E2E2E2E2E2E2E2E2E2E2E2F5E2E2
310
E2E2E2E2E2E2E2E2E2E2E2E2E2E2E2E2E2E2E2E2E2E2E2E2E2E2E2E2E2E2E2E2E2E2E2E2E2E2E2E2E2E2E2E2E2E2E2E2E2E2E2E2E2E2E2E2E2E2E2E2E2E2E2E2E2E2E2E2E2E2E2E2E2E2E2E2E2E2E2E2E2E2E2E2E2E2E2E2E2E2E2E2E2E2E2E2E2E2E2E2E2E2E2E2E2E2E2E2E2E2E2E2E2E2E2E2E2E2E2E2E2E2E2E2E2E2E2
310
E2E2E2E2E2E2E2F5E2E2E2E2E2E2E2E2E2E2E2E2E2E2E2E2F5E2E2E2F5F5E2E2E2F5E2E2E2E2E2E2E2E2E2E2E2E2E2E2E2E2F5E2E2E2E2E2E2E2E2E2E2E2E2E2E2E2E2E2E2E2E2E2E2E2E2E2E2E2E2E2E2E2E2E2E2E2E2E2E2E2E2E2E2E2E2E2E2E2E2E2E2E2E2E2E2E2E2E2E2E2E2E2E2E2E2E2E2E2E2E2E2E2E2E2E2E2E2
310
E2E2E2E2E2E2E2E2E2E2E2E2E2E2E2E2E2E2E2E2E2E2E2E2E2E2E2E2E2E2E2E2E2E2E2E2E2E2E2E2E2E2E2E2E2E2E2E2E2E2E2E2E2E2E2E2E2E2E2E2F5E2E2E2E2E2E2E2E2E2E2E2E2E2E2E2E2F5E2E2E2F5F5E2E2E2F5E2E2E2E2E2E2E2E2E2E2E2E2E2E2E2E2F5E2E2E2E2E2E2E2E2E2E2E2E2E2E2E2E2E2E2E2E2E2E2E2
310
E2E2E2E2E2E2E2E2E2E2E2E2E2E2E2E2E2E2E2E2E2E2E2E2E2E2E2E2E2E2E2E2E2E2E2E2E2E2E2E2E2E2E2E2E2E2E2E2E2E2E2E2E2E2E2E2E2E2E2E2E2E2E2E2E2E2E2E2E2E2E2E2E2E2E2E2E2E2E2E2E2E2E2E2E2E2E2E2E2E2E2E2E2E2E2E2E2E2E2E2E2E2E2E2E2E2E2E2E2E2E2E2E2F5E2E2E2E2E2E2E2E2E2E2E2E2E2
310
E2E2E2F5E2E2E2F5F5E2E2E2F5E2E2E2E2E2E2E2E2E2E2E2E2E2E2E2E2F5E2E2E2E2E2E2E2E2E2E2E2E2E2E2E2E2E2E2E2E2E2E2E2E2E2E2E2E2E2E2E2E2E2E2E2E2E2E2E2E2E2E2E2E2E2E2E2E2E2E2E2E2E2E2E2E2E2E2E2E2E2E2E2E2E2E2E2E2E2E2E2E2E2E2E2E2E2E2E2E2E2E2E2E2E2E2E2E2E2E2E2E2E2E2E2E2E2
310
E2E2E2E2E2E2E2E2E2E2E2E2E2E2E2E2E2E2E2E2E2E2E2E2E2E2E2E2E2E2E2E2E2E2E2E2E2E2E2F5E2E2E2E2E2E2E2E2E2E2E2E2E2E2E2E2F5E2E2E2F5F5E2E2E2F5E2E2E2E2E2E2E2E2E2E2E2E2E2E2E2E2F5E2E2E2E2E2E2E2E2E2E2E2E2E2E2E2E2E2E2E2E2E2E2E2E2E2E2E2E2E2E2E2E2E2E2E2E2E2E2E2E2E2E2E2E2
310
E2E2E2E2E2E2E2E2E2E2E2E2E2E2E2E2E2E2E2E2E2E2E2E2E2E2E2E2E2E2E2E2E2E2E2E2E2E2E2E2E2E2E2E2E2E2E2E2E2E2E2E2E2E2E2E2E2E2E2E2E2E2E2E2E2E2E2E2E2E2E2E2E2E2E2E2E2E2E2E2E2E2E2E2E2E2E2E2E2E2E2E2F5E2E2E2E2E2E2E2E2E2E2E2E2E2E2E2E2F5E2E2E2F5F5E2E2E2F5E2E2E2E2E2E2E2E2
310
E2E2E2E2E2E2E2E2F5E2E2E2E2E2E2E2E2E2E2E2E2E2E2E2E2E2E2E2E2E2E2E2E2E2E2E2E2E2E2E2E2E2E2E2E2E2E2E2E2E2E2E2E2E2E2E2E2E2E2E2E2E2E2E2E2E2E2E2E2E2E2E2E2E2E2E2E2E2E2E2E2E2E2E2E2E2E2E2E2E2E2E2E2E2E2E2E2E2E2E2E2E2E2E2E2E2E2E2E2E2E2E2E2E2E2E2E2E2E2E2E2E2E2E2E2E2E2
310
E2E2E2E2E2E2E2E2E2E2E2E2E2E2E2E2E2E2F5E2E2E2E2E2E2E2E2E2E2E2E2E2E2E2E2F5E2E2E2F5F5E2E2E2F5E2E2E2E2E2E2E2E2E2E2E2E2E2E2E2E2F5E2E2E2E2E2E2E2E2E2E2E2E2E2E2E2E2E2E2E2E2E2E2E2E2E2E2E2E2E2E2E2E2E2E2E2E2E2E2E2E2E2E2E2E2E2E2E2E2E2E2E2E2E2E2E2E2E2E2E2E2E2E2E2E2E2
310
E2E2E2E2E2E2E2E2E2E2E2E2E2E2E2E2E2E2E2E2E2E2E2E2E2E2E2E2E2E2E2E2E2E2E2E2E2E2E2E2E2E2E2E2E2E2E2E2E2E2E2E2E2E2E2E2E2E2E2E2E2E2E2E2E2E2E2E2E2E2E2F5E2E2E2E2E2E2E2E2E2E2E2E2E2E2E2E2F5E2E2E2F5F5E2E2E2F5E2E2E2E2E2E2E2E2E2E2E2E2E2E2E2E2F5E2E2E2E2E2E2E2E2E2E2E2E2
310
E2E2E2E2E2E2E2E2E2E2E2E2E2E2E2E2E2E2E2E2E2E2E2E2E2E2E2E2E2E2E2E2E2E2E2E2E2E2E2E2E2E2E2E2E2E2E2E2E2E2E2E2E2E2E2E2E2E2E2E2E2E2E2E2E2E2E2E2E2E2E2E2E2E2E2E2E2E2E2E2E2E2E2E2E2E2E2E2E2E2E2E2E2E2E2E2E2E2E2E2E2E2E2E2E2E2E2E2E2E2E2E2E2E2E2E2E2E2E2E2E2E2E2E2F5E2E2
310
E2E2E2E2E2E2E2E2E2E2E2E2E2E2F5E2E2E2F5F5E2E2E2F5E2E2E2E2E2E2E2E2E2E2E2E2E2E2E2E2F5E2E2E2E2E2E2E2E2E2E2E2E2E2E2E2E2E2E2E2E2E2E2E2E2E2E2E2E2E2E2E2E2E2E2E2E2E2E2E2E2E2E2E2E2E2E2E2E2E2E2E2E2E2E2E2E2E2E2E2E2E2E2E2E2E2E2E2E2E2E2E2E2E2E2E2E2E2E2E2E2E2E2E2E2E2E2
310
E2E2E2E2E2E2E2E2E2E2E2E2E2E2E2E2E2E2E2E2E2E2E2E2E2E2E2E2E2E2E2E2E2E2E2E2E2E2E2E2E2E2E2E2E2E2E2E2E2E2F5E2E2E2E2E2E2E2E2E2E2E2E2E2E2E2E2F5E2E2E2F5F5E2E2E2F5E2E2E2E2E2E2E2E2E2E2E2E2E2E2E2E2F5E2E2E2E2E2E2E2E2E2E2E2E2E2E2E2E2E2E2E2E2E2E2E2E2E2E2E2E2E2E2E2E2E2
310
E2E2E2E2E2E2E2E2E2E2E2E2E2E2E2E2E2E2E2E2E2E2E2E2E2E2E2E2E2E2E2E2E2E2E2E2E2E2E2E2E2E2E2E2E2E2E2E2E2E2E2E2E2E2E2E2E2E2E2E2E2E2E2E2E2E2E2E2E2E2E2E2E2E2E2E2E2E2E2E2E2E2E2E2E2E2E2E2E2E2E2E2E2E2E2E2E2E2E2E2E2E2E2F5E2E2E2E2E2E2E2E2E2E2E2E2E2E2E2E2F5E2E2E2F5F5E2
310
E2E2F5E2E2E2E2E2E2E2E2E2E2E2E2E2E2E2E2F5E2E2E2E2E2E2E2E2E2E2E2E2E2E2E2E2E2E2E2E2E2E2E2E2E2E2E2E2E2E2E2E2E2E2E2E2E2E2E2E2E2E2E2E2E2E2E2E2E2E2E2E2E2E2E2E2E2E2E2E2E2E2E2E2E2E2E2E2E2E2E2E2E2E2E2E2E2E2E2E2E2E2E2E2E2E2E2E2E2E2E2E2E2E2E2E2E2E2E2E2E2E2E2E2E2E2E2
310
E2E2E2E2E2E2E2E2E2E2E2E2E2E2E2E2E2E2E2E2E2E2E2E2E2E2E2E2E2F5E2E2E2E2E2E2E2E2E2E2E2E2E2E2E2E2F5E2E2E2F5F5E2E2E2F5E2E2E2E2E2E2E2E2E2E2E2E2E2E2E2E2F5E2E2E2E2E2E2E2E2E2E2E2E2E2E2E2E2E2E2E2E2E2E2E2E2E2E2E2E2E2E2E2E2E2E2E2E2E2E2E2E2E2E2E2E2E2E2E2E2E2E2E2E2E2E2
310
E2E2E2E2E2E2E2E2E2E2E2E2E2E2E2E2E2E2E2E2E2E2E2E2E2E2E2E2E2E2E2E2E2E2E2E2E2E2E2E2E2E2E2E2E2E2E2E2E2E2E2E2E2E2E2E2E2E2E2E2E2E2E2E2E2E2E2E2E2E2E2E2E2E2E2E2E2E2E2E2E2E2F5E2E2E2E2E2E2E2E2E2E2E2E2E2E2E2E2F5E2E2E2F5F5E2E2E2F5E2E2E2E2E2E2E2E2E2E2E2E2E2E2E2E2F5E2
310
E2E2E2E2E2E2E2E2E2E2E2E2E2E2E2E2E2E2E2E2E2E2E2E2E2E2E2E2E2E2E2E2E2E2E2E2E2E2E2E2E2E2E2E2E2E2E2E2E2E2E2E2E2E2E2E2E2E2E2E2E2E2E2E2E2E2E2E2E2E2E2E2E2E2E2E2E2E2E2E2E2E2E2E2E2E2E2E2E2E2E2E2E2E2E2E2E2E2E2E2E2E2E2E2E2E2E2E2E2E2E2E2E2E2E2E2E2E2E2E2E2E2E2E2E2E2E2
310
E2E2E2E2E2E2E2E2F5E2E2E2E2E2E2E2E2E2E2E2E2E2E2E2E2F5E2E2E2F5F5E2E2E2F5E2E2E2E2E2E2E2E2E2E2E2E2E2E2E2E2F5E2E2E2E2E2E2E2E2E2E2E2E2E2E2E2E2E2E2E2E2E2E2E2E2E2E2E2E2E2E2E2E2E2E2E2E2E2E2E2E2E2E2E2E2E2E2E2E2E2E2E2E2E2E2E2E2E2E2E2E2E2E2E2E2E2E2E2E2E2E2E2E2E2E2E2
310
E2E2E2E2E2E2E2E2E2E2E2E2E2E2E2E2E2E2E2E2E2E2E2E2E2E2E2E2E2E2E2E2E2E2E2E2E2E2E2E2E2E2E2E2E2E2E2E2E2E2E2E2E2E2E2E2E2E2E2E2E2F5E2E2E2E2E2E2E2E2E2E2E2E2E2E2E2E2F5E2E2E2F5F5E2E2E2F5E2E2E2E2E2E2E2E2E2E2E2E2E2E2E2E2F5E2E2E2E2E2E2E2E2E2E2E2E2E2E2E2E2E2E2E2E2E2E2
310
E2E2E2E2E2E2E2E2E2E2E2E2E2E2E2E2E2E2E2E2E2E2E2E2E2E2E2E2E2E2E2E2E2E2E2E2E2E2E2E2E2E2E2E2E2E2E2E2E2E2E2E2E2E2E2E2E2E2E2E2E2E2E2E2E2E2E2E2E2E2E2E2E2E2E2E2E2E2E2E2E2E2E2E2E2E2E2E2E2E2E2E2E2E2E2E2E2E2E2E2E2E2E2E2E2E2E2E2E2E2E2E2E2E2F5E2E2E2E2E2E2E2E2E2E2E2E2
310
E2E2E2E2F5E2E2E2F5F5E2E2E2E2E2E2E2E2E2E2E2E2E2E2E2E2E2E2E2E2F5E2E2E2E2E2E2E2E2E2E2E2E2E2E2E2E2E2E2E2E2E2E2E2E2E2E2E2E2E2E2E2E2E2E2E2E2E2E2E2E2E2E2E2E2E2E2E2E2E2E2E2E2E2E2E2E2E2E2E2E2E2E2E2E2E2E2E2E2E2E2E2E2E2E2E2E2E2E2E2E2E2E2E2E2E2E2E2E2E2E2E2E2E2E2E2E2
310
E2E2E2E2E2E2E2E2E2E2E2E2E2E2E2E2E2E2E2E2E2E2E2E2E2E2E2E2E2E2E2E2E2E2E2E2E2E2E2E2F5E2E2E2E2E2E2E2E2E2E2E2E2E2E2E2E2E2E2E2E2F5F5E2E2E2E2E2E2E2E2E2E2E2E2E2E2E2E2E2E2E2E2F5E2E2E2E2E2E2E2E2E2E2E2E2E2E2E2E2E2E2E2E2E2E2E2E2E2E2E2E2E2E2E2E2E2E2E2E2E2E2E2E2E2E2E2
310
E2E2E2E2E2E2E2E2E2E2E2E2E2E2E2E2E2E2E2E2E2E2E2E2E2E2E2E2E2E2E2E2E2E2E2E2E2E2E2E2E2E2E2E2E2E2E2E2E2E2E2E2E2E2E2E2E2E2E2E2E2E2E2E2E2E2E2E2E2E2E2E2E2E2E2E2E2E2E2E2E2E2E2E2E2E2E2E2E2E2E2E2E2F5E2E2E2E2E2E2E2E2E2E2E2E2E2E2E2E2E2E2E2E2F5F5E2E2E2E2E2E2E2E2E2E2E2
310
E2E2E2E2E2E2E2E2E2F5E2E2E2E2E2E2E2E2E2E2E2E2E2E2E2E2E2E2E2E2E2E2E2E2E2E2E2E2E2E2E2E2E2E2E2E2E2E2E2E2E2E2E2E2E2E2E2E2E2E2E2E2E2E2E2E2E2E2E2E2E2E2E2E2E2E2E2E2E2E2E2E2E2E2E2E2E2E2E2E2E2E2E2E2E2E2E2E2E2E2E2E2E2E2E2E2E2E2E2E2E2E2E2E2E2E2E2E2E2E2E2E2E2E2E2E2E2
310
E2E2E2E2E2E2E2E2E2E2E2E2E2E2E2E2E2E2E2F5E2E2E2E2E2E2E2E2E2E2E2E2E2E2E2E2E2E2E2E2F5F5E2E2E2E2E2E2E2E2E2E2E2E2E2E2E2E2E2E2E2E2F5E2E2E2E2E2E2E2E2E2E2E2E2E2E2E2E2E2E2E2E2E2E2E2E2E2E2E2E2E2E2E2E2E2E2E2E2E2E2E2E2E2E2E2E2E2E2E2E2E2E2E2E2E2E2E2E2E2E2E2E2E2E2E2E2
310
E2E2E2E2E2E2E2E2E2E2E2E2E2E2E2E2E2E2E2E2E2E2E2E2E2E2E2E2E2E2E2E2E2E2E2E2E2E2E2E2E2E2E2E2E2E2E2E2E2E2E2E2E2E2E2E2E2E2E2E2E2E2E2E2E2E2E2E2E2E2E2E2F5E2E2E2E2E2E2E2E2E2E2E2E2E2E2E2E2E2E2E2E2F5F5E2E2E2E2E2E2E2E2E2E2E2E2E2E2E2E2E2E2E2E2F5E2E2E2E2E2E2E2E2E2E2E2
310
E2E2E2E2E2E2E2E2E2E2E2E2E2E2E2E2E2E2E2E2E2E2E2E2E2E2E2E2E2E2E2E2E2E2E2E2E2E2E2E2E2E2E2E2E2E2E2E2E2E2E2E2E2E2E2E2E2E2E2E2E2E2E2E2E2E2E2E2E2E2E2E2E2E2E2E2E2E2E2E2E2E2E2E2E2E2E2E2E2E2E2E2E2E2E2E2E2E2E2E2E2E2E2E2E2E2E2E2E2E2E2E2E2E2E2E2E2E2E2E2E2E2E2E2E2F5E2
310
E2E2E2E2E2E2E2E2E2E2E2E2E2E2E2E2E2E2E2F5F5E2E2E2E2E2E2E2E2E2E2E2E2E2E2E2E2E2E2E2E2F5E2E2E2E2E2E2E2E2E2E2E2E2E2E2E2E2E2E2E2E2E2E2E2E2E2E2E2E2E2E2E2E2E2E2E2E2E2E2E2E2E2E2E2E2E2E2E2E2E2E2E2E2E2E2E2E2E2E2E2E2E2E2E2E2E2E2E2E2E2E2E2E2E2E2E2E2E2E2E2E2E2E2E2E2E2
310
E2E2E2E2E2E2E2E2E2E2E2E2E2E2E2E2E2E2E2E2E2E2E2E2E2E2E2E2E2E2E2E2E2E2E2E2E2E2E2E2E2E2E2E2E2E2E2E2E2E2E2F5E2E2E2E2E2E2E2E2E2E2E2E2E2E2E2E2E2E2E2E2F5F5E2E2E2E2E2E2E2E2E2E2E2E2E2E2E2E2E2E2E2E2F5E2E2E2E2E2E2E2E2E2E2E2E2E2E2E2E2E2E2E2E2E2E2E2E2E2E2E2E2E2E2E2E2
310
E2E2E2E2E2E2E2E2E2E2E2E2E2E2E2E2E2E2E2E2E2E2E2E2E2E2E2E2E2E2E2E2E2E2E2E2E2E2E2E2E2E2E2E2E2E2E2E2E2E2E2E2E2E2E2E2E2E2E2E2E2E2E2E2E2E2E2E2E2E2E2E2E2E2E2E2E2E2E2E2E2E2E2E2E2E2E2E2E2E2E2E2E2E2E2E2E2E2E2E2E2E2E2E2F5E2E2E2E2E2E2E2E2E2E2E2E2E2E2E2E2E2E2E2E2F5F5
310
E2E2E2E2E2E2E2E2E2E2E2E2E2E2E2E2E2E2E2E2F5E2E2E2E2E2E2E2E2E2E2E2E2E2E2E2E2E2E2E2E2E2E2E2E2E2E2E2E2E2E2E2E2E2E2E2E2E2E2E2E2E2E2E2E2E2E2E2E2E2E2E2E2E2E2E2E2E2E2E2E2E2E2E2E2E2E2E2E2E2E2E2E2E2E2E2E2E2E2E2E2E2E2E2E2E2E2E2E2E2E2E2E2E2E2E2E2E2E2E2E2E2E2E2E2E2E2
310
E2E2E2E2E2E2E2E2E2E2E2E2E2E2E2E2E2E2E2E2E2E2E2E2E2E2E2E2E2E2F5E2E2E2E2E2E2E2E2E2E2E2E2E2E2E2E2E2E2E2E2F5F5E2E2E2E2E2E2E2E2E2E2E2E2E2E2E2E2E2E2E2E2F5E2E2E2E2E2E2E2E2E2E2E2E2E2E2E2E2E2E2E2E2E2E2E2E2E2E2E2E2E2E2E2E2E2E2E2E2E2E2E2E2E2E2E2E2E2E2E2E2E2E2E2E2E2
310
E2E2E2E2E2E2E2E2E2E2E2E2E2E2E2E2E2E2E2E2E2E2E2E2E2E2E2E2E2E2E2E2E2E2E2E2E2E2E2E2E2E2E2E2E2E2E2E2E2E2E2E2E2E2E2E2E2E2E2E2E2E2E2E2E2E2E2E2E2E2E2E2E2E2E2E2E2E2E2E2E2E2E2F5E2E2E2E2E2E2E2E2E2E2E2E2E2E2E2E2E2E2E2E2F5F5E2E2E2F5E2E2E2E2E2E2E2E2E2E2E2E2E2E2E2E2F5
310
E2E2E2E2E2E2E2E2E2E2E2E2E2E2E2E2E2E2E2E2E2E2E2E2E2E2E2E2E2E2E2E2E2E2E2E2E2E2E2E2E2E2E2E2E2E2E2E2E2E2E2E2E2E2E2E2E2E2E2E2E2E2E2E2E2E2E2E2E2E2E2E2E2E2E2E2E2E2E2E2E2E2E2E2E2E2E2E2E2E2E2E2E2E2E2E2E2E2E2E2E2E2E2E2E2E2E2E2E2E2E2E2E2E2E2E2E2E2E2E2E2E2E2E2E2E2E2
310
E2E2E2E2E2E2E2E2E2F5E2E2E2E2E2E2E2E2E2E2E2E2E2E2E2E2F5E2E2E2F5F5E2E2E2F5E2E2E2E2E2E2E2E2E2E2E2E2E2E2E2E2F5E2E2E2E2E2E2E2E2E2E2E2E2E2E2E2E2E2E2E2E2E2E2E2E2E2E2E2E2E2E2E2E2E2E2E2E2E2E2E2E2E2E2E2E2E2E2E2E2E2E2E2E2E2E2E2E2E2E2E2E2E2E2E2E2E2E2E2E2E2E2E2E2E2E2
310
E2E2E2E2E2E2E2E2E2E2E2E2E2E2E2E2E2E2E2E2E2E2E2E2E2E2E2E2E2E2E2E2E2E2E2E2E2E2E2E2E2E2E2E2E2E2E2E2E2E2E2E2E2E2E2E2E2E2E2E2E2E2F5E2E2E2E2E2E2E2E2E2E2E2E2E2E2E2E2F5E2E2E2F5F5E2E2E2F5E2E2E2E2E2E2E2E2E2E2E2E2E2E2E2E2F5E2E2E2E2E2E2E2E2E2E2E2E2E2E2E2E2E2E2E2E2E2
310
E2E2E2E2E2E2E2E2E2E2E2E2E2E2E2E2E2E2E2E2E2E2E2E2E2E2E2E2E2E2E2E2E2E2E2E2E2E2E2E2E2E2E2E2E2E2E2E2E2E2E2E2E2E2E2E2E2E2E2E2E2E2E2E2E2E2E2E2E2E2E2E2E2E2E2E2E2E2E2E2E2E2E2E2E2E2E2E2E2E2E2E2E2E2E2E2E2E2E2E2E2E2E2E2E2E2E2E2E2E2E2E2E2E2E2F5E2E2E2E2E2E2E2E2E2E2E2
310
E2E2E2E2E2F5E2E2E2F5F5E2E2E2F5E2E2E2E2E2E2E2E2E2E2E2E2E2E2E2E2F5E2E2E2E2E2E2E2E2E2E2E2E2E2E2E2E2E2E2E2E2E2E2E2E2E2E2E2E2E2E2E2E2E2E2E2E2E2E2E2E2E2E2E2E2E2E2E2E2E2E2E2E2E2E2E2E2E2E2E2E2E2E2E2E2E2E2E2E2E2E2E2E2E2E2E2E2E2E2E2E2E2E2E2E2E2E2E2E2E2E2E2E2E2E2E2
310
E2E2E2E2E2E2E2E2E2E2E2E2E2E2E2E2E2E2E2E2E2E2E2E2E2E2E2E2E2E2E2E2E2E2E2E2E2E2E2E2E2F5E2E2E2E2E2E2E2E2E2E2E2E2E2E2E2E2F5E2E2E2F5F5E2E2E2F5E2E2E2E2E2E2E2E2E2E2E2E2E2E2E2E2F5E2E2E2E2E2E2E2E2E2E2E2E2E2E2E2E2E2E2E2E2E2E2E2E2E2E2E2E2E2E2E2E2E2E2E2E2E2E2E2E2E2E2
310
E2E2E2E2E2E2E2E2E2E2E2E2E2E2E2E2E2E2E2E2E2E2E2E2E2E2E2E2E2E2E2E2E2E2E2E2E2E2E2E2E2E2E2E2E2E2E2E2E2E2E2E2E2E2E2E2E2E2E2E2E2E2E2E2E2E2E2E2E2E2E2E2E2E2E2E2E2E2E2E2E2E2E2E2E2E2E2E2E2E2E2E2E2E2F5E2E2E2E2E2E2E2E2E2E2E2E2E2E2E2E2F5E2E2E2F5F5E2E2E2F5E2E2E2E2E2E2
310
E2E2E2E2E2E2E2E2E2E2F5E2E2E2E2E2E2E2E2E2E2E2E2E2E2E2E2E2E2E2E2E2E2E2E2E2E2E2E2E2E2E2E2E2E2E2E2E2E2E2E2E2E2E2E2E2E2E2E2E2E2E2E2E2E2E2E2E2E2E2E2E2E2E2E2E2E2E2E2E2E2E2E2E2E2E2E2E2E2E2E2E2E2E2E2E2E2E2E2E2E2E2E2E2E2E2E2E2E2E2E2E2E2E2E2E2E2E2E2E2E2E2E2E2E2E2E2
310
E2E2E2E2E2E2E2E2E2E2E2E2E2E2E2E2E2E2E2E2F5E2E2E2E2E2E2E2E2E2E2E2E2E2E2E2E2F5E2E2E2F5F5E2E2E2F5E2E2E2E2E2E2E2E2E2E2E2E2E2E2E2E2F5E2E2E2E2E2E2E2E2E2E2E2E2E2E2E2E2E2E2E2E2E2E2E2E2E2E2E2E2E2E2E2E2E2E2E2E2E2E2E2E2E2E2E2E2E2E2E2E2E2E2E2E2E2E2E2E2E2E2E2E2E2E2E2
310
E2E2E2E2E2E2E2E2E2E2E2E2E2E2E2E2E2E2E2E2E2E2E2E2E2E2E2E2E2E2E2E2E2E2E2E2E2E2E2E2E2E2E2E2E2E2E2E2E2E2E2E2E2E2E2E2E2E2E2E2E2E2E2E2E2E2E2E2E2E2E2E2E2F5E2E2E2E2E2E2E2E2E2E2E2E2E2E2E2E2F5E2E2E2F5F5E2E2E2F5E2E2E2E2E2E2E2E2E2E2E2E2E2E2E2E2F5E2E2E2E2E2E2E2E2E2E2
310
E2E2E2E2E2E2E2E2E2E2E2E2E2E2E2E2E2E2E2E2E2E2E2E2E2E2E2E2E2E2E2E2E2E2E2E2E2E2E2E2E2E2E2E2E2E2E2E2E2E2E2E2E2E2E2E2E2E2E2E2E2E2E2E2E2E2E2E2E2E2E2E2E2E2E2E2E2E2E2E2E2E2E2E2E2E2E2E2E2E2E2E2E2E2E2E2E2E2E2E2E2E2E2E2E2E2E2E2E2E2E2E2E2E2E2E2E2E2E2E2E2E2E2E2E2E2F5
310
E2E2E2E2E2E2E2E2E2E2E2E2E2E2E2E2F5E2E2E2F5F5E2E2E2F5E2E2E2E2E2E2E2E2E2E2E2E2E2E2E2E2F5E2E2E2E2E2E2E2E2E2E2E2E2E2E2E2E2E2E2E2E2E2E2E2E2E2E2E2E2E2E2E2E2E2E2E2E2E2E2E2E2E2E2E2E2E2E2E2E2E2E2E2E2E2E2E2E2E2E2E2E2E2E2E2E2E2E2E2E2E2E2E2E2E2E2E2E2E2E2E2E2E2E2E2E2
310
E2E2E2E2E2E2E2E2E2E2E2E2E2E2E2E2E2E2E2E2E2E2E2E2E2E2E2E2E2E2E2E2E2E2E2E2E2E2E2E2E2E2E2E2E2E2E2E2E2E2E2E2F5E2E2E2E2E2E2E2E2E2E2E2E2E2E2E2E2F5E2E2E2F5F5E2E2E2F5E2E2E2E2E2E2E2E2E2E2E2E2E2E2E2E2F5E2E2E2E2E2E2E2E2E2E2E2E2E2E2E2E2E2E2E2E2E2E2E2E2E2E2E2E2E2E2E2
310
E2E2E2E2E2E2E2E2E2E2E2E2E2E2E2E2E2E2E2E2E2E2E2E2E2E2E2E2E2E2E2E2E2E2E2E2E2E2E2E2E2E2E2E2E2E2E2E2E2E2E2E2E2E2E2E2E2E2E2E2E2E2E2E2E2E2E2E2E2E2E2E2E2E2E2E2E2E2E2E2E2E2E2E2E2E2E2E2E2E2E2E2E2E2E2E2E2E2E2E2E2E2E2E2E2F5E2E2E2E2E2E2E2E2E2E2E2E2E2E2E2E2F5E2E2E2F5
310
F5E2E2E2F5E2E2E2E2E2E2E2E2E2E2E2E2E2E2E2E2F5E2E2E2E2E2E2E2E2E2E2E2E2E2E2E2E2E2E2E2E2E2E2E2E2E2E2E2E2E2E2E2E2E2E2E2E2E2E2E2E2E2E2E2E2E2E2E2E2E2E2E2E2E2E2E2E2E2E2E2E2E2E2E2E2E2E2E2E2E2E2E2E2E2E2E2E2E2E2E2E2E2E2E2E2E2E2E2E2E2E2E2E2E2E2E2E2E2E2E2E2E2E2E2E2E2
310
E2E2E2E2E2E2E2E2E2E2E2E2E2E2E2E2E2E2E2E2E2E2E2E2E2E2E2E2E2E2E2F5E2E2E2E2E2E2E2E2E2E2E2E2E2E2E2E2F5E2E2E2F5F5E2E2E2F5E2E2E2E2E2E2E2E2E2E2E2E2E2E2E2E2F5E2E2E2E2E2E2E2E2E2E2E2E2E2E2E2E2E2E2E2E2E2E2E2E2E2E2E2E2E2E2E2E2E2E2E2E2E2E2E2E2E2E2E2E2E2E2E2E2E2E2E2E2
310
E2E2E2E2E2E2E2E2E2E2E2E2E2E2E2E2E2E2E2E2E2E2E2E2E2E2E2E2E2E2E2E2E2E2E2E2E2E2E2E2E2E2E2E2E2E2E2E2E2E2E2E2E2E2E2E2E2E2E2E2E2E2E2E2E2E2E2E2E2E2E2E2E2E2E2E2E2E2E2E2E2E2E2E2F5E2E2E2E2E2E2E2E2E2E2E2E2E2E2E2E2F5E2E2E2F5F5E2E2E2F5E2E2E2E2E2E2E2E2E2E2E2E2E2E2E2E2
310
F5E2E2E2E2E2E2E2E2E2E2E2E2E2E2E2E2E2E2E2E2E2E2E2E2E2E2E2E2E2E2E2E2E2E2E2E2E2E2E2E2E2E2E2E2E2E2E2E2E2E2E2E2E2E2E2E2E2E2E2E2E2E2E2E2E2E2E2E2E2E2E2E2E2E2E2E2E2E2E2E2E2E2E2E2E2E2E2E2E2E2E2E2E2E2E2E2E2E2E2E2E2E2E2E2E2E2E2E2E2E2E2E2E2E2E2E2E2E2E2E2E2E2E2E2E2E2
310
E2E2E2E2E2E2E2E2E2E2F5E2E2E2E2E2E2E2E2E2E2E2E2E2E2E2E2F5E2E2E2F5F5E2E2E2F5E2E2E2E2E2E2E2E2E2E2E2E2E2E2E2E2F5E2E2E2E2E2E2E2E2E2E2E2E2E2E2E2E2E2E2E2E2E2E2E2E2E2E2E2E2E2E2E2E2E2E2E2E2E2E2E2E2E2E2E2E2E2E2E2E2E2E2E2E2E2E2E2E2E2E2E2E2E2E2E2E2E2E2E2E2E2E2E2E2E2
310
E2E2E2E2E2E2E2E2E2E2E2E2E2E2E2E2E2E2E2E2E2E2E2E2E2E2E2E2E2E2E2E2E2E2E2E2E2E2E2E2E2E2E2E2E2E2E2E2E2E2E2E2E2E2E2E2E2E2E2E2E2E2E2F5E2E2E2E2E2E2E2E2E2E2E2E2E2E2E2E2F5E2E2E2F5F5E2E2E2F5E2E2E2E2E2E2E2E2E2E2E2E2E2E2E2E2F5E2E2E2E2E2E2E2E2E2E2E2E2E2E2E2E2E2E2E2E2
310
E2E2E2E2E2E2E2E2E2E2E2E2E2E2E2E2E2E2E2E2E2E2E2E2E2E2E2E2E2E2E2E2E2E2E2E2E2E2E2E2E2E2E2E2E2E2E2E2E2E2E2E2E2E2E2E2E2E2E2E2E2E2E2E2E2E2E2E2E2E2E2E2E2E2E2E2E2E2E2E2E2E2E2E2E2E2E2E2E2E2E2E2E2E2E2E2E2E2E2E2E2E2E2E2E2E2E2E2E2E2E2E2E2E2E2E2F5E2E2E2E2E2E2E2E2E2E2
310
E2E2E2E2E2E2F5E2E2E2F5F5E2E2E2F5E2E2E2E2E2E2E2E2E2E2E2E2E2E2E2E2F5E2E2E2E2E2E2E2E2E2E2E2E2E2E2E2E2E2E2E2E2E2E2E2E2E2E2E2E2E2E2E2E2E2E2E2E2E2E2E2E2E2E2E2E2E2E2E2E2E2E2E2E2E2E2E2E2E2E2E2E2E2E2E2E2E2E2E2E2E2E2E2E2E2E2E2E2E2E2E2E2E2E2E2E2E2E2E2E2E2E2E2E2E2E2
310
E2E2E2E2E2E2E2E2E2E2E2E2E2E2E2E2E2E2E2E2E2E2E2E2E2E2E2E2E2E2E2E2E2E2E2E2E2E2E2E2E2E2F5E2E2E2E2E2E2E2E2E2E2E2E2E2E2E2E2F5E2E2E2F5F5E2E2E2E2E2E2E2E2E2E2E2E2E2E2E2E2E2E2E2E2F5E2E2E2E2E2E2E2E2E2E2E2E2E2E2E2E2E2E2E2E2E2E2E2E2E2E2E2E2E2E2E2E2E2E2E2E2E2E2E2E2E2
310
E2E2E2E2E2E2E2E2E2E2E2E2E2E2E2E2E2E2E2E2E2E2E2E2E2E2E2E2E2E2E2E2E2E2E2E2E2E2E2E2E2E2E2E2E2E2E2E2E2E2E2E2E2E2E2E2E2E2E2E2E2E2E2E2E2E2E2E2E2E2E2E2E2E2E2E2E2E2E2E2E2E2E2E2E2E2E2E2E2E2E2E2E2E2E2F5E2E2E2E2E2E2E2E2E2E2E2E2E2E2E2E2E2E2E2E2F5F5E2E2E2E2E2E2E2E2E2
310
E2E2E2E2E2E2E2E2E2E2E2F5E2E2E2E2E2E2E2E2E2E2E2E2E2E2E2E2E2E2E2E2E2E2E2E2E2E2E2E2E2E2E2E2E2E2E2E2E2E2E2E2E2E2E2E2E2E2E2E2E2E2E2E2E2E2E2E2E2E2E2E2E2E2E2E2E2E2E2E2E2E2E2E2E2E2E2E2E2E2E2E2E2E2E2E2E2E2E2E2E2E2E2E2E2E2E2E2E2E2E2E2E2E2E2E2E2E2E2E2E2E2E2E2E2E2E2
310
E2E2E2E2E2E2E2E2E2E2E2E2E2E2E2E2E2E2E2E2E2F5E2E2E2E2E2E2E2E2E2E2E2E2E2E2E2E2E2E2E2E2F5F5E2E2E2E2E2E2E2E2E2E2E2E2E2E2E2E2E2E2E2E2F5E2E2E2E2E2E2E2E2E2E2E2E2E2E2E2E2E2E2E2E2E2E2E2E2E2E2E2E2E2E2E2E2E2E2E2E2E2E2E2E2E2E2E2E2E2E2E2E2E2E2E2E2E2E2E2E2E2E2E2E2E2E2
310
E2E2E2E2E2E2E2E2E2E2E2E2E2E2E2E2E2E2E2E2E2E2E2E2E2E2E2E2E2E2E2E2E2E2E2E2E2E2E2E2E2E2E2E2E2E2E2E2E2E2E2E2E2E2E2E2E2E2E2E2E2E2E2E2E2E2E2E2E2E2E2E2E2E2F5E2E2E2E2E2E2E2E2E2E2E2E2E2E2E2E2E2E2E2E2F5F5E2E2E2E2E2E2E2E2E2E2E2E2E2E2E2E2E2E2E2E2F5E2E2E2E2E2E2E2E2E2
310
E2E2E2E2E2E2E2E2E2E2E2E2E2E2E2E2E2E2E2E2E2E2E2E2E2E2E2E2E2E2E2E2E2E2E2E2E2E2E2E2E2E2E2E2E2E2E2E2E2E2E2E2E2E2E2E2E2E2E2E2E2E2E2E2E2E2E2E2E2E2E2E2E2E2E2E2E2E2E2E2E2E2E2E2E2E2E2E2E2E2E2E2E2E2E2E2E2E2E2E2E2E2E2E2E2E2E2E2E2E2E2E2E2E2E2E2E2E2E2E2E2E2E2E2E2E2E2
310
F5E2E2E2E2E2E2E2E2E2E2E2E2E2E2E2E2E2E2E2E2F5F5E2E2E2E2E2E2E2E2E2E2E2E2E2E2E2E2E2E2E2E2F5E2E2E2E2E2E2E2E2E2E2E2E2E2E2E2E2E2E2E2E2E2E2E2E2E2E2E2E2E2E2E2E2E2E2E2E2E2E2E2E2E2E2E2E2E2E2E2E2E2E2E2E2E2E2E2E2E2E2E2E2E2E2E2E2E2E2E2E2E2E2E2E2E2E2E2E2E2E2E2E2E2E2E2
310
E2E2E2E2E2E2E2E2E2E2E2E2E2E2E2E2E2E2E2E2E2E2E2E2E2E2E2E2E2E2E2E2E2E2E2E2E2E2E2E2E2E2E2E2E2E2E2E2E2E2E2E2E2F5E2E2E2E2E2E2E2E2E2E2E2E2E2E2E2E2E2E2E2E2F5F5E2E2E2E2E2E2E2E2E2E2E2E2E2E2E2E2E2E2E2E2F5E2E2E2E2E2E2E2E2E2E2E2E2E2E2E2E2E2E2E2E2E2E2E2E2E2E2E2E2E2E2
310
E2E2E2E2E2E2E2E2E2E2E2E2E2E2E2E2E2E2E2E2E2E2E2E2E2E2E2E2E2E2E2E2E2E2E2E2E2E2E2E2E2E2E2E2E2E2E2E2E2E2E2E2E2E2E2E2E2E2E2E2E2E2E2E2E2E2E2E2E2E2E2E2E2E2E2E2E2E2E2E2E2E2E2E2E2E2E2E2E2E2E2E2E2E2E2E2E2E2E2E2E2E2E2E2E2E2F5E2E2E2E2E2E2E2E2E2E2E2E2E2E2E2E2E2E2E2E2
310
F5F5E2E2E2E2E2E2E2E2E2E2E2E2E2E2E2E2E2E2E2E2F5E2E2E2E2E2E2E2E2E2E2E2E2E2E2E2E2E2E2E2E2E2E2E2E2E2E2E2E2E2E2E2E2E2E2E2E2E2E2E2E2E2E2E2E2E2E2E2E2E2E2E2E2E2E2E2E2E2E2E2E2E2E2E2E2E2E2E2E2E2E2E2E2E2E2E2E2E2E2E2E2E2E2E2E2E2E2E2E2E2E2E2E2E2E2E2E2E2E2E2E2E2E2E2E2
310
E2E2E2E2E2E2E2E2E2E2E2E2E2E2E2E2E2E2E2E2E2E2E2E2E2E2E2E2E2E2E2E2F5E2E2E2E2E2E2E2E2E2E2E2E2E2E2E2E2E2E2E2E2F5F5E2E2E2E2E2E2E2E2E2E2E2E2E2E2E2E2E2E2E2E2F5E2E2E2E2E2E2E2E2E2E2E2E2E2E2E2E2E2E2E2E2E2E2E2E2E2E2E2E2E2E2E2E2E2E2E2E2E2E2E2E2E2E2E2E2E2E2E2E2E2E2E2
310
E2E2E2E2E2E2E2E2E2E2E2E2E2E2E2E2E2E2E2E2E2E2E2E2E2E2E2E2E2E2E2E2E2E2E2E2E2E2E2E2E2E2E2E2E2E2E2E2E2E2E2E2E2E2E2E2E2E2E2E2E2E2E2E2E2E2E2E2E2E2E2E2E2E2E2E2E2E2E2E2E2E2E2E2E2F5E2E2E2E2E2E2E2E2E2E2E2E2E2E2E2E2E2E2E2E2F5F5E2E2E2E2E2E2E2E2E2E2E2E2E2E2E2E2E2E2E2
310
E2F5E2E2E2E2E2E2E2E2E2E2E2E2E2E2E2E2E2E2E2E2E2E2E2E2E2E2E2E2E2E2E2E2E2E2E2E2E2E2E2E2E2E2E2E2E2E2E2E2E2E2E2E2E2E2E2E2E2E2E2E2E2E2E2E2E2E2E2E2E2E2E2E2E2E2E2E2E2E2E2E2E2E2E2E2E2E2E2E2E2E2E2E2E2E2E2E2E2E2E2E2E2E2E2E2E2E2E2E2E2E2E2E2E2E2E2E2E2E2E2E2E2E2E2E2E2
310
E2E2E2E2E2E2E2E2E2E2E2F5E2E2E2E2E2E2E2E2E2E2E2E2E2E2E2E2E2E2E2E2F5F5E2E2E2E2E2E2E2E2E2E2E2E2E2E2E2E2E2E2E2E2F5E2E2E2E2E2E2E2E2E2E2E2E2E2E2E2E2E2E2E2E2E2E2E2E2E2E2E2E2E2E2E2E2E2E2E2E2E2E2E2E2E2E2E2E2E2E2E2E2E2E2E2E2E2E2E2E2E2E2E2E2E2E2E2E2E2E2E2E2E2E2E2E2
310
E2E2E2E2E2E2E2E2E2E2E2E2E2E2E2E2E2E2E2E2E2E2E2E2E2E2E2E2E2E2E2E2E2E2E2E2E2E2E2E2E2E2E2E2E2E2E2E2E2E2E2E2E2E2E2E2E2E2E2E2E2E2E2E2F5E2E2E2E2E2E2E2E2E2E2E2E2E2E2E2E2E2E2E2E2F5F5E2E2E2F5E2E2E2E2E2E2E2E2E2E2E2E2E2E2E2E2F5E2E2E2E2E2E2E2E2E2E2E2E2E2E2E2E2E2E2E2
310
E2E2E2E2E2E2E2E2E2E2E2E2E2E2E2E2E2E2E2E2E2E2E2E2E2E2E2E2E2E2E2E2E2E2E2E2E2E2E2E2E2E2E2E2E2E2E2E2E2E2E2E2E2E2E2E2E2E2E2E2E2E2E2E2E2E2E2E2E2E2E2E2E2E2E2E2E2E2E2E2E2E2E2E2E2E2E2E2E2E2E2E2E2E2E2E2E2E2E2E2E2E2E2E2E2E2E2E2E2E2E2E2E2E2E2E2E2F5E2E2E2E2E2E2E2E2E2
310
E2E2E2E2E2E2E2F5E2E2E2F5F5E2E2E2F5E2E2E2E2E2E2E2E2E2E2E2E2E2E2E2E2F5E2E2E2E2E2E2E2E2E2E2E2E2E2E2E2E2E2E2E2E2E2E2E2E2E2E2E2E2E2E2E2E2E2E2E2E2E2E2E2E2E2E2E2E2E2E2E2E2E2E2E2E2E2E2E2E2E2E2E2E2E2E2E2E2E2E2E2E2E2E2E2E2E2E2E2E2E2E2E2E2E2E2E2E2E2E2E2E2E2E2E2E2E2
310
E2E2E2E2E2E2E2E2E2E2E2E2E2E2E2E2E2E2E2E2E2E2E2E2E2E2E2E2E2E2E2E2E2E2E2E2E2E2E2E2E2E2E2F5E2E2E2E2E2E2E2E2E2E2E2E2E2E2E2E2F5E2E2E2F5F5E2E2E2F5E2E2E2E2E2E2E2E2E2E2E2E2E2E2E2E2F5E2E2E2E2E2E2E2E2E2E2E2E2E2E2E2E2E2E2E2E2E2E2E2E2E2E2E2E2E2E2E2E2E2E2E2E2E2E2E2E2
310
E2E2E2E2E2E2E2E2E2E2E2E2E2E2E2E2E2E2E2E2E2E2E2E2E2E2E2E2E2E2E2E2E2E2E2E2E2E2E2E2E2E2E2E2E2E2E2E2E2E2E2E2E2E2E2E2E2E2E2E2E2E2E2E2E2E2E2E2E2E2E2E2E2E2E2E2E2E2E2E2E2E2E2E2E2E2E2E2E2E2E2E2E2E2E2E2F5E2E2E2E2E2E2E2E2E2E2E2E2E2E2E2E2F5E2E2E2F5F5E2E2E2F5E2E2E2E2
310
E2E2E2E2E2E2E2E2E2E2E2E2F5E2E2E2E2E2E2E2E2E2E2E2E2E2E2E2E2E2E2E2E2E2E2E2E2E2E2E2E2E2E2E2E2E2E2E2E2E2E2E2E2E2E2E2E2E2E2E2E2E2E2E2E2E2E2E2E2E2E2E2E2E2E2E2E2E2E2E2E2E2E2E2E2E2E2E2E2E2E2E2E2E2E2E2E2E2E2E2E2E2E2E2E2E2E2E2E2E2E2E2E2E2E2E2E2E2E2E2E2E2E2E2E2E2E2
310
E2E2E2E2E2E2E2E2E2E2E2E2E2E2E2E2E2E2E2E2E2E2F5E2E2E2E2E2E2E2E2E2E2E2E2E2E2E2E2F5E2E2E2F5F5E2E2E2F5E2E2E2E2E2E2E2E2E2E2E2E2E2E2E2E2F5E2E2E2E2E2E2E2E2E2E2E2E2E2E2E2E2E2E2E2E2E2E2E2E2E2E2E2E2E2E2E2E2E2E2E2E2E2E2E2E2E2E2E2E2E2E2E2E2E2E2E2E2E2E2E2E2E2E2E2E2E2
310
E2E2E2E2E2E2E2E2E2E2E2E2E2E2E2E2E2E2E2E2E2E2E2E2E2E2E2E2E2E2E2E2E2E2E2E2E2E2E2E2E2E2E2E2E2E2E2E2E2E2E2E2E2E2E2E2E2E2E2E2E2E2E2E2E2E2E2E2E2E2E2E2E2E2E2F5E2E2E2E2E2E2E2E2E2E2E2E2E2E2E2E2F5E2E2E2F5F5E2E2E2F5E2E2E2E2E2E2E2E2E2E2E2E2E2E2E2E2F5E2E2E2E2E2E2E2E2
310
E2E2E2E2E2E2E2E2E2E2E2E2E2E2E2E2E2E2E2E2E2E2E2E2E2E2E2E2E2E2E2E2E2E2E2E2E2E2E2E2E2E2E2E2E2E2E2E2E2E2E2E2E2E2E2E2E2E2E2E2E2E2E2E2E2E2E2E2E2E2E2E2E2E2E2E2E2E2E2E2E2E2E2E2E2E2E2E2E2E2E2E2E2E2E2E2E2E2E2E2E2E2E2E2E2E2E2E2E2E2E2E2E2E2E2E2E2E2E2E2E2E2E2E2E2E2E2
310
E2F5E2E2E2E2E2E2E2E2E2E2E2E2E2E2E2E2F5E2E2E2F5F5E2E2E2F5E2E2E2E2E2E2E2E2E2E2E2E2E2E2E2E2F5E2E2E2E2E2E2E2E2E2E2E2E2E2E2E2E2E2E2E2E2E2E2E2E2E2E2E2E2E2E2E2E2E2E2E2E2E2E2E2E2E2E2E2E2E2E2E2E2E2E2E2E2E2E2E2E2E2E2E2E2E2E2E2E2E2E2E2E2E2E2E2E2E2E2E2E2E2E2E2E2E2E2
310
E2E2E2E2E2E2E2E2E2E2E2E2E2E2E2E2E2E2E2E2E2E2E2E2E2E2E2E2E2E2E2E2E2E2E2E2E2E2E2E2E2E2E2E2E2E2E2E2E2E2E2E2E2E2F5E2E2E2E2E2E2E2E2E2E2E2E2E2E2E2E2F5E2E2E2F5F5E2E2E2F5E2E2E2E2E2E2E2E2E2E2E2E2E2E2E2E2F5E2E2E2E2E2E2E2E2E2E2E2E2E2E2E2E2E2E2E2E2E2E2E2E2E2E2E2E2E2
310
E2E2E2E2E2E2E2E2E2E2E2E2E2E2E2E2E2E2E2E2E2E2E2E2E2E2E2E2E2E2E2E2E2E2E2E2E2E2E2E2E2E2E2E2E2E2E2E2E2E2E2E2E2E2E2E2E2E2E2E2E2E2E2E2E2E2E2E2E2E2E2E2E2E2E2E2E2E2E2E2E2E2E2E2E2E2E2E2E2E2E2E2E2E2E2E2E2E2E2E2E2E2E2E2E2E2E2F5E2E2E2E2E2E2E2E2E2E2E2E2E2E2E2E2F5E2E2
310
E2F5F5E2E2E2F5E2E2E2E2E2E2E2E2E2E2E2E2E2E2E2E2F5E2E2E2E2E2E2E2E2E2E2E2E2E2E2E2E2E2E2E2E2E2E2E2E2E2E2E2E2E2E2E2E2E2E2E2E2E2E2E2E2E2E2E2E2E2E2E2E2E2E2E2E2E2E2E2E2E2E2E2E2E2E2E2E2E2E2E2E2E2E2E2E2E2E2E2E2E2E2E2E2E2E2E2E2E2E2E2E2E2E2E2E2E2E2E2E2E2E2E2E2E2E2E2
310
E2E2E2E2E2E2E2E2E2E2E2E2E2E2E2E2E2E2E2E2E2E2E2E2E2E2E2E2E2E2E2E2E2F5E2E2E2E2E2E2E2E2E2E2E2E2E2E2E2E2F5E2E2E2F5F5E2E2E2F5E2E2E2E2E2E2E2E2E2E2E2E2E2E2E2E2F5E2E2E2E2E2E2E2E2E2E2E2E2E2E2E2E2E2E2E2E2E2E2E2E2E2E2E2E2E2E2E2E2E2E2E2E2E2E2E2E2E2E2E2E2E2E2E2E2E2E2
310
E2E2E2E2E2E2E2E2E2E2E2E2E2E2E2E2E2E2E2E2E2E2E2E2E2E2E2E2E2E2E2E2E2E2E2E2E2E2E2E2E2E2E2E2E2E2E2E2E2E2E2E2E2E2E2E2E2E2E2E2E2E2E2E2E2E2E2E2E2E2E2E2E2E2E2E2E2E2E2E2E2E2E2E2E2E2F5E2E2E2E2E2E2E2E2E2E2E2E2E2E2E2E2F5E2E2E2F5F5E2E2E2F5E2E2E2E2E2E2E2E2E2E2E2E2E2E2
310
E2E2F5E2E2E2E2E2E2E2E2E2E2E2E2E2E2E2E2E2E2E2E2E2E2E2E2E2E2E2E2E2E2E2E2E2E2E2E2E2E2E2E2E2E2E2E2E2E2E2E2E2E2E2E2E2E2E2E2E2E2E2E2E2E2E2E2E2E2E2E2E2E2E2E2E2E2E2E2E2E2E2E2E2E2E2E2E2E2E2E2E2E2E2E2E2E2E2E2E2E2E2E2E2E2E2E2E2E2E2E2E2E2E2E2E2E2E2E2E2E2E2E2E2E2E2E2
310
E2E2E2E2E2E2E2E2E2E2E2E2F5E2E2E2E2E2E2E2E2E2E2E2E2E2E2E2E2F5E2E2E2F5F5E2E2E2F5E2E2E2E2E2E2E2E2E2E2E2E2E2E2E2E2F5E2E2E2E2E2E2E2E2E2E2E2E2E2E2E2E2E2E2E2E2E2E2E2E2E2E2E2E2E2E2E2E2E2E2E2E2E2E2E2E2E2E2E2E2E2E2E2E2E2E2E2E2E2E2E2E2E2E2E2E2E2E2E2E2E2E2E2E2E2E2E2
310
E2E2E2E2E2E2E2E2E2E2E2E2E2E2E2E2E2E2E2E2E2E2E2E2E2E2E2E2E2E2E2E2E2E2E2E2E2E2E2E2E2E2E2E2E2E2E2E2E2E2E2E2E2E2E2E2E2E2E2E2E2E2E2E2E2F5E2E2E2E2E2E2E2E2E2E2E2E2E2E2E2E2F5E2E2E2F5F5E2E2E2F5E2E2E2E2E2E2E2E2E2E2E2E2E2E2E2E2F5E2E2E2E2E2E2E2E2E2E2E2E2E2E2E2E2E2E2
310
E2E2E2E2E2E2E2E2E2E2E2E2E2E2E2E2E2E2E2E2E2E2E2E2E2E2E2E2E2E2E2E2E2E2E2E2E2E2E2E2E2E2E2E2E2E2E2E2E2E2E2E2E2E2E2E2E2E2E2E2E2E2E2E2E2E2E2E2E2E2E2E2E2E2E2E2E2E2E2E2E2E2E2E2E2E2E2E2E2E2E2E2E2E2E2E2E2E2E2E2E2E2E2E2E2E2E2E2E2E2E2E2E2E2E2E2E2E2F5E2E2E2E2E2E2E2E2
310
E2E2E2E2E2E2E2E2F5E2E2E2F5F5E2E2E2F5E2E2E2E2E2E2E2E2E2E2E2E2E2E2E2E2F5E2E2E2E2E2E2E2E2E2E2E2E2E2E2E2E2E2E2E2E2E2E2E2E2E2E2E2E2E2E2E2E2E2E2E2E2E2E2E2E2E2E2E2E2E2E2E2E2E2E2E2E2E2E2E2E2E2E2E2E2E2E2E2E2E2E2E2E2E2E2E2E2E2E2E2E2E2E2E2E2E2E2E2E2E2E2E2E2E2E2E2E2
310
E2E2E2E2E2E2E2E2E2E2E2E2E2E2E2E2E2E2E2E2E2E2E2E2E2E2E2E2E2E2E2E2E2E2E2E2E2E2E2E2E2E2E2E2F5E2E2E2E2E2E2E2E2E2E2E2E2E2E2E2E2F5E2E2E2F5F5E2E2E2F5E2E2E2E2E2E2E2E2E2E2E2E2E2E2E2E2F5E2E2E2E2E2E2E2E2E2E2E2E2E2E2E2E2E2E2E2E2E2E2E2E2E2E2E2E2E2E2E2E2E2E2E2E2E2E2E2
310
E2E2E2E2E2E2E2E2E2E2E2E2E2E2E2E2E2E2E2E2E2E2E2E2E2E2E2E2E2E2E2E2E2E2E2E2E2E2E2E2E2E2E2E2E2E2E2E2E2E2E2E2E2E2E2E2E2E2E2E2E2E2E2E2E2E2E2E2E2E2E2E2E2E2E2E2E2E2E2E2E2E2E2E2E2E2E2E2E2E2E2E2E2E2E2E2E2F5E2E2E2E2E2E2E2E2E2E2E2E2E2E2E2E2F5E2E2E2F5F5E2E2E2F5E2E2E2
310
E2E2E2E2E2E2E2E2E2E2E2E2E2F5E2E2E2E2E2E2E2E2E2E2E2E2E2E2E2E2E2E2E2E2E2E2E2E2E2E2E2E2E2E2E2E2E2E2E2E2E2E2E2E2E2E2E2E2E2E2E2E2E2E2E2E2E2E2E2E2E2E2E2E2E2E2E2E2E2E2E2E2E2E2E2E2E2E2E2E2E2E2E2E2E2E2E2E2E2E2E2E2E2E2E2E2E2E2E2E2E2E2E2E2E2E2E2E2E2E2E2E2E2E2E2E2E2
310
E2E2E2E2E2E2E2E2E2E2E2E2E2E2E2E2E2E2E2E2E2E2E2F5E2E2E2E2E2E2E2E2E2E2E2E2E2E2E2E2F5E2E2E2F5F5E2E2E2E2E2E2E2E2E2E2E2E2E2E2E2E2E2E2E2E2F5E2E2E2E2E2E2E2E2E2E2E2E2E2E2E2E2E2E2E2E2E2E2E2E2E2E2E2E2E2E2E2E2E2E2E2E2E2E2E2E2E2E2E2E2E2E2E2E2E2E2E2E2E2E2E2E2E2E2E2E2
310
E2E2E2E2E2E2E2E2E2E2E2E2E2E2E2E2E2E2E2E2E2E2E2E2E2E2E2E2E2E2E2E2E2E2E2E2E2E2E2E2E2E2E2E2E2E2E2E2E2E2E2E2E2E2E2E2E2E2E2E2E2E2E2E2E2E2E2E2E2E2E2E2E2E2E2E2F5E2E2E2E2E2E2E2E2E2E2E2E2E2E2E2E2E2E2E2E2F5F5E2E2E2E2E2E2E2E2E2E2E2E2E2E2E2E2E2E2E2E2F5E2E2E2E2E2E2E2
310
E2E2E2E2E2E2E2E2E2E2E2E2E2E2E2E2E2E2E2E2E2E2E2E2E2E2E2E2E2E2E2E2E2E2E2E2E2E2E2E2E2E2E2E2E2E2E2E2E2E2E2E2E2E2E2E2E2E2E2E2E2E2E2E2E2E2E2E2E2E2E2E2E2E2E2E2E2E2E2E2E2E2E2E2E2E2E2E2E2E2E2E2E2E2E2E2E2E2E2E2E2E2E2E2E2E2E2E2E2E2E2E2E2E2E2E2E2E2E2E2E2E2E2E2E2E2E2
310
E2E2F5E2E2E2E2E2E2E2E2E2E2E2E2E2E2E2E2E2E2E2E2F5F5E2E2E2E2E2E2E2E2E2E2E2E2E2E2E2E2E2E2E2E2F5E2E2E2E2E2E2E2E2E2E2E2E2E2E2E2E2E2E2E2E2E2E2E2E2E2E2E2E2E2E2E2E2E2E2E2E2E2E2E2E2E2E2E2E2E2E2E2E2E2E2E2E2E2E2E2E2E2E2E2E2E2E2E2E2E2E2E2E2E2E2E2E2E2E2E2E2E2E2E2E2E2
310
E2E2E2E2E2E2E2E2E2E2E2E2E2E2E2E2E2E2E2E2E2E2E2E2E2E2E2E2E2E2E2E2E2E2E2E2E2E2E2E2E2E2E2E2E2E2E2E2E2E2E2E2E2E2E2F5E2E2E2E2E2E2E2E2E2E2E2E2E2E2E2E2E2E2E2E2F5F5E2E2E2E2E2E2E2E2E2E2E2E2E2E2E2E2E2E2E2E2F5E2E2E2E2E2E2E2E2E2E2E2E2E2E2E2E2E2E2E2E2E2E2E2E2E2E2E2E2
310
E2E2E2E2E2E2E2E2E2E2E2E2E2E2E2E2E2E2E2E2E2E2E2E2E2E2E2E2E2E2E2E2E2E2E2E2E2E2E2E2E2E2E2E2E2E2E2E2E2E2E2E2E2E2E2E2E2E2E2E2E2E2E2E2E2E2E2E2E2E2E2E2E2E2E2E2E2E2E2E2E2E2E2E2E2E2E2E2E2E2E2E2E2E2E2E2E2E2E2E2E2E2E2E2E2E2E2E2F5E2E2E2E2E2E2E2E2E2E2E2E2E2E2E2E2E2E2
310
E2E2F5F5E2E2E2E2E2E2E2E2E2E2E2E2E2E2E2E2E2E2E2E2F5E2E2E2E2E2E2E2E2E2E2E2E2E2E2E2E2E2E2E2E2E2E2E2E2E2E2E2E2E2E2E2E2E2E2E2E2E2E2E2E2E2E2E2E2E2E2E2E2E2E2E2E2E2E2E2E2E2E2E2E2E2E2E2E2E2E2E2E2E2E2E2E2E2E2E2E2E2E2E2E2E2E2E2E2E2E2E2E2E2E2E2E2E2E2E2E2E2E2E2E2E2E2
310
E2E2E2E2E2E2E2E2E2E2E2E2E2E2E2E2E2E2E2E2E2E2E2E2E2E2E2E2E2E2E2E2E2E2F5E2E2E2E2E2E2E2E2E2E2E2E2E2E2E2E2E2E2E2E2F5F5E2E2E2E2E2E2E2E2E2E2E2E2E2E2E2E2E2E2E2E2F5E2E2E2E2E2E2E2E2E2E2E2E2E2E2E2E2E2E2E2E2E2E2E2E2E2E2E2E2E2E2E2E2E2E2E2E2E2E2E2E2E2E2E2E2E2E2E2E2E2
310
E2E2E2E2E2E2E2E2E2E2E2E2E2E2E2E2E2E2E2E2E2E2E2E2E2E2E2E2E2E2E2E2E2E2E2E2E2E2E2E2E2E2E2E2E2E2E2E2E2E2E2E2E2E2E2E2E2E2E2E2E2E2E2E2E2E2E2E2E2E2E2E2E2E2E2E2E2E2E2E2E2E2E2E2E2E2E2F5E2E2E2E2E2E2E2E2E2E2E2E2E2E2E2E2E2E2E2E2F5F5E2E2E2E2E2E2E2E2E2E2E2E2E2E2E2E2E2
310
E2E2E2F5E2E2E2E2E2E2E2E2E2E2E2E2E2E2E2E2E2E2E2E2E2E2E2E2E2E2E2E2E2E2E2E2E2E2E2E2E2E2E2E2E2E2E2E2E2E2E2E2E2E2E2E2E2E2E2E2E2E2E2E2E2E2E2E2E2E2E2E2E2E2E2E2E2E2E2E2E2E2E2E2E2E2E2E2E2E2E2E2E2E2E2E2E2E2E2E2E2E2E2E2E2E2E2E2E2E2E2E2E2E2E2E2E2E2E2E2E2E2E2E2E2E2E2
310
E2E2E2E2E2E2E2E2E2E2E2E2E2F5E2E2E2E2E2E2E2E2E2E2E2E2E2E2E2E2E2E2E2E2F5F5E2E2E2E2E2E2E2E2E2E2E2E2E2E2E2E2E2E2E2E2F5E2E2E2E2E2E2E2E2E2E2E2E2E2E2E2E2E2E2E2E2E2E2E2E2E2E2E2E2E2E2E2E2E2E2E2E2E2E2E2E2E2E2E2E2E2E2E2E2E2E2E2E2E2E2E2E2E2E2E2E2E2E2E2E2E2E2E2E2E2E2
310
E2E2E2E2E2E2E2E2E2E2E2E2E2E2E2E2E2E2E2E2E2E2E2E2E2E2E2E2E2E2E2E2E2E2E2E2E2E2E2E2E2E2E2E2E2E2E2E2E2E2E2E2E2E2E2E2E2E2E2E2E2E2E2E2E2E2F5E2E2E2E2E2E2E2E2E2E2E2E2E2E2E2E2E2E2E2E2F5F5E2E2E2E2E2E2E2E2E2E2E2E2E2E2E2E2E2E2E2E2F5E2E2E2E2E2E2E2E2E2E2E2E2E2E2E2E2E2
310
E2E2E2E2E2E2E2E2E2E2E2E2E2E2E2E2E2E2E2E2E2E2E2E2E2E2E2E2E2E2E2E2E2E2E2E2E2E2E2E2E2E2E2E2E2E2E2E2E2E2E2E2E2E2E2E2E2E2E2E2E2E2E2E2E2E2E2E2E2E2E2E2E2E2E2E2E2E2E2E2E2E2E2E2E2E2E2E2E2E2E2E2E2E2E2E2E2E2E2E2E2E2E2E2E2E2E2E2E2E2E2E2E2E2E2E2E2E2E2F5E2E2E2E2E2E2E2
310
E2E2E2E2E2E2E2E2E2E2E2E2E2F5F5E2E2E2F5E2E2E2E2E2E2E2E2E2E2E2E2E2E2E2E2F5E2E2E2E2E2E2E2E2E2E2E2E2E2E2E2E2E2E2E2E2E2E2E2E2E2E2E2E2E2E2E2E2E2E2E2E2E2E2E2E2E2E2E2E2E2E2E2E2E2E2E2E2E2E2E2E2E2E2E2E2E2E2E2E2E2E2E2E2E2E2E2E2E2E2E2E2E2E2E2E2E2E2E2E2E2E2E2E2E2E2E2
310
E2E2E2E2E2E2E2E2E2E2E2E2E2E2E2E2E2E2E2E2E2E2E2E2E2E2E2E2E2E2E2E2E2E2E2E2E2E2E2E2E2E2E2E2E2F5E2E2E2E2E2E2E2E2E2E2E2E2E2E2E2E2F5E2E2E2F5F5E2E2E2F5E2E2E2E2E2E2E2E2E2E2E2E2E2E2E2E2F5E2E2E2E2E2E2E2E2E2E2E2E2E2E2E2E2E2E2E2E2E2E2E2E2E2E2E2E2E2E2E2E2E2E2E2E2E2E2
310
E2E2E2E2E2E2E2E2E2E2E2E2E2E2E2E2E2E2E2E2E2E2E2E2E2E2E2E2E2E2E2E2E2E2E2E2E2E2E2E2E2E2E2E2E2E2E2E2E2E2E2E2E2E2E2E2E2E2E2E2E2E2E2E2E2E2E2E2E2E2E2E2E2E2E2E2E2E2E2E2E2E2E2E2E2E2E2E2E2E2E2E2E2E2E2E2E2E2F5E2E2E2E2E2E2E2E2E2E2E2E2E2E2E2E2F5E2E2E2F5F5E2E2E2F5E2E2
310
E2E2E2E2E2E2E2E2E2E2E2E2E2E2F5E2E2E2E2E2E2E2E2E2E2E2E2E2E2E2E2E2E2E2E2E2E2E2E2E2E2E2E2E2E2E2E2E2E2E2E2E2E2E2E2E2E2E2E2E2E2E2E2E2E2E2E2E2E2E2E2E2E2E2E2E2E2E2E2E2E2E2E2E2E2E2E2E2E2E2E2E2E2E2E2E2E2E2E2E2E2E2E2E2E2E2E2E2E2E2E2E2E2E2E2E2E2E2E2E2E2E2E2E2E2E2E2
310
E2E2E2E2E2E2E2E2E2E2E2E2E2E2E2E2E2E2E2E2E2E2E2E2F5E2E2E2E2E2E2E2E2E2E2E2E2E2E2E2E2F5E2E2E2F5F5E2E2E2F5E2E2E2E2E2E2E2E2E2E2E2E2E2E2E2E2F5E2E2E2E2E2E2E2E2E2E2E2E2E2E2E2E2E2E2E2E2E2E2E2E2E2E2E2E2E2E2E2E2E2E2E2E2E2E2E2E2E2E2E2E2E2E2E2E2E2E2E2E2E2E2E2E2E2E2E2
310
E2E2E2E2E2E2E2E2E2E2E2E2E2E2E2E2E2E2E2E2E2E2E2E2E2E2E2E2E2E2E2E2E2E2E2E2E2E2E2E2E2E2E2E2E2E2E2E2E2E2E2E2E2E2E2E2E2E2E2E2E2E2E2E2E2E2E2E2E2E2E2E2E2E2E2E2E2F5E2E2E2E2E2E2E2E2E2E2E2E2E2E2E2E2F5E2E2E2F5F5E2E2E2F5E2E2E2E2E2E2E2E2E2E2E2E2E2E2E2E2F5E2E2E2E2E2E2
310
E2E2E2E2E2E2E2E2E2E2E2E2E2E2E2E2E2E2E2E2E2E2E2E2E2E2E2E2E2E2E2E2E2E2E2E2E2E2E2E2E2E2E2E2E2E2E2E2E2E2E2E2E2E2E2E2E2E2E2E2E2E2E2E2E2E2E2E2E2E2E2E2E2E2E2E2E2E2E2E2E2E2E2E2E2E2E2E2E2E2E2E2E2E2E2E2E2E2E2E2E2E2E2E2E2E2E2E2E2E2E2E2E2E2E2E2E2E2E2E2E2E2E2E2E2E2E2
310
E2E2E2F5E2E2E2E2E2E2E2E2E2E2E2E2E2E2E2E2F5E2E2E2F5F5E2E2E2F5E2E2E2E2E2E2E2E2E2E2E2E2E2E2E2E2F5E2E2E2E2E2E2E2E2E2E2E2E2E2E2E2E2E2E2E2E2E2E2E2E2E2E2E2E2E2E2E2E2E2E2E2E2E2E2E2E2E2E2E2E2E2E2E2E2E2E2E2E2E2E2E2E2E2E2E2E2E2E2E2E2E2E2E2E2E2E2E2E2E2E2E2E2E2E2E2E2
310
E2E2E2E2E2E2E2E2E2E2E2E2E2E2E2E2E2E2E2E2E2E2E2E2E2E2E2E2E2E2E2E2E2E2E2E2E2E2E2E2E2E2E2E2E2E2E2E2E2E2E2E2E2E2E2E2F5E2E2E2E2E2E2E2E2E2E2E2E2E2E2E2E2F5E2E2E2F5F5E2E2E2F5E2E2E2E2E2E2E2E2E2E2E2E2E2E2E2E2F5E2E2E2E2E2E2E2E2E2E2E2E2E2E2E2E2E2E2E2E2E2E2E2E2E2E2E2
310
E2E2E2E2E2E2E2E2E2E2E2E2E2E2E2E2E2E2E2E2E2E2E2E2E2E2E2E2E2E2E2E2E2E2E2E2E2E2E2E2E2E2E2E2E2E2E2E2E2E2E2E2E2E2E2E2E2E2E2E2E2E2E2E2E2E2E2E2E2E2E2E2E2E2E2E2E2E2E2E2E2E2E2E2E2E2E2E2E2E2E2E2E2E2E2E2E2E2E2E2E2E2E2E2E2E2E2E2E2F5E2E2E2E2E2E2E2E2E2E2E2E2E2E2E2E2F5
310
E2E2E2F5F5E2E2E2F5E2E2E2E2E2E2E2E2E2E2E2E2E2E2E2E2F5E2E2E2E2E2E2E2E2E2E2E2E2E2E2E2E2E2E2E2E2E2E2E2E2E2E2E2E2E2E2E2E2E2E2E2E2E2E2E2E2E2E2E2E2E2E2E2E2E2E2E2E2E2E2E2E2E2E2E2E2E2E2E2E2E2E2E2E2E2E2E2E2E2E2E2E2E2E2E2E2E2E2E2E2E2E2E2E2E2E2E2E2E2E2E2E2E2E2E2E2E2
310
E2E2E2E2E2E2E2E2E2E2E2E2E2E2E2E2E2E2E2E2E2E2E2E2E2E2E2E2E2E2E2E2E2E2E2F5E2E2E2E2E2E2E2E2E2E2E2E2E2E2E2E2F5E2E2E2F5F5E2E2E2F5E2E2E2E2E2E2E2E2E2E2E2E2E2E2E2E2F5E2E2E2E2E2E2E2E2E2E2E2E2E2E2E2E2E2E2E2E2E2E2E2E2E2E2E2E2E2E2E2E2E2E2E2E2E2E2E2E2E2E2E2E2E2E2E2E2
310
E2E2E2E2E2E2E2E2E2E2E2E2E2E2E2E2E2E2E2E2E2E2E2E2E2E2E2E2E2E2E2E2E2E2E2E2E2E2E2E2E2E2E2E2E2E2E2E2E2E2E2E2E2E2E2E2E2E2E2E2E2E2E2E2E2E2E2E2E2E2E2E2E2E2E2E2E2E2E2E2E2E2E2E2E2E2E2E2F5E2E2E2E2E2E2E2E2E2E2E2E2E2E2E2E2F5E2E2E2F5F5E2E2E2F5E2E2E2E2E2E2E2E2E2E2E2E2
310
E2E2E2E2F5E2E2E2E2E2E2E2E2E2E2E2E2E2E2E2E2E2E2E2E2E2E2E2E2E2E2E2E2E2E2E2E2E2E2E2E2E2E2E2E2E2E2E2E2E2E2E2E2E2E2E2E2E2E2E2E2E2E2E2E2E2E2E2E2E2E2E2E2E2E2E2E2E2E2E2E2E2E2E2E2E2E2E2E2E2E2E2E2E2E2E2E2E2E2E2E2E2E2E2E2E2E2E2E2E2E2E2E2E2E2E2E2E2E2E2E2E2E2E2E2E2E2
310
E2E2E2E2E2E2E2E2E2E2E2E2E2E2F5E2E2E2E2E2E2E2E2E2E2E2E2E2E2E2E2F5E2E2E2F5F5E2E2E2F5E2E2E2E2E2E2E2E2E2E2E2E2E2E2E2E2F5E2E2E2E2E2E2E2E2E2E2E2E2E2E2E2E2E2E2E2E2E2E2E2E2E2E2E2E2E2E2E2E2E2E2E2E2E2E2E2E2E2E2E2E2E2E2E2E2E2E2E2E2E2E2E2E2E2E2E2E2E2E2E2E2E2E2E2E2E2
310
E2E2E2E2E2E2E2E2E2E2E2E2E2E2E2E2E2E2E2E2E2E2E2E2E2E2E2E2E2E2E2E2E2E2E2E2E2E2E2E2E2E2E2E2E2E2E2E2E2E2E2E2E2E2E2E2E2E2E2E2E2E2E2E2E2E2E2F5E2E2E2E2E2E2E2E2E2E2E2E2E2E2E2E2F5E2E2E2F5F5E2E2E2F5E2E2E2E2E2E2E2E2E2E2E2E2E2E2E2E2F5E2E2E2E2E2E2E2E2E2E2E2E2E2E2E2E2
310
E2E2E2E2E2E2E2E2E2E2E2E2E2E2E2E2E2E2E2E2E2E2E2E2E2E2E2E2E2E2E2E2E2E2E2E2E2E2E2E2E2E2E2E2E2E2E2E2E2E2E2E2E2E2E2E2E2E2E2E2E2E2E2E2E2E2E2E2E2E2E2E2E2E2E2E2E2E2E2E2E2E2E2E2E2E2E2E2E2E2E2E2E2E2E2E2E2E2E2E2E2E2E2E2E2E2E2E2E2E2E2E2E2E2E2E2E2E2E2E2F5E2E2E2E2E2E2
310
E2E2E2E2E2E2E2E2E2E2F5E2E2E2F5F5E2E2E2F5E2E2E2E2E2E2E2E2E2E2E2E2E2E2E2E2F5E2E2E2E2E2E2E2E2E2E2E2E2E2E2E2E2E2E2E2E2E2E2E2E2E2E2E2E2E2E2E2E2E2E2E2E2E2E2E2E2E2E2E2E2E2E2E2E2E2E2E2E2E2E2E2E2E2E2E2E2E2E2E2E2E2E2E2E2E2E2E2E2E2E2E2E2E2E2E2E2E2E2E2E2E2E2E2E2E2E2
310
E2E2E2E2E2E2E2E2E2E2E2E2E2E2E2E2E2E2E2E2E2E2E2E2E2E2E2E2E2E2E2E2E2E2E2E2E2E2E2E2E2E2E2E2E2E2F5E2E2E2E2E2E2E2E2E2E2E2E2E2E2E2E2F5E2E2E2F5F5E2E2E2F5E2E2E2E2E2E2E2E2E2E2E2E2E2E2E2E2F5E2E2E2E2E2E2E2E2E2E2E2E2E2E2E2E2E2E2E2E2E2E2E2E2E2E2E2E2E2E2E2E2E2E2E2E2E2
310
E2E2E2E2E2E2E2E2E2E2E2E2E2E2E2E2E2E2E2E2E2E2E2E2E2E2E2E2E2E2E2E2E2E2E2E2E2E2E2E2E2E2E2E2E2E2E2E2E2E2E2E2E2E2E2E2E2E2E2E2E2E2E2E2E2E2E2E2E2E2E2E2E2E2E2E2E2E2E2E2E2E2E2E2E2E2E2E2E2E2E2E2E2E2E2E2E2E2E2F5E2E2E2E2E2E2E2E2E2E2E2E2E2E2E2E2F5E2E2E2F5F5E2E2E2F5E2
310
E2E2E2E2E2E2E2E2E2E2E2E2E2E2E2F5E2E2E2E2E2E2E2E2E2E2E2E2E2E2E2E2E2E2E2E2E2E2E2E2E2E2E2E2E2E2E2E2E2E2E2E2E2E2E2E2E2E2E2E2E2E2E2E2E2E2E2E2E2E2E2E2E2E2E2E2E2E2E2E2E2E2E2E2E2E2E2E2E2E2E2E2E2E2E2E2E2E2E2E2E2E2E2E2E2E2E2E2E2E2E2E2E2E2E2E2E2E2E2E2E2E2E2E2E2E2E2
310
E2E2E2E2E2E2E2E2E2E2E2E2E2E2E2E2E2E2E2E2E2E2E2E2E2F5E2E2E2E2E2E2E2E2E2E2E2E2E2E2E2E2F5E2E2E2F5F5E2E2E2F5E2E2E2E2E2E2E2E2E2E2E2E2E2E2E2E2F5E2E2E2E2E2E2E2E2E2E2E2E2E2E2E2E2E2E2E2E2E2E2E2E2E2E2E2E2E2E2E2E2E2E2E2E2E2E2E2E2E2E2E2E2E2E2E2E2E2E2E2E2E2E2E2E2E2E2
310
E2E2E2E2E2E2E2E2E2E2E2E2E2E2E2E2E2E2E2E2E2E2E2E2E2E2E2E2E2E2E2E2E2E2E2E2E2E2E2E2E2E2E2E2E2E2E2E2E2E2E2E2E2E2E2E2E2E2E2E2E2E2E2E2E2E2E2E2E2E2E2E2E2E2E2E2E2E2F5E2E2E2E2E2E2E2E2E2E2E2E2E2E2E2E2F5E2E2E2F5F5E2E2E2F5E2E2E2E2E2E2E2E2E2E2E2E2E2E2E2E2F5E2E2E2E2E2
310
E2E2E2E2E2E2E2E2E2E2E2E2E2E2E2E2E2E2E2E2E2E2E2E2E2E2E2E2E2E2E2E2E2E2E2E2E2E2E2E2E2E2E2E2E2E2E2E2E2E2E2E2E2E2E2E2E2E2E2E2E2E2E2E2E2E2E2E2E2E2E2E2E2E2E2E2E2E2E2E2E2E2E2E2E2E2E2E2E2E2E2E2E2E2E2E2E2E2E2E2E2E2E2E2E2E2E2E2E2E2E2E2E2E2E2E2E2E2E2E2E2E2E2E2E2E2E2
310
E2E2E2E2F5E2E2E2E2E2E2E2E2E2E2E2E2E2E2E2E2F5E2E2E2F5F5E2E2E2E2E2E2E2E2E2E2E2E2E2E2E2E2E2E2E2E2F5E2E2E2E2E2E2E2E2E2E2E2E2E2E2E2E2E2E2E2E2E2E2E2E2E2E2E2E2E2E2E2E2E2E2E2E2E2E2E2E2E2E2E2E2E2E2E2E2E2E2E2E2E2E2E2E2E2E2E2E2E2E2E2E2E2E2E2E2E2E2E2E2E2E2E2E2E2E2E2
310
E2E2E2E2E2E2E2E2E2E2E2E2E2E2E2E2E2E2E2E2E2E2E2E2E2E2E2E2E2E2E2E2E2E2E2E2E2E2E2E2E2E2E2E2E2E2E2E2E2E2E2E2E2E2E2E2E2F5E2E2E2E2E2E2E2E2E2E2E2E2E2E2E2E2E2E2E2E2F5F5E2E2E2E2E2E2E2E2E2E2E2E2E2E2E2E2E2E2E2E2F5E2E2E2E2E2E2E2E2E2E2E2E2E2E2E2E2E2E2E2E2E2E2E2E2E2E2
310
E2E2E2E2E2E2E2E2E2E2E2E2E2E2E2E2E2E2E2E2E2E2E2E2E2E2E2E2E2E2E2E2E2E2E2E2E2E2E2E2E2E2E2E2E2E2E2E2E2E2E2E2E2E2E2E2E2E2E2E2E2E2E2E2E2E2E2E2E2E2E2E2E2E2E2E2E2E2E2E2E2E2E2E2E2E2E2E2E2E2E2E2E2E2E2E2E2E2E2E2E2E2E2E2E2E2E2E2E2E2F5E2E2E2E2E2E2E2E2E2E2E2E2E2E2E2E2
310
E2E2E2E2F5F5E2E2E2E2E2E2E2E2E2E2E2E2E2E2E2E2E2E2E2E2F5E2E2E2E2E2E2E2E2E2E2E2E2E2E2E2E2E2E2E2E2E2E2E2E2E2E2E2E2E2E2E2E2E2E2E2E2E2E2E2E2E2E2E2E2E2E2E2E2E2E2E2E2E2E2E2E2E2E2E2E2E2E2E2E2E2E2E2E2E2E2E2E2E2E2E2E2E2E2E2E2E2E2E2E2E2E2E2E2E2E2E2E2E2E2E2E2E2E2E2E2
310
E2E2E2E2E2E2E2E2E2E2E2E2E2E2E2E2E2E2E2E2E2E2E2E2E2E2E2E2E2E2E2E2E2E2E2E2F5E2E2E2E2E2E2E2E2E2E2E2E2E2E2E2E2E2E2E2E2F5F5E2E2E2E2E2E2E2E2E2E2E2E2E2E2E2E2E2E2E2E2F5E2E2E2E2E2E2E2E2E2E2E2E2E2E2E2E2E2E2E2E2E2E2E2E2E2E2E2E2E2E2E2E2E2E2E2E2E2E2E2E2E2E2E2E2E2E2E2
310
E2E2E2E2E2E2E2E2E2E2E2E2E2E2E2E2E2E2E2E2E2E2E2E2E2E2E2E2E2E2E2E2E2E2E2E2E2E2E2E2E2E2E2E2E2E2E2E2E2E2E2E2E2E2E2E2E2E2E2E2E2E2E2E2E2E2E2E2E2E2E2E2E2E2E2E2E2E2E2E2E2E2E2E2E2E2E2E2E2F5E2E2E2E2E2E2E2E2E2E2E2E2E2E2E2E2E2E2E2E2F5F5E2E2E2E2E2E2E2E2E2E2E2E2E2E2E2
310
E2E2E2E2E2F5F5F5F5F5F5F5F5F5F5F5F5F5F5F5F5F5F5F5F5F5F5F5F5F5F5F5F5F5F5F5F5F5F5F5F5F5F5F5F5F5F5F5F5F5F5F5F5F5F5F5F5F5F5F5F5F5F5F5F5F5F5F5F5F5F5F5F5F5F5F5F5F5F5F5F5F5F5F5F5F5F5F5F5F5F5F5F5F5F5F5F5F5F5F5F5F5F5F5F5F5F5F5F5F5F5F5F5F5F5F5F5F5F5F5F5F5F5F5F5F5F5
310
F5F5F5F5F5F5F5F5F5F5F5F5F5F5F5F5E2E2E2E2E2E2E2E2E2E2E2E2E2E2E2E2E2E2E2E2F5F5E2E2E2E2E2E2E2E2E2E2E2E2E2E2E2E2E2E2E2E2E2E2E2E2E2E2E2E2E2E2E2E2E2E2E2E2E2E2E2E2E2E2E2E2E2E2E2E2E2E2E2E2E2E2E2E2E2E2E2E2E2E2E2E2E2E2E2E2E2E2E2E2E2E2E2E2E2E2E2E2E2E2E2E2E2E2E2E2E2
310
E2E2E2E2E2E2E2E2E2E2E2E2E2E2E2E2E2E2E2E2E2E2E2E2E2E2E2E2E2E2E2E2E2E2E2E2E2E2E2E2E2E2E2E2E2E2E2E2E2E2E2E2E2E2E2E2E2E2E2E2E2E2E2E2E2E2E2E2E2E2E2E2E2E2E2E2E2E2E2E2E2E2E2E2E2E2E2E2E2F5F5E2E2E2E2E2E2E2E2E2E2E2E2E2E2E2E2E2E2E2E2E2E2E2E2E2E2E2E2E2E2E2E2E2E2E2E2
310
E2E2E2E2E2E2E2E2E2E2E2E2E2E2E2E2E2E2E2E2E2E2E2E2E2E2E2E2E2E2E2E2E2E2E2E2E2E2E2E2E2E2E2E2E2E2E2E2E2E2E2E2E2E2E2E2E2E2E2E2E2E2E2E2E2E2E2E2E2E2E2E2E2E2E2E2E2E2E2E2E2E2E2E2E2E2E2E2E2E2E2E2E2E2E2E2E2E2E2E2E2E2E2E2E2E2E2E2E2E2E2E2E2E2E2E2E2E2E2E2E2E2E2E2E2E2E2
310
E2E2E2E2E2E2E2E2E2E2E2E2E2E2E2F5F5E2E2E2E2E2E2E2E2E2E2E2E2E2E2E2E2E2E2E2E2E2E2E2E2E2E2E2E2E2E2E2E2E2E2E2E2E2E2E2E2E2E2E2E2E2E2E2E2E2E2E2E2E2E2E2E2E2E2E2E2E2E2E2E2E2E2E2E2E2E2E2E2E2E2E2E2E2E2E2E2E2E2E2E2E2E2E2E2E2E2E2E2E2E2E2E2E2E2E2E2E2E2E2E2E2E2E2E2E2E2
310
E2E2E2E2E2E2E2E2E2E2E2E2E2E2E2E2E2E2E2E2E2E2E2E2E2E2E2E2E2E2E2E2E2E2E2E2E2E2E2E2E2E2E2E2E2E2E2E2E2E2E2E2E2E2E2E2E2E2E2E2E2E2E2E2E2E2E2E2F5F5E2E2E2E2E2E2E2E2E2E2E2E2E2E2E2E2E2E2E2E2E2E2E2E2E2E2E2E2E2E2E2E2E2E2E2E2E2E2E2E2E2E2E2E2E2E2E2E2E2E2E2E2E2E2E2E2E2
310
E2E2E2E2E2E2E2E2E2E2E2E2E2E2E2E2E2E2E2E2E2E2E2E2E2E2E2E2E2E2E2E2E2E2E2E2E2E2E2E2E2E2E2E2E2E2E2E2E2E2E2E2E2E2E2E2E2E2E2E2E2E2E2E2E2E2E2E2E2E2E2E2E2E2E2E2E2E2E2E2E2E2E2E2E2E2E2E2E2E2E2E2E2E2E2E2E2E2E2E2E2E2E2E2E2E2E2E2E2E2E2E2E2E2E2E2E2E2E2E2E2F5F5E2E2E2F5
310
E2E2E2E2E2E2E2E2E2E2E2E2E2E2E2E2E2E2E2E2E2E2E2E2E2E2E2E2E2E2E2E2E2E2E2E2E2E2E2E2E2E2E2E2E2E2E2E2E2E2E2E2E2E2E2E2E2E2E2E2E2E2E2E2E2E2E2E2E2E2E2E2E2E2E2E2E2E2E2E2E2E2E2E2E2E2E2E2E2E2E2E2E2E2E2E2E2E2E2E2E2E2E2E2E2E2E2E2E2E2E2E2E2E2E2E2E2E2E2E2E2E2E2E2E2E2E2
310
E2E2E2E2E2E2E2E2E2E2E2E2E2E2E2E2E2E2E2E2E2E2E2E2E2E2E2E2E2E2E2E2E2E2E2E2E2E2E2E2E2E2E2F5E2E2E2F5F5E2E2E2F5E2E2E2E2E2E2E2E2E2E2E2E2E2E2E2E2E2E2E2E2E2E2E2E2E2E2E2E2E2E2E2E2E2E2E2E2E2E2E2E2E2E2E2E2E2E2E2E2E2E2E2E2E2E2E2E2E2E2E2E2E2E2E2E2E2E2E2E2E2E2E2E2E2E2
310
E2E2E2E2E2E2E2E2E2E2E2E2E2E2E2E2E2E2E2E2E2E2E2E2E2E2E2E2E2E2E2E2E2E2E2E2E2E2E2E2E2E2E2E2E2E2E2E2E2E2E2E2E2E2E2E2E2E2E2E2E2E2E2E2E2E2E2E2E2E2E2E2E2E2E2E2E2E2E2E2E2E2E2E2E2E2E2E2E2E2E2E2E2E2E2E2F5E2E2E2F5F5E2E2E2F5E2E2E2E2E2E2E2E2E2E2E2E2E2E2E2E2E2E2E2E2E2
310
E2E2E2E2E2E2E2E2E2E2E2E2E2E2E2E2E2E2E2E2E2E2E2E2E2E2E2E2E2E2E2E2E2E2E2E2E2E2E2E2E2E2E2E2E2E2E2E2E2E2E2E2E2E2E2E2E2E2E2E2E2E2E2E2E2E2E2E2E2E2E2E2E2E2E2E2E2E2E2E2E2E2E2E2E2E2E2E2E2E2E2E2E2E2E2E2E2E2E2E2E2E2E2E2E2E2E2E2E2E2E2E2E2E2E2E2E2E2E2E2E2E2E2E2E2E2E2
310
E2E2E2E2E2E2E2E2E2E2E2E2E2E2E2E2E2E2E2E2E2E2F5E2E2E2F5F5E2E2E2F5E2E2E2E2E2E2E2E2E2E2E2E2E2E2E2E2E2E2E2E2E2E2E2E2E2E2E2E2E2E2E2E2E2E2E2E2E2E2E2E2E2E2E2E2E2E2E2E2E2E2E2E2E2E2E2E2E2E2E2E2E2E2E2E2E2E2E2E2E2E2E2E2E2E2E2E2E2E2E2E2E2E2E2E2E2E2E2E2E2E2E2E2E2E2E2
310
E2E2E2E2E2E2E2E2E2E2E2E2E2E2E2E2E2E2E2E2E2E2E2E2E2E2E2E2E2E2E2E2E2E2E2E2E2E2E2E2E2E2E2E2E2E2E2E2E2E2E2E2E2E2E2E2E2E2E2E2E2E2E2E2E2E2E2E2E2E2E2E2E2E2E2F5E2E2E2F5F5E2E2E2F5E2E2E2E2E2E2E2E2E2E2E2E2E2E2E2E2E2E2E2E2E2E2E2E2E2E2E2E2E2E2E2E2E2E2E2E2E2E2E2E2E2E2
310
E2E2E2E2E2E2E2E2E2E2E2E2E2E2E2E2E2E2E2E2E2E2E2E2E2E2E2E2E2E2E2E2E2E2E2E2E2E2E2E2E2E2E2E2E2E2E2E2E2E2E2E2E2E2E2E2E2E2E2E2E2E2E2E2E2E2E2E2E2E2E2E2E2E2E2E2E2E2E2E2E2E2E2E2E2E2E2E2E2E2E2E2E2E2E2E2E2E2E2E2E2E2E2E2E2E2E2E2E2E2E2E2E2E2E2E2E2E2E2E2E2E2E2E2E2E2E2
310
E2F5E2E2E2F5F5E2E2E2F5E2E2E2E2E2E2E2E2E2E2E2E2E2E2E2E2E2E2E2E2E2E2E2E2E2E2E2E2E2E2E2E2E2E2E2E2E2E2E2E2E2E2E2E2E2E2E2E2E2E2E2E2E2E2E2E2E2E2E2E2E2E2E2E2E2E2E2E2E2E2E2E2E2E2E2E2E2E2E2E2E2E2E2E2E2E2E2E2E2E2E2E2E2E2E2E2E2E2E2E2E2E2E2E2E2E2E2E2E2E2E2E2E2E2E2E2
310
E2E2E2E2E2E2E2E2E2E2E2E2E2E2E2E2E2E2E2E2E2E2E2E2E2E2E2E2E2E2E2E2E2E2E2E2E2E2E2E2E2E2E2E2E2E2E2E2E2E2E2E2E2E2F5E2E2E2F5F5E2E2E2F5E2E2E2E2E2E2E2E2E2E2E2E2E2E2E2E2E2E2E2E2E2E2E2E2E2E2E2E2E2E2E2E2E2E2E2E2E2E2E2E2E2E2E2E2E2E2E2E2E2E2E2E2E2E2E2E2E2E2E2E2E2E2E2
310
E2E2E2E2E2E2E2E2E2E2E2E2E2E2E2E2E2E2E2E2E2E2E2E2E2E2E2E2E2E2E2E2E2E2E2E2E2E2E2E2E2E2E2E2E2E2E2E2E2E2E2E2E2E2E2E2E2E2E2E2E2E2E2E2E2E2E2E2E2E2E2E2E2E2E2E2E2E2E2E2E2E2E2E2E2E2E2E2E2E2E2E2E2E2E2E2E2E2E2E2E2E2E2E2E2E2E2F5E2E2E2F5F5E2E2E2F5E2E2E2E2E2E2E2E2E2E2
310
E2E2E2E2E2E2E2E2E2E2E2E2E2E2E2E2E2E2E2E2E2E2E2E2E2E2E2E2E2E2E2E2E2E2E2E2E2E2E2E2E2E2E2E2E2E2E2E2E2E2E2E2E2E2E2E2E2E2E2E2E2E2E2E2E2E2E2E2E2E2E2E2E2E2E2E2E2E2E2E2E2E2E2E2E2E2E2E2E2E2E2E2E2E2E2E2E2E2E2E2E2E2E2E2E2E2E2E2E2E2E2E2E2E2E2E2E2E2E2E2E2E2E2E2E2E2E2
310
E2E2E2E2E2E2E2E2E2E2E2E2E2E2E2E2E2E2E2E2E2E2E2E2E2E2E2E2E2E2E2E2E2F5E2E2E2F5F5E2E2E2F5F5F5F5F5F5F5F5E2E2E2E2E2E2E2E2E2F5F5F5F5F5F5F5F5F5F5F5F5F5F5F5F5E2E2E2E2E2E2E2E2E2F5F5F5F5F5F5F5F5F5F5F5F5F5F5F5E2E2E2E2E2E2E2E2E2F5F5F5F5F5F5F5F5F5F5F5F5F5F5F5F5E2E2E2
310
E2E2E2E2E2F5F5F5F5F5F5F5F5F5F5F5F5F5F5F5F5E2E2E2E2E2E2E2E2E2F5F5F5F5F5F5F5F5F5F5F5F5F5F5F5E2E2E2E2E2E2E2E2E2F5F5F5F5F5F5F5F5F5F5F5F5F5F5F5F5E2E2E2E2E2E2E2E2E2F5F5F5F5F5F5F5F5E2E2E2F5F5E2E2E2E2E2E2E2E2E2E2E2E2E2E2E2E2E2E2E2E2E2E2E2E2E2E2E2E2E2E2E2E2E2E2E2
310
E2E2E2E2E2E2E2E2E2E2E2E2E2E2E2E2E2E2E2E2E2E2E2E2E2E2E2E2E2E2E2E2E2E2E2E2E2E2E2E2E2E2E2E2E2E2E2E2E2E2E2E2E2E2E2E2E2E2E2E2E2E2E2E2E2E2E2E2E2E2E2E2E2E2E2E2E2E2E2E2E2E2E2E2E2E2E2E2E2E2E2E2E2E2E2E2E2E2E2E2E2E2E2E2E2E2E2E2E2E2E2E2E2E2E2E2E2E2E2E2E2E2E2E2E2E2E2
310
E2E2E2E2E2E2E2E2E2E2E2E2E2E2E2E2F5F5E2E2E2E2E2E2E2E2E2E2E2E2E2E2E2E2E2E2E2E2E2E2E2E2E2E2E2E2E2E2E2E2E2E2E2E2E2E2E2E2E2E2E2E2E2E2E2E2E2E2E2E2E2E2E2E2E2E2E2E2E2E2E2E2E2E2E2E2E2E2E2E2E2E2E2E2E2E2E2E2E2E2E2E2E2E2E2E2E2E2E2E2E2E2E2E2E2E2E2E2E2E2E2E2E2E2E2E2E2
310
E2E2E2E2E2E2E2E2E2E2E2E2E2E2E2E2E2E2E2E2E2E2E2E2E2E2E2E2E2E2E2E2E2E2E2E2E2E2E2E2E2E2E2E2E2E2E2E2E2E2E2E2E2E2E2E2E2E2E2E2E2E2E2E2E2E2E2E2E2F5F5E2E2E2E2E2E2E2E2E2E2E2E2E2E2E2E2E2E2E2E2E2E2E2E2E2E2E2E2E2E2E2E2E2E2E2E2E2E2E2E2E2E2E2E2E2E2E2E2E2E2E2E2E2E2E2E2
310
E2E2E2E2E2E2E2E2E2E2E2E2E2E2E2E2E2E2E2E2E2E2E2E2E2E2E2E2E2E2E2E2E2E2E2E2E2E2E2E2E2E2E2E2E2E2E2E2E2E2E2E2E2E2E2E2E2E2E2E2E2E2E2E2E2E2E2E2E2E2E2E2E2E2E2E2E2E2E2E2E2E2E2E2E2E2E2E2E2E2E2E2E2E2E2E2E2E2E2E2E2E2E2E2E2E2E2E2E2E2E2E2E2E2E2E2E2E2E2E2E2E2F5F5E2E2E2
310
E2E2E2E2E2E2E2E2E2E2E2E2E2E2E2E2E2E2E2E2E2E2E2E2E2E2E2E2E2E2E2E2E2E2E2E2E2E2E2E2E2E2E2E2E2E2E2E2E2E2E2E2E2E2E2E2E2E2E2E2E2E2E2E2E2E2E2E2E2E2E2E2E2E2E2E2E2E2E2E2E2E2E2E2E2E2E2E2E2E2E2E2E2E2E2E2E2E2E2E2E2E2E2E2E2E2E2E2E2E2E2E2E2E2E2E2E2E2E2E2E2E2E2E2E2E2E2
310
E2E2E2E2E2E2E2E2E2E2E2E2E2E2E2E2E2E2E2E2E2E2E2E2E2E2E2E2E2E2E2E2E2E2E2E2E2E2E2E2E2E2E2E2E2E2E2E2F5
  0
XRECORD
  5
56CA2
102
{ACAD_REACTORS
330
56CA1
102
}
330
56CA1
100
AcDbXrecord
280
     1
102
SHADEPLOT
 70
     0
102
SHADEPLOTRESLEVEL
 70
     2
102
SHADEPLOTCUSTOMDPI
 70
   300
  0
ENDSEC
  0
EOF
