  0
SECTION
  2
HEADER
  9
$ACADVER
  1
AC1015
  9
$ACADMAINTVER
 70
    20
  9
$DWGCODEPAGE
  3
ANSI_936
  9
$INSBASE
 10
0.0
 20
0.0
 30
0.0
  9
$EXTMIN
 10
-122.0001110000001
 20
-243.9590957425643
 30
0.0
  9
$EXTMAX
 10
167.922121443451
 20
86.35759531491373
 30
0.0
  9
$LIMMIN
 10
0.0
 20
0.0
  9
$LIMMAX
 10
420.0
 20
297.0
  9
$ORTHOMODE
 70
     1
  9
$REGENMODE
 70
     1
  9
$FILLMODE
 70
     1
  9
$QTEXTMODE
 70
     0
  9
$MIRRTEXT
 70
     1
  9
$LTSCALE
 40
1.0
  9
$ATTMODE
 70
     1
  9
$TEXTSIZE
 40
3.5
  9
$TRACEWID
 40
1.0
  9
$TEXTSTYLE
  7
simplex
  9
$CLAYER
  8
0
  9
$CELTYPE
  6
ByLayer
  9
$CECOLOR
 62
   256
  9
$CELTSCALE
 40
1.0
  9
$DISPSILH
 70
     0
  9
$DIMSCALE
 40
0.0
  9
$DIMASZ
 40
3.5
  9
$DIMEXO
 40
0.0
  9
$DIMDLI
 40
0.38
  9
$DIMRND
 40
0.0
  9
$DIMDLE
 40
0.0
  9
$DIMEXE
 40
1.5
  9
$DIMTP
 40
0.0
  9
$DIMTM
 40
0.0
  9
$DIMTXT
 40
3.5
  9
$DIMCEN
 40
0.09
  9
$DIMTSZ
 40
0.0
  9
$DIMTOL
 70
     0
  9
$DIMLIM
 70
     0
  9
$DIMTIH
 70
     0
  9
$DIMTOH
 70
     0
  9
$DIMSE1
 70
     0
  9
$DIMSE2
 70
     0
  9
$DIMTAD
 70
     1
  9
$DIMZIN
 70
     8
  9
$DIMBLK
  1

  9
$DIMASO
 70
     1
  9
$DIMSHO
 70
     1
  9
$DIMPOST
  1

  9
$DIMAPOST
  1

  9
$DIMALT
 70
     0
  9
$DIMALTD
 70
     2
  9
$DIMALTF
 40
25.4
  9
$DIMLFAC
 40
1.0
  9
$DIMTOFL
 70
     0
  9
$DIMTVP
 40
0.0
  9
$DIMTIX
 70
     0
  9
$DIMSOXD
 70
     0
  9
$DIMSAH
 70
     0
  9
$DIMBLK1
  1

  9
$DIMBLK2
  1

  9
$DIMSTYLE
  2
\M+18352\M+18373\M+1815B - ISO-25
  9
$DIMCLRD
 70
   256
  9
$DIMCLRE
 70
   256
  9
$DIMCLRT
 70
   256
  9
$DIMTFAC
 40
1.0
  9
$DIMGAP
 40
2.299999999999998
  9
$DIMJUST
 70
     0
  9
$DIMSD1
 70
     0
  9
$DIMSD2
 70
     0
  9
$DIMTOLJ
 70
     1
  9
$DIMTZIN
 70
     8
  9
$DIMALTZ
 70
     0
  9
$DIMALTTZ
 70
     0
  9
$DIMUPT
 70
     0
  9
$DIMDEC
 70
     2
  9
$DIMTDEC
 70
     2
  9
$DIMALTU
 70
     2
  9
$DIMALTTD
 70
     2
  9
$DIMTXSTY
  7
simplex
  9
$DIMAUNIT
 70
     0
  9
$DIMADEC
 70
     0
  9
$DIMALTRND
 40
0.0
  9
$DIMAZIN
 70
     0
  9
$DIMDSEP
 70
    46
  9
$DIMATFIT
 70
     3
  9
$DIMFRAC
 70
     0
  9
$DIMLDRBLK
  1

  9
$DIMLUNIT
 70
     2
  9
$DIMLWD
 70
    -1
  9
$DIMLWE
 70
    -1
  9
$DIMTMOVE
 70
     0
  9
$LUNITS
 70
     2
  9
$LUPREC
 70
     4
  9
$SKETCHINC
 40
1.0
  9
$FILLETRAD
 40
0.5
  9
$AUNITS
 70
     0
  9
$AUPREC
 70
     0
  9
$MENU
  1
.
  9
$ELEVATION
 40
0.0
  9
$PELEVATION
 40
0.0
  9
$THICKNESS
 40
0.0
  9
$LIMCHECK
 70
     0
  9
$CHAMFERA
 40
10.0
  9
$CHAMFERB
 40
10.0
  9
$CHAMFERC
 40
20.0
  9
$CHAMFERD
 40
0.0
  9
$SKPOLY
 70
     0
  9
$TDCREATE
 40
2455489.391063368
  9
$TDUCREATE
 40
2455489.057730035
  9
$TDUPDATE
 40
2458573.020340938
  9
$TDUUPDATE
 40
2458572.687007604
  9
$TDINDWG
 40
2.7301693634
  9
$TDUSRTIMER
 40
2.7301137963
  9
$USRTIMER
 70
     1
  9
$ANGBASE
 50
0.0
  9
$ANGDIR
 70
     0
  9
$PDMODE
 70
     0
  9
$PDSIZE
 40
0.0
  9
$PLINEWID
 40
0.0
  9
$SPLFRAME
 70
     0
  9
$SPLINETYPE
 70
     6
  9
$SPLINESEGS
 70
     8
  9
$HANDSEED
  5
55F6C
  9
$SURFTAB1
 70
     6
  9
$SURFTAB2
 70
     6
  9
$SURFTYPE
 70
     6
  9
$SURFU
 70
     6
  9
$SURFV
 70
     6
  9
$UCSBASE
  2

  9
$UCSNAME
  2

  9
$UCSORG
 10
0.0
 20
0.0
 30
0.0
  9
$UCSXDIR
 10
1.0
 20
0.0
 30
0.0
  9
$UCSYDIR
 10
0.0
 20
1.0
 30
0.0
  9
$UCSORTHOREF
  2

  9
$UCSORTHOVIEW
 70
     0
  9
$UCSORGTOP
 10
0.0
 20
0.0
 30
0.0
  9
$UCSORGBOTTOM
 10
0.0
 20
0.0
 30
0.0
  9
$UCSORGLEFT
 10
0.0
 20
0.0
 30
0.0
  9
$UCSORGRIGHT
 10
0.0
 20
0.0
 30
0.0
  9
$UCSORGFRONT
 10
0.0
 20
0.0
 30
0.0
  9
$UCSORGBACK
 10
0.0
 20
0.0
 30
0.0
  9
$PUCSBASE
  2

  9
$PUCSNAME
  2

  9
$PUCSORG
 10
0.0
 20
0.0
 30
0.0
  9
$PUCSXDIR
 10
1.0
 20
0.0
 30
0.0
  9
$PUCSYDIR
 10
0.0
 20
1.0
 30
0.0
  9
$PUCSORTHOREF
  2

  9
$PUCSORTHOVIEW
 70
     0
  9
$PUCSORGTOP
 10
0.0
 20
0.0
 30
0.0
  9
$PUCSORGBOTTOM
 10
0.0
 20
0.0
 30
0.0
  9
$PUCSORGLEFT
 10
0.0
 20
0.0
 30
0.0
  9
$PUCSORGRIGHT
 10
0.0
 20
0.0
 30
0.0
  9
$PUCSORGFRONT
 10
0.0
 20
0.0
 30
0.0
  9
$PUCSORGBACK
 10
0.0
 20
0.0
 30
0.0
  9
$USERI1
 70
     0
  9
$USERI2
 70
     0
  9
$USERI3
 70
     0
  9
$USERI4
 70
     0
  9
$USERI5
 70
     0
  9
$USERR1
 40
0.0
  9
$USERR2
 40
0.0
  9
$USERR3
 40
0.0
  9
$USERR4
 40
0.0
  9
$USERR5
 40
0.0
  9
$WORLDVIEW
 70
     1
  9
$SHADEDGE
 70
     3
  9
$SHADEDIF
 70
    70
  9
$TILEMODE
 70
     1
  9
$MAXACTVP
 70
    64
  9
$PINSBASE
 10
0.0
 20
0.0
 30
0.0
  9
$PLIMCHECK
 70
     0
  9
$PEXTMIN
 10
26.66999878883364
 20
20.31999878883365
 30
0.0
  9
$PEXTMAX
 10
240.0299890995025
 20
182.8799890995025
 30
0.0
  9
$PLIMMIN
 10
-6.350006103515625
 20
-6.349999904632567
  9
$PLIMMAX
 10
273.0499877929688
 20
209.5499939918518
  9
$UNITMODE
 70
     0
  9
$VISRETAIN
 70
     1
  9
$PLINEGEN
 70
     0
  9
$PSLTSCALE
 70
     1
  9
$TREEDEPTH
 70
  3020
  9
$CMLSTYLE
  2
Standard
  9
$CMLJUST
 70
     0
  9
$CMLSCALE
 40
20.0
  9
$PROXYGRAPHICS
 70
     1
  9
$MEASUREMENT
 70
     1
  9
$CELWEIGHT
370
    -1
  9
$ENDCAPS
280
     0
  9
$JOINSTYLE
280
     0
  9
$LWDISPLAY
290
     0
  9
$INSUNITS
 70
     4
  9
$HYPERLINKBASE
  1

  9
$STYLESHEET
  1

  9
$XEDIT
290
     1
  9
$CEPSNTYPE
380
     0
  9
$PSTYLEMODE
290
     1
  9
$FINGERPRINTGUID
  2
{601DDA01-5B13-4A4C-8F56-1333B78D855B}
  9
$VERSIONGUID
  2
{95C7C779-37FA-4D54-96AA-B68D09CB5008}
  9
$EXTNAMES
290
     1
  9
$PSVPSCALE
 40
0.0
  9
$OLESTARTUP
290
     0
  0
ENDSEC
  0
SECTION
  2
CLASSES
  0
CLASS
  1
ACDBDICTIONARYWDFLT
  2
AcDbDictionaryWithDefault
  3
ObjectDBX Classes
 90
        0
280
     0
281
     0
  0
CLASS
  1
ACDBPLACEHOLDER
  2
AcDbPlaceHolder
  3
ObjectDBX Classes
 90
        0
280
     0
281
     0
  0
CLASS
  1
LAYOUT
  2
AcDbLayout
  3
ObjectDBX Classes
 90
        0
280
     0
281
     0
  0
CLASS
  1
DICTIONARYVAR
  2
AcDbDictionaryVar
  3
ObjectDBX Classes
 90
        0
280
     0
281
     0
  0
CLASS
  1
TABLESTYLE
  2
AcDbTableStyle
  3
ObjectDBX Classes
 90
     2047
280
     0
281
     0
  0
CLASS
  1
SORTENTSTABLE
  2
AcDbSortentsTable
  3
ObjectDBX Classes
 90
        0
280
     0
281
     0
  0
CLASS
  1
DIMASSOC
  2
AcDbDimAssoc
  3
"AcDbDimAssoc|Product Desc:     AcDim ARX App For Dimension|Company:          Autodesk, Inc.|WEB Address:      www.autodesk.com"
 90
        0
280
     0
281
     0
  0
CLASS
  1
ACAD_EVALUATION_GRAPH
  2
AcDbEvalGraph
  3
ObjectDBX Classes
 90
    33921
280
     0
281
     0
  0
CLASS
  1
ACAECUSTOBJ
  2
AcAeEditorObj
  3
AcAeEditorObj
 90
    33792
280
     0
281
     0
  0
CLASS
  1
ACDB_DYNAMICBLOCKPURGEPREVENTER_VERSION
  2
AcDbDynamicBlockPurgePreventer
  3
ObjectDBX Classes
 90
    33921
280
     0
281
     0
  0
ENDSEC
  0
SECTION
  2
TABLES
  0
TABLE
  2
VPORT
  5
8
330
0
100
AcDbSymbolTable
 70
     2
  0
VPORT
  5
55F5D
330
8
100
AcDbSymbolTableRecord
100
AcDbViewportTableRecord
  2
*Active
 70
     0
 10
0.0
 20
0.0
 11
1.0
 21
1.0
 12
-0.3108043647541478
 22
8.093832551675063
 13
0.0
 23
0.0
 14
10.0
 24
10.0
 15
10.0
 25
10.0
 16
0.0
 26
0.0
 36
1.0
 17
0.0
 27
0.0
 37
0.0
 40
289.0458972217095
 41
1.508350730688935
 42
50.0
 43
0.0
 44
0.0
 50
0.0
 51
0.0
 71
     0
 72
  1000
 73
     1
 74
     1
 75
     0
 76
     0
 77
     0
 78
     0
281
     0
 65
     1
110
0.0
120
0.0
130
0.0
111
1.0
121
0.0
131
0.0
112
0.0
122
1.0
132
0.0
 79
     0
146
0.0
  0
ENDTAB
  0
TABLE
  2
LTYPE
  5
5
330
0
100
AcDbSymbolTable
 70
     4
  0
LTYPE
  5
14
330
5
100
AcDbSymbolTableRecord
100
AcDbLinetypeTableRecord
  2
ByBlock
 70
     0
  3

 72
    65
 73
     0
 40
0.0
  0
LTYPE
  5
15
330
5
100
AcDbSymbolTableRecord
100
AcDbLinetypeTableRecord
  2
ByLayer
 70
     0
  3

 72
    65
 73
     0
 40
0.0
  0
LTYPE
  5
16
330
5
100
AcDbSymbolTableRecord
100
AcDbLinetypeTableRecord
  2
Continuous
 70
     0
  3
Solid line
 72
    65
 73
     0
 40
0.0
  0
LTYPE
  5
D7
330
5
100
AcDbSymbolTableRecord
100
AcDbLinetypeTableRecord
  2
HIDDEN
 70
     0
  3
Hidden __ __ __ __ __ __ __ __ __ __ __ __ __ _
 72
    65
 73
     2
 40
9.524999999999996
 49
6.349999999999997
 74
     0
 49
-3.174999999999998
 74
     0
  0
LTYPE
  5
D9
330
5
100
AcDbSymbolTableRecord
100
AcDbLinetypeTableRecord
  2
CENTER
 70
     0
  3
Center ____ _ ____ _ ____ _ ____ _ ____ _ ____
 72
    65
 73
     4
 40
50.8
 49
31.75
 74
     0
 49
-6.349999999999997
 74
     0
 49
6.349999999999997
 74
     0
 49
-6.349999999999997
 74
     0
  0
LTYPE
  5
35815
330
5
100
AcDbSymbolTableRecord
100
AcDbLinetypeTableRecord
  2
PHANTOM
 70
     0
  3
_____ _ _ _____ _ _ _____ _ _ _____
 72
    65
 73
     6
 40
0.8
 49
0.45
 74
     0
 49
-0.05
 74
     0
 49
0.1
 74
     0
 49
-0.05
 74
     0
 49
0.1
 74
     0
 49
-0.05
 74
     0
  0
ENDTAB
  0
TABLE
  2
LAYER
  5
2
102
{ACAD_XDICTIONARY
360
E2
102
}
330
0
100
AcDbSymbolTable
 70
    14
  0
LAYER
  5
10
330
2
100
AcDbSymbolTableRecord
100
AcDbLayerTableRecord
  2
0
 70
     0
 62
     7
  6
Continuous
370
    -3
390
F
  0
LAYER
  5
D1
330
2
100
AcDbSymbolTableRecord
100
AcDbLayerTableRecord
  2
1
 70
     0
 62
     4
  6
Continuous
370
    50
390
F
1001
AcAecLayerStandard
1000

1000

  0
LAYER
  5
D3
330
2
100
AcDbSymbolTableRecord
100
AcDbLayerTableRecord
  2
2
 70
     0
 62
     7
  6
Continuous
370
    25
390
F
1001
AcAecLayerStandard
1000

1000

  0
LAYER
  5
D4
330
2
100
AcDbSymbolTableRecord
100
AcDbLayerTableRecord
  2
3
 70
     0
 62
     1
  6
HIDDEN
370
    35
390
F
1001
AcAecLayerStandard
1000

1000

  0
LAYER
  5
D8
330
2
100
AcDbSymbolTableRecord
100
AcDbLayerTableRecord
  2
4
 70
     0
 62
     2
  6
CENTER
370
    25
390
F
1001
AcAecLayerStandard
1000

1000

  0
LAYER
  5
DA
330
2
100
AcDbSymbolTableRecord
100
AcDbLayerTableRecord
  2
6
 70
     0
 62
     5
  6
Continuous
370
    35
390
F
1001
AcAecLayerStandard
1000

1000

  0
LAYER
  5
DB
330
2
100
AcDbSymbolTableRecord
100
AcDbLayerTableRecord
  2
cut
 70
     0
 62
     1
  6
Continuous
370
    25
390
F
1001
AcAecLayerStandard
1000

1000

  0
LAYER
  5
DC
330
2
100
AcDbSymbolTableRecord
100
AcDbLayerTableRecord
  2
nocut
 70
     0
 62
     7
  6
Continuous
370
    25
390
F
1001
AcAecLayerStandard
1000

1000

  0
LAYER
  5
DD
330
2
100
AcDbSymbolTableRecord
100
AcDbLayerTableRecord
  2
sk1
 70
     0
 62
     4
  6
Continuous
370
    50
390
F
1001
AcAecLayerStandard
1000

1000

  0
LAYER
  5
DE
330
2
100
AcDbSymbolTableRecord
100
AcDbLayerTableRecord
  2
sk2
 70
     0
 62
     7
  6
Continuous
370
    25
390
F
1001
AcAecLayerStandard
1000

1000

  0
LAYER
  5
DF
330
2
100
AcDbSymbolTableRecord
100
AcDbLayerTableRecord
  2
sk3
 70
     0
 62
     1
  6
HIDDEN
370
    35
390
F
1001
AcAecLayerStandard
1000

1000

  0
LAYER
  5
E0
330
2
100
AcDbSymbolTableRecord
100
AcDbLayerTableRecord
  2
sk4
 70
     0
 62
     2
  6
CENTER
370
    25
390
F
1001
AcAecLayerStandard
1000

1000

  0
LAYER
  5
E1
330
2
100
AcDbSymbolTableRecord
100
AcDbLayerTableRecord
  2
sk6
 70
     0
 62
     5
  6
Continuous
370
    35
390
F
1001
AcAecLayerStandard
1000

1000

  0
LAYER
  5
31B6
330
2
100
AcDbSymbolTableRecord
100
AcDbLayerTableRecord
  2
Defpoints
 70
     0
 62
     7
  6
Continuous
290
     0
370
    -3
390
F
  0
ENDTAB
  0
TABLE
  2
STYLE
  5
3
330
0
100
AcDbSymbolTable
 70
    12
  0
STYLE
  5
11
330
3
100
AcDbSymbolTableRecord
100
AcDbTextStyleTableRecord
  2
Standard
 70
     0
 40
0.0
 41
1.0
 50
0.0
 71
     0
 42
2.5
  3
txt.shx
  4
@extfont2.shx
  0
STYLE
  5
D6
330
3
100
AcDbSymbolTableRecord
100
AcDbTextStyleTableRecord
  2

 70
     1
 40
0.0
 41
1.0
 50
0.0
 71
     0
 42
2.5
  3
ltypeshp.shx
  4

  0
STYLE
  5
24A
330
3
100
AcDbSymbolTableRecord
100
AcDbTextStyleTableRecord
  2
simplex
 70
     0
 40
3.5
 41
1.0
 50
0.0
 71
     0
 42
3.5
  3
txt.shx
  4

  0
STYLE
  5
69E
330
3
100
AcDbSymbolTableRecord
100
AcDbTextStyleTableRecord
  2
MX_NOTE_STANDARD
 70
     0
 40
0.0
 41
1.0
 50
0.0
 71
     0
 42
4.2
  3
txt.shx
  4
extfont.shx
  0
STYLE
  5
3524
330
3
100
AcDbSymbolTableRecord
100
AcDbTextStyleTableRecord
  2
TEXTSTYLE_2
 70
     0
 40
0.0
 41
0.775
 50
0.0
 71
     0
 42
0.2
  3
gdt
  4

  0
STYLE
  5
3525
330
3
100
AcDbSymbolTableRecord
100
AcDbTextStyleTableRecord
  2
TEXTSTYLE_3
 70
     0
 40
0.0
 41
0.75
 50
0.0
 71
     0
 42
0.2
  3
txt
  4

  0
STYLE
  5
3526
330
3
100
AcDbSymbolTableRecord
100
AcDbTextStyleTableRecord
  2
TEXTSTYLE_13
 70
     0
 40
0.0
 41
1.0
 50
0.0
 71
     0
 42
0.2
  3
txt
  4

  0
STYLE
  5
519A
330
3
100
AcDbSymbolTableRecord
100
AcDbTextStyleTableRecord
  2
TEXTSTYLE_14
 70
     0
 40
0.0
 41
1.0
 50
0.0
 71
     0
 42
0.2
  3
txt
  4

  0
STYLE
  5
6F72
330
3
100
AcDbSymbolTableRecord
100
AcDbTextStyleTableRecord
  2
TEXTSTYLE_4
 70
     0
 40
0.0
 41
0.75
 50
0.0
 71
     0
 42
0.2
  3
txt
  4

  0
STYLE
  5
6F73
330
3
100
AcDbSymbolTableRecord
100
AcDbTextStyleTableRecord
  2
TEXTSTYLE_17
 70
     0
 40
0.0
 41
1.0
 50
0.0
 71
     0
 42
0.2
  3
txt
  4

  0
STYLE
  5
FE12
330
3
100
AcDbSymbolTableRecord
100
AcDbTextStyleTableRecord
  2
TEXTSTYLE_12
 70
     0
 40
0.0
 41
1.0
 50
0.0
 71
     0
 42
0.2
  3
txt
  4

  0
STYLE
  5
3AAB8
330
3
100
AcDbSymbolTableRecord
100
AcDbTextStyleTableRecord
  2
TEXTSTYLE_20
 70
     0
 40
0.0
 41
0.6
 50
0.0
 71
     0
 42
0.2
  3
txt
  4

  0
ENDTAB
  0
TABLE
  2
VIEW
  5
6
330
0
100
AcDbSymbolTable
 70
     0
  0
ENDTAB
  0
TABLE
  2
UCS
  5
7
330
0
100
AcDbSymbolTable
 70
     0
  0
ENDTAB
  0
TABLE
  2
APPID
  5
9
330
0
100
AcDbSymbolTable
 70
    11
  0
APPID
  5
12
330
9
100
AcDbSymbolTableRecord
100
AcDbRegAppTableRecord
  2
ACAD
 70
     0
  0
APPID
  5
D2
330
9
100
AcDbSymbolTableRecord
100
AcDbRegAppTableRecord
  2
AcAecLayerStandard
 70
     0
  0
APPID
  5
E6
330
9
100
AcDbSymbolTableRecord
100
AcDbRegAppTableRecord
  2
ACAD_DSTYLE_DIMTEXT_FILL
 70
     0
  0
APPID
  5
4C84
330
9
100
AcDbSymbolTableRecord
100
AcDbRegAppTableRecord
  2
ACAD_EXEMPT_FROM_CAD_STANDARDS
 70
     0
  0
APPID
  5
3493E
330
9
100
AcDbSymbolTableRecord
100
AcDbRegAppTableRecord
  2
DCO15
 70
     0
  0
APPID
  5
3BAB0
330
9
100
AcDbSymbolTableRecord
100
AcDbRegAppTableRecord
  2
ACAD_DSTYLE_DIMEXT_ENABLED
 70
     0
  0
APPID
  5
3BAB1
330
9
100
AcDbSymbolTableRecord
100
AcDbRegAppTableRecord
  2
ACAD_DSTYLE_DIMEXT_LENGTH
 70
     0
  0
APPID
  5
3BEB4
330
9
100
AcDbSymbolTableRecord
100
AcDbRegAppTableRecord
  2
ACAUTHENVIRON
 70
     0
  0
APPID
  5
3BEB7
330
9
100
AcDbSymbolTableRecord
100
AcDbRegAppTableRecord
  2
AcDbDynamicBlockTrueName
 70
     0
  0
APPID
  5
3BEB8
330
9
100
AcDbSymbolTableRecord
100
AcDbRegAppTableRecord
  2
AcDbDynamicBlockGUID
 70
     0
  0
APPID
  5
3BEBA
330
9
100
AcDbSymbolTableRecord
100
AcDbRegAppTableRecord
  2
AcDbBlockRepETag
 70
     0
  0
ENDTAB
  0
TABLE
  2
DIMSTYLE
  5
A
330
0
100
AcDbSymbolTable
 70
    11
100
AcDbDimStyleTable
 71
     5
340
1BF
340
27
340
352A
340
3527
340
69F
  0
DIMSTYLE
105
27
330
A
100
AcDbSymbolTableRecord
100
AcDbDimStyleTableRecord
  2
ISO-25
 70
     0
 41
2.5
 42
0.625
 43
3.75
 44
1.25
 73
     0
 74
     0
 77
     1
 78
     8
140
2.5
141
2.5
143
0.03937007874016
147
0.625
171
     3
172
     1
271
     2
272
     2
274
     3
278
    44
283
     0
284
     8
340
11
  0
DIMSTYLE
105
1BF
102
{ACAD_REACTORS
330
55B06
330
55B47
330
559CF
330
559D0
330
55E45
330
55E46
330
55E48
102
}
330
A
100
AcDbSymbolTableRecord
100
AcDbDimStyleTableRecord
  2
\M+18352\M+18373\M+1815B - ISO-25
 70
     0
 40
0.0
 41
3.5
 42
0.0
 44
1.5
 73
     0
 74
     0
 77
     1
 78
     8
140
3.5
147
2.299999999999998
176
   256
177
   256
178
   256
271
     2
272
     2
284
     8
340
24A
371
    -1
372
    -1
  0
DIMSTYLE
105
69F
330
A
100
AcDbSymbolTableRecord
100
AcDbDimStyleTableRecord
  2
MXDIMSTYLE
 70
     0
 41
2.5
 42
0.5
 43
3.75
 44
1.5
 73
     0
 74
     0
 77
     1
 78
     8
140
4.2
141
2.5
143
0.03937
147
1.0
171
     4
172
     1
173
     1
271
     2
272
     2
274
     4
283
     0
288
     1
340
69E
341
697
343
697
344
697
  0
DIMSTYLE
105
3527
330
A
100
AcDbSymbolTableRecord
100
AcDbDimStyleTableRecord
  2
STANDARD
 70
     0
 41
3.0
 47
0.001
 48
0.001
 71
     1
 73
     0
 74
     0
 77
     1
 78
     8
140
4.0
271
     3
272
     3
284
     8
340
11
341
34B1
342
34B1
343
34B1
344
34B1
  0
DIMSTYLE
105
3528
330
A
100
AcDbSymbolTableRecord
100
AcDbDimStyleTableRecord
  2
DIMSTYLE_1
 70
     0
 41
3.0
 73
     0
 74
     0
 77
     1
 78
     8
140
4.0
271
     3
272
     3
284
     8
340
11
341
34B1
342
34B1
343
34B1
344
34B1
  0
DIMSTYLE
105
3529
330
A
100
AcDbSymbolTableRecord
100
AcDbDimStyleTableRecord
  2
DIMSTYLE_2
 70
     0
 41
3.0
 47
0.001
 48
0.001
 73
     0
 74
     0
 77
     1
 78
     8
140
4.0
271
     3
272
     3
284
     8
340
11
341
34B1
342
34B1
343
34B1
344
34B1
  0
DIMSTYLE
105
352A
330
A
100
AcDbSymbolTableRecord
100
AcDbDimStyleTableRecord
  2
DIMSTYLE_3
 70
     0
 41
3.0
 47
-0.1
 48
0.3
 71
     1
 73
     0
 74
     0
 77
     1
 78
     8
140
4.0
146
0.5
271
     3
272
     3
284
     8
340
11
341
34B1
342
34B1
343
34B1
344
34B1
  0
DIMSTYLE
105
352B
330
A
100
AcDbSymbolTableRecord
100
AcDbDimStyleTableRecord
  2
DIMSTYLE_4
 70
     0
 41
3.0
 47
0.1
 48
0.1
 71
     1
 73
     0
 74
     0
 77
     1
 78
     8
140
4.0
271
     3
272
     3
284
     8
340
11
341
34B1
342
34B1
343
34B1
344
34B1
  0
DIMSTYLE
105
27245
330
A
100
AcDbSymbolTableRecord
100
AcDbDimStyleTableRecord
  2
DIMSTYLE_5
 70
     0
 41
3.0
 47
0.001
 48
0.001
 73
     0
 74
     0
 77
     1
 78
     8
140
4.0
271
     3
272
     3
284
     8
340
11
341
34B1
342
34B1
343
34B1
344
34B1
  0
DIMSTYLE
105
3AAB9
330
A
100
AcDbSymbolTableRecord
100
AcDbDimStyleTableRecord
  2
DIMSTYLE_6
 70
     0
 41
3.0
 42
0.0
 44
1.0
 47
0.05
 48
0.05
 71
     1
 73
     0
 74
     0
 77
     1
 78
     8
140
4.0
147
1.0
271
     3
272
     3
284
     8
340
11
341
34B1
342
34B1
343
34B1
344
34B1
  0
DIMSTYLE
105
532EA
330
A
100
AcDbSymbolTableRecord
100
AcDbDimStyleTableRecord
  2
NEW-DIMSTYLE
 70
     0
 40
0.0
 41
4.57
 42
0.0
 44
5.0
 73
     0
 74
     0
 77
     1
 78
     8
140
4.57
147
2.299999999999998
271
     2
340
24A
  0
ENDTAB
  0
TABLE
  2
BLOCK_RECORD
  5
1
330
0
100
AcDbSymbolTable
 70
    28
  0
BLOCK_RECORD
  5
1F
102
{ACAD_XDICTIONARY
360
31EE
102
}
330
1
100
AcDbSymbolTableRecord
100
AcDbBlockTableRecord
  2
*Model_Space
340
22
  0
BLOCK_RECORD
  5
50
330
1
100
AcDbSymbolTableRecord
100
AcDbBlockTableRecord
  2
*Paper_Space
340
51
  0
BLOCK_RECORD
  5
55
330
1
100
AcDbSymbolTableRecord
100
AcDbBlockTableRecord
  2
*Paper_Space0
340
56
  0
BLOCK_RECORD
  5
680
102
{ACAD_XDICTIONARY
360
3BEB2
102
}
330
1
100
AcDbSymbolTableRecord
100
AcDbBlockTableRecord
  2
zero block
340
0
102
{BLKREFS
331
68C
331
55DBC
102
}
1001
ACAD
1000
DesignCenter Data
1002
{
1070
     1
1070
     4
1002
}
1001
AcDbDynamicBlockGUID
1000
{C2E8894D-A8DA-456D-ABB6-198B00672C1A}
1001
AcDbBlockRepETag
1070
     1
1071
        7
  0
BLOCK_RECORD
  5
697
330
1
100
AcDbSymbolTableRecord
100
AcDbBlockTableRecord
  2
_OPEN30
340
0
  0
BLOCK_RECORD
  5
34B1
330
1
100
AcDbSymbolTableRecord
100
AcDbBlockTableRecord
  2
_OPEN
340
0
  0
BLOCK_RECORD
  5
50E6F
330
1
100
AcDbSymbolTableRecord
100
AcDbBlockTableRecord
  2
_None
340
0
  0
BLOCK_RECORD
  5
54892
330
1
100
AcDbSymbolTableRecord
100
AcDbBlockTableRecord
  2
*D5
340
0
  0
BLOCK_RECORD
  5
55BE4
330
1
100
AcDbSymbolTableRecord
100
AcDbBlockTableRecord
  2
*D6
340
0
  0
BLOCK_RECORD
  5
55BFA
330
1
100
AcDbSymbolTableRecord
100
AcDbBlockTableRecord
  2
*D7
340
0
  0
BLOCK_RECORD
  5
55C07
330
1
100
AcDbSymbolTableRecord
100
AcDbBlockTableRecord
  2
*D8
340
0
  0
BLOCK_RECORD
  5
55C14
330
1
100
AcDbSymbolTableRecord
100
AcDbBlockTableRecord
  2
*D9
340
0
  0
BLOCK_RECORD
  5
55C20
330
1
100
AcDbSymbolTableRecord
100
AcDbBlockTableRecord
  2
*D10
340
0
  0
BLOCK_RECORD
  5
55C2D
330
1
100
AcDbSymbolTableRecord
100
AcDbBlockTableRecord
  2
*D11
340
0
  0
BLOCK_RECORD
  5
55C7A
330
1
100
AcDbSymbolTableRecord
100
AcDbBlockTableRecord
  2
*D12
340
0
  0
BLOCK_RECORD
  5
55D67
330
1
100
AcDbSymbolTableRecord
100
AcDbBlockTableRecord
  2
*D13
340
0
  0
BLOCK_RECORD
  5
55D73
330
1
100
AcDbSymbolTableRecord
100
AcDbBlockTableRecord
  2
*D14
340
0
  0
BLOCK_RECORD
  5
55D7F
330
1
100
AcDbSymbolTableRecord
100
AcDbBlockTableRecord
  2
*D15
340
0
  0
BLOCK_RECORD
  5
55D8C
330
1
100
AcDbSymbolTableRecord
100
AcDbBlockTableRecord
  2
*D16
340
0
  0
BLOCK_RECORD
  5
55D99
330
1
100
AcDbSymbolTableRecord
100
AcDbBlockTableRecord
  2
*D17
340
0
  0
BLOCK_RECORD
  5
55DA6
330
1
100
AcDbSymbolTableRecord
100
AcDbBlockTableRecord
  2
*D18
340
0
  0
BLOCK_RECORD
  5
55DB0
330
1
100
AcDbSymbolTableRecord
100
AcDbBlockTableRecord
  2
*D19
340
0
  0
BLOCK_RECORD
  5
55E72
330
1
100
AcDbSymbolTableRecord
100
AcDbBlockTableRecord
  2
*D21
340
0
  0
BLOCK_RECORD
  5
55E7F
330
1
100
AcDbSymbolTableRecord
100
AcDbBlockTableRecord
  2
*D22
340
0
  0
BLOCK_RECORD
  5
55E8B
330
1
100
AcDbSymbolTableRecord
100
AcDbBlockTableRecord
  2
*D23
340
0
  0
BLOCK_RECORD
  5
55E97
330
1
100
AcDbSymbolTableRecord
100
AcDbBlockTableRecord
  2
*D24
340
0
  0
BLOCK_RECORD
  5
55EA4
330
1
100
AcDbSymbolTableRecord
100
AcDbBlockTableRecord
  2
*D25
340
0
  0
BLOCK_RECORD
  5
55EB1
330
1
100
AcDbSymbolTableRecord
100
AcDbBlockTableRecord
  2
*D26
340
0
  0
BLOCK_RECORD
  5
55EBB
330
1
100
AcDbSymbolTableRecord
100
AcDbBlockTableRecord
  2
*D27
340
0
  0
ENDTAB
  0
ENDSEC
  0
SECTION
  2
BLOCKS
  0
BLOCK
  5
20
330
1F
100
AcDbEntity
  8
0
100
AcDbBlockBegin
  2
*Model_Space
 70
     0
 10
0.0
 20
0.0
 30
0.0
  3
*Model_Space
  1

  0
ENDBLK
  5
21
330
1F
100
AcDbEntity
  8
0
100
AcDbBlockEnd
  0
BLOCK
  5
52
330
50
100
AcDbEntity
 67
     1
  8
0
100
AcDbBlockBegin
  2
*Paper_Space
 70
     0
 10
0.0
 20
0.0
 30
0.0
  3
*Paper_Space
  1

  0
ENDBLK
  5
53
330
50
100
AcDbEntity
 67
     1
  8
0
100
AcDbBlockEnd
  0
BLOCK
  5
57
330
55
100
AcDbEntity
 67
     1
  8
0
100
AcDbBlockBegin
  2
*Paper_Space0
 70
     0
 10
0.0
 20
0.0
 30
0.0
  3
*Paper_Space0
  1

  0
VIEWPORT
  5
71
102
{ACAD_XDICTIONARY
360
55F68
102
}
330
55
100
AcDbEntity
 67
     1
  8
0
100
AcDbViewport
 10
150.1652135264906
 20
101.599997546291
 30
0.0
 40
339.1973820494347
 41
164.5360435314421
 68
     0
 69
     0
 12
150.1652135264906
 22
101.599997546291
 13
0.0
 23
0.0
 14
10.0
 24
10.0
 15
10.0
 25
10.0
 16
0.0
 26
0.0
 36
1.0
 17
0.0
 27
0.0
 37
0.0
 42
50.0
 43
0.0
 44
0.0
 45
164.5360435314421
 50
0.0
 51
0.0
 72
  1000
 90
    32864
  1

281
     0
 71
     1
 74
     0
110
0.0
120
0.0
130
0.0
111
1.0
121
0.0
131
0.0
112
0.0
122
1.0
132
0.0
 79
     0
146
0.0
  0
VIEWPORT
  5
73
102
{ACAD_XDICTIONARY
360
55F6A
102
}
330
55
100
AcDbEntity
 67
     1
  8
0
100
AcDbViewport
 10
133.3499939441681
 20
101.5999939441681
 30
0.0
 40
213.3599903106689
 41
162.5599903106689
 68
     0
 69
     0
 12
210.0
 22
148.5
 13
0.0
 23
0.0
 14
10.0
 24
10.0
 15
10.0
 25
10.0
 16
0.0
 26
0.0
 36
1.0
 17
0.0
 27
0.0
 37
0.0
 42
50.0
 43
0.0
 44
0.0
 45
324.0677920111345
 50
0.0
 51
0.0
 72
   100
 90
    32864
  1

281
     0
 71
     1
 74
     0
110
0.0
120
0.0
130
0.0
111
1.0
121
0.0
131
0.0
112
0.0
122
1.0
132
0.0
 79
     0
146
0.0
  0
ENDBLK
  5
58
330
55
100
AcDbEntity
 67
     1
  8
0
100
AcDbBlockEnd
  0
BLOCK
  5
68A
330
680
100
AcDbEntity
  8
0
100
AcDbBlockBegin
  2
zero block
 70
     0
 10
0.0
 20
0.0
 30
0.0
  3
zero block
  1

  0
HATCH
  5
3BEAB
330
680
100
AcDbEntity
  8
0
 62
     7
100
AcDbHatch
 10
0.0
 20
0.0
 30
0.0
210
0.0
220
0.0
230
1.0
  2
SOLID
 70
     1
 71
     0
 91
        2
 92
        7
 72
     1
 73
     1
 93
        3
 10
0.0
 20
0.9999999999999875
 42
0.4142135623730915
 10
-1.0
 20
0.0
 42
0.0
 10
0.0
 20
0.0
 42
0.0
 97
        0
 92
        7
 72
     1
 73
     1
 93
        3
 10
1.000000000000007
 20
0.0
 42
0.0
 10
0.0
 20
0.0
 42
0.0
 10
0.0
 20
-1.0
 42
0.4142135623730974
 97
        0
 75
     0
 76
     1
 47
0.0090601366782909
 98
        2
 10
-0.380591363650975
 20
0.4885804701532896
 10
0.4350764810977559
 20
-0.4536738423704725
1001
AcDbBlockRepETag
1070
     1
1071
        0
1005
3BEAB
  0
LINE
  5
3BEAC
330
680
100
AcDbEntity
  8
0
 62
     7
 48
0.2
100
AcDbLine
 10
-1.0
 20
0.0
 30
0.0
 11
1.000000000000007
 21
0.0
 31
0.0
1001
AcDbBlockRepETag
1070
     1
1071
        1
1005
3BEAC
  0
LINE
  5
3BEAD
330
680
100
AcDbEntity
  8
0
 62
     7
 48
0.2
100
AcDbLine
 10
0.0
 20
-1.0
 30
0.0
 11
0.0
 21
0.9999999999999875
 31
0.0
1001
AcDbBlockRepETag
1070
     1
1071
        2
1005
3BEAD
  0
ARC
  5
3BEAE
330
680
100
AcDbEntity
  8
0
 62
     7
 48
0.2
100
AcDbCircle
 10
0.0
 20
0.0
 30
0.0
 40
1.0
100
AcDbArc
 50
270.0
 51
0.0
1001
AcDbBlockRepETag
1070
     1
1071
        3
1005
3BEAE
  0
ARC
  5
3BEAF
330
680
100
AcDbEntity
  8
0
 62
     7
 48
0.2
100
AcDbCircle
 10
0.0
 20
0.0
 30
0.0
 40
1.0
100
AcDbArc
 50
0.0
 51
90.0
1001
AcDbBlockRepETag
1070
     1
1071
        4
1005
3BEAF
  0
ARC
  5
3BEB0
330
680
100
AcDbEntity
  8
0
 62
     7
 48
0.2
100
AcDbCircle
 10
0.0
 20
0.0
 30
0.0
 40
1.0
100
AcDbArc
 50
180.0
 51
270.0
1001
AcDbBlockRepETag
1070
     1
1071
        5
1005
3BEB0
  0
ARC
  5
3BEB1
330
680
100
AcDbEntity
  8
0
 62
     7
 48
0.2
100
AcDbCircle
 10
0.0
 20
0.0
 30
0.0
 40
1.0
100
AcDbArc
 50
90.0
 51
180.0
1001
AcDbBlockRepETag
1070
     1
1071
        6
1005
3BEB1
  0
ENDBLK
  5
68B
330
680
100
AcDbEntity
  8
0
100
AcDbBlockEnd
  0
BLOCK
  5
698
330
697
100
AcDbEntity
  8
0
  6
ByBlock
 62
     0
370
    -2
100
AcDbBlockBegin
  2
_OPEN30
 70
     2
 10
0.0
 20
0.0
 30
0.0
  3
_OPEN30
  1

  0
LINE
  5
699
330
697
100
AcDbEntity
  8
0
  6
ByBlock
 62
     0
370
    -2
100
AcDbLine
 10
-1.0
 20
0.267949
 30
0.0
 11
0.0
 21
0.0
 31
0.0
  0
LINE
  5
69A
330
697
100
AcDbEntity
  8
0
  6
ByBlock
 62
     0
370
    -2
100
AcDbLine
 10
0.0
 20
0.0
 30
0.0
 11
-1.0
 21
-0.267949
 31
0.0
  0
LINE
  5
69B
330
697
100
AcDbEntity
  8
0
  6
ByBlock
 62
     0
370
    -2
100
AcDbLine
 10
0.0
 20
0.0
 30
0.0
 11
-1.0
 21
0.0
 31
0.0
  0
ENDBLK
  5
69C
330
697
100
AcDbEntity
  8
0
  6
ByBlock
 62
     0
370
    -2
100
AcDbBlockEnd
  0
BLOCK
  5
34B2
330
34B1
100
AcDbEntity
  8
0
100
AcDbBlockBegin
  2
_OPEN
 70
     0
 10
0.0
 20
0.0
 30
0.0
  3
_OPEN
  1

  0
LINE
  5
34B3
330
34B1
100
AcDbEntity
  8
0
  6
ByBlock
 62
     0
100
AcDbLine
 10
0.0
 20
0.0
 30
0.0
 11
-1.0
 21
0.1766666667
 31
0.0
  0
LINE
  5
34B4
330
34B1
100
AcDbEntity
  8
0
  6
ByBlock
 62
     0
100
AcDbLine
 10
-1.0
 20
-0.1766666667
 30
0.0
 11
0.0
 21
0.0
 31
0.0
  0
LINE
  5
34B5
330
34B1
100
AcDbEntity
  8
0
  6
ByBlock
 62
     0
100
AcDbLine
 10
-1.0
 20
0.0
 30
0.0
 11
0.0
 21
0.0
 31
0.0
  0
ENDBLK
  5
34B6
330
34B1
100
AcDbEntity
  8
0
  6
ByBlock
 62
     0
100
AcDbBlockEnd
  0
BLOCK
  5
50E70
330
50E6F
100
AcDbEntity
  8
0
100
AcDbBlockBegin
  2
_None
 70
     0
 10
0.0
 20
0.0
 30
0.0
  3
_None
  1

  0
ENDBLK
  5
50E71
330
50E6F
100
AcDbEntity
  8
0
100
AcDbBlockEnd
  0
BLOCK
  5
5489C
330
54892
100
AcDbEntity
  8
0
100
AcDbBlockBegin
  2
*D5
 70
     1
 10
0.0
 20
0.0
 30
0.0
  3
*D5
  1

  0
LINE
  5
5569C
330
54892
100
AcDbEntity
  8
2
100
AcDbLine
 10
53.975009
 20
5.055141471329306
 30
0.0
 11
53.975009
 21
40.92700601619286
 31
0.0
  0
LINE
  5
5569D
330
54892
100
AcDbEntity
  8
2
100
AcDbLine
 10
0.0000089999999773
 20
7.937499999999992
 30
0.0
 11
0.0000089999999793
 21
40.92700601619286
 31
0.0
  0
LINE
  5
5569E
330
54892
100
AcDbEntity
  8
2
100
AcDbLine
 10
50.475009
 20
39.42700601619286
 30
0.0
 11
3.500008999999978
 21
39.42700601619286
 31
0.0
  0
SOLID
  5
5569F
330
54892
100
AcDbEntity
  8
2
100
AcDbTrace
 10
50.475009
 20
40.01033934952618
 30
0.0
 11
50.475009
 21
38.84367268285953
 31
0.0
 12
53.975009
 22
39.42700601619286
 32
0.0
 13
53.975009
 23
39.42700601619286
 33
0.0
  0
SOLID
  5
556A0
330
54892
100
AcDbEntity
  8
2
100
AcDbTrace
 10
3.500008999999978
 20
40.01033934952618
 30
0.0
 11
3.500008999999978
 21
38.84367268285953
 31
0.0
 12
0.0000089999999792
 22
39.42700601619286
 32
0.0
 13
0.0000089999999792
 23
39.42700601619286
 33
0.0
  0
MTEXT
  5
556A1
330
54892
100
AcDbEntity
  8
2
100
AcDbMText
 10
26.98750749999999
 20
43.47700601619285
 30
0.0
 40
3.5
 41
0.0
 71
     5
 72
     1
  1
\A1;53.975 [2.125"]
  7
simplex
 73
     1
 44
0.892857
1001
ACAD
1000
MTEXTBEGIN
1070
    73
1070
     1
1070
    44
1040
0.892857
1070
    74
1070
     0
1000
MTEXTEND
  0
POINT
  5
556A2
330
54892
100
AcDbEntity
  8
Defpoints
 62
     0
100
AcDbPoint
 10
53.975009
 20
5.055141471329306
 30
0.0
  0
POINT
  5
556A3
330
54892
100
AcDbEntity
  8
Defpoints
 62
     0
100
AcDbPoint
 10
0.0000089999999773
 20
7.937499999999992
 30
0.0
  0
POINT
  5
556A4
330
54892
100
AcDbEntity
  8
Defpoints
 62
     0
100
AcDbPoint
 10
0.0000089999999792
 20
39.42700601619286
 30
0.0
  0
ENDBLK
  5
5489D
330
54892
100
AcDbEntity
  8
0
100
AcDbBlockEnd
  0
BLOCK
  5
55BED
330
55BE4
100
AcDbEntity
  8
0
100
AcDbBlockBegin
  2
*D6
 70
     1
 10
0.0
 20
0.0
 30
0.0
  3
*D6
  1

  0
LINE
  5
55F2B
330
55BE4
100
AcDbEntity
  8
2
100
AcDbLine
 10
112.2999999999999
 20
7.999999998900022
 30
0.0
 11
130.7381426913437
 21
7.999999998900016
 31
0.0
  0
LINE
  5
55F2C
330
55BE4
100
AcDbEntity
  8
2
100
AcDbLine
 10
129.2381426913437
 20
4.499999998900017
 30
0.0
 11
129.2381426913437
 21
-8.000000000000007
 31
0.0
  0
LINE
  5
55F2D
330
55BE4
100
AcDbEntity
  8
2
100
AcDbLine
 10
129.2381426913437
 20
-8.000000000000007
 30
0.0
 11
129.2381426913437
 21
-49.35000000000001
 31
0.0
  0
SOLID
  5
55F2E
330
55BE4
100
AcDbEntity
  8
2
100
AcDbTrace
 10
128.6548093580103
 20
4.499999998900017
 30
0.0
 11
129.821476024677
 21
4.499999998900017
 31
0.0
 12
129.2381426913437
 22
7.999999998900017
 32
0.0
 13
129.2381426913437
 23
7.999999998900017
 33
0.0
  0
MTEXT
  5
55F2F
330
55BE4
100
AcDbEntity
  8
2
100
AcDbMText
 10
125.1881426913437
 20
-30.42499999999999
 30
0.0
 40
3.5
 41
0.0
 71
     5
 72
     1
  1
\A1;%%c16 [%%c.630"]
  7
simplex
 11
0.0000000000000001
 21
1.0
 31
0.0
 73
     1
 44
1.0
1001
ACAD
1000
MTEXTBEGIN
1070
    73
1070
     1
1070
    44
1040
1.0
1070
    74
1070
     0
1000
MTEXTEND
  0
POINT
  5
55F30
330
55BE4
100
AcDbEntity
  8
Defpoints
 62
     0
100
AcDbPoint
 10
106.2999999999999
 20
-8.0
 30
0.0
  0
POINT
  5
55F31
330
55BE4
100
AcDbEntity
  8
Defpoints
 62
     0
100
AcDbPoint
 10
112.2999999999999
 20
7.999999998900022
 30
0.0
  0
POINT
  5
55F32
330
55BE4
100
AcDbEntity
  8
Defpoints
 62
     0
100
AcDbPoint
 10
129.2381426913437
 20
7.999999998900017
 30
0.0
  0
ENDBLK
  5
55BEE
330
55BE4
100
AcDbEntity
  8
0
100
AcDbBlockEnd
  0
BLOCK
  5
55C05
330
55BFA
100
AcDbEntity
  8
0
100
AcDbBlockBegin
  2
*D7
 70
     1
 10
0.0
 20
0.0
 30
0.0
  3
*D7
  1

  0
LINE
  5
55F05
330
55BFA
100
AcDbEntity
  8
2
100
AcDbLine
 10
94.29999999999997
 20
-7.699999998899982
 30
0.0
 11
79.27329896152919
 21
-7.699999998899977
 31
0.0
  0
LINE
  5
55F06
330
55BFA
100
AcDbEntity
  8
2
100
AcDbLine
 10
94.29999999999997
 20
7.699999998899982
 30
0.0
 11
79.27329896152919
 21
7.699999998899986
 31
0.0
  0
LINE
  5
55F07
330
55BFA
100
AcDbEntity
  8
2
100
AcDbLine
 10
80.77329896152919
 20
4.199999998899986
 30
0.0
 11
80.77329896152919
 21
-4.199999998899977
 31
0.0
  0
LINE
  5
55F08
330
55BFA
100
AcDbEntity
  8
2
100
AcDbLine
 10
80.77329896152919
 20
-7.699999998899977
 30
0.0
 11
80.77329896152917
 21
-58.96666666556662
 31
0.0
  0
SOLID
  5
55F09
330
55BFA
100
AcDbEntity
  8
2
100
AcDbTrace
 10
80.18996562819586
 20
4.199999998899986
 30
0.0
 11
81.35663229486253
 21
4.199999998899986
 31
0.0
 12
80.77329896152919
 22
7.699999998899986
 32
0.0
 13
80.77329896152919
 23
7.699999998899986
 33
0.0
  0
SOLID
  5
55F0A
330
55BFA
100
AcDbEntity
  8
2
100
AcDbTrace
 10
80.18996562819586
 20
-4.199999998899977
 30
0.0
 11
81.35663229486253
 21
-4.199999998899977
 31
0.0
 12
80.77329896152919
 22
-7.699999998899977
 32
0.0
 13
80.77329896152919
 23
-7.699999998899977
 33
0.0
  0
MTEXT
  5
55F0B
330
55BFA
100
AcDbEntity
  8
2
100
AcDbMText
 10
76.7232989615292
 20
-37.70833333223328
 30
0.0
 40
3.5
 41
0.0
 71
     5
 72
     1
  1
\A1;%%c15.4 [%%C.606"]
  7
simplex
 11
0.0000000000000001
 21
1.0
 31
0.0
 73
     1
 44
1.0
1001
ACAD
1000
MTEXTBEGIN
1070
    73
1070
     1
1070
    44
1040
1.0
1070
    74
1070
     0
1000
MTEXTEND
  0
POINT
  5
55F0C
330
55BFA
100
AcDbEntity
  8
Defpoints
 62
     0
100
AcDbPoint
 10
94.29999999999997
 20
-7.699999998899982
 30
0.0
  0
POINT
  5
55F0D
330
55BFA
100
AcDbEntity
  8
Defpoints
 62
     0
100
AcDbPoint
 10
94.29999999999997
 20
7.699999998899982
 30
0.0
  0
POINT
  5
55F0E
330
55BFA
100
AcDbEntity
  8
Defpoints
 62
     0
100
AcDbPoint
 10
80.77329896152919
 20
7.699999998899986
 30
0.0
  0
ENDBLK
  5
55C06
330
55BFA
100
AcDbEntity
  8
0
100
AcDbBlockEnd
  0
BLOCK
  5
55C12
330
55C07
100
AcDbEntity
  8
0
100
AcDbBlockBegin
  2
*D8
 70
     1
 10
0.0
 20
0.0
 30
0.0
  3
*D8
  1

  0
LINE
  5
55F0F
330
55C07
100
AcDbEntity
  8
2
100
AcDbLine
 10
94.30000000000005
 20
7.687499999999943
 30
0.0
 11
94.30000000000005
 21
25.26084676492738
 31
0.0
  0
LINE
  5
55F10
330
55C07
100
AcDbEntity
  8
2
100
AcDbLine
 10
114.3
 20
5.055141471329079
 30
0.0
 11
114.3
 21
25.26084676492738
 31
0.0
  0
LINE
  5
55F11
330
55C07
100
AcDbEntity
  8
2
100
AcDbLine
 10
110.8
 20
23.76084676492738
 30
0.0
 11
97.80000000000004
 21
23.76084676492738
 31
0.0
  0
LINE
  5
55F12
330
55C07
100
AcDbEntity
  8
2
100
AcDbLine
 10
94.30000000000005
 20
23.76084676492738
 30
0.0
 11
50.32499500000001
 21
23.76084676492738
 31
0.0
  0
SOLID
  5
55F13
330
55C07
100
AcDbEntity
  8
2
100
AcDbTrace
 10
110.8
 20
24.34418009826071
 30
0.0
 11
110.8
 21
23.17751343159405
 31
0.0
 12
114.3
 22
23.76084676492738
 32
0.0
 13
114.3
 23
23.76084676492738
 33
0.0
  0
SOLID
  5
55F14
330
55C07
100
AcDbEntity
  8
2
100
AcDbTrace
 10
97.80000000000004
 20
24.34418009826071
 30
0.0
 11
97.80000000000004
 21
23.17751343159405
 31
0.0
 12
94.30000000000005
 22
23.76084676492738
 32
0.0
 13
94.30000000000005
 23
23.76084676492738
 33
0.0
  0
MTEXT
  5
55F15
330
55C07
100
AcDbEntity
  8
2
100
AcDbMText
 10
66.33332833333334
 20
27.81084676492738
 30
0.0
 40
3.5
 41
0.0
 71
     5
 72
     1
  1
\A1;20 [.787"]
  7
simplex
 73
     1
 44
0.892857
1001
ACAD
1000
MTEXTBEGIN
1070
    73
1070
     1
1070
    44
1040
0.892857
1070
    74
1070
     0
1000
MTEXTEND
  0
POINT
  5
55F16
330
55C07
100
AcDbEntity
  8
Defpoints
 62
     0
100
AcDbPoint
 10
94.30000000000005
 20
7.687499999999943
 30
0.0
  0
POINT
  5
55F17
330
55C07
100
AcDbEntity
  8
Defpoints
 62
     0
100
AcDbPoint
 10
114.3
 20
5.055141471329079
 30
0.0
  0
POINT
  5
55F18
330
55C07
100
AcDbEntity
  8
Defpoints
 62
     0
100
AcDbPoint
 10
114.3
 20
23.76084676492738
 30
0.0
  0
ENDBLK
  5
55C13
330
55C07
100
AcDbEntity
  8
0
100
AcDbBlockEnd
  0
BLOCK
  5
55C1E
330
55C14
100
AcDbEntity
  8
0
100
AcDbBlockBegin
  2
*D9
 70
     1
 10
0.0
 20
0.0
 30
0.0
  3
*D9
  1

  0
LINE
  5
55F19
330
55C14
100
AcDbEntity
  8
2
100
AcDbLine
 10
114.300009
 20
5.055141471329306
 30
0.0
 11
114.300009
 21
40.92700601619288
 31
0.0
  0
LINE
  5
55F1A
330
55C14
100
AcDbEntity
  8
2
100
AcDbLine
 10
60.32500899999998
 20
7.9375
 30
0.0
 11
60.32500899999998
 21
40.92700601619288
 31
0.0
  0
LINE
  5
55F1B
330
55C14
100
AcDbEntity
  8
2
100
AcDbLine
 10
110.800009
 20
39.42700601619288
 30
0.0
 11
63.82500899999998
 21
39.42700601619288
 31
0.0
  0
SOLID
  5
55F1C
330
55C14
100
AcDbEntity
  8
2
100
AcDbTrace
 10
110.800009
 20
40.01033934952622
 30
0.0
 11
110.800009
 21
38.84367268285955
 31
0.0
 12
114.300009
 22
39.42700601619288
 32
0.0
 13
114.300009
 23
39.42700601619288
 33
0.0
  0
SOLID
  5
55F1D
330
55C14
100
AcDbEntity
  8
2
100
AcDbTrace
 10
63.82500899999998
 20
40.01033934952622
 30
0.0
 11
63.82500899999998
 21
38.84367268285955
 31
0.0
 12
60.32500899999998
 22
39.42700601619288
 32
0.0
 13
60.32500899999998
 23
39.42700601619288
 33
0.0
  0
MTEXT
  5
55F1E
330
55C14
100
AcDbEntity
  8
2
100
AcDbMText
 10
87.31250749999999
 20
43.47700601619288
 30
0.0
 40
3.5
 41
0.0
 71
     5
 72
     1
  1
\A1;53.975 [2.125"]
  7
simplex
 73
     1
 44
0.892857
1001
ACAD
1000
MTEXTBEGIN
1070
    73
1070
     1
1070
    44
1040
0.892857
1070
    74
1070
     0
1000
MTEXTEND
  0
POINT
  5
55F1F
330
55C14
100
AcDbEntity
  8
Defpoints
 62
     0
100
AcDbPoint
 10
114.300009
 20
5.055141471329306
 30
0.0
  0
POINT
  5
55F20
330
55C14
100
AcDbEntity
  8
Defpoints
 62
     0
100
AcDbPoint
 10
60.32500899999998
 20
7.9375
 30
0.0
  0
POINT
  5
55F21
330
55C14
100
AcDbEntity
  8
Defpoints
 62
     0
100
AcDbPoint
 10
60.32500899999998
 20
39.42700601619288
 30
0.0
  0
ENDBLK
  5
55C1F
330
55C14
100
AcDbEntity
  8
0
100
AcDbBlockEnd
  0
BLOCK
  5
55C2B
330
55C20
100
AcDbEntity
  8
0
100
AcDbBlockBegin
  2
*D10
 70
     1
 10
0.0
 20
0.0
 30
0.0
  3
*D10
  1

  0
LINE
  5
55D24
330
55C20
100
AcDbEntity
  8
sk2
100
AcDbLine
 10
-78.37500700000005
 20
-7.937499999999971
 30
0.0
 11
-108.815259
 21
-7.937499999999962
 31
0.0
  0
LINE
  5
55D25
330
55C20
100
AcDbEntity
  8
sk2
100
AcDbLine
 10
-78.374999
 20
7.937500000000056
 30
0.0
 11
-108.815259
 21
7.937500000000063
 31
0.0
  0
LINE
  5
55D26
330
55C20
100
AcDbEntity
  8
sk2
100
AcDbLine
 10
-107.315259
 20
4.437500000000063
 30
0.0
 11
-107.315259
 21
-4.437499999999962
 31
0.0
  0
LINE
  5
55D27
330
55C20
100
AcDbEntity
  8
sk2
100
AcDbLine
 10
-107.315259
 20
-7.937499999999962
 30
0.0
 11
-107.315259
 21
-64.64375000000001
 31
0.0
  0
SOLID
  5
55D28
330
55C20
100
AcDbEntity
  8
sk2
100
AcDbTrace
 10
-107.8985923333333
 20
4.437500000000063
 30
0.0
 11
-106.7319256666667
 21
4.437500000000063
 31
0.0
 12
-107.315259
 22
7.937500000000063
 32
0.0
 13
-107.315259
 23
7.937500000000063
 33
0.0
  0
SOLID
  5
55D29
330
55C20
100
AcDbEntity
  8
sk2
100
AcDbTrace
 10
-107.8985923333333
 20
-4.437499999999962
 30
0.0
 11
-106.7319256666667
 21
-4.437499999999962
 31
0.0
 12
-107.315259
 22
-7.937499999999962
 32
0.0
 13
-107.315259
 23
-7.937499999999962
 33
0.0
  0
MTEXT
  5
55D2A
330
55C20
100
AcDbEntity
  8
sk2
100
AcDbMText
 10
-111.365259
 20
-39.59375000000004
 30
0.0
 40
3.5
 41
0.0
 71
     5
 72
     1
  1
\A1;%%c15.875 [%%C.625"]
  7
simplex
 11
0.0000000000000001
 21
1.0
 31
0.0
 73
     1
 44
0.892857
1001
ACAD
1000
MTEXTBEGIN
1070
    73
1070
     1
1070
    44
1040
0.892857
1070
    74
1070
     0
1000
MTEXTEND
  0
POINT
  5
55D2B
330
55C20
100
AcDbEntity
  8
Defpoints
 62
     0
100
AcDbPoint
 10
-78.37500700000005
 20
-7.937499999999971
 30
0.0
  0
POINT
  5
55D2C
330
55C20
100
AcDbEntity
  8
Defpoints
 62
     0
100
AcDbPoint
 10
-78.374999
 20
7.937500000000056
 30
0.0
  0
POINT
  5
55D2D
330
55C20
100
AcDbEntity
  8
Defpoints
 62
     0
100
AcDbPoint
 10
-107.315259
 20
7.937500000000063
 30
0.0
  0
ENDBLK
  5
55C2C
330
55C20
100
AcDbEntity
  8
0
100
AcDbBlockEnd
  0
BLOCK
  5
55C37
330
55C2D
100
AcDbEntity
  8
0
100
AcDbBlockBegin
  2
*D11
 70
     1
 10
0.0
 20
0.0
 30
0.0
  3
*D11
  1

  0
LINE
  5
55F22
330
55C2D
100
AcDbEntity
  8
sk2
100
AcDbLine
 10
-19.04999100000002
 20
6.937514000000049
 30
0.0
 11
-19.04999100000001
 21
54.79558000973429
 31
0.0
  0
LINE
  5
55F23
330
55C2D
100
AcDbEntity
  8
sk2
100
AcDbLine
 10
114.300009
 20
5.055141471329079
 30
0.0
 11
114.300009
 21
54.79558000973429
 31
0.0
  0
LINE
  5
55F24
330
55C2D
100
AcDbEntity
  8
sk2
100
AcDbLine
 10
-15.54999100000001
 20
53.29558000973428
 30
0.0
 11
110.800009
 21
53.29558000973428
 31
0.0
  0
SOLID
  5
55F25
330
55C2D
100
AcDbEntity
  8
sk2
100
AcDbTrace
 10
-15.54999100000001
 20
53.87891334306762
 30
0.0
 11
-15.54999100000001
 21
52.71224667640095
 31
0.0
 12
-19.04999100000001
 22
53.29558000973428
 32
0.0
 13
-19.04999100000001
 23
53.29558000973428
 33
0.0
  0
SOLID
  5
55F26
330
55C2D
100
AcDbEntity
  8
sk2
100
AcDbTrace
 10
110.800009
 20
53.87891334306762
 30
0.0
 11
110.800009
 21
52.71224667640095
 31
0.0
 12
114.300009
 22
53.29558000973428
 32
0.0
 13
114.300009
 23
53.29558000973428
 33
0.0
  0
MTEXT
  5
55F27
330
55C2D
100
AcDbEntity
  8
sk2
100
AcDbMText
 10
47.55680759401418
 20
57.34558000973429
 30
0.0
 40
3.5
 41
0.0
 71
     5
 72
     1
  1
\A1;133.35 [5.250"]
  7
simplex
 73
     1
 44
0.892857
1001
ACAD
1000
MTEXTBEGIN
1070
    73
1070
     1
1070
    44
1040
0.892857
1070
    74
1070
     0
1000
MTEXTEND
  0
POINT
  5
55F28
330
55C2D
100
AcDbEntity
  8
Defpoints
 62
     0
100
AcDbPoint
 10
-19.04999100000002
 20
6.937514000000049
 30
0.0
  0
POINT
  5
55F29
330
55C2D
100
AcDbEntity
  8
Defpoints
 62
     0
100
AcDbPoint
 10
114.300009
 20
5.055141471329079
 30
0.0
  0
POINT
  5
55F2A
330
55C2D
100
AcDbEntity
  8
Defpoints
 62
     0
100
AcDbPoint
 10
114.300009
 20
53.29558000973428
 30
0.0
  0
ENDBLK
  5
55C38
330
55C2D
100
AcDbEntity
  8
0
100
AcDbBlockEnd
  0
BLOCK
  5
55C82
330
55C7A
100
AcDbEntity
  8
0
100
AcDbBlockBegin
  2
*D12
 70
     1
 10
0.0
 20
0.0
 30
0.0
  3
*D12
  1

  0
LINE
  5
55F3A
330
55C7A
100
AcDbEntity
  8
2
100
AcDbLine
 10
148.09686567413
 20
32.36834992501716
 30
0.0
 11
116.7225750949232
 21
9.174510906233031
 31
0.0
  0
MTEXT
  5
55F3B
330
55C7A
100
AcDbEntity
  8
2
100
AcDbMText
 10
131.4093776375177
 20
25.06844267864072
 30
0.0
 40
3.5
 41
0.0
 71
     5
 72
     1
  1
\A1;R2 [R.079"]
  7
simplex
 11
0.804125345900217
 21
0.5944597783541427
 31
0.0
 73
     1
 44
1.0
1001
ACAD
1000
MTEXTBEGIN
1070
    73
1070
     1
1070
    44
1040
1.0
1070
    74
1070
     0
1000
MTEXTEND
  0
SOLID
  5
55F3C
330
55C7A
100
AcDbEntity
  8
2
100
AcDbTrace
 10
116.3758068908833
 20
9.643584024674829
 30
0.0
 11
117.0693432989631
 21
8.70543778779124
 31
0.0
 12
113.9081363842725
 22
7.093901681993536
 32
0.0
 13
113.9081363842725
 23
7.093901681993536
 33
0.0
  0
LINE
  5
55F3D
330
55C7A
100
AcDbEntity
  8
2
100
AcDbLine
 10
112.2098856924719
 20
5.904982125285123
 30
0.0
 11
112.3898856924719
 21
5.904982125285116
 31
0.0
  0
LINE
  5
55F3E
330
55C7A
100
AcDbEntity
  8
2
100
AcDbLine
 10
112.2998856924719
 20
5.814982125285119
 30
0.0
 11
112.2998856924719
 21
5.994982125285126
 31
0.0
  0
POINT
  5
55F3F
330
55C7A
100
AcDbEntity
  8
Defpoints
 62
     0
100
AcDbPoint
 10
113.9081363842725
 20
7.093901681993536
 30
0.0
  0
POINT
  5
55F40
330
55C7A
100
AcDbEntity
  8
Defpoints
 62
     0
100
AcDbPoint
 10
112.2998856924719
 20
5.904982125285123
 30
0.0
  0
ENDBLK
  5
55C83
330
55C7A
100
AcDbEntity
  8
0
100
AcDbBlockEnd
  0
BLOCK
  5
55D68
330
55D67
100
AcDbEntity
  8
0
100
AcDbBlockBegin
  2
*D13
 70
     1
 10
0.0
 20
0.0
 30
0.0
  3
*D13
  1

  0
LINE
  5
55D69
330
55D67
100
AcDbEntity
  8
sk2
100
AcDbLine
 10
-88.89999999999998
 20
6.937515000000032
 30
0.0
 11
-88.89999999999998
 21
52.56385882017696
 31
0.0
  0
LINE
  5
55D6A
330
55D67
100
AcDbEntity
  8
sk2
100
AcDbLine
 10
114.3
 20
-0.0000000000000142
 30
0.0
 11
114.3
 21
52.56385882017696
 31
0.0
  0
LINE
  5
55D6B
330
55D67
100
AcDbEntity
  8
sk2
100
AcDbLine
 10
-85.39999999999997
 20
51.06385882017696
 30
0.0
 11
110.8
 21
51.06385882017696
 31
0.0
  0
SOLID
  5
55D6C
330
55D67
100
AcDbEntity
  8
sk2
100
AcDbTrace
 10
-85.39999999999997
 20
51.6471921535103
 30
0.0
 11
-85.39999999999997
 21
50.48052548684363
 31
0.0
 12
-88.89999999999998
 22
51.06385882017696
 32
0.0
 13
-88.89999999999998
 23
51.06385882017696
 33
0.0
  0
SOLID
  5
55D6D
330
55D67
100
AcDbEntity
  8
sk2
100
AcDbTrace
 10
110.8
 20
51.6471921535103
 30
0.0
 11
110.8
 21
50.48052548684363
 31
0.0
 12
114.3
 22
51.06385882017696
 32
0.0
 13
114.3
 23
51.06385882017696
 33
0.0
  0
MTEXT
  5
55D6E
330
55D67
100
AcDbEntity
  8
sk2
100
AcDbMText
 10
12.70000700000003
 20
55.11385882017695
 30
0.0
 40
3.5
 41
0.0
 71
     5
 72
     1
  1
\A1;203.2 [8.000"]
  7
simplex
 73
     1
 44
0.892857
1001
ACAD
1000
MTEXTBEGIN
1070
    73
1070
     1
1070
    44
1040
0.892857
1070
    74
1070
     0
1000
MTEXTEND
  0
POINT
  5
55D6F
330
55D67
100
AcDbEntity
  8
Defpoints
 62
     0
100
AcDbPoint
 10
-88.89999999999998
 20
6.937515000000032
 30
0.0
  0
POINT
  5
55D70
330
55D67
100
AcDbEntity
  8
Defpoints
 62
     0
100
AcDbPoint
 10
114.3
 20
-0.0000000000000142
 30
0.0
  0
POINT
  5
55D71
330
55D67
100
AcDbEntity
  8
Defpoints
 62
     0
100
AcDbPoint
 10
114.3
 20
51.06385882017696
 30
0.0
  0
ENDBLK
  5
55D72
330
55D67
100
AcDbEntity
  8
0
100
AcDbBlockEnd
  0
BLOCK
  5
55D74
330
55D73
100
AcDbEntity
  8
0
100
AcDbBlockBegin
  2
*D14
 70
     1
 10
0.0
 20
0.0
 30
0.0
  3
*D14
  1

  0
LINE
  5
55D75
330
55D73
100
AcDbEntity
  8
2
100
AcDbLine
 10
114.3
 20
-0.0000000000000142
 30
0.0
 11
114.3
 21
38.17664276870477
 31
0.0
  0
LINE
  5
55D76
330
55D73
100
AcDbEntity
  8
2
100
AcDbLine
 10
0.0
 20
7.937499999999971
 30
0.0
 11
0.0000000000000019
 21
38.17664276870477
 31
0.0
  0
LINE
  5
55D77
330
55D73
100
AcDbEntity
  8
2
100
AcDbLine
 10
110.8
 20
36.67664276870477
 30
0.0
 11
3.500000000000001
 21
36.67664276870477
 31
0.0
  0
SOLID
  5
55D78
330
55D73
100
AcDbEntity
  8
2
100
AcDbTrace
 10
110.8
 20
37.25997610203811
 30
0.0
 11
110.8
 21
36.09330943537143
 31
0.0
 12
114.3
 22
36.67664276870477
 32
0.0
 13
114.3
 23
36.67664276870477
 33
0.0
  0
SOLID
  5
55D79
330
55D73
100
AcDbEntity
  8
2
100
AcDbTrace
 10
3.500000000000001
 20
37.25997610203811
 30
0.0
 11
3.500000000000001
 21
36.09330943537143
 31
0.0
 12
0.0000000000000018
 22
36.67664276870477
 32
0.0
 13
0.0000000000000018
 23
36.67664276870477
 33
0.0
  0
MTEXT
  5
55D7A
330
55D73
100
AcDbEntity
  8
2
100
AcDbMText
 10
52.73115345473968
 20
40.72664276870475
 30
0.0
 40
3.5
 41
0.0
 71
     5
 72
     1
  1
\A1;114.3 [4.500"]
  7
simplex
 73
     1
 44
0.892857
1001
ACAD
1000
MTEXTBEGIN
1070
    73
1070
     1
1070
    44
1040
0.892857
1070
    74
1070
     0
1000
MTEXTEND
  0
POINT
  5
55D7B
330
55D73
100
AcDbEntity
  8
Defpoints
 62
     0
100
AcDbPoint
 10
114.3
 20
-0.0000000000000142
 30
0.0
  0
POINT
  5
55D7C
330
55D73
100
AcDbEntity
  8
Defpoints
 62
     0
100
AcDbPoint
 10
0.0
 20
7.937499999999971
 30
0.0
  0
POINT
  5
55D7D
330
55D73
100
AcDbEntity
  8
Defpoints
 62
     0
100
AcDbPoint
 10
0.0000000000000018
 20
36.67664276870477
 30
0.0
  0
ENDBLK
  5
55D7E
330
55D73
100
AcDbEntity
  8
0
100
AcDbBlockEnd
  0
BLOCK
  5
55D80
330
55D7F
100
AcDbEntity
  8
0
100
AcDbBlockBegin
  2
*D15
 70
     1
 10
0.0
 20
0.0
 30
0.0
  3
*D15
  1

  0
LINE
  5
55D81
330
55D7F
100
AcDbEntity
  8
2
100
AcDbLine
 10
94.29999999999999
 20
7.687499999999957
 30
0.0
 11
94.29999999999999
 21
25.26084676492738
 31
0.0
  0
LINE
  5
55D82
330
55D7F
100
AcDbEntity
  8
2
100
AcDbLine
 10
114.3
 20
-0.0000000000000284
 30
0.0
 11
114.3
 21
25.26084676492738
 31
0.0
  0
LINE
  5
55D83
330
55D7F
100
AcDbEntity
  8
2
100
AcDbLine
 10
110.8
 20
23.76084676492738
 30
0.0
 11
97.80000000000001
 21
23.76084676492738
 31
0.0
  0
LINE
  5
55D84
330
55D7F
100
AcDbEntity
  8
2
100
AcDbLine
 10
94.29999999999999
 20
23.76084676492738
 30
0.0
 11
50.324995
 21
23.76084676492738
 31
0.0
  0
SOLID
  5
55D85
330
55D7F
100
AcDbEntity
  8
2
100
AcDbTrace
 10
110.8
 20
24.34418009826071
 30
0.0
 11
110.8
 21
23.17751343159406
 31
0.0
 12
114.3
 22
23.76084676492738
 32
0.0
 13
114.3
 23
23.76084676492738
 33
0.0
  0
SOLID
  5
55D86
330
55D7F
100
AcDbEntity
  8
2
100
AcDbTrace
 10
97.80000000000001
 20
24.34418009826071
 30
0.0
 11
97.80000000000001
 21
23.17751343159406
 31
0.0
 12
94.29999999999999
 22
23.76084676492738
 32
0.0
 13
94.29999999999999
 23
23.76084676492738
 33
0.0
  0
MTEXT
  5
55D87
330
55D7F
100
AcDbEntity
  8
2
100
AcDbMText
 10
66.33332833333333
 20
27.81084676492738
 30
0.0
 40
3.5
 41
0.0
 71
     5
 72
     1
  1
\A1;20 [.787"]
  7
simplex
 73
     1
 44
0.892857
1001
ACAD
1000
MTEXTBEGIN
1070
    73
1070
     1
1070
    44
1040
0.892857
1070
    74
1070
     0
1000
MTEXTEND
  0
POINT
  5
55D88
330
55D7F
100
AcDbEntity
  8
Defpoints
 62
     0
100
AcDbPoint
 10
94.29999999999999
 20
7.687499999999957
 30
0.0
  0
POINT
  5
55D89
330
55D7F
100
AcDbEntity
  8
Defpoints
 62
     0
100
AcDbPoint
 10
114.3
 20
-0.0000000000000284
 30
0.0
  0
POINT
  5
55D8A
330
55D7F
100
AcDbEntity
  8
Defpoints
 62
     0
100
AcDbPoint
 10
114.3
 20
23.76084676492738
 30
0.0
  0
ENDBLK
  5
55D8B
330
55D7F
100
AcDbEntity
  8
0
100
AcDbBlockEnd
  0
BLOCK
  5
55D8D
330
55D8C
100
AcDbEntity
  8
0
100
AcDbBlockBegin
  2
*D16
 70
     1
 10
0.0
 20
0.0
 30
0.0
  3
*D16
  1

  0
LINE
  5
55D8E
330
55D8C
100
AcDbEntity
  8
sk2
100
AcDbLine
 10
-88.11453042549141
 20
-7.937499999999985
 30
0.0
 11
-117.700111
 21
-7.937499999999976
 31
0.0
  0
LINE
  5
55D8F
330
55D8C
100
AcDbEntity
  8
sk2
100
AcDbLine
 10
-87.89999900000003
 20
7.937499999999985
 30
0.0
 11
-117.700111
 21
7.937499999999992
 31
0.0
  0
LINE
  5
55D90
330
55D8C
100
AcDbEntity
  8
sk2
100
AcDbLine
 10
-116.200111
 20
4.437499999999993
 30
0.0
 11
-116.200111
 21
-4.437499999999976
 31
0.0
  0
LINE
  5
55D91
330
55D8C
100
AcDbEntity
  8
sk2
100
AcDbLine
 10
-116.200111
 20
-7.937499999999976
 30
0.0
 11
-116.200111
 21
-64.64375
 31
0.0
  0
SOLID
  5
55D92
330
55D8C
100
AcDbEntity
  8
sk2
100
AcDbTrace
 10
-116.7834443333333
 20
4.437499999999993
 30
0.0
 11
-115.6167776666666
 21
4.437499999999993
 31
0.0
 12
-116.200111
 22
7.937499999999992
 32
0.0
 13
-116.200111
 23
7.937499999999992
 33
0.0
  0
SOLID
  5
55D93
330
55D8C
100
AcDbEntity
  8
sk2
100
AcDbTrace
 10
-116.7834443333333
 20
-4.437499999999976
 30
0.0
 11
-115.6167776666666
 21
-4.437499999999976
 31
0.0
 12
-116.200111
 22
-7.937499999999976
 32
0.0
 13
-116.200111
 23
-7.937499999999976
 33
0.0
  0
MTEXT
  5
55D94
330
55D8C
100
AcDbEntity
  8
sk2
100
AcDbMText
 10
-120.250111
 20
-39.59375000000002
 30
0.0
 40
3.5
 41
0.0
 71
     5
 72
     1
  1
\A1;%%c15.875 [%%C.625"]
  7
simplex
 11
0.0000000000000001
 21
1.0
 31
0.0
 73
     1
 44
0.892857
1001
ACAD
1000
MTEXTBEGIN
1070
    73
1070
     1
1070
    44
1040
0.892857
1070
    74
1070
     0
1000
MTEXTEND
  0
POINT
  5
55D95
330
55D8C
100
AcDbEntity
  8
Defpoints
 62
     0
100
AcDbPoint
 10
-88.11453042549141
 20
-7.937499999999985
 30
0.0
  0
POINT
  5
55D96
330
55D8C
100
AcDbEntity
  8
Defpoints
 62
     0
100
AcDbPoint
 10
-87.89999900000003
 20
7.937499999999985
 30
0.0
  0
POINT
  5
55D97
330
55D8C
100
AcDbEntity
  8
Defpoints
 62
     0
100
AcDbPoint
 10
-116.200111
 20
7.937499999999992
 30
0.0
  0
ENDBLK
  5
55D98
330
55D8C
100
AcDbEntity
  8
0
100
AcDbBlockEnd
  0
BLOCK
  5
55D9A
330
55D99
100
AcDbEntity
  8
0
100
AcDbBlockBegin
  2
*D17
 70
     1
 10
0.0
 20
0.0
 30
0.0
  3
*D17
  1

  0
LINE
  5
55D9B
330
55D99
100
AcDbEntity
  8
2
100
AcDbLine
 10
47.53544588842021
 20
-7.699999998899982
 30
0.0
 11
46.03544588842021
 21
-7.699999998899982
 31
0.0
  0
LINE
  5
55D9C
330
55D99
100
AcDbEntity
  8
2
100
AcDbLine
 10
47.2734832883675
 20
7.699999998899982
 30
0.0
 11
49.03544588842021
 21
7.699999998899982
 31
0.0
  0
LINE
  5
55D9D
330
55D99
100
AcDbEntity
  8
2
100
AcDbLine
 10
47.53544588842021
 20
4.199999998899983
 30
0.0
 11
47.53544588842021
 21
-4.199999998899983
 31
0.0
  0
LINE
  5
55D9E
330
55D99
100
AcDbEntity
  8
2
100
AcDbLine
 10
47.53544588842021
 20
-7.699999998899982
 30
0.0
 11
47.5354458884202
 21
-53.71666666556664
 31
0.0
  0
SOLID
  5
55D9F
330
55D99
100
AcDbEntity
  8
2
100
AcDbTrace
 10
46.95211255508687
 20
4.199999998899983
 30
0.0
 11
48.11877922175355
 21
4.199999998899983
 31
0.0
 12
47.53544588842021
 22
7.699999998899982
 32
0.0
 13
47.53544588842021
 23
7.699999998899982
 33
0.0
  0
SOLID
  5
55DA0
330
55D99
100
AcDbEntity
  8
2
100
AcDbTrace
 10
46.95211255508687
 20
-4.199999998899983
 30
0.0
 11
48.11877922175355
 21
-4.199999998899983
 31
0.0
 12
47.53544588842021
 22
-7.699999998899982
 32
0.0
 13
47.53544588842021
 23
-7.699999998899982
 33
0.0
  0
MTEXT
  5
55DA1
330
55D99
100
AcDbEntity
  8
2
100
AcDbMText
 10
43.4854458884202
 20
-32.4583333322333
 30
0.0
 40
3.5
 41
0.0
 71
     5
 72
     1
  1
\A1;%%c15.4 [%%C.606"]
  7
simplex
 11
0.0000000000000001
 21
1.0
 31
0.0
 73
     1
 44
1.0
1001
ACAD
1000
MTEXTBEGIN
1070
    73
1070
     1
1070
    44
1040
1.0
1070
    74
1070
     0
1000
MTEXTEND
  0
POINT
  5
55DA2
330
55D99
100
AcDbEntity
  8
Defpoints
 62
     0
100
AcDbPoint
 10
47.53544588842021
 20
-7.699999998899982
 30
0.0
  0
POINT
  5
55DA3
330
55D99
100
AcDbEntity
  8
Defpoints
 62
     0
100
AcDbPoint
 10
47.2734832883675
 20
7.699999998899982
 30
0.0
  0
POINT
  5
55DA4
330
55D99
100
AcDbEntity
  8
Defpoints
 62
     0
100
AcDbPoint
 10
47.53544588842021
 20
7.699999998899982
 30
0.0
  0
ENDBLK
  5
55DA5
330
55D99
100
AcDbEntity
  8
0
100
AcDbBlockEnd
  0
BLOCK
  5
55DA7
330
55DA6
100
AcDbEntity
  8
0
100
AcDbBlockBegin
  2
*D18
 70
     1
 10
0.0
 20
0.0
 30
0.0
  3
*D18
  1

  0
LINE
  5
55DA8
330
55DA6
100
AcDbEntity
  8
2
100
AcDbLine
 10
158.0277142309958
 20
46.9850490654879
 30
0.0
 11
114.8242095795229
 21
7.695175926280518
 31
0.0
  0
MTEXT
  5
55DA9
330
55DA6
100
AcDbEntity
  8
2
100
AcDbMText
 10
136.7703413812924
 20
33.12759260592458
 30
0.0
 40
3.5
 41
0.0
 71
     5
 72
     1
  1
\A1;R7.9375 [R.312"]
  7
simplex
 11
0.7398210779910688
 21
0.6728036656857132
 31
0.0
 73
     1
 44
1.0
1001
ACAD
1000
MTEXTBEGIN
1070
    73
1070
     1
1070
    44
1040
1.0
1070
    74
1070
     0
1000
MTEXTEND
  0
SOLID
  5
55DAA
330
55DA6
100
AcDbEntity
  8
2
100
AcDbTrace
 10
114.4317407745395
 20
8.126738221775305
 30
0.0
 11
115.2166783845062
 21
7.263613630785733
 31
0.0
 12
112.2348358065541
 22
5.340363096380521
 32
0.0
 13
112.2348358065541
 23
5.340363096380521
 33
0.0
  0
LINE
  5
55DAB
330
55DA6
100
AcDbEntity
  8
2
100
AcDbLine
 10
106.2725060000001
 20
-0.0000159999997678
 30
0.0
 11
106.4525060000001
 21
-0.0000159999997678
 31
0.0
  0
LINE
  5
55DAC
330
55DA6
100
AcDbEntity
  8
2
100
AcDbLine
 10
106.3625060000001
 20
-0.0900159999997499
 30
0.0
 11
106.3625060000001
 21
0.0899840000002286
 31
0.0
  0
POINT
  5
55DAD
330
55DA6
100
AcDbEntity
  8
Defpoints
 62
     0
100
AcDbPoint
 10
112.2348358065541
 20
5.340363096380521
 30
0.0
  0
POINT
  5
55DAE
330
55DA6
100
AcDbEntity
  8
Defpoints
 62
     0
100
AcDbPoint
 10
106.3625060000001
 20
-0.0000159999997607
 30
0.0
  0
ENDBLK
  5
55DAF
330
55DA6
100
AcDbEntity
  8
0
100
AcDbBlockEnd
  0
BLOCK
  5
55DB1
330
55DB0
100
AcDbEntity
  8
0
100
AcDbBlockBegin
  2
*D19
 70
     1
 10
0.0
 20
0.0
 30
0.0
  3
*D19
  1

  0
LINE
  5
55DB2
330
55DB0
100
AcDbEntity
  8
2
100
AcDbLine
 10
106.5294137098221
 20
7.937484000000026
 30
0.0
 11
139.193003049855
 21
7.937484000000018
 31
0.0
  0
LINE
  5
55DB3
330
55DB0
100
AcDbEntity
  8
2
100
AcDbLine
 10
137.693003049855
 20
4.437484000000018
 30
0.0
 11
137.693003049855
 21
-7.937515999999977
 31
0.0
  0
LINE
  5
55DB4
330
55DB0
100
AcDbEntity
  8
2
100
AcDbLine
 10
137.693003049855
 20
-7.937515999999977
 30
0.0
 11
137.693003049855
 21
-61.53751600000001
 31
0.0
  0
SOLID
  5
55DB5
330
55DB0
100
AcDbEntity
  8
2
100
AcDbTrace
 10
137.1096697165216
 20
4.437484000000018
 30
0.0
 11
138.2763363831883
 21
4.437484000000016
 31
0.0
 12
137.693003049855
 22
7.937484000000018
 32
0.0
 13
137.693003049855
 23
7.937484000000018
 33
0.0
  0
MTEXT
  5
55DB6
330
55DB0
100
AcDbEntity
  8
2
100
AcDbMText
 10
133.643003049855
 20
-36.48751599999999
 30
0.0
 40
3.5
 41
0.0
 71
     5
 72
     1
  1
\A1;%%c15.875 [%%c.625"]
  7
simplex
 11
0.0000000000000001
 21
1.0
 31
0.0
 73
     1
 44
1.0
1001
ACAD
1000
MTEXTBEGIN
1070
    73
1070
     1
1070
    44
1040
1.0
1070
    74
1070
     0
1000
MTEXTEND
  0
POINT
  5
55DB7
330
55DB0
100
AcDbEntity
  8
Defpoints
 62
     0
100
AcDbPoint
 10
122.4150810000001
 20
-7.937515999999972
 30
0.0
  0
POINT
  5
55DB8
330
55DB0
100
AcDbEntity
  8
Defpoints
 62
     0
100
AcDbPoint
 10
106.5294137098221
 20
7.937484000000026
 30
0.0
  0
POINT
  5
55DB9
330
55DB0
100
AcDbEntity
  8
Defpoints
 62
     0
100
AcDbPoint
 10
137.693003049855
 20
7.937484000000018
 30
0.0
  0
ENDBLK
  5
55DBA
330
55DB0
100
AcDbEntity
  8
0
100
AcDbBlockEnd
  0
BLOCK
  5
55E7D
330
55E72
100
AcDbEntity
  8
0
100
AcDbBlockBegin
  2
*D21
 70
     1
 10
0.0
 20
0.0
 30
0.0
  3
*D21
  1

  0
LINE
  5
55EC6
330
55E72
100
AcDbEntity
  8
2
100
AcDbLine
 10
57.42985310087544
 20
-187.0153457414643
 30
0.0
 11
55.92985310087541
 21
-187.0153457414643
 31
0.0
  0
LINE
  5
55EC7
330
55E72
100
AcDbEntity
  8
2
100
AcDbLine
 10
57.16789050082275
 20
-171.6153457436643
 30
0.0
 11
58.92985310087542
 21
-171.6153457436643
 31
0.0
  0
LINE
  5
55EC8
330
55E72
100
AcDbEntity
  8
2
100
AcDbLine
 10
57.42985310087543
 20
-175.1153457436643
 30
0.0
 11
57.42985310087542
 21
-183.5153457414643
 31
0.0
  0
LINE
  5
55EC9
330
55E72
100
AcDbEntity
  8
2
100
AcDbLine
 10
57.42985310087542
 20
-187.0153457414643
 30
0.0
 11
57.42985310087541
 21
-233.032012408131
 31
0.0
  0
SOLID
  5
55ECA
330
55E72
100
AcDbEntity
  8
2
100
AcDbTrace
 10
56.84651976754209
 20
-175.1153457436643
 30
0.0
 11
58.01318643420876
 21
-175.1153457436643
 31
0.0
 12
57.42985310087543
 22
-171.6153457436643
 32
0.0
 13
57.42985310087543
 23
-171.6153457436643
 33
0.0
  0
SOLID
  5
55ECB
330
55E72
100
AcDbEntity
  8
2
100
AcDbTrace
 10
56.84651976754208
 20
-183.5153457414643
 30
0.0
 11
58.01318643420875
 21
-183.5153457414643
 31
0.0
 12
57.42985310087542
 22
-187.0153457414643
 32
0.0
 13
57.42985310087542
 23
-187.0153457414643
 33
0.0
  0
MTEXT
  5
55ECC
330
55E72
100
AcDbEntity
  8
2
100
AcDbMText
 10
53.37985310087545
 20
-211.7736790747976
 30
0.0
 40
3.5
 41
0.0
 71
     5
 72
     1
  1
\A1;%%c15.4 [%%C.606"]
  7
simplex
 11
0.0000000000000001
 21
1.0
 31
0.0
 73
     1
 44
1.0
1001
ACAD
1000
MTEXTBEGIN
1070
    73
1070
     1
1070
    44
1040
1.0
1070
    74
1070
     0
1000
MTEXTEND
  0
POINT
  5
55ECD
330
55E72
100
AcDbEntity
  8
Defpoints
 62
     0
100
AcDbPoint
 10
57.42985310087544
 20
-187.0153457414643
 30
0.0
  0
POINT
  5
55ECE
330
55E72
100
AcDbEntity
  8
Defpoints
 62
     0
100
AcDbPoint
 10
57.16789050082275
 20
-171.6153457436643
 30
0.0
  0
POINT
  5
55ECF
330
55E72
100
AcDbEntity
  8
Defpoints
 62
     0
100
AcDbPoint
 10
57.42985310087543
 20
-171.6153457436643
 30
0.0
  0
ENDBLK
  5
55E7E
330
55E72
100
AcDbEntity
  8
0
100
AcDbBlockEnd
  0
BLOCK
  5
55E89
330
55E7F
100
AcDbEntity
  8
0
100
AcDbBlockBegin
  2
*D22
 70
     1
 10
0.0
 20
0.0
 30
0.0
  3
*D22
  1

  0
LINE
  5
55F41
330
55E7F
100
AcDbEntity
  8
sk2
100
AcDbLine
 10
-88.90000000000009
 20
6.937515000000018
 30
0.0
 11
-88.90000000000009
 21
52.56385882017696
 31
0.0
  0
LINE
  5
55F42
330
55E7F
100
AcDbEntity
  8
sk2
100
AcDbLine
 10
114.2999999999999
 20
0.0
 30
0.0
 11
114.2999999999999
 21
52.56385882017696
 31
0.0
  0
LINE
  5
55F43
330
55E7F
100
AcDbEntity
  8
sk2
100
AcDbLine
 10
-85.40000000000009
 20
51.06385882017696
 30
0.0
 11
110.7999999999999
 21
51.06385882017696
 31
0.0
  0
SOLID
  5
55F44
330
55E7F
100
AcDbEntity
  8
sk2
100
AcDbTrace
 10
-85.40000000000009
 20
51.6471921535103
 30
0.0
 11
-85.40000000000009
 21
50.48052548684363
 31
0.0
 12
-88.90000000000009
 22
51.06385882017696
 32
0.0
 13
-88.90000000000009
 23
51.06385882017696
 33
0.0
  0
SOLID
  5
55F45
330
55E7F
100
AcDbEntity
  8
sk2
100
AcDbTrace
 10
110.7999999999999
 20
51.6471921535103
 30
0.0
 11
110.7999999999999
 21
50.48052548684363
 31
0.0
 12
114.2999999999999
 22
51.06385882017696
 32
0.0
 13
114.2999999999999
 23
51.06385882017696
 33
0.0
  0
MTEXT
  5
55F46
330
55E7F
100
AcDbEntity
  8
sk2
100
AcDbMText
 10
12.70000699999991
 20
55.11385882017695
 30
0.0
 40
3.5
 41
0.0
 71
     5
 72
     1
  1
\A1;203.2 [8.000"]
  7
simplex
 73
     1
 44
0.892857
1001
ACAD
1000
MTEXTBEGIN
1070
    73
1070
     1
1070
    44
1040
0.892857
1070
    74
1070
     0
1000
MTEXTEND
  0
POINT
  5
55F47
330
55E7F
100
AcDbEntity
  8
Defpoints
 62
     0
100
AcDbPoint
 10
-88.90000000000009
 20
6.937515000000018
 30
0.0
  0
POINT
  5
55F48
330
55E7F
100
AcDbEntity
  8
Defpoints
 62
     0
100
AcDbPoint
 10
114.2999999999999
 20
0.0
 30
0.0
  0
POINT
  5
55F49
330
55E7F
100
AcDbEntity
  8
Defpoints
 62
     0
100
AcDbPoint
 10
114.2999999999999
 20
51.06385882017696
 30
0.0
  0
ENDBLK
  5
55E8A
330
55E7F
100
AcDbEntity
  8
0
100
AcDbBlockEnd
  0
BLOCK
  5
55E95
330
55E8B
100
AcDbEntity
  8
0
100
AcDbBlockBegin
  2
*D23
 70
     1
 10
0.0
 20
0.0
 30
0.0
  3
*D23
  1

  0
LINE
  5
55F4A
330
55E8B
100
AcDbEntity
  8
2
100
AcDbLine
 10
114.2999999999999
 20
0.0
 30
0.0
 11
114.2999999999999
 21
38.17664276870477
 31
0.0
  0
LINE
  5
55F4B
330
55E8B
100
AcDbEntity
  8
2
100
AcDbLine
 10
-0.0000000000001137
 20
7.937499999999971
 30
0.0
 11
-0.0000000000001118
 21
38.17664276870477
 31
0.0
  0
LINE
  5
55F4C
330
55E8B
100
AcDbEntity
  8
2
100
AcDbLine
 10
110.7999999999999
 20
36.67664276870477
 30
0.0
 11
3.499999999999888
 21
36.67664276870477
 31
0.0
  0
SOLID
  5
55F4D
330
55E8B
100
AcDbEntity
  8
2
100
AcDbTrace
 10
110.7999999999999
 20
37.25997610203811
 30
0.0
 11
110.7999999999999
 21
36.09330943537143
 31
0.0
 12
114.2999999999999
 22
36.67664276870477
 32
0.0
 13
114.2999999999999
 23
36.67664276870477
 33
0.0
  0
SOLID
  5
55F4E
330
55E8B
100
AcDbEntity
  8
2
100
AcDbTrace
 10
3.499999999999888
 20
37.25997610203811
 30
0.0
 11
3.499999999999888
 21
36.09330943537143
 31
0.0
 12
-0.0000000000001119
 22
36.67664276870477
 32
0.0
 13
-0.0000000000001119
 23
36.67664276870477
 33
0.0
  0
MTEXT
  5
55F4F
330
55E8B
100
AcDbEntity
  8
2
100
AcDbMText
 10
52.73115345473957
 20
40.72664276870476
 30
0.0
 40
3.5
 41
0.0
 71
     5
 72
     1
  1
\A1;114.3 [4.500"]
  7
simplex
 73
     1
 44
0.892857
1001
ACAD
1000
MTEXTBEGIN
1070
    73
1070
     1
1070
    44
1040
0.892857
1070
    74
1070
     0
1000
MTEXTEND
  0
POINT
  5
55F50
330
55E8B
100
AcDbEntity
  8
Defpoints
 62
     0
100
AcDbPoint
 10
114.2999999999999
 20
0.0
 30
0.0
  0
POINT
  5
55F51
330
55E8B
100
AcDbEntity
  8
Defpoints
 62
     0
100
AcDbPoint
 10
-0.0000000000001137
 20
7.937499999999971
 30
0.0
  0
POINT
  5
55F52
330
55E8B
100
AcDbEntity
  8
Defpoints
 62
     0
100
AcDbPoint
 10
-0.0000000000001119
 20
36.67664276870477
 30
0.0
  0
ENDBLK
  5
55E96
330
55E8B
100
AcDbEntity
  8
0
100
AcDbBlockEnd
  0
BLOCK
  5
55EA2
330
55E97
100
AcDbEntity
  8
0
100
AcDbBlockBegin
  2
*D24
 70
     1
 10
0.0
 20
0.0
 30
0.0
  3
*D24
  1

  0
LINE
  5
55EE2
330
55E97
100
AcDbEntity
  8
2
100
AcDbLine
 10
104.1944072124552
 20
-171.6278457425643
 30
0.0
 11
104.1944072124552
 21
-154.0544989776369
 31
0.0
  0
LINE
  5
55EE3
330
55E97
100
AcDbEntity
  8
2
100
AcDbLine
 10
124.1944072124552
 20
-179.3153457425643
 30
0.0
 11
124.1944072124552
 21
-154.0544989776369
 31
0.0
  0
LINE
  5
55EE4
330
55E97
100
AcDbEntity
  8
2
100
AcDbLine
 10
120.6944072124552
 20
-155.5544989776369
 30
0.0
 11
107.6944072124552
 21
-155.5544989776369
 31
0.0
  0
LINE
  5
55EE5
330
55E97
100
AcDbEntity
  8
2
100
AcDbLine
 10
104.1944072124552
 20
-155.5544989776369
 30
0.0
 11
60.21940221245523
 21
-155.5544989776369
 31
0.0
  0
SOLID
  5
55EE6
330
55E97
100
AcDbEntity
  8
2
100
AcDbTrace
 10
120.6944072124552
 20
-154.9711656443036
 30
0.0
 11
120.6944072124552
 21
-156.1378323109703
 31
0.0
 12
124.1944072124552
 22
-155.5544989776369
 32
0.0
 13
124.1944072124552
 23
-155.5544989776369
 33
0.0
  0
SOLID
  5
55EE7
330
55E97
100
AcDbEntity
  8
2
100
AcDbTrace
 10
107.6944072124552
 20
-154.9711656443036
 30
0.0
 11
107.6944072124552
 21
-156.1378323109703
 31
0.0
 12
104.1944072124552
 22
-155.5544989776369
 32
0.0
 13
104.1944072124552
 23
-155.5544989776369
 33
0.0
  0
MTEXT
  5
55EE8
330
55E97
100
AcDbEntity
  8
2
100
AcDbMText
 10
76.22773554578856
 20
-151.5044989776369
 30
0.0
 40
3.5
 41
0.0
 71
     5
 72
     1
  1
\A1;20 [.787"]
  7
simplex
 73
     1
 44
0.892857
1001
ACAD
1000
MTEXTBEGIN
1070
    73
1070
     1
1070
    44
1040
0.892857
1070
    74
1070
     0
1000
MTEXTEND
  0
POINT
  5
55EE9
330
55E97
100
AcDbEntity
  8
Defpoints
 62
     0
100
AcDbPoint
 10
104.1944072124552
 20
-171.6278457425643
 30
0.0
  0
POINT
  5
55EEA
330
55E97
100
AcDbEntity
  8
Defpoints
 62
     0
100
AcDbPoint
 10
124.1944072124552
 20
-179.3153457425643
 30
0.0
  0
POINT
  5
55EEB
330
55E97
100
AcDbEntity
  8
Defpoints
 62
     0
100
AcDbPoint
 10
124.1944072124552
 20
-155.5544989776369
 30
0.0
  0
ENDBLK
  5
55EA3
330
55E97
100
AcDbEntity
  8
0
100
AcDbBlockEnd
  0
BLOCK
  5
55EAF
330
55EA4
100
AcDbEntity
  8
0
100
AcDbBlockBegin
  2
*D25
 70
     1
 10
0.0
 20
0.0
 30
0.0
  3
*D25
  1

  0
LINE
  5
55F53
330
55EA4
100
AcDbEntity
  8
sk2
100
AcDbLine
 10
-88.11453042549151
 20
-7.9375
 30
0.0
 11
-117.7001110000001
 21
-7.937499999999992
 31
0.0
  0
LINE
  5
55F54
330
55EA4
100
AcDbEntity
  8
sk2
100
AcDbLine
 10
-87.89999900000015
 20
7.9375
 30
0.0
 11
-117.7001110000001
 21
7.937500000000007
 31
0.0
  0
LINE
  5
55F55
330
55EA4
100
AcDbEntity
  8
sk2
100
AcDbLine
 10
-116.2001110000001
 20
4.437500000000007
 30
0.0
 11
-116.2001110000001
 21
-4.437499999999992
 31
0.0
  0
LINE
  5
55F56
330
55EA4
100
AcDbEntity
  8
sk2
100
AcDbLine
 10
-116.2001110000001
 20
-7.937499999999992
 30
0.0
 11
-116.2001110000001
 21
-64.64375000000001
 31
0.0
  0
SOLID
  5
55F57
330
55EA4
100
AcDbEntity
  8
sk2
100
AcDbTrace
 10
-116.7834443333334
 20
4.437500000000007
 30
0.0
 11
-115.6167776666668
 21
4.437500000000007
 31
0.0
 12
-116.2001110000001
 22
7.937500000000007
 32
0.0
 13
-116.2001110000001
 23
7.937500000000007
 33
0.0
  0
SOLID
  5
55F58
330
55EA4
100
AcDbEntity
  8
sk2
100
AcDbTrace
 10
-116.7834443333334
 20
-4.437499999999992
 30
0.0
 11
-115.6167776666668
 21
-4.437499999999992
 31
0.0
 12
-116.2001110000001
 22
-7.937499999999992
 32
0.0
 13
-116.2001110000001
 23
-7.937499999999992
 33
0.0
  0
MTEXT
  5
55F59
330
55EA4
100
AcDbEntity
  8
sk2
100
AcDbMText
 10
-120.2501110000001
 20
-39.59375000000003
 30
0.0
 40
3.5
 41
0.0
 71
     5
 72
     1
  1
\A1;%%c15.875 [%%C.625"]
  7
simplex
 11
0.0000000000000001
 21
1.0
 31
0.0
 73
     1
 44
0.892857
1001
ACAD
1000
MTEXTBEGIN
1070
    73
1070
     1
1070
    44
1040
0.892857
1070
    74
1070
     0
1000
MTEXTEND
  0
POINT
  5
55F5A
330
55EA4
100
AcDbEntity
  8
Defpoints
 62
     0
100
AcDbPoint
 10
-88.11453042549151
 20
-7.9375
 30
0.0
  0
POINT
  5
55F5B
330
55EA4
100
AcDbEntity
  8
Defpoints
 62
     0
100
AcDbPoint
 10
-87.89999900000015
 20
7.9375
 30
0.0
  0
POINT
  5
55F5C
330
55EA4
100
AcDbEntity
  8
Defpoints
 62
     0
100
AcDbPoint
 10
-116.2001110000001
 20
7.937500000000007
 30
0.0
  0
ENDBLK
  5
55EB0
330
55EA4
100
AcDbEntity
  8
0
100
AcDbBlockEnd
  0
BLOCK
  5
55EB9
330
55EB1
100
AcDbEntity
  8
0
100
AcDbBlockBegin
  2
*D26
 70
     1
 10
0.0
 20
0.0
 30
0.0
  3
*D26
  1

  0
LINE
  5
55EF6
330
55EB1
100
AcDbEntity
  8
2
100
AcDbLine
 10
167.9221214434507
 20
-132.3302966770761
 30
0.0
 11
124.718616791978
 21
-171.6201698162838
 31
0.0
  0
MTEXT
  5
55EF7
330
55EB1
100
AcDbEntity
  8
2
100
AcDbMText
 10
146.6647485937474
 20
-146.1877531366395
 30
0.0
 40
3.5
 41
0.0
 71
     5
 72
     1
  1
\A1;R7.9375 [R.312"]
  7
simplex
 11
0.7398210779910644
 21
0.6728036656857182
 31
0.0
 73
     1
 44
1.0
1001
ACAD
1000
MTEXTBEGIN
1070
    73
1070
     1
1070
    44
1040
1.0
1070
    74
1070
     0
1000
MTEXTEND
  0
SOLID
  5
55EF8
330
55EB1
100
AcDbEntity
  8
2
100
AcDbTrace
 10
124.3261479869947
 20
-171.188607520789
 30
0.0
 11
125.1110855969614
 21
-172.0517321117785
 31
0.0
 12
122.1292430190093
 22
-173.9749826461838
 32
0.0
 13
122.1292430190093
 23
-173.9749826461838
 33
0.0
  0
LINE
  5
55EF9
330
55EB1
100
AcDbEntity
  8
2
100
AcDbLine
 10
116.1669132124553
 20
-179.3153617425641
 30
0.0
 11
116.3469132124553
 21
-179.3153617425641
 31
0.0
  0
LINE
  5
55EFA
330
55EB1
100
AcDbEntity
  8
2
100
AcDbLine
 10
116.2569132124553
 20
-179.4053617425641
 30
0.0
 11
116.2569132124554
 21
-179.225361742564
 31
0.0
  0
POINT
  5
55EFB
330
55EB1
100
AcDbEntity
  8
Defpoints
 62
     0
100
AcDbPoint
 10
122.1292430190093
 20
-173.9749826461838
 30
0.0
  0
POINT
  5
55EFC
330
55EB1
100
AcDbEntity
  8
Defpoints
 62
     0
100
AcDbPoint
 10
116.2569132124553
 20
-179.3153617425641
 30
0.0
  0
ENDBLK
  5
55EBA
330
55EB1
100
AcDbEntity
  8
0
100
AcDbBlockEnd
  0
BLOCK
  5
55EC4
330
55EBB
100
AcDbEntity
  8
0
100
AcDbBlockBegin
  2
*D27
 70
     1
 10
0.0
 20
0.0
 30
0.0
  3
*D27
  1

  0
LINE
  5
55EFD
330
55EBB
100
AcDbEntity
  8
2
100
AcDbLine
 10
116.4238209222773
 20
-171.3778617425643
 30
0.0
 11
149.0874102623102
 21
-171.3778617425643
 31
0.0
  0
LINE
  5
55EFE
330
55EBB
100
AcDbEntity
  8
2
100
AcDbLine
 10
147.5874102623102
 20
-174.8778617425642
 30
0.0
 11
147.5874102623102
 21
-187.2528617425643
 31
0.0
  0
LINE
  5
55EFF
330
55EBB
100
AcDbEntity
  8
2
100
AcDbLine
 10
147.5874102623102
 20
-187.2528617425643
 30
0.0
 11
147.5874102623102
 21
-240.8528617425643
 31
0.0
  0
SOLID
  5
55F00
330
55EBB
100
AcDbEntity
  8
2
100
AcDbTrace
 10
147.0040769289768
 20
-174.8778617425642
 30
0.0
 11
148.1707435956435
 21
-174.8778617425642
 31
0.0
 12
147.5874102623102
 22
-171.3778617425643
 32
0.0
 13
147.5874102623102
 23
-171.3778617425643
 33
0.0
  0
MTEXT
  5
55F01
330
55EBB
100
AcDbEntity
  8
2
100
AcDbMText
 10
143.5374102623102
 20
-215.8028617425643
 30
0.0
 40
3.5
 41
0.0
 71
     5
 72
     1
  1
\A1;%%c15.875 [%%c.625"]
  7
simplex
 11
0.0000000000000001
 21
1.0
 31
0.0
 73
     1
 44
1.0
1001
ACAD
1000
MTEXTBEGIN
1070
    73
1070
     1
1070
    44
1040
1.0
1070
    74
1070
     0
1000
MTEXTEND
  0
POINT
  5
55F02
330
55EBB
100
AcDbEntity
  8
Defpoints
 62
     0
100
AcDbPoint
 10
132.3094882124553
 20
-187.2528617425643
 30
0.0
  0
POINT
  5
55F03
330
55EBB
100
AcDbEntity
  8
Defpoints
 62
     0
100
AcDbPoint
 10
116.4238209222773
 20
-171.3778617425643
 30
0.0
  0
POINT
  5
55F04
330
55EBB
100
AcDbEntity
  8
Defpoints
 62
     0
100
AcDbPoint
 10
147.5874102623102
 20
-171.3778617425643
 30
0.0
  0
ENDBLK
  5
55EC5
330
55EBB
100
AcDbEntity
  8
0
100
AcDbBlockEnd
  0
ENDSEC
  0
SECTION
  2
ENTITIES
  0
INSERT
  5
68C
330
1F
100
AcDbEntity
  8
0
100
AcDbBlockReference
  2
zero block
 10
0.0
 20
0.0
 30
0.0
  0
MTEXT
  5
53AD9
330
1F
100
AcDbEntity
  8
sk6
100
AcDbMText
 10
-77.28028416281119
 20
86.35759531491373
 30
0.0
 40
5.0
 41
70.03712541027798
 71
     1
 72
     5
  1
SRFU10S10LW\PSUFT16R20
  7
simplex
 73
     1
 44
1.0
1001
ACAD
1000
ACAD_MTEXT_DEFINED_HEIGHT_BEGIN
1070
    46
1040
0.0
1000
ACAD_MTEXT_DEFINED_HEIGHT_END
1000
MTEXTBEGIN
1070
    73
1070
     1
1070
    44
1040
1.0
1070
    74
1070
     0
1000
MTEXTEND
  0
LWPOLYLINE
  5
559A7
330
1F
100
AcDbEntity
  8
1
100
AcDbPolyline
 90
       66
 70
     0
 43
0.0
 10
113.4617706963999
 20
-0.6544657744000233
 42
-0.0056909046567134
 10
113.4450181243831
 20
-0.8173133009156854
 42
-0.0056910368867449
 10
113.4245631212101
 20
-0.9797373530876996
 42
-0.0056910873725819
 10
113.4004163049748
 20
-1.141653729906209
 42
-0.0056910984707713
 10
113.3725901841323
 20
-1.302978522172081
 42
-0.0056910755169393
 10
113.3410991791277
 20
-1.463628131543315
 42
-0.0056910694029909
 10
113.3059596093465
 20
-1.623519292538303
 42
-0.0056910986942876
 10
113.2671896834678
 20
-1.782569166223111
 42
-0.0056911238915483
 10
113.2248094924126
 20
-1.940695338315691
 42
-0.0056911372092909
 10
113.1788410005473
 20
-2.09781585779757
 42
-0.0056911571919732
 10
113.1293080315967
 20
-2.253849299323205
 42
-0.0056911715784177
 10
113.0762362624798
 20
-2.408714791763087
 42
-0.005691091860814
 10
113.0196531940623
 20
-2.562332110613397
 42
-0.0056909200626064
 10
112.9595881472031
 20
-2.714621638209506
 42
-0.0056910618675328
 10
112.8960723295634
 20
-2.865504219766704
 42
-0.0056913043961811
 10
112.8291385324081
 20
-3.014902105857571
 42
-0.0056907549985412
 10
112.7588214807076
 20
-3.162737692851408
 42
-0.0056914914711686
 10
112.6851574837208
 20
-3.308934592531499
 42
-0.0056907277321216
 10
112.6081848091213
 20
-3.453417019563175
 42
-0.0056914077364443
 10
112.5279432448286
 20
-3.596110000434008
 42
-0.0056908383862592
 10
112.4444745567876
 20
-3.736939563847073
 42
-0.0056912092948962
 10
112.3578218308373
 20
-3.87583265250069
 42
-0.0056909688051329
 10
112.26803015038
 20
-4.012717418498623
 42
-0.0056910245682757
 10
112.1751458462307
 20
-4.14752279886531
 42
-0.0056911497399696
 10
112.0792172457411
 20
-4.280179078137705
 42
-0.005690872406839
 10
111.980293870638
 20
-4.410617380780308
 42
-0.0056913393859314
 10
111.8784271500726
 20
-4.538770242131704
 42
-0.0056907724582737
 10
111.7736697270153
 20
-4.66457114600891
 42
-0.0056914880905165
 10
111.666075995773
 20
-4.787954992063419
 42
-0.0056907231059509
 10
111.5557016338503
 20
-4.908857785424571
 42
-0.0056678974029382
 10
111.4430793670549
 20
-5.026730452270896
 42
-0.0056907238448078
 10
111.3273277616158
 20
-5.142495520777713
 42
-0.0056914844358631
 10
111.2089710627573
 20
-5.255595813681992
 42
-0.0056907748205526
 10
111.0880706652561
 20
-5.365972799951093
 42
-0.0056913338007302
 10
110.9646891242273
 20
-5.473569174619966
 42
-0.0056908766572875
 10
110.8388904899646
 20
-5.578329323231513
 42
-0.0056911436707039
 10
110.7107398158718
 20
-5.680198795458096
 42
-0.0056910292833749
 10
110.5803036495951
 20
-5.779124987650987
 42
-0.0056909640979332
 10
110.4476494369046
 20
-5.875056445794
 42
-0.0056912188444952
 10
110.312846054457
 20
-5.9679436507447
 42
-0.0056908311225073
 10
110.1759632305419
 20
-6.057738291570501
 42
-0.0056913995851162
 10
110.0370720014828
 20
-6.144393995702159
 42
-0.0056907490294686
 10
109.8962442542284
 20
-6.22786573197041
 42
-0.0056915216010712
 10
109.7535530229529
 20
-6.308110338958897
 42
-0.0056907178216101
 10
109.6090722128156
 20
-6.385086184099009
 42
-0.0056915357767657
 10
109.4628767014359
 20
-6.458753387459665
 42
-0.0056907375711992
 10
109.3150422572247
 20
-6.529073813719405
 42
-0.0056914339929191
 10
109.1656454522241
 20
-6.596010941659499
 42
-0.0056908082822798
 10
109.0147637511807
 20
-6.659530210134817
 42
-0.0056912619990218
 10
108.8624752747644
 20
-6.719598542343334
 42
-0.005690929396703
 10
108.7088590083391
 20
-6.776185005188295
 42
-0.005691070220134
 10
108.553994477028
 20
-6.829260060719491
 42
-0.0056911019485067
 10
108.3979620038216
 20
-6.878796433006696
 42
-0.0056909057247924
 10
108.2408423694215
 20
-6.924768227346987
 42
-0.005691287605776
 10
108.0827170579367
 20
-6.967151836945191
 42
-0.0056907982457563
 10
107.9236679567784
 20
-7.005925108284287
 42
-0.0056914739745901
 10
107.7637775056889
 20
-7.041068101820003
 42
-0.0056907068632362
 10
107.6031285245131
 20
-7.072562499269992
 42
-0.0056914875265298
 10
107.4418043536833
 20
-7.100392066546817
 42
-0.0056908233805731
 10
107.2798885554755
 20
-7.124542324321339
 42
-0.0056916520186013
 10
107.117464727373
 20
-7.145000681830397
 42
-0.0056903391899082
 10
106.9546172540008
 20
-7.161756774496068
 42
-0.0056911014128578
 10
106.7914317101711
 20
-7.174801936413301
 42
-0.0056924532105925
 10
106.6279913599682
 20
-7.184128914653313
 42
-0.0056912521161931
 10
106.4643763240504
 20
-7.18973230470749
 42
-0.0057087168763654
 10
106.2999999999999
 20
-7.191612125099992
  0
LWPOLYLINE
  5
559A8
330
1F
100
AcDbEntity
  8
1
100
AcDbPolyline
 90
       45
 70
     0
 43
0.0
 10
112.8947084727999
 20
0.2622278751999829
 42
0.0036483680040605
 10
112.7845229282146
 20
0.4213933820361433
 42
0.0035941097979407
 10
112.6720282289211
 20
0.578935743613215
 42
0.0034298536818941
 10
112.5573379153708
 20
0.7348871031327917
 42
0.0033605580659409
 10
112.4405408370321
 20
0.8892670150886772
 42
0.0033071451430027
 10
112.3216958615921
 20
1.042076077769791
 42
0.0032836751616642
 10
112.2008476053893
 20
1.193305848303565
 42
0.0032787188133124
 10
112.0780258865644
 20
1.342937292270363
 42
0.0032874841411816
 10
111.9532506032488
 20
1.49094358959337
 42
0.0033092919392613
 10
111.8265336796009
 20
1.637290961454368
 42
0.0033429604111758
 10
111.6978811901191
 20
1.781939714514776
 42
0.0033844323474382
 10
111.567294767022
 20
1.924844886090794
 42
0.0034324770759833
 10
111.4347723929595
 20
2.065956555959473
 42
0.0034875842808921
 10
111.300309880648
 20
2.205220708995283
 42
0.0035482482275513
 10
111.1639014595386
 20
2.342579417627888
 42
0.0036041999410095
 10
111.0255410744954
 20
2.477971515954493
 42
0.0035765826979552
 10
110.8852495082308
 20
2.611361633131139
 42
0.0035417893867546
 10
110.7430731669733
 20
2.742741071512965
 42
0.003507460062088
 10
110.5990587615211
 20
2.872103067963792
 42
0.0034690570610568
 10
110.4532533109971
 20
2.9994429909961
 42
0.0034363347945509
 10
110.3057038877501
 20
3.124758038991046
 42
0.0034233441494613
 10
110.1564492211316
 20
3.248037172542466
 42
0.0034416727474317
 10
110.005518038163
 20
3.369257966743163
 42
0.003481141977941
 10
109.8529230444495
 20
3.488377410682089
 42
0.0035169653896895
 10
109.6986758066277
 20
3.605349437694853
 42
0.0035543694127953
 10
109.5427899545783
 20
3.720128594017068
 42
0.0035959856079924
 10
109.3852787382215
 20
3.832666832131535
 42
0.0036395024873393
 10
109.2261556523603
 20
3.9429141370764
 42
0.0036844704260561
 10
109.0654348617016
 20
4.050818880574951
 42
0.003729732478692
 10
108.9031317998432
 20
4.156328627302571
 42
0.0037771174160109
 10
108.7392631911887
 20
4.259390031716178
 42
0.0038290228928371
 10
108.5738458807621
 20
4.359946821797136
 42
0.0038709342371056
 10
108.4068990874256
 20
4.457943430878883
 42
0.0039025887137019
 10
108.2384487934545
 20
4.55333221639097
 42
0.0038726055061318
 10
108.0685345720773
 20
4.646088335816613
 42
0.0038350659605513
 10
107.8972108760934
 20
4.736214747809809
 42
0.0038060859254337
 10
107.724529946226
 20
4.823712587397266
 42
0.0037773716061609
 10
107.5505418068965
 20
4.908581418223889
 42
0.0037491122134937
 10
107.3752959228732
 20
4.990821786035268
 42
0.0037250014980223
 10
107.1988403800446
 20
5.070433591634865
 42
0.0037033859384662
 10
107.0212215403775
 20
5.147415437266544
 42
0.0036854229919934
 10
106.8424846474909
 20
5.221764203862761
 42
0.0036676896236731
 10
106.6626740565489
 20
5.293476346063556
 42
0.0036528719749782
 10
106.4818318533068
 20
5.362549212435084
 42
0.0036563020859767
 10
106.2999999999999
 20
5.428971229299974
  0
ARC
  5
559A9
330
1F
100
AcDbEntity
  8
1
100
AcDbCircle
 10
106.2999999999999
 20
-0.0000000000000284
 30
0.0
 40
3.25
100
AcDbArc
 50
270.0
 51
90.0
  0
CIRCLE
  5
559AA
330
1F
100
AcDbEntity
  8
1
100
AcDbCircle
 10
106.2999999999999
 20
-0.0000000000000284
 30
0.0
 40
2.25
  0
CIRCLE
  5
559AB
330
1F
100
AcDbEntity
  8
1
100
AcDbCircle
 10
106.2999999999999
 20
-0.0000000000000284
 30
0.0
 40
3.0
  0
ARC
  5
559AC
330
1F
100
AcDbEntity
  8
1
100
AcDbCircle
 10
107.41475
 20
-1.930803637799981
 30
0.0
 40
0.8259999999999998
100
AcDbArc
 50
94.68549035500316
 51
145.3145096449979
  0
ARC
  5
559AD
330
1F
100
AcDbEntity
  8
1
100
AcDbCircle
 10
107.41475
 20
1.930803637699965
 30
0.0
 40
0.8259999999999998
100
AcDbArc
 50
214.6854903550019
 51
265.3145096450001
  0
LWPOLYLINE
  5
559AE
330
1F
100
AcDbEntity
  8
1
100
AcDbPolyline
 90
       15
 70
     0
 43
0.0
 10
113.4617706963999
 20
-0.6544657744000233
 42
0.0035434142582436
 10
113.4249756994999
 20
-0.5860401729000273
 10
113.3875469153231
 20
-0.5187143401531104
 10
113.3493042216802
 20
-0.4518472392136347
 10
113.3103523733053
 20
-0.3853906916962444
 10
113.2707704780778
 20
-0.3193073594096916
 10
113.2306263230393
 20
-0.2535640214017008
 10
113.1899745815903
 20
-0.1881333169368133
 10
113.1488615232483
 20
-0.1229914157520113
 10
113.1073262910683
 20
-0.0581178489544243
 10
113.0653997434861
 20
0.0065034745109642
 10
113.0231130841133
 20
0.0708896637264616
 10
112.9804987711911
 20
0.1350596632805718
 10
112.9375750482131
 20
0.1990232831630862
 10
112.8947084731
 20
0.2622278746999882
  0
ARC
  5
559AF
330
1F
100
AcDbEntity
  8
1
100
AcDbCircle
 10
108.5294999999999
 20
-0.0000000000000284
 30
0.0
 40
0.8259999999999998
100
AcDbArc
 50
154.6854903549983
 51
205.3145096450017
  0
ARC
  5
559B0
330
1F
100
AcDbEntity
  8
1
100
AcDbCircle
 10
107.3040107231999
 20
-0.5796658613000432
 30
0.0
 40
0.5296682774
100
AcDbArc
 50
274.6854903549998
 51
25.31450964500175
  0
ARC
  5
559B1
330
1F
100
AcDbEntity
  8
1
100
AcDbCircle
 10
107.3040107231999
 20
0.5796658612999864
 30
0.0
 40
0.5296682774
100
AcDbArc
 50
334.6854903549982
 51
85.3145096450001
  0
ARC
  5
559B2
330
1F
100
AcDbEntity
  8
1
100
AcDbCircle
 10
106.1999999999999
 20
-0.0000000000000284
 30
0.0
 40
3.25
100
AcDbArc
 50
90.0
 51
270.0
  0
LWPOLYLINE
  5
559B3
330
1F
100
AcDbEntity
  8
1
100
AcDbPolyline
 90
        8
 70
     0
 43
0.0
 10
104.1112473288999
 20
6.137842256099985
 42
0.0007309376098484
 10
103.8490198727863
 20
6.221935151353108
 42
0.0007064351536926
 10
103.5865515541101
 20
6.305273927501191
 42
0.0007202156225459
 10
103.3238489917575
 20
6.387871802274303
 42
0.0008004904594429
 10
103.0608965722829
 20
6.469670317883639
 42
0.0008786752564622
 10
102.7976708359909
 20
6.550584782311716
 42
0.0009498701562682
 10
102.5349801695
 20
6.630284459900025
 42
0.0009322831270784
 10
102.2998536119483
 20
6.700659110725894
 42
0.0009317852074172
  0
LWPOLYLINE
  5
559B4
330
1F
100
AcDbEntity
  8
1
100
AcDbPolyline
 90
       13
 70
     0
 43
0.0
 10
106.2999999999999
 20
5.428971229299974
 42
0.0018924096800623
 10
106.1191011474136
 20
5.492512470279478
 42
0.0020202399374288
 10
105.9377102015327
 20
5.554636216571793
 42
0.0017824010118138
 10
105.7558409784879
 20
5.615345244052888
 42
0.0013323425140326
 10
105.5735976924519
 20
5.674923092820562
 42
0.0010540592504601
 10
105.3910732422413
 20
5.733633915738977
 42
0.0007692296525606
 10
105.2083349154854
 20
5.791675719536017
 10
105.0254542504239
 20
5.849267729247684
 10
104.8425010652256
 20
5.906628967328174
 10
104.6595404328673
 20
5.963966396468862
 10
104.476634024256
 20
6.02147666624387
 42
-0.000725166870507
 10
104.2938569937523
 20
6.079396518663144
 42
-0.0006773926047716
 10
104.1112473034
 20
6.137842266299968
  0
LINE
  5
559B5
330
1F
100
AcDbEntity
  8
1
100
AcDbLine
 10
106.2999999999999
 20
3.249999999999971
 30
0.0
 11
106.1999999999999
 21
3.249999999999971
 31
0.0
  0
LWPOLYLINE
  5
559B6
330
1F
100
AcDbEntity
  8
1
100
AcDbPolyline
 90
       10
 70
     0
 43
0.0
 10
99.79999999999996
 20
7.355149413899994
 10
99.72547933718189
 20
7.369818089433834
 10
99.65084075191086
 20
7.383876757296802
 10
99.5760900565253
 20
7.397327367832191
 10
99.50121627988437
 20
7.410073256121478
 10
99.4262067413878
 20
7.421993931753661
 10
99.35105201181297
 20
7.432959954158661
 42
0.0039780613159534
 10
99.27574370560053
 20
7.442816342288296
 42
0.0052382013601372
 10
99.20026827541818
 20
7.4512933122123
 42
0.00543876154963
 10
99.1246249529
 20
7.458111200199994
  0
LINE
  5
559B7
330
1F
100
AcDbEntity
  8
1
100
AcDbLine
 10
102.2999999999999
 20
7.458111200199994
 30
0.0
 11
99.1246249529
 21
7.458111200199994
 31
0.0
  0
LINE
  5
559B8
330
1F
100
AcDbEntity
  8
1
100
AcDbLine
 10
99.97490551079991
 20
7.218676122199667
 30
0.0
 11
99.79999999999989
 21
7.289342535599672
 31
0.0
  0
LINE
  5
559B9
330
1F
100
AcDbEntity
  8
1
100
AcDbLine
 10
100.4113301028999
 20
7.21867612219998
 30
0.0
 11
99.79999999999996
 21
7.21867612219998
 31
0.0
  0
LINE
  5
559BA
330
1F
100
AcDbEntity
  8
1
100
AcDbLine
 10
99.79999999999996
 20
7.21867612219998
 30
0.0
 11
99.79999999999996
 21
7.355149413899994
 31
0.0
  0
ARC
  5
559BB
330
1F
100
AcDbEntity
  8
1
100
AcDbCircle
 10
106.2999999999999
 20
-1.159331722599971
 30
0.0
 40
0.5296682774
100
AcDbArc
 50
214.6854903550019
 51
325.3145096450038
  0
ARC
  5
559BC
330
1F
100
AcDbEntity
  8
1
100
AcDbCircle
 10
105.1852499999999
 20
-1.930803637799981
 30
0.0
 40
0.8259999999999998
100
AcDbArc
 50
34.68549035500198
 51
85.3145096450001
  0
ARC
  5
559BD
330
1F
100
AcDbEntity
  8
1
100
AcDbCircle
 10
105.2959892767999
 20
-0.5796658613000432
 30
0.0
 40
0.5296682774
100
AcDbArc
 50
154.6854903550042
 51
265.3145096450001
  0
ARC
  5
559BE
330
1F
100
AcDbEntity
  8
1
100
AcDbCircle
 10
104.0705
 20
-0.0000000000000284
 30
0.0
 40
0.8259999999999998
100
AcDbArc
 50
334.6854903549982
 51
25.31450964500175
  0
ARC
  5
559BF
330
1F
100
AcDbEntity
  8
1
100
AcDbCircle
 10
105.2959892767999
 20
0.5796658612999864
 30
0.0
 40
0.5296682774
100
AcDbArc
 50
94.68549035499989
 51
205.3145096450017
  0
ARC
  5
559C0
330
1F
100
AcDbEntity
  8
1
100
AcDbCircle
 10
106.2999999999999
 20
1.159331722599943
 30
0.0
 40
0.5296682774
100
AcDbArc
 50
34.6854903549962
 51
145.3145096449979
  0
ARC
  5
559C1
330
1F
100
AcDbEntity
  8
1
100
AcDbCircle
 10
105.1852499999999
 20
1.930803637699965
 30
0.0
 40
0.8259999999999998
100
AcDbArc
 50
274.6854903550032
 51
325.314509644998
  0
LINE
  5
559C2
330
1F
100
AcDbEntity
  8
1
100
AcDbLine
 10
106.2999999999999
 20
-3.25
 30
0.0
 11
106.1999999999999
 21
-3.25
 31
0.0
  0
LINE
  5
559C3
330
1F
100
AcDbEntity
  8
1
100
AcDbLine
 10
106.2999999999999
 20
-7.191612125099992
 30
0.0
 11
102.2999999999999
 21
-7.191612125099992
 31
0.0
  0
LINE
  5
559C4
330
1F
100
AcDbEntity
  8
1
100
AcDbLine
 10
99.79999999999996
 20
-7.410079956300022
 30
0.0
 11
99.79999999999996
 21
-7.218676122299996
 31
0.0
  0
LINE
  5
559C5
330
1F
100
AcDbEntity
  8
1
100
AcDbLine
 10
102.2999999999999
 20
-7.218676122299996
 30
0.0
 11
99.79999999999996
 21
-7.218676122299996
 31
0.0
  0
LINE
  5
559C6
330
1F
100
AcDbEntity
  8
1
100
AcDbLine
 10
102.2999999999999
 20
-7.410079956300022
 30
0.0
 11
99.79999999999996
 21
-7.410079956300022
 31
0.0
  0
LINE
  5
559C7
330
1F
100
AcDbEntity
  8
1
100
AcDbLine
 10
98.29999999999998
 20
0.0
 30
0.0
 11
98.29999999999998
 21
-7.464535146800017
 31
0.0
  0
LINE
  5
559C8
330
1F
100
AcDbEntity
  8
1
100
AcDbLine
 10
98.29999999999998
 20
0.0
 30
0.0
 11
98.29999999999998
 21
7.464535146800017
 31
0.0
  0
LWPOLYLINE
  5
559C9
330
1F
100
AcDbEntity
  8
1
100
AcDbPolyline
 90
        9
 70
     0
 43
0.0
 10
102.2998536119483
 20
6.700659110725894
 42
0.0001142602704711
 10
102.2711442393676
 20
6.709186578893819
 42
0.0011590072123897
 10
102.006963037443
 20
6.786924511796569
 42
0.0012997887650828
 10
101.7424034282263
 20
6.863364508386779
 42
0.0014667914705964
 10
101.4774261690776
 20
6.938343834321187
 42
0.0016888004856247
 10
101.2119813196621
 20
7.011649791483961
 42
0.0019382025482841
 10
100.9460123018687
 20
7.083029931545411
 42
0.0024062225706561
 10
100.6794412140801
 20
7.152126637268452
 42
0.0026142691438676
 10
100.4113301028999
 20
7.21867612219998
  0
LINE
  5
559CA
330
1F
100
AcDbEntity
  8
1
100
AcDbLine
 10
98.29999999999998
 20
7.464999998899911
 30
0.0
 11
102.2999999999999
 21
7.464999998899911
 31
0.0
1001
ACAD
1000
RTMaterial
1005
0
  0
LINE
  5
559CB
330
1F
100
AcDbEntity
  8
1
100
AcDbLine
 10
98.29999999999998
 20
7.464999998899911
 30
0.0
 11
94.30000000000008
 21
7.699999998899982
 31
0.0
1001
ACAD
1000
RTMaterial
1005
0
  0
LINE
  5
559CC
330
1F
100
AcDbEntity
  8
1
100
AcDbLine
 10
98.29999999999991
 20
-7.464999998899911
 30
0.0
 11
102.2999999999998
 21
-7.464999998899941
 31
0.0
1001
ACAD
1000
RTMaterial
1005
0
  0
LINE
  5
559CD
330
1F
100
AcDbEntity
  8
1
100
AcDbLine
 10
98.29999999999991
 20
-7.464999998899911
 30
0.0
 11
94.29999999999997
 21
-7.699999998899982
 31
0.0
1001
ACAD
1000
RTMaterial
1005
0
  0
ARC
  5
559CE
330
1F
100
AcDbEntity
  8
nocut
100
AcDbCircle
 10
106.295
 20
-0.0000000000000568
 30
0.0
 40
7.464999998899977
100
AcDbArc
 50
0.0
 51
90.0
  0
DIMENSION
  5
559CF
330
1F
100
AcDbEntity
  8
2
100
AcDbDimension
  2
*D7
 10
80.77329896152919
 20
7.699999998899986
 30
0.0
 11
80.77329896152919
 21
-37.70833333223328
 31
0.0
 70
   160
  1
%%c<>
 71
     5
 42
15.39999999779996
  3
\M+18352\M+18373\M+1815B - ISO-25
100
AcDbAlignedDimension
 13
94.29999999999997
 23
-7.699999998899982
 33
0.0
 14
94.29999999999997
 24
7.699999998899982
 34
0.0
 50
270.0
100
AcDbRotatedDimension
1001
ACAD
1000
DSTYLE
1002
{
1070
     4
1000
%%C[]"
1070
    40
1040
1.0
1070
   143
1040
0.03937
1070
   170
1070
     1
1070
   171
1070
     3
1070
   271
1070
     8
1070
   285
1070
     4
1002
}
  0
DIMENSION
  5
559D0
330
1F
100
AcDbEntity
  8
2
100
AcDbDimension
  2
*D8
 10
114.3
 20
23.76084676492738
 30
0.0
 11
66.33332833333334
 21
23.76084676492738
 31
0.0
 70
   160
 71
     5
 41
0.892857
 42
19.99999999999997
  3
\M+18352\M+18373\M+1815B - ISO-25
100
AcDbAlignedDimension
 13
94.30000000000005
 23
7.687499999999943
 33
0.0
 14
114.3
 24
5.055141471329079
 34
0.0
 50
180.0
100
AcDbRotatedDimension
1001
ACAD
1000
DSTYLE
1002
{
1070
     4
1000
"
1070
    40
1040
1.0
1070
   143
1040
0.03937
1070
   170
1070
     1
1070
   171
1070
     3
1070
   271
1070
     8
1070
   285
1070
     4
1002
}
  0
LINE
  5
559D1
330
1F
100
AcDbEntity
  8
1
100
AcDbLine
 10
94.29999999999997
 20
-7.699999998899982
 30
0.0
 11
94.30000000000005
 21
7.695999999999968
 31
0.0
  0
LINE
  5
559D2
330
1F
100
AcDbEntity
  8
1
100
AcDbLine
 10
0.0
 20
-7.9375
 30
0.0
 11
0.0
 21
0.0
 31
0.0
  0
LINE
  5
559D3
330
1F
100
AcDbEntity
  8
4
100
AcDbLine
 10
0.0
 20
0.0
 30
0.0
 11
122.415075
 21
0.0
 31
0.0
  0
LINE
  5
559D4
330
1F
100
AcDbEntity
  8
1
100
AcDbLine
 10
0.0
 20
7.937499999999971
 30
0.0
 11
0.0
 21
0.0
 31
0.0
  0
LINE
  5
559D5
330
1F
100
AcDbEntity
  8
1
100
AcDbLine
 10
0.2374999999999545
 20
7.699999998899982
 30
0.0
 11
0.0
 21
7.937499998899993
 31
0.0
1001
ACAD
1000
RTMaterial
1005
0
  0
LINE
  5
559D6
330
1F
100
AcDbEntity
  8
1
100
AcDbLine
 10
0.2374999999999545
 20
7.699999998899982
 30
0.0
 11
94.29999999999997
 21
7.699999998899982
 31
0.0
1001
ACAD
1000
RTMaterial
1005
0
  0
LINE
  5
559D7
330
1F
100
AcDbEntity
  8
1
100
AcDbLine
 10
0.2374999999999545
 20
-7.699999998899982
 30
0.0
 11
0.0
 21
-7.937499998899993
 31
0.0
1001
ACAD
1000
RTMaterial
1005
0
  0
LINE
  5
559D8
330
1F
100
AcDbEntity
  8
1
100
AcDbLine
 10
0.2374999999999545
 20
-7.699999998899982
 30
0.0
 11
94.29999999999997
 21
-7.699999998899982
 31
0.0
1001
ACAD
1000
RTMaterial
1005
0
  0
LINE
  5
559D9
330
1F
100
AcDbEntity
  8
1
100
AcDbLine
 10
0.2374999999999545
 20
7.699999998899982
 30
0.0
 11
0.2374999999999545
 21
-7.699999998899982
 31
0.0
  0
LINE
  5
559DA
330
1F
100
AcDbEntity
  8
nocut
100
AcDbLine
 10
0.0
 20
0.0
 30
0.0
 11
0.0000000000001137
 21
7.937499998899993
 31
0.0
1001
ACAD
1000
RTMaterial
1005
0
  0
LINE
  5
559DB
330
1F
100
AcDbEntity
  8
nocut
100
AcDbLine
 10
0.2375000000000682
 20
7.699999998899982
 30
0.0
 11
0.0000000000001137
 21
7.937499998899993
 31
0.0
1001
ACAD
1000
RTMaterial
1005
0
  0
LINE
  5
559DC
330
1F
100
AcDbEntity
  8
nocut
100
AcDbLine
 10
113.7599999989001
 20
-0.0000000000000284
 30
0.0
 11
0.0
 21
0.0000000000000321
 31
0.0
1001
ACAD
1000
RTMaterial
1005
0
  0
LINE
  5
559DD
330
1F
100
AcDbEntity
  8
nocut
100
AcDbLine
 10
98.30000000000008
 20
7.464999998899911
 30
0.0
 11
106.295
 21
7.464999998899911
 31
0.0
1001
ACAD
1000
RTMaterial
1005
0
  0
LINE
  5
559DE
330
1F
100
AcDbEntity
  8
nocut
100
AcDbLine
 10
0.2374999999999545
 20
7.699999998899982
 30
0.0
 11
94.30000000000008
 21
7.699999998899982
 31
0.0
1001
ACAD
1000
RTMaterial
1005
0
  0
LINE
  5
559DF
330
1F
100
AcDbEntity
  8
nocut
100
AcDbLine
 10
98.29999999999998
 20
7.464535146800017
 30
0.0
 11
94.30000000000008
 21
7.699999998899982
 31
0.0
1001
ACAD
1000
RTMaterial
1005
0
  0
LINE
  5
559E1
330
1F
100
AcDbEntity
  8
1
100
AcDbLine
 10
102.2999995384616
 20
7.464999998899911
 30
0.0
 11
102.3000171782201
 21
6.700610486341303
 31
0.0
  0
LINE
  5
559E2
330
1F
100
AcDbEntity
  8
1
100
AcDbLine
 10
102.2999998523604
 20
-7.464999998899941
 30
0.0
 11
102.3000018705044
 21
-7.191612125099992
 31
0.0
  0
DIMENSION
  5
55B06
330
1F
100
AcDbEntity
  8
2
100
AcDbDimension
  2
*D6
 10
129.2381426913437
 20
7.999999998900017
 30
0.0
 11
129.2381426913437
 21
-30.42499999999999
 31
0.0
 70
   160
  1
%%c<>
 71
     5
 42
15.99999999890002
  3
\M+18352\M+18373\M+1815B - ISO-25
100
AcDbAlignedDimension
 13
106.2999999999999
 23
-8.0
 33
0.0
 14
112.2999999999999
 24
7.999999998900022
 34
0.0
 50
270.0
100
AcDbRotatedDimension
1001
ACAD
1000
DSTYLE
1002
{
1070
     4
1000
%%c[]"
1070
    40
1040
1.0
1070
    75
1070
     1
1070
   143
1040
0.03937
1070
   170
1070
     1
1070
   171
1070
     3
1070
   173
1070
     1
1070
   271
1070
     8
1070
   285
1070
     4
1070
   343
1005
50E6F
1002
}
  0
SPLINE
  5
55B07
330
1F
100
AcDbEntity
  8
1
100
AcDbSpline
210
0.0
220
0.0
230
1.0
 70
     8
 71
     3
 72
    16
 73
    12
 74
    10
 42
0.0000000001
 43
0.0000000001
 44
0.000001
 12
0.0550085357342658
 22
0.9984858842248957
 32
0.0
 13
0.0582088927811122
 23
0.9983044249131609
 33
0.0
 40
0.0
 40
0.0
 40
0.0
 40
0.0
 40
0.0814986635523667
 40
0.1554979847208684
 40
0.2208744869063174
 40
0.2786222823493741
 40
0.3299816598902929
 40
0.3765373465344454
 40
0.4201252649802541
 40
0.4625357384708714
 40
0.5051570979304387
 40
0.5051570979304387
 40
0.5051570979304387
 40
0.5051570979304387
 10
114.040840299587
 20
0.4522933207999813
 30
0.0
 10
114.0423346736358
 20
0.4794184091800588
 30
0.0
 10
114.0451934279192
 20
0.5311721765553533
 30
0.0
 10
114.049279143995
 20
0.6046835538786876
 30
0.0
 10
114.052949129559
 20
0.6702888580165897
 30
0.0
 10
114.0562164224698
 20
0.7283582392786432
 30
0.0
 10
114.0591517464959
 20
0.7801627672191957
 30
0.0
 10
114.0618384723222
 20
0.8272538475087671
 30
0.0
 10
114.0643718054079
 20
0.8713658571714022
 30
0.0
 10
114.0668450665055
 20
0.9141677104190625
 30
0.0
 10
114.0684889802727
 20
0.9424639428185502
 30
0.0
 10
114.0693159609871
 20
0.9566469733999838
 30
0.0
 11
114.040840299587
 21
0.4522933207999813
 31
0.0
 11
114.0453371413871
 21
0.5336678203000247
 31
0.0
 11
114.049443961087
 21
0.6075530780000236
 31
0.0
 11
114.0530939015871
 21
0.6728276201000086
 31
0.0
 11
114.0563390672871
 21
0.7304841708000254
 31
0.0
 11
114.059244836287
 21
0.781761285000016
 31
0.0
 11
114.061896819587
 21
0.8282413779999727
 31
0.0
 11
114.064395906787
 21
0.8717575960999964
 31
0.0
 11
114.0668424439871
 21
0.9140974453000012
 31
0.0
 11
114.0693159609871
 21
0.9566469733999838
 31
0.0
  0
SPLINE
  5
55B08
330
1F
100
AcDbEntity
  8
1
100
AcDbSpline
210
0.0
220
0.0
230
1.0
 70
     8
 71
     3
 72
    23
 73
    19
 74
    17
 42
0.0000000001
 43
0.0000000001
 44
0.000001
 12
0.0545153799555513
 22
0.9985129309870263
 32
0.0
 13
0.0571541058744279
 23
0.9983653680800905
 33
0.0
 40
0.0
 40
0.0
 40
0.0
 40
0.0
 40
0.0504394881170968
 40
0.0972449312135709
 40
0.1427992898059871
 40
0.1883906179534934
 40
0.2340241580922996
 40
0.2796302187800993
 40
0.3252905668756712
 40
0.3709863873679261
 40
0.4166424636762442
 40
0.4623580892051414
 40
0.5082891131389543
 40
0.5543491381171233
 40
0.6003752786314527
 40
0.6464083274275981
 40
0.6927453767742674
 40
0.7399064699160198
 40
0.7399064699160198
 40
0.7399064699160198
 40
0.7399064699160198
 10
114.0693159609871
 20
0.9566469733999838
 30
0.0
 10
114.0702325369402
 20
0.9734351337724131
 30
0.0
 10
114.0720047136367
 20
1.005801631850513
 30
0.0
 10
114.0746283235254
 20
1.053329037184649
 30
0.0
 10
114.0771785803442
 20
1.099241974659185
 30
0.0
 10
114.0797183220927
 20
1.144764258018375
 30
0.0
 10
114.0822653956654
 20
1.190303392480158
 30
0.0
 10
114.0848154043934
 20
1.235865405278596
 30
0.0
 10
114.0873637794831
 20
1.281448302197412
 30
0.0
 10
114.0899046378206
 20
1.327048316606233
 30
0.0
 10
114.0924396125543
 20
1.372667112514291
 30
0.0
 10
114.0949768705705
 20
1.418364303513064
 30
0.0
 10
114.0975235999174
 20
1.464195825610961
 30
0.0
 10
114.1000824293682
 20
1.510130339743536
 30
0.0
 10
114.1026538402484
 20
1.556098213206504
 30
0.0
 10
114.1052453368827
 20
1.602157446584734
 30
0.0
 10
114.1078738818018
 20
1.648593509277089
 30
0.0
 10
114.1096502774168
 20
1.679708891428848
 30
0.0
 10
114.1105487607869
 20
1.695403558800023
 30
0.0
 11
114.0693159609871
 21
0.9566469733999838
 31
0.0
 11
114.0720758329871
 21
1.007010899299983
 31
0.0
 11
114.074655010887
 21
1.053745226399996
 31
0.0
 11
114.077180751287
 21
1.099229511700002
 31
0.0
 11
114.0797195977871
 21
1.144750094400022
 31
0.0
 11
114.0822671807871
 21
1.190312467000012
 31
0.0
 11
114.084814926787
 21
1.235847308100004
 31
0.0
 11
114.0873627108871
 21
1.281436519300028
 31
0.0
 11
114.0899052211871
 21
1.327061552399982
 31
0.0
 11
114.092439166287
 21
1.372647256499988
 31
0.0
 11
114.094974220887
 21
1.41829253999998
 31
0.0
 11
114.097523268987
 21
1.464152776600029
 31
0.0
 11
114.1000858390871
 21
1.510141461300007
 31
0.0
 11
114.1026571921871
 21
1.556095718300014
 31
0.0
 11
114.105243239887
 21
1.602056069900014
 31
0.0
 11
114.107863050487
 21
1.648319000100002
 31
0.0
 11
114.1105487607869
 21
1.695403558800023
 31
0.0
  0
SPLINE
  5
55B09
330
1F
100
AcDbEntity
  8
1
100
AcDbSpline
210
0.0
220
0.0
230
1.0
 70
     8
 71
     3
 72
    21
 73
    17
 74
    15
 42
0.0000000001
 43
0.0000000001
 44
0.000001
 12
0.0536690574142078
 22
0.9985587775770991
 32
0.0
 13
0.056666691735327
 23
0.9983931520437094
 33
0.0
 40
0.0
 40
0.0
 40
0.0
 40
0.0
 40
0.0460244982303652
 40
0.091828741591862
 40
0.1375371683467824
 40
0.1832788750591612
 40
0.2290402181938107
 40
0.27464009012193
 40
0.3200763235104182
 40
0.3654910805232714
 40
0.4109594814885435
 40
0.456497956332493
 40
0.502033498062681
 40
0.5475060762272646
 40
0.5930850119614842
 40
0.6389879595758032
 40
0.6389879595758032
 40
0.6389879595758032
 40
0.6389879595758032
 10
114.1105487607869
 20
1.695403558800023
 30
0.0
 10
114.1113721245996
 20
1.710722947697194
 30
0.0
 10
114.1130209815499
 20
1.741288087502819
 30
0.0
 10
114.1155146639253
 20
1.787065942940916
 30
0.0
 10
114.1180271984914
 20
1.832748361152668
 30
0.0
 10
114.120558567348
 20
1.87841541664377
 30
0.0
 10
114.1231001886408
 20
1.924045661018597
 30
0.0
 10
114.1256417529362
 20
1.969573925693575
 30
0.0
 10
114.128175924099
 20
2.014986894535216
 30
0.0
 10
114.1306994549955
 20
2.060356565020424
 30
0.0
 10
114.1332126200574
 20
2.105760943390027
 30
0.0
 10
114.135724146986
 20
2.151205735055571
 30
0.0
 10
114.1382385919807
 20
2.196651760191655
 30
0.0
 10
114.1407642451708
 20
2.242110671799627
 30
0.0
 10
114.1433128672437
 20
2.28769096355933
 30
0.0
 10
114.1450345786264
 20
2.318136283314456
 30
0.0
 10
114.1459016346871
 20
2.333412679500042
 30
0.0
 11
114.1105487607869
 21
1.695403558800023
 31
0.0
 11
114.1130299760871
 21
1.741361126400021
 31
0.0
 11
114.115521405087
 21
1.78709756110004
 31
0.0
 11
114.1180308544871
 21
1.832737049599984
 31
0.0
 11
114.1205612474871
 21
1.878408712800023
 31
0.0
 11
114.1231051197871
 21
1.924099294100017
 31
0.0
 11
114.1256456319871
 21
1.969628340899986
 31
0.0
 11
114.128175954787
 21
2.014994063199992
 31
0.0
 11
114.1306974211871
 21
2.060338769099985
 31
0.0
 11
114.1332116848871
 21
2.105737601200019
 31
0.0
 11
114.135725673187
 21
2.151206629599982
 31
0.0
 11
114.1382424951871
 21
2.196672563600031
 31
0.0
 11
114.1407659590871
 21
2.242075068799977
 31
0.0
 11
114.1433126270871
 21
2.287582802700001
 31
0.0
 11
114.1459016346871
 21
2.333412679500042
 31
0.0
  0
SPLINE
  5
55B0A
330
1F
100
AcDbEntity
  8
1
100
AcDbSpline
210
0.0
220
0.0
230
1.0
 70
     8
 71
     3
 72
    18
 73
    14
 74
    12
 42
0.0000000001
 43
0.0000000001
 44
0.000001
 12
0.053365178223814
 22
0.9985750636547765
 32
0.0
 13
0.0570756646491215
 23
0.9983698555669944
 33
0.0
 40
0.0
 40
0.0
 40
0.0
 40
0.0
 40
0.0304719689558094
 40
0.0641437925696837
 40
0.1021442938825032
 40
0.1451321973801388
 40
0.192572465197825
 40
0.2410755408276859
 40
0.2886546790608696
 40
0.3363046652587082
 40
0.3845915250176878
 40
0.4332711979833104
 40
0.4813489965087871
 40
0.4813489965087871
 40
0.4813489965087871
 40
0.4813489965087871
 10
114.1459016346871
 20
2.333412679500042
 30
0.0
 10
114.1464436820385
 20
2.34355552894662
 30
0.0
 10
114.1475866255781
 20
2.364906223545609
 30
0.0
 10
114.1494218377109
 20
2.398904826973257
 30
0.0
 10
114.1514940907126
 20
2.437068684658309
 30
0.0
 10
114.1538301273987
 20
2.479814459021701
 30
0.0
 10
114.1563719463805
 20
2.526055066862906
 30
0.0
 10
114.1590100809441
 20
2.573823100483348
 30
0.0
 10
114.1616627933891
 20
2.621660340495776
 30
0.0
 10
114.1643252119565
 20
2.669424858005199
 30
0.0
 10
114.1670246409829
 20
2.717554724098157
 30
0.0
 10
114.1697503089282
 20
2.76582594417023
 30
0.0
 10
114.1715855193185
 20
2.798026180743395
 30
0.0
 10
114.172500210087
 20
2.814025989000015
 30
0.0
 11
114.1459016346871
 21
2.333412679500042
 31
0.0
 11
114.147532755887
 21
2.363840961200024
 31
0.0
 11
114.149346742387
 21
2.397463887000014
 31
0.0
 11
114.1514070270871
 21
2.435408495399996
 31
0.0
 11
114.153752309387
 21
2.478332375400043
 31
0.0
 11
114.156355513287
 21
2.525701165899988
 31
0.0
 11
114.159029889287
 21
2.5741304549
 31
0.0
 11
114.161664752987
 21
2.621636579399989
 31
0.0
 11
114.1643171111871
 21
2.669212688500009
 31
0.0
 11
114.167021333187
 21
2.717423765900035
 31
0.0
 11
114.1697669074871
 21
2.766025950600009
 31
0.0
 11
114.172500210087
 21
2.814025989000015
 31
0.0
  0
SPLINE
  5
55B0B
330
1F
100
AcDbEntity
  8
1
100
AcDbSpline
210
0.0
220
0.0
230
1.0
 70
     8
 71
     3
 72
    34
 73
    30
 74
    28
 42
0.0000000001
 43
0.0000000001
 44
0.000001
 12
0.0423311762723708
 22
0.9991036340217151
 32
0.0
 13
0.0007513889669363
 23
0.9999997177072703
 33
0.0
 40
0.0
 40
0.0
 40
0.0
 40
0.0
 40
0.0206725595035625
 40
0.0413455094129641
 40
0.0620550961989733
 40
0.082713092435955
 40
0.103012170644835
 40
0.1225858628337594
 40
0.1412254717362873
 40
0.1589903678775224
 40
0.1760240959824794
 40
0.1924861578690479
 40
0.2086706608770715
 40
0.224881062628628
 40
0.2411024355153712
 40
0.2571966472219832
 40
0.2733582182079908
 40
0.2899124890283737
 40
0.3068033573273191
 40
0.3238264626121248
 40
0.3413413997277257
 40
0.3601749696338195
 40
0.3810956261231505
 40
0.4046214439182621
 40
0.4309608025634577
 40
0.4602915281994524
 40
0.4927057225649186
 40
0.528276640367035
 40
0.5670786709666733
 40
0.5670786709666733
 40
0.5670786709666733
 40
0.5670786709666733
 10
114.295752368887
 20
5.101079908299992
 30
0.0
 10
114.2960440668072
 20
5.107964584741505
 30
0.0
 10
114.296598872224
 20
5.121735287645035
 30
0.0
 10
114.2973573406816
 20
5.142406459880221
 30
0.0
 10
114.2980243170635
 20
5.163075954301566
 30
0.0
 10
114.2985925150057
 20
5.183623724136545
 30
0.0
 10
114.2990620485049
 20
5.203795240606766
 30
0.0
 10
114.2994384465561
 20
5.223295784380559
 30
0.0
 10
114.2997267648856
 20
5.24195299849913
 30
0.0
 10
114.2999394341021
 20
5.259764506482691
 30
0.0
 10
114.3000880966788
 20
5.276850783351337
 30
0.0
 10
114.3001816260717
 20
5.293410640312289
 30
0.0
 10
114.3002266825156
 20
5.309696257329457
 30
0.0
 10
114.3002245107725
 20
5.325901700235887
 30
0.0
 10
114.3001917801468
 20
5.342076999286124
 30
0.0
 10
114.3001481954348
 20
5.358235992286915
 30
0.0
 10
114.3001153536829
 20
5.374505978866701
 30
0.0
 10
114.3000945222356
 20
5.391041536689173
 30
0.0
 10
114.3000791452204
 20
5.407864277764159
 30
0.0
 10
114.3000630363447
 20
5.425007240446793
 30
0.0
 10
114.3000452677768
 20
5.442797769002392
 30
0.0
 10
114.3000276247574
 20
5.461887482087496
 30
0.0
 10
114.3000124557066
 20
5.48298082487018
 30
0.0
 10
114.300000315163
 20
5.506576099518015
 30
0.0
 10
114.299991120523
 20
5.532974732068301
 30
0.0
 10
114.2999864018141
 20
5.56233615810394
 30
0.0
 10
114.2999886927548
 20
5.594774771026026
 30
0.0
 10
114.3000008967286
 20
5.630370483442685
 30
0.0
 10
114.3000145035145
 20
5.655161462951327
 30
0.0
 10
114.3000242219871
 20
5.66809546950003
 30
0.0
 11
114.295752368887
 21
5.101079908299992
 31
0.0
 11
114.296587498487
 21
5.121735719000013
 31
0.0
 11
114.2973426884871
 21
5.142394875299999
 31
0.0
 11
114.2980099317871
 21
5.163093749300003
 31
0.0
 11
114.298581614487
 21
5.183743927299985
 31
0.0
 11
114.299054861687
 21
5.204037753699992
 31
0.0
 11
114.2994312454871
 21
5.223608246100012
 31
0.0
 11
114.2997191774871
 21
5.242245082199985
 31
0.0
 11
114.299931579887
 21
5.260008542799994
 31
0.0
 11
114.300079953487
 21
5.277041553499997
 31
0.0
 11
114.300173183287
 21
5.293503311100038
 31
0.0
 11
114.300217844887
 21
5.309687725800016
 31
0.0
 11
114.300218410787
 21
5.325898108300008
 31
0.0
 11
114.300188867487
 21
5.342119441000021
 31
0.0
 11
114.3001490739871
 21
5.358213594900006
 31
0.0
 11
114.3001166381871
 21
5.374375128099983
 31
0.0
 11
114.300094608787
 21
5.390929381000034
 31
0.0
 11
114.3000781144871
 21
5.407820238999987
 31
0.0
 11
114.3000620258871
 21
5.424843334900002
 31
0.0
 11
114.300044917187
 21
5.442358262100015
 31
0.0
 11
114.3000278782871
 21
5.461191822899991
 31
0.0
 11
114.300012752387
 21
5.482112472700009
 31
0.0
 11
114.3000004132871
 21
5.505638286199996
 31
0.0
 11
114.299991247587
 21
5.531977642299978
 31
0.0
 11
114.299986641887
 21
5.561308366700018
 31
0.0
 11
114.299989021287
 21
5.593722560200035
 31
0.0
 11
114.3000006961872
 21
5.629293475400004
 31
0.0
 11
114.3000242219871
 21
5.66809546950003
 31
0.0
  0
SPLINE
  5
55B0C
330
1F
100
AcDbEntity
  8
1
100
AcDbSpline
210
0.0
220
0.0
230
1.0
 70
     8
 71
     3
 72
    36
 73
    32
 74
    30
 42
0.0000000001
 43
0.0000000001
 44
0.000001
 12
-0.9997702938011814
 22
-0.0214326767506836
 32
0.0
 13
-0.9997000679241562
 23
-0.0244902877165125
 33
0.0
 40
0.0
 40
0.0
 40
0.0
 40
0.0
 40
0.0106290803588131
 40
0.0223815392595513
 40
0.0352674220665645
 40
0.0492955672470159
 40
0.064371489393635
 40
0.0803381022498671
 40
0.0970238365509939
 40
0.1142135559479301
 40
0.131666542323541
 40
0.1492042067693664
 40
0.1667260114631014
 40
0.1843281896785007
 40
0.202247389316848
 40
0.2204480709875468
 40
0.238680166117853
 40
0.2568167973001081
 40
0.2748779111596206
 40
0.2930279512939413
 40
0.311350506183512
 40
0.3295712483883311
 40
0.3477887696819116
 40
0.3669857875045952
 40
0.3884816868429879
 40
0.4135091413227688
 40
0.442103539097713
 40
0.4725455534683091
 40
0.5031772781134231
 40
0.5337072997945504
 40
0.5645610321562713
 40
0.5645610321562713
 40
0.5645610321562713
 40
0.5645610321562713
 10
110.394039884887
 20
7.868457914500027
 30
0.0
 10
110.3904976719559
 20
7.868381977952198
 30
0.0
 10
110.3830388731621
 20
7.868222036924236
 30
0.0
 10
110.371285947245
 20
7.867961735886364
 30
0.0
 10
110.3584003930121
 20
7.867671198383756
 30
0.0
 10
110.3444074592823
 20
7.867348653136653
 30
0.0
 10
110.3293880451059
 20
7.866995712510499
 30
0.0
 10
110.3134831535901
 20
7.866616005233523
 30
0.0
 10
110.296873956104
 20
7.866215638771128
 30
0.0
 10
110.2797694641616
 20
7.865802526530232
 30
0.0
 10
110.262381006869
 20
7.865385516287362
 30
0.0
 10
110.2448817579669
 20
7.864971236646079
 30
0.0
 10
110.227332702498
 20
7.864559600307577
 30
0.0
 10
110.2096564337533
 20
7.864147971473039
 30
0.0
 10
110.1917538840561
 20
7.863733226953669
 30
0.0
 10
110.1736413859572
 20
7.863315021872276
 30
0.0
 10
110.1554564152011
 20
7.862895785144321
 30
0.0
 10
110.1373179567875
 20
7.862477529639272
 30
0.0
 10
110.1192068612855
 20
7.862059102090197
 30
0.0
 10
110.1010338423463
 20
7.861637747281143
 30
0.0
 10
110.0828076823628
 20
7.861212830370952
 30
0.0
 10
110.0645591009736
 20
7.860784558820184
 30
0.0
 10
110.046019173105
 20
7.860346860595216
 30
0.0
 10
110.0263878927104
 20
7.859880759774571
 30
0.0
 10
110.004487343293
 20
7.859357873476148
 30
0.0
 10
109.9794553065978
 20
7.858756866141728
 30
0.0
 10
109.9514421779216
 20
7.858080659202729
 30
0.0
 10
109.9215615812646
 20
7.857356146128442
 30
0.0
 10
109.8910360233811
 20
7.856613641828728
 30
0.0
 10
109.8603732964014
 20
7.855866578507818
 30
0.0
 10
109.8399181992662
 20
7.855364771660901
 30
0.0
 10
109.829636706487
 20
7.855112899400012
 30
0.0
 11
110.394039884887
 21
7.868457914500027
 31
0.0
 11
110.383413293587
 21
7.868227880400012
 31
0.0
 11
110.371663700787
 21
7.867968355199991
 31
0.0
 11
110.3587810955871
 21
7.86767774780003
 31
0.0
 11
110.3447566709871
 21
7.867354692099978
 31
0.0
 11
110.329684903887
 21
7.867000774000017
 31
0.0
 11
110.313722829287
 21
7.86662012459999
 31
0.0
 11
110.297041927987
 21
7.866218558300032
 31
0.0
 11
110.279857205187
 21
7.865804129300045
 31
0.0
 11
110.262409226187
 21
7.865386085900012
 31
0.0
 11
110.244876480587
 21
7.864970748199992
 31
0.0
 11
110.227359497487
 21
7.864559721500028
 31
0.0
 11
110.209762093487
 21
7.864149781399986
 31
0.0
 11
110.1918477035869
 21
7.86373462969999
 31
0.0
 11
110.1736518744871
 21
7.863314370699981
 31
0.0
 11
110.1554246252871
 21
7.862894036700025
 31
0.0
 11
110.137292816687
 21
7.862475815399987
 31
0.0
 11
110.1192365236871
 21
7.862058539899976
 31
0.0
 11
110.101091363187
 21
7.861637695900013
 31
0.0
 11
110.082773787487
 21
7.861210564799987
 31
0.0
 11
110.064558059887
 21
7.860783110099986
 31
0.0
 11
110.0463456125871
 21
7.860353169900006
 31
0.0
 11
110.027154002287
 21
7.859897548500042
 31
0.0
 11
110.005664225587
 21
7.859384528199996
 31
0.0
 11
109.9806439791871
 21
7.85878390160002
 31
0.0
 11
109.9520579046871
 21
7.858094023399984
 31
0.0
 11
109.9216248307871
 21
7.857356289700021
 31
0.0
 11
109.891002159287
 21
7.85661161400003
 31
0.0
 11
109.8604812106871
 21
7.855867356200008
 31
0.0
 11
109.829636706487
 21
7.855112899400012
 31
0.0
  0
SPLINE
  5
55B0D
330
1F
100
AcDbEntity
  8
1
100
AcDbSpline
210
0.0
220
0.0
230
1.0
 70
     8
 71
     3
 72
    21
 73
    17
 74
    15
 42
0.0000000001
 43
0.0000000001
 44
0.000001
 12
-0.999693012087042
 22
-0.024776633837897
 32
0.0
 13
-0.999642555319458
 23
-0.0267350256103176
 33
0.0
 40
0.0
 40
0.0
 40
0.0
 40
0.0
 40
0.0213414000497966
 40
0.0447034015316739
 40
0.0702151571014716
 40
0.0980034888113101
 40
0.1282214733162262
 40
0.1611115211213805
 40
0.1969460428808858
 40
0.2359890184656877
 40
0.2786149926655834
 40
0.3254368080685377
 40
0.3770763927974973
 40
0.4337029595980466
 40
0.4958651031728132
 40
0.5645893129825223
 40
0.5645893129825223
 40
0.5645893129825223
 40
0.5645893129825223
 10
109.829636706487
 20
7.855112899400012
 30
0.0
 10
109.822525090321
 20
7.854936643381805
 30
0.0
 10
109.8076285466919
 20
7.854566807854745
 30
0.0
 10
109.7842307545095
 20
7.853983885086639
 30
0.0
 10
109.7586847153828
 20
7.853344889909253
 30
0.0
 10
109.7308541217416
 20
7.852646410951862
 30
0.0
 10
109.7005649625767
 20
7.851882606964639
 30
0.0
 10
109.6675946973296
 20
7.851047039878388
 30
0.0
 10
109.6316838390116
 20
7.850131971979473
 30
0.0
 10
109.5925288426571
 20
7.849129627674461
 30
0.0
 10
109.5497127788623
 20
7.848027155652537
 30
0.0
 10
109.502699423837
 20
7.846809352237515
 30
0.0
 10
109.4510209942924
 20
7.845462050131437
 30
0.0
 10
109.3942311242638
 20
7.843971335742047
 30
0.0
 10
109.3317486532372
 20
7.84231930029991
 30
0.0
 10
109.2881353444559
 20
7.841157334836459
 30
0.0
 10
109.265235462887
 20
7.840544887000022
 30
0.0
 11
109.829636706487
 21
7.855112899400012
 31
0.0
 11
109.808301877787
 21
7.854583328600027
 31
0.0
 11
109.784947115387
 21
7.854001777400013
 31
0.0
 11
109.7594433227871
 21
7.853364390199998
 31
0.0
 11
109.731663738087
 21
7.852667200300004
 31
0.0
 11
109.701455355887
 21
7.851905452999972
 31
0.0
 11
109.6685758645871
 21
7.851072179000027
 31
0.0
 11
109.6327529647871
 21
7.850159542500022
 31
0.0
 11
109.593722790987
 21
7.84915977899999
 31
0.0
 11
109.5511109511871
 21
7.848062140800037
 31
0.0
 11
109.5043048436871
 21
7.846849424500021
 31
0.0
 11
109.452682801387
 21
7.845503548700037
 31
0.0
 11
109.396075731687
 21
7.84401775499998
 31
0.0
 11
109.333935300987
 21
7.84237495709999
 31
0.0
 11
109.265235462887
 21
7.840544887000022
 31
0.0
  0
SPLINE
  5
55B0E
330
1F
100
AcDbEntity
  8
1
100
AcDbSpline
210
0.0
220
0.0
230
1.0
 70
     8
 71
     3
 72
    11
 73
     7
 74
     5
 42
0.0000000001
 43
0.0000000001
 44
0.000001
 12
-0.9996296322626324
 22
-0.0272139358137326
 32
0.0
 13
-0.9995805655575386
 23
-0.028960196126262
 33
0.0
 40
0.0
 40
0.0
 40
0.0
 40
0.0
 40
0.1409124149412219
 40
0.2820063265686354
 40
0.4232735938266968
 40
0.5647059683824211
 40
0.5647059683824211
 40
0.5647059683824211
 40
0.5647059683824211
 10
109.265235462887
 20
7.840544887000022
 30
0.0
 10
109.2182820543774
 20
7.839266626528166
 30
0.0
 10
109.1243153841751
 20
7.836685511996025
 30
0.0
 10
108.9832791860904
 20
7.832746191860985
 30
0.0
 10
108.8420714724325
 20
7.828740350609193
 30
0.0
 10
108.7478772568691
 20
7.82602946340193
 30
0.0
 10
108.7007529058869
 20
7.824664160300017
 30
0.0
 11
109.265235462887
 21
7.840544887000022
 31
0.0
 11
109.1243761415869
 21
7.836676943799999
 31
0.0
 11
108.9833372337871
 21
7.832737567700007
 31
0.0
 11
108.842126778387
 21
7.828731629100047
 31
0.0
 11
108.7007529058869
 21
7.824664160300017
 31
0.0
  0
SPLINE
  5
55B0F
330
1F
100
AcDbEntity
  8
1
100
AcDbSpline
210
0.0
220
0.0
230
1.0
 70
     8
 71
     3
 72
    11
 73
     7
 74
     5
 42
0.0000000001
 43
0.0000000001
 44
0.000001
 12
-0.9995613952662974
 22
-0.0296144743882593
 32
0.0
 13
-0.9995142668509302
 23
-0.0311645690078927
 33
0.0
 40
0.0
 40
0.0
 40
0.0
 40
0.0
 40
0.1409444808759009
 40
0.2820690479441509
 40
0.4233653547943589
 40
0.5648249769262418
 40
0.5648249769262418
 40
0.5648249769262418
 40
0.5648249769262418
 10
108.7007529058869
 20
7.824664160300017
 30
0.0
 10
108.6537920185671
 20
7.823272828060328
 30
0.0
 10
108.5598108523915
 20
7.820467729700443
 30
0.0
 10
108.4187536359133
 20
7.816199138144749
 30
0.0
 10
108.2775264525023
 20
7.811870587514413
 30
0.0
 10
108.1833197636885
 20
7.808949073685276
 30
0.0
 10
108.1361894601871
 20
7.807479564300023
 30
0.0
 11
108.7007529058869
 21
7.824664160300017
 31
0.0
 11
108.559871125787
 21
7.820460431699983
 31
0.0
 11
108.418811131087
 21
7.816191754900045
 31
0.0
 11
108.277581145687
 21
7.811863119699977
 31
0.0
 11
108.1361894601871
 21
7.807479564300023
 31
0.0
  0
SPLINE
  5
55B10
330
1F
100
AcDbEntity
  8
1
100
AcDbSpline
210
0.0
220
0.0
230
1.0
 70
     8
 71
     3
 72
    48
 73
    44
 74
     0
 42
0.0000000001
 43
0.0000000001
 40
0.116674726277265
 40
0.116674726277265
 40
0.116674726277265
 40
0.116674726277265
 40
0.1217216002577114
 40
0.1722054755416247
 40
0.1974179934171793
 40
0.2103382922695738
 40
0.2232810237057024
 40
0.2488883969752773
 40
0.2743628930043844
 40
0.2999188150483189
 40
0.3254512377810918
 40
0.3508382988009187
 40
0.3636165724857451
 40
0.3765464932021843
 40
0.3896299851189196
 40
0.4026792345755519
 40
0.4276486491439793
 40
0.4499321046951457
 40
0.4700134614594158
 40
0.4889147792404966
 40
0.5076580164914103
 40
0.5270491530240155
 40
0.5470303343122195
 40
0.587667547629104
 40
0.6278419334764718
 40
0.6676774422297875
 40
0.7076370836920997
 40
0.7476877547917927
 40
0.8276983640241269
 40
0.907709481865208
 40
0.9877210239110056
 40
1.067732867685805
 40
1.147745178628249
 40
1.227758029224645
 40
1.307771256475219
 40
1.387784805060321
 40
1.467798930655364
 40
1.547813435091665
 40
1.627828576822158
 40
1.707844254083784
 40
1.787860221664329
 40
1.867876440934433
 40
1.947893374416311
 40
1.947893374416311
 40
1.947893374416311
 40
1.947893374416311
 10
110.3940930926994
 20
-7.867029456065039
 30
0.0
 10
110.3957742182552
 20
-7.86709207533164
 30
0.0
 10
110.4142717161323
 20
-7.867779057028598
 30
0.0
 10
110.4411688096065
 20
-7.868745168891678
 30
0.0
 10
110.470690303621
 20
-7.869759743191649
 30
0.0
 10
110.4877069562577
 20
-7.87029906407008
 30
0.0
 10
110.5048564495428
 20
-7.870800458944927
 30
0.0
 10
110.52619179197
 20
-7.871320922676034
 30
0.0
 10
110.5517334816039
 20
-7.871792870232752
 30
0.0
 10
110.5772522252271
 20
-7.872136011578389
 30
0.0
 10
110.6027431891455
 20
-7.872354110125683
 30
0.0
 10
110.6239757540605
 20
-7.872430050196669
 30
0.0
 10
110.6410075231692
 20
-7.872415203955199
 30
0.0
 10
110.6539380055342
 20
-7.872363637681472
 30
0.0
 10
110.6669585759411
 20
-7.872270216543198
 30
0.0
 10
110.6839918519457
 20
-7.872106437965157
 30
0.0
 10
110.7040911045564
 20
-7.871862701057749
 30
0.0
 10
110.7265337181612
 20
-7.871553265383056
 30
0.0
 10
110.7469534459174
 20
-7.871245404997011
 30
0.0
 10
110.7661929584512
 20
-7.870937809763289
 30
0.0
 10
110.7852023669086
 20
-7.870630187578682
 30
0.0
 10
110.804571844403
 20
-7.870326854679602
 30
0.0
 10
110.8312385398718
 20
-7.869917078554464
 30
0.0
 10
110.8648322598342
 20
-7.869406884083446
 30
0.0
 10
110.905043055181
 20
-7.868778578271417
 30
0.0
 10
110.9450278515392
 20
-7.868143128842575
 30
0.0
 10
110.984971369416
 20
-7.867505482380464
 30
0.0
 10
111.0383047769169
 20
-7.866647551742516
 30
0.0
 10
111.1049866666126
 20
-7.865557377648656
 30
0.0
 10
111.1849866790542
 20
-7.864225963608702
 30
0.0
 10
111.2649866877873
 20
-7.862869815417353
 30
0.0
 10
111.3449866776454
 20
-7.86148931275204
 30
0.0
 10
111.4249866775272
 20
-7.860084325735157
 30
0.0
 10
111.5049867055866
 20
-7.858654894312621
 30
0.0
 10
111.5849867066622
 20
-7.857201067550477
 30
0.0
 10
111.6649866830526
 20
-7.855722699679347
 30
0.0
 10
111.7449866324151
 20
-7.854220027298139
 30
0.0
 10
111.8249866481649
 20
-7.852692811746692
 30
0.0
 10
111.9049867127558
 20
-7.851141252077752
 30
0.0
 10
111.9849867910504
 20
-7.849565433758299
 30
0.0
 10
112.0649867378768
 20
-7.847964900725401
 30
0.0
 10
112.144986620078
 20
-7.846340374423673
 30
0.0
 10
112.1983196429946
 20
-7.845239419954339
 30
0.0
 10
112.2249862041871
 20
-7.844685617799996
 30
0.0
  0
SPLINE
  5
55B11
330
1F
100
AcDbEntity
  8
1
100
AcDbSpline
210
0.0
220
0.0
230
1.0
 70
     8
 71
     3
 72
    50
 73
    46
 74
     0
 42
0.0000000001
 43
0.0000000001
 40
0.0
 40
0.0
 40
0.0
 40
0.0
 40
0.0038739469796806
 40
0.0077009047805029
 40
0.0114828747380293
 40
0.0152223340747337
 40
0.0189214280326993
 40
0.0225823285820688
 40
0.0262070429950286
 40
0.0297973690968723
 40
0.0333554916074656
 40
0.0368830922238586
 40
0.0403821165732999
 40
0.043853615305866
 40
0.0472992148443678
 40
0.0507222186300743
 40
0.0541252985202292
 40
0.0575090592321645
 40
0.0608740410256586
 40
0.0642211790088517
 40
0.0675518385805155
 40
0.0708653965732264
 40
0.0741610324479192
 40
0.0774383898755162
 40
0.0806984657507601
 40
0.0839410879820686
 40
0.0871658829073027
 40
0.0903730578330349
 40
0.0935644890340674
 40
0.09674104010069
 40
0.0999034675134374
 40
0.1030529845048461
 40
0.1061918599185944
 40
0.1093216218077406
 40
0.1124439660484156
 40
0.1155597645602324
 40
0.1186704225259586
 40
0.121776713018662
 40
0.124880375686271
 40
0.1279829203529175
 40
0.1310861816709033
 40
0.1341905950081848
 40
0.1372962122856413
 40
0.1404038982022354
 40
0.1407170445268393
 40
0.1407170445268393
 40
0.1407170445268393
 40
0.1407170445268393
 10
113.956158264887
 20
-6.903185355499999
 30
0.0
 10
113.9568191952278
 20
-6.902076001084878
 30
0.0
 10
113.95813136844
 20
-6.899869752318863
 30
0.0
 10
113.9600829172739
 20
-6.896577005697622
 30
0.0
 10
113.9620066824813
 20
-6.893319908516161
 30
0.0
 10
113.9639036691516
 20
-6.890096500559137
 30
0.0
 10
113.9657749138016
 20
-6.886904775658194
 30
0.0
 10
113.9676220085059
 20
-6.883743234312702
 30
0.0
 10
113.9694459521618
 20
-6.880610162420338
 30
0.0
 10
113.971247875016
 20
-6.877503917826741
 30
0.0
 10
113.9730288050364
 20
-6.874422923904718
 30
0.0
 10
113.9747897955261
 20
-6.87136556156679
 30
0.0
 10
113.9765316994235
 20
-6.868330532264565
 30
0.0
 10
113.9782553524163
 20
-6.865316548564634
 30
0.0
 10
113.9799618076088
 20
-6.862321925762786
 30
0.0
 10
113.9816523733298
 20
-6.859344502416433
 30
0.0
 10
113.983328176426
 20
-6.856382405527654
 30
0.0
 10
113.9849898808056
 20
-6.853434558328273
 30
0.0
 10
113.986637861147
 20
-6.850500385482007
 30
0.0
 10
113.9882726120568
 20
-6.847579088119572
 30
0.0
 10
113.9898944344063
 20
-6.844670203297936
 30
0.0
 10
113.9915033420632
 20
-6.841773778038543
 30
0.0
 10
113.9930990725621
 20
-6.838890362326196
 30
0.0
 10
113.9946816275134
 20
-6.83602003503273
 30
0.0
 10
113.9962511132858
 20
-6.833162685898287
 30
0.0
 10
113.9978076314839
 20
-6.830318208578772
 30
0.0
 10
113.9993511584049
 20
-6.827486728129315
 30
0.0
 10
114.0008819967481
 20
-6.824667769825793
 30
0.0
 10
114.0024006417083
 20
-6.821860494115581
 30
0.0
 10
114.0039076694572
 20
-6.819063897087402
 30
0.0
 10
114.0054035456504
 20
-6.816277166315785
 30
0.0
 10
114.006888951126
 20
-6.813499073244087
 30
0.0
 10
114.0083646796648
 20
-6.810728158075789
 30
0.0
 10
114.0098315894259
 20
-6.807962813077152
 30
0.0
 10
114.0112903113458
 20
-6.805201837165838
 30
0.0
 10
114.0127414486089
 20
-6.80244406103452
 30
0.0
 10
114.0141854538099
 20
-6.79968858386519
 30
0.0
 10
114.0156229067238
 20
-6.796934245106967
 30
0.0
 10
114.0170543950005
 20
-6.794179849162445
 30
0.0
 10
114.0184806585389
 20
-6.791423881010357
 30
0.0
 10
114.0199022301526
 20
-6.788665208200427
 30
0.0
 10
114.0213194019228
 20
-6.785903121409774
 30
0.0
 10
114.0227323497395
 20
-6.783137214835392
 30
0.0
 10
114.0237182141335
 20
-6.781197935606882
 30
0.0
 10
114.0242339825993
 20
-6.780180971541653
 30
0.0
 10
114.0242811883704
 20
-6.780087873511661
 30
0.0
  0
SPLINE
  5
55B12
330
1F
100
AcDbEntity
  8
1
100
AcDbSpline
210
0.0
220
0.0
230
1.0
 70
     8
 71
     3
 72
    52
 73
    48
 74
    46
 42
0.0000000001
 43
0.0000000001
 44
0.000001
 12
0.5735598588079949
 22
0.8191636517596181
 32
0.0
 13
0.5207813832728326
 23
0.8536900789141427
 33
0.0
 40
0.0
 40
0.0
 40
0.0
 40
0.0
 40
0.0038447063202012
 40
0.0076447869499771
 40
0.0114024787138779
 40
0.0151197754418221
 40
0.0187988615286257
 40
0.0224416735638674
 40
0.0260499968492562
 40
0.029625935970337
 40
0.0331711164020884
 40
0.0366872461808782
 40
0.0401764161578098
 40
0.0436401956218279
 40
0.047080574997083
 40
0.0504997707004972
 40
0.0538990127365248
 40
0.0572794794433459
 40
0.0606428287971189
 40
0.0639903695501781
 40
0.0673216787601563
 40
0.0706364780347
 40
0.0739351268336984
 40
0.077217548388552
 40
0.0804825965169753
 40
0.0837297337482957
 40
0.0869599874211132
 40
0.0901741406855481
 40
0.0933726577610724
 40
0.0965565512769884
 40
0.0997279172433013
 40
0.1028883012164746
 40
0.106039681605783
 40
0.1091834073103026
 40
0.1123213123356119
 40
0.1154540070419507
 40
0.1185819149923768
 40
0.1217063806926737
 40
0.1248288518845884
 40
0.1279498538697469
 40
0.131070153377054
 40
0.1341915756154961
 40
0.1373151008505222
 40
0.1404425175401478
 40
0.1435750253988008
 40
0.1467142893557928
 40
0.1498614760226024
 40
0.1498614760226024
 40
0.1498614760226024
 40
0.1498614760226024
 10
113.873906713987
 20
-7.028428061299963
 30
0.0
 10
113.8746417703917
 20
-7.027378246743563
 30
0.0
 10
113.8761019489897
 20
-7.025289820553197
 30
0.0
 10
113.8782756565346
 20
-7.022171923185144
 30
0.0
 10
113.880420906765
 20
-7.019085962622743
 30
0.0
 10
113.8825390668626
 20
-7.016030293288427
 30
0.0
 10
113.8846311841457
 20
-7.013003169350743
 30
0.0
 10
113.8866983710582
 20
-7.010002975652059
 30
0.0
 10
113.8887420874992
 20
-7.007028367961687
 30
0.0
 10
113.8907633821975
 20
-7.004077844018841
 30
0.0
 10
113.8927633718051
 20
-7.001149979506013
 30
0.0
 10
113.8947431390977
 20
-6.998243332095538
 30
0.0
 10
113.8967037546342
 20
-6.99535647363262
 30
0.0
 10
113.8986463324045
 20
-6.992487891456642
 30
0.0
 10
113.9005720020703
 20
-6.989636032799701
 30
0.0
 10
113.9024818214791
 20
-6.986799432712603
 30
0.0
 10
113.9043766902625
 20
-6.983976845927422
 30
0.0
 10
113.9062573973095
 20
-6.981167176927328
 30
0.0
 10
113.9081247408224
 20
-6.978369304755051
 30
0.0
 10
113.9099792170674
 20
-6.975582548584097
 30
0.0
 10
113.9118209615884
 20
-6.972806762796642
 30
0.0
 10
113.9136499359422
 20
-6.970042066029673
 30
0.0
 10
113.9154661650215
 20
-6.96728848040829
 30
0.0
 10
113.9172695152358
 20
-6.964546269990474
 30
0.0
 10
113.9190596904895
 20
-6.961815949743512
 30
0.0
 10
113.9208365995287
 20
-6.959097728787378
 30
0.0
 10
113.9226005024184
 20
-6.956391277499217
 30
0.0
 10
113.9243518394677
 20
-6.953695985111056
 30
0.0
 10
113.9260910446366
 20
-6.951011242517338
 30
0.0
 10
113.927818786554
 20
-6.948336071162035
 30
0.0
 10
113.9295359225061
 20
-6.94566918520983
 30
0.0
 10
113.9312434764374
 20
-6.943009023232096
 30
0.0
 10
113.9329423293542
 20
-6.940354227983892
 30
0.0
 10
113.934633406099
 20
-6.937703356154828
 30
0.0
 10
113.9363173784563
 20
-6.935055343962977
 30
0.0
 10
113.9379947472006
 20
-6.932409384488826
 30
0.0
 10
113.9396659211417
 20
-6.929764805801004
 30
0.0
 10
113.941331453741
 20
-6.927120697298493
 30
0.0
 10
113.9429919108251
 20
-6.924476116223242
 30
0.0
 10
113.944647749545
 20
-6.921830279114027
 30
0.0
 10
113.9462994890471
 20
-6.919182293141513
 30
0.0
 10
113.9479477246766
 20
-6.916531134098436
 30
0.0
 10
113.9495928807522
 20
-6.913875271929297
 30
0.0
 10
113.9512360860558
 20
-6.911213858777318
 30
0.0
 10
113.9528779827473
 20
-6.908545476155542
 30
0.0
 10
113.9545192571296
 20
-6.90586897740833
 30
0.0
 10
113.9556119328117
 20
-6.904080929511315
 30
0.0
 10
113.956158264887
 20
-6.903185355499999
 30
0.0
 11
113.873906713987
 21
-7.028428061299963
 31
0.0
 11
113.876109695987
 21
-7.025277106200008
 31
0.0
 11
113.878282807687
 21
-7.022159756400013
 31
0.0
 11
113.8804274432871
 21
-7.019074259499973
 31
0.0
 11
113.882544848387
 21
-7.016019056000003
 31
0.0
 11
113.884636393587
 21
-7.01299238629997
 31
0.0
 11
113.886703281687
 21
-7.009992713299991
 31
0.0
 11
113.888746583087
 21
-7.007018674800007
 31
0.0
 11
113.890767568887
 21
-7.004068598900004
 31
0.0
 11
113.8927672308871
 21
-7.001141202700011
 31
0.0
 11
113.8947466004871
 21
-6.998235130099998
 31
0.0
 11
113.8967069165871
 21
-6.995348702900002
 31
0.0
 11
113.8986491168871
 21
-6.992480668600022
 31
0.0
 11
113.9005743676871
 21
-6.989629420699997
 31
0.0
 11
113.9024839527871
 21
-6.986793159199977
 31
0.0
 11
113.9043785971871
 21
-6.983970896900017
 31
0.0
 11
113.906258991487
 21
-6.981161685599999
 31
0.0
 11
113.9081260874871
 21
-6.978364174700003
 31
0.0
 11
113.909980636387
 21
-6.975577299500002
 31
0.0
 11
113.9118224268871
 21
-6.972801434799976
 31
0.0
 11
113.9136513296871
 21
-6.970036836299982
 31
0.0
 11
113.9154675674871
 21
-6.967283227700022
 31
0.0
 11
113.917271122187
 21
-6.964540696399977
 31
0.0
 11
113.9190613902871
 21
-6.961810224700002
 31
0.0
 11
113.920838106487
 21
-6.959092288699991
 31
0.0
 11
113.922601861487
 21
-6.9563860545
 31
0.0
 11
113.924353108787
 21
-6.953690890199992
 31
0.0
 11
113.9260921250871
 21
-6.95100642929998
 31
0.0
 11
113.927819482487
 21
-6.94833184319998
 31
0.0
 11
113.929536334087
 21
-6.945665388799965
 31
0.0
 11
113.9312435262871
 21
-6.943005780199996
 31
0.0
 11
113.932942131287
 21
-6.940351362099987
 31
0.0
 11
113.9346328735871
 21
-6.937701004100005
 31
0.0
 11
113.936316731087
 21
-6.93505316209996
 31
0.0
 11
113.937994018387
 21
-6.932407320399987
 31
0.0
 11
113.939664946987
 21
-6.929763119200003
 31
0.0
 11
113.9413302163871
 21
-6.927119417799985
 31
0.0
 11
113.942990574087
 21
-6.924474983899981
 31
0.0
 11
113.9446462707871
 21
-6.921829362600021
 31
0.0
 11
113.946297681987
 21
-6.919181892600022
 31
0.0
 11
113.9479457451871
 21
-6.916530996699974
 31
0.0
 11
113.9495909580871
 21
-6.913875786699974
 31
0.0
 11
113.951234176087
 21
-6.911214780499959
 31
0.0
 11
113.952875972487
 21
-6.908546933600007
 31
0.0
 11
113.954517155787
 21
-6.905870800499997
 31
0.0
 11
113.956158264887
 21
-6.903185355499999
 31
0.0
  0
SPLINE
  5
55B13
330
1F
100
AcDbEntity
  8
1
100
AcDbSpline
210
0.0
220
0.0
230
1.0
 70
     8
 71
     3
 72
    16
 73
    12
 74
    10
 42
0.0000000001
 43
0.0000000001
 44
0.000001
 12
0.0550085357342854
 22
-0.9984858842248948
 32
0.0
 13
0.0582088927811112
 23
-0.9983044249131612
 33
0.0
 40
0.0
 40
0.0
 40
0.0
 40
0.0
 40
0.0814986635523101
 40
0.1554979847208119
 40
0.2208744869063175
 40
0.2786222823493174
 40
0.3299816598902363
 40
0.3765373465344454
 40
0.4201252649802542
 40
0.4625357384708713
 40
0.5051570979304386
 40
0.5051570979304386
 40
0.5051570979304386
 40
0.5051570979304386
 10
114.040840299587
 20
-0.4522933206999939
 30
0.0
 10
114.0423346736357
 20
-0.4794184090800523
 30
0.0
 10
114.0451934279192
 20
-0.531172176455328
 30
0.0
 10
114.049279143995
 20
-0.6046835537786622
 30
0.0
 10
114.052949129559
 20
-0.6702888579165647
 30
0.0
 10
114.0562164224698
 20
-0.7283582391786178
 30
0.0
 10
114.0591517464959
 20
-0.7801627671191707
 30
0.0
 10
114.0618384723222
 20
-0.827253847408761
 30
0.0
 10
114.0643718054079
 20
-0.8713658570714144
 30
0.0
 10
114.0668450665055
 20
-0.9141677103190749
 30
0.0
 10
114.0684889802727
 20
-0.9424639427185626
 30
0.0
 10
114.0693159609871
 20
-0.956646973299996
 30
0.0
 11
114.040840299587
 21
-0.4522933206999939
 31
0.0
 11
114.0453371413871
 21
-0.5336678201999803
 31
0.0
 11
114.049443961087
 21
-0.6075530778999793
 31
0.0
 11
114.0530939015871
 21
-0.6728276200000211
 31
0.0
 11
114.0563390672871
 21
-0.730484170699981
 31
0.0
 11
114.059244836287
 21
-0.7817612848999717
 31
0.0
 11
114.061896819587
 21
-0.8282413778999853
 31
0.0
 11
114.064395906787
 21
-0.871757596000009
 31
0.0
 11
114.0668424439871
 21
-0.9140974452000135
 31
0.0
 11
114.0693159609871
 21
-0.956646973299996
 31
0.0
  0
SPLINE
  5
55B14
330
1F
100
AcDbEntity
  8
1
100
AcDbSpline
210
0.0
220
0.0
230
1.0
 70
     8
 71
     3
 72
    52
 73
    48
 74
    46
 42
0.0000000001
 43
0.0000000001
 44
0.000001
 12
0.6323995908141175
 22
0.7746423416894645
 32
0.0
 13
0.5894784428169845
 23
0.8077841081960349
 33
0.0
 40
0.0
 40
0.0
 40
0.0
 40
0.0
 40
0.0038171418127409
 40
0.007591685886482
 40
0.0113262196160455
 40
0.0150225265879523
 40
0.018682300100227
 40
0.0223079510363934
 40
0.0259009181429533
 40
0.0294624786751619
 40
0.0329947119673983
 40
0.0364993666482123
 40
0.0399784362147586
 40
0.0434336524050966
 40
0.0468667782166255
 40
0.0502796686201994
 40
0.0536735738568821
 40
0.0570499436903539
 40
0.0604103970048655
 40
0.0637557596499773
 40
0.067086774727326
 40
0.0704039257089251
 40
0.0737062680165615
 40
0.0769924216625664
 40
0.08026174871455
 40
0.0835138646209266
 40
0.0867490375672057
 40
0.089969160505169
 40
0.0931761716455597
 40
0.0963714035220399
 40
0.0995553143048681
 40
0.1027291084333776
 40
0.1058944590560799
 40
0.1090522639102066
 40
0.1122039547965137
 40
0.1153509601042117
 40
0.1184937133728923
 40
0.1216332796083069
 40
0.1247712612608792
 40
0.1279089537638609
 40
0.1310479564496728
 40
0.1341897147575754
 40
0.1373356424127294
 40
0.1404861030844308
 40
0.1436415876725737
 40
0.1468038937722654
 40
0.1499740029849651
 40
0.1499740029849651
 40
0.1499740029849651
 40
0.1499740029849651
 10
113.7821108802871
 20
-7.147003904299991
 30
0.0
 10
113.7829155332605
 20
-7.146018264409198
 30
0.0
 10
113.7845146935141
 20
-7.144057031651181
 30
0.0
 10
113.7868970279442
 20
-7.141128178015309
 30
0.0
 10
113.7892504971302
 20
-7.138227768995008
 30
0.0
 10
113.7915764609103
 20
-7.135354311635929
 30
0.0
 10
113.7938761990782
 20
-7.132506323705761
 30
0.0
 10
113.796151047255
 20
-7.129682515112698
 30
0.0
 10
113.7984017525073
 20
-7.126881300244061
 30
0.0
 10
113.8006297266629
 20
-7.124101770108884
 30
0.0
 10
113.8028360320636
 20
-7.121342601320153
 30
0.0
 10
113.805021953543
 20
-7.118602343041154
 30
0.0
 10
113.8071886760874
 20
-7.115879612628731
 30
0.0
 10
113.8093373865504
 20
-7.113173022693084
 30
0.0
 10
113.8114692352215
 20
-7.110481215605115
 30
0.0
 10
113.8135852667255
 20
-7.107802954661391
 30
0.0
 10
113.8156864553229
 20
-7.105137080516569
 30
0.0
 10
113.817773721176
 20
-7.102482491288249
 30
0.0
 10
113.819847892067
 20
-7.099838192328841
 30
0.0
 10
113.8219096454928
 20
-7.097203370412999
 30
0.0
 10
113.8239594231502
 20
-7.09457750831334
 30
0.0
 10
113.8259973011199
 20
-7.09196055200469
 30
0.0
 10
113.8280229218281
 20
-7.089353006684695
 30
0.0
 10
113.8300357011537
 20
-7.086755674848667
 30
0.0
 10
113.8320351731075
 20
-7.084169214310644
 30
0.0
 10
113.834021210185
 20
-7.081593850069296
 30
0.0
 10
113.8359941999528
 20
-7.079029138908969
 30
0.0
 10
113.8379549985095
 20
-7.076474021127423
 30
0.0
 10
113.8399046727077
 20
-7.073927151485425
 30
0.0
 10
113.8418439918821
 20
-7.071387559253792
 30
0.0
 10
113.843773573626
 20
-7.068854465553995
 30
0.0
 10
113.8456941002967
 20
-7.066326998095322
 30
0.0
 10
113.8476063378762
 20
-7.063804164103625
 30
0.0
 10
113.8495110941076
 20
-7.061284907369532
 30
0.0
 10
113.8514091217838
 20
-7.058768232441755
 30
0.0
 10
113.8533010765393
 20
-7.056253264429323
 30
0.0
 10
113.8551875338208
 20
-7.053739221189363
 30
0.0
 10
113.8570691087632
 20
-7.051225277822069
 30
0.0
 10
113.8589465516636
 20
-7.048710351982473
 30
0.0
 10
113.8608208331242
 20
-7.046193303202677
 30
0.0
 10
113.8626924402993
 20
-7.043672697087025
 30
0.0
 10
113.8645625636178
 20
-7.041147573272915
 30
0.0
 10
113.8664317585656
 20
-7.038617012234937
 30
0.0
 10
113.868300456164
 20
-7.036080398721703
 30
0.0
 10
113.8701691418033
 20
-7.03353699855775
 30
0.0
 10
113.8720384233298
 20
-7.030985912269765
 30
0.0
 10
113.8732838103063
 20
-7.029281649247717
 30
0.0
 10
113.873906713987
 20
-7.028428061299963
 30
0.0
 11
113.7821108802871
 21
-7.147003904299991
 31
0.0
 11
113.7845230360871
 21
-7.144045525299986
 31
0.0
 11
113.7869047253871
 21
-7.141117292800004
 31
0.0
 11
113.7892576746871
 21
-7.138217278999944
 31
0.0
 11
113.791583095087
 21
-7.135344173100008
 31
0.0
 11
113.793882134287
 21
-7.132496729199999
 31
0.0
 11
113.796156383287
 21
-7.129673137099985
 31
0.0
 11
113.798406853487
 21
-7.126872290199968
 31
0.0
 11
113.800634379387
 21
-7.124093291800021
 31
0.0
 11
113.8028403193871
 21
-7.121334579599987
 31
0.0
 11
113.805025821787
 21
-7.118594839199999
 31
0.0
 11
113.807192181187
 21
-7.115872559500018
 31
0.0
 11
113.809340522387
 21
-7.11316642859998
 31
0.0
 11
113.811471983387
 21
-7.110475104999977
 31
0.0
 11
113.813587752787
 21
-7.107797169799994
 31
0.0
 11
113.815688638487
 21
-7.10513167389996
 31
0.0
 11
113.817775567087
 21
-7.102477507599985
 31
0.0
 11
113.8198495642871
 21
-7.099833423900007
 31
0.0
 11
113.8219111613871
 21
-7.097198795800011
 31
0.0
 11
113.8239608360871
 21
-7.094573059399976
 31
0.0
 11
113.8259989037872
 21
-7.091955853400007
 31
0.0
 11
113.828024802887
 21
-7.089347943500001
 31
0.0
 11
113.8300377086871
 21
-7.086750442300001
 31
0.0
 11
113.8320372552871
 21
-7.084163879100003
 31
0.0
 11
113.8340232339871
 21
-7.081588584399979
 31
0.0
 11
113.8359958351871
 21
-7.079024372099978
 31
0.0
 11
113.837956236687
 21
-7.076469765699982
 31
0.0
 11
113.839905636987
 21
-7.073923247499975
 31
0.0
 11
113.841844859687
 21
-7.071383775500009
 31
0.0
 11
113.8437741942871
 21
-7.068850999999995
 31
0.0
 11
113.845694379587
 21
-7.066323975399996
 31
0.0
 11
113.8476064325871
 21
-7.063801378800008
 31
0.0
 11
113.8495108969871
 21
-7.061282501599976
 31
0.0
 11
113.851408634087
 21
-7.058766205799996
 31
0.0
 11
113.853300497587
 21
-7.056251352000002
 31
0.0
 11
113.8551867387871
 21
-7.053737592599986
 31
0.0
 11
113.8570679851871
 21
-7.051224072900025
 31
0.0
 11
113.8589451810871
 21
-7.048709504099973
 31
0.0
 11
113.8608190809871
 21
-7.046192839000013
 31
0.0
 11
113.862690644387
 21
-7.043672742399962
 31
0.0
 11
113.8645606747871
 21
-7.041148075199997
 31
0.0
 11
113.866429974087
 21
-7.038617687999987
 31
0.0
 11
113.8682987190871
 21
-7.036081267399992
 31
0.0
 11
113.8701671597871
 21
-7.033538396200014
 31
0.0
 11
113.8720363149871
 21
-7.030987600900004
 31
0.0
 11
113.873906713987
 21
-7.028428061299963
 31
0.0
  0
SPLINE
  5
55B15
330
1F
100
AcDbEntity
  8
1
100
AcDbSpline
210
0.0
220
0.0
230
1.0
 70
     8
 71
     3
 72
    23
 73
    19
 74
    17
 42
0.0000000001
 43
0.0000000001
 44
0.000001
 12
0.0545153799555509
 22
-0.9985129309870263
 32
0.0
 13
0.0571541058743924
 23
-0.9983653680800925
 33
0.0
 40
0.0
 40
0.0
 40
0.0
 40
0.0
 40
0.0504394881170976
 40
0.0972449312135717
 40
0.1427992898059876
 40
0.1883906180533259
 40
0.2340241580923
 40
0.2796302187800439
 40
0.325290566975448
 40
0.3709863873679256
 40
0.4166424636762434
 40
0.4623580892051422
 40
0.5082891131388977
 40
0.5543491381171238
 40
0.6003752787312842
 40
0.6464083274275433
 40
0.6927453767742687
 40
0.7399064699159647
 40
0.7399064699159647
 40
0.7399064699159647
 40
0.7399064699159647
 10
114.0693159609871
 20
-0.956646973299996
 30
0.0
 10
114.0702325369402
 20
-0.9734351336724255
 30
0.0
 10
114.0720047136369
 20
-1.005801631750514
 30
0.0
 10
114.0746283235247
 20
-1.053329037084702
 30
0.0
 10
114.0771785803485
 20
-1.099241974592283
 30
0.0
 10
114.0797183220851
 20
-1.144764257952141
 30
0.0
 10
114.0822653956692
 20
-1.19030339241327
 30
0.0
 10
114.0848154043972
 20
-1.235865405211691
 30
0.0
 10
114.0873637794755
 20
-1.281448302131139
 30
0.0
 10
114.089904637825
 20
-1.327048316539311
 30
0.0
 10
114.0924396125535
 20
-1.372667112414344
 30
0.0
 10
114.0949768705709
 20
-1.418364303413037
 30
0.0
 10
114.0975235999166
 20
-1.464195825510997
 30
0.0
 10
114.1000824293727
 20
-1.510130339676609
 30
0.0
 10
114.1026538402406
 20
-1.556098213140266
 30
0.0
 10
114.1052453368872
 20
-1.602157446517803
 30
0.0
 10
114.1078738818011
 20
-1.648593509177106
 30
0.0
 10
114.1096502774168
 20
-1.679708891328822
 30
0.0
 10
114.1105487607869
 20
-1.695403558699978
 30
0.0
 11
114.0693159609871
 21
-0.956646973299996
 31
0.0
 11
114.0720758329871
 21
-1.007010899199997
 31
0.0
 11
114.074655010887
 21
-1.053745226300009
 31
0.0
 11
114.077180751287
 21
-1.099229511600015
 31
0.0
 11
114.0797195977871
 21
-1.144750094400022
 31
0.0
 11
114.0822671807871
 21
-1.190312466900024
 31
0.0
 11
114.084814926787
 21
-1.235847307999961
 31
0.0
 11
114.0873627108871
 21
-1.281436519299973
 31
0.0
 11
114.0899052211871
 21
-1.327061552299994
 31
0.0
 11
114.092439166287
 21
-1.372647256399999
 31
0.0
 11
114.094974220887
 21
-1.418292539899994
 31
0.0
 11
114.097523268987
 21
-1.464152776499985
 31
0.0
 11
114.1000858390871
 21
-1.510141461200021
 31
0.0
 11
114.1026571921871
 21
-1.556095718300014
 31
0.0
 11
114.105243239887
 21
-1.602056069799971
 31
0.0
 11
114.107863050487
 21
-1.648319000000014
 31
0.0
 11
114.1105487607869
 21
-1.695403558699978
 31
0.0
  0
SPLINE
  5
55B16
330
1F
100
AcDbEntity
  8
1
100
AcDbSpline
210
0.0
220
0.0
230
1.0
 70
     8
 71
     3
 72
    51
 73
    47
 74
    45
 42
0.0000000001
 43
0.0000000001
 44
0.000001
 12
0.6880160073903327
 22
0.7256955102346065
 32
0.0
 13
0.6533644113716947
 23
0.7570435561795101
 33
0.0
 40
0.0
 40
0.0
 40
0.0
 40
0.0
 40
0.0038738820107537
 40
0.007705408666004
 40
0.0114964319802443
 40
0.0152496251759446
 40
0.0189668648295859
 40
0.0226504111387092
 40
0.0263019294767543
 40
0.0299232662180408
 40
0.03351649648574
 40
0.0370832198661201
 40
0.0406253297959588
 40
0.0441435178609728
 40
0.0476399360169259
 40
0.0511172208516697
 40
0.0545757789208631
 40
0.0580181897907694
 40
0.0614475289287851
 40
0.064865285736659
 40
0.0682699560993898
 40
0.0716599763446086
 40
0.0750342270896541
 40
0.0783930004094396
 40
0.0817354491770031
 40
0.0850607146341206
 40
0.088369897158919
 40
0.0916647508500709
 40
0.0949466540534733
 40
0.0982175571973211
 40
0.1014792094286801
 40
0.1047318987141373
 40
0.107976068625217
 40
0.1112136441149634
 40
0.114446283397287
 40
0.1176758566213808
 40
0.1209031854431545
 40
0.1241297825212056
 40
0.1273568579663139
 40
0.1305858037060844
 40
0.1338170362840909
 40
0.1370528566822251
 40
0.1402946430450851
 40
0.143542695508858
 40
0.1467984888730963
 40
0.1500630278070845
 40
0.1500630278070845
 40
0.1500630278070845
 40
0.1500630278070845
 10
113.681356504987
 20
-7.258194622100006
 30
0.0
 10
113.6822449359317
 20
-7.257257535839212
 30
0.0
 10
113.6840110768174
 20
-7.255392653727635
 30
0.0
 10
113.6866431395967
 20
-7.25260741073554
 30
0.0
 10
113.6892446038682
 20
-7.249848605927263
 30
0.0
 10
113.6918170053336
 20
-7.247114760460054
 30
0.0
 10
113.6943619663574
 20
-7.244404289844531
 30
0.0
 10
113.6968808729377
 20
-7.24171584827077
 30
0.0
 10
113.6993750984669
 20
-7.239048091671847
 30
0.0
 10
113.7018459685899
 20
-7.236399715624535
 30
0.0
 10
113.7042947888282
 20
-7.233769426596444
 30
0.0
 10
113.7067227289806
 20
-7.231155783579701
 30
0.0
 10
113.7091309619736
 20
-7.228557977925819
 30
0.0
 10
113.7115205546201
 20
-7.225974850627782
 30
0.0
 10
113.7138927971382
 20
-7.223405112065466
 30
0.0
 10
113.716248893573
 20
-7.220847522129639
 30
0.0
 10
113.7185901435957
 20
-7.218300734933364
 30
0.0
 10
113.7209179390033
 20
-7.21576329045511
 30
0.0
 10
113.7232339094919
 20
-7.21323345701743
 30
0.0
 10
113.7255387589944
 20
-7.210710500871371
 30
0.0
 10
113.7278321472222
 20
-7.208194828795066
 30
0.0
 10
113.7301131516126
 20
-7.205687493412467
 30
0.0
 10
113.732381255775
 20
-7.203189107381247
 30
0.0
 10
113.7346361062415
 20
-7.200700108609236
 30
0.0
 10
113.7368774092226
 20
-7.198220871776552
 30
0.0
 10
113.7391050532775
 20
-7.195751573124741
 30
0.0
 10
113.741319507491
 20
-7.193291744760335
 30
0.0
 10
113.7435217364932
 20
-7.190840361467837
 30
0.0
 10
113.7457128900218
 20
-7.188396183365785
 30
0.0
 10
113.7478941111453
 20
-7.185957966759943
 30
0.0
 10
113.7500662955236
 20
-7.183524734267096
 30
0.0
 10
113.7522300012423
 20
-7.181095880436728
 30
0.0
 10
113.7543858215189
 20
-7.17867075263226
 30
0.0
 10
113.7565346547203
 20
-7.176248358313414
 30
0.0
 10
113.7586776920157
 20
-7.173827329115269
 30
0.0
 10
113.7608159405061
 20
-7.171406624694976
 30
0.0
 10
113.7629501278866
 20
-7.168985023031979
 30
0.0
 10
113.7650811886488
 20
-7.166561778141482
 30
0.0
 10
113.7672099990899
 20
-7.164135838968271
 30
0.0
 10
113.7693372112139
 20
-7.161706444001736
 30
0.0
 10
113.7714637074421
 20
-7.159272550180157
 30
0.0
 10
113.7735903641083
 20
-7.156833115326705
 30
0.0
 10
113.7757180266517
 20
-7.154387121908841
 30
0.0
 10
113.7778473559389
 20
-7.151933756938635
 30
0.0
 10
113.7799789276752
 20
-7.149472298570771
 30
0.0
 10
113.781399902434
 20
-7.14782770368795
 30
0.0
 10
113.7821108802871
 20
-7.147003904299991
 30
0.0
 11
113.681356504987
 21
-7.258194622100006
 31
0.0
 11
113.6840202525871
 21
-7.255381906299986
 31
0.0
 11
113.686651834087
 21
-7.252597079099983
 31
0.0
 11
113.689252604287
 21
-7.249838876399962
 31
0.0
 11
113.691824474187
 21
-7.247105429800001
 31
0.0
 11
113.694368801187
 21
-7.244395443799986
 31
0.0
 11
113.696887198687
 21
-7.241707336999978
 31
0.0
 11
113.699380867087
 21
-7.239039956099985
 31
0.0
 11
113.701851124587
 21
-7.236392010100018
 31
0.0
 11
113.704299445287
 21
-7.233762029300009
 31
0.0
 11
113.706726982487
 21
-7.231148876000019
 31
0.0
 11
113.709135047887
 21
-7.228551231599965
 31
0.0
 11
113.7115241525871
 21
-7.225968632199964
 31
0.0
 11
113.7138957955871
 21
-7.223399538199997
 31
0.0
 11
113.716251797587
 21
-7.220842047299981
 31
0.0
 11
113.718592462887
 21
-7.218295892199988
 31
0.0
 11
113.7209195626871
 21
-7.215759202299977
 31
0.0
 11
113.7232351952871
 21
-7.213229734099967
 31
0.0
 11
113.725540380287
 21
-7.210706406799999
 31
0.0
 11
113.727834117087
 21
-7.208190348599996
 31
0.0
 11
113.730115369887
 21
-7.205682736200002
 31
0.0
 11
113.7323834059871
 21
-7.203184421299964
 31
0.0
 11
113.734638443387
 21
-7.20069521229999
 31
0.0
 11
113.736879935687
 21
-7.198215762199992
 31
0.0
 11
113.739107331387
 21
-7.195746734999942
 31
0.0
 11
113.741321391687
 21
-7.193287340300003
 31
0.0
 11
113.743523310987
 21
-7.190836297999965
 31
0.0
 11
113.745714027787
 21
-7.188392603199986
 31
0.0
 11
113.747894857387
 21
-7.185954820400012
 31
0.0
 11
113.750066975087
 21
-7.183521658899962
 31
0.0
 11
113.7522305793871
 21
-7.181092914700002
 31
0.0
 11
113.754385971087
 21
-7.178668266499982
 31
0.0
 11
113.756534432187
 21
-7.176246283199986
 31
0.0
 11
113.758677061787
 21
-7.173825727999997
 31
0.0
 11
113.760815093887
 21
-7.171405200499974
 31
0.0
 11
113.762949083487
 21
-7.168984059100012
 31
0.0
 11
113.765080002787
 21
-7.166561182399959
 31
0.0
 11
113.767208631687
 21
-7.164135657999962
 31
0.0
 11
113.7693358693871
 21
-7.161706428999991
 31
0.0
 11
113.771461968887
 21
-7.159273169299978
 31
0.0
 11
113.7735884189871
 21
-7.156834130300012
 31
0.0
 11
113.775716095387
 21
-7.154388253399986
 31
0.0
 11
113.777845162287
 21
-7.151935290099969
 31
0.0
 11
113.779976551087
 21
-7.149474102599982
 31
0.0
 11
113.7821108802871
 21
-7.147003904299991
 31
0.0
  0
SPLINE
  5
55B17
330
1F
100
AcDbEntity
  8
1
100
AcDbSpline
210
0.0
220
0.0
230
1.0
 70
     8
 71
     3
 72
    21
 73
    17
 74
    15
 42
0.0000000001
 43
0.0000000001
 44
0.000001
 12
0.0536690574142072
 22
-0.9985587775770991
 32
0.0
 13
0.0566666917353267
 23
-0.9983931520437094
 33
0.0
 40
0.0
 40
0.0
 40
0.0
 40
0.0
 40
0.0460244982303086
 40
0.0918287415918613
 40
0.1375371683468383
 40
0.183278875059161
 40
0.22904021819381
 40
0.2746400901219863
 40
0.3200763235104743
 40
0.365491080523327
 40
0.4109594815884347
 40
0.4564979563325494
 40
0.5020334980626802
 40
0.5475060762273206
 40
0.5930850119615402
 40
0.6389879595758029
 40
0.6389879595758029
 40
0.6389879595758029
 40
0.6389879595758029
 10
114.1105487607869
 20
-1.695403558699978
 30
0.0
 10
114.1113721245996
 20
-1.710722947597131
 30
0.0
 10
114.11302098155
 20
-1.741288087402755
 30
0.0
 10
114.1155146639253
 20
-1.787065942840871
 30
0.0
 10
114.1180271984914
 20
-1.832748361052642
 30
0.0
 10
114.120558567348
 20
-1.878415416543743
 30
0.0
 10
114.1231001886408
 20
-1.924045660918574
 30
0.0
 10
114.1256417529364
 20
-1.969573925593558
 30
0.0
 10
114.1281759240983
 20
-2.014986894435265
 30
0.0
 10
114.1306994549999
 20
-2.060356564953522
 30
0.0
 10
114.1332126200496
 20
-2.105760943323795
 30
0.0
 10
114.1357241469904
 20
-2.151205734988651
 30
0.0
 10
114.13823859198
 20
-2.196651760091686
 30
0.0
 10
114.140764245171
 20
-2.24211067169961
 30
0.0
 10
114.1433128672437
 20
-2.287690963459327
 30
0.0
 10
114.1450345786264
 20
-2.31813628321443
 30
0.0
 10
114.1459016346871
 20
-2.333412679399998
 30
0.0
 11
114.1105487607869
 21
-1.695403558699978
 31
0.0
 11
114.1130299760871
 21
-1.74136112629992
 31
0.0
 11
114.115521405087
 21
-1.787097560999995
 31
0.0
 11
114.1180308544871
 21
-1.832737049499995
 31
0.0
 11
114.1205612474871
 21
-1.878408712699978
 31
0.0
 11
114.1231051197871
 21
-1.924099293999972
 31
0.0
 11
114.1256456319871
 21
-1.969628340799999
 31
0.0
 11
114.128175954787
 21
-2.014994063100004
 31
0.0
 11
114.1306974211871
 21
-2.060338768999996
 31
0.0
 11
114.1332116848871
 21
-2.105737601200019
 31
0.0
 11
114.135725673187
 21
-2.151206629499994
 31
0.0
 11
114.1382424951871
 21
-2.196672563499986
 31
0.0
 11
114.1407659590871
 21
-2.242075068699989
 31
0.0
 11
114.1433126270871
 21
-2.287582802600013
 31
0.0
 11
114.1459016346871
 21
-2.333412679399998
 31
0.0
  0
SPLINE
  5
55B18
330
1F
100
AcDbEntity
  8
1
100
AcDbSpline
210
0.0
220
0.0
230
1.0
 70
     8
 71
     3
 72
    18
 73
    14
 74
    12
 42
0.0000000001
 43
0.0000000001
 44
0.000001
 12
0.053365178223766
 22
-0.9985750636547789
 32
0.0
 13
0.0570756648826731
 23
-0.9983698555536424
 33
0.0
 40
0.0
 40
0.0
 40
0.0
 40
0.0
 40
0.0304719689558108
 40
0.0641437925696846
 40
0.1021442938825609
 40
0.1451321973801392
 40
0.1925724651978822
 40
0.241075540827744
 40
0.2886546790609272
 40
0.3363046652587094
 40
0.3845915250176891
 40
0.4332711980831969
 40
0.4813489965087884
 40
0.4813489965087884
 40
0.4813489965087884
 40
0.4813489965087884
 10
114.1459016346871
 20
-2.333412679399998
 30
0.0
 10
114.1464436820385
 20
-2.343555528846576
 30
0.0
 10
114.1475866255781
 20
-2.364906223445567
 30
0.0
 10
114.1494218377109
 20
-2.398904826873232
 30
0.0
 10
114.1514940907126
 20
-2.437068684558285
 30
0.0
 10
114.1538301273987
 20
-2.479814458921696
 30
0.0
 10
114.1563719463805
 20
-2.5260550667629
 30
0.0
 10
114.159010080944
 20
-2.573823100383364
 30
0.0
 10
114.1616627933892
 20
-2.621660340395761
 30
0.0
 10
114.1643252119559
 20
-2.66942485790521
 30
0.0
 10
114.1670246409871
 20
-2.717554724031225
 30
0.0
 10
114.1697503089213
 20
-2.765825944103924
 30
0.0
 10
114.1715855193166
 20
-2.798026180676804
 30
0.0
 10
114.172500210087
 20
-2.814025988899969
 30
0.0
 11
114.1459016346871
 21
-2.333412679399998
 31
0.0
 11
114.147532755887
 21
-2.363840961099981
 31
0.0
 11
114.149346742387
 21
-2.39746388689997
 31
0.0
 11
114.1514070270871
 21
-2.435408495300009
 31
0.0
 11
114.153752309387
 21
-2.478332375299999
 31
0.0
 11
114.156355513287
 21
-2.525701165800001
 31
0.0
 11
114.159029889287
 21
-2.574130454800013
 31
0.0
 11
114.161664752987
 21
-2.621636579300001
 31
0.0
 11
114.1643171111871
 21
-2.669212688399965
 31
0.0
 11
114.167021333187
 21
-2.717423765799991
 31
0.0
 11
114.1697669074871
 21
-2.766025950600009
 31
0.0
 11
114.172500210087
 21
-2.814025988899969
 31
0.0
  0
SPLINE
  5
55B19
330
1F
100
AcDbEntity
  8
1
100
AcDbSpline
210
0.0
220
0.0
230
1.0
 70
     8
 71
     3
 72
    51
 73
    47
 74
    45
 42
0.0000000001
 43
0.0000000001
 44
0.000001
 12
0.7400860621008648
 22
0.6725121714021503
 32
0.0
 13
0.7122103331231759
 23
0.7019661255306948
 33
0.0
 40
0.0
 40
0.0
 40
0.0
 40
0.0
 40
0.0038407855924252
 40
0.0076420365834899
 40
0.0114056930363852
 40
0.0151340551536218
 40
0.0188289393336609
 40
0.0224917507114457
 40
0.0261246485986205
 40
0.0297295473825694
 40
0.033307664176552
 40
0.0368608839844038
 40
0.0403914558300721
 40
0.0439005704518905
 40
0.047389798546506
 40
0.0508616726733552
 40
0.0543173071719402
 40
0.057757679026156
 40
0.0611840719888828
 40
0.064598019296756
 40
0.0679991509408182
 40
0.0713872605704504
 40
0.0747622229925
 40
0.0781223803522745
 40
0.0814665664830775
 40
0.0847956211066661
 40
0.088110066738699
 40
0.0914108490039039
 40
0.0946997301299269
 40
0.0979781182500817
 40
0.1012479036598198
 40
0.1045106165115742
 40
0.1077680556041799
 40
0.1110209049646733
 40
0.1142695519920472
 40
0.1175156745859405
 40
0.1207606560244155
 40
0.1240053110421741
 40
0.1272512145830561
 40
0.1304998342856982
 40
0.1337518043257979
 40
0.1370079872606956
 40
0.1402699629352109
 40
0.143539093991463
 40
0.1468170000135256
 40
0.1501051091552151
 40
0.1501051091552151
 40
0.1501051091552151
 40
0.1501051091552151
 10
113.572295439287
 20
-7.361316590499995
 30
0.0
 10
113.5732429432485
 20
-7.360455598813778
 30
0.0
 10
113.5751273699256
 20
-7.358741566217197
 30
0.0
 10
113.5779373934208
 20
-7.356180668297085
 30
0.0
 10
113.5807172850134
 20
-7.353642344235203
 30
0.0
 10
113.5834685947767
 20
-7.351125302717834
 30
0.0
 10
113.5861927361173
 20
-7.34862836688338
 30
0.0
 10
113.5888910832512
 20
-7.346150386419737
 30
0.0
 10
113.5915650298647
 20
-7.343690183715139
 30
0.0
 10
113.594215918804
 20
-7.341246618276828
 30
0.0
 10
113.596845021435
 20
-7.338818606799998
 30
0.0
 10
113.5994536869022
 20
-7.336404985627173
 30
0.0
 10
113.6020432532943
 20
-7.33400459194919
 30
0.0
 10
113.6046149775767
 20
-7.33161632942293
 30
0.0
 10
113.607170181985
 20
-7.329239032980168
 30
0.0
 10
113.6097101656167
 20
-7.326871549961445
 30
0.0
 10
113.6122360786131
 20
-7.324512858058926
 30
0.0
 10
113.6147487636819
 20
-7.322162215570696
 30
0.0
 10
113.6172491626911
 20
-7.319818782327489
 30
0.0
 10
113.6197378870264
 20
-7.317482022065162
 30
0.0
 10
113.6222151844782
 20
-7.31515173686361
 30
0.0
 10
113.6246809001904
 20
-7.312828107528586
 30
0.0
 10
113.627134567787
 20
-7.310511610173875
 30
0.0
 10
113.6295754903348
 20
-7.308202942696275
 30
0.0
 10
113.6320032071826
 20
-7.305902584668452
 30
0.0
 10
113.634417786218
 20
-7.303610516718499
 30
0.0
 10
113.6368198049579
 20
-7.301326233811414
 30
0.0
 10
113.639210061738
 20
-7.299049016821522
 30
0.0
 10
113.6415895656653
 20
-7.296777939821884
 30
0.0
 10
113.643959549962
 20
-7.294511855570812
 30
0.0
 10
113.6463211878732
 20
-7.292249665993538
 30
0.0
 10
113.6486757425846
 20
-7.289990178625654
 30
0.0
 10
113.6510241831692
 20
-7.287732475221154
 30
0.0
 10
113.6533672010902
 20
-7.285475898389246
 30
0.0
 10
113.6557054567091
 20
-7.283219816538562
 30
0.0
 10
113.6580397756271
 20
-7.28096343365221
 30
0.0
 10
113.6603710826483
 20
-7.278705851398011
 30
0.0
 10
113.6627002747959
 20
-7.276446192109293
 30
0.0
 10
113.6650282660865
 20
-7.274183555280572
 30
0.0
 10
113.6673559239493
 20
-7.271917078866136
 30
0.0
 10
113.6696839427482
 20
-7.269646063517355
 30
0.0
 10
113.6720130411336
 20
-7.267369781274039
 30
0.0
 10
113.6743441083813
 20
-7.265087331419842
 30
0.0
 10
113.6766782103622
 20
-7.262797632963068
 30
0.0
 10
113.6790163727349
 20
-7.260499636279132
 30
0.0
 10
113.6805758965512
 20
-7.258964002511511
 30
0.0
 10
113.681356504987
 20
-7.258194622100006
 30
0.0
 11
113.572295439287
 21
-7.361316590499995
 31
0.0
 11
113.575136689987
 21
-7.358732231899978
 31
0.0
 11
113.577946209287
 21
-7.356171752199996
 31
0.0
 11
113.5807254972871
 21
-7.353633921200013
 31
0.0
 11
113.583476313987
 21
-7.351117259099964
 31
0.0
 11
113.5862000570871
 21
-7.348620606699967
 31
0.0
 11
113.588897816287
 21
-7.346143077299983
 31
0.0
 11
113.5915712323871
 21
-7.343683269199972
 31
0.0
 11
113.5942217605871
 21
-7.341239940599962
 31
0.0
 11
113.596850338987
 21
-7.33881231739997
 31
0.0
 11
113.599458392487
 21
-7.3363991681
 31
0.0
 11
113.602047608187
 21
-7.333999008499972
 31
0.0
 11
113.6046188921871
 21
-7.331611068500023
 31
0.0
 11
113.607173425587
 21
-7.329234315699977
 31
0.0
 11
113.6097130889871
 21
-7.326867057399963
 31
0.0
 11
113.6122387204871
 21
-7.324508562400013
 31
0.0
 11
113.6147510549871
 21
-7.322158190200013
 31
0.0
 11
113.617251048887
 21
-7.319815087999982
 31
0.0
 11
113.6197398370871
 21
-7.317478228600008
 31
0.0
 11
113.622217164887
 21
-7.315147885300008
 31
0.0
 11
113.624682897587
 21
-7.312824220099969
 31
0.0
 11
113.627136960187
 21
-7.310507340000014
 31
0.0
 11
113.629578164987
 21
-7.308198405999974
 31
0.0
 11
113.632005685087
 21
-7.305898244999981
 31
0.0
 11
113.634420150787
 21
-7.303606305400021
 31
0.0
 11
113.6368219603871
 21
-7.301322251899988
 31
0.0
 11
113.6392118171871
 21
-7.299045455899999
 31
0.0
 11
113.641591012687
 21
-7.296774722299971
 31
0.0
 11
113.643960577987
 21
-7.294509096000012
 31
0.0
 11
113.6463218888871
 21
-7.292247284700009
 31
0.0
 11
113.6486760565869
 21
-7.289988240500007
 31
0.0
 11
113.6510243821871
 21
-7.287730725400023
 31
0.0
 11
113.6533673594871
 21
-7.285474270199982
 31
0.0
 11
113.655705267187
 21
-7.283218610000004
 31
0.0
 11
113.6580393105871
 21
-7.280962581700008
 31
0.0
 11
113.660370478987
 21
-7.278705222700011
 31
0.0
 11
113.662699350187
 21
-7.276445962799981
 31
0.0
 11
113.665027044787
 21
-7.274183699599973
 31
0.0
 11
113.667354602387
 21
-7.271917401400003
 31
0.0
 11
113.669682462187
 21
-7.269646614699978
 31
0.0
 11
113.6720112250871
 21
-7.267370724800002
 31
0.0
 11
113.674342001687
 21
-7.265088612399948
 31
0.0
 11
113.6766757435871
 21
-7.262799306399982
 31
0.0
 11
113.679013581387
 21
-7.260501651399977
 31
0.0
 11
113.681356504987
 21
-7.258194622100006
 31
0.0
  0
SPLINE
  5
55B1A
330
1F
100
AcDbEntity
  8
1
100
AcDbSpline
210
0.0
220
0.0
230
1.0
 70
     8
 71
     3
 72
    51
 73
    47
 74
    45
 42
0.0000000001
 43
0.0000000001
 44
0.000001
 12
0.788294304838762
 22
0.6152983739282699
 32
0.0
 13
0.7658391448339873
 23
0.6430321953370198
 33
0.0
 40
0.0
 40
0.0
 40
0.0
 40
0.0
 40
0.0038084239048194
 40
0.0075794520122026
 40
0.0113153061364788
 40
0.0150174601464253
 40
0.0186878680937265
 40
0.0223287196965099
 40
0.025941331192903
 40
0.0295267910598193
 40
0.0330868703076644
 40
0.0366236208127721
 40
0.0401387547797119
 40
0.0436342145931119
 40
0.0471115495215245
 40
0.0505729433080265
 40
0.0540200051601593
 40
0.0574540156731151
 40
0.0608765956237095
 40
0.0642890980715563
 40
0.0676906995487098
 40
0.0710805384655837
 40
0.0744579481047979
 40
0.0778212424547
 40
0.0811679022945246
 40
0.0844994018578028
 40
0.0878185316035332
 40
0.0911275446718777
 40
0.0944267554018977
 40
0.0977164352187154
 40
0.1009977204375909
 40
0.1042726616471821
 40
0.1075422104753658
 40
0.110807265731642
 40
0.1140698035989954
 40
0.1173311266217809
 40
0.1205916126496311
 40
0.1238515938951703
 40
0.1271128069550019
 40
0.1303768582579534
 40
0.1336456723213859
 40
0.1369206000753795
 40
0.1402034134653332
 40
0.1434951736417331
 40
0.1467963188001094
 40
0.1501077228329438
 40
0.1501077228329438
 40
0.1501077228329438
 40
0.1501077228329438
 10
113.4556216617871
 20
-7.455747348599969
 30
0.0
 10
113.4566223814119
 20
-7.454966242921347
 30
0.0
 10
113.4586133127902
 20
-7.453410827988942
 30
0.0
 10
113.461583528025
 20
-7.451086163692697
 30
0.0
 10
113.4645238498773
 20
-7.448780781300039
 30
0.0
 10
113.4674358100869
 20
-7.446493586812851
 30
0.0
 10
113.4703209279052
 20
-7.444223487349804
 30
0.0
 10
113.4731806770716
 20
-7.441969416971531
 30
0.0
 10
113.4760163009479
 20
-7.439730483350774
 30
0.0
 10
113.4788289302755
 20
-7.4375058765717
 30
0.0
 10
113.4816198849766
 20
-7.435294630455297
 30
0.0
 10
113.4843906442134
 20
-7.433095644858055
 30
0.0
 10
113.4871427279805
 20
-7.430907779053075
 30
0.0
 10
113.4898775213066
 20
-7.42872999163379
 30
0.0
 10
113.4925965285156
 20
-7.426561138567533
 30
0.0
 10
113.4953011633095
 20
-7.424400140207644
 30
0.0
 10
113.4979927657865
 20
-7.422245968169313
 30
0.0
 10
113.5006725263292
 20
-7.420097707240925
 30
0.0
 10
113.5033415657384
 20
-7.417954491850799
 30
0.0
 10
113.5060004554147
 20
-7.415815892342307
 30
0.0
 10
113.5086491212025
 20
-7.413681996636686
 30
0.0
 10
113.5112869656211
 20
-7.411553316171922
 30
0.0
 10
113.5139131691783
 20
-7.409430545041075
 30
0.0
 10
113.5165264851707
 20
-7.407314727719664
 30
0.0
 10
113.5191262247057
 20
-7.405206463452656
 30
0.0
 10
113.5217128587379
 20
-7.403105412636002
 30
0.0
 10
113.5242880902511
 20
-7.401010229245901
 30
0.0
 10
113.526853317997
 20
-7.398919805884466
 30
0.0
 10
113.5294092869234
 20
-7.396833561997791
 30
0.0
 10
113.531956452216
 20
-7.39475115071899
 30
0.0
 10
113.5344957156482
 20
-7.392671857012707
 30
0.0
 10
113.5370281518025
 20
-7.390594818964683
 30
0.0
 10
113.5395547712904
 20
-7.388519221475697
 30
0.0
 10
113.5420765631781
 20
-7.386444262270426
 30
0.0
 10
113.5445946041819
 20
-7.384369061485664
 30
0.0
 10
113.547109834193
 20
-7.382292846275881
 30
0.0
 10
113.5496227685155
 20
-7.380215190249058
 30
0.0
 10
113.5521340326979
 20
-7.378135573299307
 30
0.0
 10
113.5546445657387
 20
-7.376053211758525
 30
0.0
 10
113.5571557121799
 20
-7.373966979527187
 30
0.0
 10
113.5596687141543
 20
-7.371875828438525
 30
0.0
 10
113.5621848528153
 20
-7.369778670999355
 30
0.0
 10
113.564705184953
 20
-7.367674600072511
 30
0.0
 10
113.5672305310089
 20
-7.365562900195482
 30
0.0
 10
113.5697614797328
 20
-7.36344304560541
 30
0.0
 10
113.5714501050094
 20
-7.362026370301622
 30
0.0
 10
113.572295439287
 20
-7.361316590499995
 30
0.0
 11
113.4556216617871
 21
-7.455747348599969
 31
0.0
 11
113.458622789587
 21
-7.453402712500007
 31
0.0
 11
113.4615924149871
 21
-7.451078500899995
 31
0.0
 11
113.4645323411871
 21
-7.448773416999982
 31
0.0
 11
113.467443778087
 21
-7.446486619300003
 31
0.0
 11
113.4703283095871
 21
-7.444216964899964
 31
0.0
 11
113.473187700387
 21
-7.441963159400017
 31
0.0
 11
113.4760230248871
 21
-7.439724443499982
 31
0.0
 11
113.478835176287
 21
-7.437500195799996
 31
0.0
 11
113.481625579987
 21
-7.435289367400002
 31
0.0
 11
113.4843958776871
 21
-7.433090730000002
 31
0.0
 11
113.4871474407871
 21
-7.430903260999969
 31
0.0
 11
113.489881817087
 21
-7.428725789699967
 31
0.0
 11
113.492600243287
 21
-7.426557385699991
 31
0.0
 11
113.495304448287
 21
-7.424396718100012
 31
0.0
 11
113.497995708087
 21
-7.422242809499946
 31
0.0
 11
113.5006750391871
 21
-7.420094884099967
 31
0.0
 11
113.503343720487
 21
-7.417951949499978
 31
0.0
 11
113.5060028191871
 21
-7.415813177199991
 31
0.0
 11
113.5086517052871
 21
-7.413679101299976
 31
0.0
 11
113.511289720887
 21
-7.411550282000007
 31
0.0
 11
113.5139163612871
 21
-7.40942715899996
 31
0.0
 11
113.5165303310871
 21
-7.407310815199991
 31
0.0
 11
113.519129691487
 21
-7.405202862900011
 31
0.0
 11
113.5217156072871
 21
-7.403102401299975
 31
0.0
 11
113.5242902609871
 21
-7.4010076948
 31
0.0
 11
113.5268554132869
 21
-7.398917340699994
 31
0.0
 11
113.529411318887
 21
-7.396831157299969
 31
0.0
 11
113.5319581985871
 21
-7.394748989199967
 31
0.0
 11
113.5344969416871
 21
-7.392670132200009
 31
0.0
 11
113.5370291418871
 21
-7.390593299200019
 31
0.0
 11
113.539555539887
 21
-7.388517895999997
 31
0.0
 11
113.5420768335871
 21
-7.386443359499992
 31
0.0
 11
113.5445945504871
 21
-7.384368439199987
 31
0.0
 11
113.5471096945871
 21
-7.382292308599971
 31
0.0
 11
113.549622554887
 21
-7.380214727599991
 31
0.0
 11
113.552133384387
 21
-7.378135484200014
 31
0.0
 11
113.554643516087
 21
-7.376053468699979
 31
0.0
 11
113.557154179287
 21
-7.373967650300015
 31
0.0
 11
113.5596668444871
 21
-7.3718767908
 31
0.0
 11
113.562182537587
 21
-7.369780014500007
 31
0.0
 11
113.5647026048871
 21
-7.367676172599998
 31
0.0
 11
113.5672278437871
 21
-7.365564567999967
 31
0.0
 11
113.569758571787
 21
-7.363444900899992
 31
0.0
 11
113.572295439287
 21
-7.361316590499995
 31
0.0
  0
SPLINE
  5
55B1B
330
1F
100
AcDbEntity
  8
1
100
AcDbSpline
210
0.0
220
0.0
230
1.0
 70
     8
 71
     3
 72
    50
 73
    46
 74
    44
 42
0.0000000001
 43
0.0000000001
 44
0.000001
 12
0.8718976318990096
 22
0.4896881859805272
 32
0.0
 13
0.8569386229095025
 23
0.5154184674281334
 33
0.0
 40
0.0
 40
0.0
 40
0.0
 40
0.0
 40
0.0038266521867889
 40
0.007618898166503
 40
0.0113791029911959
 40
0.0151088530523734
 40
0.0188093602559335
 40
0.022482824321562
 40
0.0261312293713146
 40
0.0297559590206876
 40
0.0333588086406862
 40
0.0369419828381848
 40
0.0405067247261948
 40
0.0440537349222281
 40
0.047584461998691
 40
0.0511012542662004
 40
0.0546060886023958
 40
0.0581005956899788
 40
0.0615868267980781
 40
0.0650653452242989
 40
0.0685349477678831
 40
0.0719945870828813
 40
0.0754439394945862
 40
0.0788822053901698
 40
0.0823074890104943
 40
0.0857185858779792
 40
0.0891166401844729
 40
0.0925047399659631
 40
0.095885293879642
 40
0.0992593497415762
 40
0.1026278150210834
 40
0.1059921504899695
 40
0.1093537016506832
 40
0.1127139514822009
 40
0.1160741028573558
 40
0.1194355899350231
 40
0.122799442803639
 40
0.1261672267792819
 40
0.1295399983326672
 40
0.1329192932248107
 40
0.1363062043069908
 40
0.1397022100900647
 40
0.143108590691872
 40
0.1465267830494346
 40
0.1499579338786686
 40
0.1499579338786686
 40
0.1499579338786686
 40
0.1499579338786686
 10
113.202434117887
 20
-7.616324574399982
 30
0.0
 10
113.2035462675469
 20
-7.615699952277406
 30
0.0
 10
113.205760076831
 20
-7.614455450609931
 30
0.0
 10
113.2090650238156
 20
-7.612594150626667
 30
0.0
 10
113.2123403942771
 20
-7.61074616021537
 30
0.0
 10
113.2155877236073
 20
-7.608910702778366
 30
0.0
 10
113.2188084964911
 20
-7.60708702367636
 30
0.0
 10
113.2220043101352
 20
-7.605274297710958
 30
0.0
 10
113.2251768084892
 20
-7.603471665859772
 30
0.0
 10
113.2283275154805
 20
-7.601678330500094
 30
0.0
 10
113.2314580162275
 20
-7.599893452757587
 30
0.0
 10
113.2345698523376
 20
-7.598116211832039
 30
0.0
 10
113.2376642460198
 20
-7.596345963336451
 30
0.0
 10
113.2407421988729
 20
-7.59458218462335
 30
0.0
 10
113.2438050303042
 20
-7.592824166556333
 30
0.0
 10
113.2468544261733
 20
-7.591070983728288
 30
0.0
 10
113.2498921220721
 20
-7.589321675335034
 30
0.0
 10
113.2529197650437
 20
-7.587575325121283
 30
0.0
 10
113.2559385914686
 20
-7.585831247843412
 30
0.0
 10
113.2589490181553
 20
-7.584089227902531
 30
0.0
 10
113.2619505678833
 20
-7.582349566872858
 30
0.0
 10
113.2649425086861
 20
-7.580612716334431
 30
0.0
 10
113.2679242259921
 20
-7.578879062062485
 30
0.0
 10
113.270894861749
 20
-7.577149133629678
 30
0.0
 10
113.2738533057436
 20
-7.575423610950586
 30
0.0
 10
113.2767990090422
 20
-7.573702850133551
 30
0.0
 10
113.2797328572092
 20
-7.571986369334235
 30
0.0
 10
113.2826567731364
 20
-7.570273074659756
 30
0.0
 10
113.2855726487997
 20
-7.568561882926485
 30
0.0
 10
113.2884817467316
 20
-7.566852074407536
 30
0.0
 10
113.291385055365
 20
-7.565143086527388
 30
0.0
 10
113.2942836470633
 20
-7.563434303638631
 30
0.0
 10
113.297178757669
 20
-7.561725009615068
 30
0.0
 10
113.3000715471229
 20
-7.560014528830352
 30
0.0
 10
113.3029631990065
 20
-7.558302167553066
 30
0.0
 10
113.3058547652503
 20
-7.556587305992358
 30
0.0
 10
113.3087474000352
 20
-7.554869259914388
 30
0.0
 10
113.3116421475757
 20
-7.553147406468678
 30
0.0
 10
113.3145401952516
 20
-7.551421033776959
 30
0.0
 10
113.3174425933829
 20
-7.549689507615562
 30
0.0
 10
113.3203505113924
 20
-7.547952118831543
 30
0.0
 10
113.3232650437762
 20
-7.546208199032437
 30
0.0
 10
113.3261873816644
 20
-7.544457017961937
 30
0.0
 10
113.3291186194615
 20
-7.542697899196407
 30
0.0
 10
113.3310754936649
 20
-7.541521780333942
 30
0.0
 10
113.3320555888871
 20
-7.54093228749997
 30
0.0
 11
113.202434117887
 21
-7.616324574399982
 31
0.0
 11
113.2057698315871
 21
-7.614449397599968
 31
0.0
 11
113.209074100587
 21
-7.612588496299962
 31
0.0
 11
113.2123490235871
 21
-7.610740782599974
 31
0.0
 11
113.2155960177871
 21
-7.60890554499997
 31
0.0
 11
113.218816171787
 21
-7.607082251399956
 31
0.0
 11
113.2220114313871
 21
-7.605269878499997
 31
0.0
 11
113.2251835513871
 21
-7.60346750299999
 31
0.0
 11
113.2283337617871
 21
-7.601674493299981
 31
0.0
 11
113.2314636479871
 21
-7.59989000959996
 31
0.0
 11
113.234575147987
 21
-7.598113004100014
 31
0.0
 11
113.237669362087
 21
-7.596342900799982
 31
0.0
 11
113.2407469180871
 21
-7.594579390100022
 31
0.0
 11
113.243809091387
 21
-7.592821787999922
 31
0.0
 11
113.246857934987
 21
-7.591068957699973
 31
0.0
 11
113.2498951768871
 21
-7.589319942200006
 31
0.0
 11
113.252922242287
 21
-7.587573952299976
 31
0.0
 11
113.2559409184871
 21
-7.585829984700012
 31
0.0
 11
113.2589517020871
 21
-7.584087776399996
 31
0.0
 11
113.261953561087
 21
-7.582347949699964
 31
0.0
 11
113.264945599687
 21
-7.580611051000005
 31
0.0
 11
113.267927549287
 21
-7.578877265599999
 31
0.0
 11
113.2708987302871
 21
-7.577147018699974
 31
0.0
 11
113.273857517587
 21
-7.575421290000008
 31
0.0
 11
113.2768028854871
 21
-7.573700714700009
 31
0.0
 11
113.279735836687
 21
-7.571984743899975
 31
0.0
 11
113.2826590489871
 21
-7.570271842400018
 31
0.0
 11
113.2855746102871
 21
-7.568560811999986
 31
0.0
 11
113.288483432187
 21
-7.566851138699973
 31
0.0
 11
113.291386304087
 21
-7.565142377499967
 31
0.0
 11
113.2942844905869
 21
-7.563433799899938
 31
0.0
 11
113.297179155287
 21
-7.561724733000004
 31
0.0
 11
113.300071578187
 21
-7.560014430600005
 31
0.0
 11
113.3029627963871
 21
-7.558302286000013
 31
0.0
 11
113.3058540443871
 21
-7.556587571900022
 31
0.0
 11
113.308746207487
 21
-7.554869764300008
 31
0.0
 11
113.311640629587
 21
-7.553148063200012
 31
0.0
 11
113.314538215587
 21
-7.551421925900001
 31
0.0
 11
113.3174402804871
 21
-7.549690561600016
 31
0.0
 11
113.320347757187
 21
-7.547953403500002
 31
0.0
 11
113.323261907987
 21
-7.546209684199992
 31
0.0
 11
113.326183823287
 21
-7.544458735399985
 31
0.0
 11
113.329114726087
 21
-7.542699804999982
 31
0.0
 11
113.3320555888871
 21
-7.54093228749997
 31
0.0
  0
SPLINE
  5
55B1C
330
1F
100
AcDbEntity
  8
1
100
AcDbSpline
210
0.0
220
0.0
230
1.0
 70
     8
 71
     3
 72
    50
 73
    46
 74
    44
 42
0.0000000001
 43
0.0000000001
 44
0.000001
 12
0.9066880912237868
 22
0.4218017368776071
 32
0.0
 13
0.8942370146316999
 23
0.4475937462281895
 33
0.0
 40
0.0
 40
0.0
 40
0.0
 40
0.0
 40
0.0037931616661308
 40
0.0075545550647607
 40
0.0112854602876838
 40
0.0149870269921537
 40
0.0186611843900905
 40
0.0223098115957539
 40
0.0259346425941138
 40
0.0295377038887952
 40
0.0331206944723468
 40
0.0366856878239826
 40
0.0402336607746995
 40
0.0437654374673514
 40
0.0472831587459175
 40
0.0507886552826405
 40
0.0542833731114288
 40
0.0577693597577215
 40
0.061247575686814
 40
0.0647175722436557
 40
0.0681788979667459
 40
0.0716319238234873
 40
0.0750758582149645
 40
0.0785092215573868
 40
0.081930688339901
 40
0.0853408632882978
 40
0.0887411118113664
 40
0.0921330496338806
 40
0.0955182403316445
 40
0.0988974662650644
 40
0.102271923691312
 40
0.1056430903806023
 40
0.1090125092892675
 40
0.1123815145099976
 40
0.1157513569002183
 40
0.1191233086985734
 40
0.1224985917924029
 40
0.1258785764210738
 40
0.1292645618198142
 40
0.1326578432610091
 40
0.1360594920283473
 40
0.1394709915849462
 40
0.1428942825639225
 40
0.1463312185546878
 40
0.1497830938506614
 40
0.1497830938506614
 40
0.1497830938506614
 40
0.1497830938506614
 10
113.067571648987
 20
-7.681482509500027
 30
0.0
 10
113.0687180538239
 20
-7.680949188773683
 30
0.0
 10
113.0710008512692
 20
-7.67988613039199
 30
0.0
 10
113.0744098137912
 20
-7.678295448912297
 30
0.0
 10
113.0777899092606
 20
-7.676715110107309
 30
0.0
 10
113.0811424843616
 20
-7.675144568815259
 30
0.0
 10
113.084469064403
 20
-7.673583190116528
 30
0.0
 10
113.0877713485228
 20
-7.6720302507862
 30
0.0
 10
113.0910510626756
 20
-7.670485008165996
 30
0.0
 10
113.0943098759909
 20
-7.668946739635931
 30
0.0
 10
113.0975495574781
 20
-7.667414668858409
 30
0.0
 10
113.1007715574568
 20
-7.665888163846704
 30
0.0
 10
113.103977060772
 20
-7.664366713207558
 30
0.0
 10
113.1071672710011
 20
-7.662849792485932
 30
0.0
 10
113.1103436469533
 20
-7.661336751065856
 30
0.0
 10
113.1135078324295
 20
-7.659826844519577
 30
0.0
 10
113.1166614410162
 20
-7.658319337208958
 30
0.0
 10
113.1198058225507
 20
-7.656813614213209
 30
0.0
 10
113.1229417556522
 20
-7.655309329950942
 30
0.0
 10
113.1260692672775
 20
-7.653806497762843
 30
0.0
 10
113.1291882074132
 20
-7.652305216307482
 30
0.0
 10
113.1322983232112
 20
-7.650805634087885
 30
0.0
 10
113.1353990535053
 20
-7.649308049152582
 30
0.0
 10
113.1384893289155
 20
-7.647813007467718
 30
0.0
 10
113.141568500298
 20
-7.646320854793812
 30
0.0
 10
113.1446367723223
 20
-7.64483152407771
 30
0.0
 10
113.1476952308672
 20
-7.643344518425521
 30
0.0
 10
113.1507452476925
 20
-7.64185919788807
 30
0.0
 10
113.1537880181294
 20
-7.640375004042936
 30
0.0
 10
113.1568246104216
 20
-7.63889143678995
 30
0.0
 10
113.1598560658458
 20
-7.63740800592444
 30
0.0
 10
113.1628836519974
 20
-7.63592410686839
 30
0.0
 10
113.1659086761291
 20
-7.634439111511865
 30
0.0
 10
113.1689323760221
 20
-7.632952421830238
 30
0.0
 10
113.1719559070191
 20
-7.631463476615799
 30
0.0
 10
113.1749803895245
 20
-7.629971728348692
 30
0.0
 10
113.1780069782667
 20
-7.628476609119285
 30
0.0
 10
113.1810368346424
 20
-7.626977544187166
 30
0.0
 10
113.1840711405544
 20
-7.625473945090589
 30
0.0
 10
113.1871109872215
 20
-7.623965264803013
 30
0.0
 10
113.1901575195455
 20
-7.622450926336572
 30
0.0
 10
113.1932120736182
 20
-7.620930254060132
 30
0.0
 10
113.196276217221
 20
-7.61940245261954
 30
0.0
 10
113.1993514597484
 20
-7.617866750951576
 30
0.0
 10
113.2014051863338
 20
-7.616839586998394
 30
0.0
 10
113.202434117887
 20
-7.616324574399982
 30
0.0
 11
113.067571648987
 21
-7.681482509500027
 31
0.0
 11
113.071010248987
 21
-7.679881223800008
 31
0.0
 11
113.0744188346871
 21
-7.678290736099937
 31
0.0
 11
113.077798597287
 21
-7.676710578099972
 31
0.0
 11
113.0811506078871
 21
-7.675140332199987
 31
0.0
 11
113.0844766415871
 21
-7.673579245599967
 31
0.0
 11
113.087778425487
 21
-7.672026580799978
 31
0.0
 11
113.091057552887
 21
-7.670481656499988
 31
0.0
 11
113.094315879287
 21
-7.668943661299977
 31
0.0
 11
113.0975549615871
 21
-7.667411918200002
 31
0.0
 11
113.100776692787
 21
-7.665885584699991
 31
0.0
 11
113.103981972887
 21
-7.664364283499992
 31
0.0
 11
113.107171562587
 21
-7.662847699699965
 31
0.0
 11
113.1103474102871
 21
-7.661334949799991
 31
0.0
 11
113.113511181687
 21
-7.659825277899982
 31
0.0
 11
113.116664193487
 21
-7.658318089700002
 31
0.0
 11
113.119808302987
 21
-7.656812526999999
 31
0.0
 11
113.1229443851871
 21
-7.655308197099996
 31
0.0
 11
113.126072043987
 21
-7.653805315400005
 31
0.0
 11
113.1291908812871
 21
-7.652304099499986
 31
0.0
 11
113.132301240287
 21
-7.650804410700003
 31
0.0
 11
113.1354024170871
 21
-7.649306615300019
 31
0.0
 11
113.138493089487
 21
-7.647811381200027
 31
0.0
 11
113.141572075687
 21
-7.646319312599985
 31
0.0
 11
113.1446399314871
 21
-7.644830172999945
 31
0.0
 11
113.147697896087
 21
-7.643343391699999
 31
0.0
 11
113.1507474320871
 21
-7.641858284899967
 31
0.0
 11
113.1537899533871
 21
-7.640374187799976
 31
0.0
 11
113.156826170387
 21
-7.638890775200025
 31
0.0
 11
113.159857164287
 21
-7.637407537900003
 31
0.0
 11
113.162884267787
 21
-7.635923840100018
 31
0.0
 11
113.165908870387
 21
-7.634439013699988
 31
0.0
 11
113.168932172687
 21
-7.632952479700009
 31
0.0
 11
113.1719552989871
 21
-7.631463692500005
 31
0.0
 11
113.174979391587
 21
-7.629972094599963
 31
0.0
 11
113.178005546287
 21
-7.628477148
 31
0.0
 11
113.181034990487
 21
-7.626978246100008
 31
0.0
 11
113.184068886587
 21
-7.625474811000002
 31
0.0
 11
113.1871083920871
 21
-7.623966263799957
 31
0.0
 11
113.1901544625871
 21
-7.622452122600008
 31
0.0
 11
113.193208421487
 21
-7.620931719400005
 31
0.0
 11
113.196271999887
 21
-7.619404179299976
 31
0.0
 11
113.199346848987
 21
-7.61786866220001
 31
0.0
 11
113.202434117887
 21
-7.616324574399982
 31
0.0
  0
SPLINE
  5
55B1D
330
1F
100
AcDbEntity
  8
1
100
AcDbSpline
210
0.0
220
0.0
230
1.0
 70
     8
 71
     3
 72
    49
 73
    45
 74
    43
 42
0.0000000001
 43
0.0000000001
 44
0.000001
 12
0.9364146143909357
 22
0.350895525698284
 32
0.0
 13
0.9259554466453787
 23
0.3776327724493163
 33
0.0
 40
0.0
 40
0.0
 40
0.0
 40
0.0
 40
0.0038460350594773
 40
0.0076609158825777
 40
0.0114466913095833
 40
0.0152044177068938
 40
0.0189353092858146
 40
0.0226413752607378
 40
0.0263247003440721
 40
0.0299872254774895
 40
0.033630859831369
 40
0.0372572393225855
 40
0.0408680250843359
 40
0.0444642037377488
 40
0.0480473613076959
 40
0.0516200906828765
 40
0.0551850588849519
 40
0.0587443049346781
 40
0.0622976923462317
 40
0.0658438551924222
 40
0.0693819574838183
 40
0.0729118761622287
 40
0.0764328771153727
 40
0.0799431675650477
 40
0.0834414244333937
 40
0.0869283295645561
 40
0.0904065102178992
 40
0.0938782273510141
 40
0.0973447925110129
 40
0.1008072040620248
 40
0.1042669623636052
 40
0.1077254572350394
 40
0.1111841840380653
 40
0.1146443890397052
 40
0.1181074971672016
 40
0.1215747381518121
 40
0.1250477422078999
 40
0.1285279641386737
 40
0.1320169198613903
 40
0.1355154992010239
 40
0.1390251464044671
 40
0.1425472752202233
 40
0.1460831065779955
 40
0.1496342896261255
 40
0.1496342896261255
 40
0.1496342896261255
 40
0.1496342896261255
 10
112.928248614287
 20
-7.736053331899994
 30
0.0
 10
112.929449108766
 20
-7.735603479735311
 30
0.0
 10
112.9318400126754
 20
-7.734706456658948
 30
0.0
 10
112.9354113521221
 20
-7.733363302037115
 30
0.0
 10
112.9389540871173
 20
-7.732027714694201
 30
0.0
 10
112.9424695909671
 20
-7.730699262541355
 30
0.0
 10
112.9459592229167
 20
-7.729377513152622
 30
0.0
 10
112.9494246608361
 20
-7.728061907257888
 30
0.0
 10
112.9528678068207
 20
-7.726751793353942
 30
0.0
 10
112.9562905294799
 20
-7.725446525407168
 30
0.0
 10
112.9596945554503
 20
-7.724145504662149
 30
0.0
 10
112.9630815222339
 20
-7.722848160146623
 30
0.0
 10
112.9664527783441
 20
-7.721554025910494
 30
0.0
 10
112.9698096552271
 20
-7.720262637736858
 30
0.0
 10
112.9731537726236
 20
-7.718973415590536
 30
0.0
 10
112.9764872708493
 20
-7.717685572414487
 30
0.0
 10
112.9798124285754
 20
-7.716398260114747
 30
0.0
 10
112.9831306738006
 20
-7.715110953132043
 30
0.0
 10
112.986442180148
 20
-7.71382360925387
 30
0.0
 10
112.9897462283077
 20
-7.71253653412414
 30
0.0
 10
112.9930421039848
 20
-7.711250033816354
 30
0.0
 10
112.9963292896985
 20
-7.709964339307347
 30
0.0
 10
112.9996069715281
 20
-7.70867979910556
 30
0.0
 10
113.0028739641579
 20
-7.707396910185316
 30
0.0
 10
113.0061295227691
 20
-7.706115999851754
 30
0.0
 10
113.0093742738462
 20
-7.704836856500385
 30
0.0
 10
113.0126099540863
 20
-7.703558827148124
 30
0.0
 10
113.015838493391
 20
-7.702281176469279
 30
0.0
 10
113.0190613149846
 20
-7.701003364260153
 30
0.0
 10
113.0222796050889
 20
-7.699724940345152
 30
0.0
 10
113.0254945729588
 20
-7.698445441777911
 30
0.0
 10
113.0287075804716
 20
-7.697164341011786
 30
0.0
 10
113.0319199094818
 20
-7.695881138425743
 30
0.0
 10
113.0351328514272
 20
-7.694595326790224
 30
0.0
 10
113.0383476142874
 20
-7.693306428600765
 30
0.0
 10
113.0415655236007
 20
-7.692013915618911
 30
0.0
 10
113.0447879128332
 20
-7.690717252600714
 30
0.0
 10
113.0480162025894
 20
-7.689415865292746
 30
0.0
 10
113.0512515832455
 20
-7.688109268407323
 30
0.0
 10
113.05449524077
 20
-7.686796975139951
 30
0.0
 10
113.0577483284333
 20
-7.685478508684961
 30
0.0
 10
113.0610121006023
 20
-7.684153347843253
 30
0.0
 10
113.0642878736683
 20
-7.682820942706145
 30
0.0
 10
113.0664755698919
 20
-7.681929523866674
 30
0.0
 10
113.067571648987
 20
-7.681482509500027
 30
0.0
 11
112.928248614287
 21
-7.736053331899994
 31
0.0
 11
112.9318495594871
 21
-7.734702334500012
 31
0.0
 11
112.935420270087
 21
-7.733359434600004
 31
0.0
 11
112.938962690387
 21
-7.732023990199991
 31
0.0
 11
112.9424778338871
 21
-7.730695703200012
 31
0.0
 11
112.945966860387
 21
-7.729374215599988
 31
0.0
 11
112.9494316712871
 21
-7.728058882399977
 31
0.0
 11
112.952874236387
 21
-7.726749025599985
 31
0.0
 11
112.956296388787
 21
-7.725444011799992
 31
0.0
 11
112.959699929787
 21
-7.724143212999989
 31
0.0
 11
112.9630864034871
 21
-7.722846093300006
 31
0.0
 11
112.966457375787
 21
-7.721552102899977
 31
0.0
 11
112.969813781287
 21
-7.720260929299967
 31
0.0
 11
112.973157112787
 21
-7.718972041299991
 31
0.0
 11
112.9764898004871
 21
-7.717684539900004
 31
0.0
 11
112.979814341087
 21
-7.71639749229996
 31
0.0
 11
112.9831326431871
 21
-7.715110185900017
 31
0.0
 11
112.986444585887
 21
-7.713822691500013
 31
0.0
 11
112.9897489030871
 21
-7.712535527
 31
0.0
 11
112.993044823587
 21
-7.711249020600007
 31
0.0
 11
112.9963322409871
 21
-7.709963242799972
 31
0.0
 11
112.9996104800871
 21
-7.708678487199961
 31
0.0
 11
113.002877881187
 21
-7.707395436499949
 31
0.0
 11
113.006133223387
 21
-7.706114605599963
 31
0.0
 11
113.0093771519871
 21
-7.704835776399987
 31
0.0
 11
113.012612120787
 21
-7.703558013699987
 31
0.0
 11
113.015840240487
 21
-7.702280510599962
 31
0.0
 11
113.0190627372871
 21
-7.701002805099959
 31
0.0
 11
113.0222805449871
 21
-7.699724547299978
 31
0.0
 11
113.025495062987
 21
-7.698445199499984
 31
0.0
 11
113.028707586487
 21
-7.697164261000011
 31
0.0
 11
113.031919507487
 21
-7.695881188800001
 31
0.0
 11
113.0351319853871
 21
-7.694595528999967
 31
0.0
 11
113.038346344287
 21
-7.693306758299968
 31
0.0
 11
113.041563725887
 21
-7.6920144229
 31
0.0
 11
113.044785642287
 21
-7.690717916599965
 31
0.0
 11
113.048013441487
 21
-7.689416695200009
 31
0.0
 11
113.0512485268871
 21
-7.688110188400003
 31
0.0
 11
113.0544917201871
 21
-7.686798057399982
 31
0.0
 11
113.057744356187
 21
-7.6854797533
 31
0.0
 11
113.061007740087
 21
-7.684154735300013
 31
0.0
 11
113.0642829973871
 21
-7.682822532499981
 31
0.0
 11
113.067571648987
 21
-7.681482509500027
 31
0.0
  0
SPLINE
  5
55B1E
330
1F
100
AcDbEntity
  8
1
100
AcDbSpline
210
0.0
220
0.0
230
1.0
 70
     8
 71
     3
 72
    49
 73
    45
 74
    43
 42
0.0000000001
 43
0.0000000001
 44
0.000001
 12
0.9607854318751073
 22
0.2772929027158177
 32
0.0
 13
0.952057805278107
 23
0.3059181841751711
 33
0.0
 40
0.0
 40
0.0
 40
0.0
 40
0.0
 40
0.0038090210518865
 40
0.00758891652812
 40
0.0113417217657345
 40
0.0150684339344133
 40
0.0187704499283181
 40
0.0224499068303247
 40
0.0261088218166347
 40
0.0297483823521799
 40
0.0333703458600408
 40
0.0369769236388339
 40
0.0405690460952685
 40
0.0441474496385355
 40
0.0477134932995148
 40
0.0512693128629586
 40
0.0548166300582542
 40
0.05835782590031
 40
0.0618947920245067
 40
0.065428494162517
 40
0.0689571018732207
 40
0.0724786644233055
 40
0.0759924933937045
 40
0.0794980231317615
 40
0.0829941921820164
 40
0.086481037048777
 40
0.0899602303918311
 40
0.0934327733542701
 40
0.0969000125341976
 40
0.1003640810682521
 40
0.1038262892594397
 40
0.1072884701687025
 40
0.1107518175842684
 40
0.1142179510584075
 40
0.1176875692289132
 40
0.1211622674187143
 40
0.1246440910118794
 40
0.1281351149777394
 40
0.1316369112829931
 40
0.1351495443390346
 40
0.1386730263752589
 40
0.1422081427310559
 40
0.1457573019978913
 40
0.1493224963186145
 40
0.1493224963186145
 40
0.1493224963186145
 40
0.1493224963186145
 10
112.7854460389871
 20
-7.779676353000012
 30
0.0
 10
112.7866659229658
 20
-7.779324281498684
 30
0.0
 10
112.7890960667213
 20
-7.778621803170787
 30
0.0
 10
112.7927270628994
 20
-7.77756889810906
 30
0.0
 10
112.7963308418939
 20
-7.776520650889962
 30
0.0
 10
112.7999088415853
 20
-7.775476727707991
 30
0.0
 10
112.8034625309971
 20
-7.774436779734161
 30
0.0
 10
112.8069937038067
 20
-7.773400356528746
 30
0.0
 10
112.8105040848847
 20
-7.772367020650486
 30
0.0
 10
112.8139952760701
 20
-7.771336364459736
 30
0.0
 10
112.8174689397312
 20
-7.77030795643733
 30
0.0
 10
112.8209266544482
 20
-7.76928138354985
 30
0.0
 10
112.8243696711388
 20
-7.768256324600044
 30
0.0
 10
112.8277989674297
 20
-7.767232535762063
 30
0.0
 10
112.83121590494
 20
-7.766209654619037
 30
0.0
 10
112.8346221585472
 20
-7.765187219682841
 30
0.0
 10
112.8380197277914
 20
-7.764164665914119
 30
0.0
 10
112.8414105325322
 20
-7.763141445711456
 30
0.0
 10
112.844796249714
 20
-7.76211707859457
 30
0.0
 10
112.8481772115173
 20
-7.761091486836102
 30
0.0
 10
112.8515525246351
 20
-7.760064964863508
 30
0.0
 10
112.8549207693332
 20
-7.759037971009751
 30
0.0
 10
112.8582809302542
 20
-7.758010844130566
 30
0.0
 10
112.8616322762378
 20
-7.756983838615088
 30
0.0
 10
112.8649743077373
 20
-7.755957139764232
 30
0.0
 10
112.8683072386712
 20
-7.754930714437226
 30
0.0
 10
112.8716319395724
 20
-7.753904325453036
 30
0.0
 10
112.8749496973202
 20
-7.752877603669595
 30
0.0
 10
112.8782619443425
 20
-7.751850130919089
 30
0.0
 10
112.8815702102278
 20
-7.750821454286187
 30
0.0
 10
112.8848761780844
 20
-7.749791068339797
 30
0.0
 10
112.8881812308042
 20
-7.748758556601393
 30
0.0
 10
112.8914868485157
 20
-7.747723468064091
 30
0.0
 10
112.8947941493902
 20
-7.746685461151672
 30
0.0
 10
112.8981043783862
 20
-7.745644151230969
 30
0.0
 10
112.9014189148765
 20
-7.744599107882534
 30
0.0
 10
112.9047395745181
 20
-7.743549758697106
 30
0.0
 10
112.9080681640645
 20
-7.742495528904115
 30
0.0
 10
112.9114058594664
 20
-7.741436039005989
 30
0.0
 10
112.9147531806151
 20
-7.740371115317461
 30
0.0
 10
112.9181103972999
 20
-7.739300662928284
 30
0.0
 10
112.9214785234308
 20
-7.738224348461532
 30
0.0
 10
112.9248592005298
 20
-7.737141634484923
 30
0.0
 10
112.9271171905935
 20
-7.736416884490936
 30
0.0
 10
112.928248614287
 20
-7.736053331899994
 30
0.0
 11
112.7854460389871
 21
-7.779676353000012
 31
0.0
 11
112.7891052492871
 21
-7.778618600900016
 31
0.0
 11
112.792735603787
 21
-7.77756589759997
 31
0.0
 11
112.796339077787
 21
-7.776517758999999
 31
0.0
 11
112.799916648087
 21
-7.775473984500022
 31
0.0
 11
112.803469673987
 21
-7.774434256599987
 31
0.0
 11
112.8070002236871
 21
-7.773398044099963
 31
0.0
 11
112.8105102483871
 21
-7.772364842299964
 31
0.0
 11
112.814000901687
 21
-7.771334374599972
 31
0.0
 11
112.817473882587
 21
-7.770306198299977
 31
0.0
 11
112.8209313235871
 21
-7.76927973559998
 31
0.0
 11
112.8243741276871
 21
-7.768254767499968
 31
0.0
 11
112.827803011287
 21
-7.767231127699972
 31
0.0
 11
112.8312192865871
 21
-7.766208468700027
 31
0.0
 11
112.834625008487
 21
-7.765186215100014
 31
0.0
 11
112.8380218336871
 21
-7.7641639048
 31
0.0
 11
112.841412048487
 21
-7.763140879699959
 31
0.0
 11
112.844797468887
 21
-7.762116616900016
 31
0.0
 11
112.848179023387
 21
-7.761090857199974
 31
0.0
 11
112.851554964787
 21
-7.760064153099961
 31
0.0
 11
112.8549234324871
 21
-7.759037097399982
 31
0.0
 11
112.858283774487
 21
-7.758009918299989
 31
0.0
 11
112.8616354567871
 21
-7.756982809799977
 31
0.0
 11
112.864977471987
 21
-7.755956112999967
 31
0.0
 11
112.8683098627871
 21
-7.754929848100005
 31
0.0
 11
112.871634234987
 21
-7.753903551599988
 31
0.0
 11
112.874951551687
 21
-7.752876954399994
 31
0.0
 11
112.878263105087
 21
-7.751849682099987
 31
0.0
 11
112.8815709372871
 21
-7.750821122800004
 31
0.0
 11
112.884876303287
 21
-7.749790904299969
 31
0.0
 11
112.8881809559871
 21
-7.748758494900016
 31
0.0
 11
112.8914860369871
 21
-7.747723549800013
 31
0.0
 11
112.8947930931871
 21
-7.746685593599977
 31
0.0
 11
112.898102791887
 21
-7.745644423499982
 31
0.0
 11
112.901416655087
 21
-7.744599565399993
 31
0.0
 11
112.904736632587
 21
-7.743550405199981
 31
0.0
 11
112.9080647009871
 21
-7.742496315300003
 31
0.0
 11
112.911402355887
 21
-7.741436815200017
 31
0.0
 11
112.914749655387
 21
-7.740371878500011
 31
0.0
 11
112.918106607887
 21
-7.739301494599999
 31
0.0
 11
112.9214739581871
 21
-7.738225417399974
 31
0.0
 11
112.9248539963871
 21
-7.737142903699974
 31
0.0
 11
112.928248614287
 21
-7.736053331899994
 31
0.0
  0
SPLINE
  5
55B1F
330
1F
100
AcDbEntity
  8
1
100
AcDbSpline
210
0.0
220
0.0
230
1.0
 70
     8
 71
     3
 72
    49
 73
    45
 74
    43
 42
0.0000000001
 43
0.0000000001
 44
0.000001
 12
0.979522147583334
 22
0.2013364407993086
 32
0.0
 13
0.972518927683026
 23
0.2328238288884051
 33
0.0
 40
0.0
 40
0.0
 40
0.0
 40
0.0
 40
0.0037781183460275
 40
0.0075288752596772
 40
0.0112543888829243
 40
0.0149560208887098
 40
0.0186350866264031
 40
0.0222936588485676
 40
0.025933885764862
 40
0.0295568667187919
 40
0.0331639354630725
 40
0.0367570642839928
 40
0.0403379844215705
 40
0.0439071680658944
 40
0.0474652963953321
 40
0.051013893866927
 40
0.0545554367690413
 40
0.05809189397672
 40
0.0616245548955942
 40
0.0651533191509933
 40
0.0686777684785603
 40
0.07219586753875
 40
0.0757058293554727
 40
0.0792071371416006
 40
0.0826995079375091
 40
0.0861841845769885
 40
0.0896627105747153
 40
0.09313674201564
 40
0.0966071951827728
 40
0.1000757607436236
 40
0.1035440699647403
 40
0.107014004516762
 40
0.1104862708135794
 40
0.1139613979479751
 40
0.1174410916653196
 40
0.1209269617409796
 40
0.1244201290388261
 40
0.1279226392495431
 40
0.1314362341279862
 40
0.1349616414856291
 40
0.1384996534928871
 40
0.1420520170066808
 40
0.1456202720119536
 40
0.1492047024431747
 40
0.1492047024431747
 40
0.1492047024431747
 40
0.1492047024431747
 10
112.639827448487
 20
-7.812162323099983
 30
0.0
 10
112.641061032019
 20
-7.811908765466413
 30
0.0
 10
112.643519034424
 20
-7.8114023621452
 30
0.0
 10
112.6471926424191
 20
-7.810642044936209
 30
0.0
 10
112.6508406065769
 20
-7.80988362873445
 30
0.0
 10
112.6544645059505
 20
-7.80912687084238
 30
0.0
 10
112.6580659036627
 20
-7.808371525243208
 30
0.0
 10
112.6616466181608
 20
-7.807617285370712
 30
0.0
 10
112.6652083960474
 20
-7.80686385220993
 30
0.0
 10
112.6687527417054
 20
-7.80611097134864
 30
0.0
 10
112.6722811011224
 20
-7.805358395118544
 30
0.0
 10
112.6757951251708
 20
-7.804605826166051
 30
0.0
 10
112.6792961827466
 20
-7.803853021393813
 30
0.0
 10
112.682785221151
 20
-7.803099823820746
 30
0.0
 10
112.6862631197257
 20
-7.80234608789309
 30
0.0
 10
112.6897314099306
 20
-7.801591522679107
 30
0.0
 10
112.6931920414443
 20
-7.800835740117019
 30
0.0
 10
112.6966468860398
 20
-7.800078362323362
 30
0.0
 10
112.7000969754479
 20
-7.799319190146489
 30
0.0
 10
112.7035425638047
 20
-7.798558193038839
 30
0.0
 10
112.7069828232013
 20
-7.797795579788729
 30
0.0
 10
112.7104163775994
 20
-7.797031683989155
 30
0.0
 10
112.713841819949
 20
-7.79626685080799
 30
0.0
 10
112.7172583141112
 20
-7.795501301531145
 30
0.0
 10
112.7206660097772
 20
-7.794735037809505
 30
0.0
 10
112.7240657264134
 20
-7.79396790918132
 30
0.0
 10
112.7274589132462
 20
-7.793199619383125
 30
0.0
 10
112.7308469123843
 20
-7.792429891726625
 30
0.0
 10
112.734231112901
 20
-7.791658434618113
 30
0.0
 10
112.7376128949258
 20
-7.790884954254927
 30
0.0
 10
112.7409939513072
 20
-7.790109080640728
 30
0.0
 10
112.7443756540849
 20
-7.789330512495737
 30
0.0
 10
112.7477590164819
 20
-7.788549027404336
 30
0.0
 10
112.7511449940319
 20
-7.787764413646225
 30
0.0
 10
112.7545348349575
 20
-7.786976388585141
 30
0.0
 10
112.7579299787474
 20
-7.786184621104079
 30
0.0
 10
112.7613319743454
 20
-7.785388750434519
 30
0.0
 10
112.7647424125589
 20
-7.784588401580598
 30
0.0
 10
112.7681627556295
 20
-7.783783225137495
 30
0.0
 10
112.7715940582777
 20
-7.782972964046148
 30
0.0
 10
112.7750373762872
 20
-7.782157358364262
 30
0.0
 10
112.7784940281696
 20
-7.781336082752225
 30
0.0
 10
112.7819651667544
 20
-7.7805088475685
 30
0.0
 10
112.7842840635073
 20
-7.779954533272473
 30
0.0
 10
112.7854460389871
 20
-7.779676353000012
 30
0.0
 11
112.639827448487
 21
-7.812162323099983
 31
0.0
 11
112.643527855487
 21
-7.811399965499956
 31
0.0
 11
112.6472007809871
 21
-7.810639796700002
 31
0.0
 11
112.650848313487
 21
-7.809881476300005
 31
0.0
 11
112.654471799487
 21
-7.809124810000013
 31
0.0
 11
112.658072539187
 21
-7.808369607200006
 31
0.0
 11
112.6616525728871
 21
-7.807615515099996
 31
0.0
 11
112.665214013287
 21
-7.806862157499948
 31
0.0
 11
112.668757945687
 21
-7.806109368500018
 31
0.0
 11
112.672285683887
 21
-7.805356928899981
 31
0.0
 11
112.675799165087
 21
-7.80460448040003
 31
0.0
 11
112.679300089487
 21
-7.803851708399974
 31
0.0
 11
112.682788925587
 21
-7.803098558700012
 31
0.0
 11
112.6862663457871
 21
-7.802344930599986
 31
0.0
 11
112.689733845987
 21
-7.801590541200027
 31
0.0
 11
112.6931938509869
 21
-7.800834899300014
 31
0.0
 11
112.6966482882869
 21
-7.800077614299992
 31
0.0
 11
112.700098420587
 21
-7.7993184357
 31
0.0
 11
112.703544152887
 21
-7.798557409499949
 31
0.0
 11
112.706985079987
 21
-7.797794650799971
 31
0.0
 11
112.7104192185871
 21
-7.797030627200001
 31
0.0
 11
112.713844829287
 21
-7.796265758499997
 31
0.0
 11
112.7172614131871
 21
-7.795500190999972
 31
0.0
 11
112.720668699887
 21
-7.794734020899965
 31
0.0
 11
112.7240679074871
 21
-7.793967008700008
 31
0.0
 11
112.727460546487
 21
-7.793198844299977
 31
0.0
 11
112.730848236187
 21
-7.792429187999913
 31
0.0
 11
112.7342318736871
 21
-7.791657860200017
 31
0.0
 11
112.737613110287
 21
-7.790884505300026
 31
0.0
 11
112.7409935383871
 21
-7.790108776299972
 31
0.0
 11
112.744374993387
 21
-7.789330265300009
 31
0.0
 11
112.747758164587
 21
-7.788548824299994
 31
0.0
 11
112.7511435680871
 21
-7.787764343099977
 31
0.0
 11
112.754532865787
 21
-7.786976443599996
 31
0.0
 11
112.7579276250871
 21
-7.786184764799996
 31
0.0
 11
112.761328936387
 21
-7.785389052799985
 31
0.0
 11
112.764738789887
 21
-7.784588839799994
 31
0.0
 11
112.768158878687
 21
-7.783783722099997
 31
0.0
 11
112.771589908187
 21
-7.782973524999986
 31
0.0
 11
112.7750326460871
 21
-7.782158057400009
 31
0.0
 11
112.778488788387
 21
-7.781336905099975
 31
0.0
 11
112.781959828887
 21
-7.780509697599995
 31
0.0
 11
112.7854460389871
 21
-7.779676353000012
 31
0.0
  0
SPLINE
  5
55B20
330
1F
100
AcDbEntity
  8
1
100
AcDbSpline
210
0.0
220
0.0
230
1.0
 70
     8
 71
     3
 72
    55
 73
    51
 74
    49
 42
0.0000000001
 43
0.0000000001
 44
0.000001
 12
0.9931926428111824
 22
0.1164833647596908
 32
0.0
 13
0.9873221771971614
 23
0.1587290723675311
 33
0.0
 40
0.0
 40
0.0
 40
0.0
 40
0.0
 40
0.0039781547715213
 40
0.0079199905754477
 40
0.0118267108004357
 40
0.0157002888130043
 40
0.0195428372773235
 40
0.0233558358218632
 40
0.0271409172068153
 40
0.0309003791846708
 40
0.0346358850828105
 40
0.0383482631655999
 40
0.0420386838090166
 40
0.0457090412594834
 40
0.0493611783578143
 40
0.0529969474582094
 40
0.0566181715424812
 40
0.0602267785031549
 40
0.0638245808803023
 40
0.0674125317925537
 40
0.0709916537883075
 40
0.0745638152571045
 40
0.0781305959374694
 40
0.0816926432032623
 40
0.0852510524039179
 40
0.0888068731815455
 40
0.0923595850255932
 40
0.095907625075638
 40
0.0994499182975996
 40
0.1029864166256206
 40
0.1065170052501539
 40
0.1100409765370392
 40
0.1135590525370601
 40
0.1170729665259805
 40
0.1205840234838094
 40
0.1240940966946977
 40
0.1276048374083154
 40
0.131116633139394
 40
0.1346303309290959
 40
0.1381476221381293
 40
0.1416703185702739
 40
0.1452001918145201
 40
0.1487388835360246
 40
0.1522880328166382
 40
0.1558486180760809
 40
0.1594214623058245
 40
0.1630081807733344
 40
0.1666101188296321
 40
0.1702282407516706
 40
0.1738642277624462
 40
0.1738642277624462
 40
0.1738642277624462
 40
0.1738642277624462
 10
112.4676568789871
 20
-7.836276157199961
 30
0.0
 10
112.4689739036708
 20
-7.836121694248854
 30
0.0
 10
112.4715957565545
 20
-7.835812705044302
 30
0.0
 10
112.4755103838358
 20
-7.835346946228824
 30
0.0
 10
112.4793898883591
 20
-7.834881056009323
 30
0.0
 10
112.4832360323154
 20
-7.834414960291949
 30
0.0
 10
112.4870506684777
 20
-7.833948563724956
 30
0.0
 10
112.4908355360161
 20
-7.833481775065468
 30
0.0
 10
112.49459243451
 20
-7.833014486549396
 30
0.0
 10
112.498323223402
 20
-7.83254657354214
 30
0.0
 10
112.5020294951758
 20
-7.832077935870264
 30
0.0
 10
112.5057124688236
 20
-7.831608513472296
 30
0.0
 10
112.5093734391436
 20
-7.831138230610163
 30
0.0
 10
112.5130140356944
 20
-7.830666961672425
 30
0.0
 10
112.5166361126523
 20
-7.830194544073128
 30
0.0
 10
112.5202414997654
 20
-7.829720810319127
 30
0.0
 10
112.5238320540249
 20
-7.82924558146934
 30
0.0
 10
112.5274096183937
 20
-7.828768672679011
 30
0.0
 10
112.5309757475942
 20
-7.828289930243
 30
0.0
 10
112.5345316965917
 20
-7.827809234840025
 30
0.0
 10
112.5380787382638
 20
-7.827326459888431
 30
0.0
 10
112.541618351831
 20
-7.826841445336084
 30
0.0
 10
112.545151891923
 20
-7.826354042407588
 30
0.0
 10
112.5486804573533
 20
-7.825864132931354
 30
0.0
 10
112.5522049714764
 20
-7.825371619326589
 30
0.0
 10
112.5557259717251
 20
-7.824876454715409
 30
0.0
 10
112.5592431180234
 20
-7.824378714628857
 30
0.0
 10
112.5627553694429
 20
-7.823878576100682
 30
0.0
 10
112.5662618415343
 20
-7.823376197483179
 30
0.0
 10
112.5697621280317
 20
-7.822871670811533
 30
0.0
 10
112.5732559440706
 20
-7.82236507143623
 30
0.0
 10
112.5767432589997
 20
-7.821856438497886
 30
0.0
 10
112.5802246517239
 20
-7.82134572156416
 30
0.0
 10
112.5837013645172
 20
-7.820832769631262
 30
0.0
 10
112.5871750186515
 20
-7.820317370920518
 30
0.0
 10
112.590647207621
 20
-7.819799312337494
 30
0.0
 10
112.5941192217395
 20
-7.819278420832402
 30
0.0
 10
112.5975920125228
 20
-7.818754570453483
 30
0.0
 10
112.6010665443333
 20
-7.81822763049936
 30
0.0
 10
112.6045442504186
 20
-7.817697395465797
 30
0.0
 10
112.6080268679717
 20
-7.817163608485008
 30
0.0
 10
112.6115161170196
 20
-7.816626009860939
 30
0.0
 10
112.6150136599162
 20
-7.816084343532567
 30
0.0
 10
112.6185208970223
 20
-7.815538389175177
 30
0.0
 10
112.6220389584709
 20
-7.814987964632261
 30
0.0
 10
112.6255689660834
 20
-7.814432885942187
 30
0.0
 10
112.6291121619837
 20
-7.813872946822398
 30
0.0
 10
112.6326698342351
 20
-7.813307929934857
 30
0.0
 10
112.6362432920165
 20
-7.812737610990961
 30
0.0
 10
112.6386308182831
 20
-7.812354702048436
 30
0.0
 10
112.639827448487
 20
-7.812162323099983
 30
0.0
 11
112.4676568789871
 21
-7.836276157199961
 31
0.0
 11
112.471607699187
 21
-7.83581055479999
 31
0.0
 11
112.4755219439871
 21
-7.835344837099968
 31
0.0
 11
112.4794008189871
 21
-7.83487900839998
 31
0.0
 11
112.483246293687
 21
-7.834412971800019
 31
0.0
 11
112.487060475087
 21
-7.833946602999956
 31
0.0
 11
112.4908448409871
 21
-7.833479843899965
 31
0.0
 11
112.4946010205871
 21
-7.833012609499973
 31
0.0
 11
112.4983313021871
 21
-7.832544723000012
 31
0.0
 11
112.502037343687
 21
-7.832076076500014
 31
0.0
 11
112.5057199739871
 21
-7.831606660100021
 31
0.0
 11
112.509380360987
 21
-7.831136415300022
 31
0.0
 11
112.5130203899871
 21
-7.830665184599978
 31
0.0
 11
112.5166418944871
 21
-7.830192808700019
 31
0.0
 11
112.520246716587
 21
-7.829719118799971
 31
0.0
 11
112.5238366684871
 21
-7.829243942299967
 31
0.0
 11
112.5274136655871
 21
-7.828767085200013
 31
0.0
 11
112.5309795080871
 21
-7.828288360899988
 31
0.0
 11
112.534535143787
 21
-7.827807691299994
 31
0.0
 11
112.538081588887
 21
-7.827324984799985
 31
0.0
 11
112.541620697187
 21
-7.826840030799984
 31
0.0
 11
112.5451540356871
 21
-7.82635265089999
 31
0.0
 11
112.548682247287
 21
-7.825862789700011
 31
0.0
 11
112.552206418287
 21
-7.825370326999973
 31
0.0
 11
112.555727589287
 21
-7.824875144999964
 31
0.0
 11
112.559245245887
 21
-7.824377342700017
 31
0.0
 11
112.562757842187
 21
-7.823877168299985
 31
0.0
 11
112.566264315987
 21
-7.823374805599995
 31
0.0
 11
112.569764622087
 21
-7.822870294799996
 31
0.0
 11
112.573258649387
 21
-7.822363685899972
 31
0.0
 11
112.576745700387
 21
-7.821855115099992
 31
0.0
 11
112.5802264923871
 21
-7.821344512099982
 31
0.0
 11
112.583702742787
 21
-7.820831656299956
 31
0.0
 11
112.587175744587
 21
-7.820316384199997
 31
0.0
 11
112.5906473522871
 21
-7.819798443899968
 31
0.0
 11
112.594119199987
 21
-7.819277610299991
 31
0.0
 11
112.597591671587
 21
-7.818753842099964
 31
0.0
 11
112.601065605187
 21
-7.818227027700003
 31
0.0
 11
112.6045426731871
 21
-7.817696925300025
 31
0.0
 11
112.608024666287
 21
-7.817163269399997
 31
0.0
 11
112.6115133346871
 21
-7.816625795200025
 31
0.0
 11
112.615010299487
 21
-7.816084252699964
 31
0.0
 11
112.6185171784871
 21
-7.815538387000002
 31
0.0
 11
112.622034936187
 21
-7.814988041099979
 31
0.0
 11
112.6255643831871
 21
-7.814433079399974
 31
0.0
 11
112.6291071122871
 21
-7.813873239899976
 31
0.0
 11
112.6326644490871
 21
-7.813308298499975
 31
0.0
 11
112.6362373423869
 21
-7.812738087599996
 31
0.0
 11
112.639827448487
 21
-7.812162323099983
 31
0.0
  0
SPLINE
  5
55B21
330
1F
100
AcDbEntity
  8
1
100
AcDbSpline
210
0.0
220
0.0
230
1.0
 70
     8
 71
     3
 72
    11
 73
     7
 74
     5
 42
0.0000000001
 43
0.0000000001
 44
0.000001
 12
-0.9995613952663033
 22
0.0296144743880585
 32
0.0
 13
-0.9995142668509302
 23
0.0311645690078932
 33
0.0
 40
0.0
 40
0.0
 40
0.0
 40
0.0
 40
0.1409444808758933
 40
0.2820690479441434
 40
0.4233653547943516
 40
0.5648249769262418
 40
0.5648249769262418
 40
0.5648249769262418
 40
0.5648249769262418
 10
108.7007529058869
 20
-7.824664160199972
 30
0.0
 10
108.6537920185671
 20
-7.823272827960293
 30
0.0
 10
108.5598108523915
 20
-7.820467729600418
 30
0.0
 10
108.4187536359133
 20
-7.816199138044721
 30
0.0
 10
108.2775264525023
 20
-7.811870587414375
 30
0.0
 10
108.1833197636885
 20
-7.808949073585231
 30
0.0
 10
108.1361894601871
 20
-7.807479564199978
 30
0.0
 11
108.7007529058869
 21
-7.824664160199972
 31
0.0
 11
108.559871125787
 21
-7.820460431599997
 31
0.0
 11
108.418811131087
 21
-7.816191754800001
 31
0.0
 11
108.277581145687
 21
-7.811863119599991
 31
0.0
 11
108.1361894601871
 21
-7.807479564199978
 31
0.0
  0
SPLINE
  5
55B22
330
1F
100
AcDbEntity
  8
1
100
AcDbSpline
210
0.0
220
0.0
230
1.0
 70
     8
 71
     3
 72
    11
 73
     7
 74
     5
 42
0.0000000001
 43
0.0000000001
 44
0.000001
 12
-0.9996296322626267
 22
0.0272139358139455
 32
0.0
 13
-0.9995805655575267
 23
0.0289601961266644
 33
0.0
 40
0.0
 40
0.0
 40
0.0
 40
0.0
 40
0.1409124149412221
 40
0.282006326568635
 40
0.423273593826696
 40
0.5647059683824211
 40
0.5647059683824211
 40
0.5647059683824211
 40
0.5647059683824211
 10
109.265235462887
 20
-7.840544886899976
 30
0.0
 10
109.2182820543774
 20
-7.83926662642811
 30
0.0
 10
109.1243153841751
 20
-7.836685511895968
 30
0.0
 10
108.9832791860904
 20
-7.832746191760958
 30
0.0
 10
108.8420714724325
 20
-7.828740350509178
 30
0.0
 10
108.7478772568691
 20
-7.826029463301903
 30
0.0
 10
108.7007529058869
 20
-7.824664160199972
 30
0.0
 11
109.265235462887
 21
-7.840544886899976
 31
0.0
 11
109.1243761415869
 21
-7.836676943700012
 31
0.0
 11
108.9833372337871
 21
-7.832737567600019
 31
0.0
 11
108.842126778387
 21
-7.828731629000003
 31
0.0
 11
108.7007529058869
 21
-7.824664160199972
 31
0.0
  0
SPLINE
  5
55B23
330
1F
100
AcDbEntity
  8
1
100
AcDbSpline
210
0.0
220
0.0
230
1.0
 70
     8
 71
     3
 72
    21
 73
    17
 74
    15
 42
0.0000000001
 43
0.0000000001
 44
0.000001
 12
-0.9996930120870421
 22
0.0247766338378975
 32
0.0
 13
-0.9996425553194697
 23
0.026735025609883
 33
0.0
 40
0.0
 40
0.0
 40
0.0
 40
0.0
 40
0.0213414000497966
 40
0.0447034015316739
 40
0.0702151571014716
 40
0.098003488808899
 40
0.1282214733162433
 40
0.161111521121399
 40
0.1969460428809044
 40
0.2359890184656997
 40
0.2786149926655955
 40
0.3254368080659557
 40
0.3770763927975167
 40
0.4337029595980588
 40
0.4958651031728252
 40
0.5645893129825338
 40
0.5645893129825338
 40
0.5645893129825338
 40
0.5645893129825338
 10
109.829636706487
 20
-7.855112899299967
 30
0.0
 10
109.822525090321
 20
-7.854936643281759
 30
0.0
 10
109.8076285466919
 20
-7.854566807752291
 30
0.0
 10
109.7842307545093
 20
-7.853983884996246
 30
0.0
 10
109.7586847153847
 20
-7.853344889768322
 30
0.0
 10
109.730854121738
 20
-7.852646411025355
 30
0.0
 10
109.7005649625788
 20
-7.851882606811983
 30
0.0
 10
109.6675946973292
 20
-7.851047039794356
 30
0.0
 10
109.6316838390117
 20
-7.850131971874561
 30
0.0
 10
109.5925288426571
 20
-7.849129627575869
 30
0.0
 10
109.5497127788632
 20
-7.848027155552027
 30
0.0
 10
109.5026994238379
 20
-7.846809352137601
 30
0.0
 10
109.4510209942932
 20
-7.845462050031334
 30
0.0
 10
109.3942311242638
 20
-7.843971335641977
 30
0.0
 10
109.3317486532372
 20
-7.842319300199839
 30
0.0
 10
109.2881353444559
 20
-7.841157334736403
 30
0.0
 10
109.265235462887
 20
-7.840544886899976
 30
0.0
 11
109.829636706487
 21
-7.855112899299967
 31
0.0
 11
109.808301877787
 21
-7.854583328499983
 31
0.0
 11
109.784947115387
 21
-7.854001777299969
 31
0.0
 11
109.7594433227871
 21
-7.853364390100011
 31
0.0
 11
109.731663738087
 21
-7.852667200300004
 31
0.0
 11
109.701455355887
 21
-7.851905452899982
 31
0.0
 11
109.6685758645871
 21
-7.851072178899982
 31
0.0
 11
109.6327529647871
 21
-7.850159542399977
 31
0.0
 11
109.593722790987
 21
-7.849159778900003
 31
0.0
 11
109.5511109511871
 21
-7.848062140699994
 31
0.0
 11
109.5043048436871
 21
-7.846849424499963
 31
0.0
 11
109.452682801387
 21
-7.845503548599991
 31
0.0
 11
109.396075731687
 21
-7.844017754899994
 31
0.0
 11
109.333935300987
 21
-7.842374957000004
 31
0.0
 11
109.265235462887
 21
-7.840544886899976
 31
0.0
  0
SPLINE
  5
55B24
330
1F
100
AcDbEntity
  8
1
100
AcDbSpline
210
0.0
220
0.0
230
1.0
 70
     8
 71
     3
 72
    36
 73
    32
 74
    30
 42
0.0000000001
 43
0.0000000001
 44
0.000001
 12
-0.9997702938011791
 22
0.0214326767507934
 32
0.0
 13
-0.9997000679241107
 23
0.0244902877183641
 33
0.0
 40
0.0
 40
0.0
 40
0.0
 40
0.0
 40
0.0106801542148135
 40
0.0224363235532058
 40
0.0353200022762831
 40
0.0493481474601555
 40
0.0644240697323279
 40
0.0803906828546361
 40
0.0970764175587742
 40
0.1142661374564817
 40
0.1317191243516141
 40
0.1492567892538929
 40
0.166778594315941
 40
0.1843807728106465
 40
0.2022999726434909
 40
0.2205006544258067
 40
0.2387327495907899
 40
0.2568693807436079
 40
0.2749304945268959
 40
0.2930805345592371
 40
0.3114030893488654
 40
0.3296238314781524
 40
0.3478413527207802
 40
0.3670383705149645
 40
0.3885342698500317
 40
0.4135617243609355
 40
0.4421561222151377
 40
0.472598136723541
 40
0.5032298615332103
 40
0.5337598833371564
 40
0.5646135853140311
 40
0.5646135853140311
 40
0.5646135853140311
 40
0.5646135853140311
 10
110.3940930926994
 20
-7.867029456065039
 30
0.0
 10
110.3905338590604
 20
-7.866953154634061
 30
0.0
 10
110.3830521255632
 20
-7.867082163483781
 30
0.0
 10
110.3712905361626
 20
-7.867572729713406
 30
0.0
 10
110.3583982162632
 20
-7.867787235430043
 30
0.0
 10
110.3444079203621
 20
-7.867311233968785
 30
0.0
 10
110.3293879377339
 20
-7.867004118255419
 30
0.0
 10
110.3134832121557
 20
-7.866611009685142
 30
0.0
 10
110.2968739666515
 20
-7.866214483572155
 30
0.0
 10
110.2797694875999
 20
-7.865800293657057
 30
0.0
 10
110.2623810261411
 20
-7.865383579630571
 30
0.0
 10
110.2448817777845
 20
-7.864969219866138
 30
0.0
 10
110.2273327216808
 20
-7.8645576050307
 30
0.0
 10
110.2096564527273
 20
-7.864145970390687
 30
0.0
 10
110.1917539028151
 20
-7.86373122746186
 30
0.0
 10
110.173641404608
 20
-7.863313021944784
 30
0.0
 10
110.1554564338115
 20
-7.862893785333167
 30
0.0
 10
110.137317975422
 20
-7.862475529795371
 30
0.0
 10
110.1192068799891
 20
-7.862057102252958
 30
0.0
 10
110.1010338611429
 20
-7.861635747438176
 30
0.0
 10
110.0828077012518
 20
-7.861210830529829
 30
0.0
 10
110.0645591199385
 20
-7.860782558962419
 30
0.0
 10
110.0460191921204
 20
-7.860344860788426
 30
0.0
 10
110.0263879117587
 20
-7.859878759746904
 30
0.0
 10
110.0044873623179
 20
-7.85935587441807
 30
0.0
 10
109.9794553256974
 20
-7.858754862567186
 30
0.0
 10
109.9514421964454
 20
-7.858078675789472
 30
0.0
 10
109.9215616016689
 20
-7.8573540806244
 30
0.0
 10
109.8910360360268
 20
-7.85661188772874
 30
0.0
 10
109.8603733475302
 20
-7.855863661383088
 30
0.0
 10
109.839918189141
 20
-7.85536477131283
 30
0.0
 10
109.829636706487
 20
-7.855112899299967
 30
0.0
 11
110.3940930926994
 21
-7.867029456065039
 31
0.0
 11
110.383413293587
 21
-7.867118355812294
 31
0.0
 11
110.371663700787
 21
-7.867511279373842
 31
0.0
 11
110.3587810955871
 21
-7.867677747699985
 31
0.0
 11
110.3447566709871
 21
-7.867354691999992
 31
0.0
 11
110.329684903887
 21
-7.867000773899973
 31
0.0
 11
110.313722829287
 21
-7.866620124499945
 31
0.0
 11
110.297041927987
 21
-7.866218558199988
 31
0.0
 11
110.279857205187
 21
-7.865804129199999
 31
0.0
 11
110.262409226187
 21
-7.865386085799968
 31
0.0
 11
110.244876480587
 21
-7.864970748100005
 31
0.0
 11
110.227359497487
 21
-7.864559721399927
 31
0.0
 11
110.209762093487
 21
-7.8641497813
 31
0.0
 11
110.1918477035869
 21
-7.863734629600002
 31
0.0
 11
110.1736518744871
 21
-7.863314370599995
 31
0.0
 11
110.1554246252871
 21
-7.862894036599983
 31
0.0
 11
110.137292816687
 21
-7.862475815299943
 31
0.0
 11
110.1192365236871
 21
-7.862058539799932
 31
0.0
 11
110.101091363187
 21
-7.861637695799969
 31
0.0
 11
110.082773787487
 21
-7.861210564700003
 31
0.0
 11
110.064558059887
 21
-7.860783109999998
 31
0.0
 11
110.0463456125871
 21
-7.860353169799964
 31
0.0
 11
110.027154002287
 21
-7.859897548399999
 31
0.0
 11
110.005664225587
 21
-7.859384528100007
 31
0.0
 11
109.9806439791871
 21
-7.858783901499974
 31
0.0
 11
109.9520579046871
 21
-7.858094023299941
 31
0.0
 11
109.9216248307871
 21
-7.857356289599978
 31
0.0
 11
109.891002159287
 21
-7.856611613899985
 31
0.0
 11
109.8604812106871
 21
-7.855867356100019
 31
0.0
 11
109.829636706487
 21
-7.855112899299967
 31
0.0
  0
SPLINE
  5
55B25
330
1F
100
AcDbEntity
  8
1
100
AcDbSpline
210
0.0
220
0.0
230
1.0
 70
     8
 71
     3
 72
    24
 73
    20
 74
    18
 42
0.0000000001
 43
0.0000000001
 44
0.000001
 12
-0.0810082892340973
 22
-0.9967134277591352
 32
0.0
 13
-0.2388057536782926
 23
-0.971067357092258
 33
0.0
 40
0.0
 40
0.0
 40
0.0
 40
0.0
 40
0.0191614487240895
 40
0.0383211357518753
 40
0.0574774360768356
 40
0.0766287060448656
 40
0.0957751142049102
 40
0.1149158872639206
 40
0.1340502989502291
 40
0.1531790737792423
 40
0.1723030083239197
 40
0.1914233018711792
 40
0.2105405314360948
 40
0.2296549330120702
 40
0.248767303588533
 40
0.2678779530313541
 40
0.2869873873996283
 40
0.3060961790963916
 40
0.3252042603335087
 40
0.3252042603335087
 40
0.3252042603335087
 40
0.3252042603335087
 10
114.293652001787
 20
-5.922512474600011
 30
0.0
 10
114.2931345897269
 20
-5.928878632346218
 30
0.0
 10
114.2920398586749
 20
-5.941605572188416
 30
0.0
 10
114.2902180516101
 20
-5.96067817470771
 30
0.0
 10
114.2882176688587
 20
-5.979729479447111
 30
0.0
 10
114.2860391396173
 20
-5.998756777333492
 30
0.0
 10
114.2836822720535
 20
-6.017757595352901
 30
0.0
 10
114.2811475191086
 20
-6.036729831894358
 30
0.0
 10
114.2784351432922
 20
-6.055671552669743
 30
0.0
 10
114.2755454428313
 20
-6.074581354984891
 30
0.0
 10
114.2724786049393
 20
-6.093458470120925
 30
0.0
 10
114.2692347880143
 20
-6.112302075007667
 30
0.0
 10
114.265814162976
 20
-6.131111158188394
 30
0.0
 10
114.2622170124066
 20
-6.149884592031304
 30
0.0
 10
114.258443600358
 20
-6.168621155914367
 30
0.0
 10
114.2544941949191
 20
-6.187319721803382
 30
0.0
 10
114.2503689270355
 20
-6.205979057540666
 30
0.0
 10
114.2460691973926
 20
-6.224598069942533
 30
0.0
 10
114.2430854502008
 20
-6.236982900618002
 30
0.0
 10
114.2415644102871
 20
-6.243167978600013
 30
0.0
 11
114.293652001787
 21
-5.922512474600011
 31
0.0
 11
114.292010010787
 21
-5.941603491299987
 31
0.0
 11
114.290188800587
 21
-5.960676438799963
 31
0.0
 11
114.288188705187
 21
-5.979728010799987
 31
0.0
 11
114.286010116387
 21
-5.998754938599972
 31
0.0
 11
114.2836532597871
 21
-6.017755720100012
 31
0.0
 11
114.281118486287
 21
-6.036727906299972
 31
0.0
 11
114.2784061738871
 21
-6.055669102299987
 31
0.0
 11
114.275516543687
 21
-6.074578357999938
 31
0.0
 11
114.2724497995871
 21
-6.09345479479998
 31
0.0
 11
114.2692060468871
 21
-6.112297926099983
 31
0.0
 11
114.2657854857871
 21
-6.131106649499996
 31
0.0
 11
114.262188432487
 21
-6.149879537499997
 31
0.0
 11
114.258415094987
 21
-6.168615713000007
 31
0.0
 11
114.254465756387
 21
-6.187313814399999
 31
0.0
 11
114.2503406743871
 21
-6.205972688200005
 31
0.0
 11
114.246040082487
 21
-6.224591365200012
 31
0.0
 11
114.2415644102871
 21
-6.243167978600013
 31
0.0
  0
SPLINE
  5
55B26
330
1F
100
AcDbEntity
  8
1
100
AcDbSpline
210
0.0
220
0.0
230
1.0
 70
     8
 71
     3
 72
    34
 73
    30
 74
    28
 42
0.0000000001
 43
0.0000000001
 44
0.000001
 12
0.0423311762737424
 22
-0.999103634021657
 32
0.0
 13
0.0007513889654043
 23
-0.9999997177072716
 33
0.0
 40
0.0
 40
0.0
 40
0.0
 40
0.0
 40
0.0206725595035048
 40
0.0413455094129632
 40
0.0620550962988938
 40
0.0827130924359408
 40
0.1030121706448188
 40
0.1225858628336909
 40
0.1412254717362746
 40
0.1589903678775071
 40
0.1760240959824649
 40
0.1924861579689635
 40
0.208670660876999
 40
0.2248810626285564
 40
0.241102435615343
 40
0.2571966472219109
 40
0.2733582182079753
 40
0.2899124890283023
 40
0.3068033573273045
 40
0.323826462612111
 40
0.3413413997277102
 40
0.360174969633804
 40
0.3810956261231341
 40
0.4046214439182449
 40
0.4309608025634413
 40
0.4602915281993782
 40
0.4927057225648455
 40
0.5282766403670194
 40
0.5670786709666018
 40
0.5670786709666018
 40
0.5670786709666018
 40
0.5670786709666018
 10
114.295752368887
 20
-5.101079908200006
 30
0.0
 10
114.2960440668072
 20
-5.107964584641499
 30
0.0
 10
114.2965988722236
 20
-5.121735287545037
 30
0.0
 10
114.2973573406842
 20
-5.142406459813456
 30
0.0
 10
114.2980243170592
 20
-5.163075954235029
 30
0.0
 10
114.2985925150078
 20
-5.183623724069819
 30
0.0
 10
114.2990620485046
 20
-5.203795240506769
 30
0.0
 10
114.2994384465563
 20
-5.22329578428055
 30
0.0
 10
114.2997267648857
 20
-5.241952998399128
 30
0.0
 10
114.299939434102
 20
-5.259764506382703
 30
0.0
 10
114.3000880966793
 20
-5.276850783284656
 30
0.0
 10
114.3001816260711
 20
-5.293410640245596
 30
0.0
 10
114.3002266825158
 20
-5.309696257262741
 30
0.0
 10
114.3002245107723
 20
-5.325901700169191
 30
0.0
 10
114.3001917801471
 20
-5.342076999219428
 30
0.0
 10
114.3001481954346
 20
-5.35823599222024
 30
0.0
 10
114.3001153536829
 20
-5.374505978766674
 30
0.0
 10
114.3000945222356
 20
-5.391041536589168
 30
0.0
 10
114.3000791452204
 20
-5.407864277664153
 30
0.0
 10
114.3000630363447
 20
-5.425007240346809
 30
0.0
 10
114.3000452677768
 20
-5.442797768902403
 30
0.0
 10
114.3000276247574
 20
-5.461887481987511
 30
0.0
 10
114.3000124557066
 20
-5.482980824770187
 30
0.0
 10
114.3000003151631
 20
-5.50657609941803
 30
0.0
 10
114.299991120523
 20
-5.532974731968291
 30
0.0
 10
114.2999864018141
 20
-5.562336158003914
 30
0.0
 10
114.2999886927548
 20
-5.594774770925999
 30
0.0
 10
114.3000008967286
 20
-5.630370483342662
 30
0.0
 10
114.3000145035145
 20
-5.655161462851302
 30
0.0
 10
114.3000242219871
 20
-5.668095469399986
 30
0.0
 11
114.295752368887
 21
-5.101079908200006
 31
0.0
 11
114.296587498487
 21
-5.121735718899969
 31
0.0
 11
114.2973426884871
 21
-5.142394875200011
 31
0.0
 11
114.2980099317871
 21
-5.163093749300003
 31
0.0
 11
114.298581614487
 21
-5.183743927199998
 31
0.0
 11
114.299054861687
 21
-5.204037753600005
 31
0.0
 11
114.2994312454871
 21
-5.223608245999968
 31
0.0
 11
114.2997191774871
 21
-5.242245082099998
 31
0.0
 11
114.299931579887
 21
-5.260008542700005
 31
0.0
 11
114.300079953487
 21
-5.277041553400009
 31
0.0
 11
114.300173183287
 21
-5.293503311099981
 31
0.0
 11
114.300217844887
 21
-5.309687725699972
 31
0.0
 11
114.300218410787
 21
-5.325898108199965
 31
0.0
 11
114.300188867487
 21
-5.342119441000021
 31
0.0
 11
114.3001490739871
 21
-5.358213594799962
 31
0.0
 11
114.3001166381871
 21
-5.374375127999996
 31
0.0
 11
114.300094608787
 21
-5.39092938089999
 31
0.0
 11
114.3000781144871
 21
-5.407820238900001
 31
0.0
 11
114.3000620258871
 21
-5.424843334800017
 31
0.0
 11
114.300044917187
 21
-5.442358262000027
 31
0.0
 11
114.3000278782871
 21
-5.461191822800003
 31
0.0
 11
114.300012752387
 21
-5.482112472600021
 31
0.0
 11
114.3000004132871
 21
-5.505638286100007
 31
0.0
 11
114.299991247587
 21
-5.53197764219999
 31
0.0
 11
114.299986641887
 21
-5.561308366599972
 31
0.0
 11
114.299989021287
 21
-5.59372256009999
 31
0.0
 11
114.3000006961872
 21
-5.629293475300016
 31
0.0
 11
114.3000242219871
 21
-5.668095469399986
 31
0.0
  0
SPLINE
  5
55B27
330
1F
100
AcDbEntity
  8
1
100
AcDbSpline
210
0.0
220
0.0
230
1.0
 70
     8
 71
     3
 72
    28
 73
    24
 74
    22
 42
0.0000000001
 43
0.0000000001
 44
0.000001
 12
0.0491201323274761
 22
-0.9987928777279758
 32
0.0
 13
0.0504174163819053
 23
-0.9987282333675031
 33
0.0
 40
0.0
 40
0.0
 40
0.0
 40
0.0
 40
0.0796699818219512
 40
0.1504813503349256
 40
0.2135506412617158
 40
0.2699055332307967
 40
0.3204802851157579
 40
0.3659243530697466
 40
0.406815224716045
 40
0.4437486700380632
 40
0.4776596031446648
 40
0.5110965887809093
 40
0.5454362199367104
 40
0.579928838759914
 40
0.6141445792245247
 40
0.6480674351494958
 40
0.6826684981590207
 40
0.7195937857463538
 40
0.7598545647208434
 40
0.8026995912269843
 40
0.8468023940426137
 40
0.8900865681647818
 40
0.9306070606688894
 40
0.9306070606688894
 40
0.9306070606688894
 40
0.9306070606688894
 10
114.245838737587
 20
-4.171819143800006
 30
0.0
 10
114.2471432042703
 20
-4.198343747270834
 30
0.0
 10
114.2496282336911
 20
-4.24844260878504
 30
0.0
 10
114.2532007423837
 20
-4.319536457561992
 30
0.0
 10
114.2564331244956
 20
-4.382865876850154
 30
0.0
 10
114.2593609388884
 20
-4.439456503755775
 30
0.0
 10
114.2620023594062
 20
-4.490179010599403
 30
0.0
 10
114.2643806106944
 20
-4.535753563580027
 30
0.0
 10
114.2665188553763
 20
-4.576787351764507
 30
0.0
 10
114.2684500050002
 20
-4.613982337071178
 30
0.0
 10
114.2702410520368
 20
-4.648696619393495
 30
0.0
 10
114.2719804122655
 20
-4.682547812394192
 30
0.0
 10
114.2737363811571
 20
-4.716592303058261
 30
0.0
 10
114.2755249207605
 20
-4.750895040934614
 30
0.0
 10
114.2773383533778
 20
-4.785057355634299
 30
0.0
 10
114.2791982483266
 20
-4.819253380252268
 30
0.0
 10
114.2811667725241
 20
-4.854347967926042
 30
0.0
 10
114.2833330336719
 20
-4.891547369246181
 30
0.0
 10
114.2857766573517
 20
-4.931483082655333
 30
0.0
 10
114.2884269230432
 20
-4.973803044920223
 30
0.0
 10
114.291100752299
 20
-5.017131297352907
 30
0.0
 10
114.2935992204402
 20
-5.059694015964943
 30
0.0
 10
114.2950713893728
 20
-5.087590254902069
 30
0.0
 10
114.295752368887
 20
-5.101079908200006
 30
0.0
 11
114.245838737587
 21
-4.171819143800006
 31
0.0
 11
114.2497826033871
 21
-4.251391456399971
 31
0.0
 11
114.253339088787
 21
-4.322113456699979
 31
0.0
 11
114.2565539100871
 21
-4.385100760199975
 31
0.0
 11
114.2594628334871
 21
-4.4413805259
 31
0.0
 11
114.2620912558871
 21
-4.49188693069999
 31
0.0
 11
114.264458114887
 21
-4.537269320300026
 31
0.0
 11
114.266585150087
 21
-4.578104832999996
 31
0.0
 11
114.2684991635871
 21
-4.614988649599978
 31
0.0
 11
114.2702469951871
 21
-4.648854509399996
 31
0.0
 11
114.271965048187
 21
-4.682247327399976
 31
0.0
 11
114.273735947787
 21
-4.716541265300008
 31
0.0
 11
114.2755341482871
 21
-4.750986979499997
 31
0.0
 11
114.277349979587
 21
-4.785154502900012
 31
0.0
 11
114.279194460587
 21
-4.819027177000008
 31
0.0
 11
114.2811342774871
 21
-4.853573821999987
 31
0.0
 11
114.283284706687
 21
-4.890436438899996
 31
0.0
 11
114.285732327487
 21
-4.930622748299923
 31
0.0
 11
114.288393328487
 21
-4.973385060099985
 31
0.0
 11
114.2910943505871
 21
-5.017405073399969
 31
0.0
 11
114.2936082379871
 21
-5.060616181800013
 31
0.0
 11
114.295752368887
 21
-5.101079908200006
 31
0.0
  0
SPLINE
  5
55B28
330
1F
100
AcDbEntity
  8
1
100
AcDbSpline
210
0.0
220
0.0
230
1.0
 70
     8
 71
     3
 72
    24
 73
    20
 74
    18
 42
0.0000000001
 43
0.0000000001
 44
0.000001
 12
0.0500729887188733
 22
-0.9987455610918928
 32
0.0
 13
0.0568536831180993
 23
-0.9983825212391826
 33
0.0
 40
0.0
 40
0.0
 40
0.0
 40
0.0
 40
0.0359193577886468
 40
0.071832856455323
 40
0.1075054223748671
 40
0.1431178680436672
 40
0.1799149425432715
 40
0.2193096094855551
 40
0.2612376079684902
 40
0.3047240923468776
 40
0.3502868826842326
 40
0.3999066258513703
 40
0.4559681172532758
 40
0.5198391618000474
 40
0.5912497268155907
 40
0.6692980666138288
 40
0.7524374771936008
 40
0.8380578774373589
 40
0.9231504109535437
 40
0.9231504109535437
 40
0.9231504109535437
 40
0.9231504109535437
 10
114.1965428922872
 20
-3.249987763799991
 30
0.0
 10
114.197142422153
 20
-3.261945863516219
 30
0.0
 10
114.1983442694675
 20
-3.285859967850288
 30
0.0
 10
114.2001524913705
 20
-3.321649458935048
 30
0.0
 10
114.2019625183498
 20
-3.357336423454657
 30
0.0
 10
114.2037937481185
 20
-3.393317215959665
 30
0.0
 10
114.2056964385974
 20
-3.430536676831873
 30
0.0
 10
114.2077162989296
 20
-3.469858080052163
 30
0.0
 10
114.2098624341525
 20
-3.511405738488607
 30
0.0
 10
114.2121286843484
 20
-3.555005972618659
 30
0.0
 10
114.2145447679055
 20
-3.601165792002564
 30
0.0
 10
114.2172005182536
 20
-3.651510469910164
 30
0.0
 10
114.2202027681087
 20
-3.707948101066581
 30
0.0
 10
114.2236224051496
 20
-3.771637399273881
 30
0.0
 10
114.2274737953991
 20
-3.842643012063754
 30
0.0
 10
114.2317188061832
 20
-3.920059491650276
 30
0.0
 10
114.2362731367955
 20
-4.002202722846144
 30
0.0
 10
114.2410093279366
 20
-4.086687524912469
 30
0.0
 10
114.2442261296083
 20
-4.1435008444165
 30
0.0
 10
114.245838737587
 20
-4.171819143800006
 30
0.0
 11
114.1965428922872
 21
-3.249987763799991
 31
0.0
 11
114.1983458385871
 21
-3.285861844099997
 31
0.0
 11
114.2001572019871
 21
-3.321729633500011
 31
0.0
 11
114.201963572587
 21
-3.357356435300005
 31
0.0
 11
114.2037739937871
 21
-3.392922833599981
 31
0.0
 11
114.2056526919871
 21
-3.429671917999995
 31
0.0
 11
114.207673797287
 21
-3.469014705599988
 31
0.0
 11
114.209836844887
 21
-3.510886871799982
 31
0.0
 11
114.2120943246871
 21
-3.554314721499962
 31
0.0
 11
114.214476049387
 21
-3.599815218999991
 31
0.0
 11
114.2170898441871
 21
-3.649366071799988
 31
0.0
 11
114.220067805687
 21
-3.705348413600006
 31
0.0
 11
114.2234921480871
 21
-3.769127597100008
 31
0.0
 11
114.2273596723871
 21
-3.840433354899971
 31
0.0
 11
114.231632547287
 21
-3.918364644699977
 31
0.0
 11
114.2362347265871
 21
-4.001376580999988
 31
0.0
 11
114.241026168287
 21
-4.086862807999978
 31
0.0
 11
114.245838737587
 21
-4.171819143800006
 31
0.0
  0
SPLINE
  5
55B29
330
1F
100
AcDbEntity
  8
1
100
AcDbSpline
210
0.0
220
0.0
230
1.0
 70
     8
 71
     3
 72
    20
 73
    16
 74
    14
 42
0.0000000001
 43
0.0000000001
 44
0.000001
 12
0.0520058324996743
 22
-0.998646781092302
 32
0.0
 13
0.0578264576825998
 23
-0.9983266503464097
 33
0.0
 40
0.0
 40
0.0
 40
0.0
 40
0.0
 40
0.0546900102831565
 40
0.1053564449105051
 40
0.1515563682540851
 40
0.1933748254863523
 40
0.2308697301698085
 40
0.2641256430910586
 40
0.2933573573174213
 40
0.3193168528731773
 40
0.3432667772059879
 40
0.3664512501966933
 40
0.3897515111964075
 40
0.4132089268148182
 40
0.4366248932224826
 40
0.4366248932224826
 40
0.4366248932224826
 40
0.4366248932224826
 10
114.172500210087
 20
-2.814025988899969
 30
0.0
 10
114.1734482765918
 20
-2.832231323142362
 30
0.0
 10
114.1752893485438
 20
-2.867301850594349
 30
0.0
 10
114.1779714427016
 20
-2.917749395762269
 30
0.0
 10
114.1804580905499
 20
-2.96391074351997
 30
0.0
 10
114.1827350936885
 20
-3.005686499385171
 30
0.0
 10
114.1847993239261
 20
-3.043152770990343
 30
0.0
 10
114.1866506057905
 20
-3.076428825664299
 30
0.0
 10
114.1883022188188
 20
-3.105864902463184
 30
0.0
 10
114.1897901298676
 20
-3.132203286879417
 30
0.0
 10
114.191172202262
 20
-3.156528687904768
 30
0.0
 10
114.1925105835498
 20
-3.179968729225086
 30
0.0
 10
114.1938457540337
 20
-3.203244516049571
 30
0.0
 10
114.195190413356
 20
-3.226597049209605
 30
0.0
 10
114.196091538157
 20
-3.242195502697195
 30
0.0
 10
114.1965428922872
 20
-3.249987763799991
 30
0.0
 11
114.172500210087
 21
-2.814025988899969
 31
0.0
 11
114.175364972187
 21
-2.868640921800022
 31
0.0
 11
114.1780556683871
 21
-2.91923585950002
 31
0.0
 11
114.180540777287
 21
-2.965368897100006
 31
0.0
 11
114.1828168503871
 21
-3.007125368099991
 31
0.0
 11
114.184879607287
 21
-3.04456348939999
 31
0.0
 11
114.186726905487
 21
-3.077768056100011
 31
0.0
 11
114.1883642946871
 21
-3.106953876100021
 31
0.0
 11
114.189828363787
 21
-3.132872053600009
 31
0.0
 11
114.191186815887
 21
-3.15678342109993
 31
0.0
 11
114.192508401487
 21
-3.179930196499981
 31
0.0
 11
114.1938425945871
 21
-3.20319222789999
 31
0.0
 11
114.195191381387
 21
-3.226610833800009
 31
0.0
 11
114.1965428922872
 21
-3.249987763799991
 31
0.0
  0
ARC
  5
55B2A
330
1F
100
AcDbEntity
  8
1
100
AcDbCircle
 10
110.741053496087
 20
-3.650347000000009
 30
0.0
 40
4.674393
100
AcDbArc
 50
303.6623190000034
 51
305.5020270000015
  0
ARC
  5
55B2B
330
1F
100
AcDbEntity
  8
1
100
AcDbCircle
 10
112.274029496087
 20
-5.184962999999981
 30
0.0
 40
2.658374
100
AcDbArc
 50
273.4814039999962
 51
274.1769350000002
  0
ARC
  5
55B2C
330
1F
100
AcDbEntity
  8
1
100
AcDbCircle
 10
112.2464394960871
 20
-5.747029999999995
 30
0.0
 40
2.056192999999999
100
AcDbArc
 50
329.8408429999954
 51
337.5889709999976
  0
ARC
  5
55B2D
330
1F
100
AcDbEntity
  8
1
100
AcDbCircle
 10
112.2567504960871
 20
-5.752598999999975
 30
0.0
 40
2.04454
100
AcDbArc
 50
337.6230849999993
 51
346.1169439999983
  0
ARC
  5
55B2E
330
1F
100
AcDbEntity
  8
1
100
AcDbCircle
 10
112.280949496087
 20
-5.762821999999971
 30
0.0
 40
2.019026999999999
100
AcDbArc
 50
355.4635739999973
 51
356.0450929999979
  0
ARC
  5
55B2F
330
1F
100
AcDbEntity
  8
1
100
AcDbCircle
 10
106.209986496087
 20
-10.46499999999997
 30
0.0
 40
3.0
100
AcDbArc
 50
63.13425199999685
 51
90.0
  0
ARC
  5
55B30
330
1F
100
AcDbEntity
  8
1
100
AcDbCircle
 10
106.209986496087
 20
10.46500000000003
 30
0.0
 40
3.0
100
AcDbArc
 50
270.0
 51
296.8657480000031
  0
LINE
  5
55B31
330
1F
100
AcDbEntity
  8
1
100
AcDbLine
 10
102.4649864960871
 20
-7.464999999999974
 30
0.0
 11
106.209986496087
 21
-7.464999999999974
 31
0.0
  0
LINE
  5
55B32
330
1F
100
AcDbEntity
  8
1
100
AcDbLine
 10
102.309986496087
 20
-7.310000000000002
 30
0.0
 11
102.4649864960871
 21
-7.464999999999974
 31
0.0
  0
LINE
  5
55B33
330
1F
100
AcDbEntity
  8
1
100
AcDbLine
 10
106.209986496087
 20
7.46500000000003
 30
0.0
 11
102.4649864960871
 21
7.46500000000003
 31
0.0
  0
LINE
  5
55B34
330
1F
100
AcDbEntity
  8
1
100
AcDbLine
 10
102.309986496087
 20
7.310000000000002
 30
0.0
 11
102.4649864960871
 21
7.46500000000003
 31
0.0
  0
LINE
  5
55B35
330
1F
100
AcDbEntity
  8
1
100
AcDbLine
 10
114.026545496087
 20
0.2067959999999971
 30
0.0
 11
114.040840496087
 21
0.4522929999999974
 31
0.0
  0
LINE
  5
55B36
330
1F
100
AcDbEntity
  8
1
100
AcDbLine
 10
114.0147504958757
 20
0.1849326094202297
 30
0.0
 11
114.026545496087
 21
0.2067959999999971
 31
0.0
  0
LINE
  5
55B37
330
1F
100
AcDbEntity
  8
1
100
AcDbLine
 10
114.300024496087
 20
5.668094999999991
 30
0.0
 11
114.2998853508245
 21
5.906151137270057
 31
0.0
  0
LINE
  5
55B38
330
1F
100
AcDbEntity
  8
1
100
AcDbLine
 10
108.1361894960871
 20
7.807479999999997
 30
0.0
 11
107.5715414960871
 21
7.788997999999991
 31
0.0
  0
LINE
  5
55B39
330
1F
100
AcDbEntity
  8
1
100
AcDbLine
 10
107.5715414960871
 20
7.788997999999991
 30
0.0
 11
107.5656904960871
 21
7.78879599999999
 31
0.0
  0
LINE
  5
55B3A
330
1F
100
AcDbEntity
  8
1
100
AcDbLine
 10
114.014688496087
 20
0.0703790000000026
 30
0.0
 11
114.014688496087
 21
-0.0703790000000026
 31
0.0
  0
LINE
  5
55B3B
330
1F
100
AcDbEntity
  8
1
100
AcDbLine
 10
114.014688496087
 20
-0.0703790000000026
 30
0.0
 11
114.0147543338842
 21
-0.184937694347127
 31
0.0
  0
LINE
  5
55B3C
330
1F
100
AcDbEntity
  8
1
100
AcDbLine
 10
114.0147504960871
 20
0.1849330000000009
 30
0.0
 11
114.014688496087
 21
0.0703790000000026
 31
0.0
  0
LINE
  5
55B3D
330
1F
100
AcDbEntity
  8
1
100
AcDbLine
 10
112.368183496087
 20
-7.841673000000013
 30
0.0
 11
112.435458496087
 21
-7.838431000000013
 31
0.0
  0
LINE
  5
55B3E
330
1F
100
AcDbEntity
  8
1
100
AcDbLine
 10
112.224986496087
 20
-7.844686000000024
 30
0.0
 11
112.368183496087
 21
-7.841673000000013
 31
0.0
  0
LINE
  5
55B3F
330
1F
100
AcDbEntity
  8
1
100
AcDbLine
 10
114.026545496087
 20
-0.2067959999999971
 30
0.0
 11
114.040840496087
 21
-0.4522929999999974
 31
0.0
  0
LINE
  5
55B40
330
1F
100
AcDbEntity
  8
1
100
AcDbLine
 10
107.5715414960871
 20
-7.788997999999991
 30
0.0
 11
107.5656904960871
 21
-7.788795999999932
 31
0.0
  0
LINE
  5
55B41
330
1F
100
AcDbEntity
  8
1
100
AcDbLine
 10
108.1361894960871
 20
-7.807479999999997
 30
0.0
 11
107.5715414960871
 21
-7.788997999999991
 31
0.0
  0
LINE
  5
55B42
330
1F
100
AcDbEntity
  8
1
100
AcDbLine
 10
114.300024496087
 20
-5.668094999999991
 30
0.0
 11
114.299998496087
 21
-5.712577000000009
 31
0.0
  0
LINE
  5
55B43
330
1F
100
AcDbEntity
  8
1
100
AcDbLine
 10
114.299998496087
 20
-5.712577000000009
 30
0.0
 11
114.299982496087
 21
-5.809261999999987
 31
0.0
  0
LINE
  5
55B44
330
1F
100
AcDbEntity
  8
1
100
AcDbLine
 10
114.299982496087
 20
-5.809261999999987
 30
0.0
 11
114.2951694960871
 21
-5.902077000000018
 31
0.0
  0
LINE
  5
55B45
330
1F
100
AcDbEntity
  8
1
100
AcDbLine
 10
110.6793122123871
 20
7.872154215600005
 30
0.0
 11
112.2538802464722
 21
7.904452930007834
 31
0.0
  0
ARC
  5
55B46
102
{ACAD_REACTORS
330
55B49
102
}
330
1F
100
AcDbEntity
  8
1
100
AcDbCircle
 10
112.2998856924719
 20
5.904982125285129
 30
0.0
 40
2.0
100
AcDbArc
 50
0.0334897283768575
 51
91.31807520044095
  0
DIMENSION
  5
55B47
102
{ACAD_XDICTIONARY
360
55B48
102
}
102
{ACAD_REACTORS
330
55B49
102
}
330
1F
100
AcDbEntity
  8
2
100
AcDbDimension
  2
*D12
 10
112.2998856924719
 20
5.904982125285123
 30
0.0
 11
131.4093776375177
 21
25.06844267864072
 31
0.0
 70
    36
 71
     5
 42
2.000000000000213
  3
\M+18352\M+18373\M+1815B - ISO-25
100
AcDbRadialDimension
 15
113.9081363842725
 25
7.093901681993536
 35
0.0
 40
0.0
1001
ACAD
1000
DSTYLE
1002
{
1070
     4
1000
"
1070
    40
1040
1.0
1070
   143
1040
0.03937
1070
   170
1070
     1
1070
   171
1070
     3
1070
   271
1070
     8
1070
   285
1070
     4
1002
}
  0
SPLINE
  5
55B4A
330
1F
100
AcDbEntity
  8
1
100
AcDbSpline
210
0.0
220
0.0
230
1.0
 70
     8
 71
     3
 72
    20
 73
    16
 74
    14
 42
0.0000000001
 43
0.0000000001
 44
0.000001
 12
0.052005832499136
 22
0.9986467810923299
 32
0.0
 13
0.0578264571922064
 23
0.9983266503748151
 33
0.0
 40
0.0
 40
0.0
 40
0.0
 40
0.0
 40
0.0546900102830971
 40
0.1053564449104453
 40
0.1515563682540261
 40
0.1933748254862934
 40
0.2308697301698066
 40
0.2641256429911669
 40
0.2933573573173606
 40
0.3193168528731188
 40
0.3432667772060434
 40
0.3664512501966933
 40
0.3897515111963557
 40
0.4132089267149326
 40
0.4366248932224211
 40
0.4366248932224211
 40
0.4366248932224211
 40
0.4366248932224211
 10
114.172500210087
 20
2.814025989000015
 30
0.0
 10
114.1734482765917
 20
2.832231323242389
 30
0.0
 10
114.1752893485438
 20
2.867301850694355
 30
0.0
 10
114.1779714427017
 20
2.91774939586225
 30
0.0
 10
114.1804580905496
 20
2.963910743619973
 30
0.0
 10
114.1827350936895
 20
3.00568649948512
 30
0.0
 10
114.1847993239211
 20
3.043152771057295
 30
0.0
 10
114.1866506057984
 20
3.076428825730537
 30
0.0
 10
114.1883022188147
 20
3.10586490253007
 30
0.0
 10
114.1897901298682
 20
3.132203286979409
 30
0.0
 10
114.1911722022615
 20
3.156528688004843
 30
0.0
 10
114.1925105835511
 20
3.179968729325062
 30
0.0
 10
114.1938457540272
 20
3.203244516116626
 30
0.0
 10
114.1951904133714
 20
3.226597049275378
 30
0.0
 10
114.1960915381589
 20
3.242195502763743
 30
0.0
 10
114.1965428922872
 20
3.24998776389998
 30
0.0
 11
114.172500210087
 21
2.814025989000015
 31
0.0
 11
114.175364972187
 21
2.868640921900008
 31
0.0
 11
114.1780556683871
 21
2.919235859600006
 31
0.0
 11
114.180540777287
 21
2.965368897199993
 31
0.0
 11
114.1828168503871
 21
3.007125368199978
 31
0.0
 11
114.184879607287
 21
3.044563489500034
 31
0.0
 11
114.186726905487
 21
3.077768056100011
 31
0.0
 11
114.1883642946871
 21
3.106953876200008
 31
0.0
 11
114.189828363787
 21
3.132872053699998
 31
0.0
 11
114.191186815887
 21
3.156783421200031
 31
0.0
 11
114.192508401487
 21
3.179930196600024
 31
0.0
 11
114.1938425945871
 21
3.203192227999976
 31
0.0
 11
114.195191381387
 21
3.226610833800009
 31
0.0
 11
114.1965428922872
 21
3.24998776389998
 31
0.0
  0
SPLINE
  5
55B4B
330
1F
100
AcDbEntity
  8
1
100
AcDbSpline
210
0.0
220
0.0
230
1.0
 70
     8
 71
     3
 72
    24
 73
    20
 74
    18
 42
0.0000000001
 43
0.0000000001
 44
0.000001
 12
0.0500729887188738
 22
0.9987455610918928
 32
0.0
 13
0.0568536831180996
 23
0.9983825212391826
 33
0.0
 40
0.0
 40
0.0
 40
0.0
 40
0.0
 40
0.0359193577886464
 40
0.0718328564553239
 40
0.1075054223748657
 40
0.143117868043724
 40
0.1799149425432711
 40
0.2193096093856983
 40
0.2612376079685451
 40
0.304724092346932
 40
0.3502868826842311
 40
0.3999066258514251
 40
0.4559681172532734
 40
0.5198391617002013
 40
0.5912497268156426
 40
0.6692980665139862
 40
0.7524374771936479
 40
0.8380578774374068
 40
0.9231504109535357
 40
0.9231504109535357
 40
0.9231504109535357
 40
0.9231504109535357
 10
114.1965428922872
 20
3.24998776389998
 30
0.0
 10
114.197142422153
 20
3.261945863616207
 30
0.0
 10
114.1983442694675
 20
3.285859967950277
 30
0.0
 10
114.2001524913705
 20
3.321649459035033
 30
0.0
 10
114.2019625183497
 20
3.357336423554673
 30
0.0
 10
114.203793748119
 20
3.393317216059644
 30
0.0
 10
114.2056964385935
 20
3.430536676898749
 30
0.0
 10
114.2077162989368
 20
3.46985808011847
 30
0.0
 10
114.2098624341483
 20
3.511405738555525
 30
0.0
 10
114.2121286843492
 20
3.555005972718647
 30
0.0
 10
114.2145447679052
 20
3.601165792102607
 30
0.0
 10
114.2172005182541
 20
3.651510470010141
 30
0.0
 10
114.2202027681047
 20
3.707948101133473
 30
0.0
 10
114.2236224051577
 20
3.77163739934012
 30
0.0
 10
114.2274737953903
 20
3.842643012097582
 30
0.0
 10
114.2317188061918
 20
3.920059491716502
 30
0.0
 10
114.2362731367907
 20
4.002202722913107
 30
0.0
 10
114.2410093279374
 20
4.086687525012449
 30
0.0
 10
114.2442261296083
 20
4.143500844516507
 30
0.0
 10
114.245838737587
 20
4.171819143899995
 30
0.0
 11
114.1965428922872
 21
3.24998776389998
 31
0.0
 11
114.1983458385871
 21
3.285861844199984
 31
0.0
 11
114.2001572019871
 21
3.321729633599999
 31
0.0
 11
114.201963572587
 21
3.357356435399991
 31
0.0
 11
114.2037739937871
 21
3.392922833700026
 31
0.0
 11
114.2056526919871
 21
3.429671918099983
 31
0.0
 11
114.207673797287
 21
3.469014705599988
 31
0.0
 11
114.209836844887
 21
3.510886871900027
 31
0.0
 11
114.2120943246871
 21
3.554314721600006
 31
0.0
 11
114.214476049387
 21
3.599815219099979
 31
0.0
 11
114.2170898441871
 21
3.649366071900033
 31
0.0
 11
114.220067805687
 21
3.705348413699993
 31
0.0
 11
114.2234921480871
 21
3.769127597100008
 31
0.0
 11
114.2273596723871
 21
3.840433355000016
 31
0.0
 11
114.231632547287
 21
3.918364644699977
 31
0.0
 11
114.2362347265871
 21
4.001376581100031
 31
0.0
 11
114.241026168287
 21
4.086862808100022
 31
0.0
 11
114.245838737587
 21
4.171819143899995
 31
0.0
  0
SPLINE
  5
55B4C
330
1F
100
AcDbEntity
  8
1
100
AcDbSpline
210
0.0
220
0.0
230
1.0
 70
     8
 71
     3
 72
    28
 73
    24
 74
    22
 42
0.0000000001
 43
0.0000000001
 44
0.000001
 12
0.0491201323270987
 22
0.9987928777279943
 32
0.0
 13
0.0504174163818718
 23
0.9987282333675048
 33
0.0
 40
0.0
 40
0.0
 40
0.0
 40
0.0
 40
0.079669981822007
 40
0.1504813503349824
 40
0.213550641161914
 40
0.2699055332307926
 40
0.3204802851157546
 40
0.3659243530697425
 40
0.4068152247160417
 40
0.4437486699382058
 40
0.4776596031447179
 40
0.5110965887809634
 40
0.5454362199367078
 40
0.5799288387599122
 40
0.6141445792245229
 40
0.648067435149494
 40
0.6826684981590172
 40
0.7195937857463502
 40
0.759854564720956
 40
0.8026995912270383
 40
0.8468023940426677
 40
0.89008656816478
 40
0.9306070606688859
 40
0.9306070606688859
 40
0.9306070606688859
 40
0.9306070606688859
 10
114.245838737587
 20
4.171819143899995
 30
0.0
 10
114.2471432042702
 20
4.198343747370842
 30
0.0
 10
114.2496282336921
 20
4.248442608885016
 30
0.0
 10
114.2532007423793
 20
4.319536457628937
 30
0.0
 10
114.2564331245028
 20
4.382865876916484
 30
0.0
 10
114.2593609388848
 20
4.439456503822641
 30
0.0
 10
114.2620023594065
 20
4.490179010699383
 30
0.0
 10
114.2643806106951
 20
4.535753563679976
 30
0.0
 10
114.2665188553718
 20
4.576787351831398
 30
0.0
 10
114.2684500050074
 20
4.613982337137483
 30
0.0
 10
114.2702410520328
 20
4.648696619460396
 30
0.0
 10
114.2719804122661
 20
4.682547812494187
 30
0.0
 10
114.2737363811569
 20
4.716592303158276
 30
0.0
 10
114.2755249207606
 20
4.750895041034601
 30
0.0
 10
114.2773383533778
 20
4.785057355734286
 30
0.0
 10
114.2791982483266
 20
4.819253380352256
 30
0.0
 10
114.2811667725241
 20
4.854347968026029
 30
0.0
 10
114.2833330336718
 20
4.891547369346202
 30
0.0
 10
114.2857766573517
 20
4.93148308275538
 30
0.0
 10
114.2884269230433
 20
4.973803045020284
 30
0.0
 10
114.291100752299
 20
5.017131297452931
 30
0.0
 10
114.2935992204402
 20
5.059694016064951
 30
0.0
 10
114.2950713893728
 20
5.087590255002057
 30
0.0
 10
114.295752368887
 20
5.101079908299992
 30
0.0
 11
114.245838737587
 21
4.171819143899995
 31
0.0
 11
114.2497826033871
 21
4.251391456500015
 31
0.0
 11
114.253339088787
 21
4.322113456800025
 31
0.0
 11
114.2565539100871
 21
4.385100760200032
 31
0.0
 11
114.2594628334871
 21
4.441380525999988
 31
0.0
 11
114.2620912558871
 21
4.491886930799978
 31
0.0
 11
114.264458114887
 21
4.537269320400014
 31
0.0
 11
114.266585150087
 21
4.578104833099985
 31
0.0
 11
114.2684991635871
 21
4.614988649599978
 31
0.0
 11
114.2702469951871
 21
4.648854509500039
 31
0.0
 11
114.271965048187
 21
4.682247327500021
 31
0.0
 11
114.273735947787
 21
4.716541265399995
 31
0.0
 11
114.2755341482871
 21
4.750986979599986
 31
0.0
 11
114.277349979587
 21
4.785154503000001
 31
0.0
 11
114.279194460587
 21
4.819027177099997
 31
0.0
 11
114.2811342774871
 21
4.853573822099973
 31
0.0
 11
114.283284706687
 21
4.890436438999983
 31
0.0
 11
114.285732327487
 21
4.930622748400026
 31
0.0
 11
114.288393328487
 21
4.97338506020003
 31
0.0
 11
114.2910943505871
 21
5.017405073500014
 31
0.0
 11
114.2936082379871
 21
5.060616181900002
 31
0.0
 11
114.295752368887
 21
5.101079908299992
 31
0.0
  0
LINE
  5
55B4D
330
1F
100
AcDbEntity
  8
1
100
AcDbLine
 10
114.0147515096533
 20
-0.1849324589597927
 30
0.0
 11
114.0265455096534
 21
-0.2067954589597889
 31
0.0
  0
SPLINE
  5
55B4E
330
1F
100
AcDbEntity
  8
1
100
AcDbSpline
210
0.0
220
0.0
230
1.0
 70
     8
 71
     3
 72
    18
 73
    14
 74
     0
 42
0.0000000001
 43
0.0000000001
 40
0.0
 40
0.0
 40
0.0
 40
0.0
 40
0.0033428479668778
 40
0.0162855734778196
 40
0.0418929576074673
 40
0.067367463142007
 40
0.0929233954904393
 40
0.1184558312617857
 40
0.1438429116922201
 40
0.1566212008708871
 40
0.1695511466940501
 40
0.1826346896329039
 40
0.1949773647990549
 40
0.1949773647990549
 40
0.1949773647990549
 40
0.1949773647990549
 10
110.4843583618871
 20
7.870191715100019
 30
0.0
 10
110.4854721053727
 20
7.870226374657647
 30
0.0
 10
110.4908980116938
 20
7.870394957783559
 30
0.0
 10
110.5048564190237
 20
7.870801976438031
 30
0.0
 10
110.5261917446529
 20
7.871323084070012
 30
0.0
 10
110.5517334514143
 20
7.871794825964116
 30
0.0
 10
110.5772522041371
 20
7.872138022912507
 30
0.0
 10
110.6027431827963
 20
7.872356105215543
 30
0.0
 10
110.6239757636124
 20
7.872432052085912
 30
0.0
 10
110.6410075526607
 20
7.872417197788536
 30
0.0
 10
110.6539380658073
 20
7.872365650871699
 30
0.0
 10
110.6667231416179
 20
7.872273840027105
 30
0.0
 10
110.6751981685473
 20
7.872193082454657
 30
0.0
 10
110.6793122123871
 20
7.872154215600005
 30
0.0
  0
SPLINE
  5
55B4F
330
1F
100
AcDbEntity
  8
1
100
AcDbSpline
210
0.0
220
0.0
230
1.0
 70
     8
 71
     3
 72
    19
 73
    15
 74
     0
 42
0.0000000001
 43
0.0000000001
 40
0.2100024645242005
 40
0.2100024645242005
 40
0.2100024645242005
 40
0.2100024645242005
 40
0.2189121815899325
 40
0.2273901447297271
 40
0.2350426112799268
 40
0.2422328337859406
 40
0.2493186824444628
 40
0.2564638200033773
 40
0.2636301885017222
 40
0.2707717786322839
 40
0.2779214748469196
 40
0.2852646324318862
 40
0.2930977554827656
 40
0.3017217272465491
 40
0.3017217272465491
 40
0.3017217272465491
 40
0.3017217272465491
 10
110.485742310892
 20
7.87020802816869
 30
0.0
 10
110.4827727176049
 20
7.870164914747022
 30
0.0
 10
110.4769775102252
 20
7.870075579059288
 30
0.0
 10
110.4686319745538
 20
7.86993511333179
 30
0.0
 10
110.4608596668172
 20
7.869796048393537
 30
0.0
 10
110.4535514254072
 20
7.869659707475022
 30
0.0
 10
110.4464123386375
 20
7.869522606052669
 30
0.0
 10
110.4392812462938
 20
7.869383363770282
 30
0.0
 10
110.4321316099186
 20
7.869242083033326
 30
0.0
 10
110.4249804912699
 20
7.869098911797721
 30
0.0
 10
110.4177704936949
 20
7.868952629623437
 30
0.0
 10
110.4103300707081
 20
7.868799798200027
 30
0.0
 10
110.4023983877095
 20
7.868633914484007
 30
0.0
 10
110.3969138880534
 20
7.86851923441327
 30
0.0
 10
110.3940398848871
 20
7.868457914500027
 30
0.0
  0
LINE
  5
55B50
330
1F
100
AcDbEntity
  8
cut
100
AcDbLine
 10
107.8999999999998
 20
7.85325821690003
 30
0.0
 11
110.6999999999999
 21
7.999999998900022
 31
0.0
1001
ACAD
1000
RTMaterial
1005
0
  0
LINE
  5
55B51
330
1F
100
AcDbEntity
  8
cut
100
AcDbLine
 10
102.2999999999999
 20
7.464999998899997
 30
0.0
 11
106.4239224734999
 21
7.464999998899997
 31
0.0
1001
ACAD
1000
RTMaterial
1005
0
  0
LINE
  5
55B52
330
1F
100
AcDbEntity
  8
cut
100
AcDbLine
 10
110.6999999999999
 20
7.999999998900022
 30
0.0
 11
112.2999999999999
 21
7.999999998900022
 31
0.0
1001
ACAD
1000
RTMaterial
1005
0
  0
LINE
  5
55B53
330
1F
100
AcDbEntity
  8
cut
100
AcDbLine
 10
114.3
 20
5.499999998900306
 30
0.0
 11
114.3
 21
5.999999998900022
 31
0.0
1001
ACAD
1000
RTMaterial
1005
0
  0
LINE
  5
55B54
330
1F
100
AcDbEntity
  8
cut
100
AcDbLine
 10
114.0117572139
 20
-0.000000001099977
 30
0.0
 11
114.3
 21
5.499999998900023
 31
0.0
1001
ACAD
1000
RTMaterial
1005
0
  0
ARC
  5
55B55
330
1F
100
AcDbEntity
  8
cut
100
AcDbCircle
 10
106.4239224734999
 20
10.46499999889999
 30
0.0
 40
3.0
100
AcDbArc
 50
270.0
 51
299.4738214898979
1001
ACAD
1000
RTMaterial
1005
0
  0
ARC
  5
55B56
330
1F
100
AcDbEntity
  8
cut
100
AcDbCircle
 10
112.2999999999999
 20
5.999999998900022
 30
0.0
 40
2.0
100
AcDbArc
 50
0.0
 51
90.0
1001
ACAD
1000
RTMaterial
1005
0
  0
LINE
  5
55B57
330
1F
100
AcDbEntity
  8
cut
100
AcDbLine
 10
107.8999999999998
 20
-7.853258216899916
 30
0.0
 11
110.6999999999999
 21
-7.999999998899965
 31
0.0
1001
ACAD
1000
RTMaterial
1005
0
  0
LINE
  5
55B58
330
1F
100
AcDbEntity
  8
cut
100
AcDbLine
 10
102.2999999999999
 20
-7.464999998899997
 30
0.0
 11
106.4239224734999
 21
-7.464999998899997
 31
0.0
1001
ACAD
1000
RTMaterial
1005
0
  0
LINE
  5
55B59
330
1F
100
AcDbEntity
  8
cut
100
AcDbLine
 10
110.6999999999999
 20
-7.999999998899965
 30
0.0
 11
112.2999999999999
 21
-7.999999998899965
 31
0.0
1001
ACAD
1000
RTMaterial
1005
0
  0
LINE
  5
55B5A
330
1F
100
AcDbEntity
  8
cut
100
AcDbLine
 10
114.3
 20
-5.49999999890025
 30
0.0
 11
114.3
 21
-5.999999998899965
 31
0.0
1001
ACAD
1000
RTMaterial
1005
0
  0
LINE
  5
55B5B
330
1F
100
AcDbEntity
  8
cut
100
AcDbLine
 10
102.2999999999999
 20
7.464999998899997
 30
0.0
 11
102.2999999999999
 21
-7.464999998899997
 31
0.0
1001
ACAD
1000
RTMaterial
1005
0
  0
LINE
  5
55B5C
330
1F
100
AcDbEntity
  8
cut
100
AcDbLine
 10
114.0117572139
 20
0.0000000011000338
 30
0.0
 11
114.3
 21
-5.499999998899965
 31
0.0
1001
ACAD
1000
RTMaterial
1005
0
  0
ARC
  5
55B5D
330
1F
100
AcDbEntity
  8
cut
100
AcDbCircle
 10
106.4239224734999
 20
-10.46499999889999
 30
0.0
 40
3.0
100
AcDbArc
 50
60.526178510102
 51
90.0
1001
ACAD
1000
RTMaterial
1005
0
  0
ARC
  5
55B5E
330
1F
100
AcDbEntity
  8
cut
100
AcDbCircle
 10
112.2999999999999
 20
-5.999999998899965
 30
0.0
 40
2.0
100
AcDbArc
 50
270.0
 51
0.0
1001
ACAD
1000
RTMaterial
1005
0
  0
LINE
  5
55BC6
330
1F
100
AcDbEntity
  8
1
100
AcDbLine
 10
103.1743418320972
 20
-7.46500000000003
 30
0.0
 11
103.1743418320972
 21
-7.191612125099992
 31
0.0
  0
LINE
  5
55BC7
330
1F
100
AcDbEntity
  8
1
100
AcDbLine
 10
103.1743418320972
 20
6.434071439746054
 30
0.0
 11
103.1743418320972
 21
7.464999998800037
 31
0.0
  0
LINE
  5
55BC8
330
1F
100
AcDbEntity
  8
1
100
AcDbLine
 10
102.3100148320972
 20
7.310000000000002
 30
0.0
 11
102.3100148320972
 21
6.697637543922133
 31
0.0
  0
LINE
  5
55BC9
330
1F
100
AcDbEntity
  8
1
100
AcDbLine
 10
102.3100148320972
 20
-7.191612125099992
 30
0.0
 11
102.3100148320972
 21
-7.310000000000002
 31
0.0
  0
DIMENSION
  5
55E45
330
1F
100
AcDbEntity
  8
sk2
100
AcDbDimension
  2
*D22
 10
114.2999999999999
 20
51.06385882017696
 30
0.0
 11
12.70000699999991
 21
51.06385882017696
 31
0.0
 70
   160
 71
     5
 41
0.892857
 42
203.2
  3
\M+18352\M+18373\M+1815B - ISO-25
100
AcDbAlignedDimension
 13
-88.90000000000009
 23
6.937515000000018
 33
0.0
 14
114.2999999999999
 24
0.0
 34
0.0
 50
180.0
100
AcDbRotatedDimension
1001
ACAD
1000
DSTYLE
1002
{
1070
     4
1000
"
1070
    40
1040
1.0
1070
   143
1040
0.03937
1070
   170
1070
     1
1070
   171
1070
     3
1070
   271
1070
     8
1070
   285
1070
     4
1002
}
  0
DIMENSION
  5
55E46
330
1F
100
AcDbEntity
  8
2
100
AcDbDimension
  2
*D23
 10
-0.0000000000001119
 20
36.67664276870477
 30
0.0
 11
52.73115345473957
 21
36.67664276870477
 31
0.0
 70
   160
 71
     5
 41
0.892857
 42
114.3
  3
\M+18352\M+18373\M+1815B - ISO-25
100
AcDbAlignedDimension
 13
114.2999999999999
 23
0.0
 33
0.0
 14
-0.0000000000001137
 24
7.937499999999971
 34
0.0
 50
180.0
100
AcDbRotatedDimension
1001
ACAD
1000
DSTYLE
1002
{
1070
     4
1000
"
1070
    40
1040
1.0
1070
   143
1040
0.03937
1070
   170
1070
     1
1070
   171
1070
     3
1070
   271
1070
     8
1070
   285
1070
     4
1002
}
  0
DIMENSION
  5
55E48
330
1F
100
AcDbEntity
  8
sk2
100
AcDbDimension
  2
*D25
 10
-116.2001110000001
 20
7.937500000000007
 30
0.0
 11
-116.2001110000001
 21
-39.59375000000003
 31
0.0
 70
   160
  1
%%c<>
 71
     5
 41
0.892857
 42
15.875
  3
\M+18352\M+18373\M+1815B - ISO-25
100
AcDbAlignedDimension
 13
-88.11453042549151
 23
-7.9375
 33
0.0
 14
-87.89999900000015
 24
7.9375
 34
0.0
 50
270.0
100
AcDbRotatedDimension
1001
ACAD
1000
DSTYLE
1002
{
1070
     4
1000
%%C[]"
1070
    40
1040
1.0
1070
   143
1040
0.03937
1070
   170
1070
     1
1070
   171
1070
     3
1070
   271
1070
     8
1070
   285
1070
     4
1002
}
  0
LINE
  5
55E4A
330
1F
100
AcDbEntity
  8
sk1
100
AcDbLine
 10
-88.90000000000009
 20
0.0
 30
0.0
 11
-88.90000000000009
 21
-6.9375
 31
0.0
  0
LINE
  5
55E4C
330
1F
100
AcDbEntity
  8
sk4
100
AcDbLine
 10
-94.77088000000009
 20
0.0
 30
0.0
 11
-0.0000000000001137
 21
0.0
 31
0.0
  0
LINE
  5
55E4E
330
1F
100
AcDbEntity
  8
sk1
100
AcDbLine
 10
-87.90000000000008
 20
-7.9375
 30
0.0
 11
-0.0000060000000985
 21
-7.9375
 31
0.0
  0
LINE
  5
55E4F
330
1F
100
AcDbEntity
  8
sk1
100
AcDbLine
 10
-87.90001100000015
 20
-7.937498000000005
 30
0.0
 11
-88.90001100000008
 21
-6.937498000000005
 31
0.0
  0
LINE
  5
55E50
330
1F
100
AcDbEntity
  8
sk1
100
AcDbLine
 10
-87.90000000000008
 20
-7.9375
 30
0.0
 11
-87.90000000000008
 21
0.0
 31
0.0
  0
LINE
  5
55E51
330
1F
100
AcDbEntity
  8
sk1
100
AcDbLine
 10
-88.90000000000009
 20
0.0
 30
0.0
 11
-88.90000000000009
 21
6.9375
 31
0.0
  0
LINE
  5
55E53
330
1F
100
AcDbEntity
  8
sk1
100
AcDbLine
 10
-87.90000000000008
 20
7.9375
 30
0.0
 11
-87.90000000000008
 21
0.0
 31
0.0
  0
LINE
  5
55E54
330
1F
100
AcDbEntity
  8
sk1
100
AcDbLine
 10
-87.8999960000001
 20
7.937518000000011
 30
0.0
 11
-88.89999700000016
 21
6.937517000000013
 31
0.0
  0
LINE
  5
55E55
330
1F
100
AcDbEntity
  8
sk1
100
AcDbLine
 10
-87.90000000000008
 20
7.9375
 30
0.0
 11
-0.0000000000001137
 21
7.937499999999971
 31
0.0
  0
VIEWPORT
  5
6B
102
{ACAD_XDICTIONARY
360
55F64
102
}
330
50
100
AcDbEntity
 67
     1
  8
0
100
AcDbViewport
 10
150.1652135264906
 20
160.4455827878762
 30
0.0
 40
339.1973820494346
 41
282.2272140146125
 68
     1
 69
     1
 12
150.1652135264906
 22
160.4455827878762
 13
0.0
 23
0.0
 14
10.0
 24
10.0
 15
10.0
 25
10.0
 16
0.0
 26
0.0
 36
1.0
 17
0.0
 27
0.0
 37
0.0
 42
50.0
 43
0.0
 44
0.0
 45
282.2272140146125
 50
0.0
 51
0.0
 72
  1000
 90
    32864
  1

281
     0
 71
     1
 74
     0
110
0.0
120
0.0
130
0.0
111
1.0
121
0.0
131
0.0
112
0.0
122
1.0
132
0.0
 79
     0
146
0.0
  0
VIEWPORT
  5
6D
102
{ACAD_XDICTIONARY
360
55F66
102
}
330
50
100
AcDbEntity
 67
     1
  8
0
100
AcDbViewport
 10
133.3499939441681
 20
101.5999939441681
 30
0.0
 40
213.3599903106689
 41
162.5599903106689
 68
     2
 69
     2
 12
210.0
 22
148.5
 13
0.0
 23
0.0
 14
10.0
 24
10.0
 15
10.0
 25
10.0
 16
0.0
 26
0.0
 36
1.0
 17
0.0
 27
0.0
 37
0.0
 42
50.0
 43
0.0
 44
0.0
 45
324.0677920111345
 50
0.0
 51
0.0
 72
   100
 90
    32864
  1

281
     0
 71
     1
 74
     0
110
0.0
120
0.0
130
0.0
111
1.0
121
0.0
131
0.0
112
0.0
122
1.0
132
0.0
 79
     0
146
0.0
  0
ENDSEC
  0
SECTION
  2
OBJECTS
  0
DICTIONARY
  5
C
330
0
100
AcDbDictionary
281
     1
  3
ACAD_COLOR
350
85
  3
ACAD_GROUP
350
D
  3
ACAD_LAYOUT
350
1A
  3
ACAD_MATERIAL
350
84
  3
ACAD_MLINESTYLE
350
17
  3
ACAD_PLOTSETTINGS
350
19
  3
ACAD_PLOTSTYLENAME
350
E
  3
ACAD_TABLESTYLE
350
A1
  3
ACDBHEADERROUNDTRIPXREC
350
55F5F
  3
AcDbVariableDictionary
350
5E
  3
ASE_INDEX_DICTIONARY
350
349E9
  3
DWGPROPS
350
55F5E
  0
DICTIONARY
  5
E2
330
2
100
AcDbDictionary
280
     1
281
     1
  3
ACAD_LAYERFILTERS
360
556D1
  3
ACAD_LAYERSTATES
360
3759A
  3
ACLYDICTIONARY
360
556D0
  0
DICTIONARY
  5
31EE
330
1F
100
AcDbDictionary
280
     1
281
     1
  3
ACAD_SORTENTS
360
31EF
  0
DICTIONARY
  5
3BEB2
330
680
100
AcDbDictionary
280
     1
281
     1
  3
ACAD_SORTENTS
360
55E15
  0
DICTIONARY
  5
55F68
330
71
100
AcDbDictionary
280
     1
281
     1
  3
ACAD_XREC_ROUNDTRIP
360
55F69
  0
DICTIONARY
  5
55F6A
330
73
100
AcDbDictionary
280
     1
281
     1
  3
ACAD_XREC_ROUNDTRIP
360
55F6B
  0
DICTIONARY
  5
55B48
330
55B47
100
AcDbDictionary
280
     1
281
     1
  3
ACAD_DIMASSOC
360
55B49
  0
DICTIONARY
  5
55F64
330
6B
100
AcDbDictionary
280
     1
281
     1
  3
ACAD_XREC_ROUNDTRIP
360
55F65
  0
DICTIONARY
  5
55F66
330
6D
100
AcDbDictionary
280
     1
281
     1
  3
ACAD_XREC_ROUNDTRIP
360
55F67
  0
DICTIONARY
  5
85
102
{ACAD_REACTORS
330
C
102
}
330
C
100
AcDbDictionary
281
     1
  0
DICTIONARY
  5
D
102
{ACAD_REACTORS
330
C
102
}
330
C
100
AcDbDictionary
281
     1
  0
DICTIONARY
  5
1A
102
{ACAD_REACTORS
330
C
102
}
330
C
100
AcDbDictionary
281
     1
  3
\M+1838C\M+18343\M+18341\M+18345\M+183671
350
51
  3
\M+1838C\M+18343\M+18341\M+18345\M+183672
350
56
  3
Model
350
22
  0
DICTIONARY
  5
84
102
{ACAD_REACTORS
330
C
102
}
330
C
100
AcDbDictionary
281
     1
  0
DICTIONARY
  5
17
102
{ACAD_REACTORS
330
C
102
}
330
C
100
AcDbDictionary
281
     1
  3
Standard
350
18
  0
DICTIONARY
  5
19
102
{ACAD_REACTORS
330
C
102
}
330
C
100
AcDbDictionary
281
     1
  0
ACDBDICTIONARYWDFLT
  5
E
102
{ACAD_REACTORS
330
C
102
}
330
C
100
AcDbDictionary
281
     1
  3
Normal
350
F
100
AcDbDictionaryWithDefault
340
F
  0
DICTIONARY
  5
A1
102
{ACAD_REACTORS
330
C
102
}
330
C
100
AcDbDictionary
281
     1
  3
Standard
350
A2
  0
DICTIONARY
  5
55F5F
102
{ACAD_REACTORS
330
C
102
}
330
C
100
AcDbDictionary
281
     1
  0
DICTIONARY
  5
5E
102
{ACAD_REACTORS
330
C
102
}
330
C
100
AcDbDictionary
281
     1
  3
CTABLESTYLE
350
B8
  3
DIMASSOC
350
5F
  3
HIDETEXT
350
63
  3
PROJECTNAME
350
31CE
  0
DICTIONARY
  5
349E9
102
{ACAD_REACTORS
330
C
102
}
330
C
100
AcDbDictionary
281
     1
  3
ASEBlockHierarchyIndexRecord
350
349EA
1001
DCO15
1040
1842496176.844
  0
XRECORD
  5
55F5E
102
{ACAD_REACTORS
330
C
102
}
330
C
100
AcDbXrecord
280
     1
  1
DWGPROPS COOKIE
  2

  3

  4

  6

  7

  8

  9

300
=
301
=
302
=
303
=
304
=
305
=
306
=
307
=
308
=
309
=
 40
2.730169143518518
 41
2455489.391063368
 42
2458573.020340938
  1

 90
        0
  0
DICTIONARY
  5
556D1
102
{ACAD_REACTORS
330
E2
102
}
330
E2
100
AcDbDictionary
281
     1
  0
DICTIONARY
  5
3759A
102
{ACAD_REACTORS
330
E2
102
}
330
E2
100
AcDbDictionary
281
     1
  0
DICTIONARY
  5
556D0
102
{ACAD_REACTORS
330
E2
102
}
330
E2
100
AcDbDictionary
281
     1
1001
ACAD
1000
<All
  0
SORTENTSTABLE
  5
31EF
102
{ACAD_REACTORS
330
31EE
102
}
330
31EE
100
AcDbSortentsTable
330
1F
331
68C
  5
3C6B0
331
53AD9
  5
53ADC
  0
SORTENTSTABLE
  5
55E15
102
{ACAD_REACTORS
330
3BEB2
102
}
330
3BEB2
100
AcDbSortentsTable
330
680
  0
XRECORD
  5
55F69
102
{ACAD_REACTORS
330
55F68
102
}
330
55F68
100
AcDbXrecord
280
     1
102
SHADEPLOT
 70
     0
  0
XRECORD
  5
55F6B
102
{ACAD_REACTORS
330
55F6A
102
}
330
55F6A
100
AcDbXrecord
280
     1
102
SHADEPLOT
 70
     0
  0
DIMASSOC
  5
55B49
102
{ACAD_REACTORS
330
55B48
102
}
330
55B48
100
AcDbDimAssoc
330
55B47
 90
        2
 70
     0
 71
     0
  1
AcDbOsnapPointRef
 72
     3
331
55B46
 73
     2
 91
        0
 40
0.0
 10
0.0
 20
0.0
 30
0.0
 75
     0
  0
XRECORD
  5
55F65
102
{ACAD_REACTORS
330
55F64
102
}
330
55F64
100
AcDbXrecord
280
     1
102
SHADEPLOT
 70
     0
  0
XRECORD
  5
55F67
102
{ACAD_REACTORS
330
55F66
102
}
330
55F66
100
AcDbXrecord
280
     1
102
SHADEPLOT
 70
     0
  0
LAYOUT
  5
51
102
{ACAD_XDICTIONARY
360
B2
102
}
102
{ACAD_REACTORS
330
1A
102
}
330
1A
100
AcDbPlotSettings
  1

  2
none_device
  4
Letter_(8.50_x_11.00_Inches)
  6

 40
6.349999904632567
 41
6.349999904632567
 42
6.350006103515625
 43
6.350006103515625
 44
215.8999938964844
 45
279.3999938964844
 46
0.0
 47
0.0
 48
0.0
 49
0.0
140
0.0
141
0.0
142
1.0
143
1.0
 70
   688
 72
     1
 73
     1
 74
     5
  7

 75
    16
147
1.0
148
0.0
149
0.0
100
AcDbLayout
  1
\M+1838C\M+18343\M+18341\M+18345\M+183671
 70
     1
 71
     1
 10
-6.350006103515625
 20
-6.349999904632567
 11
273.0499877929688
 21
209.5499939918518
 12
0.0
 22
0.0
 32
0.0
 14
26.66999878883364
 24
20.31999878883365
 34
0.0
 15
240.0299890995025
 25
182.8799890995025
 35
0.0
146
0.0
 13
0.0
 23
0.0
 33
0.0
 16
1.0
 26
0.0
 36
0.0
 17
0.0
 27
1.0
 37
0.0
 76
     0
330
50
331
6B
  0
LAYOUT
  5
56
102
{ACAD_XDICTIONARY
360
B5
102
}
102
{ACAD_REACTORS
330
1A
102
}
330
1A
100
AcDbPlotSettings
  1

  2
none_device
  4
Letter_(8.50_x_11.00_Inches)
  6

 40
6.349999904632567
 41
6.349999904632567
 42
6.350006103515625
 43
6.350006103515625
 44
215.8999938964844
 45
279.3999938964844
 46
0.0
 47
0.0
 48
0.0
 49
0.0
140
0.0
141
0.0
142
1.0
143
1.0
 70
   688
 72
     1
 73
     1
 74
     5
  7

 75
    16
147
1.0
148
0.0
149
0.0
100
AcDbLayout
  1
\M+1838C\M+18343\M+18341\M+18345\M+183672
 70
     1
 71
     2
 10
-6.350006103515625
 20
-6.349999904632567
 11
273.0499877929688
 21
209.5499939918518
 12
0.0
 22
0.0
 32
0.0
 14
26.66999878883363
 24
20.31999878883363
 34
0.0
 15
240.0299890995026
 25
182.8799890995025
 35
0.0
146
0.0
 13
0.0
 23
0.0
 33
0.0
 16
1.0
 26
0.0
 36
0.0
 17
0.0
 27
1.0
 37
0.0
 76
     0
330
55
331
71
  0
LAYOUT
  5
22
102
{ACAD_XDICTIONARY
360
55F60
102
}
102
{ACAD_REACTORS
330
1A
102
}
330
1A
100
AcDbPlotSettings
  1

  2
none_device
  4
ANSI_A_(8.50_x_11.00_Inches)
  6

 40
6.349999904632567
 41
19.04999923706055
 42
6.350006103515625
 43
19.04998779296875
 44
215.8999938964844
 45
279.3999938964844
 46
0.0
 47
0.0
 48
0.0
 49
0.0
140
0.0
141
0.0
142
1.0
143
78.436453180766
 70
 11952
 72
     0
 73
     1
 74
     0
  7

 75
     0
147
0.0127491741332998
148
0.0
149
0.0
100
AcDbLayout
  1
Model
 70
     1
 71
     0
 10
0.0
 20
0.0
 11
12.0
 21
9.0
 12
0.0
 22
0.0
 32
0.0
 14
0.0
 24
0.0
 34
0.0
 15
0.0
 25
0.0
 35
0.0
146
0.0
 13
0.0
 23
0.0
 33
0.0
 16
1.0
 26
0.0
 36
0.0
 17
0.0
 27
1.0
 37
0.0
 76
     0
330
1F
  0
MLINESTYLE
  5
18
102
{ACAD_REACTORS
330
17
102
}
330
17
100
AcDbMlineStyle
  2
STANDARD
 70
     0
  3

 62
   256
 51
90.0
 52
90.0
 71
     2
 49
0.5
 62
   256
  6
BYLAYER
 49
-0.5
 62
   256
  6
BYLAYER
  0
ACDBPLACEHOLDER
  5
F
102
{ACAD_REACTORS
330
E
102
}
330
E
  0
TABLESTYLE
  5
A2
102
{ACAD_REACTORS
330
A1
102
}
330
A1
100
AcDbTableStyle
  3
Standard
 70
     0
 71
     0
 40
1.5
 41
1.5
280
     0
281
     0
  7
Standard
140
4.5
170
     2
 62
     0
 63
     7
283
     0
274
    -2
284
     1
 64
     0
275
    -2
285
     1
 65
     0
276
    -2
286
     1
 66
     0
277
    -2
287
     1
 67
     0
278
    -2
288
     1
 68
     0
279
    -2
289
     1
 69
     0
  7
Standard
140
6.0
170
     5
 62
     0
 63
     7
283
     0
274
    -2
284
     1
 64
     0
275
    -2
285
     1
 65
     0
276
    -2
286
     1
 66
     0
277
    -2
287
     1
 67
     0
278
    -2
288
     1
 68
     0
279
    -2
289
     1
 69
     0
  7
Standard
140
4.5
170
     5
 62
     0
 63
     7
283
     0
274
    -2
284
     1
 64
     0
275
    -2
285
     1
 65
     0
276
    -2
286
     1
 66
     0
277
    -2
287
     1
 67
     0
278
    -2
288
     1
 68
     0
279
    -2
289
     1
 69
     0
  0
DICTIONARYVAR
  5
B8
102
{ACAD_REACTORS
330
5E
102
}
330
5E
100
DictionaryVariables
280
     0
  1
STANDARD
  0
DICTIONARYVAR
  5
5F
102
{ACAD_REACTORS
330
5E
102
}
330
5E
100
DictionaryVariables
280
     0
  1
2
  0
DICTIONARYVAR
  5
63
102
{ACAD_REACTORS
330
5E
102
}
330
5E
100
DictionaryVariables
280
     0
  1
1
  0
DICTIONARYVAR
  5
31CE
102
{ACAD_REACTORS
330
5E
102
}
330
5E
100
DictionaryVariables
280
     0
  1

  0
XRECORD
  5
349EA
102
{ACAD_REACTORS
330
349E9
102
}
330
349E9
100
AcDbXrecord
280
     1
330
68C
330
0
330
0
330
0
330
0
330
0
330
0
330
0
330
0
330
0
330
0
330
0
330
0
330
0
330
0
330
0
330
0
330
0
330
0
330
0
330
0
330
0
330
0
330
0
330
0
330
0
330
0
330
0
330
0
330
0
330
0
330
0
330
0
330
0
330
0
330
0
330
0
330
0
330
0
330
0
330
0
330
0
330
0
330
0
330
0
330
0
330
0
330
0
330
0
330
0
330
0
330
0
330
0
330
0
330
0
330
0
330
0
330
0
330
0
330
0
330
0
330
0
330
0
330
0
330
0
330
0
330
0
330
0
330
0
330
0
330
0
330
0
330
0
330
0
330
0
330
0
330
0
330
0
330
0
330
0
330
0
330
0
330
0
330
0
330
0
330
0
330
0
330
0
330
0
330
0
330
0
330
0
330
0
330
0
330
0
330
0
330
0
330
0
330
0
330
0
330
0
330
0
330
0
330
0
330
0
330
0
330
0
330
0
330
0
330
0
  0
DICTIONARY
  5
B2
330
51
100
AcDbDictionary
280
     1
281
     1
  3
ACAD_XREC_ROUNDTRIP
360
55F62
  3
ADSK_XREC_LAYOUTTHUMBNAIL
360
B3
  0
DICTIONARY
  5
B5
330
56
100
AcDbDictionary
280
     1
281
     1
  3
ACAD_XREC_ROUNDTRIP
360
55F63
  3
ADSK_XREC_LAYOUTTHUMBNAIL
360
B6
  0
DICTIONARY
  5
55F60
330
22
100
AcDbDictionary
280
     1
281
     1
  3
ACAD_XREC_ROUNDTRIP
360
55F61
  0
XRECORD
  5
55F62
102
{ACAD_REACTORS
330
B2
102
}
330
B2
100
AcDbXrecord
280
     1
102
SHADEPLOT
 70
     0
102
SHADEPLOTRESLEVEL
 70
     2
102
SHADEPLOTCUSTOMDPI
 70
   300
  0
XRECORD
  5
B3
102
{ACAD_REACTORS
330
B2
102
}
330
B2
100
AcDbXrecord
280
     1
310
28000000B40000008B0000000100080000000000BC61000000000000000000000001000000000000FFFFFF0000000000FFFFFF000000000000000000000000000000000000000000000000000000000000000000330000006600000099000000CC000000FF00000000330000333300006633000099330000CC330000FF3300
310
0000660000336600006666000099660000CC660000FF66000000990000339900006699000099990000CC990000FF99000000CC000033CC000066CC000099CC0000CCCC0000FFCC000000FF000033FF000066FF000099FF0000CCFF0000FFFF000000003300330033006600330099003300CC003300FF003300003333003333
310
33006633330099333300CC333300FF33330000663300336633006666330099663300CC663300FF66330000993300339933006699330099993300CC993300FF99330000CC330033CC330066CC330099CC3300CCCC3300FFCC330000FF330033FF330066FF330099FF3300CCFF3300FFFF330000006600330066006600660099
310
006600CC006600FF00660000336600333366006633660099336600CC336600FF33660000666600336666006666660099666600CC666600FF66660000996600339966006699660099996600CC996600FF99660000CC660033CC660066CC660099CC6600CCCC6600FFCC660000FF660033FF660066FF660099FF6600CCFF6600
310
FFFF660000009900330099006600990099009900CC009900FF00990000339900333399006633990099339900CC339900FF33990000669900336699006666990099669900CC669900FF66990000999900339999006699990099999900CC999900FF99990000CC990033CC990066CC990099CC9900CCCC9900FFCC990000FF99
310
0033FF990066FF990099FF9900CCFF9900FFFF99000000CC003300CC006600CC009900CC00CC00CC00FF00CC000033CC003333CC006633CC009933CC00CC33CC00FF33CC000066CC003366CC006666CC009966CC00CC66CC00FF66CC000099CC003399CC006699CC009999CC00CC99CC00FF99CC0000CCCC0033CCCC0066CC
310
CC0099CCCC00CCCCCC00FFCCCC0000FFCC0033FFCC0066FFCC0099FFCC00CCFFCC00FFFFCC000000FF003300FF006600FF009900FF00CC00FF00FF00FF000033FF003333FF006633FF009933FF00CC33FF00FF33FF000066FF003366FF006666FF009966FF00CC66FF00FF66FF000099FF003399FF006699FF009999FF00CC
310
99FF00FF99FF0000CCFF0033CCFF0066CCFF0099CCFF00CCCCFF00FFCCFF0000FFFF0033FFFF0066FFFF0099FFFF00CCFFFF00FFFFFF00000000000D0D0D001A1A1A00282828003535350043434300505050005D5D5D006B6B6B00787878008686860093939300A1A1A100AEAEAE00BBBBBB00C9C9C900D6D6D600E4E4E400
310
F1F1F100FFFFFF0000000000000000000000000000000000000000000000000000000000000000000000000000000000E2E2E2E2E2E2E2E2E2E2E2E2E2E2E2E2E2E2E2E2E2E2E2E2E2E2E2E2E2E2E2E2E2E2E2E2E2E2E2E2E2E2E2E2E2E2E2E2E2E2E2E2E2E2E2E2E2E2E2E2E2E2E2E2E2E2E2E2E2E2E2E2E2E2E2E2E2E2E2
310
E2E2E2E2E2E2E2E2E2E2E2E2E2E2E2E2E2E2E2E2E2E2E2E2E2E2E2E2E2E2E2E2E2E2E2E2E2E2E2E2E2E2E2E2E2E2E2E2E2E2E2E2E2E2E2E2E2E2E2E2E2E2E2E2E2E2E2E2E2E2E2E2E2E2E2E2E2E2E2E2E2E2E2E2E2E2E2E2E2E2E2E2E2E2E2E2E2E2E2E2E2E2F5F5F5F5F5F5F5F5F5F5F5F5F5F5F5F5F5F5F5F5F5F5F5F5F5
310
F5F5F5F5F5F5F5F5F5F5F5F5F5F5F5F5F5F5F5F5F5F5F5F5F5F5F5F5F5F5F5F5F5F5F5F5F5F5F5F5F5F5F5F5F5F5F5F5F5F5F5F5F5F5F5F5F5F5F5F5F5F5F5F5F5F5F5F5F5F5F5F5F5F5F5F5F5F5F5F5F5F5F5F5F5F5F5F5F5F5F5F5F5F5F5F5F5F5F5F5F5F5F5F5F5F5F5F5F5F5F5F5F5F5F5F5F5F5F5F5F5F5F5F5F5F5F5
310
F5F5F5F5F5F5F5F5F5F5F5F5F5F5F5F5F5F5F5F5F5F5F5F5F5F5E2E2F5F5F5F5F5F5F5F5F5F5F5F5F5F5F5F5F5F5F5F5F5F5F5F5F5F5F5F5F5F5F5F5F5F5F5F5F5F5F5F5F5F5F5F5F5F5F5F5F5F5F5F5F5F5F5F5F5F5F5F5F5F5F5F5F5F5F5F5F5F5F5F5F5F5F5F5F5F5F5F5F5F5F5F5F5F5F5F5F5F5F5F5F5F5F5F5F5F5F5
310
F5F5F5F5F5F5F5F5F5F5F5F5F5F5F5F5F5F5F5F5F5F5F5F5F5F5F5F5F5F5F5F5F5F5F5F5F5F5F5F5F5F5F5F5F5F5F5F5F5F5F5F5F5F5F5F5F5F5F5F5F5F5F5F5F5F5F5F5F5F5F5F5F5F5F5F5F5F5F5E2E2F5F5F5F5F5F5F5F5F5F5F5F5F5F5F5F5F5F5F5F5F5F5F5F5F5F5F5F5F5F5F5F5F5F5F5F5F5F5F5F5F5F5F5F5F5F5
310
F5F5F5F5F5F5F5F5F5F5F5F5F5F5F5F5F5F5F5F5F5F5F5F5F5F5F5F5F5F5F5F5F5F5F5F5F5F5F5F5F5F5F5F5F5F5F5F5F5F5F5F5F5F5F5F5F5F5F5F5F5F5F5F5F5F5F5F5F5F5F5F5F5F5F5F5F5F5F5F5F5F5F5F5F5F5F5F5F5F5F5F5F5F5F5F5F5F5F5F5F5F5F5F5F5F5F5F5F5F5F5F5F5F5F5F5F5F5F5F5F5F5F5F5F5F5F5
310
F5F5F5F5F5E2E2F5F5F5F5E2E2E2E2E2E2E2E2F5F5F5F5F5F5F5F5F5E2E2E2E2E2E2E2E2E2E2E2E2E2E2E2F5F5F5F5F5F5F5F5F5E2E2E2E2E2E2E2E2E2E2E2E2E2E2E2E2F5F5F5F5F5F5F5F5E2E2E2E2E2E2E2E2E2E2E2E2E2E2E2E2F5F5F5F5F5F5F5F5E2E2E2E2E2E2E2E2E2E2E2E2E2E2E2E2F5F5F5F5F5F5F5F5E2E2E2
310
E2E2E2E2E2E2E2E2E2E2E2E2E2F5F5F5F5F5F5F5F5F5E2E2E2E2E2E2E2E2E2E2E2E2E2E2E2F5F5F5F5F5F5F5F5F5E2E2E2E2E2E2E2E2F5F5F5F5E2E2F5F5F5F5E2F5F5F5F5F5F5F5F5F5F5F5F5F5F5F5F5F5F5F5F5F5F5F5F5F5F5F5F5F5F5F5F5F5F5F5F5F5F5F5F5F5F5F5F5F5F5F5F5F5F5F5F5F5F5F5F5F5F5F5F5F5F5
310
F5F5F5F5F5F5F5F5F5F5F5F5F5F5F5F5F5F5F5F5F5F5F5F5F5F5F5F5F5F5F5F5F5F5F5F5F5F5F5F5F5F5F5F5F5F5F5F5F5F5F5F5F5F5F5F5F5F5F5F5F5F5F5F5F5F5F5F5F5F5F5F5F5F5F5F5F5F5F5F5F5F5F5F5F5F5F5F5F5F5F5F5F5F5F5F5F5F5F5F5F5F5F5F5F5F5E2F5F5F5F5E2E2F5F5F5F5E2F5F5F5F5F5F5F5F5F5
310
F5F5F5F5F5F5F5F5F5F5F5F5F5F5F5F5F5F5F5F5F5F5F5F5F5F5F5F5F5F5F5F5F5F5F5F5F5F5F5F5F5F5F5F5F5F5F5F5F5F5F5F5F5F5F5F5F5F5F5F5F5F5F5F5F5F5F5F5F5F5F5F5F5F5F5F5F5F5F5F5F5F5F5F5F5F5F5F5F5F5F5F5F5F5F5F5F5F5F5F5F5F5F5F5F5F5F5F5F5F5F5F5F5F5F5F5F5F5F5F5F5F5F5F5F5F5F5
310
F5F5F5F5F5F5F5F5F5F5F5F5F5F5F5F5F5F5F5F5F5F5F5F5F5F5F5F5F5F5F5F5E2F5F5F5F5E2E2F5F5F5F5E2F5F5F5F5F5F5F5F5F5F5F5F5F5F5F5F5F5F5F5F5F5F5F5F5F5F5F5F5F5F5F5F5F5F5F5F5F5F5F5F5F5F5F5F5F5F5F5F5F5F5F5F5F5F5F5F5F5F5F5F5F5F5F5F5F5F5F5F5F5F5F5F5F5F5F5F5F5F5F5F5F5F5F5
310
F5F5F5F5F5F5F5F5F5F5F5F5F5F5F5F5F5F5F5F5F5F5F5F5F5F5F5F5F5F5F5F5F5F5F5F5F5F5F5F5F5F5F5F5F5F5F5F5F5F5F5F5F5F5F5F5F5F5F5F5F5F5F5F5F5F5F5F5F5F5F5F5F5F5F5F5F5F5F5F5F5F5F5F5F5E2F5F5F5F5E2E2F5F5F5F5E2F5F5F5F5F5F5F5F5F5F5F5F5F5F5F5F5F5F5F5F5F5F5F5F5F5F5F5F5F5F5
310
F5F5F5F5F5F5F5F5F5F5F5F5F5F5F5F5F5F5F5F5F5F5F5F5F5F5F5F5F5F5F5F5F5F5F5F5F5F5F5F5F5F5F5F5F5F5F5F5F5F5F5F5F5F5F5F5F5F5F5F5F5F5F5F5F5F5F5F5F5F5F5F5F5F5F5F5F5F5F5F5F5F5F5F5F5F5F5F5F5F5F5F5F5F5F5F5F5F5F5F5F5F5F5F5F5F5F5F5F5F5F5F5F5F5F5F5F5F5F5F5F5F5F5F5F5F5F5
310
F5F5F5F5F5F5F5F5F5F5F5E2F5F5F5F5E2E2F5F5F5F5E2F5F5F5F5F5F5F5F5F5F5F5F5F5F5F5F5F5F5F5F5F5F5F5F5F5F5F5F5F5F5F5F5F5F5F5F5F5F5F5F5F5F5F5F5F5F5F5F5F5F5F5F5F5F5F5F5F5F5F5F5F5F5F5F5F5F5F5F5F5F5F5F5F5F5F5F5F5F5F5F5F5F5F5F5F5F5F5F5F5F5F5F5F5F5F5F5F5F5F5F5F5F5F5F5
310
F5F5F5F5F5F5F5F5F5F5F5F5F5F5F5F5F5F5F5F5F5F5F5F5F5F5F5F5F5F5F5F5F5F5F5F5F5F5F5F5F5F5F5F5F5F5F5F5F5F5F5F5F5F5F5F5F5F5F5F5F5F5F5F5E2F5F5F5F5E2E2F5F5F5F5E2F5F5F5F5F5F5F5F5F5F5F5F5F5F5F5F5F5F5F5F5F5F5F5F5F5F5F5F5F5F5F5F5F5F5F5F5F5F5F5F5F5F5F5F5F5F5F5F5F5F5F5
310
F5F5F5F5F5F5F5F5F5F5F5F5F5F5F5F5F5F5F5F5F5F5F5F5F5F5F5F5F5F5F5F5F5F5F5F5F5F5F5F5F5F5F5F5F5F5F5F5F5F5F5F5F5F5F5F5F5F5F5F5F5F5F5F5F5F5F5F5F5F5F5F5F5F5F5F5F5F5F5F5F5F5F5F5F5F5F5F5F5F5F5F5F5F5F5F5F5F5F5F5F5F5F5F5F5F5F5F5F5F5F5F5F5F5F5F5F5E2F5F5F5F5E2E2F5F5F5
310
F5E2F5F5F5F5F5F5F5F5F5F5F5F5F5F5F5F5F5F5F5F5F5F5F5F5F5F5F5F5F5F5F5F5F5F5F5F5F5F5F5F5F5F5F5F5F5F5F5F5F5F5F5F5F5F5F5F5F5F5F5F5F5F5F5F5F5F5F5F5F5F5F5F5F5F5F5F5F5F5F5F5F5F5F5F5F5F5F5F5F5F5F5F5F5F5F5F5F5F5F5F5F5F5F5F5F5F5F5F5F5F5F5F5F5F5F5F5F5F5F5F5F5F5F5F5F5
310
F5F5F5F5F5F5F5F5F5F5F5F5F5F5F5F5F5F5F5F5F5F5F5F5F5F5F5F5F5F5F5F5F5F5F5F5F5F5F5F5F5F5F5E2F5F5F5F5E2E2F5F5F5F5E2F5F5F5F5F5F5F5F5F5F5F5F5F5F5F5F5F5F5F5F5F5F5F5F5F5F5F5F5F5F5F5F5F5F5F5F5F5F5F5F5F5F5F5F5F5F5F5F5F5F5F5F5F5F5F5F5F5F5F5F5F5F5F5F5F5F5F5F5F5F5F5F5
310
F5F5F5F5F5F5F5F5F5F5F5F5F5F5F5F5F5F5F5F5F5F5F5F5F5F5F5F5F5F5F5F5F5F5F5F5F5F5F5F5F5F5F5F5F5F5F5F5F5F5F5F5F5F5F5F5F5F5F5F5F5F5F5F5F5F5F5F5F5F5F5F5F5F5F5F5F5F5F5F5F5F5F5F5F5F5F5F5F5F5F5F5F5F5F5F5E2F5F5F5F5E2E2F5F5F5F5F5F5F5F5F5F5F5F5F5F5F5F5F5F5F5F5F5F5F5F5
310
F5F5F5F5F5F5F5F5F5F5F5F5F5F5F5F5F5F5F5F5F5F5F5F5F5F5F5F5F5F5F5F5F5F5F5F5F5F5F5F5F5F5F5F5F5F5F5F5F5F5F5F5F5F5F5F5F5F5F5F5F5F5F5F5F5F5F5F5F5F5F5F5F5F5F5F5F5F5F5F5F5F5F5F5F5F5F5F5F5F5F5F5F5F5F5F5F5F5F5F5F5F5F5F5F5F5F5F5F5F5F5F5F5F5F5F5F5F5F5F5F5F5F5F5F5F5F5
310
F5F5F5F5F5F5F5F5F5F5F5F5F5F5F5F5F5F5F5F5F5F5F5F5F5F5F5E2E2F5F5F5F5F5F5F5F5F5F5F5F5F5F5F5F5F5F5F5F5F5F5F5F5F5F5F5F5F5F5F5F5F5F5F5F5F5F5F5F5F5F5F5F5F5F5F5F5F5F5F5F5F5F5F5F5F5F5F5F5F5F5F5F5F5F5F5F5F5F5F5F5F5F5F5F5F5F5F5F5F5F5F5F5F5F5F5F5F5F5F5F5F5F5F5F5F5F5
310
F5F5F5F5F5F5F5F5F5F5F5F5F5F5F5F5F5F5F5F5F5F5F5F5F5F5F5F5F5F5F5F5F5F5F5F5F5F5F5F5F5F5F5F5F5F5F5F5F5F5F5F5F5F5F5F5F5F5F5F5F5F5F5F5F5F5F5F5F5F5F5F5F5F5F5F5F5F5F5F5E2E2F5F5F5F5F5F5F5F5F5F5F5F5F5F5F5F5F5F5F5F5F5F5F5F5F5F5F5F5F5F5F5F5F5F5F5F5F5F5F5F5F5F5F5F5F5
310
F5F5F5F5F5F5F5F5F5F5F5F5F5F5F5F5F5F5F5F5F5F5F5F5F5F5F5F5F5F5F5F5F5F5F5F5F5F5F5F5F5F5F5F5F5F5F5F5F5F5F5F5F5F5F5F5F5F5F5F5F5F5F5F5F5F5F5F5F5F5F5F5F5F5F5F5F5F5F5F5F5F5F5F5F5F5F5F5F5F5F5F5F5F5F5F5F5F5F5F5F5F5F5F5F5F5F5F5F5F5F5F5F5F5F5F5F5F5F5F5F5F5F5F5F5F5F5
310
F5F5F5F5F5F5E2E2F5F5F5F5F5F5F5F5F5F5F5F5F5F5F5F5F5F5F5F5F5F5F5F5F5F5F5F5F5F5F5F5F5F5F5F5F5F5F5F5F5F5F5F5F5F5F5F5F5F5F5F5F5F5F5F5F5F5F5F5F5F5F5F5F5F5F5F5F5F5F5F5F5F5F5F5F5F5F5F5F5F5F5F5F5F5F5F5F5F5F5F5F5F5F5F5F5F5F5F5F5F5F5F5F5F5F5F5F5F5F5F5F5F5F5F5F5F5F5
310
F5F5F5F5F5F5F5F5F5F5F5F5F5F5F5F5F5F5F5F5F5F5F5F5F5F5F5F5F5F5F5F5F5F5F5F5F5F5F5F5F5F5F5F5F5F5F5F5F5F5F5F5F5F5F5F5F5F5F5E2E2F5F5F5F5F5F5F5F5F5F5F5F5F5F5F5F5F5F5F5F5F5E2E2E2E2E2E2E2E2E2E2E2E2E2E2E2E2E2E2E2E2E2E2E2E2E2E2E2E2E2E2E2E2E2E2E2E2E2E2E2E2E2E2E2E2E2
310
E2E2E2E2E2E2E2E2E2E2E2E2E2E2E2E2E2E2E2E2E2E2E2E2E2E2E2E2E2E2E2E2E2E2E2E2E2E2E2E2E2E2E2E2E2E2E2E2E2E2E2E2E2E2E2E2E2E2E2E2E2E2E2E2E2E2E2E2E2E2E2E2E2E2E2E2E2E2E2E2E2E2E2E2E2E2E2E2E2E2E2F5F5F5F5F5F5F5F5F5F5F5F5F5F5F5F5F5F5F5F5F5E2E2F5F5F5F5F5F5F5F5F5F5F5F5F5
310
F5F5F5F5F5F5F5F5E22D2D2D2D2D2D2D2D2D2D2D2DF5F5F5F5F5F5F5F5F5F5F5F5F5F5F5E2F5F5F5F5F5F5F5F5F5F5F5F5F5F5F5F5F5F5F5F5F5F5F5F5F5F5F5F5F5F5F5F5F5F5F5F5F5F5F5F5F5F5F5F5F5F5F5F5F5F5F5F5F5F5F5F5F5F5F5F5F5F5F5F5F5F5F5F5F5F5F5F5F5F5F5F5F5F5F5F5F5F5F5F5F5F5F5F5F5F5
310
F5F5F5F5F5F5F5F5F5F5F5F5F5F5F5F5E2F5F5F5F5F5F5F5F5F5F5F5F5F5F5F5F5F5F5F5F5F5E2E2F5F5F5F5F5F5F5F5F5F5F5F5F5F5F5F5F5F5F5F5F5E22D2D2DF5F5E2F5F5F5F5F52DF5F5F5F5F5F5F5F5F5F5F5F5F5F5F5E2F5F5F5F5F5F5F5F5F5F5F5F5F5F5F5F5F5F5F5F5F5F5F5F5F5F5F5F5F5F5F5F5F5F5F5F5F5
310
F5F5F5F5F5F5F5F5F5F5F5F5F5F5F5F5F5F5F5F5F5F5F5F5F5F5F5F5F5F5F5F5F5F5F5F5F5F5F5F5F5F5F5F5F5F5F5F5F5F5F5F5F5F5F5F5F5F5F5F5F5F5F5F5F5F5F5F5F5E2F5F5F5F5F5F5F5F5F5F5F5F5F5F5F5F5F5F5F5F5F5E2E2F5F5F5F5F5F5F5F5F5F5F5F5F5F5F5F5F5F5F5F5F5E2DCF52DF5F5E2F5F5F5F5F52D
310
F5F5F5F5F5F5F5F5F5F5F5F5F5F5F5E2F5F5F5F5F5F5F5F5F5F5F5F5F5F5F5F5F5F5F5F5F5F5F5F5F5F5F5F5F5F5F5F5F5F5F5F5F5F5F5F5F5F5F5F5F5F5F5F5F5F5F5F5F5F5F5F5F5F5F5F5F5F5F5F5F5F5F5F5F5F5F5F5F5F5F5F5F5F5F5F5F5F5F5F5F5F5F5F5F5F5F5F5F5F5F5F5F5F5F5F5F5F5F5F5F5F5E2F5F5F5F5
310
F5F5F5F5F5F5F5F5F5F5F5F5F5F5F5F5F5E2E2F5F5F5F5F5F5F5F5F5F5F5F5F5F5F5F5F5F5F5F5F5E2BEF52D2D2D2D2D2D2D2DE2E2E2E2E2E2E2E2E2E2E2E2E2E2E2E2E2E2F5F5F5F5F5F5F5F5F5F5F5F5F5F5F5F5F5F5F5F5F5F5F5F5F5F5F5F5F5F5F5F5F5F5F5F5F5F5F5F5F5F5F5F5F5F5F5F5F5F5F5F5F5F5F5F5F5F5
310
F5F5F5F5F5F5F5F5F5F5F5F5F5F5F5F5F5F5F5F5F5F5F5F5F5F5F5F5F5F5F5F5F5F5F5F5F5F5F5F5F5F5F5F5F5F5F5F5E2F5F5F5F5F5F5F5F5F5F5F5F5F5F5F5F5F5F5F5F5F5E2E2F5F5F5F5E2F5F5F5F5F5F5F5F5F5F5F5F5F5F5F5F5E2DCF5F5F5F5E2F5F5F5F5F5E2F5F5F5F5F5F5F5F5F5F5F5F5F5F5F5F5F5F5F5F5F5
310
F5F5F5F5F5F5F5F5F5F5F5F5F5F5F5F5F5F5F5F5F5F5F5F5F5F5F5F5F5F5F5F5F5F5F5F5F5F5F5F5F5F5F5F5F5F5F5F5F5F5F5F5F5F5F5F5F5F5F5F5F5F5F5F5F5F5F5F5F5F5F5F5F5F5F5F5F5F5F5F5F5F5F5F5F5F5F5F5F5F5F5F5F5F5F5F5F5F5F5F5F5E2F5F5F5F5F5F5F5F5F5F5F5F5F5F5F5F5E2F5F5F5F5E2E2F5F5
310
F5F5E2F5F5F5F5F5F5F5F5F5F5F5F5F5F5F5F5E2F5F5F5F5F5E2F5F5F5F5F5E2F5F5F5F5F5F5F5F5F5F5F5F5F5F5F5F5F5F5F5F5F5F5F5F5F5F5F5F5F5F5F5F5F5F5F5F5F5F5F5F5F5F5F5F5F5F5F5F5F5F5F5F5F5F5F5F5F5F5F5F5F5F5F5F5F5F5F5F5F5F5F5F5F5F5F5F5F5F5F5F5F5F5F5F5F5F5F5F5F5F5F5F5F5F5F5
310
F5F5F5F5F5F5F5F5F5F5F5F5F5F5F5F5F5F5F5F5F5F5F5F5F5F5F5E2F5F5F5F5F5F5F5F5F5F5F5F5F5F5F5F5E2F5F5F5F5E2E2F5F5F5F5E2F5F5F5F5F5F5F5F5F5F5F5F5F5F5F5F5E2F5F5F5F5F5E2F5F5F5F5F5E2F5F5F5F5F5F5F5F5F5F5F5F5F5F5F5F5F5F5F5F5F5F5F5F5F5F5F5F5F5F5F5F5F5F5F5F5F5F5F5F5F5F5
310
F5F5F5F5F5F5F5F5F5F5F5F5F5F5F5F5F5F5F5F5F5F5F5F5F5F5F5F5F5F5F5F5F5F5F5F5F5F5F5F5F5F5F5F5F5F5F5F5F5F5F5F5F5F5F5F5F5F5F5F5F5F5F5F5F5F5F5F5F5F5F5F5F5F5F5F5F5F5F5F5E2F5F5F5F5F5F5F5F5F5F5F5F5F5F5F5F5E2F5F5F5F5E2E2F5F5F5F5E2F5F5F5F5F5F5F5F5F5F5F5F5F5F5F5F5E2F5
310
F5F5F5F5E2F5F5F5F5F5E2F5F5F5F5F5F5F5F5F5F5F5F5F5F5F5F5F5F5F5F5F5F5F5F5F5F5F5F5F5F5F5F5F5F5F5F5F5F5F5F5F5F5F5F5F5F5F5F5F5F5F5F5F5F5F5F5F5F5F5F5F5F5F5F5F5F5F5F5F5F5F5F5F5F5F5F5F5F5F5F5F5F5F5F5F5F5F5F5F5F5F5F5F5F5F5F5F5F5F5F5F5F5F5F5F5F5F5F5F5F5F5F5F5F5F5F5
310
F5F5F5F5F5F5E2F5F5F5F5F5F5F5F5F5F5F5F5F5F5F5F5E2F5F5F5F5E2E2F5F5F5F5E2F5F5F5F5F5F5F5F5F5F5F5F5F5F5F5F5E2E2E2E2E2E2E2F5F5F5F5F5E2F5F5F5F5F5F5F5F5F5F5F5F5F5F5F5F5F5F5F5F5F5F5F5F5F5F5F5F5F5F5F5F5F5F5F5F5F5F5F5F5F5F5F5F5F5F5F5F5F5F5F5F5F5F5F5F5F5F5F5F5F5F5F5
310
F5F5F5F5F5F5F5F5F5F5F5F5F5F5F5F5F5F5F5F5F5F5F5F5F5F5F5F5F5F5F5F5F5F5F5F5F5F5F5F5F5F5F5F5F5F5F5F5F5F5F5F5F5F5F5F5F5F5F5E2F5F5F5F5F5F5F5F5F5F5F5F5F5F5F5F5E2F5F5F5F5E2E2F5F5F5F5E2F5F5F5F5F5F5F5F5F5F5F5F5F5F5F5F5E2E2E2E2F5E2E2F5F5F5F5F5E2F5F5F5F5F5F5F5F5F5F5
310
F5F5F5F5F5F5F5F5F5F5F5F5F5F5F5F5F5F5F5F5F5F5F5F5F5F5F5F5F5F5F5F5F5F5F5F5F5F5F5F5F5F5F5F5F5F5F5F5F5F5F5F5F5F5F5F5F5F5F5F5F5F5F5F5F5F5F5F5F5F5F5F5F5F5F5F5F5F5F5F5F5F5F5F5F5F5F5F5F5F5F5F5F5F5F5F5F5F5F5F5F5F5F5F5F5F5F5F5F5F5F5F5E2F5F5F5F5F5F5F5F5F5F5F5F5F5F5
310
F5F5E2F5F5F5F5E2E2F5F5F5F5E2F5F5F5F5F5F5F5F5F5F5F5F5F5F5F5F5E2E2E2E2F5F5F5F5F5F5F5F5E2F5F5F5F5F5F5F5F5F5F5F5F5F5F5F5F5F5F5F5F5F5F5F5F5F5F5F5F5F5F5F5F5F5F5F5F5F5F5F5F5F5F5F5F5F5F5F5F5F5F5F5F5F5F5F5F5F5F5F5F5F5F5F5F5F5F5F5F5F5F5F5F5F5F5F5F5F5F5F5F5F5F5F5F5
310
F5F5F5F5F5F5F5F5F5F5F5F5F5F5F5F5F5F5F5F5F5F5F5F5F5F5F5F5F5F5F5F5F5F5F5F5F5F5E2F5F5F5F5F5F5F5F5F5F5F5F5F5F5F5F5E2F5F5F5F5E2E2F5F5F5F5E2F5F5F5F5F5F5F5F5F5F5F5F5F5F5F5F5E2F5F5F5F5F5F5F5F5F5F5F5E2F5F5F5F5F5F5F5F5F5F5F5F5F5F5F5F5F5F5F5F5F5F5F5F5F5F5F5F5F5F5F5
310
F5F5F5F5F5F5F5F5F5F5F5F5F5F5F5F5F5F5F5F5F5F5F5F5F5F5F5F5F5F5F5F5F5F5F5F5F5F5F5F5F5F5F5F5F5F5F5F5F5F5F5F5F5F5F5F5F5F5F5F5F5F5F5F5F5F5F5F5F5F5F5F5F5F5F5F5F5F5F5F5F5F5F5F5F5F5F5F5F5F5F5E2F5F5F5F5F5F5F5F5F5F5F5F5F5F5F5F5E2F5F5F5F5E2E2F5F5F5F5E2F5F5F5F5F5F5F5
310
F5F5F5F5F5F5F5F5F5E2E2E2E2E2E2E2E2E2E2E2E2E2F5F5F5F5F5F5F5F5F5F5F5F5F5F5F5F5F5F5F5F5F5F5F5F5F5F5F5F5F5F5F5F5F5F5F5F5F5F5F5F5F5F5F5F5F5F5F5F5F5F5F5F5F5F5F5F5F5F5F5F5F5F5F5F5F5F5F5F5F5F5F5F5F5F5F5F5F5F5F5F5F5F5F5F5F5F5F5F5F5F5F5F5F5F5F5F5F5F5F5F5F5F5F5F5F5
310
F5F5F5F5F5F5F5F5F5F5F5F5F5F5F5F5F5E2F5F5F5F5F5F5F5F5F5F5F5F5F5F5F5F5E2F5F5F5F5E2E2F5F5F5F5E2F5F5F5F5F5F5F5F5F5F5F5F5F5F5F5F5E2E2E2F5F5F5F5F5F5F5F5F5F5F5F5F5F5F5F5F5F5F5F5F5F5F5F5F5F5F5F5F5F5F5F5F5F5F5F5F5F5F5F5F5F5F5F5F5F5F5F5F5F5F5F5F5F5F5F5F5F5F5F5F5F5
310
F5F5F5F5F5F5F5F5F5F5F5F5F5F5F5F5F5F5F5F5F5F5F5F5F5F5F5F5F5F5F5F5F5F5F5F5F5F5F5F5F5F5F5F5F5F5F5F5F5F5F5F5F5F5F5F5F5F5F5F5F5F5F5F5F5F5F5F5F5F5E2F5F5F5F5F5F5F5F5F5F5F5F5F5F5F5F5E2F5F5F5F5E2E2F5F5F5F5E2F5F5F5F5F5F5F5F5F5F5F5F5F5F5F5F5E2E2E2F5F5F5F5F5F5F5F5F5
310
F5F5F5F5F5F5F5F5F5F5F5F5F5F5F5F5F5F5F5F5F5F5F5F5F5F5F5F5F5F5F5F5F5F5F5F5F5F5F5F5F5F5F5F5F5F5F5F5F5F5F5F5F5F5F5F5F5F5F5F5F5F5F5F5F5F5F5F5F5F5F5F5F5F5F5F5F5F5F5F5F5F5F5F5F5F5F5F5F5F5F5F5F5F5F5F5F5F5F5F5F5F5F5F5F5F5F5F5F5F5F5F5F5F5F5F5F5F5F5F5F5F5F5E2F5F5F5
310
F5F5F5F5F5F5F5F5F5F5F5F5F5E2F5F5F5F5E2E2F5F5F5F5E2F5F5F5F5F5F5F5F5F5F5F5F5F5F5F5F5E2F5F5F5F5F5F5F5F5F5F5F5F5F5F5F5F5F5F5F5F5F5F5F5F5F5F5F5F5F5F5F5F5F5F5F5F5F5F5F5F5F5F5F5F5F5F5F5F5F5F5F5F5F5F5F5F5F5F5F5F5F5F5F5F5F5F5F5F5F5F5F5F5F5F5F5F5F5F5F5F5F5F5F5F5F5
310
F5F5F5F5F5F5F5F5F5F5F5F5F5F5F5F5F5F5F5F5F5F5F5F5F5F5F5F5F5F5F5F5F5F5F5F5F5F5F5F5F5F5F5F5F5F5F5F5F5E2F5F5F5F5F5F5F5F5F5F5F5F5F5F5F5F5E2F5F5F5F5E2E2F5F5F5F5E2F5F5F5F5F5F5F5F5F5F5F5F5F5F5F5F5E2F5F5F5F5F5F5F5F5F5F5F5F5F5F5F5F5F5F5F5F5F5F5F5F5F5F5F5F5F5F5F5F5
310
F5F5F5F5F5F5F5F5F5F5F5F5F5F5F5F5F5F5F5F5F5F5F5F5F5F5F5F5F5F5F5F5F5F5F5F5F5F5F5F5F5F5F5F5F5F5F5F5F5F5F5F5F5F5F5F5F5F5F5F5F5F5F5F5F5F5F5F5F5F5F5F5F5F5F5F5F5F5F5F5F5F5F5F5F5F5F5F5F5F5F5F5F5F5F5F5F5F5F5F5F5F5E2F5F5F5F5F5F5F5F5F5F5F5F5F5F5F5F5E2F5F5F5F5E2E2F5
310
F5F5F5E2F5F5F5F5F5F5F5F5F5F5F5F5F5F5F5F5E20F0F0F0F0F0F0F0F0F0F0FF5F5F5F5F5F5F5F5F5F5F5F5F5F5F5F5F5F5F5F5F5F5F5F5F5F5F5F5F5F5F5F5F5F5F5F5F5F5F5F5F5F5F5F5F5F5F5F5F5F5F5F5F5F5F5F5F5F5F5F5F5F5F5F5F5F5F5F5F5F5F5F5F5F5F5F5F5F5F5F5F5F5F5F5F5F5F5F5F5F5F5F5F5F5F5
310
F5F5F5F5F5F5F5F5F5F5F5F5F5F5F5F5F5F5F5F5F5F5F5F5F5F5F5F5E2F5F5F5F5F5F5F5F5F5F5F5F5F5F5F5F5E2F5F5F5F5E2E2F5F5F5F5E2F5F5F5F5F5F5F5F5F5F5F5F5F5F5F5F5E20F0F0F0F0F0F0F0F0F0F0FF5F5F5F5F5F5F5F5F5F5F5F5F5F5F5F5F5F5F5F5F5F5F5F5F5F5F5F5F5F5F5F5F5F5F5F5F5F5F5F5F5F5
310
F5F5F5F5F5F5F5F5F5F5F5F5F5F5F5F5F5F5F5F5F5F5F5F5F5F5F5F5F5F5F5F5F5F5F5F5F5F5F5F5F5F5F5F5F5F5F5F5F5F5F5F5F5F5F5F5F5F5F5F5F5F5F5F5F5F5F5F5F5F5F5F5F5F5F5F5F5F5F5F5F5E2F5F5F5F5F5F5F5F5F5F5F5F5F5F5F5F5E2F5F5F5F5E2E2F5F5F5F5E2F5F5F5F5F5F5F5F5F5F5F5F5F5F5F5F5E2
310
0F0F0F0F0F0F0F0F0F0FF5F5F5F5F5F5F5F5F5F5F5F5F5F5F5F5F5F5F5F5F5F5F5F5F5F5F5F5F5F5F5F5F5F5F5F5F5F5F5F5F5F5F5F5F5F5F5F5F5F5F5F5F5F5F5F5F5F5F5F5F5F5F5F5F5F5F5F5F5F5F5F5F5F5F5F5F5F5F5F5F5F5F5F5F5F5F5F5F5F5F5F5F5F5F5F5F5F5F5F5F5F5F5F5F5F5F5F5F5F5F5F5F5F5F5F5F5
310
F5F5F5F5F5F5F5E2F5F5F5F5F5F5F5F5F5F5F5F5F5F5F5F5E2F5F5F5F5E2E2F5F5F5F5E2F5F5F5F5F5F5F5F5F5F5F5F5F5F5F5F5E2F5F5F5F5F5F5F5F5F5F5F5F5F5F5F5F5F5F5F5F5F5F5F5F5F5F5F5F5F5F5F5F5F5F5F5F5F5F5F5F5F5F5F5F5F5F5F5F5F5F5F5F5F5F5F5F5F5F5F5F5F5F5F5F5F5F5F5F5F5F5F5F5F5F5
310
F5F5F5F5F5F5F5F5F5F5F5F5F5F5F5F5F5F5F5F5F5F5F5F5F5F5F5F5F5F5F5F5F5F5F5F5F5F5F5F5F5F5F5F5F5F5F5F5F5F5F5F5F5F5F5F5F5F5F5F5E2F5F5F5F5F5F5F5F5F5F5F5F5F5F5F5F5E2F5F5F5F5E2E2F5F5F5F5F5F5F5F5F5F5F5F5F5F5F5F5F5F5F5F5F5E2F5F5F5F5F5F5F5F5F5F5F5F5F5F5F5F5F5F5F5F5F5
310
F5F5F5F5F5F5F5F5F5F5F5F5F5F5F5F5F5F5F5F5F5F5F5F5F5F5F5F5F5F5F5F5F5F5F5F5F5F5F5F5F5F5F5F5F5F5F5F5F5F5F5F5F5F5F5F5F5F5F5F5F5F5F5F5F5F5F5F5F5F5F5F5F5F5F5F5F5F5F5F5F5F5F5F5F5F5F5F5F5F5F5F5F5F5F5F5F5F5F5F5F5F5F5F5F5F5F5F5F5F5F5F5F5E2F5F5F5F5F5F5F5F5F5F5F5F5F5
310
F5F5F5F5F5F5F5F5E2E2F5F5F5F5F5F5F5F5F5F5F5F5F5F5F5F5F5F5F5F5F5E2F5F5F5F5F5F5F5F5F5F5F5F5F5F5F5F5F5F5F5F5F5F5F5F5F5F5F5F5F5F5F5F5F5F5F5F5F5F5F5F5F5F5F5F5F5F5F5F5F5F5F5F5F5F5F5F5F5F5F5F5F5F5F5F5F5F5F5F5F5F5F5F5F5F5F5F5F5F5F5F5F5F5F5F5F5F5F5F5F5F5F5F5F5F5F5
310
F5F5F5F5F5F5F5F5F5F5F5F5F5F5F5F5F5F5F5F5F5F5F5F5F5F5F5F5F5F5F5F5F5F5F5F5F5F5F5E2F5F5F5F5F5F5F5F5F5F5F5F5F5F5F5F5F5F5F5F5F5E2E2F5F5F5F5F5F5F5F5F5F5F5F5F5F5F5F5F5F5F5F5F5E2F5F5F5F5F5F5F5F5F5F5F5F5F5F5F5F5F5F5F5F5F5F5F5F5F5F5F5F5F5F5F5F5F5F5F5F5F5F5F5F5F5F5
310
F5F5F5F5F5F5F5F5F5F5F5F5F5F5F5F5F5F5F5F5F5F5F5F5F5F5F5F5F5F5F5F5F5F5F5F5F5F5F5F5F5F5F5F5F5F5F5F5F5F5F5F5F5F5F5F5F5F5F5F5F5F5F5F5F5F5F5F5F5F5F5F5F5F5F5F5F5F5F5F5F5F5F5F5F5F5F5F5F5F5F5F5E2F5F5F5F5F5F5F5F5F5F5F5F5F5F5F5F5F5F5F5F5F5E2E2F5F5F5F5F5F5F5F5F5F5F5
310
F5F5F5F5F5F5F5F5F5F5E2F5F5F5F5F5F5F5F5F5F5F5F5F5F5F5F5F5F5F5F5F5F5F5F5F5F5F5F5F5F5F5F5F5F5F5F5F5F5F5F5F5F5F5F5F5F5F5F5F5F5F5F5F5F5F5F5F5F5F5F5F5F5F5F5F5F5F5F5F5F5F5F5F5F5F5F5F5F5F5F5F5F5F5F5F5F5F5F5F5F5F5F5F5F5F5F5F5F5F5F5F5F5F5F5F5F5F5F5F5F5F5F5F5F5F5F5
310
F5F5F5F5F5F5F5F5F5F5F5F5F5F5F5F5F5F5E2F5F5F5F5F5F5F5F5F5F5F5F5F5F5F5F5F5F5F5F5F5E2E2F5F5F5F5F5F5F5F5F5F5F5F5F5F5F5F5F5F5F5F5F5E2F5F5F5F5F5F5F5F5F5F5F5F5F5F5F5F5F5F5F5F5F5F5F5F5F5F5F5F5F5F5F5F5F5F5F5F5F5F5F5F5F5F5F5F5F5F5F5F5F5F5F5F5F5F5F5F5F5F5F5F5F5F5F5
310
F5F5F5F5F5F5F5F5F5F5F5F5F5F5F5F5F5F5F5F5F5F5F5F5F5F5F5F5F5F5F5F5F5F5F5F5F5F5F5F5F5F5F5F5F5F5F5F5F5F5F5F5F5F5F5F5F5F5F5F5F5F5F5F5F5F5F5F5F5F5F5E2F5F5F5F5F5F5F5F5F5F5F5F5F5F5F5F5F5F5F5F5F5E2E2F5F5F5F5F5F5F5F5F5F5F5F5F5F5F5F5F5F5F5F5F5E2F5F5F5F5F5F5F5F5F5F5
310
F5F5F5F5F5F5F5F5F5F5F5F5F5F5F5F5F5F5F5F5F5F5F5F5F5F5F5F5F5F5F5F5F5F5F5F5F5F5F5F5F5F5F5F5F5F5F5F5F5F5F5F5F5F5F5F5F5F5F5F5F5F5F5F5F5F5F5F5F5F5F5F5F5F5F5F5F5F5F5F5F5F5F5F5F5F5F5F5F5F5F5F5F5F5F5F5F5F5F5F5F5F5F5F5F5F5F5F5F5F5F5F5F5F5F5F5F5F5F5F5F5F5F5F5E2F5F5
310
F5F5F5F5F5F5F5F5F5F5F5F5F5F5F5F5F5F5F5E2E2F5F5F5F5F5F5F5F5F5F5F5F5F5F5F5F5F5F5F5F5F5E2F5F5F5F5F5F5F5F5F5F5F5F5F5F5F5F5F5F5F5F5F5F5F5F5F5F5F5F5F5F5F5F5F5F5F5F5F5F5F5F5F5F5F5F5F5F5F5F5F5F5F5F5F5F5F5F5F5F5F5F5F5F5F5F5F5F5F5F5F5F5F5F5F5F5F5F5F5F5F5F5F5F5F5F5
310
F5F5F5F5F5F5F5F5F5F5F5F5F5F5F5F5F5F5F5F5F5F5F5F5F5F5F5F5F5F5F5F5F5F5F5F5F5F5F5F5F5F5F5F5F5F5F5F5F5F5E2F5F5F5F5F5F5F5F5F5F5F5F5F5F5F5F5F5F5F5F5F5E2E2F5F5F5F5F5F5F5F5F5F5F5F5F5F5F5F5F5F5F5F5F5E2F5F5F5F5F5F5F5F5F5F5F5F5F5F5F5F5F5F5F5F5F5F5F5F5F5F5F5F5F5F5F5
310
F5F5F5F5F5F5F5F5F5F5F5F5F5F5F5F5F5F5F5F5F5F5F5F5F5F5F5F5F5F5F5F5F5F5F5F5F5F5F5F5F5F5F5F5F5F5F5F5F5F5F5F5F5F5F5F5F5F5F5F5F5F5F5F5F5F5F5F5F5F5F5F5F5F5F5F5F5F5F5F5F5F5F5F5F5F5F5F5F5F5F5F5F5F5F5F5F5F5F5F5F5F5F5E2F5F5F5F5F5F5F5F5F5F5F5F5F5F5F5F5F5F5F5F5F5E2E2
310
F5F5F5F5F5F5F5F5F5F5F5F5F5F5F5F5F5F5F5F5F5E2F5F5F5F5F5F5F5F5F5F5F5F5F5F5F5F5F5F5F5F5F5F5F5F5F5F5F5F5F5F5F5F5F5F5F5F5F5F5F5F5F5F5F5F5F5F5F5F5F5F5F5F5F5F5F5F5F5F5F5F5F5F5F5F5F5F5F5F5F5F5F5F5F5F5F5F5F5F5F5F5F5F5F5F5F5F5F5F5F5F5F5F5F5F5F5F5F5F5F5F5F5F5F5F5F5
310
F5F5F5F5F5F5F5F5F5F5F5F5F5F5F5F5F5F5F5F5F5F5F5F5F5F5F5F5F5E2F5F5F5F5F5F5F5F5F5F5F5F5F5F5F5F5F5F5F5F5F5E2E2F5F5F5F5E2F5F5F5F5F5F5F5F5F5F5F5F5F5F5F5F5E2F5F5F5F5F5F5F5F5F5F5F5F5F5F5F5F5F5F5F5F5F5F5F5F5F5F5F5F5F5F5F5F5F5F5F5F5F5F5F5F5F5F5F5F5F5F5F5F5F5F5F5F5
310
F5F5F5F5F5F5F5F5F5F5F5F5F5F5F5F5F5F5F5F5F5F5F5F5F5F5F5F5F5F5F5F5F5F5F5F5F5F5F5F5F5F5F5F5F5F5F5F5F5E2F0E2E2F5F5F5F5F5F5E2F0E2E2F5DCF5F5F5F5F5F5F0F0E2F5F5F5F5F5F5F5F5E2F5F5F5F5F5F5F5F5F5F5F5F5F5F5F5F5E2F5F5F5F5E2E2F5F5F5F5E2F5F5F5F5F5F5F5F5F5F5F5F5F5F5F5F5
310
E2F5F5F5F5F5F5F5F5F5F5F5F5F5F5F5F5F5F5F5F5F5F5F5F5F5F5F5F5F5F5F5F5F5F5F5F5F5F5F5F5F5F5F5F5F5F5F5F5F5F5F5F5F5F5F5F5F5F5F5F5F5F5F5F5F5F5F5F5F5F5F5F5F5F5F5F5F5F5F5F5F5F5F5F5F5F5F5F5F5F5F5F5F5F5F5F5F5F5F5F5E2DCDCF0F5E2F5F5F5F5F5E2F5F0E2E2DCF5F5F5F5F5E2F0F0F5
310
E2F5F5F5E2E2E2F5E2F5F5F5F5F5F5F5F5F5F5F5F5F5F5F5F5E2F5F5F5F5E2E2F5F5F5F5E2F5F5F5F5F5F5F5F5F5F5F5F5F5F5F5F5E2F5F5F5F5F5F5F5F5F5F5F5F5F5F5F5F5F5F5F5F5F5F5F5F5F5F5F5F5F5F5F5F5F5F5F5F5F5F5F5F5F5F5F5F5F5F5F5F5F5F5F5F5F5F5F5F5F5F5F5F5F5F5F5F5F5F5F5F5F5F5F5F5F5
310
F5F5F5F5F5F5F5F5F5F5F5F5F5F5F5F5F5F5F5F5F5F5F5F5F5F5E2F0DCF0DCE2E2E2F5F5F5E2E2F0F0F0E2DCF5F5F5F5E2F0F0F0E2E2F0E2E2E2E2E2E2E2F5F5F5F5F5F5F5F5F5F5F5F5F5F5F5F5E2F5F5F5F5E2E2F5F5F5F5E2F5F5F5F5F5F5F5F5F5F5F5F5F5F5F5F5E2F5F5F5F5F5F5F5F5F5F5F5F5F5F5F5F5F5F5F5F5
310
F5F5F5F5F5F5F5F5F5F5F5F5F5F5F5F5F5F5F5F5F5F5F5F5F5F5F5F5F5F5F5F5F5F5F5F5F5F5F5F5F5F5F5F5F5F5F5F5F5F5F5F5F5F5F5F5F5F5F5F5F5F5F5F5F5F5F5F5F5F5F5F5F5F5F5F5F5F5F5E2F0DCF0DCF0F0E2F5F5F5E2F0DCE2E2E2DCF5F5F5F5F0F0F0F0E2E2F0E2F5E2E2E2E2E2F5F5F5F5F5F5F5F5F5F5F5F5
310
F5F5F5F5E2F5F5F5F5E2E2F5F5F5F5E2F5F5F5F5F5F5F5F5F5F5F5F5F5F5F5F5E2F5F5F5F5F5F5F5F5F5F5F5F5F5F5F5F5F5F5F5F5F5F5F5F5F5F5F5F5F5F5F5F5F5F5F5F5F5F5F5F5F5F5F5F5F5F5F5F5F5F5F5F5F5F5F5F5F5F5F5F5F5F5F5F5F5F5F5F5F5F5F5F5F5F5F5F5F5F5F5F5F5F5F5F5F5F5F5F5F5F5F5F5F5F5
310
F5F5F5F5F5F5E2DCDCDCF0E2F5F5F5F5F5F0DCDCE2E2DCF5F5F5F5F5F0F0F0DCE2F0F5E2E2E2E2F5E2F5F5F5F5F5F5F5F5F5F5F5F5F5F5F5F5E2F5F5F5F5E2E2F5F5F5F5E2F5F5F5F5F5F5F5F5F5F5F5F5F5F5F5F5E2F5F5F5F5F5F5F5F5F5F5F5F5F5F5F5F5F5F5F5F5F5F5F5F5F5F5F5F5F5F5F5F5F5F5F5F5F5F5F5F5F5
310
F5F5F5F5F5F5F5F5F5F5F5F5F5F5F5F5F5F5F5F5F5F5F5F5F5F5F5F5F5F5F5F5F5F5F5F5F5F5F5F5F5F5F5F5F5F5F5F5F5F5F5F5F5F5F5F5F5F5F5E2F0F0F0E2F5F5F5F5F5E2F0E2E2E2E2DCF5F5F5F5F5F0F0E2E2F5F5F5F5E2E2E2F5E2F5F5F5F5F5F5F5F5F5F5F5F5F5F5F5F5E2F5F5F5F5E2E2F5F5F5F5E2F5F5F5F5F5
310
F5F5F5F5F5F5F5F5F5F5F5E2F5F5F5F5F5F5F5F5F5F5F5F5F5F5F5F5F5F5F5F5F5F5F5F5F5F5F5F5F5F5F5F5F5F5F5F5F5F5F5F5F5F5F5F5F5F5F5F5F5F5F5F5F5F5F5F5F5F5F5F5F5F5F5F5F5F5F5F5F5F5F5F5F5F5F5F5F5F5F5F5F5F5F5F5F5F5F5F5F5F5F5F5F5F5F5F5F5F5F5F5F5F5E2E2F5F5F5F5F5F5F5F5E2E2F5
310
F5DCF5F5F5F5F5F5F5F0E2F5F5F5F5F5E2F5F5E2F5F5F5F5F5F5F5F5F5F5F5F5F5F5F5F5E2F5F5F5F5E2E2F5F5F5F5E2F5F5F5F5F5F5F5F5F5F5F5F5F5F5F5F5E2F5F5F5F5F5F5F5F5F5F5F5F5F5F5F5F5F5F5F5F5F5F5F5F5F5F5F5F5F5F5F5F5F5F5F5F5F5F5F5F5F5F5F5F5F5F5F5F5F5F5F5F5F5F5F5F5F5F5F5F5F5F5
310
F5F5F5F5F5F5F5F5F5F5F5F5F5F5F5F5F5F5F5F5F5F5F5F5F5F5F5F5F5F5F5F5F5F5F5F5F5F5F5F5F5F5F5F5F5F5F5F5F5F5F5F5F5F5DCF5F5F5F5F5F5F5F5F5F5F5F5F5F5F5F5F5E2F5F5F5F5F5F5F5F5F5F5F5F5F5F5F5F5E2F5F5F5F5E2E2F5F5F5F5E2F5F5F5F5F5F5F5F5F5F5F5F5F5F5F5F5E2F5F5F5F5F5F5F5F5F5
310
F5F5F5F5F5F5F5F5F5F5F5F5F5F5F5F5F5F5F5F5F5F5F5F5F5F5F5F5F5F5F5F5F5F5F5F5F5F5F5F5F5F5F5F5F5F5F5F5F5F5F5F5F5F5F5F5F5F5F5F5F5F5F5F5F5F5F5F5F5F5F5F5F5F5F5F5F5F5F5F5F5F5F5F5F5F5F5F5F5F5F5F5F5F5F5F5F5F5F5F5F5F5F5F5F5F5F5DCF5F5F5F5F5F5F5F5F5F5F5F5F5F5F5F5F5E2F5
310
F5F5F5F5F5F5F5F5F5F5F5F5F5F5F5E2F5F5F5F5E2E2F5F5F5F5E2F5F5F5F5F5F5F5F5F5F5F5F5F5F5F5F5E2F5F5F5F5F5F5F5F5F5F5F5F5F5F5F5F5F5F5F5F5F5F5F5F5F5F5F5F5F5F5F5F5F5F5F5F5F5F5F5F5F5F5F5F5F5F5F5F5F5F5F5F5F5F5F5F5F5F5F5F5F5F5F5F5F5F5F5F5F5F5F5F5F5F5F5F5F5F5F5F5F5F5F5
310
F5F5F5F5F5F5F5F5F5F5F5F5F5F5F5F5F5F5F5F5F5F5F5F5F5F5F5F5F5F5F5F5F5DCF5F5F5F5F5F5F5F5F5F5F5F5F5F5F5F5F5E2F5F5F5F5F5F5F5F5F5F5F5F5F5F5F5F5E2F5F5F5F5E2E2F5F5F5F5E2F5F5F5F5F5F5F5F5F5F5F5F5F5F5F5F5E2F5F5F5F5F5F5F5F5F5F5F5F5F5F5F5F5F5F5F5F5F5F5F5F5F5F5F5F5F5F5
310
F5F5F5F5F5F5F5F5F5F5F5F5F5F5F5F5F5F5F5F5F5F5F5F5F5F5F5F5F5F5F5F5F5F5F5F5F5F5F5F5F5F5F5F5F5F5F5F5F5F5F5F5F5F5F5F5F5F5F5F5F5F5F5F5F5F5F5F5F5F5F5F5F5F5F5F5F5F5F5F5F5F5F5F5F5F5DCF5F5F5F5F5F5F5F5F5F5F5F5F5F5F5F5F5E2F5F5F5F5F5F5F5F5F5F5F5F5F5F5F5F5E2F5F5F5F5E2
310
E2F5F5F5F5E2F5F5F5F5F5F5F5F5F5F5F5F5F5F5F5F5E2F5F5F5F5F5F5F5F5F5F5F5F5F5F5F5F5F5F5F5F5F5F5F5F5F5F5F5F5F5F5F5F5F5F5F5F5F5F5F5F5F5F5F5F5F5F5F5F5F5F5F5F5F5F5F5F5F5F5F5F5F5F5F5F5F5F5F5F5F5F5F5F5F5F5F5F5F5F5F5F5F5F5F5F5F5F5F5F5F5F5F5F5F5F5F5F5F5F5F5F5F5F5F5F5
310
F5F5F5F5F5F5F5F5F5F5F5F5DCF5F5F5F5F5F5F5F5F5F5F5F5F5F5F5F5F5E2F5F5F5F5F5F5F5F5F5F5F5F5F5F5F5F5E2F5F5F5F5E2E2F5F5F5F5E2F5F5F5F5F5F5F5F5F5F5F5F5F5F5F5F5E2F5F5F5F5F5F5F5F5F5F5F5F5F5F5F5F5F5F5F5F5F5F5F5F5F5F5F5F5F5F5F5F5F5F5F5F5F5F5F5F5F5F5F5F5F5F5F5F5F5F5F5
310
F5F5F5F5F5F5F5F5F5F5F5F5F5F5F5F5F5F5F5F5F5F5F5F5F5F5F5F5F5F5F5F5F5F5F5F5F5F5F5F5F5F5F5F5F5F5F5F5F5F5F5F5F5F5F5F5F5F5F5F5F5F5F5F5F5DCF5F5F5F5F5F5F5F5F5F5F5F5F5F5F5F5F5E2F5F5F5F5F5F5F5F5F5F5F5F5F5F5F5F5E2F5F5F5F5E2E2F5F5F5F5E2F5F5F5F5F5F5F5F5F5F5F5F5F5F5F5
310
F5E2F5F5F5F5F5F5F5F5F5F5F5F5F5F5F5F5F5F5F5F5F5F5F5F5F5F5F5F5F5F5F5F5F5F5F5F5F5F5F5F5F5F5F5F5F5F5F5F5F5F5F5F5F5F5F5F5F5F5F5F5F5F5F5F5F5F5F5F5F5F5F5F5F5F5F5F5F5F5F5F5F5F5F5F5F5F5F5F5F5F5F5F5F5F5F5F5F5F5F5F5F5F5F5F5F5F5F5F5F5F5F5F5F5F5F5F5DCF5F5F5F5F5F5F5F5
310
F5F5F5F5F5F5F5F5F5E2F5F5F5F5F5F5F5F5F5F5F5F5F5F5F5F5E2F5F5F5F5E2E2F5F5F5F5E2F5F5F5F5F5F5F5F5F5F5F5F5F5F5F5F5E2F5F5F5F5F5F5F5F5F5F5F5F5F5F5F5F5F5F5F5F5F5F5F5F5F5F5F5F5F5F5F5F5F5F5F5F5F5F5F5F5F5F5F5F5F5F5F5F5F5F5F5F5F5F5F5F5F5F5F5F5F5F5F5F5F5F5F5F5F5F5F5F5
310
F5F5F5F5F5F5F5F5F5F5F5F5F5F5F5F5F5F5F5F5F5F5F5F5F5F5F5F5F5F5F5F5F5F5F5F5F5F5F5F5F5F5E2E2DCE2F5F5F5F5F5F5F5F5F5F5F5F5F5F5F5F5E2F5F5F5F5F5F5F5F5F5F5F5F5F5F5F5F5E2F5F5F5F5E2E2F5F5F5F5E2F5F5F5F5F5F5F5F5F5F5F5F5F5F5F5F5E2F5F5F5F5F5F5F5F5F5F5F5F5F5F5F5F5F5F5F5
310
F5F5F5F5F5F5F5F5F5F5F5F5F5F5F5F5F5F5F5F5F5F5F5F5F5F5F5F5F5F5F5F5F5F5F5F5F5F5F5F5F5F5F5F5F5F5F5F5F5F5F5F5F5F5F5F5F5F5F5F5F5F5F5F5F5F5F5F5F5F5F5F5F5F5F5F5F5F5F5F5F5F5F5F5F5F5F5F5F5F5F5F5F5F5F5F5F5DCF5F5F5F5F5F5F5F5F5F5F5F5F5F5F5F5F5E2F5F5F5F5F5F5F5F5F5F5F5
310
F5F5F5F5F5E2F5F5F5F5E2E2F5F5F5F5E2F5F5F5F5F5F5F5F5F5F5F5F5F5F5F5F5E2F5F5F5F5F5F5F5F5F5F5F5F5F5F5F5F5F5F5F5F5F5F5F5F5F5F5F5F5F5F5F5F5F5F5F5F5F5F5F5F5F5F5F5F5F5F5F5F5F5F5F5F5F5F5F5F5F5F5F5F5F5F5F5F5F5F5F5F5F5F5F5F5F5F5F5F5F5F5F5F5F5F5F5F5F5F5F5F5F5F5F5F5F5
310
F5F5F5F5F5F5F5F5F5F5F5F5F5F5F5F5F5F5F5F5F5F5F5DCF5F5F5F5F5F5F5F5F5F5F5F5F5F5F5F5F5E2F5F5F5F5F5F5F5F5F5F5F5F5F5F5F5F5E2F5F5F5F5E2E2F5F5F5F5F5F5F5F5F5F5F5F5F5F5F5F5F5F5F5F5F5E2F5F5F5F5F5F5F5F5F5F5F5F5F5F5F5F5F5F5F5F5F5F5F5F5F5F5F5F5F5F5F5F5F5F5F5F5F5F5F5F5
310
F5F5F5F5F5F5F5F5F5F5F5F5F5F5F5F5F5F5F5F5F5F5F5F5F5F5F5F5F5F5F5F5F5F5F5F5F5F5F5F5F5F5F5F5F5F5F5F5F5F5F5F5F5F5F5F5F5F5F5F5F5F5F5F5F5F5F5F5F5F5F5F5F5F5F5F5DCF5F5F5F5F5F5F5F5F5F5F5F5F5F5F5F5F5E2F5F5F5F5F5F5F5F5F5F5F5F5F5F5F5F5F5F5F5F5F5E2E2F5F5F5F5F5F5F5F5F5
310
F5F5F5F5F5F5F5F5F5F5F5F5E2F5F5F5F5F5F5F5F5F5F5F5F5F5F5F5F5F5F5F5F5F5F5F5F5F5F5F5F5F5F5F5F5F5F5F5F5F5F5F5F5F5F5F5F5F5F5F5F5F5F5F5F5F5F5F5F5F5F5F5F5F5F5F5F5F5F5F5F5F5F5F5F5F5F5F5F5F5F5F5F5F5F5F5F5F5F5F5F5F5F5F5F5F5F5F5F5F5F5F5F5F5F5F5F5F5F5F5F5F5F5F5F5F5F5
310
F5F5F5F5F5F5F5F5F5F5F5F5F5F5F5F5F5F5F5F5E2F5F5F5F5F5F5F5F5F5F5F5F5F5F5F5F5F5F5F5F5F5E2E2F5F5F5F5F5F5F5F5F5F5F5F5F5F5F5F5F5F5F5F5F5E2F5F5F5F5F5F5F5F5F5F5F5F5F5F5F5F5F5F5F5F5F5F5F5F5F5F5F5F5F5F5F5F5F5F5F5F5F5F5F5F5F5F5F5F5F5F5F5F5F5F5F5F5F5F5F5F5F5F5F5F5F5
310
F5F5F5F5F5F5F5F5F5F5F5F5F5F5F5F5F5F5F5F5F5F5F5F5F5F5F5F5F5F5F5F5F5F5F5F5F5F5F5F5F5F5F5F5F5F5F5F5F5F5F5F5F5F5F5F5F5F5F5F5F5F5F5F5F5F5F5F5F5F5F5F5F5E2F5F5F5F5F5F5F5F5F5F5F5F5F5F5F5F5F5F5F5F5F5E2E2F5F5F5F5F5F5F5F5F5F5F5F5F5F5F5F5F5F5F5F5F5E2F5F5F5F5F5F5F5F5
310
F5F5F5F5F5F5F5F5F5F5F5F5F5F5F5F5F5F5F5F5F5F5F5F5F5F5F5F5F5F5F5F5F5F5F5F5F5F5F5F5F5F5F5F5F5F5F5F5F5F5F5F5F5F5F5F5F5F5F5F5F5F5F5F5F5F5F5F5F5F5F5F5F5F5F5F5F5F5F5F5F5F5F5F5F5F5F5F5F5F5F5F5F5F5F5F5F5F5F5F5F5F5F5F5F5F5F5F5F5F5F5F5F5F5F5F5F5F5F5F5F5F5F5F5F5F5E2
310
F5F5F5F5F5F5F5F5F5F5F5F5F5F5F5F5F5F5F5F5F5E2E2F5F5F5F5F5F5F5F5F5F5F5F5F5F5F5F5F5F5F5F5F5E2F5F5F5F5F5F5F5F5F5F5F5F5F5F5F5F5F5F5F5F5F5F5F5F5F5F5F5F5F5F5F5F5F5F5F5F5F5F5F5F5F5F5F5F5F5F5F5F5F5F5F5F5F5F5F5F5F5F5F5F5F5F5F5F5F5F5F5F5F5F5F5F5F5F5F5F5F5F5F5F5F5F5
310
F5F5F5F5F5F5F5F5F5F5F5F5F5F5F5F5F5F5F5F5F5F5F5F5F5F5F5F5F5F5F5F5F5F5F5F5F5F5F5F5F5F5F5F5F5F5F5F5F5F5F5F5E2F5F5F5F5F5F5F5F5F5F5F5F5F5F5F5F5F5F5F5F5F5E2E2F5F5F5F5F5F5F5F5F5F5F5F5F5F5F5F5F5F5F5F5F5E2F5F5F5F5F5F5F5F5F5F5F5F5F5F5F5F5F5F5F5F5F5F5F5F5F5F5F5F5F5
310
F5F5F5F5F5F5F5F5F5F5F5F5F5F5F5F5F5F5F5F5F5F5F5F5F5F5F5F5F5F5F5F5F5F5F5F5F5F5F5F5F5F5F5F5F5F5F5F5F5F5F5F5F5F5F5F5F5F5F5F5F5F5F5F5F5F5F5F5F5F5F5F5F5F5F5F5F5F5F5F5F5F5F5F5F5F5F5F5F5F5F5F5F5F5F5F5F5F5F5F5F5F5F5F5F5E2F5F5F5F5F5F5F5F5F5F5F5F5F5F5F5F5F5F5F5F5F5
310
E2E2F5F5F5F5F5F5F5F5F5F5F5F5F5F5F5F5F5F5F5F5F5E2F5F5F5F5F5F5F5F5F5F5F5F5F5F5F5F5F5F5F5F5F5F5F5F5F5F5F5F5F5F5F5F5F5F5F5F5F5F5F5F5F5F5F5F5F5F5F5F5F5F5F5F5F5F5F5F5F5F5F5F5F5F5F5F5F5F5F5F5F5F5F5F5F5F5F5F5F5F5F5F5F5F5F5F5F5F5F5F5F5F5F5F5F5F5F5F5F5F5F5F5F5F5F5
310
F5F5F5F5F5F5F5F5F5F5F5F5F5F5F5F5F5F5F5F5F5F5F5F5F5F5F5F5F5F5F5E2F5F5F5F5F5F5F5F5F5F5F5F5F5F5F5F5F5F5F5F5F5E2E2F5F5F5F5F5F5F5F5F5F5F5F5F5F5F5F5F5F5F5F5F5E2F5F5F5F5F5F5F5F5F5F5F5F5F5F5F5F5F5F5F5F5F5F5F5F5F5F5F5F5F5F5F5F5F5F5F5F5F5F5F5F5F5F5F5F5F5F5F5F5F5F5
310
F5F5F5F5F5F5F5F5F5F5F5F5F5F5F5F5F5F5F5F5F5F5F5F5F5F5F5F5F5F5F5F5F5F5F5F5F5F5F5F5F5F5F5F5F5F5F5F5F5F5F5F5F5F5F5F5F5F5F5F5F5F5F5F5F5F5F5F5F5F5F5F5F5F5F5F5F5F5F5F5F5F5F5F5E2F5F5F5F5F5F5F5F5F5F5F5F5F5F5F5F5F5F5F5F5F5E2E2F5F5F5F5F5F5F5F5F5F5F5F5F5F5F5F5F5F5F5
310
F5F5E2F5F5F5F5F5F5F5F5F5F5F5F5F5F5F5F5F5F5F5F5F5F5F5F5F5F5F5F5F5F5F5F5F5F5F5F5F5F5F5F5F5F5F5F5F5F5F5F5F5F5F5F5F5F5F5F5F5F5F5F5F5F5F5F5F5F5F5F5F5F5F5F5F5F5F5F5F5F5F5F5F5F5F5F5F5F5F5F5F5F5F5F5F5F5F5F5F5F5F5F5F5F5F5F5F5F5F5F5F5F5F5F5F5F5F5F5F5F5F5F5F5F5F5F5
310
F5F5F5F5F5F5F5F5F5F5E2F5F5F5F5F5F5F5F5F5F5F5F5F5F5F5F5F5F5F5F5F5E2E2F5F5F5F5E2F5F5F5F5F5F5F5F5F5F5F5F5F5F5F5F5E2F5F5F5F5F5F5F5F5F5F5F5F5F5F5F5F5F5F5F5F5F5F5F5F5F5F5F5F5F5F5F5F5F5F5F5F5F5F5F5F5F5F5F5F5F5F5F5F5F5F5F5F5F5F5F5F5F5F5F5F5F5F5F5F5F5F5F5F5F5F5F5
310
F5F5F5F5F5F5F5F5F5F5F5F5F5F5F5F5F5F5F5F5F5F5F5F5F5F5F5F5F5F5F5F5F5F5F5F5F5F5F5F5F5F5F5F5F5F5F5F5F5F5F5F5F5F5F5F5F5F5F5F5F5F5F5E2F5F5F5F5F5F5F5F5F5F5F5F5F5F5F5F5E2F5F5F5F5E2E2F5F5F5F5E2F5F5F5F5F5F5F5F5F5F5F5F5F5F5F5F5E2F5F5F5F5F5F5F5F5F5F5F5F5F5F5F5F5F5F5
310
F5F5F5F5F5F5F5F5F5F5F5F5F5F5F5F5F5F5F5F5F5F5F5F5F5F5F5F5F5F5F5F5F5F5F5F5F5F5F5F5F5F5F5F5F5F5F5F5F5F5F5F5F5F5F5F5F5F5F5F5F5F5F5F5F5F5F5F5F5F5F5F5F5F5F5F5F5F5F5F5F5F5F5F5F5F5F5F5F5F5F5F5F5F5F5F5F5F5F5F5F5F5F5F5F5F5F5F5F5F5F5F5F5F5F5F5E2F5F5F5F5F5F5F5F5F5F5
310
F5F5F5F5F5F5E2F5F5F5F5E2E2F5F5F5F5E2F5F5F5F5F5F5F5F5F5F5F5F5F5F5F5F5E2F5F5F5F5F5F5F5F5F5F5F5F5F5F5F5F5F5F5F5F5F5F5F5F5F5F5F5F5F5F5F5F5F5F5F5F5F5F5F5F5F5F5F5F5F5F5F5F5F5F5F5F5F5F5F5F5F5F5F5F5F5F5F5F5F5F5F5F5F5F5F5F5F5F5F5F5F5F5F5F5F5F5F5F5F5F5F5F5F5F5F5F5
310
F5F5F5F5F5F5F5F5F5F5F5F5F5F5F5F5F5F5F5F5F5F5F5F5F5F5F5F5F5F5F5F5F5F5F5F5F5F5F5F5F5F5E2F5F5F5F5F5F5F5F5F5F5F5F5F5F5F5F5E2F5F5F5F5E2E2F5F5F5F5E2F5F5F5F5F5F5F5F5F5F5F5F5F5F5F5F5E2F5F5F5F5F5F5F5F5F5F5F5F5F5F5F5F5F5F5F5F5F5F5F5F5F5F5F5F5F5F5F5F5F5F5F5F5F5F5F5
310
F5F5F5F5F5F5F5F5F5F5F5F5F5F5F5F5F5F5F5F5F5F5F5F5F5F5F5F5F5F5F5F5F5F5F5F5F5F5F5F5F5F5F5F5F5F5F5F5F5F5F5F5F5F5F5F5F5F5F5F5F5F5F5F5F5F5F5F5F5F5F5F5F5F5F5F5F5F5F5F5F5F5F5F5F5F5F5F5F5F5F5F5F5F5F5E2F5F5F5F5F5F5F5F5F5F5F5F5F5F5F5F5E2F5F5F5F5E2E2F5F5F5F5E2F5F5F5
310
F5F5F5F5F5F5F5F5F5F5F5F5F5E2F5F5F5F5F5F5F5F5F5F5F5F5F5F5F5F5F5F5F5F5F5F5F5F5F5F5F5F5F5F5F5F5F5F5F5F5F5F5F5F5F5F5F5F5F5F5F5F5F5F5F5F5F5F5F5F5F5F5F5F5F5F5F5F5F5F5F5F5F5F5F5F5F5F5F5F5F5F5F5F5F5F5F5F5F5F5F5F5F5F5F5F5F5F5F5F5F5F5F5F5F5F5F5F5F5F5F5F5F5F5F5F5F5
310
F5F5F5F5F5F5F5F5F5F5F5F5F5F5F5F5F5F5F5F5F5E2F5F5F5F5F5F5F5F5F5F5F5F5F5F5F5F5E2F5F5F5F5E2E2F5F5F5F5E2F5F5F5F5F5F5F5F5F5F5F5F5F5F5F5F5E2F5F5F5F5F5F5F5F5F5F5F5F5F5F5F5F5F5F5F5F5F5F5F5F5F5F5F5F5F5F5F5F5F5F5F5F5F5F5F5F5F5F5F5F5F5F5F5F5F5F5F5F5F5F5F5F5F5F5F5F5
310
F5F5F5F5F5F5F5F5F5F5F5F5F5F5F5F5F5F5F5F5F5F5F5F5F5F5F5F5F5F5F5F5F5F5F5F5F5F5F5F5F5F5F5F5F5F5F5F5F5F5F5F5F5F5F5F5F5F5F5F5F5F5F5F5F5F5F5F5F5F5F5F5F5F5E2F5F5F5F5F5F5F5F5F5F5F5F5F5F5F5F5E2F5F5F5F5E2E2F5F5F5F5E2F5F5F5F5F5F5F5F5F5F5F5F5F5F5F5F5E2F5F5F5F5F5F5F5
310
F5F5F5F5F5F5F5F5F5F5F5F5F5F5F5F5F5F5F5F5F5F5F5F5F5F5F5F5F5F5F5F5F5F5F5F5F5F5F5F5F5F5F5F5F5F5F5F5F5F5F5F5F5F5F5F5F5F5F5F5F5F5F5F5F5F5F5F5F5F5F5F5F5F5F5F5F5F5F5F5F5F5F5F5F5F5F5F5F5F5F5F5F5F5F5F5F5F5F5F5F5F5F5F5F5F5F5F5F5F5F5F5F5F5F5F5F5F5F5F5F5F5F5F5F5F5F5
310
E2F5F5F5F5F5F5F5F5F5F5F5F5F5F5F5F5E2F5F5F5F5E2E2F5F5F5F5E2F5F5F5F5F5F5F5F5F5F5F5F5F5F5F5F5E2F5F5F5F5F5F5F5F5F5F5F5F5F5F5F5F5F5F5F5F5F5F5F5F5F5F5F5F5F5F5F5F5F5F5F5F5F5F5F5F5F5F5F5F5F5F5F5F5F5F5F5F5F5F5F5F5F5F5F5F5F5F5F5F5F5F5F5F5F5F5F5F5F5F5F5F5F5F5F5F5F5
310
F5F5F5F5F5F5F5F5F5F5F5F5F5F5F5F5F5F5F5F5F5F5F5F5F5F5F5F5F5F5F5F5F5F5F5F5F5F5F5F5F5F5F5F5F5F5F5F5F5F5F5F5F5E2F5F5F5F5F5F5F5F5F5F5F5F5F5F5F5F5E2F5F5F5F5E2E2F5F5F5F5E2F5F5F5F5F5F5F5F5F5F5F5F5F5F5F5F5E2F5F5F5F5F5F5F5F5F5F5F5F5F5F5F5F5F5F5F5F5F5F5F5F5F5F5F5F5
310
F5F5F5F5F5F5F5F5F5F5F5F5F5F5F5F5F5F5F5F5F5F5F5F5F5F5F5F5F5F5F5F5F5F5F5F5F5F5F5F5F5F5F5F5F5F5F5F5F5F5F5F5F5F5F5F5F5F5F5F5F5F5F5F5F5F5F5F5F5F5F5F5F5F5F5F5F5F5F5F5F5F5F5F5F5F5F5F5F5F5F5F5F5F5F5F5F5F5F5F5F5F5F5F5F5F5E2F5F5F5F5F5F5F5F5F5F5F5F5F5F5F5F5E2F5F5F5
310
F5E2E2F5F5F5F5E2F5F5F5F5F5F5F5F5F5F5F5F5F5F5F5F5E2F5F5F5F5F5F5F5F5F5F5F5F5F5F5F5F5F5F5F5F5F5F5F5F5F5F5F5F5F5F5F5F5F5F5F5F5F5F5F5F5F5F5F5F5F5F5F5F5F5F5F5F5F5F5F5F5F5F5F5F5F5F5F5F5F5F5F5F5F5F5F5F5F5F5F5F5F5F5F5F5F5F5F5F5F5F5F5F5F5F5F5F5F5F5F5F5F5F5F5F5F5F5
310
F5F5F5F5F5F5F5F5F5F5F5F5F5F5F5F5F5F5F5F5F5F5F5F5F5F5F5F5F5F5F5F5E2F5F5F5F5F5F5F5F5F5F5F5F5F5F5F5F5E2F5F5F5F5E2E2F5F5F5F5E2F5F5F5F5F5F5F5F5F5F5F5F5F5F5F5F5E2F5F5F5F5F5F5F5F5F5F5F5F5F5F5F5F5F5F5F5F5F5F5F5F5F5F5F5F5F5F5F5F5F5F5F5F5F5F5F5F5F5F5F5F5F5F5F5F5F5
310
F5F5F5F5F5F5F5F5F5F5F5F5F5F5F5F5F5F5F5F5F5F5F5F5F5F5F5F5F5F5F5F5F5F5F5F5F5F5F5F5F5F5F5F5F5F5F5F5F5F5F5F5F5F5F5F5F5F5F5F5F5F5F5F5F5F5F5F5F5F5F5F5F5F5F5F5F5F5F5F5F5F5F5F5F5E2F5F5F5F5F5F5F5F5F5F5F5F5F5F5F5F5E2F5F5F5F5E2E2F5F5F5F5E2F5F5F5F5F5F5F5F5F5F5F5F5F5
310
F5F5F5E2F5F5F5F5F5F5F5F5F5F5F5F5F5F5F5F5F5F5F5F5F5F5F5F5F5F5F5F5F5F5F5F5F5F5F5F5F5F5F5F5F5F5F5F5F5F5F5F5F5F5F5F5F5F5F5F5F5F5F5F5F5F5F5F5F5F5F5F5F5F5F5F5F5F5F5F5F5F5F5F5F5F5F5F5F5F5F5F5F5F5F5F5F5F5F5F5F5F5F5F5F5F5F5F5F5F5F5F5F5F5F5F5F5F5F5F5F5F5F5F5F5F5F5
310
F5F5F5F5F5F5F5F5F5F5F5E2F5F5F5F5F5F5F5F5F5F5F5F5F5F5F5F5E2F5F5F5F5E2E2F5F5F5F5E2F5F5F5F5F5F5F5F5F5F5F5F5F5F5F5F5E2F5F5F5F5F5F5F5F5F5F5F5F5F5F5F5F5F5F5F5F5F5F5F5F5F5F5F5F5F5F5F5F5F5F5F5F5F5F5F5F5F5F5F5F5F5F5F5F5F5F5F5F5F5F5F5F5F5F5F5F5F5F5F5F5F5F5F5F5F5F5
310
F5F5F5F5F5F5F5F5F5F5F5F5F5F5F5F5F5F5F5F5F5F5F5F5F5F5F5F5F5F5F5F5F5F5F5F5F5F5F5F5F5F5F5F5F5F5F5F5F5F5F5F5F5F5F5F5F5F5F5F5F5F5F5F5E2F5F5F5F5F5F5F5F5F5F5F5F5F5F5F5F5E2F5F5F5F5E2E2F5F5F5F5E2F5F5F5F5F5F5F5F5F5F5F5F5F5F5F5F5E2F5F5F5F5F5F5F5F5F5F5F5F5F5F5F5F5F5
310
F5F5F5F5F5F5F5F5F5F5F5F5F5F5F5F5F5F5F5F5F5F5F5F5F5F5F5F5F5F5F5F5F5F5F5F5F5F5F5F5F5F5F5F5F5F5F5F5F5F5F5F5F5F5F5F5F5F5F5F5F5F5F5F5F5F5F5F5F5F5F5F5F5F5F5F5F5F5F5F5F5F5F5F5F5F5F5F5F5F5F5F5F5F5F5F5F5F5F5F5F5F5F5F5F5F5F5F5F5F5F5F5F5F5F5F5F5E2F5F5F5F5F5F5F5F5F5
310
F5F5F5F5F5F5F5E2F5F5F5F5E2E2F5F5F5F5E2F5F5F5F5F5F5F5F5F5F5F5F5F5F5F5F5E2F5F5F5F5F5F5F5F5F5F5F5F5F5F5F5F5F5F5F5F5F5F5F5F5F5F5F5F5F5F5F5F5F5F5F5F5F5F5F5F5F5F5F5F5F5F5F5F5F5F5F5F5F5F5F5F5F5F5F5F5F5F5F5F5F5F5F5F5F5F5F5F5F5F5F5F5F5F5F5F5F5F5F5F5F5F5F5F5F5F5F5
310
F5F5F5F5F5F5F5F5F5F5F5F5F5F5F5F5F5F5F5F5F5F5F5F5F5F5F5F5F5F5F5F5F5F5F5F5F5F5F5F5F5F5F5E2F5F5F5F5F5F5F5F5F5F5F5F5F5F5F5F5E2F5F5F5F5E2E2F5F5F5F5E2F5F5F5F5F5F5F5F5F5F5F5F5F5F5F5F5E2F5F5F5F5F5F5F5F5F5F5F5F5F5F5F5F5F5F5F5F5F5F5F5F5F5F5F5F5F5F5F5F5F5F5F5F5F5F5
310
F5F5F5F5F5F5F5F5F5F5F5F5F5F5F5F5F5F5F5F5F5F5F5F5F5F5F5F5F5F5F5F5F5F5F5F5F5F5F5F5F5F5F5F5F5F5F5F5F5F5F5F5F5F5F5F5F5F5F5F5F5F5F5F5F5F5F5F5F5F5F5F5F5F5F5F5F5F5F5F5F5F5F5F5F5F5F5F5F5F5F5F5F5F5F5F5E2F5F5F5F5F5F5F5F5F5F5F5F5F5F5F5F5E2F5F5F5F5E2E2F5F5F5F5E2F5F5
310
F5F5F5F5F5F5F5F5F5F5F5F5F5F5E2F5F5F5F5F5F5F5F5F5F5F5F5F5F5F5F5F5F5F5F5F5F5F5F5F5F5F5F5F5F5F5F5F5F5F5F5F5F5F5F5F5F5F5F5F5F5F5F5F5F5F5F5F5F5F5F5F5F5F5F5F5F5F5F5F5F5F5F5F5F5F5F5F5F5F5F5F5F5F5F5F5F5F5F5F5F5F5F5F5F5F5F5F5F5F5F5F5F5F5F5F5F5F5F5F5F5F5F5F5F5F5F5
310
F5F5F5F5F5F5F5F5F5F5F5F5F5F5F5F5F5F5F5F5F5F5E2F5F5F5F5F5F5F5F5F5F5F5F5F5F5F5F5E2F5F5F5F5E2E2F5F5F5F5F5F5F5F5F5F5F5F5F5F5F5F5F5F5F5F5F5E2F5F5F5F5F5F5F5F5F5F5F5F5F5F5F5F5F5F5F5F5F5F5F5F5F5F5F5F5F5F5F5F5F5F5F5F5F5F5F5F5F5F5F5F5F5F5F5F5F5F5F5F5F5F5F5F5F5F5F5
310
F5F5F5F5F5F5F5F5F5F5F5F5F5F5F5F5F5F5F5F5F5F5F5F5F5F5F5F5F5F5F5F5F5F5F5F5F5F5F5F5F5F5F5F5F5F5F5F5F5F5F5F5F5F5F5F5F5F5F5F5F5F5F5F5F5F5F5F5F5F5F5F5F5F5F5E2F5F5F5F5F5F5F5F5F5F5F5F5F5F5F5F5F5F5F5F5F5E2E2F5F5F5F5F5F5F5F5F5F5F5F5F5F5F5F5F5F5F5F5F5E2F5F5F5F5F5F5
310
F5F5F5F5F5F5F5F5F5F5F5F5F5F5F5F5F5F5F5F5F5F5F5F5F5F5F5F5F5F5F5F5F5F5F5F5F5F5F5F5F5F5F5F5F5F5F5F5F5F5F5F5F5F5F5F5F5F5F5F5F5F5F5F5F5F5F5F5F5F5F5F5F5F5F5F5F5F5F5F5F5F5F5F5F5F5F5F5F5F5F5F5F5F5F5F5F5F5F5F5F5F5F5F5F5F5F5F5F5F5F5F5F5F5F5F5F5F5F5F5F5F5F5F5F5F5F5
310
F5E2F5F5F5F5F5F5F5F5F5F5F5F5F5F5F5F5F5F5F5F5F5E2E2F5F5F5F5F5F5F5F5F5F5F5F5F5F5F5F5F5F5F5F5F5E2F5F5F5F5F5F5F5F5F5F5F5F5F5F5F5F5F5F5F5F5F5F5F5F5F5F5F5F5F5F5F5F5F5F5F5F5F5F5F5F5F5F5F5F5F5F5F5F5F5F5F5F5F5F5F5F5F5F5F5F5F5F5F5F5F5F5F5F5F5F5F5F5F5F5F5F5F5F5F5F5
310
F5F5F5F5F5F5F5F5F5F5F5F5F5F5F5F5F5F5F5F5F5F5F5F5F5F5F5F5F5F5F5F5F5F5F5F5F5F5F5F5F5F5F5F5F5F5F5F5F5F5F5F5F5F5E2F5F5F5F5F5F5F5F5F5F5F5F5F5F5F5F5F5F5F5F5F5E2E2F5F5F5F5F5F5F5F5F5F5F5F5F5F5F5F5F5F5F5F5F5E2F5F5F5F5F5F5F5F5F5F5F5F5F5F5F5F5F5F5F5F5F5F5F5F5F5F5F5
310
F5F5F5F5F5F5F5F5F5F5F5F5F5F5F5F5F5F5F5F5F5F5F5F5F5F5F5F5F5F5F5F5F5F5F5F5F5F5F5F5F5F5F5F5F5F5F5F5F5F5F5F5F5F5F5F5F5F5F5F5F5F5F5F5F5F5F5F5F5F5F5F5F5F5F5F5F5F5F5F5F5F5F5F5F5F5F5F5F5F5F5F5F5F5F5F5F5F5F5F5F5F5F5F5F5F5F5E2F5F5F5F5F5F5F5F5F5F5F5F5F5F5F5F5F5F5F5
310
F5F5E2E2F5F5F5F5F5F5F5F5F5F5F5F5F5F5F5F5F5F5F5F5F5E2F5F5F5F5F5F5F5F5F5F5F5F5F5F5F5F5F5F5F5F5F5F5F5F5F5F5F5F5F5F5F5F5F5F5F5F5F5F5F5F5F5F5F5F5F5F5F5F5F5F5F5F5F5F5F5F5F5F5F5F5F5F5F5F5F5F5F5F5F5F5F5F5F5F5F5F5F5F5F5F5F5F5F5F5F5F5F5F5F5F5F5F5F5F5F5F5F5F5F5F5F5
310
F5F5F5F5F5F5F5F5F5F5F5F5F5F5F5F5F5F5F5F5F5F5F5F5F5F5F5F5F5F5F5F5F5E2F5F5F5F5F5F5F5F5F5F5F5F5F5F5F5F5F5F5F5F5F5E2E2F5F5F5F5F5F5F5F5F5F5F5F5F5F5F5F5F5F5F5F5F5E2F5F5F5F5F5F5F5F5F5F5F5F5F5F5F5F5F5F5F5F5F5F5F5F5F5F5F5F5F5F5F5F5F5F5F5F5F5F5F5F5F5F5F5F5F5F5F5F5
310
F5F5F5F5F5F5F5F5F5F5F5F5F5F5F5F5F5F5F5F5F5F5F5F5F5F5F5F5F5F5F5F5F5F5F5F5F5F5F5F5F5F5F5F5F5F5F5F5F5F5F5F5F5F5F5F5F5F5F5F5F5F5F5F5F5F5F5F5F5F5F5F5F5F5F5F5F5F5F5F5F5F5F5F5F5F5E2F5F5F5F5F5F5F5F5F5F5F5F5F5F5F5F5F5F5F5F5F5E2E2F5F5F5F5F5F5F5F5F5F5F5F5F5F5F5F5F5
310
F5F5F5F5E2F5F5F5F5F5F5F5F5F5F5F5F5F5F5F5F5F5F5F5F5F5F5F5F5F5F5F5F5F5F5F5F5F5F5F5F5F5F5F5F5F5F5F5F5F5F5F5F5F5F5F5F5F5F5F5F5F5F5F5F5F5F5F5F5F5F5F5F5F5F5F5F5F5F5F5F5F5F5F5F5F5F5F5F5F5F5F5F5F5F5F5F5F5F5F5F5F5F5F5F5F5F5F5F5F5F5F5F5F5F5F5F5F5F5F5F5F5F5F5F5F5F5
310
F5F5F5F5F5F5F5F5F5F5F5F5E2F5F5F5F5F5F5F5F5F5F5F5F5F5F5F5F5F5F5F5F5F5E2E2F5F5F5F5F5F5F5F5F5F5F5F5F5F5F5F5F5F5F5F5F5E2F5F5F5F5F5F5F5F5F5F5F5F5F5F5F5F5F5F5F5F5F5F5F5F5F5F5F5F5F5F5F5F5F5F5F5F5F5F5F5F5F5F5F5F5F5F5F5F5F5F5F5F5F5F5F5F5F5F5F5F5F5F5F5F5F5F5F5F5F5
310
F5F5F5F5F5F5F5F5F5F5F5F5F5F5F5F5F5F5F5F5F5F5F5F5F5F5F5F5F5F5F5F5F5F5F5F5F5F5F5F5F5F5F5F5F5F5F5F5F5F5F5F5F5F5F5F5F5F5F5F5F5F5F5F5F5E2F5F5F5F5F5F5F5F5F5F5F5F5F5F5F5F5F5F5F5F5F5E2E2F5F5F5F5F5F5F5F5F5F5F5F5F5F5F5F5F5F5F5F5F5E2F5F5F5F5F5F5F5F5F5F5F5F5F5F5F5F5
310
F5F5F5F5F5F5F5F5F5F5F5F5F5F5F5F5F5F5F5F5F5F5F5F5F5F5F5F5F5F5F5F5F5F5F5F5F5F5F5F5F5F5F5F5F5F5F5F5F5F5F5F5F5F5F5F5F5F5F5F5F5F5F5F5F5F5F5F5F5F5F5F5F5F5F5F5F5F5F5F5F5F5F5F5F5F5F5F5F5F5F5F5F5F5F5F5F5F5F5F5F5F5F5F5F5F5F5F5F5F5F5F5F5F5F5F5F5F5E2F5F5F5F5F5F5F5F5
310
F5F5F5F5F5F5F5F5F5F5F5F5F5E2E2F5F5F5F5E2F5F5F5F5F5F5F5F5F5F5F5F5F5F5F5F5E2F5F5F5F5F5F5F5F5F5F5F5F5F5F5F5F5F5F5F5F5F5F5F5F5F5F5F5F5F5F5F5F5F5F5F5F5F5F5F5F5F5F5F5F5F5F5F5F5F5F5F5F5F5F5F5F5F5F5F5F5F5F5F5F5F5F5F5F5F5F5F5F5F5F5F5F5F5F5F5F5F5F5F5F5F5F5F5F5F5F5
310
F5F5F5F5F5F5F5F5F5F5F5F5F5F5F5F5F5F5F5F5F5F5F5F5F5F5F5F5F5F5F5F5F5F5F5F5F5F5F5F5F5F5F5F5E2F5F5F5F5F5F5F5F5F5F5F5F5F5F5F5F5E2F5F5F5F5E2E2F5F5F5F5E2F5F5F5F5F5F5F5F5F5F5F5F5F5F5F5F5E2F5F5F5F5F5F5F5F5F5F5F5F5F5F5F5F5F5F5F5F5F5F5F5F5F5F5F5F5F5F5F5F5F5F5F5F5F5
310
F5F5F5F5F5F5F5F5F5F5F5F5F5F5F5F5F5F5F5F5F5F5F5F5F5F5F5F5F5F5F5F5F5F5F5F5F5F5F5F5F5F5F5F5F5F5F5F5F5F5F5F5F5F5F5F5F5F5F5F5F5F5F5F5F5F5F5F5F5F5F5F5F5F5F5F5F5F5F5F5F5F5F5F5F5F5F5F5F5F5F5F5F5F5F5F5F5E2F5F5F5F5F5F5F5F5F5F5F5F5F5F5F5F5E2F5F5F5F5E2E2F5F5F5F5E2F5
310
F5F5F5F5F5F5F5F5F5F5F5F5F5F5F5E2F5F5F5F5F5F5F5F5F5F5F5F5F5F5F5F5F5F5F5F5F5F5F5F5F5F5F5F5F5F5F5F5F5F5F5F5F5F5F5F5F5F5F5F5F5F5F5F5F5F5F5F5F5F5F5F5F5F5F5F5F5F5F5F5F5F5F5F5F5F5F5F5F5F5F5F5F5F5F5F5F5F5F5F5F5F5F5F5F5F5F5F5F5F5F5F5F5F5F5F5F5F5F5F5F5F5F5F5F5F5F5
310
F5F5F5F5F5F5F5F5F5F5F5F5F5F5F5F5F5F5F5F5F5F5F5E2F5F5F5F5F5F5F5F5F5F5F5F5F5F5F5F5E2F5F5F5F5E2E2F5F5F5F5E2F5F5F5F5F5F5F5F5F5F5F5F5F5F5F5F5E2F5F5F5F5F5F5F5F5F5F5F5F5F5F5F5F5F5F5F5F5F5F5F5F5F5F5F5F5F5F5F5F5F5F5F5F5F5F5F5F5F5F5F5F5F5F5F5F5F5F5F5F5F5F5F5F5F5F5
310
F5F5F5F5F5F5F5F5F5F5F5F5F5F5F5F5F5F5F5F5F5F5F5F5F5F5F5F5F5F5F5F5F5F5F5F5F5F5F5F5F5F5F5F5F5F5F5F5F5F5F5F5F5F5F5F5F5F5F5F5F5F5F5F5F5F5F5F5F5F5F5F5F5F5F5F5E2F5F5F5F5F5F5F5F5F5F5F5F5F5F5F5F5E2F5F5F5F5E2E2F5F5F5F5E2F5F5F5F5F5F5F5F5F5F5F5F5F5F5F5F5E2F5F5F5F5F5
310
F5F5F5F5F5F5F5F5F5F5F5F5F5F5F5F5F5F5F5F5F5F5F5F5F5F5F5F5F5F5F5F5F5F5F5F5F5F5F5F5F5F5F5F5F5F5F5F5F5F5F5F5F5F5F5F5F5F5F5F5F5F5F5F5F5F5F5F5F5F5F5F5F5F5F5F5F5F5F5F5F5F5F5F5F5F5F5F5F5F5F5F5F5F5F5F5F5F5F5F5F5F5F5F5F5F5F5F5F5F5F5F5F5F5F5F5F5F5F5F5F5F5F5F5F5F5F5
310
F5F5E2F5F5F5F5F5F5F5F5F5F5F5F5F5F5F5F5E2F5F5F5F5E2E2F5F5F5F5E2F5F5F5F5F5F5F5F5F5F5F5F5F5F5F5F5E2F5F5F5F5F5F5F5F5F5F5F5F5F5F5F5F5F5F5F5F5F5F5F5F5F5F5F5F5F5F5F5F5F5F5F5F5F5F5F5F5F5F5F5F5F5F5F5F5F5F5F5F5F5F5F5F5F5F5F5F5F5F5F5F5F5F5F5F5F5F5F5F5F5F5F5F5F5F5F5
310
F5F5F5F5F5F5F5F5F5F5F5F5F5F5F5F5F5F5F5F5F5F5F5F5F5F5F5F5F5F5F5F5F5F5F5F5F5F5F5F5F5F5F5F5F5F5F5F5F5F5F5F5F5F5F5E2F5F5F5F5F5F5F5F5F5F5F5F5F5F5F5F5E2F5F5F5F5E2E2F5F5F5F5E2F5F5F5F5F5F5F5F5F5F5F5F5F5F5F5F5E2F5F5F5F5F5F5F5F5F5F5F5F5F5F5F5F5F5F5F5F5F5F5F5F5F5F5
310
F5F5F5F5F5F5F5F5F5F5F5F5F5F5F5F5F5F5F5F5F5F5F5F5F5F5F5F5F5F5F5F5F5F5F5F5F5F5F5F5F5F5F5F5F5F5F5F5F5F5F5F5F5F5F5F5F5F5F5F5F5F5F5F5F5F5F5F5F5F5F5F5F5F5F5F5F5F5F5F5F5F5F5F5F5F5F5F5F5F5F5F5F5F5F5F5F5F5F5F5F5F5F5F5F5F5F5F5E2F5F5F5F5F5F5F5F5F5F5F5F5F5F5F5F5E2F5
310
F5F5F5E2E2F5F5F5F5E2F5F5F5F5F5F5F5F5F5F5F5F5F5F5F5F5E2F5F5F5F5F5F5F5F5F5F5F5F5F5F5F5F5F5F5F5F5F5F5F5F5F5F5F5F5F5F5F5F5F5F5F5F5F5F5F5F5F5F5F5F5F5F5F5F5F5F5F5F5F5F5F5F5F5F5F5F5F5F5F5F5F5F5F5F5F5F5F5F5F5F5F5F5F5F5F5F5F5F5F5F5F5F5F5F5F5F5F5F5F5F5F5F5F5F5F5F5
310
F5F5F5F5F5F5F5F5F5F5F5F5F5F5F5F5F5F5F5F5F5F5F5F5F5F5F5F5F5F5F5F5F5F5E2F5F5F5F5F5F5F5F5F5F5F5F5F5F5F5F5E2F5F5F5F5E2E2F5F5F5F5E2F5F5F5F5F5F5F5F5F5F5F5F5F5F5F5F5E2F5F5F5F5F5F5F5F5F5F5F5F5F5F5F5F5F5F5F5F5F5F5F5F5F5F5F5F5F5F5F5F5F5F5F5F5F5F5F5F5F5F5F5F5F5F5F5
310
F5F5F5F5F5F5F5F5F5F5F5F5F5F5F5F5F5F5F5F5F5F5F5F5F5F5F5F5F5F5F5F5F5F5F5F5F5F5F5F5F5F5F5F5F5F5F5F5F5F5F5F5F5F5F5F5F5F5F5F5F5F5F5F5F5F5F5F5F5F5F5F5F5F5F5F5F5F5F5F5F5F5F5F5F5F5F5E2F5F5F5F5F5F5F5F5F5F5F5F5F5F5F5F5E2F5F5F5F5E2E2F5F5F5F5E2F5F5F5F5F5F5F5F5F5F5F5
310
F5F5F5F5F5E2F5F5F5F5F5F5F5F5F5F5F5F5F5F5F5F5F5F5F5F5F5F5F5F5F5F5F5F5F5F5F5F5F5F5F5F5F5F5F5F5F5F5F5F5F5F5F5F5F5F5F5F5F5F5F5F5F5F5F5F5F5F5F5F5F5F5F5F5F5F5F5F5F5F5F5F5F5F5F5F5F5F5F5F5F5F5F5F5F5F5F5F5F5F5F5F5F5F5F5F5F5F5F5F5F5F5F5F5F5F5F5F5F5F5F5F5F5F5F5F5F5
310
F5F5F5F5F5F5F5F5F5F5F5F5F5E2F5F5F5F5F5F5F5F5F5F5F5F5F5F5F5F5E2F5F5F5F5E2E2F5F5F5F5E2F5F5F5F5F5F5F5F5F5F5F5F5F5F5F5F5E2F5F5F5F5F5F5F5F5F5F5F5F5F5F5F5F5F5F5F5F5F5F5F5F5F5F5F5F5F5F5F5F5F5F5F5F5F5F5F5F5F5F5F5F5F5F5F5F5F5F5F5F5F5F5F5F5F5F5F5F5F5F5F5F5F5F5F5F5
310
F5F5F5F5F5F5F5F5F5F5F5F5F5F5F5F5F5F5F5F5F5F5F5F5F5F5F5F5F5F5F5F5F5F5F5F5F5F5F5F5F5F5F5F5F5F5F5F5F5F5F5F5F5F5F5F5F5F5F5F5F5F5F5F5F5F5E2F5F5F5F5F5F5F5F5F5F5F5F5F5F5F5F5E2F5F5F5F5E2E2F5F5F5F5E2F5F5F5F5F5F5F5F5F5F5F5F5F5F5F5F5E2F5F5F5F5F5F5F5F5F5F5F5F5F5F5F5
310
F5F5F5F5F5F5F5F5F5F5F5F5F5F5F5F5F5F5F5F5F5F5F5F5F5F5F5F5F5F5F5F5F5F5F5F5F5F5F5F5F5F5F5F5F5F5F5F5F5F5F5F5F5F5F5F5F5F5F5F5F5F5F5F5F5F5F5F5F5F5F5F5F5F5F5F5F5F5F5F5F5F5F5F5F5F5F5F5F5F5F5F5F5F5F5F5F5F5F5F5F5F5F5F5F5F5F5F5F5F5F5F5F5F5F5F5F5F5F5E2F5F5F5F5F5F5F5
310
F5F5F5F5F5F5F5F5F5E2F5F5F5F5E2E2F5F5F5F5E2F5F5F5F5F5F5F5F5F5F5F5F5F5F5F5F5E2F5F5F5F5F5F5F5F5F5F5F5F5F5F5F5F5F5F5F5F5F5F5F5F5F5F5F5F5F5F5F5F5F5F5F5F5F5F5F5F5F5F5F5F5F5F5F5F5F5F5F5F5F5F5F5F5F5F5F5F5F5F5F5F5F5F5F5F5F5F5F5F5F5F5F5F5F5F5F5F5F5F5F5F5F5F5F5F5F5
310
F5F5F5F5F5F5F5F5F5F5F5F5F5F5F5F5F5F5F5F5F5F5F5F5F5F5F5F5F5F5F5F5F5F5F5F5F5F5F5F5F5F5F5F5F5E2F5F5F5F5F5F5F5F5F5F5F5F5F5F5F5F5E2F5F5F5F5E2E2F5F5F5F5E2F5F5F5F5F5F5F5F5F5F5F5F5F5F5F5F5E2F5F5F5F5F5F5F5F5F5F5F5F5F5F5F5F5F5F5F5F5F5F5F5F5F5F5F5F5F5F5F5F5F5F5F5F5
310
F5F5F5F5F5F5F5F5F5F5F5F5F5F5F5F5F5F5F5F5F5F5F5F5F5F5F5F5F5F5F5F5F5F5F5F5F5F5F5F5F5F5F5F5F5F5F5F5F5F5F5F5F5F5F5F5F5F5F5F5F5F5F5F5F5F5F5F5F5F5F5F5F5F5F5F5F5F5F5F5F5F5F5F5F5F5F5F5F5F5F5F5F5F5F5F5F5F5E2F5F5F5F5F5F5F5F5F5F5F5F5F5F5F5F5E2F5F5F5F5E2E2F5F5F5F5E2
310
F5F5F5F5F5F5F5F5F5F5F5F5F5F5F5F5E2F5F5F5F5F5F5F5F5F5F5F5F5F5F5F5F5F5F5F5F5F5F5F5F5F5F5F5F5F5F5F5F5F5F5F5F5F5F5F5F5F5F5F5F5F5F5F5F5F5F5F5F5F5F5F5F5F5F5F5F5F5F5F5F5F5F5F5F5F5F5F5F5F5F5F5F5F5F5F5F5F5F5F5F5F5F5F5F5F5F5F5F5F5F5F5F5F5F5F5F5F5F5F5F5F5F5F5F5F5F5
310
F5F5F5F5F5F5F5F5F5F5F5F5F5F5F5F5F5F5F5F5F5F5F5F5E2F5F5F5F5F5F5F5F5F5F5F5F5F5F5F5F5E2F5F5F5F5E2E2F5F5F5F5E2F5F5F5F5F5F5F5F5F5F5F5F5F5F5F5F5E2F5F5F5F5F5F5F5F5F5F5F5F5F5F5F5F5F5F5F5F5F5F5F5F5F5F5F5F5F5F5F5F5F5F5F5F5F5F5F5F5F5F5F5F5F5F5F5F5F5F5F5F5F5F5F5F5F5
310
F5F5F5F5F5F5F5F5F5F5F5F5F5F5F5F5F5F5F5F5F5F5F5F5F5F5F5F5F5F5F5F5F5F5F5F5F5F5F5F5F5F5F5F5F5F5F5F5F5F5F5F5F5F5F5F5F5F5F5F5F5F5F5F5F5F5F5F5F5F5F5F5F5F5F5F5F5E2F5F5F5F5F5F5F5F5F5F5F5F5F5F5F5F5E2F5F5F5F5E2E2F5F5F5F5E2F5F5F5F5F5F5F5F5F5F5F5F5F5F5F5F5E2F5F5F5F5
310
F5F5F5F5F5F5F5F5F5F5F5F5F5F5F5F5F5F5F5F5F5F5F5F5F5F5F5F5F5F5F5F5F5F5F5F5F5F5F5F5F5F5F5F5F5F5F5F5F5F5F5F5F5F5F5F5F5F5F5F5F5F5F5F5F5F5F5F5F5F5F5F5F5F5F5F5F5F5F5F5F5F5F5F5F5F5F5F5F5F5F5F5F5F5F5F5F5F5F5F5F5F5F5F5F5F5F5F5F5F5F5F5F5F5F5F5F5F5F5F5F5F5F5F5F5F5F5
310
F5F5F5E2F5F5F5F5F5F5F5F5F5F5F5F5F5F5F5F5E2F5F5F5F5E2E2F5F5F5F5F5F5F5F5F5F5F5F5F5F5F5F5F5F5F5F5F5E2F5F5F5F5F5F5F5F5F5F5F5F5F5F5F5F5F5F5F5F5F5F5F5F5F5F5F5F5F5F5F5F5F5F5F5F5F5F5F5F5F5F5F5F5F5F5F5F5F5F5F5F5F5F5F5F5F5F5F5F5F5F5F5F5F5F5F5F5F5F5F5F5F5F5F5F5F5F5
310
F5F5F5F5F5F5F5F5F5F5F5F5F5F5F5F5F5F5F5F5F5F5F5F5F5F5F5F5F5F5F5F5F5F5F5F5F5F5F5F5F5F5F5F5F5F5F5F5F5F5F5F5F5F5F5F5E2F5F5F5F5F5F5F5F5F5F5F5F5F5F5F5F5F5F5F5F5F5E2E2F5F5F5F5F5F5F5F5F5F5F5F5F5F5F5F5F5F5F5F5F5E2F5F5F5F5F5F5F5F5F5F5F5F5F5F5F5F5F5F5F5F5F5F5F5F5F5
310
F5F5F5F5F5F5F5F5F5F5F5F5F5F5F5F5F5F5F5F5F5F5F5F5F5F5F5F5F5F5F5F5F5F5F5F5F5F5F5F5F5F5F5F5F5F5F5F5F5F5F5F5F5F5F5F5F5F5F5F5F5F5F5F5F5F5F5F5F5F5F5F5F5F5F5F5F5F5F5F5F5F5F5F5F5F5F5F5F5F5F5F5F5F5F5F5F5F5F5F5F5F5F5F5F5F5F5F5F5E2F5F5F5F5F5F5F5F5F5F5F5F5F5F5F5F5F5
310
F5F5F5F5E2E2F5F5F5F5F5F5F5F5F5F5F5F5F5F5F5F5F5F5F5F5F5E2F5F5F5F5F5F5F5F5F5F5F5F5F5F5F5F5F5F5F5F5F5F5F5F5F5F5F5F5F5F5F5F5F5F5F5F5F5F5F5F5F5F5F5F5F5F5F5F5F5F5F5F5F5F5F5F5F5F5F5F5F5F5F5F5F5F5F5F5F5F5F5F5F5F5F5F5F5F5F5F5F5F5F5F5F5F5F5F5F5F5F5F5F5F5F5F5F5F5F5
310
F5F5F5F5F5F5F5F5F5F5F5F5F5F5F5F5F5F5F5F5F5F5F5F5F5F5F5F5F5F5F5F5F5F5F5E2F5F5F5F5F5F5F5F5F5F5F5F5F5F5F5F5F5F5F5F5F5E2E2F5F5F5F5F5F5F5F5F5F5F5F5F5F5F5F5F5F5F5F5F5E2F5F5F5F5F5F5F5F5F5F5F5F5F5F5F5F5F5F5F5F5F5F5F5F5F5F5F5F5F5F5F5F5F5F5F5F5F5F5F5F5F5F5F5F5F5F5
310
F5F5F5F5F5F5F5F5F5F5F5F5F5F5F5F5F5F5F5F5F5F5F5F5F5F5F5F5F5F5F5F5F5F5F5F5F5F5F5F5F5F5F5F5F5F5F5F5F5F5F5F5F5F5F5F5F5F5F5F5F5F5F5F5F5F5F5F5F5F5F5F5F5F5F5F5F5F5F5F5F5F5F5F5F5F5F5F5E2F5F5F5F5F5F5F5F5F5F5F5F5F5F5F5F5F5F5F5F5F5E2E2F5F5F5F5F5F5F5F5F5F5F5F5F5F5F5
310
F5F5F5F5F5F5E2E2E2E2E2E2E2E2E2E2E2E2E2E2E2E2E2E2E2E2E2E2E2E2E2E2E2E2E2E2E2E2E2E2E2E2E2E2E2E2E2E2E2E2E2E2E2E2E2E2E2E2E2E2E2E2E2E2E2E2E2E2E2E2E2E2E2E2E2E2E2E2E2E2E2E2E2E2E2E2E2E2E2E2E2E2E2E2E2E2E2E2E2E2E2E2E2E2E2E2E2E2E2E2E2E2E2E2E2E2E2E2E2E2E2E2E2E2E2E2E2
310
E2E2E2E2E2E2E2E2E2E2E2E2E2E2E2F5F5F5F5F5F5F5F5F5F5F5F5F5F5F5F5F5F5F5F5F5E2E2F5F5F5F5F5F5F5F5F5F5F5F5F5F5F5F5F5F5F5F5F5F5F5F5F5F5F5F5F5F5F5F5F5F5F5F5F5F5F5F5F5F5F5F5F5F5F5F5F5F5F5F5F5F5F5F5F5F5F5F5F5F5F5F5F5F5F5F5F5F5F5F5F5F5F5F5F5F5F5F5F5F5F5F5F5F5F5F5F5
310
F5F5F5F5F5F5F5F5F5F5F5F5F5F5F5F5F5F5F5F5F5F5F5F5F5F5F5F5F5F5F5F5F5F5F5F5F5F5F5F5F5F5F5F5F5F5F5F5F5F5F5F5F5F5F5F5F5F5F5F5F5F5F5F5F5F5F5F5F5F5F5F5F5F5F5F5F5F5F5F5F5F5F5F5F5F5F5F5F5E2E2F5F5F5F5F5F5F5F5F5F5F5F5F5F5F5F5F5F5F5F5F5F5F5F5F5F5F5F5F5F5F5F5F5F5F5F5
310
F5F5F5F5F5F5F5F5F5F5F5F5F5F5F5F5F5F5F5F5F5F5F5F5F5F5F5F5F5F5F5F5F5F5F5F5F5F5F5F5F5F5F5F5F5F5F5F5F5F5F5F5F5F5F5F5F5F5F5F5F5F5F5F5F5F5F5F5F5F5F5F5F5F5F5F5F5F5F5F5F5F5F5F5F5F5F5F5F5F5F5F5F5F5F5F5F5F5F5F5F5F5F5F5F5F5F5F5F5F5F5F5F5F5F5F5F5F5F5F5F5F5F5F5F5F5F5
310
F5F5F5F5F5F5F5F5F5F5F5F5F5F5F5E2E2F5F5F5F5F5F5F5F5F5F5F5F5F5F5F5F5F5F5F5F5F5F5F5F5F5F5F5F5F5F5F5F5F5F5F5F5F5F5F5F5F5F5F5F5F5F5F5F5F5F5F5F5F5F5F5F5F5F5F5F5F5F5F5F5F5F5F5F5F5F5F5F5F5F5F5F5F5F5F5F5F5F5F5F5F5F5F5F5F5F5F5F5F5F5F5F5F5F5F5F5F5F5F5F5F5F5F5F5F5F5
310
F5F5F5F5F5F5F5F5F5F5F5F5F5F5F5F5F5F5F5F5F5F5F5F5F5F5F5F5F5F5F5F5F5F5F5F5F5F5F5F5F5F5F5F5F5F5F5F5F5F5F5F5F5F5F5F5F5F5F5F5F5F5F5F5F5F5F5F5E2E2F5F5F5F5F5F5F5F5F5F5F5F5F5F5F5F5F5F5F5F5F5F5F5F5F5F5F5F5F5F5F5F5F5F5F5F5F5F5F5F5F5F5F5F5F5F5F5F5F5F5F5F5F5F5F5F5F5
310
F5F5F5F5F5F5F5F5F5F5F5F5F5F5F5F5F5F5F5F5F5F5F5F5F5F5F5F5F5F5F5F5F5F5F5F5F5F5F5F5F5F5F5F5F5F5F5F5F5F5F5F5F5F5F5F5F5F5F5F5F5F5F5F5F5F5F5F5F5F5F5F5F5F5F5F5F5F5F5F5F5F5F5F5F5F5F5F5F5F5F5F5F5F5F5F5F5F5F5F5F5F5F5F5F5F5F5F5F5F5F5F5F5F5F5F5F5F5F5F5F5E2E2F5F5F5F5
310
E2F5F5F5F5F5F5F5F5F5F5F5F5F5F5F5F5F5F5F5F5F5F5F5F5F5F5F5F5F5F5F5F5F5F5F5F5F5F5F5F5F5F5F5F5F5F5F5F5F5F5F5F5F5F5F5F5F5F5F5F5F5F5F5F5F5F5F5F5F5F5F5F5F5F5F5F5F5F5F5F5F5F5F5F5F5F5F5F5F5F5F5F5F5F5F5F5F5F5F5F5F5F5F5F5F5F5F5F5F5F5F5F5F5F5F5F5F5F5F5F5F5F5F5F5F5F5
310
F5F5F5F5F5F5F5F5F5F5F5F5F5F5F5F5F5F5F5F5F5F5F5F5F5F5F5F5F5F5F5F5F5F5F5F5F5F5F5F5F5F5E2F5F5F5F5E2E2F5F5F5F5E2F5F5F5F5F5F5F5F5F5F5F5F5F5F5F5F5F5F5F5F5F5F5F5F5F5F5F5F5F5F5F5F5F5F5F5F5F5F5F5F5F5F5F5F5F5F5F5F5F5F5F5F5F5F5F5F5F5F5F5F5F5F5F5F5F5F5F5F5F5F5F5F5F5
310
F5F5F5F5F5F5F5F5F5F5F5F5F5F5F5F5F5F5F5F5F5F5F5F5F5F5F5F5F5F5F5F5F5F5F5F5F5F5F5F5F5F5F5F5F5F5F5F5F5F5F5F5F5F5F5F5F5F5F5F5F5F5F5F5F5F5F5F5F5F5F5F5F5F5F5F5F5F5F5F5F5F5F5F5F5F5F5F5F5F5F5F5F5F5F5E2F5F5F5F5E2E2F5F5F5F5E2F5F5F5F5F5F5F5F5F5F5F5F5F5F5F5F5F5F5F5F5
310
F5F5F5F5F5F5F5F5F5F5F5F5F5F5F5F5F5F5F5F5F5F5F5F5F5F5F5F5F5F5F5F5F5F5F5F5F5F5F5F5F5F5F5F5F5F5F5F5F5F5F5F5F5F5F5F5F5F5F5F5F5F5F5F5F5F5F5F5F5F5F5F5F5F5F5F5F5F5F5F5F5F5F5F5F5F5F5F5F5F5F5F5F5F5F5F5F5F5F5F5F5F5F5F5F5F5F5F5F5F5F5F5F5F5F5F5F5F5F5F5F5F5F5F5F5F5F5
310
F5F5F5F5F5F5F5F5F5F5F5F5F5F5F5F5F5F5F5F5F5E2F5F5F5F5E2E2F5F5F5F5E2F5F5F5F5F5F5F5F5F5F5F5F5F5F5F5F5F5F5F5F5F5F5F5F5F5F5F5F5F5F5F5F5F5F5F5F5F5F5F5F5F5F5F5F5F5F5F5F5F5F5F5F5F5F5F5F5F5F5F5F5F5F5F5F5F5F5F5F5F5F5F5F5F5F5F5F5F5F5F5F5F5F5F5F5F5F5F5F5F5F5F5F5F5F5
310
F5F5F5F5F5F5F5F5F5F5F5F5F5F5F5F5F5F5F5F5F5F5F5F5F5F5F5F5F5F5F5F5F5F5F5F5F5F5F5F5F5F5F5F5F5F5F5F5F5F5F5F5F5F5F5F5F5F5F5F5F5F5F5F5F5F5F5F5F5F5F5F5F5F5E2F5F5F5F5E2E2F5F5F5F5E2F5F5F5F5F5F5F5F5F5F5F5F5F5F5F5F5F5F5F5F5F5F5F5F5F5F5F5F5F5F5F5F5F5F5F5F5F5F5F5F5F5
310
F5F5F5F5F5F5F5F5F5F5F5F5F5F5F5F5F5F5F5F5F5F5F5F5F5F5F5F5F5F5F5F5F5F5F5F5F5F5F5F5F5F5F5F5F5F5F5F5F5F5F5F5F5F5F5F5F5F5F5F5F5F5F5F5F5F5F5F5F5F5F5F5F5F5F5F5F5F5F5F5F5F5F5F5F5F5F5F5F5F5F5F5F5F5F5F5F5F5F5F5F5F5F5F5F5F5F5F5F5F5F5F5F5F5F5F5F5F5F5F5F5F5F5F5F5F5F5
310
E2F5F5F5F5E2E2F5F5F5F5E2F5F5F5F5F5F5F5F5F5F5F5F5F5F5F5F5F5F5F5F5F5F5F5F5F5F5F5F5F5F5F5F5F5F5F5F5F5F5F5F5F5F5F5F5F5F5F5F5F5F5F5F5F5F5F5F5F5F5F5F5F5F5F5F5F5F5F5F5F5F5F5F5F5F5F5F5F5F5F5F5F5F5F5F5F5F5F5F5F5F5F5F5F5F5F5F5F5F5F5F5F5F5F5F5F5F5F5F5F5F5F5F5F5F5F5
310
F5F5F5F5F5F5F5F5F5F5F5F5F5F5F5F5F5F5F5F5F5F5F5F5F5F5F5F5F5F5F5F5F5F5F5F5F5F5F5F5F5F5F5F5F5F5F5F5F5F5F5F5F5E2F5F5F5F5E2E2F5F5F5F5E2F5F5F5F5F5F5F5F5F5F5F5F5F5F5F5F5F5F5F5F5F5F5F5F5F5F5F5F5F5F5F5F5F5F5F5F5F5F5F5F5F5F5F5F5F5F5F5F5F5F5F5F5F5F5F5F5F5F5F5F5F5F5
310
F5F5F5F5F5F5F5F5F5F5F5F5F5F5F5F5F5F5F5F5F5F5F5F5F5F5F5F5F5F5F5F5F5F5F5F5F5F5F5F5F5F5F5F5F5F5F5F5F5F5F5F5F5F5F5F5F5F5F5F5F5F5F5F5F5F5F5F5F5F5F5F5F5F5F5F5F5F5F5F5F5F5F5F5F5F5F5F5F5F5F5F5F5F5F5F5F5F5F5F5F5F5F5F5F5F5E2F5F5F5F5E2E2F5F5F5F5E2F5F5F5F5F5F5F5F5F5
310
F5F5F5F5F5F5F5F5F5F5F5F5F5F5F5F5F5F5F5F5F5F5F5F5F5F5F5F5F5F5F5F5F5F5F5F5F5F5F5F5F5F5F5F5F5F5F5F5F5F5F5F5F5F5F5F5F5F5F5F5F5F5F5F5F5F5F5F5F5F5F5F5F5F5F5F5F5F5F5F5F5F5F5F5F5F5F5F5F5F5F5F5F5F5F5F5F5F5F5F5F5F5F5F5F5F5F5F5F5F5F5F5F5F5F5F5F5F5F5F5F5F5F5F5F5F5F5
310
F5F5F5F5F5F5F5F5F5F5F5F5F5F5F5F5F5F5F5F5F5F5F5F5F5F5F5F5F5F5F5F5E2F5F5F5F5E2E2F5F5F5F5E2E2E2E2E2E2E2E2F5F5F5F5F5F5F5F5F5E2E2E2E2E2E2E2E2E2E2E2E2E2E2E2F5F5F5F5F5F5F5F5F5E2E2E2E2E2E2E2E2E2E2E2E2E2E2E2E2F5F5F5F5F5F5F5F5E2E2E2E2E2E2E2E2E2E2E2E2E2E2E2E2F5F5F5
310
F5F5F5F5F5E2E2E2E2E2E2E2E2E2E2E2E2E2E2E2E2F5F5F5F5F5F5F5F5E2E2E2E2E2E2E2E2E2E2E2E2E2E2E2E2F5F5F5F5F5F5F5F5F5E2E2E2E2E2E2E2E2E2E2E2E2E2E2E2F5F5F5F5F5F5F5F5F5E2E2E2E2E2E2E2E2F5F5F5F5E2E2F5F5F5F5F5F5F5F5F5F5F5F5F5F5F5F5F5F5F5F5F5F5F5F5F5F5F5F5F5F5F5F5F5F5F5
310
F5F5F5F5F5F5F5F5F5F5F5F5F5F5F5F5F5F5F5F5F5F5F5F5F5F5F5F5F5F5F5F5F5F5F5F5F5F5F5F5F5F5F5F5F5F5F5F5F5F5F5F5F5F5F5F5F5F5F5F5F5F5F5F5F5F5F5F5F5F5F5F5F5F5F5F5F5F5F5F5F5F5F5F5F5F5F5F5F5F5F5F5F5F5F5F5F5F5F5F5F5F5F5F5F5F5F5F5F5F5F5F5F5F5F5F5F5F5F5F5F5F5F5F5F5F5F5
310
F5F5F5F5F5F5F5F5F5F5F5F5F5F5F5F5E2E2F5F5F5F5F5F5F5F5F5F5F5F5F5F5F5F5F5F5F5F5F5F5F5F5F5F5F5F5F5F5F5F5F5F5F5F5F5F5F5F5F5F5F5F5F5F5F5F5F5F5F5F5F5F5F5F5F5F5F5F5F5F5F5F5F5F5F5F5F5F5F5F5F5F5F5F5F5F5F5F5F5F5F5F5F5F5F5F5F5F5F5F5F5F5F5F5F5F5F5F5F5F5F5F5F5F5F5F5F5
310
F5F5F5F5F5F5F5F5F5F5F5F5F5F5F5F5F5F5F5F5F5F5F5F5F5F5F5F5F5F5F5F5F5F5F5F5F5F5F5F5F5F5F5F5F5F5F5F5F5F5F5F5F5F5F5F5F5F5F5F5F5F5F5F5F5F5F5F5F5E2E2F5F5F5F5F5F5F5F5F5F5F5F5F5F5F5F5F5F5F5F5F5F5F5F5F5F5F5F5F5F5F5F5F5F5F5F5F5F5F5F5F5F5F5F5F5F5F5F5F5F5F5F5F5F5F5F5
310
F5F5F5F5F5F5F5F5F5F5F5F5F5F5F5F5F5F5F5F5F5F5F5F5F5F5F5F5F5F5F5F5F5F5F5F5F5F5F5F5F5F5F5F5F5F5F5F5F5F5F5F5F5F5F5F5F5F5F5F5F5F5F5F5F5F5F5F5F5F5F5F5F5F5F5F5F5F5F5F5F5F5F5F5F5F5F5F5F5F5F5F5F5F5F5F5F5F5F5F5F5F5F5F5F5F5F5F5F5F5F5F5F5F5F5F5F5F5F5F5F5F5E2E2E2E2E2
310
E2E2E2E2E2E2E2E2E2E2E2E2E2E2E2E2E2E2E2E2E2E2E2E2E2E2E2E2E2E2E2E2E2E2E2E2E2E2E2E2E2E2E2E2E2E2E2E2E2E2E2E2E2E2E2E2E2E2E2E2E2E2E2E2E2E2E2E2E2E2E2E2E2E2E2E2E2E2E2E2E2E2E2E2E2E2E2E2E2E2E2E2E2E2E2E2E2E2E2E2E2E2E2E2E2E2E2E2E2E2E2E2E2E2E2E2E2E2E2E2E2E2E2E2E2E2E2
310
E2E2E2E2E2E2E2E2E2E2E2E2E2E2E2E2E2E2E2E2E2E2E2E2E2E2E2E2E2E2E2E2E2E2E2E2E2E2E2E2E2E2E2E2E2E2E2E2E2
  0
XRECORD
  5
55F63
102
{ACAD_REACTORS
330
B5
102
}
330
B5
100
AcDbXrecord
280
     1
102
SHADEPLOT
 70
     0
102
SHADEPLOTRESLEVEL
 70
     2
102
SHADEPLOTCUSTOMDPI
 70
   300
  0
XRECORD
  5
B6
102
{ACAD_REACTORS
330
B5
102
}
330
B5
100
AcDbXrecord
280
     1
310
28000000B40000008B0000000100080000000000BC610000000000000000000000010000000000000000000000000000FFFFFF000000000000000000000000000000000000000000000000000000000000000000330000006600000099000000CC000000FF00000000330000333300006633000099330000CC330000FF3300
310
0000660000336600006666000099660000CC660000FF66000000990000339900006699000099990000CC990000FF99000000CC000033CC000066CC000099CC0000CCCC0000FFCC000000FF000033FF000066FF000099FF0000CCFF0000FFFF000000003300330033006600330099003300CC003300FF003300003333003333
310
33006633330099333300CC333300FF33330000663300336633006666330099663300CC663300FF66330000993300339933006699330099993300CC993300FF99330000CC330033CC330066CC330099CC3300CCCC3300FFCC330000FF330033FF330066FF330099FF3300CCFF3300FFFF330000006600330066006600660099
310
006600CC006600FF00660000336600333366006633660099336600CC336600FF33660000666600336666006666660099666600CC666600FF66660000996600339966006699660099996600CC996600FF99660000CC660033CC660066CC660099CC6600CCCC6600FFCC660000FF660033FF660066FF660099FF6600CCFF6600
310
FFFF660000009900330099006600990099009900CC009900FF00990000339900333399006633990099339900CC339900FF33990000669900336699006666990099669900CC669900FF66990000999900339999006699990099999900CC999900FF99990000CC990033CC990066CC990099CC9900CCCC9900FFCC990000FF99
310
0033FF990066FF990099FF9900CCFF9900FFFF99000000CC003300CC006600CC009900CC00CC00CC00FF00CC000033CC003333CC006633CC009933CC00CC33CC00FF33CC000066CC003366CC006666CC009966CC00CC66CC00FF66CC000099CC003399CC006699CC009999CC00CC99CC00FF99CC0000CCCC0033CCCC0066CC
310
CC0099CCCC00CCCCCC00FFCCCC0000FFCC0033FFCC0066FFCC0099FFCC00CCFFCC00FFFFCC000000FF003300FF006600FF009900FF00CC00FF00FF00FF000033FF003333FF006633FF009933FF00CC33FF00FF33FF000066FF003366FF006666FF009966FF00CC66FF00FF66FF000099FF003399FF006699FF009999FF00CC
310
99FF00FF99FF0000CCFF0033CCFF0066CCFF0099CCFF00CCCCFF00FFCCFF0000FFFF0033FFFF0066FFFF0099FFFF00CCFFFF00FFFFFF00000000000D0D0D001A1A1A00282828003535350043434300505050005D5D5D006B6B6B00787878008686860093939300A1A1A100AEAEAE00BBBBBB00C9C9C900D6D6D600E4E4E400
310
F1F1F100FFFFFF0000000000000000000000000000000000000000000000000000000000000000000000000000000000F5F5F5F5F5F5F5F5F5F5F5F5F5F5F5F5F5F5F5F5F5F5F5F5F5F5F5F5F5F5F5F5F5F5F5F5F5F5F5F5F5F5F5F5F5F5F5F5F5F5F5F5F5F5F5F5F5F5F5F5F5F5F5F5F5F5F5F5F5F5F5F5F5F5F5F5F5F5F5
310
F5F5F5F5F5F5F5F5F5F5F5F5F5F5F5F5F5F5F5F5F5F5F5F5F5F5F5F5F5F5F5F5F5F5F5F5F5F5F5F5F5F5F5F5F5F5F5F5F5F5F5F5F5F5F5F5F5F5F5F5F5F5F5F5F5F5F5F5F5F5F5F5F5F5F5F5F5F5F5F5F5F5F5F5F5F5F5F5F5F5F5F5F5F5F5F5F5F5F5F5F5F5E2E2E2E2E2E2E2E2E2E2E2E2E2E2E2E2E2E2E2E2E2E2E2E2E2
310
E2E2E2E2E2E2E2E2E2E2E2E2E2E2E2E2E2E2E2E2E2E2E2E2E2E2E2E2E2E2E2E2E2E2E2E2E2E2E2E2E2E2E2E2E2E2E2E2E2E2E2E2E2E2E2E2E2E2E2E2E2E2E2E2E2E2E2E2E2E2E2E2E2E2E2E2E2E2E2E2E2E2E2E2E2E2E2E2E2E2E2E2E2E2E2E2E2E2E2E2E2E2E2E2E2E2E2E2E2E2E2E2E2E2E2E2E2E2E2E2E2E2E2E2E2E2E2
310
E2E2E2E2E2E2E2E2E2E2E2E2E2E2E2E2E2E2E2E2E2E2E2E2E2E2F5F5E2E2E2E2E2E2E2E2E2E2E2E2E2E2E2E2E2E2E2E2E2E2E2E2E2E2E2E2E2E2E2E2E2E2E2E2E2E2E2E2E2E2E2E2E2E2E2E2E2E2E2E2E2E2E2E2E2E2E2E2E2E2E2E2E2E2E2E2E2E2E2E2E2E2E2E2E2E2E2E2E2E2E2E2E2E2E2E2E2E2E2E2E2E2E2E2E2E2E2
310
E2E2E2E2E2E2E2E2E2E2E2E2E2E2E2E2E2E2E2E2E2E2E2E2E2E2E2E2E2E2E2E2E2E2E2E2E2E2E2E2E2E2E2E2E2E2E2E2E2E2E2E2E2E2E2E2E2E2E2E2E2E2E2E2E2E2E2E2E2E2E2E2E2E2E2E2E2E2E2F5F5E2E2E2E2E2E2E2E2E2E2E2E2E2E2E2E2E2E2E2E2E2E2E2E2E2E2E2E2E2E2E2E2E2E2E2E2E2E2E2E2E2E2E2E2E2E2
310
E2E2E2E2E2E2E2E2E2E2E2E2E2E2E2E2E2E2E2E2E2E2E2E2E2E2E2E2E2E2E2E2E2E2E2E2E2E2E2E2E2E2E2E2E2E2E2E2E2E2E2E2E2E2E2E2E2E2E2E2E2E2E2E2E2E2E2E2E2E2E2E2E2E2E2E2E2E2E2E2E2E2E2E2E2E2E2E2E2E2E2E2E2E2E2E2E2E2E2E2E2E2E2E2E2E2E2E2E2E2E2E2E2E2E2E2E2E2E2E2E2E2E2E2E2E2E2
310
E2E2E2E2E2F5F5E2E2E2E2E2E2E2E2E2E2E2E2E2E2E2E2E2E2E2E2E2E2E2E2E2E2E2E2E2E2E2E2E2E2E2E2E2E2E2E2E2E2E2E2E2E2E2E2E2E2E2E2E2E2E2E2E2E2E2E2E2E2E2E2E2E2E2E2E2E2E2E2E2E2E2E2E2E2E2E2E2E2E2E2E2E2E2E2E2E2E2E2E2E2E2E2E2E2E2E2E2E2E2E2E2E2E2E2E2E2E2E2E2E2E2E2E2E2E2E2
310
E2E2E2E2E2E2E2E2E2E2E2E2E2E2E2E2E2E2E2E2E2E2E2E2E2E2E2E2E2E2E2E2E2E2E2E2E2E2E2E2E2E2E2E2E2E2E2E2E2E2E2E2E2E2E2E2E2E2F5F5E2E2E2F5F5F5F5F5F5F5F5E2E2E2E2E2E2E2E2E2F5F5F5F5F5F5F5F5F5F5F5F5F5F5F5F5E2E2E2E2E2E2E2E2E2F5F5F5F5F5F5F5F5F5F5F5F5F5F5F5E2E2E2E2E2E2E2
310
E2E2F5F5F5F5F5F5F5F5F5F5F5F5F5F5F5F5E2E2E2E2E2E2E2E2F5F5F5F5F5F5F5F5F5F5F5F5F5F5F5F5E2E2E2E2E2E2E2E2E2F5F5F5F5F5F5F5F5F5F5F5F5F5F5F5E2E2E2E2E2E2E2E2E2F5F5F5F5F5F5F5F5F5F5F5F5F5F5F5F5E2E2E2E2E2E2E2E2E2F5F5F5F5F5F5F5F5E2E2E2F5F5E2E2E2F5E2E2E2E2E2E2E2E2E2E2
310
E2E2E2E2E2E2E2E2E2E2E2E2E2E2E2E2E2E2E2E2E2E2E2E2E2E2E2E2E2E2E2E2E2E2E2E2E2E2E2E2E2E2E2E2E2E2E2E2E2E2E2E2E2E2E2E2E2E2E2E2E2E2E2E2E2E2E2E2E2E2E2E2E2E2E2E2E2E2E2E2E2E2E2E2E2E2E2E2E2E2E2E2E2E2E2E2E2E2E2E2E2E2E2E2E2E2E2E2E2E2E2E2E2E2E2E2E2E2E2E2E2E2E2E2E2E2E2
310
E2E2E2E2E2E2E2E2E2E2E2E2E2E2E2E2E2E2E2E2E2E2E2E2E2E2E2E2E2E2E2E2E2F5E2E2E2F5F5E2E2E2F5E2E2E2E2E2E2E2E2E2E2E2E2E2E2E2E2E2E2E2E2E2E2E2E2E2E2E2E2E2E2E2E2E2E2E2E2E2E2E2E2E2E2E2E2E2E2E2E2E2E2E2E2E2E2E2E2E2E2E2E2E2E2E2E2E2E2E2E2E2E2E2E2E2E2E2E2E2E2E2E2E2E2E2E2
310
E2E2E2E2E2E2E2E2E2E2E2E2E2E2E2E2E2E2E2E2E2E2E2E2E2E2E2E2E2E2E2E2E2E2E2E2E2E2E2E2E2E2E2E2E2E2E2E2E2E2E2E2E2E2E2E2E2E2E2E2E2E2E2E2E2E2E2E2E2E2E2E2E2E2E2E2E2E2E2E2E2E2E2E2E2E2F5E2E2E2F5F5E2E2E2F5E2E2E2E2E2E2E2E2E2E2E2E2E2E2E2E2E2E2E2E2E2E2E2E2E2E2E2E2E2E2E2
310
E2E2E2E2E2E2E2E2E2E2E2E2E2E2E2E2E2E2E2E2E2E2E2E2E2E2E2E2E2E2E2E2E2E2E2E2E2E2E2E2E2E2E2E2E2E2E2E2E2E2E2E2E2E2E2E2E2E2E2E2E2E2E2E2E2E2E2E2E2E2E2E2E2E2E2E2E2E2E2E2E2E2E2E2E2E2E2E2E2E2E2E2E2E2E2E2E2E2E2E2E2E2E2E2E2E2E2E2E2E2E2E2E2E2E2E2E2E2E2E2E2E2E2E2E2E2E2
310
E2E2E2E2E2E2E2E2E2E2E2E2F5E2E2E2F5F5E2E2E2F5E2E2E2E2E2E2E2E2E2E2E2E2E2E2E2E2E2E2E2E2E2E2E2E2E2E2E2E2E2E2E2E2E2E2E2E2E2E2E2E2E2E2E2E2E2E2E2E2E2E2E2E2E2E2E2E2E2E2E2E2E2E2E2E2E2E2E2E2E2E2E2E2E2E2E2E2E2E2E2E2E2E2E2E2E2E2E2E2E2E2E2E2E2E2E2E2E2E2E2E2E2E2E2E2E2
310
E2E2E2E2E2E2E2E2E2E2E2E2E2E2E2E2E2E2E2E2E2E2E2E2E2E2E2E2E2E2E2E2E2E2E2E2E2E2E2E2E2E2E2E2E2E2E2E2E2E2E2E2E2E2E2E2E2E2E2E2E2E2E2E2E2F5E2E2E2F5F5E2E2E2F5E2E2E2E2E2E2E2E2E2E2E2E2E2E2E2E2E2E2E2E2E2E2E2E2E2E2E2E2E2E2E2E2E2E2E2E2E2E2E2E2E2E2E2E2E2E2E2E2E2E2E2E2
310
E2E2E2E2E2E2E2E2E2E2E2E2E2E2E2E2E2E2E2E2E2E2E2E2E2E2E2E2E2E2E2E2E2E2E2E2E2E2E2E2E2E2E2E2E2E2E2E2E2E2E2E2E2E2E2E2E2E2E2E2E2E2E2E2E2E2E2E2E2E2E2E2E2E2E2E2E2E2E2E2E2E2E2E2E2E2E2E2E2E2E2E2E2E2E2E2E2E2E2E2E2E2E2E2E2E2E2E2E2E2E2E2E2E2E2E2E2E2F5E2E2E2F5F5E2E2E2
310
F5E2E2E2E2E2E2E2E2E2E2E2E2E2E2E2E2E2E2E2E2E2E2E2E2E2E2E2E2E2E2E2E2E2E2E2E2E2E2E2E2E2E2E2E2E2E2E2E2E2E2E2E2E2E2E2E2E2E2E2E2E2E2E2E2E2E2E2E2E2E2E2E2E2E2E2E2E2E2E2E2E2E2E2E2E2E2E2E2E2E2E2E2E2E2E2E2E2E2E2E2E2E2E2E2E2E2E2E2E2E2E2E2E2E2E2E2E2E2E2E2E2E2E2E2E2E2
310
E2E2E2E2E2E2E2E2E2E2E2E2E2E2E2E2E2E2E2E2E2E2E2E2E2E2E2E2E2E2E2E2E2E2E2E2E2E2E2E2E2E2E2E2F5E2E2E2F5F5E2E2E2F5E2E2E2E2E2E2E2E2E2E2E2E2E2E2E2E2E2E2E2E2E2E2E2E2E2E2E2E2E2E2E2E2E2E2E2E2E2E2E2E2E2E2E2E2E2E2E2E2E2E2E2E2E2E2E2E2E2E2E2E2E2E2E2E2E2E2E2E2E2E2E2E2E2
310
E2E2E2E2E2E2E2E2E2E2E2E2E2E2E2E2E2E2E2E2E2E2E2E2E2E2E2E2E2E2E2E2E2E2E2E2E2E2E2E2E2E2E2E2E2E2E2E2E2E2E2E2E2E2E2E2E2E2E2E2E2E2E2E2E2E2E2E2E2E2E2E2E2E2E2E2E2E2E2E2E2E2E2E2E2E2E2E2E2E2E2E2E2E2E2E2E2F5E2E2E2F5F5E2E2E2F5E2E2E2E2E2E2E2E2E2E2E2E2E2E2E2E2E2E2E2E2
310
E2E2E2E2E2E2E2E2E2E2E2E2E2E2E2E2E2E2E2E2E2E2E2E2E2E2E2E2E2E2E2E2E2E2E2E2E2E2E2E2E2E2E2E2E2E2E2E2E2E2E2E2E2E2E2E2E2E2E2E2E2E2E2E2E2E2E2E2E2E2E2E2E2E2E2E2E2E2E2E2E2E2E2E2E2E2E2E2E2E2E2E2E2E2E2E2E2E2E2E2E2E2E2E2E2E2E2E2E2E2E2E2E2E2E2E2E2E2E2E2E2E2E2E2E2E2E2
310
E2E2E2E2E2E2E2E2E2E2E2E2E2E2E2E2E2E2E2E2E2E2E2F5E2E2E2F5F5E2E2E2E2E2E2E2E2E2E2E2E2E2E2E2E2E2E2E2E2E2E2E2E2E2E2E2E2E2E2E2E2E2E2E2E2E2E2E2E2E2E2E2E2E2E2E2E2E2E2E2E2E2E2E2E2E2E2E2E2E2E2E2E2E2E2E2E2E2E2E2E2E2E2E2E2E2E2E2E2E2E2E2E2E2E2E2E2E2E2E2E2E2E2E2E2E2E2
310
E2E2E2E2E2E2E2E2E2E2E2E2E2E2E2E2E2E2E2E2E2E2E2E2E2E2E2E2E2E2E2E2E2E2E2E2E2E2E2E2E2E2E2E2E2E2E2E2E2E2E2E2E2E2E2E2E2E2E2E2E2E2E2E2E2E2E2E2E2E2E2E2E2E2E2E2E2E2E2E2F5F5E2E2E2E2E2E2E2E2E2E2E2E2E2E2E2E2E2E2E2E2E2E2E2E2E2E2E2E2E2E2E2E2E2E2E2E2E2E2E2E2E2E2E2E2E2
310
E2E2E2E2E2E2E2E2E2E2E2E2E2E2E2E2E2E2E2E2E2E2E2E2E2E2E2E2E2E2E2E2E2E2E2E2E2E2E2E2E2E2E2E2E2E2E2E2E2E2E2E2E2E2E2E2E2E2E2E2E2E2E2E2E2E2E2E2E2E2E2E2E2E2E2E2E2E2E2E2E2E2E2E2E2E2E2E2E2E2E2E2E2E2E2E2E2E2E2E2E2E2E2E2E2E2E2E2E2E2E2E2E2E2E2E2E2E2E2E2E2E2E2E2E2E2E2
310
E2E2E2E2E2E2F5F5E2E2E2E2E2E2E2E2E2E2E2E2E2E2E2E2E2E2E2E2E2E2E2E2E2E2E2E2E2E2E2E2E2E2E2E2E2E2E2E2E2E2E2E2E2E2E2E2E2E2E2E2E2E2E2E2E2E2E2E2E2E2E2E2E2E2E2E2E2E2E2E2E2E2E2E2E2E2E2E2E2E2E2E2E2E2E2E2E2E2E2E2E2E2E2E2E2E2E2E2E2E2E2E2E2E2E2E2E2E2E2E2E2E2E2E2E2E2E2
310
E2E2E2E2E2E2E2E2E2E2E2E2E2E2E2E2E2E2E2E2E2E2E2E2E2E2E2E2E2E2E2E2E2E2E2E2E2E2E2E2E2E2E2E2E2E2E2E2E2E2E2E2E2E2E2E2E2E2E2F5F5E2E2E2E2E2E2E2E2E2E2E2E2E2E2E2E2E2E2E2E2E2E2E2E2E2E2E2E2E2E2E2E2E2E2E2E2E2E2E2E2E2E2E2E2E2E2E2E2E2E2E2E2E2E2E2E2E2E2E2E2E2E2E2E2E2E2
310
E2E2E2E2E2E2E2E2E2E2E2E2E2E2E2E2E2E2E2E2E2E2E2E2E2E2E2E2E2E2E2E2E2E2E2E2E2E2E2E2E2E2E2E2E2E2E2E2E2E2E2E2E2E2E2E2E2E2E2E2E2E2E2E2E2E2E2E2E2E2E2E2E2E2E2E2E2E2E2E2E2E2E2E2E2E2E2E2E2E2E2E2E2E2E2E2E2E2E2E2E2E2E2E2E2E2E2E2E2E2E2E2F5F5E2E2E2E2E2E2E2E2E2E2E2E2E2
310
E2E2E2E2E2E2E2F5F5F5F5F5F5F5F5F5F5F5F5F5F5F5F5F5F5F5F5F5F5F5F5F5F5F5F5F5F5F5F5F5F5F5F5F5F5F5F5F5F5F5F5F5F5F5F5F5F5F5F5F5F5F5F5F5F5F5F5F5F5F5F5F5F5F5F5F5F5F5F5F5F5F5F5F5F5F5F5F5F5F5F5F5F5F5F5F5F5F5F5F5F5F5F5F5F5F5F5F5F5F5F5F5F5F5F5F5F5F5F5F5F5F5F5F5F5F5F5
310
F5F5F5F5F5F5F5F5F5F5F5F5F5F5F5F5F5F5E2E2E2E2E2E2E2E2E2E2E2E2E2E2E2E2E2E2E2E2F5F5E2E2E2E2E2E2E2E2E2E2E2E2E2E2E2E2E2E2E2E2F5E2E2E2E2E2E2E2E2E2E2E2E2E2E2E2E2E2E2E2E2E2E2E2E2E2E2E2E2E2E2E2E2E2E2E2E2E2E2E2E2E2E2E2E2E2E2E2E2E2E2E2E2E2E2E2E2E2E2E2E2E2E2E2E2E2E2
310
E2E2E2E2E2E2E2E2E2E2E2E2E2E2E2E2E2E2E2E2E2E2E2E2E2E2E2E2E2E2E2E2E2E2E2E2E2E2E2E2E2E2E2E2E2E2E2E2E2E2E2E2E2E2E2E2E2E2E2E2E2E2E2E2E2E2E2E2E2E2F5E2E2E2E2E2E2E2E2E2E2E2E2E2E2E2E2E2E2E2E2F5F5E2E2E2E2E2E2E2E2E2E2E2E2E2E2E2E2E2E2E2E2F5E2E2E2E2E2E2E2E2E2E2E2E2E2
310
E2E2E2E2E2E2E2E2E2E2E2E2E2E2E2E2E2E2E2E2E2E2E2E2E2E2E2E2E2E2E2E2E2E2E2E2E2E2E2E2E2E2E2E2E2E2E2E2E2E2E2E2E2E2E2E2E2E2E2E2E2E2E2E2E2E2E2E2E2E2E2E2E2E2E2E2E2E2E2E2E2E2E2E2E2E2E2E2E2E2E2E2E2E2E2E2E2E2E2E2E2E2E2E2E2E2E2E2E2E2E2E2E2E2E2E2E2E2E2E2E2E2E2F5E2E2E2
310
E2E2E2E2E2E2E2E2E2E2E2E2E2E2E2E2E2F5F5E2E2E2E2E2E2E2E2E2E2E2E2E2E2E2E2E2E2E2E2F5E2E2E2E2E2E2E2E2E2E2E2E2E2E2E2E2E2E2E2E2E2E2E2E2E2E2E2E2E2E2E2E2E2E2E2E2E2E2E2E2E2E2E2E2E2E2E2E2E2E2E2E2E2E2E2E2E2E2E2E2E2E2E2E2E2E2E2E2E2E2E2E2E2E2E2E2E2E2E2E2E2E2E2E2E2E2E2
310
E2E2E2E2E2E2E2E2E2E2E2E2E2E2E2E2E2E2E2E2E2E2E2E2E2E2E2E2E2E2E2E2E2E2E2E2E2E2E2E2E2E2E2E2E2E2E2E2E2F5E2E2E2E2E2E2E2E2E2E2E2E2E2E2E2E2E2E2E2E2F5F5E2E2E2E2E2E2E2E2E2E2E2E2E2E2E2E2E2E2E2E2F5E2E2E2E2E2E2E2E2E2E2E2E2E2E2E2E2E2E2E2E2E2E2E2E2E2E2E2E2E2E2E2E2E2E2
310
E2E2E2E2E2E2E2E2E2E2E2E2E2E2E2E2E2E2E2E2E2E2E2E2E2E2E2E2E2E2E2E2E2E2E2E2E2E2E2E2E2E2E2E2E2E2E2E2E2E2E2E2E2E2E2E2E2E2E2E2E2E2E2E2E2E2E2E2E2E2E2E2E2E2E2E2E2E2E2E2E2E2E2E2E2E2E2E2E2E2E2E2E2E2E2E2E2E2E2E2E2E2F5E2E2E2E2E2E2E2E2E2E2E2E2E2E2E2E2E2E2E2E2F5F5E2E2
310
E2F5E2E2E2E2E2E2E2E2E2E2E2E2E2E2E2E2F5E2E2E2E2E2E2E2E2E2E2E2E2E2E2E2E2E2E2E2E2E2E2E2E2E2E2E2E2E2E2E2E2E2E2E2E2E2E2E2E2E2E2E2E2E2E2E2E2E2E2E2E2E2E2E2E2E2E2E2E2E2E2E2E2E2E2E2E2E2E2E2E2E2E2E2E2E2E2E2E2E2E2E2E2E2E2E2E2E2E2E2E2E2E2E2E2E2E2E2E2E2E2E2E2E2E2E2E2
310
E2E2E2E2E2E2E2E2E2E2E2E2E2E2E2E2E2E2E2E2E2E2E2E2E2E2E2E2F5E2E2E2E2E2E2E2E2E2E2E2E2E2E2E2E2F5E2E2E2F5F5E2E2E2F5E2E2E2E2E2E2E2E2E2E2E2E2E2E2E2E2F5E2E2E2E2E2E2E2E2E2E2E2E2E2E2E2E2E2E2E2E2E2E2E2E2E2E2E2E2E2E2E2E2E2E2E2E2E2E2E2E2E2E2E2E2E2E2E2E2E2E2E2E2E2E2E2
310
E2E2E2E2E2E2E2E2E2E2E2E2E2E2E2E2E2E2E2E2E2E2E2E2E2E2E2E2E2E2E2E2E2E2E2E2E2E2E2E2E2E2E2E2E2E2E2E2E2E2E2E2E2E2E2E2E2E2E2E2E2E2E2E2E2E2E2E2E2E2E2E2E2E2E2E2E2E2E2E2E2F5E2E2E2E2E2E2E2E2E2E2E2E2E2E2E2E2F5E2E2E2F5F5E2E2E2F5E2E2E2E2E2E2E2E2E2E2E2E2E2E2E2E2F5E2E2
310
E2E2E2E2E2E2E2E2E2E2E2E2E2E2E2E2E2E2E2E2E2E2E2E2E2E2E2E2E2E2E2E2E2E2E2E2E2E2E2E2E2E2E2E2E2E2E2E2E2E2E2E2E2E2E2E2E2E2E2E2E2E2E2E2E2E2E2E2E2E2E2E2E2E2E2E2E2E2E2E2E2E2E2E2E2E2E2E2E2E2E2E2E2E2E2E2E2E2E2E2E2E2E2E2E2E2E2E2E2E2E2E2E2E2E2E2E2E2E2E2E2E2E2E2E2E2E2
310
E2E2E2E2E2E2E2F5E2E2E2E2E2E2E2E2E2E2E2E2E2E2E2E2F5E2E2E2F5F5E2E2E2F5E2E2E2E2E2E2E2E2E2E2E2E2E2E2E2E2F5E2E2E2E2E2E2E2E2E2E2E2E2E2E2E2E2E2E2E2E2E2E2E2E2E2E2E2E2E2E2E2E2E2E2E2E2E2E2E2E2E2E2E2E2E2E2E2E2E2E2E2E2E2E2E2E2E2E2E2E2E2E2E2E2E2E2E2E2E2E2E2E2E2E2E2E2
310
E2E2E2E2E2E2E2E2E2E2E2E2E2E2E2E2E2E2E2E2E2E2E2E2E2E2E2E2E2E2E2E2E2E2E2E2E2E2E2E2E2E2E2E2E2E2E2E2E2E2E2E2E2E2E2E2E2E2E2E2F5E2E2E2E2E2E2E2E2E2E2E2E2E2E2E2E2F5E2E2E2F5F5E2E2E2F5E2E2E2E2E2E2E2E2E2E2E2E2E2E2E2E2F5E2E2E2E2E2E2E2E2E2E2E2E2E2E2E2E2E2E2E2E2E2E2E2
310
E2E2E2E2E2E2E2E2E2E2E2E2E2E2E2E2E2E2E2E2E2E2E2E2E2E2E2E2E2E2E2E2E2E2E2E2E2E2E2E2E2E2E2E2E2E2E2E2E2E2E2E2E2E2E2E2E2E2E2E2E2E2E2E2E2E2E2E2E2E2E2E2E2E2E2E2E2E2E2E2E2E2E2E2E2E2E2E2E2E2E2E2E2E2E2E2E2E2E2E2E2E2E2E2E2E2E2E2E2E2E2E2E2F5E2E2E2E2E2E2E2E2E2E2E2E2E2
310
E2E2E2F5E2E2E2F5F5E2E2E2F5E2E2E2E2E2E2E2E2E2E2E2E2E2E2E2E2F5E2E2E2E2E2E2E2E2E2E2E2E2E2E2E2E2E2E2E2E2E2E2E2E2E2E2E2E2E2E2E2E2E2E2E2E2E2E2E2E2E2E2E2E2E2E2E2E2E2E2E2E2E2E2E2E2E2E2E2E2E2E2E2E2E2E2E2E2E2E2E2E2E2E2E2E2E2E2E2E2E2E2E2E2E2E2E2E2E2E2E2E2E2E2E2E2E2
310
E2E2E2E2E2E2E2E2E2E2E2E2E2E2E2E2E2E2E2E2E2E2E2E2E2E2E2E2E2E2E2E2E2E2E2E2E2E2E2F5E2E2E2E2E2E2E2E2E2E2E2E2E2E2E2E2F5E2E2E2F5F5E2E2E2F5E2E2E2E2E2E2E2E2E2E2E2E2E2E2E2E2F5E2E2E2E2E2E2E2E2E2E2E2E2E2E2E2E2E2E2E2E2E2E2E2E2E2E2E2E2E2E2E2E2E2E2E2E2E2E2E2E2E2E2E2E2
310
E2E2E2E2E2E2E2E2E2E2E2E2E2E2E2E2E2E2E2E2E2E2E2E2E2E2E2E2E2E2E2E2E2E2E2E2E2E2E2E2E2E2E2E2E2E2E2E2E2E2E2E2E2E2E2E2E2E2E2E2E2E2E2E2E2E2E2E2E2E2E2E2E2E2E2E2E2E2E2E2E2E2E2E2E2E2E2E2E2E2E2E2F5E2E2E2E2E2E2E2E2E2E2E2E2E2E2E2E2F5E2E2E2F5F5E2E2E2F5E2E2E2E2E2E2E2E2
310
E2E2E2E2E2E2E2E2F5E2E2E2E2E2E2E2E2E2E2E2E2E2E2E2E2E2E2E2E2E2E2E2E2E2E2E2E2E2E2E2E2E2E2E2E2E2E2E2E2E2E2E2E2E2E2E2E2E2E2E2E2E2E2E2E2E2E2E2E2E2E2E2E2E2E2E2E2E2E2E2E2E2E2E2E2E2E2E2E2E2E2E2E2E2E2E2E2E2E2E2E2E2E2E2E2E2E2E2E2E2E2E2E2E2E2E2E2E2E2E2E2E2E2E2E2E2E2
310
E2E2E2E2E2E2E2E2E2E2E2E2E2E2E2E2E2E2F5E2E2E2E2E2E2E2E2E2E2E2E2E2E2E2E2F5E2E2E2F5F5E2E2E2F5E2E2E2E2E2E2E2E2E2E2E2E2E2E2E2E2F5E2E2E2E2E2E2E2E2E2E2E2E2E2E2E2E2E2E2E2E2E2E2E2E2E2E2E2E2E2E2E2E2E2E2E2E2E2E2E2E2E2E2E2E2E2E2E2E2E2E2E2E2E2E2E2E2E2E2E2E2E2E2E2E2E2
310
E2E2E2E2E2E2E2E2E2E2E2E2E2E2E2E2E2E2E2E2E2E2E2E2E2E2E2E2E2E2E2E2E2E2E2E2E2E2E2E2E2E2E2E2E2E2E2E2E2E2E2E2E2E2E2E2E2E2E2E2E2E2E2E2E2E2E2E2E2E2E2F5E2E2E2E2E2E2E2E2E2E2E2E2E2E2E2E2F5E2E2E2F5F5E2E2E2F5E2E2E2E2E2E2E2E2E2E2E2E2E2E2E2E2F5E2E2E2E2E2E2E2E2E2E2E2E2
310
E2E2E2E2E2E2E2E2E2E2E2E2E2E2E2E2E2E2E2E2E2E2E2E2E2E2E2E2E2E2E2E2E2E2E2E2E2E2E2E2E2E2E2E2E2E2E2E2E2E2E2E2E2E2E2E2E2E2E2E2E2E2E2E2E2E2E2E2E2E2E2E2E2E2E2E2E2E2E2E2E2E2E2E2E2E2E2E2E2E2E2E2E2E2E2E2E2E2E2E2E2E2E2E2E2E2E2E2E2E2E2E2E2E2E2E2E2E2E2E2E2E2E2E2F5E2E2
310
E2E2E2E2E2E2E2E2E2E2E2E2E2E2F5E2E2E2F5F5E2E2E2F5E2E2E2E2E2E2E2E2E2E2E2E2E2E2E2E2F5E2E2E2E2E2E2E2E2E2E2E2E2E2E2E2E2E2E2E2E2E2E2E2E2E2E2E2E2E2E2E2E2E2E2E2E2E2E2E2E2E2E2E2E2E2E2E2E2E2E2E2E2E2E2E2E2E2E2E2E2E2E2E2E2E2E2E2E2E2E2E2E2E2E2E2E2E2E2E2E2E2E2E2E2E2E2
310
E2E2E2E2E2E2E2E2E2E2E2E2E2E2E2E2E2E2E2E2E2E2E2E2E2E2E2E2E2E2E2E2E2E2E2E2E2E2E2E2E2E2E2E2E2E2E2E2E2E2F5E2E2E2E2E2E2E2E2E2E2E2E2E2E2E2E2F5E2E2E2F5F5E2E2E2F5E2E2E2E2E2E2E2E2E2E2E2E2E2E2E2E2F5E2E2E2E2E2E2E2E2E2E2E2E2E2E2E2E2E2E2E2E2E2E2E2E2E2E2E2E2E2E2E2E2E2
310
E2E2E2E2E2E2E2E2E2E2E2E2E2E2E2E2E2E2E2E2E2E2E2E2E2E2E2E2E2E2E2E2E2E2E2E2E2E2E2E2E2E2E2E2E2E2E2E2E2E2E2E2E2E2E2E2E2E2E2E2E2E2E2E2E2E2E2E2E2E2E2E2E2E2E2E2E2E2E2E2E2E2E2E2E2E2E2E2E2E2E2E2E2E2E2E2E2E2E2E2E2E2E2F5E2E2E2E2E2E2E2E2E2E2E2E2E2E2E2E2F5E2E2E2F5F5E2
310
E2E2F5E2E2E2E2E2E2E2E2E2E2E2E2E2E2E2E2F5E2E2E2E2E2E2E2E2E2E2E2E2E2E2E2E2E2E2E2E2E2E2E2E2E2E2E2E2E2E2E2E2E2E2E2E2E2E2E2E2E2E2E2E2E2E2E2E2E2E2E2E2E2E2E2E2E2E2E2E2E2E2E2E2E2E2E2E2E2E2E2E2E2E2E2E2E2E2E2E2E2E2E2E2E2E2E2E2E2E2E2E2E2E2E2E2E2E2E2E2E2E2E2E2E2E2E2
310
E2E2E2E2E2E2E2E2E2E2E2E2E2E2E2E2E2E2E2E2E2E2E2E2E2E2E2E2E2F5E2E2E2E2E2E2E2E2E2E2E2E2E2E2E2E2F5E2E2E2F5F5E2E2E2F5E2E2E2E2E2E2E2E2E2E2E2E2E2E2E2E2F5E2E2E2E2E2E2E2E2E2E2E2E2E2E2E2E2E2E2E2E2E2E2E2E2E2E2E2E2E2E2E2E2E2E2E2E2E2E2E2E2E2E2E2E2E2E2E2E2E2E2E2E2E2E2
310
E2E2E2E2E2E2E2E2E2E2E2E2E2E2E2E2E2E2E2E2E2E2E2E2E2E2E2E2E2E2E2E2E2E2E2E2E2E2E2E2E2E2E2E2E2E2E2E2E2E2E2E2E2E2E2E2E2E2E2E2E2E2E2E2E2E2E2E2E2E2E2E2E2E2E2E2E2E2E2E2E2E2F5E2E2E2E2E2E2E2E2E2E2E2E2E2E2E2E2F5E2E2E2F5F5E2E2E2F5E2E2E2E2E2E2E2E2E2E2E2E2E2E2E2E2F5E2
310
E2E2E2E2E2E2E2E2E2E2E2E2E2E2E2E2E2E2E2E2E2E2E2E2E2E2E2E2E2E2E2E2E2E2E2E2E2E2E2E2E2E2E2E2E2E2E2E2E2E2E2E2E2E2E2E2E2E2E2E2E2E2E2E2E2E2E2E2E2E2E2E2E2E2E2E2E2E2E2E2E2E2E2E2E2E2E2E2E2E2E2E2E2E2E2E2E2E2E2E2E2E2E2E2E2E2E2E2E2E2E2E2E2E2E2E2E2E2E2E2E2E2E2E2E2E2E2
310
E2E2E2E2E2E2E2E2F5E2E2E2E2E2E2E2E2E2E2E2E2E2E2E2E2F5E2E2E2F5F5E2E2E2F5E2E2E2E2E2E2E2E2E2E2E2E2E2E2E2E2F5E2E2E2E2E2E2E2E2E2E2E2E2E2E2E2E2E2E2E2E2E2E2E2E2E2E2E2E2E2E2E2E2E2E2E2E2E2E2E2E2E2E2E2E2E2E2E2E2E2E2E2E2E2E2E2E2E2E2E2E2E2E2E2E2E2E2E2E2E2E2E2E2E2E2E2
310
E2E2E2E2E2E2E2E2E2E2E2E2E2E2E2E2E2E2E2E2E2E2E2E2E2E2E2E2E2E2E2E2E2E2E2E2E2E2E2E2E2E2E2E2E2E2E2E2E2E2E2E2E2E2E2E2E2E2E2E2E2F5E2E2E2E2E2E2E2E2E2E2E2E2E2E2E2E2F5E2E2E2F5F5E2E2E2F5E2E2E2E2E2E2E2E2E2E2E2E2E2E2E2E2F5E2E2E2E2E2E2E2E2E2E2E2E2E2E2E2E2E2E2E2E2E2E2
310
E2E2E2E2E2E2E2E2E2E2E2E2E2E2E2E2E2E2E2E2E2E2E2E2E2E2E2E2E2E2E2E2E2E2E2E2E2E2E2E2E2E2E2E2E2E2E2E2E2E2E2E2E2E2E2E2E2E2E2E2E2E2E2E2E2E2E2E2E2E2E2E2E2E2E2E2E2E2E2E2E2E2E2E2E2E2E2E2E2E2E2E2E2E2E2E2E2E2E2E2E2E2E2E2E2E2E2E2E2E2E2E2E2E2F5E2E2E2E2E2E2E2E2E2E2E2E2
310
E2E2E2E2F5E2E2E2F5F5E2E2E2E2E2E2E2E2E2E2E2E2E2E2E2E2E2E2E2E2F5E2E2E2E2E2E2E2E2E2E2E2E2E2E2E2E2E2E2E2E2E2E2E2E2E2E2E2E2E2E2E2E2E2E2E2E2E2E2E2E2E2E2E2E2E2E2E2E2E2E2E2E2E2E2E2E2E2E2E2E2E2E2E2E2E2E2E2E2E2E2E2E2E2E2E2E2E2E2E2E2E2E2E2E2E2E2E2E2E2E2E2E2E2E2E2E2
310
E2E2E2E2E2E2E2E2E2E2E2E2E2E2E2E2E2E2E2E2E2E2E2E2E2E2E2E2E2E2E2E2E2E2E2E2E2E2E2E2F5E2E2E2E2E2E2E2E2E2E2E2E2E2E2E2E2E2E2E2E2F5F5E2E2E2E2E2E2E2E2E2E2E2E2E2E2E2E2E2E2E2E2F5E2E2E2E2E2E2E2E2E2E2E2E2E2E2E2E2E2E2E2E2E2E2E2E2E2E2E2E2E2E2E2E2E2E2E2E2E2E2E2E2E2E2E2
310
E2E2E2E2E2E2E2E2E2E2E2E2E2E2E2E2E2E2E2E2E2E2E2E2E2E2E2E2E2E2E2E2E2E2E2E2E2E2E2E2E2E2E2E2E2E2E2E2E2E2E2E2E2E2E2E2E2E2E2E2E2E2E2E2E2E2E2E2E2E2E2E2E2E2E2E2E2E2E2E2E2E2E2E2E2E2E2E2E2E2E2E2E2F5E2E2E2E2E2E2E2E2E2E2E2E2E2E2E2E2E2E2E2E2F5F5E2E2E2E2E2E2E2E2E2E2E2
310
E2E2E2E2E2E2E2E2E2F5E2E2E2E2E2E2E2E2E2E2E2E2E2E2E2E2E2E2E2E2E2E2E2E2E2E2E2E2E2E2E2E2E2E2E2E2E2E2E2E2E2E2E2E2E2E2E2E2E2E2E2E2E2E2E2E2E2E2E2E2E2E2E2E2E2E2E2E2E2E2E2E2E2E2E2E2E2E2E2E2E2E2E2E2E2E2E2E2E2E2E2E2E2E2E2E2E2E2E2E2E2E2E2E2E2E2E2E2E2E2E2E2E2E2E2E2E2
310
E2E2E2E2E2E2E2E2E2E2E2E2E2E2E2E2E2E2E2F5E2E2E2E2E2E2E2E2E2E2E2E2E2E2E2E2E2E2E2E2F5F5E2E2E2E2E2E2E2E2E2E2E2E2E2E2E2E2E2E2E2E2F5E2E2E2E2E2E2E2E2E2E2E2E2E2E2E2E2E2E2E2E2E2E2E2E2E2E2E2E2E2E2E2E2E2E2E2E2E2E2E2E2E2E2E2E2E2E2E2E2E2E2E2E2E2E2E2E2E2E2E2E2E2E2E2E2
310
E2E2E2E2E2E2E2E2E2E2E2E2E2E2E2E2E2E2E2E2E2E2E2E2E2E2E2E2E2E2E2E2E2E2E2E2E2E2E2E2E2E2E2E2E2E2E2E2E2E2E2E2E2E2E2E2E2E2E2E2E2E2E2E2E2E2E2E2E2E2E2E2F5E2E2E2E2E2E2E2E2E2E2E2E2E2E2E2E2E2E2E2E2F5F5E2E2E2E2E2E2E2E2E2E2E2E2E2E2E2E2E2E2E2E2F5E2E2E2E2E2E2E2E2E2E2E2
310
E2E2E2E2E2E2E2E2E2E2E2E2E2E2E2E2E2E2E2E2E2E2E2E2E2E2E2E2E2E2E2E2E2E2E2E2E2E2E2E2E2E2E2E2E2E2E2E2E2E2E2E2E2E2E2E2E2E2E2E2E2E2E2E2E2E2E2E2E2E2E2E2E2E2E2E2E2E2E2E2E2E2E2E2E2E2E2E2E2E2E2E2E2E2E2E2E2E2E2E2E2E2E2E2E2E2E2E2E2E2E2E2E2E2E2E2E2E2E2E2E2E2E2E2E2F5E2
310
E2E2E2E2E2E2E2E2E2E2E2E2E2E2E2E2E2E2E2F5F5E2E2E2E2E2E2E2E2E2E2E2E2E2E2E2E2E2E2E2E2F5E2E2E2E2E2E2E2E2E2E2E2E2E2E2E2E2E2E2E2E2E2E2E2E2E2E2E2E2E2E2E2E2E2E2E2E2E2E2E2E2E2E2E2E2E2E2E2E2E2E2E2E2E2E2E2E2E2E2E2E2E2E2E2E2E2E2E2E2E2E2E2E2E2E2E2E2E2E2E2E2E2E2E2E2E2
310
E2E2E2E2E2E2E2E2E2E2E2E2E2E2E2E2E2E2E2E2E2E2E2E2E2E2E2E2E2E2E2E2E2E2E2E2E2E2E2E2E2E2E2E2E2E2E2E2E2E2E2F5E2E2E2E2E2E2E2E2E2E2E2E2E2E2E2E2E2E2E2E2F5F5E2E2E2E2E2E2E2E2E2E2E2E2E2E2E2E2E2E2E2E2F5E2E2E2E2E2E2E2E2E2E2E2E2E2E2E2E2E2E2E2E2E2E2E2E2E2E2E2E2E2E2E2E2
310
E2E2E2E2E2E2E2E2E2E2E2E2E2E2E2E2E2E2E2E2E2E2E2E2E2E2E2E2E2E2E2E2E2E2E2E2E2E2E2E2E2E2E2E2E2E2E2E2E2E2E2E2E2E2E2E2E2E2E2E2E2E2E2E2E2E2E2E2E2E2E2E2E2E2E2E2E2E2E2E2E2E2E2E2E2E2E2E2E2E2E2E2E2E2E2E2E2E2E2E2E2E2E2E2F5E2E2E2E2E2E2E2E2E2E2E2E2E2E2E2E2E2E2E2E2F5F5
310
E2E2E2E2E2E2E2E2E2E2E2E2E2E2E2E2E2E2E2E2F5E2E2E2E2E2E2E2E2E2E2E2E2E2E2E2E2E2E2E2E2E2E2E2E2E2E2E2E2E2E2E2E2E2E2E2E2E2E2E2E2E2E2E2E2E2E2E2E2E2E2E2E2E2E2E2E2E2E2E2E2E2E2E2E2E2E2E2E2E2E2E2E2E2E2E2E2E2E2E2E2E2E2E2E2E2E2E2E2E2E2E2E2E2E2E2E2E2E2E2E2E2E2E2E2E2E2
310
E2E2E2E2E2E2E2E2E2E2E2E2E2E2E2E2E2E2E2E2E2E2E2E2E2E2E2E2E2E2F5E2E2E2E2E2E2E2E2E2E2E2E2E2E2E2E2E2E2E2E2F5F5E2E2E2E2E2E2E2E2E2E2E2E2E2E2E2E2E2E2E2E2F5E2E2E2E2E2E2E2E2E2E2E2E2E2E2E2E2E2E2E2E2E2E2E2E2E2E2E2E2E2E2E2E2E2E2E2E2E2E2E2E2E2E2E2E2E2E2E2E2E2E2E2E2E2
310
E2E2E2E2E2E2E2E2E2E2E2E2E2E2E2E2E2E2E2E2E2E2E2E2E2E2E2E2E2E2E2E2E2E2E2E2E2E2E2E2E2E2E2E2E2E2E2E2E2E2E2E2E2E2E2E2E2E2E2E2E2E2E2E2E2E2E2E2E2E2E2E2E2E2E2E2E2E2E2E2E2E2E2F5E2E2E2E2E2E2E2E2E2E2E2E2E2E2E2E2E2E2E2E2F5F5E2E2E2F5E2E2E2E2E2E2E2E2E2E2E2E2E2E2E2E2F5
310
E2E2E2E2E2E2E2E2E2E2E2E2E2E2E2E2E2E2E2E2E2E2E2E2E2E2E2E2E2E2E2E2E2E2E2E2E2E2E2E2E2E2E2E2E2E2E2E2E2E2E2E2E2E2E2E2E2E2E2E2E2E2E2E2E2E2E2E2E2E2E2E2E2E2E2E2E2E2E2E2E2E2E2E2E2E2E2E2E2E2E2E2E2E2E2E2E2E2E2E2E2E2E2E2E2E2E2E2E2E2E2E2E2E2E2E2E2E2E2E2E2E2E2E2E2E2E2
310
E2E2E2E2E2E2E2E2E2F5E2E2E2E2E2E2E2E2E2E2E2E2E2E2E2E2F5E2E2E2F5F5E2E2E2F5E2E2E2E2E2E2E2E2E2E2E2E2E2E2E2E2F5E2E2E2E2E2E2E2E2E2E2E2E2E2E2E2E2E2E2E2E2E2E2E2E2E2E2E2E2E2E2E2E2E2E2E2E2E2E2E2E2E2E2E2E2E2E2E2E2E2E2E2E2E2E2E2E2E2E2E2E2E2E2E2E2E2E2E2E2E2E2E2E2E2E2
310
E2E2E2E2E2E2E2E2E2E2E2E2E2E2E2E2E2E2E2E2E2E2E2E2E2E2E2E2E2E2E2E2E2E2E2E2E2E2E2E2E2E2E2E2E2E2E2E2E2E2E2E2E2E2E2E2E2E2E2E2E2E2F5E2E2E2E2E2E2E2E2E2E2E2E2E2E2E2E2F5E2E2E2F5F5E2E2E2F5E2E2E2E2E2E2E2E2E2E2E2E2E2E2E2E2F5E2E2E2E2E2E2E2E2E2E2E2E2E2E2E2E2E2E2E2E2E2
310
E2E2E2E2E2E2E2E2E2E2E2E2E2E2E2E2E2E2E2E2E2E2E2E2E2E2E2E2E2E2E2E2E2E2E2E2E2E2E2E2E2E2E2E2E2E2E2E2E2E2E2E2E2E2E2E2E2E2E2E2E2E2E2E2E2E2E2E2E2E2E2E2E2E2E2E2E2E2E2E2E2E2E2E2E2E2E2E2E2E2E2E2E2E2E2E2E2E2E2E2E2E2E2E2E2E2E2E2E2E2E2E2E2E2E2F5E2E2E2E2E2E2E2E2E2E2E2
310
E2E2E2E2E2F5E2E2E2F5F5E2E2E2F5E2E2E2E2E2E2E2E2E2E2E2E2E2E2E2E2F5E2E2E2E2E2E2E2E2E2E2E2E2E2E2E2E2E2E2E2E2E2E2E2E2E2E2E2E2E2E2E2E2E2E2E2E2E2E2E2E2E2E2E2E2E2E2E2E2E2E2E2E2E2E2E2E2E2E2E2E2E2E2E2E2E2E2E2E2E2E2E2E2E2E2E2E2E2E2E2E2E2E2E2E2E2E2E2E2E2E2E2E2E2E2E2
310
E2E2E2E2E2E2E2E2E2E2E2E2E2E2E2E2E2E2E2E2E2E2E2E2E2E2E2E2E2E2E2E2E2E2E2E2E2E2E2E2E2F5E2E2E2E2E2E2E2E2E2E2E2E2E2E2E2E2F5E2E2E2F5F5E2E2E2F5E2E2E2E2E2E2E2E2E2E2E2E2E2E2E2E2F5E2E2E2E2E2E2E2E2E2E2E2E2E2E2E2E2E2E2E2E2E2E2E2E2E2E2E2E2E2E2E2E2E2E2E2E2E2E2E2E2E2E2
310
E2E2E2E2E2E2E2E2E2E2E2E2E2E2E2E2E2E2E2E2E2E2E2E2E2E2E2E2E2E2E2E2E2E2E2E2E2E2E2E2E2E2E2E2E2E2E2E2E2E2E2E2E2E2E2E2E2E2E2E2E2E2E2E2E2E2E2E2E2E2E2E2E2E2E2E2E2E2E2E2E2E2E2E2E2E2E2E2E2E2E2E2E2E2F5E2E2E2E2E2E2E2E2E2E2E2E2E2E2E2E2F5E2E2E2F5F5E2E2E2F5E2E2E2E2E2E2
310
E2E2E2E2E2E2E2E2E2E2F5E2E2E2E2E2E2E2E2E2E2E2E2E2E2E2E2E2E2E2E2E2E2E2E2E2E2E2E2E2E2E2E2E2E2E2E2E2E2E2E2E2E2E2E2E2E2E2E2E2E2E2E2E2E2E2E2E2E2E2E2E2E2E2E2E2E2E2E2E2E2E2E2E2E2E2E2E2E2E2E2E2E2E2E2E2E2E2E2E2E2E2E2E2E2E2E2E2E2E2E2E2E2E2E2E2E2E2E2E2E2E2E2E2E2E2E2
310
E2E2E2E2E2E2E2E2E2E2E2E2E2E2E2E2E2E2E2E2F5E2E2E2E2E2E2E2E2E2E2E2E2E2E2E2E2F5E2E2E2F5F5E2E2E2F5E2E2E2E2E2E2E2E2E2E2E2E2E2E2E2E2F5E2E2E2E2E2E2E2E2E2E2E2E2E2E2E2E2E2E2E2E2E2E2E2E2E2E2E2E2E2E2E2E2E2E2E2E2E2E2E2E2E2E2E2E2E2E2E2E2E2E2E2E2E2E2E2E2E2E2E2E2E2E2E2
310
E2E2E2E2E2E2E2E2E2E2E2E2E2E2E2E2E2E2E2E2E2E2E2E2E2E2E2E2E2E2E2E2E2E2E2E2E2E2E2E2E2E2E2E2E2E2E2E2E2E2E2E2E2E2E2E2E2E2E2E2E2E2E2E2E2E2E2E2E2E2E2E2E2F5E2E2E2E2E2E2E2E2E2E2E2E2E2E2E2E2F5E2E2E2F5F5E2E2E2F5E2E2E2E2E2E2E2E2E2E2E2E2E2E2E2E2F5E2E2E2E2E2E2E2E2E2E2
310
E2E2E2E2E2E2E2E2E2E2E2E2E2E2E2E2E2E2E2E2E2E2E2E2E2E2E2E2E2E2E2E2E2E2E2E2E2E2E2E2E2E2E2E2E2E2E2E2E2E2E2E2E2E2E2E2E2E2E2E2E2E2E2E2E2E2E2E2E2E2E2E2E2E2E2E2E2E2E2E2E2E2E2E2E2E2E2E2E2E2E2E2E2E2E2E2E2E2E2E2E2E2E2E2E2E2E2E2E2E2E2E2E2E2E2E2E2E2E2E2E2E2E2E2E2E2F5
310
E2E2E2E2E2E2E2E2E2E2E2E2E2E2E2E2F5E2E2E2F5F5E2E2E2F5E2E2E2E2E2E2E2E2E2E2E2E2E2E2E2E2F5E2E2E2E2E2E2E2E2E2E2E2E2E2E2E2E2E2E2E2E2E2E2E2E2E2E2E2E2E2E2E2E2E2E2E2E2E2E2E2E2E2E2E2E2E2E2E2E2E2E2E2E2E2E2E2E2E2E2E2E2E2E2E2E2E2E2E2E2E2E2E2E2E2E2E2E2E2E2E2E2E2E2E2E2
310
E2E2E2E2E2E2E2E2E2E2E2E2E2E2E2E2E2E2E2E2E2E2E2E2E2E2E2E2E2E2E2E2E2E2E2E2E2E2E2E2E2E2E2E2E2E2E2E2E2E2E2E2F5E2E2E2E2E2E2E2E2E2E2E2E2E2E2E2E2F5E2E2E2F5F5E2E2E2F5E2E2E2E2E2E2E2E2E2E2E2E2E2E2E2E2F5E2E2E2E2E2E2E2E2E2E2E2E2E2E2E2E2E2E2E2E2E2E2E2E2E2E2E2E2E2E2E2
310
E2E2E2E2E2E2E2E2E2E2E2E2E2E2E2E2E2E2E2E2E2E2E2E2E2E2E2E2E2E2E2E2E2E2E2E2E2E2E2E2E2E2E2E2E2E2E2E2E2E2E2E2E2E2E2E2E2E2E2E2E2E2E2E2E2E2E2E2E2E2E2E2E2E2E2E2E2E2E2E2E2E2E2E2E2E2E2E2E2E2E2E2E2E2E2E2E2E2E2E2E2E2E2E2E2F5E2E2E2E2E2E2E2E2E2E2E2E2E2E2E2E2F5E2E2E2F5
310
F5E2E2E2F5E2E2E2E2E2E2E2E2E2E2E2E2E2E2E2E2F5E2E2E2E2E2E2E2E2E2E2E2E2E2E2E2E2E2E2E2E2E2E2E2E2E2E2E2E2E2E2E2E2E2E2E2E2E2E2E2E2E2E2E2E2E2E2E2E2E2E2E2E2E2E2E2E2E2E2E2E2E2E2E2E2E2E2E2E2E2E2E2E2E2E2E2E2E2E2E2E2E2E2E2E2E2E2E2E2E2E2E2E2E2E2E2E2E2E2E2E2E2E2E2E2E2
310
E2E2E2E2E2E2E2E2E2E2E2E2E2E2E2E2E2E2E2E2E2E2E2E2E2E2E2E2E2E2E2F5E2E2E2E2E2E2E2E2E2E2E2E2E2E2E2E2F5E2E2E2F5F5E2E2E2F5E2E2E2E2E2E2E2E2E2E2E2E2E2E2E2E2F5E2E2E2E2E2E2E2E2E2E2E2E2E2E2E2E2E2E2E2E2E2E2E2E2E2E2E2E2E2E2E2E2E2E2E2E2E2E2E2E2E2E2E2E2E2E2E2E2E2E2E2E2
310
E2E2E2E2E2E2E2E2E2E2E2E2E2E2E2E2E2E2E2E2E2E2E2E2E2E2E2E2E2E2E2E2E2E2E2E2E2E2E2E2E2E2E2E2E2E2E2E2E2E2E2E2E2E2E2E2E2E2E2E2E2E2E2E2E2E2E2E2E2E2E2E2E2E2E2E2E2E2E2E2E2E2E2E2F5E2E2E2E2E2E2E2E2E2E2E2E2E2E2E2E2F5E2E2E2F5F5E2E2E2F5E2E2E2E2E2E2E2E2E2E2E2E2E2E2E2E2
310
F5E2E2E2E2E2E2E2E2E2E2E2E2E2E2E2E2E2E2E2E2E2E2E2E2E2E2E2E2E2E2E2E2E2E2E2E2E2E2E2E2E2E2E2E2E2E2E2E2E2E2E2E2E2E2E2E2E2E2E2E2E2E2E2E2E2E2E2E2E2E2E2E2E2E2E2E2E2E2E2E2E2E2E2E2E2E2E2E2E2E2E2E2E2E2E2E2E2E2E2E2E2E2E2E2E2E2E2E2E2E2E2E2E2E2E2E2E2E2E2E2E2E2E2E2E2E2
310
E2E2E2E2E2E2E2E2E2E2F5E2E2E2E2E2E2E2E2E2E2E2E2E2E2E2E2F5E2E2E2F5F5E2E2E2F5E2E2E2E2E2E2E2E2E2E2E2E2E2E2E2E2F5E2E2E2E2E2E2E2E2E2E2E2E2E2E2E2E2E2E2E2E2E2E2E2E2E2E2E2E2E2E2E2E2E2E2E2E2E2E2E2E2E2E2E2E2E2E2E2E2E2E2E2E2E2E2E2E2E2E2E2E2E2E2E2E2E2E2E2E2E2E2E2E2E2
310
E2E2E2E2E2E2E2E2E2E2E2E2E2E2E2E2E2E2E2E2E2E2E2E2E2E2E2E2E2E2E2E2E2E2E2E2E2E2E2E2E2E2E2E2E2E2E2E2E2E2E2E2E2E2E2E2E2E2E2E2E2E2E2F5E2E2E2E2E2E2E2E2E2E2E2E2E2E2E2E2F5E2E2E2F5F5E2E2E2F5E2E2E2E2E2E2E2E2E2E2E2E2E2E2E2E2F5E2E2E2E2E2E2E2E2E2E2E2E2E2E2E2E2E2E2E2E2
310
E2E2E2E2E2E2E2E2E2E2E2E2E2E2E2E2E2E2E2E2E2E2E2E2E2E2E2E2E2E2E2E2E2E2E2E2E2E2E2E2E2E2E2E2E2E2E2E2E2E2E2E2E2E2E2E2E2E2E2E2E2E2E2E2E2E2E2E2E2E2E2E2E2E2E2E2E2E2E2E2E2E2E2E2E2E2E2E2E2E2E2E2E2E2E2E2E2E2E2E2E2E2E2E2E2E2E2E2E2E2E2E2E2E2E2E2F5E2E2E2E2E2E2E2E2E2E2
310
E2E2E2E2E2E2F5E2E2E2F5F5E2E2E2F5E2E2E2E2E2E2E2E2E2E2E2E2E2E2E2E2F5E2E2E2E2E2E2E2E2E2E2E2E2E2E2E2E2E2E2E2E2E2E2E2E2E2E2E2E2E2E2E2E2E2E2E2E2E2E2E2E2E2E2E2E2E2E2E2E2E2E2E2E2E2E2E2E2E2E2E2E2E2E2E2E2E2E2E2E2E2E2E2E2E2E2E2E2E2E2E2E2E2E2E2E2E2E2E2E2E2E2E2E2E2E2
310
E2E2E2E2E2E2E2E2E2E2E2E2E2E2E2E2E2E2E2E2E2E2E2E2E2E2E2E2E2E2E2E2E2E2E2E2E2E2E2E2E2E2F5E2E2E2E2E2E2E2E2E2E2E2E2E2E2E2E2F5E2E2E2F5F5E2E2E2E2E2E2E2E2E2E2E2E2E2E2E2E2E2E2E2E2F5E2E2E2E2E2E2E2E2E2E2E2E2E2E2E2E2E2E2E2E2E2E2E2E2E2E2E2E2E2E2E2E2E2E2E2E2E2E2E2E2E2
310
E2E2E2E2E2E2E2E2E2E2E2E2E2E2E2E2E2E2E2E2E2E2E2E2E2E2E2E2E2E2E2E2E2E2E2E2E2E2E2E2E2E2E2E2E2E2E2E2E2E2E2E2E2E2E2E2E2E2E2E2E2E2E2E2E2E2E2E2E2E2E2E2E2E2E2E2E2E2E2E2E2E2E2E2E2E2E2E2E2E2E2E2E2E2E2F5E2E2E2E2E2E2E2E2E2E2E2E2E2E2E2E2E2E2E2E2F5F5E2E2E2E2E2E2E2E2E2
310
E2E2E2E2E2E2E2E2E2E2E2F5E2E2E2E2E2E2E2E2E2E2E2E2E2E2E2E2E2E2E2E2E2E2E2E2E2E2E2E2E2E2E2E2E2E2E2E2E2E2E2E2E2E2E2E2E2E2E2E2E2E2E2E2E2E2E2E2E2E2E2E2E2E2E2E2E2E2E2E2E2E2E2E2E2E2E2E2E2E2E2E2E2E2E2E2E2E2E2E2E2E2E2E2E2E2E2E2E2E2E2E2E2E2E2E2E2E2E2E2E2E2E2E2E2E2E2
310
E2E2E2E2E2E2E2E2E2E2E2E2E2E2E2E2E2E2E2E2E2F5E2E2E2E2E2E2E2E2E2E2E2E2E2E2E2E2E2E2E2E2F5F5E2E2E2E2E2E2E2E2E2E2E2E2E2E2E2E2E2E2E2E2F5E2E2E2E2E2E2E2E2E2E2E2E2E2E2E2E2E2E2E2E2E2E2E2E2E2E2E2E2E2E2E2E2E2E2E2E2E2E2E2E2E2E2E2E2E2E2E2E2E2E2E2E2E2E2E2E2E2E2E2E2E2E2
310
E2E2E2E2E2E2E2E2E2E2E2E2E2E2E2E2E2E2E2E2E2E2E2E2E2E2E2E2E2E2E2E2E2E2E2E2E2E2E2E2E2E2E2E2E2E2E2E2E2E2E2E2E2E2E2E2E2E2E2E2E2E2E2E2E2E2E2E2E2E2E2E2E2E2F5E2E2E2E2E2E2E2E2E2E2E2E2E2E2E2E2E2E2E2E2F5F5E2E2E2E2E2E2E2E2E2E2E2E2E2E2E2E2E2E2E2E2F5E2E2E2E2E2E2E2E2E2
310
E2E2E2E2E2E2E2E2E2E2E2E2E2E2E2E2E2E2E2E2E2E2E2E2E2E2E2E2E2E2E2E2E2E2E2E2E2E2E2E2E2E2E2E2E2E2E2E2E2E2E2E2E2E2E2E2E2E2E2E2E2E2E2E2E2E2E2E2E2E2E2E2E2E2E2E2E2E2E2E2E2E2E2E2E2E2E2E2E2E2E2E2E2E2E2E2E2E2E2E2E2E2E2E2E2E2E2E2E2E2E2E2E2E2E2E2E2E2E2E2E2E2E2E2E2E2E2
310
F5E2E2E2E2E2E2E2E2E2E2E2E2E2E2E2E2E2E2E2E2F5F5E2E2E2E2E2E2E2E2E2E2E2E2E2E2E2E2E2E2E2E2F5E2E2E2E2E2E2E2E2E2E2E2E2E2E2E2E2E2E2E2E2E2E2E2E2E2E2E2E2E2E2E2E2E2E2E2E2E2E2E2E2E2E2E2E2E2E2E2E2E2E2E2E2E2E2E2E2E2E2E2E2E2E2E2E2E2E2E2E2E2E2E2E2E2E2E2E2E2E2E2E2E2E2E2
310
E2E2E2E2E2E2E2E2E2E2E2E2E2E2E2E2E2E2E2E2E2E2E2E2E2E2E2E2E2E2E2E2E2E2E2E2E2E2E2E2E2E2E2E2E2E2E2E2E2E2E2E2E2F5E2E2E2E2E2E2E2E2E2E2E2E2E2E2E2E2E2E2E2E2F5F5E2E2E2E2E2E2E2E2E2E2E2E2E2E2E2E2E2E2E2E2F5E2E2E2E2E2E2E2E2E2E2E2E2E2E2E2E2E2E2E2E2E2E2E2E2E2E2E2E2E2E2
310
E2E2E2E2E2E2E2E2E2E2E2E2E2E2E2E2E2E2E2E2E2E2E2E2E2E2E2E2E2E2E2E2E2E2E2E2E2E2E2E2E2E2E2E2E2E2E2E2E2E2E2E2E2E2E2E2E2E2E2E2E2E2E2E2E2E2E2E2E2E2E2E2E2E2E2E2E2E2E2E2E2E2E2E2E2E2E2E2E2E2E2E2E2E2E2E2E2E2E2E2E2E2E2E2E2E2F5E2E2E2E2E2E2E2E2E2E2E2E2E2E2E2E2E2E2E2E2
310
F5F5E2E2E2E2E2E2E2E2E2E2E2E2E2E2E2E2E2E2E2E2F5E2E2E2E2E2E2E2E2E2E2E2E2E2E2E2E2E2E2E2E2E2E2E2E2E2E2E2E2E2E2E2E2E2E2E2E2E2E2E2E2E2E2E2E2E2E2E2E2E2E2E2E2E2E2E2E2E2E2E2E2E2E2E2E2E2E2E2E2E2E2E2E2E2E2E2E2E2E2E2E2E2E2E2E2E2E2E2E2E2E2E2E2E2E2E2E2E2E2E2E2E2E2E2E2
310
E2E2E2E2E2E2E2E2E2E2E2E2E2E2E2E2E2E2E2E2E2E2E2E2E2E2E2E2E2E2E2E2F5E2E2E2E2E2E2E2E2E2E2E2E2E2E2E2E2E2E2E2E2F5F5E2E2E2E2E2E2E2E2E2E2E2E2E2E2E2E2E2E2E2E2F5E2E2E2E2E2E2E2E2E2E2E2E2E2E2E2E2E2E2E2E2E2E2E2E2E2E2E2E2E2E2E2E2E2E2E2E2E2E2E2E2E2E2E2E2E2E2E2E2E2E2E2
310
E2E2E2E2E2E2E2E2E2E2E2E2E2E2E2E2E2E2E2E2E2E2E2E2E2E2E2E2E2E2E2E2E2E2E2E2E2E2E2E2E2E2E2E2E2E2E2E2E2E2E2E2E2E2E2E2E2E2E2E2E2E2E2E2E2E2E2E2E2E2E2E2E2E2E2E2E2E2E2E2E2E2E2E2E2F5E2E2E2E2E2E2E2E2E2E2E2E2E2E2E2E2E2E2E2E2F5F5E2E2E2E2E2E2E2E2E2E2E2E2E2E2E2E2E2E2E2
310
E2F5E2E2E2E2E2E2E2E2E2E2E2E2E2E2E2E2E2E2E2E2E2E2E2E2E2E2E2E2E2E2E2E2E2E2E2E2E2E2E2E2E2E2E2E2E2E2E2E2E2E2E2E2E2E2E2E2E2E2E2E2E2E2E2E2E2E2E2E2E2E2E2E2E2E2E2E2E2E2E2E2E2E2E2E2E2E2E2E2E2E2E2E2E2E2E2E2E2E2E2E2E2E2E2E2E2E2E2E2E2E2E2E2E2E2E2E2E2E2E2E2E2E2E2E2E2
310
E2E2E2E2E2E2E2E2E2E2E2F5E2E2E2E2E2E2E2E2E2E2E2E2E2E2E2E2E2E2E2E2F5F5E2E2E2E2E2E2E2E2E2E2E2E2E2E2E2E2E2E2E2E2F5E2E2E2E2E2E2E2E2E2E2E2E2E2E2E2E2E2E2E2E2E2E2E2E2E2E2E2E2E2E2E2E2E2E2E2E2E2E2E2E2E2E2E2E2E2E2E2E2E2E2E2E2E2E2E2E2E2E2E2E2E2E2E2E2E2E2E2E2E2E2E2E2
310
E2E2E2E2E2E2E2E2E2E2E2E2E2E2E2E2E2E2E2E2E2E2E2E2E2E2E2E2E2E2E2E2E2E2E2E2E2E2E2E2E2E2E2E2E2E2E2E2E2E2E2E2E2E2E2E2E2E2E2E2E2E2E2E2F5E2E2E2E2E2E2E2E2E2E2E2E2E2E2E2E2E2E2E2E2F5F5E2E2E2F5E2E2E2E2E2E2E2E2E2E2E2E2E2E2E2E2F5E2E2E2E2E2E2E2E2E2E2E2E2E2E2E2E2E2E2E2
310
E2E2E2E2E2E2E2E2E2E2E2E2E2E2E2E2E2E2E2E2E2E2E2E2E2E2E2E2E2E2E2E2E2E2E2E2E2E2E2E2E2E2E2E2E2E2E2E2E2E2E2E2E2E2E2E2E2E2E2E2E2E2E2E2E2E2E2E2E2E2E2E2E2E2E2E2E2E2E2E2E2E2E2E2E2E2E2E2E2E2E2E2E2E2E2E2E2E2E2E2E2E2E2E2E2E2E2E2E2E2E2E2E2E2E2E2E2F5E2E2E2E2E2E2E2E2E2
310
E2E2E2E2E2E2E2F5E2E2E2F5F5E2E2E2F5E2E2E2E2E2E2E2E2E2E2E2E2E2E2E2E2F5E2E2E2E2E2E2E2E2E2E2E2E2E2E2E2E2E2E2E2E2E2E2E2E2E2E2E2E2E2E2E2E2E2E2E2E2E2E2E2E2E2E2E2E2E2E2E2E2E2E2E2E2E2E2E2E2E2E2E2E2E2E2E2E2E2E2E2E2E2E2E2E2E2E2E2E2E2E2E2E2E2E2E2E2E2E2E2E2E2E2E2E2E2
310
E2E2E2E2E2E2E2E2E2E2E2E2E2E2E2E2E2E2E2E2E2E2E2E2E2E2E2E2E2E2E2E2E2E2E2E2E2E2E2E2E2E2E2F5E2E2E2E2E2E2E2E2E2E2E2E2E2E2E2E2F5E2E2E2F5F5E2E2E2F5E2E2E2E2E2E2E2E2E2E2E2E2E2E2E2E2F5E2E2E2E2E2E2E2E2E2E2E2E2E2E2E2E2E2E2E2E2E2E2E2E2E2E2E2E2E2E2E2E2E2E2E2E2E2E2E2E2
310
E2E2E2E2E2E2E2E2E2E2E2E2E2E2E2E2E2E2E2E2E2E2E2E2E2E2E2E2E2E2E2E2E2E2E2E2E2E2E2E2E2E2E2E2E2E2E2E2E2E2E2E2E2E2E2E2E2E2E2E2E2E2E2E2E2E2E2E2E2E2E2E2E2E2E2E2E2E2E2E2E2E2E2E2E2E2E2E2E2E2E2E2E2E2E2E2F5E2E2E2E2E2E2E2E2E2E2E2E2E2E2E2E2F5E2E2E2F5F5E2E2E2F5E2E2E2E2
310
E2E2E2E2E2E2E2E2E2E2E2E2F5E2E2E2E2E2E2E2E2E2E2E2E2E2E2E2E2E2E2E2E2E2E2E2E2E2E2E2E2E2E2E2E2E2E2E2E2E2E2E2E2E2E2E2E2E2E2E2E2E2E2E2E2E2E2E2E2E2E2E2E2E2E2E2E2E2E2E2E2E2E2E2E2E2E2E2E2E2E2E2E2E2E2E2E2E2E2E2E2E2E2E2E2E2E2E2E2E2E2E2E2E2E2E2E2E2E2E2E2E2E2E2E2E2E2
310
E2E2E2E2E2E2E2E2E2E2E2E2E2E2E2E2E2E2E2E2E2E2F5E2E2E2E2E2E2E2E2E2E2E2E2E2E2E2E2F5E2E2E2F5F5E2E2E2F5E2E2E2E2E2E2E2E2E2E2E2E2E2E2E2E2F5E2E2E2E2E2E2E2E2E2E2E2E2E2E2E2E2E2E2E2E2E2E2E2E2E2E2E2E2E2E2E2E2E2E2E2E2E2E2E2E2E2E2E2E2E2E2E2E2E2E2E2E2E2E2E2E2E2E2E2E2E2
310
E2E2E2E2E2E2E2E2E2E2E2E2E2E2E2E2E2E2E2E2E2E2E2E2E2E2E2E2E2E2E2E2E2E2E2E2E2E2E2E2E2E2E2E2E2E2E2E2E2E2E2E2E2E2E2E2E2E2E2E2E2E2E2E2E2E2E2E2E2E2E2E2E2E2E2F5E2E2E2E2E2E2E2E2E2E2E2E2E2E2E2E2F5E2E2E2F5F5E2E2E2F5E2E2E2E2E2E2E2E2E2E2E2E2E2E2E2E2F5E2E2E2E2E2E2E2E2
310
E2E2E2E2E2E2E2E2E2E2E2E2E2E2E2E2E2E2E2E2E2E2E2E2E2E2E2E2E2E2E2E2E2E2E2E2E2E2E2E2E2E2E2E2E2E2E2E2E2E2E2E2E2E2E2E2E2E2E2E2E2E2E2E2E2E2E2E2E2E2E2E2E2E2E2E2E2E2E2E2E2E2E2E2E2E2E2E2E2E2E2E2E2E2E2E2E2E2E2E2E2E2E2E2E2E2E2E2E2E2E2E2E2E2E2E2E2E2E2E2E2E2E2E2E2E2E2
310
E2F5E2E2E2E2E2E2E2E2E2E2E2E2E2E2E2E2F5E2E2E2F5F5E2E2E2F5E2E2E2E2E2E2E2E2E2E2E2E2E2E2E2E2F5E2E2E2E2E2E2E2E2E2E2E2E2E2E2E2E2E2E2E2E2E2E2E2E2E2E2E2E2E2E2E2E2E2E2E2E2E2E2E2E2E2E2E2E2E2E2E2E2E2E2E2E2E2E2E2E2E2E2E2E2E2E2E2E2E2E2E2E2E2E2E2E2E2E2E2E2E2E2E2E2E2E2
310
E2E2E2E2E2E2E2E2E2E2E2E2E2E2E2E2E2E2E2E2E2E2E2E2E2E2E2E2E2E2E2E2E2E2E2E2E2E2E2E2E2E2E2E2E2E2E2E2E2E2E2E2E2E2F5E2E2E2E2E2E2E2E2E2E2E2E2E2E2E2E2F5E2E2E2F5F5E2E2E2F5E2E2E2E2E2E2E2E2E2E2E2E2E2E2E2E2F5E2E2E2E2E2E2E2E2E2E2E2E2E2E2E2E2E2E2E2E2E2E2E2E2E2E2E2E2E2
310
E2E2E2E2E2E2E2E2E2E2E2E2E2E2E2E2E2E2E2E2E2E2E2E2E2E2E2E2E2E2E2E2E2E2E2E2E2E2E2E2E2E2E2E2E2E2E2E2E2E2E2E2E2E2E2E2E2E2E2E2E2E2E2E2E2E2E2E2E2E2E2E2E2E2E2E2E2E2E2E2E2E2E2E2E2E2E2E2E2E2E2E2E2E2E2E2E2E2E2E2E2E2E2E2E2E2E2F5E2E2E2E2E2E2E2E2E2E2E2E2E2E2E2E2F5E2E2
310
E2F5F5E2E2E2F5E2E2E2E2E2E2E2E2E2E2E2E2E2E2E2E2F5E2E2E2E2E2E2E2E2E2E2E2E2E2E2E2E2E2E2E2E2E2E2E2E2E2E2E2E2E2E2E2E2E2E2E2E2E2E2E2E2E2E2E2E2E2E2E2E2E2E2E2E2E2E2E2E2E2E2E2E2E2E2E2E2E2E2E2E2E2E2E2E2E2E2E2E2E2E2E2E2E2E2E2E2E2E2E2E2E2E2E2E2E2E2E2E2E2E2E2E2E2E2E2
310
E2E2E2E2E2E2E2E2E2E2E2E2E2E2E2E2E2E2E2E2E2E2E2E2E2E2E2E2E2E2E2E2E2F5E2E2E2E2E2E2E2E2E2E2E2E2E2E2E2E2F5E2E2E2F5F5E2E2E2F5E2E2E2E2E2E2E2E2E2E2E2E2E2E2E2E2F5E2E2E2E2E2E2E2E2E2E2E2E2E2E2E2E2E2E2E2E2E2E2E2E2E2E2E2E2E2E2E2E2E2E2E2E2E2E2E2E2E2E2E2E2E2E2E2E2E2E2
310
E2E2E2E2E2E2E2E2E2E2E2E2E2E2E2E2E2E2E2E2E2E2E2E2E2E2E2E2E2E2E2E2E2E2E2E2E2E2E2E2E2E2E2E2E2E2E2E2E2E2E2E2E2E2E2E2E2E2E2E2E2E2E2E2E2E2E2E2E2E2E2E2E2E2E2E2E2E2E2E2E2E2E2E2E2E2F5E2E2E2E2E2E2E2E2E2E2E2E2E2E2E2E2F5E2E2E2F5F5E2E2E2F5E2E2E2E2E2E2E2E2E2E2E2E2E2E2
310
E2E2F5E2E2E2E2E2E2E2E2E2E2E2E2E2E2E2E2E2E2E2E2E2E2E2E2E2E2E2E2E2E2E2E2E2E2E2E2E2E2E2E2E2E2E2E2E2E2E2E2E2E2E2E2E2E2E2E2E2E2E2E2E2E2E2E2E2E2E2E2E2E2E2E2E2E2E2E2E2E2E2E2E2E2E2E2E2E2E2E2E2E2E2E2E2E2E2E2E2E2E2E2E2E2E2E2E2E2E2E2E2E2E2E2E2E2E2E2E2E2E2E2E2E2E2E2
310
E2E2E2E2E2E2E2E2E2E2E2E2F5E2E2E2E2E2E2E2E2E2E2E2E2E2E2E2E2F5E2E2E2F5F5E2E2E2F5E2E2E2E2E2E2E2E2E2E2E2E2E2E2E2E2F5E2E2E2E2E2E2E2E2E2E2E2E2E2E2E2E2E2E2E2E2E2E2E2E2E2E2E2E2E2E2E2E2E2E2E2E2E2E2E2E2E2E2E2E2E2E2E2E2E2E2E2E2E2E2E2E2E2E2E2E2E2E2E2E2E2E2E2E2E2E2E2
310
E2E2E2E2E2E2E2E2E2E2E2E2E2E2E2E2E2E2E2E2E2E2E2E2E2E2E2E2E2E2E2E2E2E2E2E2E2E2E2E2E2E2E2E2E2E2E2E2E2E2E2E2E2E2E2E2E2E2E2E2E2E2E2E2E2F5E2E2E2E2E2E2E2E2E2E2E2E2E2E2E2E2F5E2E2E2F5F5E2E2E2F5E2E2E2E2E2E2E2E2E2E2E2E2E2E2E2E2F5E2E2E2E2E2E2E2E2E2E2E2E2E2E2E2E2E2E2
310
E2E2E2E2E2E2E2E2E2E2E2E2E2E2E2E2E2E2E2E2E2E2E2E2E2E2E2E2E2E2E2E2E2E2E2E2E2E2E2E2E2E2E2E2E2E2E2E2E2E2E2E2E2E2E2E2E2E2E2E2E2E2E2E2E2E2E2E2E2E2E2E2E2E2E2E2E2E2E2E2E2E2E2E2E2E2E2E2E2E2E2E2E2E2E2E2E2E2E2E2E2E2E2E2E2E2E2E2E2E2E2E2E2E2E2E2E2E2F5E2E2E2E2E2E2E2E2
310
E2E2E2E2E2E2E2E2F5E2E2E2F5F5E2E2E2F5E2E2E2E2E2E2E2E2E2E2E2E2E2E2E2E2F5E2E2E2E2E2E2E2E2E2E2E2E2E2E2E2E2E2E2E2E2E2E2E2E2E2E2E2E2E2E2E2E2E2E2E2E2E2E2E2E2E2E2E2E2E2E2E2E2E2E2E2E2E2E2E2E2E2E2E2E2E2E2E2E2E2E2E2E2E2E2E2E2E2E2E2E2E2E2E2E2E2E2E2E2E2E2E2E2E2E2E2E2
310
E2E2E2E2E2E2E2E2E2E2E2E2E2E2E2E2E2E2E2E2E2E2E2E2E2E2E2E2E2E2E2E2E2E2E2E2E2E2E2E2E2E2E2E2F5E2E2E2E2E2E2E2E2E2E2E2E2E2E2E2E2F5E2E2E2F5F5E2E2E2F5E2E2E2E2E2E2E2E2E2E2E2E2E2E2E2E2F5E2E2E2E2E2E2E2E2E2E2E2E2E2E2E2E2E2E2E2E2E2E2E2E2E2E2E2E2E2E2E2E2E2E2E2E2E2E2E2
310
E2E2E2E2E2E2E2E2E2E2E2E2E2E2E2E2E2E2E2E2E2E2E2E2E2E2E2E2E2E2E2E2E2E2E2E2E2E2E2E2E2E2E2E2E2E2E2E2E2E2E2E2E2E2E2E2E2E2E2E2E2E2E2E2E2E2E2E2E2E2E2E2E2E2E2E2E2E2E2E2E2E2E2E2E2E2E2E2E2E2E2E2E2E2E2E2E2F5E2E2E2E2E2E2E2E2E2E2E2E2E2E2E2E2F5E2E2E2F5F5E2E2E2F5E2E2E2
310
E2E2E2E2E2E2E2E2E2E2E2E2E2F5E2E2E2E2E2E2E2E2E2E2E2E2E2E2E2E2E2E2E2E2E2E2E2E2E2E2E2E2E2E2E2E2E2E2E2E2E2E2E2E2E2E2E2E2E2E2E2E2E2E2E2E2E2E2E2E2E2E2E2E2E2E2E2E2E2E2E2E2E2E2E2E2E2E2E2E2E2E2E2E2E2E2E2E2E2E2E2E2E2E2E2E2E2E2E2E2E2E2E2E2E2E2E2E2E2E2E2E2E2E2E2E2E2
310
E2E2E2E2E2E2E2E2E2E2E2E2E2E2E2E2E2E2E2E2E2E2E2F5E2E2E2E2E2E2E2E2E2E2E2E2E2E2E2E2F5E2E2E2F5F5E2E2E2E2E2E2E2E2E2E2E2E2E2E2E2E2E2E2E2E2F5E2E2E2E2E2E2E2E2E2E2E2E2E2E2E2E2E2E2E2E2E2E2E2E2E2E2E2E2E2E2E2E2E2E2E2E2E2E2E2E2E2E2E2E2E2E2E2E2E2E2E2E2E2E2E2E2E2E2E2E2
310
E2E2E2E2E2E2E2E2E2E2E2E2E2E2E2E2E2E2E2E2E2E2E2E2E2E2E2E2E2E2E2E2E2E2E2E2E2E2E2E2E2E2E2E2E2E2E2E2E2E2E2E2E2E2E2E2E2E2E2E2E2E2E2E2E2E2E2E2E2E2E2E2E2E2E2E2F5E2E2E2E2E2E2E2E2E2E2E2E2E2E2E2E2E2E2E2E2F5F5E2E2E2E2E2E2E2E2E2E2E2E2E2E2E2E2E2E2E2E2F5E2E2E2E2E2E2E2
310
E2E2E2E2E2E2E2E2E2E2E2E2E2E2E2E2E2E2E2E2E2E2E2E2E2E2E2E2E2E2E2E2E2E2E2E2E2E2E2E2E2E2E2E2E2E2E2E2E2E2E2E2E2E2E2E2E2E2E2E2E2E2E2E2E2E2E2E2E2E2E2E2E2E2E2E2E2E2E2E2E2E2E2E2E2E2E2E2E2E2E2E2E2E2E2E2E2E2E2E2E2E2E2E2E2E2E2E2E2E2E2E2E2E2E2E2E2E2E2E2E2E2E2E2E2E2E2
310
E2E2F5E2E2E2E2E2E2E2E2E2E2E2E2E2E2E2E2E2E2E2E2F5F5E2E2E2E2E2E2E2E2E2E2E2E2E2E2E2E2E2E2E2E2F5E2E2E2E2E2E2E2E2E2E2E2E2E2E2E2E2E2E2E2E2E2E2E2E2E2E2E2E2E2E2E2E2E2E2E2E2E2E2E2E2E2E2E2E2E2E2E2E2E2E2E2E2E2E2E2E2E2E2E2E2E2E2E2E2E2E2E2E2E2E2E2E2E2E2E2E2E2E2E2E2E2
310
E2E2E2E2E2E2E2E2E2E2E2E2E2E2E2E2E2E2E2E2E2E2E2E2E2E2E2E2E2E2E2E2E2E2E2E2E2E2E2E2E2E2E2E2E2E2E2E2E2E2E2E2E2E2E2F5E2E2E2E2E2E2E2E2E2E2E2E2E2E2E2E2E2E2E2E2F5F5E2E2E2E2E2E2E2E2E2E2E2E2E2E2E2E2E2E2E2E2F5E2E2E2E2E2E2E2E2E2E2E2E2E2E2E2E2E2E2E2E2E2E2E2E2E2E2E2E2
310
E2E2E2E2E2E2E2E2E2E2E2E2E2E2E2E2E2E2E2E2E2E2E2E2E2E2E2E2E2E2E2E2E2E2E2E2E2E2E2E2E2E2E2E2E2E2E2E2E2E2E2E2E2E2E2E2E2E2E2E2E2E2E2E2E2E2E2E2E2E2E2E2E2E2E2E2E2E2E2E2E2E2E2E2E2E2E2E2E2E2E2E2E2E2E2E2E2E2E2E2E2E2E2E2E2E2E2E2F5E2E2E2E2E2E2E2E2E2E2E2E2E2E2E2E2E2E2
310
E2E2F5F5E2E2E2E2E2E2E2E2E2E2E2E2E2E2E2E2E2E2E2E2F5E2E2E2E2E2E2E2E2E2E2E2E2E2E2E2E2E2E2E2E2E2E2E2E2E2E2E2E2E2E2E2E2E2E2E2E2E2E2E2E2E2E2E2E2E2E2E2E2E2E2E2E2E2E2E2E2E2E2E2E2E2E2E2E2E2E2E2E2E2E2E2E2E2E2E2E2E2E2E2E2E2E2E2E2E2E2E2E2E2E2E2E2E2E2E2E2E2E2E2E2E2E2
310
E2E2E2E2E2E2E2E2E2E2E2E2E2E2E2E2E2E2E2E2E2E2E2E2E2E2E2E2E2E2E2E2E2E2F5E2E2E2E2E2E2E2E2E2E2E2E2E2E2E2E2E2E2E2E2F5F5E2E2E2E2E2E2E2E2E2E2E2E2E2E2E2E2E2E2E2E2F5E2E2E2E2E2E2E2E2E2E2E2E2E2E2E2E2E2E2E2E2E2E2E2E2E2E2E2E2E2E2E2E2E2E2E2E2E2E2E2E2E2E2E2E2E2E2E2E2E2
310
E2E2E2E2E2E2E2E2E2E2E2E2E2E2E2E2E2E2E2E2E2E2E2E2E2E2E2E2E2E2E2E2E2E2E2E2E2E2E2E2E2E2E2E2E2E2E2E2E2E2E2E2E2E2E2E2E2E2E2E2E2E2E2E2E2E2E2E2E2E2E2E2E2E2E2E2E2E2E2E2E2E2E2E2E2E2E2F5E2E2E2E2E2E2E2E2E2E2E2E2E2E2E2E2E2E2E2E2F5F5E2E2E2E2E2E2E2E2E2E2E2E2E2E2E2E2E2
310
E2E2E2F5E2E2E2E2E2E2E2E2E2E2E2E2E2E2E2E2E2E2E2E2E2E2E2E2E2E2E2E2E2E2E2E2E2E2E2E2E2E2E2E2E2E2E2E2E2E2E2E2E2E2E2E2E2E2E2E2E2E2E2E2E2E2E2E2E2E2E2E2E2E2E2E2E2E2E2E2E2E2E2E2E2E2E2E2E2E2E2E2E2E2E2E2E2E2E2E2E2E2E2E2E2E2E2E2E2E2E2E2E2E2E2E2E2E2E2E2E2E2E2E2E2E2E2
310
E2E2E2E2E2E2E2E2E2E2E2E2E2F5E2E2E2E2E2E2E2E2E2E2E2E2E2E2E2E2E2E2E2E2F5F5E2E2E2E2E2E2E2E2E2E2E2E2E2E2E2E2E2E2E2E2F5E2E2E2E2E2E2E2E2E2E2E2E2E2E2E2E2E2E2E2E2E2E2E2E2E2E2E2E2E2E2E2E2E2E2E2E2E2E2E2E2E2E2E2E2E2E2E2E2E2E2E2E2E2E2E2E2E2E2E2E2E2E2E2E2E2E2E2E2E2E2
310
E2E2E2E2E2E2E2E2E2E2E2E2E2E2E2E2E2E2E2E2E2E2E2E2E2E2E2E2E2E2E2E2E2E2E2E2E2E2E2E2E2E2E2E2E2E2E2E2E2E2E2E2E2E2E2E2E2E2E2E2E2E2E2E2E2E2F5E2E2E2E2E2E2E2E2E2E2E2E2E2E2E2E2E2E2E2E2F5F5E2E2E2E2E2E2E2E2E2E2E2E2E2E2E2E2E2E2E2E2F5E2E2E2E2E2E2E2E2E2E2E2E2E2E2E2E2E2
310
E2E2E2E2E2E2E2E2E2E2E2E2E2E2E2E2E2E2E2E2E2E2E2E2E2E2E2E2E2E2E2E2E2E2E2E2E2E2E2E2E2E2E2E2E2E2E2E2E2E2E2E2E2E2E2E2E2E2E2E2E2E2E2E2E2E2E2E2E2E2E2E2E2E2E2E2E2E2E2E2E2E2E2E2E2E2E2E2E2E2E2E2E2E2E2E2E2E2E2E2E2E2E2E2E2E2E2E2E2E2E2E2E2E2E2E2E2E2E2F5E2E2E2E2E2E2E2
310
E2E2E2E2E2E2E2E2E2E2E2E2E2F5F5E2E2E2F5E2E2E2E2E2E2E2E2E2E2E2E2E2E2E2E2F5E2E2E2E2E2E2E2E2E2E2E2E2E2E2E2E2E2E2E2E2E2E2E2E2E2E2E2E2E2E2E2E2E2E2E2E2E2E2E2E2E2E2E2E2E2E2E2E2E2E2E2E2E2E2E2E2E2E2E2E2E2E2E2E2E2E2E2E2E2E2E2E2E2E2E2E2E2E2E2E2E2E2E2E2E2E2E2E2E2E2E2
310
E2E2E2E2E2E2E2E2E2E2E2E2E2E2E2E2E2E2E2E2E2E2E2E2E2E2E2E2E2E2E2E2E2E2E2E2E2E2E2E2E2E2E2E2E2F5E2E2E2E2E2E2E2E2E2E2E2E2E2E2E2E2F5E2E2E2F5F5E2E2E2F5E2E2E2E2E2E2E2E2E2E2E2E2E2E2E2E2F5E2E2E2E2E2E2E2E2E2E2E2E2E2E2E2E2E2E2E2E2E2E2E2E2E2E2E2E2E2E2E2E2E2E2E2E2E2E2
310
E2E2E2E2E2E2E2E2E2E2E2E2E2E2E2E2E2E2E2E2E2E2E2E2E2E2E2E2E2E2E2E2E2E2E2E2E2E2E2E2E2E2E2E2E2E2E2E2E2E2E2E2E2E2E2E2E2E2E2E2E2E2E2E2E2E2E2E2E2E2E2E2E2E2E2E2E2E2E2E2E2E2E2E2E2E2E2E2E2E2E2E2E2E2E2E2E2E2F5E2E2E2E2E2E2E2E2E2E2E2E2E2E2E2E2F5E2E2E2F5F5E2E2E2F5E2E2
310
E2E2E2E2E2E2E2E2E2E2E2E2E2E2F5E2E2E2E2E2E2E2E2E2E2E2E2E2E2E2E2E2E2E2E2E2E2E2E2E2E2E2E2E2E2E2E2E2E2E2E2E2E2E2E2E2E2E2E2E2E2E2E2E2E2E2E2E2E2E2E2E2E2E2E2E2E2E2E2E2E2E2E2E2E2E2E2E2E2E2E2E2E2E2E2E2E2E2E2E2E2E2E2E2E2E2E2E2E2E2E2E2E2E2E2E2E2E2E2E2E2E2E2E2E2E2E2
310
E2E2E2E2E2E2E2E2E2E2E2E2E2E2E2E2E2E2E2E2E2E2E2E2F5E2E2E2E2E2E2E2E2E2E2E2E2E2E2E2E2F5E2E2E2F5F5E2E2E2F5E2E2E2E2E2E2E2E2E2E2E2E2E2E2E2E2F5E2E2E2E2E2E2E2E2E2E2E2E2E2E2E2E2E2E2E2E2E2E2E2E2E2E2E2E2E2E2E2E2E2E2E2E2E2E2E2E2E2E2E2E2E2E2E2E2E2E2E2E2E2E2E2E2E2E2E2
310
E2E2E2E2E2E2E2E2E2E2E2E2E2E2E2E2E2E2E2E2E2E2E2E2E2E2E2E2E2E2E2E2E2E2E2E2E2E2E2E2E2E2E2E2E2E2E2E2E2E2E2E2E2E2E2E2E2E2E2E2E2E2E2E2E2E2E2E2E2E2E2E2E2E2E2E2E2F5E2E2E2E2E2E2E2E2E2E2E2E2E2E2E2E2F5E2E2E2F5F5E2E2E2F5E2E2E2E2E2E2E2E2E2E2E2E2E2E2E2E2F5E2E2E2E2E2E2
310
E2E2E2E2E2E2E2E2E2E2E2E2E2E2E2E2E2E2E2E2E2E2E2E2E2E2E2E2E2E2E2E2E2E2E2E2E2E2E2E2E2E2E2E2E2E2E2E2E2E2E2E2E2E2E2E2E2E2E2E2E2E2E2E2E2E2E2E2E2E2E2E2E2E2E2E2E2E2E2E2E2E2E2E2E2E2E2E2E2E2E2E2E2E2E2E2E2E2E2E2E2E2E2E2E2E2E2E2E2E2E2E2E2E2E2E2E2E2E2E2E2E2E2E2E2E2E2
310
E2E2E2F5E2E2E2E2E2E2E2E2E2E2E2E2E2E2E2E2F5E2E2E2F5F5E2E2E2F5E2E2E2E2E2E2E2E2E2E2E2E2E2E2E2E2F5E2E2E2E2E2E2E2E2E2E2E2E2E2E2E2E2E2E2E2E2E2E2E2E2E2E2E2E2E2E2E2E2E2E2E2E2E2E2E2E2E2E2E2E2E2E2E2E2E2E2E2E2E2E2E2E2E2E2E2E2E2E2E2E2E2E2E2E2E2E2E2E2E2E2E2E2E2E2E2E2
310
E2E2E2E2E2E2E2E2E2E2E2E2E2E2E2E2E2E2E2E2E2E2E2E2E2E2E2E2E2E2E2E2E2E2E2E2E2E2E2E2E2E2E2E2E2E2E2E2E2E2E2E2E2E2E2E2F5E2E2E2E2E2E2E2E2E2E2E2E2E2E2E2E2F5E2E2E2F5F5E2E2E2F5E2E2E2E2E2E2E2E2E2E2E2E2E2E2E2E2F5E2E2E2E2E2E2E2E2E2E2E2E2E2E2E2E2E2E2E2E2E2E2E2E2E2E2E2
310
E2E2E2E2E2E2E2E2E2E2E2E2E2E2E2E2E2E2E2E2E2E2E2E2E2E2E2E2E2E2E2E2E2E2E2E2E2E2E2E2E2E2E2E2E2E2E2E2E2E2E2E2E2E2E2E2E2E2E2E2E2E2E2E2E2E2E2E2E2E2E2E2E2E2E2E2E2E2E2E2E2E2E2E2E2E2E2E2E2E2E2E2E2E2E2E2E2E2E2E2E2E2E2E2E2E2E2E2E2F5E2E2E2E2E2E2E2E2E2E2E2E2E2E2E2E2F5
310
E2E2E2F5F5E2E2E2F5E2E2E2E2E2E2E2E2E2E2E2E2E2E2E2E2F5E2E2E2E2E2E2E2E2E2E2E2E2E2E2E2E2E2E2E2E2E2E2E2E2E2E2E2E2E2E2E2E2E2E2E2E2E2E2E2E2E2E2E2E2E2E2E2E2E2E2E2E2E2E2E2E2E2E2E2E2E2E2E2E2E2E2E2E2E2E2E2E2E2E2E2E2E2E2E2E2E2E2E2E2E2E2E2E2E2E2E2E2E2E2E2E2E2E2E2E2E2
310
E2E2E2E2E2E2E2E2E2E2E2E2E2E2E2E2E2E2E2E2E2E2E2E2E2E2E2E2E2E2E2E2E2E2E2F5E2E2E2E2E2E2E2E2E2E2E2E2E2E2E2E2F5E2E2E2F5F5E2E2E2F5E2E2E2E2E2E2E2E2E2E2E2E2E2E2E2E2F5E2E2E2E2E2E2E2E2E2E2E2E2E2E2E2E2E2E2E2E2E2E2E2E2E2E2E2E2E2E2E2E2E2E2E2E2E2E2E2E2E2E2E2E2E2E2E2E2
310
E2E2E2E2E2E2E2E2E2E2E2E2E2E2E2E2E2E2E2E2E2E2E2E2E2E2E2E2E2E2E2E2E2E2E2E2E2E2E2E2E2E2E2E2E2E2E2E2E2E2E2E2E2E2E2E2E2E2E2E2E2E2E2E2E2E2E2E2E2E2E2E2E2E2E2E2E2E2E2E2E2E2E2E2E2E2E2E2F5E2E2E2E2E2E2E2E2E2E2E2E2E2E2E2E2F5E2E2E2F5F5E2E2E2F5E2E2E2E2E2E2E2E2E2E2E2E2
310
E2E2E2E2F5E2E2E2E2E2E2E2E2E2E2E2E2E2E2E2E2E2E2E2E2E2E2E2E2E2E2E2E2E2E2E2E2E2E2E2E2E2E2E2E2E2E2E2E2E2E2E2E2E2E2E2E2E2E2E2E2E2E2E2E2E2E2E2E2E2E2E2E2E2E2E2E2E2E2E2E2E2E2E2E2E2E2E2E2E2E2E2E2E2E2E2E2E2E2E2E2E2E2E2E2E2E2E2E2E2E2E2E2E2E2E2E2E2E2E2E2E2E2E2E2E2E2
310
E2E2E2E2E2E2E2E2E2E2E2E2E2E2F5E2E2E2E2E2E2E2E2E2E2E2E2E2E2E2E2F5E2E2E2F5F5E2E2E2F5E2E2E2E2E2E2E2E2E2E2E2E2E2E2E2E2F5E2E2E2E2E2E2E2E2E2E2E2E2E2E2E2E2E2E2E2E2E2E2E2E2E2E2E2E2E2E2E2E2E2E2E2E2E2E2E2E2E2E2E2E2E2E2E2E2E2E2E2E2E2E2E2E2E2E2E2E2E2E2E2E2E2E2E2E2E2
310
E2E2E2E2E2E2E2E2E2E2E2E2E2E2E2E2E2E2E2E2E2E2E2E2E2E2E2E2E2E2E2E2E2E2E2E2E2E2E2E2E2E2E2E2E2E2E2E2E2E2E2E2E2E2E2E2E2E2E2E2E2E2E2E2E2E2E2F5E2E2E2E2E2E2E2E2E2E2E2E2E2E2E2E2F5E2E2E2F5F5E2E2E2F5E2E2E2E2E2E2E2E2E2E2E2E2E2E2E2E2F5E2E2E2E2E2E2E2E2E2E2E2E2E2E2E2E2
310
E2E2E2E2E2E2E2E2E2E2E2E2E2E2E2E2E2E2E2E2E2E2E2E2E2E2E2E2E2E2E2E2E2E2E2E2E2E2E2E2E2E2E2E2E2E2E2E2E2E2E2E2E2E2E2E2E2E2E2E2E2E2E2E2E2E2E2E2E2E2E2E2E2E2E2E2E2E2E2E2E2E2E2E2E2E2E2E2E2E2E2E2E2E2E2E2E2E2E2E2E2E2E2E2E2E2E2E2E2E2E2E2E2E2E2E2E2E2E2E2F5E2E2E2E2E2E2
310
E2E2E2E2E2E2E2E2E2E2F5E2E2E2F5F5E2E2E2F5E2E2E2E2E2E2E2E2E2E2E2E2E2E2E2E2F5E2E2E2E2E2E2E2E2E2E2E2E2E2E2E2E2E2E2E2E2E2E2E2E2E2E2E2E2E2E2E2E2E2E2E2E2E2E2E2E2E2E2E2E2E2E2E2E2E2E2E2E2E2E2E2E2E2E2E2E2E2E2E2E2E2E2E2E2E2E2E2E2E2E2E2E2E2E2E2E2E2E2E2E2E2E2E2E2E2E2
310
E2E2E2E2E2E2E2E2E2E2E2E2E2E2E2E2E2E2E2E2E2E2E2E2E2E2E2E2E2E2E2E2E2E2E2E2E2E2E2E2E2E2E2E2E2E2F5E2E2E2E2E2E2E2E2E2E2E2E2E2E2E2E2F5E2E2E2F5F5E2E2E2F5E2E2E2E2E2E2E2E2E2E2E2E2E2E2E2E2F5E2E2E2E2E2E2E2E2E2E2E2E2E2E2E2E2E2E2E2E2E2E2E2E2E2E2E2E2E2E2E2E2E2E2E2E2E2
310
E2E2E2E2E2E2E2E2E2E2E2E2E2E2E2E2E2E2E2E2E2E2E2E2E2E2E2E2E2E2E2E2E2E2E2E2E2E2E2E2E2E2E2E2E2E2E2E2E2E2E2E2E2E2E2E2E2E2E2E2E2E2E2E2E2E2E2E2E2E2E2E2E2E2E2E2E2E2E2E2E2E2E2E2E2E2E2E2E2E2E2E2E2E2E2E2E2E2E2F5E2E2E2E2E2E2E2E2E2E2E2E2E2E2E2E2F5E2E2E2F5F5E2E2E2F5E2
310
E2E2E2E2E2E2E2E2E2E2E2E2E2E2E2F5E2E2E2E2E2E2E2E2E2E2E2E2E2E2E2E2E2E2E2E2E2E2E2E2E2E2E2E2E2E2E2E2E2E2E2E2E2E2E2E2E2E2E2E2E2E2E2E2E2E2E2E2E2E2E2E2E2E2E2E2E2E2E2E2E2E2E2E2E2E2E2E2E2E2E2E2E2E2E2E2E2E2E2E2E2E2E2E2E2E2E2E2E2E2E2E2E2E2E2E2E2E2E2E2E2E2E2E2E2E2E2
310
E2E2E2E2E2E2E2E2E2E2E2E2E2E2E2E2E2E2E2E2E2E2E2E2E2F5E2E2E2E2E2E2E2E2E2E2E2E2E2E2E2E2F5E2E2E2F5F5E2E2E2F5E2E2E2E2E2E2E2E2E2E2E2E2E2E2E2E2F5E2E2E2E2E2E2E2E2E2E2E2E2E2E2E2E2E2E2E2E2E2E2E2E2E2E2E2E2E2E2E2E2E2E2E2E2E2E2E2E2E2E2E2E2E2E2E2E2E2E2E2E2E2E2E2E2E2E2
310
E2E2E2E2E2E2E2E2E2E2E2E2E2E2E2E2E2E2E2E2E2E2E2E2E2E2E2E2E2E2E2E2E2E2E2E2E2E2E2E2E2E2E2E2E2E2E2E2E2E2E2E2E2E2E2E2E2E2E2E2E2E2E2E2E2E2E2E2E2E2E2E2E2E2E2E2E2E2F5E2E2E2E2E2E2E2E2E2E2E2E2E2E2E2E2F5E2E2E2F5F5E2E2E2F5E2E2E2E2E2E2E2E2E2E2E2E2E2E2E2E2F5E2E2E2E2E2
310
E2E2E2E2E2E2E2E2E2E2E2E2E2E2E2E2E2E2E2E2E2E2E2E2E2E2E2E2E2E2E2E2E2E2E2E2E2E2E2E2E2E2E2E2E2E2E2E2E2E2E2E2E2E2E2E2E2E2E2E2E2E2E2E2E2E2E2E2E2E2E2E2E2E2E2E2E2E2E2E2E2E2E2E2E2E2E2E2E2E2E2E2E2E2E2E2E2E2E2E2E2E2E2E2E2E2E2E2E2E2E2E2E2E2E2E2E2E2E2E2E2E2E2E2E2E2E2
310
E2E2E2E2F5E2E2E2E2E2E2E2E2E2E2E2E2E2E2E2E2F5E2E2E2F5F5E2E2E2E2E2E2E2E2E2E2E2E2E2E2E2E2E2E2E2E2F5E2E2E2E2E2E2E2E2E2E2E2E2E2E2E2E2E2E2E2E2E2E2E2E2E2E2E2E2E2E2E2E2E2E2E2E2E2E2E2E2E2E2E2E2E2E2E2E2E2E2E2E2E2E2E2E2E2E2E2E2E2E2E2E2E2E2E2E2E2E2E2E2E2E2E2E2E2E2E2
310
E2E2E2E2E2E2E2E2E2E2E2E2E2E2E2E2E2E2E2E2E2E2E2E2E2E2E2E2E2E2E2E2E2E2E2E2E2E2E2E2E2E2E2E2E2E2E2E2E2E2E2E2E2E2E2E2E2F5E2E2E2E2E2E2E2E2E2E2E2E2E2E2E2E2E2E2E2E2F5F5E2E2E2E2E2E2E2E2E2E2E2E2E2E2E2E2E2E2E2E2F5E2E2E2E2E2E2E2E2E2E2E2E2E2E2E2E2E2E2E2E2E2E2E2E2E2E2
310
E2E2E2E2E2E2E2E2E2E2E2E2E2E2E2E2E2E2E2E2E2E2E2E2E2E2E2E2E2E2E2E2E2E2E2E2E2E2E2E2E2E2E2E2E2E2E2E2E2E2E2E2E2E2E2E2E2E2E2E2E2E2E2E2E2E2E2E2E2E2E2E2E2E2E2E2E2E2E2E2E2E2E2E2E2E2E2E2E2E2E2E2E2E2E2E2E2E2E2E2E2E2E2E2E2E2E2E2E2E2F5E2E2E2E2E2E2E2E2E2E2E2E2E2E2E2E2
310
E2E2E2E2F5F5E2E2E2E2E2E2E2E2E2E2E2E2E2E2E2E2E2E2E2E2F5E2E2E2E2E2E2E2E2E2E2E2E2E2E2E2E2E2E2E2E2E2E2E2E2E2E2E2E2E2E2E2E2E2E2E2E2E2E2E2E2E2E2E2E2E2E2E2E2E2E2E2E2E2E2E2E2E2E2E2E2E2E2E2E2E2E2E2E2E2E2E2E2E2E2E2E2E2E2E2E2E2E2E2E2E2E2E2E2E2E2E2E2E2E2E2E2E2E2E2E2
310
E2E2E2E2E2E2E2E2E2E2E2E2E2E2E2E2E2E2E2E2E2E2E2E2E2E2E2E2E2E2E2E2E2E2E2E2F5E2E2E2E2E2E2E2E2E2E2E2E2E2E2E2E2E2E2E2E2F5F5E2E2E2E2E2E2E2E2E2E2E2E2E2E2E2E2E2E2E2E2F5E2E2E2E2E2E2E2E2E2E2E2E2E2E2E2E2E2E2E2E2E2E2E2E2E2E2E2E2E2E2E2E2E2E2E2E2E2E2E2E2E2E2E2E2E2E2E2
310
E2E2E2E2E2E2E2E2E2E2E2E2E2E2E2E2E2E2E2E2E2E2E2E2E2E2E2E2E2E2E2E2E2E2E2E2E2E2E2E2E2E2E2E2E2E2E2E2E2E2E2E2E2E2E2E2E2E2E2E2E2E2E2E2E2E2E2E2E2E2E2E2E2E2E2E2E2E2E2E2E2E2E2E2E2E2E2E2E2F5E2E2E2E2E2E2E2E2E2E2E2E2E2E2E2E2E2E2E2E2F5F5E2E2E2E2E2E2E2E2E2E2E2E2E2E2E2
310
E2E2E2E2E2F5F5F5F5F5F5F5F5F5F5F5F5F5F5F5F5F5F5F5F5F5F5F5F5F5F5F5F5F5F5F5F5F5F5F5F5F5F5F5F5F5F5F5F5F5F5F5F5F5F5F5F5F5F5F5F5F5F5F5F5F5F5F5F5F5F5F5F5F5F5F5F5F5F5F5F5F5F5F5F5F5F5F5F5F5F5F5F5F5F5F5F5F5F5F5F5F5F5F5F5F5F5F5F5F5F5F5F5F5F5F5F5F5F5F5F5F5F5F5F5F5F5
310
F5F5F5F5F5F5F5F5F5F5F5F5F5F5F5F5E2E2E2E2E2E2E2E2E2E2E2E2E2E2E2E2E2E2E2E2F5F5E2E2E2E2E2E2E2E2E2E2E2E2E2E2E2E2E2E2E2E2E2E2E2E2E2E2E2E2E2E2E2E2E2E2E2E2E2E2E2E2E2E2E2E2E2E2E2E2E2E2E2E2E2E2E2E2E2E2E2E2E2E2E2E2E2E2E2E2E2E2E2E2E2E2E2E2E2E2E2E2E2E2E2E2E2E2E2E2E2
310
E2E2E2E2E2E2E2E2E2E2E2E2E2E2E2E2E2E2E2E2E2E2E2E2E2E2E2E2E2E2E2E2E2E2E2E2E2E2E2E2E2E2E2E2E2E2E2E2E2E2E2E2E2E2E2E2E2E2E2E2E2E2E2E2E2E2E2E2E2E2E2E2E2E2E2E2E2E2E2E2E2E2E2E2E2E2E2E2E2F5F5E2E2E2E2E2E2E2E2E2E2E2E2E2E2E2E2E2E2E2E2E2E2E2E2E2E2E2E2E2E2E2E2E2E2E2E2
310
E2E2E2E2E2E2E2E2E2E2E2E2E2E2E2E2E2E2E2E2E2E2E2E2E2E2E2E2E2E2E2E2E2E2E2E2E2E2E2E2E2E2E2E2E2E2E2E2E2E2E2E2E2E2E2E2E2E2E2E2E2E2E2E2E2E2E2E2E2E2E2E2E2E2E2E2E2E2E2E2E2E2E2E2E2E2E2E2E2E2E2E2E2E2E2E2E2E2E2E2E2E2E2E2E2E2E2E2E2E2E2E2E2E2E2E2E2E2E2E2E2E2E2E2E2E2E2
310
E2E2E2E2E2E2E2E2E2E2E2E2E2E2E2F5F5E2E2E2E2E2E2E2E2E2E2E2E2E2E2E2E2E2E2E2E2E2E2E2E2E2E2E2E2E2E2E2E2E2E2E2E2E2E2E2E2E2E2E2E2E2E2E2E2E2E2E2E2E2E2E2E2E2E2E2E2E2E2E2E2E2E2E2E2E2E2E2E2E2E2E2E2E2E2E2E2E2E2E2E2E2E2E2E2E2E2E2E2E2E2E2E2E2E2E2E2E2E2E2E2E2E2E2E2E2E2
310
E2E2E2E2E2E2E2E2E2E2E2E2E2E2E2E2E2E2E2E2E2E2E2E2E2E2E2E2E2E2E2E2E2E2E2E2E2E2E2E2E2E2E2E2E2E2E2E2E2E2E2E2E2E2E2E2E2E2E2E2E2E2E2E2E2E2E2E2F5F5E2E2E2E2E2E2E2E2E2E2E2E2E2E2E2E2E2E2E2E2E2E2E2E2E2E2E2E2E2E2E2E2E2E2E2E2E2E2E2E2E2E2E2E2E2E2E2E2E2E2E2E2E2E2E2E2E2
310
E2E2E2E2E2E2E2E2E2E2E2E2E2E2E2E2E2E2E2E2E2E2E2E2E2E2E2E2E2E2E2E2E2E2E2E2E2E2E2E2E2E2E2E2E2E2E2E2E2E2E2E2E2E2E2E2E2E2E2E2E2E2E2E2E2E2E2E2E2E2E2E2E2E2E2E2E2E2E2E2E2E2E2E2E2E2E2E2E2E2E2E2E2E2E2E2E2E2E2E2E2E2E2E2E2E2E2E2E2E2E2E2E2E2E2E2E2E2E2E2E2F5F5E2E2E2F5
310
E2E2E2E2E2E2E2E2E2E2E2E2E2E2E2E2E2E2E2E2E2E2E2E2E2E2E2E2E2E2E2E2E2E2E2E2E2E2E2E2E2E2E2E2E2E2E2E2E2E2E2E2E2E2E2E2E2E2E2E2E2E2E2E2E2E2E2E2E2E2E2E2E2E2E2E2E2E2E2E2E2E2E2E2E2E2E2E2E2E2E2E2E2E2E2E2E2E2E2E2E2E2E2E2E2E2E2E2E2E2E2E2E2E2E2E2E2E2E2E2E2E2E2E2E2E2E2
310
E2E2E2E2E2E2E2E2E2E2E2E2E2E2E2E2E2E2E2E2E2E2E2E2E2E2E2E2E2E2E2E2E2E2E2E2E2E2E2E2E2E2E2F5E2E2E2F5F5E2E2E2F5E2E2E2E2E2E2E2E2E2E2E2E2E2E2E2E2E2E2E2E2E2E2E2E2E2E2E2E2E2E2E2E2E2E2E2E2E2E2E2E2E2E2E2E2E2E2E2E2E2E2E2E2E2E2E2E2E2E2E2E2E2E2E2E2E2E2E2E2E2E2E2E2E2E2
310
E2E2E2E2E2E2E2E2E2E2E2E2E2E2E2E2E2E2E2E2E2E2E2E2E2E2E2E2E2E2E2E2E2E2E2E2E2E2E2E2E2E2E2E2E2E2E2E2E2E2E2E2E2E2E2E2E2E2E2E2E2E2E2E2E2E2E2E2E2E2E2E2E2E2E2E2E2E2E2E2E2E2E2E2E2E2E2E2E2E2E2E2E2E2E2E2F5E2E2E2F5F5E2E2E2F5E2E2E2E2E2E2E2E2E2E2E2E2E2E2E2E2E2E2E2E2E2
310
E2E2E2E2E2E2E2E2E2E2E2E2E2E2E2E2E2E2E2E2E2E2E2E2E2E2E2E2E2E2E2E2E2E2E2E2E2E2E2E2E2E2E2E2E2E2E2E2E2E2E2E2E2E2E2E2E2E2E2E2E2E2E2E2E2E2E2E2E2E2E2E2E2E2E2E2E2E2E2E2E2E2E2E2E2E2E2E2E2E2E2E2E2E2E2E2E2E2E2E2E2E2E2E2E2E2E2E2E2E2E2E2E2E2E2E2E2E2E2E2E2E2E2E2E2E2E2
310
E2E2E2E2E2E2E2E2E2E2E2E2E2E2E2E2E2E2E2E2E2E2F5E2E2E2F5F5E2E2E2F5E2E2E2E2E2E2E2E2E2E2E2E2E2E2E2E2E2E2E2E2E2E2E2E2E2E2E2E2E2E2E2E2E2E2E2E2E2E2E2E2E2E2E2E2E2E2E2E2E2E2E2E2E2E2E2E2E2E2E2E2E2E2E2E2E2E2E2E2E2E2E2E2E2E2E2E2E2E2E2E2E2E2E2E2E2E2E2E2E2E2E2E2E2E2E2
310
E2E2E2E2E2E2E2E2E2E2E2E2E2E2E2E2E2E2E2E2E2E2E2E2E2E2E2E2E2E2E2E2E2E2E2E2E2E2E2E2E2E2E2E2E2E2E2E2E2E2E2E2E2E2E2E2E2E2E2E2E2E2E2E2E2E2E2E2E2E2E2E2E2E2E2F5E2E2E2F5F5E2E2E2F5E2E2E2E2E2E2E2E2E2E2E2E2E2E2E2E2E2E2E2E2E2E2E2E2E2E2E2E2E2E2E2E2E2E2E2E2E2E2E2E2E2E2
310
E2E2E2E2E2E2E2E2E2E2E2E2E2E2E2E2E2E2E2E2E2E2E2E2E2E2E2E2E2E2E2E2E2E2E2E2E2E2E2E2E2E2E2E2E2E2E2E2E2E2E2E2E2E2E2E2E2E2E2E2E2E2E2E2E2E2E2E2E2E2E2E2E2E2E2E2E2E2E2E2E2E2E2E2E2E2E2E2E2E2E2E2E2E2E2E2E2E2E2E2E2E2E2E2E2E2E2E2E2E2E2E2E2E2E2E2E2E2E2E2E2E2E2E2E2E2E2
310
E2F5E2E2E2F5F5E2E2E2F5E2E2E2E2E2E2E2E2E2E2E2E2E2E2E2E2E2E2E2E2E2E2E2E2E2E2E2E2E2E2E2E2E2E2E2E2E2E2E2E2E2E2E2E2E2E2E2E2E2E2E2E2E2E2E2E2E2E2E2E2E2E2E2E2E2E2E2E2E2E2E2E2E2E2E2E2E2E2E2E2E2E2E2E2E2E2E2E2E2E2E2E2E2E2E2E2E2E2E2E2E2E2E2E2E2E2E2E2E2E2E2E2E2E2E2E2
310
E2E2E2E2E2E2E2E2E2E2E2E2E2E2E2E2E2E2E2E2E2E2E2E2E2E2E2E2E2E2E2E2E2E2E2E2E2E2E2E2E2E2E2E2E2E2E2E2E2E2E2E2E2E2F5E2E2E2F5F5E2E2E2F5E2E2E2E2E2E2E2E2E2E2E2E2E2E2E2E2E2E2E2E2E2E2E2E2E2E2E2E2E2E2E2E2E2E2E2E2E2E2E2E2E2E2E2E2E2E2E2E2E2E2E2E2E2E2E2E2E2E2E2E2E2E2E2
310
E2E2E2E2E2E2E2E2E2E2E2E2E2E2E2E2E2E2E2E2E2E2E2E2E2E2E2E2E2E2E2E2E2E2E2E2E2E2E2E2E2E2E2E2E2E2E2E2E2E2E2E2E2E2E2E2E2E2E2E2E2E2E2E2E2E2E2E2E2E2E2E2E2E2E2E2E2E2E2E2E2E2E2E2E2E2E2E2E2E2E2E2E2E2E2E2E2E2E2E2E2E2E2E2E2E2E2F5E2E2E2F5F5E2E2E2F5E2E2E2E2E2E2E2E2E2E2
310
E2E2E2E2E2E2E2E2E2E2E2E2E2E2E2E2E2E2E2E2E2E2E2E2E2E2E2E2E2E2E2E2E2E2E2E2E2E2E2E2E2E2E2E2E2E2E2E2E2E2E2E2E2E2E2E2E2E2E2E2E2E2E2E2E2E2E2E2E2E2E2E2E2E2E2E2E2E2E2E2E2E2E2E2E2E2E2E2E2E2E2E2E2E2E2E2E2E2E2E2E2E2E2E2E2E2E2E2E2E2E2E2E2E2E2E2E2E2E2E2E2E2E2E2E2E2E2
310
E2E2E2E2E2E2E2E2E2E2E2E2E2E2E2E2E2E2E2E2E2E2E2E2E2E2E2E2E2E2E2E2E2F5E2E2E2F5F5E2E2E2F5F5F5F5F5F5F5F5E2E2E2E2E2E2E2E2E2F5F5F5F5F5F5F5F5F5F5F5F5F5F5F5F5E2E2E2E2E2E2E2E2E2F5F5F5F5F5F5F5F5F5F5F5F5F5F5F5E2E2E2E2E2E2E2E2E2F5F5F5F5F5F5F5F5F5F5F5F5F5F5F5F5E2E2E2
310
E2E2E2E2E2F5F5F5F5F5F5F5F5F5F5F5F5F5F5F5F5E2E2E2E2E2E2E2E2E2F5F5F5F5F5F5F5F5F5F5F5F5F5F5F5E2E2E2E2E2E2E2E2E2F5F5F5F5F5F5F5F5F5F5F5F5F5F5F5F5E2E2E2E2E2E2E2E2E2F5F5F5F5F5F5F5F5E2E2E2F5F5E2E2E2E2E2E2E2E2E2E2E2E2E2E2E2E2E2E2E2E2E2E2E2E2E2E2E2E2E2E2E2E2E2E2E2
310
E2E2E2E2E2E2E2E2E2E2E2E2E2E2E2E2E2E2E2E2E2E2E2E2E2E2E2E2E2E2E2E2E2E2E2E2E2E2E2E2E2E2E2E2E2E2E2E2E2E2E2E2E2E2E2E2E2E2E2E2E2E2E2E2E2E2E2E2E2E2E2E2E2E2E2E2E2E2E2E2E2E2E2E2E2E2E2E2E2E2E2E2E2E2E2E2E2E2E2E2E2E2E2E2E2E2E2E2E2E2E2E2E2E2E2E2E2E2E2E2E2E2E2E2E2E2E2
310
E2E2E2E2E2E2E2E2E2E2E2E2E2E2E2E2F5F5E2E2E2E2E2E2E2E2E2E2E2E2E2E2E2E2E2E2E2E2E2E2E2E2E2E2E2E2E2E2E2E2E2E2E2E2E2E2E2E2E2E2E2E2E2E2E2E2E2E2E2E2E2E2E2E2E2E2E2E2E2E2E2E2E2E2E2E2E2E2E2E2E2E2E2E2E2E2E2E2E2E2E2E2E2E2E2E2E2E2E2E2E2E2E2E2E2E2E2E2E2E2E2E2E2E2E2E2E2
310
E2E2E2E2E2E2E2E2E2E2E2E2E2E2E2E2E2E2E2E2E2E2E2E2E2E2E2E2E2E2E2E2E2E2E2E2E2E2E2E2E2E2E2E2E2E2E2E2E2E2E2E2E2E2E2E2E2E2E2E2E2E2E2E2E2E2E2E2E2F5F5E2E2E2E2E2E2E2E2E2E2E2E2E2E2E2E2E2E2E2E2E2E2E2E2E2E2E2E2E2E2E2E2E2E2E2E2E2E2E2E2E2E2E2E2E2E2E2E2E2E2E2E2E2E2E2E2
310
E2E2E2E2E2E2E2E2E2E2E2E2E2E2E2E2E2E2E2E2E2E2E2E2E2E2E2E2E2E2E2E2E2E2E2E2E2E2E2E2E2E2E2E2E2E2E2E2E2E2E2E2E2E2E2E2E2E2E2E2E2E2E2E2E2E2E2E2E2E2E2E2E2E2E2E2E2E2E2E2E2E2E2E2E2E2E2E2E2E2E2E2E2E2E2E2E2E2E2E2E2E2E2E2E2E2E2E2E2E2E2E2E2E2E2E2E2E2E2E2E2E2F5F5E2E2E2
310
E2E2E2E2E2E2E2E2E2E2E2E2E2E2E2E2E2E2E2E2E2E2E2E2E2E2E2E2E2E2E2E2E2E2E2E2E2E2E2E2E2E2E2E2E2E2E2E2E2E2E2E2E2E2E2E2E2E2E2E2E2E2E2E2E2E2E2E2E2E2E2E2E2E2E2E2E2E2E2E2E2E2E2E2E2E2E2E2E2E2E2E2E2E2E2E2E2E2E2E2E2E2E2E2E2E2E2E2E2E2E2E2E2E2E2E2E2E2E2E2E2E2E2E2E2E2E2
310
E2E2E2E2E2E2E2E2E2E2E2E2E2E2E2E2E2E2E2E2E2E2E2E2E2E2E2E2E2E2E2E2E2E2E2E2E2E2E2E2E2E2E2E2E2E2E2E2F5
  0
XRECORD
  5
55F61
102
{ACAD_REACTORS
330
55F60
102
}
330
55F60
100
AcDbXrecord
280
     1
102
SHADEPLOT
 70
     0
102
SHADEPLOTRESLEVEL
 70
     2
102
SHADEPLOTCUSTOMDPI
 70
   300
  0
ENDSEC
  0
EOF
