  0
SECTION
  2
HEADER
  9
$ACADVER
  1
AC1015
  9
$ACADMAINTVER
 70
    20
  9
$DWGCODEPAGE
  3
ANSI_936
  9
$INSBASE
 10
0.0
 20
0.0
 30
0.0
  9
$EXTMIN
 10
-121.4468657160682
 20
-221.8150021214152
 30
0.0
  9
$EXTMAX
 10
145.8073079167931
 20
84.56961532674586
 30
0.0
  9
$LIMMIN
 10
0.0
 20
0.0
  9
$LIMMAX
 10
420.0
 20
297.0
  9
$ORTHOMODE
 70
     1
  9
$REGENMODE
 70
     1
  9
$FILLMODE
 70
     1
  9
$QTEXTMODE
 70
     0
  9
$MIRRTEXT
 70
     1
  9
$LTSCALE
 40
1.0
  9
$ATTMODE
 70
     1
  9
$TEXTSIZE
 40
3.5
  9
$TRACEWID
 40
1.0
  9
$TEXTSTYLE
  7
simplex
  9
$CLAYER
  8
0
  9
$CELTYPE
  6
ByLayer
  9
$CECOLOR
 62
   256
  9
$CELTSCALE
 40
1.0
  9
$DISPSILH
 70
     0
  9
$DIMSCALE
 40
0.0
  9
$DIMASZ
 40
3.5
  9
$DIMEXO
 40
0.0
  9
$DIMDLI
 40
0.38
  9
$DIMRND
 40
0.0
  9
$DIMDLE
 40
0.0
  9
$DIMEXE
 40
1.5
  9
$DIMTP
 40
0.0
  9
$DIMTM
 40
0.0
  9
$DIMTXT
 40
3.5
  9
$DIMCEN
 40
0.09
  9
$DIMTSZ
 40
0.0
  9
$DIMTOL
 70
     0
  9
$DIMLIM
 70
     0
  9
$DIMTIH
 70
     0
  9
$DIMTOH
 70
     0
  9
$DIMSE1
 70
     0
  9
$DIMSE2
 70
     0
  9
$DIMTAD
 70
     1
  9
$DIMZIN
 70
     8
  9
$DIMBLK
  1

  9
$DIMASO
 70
     1
  9
$DIMSHO
 70
     1
  9
$DIMPOST
  1

  9
$DIMAPOST
  1

  9
$DIMALT
 70
     0
  9
$DIMALTD
 70
     2
  9
$DIMALTF
 40
25.4
  9
$DIMLFAC
 40
1.0
  9
$DIMTOFL
 70
     0
  9
$DIMTVP
 40
0.0
  9
$DIMTIX
 70
     0
  9
$DIMSOXD
 70
     0
  9
$DIMSAH
 70
     0
  9
$DIMBLK1
  1

  9
$DIMBLK2
  1

  9
$DIMSTYLE
  2
\M+18352\M+18373\M+1815B - ISO-25
  9
$DIMCLRD
 70
   256
  9
$DIMCLRE
 70
   256
  9
$DIMCLRT
 70
   256
  9
$DIMTFAC
 40
1.0
  9
$DIMGAP
 40
2.299999999999998
  9
$DIMJUST
 70
     0
  9
$DIMSD1
 70
     0
  9
$DIMSD2
 70
     0
  9
$DIMTOLJ
 70
     1
  9
$DIMTZIN
 70
     8
  9
$DIMALTZ
 70
     0
  9
$DIMALTTZ
 70
     0
  9
$DIMUPT
 70
     0
  9
$DIMDEC
 70
     2
  9
$DIMTDEC
 70
     2
  9
$DIMALTU
 70
     2
  9
$DIMALTTD
 70
     2
  9
$DIMTXSTY
  7
simplex
  9
$DIMAUNIT
 70
     0
  9
$DIMADEC
 70
     0
  9
$DIMALTRND
 40
0.0
  9
$DIMAZIN
 70
     0
  9
$DIMDSEP
 70
    46
  9
$DIMATFIT
 70
     3
  9
$DIMFRAC
 70
     0
  9
$DIMLDRBLK
  1

  9
$DIMLUNIT
 70
     2
  9
$DIMLWD
 70
    -1
  9
$DIMLWE
 70
    -1
  9
$DIMTMOVE
 70
     0
  9
$LUNITS
 70
     2
  9
$LUPREC
 70
     4
  9
$SKETCHINC
 40
1.0
  9
$FILLETRAD
 40
0.5
  9
$AUNITS
 70
     0
  9
$AUPREC
 70
     0
  9
$MENU
  1
.
  9
$ELEVATION
 40
0.0
  9
$PELEVATION
 40
0.0
  9
$THICKNESS
 40
0.0
  9
$LIMCHECK
 70
     0
  9
$CHAMFERA
 40
10.0
  9
$CHAMFERB
 40
10.0
  9
$CHAMFERC
 40
20.0
  9
$CHAMFERD
 40
0.0
  9
$SKPOLY
 70
     0
  9
$TDCREATE
 40
2455489.391063368
  9
$TDUCREATE
 40
2455489.057730035
  9
$TDUPDATE
 40
2458573.048787396
  9
$TDUUPDATE
 40
2458572.715454063
  9
$TDINDWG
 40
2.7806091204
  9
$TDUSRTIMER
 40
2.7805535532
  9
$USRTIMER
 70
     1
  9
$ANGBASE
 50
0.0
  9
$ANGDIR
 70
     0
  9
$PDMODE
 70
     0
  9
$PDSIZE
 40
0.0
  9
$PLINEWID
 40
0.0
  9
$SPLFRAME
 70
     0
  9
$SPLINETYPE
 70
     6
  9
$SPLINESEGS
 70
     8
  9
$HANDSEED
  5
56390
  9
$SURFTAB1
 70
     6
  9
$SURFTAB2
 70
     6
  9
$SURFTYPE
 70
     6
  9
$SURFU
 70
     6
  9
$SURFV
 70
     6
  9
$UCSBASE
  2

  9
$UCSNAME
  2

  9
$UCSORG
 10
0.0
 20
0.0
 30
0.0
  9
$UCSXDIR
 10
1.0
 20
0.0
 30
0.0
  9
$UCSYDIR
 10
0.0
 20
1.0
 30
0.0
  9
$UCSORTHOREF
  2

  9
$UCSORTHOVIEW
 70
     0
  9
$UCSORGTOP
 10
0.0
 20
0.0
 30
0.0
  9
$UCSORGBOTTOM
 10
0.0
 20
0.0
 30
0.0
  9
$UCSORGLEFT
 10
0.0
 20
0.0
 30
0.0
  9
$UCSORGRIGHT
 10
0.0
 20
0.0
 30
0.0
  9
$UCSORGFRONT
 10
0.0
 20
0.0
 30
0.0
  9
$UCSORGBACK
 10
0.0
 20
0.0
 30
0.0
  9
$PUCSBASE
  2

  9
$PUCSNAME
  2

  9
$PUCSORG
 10
0.0
 20
0.0
 30
0.0
  9
$PUCSXDIR
 10
1.0
 20
0.0
 30
0.0
  9
$PUCSYDIR
 10
0.0
 20
1.0
 30
0.0
  9
$PUCSORTHOREF
  2

  9
$PUCSORTHOVIEW
 70
     0
  9
$PUCSORGTOP
 10
0.0
 20
0.0
 30
0.0
  9
$PUCSORGBOTTOM
 10
0.0
 20
0.0
 30
0.0
  9
$PUCSORGLEFT
 10
0.0
 20
0.0
 30
0.0
  9
$PUCSORGRIGHT
 10
0.0
 20
0.0
 30
0.0
  9
$PUCSORGFRONT
 10
0.0
 20
0.0
 30
0.0
  9
$PUCSORGBACK
 10
0.0
 20
0.0
 30
0.0
  9
$USERI1
 70
     0
  9
$USERI2
 70
     0
  9
$USERI3
 70
     0
  9
$USERI4
 70
     0
  9
$USERI5
 70
     0
  9
$USERR1
 40
0.0
  9
$USERR2
 40
0.0
  9
$USERR3
 40
0.0
  9
$USERR4
 40
0.0
  9
$USERR5
 40
0.0
  9
$WORLDVIEW
 70
     1
  9
$SHADEDGE
 70
     3
  9
$SHADEDIF
 70
    70
  9
$TILEMODE
 70
     1
  9
$MAXACTVP
 70
    64
  9
$PINSBASE
 10
0.0
 20
0.0
 30
0.0
  9
$PLIMCHECK
 70
     0
  9
$PEXTMIN
 10
26.66999878883364
 20
20.31999878883365
 30
0.0
  9
$PEXTMAX
 10
240.0299890995025
 20
182.8799890995025
 30
0.0
  9
$PLIMMIN
 10
-6.350006103515625
 20
-6.349999904632567
  9
$PLIMMAX
 10
273.0499877929688
 20
209.5499939918518
  9
$UNITMODE
 70
     0
  9
$VISRETAIN
 70
     1
  9
$PLINEGEN
 70
     0
  9
$PSLTSCALE
 70
     1
  9
$TREEDEPTH
 70
  3020
  9
$CMLSTYLE
  2
Standard
  9
$CMLJUST
 70
     0
  9
$CMLSCALE
 40
20.0
  9
$PROXYGRAPHICS
 70
     1
  9
$MEASUREMENT
 70
     1
  9
$CELWEIGHT
370
    -1
  9
$ENDCAPS
280
     0
  9
$JOINSTYLE
280
     0
  9
$LWDISPLAY
290
     0
  9
$INSUNITS
 70
     4
  9
$HYPERLINKBASE
  1

  9
$STYLESHEET
  1

  9
$XEDIT
290
     1
  9
$CEPSNTYPE
380
     0
  9
$PSTYLEMODE
290
     1
  9
$FINGERPRINTGUID
  2
{601DDA01-5B13-4A4C-8F56-1333B78D855B}
  9
$VERSIONGUID
  2
{E538CB87-3C3B-4A3B-8711-8B9AF2865DDE}
  9
$EXTNAMES
290
     1
  9
$PSVPSCALE
 40
0.0
  9
$OLESTARTUP
290
     0
  0
ENDSEC
  0
SECTION
  2
CLASSES
  0
CLASS
  1
ACDBDICTIONARYWDFLT
  2
AcDbDictionaryWithDefault
  3
ObjectDBX Classes
 90
        0
280
     0
281
     0
  0
CLASS
  1
ACDBPLACEHOLDER
  2
AcDbPlaceHolder
  3
ObjectDBX Classes
 90
        0
280
     0
281
     0
  0
CLASS
  1
LAYOUT
  2
AcDbLayout
  3
ObjectDBX Classes
 90
        0
280
     0
281
     0
  0
CLASS
  1
DICTIONARYVAR
  2
AcDbDictionaryVar
  3
ObjectDBX Classes
 90
        0
280
     0
281
     0
  0
CLASS
  1
TABLESTYLE
  2
AcDbTableStyle
  3
ObjectDBX Classes
 90
     2047
280
     0
281
     0
  0
CLASS
  1
SORTENTSTABLE
  2
AcDbSortentsTable
  3
ObjectDBX Classes
 90
        0
280
     0
281
     0
  0
CLASS
  1
DIMASSOC
  2
AcDbDimAssoc
  3
"AcDbDimAssoc|Product Desc:     AcDim ARX App For Dimension|Company:          Autodesk, Inc.|WEB Address:      www.autodesk.com"
 90
        0
280
     0
281
     0
  0
CLASS
  1
ACAD_EVALUATION_GRAPH
  2
AcDbEvalGraph
  3
ObjectDBX Classes
 90
    33921
280
     0
281
     0
  0
CLASS
  1
ACAECUSTOBJ
  2
AcAeEditorObj
  3
AcAeEditorObj
 90
    33792
280
     0
281
     0
  0
CLASS
  1
ACDB_DYNAMICBLOCKPURGEPREVENTER_VERSION
  2
AcDbDynamicBlockPurgePreventer
  3
ObjectDBX Classes
 90
    33921
280
     0
281
     0
  0
ENDSEC
  0
SECTION
  2
TABLES
  0
TABLE
  2
VPORT
  5
8
330
0
100
AcDbSymbolTable
 70
     3
  0
VPORT
  5
56381
330
8
100
AcDbSymbolTableRecord
100
AcDbViewportTableRecord
  2
*Active
 70
     0
 10
0.0
 20
0.0
 11
1.0
 21
1.0
 12
-24.23788311581962
 22
10.66822489877455
 13
0.0
 23
0.0
 14
10.0
 24
10.0
 15
10.0
 25
10.0
 16
0.0
 26
0.0
 36
1.0
 17
0.0
 27
0.0
 37
0.0
 40
322.7975115292471
 41
1.508350730688935
 42
50.0
 43
0.0
 44
0.0
 50
0.0
 51
0.0
 71
     0
 72
  1000
 73
     1
 74
     1
 75
     0
 76
     0
 77
     0
 78
     0
281
     0
 65
     1
110
0.0
120
0.0
130
0.0
111
1.0
121
0.0
131
0.0
112
0.0
122
1.0
132
0.0
 79
     0
146
0.0
  0
ENDTAB
  0
TABLE
  2
LTYPE
  5
5
330
0
100
AcDbSymbolTable
 70
     4
  0
LTYPE
  5
14
330
5
100
AcDbSymbolTableRecord
100
AcDbLinetypeTableRecord
  2
ByBlock
 70
     0
  3

 72
    65
 73
     0
 40
0.0
  0
LTYPE
  5
15
330
5
100
AcDbSymbolTableRecord
100
AcDbLinetypeTableRecord
  2
ByLayer
 70
     0
  3

 72
    65
 73
     0
 40
0.0
  0
LTYPE
  5
16
330
5
100
AcDbSymbolTableRecord
100
AcDbLinetypeTableRecord
  2
Continuous
 70
     0
  3
Solid line
 72
    65
 73
     0
 40
0.0
  0
LTYPE
  5
D7
330
5
100
AcDbSymbolTableRecord
100
AcDbLinetypeTableRecord
  2
HIDDEN
 70
     0
  3
Hidden __ __ __ __ __ __ __ __ __ __ __ __ __ _
 72
    65
 73
     2
 40
9.524999999999996
 49
6.349999999999997
 74
     0
 49
-3.174999999999998
 74
     0
  0
LTYPE
  5
D9
330
5
100
AcDbSymbolTableRecord
100
AcDbLinetypeTableRecord
  2
CENTER
 70
     0
  3
Center ____ _ ____ _ ____ _ ____ _ ____ _ ____
 72
    65
 73
     4
 40
50.8
 49
31.75
 74
     0
 49
-6.349999999999997
 74
     0
 49
6.349999999999997
 74
     0
 49
-6.349999999999997
 74
     0
  0
LTYPE
  5
35815
330
5
100
AcDbSymbolTableRecord
100
AcDbLinetypeTableRecord
  2
PHANTOM
 70
     0
  3
_____ _ _ _____ _ _ _____ _ _ _____
 72
    65
 73
     6
 40
0.8
 49
0.45
 74
     0
 49
-0.05
 74
     0
 49
0.1
 74
     0
 49
-0.05
 74
     0
 49
0.1
 74
     0
 49
-0.05
 74
     0
  0
ENDTAB
  0
TABLE
  2
LAYER
  5
2
102
{ACAD_XDICTIONARY
360
E2
102
}
330
0
100
AcDbSymbolTable
 70
    14
  0
LAYER
  5
10
330
2
100
AcDbSymbolTableRecord
100
AcDbLayerTableRecord
  2
0
 70
     0
 62
     7
  6
Continuous
370
    -3
390
F
  0
LAYER
  5
D1
330
2
100
AcDbSymbolTableRecord
100
AcDbLayerTableRecord
  2
1
 70
     0
 62
     4
  6
Continuous
370
    50
390
F
1001
AcAecLayerStandard
1000

1000

  0
LAYER
  5
D3
330
2
100
AcDbSymbolTableRecord
100
AcDbLayerTableRecord
  2
2
 70
     0
 62
     7
  6
Continuous
370
    25
390
F
1001
AcAecLayerStandard
1000

1000

  0
LAYER
  5
D4
330
2
100
AcDbSymbolTableRecord
100
AcDbLayerTableRecord
  2
3
 70
     0
 62
     1
  6
HIDDEN
370
    35
390
F
1001
AcAecLayerStandard
1000

1000

  0
LAYER
  5
D8
330
2
100
AcDbSymbolTableRecord
100
AcDbLayerTableRecord
  2
4
 70
     0
 62
     2
  6
CENTER
370
    25
390
F
1001
AcAecLayerStandard
1000

1000

  0
LAYER
  5
DA
330
2
100
AcDbSymbolTableRecord
100
AcDbLayerTableRecord
  2
6
 70
     0
 62
     5
  6
Continuous
370
    35
390
F
1001
AcAecLayerStandard
1000

1000

  0
LAYER
  5
DB
330
2
100
AcDbSymbolTableRecord
100
AcDbLayerTableRecord
  2
cut
 70
     0
 62
     1
  6
Continuous
370
    25
390
F
1001
AcAecLayerStandard
1000

1000

  0
LAYER
  5
DC
330
2
100
AcDbSymbolTableRecord
100
AcDbLayerTableRecord
  2
nocut
 70
     0
 62
     7
  6
Continuous
370
    25
390
F
1001
AcAecLayerStandard
1000

1000

  0
LAYER
  5
DD
330
2
100
AcDbSymbolTableRecord
100
AcDbLayerTableRecord
  2
sk1
 70
     0
 62
     4
  6
Continuous
370
    50
390
F
1001
AcAecLayerStandard
1000

1000

  0
LAYER
  5
DE
330
2
100
AcDbSymbolTableRecord
100
AcDbLayerTableRecord
  2
sk2
 70
     0
 62
     7
  6
Continuous
370
    25
390
F
1001
AcAecLayerStandard
1000

1000

  0
LAYER
  5
DF
330
2
100
AcDbSymbolTableRecord
100
AcDbLayerTableRecord
  2
sk3
 70
     0
 62
     1
  6
HIDDEN
370
    35
390
F
1001
AcAecLayerStandard
1000

1000

  0
LAYER
  5
E0
330
2
100
AcDbSymbolTableRecord
100
AcDbLayerTableRecord
  2
sk4
 70
     0
 62
     2
  6
CENTER
370
    25
390
F
1001
AcAecLayerStandard
1000

1000

  0
LAYER
  5
E1
330
2
100
AcDbSymbolTableRecord
100
AcDbLayerTableRecord
  2
sk6
 70
     0
 62
     5
  6
Continuous
370
    35
390
F
1001
AcAecLayerStandard
1000

1000

  0
LAYER
  5
31B6
330
2
100
AcDbSymbolTableRecord
100
AcDbLayerTableRecord
  2
Defpoints
 70
     0
 62
     7
  6
Continuous
290
     0
370
    -3
390
F
  0
ENDTAB
  0
TABLE
  2
STYLE
  5
3
330
0
100
AcDbSymbolTable
 70
    12
  0
STYLE
  5
11
330
3
100
AcDbSymbolTableRecord
100
AcDbTextStyleTableRecord
  2
Standard
 70
     0
 40
0.0
 41
1.0
 50
0.0
 71
     0
 42
2.5
  3
txt.shx
  4
@extfont2.shx
  0
STYLE
  5
D6
330
3
100
AcDbSymbolTableRecord
100
AcDbTextStyleTableRecord
  2

 70
     1
 40
0.0
 41
1.0
 50
0.0
 71
     0
 42
2.5
  3
ltypeshp.shx
  4

  0
STYLE
  5
24A
330
3
100
AcDbSymbolTableRecord
100
AcDbTextStyleTableRecord
  2
simplex
 70
     0
 40
3.5
 41
1.0
 50
0.0
 71
     0
 42
3.5
  3
txt.shx
  4

  0
STYLE
  5
69E
330
3
100
AcDbSymbolTableRecord
100
AcDbTextStyleTableRecord
  2
MX_NOTE_STANDARD
 70
     0
 40
0.0
 41
1.0
 50
0.0
 71
     0
 42
4.2
  3
txt.shx
  4
extfont.shx
  0
STYLE
  5
3524
330
3
100
AcDbSymbolTableRecord
100
AcDbTextStyleTableRecord
  2
TEXTSTYLE_2
 70
     0
 40
0.0
 41
0.775
 50
0.0
 71
     0
 42
0.2
  3
gdt
  4

  0
STYLE
  5
3525
330
3
100
AcDbSymbolTableRecord
100
AcDbTextStyleTableRecord
  2
TEXTSTYLE_3
 70
     0
 40
0.0
 41
0.75
 50
0.0
 71
     0
 42
0.2
  3
txt
  4

  0
STYLE
  5
3526
330
3
100
AcDbSymbolTableRecord
100
AcDbTextStyleTableRecord
  2
TEXTSTYLE_13
 70
     0
 40
0.0
 41
1.0
 50
0.0
 71
     0
 42
0.2
  3
txt
  4

  0
STYLE
  5
519A
330
3
100
AcDbSymbolTableRecord
100
AcDbTextStyleTableRecord
  2
TEXTSTYLE_14
 70
     0
 40
0.0
 41
1.0
 50
0.0
 71
     0
 42
0.2
  3
txt
  4

  0
STYLE
  5
6F72
330
3
100
AcDbSymbolTableRecord
100
AcDbTextStyleTableRecord
  2
TEXTSTYLE_4
 70
     0
 40
0.0
 41
0.75
 50
0.0
 71
     0
 42
0.2
  3
txt
  4

  0
STYLE
  5
6F73
330
3
100
AcDbSymbolTableRecord
100
AcDbTextStyleTableRecord
  2
TEXTSTYLE_17
 70
     0
 40
0.0
 41
1.0
 50
0.0
 71
     0
 42
0.2
  3
txt
  4

  0
STYLE
  5
FE12
330
3
100
AcDbSymbolTableRecord
100
AcDbTextStyleTableRecord
  2
TEXTSTYLE_12
 70
     0
 40
0.0
 41
1.0
 50
0.0
 71
     0
 42
0.2
  3
txt
  4

  0
STYLE
  5
3AAB8
330
3
100
AcDbSymbolTableRecord
100
AcDbTextStyleTableRecord
  2
TEXTSTYLE_20
 70
     0
 40
0.0
 41
0.6
 50
0.0
 71
     0
 42
0.2
  3
txt
  4

  0
ENDTAB
  0
TABLE
  2
VIEW
  5
6
330
0
100
AcDbSymbolTable
 70
     0
  0
ENDTAB
  0
TABLE
  2
UCS
  5
7
330
0
100
AcDbSymbolTable
 70
     0
  0
ENDTAB
  0
TABLE
  2
APPID
  5
9
330
0
100
AcDbSymbolTable
 70
    11
  0
APPID
  5
12
330
9
100
AcDbSymbolTableRecord
100
AcDbRegAppTableRecord
  2
ACAD
 70
     0
  0
APPID
  5
D2
330
9
100
AcDbSymbolTableRecord
100
AcDbRegAppTableRecord
  2
AcAecLayerStandard
 70
     0
  0
APPID
  5
E6
330
9
100
AcDbSymbolTableRecord
100
AcDbRegAppTableRecord
  2
ACAD_DSTYLE_DIMTEXT_FILL
 70
     0
  0
APPID
  5
4C84
330
9
100
AcDbSymbolTableRecord
100
AcDbRegAppTableRecord
  2
ACAD_EXEMPT_FROM_CAD_STANDARDS
 70
     0
  0
APPID
  5
3493E
330
9
100
AcDbSymbolTableRecord
100
AcDbRegAppTableRecord
  2
DCO15
 70
     0
  0
APPID
  5
3BAB0
330
9
100
AcDbSymbolTableRecord
100
AcDbRegAppTableRecord
  2
ACAD_DSTYLE_DIMEXT_ENABLED
 70
     0
  0
APPID
  5
3BAB1
330
9
100
AcDbSymbolTableRecord
100
AcDbRegAppTableRecord
  2
ACAD_DSTYLE_DIMEXT_LENGTH
 70
     0
  0
APPID
  5
3BEB4
330
9
100
AcDbSymbolTableRecord
100
AcDbRegAppTableRecord
  2
ACAUTHENVIRON
 70
     0
  0
APPID
  5
3BEB7
330
9
100
AcDbSymbolTableRecord
100
AcDbRegAppTableRecord
  2
AcDbDynamicBlockTrueName
 70
     0
  0
APPID
  5
3BEB8
330
9
100
AcDbSymbolTableRecord
100
AcDbRegAppTableRecord
  2
AcDbDynamicBlockGUID
 70
     0
  0
APPID
  5
3BEBA
330
9
100
AcDbSymbolTableRecord
100
AcDbRegAppTableRecord
  2
AcDbBlockRepETag
 70
     0
  0
ENDTAB
  0
TABLE
  2
DIMSTYLE
  5
A
330
0
100
AcDbSymbolTable
 70
    11
100
AcDbDimStyleTable
 71
     5
340
1BF
340
27
340
352A
340
3527
340
69F
  0
DIMSTYLE
105
27
330
A
100
AcDbSymbolTableRecord
100
AcDbDimStyleTableRecord
  2
ISO-25
 70
     0
 41
2.5
 42
0.625
 43
3.75
 44
1.25
 73
     0
 74
     0
 77
     1
 78
     8
140
2.5
141
2.5
143
0.03937007874016
147
0.625
171
     3
172
     1
271
     2
272
     2
274
     3
278
    44
283
     0
284
     8
340
11
  0
DIMSTYLE
105
1BF
102
{ACAD_REACTORS
330
54C2A
330
54C2E
330
55ED8
330
55F25
330
56270
330
56278
330
5627B
102
}
330
A
100
AcDbSymbolTableRecord
100
AcDbDimStyleTableRecord
  2
\M+18352\M+18373\M+1815B - ISO-25
 70
     0
 40
0.0
 41
3.5
 42
0.0
 44
1.5
 73
     0
 74
     0
 77
     1
 78
     8
140
3.5
147
2.299999999999998
176
   256
177
   256
178
   256
271
     2
272
     2
284
     8
340
24A
371
    -1
372
    -1
  0
DIMSTYLE
105
69F
330
A
100
AcDbSymbolTableRecord
100
AcDbDimStyleTableRecord
  2
MXDIMSTYLE
 70
     0
 41
2.5
 42
0.5
 43
3.75
 44
1.5
 73
     0
 74
     0
 77
     1
 78
     8
140
4.2
141
2.5
143
0.03937
147
1.0
171
     4
172
     1
173
     1
271
     2
272
     2
274
     4
283
     0
288
     1
340
69E
341
697
343
697
344
697
  0
DIMSTYLE
105
3527
330
A
100
AcDbSymbolTableRecord
100
AcDbDimStyleTableRecord
  2
STANDARD
 70
     0
 41
3.0
 47
0.001
 48
0.001
 71
     1
 73
     0
 74
     0
 77
     1
 78
     8
140
4.0
271
     3
272
     3
284
     8
340
11
341
34B1
342
34B1
343
34B1
344
34B1
  0
DIMSTYLE
105
3528
330
A
100
AcDbSymbolTableRecord
100
AcDbDimStyleTableRecord
  2
DIMSTYLE_1
 70
     0
 41
3.0
 73
     0
 74
     0
 77
     1
 78
     8
140
4.0
271
     3
272
     3
284
     8
340
11
341
34B1
342
34B1
343
34B1
344
34B1
  0
DIMSTYLE
105
3529
330
A
100
AcDbSymbolTableRecord
100
AcDbDimStyleTableRecord
  2
DIMSTYLE_2
 70
     0
 41
3.0
 47
0.001
 48
0.001
 73
     0
 74
     0
 77
     1
 78
     8
140
4.0
271
     3
272
     3
284
     8
340
11
341
34B1
342
34B1
343
34B1
344
34B1
  0
DIMSTYLE
105
352A
330
A
100
AcDbSymbolTableRecord
100
AcDbDimStyleTableRecord
  2
DIMSTYLE_3
 70
     0
 41
3.0
 47
-0.1
 48
0.3
 71
     1
 73
     0
 74
     0
 77
     1
 78
     8
140
4.0
146
0.5
271
     3
272
     3
284
     8
340
11
341
34B1
342
34B1
343
34B1
344
34B1
  0
DIMSTYLE
105
352B
330
A
100
AcDbSymbolTableRecord
100
AcDbDimStyleTableRecord
  2
DIMSTYLE_4
 70
     0
 41
3.0
 47
0.1
 48
0.1
 71
     1
 73
     0
 74
     0
 77
     1
 78
     8
140
4.0
271
     3
272
     3
284
     8
340
11
341
34B1
342
34B1
343
34B1
344
34B1
  0
DIMSTYLE
105
27245
330
A
100
AcDbSymbolTableRecord
100
AcDbDimStyleTableRecord
  2
DIMSTYLE_5
 70
     0
 41
3.0
 47
0.001
 48
0.001
 73
     0
 74
     0
 77
     1
 78
     8
140
4.0
271
     3
272
     3
284
     8
340
11
341
34B1
342
34B1
343
34B1
344
34B1
  0
DIMSTYLE
105
3AAB9
330
A
100
AcDbSymbolTableRecord
100
AcDbDimStyleTableRecord
  2
DIMSTYLE_6
 70
     0
 41
3.0
 42
0.0
 44
1.0
 47
0.05
 48
0.05
 71
     1
 73
     0
 74
     0
 77
     1
 78
     8
140
4.0
147
1.0
271
     3
272
     3
284
     8
340
11
341
34B1
342
34B1
343
34B1
344
34B1
  0
DIMSTYLE
105
532EA
330
A
100
AcDbSymbolTableRecord
100
AcDbDimStyleTableRecord
  2
NEW-DIMSTYLE
 70
     0
 40
0.0
 41
4.57
 42
0.0
 44
5.0
 73
     0
 74
     0
 77
     1
 78
     8
140
4.57
147
2.299999999999998
271
     2
340
24A
  0
ENDTAB
  0
TABLE
  2
BLOCK_RECORD
  5
1
330
0
100
AcDbSymbolTable
 70
    28
  0
BLOCK_RECORD
  5
1F
102
{ACAD_XDICTIONARY
360
31EE
102
}
330
1
100
AcDbSymbolTableRecord
100
AcDbBlockTableRecord
  2
*Model_Space
340
22
  0
BLOCK_RECORD
  5
50
330
1
100
AcDbSymbolTableRecord
100
AcDbBlockTableRecord
  2
*Paper_Space
340
51
  0
BLOCK_RECORD
  5
55
330
1
100
AcDbSymbolTableRecord
100
AcDbBlockTableRecord
  2
*Paper_Space0
340
56
  0
BLOCK_RECORD
  5
680
102
{ACAD_XDICTIONARY
360
3BEB2
102
}
330
1
100
AcDbSymbolTableRecord
100
AcDbBlockTableRecord
  2
zero block
340
0
102
{BLKREFS
331
68C
331
561B1
102
}
1001
ACAD
1000
DesignCenter Data
1002
{
1070
     1
1070
     4
1002
}
1001
AcDbDynamicBlockGUID
1000
{C2E8894D-A8DA-456D-ABB6-198B00672C1A}
1001
AcDbBlockRepETag
1070
     1
1071
        7
  0
BLOCK_RECORD
  5
697
330
1
100
AcDbSymbolTableRecord
100
AcDbBlockTableRecord
  2
_OPEN30
340
0
  0
BLOCK_RECORD
  5
34B1
330
1
100
AcDbSymbolTableRecord
100
AcDbBlockTableRecord
  2
_OPEN
340
0
  0
BLOCK_RECORD
  5
50E6F
330
1
100
AcDbSymbolTableRecord
100
AcDbBlockTableRecord
  2
_None
340
0
  0
BLOCK_RECORD
  5
54C53
330
1
100
AcDbSymbolTableRecord
100
AcDbBlockTableRecord
  2
*D5
340
0
  0
BLOCK_RECORD
  5
54C73
330
1
100
AcDbSymbolTableRecord
100
AcDbBlockTableRecord
  2
*D6
340
0
  0
BLOCK_RECORD
  5
55635
330
1
100
AcDbSymbolTableRecord
100
AcDbBlockTableRecord
  2
*D7
340
0
  0
BLOCK_RECORD
  5
55658
330
1
100
AcDbSymbolTableRecord
100
AcDbBlockTableRecord
  2
*D8
340
0
  0
BLOCK_RECORD
  5
5569E
330
1
100
AcDbSymbolTableRecord
100
AcDbBlockTableRecord
  2
*D9
340
0
  0
BLOCK_RECORD
  5
55762
330
1
100
AcDbSymbolTableRecord
100
AcDbBlockTableRecord
  2
*D10
340
0
  0
BLOCK_RECORD
  5
5605C
330
1
100
AcDbSymbolTableRecord
100
AcDbBlockTableRecord
  2
*D11
340
0
  0
BLOCK_RECORD
  5
5609A
330
1
100
AcDbSymbolTableRecord
100
AcDbBlockTableRecord
  2
*D12
340
0
  0
BLOCK_RECORD
  5
5615C
330
1
100
AcDbSymbolTableRecord
100
AcDbBlockTableRecord
  2
*D13
340
0
  0
BLOCK_RECORD
  5
56169
330
1
100
AcDbSymbolTableRecord
100
AcDbBlockTableRecord
  2
*D14
340
0
  0
BLOCK_RECORD
  5
56176
330
1
100
AcDbSymbolTableRecord
100
AcDbBlockTableRecord
  2
*D15
340
0
  0
BLOCK_RECORD
  5
56181
330
1
100
AcDbSymbolTableRecord
100
AcDbBlockTableRecord
  2
*D16
340
0
  0
BLOCK_RECORD
  5
5618E
330
1
100
AcDbSymbolTableRecord
100
AcDbBlockTableRecord
  2
*D17
340
0
  0
BLOCK_RECORD
  5
5619A
330
1
100
AcDbSymbolTableRecord
100
AcDbBlockTableRecord
  2
*D18
340
0
  0
BLOCK_RECORD
  5
561A6
330
1
100
AcDbSymbolTableRecord
100
AcDbBlockTableRecord
  2
*D19
340
0
  0
BLOCK_RECORD
  5
56291
330
1
100
AcDbSymbolTableRecord
100
AcDbBlockTableRecord
  2
*D21
340
0
  0
BLOCK_RECORD
  5
5629E
330
1
100
AcDbSymbolTableRecord
100
AcDbBlockTableRecord
  2
*D22
340
0
  0
BLOCK_RECORD
  5
562A9
330
1
100
AcDbSymbolTableRecord
100
AcDbBlockTableRecord
  2
*D23
340
0
  0
BLOCK_RECORD
  5
562B5
330
1
100
AcDbSymbolTableRecord
100
AcDbBlockTableRecord
  2
*D24
340
0
  0
BLOCK_RECORD
  5
562C2
330
1
100
AcDbSymbolTableRecord
100
AcDbBlockTableRecord
  2
*D25
340
0
  0
BLOCK_RECORD
  5
562CE
330
1
100
AcDbSymbolTableRecord
100
AcDbBlockTableRecord
  2
*D26
340
0
  0
BLOCK_RECORD
  5
562D8
330
1
100
AcDbSymbolTableRecord
100
AcDbBlockTableRecord
  2
*D27
340
0
  0
ENDTAB
  0
ENDSEC
  0
SECTION
  2
BLOCKS
  0
BLOCK
  5
20
330
1F
100
AcDbEntity
  8
0
100
AcDbBlockBegin
  2
*Model_Space
 70
     0
 10
0.0
 20
0.0
 30
0.0
  3
*Model_Space
  1

  0
ENDBLK
  5
21
330
1F
100
AcDbEntity
  8
0
100
AcDbBlockEnd
  0
BLOCK
  5
52
330
50
100
AcDbEntity
 67
     1
  8
0
100
AcDbBlockBegin
  2
*Paper_Space
 70
     0
 10
0.0
 20
0.0
 30
0.0
  3
*Paper_Space
  1

  0
ENDBLK
  5
53
330
50
100
AcDbEntity
 67
     1
  8
0
100
AcDbBlockEnd
  0
BLOCK
  5
57
330
55
100
AcDbEntity
 67
     1
  8
0
100
AcDbBlockBegin
  2
*Paper_Space0
 70
     0
 10
0.0
 20
0.0
 30
0.0
  3
*Paper_Space0
  1

  0
VIEWPORT
  5
71
102
{ACAD_XDICTIONARY
360
5638C
102
}
330
55
100
AcDbEntity
 67
     1
  8
0
100
AcDbViewport
 10
150.1652135264906
 20
101.599997546291
 30
0.0
 40
339.1973820494347
 41
164.5360435314421
 68
     0
 69
     0
 12
150.1652135264906
 22
101.599997546291
 13
0.0
 23
0.0
 14
10.0
 24
10.0
 15
10.0
 25
10.0
 16
0.0
 26
0.0
 36
1.0
 17
0.0
 27
0.0
 37
0.0
 42
50.0
 43
0.0
 44
0.0
 45
164.5360435314421
 50
0.0
 51
0.0
 72
  1000
 90
    32864
  1

281
     0
 71
     1
 74
     0
110
0.0
120
0.0
130
0.0
111
1.0
121
0.0
131
0.0
112
0.0
122
1.0
132
0.0
 79
     0
146
0.0
  0
VIEWPORT
  5
73
102
{ACAD_XDICTIONARY
360
5638E
102
}
330
55
100
AcDbEntity
 67
     1
  8
0
100
AcDbViewport
 10
133.3499939441681
 20
101.5999939441681
 30
0.0
 40
213.3599903106689
 41
162.5599903106689
 68
     0
 69
     0
 12
210.0
 22
148.5
 13
0.0
 23
0.0
 14
10.0
 24
10.0
 15
10.0
 25
10.0
 16
0.0
 26
0.0
 36
1.0
 17
0.0
 27
0.0
 37
0.0
 42
50.0
 43
0.0
 44
0.0
 45
324.0677920111345
 50
0.0
 51
0.0
 72
   100
 90
    32864
  1

281
     0
 71
     1
 74
     0
110
0.0
120
0.0
130
0.0
111
1.0
121
0.0
131
0.0
112
0.0
122
1.0
132
0.0
 79
     0
146
0.0
  0
ENDBLK
  5
58
330
55
100
AcDbEntity
 67
     1
  8
0
100
AcDbBlockEnd
  0
BLOCK
  5
68A
330
680
100
AcDbEntity
  8
0
100
AcDbBlockBegin
  2
zero block
 70
     0
 10
0.0
 20
0.0
 30
0.0
  3
zero block
  1

  0
HATCH
  5
3BEAB
330
680
100
AcDbEntity
  8
0
 62
     7
100
AcDbHatch
 10
0.0
 20
0.0
 30
0.0
210
0.0
220
0.0
230
1.0
  2
SOLID
 70
     1
 71
     0
 91
        2
 92
        7
 72
     1
 73
     1
 93
        3
 10
0.0
 20
0.9999999999999875
 42
0.4142135623730915
 10
-1.0
 20
0.0
 42
0.0
 10
0.0
 20
0.0
 42
0.0
 97
        0
 92
        7
 72
     1
 73
     1
 93
        3
 10
1.000000000000007
 20
0.0
 42
0.0
 10
0.0
 20
0.0
 42
0.0
 10
0.0
 20
-1.0
 42
0.4142135623730974
 97
        0
 75
     0
 76
     1
 47
0.0090601366782909
 98
        2
 10
-0.380591363650975
 20
0.4885804701532896
 10
0.4350764810977559
 20
-0.4536738423704725
1001
AcDbBlockRepETag
1070
     1
1071
        0
1005
3BEAB
  0
LINE
  5
3BEAC
330
680
100
AcDbEntity
  8
0
 62
     7
 48
0.2
100
AcDbLine
 10
-1.0
 20
0.0
 30
0.0
 11
1.000000000000007
 21
0.0
 31
0.0
1001
AcDbBlockRepETag
1070
     1
1071
        1
1005
3BEAC
  0
LINE
  5
3BEAD
330
680
100
AcDbEntity
  8
0
 62
     7
 48
0.2
100
AcDbLine
 10
0.0
 20
-1.0
 30
0.0
 11
0.0
 21
0.9999999999999875
 31
0.0
1001
AcDbBlockRepETag
1070
     1
1071
        2
1005
3BEAD
  0
ARC
  5
3BEAE
330
680
100
AcDbEntity
  8
0
 62
     7
 48
0.2
100
AcDbCircle
 10
0.0
 20
0.0
 30
0.0
 40
1.0
100
AcDbArc
 50
270.0
 51
0.0
1001
AcDbBlockRepETag
1070
     1
1071
        3
1005
3BEAE
  0
ARC
  5
3BEAF
330
680
100
AcDbEntity
  8
0
 62
     7
 48
0.2
100
AcDbCircle
 10
0.0
 20
0.0
 30
0.0
 40
1.0
100
AcDbArc
 50
0.0
 51
90.0
1001
AcDbBlockRepETag
1070
     1
1071
        4
1005
3BEAF
  0
ARC
  5
3BEB0
330
680
100
AcDbEntity
  8
0
 62
     7
 48
0.2
100
AcDbCircle
 10
0.0
 20
0.0
 30
0.0
 40
1.0
100
AcDbArc
 50
180.0
 51
270.0
1001
AcDbBlockRepETag
1070
     1
1071
        5
1005
3BEB0
  0
ARC
  5
3BEB1
330
680
100
AcDbEntity
  8
0
 62
     7
 48
0.2
100
AcDbCircle
 10
0.0
 20
0.0
 30
0.0
 40
1.0
100
AcDbArc
 50
90.0
 51
180.0
1001
AcDbBlockRepETag
1070
     1
1071
        6
1005
3BEB1
  0
ENDBLK
  5
68B
330
680
100
AcDbEntity
  8
0
100
AcDbBlockEnd
  0
BLOCK
  5
698
330
697
100
AcDbEntity
  8
0
  6
ByBlock
 62
     0
370
    -2
100
AcDbBlockBegin
  2
_OPEN30
 70
     2
 10
0.0
 20
0.0
 30
0.0
  3
_OPEN30
  1

  0
LINE
  5
699
330
697
100
AcDbEntity
  8
0
  6
ByBlock
 62
     0
370
    -2
100
AcDbLine
 10
-1.0
 20
0.267949
 30
0.0
 11
0.0
 21
0.0
 31
0.0
  0
LINE
  5
69A
330
697
100
AcDbEntity
  8
0
  6
ByBlock
 62
     0
370
    -2
100
AcDbLine
 10
0.0
 20
0.0
 30
0.0
 11
-1.0
 21
-0.267949
 31
0.0
  0
LINE
  5
69B
330
697
100
AcDbEntity
  8
0
  6
ByBlock
 62
     0
370
    -2
100
AcDbLine
 10
0.0
 20
0.0
 30
0.0
 11
-1.0
 21
0.0
 31
0.0
  0
ENDBLK
  5
69C
330
697
100
AcDbEntity
  8
0
  6
ByBlock
 62
     0
370
    -2
100
AcDbBlockEnd
  0
BLOCK
  5
34B2
330
34B1
100
AcDbEntity
  8
0
100
AcDbBlockBegin
  2
_OPEN
 70
     0
 10
0.0
 20
0.0
 30
0.0
  3
_OPEN
  1

  0
LINE
  5
34B3
330
34B1
100
AcDbEntity
  8
0
  6
ByBlock
 62
     0
100
AcDbLine
 10
0.0
 20
0.0
 30
0.0
 11
-1.0
 21
0.1766666667
 31
0.0
  0
LINE
  5
34B4
330
34B1
100
AcDbEntity
  8
0
  6
ByBlock
 62
     0
100
AcDbLine
 10
-1.0
 20
-0.1766666667
 30
0.0
 11
0.0
 21
0.0
 31
0.0
  0
LINE
  5
34B5
330
34B1
100
AcDbEntity
  8
0
  6
ByBlock
 62
     0
100
AcDbLine
 10
-1.0
 20
0.0
 30
0.0
 11
0.0
 21
0.0
 31
0.0
  0
ENDBLK
  5
34B6
330
34B1
100
AcDbEntity
  8
0
  6
ByBlock
 62
     0
100
AcDbBlockEnd
  0
BLOCK
  5
50E70
330
50E6F
100
AcDbEntity
  8
0
100
AcDbBlockBegin
  2
_None
 70
     0
 10
0.0
 20
0.0
 30
0.0
  3
_None
  1

  0
ENDBLK
  5
50E71
330
50E6F
100
AcDbEntity
  8
0
100
AcDbBlockEnd
  0
BLOCK
  5
54C5E
330
54C53
100
AcDbEntity
  8
0
100
AcDbBlockBegin
  2
*D5
 70
     1
 10
0.0
 20
0.0
 30
0.0
  3
*D5
  1

  0
LINE
  5
56324
330
54C53
100
AcDbEntity
  8
2
100
AcDbLine
 10
64.37499500000003
 20
5.749999999999972
 30
0.0
 11
64.37499500000003
 21
27.09157037082821
 31
0.0
  0
LINE
  5
56325
330
54C53
100
AcDbEntity
  8
2
100
AcDbLine
 10
79.37499499999995
 20
17.6046139999999
 30
0.0
 11
79.37499499999995
 21
27.09157037082821
 31
0.0
  0
LINE
  5
56326
330
54C53
100
AcDbEntity
  8
2
100
AcDbLine
 10
75.87499499999996
 20
25.59157037082821
 30
0.0
 11
67.87499500000002
 21
25.59157037082821
 31
0.0
  0
LINE
  5
56327
330
54C53
100
AcDbEntity
  8
2
100
AcDbLine
 10
64.37499500000003
 20
25.59157037082821
 30
0.0
 11
30.60832833333331
 21
25.59157037082821
 31
0.0
  0
SOLID
  5
56328
330
54C53
100
AcDbEntity
  8
2
100
AcDbTrace
 10
75.87499499999996
 20
26.17490370416154
 30
0.0
 11
75.87499499999996
 21
25.00823703749488
 31
0.0
 12
79.37499499999995
 22
25.59157037082821
 32
0.0
 13
79.37499499999995
 23
25.59157037082821
 33
0.0
  0
SOLID
  5
56329
330
54C53
100
AcDbEntity
  8
2
100
AcDbTrace
 10
67.87499500000002
 20
26.17490370416154
 30
0.0
 11
67.87499500000002
 21
25.00823703749488
 31
0.0
 12
64.37499500000003
 22
25.59157037082821
 32
0.0
 13
64.37499500000003
 23
25.59157037082821
 33
0.0
  0
MTEXT
  5
5632A
330
54C53
100
AcDbEntity
  8
2
100
AcDbMText
 10
45.74166166666663
 20
29.6415703708282
 30
0.0
 40
3.5
 41
0.0
 71
     5
 72
     1
  1
\A1;15 [.591"]
  7
simplex
 73
     1
 44
0.892857
1001
ACAD
1000
MTEXTBEGIN
1070
    73
1070
     1
1070
    44
1040
0.892857
1070
    74
1070
     0
1000
MTEXTEND
  0
POINT
  5
5632B
330
54C53
100
AcDbEntity
  8
Defpoints
 62
     0
100
AcDbPoint
 10
64.37499500000003
 20
5.749999999999972
 30
0.0
  0
POINT
  5
5632C
330
54C53
100
AcDbEntity
  8
Defpoints
 62
     0
100
AcDbPoint
 10
79.37499499999995
 20
17.6046139999999
 30
0.0
  0
POINT
  5
5632D
330
54C53
100
AcDbEntity
  8
Defpoints
 62
     0
100
AcDbPoint
 10
79.37499499999995
 20
25.59157037082821
 30
0.0
  0
ENDBLK
  5
54C5F
330
54C53
100
AcDbEntity
  8
0
100
AcDbBlockEnd
  0
BLOCK
  5
54C7E
330
54C73
100
AcDbEntity
  8
0
100
AcDbBlockBegin
  2
*D6
 70
     1
 10
0.0
 20
0.0
 30
0.0
  3
*D6
  1

  0
LINE
  5
5631A
330
54C73
100
AcDbEntity
  8
2
100
AcDbLine
 10
64.37500299999995
 20
-5.750000000000006
 30
0.0
 11
55.99412465103121
 21
-5.750000000000003
 31
0.0
  0
LINE
  5
5631B
330
54C73
100
AcDbEntity
  8
2
100
AcDbLine
 10
64.37500299999995
 20
5.75
 30
0.0
 11
55.99412465103121
 21
5.750000000000003
 31
0.0
  0
LINE
  5
5631C
330
54C73
100
AcDbEntity
  8
2
100
AcDbLine
 10
57.4941246510312
 20
9.250000000000001
 30
0.0
 11
57.4941246510312
 21
12.75
 31
0.0
  0
LINE
  5
5631D
330
54C73
100
AcDbEntity
  8
2
100
AcDbLine
 10
57.4941246510312
 20
-9.250000000000005
 30
0.0
 11
57.49412465103119
 21
-58.13416372641142
 31
0.0
  0
SOLID
  5
5631E
330
54C73
100
AcDbEntity
  8
2
100
AcDbTrace
 10
56.91079131769787
 20
9.250000000000001
 30
0.0
 11
58.07745798436454
 21
9.250000000000001
 31
0.0
 12
57.4941246510312
 22
5.750000000000002
 32
0.0
 13
57.4941246510312
 23
5.750000000000002
 33
0.0
  0
SOLID
  5
5631F
330
54C73
100
AcDbEntity
  8
2
100
AcDbTrace
 10
56.91079131769787
 20
-9.250000000000005
 30
0.0
 11
58.07745798436454
 21
-9.250000000000005
 31
0.0
 12
57.4941246510312
 22
-5.750000000000004
 32
0.0
 13
57.4941246510312
 23
-5.750000000000004
 33
0.0
  0
MTEXT
  5
56320
330
54C73
100
AcDbEntity
  8
2
100
AcDbMText
 10
53.44412465103121
 20
-37.16749705974475
 30
0.0
 40
3.5
 41
0.0
 71
     5
 72
     1
  1
\A1;%%C11.5 [%%C.453"]
  7
simplex
 11
0.0000000000000001
 21
1.0
 31
0.0
 73
     1
 44
1.0
1001
ACAD
1000
MTEXTBEGIN
1070
    73
1070
     1
1070
    44
1040
1.0
1070
    74
1070
     0
1000
MTEXTEND
  0
POINT
  5
56321
330
54C73
100
AcDbEntity
  8
Defpoints
 62
     0
100
AcDbPoint
 10
64.37500299999995
 20
-5.750000000000006
 30
0.0
  0
POINT
  5
56322
330
54C73
100
AcDbEntity
  8
Defpoints
 62
     0
100
AcDbPoint
 10
64.37500299999995
 20
5.75
 30
0.0
  0
POINT
  5
56323
330
54C73
100
AcDbEntity
  8
Defpoints
 62
     0
100
AcDbPoint
 10
57.4941246510312
 20
5.750000000000002
 30
0.0
  0
ENDBLK
  5
54C7F
330
54C73
100
AcDbEntity
  8
0
100
AcDbBlockEnd
  0
BLOCK
  5
5563F
330
55635
100
AcDbEntity
  8
0
100
AcDbBlockBegin
  2
*D7
 70
     1
 10
0.0
 20
0.0
 30
0.0
  3
*D7
  1

  0
LINE
  5
5632E
330
55635
100
AcDbEntity
  8
sk2
100
AcDbLine
 10
-41.27499999999996
 20
5.349985999999923
 30
0.0
 11
-41.27499999999996
 21
51.17599391712246
 31
0.0
  0
LINE
  5
5632F
330
55635
100
AcDbEntity
  8
sk2
100
AcDbLine
 10
79.375
 20
3.326262239681228
 30
0.0
 11
79.375
 21
51.17599391712246
 31
0.0
  0
LINE
  5
56330
330
55635
100
AcDbEntity
  8
sk2
100
AcDbLine
 10
-37.77499999999997
 20
49.67599391712247
 30
0.0
 11
75.875
 21
49.67599391712247
 31
0.0
  0
SOLID
  5
56331
330
55635
100
AcDbEntity
  8
sk2
100
AcDbTrace
 10
-37.77499999999997
 20
50.2593272504558
 30
0.0
 11
-37.77499999999997
 21
49.09266058378913
 31
0.0
 12
-41.27499999999996
 22
49.67599391712247
 32
0.0
 13
-41.27499999999996
 23
49.67599391712247
 33
0.0
  0
SOLID
  5
56332
330
55635
100
AcDbEntity
  8
sk2
100
AcDbTrace
 10
75.875
 20
50.2593272504558
 30
0.0
 11
75.875
 21
49.09266058378913
 31
0.0
 12
79.375
 22
49.67599391712247
 32
0.0
 13
79.375
 23
49.67599391712247
 33
0.0
  0
MTEXT
  5
56333
330
55635
100
AcDbEntity
  8
sk2
100
AcDbMText
 10
19.05000000000002
 20
53.72599391712246
 30
0.0
 40
3.5
 41
0.0
 71
     5
 72
     1
  1
\A1;120.65 [4.750"]
  7
simplex
 73
     1
 44
0.892857
1001
ACAD
1000
MTEXTBEGIN
1070
    73
1070
     1
1070
    44
1040
0.892857
1070
    74
1070
     0
1000
MTEXTEND
  0
POINT
  5
56334
330
55635
100
AcDbEntity
  8
Defpoints
 62
     0
100
AcDbPoint
 10
-41.27499999999996
 20
5.349985999999923
 30
0.0
  0
POINT
  5
56335
330
55635
100
AcDbEntity
  8
Defpoints
 62
     0
100
AcDbPoint
 10
79.375
 20
3.326262239681228
 30
0.0
  0
POINT
  5
56336
330
55635
100
AcDbEntity
  8
Defpoints
 62
     0
100
AcDbPoint
 10
79.375
 20
49.67599391712247
 30
0.0
  0
ENDBLK
  5
55640
330
55635
100
AcDbEntity
  8
0
100
AcDbBlockEnd
  0
BLOCK
  5
55662
330
55658
100
AcDbEntity
  8
0
100
AcDbBlockBegin
  2
*D8
 70
     1
 10
0.0
 20
0.0
 30
0.0
  3
*D8
  1

  0
LINE
  5
56337
330
55658
100
AcDbEntity
  8
2
100
AcDbLine
 10
79.375
 20
6.349999999999987
 30
0.0
 11
79.375
 21
38.57138744875647
 31
0.0
  0
LINE
  5
56338
330
55658
100
AcDbEntity
  8
2
100
AcDbLine
 10
28.575
 20
6.350000499999991
 30
0.0
 11
28.575
 21
38.57138744875647
 31
0.0
  0
LINE
  5
56339
330
55658
100
AcDbEntity
  8
2
100
AcDbLine
 10
75.875
 20
37.07138744875647
 30
0.0
 11
32.075
 21
37.07138744875647
 31
0.0
  0
SOLID
  5
5633A
330
55658
100
AcDbEntity
  8
2
100
AcDbTrace
 10
75.875
 20
37.6547207820898
 30
0.0
 11
75.875
 21
36.48805411542313
 31
0.0
 12
79.375
 22
37.07138744875647
 32
0.0
 13
79.375
 23
37.07138744875647
 33
0.0
  0
SOLID
  5
5633B
330
55658
100
AcDbEntity
  8
2
100
AcDbTrace
 10
32.075
 20
37.6547207820898
 30
0.0
 11
32.075
 21
36.48805411542313
 31
0.0
 12
28.575
 22
37.07138744875647
 32
0.0
 13
28.575
 23
37.07138744875647
 33
0.0
  0
MTEXT
  5
5633C
330
55658
100
AcDbEntity
  8
2
100
AcDbMText
 10
53.97500000000004
 20
41.12138744875646
 30
0.0
 40
3.5
 41
0.0
 71
     5
 72
     1
  1
\A1;50.8 [2.000"]
  7
simplex
 73
     1
 44
1.0
1001
ACAD
1000
MTEXTBEGIN
1070
    73
1070
     1
1070
    44
1040
1.0
1070
    74
1070
     0
1000
MTEXTEND
  0
POINT
  5
5633D
330
55658
100
AcDbEntity
  8
Defpoints
 62
     0
100
AcDbPoint
 10
79.375
 20
6.349999999999987
 30
0.0
  0
POINT
  5
5633E
330
55658
100
AcDbEntity
  8
Defpoints
 62
     0
100
AcDbPoint
 10
28.575
 20
6.350000499999991
 30
0.0
  0
POINT
  5
5633F
330
55658
100
AcDbEntity
  8
Defpoints
 62
     0
100
AcDbPoint
 10
28.575
 20
37.07138744875647
 30
0.0
  0
ENDBLK
  5
55663
330
55658
100
AcDbEntity
  8
0
100
AcDbBlockEnd
  0
BLOCK
  5
556A9
330
5569E
100
AcDbEntity
  8
0
100
AcDbBlockBegin
  2
*D9
 70
     1
 10
0.0
 20
0.0
 30
0.0
  3
*D9
  1

  0
LINE
  5
56122
330
5569E
100
AcDbEntity
  8
sk2
100
AcDbLine
 10
-68.84999999999997
 20
-6.349999499999957
 30
0.0
 11
-91.11416963971823
 21
-6.34999949999995
 31
0.0
  0
LINE
  5
56123
330
5569E
100
AcDbEntity
  8
sk2
100
AcDbLine
 10
-68.84998549999983
 20
6.350000500000001
 30
0.0
 11
-91.11416963971823
 21
6.350000500000008
 31
0.0
  0
LINE
  5
56124
330
5569E
100
AcDbEntity
  8
sk2
100
AcDbLine
 10
-89.61416963971823
 20
2.850000500000006
 30
0.0
 11
-89.61416963971823
 21
-2.849999499999951
 31
0.0
  0
LINE
  5
56125
330
5569E
100
AcDbEntity
  8
sk2
100
AcDbLine
 10
-89.61416963971823
 20
-6.349999499999952
 30
0.0
 11
-89.61416963971823
 21
-51.78333283333328
 31
0.0
  0
SOLID
  5
56126
330
5569E
100
AcDbEntity
  8
sk2
100
AcDbTrace
 10
-90.19750297305156
 20
2.850000500000006
 30
0.0
 11
-89.03083630638489
 21
2.850000500000006
 31
0.0
 12
-89.61416963971823
 22
6.350000500000008
 32
0.0
 13
-89.61416963971823
 23
6.350000500000008
 33
0.0
  0
SOLID
  5
56127
330
5569E
100
AcDbEntity
  8
sk2
100
AcDbTrace
 10
-90.19750297305156
 20
-2.849999499999951
 30
0.0
 11
-89.03083630638489
 21
-2.849999499999951
 31
0.0
 12
-89.61416963971823
 22
-6.349999499999952
 32
0.0
 13
-89.61416963971823
 23
-6.349999499999952
 33
0.0
  0
MTEXT
  5
56128
330
5569E
100
AcDbEntity
  8
sk2
100
AcDbMText
 10
-93.66416963971822
 20
-30.81666616666665
 30
0.0
 40
3.5
 41
0.0
 71
     5
 72
     1
  1
\A1;%%C12.7 [%%C.500"]
  7
simplex
 11
0.0000000000000001
 21
1.0
 31
0.0
 73
     1
 44
1.0
1001
ACAD
1000
MTEXTBEGIN
1070
    73
1070
     1
1070
    44
1040
1.0
1070
    74
1070
     0
1000
MTEXTEND
  0
POINT
  5
56129
330
5569E
100
AcDbEntity
  8
Defpoints
 62
     0
100
AcDbPoint
 10
-68.84999999999997
 20
-6.349999499999957
 30
0.0
  0
POINT
  5
5612A
330
5569E
100
AcDbEntity
  8
Defpoints
 62
     0
100
AcDbPoint
 10
-68.84998549999983
 20
6.350000500000001
 30
0.0
  0
POINT
  5
5612B
330
5569E
100
AcDbEntity
  8
Defpoints
 62
     0
100
AcDbPoint
 10
-89.61416963971823
 20
6.350000500000008
 30
0.0
  0
ENDBLK
  5
556AA
330
5569E
100
AcDbEntity
  8
0
100
AcDbBlockEnd
  0
BLOCK
  5
55763
330
55762
100
AcDbEntity
  8
0
100
AcDbBlockBegin
  2
*D10
 70
     1
 10
0.0
 20
0.0
 30
0.0
  3
*D10
  1

  0
LINE
  5
55764
330
55762
100
AcDbEntity
  8
2
100
AcDbLine
 10
416.9847371506133
 20
5.749999999999971
 30
0.0
 11
416.9847371506133
 21
27.09157037082821
 31
0.0
  0
LINE
  5
55765
330
55762
100
AcDbEntity
  8
2
100
AcDbLine
 10
431.984737150613
 20
17.6046139999999
 30
0.0
 11
431.984737150613
 21
27.09157037082821
 31
0.0
  0
LINE
  5
55766
330
55762
100
AcDbEntity
  8
2
100
AcDbLine
 10
428.484737150613
 20
25.59157037082821
 30
0.0
 11
420.4847371506131
 21
25.59157037082821
 31
0.0
  0
LINE
  5
55767
330
55762
100
AcDbEntity
  8
2
100
AcDbLine
 10
416.9847371506133
 20
25.59157037082821
 30
0.0
 11
383.2180704839466
 21
25.59157037082821
 31
0.0
  0
SOLID
  5
55768
330
55762
100
AcDbEntity
  8
2
100
AcDbTrace
 10
428.484737150613
 20
26.17490370416154
 30
0.0
 11
428.484737150613
 21
25.00823703749488
 31
0.0
 12
431.984737150613
 22
25.59157037082821
 32
0.0
 13
431.984737150613
 23
25.59157037082821
 33
0.0
  0
SOLID
  5
55769
330
55762
100
AcDbEntity
  8
2
100
AcDbTrace
 10
420.4847371506131
 20
26.17490370416154
 30
0.0
 11
420.4847371506131
 21
25.00823703749488
 31
0.0
 12
416.9847371506133
 22
25.59157037082821
 32
0.0
 13
416.9847371506133
 23
25.59157037082821
 33
0.0
  0
MTEXT
  5
5576A
330
55762
100
AcDbEntity
  8
2
100
AcDbMText
 10
398.3514038172799
 20
29.6415703708282
 30
0.0
 40
3.5
 41
0.0
 71
     5
 72
     1
  1
\A1;15 [.591"]
  7
simplex
 73
     1
 44
0.892857
1001
ACAD
1000
MTEXTBEGIN
1070
    73
1070
     1
1070
    44
1040
0.892857
1070
    74
1070
     0
1000
MTEXTEND
  0
POINT
  5
5576B
330
55762
100
AcDbEntity
  8
Defpoints
 62
     0
100
AcDbPoint
 10
416.9847371506133
 20
5.749999999999971
 30
0.0
  0
POINT
  5
5576C
330
55762
100
AcDbEntity
  8
Defpoints
 62
     0
100
AcDbPoint
 10
431.984737150613
 20
17.6046139999999
 30
0.0
  0
POINT
  5
5576D
330
55762
100
AcDbEntity
  8
Defpoints
 62
     0
100
AcDbPoint
 10
431.984737150613
 20
25.59157037082821
 30
0.0
  0
ENDBLK
  5
5576E
330
55762
100
AcDbEntity
  8
0
100
AcDbBlockEnd
  0
BLOCK
  5
56065
330
5605C
100
AcDbEntity
  8
0
100
AcDbBlockBegin
  2
*D11
 70
     1
 10
0.0
 20
0.0
 30
0.0
  3
*D11
  1

  0
LINE
  5
56340
330
5605C
100
AcDbEntity
  8
2
100
AcDbLine
 10
76.63951091538144
 20
5.999999999999986
 30
0.0
 11
99.79437666103088
 21
5.999999999999979
 31
0.0
  0
LINE
  5
56341
330
5605C
100
AcDbEntity
  8
2
100
AcDbLine
 10
98.29437666103087
 20
2.49999999999998
 30
0.0
 11
98.29437666103087
 21
-6.000000000000005
 31
0.0
  0
LINE
  5
56342
330
5605C
100
AcDbEntity
  8
2
100
AcDbLine
 10
98.29437666103087
 20
-6.000000000000005
 30
0.0
 11
98.29437666103086
 21
-47.93333333333334
 31
0.0
  0
SOLID
  5
56343
330
5605C
100
AcDbEntity
  8
2
100
AcDbTrace
 10
97.71104332769754
 20
2.49999999999998
 30
0.0
 11
98.87770999436419
 21
2.49999999999998
 31
0.0
 12
98.29437666103087
 22
5.99999999999998
 32
0.0
 13
98.29437666103087
 23
5.99999999999998
 33
0.0
  0
MTEXT
  5
56344
330
5605C
100
AcDbEntity
  8
2
100
AcDbMText
 10
94.24437666103086
 20
-28.71666666666667
 30
0.0
 40
3.5
 41
0.0
 71
     5
 72
     1
  1
\A1;%%c12 [%%c.472"]
  7
simplex
 11
0.0000000000000001
 21
1.0
 31
0.0
 73
     1
 44
1.0
1001
ACAD
1000
MTEXTBEGIN
1070
    73
1070
     1
1070
    44
1040
1.0
1070
    74
1070
     0
1000
MTEXTEND
  0
POINT
  5
56345
330
5605C
100
AcDbEntity
  8
Defpoints
 62
     0
100
AcDbPoint
 10
76.63951091538144
 20
5.999999999999986
 30
0.0
  0
POINT
  5
56346
330
5605C
100
AcDbEntity
  8
Defpoints
 62
     0
100
AcDbPoint
 10
73.37500299999994
 20
-5.999999999999997
 30
0.0
  0
POINT
  5
56347
330
5605C
100
AcDbEntity
  8
Defpoints
 62
     0
100
AcDbPoint
 10
98.29437666103087
 20
-6.000000000000005
 30
0.0
  0
ENDBLK
  5
56066
330
5605C
100
AcDbEntity
  8
0
100
AcDbBlockEnd
  0
BLOCK
  5
560A2
330
5609A
100
AcDbEntity
  8
0
100
AcDbBlockBegin
  2
*D12
 70
     1
 10
0.0
 20
0.0
 30
0.0
  3
*D12
  1

  0
LINE
  5
5634F
330
5609A
100
AcDbEntity
  8
2
100
AcDbLine
 10
111.9709172195327
 20
28.34992744832533
 30
0.0
 11
81.66151086982281
 21
6.667115564886209
 31
0.0
  0
MTEXT
  5
56350
330
5609A
100
AcDbEntity
  8
2
100
AcDbMText
 10
95.88310330185299
 20
21.82063286203538
 30
0.0
 40
3.5
 41
0.0
 71
     5
 72
     1
  1
\A1;R3 [R.118"]
  7
simplex
 11
0.8133114405109996
 21
0.5818285836343237
 31
0.0
 73
     1
 44
1.0
1001
ACAD
1000
MTEXTBEGIN
1070
    73
1070
     1
1070
    44
1040
1.0
1070
    74
1070
     0
1000
MTEXTEND
  0
SOLID
  5
56351
330
5609A
100
AcDbEntity
  8
2
100
AcDbTrace
 10
81.32211086270279
 20
7.141547238517624
 30
0.0
 11
82.00091087694284
 21
6.192683891254787
 31
0.0
 12
78.81492082803432
 22
4.630715522166077
 32
0.0
 13
78.81492082803432
 23
4.630715522166077
 33
0.0
  0
LINE
  5
56352
330
5609A
100
AcDbEntity
  8
2
100
AcDbLine
 10
76.28498650650167
 20
2.885229771263354
 30
0.0
 11
76.46498650650167
 21
2.885229771263354
 31
0.0
  0
LINE
  5
56353
330
5609A
100
AcDbEntity
  8
2
100
AcDbLine
 10
76.37498650650167
 20
2.795229771263358
 30
0.0
 11
76.37498650650167
 21
2.975229771263357
 31
0.0
  0
POINT
  5
56354
330
5609A
100
AcDbEntity
  8
Defpoints
 62
     0
100
AcDbPoint
 10
78.81492082803432
 20
4.630715522166077
 30
0.0
  0
POINT
  5
56355
330
5609A
100
AcDbEntity
  8
Defpoints
 62
     0
100
AcDbPoint
 10
76.37498650650167
 20
2.885229771263354
 30
0.0
  0
ENDBLK
  5
560A3
330
5609A
100
AcDbEntity
  8
0
100
AcDbBlockEnd
  0
BLOCK
  5
5615D
330
5615C
100
AcDbEntity
  8
0
100
AcDbBlockBegin
  2
*D13
 70
     1
 10
0.0
 20
0.0
 30
0.0
  3
*D13
  1

  0
LINE
  5
5615E
330
5615C
100
AcDbEntity
  8
2
100
AcDbLine
 10
64.37499500000003
 20
5.749999999999971
 30
0.0
 11
64.37499500000003
 21
27.09157037082821
 31
0.0
  0
LINE
  5
5615F
330
5615C
100
AcDbEntity
  8
2
100
AcDbLine
 10
79.37499499999995
 20
17.6046139999999
 30
0.0
 11
79.37499499999995
 21
27.09157037082821
 31
0.0
  0
LINE
  5
56160
330
5615C
100
AcDbEntity
  8
2
100
AcDbLine
 10
75.87499499999996
 20
25.59157037082821
 30
0.0
 11
67.87499500000001
 21
25.59157037082821
 31
0.0
  0
LINE
  5
56161
330
5615C
100
AcDbEntity
  8
2
100
AcDbLine
 10
64.37499500000003
 20
25.59157037082821
 30
0.0
 11
30.60832833333334
 21
25.59157037082821
 31
0.0
  0
SOLID
  5
56162
330
5615C
100
AcDbEntity
  8
2
100
AcDbTrace
 10
75.87499499999996
 20
26.17490370416154
 30
0.0
 11
75.87499499999996
 21
25.00823703749488
 31
0.0
 12
79.37499499999995
 22
25.59157037082821
 32
0.0
 13
79.37499499999995
 23
25.59157037082821
 33
0.0
  0
SOLID
  5
56163
330
5615C
100
AcDbEntity
  8
2
100
AcDbTrace
 10
67.87499500000001
 20
26.17490370416154
 30
0.0
 11
67.87499500000001
 21
25.00823703749488
 31
0.0
 12
64.37499500000003
 22
25.59157037082821
 32
0.0
 13
64.37499500000003
 23
25.59157037082821
 33
0.0
  0
MTEXT
  5
56164
330
5615C
100
AcDbEntity
  8
2
100
AcDbMText
 10
45.74166166666667
 20
29.6415703708282
 30
0.0
 40
3.5
 41
0.0
 71
     5
 72
     1
  1
\A1;15 [.591"]
  7
simplex
 73
     1
 44
0.892857
1001
ACAD
1000
MTEXTBEGIN
1070
    73
1070
     1
1070
    44
1040
0.892857
1070
    74
1070
     0
1000
MTEXTEND
  0
POINT
  5
56165
330
5615C
100
AcDbEntity
  8
Defpoints
 62
     0
100
AcDbPoint
 10
64.37499500000003
 20
5.749999999999971
 30
0.0
  0
POINT
  5
56166
330
5615C
100
AcDbEntity
  8
Defpoints
 62
     0
100
AcDbPoint
 10
79.37499499999995
 20
17.6046139999999
 30
0.0
  0
POINT
  5
56167
330
5615C
100
AcDbEntity
  8
Defpoints
 62
     0
100
AcDbPoint
 10
79.37499499999995
 20
25.59157037082821
 30
0.0
  0
ENDBLK
  5
56168
330
5615C
100
AcDbEntity
  8
0
100
AcDbBlockEnd
  0
BLOCK
  5
5616A
330
56169
100
AcDbEntity
  8
0
100
AcDbBlockBegin
  2
*D14
 70
     1
 10
0.0
 20
0.0
 30
0.0
  3
*D14
  1

  0
LINE
  5
5616B
330
56169
100
AcDbEntity
  8
2
100
AcDbLine
 10
64.37500299999995
 20
-5.750000000000007
 30
0.0
 11
55.99412465103121
 21
-5.750000000000004
 31
0.0
  0
LINE
  5
5616C
330
56169
100
AcDbEntity
  8
2
100
AcDbLine
 10
64.37500299999995
 20
5.75
 30
0.0
 11
55.99412465103121
 21
5.750000000000002
 31
0.0
  0
LINE
  5
5616D
330
56169
100
AcDbEntity
  8
2
100
AcDbLine
 10
57.4941246510312
 20
9.25
 30
0.0
 11
57.4941246510312
 21
12.75
 31
0.0
  0
LINE
  5
5616E
330
56169
100
AcDbEntity
  8
2
100
AcDbLine
 10
57.4941246510312
 20
-9.250000000000003
 30
0.0
 11
57.49412465103119
 21
-58.13416372641142
 31
0.0
  0
SOLID
  5
5616F
330
56169
100
AcDbEntity
  8
2
100
AcDbTrace
 10
56.91079131769789
 20
9.25
 30
0.0
 11
58.07745798436455
 21
9.25
 31
0.0
 12
57.4941246510312
 22
5.75
 32
0.0
 13
57.4941246510312
 23
5.75
 33
0.0
  0
SOLID
  5
56170
330
56169
100
AcDbEntity
  8
2
100
AcDbTrace
 10
56.91079131769789
 20
-9.250000000000003
 30
0.0
 11
58.07745798436455
 21
-9.250000000000003
 31
0.0
 12
57.4941246510312
 22
-5.750000000000006
 32
0.0
 13
57.4941246510312
 23
-5.750000000000006
 33
0.0
  0
MTEXT
  5
56171
330
56169
100
AcDbEntity
  8
2
100
AcDbMText
 10
53.44412465103122
 20
-37.16749705974475
 30
0.0
 40
3.5
 41
0.0
 71
     5
 72
     1
  1
\A1;%%C11.5 [%%C.453"]
  7
simplex
 11
0.0000000000000001
 21
1.0
 31
0.0
 73
     1
 44
1.0
1001
ACAD
1000
MTEXTBEGIN
1070
    73
1070
     1
1070
    44
1040
1.0
1070
    74
1070
     0
1000
MTEXTEND
  0
POINT
  5
56172
330
56169
100
AcDbEntity
  8
Defpoints
 62
     0
100
AcDbPoint
 10
64.37500299999995
 20
-5.750000000000007
 30
0.0
  0
POINT
  5
56173
330
56169
100
AcDbEntity
  8
Defpoints
 62
     0
100
AcDbPoint
 10
64.37500299999995
 20
5.75
 30
0.0
  0
POINT
  5
56174
330
56169
100
AcDbEntity
  8
Defpoints
 62
     0
100
AcDbPoint
 10
57.4941246510312
 20
5.75
 30
0.0
  0
ENDBLK
  5
56175
330
56169
100
AcDbEntity
  8
0
100
AcDbBlockEnd
  0
BLOCK
  5
56177
330
56176
100
AcDbEntity
  8
0
100
AcDbBlockBegin
  2
*D15
 70
     1
 10
0.0
 20
0.0
 30
0.0
  3
*D15
  1

  0
LINE
  5
56178
330
56176
100
AcDbEntity
  8
2
100
AcDbLine
 10
73.37499999999995
 20
6.000000012888586
 30
0.0
 11
96.58826305924186
 21
6.000000012888579
 31
0.0
  0
LINE
  5
56179
330
56176
100
AcDbEntity
  8
2
100
AcDbLine
 10
95.08826305924186
 20
2.500000012888579
 30
0.0
 11
95.08826305924186
 21
-5.999999984711434
 31
0.0
  0
LINE
  5
5617A
330
56176
100
AcDbEntity
  8
2
100
AcDbLine
 10
95.08826305924186
 20
-5.999999984711434
 30
0.0
 11
95.08826305924186
 21
-47.93333331804475
 31
0.0
  0
SOLID
  5
5617B
330
56176
100
AcDbEntity
  8
2
100
AcDbTrace
 10
94.50492972590851
 20
2.500000012888579
 30
0.0
 11
95.67159639257518
 21
2.500000012888579
 31
0.0
 12
95.08826305924186
 22
6.000000012888579
 32
0.0
 13
95.08826305924186
 23
6.000000012888579
 33
0.0
  0
MTEXT
  5
5617C
330
56176
100
AcDbEntity
  8
2
100
AcDbMText
 10
91.03826305924185
 20
-28.71666665137809
 30
0.0
 40
3.5
 41
0.0
 71
     5
 72
     1
  1
\A1;%%C12 [%%c.472"]
  7
simplex
 11
0.0000000000000001
 21
1.0
 31
0.0
 73
     1
 44
1.0
1001
ACAD
1000
MTEXTBEGIN
1070
    73
1070
     1
1070
    44
1040
1.0
1070
    74
1070
     0
1000
MTEXTEND
  0
POINT
  5
5617D
330
56176
100
AcDbEntity
  8
Defpoints
 62
     0
100
AcDbPoint
 10
73.37499999999995
 20
-5.999999984711427
 30
0.0
  0
POINT
  5
5617E
330
56176
100
AcDbEntity
  8
Defpoints
 62
     0
100
AcDbPoint
 10
73.37499999999995
 20
6.000000012888586
 30
0.0
  0
POINT
  5
5617F
330
56176
100
AcDbEntity
  8
Defpoints
 62
     0
100
AcDbPoint
 10
95.08826305924186
 20
6.000000012888579
 30
0.0
  0
ENDBLK
  5
56180
330
56176
100
AcDbEntity
  8
0
100
AcDbBlockEnd
  0
BLOCK
  5
56182
330
56181
100
AcDbEntity
  8
0
100
AcDbBlockBegin
  2
*D16
 70
     1
 10
0.0
 20
0.0
 30
0.0
  3
*D16
  1

  0
LINE
  5
56183
330
56181
100
AcDbEntity
  8
sk2
100
AcDbLine
 10
-87.70001300000009
 20
-6.349999483611334
 30
0.0
 11
-117.1468653179264
 21
-6.349999483611326
 31
0.0
  0
LINE
  5
56184
330
56181
100
AcDbEntity
  8
sk2
100
AcDbLine
 10
-87.70001300000009
 20
6.350000516388647
 30
0.0
 11
-117.1468653179264
 21
6.350000516388655
 31
0.0
  0
LINE
  5
56185
330
56181
100
AcDbEntity
  8
sk2
100
AcDbLine
 10
-115.6468653179264
 20
2.850000516388654
 30
0.0
 11
-115.6468653179264
 21
-2.849999483611325
 31
0.0
  0
LINE
  5
56186
330
56181
100
AcDbEntity
  8
sk2
100
AcDbLine
 10
-115.6468653179264
 20
-6.349999483611326
 30
0.0
 11
-115.6468653179264
 21
-57.87916615027796
 31
0.0
  0
SOLID
  5
56187
330
56181
100
AcDbEntity
  8
sk2
100
AcDbTrace
 10
-116.2301986512597
 20
2.850000516388654
 30
0.0
 11
-115.0635319845931
 21
2.850000516388654
 31
0.0
 12
-115.6468653179264
 22
6.350000516388655
 32
0.0
 13
-115.6468653179264
 23
6.350000516388655
 33
0.0
  0
SOLID
  5
56188
330
56181
100
AcDbEntity
  8
sk2
100
AcDbTrace
 10
-116.2301986512597
 20
-2.849999483611325
 30
0.0
 11
-115.0635319845931
 21
-2.849999483611325
 31
0.0
 12
-115.6468653179264
 22
-6.349999483611326
 32
0.0
 13
-115.6468653179264
 23
-6.349999483611326
 33
0.0
  0
MTEXT
  5
56189
330
56181
100
AcDbEntity
  8
sk2
100
AcDbMText
 10
-119.6968653179264
 20
-36.91249948361135
 30
0.0
 40
3.5
 41
0.0
 71
     5
 72
     1
  1
\A1;%%c12.7 [%%c.500"]
  7
simplex
 11
0.0000000000000001
 21
1.0
 31
0.0
 73
     1
 44
0.75
1001
ACAD
1000
MTEXTBEGIN
1070
    73
1070
     1
1070
    44
1040
0.75
1070
    74
1070
     0
1000
MTEXTEND
  0
POINT
  5
5618A
330
56181
100
AcDbEntity
  8
Defpoints
 62
     0
100
AcDbPoint
 10
-87.70001300000009
 20
-6.349999483611334
 30
0.0
  0
POINT
  5
5618B
330
56181
100
AcDbEntity
  8
Defpoints
 62
     0
100
AcDbPoint
 10
-87.70001300000009
 20
6.350000516388647
 30
0.0
  0
POINT
  5
5618C
330
56181
100
AcDbEntity
  8
Defpoints
 62
     0
100
AcDbPoint
 10
-115.6468653179264
 20
6.350000516388655
 30
0.0
  0
ENDBLK
  5
5618D
330
56181
100
AcDbEntity
  8
0
100
AcDbBlockEnd
  0
BLOCK
  5
5618F
330
5618E
100
AcDbEntity
  8
0
100
AcDbBlockBegin
  2
*D17
 70
     1
 10
0.0
 20
0.0
 30
0.0
  3
*D17
  1

  0
LINE
  5
56190
330
5618E
100
AcDbEntity
  8
2
100
AcDbLine
 10
79.37499960185816
 20
6.349999999999987
 30
0.0
 11
79.37499960185816
 21
41.4170452787456
 31
0.0
  0
LINE
  5
56191
330
5618E
100
AcDbEntity
  8
2
100
AcDbLine
 10
-0.0000003981417649
 20
6.349974999999978
 30
0.0
 11
-0.0000003981417627
 21
41.4170452787456
 31
0.0
  0
LINE
  5
56192
330
5618E
100
AcDbEntity
  8
2
100
AcDbLine
 10
75.87499960185819
 20
39.9170452787456
 30
0.0
 11
3.499999601858236
 21
39.9170452787456
 31
0.0
  0
SOLID
  5
56193
330
5618E
100
AcDbEntity
  8
2
100
AcDbTrace
 10
75.87499960185819
 20
40.50037861207893
 30
0.0
 11
75.87499960185819
 21
39.33371194541228
 31
0.0
 12
79.37499960185816
 22
39.9170452787456
 32
0.0
 13
79.37499960185816
 23
39.9170452787456
 33
0.0
  0
SOLID
  5
56194
330
5618E
100
AcDbEntity
  8
2
100
AcDbTrace
 10
3.499999601858236
 20
40.50037861207893
 30
0.0
 11
3.499999601858236
 21
39.33371194541228
 31
0.0
 12
-0.0000003981417628
 22
39.9170452787456
 32
0.0
 13
-0.0000003981417628
 23
39.9170452787456
 33
0.0
  0
MTEXT
  5
56195
330
5618E
100
AcDbEntity
  8
2
100
AcDbMText
 10
39.68749960185821
 20
43.9670452787456
 30
0.0
 40
3.5
 41
0.0
 71
     5
 72
     1
  1
\A1;79.375 [3.125"]
  7
simplex
 73
     1
 44
1.0
1001
ACAD
1000
MTEXTBEGIN
1070
    73
1070
     1
1070
    44
1040
1.0
1070
    74
1070
     0
1000
MTEXTEND
  0
POINT
  5
56196
330
5618E
100
AcDbEntity
  8
Defpoints
 62
     0
100
AcDbPoint
 10
79.37499960185816
 20
6.349999999999987
 30
0.0
  0
POINT
  5
56197
330
5618E
100
AcDbEntity
  8
Defpoints
 62
     0
100
AcDbPoint
 10
-0.0000003981417649
 20
6.349974999999978
 30
0.0
  0
POINT
  5
56198
330
5618E
100
AcDbEntity
  8
Defpoints
 62
     0
100
AcDbPoint
 10
-0.0000003981417628
 20
39.9170452787456
 30
0.0
  0
ENDBLK
  5
56199
330
5618E
100
AcDbEntity
  8
0
100
AcDbBlockEnd
  0
BLOCK
  5
5619B
330
5619A
100
AcDbEntity
  8
0
100
AcDbBlockBegin
  2
*D18
 70
     1
 10
0.0
 20
0.0
 30
0.0
  3
*D18
  1

  0
LINE
  5
5619C
330
5619A
100
AcDbEntity
  8
sk2
100
AcDbLine
 10
-88.90000000000004
 20
5.349996016388615
 30
0.0
 11
-88.90000000000004
 21
56.02343251608181
 31
0.0
  0
LINE
  5
5619D
330
5619A
100
AcDbEntity
  8
sk2
100
AcDbLine
 10
79.37499999999992
 20
-0.0000154836114064
 30
0.0
 11
79.37499999999992
 21
56.02343251608181
 31
0.0
  0
LINE
  5
5619E
330
5619A
100
AcDbEntity
  8
sk2
100
AcDbLine
 10
-85.40000000000004
 20
54.52343251608181
 30
0.0
 11
75.87499999999995
 21
54.52343251608181
 31
0.0
  0
SOLID
  5
5619F
330
5619A
100
AcDbEntity
  8
sk2
100
AcDbTrace
 10
-85.40000000000004
 20
55.10676584941514
 30
0.0
 11
-85.40000000000004
 21
53.94009918274846
 31
0.0
 12
-88.90000000000004
 22
54.52343251608181
 32
0.0
 13
-88.90000000000004
 23
54.52343251608181
 33
0.0
  0
SOLID
  5
561A0
330
5619A
100
AcDbEntity
  8
sk2
100
AcDbTrace
 10
75.87499999999995
 20
55.10676584941514
 30
0.0
 11
75.87499999999995
 21
53.94009918274846
 31
0.0
 12
79.37499999999992
 22
54.52343251608181
 32
0.0
 13
79.37499999999992
 23
54.52343251608181
 33
0.0
  0
MTEXT
  5
561A1
330
5619A
100
AcDbEntity
  8
sk2
100
AcDbMText
 10
-4.762496999999996
 20
58.57343251608181
 30
0.0
 40
3.5
 41
0.0
 71
     5
 72
     1
  1
\A1;168.275 [6.625"]
  7
simplex
 73
     1
 44
0.892857
1001
ACAD
1000
MTEXTBEGIN
1070
    73
1070
     1
1070
    44
1040
0.892857
1070
    74
1070
     0
1000
MTEXTEND
  0
POINT
  5
561A2
330
5619A
100
AcDbEntity
  8
Defpoints
 62
     0
100
AcDbPoint
 10
-88.90000000000004
 20
5.349996016388615
 30
0.0
  0
POINT
  5
561A3
330
5619A
100
AcDbEntity
  8
Defpoints
 62
     0
100
AcDbPoint
 10
79.37499999999992
 20
-0.0000154836114064
 30
0.0
  0
POINT
  5
561A4
330
5619A
100
AcDbEntity
  8
Defpoints
 62
     0
100
AcDbPoint
 10
79.37499999999992
 20
54.52343251608181
 30
0.0
  0
ENDBLK
  5
561A5
330
5619A
100
AcDbEntity
  8
0
100
AcDbBlockEnd
  0
BLOCK
  5
561A7
330
561A6
100
AcDbEntity
  8
0
100
AcDbBlockBegin
  2
*D19
 70
     1
 10
0.0
 20
0.0
 30
0.0
  3
*D19
  1

  0
LINE
  5
561A8
330
561A6
100
AcDbEntity
  8
2
100
AcDbLine
 10
109.5963743893994
 20
33.14848470789363
 30
0.0
 11
80.38320889407916
 21
6.413657950590184
 31
0.0
  0
MTEXT
  5
561A9
330
561A6
100
AcDbEntity
  8
2
100
AcDbMText
 10
93.54653384501537
 20
23.95024474038657
 30
0.0
 40
3.5
 41
0.0
 71
     5
 72
     1
  1
\A1;R6 [R.236"]
  7
simplex
 11
0.7377061993767749
 21
0.6751218878106933
 31
0.0
 73
     1
 44
1.0
1001
ACAD
1000
MTEXTBEGIN
1070
    73
1070
     1
1070
    44
1040
1.0
1070
    74
1070
     0
1000
MTEXTEND
  0
SOLID
  5
561AA
330
561A6
100
AcDbEntity
  8
2
100
AcDbTrace
 10
79.98938779285625
 20
6.843986566893298
 30
0.0
 11
80.77702999530208
 21
5.983329334287063
 31
0.0
 12
77.80123719626043
 22
4.050731343252756
 32
0.0
 13
77.80123719626043
 23
4.050731343252756
 33
0.0
  0
LINE
  5
561AB
330
561A6
100
AcDbEntity
  8
2
100
AcDbLine
 10
73.28499999999976
 20
0.0000000163885758
 30
0.0
 11
73.46499999999976
 21
0.0000000163885687
 31
0.0
  0
LINE
  5
561AC
330
561A6
100
AcDbEntity
  8
2
100
AcDbLine
 10
73.37499999999976
 20
-0.0899999836114276
 30
0.0
 11
73.37499999999976
 21
0.0900000163885651
 31
0.0
  0
POINT
  5
561AD
330
561A6
100
AcDbEntity
  8
Defpoints
 62
     0
100
AcDbPoint
 10
77.80123719626043
 20
4.050731343252756
 30
0.0
  0
POINT
  5
561AE
330
561A6
100
AcDbEntity
  8
Defpoints
 62
     0
100
AcDbPoint
 10
73.37499999999976
 20
0.0000000163885758
 30
0.0
  0
ENDBLK
  5
561AF
330
561A6
100
AcDbEntity
  8
0
100
AcDbBlockEnd
  0
BLOCK
  5
5629C
330
56291
100
AcDbEntity
  8
0
100
AcDbBlockBegin
  2
*D21
 70
     1
 10
0.0
 20
0.0
 30
0.0
  3
*D21
  1

  0
LINE
  5
562E5
330
56291
100
AcDbEntity
  8
2
100
AcDbLine
 10
100.5859285273938
 20
-157.9308383950038
 30
0.0
 11
100.5859285273938
 21
-136.5892680241755
 31
0.0
  0
LINE
  5
562E6
330
56291
100
AcDbEntity
  8
2
100
AcDbLine
 10
115.5859285273937
 20
-146.0762243950038
 30
0.0
 11
115.5859285273937
 21
-136.5892680241755
 31
0.0
  0
LINE
  5
562E7
330
56291
100
AcDbEntity
  8
2
100
AcDbLine
 10
112.0859285273937
 20
-138.0892680241755
 30
0.0
 11
104.0859285273938
 21
-138.0892680241755
 31
0.0
  0
LINE
  5
562E8
330
56291
100
AcDbEntity
  8
2
100
AcDbLine
 10
100.5859285273938
 20
-138.0892680241755
 30
0.0
 11
66.81926186072712
 21
-138.0892680241755
 31
0.0
  0
SOLID
  5
562E9
330
56291
100
AcDbEntity
  8
2
100
AcDbTrace
 10
112.0859285273937
 20
-137.5059346908422
 30
0.0
 11
112.0859285273937
 21
-138.6726013575089
 31
0.0
 12
115.5859285273937
 22
-138.0892680241755
 32
0.0
 13
115.5859285273937
 23
-138.0892680241755
 33
0.0
  0
SOLID
  5
562EA
330
56291
100
AcDbEntity
  8
2
100
AcDbTrace
 10
104.0859285273938
 20
-137.5059346908422
 30
0.0
 11
104.0859285273938
 21
-138.6726013575089
 31
0.0
 12
100.5859285273938
 22
-138.0892680241755
 32
0.0
 13
100.5859285273938
 23
-138.0892680241755
 33
0.0
  0
MTEXT
  5
562EB
330
56291
100
AcDbEntity
  8
2
100
AcDbMText
 10
81.95259519406045
 20
-134.0392680241755
 30
0.0
 40
3.5
 41
0.0
 71
     5
 72
     1
  1
\A1;15 [.591"]
  7
simplex
 73
     1
 44
0.892857
1001
ACAD
1000
MTEXTBEGIN
1070
    73
1070
     1
1070
    44
1040
0.892857
1070
    74
1070
     0
1000
MTEXTEND
  0
POINT
  5
562EC
330
56291
100
AcDbEntity
  8
Defpoints
 62
     0
100
AcDbPoint
 10
100.5859285273938
 20
-157.9308383950038
 30
0.0
  0
POINT
  5
562ED
330
56291
100
AcDbEntity
  8
Defpoints
 62
     0
100
AcDbPoint
 10
115.5859285273937
 20
-146.0762243950038
 30
0.0
  0
POINT
  5
562EE
330
56291
100
AcDbEntity
  8
Defpoints
 62
     0
100
AcDbPoint
 10
115.5859285273937
 20
-138.0892680241755
 30
0.0
  0
ENDBLK
  5
5629D
330
56291
100
AcDbEntity
  8
0
100
AcDbBlockEnd
  0
BLOCK
  5
562A7
330
5629E
100
AcDbEntity
  8
0
100
AcDbBlockBegin
  2
*D22
 70
     1
 10
0.0
 20
0.0
 30
0.0
  3
*D22
  1

  0
LINE
  5
562EF
330
5629E
100
AcDbEntity
  8
2
100
AcDbLine
 10
109.5859335273937
 20
-157.6808383821152
 30
0.0
 11
132.7991965866356
 21
-157.6808383821152
 31
0.0
  0
LINE
  5
562F0
330
5629E
100
AcDbEntity
  8
2
100
AcDbLine
 10
131.2991965866356
 20
-161.1808383821152
 30
0.0
 11
131.2991965866356
 21
-169.6808383797152
 31
0.0
  0
LINE
  5
562F1
330
5629E
100
AcDbEntity
  8
2
100
AcDbLine
 10
131.2991965866356
 20
-169.6808383797152
 30
0.0
 11
131.2991965866355
 21
-211.6141717130485
 31
0.0
  0
SOLID
  5
562F2
330
5629E
100
AcDbEntity
  8
2
100
AcDbTrace
 10
130.7158632533022
 20
-161.1808383821152
 30
0.0
 11
131.8825299199689
 21
-161.1808383821152
 31
0.0
 12
131.2991965866356
 22
-157.6808383821152
 32
0.0
 13
131.2991965866356
 23
-157.6808383821152
 33
0.0
  0
MTEXT
  5
562F3
330
5629E
100
AcDbEntity
  8
2
100
AcDbMText
 10
127.2491965866356
 20
-192.3975050463818
 30
0.0
 40
3.5
 41
0.0
 71
     5
 72
     1
  1
\A1;%%C12 [%%c.472"]
  7
simplex
 11
0.0000000000000001
 21
1.0
 31
0.0
 73
     1
 44
1.0
1001
ACAD
1000
MTEXTBEGIN
1070
    73
1070
     1
1070
    44
1040
1.0
1070
    74
1070
     0
1000
MTEXTEND
  0
POINT
  5
562F4
330
5629E
100
AcDbEntity
  8
Defpoints
 62
     0
100
AcDbPoint
 10
109.5859335273937
 20
-169.6808383797152
 30
0.0
  0
POINT
  5
562F5
330
5629E
100
AcDbEntity
  8
Defpoints
 62
     0
100
AcDbPoint
 10
109.5859335273937
 20
-157.6808383821152
 30
0.0
  0
POINT
  5
562F6
330
5629E
100
AcDbEntity
  8
Defpoints
 62
     0
100
AcDbPoint
 10
131.2991965866356
 20
-157.6808383821152
 30
0.0
  0
ENDBLK
  5
562A8
330
5629E
100
AcDbEntity
  8
0
100
AcDbBlockEnd
  0
BLOCK
  5
562B3
330
562A9
100
AcDbEntity
  8
0
100
AcDbBlockBegin
  2
*D23
 70
     1
 10
0.0
 20
0.0
 30
0.0
  3
*D23
  1

  0
LINE
  5
56356
330
562A9
100
AcDbEntity
  8
sk2
100
AcDbLine
 10
-88.9000003981418
 20
5.349996016388615
 30
0.0
 11
-88.9000003981418
 21
56.02343251608181
 31
0.0
  0
LINE
  5
56357
330
562A9
100
AcDbEntity
  8
sk2
100
AcDbLine
 10
79.37499960185817
 20
-0.0000154836114064
 30
0.0
 11
79.37499960185817
 21
56.02343251608181
 31
0.0
  0
LINE
  5
56358
330
562A9
100
AcDbEntity
  8
sk2
100
AcDbLine
 10
-85.40000039814179
 20
54.52343251608181
 30
0.0
 11
75.87499960185818
 21
54.52343251608181
 31
0.0
  0
SOLID
  5
56359
330
562A9
100
AcDbEntity
  8
sk2
100
AcDbTrace
 10
-85.40000039814179
 20
55.10676584941514
 30
0.0
 11
-85.40000039814179
 21
53.94009918274847
 31
0.0
 12
-88.9000003981418
 22
54.52343251608181
 32
0.0
 13
-88.9000003981418
 23
54.52343251608181
 33
0.0
  0
SOLID
  5
5635A
330
562A9
100
AcDbEntity
  8
sk2
100
AcDbTrace
 10
75.87499960185818
 20
55.10676584941514
 30
0.0
 11
75.87499960185818
 21
53.94009918274847
 31
0.0
 12
79.37499960185817
 22
54.52343251608181
 32
0.0
 13
79.37499960185817
 23
54.52343251608181
 33
0.0
  0
MTEXT
  5
5635B
330
562A9
100
AcDbEntity
  8
sk2
100
AcDbMText
 10
-4.762497398141761
 20
58.57343251608181
 30
0.0
 40
3.5
 41
0.0
 71
     5
 72
     1
  1
\A1;168.275 [6.625"]
  7
simplex
 73
     1
 44
0.892857
1001
ACAD
1000
MTEXTBEGIN
1070
    73
1070
     1
1070
    44
1040
0.892857
1070
    74
1070
     0
1000
MTEXTEND
  0
POINT
  5
5635C
330
562A9
100
AcDbEntity
  8
Defpoints
 62
     0
100
AcDbPoint
 10
-88.9000003981418
 20
5.349996016388615
 30
0.0
  0
POINT
  5
5635D
330
562A9
100
AcDbEntity
  8
Defpoints
 62
     0
100
AcDbPoint
 10
79.37499960185817
 20
-0.0000154836114064
 30
0.0
  0
POINT
  5
5635E
330
562A9
100
AcDbEntity
  8
Defpoints
 62
     0
100
AcDbPoint
 10
79.37499960185817
 20
54.52343251608181
 30
0.0
  0
ENDBLK
  5
562B4
330
562A9
100
AcDbEntity
  8
0
100
AcDbBlockEnd
  0
BLOCK
  5
562C0
330
562B5
100
AcDbEntity
  8
0
100
AcDbBlockBegin
  2
*D24
 70
     1
 10
0.0
 20
0.0
 30
0.0
  3
*D24
  1

  0
LINE
  5
5635F
330
562B5
100
AcDbEntity
  8
sk2
100
AcDbLine
 10
-87.70001339814186
 20
-6.349999483611327
 30
0.0
 11
-117.1468657160682
 21
-6.349999483611319
 31
0.0
  0
LINE
  5
56360
330
562B5
100
AcDbEntity
  8
sk2
100
AcDbLine
 10
-87.70001339814186
 20
6.350000516388661
 30
0.0
 11
-117.1468657160682
 21
6.350000516388669
 31
0.0
  0
LINE
  5
56361
330
562B5
100
AcDbEntity
  8
sk2
100
AcDbLine
 10
-115.6468657160681
 20
2.850000516388669
 30
0.0
 11
-115.6468657160681
 21
-2.849999483611319
 31
0.0
  0
LINE
  5
56362
330
562B5
100
AcDbEntity
  8
sk2
100
AcDbLine
 10
-115.6468657160681
 20
-6.349999483611319
 30
0.0
 11
-115.6468657160682
 21
-57.879166150278
 31
0.0
  0
SOLID
  5
56363
330
562B5
100
AcDbEntity
  8
sk2
100
AcDbTrace
 10
-116.2301990494015
 20
2.850000516388669
 30
0.0
 11
-115.0635323827348
 21
2.850000516388669
 31
0.0
 12
-115.6468657160681
 22
6.350000516388669
 32
0.0
 13
-115.6468657160681
 23
6.350000516388669
 33
0.0
  0
SOLID
  5
56364
330
562B5
100
AcDbEntity
  8
sk2
100
AcDbTrace
 10
-116.2301990494015
 20
-2.849999483611319
 30
0.0
 11
-115.0635323827348
 21
-2.849999483611319
 31
0.0
 12
-115.6468657160681
 22
-6.349999483611319
 32
0.0
 13
-115.6468657160681
 23
-6.349999483611319
 33
0.0
  0
MTEXT
  5
56365
330
562B5
100
AcDbEntity
  8
sk2
100
AcDbMText
 10
-119.6968657160681
 20
-36.91249948361136
 30
0.0
 40
3.5
 41
0.0
 71
     5
 72
     1
  1
\A1;%%c12.7 [%%c.500"]
  7
simplex
 11
0.0000000000000001
 21
1.0
 31
0.0
 73
     1
 44
0.75
1001
ACAD
1000
MTEXTBEGIN
1070
    73
1070
     1
1070
    44
1040
0.75
1070
    74
1070
     0
1000
MTEXTEND
  0
POINT
  5
56366
330
562B5
100
AcDbEntity
  8
Defpoints
 62
     0
100
AcDbPoint
 10
-87.70001339814186
 20
-6.349999483611327
 30
0.0
  0
POINT
  5
56367
330
562B5
100
AcDbEntity
  8
Defpoints
 62
     0
100
AcDbPoint
 10
-87.70001339814186
 20
6.350000516388661
 30
0.0
  0
POINT
  5
56368
330
562B5
100
AcDbEntity
  8
Defpoints
 62
     0
100
AcDbPoint
 10
-115.6468657160681
 20
6.350000516388669
 30
0.0
  0
ENDBLK
  5
562C1
330
562B5
100
AcDbEntity
  8
0
100
AcDbBlockEnd
  0
BLOCK
  5
562CC
330
562C2
100
AcDbEntity
  8
0
100
AcDbBlockBegin
  2
*D25
 70
     1
 10
0.0
 20
0.0
 30
0.0
  3
*D25
  1

  0
LINE
  5
56369
330
562C2
100
AcDbEntity
  8
2
100
AcDbLine
 10
79.37499920371641
 20
6.349999999999994
 30
0.0
 11
79.37499920371641
 21
41.4170452787456
 31
0.0
  0
LINE
  5
5636A
330
562C2
100
AcDbEntity
  8
2
100
AcDbLine
 10
-0.0000007962835298
 20
6.349974999999972
 30
0.0
 11
-0.0000007962835276
 21
41.4170452787456
 31
0.0
  0
LINE
  5
5636B
330
562C2
100
AcDbEntity
  8
2
100
AcDbLine
 10
75.87499920371641
 20
39.9170452787456
 30
0.0
 11
3.499999203716472
 21
39.9170452787456
 31
0.0
  0
SOLID
  5
5636C
330
562C2
100
AcDbEntity
  8
2
100
AcDbTrace
 10
75.87499920371641
 20
40.50037861207893
 30
0.0
 11
75.87499920371641
 21
39.33371194541227
 31
0.0
 12
79.37499920371641
 22
39.9170452787456
 32
0.0
 13
79.37499920371641
 23
39.9170452787456
 33
0.0
  0
SOLID
  5
5636D
330
562C2
100
AcDbEntity
  8
2
100
AcDbTrace
 10
3.499999203716472
 20
40.50037861207893
 30
0.0
 11
3.499999203716472
 21
39.33371194541227
 31
0.0
 12
-0.0000007962835277
 22
39.9170452787456
 32
0.0
 13
-0.0000007962835277
 23
39.9170452787456
 33
0.0
  0
MTEXT
  5
5636E
330
562C2
100
AcDbEntity
  8
2
100
AcDbMText
 10
39.68749920371644
 20
43.9670452787456
 30
0.0
 40
3.5
 41
0.0
 71
     5
 72
     1
  1
\A1;79.375 [3.125"]
  7
simplex
 73
     1
 44
1.0
1001
ACAD
1000
MTEXTBEGIN
1070
    73
1070
     1
1070
    44
1040
1.0
1070
    74
1070
     0
1000
MTEXTEND
  0
POINT
  5
5636F
330
562C2
100
AcDbEntity
  8
Defpoints
 62
     0
100
AcDbPoint
 10
79.37499920371641
 20
6.349999999999994
 30
0.0
  0
POINT
  5
56370
330
562C2
100
AcDbEntity
  8
Defpoints
 62
     0
100
AcDbPoint
 10
-0.0000007962835298
 20
6.349974999999972
 30
0.0
  0
POINT
  5
56371
330
562C2
100
AcDbEntity
  8
Defpoints
 62
     0
100
AcDbPoint
 10
-0.0000007962835277
 20
39.9170452787456
 30
0.0
  0
ENDBLK
  5
562CD
330
562C2
100
AcDbEntity
  8
0
100
AcDbBlockEnd
  0
BLOCK
  5
562D6
330
562CE
100
AcDbEntity
  8
0
100
AcDbBlockBegin
  2
*D26
 70
     1
 10
0.0
 20
0.0
 30
0.0
  3
*D26
  1

  0
LINE
  5
56313
330
562CE
100
AcDbEntity
  8
2
100
AcDbLine
 10
145.8073079167931
 20
-130.5323536871101
 30
0.0
 11
116.5941424214729
 21
-157.2671804444136
 31
0.0
  0
MTEXT
  5
56314
330
562CE
100
AcDbEntity
  8
2
100
AcDbMText
 10
129.757467372409
 20
-139.7305936546172
 30
0.0
 40
3.5
 41
0.0
 71
     5
 72
     1
  1
\A1;R6 [R.236"]
  7
simplex
 11
0.7377061993767739
 21
0.6751218878106942
 31
0.0
 73
     1
 44
1.0
1001
ACAD
1000
MTEXTBEGIN
1070
    73
1070
     1
1070
    44
1040
1.0
1070
    74
1070
     0
1000
MTEXTEND
  0
SOLID
  5
56315
330
562CE
100
AcDbEntity
  8
2
100
AcDbTrace
 10
116.20032132025
 20
-156.8368518281104
 30
0.0
 11
116.9879635226958
 21
-157.6975090607167
 31
0.0
 12
114.0121707236542
 22
-159.630107051751
 32
0.0
 13
114.0121707236542
 23
-159.630107051751
 33
0.0
  0
LINE
  5
56316
330
562CE
100
AcDbEntity
  8
2
100
AcDbLine
 10
109.4959335273935
 20
-163.6808383786152
 30
0.0
 11
109.6759335273935
 21
-163.6808383786152
 31
0.0
  0
LINE
  5
56317
330
562CE
100
AcDbEntity
  8
2
100
AcDbLine
 10
109.5859335273935
 20
-163.7708383786152
 30
0.0
 11
109.5859335273935
 21
-163.5908383786152
 31
0.0
  0
POINT
  5
56318
330
562CE
100
AcDbEntity
  8
Defpoints
 62
     0
100
AcDbPoint
 10
114.0121707236542
 20
-159.630107051751
 30
0.0
  0
POINT
  5
56319
330
562CE
100
AcDbEntity
  8
Defpoints
 62
     0
100
AcDbPoint
 10
109.5859335273936
 20
-163.6808383786152
 30
0.0
  0
ENDBLK
  5
562D7
330
562CE
100
AcDbEntity
  8
0
100
AcDbBlockEnd
  0
BLOCK
  5
562E3
330
562D8
100
AcDbEntity
  8
0
100
AcDbBlockBegin
  2
*D27
 70
     1
 10
0.0
 20
0.0
 30
0.0
  3
*D27
  1

  0
LINE
  5
562D9
330
562D8
100
AcDbEntity
  8
2
100
AcDbLine
 10
100.5859365273937
 20
-169.4308383950037
 30
0.0
 11
92.20505817842493
 21
-169.4308383950037
 31
0.0
  0
LINE
  5
562DA
330
562D8
100
AcDbEntity
  8
2
100
AcDbLine
 10
100.5859365273937
 20
-157.9308383950037
 30
0.0
 11
92.20505817842495
 21
-157.9308383950037
 31
0.0
  0
LINE
  5
562DB
330
562D8
100
AcDbEntity
  8
2
100
AcDbLine
 10
93.70505817842495
 20
-154.4308383950037
 30
0.0
 11
93.70505817842495
 21
-150.9308383950038
 31
0.0
  0
LINE
  5
562DC
330
562D8
100
AcDbEntity
  8
2
100
AcDbLine
 10
93.70505817842493
 20
-172.9308383950038
 30
0.0
 11
93.70505817842493
 21
-221.8150021214152
 31
0.0
  0
SOLID
  5
562DD
330
562D8
100
AcDbEntity
  8
2
100
AcDbTrace
 10
93.12172484509162
 20
-154.4308383950037
 30
0.0
 11
94.28839151175827
 21
-154.4308383950037
 31
0.0
 12
93.70505817842495
 22
-157.9308383950037
 32
0.0
 13
93.70505817842495
 23
-157.9308383950037
 33
0.0
  0
SOLID
  5
562DE
330
562D8
100
AcDbEntity
  8
2
100
AcDbTrace
 10
93.1217248450916
 20
-172.9308383950038
 30
0.0
 11
94.28839151175827
 21
-172.9308383950038
 31
0.0
 12
93.70505817842493
 22
-169.4308383950037
 32
0.0
 13
93.70505817842493
 23
-169.4308383950037
 33
0.0
  0
MTEXT
  5
562DF
330
562D8
100
AcDbEntity
  8
2
100
AcDbMText
 10
89.65505817842496
 20
-200.8483354547485
 30
0.0
 40
3.5
 41
0.0
 71
     5
 72
     1
  1
\A1;%%C11.5 [%%C.453"]
  7
simplex
 11
0.0000000000000001
 21
1.0
 31
0.0
 73
     1
 44
1.0
1001
ACAD
1000
MTEXTBEGIN
1070
    73
1070
     1
1070
    44
1040
1.0
1070
    74
1070
     0
1000
MTEXTEND
  0
POINT
  5
562E0
330
562D8
100
AcDbEntity
  8
Defpoints
 62
     0
100
AcDbPoint
 10
100.5859365273937
 20
-169.4308383950037
 30
0.0
  0
POINT
  5
562E1
330
562D8
100
AcDbEntity
  8
Defpoints
 62
     0
100
AcDbPoint
 10
100.5859365273937
 20
-157.9308383950037
 30
0.0
  0
POINT
  5
562E2
330
562D8
100
AcDbEntity
  8
Defpoints
 62
     0
100
AcDbPoint
 10
93.70505817842495
 20
-157.9308383950037
 30
0.0
  0
ENDBLK
  5
562E4
330
562D8
100
AcDbEntity
  8
0
100
AcDbBlockEnd
  0
ENDSEC
  0
SECTION
  2
ENTITIES
  0
INSERT
  5
68C
330
1F
100
AcDbEntity
  8
0
100
AcDbBlockReference
  2
zero block
 10
0.0
 20
0.0
 30
0.0
  0
MTEXT
  5
53AD9
330
1F
100
AcDbEntity
  8
sk6
100
AcDbMText
 10
-85.09636830081104
 20
84.56961532674586
 30
0.0
 40
5.0
 41
70.03712541027798
 71
     1
 72
     5
  1
SRFU08S08LW\PSUFT12R30
  7
simplex
 73
     1
 44
1.0
1001
ACAD
1000
ACAD_MTEXT_DEFINED_HEIGHT_BEGIN
1070
    46
1040
0.0
1000
ACAD_MTEXT_DEFINED_HEIGHT_END
1000
MTEXTBEGIN
1070
    73
1070
     1
1070
    44
1040
1.0
1070
    74
1070
     0
1000
MTEXTEND
  0
SPLINE
  5
54BD9
330
1F
100
AcDbEntity
  8
1
100
AcDbSpline
210
0.0
220
0.0
230
1.0
 70
     8
 71
     3
 72
    10
 73
     6
 74
     4
 42
0.0000000001
 43
0.0000000001
 44
0.000001
 12
0.9650356897166268
 22
-0.2621185181805258
 32
0.0
 13
0.9223637646072724
 23
-0.3863225151858227
 33
0.0
 40
0.0
 40
0.0
 40
0.0
 40
0.0
 40
0.764039005802942
 40
1.533174933640697
 40
2.300551820622075
 40
2.300551820622075
 40
2.300551820622075
 40
2.300551820622075
 10
71.20068618749991
 20
4.608642103515537
 30
0.0
 10
71.44646115714507
 20
4.54188584617114
 30
0.0
 10
71.93680867125968
 20
4.39721310357898
 30
0.0
 10
72.6625628419238
 20
4.148852424762369
 30
0.0
 10
73.13940474232643
 20
3.961366676540242
 30
0.0
 10
73.37533828710935
 20
3.862548353515537
 30
0.0
 11
71.20068618749991
 21
4.608642103515537
 31
0.0
 11
71.9335200498046
 21
4.392516615234399
 31
0.0
 11
72.66114303564449
 21
4.143249037109343
 31
0.0
 11
73.37533828710935
 21
3.862548353515537
 31
0.0
  0
SPLINE
  5
54BDA
330
1F
100
AcDbEntity
  8
1
100
AcDbSpline
210
0.0
220
0.0
230
1.0
 70
     8
 71
     3
 72
     8
 73
     4
 74
     0
 42
0.0000000001
 43
0.0000000001
 40
0.0
 40
0.0
 40
0.0
 40
0.0
 40
0.5463012196666999
 40
0.5463012196666999
 40
0.5463012196666999
 40
0.5463012196666999
 10
68.84198257421866
 20
5.195189955078093
 30
0.0
 10
69.01999454794708
 20
5.156819454989702
 30
0.0
 10
69.19771118985972
 20
5.11704947887766
 30
0.0
 10
69.37505169149779
 20
5.07567771662636
 30
0.0
  0
SPLINE
  5
54BDB
330
1F
100
AcDbEntity
  8
1
100
AcDbSpline
210
0.0
220
0.0
230
1.0
 70
     8
 71
     3
 72
    11
 73
     7
 74
     0
 42
0.0000000001
 43
0.0000000001
 40
0.5463012196666999
 40
0.5463012196666999
 40
0.5463012196666999
 40
0.5463012196666999
 40
0.572560241578073
 40
1.173774481261014
 40
1.794959738262245
 40
2.430813038627595
 40
2.430813038627595
 40
2.430813038627595
 40
2.430813038627595
 10
69.37505169149779
 20
5.07567771662636
 30
0.0
 10
69.38357590479012
 20
5.073689103069653
 30
0.0
 10
69.58724573804573
 20
5.026081694056132
 30
0.0
 10
69.99154673005847
 20
4.927113300972907
 30
0.0
 10
70.59140066872425
 20
4.772636735664606
 30
0.0
 10
70.99620818450347
 20
4.66442754187898
 30
0.0
 10
71.20068618749991
 20
4.608642103515537
 30
0.0
  0
SPLINE
  5
54BDC
330
1F
100
AcDbEntity
  8
1
100
AcDbSpline
210
0.0
220
0.0
230
1.0
 70
     8
 71
     3
 72
    10
 73
     6
 74
     4
 42
0.0000000001
 43
0.0000000001
 44
0.000001
 12
0.9992380131607138
 22
-0.0390306681294253
 32
0.0
 13
0.9845565048197173
 23
-0.1750670980429567
 33
0.0
 40
0.0
 40
0.0
 40
0.0
 40
0.0
 40
0.1835697298275759
 40
0.3982883990865258
 40
0.6372284438358338
 40
0.6372284438358338
 40
0.6372284438358338
 40
0.6372284438358338
 10
67.64740249609372
 20
5.380095960937468
 30
0.0
 10
67.70854578013018
 20
5.377707677869631
 30
0.0
 10
67.84114465907655
 20
5.369395465275924
 30
0.0
 10
68.05185665855995
 20
5.341915263173632
 30
0.0
 10
68.20129479761472
 20
5.318661056382222
 30
0.0
 10
68.27971145605467
 20
5.304717542968718
 30
0.0
 11
67.64740249609372
 21
5.380095960937468
 31
0.0
 11
67.83058425878903
 21
5.368163587890593
 31
0.0
 11
68.04371902441403
 21
5.342132093749968
 31
0.0
 11
68.27971145605467
 21
5.304717542968718
 31
0.0
  0
SPLINE
  5
54BDD
330
1F
100
AcDbEntity
  8
1
100
AcDbSpline
210
0.0
220
0.0
230
1.0
 70
     8
 71
     3
 72
    21
 73
    17
 74
    15
 42
0.0000000001
 43
0.0000000001
 44
0.000001
 12
0.9216785663988003
 22
-0.3879544048481113
 32
0.0
 13
0.5206995909959633
 23
-0.8537399697429169
 33
0.0
 40
0.0
 40
0.0
 40
0.0
 40
0.0
 40
0.530121434711244
 40
1.077157433463646
 40
1.63248566536678
 40
2.213835893196923
 40
2.795841884737322
 40
3.368614964653476
 40
3.928005971472932
 40
4.468702204198073
 40
4.980169212353183
 40
5.443678419843728
 40
5.869089330858202
 40
6.246455752011017
 40
6.498424543041665
 40
6.716659330773358
 40
6.716659330773358
 40
6.716659330773358
 40
6.716659330773358
 10
73.37533828710935
 20
3.862548353515537
 30
0.0
 10
73.53820547509666
 20
3.793994038281994
 30
0.0
 10
73.86611336234452
 20
3.647364942207001
 30
0.0
 10
74.35219639696583
 20
3.402360707595427
 30
0.0
 10
74.84203339650616
 20
3.128027071149118
 30
0.0
 10
75.32844972188446
 20
2.824967208251494
 30
0.0
 10
75.80576980845243
 20
2.497436497178075
 30
0.0
 10
76.26260121144804
 20
2.153910547647689
 30
0.0
 10
76.69280219351631
 20
1.798850108915842
 30
0.0
 10
77.09251221259737
 20
1.439737158415944
 30
0.0
 10
77.45397739559559
 20
1.086529225943101
 30
0.0
 10
77.77343957358784
 20
0.745983478719292
 30
0.0
 10
78.04919957824424
 20
0.4262484475601366
 30
0.0
 10
78.26666302218331
 20
0.1498186977937406
 30
0.0
 10
78.4311428608628
 20
-0.0800134940832289
 30
0.0
 10
78.51560639450972
 20
-0.2121261779490271
 30
0.0
 10
78.55348464941403
 20
-0.2742314316406629
 30
0.0
 11
73.37533828710935
 21
3.862548353515537
 31
0.0
 11
73.85922500585934
 21
3.646026136718705
 31
0.0
 11
74.34787246679684
 21
3.400115492187455
 31
0.0
 11
74.83231613134762
 21
3.128631117187455
 31
0.0
 11
75.32591506933591
 21
2.821502210937455
 31
0.0
 11
75.80583450292966
 21
2.492248060546787
 31
0.0
 11
76.26346084570309
 21
2.147796156249961
 31
0.0
 11
76.69500991796872
 21
1.791869642578086
 31
0.0
 11
77.09710952734372
 21
1.430388929687461
 31
0.0
 11
77.46263381933591
 21
1.072631361328086
 31
0.0
 11
77.77962753271481
 21
0.7344660781249624
 31
0.0
 11
78.05704757666013
 21
0.4119563124999622
 31
0.0
 11
78.28977462744138
 21
0.1148982070312121
 31
0.0
 11
78.43574020361325
 21
-0.0904850937500379
 31
0.0
 11
78.55348464941403
 21
-0.2742314316406629
 31
0.0
  0
SPLINE
  5
54BDE
330
1F
100
AcDbEntity
  8
1
100
AcDbSpline
210
0.0
220
0.0
230
1.0
 70
     8
 71
     3
 72
    21
 73
    17
 74
    15
 42
0.0000000001
 43
0.0000000001
 44
0.000001
 12
0.999999013931181
 22
0.001404327834146
 32
0.0
 13
0.0541299792816777
 23
0.9985338979438632
 33
0.0
 40
0.0
 40
0.0
 40
0.0
 40
0.0
 40
0.5827374161315941
 40
1.167328770258599
 40
1.75005298055975
 40
2.33280027834966
 40
2.917386152526673
 40
3.500121267031742
 40
4.082791390541648
 40
4.667323391609658
 40
5.25000355695974
 40
5.832335799914077
 40
6.416519186882969
 40
6.998857841921562
 40
7.424561447293652
 40
7.850297666896667
 40
7.850297666896667
 40
7.850297666896667
 40
7.850297666896667
 10
73.37533828710935
 20
-5.167236802734461
 30
0.0
 10
73.56958390094681
 20
-5.166964017943303
 30
0.0
 10
73.95902821744231
 20
-5.144900578617482
 30
0.0
 10
74.53519719902766
 20
-5.046600780745072
 30
0.0
 10
75.09710933437158
 20
-4.885255980509729
 30
0.0
 10
75.63669840114396
 20
-4.660277124719076
 30
0.0
 10
76.14798317946332
 20
-4.376968688426752
 30
0.0
 10
76.62471886571267
 20
-4.038635343303193
 30
0.0
 10
77.0594137444082
 20
-3.647785240897691
 30
0.0
 10
77.44798500739162
 20
-3.21118425770479
 30
0.0
 10
77.78568757401675
 20
-2.734184706906488
 30
0.0
 10
78.06625587404809
 20
-2.221623245017075
 30
0.0
 10
78.28810616634047
 20
-1.681268339600081
 30
0.0
 10
78.43390343234464
 20
-1.169687373276397
 30
0.0
 10
78.51871701578343
 20
-0.6988422376394072
 30
0.0
 10
78.54580295183184
 20
-0.4159354472593571
 30
0.0
 10
78.55348464941403
 20
-0.2742314316406629
 30
0.0
 11
73.37533828710935
 21
-5.167236802734461
 31
0.0
 11
73.95713302587887
 21
-5.134094712890655
 31
0.0
 11
74.53342697119137
 21
-5.035950181640655
 31
0.0
 11
75.09338638281247
 21
-4.87466478125003
 31
0.0
 11
75.63142654394528
 21
-4.650818345703155
 31
0.0
 11
76.14274856542966
 21
-4.36746263281253
 31
0.0
 11
76.61773941015622
 21
-4.029877183593731
 31
0.0
 11
77.05128738378903
 21
-3.640594957031278
 31
0.0
 11
77.43989822363278
 21
-3.203949449218778
 31
0.0
 11
77.77624771093747
 21
-2.728149888671904
 31
0.0
 11
78.05620834326169
 21
-2.21752977148446
 31
0.0
 11
78.27801773046871
 21
-1.677093980468779
 31
0.0
 11
78.43734237646481
 21
-1.116974351562535
 31
0.0
 11
78.51289627050778
 21
-0.6980290390625381
 31
0.0
 11
78.55348464941403
 21
-0.2742314316406629
 31
0.0
  0
ARC
  5
54BE2
330
1F
100
AcDbEntity
  8
1
100
AcDbCircle
 10
73.375338
 20
-0.0000000000000051
 30
0.0
 40
2.5
100
AcDbArc
 50
89.99999699999904
 51
180.0
  0
ARC
  5
54BE3
330
1F
100
AcDbEntity
  8
1
100
AcDbCircle
 10
73.375338
 20
-0.0000000000000051
 30
0.0
 40
2.5
100
AcDbArc
 50
180.0
 51
270.0000029999977
  0
ARC
  5
54BE4
330
1F
100
AcDbEntity
  8
1
100
AcDbCircle
 10
73.375338
 20
-0.0000000000000051
 30
0.0
 40
2.5
100
AcDbArc
 50
270.0000029999977
 51
0.000004999999689
  0
ARC
  5
54BE5
330
1F
100
AcDbEntity
  8
1
100
AcDbCircle
 10
73.375338
 20
-0.0000000000000051
 30
0.0
 40
2.5
100
AcDbArc
 50
359.9999950000003
 51
89.99999699999904
  0
ARC
  5
54BE6
330
1F
100
AcDbEntity
  8
1
100
AcDbCircle
 10
73.375338
 20
-1.516510000000043
 30
0.0
 40
0.4880010000000001
100
AcDbArc
 50
43.60110900000076
 51
136.3988859999987
  0
ARC
  5
54BE7
330
1F
100
AcDbEntity
  8
1
100
AcDbCircle
 10
73.940272
 20
-0.9785160000000184
 30
0.0
 40
0.29213
100
AcDbArc
 50
223.601547000001
 51
16.39845599999908
  0
ARC
  5
54BE8
330
1F
100
AcDbEntity
  8
1
100
AcDbCircle
 10
74.50520599999999
 20
-0.0000000000000051
 30
0.0
 40
0.29213
100
AcDbArc
 50
283.6015319999969
 51
76.39847099999811
  0
ARC
  5
54BE9
330
1F
100
AcDbEntity
  8
1
100
AcDbCircle
 10
72.06200699999993
 20
0.7582389999999413
 30
0.0
 40
0.4880010000000001
100
AcDbArc
 50
283.6011150000006
 51
16.39889300000035
  0
ARC
  5
54BEA
330
1F
100
AcDbEntity
  8
1
100
AcDbCircle
 10
73.940272
 20
0.9784849999999728
 30
0.0
 40
0.29213
100
AcDbArc
 50
343.6015399999998
 51
136.3984589999982
  0
ARC
  5
54BEB
330
1F
100
AcDbEntity
  8
1
100
AcDbCircle
 10
72.06200699999993
 20
-0.7582710000000415
 30
0.0
 40
0.4880010000000001
100
AcDbArc
 50
343.6011170000006
 51
76.39888099999968
  0
ARC
  5
54BEC
330
1F
100
AcDbEntity
  8
1
100
AcDbCircle
 10
72.24547100000001
 20
-0.0000000000000051
 30
0.0
 40
0.29213
100
AcDbArc
 50
103.6015340000002
 51
256.398458999998
  0
ARC
  5
54BED
330
1F
100
AcDbEntity
  8
1
100
AcDbCircle
 10
74.68866199999998
 20
-0.7582710000000415
 30
0.0
 40
0.4880010000000001
100
AcDbArc
 50
103.6011170000004
 51
196.3988879999987
  0
ARC
  5
54BEE
330
1F
100
AcDbEntity
  8
1
100
AcDbCircle
 10
74.68866199999998
 20
0.7582389999999413
 30
0.0
 40
0.4880010000000001
100
AcDbArc
 50
163.601115
 51
256.3988829999995
  0
ARC
  5
54BEF
330
1F
100
AcDbEntity
  8
1
100
AcDbCircle
 10
72.81040499999996
 20
-0.9785160000000184
 30
0.0
 40
0.29213
100
AcDbArc
 50
163.6015369999998
 51
316.398468
  0
ARC
  5
54BF0
330
1F
100
AcDbEntity
  8
1
100
AcDbCircle
 10
72.81040499999996
 20
0.9784849999999728
 30
0.0
 40
0.29213
100
AcDbArc
 50
43.6015319999999
 51
196.398457999999
  0
ARC
  5
54BF1
330
1F
100
AcDbEntity
  8
1
100
AcDbCircle
 10
73.375338
 20
1.516478999999996
 30
0.0
 40
0.4880010000000001
100
AcDbArc
 50
223.601116999999
 51
316.3988909999992
  0
ARC
  5
54BF2
330
1F
100
AcDbEntity
  8
1
100
AcDbCircle
 10
73.375338
 20
-0.0000000000000051
 30
0.0
 40
1.750004
100
AcDbArc
 50
90.00011400000039
 51
269.9998929999996
  0
ARC
  5
54BF3
330
1F
100
AcDbEntity
  8
1
100
AcDbCircle
 10
73.37533099999996
 20
-0.0000000000000051
 30
0.0
 40
1.750004
100
AcDbArc
 50
270.0001319999996
 51
89.99989099999686
  0
ARC
  5
54BF4
330
1F
100
AcDbEntity
  8
1
100
AcDbCircle
 10
73.22533699999997
 20
-0.0000000000000051
 30
0.0
 40
2.75
100
AcDbArc
 50
89.99992899999806
 51
180.0
  0
ARC
  5
54BF5
330
1F
100
AcDbEntity
  8
1
100
AcDbCircle
 10
73.22533699999997
 20
-0.0000000000000051
 30
0.0
 40
2.75
100
AcDbArc
 50
180.0
 51
269.9999339999986
  0
ARC
  5
54BF6
330
1F
100
AcDbEntity
  8
1
100
AcDbCircle
 10
73.22533699999997
 20
-0.0000000000000051
 30
0.0
 40
2.75
100
AcDbArc
 50
269.9999339999986
 51
0.000004999999689
  0
ARC
  5
54BF7
330
1F
100
AcDbEntity
  8
1
100
AcDbCircle
 10
73.22533699999997
 20
-0.0000000000000051
 30
0.0
 40
2.75
100
AcDbArc
 50
0.000004999999689
 51
89.99991899999706
  0
ARC
  5
54BF8
330
1F
100
AcDbEntity
  8
1
100
AcDbCircle
 10
73.22533699999997
 20
-0.0000000000000051
 30
0.0
 40
2.9
100
AcDbArc
 50
89.99999699999904
 51
270.0000029999977
  0
ARC
  5
54BF9
330
1F
100
AcDbEntity
  8
1
100
AcDbCircle
 10
73.375338
 20
-0.0000000000000051
 30
0.0
 40
2.9
100
AcDbArc
 50
270.0000029999977
 51
90.00000100000141
  0
LINE
  5
54C08
330
1F
100
AcDbEntity
  8
1
100
AcDbLine
 10
68.59121199999998
 20
5.195188999999957
 30
0.0
 11
68.27970799999997
 21
5.304710999999941
 31
0.0
  0
LINE
  5
54C09
330
1F
100
AcDbEntity
  8
1
100
AcDbLine
 10
67.57533499999993
 20
-5.304749000000018
 30
0.0
 11
69.375338
 21
-5.304749000000018
 31
0.0
  0
LINE
  5
54C0A
330
1F
100
AcDbEntity
  8
1
100
AcDbLine
 10
67.57533499999993
 20
-5.195221
 30
0.0
 11
67.57533499999993
 21
-5.304749000000018
 31
0.0
  0
LINE
  5
54C0B
330
1F
100
AcDbEntity
  8
1
100
AcDbLine
 10
67.57533499999993
 20
-5.195221
 30
0.0
 11
69.375338
 21
-5.195221
 31
0.0
  0
LINE
  5
54C0D
330
1F
100
AcDbEntity
  8
1
100
AcDbLine
 10
70.18606799999992
 20
-5.167237000000061
 30
0.0
 11
73.375338
 21
-5.167237000000061
 31
0.0
  0
LINE
  5
54C0E
330
1F
100
AcDbEntity
  8
1
100
AcDbLine
 10
69.375
 20
-5.167237000000061
 30
0.0
 11
70.18606799999992
 21
-5.167237000000061
 31
0.0
  0
LINE
  5
54C0F
330
1F
100
AcDbEntity
  8
1
100
AcDbLine
 10
73.22533699999997
 20
-2.900025000000023
 30
0.0
 11
73.375338
 21
-2.900025000000023
 31
0.0
  0
LINE
  5
54C10
330
1F
100
AcDbEntity
  8
1
100
AcDbLine
 10
73.22533699999997
 20
2.899992999999939
 30
0.0
 11
73.375338
 21
2.899992999999939
 31
0.0
  0
LINE
  5
54C11
330
1F
100
AcDbEntity
  8
1
100
AcDbLine
 10
67.57533499999993
 20
5.195189999999969
 30
0.0
 11
68.84198299999997
 21
5.195189999999969
 31
0.0
  0
LINE
  5
54C12
330
1F
100
AcDbEntity
  8
1
100
AcDbLine
 10
67.57533499999993
 20
5.304717999999922
 30
0.0
 11
67.57533499999993
 21
5.195189999999969
 31
0.0
  0
LINE
  5
54C13
330
1F
100
AcDbEntity
  8
1
100
AcDbLine
 10
67.57533499999993
 20
5.304717999999922
 30
0.0
 11
68.27971099999996
 21
5.304717999999922
 31
0.0
  0
LINE
  5
54C14
330
1F
100
AcDbEntity
  8
1
100
AcDbLine
 10
67.647402
 20
5.380095999999983
 30
0.0
 11
69.37500299999993
 21
5.380095999999983
 31
0.0
  0
LINE
  5
54C18
330
1F
100
AcDbEntity
  8
1
100
AcDbLine
 10
67.37500299999995
 20
-5.380555000000076
 30
0.0
 11
67.37500299999995
 21
-0.0000000000000051
 31
0.0
  0
LINE
  5
54C19
330
1F
100
AcDbEntity
  8
1
100
AcDbLine
 10
67.37500299999995
 20
-0.0000000000000051
 30
0.0
 11
67.37500299999995
 21
5.38052299999998
 31
0.0
  0
LINE
  5
54C1B
102
{ACAD_REACTORS
330
54C2C
102
}
330
1F
100
AcDbEntity
  8
1
100
AcDbLine
 10
64.37500299999995
 20
-5.750000000000006
 30
0.0
 11
64.37500299999995
 21
5.75
 31
0.0
  0
DIMENSION
  5
54C2A
102
{ACAD_XDICTIONARY
360
54C2B
102
}
102
{ACAD_REACTORS
330
54C2C
102
}
330
1F
100
AcDbEntity
  8
2
100
AcDbDimension
  2
*D6
 10
57.4941246510312
 20
5.750000000000002
 30
0.0
 11
57.4941246510312
 21
-37.16749705974475
 31
0.0
 70
   160
  1
%%C<>
 71
     5
 42
11.50000000000001
  3
\M+18352\M+18373\M+1815B - ISO-25
100
AcDbAlignedDimension
 13
64.37500299999995
 23
-5.750000000000006
 33
0.0
 14
64.37500299999995
 24
5.75
 34
0.0
 50
270.0
100
AcDbRotatedDimension
1001
ACAD
1000
DSTYLE
1002
{
1070
     4
1000
%%C[]"
1070
    40
1040
1.0
1070
   143
1040
0.03937
1070
   170
1070
     1
1070
   171
1070
     3
1070
   271
1070
     8
1070
   285
1070
     4
1002
}
  0
DIMENSION
  5
54C2E
330
1F
100
AcDbEntity
  8
2
100
AcDbDimension
  2
*D5
 10
79.37499499999995
 20
25.59157037082821
 30
0.0
 11
45.74166166666663
 21
25.59157037082821
 31
0.0
 70
   160
 71
     5
 41
0.892857
 42
14.99999999999993
  3
\M+18352\M+18373\M+1815B - ISO-25
100
AcDbAlignedDimension
 13
64.37499500000003
 23
5.749999999999972
 33
0.0
 14
79.37499499999995
 24
17.6046139999999
 34
0.0
 50
180.0
100
AcDbRotatedDimension
1001
ACAD
1000
DSTYLE
1002
{
1070
     4
1000
"
1070
    40
1040
1.0
1070
   143
1040
0.03937
1070
   170
1070
     1
1070
   171
1070
     3
1070
   271
1070
     8
1070
   285
1070
     4
1002
}
  0
LINE
  5
54CD0
330
1F
100
AcDbEntity
  8
1
100
AcDbLine
 10
67.37499299999996
 20
5.379999998899991
 30
0.0
 11
69.37499299999996
 21
5.379999998899991
 31
0.0
1001
ACAD
1000
RTMaterial
1005
0
  0
LINE
  5
54CD4
330
1F
100
AcDbEntity
  8
1
100
AcDbLine
 10
67.37499299999996
 20
5.379999998899991
 30
0.0
 11
64.37499299999996
 21
5.749999998899995
 31
0.0
1001
ACAD
1000
RTMaterial
1005
0
  0
LINE
  5
54EBA
102
{ACAD_REACTORS
330
54C2C
102
}
330
1F
100
AcDbEntity
  8
1
100
AcDbLine
 10
69.37500299999993
 20
5.075689075822512
 30
0.0
 11
69.37500299999993
 21
5.380095999999983
 31
0.0
  0
LINE
  5
54EC2
330
1F
100
AcDbEntity
  8
1
100
AcDbLine
 10
67.37499299827408
 20
-5.379999997250448
 30
0.0
 11
69.37499299827408
 21
-5.379999997892039
 31
0.0
1001
ACAD
1000
RTMaterial
1005
0
  0
LINE
  5
54EC3
330
1F
100
AcDbEntity
  8
1
100
AcDbLine
 10
67.37499299827408
 20
-5.379999997250448
 30
0.0
 11
64.37499299815539
 21
-5.749999996288081
 31
0.0
1001
ACAD
1000
RTMaterial
1005
0
  0
LINE
  5
551A6
330
1F
100
AcDbEntity
  8
4
100
AcDbLine
 10
-0.0000003981417649
 20
0.0000000000000026
 30
0.0
 11
84.17781600000001
 21
-0.0000000000000051
 31
0.0
  0
ARC
  5
555F5
330
1F
100
AcDbEntity
  8
1
100
AcDbCircle
 10
61.77100300000001
 20
-0.0000000000000069
 30
0.0
 40
0.8
100
AcDbArc
 50
329.9999970000001
 51
29.99999900000029
  0
LINE
  5
55615
330
1F
100
AcDbEntity
  8
1
100
AcDbLine
 10
0.0
 20
-6.350007000000059
 30
0.0
 11
0.0
 21
0.000000000000002
 31
0.0
  0
LINE
  5
55618
330
1F
100
AcDbEntity
  8
1
100
AcDbLine
 10
64.37499199999996
 20
-5.750000000000006
 30
0.0
 11
0.5999899999999913
 21
-5.749999999999888
 31
0.0
  0
LINE
  5
55619
330
1F
100
AcDbEntity
  8
1
100
AcDbLine
 10
-0.0000170000000139
 20
-6.350011000000049
 30
0.0
 11
0.5999899999999343
 21
-5.749999999999997
 31
0.0
  0
LINE
  5
5561A
330
1F
100
AcDbEntity
  8
1
100
AcDbLine
 10
0.5999899999999343
 20
-5.749999999999997
 30
0.0
 11
0.5999899999999913
 21
0.000000000000002
 31
0.0
  0
LINE
  5
5561E
330
1F
100
AcDbEntity
  8
1
100
AcDbLine
 10
0.0
 20
6.350000499999991
 30
0.0
 11
0.0
 21
0.000000000000002
 31
0.0
  0
LINE
  5
5561F
330
1F
100
AcDbEntity
  8
1
100
AcDbLine
 10
64.37499200000002
 20
5.749999999999992
 30
0.0
 11
0.5999899999999913
 21
5.750000000000007
 31
0.0
  0
LINE
  5
55620
330
1F
100
AcDbEntity
  8
1
100
AcDbLine
 10
0.5999899999999913
 20
5.75
 30
0.0
 11
0.5999899999999913
 21
0.000000000000002
 31
0.0
  0
LINE
  5
55623
330
1F
100
AcDbEntity
  8
1
100
AcDbLine
 10
0.0
 20
6.350000499999991
 30
0.0
 11
0.5999899999999913
 21
5.749982999999986
 31
0.0
  0
LINE
  5
55624
330
1F
100
AcDbEntity
  8
1
100
AcDbLine
 10
59.37499800000002
 20
5.750001999999986
 30
0.0
 11
62.46382700000005
 21
0.3999929999999312
 31
0.0
  0
LINE
  5
55625
330
1F
100
AcDbEntity
  8
1
100
AcDbLine
 10
59.37499500000007
 20
-5.750008000000034
 30
0.0
 11
62.46381700000001
 21
-0.4000120000000109
 31
0.0
  0
LINE
  5
55626
330
1F
100
AcDbEntity
  8
1
100
AcDbLine
 10
62.40608200000004
 20
-0.5000000000000071
 30
0.0
 11
62.40608200000004
 21
0.4999999999999933
 31
0.0
  0
ARC
  5
5573D
330
1F
100
AcDbEntity
  8
nocut
100
AcDbCircle
 10
73.37099960185821
 20
0.0000000140886149
 30
0.0
 40
5.380000001200013
100
AcDbArc
 50
0.0
 51
90.0
  0
LINE
  5
5573E
330
1F
100
AcDbEntity
  8
nocut
100
AcDbLine
 10
78.75099960305823
 20
0.0000000163886702
 30
0.0
 11
-0.0000003981417649
 21
0.0000000163886256
 31
0.0
1001
ACAD
1000
RTMaterial
1005
0
  0
LINE
  5
5573F
330
1F
100
AcDbEntity
  8
nocut
100
AcDbLine
 10
67.37499960185823
 20
5.380000015288628
 30
0.0
 11
73.37099960185821
 21
5.380000015288628
 31
0.0
1001
ACAD
1000
RTMaterial
1005
0
  0
LINE
  5
55740
330
1F
100
AcDbEntity
  8
nocut
100
AcDbLine
 10
67.37499960185823
 20
5.380000015288628
 30
0.0
 11
64.37499960185824
 21
5.750000015288637
 31
0.0
1001
ACAD
1000
RTMaterial
1005
0
  0
LINE
  5
55741
330
1F
100
AcDbEntity
  8
nocut
100
AcDbLine
 10
-0.0000003981417649
 20
6.350000516388632
 30
0.0
 11
-0.0000003981417649
 21
0.0000000163886418
 31
0.0
  0
LINE
  5
55742
330
1F
100
AcDbEntity
  8
nocut
100
AcDbLine
 10
64.37499160185827
 20
5.750000016388638
 30
0.0
 11
0.5999899999999913
 21
5.750000016388638
 31
0.0
  0
LINE
  5
55743
330
1F
100
AcDbEntity
  8
nocut
100
AcDbLine
 10
-0.0000003981417649
 20
6.350000516388632
 30
0.0
 11
0.5999896018582263
 21
5.749983016388625
 31
0.0
  0
DIMENSION
  5
55ED8
330
1F
100
AcDbEntity
  8
2
100
AcDbDimension
  2
*D11
 10
98.29437666103087
 20
-6.000000000000005
 30
0.0
 11
98.29437666103087
 21
-28.71666666666667
 31
0.0
 70
   160
  1
%%c<>
 71
     5
 42
11.99999999999998
  3
\M+18352\M+18373\M+1815B - ISO-25
100
AcDbAlignedDimension
 13
76.63951091538144
 23
5.999999999999986
 33
0.0
 14
73.37500299999994
 24
-5.999999999999997
 34
0.0
 50
270.0
100
AcDbRotatedDimension
1001
ACAD
1000
DSTYLE
1002
{
1070
    76
1070
     1
1070
   344
1005
50E6F
1070
     4
1000
%%c[]"
1070
    40
1040
1.0
1070
    75
1070
     0
1070
   143
1040
0.03937
1070
   170
1070
     1
1070
   171
1070
     3
1070
   173
1070
     1
1070
   271
1070
     8
1070
   285
1070
     4
1070
   343
1005
0
1002
}
  0
SPLINE
  5
55ED9
330
1F
100
AcDbEntity
  8
1
100
AcDbSpline
210
0.0
220
0.0
230
1.0
 70
     8
 71
     3
 72
    71
 73
    67
 74
    65
 42
0.0000000001
 43
0.0000000001
 44
0.000001
 12
0.9617884745617532
 22
0.2737935905023637
 32
0.0
 13
0.9362140704887197
 23
0.3514302408998726
 33
0.0
 40
0.0
 40
0.0
 40
0.0
 40
0.0
 40
0.0044800750730225
 40
0.0089325687129657
 40
0.0133385956111292
 40
0.0176999204613802
 40
0.0220188328173413
 40
0.0262971843848909
 40
0.0305373178888254
 40
0.034741764982056
 40
0.0389124845776863
 40
0.0430509383735743
 40
0.0471588154169643
 40
0.0512387617015144
 40
0.0552924131147503
 40
0.0593208181043446
 40
0.0633253591931338
 40
0.0673083894065887
 40
0.0712717534627478
 40
0.0752174365831119
 40
0.079147342828462
 40
0.0830625611290252
 40
0.0869647282843199
 40
0.0908556693288536
 40
0.0947373462704643
 40
0.098611383035533
 40
0.1024793199790379
 40
0.1063429832750893
 40
0.1102041766751737
 40
0.1140643432858635
 40
0.11792409604987
 40
0.1217835571795429
 40
0.1256415104746324
 40
0.1294957117028277
 40
0.133345396944394
 40
0.1371907515011285
 40
0.1410315539264959
 40
0.1448685919698102
 40
0.1487034226775907
 40
0.1525370213603659
 40
0.1563708562649071
 40
0.1602068969564409
 40
0.1640469508393871
 40
0.1678927226911874
 40
0.1717456541108042
 40
0.1756071660070089
 40
0.179478523014353
 40
0.1833616034241544
 40
0.1872589290275042
 40
0.1911727155818262
 40
0.1951039375020521
 40
0.1990526140220795
 40
0.2030192285153504
 40
0.2070056634963353
 40
0.2110144248257745
 40
0.2150477044842174
 40
0.2191075065219418
 40
0.2231954082467057
 40
0.2273134799447629
 40
0.231462745586632
 40
0.2356446783503195
 40
0.2398614870197965
 40
0.2441148784632754
 40
0.2484063618578964
 40
0.252738308912516
 40
0.257112364880025
 40
0.257112364880025
 40
0.257112364880025
 40
0.257112364880025
 10
77.17126107289988
 20
-5.757428891599997
 30
0.0
 10
77.17269736775668
 20
-5.757020019653342
 30
0.0
 10
77.17556042209659
 20
-5.756202356779437
 30
0.0
 10
77.1798336241671
 20
-5.75497416987475
 30
0.0
 10
77.18406675310328
 20
-5.753749876524822
 30
0.0
 10
77.18825511799396
 20
-5.752531095125467
 30
0.0
 10
77.19240067230709
 20
-5.751317533600568
 30
0.0
 10
77.19650553255258
 20
-5.750108769171802
 30
0.0
 10
77.20057200067853
 20
-5.7489047176962
 30
0.0
 10
77.20460220580804
 20
-5.747704581340247
 30
0.0
 10
77.20859812257211
 20
-5.746508074491369
 30
0.0
 10
77.21256141833811
 20
-5.745314860542174
 30
0.0
 10
77.21649398590987
 20
-5.744124555841614
 30
0.0
 10
77.22039776746711
 20
-5.742936737340262
 30
0.0
 10
77.22427449833034
 20
-5.741751034023814
 30
0.0
 10
77.2281255079306
 20
-5.740567186132407
 30
0.0
 10
77.23195235197578
 20
-5.739384854966796
 30
0.0
 10
77.23575683684166
 20
-5.738203612595867
 30
0.0
 10
77.23954095738577
 20
-5.73702295933668
 30
0.0
 10
77.2433065623413
 20
-5.735842428450677
 30
0.0
 10
77.24705525711894
 20
-5.734661618140564
 30
0.0
 10
77.25078853364985
 20
-5.733480151932946
 30
0.0
 10
77.25450785644932
 20
-5.732297653123263
 30
0.0
 10
77.2582149648004
 20
-5.731113647884002
 30
0.0
 10
77.261911590989
 20
-5.729927653822199
 30
0.0
 10
77.26559937407782
 20
-5.728739207919772
 30
0.0
 10
77.26927990774666
 20
-5.727547853333811
 30
0.0
 10
77.27295483978323
 20
-5.72635310518548
 30
0.0
 10
77.27662578481463
 20
-5.725154480957748
 30
0.0
 10
77.28029397043115
 20
-5.723951615262965
 30
0.0
 10
77.283960090298
 20
-5.722744312971753
 30
0.0
 10
77.28762399543914
 20
-5.721532653788482
 30
0.0
 10
77.29128463359288
 20
-5.720317018961283
 30
0.0
 10
77.29494067443789
 20
-5.719097889286045
 30
0.0
 10
77.29859123287295
 20
-5.717875603499219
 30
0.0
 10
77.30223606435123
 20
-5.716650289353999
 30
0.0
 10
77.3058754147965
 20
-5.715421909974937
 30
0.0
 10
77.30950996276402
 20
-5.714190280037073
 30
0.0
 10
77.31314076344045
 20
-5.712955082281276
 30
0.0
 10
77.31676908498176
 20
-5.711715920790815
 30
0.0
 10
77.32039632364821
 20
-5.710472348945762
 30
0.0
 10
77.3240241359789
 20
-5.709223823760126
 30
0.0
 10
77.32765425019826
 20
-5.707969767999996
 30
0.0
 10
77.33128822577694
 20
-5.706709654706255
 30
0.0
 10
77.33492749825351
 20
-5.705442992579696
 30
0.0
 10
77.33857336242559
 20
-5.704169332148897
 30
0.0
 10
77.34222724863653
 20
-5.702888170468527
 30
0.0
 10
77.34589093119751
 20
-5.701598876473418
 30
0.0
 10
77.34956648058934
 20
-5.700300705596939
 30
0.0
 10
77.35325568015728
 20
-5.69899300500639
 30
0.0
 10
77.35695952461066
 20
-5.697675393895801
 30
0.0
 10
77.3606784638034
 20
-5.696347682848138
 30
0.0
 10
77.36441323194124
 20
-5.695009578719663
 30
0.0
 10
77.36816534222214
 20
-5.693660505225035
 30
0.0
 10
77.37193684110369
 20
-5.692299686014874
 30
0.0
 10
77.37572980976793
 20
-5.690926321779704
 30
0.0
 10
77.37954603638326
 20
-5.689539713249684
 30
0.0
 10
77.3833872651262
 20
-5.688139159207283
 30
0.0
 10
77.38725494299416
 20
-5.686724096996593
 30
0.0
 10
77.39115043636457
 20
-5.685293845747456
 30
0.0
 10
77.39507534185435
 20
-5.683848216534207
 30
0.0
 10
77.39903114551046
 20
-5.682386060835272
 30
0.0
 10
77.40301955463562
 20
-5.680906798012699
 30
0.0
 10
77.40704226714561
 20
-5.679409664833909
 30
0.0
 10
77.41110097447905
 20
-5.677893940812927
 30
0.0
 10
77.41381844121922
 20
-5.676875614447457
 30
0.0
 10
77.41518345879985
 20
-5.6763632226
 30
0.0
 11
77.17126107289988
 21
-5.757428891599997
 31
0.0
 11
77.17556894929981
 21
-5.756198644699963
 31
0.0
 11
77.1798482929999
 21
-5.754968780299972
 31
0.0
 11
77.18408099669983
 21
-5.753744734299996
 31
0.0
 11
77.18826881109982
 21
-5.752526272899983
 31
0.0
 11
77.19241398749983
 21
-5.751312998800014
 31
0.0
 11
77.19651832669985
 21
-5.750104628399978
 31
0.0
 11
77.20058397039981
 21
-5.748900760899997
 31
0.0
 11
77.20461355549986
 21
-5.747700829799978
 31
0.0
 11
77.20860900509984
 21
-5.746504462799973
 31
0.0
 11
77.21257176259979
 21
-5.745311416899991
 31
0.0
 11
77.21650348619988
 21
-5.744121372299983
 31
0.0
 11
77.22040674629983
 21
-5.742933717799981
 31
0.0
 11
77.22428314299992
 21
-5.7417481219
 31
0.0
 11
77.22813371209992
 21
-5.740564414799988
 31
0.0
 11
77.23195980669976
 21
-5.739382320599983
 31
0.0
 11
77.23576370419988
 21
-5.738201265999974
 31
0.0
 11
77.23954719289991
 21
-5.737020815299981
 31
0.0
 11
77.24331219209983
 21
-5.735840479799945
 31
0.0
 11
77.24706054049983
 21
-5.734659783999998
 31
0.0
 11
77.2507932966999
 21
-5.733478487899985
 31
0.0
 11
77.25451203959988
 21
-5.732296178899983
 31
0.0
 11
77.25821852479981
 21
-5.731112378099962
 31
0.0
 11
77.26191463539982
 21
-5.729926554799986
 31
0.0
 11
77.26560192969992
 21
-5.728738271899996
 31
0.0
 11
77.26928188409982
 21
-5.727547110099973
 31
0.0
 11
77.27295624429991
 21
-5.726352553299987
 31
0.0
 11
77.2766267319999
 21
-5.725154083699973
 31
0.0
 11
77.28029472349982
 21
-5.723951287099963
 31
0.0
 11
77.2839608046998
 21
-5.722744002899982
 31
0.0
 11
77.28762509479982
 21
-5.721532221799972
 31
0.0
 11
77.29128644299982
 21
-5.720316356599992
 31
0.0
 11
77.29494272549988
 21
-5.719097151699996
 31
0.0
 11
77.29859322549981
 21
-5.717874890899961
 31
0.0
 11
77.30223812709988
 21
-5.716649558600008
 31
0.0
 11
77.30587722889987
 21
-5.715421268499992
 31
0.0
 11
77.30951128549993
 21
-5.714189810499986
 31
0.0
 11
77.31314177859991
 21
-5.71295472279999
 31
0.0
 11
77.3167696371998
 21
-5.711715724799998
 31
0.0
 11
77.32039625509987
 21
-5.710472371299997
 31
0.0
 11
77.32402349799992
 21
-5.709224047499986
 31
0.0
 11
77.32765307539984
 21
-5.707970182699964
 31
0.0
 11
77.33128659729988
 21
-5.706710232299995
 31
0.0
 11
77.33492542279981
 21
-5.705443731299962
 31
0.0
 11
77.33857088939982
 21
-5.704170215399981
 31
0.0
 11
77.34222418519988
 21
-5.702889266399947
 31
0.0
 11
77.34588707529981
 21
-5.701600256999991
 31
0.0
 11
77.34956192879993
 21
-5.700302337699977
 31
0.0
 11
77.35325082279979
 21
-5.698994751199959
 31
0.0
 11
77.35695466189992
 21
-5.697677147899978
 31
0.0
 11
77.36067345009979
 21
-5.696349496599991
 31
0.0
 11
77.36440762839976
 21
-5.695011609700001
 31
0.0
 11
77.36815895369983
 21
-5.693662824299961
 31
0.0
 11
77.37192976649982
 21
-5.692302258299973
 31
0.0
 11
77.3757221086999
 21
-5.690929126900013
 31
0.0
 11
77.37953784259985
 21
-5.689542701499986
 31
0.0
 11
77.38337842689981
 21
-5.68814239239998
 31
0.0
 11
77.38724578109992
 21
-5.686727434599984
 31
0.0
 11
77.39114083399984
 21
-5.685297418499996
 31
0.0
 11
77.39506478179982
 21
-5.683851832500008
 31
0.0
 11
77.39901985069986
 21
-5.682389778399963
 31
0.0
 11
77.40300761329985
 21
-5.680910590899995
 31
0.0
 11
77.40702945499975
 21
-5.679413667799988
 31
0.0
 11
77.41108756729983
 21
-5.677898099299963
 31
0.0
 11
77.41518345879985
 21
-5.6763632226
 31
0.0
  0
SPLINE
  5
55EDA
330
1F
100
AcDbEntity
  8
1
100
AcDbSpline
210
0.0
220
0.0
230
1.0
 70
     8
 71
     3
 72
    22
 73
    18
 74
    16
 42
0.0000000001
 43
0.0000000001
 44
0.000001
 12
0.0559714537861895
 22
0.9984323694477563
 32
0.0
 13
0.0608291190676251
 23
0.9981481945450067
 33
0.0
 40
0.0
 40
0.0
 40
0.0
 40
0.0
 40
0.0268166277439843
 40
0.0551691670068539
 40
0.0848750831786301
 40
0.1149711447063763
 40
0.144808684835764
 40
0.1745727128649392
 40
0.2043852693574403
 40
0.2341706041839987
 40
0.2639595293724239
 40
0.2938954309220904
 40
0.3240301460957921
 40
0.3543127927122518
 40
0.3843493617749245
 40
0.4137192533091762
 40
0.4428177825256253
 40
0.4428177825256253
 40
0.4428177825256253
 40
0.4428177825256253
 10
79.26836401599991
 20
0.3279712223000379
 30
0.0
 10
79.26886433788007
 20
0.3368960853597128
 30
0.0
 10
79.2698999770273
 20
0.3552566263063397
 30
0.0
 10
79.27152448255649
 20
0.3835016468990105
 30
0.0
 10
79.27323049369471
 20
0.4128369215825084
 30
0.0
 10
79.27497703411416
 20
0.4426656729638432
 30
0.0
 10
79.27672520955093
 20
0.4725137320429674
 30
0.0
 10
79.2784660763528
 20
0.5022675556120366
 30
0.0
 10
79.28020422944763
 20
0.5320041063601583
 30
0.0
 10
79.28194040794955
 20
0.5617490856637831
 30
0.0
 10
79.2836770022451
 20
0.5915352255849042
 30
0.0
 10
79.28542135269757
 20
0.6214375712163478
 30
0.0
 10
79.28717899864856
 20
0.651503994639776
 30
0.0
 10
79.28894478408924
 20
0.6816035552159699
 30
0.0
 10
79.29070825791985
 20
0.7114478695860321
 30
0.0
 10
79.29246542285212
 20
0.7408971598498449
 30
0.0
 10
79.29364492586708
 20
0.7603509117662675
 30
0.0
 10
79.29423493849987
 20
0.7700324599000388
 30
0.0
 11
79.26836401599991
 21
0.3279712223000379
 31
0.0
 11
79.26987693869985
 21
0.3547451383000058
 31
0.0
 11
79.27150252029986
 21
0.3830510376999874
 31
0.0
 11
79.27322588269982
 21
0.412706921700009
 31
0.0
 11
79.2749831541999
 21
0.4427516367000115
 31
0.0
 11
79.27672734269987
 21
0.4725381537000024
 31
0.0
 11
79.27846584739978
 21
0.5022513654999889
 31
0.0
 11
79.28020534699982
 21
0.5320131304999782
 31
0.0
 11
79.28194100709976
 21
0.5617478517000214
 31
0.0
 11
79.28367531069985
 21
0.5914862485000063
 31
0.0
 11
79.28541910439986
 21
0.6213713179000015
 31
0.0
 11
79.28717814629982
 21
0.6514546490999911
 31
0.0
 11
79.28895272509982
 21
0.6816852550999946
 31
0.0
 11
79.29072527689988
 21
0.7116694763000046
 31
0.0
 11
79.29247652199984
 21
0.740987110000008
 31
0.0
 11
79.29423493849987
 21
0.7700324599000388
 31
0.0
  0
SPLINE
  5
55EDB
330
1F
100
AcDbEntity
  8
1
100
AcDbSpline
210
0.0
220
0.0
230
1.0
 70
     8
 71
     3
 72
    23
 73
    19
 74
    17
 42
0.0000000001
 43
0.0000000001
 44
0.000001
 12
0.0541105523918324
 22
0.9985349508754568
 32
0.0
 13
0.0592824401113983
 23
0.998241249545639
 33
0.0
 40
0.0
 40
0.0
 40
0.0
 40
0.0
 40
0.0230890004885022
 40
0.0486423287925828
 40
0.0766366356535031
 40
0.1063285868174898
 40
0.1361713162147215
 40
0.1655437689494264
 40
0.1947255475075311
 40
0.2238910269434784
 40
0.2531308364542778
 40
0.2823077395166221
 40
0.3111751632148032
 40
0.3395781279509019
 40
0.3673625898519261
 40
0.3940344971485968
 40
0.4189706421410825
 40
0.4422274524459884
 40
0.4422274524459884
 40
0.4422274524459884
 40
0.4422274524459884
 10
79.29423493849987
 20
0.7700324599000388
 30
0.0
 10
79.29465139135675
 20
0.7777175178895554
 30
0.0
 10
79.29553256539083
 20
0.7939076670478058
 30
0.0
 10
79.29694197352953
 20
0.8194143050686204
 30
0.0
 10
79.29849222189972
 20
0.8471174949125217
 30
0.0
 10
79.30014553591167
 20
0.8762469457712285
 30
0.0
 10
79.30184407124333
 20
0.9058339432119256
 30
0.0
 10
79.30354254188774
 20
0.9352506041557735
 30
0.0
 10
79.30522943796072
 20
0.9644418073857657
 30
0.0
 10
79.30690665986839
 20
0.9935892809799032
 30
0.0
 10
79.30857514160854
 20
1.022735628383327
 30
0.0
 10
79.31022861617321
 20
1.051783319013675
 30
0.0
 10
79.31185505879901
 20
1.080553146418361
 30
0.0
 10
79.31344725154699
 20
1.10886002003261
 30
0.0
 10
79.3150032971038
 20
1.136435931431257
 30
0.0
 10
79.31650894200737
 20
1.162857239323682
 30
0.0
 10
79.31795032465993
 20
1.187770536842276
 30
0.0
 10
79.31889666571183
 20
1.203806959906932
 30
0.0
 10
79.31935623919986
 20
1.211545595700004
 30
0.0
 11
79.29423493849987
 21
0.7700324599000388
 31
0.0
 11
79.29549194009981
 21
0.7930872182000022
 31
0.0
 11
79.29690092349989
 21
0.8186016716000088
 31
0.0
 11
79.29846520129984
 21
0.8465522392000243
 31
0.0
 11
79.30014688259992
 21
0.8761965285000192
 31
0.0
 11
79.3018557013998
 21
0.9059902932000218
 31
0.0
 11
79.30354744549987
 21
0.9353139860999863
 31
0.0
 11
79.30522956279988
 21
0.9644472431999863
 31
0.0
 11
79.30690479699984
 21
0.9935645708999791
 31
0.0
 11
79.30857577409989
 21
1.022756595300039
 31
0.0
 11
79.3102335805998
 21
1.051886362600002
 31
0.0
 11
79.3118634180999
 21
1.080707739599987
 31
0.0
 11
79.31346068609986
 21
1.109065756600004
 31
0.0
 11
79.31502781399986
 21
1.1368059876
 31
0.0
 11
79.31654683589982
 21
1.16343460360001
 31
0.0
 11
79.31798860189982
 21
1.18832903299999
 31
0.0
 11
79.31935623919986
 21
1.211545595700004
 31
0.0
  0
SPLINE
  5
55EDC
330
1F
100
AcDbEntity
  8
1
100
AcDbSpline
210
0.0
220
0.0
230
1.0
 70
     8
 71
     3
 72
    19
 73
    15
 74
    13
 42
0.0000000001
 43
0.0000000001
 44
0.000001
 12
0.0510398460869759
 22
0.9986966176529376
 32
0.0
 13
0.0565567434658943
 23
0.998399386402322
 33
0.0
 40
0.0
 40
0.0
 40
0.0
 40
0.0
 40
0.0510719787853454
 40
0.1004149413530474
 40
0.1471317357825957
 40
0.1907901169028892
 40
0.2309880162080863
 40
0.2669820152249187
 40
0.2990014063170698
 40
0.3279026987514536
 40
0.3544837093717913
 40
0.3789903820457724
 40
0.4011435152572235
 40
0.4209000947521412
 40
0.4209000947521412
 40
0.4209000947521412
 40
0.4209000947521412
 10
79.3386225686998
 20
1.552782422199969
 30
0.0
 10
79.33949147067867
 20
1.569784226356557
 30
0.0
 10
79.34121450714584
 20
1.603211499496722
 30
0.0
 10
79.34377503739483
 20
1.652188528694441
 30
0.0
 10
79.34624080271098
 20
1.698695924975527
 30
0.0
 10
79.34857184167109
 20
1.742157819265187
 30
0.0
 10
79.35073726302857
 20
1.782049185879782
 30
0.0
 10
79.35271748420027
 20
1.818065222259568
 30
0.0
 10
79.35451469213333
 20
1.850320087958327
 30
0.0
 10
79.35615026033332
 20
1.879441425988744
 30
0.0
 10
79.35765198447313
 20
1.906062094041608
 30
0.0
 10
79.35902335592209
 20
1.930437152448128
 30
0.0
 10
79.36026674868938
 20
1.952541003572184
 30
0.0
 10
79.36105642986709
 20
1.966488570884993
 30
0.0
 10
79.36142888579985
 20
1.973063556500038
 30
0.0
 11
79.3386225686998
 21
1.552782422199969
 31
0.0
 11
79.34124951049984
 21
1.603786802800003
 31
0.0
 11
79.34382595609992
 21
1.653062454699993
 31
0.0
 11
79.34629871159978
 21
1.69971376049999
 31
0.0
 11
79.34863751599988
 21
1.743309450700041
 31
0.0
 11
79.35081713679989
 21
1.783448214399968
 31
0.0
 11
79.35279387969984
 21
1.819387892499991
 31
0.0
 11
79.3545740007998
 21
1.851357762700005
 31
0.0
 11
79.35619387129992
 21
1.880213624800021
 31
0.0
 11
79.35768923919984
 21
1.906752548900003
 31
0.0
 11
79.35906838429986
 21
1.93122037549999
 31
0.0
 11
79.36031369039989
 21
1.953338478600004
 31
0.0
 11
79.36142888579985
 21
1.973063556500038
 31
0.0
  0
SPLINE
  5
55EDD
330
1F
100
AcDbEntity
  8
1
100
AcDbSpline
210
0.0
220
0.0
230
1.0
 70
     8
 71
     3
 72
    30
 73
    26
 74
    24
 42
0.0000000001
 43
0.0000000001
 44
0.000001
 12
0.0493283031565232
 22
0.99878261824468
 32
0.0
 13
0.0021003305499692
 23
0.9999977943033579
 33
0.0
 40
0.0
 40
0.0
 40
0.0
 40
0.0
 40
0.0173550853094976
 40
0.033810640637951
 40
0.0499096408002116
 40
0.0659837950686581
 40
0.082105437367572
 40
0.09814798243334
 40
0.1140500686365539
 40
0.1305372672707223
 40
0.1488027020398053
 40
0.169918675968086
 40
0.1940815468685597
 40
0.2200009331082708
 40
0.2462297063651687
 40
0.2711193331429873
 40
0.2930880645409078
 40
0.3120100555790152
 40
0.3289504541377559
 40
0.3450275060148434
 40
0.3611805547649576
 40
0.3774478723880103
 40
0.3936480564817813
 40
0.4097492541819433
 40
0.4258086573607924
 40
0.4258086573607924
 40
0.4258086573607924
 40
0.4258086573607924
 10
79.36142888579985
 20
1.973063556500038
 30
0.0
 10
79.36171425143633
 20
1.978841542348464
 30
0.0
 10
79.36227335831834
 20
1.9900978800311
 30
0.0
 10
79.3631126182168
 20
2.006713246749721
 30
0.0
 10
79.36394589533549
 20
2.022901387305826
 30
0.0
 10
79.36479240180912
 20
2.038977386722727
 30
0.0
 10
79.36566247221941
 20
2.055033281855807
 30
0.0
 10
79.36654581276283
 20
2.071031004586956
 30
0.0
 10
79.36743689177115
 20
2.087150337037592
 30
0.0
 10
79.36835568420628
 20
2.104010231280212
 30
0.0
 10
79.36933505828449
 20
2.122607345886756
 30
0.0
 10
79.37038098103292
 20
2.143762996339495
 30
0.0
 10
79.37142234245806
 20
2.167473051416741
 30
0.0
 10
79.37236394550298
 20
2.192892824550594
 30
0.0
 10
79.37315301801584
 20
2.218560114937931
 30
0.0
 10
79.37376340148315
 20
2.242914958372862
 30
0.0
 10
79.37420927317962
 20
2.264837272193345
 30
0.0
 10
79.37452841841778
 20
2.28411170636625
 30
0.0
 10
79.37476206835093
 20
2.30142329894594
 30
0.0
 10
79.37494044175847
 20
2.317812511020206
 30
0.0
 10
79.37507813039755
 20
2.333977744630946
 30
0.0
 10
79.37518076087482
 20
2.350184281876249
 30
0.0
 10
79.37525038504934
 20
2.366373708803182
 30
0.0
 10
79.37529349047503
 20
2.382493914772891
 30
0.0
 10
79.37532121294818
 20
2.393214079414466
 30
0.0
 10
79.37533245629987
 20
2.398567202000025
 30
0.0
 11
79.36142888579985
 21
1.973063556500038
 31
0.0
 11
79.36229171849987
 21
1.990397170199985
 31
0.0
 11
79.36312227319985
 21
2.006831753599997
 31
0.0
 11
79.36395048059984
 21
2.022909437899999
 31
0.0
 11
79.36479665279986
 21
2.038961306100008
 31
0.0
 11
79.36566765009985
 21
2.055059403800003
 31
0.0
 11
79.36654956239983
 21
2.071077690600008
 31
0.0
 11
79.36742509299989
 21
2.086955657100008
 31
0.0
 11
79.36831966999983
 21
2.103418569500024
 31
0.0
 11
79.36927702079987
 21
2.121658899400004
 31
0.0
 11
79.37031377309989
 21
2.142749408499997
 31
0.0
 11
79.37137098659985
 21
2.166889142100005
 31
0.0
 11
79.37233412019992
 21
2.192790630200009
 31
0.0
 11
79.37314228169983
 21
2.219006952500011
 31
0.0
 11
79.37376799509985
 21
2.243888715400019
 31
0.0
 11
79.37421605689981
 21
2.265852879300001
 31
0.0
 11
79.37453016929982
 21
2.284772264899986
 31
0.0
 11
79.37475938239987
 21
2.301711114500009
 31
0.0
 11
79.37493484169985
 21
2.317787210700019
 31
0.0
 11
79.37507294459982
 21
2.333939671000039
 31
0.0
 11
79.37517638169987
 21
2.350206661799989
 31
0.0
 11
79.37524712139981
 21
2.366406693200006
 31
0.0
 11
79.37529429099988
 21
2.382507821900008
 31
0.0
 11
79.37533245629987
 21
2.398567202000025
 31
0.0
  0
SPLINE
  5
55EDE
330
1F
100
AcDbEntity
  8
1
100
AcDbSpline
210
0.0
220
0.0
230
1.0
 70
     8
 71
     3
 72
    21
 73
    17
 74
    15
 42
0.0000000001
 43
0.0000000001
 44
0.000001
 12
-0.0037379819220891
 22
0.9999930137211709
 32
0.0
 13
0.0013695431392808
 23
0.9999990621753552
 33
0.0
 40
0.0
 40
0.0
 40
0.0
 40
0.0
 40
0.0149826634197583
 40
0.029946467803829
 40
0.0449319451001069
 40
0.0601060426138985
 40
0.0758193209703505
 40
0.0925123343930255
 40
0.1106196823586619
 40
0.1305405063960813
 40
0.1526059388519604
 40
0.1771261533973325
 40
0.2044141737212646
 40
0.2347830977845567
 40
0.2684959493446804
 40
0.3056400063750286
 40
0.3056400063750286
 40
0.3056400063750286
 40
0.3056400063750286
 10
79.37533245629987
 20
2.398567202000025
 30
0.0
 10
79.37531378799154
 20
2.403561388248923
 30
0.0
 10
79.37527794227716
 20
2.413543480736494
 30
0.0
 10
79.37523683476936
 20
2.42852074055341
 30
0.0
 10
79.37520141493457
 20
2.443561825327056
 30
0.0
 10
79.37516937753358
 20
2.458852742924784
 30
0.0
 10
79.37513715995357
 20
2.47471283996454
 30
0.0
 10
79.37510542022971
 20
2.49155069005949
 30
0.0
 10
79.37507508920162
 20
2.50979106020898
 30
0.0
 10
79.37504807498166
 20
2.529822243834793
 30
0.0
 10
79.37502522531947
 20
2.551991056104249
 30
0.0
 10
79.37500778008431
 20
2.57661560615711
 30
0.0
 10
79.37499837537571
 20
2.604007991608531
 30
0.0
 10
79.37500125122588
 20
2.63446459111995
 30
0.0
 10
79.37502027185468
 20
2.668206531586071
 30
0.0
 10
79.3750475558037
 20
2.691825486768077
 30
0.0
 10
79.37506451259986
 20
2.704206827499989
 30
0.0
 11
79.37533245629987
 21
2.398567202000025
 31
0.0
 11
79.37528103439984
 21
2.413549777799988
 31
0.0
 11
79.37523882599982
 21
2.428513522199994
 31
0.0
 11
79.37520320749985
 21
2.443498956900002
 31
0.0
 11
79.37517091269985
 21
2.458673019899991
 31
0.0
 11
79.37513919499981
 21
2.474386266200002
 31
0.0
 11
79.37510790189986
 21
2.49107925029999
 31
0.0
 11
79.37507799749988
 21
2.509186573599991
 31
0.0
 11
79.37505104059988
 21
2.529107379400003
 31
0.0
 11
79.37502819139985
 21
2.551172800000004
 31
0.0
 11
79.37501084609988
 21
2.575693008399996
 31
0.0
 11
79.37500161249984
 21
2.60298102719999
 31
0.0
 11
79.37500439729984
 21
2.633349951200004
 31
0.0
 11
79.37502378949983
 21
2.667062797100002
 31
0.0
 11
79.37506451259986
 21
2.704206827499989
 31
0.0
  0
SPLINE
  5
55EDF
330
1F
100
AcDbEntity
  8
1
100
AcDbSpline
210
0.0
220
0.0
230
1.0
 70
     8
 71
     3
 72
    36
 73
    32
 74
    30
 42
0.0000000001
 43
0.0000000001
 44
0.000001
 12
-0.9996520991020492
 22
0.0263757608585401
 32
0.0
 13
-0.9999472907375428
 23
0.0102672170838913
 33
0.0
 40
0.0
 40
0.0
 40
0.0
 40
0.0
 40
0.0158507411263132
 40
0.0296376430516282
 40
0.0416572971635896
 40
0.0522485689310078
 40
0.061816325679168
 40
0.0707860572642533
 40
0.0795805537046859
 40
0.0883863567414757
 40
0.0971697970852106
 40
0.1059648539047883
 40
0.1148616028971858
 40
0.1238485723827019
 40
0.1328519221937788
 40
0.1418118751405033
 40
0.1507366323936385
 40
0.1598430614810546
 40
0.1692974854695593
 40
0.1786671184481069
 40
0.1873247388595738
 40
0.1952690497849863
 40
0.2029699660645015
 40
0.210937190937647
 40
0.219717617104748
 40
0.2295217488561254
 40
0.2398338238783024
 40
0.2500577229381546
 40
0.2601918417158226
 40
0.270405323451754
 40
0.2807461282122762
 40
0.2807461282122762
 40
0.2807461282122762
 40
0.2807461282122762
 10
75.38378144929987
 20
5.920851848099987
 30
0.0
 10
75.37849970708681
 20
5.920991206552447
 30
0.0
 10
75.36862396456863
 20
5.921253097747593
 30
0.0
 10
75.35474300843765
 20
5.921618539156351
 30
0.0
 10
75.34261461026443
 20
5.921938172242976
 30
0.0
 10
75.33189208856089
 20
5.922220104496389
 30
0.0
 10
75.32218584071621
 20
5.922474715593262
 30
0.0
 10
75.31307829326784
 20
5.922712905197568
 30
0.0
 10
75.30422462333056
 20
5.92294367944821
 30
0.0
 10
75.29543300462624
 20
5.923171883665327
 30
0.0
 10
75.28664118014109
 20
5.923399357136547
 30
0.0
 10
75.27781904586487
 20
5.923627436119828
 30
0.0
 10
75.26892909904622
 20
5.923857571844376
 30
0.0
 10
75.25996976616986
 20
5.924090341433022
 30
0.0
 10
75.25098940995682
 20
5.924325099308147
 30
0.0
 10
75.24202983629135
 20
5.924561308146817
 30
0.0
 10
75.23303599527743
 20
5.924801454625518
 30
0.0
 10
75.22387742535724
 20
5.925047341724574
 30
0.0
 10
75.21457057521456
 20
5.925295655594652
 30
0.0
 10
75.20541316513223
 20
5.925535849462134
 30
0.0
 10
75.19675881099681
 20
5.925757370689661
 30
0.0
 10
75.18866037446419
 20
5.925959147613363
 30
0.0
 10
75.18079186684215
 20
5.926149837339909
 30
0.0
 10
75.1726446045219
 20
5.926341786253923
 30
0.0
 10
75.16379629039476
 20
5.926542733551957
 30
0.0
 10
75.15416632204932
 20
5.926750697354045
 30
0.0
 10
75.14405500404507
 20
5.926954553532098
 30
0.0
 10
75.13383336813726
 20
5.927142887696007
 30
0.0
 10
75.12364420904058
 20
5.927308717073034
 30
0.0
 10
75.11341571879554
 20
5.927450973065147
 30
0.0
 10
75.10656471683458
 20
5.927528144370903
 30
0.0
 10
75.10311796359982
 20
5.927563534800002
 30
0.0
 11
75.38378144929987
 21
5.920851848099987
 31
0.0
 11
75.36793623009981
 21
5.921269793399987
 31
0.0
 11
75.35415411619982
 21
5.921633109500007
 31
0.0
 11
75.34213862929988
 21
5.9219495869
 31
0.0
 11
75.33155101639983
 21
5.922227957599987
 31
0.0
 11
75.32198654879988
 21
5.922478813599996
 31
0.0
 11
75.31301988269984
 21
5.922713300300004
 31
0.0
 11
75.30422837139991
 21
5.922942422800021
 31
0.0
 11
75.29542553429981
 21
5.923170954300005
 31
0.0
 11
75.28664503479984
 21
5.923398227499988
 31
0.0
 11
75.27785291779986
 21
5.923625609899986
 31
0.0
 11
75.26895915069982
 21
5.923855931500003
 31
0.0
 11
75.25997521549976
 21
5.924089439800001
 31
0.0
 11
75.25097494309983
 21
5.924324811900008
 31
0.0
 11
75.24201810729988
 21
5.924561121700023
 31
0.0
 11
75.23309652279984
 21
5.924799053900003
 31
0.0
 11
75.22399336199981
 21
5.92504298020002
 31
0.0
 11
75.21454229039983
 21
5.92529469589998
 31
0.0
 11
75.20517587129979
 21
5.9255400462
 31
0.0
 11
75.19652108279984
 21
5.925761430999998
 31
0.0
 11
75.18857923609977
 21
5.9259592536
 31
0.0
 11
75.18088058129984
 21
5.926145836299996
 31
0.0
 11
75.17291556379979
 21
5.926333329100018
 31
0.0
 11
75.16413739679984
 21
5.926532445700005
 31
0.0
 11
75.15433554409987
 21
5.926743758799986
 31
0.0
 11
75.14402555679982
 21
5.926951150999983
 31
0.0
 11
75.13380338199984
 21
5.927138760999996
 31
0.0
 11
75.12367060299976
 21
5.927303305199999
 31
0.0
 11
75.11345810749986
 21
5.92744491180001
 31
0.0
 11
75.10311796359982
 21
5.927563534800002
 31
0.0
  0
SPLINE
  5
55EE0
330
1F
100
AcDbEntity
  8
1
100
AcDbSpline
210
0.0
220
0.0
230
1.0
 70
     8
 71
     3
 72
    46
 73
    42
 74
    40
 42
0.0000000001
 43
0.0000000001
 44
0.000001
 12
-0.9999537832716137
 22
0.009614120905546
 32
0.0
 13
-0.9996162514440825
 23
-0.0277010802836385
 33
0.0
 40
0.0
 40
0.0
 40
0.0
 40
0.0
 40
0.0080424362485201
 40
0.0156438665613582
 40
0.0231218226665192
 40
0.0305903094379682
 40
0.038062075351333
 40
0.0455245770863932
 40
0.0530711943084851
 40
0.0609939155223128
 40
0.0696730198105415
 40
0.0793797854500793
 40
0.0897246831293527
 40
0.0998524482314622
 40
0.1091229319200326
 40
0.1175444275046516
 40
0.1254527427789541
 40
0.1331531217853452
 40
0.1407986021061605
 40
0.1484273645429382
 40
0.156097711391607
 40
0.1638851013551708
 40
0.1718505989220418
 40
0.1798702111432154
 40
0.187484602601696
 40
0.1943939045568995
 40
0.2008002157798543
 40
0.2070667011923732
 40
0.2135138299836305
 40
0.2202087056580806
 40
0.2269437172876525
 40
0.2336123202599381
 40
0.2402506534529556
 40
0.2468926698029233
 40
0.2535544873700771
 40
0.2602259068884152
 40
0.2668954704595938
 40
0.2735901450929434
 40
0.2803012098534609
 40
0.2869345556953044
 40
0.2935326589839639
 40
0.2935326589839639
 40
0.2935326589839639
 40
0.2935326589839639
 10
75.10311796359982
 20
5.927563534800002
 30
0.0
 10
75.10043727541535
 20
5.927589308451492
 30
0.0
 10
75.09522283645359
 20
5.927633427464632
 30
0.0
 10
75.08751575225213
 20
5.927687889018304
 30
0.0
 10
75.07999990035543
 20
5.927728415286984
 30
0.0
 10
75.07252721936035
 20
5.927757773897067
 30
0.0
 10
75.06505965547851
 20
5.927776490213768
 30
0.0
 10
75.05756602928349
 20
5.927784730692756
 30
0.0
 10
75.04992208038766
 20
5.927782400461426
 30
0.0
 10
75.04187260887332
 20
5.927768321535406
 30
0.0
 10
75.03310312241963
 20
5.927739364783775
 30
0.0
 10
75.02352631598535
 20
5.927691135504857
 30
0.0
 10
75.01346674257874
 20
5.927621192575974
 30
0.0
 10
75.00355276055685
 20
5.927531248543782
 30
0.0
 10
74.99428008807877
 20
5.927427321154089
 30
0.0
 10
74.98574739825603
 20
5.92731440411807
 30
0.0
 10
74.97773824880832
 20
5.927193107147674
 30
0.0
 10
74.96998797241139
 20
5.927061369058027
 30
0.0
 10
74.96233111479006
 20
5.926917407471298
 30
0.0
 10
74.95468449555295
 20
5.926761963437881
 30
0.0
 10
74.94699079791257
 20
5.926595339643117
 30
0.0
 10
74.93918508417767
 20
5.926417193942733
 30
0.0
 10
74.93126316906643
 20
5.926228258753495
 30
0.0
 10
74.92339907471645
 20
5.926033675998086
 30
0.0
 10
74.91588707285988
 20
5.925842437804762
 30
0.0
 10
74.90891276678872
 20
5.925660891641953
 30
0.0
 10
74.90238770350789
 20
5.925487506393941
 30
0.0
 10
74.89601672843784
 20
5.925315051619973
 30
0.0
 10
74.88954968308476
 20
5.92513696778256
 30
0.0
 10
74.88292660045157
 20
5.924951741833035
 30
0.0
 10
74.87622978918927
 20
5.924762065468378
 30
0.0
 10
74.86955186518333
 20
5.92457126176592
 30
0.0
 10
74.86290495045527
 20
5.92438052401644
 30
0.0
 10
74.8562602951311
 20
5.924189902329594
 30
0.0
 10
74.84960458823855
 20
5.923999917387729
 30
0.0
 10
74.84293965634908
 20
5.923811301282029
 30
0.0
 10
74.83626375005918
 20
5.923623310329556
 30
0.0
 10
74.82957457656514
 20
5.923436995794642
 30
0.0
 10
74.82289746040743
 20
5.92325139951723
 30
0.0
 10
74.81625252540085
 20
5.923066584417616
 30
0.0
 10
74.81184374025855
 20
5.922944214962963
 30
0.0
 10
74.80964521649986
 20
5.922883290099989
 30
0.0
 11
75.10311796359982
 21
5.927563534800002
 31
0.0
 11
75.09507576089987
 21
5.927633747400009
 31
0.0
 11
75.08747451689981
 21
5.927687039300012
 31
0.0
 11
75.07999667329984
 21
5.927727605500011
 31
0.0
 11
75.07252824779977
 21
5.927756997700003
 31
0.0
 11
75.06505650879984
 21
5.927775743600009
 31
0.0
 11
75.05759401439985
 21
5.92778396140004
 31
0.0
 11
75.05004739979978
 21
5.927781665100001
 31
0.0
 11
75.04212469259988
 21
5.927767804200002
 31
0.0
 11
75.03344563729985
 21
5.92773912670002
 31
0.0
 11
75.02373899629986
 21
5.927690203499978
 31
0.0
 11
75.01339435159986
 21
5.927617995500003
 31
0.0
 11
75.00326700569991
 21
5.927525891799988
 31
0.0
 11
74.99399710549988
 21
5.927421869500009
 31
0.0
 11
74.98557634749984
 21
5.927310373400006
 31
0.0
 11
74.97766893869976
 21
5.927190582500019
 31
0.0
 11
74.9699696702998
 21
5.927059734799983
 31
0.0
 11
74.96232553299984
 21
5.92691635499999
 31
0.0
 11
74.95469833939984
 21
5.926761560200008
 31
0.0
 11
74.94702978389984
 21
5.926595705699996
 31
0.0
 11
74.93924441439986
 21
5.926418230000011
 31
0.0
 11
74.93128117429984
 21
5.926228506100003
 31
0.0
 11
74.92326400809981
 21
5.926030354300012
 31
0.0
 11
74.91565207759987
 21
5.92583669280002
 31
0.0
 11
74.90874511389989
 21
5.925656880299968
 31
0.0
 11
74.90234106079988
 21
5.925486730700002
 31
0.0
 11
74.89607686709979
 21
5.9253171971
 31
0.0
 11
74.8896321772998
 21
5.925139786200008
 31
0.0
 11
74.88293991239976
 21
5.924952716899995
 31
0.0
 11
74.87620759259988
 21
5.924762155300003
 31
0.0
 11
74.86954169939991
 21
5.924571832799971
 31
0.0
 11
74.86290608319979
 21
5.924381563300004
 31
0.0
 11
74.8562667769998
 21
5.924191243600022
 31
0.0
 11
74.84960763889984
 21
5.924001270099993
 31
0.0
 11
74.84293883869992
 21
5.923812420299997
 31
0.0
 11
74.83627179239984
 21
5.923624834600007
 31
0.0
 11
74.82957971529987
 21
5.923437524800008
 31
0.0
 11
74.82287142549984
 21
5.923250525900003
 31
0.0
 11
74.81624074599989
 21
5.923066241300023
 31
0.0
 11
74.80964521649986
 21
5.922883290099989
 31
0.0
  0
SPLINE
  5
55EE1
330
1F
100
AcDbEntity
  8
1
100
AcDbSpline
210
0.0
220
0.0
230
1.0
 70
     8
 71
     3
 72
    55
 73
    51
 74
     0
 42
0.0000000001
 43
0.0000000001
 40
0.0
 40
0.0
 40
0.0
 40
0.0
 40
0.0049958518605036
 40
0.0099154836547118
 40
0.0147614039393308
 40
0.0195361765226469
 40
0.0242426065888578
 40
0.0288840354260519
 40
0.0334632092930215
 40
0.0379827811565301
 40
0.0424455579928228
 40
0.0468539322024359
 40
0.0512106949502919
 40
0.0555183005384531
 40
0.0597787170893352
 40
0.0639946116448138
 40
0.0681682903514762
 40
0.0723013437081981
 40
0.0763961805138019
 40
0.0804553167587664
 40
0.0844804913487799
 40
0.0884739998521764
 40
0.0924382164776191
 40
0.0963743259211866
 40
0.1002830910839866
 40
0.1041660431218799
 40
0.1080255685188839
 40
0.1118637800677523
 40
0.1156827853006501
 40
0.1194842128833436
 40
0.1232689704898801
 40
0.1270389989150002
 40
0.130796545351451
 40
0.1345422087032235
 40
0.1382735226435646
 40
0.1419876255486954
 40
0.1456821546001881
 40
0.149355986884438
 40
0.1530116447863856
 40
0.1566521524863095
 40
0.160279425273424
 40
0.163893662741968
 40
0.1674952461642928
 40
0.1710854262347053
 40
0.1746664476601297
 40
0.178239181407441
 40
0.1818045453531805
 40
0.1853641601714313
 40
0.188920363188067
 40
0.1906203458717587
 40
0.1906203458717587
 40
0.1906203458717587
 40
0.1906203458717587
 10
78.82893407409989
 20
-4.550247046099967
 30
0.0
 10
78.82985222906842
 20
-4.548857743361393
 30
0.0
 10
78.83167278426919
 20
-4.546099179157377
 30
0.0
 10
78.83437786133919
 20
-4.541988999676105
 30
0.0
 10
78.83703735525052
 20
-4.537937045660723
 30
0.0
 10
78.83965273086831
 20
-4.533941146827058
 30
0.0
 10
78.84222544832579
 20
-4.529998799026114
 30
0.0
 10
78.84475776140646
 20
-4.526107942906035
 30
0.0
 10
78.84725130934936
 20
-4.522266177356411
 30
0.0
 10
78.84970777330869
 20
-4.51847134096374
 30
0.0
 10
78.85212871839581
 20
-4.514721336923027
 30
0.0
 10
78.85451573436052
 20
-4.511014029101798
 30
0.0
 10
78.85687033337325
 20
-4.507347370749839
 30
0.0
 10
78.8591939412807
 20
-4.503719427342273
 30
0.0
 10
78.8614879522774
 20
-4.500128292816269
 30
0.0
 10
78.86375372421418
 20
-4.496572096122261
 30
0.0
 10
78.86599253754463
 20
-4.493049065807777
 30
0.0
 10
78.86820561878625
 20
-4.489557497818506
 30
0.0
 10
78.8703942230656
 20
-4.486095623119294
 30
0.0
 10
78.87255962301954
 20
-4.482661624945674
 30
0.0
 10
78.87470306304732
 20
-4.479253713096339
 30
0.0
 10
78.87682575346156
 20
-4.475870131530481
 30
0.0
 10
78.87892879840461
 20
-4.472509275473751
 30
0.0
 10
78.88101302434114
 20
-4.469169968873186
 30
0.0
 10
78.88307910380634
 20
-4.465851270688912
 30
0.0
 10
78.88512791646445
 20
-4.462551896783905
 30
0.0
 10
78.88716057249081
 20
-4.459270176350938
 30
0.0
 10
78.88917827509438
 20
-4.456004270080367
 30
0.0
 10
78.89118208660564
 20
-4.452752548440626
 30
0.0
 10
78.8931728519496
 20
-4.449513719686548
 30
0.0
 10
78.89515138065593
 20
-4.446286535477325
 30
0.0
 10
78.89711858495633
 20
-4.443069568532092
 30
0.0
 10
78.89907531569685
 20
-4.43986147462199
 30
0.0
 10
78.9010216549977
 20
-4.436662161346586
 30
0.0
 10
78.90295680163905
 20
-4.433472992200972
 30
0.0
 10
78.90487945066496
 20
-4.430296179753438
 30
0.0
 10
78.90678853899868
 20
-4.427133559469835
 30
0.0
 10
78.90868393699844
 20
-4.423985433896985
 30
0.0
 10
78.91056644004056
 20
-4.420850566410234
 30
0.0
 10
78.91243735704467
 20
-4.417726847381712
 30
0.0
 10
78.91429758962177
 20
-4.414612825684057
 30
0.0
 10
78.91614758303996
 20
-4.411507803729419
 30
0.0
 10
78.91798766665177
 20
-4.408411272701171
 30
0.0
 10
78.91981851440147
 20
-4.405322135539476
 30
0.0
 10
78.92164087825353
 20
-4.402239151658248
 30
0.0
 10
78.92345544763912
 20
-4.399161172372697
 30
0.0
 10
78.92526280120836
 20
-4.396087225164703
 30
0.0
 10
78.92706376109055
 20
-4.393015913677513
 30
0.0
 10
78.92854721140527
 20
-4.390479232745644
 30
0.0
 10
78.92943035582465
 20
-4.388966031687073
 30
0.0
 10
78.92971584812091
 20
-4.388476543427881
 30
0.0
  0
SPLINE
  5
55EE2
330
1F
100
AcDbEntity
  8
1
100
AcDbSpline
210
0.0
220
0.0
230
1.0
 70
     8
 71
     3
 72
    73
 73
    69
 74
    67
 42
0.0000000001
 43
0.0000000001
 44
0.000001
 12
0.619670405945217
 22
0.7848621458547292
 32
0.0
 13
0.5628224525657926
 23
0.8265778165955255
 33
0.0
 40
0.0
 40
0.0
 40
0.0
 40
0.0
 40
0.0049988741952235
 40
0.0099221252931416
 40
0.0147738007464643
 40
0.0195564841301165
 40
0.024272778170372
 40
0.0289260858531167
 40
0.0335191057387546
 40
0.0380541628567867
 40
0.0425341741666958
 40
0.0469613987365348
 40
0.0513391045207258
 40
0.0556695727953109
 40
0.0599546918430431
 40
0.0641968021625451
 40
0.0683990033487121
 40
0.0725627074596868
 40
0.0766891771837574
 40
0.0807801063911418
 40
0.0848382233693434
 40
0.0888656453791677
 40
0.0928650335985097
 40
0.0968385408677652
 40
0.1007887784577869
 40
0.1047168581899976
 40
0.1086236419302489
 40
0.1125110140849737
 40
0.1163814954010161
 40
0.1202365929251562
 40
0.1240778626019168
 40
0.1279074743315332
 40
0.1317249124858371
 40
0.1355287542437344
 40
0.1393177958343779
 40
0.1430910587836269
 40
0.1468458030114124
 40
0.150582077259683
 40
0.1543019322413917
 40
0.1580077865069395
 40
0.1617005819339345
 40
0.1653819633056975
 40
0.1690535888300386
 40
0.1727175785236298
 40
0.1763749902111093
 40
0.1800263035605041
 40
0.1836733976966693
 40
0.1873178602074261
 40
0.1909609566600485
 40
0.1946051174793802
 40
0.1982514999752707
 40
0.20190075021526
 40
0.2055535639639202
 40
0.2092121383527317
 40
0.2128773368142421
 40
0.2165494592333507
 40
0.2202288818271147
 40
0.22391897319142
 40
0.2276218481120011
 40
0.2313379181482534
 40
0.2350686997122942
 40
0.2388152625474618
 40
0.2425792397633229
 40
0.2463618145970962
 40
0.2501644329838783
 40
0.2539882138227832
 40
0.2578348642410682
 40
0.2617058373302786
 40
0.2617058373302786
 40
0.2617058373302786
 40
0.2617058373302786
 10
78.67388671759982
 20
-4.761012056099983
 30
0.0
 10
78.67491926906712
 20
-4.759704247057409
 30
0.0
 10
78.67696717916739
 20
-4.757107171657804
 30
0.0
 10
78.68001179502687
 20
-4.753236511126697
 30
0.0
 10
78.68300729965127
 20
-4.7494189104181
 30
0.0
 10
78.68595576790429
 20
-4.745652094090181
 30
0.0
 10
78.68885913071256
 20
-4.741933946044605
 30
0.0
 10
78.69171933061313
 20
-4.738262310059383
 30
0.0
 10
78.69453824340533
 20
-4.734635094678476
 30
0.0
 10
78.69731762946864
 20
-4.73105032342725
 30
0.0
 10
78.70005916998258
 20
-4.727506143255395
 30
0.0
 10
78.70276465353999
 20
-4.724000386411887
 30
0.0
 10
78.70543576782825
 20
-4.720531074851597
 30
0.0
 10
78.70807422195724
 20
-4.717096402440557
 30
0.0
 10
78.71068142041258
 20
-4.713694718213929
 30
0.0
 10
78.71325895429265
 20
-4.71032417033269
 30
0.0
 10
78.71580830176535
 20
-4.706983020061423
 30
0.0
 10
78.71833071731379
 20
-4.703669809613256
 30
0.0
 10
78.72082716508529
 20
-4.700383448793632
 30
0.0
 10
78.72329886970189
 20
-4.697122494033886
 30
0.0
 10
78.72574722016641
 20
-4.693885268672326
 30
0.0
 10
78.7281737925052
 20
-4.690669832999491
 30
0.0
 10
78.73058003897941
 20
-4.687474394003437
 30
0.0
 10
78.73296750261198
 20
-4.684297020696177
 30
0.0
 10
78.73533740904296
 20
-4.681136189441255
 30
0.0
 10
78.7376907191464
 20
-4.677990715788023
 30
0.0
 10
78.74002824471007
 20
-4.674859606205648
 30
0.0
 10
78.74235107363358
 20
-4.671741487089001
 30
0.0
 10
78.74466041604989
 20
-4.668634807605164
 30
0.0
 10
78.7469574104168
 20
-4.665538099971035
 30
0.0
 10
78.74924311994973
 20
-4.662449986121814
 30
0.0
 10
78.75151820171305
 20
-4.659369626125092
 30
0.0
 10
78.75378271989692
 20
-4.656296976491208
 30
0.0
 10
78.75603607363669
 20
-4.653232900507006
 30
0.0
 10
78.75827757426998
 20
-4.650178388342857
 30
0.0
 10
78.76050627781556
 20
-4.647134787367884
 30
0.0
 10
78.76272149219726
 20
-4.644103111862778
 30
0.0
 10
78.76492312444766
 20
-4.641083563219273
 30
0.0
 10
78.76711209303582
 20
-4.638074952110547
 30
0.0
 10
78.76928948566732
 20
-4.635075844081324
 30
0.0
 10
78.77145630517398
 20
-4.632084910194105
 30
0.0
 10
78.77361340052303
 20
-4.629101022949067
 30
0.0
 10
78.77576184597422
 20
-4.626122733079689
 30
0.0
 10
78.77790259501994
 20
-4.623148745410542
 30
0.0
 10
78.78003636731938
 20
-4.620178080462337
 30
0.0
 10
78.78216383171835
 20
-4.61720982110723
 30
0.0
 10
78.78428575616272
 20
-4.614242903978596
 30
0.0
 10
78.78640305608604
 20
-4.611276049126134
 30
0.0
 10
78.78851674848121
 20
-4.608307823329162
 30
0.0
 10
78.79062776113625
 20
-4.605336905945613
 30
0.0
 10
78.79273689689353
 20
-4.602362140917435
 30
0.0
 10
78.79484462050935
 20
-4.59938284133873
 30
0.0
 10
78.79695159188734
 20
-4.596398033855634
 30
0.0
 10
78.7990585166234
 20
-4.593406688736545
 30
0.0
 10
78.80116598868109
 20
-4.59040785910695
 30
0.0
 10
78.80327424159488
 20
-4.587401086951247
 30
0.0
 10
78.80538408880084
 20
-4.584385301040989
 30
0.0
 10
78.80749659644698
 20
-4.581358868506191
 30
0.0
 10
78.80961285336383
 20
-4.578320158160771
 30
0.0
 10
78.81173358309249
 20
-4.575268036887165
 30
0.0
 10
78.81385930761988
 20
-4.572201655868084
 30
0.0
 10
78.8159907758396
 20
-4.569119828289887
 30
0.0
 10
78.81812866821488
 20
-4.56602145522205
 30
0.0
 10
78.82027373094541
 20
-4.562905330930683
 30
0.0
 10
78.82242660750865
 20
-4.55977038727274
 30
0.0
 10
78.82458803478406
 20
-4.556615408599764
 30
0.0
 10
78.82675874492491
 20
-4.553439173474016
 30
0.0
 10
78.82820785057727
 20
-4.551313599594693
 30
0.0
 10
78.82893407409989
 20
-4.550247046099967
 30
0.0
 11
78.67388671759982
 21
-4.761012056099983
 31
0.0
 11
78.67698196869986
 21
-4.757086746799982
 31
0.0
 11
78.68002569399988
 21
-4.753217143799982
 31
0.0
 11
78.68302058579985
 21
-4.749400220299972
 31
0.0
 11
78.68596841809988
 21
-4.745634089399996
 31
0.0
 11
78.68887096539987
 21
-4.741916839999984
 31
0.0
 11
78.69173048279987
 21
-4.738245920699965
 31
0.0
 11
78.69454877999982
 21
-4.734619325799995
 31
0.0
 11
78.69732742709988
 21
-4.731035336199963
 31
0.0
 11
78.7000683469999
 21
-4.727491757099981
 31
0.0
 11
78.70277307659986
 21
-4.723986870399981
 31
0.0
 11
78.70544373879996
 21
-4.720518177799986
 31
0.0
 11
78.7080818035999
 21
-4.717084006999979
 31
0.0
 11
78.71068852639981
 21
-4.713682947799978
 31
0.0
 11
78.71326543039987
 21
-4.710313225299981
 31
0.0
 11
78.7158144904999
 21
-4.706972453999978
 31
0.0
 11
78.71833664919989
 21
-4.703659582999987
 31
0.0
 11
78.72083275369988
 21
-4.700373676299987
 31
0.0
 11
78.72330390719986
 21
-4.697113450699985
 31
0.0
 11
78.72575183029988
 21
-4.693876792599978
 31
0.0
 11
78.72817786669981
 21
-4.690662069299945
 31
0.0
 11
78.73058367989989
 21
-4.687467207799981
 31
0.0
 11
78.73297061919976
 21
-4.684290534599993
 31
0.0
 11
78.73534030179991
 21
-4.68113000399998
 31
0.0
 11
78.73769343839985
 21
-4.677984764499965
 31
0.0
 11
78.74003058679983
 21
-4.674854162299991
 31
0.0
 11
78.74235291239989
 21
-4.671736721
 31
0.0
 11
78.74466195379984
 21
-4.668630448599995
 31
0.0
 11
78.7469586378998
 21
-4.665534161399987
 31
0.0
 11
78.74924391589985
 21
-4.662446632799996
 31
0.0
 11
78.75151909849984
 21
-4.659366138400001
 31
0.0
 11
78.75378389689986
 21
-4.656293110899977
 31
0.0
 11
78.75603748719988
 21
-4.653228715599992
 31
0.0
 11
78.75827917969985
 21
-4.650173944499981
 31
0.0
 11
78.76050842179989
 21
-4.647129610699947
 31
0.0
 11
78.76272362559991
 21
-4.644097952499973
 31
0.0
 11
78.76492485419982
 21
-4.64107896049998
 31
0.0
 11
78.76711334759983
 21
-4.638071005699996
 31
0.0
 11
78.76929055499982
 21
-4.635072156299996
 31
0.0
 11
78.77145705209983
 21
-4.632081671099965
 31
0.0
 11
78.77361382299984
 21
-4.629098236699999
 31
0.0
 11
78.77576185439983
 21
-4.626120524999973
 31
0.0
 11
78.77790239699987
 21
-4.623146828800001
 31
0.0
 11
78.78003607559986
 21
-4.620176299199981
 31
0.0
 11
78.78216317479979
 21
-4.617208554699997
 31
0.0
 11
78.78428479119981
 21
-4.614242073999943
 31
0.0
 11
78.78640184599982
 21
-4.61127556879998
 31
0.0
 11
78.78851506849986
 21
-4.608308009499976
 31
0.0
 11
78.7906258578999
 21
-4.605337413499965
 31
0.0
 11
78.79273486949985
 21
-4.602362831499986
 31
0.0
 11
78.79484245939983
 21
-4.599383728699987
 31
0.0
 11
78.79694901019985
 21
-4.596399528299967
 31
0.0
 11
78.79905576599987
 21
-4.593408424000014
 31
0.0
 11
78.80116321619988
 21
-4.590409668099992
 31
0.0
 11
78.80327151919988
 21
-4.587402978799983
 31
0.0
 11
78.80538082639981
 21
-4.584388081999972
 31
0.0
 11
78.80749303379985
 21
-4.581362198899964
 31
0.0
 11
78.80960930909981
 21
-4.578323571599979
 31
0.0
 11
78.81172984139988
 21
-4.575271836500006
 31
0.0
 11
78.81385544639982
 21
-4.572205720200001
 31
0.0
 11
78.81598668049986
 21
-4.569124313299991
 31
0.0
 11
78.81812441519986
 21
-4.566026239599976
 31
0.0
 11
78.8202692605999
 21
-4.562910489399993
 31
0.0
 11
78.82242197049987
 21
-4.559775833299964
 31
0.0
 11
78.82458310799989
 21
-4.556621307999987
 31
0.0
 11
78.82675356269982
 21
-4.553445461199997
 31
0.0
 11
78.82893407409989
 21
-4.550247046099967
 31
0.0
  0
SPLINE
  5
55EE3
330
1F
100
AcDbEntity
  8
1
100
AcDbSpline
210
0.0
220
0.0
230
1.0
 70
     8
 71
     3
 72
    22
 73
    18
 74
    16
 42
0.0000000001
 43
0.0000000001
 44
0.000001
 12
0.0559714537861892
 22
-0.9984323694477561
 32
0.0
 13
0.0608291190676837
 23
-0.9981481945450031
 33
0.0
 40
0.0
 40
0.0
 40
0.0
 40
0.0
 40
0.0268166277439842
 40
0.0551691670069106
 40
0.0848750831786303
 40
0.1149711447064047
 40
0.1448086848357924
 40
0.174572712864996
 40
0.204385269357497
 40
0.2341706041839987
 40
0.2639595293724524
 40
0.2938954309221188
 40
0.3240301460958206
 40
0.3543127927122802
 40
0.3843493617749813
 40
0.4137192533092046
 40
0.4428177825256253
 40
0.4428177825256253
 40
0.4428177825256253
 40
0.4428177825256253
 10
79.26836401599991
 20
-0.3279712223000055
 30
0.0
 10
79.26886433788007
 20
-0.3368960853596803
 30
0.0
 10
79.26989997702728
 20
-0.355256626306326
 30
0.0
 10
79.27152448255649
 20
-0.3835016468989974
 30
0.0
 10
79.27323049369471
 20
-0.4128369215825042
 30
0.0
 10
79.27497703411416
 20
-0.44266567296383
 30
0.0
 10
79.27672520955093
 20
-0.4725137320429728
 30
0.0
 10
79.2784660763528
 20
-0.5022675556120515
 30
0.0
 10
79.28020422944763
 20
-0.5320041063601641
 30
0.0
 10
79.28194040794955
 20
-0.5617490856637791
 30
0.0
 10
79.28367700224511
 20
-0.5915352255848908
 30
0.0
 10
79.28542135269758
 20
-0.621437571216344
 30
0.0
 10
79.28717899864856
 20
-0.6515039946397724
 30
0.0
 10
79.28894478408924
 20
-0.6816035552159754
 30
0.0
 10
79.29070825791983
 20
-0.7114478695860376
 30
0.0
 10
79.29246542285213
 20
-0.7408971598498409
 30
0.0
 10
79.29364492586708
 20
-0.7603509117662446
 30
0.0
 10
79.29423493849987
 20
-0.7700324599000064
 30
0.0
 11
79.26836401599991
 21
-0.3279712223000055
 31
0.0
 11
79.26987693869985
 21
-0.3547451382999733
 31
0.0
 11
79.27150252029986
 21
-0.3830510377000118
 31
0.0
 11
79.27322588269982
 21
-0.4127069216999768
 31
0.0
 11
79.2749831541999
 21
-0.4427516367000077
 31
0.0
 11
79.27672734269987
 21
-0.4725381536999986
 31
0.0
 11
79.27846584739978
 21
-0.5022513655000135
 31
0.0
 11
79.28020534699982
 21
-0.5320131305000027
 31
0.0
 11
79.28194100709976
 21
-0.5617478516999891
 31
0.0
 11
79.28367531069985
 21
-0.5914862485000025
 31
0.0
 11
79.28541910439986
 21
-0.6213713178999976
 31
0.0
 11
79.28717814629982
 21
-0.6514546490999872
 31
0.0
 11
79.28895272509982
 21
-0.6816852550999906
 31
0.0
 11
79.29072527689988
 21
-0.7116694763000293
 31
0.0
 11
79.29247652199984
 21
-0.7409871100000041
 31
0.0
 11
79.29423493849987
 21
-0.7700324599000064
 31
0.0
  0
SPLINE
  5
55EE4
330
1F
100
AcDbEntity
  8
1
100
AcDbSpline
210
0.0
220
0.0
230
1.0
 70
     8
 71
     3
 72
    23
 73
    19
 74
    17
 42
0.0000000001
 43
0.0000000001
 44
0.000001
 12
0.0541105523918318
 22
-0.9985349508754568
 32
0.0
 13
0.0592824401090443
 23
-0.9982412495457786
 33
0.0
 40
0.0
 40
0.0
 40
0.0
 40
0.0
 40
0.0230890004885307
 40
0.0486423287926111
 40
0.0766366356535033
 40
0.1063285869173454
 40
0.1361713162147254
 40
0.1655437689494869
 40
0.1947255475075915
 40
0.2238910269435387
 40
0.2531308364542818
 40
0.2823077396164947
 40
0.3111751632148483
 40
0.3395781279509181
 40
0.3673625898519557
 40
0.3940344971485839
 40
0.4189706421411402
 40
0.442227452446004
 40
0.442227452446004
 40
0.442227452446004
 40
0.442227452446004
 10
79.29423493849987
 20
-0.7700324599000064
 30
0.0
 10
79.29465139135675
 20
-0.7777175178895325
 30
0.0
 10
79.29553256539097
 20
-0.7939076670477842
 30
0.0
 10
79.29694197352893
 20
-0.8194143050686403
 30
0.0
 10
79.29849222190407
 20
-0.8471174949455908
 30
0.0
 10
79.30014553590367
 20
-0.8762469458049903
 30
0.0
 10
79.3018440712479
 20
-0.9058339432449908
 30
0.0
 10
79.30354254188697
 20
-0.9352506041558214
 30
0.0
 10
79.3052294379611
 20
-0.9644418073857689
 30
0.0
 10
79.30690665986762
 20
-0.993589280979952
 30
0.0
 10
79.30857514161314
 20
-1.022735628416398
 30
0.0
 10
79.31022861616529
 20
-1.051783319047451
 30
0.0
 10
79.31185505880344
 20
-1.080553146451441
 30
0.0
 10
79.3134472515463
 20
-1.108860020032644
 30
0.0
 10
79.31500329710397
 20
-1.136435931431225
 30
0.0
 10
79.31650894200732
 20
-1.162857239323674
 30
0.0
 10
79.31795032465993
 20
-1.187770536842262
 30
0.0
 10
79.31889666571186
 20
-1.203806959906926
 30
0.0
 10
79.31935623919986
 20
-1.211545595699985
 30
0.0
 11
79.29423493849987
 21
-0.7700324599000064
 31
0.0
 11
79.29549194009981
 21
-0.7930872181999983
 31
0.0
 11
79.29690092349989
 21
-0.8186016716000048
 31
0.0
 11
79.29846520129984
 21
-0.846552239199992
 31
0.0
 11
79.30014688259992
 21
-0.8761965286000028
 31
0.0
 11
79.3018557013998
 21
-0.9059902931999895
 31
0.0
 11
79.30354744549987
 21
-0.935313986100011
 31
0.0
 11
79.30522956279988
 21
-0.9644472432000108
 31
0.0
 11
79.30690479699984
 21
-0.9935645709000036
 31
0.0
 11
79.30857577409989
 21
-1.022756595300007
 31
0.0
 11
79.3102335805998
 21
-1.051886362700001
 31
0.0
 11
79.3118634180999
 21
-1.080707739599999
 31
0.0
 11
79.31346068609986
 21
-1.109065756599987
 31
0.0
 11
79.31502781399986
 21
-1.136805987599995
 31
0.0
 11
79.31654683589982
 21
-1.163434603599964
 31
0.0
 11
79.31798860189982
 21
-1.188329033000014
 31
0.0
 11
79.31935623919986
 21
-1.211545595699985
 31
0.0
  0
SPLINE
  5
55EE5
330
1F
100
AcDbEntity
  8
1
100
AcDbSpline
210
0.0
220
0.0
230
1.0
 70
     8
 71
     3
 72
    73
 73
    69
 74
    67
 42
0.0000000001
 43
0.0000000001
 44
0.000001
 12
0.6844004535882524
 22
0.7291063153808191
 32
0.0
 13
0.6367164582721109
 23
0.7710980169637446
 33
0.0
 40
0.0
 40
0.0
 40
0.0
 40
0.0
 40
0.0049259580066977
 40
0.0097813288977917
 40
0.0145686220147208
 40
0.0192901558292791
 40
0.0239488425976926
 40
0.0285476173069168
 40
0.0330892182738219
 40
0.0375759543607419
 40
0.0420107786982121
 40
0.0463960315881826
 40
0.0507348189252648
 40
0.0550290000241253
 40
0.0592801618130764
 40
0.0634903429889756
 40
0.0676625592678958
 40
0.0717986533387864
 40
0.0759005752414024
 40
0.0799710530509383
 40
0.0840114229391488
 40
0.0880228969163183
 40
0.0920077190521575
 40
0.0959679376031763
 40
0.0999057620812781
 40
0.1038231664699888
 40
0.1077220253365929
 40
0.1116042118638073
 40
0.1154706636311549
 40
0.1193234094019638
 40
0.1231644383005283
 40
0.1269952070869214
 40
0.1308170006980401
 40
0.134628127700914
 40
0.1384265083480524
 40
0.1422106976253235
 40
0.1459781490840708
 40
0.1497289225048546
 40
0.1534651071399298
 40
0.1571890672224022
 40
0.1609017529206591
 40
0.1646047410603965
 40
0.1682998786960569
 40
0.1719893602508602
 40
0.1756743668237777
 40
0.1793552987233333
 40
0.1830334418466687
 40
0.1867108914481717
 40
0.1903887503631375
 40
0.1940686425396594
 40
0.1977528610128226
 40
0.2014421894761091
 40
0.2051372440110531
 40
0.2088392590979479
 40
0.212550443508648
 40
0.216271470016523
 40
0.2200028024126861
 40
0.2237454795662621
 40
0.2275020180906195
 40
0.2312746223704539
 40
0.2350644321529572
 40
0.238872300589673
 40
0.2426999774545981
 40
0.2465486374957868
 40
0.2504203318197
 40
0.2543161206824374
 40
0.2582366185997035
 40
0.2621835423035994
 40
0.2621835423035994
 40
0.2621835423035994
 40
0.2621835423035994
 10
78.50058932009989
 20
-4.957697121399999
 30
0.0
 10
78.5017130960646
 20
-4.956499939036005
 30
0.0
 10
78.50394316043389
 20
-4.954121429639601
 30
0.0
 10
78.50726058622047
 20
-4.950574960165553
 30
0.0
 10
78.51052746640383
 20
-4.947074520296603
 30
0.0
 10
78.51374572148381
 20
-4.943618381849571
 30
0.0
 10
78.51691735139827
 20
-4.940204695979312
 30
0.0
 10
78.52004446646438
 20
-4.936831524612553
 30
0.0
 10
78.5231289354957
 20
-4.933496979862439
 30
0.0
 10
78.52617304641444
 20
-4.930199551971162
 30
0.0
 10
78.52917828255172
 20
-4.926937167857104
 30
0.0
 10
78.53214674252325
 20
-4.923707961096867
 30
0.0
 10
78.53508015244526
 20
-4.920510217042953
 30
0.0
 10
78.53798009186411
 20
-4.917342427209961
 30
0.0
 10
78.54084788504349
 20
-4.914203331257086
 30
0.0
 10
78.54368511228478
 20
-4.911091380327126
 30
0.0
 10
78.54649340351397
 20
-4.908004955110182
 30
0.0
 10
78.54927436148196
 20
-4.90494245123123
 30
0.0
 10
78.55202951808772
 20
-4.901902329214699
 30
0.0
 10
78.55476028534738
 20
-4.898883168542715
 30
0.0
 10
78.55746790395892
 20
-4.895883725220324
 30
0.0
 10
78.56015350214611
 20
-4.892902870851235
 30
0.0
 10
78.56281836189225
 20
-4.889939295875318
 30
0.0
 10
78.5654639813209
 20
-4.886991437742813
 30
0.0
 10
78.56809179293932
 20
-4.884057795813282
 30
0.0
 10
78.57070318401702
 20
-4.881136906496774
 30
0.0
 10
78.57329946194084
 20
-4.878227385030013
 30
0.0
 10
78.57588169890715
 20
-4.875328099668828
 30
0.0
 10
78.57845099687681
 20
-4.872437876239546
 30
0.0
 10
78.58100847918457
 20
-4.869555507759115
 30
0.0
 10
78.58355537909736
 20
-4.86667965333524
 30
0.0
 10
78.58609276049157
 20
-4.863809153182967
 30
0.0
 10
78.58862087157326
 20
-4.860943763896283
 30
0.0
 10
78.59113918103432
 20
-4.858084126326641
 30
0.0
 10
78.59364655964256
 20
-4.855231567251469
 30
0.0
 10
78.59614169516283
 20
-4.852387631975168
 30
0.0
 10
78.5986237513105
 20
-4.849553334543118
 30
0.0
 10
78.60109267004848
 20
-4.84672880446517
 30
0.0
 10
78.6035494696051
 20
-4.843912937833412
 30
0.0
 10
78.60599535820028
 20
-4.841104402530262
 30
0.0
 10
78.60843142747348
 20
-4.838301991334283
 30
0.0
 10
78.61085865151483
 20
-4.835504623193839
 30
0.0
 10
78.61327827240372
 20
-4.832710900413053
 30
0.0
 10
78.61569144034408
 20
-4.829919520179304
 30
0.0
 10
78.61809898603723
 20
-4.827129540908663
 30
0.0
 10
78.62050153971452
 20
-4.824340248007244
 30
0.0
 10
78.62289992762052
 20
-4.821550693521798
 30
0.0
 10
78.62529512516189
 20
-4.818759748900546
 30
0.0
 10
78.62768817658333
 20
-4.815966196172392
 30
0.0
 10
78.63008016519592
 20
-4.813168764027029
 30
0.0
 10
78.63247210033865
 20
-4.810366257883569
 30
0.0
 10
78.63486476934207
 20
-4.80755773538625
 30
0.0
 10
78.63725872807671
 20
-4.804742520561543
 30
0.0
 10
78.63965483710029
 20
-4.801919573013409
 30
0.0
 10
78.6420539656718
 20
-4.799087834990039
 30
0.0
 10
78.64445681310286
 20
-4.796246441508914
 30
0.0
 10
78.64686382441073
 20
-4.793394823322222
 30
0.0
 10
78.64927584008569
 20
-4.790531940752904
 30
0.0
 10
78.65169406309966
 20
-4.787656300966321
 30
0.0
 10
78.65411973924205
 20
-4.784766403167347
 30
0.0
 10
78.65655365098916
 20
-4.781861081974752
 30
0.0
 10
78.65899686407241
 20
-4.778939606676854
 30
0.0
 10
78.66144988539594
 20
-4.776000763545654
 30
0.0
 10
78.66391373162648
 20
-4.773043245421067
 30
0.0
 10
78.6663892638649
 20
-4.770065914661404
 30
0.0
 10
78.66887722014124
 20
-4.767067774359247
 30
0.0
 10
78.67137826322622
 20
-4.764047910238668
 30
0.0
 10
78.67304902717257
 20
-4.762026544447043
 30
0.0
 10
78.67388671759982
 20
-4.761012056099983
 30
0.0
 11
78.50058932009989
 21
-4.957697121399999
 31
0.0
 11
78.50395857159988
 21
-4.954103628700009
 31
0.0
 11
78.50727547559978
 21
-4.950557825099961
 31
0.0
 11
78.51054190849987
 21
-4.947058037599985
 31
0.0
 11
78.51375960699994
 21
-4.943602723299987
 31
0.0
 11
78.51693070269978
 21
-4.940189895099988
 31
0.0
 11
78.52005733199991
 21
-4.936817538799997
 31
0.0
 11
78.52314148809984
 21
-4.933483773399983
 31
0.0
 11
78.52618487279989
 21
-4.930187013999981
 31
0.0
 11
78.52918959519985
 21
-4.926925216599981
 31
0.0
 11
78.53215735009992
 21
-4.923696767199997
 31
0.0
 11
78.53509034179984
 21
-4.920499479799983
 31
0.0
 11
78.53798992339983
 21
-4.917332078799998
 31
0.0
 11
78.54085725799979
 21
-4.9141934836
 31
0.0
 11
78.54369380769987
 21
-4.911082274500015
 31
0.0
 11
78.5465016852998
 21
-4.907996302599995
 31
0.0
 11
78.54928220609991
 21
-4.904934278999999
 31
0.0
 11
78.55203675189985
 21
-4.901894829900014
 31
0.0
 11
78.55476722019983
 21
-4.898875998599973
 31
0.0
 11
78.55747456799992
 21
-4.895876854299983
 31
0.0
 11
78.56015966539992
 21
-4.892896554799986
 31
0.0
 11
78.56282406849988
 21
-4.889933486599997
 31
0.0
 11
78.56546919599992
 21
-4.886986175799958
 31
0.0
 11
78.56809656849981
 21
-4.884053023099963
 31
0.0
 11
78.5707075430999
 21
-4.881132598799976
 31
0.0
 11
78.5733034052999
 21
-4.878223542400005
 31
0.0
 11
78.57588543439982
 21
-4.875324489599959
 31
0.0
 11
78.5784542830998
 21
-4.872434770799996
 31
0.0
 11
78.58101132539985
 21
-4.869552897499998
 31
0.0
 11
78.58355790339982
 21
-4.866677405799973
 31
0.0
 11
78.58609500119979
 21
-4.863807225799999
 31
0.0
 11
78.58862348539988
 21
-4.860941412999974
 31
0.0
 11
78.59114225309991
 21
-4.858081254399987
 31
0.0
 11
78.59364994979983
 21
-4.855228332799978
 31
0.0
 11
78.59614564529984
 21
-4.852383758799986
 31
0.0
 11
78.59862768839986
 21
-4.849549475599983
 31
0.0
 11
78.60109614899982
 21
-4.846725469199978
 31
0.0
 11
78.60355243059991
 21
-4.843910195699946
 31
0.0
 11
78.60599811139985
 21
-4.841101898600014
 31
0.0
 11
78.60843383599984
 21
-4.838299883399995
 31
0.0
 11
78.61086065679986
 21
-4.835502979699977
 31
0.0
 11
78.61327979899984
 21
-4.832709809199965
 31
0.0
 11
78.61569270969977
 21
-4.82991872619999
 31
0.0
 11
78.61810016849978
 21
-4.827128847399988
 31
0.0
 11
78.62050244269977
 21
-4.824339878700013
 31
0.0
 11
78.62290037559984
 21
-4.821550853299981
 31
0.0
 11
78.62529533399987
 21
-4.818760187099995
 31
0.0
 11
78.62768803359978
 21
-4.815967044999976
 31
0.0
 11
78.63007952579988
 21
-4.813170193299978
 31
0.0
 11
78.63247129169993
 21
-4.810367885399982
 31
0.0
 11
78.63486382789989
 21
-4.807559518799959
 31
0.0
 11
78.63725752039984
 21
-4.804744616999981
 31
0.0
 11
78.63965315339981
 21
-4.801922230399978
 31
0.0
 11
78.64205213739984
 21
-4.799090663099943
 31
0.0
 11
78.64445488539985
 21
-4.796249387299978
 31
0.0
 11
78.64686167399992
 21
-4.793398033599997
 31
0.0
 11
78.64927314869982
 21
-4.790535791499988
 31
0.0
 11
78.65169090279988
 21
-4.787660716799988
 31
0.0
 11
78.6541163217999
 21
-4.784771098599945
 31
0.0
 11
78.65655010179984
 21
-4.781866037399991
 31
0.0
 11
78.65899275879979
 21
-4.778944842399992
 31
0.0
 11
78.66144536739985
 21
-4.776006147899974
 31
0.0
 11
78.66390863329986
 21
-4.7730490216
 31
0.0
 11
78.66638382059983
 21
-4.770071851799966
 31
0.0
 11
78.6688715548999
 21
-4.767073784700014
 31
0.0
 11
78.67137217449982
 21
-4.764054307499972
 31
0.0
 11
78.67388671759982
 21
-4.761012056099983
 31
0.0
  0
SPLINE
  5
55EE6
330
1F
100
AcDbEntity
  8
1
100
AcDbSpline
210
0.0
220
0.0
230
1.0
 70
     8
 71
     3
 72
    73
 73
    69
 74
    67
 42
0.0000000001
 43
0.0000000001
 44
0.000001
 12
0.7449458148278069
 22
0.6671249755259768
 32
0.0
 13
0.7037731082459007
 23
0.7104248110179599
 33
0.0
 40
0.0
 40
0.0
 40
0.0
 40
0.0
 40
0.0048522093395659
 40
0.0096368486523254
 40
0.0143566311491839
 40
0.0190145962848892
 40
0.0236132206540187
 40
0.0281554450012165
 40
0.0326438378875357
 40
0.0370805699967993
 40
0.0414683539113745
 40
0.0458096405466354
 40
0.0501072858257328
 40
0.0543629317825745
 40
0.0585781353620153
 40
0.0627550571040985
 40
0.0668963994948832
 40
0.0710038327870799
 40
0.0750794923556347
 40
0.0791258444255512
 40
0.0831443391222692
 40
0.0871369270807174
 40
0.091105815334311
 40
0.0950519963104141
 40
0.098976922668178
 40
0.1028829462983291
 40
0.1067718494370984
 40
0.1106457988660637
 40
0.1145061664294234
 40
0.118355127685828
 40
0.1221945685351957
 40
0.126026067937646
 40
0.1298505803745463
 40
0.1336662395240824
 40
0.1374711423269711
 40
0.1412634753012817
 40
0.1450404053017148
 40
0.1488024067268105
 40
0.1525517712023924
 40
0.156290781272198
 40
0.1600202534269957
 40
0.1637419152120705
 40
0.1674575633356404
 40
0.1711693858614651
 40
0.1748783069079903
 40
0.1785847488468403
 40
0.1822903534508587
 40
0.1859970057279732
 40
0.1897058241228929
 40
0.1934187783599974
 40
0.1971378400067558
 40
0.2008636878601969
 40
0.2045969275932734
 40
0.2083391970689502
 40
0.2120924968775493
 40
0.2158575031647962
 40
0.2196347595053634
 40
0.2234257843232271
 40
0.227232793263248
 40
0.2310575512788969
 40
0.2349017158067207
 40
0.2387664758693071
 40
0.242653502701991
 40
0.2465638391377763
 40
0.2504992946895424
 40
0.2544609481003337
 40
0.2584508453589428
 40
0.2624704879058059
 40
0.2624704879058059
 40
0.2624704879058059
 40
0.2624704879058059
 10
78.31048640309979
 20
-5.138614211199977
 30
0.0
 10
78.31169128077985
 20
-5.137535201187675
 30
0.0
 10
78.31408302299843
 20
-5.135390828115419
 30
0.0
 10
78.31764250584118
 20
-5.13219215339568
 30
0.0
 10
78.32115026952227
 20
-5.129032799882222
 30
0.0
 10
78.32460853400331
 20
-5.125911142213038
 30
0.0
 10
78.32801938470591
 20
-5.122825292654139
 30
0.0
 10
78.33138544288477
 20
-5.119774187954125
 30
0.0
 10
78.33470825204932
 20
-5.116755725828966
 30
0.0
 10
78.3379898719734
 20
-5.113768487394525
 30
0.0
 10
78.34123218287385
 20
-5.110810913295229
 30
0.0
 10
78.3444372635196
 20
-5.107881322775774
 30
0.0
 10
78.34760691121065
 20
-5.104978255513216
 30
0.0
 10
78.35074269972207
 20
-5.102100447957217
 30
0.0
 10
78.35384602575193
 20
-5.099246786027383
 30
0.0
 10
78.35691854065958
 20
-5.096415910000615
 30
0.0
 10
78.35996191707097
 20
-5.093606427159849
 30
0.0
 10
78.36297781566739
 20
-5.090816943905869
 30
0.0
 10
78.36596783322042
 20
-5.088046113236239
 30
0.0
 10
78.36893350718927
 20
-5.08529263182891
 30
0.0
 10
78.3718763240877
 20
-5.082555231750175
 30
0.0
 10
78.37479770277482
 20
-5.079832698958826
 30
0.0
 10
78.37769894497006
 20
-5.077123917286317
 30
0.0
 10
78.38058122722768
 20
-5.074427879544404
 30
0.0
 10
78.3834457572307
 20
-5.071743540958925
 30
0.0
 10
78.38629393065206
 20
-5.069069672179247
 30
0.0
 10
78.38912731139223
 20
-5.066404875110897
 30
0.0
 10
78.39194722085991
 20
-5.063747970526719
 30
0.0
 10
78.39475507114379
 20
-5.061097684134474
 30
0.0
 10
78.39755220179174
 20
-5.058452801082089
 30
0.0
 10
78.40033999806073
 20
-5.055812054278137
 30
0.0
 10
78.40311954550722
 20
-5.0531744520248
 30
0.0
 10
78.40589101971264
 20
-5.050539860640189
 30
0.0
 10
78.40865375593333
 20
-5.047908947013462
 30
0.0
 10
78.41140642458646
 20
-5.045283017730669
 30
0.0
 10
78.41414746786426
 20
-5.04266360694959
 30
0.0
 10
78.41687590575609
 20
-5.040051706300038
 30
0.0
 10
78.41959174882962
 20
-5.037447363272061
 30
0.0
 10
78.42229623729927
 20
-5.034849443814978
 30
0.0
 10
78.4249906882975
 20
-5.03225672924576
 30
0.0
 10
78.42767628050335
 20
-5.029668128085954
 30
0.0
 10
78.43035407172985
 20
-5.027082656737764
 30
0.0
 10
78.43302544554146
 20
-5.024499010708542
 30
0.0
 10
78.43569158820341
 20
-5.021916066671036
 30
0.0
 10
78.43835335415218
 20
-5.019333017119646
 30
0.0
 10
78.4410114642327
 20
-5.016749178323765
 30
0.0
 10
78.44366686728557
 20
-5.014163641544186
 30
0.0
 10
78.44632067431
 20
-5.011575331959155
 30
0.0
 10
78.4489740717402
 20
-5.008983095507448
 30
0.0
 10
78.45162826254256
 20
-5.00638575375007
 30
0.0
 10
78.45428434143252
 20
-5.00378222715956
 30
0.0
 10
78.45694307516385
 20
-5.001171751177041
 30
0.0
 10
78.45960514910732
 20
-4.998553637141792
 30
0.0
 10
78.46227156059947
 20
-4.995926885263105
 30
0.0
 10
78.46494331994006
 20
-4.993290475461394
 30
0.0
 10
78.46762117536025
 20
-4.99064364143102
 30
0.0
 10
78.47030575836166
 20
-4.987985727439141
 30
0.0
 10
78.47299806334698
 20
-4.985315714960739
 30
0.0
 10
78.47569936951106
 20
-4.982632294521152
 30
0.0
 10
78.47841098623746
 20
-4.979934121332309
 30
0.0
 10
78.48113397177989
 20
-4.977220083493038
 30
0.0
 10
78.48386937647268
 20
-4.974489105366595
 30
0.0
 10
78.48661803675826
 20
-4.971740187457297
 30
0.0
 10
78.48938136369165
 20
-4.968972611600145
 30
0.0
 10
78.49215976974003
 20
-4.966184941469347
 30
0.0
 10
78.49495449716235
 20
-4.963376097516991
 30
0.0
 10
78.49776654991976
 20
-4.960544907432644
 30
0.0
 10
78.49964634799014
 20
-4.958649005998904
 30
0.0
 10
78.50058932009989
 20
-4.957697121399999
 30
0.0
 11
78.31048640309979
 21
-5.138614211199977
 31
0.0
 11
78.3140992065999
 21
-5.135375133499988
 31
0.0
 11
78.31765811239989
 21
-5.132177155500014
 31
0.0
 11
78.32116528139983
 21
-5.129018632999985
 31
0.0
 11
78.32462310719989
 21
-5.125897691799988
 31
0.0
 11
78.32803355579978
 21
-5.122812823199976
 31
0.0
 11
78.33139890879983
 21
-5.119762215099965
 31
0.0
 11
78.33472120069979
 21
-5.116744260499983
 31
0.0
 11
78.33800214679985
 21
-5.1137576257
 31
0.0
 11
78.34124385519982
 21
-5.110800603999988
 31
0.0
 11
78.34444823259985
 21
-5.107871655699963
 31
0.0
 11
78.34761747659985
 21
-5.104968958599982
 31
0.0
 11
78.35075288259992
 21
-5.102091502299995
 31
0.0
 11
78.35385567839984
 21
-5.099238328199986
 31
0.0
 11
78.35692753069981
 21
-5.096408062899965
 31
0.0
 11
78.35997049799988
 21
-5.093598958100014
 31
0.0
 11
78.36298587399989
 21
-5.090809958500014
 31
0.0
 11
78.36597528859984
 21
-5.088039686999988
 31
0.0
 11
78.36894060829985
 21
-5.085286534799988
 31
0.0
 11
78.3718829491998
 21
-5.082549577999995
 31
0.0
 11
78.37480378969992
 21
-5.079827547099964
 31
0.0
 11
78.37770479019986
 21
-5.077118991599999
 31
0.0
 11
78.3805867188999
 21
-5.074423284999963
 31
0.0
 11
78.38345067699987
 21
-5.071739482899998
 31
0.0
 11
78.38629841739981
 21
-5.069066021099983
 31
0.0
 11
78.3891312721999
 21
-5.066401719300014
 31
0.0
 11
78.3919508489999
 21
-5.06374512869996
 31
0.0
 11
78.39475817209978
 21
-5.061095340499973
 31
0.0
 11
78.39755484619985
 21
-5.058450889799983
 31
0.0
 11
78.40034226059987
 21
-5.055810505399959
 31
0.0
 11
78.40312157749981
 21
-5.053173122599983
 31
0.0
 11
78.4058935028998
 21
-5.050538103099992
 31
0.0
 11
78.40865669879993
 21
-5.047906752499981
 31
0.0
 11
78.41140980519987
 21
-5.045280406499981
 31
0.0
 11
78.4141515315999
 21
-5.042660343799978
 31
0.0
 11
78.4168798555998
 21
-5.040048552999961
 31
0.0
 11
78.41959514779985
 21
-5.037444739299983
 31
0.0
 11
78.42229908789985
 21
-5.034847347399987
 31
0.0
 11
78.42499334329983
 21
-5.0322548222
 31
0.0
 11
78.42767852129992
 21
-5.029666621199963
 31
0.0
 11
78.43035588219987
 21
-5.027081566499985
 31
0.0
 11
78.43302673219985
 21
-5.024498428100001
 31
0.0
 11
78.43569265419984
 21
-5.02191569909999
 31
0.0
 11
78.4383543195998
 21
-5.019332748199983
 31
0.0
 11
78.44101203789984
 21
-5.016749291599976
 31
0.0
 11
78.44366699129984
 21
-5.014164193799983
 31
0.0
 11
78.44632053209984
 21
-5.011576145299981
 31
0.0
 11
78.44897346049989
 21
-5.008984368399976
 31
0.0
 11
78.45162718229977
 21
-5.006387487099996
 31
0.0
 11
78.45428310029984
 21
-5.003784119699983
 31
0.0
 11
78.45694169069981
 21
-5.001173785999978
 31
0.0
 11
78.45960337619982
 21
-4.998556055699991
 31
0.0
 11
78.46226931339987
 21
-4.995929772699978
 31
0.0
 11
78.46494091319988
 21
-4.993293522199961
 31
0.0
 11
78.46761864059982
 21
-4.990646816499973
 31
0.0
 11
78.47030286489991
 21
-4.987989259699983
 31
0.0
 11
78.47299464639985
 21
-4.9853197683
 31
0.0
 11
78.47569553639988
 21
-4.982636763799999
 31
0.0
 11
78.4784067619999
 21
-4.979938980899984
 31
0.0
 11
78.48112947029989
 21
-4.977225226399978
 31
0.0
 11
78.48386447339982
 21
-4.974494634599976
 31
0.0
 11
78.48661292029982
 21
-4.971745997599978
 31
0.0
 11
78.48937550639988
 21
-4.968978554899988
 31
0.0
 11
78.49215348389981
 21
-4.966190982499993
 31
0.0
 11
78.4949475754998
 21
-4.963382481099981
 31
0.0
 11
78.49775918289975
 21
-4.960551562600015
 31
0.0
 11
78.50058932009989
 21
-4.957697121399999
 31
0.0
  0
SPLINE
  5
55EE7
330
1F
100
AcDbEntity
  8
1
100
AcDbSpline
210
0.0
220
0.0
230
1.0
 70
     8
 71
     3
 72
    73
 73
    69
 74
    67
 42
0.0000000001
 43
0.0000000001
 44
0.000001
 12
0.8006827351959502
 22
0.5990886057664026
 32
0.0
 13
0.7639670109371917
 23
0.6452553031162883
 33
0.0
 40
0.0
 40
0.0
 40
0.0
 40
0.0
 40
0.0047759563788509
 40
0.0094883197992497
 40
0.014140330388823
 40
0.0187341700444311
 40
0.0232721398848927
 40
0.0277570450251184
 40
0.0321913312473696
 40
0.0365770186699987
 40
0.0409165819237757
 40
0.0452126079285135
 40
0.0494676479529309
 40
0.0536832075901122
 40
0.0578609745626249
 40
0.062003414235947
 40
0.066113084316481
 40
0.0701914427179567
 40
0.0742403759912453
 40
0.0782623682616835
 40
0.0822591560479668
 40
0.0862314633688721
 40
0.0901804633657737
 40
0.0941082820054627
 40
0.0980173848970952
 40
0.1019099606175614
 40
0.1057877472737226
 40
0.1096523184359918
 40
0.1135050532029684
 40
0.117347415490596
 40
0.1211822175021191
 40
0.1250117637496704
 40
0.1288365232698179
 40
0.1326542408298251
 40
0.1364629526894903
 40
0.1402602105548171
 40
0.1440435043088057
 40
0.1478140616958257
 40
0.151573969285411
 40
0.1553250951209693
 40
0.159068308116919
 40
0.162805599363965
 40
0.1665386972273166
 40
0.1702696430917001
 40
0.1739990182173273
 40
0.1777274473729717
 40
0.1814570892767351
 40
0.1851894430183395
 40
0.1889258087222877
 40
0.1926686721762859
 40
0.1964191754209672
 40
0.2001779267171085
 40
0.2039456023382451
 40
0.2077246082114296
 40
0.2115163907573193
 40
0.2153217968709709
 40
0.219141681062099
 40
0.2229785090631431
 40
0.2268337977846657
 40
0.2307084650109728
 40
0.234604141384164
 40
0.238522946986474
 40
0.2424658224183807
 40
0.2464337946005208
 40
0.2504290286142974
 40
0.2544528751431385
 40
0.2585072649616542
 40
0.2625934255979076
 40
0.2625934255979076
 40
0.2625934255979076
 40
0.2625934255979076
 10
78.10514843859988
 20
-5.302234040999988
 30
0.0
 10
78.10642311387209
 20
-5.301280300650586
 30
0.0
 10
78.10895437783044
 20
-5.299384029842091
 30
0.0
 10
78.11272339359021
 20
-5.296553644921387
 30
0.0
 10
78.11644067004592
 20
-5.293755460658085
 30
0.0
 10
78.12010835780018
 20
-5.290988063689812
 30
0.0
 10
78.12372863764664
 20
-5.28825032036393
 30
0.0
 10
78.12730376332729
 20
-5.285541045325233
 30
0.0
 10
78.13083552046958
 20
-5.282858590155055
 30
0.0
 10
78.13432591270234
 20
-5.280201776436688
 30
0.0
 10
78.13777689142949
 20
-5.277569278263475
 30
0.0
 10
78.14119056379439
 20
-5.274959681658504
 30
0.0
 10
78.14456876776588
 20
-5.272371751816035
 30
0.0
 10
78.14791309907765
 20
-5.269804430156612
 30
0.0
 10
78.15122512504593
 20
-5.267256667664234
 30
0.0
 10
78.15450668578598
 20
-5.264727194358997
 30
0.0
 10
78.15775955475179
 20
-5.262214778876054
 30
0.0
 10
78.16098534745018
 20
-5.259718300639152
 30
0.0
 10
78.16418565492404
 20
-5.257236647210786
 30
0.0
 10
78.1673621368416
 20
-5.254768642800405
 30
0.0
 10
78.17051614188793
 20
-5.252313342682154
 30
0.0
 10
78.17364867040616
 20
-5.249870065795438
 30
0.0
 10
78.17676082231674
 20
-5.247438047427655
 30
0.0
 10
78.17985415139341
 20
-5.245016160605351
 30
0.0
 10
78.18293047280059
 20
-5.242603062941312
 30
0.0
 10
78.18599149504539
 20
-5.240197485363335
 30
0.0
 10
78.18903868814942
 20
-5.237798336383076
 30
0.0
 10
78.19207330634144
 20
-5.235404686459809
 30
0.0
 10
78.19509652878278
 20
-5.233015658321817
 30
0.0
 10
78.19810985493564
 20
-5.230630113974664
 30
0.0
 10
78.20111502217605
 20
-5.228246718860549
 30
0.0
 10
78.20411350264774
 20
-5.22586433758073
 30
0.0
 10
78.20710544377468
 20
-5.223482882673758
 30
0.0
 10
78.21008988053185
 20
-5.221103153550457
 30
0.0
 10
78.21306509152873
 20
-5.218726560765261
 30
0.0
 10
78.21602929387973
 20
-5.216354573920316
 30
0.0
 10
78.21898153970704
 20
-5.213988003308027
 30
0.0
 10
78.22192206220757
 20
-5.211626715661219
 30
0.0
 10
78.22485223045226
 20
-5.209269661285356
 30
0.0
 10
78.22777331668309
 20
-5.206915860827818
 30
0.0
 10
78.23068656479851
 20
-5.204564350384061
 30
0.0
 10
78.23359317999996
 20
-5.202214192143607
 30
0.0
 10
78.23649466699357
 20
-5.199864197039512
 30
0.0
 10
78.23939216265603
 20
-5.197513468452927
 30
0.0
 10
78.24228651490655
 20
-5.195161337423121
 30
0.0
 10
78.24517860038653
 20
-5.192807108266906
 30
0.0
 10
78.24806953041769
 20
-5.190449888930259
 30
0.0
 10
78.25096058792411
 20
-5.188088641542631
 30
0.0
 10
78.25385313693186
 20
-5.185722255154531
 30
0.0
 10
78.25674844614148
 20
-5.183349690236134
 30
0.0
 10
78.25964760263605
 20
-5.180970049471538
 30
0.0
 10
78.26255122547205
 20
-5.178582816035518
 30
0.0
 10
78.2654602571343
 20
-5.176187203116914
 30
0.0
 10
78.26837585365327
 20
-5.173782243728116
 30
0.0
 10
78.27129921159277
 20
-5.171366930656392
 30
0.0
 10
78.27423112651366
 20
-5.168940583274716
 30
0.0
 10
78.27717265364731
 20
-5.166502301837416
 30
0.0
 10
78.28012501779074
 20
-5.164051041228776
 30
0.0
 10
78.28308945598938
 20
-5.161585738115819
 30
0.0
 10
78.28606699078932
 20
-5.159105506612382
 30
0.0
 10
78.28905878848061
 20
-5.156609319375509
 30
0.0
 10
78.2920660501874
 20
-5.15409617883396
 30
0.0
 10
78.29508969880842
 20
-5.151565068782472
 30
0.0
 10
78.29813112225615
 20
-5.149015504643685
 30
0.0
 10
78.30119114183699
 20
-5.146446112409241
 30
0.0
 10
78.30427108835235
 20
-5.143855658033743
 30
0.0
 10
78.3073720751384
 20
-5.141243134461987
 30
0.0
 10
78.30944583912395
 20
-5.139493083473285
 30
0.0
 10
78.31048640309979
 20
-5.138614211199977
 30
0.0
 11
78.10514843859988
 21
-5.302234040999988
 31
0.0
 11
78.10897082299978
 21
-5.29937061449999
 31
0.0
 11
78.1127390888999
 21
-5.296540995699983
 31
0.0
 11
78.11645595199985
 21
-5.2937434186
 31
0.0
 11
78.12012327359986
 21
-5.290976740599998
 31
0.0
 11
78.12374298569983
 21
-5.288239749699981
 31
0.0
 11
78.12731742099987
 21
-5.285530914499982
 31
0.0
 11
78.13084865289984
 21
-5.282848882199997
 31
0.0
 11
78.13433838609984
 21
-5.280192565599972
 31
0.0
 11
78.13778868019989
 21
-5.27756059269998
 31
0.0
 11
78.14120167699986
 21
-5.274951513599998
 31
0.0
 11
78.14457948289981
 21
-5.272363890299997
 31
0.0
 11
78.14792336819988
 21
-5.269796912400009
 31
0.0
 11
78.15123474309991
 21
-5.267249652199976
 31
0.0
 11
78.1545156288999
 21
-5.264720700599978
 31
0.0
 11
78.15776811359985
 21
-5.262208583399965
 31
0.0
 11
78.16099340929992
 21
-5.259712491199987
 31
0.0
 11
78.16419306279984
 21
-5.257231346399973
 31
0.0
 11
78.16736908799981
 21
-5.254763698299993
 31
0.0
 11
78.17052290299983
 21
-5.252308547599963
 31
0.0
 11
78.17365512359987
 21
-5.249865512399989
 31
0.0
 11
78.17676671759985
 21
-5.247433931599998
 31
0.0
 11
78.17985939999977
 21
-5.245012552599999
 31
0.0
 11
78.18293514789985
 21
-5.242599906400013
 31
0.0
 11
78.18599571509986
 21
-5.240194687999999
 31
0.0
 11
78.18904249659984
 21
-5.237795864699988
 31
0.0
 11
78.1920767543998
 21
-5.235402500699987
 31
0.0
 11
78.19509959449982
 21
-5.233013776299996
 31
0.0
 11
78.19811218629985
 21
-5.230628815099973
 31
0.0
 11
78.20111675219988
 21
-5.228245898499947
 31
0.0
 11
78.20411511089989
 21
-5.225863615799991
 31
0.0
 11
78.20710764079985
 21
-5.223481693999983
 31
0.0
 11
78.21009258999976
 21
-5.221101558099999
 31
0.0
 11
78.21306843929988
 21
-5.218724457299996
 31
0.0
 11
78.21603329559986
 21
-5.216351948999998
 31
0.0
 11
78.21898522279986
 21
-5.213985635699996
 31
0.0
 11
78.22192520369988
 21
-5.21162478489998
 31
0.0
 11
78.22485488749982
 21
-5.209268122199999
 31
0.0
 11
78.22777574889989
 21
-5.20691450479998
 31
0.0
 11
78.23068848139979
 21
-5.204563412699995
 31
0.0
 11
78.23359464929985
 21
-5.202213618
 31
0.0
 11
78.23649560839982
 21
-5.199864052699976
 31
0.0
 11
78.23939295439989
 21
-5.197513447599986
 31
0.0
 11
78.24228714589986
 21
-5.195161449399988
 31
0.0
 11
78.24517867419984
 21
-5.192807675999999
 31
0.0
 11
78.24806921789985
 21
-5.190450773999995
 31
0.0
 11
78.25095994069984
 21
-5.188089802299995
 31
0.0
 11
78.25385184939984
 21
-5.185723942199983
 31
0.0
 11
78.25674686519988
 21
-5.183351620199998
 31
0.0
 11
78.2596458660999
 21
-5.180972109799992
 31
0.0
 11
78.26254931589978
 21
-5.178585021199976
 31
0.0
 11
78.2654577296999
 21
-5.176189919899965
 31
0.0
 11
78.26837295549984
 21
-5.173785269099991
 31
0.0
 11
78.27129609709988
 21
-5.171370137699963
 31
0.0
 11
78.27422779389991
 21
-5.168943973799994
 31
0.0
 11
78.27716868969988
 21
-5.166506218899995
 31
0.0
 11
78.28012066619982
 21
-5.164055283199982
 31
0.0
 11
78.28308487099985
 21
-5.161590178099997
 31
0.0
 11
78.28606198869984
 21
-5.159110295299964
 31
0.0
 11
78.28905324969986
 21
-5.156614567999978
 31
0.0
 11
78.29206025679986
 21
-5.154101611799998
 31
0.0
 11
78.29508370459992
 21
-5.15157079489998
 31
0.0
 11
78.29812433319983
 21
-5.149021444899998
 31
0.0
 11
78.30118378809976
 21
-5.146452124599987
 31
0.0
 11
78.3042630789999
 21
-5.143861924299981
 31
0.0
 11
78.30736364959983
 21
-5.141249563399978
 31
0.0
 11
78.31048640309979
 21
-5.138614211199977
 31
0.0
  0
SPLINE
  5
55EE8
330
1F
100
AcDbEntity
  8
1
100
AcDbSpline
210
0.0
220
0.0
230
1.0
 70
     8
 71
     3
 72
    73
 73
    69
 74
    67
 42
0.0000000001
 43
0.0000000001
 44
0.000001
 12
0.8509642210562907
 22
0.5252236613882323
 32
0.0
 13
0.8172945438745189
 23
0.5762201216140773
 33
0.0
 40
0.0
 40
0.0
 40
0.0
 40
0.0
 40
0.0047019157541247
 40
0.0093443198297579
 40
0.0139291521115083
 40
0.0184590743159917
 40
0.0229364860028327
 40
0.0273636402143999
 40
0.0317432883534608
 40
0.0360776575447299
 40
0.0403685722649762
 40
0.044618676368939
 40
0.0488302954991717
 40
0.0530049414478204
 40
0.057144607865971
 40
0.0612518435112959
 40
0.0653285306234621
 40
0.0693757270007414
 40
0.0733950964389169
 40
0.0773889949605927
 40
0.0813593842593104
 40
0.0853079917899795
 40
0.089236994301632
 40
0.0931477912053238
 40
0.0970413344560313
 40
0.1009194123896715
 40
0.1047841775456659
 40
0.1086374958530185
 40
0.1124811054472728
 40
0.1163163966085051
 40
0.1201452691690834
 40
0.1239691756265703
 40
0.1277898729239415
 40
0.1316072307206265
 40
0.1354173090856944
 40
0.1392161785298991
 40
0.1430034453796991
 40
0.1467803631119003
 40
0.1505483122606141
 40
0.1543089726055559
 40
0.158063492410278
 40
0.1618138625670717
 40
0.1655616668396325
 40
0.1693087547590037
 40
0.173055685557649
 40
0.1768034787439044
 40
0.1805543609490563
 40
0.1843096587385596
 40
0.188071329061588
 40
0.191841373379201
 40
0.1956203932669845
 40
0.1994089348405484
 40
0.2032084524709039
 40
0.207021265849762
 40
0.2108483044200248
 40
0.2146903499365488
 40
0.2185490132658543
 40
0.2224266412699857
 40
0.2263243172392655
 40
0.2302432541949978
 40
0.2341858474688422
 40
0.238153330926484
 40
0.2421466861374155
 40
0.2461682310483342
 40
0.2502194277479272
 40
0.2543013372850267
 40
0.2584163084809423
 40
0.262565977025545
 40
0.262565977025545
 40
0.262565977025545
 40
0.262565977025545
 10
77.88626639809985
 20
-5.447181919099987
 30
0.0
 10
77.88760011879225
 20
-5.446358733297347
 30
0.0
 10
77.89024966326545
 20
-5.444721133661806
 30
0.0
 10
77.89419621126075
 20
-5.442275180098707
 30
0.0
 10
77.89809111059873
 20
-5.439854727040948
 30
0.0
 10
77.90193642680037
 20
-5.437458689661042
 30
0.0
 10
77.90573444595153
 20
-5.435086138390064
 30
0.0
 10
77.9094874700717
 20
-5.432736109925177
 30
0.0
 10
77.91319742237909
 20
-5.430407143806684
 30
0.0
 10
77.91686636393731
 20
-5.428098268763107
 30
0.0
 10
77.92049624945801
 20
-5.425808410389812
 30
0.0
 10
77.92408907420429
 20
-5.423536496600273
 30
0.0
 10
77.9276467341119
 20
-5.421281492533446
 30
0.0
 10
77.93117093839533
 20
-5.41904247302981
 30
0.0
 10
77.934663453664
 20
-5.416818464028287
 30
0.0
 10
77.93812614560244
 20
-5.414608416657195
 30
0.0
 10
77.94156061177822
 20
-5.41241144132179
 30
0.0
 10
77.94496819730925
 20
-5.410226800769693
 30
0.0
 10
77.94835037660442
 20
-5.408053666394669
 30
0.0
 10
77.95170887301359
 20
-5.405891039268686
 30
0.0
 10
77.95504542336302
 20
-5.403737901846732
 30
0.0
 10
77.95836170988863
 20
-5.401593261873427
 30
0.0
 10
77.96165925307191
 20
-5.399456221817429
 30
0.0
 10
77.96493935280711
 20
-5.397326018814531
 30
0.0
 10
77.96820319743449
 20
-5.395201955688646
 30
0.0
 10
77.97145218264808
 20
-5.393083193399431
 30
0.0
 10
77.9746879554921
 20
-5.390968720383818
 30
0.0
 10
77.97791214506602
 20
-5.38885752801143
 30
0.0
 10
77.981126164187
 20
-5.386748740995659
 30
0.0
 10
77.98433143179767
 20
-5.384641472627272
 30
0.0
 10
77.98752928392272
 20
-5.38253488325072
 30
0.0
 10
77.99072115559013
 20
-5.380428061201342
 30
0.0
 10
77.99390791404758
 20
-5.378320462956245
 30
0.0
 10
77.99708892620242
 20
-5.376212534795544
 30
0.0
 10
78.00026198246129
 20
-5.374105775290408
 30
0.0
 10
78.00342480570151
 20
-5.372001739877352
 30
0.0
 10
78.00657656476707
 20
-5.369901031966941
 30
0.0
 10
78.00971790170216
 20
-5.367803273687491
 30
0.0
 10
78.01285003142723
 20
-5.365707700344874
 30
0.0
 10
78.01597413674724
 20
-5.363613562172177
 30
0.0
 10
78.01909156697132
 20
-5.361519992273463
 30
0.0
 10
78.02220364164225
 20
-5.359426136720172
 30
0.0
 10
78.0253118712053
 20
-5.357331006472715
 30
0.0
 10
78.02841736726975
 20
-5.355233874509684
 30
0.0
 10
78.03152108357048
 20
-5.35313411602951
 30
0.0
 10
78.03462407560002
 20
-5.351031032246452
 30
0.0
 10
78.03772760842905
 20
-5.348923777639692
 30
0.0
 10
78.04083320273329
 20
-5.3468113268137
 30
0.0
 10
78.04394231357432
 20
-5.344692691324999
 30
0.0
 10
78.04705619372239
 20
-5.342567014994919
 30
0.0
 10
78.05017570494697
 20
-5.34043370297385
 30
0.0
 10
78.05330155725471
 20
-5.338292261544526
 30
0.0
 10
78.0564349311405
 20
-5.336141870421688
 30
0.0
 10
78.05957711018649
 20
-5.333981633721919
 30
0.0
 10
78.06272919039287
 20
-5.331810778480761
 30
0.0
 10
78.06589207128965
 20
-5.3296286630431
 30
0.0
 10
78.06906703937369
 20
-5.327434374674313
 30
0.0
 10
78.07225546109972
 20
-5.325226939577741
 30
0.0
 10
78.07545859069425
 20
-5.323005454882352
 30
0.0
 10
78.07867769522161
 20
-5.320769007905425
 30
0.0
 10
78.08191407269413
 20
-5.318516642670138
 30
0.0
 10
78.08516898398302
 20
-5.316247484770655
 30
0.0
 10
78.08844355883127
 20
-5.313960517339248
 30
0.0
 10
78.09173939167732
 20
-5.311655255438398
 30
0.0
 10
78.09505750226668
 20
-5.309330345432935
 30
0.0
 10
78.09839916639927
 20
-5.306984783122703
 30
0.0
 10
78.10176572663538
 20
-5.304617558719944
 30
0.0
 10
78.10401793811308
 20
-5.303031081837798
 30
0.0
 10
78.10514843859988
 20
-5.302234040999988
 30
0.0
 11
77.88626639809985
 21
-5.447181919099987
 31
0.0
 11
77.89026606709985
 21
-5.444709922900015
 31
0.0
 11
77.89421217679984
 21
-5.442264432899972
 31
0.0
 11
77.89810648639987
 21
-5.439844623399974
 31
0.0
 11
77.90195136159986
 21
-5.437449275499997
 31
0.0
 11
77.90574891129978
 21
-5.435077312799987
 31
0.0
 11
77.90950112409979
 21
-5.432727717699944
 31
0.0
 11
77.91321045739988
 21
-5.430399162999972
 31
0.0
 11
77.91687888239978
 21
-5.428090610099983
 31
0.0
 11
77.92050802379987
 21
-5.425801225099999
 31
0.0
 11
77.92410019369987
 21
-5.423529727399992
 31
0.0
 11
77.92765742859986
 21
-5.421274995299993
 31
0.0
 11
77.93118107249989
 21
-5.419036334199999
 31
0.0
 11
77.93467287169979
 21
-5.416812783599992
 31
0.0
 11
77.93813503529992
 21
-5.414603075800013
 31
0.0
 11
77.94156920499978
 21
-5.412406292499978
 31
0.0
 11
77.94497632419979
 21
-5.410221953299979
 31
0.0
 11
77.94835784329992
 21
-5.408049245399976
 31
0.0
 11
77.95171579049982
 21
-5.405886974300014
 31
0.0
 11
77.95505185759981
 21
-5.403734151099965
 31
0.0
 11
77.95836753539976
 21
-5.401589907099973
 31
0.0
 11
77.96166468769985
 21
-5.399453122699978
 31
0.0
 11
77.96494452189991
 21
-5.397323094499993
 31
0.0
 11
77.96820786749987
 21
-5.395199358499978
 31
0.0
 11
77.97145625229979
 21
-5.393080990100001
 31
0.0
 11
77.97469150509988
 21
-5.390966859299962
 31
0.0
 11
77.97791521059986
 21
-5.388855986299998
 31
0.0
 11
77.98112884289986
 21
-5.386747455499998
 31
0.0
 11
77.98433358199992
 21
-5.384640536999993
 31
0.0
 11
77.98753103049984
 21
-5.38253421599998
 31
0.0
 11
77.99072241409982
 21
-5.380427718599943
 31
0.0
 11
77.99390920949992
 21
-5.378320098399964
 31
0.0
 11
77.99709131719982
 21
-5.376211446899985
 31
0.0
 11
78.00026546539976
 21
-5.374103964899998
 31
0.0
 11
78.00342839869978
 21
-5.371999858899981
 31
0.0
 11
78.00657981089983
 21
-5.36989938479999
 31
0.0
 11
78.00972076599983
 21
-5.367801884199987
 31
0.0
 11
78.01285243119986
 21
-5.365706624299943
 31
0.0
 11
78.01597621949992
 21
-5.363612701399999
 31
0.0
 11
78.01909309969989
 21
-5.361519503599991
 31
0.0
 11
78.02220473729978
 21
-5.35942594489998
 31
0.0
 11
78.02531245659981
 21
-5.357331161399994
 31
0.0
 11
78.02841779919987
 21
-5.355234135999975
 31
0.0
 11
78.03152123499984
 21
-5.353134570099993
 31
0.0
 11
78.0346236136998
 21
-5.351031904999983
 31
0.0
 11
78.0377267817999
 21
-5.348924901099988
 31
0.0
 11
78.04083183779977
 21
-5.346812819399983
 31
0.0
 11
78.04394039849984
 21
-5.344694561999999
 31
0.0
 11
78.04705411419985
 21
-5.342569001100001
 31
0.0
 11
78.05017347639983
 21
-5.340435794299989
 31
0.0
 11
78.05329892999981
 21
-5.338294629299978
 31
0.0
 11
78.05643166769988
 21
-5.3361446783
 31
0.0
 11
78.05957359279983
 21
-5.333984619699945
 31
0.0
 11
78.06272545979988
 21
-5.33181391489998
 31
0.0
 11
78.06588790019993
 21
-5.329632107099994
 31
0.0
 11
78.06906222629987
 21
-5.327438266299961
 31
0.0
 11
78.07225035269977
 21
-5.325231039500009
 31
0.0
 11
78.07545315199985
 21
-5.3230097885
 31
0.0
 11
78.07867160159988
 21
-5.320773798599985
 31
0.0
 11
78.0819076471999
 21
-5.318521676699985
 31
0.0
 11
78.08516227809985
 21
-5.316252688799973
 31
0.0
 11
78.08843627479979
 21
-5.313966242499985
 31
0.0
 11
78.09173147889982
 21
-5.311661000299976
 31
0.0
 11
78.09504908779985
 21
-5.309336068299981
 31
0.0
 11
78.09838995369983
 21
-5.306990790599965
 31
0.0
 11
78.10175596879989
 21
-5.30462377659998
 31
0.0
 11
78.10514843859988
 21
-5.302234040999988
 31
0.0
  0
SPLINE
  5
55EE9
330
1F
100
AcDbEntity
  8
1
100
AcDbSpline
210
0.0
220
0.0
230
1.0
 70
     8
 71
     3
 72
    73
 73
    69
 74
    67
 42
0.0000000001
 43
0.0000000001
 44
0.000001
 12
0.8951164761837326
 22
0.4458323609434578
 32
0.0
 13
0.8637678588727787
 23
0.5038899542343898
 33
0.0
 40
0.0
 40
0.0
 40
0.0
 40
0.0
 40
0.0046284138717964
 40
0.0092001167807283
 40
0.0137177393213145
 40
0.0181838080545415
 40
0.0226003390753075
 40
0.0269699529426666
 40
0.0312951294743047
 40
0.0355776683626983
 40
0.0398195207430917
 40
0.0440233114705987
 40
0.0481910391634767
 40
0.0523241332968369
 40
0.0564247880745139
 40
0.0604954073932049
 40
0.0645374900816521
 40
0.0685520844903287
 40
0.0725410284632158
 40
0.0765066336416106
 40
0.0804506150733416
 40
0.0843749001544719
 40
0.0882815038270837
 40
0.0921714165557579
 40
0.0960459547862472
 40
0.0999071691715641
 40
0.1037569782046562
 40
0.1075972327322374
 40
0.1114292185399656
 40
0.1152547411355296
 40
0.1190759565295658
 40
0.1228943565961278
 40
0.1267096943699537
 40
0.130520789807855
 40
0.1343268417515245
 40
0.1381257677068234
 40
0.1419158418816272
 40
0.1456972818862521
 40
0.1494712226964499
 40
0.1532394588493016
 40
0.1570039299934806
 40
0.1607668558319006
 40
0.1645294602557397
 40
0.1682921592185975
 40
0.1720557545557597
 40
0.1758225449571302
 40
0.1795936493327712
 40
0.1833699430828675
 40
0.1871532871161784
 40
0.1909458946301209
 40
0.1947488288198596
 40
0.198563312223911
 40
0.2023918091059539
 40
0.2062352393724381
 40
0.2100940931956111
 40
0.2139689557604941
 40
0.2178622049245062
 40
0.2217757312471567
 40
0.2257117515499613
 40
0.2296714713622043
 40
0.2336565170799391
 40
0.2376683178642786
 40
0.2417086202719844
 40
0.24577909319077
 40
0.2498817064084998
 40
0.2540183236899498
 40
0.2581900854595124
 40
0.2623977851671118
 40
0.2623977851671118
 40
0.2623977851671118
 40
0.2623977851671118
 10
77.65564258409978
 20
-5.572242150799976
 30
0.0
 10
77.6570235739382
 20
-5.571554318572013
 30
0.0
 10
77.65976770760869
 20
-5.570185223845479
 30
0.0
 10
77.66385658349907
 20
-5.568138374699416
 30
0.0
 10
77.66789440236157
 20
-5.566110431418878
 30
0.0
 10
77.67188340524512
 20
-5.564100545758288
 30
0.0
 10
77.67582579828371
 20
-5.562107806621394
 30
0.0
 10
77.67972402994198
 20
-5.560131813503034
 30
0.0
 10
77.6835799701779
 20
-5.558171181892882
 30
0.0
 10
77.68739561430166
 20
-5.55622526852511
 30
0.0
 10
77.69117290827449
 20
-5.554293224544025
 30
0.0
 10
77.69491387478925
 20
-5.552374205085916
 30
0.0
 10
77.6986203705608
 20
-5.550467421679817
 30
0.0
 10
77.70229412147227
 20
-5.548572144599244
 30
0.0
 10
77.70593696883318
 20
-5.546687572447828
 30
0.0
 10
77.70955076953057
 20
-5.544812882945865
 30
0.0
 10
77.71313703740986
 20
-5.542947421358915
 30
0.0
 10
77.71669711523381
 20
-5.541090612337725
 30
0.0
 10
77.72023258268095
 20
-5.539241748339126
 30
0.0
 10
77.72374521242634
 20
-5.537400010796054
 30
0.0
 10
77.72723679935632
 20
-5.535564558743073
 30
0.0
 10
77.7307090467078
 20
-5.533734588981378
 30
0.0
 10
77.7341634406734
 20
-5.531909404115401
 30
0.0
 10
77.73760128369826
 20
-5.530088394541639
 30
0.0
 10
77.74102388651525
 20
-5.528270940530628
 30
0.0
 10
77.74443282954229
 20
-5.526456270310656
 30
0.0
 10
77.74782984717393
 20
-5.524643521981271
 30
0.0
 10
77.7512164451856
 20
-5.52283194650183
 30
0.0
 10
77.75459409318713
 20
-5.521020806832821
 30
0.0
 10
77.75796434717297
 20
-5.519209311566983
 30
0.0
 10
77.76132882043204
 20
-5.517396630602673
 30
0.0
 10
77.76468852081976
 20
-5.51558225236524
 30
0.0
 10
77.76804347662018
 20
-5.513766191469443
 30
0.0
 10
77.77139304459891
 20
-5.511948827471509
 30
0.0
 10
77.77473604558212
 20
-5.510130834965863
 30
0.0
 10
77.7780711431976
 20
-5.508312980105869
 30
0.0
 10
77.78139730256291
 20
-5.506495872427779
 30
0.0
 10
77.78471443093325
 20
-5.504679608813047
 30
0.0
 10
77.78802346455705
 20
-5.502863721909552
 30
0.0
 10
77.79132584060386
 20
-5.501047463835092
 30
0.0
 10
77.79462330979211
 20
-5.499229906344004
 30
0.0
 10
77.79791745286235
 20
-5.497410206710129
 30
0.0
 10
77.80120940322936
 20
-5.495587762690336
 30
0.0
 10
77.80449987898116
 20
-5.493762197518917
 30
0.0
 10
77.80778991015868
 20
-5.491932958125863
 30
0.0
 10
77.81108072948168
 20
-5.490099373680252
 30
0.0
 10
77.81437358837701
 20
-5.488260756467775
 30
0.0
 10
77.81766960915385
 20
-5.486416486795036
 30
0.0
 10
77.82097022980159
 20
-5.484565762083206
 30
0.0
 10
77.82427694031648
 20
-5.482707744472823
 30
0.0
 10
77.82759104241193
 20
-5.480841695383004
 30
0.0
 10
77.8309139084698
 20
-5.478966831155568
 30
0.0
 10
77.83424686661797
 20
-5.477082386896516
 30
0.0
 10
77.83759103052211
 20
-5.475187714417545
 30
0.0
 10
77.84094696691784
 20
-5.473282470854778
 30
0.0
 10
77.84431566475982
 20
-5.471366072722959
 30
0.0
 10
77.84769851601112
 20
-5.469437700956176
 30
0.0
 10
77.85109738299458
 20
-5.467496263427827
 30
0.0
 10
77.85451378447004
 20
-5.4655408544743
 30
0.0
 10
77.85794916249955
 20
-5.463570611727145
 30
0.0
 10
77.86140472064861
 20
-5.461584784904504
 30
0.0
 10
77.86488184886962
 20
-5.459582585894685
 30
0.0
 10
77.86838182527805
 20
-5.457563004829603
 30
0.0
 10
77.87190654065458
 20
-5.455525731985217
 30
0.0
 10
77.87545716310245
 20
-5.453469128436201
 30
0.0
 10
77.8790351876784
 20
-5.451392474358736
 30
0.0
 10
77.88264164531262
 20
-5.449295030486396
 30
0.0
 10
77.88505490617746
 20
-5.447888658304352
 30
0.0
 10
77.88626639809985
 20
-5.447181919099987
 30
0.0
 11
77.65564258409978
 21
-5.572242150799976
 31
0.0
 11
77.65978419619985
 21
-5.570175897199986
 31
0.0
 11
77.66387238899989
 21
-5.568129551899998
 31
0.0
 11
77.66790961129988
 21
-5.566102156299959
 31
0.0
 11
77.67189821209985
 21
-5.564092782599997
 31
0.0
 11
77.67584006149985
 21
-5.562100727100013
 31
0.0
 11
77.67973751379992
 21
-5.560125025399996
 31
0.0
 11
77.68359293149986
 21
-5.558164691199975
 31
0.0
 11
77.68740799389985
 21
-5.556219070399973
 31
0.0
 11
77.69118451029981
 21
-5.55428742949999
 31
0.0
 11
77.69492488439988
 21
-5.552368716799946
 31
0.0
 11
77.69863095699981
 21
-5.550462154499994
 31
0.0
 11
77.70230405839976
 21
-5.548567215799974
 31
0.0
 11
77.70594619449986
 21
-5.546683014799978
 31
0.0
 11
77.7095595521999
 21
-5.544808558399976
 31
0.0
 11
77.71314551049982
 21
-5.542943260999946
 31
0.0
 11
77.71670504559989
 21
-5.54108673819999
 31
0.0
 11
77.72023983069988
 21
-5.539238234199983
 31
0.0
 11
77.72375195459989
 21
-5.53739676499998
 31
0.0
 11
77.72724297329983
 21
-5.535561614699983
 31
0.0
 11
77.73071462699984
 21
-5.533731960999999
 31
0.0
 11
77.73416872949981
 21
-5.531906933099945
 31
0.0
 11
77.73760618529985
 21
-5.530086131799973
 31
0.0
 11
77.74102818489978
 21
-5.528269001099998
 31
0.0
 11
77.74443656399984
 21
-5.526454634199977
 31
0.0
 11
77.74783303789985
 21
-5.524642179099997
 31
0.0
 11
77.75121925859986
 21
-5.522830808599988
 31
0.0
 11
77.75459637679984
 21
-5.521019956099988
 31
0.0
 11
77.75796599839992
 21
-5.519208803899997
 31
0.0
 11
77.76133003449984
 21
-5.517396361599989
 31
0.0
 11
77.76468980799979
 21
-5.5155819471
 31
0.0
 11
77.76804511039978
 21
-5.513765701799994
 31
0.0
 11
77.77139491379983
 21
-5.5119482133
 31
0.0
 11
77.77473852529984
 21
-5.510129892000006
 31
0.0
 11
77.7780741287998
 21
-5.508311764799996
 31
0.0
 11
77.78140022519989
 21
-5.506494694699993
 31
0.0
 11
77.78471702249982
 21
-5.504678615699985
 31
0.0
 11
77.78802553249985
 21
-5.502863019499981
 31
0.0
 11
77.79132734279989
 21
-5.501047075899974
 31
0.0
 11
77.79462416479981
 21
-5.499229878499987
 31
0.0
 11
77.79791795159991
 21
-5.497410379100014
 31
0.0
 11
77.80120978149985
 21
-5.495588005199974
 31
0.0
 11
77.80450002439983
 21
-5.493762572699948
 31
0.0
 11
77.80778938679981
 21
-5.491933708699971
 31
0.0
 11
77.81107988119976
 21
-5.490100308799978
 31
0.0
 11
77.81437248629988
 21
-5.48826183699998
 31
0.0
 11
77.81766796669984
 21
-5.486417873299981
 31
0.0
 11
77.82096794489992
 21
-5.484567512599992
 31
0.0
 11
77.82427434749985
 21
-5.482709671799963
 31
0.0
 11
77.82758809559988
 21
-5.480843825899964
 31
0.0
 11
77.83091024739981
 21
-5.478969368599988
 31
0.0
 11
77.83424293989988
 21
-5.477085078699983
 31
0.0
 11
77.83758696289982
 21
-5.475190490099973
 31
0.0
 11
77.84094273109992
 21
-5.473285346399987
 31
0.0
 11
77.84431074139985
 21
-5.471369343600001
 31
0.0
 11
77.84769304679986
 21
-5.469441287599974
 31
0.0
 11
77.85109127369986
 21
-5.467500219999974
 31
0.0
 11
77.85450732849978
 21
-5.465545014799998
 31
0.0
 11
77.85794223709984
 21
-5.463575043499983
 31
0.0
 11
77.86139738859986
 21
-5.461589465000001
 31
0.0
 11
77.86487399879985
 21
-5.459587532499992
 31
0.0
 11
77.86837355629979
 21
-5.457568336799964
 31
0.0
 11
77.87189741389983
 21
-5.455531041699996
 31
0.0
 11
77.87544732299983
 21
-5.453474574399988
 31
0.0
 11
77.87902486949981
 21
-5.451397951399995
 31
0.0
 11
77.88263100949992
 21
-5.449300549799997
 31
0.0
 11
77.88626639809985
 21
-5.447181919099987
 31
0.0
  0
SPLINE
  5
55EEA
330
1F
100
AcDbEntity
  8
1
100
AcDbSpline
210
0.0
220
0.0
230
1.0
 70
     8
 71
     3
 72
    72
 73
    68
 74
    66
 42
0.0000000001
 43
0.0000000001
 44
0.000001
 12
0.9324485846520691
 22
0.3613026943995201
 32
0.0
 13
0.903401563444131
 23
0.428795540049917
 33
0.0
 40
0.0
 40
0.0
 40
0.0
 40
0.0
 40
0.0046249144192078
 40
0.0091954528950085
 40
0.0137135997965598
 40
0.0181816760718259
 40
0.0226019951240137
 40
0.0269775444997487
 40
0.031310099289379
 40
0.0356013290901649
 40
0.0398538020785475
 40
0.0440700991476288
 40
0.0482518323120857
 40
0.0524005638347824
 40
0.0565190108164325
 40
0.0606090857687661
 40
0.0646719712204667
 40
0.0687089228938229
 40
0.0727223871592927
 40
0.0767143302675226
 40
0.0806865079606026
 40
0.0846412095264527
 40
0.0885796679287698
 40
0.0925030608701901
 40
0.0964134735700929
 40
0.1003127459791939
 40
0.1042028908698678
 40
0.10808517153578
 40
0.111961550172565
 40
0.1158339123462321
 40
0.1197041275816091
 40
0.1235723072266208
 40
0.1274382665121416
 40
0.1313012533299873
 40
0.1351594316291128
 40
0.1390113844704443
 40
0.1428573450759574
 40
0.1466972482131587
 40
0.1505309673239316
 40
0.1543601311604949
 40
0.1581867207627307
 40
0.1620131603702823
 40
0.1658413925150453
 40
0.169673686731517
 40
0.1735112138493038
 40
0.1773543493640583
 40
0.1812038898237149
 40
0.1850621051578541
 40
0.1889306896739435
 40
0.1928107226804579
 40
0.1967043473524806
 40
0.2006135001681745
 40
0.2045390085622229
 40
0.2084812341773828
 40
0.2124417126154823
 40
0.2164226557844393
 40
0.2204262167962726
 40
0.2244544615566696
 40
0.2285090608004406
 40
0.2325921017894795
 40
0.2367050031851878
 40
0.2408485918274104
 40
0.2450248878673716
 40
0.2492359334651976
 40
0.2534830100514063
 40
0.2577679480701716
 40
0.262093323316681
 40
0.262093323316681
 40
0.262093323316681
 40
0.262093323316681
 10
77.41518345879985
 20
-5.6763632226
 30
0.0
 10
77.41662095710129
 20
-5.675806224586324
 30
0.0
 10
77.41947820444697
 20
-5.67469658648906
 30
0.0
 10
77.42373683610728
 20
-5.673035279712395
 30
0.0
 10
77.42794430877629
 20
-5.671386695015343
 30
0.0
 10
77.43210277826214
 20
-5.669750313870554
 30
0.0
 10
77.43621463549223
 20
-5.668125300607757
 30
0.0
 10
77.44028235385556
 20
-5.666511519491447
 30
0.0
 10
77.44430783917133
 20
-5.664907981541047
 30
0.0
 10
77.44829303507708
 20
-5.66331417293614
 30
0.0
 10
77.45224011074367
 20
-5.66172941787013
 30
0.0
 10
77.45615121745084
 20
-5.660153046361015
 30
0.0
 10
77.46002818919537
 20
-5.658584496740503
 30
0.0
 10
77.4638728986466
 20
-5.657023180662172
 30
0.0
 10
77.46768730669974
 20
-5.655468459650949
 30
0.0
 10
77.4714732529135
 20
-5.65391973183591
 30
0.0
 10
77.47523212216314
 20
-5.652376569451555
 30
0.0
 10
77.47896546138605
 20
-5.65083846999872
 30
0.0
 10
77.48267505508803
 20
-5.649304820948474
 30
0.0
 10
77.48636283820241
 20
-5.6477749365913
 30
0.0
 10
77.49003069337724
 20
-5.646248141096615
 30
0.0
 10
77.49368027376686
 20
-5.644723842686339
 30
0.0
 10
77.49731305173068
 20
-5.643201516048604
 30
0.0
 10
77.5009304339319
 20
-5.641680654534374
 30
0.0
 10
77.50453401094421
 20
-5.64016066635943
 30
0.0
 10
77.50812562621241
 20
-5.638640842534645
 30
0.0
 10
77.51170686759954
 20
-5.637120572689623
 30
0.0
 10
77.51527935756065
 20
-5.635599223271567
 30
0.0
 10
77.51884467642935
 20
-5.634076169687242
 30
0.0
 10
77.5224045872676
 20
-5.632550700385225
 30
0.0
 10
77.52596028323106
 20
-5.631022339937505
 30
0.0
 10
77.52951232151353
 20
-5.629490880687692
 30
0.0
 10
77.53306045662416
 20
-5.627956460239591
 30
0.0
 10
77.53660384825157
 20
-5.626419475912102
 30
0.0
 10
77.54014128133571
 20
-5.624880492966966
 30
0.0
 10
77.54367184435969
 20
-5.623339950823377
 30
0.0
 10
77.54719516816504
 20
-5.621798055642685
 30
0.0
 10
77.5507112781589
 20
-5.620254842047782
 30
0.0
 10
77.55422062548021
 20
-5.618710156918256
 30
0.0
 10
77.55772428432229
 20
-5.617163569262482
 30
0.0
 10
77.56122410446199
 20
-5.615614299332083
 30
0.0
 10
77.56472202775796
 20
-5.614061516773295
 30
0.0
 10
77.56822008047909
 20
-5.612504344179074
 30
0.0
 10
77.57171990409339
 20
-5.610942066914752
 30
0.0
 10
77.57522266002744
 20
-5.609374176281622
 30
0.0
 10
77.57872906056869
 20
-5.607800361864354
 30
0.0
 10
77.5822401507149
 20
-5.606220159715288
 30
0.0
 10
77.58575737427126
 20
-5.604632920795584
 30
0.0
 10
77.58928225851311
 20
-5.603037951828833
 30
0.0
 10
77.59281628953454
 20
-5.601434570981435
 30
0.0
 10
77.59636102471936
 20
-5.599822058152579
 30
0.0
 10
77.5999179421073
 20
-5.598199721585388
 30
0.0
 10
77.60348797739831
 20
-5.596567111505222
 30
0.0
 10
77.60707194355134
 20
-5.594923831081183
 30
0.0
 10
77.61067107161705
 20
-5.593269288118335
 30
0.0
 10
77.61428713277013
 20
-5.591602635730133
 30
0.0
 10
77.6179220554852
 20
-5.589922946096426
 30
0.0
 10
77.62157760191323
 20
-5.588229361595163
 30
0.0
 10
77.62525550958234
 20
-5.586521023819967
 30
0.0
 10
77.62895732348335
 20
-5.584797172081055
 30
0.0
 10
77.63268431082813
 20
-5.58305711580237
 30
0.0
 10
77.63643779146756
 20
-5.58130033020168
 30
0.0
 10
77.64021927373102
 20
-5.579526201637085
 30
0.0
 10
77.64403017761432
 20
-5.577733572211998
 30
0.0
 10
77.64787206437995
 20
-5.575921734862335
 30
0.0
 10
77.65174659871767
 20
-5.574089784505663
 30
0.0
 10
77.65434006717973
 20
-5.572860384671558
 30
0.0
 10
77.65564258409978
 20
-5.572242150799976
 30
0.0
 11
77.41518345879985
 21
-5.6763632226
 31
0.0
 11
77.41949471119989
 21
-5.674688968099983
 31
0.0
 11
77.42375282329982
 21
-5.673027995799995
 31
0.0
 11
77.42795972689981
 21
-5.671379840199987
 31
0.0
 11
77.4321176621998
 21
-5.66974389659998
 31
0.0
 11
77.43622885719986
 21
-5.668119546499976
 31
0.0
 11
77.44029603829978
 21
-5.666505954499994
 31
0.0
 11
77.44432101039985
 21
-5.664902632399983
 31
0.0
 11
77.44830541179982
 21
-5.663309143799976
 31
0.0
 11
77.45225169009978
 21
-5.661724713699981
 31
0.0
 11
77.45616229899981
 21
-5.660148546899987
 31
0.0
 11
77.46003878859989
 21
-5.6585801967
 31
0.0
 11
77.46388265939987
 21
-5.657019225399976
 31
0.0
 11
77.46769647759987
 21
-5.655464749099987
 31
0.0
 11
77.47148205939987
 21
-5.653916174499981
 31
0.0
 11
77.47524054189985
 21
-5.652373175199981
 31
0.0
 11
77.47897312749985
 21
-5.650835390300015
 31
0.0
 11
77.48268211589977
 21
-5.649301995699996
 31
0.0
 11
77.48636935879989
 21
-5.647772339599979
 31
0.0
 11
77.49003650979983
 21
-5.646245841299982
 31
0.0
 11
77.49368571129986
 21
-5.644721705299983
 31
0.0
 11
77.49731812749979
 21
-5.643199534299977
 31
0.0
 11
77.50093486929978
 21
-5.641678946199985
 31
0.0
 11
77.50453788149986
 21
-5.640159200299987
 31
0.0
 11
77.50812887919988
 21
-5.638639641899996
 31
0.0
 11
77.51170973329982
 21
-5.637119540599994
 31
0.0
 11
77.51528162179983
 21
-5.635598451399997
 31
0.0
 11
77.51884636299981
 21
-5.634075648699988
 31
0.0
 11
77.52240570139981
 21
-5.632550428899945
 31
0.0
 11
77.52596136359994
 21
-5.631022087099976
 31
0.0
 11
77.52951345879984
 21
-5.629490607500001
 31
0.0
 11
77.53306182439979
 21
-5.627956091599996
 31
0.0
 11
77.53660577789988
 21
-5.626418867799996
 31
0.0
 11
77.54014364449978
 21
-5.624879700500001
 31
0.0
 11
77.54367413669985
 21
-5.623339193499986
 31
0.0
 11
77.54719748089979
 21
-5.62179729369998
 31
0.0
 11
77.55071362999984
 21
-5.620254067199992
 31
0.0
 11
77.55422248089992
 21
-5.618709604799986
 31
0.0
 11
77.55772553619983
 21
-5.617163287899981
 31
0.0
 11
77.56122461799993
 21
-5.615614349099982
 31
0.0
 11
77.56472195009981
 21
-5.614061833299984
 31
0.0
 11
77.56821931239989
 21
-5.612504972499975
 31
0.0
 11
77.57171878029982
 21
-5.610942858299948
 31
0.0
 11
77.57522142279987
 21
-5.609375022999981
 31
0.0
 11
77.57872758189984
 21
-5.607801321399986
 31
0.0
 11
77.58223798289981
 21
-5.6062214339
 31
0.0
 11
77.58575469259989
 21
-5.604634431500014
 31
0.0
 11
77.58927924999984
 21
-5.603039614999997
 31
0.0
 11
77.59281263149984
 21
-5.601436533600006
 31
0.0
 11
77.59635678019987
 21
-5.599824292299983
 31
0.0
 11
77.59991344779979
 21
-5.598202074499992
 31
0.0
 11
77.60348337469991
 21
-5.596569518899966
 31
0.0
 11
77.60706687689986
 21
-5.594926456199997
 31
0.0
 11
77.61066533649985
 21
-5.593272225599942
 31
0.0
 11
77.61428074739985
 21
-5.591605877999993
 31
0.0
 11
77.61791504679985
 21
-5.589926481799976
 31
0.0
 11
77.62157008959985
 21
-5.588233135299985
 31
0.0
 11
77.62524736919982
 21
-5.586525096499994
 31
0.0
 11
77.62894875429987
 21
-5.584801442899985
 31
0.0
 11
77.63267550469987
 21
-5.583061527899983
 31
0.0
 11
77.6364283010999
 21
-5.58130497189998
 31
0.0
 11
77.64020892229982
 21
-5.579530876999966
 31
0.0
 11
77.64401926629983
 21
-5.577738281699961
 31
0.0
 11
77.64786046299986
 21
-5.575926579599976
 31
0.0
 11
77.65173413699978
 21
-5.574094925799981
 31
0.0
 11
77.65564258409978
 21
-5.572242150799976
 31
0.0
  0
SPLINE
  5
55EEB
330
1F
100
AcDbEntity
  8
1
100
AcDbSpline
210
0.0
220
0.0
230
1.0
 70
     8
 71
     3
 72
    46
 73
    42
 74
    40
 42
0.0000000001
 43
0.0000000001
 44
0.000001
 12
-0.9999537832716146
 22
-0.0096141209054755
 32
0.0
 13
-0.9996162520729974
 23
0.027701057588724
 33
0.0
 40
0.0
 40
0.0
 40
0.0
 40
0.0
 40
0.0080424362486337
 40
0.015643866561479
 40
0.0231218226666326
 40
0.0305903094380605
 40
0.0380620753514182
 40
0.0455245770864641
 40
0.0530711943085489
 40
0.0609939155223623
 40
0.0696730198105912
 40
0.0793797854501287
 40
0.0897246831293952
 40
0.0998524482315045
 40
0.1091229319200823
 40
0.1175444275033921
 40
0.1254527427791945
 40
0.1331531217855928
 40
0.1407986021064222
 40
0.1484273645432142
 40
0.1560977113919042
 40
0.1638851013554972
 40
0.1718505989223953
 40
0.1798702111436052
 40
0.1874846026021292
 40
0.1943939045573739
 40
0.2008002157803723
 40
0.2070667011929551
 40
0.2135138299842916
 40
0.220208705658869
 40
0.2269437172859039
 40
0.2336123202612844
 40
0.2402506534549505
 40
0.2468926698039438
 40
0.2535544873770257
 40
0.2602259069058304
 40
0.2668954705198935
 40
0.2735901450932096
 40
0.280301209853713
 40
0.2869345556955477
 40
0.2935326589814249
 40
0.2935326589814249
 40
0.2935326589814249
 40
0.2935326589814249
 10
75.10311796359982
 20
-5.927563534799983
 30
0.0
 10
75.1004372754153
 20
-5.927589308451472
 30
0.0
 10
75.0952228364535
 20
-5.9276334274646
 30
0.0
 10
75.08751575225201
 20
-5.92768788901829
 30
0.0
 10
75.07999990035533
 20
-5.927728415286908
 30
0.0
 10
75.07252721936024
 20
-5.927757773897067
 30
0.0
 10
75.06505965547844
 20
-5.927776490213706
 30
0.0
 10
75.0575660292834
 20
-5.927784730692708
 30
0.0
 10
75.0499220803876
 20
-5.927782400461382
 30
0.0
 10
75.04187260887324
 20
-5.927768321535509
 30
0.0
 10
75.03310312241959
 20
-5.927739364783406
 30
0.0
 10
75.02352631598528
 20
-5.927691135506083
 30
0.0
 10
75.01346674257877
 20
-5.927621192571295
 30
0.0
 10
75.0035527605566
 20
-5.927531248560024
 30
0.0
 10
74.99428008807988
 20
-5.927427321101325
 30
0.0
 10
74.98574739825397
 20
-5.92731440429089
 30
0.0
 10
74.9777382488094
 20
-5.927193107103898
 30
0.0
 10
74.96998797241116
 20
-5.927061369069509
 30
0.0
 10
74.96233111479003
 20
-5.926917407468213
 30
0.0
 10
74.95468449555287
 20
-5.92676196343868
 30
0.0
 10
74.94699079791249
 20
-5.926595339642887
 30
0.0
 10
74.93918508417753
 20
-5.926417193942707
 30
0.0
 10
74.93126316906625
 20
-5.926228258753512
 30
0.0
 10
74.92339907471624
 20
-5.926033675998043
 30
0.0
 10
74.91588707285965
 20
-5.925842437804738
 30
0.0
 10
74.90891276678843
 20
-5.925660891641747
 30
0.0
 10
74.90238770350751
 20
-5.925487506394682
 30
0.0
 10
74.89601672843756
 20
-5.92531505161698
 30
0.0
 10
74.88954968308394
 20
-5.925136967794109
 30
0.0
 10
74.88292660045313
 20
-5.924951741787576
 30
0.0
 10
74.87622978918452
 20
-5.924762065638088
 30
0.0
 10
74.86955186518398
 20
-5.924571261732231
 30
0.0
 10
74.862904950455
 20
-5.924380523982857
 30
0.0
 10
74.85626029512317
 20
-5.924189902497057
 30
0.0
 10
74.84960458823144
 20
-5.923999917348078
 30
0.0
 10
74.84293965632147
 20
-5.923811301265965
 30
0.0
 10
74.83626375003109
 20
-5.923623310411835
 30
0.0
 10
74.82957457655698
 20
-5.923436995366412
 30
0.0
 10
74.82289746041138
 20
-5.923251399375057
 30
0.0
 10
74.81625252540331
 20
-5.923066584362088
 30
0.0
 10
74.811843740259
 20
-5.92294421501302
 30
0.0
 10
74.80964521649986
 20
-5.922883290199988
 30
0.0
 11
75.10311796359982
 21
-5.927563534799983
 31
0.0
 11
75.09507576089987
 21
-5.927633747399991
 31
0.0
 11
75.08747451689981
 21
-5.927687039299994
 31
0.0
 11
75.07999667329984
 21
-5.927727605499964
 31
0.0
 11
75.07252824779977
 21
-5.927756997699985
 31
0.0
 11
75.06505650879984
 21
-5.927775743599964
 31
0.0
 11
75.05759401439985
 21
-5.927783961399994
 31
0.0
 11
75.05004739979978
 21
-5.927781665099981
 31
0.0
 11
75.04212469259988
 21
-5.927767804200013
 31
0.0
 11
75.03344563729985
 21
-5.927739126699972
 31
0.0
 11
75.02373899629986
 21
-5.92769020349999
 31
0.0
 11
75.01339435159986
 21
-5.927617995499982
 31
0.0
 11
75.00326700569991
 21
-5.927525891799999
 31
0.0
 11
74.99399710549988
 21
-5.927421869499991
 31
0.0
 11
74.98557634749984
 21
-5.927310373499947
 31
0.0
 11
74.97766893869976
 21
-5.927190582500001
 31
0.0
 11
74.9699696702998
 21
-5.927059734799965
 31
0.0
 11
74.96232553299984
 21
-5.926916354999972
 31
0.0
 11
74.95469833939984
 21
-5.92676156019999
 31
0.0
 11
74.94702978389984
 21
-5.926595705699979
 31
0.0
 11
74.93924441439986
 21
-5.926418229999965
 31
0.0
 11
74.93128117429984
 21
-5.926228506100014
 31
0.0
 11
74.92326400809981
 21
-5.926030354299994
 31
0.0
 11
74.91565207759987
 21
-5.925836692799973
 31
0.0
 11
74.90874511389989
 21
-5.92565688029998
 31
0.0
 11
74.90234106079988
 21
-5.925486730699985
 31
0.0
 11
74.89607686709979
 21
-5.925317197099984
 31
0.0
 11
74.8896321772998
 21
-5.92513978619996
 31
0.0
 11
74.88293991239976
 21
-5.924952716899977
 31
0.0
 11
74.87620759259988
 21
-5.924762155399972
 31
0.0
 11
74.86954169939991
 21
-5.924571832799982
 31
0.0
 11
74.86290608319979
 21
-5.924381563300013
 31
0.0
 11
74.8562667769998
 21
-5.924191243699962
 31
0.0
 11
74.84960763889984
 21
-5.924001270099947
 31
0.0
 11
74.84293883869992
 21
-5.923812420299978
 31
0.0
 11
74.83627179239984
 21
-5.923624834599988
 31
0.0
 11
74.82957971529987
 21
-5.923437524799963
 31
0.0
 11
74.82287142549984
 21
-5.923250525900013
 31
0.0
 11
74.81624074599989
 21
-5.923066241299975
 31
0.0
 11
74.80964521649986
 21
-5.922883290199988
 31
0.0
  0
SPLINE
  5
55EEC
330
1F
100
AcDbEntity
  8
1
100
AcDbSpline
210
0.0
220
0.0
230
1.0
 70
     8
 71
     3
 72
    36
 73
    32
 74
    30
 42
0.0000000001
 43
0.0000000001
 44
0.000001
 12
-0.9996520991019984
 22
-0.0263757608604654
 32
0.0
 13
-0.9999472907375428
 23
-0.0102672170838906
 33
0.0
 40
0.0
 40
0.0
 40
0.0
 40
0.0
 40
0.0158507411262067
 40
0.0296376430515217
 40
0.0416572971634824
 40
0.0522485689309013
 40
0.0618163256791673
 40
0.0707860572641468
 40
0.0795805537045782
 40
0.0883863567413685
 40
0.097169797085104
 40
0.1059648539072668
 40
0.114861602897075
 40
0.1238485723825911
 40
0.1328519221936681
 40
0.1418118751403919
 40
0.1507366323935285
 40
0.1598430614809431
 40
0.1692974854694494
 40
0.1786671184479962
 40
0.1873247388594631
 40
0.1952690497848756
 40
0.2029699660643908
 40
0.2109371909375285
 40
0.2197176171046373
 40
0.2295217488560153
 40
0.2398338238781918
 40
0.2500577229380438
 40
0.2601918417157118
 40
0.2704053234516357
 40
0.2807461282121653
 40
0.2807461282121653
 40
0.2807461282121653
 40
0.2807461282121653
 10
75.38378144929976
 20
-5.920851848099997
 30
0.0
 10
75.37849970708672
 20
-5.920991206552465
 30
0.0
 10
75.36862396456857
 20
-5.921253097747591
 30
0.0
 10
75.35474300843765
 20
-5.921618539156388
 30
0.0
 10
75.34261461026445
 20
-5.921938172242906
 30
0.0
 10
75.33189208856086
 20
-5.922220104496509
 30
0.0
 10
75.32218584071618
 20
-5.922474715592947
 30
0.0
 10
75.31307829326781
 20
-5.922712905198518
 30
0.0
 10
75.30422462333047
 20
-5.92294367944484
 30
0.0
 10
75.29543300462657
 20
-5.923171883677686
 30
0.0
 10
75.28664118013904
 20
-5.923399357090519
 30
0.0
 10
75.27781904586849
 20
-5.923627436292889
 30
0.0
 10
75.26892909904413
 20
-5.923857571797261
 30
0.0
 10
75.25996976617017
 20
-5.924090341445706
 30
0.0
 10
75.25098940995675
 20
-5.924325099304759
 30
0.0
 10
75.24202983629137
 20
-5.924561308147636
 30
0.0
 10
75.23303599527742
 20
-5.92480145462533
 30
0.0
 10
75.22387742535727
 20
-5.925047341724547
 30
0.0
 10
75.21457057521456
 20
-5.925295655594682
 30
0.0
 10
75.20541316513223
 20
-5.925535849462105
 30
0.0
 10
75.19675881099681
 20
-5.925757370689647
 30
0.0
 10
75.18866037446419
 20
-5.925959147613339
 30
0.0
 10
75.18079186684217
 20
-5.926149837339905
 30
0.0
 10
75.17264460452189
 20
-5.926341786253856
 30
0.0
 10
75.16379629039477
 20
-5.926542733551945
 30
0.0
 10
75.15416632204933
 20
-5.926750697354071
 30
0.0
 10
75.14405500404504
 20
-5.926954553532073
 30
0.0
 10
75.13383336813726
 20
-5.927142887695985
 30
0.0
 10
75.12364420904058
 20
-5.927308717073029
 30
0.0
 10
75.11341571879555
 20
-5.927450973065077
 30
0.0
 10
75.10656471683458
 20
-5.927528144370883
 30
0.0
 10
75.10311796359982
 20
-5.927563534799983
 30
0.0
 11
75.38378144929976
 21
-5.920851848099997
 31
0.0
 11
75.36793623009981
 21
-5.921269793399996
 31
0.0
 11
75.35415411619982
 21
-5.921633109500018
 31
0.0
 11
75.34213862929988
 21
-5.921949586899982
 31
0.0
 11
75.33155101639983
 21
-5.922227957599997
 31
0.0
 11
75.32198654879977
 21
-5.922478813599977
 31
0.0
 11
75.31301988269984
 21
-5.922713300300014
 31
0.0
 11
75.30422837139991
 21
-5.922942422799987
 31
0.0
 11
75.29542553429981
 21
-5.923170954299989
 31
0.0
 11
75.28664503479984
 21
-5.923398227499999
 31
0.0
 11
75.27785291779986
 21
-5.923625609999985
 31
0.0
 11
75.26895915069982
 21
-5.923855931499983
 31
0.0
 11
75.25997521549976
 21
-5.924089439799982
 31
0.0
 11
75.25097494309983
 21
-5.924324811899991
 31
0.0
 11
75.24201810729988
 21
-5.924561121699977
 31
0.0
 11
75.23309652279984
 21
-5.924799053900014
 31
0.0
 11
75.22399336199981
 21
-5.925042980199972
 31
0.0
 11
75.21454229039983
 21
-5.925294695899991
 31
0.0
 11
75.20517587129979
 21
-5.925540046199982
 31
0.0
 11
75.19652108279984
 21
-5.925761430999981
 31
0.0
 11
75.18857923609977
 21
-5.925959253599982
 31
0.0
 11
75.18088058129984
 21
-5.926145836299977
 31
0.0
 11
75.17291556379979
 21
-5.926333329099972
 31
0.0
 11
75.16413739679984
 21
-5.926532445699987
 31
0.0
 11
75.15433554409987
 21
-5.926743758799997
 31
0.0
 11
75.14402555679982
 21
-5.926951150999967
 31
0.0
 11
75.13380338199984
 21
-5.927138760999977
 31
0.0
 11
75.12367060299976
 21
-5.927303305199981
 31
0.0
 11
75.11345810749986
 21
-5.927444911799963
 31
0.0
 11
75.10311796359982
 21
-5.927563534799983
 31
0.0
  0
SPLINE
  5
55EED
330
1F
100
AcDbEntity
  8
1
100
AcDbSpline
210
0.0
220
0.0
230
1.0
 70
     8
 71
     3
 72
    26
 73
    22
 74
    20
 42
0.0000000001
 43
0.0000000001
 44
0.000001
 12
-0.9643344450809337
 22
-0.264686754542889
 32
0.0
 13
-0.994374717450565
 23
-0.1059194094352339
 33
0.0
 40
0.0
 40
0.0
 40
0.0
 40
0.0
 40
0.0260324445661026
 40
0.0520600757241243
 40
0.0780827598932658
 40
0.1040996816700914
 40
0.1301087847325745
 40
0.1561107395782993
 40
0.1821061494036403
 40
0.2080965875526851
 40
0.2340836903607286
 40
0.2600682754241034
 40
0.286050246197409
 40
0.3120288284991024
 40
0.3380029586824747
 40
0.3639710102057348
 40
0.3899319523095915
 40
0.4158852529483555
 40
0.4418287584134765
 40
0.4677608207876112
 40
0.4936795178378106
 40
0.4936795178378106
 40
0.4936795178378106
 40
0.4936795178378106
 10
77.08707394789991
 20
-5.784674799900014
 30
0.0
 10
77.07870595357167
 20
-5.786971614321688
 30
0.0
 10
77.06195188910566
 20
-5.791493672241261
 30
0.0
 10
77.03676634438808
 20
-5.798061706360361
 30
0.0
 10
77.01153111969261
 20
-5.804415114821708
 30
0.0
 10
76.98624880700586
 20
-5.81055233688943
 30
0.0
 10
76.9609219531684
 20
-5.816472797795027
 30
0.0
 10
76.93555266088527
 20
-5.822176079635288
 30
0.0
 10
76.91014184841709
 20
-5.827662018140442
 30
0.0
 10
76.88469010972039
 20
-5.832930466161743
 30
0.0
 10
76.85919798056042
 20
-5.837981341792896
 30
0.0
 10
76.83366654685973
 20
-5.842814477195686
 30
0.0
 10
76.80809767826753
 20
-5.847429525980365
 30
0.0
 10
76.78249386397346
 20
-5.851826039747448
 30
0.0
 10
76.75685810441658
 20
-5.856003530895133
 30
0.0
 10
76.73119349247997
 20
-5.859961543165934
 30
0.0
 10
76.70550295616772
 20
-5.863699724219298
 30
0.0
 10
76.67978958541766
 20
-5.867217587345892
 30
0.0
 10
76.65405674417731
 20
-5.870515210035011
 30
0.0
 10
76.62830822028019
 20
-5.873592166782557
 30
0.0
 10
76.61112958948516
 20
-5.875496270805023
 30
0.0
 10
76.60253862379983
 20
-5.876411368499986
 30
0.0
 11
77.08707394789991
 21
-5.784674799900014
 31
0.0
 11
77.06194088189983
 21
-5.79145856969998
 31
0.0
 11
77.03675581539989
 21
-5.798027386099986
 31
0.0
 11
77.0115206709998
 21
-5.804380755899982
 31
0.0
 11
76.98623801309992
 21
-5.8105180391
 31
0.0
 11
76.96091169089988
 21
-5.816438355699999
 31
0.0
 11
76.9355429045998
 21
-5.822141500599967
 31
0.0
 11
76.91013291289988
 21
-5.827627233399992
 31
0.0
 11
76.88468202049984
 21
-5.832895491699982
 31
0.0
 11
76.85919047399983
 21
-5.83794624499998
 31
0.0
 11
76.83365932459986
 21
-5.842779314399987
 31
0.0
 11
76.80809051929981
 21
-5.847394336499999
 31
0.0
 11
76.78248667519989
 21
-5.851790840099964
 31
0.0
 11
76.75685070279979
 21
-5.855968347799998
 31
0.0
 11
76.73118607739985
 21
-5.859926346199982
 31
0.0
 11
76.70549569349993
 21
-5.863664460099982
 31
0.0
 11
76.67978195779989
 21
-5.867182414799996
 31
0.0
 11
76.65404879049977
 21
-5.870479766399965
 31
0.0
 11
76.62829969399985
 21
-5.873556189999987
 31
0.0
 11
76.60253862379983
 21
-5.876411368499986
 31
0.0
  0
SPLINE
  5
55EEE
330
1F
100
AcDbEntity
  8
1
100
AcDbSpline
210
0.0
220
0.0
230
1.0
 70
     8
 71
     3
 72
    25
 73
    21
 74
    19
 42
0.0000000001
 43
0.0000000001
 44
0.000001
 12
-0.3785758841779843
 22
-0.9255702566087881
 32
0.0
 13
-0.5147983708628665
 23
-0.8573112838152422
 33
0.0
 40
0.0
 40
0.0
 40
0.0
 40
0.0
 40
0.0264572324585061
 40
0.0529084875786353
 40
0.0793535665979915
 40
0.1057936377364961
 40
0.1322289042863333
 40
0.1586590777633185
 40
0.1850848144396861
 40
0.2115055466312882
 40
0.2379216014391665
 40
0.2643331401238972
 40
0.2907406538249529
 40
0.3171444652925603
 40
0.3435440807423981
 40
0.3699396073455141
 40
0.3963314874248012
 40
0.4227198095643283
 40
0.4491053593068992
 40
0.4754882762245459
 40
0.4754882762245459
 40
0.4754882762245459
 40
0.4754882762245459
 10
79.14796726989988
 20
-3.9547128641
 30
0.0
 10
79.14462857984293
 20
-3.962875539911926
 30
0.0
 10
79.13788268980818
 20
-3.979170817051959
 30
0.0
 10
79.12755778868046
 20
-4.003524003419821
 30
0.0
 10
79.11703006950602
 20
-4.027783986519586
 30
0.0
 10
79.10629936639387
 20
-4.051949036677653
 30
0.0
 10
79.09536638233382
 20
-4.076017788637586
 30
0.0
 10
79.08423189101793
 20
-4.099988717893062
 30
0.0
 10
79.0728967736639
 20
-4.123860068671554
 30
0.0
 10
79.06136182417779
 20
-4.147630270643785
 30
0.0
 10
79.0496279647716
 20
-4.171297632929899
 30
0.0
 10
79.0376959643966
 20
-4.194860783991344
 30
0.0
 10
79.02556658578262
 20
-4.218318348518338
 30
0.0
 10
79.01324068122945
 20
-4.241668751903002
 30
0.0
 10
79.00071922812397
 20
-4.264910341315658
 30
0.0
 10
78.98800318044459
 20
-4.288041498210856
 30
0.0
 10
78.97509344555669
 20
-4.311060800815027
 30
0.0
 10
78.96199063345995
 20
-4.333966923807453
 30
0.0
 10
78.94869659313184
 20
-4.356759115031512
 30
0.0
 10
78.93970549491573
 20
-4.371877286142167
 30
0.0
 10
78.9351782006998
 20
-4.379416743599986
 30
0.0
 11
79.14796726989988
 21
-3.9547128641
 31
0.0
 11
79.13784756359979
 21
-3.979158316699962
 31
0.0
 11
79.12752354069988
 21
-4.003511662099993
 31
0.0
 11
79.11699610199986
 21
-4.027770960500005
 31
0.0
 11
79.10626555849984
 21
-4.051935636999997
 31
0.0
 11
79.09533266359989
 21
-4.076004172799994
 31
0.0
 11
79.08419839189986
 21
-4.099974604499959
 31
0.0
 11
79.07286331999983
 21
-4.123845829199991
 31
0.0
 11
79.06132855379979
 21
-4.147615641800014
 31
0.0
 11
79.04959485499984
 21
-4.171282665899978
 31
0.0
 11
79.03766306579979
 21
-4.194845381299995
 31
0.0
 11
79.02553387369988
 21
-4.218302559999996
 31
0.0
 11
79.01320804099992
 21
-4.241652823199997
 31
0.0
 11
79.00068675339986
 21
-4.264894092899962
 31
0.0
 11
78.98797093519982
 21
-4.288024833399998
 31
0.0
 11
78.97506134619987
 21
-4.311043799399993
 31
0.0
 11
78.96195891569988
 21
-4.333949446499998
 31
0.0
 11
78.94866419629996
 21
-4.356740962199991
 31
0.0
 11
78.9351782006998
 21
-4.379416743599986
 31
0.0
  0
SPLINE
  5
55EEF
330
1F
100
AcDbEntity
  8
1
100
AcDbSpline
210
0.0
220
0.0
230
1.0
 70
     8
 71
     3
 72
    24
 73
    20
 74
    18
 42
0.0000000001
 43
0.0000000001
 44
0.000001
 12
-0.2333286664263413
 22
-0.9723979295657231
 32
0.0
 13
-0.3778117407848009
 23
-0.9258824377452887
 33
0.0
 40
0.0
 40
0.0
 40
0.0
 40
0.0
 40
0.027752976530628
 40
0.0554988383530705
 40
0.0832382896554863
 40
0.1109707634841926
 40
0.1386969393654173
 40
0.1664175964529479
 40
0.194133441540494
 40
0.2218448376701257
 40
0.2495528594228976
 40
0.2772579826401238
 40
0.3049606004250254
 40
0.3326607876236054
 40
0.360357768184219
 40
0.3880516154870019
 40
0.4157419670005424
 40
0.4434287770242817
 40
0.4711121659218661
 40
0.4711121659218661
 40
0.4711121659218661
 40
0.4711121659218661
 10
79.29217442269981
 20
-3.506688469299998
 30
0.0
 10
79.29001590103206
 20
-3.515684114939221
 30
0.0
 10
79.2856189982499
 20
-3.533653916123018
 30
0.0
 10
79.27878335194211
 20
-3.560545163642945
 30
0.0
 10
79.27171083742198
 20
-3.587368042021249
 30
0.0
 10
79.26440062511182
 20
-3.614120310926653
 30
0.0
 10
79.25685353873551
 20
-3.640800212797355
 30
0.0
 10
79.24906994468457
 20
-3.66740630238838
 30
0.0
 10
79.24105038317218
 20
-3.693937074171897
 30
0.0
 10
79.23279531747775
 20
-3.72039110346054
 30
0.0
 10
79.22430521385859
 20
-3.746766885011216
 30
0.0
 10
79.21558057010583
 20
-3.773062933293057
 30
0.0
 10
79.20662203129687
 20
-3.799277460630468
 30
0.0
 10
79.19743037241353
 20
-3.825408283392031
 30
0.0
 10
79.18800639276312
 20
-3.851453112925667
 30
0.0
 10
79.17835106550999
 20
-3.877409568111257
 30
0.0
 10
79.16846501048087
 20
-3.903275399736034
 30
0.0
 10
79.15835028659299
 20
-3.929048901994963
 30
0.0
 10
79.1514536396833
 20
-3.946169009567484
 30
0.0
 10
79.14796726989988
 20
-3.9547128641
 30
0.0
 11
79.29217442269981
 21
-3.506688469299998
 31
0.0
 11
79.28557846619987
 21
-3.533646304499993
 31
0.0
 11
79.27874393999985
 21
-3.560537259999986
 31
0.0
 11
79.27167129109983
 21
-3.587359867899973
 31
0.0
 11
79.26436126749985
 21
-3.614111547299995
 31
0.0
 11
79.2568143237998
 21
-3.640790822400003
 31
0.0
 11
79.24903089469984
 21
-3.667396321100011
 31
0.0
 11
79.24101146189986
 21
-3.693926613100001
 31
0.0
 11
79.23275659699976
 21
-3.720379937399979
 31
0.0
 11
79.22426664569986
 21
-3.746755207600028
 31
0.0
 11
79.21554215709985
 21
-3.773050773400013
 31
0.0
 11
79.20658374079988
 21
-3.79926491760001
 31
0.0
 11
79.1973921080999
 21
-3.825395621100011
 31
0.0
 11
79.1879682687998
 21
-3.851440066199995
 31
0.0
 11
79.17831298679988
 21
-3.877396246799944
 31
0.0
 11
79.16842719729988
 21
-3.903261763099973
 31
0.0
 11
79.15831167359984
 21
-3.929034673299991
 31
0.0
 11
79.14796726989988
 21
-3.9547128641
 31
0.0
  0
SPLINE
  5
55EF0
330
1F
100
AcDbEntity
  8
1
100
AcDbSpline
210
0.0
220
0.0
230
1.0
 70
     8
 71
     3
 72
    25
 73
    21
 74
    19
 42
0.0000000001
 43
0.0000000001
 44
0.000001
 12
-0.0799998420317446
 22
-0.9967948762282517
 32
0.0
 13
-0.2315011230781479
 23
-0.9728346365202858
 33
0.0
 40
0.0
 40
0.0
 40
0.0
 40
0.0
 40
0.0264489060131356
 40
0.0528830728040082
 40
0.0793012415727062
 40
0.1057024203043399
 40
0.1320874674275964
 40
0.1584566412982839
 40
0.184809595959438
 40
0.2111475092973927
 40
0.2374706466816943
 40
0.2637811222481001
 40
0.2900827845139339
 40
0.3163774190685256
 40
0.3426651356942938
 40
0.3689462632067858
 40
0.3952221883202102
 40
0.4214940040506833
 40
0.4477617127444609
 40
0.4740264117110053
 40
0.4740264117110053
 40
0.4740264117110053
 40
0.4740264117110053
 10
79.36605909509984
 20
-3.038925470399984
 30
0.0
 10
79.36535379233219
 20
-3.047713515065229
 30
0.0
 10
79.36386880197701
 20
-3.065278799827986
 30
0.0
 10
79.36141725317003
 20
-3.091598921912113
 30
0.0
 10
79.3587450842682
 20
-3.117881589389174
 30
0.0
 10
79.35585086304792
 20
-3.144124258058745
 30
0.0
 10
79.35273545407139
 20
-3.170325141362499
 30
0.0
 10
79.34939907176918
 20
-3.196482599608735
 30
0.0
 10
79.3458420838656
 20
-3.222595116987844
 30
0.0
 10
79.34206480888788
 20
-3.24866117433881
 30
0.0
 10
79.338067531321
 20
-3.274680075915095
 30
0.0
 10
79.33385035601275
 20
-3.30065200051738
 30
0.0
 10
79.3294132325296
 20
-3.326577615279804
 30
0.0
 10
79.3247561484685
 20
-3.352456914349918
 30
0.0
 10
79.3198794085462
 20
-3.378288755841055
 30
0.0
 10
79.3147832961101
 20
-3.404071859094184
 30
0.0
 10
79.30946812143298
 20
-3.429805283095484
 30
0.0
 10
79.30393378737446
 20
-3.455487893389276
 30
0.0
 10
79.29818178236669
 20
-3.481118774662498
 30
0.0
 10
79.2942011918025
 20
-3.498171399675853
 30
0.0
 10
79.29217442269981
 20
-3.506688469299998
 30
0.0
 11
79.36605909509984
 21
-3.038925470399984
 31
0.0
 11
79.36383115509983
 21
-3.065280396199978
 31
0.0
 11
79.36138070759984
 21
-3.091600670400009
 31
0.0
 11
79.35870819099983
 21
-3.117883281399995
 31
0.0
 11
79.35581407659987
 21
-3.144125342299997
 31
0.0
 11
79.35269865039987
 21
-3.170325812599995
 31
0.0
 11
79.34936225509983
 21
-3.196483063699984
 31
0.0
 11
79.34580531579985
 21
-3.22259487069999
 31
0.0
 11
79.34202806679985
 21
-3.248660521500011
 31
0.0
 11
79.33803091009991
 21
-3.274678407600004
 31
0.0
 11
79.33381395559985
 21
-3.30064874679999
 31
0.0
 11
79.3293769491998
 21
-3.326573454599991
 31
0.0
 11
79.32471991429982
 21
-3.352452399699996
 31
0.0
 11
79.31984323299985
 21
-3.378283812499998
 31
0.0
 11
79.31474726779987
 21
-3.404066142299992
 31
0.0
 11
79.3094321582999
 21
-3.429798870899997
 31
0.0
 11
79.30389808039985
 21
-3.455481181300013
 31
0.0
 11
79.29814542989989
 21
-3.481111353900002
 31
0.0
 11
79.29217442269981
 21
-3.506688469299998
 31
0.0
  0
SPLINE
  5
55EF1
330
1F
100
AcDbEntity
  8
1
100
AcDbSpline
210
0.0
220
0.0
230
1.0
 70
     8
 71
     3
 72
    21
 73
    17
 74
    15
 42
0.0000000001
 43
0.0000000001
 44
0.000001
 12
-0.0037379819220824
 22
-0.9999930137211713
 32
0.0
 13
0.0013695431398007
 23
-0.9999990621753543
 33
0.0
 40
0.0
 40
0.0
 40
0.0
 40
0.0
 40
0.0149826634198138
 40
0.029946467803857
 40
0.0449319451001495
 40
0.0601060426139273
 40
0.0758193209703927
 40
0.092512334393069
 40
0.1106196823586765
 40
0.1305405063961248
 40
0.1526059389519625
 40
0.1771261533973751
 40
0.2044141737213206
 40
0.2347830978845874
 40
0.2684959493447235
 40
0.3056400063750853
 40
0.3056400063750853
 40
0.3056400063750853
 40
0.3056400063750853
 10
79.37533245629987
 20
-2.398567201999977
 30
0.0
 10
79.37531378799154
 20
-2.403561388248894
 30
0.0
 10
79.37527794227716
 20
-2.413543480736474
 30
0.0
 10
79.37523683476939
 20
-2.428520740553405
 30
0.0
 10
79.37520141493454
 20
-2.443561825327042
 30
0.0
 10
79.37516937753358
 20
-2.458852742924775
 30
0.0
 10
79.37513715995354
 20
-2.474712839964531
 30
0.0
 10
79.37510542022971
 20
-2.491550690059477
 30
0.0
 10
79.37507508920162
 20
-2.509791060208967
 30
0.0
 10
79.37504807498157
 20
-2.529822243868098
 30
0.0
 10
79.37502522531959
 20
-2.551991056137564
 30
0.0
 10
79.37500778008422
 20
-2.576615606190429
 30
0.0
 10
79.37499837537574
 20
-2.604007991641861
 30
0.0
 10
79.37500125122586
 20
-2.63446459115328
 30
0.0
 10
79.37502027185473
 20
-2.668206531619401
 30
0.0
 10
79.37504755580369
 20
-2.691825486768082
 30
0.0
 10
79.37506451259986
 20
-2.704206827499998
 30
0.0
 11
79.37533245629987
 21
-2.398567201999977
 31
0.0
 11
79.37528103439984
 21
-2.413549777799997
 31
0.0
 11
79.37523882599982
 21
-2.428513522199974
 31
0.0
 11
79.37520320749985
 21
-2.443498956899998
 31
0.0
 11
79.37517091269985
 21
-2.458673019899973
 31
0.0
 11
79.37513919499981
 21
-2.474386266199997
 31
0.0
 11
79.37510790189986
 21
-2.491079250299987
 31
0.0
 11
79.37507799749988
 21
-2.509186573599959
 31
0.0
 11
79.37505104059988
 21
-2.5291073794
 31
0.0
 11
79.37502819139985
 21
-2.551172800099959
 31
0.0
 11
79.37501084609988
 21
-2.575693008399991
 31
0.0
 11
79.37500161249984
 21
-2.602981027199998
 31
0.0
 11
79.37500439729984
 21
-2.633349951299988
 31
0.0
 11
79.37502378949983
 21
-2.667062797099998
 31
0.0
 11
79.37506451259986
 21
-2.704206827499998
 31
0.0
  0
SPLINE
  5
55EF2
330
1F
100
AcDbEntity
  8
1
100
AcDbSpline
210
0.0
220
0.0
230
1.0
 70
     8
 71
     3
 72
    30
 73
    26
 74
    24
 42
0.0000000001
 43
0.0000000001
 44
0.000001
 12
0.0493283031532489
 22
-0.9987826182448419
 32
0.0
 13
0.0021003305499688
 23
-0.9999977943033579
 33
0.0
 40
0.0
 40
0.0
 40
0.0
 40
0.0
 40
0.0173550853095535
 40
0.0338106406379931
 40
0.0499096408002537
 40
0.0659837950686851
 40
0.0821054373675991
 40
0.0981479825332318
 40
0.1140500686365535
 40
0.1305372672707201
 40
0.1488027020398333
 40
0.1699186759681273
 40
0.1940815468685872
 40
0.2200009332082314
 40
0.2462297063651613
 40
0.2711193331429795
 40
0.2930880645409138
 40
0.3120100555790501
 40
0.3289504541377774
 40
0.3450275060148356
 40
0.3611805547649356
 40
0.3774478723880588
 40
0.3936480564817877
 40
0.409749254181963
 40
0.4258086573607704
 40
0.4258086573607704
 40
0.4258086573607704
 40
0.4258086573607704
 10
79.36142888579985
 20
-1.973063556499992
 30
0.0
 10
79.36171425143633
 20
-1.978841542348438
 30
0.0
 10
79.36227335831834
 20
-1.990097880031086
 30
0.0
 10
79.36311261821675
 20
-2.006713246749725
 30
0.0
 10
79.36394589533566
 20
-2.022901387305807
 30
0.0
 10
79.36479240180844
 20
-2.038977386722751
 30
0.0
 10
79.36566247222379
 20
-2.055033281888887
 30
0.0
 10
79.36654581275516
 20
-2.071031004620689
 30
0.0
 10
79.36743689177562
 20
-2.087150337070647
 30
0.0
 10
79.36835568420545
 20
-2.104010231280219
 30
0.0
 10
79.36933505828482
 20
-2.122607345886716
 30
0.0
 10
79.3703809810325
 20
-2.143762996339498
 30
0.0
 10
79.37142234246102
 20
-2.167473051449952
 30
0.0
 10
79.37236394549819
 20
-2.192892824584069
 30
0.0
 10
79.3731530180182
 20
-2.218560114971162
 30
0.0
 10
79.37376340148279
 20
-2.242914958372844
 30
0.0
 10
79.37420927317967
 20
-2.264837272193328
 30
0.0
 10
79.37452841841778
 20
-2.284111706366246
 30
0.0
 10
79.37476206835095
 20
-2.30142329894593
 30
0.0
 10
79.37494044175847
 20
-2.317812511020179
 30
0.0
 10
79.37507813039755
 20
-2.333977744630927
 30
0.0
 10
79.37518076087482
 20
-2.350184281876235
 30
0.0
 10
79.37525038504933
 20
-2.366373708803181
 30
0.0
 10
79.37529349047503
 20
-2.382493914772868
 30
0.0
 10
79.37532121294818
 20
-2.393214079414432
 30
0.0
 10
79.37533245629987
 20
-2.398567201999977
 30
0.0
 11
79.36142888579985
 21
-1.973063556499992
 31
0.0
 11
79.36229171849987
 21
-1.990397170199995
 31
0.0
 11
79.36312227319985
 21
-2.006831753599993
 31
0.0
 11
79.36395048059984
 21
-2.022909437899995
 31
0.0
 11
79.36479665279986
 21
-2.038961306099988
 31
0.0
 11
79.36566765009985
 21
-2.055059403799984
 31
0.0
 11
79.36654956239983
 21
-2.071077690700005
 31
0.0
 11
79.36742509299989
 21
-2.086955657099961
 31
0.0
 11
79.36831966999983
 21
-2.103418569499975
 31
0.0
 11
79.36927702079987
 21
-2.121658899399986
 31
0.0
 11
79.37031377309989
 21
-2.142749408499991
 31
0.0
 11
79.37137098659985
 21
-2.166889142099986
 31
0.0
 11
79.37233412019992
 21
-2.192790630299993
 31
0.0
 11
79.37314228169983
 21
-2.219006952499979
 31
0.0
 11
79.37376799509985
 21
-2.243888715399986
 31
0.0
 11
79.37421605689981
 21
-2.265852879299981
 31
0.0
 11
79.37453016929982
 21
-2.284772264899996
 31
0.0
 11
79.37475938239987
 21
-2.301711114500005
 31
0.0
 11
79.37493484169985
 21
-2.317787210699986
 31
0.0
 11
79.37507294459982
 21
-2.333939670999992
 31
0.0
 11
79.37517638169987
 21
-2.350206661800013
 31
0.0
 11
79.37524712139981
 21
-2.366406693199988
 31
0.0
 11
79.37529429099988
 21
-2.382507821900003
 31
0.0
 11
79.37533245629987
 21
-2.398567201999977
 31
0.0
  0
SPLINE
  5
55EF3
330
1F
100
AcDbEntity
  8
1
100
AcDbSpline
210
0.0
220
0.0
230
1.0
 70
     8
 71
     3
 72
    19
 73
    15
 74
    13
 42
0.0000000001
 43
0.0000000001
 44
0.000001
 12
0.0510398460869754
 22
-0.9986966176529376
 32
0.0
 13
0.056556743463181
 23
-0.9983993864024757
 33
0.0
 40
0.0
 40
0.0
 40
0.0
 40
0.0
 40
0.051071978785331
 40
0.1004149413530181
 40
0.1471317357825531
 40
0.1907901170026762
 40
0.2309880162080758
 40
0.2669820152248794
 40
0.2990014063170447
 40
0.3279026988512601
 40
0.3544837094716287
 40
0.3789903820457477
 40
0.401143515257227
 40
0.4209000947520745
 40
0.4209000947520745
 40
0.4209000947520745
 40
0.4209000947520745
 10
79.3386225686998
 20
-1.552782422199993
 30
0.0
 10
79.33949147067867
 20
-1.569784226356578
 30
0.0
 10
79.3412145071461
 20
-1.603211499496719
 30
0.0
 10
79.34377503739401
 20
-1.652188528694482
 30
0.0
 10
79.34624080271555
 20
-1.698695925008592
 30
0.0
 10
79.34857184166346
 20
-1.742157819298915
 30
0.0
 10
79.35073726303276
 20
-1.78204918591287
 30
0.0
 10
79.35271748419916
 20
-1.818065222259628
 30
0.0
 10
79.35451469213737
 20
-1.85032008799142
 30
0.0
 10
79.35615026033026
 20
-1.879441426055581
 30
0.0
 10
79.35765198446944
 20
-1.906062094108481
 30
0.0
 10
79.35902335592567
 20
-1.930437152481271
 30
0.0
 10
79.36026674868903
 20
-1.952541003572195
 30
0.0
 10
79.36105642986712
 20
-1.966488570884969
 30
0.0
 10
79.36142888579985
 20
-1.973063556499992
 30
0.0
 11
79.3386225686998
 21
-1.552782422199993
 31
0.0
 11
79.34124951049984
 21
-1.603786802800013
 31
0.0
 11
79.34382595609992
 21
-1.653062454699989
 31
0.0
 11
79.34629871159978
 21
-1.699713760499973
 31
0.0
 11
79.34863751599988
 21
-1.743309450799995
 31
0.0
 11
79.35081713679989
 21
-1.783448214399979
 31
0.0
 11
79.35279387969984
 21
-1.819387892499973
 31
0.0
 11
79.3545740007998
 21
-1.851357762700001
 31
0.0
 11
79.35619387129992
 21
-1.880213624900005
 31
0.0
 11
79.35768923919984
 21
-1.906752548999973
 31
0.0
 11
79.35906838429986
 21
-1.931220375499986
 31
0.0
 11
79.36031369039989
 21
-1.953338478600029
 31
0.0
 11
79.36142888579985
 21
-1.973063556499992
 31
0.0
  0
ARC
  5
55EF4
330
1F
100
AcDbEntity
  8
1
100
AcDbCircle
 10
76.24973799999981
 20
-2.766363000000009
 30
0.0
 40
3.132656
100
AcDbArc
 50
328.8160769999976
 51
329.0081770000008
  0
ARC
  5
55EF5
330
1F
100
AcDbEntity
  8
1
100
AcDbCircle
 10
76.94876022860199
 20
-5.213620598199494
 30
0.0
 40
0.587566239401482
100
AcDbArc
 50
283.6152900662177
 51
292.25207559693
  0
ARC
  5
55EF6
330
1F
100
AcDbEntity
  8
1
100
AcDbCircle
 10
76.32500599999985
 20
-2.805882999999978
 30
0.0
 40
3.04997
100
AcDbArc
 50
355.6178610000002
 51
356.1018129999999
  0
ARC
  5
55EF7
330
1F
100
AcDbEntity
  8
1
100
AcDbCircle
 10
76.28384999999986
 20
-2.86984699999999
 30
0.0
 40
3.023407
100
AcDbArc
 50
275.7917990000011
 51
276.0506170000009
  0
ARC
  5
55EF8
330
1F
100
AcDbEntity
  8
1
100
AcDbCircle
 10
72.38500099999993
 20
-8.384999999999987
 30
0.0
 40
3.0
100
AcDbArc
 50
55.91635300000159
 51
90.0
  0
ARC
  5
55EF9
330
1F
100
AcDbEntity
  8
1
100
AcDbCircle
 10
72.38500099999993
 20
8.385000000000005
 30
0.0
 40
3.0
100
AcDbArc
 50
270.0
 51
304.0836469999984
  0
LINE
  5
55EFA
330
1F
100
AcDbEntity
  8
1
100
AcDbLine
 10
69.38500099999981
 20
-5.230000000000016
 30
0.0
 11
69.54000099999992
 21
-5.384999999999988
 31
0.0
  0
LINE
  5
55EFB
330
1F
100
AcDbEntity
  8
1
100
AcDbLine
 10
69.54000099999992
 20
-5.384999999999988
 30
0.0
 11
72.38500099999981
 21
-5.384999999999988
 31
0.0
  0
LINE
  5
55EFC
330
1F
100
AcDbEntity
  8
1
100
AcDbLine
 10
72.38500099999981
 20
5.384999999999978
 30
0.0
 11
69.54000099999992
 21
5.384999999999978
 31
0.0
  0
LINE
  5
55EFD
330
1F
100
AcDbEntity
  8
1
100
AcDbLine
 10
70.24932799999982
 20
-5.384999999999988
 30
0.0
 11
70.24932799999982
 21
-5.170538401699983
 31
0.0
  0
LINE
  5
55EFE
330
1F
100
AcDbEntity
  8
1
100
AcDbLine
 10
70.24932799999993
 20
4.860417111214625
 30
0.0
 11
70.24932799999993
 21
5.384999999999978
 31
0.0
  0
LINE
  5
55EFF
330
1F
100
AcDbEntity
  8
1
100
AcDbLine
 10
69.38500099999993
 20
5.230000000000004
 30
0.0
 11
69.38500099999993
 21
5.073354868426006
 31
0.0
  0
LINE
  5
55F00
330
1F
100
AcDbEntity
  8
1
100
AcDbLine
 10
69.38500099999981
 20
-5.170538401699983
 30
0.0
 11
69.38500099999981
 21
-5.230000000000016
 31
0.0
  0
LINE
  5
55F01
330
1F
100
AcDbEntity
  8
1
100
AcDbLine
 10
69.38500099999993
 20
5.230000000000004
 30
0.0
 11
69.54000099999992
 21
5.384999999999978
 31
0.0
  0
LINE
  5
55F02
330
1F
100
AcDbEntity
  8
1
100
AcDbLine
 10
79.26104599999992
 20
0.2082149999999834
 30
0.0
 11
79.26836399999984
 21
0.3279709999999787
 31
0.0
  0
LINE
  5
55F03
330
1F
100
AcDbEntity
  8
1
100
AcDbLine
 10
79.24751500028168
 20
0.184448180118965
 30
0.0
 11
79.26104599999992
 21
0.2082149999999834
 31
0.0
  0
LINE
  5
55F04
330
1F
100
AcDbEntity
  8
1
100
AcDbLine
 10
79.3193559999998
 20
1.211545999999985
 30
0.0
 11
79.32703499999985
 21
1.349064999999983
 31
0.0
  0
LINE
  5
55F05
330
1F
100
AcDbEntity
  8
1
100
AcDbLine
 10
79.32703499999985
 20
1.349064999999983
 30
0.0
 11
79.33862299999981
 21
1.552781999999965
 31
0.0
  0
LINE
  5
55F06
330
1F
100
AcDbEntity
  8
1
100
AcDbLine
 10
79.3750169999999
 20
2.755185999999968
 30
0.0
 11
79.374986424469
 21
2.885931338076419
 31
0.0
  0
LINE
  5
55F07
330
1F
100
AcDbEntity
  8
1
100
AcDbLine
 10
79.37506499999989
 20
2.704206999999983
 30
0.0
 11
79.3750169999999
 21
2.755185999999968
 31
0.0
  0
LINE
  5
55F08
330
1F
100
AcDbEntity
  8
1
100
AcDbLine
 10
76.32000099999989
 20
5.893614999999997
 30
0.0
 11
76.22542099999993
 21
5.896581000000012
 31
0.0
  0
LINE
  5
55F09
330
1F
100
AcDbEntity
  8
1
100
AcDbLine
 10
76.44990499999988
 20
5.889493000000002
 30
0.0
 11
76.32000099999989
 21
5.893614999999997
 31
0.0
  0
LINE
  5
55F0A
330
1F
100
AcDbEntity
  8
1
100
AcDbLine
 10
76.62595020903876
 20
5.874714211766246
 30
0.0
 11
76.44990499999988
 21
5.889493000000002
 31
0.0
  0
ARC
  5
55F0B
102
{ACAD_REACTORS
330
55F27
102
}
330
1F
100
AcDbEntity
  8
1
100
AcDbCircle
 10
76.37498650650167
 20
2.885229771263356
 30
0.0
 40
3.0
100
AcDbArc
 50
0.0133989392660352
 51
85.20133829853717
  0
LINE
  5
55F0C
330
1F
100
AcDbEntity
  8
1
100
AcDbLine
 10
76.22542099999993
 20
5.896581000000012
 30
0.0
 11
75.94375399999984
 21
5.905105999999975
 31
0.0
  0
LINE
  5
55F0D
330
1F
100
AcDbEntity
  8
1
100
AcDbLine
 10
75.94375399999984
 20
5.905105999999975
 30
0.0
 11
75.66379299999988
 21
5.913179000000001
 31
0.0
  0
LINE
  5
55F0E
330
1F
100
AcDbEntity
  8
1
100
AcDbLine
 10
75.66379299999988
 20
5.913179000000001
 30
0.0
 11
75.38378099999984
 21
5.920851999999983
 31
0.0
  0
LINE
  5
55F0F
330
1F
100
AcDbEntity
  8
1
100
AcDbLine
 10
74.80964499999989
 20
5.922883
 30
0.0
 11
74.51205999999984
 21
5.914237
 31
0.0
  0
LINE
  5
55F10
330
1F
100
AcDbEntity
  8
1
100
AcDbLine
 10
74.51205999999984
 20
5.914237
 30
0.0
 11
74.21441699999985
 21
5.905099999999992
 31
0.0
  0
LINE
  5
55F11
330
1F
100
AcDbEntity
  8
1
100
AcDbLine
 10
74.21441699999985
 20
5.905099999999992
 30
0.0
 11
74.0662089999999
 21
5.90033899999999
 31
0.0
  0
LINE
  5
55F12
330
1F
100
AcDbEntity
  8
1
100
AcDbLine
 10
79.24755699999986
 20
0.0622759999999849
 30
0.0
 11
79.24755699999986
 21
-0.0622740000000144
 31
0.0
  0
LINE
  5
55F13
330
1F
100
AcDbEntity
  8
1
100
AcDbLine
 10
79.24755699999986
 20
-0.0622740000000144
 30
0.0
 11
79.24750943118199
 21
-0.1844392188657886
 31
0.0
  0
LINE
  5
55F14
330
1F
100
AcDbEntity
  8
1
100
AcDbLine
 10
79.24751499999985
 20
0.1844489999999885
 30
0.0
 11
79.24755699999986
 21
0.0622759999999849
 31
0.0
  0
LINE
  5
55F15
330
1F
100
AcDbEntity
  8
1
100
AcDbLine
 10
79.26104599999992
 20
-0.2082150000000078
 30
0.0
 11
79.26836399999984
 21
-0.3279710000000031
 31
0.0
  0
LINE
  5
55F16
330
1F
100
AcDbEntity
  8
1
100
AcDbLine
 10
79.24751499999985
 20
-0.184449000000013
 30
0.0
 11
79.26104599999992
 21
-0.2082150000000078
 31
0.0
  0
LINE
  5
55F17
330
1F
100
AcDbEntity
  8
1
100
AcDbLine
 10
79.3193559999998
 20
-1.21154600000001
 30
0.0
 11
79.32703499999985
 21
-1.349065000000007
 31
0.0
  0
LINE
  5
55F18
330
1F
100
AcDbEntity
  8
1
100
AcDbLine
 10
74.21441699999985
 20
-5.905100000000002
 30
0.0
 11
74.0662089999999
 21
-5.900338999999999
 31
0.0
  0
LINE
  5
55F19
330
1F
100
AcDbEntity
  8
1
100
AcDbLine
 10
74.51205999999984
 20
-5.914237000000013
 30
0.0
 11
74.21441699999985
 21
-5.905100000000002
 31
0.0
  0
LINE
  5
55F1A
330
1F
100
AcDbEntity
  8
1
100
AcDbLine
 10
74.80964499999989
 20
-5.922883000000012
 30
0.0
 11
74.51205999999984
 21
-5.914237000000013
 31
0.0
  0
LINE
  5
55F1B
330
1F
100
AcDbEntity
  8
1
100
AcDbLine
 10
75.66379299999988
 20
-5.913179000000011
 30
0.0
 11
75.38378099999984
 21
-5.920851999999993
 31
0.0
  0
LINE
  5
55F1C
330
1F
100
AcDbEntity
  8
1
100
AcDbLine
 10
75.94375399999984
 20
-5.905105999999986
 30
0.0
 11
75.66379299999988
 21
-5.913179000000011
 31
0.0
  0
LINE
  5
55F1D
330
1F
100
AcDbEntity
  8
1
100
AcDbLine
 10
76.22542099999993
 20
-5.896581000000024
 30
0.0
 11
75.94375399999984
 21
-5.905105999999986
 31
0.0
  0
LINE
  5
55F1E
330
1F
100
AcDbEntity
  8
1
100
AcDbLine
 10
76.58895399999988
 20
-5.877819999999982
 30
0.0
 11
76.44990499999988
 21
-5.889493000000013
 31
0.0
  0
LINE
  5
55F1F
330
1F
100
AcDbEntity
  8
1
100
AcDbLine
 10
76.44990499999988
 20
-5.889493000000013
 30
0.0
 11
76.32000099999989
 21
-5.893615000000008
 31
0.0
  0
LINE
  5
55F20
330
1F
100
AcDbEntity
  8
1
100
AcDbLine
 10
76.32000099999989
 20
-5.893615000000008
 30
0.0
 11
76.22542099999993
 21
-5.896581000000024
 31
0.0
  0
LINE
  5
55F21
330
1F
100
AcDbEntity
  8
1
100
AcDbLine
 10
79.37506499999989
 20
-2.704206999999994
 30
0.0
 11
79.3750169999999
 21
-2.755185999999977
 31
0.0
  0
LINE
  5
55F22
330
1F
100
AcDbEntity
  8
1
100
AcDbLine
 10
79.3750169999999
 20
-2.755185999999977
 30
0.0
 11
79.37498899999986
 21
-2.874918000000004
 31
0.0
  0
LINE
  5
55F23
330
1F
100
AcDbEntity
  8
1
100
AcDbLine
 10
79.37498899999986
 20
-2.874918000000004
 30
0.0
 11
79.36791899999986
 21
-3.013231000000029
 31
0.0
  0
LINE
  5
55F24
330
1F
100
AcDbEntity
  8
1
100
AcDbLine
 10
79.32703499999985
 20
-1.349065000000007
 30
0.0
 11
79.33862299999981
 21
-1.552781999999976
 31
0.0
  0
DIMENSION
  5
55F25
102
{ACAD_XDICTIONARY
360
55F26
102
}
102
{ACAD_REACTORS
330
55F27
102
}
330
1F
100
AcDbEntity
  8
2
100
AcDbDimension
  2
*D12
 10
76.37498650650167
 20
2.885229771263354
 30
0.0
 11
95.88310330185299
 21
21.82063286203538
 31
0.0
 70
    36
 71
     5
 42
2.999999999999566
  3
\M+18352\M+18373\M+1815B - ISO-25
100
AcDbRadialDimension
 15
78.81492082803432
 25
4.630715522166077
 35
0.0
 40
0.0
1001
ACAD
1000
DSTYLE
1002
{
1070
     4
1000
"
1070
    40
1040
1.0
1070
   143
1040
0.03937
1070
   170
1070
     1
1070
   171
1070
     3
1070
   271
1070
     8
1070
   285
1070
     4
1002
}
  0
LINE
  5
55F28
330
1F
100
AcDbEntity
  8
cut
100
AcDbLine
 10
74.57500299999998
 20
5.968555331400027
 30
0.0
 11
75.17500299999989
 21
5.999999998900009
 31
0.0
1001
ACAD
1000
RTMaterial
1005
0
  0
LINE
  5
55F29
330
1F
100
AcDbEntity
  8
cut
100
AcDbLine
 10
69.37500299999993
 20
5.384999998900028
 30
0.0
 11
72.79714047199997
 21
5.384999998900028
 31
0.0
1001
ACAD
1000
RTMaterial
1005
0
  0
LINE
  5
55F2A
330
1F
100
AcDbEntity
  8
cut
100
AcDbLine
 10
75.17500299999989
 20
5.999999998900009
 30
0.0
 11
76.37500299999993
 21
5.999999998900009
 31
0.0
1001
ACAD
1000
RTMaterial
1005
0
  0
LINE
  5
55F2B
330
1F
100
AcDbEntity
  8
cut
100
AcDbLine
 10
79.37500299999993
 20
2.499999998899783
 30
0.0
 11
79.37500299999993
 21
2.99999999890001
 31
0.0
1001
ACAD
1000
RTMaterial
1005
0
  0
LINE
  5
55F2C
330
1F
100
AcDbEntity
  8
cut
100
AcDbLine
 10
69.37500299999993
 20
-5.385000001100021
 30
0.0
 11
69.37500299999993
 21
5.384999998900028
 31
0.0
1001
ACAD
1000
RTMaterial
1005
0
  0
LINE
  5
55F2D
330
1F
100
AcDbEntity
  8
cut
100
AcDbLine
 10
79.24398355179988
 20
-0.0000000010999892
 30
0.0
 11
79.37500299999993
 21
2.499999998900011
 31
0.0
1001
ACAD
1000
RTMaterial
1005
0
  0
ARC
  5
55F2E
330
1F
100
AcDbEntity
  8
cut
100
AcDbCircle
 10
76.37500299999993
 20
2.99999999890001
 30
0.0
 40
3.0
100
AcDbArc
 50
0.0
 51
90.0
1001
ACAD
1000
RTMaterial
1005
0
  0
ARC
  5
55F2F
330
1F
100
AcDbEntity
  8
cut
100
AcDbCircle
 10
72.79714047199997
 20
8.384999998900028
 30
0.0
 40
3.0
100
AcDbArc
 50
270.0
 51
306.3432125621004
1001
ACAD
1000
RTMaterial
1005
0
  0
LINE
  5
55F30
330
1F
100
AcDbEntity
  8
cut
100
AcDbLine
 10
74.57500299999998
 20
-5.968555333599991
 30
0.0
 11
75.17500299999989
 21
-6.000000001099975
 31
0.0
1001
ACAD
1000
RTMaterial
1005
0
  0
LINE
  5
55F31
330
1F
100
AcDbEntity
  8
cut
100
AcDbLine
 10
69.37500299999993
 20
-5.385000001100021
 30
0.0
 11
72.79714047199997
 21
-5.385000001100021
 31
0.0
1001
ACAD
1000
RTMaterial
1005
0
  0
LINE
  5
55F32
330
1F
100
AcDbEntity
  8
cut
100
AcDbLine
 10
75.17500299999989
 20
-6.000000001099975
 30
0.0
 11
76.37500299999993
 21
-6.000000001099975
 31
0.0
1001
ACAD
1000
RTMaterial
1005
0
  0
LINE
  5
55F33
330
1F
100
AcDbEntity
  8
cut
100
AcDbLine
 10
79.37500299999993
 20
-2.50000000109976
 30
0.0
 11
79.37500299999993
 21
-3.000000001099988
 31
0.0
1001
ACAD
1000
RTMaterial
1005
0
  0
LINE
  5
55F34
330
1F
100
AcDbEntity
  8
cut
100
AcDbLine
 10
79.24398355179988
 20
-0.0000000010999892
 30
0.0
 11
79.37500299999993
 21
-2.500000001099988
 31
0.0
1001
ACAD
1000
RTMaterial
1005
0
  0
ARC
  5
55F35
330
1F
100
AcDbEntity
  8
cut
100
AcDbCircle
 10
76.37500299999993
 20
-3.000000001099988
 30
0.0
 40
3.0
100
AcDbArc
 50
270.0
 51
0.0
1001
ACAD
1000
RTMaterial
1005
0
  0
ARC
  5
55F36
330
1F
100
AcDbEntity
  8
cut
100
AcDbCircle
 10
72.79714047199997
 20
-8.385000001100022
 30
0.0
 40
3.0
100
AcDbArc
 50
53.65678743789959
 51
90.0
1001
ACAD
1000
RTMaterial
1005
0
  0
DIMENSION
  5
56270
330
1F
100
AcDbEntity
  8
sk2
100
AcDbDimension
  2
*D23
 10
79.37499960185817
 20
54.52343251608181
 30
0.0
 11
-4.762497398141761
 21
54.52343251608181
 31
0.0
 70
   160
 71
     5
 41
0.892857
 42
168.2749999999999
  3
\M+18352\M+18373\M+1815B - ISO-25
100
AcDbAlignedDimension
 13
-88.9000003981418
 23
5.349996016388615
 33
0.0
 14
79.37499960185817
 24
-0.0000154836114064
 34
0.0
 50
180.0
100
AcDbRotatedDimension
1001
ACAD
1000
DSTYLE
1002
{
1070
     4
1000
"
1070
    40
1040
1.0
1070
   143
1040
0.03937
1070
   170
1070
     1
1070
   171
1070
     3
1070
   271
1070
     8
1070
   285
1070
     4
1002
}
  0
LINE
  5
56271
330
1F
100
AcDbEntity
  8
sk1
100
AcDbLine
 10
-88.90001039814185
 20
0.0000000163886682
 30
0.0
 11
-88.90001039814185
 21
-5.350006983611393
 31
0.0
  0
LINE
  5
56272
330
1F
100
AcDbEntity
  8
sk4
100
AcDbLine
 10
-95.35812439814177
 20
0.0000000163886682
 30
0.0
 11
-0.0000003981417649
 21
0.0000000163886398
 31
0.0
  0
LINE
  5
56273
330
1F
100
AcDbEntity
  8
sk1
100
AcDbLine
 10
-87.90001039814185
 20
-6.349999483611327
 30
0.0
 11
-88.90001739814184
 21
-5.350021983611355
 31
0.0
  0
LINE
  5
56274
330
1F
100
AcDbEntity
  8
sk1
100
AcDbLine
 10
-87.90001039814185
 20
0.0000000163886682
 30
0.0
 11
-87.90001039814185
 21
-6.349999483611327
 31
0.0
  0
LINE
  5
56275
330
1F
100
AcDbEntity
  8
sk1
100
AcDbLine
 10
-88.9000003981418
 20
0.0000210163886436
 30
0.0
 11
-88.9000003981418
 21
5.349996016388615
 31
0.0
  0
LINE
  5
56276
330
1F
100
AcDbEntity
  8
sk1
100
AcDbLine
 10
-87.90001039814185
 20
0.0000000163886682
 30
0.0
 11
-87.89999589814172
 21
6.350000516388661
 31
0.0
  0
LINE
  5
56277
330
1F
100
AcDbEntity
  8
sk1
100
AcDbLine
 10
-87.89999589814172
 20
6.350000516388661
 30
0.0
 11
-88.9000003981418
 21
5.349996016388615
 31
0.0
  0
DIMENSION
  5
56278
330
1F
100
AcDbEntity
  8
sk2
100
AcDbDimension
  2
*D24
 10
-115.6468657160681
 20
6.350000516388669
 30
0.0
 11
-115.6468657160681
 21
-36.91249948361136
 31
0.0
 70
   160
  1
%%c<>
 71
     5
 41
0.75
 42
12.69999999999999
  3
\M+18352\M+18373\M+1815B - ISO-25
100
AcDbAlignedDimension
 13
-87.70001339814186
 23
-6.349999483611327
 33
0.0
 14
-87.70001339814186
 24
6.350000516388661
 34
0.0
 50
270.0
100
AcDbRotatedDimension
1001
ACAD
1000
DSTYLE
1002
{
1070
     4
1000
%%c[]"
1070
    40
1040
1.0
1070
   143
1040
0.03937
1070
   170
1070
     1
1070
   171
1070
     3
1070
   271
1070
     8
1070
   285
1070
     4
1002
}
  0
LINE
  5
56279
330
1F
100
AcDbEntity
  8
sk1
100
AcDbLine
 10
-87.89999589814172
 20
6.350000516388661
 30
0.0
 11
-0.0000003981417649
 21
6.350000516388632
 31
0.0
  0
LINE
  5
5627A
330
1F
100
AcDbEntity
  8
sk1
100
AcDbLine
 10
-87.90001039814185
 20
-6.349999483611327
 30
0.0
 11
-0.0000058981609072
 21
-6.349999483611327
 31
0.0
  0
DIMENSION
  5
5627B
330
1F
100
AcDbEntity
  8
2
100
AcDbDimension
  2
*D25
 10
-0.0000007962835277
 20
39.9170452787456
 30
0.0
 11
39.68749920371644
 21
39.9170452787456
 31
0.0
 70
   160
 71
     5
 42
79.37499999999994
  3
\M+18352\M+18373\M+1815B - ISO-25
100
AcDbAlignedDimension
 13
79.37499920371641
 23
6.349999999999994
 33
0.0
 14
-0.0000007962835298
 24
6.349974999999972
 34
0.0
 50
180.0
100
AcDbRotatedDimension
1001
ACAD
1000
DSTYLE
1002
{
1070
     4
1000
"
1070
    40
1040
1.0
1070
   143
1040
0.03937
1070
   170
1070
     1
1070
   171
1070
     3
1070
   271
1070
     8
1070
   285
1070
     4
1002
}
  0
VIEWPORT
  5
6B
102
{ACAD_XDICTIONARY
360
56388
102
}
330
50
100
AcDbEntity
 67
     1
  8
0
100
AcDbViewport
 10
150.1652135264906
 20
160.4455827878762
 30
0.0
 40
339.1973820494346
 41
282.2272140146125
 68
     1
 69
     1
 12
150.1652135264906
 22
160.4455827878762
 13
0.0
 23
0.0
 14
10.0
 24
10.0
 15
10.0
 25
10.0
 16
0.0
 26
0.0
 36
1.0
 17
0.0
 27
0.0
 37
0.0
 42
50.0
 43
0.0
 44
0.0
 45
282.2272140146125
 50
0.0
 51
0.0
 72
  1000
 90
    32864
  1

281
     0
 71
     1
 74
     0
110
0.0
120
0.0
130
0.0
111
1.0
121
0.0
131
0.0
112
0.0
122
1.0
132
0.0
 79
     0
146
0.0
  0
VIEWPORT
  5
6D
102
{ACAD_XDICTIONARY
360
5638A
102
}
330
50
100
AcDbEntity
 67
     1
  8
0
100
AcDbViewport
 10
133.3499939441681
 20
101.5999939441681
 30
0.0
 40
213.3599903106689
 41
162.5599903106689
 68
     2
 69
     2
 12
210.0
 22
148.5
 13
0.0
 23
0.0
 14
10.0
 24
10.0
 15
10.0
 25
10.0
 16
0.0
 26
0.0
 36
1.0
 17
0.0
 27
0.0
 37
0.0
 42
50.0
 43
0.0
 44
0.0
 45
324.0677920111345
 50
0.0
 51
0.0
 72
   100
 90
    32864
  1

281
     0
 71
     1
 74
     0
110
0.0
120
0.0
130
0.0
111
1.0
121
0.0
131
0.0
112
0.0
122
1.0
132
0.0
 79
     0
146
0.0
  0
ENDSEC
  0
SECTION
  2
OBJECTS
  0
DICTIONARY
  5
C
330
0
100
AcDbDictionary
281
     1
  3
ACAD_COLOR
350
85
  3
ACAD_GROUP
350
D
  3
ACAD_LAYOUT
350
1A
  3
ACAD_MATERIAL
350
84
  3
ACAD_MLINESTYLE
350
17
  3
ACAD_PLOTSETTINGS
350
19
  3
ACAD_PLOTSTYLENAME
350
E
  3
ACAD_TABLESTYLE
350
A1
  3
ACDBHEADERROUNDTRIPXREC
350
56383
  3
AcDbVariableDictionary
350
5E
  3
ASE_INDEX_DICTIONARY
350
349E9
  3
DWGPROPS
350
56382
  0
DICTIONARY
  5
E2
330
2
100
AcDbDictionary
280
     1
281
     1
  3
ACAD_LAYERFILTERS
360
55CF7
  3
ACAD_LAYERSTATES
360
3759A
  3
ACLYDICTIONARY
360
55CF6
  0
DICTIONARY
  5
31EE
330
1F
100
AcDbDictionary
280
     1
281
     1
  3
ACAD_SORTENTS
360
31EF
  0
DICTIONARY
  5
3BEB2
330
680
100
AcDbDictionary
280
     1
281
     1
  3
ACAD_SORTENTS
360
5621F
  0
DICTIONARY
  5
5638C
330
71
100
AcDbDictionary
280
     1
281
     1
  3
ACAD_XREC_ROUNDTRIP
360
5638D
  0
DICTIONARY
  5
5638E
330
73
100
AcDbDictionary
280
     1
281
     1
  3
ACAD_XREC_ROUNDTRIP
360
5638F
  0
DICTIONARY
  5
54C2B
330
54C2A
100
AcDbDictionary
280
     1
281
     1
  3
ACAD_DIMASSOC
360
54C2C
  0
DICTIONARY
  5
55F26
330
55F25
100
AcDbDictionary
280
     1
281
     1
  3
ACAD_DIMASSOC
360
55F27
  0
DICTIONARY
  5
56388
330
6B
100
AcDbDictionary
280
     1
281
     1
  3
ACAD_XREC_ROUNDTRIP
360
56389
  0
DICTIONARY
  5
5638A
330
6D
100
AcDbDictionary
280
     1
281
     1
  3
ACAD_XREC_ROUNDTRIP
360
5638B
  0
DICTIONARY
  5
85
102
{ACAD_REACTORS
330
C
102
}
330
C
100
AcDbDictionary
281
     1
  0
DICTIONARY
  5
D
102
{ACAD_REACTORS
330
C
102
}
330
C
100
AcDbDictionary
281
     1
  0
DICTIONARY
  5
1A
102
{ACAD_REACTORS
330
C
102
}
330
C
100
AcDbDictionary
281
     1
  3
\M+1838C\M+18343\M+18341\M+18345\M+183671
350
51
  3
\M+1838C\M+18343\M+18341\M+18345\M+183672
350
56
  3
Model
350
22
  0
DICTIONARY
  5
84
102
{ACAD_REACTORS
330
C
102
}
330
C
100
AcDbDictionary
281
     1
  0
DICTIONARY
  5
17
102
{ACAD_REACTORS
330
C
102
}
330
C
100
AcDbDictionary
281
     1
  3
Standard
350
18
  0
DICTIONARY
  5
19
102
{ACAD_REACTORS
330
C
102
}
330
C
100
AcDbDictionary
281
     1
  0
ACDBDICTIONARYWDFLT
  5
E
102
{ACAD_REACTORS
330
C
102
}
330
C
100
AcDbDictionary
281
     1
  3
Normal
350
F
100
AcDbDictionaryWithDefault
340
F
  0
DICTIONARY
  5
A1
102
{ACAD_REACTORS
330
C
102
}
330
C
100
AcDbDictionary
281
     1
  3
Standard
350
A2
  0
DICTIONARY
  5
56383
102
{ACAD_REACTORS
330
C
102
}
330
C
100
AcDbDictionary
281
     1
  0
DICTIONARY
  5
5E
102
{ACAD_REACTORS
330
C
102
}
330
C
100
AcDbDictionary
281
     1
  3
CTABLESTYLE
350
B8
  3
DIMASSOC
350
5F
  3
HIDETEXT
350
63
  3
PROJECTNAME
350
31CE
  0
DICTIONARY
  5
349E9
102
{ACAD_REACTORS
330
C
102
}
330
C
100
AcDbDictionary
281
     1
  3
ASEBlockHierarchyIndexRecord
350
349EA
1001
DCO15
1040
1842496176.844
  0
XRECORD
  5
56382
102
{ACAD_REACTORS
330
C
102
}
330
C
100
AcDbXrecord
280
     1
  1
DWGPROPS COOKIE
  2

  3

  4

  6

  7

  8

  9

300
=
301
=
302
=
303
=
304
=
305
=
306
=
307
=
308
=
309
=
 40
2.780609004629629
 41
2455489.391063368
 42
2458573.048787396
  1

 90
        0
  0
DICTIONARY
  5
55CF7
102
{ACAD_REACTORS
330
E2
102
}
330
E2
100
AcDbDictionary
281
     1
  0
DICTIONARY
  5
3759A
102
{ACAD_REACTORS
330
E2
102
}
330
E2
100
AcDbDictionary
281
     1
  0
DICTIONARY
  5
55CF6
102
{ACAD_REACTORS
330
E2
102
}
330
E2
100
AcDbDictionary
281
     1
1001
ACAD
1000
<All
  0
SORTENTSTABLE
  5
31EF
102
{ACAD_REACTORS
330
31EE
102
}
330
31EE
100
AcDbSortentsTable
330
1F
331
54C19
  5
54C19
331
54C2A
  5
54C2F
331
55615
  5
55616
331
54C2E
  5
54CD1
331
55619
  5
5561A
331
54BDA
  5
54BDA
331
54BDE
  5
54BDE
331
55742
  5
55743
331
54BE2
  5
54BE2
331
54BE6
  5
54BE6
331
54C0A
  5
54C0A
331
54BEA
  5
54BEA
331
54C0E
  5
54C0E
331
54BEE
  5
54BEE
331
55626
  5
55627
331
54EBA
  5
54C2D
331
54C12
  5
54C12
331
54BF2
  5
54BF2
331
54BF6
  5
54BF6
331
5573E
  5
5573F
331
54EC2
  5
54EC3
331
5561A
  5
5561B
331
5561E
  5
5561F
331
54BDB
  5
54BDB
331
551A6
  5
555D2
331
55743
  5
55A32
331
54BE3
  5
54BE3
331
54BE7
  5
54BE7
331
54BEB
  5
54BEB
331
55623
  5
55624
331
54C0B
  5
54C0B
331
54C0F
  5
54C0F
331
54BEF
  5
54BEF
331
54C13
  5
54C13
331
54BF3
  5
54BF3
331
54BF7
  5
54BF7
331
5573F
  5
55740
331
54EC3
  5
551A6
331
54C1B
  5
54C1B
331
5561F
  5
55620
331
54BDC
  5
54BDC
331
54BF8
  5
54BF8
331
55740
  5
55741
331
54BE4
  5
54BE4
331
68C
  5
3C6B0
331
54CD0
  5
54CD5
331
54C08
  5
54C08
331
54BE8
  5
54BE8
331
55620
  5
55621
331
54CD4
  5
54EC2
331
53AD9
  5
53ADC
331
54BEC
  5
54BEC
331
55624
  5
55625
331
54C10
  5
54C10
331
54BF0
  5
54BF0
331
54C14
  5
54C14
331
54BF4
  5
54BF4
331
54C18
  5
54C18
331
55618
  5
55619
331
54BD9
  5
54BD9
331
54BDD
  5
54BDD
331
54BF9
  5
54BF9
331
55741
  5
55742
331
54BE5
  5
54BE5
331
54BE9
  5
54BE9
331
54C09
  5
54C09
331
54BED
  5
54BED
331
55625
  5
55626
331
54C0D
  5
54C0D
331
54C11
  5
54C11
331
54BF1
  5
54BF1
331
54BF5
  5
54BF5
331
5573D
  5
5573E
331
555F5
  5
55614
  0
SORTENTSTABLE
  5
5621F
102
{ACAD_REACTORS
330
3BEB2
102
}
330
3BEB2
100
AcDbSortentsTable
330
680
  0
XRECORD
  5
5638D
102
{ACAD_REACTORS
330
5638C
102
}
330
5638C
100
AcDbXrecord
280
     1
102
SHADEPLOT
 70
     0
  0
XRECORD
  5
5638F
102
{ACAD_REACTORS
330
5638E
102
}
330
5638E
100
AcDbXrecord
280
     1
102
SHADEPLOT
 70
     0
  0
DIMASSOC
  5
54C2C
102
{ACAD_REACTORS
330
54C2B
102
}
330
54C2B
100
AcDbDimAssoc
330
54C2A
 90
        3
 70
     0
 71
     0
  1
AcDbOsnapPointRef
 72
    13
331
54C1B
 73
     2
 91
        0
 40
0.0
 10
0.0
 20
0.0
 30
2.000000000000000E+50
 75
     0
  1
AcDbOsnapPointRef
 72
     1
331
54C1B
 73
     2
 91
        0
 40
1.0
 10
0.0
 20
0.0
 30
2.000000000000000E+50
 75
     0
  0
DIMASSOC
  5
55F27
102
{ACAD_REACTORS
330
55F26
102
}
330
55F26
100
AcDbDimAssoc
330
55F25
 90
        2
 70
     0
 71
     0
  1
AcDbOsnapPointRef
 72
     3
331
55F0B
 73
     2
 91
        0
 40
0.0
 10
0.0
 20
0.0
 30
0.0
 75
     0
  0
XRECORD
  5
56389
102
{ACAD_REACTORS
330
56388
102
}
330
56388
100
AcDbXrecord
280
     1
102
SHADEPLOT
 70
     0
  0
XRECORD
  5
5638B
102
{ACAD_REACTORS
330
5638A
102
}
330
5638A
100
AcDbXrecord
280
     1
102
SHADEPLOT
 70
     0
  0
LAYOUT
  5
51
102
{ACAD_XDICTIONARY
360
B2
102
}
102
{ACAD_REACTORS
330
1A
102
}
330
1A
100
AcDbPlotSettings
  1

  2
none_device
  4
Letter_(8.50_x_11.00_Inches)
  6

 40
6.349999904632567
 41
6.349999904632567
 42
6.350006103515625
 43
6.350006103515625
 44
215.8999938964844
 45
279.3999938964844
 46
0.0
 47
0.0
 48
0.0
 49
0.0
140
0.0
141
0.0
142
1.0
143
1.0
 70
   688
 72
     1
 73
     1
 74
     5
  7

 75
    16
147
1.0
148
0.0
149
0.0
100
AcDbLayout
  1
\M+1838C\M+18343\M+18341\M+18345\M+183671
 70
     1
 71
     1
 10
-6.350006103515625
 20
-6.349999904632567
 11
273.0499877929688
 21
209.5499939918518
 12
0.0
 22
0.0
 32
0.0
 14
26.66999878883364
 24
20.31999878883365
 34
0.0
 15
240.0299890995025
 25
182.8799890995025
 35
0.0
146
0.0
 13
0.0
 23
0.0
 33
0.0
 16
1.0
 26
0.0
 36
0.0
 17
0.0
 27
1.0
 37
0.0
 76
     0
330
50
331
6B
  0
LAYOUT
  5
56
102
{ACAD_XDICTIONARY
360
B5
102
}
102
{ACAD_REACTORS
330
1A
102
}
330
1A
100
AcDbPlotSettings
  1

  2
none_device
  4
Letter_(8.50_x_11.00_Inches)
  6

 40
6.349999904632567
 41
6.349999904632567
 42
6.350006103515625
 43
6.350006103515625
 44
215.8999938964844
 45
279.3999938964844
 46
0.0
 47
0.0
 48
0.0
 49
0.0
140
0.0
141
0.0
142
1.0
143
1.0
 70
   688
 72
     1
 73
     1
 74
     5
  7

 75
    16
147
1.0
148
0.0
149
0.0
100
AcDbLayout
  1
\M+1838C\M+18343\M+18341\M+18345\M+183672
 70
     1
 71
     2
 10
-6.350006103515625
 20
-6.349999904632567
 11
273.0499877929688
 21
209.5499939918518
 12
0.0
 22
0.0
 32
0.0
 14
26.66999878883363
 24
20.31999878883363
 34
0.0
 15
240.0299890995026
 25
182.8799890995025
 35
0.0
146
0.0
 13
0.0
 23
0.0
 33
0.0
 16
1.0
 26
0.0
 36
0.0
 17
0.0
 27
1.0
 37
0.0
 76
     0
330
55
331
71
  0
LAYOUT
  5
22
102
{ACAD_XDICTIONARY
360
56384
102
}
102
{ACAD_REACTORS
330
1A
102
}
330
1A
100
AcDbPlotSettings
  1

  2
none_device
  4
ANSI_A_(8.50_x_11.00_Inches)
  6

 40
6.349999904632567
 41
19.04999923706055
 42
6.350006103515625
 43
19.04998779296875
 44
215.8999938964844
 45
279.3999938964844
 46
0.0
 47
0.0
 48
0.0
 49
0.0
140
0.0
141
0.0
142
1.0
143
78.436453180766
 70
 11952
 72
     0
 73
     1
 74
     0
  7

 75
     0
147
0.0127491741332998
148
0.0
149
0.0
100
AcDbLayout
  1
Model
 70
     1
 71
     0
 10
0.0
 20
0.0
 11
12.0
 21
9.0
 12
0.0
 22
0.0
 32
0.0
 14
0.0
 24
0.0
 34
0.0
 15
0.0
 25
0.0
 35
0.0
146
0.0
 13
0.0
 23
0.0
 33
0.0
 16
1.0
 26
0.0
 36
0.0
 17
0.0
 27
1.0
 37
0.0
 76
     0
330
1F
  0
MLINESTYLE
  5
18
102
{ACAD_REACTORS
330
17
102
}
330
17
100
AcDbMlineStyle
  2
STANDARD
 70
     0
  3

 62
   256
 51
90.0
 52
90.0
 71
     2
 49
0.5
 62
   256
  6
BYLAYER
 49
-0.5
 62
   256
  6
BYLAYER
  0
ACDBPLACEHOLDER
  5
F
102
{ACAD_REACTORS
330
E
102
}
330
E
  0
TABLESTYLE
  5
A2
102
{ACAD_REACTORS
330
A1
102
}
330
A1
100
AcDbTableStyle
  3
Standard
 70
     0
 71
     0
 40
1.5
 41
1.5
280
     0
281
     0
  7
Standard
140
4.5
170
     2
 62
     0
 63
     7
283
     0
274
    -2
284
     1
 64
     0
275
    -2
285
     1
 65
     0
276
    -2
286
     1
 66
     0
277
    -2
287
     1
 67
     0
278
    -2
288
     1
 68
     0
279
    -2
289
     1
 69
     0
  7
Standard
140
6.0
170
     5
 62
     0
 63
     7
283
     0
274
    -2
284
     1
 64
     0
275
    -2
285
     1
 65
     0
276
    -2
286
     1
 66
     0
277
    -2
287
     1
 67
     0
278
    -2
288
     1
 68
     0
279
    -2
289
     1
 69
     0
  7
Standard
140
4.5
170
     5
 62
     0
 63
     7
283
     0
274
    -2
284
     1
 64
     0
275
    -2
285
     1
 65
     0
276
    -2
286
     1
 66
     0
277
    -2
287
     1
 67
     0
278
    -2
288
     1
 68
     0
279
    -2
289
     1
 69
     0
  0
DICTIONARYVAR
  5
B8
102
{ACAD_REACTORS
330
5E
102
}
330
5E
100
DictionaryVariables
280
     0
  1
STANDARD
  0
DICTIONARYVAR
  5
5F
102
{ACAD_REACTORS
330
5E
102
}
330
5E
100
DictionaryVariables
280
     0
  1
2
  0
DICTIONARYVAR
  5
63
102
{ACAD_REACTORS
330
5E
102
}
330
5E
100
DictionaryVariables
280
     0
  1
1
  0
DICTIONARYVAR
  5
31CE
102
{ACAD_REACTORS
330
5E
102
}
330
5E
100
DictionaryVariables
280
     0
  1

  0
XRECORD
  5
349EA
102
{ACAD_REACTORS
330
349E9
102
}
330
349E9
100
AcDbXrecord
280
     1
330
68C
330
0
330
0
330
0
330
0
330
0
330
0
330
0
330
0
330
0
330
0
330
0
330
0
330
0
330
0
330
0
330
0
330
0
330
0
330
0
330
0
330
0
330
0
330
0
330
0
330
0
330
0
330
0
330
0
330
0
330
0
330
0
330
0
330
0
330
0
330
0
330
0
330
0
330
0
330
0
330
0
330
0
330
0
330
0
330
0
330
0
330
0
330
0
330
0
330
0
330
0
330
0
330
0
330
0
330
0
330
0
330
0
330
0
330
0
330
0
330
0
330
0
330
0
330
0
330
0
330
0
330
0
330
0
330
0
330
0
330
0
330
0
330
0
330
0
330
0
330
0
330
0
330
0
330
0
330
0
330
0
330
0
330
0
330
0
330
0
330
0
330
0
330
0
330
0
330
0
330
0
330
0
330
0
330
0
330
0
330
0
330
0
330
0
330
0
330
0
330
0
330
0
330
0
330
0
330
0
330
0
330
0
330
0
330
0
330
0
  0
DICTIONARY
  5
B2
330
51
100
AcDbDictionary
280
     1
281
     1
  3
ACAD_XREC_ROUNDTRIP
360
56386
  3
ADSK_XREC_LAYOUTTHUMBNAIL
360
B3
  0
DICTIONARY
  5
B5
330
56
100
AcDbDictionary
280
     1
281
     1
  3
ACAD_XREC_ROUNDTRIP
360
56387
  3
ADSK_XREC_LAYOUTTHUMBNAIL
360
B6
  0
DICTIONARY
  5
56384
330
22
100
AcDbDictionary
280
     1
281
     1
  3
ACAD_XREC_ROUNDTRIP
360
56385
  0
XRECORD
  5
56386
102
{ACAD_REACTORS
330
B2
102
}
330
B2
100
AcDbXrecord
280
     1
102
SHADEPLOT
 70
     0
102
SHADEPLOTRESLEVEL
 70
     2
102
SHADEPLOTCUSTOMDPI
 70
   300
  0
XRECORD
  5
B3
102
{ACAD_REACTORS
330
B2
102
}
330
B2
100
AcDbXrecord
280
     1
310
28000000B40000008B0000000100080000000000BC61000000000000000000000001000000000000FFFFFF0000000000FFFFFF000000000000000000000000000000000000000000000000000000000000000000330000006600000099000000CC000000FF00000000330000333300006633000099330000CC330000FF3300
310
0000660000336600006666000099660000CC660000FF66000000990000339900006699000099990000CC990000FF99000000CC000033CC000066CC000099CC0000CCCC0000FFCC000000FF000033FF000066FF000099FF0000CCFF0000FFFF000000003300330033006600330099003300CC003300FF003300003333003333
310
33006633330099333300CC333300FF33330000663300336633006666330099663300CC663300FF66330000993300339933006699330099993300CC993300FF99330000CC330033CC330066CC330099CC3300CCCC3300FFCC330000FF330033FF330066FF330099FF3300CCFF3300FFFF330000006600330066006600660099
310
006600CC006600FF00660000336600333366006633660099336600CC336600FF33660000666600336666006666660099666600CC666600FF66660000996600339966006699660099996600CC996600FF99660000CC660033CC660066CC660099CC6600CCCC6600FFCC660000FF660033FF660066FF660099FF6600CCFF6600
310
FFFF660000009900330099006600990099009900CC009900FF00990000339900333399006633990099339900CC339900FF33990000669900336699006666990099669900CC669900FF66990000999900339999006699990099999900CC999900FF99990000CC990033CC990066CC990099CC9900CCCC9900FFCC990000FF99
310
0033FF990066FF990099FF9900CCFF9900FFFF99000000CC003300CC006600CC009900CC00CC00CC00FF00CC000033CC003333CC006633CC009933CC00CC33CC00FF33CC000066CC003366CC006666CC009966CC00CC66CC00FF66CC000099CC003399CC006699CC009999CC00CC99CC00FF99CC0000CCCC0033CCCC0066CC
310
CC0099CCCC00CCCCCC00FFCCCC0000FFCC0033FFCC0066FFCC0099FFCC00CCFFCC00FFFFCC000000FF003300FF006600FF009900FF00CC00FF00FF00FF000033FF003333FF006633FF009933FF00CC33FF00FF33FF000066FF003366FF006666FF009966FF00CC66FF00FF66FF000099FF003399FF006699FF009999FF00CC
310
99FF00FF99FF0000CCFF0033CCFF0066CCFF0099CCFF00CCCCFF00FFCCFF0000FFFF0033FFFF0066FFFF0099FFFF00CCFFFF00FFFFFF00000000000D0D0D001A1A1A00282828003535350043434300505050005D5D5D006B6B6B00787878008686860093939300A1A1A100AEAEAE00BBBBBB00C9C9C900D6D6D600E4E4E400
310
F1F1F100FFFFFF0000000000000000000000000000000000000000000000000000000000000000000000000000000000E2E2E2E2E2E2E2E2E2E2E2E2E2E2E2E2E2E2E2E2E2E2E2E2E2E2E2E2E2E2E2E2E2E2E2E2E2E2E2E2E2E2E2E2E2E2E2E2E2E2E2E2E2E2E2E2E2E2E2E2E2E2E2E2E2E2E2E2E2E2E2E2E2E2E2E2E2E2E2
310
E2E2E2E2E2E2E2E2E2E2E2E2E2E2E2E2E2E2E2E2E2E2E2E2E2E2E2E2E2E2E2E2E2E2E2E2E2E2E2E2E2E2E2E2E2E2E2E2E2E2E2E2E2E2E2E2E2E2E2E2E2E2E2E2E2E2E2E2E2E2E2E2E2E2E2E2E2E2E2E2E2E2E2E2E2E2E2E2E2E2E2E2E2E2E2E2E2E2E2E2E2E2F5F5F5F5F5F5F5F5F5F5F5F5F5F5F5F5F5F5F5F5F5F5F5F5F5
310
F5F5F5F5F5F5F5F5F5F5F5F5F5F5F5F5F5F5F5F5F5F5F5F5F5F5F5F5F5F5F5F5F5F5F5F5F5F5F5F5F5F5F5F5F5F5F5F5F5F5F5F5F5F5F5F5F5F5F5F5F5F5F5F5F5F5F5F5F5F5F5F5F5F5F5F5F5F5F5F5F5F5F5F5F5F5F5F5F5F5F5F5F5F5F5F5F5F5F5F5F5F5F5F5F5F5F5F5F5F5F5F5F5F5F5F5F5F5F5F5F5F5F5F5F5F5F5
310
F5F5F5F5F5F5F5F5F5F5F5F5F5F5F5F5F5F5F5F5F5F5F5F5F5F5E2E2F5F5F5F5F5F5F5F5F5F5F5F5F5F5F5F5F5F5F5F5F5F5F5F5F5F5F5F5F5F5F5F5F5F5F5F5F5F5F5F5F5F5F5F5F5F5F5F5F5F5F5F5F5F5F5F5F5F5F5F5F5F5F5F5F5F5F5F5F5F5F5F5F5F5F5F5F5F5F5F5F5F5F5F5F5F5F5F5F5F5F5F5F5F5F5F5F5F5F5
310
F5F5F5F5F5F5F5F5F5F5F5F5F5F5F5F5F5F5F5F5F5F5F5F5F5F5F5F5F5F5F5F5F5F5F5F5F5F5F5F5F5F5F5F5F5F5F5F5F5F5F5F5F5F5F5F5F5F5F5F5F5F5F5F5F5F5F5F5F5F5F5F5F5F5F5F5F5F5F5E2E2F5F5F5F5F5F5F5F5F5F5F5F5F5F5F5F5F5F5F5F5F5F5F5F5F5F5F5F5F5F5F5F5F5F5F5F5F5F5F5F5F5F5F5F5F5F5
310
F5F5F5F5F5F5F5F5F5F5F5F5F5F5F5F5F5F5F5F5F5F5F5F5F5F5F5F5F5F5F5F5F5F5F5F5F5F5F5F5F5F5F5F5F5F5F5F5F5F5F5F5F5F5F5F5F5F5F5F5F5F5F5F5F5F5F5F5F5F5F5F5F5F5F5F5F5F5F5F5F5F5F5F5F5F5F5F5F5F5F5F5F5F5F5F5F5F5F5F5F5F5F5F5F5F5F5F5F5F5F5F5F5F5F5F5F5F5F5F5F5F5F5F5F5F5F5
310
F5F5F5F5F5E2E2F5F5F5F5E2E2E2E2E2E2E2E2F5F5F5F5F5F5F5F5F5E2E2E2E2E2E2E2E2E2E2E2E2E2E2E2F5F5F5F5F5F5F5F5F5E2E2E2E2E2E2E2E2E2E2E2E2E2E2E2E2F5F5F5F5F5F5F5F5E2E2E2E2E2E2E2E2E2E2E2E2E2E2E2E2F5F5F5F5F5F5F5F5E2E2E2E2E2E2E2E2E2E2E2E2E2E2E2E2F5F5F5F5F5F5F5F5E2E2E2
310
E2E2E2E2E2E2E2E2E2E2E2E2E2F5F5F5F5F5F5F5F5F5E2E2E2E2E2E2E2E2E2E2E2E2E2E2E2F5F5F5F5F5F5F5F5F5E2E2E2E2E2E2E2E2F5F5F5F5E2E2F5F5F5F5E2F5F5F5F5F5F5F5F5F5F5F5F5F5F5F5F5F5F5F5F5F5F5F5F5F5F5F5F5F5F5F5F5F5F5F5F5F5F5F5F5F5F5F5F5F5F5F5F5F5F5F5F5F5F5F5F5F5F5F5F5F5F5
310
F5F5F5F5F5F5F5F5F5F5F5F5F5F5F5F5F5F5F5F5F5F5F5F5F5F5F5F5F5F5F5F5F5F5F5F5F5F5F5F5F5F5F5F5F5F5F5F5F5F5F5F5F5F5F5F5F5F5F5F5F5F5F5F5F5F5F5F5F5F5F5F5F5F5F5F5F5F5F5F5F5F5F5F5F5F5F5F5F5F5F5F5F5F5F5F5F5F5F5F5F5F5F5F5F5F5E2F5F5F5F5E2E2F5F5F5F5E2F5F5F5F5F5F5F5F5F5
310
F5F5F5F5F5F5F5F5F5F5F5F5F5F5F5F5F5F5F5F5F5F5F5F5F5F5F5F5F5F5F5F5F5F5F5F5F5F5F5F5F5F5F5F5F5F5F5F5F5F5F5F5F5F5F5F5F5F5F5F5F5F5F5F5F5F5F5F5F5F5F5F5F5F5F5F5F5F5F5F5F5F5F5F5F5F5F5F5F5F5F5F5F5F5F5F5F5F5F5F5F5F5F5F5F5F5F5F5F5F5F5F5F5F5F5F5F5F5F5F5F5F5F5F5F5F5F5
310
F5F5F5F5F5F5F5F5F5F5F5F5F5F5F5F5F5F5F5F5F5F5F5F5F5F5F5F5F5F5F5F5E2F5F5F5F5E2E2F5F5F5F5E2F5F5F5F5F5F5F5F5F5F5F5F5F5F5F5F5F5F5F5F5F5F5F5F5F5F5F5F5F5F5F5F5F5F5F5F5F5F5F5F5F5F5F5F5F5F5F5F5F5F5F5F5F5F5F5F5F5F5F5F5F5F5F5F5F5F5F5F5F5F5F5F5F5F5F5F5F5F5F5F5F5F5F5
310
F5F5F5F5F5F5F5F5F5F5F5F5F5F5F5F5F5F5F5F5F5F5F5F5F5F5F5F5F5F5F5F5F5F5F5F5F5F5F5F5F5F5F5F5F5F5F5F5F5F5F5F5F5F5F5F5F5F5F5F5F5F5F5F5F5F5F5F5F5F5F5F5F5F5F5F5F5F5F5F5F5F5F5F5F5E2F5F5F5F5E2E2F5F5F5F5E2F5F5F5F5F5F5F5F5F5F5F5F5F5F5F5F5F5F5F5F5F5F5F5F5F5F5F5F5F5F5
310
F5F5F5F5F5F5F5F5F5F5F5F5F5F5F5F5F5F5F5F5F5F5F5F5F5F5F5F5F5F5F5F5F5F5F5F5F5F5F5F5F5F5F5F5F5F5F5F5F5F5F5F5F5F5F5F5F5F5F5F5F5F5F5F5F5F5F5F5F5F5F5F5F5F5F5F5F5F5F5F5F5F5F5F5F5F5F5F5F5F5F5F5F5F5F5F5F5F5F5F5F5F5F5F5F5F5F5F5F5F5F5F5F5F5F5F5F5F5F5F5F5F5F5F5F5F5F5
310
F5F5F5F5F5F5F5F5F5F5F5E2F5F5F5F5E2E2F5F5F5F5E2F5F5F5F5F5F5F5F5F5F5F5F5F5F5F5F5F5F5F5F5F5F5F5F5F5F5F5F5F5F5F5F5F5F5F5F5F5F5F5F5F5F5F5F5F5F5F5F5F5F5F5F5F5F5F5F5F5F5F5F5F5F5F5F5F5F5F5F5F5F5F5F5F5F5F5F5F5F5F5F5F5F5F5F5F5F5F5F5F5F5F5F5F5F5F5F5F5F5F5F5F5F5F5F5
310
F5F5F5F5F5F5F5F5F5F5F5F5F5F5F5F5F5F5F5F5F5F5F5F5F5F5F5F5F5F5F5F5F5F5F5F5F5F5F5F5F5F5F5F5F5F5F5F5F5F5F5F5F5F5F5F5F5F5F5F5F5F5F5F5E2F5F5F5F5E2E2F5F5F5F5E2F5F5F5F5F5F5F5F5F5F5F5F5F5F5F5F5F5F5F5F5F5F5F5F5F5F5F5F5F5F5F5F5F5F5F5F5F5F5F5F5F5F5F5F5F5F5F5F5F5F5F5
310
F5F5F5F5F5F5F5F5F5F5F5F5F5F5F5F5F5F5F5F5F5F5F5F5F5F5F5F5F5F5F5F5F5F5F5F5F5F5F5F5F5F5F5F5F5F5F5F5F5F5F5F5F5F5F5F5F5F5F5F5F5F5F5F5F5F5F5F5F5F5F5F5F5F5F5F5F5F5F5F5F5F5F5F5F5F5F5F5F5F5F5F5F5F5F5F5F5F5F5F5F5F5F5F5F5F5F5F5F5F5F5F5F5F5F5F5F5E2F5F5F5F5E2E2F5F5F5
310
F5E2F5F5F5F5F5F5F5F5F5F5F5F5F5F5F5F5F5F5F5F5F5F5F5F5F5F5F5F5F5F5F5F5F5F5F5F5F5F5F5F5F5F5F5F5F5F5F5F5F5F5F5F5F5F5F5F5F5F5F5F5F5F5F5F5F5F5F5F5F5F5F5F5F5F5F5F5F5F5F5F5F5F5F5F5F5F5F5F5F5F5F5F5F5F5F5F5F5F5F5F5F5F5F5F5F5F5F5F5F5F5F5F5F5F5F5F5F5F5F5F5F5F5F5F5F5
310
F5F5F5F5F5F5F5F5F5F5F5F5F5F5F5F5F5F5F5F5F5F5F5F5F5F5F5F5F5F5F5F5F5F5F5F5F5F5F5F5F5F5F5E2F5F5F5F5E2E2F5F5F5F5E2F5F5F5F5F5F5F5F5F5F5F5F5F5F5F5F5F5F5F5F5F5F5F5F5F5F5F5F5F5F5F5F5F5F5F5F5F5F5F5F5F5F5F5F5F5F5F5F5F5F5F5F5F5F5F5F5F5F5F5F5F5F5F5F5F5F5F5F5F5F5F5F5
310
F5F5F5F5F5F5F5F5F5F5F5F5F5F5F5F5F5F5F5F5F5F5F5F5F5F5F5F5F5F5F5F5F5F5F5F5F5F5F5F5F5F5F5F5F5F5F5F5F5F5F5F5F5F5F5F5F5F5F5F5F5F5F5F5F5F5F5F5F5F5F5F5F5F5F5F5F5F5F5F5F5F5F5F5F5F5F5F5F5F5F5F5F5F5F5F5E2F5F5F5F5E2E2F5F5F5F5F5F5F5F5F5F5F5F5F5F5F5F5F5F5F5F5F5F5F5F5
310
F5F5F5F5F5F5F5F5F5F5F5F5F5F5F5F5F5F5F5F5F5F5F5F5F5F5F5F5F5F5F5F5F5F5F5F5F5F5F5F5F5F5F5F5F5F5F5F5F5F5F5F5F5F5F5F5F5F5F5F5F5F5F5F5F5F5F5F5F5F5F5F5F5F5F5F5F5F5F5F5F5F5F5F5F5F5F5F5F5F5F5F5F5F5F5F5F5F5F5F5F5F5F5F5F5F5F5F5F5F5F5F5F5F5F5F5F5F5F5F5F5F5F5F5F5F5F5
310
F5F5F5F5F5F5F5F5F5F5F5F5F5F5F5F5F5F5F5F5F5F5F5F5F5F5F5E2E2F5F5F5F5F5F5F5F5F5F5F5F5F5F5F5F5F5F5F5F5F5F5F5F5F5F5F5F5F5F5F5F5F5F5F5F5F5F5F5F5F5F5F5F5F5F5F5F5F5F5F5F5F5F5F5F5F5F5F5F5F5F5F5F5F5F5F5F5F5F5F5F5F5F5F5F5F5F5F5F5F5F5F5F5F5F5F5F5F5F5F5F5F5F5F5F5F5F5
310
F5F5F5F5F5F5F5F5F5F5F5F5F5F5F5F5F5F5F5F5F5F5F5F5F5F5F5F5F5F5F5F5F5F5F5F5F5F5F5F5F5F5F5F5F5F5F5F5F5F5F5F5F5F5F5F5F5F5F5F5F5F5F5F5F5F5F5F5F5F5F5F5F5F5F5F5F5F5F5F5E2E2F5F5F5F5F5F5F5F5F5F5F5F5F5F5F5F5F5F5F5F5F5F5F5F5F5F5F5F5F5F5F5F5F5F5F5F5F5F5F5F5F5F5F5F5F5
310
F5F5F5F5F5F5F5F5F5F5F5F5F5F5F5F5F5F5F5F5F5F5F5F5F5F5F5F5F5F5F5F5F5F5F5F5F5F5F5F5F5F5F5F5F5F5F5F5F5F5F5F5F5F5F5F5F5F5F5F5F5F5F5F5F5F5F5F5F5F5F5F5F5F5F5F5F5F5F5F5F5F5F5F5F5F5F5F5F5F5F5F5F5F5F5F5F5F5F5F5F5F5F5F5F5F5F5F5F5F5F5F5F5F5F5F5F5F5F5F5F5F5F5F5F5F5F5
310
F5F5F5F5F5F5E2E2F5F5F5F5F5F5F5F5F5F5F5F5F5F5F5F5F5F5F5F5F5F5F5F5F5F5F5F5F5F5F5F5F5F5F5F5F5F5F5F5F5F5F5F5F5F5F5F5F5F5F5F5F5F5F5F5F5F5F5F5F5F5F5F5F5F5F5F5F5F5F5F5F5F5F5F5F5F5F5F5F5F5F5F5F5F5F5F5F5F5F5F5F5F5F5F5F5F5F5F5F5F5F5F5F5F5F5F5F5F5F5F5F5F5F5F5F5F5F5
310
F5F5F5F5F5F5F5F5F5F5F5F5F5F5F5F5F5F5F5F5F5F5F5F5F5F5F5F5F5F5F5F5F5F5F5F5F5F5F5F5F5F5F5F5F5F5F5F5F5F5F5F5F5F5F5F5F5F5F5E2E2F5F5F5F5F5F5F5F5F5F5F5F5F5F5F5F5F5F5F5F5F5E2E2E2E2E2E2E2E2E2E2E2E2E2E2E2E2E2E2E2E2E2E2E2E2E2E2E2E2E2E2E2E2E2E2E2E2E2E2E2E2E2E2E2E2E2
310
E2E2E2E2E2E2E2E2E2E2E2E2E2E2E2E2E2E2E2E2E2E2E2E2E2E2E2E2E2E2E2E2E2E2E2E2E2E2E2E2E2E2E2E2E2E2E2E2E2E2E2E2E2E2E2E2E2E2E2E2E2E2E2E2E2E2E2E2E2E2E2E2E2E2E2E2E2E2E2E2E2E2E2E2E2E2E2E2E2E2E2F5F5F5F5F5F5F5F5F5F5F5F5F5F5F5F5F5F5F5F5F5E2E2F5F5F5F5F5F5F5F5F5F5F5F5F5
310
F5F5F5F5F5F5F5F5E22D2D2D2D2D2D2D2D2D2D2D2DF5F5F5F5F5F5F5F5F5F5F5F5F5F5F5E2F5F5F5F5F5F5F5F5F5F5F5F5F5F5F5F5F5F5F5F5F5F5F5F5F5F5F5F5F5F5F5F5F5F5F5F5F5F5F5F5F5F5F5F5F5F5F5F5F5F5F5F5F5F5F5F5F5F5F5F5F5F5F5F5F5F5F5F5F5F5F5F5F5F5F5F5F5F5F5F5F5F5F5F5F5F5F5F5F5F5
310
F5F5F5F5F5F5F5F5F5F5F5F5F5F5F5F5E2F5F5F5F5F5F5F5F5F5F5F5F5F5F5F5F5F5F5F5F5F5E2E2F5F5F5F5F5F5F5F5F5F5F5F5F5F5F5F5F5F5F5F5F5E22D2D2DF5F5E2F5F5F5F5F52DF5F5F5F5F5F5F5F5F5F5F5F5F5F5F5E2F5F5F5F5F5F5F5F5F5F5F5F5F5F5F5F5F5F5F5F5F5F5F5F5F5F5F5F5F5F5F5F5F5F5F5F5F5
310
F5F5F5F5F5F5F5F5F5F5F5F5F5F5F5F5F5F5F5F5F5F5F5F5F5F5F5F5F5F5F5F5F5F5F5F5F5F5F5F5F5F5F5F5F5F5F5F5F5F5F5F5F5F5F5F5F5F5F5F5F5F5F5F5F5F5F5F5F5E2F5F5F5F5F5F5F5F5F5F5F5F5F5F5F5F5F5F5F5F5F5E2E2F5F5F5F5F5F5F5F5F5F5F5F5F5F5F5F5F5F5F5F5F5E2DCF52DF5F5E2F5F5F5F5F52D
310
F5F5F5F5F5F5F5F5F5F5F5F5F5F5F5E2F5F5F5F5F5F5F5F5F5F5F5F5F5F5F5F5F5F5F5F5F5F5F5F5F5F5F5F5F5F5F5F5F5F5F5F5F5F5F5F5F5F5F5F5F5F5F5F5F5F5F5F5F5F5F5F5F5F5F5F5F5F5F5F5F5F5F5F5F5F5F5F5F5F5F5F5F5F5F5F5F5F5F5F5F5F5F5F5F5F5F5F5F5F5F5F5F5F5F5F5F5F5F5F5F5F5E2F5F5F5F5
310
F5F5F5F5F5F5F5F5F5F5F5F5F5F5F5F5F5E2E2F5F5F5F5F5F5F5F5F5F5F5F5F5F5F5F5F5F5F5F5F5E2BEF52D2D2D2D2D2D2D2DE2E2E2E2E2E2E2E2E2E2E2E2E2E2E2E2E2E2F5F5F5F5F5F5F5F5F5F5F5F5F5F5F5F5F5F5F5F5F5F5F5F5F5F5F5F5F5F5F5F5F5F5F5F5F5F5F5F5F5F5F5F5F5F5F5F5F5F5F5F5F5F5F5F5F5F5
310
F5F5F5F5F5F5F5F5F5F5F5F5F5F5F5F5F5F5F5F5F5F5F5F5F5F5F5F5F5F5F5F5F5F5F5F5F5F5F5F5F5F5F5F5F5F5F5F5E2F5F5F5F5F5F5F5F5F5F5F5F5F5F5F5F5F5F5F5F5F5E2E2F5F5F5F5E2F5F5F5F5F5F5F5F5F5F5F5F5F5F5F5F5E2DCF5F5F5F5E2F5F5F5F5F5E2F5F5F5F5F5F5F5F5F5F5F5F5F5F5F5F5F5F5F5F5F5
310
F5F5F5F5F5F5F5F5F5F5F5F5F5F5F5F5F5F5F5F5F5F5F5F5F5F5F5F5F5F5F5F5F5F5F5F5F5F5F5F5F5F5F5F5F5F5F5F5F5F5F5F5F5F5F5F5F5F5F5F5F5F5F5F5F5F5F5F5F5F5F5F5F5F5F5F5F5F5F5F5F5F5F5F5F5F5F5F5F5F5F5F5F5F5F5F5F5F5F5F5F5E2F5F5F5F5F5F5F5F5F5F5F5F5F5F5F5F5E2F5F5F5F5E2E2F5F5
310
F5F5E2F5F5F5F5F5F5F5F5F5F5F5F5F5F5F5F5E2F5F5F5F5F5E2F5F5F5F5F5E2F5F5F5F5F5F5F5F5F5F5F5F5F5F5F5F5F5F5F5F5F5F5F5F5F5F5F5F5F5F5F5F5F5F5F5F5F5F5F5F5F5F5F5F5F5F5F5F5F5F5F5F5F5F5F5F5F5F5F5F5F5F5F5F5F5F5F5F5F5F5F5F5F5F5F5F5F5F5F5F5F5F5F5F5F5F5F5F5F5F5F5F5F5F5F5
310
F5F5F5F5F5F5F5F5F5F5F5F5F5F5F5F5F5F5F5F5F5F5F5F5F5F5F5E2F5F5F5F5F5F5F5F5F5F5F5F5F5F5F5F5E2F5F5F5F5E2E2F5F5F5F5E2F5F5F5F5F5F5F5F5F5F5F5F5F5F5F5F5E2F5F5F5F5F5E2F5F5F5F5F5E2F5F5F5F5F5F5F5F5F5F5F5F5F5F5F5F5F5F5F5F5F5F5F5F5F5F5F5F5F5F5F5F5F5F5F5F5F5F5F5F5F5F5
310
F5F5F5F5F5F5F5F5F5F5F5F5F5F5F5F5F5F5F5F5F5F5F5F5F5F5F5F5F5F5F5F5F5F5F5F5F5F5F5F5F5F5F5F5F5F5F5F5F5F5F5F5F5F5F5F5F5F5F5F5F5F5F5F5F5F5F5F5F5F5F5F5F5F5F5F5F5F5F5F5E2F5F5F5F5F5F5F5F5F5F5F5F5F5F5F5F5E2F5F5F5F5E2E2F5F5F5F5E2F5F5F5F5F5F5F5F5F5F5F5F5F5F5F5F5E2F5
310
F5F5F5F5E2F5F5F5F5F5E2F5F5F5F5F5F5F5F5F5F5F5F5F5F5F5F5F5F5F5F5F5F5F5F5F5F5F5F5F5F5F5F5F5F5F5F5F5F5F5F5F5F5F5F5F5F5F5F5F5F5F5F5F5F5F5F5F5F5F5F5F5F5F5F5F5F5F5F5F5F5F5F5F5F5F5F5F5F5F5F5F5F5F5F5F5F5F5F5F5F5F5F5F5F5F5F5F5F5F5F5F5F5F5F5F5F5F5F5F5F5F5F5F5F5F5F5
310
F5F5F5F5F5F5E2F5F5F5F5F5F5F5F5F5F5F5F5F5F5F5F5E2F5F5F5F5E2E2F5F5F5F5E2F5F5F5F5F5F5F5F5F5F5F5F5F5F5F5F5E2E2E2E2E2E2E2F5F5F5F5F5E2F5F5F5F5F5F5F5F5F5F5F5F5F5F5F5F5F5F5F5F5F5F5F5F5F5F5F5F5F5F5F5F5F5F5F5F5F5F5F5F5F5F5F5F5F5F5F5F5F5F5F5F5F5F5F5F5F5F5F5F5F5F5F5
310
F5F5F5F5F5F5F5F5F5F5F5F5F5F5F5F5F5F5F5F5F5F5F5F5F5F5F5F5F5F5F5F5F5F5F5F5F5F5F5F5F5F5F5F5F5F5F5F5F5F5F5F5F5F5F5F5F5F5F5E2F5F5F5F5F5F5F5F5F5F5F5F5F5F5F5F5E2F5F5F5F5E2E2F5F5F5F5E2F5F5F5F5F5F5F5F5F5F5F5F5F5F5F5F5E2E2E2E2F5E2E2F5F5F5F5F5E2F5F5F5F5F5F5F5F5F5F5
310
F5F5F5F5F5F5F5F5F5F5F5F5F5F5F5F5F5F5F5F5F5F5F5F5F5F5F5F5F5F5F5F5F5F5F5F5F5F5F5F5F5F5F5F5F5F5F5F5F5F5F5F5F5F5F5F5F5F5F5F5F5F5F5F5F5F5F5F5F5F5F5F5F5F5F5F5F5F5F5F5F5F5F5F5F5F5F5F5F5F5F5F5F5F5F5F5F5F5F5F5F5F5F5F5F5F5F5F5F5F5F5F5E2F5F5F5F5F5F5F5F5F5F5F5F5F5F5
310
F5F5E2F5F5F5F5E2E2F5F5F5F5E2F5F5F5F5F5F5F5F5F5F5F5F5F5F5F5F5E2E2E2E2F5F5F5F5F5F5F5F5E2F5F5F5F5F5F5F5F5F5F5F5F5F5F5F5F5F5F5F5F5F5F5F5F5F5F5F5F5F5F5F5F5F5F5F5F5F5F5F5F5F5F5F5F5F5F5F5F5F5F5F5F5F5F5F5F5F5F5F5F5F5F5F5F5F5F5F5F5F5F5F5F5F5F5F5F5F5F5F5F5F5F5F5F5
310
F5F5F5F5F5F5F5F5F5F5F5F5F5F5F5F5F5F5F5F5F5F5F5F5F5F5F5F5F5F5F5F5F5F5F5F5F5F5E2F5F5F5F5F5F5F5F5F5F5F5F5F5F5F5F5E2F5F5F5F5E2E2F5F5F5F5E2F5F5F5F5F5F5F5F5F5F5F5F5F5F5F5F5E2F5F5F5F5F5F5F5F5F5F5F5E2F5F5F5F5F5F5F5F5F5F5F5F5F5F5F5F5F5F5F5F5F5F5F5F5F5F5F5F5F5F5F5
310
F5F5F5F5F5F5F5F5F5F5F5F5F5F5F5F5F5F5F5F5F5F5F5F5F5F5F5F5F5F5F5F5F5F5F5F5F5F5F5F5F5F5F5F5F5F5F5F5F5F5F5F5F5F5F5F5F5F5F5F5F5F5F5F5F5F5F5F5F5F5F5F5F5F5F5F5F5F5F5F5F5F5F5F5F5F5F5F5F5F5F5E2F5F5F5F5F5F5F5F5F5F5F5F5F5F5F5F5E2F5F5F5F5E2E2F5F5F5F5E2F5F5F5F5F5F5F5
310
F5F5F5F5F5F5F5F5F5E2E2E2E2E2E2E2E2E2E2E2E2E2F5F5F5F5F5F5F5F5F5F5F5F5F5F5F5F5F5F5F5F5F5F5F5F5F5F5F5F5F5F5F5F5F5F5F5F5F5F5F5F5F5F5F5F5F5F5F5F5F5F5F5F5F5F5F5F5F5F5F5F5F5F5F5F5F5F5F5F5F5F5F5F5F5F5F5F5F5F5F5F5F5F5F5F5F5F5F5F5F5F5F5F5F5F5F5F5F5F5F5F5F5F5F5F5F5
310
F5F5F5F5F5F5F5F5F5F5F5F5F5F5F5F5F5E2F5F5F5F5F5F5F5F5F5F5F5F5F5F5F5F5E2F5F5F5F5E2E2F5F5F5F5E2F5F5F5F5F5F5F5F5F5F5F5F5F5F5F5F5E2E2E2F5F5F5F5F5F5F5F5F5F5F5F5F5F5F5F5F5F5F5F5F5F5F5F5F5F5F5F5F5F5F5F5F5F5F5F5F5F5F5F5F5F5F5F5F5F5F5F5F5F5F5F5F5F5F5F5F5F5F5F5F5F5
310
F5F5F5F5F5F5F5F5F5F5F5F5F5F5F5F5F5F5F5F5F5F5F5F5F5F5F5F5F5F5F5F5F5F5F5F5F5F5F5F5F5F5F5F5F5F5F5F5F5F5F5F5F5F5F5F5F5F5F5F5F5F5F5F5F5F5F5F5F5F5E2F5F5F5F5F5F5F5F5F5F5F5F5F5F5F5F5E2F5F5F5F5E2E2F5F5F5F5E2F5F5F5F5F5F5F5F5F5F5F5F5F5F5F5F5E2E2E2F5F5F5F5F5F5F5F5F5
310
F5F5F5F5F5F5F5F5F5F5F5F5F5F5F5F5F5F5F5F5F5F5F5F5F5F5F5F5F5F5F5F5F5F5F5F5F5F5F5F5F5F5F5F5F5F5F5F5F5F5F5F5F5F5F5F5F5F5F5F5F5F5F5F5F5F5F5F5F5F5F5F5F5F5F5F5F5F5F5F5F5F5F5F5F5F5F5F5F5F5F5F5F5F5F5F5F5F5F5F5F5F5F5F5F5F5F5F5F5F5F5F5F5F5F5F5F5F5F5F5F5F5F5E2F5F5F5
310
F5F5F5F5F5F5F5F5F5F5F5F5F5E2F5F5F5F5E2E2F5F5F5F5E2F5F5F5F5F5F5F5F5F5F5F5F5F5F5F5F5E2F5F5F5F5F5F5F5F5F5F5F5F5F5F5F5F5F5F5F5F5F5F5F5F5F5F5F5F5F5F5F5F5F5F5F5F5F5F5F5F5F5F5F5F5F5F5F5F5F5F5F5F5F5F5F5F5F5F5F5F5F5F5F5F5F5F5F5F5F5F5F5F5F5F5F5F5F5F5F5F5F5F5F5F5F5
310
F5F5F5F5F5F5F5F5F5F5F5F5F5F5F5F5F5F5F5F5F5F5F5F5F5F5F5F5F5F5F5F5F5F5F5F5F5F5F5F5F5F5F5F5F5F5F5F5F5E2F5F5F5F5F5F5F5F5F5F5F5F5F5F5F5F5E2F5F5F5F5E2E2F5F5F5F5E2F5F5F5F5F5F5F5F5F5F5F5F5F5F5F5F5E2F5F5F5F5F5F5F5F5F5F5F5F5F5F5F5F5F5F5F5F5F5F5F5F5F5F5F5F5F5F5F5F5
310
F5F5F5F5F5F5F5F5F5F5F5F5F5F5F5F5F5F5F5F5F5F5F5F5F5F5F5F5F5F5F5F5F5F5F5F5F5F5F5F5F5F5F5F5F5F5F5F5F5F5F5F5F5F5F5F5F5F5F5F5F5F5F5F5F5F5F5F5F5F5F5F5F5F5F5F5F5F5F5F5F5F5F5F5F5F5F5F5F5F5F5F5F5F5F5F5F5F5F5F5F5F5E2F5F5F5F5F5F5F5F5F5F5F5F5F5F5F5F5E2F5F5F5F5E2E2F5
310
F5F5F5E2F5F5F5F5F5F5F5F5F5F5F5F5F5F5F5F5E20F0F0F0F0F0F0F0F0F0F0FF5F5F5F5F5F5F5F5F5F5F5F5F5F5F5F5F5F5F5F5F5F5F5F5F5F5F5F5F5F5F5F5F5F5F5F5F5F5F5F5F5F5F5F5F5F5F5F5F5F5F5F5F5F5F5F5F5F5F5F5F5F5F5F5F5F5F5F5F5F5F5F5F5F5F5F5F5F5F5F5F5F5F5F5F5F5F5F5F5F5F5F5F5F5F5
310
F5F5F5F5F5F5F5F5F5F5F5F5F5F5F5F5F5F5F5F5F5F5F5F5F5F5F5F5E2F5F5F5F5F5F5F5F5F5F5F5F5F5F5F5F5E2F5F5F5F5E2E2F5F5F5F5E2F5F5F5F5F5F5F5F5F5F5F5F5F5F5F5F5E20F0F0F0F0F0F0F0F0F0F0FF5F5F5F5F5F5F5F5F5F5F5F5F5F5F5F5F5F5F5F5F5F5F5F5F5F5F5F5F5F5F5F5F5F5F5F5F5F5F5F5F5F5
310
F5F5F5F5F5F5F5F5F5F5F5F5F5F5F5F5F5F5F5F5F5F5F5F5F5F5F5F5F5F5F5F5F5F5F5F5F5F5F5F5F5F5F5F5F5F5F5F5F5F5F5F5F5F5F5F5F5F5F5F5F5F5F5F5F5F5F5F5F5F5F5F5F5F5F5F5F5F5F5F5F5E2F5F5F5F5F5F5F5F5F5F5F5F5F5F5F5F5E2F5F5F5F5E2E2F5F5F5F5E2F5F5F5F5F5F5F5F5F5F5F5F5F5F5F5F5E2
310
0F0F0F0F0F0F0F0F0F0FF5F5F5F5F5F5F5F5F5F5F5F5F5F5F5F5F5F5F5F5F5F5F5F5F5F5F5F5F5F5F5F5F5F5F5F5F5F5F5F5F5F5F5F5F5F5F5F5F5F5F5F5F5F5F5F5F5F5F5F5F5F5F5F5F5F5F5F5F5F5F5F5F5F5F5F5F5F5F5F5F5F5F5F5F5F5F5F5F5F5F5F5F5F5F5F5F5F5F5F5F5F5F5F5F5F5F5F5F5F5F5F5F5F5F5F5F5
310
F5F5F5F5F5F5F5E2F5F5F5F5F5F5F5F5F5F5F5F5F5F5F5F5E2F5F5F5F5E2E2F5F5F5F5E2F5F5F5F5F5F5F5F5F5F5F5F5F5F5F5F5E2F5F5F5F5F5F5F5F5F5F5F5F5F5F5F5F5F5F5F5F5F5F5F5F5F5F5F5F5F5F5F5F5F5F5F5F5F5F5F5F5F5F5F5F5F5F5F5F5F5F5F5F5F5F5F5F5F5F5F5F5F5F5F5F5F5F5F5F5F5F5F5F5F5F5
310
F5F5F5F5F5F5F5F5F5F5F5F5F5F5F5F5F5F5F5F5F5F5F5F5F5F5F5F5F5F5F5F5F5F5F5F5F5F5F5F5F5F5F5F5F5F5F5F5F5F5F5F5F5F5F5F5F5F5F5F5E2F5F5F5F5F5F5F5F5F5F5F5F5F5F5F5F5E2F5F5F5F5E2E2F5F5F5F5F5F5F5F5F5F5F5F5F5F5F5F5F5F5F5F5F5E2F5F5F5F5F5F5F5F5F5F5F5F5F5F5F5F5F5F5F5F5F5
310
F5F5F5F5F5F5F5F5F5F5F5F5F5F5F5F5F5F5F5F5F5F5F5F5F5F5F5F5F5F5F5F5F5F5F5F5F5F5F5F5F5F5F5F5F5F5F5F5F5F5F5F5F5F5F5F5F5F5F5F5F5F5F5F5F5F5F5F5F5F5F5F5F5F5F5F5F5F5F5F5F5F5F5F5F5F5F5F5F5F5F5F5F5F5F5F5F5F5F5F5F5F5F5F5F5F5F5F5F5F5F5F5F5E2F5F5F5F5F5F5F5F5F5F5F5F5F5
310
F5F5F5F5F5F5F5F5E2E2F5F5F5F5F5F5F5F5F5F5F5F5F5F5F5F5F5F5F5F5F5E2F5F5F5F5F5F5F5F5F5F5F5F5F5F5F5F5F5F5F5F5F5F5F5F5F5F5F5F5F5F5F5F5F5F5F5F5F5F5F5F5F5F5F5F5F5F5F5F5F5F5F5F5F5F5F5F5F5F5F5F5F5F5F5F5F5F5F5F5F5F5F5F5F5F5F5F5F5F5F5F5F5F5F5F5F5F5F5F5F5F5F5F5F5F5F5
310
F5F5F5F5F5F5F5F5F5F5F5F5F5F5F5F5F5F5F5F5F5F5F5F5F5F5F5F5F5F5F5F5F5F5F5F5F5F5F5E2F5F5F5F5F5F5F5F5F5F5F5F5F5F5F5F5F5F5F5F5F5E2E2F5F5F5F5F5F5F5F5F5F5F5F5F5F5F5F5F5F5F5F5F5E2F5F5F5F5F5F5F5F5F5F5F5F5F5F5F5F5F5F5F5F5F5F5F5F5F5F5F5F5F5F5F5F5F5F5F5F5F5F5F5F5F5F5
310
F5F5F5F5F5F5F5F5F5F5F5F5F5F5F5F5F5F5F5F5F5F5F5F5F5F5F5F5F5F5F5F5F5F5F5F5F5F5F5F5F5F5F5F5F5F5F5F5F5F5F5F5F5F5F5F5F5F5F5F5F5F5F5F5F5F5F5F5F5F5F5F5F5F5F5F5F5F5F5F5F5F5F5F5F5F5F5F5F5F5F5F5E2F5F5F5F5F5F5F5F5F5F5F5F5F5F5F5F5F5F5F5F5F5E2E2F5F5F5F5F5F5F5F5F5F5F5
310
F5F5F5F5F5F5F5F5F5F5E2F5F5F5F5F5F5F5F5F5F5F5F5F5F5F5F5F5F5F5F5F5F5F5F5F5F5F5F5F5F5F5F5F5F5F5F5F5F5F5F5F5F5F5F5F5F5F5F5F5F5F5F5F5F5F5F5F5F5F5F5F5F5F5F5F5F5F5F5F5F5F5F5F5F5F5F5F5F5F5F5F5F5F5F5F5F5F5F5F5F5F5F5F5F5F5F5F5F5F5F5F5F5F5F5F5F5F5F5F5F5F5F5F5F5F5F5
310
F5F5F5F5F5F5F5F5F5F5F5F5F5F5F5F5F5F5E2F5F5F5F5F5F5F5F5F5F5F5F5F5F5F5F5F5F5F5F5F5E2E2F5F5F5F5F5F5F5F5F5F5F5F5F5F5F5F5F5F5F5F5F5E2F5F5F5F5F5F5F5F5F5F5F5F5F5F5F5F5F5F5F5F5F5F5F5F5F5F5F5F5F5F5F5F5F5F5F5F5F5F5F5F5F5F5F5F5F5F5F5F5F5F5F5F5F5F5F5F5F5F5F5F5F5F5F5
310
F5F5F5F5F5F5F5F5F5F5F5F5F5F5F5F5F5F5F5F5F5F5F5F5F5F5F5F5F5F5F5F5F5F5F5F5F5F5F5F5F5F5F5F5F5F5F5F5F5F5F5F5F5F5F5F5F5F5F5F5F5F5F5F5F5F5F5F5F5F5F5E2F5F5F5F5F5F5F5F5F5F5F5F5F5F5F5F5F5F5F5F5F5E2E2F5F5F5F5F5F5F5F5F5F5F5F5F5F5F5F5F5F5F5F5F5E2F5F5F5F5F5F5F5F5F5F5
310
F5F5F5F5F5F5F5F5F5F5F5F5F5F5F5F5F5F5F5F5F5F5F5F5F5F5F5F5F5F5F5F5F5F5F5F5F5F5F5F5F5F5F5F5F5F5F5F5F5F5F5F5F5F5F5F5F5F5F5F5F5F5F5F5F5F5F5F5F5F5F5F5F5F5F5F5F5F5F5F5F5F5F5F5F5F5F5F5F5F5F5F5F5F5F5F5F5F5F5F5F5F5F5F5F5F5F5F5F5F5F5F5F5F5F5F5F5F5F5F5F5F5F5F5E2F5F5
310
F5F5F5F5F5F5F5F5F5F5F5F5F5F5F5F5F5F5F5E2E2F5F5F5F5F5F5F5F5F5F5F5F5F5F5F5F5F5F5F5F5F5E2F5F5F5F5F5F5F5F5F5F5F5F5F5F5F5F5F5F5F5F5F5F5F5F5F5F5F5F5F5F5F5F5F5F5F5F5F5F5F5F5F5F5F5F5F5F5F5F5F5F5F5F5F5F5F5F5F5F5F5F5F5F5F5F5F5F5F5F5F5F5F5F5F5F5F5F5F5F5F5F5F5F5F5F5
310
F5F5F5F5F5F5F5F5F5F5F5F5F5F5F5F5F5F5F5F5F5F5F5F5F5F5F5F5F5F5F5F5F5F5F5F5F5F5F5F5F5F5F5F5F5F5F5F5F5F5E2F5F5F5F5F5F5F5F5F5F5F5F5F5F5F5F5F5F5F5F5F5E2E2F5F5F5F5F5F5F5F5F5F5F5F5F5F5F5F5F5F5F5F5F5E2F5F5F5F5F5F5F5F5F5F5F5F5F5F5F5F5F5F5F5F5F5F5F5F5F5F5F5F5F5F5F5
310
F5F5F5F5F5F5F5F5F5F5F5F5F5F5F5F5F5F5F5F5F5F5F5F5F5F5F5F5F5F5F5F5F5F5F5F5F5F5F5F5F5F5F5F5F5F5F5F5F5F5F5F5F5F5F5F5F5F5F5F5F5F5F5F5F5F5F5F5F5F5F5F5F5F5F5F5F5F5F5F5F5F5F5F5F5F5F5F5F5F5F5F5F5F5F5F5F5F5F5F5F5F5F5E2F5F5F5F5F5F5F5F5F5F5F5F5F5F5F5F5F5F5F5F5F5E2E2
310
F5F5F5F5F5F5F5F5F5F5F5F5F5F5F5F5F5F5F5F5F5E2F5F5F5F5F5F5F5F5F5F5F5F5F5F5F5F5F5F5F5F5F5F5F5F5F5F5F5F5F5F5F5F5F5F5F5F5F5F5F5F5F5F5F5F5F5F5F5F5F5F5F5F5F5F5F5F5F5F5F5F5F5F5F5F5F5F5F5F5F5F5F5F5F5F5F5F5F5F5F5F5F5F5F5F5F5F5F5F5F5F5F5F5F5F5F5F5F5F5F5F5F5F5F5F5F5
310
F5F5F5F5F5F5F5F5F5F5F5F5F5F5F5F5F5F5F5F5F5F5F5F5F5F5F5F5F5E2F5F5F5F5F5F5F5F5F5F5F5F5F5F5F5F5F5F5F5F5F5E2E2F5F5F5F5E2F5F5F5F5F5F5F5F5F5F5F5F5F5F5F5F5E2F5F5F5F5F5F5F5F5F5F5F5F5F5F5F5F5F5F5F5F5F5F5F5F5F5F5F5F5F5F5F5F5F5F5F5F5F5F5F5F5F5F5F5F5F5F5F5F5F5F5F5F5
310
F5F5F5F5F5F5F5F5F5F5F5F5F5F5F5F5F5F5F5F5F5F5F5F5F5F5F5F5F5F5F5F5F5F5F5F5F5F5F5F5F5F5F5F5F5F5F5F5F5E2F0E2E2F5F5F5F5F5F5E2F0E2E2F5DCF5F5F5F5F5F5F0F0E2F5F5F5F5F5F5F5F5E2F5F5F5F5F5F5F5F5F5F5F5F5F5F5F5F5E2F5F5F5F5E2E2F5F5F5F5E2F5F5F5F5F5F5F5F5F5F5F5F5F5F5F5F5
310
E2F5F5F5F5F5F5F5F5F5F5F5F5F5F5F5F5F5F5F5F5F5F5F5F5F5F5F5F5F5F5F5F5F5F5F5F5F5F5F5F5F5F5F5F5F5F5F5F5F5F5F5F5F5F5F5F5F5F5F5F5F5F5F5F5F5F5F5F5F5F5F5F5F5F5F5F5F5F5F5F5F5F5F5F5F5F5F5F5F5F5F5F5F5F5F5F5F5F5F5F5E2DCDCF0F5E2F5F5F5F5F5E2F5F0E2E2DCF5F5F5F5F5E2F0F0F5
310
E2F5F5F5E2E2E2F5E2F5F5F5F5F5F5F5F5F5F5F5F5F5F5F5F5E2F5F5F5F5E2E2F5F5F5F5E2F5F5F5F5F5F5F5F5F5F5F5F5F5F5F5F5E2F5F5F5F5F5F5F5F5F5F5F5F5F5F5F5F5F5F5F5F5F5F5F5F5F5F5F5F5F5F5F5F5F5F5F5F5F5F5F5F5F5F5F5F5F5F5F5F5F5F5F5F5F5F5F5F5F5F5F5F5F5F5F5F5F5F5F5F5F5F5F5F5F5
310
F5F5F5F5F5F5F5F5F5F5F5F5F5F5F5F5F5F5F5F5F5F5F5F5F5F5E2F0DCF0DCE2E2E2F5F5F5E2E2F0F0F0E2DCF5F5F5F5E2F0F0F0E2E2F0E2E2E2E2E2E2E2F5F5F5F5F5F5F5F5F5F5F5F5F5F5F5F5E2F5F5F5F5E2E2F5F5F5F5E2F5F5F5F5F5F5F5F5F5F5F5F5F5F5F5F5E2F5F5F5F5F5F5F5F5F5F5F5F5F5F5F5F5F5F5F5F5
310
F5F5F5F5F5F5F5F5F5F5F5F5F5F5F5F5F5F5F5F5F5F5F5F5F5F5F5F5F5F5F5F5F5F5F5F5F5F5F5F5F5F5F5F5F5F5F5F5F5F5F5F5F5F5F5F5F5F5F5F5F5F5F5F5F5F5F5F5F5F5F5F5F5F5F5F5F5F5F5E2F0DCF0DCF0F0E2F5F5F5E2F0DCE2E2E2DCF5F5F5F5F0F0F0F0E2E2F0E2F5E2E2E2E2E2F5F5F5F5F5F5F5F5F5F5F5F5
310
F5F5F5F5E2F5F5F5F5E2E2F5F5F5F5E2F5F5F5F5F5F5F5F5F5F5F5F5F5F5F5F5E2F5F5F5F5F5F5F5F5F5F5F5F5F5F5F5F5F5F5F5F5F5F5F5F5F5F5F5F5F5F5F5F5F5F5F5F5F5F5F5F5F5F5F5F5F5F5F5F5F5F5F5F5F5F5F5F5F5F5F5F5F5F5F5F5F5F5F5F5F5F5F5F5F5F5F5F5F5F5F5F5F5F5F5F5F5F5F5F5F5F5F5F5F5F5
310
F5F5F5F5F5F5E2DCDCDCF0E2F5F5F5F5F5F0DCDCE2E2DCF5F5F5F5F5F0F0F0DCE2F0F5E2E2E2E2F5E2F5F5F5F5F5F5F5F5F5F5F5F5F5F5F5F5E2F5F5F5F5E2E2F5F5F5F5E2F5F5F5F5F5F5F5F5F5F5F5F5F5F5F5F5E2F5F5F5F5F5F5F5F5F5F5F5F5F5F5F5F5F5F5F5F5F5F5F5F5F5F5F5F5F5F5F5F5F5F5F5F5F5F5F5F5F5
310
F5F5F5F5F5F5F5F5F5F5F5F5F5F5F5F5F5F5F5F5F5F5F5F5F5F5F5F5F5F5F5F5F5F5F5F5F5F5F5F5F5F5F5F5F5F5F5F5F5F5F5F5F5F5F5F5F5F5F5E2F0F0F0E2F5F5F5F5F5E2F0E2E2E2E2DCF5F5F5F5F5F0F0E2E2F5F5F5F5E2E2E2F5E2F5F5F5F5F5F5F5F5F5F5F5F5F5F5F5F5E2F5F5F5F5E2E2F5F5F5F5E2F5F5F5F5F5
310
F5F5F5F5F5F5F5F5F5F5F5E2F5F5F5F5F5F5F5F5F5F5F5F5F5F5F5F5F5F5F5F5F5F5F5F5F5F5F5F5F5F5F5F5F5F5F5F5F5F5F5F5F5F5F5F5F5F5F5F5F5F5F5F5F5F5F5F5F5F5F5F5F5F5F5F5F5F5F5F5F5F5F5F5F5F5F5F5F5F5F5F5F5F5F5F5F5F5F5F5F5F5F5F5F5F5F5F5F5F5F5F5F5F5E2E2F5F5F5F5F5F5F5F5E2E2F5
310
F5DCF5F5F5F5F5F5F5F0E2F5F5F5F5F5E2F5F5E2F5F5F5F5F5F5F5F5F5F5F5F5F5F5F5F5E2F5F5F5F5E2E2F5F5F5F5E2F5F5F5F5F5F5F5F5F5F5F5F5F5F5F5F5E2F5F5F5F5F5F5F5F5F5F5F5F5F5F5F5F5F5F5F5F5F5F5F5F5F5F5F5F5F5F5F5F5F5F5F5F5F5F5F5F5F5F5F5F5F5F5F5F5F5F5F5F5F5F5F5F5F5F5F5F5F5F5
310
F5F5F5F5F5F5F5F5F5F5F5F5F5F5F5F5F5F5F5F5F5F5F5F5F5F5F5F5F5F5F5F5F5F5F5F5F5F5F5F5F5F5F5F5F5F5F5F5F5F5F5F5F5F5DCF5F5F5F5F5F5F5F5F5F5F5F5F5F5F5F5F5E2F5F5F5F5F5F5F5F5F5F5F5F5F5F5F5F5E2F5F5F5F5E2E2F5F5F5F5E2F5F5F5F5F5F5F5F5F5F5F5F5F5F5F5F5E2F5F5F5F5F5F5F5F5F5
310
F5F5F5F5F5F5F5F5F5F5F5F5F5F5F5F5F5F5F5F5F5F5F5F5F5F5F5F5F5F5F5F5F5F5F5F5F5F5F5F5F5F5F5F5F5F5F5F5F5F5F5F5F5F5F5F5F5F5F5F5F5F5F5F5F5F5F5F5F5F5F5F5F5F5F5F5F5F5F5F5F5F5F5F5F5F5F5F5F5F5F5F5F5F5F5F5F5F5F5F5F5F5F5F5F5F5F5DCF5F5F5F5F5F5F5F5F5F5F5F5F5F5F5F5F5E2F5
310
F5F5F5F5F5F5F5F5F5F5F5F5F5F5F5E2F5F5F5F5E2E2F5F5F5F5E2F5F5F5F5F5F5F5F5F5F5F5F5F5F5F5F5E2F5F5F5F5F5F5F5F5F5F5F5F5F5F5F5F5F5F5F5F5F5F5F5F5F5F5F5F5F5F5F5F5F5F5F5F5F5F5F5F5F5F5F5F5F5F5F5F5F5F5F5F5F5F5F5F5F5F5F5F5F5F5F5F5F5F5F5F5F5F5F5F5F5F5F5F5F5F5F5F5F5F5F5
310
F5F5F5F5F5F5F5F5F5F5F5F5F5F5F5F5F5F5F5F5F5F5F5F5F5F5F5F5F5F5F5F5F5DCF5F5F5F5F5F5F5F5F5F5F5F5F5F5F5F5F5E2F5F5F5F5F5F5F5F5F5F5F5F5F5F5F5F5E2F5F5F5F5E2E2F5F5F5F5E2F5F5F5F5F5F5F5F5F5F5F5F5F5F5F5F5E2F5F5F5F5F5F5F5F5F5F5F5F5F5F5F5F5F5F5F5F5F5F5F5F5F5F5F5F5F5F5
310
F5F5F5F5F5F5F5F5F5F5F5F5F5F5F5F5F5F5F5F5F5F5F5F5F5F5F5F5F5F5F5F5F5F5F5F5F5F5F5F5F5F5F5F5F5F5F5F5F5F5F5F5F5F5F5F5F5F5F5F5F5F5F5F5F5F5F5F5F5F5F5F5F5F5F5F5F5F5F5F5F5F5F5F5F5F5DCF5F5F5F5F5F5F5F5F5F5F5F5F5F5F5F5F5E2F5F5F5F5F5F5F5F5F5F5F5F5F5F5F5F5E2F5F5F5F5E2
310
E2F5F5F5F5E2F5F5F5F5F5F5F5F5F5F5F5F5F5F5F5F5E2F5F5F5F5F5F5F5F5F5F5F5F5F5F5F5F5F5F5F5F5F5F5F5F5F5F5F5F5F5F5F5F5F5F5F5F5F5F5F5F5F5F5F5F5F5F5F5F5F5F5F5F5F5F5F5F5F5F5F5F5F5F5F5F5F5F5F5F5F5F5F5F5F5F5F5F5F5F5F5F5F5F5F5F5F5F5F5F5F5F5F5F5F5F5F5F5F5F5F5F5F5F5F5F5
310
F5F5F5F5F5F5F5F5F5F5F5F5DCF5F5F5F5F5F5F5F5F5F5F5F5F5F5F5F5F5E2F5F5F5F5F5F5F5F5F5F5F5F5F5F5F5F5E2F5F5F5F5E2E2F5F5F5F5E2F5F5F5F5F5F5F5F5F5F5F5F5F5F5F5F5E2F5F5F5F5F5F5F5F5F5F5F5F5F5F5F5F5F5F5F5F5F5F5F5F5F5F5F5F5F5F5F5F5F5F5F5F5F5F5F5F5F5F5F5F5F5F5F5F5F5F5F5
310
F5F5F5F5F5F5F5F5F5F5F5F5F5F5F5F5F5F5F5F5F5F5F5F5F5F5F5F5F5F5F5F5F5F5F5F5F5F5F5F5F5F5F5F5F5F5F5F5F5F5F5F5F5F5F5F5F5F5F5F5F5F5F5F5F5DCF5F5F5F5F5F5F5F5F5F5F5F5F5F5F5F5F5E2F5F5F5F5F5F5F5F5F5F5F5F5F5F5F5F5E2F5F5F5F5E2E2F5F5F5F5E2F5F5F5F5F5F5F5F5F5F5F5F5F5F5F5
310
F5E2F5F5F5F5F5F5F5F5F5F5F5F5F5F5F5F5F5F5F5F5F5F5F5F5F5F5F5F5F5F5F5F5F5F5F5F5F5F5F5F5F5F5F5F5F5F5F5F5F5F5F5F5F5F5F5F5F5F5F5F5F5F5F5F5F5F5F5F5F5F5F5F5F5F5F5F5F5F5F5F5F5F5F5F5F5F5F5F5F5F5F5F5F5F5F5F5F5F5F5F5F5F5F5F5F5F5F5F5F5F5F5F5F5F5F5F5DCF5F5F5F5F5F5F5F5
310
F5F5F5F5F5F5F5F5F5E2F5F5F5F5F5F5F5F5F5F5F5F5F5F5F5F5E2F5F5F5F5E2E2F5F5F5F5E2F5F5F5F5F5F5F5F5F5F5F5F5F5F5F5F5E2F5F5F5F5F5F5F5F5F5F5F5F5F5F5F5F5F5F5F5F5F5F5F5F5F5F5F5F5F5F5F5F5F5F5F5F5F5F5F5F5F5F5F5F5F5F5F5F5F5F5F5F5F5F5F5F5F5F5F5F5F5F5F5F5F5F5F5F5F5F5F5F5
310
F5F5F5F5F5F5F5F5F5F5F5F5F5F5F5F5F5F5F5F5F5F5F5F5F5F5F5F5F5F5F5F5F5F5F5F5F5F5F5F5F5F5E2E2DCE2F5F5F5F5F5F5F5F5F5F5F5F5F5F5F5F5E2F5F5F5F5F5F5F5F5F5F5F5F5F5F5F5F5E2F5F5F5F5E2E2F5F5F5F5E2F5F5F5F5F5F5F5F5F5F5F5F5F5F5F5F5E2F5F5F5F5F5F5F5F5F5F5F5F5F5F5F5F5F5F5F5
310
F5F5F5F5F5F5F5F5F5F5F5F5F5F5F5F5F5F5F5F5F5F5F5F5F5F5F5F5F5F5F5F5F5F5F5F5F5F5F5F5F5F5F5F5F5F5F5F5F5F5F5F5F5F5F5F5F5F5F5F5F5F5F5F5F5F5F5F5F5F5F5F5F5F5F5F5F5F5F5F5F5F5F5F5F5F5F5F5F5F5F5F5F5F5F5F5F5DCF5F5F5F5F5F5F5F5F5F5F5F5F5F5F5F5F5E2F5F5F5F5F5F5F5F5F5F5F5
310
F5F5F5F5F5E2F5F5F5F5E2E2F5F5F5F5E2F5F5F5F5F5F5F5F5F5F5F5F5F5F5F5F5E2F5F5F5F5F5F5F5F5F5F5F5F5F5F5F5F5F5F5F5F5F5F5F5F5F5F5F5F5F5F5F5F5F5F5F5F5F5F5F5F5F5F5F5F5F5F5F5F5F5F5F5F5F5F5F5F5F5F5F5F5F5F5F5F5F5F5F5F5F5F5F5F5F5F5F5F5F5F5F5F5F5F5F5F5F5F5F5F5F5F5F5F5F5
310
F5F5F5F5F5F5F5F5F5F5F5F5F5F5F5F5F5F5F5F5F5F5F5DCF5F5F5F5F5F5F5F5F5F5F5F5F5F5F5F5F5E2F5F5F5F5F5F5F5F5F5F5F5F5F5F5F5F5E2F5F5F5F5E2E2F5F5F5F5F5F5F5F5F5F5F5F5F5F5F5F5F5F5F5F5F5E2F5F5F5F5F5F5F5F5F5F5F5F5F5F5F5F5F5F5F5F5F5F5F5F5F5F5F5F5F5F5F5F5F5F5F5F5F5F5F5F5
310
F5F5F5F5F5F5F5F5F5F5F5F5F5F5F5F5F5F5F5F5F5F5F5F5F5F5F5F5F5F5F5F5F5F5F5F5F5F5F5F5F5F5F5F5F5F5F5F5F5F5F5F5F5F5F5F5F5F5F5F5F5F5F5F5F5F5F5F5F5F5F5F5F5F5F5F5DCF5F5F5F5F5F5F5F5F5F5F5F5F5F5F5F5F5E2F5F5F5F5F5F5F5F5F5F5F5F5F5F5F5F5F5F5F5F5F5E2E2F5F5F5F5F5F5F5F5F5
310
F5F5F5F5F5F5F5F5F5F5F5F5E2F5F5F5F5F5F5F5F5F5F5F5F5F5F5F5F5F5F5F5F5F5F5F5F5F5F5F5F5F5F5F5F5F5F5F5F5F5F5F5F5F5F5F5F5F5F5F5F5F5F5F5F5F5F5F5F5F5F5F5F5F5F5F5F5F5F5F5F5F5F5F5F5F5F5F5F5F5F5F5F5F5F5F5F5F5F5F5F5F5F5F5F5F5F5F5F5F5F5F5F5F5F5F5F5F5F5F5F5F5F5F5F5F5F5
310
F5F5F5F5F5F5F5F5F5F5F5F5F5F5F5F5F5F5F5F5E2F5F5F5F5F5F5F5F5F5F5F5F5F5F5F5F5F5F5F5F5F5E2E2F5F5F5F5F5F5F5F5F5F5F5F5F5F5F5F5F5F5F5F5F5E2F5F5F5F5F5F5F5F5F5F5F5F5F5F5F5F5F5F5F5F5F5F5F5F5F5F5F5F5F5F5F5F5F5F5F5F5F5F5F5F5F5F5F5F5F5F5F5F5F5F5F5F5F5F5F5F5F5F5F5F5F5
310
F5F5F5F5F5F5F5F5F5F5F5F5F5F5F5F5F5F5F5F5F5F5F5F5F5F5F5F5F5F5F5F5F5F5F5F5F5F5F5F5F5F5F5F5F5F5F5F5F5F5F5F5F5F5F5F5F5F5F5F5F5F5F5F5F5F5F5F5F5F5F5F5F5E2F5F5F5F5F5F5F5F5F5F5F5F5F5F5F5F5F5F5F5F5F5E2E2F5F5F5F5F5F5F5F5F5F5F5F5F5F5F5F5F5F5F5F5F5E2F5F5F5F5F5F5F5F5
310
F5F5F5F5F5F5F5F5F5F5F5F5F5F5F5F5F5F5F5F5F5F5F5F5F5F5F5F5F5F5F5F5F5F5F5F5F5F5F5F5F5F5F5F5F5F5F5F5F5F5F5F5F5F5F5F5F5F5F5F5F5F5F5F5F5F5F5F5F5F5F5F5F5F5F5F5F5F5F5F5F5F5F5F5F5F5F5F5F5F5F5F5F5F5F5F5F5F5F5F5F5F5F5F5F5F5F5F5F5F5F5F5F5F5F5F5F5F5F5F5F5F5F5F5F5F5E2
310
F5F5F5F5F5F5F5F5F5F5F5F5F5F5F5F5F5F5F5F5F5E2E2F5F5F5F5F5F5F5F5F5F5F5F5F5F5F5F5F5F5F5F5F5E2F5F5F5F5F5F5F5F5F5F5F5F5F5F5F5F5F5F5F5F5F5F5F5F5F5F5F5F5F5F5F5F5F5F5F5F5F5F5F5F5F5F5F5F5F5F5F5F5F5F5F5F5F5F5F5F5F5F5F5F5F5F5F5F5F5F5F5F5F5F5F5F5F5F5F5F5F5F5F5F5F5F5
310
F5F5F5F5F5F5F5F5F5F5F5F5F5F5F5F5F5F5F5F5F5F5F5F5F5F5F5F5F5F5F5F5F5F5F5F5F5F5F5F5F5F5F5F5F5F5F5F5F5F5F5F5E2F5F5F5F5F5F5F5F5F5F5F5F5F5F5F5F5F5F5F5F5F5E2E2F5F5F5F5F5F5F5F5F5F5F5F5F5F5F5F5F5F5F5F5F5E2F5F5F5F5F5F5F5F5F5F5F5F5F5F5F5F5F5F5F5F5F5F5F5F5F5F5F5F5F5
310
F5F5F5F5F5F5F5F5F5F5F5F5F5F5F5F5F5F5F5F5F5F5F5F5F5F5F5F5F5F5F5F5F5F5F5F5F5F5F5F5F5F5F5F5F5F5F5F5F5F5F5F5F5F5F5F5F5F5F5F5F5F5F5F5F5F5F5F5F5F5F5F5F5F5F5F5F5F5F5F5F5F5F5F5F5F5F5F5F5F5F5F5F5F5F5F5F5F5F5F5F5F5F5F5F5E2F5F5F5F5F5F5F5F5F5F5F5F5F5F5F5F5F5F5F5F5F5
310
E2E2F5F5F5F5F5F5F5F5F5F5F5F5F5F5F5F5F5F5F5F5F5E2F5F5F5F5F5F5F5F5F5F5F5F5F5F5F5F5F5F5F5F5F5F5F5F5F5F5F5F5F5F5F5F5F5F5F5F5F5F5F5F5F5F5F5F5F5F5F5F5F5F5F5F5F5F5F5F5F5F5F5F5F5F5F5F5F5F5F5F5F5F5F5F5F5F5F5F5F5F5F5F5F5F5F5F5F5F5F5F5F5F5F5F5F5F5F5F5F5F5F5F5F5F5F5
310
F5F5F5F5F5F5F5F5F5F5F5F5F5F5F5F5F5F5F5F5F5F5F5F5F5F5F5F5F5F5F5E2F5F5F5F5F5F5F5F5F5F5F5F5F5F5F5F5F5F5F5F5F5E2E2F5F5F5F5F5F5F5F5F5F5F5F5F5F5F5F5F5F5F5F5F5E2F5F5F5F5F5F5F5F5F5F5F5F5F5F5F5F5F5F5F5F5F5F5F5F5F5F5F5F5F5F5F5F5F5F5F5F5F5F5F5F5F5F5F5F5F5F5F5F5F5F5
310
F5F5F5F5F5F5F5F5F5F5F5F5F5F5F5F5F5F5F5F5F5F5F5F5F5F5F5F5F5F5F5F5F5F5F5F5F5F5F5F5F5F5F5F5F5F5F5F5F5F5F5F5F5F5F5F5F5F5F5F5F5F5F5F5F5F5F5F5F5F5F5F5F5F5F5F5F5F5F5F5F5F5F5F5E2F5F5F5F5F5F5F5F5F5F5F5F5F5F5F5F5F5F5F5F5F5E2E2F5F5F5F5F5F5F5F5F5F5F5F5F5F5F5F5F5F5F5
310
F5F5E2F5F5F5F5F5F5F5F5F5F5F5F5F5F5F5F5F5F5F5F5F5F5F5F5F5F5F5F5F5F5F5F5F5F5F5F5F5F5F5F5F5F5F5F5F5F5F5F5F5F5F5F5F5F5F5F5F5F5F5F5F5F5F5F5F5F5F5F5F5F5F5F5F5F5F5F5F5F5F5F5F5F5F5F5F5F5F5F5F5F5F5F5F5F5F5F5F5F5F5F5F5F5F5F5F5F5F5F5F5F5F5F5F5F5F5F5F5F5F5F5F5F5F5F5
310
F5F5F5F5F5F5F5F5F5F5E2F5F5F5F5F5F5F5F5F5F5F5F5F5F5F5F5F5F5F5F5F5E2E2F5F5F5F5E2F5F5F5F5F5F5F5F5F5F5F5F5F5F5F5F5E2F5F5F5F5F5F5F5F5F5F5F5F5F5F5F5F5F5F5F5F5F5F5F5F5F5F5F5F5F5F5F5F5F5F5F5F5F5F5F5F5F5F5F5F5F5F5F5F5F5F5F5F5F5F5F5F5F5F5F5F5F5F5F5F5F5F5F5F5F5F5F5
310
F5F5F5F5F5F5F5F5F5F5F5F5F5F5F5F5F5F5F5F5F5F5F5F5F5F5F5F5F5F5F5F5F5F5F5F5F5F5F5F5F5F5F5F5F5F5F5F5F5F5F5F5F5F5F5F5F5F5F5F5F5F5F5E2F5F5F5F5F5F5F5F5F5F5F5F5F5F5F5F5E2F5F5F5F5E2E2F5F5F5F5E2F5F5F5F5F5F5F5F5F5F5F5F5F5F5F5F5E2F5F5F5F5F5F5F5F5F5F5F5F5F5F5F5F5F5F5
310
F5F5F5F5F5F5F5F5F5F5F5F5F5F5F5F5F5F5F5F5F5F5F5F5F5F5F5F5F5F5F5F5F5F5F5F5F5F5F5F5F5F5F5F5F5F5F5F5F5F5F5F5F5F5F5F5F5F5F5F5F5F5F5F5F5F5F5F5F5F5F5F5F5F5F5F5F5F5F5F5F5F5F5F5F5F5F5F5F5F5F5F5F5F5F5F5F5F5F5F5F5F5F5F5F5F5F5F5F5F5F5F5F5F5F5F5E2F5F5F5F5F5F5F5F5F5F5
310
F5F5F5F5F5F5E2F5F5F5F5E2E2F5F5F5F5E2F5F5F5F5F5F5F5F5F5F5F5F5F5F5F5F5E2F5F5F5F5F5F5F5F5F5F5F5F5F5F5F5F5F5F5F5F5F5F5F5F5F5F5F5F5F5F5F5F5F5F5F5F5F5F5F5F5F5F5F5F5F5F5F5F5F5F5F5F5F5F5F5F5F5F5F5F5F5F5F5F5F5F5F5F5F5F5F5F5F5F5F5F5F5F5F5F5F5F5F5F5F5F5F5F5F5F5F5F5
310
F5F5F5F5F5F5F5F5F5F5F5F5F5F5F5F5F5F5F5F5F5F5F5F5F5F5F5F5F5F5F5F5F5F5F5F5F5F5F5F5F5F5E2F5F5F5F5F5F5F5F5F5F5F5F5F5F5F5F5E2F5F5F5F5E2E2F5F5F5F5E2F5F5F5F5F5F5F5F5F5F5F5F5F5F5F5F5E2F5F5F5F5F5F5F5F5F5F5F5F5F5F5F5F5F5F5F5F5F5F5F5F5F5F5F5F5F5F5F5F5F5F5F5F5F5F5F5
310
F5F5F5F5F5F5F5F5F5F5F5F5F5F5F5F5F5F5F5F5F5F5F5F5F5F5F5F5F5F5F5F5F5F5F5F5F5F5F5F5F5F5F5F5F5F5F5F5F5F5F5F5F5F5F5F5F5F5F5F5F5F5F5F5F5F5F5F5F5F5F5F5F5F5F5F5F5F5F5F5F5F5F5F5F5F5F5F5F5F5F5F5F5F5F5E2F5F5F5F5F5F5F5F5F5F5F5F5F5F5F5F5E2F5F5F5F5E2E2F5F5F5F5E2F5F5F5
310
F5F5F5F5F5F5F5F5F5F5F5F5F5E2F5F5F5F5F5F5F5F5F5F5F5F5F5F5F5F5F5F5F5F5F5F5F5F5F5F5F5F5F5F5F5F5F5F5F5F5F5F5F5F5F5F5F5F5F5F5F5F5F5F5F5F5F5F5F5F5F5F5F5F5F5F5F5F5F5F5F5F5F5F5F5F5F5F5F5F5F5F5F5F5F5F5F5F5F5F5F5F5F5F5F5F5F5F5F5F5F5F5F5F5F5F5F5F5F5F5F5F5F5F5F5F5F5
310
F5F5F5F5F5F5F5F5F5F5F5F5F5F5F5F5F5F5F5F5F5E2F5F5F5F5F5F5F5F5F5F5F5F5F5F5F5F5E2F5F5F5F5E2E2F5F5F5F5E2F5F5F5F5F5F5F5F5F5F5F5F5F5F5F5F5E2F5F5F5F5F5F5F5F5F5F5F5F5F5F5F5F5F5F5F5F5F5F5F5F5F5F5F5F5F5F5F5F5F5F5F5F5F5F5F5F5F5F5F5F5F5F5F5F5F5F5F5F5F5F5F5F5F5F5F5F5
310
F5F5F5F5F5F5F5F5F5F5F5F5F5F5F5F5F5F5F5F5F5F5F5F5F5F5F5F5F5F5F5F5F5F5F5F5F5F5F5F5F5F5F5F5F5F5F5F5F5F5F5F5F5F5F5F5F5F5F5F5F5F5F5F5F5F5F5F5F5F5F5F5F5F5E2F5F5F5F5F5F5F5F5F5F5F5F5F5F5F5F5E2F5F5F5F5E2E2F5F5F5F5E2F5F5F5F5F5F5F5F5F5F5F5F5F5F5F5F5E2F5F5F5F5F5F5F5
310
F5F5F5F5F5F5F5F5F5F5F5F5F5F5F5F5F5F5F5F5F5F5F5F5F5F5F5F5F5F5F5F5F5F5F5F5F5F5F5F5F5F5F5F5F5F5F5F5F5F5F5F5F5F5F5F5F5F5F5F5F5F5F5F5F5F5F5F5F5F5F5F5F5F5F5F5F5F5F5F5F5F5F5F5F5F5F5F5F5F5F5F5F5F5F5F5F5F5F5F5F5F5F5F5F5F5F5F5F5F5F5F5F5F5F5F5F5F5F5F5F5F5F5F5F5F5F5
310
E2F5F5F5F5F5F5F5F5F5F5F5F5F5F5F5F5E2F5F5F5F5E2E2F5F5F5F5E2F5F5F5F5F5F5F5F5F5F5F5F5F5F5F5F5E2F5F5F5F5F5F5F5F5F5F5F5F5F5F5F5F5F5F5F5F5F5F5F5F5F5F5F5F5F5F5F5F5F5F5F5F5F5F5F5F5F5F5F5F5F5F5F5F5F5F5F5F5F5F5F5F5F5F5F5F5F5F5F5F5F5F5F5F5F5F5F5F5F5F5F5F5F5F5F5F5F5
310
F5F5F5F5F5F5F5F5F5F5F5F5F5F5F5F5F5F5F5F5F5F5F5F5F5F5F5F5F5F5F5F5F5F5F5F5F5F5F5F5F5F5F5F5F5F5F5F5F5F5F5F5F5E2F5F5F5F5F5F5F5F5F5F5F5F5F5F5F5F5E2F5F5F5F5E2E2F5F5F5F5E2F5F5F5F5F5F5F5F5F5F5F5F5F5F5F5F5E2F5F5F5F5F5F5F5F5F5F5F5F5F5F5F5F5F5F5F5F5F5F5F5F5F5F5F5F5
310
F5F5F5F5F5F5F5F5F5F5F5F5F5F5F5F5F5F5F5F5F5F5F5F5F5F5F5F5F5F5F5F5F5F5F5F5F5F5F5F5F5F5F5F5F5F5F5F5F5F5F5F5F5F5F5F5F5F5F5F5F5F5F5F5F5F5F5F5F5F5F5F5F5F5F5F5F5F5F5F5F5F5F5F5F5F5F5F5F5F5F5F5F5F5F5F5F5F5F5F5F5F5F5F5F5F5E2F5F5F5F5F5F5F5F5F5F5F5F5F5F5F5F5E2F5F5F5
310
F5E2E2F5F5F5F5E2F5F5F5F5F5F5F5F5F5F5F5F5F5F5F5F5E2F5F5F5F5F5F5F5F5F5F5F5F5F5F5F5F5F5F5F5F5F5F5F5F5F5F5F5F5F5F5F5F5F5F5F5F5F5F5F5F5F5F5F5F5F5F5F5F5F5F5F5F5F5F5F5F5F5F5F5F5F5F5F5F5F5F5F5F5F5F5F5F5F5F5F5F5F5F5F5F5F5F5F5F5F5F5F5F5F5F5F5F5F5F5F5F5F5F5F5F5F5F5
310
F5F5F5F5F5F5F5F5F5F5F5F5F5F5F5F5F5F5F5F5F5F5F5F5F5F5F5F5F5F5F5F5E2F5F5F5F5F5F5F5F5F5F5F5F5F5F5F5F5E2F5F5F5F5E2E2F5F5F5F5E2F5F5F5F5F5F5F5F5F5F5F5F5F5F5F5F5E2F5F5F5F5F5F5F5F5F5F5F5F5F5F5F5F5F5F5F5F5F5F5F5F5F5F5F5F5F5F5F5F5F5F5F5F5F5F5F5F5F5F5F5F5F5F5F5F5F5
310
F5F5F5F5F5F5F5F5F5F5F5F5F5F5F5F5F5F5F5F5F5F5F5F5F5F5F5F5F5F5F5F5F5F5F5F5F5F5F5F5F5F5F5F5F5F5F5F5F5F5F5F5F5F5F5F5F5F5F5F5F5F5F5F5F5F5F5F5F5F5F5F5F5F5F5F5F5F5F5F5F5F5F5F5F5E2F5F5F5F5F5F5F5F5F5F5F5F5F5F5F5F5E2F5F5F5F5E2E2F5F5F5F5E2F5F5F5F5F5F5F5F5F5F5F5F5F5
310
F5F5F5E2F5F5F5F5F5F5F5F5F5F5F5F5F5F5F5F5F5F5F5F5F5F5F5F5F5F5F5F5F5F5F5F5F5F5F5F5F5F5F5F5F5F5F5F5F5F5F5F5F5F5F5F5F5F5F5F5F5F5F5F5F5F5F5F5F5F5F5F5F5F5F5F5F5F5F5F5F5F5F5F5F5F5F5F5F5F5F5F5F5F5F5F5F5F5F5F5F5F5F5F5F5F5F5F5F5F5F5F5F5F5F5F5F5F5F5F5F5F5F5F5F5F5F5
310
F5F5F5F5F5F5F5F5F5F5F5E2F5F5F5F5F5F5F5F5F5F5F5F5F5F5F5F5E2F5F5F5F5E2E2F5F5F5F5E2F5F5F5F5F5F5F5F5F5F5F5F5F5F5F5F5E2F5F5F5F5F5F5F5F5F5F5F5F5F5F5F5F5F5F5F5F5F5F5F5F5F5F5F5F5F5F5F5F5F5F5F5F5F5F5F5F5F5F5F5F5F5F5F5F5F5F5F5F5F5F5F5F5F5F5F5F5F5F5F5F5F5F5F5F5F5F5
310
F5F5F5F5F5F5F5F5F5F5F5F5F5F5F5F5F5F5F5F5F5F5F5F5F5F5F5F5F5F5F5F5F5F5F5F5F5F5F5F5F5F5F5F5F5F5F5F5F5F5F5F5F5F5F5F5F5F5F5F5F5F5F5F5E2F5F5F5F5F5F5F5F5F5F5F5F5F5F5F5F5E2F5F5F5F5E2E2F5F5F5F5E2F5F5F5F5F5F5F5F5F5F5F5F5F5F5F5F5E2F5F5F5F5F5F5F5F5F5F5F5F5F5F5F5F5F5
310
F5F5F5F5F5F5F5F5F5F5F5F5F5F5F5F5F5F5F5F5F5F5F5F5F5F5F5F5F5F5F5F5F5F5F5F5F5F5F5F5F5F5F5F5F5F5F5F5F5F5F5F5F5F5F5F5F5F5F5F5F5F5F5F5F5F5F5F5F5F5F5F5F5F5F5F5F5F5F5F5F5F5F5F5F5F5F5F5F5F5F5F5F5F5F5F5F5F5F5F5F5F5F5F5F5F5F5F5F5F5F5F5F5F5F5F5F5E2F5F5F5F5F5F5F5F5F5
310
F5F5F5F5F5F5F5E2F5F5F5F5E2E2F5F5F5F5E2F5F5F5F5F5F5F5F5F5F5F5F5F5F5F5F5E2F5F5F5F5F5F5F5F5F5F5F5F5F5F5F5F5F5F5F5F5F5F5F5F5F5F5F5F5F5F5F5F5F5F5F5F5F5F5F5F5F5F5F5F5F5F5F5F5F5F5F5F5F5F5F5F5F5F5F5F5F5F5F5F5F5F5F5F5F5F5F5F5F5F5F5F5F5F5F5F5F5F5F5F5F5F5F5F5F5F5F5
310
F5F5F5F5F5F5F5F5F5F5F5F5F5F5F5F5F5F5F5F5F5F5F5F5F5F5F5F5F5F5F5F5F5F5F5F5F5F5F5F5F5F5F5E2F5F5F5F5F5F5F5F5F5F5F5F5F5F5F5F5E2F5F5F5F5E2E2F5F5F5F5E2F5F5F5F5F5F5F5F5F5F5F5F5F5F5F5F5E2F5F5F5F5F5F5F5F5F5F5F5F5F5F5F5F5F5F5F5F5F5F5F5F5F5F5F5F5F5F5F5F5F5F5F5F5F5F5
310
F5F5F5F5F5F5F5F5F5F5F5F5F5F5F5F5F5F5F5F5F5F5F5F5F5F5F5F5F5F5F5F5F5F5F5F5F5F5F5F5F5F5F5F5F5F5F5F5F5F5F5F5F5F5F5F5F5F5F5F5F5F5F5F5F5F5F5F5F5F5F5F5F5F5F5F5F5F5F5F5F5F5F5F5F5F5F5F5F5F5F5F5F5F5F5F5E2F5F5F5F5F5F5F5F5F5F5F5F5F5F5F5F5E2F5F5F5F5E2E2F5F5F5F5E2F5F5
310
F5F5F5F5F5F5F5F5F5F5F5F5F5F5E2F5F5F5F5F5F5F5F5F5F5F5F5F5F5F5F5F5F5F5F5F5F5F5F5F5F5F5F5F5F5F5F5F5F5F5F5F5F5F5F5F5F5F5F5F5F5F5F5F5F5F5F5F5F5F5F5F5F5F5F5F5F5F5F5F5F5F5F5F5F5F5F5F5F5F5F5F5F5F5F5F5F5F5F5F5F5F5F5F5F5F5F5F5F5F5F5F5F5F5F5F5F5F5F5F5F5F5F5F5F5F5F5
310
F5F5F5F5F5F5F5F5F5F5F5F5F5F5F5F5F5F5F5F5F5F5E2F5F5F5F5F5F5F5F5F5F5F5F5F5F5F5F5E2F5F5F5F5E2E2F5F5F5F5F5F5F5F5F5F5F5F5F5F5F5F5F5F5F5F5F5E2F5F5F5F5F5F5F5F5F5F5F5F5F5F5F5F5F5F5F5F5F5F5F5F5F5F5F5F5F5F5F5F5F5F5F5F5F5F5F5F5F5F5F5F5F5F5F5F5F5F5F5F5F5F5F5F5F5F5F5
310
F5F5F5F5F5F5F5F5F5F5F5F5F5F5F5F5F5F5F5F5F5F5F5F5F5F5F5F5F5F5F5F5F5F5F5F5F5F5F5F5F5F5F5F5F5F5F5F5F5F5F5F5F5F5F5F5F5F5F5F5F5F5F5F5F5F5F5F5F5F5F5F5F5F5F5E2F5F5F5F5F5F5F5F5F5F5F5F5F5F5F5F5F5F5F5F5F5E2E2F5F5F5F5F5F5F5F5F5F5F5F5F5F5F5F5F5F5F5F5F5E2F5F5F5F5F5F5
310
F5F5F5F5F5F5F5F5F5F5F5F5F5F5F5F5F5F5F5F5F5F5F5F5F5F5F5F5F5F5F5F5F5F5F5F5F5F5F5F5F5F5F5F5F5F5F5F5F5F5F5F5F5F5F5F5F5F5F5F5F5F5F5F5F5F5F5F5F5F5F5F5F5F5F5F5F5F5F5F5F5F5F5F5F5F5F5F5F5F5F5F5F5F5F5F5F5F5F5F5F5F5F5F5F5F5F5F5F5F5F5F5F5F5F5F5F5F5F5F5F5F5F5F5F5F5F5
310
F5E2F5F5F5F5F5F5F5F5F5F5F5F5F5F5F5F5F5F5F5F5F5E2E2F5F5F5F5F5F5F5F5F5F5F5F5F5F5F5F5F5F5F5F5F5E2F5F5F5F5F5F5F5F5F5F5F5F5F5F5F5F5F5F5F5F5F5F5F5F5F5F5F5F5F5F5F5F5F5F5F5F5F5F5F5F5F5F5F5F5F5F5F5F5F5F5F5F5F5F5F5F5F5F5F5F5F5F5F5F5F5F5F5F5F5F5F5F5F5F5F5F5F5F5F5F5
310
F5F5F5F5F5F5F5F5F5F5F5F5F5F5F5F5F5F5F5F5F5F5F5F5F5F5F5F5F5F5F5F5F5F5F5F5F5F5F5F5F5F5F5F5F5F5F5F5F5F5F5F5F5F5E2F5F5F5F5F5F5F5F5F5F5F5F5F5F5F5F5F5F5F5F5F5E2E2F5F5F5F5F5F5F5F5F5F5F5F5F5F5F5F5F5F5F5F5F5E2F5F5F5F5F5F5F5F5F5F5F5F5F5F5F5F5F5F5F5F5F5F5F5F5F5F5F5
310
F5F5F5F5F5F5F5F5F5F5F5F5F5F5F5F5F5F5F5F5F5F5F5F5F5F5F5F5F5F5F5F5F5F5F5F5F5F5F5F5F5F5F5F5F5F5F5F5F5F5F5F5F5F5F5F5F5F5F5F5F5F5F5F5F5F5F5F5F5F5F5F5F5F5F5F5F5F5F5F5F5F5F5F5F5F5F5F5F5F5F5F5F5F5F5F5F5F5F5F5F5F5F5F5F5F5F5E2F5F5F5F5F5F5F5F5F5F5F5F5F5F5F5F5F5F5F5
310
F5F5E2E2F5F5F5F5F5F5F5F5F5F5F5F5F5F5F5F5F5F5F5F5F5E2F5F5F5F5F5F5F5F5F5F5F5F5F5F5F5F5F5F5F5F5F5F5F5F5F5F5F5F5F5F5F5F5F5F5F5F5F5F5F5F5F5F5F5F5F5F5F5F5F5F5F5F5F5F5F5F5F5F5F5F5F5F5F5F5F5F5F5F5F5F5F5F5F5F5F5F5F5F5F5F5F5F5F5F5F5F5F5F5F5F5F5F5F5F5F5F5F5F5F5F5F5
310
F5F5F5F5F5F5F5F5F5F5F5F5F5F5F5F5F5F5F5F5F5F5F5F5F5F5F5F5F5F5F5F5F5E2F5F5F5F5F5F5F5F5F5F5F5F5F5F5F5F5F5F5F5F5F5E2E2F5F5F5F5F5F5F5F5F5F5F5F5F5F5F5F5F5F5F5F5F5E2F5F5F5F5F5F5F5F5F5F5F5F5F5F5F5F5F5F5F5F5F5F5F5F5F5F5F5F5F5F5F5F5F5F5F5F5F5F5F5F5F5F5F5F5F5F5F5F5
310
F5F5F5F5F5F5F5F5F5F5F5F5F5F5F5F5F5F5F5F5F5F5F5F5F5F5F5F5F5F5F5F5F5F5F5F5F5F5F5F5F5F5F5F5F5F5F5F5F5F5F5F5F5F5F5F5F5F5F5F5F5F5F5F5F5F5F5F5F5F5F5F5F5F5F5F5F5F5F5F5F5F5F5F5F5F5E2F5F5F5F5F5F5F5F5F5F5F5F5F5F5F5F5F5F5F5F5F5E2E2F5F5F5F5F5F5F5F5F5F5F5F5F5F5F5F5F5
310
F5F5F5F5E2F5F5F5F5F5F5F5F5F5F5F5F5F5F5F5F5F5F5F5F5F5F5F5F5F5F5F5F5F5F5F5F5F5F5F5F5F5F5F5F5F5F5F5F5F5F5F5F5F5F5F5F5F5F5F5F5F5F5F5F5F5F5F5F5F5F5F5F5F5F5F5F5F5F5F5F5F5F5F5F5F5F5F5F5F5F5F5F5F5F5F5F5F5F5F5F5F5F5F5F5F5F5F5F5F5F5F5F5F5F5F5F5F5F5F5F5F5F5F5F5F5F5
310
F5F5F5F5F5F5F5F5F5F5F5F5E2F5F5F5F5F5F5F5F5F5F5F5F5F5F5F5F5F5F5F5F5F5E2E2F5F5F5F5F5F5F5F5F5F5F5F5F5F5F5F5F5F5F5F5F5E2F5F5F5F5F5F5F5F5F5F5F5F5F5F5F5F5F5F5F5F5F5F5F5F5F5F5F5F5F5F5F5F5F5F5F5F5F5F5F5F5F5F5F5F5F5F5F5F5F5F5F5F5F5F5F5F5F5F5F5F5F5F5F5F5F5F5F5F5F5
310
F5F5F5F5F5F5F5F5F5F5F5F5F5F5F5F5F5F5F5F5F5F5F5F5F5F5F5F5F5F5F5F5F5F5F5F5F5F5F5F5F5F5F5F5F5F5F5F5F5F5F5F5F5F5F5F5F5F5F5F5F5F5F5F5F5E2F5F5F5F5F5F5F5F5F5F5F5F5F5F5F5F5F5F5F5F5F5E2E2F5F5F5F5F5F5F5F5F5F5F5F5F5F5F5F5F5F5F5F5F5E2F5F5F5F5F5F5F5F5F5F5F5F5F5F5F5F5
310
F5F5F5F5F5F5F5F5F5F5F5F5F5F5F5F5F5F5F5F5F5F5F5F5F5F5F5F5F5F5F5F5F5F5F5F5F5F5F5F5F5F5F5F5F5F5F5F5F5F5F5F5F5F5F5F5F5F5F5F5F5F5F5F5F5F5F5F5F5F5F5F5F5F5F5F5F5F5F5F5F5F5F5F5F5F5F5F5F5F5F5F5F5F5F5F5F5F5F5F5F5F5F5F5F5F5F5F5F5F5F5F5F5F5F5F5F5F5E2F5F5F5F5F5F5F5F5
310
F5F5F5F5F5F5F5F5F5F5F5F5F5E2E2F5F5F5F5E2F5F5F5F5F5F5F5F5F5F5F5F5F5F5F5F5E2F5F5F5F5F5F5F5F5F5F5F5F5F5F5F5F5F5F5F5F5F5F5F5F5F5F5F5F5F5F5F5F5F5F5F5F5F5F5F5F5F5F5F5F5F5F5F5F5F5F5F5F5F5F5F5F5F5F5F5F5F5F5F5F5F5F5F5F5F5F5F5F5F5F5F5F5F5F5F5F5F5F5F5F5F5F5F5F5F5F5
310
F5F5F5F5F5F5F5F5F5F5F5F5F5F5F5F5F5F5F5F5F5F5F5F5F5F5F5F5F5F5F5F5F5F5F5F5F5F5F5F5F5F5F5F5E2F5F5F5F5F5F5F5F5F5F5F5F5F5F5F5F5E2F5F5F5F5E2E2F5F5F5F5E2F5F5F5F5F5F5F5F5F5F5F5F5F5F5F5F5E2F5F5F5F5F5F5F5F5F5F5F5F5F5F5F5F5F5F5F5F5F5F5F5F5F5F5F5F5F5F5F5F5F5F5F5F5F5
310
F5F5F5F5F5F5F5F5F5F5F5F5F5F5F5F5F5F5F5F5F5F5F5F5F5F5F5F5F5F5F5F5F5F5F5F5F5F5F5F5F5F5F5F5F5F5F5F5F5F5F5F5F5F5F5F5F5F5F5F5F5F5F5F5F5F5F5F5F5F5F5F5F5F5F5F5F5F5F5F5F5F5F5F5F5F5F5F5F5F5F5F5F5F5F5F5F5E2F5F5F5F5F5F5F5F5F5F5F5F5F5F5F5F5E2F5F5F5F5E2E2F5F5F5F5E2F5
310
F5F5F5F5F5F5F5F5F5F5F5F5F5F5F5E2F5F5F5F5F5F5F5F5F5F5F5F5F5F5F5F5F5F5F5F5F5F5F5F5F5F5F5F5F5F5F5F5F5F5F5F5F5F5F5F5F5F5F5F5F5F5F5F5F5F5F5F5F5F5F5F5F5F5F5F5F5F5F5F5F5F5F5F5F5F5F5F5F5F5F5F5F5F5F5F5F5F5F5F5F5F5F5F5F5F5F5F5F5F5F5F5F5F5F5F5F5F5F5F5F5F5F5F5F5F5F5
310
F5F5F5F5F5F5F5F5F5F5F5F5F5F5F5F5F5F5F5F5F5F5F5E2F5F5F5F5F5F5F5F5F5F5F5F5F5F5F5F5E2F5F5F5F5E2E2F5F5F5F5E2F5F5F5F5F5F5F5F5F5F5F5F5F5F5F5F5E2F5F5F5F5F5F5F5F5F5F5F5F5F5F5F5F5F5F5F5F5F5F5F5F5F5F5F5F5F5F5F5F5F5F5F5F5F5F5F5F5F5F5F5F5F5F5F5F5F5F5F5F5F5F5F5F5F5F5
310
F5F5F5F5F5F5F5F5F5F5F5F5F5F5F5F5F5F5F5F5F5F5F5F5F5F5F5F5F5F5F5F5F5F5F5F5F5F5F5F5F5F5F5F5F5F5F5F5F5F5F5F5F5F5F5F5F5F5F5F5F5F5F5F5F5F5F5F5F5F5F5F5F5F5F5F5E2F5F5F5F5F5F5F5F5F5F5F5F5F5F5F5F5E2F5F5F5F5E2E2F5F5F5F5E2F5F5F5F5F5F5F5F5F5F5F5F5F5F5F5F5E2F5F5F5F5F5
310
F5F5F5F5F5F5F5F5F5F5F5F5F5F5F5F5F5F5F5F5F5F5F5F5F5F5F5F5F5F5F5F5F5F5F5F5F5F5F5F5F5F5F5F5F5F5F5F5F5F5F5F5F5F5F5F5F5F5F5F5F5F5F5F5F5F5F5F5F5F5F5F5F5F5F5F5F5F5F5F5F5F5F5F5F5F5F5F5F5F5F5F5F5F5F5F5F5F5F5F5F5F5F5F5F5F5F5F5F5F5F5F5F5F5F5F5F5F5F5F5F5F5F5F5F5F5F5
310
F5F5E2F5F5F5F5F5F5F5F5F5F5F5F5F5F5F5F5E2F5F5F5F5E2E2F5F5F5F5E2F5F5F5F5F5F5F5F5F5F5F5F5F5F5F5F5E2F5F5F5F5F5F5F5F5F5F5F5F5F5F5F5F5F5F5F5F5F5F5F5F5F5F5F5F5F5F5F5F5F5F5F5F5F5F5F5F5F5F5F5F5F5F5F5F5F5F5F5F5F5F5F5F5F5F5F5F5F5F5F5F5F5F5F5F5F5F5F5F5F5F5F5F5F5F5F5
310
F5F5F5F5F5F5F5F5F5F5F5F5F5F5F5F5F5F5F5F5F5F5F5F5F5F5F5F5F5F5F5F5F5F5F5F5F5F5F5F5F5F5F5F5F5F5F5F5F5F5F5F5F5F5F5E2F5F5F5F5F5F5F5F5F5F5F5F5F5F5F5F5E2F5F5F5F5E2E2F5F5F5F5E2F5F5F5F5F5F5F5F5F5F5F5F5F5F5F5F5E2F5F5F5F5F5F5F5F5F5F5F5F5F5F5F5F5F5F5F5F5F5F5F5F5F5F5
310
F5F5F5F5F5F5F5F5F5F5F5F5F5F5F5F5F5F5F5F5F5F5F5F5F5F5F5F5F5F5F5F5F5F5F5F5F5F5F5F5F5F5F5F5F5F5F5F5F5F5F5F5F5F5F5F5F5F5F5F5F5F5F5F5F5F5F5F5F5F5F5F5F5F5F5F5F5F5F5F5F5F5F5F5F5F5F5F5F5F5F5F5F5F5F5F5F5F5F5F5F5F5F5F5F5F5F5F5E2F5F5F5F5F5F5F5F5F5F5F5F5F5F5F5F5E2F5
310
F5F5F5E2E2F5F5F5F5E2F5F5F5F5F5F5F5F5F5F5F5F5F5F5F5F5E2F5F5F5F5F5F5F5F5F5F5F5F5F5F5F5F5F5F5F5F5F5F5F5F5F5F5F5F5F5F5F5F5F5F5F5F5F5F5F5F5F5F5F5F5F5F5F5F5F5F5F5F5F5F5F5F5F5F5F5F5F5F5F5F5F5F5F5F5F5F5F5F5F5F5F5F5F5F5F5F5F5F5F5F5F5F5F5F5F5F5F5F5F5F5F5F5F5F5F5F5
310
F5F5F5F5F5F5F5F5F5F5F5F5F5F5F5F5F5F5F5F5F5F5F5F5F5F5F5F5F5F5F5F5F5F5E2F5F5F5F5F5F5F5F5F5F5F5F5F5F5F5F5E2F5F5F5F5E2E2F5F5F5F5E2F5F5F5F5F5F5F5F5F5F5F5F5F5F5F5F5E2F5F5F5F5F5F5F5F5F5F5F5F5F5F5F5F5F5F5F5F5F5F5F5F5F5F5F5F5F5F5F5F5F5F5F5F5F5F5F5F5F5F5F5F5F5F5F5
310
F5F5F5F5F5F5F5F5F5F5F5F5F5F5F5F5F5F5F5F5F5F5F5F5F5F5F5F5F5F5F5F5F5F5F5F5F5F5F5F5F5F5F5F5F5F5F5F5F5F5F5F5F5F5F5F5F5F5F5F5F5F5F5F5F5F5F5F5F5F5F5F5F5F5F5F5F5F5F5F5F5F5F5F5F5F5F5E2F5F5F5F5F5F5F5F5F5F5F5F5F5F5F5F5E2F5F5F5F5E2E2F5F5F5F5E2F5F5F5F5F5F5F5F5F5F5F5
310
F5F5F5F5F5E2F5F5F5F5F5F5F5F5F5F5F5F5F5F5F5F5F5F5F5F5F5F5F5F5F5F5F5F5F5F5F5F5F5F5F5F5F5F5F5F5F5F5F5F5F5F5F5F5F5F5F5F5F5F5F5F5F5F5F5F5F5F5F5F5F5F5F5F5F5F5F5F5F5F5F5F5F5F5F5F5F5F5F5F5F5F5F5F5F5F5F5F5F5F5F5F5F5F5F5F5F5F5F5F5F5F5F5F5F5F5F5F5F5F5F5F5F5F5F5F5F5
310
F5F5F5F5F5F5F5F5F5F5F5F5F5E2F5F5F5F5F5F5F5F5F5F5F5F5F5F5F5F5E2F5F5F5F5E2E2F5F5F5F5E2F5F5F5F5F5F5F5F5F5F5F5F5F5F5F5F5E2F5F5F5F5F5F5F5F5F5F5F5F5F5F5F5F5F5F5F5F5F5F5F5F5F5F5F5F5F5F5F5F5F5F5F5F5F5F5F5F5F5F5F5F5F5F5F5F5F5F5F5F5F5F5F5F5F5F5F5F5F5F5F5F5F5F5F5F5
310
F5F5F5F5F5F5F5F5F5F5F5F5F5F5F5F5F5F5F5F5F5F5F5F5F5F5F5F5F5F5F5F5F5F5F5F5F5F5F5F5F5F5F5F5F5F5F5F5F5F5F5F5F5F5F5F5F5F5F5F5F5F5F5F5F5F5E2F5F5F5F5F5F5F5F5F5F5F5F5F5F5F5F5E2F5F5F5F5E2E2F5F5F5F5E2F5F5F5F5F5F5F5F5F5F5F5F5F5F5F5F5E2F5F5F5F5F5F5F5F5F5F5F5F5F5F5F5
310
F5F5F5F5F5F5F5F5F5F5F5F5F5F5F5F5F5F5F5F5F5F5F5F5F5F5F5F5F5F5F5F5F5F5F5F5F5F5F5F5F5F5F5F5F5F5F5F5F5F5F5F5F5F5F5F5F5F5F5F5F5F5F5F5F5F5F5F5F5F5F5F5F5F5F5F5F5F5F5F5F5F5F5F5F5F5F5F5F5F5F5F5F5F5F5F5F5F5F5F5F5F5F5F5F5F5F5F5F5F5F5F5F5F5F5F5F5F5F5E2F5F5F5F5F5F5F5
310
F5F5F5F5F5F5F5F5F5E2F5F5F5F5E2E2F5F5F5F5E2F5F5F5F5F5F5F5F5F5F5F5F5F5F5F5F5E2F5F5F5F5F5F5F5F5F5F5F5F5F5F5F5F5F5F5F5F5F5F5F5F5F5F5F5F5F5F5F5F5F5F5F5F5F5F5F5F5F5F5F5F5F5F5F5F5F5F5F5F5F5F5F5F5F5F5F5F5F5F5F5F5F5F5F5F5F5F5F5F5F5F5F5F5F5F5F5F5F5F5F5F5F5F5F5F5F5
310
F5F5F5F5F5F5F5F5F5F5F5F5F5F5F5F5F5F5F5F5F5F5F5F5F5F5F5F5F5F5F5F5F5F5F5F5F5F5F5F5F5F5F5F5F5E2F5F5F5F5F5F5F5F5F5F5F5F5F5F5F5F5E2F5F5F5F5E2E2F5F5F5F5E2F5F5F5F5F5F5F5F5F5F5F5F5F5F5F5F5E2F5F5F5F5F5F5F5F5F5F5F5F5F5F5F5F5F5F5F5F5F5F5F5F5F5F5F5F5F5F5F5F5F5F5F5F5
310
F5F5F5F5F5F5F5F5F5F5F5F5F5F5F5F5F5F5F5F5F5F5F5F5F5F5F5F5F5F5F5F5F5F5F5F5F5F5F5F5F5F5F5F5F5F5F5F5F5F5F5F5F5F5F5F5F5F5F5F5F5F5F5F5F5F5F5F5F5F5F5F5F5F5F5F5F5F5F5F5F5F5F5F5F5F5F5F5F5F5F5F5F5F5F5F5F5F5E2F5F5F5F5F5F5F5F5F5F5F5F5F5F5F5F5E2F5F5F5F5E2E2F5F5F5F5E2
310
F5F5F5F5F5F5F5F5F5F5F5F5F5F5F5F5E2F5F5F5F5F5F5F5F5F5F5F5F5F5F5F5F5F5F5F5F5F5F5F5F5F5F5F5F5F5F5F5F5F5F5F5F5F5F5F5F5F5F5F5F5F5F5F5F5F5F5F5F5F5F5F5F5F5F5F5F5F5F5F5F5F5F5F5F5F5F5F5F5F5F5F5F5F5F5F5F5F5F5F5F5F5F5F5F5F5F5F5F5F5F5F5F5F5F5F5F5F5F5F5F5F5F5F5F5F5F5
310
F5F5F5F5F5F5F5F5F5F5F5F5F5F5F5F5F5F5F5F5F5F5F5F5E2F5F5F5F5F5F5F5F5F5F5F5F5F5F5F5F5E2F5F5F5F5E2E2F5F5F5F5E2F5F5F5F5F5F5F5F5F5F5F5F5F5F5F5F5E2F5F5F5F5F5F5F5F5F5F5F5F5F5F5F5F5F5F5F5F5F5F5F5F5F5F5F5F5F5F5F5F5F5F5F5F5F5F5F5F5F5F5F5F5F5F5F5F5F5F5F5F5F5F5F5F5F5
310
F5F5F5F5F5F5F5F5F5F5F5F5F5F5F5F5F5F5F5F5F5F5F5F5F5F5F5F5F5F5F5F5F5F5F5F5F5F5F5F5F5F5F5F5F5F5F5F5F5F5F5F5F5F5F5F5F5F5F5F5F5F5F5F5F5F5F5F5F5F5F5F5F5F5F5F5F5E2F5F5F5F5F5F5F5F5F5F5F5F5F5F5F5F5E2F5F5F5F5E2E2F5F5F5F5E2F5F5F5F5F5F5F5F5F5F5F5F5F5F5F5F5E2F5F5F5F5
310
F5F5F5F5F5F5F5F5F5F5F5F5F5F5F5F5F5F5F5F5F5F5F5F5F5F5F5F5F5F5F5F5F5F5F5F5F5F5F5F5F5F5F5F5F5F5F5F5F5F5F5F5F5F5F5F5F5F5F5F5F5F5F5F5F5F5F5F5F5F5F5F5F5F5F5F5F5F5F5F5F5F5F5F5F5F5F5F5F5F5F5F5F5F5F5F5F5F5F5F5F5F5F5F5F5F5F5F5F5F5F5F5F5F5F5F5F5F5F5F5F5F5F5F5F5F5F5
310
F5F5F5E2F5F5F5F5F5F5F5F5F5F5F5F5F5F5F5F5E2F5F5F5F5E2E2F5F5F5F5F5F5F5F5F5F5F5F5F5F5F5F5F5F5F5F5F5E2F5F5F5F5F5F5F5F5F5F5F5F5F5F5F5F5F5F5F5F5F5F5F5F5F5F5F5F5F5F5F5F5F5F5F5F5F5F5F5F5F5F5F5F5F5F5F5F5F5F5F5F5F5F5F5F5F5F5F5F5F5F5F5F5F5F5F5F5F5F5F5F5F5F5F5F5F5F5
310
F5F5F5F5F5F5F5F5F5F5F5F5F5F5F5F5F5F5F5F5F5F5F5F5F5F5F5F5F5F5F5F5F5F5F5F5F5F5F5F5F5F5F5F5F5F5F5F5F5F5F5F5F5F5F5F5E2F5F5F5F5F5F5F5F5F5F5F5F5F5F5F5F5F5F5F5F5F5E2E2F5F5F5F5F5F5F5F5F5F5F5F5F5F5F5F5F5F5F5F5F5E2F5F5F5F5F5F5F5F5F5F5F5F5F5F5F5F5F5F5F5F5F5F5F5F5F5
310
F5F5F5F5F5F5F5F5F5F5F5F5F5F5F5F5F5F5F5F5F5F5F5F5F5F5F5F5F5F5F5F5F5F5F5F5F5F5F5F5F5F5F5F5F5F5F5F5F5F5F5F5F5F5F5F5F5F5F5F5F5F5F5F5F5F5F5F5F5F5F5F5F5F5F5F5F5F5F5F5F5F5F5F5F5F5F5F5F5F5F5F5F5F5F5F5F5F5F5F5F5F5F5F5F5F5F5F5F5E2F5F5F5F5F5F5F5F5F5F5F5F5F5F5F5F5F5
310
F5F5F5F5E2E2F5F5F5F5F5F5F5F5F5F5F5F5F5F5F5F5F5F5F5F5F5E2F5F5F5F5F5F5F5F5F5F5F5F5F5F5F5F5F5F5F5F5F5F5F5F5F5F5F5F5F5F5F5F5F5F5F5F5F5F5F5F5F5F5F5F5F5F5F5F5F5F5F5F5F5F5F5F5F5F5F5F5F5F5F5F5F5F5F5F5F5F5F5F5F5F5F5F5F5F5F5F5F5F5F5F5F5F5F5F5F5F5F5F5F5F5F5F5F5F5F5
310
F5F5F5F5F5F5F5F5F5F5F5F5F5F5F5F5F5F5F5F5F5F5F5F5F5F5F5F5F5F5F5F5F5F5F5E2F5F5F5F5F5F5F5F5F5F5F5F5F5F5F5F5F5F5F5F5F5E2E2F5F5F5F5F5F5F5F5F5F5F5F5F5F5F5F5F5F5F5F5F5E2F5F5F5F5F5F5F5F5F5F5F5F5F5F5F5F5F5F5F5F5F5F5F5F5F5F5F5F5F5F5F5F5F5F5F5F5F5F5F5F5F5F5F5F5F5F5
310
F5F5F5F5F5F5F5F5F5F5F5F5F5F5F5F5F5F5F5F5F5F5F5F5F5F5F5F5F5F5F5F5F5F5F5F5F5F5F5F5F5F5F5F5F5F5F5F5F5F5F5F5F5F5F5F5F5F5F5F5F5F5F5F5F5F5F5F5F5F5F5F5F5F5F5F5F5F5F5F5F5F5F5F5F5F5F5F5E2F5F5F5F5F5F5F5F5F5F5F5F5F5F5F5F5F5F5F5F5F5E2E2F5F5F5F5F5F5F5F5F5F5F5F5F5F5F5
310
F5F5F5F5F5F5E2E2E2E2E2E2E2E2E2E2E2E2E2E2E2E2E2E2E2E2E2E2E2E2E2E2E2E2E2E2E2E2E2E2E2E2E2E2E2E2E2E2E2E2E2E2E2E2E2E2E2E2E2E2E2E2E2E2E2E2E2E2E2E2E2E2E2E2E2E2E2E2E2E2E2E2E2E2E2E2E2E2E2E2E2E2E2E2E2E2E2E2E2E2E2E2E2E2E2E2E2E2E2E2E2E2E2E2E2E2E2E2E2E2E2E2E2E2E2E2E2
310
E2E2E2E2E2E2E2E2E2E2E2E2E2E2E2F5F5F5F5F5F5F5F5F5F5F5F5F5F5F5F5F5F5F5F5F5E2E2F5F5F5F5F5F5F5F5F5F5F5F5F5F5F5F5F5F5F5F5F5F5F5F5F5F5F5F5F5F5F5F5F5F5F5F5F5F5F5F5F5F5F5F5F5F5F5F5F5F5F5F5F5F5F5F5F5F5F5F5F5F5F5F5F5F5F5F5F5F5F5F5F5F5F5F5F5F5F5F5F5F5F5F5F5F5F5F5F5
310
F5F5F5F5F5F5F5F5F5F5F5F5F5F5F5F5F5F5F5F5F5F5F5F5F5F5F5F5F5F5F5F5F5F5F5F5F5F5F5F5F5F5F5F5F5F5F5F5F5F5F5F5F5F5F5F5F5F5F5F5F5F5F5F5F5F5F5F5F5F5F5F5F5F5F5F5F5F5F5F5F5F5F5F5F5F5F5F5F5E2E2F5F5F5F5F5F5F5F5F5F5F5F5F5F5F5F5F5F5F5F5F5F5F5F5F5F5F5F5F5F5F5F5F5F5F5F5
310
F5F5F5F5F5F5F5F5F5F5F5F5F5F5F5F5F5F5F5F5F5F5F5F5F5F5F5F5F5F5F5F5F5F5F5F5F5F5F5F5F5F5F5F5F5F5F5F5F5F5F5F5F5F5F5F5F5F5F5F5F5F5F5F5F5F5F5F5F5F5F5F5F5F5F5F5F5F5F5F5F5F5F5F5F5F5F5F5F5F5F5F5F5F5F5F5F5F5F5F5F5F5F5F5F5F5F5F5F5F5F5F5F5F5F5F5F5F5F5F5F5F5F5F5F5F5F5
310
F5F5F5F5F5F5F5F5F5F5F5F5F5F5F5E2E2F5F5F5F5F5F5F5F5F5F5F5F5F5F5F5F5F5F5F5F5F5F5F5F5F5F5F5F5F5F5F5F5F5F5F5F5F5F5F5F5F5F5F5F5F5F5F5F5F5F5F5F5F5F5F5F5F5F5F5F5F5F5F5F5F5F5F5F5F5F5F5F5F5F5F5F5F5F5F5F5F5F5F5F5F5F5F5F5F5F5F5F5F5F5F5F5F5F5F5F5F5F5F5F5F5F5F5F5F5F5
310
F5F5F5F5F5F5F5F5F5F5F5F5F5F5F5F5F5F5F5F5F5F5F5F5F5F5F5F5F5F5F5F5F5F5F5F5F5F5F5F5F5F5F5F5F5F5F5F5F5F5F5F5F5F5F5F5F5F5F5F5F5F5F5F5F5F5F5F5E2E2F5F5F5F5F5F5F5F5F5F5F5F5F5F5F5F5F5F5F5F5F5F5F5F5F5F5F5F5F5F5F5F5F5F5F5F5F5F5F5F5F5F5F5F5F5F5F5F5F5F5F5F5F5F5F5F5F5
310
F5F5F5F5F5F5F5F5F5F5F5F5F5F5F5F5F5F5F5F5F5F5F5F5F5F5F5F5F5F5F5F5F5F5F5F5F5F5F5F5F5F5F5F5F5F5F5F5F5F5F5F5F5F5F5F5F5F5F5F5F5F5F5F5F5F5F5F5F5F5F5F5F5F5F5F5F5F5F5F5F5F5F5F5F5F5F5F5F5F5F5F5F5F5F5F5F5F5F5F5F5F5F5F5F5F5F5F5F5F5F5F5F5F5F5F5F5F5F5F5F5E2E2F5F5F5F5
310
E2F5F5F5F5F5F5F5F5F5F5F5F5F5F5F5F5F5F5F5F5F5F5F5F5F5F5F5F5F5F5F5F5F5F5F5F5F5F5F5F5F5F5F5F5F5F5F5F5F5F5F5F5F5F5F5F5F5F5F5F5F5F5F5F5F5F5F5F5F5F5F5F5F5F5F5F5F5F5F5F5F5F5F5F5F5F5F5F5F5F5F5F5F5F5F5F5F5F5F5F5F5F5F5F5F5F5F5F5F5F5F5F5F5F5F5F5F5F5F5F5F5F5F5F5F5F5
310
F5F5F5F5F5F5F5F5F5F5F5F5F5F5F5F5F5F5F5F5F5F5F5F5F5F5F5F5F5F5F5F5F5F5F5F5F5F5F5F5F5F5E2F5F5F5F5E2E2F5F5F5F5E2F5F5F5F5F5F5F5F5F5F5F5F5F5F5F5F5F5F5F5F5F5F5F5F5F5F5F5F5F5F5F5F5F5F5F5F5F5F5F5F5F5F5F5F5F5F5F5F5F5F5F5F5F5F5F5F5F5F5F5F5F5F5F5F5F5F5F5F5F5F5F5F5F5
310
F5F5F5F5F5F5F5F5F5F5F5F5F5F5F5F5F5F5F5F5F5F5F5F5F5F5F5F5F5F5F5F5F5F5F5F5F5F5F5F5F5F5F5F5F5F5F5F5F5F5F5F5F5F5F5F5F5F5F5F5F5F5F5F5F5F5F5F5F5F5F5F5F5F5F5F5F5F5F5F5F5F5F5F5F5F5F5F5F5F5F5F5F5F5F5E2F5F5F5F5E2E2F5F5F5F5E2F5F5F5F5F5F5F5F5F5F5F5F5F5F5F5F5F5F5F5F5
310
F5F5F5F5F5F5F5F5F5F5F5F5F5F5F5F5F5F5F5F5F5F5F5F5F5F5F5F5F5F5F5F5F5F5F5F5F5F5F5F5F5F5F5F5F5F5F5F5F5F5F5F5F5F5F5F5F5F5F5F5F5F5F5F5F5F5F5F5F5F5F5F5F5F5F5F5F5F5F5F5F5F5F5F5F5F5F5F5F5F5F5F5F5F5F5F5F5F5F5F5F5F5F5F5F5F5F5F5F5F5F5F5F5F5F5F5F5F5F5F5F5F5F5F5F5F5F5
310
F5F5F5F5F5F5F5F5F5F5F5F5F5F5F5F5F5F5F5F5F5E2F5F5F5F5E2E2F5F5F5F5E2F5F5F5F5F5F5F5F5F5F5F5F5F5F5F5F5F5F5F5F5F5F5F5F5F5F5F5F5F5F5F5F5F5F5F5F5F5F5F5F5F5F5F5F5F5F5F5F5F5F5F5F5F5F5F5F5F5F5F5F5F5F5F5F5F5F5F5F5F5F5F5F5F5F5F5F5F5F5F5F5F5F5F5F5F5F5F5F5F5F5F5F5F5F5
310
F5F5F5F5F5F5F5F5F5F5F5F5F5F5F5F5F5F5F5F5F5F5F5F5F5F5F5F5F5F5F5F5F5F5F5F5F5F5F5F5F5F5F5F5F5F5F5F5F5F5F5F5F5F5F5F5F5F5F5F5F5F5F5F5F5F5F5F5F5F5F5F5F5F5E2F5F5F5F5E2E2F5F5F5F5E2F5F5F5F5F5F5F5F5F5F5F5F5F5F5F5F5F5F5F5F5F5F5F5F5F5F5F5F5F5F5F5F5F5F5F5F5F5F5F5F5F5
310
F5F5F5F5F5F5F5F5F5F5F5F5F5F5F5F5F5F5F5F5F5F5F5F5F5F5F5F5F5F5F5F5F5F5F5F5F5F5F5F5F5F5F5F5F5F5F5F5F5F5F5F5F5F5F5F5F5F5F5F5F5F5F5F5F5F5F5F5F5F5F5F5F5F5F5F5F5F5F5F5F5F5F5F5F5F5F5F5F5F5F5F5F5F5F5F5F5F5F5F5F5F5F5F5F5F5F5F5F5F5F5F5F5F5F5F5F5F5F5F5F5F5F5F5F5F5F5
310
E2F5F5F5F5E2E2F5F5F5F5E2F5F5F5F5F5F5F5F5F5F5F5F5F5F5F5F5F5F5F5F5F5F5F5F5F5F5F5F5F5F5F5F5F5F5F5F5F5F5F5F5F5F5F5F5F5F5F5F5F5F5F5F5F5F5F5F5F5F5F5F5F5F5F5F5F5F5F5F5F5F5F5F5F5F5F5F5F5F5F5F5F5F5F5F5F5F5F5F5F5F5F5F5F5F5F5F5F5F5F5F5F5F5F5F5F5F5F5F5F5F5F5F5F5F5F5
310
F5F5F5F5F5F5F5F5F5F5F5F5F5F5F5F5F5F5F5F5F5F5F5F5F5F5F5F5F5F5F5F5F5F5F5F5F5F5F5F5F5F5F5F5F5F5F5F5F5F5F5F5F5E2F5F5F5F5E2E2F5F5F5F5E2F5F5F5F5F5F5F5F5F5F5F5F5F5F5F5F5F5F5F5F5F5F5F5F5F5F5F5F5F5F5F5F5F5F5F5F5F5F5F5F5F5F5F5F5F5F5F5F5F5F5F5F5F5F5F5F5F5F5F5F5F5F5
310
F5F5F5F5F5F5F5F5F5F5F5F5F5F5F5F5F5F5F5F5F5F5F5F5F5F5F5F5F5F5F5F5F5F5F5F5F5F5F5F5F5F5F5F5F5F5F5F5F5F5F5F5F5F5F5F5F5F5F5F5F5F5F5F5F5F5F5F5F5F5F5F5F5F5F5F5F5F5F5F5F5F5F5F5F5F5F5F5F5F5F5F5F5F5F5F5F5F5F5F5F5F5F5F5F5F5E2F5F5F5F5E2E2F5F5F5F5E2F5F5F5F5F5F5F5F5F5
310
F5F5F5F5F5F5F5F5F5F5F5F5F5F5F5F5F5F5F5F5F5F5F5F5F5F5F5F5F5F5F5F5F5F5F5F5F5F5F5F5F5F5F5F5F5F5F5F5F5F5F5F5F5F5F5F5F5F5F5F5F5F5F5F5F5F5F5F5F5F5F5F5F5F5F5F5F5F5F5F5F5F5F5F5F5F5F5F5F5F5F5F5F5F5F5F5F5F5F5F5F5F5F5F5F5F5F5F5F5F5F5F5F5F5F5F5F5F5F5F5F5F5F5F5F5F5F5
310
F5F5F5F5F5F5F5F5F5F5F5F5F5F5F5F5F5F5F5F5F5F5F5F5F5F5F5F5F5F5F5F5E2F5F5F5F5E2E2F5F5F5F5E2E2E2E2E2E2E2E2F5F5F5F5F5F5F5F5F5E2E2E2E2E2E2E2E2E2E2E2E2E2E2E2F5F5F5F5F5F5F5F5F5E2E2E2E2E2E2E2E2E2E2E2E2E2E2E2E2F5F5F5F5F5F5F5F5E2E2E2E2E2E2E2E2E2E2E2E2E2E2E2E2F5F5F5
310
F5F5F5F5F5E2E2E2E2E2E2E2E2E2E2E2E2E2E2E2E2F5F5F5F5F5F5F5F5E2E2E2E2E2E2E2E2E2E2E2E2E2E2E2E2F5F5F5F5F5F5F5F5F5E2E2E2E2E2E2E2E2E2E2E2E2E2E2E2F5F5F5F5F5F5F5F5F5E2E2E2E2E2E2E2E2F5F5F5F5E2E2F5F5F5F5F5F5F5F5F5F5F5F5F5F5F5F5F5F5F5F5F5F5F5F5F5F5F5F5F5F5F5F5F5F5F5
310
F5F5F5F5F5F5F5F5F5F5F5F5F5F5F5F5F5F5F5F5F5F5F5F5F5F5F5F5F5F5F5F5F5F5F5F5F5F5F5F5F5F5F5F5F5F5F5F5F5F5F5F5F5F5F5F5F5F5F5F5F5F5F5F5F5F5F5F5F5F5F5F5F5F5F5F5F5F5F5F5F5F5F5F5F5F5F5F5F5F5F5F5F5F5F5F5F5F5F5F5F5F5F5F5F5F5F5F5F5F5F5F5F5F5F5F5F5F5F5F5F5F5F5F5F5F5F5
310
F5F5F5F5F5F5F5F5F5F5F5F5F5F5F5F5E2E2F5F5F5F5F5F5F5F5F5F5F5F5F5F5F5F5F5F5F5F5F5F5F5F5F5F5F5F5F5F5F5F5F5F5F5F5F5F5F5F5F5F5F5F5F5F5F5F5F5F5F5F5F5F5F5F5F5F5F5F5F5F5F5F5F5F5F5F5F5F5F5F5F5F5F5F5F5F5F5F5F5F5F5F5F5F5F5F5F5F5F5F5F5F5F5F5F5F5F5F5F5F5F5F5F5F5F5F5F5
310
F5F5F5F5F5F5F5F5F5F5F5F5F5F5F5F5F5F5F5F5F5F5F5F5F5F5F5F5F5F5F5F5F5F5F5F5F5F5F5F5F5F5F5F5F5F5F5F5F5F5F5F5F5F5F5F5F5F5F5F5F5F5F5F5F5F5F5F5F5E2E2F5F5F5F5F5F5F5F5F5F5F5F5F5F5F5F5F5F5F5F5F5F5F5F5F5F5F5F5F5F5F5F5F5F5F5F5F5F5F5F5F5F5F5F5F5F5F5F5F5F5F5F5F5F5F5F5
310
F5F5F5F5F5F5F5F5F5F5F5F5F5F5F5F5F5F5F5F5F5F5F5F5F5F5F5F5F5F5F5F5F5F5F5F5F5F5F5F5F5F5F5F5F5F5F5F5F5F5F5F5F5F5F5F5F5F5F5F5F5F5F5F5F5F5F5F5F5F5F5F5F5F5F5F5F5F5F5F5F5F5F5F5F5F5F5F5F5F5F5F5F5F5F5F5F5F5F5F5F5F5F5F5F5F5F5F5F5F5F5F5F5F5F5F5F5F5F5F5F5F5E2E2E2E2E2
310
E2E2E2E2E2E2E2E2E2E2E2E2E2E2E2E2E2E2E2E2E2E2E2E2E2E2E2E2E2E2E2E2E2E2E2E2E2E2E2E2E2E2E2E2E2E2E2E2E2E2E2E2E2E2E2E2E2E2E2E2E2E2E2E2E2E2E2E2E2E2E2E2E2E2E2E2E2E2E2E2E2E2E2E2E2E2E2E2E2E2E2E2E2E2E2E2E2E2E2E2E2E2E2E2E2E2E2E2E2E2E2E2E2E2E2E2E2E2E2E2E2E2E2E2E2E2E2
310
E2E2E2E2E2E2E2E2E2E2E2E2E2E2E2E2E2E2E2E2E2E2E2E2E2E2E2E2E2E2E2E2E2E2E2E2E2E2E2E2E2E2E2E2E2E2E2E2E2
  0
XRECORD
  5
56387
102
{ACAD_REACTORS
330
B5
102
}
330
B5
100
AcDbXrecord
280
     1
102
SHADEPLOT
 70
     0
102
SHADEPLOTRESLEVEL
 70
     2
102
SHADEPLOTCUSTOMDPI
 70
   300
  0
XRECORD
  5
B6
102
{ACAD_REACTORS
330
B5
102
}
330
B5
100
AcDbXrecord
280
     1
310
28000000B40000008B0000000100080000000000BC610000000000000000000000010000000000000000000000000000FFFFFF000000000000000000000000000000000000000000000000000000000000000000330000006600000099000000CC000000FF00000000330000333300006633000099330000CC330000FF3300
310
0000660000336600006666000099660000CC660000FF66000000990000339900006699000099990000CC990000FF99000000CC000033CC000066CC000099CC0000CCCC0000FFCC000000FF000033FF000066FF000099FF0000CCFF0000FFFF000000003300330033006600330099003300CC003300FF003300003333003333
310
33006633330099333300CC333300FF33330000663300336633006666330099663300CC663300FF66330000993300339933006699330099993300CC993300FF99330000CC330033CC330066CC330099CC3300CCCC3300FFCC330000FF330033FF330066FF330099FF3300CCFF3300FFFF330000006600330066006600660099
310
006600CC006600FF00660000336600333366006633660099336600CC336600FF33660000666600336666006666660099666600CC666600FF66660000996600339966006699660099996600CC996600FF99660000CC660033CC660066CC660099CC6600CCCC6600FFCC660000FF660033FF660066FF660099FF6600CCFF6600
310
FFFF660000009900330099006600990099009900CC009900FF00990000339900333399006633990099339900CC339900FF33990000669900336699006666990099669900CC669900FF66990000999900339999006699990099999900CC999900FF99990000CC990033CC990066CC990099CC9900CCCC9900FFCC990000FF99
310
0033FF990066FF990099FF9900CCFF9900FFFF99000000CC003300CC006600CC009900CC00CC00CC00FF00CC000033CC003333CC006633CC009933CC00CC33CC00FF33CC000066CC003366CC006666CC009966CC00CC66CC00FF66CC000099CC003399CC006699CC009999CC00CC99CC00FF99CC0000CCCC0033CCCC0066CC
310
CC0099CCCC00CCCCCC00FFCCCC0000FFCC0033FFCC0066FFCC0099FFCC00CCFFCC00FFFFCC000000FF003300FF006600FF009900FF00CC00FF00FF00FF000033FF003333FF006633FF009933FF00CC33FF00FF33FF000066FF003366FF006666FF009966FF00CC66FF00FF66FF000099FF003399FF006699FF009999FF00CC
310
99FF00FF99FF0000CCFF0033CCFF0066CCFF0099CCFF00CCCCFF00FFCCFF0000FFFF0033FFFF0066FFFF0099FFFF00CCFFFF00FFFFFF00000000000D0D0D001A1A1A00282828003535350043434300505050005D5D5D006B6B6B00787878008686860093939300A1A1A100AEAEAE00BBBBBB00C9C9C900D6D6D600E4E4E400
310
F1F1F100FFFFFF0000000000000000000000000000000000000000000000000000000000000000000000000000000000F5F5F5F5F5F5F5F5F5F5F5F5F5F5F5F5F5F5F5F5F5F5F5F5F5F5F5F5F5F5F5F5F5F5F5F5F5F5F5F5F5F5F5F5F5F5F5F5F5F5F5F5F5F5F5F5F5F5F5F5F5F5F5F5F5F5F5F5F5F5F5F5F5F5F5F5F5F5F5
310
F5F5F5F5F5F5F5F5F5F5F5F5F5F5F5F5F5F5F5F5F5F5F5F5F5F5F5F5F5F5F5F5F5F5F5F5F5F5F5F5F5F5F5F5F5F5F5F5F5F5F5F5F5F5F5F5F5F5F5F5F5F5F5F5F5F5F5F5F5F5F5F5F5F5F5F5F5F5F5F5F5F5F5F5F5F5F5F5F5F5F5F5F5F5F5F5F5F5F5F5F5F5E2E2E2E2E2E2E2E2E2E2E2E2E2E2E2E2E2E2E2E2E2E2E2E2E2
310
E2E2E2E2E2E2E2E2E2E2E2E2E2E2E2E2E2E2E2E2E2E2E2E2E2E2E2E2E2E2E2E2E2E2E2E2E2E2E2E2E2E2E2E2E2E2E2E2E2E2E2E2E2E2E2E2E2E2E2E2E2E2E2E2E2E2E2E2E2E2E2E2E2E2E2E2E2E2E2E2E2E2E2E2E2E2E2E2E2E2E2E2E2E2E2E2E2E2E2E2E2E2E2E2E2E2E2E2E2E2E2E2E2E2E2E2E2E2E2E2E2E2E2E2E2E2E2
310
E2E2E2E2E2E2E2E2E2E2E2E2E2E2E2E2E2E2E2E2E2E2E2E2E2E2F5F5E2E2E2E2E2E2E2E2E2E2E2E2E2E2E2E2E2E2E2E2E2E2E2E2E2E2E2E2E2E2E2E2E2E2E2E2E2E2E2E2E2E2E2E2E2E2E2E2E2E2E2E2E2E2E2E2E2E2E2E2E2E2E2E2E2E2E2E2E2E2E2E2E2E2E2E2E2E2E2E2E2E2E2E2E2E2E2E2E2E2E2E2E2E2E2E2E2E2E2
310
E2E2E2E2E2E2E2E2E2E2E2E2E2E2E2E2E2E2E2E2E2E2E2E2E2E2E2E2E2E2E2E2E2E2E2E2E2E2E2E2E2E2E2E2E2E2E2E2E2E2E2E2E2E2E2E2E2E2E2E2E2E2E2E2E2E2E2E2E2E2E2E2E2E2E2E2E2E2E2F5F5E2E2E2E2E2E2E2E2E2E2E2E2E2E2E2E2E2E2E2E2E2E2E2E2E2E2E2E2E2E2E2E2E2E2E2E2E2E2E2E2E2E2E2E2E2E2
310
E2E2E2E2E2E2E2E2E2E2E2E2E2E2E2E2E2E2E2E2E2E2E2E2E2E2E2E2E2E2E2E2E2E2E2E2E2E2E2E2E2E2E2E2E2E2E2E2E2E2E2E2E2E2E2E2E2E2E2E2E2E2E2E2E2E2E2E2E2E2E2E2E2E2E2E2E2E2E2E2E2E2E2E2E2E2E2E2E2E2E2E2E2E2E2E2E2E2E2E2E2E2E2E2E2E2E2E2E2E2E2E2E2E2E2E2E2E2E2E2E2E2E2E2E2E2E2
310
E2E2E2E2E2F5F5E2E2E2E2E2E2E2E2E2E2E2E2E2E2E2E2E2E2E2E2E2E2E2E2E2E2E2E2E2E2E2E2E2E2E2E2E2E2E2E2E2E2E2E2E2E2E2E2E2E2E2E2E2E2E2E2E2E2E2E2E2E2E2E2E2E2E2E2E2E2E2E2E2E2E2E2E2E2E2E2E2E2E2E2E2E2E2E2E2E2E2E2E2E2E2E2E2E2E2E2E2E2E2E2E2E2E2E2E2E2E2E2E2E2E2E2E2E2E2E2
310
E2E2E2E2E2E2E2E2E2E2E2E2E2E2E2E2E2E2E2E2E2E2E2E2E2E2E2E2E2E2E2E2E2E2E2E2E2E2E2E2E2E2E2E2E2E2E2E2E2E2E2E2E2E2E2E2E2E2F5F5E2E2E2F5F5F5F5F5F5F5F5E2E2E2E2E2E2E2E2E2F5F5F5F5F5F5F5F5F5F5F5F5F5F5F5F5E2E2E2E2E2E2E2E2E2F5F5F5F5F5F5F5F5F5F5F5F5F5F5F5E2E2E2E2E2E2E2
310
E2E2F5F5F5F5F5F5F5F5F5F5F5F5F5F5F5F5E2E2E2E2E2E2E2E2F5F5F5F5F5F5F5F5F5F5F5F5F5F5F5F5E2E2E2E2E2E2E2E2E2F5F5F5F5F5F5F5F5F5F5F5F5F5F5F5E2E2E2E2E2E2E2E2E2F5F5F5F5F5F5F5F5F5F5F5F5F5F5F5F5E2E2E2E2E2E2E2E2E2F5F5F5F5F5F5F5F5E2E2E2F5F5E2E2E2F5E2E2E2E2E2E2E2E2E2E2
310
E2E2E2E2E2E2E2E2E2E2E2E2E2E2E2E2E2E2E2E2E2E2E2E2E2E2E2E2E2E2E2E2E2E2E2E2E2E2E2E2E2E2E2E2E2E2E2E2E2E2E2E2E2E2E2E2E2E2E2E2E2E2E2E2E2E2E2E2E2E2E2E2E2E2E2E2E2E2E2E2E2E2E2E2E2E2E2E2E2E2E2E2E2E2E2E2E2E2E2E2E2E2E2E2E2E2E2E2E2E2E2E2E2E2E2E2E2E2E2E2E2E2E2E2E2E2E2
310
E2E2E2E2E2E2E2E2E2E2E2E2E2E2E2E2E2E2E2E2E2E2E2E2E2E2E2E2E2E2E2E2E2F5E2E2E2F5F5E2E2E2F5E2E2E2E2E2E2E2E2E2E2E2E2E2E2E2E2E2E2E2E2E2E2E2E2E2E2E2E2E2E2E2E2E2E2E2E2E2E2E2E2E2E2E2E2E2E2E2E2E2E2E2E2E2E2E2E2E2E2E2E2E2E2E2E2E2E2E2E2E2E2E2E2E2E2E2E2E2E2E2E2E2E2E2E2
310
E2E2E2E2E2E2E2E2E2E2E2E2E2E2E2E2E2E2E2E2E2E2E2E2E2E2E2E2E2E2E2E2E2E2E2E2E2E2E2E2E2E2E2E2E2E2E2E2E2E2E2E2E2E2E2E2E2E2E2E2E2E2E2E2E2E2E2E2E2E2E2E2E2E2E2E2E2E2E2E2E2E2E2E2E2E2F5E2E2E2F5F5E2E2E2F5E2E2E2E2E2E2E2E2E2E2E2E2E2E2E2E2E2E2E2E2E2E2E2E2E2E2E2E2E2E2E2
310
E2E2E2E2E2E2E2E2E2E2E2E2E2E2E2E2E2E2E2E2E2E2E2E2E2E2E2E2E2E2E2E2E2E2E2E2E2E2E2E2E2E2E2E2E2E2E2E2E2E2E2E2E2E2E2E2E2E2E2E2E2E2E2E2E2E2E2E2E2E2E2E2E2E2E2E2E2E2E2E2E2E2E2E2E2E2E2E2E2E2E2E2E2E2E2E2E2E2E2E2E2E2E2E2E2E2E2E2E2E2E2E2E2E2E2E2E2E2E2E2E2E2E2E2E2E2E2
310
E2E2E2E2E2E2E2E2E2E2E2E2F5E2E2E2F5F5E2E2E2F5E2E2E2E2E2E2E2E2E2E2E2E2E2E2E2E2E2E2E2E2E2E2E2E2E2E2E2E2E2E2E2E2E2E2E2E2E2E2E2E2E2E2E2E2E2E2E2E2E2E2E2E2E2E2E2E2E2E2E2E2E2E2E2E2E2E2E2E2E2E2E2E2E2E2E2E2E2E2E2E2E2E2E2E2E2E2E2E2E2E2E2E2E2E2E2E2E2E2E2E2E2E2E2E2E2
310
E2E2E2E2E2E2E2E2E2E2E2E2E2E2E2E2E2E2E2E2E2E2E2E2E2E2E2E2E2E2E2E2E2E2E2E2E2E2E2E2E2E2E2E2E2E2E2E2E2E2E2E2E2E2E2E2E2E2E2E2E2E2E2E2E2F5E2E2E2F5F5E2E2E2F5E2E2E2E2E2E2E2E2E2E2E2E2E2E2E2E2E2E2E2E2E2E2E2E2E2E2E2E2E2E2E2E2E2E2E2E2E2E2E2E2E2E2E2E2E2E2E2E2E2E2E2E2
310
E2E2E2E2E2E2E2E2E2E2E2E2E2E2E2E2E2E2E2E2E2E2E2E2E2E2E2E2E2E2E2E2E2E2E2E2E2E2E2E2E2E2E2E2E2E2E2E2E2E2E2E2E2E2E2E2E2E2E2E2E2E2E2E2E2E2E2E2E2E2E2E2E2E2E2E2E2E2E2E2E2E2E2E2E2E2E2E2E2E2E2E2E2E2E2E2E2E2E2E2E2E2E2E2E2E2E2E2E2E2E2E2E2E2E2E2E2E2F5E2E2E2F5F5E2E2E2
310
F5E2E2E2E2E2E2E2E2E2E2E2E2E2E2E2E2E2E2E2E2E2E2E2E2E2E2E2E2E2E2E2E2E2E2E2E2E2E2E2E2E2E2E2E2E2E2E2E2E2E2E2E2E2E2E2E2E2E2E2E2E2E2E2E2E2E2E2E2E2E2E2E2E2E2E2E2E2E2E2E2E2E2E2E2E2E2E2E2E2E2E2E2E2E2E2E2E2E2E2E2E2E2E2E2E2E2E2E2E2E2E2E2E2E2E2E2E2E2E2E2E2E2E2E2E2E2
310
E2E2E2E2E2E2E2E2E2E2E2E2E2E2E2E2E2E2E2E2E2E2E2E2E2E2E2E2E2E2E2E2E2E2E2E2E2E2E2E2E2E2E2E2F5E2E2E2F5F5E2E2E2F5E2E2E2E2E2E2E2E2E2E2E2E2E2E2E2E2E2E2E2E2E2E2E2E2E2E2E2E2E2E2E2E2E2E2E2E2E2E2E2E2E2E2E2E2E2E2E2E2E2E2E2E2E2E2E2E2E2E2E2E2E2E2E2E2E2E2E2E2E2E2E2E2E2
310
E2E2E2E2E2E2E2E2E2E2E2E2E2E2E2E2E2E2E2E2E2E2E2E2E2E2E2E2E2E2E2E2E2E2E2E2E2E2E2E2E2E2E2E2E2E2E2E2E2E2E2E2E2E2E2E2E2E2E2E2E2E2E2E2E2E2E2E2E2E2E2E2E2E2E2E2E2E2E2E2E2E2E2E2E2E2E2E2E2E2E2E2E2E2E2E2E2F5E2E2E2F5F5E2E2E2F5E2E2E2E2E2E2E2E2E2E2E2E2E2E2E2E2E2E2E2E2
310
E2E2E2E2E2E2E2E2E2E2E2E2E2E2E2E2E2E2E2E2E2E2E2E2E2E2E2E2E2E2E2E2E2E2E2E2E2E2E2E2E2E2E2E2E2E2E2E2E2E2E2E2E2E2E2E2E2E2E2E2E2E2E2E2E2E2E2E2E2E2E2E2E2E2E2E2E2E2E2E2E2E2E2E2E2E2E2E2E2E2E2E2E2E2E2E2E2E2E2E2E2E2E2E2E2E2E2E2E2E2E2E2E2E2E2E2E2E2E2E2E2E2E2E2E2E2E2
310
E2E2E2E2E2E2E2E2E2E2E2E2E2E2E2E2E2E2E2E2E2E2E2F5E2E2E2F5F5E2E2E2E2E2E2E2E2E2E2E2E2E2E2E2E2E2E2E2E2E2E2E2E2E2E2E2E2E2E2E2E2E2E2E2E2E2E2E2E2E2E2E2E2E2E2E2E2E2E2E2E2E2E2E2E2E2E2E2E2E2E2E2E2E2E2E2E2E2E2E2E2E2E2E2E2E2E2E2E2E2E2E2E2E2E2E2E2E2E2E2E2E2E2E2E2E2E2
310
E2E2E2E2E2E2E2E2E2E2E2E2E2E2E2E2E2E2E2E2E2E2E2E2E2E2E2E2E2E2E2E2E2E2E2E2E2E2E2E2E2E2E2E2E2E2E2E2E2E2E2E2E2E2E2E2E2E2E2E2E2E2E2E2E2E2E2E2E2E2E2E2E2E2E2E2E2E2E2E2F5F5E2E2E2E2E2E2E2E2E2E2E2E2E2E2E2E2E2E2E2E2E2E2E2E2E2E2E2E2E2E2E2E2E2E2E2E2E2E2E2E2E2E2E2E2E2
310
E2E2E2E2E2E2E2E2E2E2E2E2E2E2E2E2E2E2E2E2E2E2E2E2E2E2E2E2E2E2E2E2E2E2E2E2E2E2E2E2E2E2E2E2E2E2E2E2E2E2E2E2E2E2E2E2E2E2E2E2E2E2E2E2E2E2E2E2E2E2E2E2E2E2E2E2E2E2E2E2E2E2E2E2E2E2E2E2E2E2E2E2E2E2E2E2E2E2E2E2E2E2E2E2E2E2E2E2E2E2E2E2E2E2E2E2E2E2E2E2E2E2E2E2E2E2E2
310
E2E2E2E2E2E2F5F5E2E2E2E2E2E2E2E2E2E2E2E2E2E2E2E2E2E2E2E2E2E2E2E2E2E2E2E2E2E2E2E2E2E2E2E2E2E2E2E2E2E2E2E2E2E2E2E2E2E2E2E2E2E2E2E2E2E2E2E2E2E2E2E2E2E2E2E2E2E2E2E2E2E2E2E2E2E2E2E2E2E2E2E2E2E2E2E2E2E2E2E2E2E2E2E2E2E2E2E2E2E2E2E2E2E2E2E2E2E2E2E2E2E2E2E2E2E2E2
310
E2E2E2E2E2E2E2E2E2E2E2E2E2E2E2E2E2E2E2E2E2E2E2E2E2E2E2E2E2E2E2E2E2E2E2E2E2E2E2E2E2E2E2E2E2E2E2E2E2E2E2E2E2E2E2E2E2E2E2F5F5E2E2E2E2E2E2E2E2E2E2E2E2E2E2E2E2E2E2E2E2E2E2E2E2E2E2E2E2E2E2E2E2E2E2E2E2E2E2E2E2E2E2E2E2E2E2E2E2E2E2E2E2E2E2E2E2E2E2E2E2E2E2E2E2E2E2
310
E2E2E2E2E2E2E2E2E2E2E2E2E2E2E2E2E2E2E2E2E2E2E2E2E2E2E2E2E2E2E2E2E2E2E2E2E2E2E2E2E2E2E2E2E2E2E2E2E2E2E2E2E2E2E2E2E2E2E2E2E2E2E2E2E2E2E2E2E2E2E2E2E2E2E2E2E2E2E2E2E2E2E2E2E2E2E2E2E2E2E2E2E2E2E2E2E2E2E2E2E2E2E2E2E2E2E2E2E2E2E2E2F5F5E2E2E2E2E2E2E2E2E2E2E2E2E2
310
E2E2E2E2E2E2E2F5F5F5F5F5F5F5F5F5F5F5F5F5F5F5F5F5F5F5F5F5F5F5F5F5F5F5F5F5F5F5F5F5F5F5F5F5F5F5F5F5F5F5F5F5F5F5F5F5F5F5F5F5F5F5F5F5F5F5F5F5F5F5F5F5F5F5F5F5F5F5F5F5F5F5F5F5F5F5F5F5F5F5F5F5F5F5F5F5F5F5F5F5F5F5F5F5F5F5F5F5F5F5F5F5F5F5F5F5F5F5F5F5F5F5F5F5F5F5F5
310
F5F5F5F5F5F5F5F5F5F5F5F5F5F5F5F5F5F5E2E2E2E2E2E2E2E2E2E2E2E2E2E2E2E2E2E2E2E2F5F5E2E2E2E2E2E2E2E2E2E2E2E2E2E2E2E2E2E2E2E2F5E2E2E2E2E2E2E2E2E2E2E2E2E2E2E2E2E2E2E2E2E2E2E2E2E2E2E2E2E2E2E2E2E2E2E2E2E2E2E2E2E2E2E2E2E2E2E2E2E2E2E2E2E2E2E2E2E2E2E2E2E2E2E2E2E2E2
310
E2E2E2E2E2E2E2E2E2E2E2E2E2E2E2E2E2E2E2E2E2E2E2E2E2E2E2E2E2E2E2E2E2E2E2E2E2E2E2E2E2E2E2E2E2E2E2E2E2E2E2E2E2E2E2E2E2E2E2E2E2E2E2E2E2E2E2E2E2E2F5E2E2E2E2E2E2E2E2E2E2E2E2E2E2E2E2E2E2E2E2F5F5E2E2E2E2E2E2E2E2E2E2E2E2E2E2E2E2E2E2E2E2F5E2E2E2E2E2E2E2E2E2E2E2E2E2
310
E2E2E2E2E2E2E2E2E2E2E2E2E2E2E2E2E2E2E2E2E2E2E2E2E2E2E2E2E2E2E2E2E2E2E2E2E2E2E2E2E2E2E2E2E2E2E2E2E2E2E2E2E2E2E2E2E2E2E2E2E2E2E2E2E2E2E2E2E2E2E2E2E2E2E2E2E2E2E2E2E2E2E2E2E2E2E2E2E2E2E2E2E2E2E2E2E2E2E2E2E2E2E2E2E2E2E2E2E2E2E2E2E2E2E2E2E2E2E2E2E2E2E2F5E2E2E2
310
E2E2E2E2E2E2E2E2E2E2E2E2E2E2E2E2E2F5F5E2E2E2E2E2E2E2E2E2E2E2E2E2E2E2E2E2E2E2E2F5E2E2E2E2E2E2E2E2E2E2E2E2E2E2E2E2E2E2E2E2E2E2E2E2E2E2E2E2E2E2E2E2E2E2E2E2E2E2E2E2E2E2E2E2E2E2E2E2E2E2E2E2E2E2E2E2E2E2E2E2E2E2E2E2E2E2E2E2E2E2E2E2E2E2E2E2E2E2E2E2E2E2E2E2E2E2E2
310
E2E2E2E2E2E2E2E2E2E2E2E2E2E2E2E2E2E2E2E2E2E2E2E2E2E2E2E2E2E2E2E2E2E2E2E2E2E2E2E2E2E2E2E2E2E2E2E2E2F5E2E2E2E2E2E2E2E2E2E2E2E2E2E2E2E2E2E2E2E2F5F5E2E2E2E2E2E2E2E2E2E2E2E2E2E2E2E2E2E2E2E2F5E2E2E2E2E2E2E2E2E2E2E2E2E2E2E2E2E2E2E2E2E2E2E2E2E2E2E2E2E2E2E2E2E2E2
310
E2E2E2E2E2E2E2E2E2E2E2E2E2E2E2E2E2E2E2E2E2E2E2E2E2E2E2E2E2E2E2E2E2E2E2E2E2E2E2E2E2E2E2E2E2E2E2E2E2E2E2E2E2E2E2E2E2E2E2E2E2E2E2E2E2E2E2E2E2E2E2E2E2E2E2E2E2E2E2E2E2E2E2E2E2E2E2E2E2E2E2E2E2E2E2E2E2E2E2E2E2E2F5E2E2E2E2E2E2E2E2E2E2E2E2E2E2E2E2E2E2E2E2F5F5E2E2
310
E2F5E2E2E2E2E2E2E2E2E2E2E2E2E2E2E2E2F5E2E2E2E2E2E2E2E2E2E2E2E2E2E2E2E2E2E2E2E2E2E2E2E2E2E2E2E2E2E2E2E2E2E2E2E2E2E2E2E2E2E2E2E2E2E2E2E2E2E2E2E2E2E2E2E2E2E2E2E2E2E2E2E2E2E2E2E2E2E2E2E2E2E2E2E2E2E2E2E2E2E2E2E2E2E2E2E2E2E2E2E2E2E2E2E2E2E2E2E2E2E2E2E2E2E2E2E2
310
E2E2E2E2E2E2E2E2E2E2E2E2E2E2E2E2E2E2E2E2E2E2E2E2E2E2E2E2F5E2E2E2E2E2E2E2E2E2E2E2E2E2E2E2E2F5E2E2E2F5F5E2E2E2F5E2E2E2E2E2E2E2E2E2E2E2E2E2E2E2E2F5E2E2E2E2E2E2E2E2E2E2E2E2E2E2E2E2E2E2E2E2E2E2E2E2E2E2E2E2E2E2E2E2E2E2E2E2E2E2E2E2E2E2E2E2E2E2E2E2E2E2E2E2E2E2E2
310
E2E2E2E2E2E2E2E2E2E2E2E2E2E2E2E2E2E2E2E2E2E2E2E2E2E2E2E2E2E2E2E2E2E2E2E2E2E2E2E2E2E2E2E2E2E2E2E2E2E2E2E2E2E2E2E2E2E2E2E2E2E2E2E2E2E2E2E2E2E2E2E2E2E2E2E2E2E2E2E2E2F5E2E2E2E2E2E2E2E2E2E2E2E2E2E2E2E2F5E2E2E2F5F5E2E2E2F5E2E2E2E2E2E2E2E2E2E2E2E2E2E2E2E2F5E2E2
310
E2E2E2E2E2E2E2E2E2E2E2E2E2E2E2E2E2E2E2E2E2E2E2E2E2E2E2E2E2E2E2E2E2E2E2E2E2E2E2E2E2E2E2E2E2E2E2E2E2E2E2E2E2E2E2E2E2E2E2E2E2E2E2E2E2E2E2E2E2E2E2E2E2E2E2E2E2E2E2E2E2E2E2E2E2E2E2E2E2E2E2E2E2E2E2E2E2E2E2E2E2E2E2E2E2E2E2E2E2E2E2E2E2E2E2E2E2E2E2E2E2E2E2E2E2E2E2
310
E2E2E2E2E2E2E2F5E2E2E2E2E2E2E2E2E2E2E2E2E2E2E2E2F5E2E2E2F5F5E2E2E2F5E2E2E2E2E2E2E2E2E2E2E2E2E2E2E2E2F5E2E2E2E2E2E2E2E2E2E2E2E2E2E2E2E2E2E2E2E2E2E2E2E2E2E2E2E2E2E2E2E2E2E2E2E2E2E2E2E2E2E2E2E2E2E2E2E2E2E2E2E2E2E2E2E2E2E2E2E2E2E2E2E2E2E2E2E2E2E2E2E2E2E2E2E2
310
E2E2E2E2E2E2E2E2E2E2E2E2E2E2E2E2E2E2E2E2E2E2E2E2E2E2E2E2E2E2E2E2E2E2E2E2E2E2E2E2E2E2E2E2E2E2E2E2E2E2E2E2E2E2E2E2E2E2E2E2F5E2E2E2E2E2E2E2E2E2E2E2E2E2E2E2E2F5E2E2E2F5F5E2E2E2F5E2E2E2E2E2E2E2E2E2E2E2E2E2E2E2E2F5E2E2E2E2E2E2E2E2E2E2E2E2E2E2E2E2E2E2E2E2E2E2E2
310
E2E2E2E2E2E2E2E2E2E2E2E2E2E2E2E2E2E2E2E2E2E2E2E2E2E2E2E2E2E2E2E2E2E2E2E2E2E2E2E2E2E2E2E2E2E2E2E2E2E2E2E2E2E2E2E2E2E2E2E2E2E2E2E2E2E2E2E2E2E2E2E2E2E2E2E2E2E2E2E2E2E2E2E2E2E2E2E2E2E2E2E2E2E2E2E2E2E2E2E2E2E2E2E2E2E2E2E2E2E2E2E2E2F5E2E2E2E2E2E2E2E2E2E2E2E2E2
310
E2E2E2F5E2E2E2F5F5E2E2E2F5E2E2E2E2E2E2E2E2E2E2E2E2E2E2E2E2F5E2E2E2E2E2E2E2E2E2E2E2E2E2E2E2E2E2E2E2E2E2E2E2E2E2E2E2E2E2E2E2E2E2E2E2E2E2E2E2E2E2E2E2E2E2E2E2E2E2E2E2E2E2E2E2E2E2E2E2E2E2E2E2E2E2E2E2E2E2E2E2E2E2E2E2E2E2E2E2E2E2E2E2E2E2E2E2E2E2E2E2E2E2E2E2E2E2
310
E2E2E2E2E2E2E2E2E2E2E2E2E2E2E2E2E2E2E2E2E2E2E2E2E2E2E2E2E2E2E2E2E2E2E2E2E2E2E2F5E2E2E2E2E2E2E2E2E2E2E2E2E2E2E2E2F5E2E2E2F5F5E2E2E2F5E2E2E2E2E2E2E2E2E2E2E2E2E2E2E2E2F5E2E2E2E2E2E2E2E2E2E2E2E2E2E2E2E2E2E2E2E2E2E2E2E2E2E2E2E2E2E2E2E2E2E2E2E2E2E2E2E2E2E2E2E2
310
E2E2E2E2E2E2E2E2E2E2E2E2E2E2E2E2E2E2E2E2E2E2E2E2E2E2E2E2E2E2E2E2E2E2E2E2E2E2E2E2E2E2E2E2E2E2E2E2E2E2E2E2E2E2E2E2E2E2E2E2E2E2E2E2E2E2E2E2E2E2E2E2E2E2E2E2E2E2E2E2E2E2E2E2E2E2E2E2E2E2E2E2F5E2E2E2E2E2E2E2E2E2E2E2E2E2E2E2E2F5E2E2E2F5F5E2E2E2F5E2E2E2E2E2E2E2E2
310
E2E2E2E2E2E2E2E2F5E2E2E2E2E2E2E2E2E2E2E2E2E2E2E2E2E2E2E2E2E2E2E2E2E2E2E2E2E2E2E2E2E2E2E2E2E2E2E2E2E2E2E2E2E2E2E2E2E2E2E2E2E2E2E2E2E2E2E2E2E2E2E2E2E2E2E2E2E2E2E2E2E2E2E2E2E2E2E2E2E2E2E2E2E2E2E2E2E2E2E2E2E2E2E2E2E2E2E2E2E2E2E2E2E2E2E2E2E2E2E2E2E2E2E2E2E2E2
310
E2E2E2E2E2E2E2E2E2E2E2E2E2E2E2E2E2E2F5E2E2E2E2E2E2E2E2E2E2E2E2E2E2E2E2F5E2E2E2F5F5E2E2E2F5E2E2E2E2E2E2E2E2E2E2E2E2E2E2E2E2F5E2E2E2E2E2E2E2E2E2E2E2E2E2E2E2E2E2E2E2E2E2E2E2E2E2E2E2E2E2E2E2E2E2E2E2E2E2E2E2E2E2E2E2E2E2E2E2E2E2E2E2E2E2E2E2E2E2E2E2E2E2E2E2E2E2
310
E2E2E2E2E2E2E2E2E2E2E2E2E2E2E2E2E2E2E2E2E2E2E2E2E2E2E2E2E2E2E2E2E2E2E2E2E2E2E2E2E2E2E2E2E2E2E2E2E2E2E2E2E2E2E2E2E2E2E2E2E2E2E2E2E2E2E2E2E2E2E2F5E2E2E2E2E2E2E2E2E2E2E2E2E2E2E2E2F5E2E2E2F5F5E2E2E2F5E2E2E2E2E2E2E2E2E2E2E2E2E2E2E2E2F5E2E2E2E2E2E2E2E2E2E2E2E2
310
E2E2E2E2E2E2E2E2E2E2E2E2E2E2E2E2E2E2E2E2E2E2E2E2E2E2E2E2E2E2E2E2E2E2E2E2E2E2E2E2E2E2E2E2E2E2E2E2E2E2E2E2E2E2E2E2E2E2E2E2E2E2E2E2E2E2E2E2E2E2E2E2E2E2E2E2E2E2E2E2E2E2E2E2E2E2E2E2E2E2E2E2E2E2E2E2E2E2E2E2E2E2E2E2E2E2E2E2E2E2E2E2E2E2E2E2E2E2E2E2E2E2E2E2F5E2E2
310
E2E2E2E2E2E2E2E2E2E2E2E2E2E2F5E2E2E2F5F5E2E2E2F5E2E2E2E2E2E2E2E2E2E2E2E2E2E2E2E2F5E2E2E2E2E2E2E2E2E2E2E2E2E2E2E2E2E2E2E2E2E2E2E2E2E2E2E2E2E2E2E2E2E2E2E2E2E2E2E2E2E2E2E2E2E2E2E2E2E2E2E2E2E2E2E2E2E2E2E2E2E2E2E2E2E2E2E2E2E2E2E2E2E2E2E2E2E2E2E2E2E2E2E2E2E2E2
310
E2E2E2E2E2E2E2E2E2E2E2E2E2E2E2E2E2E2E2E2E2E2E2E2E2E2E2E2E2E2E2E2E2E2E2E2E2E2E2E2E2E2E2E2E2E2E2E2E2E2F5E2E2E2E2E2E2E2E2E2E2E2E2E2E2E2E2F5E2E2E2F5F5E2E2E2F5E2E2E2E2E2E2E2E2E2E2E2E2E2E2E2E2F5E2E2E2E2E2E2E2E2E2E2E2E2E2E2E2E2E2E2E2E2E2E2E2E2E2E2E2E2E2E2E2E2E2
310
E2E2E2E2E2E2E2E2E2E2E2E2E2E2E2E2E2E2E2E2E2E2E2E2E2E2E2E2E2E2E2E2E2E2E2E2E2E2E2E2E2E2E2E2E2E2E2E2E2E2E2E2E2E2E2E2E2E2E2E2E2E2E2E2E2E2E2E2E2E2E2E2E2E2E2E2E2E2E2E2E2E2E2E2E2E2E2E2E2E2E2E2E2E2E2E2E2E2E2E2E2E2E2F5E2E2E2E2E2E2E2E2E2E2E2E2E2E2E2E2F5E2E2E2F5F5E2
310
E2E2F5E2E2E2E2E2E2E2E2E2E2E2E2E2E2E2E2F5E2E2E2E2E2E2E2E2E2E2E2E2E2E2E2E2E2E2E2E2E2E2E2E2E2E2E2E2E2E2E2E2E2E2E2E2E2E2E2E2E2E2E2E2E2E2E2E2E2E2E2E2E2E2E2E2E2E2E2E2E2E2E2E2E2E2E2E2E2E2E2E2E2E2E2E2E2E2E2E2E2E2E2E2E2E2E2E2E2E2E2E2E2E2E2E2E2E2E2E2E2E2E2E2E2E2E2
310
E2E2E2E2E2E2E2E2E2E2E2E2E2E2E2E2E2E2E2E2E2E2E2E2E2E2E2E2E2F5E2E2E2E2E2E2E2E2E2E2E2E2E2E2E2E2F5E2E2E2F5F5E2E2E2F5E2E2E2E2E2E2E2E2E2E2E2E2E2E2E2E2F5E2E2E2E2E2E2E2E2E2E2E2E2E2E2E2E2E2E2E2E2E2E2E2E2E2E2E2E2E2E2E2E2E2E2E2E2E2E2E2E2E2E2E2E2E2E2E2E2E2E2E2E2E2E2
310
E2E2E2E2E2E2E2E2E2E2E2E2E2E2E2E2E2E2E2E2E2E2E2E2E2E2E2E2E2E2E2E2E2E2E2E2E2E2E2E2E2E2E2E2E2E2E2E2E2E2E2E2E2E2E2E2E2E2E2E2E2E2E2E2E2E2E2E2E2E2E2E2E2E2E2E2E2E2E2E2E2E2F5E2E2E2E2E2E2E2E2E2E2E2E2E2E2E2E2F5E2E2E2F5F5E2E2E2F5E2E2E2E2E2E2E2E2E2E2E2E2E2E2E2E2F5E2
310
E2E2E2E2E2E2E2E2E2E2E2E2E2E2E2E2E2E2E2E2E2E2E2E2E2E2E2E2E2E2E2E2E2E2E2E2E2E2E2E2E2E2E2E2E2E2E2E2E2E2E2E2E2E2E2E2E2E2E2E2E2E2E2E2E2E2E2E2E2E2E2E2E2E2E2E2E2E2E2E2E2E2E2E2E2E2E2E2E2E2E2E2E2E2E2E2E2E2E2E2E2E2E2E2E2E2E2E2E2E2E2E2E2E2E2E2E2E2E2E2E2E2E2E2E2E2E2
310
E2E2E2E2E2E2E2E2F5E2E2E2E2E2E2E2E2E2E2E2E2E2E2E2E2F5E2E2E2F5F5E2E2E2F5E2E2E2E2E2E2E2E2E2E2E2E2E2E2E2E2F5E2E2E2E2E2E2E2E2E2E2E2E2E2E2E2E2E2E2E2E2E2E2E2E2E2E2E2E2E2E2E2E2E2E2E2E2E2E2E2E2E2E2E2E2E2E2E2E2E2E2E2E2E2E2E2E2E2E2E2E2E2E2E2E2E2E2E2E2E2E2E2E2E2E2E2
310
E2E2E2E2E2E2E2E2E2E2E2E2E2E2E2E2E2E2E2E2E2E2E2E2E2E2E2E2E2E2E2E2E2E2E2E2E2E2E2E2E2E2E2E2E2E2E2E2E2E2E2E2E2E2E2E2E2E2E2E2E2F5E2E2E2E2E2E2E2E2E2E2E2E2E2E2E2E2F5E2E2E2F5F5E2E2E2F5E2E2E2E2E2E2E2E2E2E2E2E2E2E2E2E2F5E2E2E2E2E2E2E2E2E2E2E2E2E2E2E2E2E2E2E2E2E2E2
310
E2E2E2E2E2E2E2E2E2E2E2E2E2E2E2E2E2E2E2E2E2E2E2E2E2E2E2E2E2E2E2E2E2E2E2E2E2E2E2E2E2E2E2E2E2E2E2E2E2E2E2E2E2E2E2E2E2E2E2E2E2E2E2E2E2E2E2E2E2E2E2E2E2E2E2E2E2E2E2E2E2E2E2E2E2E2E2E2E2E2E2E2E2E2E2E2E2E2E2E2E2E2E2E2E2E2E2E2E2E2E2E2E2E2F5E2E2E2E2E2E2E2E2E2E2E2E2
310
E2E2E2E2F5E2E2E2F5F5E2E2E2E2E2E2E2E2E2E2E2E2E2E2E2E2E2E2E2E2F5E2E2E2E2E2E2E2E2E2E2E2E2E2E2E2E2E2E2E2E2E2E2E2E2E2E2E2E2E2E2E2E2E2E2E2E2E2E2E2E2E2E2E2E2E2E2E2E2E2E2E2E2E2E2E2E2E2E2E2E2E2E2E2E2E2E2E2E2E2E2E2E2E2E2E2E2E2E2E2E2E2E2E2E2E2E2E2E2E2E2E2E2E2E2E2E2
310
E2E2E2E2E2E2E2E2E2E2E2E2E2E2E2E2E2E2E2E2E2E2E2E2E2E2E2E2E2E2E2E2E2E2E2E2E2E2E2E2F5E2E2E2E2E2E2E2E2E2E2E2E2E2E2E2E2E2E2E2E2F5F5E2E2E2E2E2E2E2E2E2E2E2E2E2E2E2E2E2E2E2E2F5E2E2E2E2E2E2E2E2E2E2E2E2E2E2E2E2E2E2E2E2E2E2E2E2E2E2E2E2E2E2E2E2E2E2E2E2E2E2E2E2E2E2E2
310
E2E2E2E2E2E2E2E2E2E2E2E2E2E2E2E2E2E2E2E2E2E2E2E2E2E2E2E2E2E2E2E2E2E2E2E2E2E2E2E2E2E2E2E2E2E2E2E2E2E2E2E2E2E2E2E2E2E2E2E2E2E2E2E2E2E2E2E2E2E2E2E2E2E2E2E2E2E2E2E2E2E2E2E2E2E2E2E2E2E2E2E2E2F5E2E2E2E2E2E2E2E2E2E2E2E2E2E2E2E2E2E2E2E2F5F5E2E2E2E2E2E2E2E2E2E2E2
310
E2E2E2E2E2E2E2E2E2F5E2E2E2E2E2E2E2E2E2E2E2E2E2E2E2E2E2E2E2E2E2E2E2E2E2E2E2E2E2E2E2E2E2E2E2E2E2E2E2E2E2E2E2E2E2E2E2E2E2E2E2E2E2E2E2E2E2E2E2E2E2E2E2E2E2E2E2E2E2E2E2E2E2E2E2E2E2E2E2E2E2E2E2E2E2E2E2E2E2E2E2E2E2E2E2E2E2E2E2E2E2E2E2E2E2E2E2E2E2E2E2E2E2E2E2E2E2
310
E2E2E2E2E2E2E2E2E2E2E2E2E2E2E2E2E2E2E2F5E2E2E2E2E2E2E2E2E2E2E2E2E2E2E2E2E2E2E2E2F5F5E2E2E2E2E2E2E2E2E2E2E2E2E2E2E2E2E2E2E2E2F5E2E2E2E2E2E2E2E2E2E2E2E2E2E2E2E2E2E2E2E2E2E2E2E2E2E2E2E2E2E2E2E2E2E2E2E2E2E2E2E2E2E2E2E2E2E2E2E2E2E2E2E2E2E2E2E2E2E2E2E2E2E2E2E2
310
E2E2E2E2E2E2E2E2E2E2E2E2E2E2E2E2E2E2E2E2E2E2E2E2E2E2E2E2E2E2E2E2E2E2E2E2E2E2E2E2E2E2E2E2E2E2E2E2E2E2E2E2E2E2E2E2E2E2E2E2E2E2E2E2E2E2E2E2E2E2E2E2F5E2E2E2E2E2E2E2E2E2E2E2E2E2E2E2E2E2E2E2E2F5F5E2E2E2E2E2E2E2E2E2E2E2E2E2E2E2E2E2E2E2E2F5E2E2E2E2E2E2E2E2E2E2E2
310
E2E2E2E2E2E2E2E2E2E2E2E2E2E2E2E2E2E2E2E2E2E2E2E2E2E2E2E2E2E2E2E2E2E2E2E2E2E2E2E2E2E2E2E2E2E2E2E2E2E2E2E2E2E2E2E2E2E2E2E2E2E2E2E2E2E2E2E2E2E2E2E2E2E2E2E2E2E2E2E2E2E2E2E2E2E2E2E2E2E2E2E2E2E2E2E2E2E2E2E2E2E2E2E2E2E2E2E2E2E2E2E2E2E2E2E2E2E2E2E2E2E2E2E2E2F5E2
310
E2E2E2E2E2E2E2E2E2E2E2E2E2E2E2E2E2E2E2F5F5E2E2E2E2E2E2E2E2E2E2E2E2E2E2E2E2E2E2E2E2F5E2E2E2E2E2E2E2E2E2E2E2E2E2E2E2E2E2E2E2E2E2E2E2E2E2E2E2E2E2E2E2E2E2E2E2E2E2E2E2E2E2E2E2E2E2E2E2E2E2E2E2E2E2E2E2E2E2E2E2E2E2E2E2E2E2E2E2E2E2E2E2E2E2E2E2E2E2E2E2E2E2E2E2E2E2
310
E2E2E2E2E2E2E2E2E2E2E2E2E2E2E2E2E2E2E2E2E2E2E2E2E2E2E2E2E2E2E2E2E2E2E2E2E2E2E2E2E2E2E2E2E2E2E2E2E2E2E2F5E2E2E2E2E2E2E2E2E2E2E2E2E2E2E2E2E2E2E2E2F5F5E2E2E2E2E2E2E2E2E2E2E2E2E2E2E2E2E2E2E2E2F5E2E2E2E2E2E2E2E2E2E2E2E2E2E2E2E2E2E2E2E2E2E2E2E2E2E2E2E2E2E2E2E2
310
E2E2E2E2E2E2E2E2E2E2E2E2E2E2E2E2E2E2E2E2E2E2E2E2E2E2E2E2E2E2E2E2E2E2E2E2E2E2E2E2E2E2E2E2E2E2E2E2E2E2E2E2E2E2E2E2E2E2E2E2E2E2E2E2E2E2E2E2E2E2E2E2E2E2E2E2E2E2E2E2E2E2E2E2E2E2E2E2E2E2E2E2E2E2E2E2E2E2E2E2E2E2E2E2F5E2E2E2E2E2E2E2E2E2E2E2E2E2E2E2E2E2E2E2E2F5F5
310
E2E2E2E2E2E2E2E2E2E2E2E2E2E2E2E2E2E2E2E2F5E2E2E2E2E2E2E2E2E2E2E2E2E2E2E2E2E2E2E2E2E2E2E2E2E2E2E2E2E2E2E2E2E2E2E2E2E2E2E2E2E2E2E2E2E2E2E2E2E2E2E2E2E2E2E2E2E2E2E2E2E2E2E2E2E2E2E2E2E2E2E2E2E2E2E2E2E2E2E2E2E2E2E2E2E2E2E2E2E2E2E2E2E2E2E2E2E2E2E2E2E2E2E2E2E2E2
310
E2E2E2E2E2E2E2E2E2E2E2E2E2E2E2E2E2E2E2E2E2E2E2E2E2E2E2E2E2E2F5E2E2E2E2E2E2E2E2E2E2E2E2E2E2E2E2E2E2E2E2F5F5E2E2E2E2E2E2E2E2E2E2E2E2E2E2E2E2E2E2E2E2F5E2E2E2E2E2E2E2E2E2E2E2E2E2E2E2E2E2E2E2E2E2E2E2E2E2E2E2E2E2E2E2E2E2E2E2E2E2E2E2E2E2E2E2E2E2E2E2E2E2E2E2E2E2
310
E2E2E2E2E2E2E2E2E2E2E2E2E2E2E2E2E2E2E2E2E2E2E2E2E2E2E2E2E2E2E2E2E2E2E2E2E2E2E2E2E2E2E2E2E2E2E2E2E2E2E2E2E2E2E2E2E2E2E2E2E2E2E2E2E2E2E2E2E2E2E2E2E2E2E2E2E2E2E2E2E2E2E2F5E2E2E2E2E2E2E2E2E2E2E2E2E2E2E2E2E2E2E2E2F5F5E2E2E2F5E2E2E2E2E2E2E2E2E2E2E2E2E2E2E2E2F5
310
E2E2E2E2E2E2E2E2E2E2E2E2E2E2E2E2E2E2E2E2E2E2E2E2E2E2E2E2E2E2E2E2E2E2E2E2E2E2E2E2E2E2E2E2E2E2E2E2E2E2E2E2E2E2E2E2E2E2E2E2E2E2E2E2E2E2E2E2E2E2E2E2E2E2E2E2E2E2E2E2E2E2E2E2E2E2E2E2E2E2E2E2E2E2E2E2E2E2E2E2E2E2E2E2E2E2E2E2E2E2E2E2E2E2E2E2E2E2E2E2E2E2E2E2E2E2E2
310
E2E2E2E2E2E2E2E2E2F5E2E2E2E2E2E2E2E2E2E2E2E2E2E2E2E2F5E2E2E2F5F5E2E2E2F5E2E2E2E2E2E2E2E2E2E2E2E2E2E2E2E2F5E2E2E2E2E2E2E2E2E2E2E2E2E2E2E2E2E2E2E2E2E2E2E2E2E2E2E2E2E2E2E2E2E2E2E2E2E2E2E2E2E2E2E2E2E2E2E2E2E2E2E2E2E2E2E2E2E2E2E2E2E2E2E2E2E2E2E2E2E2E2E2E2E2E2
310
E2E2E2E2E2E2E2E2E2E2E2E2E2E2E2E2E2E2E2E2E2E2E2E2E2E2E2E2E2E2E2E2E2E2E2E2E2E2E2E2E2E2E2E2E2E2E2E2E2E2E2E2E2E2E2E2E2E2E2E2E2E2F5E2E2E2E2E2E2E2E2E2E2E2E2E2E2E2E2F5E2E2E2F5F5E2E2E2F5E2E2E2E2E2E2E2E2E2E2E2E2E2E2E2E2F5E2E2E2E2E2E2E2E2E2E2E2E2E2E2E2E2E2E2E2E2E2
310
E2E2E2E2E2E2E2E2E2E2E2E2E2E2E2E2E2E2E2E2E2E2E2E2E2E2E2E2E2E2E2E2E2E2E2E2E2E2E2E2E2E2E2E2E2E2E2E2E2E2E2E2E2E2E2E2E2E2E2E2E2E2E2E2E2E2E2E2E2E2E2E2E2E2E2E2E2E2E2E2E2E2E2E2E2E2E2E2E2E2E2E2E2E2E2E2E2E2E2E2E2E2E2E2E2E2E2E2E2E2E2E2E2E2E2F5E2E2E2E2E2E2E2E2E2E2E2
310
E2E2E2E2E2F5E2E2E2F5F5E2E2E2F5E2E2E2E2E2E2E2E2E2E2E2E2E2E2E2E2F5E2E2E2E2E2E2E2E2E2E2E2E2E2E2E2E2E2E2E2E2E2E2E2E2E2E2E2E2E2E2E2E2E2E2E2E2E2E2E2E2E2E2E2E2E2E2E2E2E2E2E2E2E2E2E2E2E2E2E2E2E2E2E2E2E2E2E2E2E2E2E2E2E2E2E2E2E2E2E2E2E2E2E2E2E2E2E2E2E2E2E2E2E2E2E2
310
E2E2E2E2E2E2E2E2E2E2E2E2E2E2E2E2E2E2E2E2E2E2E2E2E2E2E2E2E2E2E2E2E2E2E2E2E2E2E2E2E2F5E2E2E2E2E2E2E2E2E2E2E2E2E2E2E2E2F5E2E2E2F5F5E2E2E2F5E2E2E2E2E2E2E2E2E2E2E2E2E2E2E2E2F5E2E2E2E2E2E2E2E2E2E2E2E2E2E2E2E2E2E2E2E2E2E2E2E2E2E2E2E2E2E2E2E2E2E2E2E2E2E2E2E2E2E2
310
E2E2E2E2E2E2E2E2E2E2E2E2E2E2E2E2E2E2E2E2E2E2E2E2E2E2E2E2E2E2E2E2E2E2E2E2E2E2E2E2E2E2E2E2E2E2E2E2E2E2E2E2E2E2E2E2E2E2E2E2E2E2E2E2E2E2E2E2E2E2E2E2E2E2E2E2E2E2E2E2E2E2E2E2E2E2E2E2E2E2E2E2E2E2F5E2E2E2E2E2E2E2E2E2E2E2E2E2E2E2E2F5E2E2E2F5F5E2E2E2F5E2E2E2E2E2E2
310
E2E2E2E2E2E2E2E2E2E2F5E2E2E2E2E2E2E2E2E2E2E2E2E2E2E2E2E2E2E2E2E2E2E2E2E2E2E2E2E2E2E2E2E2E2E2E2E2E2E2E2E2E2E2E2E2E2E2E2E2E2E2E2E2E2E2E2E2E2E2E2E2E2E2E2E2E2E2E2E2E2E2E2E2E2E2E2E2E2E2E2E2E2E2E2E2E2E2E2E2E2E2E2E2E2E2E2E2E2E2E2E2E2E2E2E2E2E2E2E2E2E2E2E2E2E2E2
310
E2E2E2E2E2E2E2E2E2E2E2E2E2E2E2E2E2E2E2E2F5E2E2E2E2E2E2E2E2E2E2E2E2E2E2E2E2F5E2E2E2F5F5E2E2E2F5E2E2E2E2E2E2E2E2E2E2E2E2E2E2E2E2F5E2E2E2E2E2E2E2E2E2E2E2E2E2E2E2E2E2E2E2E2E2E2E2E2E2E2E2E2E2E2E2E2E2E2E2E2E2E2E2E2E2E2E2E2E2E2E2E2E2E2E2E2E2E2E2E2E2E2E2E2E2E2E2
310
E2E2E2E2E2E2E2E2E2E2E2E2E2E2E2E2E2E2E2E2E2E2E2E2E2E2E2E2E2E2E2E2E2E2E2E2E2E2E2E2E2E2E2E2E2E2E2E2E2E2E2E2E2E2E2E2E2E2E2E2E2E2E2E2E2E2E2E2E2E2E2E2E2F5E2E2E2E2E2E2E2E2E2E2E2E2E2E2E2E2F5E2E2E2F5F5E2E2E2F5E2E2E2E2E2E2E2E2E2E2E2E2E2E2E2E2F5E2E2E2E2E2E2E2E2E2E2
310
E2E2E2E2E2E2E2E2E2E2E2E2E2E2E2E2E2E2E2E2E2E2E2E2E2E2E2E2E2E2E2E2E2E2E2E2E2E2E2E2E2E2E2E2E2E2E2E2E2E2E2E2E2E2E2E2E2E2E2E2E2E2E2E2E2E2E2E2E2E2E2E2E2E2E2E2E2E2E2E2E2E2E2E2E2E2E2E2E2E2E2E2E2E2E2E2E2E2E2E2E2E2E2E2E2E2E2E2E2E2E2E2E2E2E2E2E2E2E2E2E2E2E2E2E2E2F5
310
E2E2E2E2E2E2E2E2E2E2E2E2E2E2E2E2F5E2E2E2F5F5E2E2E2F5E2E2E2E2E2E2E2E2E2E2E2E2E2E2E2E2F5E2E2E2E2E2E2E2E2E2E2E2E2E2E2E2E2E2E2E2E2E2E2E2E2E2E2E2E2E2E2E2E2E2E2E2E2E2E2E2E2E2E2E2E2E2E2E2E2E2E2E2E2E2E2E2E2E2E2E2E2E2E2E2E2E2E2E2E2E2E2E2E2E2E2E2E2E2E2E2E2E2E2E2E2
310
E2E2E2E2E2E2E2E2E2E2E2E2E2E2E2E2E2E2E2E2E2E2E2E2E2E2E2E2E2E2E2E2E2E2E2E2E2E2E2E2E2E2E2E2E2E2E2E2E2E2E2E2F5E2E2E2E2E2E2E2E2E2E2E2E2E2E2E2E2F5E2E2E2F5F5E2E2E2F5E2E2E2E2E2E2E2E2E2E2E2E2E2E2E2E2F5E2E2E2E2E2E2E2E2E2E2E2E2E2E2E2E2E2E2E2E2E2E2E2E2E2E2E2E2E2E2E2
310
E2E2E2E2E2E2E2E2E2E2E2E2E2E2E2E2E2E2E2E2E2E2E2E2E2E2E2E2E2E2E2E2E2E2E2E2E2E2E2E2E2E2E2E2E2E2E2E2E2E2E2E2E2E2E2E2E2E2E2E2E2E2E2E2E2E2E2E2E2E2E2E2E2E2E2E2E2E2E2E2E2E2E2E2E2E2E2E2E2E2E2E2E2E2E2E2E2E2E2E2E2E2E2E2E2F5E2E2E2E2E2E2E2E2E2E2E2E2E2E2E2E2F5E2E2E2F5
310
F5E2E2E2F5E2E2E2E2E2E2E2E2E2E2E2E2E2E2E2E2F5E2E2E2E2E2E2E2E2E2E2E2E2E2E2E2E2E2E2E2E2E2E2E2E2E2E2E2E2E2E2E2E2E2E2E2E2E2E2E2E2E2E2E2E2E2E2E2E2E2E2E2E2E2E2E2E2E2E2E2E2E2E2E2E2E2E2E2E2E2E2E2E2E2E2E2E2E2E2E2E2E2E2E2E2E2E2E2E2E2E2E2E2E2E2E2E2E2E2E2E2E2E2E2E2E2
310
E2E2E2E2E2E2E2E2E2E2E2E2E2E2E2E2E2E2E2E2E2E2E2E2E2E2E2E2E2E2E2F5E2E2E2E2E2E2E2E2E2E2E2E2E2E2E2E2F5E2E2E2F5F5E2E2E2F5E2E2E2E2E2E2E2E2E2E2E2E2E2E2E2E2F5E2E2E2E2E2E2E2E2E2E2E2E2E2E2E2E2E2E2E2E2E2E2E2E2E2E2E2E2E2E2E2E2E2E2E2E2E2E2E2E2E2E2E2E2E2E2E2E2E2E2E2E2
310
E2E2E2E2E2E2E2E2E2E2E2E2E2E2E2E2E2E2E2E2E2E2E2E2E2E2E2E2E2E2E2E2E2E2E2E2E2E2E2E2E2E2E2E2E2E2E2E2E2E2E2E2E2E2E2E2E2E2E2E2E2E2E2E2E2E2E2E2E2E2E2E2E2E2E2E2E2E2E2E2E2E2E2E2F5E2E2E2E2E2E2E2E2E2E2E2E2E2E2E2E2F5E2E2E2F5F5E2E2E2F5E2E2E2E2E2E2E2E2E2E2E2E2E2E2E2E2
310
F5E2E2E2E2E2E2E2E2E2E2E2E2E2E2E2E2E2E2E2E2E2E2E2E2E2E2E2E2E2E2E2E2E2E2E2E2E2E2E2E2E2E2E2E2E2E2E2E2E2E2E2E2E2E2E2E2E2E2E2E2E2E2E2E2E2E2E2E2E2E2E2E2E2E2E2E2E2E2E2E2E2E2E2E2E2E2E2E2E2E2E2E2E2E2E2E2E2E2E2E2E2E2E2E2E2E2E2E2E2E2E2E2E2E2E2E2E2E2E2E2E2E2E2E2E2E2
310
E2E2E2E2E2E2E2E2E2E2F5E2E2E2E2E2E2E2E2E2E2E2E2E2E2E2E2F5E2E2E2F5F5E2E2E2F5E2E2E2E2E2E2E2E2E2E2E2E2E2E2E2E2F5E2E2E2E2E2E2E2E2E2E2E2E2E2E2E2E2E2E2E2E2E2E2E2E2E2E2E2E2E2E2E2E2E2E2E2E2E2E2E2E2E2E2E2E2E2E2E2E2E2E2E2E2E2E2E2E2E2E2E2E2E2E2E2E2E2E2E2E2E2E2E2E2E2
310
E2E2E2E2E2E2E2E2E2E2E2E2E2E2E2E2E2E2E2E2E2E2E2E2E2E2E2E2E2E2E2E2E2E2E2E2E2E2E2E2E2E2E2E2E2E2E2E2E2E2E2E2E2E2E2E2E2E2E2E2E2E2E2F5E2E2E2E2E2E2E2E2E2E2E2E2E2E2E2E2F5E2E2E2F5F5E2E2E2F5E2E2E2E2E2E2E2E2E2E2E2E2E2E2E2E2F5E2E2E2E2E2E2E2E2E2E2E2E2E2E2E2E2E2E2E2E2
310
E2E2E2E2E2E2E2E2E2E2E2E2E2E2E2E2E2E2E2E2E2E2E2E2E2E2E2E2E2E2E2E2E2E2E2E2E2E2E2E2E2E2E2E2E2E2E2E2E2E2E2E2E2E2E2E2E2E2E2E2E2E2E2E2E2E2E2E2E2E2E2E2E2E2E2E2E2E2E2E2E2E2E2E2E2E2E2E2E2E2E2E2E2E2E2E2E2E2E2E2E2E2E2E2E2E2E2E2E2E2E2E2E2E2E2E2F5E2E2E2E2E2E2E2E2E2E2
310
E2E2E2E2E2E2F5E2E2E2F5F5E2E2E2F5E2E2E2E2E2E2E2E2E2E2E2E2E2E2E2E2F5E2E2E2E2E2E2E2E2E2E2E2E2E2E2E2E2E2E2E2E2E2E2E2E2E2E2E2E2E2E2E2E2E2E2E2E2E2E2E2E2E2E2E2E2E2E2E2E2E2E2E2E2E2E2E2E2E2E2E2E2E2E2E2E2E2E2E2E2E2E2E2E2E2E2E2E2E2E2E2E2E2E2E2E2E2E2E2E2E2E2E2E2E2E2
310
E2E2E2E2E2E2E2E2E2E2E2E2E2E2E2E2E2E2E2E2E2E2E2E2E2E2E2E2E2E2E2E2E2E2E2E2E2E2E2E2E2E2F5E2E2E2E2E2E2E2E2E2E2E2E2E2E2E2E2F5E2E2E2F5F5E2E2E2E2E2E2E2E2E2E2E2E2E2E2E2E2E2E2E2E2F5E2E2E2E2E2E2E2E2E2E2E2E2E2E2E2E2E2E2E2E2E2E2E2E2E2E2E2E2E2E2E2E2E2E2E2E2E2E2E2E2E2
310
E2E2E2E2E2E2E2E2E2E2E2E2E2E2E2E2E2E2E2E2E2E2E2E2E2E2E2E2E2E2E2E2E2E2E2E2E2E2E2E2E2E2E2E2E2E2E2E2E2E2E2E2E2E2E2E2E2E2E2E2E2E2E2E2E2E2E2E2E2E2E2E2E2E2E2E2E2E2E2E2E2E2E2E2E2E2E2E2E2E2E2E2E2E2E2F5E2E2E2E2E2E2E2E2E2E2E2E2E2E2E2E2E2E2E2E2F5F5E2E2E2E2E2E2E2E2E2
310
E2E2E2E2E2E2E2E2E2E2E2F5E2E2E2E2E2E2E2E2E2E2E2E2E2E2E2E2E2E2E2E2E2E2E2E2E2E2E2E2E2E2E2E2E2E2E2E2E2E2E2E2E2E2E2E2E2E2E2E2E2E2E2E2E2E2E2E2E2E2E2E2E2E2E2E2E2E2E2E2E2E2E2E2E2E2E2E2E2E2E2E2E2E2E2E2E2E2E2E2E2E2E2E2E2E2E2E2E2E2E2E2E2E2E2E2E2E2E2E2E2E2E2E2E2E2E2
310
E2E2E2E2E2E2E2E2E2E2E2E2E2E2E2E2E2E2E2E2E2F5E2E2E2E2E2E2E2E2E2E2E2E2E2E2E2E2E2E2E2E2F5F5E2E2E2E2E2E2E2E2E2E2E2E2E2E2E2E2E2E2E2E2F5E2E2E2E2E2E2E2E2E2E2E2E2E2E2E2E2E2E2E2E2E2E2E2E2E2E2E2E2E2E2E2E2E2E2E2E2E2E2E2E2E2E2E2E2E2E2E2E2E2E2E2E2E2E2E2E2E2E2E2E2E2E2
310
E2E2E2E2E2E2E2E2E2E2E2E2E2E2E2E2E2E2E2E2E2E2E2E2E2E2E2E2E2E2E2E2E2E2E2E2E2E2E2E2E2E2E2E2E2E2E2E2E2E2E2E2E2E2E2E2E2E2E2E2E2E2E2E2E2E2E2E2E2E2E2E2E2E2F5E2E2E2E2E2E2E2E2E2E2E2E2E2E2E2E2E2E2E2E2F5F5E2E2E2E2E2E2E2E2E2E2E2E2E2E2E2E2E2E2E2E2F5E2E2E2E2E2E2E2E2E2
310
E2E2E2E2E2E2E2E2E2E2E2E2E2E2E2E2E2E2E2E2E2E2E2E2E2E2E2E2E2E2E2E2E2E2E2E2E2E2E2E2E2E2E2E2E2E2E2E2E2E2E2E2E2E2E2E2E2E2E2E2E2E2E2E2E2E2E2E2E2E2E2E2E2E2E2E2E2E2E2E2E2E2E2E2E2E2E2E2E2E2E2E2E2E2E2E2E2E2E2E2E2E2E2E2E2E2E2E2E2E2E2E2E2E2E2E2E2E2E2E2E2E2E2E2E2E2E2
310
F5E2E2E2E2E2E2E2E2E2E2E2E2E2E2E2E2E2E2E2E2F5F5E2E2E2E2E2E2E2E2E2E2E2E2E2E2E2E2E2E2E2E2F5E2E2E2E2E2E2E2E2E2E2E2E2E2E2E2E2E2E2E2E2E2E2E2E2E2E2E2E2E2E2E2E2E2E2E2E2E2E2E2E2E2E2E2E2E2E2E2E2E2E2E2E2E2E2E2E2E2E2E2E2E2E2E2E2E2E2E2E2E2E2E2E2E2E2E2E2E2E2E2E2E2E2E2
310
E2E2E2E2E2E2E2E2E2E2E2E2E2E2E2E2E2E2E2E2E2E2E2E2E2E2E2E2E2E2E2E2E2E2E2E2E2E2E2E2E2E2E2E2E2E2E2E2E2E2E2E2E2F5E2E2E2E2E2E2E2E2E2E2E2E2E2E2E2E2E2E2E2E2F5F5E2E2E2E2E2E2E2E2E2E2E2E2E2E2E2E2E2E2E2E2F5E2E2E2E2E2E2E2E2E2E2E2E2E2E2E2E2E2E2E2E2E2E2E2E2E2E2E2E2E2E2
310
E2E2E2E2E2E2E2E2E2E2E2E2E2E2E2E2E2E2E2E2E2E2E2E2E2E2E2E2E2E2E2E2E2E2E2E2E2E2E2E2E2E2E2E2E2E2E2E2E2E2E2E2E2E2E2E2E2E2E2E2E2E2E2E2E2E2E2E2E2E2E2E2E2E2E2E2E2E2E2E2E2E2E2E2E2E2E2E2E2E2E2E2E2E2E2E2E2E2E2E2E2E2E2E2E2E2F5E2E2E2E2E2E2E2E2E2E2E2E2E2E2E2E2E2E2E2E2
310
F5F5E2E2E2E2E2E2E2E2E2E2E2E2E2E2E2E2E2E2E2E2F5E2E2E2E2E2E2E2E2E2E2E2E2E2E2E2E2E2E2E2E2E2E2E2E2E2E2E2E2E2E2E2E2E2E2E2E2E2E2E2E2E2E2E2E2E2E2E2E2E2E2E2E2E2E2E2E2E2E2E2E2E2E2E2E2E2E2E2E2E2E2E2E2E2E2E2E2E2E2E2E2E2E2E2E2E2E2E2E2E2E2E2E2E2E2E2E2E2E2E2E2E2E2E2E2
310
E2E2E2E2E2E2E2E2E2E2E2E2E2E2E2E2E2E2E2E2E2E2E2E2E2E2E2E2E2E2E2E2F5E2E2E2E2E2E2E2E2E2E2E2E2E2E2E2E2E2E2E2E2F5F5E2E2E2E2E2E2E2E2E2E2E2E2E2E2E2E2E2E2E2E2F5E2E2E2E2E2E2E2E2E2E2E2E2E2E2E2E2E2E2E2E2E2E2E2E2E2E2E2E2E2E2E2E2E2E2E2E2E2E2E2E2E2E2E2E2E2E2E2E2E2E2E2
310
E2E2E2E2E2E2E2E2E2E2E2E2E2E2E2E2E2E2E2E2E2E2E2E2E2E2E2E2E2E2E2E2E2E2E2E2E2E2E2E2E2E2E2E2E2E2E2E2E2E2E2E2E2E2E2E2E2E2E2E2E2E2E2E2E2E2E2E2E2E2E2E2E2E2E2E2E2E2E2E2E2E2E2E2E2F5E2E2E2E2E2E2E2E2E2E2E2E2E2E2E2E2E2E2E2E2F5F5E2E2E2E2E2E2E2E2E2E2E2E2E2E2E2E2E2E2E2
310
E2F5E2E2E2E2E2E2E2E2E2E2E2E2E2E2E2E2E2E2E2E2E2E2E2E2E2E2E2E2E2E2E2E2E2E2E2E2E2E2E2E2E2E2E2E2E2E2E2E2E2E2E2E2E2E2E2E2E2E2E2E2E2E2E2E2E2E2E2E2E2E2E2E2E2E2E2E2E2E2E2E2E2E2E2E2E2E2E2E2E2E2E2E2E2E2E2E2E2E2E2E2E2E2E2E2E2E2E2E2E2E2E2E2E2E2E2E2E2E2E2E2E2E2E2E2E2
310
E2E2E2E2E2E2E2E2E2E2E2F5E2E2E2E2E2E2E2E2E2E2E2E2E2E2E2E2E2E2E2E2F5F5E2E2E2E2E2E2E2E2E2E2E2E2E2E2E2E2E2E2E2E2F5E2E2E2E2E2E2E2E2E2E2E2E2E2E2E2E2E2E2E2E2E2E2E2E2E2E2E2E2E2E2E2E2E2E2E2E2E2E2E2E2E2E2E2E2E2E2E2E2E2E2E2E2E2E2E2E2E2E2E2E2E2E2E2E2E2E2E2E2E2E2E2E2
310
E2E2E2E2E2E2E2E2E2E2E2E2E2E2E2E2E2E2E2E2E2E2E2E2E2E2E2E2E2E2E2E2E2E2E2E2E2E2E2E2E2E2E2E2E2E2E2E2E2E2E2E2E2E2E2E2E2E2E2E2E2E2E2E2F5E2E2E2E2E2E2E2E2E2E2E2E2E2E2E2E2E2E2E2E2F5F5E2E2E2F5E2E2E2E2E2E2E2E2E2E2E2E2E2E2E2E2F5E2E2E2E2E2E2E2E2E2E2E2E2E2E2E2E2E2E2E2
310
E2E2E2E2E2E2E2E2E2E2E2E2E2E2E2E2E2E2E2E2E2E2E2E2E2E2E2E2E2E2E2E2E2E2E2E2E2E2E2E2E2E2E2E2E2E2E2E2E2E2E2E2E2E2E2E2E2E2E2E2E2E2E2E2E2E2E2E2E2E2E2E2E2E2E2E2E2E2E2E2E2E2E2E2E2E2E2E2E2E2E2E2E2E2E2E2E2E2E2E2E2E2E2E2E2E2E2E2E2E2E2E2E2E2E2E2E2F5E2E2E2E2E2E2E2E2E2
310
E2E2E2E2E2E2E2F5E2E2E2F5F5E2E2E2F5E2E2E2E2E2E2E2E2E2E2E2E2E2E2E2E2F5E2E2E2E2E2E2E2E2E2E2E2E2E2E2E2E2E2E2E2E2E2E2E2E2E2E2E2E2E2E2E2E2E2E2E2E2E2E2E2E2E2E2E2E2E2E2E2E2E2E2E2E2E2E2E2E2E2E2E2E2E2E2E2E2E2E2E2E2E2E2E2E2E2E2E2E2E2E2E2E2E2E2E2E2E2E2E2E2E2E2E2E2E2
310
E2E2E2E2E2E2E2E2E2E2E2E2E2E2E2E2E2E2E2E2E2E2E2E2E2E2E2E2E2E2E2E2E2E2E2E2E2E2E2E2E2E2E2F5E2E2E2E2E2E2E2E2E2E2E2E2E2E2E2E2F5E2E2E2F5F5E2E2E2F5E2E2E2E2E2E2E2E2E2E2E2E2E2E2E2E2F5E2E2E2E2E2E2E2E2E2E2E2E2E2E2E2E2E2E2E2E2E2E2E2E2E2E2E2E2E2E2E2E2E2E2E2E2E2E2E2E2
310
E2E2E2E2E2E2E2E2E2E2E2E2E2E2E2E2E2E2E2E2E2E2E2E2E2E2E2E2E2E2E2E2E2E2E2E2E2E2E2E2E2E2E2E2E2E2E2E2E2E2E2E2E2E2E2E2E2E2E2E2E2E2E2E2E2E2E2E2E2E2E2E2E2E2E2E2E2E2E2E2E2E2E2E2E2E2E2E2E2E2E2E2E2E2E2E2F5E2E2E2E2E2E2E2E2E2E2E2E2E2E2E2E2F5E2E2E2F5F5E2E2E2F5E2E2E2E2
310
E2E2E2E2E2E2E2E2E2E2E2E2F5E2E2E2E2E2E2E2E2E2E2E2E2E2E2E2E2E2E2E2E2E2E2E2E2E2E2E2E2E2E2E2E2E2E2E2E2E2E2E2E2E2E2E2E2E2E2E2E2E2E2E2E2E2E2E2E2E2E2E2E2E2E2E2E2E2E2E2E2E2E2E2E2E2E2E2E2E2E2E2E2E2E2E2E2E2E2E2E2E2E2E2E2E2E2E2E2E2E2E2E2E2E2E2E2E2E2E2E2E2E2E2E2E2E2
310
E2E2E2E2E2E2E2E2E2E2E2E2E2E2E2E2E2E2E2E2E2E2F5E2E2E2E2E2E2E2E2E2E2E2E2E2E2E2E2F5E2E2E2F5F5E2E2E2F5E2E2E2E2E2E2E2E2E2E2E2E2E2E2E2E2F5E2E2E2E2E2E2E2E2E2E2E2E2E2E2E2E2E2E2E2E2E2E2E2E2E2E2E2E2E2E2E2E2E2E2E2E2E2E2E2E2E2E2E2E2E2E2E2E2E2E2E2E2E2E2E2E2E2E2E2E2E2
310
E2E2E2E2E2E2E2E2E2E2E2E2E2E2E2E2E2E2E2E2E2E2E2E2E2E2E2E2E2E2E2E2E2E2E2E2E2E2E2E2E2E2E2E2E2E2E2E2E2E2E2E2E2E2E2E2E2E2E2E2E2E2E2E2E2E2E2E2E2E2E2E2E2E2E2F5E2E2E2E2E2E2E2E2E2E2E2E2E2E2E2E2F5E2E2E2F5F5E2E2E2F5E2E2E2E2E2E2E2E2E2E2E2E2E2E2E2E2F5E2E2E2E2E2E2E2E2
310
E2E2E2E2E2E2E2E2E2E2E2E2E2E2E2E2E2E2E2E2E2E2E2E2E2E2E2E2E2E2E2E2E2E2E2E2E2E2E2E2E2E2E2E2E2E2E2E2E2E2E2E2E2E2E2E2E2E2E2E2E2E2E2E2E2E2E2E2E2E2E2E2E2E2E2E2E2E2E2E2E2E2E2E2E2E2E2E2E2E2E2E2E2E2E2E2E2E2E2E2E2E2E2E2E2E2E2E2E2E2E2E2E2E2E2E2E2E2E2E2E2E2E2E2E2E2E2
310
E2F5E2E2E2E2E2E2E2E2E2E2E2E2E2E2E2E2F5E2E2E2F5F5E2E2E2F5E2E2E2E2E2E2E2E2E2E2E2E2E2E2E2E2F5E2E2E2E2E2E2E2E2E2E2E2E2E2E2E2E2E2E2E2E2E2E2E2E2E2E2E2E2E2E2E2E2E2E2E2E2E2E2E2E2E2E2E2E2E2E2E2E2E2E2E2E2E2E2E2E2E2E2E2E2E2E2E2E2E2E2E2E2E2E2E2E2E2E2E2E2E2E2E2E2E2E2
310
E2E2E2E2E2E2E2E2E2E2E2E2E2E2E2E2E2E2E2E2E2E2E2E2E2E2E2E2E2E2E2E2E2E2E2E2E2E2E2E2E2E2E2E2E2E2E2E2E2E2E2E2E2E2F5E2E2E2E2E2E2E2E2E2E2E2E2E2E2E2E2F5E2E2E2F5F5E2E2E2F5E2E2E2E2E2E2E2E2E2E2E2E2E2E2E2E2F5E2E2E2E2E2E2E2E2E2E2E2E2E2E2E2E2E2E2E2E2E2E2E2E2E2E2E2E2E2
310
E2E2E2E2E2E2E2E2E2E2E2E2E2E2E2E2E2E2E2E2E2E2E2E2E2E2E2E2E2E2E2E2E2E2E2E2E2E2E2E2E2E2E2E2E2E2E2E2E2E2E2E2E2E2E2E2E2E2E2E2E2E2E2E2E2E2E2E2E2E2E2E2E2E2E2E2E2E2E2E2E2E2E2E2E2E2E2E2E2E2E2E2E2E2E2E2E2E2E2E2E2E2E2E2E2E2E2F5E2E2E2E2E2E2E2E2E2E2E2E2E2E2E2E2F5E2E2
310
E2F5F5E2E2E2F5E2E2E2E2E2E2E2E2E2E2E2E2E2E2E2E2F5E2E2E2E2E2E2E2E2E2E2E2E2E2E2E2E2E2E2E2E2E2E2E2E2E2E2E2E2E2E2E2E2E2E2E2E2E2E2E2E2E2E2E2E2E2E2E2E2E2E2E2E2E2E2E2E2E2E2E2E2E2E2E2E2E2E2E2E2E2E2E2E2E2E2E2E2E2E2E2E2E2E2E2E2E2E2E2E2E2E2E2E2E2E2E2E2E2E2E2E2E2E2E2
310
E2E2E2E2E2E2E2E2E2E2E2E2E2E2E2E2E2E2E2E2E2E2E2E2E2E2E2E2E2E2E2E2E2F5E2E2E2E2E2E2E2E2E2E2E2E2E2E2E2E2F5E2E2E2F5F5E2E2E2F5E2E2E2E2E2E2E2E2E2E2E2E2E2E2E2E2F5E2E2E2E2E2E2E2E2E2E2E2E2E2E2E2E2E2E2E2E2E2E2E2E2E2E2E2E2E2E2E2E2E2E2E2E2E2E2E2E2E2E2E2E2E2E2E2E2E2E2
310
E2E2E2E2E2E2E2E2E2E2E2E2E2E2E2E2E2E2E2E2E2E2E2E2E2E2E2E2E2E2E2E2E2E2E2E2E2E2E2E2E2E2E2E2E2E2E2E2E2E2E2E2E2E2E2E2E2E2E2E2E2E2E2E2E2E2E2E2E2E2E2E2E2E2E2E2E2E2E2E2E2E2E2E2E2E2F5E2E2E2E2E2E2E2E2E2E2E2E2E2E2E2E2F5E2E2E2F5F5E2E2E2F5E2E2E2E2E2E2E2E2E2E2E2E2E2E2
310
E2E2F5E2E2E2E2E2E2E2E2E2E2E2E2E2E2E2E2E2E2E2E2E2E2E2E2E2E2E2E2E2E2E2E2E2E2E2E2E2E2E2E2E2E2E2E2E2E2E2E2E2E2E2E2E2E2E2E2E2E2E2E2E2E2E2E2E2E2E2E2E2E2E2E2E2E2E2E2E2E2E2E2E2E2E2E2E2E2E2E2E2E2E2E2E2E2E2E2E2E2E2E2E2E2E2E2E2E2E2E2E2E2E2E2E2E2E2E2E2E2E2E2E2E2E2E2
310
E2E2E2E2E2E2E2E2E2E2E2E2F5E2E2E2E2E2E2E2E2E2E2E2E2E2E2E2E2F5E2E2E2F5F5E2E2E2F5E2E2E2E2E2E2E2E2E2E2E2E2E2E2E2E2F5E2E2E2E2E2E2E2E2E2E2E2E2E2E2E2E2E2E2E2E2E2E2E2E2E2E2E2E2E2E2E2E2E2E2E2E2E2E2E2E2E2E2E2E2E2E2E2E2E2E2E2E2E2E2E2E2E2E2E2E2E2E2E2E2E2E2E2E2E2E2E2
310
E2E2E2E2E2E2E2E2E2E2E2E2E2E2E2E2E2E2E2E2E2E2E2E2E2E2E2E2E2E2E2E2E2E2E2E2E2E2E2E2E2E2E2E2E2E2E2E2E2E2E2E2E2E2E2E2E2E2E2E2E2E2E2E2E2F5E2E2E2E2E2E2E2E2E2E2E2E2E2E2E2E2F5E2E2E2F5F5E2E2E2F5E2E2E2E2E2E2E2E2E2E2E2E2E2E2E2E2F5E2E2E2E2E2E2E2E2E2E2E2E2E2E2E2E2E2E2
310
E2E2E2E2E2E2E2E2E2E2E2E2E2E2E2E2E2E2E2E2E2E2E2E2E2E2E2E2E2E2E2E2E2E2E2E2E2E2E2E2E2E2E2E2E2E2E2E2E2E2E2E2E2E2E2E2E2E2E2E2E2E2E2E2E2E2E2E2E2E2E2E2E2E2E2E2E2E2E2E2E2E2E2E2E2E2E2E2E2E2E2E2E2E2E2E2E2E2E2E2E2E2E2E2E2E2E2E2E2E2E2E2E2E2E2E2E2E2F5E2E2E2E2E2E2E2E2
310
E2E2E2E2E2E2E2E2F5E2E2E2F5F5E2E2E2F5E2E2E2E2E2E2E2E2E2E2E2E2E2E2E2E2F5E2E2E2E2E2E2E2E2E2E2E2E2E2E2E2E2E2E2E2E2E2E2E2E2E2E2E2E2E2E2E2E2E2E2E2E2E2E2E2E2E2E2E2E2E2E2E2E2E2E2E2E2E2E2E2E2E2E2E2E2E2E2E2E2E2E2E2E2E2E2E2E2E2E2E2E2E2E2E2E2E2E2E2E2E2E2E2E2E2E2E2E2
310
E2E2E2E2E2E2E2E2E2E2E2E2E2E2E2E2E2E2E2E2E2E2E2E2E2E2E2E2E2E2E2E2E2E2E2E2E2E2E2E2E2E2E2E2F5E2E2E2E2E2E2E2E2E2E2E2E2E2E2E2E2F5E2E2E2F5F5E2E2E2F5E2E2E2E2E2E2E2E2E2E2E2E2E2E2E2E2F5E2E2E2E2E2E2E2E2E2E2E2E2E2E2E2E2E2E2E2E2E2E2E2E2E2E2E2E2E2E2E2E2E2E2E2E2E2E2E2
310
E2E2E2E2E2E2E2E2E2E2E2E2E2E2E2E2E2E2E2E2E2E2E2E2E2E2E2E2E2E2E2E2E2E2E2E2E2E2E2E2E2E2E2E2E2E2E2E2E2E2E2E2E2E2E2E2E2E2E2E2E2E2E2E2E2E2E2E2E2E2E2E2E2E2E2E2E2E2E2E2E2E2E2E2E2E2E2E2E2E2E2E2E2E2E2E2E2F5E2E2E2E2E2E2E2E2E2E2E2E2E2E2E2E2F5E2E2E2F5F5E2E2E2F5E2E2E2
310
E2E2E2E2E2E2E2E2E2E2E2E2E2F5E2E2E2E2E2E2E2E2E2E2E2E2E2E2E2E2E2E2E2E2E2E2E2E2E2E2E2E2E2E2E2E2E2E2E2E2E2E2E2E2E2E2E2E2E2E2E2E2E2E2E2E2E2E2E2E2E2E2E2E2E2E2E2E2E2E2E2E2E2E2E2E2E2E2E2E2E2E2E2E2E2E2E2E2E2E2E2E2E2E2E2E2E2E2E2E2E2E2E2E2E2E2E2E2E2E2E2E2E2E2E2E2E2
310
E2E2E2E2E2E2E2E2E2E2E2E2E2E2E2E2E2E2E2E2E2E2E2F5E2E2E2E2E2E2E2E2E2E2E2E2E2E2E2E2F5E2E2E2F5F5E2E2E2E2E2E2E2E2E2E2E2E2E2E2E2E2E2E2E2E2F5E2E2E2E2E2E2E2E2E2E2E2E2E2E2E2E2E2E2E2E2E2E2E2E2E2E2E2E2E2E2E2E2E2E2E2E2E2E2E2E2E2E2E2E2E2E2E2E2E2E2E2E2E2E2E2E2E2E2E2E2
310
E2E2E2E2E2E2E2E2E2E2E2E2E2E2E2E2E2E2E2E2E2E2E2E2E2E2E2E2E2E2E2E2E2E2E2E2E2E2E2E2E2E2E2E2E2E2E2E2E2E2E2E2E2E2E2E2E2E2E2E2E2E2E2E2E2E2E2E2E2E2E2E2E2E2E2E2F5E2E2E2E2E2E2E2E2E2E2E2E2E2E2E2E2E2E2E2E2F5F5E2E2E2E2E2E2E2E2E2E2E2E2E2E2E2E2E2E2E2E2F5E2E2E2E2E2E2E2
310
E2E2E2E2E2E2E2E2E2E2E2E2E2E2E2E2E2E2E2E2E2E2E2E2E2E2E2E2E2E2E2E2E2E2E2E2E2E2E2E2E2E2E2E2E2E2E2E2E2E2E2E2E2E2E2E2E2E2E2E2E2E2E2E2E2E2E2E2E2E2E2E2E2E2E2E2E2E2E2E2E2E2E2E2E2E2E2E2E2E2E2E2E2E2E2E2E2E2E2E2E2E2E2E2E2E2E2E2E2E2E2E2E2E2E2E2E2E2E2E2E2E2E2E2E2E2E2
310
E2E2F5E2E2E2E2E2E2E2E2E2E2E2E2E2E2E2E2E2E2E2E2F5F5E2E2E2E2E2E2E2E2E2E2E2E2E2E2E2E2E2E2E2E2F5E2E2E2E2E2E2E2E2E2E2E2E2E2E2E2E2E2E2E2E2E2E2E2E2E2E2E2E2E2E2E2E2E2E2E2E2E2E2E2E2E2E2E2E2E2E2E2E2E2E2E2E2E2E2E2E2E2E2E2E2E2E2E2E2E2E2E2E2E2E2E2E2E2E2E2E2E2E2E2E2E2
310
E2E2E2E2E2E2E2E2E2E2E2E2E2E2E2E2E2E2E2E2E2E2E2E2E2E2E2E2E2E2E2E2E2E2E2E2E2E2E2E2E2E2E2E2E2E2E2E2E2E2E2E2E2E2E2F5E2E2E2E2E2E2E2E2E2E2E2E2E2E2E2E2E2E2E2E2F5F5E2E2E2E2E2E2E2E2E2E2E2E2E2E2E2E2E2E2E2E2F5E2E2E2E2E2E2E2E2E2E2E2E2E2E2E2E2E2E2E2E2E2E2E2E2E2E2E2E2
310
E2E2E2E2E2E2E2E2E2E2E2E2E2E2E2E2E2E2E2E2E2E2E2E2E2E2E2E2E2E2E2E2E2E2E2E2E2E2E2E2E2E2E2E2E2E2E2E2E2E2E2E2E2E2E2E2E2E2E2E2E2E2E2E2E2E2E2E2E2E2E2E2E2E2E2E2E2E2E2E2E2E2E2E2E2E2E2E2E2E2E2E2E2E2E2E2E2E2E2E2E2E2E2E2E2E2E2E2F5E2E2E2E2E2E2E2E2E2E2E2E2E2E2E2E2E2E2
310
E2E2F5F5E2E2E2E2E2E2E2E2E2E2E2E2E2E2E2E2E2E2E2E2F5E2E2E2E2E2E2E2E2E2E2E2E2E2E2E2E2E2E2E2E2E2E2E2E2E2E2E2E2E2E2E2E2E2E2E2E2E2E2E2E2E2E2E2E2E2E2E2E2E2E2E2E2E2E2E2E2E2E2E2E2E2E2E2E2E2E2E2E2E2E2E2E2E2E2E2E2E2E2E2E2E2E2E2E2E2E2E2E2E2E2E2E2E2E2E2E2E2E2E2E2E2E2
310
E2E2E2E2E2E2E2E2E2E2E2E2E2E2E2E2E2E2E2E2E2E2E2E2E2E2E2E2E2E2E2E2E2E2F5E2E2E2E2E2E2E2E2E2E2E2E2E2E2E2E2E2E2E2E2F5F5E2E2E2E2E2E2E2E2E2E2E2E2E2E2E2E2E2E2E2E2F5E2E2E2E2E2E2E2E2E2E2E2E2E2E2E2E2E2E2E2E2E2E2E2E2E2E2E2E2E2E2E2E2E2E2E2E2E2E2E2E2E2E2E2E2E2E2E2E2E2
310
E2E2E2E2E2E2E2E2E2E2E2E2E2E2E2E2E2E2E2E2E2E2E2E2E2E2E2E2E2E2E2E2E2E2E2E2E2E2E2E2E2E2E2E2E2E2E2E2E2E2E2E2E2E2E2E2E2E2E2E2E2E2E2E2E2E2E2E2E2E2E2E2E2E2E2E2E2E2E2E2E2E2E2E2E2E2E2F5E2E2E2E2E2E2E2E2E2E2E2E2E2E2E2E2E2E2E2E2F5F5E2E2E2E2E2E2E2E2E2E2E2E2E2E2E2E2E2
310
E2E2E2F5E2E2E2E2E2E2E2E2E2E2E2E2E2E2E2E2E2E2E2E2E2E2E2E2E2E2E2E2E2E2E2E2E2E2E2E2E2E2E2E2E2E2E2E2E2E2E2E2E2E2E2E2E2E2E2E2E2E2E2E2E2E2E2E2E2E2E2E2E2E2E2E2E2E2E2E2E2E2E2E2E2E2E2E2E2E2E2E2E2E2E2E2E2E2E2E2E2E2E2E2E2E2E2E2E2E2E2E2E2E2E2E2E2E2E2E2E2E2E2E2E2E2E2
310
E2E2E2E2E2E2E2E2E2E2E2E2E2F5E2E2E2E2E2E2E2E2E2E2E2E2E2E2E2E2E2E2E2E2F5F5E2E2E2E2E2E2E2E2E2E2E2E2E2E2E2E2E2E2E2E2F5E2E2E2E2E2E2E2E2E2E2E2E2E2E2E2E2E2E2E2E2E2E2E2E2E2E2E2E2E2E2E2E2E2E2E2E2E2E2E2E2E2E2E2E2E2E2E2E2E2E2E2E2E2E2E2E2E2E2E2E2E2E2E2E2E2E2E2E2E2E2
310
E2E2E2E2E2E2E2E2E2E2E2E2E2E2E2E2E2E2E2E2E2E2E2E2E2E2E2E2E2E2E2E2E2E2E2E2E2E2E2E2E2E2E2E2E2E2E2E2E2E2E2E2E2E2E2E2E2E2E2E2E2E2E2E2E2E2F5E2E2E2E2E2E2E2E2E2E2E2E2E2E2E2E2E2E2E2E2F5F5E2E2E2E2E2E2E2E2E2E2E2E2E2E2E2E2E2E2E2E2F5E2E2E2E2E2E2E2E2E2E2E2E2E2E2E2E2E2
310
E2E2E2E2E2E2E2E2E2E2E2E2E2E2E2E2E2E2E2E2E2E2E2E2E2E2E2E2E2E2E2E2E2E2E2E2E2E2E2E2E2E2E2E2E2E2E2E2E2E2E2E2E2E2E2E2E2E2E2E2E2E2E2E2E2E2E2E2E2E2E2E2E2E2E2E2E2E2E2E2E2E2E2E2E2E2E2E2E2E2E2E2E2E2E2E2E2E2E2E2E2E2E2E2E2E2E2E2E2E2E2E2E2E2E2E2E2E2E2F5E2E2E2E2E2E2E2
310
E2E2E2E2E2E2E2E2E2E2E2E2E2F5F5E2E2E2F5E2E2E2E2E2E2E2E2E2E2E2E2E2E2E2E2F5E2E2E2E2E2E2E2E2E2E2E2E2E2E2E2E2E2E2E2E2E2E2E2E2E2E2E2E2E2E2E2E2E2E2E2E2E2E2E2E2E2E2E2E2E2E2E2E2E2E2E2E2E2E2E2E2E2E2E2E2E2E2E2E2E2E2E2E2E2E2E2E2E2E2E2E2E2E2E2E2E2E2E2E2E2E2E2E2E2E2E2
310
E2E2E2E2E2E2E2E2E2E2E2E2E2E2E2E2E2E2E2E2E2E2E2E2E2E2E2E2E2E2E2E2E2E2E2E2E2E2E2E2E2E2E2E2E2F5E2E2E2E2E2E2E2E2E2E2E2E2E2E2E2E2F5E2E2E2F5F5E2E2E2F5E2E2E2E2E2E2E2E2E2E2E2E2E2E2E2E2F5E2E2E2E2E2E2E2E2E2E2E2E2E2E2E2E2E2E2E2E2E2E2E2E2E2E2E2E2E2E2E2E2E2E2E2E2E2E2
310
E2E2E2E2E2E2E2E2E2E2E2E2E2E2E2E2E2E2E2E2E2E2E2E2E2E2E2E2E2E2E2E2E2E2E2E2E2E2E2E2E2E2E2E2E2E2E2E2E2E2E2E2E2E2E2E2E2E2E2E2E2E2E2E2E2E2E2E2E2E2E2E2E2E2E2E2E2E2E2E2E2E2E2E2E2E2E2E2E2E2E2E2E2E2E2E2E2E2F5E2E2E2E2E2E2E2E2E2E2E2E2E2E2E2E2F5E2E2E2F5F5E2E2E2F5E2E2
310
E2E2E2E2E2E2E2E2E2E2E2E2E2E2F5E2E2E2E2E2E2E2E2E2E2E2E2E2E2E2E2E2E2E2E2E2E2E2E2E2E2E2E2E2E2E2E2E2E2E2E2E2E2E2E2E2E2E2E2E2E2E2E2E2E2E2E2E2E2E2E2E2E2E2E2E2E2E2E2E2E2E2E2E2E2E2E2E2E2E2E2E2E2E2E2E2E2E2E2E2E2E2E2E2E2E2E2E2E2E2E2E2E2E2E2E2E2E2E2E2E2E2E2E2E2E2E2
310
E2E2E2E2E2E2E2E2E2E2E2E2E2E2E2E2E2E2E2E2E2E2E2E2F5E2E2E2E2E2E2E2E2E2E2E2E2E2E2E2E2F5E2E2E2F5F5E2E2E2F5E2E2E2E2E2E2E2E2E2E2E2E2E2E2E2E2F5E2E2E2E2E2E2E2E2E2E2E2E2E2E2E2E2E2E2E2E2E2E2E2E2E2E2E2E2E2E2E2E2E2E2E2E2E2E2E2E2E2E2E2E2E2E2E2E2E2E2E2E2E2E2E2E2E2E2E2
310
E2E2E2E2E2E2E2E2E2E2E2E2E2E2E2E2E2E2E2E2E2E2E2E2E2E2E2E2E2E2E2E2E2E2E2E2E2E2E2E2E2E2E2E2E2E2E2E2E2E2E2E2E2E2E2E2E2E2E2E2E2E2E2E2E2E2E2E2E2E2E2E2E2E2E2E2E2F5E2E2E2E2E2E2E2E2E2E2E2E2E2E2E2E2F5E2E2E2F5F5E2E2E2F5E2E2E2E2E2E2E2E2E2E2E2E2E2E2E2E2F5E2E2E2E2E2E2
310
E2E2E2E2E2E2E2E2E2E2E2E2E2E2E2E2E2E2E2E2E2E2E2E2E2E2E2E2E2E2E2E2E2E2E2E2E2E2E2E2E2E2E2E2E2E2E2E2E2E2E2E2E2E2E2E2E2E2E2E2E2E2E2E2E2E2E2E2E2E2E2E2E2E2E2E2E2E2E2E2E2E2E2E2E2E2E2E2E2E2E2E2E2E2E2E2E2E2E2E2E2E2E2E2E2E2E2E2E2E2E2E2E2E2E2E2E2E2E2E2E2E2E2E2E2E2E2
310
E2E2E2F5E2E2E2E2E2E2E2E2E2E2E2E2E2E2E2E2F5E2E2E2F5F5E2E2E2F5E2E2E2E2E2E2E2E2E2E2E2E2E2E2E2E2F5E2E2E2E2E2E2E2E2E2E2E2E2E2E2E2E2E2E2E2E2E2E2E2E2E2E2E2E2E2E2E2E2E2E2E2E2E2E2E2E2E2E2E2E2E2E2E2E2E2E2E2E2E2E2E2E2E2E2E2E2E2E2E2E2E2E2E2E2E2E2E2E2E2E2E2E2E2E2E2E2
310
E2E2E2E2E2E2E2E2E2E2E2E2E2E2E2E2E2E2E2E2E2E2E2E2E2E2E2E2E2E2E2E2E2E2E2E2E2E2E2E2E2E2E2E2E2E2E2E2E2E2E2E2E2E2E2E2F5E2E2E2E2E2E2E2E2E2E2E2E2E2E2E2E2F5E2E2E2F5F5E2E2E2F5E2E2E2E2E2E2E2E2E2E2E2E2E2E2E2E2F5E2E2E2E2E2E2E2E2E2E2E2E2E2E2E2E2E2E2E2E2E2E2E2E2E2E2E2
310
E2E2E2E2E2E2E2E2E2E2E2E2E2E2E2E2E2E2E2E2E2E2E2E2E2E2E2E2E2E2E2E2E2E2E2E2E2E2E2E2E2E2E2E2E2E2E2E2E2E2E2E2E2E2E2E2E2E2E2E2E2E2E2E2E2E2E2E2E2E2E2E2E2E2E2E2E2E2E2E2E2E2E2E2E2E2E2E2E2E2E2E2E2E2E2E2E2E2E2E2E2E2E2E2E2E2E2E2E2F5E2E2E2E2E2E2E2E2E2E2E2E2E2E2E2E2F5
310
E2E2E2F5F5E2E2E2F5E2E2E2E2E2E2E2E2E2E2E2E2E2E2E2E2F5E2E2E2E2E2E2E2E2E2E2E2E2E2E2E2E2E2E2E2E2E2E2E2E2E2E2E2E2E2E2E2E2E2E2E2E2E2E2E2E2E2E2E2E2E2E2E2E2E2E2E2E2E2E2E2E2E2E2E2E2E2E2E2E2E2E2E2E2E2E2E2E2E2E2E2E2E2E2E2E2E2E2E2E2E2E2E2E2E2E2E2E2E2E2E2E2E2E2E2E2E2
310
E2E2E2E2E2E2E2E2E2E2E2E2E2E2E2E2E2E2E2E2E2E2E2E2E2E2E2E2E2E2E2E2E2E2E2F5E2E2E2E2E2E2E2E2E2E2E2E2E2E2E2E2F5E2E2E2F5F5E2E2E2F5E2E2E2E2E2E2E2E2E2E2E2E2E2E2E2E2F5E2E2E2E2E2E2E2E2E2E2E2E2E2E2E2E2E2E2E2E2E2E2E2E2E2E2E2E2E2E2E2E2E2E2E2E2E2E2E2E2E2E2E2E2E2E2E2E2
310
E2E2E2E2E2E2E2E2E2E2E2E2E2E2E2E2E2E2E2E2E2E2E2E2E2E2E2E2E2E2E2E2E2E2E2E2E2E2E2E2E2E2E2E2E2E2E2E2E2E2E2E2E2E2E2E2E2E2E2E2E2E2E2E2E2E2E2E2E2E2E2E2E2E2E2E2E2E2E2E2E2E2E2E2E2E2E2E2F5E2E2E2E2E2E2E2E2E2E2E2E2E2E2E2E2F5E2E2E2F5F5E2E2E2F5E2E2E2E2E2E2E2E2E2E2E2E2
310
E2E2E2E2F5E2E2E2E2E2E2E2E2E2E2E2E2E2E2E2E2E2E2E2E2E2E2E2E2E2E2E2E2E2E2E2E2E2E2E2E2E2E2E2E2E2E2E2E2E2E2E2E2E2E2E2E2E2E2E2E2E2E2E2E2E2E2E2E2E2E2E2E2E2E2E2E2E2E2E2E2E2E2E2E2E2E2E2E2E2E2E2E2E2E2E2E2E2E2E2E2E2E2E2E2E2E2E2E2E2E2E2E2E2E2E2E2E2E2E2E2E2E2E2E2E2E2
310
E2E2E2E2E2E2E2E2E2E2E2E2E2E2F5E2E2E2E2E2E2E2E2E2E2E2E2E2E2E2E2F5E2E2E2F5F5E2E2E2F5E2E2E2E2E2E2E2E2E2E2E2E2E2E2E2E2F5E2E2E2E2E2E2E2E2E2E2E2E2E2E2E2E2E2E2E2E2E2E2E2E2E2E2E2E2E2E2E2E2E2E2E2E2E2E2E2E2E2E2E2E2E2E2E2E2E2E2E2E2E2E2E2E2E2E2E2E2E2E2E2E2E2E2E2E2E2
310
E2E2E2E2E2E2E2E2E2E2E2E2E2E2E2E2E2E2E2E2E2E2E2E2E2E2E2E2E2E2E2E2E2E2E2E2E2E2E2E2E2E2E2E2E2E2E2E2E2E2E2E2E2E2E2E2E2E2E2E2E2E2E2E2E2E2E2F5E2E2E2E2E2E2E2E2E2E2E2E2E2E2E2E2F5E2E2E2F5F5E2E2E2F5E2E2E2E2E2E2E2E2E2E2E2E2E2E2E2E2F5E2E2E2E2E2E2E2E2E2E2E2E2E2E2E2E2
310
E2E2E2E2E2E2E2E2E2E2E2E2E2E2E2E2E2E2E2E2E2E2E2E2E2E2E2E2E2E2E2E2E2E2E2E2E2E2E2E2E2E2E2E2E2E2E2E2E2E2E2E2E2E2E2E2E2E2E2E2E2E2E2E2E2E2E2E2E2E2E2E2E2E2E2E2E2E2E2E2E2E2E2E2E2E2E2E2E2E2E2E2E2E2E2E2E2E2E2E2E2E2E2E2E2E2E2E2E2E2E2E2E2E2E2E2E2E2E2E2F5E2E2E2E2E2E2
310
E2E2E2E2E2E2E2E2E2E2F5E2E2E2F5F5E2E2E2F5E2E2E2E2E2E2E2E2E2E2E2E2E2E2E2E2F5E2E2E2E2E2E2E2E2E2E2E2E2E2E2E2E2E2E2E2E2E2E2E2E2E2E2E2E2E2E2E2E2E2E2E2E2E2E2E2E2E2E2E2E2E2E2E2E2E2E2E2E2E2E2E2E2E2E2E2E2E2E2E2E2E2E2E2E2E2E2E2E2E2E2E2E2E2E2E2E2E2E2E2E2E2E2E2E2E2E2
310
E2E2E2E2E2E2E2E2E2E2E2E2E2E2E2E2E2E2E2E2E2E2E2E2E2E2E2E2E2E2E2E2E2E2E2E2E2E2E2E2E2E2E2E2E2E2F5E2E2E2E2E2E2E2E2E2E2E2E2E2E2E2E2F5E2E2E2F5F5E2E2E2F5E2E2E2E2E2E2E2E2E2E2E2E2E2E2E2E2F5E2E2E2E2E2E2E2E2E2E2E2E2E2E2E2E2E2E2E2E2E2E2E2E2E2E2E2E2E2E2E2E2E2E2E2E2E2
310
E2E2E2E2E2E2E2E2E2E2E2E2E2E2E2E2E2E2E2E2E2E2E2E2E2E2E2E2E2E2E2E2E2E2E2E2E2E2E2E2E2E2E2E2E2E2E2E2E2E2E2E2E2E2E2E2E2E2E2E2E2E2E2E2E2E2E2E2E2E2E2E2E2E2E2E2E2E2E2E2E2E2E2E2E2E2E2E2E2E2E2E2E2E2E2E2E2E2E2F5E2E2E2E2E2E2E2E2E2E2E2E2E2E2E2E2F5E2E2E2F5F5E2E2E2F5E2
310
E2E2E2E2E2E2E2E2E2E2E2E2E2E2E2F5E2E2E2E2E2E2E2E2E2E2E2E2E2E2E2E2E2E2E2E2E2E2E2E2E2E2E2E2E2E2E2E2E2E2E2E2E2E2E2E2E2E2E2E2E2E2E2E2E2E2E2E2E2E2E2E2E2E2E2E2E2E2E2E2E2E2E2E2E2E2E2E2E2E2E2E2E2E2E2E2E2E2E2E2E2E2E2E2E2E2E2E2E2E2E2E2E2E2E2E2E2E2E2E2E2E2E2E2E2E2E2
310
E2E2E2E2E2E2E2E2E2E2E2E2E2E2E2E2E2E2E2E2E2E2E2E2E2F5E2E2E2E2E2E2E2E2E2E2E2E2E2E2E2E2F5E2E2E2F5F5E2E2E2F5E2E2E2E2E2E2E2E2E2E2E2E2E2E2E2E2F5E2E2E2E2E2E2E2E2E2E2E2E2E2E2E2E2E2E2E2E2E2E2E2E2E2E2E2E2E2E2E2E2E2E2E2E2E2E2E2E2E2E2E2E2E2E2E2E2E2E2E2E2E2E2E2E2E2E2
310
E2E2E2E2E2E2E2E2E2E2E2E2E2E2E2E2E2E2E2E2E2E2E2E2E2E2E2E2E2E2E2E2E2E2E2E2E2E2E2E2E2E2E2E2E2E2E2E2E2E2E2E2E2E2E2E2E2E2E2E2E2E2E2E2E2E2E2E2E2E2E2E2E2E2E2E2E2E2F5E2E2E2E2E2E2E2E2E2E2E2E2E2E2E2E2F5E2E2E2F5F5E2E2E2F5E2E2E2E2E2E2E2E2E2E2E2E2E2E2E2E2F5E2E2E2E2E2
310
E2E2E2E2E2E2E2E2E2E2E2E2E2E2E2E2E2E2E2E2E2E2E2E2E2E2E2E2E2E2E2E2E2E2E2E2E2E2E2E2E2E2E2E2E2E2E2E2E2E2E2E2E2E2E2E2E2E2E2E2E2E2E2E2E2E2E2E2E2E2E2E2E2E2E2E2E2E2E2E2E2E2E2E2E2E2E2E2E2E2E2E2E2E2E2E2E2E2E2E2E2E2E2E2E2E2E2E2E2E2E2E2E2E2E2E2E2E2E2E2E2E2E2E2E2E2E2
310
E2E2E2E2F5E2E2E2E2E2E2E2E2E2E2E2E2E2E2E2E2F5E2E2E2F5F5E2E2E2E2E2E2E2E2E2E2E2E2E2E2E2E2E2E2E2E2F5E2E2E2E2E2E2E2E2E2E2E2E2E2E2E2E2E2E2E2E2E2E2E2E2E2E2E2E2E2E2E2E2E2E2E2E2E2E2E2E2E2E2E2E2E2E2E2E2E2E2E2E2E2E2E2E2E2E2E2E2E2E2E2E2E2E2E2E2E2E2E2E2E2E2E2E2E2E2E2
310
E2E2E2E2E2E2E2E2E2E2E2E2E2E2E2E2E2E2E2E2E2E2E2E2E2E2E2E2E2E2E2E2E2E2E2E2E2E2E2E2E2E2E2E2E2E2E2E2E2E2E2E2E2E2E2E2E2F5E2E2E2E2E2E2E2E2E2E2E2E2E2E2E2E2E2E2E2E2F5F5E2E2E2E2E2E2E2E2E2E2E2E2E2E2E2E2E2E2E2E2F5E2E2E2E2E2E2E2E2E2E2E2E2E2E2E2E2E2E2E2E2E2E2E2E2E2E2
310
E2E2E2E2E2E2E2E2E2E2E2E2E2E2E2E2E2E2E2E2E2E2E2E2E2E2E2E2E2E2E2E2E2E2E2E2E2E2E2E2E2E2E2E2E2E2E2E2E2E2E2E2E2E2E2E2E2E2E2E2E2E2E2E2E2E2E2E2E2E2E2E2E2E2E2E2E2E2E2E2E2E2E2E2E2E2E2E2E2E2E2E2E2E2E2E2E2E2E2E2E2E2E2E2E2E2E2E2E2E2F5E2E2E2E2E2E2E2E2E2E2E2E2E2E2E2E2
310
E2E2E2E2F5F5E2E2E2E2E2E2E2E2E2E2E2E2E2E2E2E2E2E2E2E2F5E2E2E2E2E2E2E2E2E2E2E2E2E2E2E2E2E2E2E2E2E2E2E2E2E2E2E2E2E2E2E2E2E2E2E2E2E2E2E2E2E2E2E2E2E2E2E2E2E2E2E2E2E2E2E2E2E2E2E2E2E2E2E2E2E2E2E2E2E2E2E2E2E2E2E2E2E2E2E2E2E2E2E2E2E2E2E2E2E2E2E2E2E2E2E2E2E2E2E2E2
310
E2E2E2E2E2E2E2E2E2E2E2E2E2E2E2E2E2E2E2E2E2E2E2E2E2E2E2E2E2E2E2E2E2E2E2E2F5E2E2E2E2E2E2E2E2E2E2E2E2E2E2E2E2E2E2E2E2F5F5E2E2E2E2E2E2E2E2E2E2E2E2E2E2E2E2E2E2E2E2F5E2E2E2E2E2E2E2E2E2E2E2E2E2E2E2E2E2E2E2E2E2E2E2E2E2E2E2E2E2E2E2E2E2E2E2E2E2E2E2E2E2E2E2E2E2E2E2
310
E2E2E2E2E2E2E2E2E2E2E2E2E2E2E2E2E2E2E2E2E2E2E2E2E2E2E2E2E2E2E2E2E2E2E2E2E2E2E2E2E2E2E2E2E2E2E2E2E2E2E2E2E2E2E2E2E2E2E2E2E2E2E2E2E2E2E2E2E2E2E2E2E2E2E2E2E2E2E2E2E2E2E2E2E2E2E2E2E2F5E2E2E2E2E2E2E2E2E2E2E2E2E2E2E2E2E2E2E2E2F5F5E2E2E2E2E2E2E2E2E2E2E2E2E2E2E2
310
E2E2E2E2E2F5F5F5F5F5F5F5F5F5F5F5F5F5F5F5F5F5F5F5F5F5F5F5F5F5F5F5F5F5F5F5F5F5F5F5F5F5F5F5F5F5F5F5F5F5F5F5F5F5F5F5F5F5F5F5F5F5F5F5F5F5F5F5F5F5F5F5F5F5F5F5F5F5F5F5F5F5F5F5F5F5F5F5F5F5F5F5F5F5F5F5F5F5F5F5F5F5F5F5F5F5F5F5F5F5F5F5F5F5F5F5F5F5F5F5F5F5F5F5F5F5F5
310
F5F5F5F5F5F5F5F5F5F5F5F5F5F5F5F5E2E2E2E2E2E2E2E2E2E2E2E2E2E2E2E2E2E2E2E2F5F5E2E2E2E2E2E2E2E2E2E2E2E2E2E2E2E2E2E2E2E2E2E2E2E2E2E2E2E2E2E2E2E2E2E2E2E2E2E2E2E2E2E2E2E2E2E2E2E2E2E2E2E2E2E2E2E2E2E2E2E2E2E2E2E2E2E2E2E2E2E2E2E2E2E2E2E2E2E2E2E2E2E2E2E2E2E2E2E2E2
310
E2E2E2E2E2E2E2E2E2E2E2E2E2E2E2E2E2E2E2E2E2E2E2E2E2E2E2E2E2E2E2E2E2E2E2E2E2E2E2E2E2E2E2E2E2E2E2E2E2E2E2E2E2E2E2E2E2E2E2E2E2E2E2E2E2E2E2E2E2E2E2E2E2E2E2E2E2E2E2E2E2E2E2E2E2E2E2E2E2F5F5E2E2E2E2E2E2E2E2E2E2E2E2E2E2E2E2E2E2E2E2E2E2E2E2E2E2E2E2E2E2E2E2E2E2E2E2
310
E2E2E2E2E2E2E2E2E2E2E2E2E2E2E2E2E2E2E2E2E2E2E2E2E2E2E2E2E2E2E2E2E2E2E2E2E2E2E2E2E2E2E2E2E2E2E2E2E2E2E2E2E2E2E2E2E2E2E2E2E2E2E2E2E2E2E2E2E2E2E2E2E2E2E2E2E2E2E2E2E2E2E2E2E2E2E2E2E2E2E2E2E2E2E2E2E2E2E2E2E2E2E2E2E2E2E2E2E2E2E2E2E2E2E2E2E2E2E2E2E2E2E2E2E2E2E2
310
E2E2E2E2E2E2E2E2E2E2E2E2E2E2E2F5F5E2E2E2E2E2E2E2E2E2E2E2E2E2E2E2E2E2E2E2E2E2E2E2E2E2E2E2E2E2E2E2E2E2E2E2E2E2E2E2E2E2E2E2E2E2E2E2E2E2E2E2E2E2E2E2E2E2E2E2E2E2E2E2E2E2E2E2E2E2E2E2E2E2E2E2E2E2E2E2E2E2E2E2E2E2E2E2E2E2E2E2E2E2E2E2E2E2E2E2E2E2E2E2E2E2E2E2E2E2E2
310
E2E2E2E2E2E2E2E2E2E2E2E2E2E2E2E2E2E2E2E2E2E2E2E2E2E2E2E2E2E2E2E2E2E2E2E2E2E2E2E2E2E2E2E2E2E2E2E2E2E2E2E2E2E2E2E2E2E2E2E2E2E2E2E2E2E2E2E2F5F5E2E2E2E2E2E2E2E2E2E2E2E2E2E2E2E2E2E2E2E2E2E2E2E2E2E2E2E2E2E2E2E2E2E2E2E2E2E2E2E2E2E2E2E2E2E2E2E2E2E2E2E2E2E2E2E2E2
310
E2E2E2E2E2E2E2E2E2E2E2E2E2E2E2E2E2E2E2E2E2E2E2E2E2E2E2E2E2E2E2E2E2E2E2E2E2E2E2E2E2E2E2E2E2E2E2E2E2E2E2E2E2E2E2E2E2E2E2E2E2E2E2E2E2E2E2E2E2E2E2E2E2E2E2E2E2E2E2E2E2E2E2E2E2E2E2E2E2E2E2E2E2E2E2E2E2E2E2E2E2E2E2E2E2E2E2E2E2E2E2E2E2E2E2E2E2E2E2E2E2F5F5E2E2E2F5
310
E2E2E2E2E2E2E2E2E2E2E2E2E2E2E2E2E2E2E2E2E2E2E2E2E2E2E2E2E2E2E2E2E2E2E2E2E2E2E2E2E2E2E2E2E2E2E2E2E2E2E2E2E2E2E2E2E2E2E2E2E2E2E2E2E2E2E2E2E2E2E2E2E2E2E2E2E2E2E2E2E2E2E2E2E2E2E2E2E2E2E2E2E2E2E2E2E2E2E2E2E2E2E2E2E2E2E2E2E2E2E2E2E2E2E2E2E2E2E2E2E2E2E2E2E2E2E2
310
E2E2E2E2E2E2E2E2E2E2E2E2E2E2E2E2E2E2E2E2E2E2E2E2E2E2E2E2E2E2E2E2E2E2E2E2E2E2E2E2E2E2E2F5E2E2E2F5F5E2E2E2F5E2E2E2E2E2E2E2E2E2E2E2E2E2E2E2E2E2E2E2E2E2E2E2E2E2E2E2E2E2E2E2E2E2E2E2E2E2E2E2E2E2E2E2E2E2E2E2E2E2E2E2E2E2E2E2E2E2E2E2E2E2E2E2E2E2E2E2E2E2E2E2E2E2E2
310
E2E2E2E2E2E2E2E2E2E2E2E2E2E2E2E2E2E2E2E2E2E2E2E2E2E2E2E2E2E2E2E2E2E2E2E2E2E2E2E2E2E2E2E2E2E2E2E2E2E2E2E2E2E2E2E2E2E2E2E2E2E2E2E2E2E2E2E2E2E2E2E2E2E2E2E2E2E2E2E2E2E2E2E2E2E2E2E2E2E2E2E2E2E2E2E2F5E2E2E2F5F5E2E2E2F5E2E2E2E2E2E2E2E2E2E2E2E2E2E2E2E2E2E2E2E2E2
310
E2E2E2E2E2E2E2E2E2E2E2E2E2E2E2E2E2E2E2E2E2E2E2E2E2E2E2E2E2E2E2E2E2E2E2E2E2E2E2E2E2E2E2E2E2E2E2E2E2E2E2E2E2E2E2E2E2E2E2E2E2E2E2E2E2E2E2E2E2E2E2E2E2E2E2E2E2E2E2E2E2E2E2E2E2E2E2E2E2E2E2E2E2E2E2E2E2E2E2E2E2E2E2E2E2E2E2E2E2E2E2E2E2E2E2E2E2E2E2E2E2E2E2E2E2E2E2
310
E2E2E2E2E2E2E2E2E2E2E2E2E2E2E2E2E2E2E2E2E2E2F5E2E2E2F5F5E2E2E2F5E2E2E2E2E2E2E2E2E2E2E2E2E2E2E2E2E2E2E2E2E2E2E2E2E2E2E2E2E2E2E2E2E2E2E2E2E2E2E2E2E2E2E2E2E2E2E2E2E2E2E2E2E2E2E2E2E2E2E2E2E2E2E2E2E2E2E2E2E2E2E2E2E2E2E2E2E2E2E2E2E2E2E2E2E2E2E2E2E2E2E2E2E2E2E2
310
E2E2E2E2E2E2E2E2E2E2E2E2E2E2E2E2E2E2E2E2E2E2E2E2E2E2E2E2E2E2E2E2E2E2E2E2E2E2E2E2E2E2E2E2E2E2E2E2E2E2E2E2E2E2E2E2E2E2E2E2E2E2E2E2E2E2E2E2E2E2E2E2E2E2E2F5E2E2E2F5F5E2E2E2F5E2E2E2E2E2E2E2E2E2E2E2E2E2E2E2E2E2E2E2E2E2E2E2E2E2E2E2E2E2E2E2E2E2E2E2E2E2E2E2E2E2E2
310
E2E2E2E2E2E2E2E2E2E2E2E2E2E2E2E2E2E2E2E2E2E2E2E2E2E2E2E2E2E2E2E2E2E2E2E2E2E2E2E2E2E2E2E2E2E2E2E2E2E2E2E2E2E2E2E2E2E2E2E2E2E2E2E2E2E2E2E2E2E2E2E2E2E2E2E2E2E2E2E2E2E2E2E2E2E2E2E2E2E2E2E2E2E2E2E2E2E2E2E2E2E2E2E2E2E2E2E2E2E2E2E2E2E2E2E2E2E2E2E2E2E2E2E2E2E2E2
310
E2F5E2E2E2F5F5E2E2E2F5E2E2E2E2E2E2E2E2E2E2E2E2E2E2E2E2E2E2E2E2E2E2E2E2E2E2E2E2E2E2E2E2E2E2E2E2E2E2E2E2E2E2E2E2E2E2E2E2E2E2E2E2E2E2E2E2E2E2E2E2E2E2E2E2E2E2E2E2E2E2E2E2E2E2E2E2E2E2E2E2E2E2E2E2E2E2E2E2E2E2E2E2E2E2E2E2E2E2E2E2E2E2E2E2E2E2E2E2E2E2E2E2E2E2E2E2
310
E2E2E2E2E2E2E2E2E2E2E2E2E2E2E2E2E2E2E2E2E2E2E2E2E2E2E2E2E2E2E2E2E2E2E2E2E2E2E2E2E2E2E2E2E2E2E2E2E2E2E2E2E2E2F5E2E2E2F5F5E2E2E2F5E2E2E2E2E2E2E2E2E2E2E2E2E2E2E2E2E2E2E2E2E2E2E2E2E2E2E2E2E2E2E2E2E2E2E2E2E2E2E2E2E2E2E2E2E2E2E2E2E2E2E2E2E2E2E2E2E2E2E2E2E2E2E2
310
E2E2E2E2E2E2E2E2E2E2E2E2E2E2E2E2E2E2E2E2E2E2E2E2E2E2E2E2E2E2E2E2E2E2E2E2E2E2E2E2E2E2E2E2E2E2E2E2E2E2E2E2E2E2E2E2E2E2E2E2E2E2E2E2E2E2E2E2E2E2E2E2E2E2E2E2E2E2E2E2E2E2E2E2E2E2E2E2E2E2E2E2E2E2E2E2E2E2E2E2E2E2E2E2E2E2E2F5E2E2E2F5F5E2E2E2F5E2E2E2E2E2E2E2E2E2E2
310
E2E2E2E2E2E2E2E2E2E2E2E2E2E2E2E2E2E2E2E2E2E2E2E2E2E2E2E2E2E2E2E2E2E2E2E2E2E2E2E2E2E2E2E2E2E2E2E2E2E2E2E2E2E2E2E2E2E2E2E2E2E2E2E2E2E2E2E2E2E2E2E2E2E2E2E2E2E2E2E2E2E2E2E2E2E2E2E2E2E2E2E2E2E2E2E2E2E2E2E2E2E2E2E2E2E2E2E2E2E2E2E2E2E2E2E2E2E2E2E2E2E2E2E2E2E2E2
310
E2E2E2E2E2E2E2E2E2E2E2E2E2E2E2E2E2E2E2E2E2E2E2E2E2E2E2E2E2E2E2E2E2F5E2E2E2F5F5E2E2E2F5F5F5F5F5F5F5F5E2E2E2E2E2E2E2E2E2F5F5F5F5F5F5F5F5F5F5F5F5F5F5F5F5E2E2E2E2E2E2E2E2E2F5F5F5F5F5F5F5F5F5F5F5F5F5F5F5E2E2E2E2E2E2E2E2E2F5F5F5F5F5F5F5F5F5F5F5F5F5F5F5F5E2E2E2
310
E2E2E2E2E2F5F5F5F5F5F5F5F5F5F5F5F5F5F5F5F5E2E2E2E2E2E2E2E2E2F5F5F5F5F5F5F5F5F5F5F5F5F5F5F5E2E2E2E2E2E2E2E2E2F5F5F5F5F5F5F5F5F5F5F5F5F5F5F5F5E2E2E2E2E2E2E2E2E2F5F5F5F5F5F5F5F5E2E2E2F5F5E2E2E2E2E2E2E2E2E2E2E2E2E2E2E2E2E2E2E2E2E2E2E2E2E2E2E2E2E2E2E2E2E2E2E2
310
E2E2E2E2E2E2E2E2E2E2E2E2E2E2E2E2E2E2E2E2E2E2E2E2E2E2E2E2E2E2E2E2E2E2E2E2E2E2E2E2E2E2E2E2E2E2E2E2E2E2E2E2E2E2E2E2E2E2E2E2E2E2E2E2E2E2E2E2E2E2E2E2E2E2E2E2E2E2E2E2E2E2E2E2E2E2E2E2E2E2E2E2E2E2E2E2E2E2E2E2E2E2E2E2E2E2E2E2E2E2E2E2E2E2E2E2E2E2E2E2E2E2E2E2E2E2E2
310
E2E2E2E2E2E2E2E2E2E2E2E2E2E2E2E2F5F5E2E2E2E2E2E2E2E2E2E2E2E2E2E2E2E2E2E2E2E2E2E2E2E2E2E2E2E2E2E2E2E2E2E2E2E2E2E2E2E2E2E2E2E2E2E2E2E2E2E2E2E2E2E2E2E2E2E2E2E2E2E2E2E2E2E2E2E2E2E2E2E2E2E2E2E2E2E2E2E2E2E2E2E2E2E2E2E2E2E2E2E2E2E2E2E2E2E2E2E2E2E2E2E2E2E2E2E2E2
310
E2E2E2E2E2E2E2E2E2E2E2E2E2E2E2E2E2E2E2E2E2E2E2E2E2E2E2E2E2E2E2E2E2E2E2E2E2E2E2E2E2E2E2E2E2E2E2E2E2E2E2E2E2E2E2E2E2E2E2E2E2E2E2E2E2E2E2E2E2F5F5E2E2E2E2E2E2E2E2E2E2E2E2E2E2E2E2E2E2E2E2E2E2E2E2E2E2E2E2E2E2E2E2E2E2E2E2E2E2E2E2E2E2E2E2E2E2E2E2E2E2E2E2E2E2E2E2
310
E2E2E2E2E2E2E2E2E2E2E2E2E2E2E2E2E2E2E2E2E2E2E2E2E2E2E2E2E2E2E2E2E2E2E2E2E2E2E2E2E2E2E2E2E2E2E2E2E2E2E2E2E2E2E2E2E2E2E2E2E2E2E2E2E2E2E2E2E2E2E2E2E2E2E2E2E2E2E2E2E2E2E2E2E2E2E2E2E2E2E2E2E2E2E2E2E2E2E2E2E2E2E2E2E2E2E2E2E2E2E2E2E2E2E2E2E2E2E2E2E2E2F5F5E2E2E2
310
E2E2E2E2E2E2E2E2E2E2E2E2E2E2E2E2E2E2E2E2E2E2E2E2E2E2E2E2E2E2E2E2E2E2E2E2E2E2E2E2E2E2E2E2E2E2E2E2E2E2E2E2E2E2E2E2E2E2E2E2E2E2E2E2E2E2E2E2E2E2E2E2E2E2E2E2E2E2E2E2E2E2E2E2E2E2E2E2E2E2E2E2E2E2E2E2E2E2E2E2E2E2E2E2E2E2E2E2E2E2E2E2E2E2E2E2E2E2E2E2E2E2E2E2E2E2E2
310
E2E2E2E2E2E2E2E2E2E2E2E2E2E2E2E2E2E2E2E2E2E2E2E2E2E2E2E2E2E2E2E2E2E2E2E2E2E2E2E2E2E2E2E2E2E2E2E2F5
  0
XRECORD
  5
56385
102
{ACAD_REACTORS
330
56384
102
}
330
56384
100
AcDbXrecord
280
     1
102
SHADEPLOT
 70
     0
102
SHADEPLOTRESLEVEL
 70
     2
102
SHADEPLOTCUSTOMDPI
 70
   300
  0
ENDSEC
  0
EOF
