  0
SECTION
  2
HEADER
  9
$ACADVER
  1
AC1015
  9
$ACADMAINTVER
 70
    20
  9
$DWGCODEPAGE
  3
ANSI_936
  9
$INSBASE
 10
0.0
 20
0.0
 30
0.0
  9
$EXTMIN
 10
-121.4468649197846
 20
-227.8529136513192
 30
0.0
  9
$EXTMAX
 10
203.7461243847199
 20
84.56961532674586
 30
0.0
  9
$LIMMIN
 10
0.0
 20
0.0
  9
$LIMMAX
 10
420.0
 20
297.0
  9
$ORTHOMODE
 70
     1
  9
$REGENMODE
 70
     1
  9
$FILLMODE
 70
     1
  9
$QTEXTMODE
 70
     0
  9
$MIRRTEXT
 70
     1
  9
$LTSCALE
 40
1.0
  9
$ATTMODE
 70
     1
  9
$TEXTSIZE
 40
3.5
  9
$TRACEWID
 40
1.0
  9
$TEXTSTYLE
  7
simplex
  9
$CLAYER
  8
0
  9
$CELTYPE
  6
ByLayer
  9
$CECOLOR
 62
   256
  9
$CELTSCALE
 40
1.0
  9
$DISPSILH
 70
     0
  9
$DIMSCALE
 40
0.0
  9
$DIMASZ
 40
3.5
  9
$DIMEXO
 40
0.0
  9
$DIMDLI
 40
0.38
  9
$DIMRND
 40
0.0
  9
$DIMDLE
 40
0.0
  9
$DIMEXE
 40
1.5
  9
$DIMTP
 40
0.0
  9
$DIMTM
 40
0.0
  9
$DIMTXT
 40
3.5
  9
$DIMCEN
 40
0.09
  9
$DIMTSZ
 40
0.0
  9
$DIMTOL
 70
     0
  9
$DIMLIM
 70
     0
  9
$DIMTIH
 70
     0
  9
$DIMTOH
 70
     0
  9
$DIMSE1
 70
     0
  9
$DIMSE2
 70
     0
  9
$DIMTAD
 70
     1
  9
$DIMZIN
 70
     8
  9
$DIMBLK
  1

  9
$DIMASO
 70
     1
  9
$DIMSHO
 70
     1
  9
$DIMPOST
  1

  9
$DIMAPOST
  1

  9
$DIMALT
 70
     0
  9
$DIMALTD
 70
     2
  9
$DIMALTF
 40
25.4
  9
$DIMLFAC
 40
1.0
  9
$DIMTOFL
 70
     0
  9
$DIMTVP
 40
0.0
  9
$DIMTIX
 70
     0
  9
$DIMSOXD
 70
     0
  9
$DIMSAH
 70
     0
  9
$DIMBLK1
  1

  9
$DIMBLK2
  1

  9
$DIMSTYLE
  2
\M+18352\M+18373\M+1815B - ISO-25
  9
$DIMCLRD
 70
   256
  9
$DIMCLRE
 70
   256
  9
$DIMCLRT
 70
   256
  9
$DIMTFAC
 40
1.0
  9
$DIMGAP
 40
2.299999999999998
  9
$DIMJUST
 70
     0
  9
$DIMSD1
 70
     0
  9
$DIMSD2
 70
     0
  9
$DIMTOLJ
 70
     1
  9
$DIMTZIN
 70
     8
  9
$DIMALTZ
 70
     0
  9
$DIMALTTZ
 70
     0
  9
$DIMUPT
 70
     0
  9
$DIMDEC
 70
     2
  9
$DIMTDEC
 70
     2
  9
$DIMALTU
 70
     2
  9
$DIMALTTD
 70
     2
  9
$DIMTXSTY
  7
simplex
  9
$DIMAUNIT
 70
     0
  9
$DIMADEC
 70
     0
  9
$DIMALTRND
 40
0.0
  9
$DIMAZIN
 70
     0
  9
$DIMDSEP
 70
    46
  9
$DIMATFIT
 70
     3
  9
$DIMFRAC
 70
     0
  9
$DIMLDRBLK
  1

  9
$DIMLUNIT
 70
     2
  9
$DIMLWD
 70
    -1
  9
$DIMLWE
 70
    -1
  9
$DIMTMOVE
 70
     0
  9
$LUNITS
 70
     2
  9
$LUPREC
 70
     4
  9
$SKETCHINC
 40
1.0
  9
$FILLETRAD
 40
0.5
  9
$AUNITS
 70
     0
  9
$AUPREC
 70
     0
  9
$MENU
  1
.
  9
$ELEVATION
 40
0.0
  9
$PELEVATION
 40
0.0
  9
$THICKNESS
 40
0.0
  9
$LIMCHECK
 70
     0
  9
$CHAMFERA
 40
10.0
  9
$CHAMFERB
 40
10.0
  9
$CHAMFERC
 40
20.0
  9
$CHAMFERD
 40
0.0
  9
$SKPOLY
 70
     0
  9
$TDCREATE
 40
2455489.391063368
  9
$TDUCREATE
 40
2455489.057730035
  9
$TDUPDATE
 40
2458573.049645776
  9
$TDUUPDATE
 40
2458572.716312442
  9
$TDINDWG
 40
2.7821730903
  9
$TDUSRTIMER
 40
2.7821175463
  9
$USRTIMER
 70
     1
  9
$ANGBASE
 50
0.0
  9
$ANGDIR
 70
     0
  9
$PDMODE
 70
     0
  9
$PDSIZE
 40
0.0
  9
$PLINEWID
 40
0.0
  9
$SPLFRAME
 70
     0
  9
$SPLINETYPE
 70
     6
  9
$SPLINESEGS
 70
     8
  9
$HANDSEED
  5
5693B
  9
$SURFTAB1
 70
     6
  9
$SURFTAB2
 70
     6
  9
$SURFTYPE
 70
     6
  9
$SURFU
 70
     6
  9
$SURFV
 70
     6
  9
$UCSBASE
  2

  9
$UCSNAME
  2

  9
$UCSORG
 10
0.0
 20
0.0
 30
0.0
  9
$UCSXDIR
 10
1.0
 20
0.0
 30
0.0
  9
$UCSYDIR
 10
0.0
 20
1.0
 30
0.0
  9
$UCSORTHOREF
  2

  9
$UCSORTHOVIEW
 70
     0
  9
$UCSORGTOP
 10
0.0
 20
0.0
 30
0.0
  9
$UCSORGBOTTOM
 10
0.0
 20
0.0
 30
0.0
  9
$UCSORGLEFT
 10
0.0
 20
0.0
 30
0.0
  9
$UCSORGRIGHT
 10
0.0
 20
0.0
 30
0.0
  9
$UCSORGFRONT
 10
0.0
 20
0.0
 30
0.0
  9
$UCSORGBACK
 10
0.0
 20
0.0
 30
0.0
  9
$PUCSBASE
  2

  9
$PUCSNAME
  2

  9
$PUCSORG
 10
0.0
 20
0.0
 30
0.0
  9
$PUCSXDIR
 10
1.0
 20
0.0
 30
0.0
  9
$PUCSYDIR
 10
0.0
 20
1.0
 30
0.0
  9
$PUCSORTHOREF
  2

  9
$PUCSORTHOVIEW
 70
     0
  9
$PUCSORGTOP
 10
0.0
 20
0.0
 30
0.0
  9
$PUCSORGBOTTOM
 10
0.0
 20
0.0
 30
0.0
  9
$PUCSORGLEFT
 10
0.0
 20
0.0
 30
0.0
  9
$PUCSORGRIGHT
 10
0.0
 20
0.0
 30
0.0
  9
$PUCSORGFRONT
 10
0.0
 20
0.0
 30
0.0
  9
$PUCSORGBACK
 10
0.0
 20
0.0
 30
0.0
  9
$USERI1
 70
     0
  9
$USERI2
 70
     0
  9
$USERI3
 70
     0
  9
$USERI4
 70
     0
  9
$USERI5
 70
     0
  9
$USERR1
 40
0.0
  9
$USERR2
 40
0.0
  9
$USERR3
 40
0.0
  9
$USERR4
 40
0.0
  9
$USERR5
 40
0.0
  9
$WORLDVIEW
 70
     1
  9
$SHADEDGE
 70
     3
  9
$SHADEDIF
 70
    70
  9
$TILEMODE
 70
     1
  9
$MAXACTVP
 70
    64
  9
$PINSBASE
 10
0.0
 20
0.0
 30
0.0
  9
$PLIMCHECK
 70
     0
  9
$PEXTMIN
 10
26.66999878883364
 20
20.31999878883365
 30
0.0
  9
$PEXTMAX
 10
240.0299890995025
 20
182.8799890995025
 30
0.0
  9
$PLIMMIN
 10
-6.350006103515625
 20
-6.349999904632567
  9
$PLIMMAX
 10
273.0499877929688
 20
209.5499939918518
  9
$UNITMODE
 70
     0
  9
$VISRETAIN
 70
     1
  9
$PLINEGEN
 70
     0
  9
$PSLTSCALE
 70
     1
  9
$TREEDEPTH
 70
  3020
  9
$CMLSTYLE
  2
Standard
  9
$CMLJUST
 70
     0
  9
$CMLSCALE
 40
20.0
  9
$PROXYGRAPHICS
 70
     1
  9
$MEASUREMENT
 70
     1
  9
$CELWEIGHT
370
    -1
  9
$ENDCAPS
280
     0
  9
$JOINSTYLE
280
     0
  9
$LWDISPLAY
290
     0
  9
$INSUNITS
 70
     4
  9
$HYPERLINKBASE
  1

  9
$STYLESHEET
  1

  9
$XEDIT
290
     1
  9
$CEPSNTYPE
380
     0
  9
$PSTYLEMODE
290
     1
  9
$FINGERPRINTGUID
  2
{601DDA01-5B13-4A4C-8F56-1333B78D855B}
  9
$VERSIONGUID
  2
{445E1A01-C67A-4F02-9BC5-78BE50811D07}
  9
$EXTNAMES
290
     1
  9
$PSVPSCALE
 40
0.0
  9
$OLESTARTUP
290
     0
  0
ENDSEC
  0
SECTION
  2
CLASSES
  0
CLASS
  1
ACDBDICTIONARYWDFLT
  2
AcDbDictionaryWithDefault
  3
ObjectDBX Classes
 90
        0
280
     0
281
     0
  0
CLASS
  1
ACDBPLACEHOLDER
  2
AcDbPlaceHolder
  3
ObjectDBX Classes
 90
        0
280
     0
281
     0
  0
CLASS
  1
LAYOUT
  2
AcDbLayout
  3
ObjectDBX Classes
 90
        0
280
     0
281
     0
  0
CLASS
  1
DICTIONARYVAR
  2
AcDbDictionaryVar
  3
ObjectDBX Classes
 90
        0
280
     0
281
     0
  0
CLASS
  1
TABLESTYLE
  2
AcDbTableStyle
  3
ObjectDBX Classes
 90
     2047
280
     0
281
     0
  0
CLASS
  1
SORTENTSTABLE
  2
AcDbSortentsTable
  3
ObjectDBX Classes
 90
        0
280
     0
281
     0
  0
CLASS
  1
DIMASSOC
  2
AcDbDimAssoc
  3
"AcDbDimAssoc|Product Desc:     AcDim ARX App For Dimension|Company:          Autodesk, Inc.|WEB Address:      www.autodesk.com"
 90
        0
280
     0
281
     0
  0
CLASS
  1
ACAD_EVALUATION_GRAPH
  2
AcDbEvalGraph
  3
ObjectDBX Classes
 90
    33921
280
     0
281
     0
  0
CLASS
  1
ACAECUSTOBJ
  2
AcAeEditorObj
  3
AcAeEditorObj
 90
    33792
280
     0
281
     0
  0
CLASS
  1
ACDB_DYNAMICBLOCKPURGEPREVENTER_VERSION
  2
AcDbDynamicBlockPurgePreventer
  3
ObjectDBX Classes
 90
    33921
280
     0
281
     0
  0
ENDSEC
  0
SECTION
  2
TABLES
  0
TABLE
  2
VPORT
  5
8
330
0
100
AcDbSymbolTable
 70
     3
  0
VPORT
  5
5692C
330
8
100
AcDbSymbolTableRecord
100
AcDbViewportTableRecord
  2
*Active
 70
     0
 10
0.0
 20
0.0
 11
1.0
 21
1.0
 12
-7.127618659157064
 22
-7.605372796120036
 13
0.0
 23
0.0
 14
10.0
 24
10.0
 15
10.0
 25
10.0
 16
0.0
 26
0.0
 36
1.0
 17
0.0
 27
0.0
 37
0.0
 40
383.5037233133876
 41
1.508350730688935
 42
50.0
 43
0.0
 44
0.0
 50
0.0
 51
0.0
 71
     0
 72
  1000
 73
     1
 74
     1
 75
     0
 76
     0
 77
     0
 78
     0
281
     0
 65
     1
110
0.0
120
0.0
130
0.0
111
1.0
121
0.0
131
0.0
112
0.0
122
1.0
132
0.0
 79
     0
146
0.0
  0
ENDTAB
  0
TABLE
  2
LTYPE
  5
5
330
0
100
AcDbSymbolTable
 70
     4
  0
LTYPE
  5
14
330
5
100
AcDbSymbolTableRecord
100
AcDbLinetypeTableRecord
  2
ByBlock
 70
     0
  3

 72
    65
 73
     0
 40
0.0
  0
LTYPE
  5
15
330
5
100
AcDbSymbolTableRecord
100
AcDbLinetypeTableRecord
  2
ByLayer
 70
     0
  3

 72
    65
 73
     0
 40
0.0
  0
LTYPE
  5
16
330
5
100
AcDbSymbolTableRecord
100
AcDbLinetypeTableRecord
  2
Continuous
 70
     0
  3
Solid line
 72
    65
 73
     0
 40
0.0
  0
LTYPE
  5
D7
330
5
100
AcDbSymbolTableRecord
100
AcDbLinetypeTableRecord
  2
HIDDEN
 70
     0
  3
Hidden __ __ __ __ __ __ __ __ __ __ __ __ __ _
 72
    65
 73
     2
 40
9.524999999999996
 49
6.349999999999997
 74
     0
 49
-3.174999999999998
 74
     0
  0
LTYPE
  5
D9
330
5
100
AcDbSymbolTableRecord
100
AcDbLinetypeTableRecord
  2
CENTER
 70
     0
  3
Center ____ _ ____ _ ____ _ ____ _ ____ _ ____
 72
    65
 73
     4
 40
50.8
 49
31.75
 74
     0
 49
-6.349999999999997
 74
     0
 49
6.349999999999997
 74
     0
 49
-6.349999999999997
 74
     0
  0
LTYPE
  5
35815
330
5
100
AcDbSymbolTableRecord
100
AcDbLinetypeTableRecord
  2
PHANTOM
 70
     0
  3
_____ _ _ _____ _ _ _____ _ _ _____
 72
    65
 73
     6
 40
0.8
 49
0.45
 74
     0
 49
-0.05
 74
     0
 49
0.1
 74
     0
 49
-0.05
 74
     0
 49
0.1
 74
     0
 49
-0.05
 74
     0
  0
ENDTAB
  0
TABLE
  2
LAYER
  5
2
102
{ACAD_XDICTIONARY
360
E2
102
}
330
0
100
AcDbSymbolTable
 70
    14
  0
LAYER
  5
10
330
2
100
AcDbSymbolTableRecord
100
AcDbLayerTableRecord
  2
0
 70
     0
 62
     7
  6
Continuous
370
    -3
390
F
  0
LAYER
  5
D1
330
2
100
AcDbSymbolTableRecord
100
AcDbLayerTableRecord
  2
1
 70
     0
 62
     4
  6
Continuous
370
    50
390
F
1001
AcAecLayerStandard
1000

1000

  0
LAYER
  5
D3
330
2
100
AcDbSymbolTableRecord
100
AcDbLayerTableRecord
  2
2
 70
     0
 62
     7
  6
Continuous
370
    25
390
F
1001
AcAecLayerStandard
1000

1000

  0
LAYER
  5
D4
330
2
100
AcDbSymbolTableRecord
100
AcDbLayerTableRecord
  2
3
 70
     0
 62
     1
  6
HIDDEN
370
    35
390
F
1001
AcAecLayerStandard
1000

1000

  0
LAYER
  5
D8
330
2
100
AcDbSymbolTableRecord
100
AcDbLayerTableRecord
  2
4
 70
     0
 62
     2
  6
CENTER
370
    25
390
F
1001
AcAecLayerStandard
1000

1000

  0
LAYER
  5
DA
330
2
100
AcDbSymbolTableRecord
100
AcDbLayerTableRecord
  2
6
 70
     0
 62
     5
  6
Continuous
370
    35
390
F
1001
AcAecLayerStandard
1000

1000

  0
LAYER
  5
DB
330
2
100
AcDbSymbolTableRecord
100
AcDbLayerTableRecord
  2
cut
 70
     0
 62
     1
  6
Continuous
370
    25
390
F
1001
AcAecLayerStandard
1000

1000

  0
LAYER
  5
DC
330
2
100
AcDbSymbolTableRecord
100
AcDbLayerTableRecord
  2
nocut
 70
     0
 62
     7
  6
Continuous
370
    25
390
F
1001
AcAecLayerStandard
1000

1000

  0
LAYER
  5
DD
330
2
100
AcDbSymbolTableRecord
100
AcDbLayerTableRecord
  2
sk1
 70
     0
 62
     4
  6
Continuous
370
    50
390
F
1001
AcAecLayerStandard
1000

1000

  0
LAYER
  5
DE
330
2
100
AcDbSymbolTableRecord
100
AcDbLayerTableRecord
  2
sk2
 70
     0
 62
     7
  6
Continuous
370
    25
390
F
1001
AcAecLayerStandard
1000

1000

  0
LAYER
  5
DF
330
2
100
AcDbSymbolTableRecord
100
AcDbLayerTableRecord
  2
sk3
 70
     0
 62
     1
  6
HIDDEN
370
    35
390
F
1001
AcAecLayerStandard
1000

1000

  0
LAYER
  5
E0
330
2
100
AcDbSymbolTableRecord
100
AcDbLayerTableRecord
  2
sk4
 70
     0
 62
     2
  6
CENTER
370
    25
390
F
1001
AcAecLayerStandard
1000

1000

  0
LAYER
  5
E1
330
2
100
AcDbSymbolTableRecord
100
AcDbLayerTableRecord
  2
sk6
 70
     0
 62
     5
  6
Continuous
370
    35
390
F
1001
AcAecLayerStandard
1000

1000

  0
LAYER
  5
31B6
330
2
100
AcDbSymbolTableRecord
100
AcDbLayerTableRecord
  2
Defpoints
 70
     0
 62
     7
  6
Continuous
290
     0
370
    -3
390
F
  0
ENDTAB
  0
TABLE
  2
STYLE
  5
3
330
0
100
AcDbSymbolTable
 70
    12
  0
STYLE
  5
11
330
3
100
AcDbSymbolTableRecord
100
AcDbTextStyleTableRecord
  2
Standard
 70
     0
 40
0.0
 41
1.0
 50
0.0
 71
     0
 42
2.5
  3
txt.shx
  4
@extfont2.shx
  0
STYLE
  5
D6
330
3
100
AcDbSymbolTableRecord
100
AcDbTextStyleTableRecord
  2

 70
     1
 40
0.0
 41
1.0
 50
0.0
 71
     0
 42
2.5
  3
ltypeshp.shx
  4

  0
STYLE
  5
24A
330
3
100
AcDbSymbolTableRecord
100
AcDbTextStyleTableRecord
  2
simplex
 70
     0
 40
3.5
 41
1.0
 50
0.0
 71
     0
 42
3.5
  3
txt.shx
  4

  0
STYLE
  5
69E
330
3
100
AcDbSymbolTableRecord
100
AcDbTextStyleTableRecord
  2
MX_NOTE_STANDARD
 70
     0
 40
0.0
 41
1.0
 50
0.0
 71
     0
 42
4.2
  3
txt.shx
  4
extfont.shx
  0
STYLE
  5
3524
330
3
100
AcDbSymbolTableRecord
100
AcDbTextStyleTableRecord
  2
TEXTSTYLE_2
 70
     0
 40
0.0
 41
0.775
 50
0.0
 71
     0
 42
0.2
  3
gdt
  4

  0
STYLE
  5
3525
330
3
100
AcDbSymbolTableRecord
100
AcDbTextStyleTableRecord
  2
TEXTSTYLE_3
 70
     0
 40
0.0
 41
0.75
 50
0.0
 71
     0
 42
0.2
  3
txt
  4

  0
STYLE
  5
3526
330
3
100
AcDbSymbolTableRecord
100
AcDbTextStyleTableRecord
  2
TEXTSTYLE_13
 70
     0
 40
0.0
 41
1.0
 50
0.0
 71
     0
 42
0.2
  3
txt
  4

  0
STYLE
  5
519A
330
3
100
AcDbSymbolTableRecord
100
AcDbTextStyleTableRecord
  2
TEXTSTYLE_14
 70
     0
 40
0.0
 41
1.0
 50
0.0
 71
     0
 42
0.2
  3
txt
  4

  0
STYLE
  5
6F72
330
3
100
AcDbSymbolTableRecord
100
AcDbTextStyleTableRecord
  2
TEXTSTYLE_4
 70
     0
 40
0.0
 41
0.75
 50
0.0
 71
     0
 42
0.2
  3
txt
  4

  0
STYLE
  5
6F73
330
3
100
AcDbSymbolTableRecord
100
AcDbTextStyleTableRecord
  2
TEXTSTYLE_17
 70
     0
 40
0.0
 41
1.0
 50
0.0
 71
     0
 42
0.2
  3
txt
  4

  0
STYLE
  5
FE12
330
3
100
AcDbSymbolTableRecord
100
AcDbTextStyleTableRecord
  2
TEXTSTYLE_12
 70
     0
 40
0.0
 41
1.0
 50
0.0
 71
     0
 42
0.2
  3
txt
  4

  0
STYLE
  5
3AAB8
330
3
100
AcDbSymbolTableRecord
100
AcDbTextStyleTableRecord
  2
TEXTSTYLE_20
 70
     0
 40
0.0
 41
0.6
 50
0.0
 71
     0
 42
0.2
  3
txt
  4

  0
ENDTAB
  0
TABLE
  2
VIEW
  5
6
330
0
100
AcDbSymbolTable
 70
     0
  0
ENDTAB
  0
TABLE
  2
UCS
  5
7
330
0
100
AcDbSymbolTable
 70
     0
  0
ENDTAB
  0
TABLE
  2
APPID
  5
9
330
0
100
AcDbSymbolTable
 70
    11
  0
APPID
  5
12
330
9
100
AcDbSymbolTableRecord
100
AcDbRegAppTableRecord
  2
ACAD
 70
     0
  0
APPID
  5
D2
330
9
100
AcDbSymbolTableRecord
100
AcDbRegAppTableRecord
  2
AcAecLayerStandard
 70
     0
  0
APPID
  5
E6
330
9
100
AcDbSymbolTableRecord
100
AcDbRegAppTableRecord
  2
ACAD_DSTYLE_DIMTEXT_FILL
 70
     0
  0
APPID
  5
4C84
330
9
100
AcDbSymbolTableRecord
100
AcDbRegAppTableRecord
  2
ACAD_EXEMPT_FROM_CAD_STANDARDS
 70
     0
  0
APPID
  5
3493E
330
9
100
AcDbSymbolTableRecord
100
AcDbRegAppTableRecord
  2
DCO15
 70
     0
  0
APPID
  5
3BAB0
330
9
100
AcDbSymbolTableRecord
100
AcDbRegAppTableRecord
  2
ACAD_DSTYLE_DIMEXT_ENABLED
 70
     0
  0
APPID
  5
3BAB1
330
9
100
AcDbSymbolTableRecord
100
AcDbRegAppTableRecord
  2
ACAD_DSTYLE_DIMEXT_LENGTH
 70
     0
  0
APPID
  5
3BEB4
330
9
100
AcDbSymbolTableRecord
100
AcDbRegAppTableRecord
  2
ACAUTHENVIRON
 70
     0
  0
APPID
  5
3BEB7
330
9
100
AcDbSymbolTableRecord
100
AcDbRegAppTableRecord
  2
AcDbDynamicBlockTrueName
 70
     0
  0
APPID
  5
3BEB8
330
9
100
AcDbSymbolTableRecord
100
AcDbRegAppTableRecord
  2
AcDbDynamicBlockGUID
 70
     0
  0
APPID
  5
3BEBA
330
9
100
AcDbSymbolTableRecord
100
AcDbRegAppTableRecord
  2
AcDbBlockRepETag
 70
     0
  0
ENDTAB
  0
TABLE
  2
DIMSTYLE
  5
A
330
0
100
AcDbSymbolTable
 70
    11
100
AcDbDimStyleTable
 71
     5
340
1BF
340
27
340
352A
340
3527
340
69F
  0
DIMSTYLE
105
27
330
A
100
AcDbSymbolTableRecord
100
AcDbDimStyleTableRecord
  2
ISO-25
 70
     0
 41
2.5
 42
0.625
 43
3.75
 44
1.25
 73
     0
 74
     0
 77
     1
 78
     8
140
2.5
141
2.5
143
0.03937007874016
147
0.625
171
     3
172
     1
271
     2
272
     2
274
     3
278
    44
283
     0
284
     8
340
11
  0
DIMSTYLE
105
1BF
102
{ACAD_REACTORS
330
563F7
330
563FA
330
56546
330
56594
330
5681B
330
56823
330
56826
102
}
330
A
100
AcDbSymbolTableRecord
100
AcDbDimStyleTableRecord
  2
\M+18352\M+18373\M+1815B - ISO-25
 70
     0
 40
0.0
 41
3.5
 42
0.0
 44
1.5
 73
     0
 74
     0
 77
     1
 78
     8
140
3.5
147
2.299999999999998
176
   256
177
   256
178
   256
271
     2
272
     2
284
     8
340
24A
371
    -1
372
    -1
  0
DIMSTYLE
105
69F
330
A
100
AcDbSymbolTableRecord
100
AcDbDimStyleTableRecord
  2
MXDIMSTYLE
 70
     0
 41
2.5
 42
0.5
 43
3.75
 44
1.5
 73
     0
 74
     0
 77
     1
 78
     8
140
4.2
141
2.5
143
0.03937
147
1.0
171
     4
172
     1
173
     1
271
     2
272
     2
274
     4
283
     0
288
     1
340
69E
341
697
343
697
344
697
  0
DIMSTYLE
105
3527
330
A
100
AcDbSymbolTableRecord
100
AcDbDimStyleTableRecord
  2
STANDARD
 70
     0
 41
3.0
 47
0.001
 48
0.001
 71
     1
 73
     0
 74
     0
 77
     1
 78
     8
140
4.0
271
     3
272
     3
284
     8
340
11
341
34B1
342
34B1
343
34B1
344
34B1
  0
DIMSTYLE
105
3528
330
A
100
AcDbSymbolTableRecord
100
AcDbDimStyleTableRecord
  2
DIMSTYLE_1
 70
     0
 41
3.0
 73
     0
 74
     0
 77
     1
 78
     8
140
4.0
271
     3
272
     3
284
     8
340
11
341
34B1
342
34B1
343
34B1
344
34B1
  0
DIMSTYLE
105
3529
330
A
100
AcDbSymbolTableRecord
100
AcDbDimStyleTableRecord
  2
DIMSTYLE_2
 70
     0
 41
3.0
 47
0.001
 48
0.001
 73
     0
 74
     0
 77
     1
 78
     8
140
4.0
271
     3
272
     3
284
     8
340
11
341
34B1
342
34B1
343
34B1
344
34B1
  0
DIMSTYLE
105
352A
330
A
100
AcDbSymbolTableRecord
100
AcDbDimStyleTableRecord
  2
DIMSTYLE_3
 70
     0
 41
3.0
 47
-0.1
 48
0.3
 71
     1
 73
     0
 74
     0
 77
     1
 78
     8
140
4.0
146
0.5
271
     3
272
     3
284
     8
340
11
341
34B1
342
34B1
343
34B1
344
34B1
  0
DIMSTYLE
105
352B
330
A
100
AcDbSymbolTableRecord
100
AcDbDimStyleTableRecord
  2
DIMSTYLE_4
 70
     0
 41
3.0
 47
0.1
 48
0.1
 71
     1
 73
     0
 74
     0
 77
     1
 78
     8
140
4.0
271
     3
272
     3
284
     8
340
11
341
34B1
342
34B1
343
34B1
344
34B1
  0
DIMSTYLE
105
27245
330
A
100
AcDbSymbolTableRecord
100
AcDbDimStyleTableRecord
  2
DIMSTYLE_5
 70
     0
 41
3.0
 47
0.001
 48
0.001
 73
     0
 74
     0
 77
     1
 78
     8
140
4.0
271
     3
272
     3
284
     8
340
11
341
34B1
342
34B1
343
34B1
344
34B1
  0
DIMSTYLE
105
3AAB9
330
A
100
AcDbSymbolTableRecord
100
AcDbDimStyleTableRecord
  2
DIMSTYLE_6
 70
     0
 41
3.0
 42
0.0
 44
1.0
 47
0.05
 48
0.05
 71
     1
 73
     0
 74
     0
 77
     1
 78
     8
140
4.0
147
1.0
271
     3
272
     3
284
     8
340
11
341
34B1
342
34B1
343
34B1
344
34B1
  0
DIMSTYLE
105
532EA
330
A
100
AcDbSymbolTableRecord
100
AcDbDimStyleTableRecord
  2
NEW-DIMSTYLE
 70
     0
 40
0.0
 41
4.57
 42
0.0
 44
5.0
 73
     0
 74
     0
 77
     1
 78
     8
140
4.57
147
2.299999999999998
271
     2
340
24A
  0
ENDTAB
  0
TABLE
  2
BLOCK_RECORD
  5
1
330
0
100
AcDbSymbolTable
 70
    28
  0
BLOCK_RECORD
  5
1F
102
{ACAD_XDICTIONARY
360
31EE
102
}
330
1
100
AcDbSymbolTableRecord
100
AcDbBlockTableRecord
  2
*Model_Space
340
22
  0
BLOCK_RECORD
  5
50
330
1
100
AcDbSymbolTableRecord
100
AcDbBlockTableRecord
  2
*Paper_Space
340
51
  0
BLOCK_RECORD
  5
55
330
1
100
AcDbSymbolTableRecord
100
AcDbBlockTableRecord
  2
*Paper_Space0
340
56
  0
BLOCK_RECORD
  5
680
102
{ACAD_XDICTIONARY
360
3BEB2
102
}
330
1
100
AcDbSymbolTableRecord
100
AcDbBlockTableRecord
  2
zero block
340
0
102
{BLKREFS
331
68C
331
5675C
102
}
1001
ACAD
1000
DesignCenter Data
1002
{
1070
     1
1070
     4
1002
}
1001
AcDbDynamicBlockGUID
1000
{C2E8894D-A8DA-456D-ABB6-198B00672C1A}
1001
AcDbBlockRepETag
1070
     1
1071
        7
  0
BLOCK_RECORD
  5
697
330
1
100
AcDbSymbolTableRecord
100
AcDbBlockTableRecord
  2
_OPEN30
340
0
  0
BLOCK_RECORD
  5
34B1
330
1
100
AcDbSymbolTableRecord
100
AcDbBlockTableRecord
  2
_OPEN
340
0
  0
BLOCK_RECORD
  5
50E6F
330
1
100
AcDbSymbolTableRecord
100
AcDbBlockTableRecord
  2
_None
340
0
  0
BLOCK_RECORD
  5
55635
330
1
100
AcDbSymbolTableRecord
100
AcDbBlockTableRecord
  2
*D5
340
0
  0
BLOCK_RECORD
  5
565A6
330
1
100
AcDbSymbolTableRecord
100
AcDbBlockTableRecord
  2
*D6
340
0
  0
BLOCK_RECORD
  5
565B3
330
1
100
AcDbSymbolTableRecord
100
AcDbBlockTableRecord
  2
*D7
340
0
  0
BLOCK_RECORD
  5
565BF
330
1
100
AcDbSymbolTableRecord
100
AcDbBlockTableRecord
  2
*D8
340
0
  0
BLOCK_RECORD
  5
565F6
330
1
100
AcDbSymbolTableRecord
100
AcDbBlockTableRecord
  2
*D9
340
0
  0
BLOCK_RECORD
  5
56601
330
1
100
AcDbSymbolTableRecord
100
AcDbBlockTableRecord
  2
*D10
340
0
  0
BLOCK_RECORD
  5
5662A
330
1
100
AcDbSymbolTableRecord
100
AcDbBlockTableRecord
  2
*D11
340
0
  0
BLOCK_RECORD
  5
56672
330
1
100
AcDbSymbolTableRecord
100
AcDbBlockTableRecord
  2
*D12
340
0
  0
BLOCK_RECORD
  5
56707
330
1
100
AcDbSymbolTableRecord
100
AcDbBlockTableRecord
  2
*D13
340
0
  0
BLOCK_RECORD
  5
56714
330
1
100
AcDbSymbolTableRecord
100
AcDbBlockTableRecord
  2
*D14
340
0
  0
BLOCK_RECORD
  5
56721
330
1
100
AcDbSymbolTableRecord
100
AcDbBlockTableRecord
  2
*D15
340
0
  0
BLOCK_RECORD
  5
5672C
330
1
100
AcDbSymbolTableRecord
100
AcDbBlockTableRecord
  2
*D16
340
0
  0
BLOCK_RECORD
  5
56739
330
1
100
AcDbSymbolTableRecord
100
AcDbBlockTableRecord
  2
*D17
340
0
  0
BLOCK_RECORD
  5
56745
330
1
100
AcDbSymbolTableRecord
100
AcDbBlockTableRecord
  2
*D18
340
0
  0
BLOCK_RECORD
  5
56751
330
1
100
AcDbSymbolTableRecord
100
AcDbBlockTableRecord
  2
*D19
340
0
  0
BLOCK_RECORD
  5
5683C
330
1
100
AcDbSymbolTableRecord
100
AcDbBlockTableRecord
  2
*D21
340
0
  0
BLOCK_RECORD
  5
56849
330
1
100
AcDbSymbolTableRecord
100
AcDbBlockTableRecord
  2
*D22
340
0
  0
BLOCK_RECORD
  5
56854
330
1
100
AcDbSymbolTableRecord
100
AcDbBlockTableRecord
  2
*D23
340
0
  0
BLOCK_RECORD
  5
56860
330
1
100
AcDbSymbolTableRecord
100
AcDbBlockTableRecord
  2
*D24
340
0
  0
BLOCK_RECORD
  5
5686D
330
1
100
AcDbSymbolTableRecord
100
AcDbBlockTableRecord
  2
*D25
340
0
  0
BLOCK_RECORD
  5
56879
330
1
100
AcDbSymbolTableRecord
100
AcDbBlockTableRecord
  2
*D26
340
0
  0
BLOCK_RECORD
  5
56883
330
1
100
AcDbSymbolTableRecord
100
AcDbBlockTableRecord
  2
*D27
340
0
  0
ENDTAB
  0
ENDSEC
  0
SECTION
  2
BLOCKS
  0
BLOCK
  5
20
330
1F
100
AcDbEntity
  8
0
100
AcDbBlockBegin
  2
*Model_Space
 70
     0
 10
0.0
 20
0.0
 30
0.0
  3
*Model_Space
  1

  0
ENDBLK
  5
21
330
1F
100
AcDbEntity
  8
0
100
AcDbBlockEnd
  0
BLOCK
  5
52
330
50
100
AcDbEntity
 67
     1
  8
0
100
AcDbBlockBegin
  2
*Paper_Space
 70
     0
 10
0.0
 20
0.0
 30
0.0
  3
*Paper_Space
  1

  0
ENDBLK
  5
53
330
50
100
AcDbEntity
 67
     1
  8
0
100
AcDbBlockEnd
  0
BLOCK
  5
57
330
55
100
AcDbEntity
 67
     1
  8
0
100
AcDbBlockBegin
  2
*Paper_Space0
 70
     0
 10
0.0
 20
0.0
 30
0.0
  3
*Paper_Space0
  1

  0
VIEWPORT
  5
71
102
{ACAD_XDICTIONARY
360
56937
102
}
330
55
100
AcDbEntity
 67
     1
  8
0
100
AcDbViewport
 10
150.1652135264906
 20
101.599997546291
 30
0.0
 40
339.1973820494347
 41
164.5360435314421
 68
     0
 69
     0
 12
150.1652135264906
 22
101.599997546291
 13
0.0
 23
0.0
 14
10.0
 24
10.0
 15
10.0
 25
10.0
 16
0.0
 26
0.0
 36
1.0
 17
0.0
 27
0.0
 37
0.0
 42
50.0
 43
0.0
 44
0.0
 45
164.5360435314421
 50
0.0
 51
0.0
 72
  1000
 90
    32864
  1

281
     0
 71
     1
 74
     0
110
0.0
120
0.0
130
0.0
111
1.0
121
0.0
131
0.0
112
0.0
122
1.0
132
0.0
 79
     0
146
0.0
  0
VIEWPORT
  5
73
102
{ACAD_XDICTIONARY
360
56939
102
}
330
55
100
AcDbEntity
 67
     1
  8
0
100
AcDbViewport
 10
133.3499939441681
 20
101.5999939441681
 30
0.0
 40
213.3599903106689
 41
162.5599903106689
 68
     0
 69
     0
 12
210.0
 22
148.5
 13
0.0
 23
0.0
 14
10.0
 24
10.0
 15
10.0
 25
10.0
 16
0.0
 26
0.0
 36
1.0
 17
0.0
 27
0.0
 37
0.0
 42
50.0
 43
0.0
 44
0.0
 45
324.0677920111345
 50
0.0
 51
0.0
 72
   100
 90
    32864
  1

281
     0
 71
     1
 74
     0
110
0.0
120
0.0
130
0.0
111
1.0
121
0.0
131
0.0
112
0.0
122
1.0
132
0.0
 79
     0
146
0.0
  0
ENDBLK
  5
58
330
55
100
AcDbEntity
 67
     1
  8
0
100
AcDbBlockEnd
  0
BLOCK
  5
68A
330
680
100
AcDbEntity
  8
0
100
AcDbBlockBegin
  2
zero block
 70
     0
 10
0.0
 20
0.0
 30
0.0
  3
zero block
  1

  0
HATCH
  5
3BEAB
330
680
100
AcDbEntity
  8
0
 62
     7
100
AcDbHatch
 10
0.0
 20
0.0
 30
0.0
210
0.0
220
0.0
230
1.0
  2
SOLID
 70
     1
 71
     0
 91
        2
 92
        7
 72
     1
 73
     1
 93
        3
 10
0.0
 20
0.9999999999999875
 42
0.4142135623730915
 10
-1.0
 20
0.0
 42
0.0
 10
0.0
 20
0.0
 42
0.0
 97
        0
 92
        7
 72
     1
 73
     1
 93
        3
 10
1.000000000000007
 20
0.0
 42
0.0
 10
0.0
 20
0.0
 42
0.0
 10
0.0
 20
-1.0
 42
0.4142135623730974
 97
        0
 75
     0
 76
     1
 47
0.0090601366782909
 98
        2
 10
-0.380591363650975
 20
0.4885804701532896
 10
0.4350764810977559
 20
-0.4536738423704725
1001
AcDbBlockRepETag
1070
     1
1071
        0
1005
3BEAB
  0
LINE
  5
3BEAC
330
680
100
AcDbEntity
  8
0
 62
     7
 48
0.2
100
AcDbLine
 10
-1.0
 20
0.0
 30
0.0
 11
1.000000000000007
 21
0.0
 31
0.0
1001
AcDbBlockRepETag
1070
     1
1071
        1
1005
3BEAC
  0
LINE
  5
3BEAD
330
680
100
AcDbEntity
  8
0
 62
     7
 48
0.2
100
AcDbLine
 10
0.0
 20
-1.0
 30
0.0
 11
0.0
 21
0.9999999999999875
 31
0.0
1001
AcDbBlockRepETag
1070
     1
1071
        2
1005
3BEAD
  0
ARC
  5
3BEAE
330
680
100
AcDbEntity
  8
0
 62
     7
 48
0.2
100
AcDbCircle
 10
0.0
 20
0.0
 30
0.0
 40
1.0
100
AcDbArc
 50
270.0
 51
0.0
1001
AcDbBlockRepETag
1070
     1
1071
        3
1005
3BEAE
  0
ARC
  5
3BEAF
330
680
100
AcDbEntity
  8
0
 62
     7
 48
0.2
100
AcDbCircle
 10
0.0
 20
0.0
 30
0.0
 40
1.0
100
AcDbArc
 50
0.0
 51
90.0
1001
AcDbBlockRepETag
1070
     1
1071
        4
1005
3BEAF
  0
ARC
  5
3BEB0
330
680
100
AcDbEntity
  8
0
 62
     7
 48
0.2
100
AcDbCircle
 10
0.0
 20
0.0
 30
0.0
 40
1.0
100
AcDbArc
 50
180.0
 51
270.0
1001
AcDbBlockRepETag
1070
     1
1071
        5
1005
3BEB0
  0
ARC
  5
3BEB1
330
680
100
AcDbEntity
  8
0
 62
     7
 48
0.2
100
AcDbCircle
 10
0.0
 20
0.0
 30
0.0
 40
1.0
100
AcDbArc
 50
90.0
 51
180.0
1001
AcDbBlockRepETag
1070
     1
1071
        6
1005
3BEB1
  0
ENDBLK
  5
68B
330
680
100
AcDbEntity
  8
0
100
AcDbBlockEnd
  0
BLOCK
  5
698
330
697
100
AcDbEntity
  8
0
  6
ByBlock
 62
     0
370
    -2
100
AcDbBlockBegin
  2
_OPEN30
 70
     2
 10
0.0
 20
0.0
 30
0.0
  3
_OPEN30
  1

  0
LINE
  5
699
330
697
100
AcDbEntity
  8
0
  6
ByBlock
 62
     0
370
    -2
100
AcDbLine
 10
-1.0
 20
0.267949
 30
0.0
 11
0.0
 21
0.0
 31
0.0
  0
LINE
  5
69A
330
697
100
AcDbEntity
  8
0
  6
ByBlock
 62
     0
370
    -2
100
AcDbLine
 10
0.0
 20
0.0
 30
0.0
 11
-1.0
 21
-0.267949
 31
0.0
  0
LINE
  5
69B
330
697
100
AcDbEntity
  8
0
  6
ByBlock
 62
     0
370
    -2
100
AcDbLine
 10
0.0
 20
0.0
 30
0.0
 11
-1.0
 21
0.0
 31
0.0
  0
ENDBLK
  5
69C
330
697
100
AcDbEntity
  8
0
  6
ByBlock
 62
     0
370
    -2
100
AcDbBlockEnd
  0
BLOCK
  5
34B2
330
34B1
100
AcDbEntity
  8
0
100
AcDbBlockBegin
  2
_OPEN
 70
     0
 10
0.0
 20
0.0
 30
0.0
  3
_OPEN
  1

  0
LINE
  5
34B3
330
34B1
100
AcDbEntity
  8
0
  6
ByBlock
 62
     0
100
AcDbLine
 10
0.0
 20
0.0
 30
0.0
 11
-1.0
 21
0.1766666667
 31
0.0
  0
LINE
  5
34B4
330
34B1
100
AcDbEntity
  8
0
  6
ByBlock
 62
     0
100
AcDbLine
 10
-1.0
 20
-0.1766666667
 30
0.0
 11
0.0
 21
0.0
 31
0.0
  0
LINE
  5
34B5
330
34B1
100
AcDbEntity
  8
0
  6
ByBlock
 62
     0
100
AcDbLine
 10
-1.0
 20
0.0
 30
0.0
 11
0.0
 21
0.0
 31
0.0
  0
ENDBLK
  5
34B6
330
34B1
100
AcDbEntity
  8
0
  6
ByBlock
 62
     0
100
AcDbBlockEnd
  0
BLOCK
  5
50E70
330
50E6F
100
AcDbEntity
  8
0
100
AcDbBlockBegin
  2
_None
 70
     0
 10
0.0
 20
0.0
 30
0.0
  3
_None
  1

  0
ENDBLK
  5
50E71
330
50E6F
100
AcDbEntity
  8
0
100
AcDbBlockEnd
  0
BLOCK
  5
5563F
330
55635
100
AcDbEntity
  8
0
100
AcDbBlockBegin
  2
*D5
 70
     1
 10
0.0
 20
0.0
 30
0.0
  3
*D5
  1

  0
LINE
  5
56110
330
55635
100
AcDbEntity
  8
sk2
100
AcDbLine
 10
-69.84999999999996
 20
5.349985999999923
 30
0.0
 11
-69.84999999999996
 21
51.17599391712246
 31
0.0
  0
LINE
  5
56111
330
55635
100
AcDbEntity
  8
sk2
100
AcDbLine
 10
50.80000000000001
 20
3.326262239681228
 30
0.0
 11
50.80000000000001
 21
51.17599391712246
 31
0.0
  0
LINE
  5
56112
330
55635
100
AcDbEntity
  8
sk2
100
AcDbLine
 10
-66.34999999999997
 20
49.67599391712247
 30
0.0
 11
47.30000000000001
 21
49.67599391712247
 31
0.0
  0
SOLID
  5
56113
330
55635
100
AcDbEntity
  8
sk2
100
AcDbTrace
 10
-66.34999999999997
 20
50.2593272504558
 30
0.0
 11
-66.34999999999997
 21
49.09266058378912
 31
0.0
 12
-69.84999999999996
 22
49.67599391712247
 32
0.0
 13
-69.84999999999996
 23
49.67599391712247
 33
0.0
  0
SOLID
  5
56114
330
55635
100
AcDbEntity
  8
sk2
100
AcDbTrace
 10
47.30000000000001
 20
50.2593272504558
 30
0.0
 11
47.30000000000001
 21
49.09266058378912
 31
0.0
 12
50.80000000000001
 22
49.67599391712247
 32
0.0
 13
50.80000000000001
 23
49.67599391712247
 33
0.0
  0
MTEXT
  5
56115
330
55635
100
AcDbEntity
  8
sk2
100
AcDbMText
 10
-9.524999999999975
 20
53.72599391712245
 30
0.0
 40
3.5
 41
0.0
 71
     5
 72
     1
  1
\A1;120.65 [4.750"]
  7
simplex
 73
     1
 44
0.892857
1001
ACAD
1000
MTEXTBEGIN
1070
    73
1070
     1
1070
    44
1040
0.892857
1070
    74
1070
     0
1000
MTEXTEND
  0
POINT
  5
56116
330
55635
100
AcDbEntity
  8
Defpoints
 62
     0
100
AcDbPoint
 10
-69.84999999999996
 20
5.349985999999923
 30
0.0
  0
POINT
  5
56117
330
55635
100
AcDbEntity
  8
Defpoints
 62
     0
100
AcDbPoint
 10
50.80000000000001
 20
3.326262239681228
 30
0.0
  0
POINT
  5
56118
330
55635
100
AcDbEntity
  8
Defpoints
 62
     0
100
AcDbPoint
 10
50.80000000000001
 20
49.67599391712247
 30
0.0
  0
ENDBLK
  5
55640
330
55635
100
AcDbEntity
  8
0
100
AcDbBlockEnd
  0
BLOCK
  5
565B1
330
565A6
100
AcDbEntity
  8
0
100
AcDbBlockBegin
  2
*D6
 70
     1
 10
0.0
 20
0.0
 30
0.0
  3
*D6
  1

  0
LINE
  5
568CF
330
565A6
100
AcDbEntity
  8
2
100
AcDbLine
 10
64.37499539814179
 20
5.74999998361133
 30
0.0
 11
64.37499539814179
 21
27.09157035443957
 31
0.0
  0
LINE
  5
568D0
330
565A6
100
AcDbEntity
  8
2
100
AcDbLine
 10
79.37499539814172
 20
17.60461398361127
 30
0.0
 11
79.37499539814172
 21
27.09157035443957
 31
0.0
  0
LINE
  5
568D1
330
565A6
100
AcDbEntity
  8
2
100
AcDbLine
 10
75.87499539814172
 20
25.59157035443957
 30
0.0
 11
67.87499539814179
 21
25.59157035443957
 31
0.0
  0
LINE
  5
568D2
330
565A6
100
AcDbEntity
  8
2
100
AcDbLine
 10
64.37499539814179
 20
25.59157035443957
 30
0.0
 11
30.60832873147508
 21
25.59157035443957
 31
0.0
  0
SOLID
  5
568D3
330
565A6
100
AcDbEntity
  8
2
100
AcDbTrace
 10
75.87499539814172
 20
26.1749036877729
 30
0.0
 11
75.87499539814172
 21
25.00823702110624
 31
0.0
 12
79.37499539814172
 22
25.59157035443957
 32
0.0
 13
79.37499539814172
 23
25.59157035443957
 33
0.0
  0
SOLID
  5
568D4
330
565A6
100
AcDbEntity
  8
2
100
AcDbTrace
 10
67.87499539814179
 20
26.1749036877729
 30
0.0
 11
67.87499539814179
 21
25.00823702110624
 31
0.0
 12
64.37499539814179
 22
25.59157035443957
 32
0.0
 13
64.37499539814179
 23
25.59157035443957
 33
0.0
  0
MTEXT
  5
568D5
330
565A6
100
AcDbEntity
  8
2
100
AcDbMText
 10
45.7416620648084
 20
29.64157035443957
 30
0.0
 40
3.5
 41
0.0
 71
     5
 72
     1
  1
\A1;15 [.591"]
  7
simplex
 73
     1
 44
0.892857
1001
ACAD
1000
MTEXTBEGIN
1070
    73
1070
     1
1070
    44
1040
0.892857
1070
    74
1070
     0
1000
MTEXTEND
  0
POINT
  5
568D6
330
565A6
100
AcDbEntity
  8
Defpoints
 62
     0
100
AcDbPoint
 10
64.37499539814179
 20
5.74999998361133
 30
0.0
  0
POINT
  5
568D7
330
565A6
100
AcDbEntity
  8
Defpoints
 62
     0
100
AcDbPoint
 10
79.37499539814172
 20
17.60461398361127
 30
0.0
  0
POINT
  5
568D8
330
565A6
100
AcDbEntity
  8
Defpoints
 62
     0
100
AcDbPoint
 10
79.37499539814172
 20
25.59157035443957
 30
0.0
  0
ENDBLK
  5
565B2
330
565A6
100
AcDbEntity
  8
0
100
AcDbBlockEnd
  0
BLOCK
  5
565BD
330
565B3
100
AcDbEntity
  8
0
100
AcDbBlockBegin
  2
*D7
 70
     1
 10
0.0
 20
0.0
 30
0.0
  3
*D7
  1

  0
LINE
  5
568D9
330
565B3
100
AcDbEntity
  8
sk2
100
AcDbLine
 10
-41.27499960185819
 20
5.349985983611276
 30
0.0
 11
-41.27499960185819
 21
51.17599390073382
 31
0.0
  0
LINE
  5
568DA
330
565B3
100
AcDbEntity
  8
sk2
100
AcDbLine
 10
79.37500039814178
 20
3.326262223292586
 30
0.0
 11
79.37500039814178
 21
51.17599390073382
 31
0.0
  0
LINE
  5
568DB
330
565B3
100
AcDbEntity
  8
sk2
100
AcDbLine
 10
-37.7749996018582
 20
49.67599390073382
 30
0.0
 11
75.87500039814178
 21
49.67599390073382
 31
0.0
  0
SOLID
  5
568DC
330
565B3
100
AcDbEntity
  8
sk2
100
AcDbTrace
 10
-37.7749996018582
 20
50.25932723406715
 30
0.0
 11
-37.7749996018582
 21
49.09266056740048
 31
0.0
 12
-41.27499960185819
 22
49.67599390073382
 32
0.0
 13
-41.27499960185819
 23
49.67599390073382
 33
0.0
  0
SOLID
  5
568DD
330
565B3
100
AcDbEntity
  8
sk2
100
AcDbTrace
 10
75.87500039814178
 20
50.25932723406715
 30
0.0
 11
75.87500039814178
 21
49.09266056740048
 31
0.0
 12
79.37500039814178
 22
49.67599390073382
 32
0.0
 13
79.37500039814178
 23
49.67599390073382
 33
0.0
  0
MTEXT
  5
568DE
330
565B3
100
AcDbEntity
  8
sk2
100
AcDbMText
 10
19.05000039814179
 20
53.72599390073382
 30
0.0
 40
3.5
 41
0.0
 71
     5
 72
     1
  1
\A1;120.65 [4.750"]
  7
simplex
 73
     1
 44
0.892857
1001
ACAD
1000
MTEXTBEGIN
1070
    73
1070
     1
1070
    44
1040
0.892857
1070
    74
1070
     0
1000
MTEXTEND
  0
POINT
  5
568DF
330
565B3
100
AcDbEntity
  8
Defpoints
 62
     0
100
AcDbPoint
 10
-41.27499960185819
 20
5.349985983611276
 30
0.0
  0
POINT
  5
568E0
330
565B3
100
AcDbEntity
  8
Defpoints
 62
     0
100
AcDbPoint
 10
79.37500039814178
 20
3.326262223292586
 30
0.0
  0
POINT
  5
568E1
330
565B3
100
AcDbEntity
  8
Defpoints
 62
     0
100
AcDbPoint
 10
79.37500039814178
 20
49.67599390073382
 30
0.0
  0
ENDBLK
  5
565BE
330
565B3
100
AcDbEntity
  8
0
100
AcDbBlockEnd
  0
BLOCK
  5
565C9
330
565BF
100
AcDbEntity
  8
0
100
AcDbBlockBegin
  2
*D8
 70
     1
 10
0.0
 20
0.0
 30
0.0
  3
*D8
  1

  0
LINE
  5
568E2
330
565BF
100
AcDbEntity
  8
2
100
AcDbLine
 10
79.37500039814178
 20
6.349999983611353
 30
0.0
 11
79.37500039814178
 21
38.57138743236783
 31
0.0
  0
LINE
  5
568E3
330
565BF
100
AcDbEntity
  8
2
100
AcDbLine
 10
28.57500039814177
 20
6.350000483611352
 30
0.0
 11
28.57500039814177
 21
38.57138743236783
 31
0.0
  0
LINE
  5
568E4
330
565BF
100
AcDbEntity
  8
2
100
AcDbLine
 10
75.87500039814178
 20
37.07138743236783
 30
0.0
 11
32.07500039814177
 21
37.07138743236783
 31
0.0
  0
SOLID
  5
568E5
330
565BF
100
AcDbEntity
  8
2
100
AcDbTrace
 10
75.87500039814178
 20
37.65472076570116
 30
0.0
 11
75.87500039814178
 21
36.48805409903449
 31
0.0
 12
79.37500039814178
 22
37.07138743236783
 32
0.0
 13
79.37500039814178
 23
37.07138743236783
 33
0.0
  0
SOLID
  5
568E6
330
565BF
100
AcDbEntity
  8
2
100
AcDbTrace
 10
32.07500039814177
 20
37.65472076570116
 30
0.0
 11
32.07500039814177
 21
36.48805409903449
 31
0.0
 12
28.57500039814177
 22
37.07138743236783
 32
0.0
 13
28.57500039814177
 23
37.07138743236783
 33
0.0
  0
MTEXT
  5
568E7
330
565BF
100
AcDbEntity
  8
2
100
AcDbMText
 10
53.9750003981418
 20
41.12138743236783
 30
0.0
 40
3.5
 41
0.0
 71
     5
 72
     1
  1
\A1;50.8 [2.000"]
  7
simplex
 73
     1
 44
1.0
1001
ACAD
1000
MTEXTBEGIN
1070
    73
1070
     1
1070
    44
1040
1.0
1070
    74
1070
     0
1000
MTEXTEND
  0
POINT
  5
568E8
330
565BF
100
AcDbEntity
  8
Defpoints
 62
     0
100
AcDbPoint
 10
79.37500039814178
 20
6.349999983611353
 30
0.0
  0
POINT
  5
568E9
330
565BF
100
AcDbEntity
  8
Defpoints
 62
     0
100
AcDbPoint
 10
28.57500039814177
 20
6.350000483611352
 30
0.0
  0
POINT
  5
568EA
330
565BF
100
AcDbEntity
  8
Defpoints
 62
     0
100
AcDbPoint
 10
28.57500039814177
 20
37.07138743236783
 30
0.0
  0
ENDBLK
  5
565CA
330
565BF
100
AcDbEntity
  8
0
100
AcDbBlockEnd
  0
BLOCK
  5
565FF
330
565F6
100
AcDbEntity
  8
0
100
AcDbBlockBegin
  2
*D9
 70
     1
 10
0.0
 20
0.0
 30
0.0
  3
*D9
  1

  0
LINE
  5
568EB
330
565F6
100
AcDbEntity
  8
2
100
AcDbLine
 10
77.37500339814179
 20
5.999999982511369
 30
0.0
 11
99.26292871423529
 21
5.999999982511361
 31
0.0
  0
LINE
  5
568EC
330
565F6
100
AcDbEntity
  8
2
100
AcDbLine
 10
97.76292871423528
 20
2.499999982511363
 30
0.0
 11
97.76292871423528
 21
-6.000000016388645
 31
0.0
  0
LINE
  5
568ED
330
565F6
100
AcDbEntity
  8
2
100
AcDbLine
 10
97.76292871423528
 20
-6.000000016388645
 30
0.0
 11
97.76292871423528
 21
-47.93333334972198
 31
0.0
  0
SOLID
  5
568EE
330
565F6
100
AcDbEntity
  8
2
100
AcDbTrace
 10
97.17959538090196
 20
2.499999982511363
 30
0.0
 11
98.34626204756862
 21
2.499999982511363
 31
0.0
 12
97.76292871423528
 22
5.999999982511363
 32
0.0
 13
97.76292871423528
 23
5.999999982511363
 33
0.0
  0
MTEXT
  5
568EF
330
565F6
100
AcDbEntity
  8
2
100
AcDbMText
 10
93.71292871423529
 20
-28.71666668305531
 30
0.0
 40
3.5
 41
0.0
 71
     5
 72
     1
  1
\A1;%%c12 [%%c.472"]
  7
simplex
 11
0.0000000000000001
 21
1.0
 31
0.0
 73
     1
 44
1.0
1001
ACAD
1000
MTEXTBEGIN
1070
    73
1070
     1
1070
    44
1040
1.0
1070
    74
1070
     0
1000
MTEXTEND
  0
POINT
  5
568F0
330
565F6
100
AcDbEntity
  8
Defpoints
 62
     0
100
AcDbPoint
 10
77.37500339814179
 20
5.999999982511369
 30
0.0
  0
POINT
  5
568F1
330
565F6
100
AcDbEntity
  8
Defpoints
 62
     0
100
AcDbPoint
 10
73.37500339814178
 20
-6.000000016388638
 30
0.0
  0
POINT
  5
568F2
330
565F6
100
AcDbEntity
  8
Defpoints
 62
     0
100
AcDbPoint
 10
97.76292871423528
 20
-6.000000016388645
 30
0.0
  0
ENDBLK
  5
56600
330
565F6
100
AcDbEntity
  8
0
100
AcDbBlockEnd
  0
BLOCK
  5
5660C
330
56601
100
AcDbEntity
  8
0
100
AcDbBlockBegin
  2
*D10
 70
     1
 10
0.0
 20
0.0
 30
0.0
  3
*D10
  1

  0
LINE
  5
568C5
330
56601
100
AcDbEntity
  8
2
100
AcDbLine
 10
64.37500339814171
 20
-5.750000016388652
 30
0.0
 11
55.99412504917298
 21
-5.750000016388649
 31
0.0
  0
LINE
  5
568C6
330
56601
100
AcDbEntity
  8
2
100
AcDbLine
 10
64.37500339814171
 20
5.749999983611361
 30
0.0
 11
55.99412504917298
 21
5.749999983611363
 31
0.0
  0
LINE
  5
568C7
330
56601
100
AcDbEntity
  8
2
100
AcDbLine
 10
57.49412504917298
 20
9.249999983611361
 30
0.0
 11
57.49412504917298
 21
12.74999998361136
 31
0.0
  0
LINE
  5
568C8
330
56601
100
AcDbEntity
  8
2
100
AcDbLine
 10
57.49412504917298
 20
-9.25000001638865
 30
0.0
 11
57.49412504917296
 21
-58.13416374280007
 31
0.0
  0
SOLID
  5
568C9
330
56601
100
AcDbEntity
  8
2
100
AcDbTrace
 10
56.91079171583965
 20
9.249999983611361
 30
0.0
 11
58.07745838250632
 21
9.249999983611361
 31
0.0
 12
57.49412504917298
 22
5.749999983611362
 32
0.0
 13
57.49412504917298
 23
5.749999983611362
 33
0.0
  0
SOLID
  5
568CA
330
56601
100
AcDbEntity
  8
2
100
AcDbTrace
 10
56.91079171583965
 20
-9.25000001638865
 30
0.0
 11
58.07745838250632
 21
-9.25000001638865
 31
0.0
 12
57.49412504917298
 22
-5.75000001638865
 32
0.0
 13
57.49412504917298
 23
-5.75000001638865
 33
0.0
  0
MTEXT
  5
568CB
330
56601
100
AcDbEntity
  8
2
100
AcDbMText
 10
53.44412504917298
 20
-37.16749707613339
 30
0.0
 40
3.5
 41
0.0
 71
     5
 72
     1
  1
\A1;%%C11.5 [%%C.453"]
  7
simplex
 11
0.0000000000000001
 21
1.0
 31
0.0
 73
     1
 44
1.0
1001
ACAD
1000
MTEXTBEGIN
1070
    73
1070
     1
1070
    44
1040
1.0
1070
    74
1070
     0
1000
MTEXTEND
  0
POINT
  5
568CC
330
56601
100
AcDbEntity
  8
Defpoints
 62
     0
100
AcDbPoint
 10
64.37500339814171
 20
-5.750000016388652
 30
0.0
  0
POINT
  5
568CD
330
56601
100
AcDbEntity
  8
Defpoints
 62
     0
100
AcDbPoint
 10
64.37500339814171
 20
5.749999983611361
 30
0.0
  0
POINT
  5
568CE
330
56601
100
AcDbEntity
  8
Defpoints
 62
     0
100
AcDbPoint
 10
57.49412504917298
 20
5.749999983611362
 30
0.0
  0
ENDBLK
  5
5660D
330
56601
100
AcDbEntity
  8
0
100
AcDbBlockEnd
  0
BLOCK
  5
56635
330
5662A
100
AcDbEntity
  8
0
100
AcDbBlockBegin
  2
*D11
 70
     1
 10
0.0
 20
0.0
 30
0.0
  3
*D11
  1

  0
LINE
  5
566CD
330
5662A
100
AcDbEntity
  8
sk2
100
AcDbLine
 10
-68.8499996018582
 20
-6.349999516388592
 30
0.0
 11
-91.11416924157646
 21
-6.349999516388584
 31
0.0
  0
LINE
  5
566CE
330
5662A
100
AcDbEntity
  8
sk2
100
AcDbLine
 10
-68.84998510185806
 20
6.350000483611352
 30
0.0
 11
-91.11416924157646
 21
6.35000048361136
 31
0.0
  0
LINE
  5
566CF
330
5662A
100
AcDbEntity
  8
sk2
100
AcDbLine
 10
-89.61416924157646
 20
2.850000483611357
 30
0.0
 11
-89.61416924157646
 21
-2.849999516388587
 31
0.0
  0
LINE
  5
566D0
330
5662A
100
AcDbEntity
  8
sk2
100
AcDbLine
 10
-89.61416924157646
 20
-6.349999516388588
 30
0.0
 11
-89.61416924157648
 21
-51.78333284972191
 31
0.0
  0
SOLID
  5
566D1
330
5662A
100
AcDbEntity
  8
sk2
100
AcDbTrace
 10
-90.19750257490981
 20
2.850000483611357
 30
0.0
 11
-89.03083590824314
 21
2.850000483611357
 31
0.0
 12
-89.61416924157646
 22
6.350000483611356
 32
0.0
 13
-89.61416924157646
 23
6.350000483611356
 33
0.0
  0
SOLID
  5
566D2
330
5662A
100
AcDbEntity
  8
sk2
100
AcDbTrace
 10
-90.19750257490981
 20
-2.849999516388587
 30
0.0
 11
-89.03083590824314
 21
-2.849999516388587
 31
0.0
 12
-89.61416924157646
 22
-6.349999516388588
 32
0.0
 13
-89.61416924157646
 23
-6.349999516388588
 33
0.0
  0
MTEXT
  5
566D3
330
5662A
100
AcDbEntity
  8
sk2
100
AcDbMText
 10
-93.66416924157645
 20
-30.81666618305528
 30
0.0
 40
3.5
 41
0.0
 71
     5
 72
     1
  1
\A1;%%C12.7 [%%C.500"]
  7
simplex
 11
0.0000000000000001
 21
1.0
 31
0.0
 73
     1
 44
1.0
1001
ACAD
1000
MTEXTBEGIN
1070
    73
1070
     1
1070
    44
1040
1.0
1070
    74
1070
     0
1000
MTEXTEND
  0
POINT
  5
566D4
330
5662A
100
AcDbEntity
  8
Defpoints
 62
     0
100
AcDbPoint
 10
-68.8499996018582
 20
-6.349999516388592
 30
0.0
  0
POINT
  5
566D5
330
5662A
100
AcDbEntity
  8
Defpoints
 62
     0
100
AcDbPoint
 10
-68.84998510185806
 20
6.350000483611352
 30
0.0
  0
POINT
  5
566D6
330
5662A
100
AcDbEntity
  8
Defpoints
 62
     0
100
AcDbPoint
 10
-89.61416924157646
 20
6.350000483611356
 30
0.0
  0
ENDBLK
  5
56636
330
5662A
100
AcDbEntity
  8
0
100
AcDbBlockEnd
  0
BLOCK
  5
5667A
330
56672
100
AcDbEntity
  8
0
100
AcDbBlockBegin
  2
*D12
 70
     1
 10
0.0
 20
0.0
 30
0.0
  3
*D12
  1

  0
LINE
  5
568FA
330
56672
100
AcDbEntity
  8
2
100
AcDbLine
 10
112.133666155063
 20
31.684511052979
 30
0.0
 11
81.66940055291028
 21
7.307702420607306
 31
0.0
  0
MTEXT
  5
568FB
330
56672
100
AcDbEntity
  8
2
100
AcDbMText
 10
95.73757922778405
 20
23.75171606943823
 30
0.0
 40
3.5
 41
0.0
 71
     5
 72
     1
  1
\A1;R2 [R.079"]
  7
simplex
 11
0.7808013396536371
 21
0.6247793754559171
 31
0.0
 73
     1
 44
1.0
1001
ACAD
1000
MTEXTBEGIN
1070
    73
1070
     1
1070
    44
1040
1.0
1070
    74
1070
     0
1000
MTEXTEND
  0
SOLID
  5
568FC
330
56672
100
AcDbEntity
  8
2
100
AcDbTrace
 10
81.30494591722767
 20
7.763169868738593
 30
0.0
 11
82.0338551885929
 21
6.852234972476011
 31
0.0
 12
78.93659586412255
 22
5.120974606511595
 32
0.0
 13
78.93659586412255
 23
5.120974606511595
 33
0.0
  0
LINE
  5
568FD
330
56672
100
AcDbEntity
  8
2
100
AcDbLine
 10
77.28499318481528
 20
3.871415855599771
 30
0.0
 11
77.46499318481529
 21
3.871415855599757
 31
0.0
  0
LINE
  5
568FE
330
56672
100
AcDbEntity
  8
2
100
AcDbLine
 10
77.37499318481528
 20
3.781415855599767
 30
0.0
 11
77.37499318481528
 21
3.96141585559976
 31
0.0
  0
POINT
  5
568FF
330
56672
100
AcDbEntity
  8
Defpoints
 62
     0
100
AcDbPoint
 10
78.93659586412255
 20
5.120974606511595
 30
0.0
  0
POINT
  5
56900
330
56672
100
AcDbEntity
  8
Defpoints
 62
     0
100
AcDbPoint
 10
77.37499318481528
 20
3.871415855599764
 30
0.0
  0
ENDBLK
  5
5667B
330
56672
100
AcDbEntity
  8
0
100
AcDbBlockEnd
  0
BLOCK
  5
56708
330
56707
100
AcDbEntity
  8
0
100
AcDbBlockBegin
  2
*D13
 70
     1
 10
0.0
 20
0.0
 30
0.0
  3
*D13
  1

  0
LINE
  5
56709
330
56707
100
AcDbEntity
  8
2
100
AcDbLine
 10
64.37499500000003
 20
5.749999999999971
 30
0.0
 11
64.37499500000003
 21
27.09157037082821
 31
0.0
  0
LINE
  5
5670A
330
56707
100
AcDbEntity
  8
2
100
AcDbLine
 10
79.37499499999995
 20
17.6046139999999
 30
0.0
 11
79.37499499999995
 21
27.09157037082821
 31
0.0
  0
LINE
  5
5670B
330
56707
100
AcDbEntity
  8
2
100
AcDbLine
 10
75.87499499999996
 20
25.59157037082821
 30
0.0
 11
67.87499500000001
 21
25.59157037082821
 31
0.0
  0
LINE
  5
5670C
330
56707
100
AcDbEntity
  8
2
100
AcDbLine
 10
64.37499500000003
 20
25.59157037082821
 30
0.0
 11
30.60832833333334
 21
25.59157037082821
 31
0.0
  0
SOLID
  5
5670D
330
56707
100
AcDbEntity
  8
2
100
AcDbTrace
 10
75.87499499999996
 20
26.17490370416154
 30
0.0
 11
75.87499499999996
 21
25.00823703749488
 31
0.0
 12
79.37499499999995
 22
25.59157037082821
 32
0.0
 13
79.37499499999995
 23
25.59157037082821
 33
0.0
  0
SOLID
  5
5670E
330
56707
100
AcDbEntity
  8
2
100
AcDbTrace
 10
67.87499500000001
 20
26.17490370416154
 30
0.0
 11
67.87499500000001
 21
25.00823703749488
 31
0.0
 12
64.37499500000003
 22
25.59157037082821
 32
0.0
 13
64.37499500000003
 23
25.59157037082821
 33
0.0
  0
MTEXT
  5
5670F
330
56707
100
AcDbEntity
  8
2
100
AcDbMText
 10
45.74166166666667
 20
29.6415703708282
 30
0.0
 40
3.5
 41
0.0
 71
     5
 72
     1
  1
\A1;15 [.591"]
  7
simplex
 73
     1
 44
0.892857
1001
ACAD
1000
MTEXTBEGIN
1070
    73
1070
     1
1070
    44
1040
0.892857
1070
    74
1070
     0
1000
MTEXTEND
  0
POINT
  5
56710
330
56707
100
AcDbEntity
  8
Defpoints
 62
     0
100
AcDbPoint
 10
64.37499500000003
 20
5.749999999999971
 30
0.0
  0
POINT
  5
56711
330
56707
100
AcDbEntity
  8
Defpoints
 62
     0
100
AcDbPoint
 10
79.37499499999995
 20
17.6046139999999
 30
0.0
  0
POINT
  5
56712
330
56707
100
AcDbEntity
  8
Defpoints
 62
     0
100
AcDbPoint
 10
79.37499499999995
 20
25.59157037082821
 30
0.0
  0
ENDBLK
  5
56713
330
56707
100
AcDbEntity
  8
0
100
AcDbBlockEnd
  0
BLOCK
  5
56715
330
56714
100
AcDbEntity
  8
0
100
AcDbBlockBegin
  2
*D14
 70
     1
 10
0.0
 20
0.0
 30
0.0
  3
*D14
  1

  0
LINE
  5
56716
330
56714
100
AcDbEntity
  8
2
100
AcDbLine
 10
64.37500299999995
 20
-5.750000000000007
 30
0.0
 11
55.99412465103121
 21
-5.750000000000004
 31
0.0
  0
LINE
  5
56717
330
56714
100
AcDbEntity
  8
2
100
AcDbLine
 10
64.37500299999995
 20
5.75
 30
0.0
 11
55.99412465103121
 21
5.750000000000002
 31
0.0
  0
LINE
  5
56718
330
56714
100
AcDbEntity
  8
2
100
AcDbLine
 10
57.4941246510312
 20
9.25
 30
0.0
 11
57.4941246510312
 21
12.75
 31
0.0
  0
LINE
  5
56719
330
56714
100
AcDbEntity
  8
2
100
AcDbLine
 10
57.4941246510312
 20
-9.250000000000003
 30
0.0
 11
57.49412465103119
 21
-58.13416372641142
 31
0.0
  0
SOLID
  5
5671A
330
56714
100
AcDbEntity
  8
2
100
AcDbTrace
 10
56.91079131769789
 20
9.25
 30
0.0
 11
58.07745798436455
 21
9.25
 31
0.0
 12
57.4941246510312
 22
5.75
 32
0.0
 13
57.4941246510312
 23
5.75
 33
0.0
  0
SOLID
  5
5671B
330
56714
100
AcDbEntity
  8
2
100
AcDbTrace
 10
56.91079131769789
 20
-9.250000000000003
 30
0.0
 11
58.07745798436455
 21
-9.250000000000003
 31
0.0
 12
57.4941246510312
 22
-5.750000000000006
 32
0.0
 13
57.4941246510312
 23
-5.750000000000006
 33
0.0
  0
MTEXT
  5
5671C
330
56714
100
AcDbEntity
  8
2
100
AcDbMText
 10
53.44412465103122
 20
-37.16749705974475
 30
0.0
 40
3.5
 41
0.0
 71
     5
 72
     1
  1
\A1;%%C11.5 [%%C.453"]
  7
simplex
 11
0.0000000000000001
 21
1.0
 31
0.0
 73
     1
 44
1.0
1001
ACAD
1000
MTEXTBEGIN
1070
    73
1070
     1
1070
    44
1040
1.0
1070
    74
1070
     0
1000
MTEXTEND
  0
POINT
  5
5671D
330
56714
100
AcDbEntity
  8
Defpoints
 62
     0
100
AcDbPoint
 10
64.37500299999995
 20
-5.750000000000007
 30
0.0
  0
POINT
  5
5671E
330
56714
100
AcDbEntity
  8
Defpoints
 62
     0
100
AcDbPoint
 10
64.37500299999995
 20
5.75
 30
0.0
  0
POINT
  5
5671F
330
56714
100
AcDbEntity
  8
Defpoints
 62
     0
100
AcDbPoint
 10
57.4941246510312
 20
5.75
 30
0.0
  0
ENDBLK
  5
56720
330
56714
100
AcDbEntity
  8
0
100
AcDbBlockEnd
  0
BLOCK
  5
56722
330
56721
100
AcDbEntity
  8
0
100
AcDbBlockBegin
  2
*D15
 70
     1
 10
0.0
 20
0.0
 30
0.0
  3
*D15
  1

  0
LINE
  5
56723
330
56721
100
AcDbEntity
  8
2
100
AcDbLine
 10
73.37499999999995
 20
6.000000012888586
 30
0.0
 11
96.58826305924186
 21
6.000000012888579
 31
0.0
  0
LINE
  5
56724
330
56721
100
AcDbEntity
  8
2
100
AcDbLine
 10
95.08826305924186
 20
2.500000012888579
 30
0.0
 11
95.08826305924186
 21
-5.999999984711434
 31
0.0
  0
LINE
  5
56725
330
56721
100
AcDbEntity
  8
2
100
AcDbLine
 10
95.08826305924186
 20
-5.999999984711434
 30
0.0
 11
95.08826305924186
 21
-47.93333331804475
 31
0.0
  0
SOLID
  5
56726
330
56721
100
AcDbEntity
  8
2
100
AcDbTrace
 10
94.50492972590851
 20
2.500000012888579
 30
0.0
 11
95.67159639257518
 21
2.500000012888579
 31
0.0
 12
95.08826305924186
 22
6.000000012888579
 32
0.0
 13
95.08826305924186
 23
6.000000012888579
 33
0.0
  0
MTEXT
  5
56727
330
56721
100
AcDbEntity
  8
2
100
AcDbMText
 10
91.03826305924185
 20
-28.71666665137809
 30
0.0
 40
3.5
 41
0.0
 71
     5
 72
     1
  1
\A1;%%C12 [%%c.472"]
  7
simplex
 11
0.0000000000000001
 21
1.0
 31
0.0
 73
     1
 44
1.0
1001
ACAD
1000
MTEXTBEGIN
1070
    73
1070
     1
1070
    44
1040
1.0
1070
    74
1070
     0
1000
MTEXTEND
  0
POINT
  5
56728
330
56721
100
AcDbEntity
  8
Defpoints
 62
     0
100
AcDbPoint
 10
73.37499999999995
 20
-5.999999984711427
 30
0.0
  0
POINT
  5
56729
330
56721
100
AcDbEntity
  8
Defpoints
 62
     0
100
AcDbPoint
 10
73.37499999999995
 20
6.000000012888586
 30
0.0
  0
POINT
  5
5672A
330
56721
100
AcDbEntity
  8
Defpoints
 62
     0
100
AcDbPoint
 10
95.08826305924186
 20
6.000000012888579
 30
0.0
  0
ENDBLK
  5
5672B
330
56721
100
AcDbEntity
  8
0
100
AcDbBlockEnd
  0
BLOCK
  5
5672D
330
5672C
100
AcDbEntity
  8
0
100
AcDbBlockBegin
  2
*D16
 70
     1
 10
0.0
 20
0.0
 30
0.0
  3
*D16
  1

  0
LINE
  5
5672E
330
5672C
100
AcDbEntity
  8
sk2
100
AcDbLine
 10
-87.70001300000009
 20
-6.349999483611334
 30
0.0
 11
-117.1468653179264
 21
-6.349999483611326
 31
0.0
  0
LINE
  5
5672F
330
5672C
100
AcDbEntity
  8
sk2
100
AcDbLine
 10
-87.70001300000009
 20
6.350000516388647
 30
0.0
 11
-117.1468653179264
 21
6.350000516388655
 31
0.0
  0
LINE
  5
56730
330
5672C
100
AcDbEntity
  8
sk2
100
AcDbLine
 10
-115.6468653179264
 20
2.850000516388654
 30
0.0
 11
-115.6468653179264
 21
-2.849999483611325
 31
0.0
  0
LINE
  5
56731
330
5672C
100
AcDbEntity
  8
sk2
100
AcDbLine
 10
-115.6468653179264
 20
-6.349999483611326
 30
0.0
 11
-115.6468653179264
 21
-57.87916615027796
 31
0.0
  0
SOLID
  5
56732
330
5672C
100
AcDbEntity
  8
sk2
100
AcDbTrace
 10
-116.2301986512597
 20
2.850000516388654
 30
0.0
 11
-115.0635319845931
 21
2.850000516388654
 31
0.0
 12
-115.6468653179264
 22
6.350000516388655
 32
0.0
 13
-115.6468653179264
 23
6.350000516388655
 33
0.0
  0
SOLID
  5
56733
330
5672C
100
AcDbEntity
  8
sk2
100
AcDbTrace
 10
-116.2301986512597
 20
-2.849999483611325
 30
0.0
 11
-115.0635319845931
 21
-2.849999483611325
 31
0.0
 12
-115.6468653179264
 22
-6.349999483611326
 32
0.0
 13
-115.6468653179264
 23
-6.349999483611326
 33
0.0
  0
MTEXT
  5
56734
330
5672C
100
AcDbEntity
  8
sk2
100
AcDbMText
 10
-119.6968653179264
 20
-36.91249948361135
 30
0.0
 40
3.5
 41
0.0
 71
     5
 72
     1
  1
\A1;%%c12.7 [%%c.500"]
  7
simplex
 11
0.0000000000000001
 21
1.0
 31
0.0
 73
     1
 44
0.75
1001
ACAD
1000
MTEXTBEGIN
1070
    73
1070
     1
1070
    44
1040
0.75
1070
    74
1070
     0
1000
MTEXTEND
  0
POINT
  5
56735
330
5672C
100
AcDbEntity
  8
Defpoints
 62
     0
100
AcDbPoint
 10
-87.70001300000009
 20
-6.349999483611334
 30
0.0
  0
POINT
  5
56736
330
5672C
100
AcDbEntity
  8
Defpoints
 62
     0
100
AcDbPoint
 10
-87.70001300000009
 20
6.350000516388647
 30
0.0
  0
POINT
  5
56737
330
5672C
100
AcDbEntity
  8
Defpoints
 62
     0
100
AcDbPoint
 10
-115.6468653179264
 20
6.350000516388655
 30
0.0
  0
ENDBLK
  5
56738
330
5672C
100
AcDbEntity
  8
0
100
AcDbBlockEnd
  0
BLOCK
  5
5673A
330
56739
100
AcDbEntity
  8
0
100
AcDbBlockBegin
  2
*D17
 70
     1
 10
0.0
 20
0.0
 30
0.0
  3
*D17
  1

  0
LINE
  5
5673B
330
56739
100
AcDbEntity
  8
2
100
AcDbLine
 10
79.37499960185816
 20
6.349999999999987
 30
0.0
 11
79.37499960185816
 21
41.4170452787456
 31
0.0
  0
LINE
  5
5673C
330
56739
100
AcDbEntity
  8
2
100
AcDbLine
 10
-0.0000003981417649
 20
6.349974999999978
 30
0.0
 11
-0.0000003981417627
 21
41.4170452787456
 31
0.0
  0
LINE
  5
5673D
330
56739
100
AcDbEntity
  8
2
100
AcDbLine
 10
75.87499960185819
 20
39.9170452787456
 30
0.0
 11
3.499999601858236
 21
39.9170452787456
 31
0.0
  0
SOLID
  5
5673E
330
56739
100
AcDbEntity
  8
2
100
AcDbTrace
 10
75.87499960185819
 20
40.50037861207893
 30
0.0
 11
75.87499960185819
 21
39.33371194541228
 31
0.0
 12
79.37499960185816
 22
39.9170452787456
 32
0.0
 13
79.37499960185816
 23
39.9170452787456
 33
0.0
  0
SOLID
  5
5673F
330
56739
100
AcDbEntity
  8
2
100
AcDbTrace
 10
3.499999601858236
 20
40.50037861207893
 30
0.0
 11
3.499999601858236
 21
39.33371194541228
 31
0.0
 12
-0.0000003981417628
 22
39.9170452787456
 32
0.0
 13
-0.0000003981417628
 23
39.9170452787456
 33
0.0
  0
MTEXT
  5
56740
330
56739
100
AcDbEntity
  8
2
100
AcDbMText
 10
39.68749960185821
 20
43.9670452787456
 30
0.0
 40
3.5
 41
0.0
 71
     5
 72
     1
  1
\A1;79.375 [3.125"]
  7
simplex
 73
     1
 44
1.0
1001
ACAD
1000
MTEXTBEGIN
1070
    73
1070
     1
1070
    44
1040
1.0
1070
    74
1070
     0
1000
MTEXTEND
  0
POINT
  5
56741
330
56739
100
AcDbEntity
  8
Defpoints
 62
     0
100
AcDbPoint
 10
79.37499960185816
 20
6.349999999999987
 30
0.0
  0
POINT
  5
56742
330
56739
100
AcDbEntity
  8
Defpoints
 62
     0
100
AcDbPoint
 10
-0.0000003981417649
 20
6.349974999999978
 30
0.0
  0
POINT
  5
56743
330
56739
100
AcDbEntity
  8
Defpoints
 62
     0
100
AcDbPoint
 10
-0.0000003981417628
 20
39.9170452787456
 30
0.0
  0
ENDBLK
  5
56744
330
56739
100
AcDbEntity
  8
0
100
AcDbBlockEnd
  0
BLOCK
  5
56746
330
56745
100
AcDbEntity
  8
0
100
AcDbBlockBegin
  2
*D18
 70
     1
 10
0.0
 20
0.0
 30
0.0
  3
*D18
  1

  0
LINE
  5
56747
330
56745
100
AcDbEntity
  8
sk2
100
AcDbLine
 10
-88.90000000000004
 20
5.349996016388615
 30
0.0
 11
-88.90000000000004
 21
56.02343251608181
 31
0.0
  0
LINE
  5
56748
330
56745
100
AcDbEntity
  8
sk2
100
AcDbLine
 10
79.37499999999992
 20
-0.0000154836114064
 30
0.0
 11
79.37499999999992
 21
56.02343251608181
 31
0.0
  0
LINE
  5
56749
330
56745
100
AcDbEntity
  8
sk2
100
AcDbLine
 10
-85.40000000000004
 20
54.52343251608181
 30
0.0
 11
75.87499999999995
 21
54.52343251608181
 31
0.0
  0
SOLID
  5
5674A
330
56745
100
AcDbEntity
  8
sk2
100
AcDbTrace
 10
-85.40000000000004
 20
55.10676584941514
 30
0.0
 11
-85.40000000000004
 21
53.94009918274846
 31
0.0
 12
-88.90000000000004
 22
54.52343251608181
 32
0.0
 13
-88.90000000000004
 23
54.52343251608181
 33
0.0
  0
SOLID
  5
5674B
330
56745
100
AcDbEntity
  8
sk2
100
AcDbTrace
 10
75.87499999999995
 20
55.10676584941514
 30
0.0
 11
75.87499999999995
 21
53.94009918274846
 31
0.0
 12
79.37499999999992
 22
54.52343251608181
 32
0.0
 13
79.37499999999992
 23
54.52343251608181
 33
0.0
  0
MTEXT
  5
5674C
330
56745
100
AcDbEntity
  8
sk2
100
AcDbMText
 10
-4.762496999999996
 20
58.57343251608181
 30
0.0
 40
3.5
 41
0.0
 71
     5
 72
     1
  1
\A1;168.275 [6.625"]
  7
simplex
 73
     1
 44
0.892857
1001
ACAD
1000
MTEXTBEGIN
1070
    73
1070
     1
1070
    44
1040
0.892857
1070
    74
1070
     0
1000
MTEXTEND
  0
POINT
  5
5674D
330
56745
100
AcDbEntity
  8
Defpoints
 62
     0
100
AcDbPoint
 10
-88.90000000000004
 20
5.349996016388615
 30
0.0
  0
POINT
  5
5674E
330
56745
100
AcDbEntity
  8
Defpoints
 62
     0
100
AcDbPoint
 10
79.37499999999992
 20
-0.0000154836114064
 30
0.0
  0
POINT
  5
5674F
330
56745
100
AcDbEntity
  8
Defpoints
 62
     0
100
AcDbPoint
 10
79.37499999999992
 20
54.52343251608181
 30
0.0
  0
ENDBLK
  5
56750
330
56745
100
AcDbEntity
  8
0
100
AcDbBlockEnd
  0
BLOCK
  5
56752
330
56751
100
AcDbEntity
  8
0
100
AcDbBlockBegin
  2
*D19
 70
     1
 10
0.0
 20
0.0
 30
0.0
  3
*D19
  1

  0
LINE
  5
56753
330
56751
100
AcDbEntity
  8
2
100
AcDbLine
 10
109.5963743893994
 20
33.14848470789363
 30
0.0
 11
80.38320889407916
 21
6.413657950590184
 31
0.0
  0
MTEXT
  5
56754
330
56751
100
AcDbEntity
  8
2
100
AcDbMText
 10
93.54653384501537
 20
23.95024474038657
 30
0.0
 40
3.5
 41
0.0
 71
     5
 72
     1
  1
\A1;R6 [R.236"]
  7
simplex
 11
0.7377061993767749
 21
0.6751218878106933
 31
0.0
 73
     1
 44
1.0
1001
ACAD
1000
MTEXTBEGIN
1070
    73
1070
     1
1070
    44
1040
1.0
1070
    74
1070
     0
1000
MTEXTEND
  0
SOLID
  5
56755
330
56751
100
AcDbEntity
  8
2
100
AcDbTrace
 10
79.98938779285625
 20
6.843986566893298
 30
0.0
 11
80.77702999530208
 21
5.983329334287063
 31
0.0
 12
77.80123719626043
 22
4.050731343252756
 32
0.0
 13
77.80123719626043
 23
4.050731343252756
 33
0.0
  0
LINE
  5
56756
330
56751
100
AcDbEntity
  8
2
100
AcDbLine
 10
73.28499999999976
 20
0.0000000163885758
 30
0.0
 11
73.46499999999976
 21
0.0000000163885687
 31
0.0
  0
LINE
  5
56757
330
56751
100
AcDbEntity
  8
2
100
AcDbLine
 10
73.37499999999976
 20
-0.0899999836114276
 30
0.0
 11
73.37499999999976
 21
0.0900000163885651
 31
0.0
  0
POINT
  5
56758
330
56751
100
AcDbEntity
  8
Defpoints
 62
     0
100
AcDbPoint
 10
77.80123719626043
 20
4.050731343252756
 30
0.0
  0
POINT
  5
56759
330
56751
100
AcDbEntity
  8
Defpoints
 62
     0
100
AcDbPoint
 10
73.37499999999976
 20
0.0000000163885758
 30
0.0
  0
ENDBLK
  5
5675A
330
56751
100
AcDbEntity
  8
0
100
AcDbBlockEnd
  0
BLOCK
  5
56847
330
5683C
100
AcDbEntity
  8
0
100
AcDbBlockBegin
  2
*D21
 70
     1
 10
0.0
 20
0.0
 30
0.0
  3
*D21
  1

  0
LINE
  5
56890
330
5683C
100
AcDbEntity
  8
2
100
AcDbLine
 10
158.5247449953205
 20
-163.9687499249078
 30
0.0
 11
158.5247449953205
 21
-142.6271795540796
 31
0.0
  0
LINE
  5
56891
330
5683C
100
AcDbEntity
  8
2
100
AcDbLine
 10
173.5247449953204
 20
-152.1141359249079
 30
0.0
 11
173.5247449953204
 21
-142.6271795540796
 31
0.0
  0
LINE
  5
56892
330
5683C
100
AcDbEntity
  8
2
100
AcDbLine
 10
170.0247449953204
 20
-144.1271795540796
 30
0.0
 11
162.0247449953204
 21
-144.1271795540796
 31
0.0
  0
LINE
  5
56893
330
5683C
100
AcDbEntity
  8
2
100
AcDbLine
 10
158.5247449953205
 20
-144.1271795540796
 30
0.0
 11
124.7580783286538
 21
-144.1271795540796
 31
0.0
  0
SOLID
  5
56894
330
5683C
100
AcDbEntity
  8
2
100
AcDbTrace
 10
170.0247449953204
 20
-143.5438462207462
 30
0.0
 11
170.0247449953204
 21
-144.7105128874129
 31
0.0
 12
173.5247449953204
 22
-144.1271795540796
 32
0.0
 13
173.5247449953204
 23
-144.1271795540796
 33
0.0
  0
SOLID
  5
56895
330
5683C
100
AcDbEntity
  8
2
100
AcDbTrace
 10
162.0247449953204
 20
-143.5438462207462
 30
0.0
 11
162.0247449953204
 21
-144.7105128874129
 31
0.0
 12
158.5247449953205
 22
-144.1271795540796
 32
0.0
 13
158.5247449953205
 23
-144.1271795540796
 33
0.0
  0
MTEXT
  5
56896
330
5683C
100
AcDbEntity
  8
2
100
AcDbMText
 10
139.8914116619871
 20
-140.0771795540796
 30
0.0
 40
3.5
 41
0.0
 71
     5
 72
     1
  1
\A1;15 [.591"]
  7
simplex
 73
     1
 44
0.892857
1001
ACAD
1000
MTEXTBEGIN
1070
    73
1070
     1
1070
    44
1040
0.892857
1070
    74
1070
     0
1000
MTEXTEND
  0
POINT
  5
56897
330
5683C
100
AcDbEntity
  8
Defpoints
 62
     0
100
AcDbPoint
 10
158.5247449953205
 20
-163.9687499249078
 30
0.0
  0
POINT
  5
56898
330
5683C
100
AcDbEntity
  8
Defpoints
 62
     0
100
AcDbPoint
 10
173.5247449953204
 20
-152.1141359249079
 30
0.0
  0
POINT
  5
56899
330
5683C
100
AcDbEntity
  8
Defpoints
 62
     0
100
AcDbPoint
 10
173.5247449953204
 20
-144.1271795540796
 30
0.0
  0
ENDBLK
  5
56848
330
5683C
100
AcDbEntity
  8
0
100
AcDbBlockEnd
  0
BLOCK
  5
56852
330
56849
100
AcDbEntity
  8
0
100
AcDbBlockBegin
  2
*D22
 70
     1
 10
0.0
 20
0.0
 30
0.0
  3
*D22
  1

  0
LINE
  5
5689A
330
56849
100
AcDbEntity
  8
2
100
AcDbLine
 10
167.5247499953204
 20
-163.7187499120192
 30
0.0
 11
190.7380130545623
 21
-163.7187499120192
 31
0.0
  0
LINE
  5
5689B
330
56849
100
AcDbEntity
  8
2
100
AcDbLine
 10
189.2380130545623
 20
-167.2187499120192
 30
0.0
 11
189.2380130545623
 21
-175.7187499096192
 31
0.0
  0
LINE
  5
5689C
330
56849
100
AcDbEntity
  8
2
100
AcDbLine
 10
189.2380130545623
 20
-175.7187499096192
 30
0.0
 11
189.2380130545623
 21
-217.6520832429526
 31
0.0
  0
SOLID
  5
5689D
330
56849
100
AcDbEntity
  8
2
100
AcDbTrace
 10
188.6546797212289
 20
-167.2187499120192
 30
0.0
 11
189.8213463878956
 21
-167.2187499120192
 31
0.0
 12
189.2380130545623
 22
-163.7187499120192
 32
0.0
 13
189.2380130545623
 23
-163.7187499120192
 33
0.0
  0
MTEXT
  5
5689E
330
56849
100
AcDbEntity
  8
2
100
AcDbMText
 10
185.1880130545623
 20
-198.4354165762859
 30
0.0
 40
3.5
 41
0.0
 71
     5
 72
     1
  1
\A1;%%C12 [%%c.472"]
  7
simplex
 11
0.0000000000000001
 21
1.0
 31
0.0
 73
     1
 44
1.0
1001
ACAD
1000
MTEXTBEGIN
1070
    73
1070
     1
1070
    44
1040
1.0
1070
    74
1070
     0
1000
MTEXTEND
  0
POINT
  5
5689F
330
56849
100
AcDbEntity
  8
Defpoints
 62
     0
100
AcDbPoint
 10
167.5247499953204
 20
-175.7187499096192
 30
0.0
  0
POINT
  5
568A0
330
56849
100
AcDbEntity
  8
Defpoints
 62
     0
100
AcDbPoint
 10
167.5247499953204
 20
-163.7187499120192
 30
0.0
  0
POINT
  5
568A1
330
56849
100
AcDbEntity
  8
Defpoints
 62
     0
100
AcDbPoint
 10
189.2380130545623
 20
-163.7187499120192
 30
0.0
  0
ENDBLK
  5
56853
330
56849
100
AcDbEntity
  8
0
100
AcDbBlockEnd
  0
BLOCK
  5
5685E
330
56854
100
AcDbEntity
  8
0
100
AcDbBlockBegin
  2
*D23
 70
     1
 10
0.0
 20
0.0
 30
0.0
  3
*D23
  1

  0
LINE
  5
56901
330
56854
100
AcDbEntity
  8
sk2
100
AcDbLine
 10
-88.89999960185827
 20
5.349995983611336
 30
0.0
 11
-88.89999960185827
 21
56.02343248330453
 31
0.0
  0
LINE
  5
56902
330
56854
100
AcDbEntity
  8
sk2
100
AcDbLine
 10
79.37500039814171
 20
-0.0000155163886859
 30
0.0
 11
79.37500039814171
 21
56.02343248330453
 31
0.0
  0
LINE
  5
56903
330
56854
100
AcDbEntity
  8
sk2
100
AcDbLine
 10
-85.39999960185827
 20
54.52343248330453
 30
0.0
 11
75.8750003981417
 21
54.52343248330453
 31
0.0
  0
SOLID
  5
56904
330
56854
100
AcDbEntity
  8
sk2
100
AcDbTrace
 10
-85.39999960185827
 20
55.10676581663787
 30
0.0
 11
-85.39999960185827
 21
53.9400991499712
 31
0.0
 12
-88.89999960185827
 22
54.52343248330453
 32
0.0
 13
-88.89999960185827
 23
54.52343248330453
 33
0.0
  0
SOLID
  5
56905
330
56854
100
AcDbEntity
  8
sk2
100
AcDbTrace
 10
75.8750003981417
 20
55.10676581663787
 30
0.0
 11
75.8750003981417
 21
53.9400991499712
 31
0.0
 12
79.37500039814171
 22
54.52343248330453
 32
0.0
 13
79.37500039814171
 23
54.52343248330453
 33
0.0
  0
MTEXT
  5
56906
330
56854
100
AcDbEntity
  8
sk2
100
AcDbMText
 10
-4.762496601858231
 20
58.57343248330453
 30
0.0
 40
3.5
 41
0.0
 71
     5
 72
     1
  1
\A1;168.275 [6.625"]
  7
simplex
 73
     1
 44
0.892857
1001
ACAD
1000
MTEXTBEGIN
1070
    73
1070
     1
1070
    44
1040
0.892857
1070
    74
1070
     0
1000
MTEXTEND
  0
POINT
  5
56907
330
56854
100
AcDbEntity
  8
Defpoints
 62
     0
100
AcDbPoint
 10
-88.89999960185827
 20
5.349995983611336
 30
0.0
  0
POINT
  5
56908
330
56854
100
AcDbEntity
  8
Defpoints
 62
     0
100
AcDbPoint
 10
79.37500039814171
 20
-0.0000155163886859
 30
0.0
  0
POINT
  5
56909
330
56854
100
AcDbEntity
  8
Defpoints
 62
     0
100
AcDbPoint
 10
79.37500039814171
 20
54.52343248330453
 30
0.0
  0
ENDBLK
  5
5685F
330
56854
100
AcDbEntity
  8
0
100
AcDbBlockEnd
  0
BLOCK
  5
5686B
330
56860
100
AcDbEntity
  8
0
100
AcDbBlockBegin
  2
*D24
 70
     1
 10
0.0
 20
0.0
 30
0.0
  3
*D24
  1

  0
LINE
  5
5690A
330
56860
100
AcDbEntity
  8
sk2
100
AcDbLine
 10
-87.70001260185834
 20
-6.349999516388606
 30
0.0
 11
-117.1468649197846
 21
-6.349999516388598
 31
0.0
  0
LINE
  5
5690B
330
56860
100
AcDbEntity
  8
sk2
100
AcDbLine
 10
-87.70001260185834
 20
6.350000483611381
 30
0.0
 11
-117.1468649197846
 21
6.350000483611389
 31
0.0
  0
LINE
  5
5690C
330
56860
100
AcDbEntity
  8
sk2
100
AcDbLine
 10
-115.6468649197846
 20
2.850000483611389
 30
0.0
 11
-115.6468649197846
 21
-2.849999516388598
 31
0.0
  0
LINE
  5
5690D
330
56860
100
AcDbEntity
  8
sk2
100
AcDbLine
 10
-115.6468649197846
 20
-6.349999516388598
 30
0.0
 11
-115.6468649197846
 21
-57.87916618305527
 31
0.0
  0
SOLID
  5
5690E
330
56860
100
AcDbEntity
  8
sk2
100
AcDbTrace
 10
-116.230198253118
 20
2.850000483611389
 30
0.0
 11
-115.0635315864513
 21
2.850000483611389
 31
0.0
 12
-115.6468649197846
 22
6.350000483611389
 32
0.0
 13
-115.6468649197846
 23
6.350000483611389
 33
0.0
  0
SOLID
  5
5690F
330
56860
100
AcDbEntity
  8
sk2
100
AcDbTrace
 10
-116.230198253118
 20
-2.849999516388598
 30
0.0
 11
-115.0635315864513
 21
-2.849999516388598
 31
0.0
 12
-115.6468649197846
 22
-6.349999516388598
 32
0.0
 13
-115.6468649197846
 23
-6.349999516388598
 33
0.0
  0
MTEXT
  5
56910
330
56860
100
AcDbEntity
  8
sk2
100
AcDbMText
 10
-119.6968649197846
 20
-36.91249951638864
 30
0.0
 40
3.5
 41
0.0
 71
     5
 72
     1
  1
\A1;%%c12.7 [%%c.500"]
  7
simplex
 11
0.0000000000000001
 21
1.0
 31
0.0
 73
     1
 44
0.75
1001
ACAD
1000
MTEXTBEGIN
1070
    73
1070
     1
1070
    44
1040
0.75
1070
    74
1070
     0
1000
MTEXTEND
  0
POINT
  5
56911
330
56860
100
AcDbEntity
  8
Defpoints
 62
     0
100
AcDbPoint
 10
-87.70001260185834
 20
-6.349999516388606
 30
0.0
  0
POINT
  5
56912
330
56860
100
AcDbEntity
  8
Defpoints
 62
     0
100
AcDbPoint
 10
-87.70001260185834
 20
6.350000483611381
 30
0.0
  0
POINT
  5
56913
330
56860
100
AcDbEntity
  8
Defpoints
 62
     0
100
AcDbPoint
 10
-115.6468649197846
 20
6.350000483611389
 30
0.0
  0
ENDBLK
  5
5686C
330
56860
100
AcDbEntity
  8
0
100
AcDbBlockEnd
  0
BLOCK
  5
56877
330
5686D
100
AcDbEntity
  8
0
100
AcDbBlockBegin
  2
*D25
 70
     1
 10
0.0
 20
0.0
 30
0.0
  3
*D25
  1

  0
LINE
  5
56914
330
5686D
100
AcDbEntity
  8
2
100
AcDbLine
 10
79.37499999999994
 20
6.349999967222714
 30
0.0
 11
79.37499999999994
 21
41.41704524596832
 31
0.0
  0
LINE
  5
56915
330
5686D
100
AcDbEntity
  8
2
100
AcDbLine
 10
0.0
 20
6.349974967222692
 30
0.0
 11
0.0000000000000021
 21
41.41704524596832
 31
0.0
  0
LINE
  5
56916
330
5686D
100
AcDbEntity
  8
2
100
AcDbLine
 10
75.87499999999995
 20
39.91704524596833
 30
0.0
 11
3.500000000000002
 21
39.91704524596833
 31
0.0
  0
SOLID
  5
56917
330
5686D
100
AcDbEntity
  8
2
100
AcDbTrace
 10
75.87499999999995
 20
40.50037857930166
 30
0.0
 11
75.87499999999995
 21
39.33371191263499
 31
0.0
 12
79.37499999999994
 22
39.91704524596833
 32
0.0
 13
79.37499999999994
 23
39.91704524596833
 33
0.0
  0
SOLID
  5
56918
330
5686D
100
AcDbEntity
  8
2
100
AcDbTrace
 10
3.500000000000002
 20
40.50037857930166
 30
0.0
 11
3.500000000000002
 21
39.33371191263499
 31
0.0
 12
0.0000000000000021
 22
39.91704524596833
 32
0.0
 13
0.0000000000000021
 23
39.91704524596833
 33
0.0
  0
MTEXT
  5
56919
330
5686D
100
AcDbEntity
  8
2
100
AcDbMText
 10
39.68749999999997
 20
43.96704524596832
 30
0.0
 40
3.5
 41
0.0
 71
     5
 72
     1
  1
\A1;79.375 [3.125"]
  7
simplex
 73
     1
 44
1.0
1001
ACAD
1000
MTEXTBEGIN
1070
    73
1070
     1
1070
    44
1040
1.0
1070
    74
1070
     0
1000
MTEXTEND
  0
POINT
  5
5691A
330
5686D
100
AcDbEntity
  8
Defpoints
 62
     0
100
AcDbPoint
 10
79.37499999999994
 20
6.349999967222714
 30
0.0
  0
POINT
  5
5691B
330
5686D
100
AcDbEntity
  8
Defpoints
 62
     0
100
AcDbPoint
 10
0.0
 20
6.349974967222692
 30
0.0
  0
POINT
  5
5691C
330
5686D
100
AcDbEntity
  8
Defpoints
 62
     0
100
AcDbPoint
 10
0.0000000000000021
 20
39.91704524596833
 30
0.0
  0
ENDBLK
  5
56878
330
5686D
100
AcDbEntity
  8
0
100
AcDbBlockEnd
  0
BLOCK
  5
56881
330
56879
100
AcDbEntity
  8
0
100
AcDbBlockBegin
  2
*D26
 70
     1
 10
0.0
 20
0.0
 30
0.0
  3
*D26
  1

  0
LINE
  5
568BE
330
56879
100
AcDbEntity
  8
2
100
AcDbLine
 10
203.7461243847199
 20
-136.5702652170141
 30
0.0
 11
174.5329588893996
 21
-163.3050919743176
 31
0.0
  0
MTEXT
  5
568BF
330
56879
100
AcDbEntity
  8
2
100
AcDbMText
 10
187.6962838403357
 20
-145.7685051845212
 30
0.0
 40
3.5
 41
0.0
 71
     5
 72
     1
  1
\A1;R6 [R.236"]
  7
simplex
 11
0.7377061993767739
 21
0.6751218878106942
 31
0.0
 73
     1
 44
1.0
1001
ACAD
1000
MTEXTBEGIN
1070
    73
1070
     1
1070
    44
1040
1.0
1070
    74
1070
     0
1000
MTEXTEND
  0
SOLID
  5
568C0
330
56879
100
AcDbEntity
  8
2
100
AcDbTrace
 10
174.1391377881767
 20
-162.8747633580145
 30
0.0
 11
174.9267799906225
 21
-163.7354205906207
 31
0.0
 12
171.9509871915809
 22
-165.668018581655
 32
0.0
 13
171.9509871915809
 23
-165.668018581655
 33
0.0
  0
LINE
  5
568C1
330
56879
100
AcDbEntity
  8
2
100
AcDbLine
 10
167.4347499953202
 20
-169.7187499085192
 30
0.0
 11
167.6147499953202
 21
-169.7187499085192
 31
0.0
  0
LINE
  5
568C2
330
56879
100
AcDbEntity
  8
2
100
AcDbLine
 10
167.5247499953202
 20
-169.8087499085192
 30
0.0
 11
167.5247499953202
 21
-169.6287499085192
 31
0.0
  0
POINT
  5
568C3
330
56879
100
AcDbEntity
  8
Defpoints
 62
     0
100
AcDbPoint
 10
171.9509871915809
 20
-165.668018581655
 30
0.0
  0
POINT
  5
568C4
330
56879
100
AcDbEntity
  8
Defpoints
 62
     0
100
AcDbPoint
 10
167.5247499953202
 20
-169.7187499085192
 30
0.0
  0
ENDBLK
  5
56882
330
56879
100
AcDbEntity
  8
0
100
AcDbBlockEnd
  0
BLOCK
  5
5688E
330
56883
100
AcDbEntity
  8
0
100
AcDbBlockBegin
  2
*D27
 70
     1
 10
0.0
 20
0.0
 30
0.0
  3
*D27
  1

  0
LINE
  5
56884
330
56883
100
AcDbEntity
  8
2
100
AcDbLine
 10
158.5247529953204
 20
-175.4687499249078
 30
0.0
 11
150.1438746463516
 21
-175.4687499249078
 31
0.0
  0
LINE
  5
56885
330
56883
100
AcDbEntity
  8
2
100
AcDbLine
 10
158.5247529953204
 20
-163.9687499249078
 30
0.0
 11
150.1438746463516
 21
-163.9687499249078
 31
0.0
  0
LINE
  5
56886
330
56883
100
AcDbEntity
  8
2
100
AcDbLine
 10
151.6438746463516
 20
-160.4687499249078
 30
0.0
 11
151.6438746463516
 21
-156.9687499249078
 31
0.0
  0
LINE
  5
56887
330
56883
100
AcDbEntity
  8
2
100
AcDbLine
 10
151.6438746463516
 20
-178.9687499249078
 30
0.0
 11
151.6438746463516
 21
-227.8529136513192
 31
0.0
  0
SOLID
  5
56888
330
56883
100
AcDbEntity
  8
2
100
AcDbTrace
 10
151.0605413130183
 20
-160.4687499249078
 30
0.0
 11
152.227207979685
 21
-160.4687499249078
 31
0.0
 12
151.6438746463516
 22
-163.9687499249078
 32
0.0
 13
151.6438746463516
 23
-163.9687499249078
 33
0.0
  0
SOLID
  5
56889
330
56883
100
AcDbEntity
  8
2
100
AcDbTrace
 10
151.0605413130183
 20
-178.9687499249078
 30
0.0
 11
152.227207979685
 21
-178.9687499249078
 31
0.0
 12
151.6438746463516
 22
-175.4687499249078
 32
0.0
 13
151.6438746463516
 23
-175.4687499249078
 33
0.0
  0
MTEXT
  5
5688A
330
56883
100
AcDbEntity
  8
2
100
AcDbMText
 10
147.5938746463516
 20
-206.8862469846525
 30
0.0
 40
3.5
 41
0.0
 71
     5
 72
     1
  1
\A1;%%C11.5 [%%C.453"]
  7
simplex
 11
0.0000000000000001
 21
1.0
 31
0.0
 73
     1
 44
1.0
1001
ACAD
1000
MTEXTBEGIN
1070
    73
1070
     1
1070
    44
1040
1.0
1070
    74
1070
     0
1000
MTEXTEND
  0
POINT
  5
5688B
330
56883
100
AcDbEntity
  8
Defpoints
 62
     0
100
AcDbPoint
 10
158.5247529953204
 20
-175.4687499249078
 30
0.0
  0
POINT
  5
5688C
330
56883
100
AcDbEntity
  8
Defpoints
 62
     0
100
AcDbPoint
 10
158.5247529953204
 20
-163.9687499249078
 30
0.0
  0
POINT
  5
5688D
330
56883
100
AcDbEntity
  8
Defpoints
 62
     0
100
AcDbPoint
 10
151.6438746463516
 20
-163.9687499249078
 30
0.0
  0
ENDBLK
  5
5688F
330
56883
100
AcDbEntity
  8
0
100
AcDbBlockEnd
  0
ENDSEC
  0
SECTION
  2
ENTITIES
  0
INSERT
  5
68C
330
1F
100
AcDbEntity
  8
0
100
AcDbBlockReference
  2
zero block
 10
0.0
 20
0.0
 30
0.0
  0
MTEXT
  5
53AD9
330
1F
100
AcDbEntity
  8
sk6
100
AcDbMText
 10
-87.16922566791504
 20
84.56961532674586
 30
0.0
 40
5.0
 41
70.03712541027798
 71
     1
 72
     5
  1
SRFU08S08LW\PSUFT12R20
  7
simplex
 73
     1
 44
1.0
1001
ACAD
1000
ACAD_MTEXT_DEFINED_HEIGHT_BEGIN
1070
    46
1040
0.0
1000
ACAD_MTEXT_DEFINED_HEIGHT_END
1000
MTEXTBEGIN
1070
    73
1070
     1
1070
    44
1040
1.0
1070
    74
1070
     0
1000
MTEXTEND
  0
SPLINE
  5
563C8
330
1F
100
AcDbEntity
  8
1
100
AcDbSpline
210
0.0
220
0.0
230
1.0
 70
     8
 71
     3
 72
    10
 73
     6
 74
     4
 42
0.0000000001
 43
0.0000000001
 44
0.000001
 12
0.9650356897166268
 22
-0.2621185181805258
 32
0.0
 13
0.9223637646072724
 23
-0.3863225151858227
 33
0.0
 40
0.0
 40
0.0
 40
0.0
 40
0.0
 40
0.7640390058029346
 40
1.533174933640704
 40
2.300551820622069
 40
2.300551820622069
 40
2.300551820622069
 40
2.300551820622069
 10
71.20068658564169
 20
4.608642087126894
 30
0.0
 10
71.44646155528684
 20
4.541885829782499
 30
0.0
 10
71.93680906940146
 20
4.397213087190335
 30
0.0
 10
72.66256324006558
 20
4.148852408373735
 30
0.0
 10
73.13940514046819
 20
3.961366660151597
 30
0.0
 10
73.37533868525111
 20
3.862548337126895
 30
0.0
 11
71.20068658564169
 21
4.608642087126894
 31
0.0
 11
71.93352044794636
 21
4.392516598845759
 31
0.0
 11
72.66114343378628
 21
4.143249020720701
 31
0.0
 11
73.37533868525111
 21
3.862548337126895
 31
0.0
  0
SPLINE
  5
563C9
330
1F
100
AcDbEntity
  8
1
100
AcDbSpline
210
0.0
220
0.0
230
1.0
 70
     8
 71
     3
 72
     8
 73
     4
 74
     0
 42
0.0000000001
 43
0.0000000001
 40
0.0
 40
0.0
 40
0.0
 40
0.0
 40
0.5463012196666999
 40
0.5463012196666999
 40
0.5463012196666999
 40
0.5463012196666999
 10
68.84198297236044
 20
5.195189938689452
 30
0.0
 10
69.01999494608886
 20
5.156819438601046
 30
0.0
 10
69.19771158800149
 20
5.117049462489005
 30
0.0
 10
69.37505208963957
 20
5.075677700237719
 30
0.0
  0
SPLINE
  5
563CA
330
1F
100
AcDbEntity
  8
1
100
AcDbSpline
210
0.0
220
0.0
230
1.0
 70
     8
 71
     3
 72
    11
 73
     7
 74
     0
 42
0.0000000001
 43
0.0000000001
 40
0.5463012196666999
 40
0.5463012196666999
 40
0.5463012196666999
 40
0.5463012196666999
 40
0.572560241578073
 40
1.173774481261014
 40
1.794959738262245
 40
2.430813038627595
 40
2.430813038627595
 40
2.430813038627595
 40
2.430813038627595
 10
69.37505208963957
 20
5.075677700237719
 30
0.0
 10
69.38357630293189
 20
5.073689086681013
 30
0.0
 10
69.5872461361875
 20
5.026081677667491
 30
0.0
 10
69.99154712820025
 20
4.927113284584264
 30
0.0
 10
70.59140106686602
 20
4.772636719275965
 30
0.0
 10
70.99620858264525
 20
4.664427525490339
 30
0.0
 10
71.20068658564169
 20
4.608642087126894
 30
0.0
  0
SPLINE
  5
563CB
330
1F
100
AcDbEntity
  8
1
100
AcDbSpline
210
0.0
220
0.0
230
1.0
 70
     8
 71
     3
 72
    10
 73
     6
 74
     4
 42
0.0000000001
 43
0.0000000001
 44
0.000001
 12
0.9992380131607138
 22
-0.0390306681294253
 32
0.0
 13
0.9845565048197173
 23
-0.1750670980429567
 33
0.0
 40
0.0
 40
0.0
 40
0.0
 40
0.0
 40
0.1835697298275759
 40
0.3982883990865258
 40
0.6372284438358128
 40
0.6372284438358128
 40
0.6372284438358128
 40
0.6372284438358128
 10
67.64740289423551
 20
5.380095944548827
 30
0.0
 10
67.70854617827196
 20
5.37770766148099
 30
0.0
 10
67.84114505721834
 20
5.369395448887281
 30
0.0
 10
68.05185705670175
 20
5.341915246784997
 30
0.0
 10
68.2012951957565
 20
5.318661039993581
 30
0.0
 10
68.27971185419643
 20
5.304717526580077
 30
0.0
 11
67.64740289423551
 21
5.380095944548827
 31
0.0
 11
67.83058465693082
 21
5.368163571501952
 31
0.0
 11
68.04371942255582
 21
5.342132077361327
 31
0.0
 11
68.27971185419643
 21
5.304717526580077
 31
0.0
  0
SPLINE
  5
563CC
330
1F
100
AcDbEntity
  8
1
100
AcDbSpline
210
0.0
220
0.0
230
1.0
 70
     8
 71
     3
 72
    21
 73
    17
 74
    15
 42
0.0000000001
 43
0.0000000001
 44
0.000001
 12
0.9216785663988003
 22
-0.3879544048481113
 32
0.0
 13
0.5206995909959633
 23
-0.8537399697429169
 33
0.0
 40
0.0
 40
0.0
 40
0.0
 40
0.0
 40
0.5301214347112503
 40
1.077157433463652
 40
1.632485665366786
 40
2.21383589319693
 40
2.795841884737329
 40
3.368614964653478
 40
3.928005971472934
 40
4.468702204198076
 40
4.980169212353196
 40
5.443678419843731
 40
5.869089330858205
 40
6.246455752011031
 40
6.49842454304168
 40
6.716659330773357
 40
6.716659330773357
 40
6.716659330773357
 40
6.716659330773357
 10
73.37533868525111
 20
3.862548337126895
 30
0.0
 10
73.53820587323844
 20
3.793994021893351
 30
0.0
 10
73.86611376048627
 20
3.647364925818361
 30
0.0
 10
74.35219679510762
 20
3.402360691206786
 30
0.0
 10
74.84203379464791
 20
3.128027054760475
 30
0.0
 10
75.32845012002626
 20
2.824967191862854
 30
0.0
 10
75.80577020659418
 20
2.497436480789431
 30
0.0
 10
76.26260160958984
 20
2.153910531259056
 30
0.0
 10
76.69280259165808
 20
1.798850092527206
 30
0.0
 10
77.09251261073913
 20
1.43973714202731
 30
0.0
 10
77.45397779373735
 20
1.086529209554454
 30
0.0
 10
77.77343997172962
 20
0.7459834623306565
 30
0.0
 10
78.04919997638603
 20
0.4262484311715005
 30
0.0
 10
78.26666342032506
 20
0.1498186814050939
 30
0.0
 10
78.4311432590046
 20
-0.0800135104718737
 30
0.0
 10
78.51560679265148
 20
-0.2121261943376662
 30
0.0
 10
78.55348504755579
 20
-0.2742314480292975
 30
0.0
 11
73.37533868525111
 21
3.862548337126895
 31
0.0
 11
73.85922540400112
 21
3.646026120330063
 31
0.0
 11
74.34787286493862
 21
3.400115475798813
 31
0.0
 11
74.83231652948941
 21
3.128631100798813
 31
0.0
 11
75.32591546747768
 21
2.821502194548813
 31
0.0
 11
75.80583490107144
 21
2.492248044158144
 31
0.0
 11
76.26346124384487
 21
2.147796139861327
 31
0.0
 11
76.6950103161105
 21
1.791869626189451
 31
0.0
 11
77.0971099254855
 21
1.430388913298826
 31
0.0
 11
77.46263421747769
 21
1.072631344939438
 31
0.0
 11
77.77962793085659
 21
0.7344660617363275
 31
0.0
 11
78.0570479748019
 21
0.4119562961113276
 31
0.0
 11
78.28977502558315
 21
0.1148981906425632
 31
0.0
 11
78.43574060175503
 21
-0.0904851101386868
 31
0.0
 11
78.55348504755579
 21
-0.2742314480292975
 31
0.0
  0
SPLINE
  5
563CD
330
1F
100
AcDbEntity
  8
1
100
AcDbSpline
210
0.0
220
0.0
230
1.0
 70
     8
 71
     3
 72
    21
 73
    17
 74
    15
 42
0.0000000001
 43
0.0000000001
 44
0.000001
 12
0.999999013931181
 22
0.001404327834146
 32
0.0
 13
0.0541299792816777
 23
0.9985338979438632
 33
0.0
 40
0.0
 40
0.0
 40
0.0
 40
0.0
 40
0.5827374161316014
 40
1.167328770258606
 40
1.750052980559765
 40
2.332800278349662
 40
2.917386152526681
 40
3.500121267031759
 40
4.082791390541649
 40
4.667323391609659
 40
5.250003556959745
 40
5.832335799914082
 40
6.416519186882974
 40
6.998857841921573
 40
7.424561447293663
 40
7.850297666896677
 40
7.850297666896677
 40
7.850297666896677
 40
7.850297666896677
 10
73.37533868525111
 20
-5.167236819123103
 30
0.0
 10
73.56958429908857
 20
-5.166964034331946
 30
0.0
 10
73.95902861558409
 20
-5.144900595006124
 30
0.0
 10
74.53519759716946
 20
-5.046600797133714
 30
0.0
 10
75.09710973251336
 20
-4.885255996898376
 30
0.0
 10
75.63669879928571
 20
-4.660277141107711
 30
0.0
 10
76.1479835776051
 20
-4.376968704815395
 30
0.0
 10
76.62471926385444
 20
-4.038635359691832
 30
0.0
 10
77.05941414254998
 20
-3.647785257286331
 30
0.0
 10
77.44798540553339
 20
-3.211184274093431
 30
0.0
 10
77.78568797215851
 20
-2.734184723295133
 30
0.0
 10
78.06625627218986
 20
-2.221623261405718
 30
0.0
 10
78.28810656448225
 20
-1.681268355988722
 30
0.0
 10
78.4339038304864
 20
-1.169687389665035
 30
0.0
 10
78.5187174139252
 20
-0.6988422540280411
 30
0.0
 10
78.54580334997361
 20
-0.4159354636479918
 30
0.0
 10
78.55348504755579
 20
-0.2742314480292975
 30
0.0
 11
73.37533868525111
 21
-5.167236819123103
 31
0.0
 11
73.95713342402065
 21
-5.134094729279296
 31
0.0
 11
74.53342736933315
 21
-5.035950198029296
 31
0.0
 11
75.09338678095424
 21
-4.874664797638671
 31
0.0
 11
75.63142694208704
 21
-4.650818362091796
 31
0.0
 11
76.14274896357144
 21
-4.367462649201171
 31
0.0
 11
76.61773980829799
 21
-4.029877199982365
 31
0.0
 11
77.05128778193079
 21
-3.640594973419922
 31
0.0
 11
77.43989862177454
 21
-3.203949465607422
 31
0.0
 11
77.77624810907925
 21
-2.728149905060547
 31
0.0
 11
78.05620874140346
 21
-2.217529787873103
 31
0.0
 11
78.2780181286105
 21
-1.677093996857421
 31
0.0
 11
78.43734277460659
 21
-1.116974367951172
 31
0.0
 11
78.51289666864954
 21
-0.6980290554511726
 31
0.0
 11
78.55348504755579
 21
-0.2742314480292975
 31
0.0
  0
ARC
  5
563CE
330
1F
100
AcDbEntity
  8
1
100
AcDbCircle
 10
73.37533839814177
 20
-0.0000000163886398
 30
0.0
 40
2.5
100
AcDbArc
 50
89.99999699999904
 51
180.0
  0
ARC
  5
563CF
330
1F
100
AcDbEntity
  8
1
100
AcDbCircle
 10
73.37533839814177
 20
-0.0000000163886398
 30
0.0
 40
2.5
100
AcDbArc
 50
180.0
 51
270.0000029999977
  0
ARC
  5
563D0
330
1F
100
AcDbEntity
  8
1
100
AcDbCircle
 10
73.37533839814177
 20
-0.0000000163886398
 30
0.0
 40
2.5
100
AcDbArc
 50
270.0000029999977
 51
0.0000049999988748
  0
ARC
  5
563D1
330
1F
100
AcDbEntity
  8
1
100
AcDbCircle
 10
73.37533839814177
 20
-0.0000000163886398
 30
0.0
 40
2.5
100
AcDbArc
 50
359.9999949999995
 51
89.99999699999904
  0
ARC
  5
563D2
330
1F
100
AcDbEntity
  8
1
100
AcDbCircle
 10
73.37533839814177
 20
-1.516510016388678
 30
0.0
 40
0.4880010000000001
100
AcDbArc
 50
43.60110900000101
 51
136.3988859999984
  0
ARC
  5
563D3
330
1F
100
AcDbEntity
  8
1
100
AcDbCircle
 10
73.94027239814175
 20
-0.9785160163886528
 30
0.0
 40
0.29213
100
AcDbArc
 50
223.6015470000006
 51
16.39845599999792
  0
ARC
  5
563D4
330
1F
100
AcDbEntity
  8
1
100
AcDbCircle
 10
74.50520639814175
 20
-0.0000000163886398
 30
0.0
 40
0.29213
100
AcDbArc
 50
283.6015319999969
 51
76.39847099999811
  0
ARC
  5
563D5
330
1F
100
AcDbEntity
  8
1
100
AcDbCircle
 10
72.0620073981417
 20
0.7582389836113066
 30
0.0
 40
0.4880010000000001
100
AcDbArc
 50
283.6011150000006
 51
16.3988930000015
  0
ARC
  5
563D6
330
1F
100
AcDbEntity
  8
1
100
AcDbCircle
 10
73.94027239814175
 20
0.9784849836113378
 30
0.0
 40
0.29213
100
AcDbArc
 50
343.60154
 51
136.3984589999984
  0
ARC
  5
563D7
330
1F
100
AcDbEntity
  8
1
100
AcDbCircle
 10
72.0620073981417
 20
-0.7582710163886901
 30
0.0
 40
0.4880010000000001
100
AcDbArc
 50
343.6011170000005
 51
76.39888099999968
  0
ARC
  5
563D8
330
1F
100
AcDbEntity
  8
1
100
AcDbCircle
 10
72.24547139814179
 20
-0.0000000163886398
 30
0.0
 40
0.29213
100
AcDbArc
 50
103.6015340000002
 51
256.398458999998
  0
ARC
  5
563D9
330
1F
100
AcDbEntity
  8
1
100
AcDbCircle
 10
74.68866239814175
 20
-0.7582710163886901
 30
0.0
 40
0.4880010000000001
100
AcDbArc
 50
103.6011170000004
 51
196.3988879999984
  0
ARC
  5
563DA
330
1F
100
AcDbEntity
  8
1
100
AcDbCircle
 10
74.68866239814175
 20
0.7582389836113066
 30
0.0
 40
0.4880010000000001
100
AcDbArc
 50
163.601115
 51
256.3988829999995
  0
ARC
  5
563DB
330
1F
100
AcDbEntity
  8
1
100
AcDbCircle
 10
72.81040539814171
 20
-0.9785160163886528
 30
0.0
 40
0.29213
100
AcDbArc
 50
163.6015370000007
 51
316.398468
  0
ARC
  5
563DC
330
1F
100
AcDbEntity
  8
1
100
AcDbCircle
 10
72.81040539814171
 20
0.9784849836113378
 30
0.0
 40
0.29213
100
AcDbArc
 50
43.60153199999997
 51
196.3984580000011
  0
ARC
  5
563DD
330
1F
100
AcDbEntity
  8
1
100
AcDbCircle
 10
73.37533839814177
 20
1.516478983611349
 30
0.0
 40
0.4880010000000001
100
AcDbArc
 50
223.6011169999994
 51
316.398890999999
  0
ARC
  5
563DE
330
1F
100
AcDbEntity
  8
1
100
AcDbCircle
 10
73.37533839814177
 20
-0.0000000163886398
 30
0.0
 40
1.750004
100
AcDbArc
 50
90.00011400000039
 51
269.9998929999996
  0
ARC
  5
563DF
330
1F
100
AcDbEntity
  8
1
100
AcDbCircle
 10
73.37533139814175
 20
-0.0000000163886398
 30
0.0
 40
1.750004
100
AcDbArc
 50
270.0001319999996
 51
89.99989099999686
  0
ARC
  5
563E0
330
1F
100
AcDbEntity
  8
1
100
AcDbCircle
 10
73.22533739814175
 20
-0.0000000163886398
 30
0.0
 40
2.75
100
AcDbArc
 50
89.99992899999806
 51
180.0
  0
ARC
  5
563E1
330
1F
100
AcDbEntity
  8
1
100
AcDbCircle
 10
73.22533739814175
 20
-0.0000000163886398
 30
0.0
 40
2.75
100
AcDbArc
 50
180.0
 51
269.9999339999986
  0
ARC
  5
563E2
330
1F
100
AcDbEntity
  8
1
100
AcDbCircle
 10
73.22533739814175
 20
-0.0000000163886398
 30
0.0
 40
2.75
100
AcDbArc
 50
269.9999339999986
 51
0.0000049999988748
  0
ARC
  5
563E3
330
1F
100
AcDbEntity
  8
1
100
AcDbCircle
 10
73.22533739814175
 20
-0.0000000163886398
 30
0.0
 40
2.75
100
AcDbArc
 50
0.0000049999988748
 51
89.99991899999706
  0
ARC
  5
563E4
330
1F
100
AcDbEntity
  8
1
100
AcDbCircle
 10
73.22533739814175
 20
-0.0000000163886398
 30
0.0
 40
2.9
100
AcDbArc
 50
89.99999699999904
 51
270.0000029999977
  0
ARC
  5
563E5
330
1F
100
AcDbEntity
  8
1
100
AcDbCircle
 10
73.37533839814177
 20
-0.0000000163886398
 30
0.0
 40
2.9
100
AcDbArc
 50
270.0000029999977
 51
90.00000100000141
  0
LINE
  5
563E6
330
1F
100
AcDbEntity
  8
1
100
AcDbLine
 10
68.59121239814175
 20
5.195188983611301
 30
0.0
 11
68.27970839814176
 21
5.3047109836113
 31
0.0
  0
LINE
  5
563E7
330
1F
100
AcDbEntity
  8
1
100
AcDbLine
 10
67.57533539814172
 20
-5.304749016388655
 30
0.0
 11
69.37533839814178
 21
-5.304749016388655
 31
0.0
  0
LINE
  5
563E8
330
1F
100
AcDbEntity
  8
1
100
AcDbLine
 10
67.57533539814172
 20
-5.195221016388643
 30
0.0
 11
67.57533539814172
 21
-5.304749016388655
 31
0.0
  0
LINE
  5
563E9
330
1F
100
AcDbEntity
  8
1
100
AcDbLine
 10
67.57533539814172
 20
-5.195221016388643
 30
0.0
 11
69.37533839814178
 21
-5.195221016388643
 31
0.0
  0
LINE
  5
563EA
330
1F
100
AcDbEntity
  8
1
100
AcDbLine
 10
70.18606839814168
 20
-5.167237016388696
 30
0.0
 11
73.37533839814177
 21
-5.167237016388696
 31
0.0
  0
LINE
  5
563EB
330
1F
100
AcDbEntity
  8
1
100
AcDbLine
 10
69.37500039814178
 20
-5.167237016388696
 30
0.0
 11
70.18606839814168
 21
-5.167237016388696
 31
0.0
  0
LINE
  5
563EC
330
1F
100
AcDbEntity
  8
1
100
AcDbLine
 10
73.22533739814175
 20
-2.900025016388667
 30
0.0
 11
73.37533839814177
 21
-2.900025016388667
 31
0.0
  0
LINE
  5
563ED
330
1F
100
AcDbEntity
  8
1
100
AcDbLine
 10
73.22533739814175
 20
2.899992983611298
 30
0.0
 11
73.37533839814177
 21
2.899992983611298
 31
0.0
  0
LINE
  5
563EE
330
1F
100
AcDbEntity
  8
1
100
AcDbLine
 10
67.57533539814172
 20
5.195189983611328
 30
0.0
 11
68.84198339814173
 21
5.195189983611328
 31
0.0
  0
LINE
  5
563EF
330
1F
100
AcDbEntity
  8
1
100
AcDbLine
 10
67.57533539814172
 20
5.304717983611283
 30
0.0
 11
67.57533539814172
 21
5.195189983611328
 31
0.0
  0
LINE
  5
563F0
330
1F
100
AcDbEntity
  8
1
100
AcDbLine
 10
67.57533539814172
 20
5.304717983611283
 30
0.0
 11
68.27971139814174
 21
5.304717983611283
 31
0.0
  0
LINE
  5
563F1
330
1F
100
AcDbEntity
  8
1
100
AcDbLine
 10
67.64740239814179
 20
5.380095983611338
 30
0.0
 11
69.37500339814171
 21
5.380095983611338
 31
0.0
  0
LINE
  5
563F2
330
1F
100
AcDbEntity
  8
1
100
AcDbLine
 10
67.37500339814172
 20
-5.380555016388711
 30
0.0
 11
67.37500339814172
 21
-0.0000000163886398
 31
0.0
  0
LINE
  5
563F3
330
1F
100
AcDbEntity
  8
1
100
AcDbLine
 10
67.37500339814172
 20
-0.0000000163886398
 30
0.0
 11
67.37500339814172
 21
5.380522983611341
 31
0.0
  0
LINE
  5
563F4
102
{ACAD_REACTORS
330
563F9
102
}
330
1F
100
AcDbEntity
  8
1
100
AcDbLine
 10
64.37500339814171
 20
-5.750000016388652
 30
0.0
 11
64.37500339814171
 21
5.749999983611361
 31
0.0
  0
LINE
  5
563F6
102
{ACAD_REACTORS
330
563F9
102
}
330
1F
100
AcDbEntity
  8
1
100
AcDbLine
 10
69.37500339814171
 20
5.075689059433869
 30
0.0
 11
69.37500339814171
 21
5.380095983611338
 31
0.0
  0
DIMENSION
  5
563F7
102
{ACAD_XDICTIONARY
360
563F8
102
}
102
{ACAD_REACTORS
330
563F9
102
}
330
1F
100
AcDbEntity
  8
2
100
AcDbDimension
  2
*D10
 10
57.49412504917298
 20
5.749999983611362
 30
0.0
 11
57.49412504917298
 21
-37.16749707613339
 31
0.0
 70
   160
  1
%%C<>
 71
     5
 42
11.50000000000001
  3
\M+18352\M+18373\M+1815B - ISO-25
100
AcDbAlignedDimension
 13
64.37500339814171
 23
-5.750000016388652
 33
0.0
 14
64.37500339814171
 24
5.749999983611361
 34
0.0
 50
270.0
100
AcDbRotatedDimension
1001
ACAD
1000
DSTYLE
1002
{
1070
     4
1000
%%C[]"
1070
    40
1040
1.0
1070
   143
1040
0.03937
1070
   170
1070
     1
1070
   171
1070
     3
1070
   271
1070
     8
1070
   285
1070
     4
1002
}
  0
DIMENSION
  5
563FA
330
1F
100
AcDbEntity
  8
2
100
AcDbDimension
  2
*D6
 10
79.37499539814172
 20
25.59157035443957
 30
0.0
 11
45.7416620648084
 21
25.59157035443957
 31
0.0
 70
   160
 71
     5
 41
0.892857
 42
14.99999999999993
  3
\M+18352\M+18373\M+1815B - ISO-25
100
AcDbAlignedDimension
 13
64.37499539814179
 23
5.74999998361133
 33
0.0
 14
79.37499539814172
 24
17.60461398361127
 34
0.0
 50
180.0
100
AcDbRotatedDimension
1001
ACAD
1000
DSTYLE
1002
{
1070
     4
1000
"
1070
    40
1040
1.0
1070
   143
1040
0.03937
1070
   170
1070
     1
1070
   171
1070
     3
1070
   271
1070
     8
1070
   285
1070
     4
1002
}
  0
LINE
  5
563FB
330
1F
100
AcDbEntity
  8
1
100
AcDbLine
 10
67.37499339814175
 20
5.37999998251135
 30
0.0
 11
69.37499339814175
 21
5.37999998251135
 31
0.0
1001
ACAD
1000
RTMaterial
1005
0
  0
LINE
  5
563FC
330
1F
100
AcDbEntity
  8
1
100
AcDbLine
 10
67.37499339814175
 20
5.37999998251135
 30
0.0
 11
64.37499339814175
 21
5.749999982511353
 31
0.0
1001
ACAD
1000
RTMaterial
1005
0
  0
LINE
  5
563FD
330
1F
100
AcDbEntity
  8
1
100
AcDbLine
 10
67.37499339641586
 20
-5.380000013639089
 30
0.0
 11
69.37499339641584
 21
-5.380000014280681
 31
0.0
1001
ACAD
1000
RTMaterial
1005
0
  0
LINE
  5
563FE
330
1F
100
AcDbEntity
  8
1
100
AcDbLine
 10
67.37499339641586
 20
-5.380000013639089
 30
0.0
 11
64.37499339629718
 21
-5.750000012676721
 31
0.0
1001
ACAD
1000
RTMaterial
1005
0
  0
LINE
  5
563FF
330
1F
100
AcDbEntity
  8
4
100
AcDbLine
 10
0.0
 20
-0.0000000163886398
 30
0.0
 11
84.17781639814178
 21
-0.0000000163886398
 31
0.0
  0
ARC
  5
56401
330
1F
100
AcDbEntity
  8
1
100
AcDbCircle
 10
61.77100339814177
 20
-0.000000016388654
 30
0.0
 40
0.8
100
AcDbArc
 50
329.9999969999999
 51
29.9999990000009
  0
LINE
  5
56403
330
1F
100
AcDbEntity
  8
1
100
AcDbLine
 10
0.0000003981417649
 20
-6.3500070163887
 30
0.0
 11
0.0000003981417649
 21
-0.0000000163886398
 31
0.0
  0
LINE
  5
56405
330
1F
100
AcDbEntity
  8
1
100
AcDbLine
 10
64.37499239814174
 20
-5.750000016388652
 30
0.0
 11
0.5999903981417562
 21
-5.750000016388524
 31
0.0
  0
LINE
  5
56406
330
1F
100
AcDbEntity
  8
1
100
AcDbLine
 10
-0.000016601858249
 20
-6.350011016388691
 30
0.0
 11
0.5999903981416992
 21
-5.750000016388638
 31
0.0
  0
LINE
  5
56407
330
1F
100
AcDbEntity
  8
1
100
AcDbLine
 10
0.5999903981416992
 20
-5.750000016388638
 30
0.0
 11
0.5999903981417562
 21
-0.0000000163886398
 31
0.0
  0
LINE
  5
5640B
330
1F
100
AcDbEntity
  8
1
100
AcDbLine
 10
0.0000003981417649
 20
6.350000483611352
 30
0.0
 11
0.0000003981417649
 21
-0.0000000163886398
 31
0.0
  0
LINE
  5
5640C
330
1F
100
AcDbEntity
  8
1
100
AcDbLine
 10
64.37499239814179
 20
5.749999983611361
 30
0.0
 11
0.5999903981417562
 21
5.749999983611361
 31
0.0
  0
LINE
  5
5640D
330
1F
100
AcDbEntity
  8
1
100
AcDbLine
 10
0.5999903981417562
 20
5.749999983611361
 30
0.0
 11
0.5999903981417562
 21
-0.0000000163886398
 31
0.0
  0
LINE
  5
56410
330
1F
100
AcDbEntity
  8
1
100
AcDbLine
 10
0.0000003981417649
 20
6.350000483611352
 30
0.0
 11
0.5999903981417562
 21
5.749982983611346
 31
0.0
  0
LINE
  5
56411
330
1F
100
AcDbEntity
  8
1
100
AcDbLine
 10
59.37499839814178
 20
5.750001983611356
 30
0.0
 11
62.46382739814182
 21
0.3999929836112841
 31
0.0
  0
LINE
  5
56412
330
1F
100
AcDbEntity
  8
1
100
AcDbLine
 10
59.37499539814186
 20
-5.750008016388676
 30
0.0
 11
62.46381739814179
 21
-0.4000120163886578
 31
0.0
  0
LINE
  5
56413
330
1F
100
AcDbEntity
  8
1
100
AcDbLine
 10
62.4060823981418
 20
-0.500000016388654
 30
0.0
 11
62.4060823981418
 21
0.499999983611346
 31
0.0
  0
ARC
  5
5641A
330
1F
100
AcDbEntity
  8
nocut
100
AcDbCircle
 10
73.37099999999999
 20
-0.0000000023000268
 30
0.0
 40
5.380000001200013
100
AcDbArc
 50
0.0
 51
90.0
  0
LINE
  5
5641B
330
1F
100
AcDbEntity
  8
nocut
100
AcDbLine
 10
78.75100000120001
 20
0.0000000000000284
 30
0.0
 11
0.0
 21
-0.0000000000000162
 31
0.0
1001
ACAD
1000
RTMaterial
1005
0
  0
LINE
  5
5641C
330
1F
100
AcDbEntity
  8
nocut
100
AcDbLine
 10
67.37500000000001
 20
5.37999999889999
 30
0.0
 11
73.37099999999999
 21
5.37999999889999
 31
0.0
1001
ACAD
1000
RTMaterial
1005
0
  0
LINE
  5
5641D
330
1F
100
AcDbEntity
  8
nocut
100
AcDbLine
 10
67.37500000000001
 20
5.37999999889999
 30
0.0
 11
64.37500000000001
 21
5.749999998899993
 31
0.0
1001
ACAD
1000
RTMaterial
1005
0
  0
LINE
  5
5641E
330
1F
100
AcDbEntity
  8
nocut
100
AcDbLine
 10
0.0
 20
6.350000499999991
 30
0.0
 11
0.0
 21
0.0
 31
0.0
  0
LINE
  5
5641F
330
1F
100
AcDbEntity
  8
nocut
100
AcDbLine
 10
64.37499200000003
 20
5.75
 30
0.0
 11
0.5999903981417562
 21
5.749999999999999
 31
0.0
  0
LINE
  5
56420
330
1F
100
AcDbEntity
  8
nocut
100
AcDbLine
 10
0.0
 20
6.350000499999991
 30
0.0
 11
0.5999899999999913
 21
5.749982999999986
 31
0.0
  0
DIMENSION
  5
56546
330
1F
100
AcDbEntity
  8
2
100
AcDbDimension
  2
*D9
 10
97.76292871423528
 20
-6.000000016388645
 30
0.0
 11
97.76292871423528
 21
-28.71666668305531
 31
0.0
 70
   160
  1
%%c<>
 71
     5
 42
11.99999999890001
  3
\M+18352\M+18373\M+1815B - ISO-25
100
AcDbAlignedDimension
 13
77.37500339814179
 23
5.999999982511369
 33
0.0
 14
73.37500339814178
 24
-6.000000016388638
 34
0.0
 50
270.0
100
AcDbRotatedDimension
1001
ACAD
1000
DSTYLE
1002
{
1070
    76
1070
     1
1070
   344
1005
50E6F
1070
     4
1000
%%c[]"
1070
    40
1040
1.0
1070
    75
1070
     0
1070
   143
1040
0.03937
1070
   170
1070
     1
1070
   171
1070
     3
1070
   173
1070
     1
1070
   271
1070
     8
1070
   285
1070
     4
1070
   343
1005
0
1002
}
  0
LINE
  5
56547
330
1F
100
AcDbEntity
  8
1
100
AcDbLine
 10
69.38500139814175
 20
5.229999983611363
 30
0.0
 11
69.38500139814175
 21
5.170538385411233
 31
0.0
  0
SPLINE
  5
56548
330
1F
100
AcDbEntity
  8
1
100
AcDbSpline
210
0.0
220
0.0
230
1.0
 70
     8
 71
     3
 72
     9
 73
     5
 74
     0
 42
0.0000000001
 43
0.0000000001
 40
0.1062399119283224
 40
0.1062399119283224
 40
0.1062399119283224
 40
0.1062399119283224
 40
0.1096967069870919
 40
0.1133106139157352
 40
0.1133106139157352
 40
0.1133106139157352
 40
0.1133106139157352
 10
77.88599975207877
 20
-5.79404461240709
 30
0.0
 10
77.8871124717198
 20
-5.793745330038291
 30
0.0
 10
77.88938801024257
 20
-5.793131400522682
 30
0.0
 10
77.89166257956719
 20
-5.792513888771424
 30
0.0
 10
77.89282488144171
 20
-5.792197342748352
 30
0.0
  0
SPLINE
  5
56549
330
1F
100
AcDbEntity
  8
1
100
AcDbSpline
210
0.0
220
0.0
230
1.0
 70
     8
 71
     3
 72
    21
 73
    17
 74
    15
 42
0.0000000001
 43
0.0000000001
 44
0.000001
 12
0.0539108724516769
 22
0.9985457514963945
 32
0.0
 13
0.0572833379420505
 23
0.9983579614518117
 33
0.0
 40
0.0
 40
0.0
 40
0.0
 40
0.0
 40
0.0209140170707349
 40
0.0443925773511198
 40
0.0704312251412505
 40
0.0988752980198316
 40
0.1298155982898966
 40
0.1640658943439992
 40
0.2024517503707379
 40
0.2437641830549085
 40
0.2851295580749586
 40
0.3256950959988292
 40
0.3659263626453324
 40
0.4052011634161496
 40
0.4424138577382555
 40
0.477967807522467
 40
0.477967807522467
 40
0.477967807522467
 40
0.477967807522467
 10
79.26748484974166
 20
1.28882032525162
 30
0.0
 10
79.26786068071058
 20
1.295781526215855
 30
0.0
 10
79.26865982829724
 20
1.31055745765088
 30
0.0
 10
79.26994163323152
 20
1.333999515554452
 30
0.0
 10
79.27136933894167
 20
1.359947361494085
 30
0.0
 10
79.27294258892974
 20
1.388378206749133
 30
0.0
 10
79.27467266141499
 20
1.419541776855615
 30
0.0
 10
79.27658701837964
 20
1.454014146879032
 30
0.0
 10
79.27868695586278
 20
1.491938915134053
 30
0.0
 10
79.28091518805203
 20
1.53223190527299
 30
0.0
 10
79.2831842306181
 20
1.573250309382722
 30
0.0
 10
79.28543787131466
 20
1.613908625646825
 30
0.0
 10
79.28766124300555
 20
1.653870691576417
 30
0.0
 10
79.2898368433828
 20
1.692716070025403
 30
0.0
 10
79.29194211146857
 20
1.730003836166238
 30
0.0
 10
79.29332635986821
 20
1.754219854675615
 30
0.0
 10
79.29400524284178
 20
1.766051710951656
 30
0.0
 11
79.26748484974166
 21
1.28882032525162
 31
0.0
 11
79.26861660684164
 21
1.309703697151617
 31
0.0
 11
79.26989730464163
 21
1.333147301751623
 31
0.0
 11
79.27132758304162
 21
1.359146637751635
 31
0.0
 11
79.27289842694165
 21
1.387547301851626
 31
0.0
 11
79.27461258554163
 21
1.418440081451635
 31
0.0
 11
79.27651071334176
 21
1.452637740451663
 31
0.0
 11
79.2786335891417
 21
1.490964850051638
 31
0.0
 11
79.28091532804171
 21
1.532214222751619
 31
0.0
 11
79.28320072484168
 21
1.573516416351607
 31
0.0
 11
79.28544644384159
 21
1.614019744551639
 31
0.0
 11
79.28768244884167
 21
1.654188825651644
 31
0.0
 11
79.28987931194173
 21
1.693402136451638
 31
0.0
 11
79.29197871254167
 21
1.730555563051623
 31
0.0
 11
79.29400524284178
 21
1.766051710951656
 31
0.0
  0
SPLINE
  5
5654A
330
1F
100
AcDbEntity
  8
1
100
AcDbSpline
210
0.0
220
0.0
230
1.0
 70
     8
 71
     3
 72
    14
 73
    10
 74
     8
 42
0.0000000001
 43
0.0000000001
 44
0.000001
 12
0.052487562364262
 22
0.9986215778747512
 32
0.0
 13
0.0573306275670665
 23
0.9983552469651103
 33
0.0
 40
0.0
 40
0.0
 40
0.0
 40
0.0
 40
0.0371245991083033
 40
0.0752494072492409
 40
0.1160753766282877
 40
0.1588039093073805
 40
0.201479709005609
 40
0.2433632283573538
 40
0.2845410177320136
 40
0.2845410177320136
 40
0.2845410177320136
 40
0.2845410177320136
 10
79.2995438298417
 20
1.866369959051623
 30
0.0
 10
79.30019335641202
 20
1.878727767631457
 30
0.0
 10
79.30152116560922
 20
1.903775737424071
 30
0.0
 10
79.30359990148019
 20
1.942411652814632
 30
0.0
 10
79.30581350369428
 20
1.982910977175745
 30
0.0
 10
79.30814039859942
 20
2.024923358764366
 30
0.0
 10
79.3105171800245
 20
2.067286022826262
 30
0.0
 10
79.31288925880392
 20
2.109131215175616
 30
0.0
 10
79.31447077777271
 20
2.136773113324779
 30
0.0
 10
79.3152576939416
 20
2.15047646735165
 30
0.0
 11
79.2995438298417
 21
1.866369959051623
 31
0.0
 11
79.30150756494177
 21
1.903442594951613
 31
0.0
 11
79.30355575144166
 21
1.941512354451603
 31
0.0
 11
79.30578280074168
 21
1.982277557451638
 31
0.0
 11
79.30814679254162
 21
2.024940645751641
 31
0.0
 11
79.31053712774168
 21
2.067549432751619
 31
0.0
 11
79.31290711814167
 21
2.109365831751616
 31
0.0
 11
79.3152576939416
 21
2.15047646735165
 31
0.0
  0
SPLINE
  5
5654B
330
1F
100
AcDbEntity
  8
1
100
AcDbSpline
210
0.0
220
0.0
230
1.0
 70
     8
 71
     3
 72
    15
 73
    11
 74
     9
 42
0.0000000001
 43
0.0000000001
 44
0.000001
 12
0.0507280719380844
 22
0.9987125025338595
 32
0.0
 13
0.0568973179310463
 23
0.9983800354635771
 33
0.0
 40
0.0
 40
0.0
 40
0.0
 40
0.0
 40
0.0720213842901508
 40
0.1473646865850789
 40
0.2235081306341589
 40
0.297558797548338
 40
0.3703915944033151
 40
0.4437477826770916
 40
0.5174472916761458
 40
0.5910545155078344
 40
0.5910545155078344
 40
0.5910545155078344
 40
0.5910545155078344
 10
79.3152576939416
 20
2.15047646735165
 30
0.0
 10
79.31647552926271
 20
2.174452686331774
 30
0.0
 10
79.3189825060839
 20
2.223510238119081
 30
0.0
 10
79.32283974210903
 20
2.297913036907637
 30
0.0
 10
79.32678376772624
 20
2.372988655318448
 30
0.0
 10
79.33074392821518
 20
2.447225413780586
 30
0.0
 10
79.33471135090826
 20
2.52053135481877
 30
0.0
 10
79.33872097840688
 20
2.593717768850397
 30
0.0
 10
79.34279197040822
 20
2.667159341237422
 30
0.0
 10
79.34556428506962
 20
2.716183271605139
 30
0.0
 10
79.34696030294174
 20
2.740679265851625
 30
0.0
 11
79.3152576939416
 21
2.15047646735165
 31
0.0
 11
79.31893563794165
 21
2.222403871251643
 31
0.0
 11
79.32283553304171
 21
2.29764617245162
 31
0.0
 11
79.32683175414173
 21
2.373684677151643
 31
0.0
 11
79.3307761717416
 21
2.447630218351648
 31
0.0
 11
79.33471092934166
 21
2.520356651851627
 31
0.0
 11
79.3387235506417
 21
2.593603011651636
 31
0.0
 11
79.34280835454171
 21
2.667189231051635
 31
0.0
 11
79.34696030294174
 21
2.740679265851625
 31
0.0
  0
SPLINE
  5
5654C
330
1F
100
AcDbEntity
  8
1
100
AcDbSpline
210
0.0
220
0.0
230
1.0
 70
     8
 71
     3
 72
    32
 73
    28
 74
    26
 42
0.0000000001
 43
0.0000000001
 44
0.000001
 12
0.0505030351311567
 22
0.9987239075152558
 32
0.0
 13
0.0121865175992825
 23
0.999925741637249
 33
0.0
 40
0.0
 40
0.0
 40
0.0
 40
0.0
 40
0.0416076813983118
 40
0.0802748128454357
 40
0.1161558075153864
 40
0.149260069215976
 40
0.1792961899188081
 40
0.2058738414207984
 40
0.2292485937674764
 40
0.2503521185166888
 40
0.2703206527968872
 40
0.2900932321766934
 40
0.3101000623549173
 40
0.3302348286263827
 40
0.3499685792525709
 40
0.3689987788414294
 40
0.3879553203984691
 40
0.4073294732223628
 40
0.4273565238371954
 40
0.4482863319915063
 40
0.4702041740127914
 40
0.4926169335647411
 40
0.5149106450471198
 40
0.5365961804078992
 40
0.557366418246113
 40
0.5772227599857819
 40
0.5961866699981531
 40
0.5961866699981531
 40
0.5961866699981531
 40
0.5961866699981531
 10
79.34696030294174
 20
2.740679265851625
 30
0.0
 10
79.34766074100688
 20
2.754530794567882
 30
0.0
 10
79.34901718842119
 20
2.781254663225667
 30
0.0
 10
79.35099254573862
 20
2.819922843405416
 30
0.0
 10
79.35282366984174
 20
2.85576022204168
 30
0.0
 10
79.35450196222055
 20
2.888724653404779
 30
0.0
 10
79.35600975907565
 20
2.918592630903416
 30
0.0
 10
79.35735444125725
 20
2.945221542934774
 30
0.0
 10
79.35856065556672
 20
2.968876119943845
 30
0.0
 10
79.35967138954129
 20
2.990329658884691
 30
0.0
 10
79.36074051495608
 20
3.010583010726281
 30
0.0
 10
79.36181531164163
 20
3.030469975149736
 30
0.0
 10
79.36292282881979
 20
3.050410644698102
 30
0.0
 10
79.36406749266312
 20
3.070336254253159
 30
0.0
 10
79.36522496276165
 20
3.08993501390738
 30
0.0
 10
79.36636812194148
 20
3.109141186498465
 30
0.0
 10
79.36749594968401
 20
3.128228194723987
 30
0.0
 10
79.3686168613225
 20
3.147648464893987
 30
0.0
 10
79.36972825587784
 20
3.167728096009447
 30
0.0
 10
79.37081343577535
 20
3.188658272565016
 30
0.0
 10
79.37183722230358
 20
3.210387747135238
 30
0.0
 10
79.37274477779023
 20
3.232577468879135
 30
0.0
 10
79.37349799558351
 20
3.254695480191558
 30
0.0
 10
79.3741000375349
 20
3.276270355237104
 30
0.0
 10
79.37457217567234
 20
3.297035778906102
 30
0.0
 10
79.37493039728832
 20
3.316896099660725
 30
0.0
 10
79.37511530716726
 20
3.329834899023845
 30
0.0
 10
79.37519234184162
 20
3.336155732951666
 30
0.0
 11
79.34696030294174
 21
2.740679265851625
 31
0.0
 11
79.34906821804168
 21
2.782233498151625
 31
0.0
 11
79.35103899774166
 21
2.820850373651623
 31
0.0
 11
79.35286876654176
 21
2.856684683251657
 31
0.0
 11
79.35455048484175
 21
2.889746201551631
 31
0.0
 11
79.35606696194158
 21
2.919744015951593
 31
0.0
 11
79.35740961344163
 21
2.946287731951641
 31
0.0
 11
79.35860139714169
 21
2.969632082451638
 31
0.0
 11
79.35969360034175
 21
2.990707324851641
 31
0.0
 11
79.36074714714177
 21
3.010648046651638
 31
0.0
 11
79.36181497504176
 21
3.030391770051592
 31
0.0
 11
79.36292577024179
 21
3.050367739251626
 31
0.0
 11
79.36407959384166
 21
3.070469416651618
 31
0.0
 11
79.3652393283418
 21
3.090169056951608
 31
0.0
 11
79.36636721654171
 21
3.10916579965162
 31
0.0
 11
79.36748247904168
 21
3.128089501251664
 31
0.0
 11
79.36859583314173
 21
3.147431631251648
 31
0.0
 11
79.36969924434165
 21
3.167428252651617
 31
0.0
 11
79.37077931464171
 21
3.188330159051631
 31
0.0
 11
79.37180607364166
 21
3.210223909851648
 31
0.0
 11
79.37271982064169
 21
3.232617969051616
 31
0.0
 11
79.37348082354164
 21
3.254898453351628
 31
0.0
 11
79.37409013184162
 21
3.276575053451593
 31
0.0
 11
79.37456342224175
 21
3.297340345351627
 31
0.0
 11
79.37492404604165
 21
3.317193457251633
 31
0.0
 11
79.37519234184162
 21
3.336155732951666
 31
0.0
  0
SPLINE
  5
5654D
330
1F
100
AcDbEntity
  8
1
100
AcDbSpline
210
0.0
220
0.0
230
1.0
 70
     8
 71
     3
 72
    24
 73
    20
 74
    18
 42
0.0000000001
 43
0.0000000001
 44
0.000001
 12
0.0063388502204559
 22
0.999979909287123
 32
0.0
 13
0.0009417754805778
 23
0.9999995565293737
 33
0.0
 40
0.0
 40
0.0
 40
0.0
 40
0.0
 40
0.0176725355861459
 40
0.0350050787553065
 40
0.0518969992969247
 40
0.0688596220373383
 40
0.086696567763647
 40
0.1062152293754367
 40
0.1274959814483417
 40
0.1494935261110759
 40
0.1711728768850971
 40
0.192428149908789
 40
0.2137804455757532
 40
0.2365207636563563
 40
0.2620474048899004
 40
0.2913184233369761
 40
0.3235880998941339
 40
0.3585326339473739
 40
0.3959380846277693
 40
0.3959380846277693
 40
0.3959380846277693
 40
0.3959380846277693
 10
79.37519234184162
 20
3.336155732951666
 30
0.0
 10
79.375229683027
 20
3.342046459795769
 30
0.0
 10
79.37528836436057
 20
3.353714691965977
 30
0.0
 10
79.37532171426781
 20
3.371013683351699
 30
0.0
 10
79.37531135828489
 20
3.388076055739678
 30
0.0
 10
79.37526993464048
 20
3.405306506359666
 30
0.0
 10
79.37521431906533
 20
3.423412497403878
 30
0.0
 10
79.37516852856453
 20
3.442957899611874
 30
0.0
 10
79.37513632914667
 20
3.463890195311209
 30
0.0
 10
79.37510781631949
 20
3.485542725533605
 30
0.0
 10
79.37507867577597
 20
3.507186762126125
 30
0.0
 10
79.37505329664812
 20
3.528615720427733
 30
0.0
 10
79.37503326830745
 20
3.550398340399158
 30
0.0
 10
79.37501750519458
 20
3.573604753554061
 30
0.0
 10
79.37500556498432
 20
3.599450743609978
 30
0.0
 10
79.37499950460912
 20
3.628473188743153
 30
0.0
 10
79.37500238156674
 20
3.660634932265756
 30
0.0
 10
79.37501746997842
 20
3.695508149866629
 30
0.0
 10
79.37503442902962
 20
3.71962480612089
 30
0.0
 10
79.37504617154172
 20
3.732093284151615
 30
0.0
 11
79.37519234184162
 21
3.336155732951666
 31
0.0
 11
79.37527871114173
 21
3.353828060651665
 31
0.0
 11
79.37531358074173
 21
3.371160566751654
 31
0.0
 11
79.3753053236418
 21
3.388052483751649
 31
0.0
 11
79.37526779544168
 21
3.405015063851621
 31
0.0
 11
79.37521711024169
 21
3.422851936851643
 31
0.0
 11
79.37517140874172
 21
3.442370544651666
 31
0.0
 11
79.37513646904164
 21
3.463651267951647
 31
0.0
 11
79.37510656764165
 21
3.485648792251609
 31
0.0
 11
79.37507807664168
 21
3.507328124251627
 31
0.0
 11
79.37505327114172
 21
3.528583382751633
 31
0.0
 11
79.37503352164164
 21
3.549935669251667
 31
0.0
 11
79.37501791204171
 21
3.572675981951633
 31
0.0
 11
79.37500614504165
 21
3.598202620451629
 31
0.0
 11
79.37500009754173
 21
3.627473638251629
 31
0.0
 11
79.3750030742416
 21
3.659743314651663
 31
0.0
 11
79.37501763714172
 21
3.694687845651642
 31
0.0
 11
79.37504617154172
 21
3.732093284151615
 31
0.0
  0
SPLINE
  5
5654E
330
1F
100
AcDbEntity
  8
1
100
AcDbSpline
210
0.0
220
0.0
230
1.0
 70
     8
 71
     3
 72
    54
 73
    50
 74
    48
 42
0.0000000001
 43
0.0000000001
 44
0.000001
 12
-0.9995814425365463
 22
0.0289299107595778
 32
0.0
 13
-0.9999990264222036
 23
-0.0013954048319715
 33
0.0
 40
0.0
 40
0.0
 40
0.0
 40
0.0
 40
0.0147247803172994
 40
0.0280705715120143
 40
0.040639469426133
 40
0.052974450871182
 40
0.0654355739763828
 40
0.0780260918801611
 40
0.090133580707471
 40
0.100948512602961
 40
0.1103306708602563
 40
0.1185241039288386
 40
0.1257836718800749
 40
0.1324245172354395
 40
0.1387701677713446
 40
0.145088630332956
 40
0.1514388615899531
 40
0.1577698416519857
 40
0.1641048461677551
 40
0.1704728855796443
 40
0.1768294124382222
 40
0.1831269809189785
 40
0.1893651531241594
 40
0.195578464907059
 40
0.2018407078955269
 40
0.2080898991848402
 40
0.2140934006858945
 40
0.2198753273077627
 40
0.2257190269736627
 40
0.2319057026217416
 40
0.2386722147647163
 40
0.2458330470697565
 40
0.2529671650514025
 40
0.2599540355707148
 40
0.2668169017070691
 40
0.2736555611378727
 40
0.2805316574332141
 40
0.2873301362090581
 40
0.2940769885024668
 40
0.3011691467379916
 40
0.3090619959904304
 40
0.3181482564680476
 40
0.3282310398553597
 40
0.3388404974918973
 40
0.3494333643918954
 40
0.3593638465287099
 40
0.3680538656040412
 40
0.3756187649207697
 40
0.3825023855023501
 40
0.3825023855023501
 40
0.3825023855023501
 40
0.3825023855023501
 10
76.4142010106417
 20
5.906652219351656
 30
0.0
 10
76.40929480492485
 20
5.9067942148785
 30
0.0
 10
76.39994189903044
 20
5.907066113148522
 30
0.0
 10
76.38640103612374
 20
5.907456522413846
 30
0.0
 10
76.37365644867429
 20
5.907824204547431
 30
0.0
 10
76.36120661561664
 20
5.908182955738316
 30
0.0
 10
76.34874957640187
 20
5.90854182811305
 30
0.0
 10
76.33636832191431
 20
5.908898006521386
 30
0.0
 10
76.32453554626223
 20
5.909237548111226
 30
0.0
 10
76.31377175427951
 20
5.909545383912208
 30
0.0
 10
76.30431208642125
 20
5.90981494490782
 30
0.0
 10
76.29603703293205
 20
5.910049831667304
 30
0.0
 10
76.28867536624466
 20
5.910258217071599
 30
0.0
 10
76.28192937515078
 20
5.910448987014921
 30
0.0
 10
76.27549696115972
 20
5.910630912862041
 30
0.0
 10
76.26916138574734
 20
5.910810309764067
 30
0.0
 10
76.26283070981283
 20
5.910989966283394
 30
0.0
 10
76.25649453905888
 20
5.911170375626365
 30
0.0
 10
76.25015245791009
 20
5.911351768968601
 30
0.0
 10
76.24380189402458
 20
5.911534430786659
 30
0.0
 10
76.23746384338871
 20
5.911718110431383
 30
0.0
 10
76.23116909961787
 20
5.911901771518376
 30
0.0
 10
76.22492208168992
 20
5.912084306464942
 30
0.0
 10
76.2186868175132
 20
5.91226593666429
 30
0.0
 10
76.21244784178533
 20
5.912446294603294
 30
0.0
 10
76.20627871406902
 20
5.912622562300071
 30
0.0
 10
76.20026955548311
 20
5.912791755281334
 30
0.0
 10
76.19439543198672
 20
5.912954450486905
 30
0.0
 10
76.18846019459386
 20
5.913115950711426
 30
0.0
 10
76.18219679489988
 20
5.913283093263705
 30
0.0
 10
76.17549440875624
 20
5.913458222594153
 30
0.0
 10
76.16847619582822
 20
5.91363694213344
 30
0.0
 10
76.16138441221531
 20
5.913811887287672
 30
0.0
 10
76.15439176920124
 20
5.913978145712659
 30
0.0
 10
76.14749742592076
 20
5.914135259943416
 30
0.0
 10
76.14063982880495
 20
5.914283946185818
 30
0.0
 10
76.13380351133608
 20
5.914423747799529
 30
0.0
 10
76.12699758766082
 20
5.914552740441768
 30
0.0
 10
76.12011943348722
 20
5.914670709159159
 30
0.0
 10
76.11287638738087
 20
5.914785512380166
 30
0.0
 10
76.10485341586289
 20
5.914898058988414
 30
0.0
 10
76.09583343996284
 20
5.915007279063653
 30
0.0
 10
76.08590775980537
 20
5.915106407007982
 30
0.0
 10
76.07547970276318
 20
5.915188100164264
 30
0.0
 10
76.0651022685889
 20
5.915248357389123
 30
0.0
 10
76.05536454675797
 20
5.915286112511468
 30
0.0
 10
76.04663609568223
 20
5.915304686807665
 30
0.0
 10
76.03892324900346
 20
5.915309526955716
 30
0.0
 10
76.0341070747016
 20
5.915306824664098
 30
0.0
 10
76.03181253674165
 20
5.915303622851624
 30
0.0
 11
76.4142010106417
 21
5.906652219351656
 31
0.0
 11
76.39948240644175
 21
5.90707785565165
 31
0.0
 11
76.38614217484168
 21
5.907463027251607
 31
0.0
 11
76.3735785015416
 21
5.90782538065163
 31
0.0
 11
76.36124864004171
 21
5.908180730451633
 31
0.0
 11
76.34879268314159
 21
5.908539500951619
 31
0.0
 11
76.33620737024172
 21
5.908901481451651
 31
0.0
 11
76.3241048616418
 21
5.909248702351633
 31
0.0
 11
76.31329434914164
 21
5.909557837751619
 31
0.0
 11
76.3039159970416
 21
5.90982504665162
 31
0.0
 11
76.29572586374172
 21
5.910057551051637
 31
0.0
 11
76.28846920424178
 21
5.910263017651614
 31
0.0
 11
76.28183101384172
 21
5.910450772651627
 31
0.0
 11
76.27548790094158
 21
5.910630204151614
 31
0.0
 11
76.26917197114164
 21
5.91080907605162
 31
0.0
 11
76.26282429684161
 21
5.910989248051635
 31
0.0
 11
76.25649588314161
 21
5.911169472951655
 31
0.0
 11
76.25016346994164
 21
5.91135062405162
 31
0.0
 11
76.24379806574165
 21
5.911533771751621
 31
0.0
 11
76.23744420714172
 21
5.911717888551648
 31
0.0
 11
76.23114931434169
 21
5.911901393851636
 31
0.0
 11
76.22491380124168
 21
5.912083454851638
 31
0.0
 11
76.21870312204158
 21
5.912264233851644
 31
0.0
 11
76.21244349304174
 21
5.912445070051646
 31
0.0
 11
76.20619685114172
 21
5.912623459251675
 31
0.0
 11
76.20019572914168
 21
5.912792366851647
 31
0.0
 11
76.19441602124163
 21
5.912952414751642
 31
0.0
 11
76.18857448684174
 21
5.913111345251651
 31
0.0
 11
76.18239001764175
 21
5.913276390451628
 31
0.0
 11
76.17562581854167
 21
5.913453062651655
 31
0.0
 11
76.16846731214161
 21
5.913635218351642
 31
0.0
 11
76.1613353729416
 21
5.913811027851636
 31
0.0
 11
76.15435049124164
 21
5.913976971751622
 31
0.0
 11
76.14748943214173
 21
5.914133181551675
 31
0.0
 11
76.14065243264168
 21
5.914281288551633
 31
0.0
 11
76.13377791644167
 21
5.914421600751594
 31
0.0
 11
76.12698127794171
 21
5.914550657951664
 31
0.0
 11
76.12023496634162
 21
5.914668191351593
 31
0.0
 11
76.11314347204165
 21
5.914780212351615
 31
0.0
 11
76.10525132464172
 21
5.914891116951607
 31
0.0
 11
76.09616569304171
 21
5.915001202351603
 31
0.0
 11
76.08608339474166
 21
5.915102121351607
 31
0.0
 11
76.07547425514167
 21
5.915185550251635
 31
0.0
 11
76.06488156144166
 21
5.915247118251642
 31
0.0
 11
76.0549511503417
 21
5.915285623051643
 31
0.0
 11
76.04626114874156
 21
5.915304156751616
 31
0.0
 11
76.03869621884166
 21
5.915308773251624
 31
0.0
 11
76.03181253674165
 21
5.915303622851624
 31
0.0
  0
SPLINE
  5
5654F
330
1F
100
AcDbEntity
  8
1
100
AcDbSpline
210
0.0
220
0.0
230
1.0
 70
     8
 71
     3
 72
    38
 73
    34
 74
    32
 42
0.0000000001
 43
0.0000000001
 44
0.000001
 12
-0.9999977240489178
 22
-0.0021335175144606
 32
0.0
 13
-0.9996535466060414
 23
-0.0263208426529863
 33
0.0
 40
0.0
 40
0.0
 40
0.0
 40
0.0
 40
0.0090983206972296
 40
0.018756011112448
 40
0.0289577444344297
 40
0.0396255856340114
 40
0.0504951558482487
 40
0.0613172485138248
 40
0.0721202162888121
 40
0.0830243915946633
 40
0.0940426125384427
 40
0.1049953148155497
 40
0.1154747839398993
 40
0.1253128155193847
 40
0.1348420145587152
 40
0.1444829433959933
 40
0.1546325829916796
 40
0.1654060045121872
 40
0.1763745055362807
 40
0.1871880998459603
 40
0.1978561049745522
 40
0.2086812504474044
 40
0.2202787941446092
 40
0.2332435847359771
 40
0.2479851848596104
 40
0.2646517518303044
 40
0.283021265705552
 40
0.301997993027734
 40
0.320680442408677
 40
0.3388655322813276
 40
0.3573983788910393
 40
0.3782153230060059
 40
0.4014977957432326
 40
0.4014977957432326
 40
0.4014977957432326
 40
0.4014977957432326
 10
76.03181253674165
 20
5.915303622851624
 30
0.0
 10
76.02877977007835
 20
5.915297152376104
 30
0.0
 10
76.02252778952996
 20
5.915278924845449
 30
0.0
 10
76.01287531185923
 20
5.915232826250215
 30
0.0
 10
76.00269978982318
 20
5.915162773997201
 30
0.0
 10
75.9921205086577
 20
5.915065865362945
 30
0.0
 10
75.98133472667321
 20
5.914940286477885
 30
0.0
 10
75.97050426637264
 20
5.91478620299986
 30
0.0
 10
75.95966271493982
 20
5.914603606879573
 30
0.0
 10
75.94875621073779
 20
5.914397003193532
 30
0.0
 10
75.93780017178644
 20
5.914170973281594
 30
0.0
 10
75.92698597153135
 20
5.913933855168242
 30
0.0
 10
75.91656527666805
 20
5.913696324017283
 30
0.0
 10
75.90661907481003
 20
5.913464622681523
 30
0.0
 10
75.89695242964231
 20
5.913234373153473
 30
0.0
 10
75.88718206549012
 20
5.912996629463006
 30
0.0
 10
75.87699721499645
 20
5.912743437860751
 30
0.0
 10
75.8663701188446
 20
5.912473607415047
 30
0.0
 10
75.85552191490338
 20
5.912192736540821
 30
0.0
 10
75.84470895619955
 20
5.911908252101916
 30
0.0
 10
75.83394385306035
 20
5.911621745267183
 30
0.0
 10
75.82291757753956
 20
5.911326357457824
 30
0.0
 10
75.8111259924734
 20
5.911010056542327
 30
0.0
 10
75.79802933871886
 20
5.910660733548969
 30
0.0
 10
75.78324348347239
 20
5.910271175145277
 30
0.0
 10
75.76665656654355
 20
5.90983845199215
 30
0.0
 10
75.74865832508326
 20
5.909372593902132
 30
0.0
 10
75.7299882883394
 20
5.908891654452069
 30
0.0
 10
75.71137968900837
 20
5.908412954245203
 30
0.0
 10
75.69291902113457
 20
5.907937274491462
 30
0.0
 10
75.67374716231305
 20
5.907440510866733
 30
0.0
 10
75.65287682885832
 20
5.906896540681164
 30
0.0
 10
75.63818211862352
 20
5.906509527085473
 30
0.0
 10
75.63042398314166
 20
5.906305255651644
 30
0.0
 11
76.03181253674165
 21
5.915303622851624
 31
0.0
 11
76.02271418154157
 21
5.915276161351628
 31
0.0
 11
76.01305657324168
 21
5.915229396851657
 31
0.0
 11
76.00285511564163
 21
5.915159063251664
 31
0.0
 11
75.99218774714168
 21
5.915061110151626
 31
0.0
 11
75.98131893064169
 21
5.914934412751634
 31
0.0
 11
75.97049794464159
 21
5.914780392751621
 31
0.0
 11
75.95969650054168
 21
5.914599411851625
 31
0.0
 11
75.94879427154173
 21
5.91439367425164
 31
0.0
 11
75.93777838334165
 21
5.914167137551642
 31
0.0
 11
75.92682829944159
 21
5.913927779651642
 31
0.0
 11
75.91635154034169
 21
5.913689549151655
 31
0.0
 11
75.9065161801417
 21
5.913460353851633
 31
0.0
 11
75.89698968394168
 21
5.913233448851642
 31
0.0
 11
75.8873516087416
 21
5.912998930951617
 31
0.0
 11
75.87720510374163
 21
5.912746734351641
 31
0.0
 11
75.86643515184175
 21
5.912473368751633
 31
0.0
 11
75.85547032224167
 21
5.91218963025163
 31
0.0
 11
75.84466046424165
 21
5.911905423251638
 31
0.0
 11
75.83399623004163
 21
5.911621830251633
 31
0.0
 11
75.82317496084169
 21
5.91133219175164
 31
0.0
 11
75.8115815788416
 21
5.911021553751638
 31
0.0
 11
75.7986213899418
 21
5.910676183951636
 31
0.0
 11
75.78388491094165
 21
5.91028767035162
 31
0.0
 11
75.76722401894166
 21
5.909852796351642
 31
0.0
 11
75.74886066314175
 21
5.909377202951644
 31
0.0
 11
75.72989023654156
 21
5.908888240851624
 31
0.0
 11
75.71121397214165
 21
5.908407556851642
 31
0.0
 11
75.69303492414168
 21
5.907938828951671
 31
0.0
 11
75.67450829564165
 21
5.90745878685162
 31
0.0
 11
75.65369842754172
 21
5.906916062051621
 31
0.0
 11
75.63042398314166
 21
5.906305255651644
 31
0.0
  0
SPLINE
  5
56550
330
1F
100
AcDbEntity
  8
1
100
AcDbSpline
210
0.0
220
0.0
230
1.0
 70
     8
 71
     3
 72
    58
 73
    54
 74
    52
 42
0.0000000001
 43
0.0000000001
 44
0.000001
 12
0.6939609173252184
 22
0.7200126701837556
 32
0.0
 13
0.6350784833957555
 23
0.7724476163001263
 33
0.0
 40
0.0
 40
0.0
 40
0.0
 40
0.0
 40
0.003938002932725
 40
0.0078273762012549
 40
0.0116699847293761
 40
0.015468503216351
 40
0.0192256887440034
 40
0.0229430400885091
 40
0.0266219994591882
 40
0.030264666652387
 40
0.0338735949982288
 40
0.0374507910381816
 40
0.0409987243559006
 40
0.0445193768839055
 40
0.04801546207966
 40
0.0514885213420937
 40
0.0549397199819194
 40
0.0583706761898572
 40
0.0617838242985104
 40
0.0651800937279901
 40
0.0685600863708347
 40
0.0719248716987659
 40
0.0752771705542833
 40
0.0786195375236472
 40
0.0819519973816077
 40
0.0852720504024266
 40
0.0885778144651474
 40
0.0918674036707098
 40
0.0951417475017212
 40
0.0984031642774926
 40
0.1016540010413332
 40
0.1048950465316873
 40
0.1081270096440258
 40
0.1113517518337334
 40
0.1145702188558334
 40
0.1177831403606714
 40
0.1209924308885218
 40
0.1241996357181698
 40
0.1274066018056799
 40
0.1306144459808128
 40
0.1338247312805407
 40
0.1370384094353812
 40
0.1402570598613484
 40
0.1434820450409507
 40
0.1467151381396579
 40
0.1499574324036211
 40
0.153209558547682
 40
0.156473271845113
 40
0.1597499820775672
 40
0.163041003782566
 40
0.1663484138423902
 40
0.1696732076846672
 40
0.1730158978111977
 40
0.1730158978111977
 40
0.1730158978111977
 40
0.1730158978111977
 10
78.77408807764175
 20
-5.271570830448353
 30
0.0
 10
78.7749990176843
 20
-5.270625693112759
 30
0.0
 10
78.7768081084498
 20
-5.268745604491616
 30
0.0
 10
78.7795007238239
 20
-5.265938133107763
 30
0.0
 10
78.78215664865604
 20
-5.263159901774706
 30
0.0
 10
78.78477769548068
 20
-5.260409292523348
 30
0.0
 10
78.78736558920545
 20
-5.257684771339635
 30
0.0
 10
78.78992173183516
 20
-5.254985063693952
 30
0.0
 10
78.79244747622775
 20
-5.252309148954748
 30
0.0
 10
78.79494400560853
 20
-5.249655363316403
 30
0.0
 10
78.7974132396469
 20
-5.247022477955225
 30
0.0
 10
78.79985680307569
 20
-5.244408815816193
 30
0.0
 10
78.80227626954696
 20
-5.241812913081467
 30
0.0
 10
78.80467333940356
 20
-5.239233101143437
 30
0.0
 10
78.80704949885437
 20
-5.236667934424013
 30
0.0
 10
78.80940603777559
 20
-5.234116156112872
 30
0.0
 10
78.81174399205495
 20
-5.231576771462542
 30
0.0
 10
78.81406459197741
 20
-5.22904855980124
 30
0.0
 10
78.81636900718729
 20
-5.226530351244591
 30
0.0
 10
78.8186581712482
 20
-5.224021218822964
 30
0.0
 10
78.8209327064211
 20
-5.221520567180494
 30
0.0
 10
78.82319363247498
 20
-5.219027355115733
 30
0.0
 10
78.82544239868625
 20
-5.216540052061503
 30
0.0
 10
78.8276802110311
 20
-5.214057376794769
 30
0.0
 10
78.82990710517879
 20
-5.21157933589049
 30
0.0
 10
78.83212213142885
 20
-5.20910703865311
 30
0.0
 10
78.83432392262547
 20
-5.206642075379761
 30
0.0
 10
78.83651188165551
 20
-5.204185191371026
 30
0.0
 10
78.83868634412988
 20
-5.201736087509047
 30
0.0
 10
78.84084857798121
 20
-5.19929340541163
 30
0.0
 10
78.84299981127071
 20
-5.196855813910786
 30
0.0
 10
78.84514090973687
 20
-5.194422377485531
 30
0.0
 10
78.84727262694399
 20
-5.191992277431481
 30
0.0
 10
78.84939574653131
 20
-5.189564651737779
 30
0.0
 10
78.85151105045707
 20
-5.187138627688615
 30
0.0
 10
78.85361932775253
 20
-5.184713315239037
 30
0.0
 10
78.85572149263518
 20
-5.182287668370342
 30
0.0
 10
78.85781869600123
 20
-5.17986035336818
 30
0.0
 10
78.8599119071396
 20
-5.177430231066387
 30
0.0
 10
78.86200209176464
 20
-5.174996151495255
 30
0.0
 10
78.86409001535281
 20
-5.172557186176188
 30
0.0
 10
78.86617653567175
 20
-5.170112282818458
 30
0.0
 10
78.86826246664515
 20
-5.167660439702701
 30
0.0
 10
78.87034876958158
 20
-5.165200421370055
 30
0.0
 10
78.87243638096528
 20
-5.162731183600541
 30
0.0
 10
78.87452574193384
 20
-5.160251583751328
 30
0.0
 10
78.87661778328442
 20
-5.15776090072401
 30
0.0
 10
78.87871323303625
 20
-5.155258103984976
 30
0.0
 10
78.88081299517316
 20
-5.152742013795098
 30
0.0
 10
78.88291802445505
 20
-5.150211353377633
 30
0.0
 10
78.88502918141688
 20
-5.147664947610424
 30
0.0
 10
78.88714714722144
 20
-5.145101820542865
 30
0.0
 10
78.88856002811639
 20
-5.143386228688448
 30
0.0
 10
78.88926765164173
 20
-5.142525544348358
 30
0.0
 11
78.77408807764175
 21
-5.271570830448353
 31
0.0
 11
78.7768185376416
 21
-5.268733161048344
 31
0.0
 11
78.77951064184165
 21
-5.265926106948342
 31
0.0
 11
78.78216583114171
 21
-5.263148475648335
 31
0.0
 11
78.78478609494177
 21
-5.260398478348378
 31
0.0
 11
78.78737346584161
 21
-5.257674253248366
 31
0.0
 11
78.78992909854163
 21
-5.254974839748341
 31
0.0
 11
78.79245410154172
 21
-5.252299311048346
 31
0.0
 11
78.79495008574156
 21
-5.249646190348356
 31
0.0
 11
78.79741884674162
 21
-5.247013782648366
 31
0.0
 11
78.79986184744168
 21
-5.244400725248339
 31
0.0
 11
78.80228085914168
 21
-5.241805305248377
 31
0.0
 11
78.80467731024157
 21
-5.239226156248321
 31
0.0
 11
78.80705311714168
 21
-5.23666136634837
 31
0.0
 11
78.80940938934168
 21
-5.234109873348373
 31
0.0
 11
78.81174697504174
 21
-5.231570885348361
 31
0.0
 11
78.81406702314167
 21
-5.229043271348372
 31
0.0
 11
78.81637122604172
 21
-5.226525291148334
 31
0.0
 11
78.81866025174169
 21
-5.224016306748366
 31
0.0
 11
78.82093454394172
 21
-5.221515918648349
 31
0.0
 11
78.82319485764162
 21
-5.219023378248323
 31
0.0
 11
78.82544304964167
 21
-5.216536706648369
 31
0.0
 11
78.82768085334157
 21
-5.214054037348346
 31
0.0
 11
78.82990830134168
 21
-5.211575376548367
 31
0.0
 11
78.83212374304175
 21
-5.209102611848351
 31
0.0
 11
78.83432594994168
 21
-5.206637179648382
 31
0.0
 11
78.83651369974167
 21
-5.204180526848346
 31
0.0
 11
78.83868764604166
 21
-5.201732000748349
 31
0.0
 11
78.8408493582416
 21
-5.199289904348346
 31
0.0
 11
78.8430004144417
 21
-5.196852509848355
 31
0.0
 11
78.84514135364169
 21
-5.19441925064838
 31
0.0
 11
78.8472726586416
 21
-5.191989616948363
 31
0.0
 11
78.84939556754159
 21
-5.189562228348362
 31
0.0
 11
78.8515107085417
 21
-5.187136387448332
 31
0.0
 11
78.85361856404165
 21
-5.184711556448376
 31
0.0
 11
78.85572038844168
 21
-5.182286298648363
 31
0.0
 11
78.8578171861417
 21
-5.179859449348356
 31
0.0
 11
78.85991015104163
 21
-5.177429608948344
 31
0.0
 11
78.86199999304166
 21
-5.174995924648371
 31
0.0
 11
78.86408770674169
 21
-5.172557200148331
 31
0.0
 11
78.86617388264165
 21
-5.170112698048342
 31
0.0
 11
78.8682595127417
 21
-5.167661198548373
 31
0.0
 11
78.87034544124174
 21
-5.165201641248373
 31
0.0
 11
78.87243277004168
 21
-5.162732645948337
 31
0.0
 11
78.87452219714157
 21
-5.160253294848374
 31
0.0
 11
78.87661403654171
 21
-5.157763115448346
 31
0.0
 11
78.87870934964168
 21
-5.155260734348374
 31
0.0
 11
78.88080897464172
 21
-5.152745027548377
 31
0.0
 11
78.88291368084164
 21
-5.150214938148336
 31
0.0
 11
78.88502471604161
 21
-5.147668816248368
 31
0.0
 11
78.88714262814166
 21
-5.145105837148321
 31
0.0
 11
78.88926765164173
 21
-5.142525544348358
 31
0.0
  0
SPLINE
  5
56551
330
1F
100
AcDbEntity
  8
1
100
AcDbSpline
210
0.0
220
0.0
230
1.0
 70
     8
 71
     3
 72
    59
 73
    55
 74
    53
 42
0.0000000001
 43
0.0000000001
 44
0.000001
 12
0.7535987657301138
 22
0.6573346942692507
 32
0.0
 13
0.7029804478266977
 23
0.7112091745565266
 33
0.0
 40
0.0
 40
0.0
 40
0.0
 40
0.0
 40
0.0038194729514997
 40
0.0075941703225873
 40
0.0113259213308462
 40
0.0150171789585649
 40
0.018670249249371
 40
0.0222870354564915
 40
0.0258696612771997
 40
0.0294198833586793
 40
0.0329398370376917
 40
0.036430917645383
 40
0.0398953539515946
 40
0.0433347793316236
 40
0.0467513151986183
 40
0.0501469109807302
 40
0.0535226691536858
 40
0.0568800631734733
 40
0.0602212696085372
 40
0.0635470755527819
 40
0.0668580468479817
 40
0.0701560381992022
 40
0.0734437177344009
 40
0.0767232699727756
 40
0.0799936499586858
 40
0.0832537208417003
 40
0.0865029073778023
 40
0.0897403101348044
 40
0.092964895559793
 40
0.0961774722417508
 40
0.0993794983721159
 40
0.1025720719871775
 40
0.1057562641242875
 40
0.1089341661934983
 40
0.112107067509359
 40
0.1152753153334613
 40
0.1184392897216389
 40
0.1216005734002934
 40
0.1247611246693518
 40
0.1279228509928961
 40
0.1310872808409881
 40
0.134255865011034
 40
0.1374298722947671
 40
0.140609876287016
 40
0.143797125704115
 40
0.1469932099023127
 40
0.1501990883265882
 40
0.1534161939212695
 40
0.1566460454449504
 40
0.1598894451592536
 40
0.1631477455643535
 40
0.166422455789417
 40
0.1697147812376803
 40
0.1730263206218458
 40
0.1730263206218458
 40
0.1730263206218458
 40
0.1730263206218458
 10
78.64795095134176
 20
-5.389951165548382
 30
0.0
 10
78.64891040137575
 20
-5.389114274853434
 30
0.0
 10
78.65081675732138
 20
-5.387448817244092
 30
0.0
 10
78.65365602993513
 20
-5.384960547649814
 30
0.0
 10
78.65645937384264
 20
-5.382496132337151
 30
0.0
 10
78.65922855062553
 20
-5.380054262433101
 30
0.0
 10
78.6619653309601
 20
-5.377633601040834
 30
0.0
 10
78.66467139421937
 20
-5.37523287303563
 30
0.0
 10
78.66734827434661
 20
-5.372850914620553
 30
0.0
 10
78.66999755510069
 20
-5.370486500982348
 30
0.0
 10
78.67262063128549
 20
-5.368138559630275
 30
0.0
 10
78.6752190077964
 20
-5.365805904568008
 30
0.0
 10
78.6777940575046
 20
-5.363487452708271
 30
0.0
 10
78.68034732655013
 20
-5.361181951232476
 30
0.0
 10
78.6828802818838
 20
-5.358888198164136
 30
0.0
 10
78.68539426137477
 20
-5.356605112211119
 30
0.0
 10
78.68789040210694
 20
-5.354331711952076
 30
0.0
 10
78.6903699107246
 20
-5.35206697987211
 30
0.0
 10
78.69283396003942
 20
-5.349810016863681
 30
0.0
 10
78.69528344214362
 20
-5.347560064758555
 30
0.0
 10
78.69771917962367
 20
-5.345316448197593
 30
0.0
 10
78.70014244833055
 20
-5.34307805817897
 30
0.0
 10
78.70255491373498
 20
-5.34084341214219
 30
0.0
 10
78.70495752425559
 20
-5.338611675605774
 30
0.0
 10
78.70735029623471
 20
-5.336382874154487
 30
0.0
 10
78.70973257480471
 20
-5.334157662342851
 30
0.0
 10
78.71210374403495
 20
-5.331936665227865
 30
0.0
 10
78.71446321630163
 20
-5.329720487585783
 30
0.0
 10
78.71681074321974
 20
-5.327509421453722
 30
0.0
 10
78.71914664863867
 20
-5.325303220057532
 30
0.0
 10
78.72147177035265
 20
-5.323101145829889
 30
0.0
 10
78.72378700510947
 20
-5.320902396091174
 30
0.0
 10
78.72609339805482
 20
-5.318706017793491
 30
0.0
 10
78.72839203490865
 20
-5.316511007946568
 30
0.0
 10
78.73068382192987
 20
-5.314316524888247
 30
0.0
 10
78.73296924694234
 20
-5.312122114758142
 30
0.0
 10
78.73524887566214
 20
-5.309927263538193
 30
0.0
 10
78.73752362179851
 20
-5.307731044391324
 30
0.0
 10
78.739794775306
 20
-5.305532187433449
 30
0.0
 10
78.74206365756013
 20
-5.303329481151349
 30
0.0
 10
78.74433141196731
 20
-5.301121773408905
 30
0.0
 10
78.74659903675376
 20
-5.298908068310044
 30
0.0
 10
78.74886729358053
 20
-5.29668758334578
 30
0.0
 10
78.75113689276929
 20
-5.294459579992355
 30
0.0
 10
78.75340861645938
 20
-5.292223240488195
 30
0.0
 10
78.75568333344735
 20
-5.289977651925303
 30
0.0
 10
78.75796195089998
 20
-5.287721853036329
 30
0.0
 10
78.76024535385553
 20
-5.28545489385617
 30
0.0
 10
78.76253438449274
 20
-5.283175855846819
 30
0.0
 10
78.76482986067116
 20
-5.280883834303196
 30
0.0
 10
78.76713259270769
 20
-5.278577921799847
 30
0.0
 10
78.7694434800421
 20
-5.27625711025882
 30
0.0
 10
78.77176347368362
 20
-5.273920327635408
 30
0.0
 10
78.77331209516199
 20
-5.272355896178994
 30
0.0
 10
78.77408807764175
 20
-5.271570830448353
 30
0.0
 11
78.64795095134176
 21
-5.389951165548382
 31
0.0
 11
78.65082733104168
 21
-5.387438243348356
 31
0.0
 11
78.65366611414177
 21
-5.384950363148334
 31
0.0
 11
78.65646879864165
 21
-5.382486470348339
 31
0.0
 11
78.65923734194168
 21
-5.380045087548353
 31
0.0
 11
78.66197358084161
 21
-5.377624822148333
 31
0.0
 11
78.66467904124172
 21
-5.375224537448332
 31
0.0
 11
78.66735540544175
 21
-5.372842940348334
 31
0.0
 11
78.67000407334171
 21
-5.370478972048347
 31
0.0
 11
78.67262671934169
 21
-5.368131312148378
 31
0.0
 11
78.67522445884164
 21
-5.365799124848365
 31
0.0
 11
78.67779902064161
 21
-5.363481009648367
 31
0.0
 11
78.68035168304174
 21
-5.361175955148396
 31
0.0
 11
78.68288407924172
 21
-5.358882614448376
 31
0.0
 11
78.68539770704171
 21
-5.356599747048391
 31
0.0
 11
78.68789344174172
 21
-5.354326664648339
 31
0.0
 11
78.69037241894161
 21
-5.352062431748322
 31
0.0
 11
78.69283627044172
 21
-5.349805646248356
 31
0.0
 11
78.69528561154165
 21
-5.347555824448362
 31
0.0
 11
78.69772089174159
 21
-5.345312628748331
 31
0.0
 11
78.70014350474175
 21
-5.343074844248376
 31
0.0
 11
78.70255543354166
 21
-5.340840694948369
 31
0.0
 11
78.70495829694175
 21
-5.338608723148353
 31
0.0
 11
78.70735134394171
 21
-5.336379665048369
 31
0.0
 11
78.70973376044164
 21
-5.334154323848365
 31
0.0
 11
78.71210514634164
 21
-5.331933123148373
 31
0.0
 11
78.7144648676417
 21
-5.32971671094836
 31
0.0
 11
78.71681219624168
 21
-5.327505830848338
 31
0.0
 11
78.71914774624169
 21
-5.325299964448348
 31
0.0
 11
78.72147260014177
 21
-5.323098143148341
 31
0.0
 11
78.72378757394166
 21
-5.320899640548361
 31
0.0
 11
78.72609345994169
 21
-5.318703744348339
 31
0.0
 11
78.72839178394167
 21
-5.316509032848371
 31
0.0
 11
78.73068348484173
 21
-5.314314631048346
 31
0.0
 11
78.73296881754163
 21
-5.312120311648371
 31
0.0
 11
78.73524805934164
 21
-5.309925823448381
 31
0.0
 11
78.73752236154166
 21
-5.307730066848377
 31
0.0
 11
78.73979313164173
 21
-5.305531682048353
 31
0.0
 11
78.74206171654157
 21
-5.303329352748335
 31
0.0
 11
78.74432919724165
 21
-5.301122007248366
 31
0.0
 11
78.7465965931416
 21
-5.298908622048358
 31
0.0
 11
78.74886478794167
 21
-5.296688295348373
 31
0.0
 11
78.75113416434171
 21
-5.294460607548358
 31
0.0
 11
78.75340558344172
 21
-5.292224662848369
 31
0.0
 11
78.75568014324165
 21
-5.289979320748372
 31
0.0
 11
78.75795848804171
 21
-5.287723878048382
 31
0.0
 11
78.76024159384167
 21
-5.285457293848381
 31
0.0
 11
78.76253049114168
 21
-5.283178460648342
 31
0.0
 11
78.76482569714164
 21
-5.280886771248361
 31
0.0
 11
78.76712811384177
 21
-5.278581225448377
 31
0.0
 11
78.76943874744165
 21
-5.276260706148348
 31
0.0
 11
78.77175838334165
 21
-5.27392430544836
 31
0.0
 11
78.77408807764175
 21
-5.271570830448353
 31
0.0
  0
SPLINE
  5
56552
330
1F
100
AcDbEntity
  8
1
100
AcDbSpline
210
0.0
220
0.0
230
1.0
 70
     8
 71
     3
 72
    21
 73
    17
 74
    15
 42
0.0000000001
 43
0.0000000001
 44
0.000001
 12
0.0539108724516761
 22
-0.9985457514963945
 32
0.0
 13
0.0572833381806336
 23
-0.9983579614381223
 33
0.0
 40
0.0
 40
0.0
 40
0.0
 40
0.0
 40
0.0209140170707642
 40
0.0443925773511198
 40
0.0704312251412505
 40
0.0988752980198597
 40
0.1298155982898964
 40
0.1640658943439713
 40
0.2024517503707391
 40
0.2437641830549086
 40
0.28512955807496
 40
0.3256950958989822
 40
0.3659263626453038
 40
0.4052011634161208
 40
0.4424138577382557
 40
0.4779678074226058
 40
0.4779678074226058
 40
0.4779678074226058
 40
0.4779678074226058
 10
79.26748484974166
 20
-1.288819871648342
 30
0.0
 10
79.26786068071058
 20
-1.295781072612586
 30
0.0
 10
79.26865982829724
 20
-1.310557004047611
 30
0.0
 10
79.26994163323152
 20
-1.333999061951183
 30
0.0
 10
79.27136933894165
 20
-1.359946907890817
 30
0.0
 10
79.27294258892974
 20
-1.388377753145864
 30
0.0
 10
79.27467266141497
 20
-1.419541323252337
 30
0.0
 10
79.2765870183797
 20
-1.454013693275743
 30
0.0
 10
79.27868695586261
 20
-1.491938461530775
 30
0.0
 10
79.28091518805274
 20
-1.532231451669672
 30
0.0
 10
79.28318423061362
 20
-1.57324985574636
 30
0.0
 10
79.28543787132245
 20
-1.613908172009772
 30
0.0
 10
79.28766124300105
 20
-1.653870237940035
 30
0.0
 10
79.28983684338382
 20
-1.692715616422051
 30
0.0
 10
79.2919421114652
 20
-1.730003382529802
 30
0.0
 10
79.29332635986718
 20
-1.754219401005715
 30
0.0
 10
79.29400524284165
 20
-1.766051257248362
 30
0.0
 11
79.26748484974166
 21
-1.288819871648342
 31
0.0
 11
79.26861660684164
 21
-1.309703243548369
 31
0.0
 11
79.26989730464163
 21
-1.333146848148344
 31
0.0
 11
79.27132758304162
 21
-1.359146184148356
 31
0.0
 11
79.27289842694165
 21
-1.387546848248375
 31
0.0
 11
79.27461258554163
 21
-1.418439627848356
 31
0.0
 11
79.27651071334176
 21
-1.452637286848356
 31
0.0
 11
79.2786335891417
 21
-1.490964396448361
 31
0.0
 11
79.28091532804171
 21
-1.53221376914834
 31
0.0
 11
79.28320072484168
 21
-1.573515962748331
 31
0.0
 11
79.28544644384159
 21
-1.614019290848361
 31
0.0
 11
79.28768244884167
 21
-1.654188372048338
 31
0.0
 11
79.28987931194173
 21
-1.693401682848332
 31
0.0
 11
79.29197871254167
 21
-1.730555109448346
 31
0.0
 11
79.29400524284165
 21
-1.766051257248362
 31
0.0
  0
SPLINE
  5
56553
330
1F
100
AcDbEntity
  8
1
100
AcDbSpline
210
0.0
220
0.0
230
1.0
 70
     8
 71
     3
 72
    58
 73
    54
 74
    52
 42
0.0000000001
 43
0.0000000001
 44
0.000001
 12
0.8080511131414452
 22
0.5891123819364788
 32
0.0
 13
0.7641357207940882
 23
0.6450555016481136
 33
0.0
 40
0.0
 40
0.0
 40
0.0
 40
0.0
 40
0.0038485137141754
 40
0.007653006393127
 40
0.0114157430801803
 40
0.0151392558642094
 40
0.0188255197227892
 40
0.022476659199371
 40
0.0260945883804384
 40
0.0296812901530365
 40
0.0332388267184753
 40
0.0367689497396329
 40
0.0402736229707358
 40
0.0437540868332208
 40
0.0472120875967578
 40
0.050650253262387
 40
0.0540711323681877
 40
0.0574765484486578
 40
0.0608673558100016
 40
0.0642448240437408
 40
0.0676108485213267
 40
0.0709666941144947
 40
0.0743123875882342
 40
0.0776483046444512
 40
0.0809750482069694
 40
0.0842919840114467
 40
0.0875975994521321
 40
0.0908917830121158
 40
0.0941749068971446
 40
0.0974473002368122
 40
0.1007103871371344
 40
0.103965310287378
 40
0.1072132169623291
 40
0.1104559720979926
 40
0.113695037881939
 40
0.116932080422451
 40
0.1201683415197001
 40
0.1234052594481243
 40
0.1266439120287015
 40
0.1298859208633134
 40
0.133133269361536
 40
0.1363878749618536
 40
0.1396506468190868
 40
0.1429216674096137
 40
0.1462015923530902
 40
0.1494924453198336
 40
0.1527958907350158
 40
0.156113783128026
 40
0.1594473202767549
 40
0.162797661414607
 40
0.1661663805731162
 40
0.1695546923969161
 40
0.172964396136902
 40
0.172964396136902
 40
0.172964396136902
 40
0.172964396136902
 10
78.51191913444165
 20
-5.496719234448335
 30
0.0
 10
78.51295573303855
 20
-5.495963498754644
 30
0.0
 10
78.51501589143907
 20
-5.494459050150431
 30
0.0
 10
78.51808544828125
 20
-5.49221010775645
 30
0.0
 10
78.52111794850457
 20
-5.489981095970394
 30
0.0
 10
78.5241153137255
 20
-5.487770832892101
 30
0.0
 10
78.52707941920304
 20
-5.485578151460667
 30
0.0
 10
78.53001196636054
 20
-5.483401995206599
 30
0.0
 10
78.5329146510805
 20
-5.48124129494553
 30
0.0
 10
78.53578914510134
 20
-5.479094983119163
 30
0.0
 10
78.53863706943546
 20
-5.476962014037043
 30
0.0
 10
78.54146003294825
 20
-5.474841335796759
 30
0.0
 10
78.54425941883222
 20
-5.472732051575095
 30
0.0
 10
78.54703660295839
 20
-5.470633257285115
 30
0.0
 10
78.54979313192996
 20
-5.468543907024536
 30
0.0
 10
78.55253089265089
 20
-5.466462681552004
 30
0.0
 10
78.55525178429094
 20
-5.46438823480199
 30
0.0
 10
78.55795722847921
 20
-5.462319569153464
 30
0.0
 10
78.5606483029441
 20
-5.46025593877293
 30
0.0
 10
78.56332610014014
 20
-5.45819657740083
 30
0.0
 10
78.56599181615447
 20
-5.456140628787717
 30
0.0
 10
78.568646314318
 20
-5.454087483358357
 30
0.0
 10
78.57129005448641
 20
-5.45203683765655
 30
0.0
 10
78.57392332080062
 20
-5.449988521518043
 30
0.0
 10
78.57654622243092
 20
-5.447942498542089
 30
0.0
 10
78.57915837252625
 20
-5.445899119656449
 30
0.0
 10
78.58175919908148
 20
-5.443858885442822
 30
0.0
 10
78.58434839636699
 20
-5.441822092176852
 30
0.0
 10
78.58692614160185
 20
-5.439788656931439
 30
0.0
 10
78.58949301268696
 20
-5.437758178041072
 30
0.0
 10
78.59204978624259
 20
-5.435730090900703
 30
0.0
 10
78.59459744885112
 20
-5.433703656602838
 30
0.0
 10
78.59713709794288
 20
-5.431678039405412
 30
0.0
 10
78.59966990942389
 20
-5.429652331041627
 30
0.0
 10
78.60219718902199
 20
-5.427625508582604
 30
0.0
 10
78.60472007514726
 20
-5.42559667240468
 30
0.0
 10
78.60723969515153
 20
-5.423564921815701
 30
0.0
 10
78.60975701914672
 20
-5.421529473509053
 30
0.0
 10
78.61227311136904
 20
-5.419489459243883
 30
0.0
 10
78.61478917241348
 20
-5.417443890464327
 30
0.0
 10
78.61730661428723
 20
-5.415391595050739
 30
0.0
 10
78.61982665873693
 20
-5.413331543430749
 30
0.0
 10
78.62235003207247
 20
-5.411263101252782
 30
0.0
 10
78.62487713264414
 20
-5.409185897685811
 30
0.0
 10
78.62740864361064
 20
-5.407099323485491
 30
0.0
 10
78.62994565089444
 20
-5.405002429148231
 30
0.0
 10
78.63248954255752
 20
-5.402894003619806
 30
0.0
 10
78.63504148834017
 20
-5.400773004063649
 30
0.0
 10
78.63760252285842
 20
-5.398638488767769
 30
0.0
 10
78.64017360388086
 20
-5.396489570144368
 30
0.0
 10
78.64275568840795
 20
-5.39432535117568
 30
0.0
 10
78.64534989143632
 20
-5.392144791738514
 30
0.0
 10
78.64708245920006
 20
-5.390684314933871
 30
0.0
 10
78.64795095134176
 20
-5.389951165548382
 30
0.0
 11
78.51191913444165
 21
-5.496719234448335
 31
0.0
 11
78.51502714544165
 21
-5.494449581748368
 31
0.0
 11
78.51809609084161
 21
-5.492201087248361
 31
0.0
 11
78.52112790804167
 21
-5.489972578048366
 31
0.0
 11
78.52412474024166
 21
-5.487762709348344
 31
0.0
 11
78.52708827324171
 21
-5.485570453848366
 31
0.0
 11
78.53002030494169
 21
-5.483394683448366
 31
0.0
 11
78.5329224566416
 21
-5.481234384448342
 31
0.0
 11
78.53579639724161
 21
-5.479088491148374
 31
0.0
 11
78.53864385204168
 21
-5.47695588014835
 31
0.0
 11
78.54146629034166
 21
-5.474835603648371
 31
0.0
 11
78.54426534444169
 21
-5.472726577148363
 31
0.0
 11
78.54704206294164
 21
-5.470628142948328
 31
0.0
 11
78.54979789284164
 21
-5.46853933104836
 31
0.0
 11
78.55253497644175
 21
-5.466458628648354
 31
0.0
 11
78.55525538404174
 21
-5.464384559148371
 31
0.0
 11
78.55796060144166
 21
-5.462316074748359
 31
0.0
 11
78.56065133974166
 21
-5.460252709848376
 31
0.0
 11
78.56332863604167
 21
-5.458193741248351
 31
0.0
 11
78.56599401844175
 21
-5.45613805744837
 31
0.0
 11
78.56864851004172
 21
-5.454084924348379
 31
0.0
 11
78.57129215204158
 21
-5.452034361848375
 31
0.0
 11
78.57392526084176
 21
-5.449986175148366
 31
0.0
 11
78.57654833054166
 21
-5.447940027648371
 31
0.0
 11
78.57916087944172
 21
-5.445896343148362
 31
0.0
 11
78.58176173714163
 21
-5.443856090448335
 31
0.0
 11
78.58435083894178
 21
-5.441819377648355
 31
0.0
 11
78.58692850014168
 21
-5.439786013348338
 31
0.0
 11
78.58949500104166
 21
-5.437755831148365
 31
0.0
 11
78.59205147834169
 21
-5.435727982148363
 31
0.0
 11
78.59459884364163
 21
-5.433701786348365
 31
0.0
 11
78.59713800854172
 21
-5.431676556248362
 31
0.0
 11
78.59967044084161
 21
-5.429651150648338
 31
0.0
 11
78.60219728824168
 21
-5.427624672848381
 31
0.0
 11
78.60471985234164
 21
-5.425596092048351
 31
0.0
 11
78.60723909904177
 21
-5.423564637048341
 31
0.0
 11
78.60975614294159
 21
-5.421529408048342
 31
0.0
 11
78.61227181394167
 21
-5.419489726448346
 31
0.0
 11
78.61478736014172
 21
-5.417444566048344
 31
0.0
 11
78.6173043043417
 21
-5.415392665048358
 31
0.0
 11
78.61982411154167
 21
-5.413332795248365
 31
0.0
 11
78.62234746064166
 21
-5.411264360048363
 31
0.0
 11
78.62487438914161
 21
-5.409187284548366
 31
0.0
 11
78.62740537614161
 21
-5.407101128648348
 31
0.0
 11
78.62994195234172
 21
-5.405004577348336
 31
0.0
 11
78.63248536454159
 21
-5.402896536248363
 31
0.0
 11
78.63503699984164
 21
-5.40077578254835
 31
0.0
 11
78.6375977342417
 21
-5.398641506248337
 31
0.0
 11
78.6401684097417
 21
-5.396492917048377
 31
0.0
 11
78.64275018134176
 21
-5.394328952648336
 31
0.0
 11
78.64534392324165
 21
-5.392148775548348
 31
0.0
 11
78.64795095134176
 21
-5.389951165548382
 31
0.0
  0
SPLINE
  5
56554
330
1F
100
AcDbEntity
  8
1
100
AcDbSpline
210
0.0
220
0.0
230
1.0
 70
     8
 71
     3
 72
    58
 73
    54
 74
    52
 42
0.0000000001
 43
0.0000000001
 44
0.000001
 12
0.8567961435303212
 22
0.5156552806202698
 32
0.0
 13
0.8183906760213957
 23
0.5746622498487639
 33
0.0
 40
0.0
 40
0.0
 40
0.0
 40
0.0
 40
0.0038014598616648
 40
0.0075617840175293
 40
0.0112831145778227
 40
0.0149674290236311
 40
0.0186168310384447
 40
0.0222333506466539
 40
0.0258188027208543
 40
0.0293752529047021
 40
0.0329043881945092
 40
0.0364081734291298
 40
0.0398886754529355
 40
0.0433475068758646
 40
0.046786897890303
 40
0.0502087094687954
 40
0.0536137961582183
 40
0.057003207639378
 40
0.0603790129493257
 40
0.0637434211006717
 40
0.067097657248266
 40
0.0704431488794395
 40
0.0737815177852647
 40
0.0771131324523787
 40
0.0804369030456779
 40
0.0837523585190961
 40
0.0870588855169623
 40
0.0903548473421642
 40
0.0936398211427816
 40
0.0969151031205152
 40
0.1001817785499419
 40
0.1034413571999347
 40
0.1066957844373625
 40
0.1099464819776233
 40
0.113195037746913
 40
0.1164425908514748
 40
0.119690702513014
 40
0.1229405959265225
 40
0.1261936835268939
 40
0.1294508786698383
 40
0.1327137337539168
 40
0.1359842931297253
 40
0.1392639841013235
 40
0.1425534501837107
 40
0.1458542107485177
 40
0.1491675515819613
 40
0.1524949144813599
 40
0.1558378000094265
 40
0.1591973480642207
 40
0.1625754834987326
 40
0.1659736964748417
 40
0.169394072484963
 40
0.1728375203774351
 40
0.1728375203774351
 40
0.1728375203774351
 40
0.1728375203774351
 10
78.36712379944164
 20
-5.591031391748344
 30
0.0
 10
78.3682094914914
 20
-5.590377977464433
 30
0.0
 10
78.37036809154337
 20
-5.589076497655476
 30
0.0
 10
78.37358590923442
 20
-5.587129430968602
 30
0.0
 10
78.37676729915891
 20
-5.585197598429213
 30
0.0
 10
78.37991412251731
 20
-5.583280085994534
 30
0.0
 10
78.38302820149571
 20
-5.581375985983237
 30
0.0
 10
78.38611130496762
 20
-5.579484406485003
 30
0.0
 10
78.38916518430578
 20
-5.577604450345391
 30
0.0
 10
78.39219148701211
 20
-5.575735268926318
 30
0.0
 10
78.39519189691341
 20
-5.573875976468535
 30
0.0
 10
78.39816809202467
 20
-5.572025676332836
 30
0.0
 10
78.40112172311092
 20
-5.570183474331104
 30
0.0
 10
78.40405450998116
 20
-5.568348419216511
 30
0.0
 10
78.4069681081933
 20
-5.566519585864563
 30
0.0
 10
78.40986395347686
 20
-5.5646961737245
 30
0.0
 10
78.41274314401283
 20
-5.5628775842187
 30
0.0
 10
78.41560683294367
 20
-5.561063175488469
 30
0.0
 10
78.41845655025548
 20
-5.559252056480462
 30
0.0
 10
78.42129386964931
 20
-5.557443295527249
 30
0.0
 10
78.42412017927205
 20
-5.555636067410602
 30
0.0
 10
78.42693669791154
 20
-5.553829645134694
 30
0.0
 10
78.42974439991184
 20
-5.552023449276874
 30
0.0
 10
78.43254355128938
 20
-5.550217350097938
 30
0.0
 10
78.43533383200838
 20
-5.548411596097722
 30
0.0
 10
78.43811464897936
 20
-5.546606616039294
 30
0.0
 10
78.44088525835369
 20
-5.544802941030099
 30
0.0
 10
78.44364493256239
 20
-5.543001097525289
 30
0.0
 10
78.44639347925258
 20
-5.541201267192646
 30
0.0
 10
78.4491314646949
 20
-5.5394031337352
 30
0.0
 10
78.45185999084776
 20
-5.537606022762965
 30
0.0
 10
78.45458033644054
 20
-5.535809134670249
 30
0.0
 10
78.4572938691407
 20
-5.534011600842498
 30
0.0
 10
78.46000197355761
 20
-5.53221253092211
 30
0.0
 10
78.46270580595872
 20
-5.530411176403482
 30
0.0
 10
78.46540655728728
 20
-5.528606756874363
 30
0.0
 10
78.46810531339844
 20
-5.526798553420917
 30
0.0
 10
78.47080323191194
 20
-5.524985790524275
 30
0.0
 10
78.47350128733805
 20
-5.523167807355386
 30
0.0
 10
78.47620054166466
 20
-5.521343876550507
 30
0.0
 10
78.47890222749973
 20
-5.519513147065939
 30
0.0
 10
78.481607714489
 20
-5.517674664758908
 30
0.0
 10
78.48431811689524
 20
-5.515827638793615
 30
0.0
 10
78.48703440062729
 20
-5.513971371505756
 30
0.0
 10
78.48975748913005
 20
-5.512105186842901
 30
0.0
 10
78.49248852142306
 20
-5.510228252773101
 30
0.0
 10
78.49522862703017
 20
-5.508339734707619
 30
0.0
 10
78.4979788910197
 20
-5.506438819466701
 30
0.0
 10
78.50074052651492
 20
-5.504524596189635
 30
0.0
 10
78.50351473891527
 20
-5.502596149242366
 30
0.0
 10
78.50630298714214
 20
-5.500652375729223
 30
0.0
 10
78.50910644652737
 20
-5.498692358679588
 30
0.0
 10
78.51097977255879
 20
-5.49737884095271
 30
0.0
 10
78.51191913444165
 20
-5.496719234448335
 30
0.0
 11
78.36712379944164
 21
-5.591031391748344
 31
0.0
 11
78.37037931874171
 21
-5.589068557948351
 31
0.0
 11
78.37359653944156
 21
-5.587121870248353
 31
0.0
 11
78.37677738694162
 21
-5.585190392548368
 31
0.0
 11
78.37992363834169
 21
-5.583273260348335
 31
0.0
 11
78.3830371716416
 21
-5.581369530948379
 31
0.0
 11
78.38611979474162
 21
-5.57947828704836
 31
0.0
 11
78.38917312574165
 21
-5.577598712348333
 31
0.0
 11
78.39219899004172
 21
-5.575729847948366
 31
0.0
 11
78.39519888454166
 21
-5.573870922748368
 31
0.0
 11
78.39817453654167
 21
-5.572021009148372
 31
0.0
 11
78.40112775364165
 21
-5.570179114748341
 31
0.0
 11
78.40405995204164
 21
-5.568344477248331
 31
0.0
 11
78.4069730657417
 21
-5.566515996948338
 31
0.0
 11
78.40986870954171
 21
-5.564692759548349
 31
0.0
 11
78.41274764214166
 21
-5.562874379448344
 31
0.0
 11
78.41561078424172
 21
-5.561060361648343
 31
0.0
 11
78.41845991344166
 21
-5.559249658548367
 31
0.0
 11
78.42129691904165
 21
-5.557441136948341
 31
0.0
 11
78.4241228553417
 21
-5.555634183748337
 31
0.0
 11
78.42693894314163
 21
-5.553828070348345
 31
0.0
 11
78.42974656254172
 21
-5.552021956348369
 31
0.0
 11
78.43254603604157
 21
-5.550215673648351
 31
0.0
 11
78.43533646144159
 21
-5.548409845648336
 31
0.0
 11
78.43811745864174
 21
-5.546604763348341
 31
0.0
 11
78.44088852964171
 21
-5.544800797248342
 31
0.0
 11
78.44364832184159
 21
-5.542998880548367
 31
0.0
 11
78.44639650254172
 21
-5.541199287948373
 31
0.0
 11
78.44913417674172
 21
-5.539401351448361
 31
0.0
 11
78.45186226944169
 21
-5.537604512948347
 31
0.0
 11
78.45458205674176
 21
-5.535807975448335
 31
0.0
 11
78.45729517324176
 21
-5.534010694148321
 31
0.0
 11
78.46000281194164
 21
-5.532211905648367
 31
0.0
 11
78.46270630004177
 21
-5.530410748048382
 31
0.0
 11
78.46540658714174
 21
-5.52860660204834
 31
0.0
 11
78.46810497014168
 21
-5.526798608248356
 31
0.0
 11
78.47080246084169
 21
-5.524986088948381
 31
0.0
 11
78.47350022454168
 21
-5.523168255548341
 31
0.0
 11
78.47619900904169
 21
-5.521344592948381
 31
0.0
 11
78.47890008824164
 21
-5.519514223248349
 31
0.0
 11
78.48160513824168
 21
-5.517675985148358
 31
0.0
 11
78.48431531944164
 21
-5.51582905634838
 31
0.0
 11
78.48703114124157
 21
-5.513973051148369
 31
0.0
 11
78.48975383314166
 21
-5.512107085348361
 31
0.0
 11
78.49248442774173
 21
-5.510230400748355
 31
0.0
 11
78.49522408204167
 21
-5.508342144848356
 31
0.0
 11
78.49797399694161
 21
-5.506441425448372
 31
0.0
 11
78.5007350725416
 21
-5.504527549648343
 31
0.0
 11
78.50350884954164
 21
-5.502599371048346
 31
0.0
 11
78.50629650634179
 21
-5.500655983848361
 31
0.0
 11
78.50909970414171
 21
-5.498696134048343
 31
0.0
 11
78.51191913444165
 21
-5.496719234448335
 31
0.0
  0
SPLINE
  5
56555
330
1F
100
AcDbEntity
  8
1
100
AcDbSpline
210
0.0
220
0.0
230
1.0
 70
     8
 71
     3
 72
    58
 73
    54
 74
    52
 42
0.0000000001
 43
0.0000000001
 44
0.000001
 12
0.8993055312148852
 22
0.4373208907956644
 32
0.0
 13
0.8656444638119044
 23
0.5006592276906523
 33
0.0
 40
0.0
 40
0.0
 40
0.0
 40
0.0
 40
0.0037528472272792
 40
0.0074671747723131
 40
0.0111451000193181
 40
0.0147886405158564
 40
0.0183998429162333
 40
0.0219810686522175
 40
0.0255338207672222
 40
0.0290593340873824
 40
0.0325598762970228
 40
0.0360374867915488
 40
0.0394934483083445
 40
0.042928979874375
 40
0.046346412060084
 40
0.0497477007701596
 40
0.0531340228761211
 40
0.056506620465919
 40
0.0598677140885654
 40
0.0632190435070429
 40
0.0665613916433915
 40
0.0698955654049254
 40
0.0732230604963169
 40
0.0765451165809202
 40
0.0798620725074338
 40
0.083172690843252
 40
0.0864746638864462
 40
0.0897670797140099
 40
0.0930502263161381
 40
0.0963251545797269
 40
0.0995934746620527
 40
0.1028567230863672
 40
0.1061160497873178
 40
0.1093728392750891
 40
0.1126289468069366
 40
0.1158861235059895
 40
0.1191457527908989
 40
0.1224083037221707
 40
0.1256748825489505
 40
0.1289473339544786
 40
0.1322264251230176
 40
0.1355131451622905
 40
0.1388093939693404
 40
0.1421165108781148
 40
0.1454362639549228
 40
0.1487704455547095
 40
0.1521208141553942
 40
0.1554891581893116
 40
0.1588760259889103
 40
0.162281946688455
 40
0.165708270757646
 40
0.1691573624053958
 40
0.1726303087111971
 40
0.1726303087111971
 40
0.1726303087111971
 40
0.1726303087111971
 10
78.21477554044157
 20
-5.672139066148375
 30
0.0
 10
78.21590052586467
 20
-5.671591999984223
 30
0.0
 10
78.21813804927845
 20
-5.670501630013207
 30
0.0
 10
78.22147497726909
 20
-5.668868719748888
 30
0.0
 10
78.2247765510795
 20
-5.667246467068597
 30
0.0
 10
78.22804469340628
 20
-5.665634134560775
 30
0.0
 10
78.23128139367323
 20
-5.664030934433802
 30
0.0
 10
78.23448848120285
 20
-5.66243614088316
 30
0.0
 10
78.23766753736689
 20
-5.660849136044281
 30
0.0
 10
78.2408201107898
 20
-5.659269305343032
 30
0.0
 10
78.24394790488128
 20
-5.657695943016345
 30
0.0
 10
78.247052631813
 20
-5.656128324257323
 30
0.0
 10
78.25013568684283
 20
-5.654565871298823
 30
0.0
 10
78.25319854766165
 20
-5.653007953546499
 30
0.0
 10
78.25624288725745
 20
-5.651453828701845
 30
0.0
 10
78.25927036086452
 20
-5.649902749943793
 30
0.0
 10
78.26228229645739
 20
-5.64835412681719
 30
0.0
 10
78.26528009607959
 20
-5.646807319485015
 30
0.0
 10
78.26826532631177
 20
-5.645261597273552
 30
0.0
 10
78.27123940521244
 20
-5.643716275200673
 30
0.0
 10
78.27420335872735
 20
-5.642170935107353
 30
0.0
 10
78.2771580932912
 20
-5.640625105058292
 30
0.0
 10
78.28010467030714
 20
-5.639078280946211
 30
0.0
 10
78.28304400788081
 20
-5.637530021000832
 30
0.0
 10
78.28597621674615
 20
-5.635980305325049
 30
0.0
 10
78.28890036306606
 20
-5.634429667924637
 30
0.0
 10
78.29181514797233
 20
-5.632878844124782
 30
0.0
 10
78.29471972541154
 20
-5.631328337507091
 30
0.0
 10
78.29761423800374
 20
-5.629778126107181
 30
0.0
 10
78.30049956857975
 20
-5.628227789087133
 30
0.0
 10
78.30337696329948
 20
-5.626676702234144
 30
0.0
 10
78.30624769376763
 20
-5.625124218712755
 30
0.0
 10
78.30911296260487
 20
-5.6235697220153
 30
0.0
 10
78.31197405888485
 20
-5.622012532036022
 30
0.0
 10
78.31483245764594
 20
-5.620451890973028
 30
0.0
 10
78.31768962185059
 20
-5.618887019348397
 30
0.0
 10
78.32054658867106
 20
-5.617317322171917
 30
0.0
 10
78.32340422074473
 20
-5.615742333290112
 30
0.0
 10
78.3262635084582
 20
-5.614161499713432
 30
0.0
 10
78.32912552718974
 20
-5.612574216818936
 30
0.0
 10
78.33199131467506
 20
-5.610979892640475
 30
0.0
 10
78.3348619219424
 20
-5.609377921303787
 30
0.0
 10
78.33773856313289
 20
-5.607767597931704
 30
0.0
 10
78.34062267500984
 20
-5.606148083873737
 30
0.0
 10
78.34351565882613
 20
-5.604518550593934
 30
0.0
 10
78.34641903308642
 20
-5.602878093208881
 30
0.0
 10
78.3493343174981
 20
-5.601225795373627
 30
0.0
 10
78.3522626665146
 20
-5.599560937529946
 30
0.0
 10
78.35520487502813
 20
-5.597882997074725
 30
0.0
 10
78.35816160880037
 20
-5.596191519984597
 30
0.0
 10
78.36113405619759
 20
-5.594485747059094
 30
0.0
 10
78.36412356239884
 20
-5.592764819253422
 30
0.0
 10
78.36612168719407
 20
-5.591610979286768
 30
0.0
 10
78.36712379944164
 20
-5.591031391748344
 30
0.0
 11
78.21477554044157
 21
-5.672139066148375
 31
0.0
 11
78.2181491483417
 21
-5.670495082548343
 31
0.0
 11
78.22148546524172
 21
-5.668862492348353
 31
0.0
 11
78.22478646944173
 21
-5.667240547748378
 31
0.0
 11
78.22805404324165
 21
-5.66562853004838
 31
0.0
 11
78.23129008904166
 21
-5.664025693748342
 31
0.0
 11
78.23449678484168
 21
-5.662431138948361
 31
0.0
 11
78.23767553424172
 21
-5.660844334848349
 31
0.0
 11
78.2408274966416
 21
-5.659264860648362
 31
0.0
 11
78.24395475034171
 21
-5.657691822548387
 31
0.0
 11
78.24705916344171
 21
-5.656124415748364
 31
0.0
 11
78.25014192394168
 21
-5.654562166248354
 31
0.0
 11
78.25320415934164
 21
-5.653004620648347
 31
0.0
 11
78.25624798354171
 21
-5.651450812148366
 31
0.0
 11
78.25927517084164
 21
-5.649899931948366
 31
0.0
 11
78.26228679784164
 21
-5.648351517248357
 31
0.0
 11
78.26528399584164
 21
-5.646805068348326
 31
0.0
 11
78.26826876154168
 21
-5.645259628248382
 31
0.0
 11
78.27124265944179
 21
-5.643714450348356
 31
0.0
 11
78.27420637824174
 21
-5.642169233748347
 31
0.0
 11
78.27716067074163
 21
-5.640623639048326
 31
0.0
 11
78.28010688124177
 21
-5.639077010548375
 31
0.0
 11
78.28304611834177
 21
-5.637528806948367
 31
0.0
 11
78.28597869134171
 21
-5.635978902248396
 31
0.0
 11
78.28890351664165
 21
-5.634427908248382
 31
0.0
 11
78.29181856934167
 21
-5.63287694554836
 31
0.0
 11
78.29472306144172
 21
-5.631326488048357
 31
0.0
 11
78.29761726464164
 21
-5.629776446048366
 31
0.0
 11
78.30050212174173
 21
-5.62822636714837
 31
0.0
 11
78.30337906494164
 21
-5.626675527448369
 31
0.0
 11
78.30624945764168
 21
-5.62512323074837
 31
0.0
 11
78.30911431964171
 21
-5.623568957548355
 31
0.0
 11
78.31197487384169
 21
-5.622012070948372
 31
0.0
 11
78.31483273904168
 21
-5.620451708848363
 31
0.0
 11
78.31768944854172
 21
-5.618887045048396
 31
0.0
 11
78.32054622634166
 21
-5.617317412848365
 31
0.0
 11
78.32340347874164
 21
-5.615742588748331
 31
0.0
 11
78.32626216824168
 21
-5.614162038248365
 31
0.0
 11
78.32912390024159
 21
-5.612574863448343
 31
0.0
 11
78.3319893341417
 21
-5.610980682248366
 31
0.0
 11
78.33485932134172
 21
-5.609379001148339
 31
0.0
 11
78.33773550524165
 21
-5.607768876848353
 31
0.0
 11
78.34061903574172
 21
-5.606149632048371
 31
0.0
 11
78.34351143274161
 21
-5.604520372748368
 31
0.0
 11
78.34641423284165
 21
-5.602880185148363
 31
0.0
 11
78.34932893844166
 21
-5.60122816384836
 31
0.0
 11
78.35225707334167
 21
-5.599563380548347
 31
0.0
 11
78.3551990799416
 21
-5.597885514048357
 31
0.0
 11
78.35815538234161
 21
-5.596194249948354
 31
0.0
 11
78.36112711544171
 21
-5.594488862448371
 31
0.0
 11
78.36411628864166
 21
-5.592768113048363
 31
0.0
 11
78.36712379944164
 21
-5.591031391748344
 31
0.0
  0
SPLINE
  5
56556
330
1F
100
AcDbEntity
  8
1
100
AcDbSpline
210
0.0
220
0.0
230
1.0
 70
     8
 71
     3
 72
    58
 73
    54
 74
    52
 42
0.0000000001
 43
0.0000000001
 44
0.000001
 12
0.9350457847226394
 22
0.3545269813038542
 32
0.0
 13
0.9058296147893894
 23
0.4236421945114845
 33
0.0
 40
0.0
 40
0.0
 40
0.0
 40
0.0
 40
0.0037027682085178
 40
0.0073699124131978
 40
0.0110028947310297
 40
0.0146035432803362
 40
0.0181744916665741
 40
0.0217171913250765
 40
0.025232908377974
 40
0.0287237024671516
 40
0.0321918487201166
 40
0.0356386817551932
 40
0.0390653941870394
 40
0.0424741810573083
 40
0.0458669350107171
 40
0.0492446447287252
 40
0.0526081339647116
 40
0.0559592093539677
 40
0.0592997824273488
 40
0.062631308770548
 40
0.0659558054293433
 40
0.0692749695922235
 40
0.0725899859867978
 40
0.075901908137111
 40
0.0792102029707258
 40
0.08251323605611
 40
0.0858097909196252
 40
0.0890982749161063
 40
0.0923779994497089
 40
0.0956507407599
 40
0.0989189586275293
 40
0.1021843694180646
 40
0.1054472974158465
 40
0.1087085922704274
 40
0.1119700848813202
 40
0.1152330352179441
 40
0.1184985580245137
 40
0.1217684705395585
 40
0.1250441339669983
 40
0.1283259974519448
 40
0.1316152409063411
 40
0.1349138426575966
 40
0.1382231981490781
 40
0.1415452522212007
 40
0.1448812498655366
 40
0.1482330865795974
 40
0.1516016825405082
 40
0.1549877914650562
 40
0.1583934168445167
 40
0.1618198705377946
 40
0.1652682032185126
 40
0.1687406235564817
 40
0.1722384805888615
 40
0.1722384805888615
 40
0.1722384805888615
 40
0.1722384805888615
 10
78.05624069814166
 20
-5.739361638048362
 30
0.0
 10
78.05739478407673
 20
-5.738924060969884
 30
0.0
 10
78.05969108793215
 20
-5.738051098424129
 30
0.0
 10
78.06311707319223
 20
-5.736741839422473
 30
0.0
 10
78.066509025474
 20
-5.73543889609217
 30
0.0
 10
78.06986884671374
 20
-5.734141743039126
 30
0.0
 10
78.07319843042083
 20
-5.732849840517996
 30
0.0
 10
78.0764994904446
 20
-5.731562702036106
 30
0.0
 10
78.07977355825173
 20
-5.730279898373114
 30
0.0
 10
78.08302241674366
 20
-5.729000887935976
 30
0.0
 10
78.08624786529008
 20
-5.727725107268387
 30
0.0
 10
78.08945143013639
 20
-5.726452086914019
 30
0.0
 10
78.09263460912337
 20
-5.725181357079909
 30
0.0
 10
78.09579906875605
 20
-5.723912367718487
 30
0.0
 10
78.09894640878622
 20
-5.722644583981232
 30
0.0
 10
78.10207779921363
 20
-5.721377626667965
 30
0.0
 10
78.10519438908034
 20
-5.720111140386709
 30
0.0
 10
78.10829760384308
 20
-5.718844631893031
 30
0.0
 10
78.11138905081135
 20
-5.717577495606945
 30
0.0
 10
78.11447040891145
 20
-5.716309115306663
 30
0.0
 10
78.1175432841285
 20
-5.715038884667041
 30
0.0
 10
78.12060919597209
 20
-5.713766224075148
 30
0.0
 10
78.12366936369207
 20
-5.712490667907987
 30
0.0
 10
78.1267243180279
 20
-5.711212030673552
 30
0.0
 10
78.12977372241457
 20
-5.709930488313426
 30
0.0
 10
78.13281654434023
 20
-5.708646513479686
 30
0.0
 10
78.13585142893874
 20
-5.707360723033826
 30
0.0
 10
78.13887731472488
 20
-5.706073617746931
 30
0.0
 10
78.14189406032809
 20
-5.70478531253783
 30
0.0
 10
78.14490276592275
 20
-5.703495389683148
 30
0.0
 10
78.14790526482799
 20
-5.702203106670701
 30
0.0
 10
78.15090294175388
 20
-5.700907902582833
 30
0.0
 10
78.15389668598368
 20
-5.69960942276441
 30
0.0
 10
78.15688741993525
 20
-5.698307292767263
 30
0.0
 10
78.15987634957818
 20
-5.697001007874091
 30
0.0
 10
78.16286475873837
 20
-5.695690020686196
 30
0.0
 10
78.16585392425551
 20
-5.694373779063127
 30
0.0
 10
78.16884515042696
 20
-5.693051709447759
 30
0.0
 10
78.17183955115087
 20
-5.691723356054437
 30
0.0
 10
78.17483801003513
 20
-5.690388267772016
 30
0.0
 10
78.17784161960975
 20
-5.68904595732462
 30
0.0
 10
78.18085175112594
 20
-5.687695787909373
 30
0.0
 10
78.1838700065513
 20
-5.686337014204871
 30
0.0
 10
78.18689776073866
 20
-5.684968981975866
 30
0.0
 10
78.18993653699343
 20
-5.68359096089928
 30
0.0
 10
78.1929875439462
 20
-5.682202353955575
 30
0.0
 10
78.19605183815301
 20
-5.680802625557182
 30
0.0
 10
78.19913050633805
 20
-5.67939121980096
 30
0.0
 10
78.20222475088728
 20
-5.677967520082474
 30
0.0
 10
78.20533586067745
 20
-5.676530861322845
 30
0.0
 10
78.20846518336122
 20
-5.675080542897175
 30
0.0
 10
78.21161407400285
 20
-5.673615851379124
 30
0.0
 10
78.21371938627883
 20
-5.672633012758137
 30
0.0
 10
78.21477554044157
 20
-5.672139066148375
 30
0.0
 11
78.05624069814166
 21
-5.739361638048362
 31
0.0
 11
78.05970181554164
 21
-5.738045874348357
 31
0.0
 11
78.06312737554176
 21
-5.736736795648383
 31
0.0
 11
78.06651880344168
 21
-5.735434074548321
 31
0.0
 11
78.06987786234166
 21
-5.734137239548346
 31
0.0
 11
78.0732070613417
 21
-5.732845512348362
 31
0.0
 11
78.07650780214171
 21
-5.731558526348365
 31
0.0
 11
78.07978131044172
 21
-5.730275971548337
 31
0.0
 11
78.08302954694173
 21
-5.728997236648352
 31
0.0
 11
78.08625466784168
 21
-5.727721616848326
 31
0.0
 11
78.08945795024159
 21
-5.726448740248386
 31
0.0
 11
78.09264053624168
 21
-5.725178278248377
 31
0.0
 11
78.09580449554179
 21
-5.723909520648375
 31
0.0
 11
78.09895161224166
 21
-5.722641856248356
 31
0.0
 11
78.10208282854171
 21
-5.721375002048317
 31
0.0
 11
78.10519890154171
 21
-5.72010874284838
 31
0.0
 11
78.10830152484175
 21
-5.718842474448364
 31
0.0
 11
78.11139252314173
 21
-5.717575526248366
 31
0.0
 11
78.11447325934172
 21
-5.716307405248372
 31
0.0
 11
78.11754561174168
 21
-5.715037394748349
 31
0.0
 11
78.12061115884159
 21
-5.713764889848391
 31
0.0
 11
78.12367100244173
 21
-5.71248947334834
 31
0.0
 11
78.12672612074177
 21
-5.711210772248363
 31
0.0
 11
78.12977602744162
 21
-5.709929023748356
 31
0.0
 11
78.13281922304169
 21
-5.708644896348346
 31
0.0
 11
78.13585459654167
 21
-5.707358903948346
 31
0.0
 11
78.13888069364169
 21
-5.706071713948347
 31
0.0
 11
78.1418968948417
 21
-5.704783646348346
 31
0.0
 11
78.1449048469416
 21
-5.703494051548346
 31
0.0
 11
78.14790682044169
 21
-5.702201999448405
 31
0.0
 11
78.15090439824167
 21
-5.700906842648365
 31
0.0
 11
78.15389788274171
 21
-5.699608479548344
 31
0.0
 11
78.15688805724166
 21
-5.698306596748351
 31
0.0
 11
78.15987660214159
 21
-5.697000483248358
 31
0.0
 11
78.16286467114164
 21
-5.695689648248331
 31
0.0
 11
78.16585328234157
 21
-5.694373653148347
 31
0.0
 11
78.16884408054161
 21
-5.693051775248362
 31
0.0
 11
78.17183826384168
 21
-5.691723479848377
 31
0.0
 11
78.17483628334176
 21
-5.690388557448357
 31
0.0
 11
78.17783920724163
 21
-5.689046519548355
 31
0.0
 11
78.18084882944174
 21
-5.687696544548343
 31
0.0
 11
78.18386640824169
 21
-5.686338040848339
 31
0.0
 11
78.18689369944173
 21
-5.684970183548371
 31
0.0
 11
78.18993181734176
 21
-5.683592427548347
 31
0.0
 11
78.19298246544168
 21
-5.682203951948337
 31
0.0
 11
78.19604645624157
 21
-5.680804332548376
 31
0.0
 11
78.19912444884164
 21
-5.679393209948357
 31
0.0
 11
78.20221823584168
 21
-5.677969698348362
 31
0.0
 11
78.20532897754164
 21
-5.676533192348371
 31
0.0
 11
78.20845759434168
 21
-5.675083190048367
 31
0.0
 11
78.21160605394164
 21
-5.67361869544834
 31
0.0
 11
78.21477554044157
 21
-5.672139066148375
 31
0.0
  0
SPLINE
  5
56557
330
1F
100
AcDbEntity
  8
1
100
AcDbSpline
210
0.0
220
0.0
230
1.0
 70
     8
 71
     3
 72
    57
 73
    53
 74
    51
 42
0.0000000001
 43
0.0000000001
 44
0.000001
 12
0.9634845130228304
 22
0.2677640624974894
 32
0.0
 13
0.9389085043443136
 23
0.3441668497544819
 33
0.0
 40
0.0
 40
0.0
 40
0.0
 40
0.0
 40
0.0037284964858915
 40
0.0074220648819296
 40
0.0110820849339091
 40
0.0147105656553606
 40
0.0183098085012087
 40
0.0218816026323391
 40
0.0254280253956912
 40
0.028950486476601
 40
0.0324510193177223
 40
0.035931118408597
 40
0.0393927916029035
 40
0.0428375960327576
 40
0.0462672895185121
 40
0.0496834123526371
 40
0.0530875153596705
 40
0.0564814311947926
 40
0.059866478175764
 40
0.0632450160810316
 40
0.0666187574221132
 40
0.0699893741360571
 40
0.0733585729786469
 40
0.0767255628496925
 40
0.0800889654510474
 40
0.0834478264220213
 40
0.0867994152572185
 40
0.0901423796407831
 40
0.0934783029131448
 40
0.0968095862636848
 40
0.1001374854175153
 40
0.1034632786932993
 40
0.1067883902966972
 40
0.1101144084787444
 40
0.1134425752654615
 40
0.1167740208810879
 40
0.1201107831769304
 40
0.1234549427136205
 40
0.126808646111184
 40
0.1301726141519364
 40
0.1335473110203312
 40
0.1369336032674763
 40
0.1403338288796952
 40
0.1437492533344452
 40
0.1471807466881428
 40
0.1506295966023672
 40
0.1540983302924366
 40
0.1575883495976843
 40
0.1611006864736299
 40
0.1646376326989109
 40
0.1682008104350841
 40
0.1717911240394925
 40
0.1717911240394925
 40
0.1717911240394925
 40
0.1717911240394925
 10
77.89282488144171
 20
-5.792197342748352
 30
0.0
 10
77.89402233098205
 20
-5.791864556959661
 30
0.0
 10
77.89640537105831
 20
-5.791199792295143
 30
0.0
 10
77.89996163854937
 20
-5.790200381265787
 30
0.0
 10
77.90348392785434
 20
-5.789203313894032
 30
0.0
 10
77.90697410946624
 20
-5.788208282470748
 30
0.0
 10
77.91043418122979
 20
-5.787214924303311
 30
0.0
 10
77.91386615865727
 20
-5.786222853096864
 30
0.0
 10
77.91727176778659
 20
-5.78523174893449
 30
0.0
 10
77.92065280924077
 20
-5.78424125443516
 30
0.0
 10
77.92401089387692
 20
-5.783251053320729
 30
0.0
 10
77.92734781977751
 20
-5.782260757320901
 30
0.0
 10
77.93066523169532
 20
-5.781270017640814
 30
0.0
 10
77.93396484643205
 20
-5.780278418468602
 30
0.0
 10
77.93724824167053
 20
-5.779285621225396
 30
0.0
 10
77.94051698228617
 20
-5.778291250535669
 30
0.0
 10
77.943772655478
 20
-5.777294917547018
 30
0.0
 10
77.94701677423848
 20
-5.776296242599453
 30
0.0
 10
77.95025110621307
 20
-5.775294755742121
 30
0.0
 10
77.95347737735096
 20
-5.774289986848437
 30
0.0
 10
77.95669742257539
 20
-5.773281418504908
 30
0.0
 10
77.95991286570537
 20
-5.772268586893272
 30
0.0
 10
77.9631245317674
 20
-5.771251269428777
 30
0.0
 10
77.96633227562643
 20
-5.770229547284889
 30
0.0
 10
77.96953510835326
 20
-5.769203774775929
 30
0.0
 10
77.97273142772581
 20
-5.76817451027436
 30
0.0
 10
77.97591964332927
 20
-5.767142319992287
 30
0.0
 10
77.97909897255158
 20
-5.766107518286842
 30
0.0
 10
77.98227025980907
 20
-5.765069890779205
 30
0.0
 10
77.98543517315554
 20
-5.764028944106922
 30
0.0
 10
77.98859528083447
 20
-5.762984206280188
 30
0.0
 10
77.9917518391326
 20
-5.761935298692718
 30
0.0
 10
77.99490620704535
 20
-5.760881799892966
 30
0.0
 10
77.99805972937097
 20
-5.75982328373862
 30
0.0
 10
78.00121365546842
 20
-5.758759347403652
 30
0.0
 10
78.00436937420656
 20
-5.75768953251984
 30
0.0
 10
78.00752853627852
 20
-5.756613282270678
 30
0.0
 10
78.01069310950708
 20
-5.75552991998885
 30
0.0
 10
78.01386464237698
 20
-5.754438899548906
 30
0.0
 10
78.0170441720677
 20
-5.753339844831371
 30
0.0
 10
78.02023232742914
 20
-5.75223250461616
 30
0.0
 10
78.02343024955573
 20
-5.751116459675076
 30
0.0
 10
78.02663932760538
 20
-5.74999119103706
 30
0.0
 10
78.02986094832007
 20
-5.748856169520075
 30
0.0
 10
78.03309616583494
 20
-5.747710975748367
 30
0.0
 10
78.0363464283101
 20
-5.746555043387969
 30
0.0
 10
78.03961334757641
 20
-5.745387737657082
 30
0.0
 10
78.04289845164868
 20
-5.744208442924517
 30
0.0
 10
78.04620319158044
 20
-5.743016561947543
 30
0.0
 10
78.04952908423664
 20
-5.741811463909199
 30
0.0
 10
78.05287760281929
 20
-5.740592523314214
 30
0.0
 10
78.05511703948287
 20
-5.739773527022649
 30
0.0
 10
78.05624069814166
 20
-5.739361638048362
 30
0.0
 11
77.89282488144171
 21
-5.792197342748352
 31
0.0
 11
77.89641627844163
 21
-5.791195512148362
 31
0.0
 11
77.89997214164168
 21
-5.790196221048347
 31
0.0
 11
77.90349384394166
 21
-5.789199320448362
 31
0.0
 11
77.90698336074173
 21
-5.788204474548364
 31
0.0
 11
77.9104429447417
 21
-5.787211249048382
 31
0.0
 11
77.91387435224172
 21
-5.786219333048349
 31
0.0
 11
77.91727961274172
 21
-5.785228319248362
 31
0.0
 11
77.9206601113416
 21
-5.784237972148346
 31
0.0
 11
77.92401782864169
 21
-5.783247867148361
 31
0.0
 11
77.92735422494172
 21
-5.782257717948382
 31
0.0
 11
77.93067124954167
 21
-5.78126707894836
 31
0.0
 11
77.93397031234168
 21
-5.780275651448349
 31
0.0
 11
77.93725321534171
 21
-5.779283006048371
 31
0.0
 11
77.94052146114165
 21
-5.778288790448371
 31
0.0
 11
77.94377655004168
 21
-5.77729264094836
 31
0.0
 11
77.94702024884156
 21
-5.776294100348366
 31
0.0
 11
77.95025382954168
 21
-5.775292851348352
 31
0.0
 11
77.95347955584168
 21
-5.774288257448347
 31
0.0
 11
77.95669906944171
 21
-5.773279860948347
 31
0.0
 11
77.95991397014167
 21
-5.772267205448386
 31
0.0
 11
77.96312588774174
 21
-5.771249813348347
 31
0.0
 11
77.96633406944171
 21
-5.770227956548351
 31
0.0
 11
77.9695372051416
 21
-5.769202091548365
 31
0.0
 11
77.97273439084165
 21
-5.768172552448347
 31
0.0
 11
77.97592303524163
 21
-5.767140227548367
 31
0.0
 11
77.97910186254161
 21
-5.766105593348356
 31
0.0
 11
77.98227238904168
 21
-5.76506821884834
 31
0.0
 11
77.98543690474175
 21
-5.764027407048344
 31
0.0
 11
77.98859660784171
 21
-5.762982807048331
 31
0.0
 11
77.99175271564161
 21
-5.761934053248353
 31
0.0
 11
77.99490658144168
 21
-5.760880726248331
 31
0.0
 11
77.99805971134164
 21
-5.759822345948348
 31
0.0
 11
78.00121328054172
 21
-5.75875853414834
 31
0.0
 11
78.00436835604172
 21
-5.75768894144835
 31
0.0
 11
78.00752686174168
 21
-5.756612918948391
 31
0.0
 11
78.01069075804163
 21
-5.755529792348339
 31
0.0
 11
78.01386206384167
 21
-5.754438854248378
 31
0.0
 11
78.01704144674172
 21
-5.753339852348346
 31
0.0
 11
78.02022925204177
 21
-5.752232642248357
 31
0.0
 11
78.02342632954164
 21
-5.751116901048361
 31
0.0
 11
78.02663490094177
 21
-5.74999181804837
 31
0.0
 11
78.02985614144167
 21
-5.748856937648383
 31
0.0
 11
78.03309085144168
 21
-5.747711930148368
 31
0.0
 11
78.03634022314168
 21
-5.746556321048331
 31
0.0
 11
78.03960661324174
 21
-5.745389210848343
 31
0.0
 11
78.04289131484165
 21
-5.74421006764838
 31
0.0
 11
78.04619527044168
 21
-5.743018477448344
 31
0.0
 11
78.04952060484165
 21
-5.741813590948382
 31
0.0
 11
78.0528688093417
 21
-5.740594775848379
 31
0.0
 11
78.05624069814166
 21
-5.739361638048362
 31
0.0
  0
SPLINE
  5
56558
330
1F
100
AcDbEntity
  8
1
100
AcDbSpline
210
0.0
220
0.0
230
1.0
 70
     8
 71
     3
 72
    38
 73
    34
 74
    32
 42
0.0000000001
 43
0.0000000001
 44
0.000001
 12
-0.9999977240033757
 22
0.0021335388602574
 32
0.0
 13
-0.9996535466060414
 23
0.026320842652987
 33
0.0
 40
0.0
 40
0.0
 40
0.0
 40
0.0
 40
0.0090983206976855
 40
0.018756011098343
 40
0.0289577444296746
 40
0.0396255856320529
 40
0.0504951558472351
 40
0.0613172485131806
 40
0.0721202162883234
 40
0.0830243915942464
 40
0.0940426125380617
 40
0.104995314817375
 40
0.115474783939451
 40
0.1253128155189431
 40
0.1348420145582818
 40
0.1444829433955581
 40
0.1546325829912455
 40
0.1654060045117602
 40
0.1763745055358536
 40
0.187188099845534
 40
0.1978561049741252
 40
0.2086812504469846
 40
0.2202787941441894
 40
0.2332435847356712
 40
0.2479851848591894
 40
0.2646517518298915
 40
0.2830212657051325
 40
0.3019979930273141
 40
0.3206804424082575
 40
0.3388655322809088
 40
0.3573983788906194
 40
0.3782153230056997
 40
0.4014977957427992
 40
0.4014977957427992
 40
0.4014977957427992
 40
0.4014977957427992
 10
76.03181253674165
 20
-5.915303169248345
 30
0.0
 10
76.02877977007835
 20
-5.915296698708088
 30
0.0
 10
76.02252778953559
 20
-5.915278470929952
 30
0.0
 10
76.01287531186463
 20
-5.915232372735642
 30
0.0
 10
76.0026997898299
 20
-5.915162320367883
 30
0.0
 10
75.9921205086599
 20
-5.915065411766837
 30
0.0
 10
75.98133472667408
 20
-5.91493983287289
 30
0.0
 10
75.97050426637301
 20
-5.914785749396168
 30
0.0
 10
75.95966271493994
 20
-5.914603153279561
 30
0.0
 10
75.94875621073812
 20
-5.914396549577588
 30
0.0
 10
75.93780017178474
 20
-5.914170519725971
 30
0.0
 10
75.92698597153449
 20
-5.913933401391347
 30
0.0
 10
75.91656527666635
 20
-5.913695870456562
 30
0.0
 10
75.90661907481029
 20
-5.913464169067578
 30
0.0
 10
75.89695242964224
 20
-5.913233919552983
 30
0.0
 10
75.88718206549012
 20
-5.912996175859
 30
0.0
 10
75.87699721499646
 20
-5.91274298425769
 30
0.0
 10
75.86637011884461
 20
-5.912473153811707
 30
0.0
 10
75.85552191490338
 20
-5.912192282937574
 30
0.0
 10
75.84470895619954
 20
-5.911907798498587
 30
0.0
 10
75.83394385306033
 20
-5.911621291663918
 30
0.0
 10
75.82291757753953
 20
-5.911325903854542
 30
0.0
 10
75.81112599247335
 20
-5.911009602939055
 30
0.0
 10
75.79802933871883
 20
-5.910660279945654
 30
0.0
 10
75.78324348347234
 20
-5.910270721542079
 30
0.0
 10
75.76665656654353
 20
-5.909837998388855
 30
0.0
 10
75.74865832508322
 20
-5.909372140298833
 30
0.0
 10
75.72998828833937
 20
-5.9088912008488
 30
0.0
 10
75.71137968900834
 20
-5.908412500641914
 30
0.0
 10
75.69291902113457
 20
-5.907936820888122
 30
0.0
 10
75.67374716231299
 20
-5.907440057263467
 30
0.0
 10
75.6528768288583
 20
-5.906896087077893
 30
0.0
 10
75.63818211862347
 20
-5.906509073482166
 30
0.0
 10
75.63042398314166
 20
-5.906304802048338
 30
0.0
 11
76.03181253674165
 21
-5.915303169248345
 31
0.0
 11
76.02271418154157
 21
-5.915275707648389
 31
0.0
 11
76.01305657324168
 21
-5.915228943248352
 31
0.0
 11
76.00285511564163
 21
-5.915158609648357
 31
0.0
 11
75.99218774714168
 21
-5.915060656548391
 31
0.0
 11
75.98131893064169
 21
-5.914933959148356
 31
0.0
 11
75.97049794464159
 21
-5.91477993914833
 31
0.0
 11
75.95969650054168
 21
-5.914598958248375
 31
0.0
 11
75.94879427154173
 21
-5.914393220648348
 31
0.0
 11
75.93777838334165
 21
-5.914166683948337
 31
0.0
 11
75.92682829944159
 21
-5.913927325948349
 31
0.0
 11
75.91635154034169
 21
-5.913689095548377
 31
0.0
 11
75.9065161801417
 21
-5.913459900248368
 31
0.0
 11
75.89698968394168
 21
-5.913232995248336
 31
0.0
 11
75.8873516087416
 21
-5.912998477348381
 31
0.0
 11
75.87720510374163
 21
-5.912746280748365
 31
0.0
 11
75.86643515184175
 21
-5.912472915148356
 31
0.0
 11
75.85547032224167
 21
-5.912189176648353
 31
0.0
 11
75.84466046424165
 21
-5.911904969648333
 31
0.0
 11
75.83399623004163
 21
-5.911621376648355
 31
0.0
 11
75.82317496084169
 21
-5.911331738148362
 31
0.0
 11
75.8115815788416
 21
-5.91102110014836
 31
0.0
 11
75.79862138994169
 21
-5.910675730348343
 31
0.0
 11
75.78388491094165
 21
-5.910287216748386
 31
0.0
 11
75.76722401894166
 21
-5.909852342748365
 31
0.0
 11
75.74886066314175
 21
-5.909376749348352
 31
0.0
 11
75.72989023654156
 21
-5.908887787248346
 31
0.0
 11
75.71121397214165
 21
-5.908407103248349
 31
0.0
 11
75.69303492414168
 21
-5.907938375348351
 31
0.0
 11
75.67450829564165
 21
-5.907458333248341
 31
0.0
 11
75.65369842754162
 21
-5.906915608448342
 31
0.0
 11
75.63042398314166
 21
-5.906304802048338
 31
0.0
  0
SPLINE
  5
56559
330
1F
100
AcDbEntity
  8
1
100
AcDbSpline
210
0.0
220
0.0
230
1.0
 70
     8
 71
     3
 72
    54
 73
    50
 74
    48
 42
0.0000000001
 43
0.0000000001
 44
0.000001
 12
-0.9995814424228875
 22
-0.0289299146867004
 32
0.0
 13
-0.9999990264222036
 23
0.0013954048319722
 33
0.0
 40
0.0
 40
0.0
 40
0.0
 40
0.0
 40
0.014724780317108
 40
0.0280705715089239
 40
0.0406394694260597
 40
0.0529744508711228
 40
0.0654355739763386
 40
0.0780260918802361
 40
0.0901335807075539
 40
0.1009485126029303
 40
0.1103306708573707
 40
0.1185241039287975
 40
0.1257836718801487
 40
0.1324245172354056
 40
0.1387701677713115
 40
0.1450886303300844
 40
0.1514388615899329
 40
0.1577698416519584
 40
0.1641048461648612
 40
0.1704728855796344
 40
0.1768294124382103
 40
0.1831269809189673
 40
0.1893651531241491
 40
0.1955784649070471
 40
0.2018407078955079
 40
0.2080898991848208
 40
0.2140934006858688
 40
0.2198753273077366
 40
0.2257190269708884
 40
0.2319057026216571
 40
0.2386722147646243
 40
0.2458330470696501
 40
0.2529671650512752
 40
0.259954035570545
 40
0.2668169017068207
 40
0.2736555611374203
 40
0.2805316574319097
 40
0.2873301362053816
 40
0.2940769885045435
 40
0.3011691467385467
 40
0.3090619959906641
 40
0.3181482564682745
 40
0.32823103985543
 40
0.3388404974919464
 40
0.3494333643919299
 40
0.3593638465287374
 40
0.3680538656040687
 40
0.3756187649207407
 40
0.3825023855023285
 40
0.3825023855023285
 40
0.3825023855023285
 40
0.3825023855023285
 10
76.4142010106417
 20
-5.906651765748349
 30
0.0
 10
76.40929480492546
 20
-5.906793761294466
 30
0.0
 10
76.39994189903291
 20
-5.90706565959359
 30
0.0
 10
76.3864010361199
 20
-5.907456068638968
 30
0.0
 10
76.37365644867663
 20
-5.907823750987892
 30
0.0
 10
76.36120661561637
 20
-5.908182502123612
 30
0.0
 10
76.34874957640194
 20
-5.908541374511601
 30
0.0
 10
76.33636832191436
 20
-5.908897552922603
 30
0.0
 10
76.32453554626164
 20
-5.909237094489758
 30
0.0
 10
76.31377175428209
 20
-5.909544930366124
 30
0.0
 10
76.3043120864173
 20
-5.909814491131101
 30
0.0
 10
76.29603703293404
 20
-5.910049378101208
 30
0.0
 10
76.28867536624452
 20
-5.910257763463384
 30
0.0
 10
76.28192937515047
 20
-5.910448533400973
 30
0.0
 10
76.27549696116196
 20
-5.910630459303738
 30
0.0
 10
76.26916138574348
 20
-5.910809855991197
 30
0.0
 10
76.26283070981476
 20
-5.91098951271394
 30
0.0
 10
76.25649453906081
 20
-5.911169922056929
 30
0.0
 10
76.2501524579062
 20
-5.911351315195553
 30
0.0
 10
76.24380189402689
 20
-5.91153397722894
 30
0.0
 10
76.23746384338838
 20
-5.911717656815978
 30
0.0
 10
76.23116909961798
 20
-5.911901317918299
 30
0.0
 10
76.22492208168992
 20
-5.91208385286081
 30
0.0
 10
76.21868681751323
 20
-5.912265483061441
 30
0.0
 10
76.21244784178535
 20
-5.912445840998982
 30
0.0
 10
76.20627871406913
 20
-5.912622108700269
 30
0.0
 10
76.20026955548282
 20
-5.912791301665677
 30
0.0
 10
76.19439543198888
 20
-5.912953996928137
 30
0.0
 10
76.18846019459013
 20
-5.913115496935377
 30
0.0
 10
76.18219679490223
 20
-5.913282639712671
 30
0.0
 10
76.17549440875587
 20
-5.913457768975381
 30
0.0
 10
76.16847619582841
 20
-5.913636488534371
 30
0.0
 10
76.16138441221538
 20
-5.913811433683255
 30
0.0
 10
76.15439176920137
 20
-5.913977692109756
 30
0.0
 10
76.147497425921
 20
-5.914134806339726
 30
0.0
 10
76.14063982880558
 20
-5.914283492583689
 30
0.0
 10
76.1338035113378
 20
-5.914423294192429
 30
0.0
 10
76.12699758766204
 20
-5.914552286854964
 30
0.0
 10
76.1201194334875
 20
-5.91467025555295
 30
0.0
 10
76.1128763873799
 20
-5.914785058778037
 30
0.0
 10
76.10485341586252
 20
-5.914897605384821
 30
0.0
 10
76.09583343996263
 20
-5.915006825460565
 30
0.0
 10
76.08590775980522
 20
-5.915105953404693
 30
0.0
 10
76.07547970276309
 20
-5.915187646561055
 30
0.0
 10
76.06510226858883
 20
-5.915247903785804
 30
0.0
 10
76.05536454675792
 20
-5.915285658908235
 30
0.0
 10
76.0466360956822
 20
-5.915304233204166
 30
0.0
 10
76.03892324900346
 20
-5.915309073353311
 30
0.0
 10
76.0341070747016
 20
-5.915306371060819
 30
0.0
 10
76.03181253674165
 20
-5.915303169248345
 30
0.0
 11
76.4142010106417
 21
-5.906651765748349
 31
0.0
 11
76.39948240644175
 21
-5.907077402048357
 31
0.0
 11
76.38614217484168
 21
-5.907462573548357
 31
0.0
 11
76.3735785015416
 21
-5.907824927048353
 31
0.0
 11
76.36124864004171
 21
-5.908180276848355
 31
0.0
 11
76.34879268314159
 21
-5.908539047348368
 31
0.0
 11
76.33620737024161
 21
-5.908901027848344
 31
0.0
 11
76.32410486164168
 21
-5.909248248748355
 31
0.0
 11
76.31329434914164
 21
-5.909557384148342
 31
0.0
 11
76.3039159970416
 21
-5.909824592948352
 31
0.0
 11
76.29572586374172
 21
-5.910057097448357
 31
0.0
 11
76.28846920424168
 21
-5.910262564048379
 31
0.0
 11
76.28183101384172
 21
-5.910450319048351
 31
0.0
 11
76.27548790094158
 21
-5.910629750548366
 31
0.0
 11
76.26917197114164
 21
-5.910808622348355
 31
0.0
 11
76.26282429684161
 21
-5.91098879444837
 31
0.0
 11
76.25649588314161
 21
-5.911169019348392
 31
0.0
 11
76.25016346994164
 21
-5.911350170348357
 31
0.0
 11
76.24379806574165
 21
-5.911533318148386
 31
0.0
 11
76.23744420714172
 21
-5.911717434948343
 31
0.0
 11
76.23114931434169
 21
-5.911900940248356
 31
0.0
 11
76.22491380124168
 21
-5.912083001248389
 31
0.0
 11
76.21870312204158
 21
-5.912263780248338
 31
0.0
 11
76.21244349304174
 21
-5.91244461644834
 31
0.0
 11
76.20619685114172
 21
-5.912623005648356
 31
0.0
 11
76.20019572914168
 21
-5.912791913248355
 31
0.0
 11
76.19441602124163
 21
-5.912951961148338
 31
0.0
 11
76.18857448684174
 21
-5.913110891548342
 31
0.0
 11
76.18239001764175
 21
-5.913275936848349
 31
0.0
 11
76.17562581854167
 21
-5.913452609048361
 31
0.0
 11
76.16846731214161
 21
-5.913634764748338
 31
0.0
 11
76.1613353729416
 21
-5.913810574248343
 31
0.0
 11
76.15435049124164
 21
-5.913976518148331
 31
0.0
 11
76.14748943214173
 21
-5.914132727948357
 31
0.0
 11
76.14065243264168
 21
-5.914280834948357
 31
0.0
 11
76.13377791644167
 21
-5.914421147148344
 31
0.0
 11
76.12698127794171
 21
-5.914550204348357
 31
0.0
 11
76.12023496634162
 21
-5.914667737748344
 31
0.0
 11
76.11314347204165
 21
-5.914779758748352
 31
0.0
 11
76.10525132464172
 21
-5.91489066334833
 31
0.0
 11
76.09616569304161
 21
-5.915000748748369
 31
0.0
 11
76.08608339474166
 21
-5.915101667748357
 31
0.0
 11
76.07547425514167
 21
-5.915185096648386
 31
0.0
 11
76.06488156144166
 21
-5.915246664648349
 31
0.0
 11
76.0549511503417
 21
-5.915285169448337
 31
0.0
 11
76.04626114874156
 21
-5.915303703148367
 31
0.0
 11
76.03869621884166
 21
-5.915308319648346
 31
0.0
 11
76.03181253674165
 21
-5.915303169248345
 31
0.0
  0
SPLINE
  5
5655A
330
1F
100
AcDbEntity
  8
1
100
AcDbSpline
210
0.0
220
0.0
230
1.0
 70
     8
 71
     3
 72
    23
 73
    19
 74
    17
 42
0.0000000001
 43
0.0000000001
 44
0.000001
 12
-0.9664142321954333
 22
-0.2569893612780715
 32
0.0
 13
-0.9939880415277782
 23
-0.1094886902824752
 33
0.0
 40
0.0
 40
0.0
 40
0.0
 40
0.0
 40
0.0193226589486027
 40
0.0386460088839923
 40
0.0579691219576182
 40
0.0772894872398843
 40
0.0966056837062123
 40
0.1159149114681091
 40
0.1352144053024838
 40
0.1545037838513048
 40
0.1737824928115386
 40
0.1930513838485935
 40
0.2123114332260922
 40
0.2315635895020764
 40
0.2508080760318834
 40
0.2700432412925063
 40
0.2892677101119462
 40
0.308480194098048
 40
0.308480194098048
 40
0.308480194098048
 40
0.308480194098048
 10
77.83489000994167
 20
-5.808344411348342
 30
0.0
 10
77.82866544573774
 20
-5.809999650608808
 30
0.0
 10
77.81620052090307
 20
-5.813251939682354
 30
0.0
 10
77.79745830561171
 20
-5.817955092406161
 30
0.0
 10
77.77867359144884
 20
-5.822482335384294
 30
0.0
 10
77.75984961540263
 20
-5.826832856107359
 30
0.0
 10
77.740990220647
 20
-5.8310058070732
 30
0.0
 10
77.72209943203624
 20
-5.835000764422867
 30
0.0
 10
77.70318075591948
 20
-5.838816545570079
 30
0.0
 10
77.68423711073097
 20
-5.842452782675612
 30
0.0
 10
77.66527020022966
 20
-5.845909196765195
 30
0.0
 10
77.64628129038786
 20
-5.849185618418878
 30
0.0
 10
77.62727116020008
 20
-5.852281994582287
 30
0.0
 10
77.60824080825901
 20
-5.855198336135622
 30
0.0
 10
77.58919206451449
 20
-5.857934259481247
 30
0.0
 10
77.57012765199482
 20
-5.860490263496485
 30
0.0
 10
77.55105059285657
 20
-5.862865116374037
 30
0.0
 10
77.53832184091845
 20
-5.864328026812124
 30
0.0
 10
77.53195618114173
 20
-5.865029210048361
 30
0.0
 11
77.83489000994167
 21
-5.808344411348342
 31
0.0
 11
77.81619326504166
 21
-5.813222711048354
 31
0.0
 11
77.79745109104159
 21
-5.817925983048397
 31
0.0
 11
77.77866599004177
 21
-5.822453533648342
 31
0.0
 11
77.75984201684163
 21
-5.826804339848365
 31
0.0
 11
77.7409821517416
 21
-5.830977699948391
 31
0.0
 11
77.72209070434168
 21
-5.83497268924833
 31
0.0
 11
77.70317216324167
 21
-5.838788441048335
 31
0.0
 11
77.68422859064175
 21
-5.842424630348332
 31
0.0
 11
77.66526221924177
 21
-5.845880913548356
 31
0.0
 11
77.64627390094165
 21
-5.849157203748376
 31
0.0
 11
77.62726436664175
 21
-5.852253468948389
 31
0.0
 11
77.60823437424166
 21
-5.855169693848381
 31
0.0
 11
77.58918538834169
 21
-5.857905730148361
 31
0.0
 11
77.5701205616416
 21
-5.860461202448347
 31
0.0
 11
77.55104315344159
 21
-5.862835778048392
 31
0.0
 11
77.53195618114173
 21
-5.865029210048361
 31
0.0
  0
SPLINE
  5
5655B
330
1F
100
AcDbEntity
  8
1
100
AcDbSpline
210
0.0
220
0.0
230
1.0
 70
     8
 71
     3
 72
    24
 73
    20
 74
    18
 42
0.0000000001
 43
0.0000000001
 44
0.000001
 12
-0.0803623711481846
 22
-0.9967657143498875
 32
0.0
 13
-0.2382894618966521
 23
-0.9711941784983084
 33
0.0
 40
0.0
 40
0.0
 40
0.0
 40
0.0
 40
0.0191772382619384
 40
0.0383539250531216
 40
0.0575283381708701
 40
0.0766987536375208
 40
0.0958647777351676
 40
0.1150263434089633
 40
0.1341821048544098
 40
0.1533327276460179
 40
0.1724790282395784
 40
0.1916224473622548
 40
0.2107644860736337
 40
0.2299060090803938
 40
0.2490481002942225
 40
0.2681912394358249
 40
0.2873353614059617
 40
0.3064810724090896
 40
0.3256288866257531
 40
0.3256288866257531
 40
0.3256288866257531
 40
0.3256288866257531
 10
79.3688314504417
 20
-3.984090607248346
 30
0.0
 10
79.36831774099544
 20
-3.990462345113486
 30
0.0
 10
79.36723029508948
 20
-4.003200879720017
 30
0.0
 10
79.3654190170108
 20
-4.022291528913807
 30
0.0
 10
79.3634289491559
 20
-4.041362098718885
 30
0.0
 10
79.36126020692438
 20
-4.060409596252609
 30
0.0
 10
79.35891274278796
 20
-4.079431580926076
 30
0.0
 10
79.35638696586912
 20
-4.098425782794508
 30
0.0
 10
79.35368313302667
 20
-4.117390271670203
 30
0.0
 10
79.35080155070224
 20
-4.136323420079426
 30
0.0
 10
79.34774238537944
 20
-4.155224519844214
 30
0.0
 10
79.34450571735275
 20
-4.174093131057682
 30
0.0
 10
79.34109157791337
 20
-4.192928820302546
 30
0.0
 10
79.33750010737816
 20
-4.211731052438068
 30
0.0
 10
79.33373143814558
 20
-4.230498944172262
 30
0.0
 10
79.32978586498132
 20
-4.249231329799807
 30
0.0
 10
79.32566323716589
 20
-4.267926783897568
 30
0.0
 10
79.32136541597717
 20
-4.286584324587368
 30
0.0
 10
79.31838232849035
 20
-4.298995595382308
 30
0.0
 10
79.31686142104161
 20
-4.305194343948372
 30
0.0
 11
79.3688314504417
 21
-3.984090607248346
 31
0.0
 11
79.36720044044159
 21
-4.00319841564834
 31
0.0
 11
79.36538983584172
 21
-4.022289457448336
 31
0.0
 11
79.36339995024161
 21
-4.041360311548345
 31
0.0
 11
79.36123115574163
 21
-4.060407629148372
 31
0.0
 11
79.35888372494165
 21
-4.079429343248364
 31
0.0
 11
79.35635790334163
 21
-4.098423699848368
 31
0.0
 11
79.35365412994169
 21
-4.117387683248352
 31
0.0
 11
79.35077261934171
 21
-4.136320278548338
 31
0.0
 11
79.34771356124169
 21
-4.15522062064835
 31
0.0
 11
79.34447700874162
 21
-4.174088454648384
 31
0.0
 11
79.34106297394172
 21
-4.192923578748319
 31
0.0
 11
79.33747161894166
 21
-4.211725171348375
 31
0.0
 11
79.33370305054165
 21
-4.230492622848345
 31
0.0
 11
79.32975746534172
 21
-4.249224722248371
 31
0.0
 11
79.32563519494171
 21
-4.267919724448346
 31
0.0
 11
79.32133642684165
 21
-4.286576705148347
 31
0.0
 11
79.31686142104161
 21
-4.305194343948372
 31
0.0
  0
SPLINE
  5
5655C
330
1F
100
AcDbEntity
  8
1
100
AcDbSpline
210
0.0
220
0.0
230
1.0
 70
     8
 71
     3
 72
    24
 73
    20
 74
    18
 42
0.0000000001
 43
0.0000000001
 44
0.000001
 12
0.0063388502204452
 22
-0.999979909287123
 32
0.0
 13
0.000941775480577
 23
-0.9999995565293737
 33
0.0
 40
0.0
 40
0.0
 40
0.0
 40
0.0
 40
0.0176725355861295
 40
0.0350050787553483
 40
0.0518969992969238
 40
0.0688596220373943
 40
0.0866965677636448
 40
0.1062152293754354
 40
0.1274959814483409
 40
0.1494935261111181
 40
0.1711728768851255
 40
0.1924281499088025
 40
0.2137804454757501
 40
0.236520763656383
 40
0.2620474048899279
 40
0.2913184233370183
 40
0.3235880998941332
 40
0.3585326339474025
 40
0.3959380846278254
 40
0.3959380846278254
 40
0.3959380846278254
 40
0.3959380846278254
 10
79.37519234184162
 20
-3.336155279348361
 30
0.0
 10
79.375229683027
 20
-3.342046006192458
 30
0.0
 10
79.37528836436055
 20
-3.35371423836268
 30
0.0
 10
79.37532171426781
 20
-3.371013229748402
 30
0.0
 10
79.37531135828487
 20
-3.388075602136406
 30
0.0
 10
79.3752699346405
 20
-3.405306052756378
 30
0.0
 10
79.37521431906532
 20
-3.423412043800591
 30
0.0
 10
79.37516852856453
 20
-3.442957446008566
 30
0.0
 10
79.37513632914667
 20
-3.463889741707918
 30
0.0
 10
79.37510781631947
 20
-3.485542271930324
 30
0.0
 10
79.375078675776
 20
-3.507186308522847
 30
0.0
 10
79.37505329664801
 20
-3.528615266791108
 30
0.0
 10
79.37503326830739
 20
-3.550397886762532
 30
0.0
 10
79.3750175051946
 20
-3.573604299917438
 30
0.0
 10
79.37500556498434
 20
-3.599450290006705
 30
0.0
 10
79.37499950460892
 20
-3.628472735139871
 30
0.0
 10
79.37500238156679
 20
-3.660634478662473
 30
0.0
 10
79.37501746997845
 20
-3.695507696263352
 30
0.0
 10
79.37503442902962
 20
-3.719624352517632
 30
0.0
 10
79.37504617154172
 20
-3.732092830548366
 30
0.0
 11
79.37519234184162
 21
-3.336155279348361
 31
0.0
 11
79.37527871114173
 21
-3.353827607048343
 31
0.0
 11
79.37531358074173
 21
-3.371160113148391
 31
0.0
 11
79.3753053236418
 21
-3.388052030148343
 31
0.0
 11
79.37526779544168
 21
-3.405014610248371
 31
0.0
 11
79.37521711024169
 21
-3.422851483248336
 31
0.0
 11
79.37517140874172
 21
-3.442370091048359
 31
0.0
 11
79.37513646904164
 21
-3.463650814348341
 31
0.0
 11
79.37510656764165
 21
-3.485648338648346
 31
0.0
 11
79.37507807664168
 21
-3.507327670648351
 31
0.0
 11
79.37505327114161
 21
-3.528582929148341
 31
0.0
 11
79.37503352164164
 21
-3.549935215548359
 31
0.0
 11
79.37501791204171
 21
-3.572675528348354
 31
0.0
 11
79.37500614504165
 21
-3.598202166848352
 31
0.0
 11
79.3750000975416
 21
-3.627473184648366
 31
0.0
 11
79.3750030742416
 21
-3.659742861048357
 31
0.0
 11
79.37501763714172
 21
-3.694687392048365
 31
0.0
 11
79.37504617154172
 21
-3.732092830548366
 31
0.0
  0
SPLINE
  5
5655D
330
1F
100
AcDbEntity
  8
1
100
AcDbSpline
210
0.0
220
0.0
230
1.0
 70
     8
 71
     3
 72
    32
 73
    28
 74
    26
 42
0.0000000001
 43
0.0000000001
 44
0.000001
 12
0.0505030351311204
 22
-0.9987239075152576
 32
0.0
 13
0.0121865176484256
 23
-0.9999257416366502
 33
0.0
 40
0.0
 40
0.0
 40
0.0
 40
0.0
 40
0.0416076813982838
 40
0.0802748128454366
 40
0.1161558075153589
 40
0.1492600692159897
 40
0.1792961899188369
 40
0.2058738414207989
 40
0.2292485937674777
 40
0.2503521185167322
 40
0.2703206527968889
 40
0.2900932321767225
 40
0.3101000623549602
 40
0.330234828626411
 40
0.3499685792525646
 40
0.3689987787416184
 40
0.3879553203984445
 40
0.407329473222352
 40
0.4273565238372277
 40
0.4482863319915225
 40
0.4702041740127815
 40
0.4926169335647628
 40
0.5149106449472405
 40
0.5365961804077991
 40
0.5573664181460833
 40
0.5772227599857468
 40
0.5961866699981561
 40
0.5961866699981561
 40
0.5961866699981561
 40
0.5961866699981561
 10
79.34696030294174
 20
-2.740678812248346
 30
0.0
 10
79.34766074100688
 20
-2.754530340964594
 30
0.0
 10
79.34901718842119
 20
-2.78125420962238
 30
0.0
 10
79.35099254573862
 20
-2.819922389802119
 30
0.0
 10
79.35282366984175
 20
-2.855759768438398
 30
0.0
 10
79.35450196222055
 20
-2.888724199801506
 30
0.0
 10
79.35600975907563
 20
-2.918592177300153
 30
0.0
 10
79.35735444125724
 20
-2.945221089331505
 30
0.0
 10
79.35856065556674
 20
-2.968875666340582
 30
0.0
 10
79.35967138954132
 20
-2.990329205281429
 30
0.0
 10
79.36074051495606
 20
-3.010582557123028
 30
0.0
 10
79.36181531164169
 20
-3.030469521546479
 30
0.0
 10
79.36292282881954
 20
-3.050410191094869
 30
0.0
 10
79.36406749266399
 20
-3.070335800649853
 30
0.0
 10
79.36522496275664
 20
-3.089934560271078
 30
0.0
 10
79.36636812194976
 20
-3.109140732861357
 30
0.0
 10
79.36749594967928
 20
-3.128227741087645
 30
0.0
 10
79.36861686132329
 20
-3.147648011290658
 30
0.0
 10
79.36972825587762
 20
-3.16772764240619
 30
0.0
 10
79.37081343577533
 20
-3.188657818961748
 30
0.0
 10
79.37183722230395
 20
-3.210387293531953
 30
0.0
 10
79.37274477778732
 20
-3.232577015242643
 30
0.0
 10
79.37349799558816
 20
-3.25469502655479
 30
0.0
 10
79.37410003753058
 20
-3.276269901567224
 30
0.0
 10
79.37457217567555
 20
-3.297035325269335
 30
0.0
 10
79.3749303972869
 20
-3.316895646024085
 30
0.0
 10
79.37511530716695
 20
-3.329834445420531
 30
0.0
 10
79.37519234184162
 20
-3.336155279348361
 30
0.0
 11
79.34696030294174
 21
-2.740678812248346
 31
0.0
 11
79.34906821804168
 21
-2.782233044548319
 31
0.0
 11
79.35103899774166
 21
-2.820849920048345
 31
0.0
 11
79.35286876654176
 21
-2.856684229648351
 31
0.0
 11
79.35455048484175
 21
-2.889745747948366
 31
0.0
 11
79.35606696194158
 21
-2.919743562348343
 31
0.0
 11
79.35740961344163
 21
-2.946287278348363
 31
0.0
 11
79.35860139714169
 21
-2.969631628848361
 31
0.0
 11
79.35969360034175
 21
-2.990706871248406
 31
0.0
 11
79.36074714714177
 21
-3.010647593048361
 31
0.0
 11
79.36181497504176
 21
-3.030391316448343
 31
0.0
 11
79.36292577024179
 21
-3.050367285648391
 31
0.0
 11
79.36407959384166
 21
-3.070468963048368
 31
0.0
 11
79.36523932834169
 21
-3.09016860334833
 31
0.0
 11
79.36636721654171
 21
-3.109165345948355
 31
0.0
 11
79.36748247904168
 21
-3.128089047648359
 31
0.0
 11
79.36859583314173
 21
-3.147431177648357
 31
0.0
 11
79.36969924434165
 21
-3.167427799048368
 31
0.0
 11
79.37077931464171
 21
-3.188329705448366
 31
0.0
 11
79.37180607364166
 21
-3.210223456248356
 31
0.0
 11
79.37271982064169
 21
-3.232617515448353
 31
0.0
 11
79.37348082354164
 21
-3.254897999648334
 31
0.0
 11
79.37409013184162
 21
-3.276574599848344
 31
0.0
 11
79.37456342224175
 21
-3.29733989164839
 31
0.0
 11
79.37492404604165
 21
-3.31719300364837
 31
0.0
 11
79.37519234184162
 21
-3.336155279348361
 31
0.0
  0
SPLINE
  5
5655E
330
1F
100
AcDbEntity
  8
1
100
AcDbSpline
210
0.0
220
0.0
230
1.0
 70
     8
 71
     3
 72
    15
 73
    11
 74
     9
 42
0.0000000001
 43
0.0000000001
 44
0.000001
 12
0.0507280719381033
 22
-0.9987125025338585
 32
0.0
 13
0.0568973179310237
 23
-0.9983800354635784
 33
0.0
 40
0.0
 40
0.0
 40
0.0
 40
0.0
 40
0.0720213842901788
 40
0.1473646865851073
 40
0.2235081306341819
 40
0.2975587975483661
 40
0.3703915944033436
 40
0.4437477826771347
 40
0.5174472916761753
 40
0.591054515507862
 40
0.591054515507862
 40
0.591054515507862
 40
0.591054515507862
 10
79.3152576939416
 20
-2.150476013748344
 30
0.0
 10
79.31647552926273
 20
-2.174452232728477
 30
0.0
 10
79.3189825060839
 20
-2.223509784515795
 30
0.0
 10
79.32283974210907
 20
-2.297912583304355
 30
0.0
 10
79.32678376772606
 20
-2.372988201715179
 30
0.0
 10
79.33074392821523
 20
-2.447224960177303
 30
0.0
 10
79.33471135090826
 20
-2.520530901215499
 30
0.0
 10
79.33872097840687
 20
-2.593717315247124
 30
0.0
 10
79.34279197040821
 20
-2.667158887634149
 30
0.0
 10
79.34556428506962
 20
-2.716182818001861
 30
0.0
 10
79.34696030294174
 20
-2.740678812248346
 30
0.0
 11
79.3152576939416
 21
-2.150476013748344
 31
0.0
 11
79.31893563794165
 21
-2.222403417648365
 31
0.0
 11
79.32283553304171
 21
-2.297645718848343
 31
0.0
 11
79.32683175414162
 21
-2.373684223548365
 31
0.0
 11
79.3307761717416
 21
-2.44762976474837
 31
0.0
 11
79.33471092934166
 21
-2.52035619824835
 31
0.0
 11
79.3387235506417
 21
-2.593602558048373
 31
0.0
 11
79.34280835454171
 21
-2.667188777448358
 31
0.0
 11
79.34696030294174
 21
-2.740678812248346
 31
0.0
  0
SPLINE
  5
5655F
330
1F
100
AcDbEntity
  8
1
100
AcDbSpline
210
0.0
220
0.0
230
1.0
 70
     8
 71
     3
 72
    14
 73
    10
 74
     8
 42
0.0000000001
 43
0.0000000001
 44
0.000001
 12
0.0524875623642614
 22
-0.9986215778747512
 32
0.0
 13
0.0573306275671052
 23
-0.998355246965108
 33
0.0
 40
0.0
 40
0.0
 40
0.0
 40
0.0
 40
0.0371245991083325
 40
0.0752494072492701
 40
0.1160753766282881
 40
0.1588039093073526
 40
0.2014797090056089
 40
0.2433632283573829
 40
0.2845410177319858
 40
0.2845410177319858
 40
0.2845410177319858
 40
0.2845410177319858
 10
79.2995438298417
 20
-1.866369505448345
 30
0.0
 10
79.30019335641202
 20
-1.878727314028189
 30
0.0
 10
79.30152116560922
 20
-1.903775283820811
 30
0.0
 10
79.30359990148019
 20
-1.942411199211374
 30
0.0
 10
79.30581350369428
 20
-1.982910523572466
 30
0.0
 10
79.30814039859942
 20
-2.024922905161079
 30
0.0
 10
79.3105171800245
 20
-2.067285569222986
 30
0.0
 10
79.31288925880392
 20
-2.109130761572338
 30
0.0
 10
79.31447077777271
 20
-2.136772659721492
 30
0.0
 10
79.3152576939416
 20
-2.150476013748344
 30
0.0
 11
79.2995438298417
 21
-1.866369505448345
 31
0.0
 11
79.30150756494177
 21
-1.903442141348364
 31
0.0
 11
79.30355575144166
 21
-1.941511900848354
 31
0.0
 11
79.30578280074168
 21
-1.98227710384836
 31
0.0
 11
79.30814679254162
 21
-2.024940192148334
 31
0.0
 11
79.31053712774168
 21
-2.067548979148341
 31
0.0
 11
79.31290711814167
 21
-2.109365378148368
 31
0.0
 11
79.3152576939416
 21
-2.150476013748344
 31
0.0
  0
ARC
  5
56560
330
1F
100
AcDbEntity
  8
1
100
AcDbCircle
 10
72.38499989814171
 20
-8.384999773148365
 30
0.0
 40
3.0
100
AcDbArc
 50
57.47910500000286
 51
90.0
  0
ARC
  5
56561
330
1F
100
AcDbEntity
  8
1
100
AcDbCircle
 10
77.30583489814162
 20
-3.799905773148394
 30
0.0
 40
2.074759999999999
100
AcDbArc
 50
321.353369000005
 51
328.8604459999989
  0
ARC
  5
56562
330
1F
100
AcDbEntity
  8
1
100
AcDbCircle
 10
77.30278989814168
 20
-3.808091773148361
 30
0.0
 40
2.069817
100
AcDbArc
 50
284.8966159999988
 51
286.363749000004
  0
ARC
  5
56563
330
1F
100
AcDbEntity
  8
1
100
AcDbCircle
 10
77.31602889814166
 20
-3.807034773148359
 30
0.0
 40
2.062348
100
AcDbArc
 50
328.8834979999986
 51
337.6048870000003
  0
ARC
  5
56564
330
1F
100
AcDbEntity
  8
1
100
AcDbCircle
 10
77.32748089814164
 20
-3.813879773148386
 30
0.0
 40
2.049151999999998
100
AcDbArc
 50
337.6598400000004
 51
346.1273310000001
  0
ARC
  5
56565
330
1F
100
AcDbEntity
  8
1
100
AcDbCircle
 10
77.30994489814169
 20
-3.844789773148363
 30
0.0
 40
2.032402
100
AcDbArc
 50
275.8987189999998
 51
276.2712730000025
  0
ARC
  5
56566
330
1F
100
AcDbEntity
  8
1
100
AcDbCircle
 10
77.35635189814172
 20
-3.826514773148375
 30
0.0
 40
2.018638999999998
100
AcDbArc
 50
355.522923999999
 51
356.0511169999998
  0
ARC
  5
56567
330
1F
100
AcDbEntity
  8
1
100
AcDbCircle
 10
72.38499989814171
 20
8.385000226851616
 30
0.0
 40
3.0
100
AcDbArc
 50
270.0
 51
302.5208949999972
  0
LINE
  5
56568
330
1F
100
AcDbEntity
  8
1
100
AcDbLine
 10
69.38499989814172
 20
-5.229999773148391
 30
0.0
 11
69.53999989814168
 21
-5.384999773148365
 31
0.0
  0
LINE
  5
56569
330
1F
100
AcDbEntity
  8
1
100
AcDbLine
 10
69.53999989814168
 20
-5.384999773148365
 30
0.0
 11
72.38499989814171
 21
-5.384999773148365
 31
0.0
  0
LINE
  5
5656A
330
1F
100
AcDbEntity
  8
1
100
AcDbLine
 10
72.38499989814171
 20
5.385000226851601
 30
0.0
 11
69.53999989814168
 21
5.385000226851601
 31
0.0
  0
LINE
  5
5656B
330
1F
100
AcDbEntity
  8
1
100
AcDbLine
 10
69.38499989814172
 20
5.230000226851672
 30
0.0
 11
69.38499989814172
 21
5.170538385411233
 31
0.0
  0
LINE
  5
5656C
330
1F
100
AcDbEntity
  8
1
100
AcDbLine
 10
69.38499989814172
 20
-5.170538418088624
 30
0.0
 11
69.38499989814172
 21
-5.229999773148391
 31
0.0
  0
LINE
  5
5656D
330
1F
100
AcDbEntity
  8
1
100
AcDbLine
 10
69.38499989814172
 20
5.230000226851628
 30
0.0
 11
69.53999989814168
 21
5.385000226851601
 31
0.0
  0
LINE
  5
5656E
330
1F
100
AcDbEntity
  8
1
100
AcDbLine
 10
79.20748989814173
 20
0.224103226851625
 30
0.0
 11
79.21387689814164
 21
0.3343852268516088
 31
0.0
  0
LINE
  5
5656F
330
1F
100
AcDbEntity
  8
1
100
AcDbLine
 10
79.19418389735756
 20
0.1996052524687144
 30
0.0
 11
79.20748989814173
 21
0.224103226851625
 31
0.0
  0
LINE
  5
56570
330
1F
100
AcDbEntity
  8
1
100
AcDbLine
 10
79.21387689814164
 20
0.3343852268516088
 30
0.0
 11
79.24128289814167
 21
0.8196162268516076
 31
0.0
  0
LINE
  5
56571
330
1F
100
AcDbEntity
  8
1
100
AcDbLine
 10
79.24128289814167
 20
0.8196162268516076
 30
0.0
 11
79.26748489814167
 21
1.288820226851597
 31
0.0
  0
LINE
  5
56572
330
1F
100
AcDbEntity
  8
1
100
AcDbLine
 10
79.29400489814169
 20
1.766051226851615
 30
0.0
 11
79.29954389814168
 21
1.8663702268516
 31
0.0
  0
LINE
  5
56573
330
1F
100
AcDbEntity
  8
1
100
AcDbLine
 10
79.37501389814167
 20
3.776414226851598
 30
0.0
 11
79.37499313749447
 21
3.871850921937152
 31
0.0
  0
ARC
  5
56574
102
{ACAD_REACTORS
330
56596
102
}
330
1F
100
AcDbEntity
  8
1
100
AcDbCircle
 10
77.37499318481528
 20
3.871415855599763
 30
0.0
 40
2.0
100
AcDbArc
 50
0.0124637325685847
 51
85.08328841011614
  0
LINE
  5
56575
330
1F
100
AcDbEntity
  8
1
100
AcDbLine
 10
79.3750458981416
 20
3.732093226851631
 30
0.0
 11
79.37501389814167
 21
3.776414226851598
 31
0.0
  0
LINE
  5
56576
330
1F
100
AcDbEntity
  8
1
100
AcDbLine
 10
77.31999989814164
 20
5.878014226851616
 30
0.0
 11
77.17420989814161
 21
5.882919226851639
 31
0.0
  0
LINE
  5
56577
330
1F
100
AcDbEntity
  8
1
100
AcDbLine
 10
77.42639889814165
 20
5.874380226851612
 30
0.0
 11
77.31999989814164
 21
5.878014226851616
 31
0.0
  0
LINE
  5
56578
330
1F
100
AcDbEntity
  8
1
100
AcDbLine
 10
77.54640823639707
 20
5.86405653572531
 30
0.0
 11
77.42639889814165
 21
5.874380226851612
 31
0.0
  0
LINE
  5
56579
330
1F
100
AcDbEntity
  8
1
100
AcDbLine
 10
77.17420989814161
 20
5.882919226851639
 30
0.0
 11
76.79416589814161
 21
5.895154226851603
 31
0.0
  0
LINE
  5
5657A
330
1F
100
AcDbEntity
  8
1
100
AcDbLine
 10
76.79416589814161
 20
5.895154226851603
 30
0.0
 11
76.41420089814167
 21
5.906652226851619
 31
0.0
  0
LINE
  5
5657B
330
1F
100
AcDbEntity
  8
1
100
AcDbLine
 10
75.63042389814167
 20
5.906305226851613
 30
0.0
 11
75.22746389814179
 21
5.895090226851593
 31
0.0
  0
LINE
  5
5657C
330
1F
100
AcDbEntity
  8
1
100
AcDbLine
 10
75.22746389814179
 20
5.895090226851593
 30
0.0
 11
74.82442989814162
 21
5.882992226851611
 31
0.0
  0
LINE
  5
5657D
330
1F
100
AcDbEntity
  8
1
100
AcDbLine
 10
74.82442989814162
 20
5.882992226851611
 30
0.0
 11
74.42131689814165
 21
5.870010226851589
 31
0.0
  0
LINE
  5
5657E
330
1F
100
AcDbEntity
  8
1
100
AcDbLine
 10
74.42131689814165
 20
5.870010226851589
 30
0.0
 11
74.01811789814168
 21
5.85614822685163
 31
0.0
  0
LINE
  5
5657F
330
1F
100
AcDbEntity
  8
1
100
AcDbLine
 10
74.01811789814168
 20
5.85614822685163
 30
0.0
 11
73.99782089814165
 21
5.855414226851607
 31
0.0
  0
LINE
  5
56580
330
1F
100
AcDbEntity
  8
1
100
AcDbLine
 10
79.1941268981417
 20
0.0560732268516091
 30
0.0
 11
79.1941268981417
 21
-0.0560727731483866
 31
0.0
  0
LINE
  5
56581
330
1F
100
AcDbEntity
  8
1
100
AcDbLine
 10
79.1941268981417
 20
-0.0560727731483866
 30
0.0
 11
79.19418773195015
 21
-0.1996138310900619
 31
0.0
  0
LINE
  5
56582
330
1F
100
AcDbEntity
  8
1
100
AcDbLine
 10
79.19418389814167
 20
0.1996072268516258
 30
0.0
 11
79.1941268981417
 21
0.0560732268516091
 31
0.0
  0
LINE
  5
56583
330
1F
100
AcDbEntity
  8
1
100
AcDbLine
 10
79.20748989814173
 20
-0.2241027731484024
 30
0.0
 11
79.21387689814164
 21
-0.3343847731483862
 31
0.0
  0
LINE
  5
56584
330
1F
100
AcDbEntity
  8
1
100
AcDbLine
 10
79.21387689814164
 20
-0.3343847731483862
 30
0.0
 11
79.24128289814167
 21
-0.8196157731483848
 31
0.0
  0
LINE
  5
56585
330
1F
100
AcDbEntity
  8
1
100
AcDbLine
 10
79.24128289814167
 20
-0.8196157731483848
 30
0.0
 11
79.26748489814167
 21
-1.28881977314836
 31
0.0
  0
LINE
  5
56586
330
1F
100
AcDbEntity
  8
1
100
AcDbLine
 10
79.29400489814169
 20
-1.766050773148378
 30
0.0
 11
79.29954389814168
 21
-1.866369773148362
 31
0.0
  0
LINE
  5
56587
330
1F
100
AcDbEntity
  8
1
100
AcDbLine
 10
74.42131689814165
 20
-5.870009773148352
 30
0.0
 11
74.01811789814168
 21
-5.856147773148392
 31
0.0
  0
LINE
  5
56588
330
1F
100
AcDbEntity
  8
1
100
AcDbLine
 10
74.82442989814162
 20
-5.882991773148376
 30
0.0
 11
74.42131689814165
 21
-5.870009773148352
 31
0.0
  0
LINE
  5
56589
330
1F
100
AcDbEntity
  8
1
100
AcDbLine
 10
75.22746389814166
 20
-5.895089773148356
 30
0.0
 11
74.82442989814162
 21
-5.882991773148376
 31
0.0
  0
LINE
  5
5658A
330
1F
100
AcDbEntity
  8
1
100
AcDbLine
 10
75.63042389814167
 20
-5.906304773148377
 30
0.0
 11
75.22746389814166
 21
-5.895089773148356
 31
0.0
  0
LINE
  5
5658B
330
1F
100
AcDbEntity
  8
1
100
AcDbLine
 10
76.79416589814161
 20
-5.895153773148365
 30
0.0
 11
76.41420089814167
 21
-5.906651773148382
 31
0.0
  0
LINE
  5
5658C
330
1F
100
AcDbEntity
  8
1
100
AcDbLine
 10
77.17420989814161
 20
-5.882918773148403
 30
0.0
 11
76.79416589814161
 21
-5.895153773148365
 31
0.0
  0
LINE
  5
5658D
330
1F
100
AcDbEntity
  8
1
100
AcDbLine
 10
77.51881489814161
 20
-5.866429773148382
 30
0.0
 11
77.42639889814165
 21
-5.874379773148375
 31
0.0
  0
LINE
  5
5658E
330
1F
100
AcDbEntity
  8
1
100
AcDbLine
 10
77.42639889814165
 20
-5.874379773148375
 30
0.0
 11
77.31999989814164
 21
-5.87801377314838
 31
0.0
  0
LINE
  5
5658F
330
1F
100
AcDbEntity
  8
1
100
AcDbLine
 10
77.31999989814164
 20
-5.87801377314838
 30
0.0
 11
77.17420989814161
 21
-5.882918773148403
 31
0.0
  0
LINE
  5
56590
330
1F
100
AcDbEntity
  8
1
100
AcDbLine
 10
79.3750458981416
 20
-3.732092773148393
 30
0.0
 11
79.37501389814167
 21
-3.776413773148377
 31
0.0
  0
LINE
  5
56591
330
1F
100
AcDbEntity
  8
1
100
AcDbLine
 10
79.37501389814167
 20
-3.776413773148377
 30
0.0
 11
79.37499289814161
 21
-3.872950773148373
 31
0.0
  0
LINE
  5
56592
330
1F
100
AcDbEntity
  8
1
100
AcDbLine
 10
79.37499289814161
 20
-3.872950773148373
 30
0.0
 11
79.37019889814168
 21
-3.96553177314837
 31
0.0
  0
LINE
  5
56593
330
1F
100
AcDbEntity
  8
1
100
AcDbLine
 10
79.19418389814167
 20
-0.1996067731484032
 30
0.0
 11
79.20748989814173
 21
-0.2241027731484024
 31
0.0
  0
DIMENSION
  5
56594
102
{ACAD_XDICTIONARY
360
56595
102
}
102
{ACAD_REACTORS
330
56596
102
}
330
1F
100
AcDbEntity
  8
2
100
AcDbDimension
  2
*D12
 10
77.37499318481528
 20
3.871415855599764
 30
0.0
 11
95.73757922778405
 21
23.75171606943823
 31
0.0
 70
    36
 71
     5
 42
2.0
  3
\M+18352\M+18373\M+1815B - ISO-25
100
AcDbRadialDimension
 15
78.93659586412255
 25
5.120974606511595
 35
0.0
 40
0.0
1001
ACAD
1000
DSTYLE
1002
{
1070
     4
1000
"
1070
    40
1040
1.0
1070
   143
1040
0.03937
1070
   170
1070
     1
1070
   171
1070
     3
1070
   271
1070
     8
1070
   285
1070
     4
1002
}
  0
LINE
  5
56597
330
1F
100
AcDbEntity
  8
cut
100
AcDbLine
 10
74.57500339814181
 20
5.916147535711374
 30
0.0
 11
76.17500339814171
 21
5.999999982511369
 31
0.0
1001
ACAD
1000
RTMaterial
1005
0
  0
LINE
  5
56598
330
1F
100
AcDbEntity
  8
cut
100
AcDbLine
 10
69.37500339814175
 20
5.384999982511358
 30
0.0
 11
72.87066552214176
 21
5.384999982511358
 31
0.0
1001
ACAD
1000
RTMaterial
1005
0
  0
LINE
  5
56599
330
1F
100
AcDbEntity
  8
cut
100
AcDbLine
 10
76.17500339814171
 20
5.999999982511369
 30
0.0
 11
77.37500339814179
 21
5.999999982511369
 31
0.0
1001
ACAD
1000
RTMaterial
1005
0
  0
LINE
  5
5659A
330
1F
100
AcDbEntity
  8
cut
100
AcDbLine
 10
79.37500339814175
 20
3.49999998251171
 30
0.0
 11
79.37500339814175
 21
3.999999982511368
 31
0.0
1001
ACAD
1000
RTMaterial
1005
0
  0
LINE
  5
5659B
330
1F
100
AcDbEntity
  8
cut
100
AcDbLine
 10
69.37500339814164
 20
-5.385000015288581
 30
0.0
 11
69.37500339814175
 21
5.38499998251133
 31
0.0
1001
ACAD
1000
RTMaterial
1005
0
  0
LINE
  5
5659C
330
1F
100
AcDbEntity
  8
cut
100
AcDbLine
 10
79.19157617064175
 20
-0.000000017488631
 30
0.0
 11
79.37500339814175
 21
3.499999982511368
 31
0.0
1001
ACAD
1000
RTMaterial
1005
0
  0
ARC
  5
5659D
330
1F
100
AcDbEntity
  8
cut
100
AcDbCircle
 10
72.87066552214176
 20
8.384999982511358
 30
0.0
 40
3.0
100
AcDbArc
 50
270.0
 51
304.6187179704992
1001
ACAD
1000
RTMaterial
1005
0
  0
ARC
  5
5659E
330
1F
100
AcDbEntity
  8
cut
100
AcDbCircle
 10
77.37500339814179
 20
3.999999982511368
 30
0.0
 40
2.0
100
AcDbArc
 50
0.0
 51
90.0
1001
ACAD
1000
RTMaterial
1005
0
  0
LINE
  5
5659F
330
1F
100
AcDbEntity
  8
cut
100
AcDbLine
 10
74.57500339681579
 20
-5.916147569654
 30
0.0
 11
76.17500339679702
 21
-6.000000016812562
 31
0.0
1001
ACAD
1000
RTMaterial
1005
0
  0
LINE
  5
565A0
330
1F
100
AcDbEntity
  8
cut
100
AcDbLine
 10
69.37500339814175
 20
-5.385000015288553
 30
0.0
 11
72.87066552093496
 21
-5.385000016071997
 31
0.0
1001
ACAD
1000
RTMaterial
1005
0
  0
LINE
  5
565A1
330
1F
100
AcDbEntity
  8
cut
100
AcDbLine
 10
76.17500339679702
 20
-6.000000016812562
 30
0.0
 11
77.37500339679707
 21
-6.000000017081518
 31
0.0
1001
ACAD
1000
RTMaterial
1005
0
  0
LINE
  5
565A2
330
1F
100
AcDbEntity
  8
cut
100
AcDbLine
 10
79.37500339735731
 20
-3.500000017530097
 30
0.0
 11
79.37500339724525
 21
-4.000000017529757
 31
0.0
1001
ACAD
1000
RTMaterial
1005
0
  0
LINE
  5
565A3
330
1F
100
AcDbEntity
  8
cut
100
AcDbLine
 10
79.19157617064175
 20
-0.000000017488631
 30
0.0
 11
79.37500339735731
 21
-3.500000017529757
 31
0.0
1001
ACAD
1000
RTMaterial
1005
0
  0
ARC
  5
565A4
330
1F
100
AcDbEntity
  8
cut
100
AcDbCircle
 10
72.87066552026249
 20
-8.385000016071996
 30
0.0
 40
3.0
100
AcDbArc
 50
55.38128201665844
 51
89.99999998715484
1001
ACAD
1000
RTMaterial
1005
0
  0
ARC
  5
565A5
330
1F
100
AcDbEntity
  8
cut
100
AcDbCircle
 10
77.37500339724523
 20
-4.000000017081518
 30
0.0
 40
2.0
100
AcDbArc
 50
269.9999999871548
 51
359.9999999871581
1001
ACAD
1000
RTMaterial
1005
0
  0
DIMENSION
  5
5681B
330
1F
100
AcDbEntity
  8
sk2
100
AcDbDimension
  2
*D23
 10
79.37500039814171
 20
54.52343248330453
 30
0.0
 11
-4.762496601858231
 21
54.52343248330453
 31
0.0
 70
   160
 71
     5
 41
0.892857
 42
168.2749999999999
  3
\M+18352\M+18373\M+1815B - ISO-25
100
AcDbAlignedDimension
 13
-88.89999960185827
 23
5.349995983611336
 33
0.0
 14
79.37500039814171
 24
-0.0000155163886859
 34
0.0
 50
180.0
100
AcDbRotatedDimension
1001
ACAD
1000
DSTYLE
1002
{
1070
     4
1000
"
1070
    40
1040
1.0
1070
   143
1040
0.03937
1070
   170
1070
     1
1070
   171
1070
     3
1070
   271
1070
     8
1070
   285
1070
     4
1002
}
  0
LINE
  5
5681C
330
1F
100
AcDbEntity
  8
sk1
100
AcDbLine
 10
-88.90000960185833
 20
-0.0000000163886114
 30
0.0
 11
-88.90000960185833
 21
-5.350007016388673
 31
0.0
  0
LINE
  5
5681D
330
1F
100
AcDbEntity
  8
sk4
100
AcDbLine
 10
-95.35812360185824
 20
-0.0000000163886114
 30
0.0
 11
0.0000003981417649
 21
-0.0000000163886398
 31
0.0
  0
LINE
  5
5681E
330
1F
100
AcDbEntity
  8
sk1
100
AcDbLine
 10
-87.90000960185833
 20
-6.349999516388606
 30
0.0
 11
-88.90001660185831
 21
-5.350022016388635
 31
0.0
  0
LINE
  5
5681F
330
1F
100
AcDbEntity
  8
sk1
100
AcDbLine
 10
-87.90000960185833
 20
-0.0000000163886114
 30
0.0
 11
-87.90000960185833
 21
-6.349999516388606
 31
0.0
  0
LINE
  5
56820
330
1F
100
AcDbEntity
  8
sk1
100
AcDbLine
 10
-88.89999960185827
 20
0.000020983611364
 30
0.0
 11
-88.89999960185827
 21
5.349995983611336
 31
0.0
  0
LINE
  5
56821
330
1F
100
AcDbEntity
  8
sk1
100
AcDbLine
 10
-87.90000960185833
 20
-0.0000000163886114
 30
0.0
 11
-87.8999951018582
 21
6.350000483611381
 31
0.0
  0
LINE
  5
56822
330
1F
100
AcDbEntity
  8
sk1
100
AcDbLine
 10
-87.8999951018582
 20
6.350000483611381
 30
0.0
 11
-88.89999960185827
 21
5.349995983611336
 31
0.0
  0
DIMENSION
  5
56823
330
1F
100
AcDbEntity
  8
sk2
100
AcDbDimension
  2
*D24
 10
-115.6468649197846
 20
6.350000483611389
 30
0.0
 11
-115.6468649197846
 21
-36.91249951638864
 31
0.0
 70
   160
  1
%%c<>
 71
     5
 41
0.75
 42
12.69999999999999
  3
\M+18352\M+18373\M+1815B - ISO-25
100
AcDbAlignedDimension
 13
-87.70001260185834
 23
-6.349999516388606
 33
0.0
 14
-87.70001260185834
 24
6.350000483611381
 34
0.0
 50
270.0
100
AcDbRotatedDimension
1001
ACAD
1000
DSTYLE
1002
{
1070
     4
1000
%%c[]"
1070
    40
1040
1.0
1070
   143
1040
0.03937
1070
   170
1070
     1
1070
   171
1070
     3
1070
   271
1070
     8
1070
   285
1070
     4
1002
}
  0
LINE
  5
56824
330
1F
100
AcDbEntity
  8
sk1
100
AcDbLine
 10
-87.8999951018582
 20
6.350000483611381
 30
0.0
 11
0.0000003981417649
 21
6.350000483611353
 31
0.0
  0
LINE
  5
56825
330
1F
100
AcDbEntity
  8
sk1
100
AcDbLine
 10
-87.90000960185833
 20
-6.349999516388606
 30
0.0
 11
-0.0000051018773775
 21
-6.349999516388606
 31
0.0
  0
DIMENSION
  5
56826
330
1F
100
AcDbEntity
  8
2
100
AcDbDimension
  2
*D25
 10
0.0000000000000021
 20
39.91704524596833
 30
0.0
 11
39.68749999999997
 21
39.91704524596833
 31
0.0
 70
   160
 71
     5
 42
79.37499999999994
  3
\M+18352\M+18373\M+1815B - ISO-25
100
AcDbAlignedDimension
 13
79.37499999999994
 23
6.349999967222714
 33
0.0
 14
0.0
 24
6.349974967222692
 34
0.0
 50
180.0
100
AcDbRotatedDimension
1001
ACAD
1000
DSTYLE
1002
{
1070
     4
1000
"
1070
    40
1040
1.0
1070
   143
1040
0.03937
1070
   170
1070
     1
1070
   171
1070
     3
1070
   271
1070
     8
1070
   285
1070
     4
1002
}
  0
VIEWPORT
  5
6B
102
{ACAD_XDICTIONARY
360
56933
102
}
330
50
100
AcDbEntity
 67
     1
  8
0
100
AcDbViewport
 10
150.1652135264906
 20
160.4455827878762
 30
0.0
 40
339.1973820494346
 41
282.2272140146125
 68
     1
 69
     1
 12
150.1652135264906
 22
160.4455827878762
 13
0.0
 23
0.0
 14
10.0
 24
10.0
 15
10.0
 25
10.0
 16
0.0
 26
0.0
 36
1.0
 17
0.0
 27
0.0
 37
0.0
 42
50.0
 43
0.0
 44
0.0
 45
282.2272140146125
 50
0.0
 51
0.0
 72
  1000
 90
    32864
  1

281
     0
 71
     1
 74
     0
110
0.0
120
0.0
130
0.0
111
1.0
121
0.0
131
0.0
112
0.0
122
1.0
132
0.0
 79
     0
146
0.0
  0
VIEWPORT
  5
6D
102
{ACAD_XDICTIONARY
360
56935
102
}
330
50
100
AcDbEntity
 67
     1
  8
0
100
AcDbViewport
 10
133.3499939441681
 20
101.5999939441681
 30
0.0
 40
213.3599903106689
 41
162.5599903106689
 68
     2
 69
     2
 12
210.0
 22
148.5
 13
0.0
 23
0.0
 14
10.0
 24
10.0
 15
10.0
 25
10.0
 16
0.0
 26
0.0
 36
1.0
 17
0.0
 27
0.0
 37
0.0
 42
50.0
 43
0.0
 44
0.0
 45
324.0677920111345
 50
0.0
 51
0.0
 72
   100
 90
    32864
  1

281
     0
 71
     1
 74
     0
110
0.0
120
0.0
130
0.0
111
1.0
121
0.0
131
0.0
112
0.0
122
1.0
132
0.0
 79
     0
146
0.0
  0
ENDSEC
  0
SECTION
  2
OBJECTS
  0
DICTIONARY
  5
C
330
0
100
AcDbDictionary
281
     1
  3
ACAD_COLOR
350
85
  3
ACAD_GROUP
350
D
  3
ACAD_LAYOUT
350
1A
  3
ACAD_MATERIAL
350
84
  3
ACAD_MLINESTYLE
350
17
  3
ACAD_PLOTSETTINGS
350
19
  3
ACAD_PLOTSTYLENAME
350
E
  3
ACAD_TABLESTYLE
350
A1
  3
ACDBHEADERROUNDTRIPXREC
350
5692E
  3
AcDbVariableDictionary
350
5E
  3
ASE_INDEX_DICTIONARY
350
349E9
  3
DWGPROPS
350
5692D
  0
DICTIONARY
  5
E2
330
2
100
AcDbDictionary
280
     1
281
     1
  3
ACAD_LAYERFILTERS
360
55CF7
  3
ACAD_LAYERSTATES
360
3759A
  3
ACLYDICTIONARY
360
55CF6
  0
DICTIONARY
  5
31EE
330
1F
100
AcDbDictionary
280
     1
281
     1
  3
ACAD_SORTENTS
360
31EF
  0
DICTIONARY
  5
3BEB2
330
680
100
AcDbDictionary
280
     1
281
     1
  3
ACAD_SORTENTS
360
567CA
  0
DICTIONARY
  5
56937
330
71
100
AcDbDictionary
280
     1
281
     1
  3
ACAD_XREC_ROUNDTRIP
360
56938
  0
DICTIONARY
  5
56939
330
73
100
AcDbDictionary
280
     1
281
     1
  3
ACAD_XREC_ROUNDTRIP
360
5693A
  0
DICTIONARY
  5
563F8
330
563F7
100
AcDbDictionary
280
     1
281
     1
  3
ACAD_DIMASSOC
360
563F9
  0
DICTIONARY
  5
56595
330
56594
100
AcDbDictionary
280
     1
281
     1
  3
ACAD_DIMASSOC
360
56596
  0
DICTIONARY
  5
56933
330
6B
100
AcDbDictionary
280
     1
281
     1
  3
ACAD_XREC_ROUNDTRIP
360
56934
  0
DICTIONARY
  5
56935
330
6D
100
AcDbDictionary
280
     1
281
     1
  3
ACAD_XREC_ROUNDTRIP
360
56936
  0
DICTIONARY
  5
85
102
{ACAD_REACTORS
330
C
102
}
330
C
100
AcDbDictionary
281
     1
  0
DICTIONARY
  5
D
102
{ACAD_REACTORS
330
C
102
}
330
C
100
AcDbDictionary
281
     1
  0
DICTIONARY
  5
1A
102
{ACAD_REACTORS
330
C
102
}
330
C
100
AcDbDictionary
281
     1
  3
\M+1838C\M+18343\M+18341\M+18345\M+183671
350
51
  3
\M+1838C\M+18343\M+18341\M+18345\M+183672
350
56
  3
Model
350
22
  0
DICTIONARY
  5
84
102
{ACAD_REACTORS
330
C
102
}
330
C
100
AcDbDictionary
281
     1
  0
DICTIONARY
  5
17
102
{ACAD_REACTORS
330
C
102
}
330
C
100
AcDbDictionary
281
     1
  3
Standard
350
18
  0
DICTIONARY
  5
19
102
{ACAD_REACTORS
330
C
102
}
330
C
100
AcDbDictionary
281
     1
  0
ACDBDICTIONARYWDFLT
  5
E
102
{ACAD_REACTORS
330
C
102
}
330
C
100
AcDbDictionary
281
     1
  3
Normal
350
F
100
AcDbDictionaryWithDefault
340
F
  0
DICTIONARY
  5
A1
102
{ACAD_REACTORS
330
C
102
}
330
C
100
AcDbDictionary
281
     1
  3
Standard
350
A2
  0
DICTIONARY
  5
5692E
102
{ACAD_REACTORS
330
C
102
}
330
C
100
AcDbDictionary
281
     1
  0
DICTIONARY
  5
5E
102
{ACAD_REACTORS
330
C
102
}
330
C
100
AcDbDictionary
281
     1
  3
CTABLESTYLE
350
B8
  3
DIMASSOC
350
5F
  3
HIDETEXT
350
63
  3
PROJECTNAME
350
31CE
  0
DICTIONARY
  5
349E9
102
{ACAD_REACTORS
330
C
102
}
330
C
100
AcDbDictionary
281
     1
  3
ASEBlockHierarchyIndexRecord
350
349EA
1001
DCO15
1040
1842496176.844
  0
XRECORD
  5
5692D
102
{ACAD_REACTORS
330
C
102
}
330
C
100
AcDbXrecord
280
     1
  1
DWGPROPS COOKIE
  2

  3

  4

  6

  7

  8

  9

300
=
301
=
302
=
303
=
304
=
305
=
306
=
307
=
308
=
309
=
 40
2.782172986111111
 41
2455489.391063368
 42
2458573.049645776
  1

 90
        0
  0
DICTIONARY
  5
55CF7
102
{ACAD_REACTORS
330
E2
102
}
330
E2
100
AcDbDictionary
281
     1
  0
DICTIONARY
  5
3759A
102
{ACAD_REACTORS
330
E2
102
}
330
E2
100
AcDbDictionary
281
     1
  0
DICTIONARY
  5
55CF6
102
{ACAD_REACTORS
330
E2
102
}
330
E2
100
AcDbDictionary
281
     1
1001
ACAD
1000
<All
  0
SORTENTSTABLE
  5
31EF
102
{ACAD_REACTORS
330
31EE
102
}
330
31EE
100
AcDbSortentsTable
330
1F
331
68C
  5
3C6B0
331
53AD9
  5
53ADC
  0
SORTENTSTABLE
  5
567CA
102
{ACAD_REACTORS
330
3BEB2
102
}
330
3BEB2
100
AcDbSortentsTable
330
680
  0
XRECORD
  5
56938
102
{ACAD_REACTORS
330
56937
102
}
330
56937
100
AcDbXrecord
280
     1
102
SHADEPLOT
 70
     0
  0
XRECORD
  5
5693A
102
{ACAD_REACTORS
330
56939
102
}
330
56939
100
AcDbXrecord
280
     1
102
SHADEPLOT
 70
     0
  0
DIMASSOC
  5
563F9
102
{ACAD_REACTORS
330
563F8
102
}
330
563F8
100
AcDbDimAssoc
330
563F7
 90
        3
 70
     0
 71
     0
  1
AcDbOsnapPointRef
 72
    13
331
563F4
 73
     2
 91
        0
 40
0.0
 10
0.0
 20
0.0
 30
2.000000000000000E+50
 75
     0
  1
AcDbOsnapPointRef
 72
     1
331
563F4
 73
     2
 91
        0
 40
1.0
 10
0.0
 20
0.0
 30
2.000000000000000E+50
 75
     0
  0
DIMASSOC
  5
56596
102
{ACAD_REACTORS
330
56595
102
}
330
56595
100
AcDbDimAssoc
330
56594
 90
        2
 70
     0
 71
     0
  1
AcDbOsnapPointRef
 72
     3
331
56574
 73
     2
 91
        0
 40
0.0
 10
0.0
 20
0.0
 30
0.0
 75
     0
  0
XRECORD
  5
56934
102
{ACAD_REACTORS
330
56933
102
}
330
56933
100
AcDbXrecord
280
     1
102
SHADEPLOT
 70
     0
  0
XRECORD
  5
56936
102
{ACAD_REACTORS
330
56935
102
}
330
56935
100
AcDbXrecord
280
     1
102
SHADEPLOT
 70
     0
  0
LAYOUT
  5
51
102
{ACAD_XDICTIONARY
360
B2
102
}
102
{ACAD_REACTORS
330
1A
102
}
330
1A
100
AcDbPlotSettings
  1

  2
none_device
  4
Letter_(8.50_x_11.00_Inches)
  6

 40
6.349999904632567
 41
6.349999904632567
 42
6.350006103515625
 43
6.350006103515625
 44
215.8999938964844
 45
279.3999938964844
 46
0.0
 47
0.0
 48
0.0
 49
0.0
140
0.0
141
0.0
142
1.0
143
1.0
 70
   688
 72
     1
 73
     1
 74
     5
  7

 75
    16
147
1.0
148
0.0
149
0.0
100
AcDbLayout
  1
\M+1838C\M+18343\M+18341\M+18345\M+183671
 70
     1
 71
     1
 10
-6.350006103515625
 20
-6.349999904632567
 11
273.0499877929688
 21
209.5499939918518
 12
0.0
 22
0.0
 32
0.0
 14
26.66999878883364
 24
20.31999878883365
 34
0.0
 15
240.0299890995025
 25
182.8799890995025
 35
0.0
146
0.0
 13
0.0
 23
0.0
 33
0.0
 16
1.0
 26
0.0
 36
0.0
 17
0.0
 27
1.0
 37
0.0
 76
     0
330
50
331
6B
  0
LAYOUT
  5
56
102
{ACAD_XDICTIONARY
360
B5
102
}
102
{ACAD_REACTORS
330
1A
102
}
330
1A
100
AcDbPlotSettings
  1

  2
none_device
  4
Letter_(8.50_x_11.00_Inches)
  6

 40
6.349999904632567
 41
6.349999904632567
 42
6.350006103515625
 43
6.350006103515625
 44
215.8999938964844
 45
279.3999938964844
 46
0.0
 47
0.0
 48
0.0
 49
0.0
140
0.0
141
0.0
142
1.0
143
1.0
 70
   688
 72
     1
 73
     1
 74
     5
  7

 75
    16
147
1.0
148
0.0
149
0.0
100
AcDbLayout
  1
\M+1838C\M+18343\M+18341\M+18345\M+183672
 70
     1
 71
     2
 10
-6.350006103515625
 20
-6.349999904632567
 11
273.0499877929688
 21
209.5499939918518
 12
0.0
 22
0.0
 32
0.0
 14
26.66999878883363
 24
20.31999878883363
 34
0.0
 15
240.0299890995026
 25
182.8799890995025
 35
0.0
146
0.0
 13
0.0
 23
0.0
 33
0.0
 16
1.0
 26
0.0
 36
0.0
 17
0.0
 27
1.0
 37
0.0
 76
     0
330
55
331
71
  0
LAYOUT
  5
22
102
{ACAD_XDICTIONARY
360
5692F
102
}
102
{ACAD_REACTORS
330
1A
102
}
330
1A
100
AcDbPlotSettings
  1

  2
none_device
  4
ANSI_A_(8.50_x_11.00_Inches)
  6

 40
6.349999904632567
 41
19.04999923706055
 42
6.350006103515625
 43
19.04998779296875
 44
215.8999938964844
 45
279.3999938964844
 46
0.0
 47
0.0
 48
0.0
 49
0.0
140
0.0
141
0.0
142
1.0
143
78.436453180766
 70
 11952
 72
     0
 73
     1
 74
     0
  7

 75
     0
147
0.0127491741332998
148
0.0
149
0.0
100
AcDbLayout
  1
Model
 70
     1
 71
     0
 10
0.0
 20
0.0
 11
12.0
 21
9.0
 12
0.0
 22
0.0
 32
0.0
 14
0.0
 24
0.0
 34
0.0
 15
0.0
 25
0.0
 35
0.0
146
0.0
 13
0.0
 23
0.0
 33
0.0
 16
1.0
 26
0.0
 36
0.0
 17
0.0
 27
1.0
 37
0.0
 76
     0
330
1F
  0
MLINESTYLE
  5
18
102
{ACAD_REACTORS
330
17
102
}
330
17
100
AcDbMlineStyle
  2
STANDARD
 70
     0
  3

 62
   256
 51
90.0
 52
90.0
 71
     2
 49
0.5
 62
   256
  6
BYLAYER
 49
-0.5
 62
   256
  6
BYLAYER
  0
ACDBPLACEHOLDER
  5
F
102
{ACAD_REACTORS
330
E
102
}
330
E
  0
TABLESTYLE
  5
A2
102
{ACAD_REACTORS
330
A1
102
}
330
A1
100
AcDbTableStyle
  3
Standard
 70
     0
 71
     0
 40
1.5
 41
1.5
280
     0
281
     0
  7
Standard
140
4.5
170
     2
 62
     0
 63
     7
283
     0
274
    -2
284
     1
 64
     0
275
    -2
285
     1
 65
     0
276
    -2
286
     1
 66
     0
277
    -2
287
     1
 67
     0
278
    -2
288
     1
 68
     0
279
    -2
289
     1
 69
     0
  7
Standard
140
6.0
170
     5
 62
     0
 63
     7
283
     0
274
    -2
284
     1
 64
     0
275
    -2
285
     1
 65
     0
276
    -2
286
     1
 66
     0
277
    -2
287
     1
 67
     0
278
    -2
288
     1
 68
     0
279
    -2
289
     1
 69
     0
  7
Standard
140
4.5
170
     5
 62
     0
 63
     7
283
     0
274
    -2
284
     1
 64
     0
275
    -2
285
     1
 65
     0
276
    -2
286
     1
 66
     0
277
    -2
287
     1
 67
     0
278
    -2
288
     1
 68
     0
279
    -2
289
     1
 69
     0
  0
DICTIONARYVAR
  5
B8
102
{ACAD_REACTORS
330
5E
102
}
330
5E
100
DictionaryVariables
280
     0
  1
STANDARD
  0
DICTIONARYVAR
  5
5F
102
{ACAD_REACTORS
330
5E
102
}
330
5E
100
DictionaryVariables
280
     0
  1
2
  0
DICTIONARYVAR
  5
63
102
{ACAD_REACTORS
330
5E
102
}
330
5E
100
DictionaryVariables
280
     0
  1
1
  0
DICTIONARYVAR
  5
31CE
102
{ACAD_REACTORS
330
5E
102
}
330
5E
100
DictionaryVariables
280
     0
  1

  0
XRECORD
  5
349EA
102
{ACAD_REACTORS
330
349E9
102
}
330
349E9
100
AcDbXrecord
280
     1
330
68C
330
0
330
0
330
0
330
0
330
0
330
0
330
0
330
0
330
0
330
0
330
0
330
0
330
0
330
0
330
0
330
0
330
0
330
0
330
0
330
0
330
0
330
0
330
0
330
0
330
0
330
0
330
0
330
0
330
0
330
0
330
0
330
0
330
0
330
0
330
0
330
0
330
0
330
0
330
0
330
0
330
0
330
0
330
0
330
0
330
0
330
0
330
0
330
0
330
0
330
0
330
0
330
0
330
0
330
0
330
0
330
0
330
0
330
0
330
0
330
0
330
0
330
0
330
0
330
0
330
0
330
0
330
0
330
0
330
0
330
0
330
0
330
0
330
0
330
0
330
0
330
0
330
0
330
0
330
0
330
0
330
0
330
0
330
0
330
0
330
0
330
0
330
0
330
0
330
0
330
0
330
0
330
0
330
0
330
0
330
0
330
0
330
0
330
0
330
0
330
0
330
0
330
0
330
0
330
0
330
0
330
0
330
0
330
0
330
0
  0
DICTIONARY
  5
B2
330
51
100
AcDbDictionary
280
     1
281
     1
  3
ACAD_XREC_ROUNDTRIP
360
56931
  3
ADSK_XREC_LAYOUTTHUMBNAIL
360
B3
  0
DICTIONARY
  5
B5
330
56
100
AcDbDictionary
280
     1
281
     1
  3
ACAD_XREC_ROUNDTRIP
360
56932
  3
ADSK_XREC_LAYOUTTHUMBNAIL
360
B6
  0
DICTIONARY
  5
5692F
330
22
100
AcDbDictionary
280
     1
281
     1
  3
ACAD_XREC_ROUNDTRIP
360
56930
  0
XRECORD
  5
56931
102
{ACAD_REACTORS
330
B2
102
}
330
B2
100
AcDbXrecord
280
     1
102
SHADEPLOT
 70
     0
102
SHADEPLOTRESLEVEL
 70
     2
102
SHADEPLOTCUSTOMDPI
 70
   300
  0
XRECORD
  5
B3
102
{ACAD_REACTORS
330
B2
102
}
330
B2
100
AcDbXrecord
280
     1
310
28000000B40000008B0000000100080000000000BC61000000000000000000000001000000000000FFFFFF0000000000FFFFFF000000000000000000000000000000000000000000000000000000000000000000330000006600000099000000CC000000FF00000000330000333300006633000099330000CC330000FF3300
310
0000660000336600006666000099660000CC660000FF66000000990000339900006699000099990000CC990000FF99000000CC000033CC000066CC000099CC0000CCCC0000FFCC000000FF000033FF000066FF000099FF0000CCFF0000FFFF000000003300330033006600330099003300CC003300FF003300003333003333
310
33006633330099333300CC333300FF33330000663300336633006666330099663300CC663300FF66330000993300339933006699330099993300CC993300FF99330000CC330033CC330066CC330099CC3300CCCC3300FFCC330000FF330033FF330066FF330099FF3300CCFF3300FFFF330000006600330066006600660099
310
006600CC006600FF00660000336600333366006633660099336600CC336600FF33660000666600336666006666660099666600CC666600FF66660000996600339966006699660099996600CC996600FF99660000CC660033CC660066CC660099CC6600CCCC6600FFCC660000FF660033FF660066FF660099FF6600CCFF6600
310
FFFF660000009900330099006600990099009900CC009900FF00990000339900333399006633990099339900CC339900FF33990000669900336699006666990099669900CC669900FF66990000999900339999006699990099999900CC999900FF99990000CC990033CC990066CC990099CC9900CCCC9900FFCC990000FF99
310
0033FF990066FF990099FF9900CCFF9900FFFF99000000CC003300CC006600CC009900CC00CC00CC00FF00CC000033CC003333CC006633CC009933CC00CC33CC00FF33CC000066CC003366CC006666CC009966CC00CC66CC00FF66CC000099CC003399CC006699CC009999CC00CC99CC00FF99CC0000CCCC0033CCCC0066CC
310
CC0099CCCC00CCCCCC00FFCCCC0000FFCC0033FFCC0066FFCC0099FFCC00CCFFCC00FFFFCC000000FF003300FF006600FF009900FF00CC00FF00FF00FF000033FF003333FF006633FF009933FF00CC33FF00FF33FF000066FF003366FF006666FF009966FF00CC66FF00FF66FF000099FF003399FF006699FF009999FF00CC
310
99FF00FF99FF0000CCFF0033CCFF0066CCFF0099CCFF00CCCCFF00FFCCFF0000FFFF0033FFFF0066FFFF0099FFFF00CCFFFF00FFFFFF00000000000D0D0D001A1A1A00282828003535350043434300505050005D5D5D006B6B6B00787878008686860093939300A1A1A100AEAEAE00BBBBBB00C9C9C900D6D6D600E4E4E400
310
F1F1F100FFFFFF0000000000000000000000000000000000000000000000000000000000000000000000000000000000E2E2E2E2E2E2E2E2E2E2E2E2E2E2E2E2E2E2E2E2E2E2E2E2E2E2E2E2E2E2E2E2E2E2E2E2E2E2E2E2E2E2E2E2E2E2E2E2E2E2E2E2E2E2E2E2E2E2E2E2E2E2E2E2E2E2E2E2E2E2E2E2E2E2E2E2E2E2E2
310
E2E2E2E2E2E2E2E2E2E2E2E2E2E2E2E2E2E2E2E2E2E2E2E2E2E2E2E2E2E2E2E2E2E2E2E2E2E2E2E2E2E2E2E2E2E2E2E2E2E2E2E2E2E2E2E2E2E2E2E2E2E2E2E2E2E2E2E2E2E2E2E2E2E2E2E2E2E2E2E2E2E2E2E2E2E2E2E2E2E2E2E2E2E2E2E2E2E2E2E2E2E2F5F5F5F5F5F5F5F5F5F5F5F5F5F5F5F5F5F5F5F5F5F5F5F5F5
310
F5F5F5F5F5F5F5F5F5F5F5F5F5F5F5F5F5F5F5F5F5F5F5F5F5F5F5F5F5F5F5F5F5F5F5F5F5F5F5F5F5F5F5F5F5F5F5F5F5F5F5F5F5F5F5F5F5F5F5F5F5F5F5F5F5F5F5F5F5F5F5F5F5F5F5F5F5F5F5F5F5F5F5F5F5F5F5F5F5F5F5F5F5F5F5F5F5F5F5F5F5F5F5F5F5F5F5F5F5F5F5F5F5F5F5F5F5F5F5F5F5F5F5F5F5F5F5
310
F5F5F5F5F5F5F5F5F5F5F5F5F5F5F5F5F5F5F5F5F5F5F5F5F5F5E2E2F5F5F5F5F5F5F5F5F5F5F5F5F5F5F5F5F5F5F5F5F5F5F5F5F5F5F5F5F5F5F5F5F5F5F5F5F5F5F5F5F5F5F5F5F5F5F5F5F5F5F5F5F5F5F5F5F5F5F5F5F5F5F5F5F5F5F5F5F5F5F5F5F5F5F5F5F5F5F5F5F5F5F5F5F5F5F5F5F5F5F5F5F5F5F5F5F5F5F5
310
F5F5F5F5F5F5F5F5F5F5F5F5F5F5F5F5F5F5F5F5F5F5F5F5F5F5F5F5F5F5F5F5F5F5F5F5F5F5F5F5F5F5F5F5F5F5F5F5F5F5F5F5F5F5F5F5F5F5F5F5F5F5F5F5F5F5F5F5F5F5F5F5F5F5F5F5F5F5F5E2E2F5F5F5F5F5F5F5F5F5F5F5F5F5F5F5F5F5F5F5F5F5F5F5F5F5F5F5F5F5F5F5F5F5F5F5F5F5F5F5F5F5F5F5F5F5F5
310
F5F5F5F5F5F5F5F5F5F5F5F5F5F5F5F5F5F5F5F5F5F5F5F5F5F5F5F5F5F5F5F5F5F5F5F5F5F5F5F5F5F5F5F5F5F5F5F5F5F5F5F5F5F5F5F5F5F5F5F5F5F5F5F5F5F5F5F5F5F5F5F5F5F5F5F5F5F5F5F5F5F5F5F5F5F5F5F5F5F5F5F5F5F5F5F5F5F5F5F5F5F5F5F5F5F5F5F5F5F5F5F5F5F5F5F5F5F5F5F5F5F5F5F5F5F5F5
310
F5F5F5F5F5E2E2F5F5F5F5E2E2E2E2E2E2E2E2F5F5F5F5F5F5F5F5F5E2E2E2E2E2E2E2E2E2E2E2E2E2E2E2F5F5F5F5F5F5F5F5F5E2E2E2E2E2E2E2E2E2E2E2E2E2E2E2E2F5F5F5F5F5F5F5F5E2E2E2E2E2E2E2E2E2E2E2E2E2E2E2E2F5F5F5F5F5F5F5F5E2E2E2E2E2E2E2E2E2E2E2E2E2E2E2E2F5F5F5F5F5F5F5F5E2E2E2
310
E2E2E2E2E2E2E2E2E2E2E2E2E2F5F5F5F5F5F5F5F5F5E2E2E2E2E2E2E2E2E2E2E2E2E2E2E2F5F5F5F5F5F5F5F5F5E2E2E2E2E2E2E2E2F5F5F5F5E2E2F5F5F5F5E2F5F5F5F5F5F5F5F5F5F5F5F5F5F5F5F5F5F5F5F5F5F5F5F5F5F5F5F5F5F5F5F5F5F5F5F5F5F5F5F5F5F5F5F5F5F5F5F5F5F5F5F5F5F5F5F5F5F5F5F5F5F5
310
F5F5F5F5F5F5F5F5F5F5F5F5F5F5F5F5F5F5F5F5F5F5F5F5F5F5F5F5F5F5F5F5F5F5F5F5F5F5F5F5F5F5F5F5F5F5F5F5F5F5F5F5F5F5F5F5F5F5F5F5F5F5F5F5F5F5F5F5F5F5F5F5F5F5F5F5F5F5F5F5F5F5F5F5F5F5F5F5F5F5F5F5F5F5F5F5F5F5F5F5F5F5F5F5F5F5E2F5F5F5F5E2E2F5F5F5F5E2F5F5F5F5F5F5F5F5F5
310
F5F5F5F5F5F5F5F5F5F5F5F5F5F5F5F5F5F5F5F5F5F5F5F5F5F5F5F5F5F5F5F5F5F5F5F5F5F5F5F5F5F5F5F5F5F5F5F5F5F5F5F5F5F5F5F5F5F5F5F5F5F5F5F5F5F5F5F5F5F5F5F5F5F5F5F5F5F5F5F5F5F5F5F5F5F5F5F5F5F5F5F5F5F5F5F5F5F5F5F5F5F5F5F5F5F5F5F5F5F5F5F5F5F5F5F5F5F5F5F5F5F5F5F5F5F5F5
310
F5F5F5F5F5F5F5F5F5F5F5F5F5F5F5F5F5F5F5F5F5F5F5F5F5F5F5F5F5F5F5F5E2F5F5F5F5E2E2F5F5F5F5E2F5F5F5F5F5F5F5F5F5F5F5F5F5F5F5F5F5F5F5F5F5F5F5F5F5F5F5F5F5F5F5F5F5F5F5F5F5F5F5F5F5F5F5F5F5F5F5F5F5F5F5F5F5F5F5F5F5F5F5F5F5F5F5F5F5F5F5F5F5F5F5F5F5F5F5F5F5F5F5F5F5F5F5
310
F5F5F5F5F5F5F5F5F5F5F5F5F5F5F5F5F5F5F5F5F5F5F5F5F5F5F5F5F5F5F5F5F5F5F5F5F5F5F5F5F5F5F5F5F5F5F5F5F5F5F5F5F5F5F5F5F5F5F5F5F5F5F5F5F5F5F5F5F5F5F5F5F5F5F5F5F5F5F5F5F5F5F5F5F5E2F5F5F5F5E2E2F5F5F5F5E2F5F5F5F5F5F5F5F5F5F5F5F5F5F5F5F5F5F5F5F5F5F5F5F5F5F5F5F5F5F5
310
F5F5F5F5F5F5F5F5F5F5F5F5F5F5F5F5F5F5F5F5F5F5F5F5F5F5F5F5F5F5F5F5F5F5F5F5F5F5F5F5F5F5F5F5F5F5F5F5F5F5F5F5F5F5F5F5F5F5F5F5F5F5F5F5F5F5F5F5F5F5F5F5F5F5F5F5F5F5F5F5F5F5F5F5F5F5F5F5F5F5F5F5F5F5F5F5F5F5F5F5F5F5F5F5F5F5F5F5F5F5F5F5F5F5F5F5F5F5F5F5F5F5F5F5F5F5F5
310
F5F5F5F5F5F5F5F5F5F5F5E2F5F5F5F5E2E2F5F5F5F5E2F5F5F5F5F5F5F5F5F5F5F5F5F5F5F5F5F5F5F5F5F5F5F5F5F5F5F5F5F5F5F5F5F5F5F5F5F5F5F5F5F5F5F5F5F5F5F5F5F5F5F5F5F5F5F5F5F5F5F5F5F5F5F5F5F5F5F5F5F5F5F5F5F5F5F5F5F5F5F5F5F5F5F5F5F5F5F5F5F5F5F5F5F5F5F5F5F5F5F5F5F5F5F5F5
310
F5F5F5F5F5F5F5F5F5F5F5F5F5F5F5F5F5F5F5F5F5F5F5F5F5F5F5F5F5F5F5F5F5F5F5F5F5F5F5F5F5F5F5F5F5F5F5F5F5F5F5F5F5F5F5F5F5F5F5F5F5F5F5F5E2F5F5F5F5E2E2F5F5F5F5E2F5F5F5F5F5F5F5F5F5F5F5F5F5F5F5F5F5F5F5F5F5F5F5F5F5F5F5F5F5F5F5F5F5F5F5F5F5F5F5F5F5F5F5F5F5F5F5F5F5F5F5
310
F5F5F5F5F5F5F5F5F5F5F5F5F5F5F5F5F5F5F5F5F5F5F5F5F5F5F5F5F5F5F5F5F5F5F5F5F5F5F5F5F5F5F5F5F5F5F5F5F5F5F5F5F5F5F5F5F5F5F5F5F5F5F5F5F5F5F5F5F5F5F5F5F5F5F5F5F5F5F5F5F5F5F5F5F5F5F5F5F5F5F5F5F5F5F5F5F5F5F5F5F5F5F5F5F5F5F5F5F5F5F5F5F5F5F5F5F5E2F5F5F5F5E2E2F5F5F5
310
F5E2F5F5F5F5F5F5F5F5F5F5F5F5F5F5F5F5F5F5F5F5F5F5F5F5F5F5F5F5F5F5F5F5F5F5F5F5F5F5F5F5F5F5F5F5F5F5F5F5F5F5F5F5F5F5F5F5F5F5F5F5F5F5F5F5F5F5F5F5F5F5F5F5F5F5F5F5F5F5F5F5F5F5F5F5F5F5F5F5F5F5F5F5F5F5F5F5F5F5F5F5F5F5F5F5F5F5F5F5F5F5F5F5F5F5F5F5F5F5F5F5F5F5F5F5F5
310
F5F5F5F5F5F5F5F5F5F5F5F5F5F5F5F5F5F5F5F5F5F5F5F5F5F5F5F5F5F5F5F5F5F5F5F5F5F5F5F5F5F5F5E2F5F5F5F5E2E2F5F5F5F5E2F5F5F5F5F5F5F5F5F5F5F5F5F5F5F5F5F5F5F5F5F5F5F5F5F5F5F5F5F5F5F5F5F5F5F5F5F5F5F5F5F5F5F5F5F5F5F5F5F5F5F5F5F5F5F5F5F5F5F5F5F5F5F5F5F5F5F5F5F5F5F5F5
310
F5F5F5F5F5F5F5F5F5F5F5F5F5F5F5F5F5F5F5F5F5F5F5F5F5F5F5F5F5F5F5F5F5F5F5F5F5F5F5F5F5F5F5F5F5F5F5F5F5F5F5F5F5F5F5F5F5F5F5F5F5F5F5F5F5F5F5F5F5F5F5F5F5F5F5F5F5F5F5F5F5F5F5F5F5F5F5F5F5F5F5F5F5F5F5F5E2F5F5F5F5E2E2F5F5F5F5F5F5F5F5F5F5F5F5F5F5F5F5F5F5F5F5F5F5F5F5
310
F5F5F5F5F5F5F5F5F5F5F5F5F5F5F5F5F5F5F5F5F5F5F5F5F5F5F5F5F5F5F5F5F5F5F5F5F5F5F5F5F5F5F5F5F5F5F5F5F5F5F5F5F5F5F5F5F5F5F5F5F5F5F5F5F5F5F5F5F5F5F5F5F5F5F5F5F5F5F5F5F5F5F5F5F5F5F5F5F5F5F5F5F5F5F5F5F5F5F5F5F5F5F5F5F5F5F5F5F5F5F5F5F5F5F5F5F5F5F5F5F5F5F5F5F5F5F5
310
F5F5F5F5F5F5F5F5F5F5F5F5F5F5F5F5F5F5F5F5F5F5F5F5F5F5F5E2E2F5F5F5F5F5F5F5F5F5F5F5F5F5F5F5F5F5F5F5F5F5F5F5F5F5F5F5F5F5F5F5F5F5F5F5F5F5F5F5F5F5F5F5F5F5F5F5F5F5F5F5F5F5F5F5F5F5F5F5F5F5F5F5F5F5F5F5F5F5F5F5F5F5F5F5F5F5F5F5F5F5F5F5F5F5F5F5F5F5F5F5F5F5F5F5F5F5F5
310
F5F5F5F5F5F5F5F5F5F5F5F5F5F5F5F5F5F5F5F5F5F5F5F5F5F5F5F5F5F5F5F5F5F5F5F5F5F5F5F5F5F5F5F5F5F5F5F5F5F5F5F5F5F5F5F5F5F5F5F5F5F5F5F5F5F5F5F5F5F5F5F5F5F5F5F5F5F5F5F5E2E2F5F5F5F5F5F5F5F5F5F5F5F5F5F5F5F5F5F5F5F5F5F5F5F5F5F5F5F5F5F5F5F5F5F5F5F5F5F5F5F5F5F5F5F5F5
310
F5F5F5F5F5F5F5F5F5F5F5F5F5F5F5F5F5F5F5F5F5F5F5F5F5F5F5F5F5F5F5F5F5F5F5F5F5F5F5F5F5F5F5F5F5F5F5F5F5F5F5F5F5F5F5F5F5F5F5F5F5F5F5F5F5F5F5F5F5F5F5F5F5F5F5F5F5F5F5F5F5F5F5F5F5F5F5F5F5F5F5F5F5F5F5F5F5F5F5F5F5F5F5F5F5F5F5F5F5F5F5F5F5F5F5F5F5F5F5F5F5F5F5F5F5F5F5
310
F5F5F5F5F5F5E2E2F5F5F5F5F5F5F5F5F5F5F5F5F5F5F5F5F5F5F5F5F5F5F5F5F5F5F5F5F5F5F5F5F5F5F5F5F5F5F5F5F5F5F5F5F5F5F5F5F5F5F5F5F5F5F5F5F5F5F5F5F5F5F5F5F5F5F5F5F5F5F5F5F5F5F5F5F5F5F5F5F5F5F5F5F5F5F5F5F5F5F5F5F5F5F5F5F5F5F5F5F5F5F5F5F5F5F5F5F5F5F5F5F5F5F5F5F5F5F5
310
F5F5F5F5F5F5F5F5F5F5F5F5F5F5F5F5F5F5F5F5F5F5F5F5F5F5F5F5F5F5F5F5F5F5F5F5F5F5F5F5F5F5F5F5F5F5F5F5F5F5F5F5F5F5F5F5F5F5F5E2E2F5F5F5F5F5F5F5F5F5F5F5F5F5F5F5F5F5F5F5F5F5E2E2E2E2E2E2E2E2E2E2E2E2E2E2E2E2E2E2E2E2E2E2E2E2E2E2E2E2E2E2E2E2E2E2E2E2E2E2E2E2E2E2E2E2E2
310
E2E2E2E2E2E2E2E2E2E2E2E2E2E2E2E2E2E2E2E2E2E2E2E2E2E2E2E2E2E2E2E2E2E2E2E2E2E2E2E2E2E2E2E2E2E2E2E2E2E2E2E2E2E2E2E2E2E2E2E2E2E2E2E2E2E2E2E2E2E2E2E2E2E2E2E2E2E2E2E2E2E2E2E2E2E2E2E2E2E2E2F5F5F5F5F5F5F5F5F5F5F5F5F5F5F5F5F5F5F5F5F5E2E2F5F5F5F5F5F5F5F5F5F5F5F5F5
310
F5F5F5F5F5F5F5F5E22D2D2D2D2D2D2D2D2D2D2D2DF5F5F5F5F5F5F5F5F5F5F5F5F5F5F5E2F5F5F5F5F5F5F5F5F5F5F5F5F5F5F5F5F5F5F5F5F5F5F5F5F5F5F5F5F5F5F5F5F5F5F5F5F5F5F5F5F5F5F5F5F5F5F5F5F5F5F5F5F5F5F5F5F5F5F5F5F5F5F5F5F5F5F5F5F5F5F5F5F5F5F5F5F5F5F5F5F5F5F5F5F5F5F5F5F5F5
310
F5F5F5F5F5F5F5F5F5F5F5F5F5F5F5F5E2F5F5F5F5F5F5F5F5F5F5F5F5F5F5F5F5F5F5F5F5F5E2E2F5F5F5F5F5F5F5F5F5F5F5F5F5F5F5F5F5F5F5F5F5E22D2D2DF5F5E2F5F5F5F5F52DF5F5F5F5F5F5F5F5F5F5F5F5F5F5F5E2F5F5F5F5F5F5F5F5F5F5F5F5F5F5F5F5F5F5F5F5F5F5F5F5F5F5F5F5F5F5F5F5F5F5F5F5F5
310
F5F5F5F5F5F5F5F5F5F5F5F5F5F5F5F5F5F5F5F5F5F5F5F5F5F5F5F5F5F5F5F5F5F5F5F5F5F5F5F5F5F5F5F5F5F5F5F5F5F5F5F5F5F5F5F5F5F5F5F5F5F5F5F5F5F5F5F5F5E2F5F5F5F5F5F5F5F5F5F5F5F5F5F5F5F5F5F5F5F5F5E2E2F5F5F5F5F5F5F5F5F5F5F5F5F5F5F5F5F5F5F5F5F5E2DCF52DF5F5E2F5F5F5F5F52D
310
F5F5F5F5F5F5F5F5F5F5F5F5F5F5F5E2F5F5F5F5F5F5F5F5F5F5F5F5F5F5F5F5F5F5F5F5F5F5F5F5F5F5F5F5F5F5F5F5F5F5F5F5F5F5F5F5F5F5F5F5F5F5F5F5F5F5F5F5F5F5F5F5F5F5F5F5F5F5F5F5F5F5F5F5F5F5F5F5F5F5F5F5F5F5F5F5F5F5F5F5F5F5F5F5F5F5F5F5F5F5F5F5F5F5F5F5F5F5F5F5F5F5E2F5F5F5F5
310
F5F5F5F5F5F5F5F5F5F5F5F5F5F5F5F5F5E2E2F5F5F5F5F5F5F5F5F5F5F5F5F5F5F5F5F5F5F5F5F5E2BEF52D2D2D2D2D2D2D2DE2E2E2E2E2E2E2E2E2E2E2E2E2E2E2E2E2E2F5F5F5F5F5F5F5F5F5F5F5F5F5F5F5F5F5F5F5F5F5F5F5F5F5F5F5F5F5F5F5F5F5F5F5F5F5F5F5F5F5F5F5F5F5F5F5F5F5F5F5F5F5F5F5F5F5F5
310
F5F5F5F5F5F5F5F5F5F5F5F5F5F5F5F5F5F5F5F5F5F5F5F5F5F5F5F5F5F5F5F5F5F5F5F5F5F5F5F5F5F5F5F5F5F5F5F5E2F5F5F5F5F5F5F5F5F5F5F5F5F5F5F5F5F5F5F5F5F5E2E2F5F5F5F5E2F5F5F5F5F5F5F5F5F5F5F5F5F5F5F5F5E2DCF5F5F5F5E2F5F5F5F5F5E2F5F5F5F5F5F5F5F5F5F5F5F5F5F5F5F5F5F5F5F5F5
310
F5F5F5F5F5F5F5F5F5F5F5F5F5F5F5F5F5F5F5F5F5F5F5F5F5F5F5F5F5F5F5F5F5F5F5F5F5F5F5F5F5F5F5F5F5F5F5F5F5F5F5F5F5F5F5F5F5F5F5F5F5F5F5F5F5F5F5F5F5F5F5F5F5F5F5F5F5F5F5F5F5F5F5F5F5F5F5F5F5F5F5F5F5F5F5F5F5F5F5F5F5E2F5F5F5F5F5F5F5F5F5F5F5F5F5F5F5F5E2F5F5F5F5E2E2F5F5
310
F5F5E2F5F5F5F5F5F5F5F5F5F5F5F5F5F5F5F5E2F5F5F5F5F5E2F5F5F5F5F5E2F5F5F5F5F5F5F5F5F5F5F5F5F5F5F5F5F5F5F5F5F5F5F5F5F5F5F5F5F5F5F5F5F5F5F5F5F5F5F5F5F5F5F5F5F5F5F5F5F5F5F5F5F5F5F5F5F5F5F5F5F5F5F5F5F5F5F5F5F5F5F5F5F5F5F5F5F5F5F5F5F5F5F5F5F5F5F5F5F5F5F5F5F5F5F5
310
F5F5F5F5F5F5F5F5F5F5F5F5F5F5F5F5F5F5F5F5F5F5F5F5F5F5F5E2F5F5F5F5F5F5F5F5F5F5F5F5F5F5F5F5E2F5F5F5F5E2E2F5F5F5F5E2F5F5F5F5F5F5F5F5F5F5F5F5F5F5F5F5E2F5F5F5F5F5E2F5F5F5F5F5E2F5F5F5F5F5F5F5F5F5F5F5F5F5F5F5F5F5F5F5F5F5F5F5F5F5F5F5F5F5F5F5F5F5F5F5F5F5F5F5F5F5F5
310
F5F5F5F5F5F5F5F5F5F5F5F5F5F5F5F5F5F5F5F5F5F5F5F5F5F5F5F5F5F5F5F5F5F5F5F5F5F5F5F5F5F5F5F5F5F5F5F5F5F5F5F5F5F5F5F5F5F5F5F5F5F5F5F5F5F5F5F5F5F5F5F5F5F5F5F5F5F5F5F5E2F5F5F5F5F5F5F5F5F5F5F5F5F5F5F5F5E2F5F5F5F5E2E2F5F5F5F5E2F5F5F5F5F5F5F5F5F5F5F5F5F5F5F5F5E2F5
310
F5F5F5F5E2F5F5F5F5F5E2F5F5F5F5F5F5F5F5F5F5F5F5F5F5F5F5F5F5F5F5F5F5F5F5F5F5F5F5F5F5F5F5F5F5F5F5F5F5F5F5F5F5F5F5F5F5F5F5F5F5F5F5F5F5F5F5F5F5F5F5F5F5F5F5F5F5F5F5F5F5F5F5F5F5F5F5F5F5F5F5F5F5F5F5F5F5F5F5F5F5F5F5F5F5F5F5F5F5F5F5F5F5F5F5F5F5F5F5F5F5F5F5F5F5F5F5
310
F5F5F5F5F5F5E2F5F5F5F5F5F5F5F5F5F5F5F5F5F5F5F5E2F5F5F5F5E2E2F5F5F5F5E2F5F5F5F5F5F5F5F5F5F5F5F5F5F5F5F5E2E2E2E2E2E2E2F5F5F5F5F5E2F5F5F5F5F5F5F5F5F5F5F5F5F5F5F5F5F5F5F5F5F5F5F5F5F5F5F5F5F5F5F5F5F5F5F5F5F5F5F5F5F5F5F5F5F5F5F5F5F5F5F5F5F5F5F5F5F5F5F5F5F5F5F5
310
F5F5F5F5F5F5F5F5F5F5F5F5F5F5F5F5F5F5F5F5F5F5F5F5F5F5F5F5F5F5F5F5F5F5F5F5F5F5F5F5F5F5F5F5F5F5F5F5F5F5F5F5F5F5F5F5F5F5F5E2F5F5F5F5F5F5F5F5F5F5F5F5F5F5F5F5E2F5F5F5F5E2E2F5F5F5F5E2F5F5F5F5F5F5F5F5F5F5F5F5F5F5F5F5E2E2E2E2F5E2E2F5F5F5F5F5E2F5F5F5F5F5F5F5F5F5F5
310
F5F5F5F5F5F5F5F5F5F5F5F5F5F5F5F5F5F5F5F5F5F5F5F5F5F5F5F5F5F5F5F5F5F5F5F5F5F5F5F5F5F5F5F5F5F5F5F5F5F5F5F5F5F5F5F5F5F5F5F5F5F5F5F5F5F5F5F5F5F5F5F5F5F5F5F5F5F5F5F5F5F5F5F5F5F5F5F5F5F5F5F5F5F5F5F5F5F5F5F5F5F5F5F5F5F5F5F5F5F5F5F5E2F5F5F5F5F5F5F5F5F5F5F5F5F5F5
310
F5F5E2F5F5F5F5E2E2F5F5F5F5E2F5F5F5F5F5F5F5F5F5F5F5F5F5F5F5F5E2E2E2E2F5F5F5F5F5F5F5F5E2F5F5F5F5F5F5F5F5F5F5F5F5F5F5F5F5F5F5F5F5F5F5F5F5F5F5F5F5F5F5F5F5F5F5F5F5F5F5F5F5F5F5F5F5F5F5F5F5F5F5F5F5F5F5F5F5F5F5F5F5F5F5F5F5F5F5F5F5F5F5F5F5F5F5F5F5F5F5F5F5F5F5F5F5
310
F5F5F5F5F5F5F5F5F5F5F5F5F5F5F5F5F5F5F5F5F5F5F5F5F5F5F5F5F5F5F5F5F5F5F5F5F5F5E2F5F5F5F5F5F5F5F5F5F5F5F5F5F5F5F5E2F5F5F5F5E2E2F5F5F5F5E2F5F5F5F5F5F5F5F5F5F5F5F5F5F5F5F5E2F5F5F5F5F5F5F5F5F5F5F5E2F5F5F5F5F5F5F5F5F5F5F5F5F5F5F5F5F5F5F5F5F5F5F5F5F5F5F5F5F5F5F5
310
F5F5F5F5F5F5F5F5F5F5F5F5F5F5F5F5F5F5F5F5F5F5F5F5F5F5F5F5F5F5F5F5F5F5F5F5F5F5F5F5F5F5F5F5F5F5F5F5F5F5F5F5F5F5F5F5F5F5F5F5F5F5F5F5F5F5F5F5F5F5F5F5F5F5F5F5F5F5F5F5F5F5F5F5F5F5F5F5F5F5F5E2F5F5F5F5F5F5F5F5F5F5F5F5F5F5F5F5E2F5F5F5F5E2E2F5F5F5F5E2F5F5F5F5F5F5F5
310
F5F5F5F5F5F5F5F5F5E2E2E2E2E2E2E2E2E2E2E2E2E2F5F5F5F5F5F5F5F5F5F5F5F5F5F5F5F5F5F5F5F5F5F5F5F5F5F5F5F5F5F5F5F5F5F5F5F5F5F5F5F5F5F5F5F5F5F5F5F5F5F5F5F5F5F5F5F5F5F5F5F5F5F5F5F5F5F5F5F5F5F5F5F5F5F5F5F5F5F5F5F5F5F5F5F5F5F5F5F5F5F5F5F5F5F5F5F5F5F5F5F5F5F5F5F5F5
310
F5F5F5F5F5F5F5F5F5F5F5F5F5F5F5F5F5E2F5F5F5F5F5F5F5F5F5F5F5F5F5F5F5F5E2F5F5F5F5E2E2F5F5F5F5E2F5F5F5F5F5F5F5F5F5F5F5F5F5F5F5F5E2E2E2F5F5F5F5F5F5F5F5F5F5F5F5F5F5F5F5F5F5F5F5F5F5F5F5F5F5F5F5F5F5F5F5F5F5F5F5F5F5F5F5F5F5F5F5F5F5F5F5F5F5F5F5F5F5F5F5F5F5F5F5F5F5
310
F5F5F5F5F5F5F5F5F5F5F5F5F5F5F5F5F5F5F5F5F5F5F5F5F5F5F5F5F5F5F5F5F5F5F5F5F5F5F5F5F5F5F5F5F5F5F5F5F5F5F5F5F5F5F5F5F5F5F5F5F5F5F5F5F5F5F5F5F5F5E2F5F5F5F5F5F5F5F5F5F5F5F5F5F5F5F5E2F5F5F5F5E2E2F5F5F5F5E2F5F5F5F5F5F5F5F5F5F5F5F5F5F5F5F5E2E2E2F5F5F5F5F5F5F5F5F5
310
F5F5F5F5F5F5F5F5F5F5F5F5F5F5F5F5F5F5F5F5F5F5F5F5F5F5F5F5F5F5F5F5F5F5F5F5F5F5F5F5F5F5F5F5F5F5F5F5F5F5F5F5F5F5F5F5F5F5F5F5F5F5F5F5F5F5F5F5F5F5F5F5F5F5F5F5F5F5F5F5F5F5F5F5F5F5F5F5F5F5F5F5F5F5F5F5F5F5F5F5F5F5F5F5F5F5F5F5F5F5F5F5F5F5F5F5F5F5F5F5F5F5F5E2F5F5F5
310
F5F5F5F5F5F5F5F5F5F5F5F5F5E2F5F5F5F5E2E2F5F5F5F5E2F5F5F5F5F5F5F5F5F5F5F5F5F5F5F5F5E2F5F5F5F5F5F5F5F5F5F5F5F5F5F5F5F5F5F5F5F5F5F5F5F5F5F5F5F5F5F5F5F5F5F5F5F5F5F5F5F5F5F5F5F5F5F5F5F5F5F5F5F5F5F5F5F5F5F5F5F5F5F5F5F5F5F5F5F5F5F5F5F5F5F5F5F5F5F5F5F5F5F5F5F5F5
310
F5F5F5F5F5F5F5F5F5F5F5F5F5F5F5F5F5F5F5F5F5F5F5F5F5F5F5F5F5F5F5F5F5F5F5F5F5F5F5F5F5F5F5F5F5F5F5F5F5E2F5F5F5F5F5F5F5F5F5F5F5F5F5F5F5F5E2F5F5F5F5E2E2F5F5F5F5E2F5F5F5F5F5F5F5F5F5F5F5F5F5F5F5F5E2F5F5F5F5F5F5F5F5F5F5F5F5F5F5F5F5F5F5F5F5F5F5F5F5F5F5F5F5F5F5F5F5
310
F5F5F5F5F5F5F5F5F5F5F5F5F5F5F5F5F5F5F5F5F5F5F5F5F5F5F5F5F5F5F5F5F5F5F5F5F5F5F5F5F5F5F5F5F5F5F5F5F5F5F5F5F5F5F5F5F5F5F5F5F5F5F5F5F5F5F5F5F5F5F5F5F5F5F5F5F5F5F5F5F5F5F5F5F5F5F5F5F5F5F5F5F5F5F5F5F5F5F5F5F5F5E2F5F5F5F5F5F5F5F5F5F5F5F5F5F5F5F5E2F5F5F5F5E2E2F5
310
F5F5F5E2F5F5F5F5F5F5F5F5F5F5F5F5F5F5F5F5E20F0F0F0F0F0F0F0F0F0F0FF5F5F5F5F5F5F5F5F5F5F5F5F5F5F5F5F5F5F5F5F5F5F5F5F5F5F5F5F5F5F5F5F5F5F5F5F5F5F5F5F5F5F5F5F5F5F5F5F5F5F5F5F5F5F5F5F5F5F5F5F5F5F5F5F5F5F5F5F5F5F5F5F5F5F5F5F5F5F5F5F5F5F5F5F5F5F5F5F5F5F5F5F5F5F5
310
F5F5F5F5F5F5F5F5F5F5F5F5F5F5F5F5F5F5F5F5F5F5F5F5F5F5F5F5E2F5F5F5F5F5F5F5F5F5F5F5F5F5F5F5F5E2F5F5F5F5E2E2F5F5F5F5E2F5F5F5F5F5F5F5F5F5F5F5F5F5F5F5F5E20F0F0F0F0F0F0F0F0F0F0FF5F5F5F5F5F5F5F5F5F5F5F5F5F5F5F5F5F5F5F5F5F5F5F5F5F5F5F5F5F5F5F5F5F5F5F5F5F5F5F5F5F5
310
F5F5F5F5F5F5F5F5F5F5F5F5F5F5F5F5F5F5F5F5F5F5F5F5F5F5F5F5F5F5F5F5F5F5F5F5F5F5F5F5F5F5F5F5F5F5F5F5F5F5F5F5F5F5F5F5F5F5F5F5F5F5F5F5F5F5F5F5F5F5F5F5F5F5F5F5F5F5F5F5F5E2F5F5F5F5F5F5F5F5F5F5F5F5F5F5F5F5E2F5F5F5F5E2E2F5F5F5F5E2F5F5F5F5F5F5F5F5F5F5F5F5F5F5F5F5E2
310
0F0F0F0F0F0F0F0F0F0FF5F5F5F5F5F5F5F5F5F5F5F5F5F5F5F5F5F5F5F5F5F5F5F5F5F5F5F5F5F5F5F5F5F5F5F5F5F5F5F5F5F5F5F5F5F5F5F5F5F5F5F5F5F5F5F5F5F5F5F5F5F5F5F5F5F5F5F5F5F5F5F5F5F5F5F5F5F5F5F5F5F5F5F5F5F5F5F5F5F5F5F5F5F5F5F5F5F5F5F5F5F5F5F5F5F5F5F5F5F5F5F5F5F5F5F5F5
310
F5F5F5F5F5F5F5E2F5F5F5F5F5F5F5F5F5F5F5F5F5F5F5F5E2F5F5F5F5E2E2F5F5F5F5E2F5F5F5F5F5F5F5F5F5F5F5F5F5F5F5F5E2F5F5F5F5F5F5F5F5F5F5F5F5F5F5F5F5F5F5F5F5F5F5F5F5F5F5F5F5F5F5F5F5F5F5F5F5F5F5F5F5F5F5F5F5F5F5F5F5F5F5F5F5F5F5F5F5F5F5F5F5F5F5F5F5F5F5F5F5F5F5F5F5F5F5
310
F5F5F5F5F5F5F5F5F5F5F5F5F5F5F5F5F5F5F5F5F5F5F5F5F5F5F5F5F5F5F5F5F5F5F5F5F5F5F5F5F5F5F5F5F5F5F5F5F5F5F5F5F5F5F5F5F5F5F5F5E2F5F5F5F5F5F5F5F5F5F5F5F5F5F5F5F5E2F5F5F5F5E2E2F5F5F5F5F5F5F5F5F5F5F5F5F5F5F5F5F5F5F5F5F5E2F5F5F5F5F5F5F5F5F5F5F5F5F5F5F5F5F5F5F5F5F5
310
F5F5F5F5F5F5F5F5F5F5F5F5F5F5F5F5F5F5F5F5F5F5F5F5F5F5F5F5F5F5F5F5F5F5F5F5F5F5F5F5F5F5F5F5F5F5F5F5F5F5F5F5F5F5F5F5F5F5F5F5F5F5F5F5F5F5F5F5F5F5F5F5F5F5F5F5F5F5F5F5F5F5F5F5F5F5F5F5F5F5F5F5F5F5F5F5F5F5F5F5F5F5F5F5F5F5F5F5F5F5F5F5F5E2F5F5F5F5F5F5F5F5F5F5F5F5F5
310
F5F5F5F5F5F5F5F5E2E2F5F5F5F5F5F5F5F5F5F5F5F5F5F5F5F5F5F5F5F5F5E2F5F5F5F5F5F5F5F5F5F5F5F5F5F5F5F5F5F5F5F5F5F5F5F5F5F5F5F5F5F5F5F5F5F5F5F5F5F5F5F5F5F5F5F5F5F5F5F5F5F5F5F5F5F5F5F5F5F5F5F5F5F5F5F5F5F5F5F5F5F5F5F5F5F5F5F5F5F5F5F5F5F5F5F5F5F5F5F5F5F5F5F5F5F5F5
310
F5F5F5F5F5F5F5F5F5F5F5F5F5F5F5F5F5F5F5F5F5F5F5F5F5F5F5F5F5F5F5F5F5F5F5F5F5F5F5E2F5F5F5F5F5F5F5F5F5F5F5F5F5F5F5F5F5F5F5F5F5E2E2F5F5F5F5F5F5F5F5F5F5F5F5F5F5F5F5F5F5F5F5F5E2F5F5F5F5F5F5F5F5F5F5F5F5F5F5F5F5F5F5F5F5F5F5F5F5F5F5F5F5F5F5F5F5F5F5F5F5F5F5F5F5F5F5
310
F5F5F5F5F5F5F5F5F5F5F5F5F5F5F5F5F5F5F5F5F5F5F5F5F5F5F5F5F5F5F5F5F5F5F5F5F5F5F5F5F5F5F5F5F5F5F5F5F5F5F5F5F5F5F5F5F5F5F5F5F5F5F5F5F5F5F5F5F5F5F5F5F5F5F5F5F5F5F5F5F5F5F5F5F5F5F5F5F5F5F5F5E2F5F5F5F5F5F5F5F5F5F5F5F5F5F5F5F5F5F5F5F5F5E2E2F5F5F5F5F5F5F5F5F5F5F5
310
F5F5F5F5F5F5F5F5F5F5E2F5F5F5F5F5F5F5F5F5F5F5F5F5F5F5F5F5F5F5F5F5F5F5F5F5F5F5F5F5F5F5F5F5F5F5F5F5F5F5F5F5F5F5F5F5F5F5F5F5F5F5F5F5F5F5F5F5F5F5F5F5F5F5F5F5F5F5F5F5F5F5F5F5F5F5F5F5F5F5F5F5F5F5F5F5F5F5F5F5F5F5F5F5F5F5F5F5F5F5F5F5F5F5F5F5F5F5F5F5F5F5F5F5F5F5F5
310
F5F5F5F5F5F5F5F5F5F5F5F5F5F5F5F5F5F5E2F5F5F5F5F5F5F5F5F5F5F5F5F5F5F5F5F5F5F5F5F5E2E2F5F5F5F5F5F5F5F5F5F5F5F5F5F5F5F5F5F5F5F5F5E2F5F5F5F5F5F5F5F5F5F5F5F5F5F5F5F5F5F5F5F5F5F5F5F5F5F5F5F5F5F5F5F5F5F5F5F5F5F5F5F5F5F5F5F5F5F5F5F5F5F5F5F5F5F5F5F5F5F5F5F5F5F5F5
310
F5F5F5F5F5F5F5F5F5F5F5F5F5F5F5F5F5F5F5F5F5F5F5F5F5F5F5F5F5F5F5F5F5F5F5F5F5F5F5F5F5F5F5F5F5F5F5F5F5F5F5F5F5F5F5F5F5F5F5F5F5F5F5F5F5F5F5F5F5F5F5E2F5F5F5F5F5F5F5F5F5F5F5F5F5F5F5F5F5F5F5F5F5E2E2F5F5F5F5F5F5F5F5F5F5F5F5F5F5F5F5F5F5F5F5F5E2F5F5F5F5F5F5F5F5F5F5
310
F5F5F5F5F5F5F5F5F5F5F5F5F5F5F5F5F5F5F5F5F5F5F5F5F5F5F5F5F5F5F5F5F5F5F5F5F5F5F5F5F5F5F5F5F5F5F5F5F5F5F5F5F5F5F5F5F5F5F5F5F5F5F5F5F5F5F5F5F5F5F5F5F5F5F5F5F5F5F5F5F5F5F5F5F5F5F5F5F5F5F5F5F5F5F5F5F5F5F5F5F5F5F5F5F5F5F5F5F5F5F5F5F5F5F5F5F5F5F5F5F5F5F5F5E2F5F5
310
F5F5F5F5F5F5F5F5F5F5F5F5F5F5F5F5F5F5F5E2E2F5F5F5F5F5F5F5F5F5F5F5F5F5F5F5F5F5F5F5F5F5E2F5F5F5F5F5F5F5F5F5F5F5F5F5F5F5F5F5F5F5F5F5F5F5F5F5F5F5F5F5F5F5F5F5F5F5F5F5F5F5F5F5F5F5F5F5F5F5F5F5F5F5F5F5F5F5F5F5F5F5F5F5F5F5F5F5F5F5F5F5F5F5F5F5F5F5F5F5F5F5F5F5F5F5F5
310
F5F5F5F5F5F5F5F5F5F5F5F5F5F5F5F5F5F5F5F5F5F5F5F5F5F5F5F5F5F5F5F5F5F5F5F5F5F5F5F5F5F5F5F5F5F5F5F5F5F5E2F5F5F5F5F5F5F5F5F5F5F5F5F5F5F5F5F5F5F5F5F5E2E2F5F5F5F5F5F5F5F5F5F5F5F5F5F5F5F5F5F5F5F5F5E2F5F5F5F5F5F5F5F5F5F5F5F5F5F5F5F5F5F5F5F5F5F5F5F5F5F5F5F5F5F5F5
310
F5F5F5F5F5F5F5F5F5F5F5F5F5F5F5F5F5F5F5F5F5F5F5F5F5F5F5F5F5F5F5F5F5F5F5F5F5F5F5F5F5F5F5F5F5F5F5F5F5F5F5F5F5F5F5F5F5F5F5F5F5F5F5F5F5F5F5F5F5F5F5F5F5F5F5F5F5F5F5F5F5F5F5F5F5F5F5F5F5F5F5F5F5F5F5F5F5F5F5F5F5F5F5E2F5F5F5F5F5F5F5F5F5F5F5F5F5F5F5F5F5F5F5F5F5E2E2
310
F5F5F5F5F5F5F5F5F5F5F5F5F5F5F5F5F5F5F5F5F5E2F5F5F5F5F5F5F5F5F5F5F5F5F5F5F5F5F5F5F5F5F5F5F5F5F5F5F5F5F5F5F5F5F5F5F5F5F5F5F5F5F5F5F5F5F5F5F5F5F5F5F5F5F5F5F5F5F5F5F5F5F5F5F5F5F5F5F5F5F5F5F5F5F5F5F5F5F5F5F5F5F5F5F5F5F5F5F5F5F5F5F5F5F5F5F5F5F5F5F5F5F5F5F5F5F5
310
F5F5F5F5F5F5F5F5F5F5F5F5F5F5F5F5F5F5F5F5F5F5F5F5F5F5F5F5F5E2F5F5F5F5F5F5F5F5F5F5F5F5F5F5F5F5F5F5F5F5F5E2E2F5F5F5F5E2F5F5F5F5F5F5F5F5F5F5F5F5F5F5F5F5E2F5F5F5F5F5F5F5F5F5F5F5F5F5F5F5F5F5F5F5F5F5F5F5F5F5F5F5F5F5F5F5F5F5F5F5F5F5F5F5F5F5F5F5F5F5F5F5F5F5F5F5F5
310
F5F5F5F5F5F5F5F5F5F5F5F5F5F5F5F5F5F5F5F5F5F5F5F5F5F5F5F5F5F5F5F5F5F5F5F5F5F5F5F5F5F5F5F5F5F5F5F5F5E2F0E2E2F5F5F5F5F5F5E2F0E2E2F5DCF5F5F5F5F5F5F0F0E2F5F5F5F5F5F5F5F5E2F5F5F5F5F5F5F5F5F5F5F5F5F5F5F5F5E2F5F5F5F5E2E2F5F5F5F5E2F5F5F5F5F5F5F5F5F5F5F5F5F5F5F5F5
310
E2F5F5F5F5F5F5F5F5F5F5F5F5F5F5F5F5F5F5F5F5F5F5F5F5F5F5F5F5F5F5F5F5F5F5F5F5F5F5F5F5F5F5F5F5F5F5F5F5F5F5F5F5F5F5F5F5F5F5F5F5F5F5F5F5F5F5F5F5F5F5F5F5F5F5F5F5F5F5F5F5F5F5F5F5F5F5F5F5F5F5F5F5F5F5F5F5F5F5F5F5E2DCDCF0F5E2F5F5F5F5F5E2F5F0E2E2DCF5F5F5F5F5E2F0F0F5
310
E2F5F5F5E2E2E2F5E2F5F5F5F5F5F5F5F5F5F5F5F5F5F5F5F5E2F5F5F5F5E2E2F5F5F5F5E2F5F5F5F5F5F5F5F5F5F5F5F5F5F5F5F5E2F5F5F5F5F5F5F5F5F5F5F5F5F5F5F5F5F5F5F5F5F5F5F5F5F5F5F5F5F5F5F5F5F5F5F5F5F5F5F5F5F5F5F5F5F5F5F5F5F5F5F5F5F5F5F5F5F5F5F5F5F5F5F5F5F5F5F5F5F5F5F5F5F5
310
F5F5F5F5F5F5F5F5F5F5F5F5F5F5F5F5F5F5F5F5F5F5F5F5F5F5E2F0DCF0DCE2E2E2F5F5F5E2E2F0F0F0E2DCF5F5F5F5E2F0F0F0E2E2F0E2E2E2E2E2E2E2F5F5F5F5F5F5F5F5F5F5F5F5F5F5F5F5E2F5F5F5F5E2E2F5F5F5F5E2F5F5F5F5F5F5F5F5F5F5F5F5F5F5F5F5E2F5F5F5F5F5F5F5F5F5F5F5F5F5F5F5F5F5F5F5F5
310
F5F5F5F5F5F5F5F5F5F5F5F5F5F5F5F5F5F5F5F5F5F5F5F5F5F5F5F5F5F5F5F5F5F5F5F5F5F5F5F5F5F5F5F5F5F5F5F5F5F5F5F5F5F5F5F5F5F5F5F5F5F5F5F5F5F5F5F5F5F5F5F5F5F5F5F5F5F5F5E2F0DCF0DCF0F0E2F5F5F5E2F0DCE2E2E2DCF5F5F5F5F0F0F0F0E2E2F0E2F5E2E2E2E2E2F5F5F5F5F5F5F5F5F5F5F5F5
310
F5F5F5F5E2F5F5F5F5E2E2F5F5F5F5E2F5F5F5F5F5F5F5F5F5F5F5F5F5F5F5F5E2F5F5F5F5F5F5F5F5F5F5F5F5F5F5F5F5F5F5F5F5F5F5F5F5F5F5F5F5F5F5F5F5F5F5F5F5F5F5F5F5F5F5F5F5F5F5F5F5F5F5F5F5F5F5F5F5F5F5F5F5F5F5F5F5F5F5F5F5F5F5F5F5F5F5F5F5F5F5F5F5F5F5F5F5F5F5F5F5F5F5F5F5F5F5
310
F5F5F5F5F5F5E2DCDCDCF0E2F5F5F5F5F5F0DCDCE2E2DCF5F5F5F5F5F0F0F0DCE2F0F5E2E2E2E2F5E2F5F5F5F5F5F5F5F5F5F5F5F5F5F5F5F5E2F5F5F5F5E2E2F5F5F5F5E2F5F5F5F5F5F5F5F5F5F5F5F5F5F5F5F5E2F5F5F5F5F5F5F5F5F5F5F5F5F5F5F5F5F5F5F5F5F5F5F5F5F5F5F5F5F5F5F5F5F5F5F5F5F5F5F5F5F5
310
F5F5F5F5F5F5F5F5F5F5F5F5F5F5F5F5F5F5F5F5F5F5F5F5F5F5F5F5F5F5F5F5F5F5F5F5F5F5F5F5F5F5F5F5F5F5F5F5F5F5F5F5F5F5F5F5F5F5F5E2F0F0F0E2F5F5F5F5F5E2F0E2E2E2E2DCF5F5F5F5F5F0F0E2E2F5F5F5F5E2E2E2F5E2F5F5F5F5F5F5F5F5F5F5F5F5F5F5F5F5E2F5F5F5F5E2E2F5F5F5F5E2F5F5F5F5F5
310
F5F5F5F5F5F5F5F5F5F5F5E2F5F5F5F5F5F5F5F5F5F5F5F5F5F5F5F5F5F5F5F5F5F5F5F5F5F5F5F5F5F5F5F5F5F5F5F5F5F5F5F5F5F5F5F5F5F5F5F5F5F5F5F5F5F5F5F5F5F5F5F5F5F5F5F5F5F5F5F5F5F5F5F5F5F5F5F5F5F5F5F5F5F5F5F5F5F5F5F5F5F5F5F5F5F5F5F5F5F5F5F5F5F5E2E2F5F5F5F5F5F5F5F5E2E2F5
310
F5DCF5F5F5F5F5F5F5F0E2F5F5F5F5F5E2F5F5E2F5F5F5F5F5F5F5F5F5F5F5F5F5F5F5F5E2F5F5F5F5E2E2F5F5F5F5E2F5F5F5F5F5F5F5F5F5F5F5F5F5F5F5F5E2F5F5F5F5F5F5F5F5F5F5F5F5F5F5F5F5F5F5F5F5F5F5F5F5F5F5F5F5F5F5F5F5F5F5F5F5F5F5F5F5F5F5F5F5F5F5F5F5F5F5F5F5F5F5F5F5F5F5F5F5F5F5
310
F5F5F5F5F5F5F5F5F5F5F5F5F5F5F5F5F5F5F5F5F5F5F5F5F5F5F5F5F5F5F5F5F5F5F5F5F5F5F5F5F5F5F5F5F5F5F5F5F5F5F5F5F5F5DCF5F5F5F5F5F5F5F5F5F5F5F5F5F5F5F5F5E2F5F5F5F5F5F5F5F5F5F5F5F5F5F5F5F5E2F5F5F5F5E2E2F5F5F5F5E2F5F5F5F5F5F5F5F5F5F5F5F5F5F5F5F5E2F5F5F5F5F5F5F5F5F5
310
F5F5F5F5F5F5F5F5F5F5F5F5F5F5F5F5F5F5F5F5F5F5F5F5F5F5F5F5F5F5F5F5F5F5F5F5F5F5F5F5F5F5F5F5F5F5F5F5F5F5F5F5F5F5F5F5F5F5F5F5F5F5F5F5F5F5F5F5F5F5F5F5F5F5F5F5F5F5F5F5F5F5F5F5F5F5F5F5F5F5F5F5F5F5F5F5F5F5F5F5F5F5F5F5F5F5F5DCF5F5F5F5F5F5F5F5F5F5F5F5F5F5F5F5F5E2F5
310
F5F5F5F5F5F5F5F5F5F5F5F5F5F5F5E2F5F5F5F5E2E2F5F5F5F5E2F5F5F5F5F5F5F5F5F5F5F5F5F5F5F5F5E2F5F5F5F5F5F5F5F5F5F5F5F5F5F5F5F5F5F5F5F5F5F5F5F5F5F5F5F5F5F5F5F5F5F5F5F5F5F5F5F5F5F5F5F5F5F5F5F5F5F5F5F5F5F5F5F5F5F5F5F5F5F5F5F5F5F5F5F5F5F5F5F5F5F5F5F5F5F5F5F5F5F5F5
310
F5F5F5F5F5F5F5F5F5F5F5F5F5F5F5F5F5F5F5F5F5F5F5F5F5F5F5F5F5F5F5F5F5DCF5F5F5F5F5F5F5F5F5F5F5F5F5F5F5F5F5E2F5F5F5F5F5F5F5F5F5F5F5F5F5F5F5F5E2F5F5F5F5E2E2F5F5F5F5E2F5F5F5F5F5F5F5F5F5F5F5F5F5F5F5F5E2F5F5F5F5F5F5F5F5F5F5F5F5F5F5F5F5F5F5F5F5F5F5F5F5F5F5F5F5F5F5
310
F5F5F5F5F5F5F5F5F5F5F5F5F5F5F5F5F5F5F5F5F5F5F5F5F5F5F5F5F5F5F5F5F5F5F5F5F5F5F5F5F5F5F5F5F5F5F5F5F5F5F5F5F5F5F5F5F5F5F5F5F5F5F5F5F5F5F5F5F5F5F5F5F5F5F5F5F5F5F5F5F5F5F5F5F5F5DCF5F5F5F5F5F5F5F5F5F5F5F5F5F5F5F5F5E2F5F5F5F5F5F5F5F5F5F5F5F5F5F5F5F5E2F5F5F5F5E2
310
E2F5F5F5F5E2F5F5F5F5F5F5F5F5F5F5F5F5F5F5F5F5E2F5F5F5F5F5F5F5F5F5F5F5F5F5F5F5F5F5F5F5F5F5F5F5F5F5F5F5F5F5F5F5F5F5F5F5F5F5F5F5F5F5F5F5F5F5F5F5F5F5F5F5F5F5F5F5F5F5F5F5F5F5F5F5F5F5F5F5F5F5F5F5F5F5F5F5F5F5F5F5F5F5F5F5F5F5F5F5F5F5F5F5F5F5F5F5F5F5F5F5F5F5F5F5F5
310
F5F5F5F5F5F5F5F5F5F5F5F5DCF5F5F5F5F5F5F5F5F5F5F5F5F5F5F5F5F5E2F5F5F5F5F5F5F5F5F5F5F5F5F5F5F5F5E2F5F5F5F5E2E2F5F5F5F5E2F5F5F5F5F5F5F5F5F5F5F5F5F5F5F5F5E2F5F5F5F5F5F5F5F5F5F5F5F5F5F5F5F5F5F5F5F5F5F5F5F5F5F5F5F5F5F5F5F5F5F5F5F5F5F5F5F5F5F5F5F5F5F5F5F5F5F5F5
310
F5F5F5F5F5F5F5F5F5F5F5F5F5F5F5F5F5F5F5F5F5F5F5F5F5F5F5F5F5F5F5F5F5F5F5F5F5F5F5F5F5F5F5F5F5F5F5F5F5F5F5F5F5F5F5F5F5F5F5F5F5F5F5F5F5DCF5F5F5F5F5F5F5F5F5F5F5F5F5F5F5F5F5E2F5F5F5F5F5F5F5F5F5F5F5F5F5F5F5F5E2F5F5F5F5E2E2F5F5F5F5E2F5F5F5F5F5F5F5F5F5F5F5F5F5F5F5
310
F5E2F5F5F5F5F5F5F5F5F5F5F5F5F5F5F5F5F5F5F5F5F5F5F5F5F5F5F5F5F5F5F5F5F5F5F5F5F5F5F5F5F5F5F5F5F5F5F5F5F5F5F5F5F5F5F5F5F5F5F5F5F5F5F5F5F5F5F5F5F5F5F5F5F5F5F5F5F5F5F5F5F5F5F5F5F5F5F5F5F5F5F5F5F5F5F5F5F5F5F5F5F5F5F5F5F5F5F5F5F5F5F5F5F5F5F5F5DCF5F5F5F5F5F5F5F5
310
F5F5F5F5F5F5F5F5F5E2F5F5F5F5F5F5F5F5F5F5F5F5F5F5F5F5E2F5F5F5F5E2E2F5F5F5F5E2F5F5F5F5F5F5F5F5F5F5F5F5F5F5F5F5E2F5F5F5F5F5F5F5F5F5F5F5F5F5F5F5F5F5F5F5F5F5F5F5F5F5F5F5F5F5F5F5F5F5F5F5F5F5F5F5F5F5F5F5F5F5F5F5F5F5F5F5F5F5F5F5F5F5F5F5F5F5F5F5F5F5F5F5F5F5F5F5F5
310
F5F5F5F5F5F5F5F5F5F5F5F5F5F5F5F5F5F5F5F5F5F5F5F5F5F5F5F5F5F5F5F5F5F5F5F5F5F5F5F5F5F5E2E2DCE2F5F5F5F5F5F5F5F5F5F5F5F5F5F5F5F5E2F5F5F5F5F5F5F5F5F5F5F5F5F5F5F5F5E2F5F5F5F5E2E2F5F5F5F5E2F5F5F5F5F5F5F5F5F5F5F5F5F5F5F5F5E2F5F5F5F5F5F5F5F5F5F5F5F5F5F5F5F5F5F5F5
310
F5F5F5F5F5F5F5F5F5F5F5F5F5F5F5F5F5F5F5F5F5F5F5F5F5F5F5F5F5F5F5F5F5F5F5F5F5F5F5F5F5F5F5F5F5F5F5F5F5F5F5F5F5F5F5F5F5F5F5F5F5F5F5F5F5F5F5F5F5F5F5F5F5F5F5F5F5F5F5F5F5F5F5F5F5F5F5F5F5F5F5F5F5F5F5F5F5DCF5F5F5F5F5F5F5F5F5F5F5F5F5F5F5F5F5E2F5F5F5F5F5F5F5F5F5F5F5
310
F5F5F5F5F5E2F5F5F5F5E2E2F5F5F5F5E2F5F5F5F5F5F5F5F5F5F5F5F5F5F5F5F5E2F5F5F5F5F5F5F5F5F5F5F5F5F5F5F5F5F5F5F5F5F5F5F5F5F5F5F5F5F5F5F5F5F5F5F5F5F5F5F5F5F5F5F5F5F5F5F5F5F5F5F5F5F5F5F5F5F5F5F5F5F5F5F5F5F5F5F5F5F5F5F5F5F5F5F5F5F5F5F5F5F5F5F5F5F5F5F5F5F5F5F5F5F5
310
F5F5F5F5F5F5F5F5F5F5F5F5F5F5F5F5F5F5F5F5F5F5F5DCF5F5F5F5F5F5F5F5F5F5F5F5F5F5F5F5F5E2F5F5F5F5F5F5F5F5F5F5F5F5F5F5F5F5E2F5F5F5F5E2E2F5F5F5F5F5F5F5F5F5F5F5F5F5F5F5F5F5F5F5F5F5E2F5F5F5F5F5F5F5F5F5F5F5F5F5F5F5F5F5F5F5F5F5F5F5F5F5F5F5F5F5F5F5F5F5F5F5F5F5F5F5F5
310
F5F5F5F5F5F5F5F5F5F5F5F5F5F5F5F5F5F5F5F5F5F5F5F5F5F5F5F5F5F5F5F5F5F5F5F5F5F5F5F5F5F5F5F5F5F5F5F5F5F5F5F5F5F5F5F5F5F5F5F5F5F5F5F5F5F5F5F5F5F5F5F5F5F5F5F5DCF5F5F5F5F5F5F5F5F5F5F5F5F5F5F5F5F5E2F5F5F5F5F5F5F5F5F5F5F5F5F5F5F5F5F5F5F5F5F5E2E2F5F5F5F5F5F5F5F5F5
310
F5F5F5F5F5F5F5F5F5F5F5F5E2F5F5F5F5F5F5F5F5F5F5F5F5F5F5F5F5F5F5F5F5F5F5F5F5F5F5F5F5F5F5F5F5F5F5F5F5F5F5F5F5F5F5F5F5F5F5F5F5F5F5F5F5F5F5F5F5F5F5F5F5F5F5F5F5F5F5F5F5F5F5F5F5F5F5F5F5F5F5F5F5F5F5F5F5F5F5F5F5F5F5F5F5F5F5F5F5F5F5F5F5F5F5F5F5F5F5F5F5F5F5F5F5F5F5
310
F5F5F5F5F5F5F5F5F5F5F5F5F5F5F5F5F5F5F5F5E2F5F5F5F5F5F5F5F5F5F5F5F5F5F5F5F5F5F5F5F5F5E2E2F5F5F5F5F5F5F5F5F5F5F5F5F5F5F5F5F5F5F5F5F5E2F5F5F5F5F5F5F5F5F5F5F5F5F5F5F5F5F5F5F5F5F5F5F5F5F5F5F5F5F5F5F5F5F5F5F5F5F5F5F5F5F5F5F5F5F5F5F5F5F5F5F5F5F5F5F5F5F5F5F5F5F5
310
F5F5F5F5F5F5F5F5F5F5F5F5F5F5F5F5F5F5F5F5F5F5F5F5F5F5F5F5F5F5F5F5F5F5F5F5F5F5F5F5F5F5F5F5F5F5F5F5F5F5F5F5F5F5F5F5F5F5F5F5F5F5F5F5F5F5F5F5F5F5F5F5F5E2F5F5F5F5F5F5F5F5F5F5F5F5F5F5F5F5F5F5F5F5F5E2E2F5F5F5F5F5F5F5F5F5F5F5F5F5F5F5F5F5F5F5F5F5E2F5F5F5F5F5F5F5F5
310
F5F5F5F5F5F5F5F5F5F5F5F5F5F5F5F5F5F5F5F5F5F5F5F5F5F5F5F5F5F5F5F5F5F5F5F5F5F5F5F5F5F5F5F5F5F5F5F5F5F5F5F5F5F5F5F5F5F5F5F5F5F5F5F5F5F5F5F5F5F5F5F5F5F5F5F5F5F5F5F5F5F5F5F5F5F5F5F5F5F5F5F5F5F5F5F5F5F5F5F5F5F5F5F5F5F5F5F5F5F5F5F5F5F5F5F5F5F5F5F5F5F5F5F5F5F5E2
310
F5F5F5F5F5F5F5F5F5F5F5F5F5F5F5F5F5F5F5F5F5E2E2F5F5F5F5F5F5F5F5F5F5F5F5F5F5F5F5F5F5F5F5F5E2F5F5F5F5F5F5F5F5F5F5F5F5F5F5F5F5F5F5F5F5F5F5F5F5F5F5F5F5F5F5F5F5F5F5F5F5F5F5F5F5F5F5F5F5F5F5F5F5F5F5F5F5F5F5F5F5F5F5F5F5F5F5F5F5F5F5F5F5F5F5F5F5F5F5F5F5F5F5F5F5F5F5
310
F5F5F5F5F5F5F5F5F5F5F5F5F5F5F5F5F5F5F5F5F5F5F5F5F5F5F5F5F5F5F5F5F5F5F5F5F5F5F5F5F5F5F5F5F5F5F5F5F5F5F5F5E2F5F5F5F5F5F5F5F5F5F5F5F5F5F5F5F5F5F5F5F5F5E2E2F5F5F5F5F5F5F5F5F5F5F5F5F5F5F5F5F5F5F5F5F5E2F5F5F5F5F5F5F5F5F5F5F5F5F5F5F5F5F5F5F5F5F5F5F5F5F5F5F5F5F5
310
F5F5F5F5F5F5F5F5F5F5F5F5F5F5F5F5F5F5F5F5F5F5F5F5F5F5F5F5F5F5F5F5F5F5F5F5F5F5F5F5F5F5F5F5F5F5F5F5F5F5F5F5F5F5F5F5F5F5F5F5F5F5F5F5F5F5F5F5F5F5F5F5F5F5F5F5F5F5F5F5F5F5F5F5F5F5F5F5F5F5F5F5F5F5F5F5F5F5F5F5F5F5F5F5F5E2F5F5F5F5F5F5F5F5F5F5F5F5F5F5F5F5F5F5F5F5F5
310
E2E2F5F5F5F5F5F5F5F5F5F5F5F5F5F5F5F5F5F5F5F5F5E2F5F5F5F5F5F5F5F5F5F5F5F5F5F5F5F5F5F5F5F5F5F5F5F5F5F5F5F5F5F5F5F5F5F5F5F5F5F5F5F5F5F5F5F5F5F5F5F5F5F5F5F5F5F5F5F5F5F5F5F5F5F5F5F5F5F5F5F5F5F5F5F5F5F5F5F5F5F5F5F5F5F5F5F5F5F5F5F5F5F5F5F5F5F5F5F5F5F5F5F5F5F5F5
310
F5F5F5F5F5F5F5F5F5F5F5F5F5F5F5F5F5F5F5F5F5F5F5F5F5F5F5F5F5F5F5E2F5F5F5F5F5F5F5F5F5F5F5F5F5F5F5F5F5F5F5F5F5E2E2F5F5F5F5F5F5F5F5F5F5F5F5F5F5F5F5F5F5F5F5F5E2F5F5F5F5F5F5F5F5F5F5F5F5F5F5F5F5F5F5F5F5F5F5F5F5F5F5F5F5F5F5F5F5F5F5F5F5F5F5F5F5F5F5F5F5F5F5F5F5F5F5
310
F5F5F5F5F5F5F5F5F5F5F5F5F5F5F5F5F5F5F5F5F5F5F5F5F5F5F5F5F5F5F5F5F5F5F5F5F5F5F5F5F5F5F5F5F5F5F5F5F5F5F5F5F5F5F5F5F5F5F5F5F5F5F5F5F5F5F5F5F5F5F5F5F5F5F5F5F5F5F5F5F5F5F5F5E2F5F5F5F5F5F5F5F5F5F5F5F5F5F5F5F5F5F5F5F5F5E2E2F5F5F5F5F5F5F5F5F5F5F5F5F5F5F5F5F5F5F5
310
F5F5E2F5F5F5F5F5F5F5F5F5F5F5F5F5F5F5F5F5F5F5F5F5F5F5F5F5F5F5F5F5F5F5F5F5F5F5F5F5F5F5F5F5F5F5F5F5F5F5F5F5F5F5F5F5F5F5F5F5F5F5F5F5F5F5F5F5F5F5F5F5F5F5F5F5F5F5F5F5F5F5F5F5F5F5F5F5F5F5F5F5F5F5F5F5F5F5F5F5F5F5F5F5F5F5F5F5F5F5F5F5F5F5F5F5F5F5F5F5F5F5F5F5F5F5F5
310
F5F5F5F5F5F5F5F5F5F5E2F5F5F5F5F5F5F5F5F5F5F5F5F5F5F5F5F5F5F5F5F5E2E2F5F5F5F5E2F5F5F5F5F5F5F5F5F5F5F5F5F5F5F5F5E2F5F5F5F5F5F5F5F5F5F5F5F5F5F5F5F5F5F5F5F5F5F5F5F5F5F5F5F5F5F5F5F5F5F5F5F5F5F5F5F5F5F5F5F5F5F5F5F5F5F5F5F5F5F5F5F5F5F5F5F5F5F5F5F5F5F5F5F5F5F5F5
310
F5F5F5F5F5F5F5F5F5F5F5F5F5F5F5F5F5F5F5F5F5F5F5F5F5F5F5F5F5F5F5F5F5F5F5F5F5F5F5F5F5F5F5F5F5F5F5F5F5F5F5F5F5F5F5F5F5F5F5F5F5F5F5E2F5F5F5F5F5F5F5F5F5F5F5F5F5F5F5F5E2F5F5F5F5E2E2F5F5F5F5E2F5F5F5F5F5F5F5F5F5F5F5F5F5F5F5F5E2F5F5F5F5F5F5F5F5F5F5F5F5F5F5F5F5F5F5
310
F5F5F5F5F5F5F5F5F5F5F5F5F5F5F5F5F5F5F5F5F5F5F5F5F5F5F5F5F5F5F5F5F5F5F5F5F5F5F5F5F5F5F5F5F5F5F5F5F5F5F5F5F5F5F5F5F5F5F5F5F5F5F5F5F5F5F5F5F5F5F5F5F5F5F5F5F5F5F5F5F5F5F5F5F5F5F5F5F5F5F5F5F5F5F5F5F5F5F5F5F5F5F5F5F5F5F5F5F5F5F5F5F5F5F5F5E2F5F5F5F5F5F5F5F5F5F5
310
F5F5F5F5F5F5E2F5F5F5F5E2E2F5F5F5F5E2F5F5F5F5F5F5F5F5F5F5F5F5F5F5F5F5E2F5F5F5F5F5F5F5F5F5F5F5F5F5F5F5F5F5F5F5F5F5F5F5F5F5F5F5F5F5F5F5F5F5F5F5F5F5F5F5F5F5F5F5F5F5F5F5F5F5F5F5F5F5F5F5F5F5F5F5F5F5F5F5F5F5F5F5F5F5F5F5F5F5F5F5F5F5F5F5F5F5F5F5F5F5F5F5F5F5F5F5F5
310
F5F5F5F5F5F5F5F5F5F5F5F5F5F5F5F5F5F5F5F5F5F5F5F5F5F5F5F5F5F5F5F5F5F5F5F5F5F5F5F5F5F5E2F5F5F5F5F5F5F5F5F5F5F5F5F5F5F5F5E2F5F5F5F5E2E2F5F5F5F5E2F5F5F5F5F5F5F5F5F5F5F5F5F5F5F5F5E2F5F5F5F5F5F5F5F5F5F5F5F5F5F5F5F5F5F5F5F5F5F5F5F5F5F5F5F5F5F5F5F5F5F5F5F5F5F5F5
310
F5F5F5F5F5F5F5F5F5F5F5F5F5F5F5F5F5F5F5F5F5F5F5F5F5F5F5F5F5F5F5F5F5F5F5F5F5F5F5F5F5F5F5F5F5F5F5F5F5F5F5F5F5F5F5F5F5F5F5F5F5F5F5F5F5F5F5F5F5F5F5F5F5F5F5F5F5F5F5F5F5F5F5F5F5F5F5F5F5F5F5F5F5F5F5E2F5F5F5F5F5F5F5F5F5F5F5F5F5F5F5F5E2F5F5F5F5E2E2F5F5F5F5E2F5F5F5
310
F5F5F5F5F5F5F5F5F5F5F5F5F5E2F5F5F5F5F5F5F5F5F5F5F5F5F5F5F5F5F5F5F5F5F5F5F5F5F5F5F5F5F5F5F5F5F5F5F5F5F5F5F5F5F5F5F5F5F5F5F5F5F5F5F5F5F5F5F5F5F5F5F5F5F5F5F5F5F5F5F5F5F5F5F5F5F5F5F5F5F5F5F5F5F5F5F5F5F5F5F5F5F5F5F5F5F5F5F5F5F5F5F5F5F5F5F5F5F5F5F5F5F5F5F5F5F5
310
F5F5F5F5F5F5F5F5F5F5F5F5F5F5F5F5F5F5F5F5F5E2F5F5F5F5F5F5F5F5F5F5F5F5F5F5F5F5E2F5F5F5F5E2E2F5F5F5F5E2F5F5F5F5F5F5F5F5F5F5F5F5F5F5F5F5E2F5F5F5F5F5F5F5F5F5F5F5F5F5F5F5F5F5F5F5F5F5F5F5F5F5F5F5F5F5F5F5F5F5F5F5F5F5F5F5F5F5F5F5F5F5F5F5F5F5F5F5F5F5F5F5F5F5F5F5F5
310
F5F5F5F5F5F5F5F5F5F5F5F5F5F5F5F5F5F5F5F5F5F5F5F5F5F5F5F5F5F5F5F5F5F5F5F5F5F5F5F5F5F5F5F5F5F5F5F5F5F5F5F5F5F5F5F5F5F5F5F5F5F5F5F5F5F5F5F5F5F5F5F5F5F5E2F5F5F5F5F5F5F5F5F5F5F5F5F5F5F5F5E2F5F5F5F5E2E2F5F5F5F5E2F5F5F5F5F5F5F5F5F5F5F5F5F5F5F5F5E2F5F5F5F5F5F5F5
310
F5F5F5F5F5F5F5F5F5F5F5F5F5F5F5F5F5F5F5F5F5F5F5F5F5F5F5F5F5F5F5F5F5F5F5F5F5F5F5F5F5F5F5F5F5F5F5F5F5F5F5F5F5F5F5F5F5F5F5F5F5F5F5F5F5F5F5F5F5F5F5F5F5F5F5F5F5F5F5F5F5F5F5F5F5F5F5F5F5F5F5F5F5F5F5F5F5F5F5F5F5F5F5F5F5F5F5F5F5F5F5F5F5F5F5F5F5F5F5F5F5F5F5F5F5F5F5
310
E2F5F5F5F5F5F5F5F5F5F5F5F5F5F5F5F5E2F5F5F5F5E2E2F5F5F5F5E2F5F5F5F5F5F5F5F5F5F5F5F5F5F5F5F5E2F5F5F5F5F5F5F5F5F5F5F5F5F5F5F5F5F5F5F5F5F5F5F5F5F5F5F5F5F5F5F5F5F5F5F5F5F5F5F5F5F5F5F5F5F5F5F5F5F5F5F5F5F5F5F5F5F5F5F5F5F5F5F5F5F5F5F5F5F5F5F5F5F5F5F5F5F5F5F5F5F5
310
F5F5F5F5F5F5F5F5F5F5F5F5F5F5F5F5F5F5F5F5F5F5F5F5F5F5F5F5F5F5F5F5F5F5F5F5F5F5F5F5F5F5F5F5F5F5F5F5F5F5F5F5F5E2F5F5F5F5F5F5F5F5F5F5F5F5F5F5F5F5E2F5F5F5F5E2E2F5F5F5F5E2F5F5F5F5F5F5F5F5F5F5F5F5F5F5F5F5E2F5F5F5F5F5F5F5F5F5F5F5F5F5F5F5F5F5F5F5F5F5F5F5F5F5F5F5F5
310
F5F5F5F5F5F5F5F5F5F5F5F5F5F5F5F5F5F5F5F5F5F5F5F5F5F5F5F5F5F5F5F5F5F5F5F5F5F5F5F5F5F5F5F5F5F5F5F5F5F5F5F5F5F5F5F5F5F5F5F5F5F5F5F5F5F5F5F5F5F5F5F5F5F5F5F5F5F5F5F5F5F5F5F5F5F5F5F5F5F5F5F5F5F5F5F5F5F5F5F5F5F5F5F5F5F5E2F5F5F5F5F5F5F5F5F5F5F5F5F5F5F5F5E2F5F5F5
310
F5E2E2F5F5F5F5E2F5F5F5F5F5F5F5F5F5F5F5F5F5F5F5F5E2F5F5F5F5F5F5F5F5F5F5F5F5F5F5F5F5F5F5F5F5F5F5F5F5F5F5F5F5F5F5F5F5F5F5F5F5F5F5F5F5F5F5F5F5F5F5F5F5F5F5F5F5F5F5F5F5F5F5F5F5F5F5F5F5F5F5F5F5F5F5F5F5F5F5F5F5F5F5F5F5F5F5F5F5F5F5F5F5F5F5F5F5F5F5F5F5F5F5F5F5F5F5
310
F5F5F5F5F5F5F5F5F5F5F5F5F5F5F5F5F5F5F5F5F5F5F5F5F5F5F5F5F5F5F5F5E2F5F5F5F5F5F5F5F5F5F5F5F5F5F5F5F5E2F5F5F5F5E2E2F5F5F5F5E2F5F5F5F5F5F5F5F5F5F5F5F5F5F5F5F5E2F5F5F5F5F5F5F5F5F5F5F5F5F5F5F5F5F5F5F5F5F5F5F5F5F5F5F5F5F5F5F5F5F5F5F5F5F5F5F5F5F5F5F5F5F5F5F5F5F5
310
F5F5F5F5F5F5F5F5F5F5F5F5F5F5F5F5F5F5F5F5F5F5F5F5F5F5F5F5F5F5F5F5F5F5F5F5F5F5F5F5F5F5F5F5F5F5F5F5F5F5F5F5F5F5F5F5F5F5F5F5F5F5F5F5F5F5F5F5F5F5F5F5F5F5F5F5F5F5F5F5F5F5F5F5F5E2F5F5F5F5F5F5F5F5F5F5F5F5F5F5F5F5E2F5F5F5F5E2E2F5F5F5F5E2F5F5F5F5F5F5F5F5F5F5F5F5F5
310
F5F5F5E2F5F5F5F5F5F5F5F5F5F5F5F5F5F5F5F5F5F5F5F5F5F5F5F5F5F5F5F5F5F5F5F5F5F5F5F5F5F5F5F5F5F5F5F5F5F5F5F5F5F5F5F5F5F5F5F5F5F5F5F5F5F5F5F5F5F5F5F5F5F5F5F5F5F5F5F5F5F5F5F5F5F5F5F5F5F5F5F5F5F5F5F5F5F5F5F5F5F5F5F5F5F5F5F5F5F5F5F5F5F5F5F5F5F5F5F5F5F5F5F5F5F5F5
310
F5F5F5F5F5F5F5F5F5F5F5E2F5F5F5F5F5F5F5F5F5F5F5F5F5F5F5F5E2F5F5F5F5E2E2F5F5F5F5E2F5F5F5F5F5F5F5F5F5F5F5F5F5F5F5F5E2F5F5F5F5F5F5F5F5F5F5F5F5F5F5F5F5F5F5F5F5F5F5F5F5F5F5F5F5F5F5F5F5F5F5F5F5F5F5F5F5F5F5F5F5F5F5F5F5F5F5F5F5F5F5F5F5F5F5F5F5F5F5F5F5F5F5F5F5F5F5
310
F5F5F5F5F5F5F5F5F5F5F5F5F5F5F5F5F5F5F5F5F5F5F5F5F5F5F5F5F5F5F5F5F5F5F5F5F5F5F5F5F5F5F5F5F5F5F5F5F5F5F5F5F5F5F5F5F5F5F5F5F5F5F5F5E2F5F5F5F5F5F5F5F5F5F5F5F5F5F5F5F5E2F5F5F5F5E2E2F5F5F5F5E2F5F5F5F5F5F5F5F5F5F5F5F5F5F5F5F5E2F5F5F5F5F5F5F5F5F5F5F5F5F5F5F5F5F5
310
F5F5F5F5F5F5F5F5F5F5F5F5F5F5F5F5F5F5F5F5F5F5F5F5F5F5F5F5F5F5F5F5F5F5F5F5F5F5F5F5F5F5F5F5F5F5F5F5F5F5F5F5F5F5F5F5F5F5F5F5F5F5F5F5F5F5F5F5F5F5F5F5F5F5F5F5F5F5F5F5F5F5F5F5F5F5F5F5F5F5F5F5F5F5F5F5F5F5F5F5F5F5F5F5F5F5F5F5F5F5F5F5F5F5F5F5F5E2F5F5F5F5F5F5F5F5F5
310
F5F5F5F5F5F5F5E2F5F5F5F5E2E2F5F5F5F5E2F5F5F5F5F5F5F5F5F5F5F5F5F5F5F5F5E2F5F5F5F5F5F5F5F5F5F5F5F5F5F5F5F5F5F5F5F5F5F5F5F5F5F5F5F5F5F5F5F5F5F5F5F5F5F5F5F5F5F5F5F5F5F5F5F5F5F5F5F5F5F5F5F5F5F5F5F5F5F5F5F5F5F5F5F5F5F5F5F5F5F5F5F5F5F5F5F5F5F5F5F5F5F5F5F5F5F5F5
310
F5F5F5F5F5F5F5F5F5F5F5F5F5F5F5F5F5F5F5F5F5F5F5F5F5F5F5F5F5F5F5F5F5F5F5F5F5F5F5F5F5F5F5E2F5F5F5F5F5F5F5F5F5F5F5F5F5F5F5F5E2F5F5F5F5E2E2F5F5F5F5E2F5F5F5F5F5F5F5F5F5F5F5F5F5F5F5F5E2F5F5F5F5F5F5F5F5F5F5F5F5F5F5F5F5F5F5F5F5F5F5F5F5F5F5F5F5F5F5F5F5F5F5F5F5F5F5
310
F5F5F5F5F5F5F5F5F5F5F5F5F5F5F5F5F5F5F5F5F5F5F5F5F5F5F5F5F5F5F5F5F5F5F5F5F5F5F5F5F5F5F5F5F5F5F5F5F5F5F5F5F5F5F5F5F5F5F5F5F5F5F5F5F5F5F5F5F5F5F5F5F5F5F5F5F5F5F5F5F5F5F5F5F5F5F5F5F5F5F5F5F5F5F5F5E2F5F5F5F5F5F5F5F5F5F5F5F5F5F5F5F5E2F5F5F5F5E2E2F5F5F5F5E2F5F5
310
F5F5F5F5F5F5F5F5F5F5F5F5F5F5E2F5F5F5F5F5F5F5F5F5F5F5F5F5F5F5F5F5F5F5F5F5F5F5F5F5F5F5F5F5F5F5F5F5F5F5F5F5F5F5F5F5F5F5F5F5F5F5F5F5F5F5F5F5F5F5F5F5F5F5F5F5F5F5F5F5F5F5F5F5F5F5F5F5F5F5F5F5F5F5F5F5F5F5F5F5F5F5F5F5F5F5F5F5F5F5F5F5F5F5F5F5F5F5F5F5F5F5F5F5F5F5F5
310
F5F5F5F5F5F5F5F5F5F5F5F5F5F5F5F5F5F5F5F5F5F5E2F5F5F5F5F5F5F5F5F5F5F5F5F5F5F5F5E2F5F5F5F5E2E2F5F5F5F5F5F5F5F5F5F5F5F5F5F5F5F5F5F5F5F5F5E2F5F5F5F5F5F5F5F5F5F5F5F5F5F5F5F5F5F5F5F5F5F5F5F5F5F5F5F5F5F5F5F5F5F5F5F5F5F5F5F5F5F5F5F5F5F5F5F5F5F5F5F5F5F5F5F5F5F5F5
310
F5F5F5F5F5F5F5F5F5F5F5F5F5F5F5F5F5F5F5F5F5F5F5F5F5F5F5F5F5F5F5F5F5F5F5F5F5F5F5F5F5F5F5F5F5F5F5F5F5F5F5F5F5F5F5F5F5F5F5F5F5F5F5F5F5F5F5F5F5F5F5F5F5F5F5E2F5F5F5F5F5F5F5F5F5F5F5F5F5F5F5F5F5F5F5F5F5E2E2F5F5F5F5F5F5F5F5F5F5F5F5F5F5F5F5F5F5F5F5F5E2F5F5F5F5F5F5
310
F5F5F5F5F5F5F5F5F5F5F5F5F5F5F5F5F5F5F5F5F5F5F5F5F5F5F5F5F5F5F5F5F5F5F5F5F5F5F5F5F5F5F5F5F5F5F5F5F5F5F5F5F5F5F5F5F5F5F5F5F5F5F5F5F5F5F5F5F5F5F5F5F5F5F5F5F5F5F5F5F5F5F5F5F5F5F5F5F5F5F5F5F5F5F5F5F5F5F5F5F5F5F5F5F5F5F5F5F5F5F5F5F5F5F5F5F5F5F5F5F5F5F5F5F5F5F5
310
F5E2F5F5F5F5F5F5F5F5F5F5F5F5F5F5F5F5F5F5F5F5F5E2E2F5F5F5F5F5F5F5F5F5F5F5F5F5F5F5F5F5F5F5F5F5E2F5F5F5F5F5F5F5F5F5F5F5F5F5F5F5F5F5F5F5F5F5F5F5F5F5F5F5F5F5F5F5F5F5F5F5F5F5F5F5F5F5F5F5F5F5F5F5F5F5F5F5F5F5F5F5F5F5F5F5F5F5F5F5F5F5F5F5F5F5F5F5F5F5F5F5F5F5F5F5F5
310
F5F5F5F5F5F5F5F5F5F5F5F5F5F5F5F5F5F5F5F5F5F5F5F5F5F5F5F5F5F5F5F5F5F5F5F5F5F5F5F5F5F5F5F5F5F5F5F5F5F5F5F5F5F5E2F5F5F5F5F5F5F5F5F5F5F5F5F5F5F5F5F5F5F5F5F5E2E2F5F5F5F5F5F5F5F5F5F5F5F5F5F5F5F5F5F5F5F5F5E2F5F5F5F5F5F5F5F5F5F5F5F5F5F5F5F5F5F5F5F5F5F5F5F5F5F5F5
310
F5F5F5F5F5F5F5F5F5F5F5F5F5F5F5F5F5F5F5F5F5F5F5F5F5F5F5F5F5F5F5F5F5F5F5F5F5F5F5F5F5F5F5F5F5F5F5F5F5F5F5F5F5F5F5F5F5F5F5F5F5F5F5F5F5F5F5F5F5F5F5F5F5F5F5F5F5F5F5F5F5F5F5F5F5F5F5F5F5F5F5F5F5F5F5F5F5F5F5F5F5F5F5F5F5F5F5E2F5F5F5F5F5F5F5F5F5F5F5F5F5F5F5F5F5F5F5
310
F5F5E2E2F5F5F5F5F5F5F5F5F5F5F5F5F5F5F5F5F5F5F5F5F5E2F5F5F5F5F5F5F5F5F5F5F5F5F5F5F5F5F5F5F5F5F5F5F5F5F5F5F5F5F5F5F5F5F5F5F5F5F5F5F5F5F5F5F5F5F5F5F5F5F5F5F5F5F5F5F5F5F5F5F5F5F5F5F5F5F5F5F5F5F5F5F5F5F5F5F5F5F5F5F5F5F5F5F5F5F5F5F5F5F5F5F5F5F5F5F5F5F5F5F5F5F5
310
F5F5F5F5F5F5F5F5F5F5F5F5F5F5F5F5F5F5F5F5F5F5F5F5F5F5F5F5F5F5F5F5F5E2F5F5F5F5F5F5F5F5F5F5F5F5F5F5F5F5F5F5F5F5F5E2E2F5F5F5F5F5F5F5F5F5F5F5F5F5F5F5F5F5F5F5F5F5E2F5F5F5F5F5F5F5F5F5F5F5F5F5F5F5F5F5F5F5F5F5F5F5F5F5F5F5F5F5F5F5F5F5F5F5F5F5F5F5F5F5F5F5F5F5F5F5F5
310
F5F5F5F5F5F5F5F5F5F5F5F5F5F5F5F5F5F5F5F5F5F5F5F5F5F5F5F5F5F5F5F5F5F5F5F5F5F5F5F5F5F5F5F5F5F5F5F5F5F5F5F5F5F5F5F5F5F5F5F5F5F5F5F5F5F5F5F5F5F5F5F5F5F5F5F5F5F5F5F5F5F5F5F5F5F5E2F5F5F5F5F5F5F5F5F5F5F5F5F5F5F5F5F5F5F5F5F5E2E2F5F5F5F5F5F5F5F5F5F5F5F5F5F5F5F5F5
310
F5F5F5F5E2F5F5F5F5F5F5F5F5F5F5F5F5F5F5F5F5F5F5F5F5F5F5F5F5F5F5F5F5F5F5F5F5F5F5F5F5F5F5F5F5F5F5F5F5F5F5F5F5F5F5F5F5F5F5F5F5F5F5F5F5F5F5F5F5F5F5F5F5F5F5F5F5F5F5F5F5F5F5F5F5F5F5F5F5F5F5F5F5F5F5F5F5F5F5F5F5F5F5F5F5F5F5F5F5F5F5F5F5F5F5F5F5F5F5F5F5F5F5F5F5F5F5
310
F5F5F5F5F5F5F5F5F5F5F5F5E2F5F5F5F5F5F5F5F5F5F5F5F5F5F5F5F5F5F5F5F5F5E2E2F5F5F5F5F5F5F5F5F5F5F5F5F5F5F5F5F5F5F5F5F5E2F5F5F5F5F5F5F5F5F5F5F5F5F5F5F5F5F5F5F5F5F5F5F5F5F5F5F5F5F5F5F5F5F5F5F5F5F5F5F5F5F5F5F5F5F5F5F5F5F5F5F5F5F5F5F5F5F5F5F5F5F5F5F5F5F5F5F5F5F5
310
F5F5F5F5F5F5F5F5F5F5F5F5F5F5F5F5F5F5F5F5F5F5F5F5F5F5F5F5F5F5F5F5F5F5F5F5F5F5F5F5F5F5F5F5F5F5F5F5F5F5F5F5F5F5F5F5F5F5F5F5F5F5F5F5F5E2F5F5F5F5F5F5F5F5F5F5F5F5F5F5F5F5F5F5F5F5F5E2E2F5F5F5F5F5F5F5F5F5F5F5F5F5F5F5F5F5F5F5F5F5E2F5F5F5F5F5F5F5F5F5F5F5F5F5F5F5F5
310
F5F5F5F5F5F5F5F5F5F5F5F5F5F5F5F5F5F5F5F5F5F5F5F5F5F5F5F5F5F5F5F5F5F5F5F5F5F5F5F5F5F5F5F5F5F5F5F5F5F5F5F5F5F5F5F5F5F5F5F5F5F5F5F5F5F5F5F5F5F5F5F5F5F5F5F5F5F5F5F5F5F5F5F5F5F5F5F5F5F5F5F5F5F5F5F5F5F5F5F5F5F5F5F5F5F5F5F5F5F5F5F5F5F5F5F5F5F5E2F5F5F5F5F5F5F5F5
310
F5F5F5F5F5F5F5F5F5F5F5F5F5E2E2F5F5F5F5E2F5F5F5F5F5F5F5F5F5F5F5F5F5F5F5F5E2F5F5F5F5F5F5F5F5F5F5F5F5F5F5F5F5F5F5F5F5F5F5F5F5F5F5F5F5F5F5F5F5F5F5F5F5F5F5F5F5F5F5F5F5F5F5F5F5F5F5F5F5F5F5F5F5F5F5F5F5F5F5F5F5F5F5F5F5F5F5F5F5F5F5F5F5F5F5F5F5F5F5F5F5F5F5F5F5F5F5
310
F5F5F5F5F5F5F5F5F5F5F5F5F5F5F5F5F5F5F5F5F5F5F5F5F5F5F5F5F5F5F5F5F5F5F5F5F5F5F5F5F5F5F5F5E2F5F5F5F5F5F5F5F5F5F5F5F5F5F5F5F5E2F5F5F5F5E2E2F5F5F5F5E2F5F5F5F5F5F5F5F5F5F5F5F5F5F5F5F5E2F5F5F5F5F5F5F5F5F5F5F5F5F5F5F5F5F5F5F5F5F5F5F5F5F5F5F5F5F5F5F5F5F5F5F5F5F5
310
F5F5F5F5F5F5F5F5F5F5F5F5F5F5F5F5F5F5F5F5F5F5F5F5F5F5F5F5F5F5F5F5F5F5F5F5F5F5F5F5F5F5F5F5F5F5F5F5F5F5F5F5F5F5F5F5F5F5F5F5F5F5F5F5F5F5F5F5F5F5F5F5F5F5F5F5F5F5F5F5F5F5F5F5F5F5F5F5F5F5F5F5F5F5F5F5F5E2F5F5F5F5F5F5F5F5F5F5F5F5F5F5F5F5E2F5F5F5F5E2E2F5F5F5F5E2F5
310
F5F5F5F5F5F5F5F5F5F5F5F5F5F5F5E2F5F5F5F5F5F5F5F5F5F5F5F5F5F5F5F5F5F5F5F5F5F5F5F5F5F5F5F5F5F5F5F5F5F5F5F5F5F5F5F5F5F5F5F5F5F5F5F5F5F5F5F5F5F5F5F5F5F5F5F5F5F5F5F5F5F5F5F5F5F5F5F5F5F5F5F5F5F5F5F5F5F5F5F5F5F5F5F5F5F5F5F5F5F5F5F5F5F5F5F5F5F5F5F5F5F5F5F5F5F5F5
310
F5F5F5F5F5F5F5F5F5F5F5F5F5F5F5F5F5F5F5F5F5F5F5E2F5F5F5F5F5F5F5F5F5F5F5F5F5F5F5F5E2F5F5F5F5E2E2F5F5F5F5E2F5F5F5F5F5F5F5F5F5F5F5F5F5F5F5F5E2F5F5F5F5F5F5F5F5F5F5F5F5F5F5F5F5F5F5F5F5F5F5F5F5F5F5F5F5F5F5F5F5F5F5F5F5F5F5F5F5F5F5F5F5F5F5F5F5F5F5F5F5F5F5F5F5F5F5
310
F5F5F5F5F5F5F5F5F5F5F5F5F5F5F5F5F5F5F5F5F5F5F5F5F5F5F5F5F5F5F5F5F5F5F5F5F5F5F5F5F5F5F5F5F5F5F5F5F5F5F5F5F5F5F5F5F5F5F5F5F5F5F5F5F5F5F5F5F5F5F5F5F5F5F5F5E2F5F5F5F5F5F5F5F5F5F5F5F5F5F5F5F5E2F5F5F5F5E2E2F5F5F5F5E2F5F5F5F5F5F5F5F5F5F5F5F5F5F5F5F5E2F5F5F5F5F5
310
F5F5F5F5F5F5F5F5F5F5F5F5F5F5F5F5F5F5F5F5F5F5F5F5F5F5F5F5F5F5F5F5F5F5F5F5F5F5F5F5F5F5F5F5F5F5F5F5F5F5F5F5F5F5F5F5F5F5F5F5F5F5F5F5F5F5F5F5F5F5F5F5F5F5F5F5F5F5F5F5F5F5F5F5F5F5F5F5F5F5F5F5F5F5F5F5F5F5F5F5F5F5F5F5F5F5F5F5F5F5F5F5F5F5F5F5F5F5F5F5F5F5F5F5F5F5F5
310
F5F5E2F5F5F5F5F5F5F5F5F5F5F5F5F5F5F5F5E2F5F5F5F5E2E2F5F5F5F5E2F5F5F5F5F5F5F5F5F5F5F5F5F5F5F5F5E2F5F5F5F5F5F5F5F5F5F5F5F5F5F5F5F5F5F5F5F5F5F5F5F5F5F5F5F5F5F5F5F5F5F5F5F5F5F5F5F5F5F5F5F5F5F5F5F5F5F5F5F5F5F5F5F5F5F5F5F5F5F5F5F5F5F5F5F5F5F5F5F5F5F5F5F5F5F5F5
310
F5F5F5F5F5F5F5F5F5F5F5F5F5F5F5F5F5F5F5F5F5F5F5F5F5F5F5F5F5F5F5F5F5F5F5F5F5F5F5F5F5F5F5F5F5F5F5F5F5F5F5F5F5F5F5E2F5F5F5F5F5F5F5F5F5F5F5F5F5F5F5F5E2F5F5F5F5E2E2F5F5F5F5E2F5F5F5F5F5F5F5F5F5F5F5F5F5F5F5F5E2F5F5F5F5F5F5F5F5F5F5F5F5F5F5F5F5F5F5F5F5F5F5F5F5F5F5
310
F5F5F5F5F5F5F5F5F5F5F5F5F5F5F5F5F5F5F5F5F5F5F5F5F5F5F5F5F5F5F5F5F5F5F5F5F5F5F5F5F5F5F5F5F5F5F5F5F5F5F5F5F5F5F5F5F5F5F5F5F5F5F5F5F5F5F5F5F5F5F5F5F5F5F5F5F5F5F5F5F5F5F5F5F5F5F5F5F5F5F5F5F5F5F5F5F5F5F5F5F5F5F5F5F5F5F5F5E2F5F5F5F5F5F5F5F5F5F5F5F5F5F5F5F5E2F5
310
F5F5F5E2E2F5F5F5F5E2F5F5F5F5F5F5F5F5F5F5F5F5F5F5F5F5E2F5F5F5F5F5F5F5F5F5F5F5F5F5F5F5F5F5F5F5F5F5F5F5F5F5F5F5F5F5F5F5F5F5F5F5F5F5F5F5F5F5F5F5F5F5F5F5F5F5F5F5F5F5F5F5F5F5F5F5F5F5F5F5F5F5F5F5F5F5F5F5F5F5F5F5F5F5F5F5F5F5F5F5F5F5F5F5F5F5F5F5F5F5F5F5F5F5F5F5F5
310
F5F5F5F5F5F5F5F5F5F5F5F5F5F5F5F5F5F5F5F5F5F5F5F5F5F5F5F5F5F5F5F5F5F5E2F5F5F5F5F5F5F5F5F5F5F5F5F5F5F5F5E2F5F5F5F5E2E2F5F5F5F5E2F5F5F5F5F5F5F5F5F5F5F5F5F5F5F5F5E2F5F5F5F5F5F5F5F5F5F5F5F5F5F5F5F5F5F5F5F5F5F5F5F5F5F5F5F5F5F5F5F5F5F5F5F5F5F5F5F5F5F5F5F5F5F5F5
310
F5F5F5F5F5F5F5F5F5F5F5F5F5F5F5F5F5F5F5F5F5F5F5F5F5F5F5F5F5F5F5F5F5F5F5F5F5F5F5F5F5F5F5F5F5F5F5F5F5F5F5F5F5F5F5F5F5F5F5F5F5F5F5F5F5F5F5F5F5F5F5F5F5F5F5F5F5F5F5F5F5F5F5F5F5F5F5E2F5F5F5F5F5F5F5F5F5F5F5F5F5F5F5F5E2F5F5F5F5E2E2F5F5F5F5E2F5F5F5F5F5F5F5F5F5F5F5
310
F5F5F5F5F5E2F5F5F5F5F5F5F5F5F5F5F5F5F5F5F5F5F5F5F5F5F5F5F5F5F5F5F5F5F5F5F5F5F5F5F5F5F5F5F5F5F5F5F5F5F5F5F5F5F5F5F5F5F5F5F5F5F5F5F5F5F5F5F5F5F5F5F5F5F5F5F5F5F5F5F5F5F5F5F5F5F5F5F5F5F5F5F5F5F5F5F5F5F5F5F5F5F5F5F5F5F5F5F5F5F5F5F5F5F5F5F5F5F5F5F5F5F5F5F5F5F5
310
F5F5F5F5F5F5F5F5F5F5F5F5F5E2F5F5F5F5F5F5F5F5F5F5F5F5F5F5F5F5E2F5F5F5F5E2E2F5F5F5F5E2F5F5F5F5F5F5F5F5F5F5F5F5F5F5F5F5E2F5F5F5F5F5F5F5F5F5F5F5F5F5F5F5F5F5F5F5F5F5F5F5F5F5F5F5F5F5F5F5F5F5F5F5F5F5F5F5F5F5F5F5F5F5F5F5F5F5F5F5F5F5F5F5F5F5F5F5F5F5F5F5F5F5F5F5F5
310
F5F5F5F5F5F5F5F5F5F5F5F5F5F5F5F5F5F5F5F5F5F5F5F5F5F5F5F5F5F5F5F5F5F5F5F5F5F5F5F5F5F5F5F5F5F5F5F5F5F5F5F5F5F5F5F5F5F5F5F5F5F5F5F5F5F5E2F5F5F5F5F5F5F5F5F5F5F5F5F5F5F5F5E2F5F5F5F5E2E2F5F5F5F5E2F5F5F5F5F5F5F5F5F5F5F5F5F5F5F5F5E2F5F5F5F5F5F5F5F5F5F5F5F5F5F5F5
310
F5F5F5F5F5F5F5F5F5F5F5F5F5F5F5F5F5F5F5F5F5F5F5F5F5F5F5F5F5F5F5F5F5F5F5F5F5F5F5F5F5F5F5F5F5F5F5F5F5F5F5F5F5F5F5F5F5F5F5F5F5F5F5F5F5F5F5F5F5F5F5F5F5F5F5F5F5F5F5F5F5F5F5F5F5F5F5F5F5F5F5F5F5F5F5F5F5F5F5F5F5F5F5F5F5F5F5F5F5F5F5F5F5F5F5F5F5F5F5E2F5F5F5F5F5F5F5
310
F5F5F5F5F5F5F5F5F5E2F5F5F5F5E2E2F5F5F5F5E2F5F5F5F5F5F5F5F5F5F5F5F5F5F5F5F5E2F5F5F5F5F5F5F5F5F5F5F5F5F5F5F5F5F5F5F5F5F5F5F5F5F5F5F5F5F5F5F5F5F5F5F5F5F5F5F5F5F5F5F5F5F5F5F5F5F5F5F5F5F5F5F5F5F5F5F5F5F5F5F5F5F5F5F5F5F5F5F5F5F5F5F5F5F5F5F5F5F5F5F5F5F5F5F5F5F5
310
F5F5F5F5F5F5F5F5F5F5F5F5F5F5F5F5F5F5F5F5F5F5F5F5F5F5F5F5F5F5F5F5F5F5F5F5F5F5F5F5F5F5F5F5F5E2F5F5F5F5F5F5F5F5F5F5F5F5F5F5F5F5E2F5F5F5F5E2E2F5F5F5F5E2F5F5F5F5F5F5F5F5F5F5F5F5F5F5F5F5E2F5F5F5F5F5F5F5F5F5F5F5F5F5F5F5F5F5F5F5F5F5F5F5F5F5F5F5F5F5F5F5F5F5F5F5F5
310
F5F5F5F5F5F5F5F5F5F5F5F5F5F5F5F5F5F5F5F5F5F5F5F5F5F5F5F5F5F5F5F5F5F5F5F5F5F5F5F5F5F5F5F5F5F5F5F5F5F5F5F5F5F5F5F5F5F5F5F5F5F5F5F5F5F5F5F5F5F5F5F5F5F5F5F5F5F5F5F5F5F5F5F5F5F5F5F5F5F5F5F5F5F5F5F5F5F5E2F5F5F5F5F5F5F5F5F5F5F5F5F5F5F5F5E2F5F5F5F5E2E2F5F5F5F5E2
310
F5F5F5F5F5F5F5F5F5F5F5F5F5F5F5F5E2F5F5F5F5F5F5F5F5F5F5F5F5F5F5F5F5F5F5F5F5F5F5F5F5F5F5F5F5F5F5F5F5F5F5F5F5F5F5F5F5F5F5F5F5F5F5F5F5F5F5F5F5F5F5F5F5F5F5F5F5F5F5F5F5F5F5F5F5F5F5F5F5F5F5F5F5F5F5F5F5F5F5F5F5F5F5F5F5F5F5F5F5F5F5F5F5F5F5F5F5F5F5F5F5F5F5F5F5F5F5
310
F5F5F5F5F5F5F5F5F5F5F5F5F5F5F5F5F5F5F5F5F5F5F5F5E2F5F5F5F5F5F5F5F5F5F5F5F5F5F5F5F5E2F5F5F5F5E2E2F5F5F5F5E2F5F5F5F5F5F5F5F5F5F5F5F5F5F5F5F5E2F5F5F5F5F5F5F5F5F5F5F5F5F5F5F5F5F5F5F5F5F5F5F5F5F5F5F5F5F5F5F5F5F5F5F5F5F5F5F5F5F5F5F5F5F5F5F5F5F5F5F5F5F5F5F5F5F5
310
F5F5F5F5F5F5F5F5F5F5F5F5F5F5F5F5F5F5F5F5F5F5F5F5F5F5F5F5F5F5F5F5F5F5F5F5F5F5F5F5F5F5F5F5F5F5F5F5F5F5F5F5F5F5F5F5F5F5F5F5F5F5F5F5F5F5F5F5F5F5F5F5F5F5F5F5F5E2F5F5F5F5F5F5F5F5F5F5F5F5F5F5F5F5E2F5F5F5F5E2E2F5F5F5F5E2F5F5F5F5F5F5F5F5F5F5F5F5F5F5F5F5E2F5F5F5F5
310
F5F5F5F5F5F5F5F5F5F5F5F5F5F5F5F5F5F5F5F5F5F5F5F5F5F5F5F5F5F5F5F5F5F5F5F5F5F5F5F5F5F5F5F5F5F5F5F5F5F5F5F5F5F5F5F5F5F5F5F5F5F5F5F5F5F5F5F5F5F5F5F5F5F5F5F5F5F5F5F5F5F5F5F5F5F5F5F5F5F5F5F5F5F5F5F5F5F5F5F5F5F5F5F5F5F5F5F5F5F5F5F5F5F5F5F5F5F5F5F5F5F5F5F5F5F5F5
310
F5F5F5E2F5F5F5F5F5F5F5F5F5F5F5F5F5F5F5F5E2F5F5F5F5E2E2F5F5F5F5F5F5F5F5F5F5F5F5F5F5F5F5F5F5F5F5F5E2F5F5F5F5F5F5F5F5F5F5F5F5F5F5F5F5F5F5F5F5F5F5F5F5F5F5F5F5F5F5F5F5F5F5F5F5F5F5F5F5F5F5F5F5F5F5F5F5F5F5F5F5F5F5F5F5F5F5F5F5F5F5F5F5F5F5F5F5F5F5F5F5F5F5F5F5F5F5
310
F5F5F5F5F5F5F5F5F5F5F5F5F5F5F5F5F5F5F5F5F5F5F5F5F5F5F5F5F5F5F5F5F5F5F5F5F5F5F5F5F5F5F5F5F5F5F5F5F5F5F5F5F5F5F5F5E2F5F5F5F5F5F5F5F5F5F5F5F5F5F5F5F5F5F5F5F5F5E2E2F5F5F5F5F5F5F5F5F5F5F5F5F5F5F5F5F5F5F5F5F5E2F5F5F5F5F5F5F5F5F5F5F5F5F5F5F5F5F5F5F5F5F5F5F5F5F5
310
F5F5F5F5F5F5F5F5F5F5F5F5F5F5F5F5F5F5F5F5F5F5F5F5F5F5F5F5F5F5F5F5F5F5F5F5F5F5F5F5F5F5F5F5F5F5F5F5F5F5F5F5F5F5F5F5F5F5F5F5F5F5F5F5F5F5F5F5F5F5F5F5F5F5F5F5F5F5F5F5F5F5F5F5F5F5F5F5F5F5F5F5F5F5F5F5F5F5F5F5F5F5F5F5F5F5F5F5F5E2F5F5F5F5F5F5F5F5F5F5F5F5F5F5F5F5F5
310
F5F5F5F5E2E2F5F5F5F5F5F5F5F5F5F5F5F5F5F5F5F5F5F5F5F5F5E2F5F5F5F5F5F5F5F5F5F5F5F5F5F5F5F5F5F5F5F5F5F5F5F5F5F5F5F5F5F5F5F5F5F5F5F5F5F5F5F5F5F5F5F5F5F5F5F5F5F5F5F5F5F5F5F5F5F5F5F5F5F5F5F5F5F5F5F5F5F5F5F5F5F5F5F5F5F5F5F5F5F5F5F5F5F5F5F5F5F5F5F5F5F5F5F5F5F5F5
310
F5F5F5F5F5F5F5F5F5F5F5F5F5F5F5F5F5F5F5F5F5F5F5F5F5F5F5F5F5F5F5F5F5F5F5E2F5F5F5F5F5F5F5F5F5F5F5F5F5F5F5F5F5F5F5F5F5E2E2F5F5F5F5F5F5F5F5F5F5F5F5F5F5F5F5F5F5F5F5F5E2F5F5F5F5F5F5F5F5F5F5F5F5F5F5F5F5F5F5F5F5F5F5F5F5F5F5F5F5F5F5F5F5F5F5F5F5F5F5F5F5F5F5F5F5F5F5
310
F5F5F5F5F5F5F5F5F5F5F5F5F5F5F5F5F5F5F5F5F5F5F5F5F5F5F5F5F5F5F5F5F5F5F5F5F5F5F5F5F5F5F5F5F5F5F5F5F5F5F5F5F5F5F5F5F5F5F5F5F5F5F5F5F5F5F5F5F5F5F5F5F5F5F5F5F5F5F5F5F5F5F5F5F5F5F5F5E2F5F5F5F5F5F5F5F5F5F5F5F5F5F5F5F5F5F5F5F5F5E2E2F5F5F5F5F5F5F5F5F5F5F5F5F5F5F5
310
F5F5F5F5F5F5E2E2E2E2E2E2E2E2E2E2E2E2E2E2E2E2E2E2E2E2E2E2E2E2E2E2E2E2E2E2E2E2E2E2E2E2E2E2E2E2E2E2E2E2E2E2E2E2E2E2E2E2E2E2E2E2E2E2E2E2E2E2E2E2E2E2E2E2E2E2E2E2E2E2E2E2E2E2E2E2E2E2E2E2E2E2E2E2E2E2E2E2E2E2E2E2E2E2E2E2E2E2E2E2E2E2E2E2E2E2E2E2E2E2E2E2E2E2E2E2E2
310
E2E2E2E2E2E2E2E2E2E2E2E2E2E2E2F5F5F5F5F5F5F5F5F5F5F5F5F5F5F5F5F5F5F5F5F5E2E2F5F5F5F5F5F5F5F5F5F5F5F5F5F5F5F5F5F5F5F5F5F5F5F5F5F5F5F5F5F5F5F5F5F5F5F5F5F5F5F5F5F5F5F5F5F5F5F5F5F5F5F5F5F5F5F5F5F5F5F5F5F5F5F5F5F5F5F5F5F5F5F5F5F5F5F5F5F5F5F5F5F5F5F5F5F5F5F5F5
310
F5F5F5F5F5F5F5F5F5F5F5F5F5F5F5F5F5F5F5F5F5F5F5F5F5F5F5F5F5F5F5F5F5F5F5F5F5F5F5F5F5F5F5F5F5F5F5F5F5F5F5F5F5F5F5F5F5F5F5F5F5F5F5F5F5F5F5F5F5F5F5F5F5F5F5F5F5F5F5F5F5F5F5F5F5F5F5F5F5E2E2F5F5F5F5F5F5F5F5F5F5F5F5F5F5F5F5F5F5F5F5F5F5F5F5F5F5F5F5F5F5F5F5F5F5F5F5
310
F5F5F5F5F5F5F5F5F5F5F5F5F5F5F5F5F5F5F5F5F5F5F5F5F5F5F5F5F5F5F5F5F5F5F5F5F5F5F5F5F5F5F5F5F5F5F5F5F5F5F5F5F5F5F5F5F5F5F5F5F5F5F5F5F5F5F5F5F5F5F5F5F5F5F5F5F5F5F5F5F5F5F5F5F5F5F5F5F5F5F5F5F5F5F5F5F5F5F5F5F5F5F5F5F5F5F5F5F5F5F5F5F5F5F5F5F5F5F5F5F5F5F5F5F5F5F5
310
F5F5F5F5F5F5F5F5F5F5F5F5F5F5F5E2E2F5F5F5F5F5F5F5F5F5F5F5F5F5F5F5F5F5F5F5F5F5F5F5F5F5F5F5F5F5F5F5F5F5F5F5F5F5F5F5F5F5F5F5F5F5F5F5F5F5F5F5F5F5F5F5F5F5F5F5F5F5F5F5F5F5F5F5F5F5F5F5F5F5F5F5F5F5F5F5F5F5F5F5F5F5F5F5F5F5F5F5F5F5F5F5F5F5F5F5F5F5F5F5F5F5F5F5F5F5F5
310
F5F5F5F5F5F5F5F5F5F5F5F5F5F5F5F5F5F5F5F5F5F5F5F5F5F5F5F5F5F5F5F5F5F5F5F5F5F5F5F5F5F5F5F5F5F5F5F5F5F5F5F5F5F5F5F5F5F5F5F5F5F5F5F5F5F5F5F5E2E2F5F5F5F5F5F5F5F5F5F5F5F5F5F5F5F5F5F5F5F5F5F5F5F5F5F5F5F5F5F5F5F5F5F5F5F5F5F5F5F5F5F5F5F5F5F5F5F5F5F5F5F5F5F5F5F5F5
310
F5F5F5F5F5F5F5F5F5F5F5F5F5F5F5F5F5F5F5F5F5F5F5F5F5F5F5F5F5F5F5F5F5F5F5F5F5F5F5F5F5F5F5F5F5F5F5F5F5F5F5F5F5F5F5F5F5F5F5F5F5F5F5F5F5F5F5F5F5F5F5F5F5F5F5F5F5F5F5F5F5F5F5F5F5F5F5F5F5F5F5F5F5F5F5F5F5F5F5F5F5F5F5F5F5F5F5F5F5F5F5F5F5F5F5F5F5F5F5F5F5E2E2F5F5F5F5
310
E2F5F5F5F5F5F5F5F5F5F5F5F5F5F5F5F5F5F5F5F5F5F5F5F5F5F5F5F5F5F5F5F5F5F5F5F5F5F5F5F5F5F5F5F5F5F5F5F5F5F5F5F5F5F5F5F5F5F5F5F5F5F5F5F5F5F5F5F5F5F5F5F5F5F5F5F5F5F5F5F5F5F5F5F5F5F5F5F5F5F5F5F5F5F5F5F5F5F5F5F5F5F5F5F5F5F5F5F5F5F5F5F5F5F5F5F5F5F5F5F5F5F5F5F5F5F5
310
F5F5F5F5F5F5F5F5F5F5F5F5F5F5F5F5F5F5F5F5F5F5F5F5F5F5F5F5F5F5F5F5F5F5F5F5F5F5F5F5F5F5E2F5F5F5F5E2E2F5F5F5F5E2F5F5F5F5F5F5F5F5F5F5F5F5F5F5F5F5F5F5F5F5F5F5F5F5F5F5F5F5F5F5F5F5F5F5F5F5F5F5F5F5F5F5F5F5F5F5F5F5F5F5F5F5F5F5F5F5F5F5F5F5F5F5F5F5F5F5F5F5F5F5F5F5F5
310
F5F5F5F5F5F5F5F5F5F5F5F5F5F5F5F5F5F5F5F5F5F5F5F5F5F5F5F5F5F5F5F5F5F5F5F5F5F5F5F5F5F5F5F5F5F5F5F5F5F5F5F5F5F5F5F5F5F5F5F5F5F5F5F5F5F5F5F5F5F5F5F5F5F5F5F5F5F5F5F5F5F5F5F5F5F5F5F5F5F5F5F5F5F5F5E2F5F5F5F5E2E2F5F5F5F5E2F5F5F5F5F5F5F5F5F5F5F5F5F5F5F5F5F5F5F5F5
310
F5F5F5F5F5F5F5F5F5F5F5F5F5F5F5F5F5F5F5F5F5F5F5F5F5F5F5F5F5F5F5F5F5F5F5F5F5F5F5F5F5F5F5F5F5F5F5F5F5F5F5F5F5F5F5F5F5F5F5F5F5F5F5F5F5F5F5F5F5F5F5F5F5F5F5F5F5F5F5F5F5F5F5F5F5F5F5F5F5F5F5F5F5F5F5F5F5F5F5F5F5F5F5F5F5F5F5F5F5F5F5F5F5F5F5F5F5F5F5F5F5F5F5F5F5F5F5
310
F5F5F5F5F5F5F5F5F5F5F5F5F5F5F5F5F5F5F5F5F5E2F5F5F5F5E2E2F5F5F5F5E2F5F5F5F5F5F5F5F5F5F5F5F5F5F5F5F5F5F5F5F5F5F5F5F5F5F5F5F5F5F5F5F5F5F5F5F5F5F5F5F5F5F5F5F5F5F5F5F5F5F5F5F5F5F5F5F5F5F5F5F5F5F5F5F5F5F5F5F5F5F5F5F5F5F5F5F5F5F5F5F5F5F5F5F5F5F5F5F5F5F5F5F5F5F5
310
F5F5F5F5F5F5F5F5F5F5F5F5F5F5F5F5F5F5F5F5F5F5F5F5F5F5F5F5F5F5F5F5F5F5F5F5F5F5F5F5F5F5F5F5F5F5F5F5F5F5F5F5F5F5F5F5F5F5F5F5F5F5F5F5F5F5F5F5F5F5F5F5F5F5E2F5F5F5F5E2E2F5F5F5F5E2F5F5F5F5F5F5F5F5F5F5F5F5F5F5F5F5F5F5F5F5F5F5F5F5F5F5F5F5F5F5F5F5F5F5F5F5F5F5F5F5F5
310
F5F5F5F5F5F5F5F5F5F5F5F5F5F5F5F5F5F5F5F5F5F5F5F5F5F5F5F5F5F5F5F5F5F5F5F5F5F5F5F5F5F5F5F5F5F5F5F5F5F5F5F5F5F5F5F5F5F5F5F5F5F5F5F5F5F5F5F5F5F5F5F5F5F5F5F5F5F5F5F5F5F5F5F5F5F5F5F5F5F5F5F5F5F5F5F5F5F5F5F5F5F5F5F5F5F5F5F5F5F5F5F5F5F5F5F5F5F5F5F5F5F5F5F5F5F5F5
310
E2F5F5F5F5E2E2F5F5F5F5E2F5F5F5F5F5F5F5F5F5F5F5F5F5F5F5F5F5F5F5F5F5F5F5F5F5F5F5F5F5F5F5F5F5F5F5F5F5F5F5F5F5F5F5F5F5F5F5F5F5F5F5F5F5F5F5F5F5F5F5F5F5F5F5F5F5F5F5F5F5F5F5F5F5F5F5F5F5F5F5F5F5F5F5F5F5F5F5F5F5F5F5F5F5F5F5F5F5F5F5F5F5F5F5F5F5F5F5F5F5F5F5F5F5F5F5
310
F5F5F5F5F5F5F5F5F5F5F5F5F5F5F5F5F5F5F5F5F5F5F5F5F5F5F5F5F5F5F5F5F5F5F5F5F5F5F5F5F5F5F5F5F5F5F5F5F5F5F5F5F5E2F5F5F5F5E2E2F5F5F5F5E2F5F5F5F5F5F5F5F5F5F5F5F5F5F5F5F5F5F5F5F5F5F5F5F5F5F5F5F5F5F5F5F5F5F5F5F5F5F5F5F5F5F5F5F5F5F5F5F5F5F5F5F5F5F5F5F5F5F5F5F5F5F5
310
F5F5F5F5F5F5F5F5F5F5F5F5F5F5F5F5F5F5F5F5F5F5F5F5F5F5F5F5F5F5F5F5F5F5F5F5F5F5F5F5F5F5F5F5F5F5F5F5F5F5F5F5F5F5F5F5F5F5F5F5F5F5F5F5F5F5F5F5F5F5F5F5F5F5F5F5F5F5F5F5F5F5F5F5F5F5F5F5F5F5F5F5F5F5F5F5F5F5F5F5F5F5F5F5F5F5E2F5F5F5F5E2E2F5F5F5F5E2F5F5F5F5F5F5F5F5F5
310
F5F5F5F5F5F5F5F5F5F5F5F5F5F5F5F5F5F5F5F5F5F5F5F5F5F5F5F5F5F5F5F5F5F5F5F5F5F5F5F5F5F5F5F5F5F5F5F5F5F5F5F5F5F5F5F5F5F5F5F5F5F5F5F5F5F5F5F5F5F5F5F5F5F5F5F5F5F5F5F5F5F5F5F5F5F5F5F5F5F5F5F5F5F5F5F5F5F5F5F5F5F5F5F5F5F5F5F5F5F5F5F5F5F5F5F5F5F5F5F5F5F5F5F5F5F5F5
310
F5F5F5F5F5F5F5F5F5F5F5F5F5F5F5F5F5F5F5F5F5F5F5F5F5F5F5F5F5F5F5F5E2F5F5F5F5E2E2F5F5F5F5E2E2E2E2E2E2E2E2F5F5F5F5F5F5F5F5F5E2E2E2E2E2E2E2E2E2E2E2E2E2E2E2F5F5F5F5F5F5F5F5F5E2E2E2E2E2E2E2E2E2E2E2E2E2E2E2E2F5F5F5F5F5F5F5F5E2E2E2E2E2E2E2E2E2E2E2E2E2E2E2E2F5F5F5
310
F5F5F5F5F5E2E2E2E2E2E2E2E2E2E2E2E2E2E2E2E2F5F5F5F5F5F5F5F5E2E2E2E2E2E2E2E2E2E2E2E2E2E2E2E2F5F5F5F5F5F5F5F5F5E2E2E2E2E2E2E2E2E2E2E2E2E2E2E2F5F5F5F5F5F5F5F5F5E2E2E2E2E2E2E2E2F5F5F5F5E2E2F5F5F5F5F5F5F5F5F5F5F5F5F5F5F5F5F5F5F5F5F5F5F5F5F5F5F5F5F5F5F5F5F5F5F5
310
F5F5F5F5F5F5F5F5F5F5F5F5F5F5F5F5F5F5F5F5F5F5F5F5F5F5F5F5F5F5F5F5F5F5F5F5F5F5F5F5F5F5F5F5F5F5F5F5F5F5F5F5F5F5F5F5F5F5F5F5F5F5F5F5F5F5F5F5F5F5F5F5F5F5F5F5F5F5F5F5F5F5F5F5F5F5F5F5F5F5F5F5F5F5F5F5F5F5F5F5F5F5F5F5F5F5F5F5F5F5F5F5F5F5F5F5F5F5F5F5F5F5F5F5F5F5F5
310
F5F5F5F5F5F5F5F5F5F5F5F5F5F5F5F5E2E2F5F5F5F5F5F5F5F5F5F5F5F5F5F5F5F5F5F5F5F5F5F5F5F5F5F5F5F5F5F5F5F5F5F5F5F5F5F5F5F5F5F5F5F5F5F5F5F5F5F5F5F5F5F5F5F5F5F5F5F5F5F5F5F5F5F5F5F5F5F5F5F5F5F5F5F5F5F5F5F5F5F5F5F5F5F5F5F5F5F5F5F5F5F5F5F5F5F5F5F5F5F5F5F5F5F5F5F5F5
310
F5F5F5F5F5F5F5F5F5F5F5F5F5F5F5F5F5F5F5F5F5F5F5F5F5F5F5F5F5F5F5F5F5F5F5F5F5F5F5F5F5F5F5F5F5F5F5F5F5F5F5F5F5F5F5F5F5F5F5F5F5F5F5F5F5F5F5F5F5E2E2F5F5F5F5F5F5F5F5F5F5F5F5F5F5F5F5F5F5F5F5F5F5F5F5F5F5F5F5F5F5F5F5F5F5F5F5F5F5F5F5F5F5F5F5F5F5F5F5F5F5F5F5F5F5F5F5
310
F5F5F5F5F5F5F5F5F5F5F5F5F5F5F5F5F5F5F5F5F5F5F5F5F5F5F5F5F5F5F5F5F5F5F5F5F5F5F5F5F5F5F5F5F5F5F5F5F5F5F5F5F5F5F5F5F5F5F5F5F5F5F5F5F5F5F5F5F5F5F5F5F5F5F5F5F5F5F5F5F5F5F5F5F5F5F5F5F5F5F5F5F5F5F5F5F5F5F5F5F5F5F5F5F5F5F5F5F5F5F5F5F5F5F5F5F5F5F5F5F5F5E2E2E2E2E2
310
E2E2E2E2E2E2E2E2E2E2E2E2E2E2E2E2E2E2E2E2E2E2E2E2E2E2E2E2E2E2E2E2E2E2E2E2E2E2E2E2E2E2E2E2E2E2E2E2E2E2E2E2E2E2E2E2E2E2E2E2E2E2E2E2E2E2E2E2E2E2E2E2E2E2E2E2E2E2E2E2E2E2E2E2E2E2E2E2E2E2E2E2E2E2E2E2E2E2E2E2E2E2E2E2E2E2E2E2E2E2E2E2E2E2E2E2E2E2E2E2E2E2E2E2E2E2E2
310
E2E2E2E2E2E2E2E2E2E2E2E2E2E2E2E2E2E2E2E2E2E2E2E2E2E2E2E2E2E2E2E2E2E2E2E2E2E2E2E2E2E2E2E2E2E2E2E2E2
  0
XRECORD
  5
56932
102
{ACAD_REACTORS
330
B5
102
}
330
B5
100
AcDbXrecord
280
     1
102
SHADEPLOT
 70
     0
102
SHADEPLOTRESLEVEL
 70
     2
102
SHADEPLOTCUSTOMDPI
 70
   300
  0
XRECORD
  5
B6
102
{ACAD_REACTORS
330
B5
102
}
330
B5
100
AcDbXrecord
280
     1
310
28000000B40000008B0000000100080000000000BC610000000000000000000000010000000000000000000000000000FFFFFF000000000000000000000000000000000000000000000000000000000000000000330000006600000099000000CC000000FF00000000330000333300006633000099330000CC330000FF3300
310
0000660000336600006666000099660000CC660000FF66000000990000339900006699000099990000CC990000FF99000000CC000033CC000066CC000099CC0000CCCC0000FFCC000000FF000033FF000066FF000099FF0000CCFF0000FFFF000000003300330033006600330099003300CC003300FF003300003333003333
310
33006633330099333300CC333300FF33330000663300336633006666330099663300CC663300FF66330000993300339933006699330099993300CC993300FF99330000CC330033CC330066CC330099CC3300CCCC3300FFCC330000FF330033FF330066FF330099FF3300CCFF3300FFFF330000006600330066006600660099
310
006600CC006600FF00660000336600333366006633660099336600CC336600FF33660000666600336666006666660099666600CC666600FF66660000996600339966006699660099996600CC996600FF99660000CC660033CC660066CC660099CC6600CCCC6600FFCC660000FF660033FF660066FF660099FF6600CCFF6600
310
FFFF660000009900330099006600990099009900CC009900FF00990000339900333399006633990099339900CC339900FF33990000669900336699006666990099669900CC669900FF66990000999900339999006699990099999900CC999900FF99990000CC990033CC990066CC990099CC9900CCCC9900FFCC990000FF99
310
0033FF990066FF990099FF9900CCFF9900FFFF99000000CC003300CC006600CC009900CC00CC00CC00FF00CC000033CC003333CC006633CC009933CC00CC33CC00FF33CC000066CC003366CC006666CC009966CC00CC66CC00FF66CC000099CC003399CC006699CC009999CC00CC99CC00FF99CC0000CCCC0033CCCC0066CC
310
CC0099CCCC00CCCCCC00FFCCCC0000FFCC0033FFCC0066FFCC0099FFCC00CCFFCC00FFFFCC000000FF003300FF006600FF009900FF00CC00FF00FF00FF000033FF003333FF006633FF009933FF00CC33FF00FF33FF000066FF003366FF006666FF009966FF00CC66FF00FF66FF000099FF003399FF006699FF009999FF00CC
310
99FF00FF99FF0000CCFF0033CCFF0066CCFF0099CCFF00CCCCFF00FFCCFF0000FFFF0033FFFF0066FFFF0099FFFF00CCFFFF00FFFFFF00000000000D0D0D001A1A1A00282828003535350043434300505050005D5D5D006B6B6B00787878008686860093939300A1A1A100AEAEAE00BBBBBB00C9C9C900D6D6D600E4E4E400
310
F1F1F100FFFFFF0000000000000000000000000000000000000000000000000000000000000000000000000000000000F5F5F5F5F5F5F5F5F5F5F5F5F5F5F5F5F5F5F5F5F5F5F5F5F5F5F5F5F5F5F5F5F5F5F5F5F5F5F5F5F5F5F5F5F5F5F5F5F5F5F5F5F5F5F5F5F5F5F5F5F5F5F5F5F5F5F5F5F5F5F5F5F5F5F5F5F5F5F5
310
F5F5F5F5F5F5F5F5F5F5F5F5F5F5F5F5F5F5F5F5F5F5F5F5F5F5F5F5F5F5F5F5F5F5F5F5F5F5F5F5F5F5F5F5F5F5F5F5F5F5F5F5F5F5F5F5F5F5F5F5F5F5F5F5F5F5F5F5F5F5F5F5F5F5F5F5F5F5F5F5F5F5F5F5F5F5F5F5F5F5F5F5F5F5F5F5F5F5F5F5F5F5E2E2E2E2E2E2E2E2E2E2E2E2E2E2E2E2E2E2E2E2E2E2E2E2E2
310
E2E2E2E2E2E2E2E2E2E2E2E2E2E2E2E2E2E2E2E2E2E2E2E2E2E2E2E2E2E2E2E2E2E2E2E2E2E2E2E2E2E2E2E2E2E2E2E2E2E2E2E2E2E2E2E2E2E2E2E2E2E2E2E2E2E2E2E2E2E2E2E2E2E2E2E2E2E2E2E2E2E2E2E2E2E2E2E2E2E2E2E2E2E2E2E2E2E2E2E2E2E2E2E2E2E2E2E2E2E2E2E2E2E2E2E2E2E2E2E2E2E2E2E2E2E2E2
310
E2E2E2E2E2E2E2E2E2E2E2E2E2E2E2E2E2E2E2E2E2E2E2E2E2E2F5F5E2E2E2E2E2E2E2E2E2E2E2E2E2E2E2E2E2E2E2E2E2E2E2E2E2E2E2E2E2E2E2E2E2E2E2E2E2E2E2E2E2E2E2E2E2E2E2E2E2E2E2E2E2E2E2E2E2E2E2E2E2E2E2E2E2E2E2E2E2E2E2E2E2E2E2E2E2E2E2E2E2E2E2E2E2E2E2E2E2E2E2E2E2E2E2E2E2E2E2
310
E2E2E2E2E2E2E2E2E2E2E2E2E2E2E2E2E2E2E2E2E2E2E2E2E2E2E2E2E2E2E2E2E2E2E2E2E2E2E2E2E2E2E2E2E2E2E2E2E2E2E2E2E2E2E2E2E2E2E2E2E2E2E2E2E2E2E2E2E2E2E2E2E2E2E2E2E2E2E2F5F5E2E2E2E2E2E2E2E2E2E2E2E2E2E2E2E2E2E2E2E2E2E2E2E2E2E2E2E2E2E2E2E2E2E2E2E2E2E2E2E2E2E2E2E2E2E2
310
E2E2E2E2E2E2E2E2E2E2E2E2E2E2E2E2E2E2E2E2E2E2E2E2E2E2E2E2E2E2E2E2E2E2E2E2E2E2E2E2E2E2E2E2E2E2E2E2E2E2E2E2E2E2E2E2E2E2E2E2E2E2E2E2E2E2E2E2E2E2E2E2E2E2E2E2E2E2E2E2E2E2E2E2E2E2E2E2E2E2E2E2E2E2E2E2E2E2E2E2E2E2E2E2E2E2E2E2E2E2E2E2E2E2E2E2E2E2E2E2E2E2E2E2E2E2E2
310
E2E2E2E2E2F5F5E2E2E2E2E2E2E2E2E2E2E2E2E2E2E2E2E2E2E2E2E2E2E2E2E2E2E2E2E2E2E2E2E2E2E2E2E2E2E2E2E2E2E2E2E2E2E2E2E2E2E2E2E2E2E2E2E2E2E2E2E2E2E2E2E2E2E2E2E2E2E2E2E2E2E2E2E2E2E2E2E2E2E2E2E2E2E2E2E2E2E2E2E2E2E2E2E2E2E2E2E2E2E2E2E2E2E2E2E2E2E2E2E2E2E2E2E2E2E2E2
310
E2E2E2E2E2E2E2E2E2E2E2E2E2E2E2E2E2E2E2E2E2E2E2E2E2E2E2E2E2E2E2E2E2E2E2E2E2E2E2E2E2E2E2E2E2E2E2E2E2E2E2E2E2E2E2E2E2E2F5F5E2E2E2F5F5F5F5F5F5F5F5E2E2E2E2E2E2E2E2E2F5F5F5F5F5F5F5F5F5F5F5F5F5F5F5F5E2E2E2E2E2E2E2E2E2F5F5F5F5F5F5F5F5F5F5F5F5F5F5F5E2E2E2E2E2E2E2
310
E2E2F5F5F5F5F5F5F5F5F5F5F5F5F5F5F5F5E2E2E2E2E2E2E2E2F5F5F5F5F5F5F5F5F5F5F5F5F5F5F5F5E2E2E2E2E2E2E2E2E2F5F5F5F5F5F5F5F5F5F5F5F5F5F5F5E2E2E2E2E2E2E2E2E2F5F5F5F5F5F5F5F5F5F5F5F5F5F5F5F5E2E2E2E2E2E2E2E2E2F5F5F5F5F5F5F5F5E2E2E2F5F5E2E2E2F5E2E2E2E2E2E2E2E2E2E2
310
E2E2E2E2E2E2E2E2E2E2E2E2E2E2E2E2E2E2E2E2E2E2E2E2E2E2E2E2E2E2E2E2E2E2E2E2E2E2E2E2E2E2E2E2E2E2E2E2E2E2E2E2E2E2E2E2E2E2E2E2E2E2E2E2E2E2E2E2E2E2E2E2E2E2E2E2E2E2E2E2E2E2E2E2E2E2E2E2E2E2E2E2E2E2E2E2E2E2E2E2E2E2E2E2E2E2E2E2E2E2E2E2E2E2E2E2E2E2E2E2E2E2E2E2E2E2E2
310
E2E2E2E2E2E2E2E2E2E2E2E2E2E2E2E2E2E2E2E2E2E2E2E2E2E2E2E2E2E2E2E2E2F5E2E2E2F5F5E2E2E2F5E2E2E2E2E2E2E2E2E2E2E2E2E2E2E2E2E2E2E2E2E2E2E2E2E2E2E2E2E2E2E2E2E2E2E2E2E2E2E2E2E2E2E2E2E2E2E2E2E2E2E2E2E2E2E2E2E2E2E2E2E2E2E2E2E2E2E2E2E2E2E2E2E2E2E2E2E2E2E2E2E2E2E2E2
310
E2E2E2E2E2E2E2E2E2E2E2E2E2E2E2E2E2E2E2E2E2E2E2E2E2E2E2E2E2E2E2E2E2E2E2E2E2E2E2E2E2E2E2E2E2E2E2E2E2E2E2E2E2E2E2E2E2E2E2E2E2E2E2E2E2E2E2E2E2E2E2E2E2E2E2E2E2E2E2E2E2E2E2E2E2E2F5E2E2E2F5F5E2E2E2F5E2E2E2E2E2E2E2E2E2E2E2E2E2E2E2E2E2E2E2E2E2E2E2E2E2E2E2E2E2E2E2
310
E2E2E2E2E2E2E2E2E2E2E2E2E2E2E2E2E2E2E2E2E2E2E2E2E2E2E2E2E2E2E2E2E2E2E2E2E2E2E2E2E2E2E2E2E2E2E2E2E2E2E2E2E2E2E2E2E2E2E2E2E2E2E2E2E2E2E2E2E2E2E2E2E2E2E2E2E2E2E2E2E2E2E2E2E2E2E2E2E2E2E2E2E2E2E2E2E2E2E2E2E2E2E2E2E2E2E2E2E2E2E2E2E2E2E2E2E2E2E2E2E2E2E2E2E2E2E2
310
E2E2E2E2E2E2E2E2E2E2E2E2F5E2E2E2F5F5E2E2E2F5E2E2E2E2E2E2E2E2E2E2E2E2E2E2E2E2E2E2E2E2E2E2E2E2E2E2E2E2E2E2E2E2E2E2E2E2E2E2E2E2E2E2E2E2E2E2E2E2E2E2E2E2E2E2E2E2E2E2E2E2E2E2E2E2E2E2E2E2E2E2E2E2E2E2E2E2E2E2E2E2E2E2E2E2E2E2E2E2E2E2E2E2E2E2E2E2E2E2E2E2E2E2E2E2E2
310
E2E2E2E2E2E2E2E2E2E2E2E2E2E2E2E2E2E2E2E2E2E2E2E2E2E2E2E2E2E2E2E2E2E2E2E2E2E2E2E2E2E2E2E2E2E2E2E2E2E2E2E2E2E2E2E2E2E2E2E2E2E2E2E2E2F5E2E2E2F5F5E2E2E2F5E2E2E2E2E2E2E2E2E2E2E2E2E2E2E2E2E2E2E2E2E2E2E2E2E2E2E2E2E2E2E2E2E2E2E2E2E2E2E2E2E2E2E2E2E2E2E2E2E2E2E2E2
310
E2E2E2E2E2E2E2E2E2E2E2E2E2E2E2E2E2E2E2E2E2E2E2E2E2E2E2E2E2E2E2E2E2E2E2E2E2E2E2E2E2E2E2E2E2E2E2E2E2E2E2E2E2E2E2E2E2E2E2E2E2E2E2E2E2E2E2E2E2E2E2E2E2E2E2E2E2E2E2E2E2E2E2E2E2E2E2E2E2E2E2E2E2E2E2E2E2E2E2E2E2E2E2E2E2E2E2E2E2E2E2E2E2E2E2E2E2E2F5E2E2E2F5F5E2E2E2
310
F5E2E2E2E2E2E2E2E2E2E2E2E2E2E2E2E2E2E2E2E2E2E2E2E2E2E2E2E2E2E2E2E2E2E2E2E2E2E2E2E2E2E2E2E2E2E2E2E2E2E2E2E2E2E2E2E2E2E2E2E2E2E2E2E2E2E2E2E2E2E2E2E2E2E2E2E2E2E2E2E2E2E2E2E2E2E2E2E2E2E2E2E2E2E2E2E2E2E2E2E2E2E2E2E2E2E2E2E2E2E2E2E2E2E2E2E2E2E2E2E2E2E2E2E2E2E2
310
E2E2E2E2E2E2E2E2E2E2E2E2E2E2E2E2E2E2E2E2E2E2E2E2E2E2E2E2E2E2E2E2E2E2E2E2E2E2E2E2E2E2E2E2F5E2E2E2F5F5E2E2E2F5E2E2E2E2E2E2E2E2E2E2E2E2E2E2E2E2E2E2E2E2E2E2E2E2E2E2E2E2E2E2E2E2E2E2E2E2E2E2E2E2E2E2E2E2E2E2E2E2E2E2E2E2E2E2E2E2E2E2E2E2E2E2E2E2E2E2E2E2E2E2E2E2E2
310
E2E2E2E2E2E2E2E2E2E2E2E2E2E2E2E2E2E2E2E2E2E2E2E2E2E2E2E2E2E2E2E2E2E2E2E2E2E2E2E2E2E2E2E2E2E2E2E2E2E2E2E2E2E2E2E2E2E2E2E2E2E2E2E2E2E2E2E2E2E2E2E2E2E2E2E2E2E2E2E2E2E2E2E2E2E2E2E2E2E2E2E2E2E2E2E2E2F5E2E2E2F5F5E2E2E2F5E2E2E2E2E2E2E2E2E2E2E2E2E2E2E2E2E2E2E2E2
310
E2E2E2E2E2E2E2E2E2E2E2E2E2E2E2E2E2E2E2E2E2E2E2E2E2E2E2E2E2E2E2E2E2E2E2E2E2E2E2E2E2E2E2E2E2E2E2E2E2E2E2E2E2E2E2E2E2E2E2E2E2E2E2E2E2E2E2E2E2E2E2E2E2E2E2E2E2E2E2E2E2E2E2E2E2E2E2E2E2E2E2E2E2E2E2E2E2E2E2E2E2E2E2E2E2E2E2E2E2E2E2E2E2E2E2E2E2E2E2E2E2E2E2E2E2E2E2
310
E2E2E2E2E2E2E2E2E2E2E2E2E2E2E2E2E2E2E2E2E2E2E2F5E2E2E2F5F5E2E2E2E2E2E2E2E2E2E2E2E2E2E2E2E2E2E2E2E2E2E2E2E2E2E2E2E2E2E2E2E2E2E2E2E2E2E2E2E2E2E2E2E2E2E2E2E2E2E2E2E2E2E2E2E2E2E2E2E2E2E2E2E2E2E2E2E2E2E2E2E2E2E2E2E2E2E2E2E2E2E2E2E2E2E2E2E2E2E2E2E2E2E2E2E2E2E2
310
E2E2E2E2E2E2E2E2E2E2E2E2E2E2E2E2E2E2E2E2E2E2E2E2E2E2E2E2E2E2E2E2E2E2E2E2E2E2E2E2E2E2E2E2E2E2E2E2E2E2E2E2E2E2E2E2E2E2E2E2E2E2E2E2E2E2E2E2E2E2E2E2E2E2E2E2E2E2E2E2F5F5E2E2E2E2E2E2E2E2E2E2E2E2E2E2E2E2E2E2E2E2E2E2E2E2E2E2E2E2E2E2E2E2E2E2E2E2E2E2E2E2E2E2E2E2E2
310
E2E2E2E2E2E2E2E2E2E2E2E2E2E2E2E2E2E2E2E2E2E2E2E2E2E2E2E2E2E2E2E2E2E2E2E2E2E2E2E2E2E2E2E2E2E2E2E2E2E2E2E2E2E2E2E2E2E2E2E2E2E2E2E2E2E2E2E2E2E2E2E2E2E2E2E2E2E2E2E2E2E2E2E2E2E2E2E2E2E2E2E2E2E2E2E2E2E2E2E2E2E2E2E2E2E2E2E2E2E2E2E2E2E2E2E2E2E2E2E2E2E2E2E2E2E2E2
310
E2E2E2E2E2E2F5F5E2E2E2E2E2E2E2E2E2E2E2E2E2E2E2E2E2E2E2E2E2E2E2E2E2E2E2E2E2E2E2E2E2E2E2E2E2E2E2E2E2E2E2E2E2E2E2E2E2E2E2E2E2E2E2E2E2E2E2E2E2E2E2E2E2E2E2E2E2E2E2E2E2E2E2E2E2E2E2E2E2E2E2E2E2E2E2E2E2E2E2E2E2E2E2E2E2E2E2E2E2E2E2E2E2E2E2E2E2E2E2E2E2E2E2E2E2E2E2
310
E2E2E2E2E2E2E2E2E2E2E2E2E2E2E2E2E2E2E2E2E2E2E2E2E2E2E2E2E2E2E2E2E2E2E2E2E2E2E2E2E2E2E2E2E2E2E2E2E2E2E2E2E2E2E2E2E2E2E2F5F5E2E2E2E2E2E2E2E2E2E2E2E2E2E2E2E2E2E2E2E2E2E2E2E2E2E2E2E2E2E2E2E2E2E2E2E2E2E2E2E2E2E2E2E2E2E2E2E2E2E2E2E2E2E2E2E2E2E2E2E2E2E2E2E2E2E2
310
E2E2E2E2E2E2E2E2E2E2E2E2E2E2E2E2E2E2E2E2E2E2E2E2E2E2E2E2E2E2E2E2E2E2E2E2E2E2E2E2E2E2E2E2E2E2E2E2E2E2E2E2E2E2E2E2E2E2E2E2E2E2E2E2E2E2E2E2E2E2E2E2E2E2E2E2E2E2E2E2E2E2E2E2E2E2E2E2E2E2E2E2E2E2E2E2E2E2E2E2E2E2E2E2E2E2E2E2E2E2E2E2F5F5E2E2E2E2E2E2E2E2E2E2E2E2E2
310
E2E2E2E2E2E2E2F5F5F5F5F5F5F5F5F5F5F5F5F5F5F5F5F5F5F5F5F5F5F5F5F5F5F5F5F5F5F5F5F5F5F5F5F5F5F5F5F5F5F5F5F5F5F5F5F5F5F5F5F5F5F5F5F5F5F5F5F5F5F5F5F5F5F5F5F5F5F5F5F5F5F5F5F5F5F5F5F5F5F5F5F5F5F5F5F5F5F5F5F5F5F5F5F5F5F5F5F5F5F5F5F5F5F5F5F5F5F5F5F5F5F5F5F5F5F5F5
310
F5F5F5F5F5F5F5F5F5F5F5F5F5F5F5F5F5F5E2E2E2E2E2E2E2E2E2E2E2E2E2E2E2E2E2E2E2E2F5F5E2E2E2E2E2E2E2E2E2E2E2E2E2E2E2E2E2E2E2E2F5E2E2E2E2E2E2E2E2E2E2E2E2E2E2E2E2E2E2E2E2E2E2E2E2E2E2E2E2E2E2E2E2E2E2E2E2E2E2E2E2E2E2E2E2E2E2E2E2E2E2E2E2E2E2E2E2E2E2E2E2E2E2E2E2E2E2
310
E2E2E2E2E2E2E2E2E2E2E2E2E2E2E2E2E2E2E2E2E2E2E2E2E2E2E2E2E2E2E2E2E2E2E2E2E2E2E2E2E2E2E2E2E2E2E2E2E2E2E2E2E2E2E2E2E2E2E2E2E2E2E2E2E2E2E2E2E2E2F5E2E2E2E2E2E2E2E2E2E2E2E2E2E2E2E2E2E2E2E2F5F5E2E2E2E2E2E2E2E2E2E2E2E2E2E2E2E2E2E2E2E2F5E2E2E2E2E2E2E2E2E2E2E2E2E2
310
E2E2E2E2E2E2E2E2E2E2E2E2E2E2E2E2E2E2E2E2E2E2E2E2E2E2E2E2E2E2E2E2E2E2E2E2E2E2E2E2E2E2E2E2E2E2E2E2E2E2E2E2E2E2E2E2E2E2E2E2E2E2E2E2E2E2E2E2E2E2E2E2E2E2E2E2E2E2E2E2E2E2E2E2E2E2E2E2E2E2E2E2E2E2E2E2E2E2E2E2E2E2E2E2E2E2E2E2E2E2E2E2E2E2E2E2E2E2E2E2E2E2E2F5E2E2E2
310
E2E2E2E2E2E2E2E2E2E2E2E2E2E2E2E2E2F5F5E2E2E2E2E2E2E2E2E2E2E2E2E2E2E2E2E2E2E2E2F5E2E2E2E2E2E2E2E2E2E2E2E2E2E2E2E2E2E2E2E2E2E2E2E2E2E2E2E2E2E2E2E2E2E2E2E2E2E2E2E2E2E2E2E2E2E2E2E2E2E2E2E2E2E2E2E2E2E2E2E2E2E2E2E2E2E2E2E2E2E2E2E2E2E2E2E2E2E2E2E2E2E2E2E2E2E2E2
310
E2E2E2E2E2E2E2E2E2E2E2E2E2E2E2E2E2E2E2E2E2E2E2E2E2E2E2E2E2E2E2E2E2E2E2E2E2E2E2E2E2E2E2E2E2E2E2E2E2F5E2E2E2E2E2E2E2E2E2E2E2E2E2E2E2E2E2E2E2E2F5F5E2E2E2E2E2E2E2E2E2E2E2E2E2E2E2E2E2E2E2E2F5E2E2E2E2E2E2E2E2E2E2E2E2E2E2E2E2E2E2E2E2E2E2E2E2E2E2E2E2E2E2E2E2E2E2
310
E2E2E2E2E2E2E2E2E2E2E2E2E2E2E2E2E2E2E2E2E2E2E2E2E2E2E2E2E2E2E2E2E2E2E2E2E2E2E2E2E2E2E2E2E2E2E2E2E2E2E2E2E2E2E2E2E2E2E2E2E2E2E2E2E2E2E2E2E2E2E2E2E2E2E2E2E2E2E2E2E2E2E2E2E2E2E2E2E2E2E2E2E2E2E2E2E2E2E2E2E2E2F5E2E2E2E2E2E2E2E2E2E2E2E2E2E2E2E2E2E2E2E2F5F5E2E2
310
E2F5E2E2E2E2E2E2E2E2E2E2E2E2E2E2E2E2F5E2E2E2E2E2E2E2E2E2E2E2E2E2E2E2E2E2E2E2E2E2E2E2E2E2E2E2E2E2E2E2E2E2E2E2E2E2E2E2E2E2E2E2E2E2E2E2E2E2E2E2E2E2E2E2E2E2E2E2E2E2E2E2E2E2E2E2E2E2E2E2E2E2E2E2E2E2E2E2E2E2E2E2E2E2E2E2E2E2E2E2E2E2E2E2E2E2E2E2E2E2E2E2E2E2E2E2E2
310
E2E2E2E2E2E2E2E2E2E2E2E2E2E2E2E2E2E2E2E2E2E2E2E2E2E2E2E2F5E2E2E2E2E2E2E2E2E2E2E2E2E2E2E2E2F5E2E2E2F5F5E2E2E2F5E2E2E2E2E2E2E2E2E2E2E2E2E2E2E2E2F5E2E2E2E2E2E2E2E2E2E2E2E2E2E2E2E2E2E2E2E2E2E2E2E2E2E2E2E2E2E2E2E2E2E2E2E2E2E2E2E2E2E2E2E2E2E2E2E2E2E2E2E2E2E2E2
310
E2E2E2E2E2E2E2E2E2E2E2E2E2E2E2E2E2E2E2E2E2E2E2E2E2E2E2E2E2E2E2E2E2E2E2E2E2E2E2E2E2E2E2E2E2E2E2E2E2E2E2E2E2E2E2E2E2E2E2E2E2E2E2E2E2E2E2E2E2E2E2E2E2E2E2E2E2E2E2E2E2F5E2E2E2E2E2E2E2E2E2E2E2E2E2E2E2E2F5E2E2E2F5F5E2E2E2F5E2E2E2E2E2E2E2E2E2E2E2E2E2E2E2E2F5E2E2
310
E2E2E2E2E2E2E2E2E2E2E2E2E2E2E2E2E2E2E2E2E2E2E2E2E2E2E2E2E2E2E2E2E2E2E2E2E2E2E2E2E2E2E2E2E2E2E2E2E2E2E2E2E2E2E2E2E2E2E2E2E2E2E2E2E2E2E2E2E2E2E2E2E2E2E2E2E2E2E2E2E2E2E2E2E2E2E2E2E2E2E2E2E2E2E2E2E2E2E2E2E2E2E2E2E2E2E2E2E2E2E2E2E2E2E2E2E2E2E2E2E2E2E2E2E2E2E2
310
E2E2E2E2E2E2E2F5E2E2E2E2E2E2E2E2E2E2E2E2E2E2E2E2F5E2E2E2F5F5E2E2E2F5E2E2E2E2E2E2E2E2E2E2E2E2E2E2E2E2F5E2E2E2E2E2E2E2E2E2E2E2E2E2E2E2E2E2E2E2E2E2E2E2E2E2E2E2E2E2E2E2E2E2E2E2E2E2E2E2E2E2E2E2E2E2E2E2E2E2E2E2E2E2E2E2E2E2E2E2E2E2E2E2E2E2E2E2E2E2E2E2E2E2E2E2E2
310
E2E2E2E2E2E2E2E2E2E2E2E2E2E2E2E2E2E2E2E2E2E2E2E2E2E2E2E2E2E2E2E2E2E2E2E2E2E2E2E2E2E2E2E2E2E2E2E2E2E2E2E2E2E2E2E2E2E2E2E2F5E2E2E2E2E2E2E2E2E2E2E2E2E2E2E2E2F5E2E2E2F5F5E2E2E2F5E2E2E2E2E2E2E2E2E2E2E2E2E2E2E2E2F5E2E2E2E2E2E2E2E2E2E2E2E2E2E2E2E2E2E2E2E2E2E2E2
310
E2E2E2E2E2E2E2E2E2E2E2E2E2E2E2E2E2E2E2E2E2E2E2E2E2E2E2E2E2E2E2E2E2E2E2E2E2E2E2E2E2E2E2E2E2E2E2E2E2E2E2E2E2E2E2E2E2E2E2E2E2E2E2E2E2E2E2E2E2E2E2E2E2E2E2E2E2E2E2E2E2E2E2E2E2E2E2E2E2E2E2E2E2E2E2E2E2E2E2E2E2E2E2E2E2E2E2E2E2E2E2E2E2F5E2E2E2E2E2E2E2E2E2E2E2E2E2
310
E2E2E2F5E2E2E2F5F5E2E2E2F5E2E2E2E2E2E2E2E2E2E2E2E2E2E2E2E2F5E2E2E2E2E2E2E2E2E2E2E2E2E2E2E2E2E2E2E2E2E2E2E2E2E2E2E2E2E2E2E2E2E2E2E2E2E2E2E2E2E2E2E2E2E2E2E2E2E2E2E2E2E2E2E2E2E2E2E2E2E2E2E2E2E2E2E2E2E2E2E2E2E2E2E2E2E2E2E2E2E2E2E2E2E2E2E2E2E2E2E2E2E2E2E2E2E2
310
E2E2E2E2E2E2E2E2E2E2E2E2E2E2E2E2E2E2E2E2E2E2E2E2E2E2E2E2E2E2E2E2E2E2E2E2E2E2E2F5E2E2E2E2E2E2E2E2E2E2E2E2E2E2E2E2F5E2E2E2F5F5E2E2E2F5E2E2E2E2E2E2E2E2E2E2E2E2E2E2E2E2F5E2E2E2E2E2E2E2E2E2E2E2E2E2E2E2E2E2E2E2E2E2E2E2E2E2E2E2E2E2E2E2E2E2E2E2E2E2E2E2E2E2E2E2E2
310
E2E2E2E2E2E2E2E2E2E2E2E2E2E2E2E2E2E2E2E2E2E2E2E2E2E2E2E2E2E2E2E2E2E2E2E2E2E2E2E2E2E2E2E2E2E2E2E2E2E2E2E2E2E2E2E2E2E2E2E2E2E2E2E2E2E2E2E2E2E2E2E2E2E2E2E2E2E2E2E2E2E2E2E2E2E2E2E2E2E2E2E2F5E2E2E2E2E2E2E2E2E2E2E2E2E2E2E2E2F5E2E2E2F5F5E2E2E2F5E2E2E2E2E2E2E2E2
310
E2E2E2E2E2E2E2E2F5E2E2E2E2E2E2E2E2E2E2E2E2E2E2E2E2E2E2E2E2E2E2E2E2E2E2E2E2E2E2E2E2E2E2E2E2E2E2E2E2E2E2E2E2E2E2E2E2E2E2E2E2E2E2E2E2E2E2E2E2E2E2E2E2E2E2E2E2E2E2E2E2E2E2E2E2E2E2E2E2E2E2E2E2E2E2E2E2E2E2E2E2E2E2E2E2E2E2E2E2E2E2E2E2E2E2E2E2E2E2E2E2E2E2E2E2E2E2
310
E2E2E2E2E2E2E2E2E2E2E2E2E2E2E2E2E2E2F5E2E2E2E2E2E2E2E2E2E2E2E2E2E2E2E2F5E2E2E2F5F5E2E2E2F5E2E2E2E2E2E2E2E2E2E2E2E2E2E2E2E2F5E2E2E2E2E2E2E2E2E2E2E2E2E2E2E2E2E2E2E2E2E2E2E2E2E2E2E2E2E2E2E2E2E2E2E2E2E2E2E2E2E2E2E2E2E2E2E2E2E2E2E2E2E2E2E2E2E2E2E2E2E2E2E2E2E2
310
E2E2E2E2E2E2E2E2E2E2E2E2E2E2E2E2E2E2E2E2E2E2E2E2E2E2E2E2E2E2E2E2E2E2E2E2E2E2E2E2E2E2E2E2E2E2E2E2E2E2E2E2E2E2E2E2E2E2E2E2E2E2E2E2E2E2E2E2E2E2E2F5E2E2E2E2E2E2E2E2E2E2E2E2E2E2E2E2F5E2E2E2F5F5E2E2E2F5E2E2E2E2E2E2E2E2E2E2E2E2E2E2E2E2F5E2E2E2E2E2E2E2E2E2E2E2E2
310
E2E2E2E2E2E2E2E2E2E2E2E2E2E2E2E2E2E2E2E2E2E2E2E2E2E2E2E2E2E2E2E2E2E2E2E2E2E2E2E2E2E2E2E2E2E2E2E2E2E2E2E2E2E2E2E2E2E2E2E2E2E2E2E2E2E2E2E2E2E2E2E2E2E2E2E2E2E2E2E2E2E2E2E2E2E2E2E2E2E2E2E2E2E2E2E2E2E2E2E2E2E2E2E2E2E2E2E2E2E2E2E2E2E2E2E2E2E2E2E2E2E2E2E2F5E2E2
310
E2E2E2E2E2E2E2E2E2E2E2E2E2E2F5E2E2E2F5F5E2E2E2F5E2E2E2E2E2E2E2E2E2E2E2E2E2E2E2E2F5E2E2E2E2E2E2E2E2E2E2E2E2E2E2E2E2E2E2E2E2E2E2E2E2E2E2E2E2E2E2E2E2E2E2E2E2E2E2E2E2E2E2E2E2E2E2E2E2E2E2E2E2E2E2E2E2E2E2E2E2E2E2E2E2E2E2E2E2E2E2E2E2E2E2E2E2E2E2E2E2E2E2E2E2E2E2
310
E2E2E2E2E2E2E2E2E2E2E2E2E2E2E2E2E2E2E2E2E2E2E2E2E2E2E2E2E2E2E2E2E2E2E2E2E2E2E2E2E2E2E2E2E2E2E2E2E2E2F5E2E2E2E2E2E2E2E2E2E2E2E2E2E2E2E2F5E2E2E2F5F5E2E2E2F5E2E2E2E2E2E2E2E2E2E2E2E2E2E2E2E2F5E2E2E2E2E2E2E2E2E2E2E2E2E2E2E2E2E2E2E2E2E2E2E2E2E2E2E2E2E2E2E2E2E2
310
E2E2E2E2E2E2E2E2E2E2E2E2E2E2E2E2E2E2E2E2E2E2E2E2E2E2E2E2E2E2E2E2E2E2E2E2E2E2E2E2E2E2E2E2E2E2E2E2E2E2E2E2E2E2E2E2E2E2E2E2E2E2E2E2E2E2E2E2E2E2E2E2E2E2E2E2E2E2E2E2E2E2E2E2E2E2E2E2E2E2E2E2E2E2E2E2E2E2E2E2E2E2E2F5E2E2E2E2E2E2E2E2E2E2E2E2E2E2E2E2F5E2E2E2F5F5E2
310
E2E2F5E2E2E2E2E2E2E2E2E2E2E2E2E2E2E2E2F5E2E2E2E2E2E2E2E2E2E2E2E2E2E2E2E2E2E2E2E2E2E2E2E2E2E2E2E2E2E2E2E2E2E2E2E2E2E2E2E2E2E2E2E2E2E2E2E2E2E2E2E2E2E2E2E2E2E2E2E2E2E2E2E2E2E2E2E2E2E2E2E2E2E2E2E2E2E2E2E2E2E2E2E2E2E2E2E2E2E2E2E2E2E2E2E2E2E2E2E2E2E2E2E2E2E2E2
310
E2E2E2E2E2E2E2E2E2E2E2E2E2E2E2E2E2E2E2E2E2E2E2E2E2E2E2E2E2F5E2E2E2E2E2E2E2E2E2E2E2E2E2E2E2E2F5E2E2E2F5F5E2E2E2F5E2E2E2E2E2E2E2E2E2E2E2E2E2E2E2E2F5E2E2E2E2E2E2E2E2E2E2E2E2E2E2E2E2E2E2E2E2E2E2E2E2E2E2E2E2E2E2E2E2E2E2E2E2E2E2E2E2E2E2E2E2E2E2E2E2E2E2E2E2E2E2
310
E2E2E2E2E2E2E2E2E2E2E2E2E2E2E2E2E2E2E2E2E2E2E2E2E2E2E2E2E2E2E2E2E2E2E2E2E2E2E2E2E2E2E2E2E2E2E2E2E2E2E2E2E2E2E2E2E2E2E2E2E2E2E2E2E2E2E2E2E2E2E2E2E2E2E2E2E2E2E2E2E2E2F5E2E2E2E2E2E2E2E2E2E2E2E2E2E2E2E2F5E2E2E2F5F5E2E2E2F5E2E2E2E2E2E2E2E2E2E2E2E2E2E2E2E2F5E2
310
E2E2E2E2E2E2E2E2E2E2E2E2E2E2E2E2E2E2E2E2E2E2E2E2E2E2E2E2E2E2E2E2E2E2E2E2E2E2E2E2E2E2E2E2E2E2E2E2E2E2E2E2E2E2E2E2E2E2E2E2E2E2E2E2E2E2E2E2E2E2E2E2E2E2E2E2E2E2E2E2E2E2E2E2E2E2E2E2E2E2E2E2E2E2E2E2E2E2E2E2E2E2E2E2E2E2E2E2E2E2E2E2E2E2E2E2E2E2E2E2E2E2E2E2E2E2E2
310
E2E2E2E2E2E2E2E2F5E2E2E2E2E2E2E2E2E2E2E2E2E2E2E2E2F5E2E2E2F5F5E2E2E2F5E2E2E2E2E2E2E2E2E2E2E2E2E2E2E2E2F5E2E2E2E2E2E2E2E2E2E2E2E2E2E2E2E2E2E2E2E2E2E2E2E2E2E2E2E2E2E2E2E2E2E2E2E2E2E2E2E2E2E2E2E2E2E2E2E2E2E2E2E2E2E2E2E2E2E2E2E2E2E2E2E2E2E2E2E2E2E2E2E2E2E2E2
310
E2E2E2E2E2E2E2E2E2E2E2E2E2E2E2E2E2E2E2E2E2E2E2E2E2E2E2E2E2E2E2E2E2E2E2E2E2E2E2E2E2E2E2E2E2E2E2E2E2E2E2E2E2E2E2E2E2E2E2E2E2F5E2E2E2E2E2E2E2E2E2E2E2E2E2E2E2E2F5E2E2E2F5F5E2E2E2F5E2E2E2E2E2E2E2E2E2E2E2E2E2E2E2E2F5E2E2E2E2E2E2E2E2E2E2E2E2E2E2E2E2E2E2E2E2E2E2
310
E2E2E2E2E2E2E2E2E2E2E2E2E2E2E2E2E2E2E2E2E2E2E2E2E2E2E2E2E2E2E2E2E2E2E2E2E2E2E2E2E2E2E2E2E2E2E2E2E2E2E2E2E2E2E2E2E2E2E2E2E2E2E2E2E2E2E2E2E2E2E2E2E2E2E2E2E2E2E2E2E2E2E2E2E2E2E2E2E2E2E2E2E2E2E2E2E2E2E2E2E2E2E2E2E2E2E2E2E2E2E2E2E2E2F5E2E2E2E2E2E2E2E2E2E2E2E2
310
E2E2E2E2F5E2E2E2F5F5E2E2E2E2E2E2E2E2E2E2E2E2E2E2E2E2E2E2E2E2F5E2E2E2E2E2E2E2E2E2E2E2E2E2E2E2E2E2E2E2E2E2E2E2E2E2E2E2E2E2E2E2E2E2E2E2E2E2E2E2E2E2E2E2E2E2E2E2E2E2E2E2E2E2E2E2E2E2E2E2E2E2E2E2E2E2E2E2E2E2E2E2E2E2E2E2E2E2E2E2E2E2E2E2E2E2E2E2E2E2E2E2E2E2E2E2E2
310
E2E2E2E2E2E2E2E2E2E2E2E2E2E2E2E2E2E2E2E2E2E2E2E2E2E2E2E2E2E2E2E2E2E2E2E2E2E2E2E2F5E2E2E2E2E2E2E2E2E2E2E2E2E2E2E2E2E2E2E2E2F5F5E2E2E2E2E2E2E2E2E2E2E2E2E2E2E2E2E2E2E2E2F5E2E2E2E2E2E2E2E2E2E2E2E2E2E2E2E2E2E2E2E2E2E2E2E2E2E2E2E2E2E2E2E2E2E2E2E2E2E2E2E2E2E2E2
310
E2E2E2E2E2E2E2E2E2E2E2E2E2E2E2E2E2E2E2E2E2E2E2E2E2E2E2E2E2E2E2E2E2E2E2E2E2E2E2E2E2E2E2E2E2E2E2E2E2E2E2E2E2E2E2E2E2E2E2E2E2E2E2E2E2E2E2E2E2E2E2E2E2E2E2E2E2E2E2E2E2E2E2E2E2E2E2E2E2E2E2E2E2F5E2E2E2E2E2E2E2E2E2E2E2E2E2E2E2E2E2E2E2E2F5F5E2E2E2E2E2E2E2E2E2E2E2
310
E2E2E2E2E2E2E2E2E2F5E2E2E2E2E2E2E2E2E2E2E2E2E2E2E2E2E2E2E2E2E2E2E2E2E2E2E2E2E2E2E2E2E2E2E2E2E2E2E2E2E2E2E2E2E2E2E2E2E2E2E2E2E2E2E2E2E2E2E2E2E2E2E2E2E2E2E2E2E2E2E2E2E2E2E2E2E2E2E2E2E2E2E2E2E2E2E2E2E2E2E2E2E2E2E2E2E2E2E2E2E2E2E2E2E2E2E2E2E2E2E2E2E2E2E2E2E2
310
E2E2E2E2E2E2E2E2E2E2E2E2E2E2E2E2E2E2E2F5E2E2E2E2E2E2E2E2E2E2E2E2E2E2E2E2E2E2E2E2F5F5E2E2E2E2E2E2E2E2E2E2E2E2E2E2E2E2E2E2E2E2F5E2E2E2E2E2E2E2E2E2E2E2E2E2E2E2E2E2E2E2E2E2E2E2E2E2E2E2E2E2E2E2E2E2E2E2E2E2E2E2E2E2E2E2E2E2E2E2E2E2E2E2E2E2E2E2E2E2E2E2E2E2E2E2E2
310
E2E2E2E2E2E2E2E2E2E2E2E2E2E2E2E2E2E2E2E2E2E2E2E2E2E2E2E2E2E2E2E2E2E2E2E2E2E2E2E2E2E2E2E2E2E2E2E2E2E2E2E2E2E2E2E2E2E2E2E2E2E2E2E2E2E2E2E2E2E2E2E2F5E2E2E2E2E2E2E2E2E2E2E2E2E2E2E2E2E2E2E2E2F5F5E2E2E2E2E2E2E2E2E2E2E2E2E2E2E2E2E2E2E2E2F5E2E2E2E2E2E2E2E2E2E2E2
310
E2E2E2E2E2E2E2E2E2E2E2E2E2E2E2E2E2E2E2E2E2E2E2E2E2E2E2E2E2E2E2E2E2E2E2E2E2E2E2E2E2E2E2E2E2E2E2E2E2E2E2E2E2E2E2E2E2E2E2E2E2E2E2E2E2E2E2E2E2E2E2E2E2E2E2E2E2E2E2E2E2E2E2E2E2E2E2E2E2E2E2E2E2E2E2E2E2E2E2E2E2E2E2E2E2E2E2E2E2E2E2E2E2E2E2E2E2E2E2E2E2E2E2E2E2F5E2
310
E2E2E2E2E2E2E2E2E2E2E2E2E2E2E2E2E2E2E2F5F5E2E2E2E2E2E2E2E2E2E2E2E2E2E2E2E2E2E2E2E2F5E2E2E2E2E2E2E2E2E2E2E2E2E2E2E2E2E2E2E2E2E2E2E2E2E2E2E2E2E2E2E2E2E2E2E2E2E2E2E2E2E2E2E2E2E2E2E2E2E2E2E2E2E2E2E2E2E2E2E2E2E2E2E2E2E2E2E2E2E2E2E2E2E2E2E2E2E2E2E2E2E2E2E2E2E2
310
E2E2E2E2E2E2E2E2E2E2E2E2E2E2E2E2E2E2E2E2E2E2E2E2E2E2E2E2E2E2E2E2E2E2E2E2E2E2E2E2E2E2E2E2E2E2E2E2E2E2E2F5E2E2E2E2E2E2E2E2E2E2E2E2E2E2E2E2E2E2E2E2F5F5E2E2E2E2E2E2E2E2E2E2E2E2E2E2E2E2E2E2E2E2F5E2E2E2E2E2E2E2E2E2E2E2E2E2E2E2E2E2E2E2E2E2E2E2E2E2E2E2E2E2E2E2E2
310
E2E2E2E2E2E2E2E2E2E2E2E2E2E2E2E2E2E2E2E2E2E2E2E2E2E2E2E2E2E2E2E2E2E2E2E2E2E2E2E2E2E2E2E2E2E2E2E2E2E2E2E2E2E2E2E2E2E2E2E2E2E2E2E2E2E2E2E2E2E2E2E2E2E2E2E2E2E2E2E2E2E2E2E2E2E2E2E2E2E2E2E2E2E2E2E2E2E2E2E2E2E2E2E2F5E2E2E2E2E2E2E2E2E2E2E2E2E2E2E2E2E2E2E2E2F5F5
310
E2E2E2E2E2E2E2E2E2E2E2E2E2E2E2E2E2E2E2E2F5E2E2E2E2E2E2E2E2E2E2E2E2E2E2E2E2E2E2E2E2E2E2E2E2E2E2E2E2E2E2E2E2E2E2E2E2E2E2E2E2E2E2E2E2E2E2E2E2E2E2E2E2E2E2E2E2E2E2E2E2E2E2E2E2E2E2E2E2E2E2E2E2E2E2E2E2E2E2E2E2E2E2E2E2E2E2E2E2E2E2E2E2E2E2E2E2E2E2E2E2E2E2E2E2E2E2
310
E2E2E2E2E2E2E2E2E2E2E2E2E2E2E2E2E2E2E2E2E2E2E2E2E2E2E2E2E2E2F5E2E2E2E2E2E2E2E2E2E2E2E2E2E2E2E2E2E2E2E2F5F5E2E2E2E2E2E2E2E2E2E2E2E2E2E2E2E2E2E2E2E2F5E2E2E2E2E2E2E2E2E2E2E2E2E2E2E2E2E2E2E2E2E2E2E2E2E2E2E2E2E2E2E2E2E2E2E2E2E2E2E2E2E2E2E2E2E2E2E2E2E2E2E2E2E2
310
E2E2E2E2E2E2E2E2E2E2E2E2E2E2E2E2E2E2E2E2E2E2E2E2E2E2E2E2E2E2E2E2E2E2E2E2E2E2E2E2E2E2E2E2E2E2E2E2E2E2E2E2E2E2E2E2E2E2E2E2E2E2E2E2E2E2E2E2E2E2E2E2E2E2E2E2E2E2E2E2E2E2E2F5E2E2E2E2E2E2E2E2E2E2E2E2E2E2E2E2E2E2E2E2F5F5E2E2E2F5E2E2E2E2E2E2E2E2E2E2E2E2E2E2E2E2F5
310
E2E2E2E2E2E2E2E2E2E2E2E2E2E2E2E2E2E2E2E2E2E2E2E2E2E2E2E2E2E2E2E2E2E2E2E2E2E2E2E2E2E2E2E2E2E2E2E2E2E2E2E2E2E2E2E2E2E2E2E2E2E2E2E2E2E2E2E2E2E2E2E2E2E2E2E2E2E2E2E2E2E2E2E2E2E2E2E2E2E2E2E2E2E2E2E2E2E2E2E2E2E2E2E2E2E2E2E2E2E2E2E2E2E2E2E2E2E2E2E2E2E2E2E2E2E2E2
310
E2E2E2E2E2E2E2E2E2F5E2E2E2E2E2E2E2E2E2E2E2E2E2E2E2E2F5E2E2E2F5F5E2E2E2F5E2E2E2E2E2E2E2E2E2E2E2E2E2E2E2E2F5E2E2E2E2E2E2E2E2E2E2E2E2E2E2E2E2E2E2E2E2E2E2E2E2E2E2E2E2E2E2E2E2E2E2E2E2E2E2E2E2E2E2E2E2E2E2E2E2E2E2E2E2E2E2E2E2E2E2E2E2E2E2E2E2E2E2E2E2E2E2E2E2E2E2
310
E2E2E2E2E2E2E2E2E2E2E2E2E2E2E2E2E2E2E2E2E2E2E2E2E2E2E2E2E2E2E2E2E2E2E2E2E2E2E2E2E2E2E2E2E2E2E2E2E2E2E2E2E2E2E2E2E2E2E2E2E2E2F5E2E2E2E2E2E2E2E2E2E2E2E2E2E2E2E2F5E2E2E2F5F5E2E2E2F5E2E2E2E2E2E2E2E2E2E2E2E2E2E2E2E2F5E2E2E2E2E2E2E2E2E2E2E2E2E2E2E2E2E2E2E2E2E2
310
E2E2E2E2E2E2E2E2E2E2E2E2E2E2E2E2E2E2E2E2E2E2E2E2E2E2E2E2E2E2E2E2E2E2E2E2E2E2E2E2E2E2E2E2E2E2E2E2E2E2E2E2E2E2E2E2E2E2E2E2E2E2E2E2E2E2E2E2E2E2E2E2E2E2E2E2E2E2E2E2E2E2E2E2E2E2E2E2E2E2E2E2E2E2E2E2E2E2E2E2E2E2E2E2E2E2E2E2E2E2E2E2E2E2E2F5E2E2E2E2E2E2E2E2E2E2E2
310
E2E2E2E2E2F5E2E2E2F5F5E2E2E2F5E2E2E2E2E2E2E2E2E2E2E2E2E2E2E2E2F5E2E2E2E2E2E2E2E2E2E2E2E2E2E2E2E2E2E2E2E2E2E2E2E2E2E2E2E2E2E2E2E2E2E2E2E2E2E2E2E2E2E2E2E2E2E2E2E2E2E2E2E2E2E2E2E2E2E2E2E2E2E2E2E2E2E2E2E2E2E2E2E2E2E2E2E2E2E2E2E2E2E2E2E2E2E2E2E2E2E2E2E2E2E2E2
310
E2E2E2E2E2E2E2E2E2E2E2E2E2E2E2E2E2E2E2E2E2E2E2E2E2E2E2E2E2E2E2E2E2E2E2E2E2E2E2E2E2F5E2E2E2E2E2E2E2E2E2E2E2E2E2E2E2E2F5E2E2E2F5F5E2E2E2F5E2E2E2E2E2E2E2E2E2E2E2E2E2E2E2E2F5E2E2E2E2E2E2E2E2E2E2E2E2E2E2E2E2E2E2E2E2E2E2E2E2E2E2E2E2E2E2E2E2E2E2E2E2E2E2E2E2E2E2
310
E2E2E2E2E2E2E2E2E2E2E2E2E2E2E2E2E2E2E2E2E2E2E2E2E2E2E2E2E2E2E2E2E2E2E2E2E2E2E2E2E2E2E2E2E2E2E2E2E2E2E2E2E2E2E2E2E2E2E2E2E2E2E2E2E2E2E2E2E2E2E2E2E2E2E2E2E2E2E2E2E2E2E2E2E2E2E2E2E2E2E2E2E2E2F5E2E2E2E2E2E2E2E2E2E2E2E2E2E2E2E2F5E2E2E2F5F5E2E2E2F5E2E2E2E2E2E2
310
E2E2E2E2E2E2E2E2E2E2F5E2E2E2E2E2E2E2E2E2E2E2E2E2E2E2E2E2E2E2E2E2E2E2E2E2E2E2E2E2E2E2E2E2E2E2E2E2E2E2E2E2E2E2E2E2E2E2E2E2E2E2E2E2E2E2E2E2E2E2E2E2E2E2E2E2E2E2E2E2E2E2E2E2E2E2E2E2E2E2E2E2E2E2E2E2E2E2E2E2E2E2E2E2E2E2E2E2E2E2E2E2E2E2E2E2E2E2E2E2E2E2E2E2E2E2E2
310
E2E2E2E2E2E2E2E2E2E2E2E2E2E2E2E2E2E2E2E2F5E2E2E2E2E2E2E2E2E2E2E2E2E2E2E2E2F5E2E2E2F5F5E2E2E2F5E2E2E2E2E2E2E2E2E2E2E2E2E2E2E2E2F5E2E2E2E2E2E2E2E2E2E2E2E2E2E2E2E2E2E2E2E2E2E2E2E2E2E2E2E2E2E2E2E2E2E2E2E2E2E2E2E2E2E2E2E2E2E2E2E2E2E2E2E2E2E2E2E2E2E2E2E2E2E2E2
310
E2E2E2E2E2E2E2E2E2E2E2E2E2E2E2E2E2E2E2E2E2E2E2E2E2E2E2E2E2E2E2E2E2E2E2E2E2E2E2E2E2E2E2E2E2E2E2E2E2E2E2E2E2E2E2E2E2E2E2E2E2E2E2E2E2E2E2E2E2E2E2E2E2F5E2E2E2E2E2E2E2E2E2E2E2E2E2E2E2E2F5E2E2E2F5F5E2E2E2F5E2E2E2E2E2E2E2E2E2E2E2E2E2E2E2E2F5E2E2E2E2E2E2E2E2E2E2
310
E2E2E2E2E2E2E2E2E2E2E2E2E2E2E2E2E2E2E2E2E2E2E2E2E2E2E2E2E2E2E2E2E2E2E2E2E2E2E2E2E2E2E2E2E2E2E2E2E2E2E2E2E2E2E2E2E2E2E2E2E2E2E2E2E2E2E2E2E2E2E2E2E2E2E2E2E2E2E2E2E2E2E2E2E2E2E2E2E2E2E2E2E2E2E2E2E2E2E2E2E2E2E2E2E2E2E2E2E2E2E2E2E2E2E2E2E2E2E2E2E2E2E2E2E2E2F5
310
E2E2E2E2E2E2E2E2E2E2E2E2E2E2E2E2F5E2E2E2F5F5E2E2E2F5E2E2E2E2E2E2E2E2E2E2E2E2E2E2E2E2F5E2E2E2E2E2E2E2E2E2E2E2E2E2E2E2E2E2E2E2E2E2E2E2E2E2E2E2E2E2E2E2E2E2E2E2E2E2E2E2E2E2E2E2E2E2E2E2E2E2E2E2E2E2E2E2E2E2E2E2E2E2E2E2E2E2E2E2E2E2E2E2E2E2E2E2E2E2E2E2E2E2E2E2E2
310
E2E2E2E2E2E2E2E2E2E2E2E2E2E2E2E2E2E2E2E2E2E2E2E2E2E2E2E2E2E2E2E2E2E2E2E2E2E2E2E2E2E2E2E2E2E2E2E2E2E2E2E2F5E2E2E2E2E2E2E2E2E2E2E2E2E2E2E2E2F5E2E2E2F5F5E2E2E2F5E2E2E2E2E2E2E2E2E2E2E2E2E2E2E2E2F5E2E2E2E2E2E2E2E2E2E2E2E2E2E2E2E2E2E2E2E2E2E2E2E2E2E2E2E2E2E2E2
310
E2E2E2E2E2E2E2E2E2E2E2E2E2E2E2E2E2E2E2E2E2E2E2E2E2E2E2E2E2E2E2E2E2E2E2E2E2E2E2E2E2E2E2E2E2E2E2E2E2E2E2E2E2E2E2E2E2E2E2E2E2E2E2E2E2E2E2E2E2E2E2E2E2E2E2E2E2E2E2E2E2E2E2E2E2E2E2E2E2E2E2E2E2E2E2E2E2E2E2E2E2E2E2E2E2F5E2E2E2E2E2E2E2E2E2E2E2E2E2E2E2E2F5E2E2E2F5
310
F5E2E2E2F5E2E2E2E2E2E2E2E2E2E2E2E2E2E2E2E2F5E2E2E2E2E2E2E2E2E2E2E2E2E2E2E2E2E2E2E2E2E2E2E2E2E2E2E2E2E2E2E2E2E2E2E2E2E2E2E2E2E2E2E2E2E2E2E2E2E2E2E2E2E2E2E2E2E2E2E2E2E2E2E2E2E2E2E2E2E2E2E2E2E2E2E2E2E2E2E2E2E2E2E2E2E2E2E2E2E2E2E2E2E2E2E2E2E2E2E2E2E2E2E2E2E2
310
E2E2E2E2E2E2E2E2E2E2E2E2E2E2E2E2E2E2E2E2E2E2E2E2E2E2E2E2E2E2E2F5E2E2E2E2E2E2E2E2E2E2E2E2E2E2E2E2F5E2E2E2F5F5E2E2E2F5E2E2E2E2E2E2E2E2E2E2E2E2E2E2E2E2F5E2E2E2E2E2E2E2E2E2E2E2E2E2E2E2E2E2E2E2E2E2E2E2E2E2E2E2E2E2E2E2E2E2E2E2E2E2E2E2E2E2E2E2E2E2E2E2E2E2E2E2E2
310
E2E2E2E2E2E2E2E2E2E2E2E2E2E2E2E2E2E2E2E2E2E2E2E2E2E2E2E2E2E2E2E2E2E2E2E2E2E2E2E2E2E2E2E2E2E2E2E2E2E2E2E2E2E2E2E2E2E2E2E2E2E2E2E2E2E2E2E2E2E2E2E2E2E2E2E2E2E2E2E2E2E2E2E2F5E2E2E2E2E2E2E2E2E2E2E2E2E2E2E2E2F5E2E2E2F5F5E2E2E2F5E2E2E2E2E2E2E2E2E2E2E2E2E2E2E2E2
310
F5E2E2E2E2E2E2E2E2E2E2E2E2E2E2E2E2E2E2E2E2E2E2E2E2E2E2E2E2E2E2E2E2E2E2E2E2E2E2E2E2E2E2E2E2E2E2E2E2E2E2E2E2E2E2E2E2E2E2E2E2E2E2E2E2E2E2E2E2E2E2E2E2E2E2E2E2E2E2E2E2E2E2E2E2E2E2E2E2E2E2E2E2E2E2E2E2E2E2E2E2E2E2E2E2E2E2E2E2E2E2E2E2E2E2E2E2E2E2E2E2E2E2E2E2E2E2
310
E2E2E2E2E2E2E2E2E2E2F5E2E2E2E2E2E2E2E2E2E2E2E2E2E2E2E2F5E2E2E2F5F5E2E2E2F5E2E2E2E2E2E2E2E2E2E2E2E2E2E2E2E2F5E2E2E2E2E2E2E2E2E2E2E2E2E2E2E2E2E2E2E2E2E2E2E2E2E2E2E2E2E2E2E2E2E2E2E2E2E2E2E2E2E2E2E2E2E2E2E2E2E2E2E2E2E2E2E2E2E2E2E2E2E2E2E2E2E2E2E2E2E2E2E2E2E2
310
E2E2E2E2E2E2E2E2E2E2E2E2E2E2E2E2E2E2E2E2E2E2E2E2E2E2E2E2E2E2E2E2E2E2E2E2E2E2E2E2E2E2E2E2E2E2E2E2E2E2E2E2E2E2E2E2E2E2E2E2E2E2E2F5E2E2E2E2E2E2E2E2E2E2E2E2E2E2E2E2F5E2E2E2F5F5E2E2E2F5E2E2E2E2E2E2E2E2E2E2E2E2E2E2E2E2F5E2E2E2E2E2E2E2E2E2E2E2E2E2E2E2E2E2E2E2E2
310
E2E2E2E2E2E2E2E2E2E2E2E2E2E2E2E2E2E2E2E2E2E2E2E2E2E2E2E2E2E2E2E2E2E2E2E2E2E2E2E2E2E2E2E2E2E2E2E2E2E2E2E2E2E2E2E2E2E2E2E2E2E2E2E2E2E2E2E2E2E2E2E2E2E2E2E2E2E2E2E2E2E2E2E2E2E2E2E2E2E2E2E2E2E2E2E2E2E2E2E2E2E2E2E2E2E2E2E2E2E2E2E2E2E2E2E2F5E2E2E2E2E2E2E2E2E2E2
310
E2E2E2E2E2E2F5E2E2E2F5F5E2E2E2F5E2E2E2E2E2E2E2E2E2E2E2E2E2E2E2E2F5E2E2E2E2E2E2E2E2E2E2E2E2E2E2E2E2E2E2E2E2E2E2E2E2E2E2E2E2E2E2E2E2E2E2E2E2E2E2E2E2E2E2E2E2E2E2E2E2E2E2E2E2E2E2E2E2E2E2E2E2E2E2E2E2E2E2E2E2E2E2E2E2E2E2E2E2E2E2E2E2E2E2E2E2E2E2E2E2E2E2E2E2E2E2
310
E2E2E2E2E2E2E2E2E2E2E2E2E2E2E2E2E2E2E2E2E2E2E2E2E2E2E2E2E2E2E2E2E2E2E2E2E2E2E2E2E2E2F5E2E2E2E2E2E2E2E2E2E2E2E2E2E2E2E2F5E2E2E2F5F5E2E2E2E2E2E2E2E2E2E2E2E2E2E2E2E2E2E2E2E2F5E2E2E2E2E2E2E2E2E2E2E2E2E2E2E2E2E2E2E2E2E2E2E2E2E2E2E2E2E2E2E2E2E2E2E2E2E2E2E2E2E2
310
E2E2E2E2E2E2E2E2E2E2E2E2E2E2E2E2E2E2E2E2E2E2E2E2E2E2E2E2E2E2E2E2E2E2E2E2E2E2E2E2E2E2E2E2E2E2E2E2E2E2E2E2E2E2E2E2E2E2E2E2E2E2E2E2E2E2E2E2E2E2E2E2E2E2E2E2E2E2E2E2E2E2E2E2E2E2E2E2E2E2E2E2E2E2E2F5E2E2E2E2E2E2E2E2E2E2E2E2E2E2E2E2E2E2E2E2F5F5E2E2E2E2E2E2E2E2E2
310
E2E2E2E2E2E2E2E2E2E2E2F5E2E2E2E2E2E2E2E2E2E2E2E2E2E2E2E2E2E2E2E2E2E2E2E2E2E2E2E2E2E2E2E2E2E2E2E2E2E2E2E2E2E2E2E2E2E2E2E2E2E2E2E2E2E2E2E2E2E2E2E2E2E2E2E2E2E2E2E2E2E2E2E2E2E2E2E2E2E2E2E2E2E2E2E2E2E2E2E2E2E2E2E2E2E2E2E2E2E2E2E2E2E2E2E2E2E2E2E2E2E2E2E2E2E2E2
310
E2E2E2E2E2E2E2E2E2E2E2E2E2E2E2E2E2E2E2E2E2F5E2E2E2E2E2E2E2E2E2E2E2E2E2E2E2E2E2E2E2E2F5F5E2E2E2E2E2E2E2E2E2E2E2E2E2E2E2E2E2E2E2E2F5E2E2E2E2E2E2E2E2E2E2E2E2E2E2E2E2E2E2E2E2E2E2E2E2E2E2E2E2E2E2E2E2E2E2E2E2E2E2E2E2E2E2E2E2E2E2E2E2E2E2E2E2E2E2E2E2E2E2E2E2E2E2
310
E2E2E2E2E2E2E2E2E2E2E2E2E2E2E2E2E2E2E2E2E2E2E2E2E2E2E2E2E2E2E2E2E2E2E2E2E2E2E2E2E2E2E2E2E2E2E2E2E2E2E2E2E2E2E2E2E2E2E2E2E2E2E2E2E2E2E2E2E2E2E2E2E2E2F5E2E2E2E2E2E2E2E2E2E2E2E2E2E2E2E2E2E2E2E2F5F5E2E2E2E2E2E2E2E2E2E2E2E2E2E2E2E2E2E2E2E2F5E2E2E2E2E2E2E2E2E2
310
E2E2E2E2E2E2E2E2E2E2E2E2E2E2E2E2E2E2E2E2E2E2E2E2E2E2E2E2E2E2E2E2E2E2E2E2E2E2E2E2E2E2E2E2E2E2E2E2E2E2E2E2E2E2E2E2E2E2E2E2E2E2E2E2E2E2E2E2E2E2E2E2E2E2E2E2E2E2E2E2E2E2E2E2E2E2E2E2E2E2E2E2E2E2E2E2E2E2E2E2E2E2E2E2E2E2E2E2E2E2E2E2E2E2E2E2E2E2E2E2E2E2E2E2E2E2E2
310
F5E2E2E2E2E2E2E2E2E2E2E2E2E2E2E2E2E2E2E2E2F5F5E2E2E2E2E2E2E2E2E2E2E2E2E2E2E2E2E2E2E2E2F5E2E2E2E2E2E2E2E2E2E2E2E2E2E2E2E2E2E2E2E2E2E2E2E2E2E2E2E2E2E2E2E2E2E2E2E2E2E2E2E2E2E2E2E2E2E2E2E2E2E2E2E2E2E2E2E2E2E2E2E2E2E2E2E2E2E2E2E2E2E2E2E2E2E2E2E2E2E2E2E2E2E2E2
310
E2E2E2E2E2E2E2E2E2E2E2E2E2E2E2E2E2E2E2E2E2E2E2E2E2E2E2E2E2E2E2E2E2E2E2E2E2E2E2E2E2E2E2E2E2E2E2E2E2E2E2E2E2F5E2E2E2E2E2E2E2E2E2E2E2E2E2E2E2E2E2E2E2E2F5F5E2E2E2E2E2E2E2E2E2E2E2E2E2E2E2E2E2E2E2E2F5E2E2E2E2E2E2E2E2E2E2E2E2E2E2E2E2E2E2E2E2E2E2E2E2E2E2E2E2E2E2
310
E2E2E2E2E2E2E2E2E2E2E2E2E2E2E2E2E2E2E2E2E2E2E2E2E2E2E2E2E2E2E2E2E2E2E2E2E2E2E2E2E2E2E2E2E2E2E2E2E2E2E2E2E2E2E2E2E2E2E2E2E2E2E2E2E2E2E2E2E2E2E2E2E2E2E2E2E2E2E2E2E2E2E2E2E2E2E2E2E2E2E2E2E2E2E2E2E2E2E2E2E2E2E2E2E2E2F5E2E2E2E2E2E2E2E2E2E2E2E2E2E2E2E2E2E2E2E2
310
F5F5E2E2E2E2E2E2E2E2E2E2E2E2E2E2E2E2E2E2E2E2F5E2E2E2E2E2E2E2E2E2E2E2E2E2E2E2E2E2E2E2E2E2E2E2E2E2E2E2E2E2E2E2E2E2E2E2E2E2E2E2E2E2E2E2E2E2E2E2E2E2E2E2E2E2E2E2E2E2E2E2E2E2E2E2E2E2E2E2E2E2E2E2E2E2E2E2E2E2E2E2E2E2E2E2E2E2E2E2E2E2E2E2E2E2E2E2E2E2E2E2E2E2E2E2E2
310
E2E2E2E2E2E2E2E2E2E2E2E2E2E2E2E2E2E2E2E2E2E2E2E2E2E2E2E2E2E2E2E2F5E2E2E2E2E2E2E2E2E2E2E2E2E2E2E2E2E2E2E2E2F5F5E2E2E2E2E2E2E2E2E2E2E2E2E2E2E2E2E2E2E2E2F5E2E2E2E2E2E2E2E2E2E2E2E2E2E2E2E2E2E2E2E2E2E2E2E2E2E2E2E2E2E2E2E2E2E2E2E2E2E2E2E2E2E2E2E2E2E2E2E2E2E2E2
310
E2E2E2E2E2E2E2E2E2E2E2E2E2E2E2E2E2E2E2E2E2E2E2E2E2E2E2E2E2E2E2E2E2E2E2E2E2E2E2E2E2E2E2E2E2E2E2E2E2E2E2E2E2E2E2E2E2E2E2E2E2E2E2E2E2E2E2E2E2E2E2E2E2E2E2E2E2E2E2E2E2E2E2E2E2F5E2E2E2E2E2E2E2E2E2E2E2E2E2E2E2E2E2E2E2E2F5F5E2E2E2E2E2E2E2E2E2E2E2E2E2E2E2E2E2E2E2
310
E2F5E2E2E2E2E2E2E2E2E2E2E2E2E2E2E2E2E2E2E2E2E2E2E2E2E2E2E2E2E2E2E2E2E2E2E2E2E2E2E2E2E2E2E2E2E2E2E2E2E2E2E2E2E2E2E2E2E2E2E2E2E2E2E2E2E2E2E2E2E2E2E2E2E2E2E2E2E2E2E2E2E2E2E2E2E2E2E2E2E2E2E2E2E2E2E2E2E2E2E2E2E2E2E2E2E2E2E2E2E2E2E2E2E2E2E2E2E2E2E2E2E2E2E2E2E2
310
E2E2E2E2E2E2E2E2E2E2E2F5E2E2E2E2E2E2E2E2E2E2E2E2E2E2E2E2E2E2E2E2F5F5E2E2E2E2E2E2E2E2E2E2E2E2E2E2E2E2E2E2E2E2F5E2E2E2E2E2E2E2E2E2E2E2E2E2E2E2E2E2E2E2E2E2E2E2E2E2E2E2E2E2E2E2E2E2E2E2E2E2E2E2E2E2E2E2E2E2E2E2E2E2E2E2E2E2E2E2E2E2E2E2E2E2E2E2E2E2E2E2E2E2E2E2E2
310
E2E2E2E2E2E2E2E2E2E2E2E2E2E2E2E2E2E2E2E2E2E2E2E2E2E2E2E2E2E2E2E2E2E2E2E2E2E2E2E2E2E2E2E2E2E2E2E2E2E2E2E2E2E2E2E2E2E2E2E2E2E2E2E2F5E2E2E2E2E2E2E2E2E2E2E2E2E2E2E2E2E2E2E2E2F5F5E2E2E2F5E2E2E2E2E2E2E2E2E2E2E2E2E2E2E2E2F5E2E2E2E2E2E2E2E2E2E2E2E2E2E2E2E2E2E2E2
310
E2E2E2E2E2E2E2E2E2E2E2E2E2E2E2E2E2E2E2E2E2E2E2E2E2E2E2E2E2E2E2E2E2E2E2E2E2E2E2E2E2E2E2E2E2E2E2E2E2E2E2E2E2E2E2E2E2E2E2E2E2E2E2E2E2E2E2E2E2E2E2E2E2E2E2E2E2E2E2E2E2E2E2E2E2E2E2E2E2E2E2E2E2E2E2E2E2E2E2E2E2E2E2E2E2E2E2E2E2E2E2E2E2E2E2E2E2F5E2E2E2E2E2E2E2E2E2
310
E2E2E2E2E2E2E2F5E2E2E2F5F5E2E2E2F5E2E2E2E2E2E2E2E2E2E2E2E2E2E2E2E2F5E2E2E2E2E2E2E2E2E2E2E2E2E2E2E2E2E2E2E2E2E2E2E2E2E2E2E2E2E2E2E2E2E2E2E2E2E2E2E2E2E2E2E2E2E2E2E2E2E2E2E2E2E2E2E2E2E2E2E2E2E2E2E2E2E2E2E2E2E2E2E2E2E2E2E2E2E2E2E2E2E2E2E2E2E2E2E2E2E2E2E2E2E2
310
E2E2E2E2E2E2E2E2E2E2E2E2E2E2E2E2E2E2E2E2E2E2E2E2E2E2E2E2E2E2E2E2E2E2E2E2E2E2E2E2E2E2E2F5E2E2E2E2E2E2E2E2E2E2E2E2E2E2E2E2F5E2E2E2F5F5E2E2E2F5E2E2E2E2E2E2E2E2E2E2E2E2E2E2E2E2F5E2E2E2E2E2E2E2E2E2E2E2E2E2E2E2E2E2E2E2E2E2E2E2E2E2E2E2E2E2E2E2E2E2E2E2E2E2E2E2E2
310
E2E2E2E2E2E2E2E2E2E2E2E2E2E2E2E2E2E2E2E2E2E2E2E2E2E2E2E2E2E2E2E2E2E2E2E2E2E2E2E2E2E2E2E2E2E2E2E2E2E2E2E2E2E2E2E2E2E2E2E2E2E2E2E2E2E2E2E2E2E2E2E2E2E2E2E2E2E2E2E2E2E2E2E2E2E2E2E2E2E2E2E2E2E2E2E2F5E2E2E2E2E2E2E2E2E2E2E2E2E2E2E2E2F5E2E2E2F5F5E2E2E2F5E2E2E2E2
310
E2E2E2E2E2E2E2E2E2E2E2E2F5E2E2E2E2E2E2E2E2E2E2E2E2E2E2E2E2E2E2E2E2E2E2E2E2E2E2E2E2E2E2E2E2E2E2E2E2E2E2E2E2E2E2E2E2E2E2E2E2E2E2E2E2E2E2E2E2E2E2E2E2E2E2E2E2E2E2E2E2E2E2E2E2E2E2E2E2E2E2E2E2E2E2E2E2E2E2E2E2E2E2E2E2E2E2E2E2E2E2E2E2E2E2E2E2E2E2E2E2E2E2E2E2E2E2
310
E2E2E2E2E2E2E2E2E2E2E2E2E2E2E2E2E2E2E2E2E2E2F5E2E2E2E2E2E2E2E2E2E2E2E2E2E2E2E2F5E2E2E2F5F5E2E2E2F5E2E2E2E2E2E2E2E2E2E2E2E2E2E2E2E2F5E2E2E2E2E2E2E2E2E2E2E2E2E2E2E2E2E2E2E2E2E2E2E2E2E2E2E2E2E2E2E2E2E2E2E2E2E2E2E2E2E2E2E2E2E2E2E2E2E2E2E2E2E2E2E2E2E2E2E2E2E2
310
E2E2E2E2E2E2E2E2E2E2E2E2E2E2E2E2E2E2E2E2E2E2E2E2E2E2E2E2E2E2E2E2E2E2E2E2E2E2E2E2E2E2E2E2E2E2E2E2E2E2E2E2E2E2E2E2E2E2E2E2E2E2E2E2E2E2E2E2E2E2E2E2E2E2E2F5E2E2E2E2E2E2E2E2E2E2E2E2E2E2E2E2F5E2E2E2F5F5E2E2E2F5E2E2E2E2E2E2E2E2E2E2E2E2E2E2E2E2F5E2E2E2E2E2E2E2E2
310
E2E2E2E2E2E2E2E2E2E2E2E2E2E2E2E2E2E2E2E2E2E2E2E2E2E2E2E2E2E2E2E2E2E2E2E2E2E2E2E2E2E2E2E2E2E2E2E2E2E2E2E2E2E2E2E2E2E2E2E2E2E2E2E2E2E2E2E2E2E2E2E2E2E2E2E2E2E2E2E2E2E2E2E2E2E2E2E2E2E2E2E2E2E2E2E2E2E2E2E2E2E2E2E2E2E2E2E2E2E2E2E2E2E2E2E2E2E2E2E2E2E2E2E2E2E2E2
310
E2F5E2E2E2E2E2E2E2E2E2E2E2E2E2E2E2E2F5E2E2E2F5F5E2E2E2F5E2E2E2E2E2E2E2E2E2E2E2E2E2E2E2E2F5E2E2E2E2E2E2E2E2E2E2E2E2E2E2E2E2E2E2E2E2E2E2E2E2E2E2E2E2E2E2E2E2E2E2E2E2E2E2E2E2E2E2E2E2E2E2E2E2E2E2E2E2E2E2E2E2E2E2E2E2E2E2E2E2E2E2E2E2E2E2E2E2E2E2E2E2E2E2E2E2E2E2
310
E2E2E2E2E2E2E2E2E2E2E2E2E2E2E2E2E2E2E2E2E2E2E2E2E2E2E2E2E2E2E2E2E2E2E2E2E2E2E2E2E2E2E2E2E2E2E2E2E2E2E2E2E2E2F5E2E2E2E2E2E2E2E2E2E2E2E2E2E2E2E2F5E2E2E2F5F5E2E2E2F5E2E2E2E2E2E2E2E2E2E2E2E2E2E2E2E2F5E2E2E2E2E2E2E2E2E2E2E2E2E2E2E2E2E2E2E2E2E2E2E2E2E2E2E2E2E2
310
E2E2E2E2E2E2E2E2E2E2E2E2E2E2E2E2E2E2E2E2E2E2E2E2E2E2E2E2E2E2E2E2E2E2E2E2E2E2E2E2E2E2E2E2E2E2E2E2E2E2E2E2E2E2E2E2E2E2E2E2E2E2E2E2E2E2E2E2E2E2E2E2E2E2E2E2E2E2E2E2E2E2E2E2E2E2E2E2E2E2E2E2E2E2E2E2E2E2E2E2E2E2E2E2E2E2E2F5E2E2E2E2E2E2E2E2E2E2E2E2E2E2E2E2F5E2E2
310
E2F5F5E2E2E2F5E2E2E2E2E2E2E2E2E2E2E2E2E2E2E2E2F5E2E2E2E2E2E2E2E2E2E2E2E2E2E2E2E2E2E2E2E2E2E2E2E2E2E2E2E2E2E2E2E2E2E2E2E2E2E2E2E2E2E2E2E2E2E2E2E2E2E2E2E2E2E2E2E2E2E2E2E2E2E2E2E2E2E2E2E2E2E2E2E2E2E2E2E2E2E2E2E2E2E2E2E2E2E2E2E2E2E2E2E2E2E2E2E2E2E2E2E2E2E2E2
310
E2E2E2E2E2E2E2E2E2E2E2E2E2E2E2E2E2E2E2E2E2E2E2E2E2E2E2E2E2E2E2E2E2F5E2E2E2E2E2E2E2E2E2E2E2E2E2E2E2E2F5E2E2E2F5F5E2E2E2F5E2E2E2E2E2E2E2E2E2E2E2E2E2E2E2E2F5E2E2E2E2E2E2E2E2E2E2E2E2E2E2E2E2E2E2E2E2E2E2E2E2E2E2E2E2E2E2E2E2E2E2E2E2E2E2E2E2E2E2E2E2E2E2E2E2E2E2
310
E2E2E2E2E2E2E2E2E2E2E2E2E2E2E2E2E2E2E2E2E2E2E2E2E2E2E2E2E2E2E2E2E2E2E2E2E2E2E2E2E2E2E2E2E2E2E2E2E2E2E2E2E2E2E2E2E2E2E2E2E2E2E2E2E2E2E2E2E2E2E2E2E2E2E2E2E2E2E2E2E2E2E2E2E2E2F5E2E2E2E2E2E2E2E2E2E2E2E2E2E2E2E2F5E2E2E2F5F5E2E2E2F5E2E2E2E2E2E2E2E2E2E2E2E2E2E2
310
E2E2F5E2E2E2E2E2E2E2E2E2E2E2E2E2E2E2E2E2E2E2E2E2E2E2E2E2E2E2E2E2E2E2E2E2E2E2E2E2E2E2E2E2E2E2E2E2E2E2E2E2E2E2E2E2E2E2E2E2E2E2E2E2E2E2E2E2E2E2E2E2E2E2E2E2E2E2E2E2E2E2E2E2E2E2E2E2E2E2E2E2E2E2E2E2E2E2E2E2E2E2E2E2E2E2E2E2E2E2E2E2E2E2E2E2E2E2E2E2E2E2E2E2E2E2E2
310
E2E2E2E2E2E2E2E2E2E2E2E2F5E2E2E2E2E2E2E2E2E2E2E2E2E2E2E2E2F5E2E2E2F5F5E2E2E2F5E2E2E2E2E2E2E2E2E2E2E2E2E2E2E2E2F5E2E2E2E2E2E2E2E2E2E2E2E2E2E2E2E2E2E2E2E2E2E2E2E2E2E2E2E2E2E2E2E2E2E2E2E2E2E2E2E2E2E2E2E2E2E2E2E2E2E2E2E2E2E2E2E2E2E2E2E2E2E2E2E2E2E2E2E2E2E2E2
310
E2E2E2E2E2E2E2E2E2E2E2E2E2E2E2E2E2E2E2E2E2E2E2E2E2E2E2E2E2E2E2E2E2E2E2E2E2E2E2E2E2E2E2E2E2E2E2E2E2E2E2E2E2E2E2E2E2E2E2E2E2E2E2E2E2F5E2E2E2E2E2E2E2E2E2E2E2E2E2E2E2E2F5E2E2E2F5F5E2E2E2F5E2E2E2E2E2E2E2E2E2E2E2E2E2E2E2E2F5E2E2E2E2E2E2E2E2E2E2E2E2E2E2E2E2E2E2
310
E2E2E2E2E2E2E2E2E2E2E2E2E2E2E2E2E2E2E2E2E2E2E2E2E2E2E2E2E2E2E2E2E2E2E2E2E2E2E2E2E2E2E2E2E2E2E2E2E2E2E2E2E2E2E2E2E2E2E2E2E2E2E2E2E2E2E2E2E2E2E2E2E2E2E2E2E2E2E2E2E2E2E2E2E2E2E2E2E2E2E2E2E2E2E2E2E2E2E2E2E2E2E2E2E2E2E2E2E2E2E2E2E2E2E2E2E2E2F5E2E2E2E2E2E2E2E2
310
E2E2E2E2E2E2E2E2F5E2E2E2F5F5E2E2E2F5E2E2E2E2E2E2E2E2E2E2E2E2E2E2E2E2F5E2E2E2E2E2E2E2E2E2E2E2E2E2E2E2E2E2E2E2E2E2E2E2E2E2E2E2E2E2E2E2E2E2E2E2E2E2E2E2E2E2E2E2E2E2E2E2E2E2E2E2E2E2E2E2E2E2E2E2E2E2E2E2E2E2E2E2E2E2E2E2E2E2E2E2E2E2E2E2E2E2E2E2E2E2E2E2E2E2E2E2E2
310
E2E2E2E2E2E2E2E2E2E2E2E2E2E2E2E2E2E2E2E2E2E2E2E2E2E2E2E2E2E2E2E2E2E2E2E2E2E2E2E2E2E2E2E2F5E2E2E2E2E2E2E2E2E2E2E2E2E2E2E2E2F5E2E2E2F5F5E2E2E2F5E2E2E2E2E2E2E2E2E2E2E2E2E2E2E2E2F5E2E2E2E2E2E2E2E2E2E2E2E2E2E2E2E2E2E2E2E2E2E2E2E2E2E2E2E2E2E2E2E2E2E2E2E2E2E2E2
310
E2E2E2E2E2E2E2E2E2E2E2E2E2E2E2E2E2E2E2E2E2E2E2E2E2E2E2E2E2E2E2E2E2E2E2E2E2E2E2E2E2E2E2E2E2E2E2E2E2E2E2E2E2E2E2E2E2E2E2E2E2E2E2E2E2E2E2E2E2E2E2E2E2E2E2E2E2E2E2E2E2E2E2E2E2E2E2E2E2E2E2E2E2E2E2E2E2F5E2E2E2E2E2E2E2E2E2E2E2E2E2E2E2E2F5E2E2E2F5F5E2E2E2F5E2E2E2
310
E2E2E2E2E2E2E2E2E2E2E2E2E2F5E2E2E2E2E2E2E2E2E2E2E2E2E2E2E2E2E2E2E2E2E2E2E2E2E2E2E2E2E2E2E2E2E2E2E2E2E2E2E2E2E2E2E2E2E2E2E2E2E2E2E2E2E2E2E2E2E2E2E2E2E2E2E2E2E2E2E2E2E2E2E2E2E2E2E2E2E2E2E2E2E2E2E2E2E2E2E2E2E2E2E2E2E2E2E2E2E2E2E2E2E2E2E2E2E2E2E2E2E2E2E2E2E2
310
E2E2E2E2E2E2E2E2E2E2E2E2E2E2E2E2E2E2E2E2E2E2E2F5E2E2E2E2E2E2E2E2E2E2E2E2E2E2E2E2F5E2E2E2F5F5E2E2E2E2E2E2E2E2E2E2E2E2E2E2E2E2E2E2E2E2F5E2E2E2E2E2E2E2E2E2E2E2E2E2E2E2E2E2E2E2E2E2E2E2E2E2E2E2E2E2E2E2E2E2E2E2E2E2E2E2E2E2E2E2E2E2E2E2E2E2E2E2E2E2E2E2E2E2E2E2E2
310
E2E2E2E2E2E2E2E2E2E2E2E2E2E2E2E2E2E2E2E2E2E2E2E2E2E2E2E2E2E2E2E2E2E2E2E2E2E2E2E2E2E2E2E2E2E2E2E2E2E2E2E2E2E2E2E2E2E2E2E2E2E2E2E2E2E2E2E2E2E2E2E2E2E2E2E2F5E2E2E2E2E2E2E2E2E2E2E2E2E2E2E2E2E2E2E2E2F5F5E2E2E2E2E2E2E2E2E2E2E2E2E2E2E2E2E2E2E2E2F5E2E2E2E2E2E2E2
310
E2E2E2E2E2E2E2E2E2E2E2E2E2E2E2E2E2E2E2E2E2E2E2E2E2E2E2E2E2E2E2E2E2E2E2E2E2E2E2E2E2E2E2E2E2E2E2E2E2E2E2E2E2E2E2E2E2E2E2E2E2E2E2E2E2E2E2E2E2E2E2E2E2E2E2E2E2E2E2E2E2E2E2E2E2E2E2E2E2E2E2E2E2E2E2E2E2E2E2E2E2E2E2E2E2E2E2E2E2E2E2E2E2E2E2E2E2E2E2E2E2E2E2E2E2E2E2
310
E2E2F5E2E2E2E2E2E2E2E2E2E2E2E2E2E2E2E2E2E2E2E2F5F5E2E2E2E2E2E2E2E2E2E2E2E2E2E2E2E2E2E2E2E2F5E2E2E2E2E2E2E2E2E2E2E2E2E2E2E2E2E2E2E2E2E2E2E2E2E2E2E2E2E2E2E2E2E2E2E2E2E2E2E2E2E2E2E2E2E2E2E2E2E2E2E2E2E2E2E2E2E2E2E2E2E2E2E2E2E2E2E2E2E2E2E2E2E2E2E2E2E2E2E2E2E2
310
E2E2E2E2E2E2E2E2E2E2E2E2E2E2E2E2E2E2E2E2E2E2E2E2E2E2E2E2E2E2E2E2E2E2E2E2E2E2E2E2E2E2E2E2E2E2E2E2E2E2E2E2E2E2E2F5E2E2E2E2E2E2E2E2E2E2E2E2E2E2E2E2E2E2E2E2F5F5E2E2E2E2E2E2E2E2E2E2E2E2E2E2E2E2E2E2E2E2F5E2E2E2E2E2E2E2E2E2E2E2E2E2E2E2E2E2E2E2E2E2E2E2E2E2E2E2E2
310
E2E2E2E2E2E2E2E2E2E2E2E2E2E2E2E2E2E2E2E2E2E2E2E2E2E2E2E2E2E2E2E2E2E2E2E2E2E2E2E2E2E2E2E2E2E2E2E2E2E2E2E2E2E2E2E2E2E2E2E2E2E2E2E2E2E2E2E2E2E2E2E2E2E2E2E2E2E2E2E2E2E2E2E2E2E2E2E2E2E2E2E2E2E2E2E2E2E2E2E2E2E2E2E2E2E2E2E2F5E2E2E2E2E2E2E2E2E2E2E2E2E2E2E2E2E2E2
310
E2E2F5F5E2E2E2E2E2E2E2E2E2E2E2E2E2E2E2E2E2E2E2E2F5E2E2E2E2E2E2E2E2E2E2E2E2E2E2E2E2E2E2E2E2E2E2E2E2E2E2E2E2E2E2E2E2E2E2E2E2E2E2E2E2E2E2E2E2E2E2E2E2E2E2E2E2E2E2E2E2E2E2E2E2E2E2E2E2E2E2E2E2E2E2E2E2E2E2E2E2E2E2E2E2E2E2E2E2E2E2E2E2E2E2E2E2E2E2E2E2E2E2E2E2E2E2
310
E2E2E2E2E2E2E2E2E2E2E2E2E2E2E2E2E2E2E2E2E2E2E2E2E2E2E2E2E2E2E2E2E2E2F5E2E2E2E2E2E2E2E2E2E2E2E2E2E2E2E2E2E2E2E2F5F5E2E2E2E2E2E2E2E2E2E2E2E2E2E2E2E2E2E2E2E2F5E2E2E2E2E2E2E2E2E2E2E2E2E2E2E2E2E2E2E2E2E2E2E2E2E2E2E2E2E2E2E2E2E2E2E2E2E2E2E2E2E2E2E2E2E2E2E2E2E2
310
E2E2E2E2E2E2E2E2E2E2E2E2E2E2E2E2E2E2E2E2E2E2E2E2E2E2E2E2E2E2E2E2E2E2E2E2E2E2E2E2E2E2E2E2E2E2E2E2E2E2E2E2E2E2E2E2E2E2E2E2E2E2E2E2E2E2E2E2E2E2E2E2E2E2E2E2E2E2E2E2E2E2E2E2E2E2E2F5E2E2E2E2E2E2E2E2E2E2E2E2E2E2E2E2E2E2E2E2F5F5E2E2E2E2E2E2E2E2E2E2E2E2E2E2E2E2E2
310
E2E2E2F5E2E2E2E2E2E2E2E2E2E2E2E2E2E2E2E2E2E2E2E2E2E2E2E2E2E2E2E2E2E2E2E2E2E2E2E2E2E2E2E2E2E2E2E2E2E2E2E2E2E2E2E2E2E2E2E2E2E2E2E2E2E2E2E2E2E2E2E2E2E2E2E2E2E2E2E2E2E2E2E2E2E2E2E2E2E2E2E2E2E2E2E2E2E2E2E2E2E2E2E2E2E2E2E2E2E2E2E2E2E2E2E2E2E2E2E2E2E2E2E2E2E2E2
310
E2E2E2E2E2E2E2E2E2E2E2E2E2F5E2E2E2E2E2E2E2E2E2E2E2E2E2E2E2E2E2E2E2E2F5F5E2E2E2E2E2E2E2E2E2E2E2E2E2E2E2E2E2E2E2E2F5E2E2E2E2E2E2E2E2E2E2E2E2E2E2E2E2E2E2E2E2E2E2E2E2E2E2E2E2E2E2E2E2E2E2E2E2E2E2E2E2E2E2E2E2E2E2E2E2E2E2E2E2E2E2E2E2E2E2E2E2E2E2E2E2E2E2E2E2E2E2
310
E2E2E2E2E2E2E2E2E2E2E2E2E2E2E2E2E2E2E2E2E2E2E2E2E2E2E2E2E2E2E2E2E2E2E2E2E2E2E2E2E2E2E2E2E2E2E2E2E2E2E2E2E2E2E2E2E2E2E2E2E2E2E2E2E2E2F5E2E2E2E2E2E2E2E2E2E2E2E2E2E2E2E2E2E2E2E2F5F5E2E2E2E2E2E2E2E2E2E2E2E2E2E2E2E2E2E2E2E2F5E2E2E2E2E2E2E2E2E2E2E2E2E2E2E2E2E2
310
E2E2E2E2E2E2E2E2E2E2E2E2E2E2E2E2E2E2E2E2E2E2E2E2E2E2E2E2E2E2E2E2E2E2E2E2E2E2E2E2E2E2E2E2E2E2E2E2E2E2E2E2E2E2E2E2E2E2E2E2E2E2E2E2E2E2E2E2E2E2E2E2E2E2E2E2E2E2E2E2E2E2E2E2E2E2E2E2E2E2E2E2E2E2E2E2E2E2E2E2E2E2E2E2E2E2E2E2E2E2E2E2E2E2E2E2E2E2E2F5E2E2E2E2E2E2E2
310
E2E2E2E2E2E2E2E2E2E2E2E2E2F5F5E2E2E2F5E2E2E2E2E2E2E2E2E2E2E2E2E2E2E2E2F5E2E2E2E2E2E2E2E2E2E2E2E2E2E2E2E2E2E2E2E2E2E2E2E2E2E2E2E2E2E2E2E2E2E2E2E2E2E2E2E2E2E2E2E2E2E2E2E2E2E2E2E2E2E2E2E2E2E2E2E2E2E2E2E2E2E2E2E2E2E2E2E2E2E2E2E2E2E2E2E2E2E2E2E2E2E2E2E2E2E2E2
310
E2E2E2E2E2E2E2E2E2E2E2E2E2E2E2E2E2E2E2E2E2E2E2E2E2E2E2E2E2E2E2E2E2E2E2E2E2E2E2E2E2E2E2E2E2F5E2E2E2E2E2E2E2E2E2E2E2E2E2E2E2E2F5E2E2E2F5F5E2E2E2F5E2E2E2E2E2E2E2E2E2E2E2E2E2E2E2E2F5E2E2E2E2E2E2E2E2E2E2E2E2E2E2E2E2E2E2E2E2E2E2E2E2E2E2E2E2E2E2E2E2E2E2E2E2E2E2
310
E2E2E2E2E2E2E2E2E2E2E2E2E2E2E2E2E2E2E2E2E2E2E2E2E2E2E2E2E2E2E2E2E2E2E2E2E2E2E2E2E2E2E2E2E2E2E2E2E2E2E2E2E2E2E2E2E2E2E2E2E2E2E2E2E2E2E2E2E2E2E2E2E2E2E2E2E2E2E2E2E2E2E2E2E2E2E2E2E2E2E2E2E2E2E2E2E2E2F5E2E2E2E2E2E2E2E2E2E2E2E2E2E2E2E2F5E2E2E2F5F5E2E2E2F5E2E2
310
E2E2E2E2E2E2E2E2E2E2E2E2E2E2F5E2E2E2E2E2E2E2E2E2E2E2E2E2E2E2E2E2E2E2E2E2E2E2E2E2E2E2E2E2E2E2E2E2E2E2E2E2E2E2E2E2E2E2E2E2E2E2E2E2E2E2E2E2E2E2E2E2E2E2E2E2E2E2E2E2E2E2E2E2E2E2E2E2E2E2E2E2E2E2E2E2E2E2E2E2E2E2E2E2E2E2E2E2E2E2E2E2E2E2E2E2E2E2E2E2E2E2E2E2E2E2E2
310
E2E2E2E2E2E2E2E2E2E2E2E2E2E2E2E2E2E2E2E2E2E2E2E2F5E2E2E2E2E2E2E2E2E2E2E2E2E2E2E2E2F5E2E2E2F5F5E2E2E2F5E2E2E2E2E2E2E2E2E2E2E2E2E2E2E2E2F5E2E2E2E2E2E2E2E2E2E2E2E2E2E2E2E2E2E2E2E2E2E2E2E2E2E2E2E2E2E2E2E2E2E2E2E2E2E2E2E2E2E2E2E2E2E2E2E2E2E2E2E2E2E2E2E2E2E2E2
310
E2E2E2E2E2E2E2E2E2E2E2E2E2E2E2E2E2E2E2E2E2E2E2E2E2E2E2E2E2E2E2E2E2E2E2E2E2E2E2E2E2E2E2E2E2E2E2E2E2E2E2E2E2E2E2E2E2E2E2E2E2E2E2E2E2E2E2E2E2E2E2E2E2E2E2E2E2F5E2E2E2E2E2E2E2E2E2E2E2E2E2E2E2E2F5E2E2E2F5F5E2E2E2F5E2E2E2E2E2E2E2E2E2E2E2E2E2E2E2E2F5E2E2E2E2E2E2
310
E2E2E2E2E2E2E2E2E2E2E2E2E2E2E2E2E2E2E2E2E2E2E2E2E2E2E2E2E2E2E2E2E2E2E2E2E2E2E2E2E2E2E2E2E2E2E2E2E2E2E2E2E2E2E2E2E2E2E2E2E2E2E2E2E2E2E2E2E2E2E2E2E2E2E2E2E2E2E2E2E2E2E2E2E2E2E2E2E2E2E2E2E2E2E2E2E2E2E2E2E2E2E2E2E2E2E2E2E2E2E2E2E2E2E2E2E2E2E2E2E2E2E2E2E2E2E2
310
E2E2E2F5E2E2E2E2E2E2E2E2E2E2E2E2E2E2E2E2F5E2E2E2F5F5E2E2E2F5E2E2E2E2E2E2E2E2E2E2E2E2E2E2E2E2F5E2E2E2E2E2E2E2E2E2E2E2E2E2E2E2E2E2E2E2E2E2E2E2E2E2E2E2E2E2E2E2E2E2E2E2E2E2E2E2E2E2E2E2E2E2E2E2E2E2E2E2E2E2E2E2E2E2E2E2E2E2E2E2E2E2E2E2E2E2E2E2E2E2E2E2E2E2E2E2E2
310
E2E2E2E2E2E2E2E2E2E2E2E2E2E2E2E2E2E2E2E2E2E2E2E2E2E2E2E2E2E2E2E2E2E2E2E2E2E2E2E2E2E2E2E2E2E2E2E2E2E2E2E2E2E2E2E2F5E2E2E2E2E2E2E2E2E2E2E2E2E2E2E2E2F5E2E2E2F5F5E2E2E2F5E2E2E2E2E2E2E2E2E2E2E2E2E2E2E2E2F5E2E2E2E2E2E2E2E2E2E2E2E2E2E2E2E2E2E2E2E2E2E2E2E2E2E2E2
310
E2E2E2E2E2E2E2E2E2E2E2E2E2E2E2E2E2E2E2E2E2E2E2E2E2E2E2E2E2E2E2E2E2E2E2E2E2E2E2E2E2E2E2E2E2E2E2E2E2E2E2E2E2E2E2E2E2E2E2E2E2E2E2E2E2E2E2E2E2E2E2E2E2E2E2E2E2E2E2E2E2E2E2E2E2E2E2E2E2E2E2E2E2E2E2E2E2E2E2E2E2E2E2E2E2E2E2E2E2F5E2E2E2E2E2E2E2E2E2E2E2E2E2E2E2E2F5
310
E2E2E2F5F5E2E2E2F5E2E2E2E2E2E2E2E2E2E2E2E2E2E2E2E2F5E2E2E2E2E2E2E2E2E2E2E2E2E2E2E2E2E2E2E2E2E2E2E2E2E2E2E2E2E2E2E2E2E2E2E2E2E2E2E2E2E2E2E2E2E2E2E2E2E2E2E2E2E2E2E2E2E2E2E2E2E2E2E2E2E2E2E2E2E2E2E2E2E2E2E2E2E2E2E2E2E2E2E2E2E2E2E2E2E2E2E2E2E2E2E2E2E2E2E2E2E2
310
E2E2E2E2E2E2E2E2E2E2E2E2E2E2E2E2E2E2E2E2E2E2E2E2E2E2E2E2E2E2E2E2E2E2E2F5E2E2E2E2E2E2E2E2E2E2E2E2E2E2E2E2F5E2E2E2F5F5E2E2E2F5E2E2E2E2E2E2E2E2E2E2E2E2E2E2E2E2F5E2E2E2E2E2E2E2E2E2E2E2E2E2E2E2E2E2E2E2E2E2E2E2E2E2E2E2E2E2E2E2E2E2E2E2E2E2E2E2E2E2E2E2E2E2E2E2E2
310
E2E2E2E2E2E2E2E2E2E2E2E2E2E2E2E2E2E2E2E2E2E2E2E2E2E2E2E2E2E2E2E2E2E2E2E2E2E2E2E2E2E2E2E2E2E2E2E2E2E2E2E2E2E2E2E2E2E2E2E2E2E2E2E2E2E2E2E2E2E2E2E2E2E2E2E2E2E2E2E2E2E2E2E2E2E2E2E2F5E2E2E2E2E2E2E2E2E2E2E2E2E2E2E2E2F5E2E2E2F5F5E2E2E2F5E2E2E2E2E2E2E2E2E2E2E2E2
310
E2E2E2E2F5E2E2E2E2E2E2E2E2E2E2E2E2E2E2E2E2E2E2E2E2E2E2E2E2E2E2E2E2E2E2E2E2E2E2E2E2E2E2E2E2E2E2E2E2E2E2E2E2E2E2E2E2E2E2E2E2E2E2E2E2E2E2E2E2E2E2E2E2E2E2E2E2E2E2E2E2E2E2E2E2E2E2E2E2E2E2E2E2E2E2E2E2E2E2E2E2E2E2E2E2E2E2E2E2E2E2E2E2E2E2E2E2E2E2E2E2E2E2E2E2E2E2
310
E2E2E2E2E2E2E2E2E2E2E2E2E2E2F5E2E2E2E2E2E2E2E2E2E2E2E2E2E2E2E2F5E2E2E2F5F5E2E2E2F5E2E2E2E2E2E2E2E2E2E2E2E2E2E2E2E2F5E2E2E2E2E2E2E2E2E2E2E2E2E2E2E2E2E2E2E2E2E2E2E2E2E2E2E2E2E2E2E2E2E2E2E2E2E2E2E2E2E2E2E2E2E2E2E2E2E2E2E2E2E2E2E2E2E2E2E2E2E2E2E2E2E2E2E2E2E2
310
E2E2E2E2E2E2E2E2E2E2E2E2E2E2E2E2E2E2E2E2E2E2E2E2E2E2E2E2E2E2E2E2E2E2E2E2E2E2E2E2E2E2E2E2E2E2E2E2E2E2E2E2E2E2E2E2E2E2E2E2E2E2E2E2E2E2E2F5E2E2E2E2E2E2E2E2E2E2E2E2E2E2E2E2F5E2E2E2F5F5E2E2E2F5E2E2E2E2E2E2E2E2E2E2E2E2E2E2E2E2F5E2E2E2E2E2E2E2E2E2E2E2E2E2E2E2E2
310
E2E2E2E2E2E2E2E2E2E2E2E2E2E2E2E2E2E2E2E2E2E2E2E2E2E2E2E2E2E2E2E2E2E2E2E2E2E2E2E2E2E2E2E2E2E2E2E2E2E2E2E2E2E2E2E2E2E2E2E2E2E2E2E2E2E2E2E2E2E2E2E2E2E2E2E2E2E2E2E2E2E2E2E2E2E2E2E2E2E2E2E2E2E2E2E2E2E2E2E2E2E2E2E2E2E2E2E2E2E2E2E2E2E2E2E2E2E2E2E2F5E2E2E2E2E2E2
310
E2E2E2E2E2E2E2E2E2E2F5E2E2E2F5F5E2E2E2F5E2E2E2E2E2E2E2E2E2E2E2E2E2E2E2E2F5E2E2E2E2E2E2E2E2E2E2E2E2E2E2E2E2E2E2E2E2E2E2E2E2E2E2E2E2E2E2E2E2E2E2E2E2E2E2E2E2E2E2E2E2E2E2E2E2E2E2E2E2E2E2E2E2E2E2E2E2E2E2E2E2E2E2E2E2E2E2E2E2E2E2E2E2E2E2E2E2E2E2E2E2E2E2E2E2E2E2
310
E2E2E2E2E2E2E2E2E2E2E2E2E2E2E2E2E2E2E2E2E2E2E2E2E2E2E2E2E2E2E2E2E2E2E2E2E2E2E2E2E2E2E2E2E2E2F5E2E2E2E2E2E2E2E2E2E2E2E2E2E2E2E2F5E2E2E2F5F5E2E2E2F5E2E2E2E2E2E2E2E2E2E2E2E2E2E2E2E2F5E2E2E2E2E2E2E2E2E2E2E2E2E2E2E2E2E2E2E2E2E2E2E2E2E2E2E2E2E2E2E2E2E2E2E2E2E2
310
E2E2E2E2E2E2E2E2E2E2E2E2E2E2E2E2E2E2E2E2E2E2E2E2E2E2E2E2E2E2E2E2E2E2E2E2E2E2E2E2E2E2E2E2E2E2E2E2E2E2E2E2E2E2E2E2E2E2E2E2E2E2E2E2E2E2E2E2E2E2E2E2E2E2E2E2E2E2E2E2E2E2E2E2E2E2E2E2E2E2E2E2E2E2E2E2E2E2E2F5E2E2E2E2E2E2E2E2E2E2E2E2E2E2E2E2F5E2E2E2F5F5E2E2E2F5E2
310
E2E2E2E2E2E2E2E2E2E2E2E2E2E2E2F5E2E2E2E2E2E2E2E2E2E2E2E2E2E2E2E2E2E2E2E2E2E2E2E2E2E2E2E2E2E2E2E2E2E2E2E2E2E2E2E2E2E2E2E2E2E2E2E2E2E2E2E2E2E2E2E2E2E2E2E2E2E2E2E2E2E2E2E2E2E2E2E2E2E2E2E2E2E2E2E2E2E2E2E2E2E2E2E2E2E2E2E2E2E2E2E2E2E2E2E2E2E2E2E2E2E2E2E2E2E2E2
310
E2E2E2E2E2E2E2E2E2E2E2E2E2E2E2E2E2E2E2E2E2E2E2E2E2F5E2E2E2E2E2E2E2E2E2E2E2E2E2E2E2E2F5E2E2E2F5F5E2E2E2F5E2E2E2E2E2E2E2E2E2E2E2E2E2E2E2E2F5E2E2E2E2E2E2E2E2E2E2E2E2E2E2E2E2E2E2E2E2E2E2E2E2E2E2E2E2E2E2E2E2E2E2E2E2E2E2E2E2E2E2E2E2E2E2E2E2E2E2E2E2E2E2E2E2E2E2
310
E2E2E2E2E2E2E2E2E2E2E2E2E2E2E2E2E2E2E2E2E2E2E2E2E2E2E2E2E2E2E2E2E2E2E2E2E2E2E2E2E2E2E2E2E2E2E2E2E2E2E2E2E2E2E2E2E2E2E2E2E2E2E2E2E2E2E2E2E2E2E2E2E2E2E2E2E2E2F5E2E2E2E2E2E2E2E2E2E2E2E2E2E2E2E2F5E2E2E2F5F5E2E2E2F5E2E2E2E2E2E2E2E2E2E2E2E2E2E2E2E2F5E2E2E2E2E2
310
E2E2E2E2E2E2E2E2E2E2E2E2E2E2E2E2E2E2E2E2E2E2E2E2E2E2E2E2E2E2E2E2E2E2E2E2E2E2E2E2E2E2E2E2E2E2E2E2E2E2E2E2E2E2E2E2E2E2E2E2E2E2E2E2E2E2E2E2E2E2E2E2E2E2E2E2E2E2E2E2E2E2E2E2E2E2E2E2E2E2E2E2E2E2E2E2E2E2E2E2E2E2E2E2E2E2E2E2E2E2E2E2E2E2E2E2E2E2E2E2E2E2E2E2E2E2E2
310
E2E2E2E2F5E2E2E2E2E2E2E2E2E2E2E2E2E2E2E2E2F5E2E2E2F5F5E2E2E2E2E2E2E2E2E2E2E2E2E2E2E2E2E2E2E2E2F5E2E2E2E2E2E2E2E2E2E2E2E2E2E2E2E2E2E2E2E2E2E2E2E2E2E2E2E2E2E2E2E2E2E2E2E2E2E2E2E2E2E2E2E2E2E2E2E2E2E2E2E2E2E2E2E2E2E2E2E2E2E2E2E2E2E2E2E2E2E2E2E2E2E2E2E2E2E2E2
310
E2E2E2E2E2E2E2E2E2E2E2E2E2E2E2E2E2E2E2E2E2E2E2E2E2E2E2E2E2E2E2E2E2E2E2E2E2E2E2E2E2E2E2E2E2E2E2E2E2E2E2E2E2E2E2E2E2F5E2E2E2E2E2E2E2E2E2E2E2E2E2E2E2E2E2E2E2E2F5F5E2E2E2E2E2E2E2E2E2E2E2E2E2E2E2E2E2E2E2E2F5E2E2E2E2E2E2E2E2E2E2E2E2E2E2E2E2E2E2E2E2E2E2E2E2E2E2
310
E2E2E2E2E2E2E2E2E2E2E2E2E2E2E2E2E2E2E2E2E2E2E2E2E2E2E2E2E2E2E2E2E2E2E2E2E2E2E2E2E2E2E2E2E2E2E2E2E2E2E2E2E2E2E2E2E2E2E2E2E2E2E2E2E2E2E2E2E2E2E2E2E2E2E2E2E2E2E2E2E2E2E2E2E2E2E2E2E2E2E2E2E2E2E2E2E2E2E2E2E2E2E2E2E2E2E2E2E2E2F5E2E2E2E2E2E2E2E2E2E2E2E2E2E2E2E2
310
E2E2E2E2F5F5E2E2E2E2E2E2E2E2E2E2E2E2E2E2E2E2E2E2E2E2F5E2E2E2E2E2E2E2E2E2E2E2E2E2E2E2E2E2E2E2E2E2E2E2E2E2E2E2E2E2E2E2E2E2E2E2E2E2E2E2E2E2E2E2E2E2E2E2E2E2E2E2E2E2E2E2E2E2E2E2E2E2E2E2E2E2E2E2E2E2E2E2E2E2E2E2E2E2E2E2E2E2E2E2E2E2E2E2E2E2E2E2E2E2E2E2E2E2E2E2E2
310
E2E2E2E2E2E2E2E2E2E2E2E2E2E2E2E2E2E2E2E2E2E2E2E2E2E2E2E2E2E2E2E2E2E2E2E2F5E2E2E2E2E2E2E2E2E2E2E2E2E2E2E2E2E2E2E2E2F5F5E2E2E2E2E2E2E2E2E2E2E2E2E2E2E2E2E2E2E2E2F5E2E2E2E2E2E2E2E2E2E2E2E2E2E2E2E2E2E2E2E2E2E2E2E2E2E2E2E2E2E2E2E2E2E2E2E2E2E2E2E2E2E2E2E2E2E2E2
310
E2E2E2E2E2E2E2E2E2E2E2E2E2E2E2E2E2E2E2E2E2E2E2E2E2E2E2E2E2E2E2E2E2E2E2E2E2E2E2E2E2E2E2E2E2E2E2E2E2E2E2E2E2E2E2E2E2E2E2E2E2E2E2E2E2E2E2E2E2E2E2E2E2E2E2E2E2E2E2E2E2E2E2E2E2E2E2E2E2F5E2E2E2E2E2E2E2E2E2E2E2E2E2E2E2E2E2E2E2E2F5F5E2E2E2E2E2E2E2E2E2E2E2E2E2E2E2
310
E2E2E2E2E2F5F5F5F5F5F5F5F5F5F5F5F5F5F5F5F5F5F5F5F5F5F5F5F5F5F5F5F5F5F5F5F5F5F5F5F5F5F5F5F5F5F5F5F5F5F5F5F5F5F5F5F5F5F5F5F5F5F5F5F5F5F5F5F5F5F5F5F5F5F5F5F5F5F5F5F5F5F5F5F5F5F5F5F5F5F5F5F5F5F5F5F5F5F5F5F5F5F5F5F5F5F5F5F5F5F5F5F5F5F5F5F5F5F5F5F5F5F5F5F5F5F5
310
F5F5F5F5F5F5F5F5F5F5F5F5F5F5F5F5E2E2E2E2E2E2E2E2E2E2E2E2E2E2E2E2E2E2E2E2F5F5E2E2E2E2E2E2E2E2E2E2E2E2E2E2E2E2E2E2E2E2E2E2E2E2E2E2E2E2E2E2E2E2E2E2E2E2E2E2E2E2E2E2E2E2E2E2E2E2E2E2E2E2E2E2E2E2E2E2E2E2E2E2E2E2E2E2E2E2E2E2E2E2E2E2E2E2E2E2E2E2E2E2E2E2E2E2E2E2E2
310
E2E2E2E2E2E2E2E2E2E2E2E2E2E2E2E2E2E2E2E2E2E2E2E2E2E2E2E2E2E2E2E2E2E2E2E2E2E2E2E2E2E2E2E2E2E2E2E2E2E2E2E2E2E2E2E2E2E2E2E2E2E2E2E2E2E2E2E2E2E2E2E2E2E2E2E2E2E2E2E2E2E2E2E2E2E2E2E2E2F5F5E2E2E2E2E2E2E2E2E2E2E2E2E2E2E2E2E2E2E2E2E2E2E2E2E2E2E2E2E2E2E2E2E2E2E2E2
310
E2E2E2E2E2E2E2E2E2E2E2E2E2E2E2E2E2E2E2E2E2E2E2E2E2E2E2E2E2E2E2E2E2E2E2E2E2E2E2E2E2E2E2E2E2E2E2E2E2E2E2E2E2E2E2E2E2E2E2E2E2E2E2E2E2E2E2E2E2E2E2E2E2E2E2E2E2E2E2E2E2E2E2E2E2E2E2E2E2E2E2E2E2E2E2E2E2E2E2E2E2E2E2E2E2E2E2E2E2E2E2E2E2E2E2E2E2E2E2E2E2E2E2E2E2E2E2
310
E2E2E2E2E2E2E2E2E2E2E2E2E2E2E2F5F5E2E2E2E2E2E2E2E2E2E2E2E2E2E2E2E2E2E2E2E2E2E2E2E2E2E2E2E2E2E2E2E2E2E2E2E2E2E2E2E2E2E2E2E2E2E2E2E2E2E2E2E2E2E2E2E2E2E2E2E2E2E2E2E2E2E2E2E2E2E2E2E2E2E2E2E2E2E2E2E2E2E2E2E2E2E2E2E2E2E2E2E2E2E2E2E2E2E2E2E2E2E2E2E2E2E2E2E2E2E2
310
E2E2E2E2E2E2E2E2E2E2E2E2E2E2E2E2E2E2E2E2E2E2E2E2E2E2E2E2E2E2E2E2E2E2E2E2E2E2E2E2E2E2E2E2E2E2E2E2E2E2E2E2E2E2E2E2E2E2E2E2E2E2E2E2E2E2E2E2F5F5E2E2E2E2E2E2E2E2E2E2E2E2E2E2E2E2E2E2E2E2E2E2E2E2E2E2E2E2E2E2E2E2E2E2E2E2E2E2E2E2E2E2E2E2E2E2E2E2E2E2E2E2E2E2E2E2E2
310
E2E2E2E2E2E2E2E2E2E2E2E2E2E2E2E2E2E2E2E2E2E2E2E2E2E2E2E2E2E2E2E2E2E2E2E2E2E2E2E2E2E2E2E2E2E2E2E2E2E2E2E2E2E2E2E2E2E2E2E2E2E2E2E2E2E2E2E2E2E2E2E2E2E2E2E2E2E2E2E2E2E2E2E2E2E2E2E2E2E2E2E2E2E2E2E2E2E2E2E2E2E2E2E2E2E2E2E2E2E2E2E2E2E2E2E2E2E2E2E2E2F5F5E2E2E2F5
310
E2E2E2E2E2E2E2E2E2E2E2E2E2E2E2E2E2E2E2E2E2E2E2E2E2E2E2E2E2E2E2E2E2E2E2E2E2E2E2E2E2E2E2E2E2E2E2E2E2E2E2E2E2E2E2E2E2E2E2E2E2E2E2E2E2E2E2E2E2E2E2E2E2E2E2E2E2E2E2E2E2E2E2E2E2E2E2E2E2E2E2E2E2E2E2E2E2E2E2E2E2E2E2E2E2E2E2E2E2E2E2E2E2E2E2E2E2E2E2E2E2E2E2E2E2E2E2
310
E2E2E2E2E2E2E2E2E2E2E2E2E2E2E2E2E2E2E2E2E2E2E2E2E2E2E2E2E2E2E2E2E2E2E2E2E2E2E2E2E2E2E2F5E2E2E2F5F5E2E2E2F5E2E2E2E2E2E2E2E2E2E2E2E2E2E2E2E2E2E2E2E2E2E2E2E2E2E2E2E2E2E2E2E2E2E2E2E2E2E2E2E2E2E2E2E2E2E2E2E2E2E2E2E2E2E2E2E2E2E2E2E2E2E2E2E2E2E2E2E2E2E2E2E2E2E2
310
E2E2E2E2E2E2E2E2E2E2E2E2E2E2E2E2E2E2E2E2E2E2E2E2E2E2E2E2E2E2E2E2E2E2E2E2E2E2E2E2E2E2E2E2E2E2E2E2E2E2E2E2E2E2E2E2E2E2E2E2E2E2E2E2E2E2E2E2E2E2E2E2E2E2E2E2E2E2E2E2E2E2E2E2E2E2E2E2E2E2E2E2E2E2E2E2F5E2E2E2F5F5E2E2E2F5E2E2E2E2E2E2E2E2E2E2E2E2E2E2E2E2E2E2E2E2E2
310
E2E2E2E2E2E2E2E2E2E2E2E2E2E2E2E2E2E2E2E2E2E2E2E2E2E2E2E2E2E2E2E2E2E2E2E2E2E2E2E2E2E2E2E2E2E2E2E2E2E2E2E2E2E2E2E2E2E2E2E2E2E2E2E2E2E2E2E2E2E2E2E2E2E2E2E2E2E2E2E2E2E2E2E2E2E2E2E2E2E2E2E2E2E2E2E2E2E2E2E2E2E2E2E2E2E2E2E2E2E2E2E2E2E2E2E2E2E2E2E2E2E2E2E2E2E2E2
310
E2E2E2E2E2E2E2E2E2E2E2E2E2E2E2E2E2E2E2E2E2E2F5E2E2E2F5F5E2E2E2F5E2E2E2E2E2E2E2E2E2E2E2E2E2E2E2E2E2E2E2E2E2E2E2E2E2E2E2E2E2E2E2E2E2E2E2E2E2E2E2E2E2E2E2E2E2E2E2E2E2E2E2E2E2E2E2E2E2E2E2E2E2E2E2E2E2E2E2E2E2E2E2E2E2E2E2E2E2E2E2E2E2E2E2E2E2E2E2E2E2E2E2E2E2E2E2
310
E2E2E2E2E2E2E2E2E2E2E2E2E2E2E2E2E2E2E2E2E2E2E2E2E2E2E2E2E2E2E2E2E2E2E2E2E2E2E2E2E2E2E2E2E2E2E2E2E2E2E2E2E2E2E2E2E2E2E2E2E2E2E2E2E2E2E2E2E2E2E2E2E2E2E2F5E2E2E2F5F5E2E2E2F5E2E2E2E2E2E2E2E2E2E2E2E2E2E2E2E2E2E2E2E2E2E2E2E2E2E2E2E2E2E2E2E2E2E2E2E2E2E2E2E2E2E2
310
E2E2E2E2E2E2E2E2E2E2E2E2E2E2E2E2E2E2E2E2E2E2E2E2E2E2E2E2E2E2E2E2E2E2E2E2E2E2E2E2E2E2E2E2E2E2E2E2E2E2E2E2E2E2E2E2E2E2E2E2E2E2E2E2E2E2E2E2E2E2E2E2E2E2E2E2E2E2E2E2E2E2E2E2E2E2E2E2E2E2E2E2E2E2E2E2E2E2E2E2E2E2E2E2E2E2E2E2E2E2E2E2E2E2E2E2E2E2E2E2E2E2E2E2E2E2E2
310
E2F5E2E2E2F5F5E2E2E2F5E2E2E2E2E2E2E2E2E2E2E2E2E2E2E2E2E2E2E2E2E2E2E2E2E2E2E2E2E2E2E2E2E2E2E2E2E2E2E2E2E2E2E2E2E2E2E2E2E2E2E2E2E2E2E2E2E2E2E2E2E2E2E2E2E2E2E2E2E2E2E2E2E2E2E2E2E2E2E2E2E2E2E2E2E2E2E2E2E2E2E2E2E2E2E2E2E2E2E2E2E2E2E2E2E2E2E2E2E2E2E2E2E2E2E2E2
310
E2E2E2E2E2E2E2E2E2E2E2E2E2E2E2E2E2E2E2E2E2E2E2E2E2E2E2E2E2E2E2E2E2E2E2E2E2E2E2E2E2E2E2E2E2E2E2E2E2E2E2E2E2E2F5E2E2E2F5F5E2E2E2F5E2E2E2E2E2E2E2E2E2E2E2E2E2E2E2E2E2E2E2E2E2E2E2E2E2E2E2E2E2E2E2E2E2E2E2E2E2E2E2E2E2E2E2E2E2E2E2E2E2E2E2E2E2E2E2E2E2E2E2E2E2E2E2
310
E2E2E2E2E2E2E2E2E2E2E2E2E2E2E2E2E2E2E2E2E2E2E2E2E2E2E2E2E2E2E2E2E2E2E2E2E2E2E2E2E2E2E2E2E2E2E2E2E2E2E2E2E2E2E2E2E2E2E2E2E2E2E2E2E2E2E2E2E2E2E2E2E2E2E2E2E2E2E2E2E2E2E2E2E2E2E2E2E2E2E2E2E2E2E2E2E2E2E2E2E2E2E2E2E2E2E2F5E2E2E2F5F5E2E2E2F5E2E2E2E2E2E2E2E2E2E2
310
E2E2E2E2E2E2E2E2E2E2E2E2E2E2E2E2E2E2E2E2E2E2E2E2E2E2E2E2E2E2E2E2E2E2E2E2E2E2E2E2E2E2E2E2E2E2E2E2E2E2E2E2E2E2E2E2E2E2E2E2E2E2E2E2E2E2E2E2E2E2E2E2E2E2E2E2E2E2E2E2E2E2E2E2E2E2E2E2E2E2E2E2E2E2E2E2E2E2E2E2E2E2E2E2E2E2E2E2E2E2E2E2E2E2E2E2E2E2E2E2E2E2E2E2E2E2E2
310
E2E2E2E2E2E2E2E2E2E2E2E2E2E2E2E2E2E2E2E2E2E2E2E2E2E2E2E2E2E2E2E2E2F5E2E2E2F5F5E2E2E2F5F5F5F5F5F5F5F5E2E2E2E2E2E2E2E2E2F5F5F5F5F5F5F5F5F5F5F5F5F5F5F5F5E2E2E2E2E2E2E2E2E2F5F5F5F5F5F5F5F5F5F5F5F5F5F5F5E2E2E2E2E2E2E2E2E2F5F5F5F5F5F5F5F5F5F5F5F5F5F5F5F5E2E2E2
310
E2E2E2E2E2F5F5F5F5F5F5F5F5F5F5F5F5F5F5F5F5E2E2E2E2E2E2E2E2E2F5F5F5F5F5F5F5F5F5F5F5F5F5F5F5E2E2E2E2E2E2E2E2E2F5F5F5F5F5F5F5F5F5F5F5F5F5F5F5F5E2E2E2E2E2E2E2E2E2F5F5F5F5F5F5F5F5E2E2E2F5F5E2E2E2E2E2E2E2E2E2E2E2E2E2E2E2E2E2E2E2E2E2E2E2E2E2E2E2E2E2E2E2E2E2E2E2
310
E2E2E2E2E2E2E2E2E2E2E2E2E2E2E2E2E2E2E2E2E2E2E2E2E2E2E2E2E2E2E2E2E2E2E2E2E2E2E2E2E2E2E2E2E2E2E2E2E2E2E2E2E2E2E2E2E2E2E2E2E2E2E2E2E2E2E2E2E2E2E2E2E2E2E2E2E2E2E2E2E2E2E2E2E2E2E2E2E2E2E2E2E2E2E2E2E2E2E2E2E2E2E2E2E2E2E2E2E2E2E2E2E2E2E2E2E2E2E2E2E2E2E2E2E2E2E2
310
E2E2E2E2E2E2E2E2E2E2E2E2E2E2E2E2F5F5E2E2E2E2E2E2E2E2E2E2E2E2E2E2E2E2E2E2E2E2E2E2E2E2E2E2E2E2E2E2E2E2E2E2E2E2E2E2E2E2E2E2E2E2E2E2E2E2E2E2E2E2E2E2E2E2E2E2E2E2E2E2E2E2E2E2E2E2E2E2E2E2E2E2E2E2E2E2E2E2E2E2E2E2E2E2E2E2E2E2E2E2E2E2E2E2E2E2E2E2E2E2E2E2E2E2E2E2E2
310
E2E2E2E2E2E2E2E2E2E2E2E2E2E2E2E2E2E2E2E2E2E2E2E2E2E2E2E2E2E2E2E2E2E2E2E2E2E2E2E2E2E2E2E2E2E2E2E2E2E2E2E2E2E2E2E2E2E2E2E2E2E2E2E2E2E2E2E2E2F5F5E2E2E2E2E2E2E2E2E2E2E2E2E2E2E2E2E2E2E2E2E2E2E2E2E2E2E2E2E2E2E2E2E2E2E2E2E2E2E2E2E2E2E2E2E2E2E2E2E2E2E2E2E2E2E2E2
310
E2E2E2E2E2E2E2E2E2E2E2E2E2E2E2E2E2E2E2E2E2E2E2E2E2E2E2E2E2E2E2E2E2E2E2E2E2E2E2E2E2E2E2E2E2E2E2E2E2E2E2E2E2E2E2E2E2E2E2E2E2E2E2E2E2E2E2E2E2E2E2E2E2E2E2E2E2E2E2E2E2E2E2E2E2E2E2E2E2E2E2E2E2E2E2E2E2E2E2E2E2E2E2E2E2E2E2E2E2E2E2E2E2E2E2E2E2E2E2E2E2E2F5F5E2E2E2
310
E2E2E2E2E2E2E2E2E2E2E2E2E2E2E2E2E2E2E2E2E2E2E2E2E2E2E2E2E2E2E2E2E2E2E2E2E2E2E2E2E2E2E2E2E2E2E2E2E2E2E2E2E2E2E2E2E2E2E2E2E2E2E2E2E2E2E2E2E2E2E2E2E2E2E2E2E2E2E2E2E2E2E2E2E2E2E2E2E2E2E2E2E2E2E2E2E2E2E2E2E2E2E2E2E2E2E2E2E2E2E2E2E2E2E2E2E2E2E2E2E2E2E2E2E2E2E2
310
E2E2E2E2E2E2E2E2E2E2E2E2E2E2E2E2E2E2E2E2E2E2E2E2E2E2E2E2E2E2E2E2E2E2E2E2E2E2E2E2E2E2E2E2E2E2E2E2F5
  0
XRECORD
  5
56930
102
{ACAD_REACTORS
330
5692F
102
}
330
5692F
100
AcDbXrecord
280
     1
102
SHADEPLOT
 70
     0
102
SHADEPLOTRESLEVEL
 70
     2
102
SHADEPLOTCUSTOMDPI
 70
   300
  0
ENDSEC
  0
EOF
