  0
SECTION
  2
HEADER
  9
$ACADVER
  1
AC1015
  9
$ACADMAINTVER
 70
    20
  9
$DWGCODEPAGE
  3
ANSI_936
  9
$INSBASE
 10
0.0
 20
0.0
 30
0.0
  9
$EXTMIN
 10
-121.4468645216429
 20
-77.44924788673102
 30
0.0
  9
$EXTMAX
 10
403.3419581960898
 20
84.56961532674586
 30
0.0
  9
$LIMMIN
 10
0.0
 20
0.0
  9
$LIMMAX
 10
420.0
 20
297.0
  9
$ORTHOMODE
 70
     1
  9
$REGENMODE
 70
     1
  9
$FILLMODE
 70
     1
  9
$QTEXTMODE
 70
     0
  9
$MIRRTEXT
 70
     1
  9
$LTSCALE
 40
1.0
  9
$ATTMODE
 70
     1
  9
$TEXTSIZE
 40
3.5
  9
$TRACEWID
 40
1.0
  9
$TEXTSTYLE
  7
simplex
  9
$CLAYER
  8
0
  9
$CELTYPE
  6
ByLayer
  9
$CECOLOR
 62
   256
  9
$CELTSCALE
 40
1.0
  9
$DISPSILH
 70
     0
  9
$DIMSCALE
 40
0.0
  9
$DIMASZ
 40
3.5
  9
$DIMEXO
 40
0.0
  9
$DIMDLI
 40
0.38
  9
$DIMRND
 40
0.0
  9
$DIMDLE
 40
0.0
  9
$DIMEXE
 40
1.5
  9
$DIMTP
 40
0.0
  9
$DIMTM
 40
0.0
  9
$DIMTXT
 40
3.5
  9
$DIMCEN
 40
0.09
  9
$DIMTSZ
 40
0.0
  9
$DIMTOL
 70
     0
  9
$DIMLIM
 70
     0
  9
$DIMTIH
 70
     0
  9
$DIMTOH
 70
     0
  9
$DIMSE1
 70
     0
  9
$DIMSE2
 70
     0
  9
$DIMTAD
 70
     1
  9
$DIMZIN
 70
     8
  9
$DIMBLK
  1

  9
$DIMASO
 70
     1
  9
$DIMSHO
 70
     1
  9
$DIMPOST
  1

  9
$DIMAPOST
  1

  9
$DIMALT
 70
     0
  9
$DIMALTD
 70
     2
  9
$DIMALTF
 40
25.4
  9
$DIMLFAC
 40
1.0
  9
$DIMTOFL
 70
     0
  9
$DIMTVP
 40
0.0
  9
$DIMTIX
 70
     0
  9
$DIMSOXD
 70
     0
  9
$DIMSAH
 70
     0
  9
$DIMBLK1
  1

  9
$DIMBLK2
  1

  9
$DIMSTYLE
  2
\M+18352\M+18373\M+1815B - ISO-25
  9
$DIMCLRD
 70
   256
  9
$DIMCLRE
 70
   256
  9
$DIMCLRT
 70
   256
  9
$DIMTFAC
 40
1.0
  9
$DIMGAP
 40
2.299999999999998
  9
$DIMJUST
 70
     0
  9
$DIMSD1
 70
     0
  9
$DIMSD2
 70
     0
  9
$DIMTOLJ
 70
     1
  9
$DIMTZIN
 70
     8
  9
$DIMALTZ
 70
     0
  9
$DIMALTTZ
 70
     0
  9
$DIMUPT
 70
     0
  9
$DIMDEC
 70
     2
  9
$DIMTDEC
 70
     2
  9
$DIMALTU
 70
     2
  9
$DIMALTTD
 70
     2
  9
$DIMTXSTY
  7
simplex
  9
$DIMAUNIT
 70
     0
  9
$DIMADEC
 70
     0
  9
$DIMALTRND
 40
0.0
  9
$DIMAZIN
 70
     0
  9
$DIMDSEP
 70
    46
  9
$DIMATFIT
 70
     3
  9
$DIMFRAC
 70
     0
  9
$DIMLDRBLK
  1

  9
$DIMLUNIT
 70
     2
  9
$DIMLWD
 70
    -1
  9
$DIMLWE
 70
    -1
  9
$DIMTMOVE
 70
     0
  9
$LUNITS
 70
     2
  9
$LUPREC
 70
     4
  9
$SKETCHINC
 40
1.0
  9
$FILLETRAD
 40
0.5
  9
$AUNITS
 70
     0
  9
$AUPREC
 70
     0
  9
$MENU
  1
.
  9
$ELEVATION
 40
0.0
  9
$PELEVATION
 40
0.0
  9
$THICKNESS
 40
0.0
  9
$LIMCHECK
 70
     0
  9
$CHAMFERA
 40
10.0
  9
$CHAMFERB
 40
10.0
  9
$CHAMFERC
 40
20.0
  9
$CHAMFERD
 40
0.0
  9
$SKPOLY
 70
     0
  9
$TDCREATE
 40
2455489.391063368
  9
$TDUCREATE
 40
2455489.057730035
  9
$TDUPDATE
 40
2458573.050470914
  9
$TDUUPDATE
 40
2458572.717137581
  9
$TDINDWG
 40
2.7839367014
  9
$TDUSRTIMER
 40
2.7838808102
  9
$USRTIMER
 70
     1
  9
$ANGBASE
 50
0.0
  9
$ANGDIR
 70
     0
  9
$PDMODE
 70
     0
  9
$PDSIZE
 40
0.0
  9
$PLINEWID
 40
0.0
  9
$SPLFRAME
 70
     0
  9
$SPLINETYPE
 70
     6
  9
$SPLINESEGS
 70
     8
  9
$HANDSEED
  5
56EDC
  9
$SURFTAB1
 70
     6
  9
$SURFTAB2
 70
     6
  9
$SURFTYPE
 70
     6
  9
$SURFU
 70
     6
  9
$SURFV
 70
     6
  9
$UCSBASE
  2

  9
$UCSNAME
  2

  9
$UCSORG
 10
0.0
 20
0.0
 30
0.0
  9
$UCSXDIR
 10
1.0
 20
0.0
 30
0.0
  9
$UCSYDIR
 10
0.0
 20
1.0
 30
0.0
  9
$UCSORTHOREF
  2

  9
$UCSORTHOVIEW
 70
     0
  9
$UCSORGTOP
 10
0.0
 20
0.0
 30
0.0
  9
$UCSORGBOTTOM
 10
0.0
 20
0.0
 30
0.0
  9
$UCSORGLEFT
 10
0.0
 20
0.0
 30
0.0
  9
$UCSORGRIGHT
 10
0.0
 20
0.0
 30
0.0
  9
$UCSORGFRONT
 10
0.0
 20
0.0
 30
0.0
  9
$UCSORGBACK
 10
0.0
 20
0.0
 30
0.0
  9
$PUCSBASE
  2

  9
$PUCSNAME
  2

  9
$PUCSORG
 10
0.0
 20
0.0
 30
0.0
  9
$PUCSXDIR
 10
1.0
 20
0.0
 30
0.0
  9
$PUCSYDIR
 10
0.0
 20
1.0
 30
0.0
  9
$PUCSORTHOREF
  2

  9
$PUCSORTHOVIEW
 70
     0
  9
$PUCSORGTOP
 10
0.0
 20
0.0
 30
0.0
  9
$PUCSORGBOTTOM
 10
0.0
 20
0.0
 30
0.0
  9
$PUCSORGLEFT
 10
0.0
 20
0.0
 30
0.0
  9
$PUCSORGRIGHT
 10
0.0
 20
0.0
 30
0.0
  9
$PUCSORGFRONT
 10
0.0
 20
0.0
 30
0.0
  9
$PUCSORGBACK
 10
0.0
 20
0.0
 30
0.0
  9
$USERI1
 70
     0
  9
$USERI2
 70
     0
  9
$USERI3
 70
     0
  9
$USERI4
 70
     0
  9
$USERI5
 70
     0
  9
$USERR1
 40
0.0
  9
$USERR2
 40
0.0
  9
$USERR3
 40
0.0
  9
$USERR4
 40
0.0
  9
$USERR5
 40
0.0
  9
$WORLDVIEW
 70
     1
  9
$SHADEDGE
 70
     3
  9
$SHADEDIF
 70
    70
  9
$TILEMODE
 70
     1
  9
$MAXACTVP
 70
    64
  9
$PINSBASE
 10
0.0
 20
0.0
 30
0.0
  9
$PLIMCHECK
 70
     0
  9
$PEXTMIN
 10
26.66999878883364
 20
20.31999878883365
 30
0.0
  9
$PEXTMAX
 10
240.0299890995025
 20
182.8799890995025
 30
0.0
  9
$PLIMMIN
 10
-6.350006103515625
 20
-6.349999904632567
  9
$PLIMMAX
 10
273.0499877929688
 20
209.5499939918518
  9
$UNITMODE
 70
     0
  9
$VISRETAIN
 70
     1
  9
$PLINEGEN
 70
     0
  9
$PSLTSCALE
 70
     1
  9
$TREEDEPTH
 70
  3020
  9
$CMLSTYLE
  2
Standard
  9
$CMLJUST
 70
     0
  9
$CMLSCALE
 40
20.0
  9
$PROXYGRAPHICS
 70
     1
  9
$MEASUREMENT
 70
     1
  9
$CELWEIGHT
370
    -1
  9
$ENDCAPS
280
     0
  9
$JOINSTYLE
280
     0
  9
$LWDISPLAY
290
     0
  9
$INSUNITS
 70
     4
  9
$HYPERLINKBASE
  1

  9
$STYLESHEET
  1

  9
$XEDIT
290
     1
  9
$CEPSNTYPE
380
     0
  9
$PSTYLEMODE
290
     1
  9
$FINGERPRINTGUID
  2
{601DDA01-5B13-4A4C-8F56-1333B78D855B}
  9
$VERSIONGUID
  2
{8799CFCF-D2FE-49EA-B07D-C9F5FDA7CC48}
  9
$EXTNAMES
290
     1
  9
$PSVPSCALE
 40
0.0
  9
$OLESTARTUP
290
     0
  0
ENDSEC
  0
SECTION
  2
CLASSES
  0
CLASS
  1
ACDBDICTIONARYWDFLT
  2
AcDbDictionaryWithDefault
  3
ObjectDBX Classes
 90
        0
280
     0
281
     0
  0
CLASS
  1
ACDBPLACEHOLDER
  2
AcDbPlaceHolder
  3
ObjectDBX Classes
 90
        0
280
     0
281
     0
  0
CLASS
  1
LAYOUT
  2
AcDbLayout
  3
ObjectDBX Classes
 90
        0
280
     0
281
     0
  0
CLASS
  1
DICTIONARYVAR
  2
AcDbDictionaryVar
  3
ObjectDBX Classes
 90
        0
280
     0
281
     0
  0
CLASS
  1
TABLESTYLE
  2
AcDbTableStyle
  3
ObjectDBX Classes
 90
     2047
280
     0
281
     0
  0
CLASS
  1
SORTENTSTABLE
  2
AcDbSortentsTable
  3
ObjectDBX Classes
 90
        0
280
     0
281
     0
  0
CLASS
  1
DIMASSOC
  2
AcDbDimAssoc
  3
"AcDbDimAssoc|Product Desc:     AcDim ARX App For Dimension|Company:          Autodesk, Inc.|WEB Address:      www.autodesk.com"
 90
        0
280
     0
281
     0
  0
CLASS
  1
ACAD_EVALUATION_GRAPH
  2
AcDbEvalGraph
  3
ObjectDBX Classes
 90
    33921
280
     0
281
     0
  0
CLASS
  1
ACAECUSTOBJ
  2
AcAeEditorObj
  3
AcAeEditorObj
 90
    33792
280
     0
281
     0
  0
CLASS
  1
ACDB_DYNAMICBLOCKPURGEPREVENTER_VERSION
  2
AcDbDynamicBlockPurgePreventer
  3
ObjectDBX Classes
 90
    33921
280
     0
281
     0
  0
ENDSEC
  0
SECTION
  2
TABLES
  0
TABLE
  2
VPORT
  5
8
330
0
100
AcDbSymbolTable
 70
     2
  0
VPORT
  5
56ECD
330
8
100
AcDbSymbolTableRecord
100
AcDbViewportTableRecord
  2
*Active
 70
     0
 10
0.0
 20
0.0
 11
1.0
 21
1.0
 12
-7.977164476969704
 22
23.01610341444078
 13
0.0
 23
0.0
 14
10.0
 24
10.0
 15
10.0
 25
10.0
 16
0.0
 26
0.0
 36
1.0
 17
0.0
 27
0.0
 37
0.0
 40
290.1789820276182
 41
1.508350730688935
 42
50.0
 43
0.0
 44
0.0
 50
0.0
 51
0.0
 71
     0
 72
  1000
 73
     1
 74
     1
 75
     0
 76
     0
 77
     0
 78
     0
281
     0
 65
     1
110
0.0
120
0.0
130
0.0
111
1.0
121
0.0
131
0.0
112
0.0
122
1.0
132
0.0
 79
     0
146
0.0
  0
ENDTAB
  0
TABLE
  2
LTYPE
  5
5
330
0
100
AcDbSymbolTable
 70
     4
  0
LTYPE
  5
14
330
5
100
AcDbSymbolTableRecord
100
AcDbLinetypeTableRecord
  2
ByBlock
 70
     0
  3

 72
    65
 73
     0
 40
0.0
  0
LTYPE
  5
15
330
5
100
AcDbSymbolTableRecord
100
AcDbLinetypeTableRecord
  2
ByLayer
 70
     0
  3

 72
    65
 73
     0
 40
0.0
  0
LTYPE
  5
16
330
5
100
AcDbSymbolTableRecord
100
AcDbLinetypeTableRecord
  2
Continuous
 70
     0
  3
Solid line
 72
    65
 73
     0
 40
0.0
  0
LTYPE
  5
D7
330
5
100
AcDbSymbolTableRecord
100
AcDbLinetypeTableRecord
  2
HIDDEN
 70
     0
  3
Hidden __ __ __ __ __ __ __ __ __ __ __ __ __ _
 72
    65
 73
     2
 40
9.524999999999996
 49
6.349999999999997
 74
     0
 49
-3.174999999999998
 74
     0
  0
LTYPE
  5
D9
330
5
100
AcDbSymbolTableRecord
100
AcDbLinetypeTableRecord
  2
CENTER
 70
     0
  3
Center ____ _ ____ _ ____ _ ____ _ ____ _ ____
 72
    65
 73
     4
 40
50.8
 49
31.75
 74
     0
 49
-6.349999999999997
 74
     0
 49
6.349999999999997
 74
     0
 49
-6.349999999999997
 74
     0
  0
LTYPE
  5
35815
330
5
100
AcDbSymbolTableRecord
100
AcDbLinetypeTableRecord
  2
PHANTOM
 70
     0
  3
_____ _ _ _____ _ _ _____ _ _ _____
 72
    65
 73
     6
 40
0.8
 49
0.45
 74
     0
 49
-0.05
 74
     0
 49
0.1
 74
     0
 49
-0.05
 74
     0
 49
0.1
 74
     0
 49
-0.05
 74
     0
  0
ENDTAB
  0
TABLE
  2
LAYER
  5
2
102
{ACAD_XDICTIONARY
360
E2
102
}
330
0
100
AcDbSymbolTable
 70
    14
  0
LAYER
  5
10
330
2
100
AcDbSymbolTableRecord
100
AcDbLayerTableRecord
  2
0
 70
     0
 62
     7
  6
Continuous
370
    -3
390
F
  0
LAYER
  5
D1
330
2
100
AcDbSymbolTableRecord
100
AcDbLayerTableRecord
  2
1
 70
     0
 62
     4
  6
Continuous
370
    50
390
F
1001
AcAecLayerStandard
1000

1000

  0
LAYER
  5
D3
330
2
100
AcDbSymbolTableRecord
100
AcDbLayerTableRecord
  2
2
 70
     0
 62
     7
  6
Continuous
370
    25
390
F
1001
AcAecLayerStandard
1000

1000

  0
LAYER
  5
D4
330
2
100
AcDbSymbolTableRecord
100
AcDbLayerTableRecord
  2
3
 70
     0
 62
     1
  6
HIDDEN
370
    35
390
F
1001
AcAecLayerStandard
1000

1000

  0
LAYER
  5
D8
330
2
100
AcDbSymbolTableRecord
100
AcDbLayerTableRecord
  2
4
 70
     0
 62
     2
  6
CENTER
370
    25
390
F
1001
AcAecLayerStandard
1000

1000

  0
LAYER
  5
DA
330
2
100
AcDbSymbolTableRecord
100
AcDbLayerTableRecord
  2
6
 70
     0
 62
     5
  6
Continuous
370
    35
390
F
1001
AcAecLayerStandard
1000

1000

  0
LAYER
  5
DB
330
2
100
AcDbSymbolTableRecord
100
AcDbLayerTableRecord
  2
cut
 70
     0
 62
     1
  6
Continuous
370
    25
390
F
1001
AcAecLayerStandard
1000

1000

  0
LAYER
  5
DC
330
2
100
AcDbSymbolTableRecord
100
AcDbLayerTableRecord
  2
nocut
 70
     0
 62
     7
  6
Continuous
370
    25
390
F
1001
AcAecLayerStandard
1000

1000

  0
LAYER
  5
DD
330
2
100
AcDbSymbolTableRecord
100
AcDbLayerTableRecord
  2
sk1
 70
     0
 62
     4
  6
Continuous
370
    50
390
F
1001
AcAecLayerStandard
1000

1000

  0
LAYER
  5
DE
330
2
100
AcDbSymbolTableRecord
100
AcDbLayerTableRecord
  2
sk2
 70
     0
 62
     7
  6
Continuous
370
    25
390
F
1001
AcAecLayerStandard
1000

1000

  0
LAYER
  5
DF
330
2
100
AcDbSymbolTableRecord
100
AcDbLayerTableRecord
  2
sk3
 70
     0
 62
     1
  6
HIDDEN
370
    35
390
F
1001
AcAecLayerStandard
1000

1000

  0
LAYER
  5
E0
330
2
100
AcDbSymbolTableRecord
100
AcDbLayerTableRecord
  2
sk4
 70
     0
 62
     2
  6
CENTER
370
    25
390
F
1001
AcAecLayerStandard
1000

1000

  0
LAYER
  5
E1
330
2
100
AcDbSymbolTableRecord
100
AcDbLayerTableRecord
  2
sk6
 70
     0
 62
     5
  6
Continuous
370
    35
390
F
1001
AcAecLayerStandard
1000

1000

  0
LAYER
  5
31B6
330
2
100
AcDbSymbolTableRecord
100
AcDbLayerTableRecord
  2
Defpoints
 70
     0
 62
     7
  6
Continuous
290
     0
370
    -3
390
F
  0
ENDTAB
  0
TABLE
  2
STYLE
  5
3
330
0
100
AcDbSymbolTable
 70
    12
  0
STYLE
  5
11
330
3
100
AcDbSymbolTableRecord
100
AcDbTextStyleTableRecord
  2
Standard
 70
     0
 40
0.0
 41
1.0
 50
0.0
 71
     0
 42
2.5
  3
txt.shx
  4
@extfont2.shx
  0
STYLE
  5
D6
330
3
100
AcDbSymbolTableRecord
100
AcDbTextStyleTableRecord
  2

 70
     1
 40
0.0
 41
1.0
 50
0.0
 71
     0
 42
2.5
  3
ltypeshp.shx
  4

  0
STYLE
  5
24A
330
3
100
AcDbSymbolTableRecord
100
AcDbTextStyleTableRecord
  2
simplex
 70
     0
 40
3.5
 41
1.0
 50
0.0
 71
     0
 42
3.5
  3
txt.shx
  4

  0
STYLE
  5
69E
330
3
100
AcDbSymbolTableRecord
100
AcDbTextStyleTableRecord
  2
MX_NOTE_STANDARD
 70
     0
 40
0.0
 41
1.0
 50
0.0
 71
     0
 42
4.2
  3
txt.shx
  4
extfont.shx
  0
STYLE
  5
3524
330
3
100
AcDbSymbolTableRecord
100
AcDbTextStyleTableRecord
  2
TEXTSTYLE_2
 70
     0
 40
0.0
 41
0.775
 50
0.0
 71
     0
 42
0.2
  3
gdt
  4

  0
STYLE
  5
3525
330
3
100
AcDbSymbolTableRecord
100
AcDbTextStyleTableRecord
  2
TEXTSTYLE_3
 70
     0
 40
0.0
 41
0.75
 50
0.0
 71
     0
 42
0.2
  3
txt
  4

  0
STYLE
  5
3526
330
3
100
AcDbSymbolTableRecord
100
AcDbTextStyleTableRecord
  2
TEXTSTYLE_13
 70
     0
 40
0.0
 41
1.0
 50
0.0
 71
     0
 42
0.2
  3
txt
  4

  0
STYLE
  5
519A
330
3
100
AcDbSymbolTableRecord
100
AcDbTextStyleTableRecord
  2
TEXTSTYLE_14
 70
     0
 40
0.0
 41
1.0
 50
0.0
 71
     0
 42
0.2
  3
txt
  4

  0
STYLE
  5
6F72
330
3
100
AcDbSymbolTableRecord
100
AcDbTextStyleTableRecord
  2
TEXTSTYLE_4
 70
     0
 40
0.0
 41
0.75
 50
0.0
 71
     0
 42
0.2
  3
txt
  4

  0
STYLE
  5
6F73
330
3
100
AcDbSymbolTableRecord
100
AcDbTextStyleTableRecord
  2
TEXTSTYLE_17
 70
     0
 40
0.0
 41
1.0
 50
0.0
 71
     0
 42
0.2
  3
txt
  4

  0
STYLE
  5
FE12
330
3
100
AcDbSymbolTableRecord
100
AcDbTextStyleTableRecord
  2
TEXTSTYLE_12
 70
     0
 40
0.0
 41
1.0
 50
0.0
 71
     0
 42
0.2
  3
txt
  4

  0
STYLE
  5
3AAB8
330
3
100
AcDbSymbolTableRecord
100
AcDbTextStyleTableRecord
  2
TEXTSTYLE_20
 70
     0
 40
0.0
 41
0.6
 50
0.0
 71
     0
 42
0.2
  3
txt
  4

  0
ENDTAB
  0
TABLE
  2
VIEW
  5
6
330
0
100
AcDbSymbolTable
 70
     0
  0
ENDTAB
  0
TABLE
  2
UCS
  5
7
330
0
100
AcDbSymbolTable
 70
     0
  0
ENDTAB
  0
TABLE
  2
APPID
  5
9
330
0
100
AcDbSymbolTable
 70
    11
  0
APPID
  5
12
330
9
100
AcDbSymbolTableRecord
100
AcDbRegAppTableRecord
  2
ACAD
 70
     0
  0
APPID
  5
D2
330
9
100
AcDbSymbolTableRecord
100
AcDbRegAppTableRecord
  2
AcAecLayerStandard
 70
     0
  0
APPID
  5
E6
330
9
100
AcDbSymbolTableRecord
100
AcDbRegAppTableRecord
  2
ACAD_DSTYLE_DIMTEXT_FILL
 70
     0
  0
APPID
  5
4C84
330
9
100
AcDbSymbolTableRecord
100
AcDbRegAppTableRecord
  2
ACAD_EXEMPT_FROM_CAD_STANDARDS
 70
     0
  0
APPID
  5
3493E
330
9
100
AcDbSymbolTableRecord
100
AcDbRegAppTableRecord
  2
DCO15
 70
     0
  0
APPID
  5
3BAB0
330
9
100
AcDbSymbolTableRecord
100
AcDbRegAppTableRecord
  2
ACAD_DSTYLE_DIMEXT_ENABLED
 70
     0
  0
APPID
  5
3BAB1
330
9
100
AcDbSymbolTableRecord
100
AcDbRegAppTableRecord
  2
ACAD_DSTYLE_DIMEXT_LENGTH
 70
     0
  0
APPID
  5
3BEB4
330
9
100
AcDbSymbolTableRecord
100
AcDbRegAppTableRecord
  2
ACAUTHENVIRON
 70
     0
  0
APPID
  5
3BEB7
330
9
100
AcDbSymbolTableRecord
100
AcDbRegAppTableRecord
  2
AcDbDynamicBlockTrueName
 70
     0
  0
APPID
  5
3BEB8
330
9
100
AcDbSymbolTableRecord
100
AcDbRegAppTableRecord
  2
AcDbDynamicBlockGUID
 70
     0
  0
APPID
  5
3BEBA
330
9
100
AcDbSymbolTableRecord
100
AcDbRegAppTableRecord
  2
AcDbBlockRepETag
 70
     0
  0
ENDTAB
  0
TABLE
  2
DIMSTYLE
  5
A
330
0
100
AcDbSymbolTable
 70
    11
100
AcDbDimStyleTable
 71
     5
340
1BF
340
27
340
352A
340
3527
340
69F
  0
DIMSTYLE
105
27
330
A
100
AcDbSymbolTableRecord
100
AcDbDimStyleTableRecord
  2
ISO-25
 70
     0
 41
2.5
 42
0.625
 43
3.75
 44
1.25
 73
     0
 74
     0
 77
     1
 78
     8
140
2.5
141
2.5
143
0.03937007874016
147
0.625
171
     3
172
     1
271
     2
272
     2
274
     3
278
    44
283
     0
284
     8
340
11
  0
DIMSTYLE
105
1BF
102
{ACAD_REACTORS
330
56A94
330
56ADF
330
569A2
330
569A5
330
56DD2
330
56DDA
330
56DDD
102
}
330
A
100
AcDbSymbolTableRecord
100
AcDbDimStyleTableRecord
  2
\M+18352\M+18373\M+1815B - ISO-25
 70
     0
 40
0.0
 41
3.5
 42
0.0
 44
1.5
 73
     0
 74
     0
 77
     1
 78
     8
140
3.5
147
2.299999999999998
176
   256
177
   256
178
   256
271
     2
272
     2
284
     8
340
24A
371
    -1
372
    -1
  0
DIMSTYLE
105
69F
330
A
100
AcDbSymbolTableRecord
100
AcDbDimStyleTableRecord
  2
MXDIMSTYLE
 70
     0
 41
2.5
 42
0.5
 43
3.75
 44
1.5
 73
     0
 74
     0
 77
     1
 78
     8
140
4.2
141
2.5
143
0.03937
147
1.0
171
     4
172
     1
173
     1
271
     2
272
     2
274
     4
283
     0
288
     1
340
69E
341
697
343
697
344
697
  0
DIMSTYLE
105
3527
330
A
100
AcDbSymbolTableRecord
100
AcDbDimStyleTableRecord
  2
STANDARD
 70
     0
 41
3.0
 47
0.001
 48
0.001
 71
     1
 73
     0
 74
     0
 77
     1
 78
     8
140
4.0
271
     3
272
     3
284
     8
340
11
341
34B1
342
34B1
343
34B1
344
34B1
  0
DIMSTYLE
105
3528
330
A
100
AcDbSymbolTableRecord
100
AcDbDimStyleTableRecord
  2
DIMSTYLE_1
 70
     0
 41
3.0
 73
     0
 74
     0
 77
     1
 78
     8
140
4.0
271
     3
272
     3
284
     8
340
11
341
34B1
342
34B1
343
34B1
344
34B1
  0
DIMSTYLE
105
3529
330
A
100
AcDbSymbolTableRecord
100
AcDbDimStyleTableRecord
  2
DIMSTYLE_2
 70
     0
 41
3.0
 47
0.001
 48
0.001
 73
     0
 74
     0
 77
     1
 78
     8
140
4.0
271
     3
272
     3
284
     8
340
11
341
34B1
342
34B1
343
34B1
344
34B1
  0
DIMSTYLE
105
352A
330
A
100
AcDbSymbolTableRecord
100
AcDbDimStyleTableRecord
  2
DIMSTYLE_3
 70
     0
 41
3.0
 47
-0.1
 48
0.3
 71
     1
 73
     0
 74
     0
 77
     1
 78
     8
140
4.0
146
0.5
271
     3
272
     3
284
     8
340
11
341
34B1
342
34B1
343
34B1
344
34B1
  0
DIMSTYLE
105
352B
330
A
100
AcDbSymbolTableRecord
100
AcDbDimStyleTableRecord
  2
DIMSTYLE_4
 70
     0
 41
3.0
 47
0.1
 48
0.1
 71
     1
 73
     0
 74
     0
 77
     1
 78
     8
140
4.0
271
     3
272
     3
284
     8
340
11
341
34B1
342
34B1
343
34B1
344
34B1
  0
DIMSTYLE
105
27245
330
A
100
AcDbSymbolTableRecord
100
AcDbDimStyleTableRecord
  2
DIMSTYLE_5
 70
     0
 41
3.0
 47
0.001
 48
0.001
 73
     0
 74
     0
 77
     1
 78
     8
140
4.0
271
     3
272
     3
284
     8
340
11
341
34B1
342
34B1
343
34B1
344
34B1
  0
DIMSTYLE
105
3AAB9
330
A
100
AcDbSymbolTableRecord
100
AcDbDimStyleTableRecord
  2
DIMSTYLE_6
 70
     0
 41
3.0
 42
0.0
 44
1.0
 47
0.05
 48
0.05
 71
     1
 73
     0
 74
     0
 77
     1
 78
     8
140
4.0
147
1.0
271
     3
272
     3
284
     8
340
11
341
34B1
342
34B1
343
34B1
344
34B1
  0
DIMSTYLE
105
532EA
330
A
100
AcDbSymbolTableRecord
100
AcDbDimStyleTableRecord
  2
NEW-DIMSTYLE
 70
     0
 40
0.0
 41
4.57
 42
0.0
 44
5.0
 73
     0
 74
     0
 77
     1
 78
     8
140
4.57
147
2.299999999999998
271
     2
340
24A
  0
ENDTAB
  0
TABLE
  2
BLOCK_RECORD
  5
1
330
0
100
AcDbSymbolTable
 70
    28
  0
BLOCK_RECORD
  5
1F
102
{ACAD_XDICTIONARY
360
31EE
102
}
330
1
100
AcDbSymbolTableRecord
100
AcDbBlockTableRecord
  2
*Model_Space
340
22
  0
BLOCK_RECORD
  5
50
330
1
100
AcDbSymbolTableRecord
100
AcDbBlockTableRecord
  2
*Paper_Space
340
51
  0
BLOCK_RECORD
  5
55
330
1
100
AcDbSymbolTableRecord
100
AcDbBlockTableRecord
  2
*Paper_Space0
340
56
  0
BLOCK_RECORD
  5
680
102
{ACAD_XDICTIONARY
360
3BEB2
102
}
330
1
100
AcDbSymbolTableRecord
100
AcDbBlockTableRecord
  2
zero block
340
0
102
{BLKREFS
331
68C
331
56D13
102
}
1001
ACAD
1000
DesignCenter Data
1002
{
1070
     1
1070
     4
1002
}
1001
AcDbDynamicBlockGUID
1000
{C2E8894D-A8DA-456D-ABB6-198B00672C1A}
1001
AcDbBlockRepETag
1070
     1
1071
        7
  0
BLOCK_RECORD
  5
697
330
1
100
AcDbSymbolTableRecord
100
AcDbBlockTableRecord
  2
_OPEN30
340
0
  0
BLOCK_RECORD
  5
34B1
330
1
100
AcDbSymbolTableRecord
100
AcDbBlockTableRecord
  2
_OPEN
340
0
  0
BLOCK_RECORD
  5
50E6F
330
1
100
AcDbSymbolTableRecord
100
AcDbBlockTableRecord
  2
_None
340
0
  0
BLOCK_RECORD
  5
55635
330
1
100
AcDbSymbolTableRecord
100
AcDbBlockTableRecord
  2
*D5
340
0
  0
BLOCK_RECORD
  5
56B51
330
1
100
AcDbSymbolTableRecord
100
AcDbBlockTableRecord
  2
*D6
340
0
  0
BLOCK_RECORD
  5
56B5C
330
1
100
AcDbSymbolTableRecord
100
AcDbBlockTableRecord
  2
*D7
340
0
  0
BLOCK_RECORD
  5
56B71
330
1
100
AcDbSymbolTableRecord
100
AcDbBlockTableRecord
  2
*D8
340
0
  0
BLOCK_RECORD
  5
56B7E
330
1
100
AcDbSymbolTableRecord
100
AcDbBlockTableRecord
  2
*D9
340
0
  0
BLOCK_RECORD
  5
56B8A
330
1
100
AcDbSymbolTableRecord
100
AcDbBlockTableRecord
  2
*D10
340
0
  0
BLOCK_RECORD
  5
56BD7
330
1
100
AcDbSymbolTableRecord
100
AcDbBlockTableRecord
  2
*D11
340
0
  0
BLOCK_RECORD
  5
56C00
330
1
100
AcDbSymbolTableRecord
100
AcDbBlockTableRecord
  2
*D12
340
0
  0
BLOCK_RECORD
  5
56CBE
330
1
100
AcDbSymbolTableRecord
100
AcDbBlockTableRecord
  2
*D13
340
0
  0
BLOCK_RECORD
  5
56CCB
330
1
100
AcDbSymbolTableRecord
100
AcDbBlockTableRecord
  2
*D14
340
0
  0
BLOCK_RECORD
  5
56CD8
330
1
100
AcDbSymbolTableRecord
100
AcDbBlockTableRecord
  2
*D15
340
0
  0
BLOCK_RECORD
  5
56CE3
330
1
100
AcDbSymbolTableRecord
100
AcDbBlockTableRecord
  2
*D16
340
0
  0
BLOCK_RECORD
  5
56CF0
330
1
100
AcDbSymbolTableRecord
100
AcDbBlockTableRecord
  2
*D17
340
0
  0
BLOCK_RECORD
  5
56CFC
330
1
100
AcDbSymbolTableRecord
100
AcDbBlockTableRecord
  2
*D18
340
0
  0
BLOCK_RECORD
  5
56D08
330
1
100
AcDbSymbolTableRecord
100
AcDbBlockTableRecord
  2
*D19
340
0
  0
BLOCK_RECORD
  5
56DF3
330
1
100
AcDbSymbolTableRecord
100
AcDbBlockTableRecord
  2
*D21
340
0
  0
BLOCK_RECORD
  5
56E00
330
1
100
AcDbSymbolTableRecord
100
AcDbBlockTableRecord
  2
*D22
340
0
  0
BLOCK_RECORD
  5
56E0B
330
1
100
AcDbSymbolTableRecord
100
AcDbBlockTableRecord
  2
*D23
340
0
  0
BLOCK_RECORD
  5
56E17
330
1
100
AcDbSymbolTableRecord
100
AcDbBlockTableRecord
  2
*D24
340
0
  0
BLOCK_RECORD
  5
56E24
330
1
100
AcDbSymbolTableRecord
100
AcDbBlockTableRecord
  2
*D25
340
0
  0
BLOCK_RECORD
  5
56E30
330
1
100
AcDbSymbolTableRecord
100
AcDbBlockTableRecord
  2
*D26
340
0
  0
BLOCK_RECORD
  5
56E3A
330
1
100
AcDbSymbolTableRecord
100
AcDbBlockTableRecord
  2
*D27
340
0
  0
ENDTAB
  0
ENDSEC
  0
SECTION
  2
BLOCKS
  0
BLOCK
  5
20
330
1F
100
AcDbEntity
  8
0
100
AcDbBlockBegin
  2
*Model_Space
 70
     0
 10
0.0
 20
0.0
 30
0.0
  3
*Model_Space
  1

  0
ENDBLK
  5
21
330
1F
100
AcDbEntity
  8
0
100
AcDbBlockEnd
  0
BLOCK
  5
52
330
50
100
AcDbEntity
 67
     1
  8
0
100
AcDbBlockBegin
  2
*Paper_Space
 70
     0
 10
0.0
 20
0.0
 30
0.0
  3
*Paper_Space
  1

  0
ENDBLK
  5
53
330
50
100
AcDbEntity
 67
     1
  8
0
100
AcDbBlockEnd
  0
BLOCK
  5
57
330
55
100
AcDbEntity
 67
     1
  8
0
100
AcDbBlockBegin
  2
*Paper_Space0
 70
     0
 10
0.0
 20
0.0
 30
0.0
  3
*Paper_Space0
  1

  0
VIEWPORT
  5
71
102
{ACAD_XDICTIONARY
360
56ED8
102
}
330
55
100
AcDbEntity
 67
     1
  8
0
100
AcDbViewport
 10
150.1652135264906
 20
101.599997546291
 30
0.0
 40
339.1973820494347
 41
164.5360435314421
 68
     0
 69
     0
 12
150.1652135264906
 22
101.599997546291
 13
0.0
 23
0.0
 14
10.0
 24
10.0
 15
10.0
 25
10.0
 16
0.0
 26
0.0
 36
1.0
 17
0.0
 27
0.0
 37
0.0
 42
50.0
 43
0.0
 44
0.0
 45
164.5360435314421
 50
0.0
 51
0.0
 72
  1000
 90
    32864
  1

281
     0
 71
     1
 74
     0
110
0.0
120
0.0
130
0.0
111
1.0
121
0.0
131
0.0
112
0.0
122
1.0
132
0.0
 79
     0
146
0.0
  0
VIEWPORT
  5
73
102
{ACAD_XDICTIONARY
360
56EDA
102
}
330
55
100
AcDbEntity
 67
     1
  8
0
100
AcDbViewport
 10
133.3499939441681
 20
101.5999939441681
 30
0.0
 40
213.3599903106689
 41
162.5599903106689
 68
     0
 69
     0
 12
210.0
 22
148.5
 13
0.0
 23
0.0
 14
10.0
 24
10.0
 15
10.0
 25
10.0
 16
0.0
 26
0.0
 36
1.0
 17
0.0
 27
0.0
 37
0.0
 42
50.0
 43
0.0
 44
0.0
 45
324.0677920111345
 50
0.0
 51
0.0
 72
   100
 90
    32864
  1

281
     0
 71
     1
 74
     0
110
0.0
120
0.0
130
0.0
111
1.0
121
0.0
131
0.0
112
0.0
122
1.0
132
0.0
 79
     0
146
0.0
  0
ENDBLK
  5
58
330
55
100
AcDbEntity
 67
     1
  8
0
100
AcDbBlockEnd
  0
BLOCK
  5
68A
330
680
100
AcDbEntity
  8
0
100
AcDbBlockBegin
  2
zero block
 70
     0
 10
0.0
 20
0.0
 30
0.0
  3
zero block
  1

  0
HATCH
  5
3BEAB
330
680
100
AcDbEntity
  8
0
 62
     7
100
AcDbHatch
 10
0.0
 20
0.0
 30
0.0
210
0.0
220
0.0
230
1.0
  2
SOLID
 70
     1
 71
     0
 91
        2
 92
        7
 72
     1
 73
     1
 93
        3
 10
0.0
 20
0.9999999999999875
 42
0.4142135623730915
 10
-1.0
 20
0.0
 42
0.0
 10
0.0
 20
0.0
 42
0.0
 97
        0
 92
        7
 72
     1
 73
     1
 93
        3
 10
1.000000000000007
 20
0.0
 42
0.0
 10
0.0
 20
0.0
 42
0.0
 10
0.0
 20
-1.0
 42
0.4142135623730974
 97
        0
 75
     0
 76
     1
 47
0.0090601366782909
 98
        2
 10
-0.380591363650975
 20
0.4885804701532896
 10
0.4350764810977559
 20
-0.4536738423704725
1001
AcDbBlockRepETag
1070
     1
1071
        0
1005
3BEAB
  0
LINE
  5
3BEAC
330
680
100
AcDbEntity
  8
0
 62
     7
 48
0.2
100
AcDbLine
 10
-1.0
 20
0.0
 30
0.0
 11
1.000000000000007
 21
0.0
 31
0.0
1001
AcDbBlockRepETag
1070
     1
1071
        1
1005
3BEAC
  0
LINE
  5
3BEAD
330
680
100
AcDbEntity
  8
0
 62
     7
 48
0.2
100
AcDbLine
 10
0.0
 20
-1.0
 30
0.0
 11
0.0
 21
0.9999999999999875
 31
0.0
1001
AcDbBlockRepETag
1070
     1
1071
        2
1005
3BEAD
  0
ARC
  5
3BEAE
330
680
100
AcDbEntity
  8
0
 62
     7
 48
0.2
100
AcDbCircle
 10
0.0
 20
0.0
 30
0.0
 40
1.0
100
AcDbArc
 50
270.0
 51
0.0
1001
AcDbBlockRepETag
1070
     1
1071
        3
1005
3BEAE
  0
ARC
  5
3BEAF
330
680
100
AcDbEntity
  8
0
 62
     7
 48
0.2
100
AcDbCircle
 10
0.0
 20
0.0
 30
0.0
 40
1.0
100
AcDbArc
 50
0.0
 51
90.0
1001
AcDbBlockRepETag
1070
     1
1071
        4
1005
3BEAF
  0
ARC
  5
3BEB0
330
680
100
AcDbEntity
  8
0
 62
     7
 48
0.2
100
AcDbCircle
 10
0.0
 20
0.0
 30
0.0
 40
1.0
100
AcDbArc
 50
180.0
 51
270.0
1001
AcDbBlockRepETag
1070
     1
1071
        5
1005
3BEB0
  0
ARC
  5
3BEB1
330
680
100
AcDbEntity
  8
0
 62
     7
 48
0.2
100
AcDbCircle
 10
0.0
 20
0.0
 30
0.0
 40
1.0
100
AcDbArc
 50
90.0
 51
180.0
1001
AcDbBlockRepETag
1070
     1
1071
        6
1005
3BEB1
  0
ENDBLK
  5
68B
330
680
100
AcDbEntity
  8
0
100
AcDbBlockEnd
  0
BLOCK
  5
698
330
697
100
AcDbEntity
  8
0
  6
ByBlock
 62
     0
370
    -2
100
AcDbBlockBegin
  2
_OPEN30
 70
     2
 10
0.0
 20
0.0
 30
0.0
  3
_OPEN30
  1

  0
LINE
  5
699
330
697
100
AcDbEntity
  8
0
  6
ByBlock
 62
     0
370
    -2
100
AcDbLine
 10
-1.0
 20
0.267949
 30
0.0
 11
0.0
 21
0.0
 31
0.0
  0
LINE
  5
69A
330
697
100
AcDbEntity
  8
0
  6
ByBlock
 62
     0
370
    -2
100
AcDbLine
 10
0.0
 20
0.0
 30
0.0
 11
-1.0
 21
-0.267949
 31
0.0
  0
LINE
  5
69B
330
697
100
AcDbEntity
  8
0
  6
ByBlock
 62
     0
370
    -2
100
AcDbLine
 10
0.0
 20
0.0
 30
0.0
 11
-1.0
 21
0.0
 31
0.0
  0
ENDBLK
  5
69C
330
697
100
AcDbEntity
  8
0
  6
ByBlock
 62
     0
370
    -2
100
AcDbBlockEnd
  0
BLOCK
  5
34B2
330
34B1
100
AcDbEntity
  8
0
100
AcDbBlockBegin
  2
_OPEN
 70
     0
 10
0.0
 20
0.0
 30
0.0
  3
_OPEN
  1

  0
LINE
  5
34B3
330
34B1
100
AcDbEntity
  8
0
  6
ByBlock
 62
     0
100
AcDbLine
 10
0.0
 20
0.0
 30
0.0
 11
-1.0
 21
0.1766666667
 31
0.0
  0
LINE
  5
34B4
330
34B1
100
AcDbEntity
  8
0
  6
ByBlock
 62
     0
100
AcDbLine
 10
-1.0
 20
-0.1766666667
 30
0.0
 11
0.0
 21
0.0
 31
0.0
  0
LINE
  5
34B5
330
34B1
100
AcDbEntity
  8
0
  6
ByBlock
 62
     0
100
AcDbLine
 10
-1.0
 20
0.0
 30
0.0
 11
0.0
 21
0.0
 31
0.0
  0
ENDBLK
  5
34B6
330
34B1
100
AcDbEntity
  8
0
  6
ByBlock
 62
     0
100
AcDbBlockEnd
  0
BLOCK
  5
50E70
330
50E6F
100
AcDbEntity
  8
0
100
AcDbBlockBegin
  2
_None
 70
     0
 10
0.0
 20
0.0
 30
0.0
  3
_None
  1

  0
ENDBLK
  5
50E71
330
50E6F
100
AcDbEntity
  8
0
100
AcDbBlockEnd
  0
BLOCK
  5
5563F
330
55635
100
AcDbEntity
  8
0
100
AcDbBlockBegin
  2
*D5
 70
     1
 10
0.0
 20
0.0
 30
0.0
  3
*D5
  1

  0
LINE
  5
56110
330
55635
100
AcDbEntity
  8
sk2
100
AcDbLine
 10
-69.84999999999996
 20
5.349985999999923
 30
0.0
 11
-69.84999999999996
 21
51.17599391712246
 31
0.0
  0
LINE
  5
56111
330
55635
100
AcDbEntity
  8
sk2
100
AcDbLine
 10
50.80000000000001
 20
3.326262239681227
 30
0.0
 11
50.80000000000001
 21
51.17599391712246
 31
0.0
  0
LINE
  5
56112
330
55635
100
AcDbEntity
  8
sk2
100
AcDbLine
 10
-66.34999999999997
 20
49.67599391712247
 30
0.0
 11
47.30000000000001
 21
49.67599391712247
 31
0.0
  0
SOLID
  5
56113
330
55635
100
AcDbEntity
  8
sk2
100
AcDbTrace
 10
-66.34999999999997
 20
50.2593272504558
 30
0.0
 11
-66.34999999999997
 21
49.09266058378912
 31
0.0
 12
-69.84999999999996
 22
49.67599391712247
 32
0.0
 13
-69.84999999999996
 23
49.67599391712247
 33
0.0
  0
SOLID
  5
56114
330
55635
100
AcDbEntity
  8
sk2
100
AcDbTrace
 10
47.30000000000001
 20
50.2593272504558
 30
0.0
 11
47.30000000000001
 21
49.09266058378912
 31
0.0
 12
50.80000000000001
 22
49.67599391712247
 32
0.0
 13
50.80000000000001
 23
49.67599391712247
 33
0.0
  0
MTEXT
  5
56115
330
55635
100
AcDbEntity
  8
sk2
100
AcDbMText
 10
-9.524999999999975
 20
53.72599391712245
 30
0.0
 40
3.5
 41
0.0
 71
     5
 72
     1
  1
\A1;120.65 [4.750"]
  7
simplex
 73
     1
 44
0.892857
1001
ACAD
1000
MTEXTBEGIN
1070
    73
1070
     1
1070
    44
1040
0.892857
1070
    74
1070
     0
1000
MTEXTEND
  0
POINT
  5
56116
330
55635
100
AcDbEntity
  8
Defpoints
 62
     0
100
AcDbPoint
 10
-69.84999999999996
 20
5.349985999999923
 30
0.0
  0
POINT
  5
56117
330
55635
100
AcDbEntity
  8
Defpoints
 62
     0
100
AcDbPoint
 10
50.80000000000001
 20
3.326262239681227
 30
0.0
  0
POINT
  5
56118
330
55635
100
AcDbEntity
  8
Defpoints
 62
     0
100
AcDbPoint
 10
50.80000000000001
 20
49.67599391712247
 30
0.0
  0
ENDBLK
  5
55640
330
55635
100
AcDbEntity
  8
0
100
AcDbBlockEnd
  0
BLOCK
  5
56B5A
330
56B51
100
AcDbEntity
  8
0
100
AcDbBlockBegin
  2
*D6
 70
     1
 10
0.0
 20
0.0
 30
0.0
  3
*D6
  1

  0
LINE
  5
56EA2
330
56B51
100
AcDbEntity
  8
2
100
AcDbLine
 10
78.37500339814171
 20
5.999999982511383
 30
0.0
 11
99.77404693461387
 21
5.999999982511377
 31
0.0
  0
LINE
  5
56EA3
330
56B51
100
AcDbEntity
  8
2
100
AcDbLine
 10
98.27404693461387
 20
2.499999982511378
 30
0.0
 11
98.27404693461387
 21
-6.000000016388645
 31
0.0
  0
LINE
  5
56EA4
330
56B51
100
AcDbEntity
  8
2
100
AcDbLine
 10
98.27404693461387
 20
-6.000000016388645
 30
0.0
 11
98.27404693461385
 21
-47.93333334972198
 31
0.0
  0
SOLID
  5
56EA5
330
56B51
100
AcDbEntity
  8
2
100
AcDbTrace
 10
97.69071360128053
 20
2.499999982511378
 30
0.0
 11
98.85738026794719
 21
2.499999982511378
 31
0.0
 12
98.27404693461387
 22
5.999999982511377
 32
0.0
 13
98.27404693461387
 23
5.999999982511377
 33
0.0
  0
MTEXT
  5
56EA6
330
56B51
100
AcDbEntity
  8
2
100
AcDbMText
 10
94.22404693461386
 20
-28.71666668305531
 30
0.0
 40
3.5
 41
0.0
 71
     5
 72
     1
  1
\A1;%%c12 [%%c.472"]
  7
simplex
 11
0.0000000000000001
 21
1.0
 31
0.0
 73
     1
 44
1.0
1001
ACAD
1000
MTEXTBEGIN
1070
    73
1070
     1
1070
    44
1040
1.0
1070
    74
1070
     0
1000
MTEXTEND
  0
POINT
  5
56EA7
330
56B51
100
AcDbEntity
  8
Defpoints
 62
     0
100
AcDbPoint
 10
78.37500339814171
 20
5.999999982511383
 30
0.0
  0
POINT
  5
56EA8
330
56B51
100
AcDbEntity
  8
Defpoints
 62
     0
100
AcDbPoint
 10
73.37500339814171
 20
-6.000000016388638
 30
0.0
  0
POINT
  5
56EA9
330
56B51
100
AcDbEntity
  8
Defpoints
 62
     0
100
AcDbPoint
 10
98.27404693461387
 20
-6.000000016388645
 30
0.0
  0
ENDBLK
  5
56B5B
330
56B51
100
AcDbEntity
  8
0
100
AcDbBlockEnd
  0
BLOCK
  5
56B64
330
56B5C
100
AcDbEntity
  8
0
100
AcDbBlockBegin
  2
*D7
 70
     1
 10
0.0
 20
0.0
 30
0.0
  3
*D7
  1

  0
LINE
  5
56EAA
330
56B5C
100
AcDbEntity
  8
2
100
AcDbLine
 10
105.7895505819945
 20
37.14052169998951
 30
0.0
 11
81.2890631942999
 21
8.29006905595952
 31
0.0
  0
MTEXT
  5
56EAB
330
56B5C
100
AcDbEntity
  8
2
100
AcDbMText
 10
91.58505377639407
 20
26.67078457340953
 30
0.0
 40
3.5
 41
0.0
 71
     5
 72
     1
  1
\A1;R1 [R.039"]
  7
simplex
 11
0.6473048186973479
 21
0.7622312455490093
 31
0.0
 73
     1
 44
1.0
1001
ACAD
1000
MTEXTBEGIN
1070
    73
1070
     1
1070
    44
1040
1.0
1070
    74
1070
     0
1000
MTEXTEND
  0
SOLID
  5
56EAC
330
56B5C
100
AcDbEntity
  8
2
100
AcDbTrace
 10
80.84442830106297
 20
8.667663533532973
 30
0.0
 11
81.73369808753681
 21
7.91247457838606
 31
0.0
 12
79.02349632885918
 22
5.622259696537987
 32
0.0
 13
79.02349632885918
 23
5.622259696537987
 33
0.0
  0
LINE
  5
56EAD
330
56B5C
100
AcDbEntity
  8
2
100
AcDbLine
 10
78.28619151016184
 20
4.860028450988998
 30
0.0
 11
78.46619151016184
 21
4.860028450989013
 31
0.0
  0
LINE
  5
56EAE
330
56B5C
100
AcDbEntity
  8
2
100
AcDbLine
 10
78.37619151016184
 20
4.770028450989009
 30
0.0
 11
78.37619151016184
 21
4.950028450989009
 31
0.0
  0
POINT
  5
56EAF
330
56B5C
100
AcDbEntity
  8
Defpoints
 62
     0
100
AcDbPoint
 10
79.02349632885918
 20
5.622259696537987
 30
0.0
  0
POINT
  5
56EB0
330
56B5C
100
AcDbEntity
  8
Defpoints
 62
     0
100
AcDbPoint
 10
78.37619151016184
 20
4.860028450989005
 30
0.0
  0
ENDBLK
  5
56B65
330
56B5C
100
AcDbEntity
  8
0
100
AcDbBlockEnd
  0
BLOCK
  5
56B7C
330
56B71
100
AcDbEntity
  8
0
100
AcDbBlockBegin
  2
*D8
 70
     1
 10
0.0
 20
0.0
 30
0.0
  3
*D8
  1

  0
LINE
  5
56E86
330
56B71
100
AcDbEntity
  8
2
100
AcDbLine
 10
64.37499539814179
 20
5.74999998361133
 30
0.0
 11
64.37499539814179
 21
27.09157035443957
 31
0.0
  0
LINE
  5
56E87
330
56B71
100
AcDbEntity
  8
2
100
AcDbLine
 10
79.37499539814172
 20
17.60461398361127
 30
0.0
 11
79.37499539814172
 21
27.09157035443957
 31
0.0
  0
LINE
  5
56E88
330
56B71
100
AcDbEntity
  8
2
100
AcDbLine
 10
75.87499539814172
 20
25.59157035443957
 30
0.0
 11
67.87499539814179
 21
25.59157035443957
 31
0.0
  0
LINE
  5
56E89
330
56B71
100
AcDbEntity
  8
2
100
AcDbLine
 10
64.37499539814179
 20
25.59157035443957
 30
0.0
 11
30.60832873147508
 21
25.59157035443957
 31
0.0
  0
SOLID
  5
56E8A
330
56B71
100
AcDbEntity
  8
2
100
AcDbTrace
 10
75.87499539814172
 20
26.1749036877729
 30
0.0
 11
75.87499539814172
 21
25.00823702110624
 31
0.0
 12
79.37499539814172
 22
25.59157035443957
 32
0.0
 13
79.37499539814172
 23
25.59157035443957
 33
0.0
  0
SOLID
  5
56E8B
330
56B71
100
AcDbEntity
  8
2
100
AcDbTrace
 10
67.87499539814179
 20
26.1749036877729
 30
0.0
 11
67.87499539814179
 21
25.00823702110624
 31
0.0
 12
64.37499539814179
 22
25.59157035443957
 32
0.0
 13
64.37499539814179
 23
25.59157035443957
 33
0.0
  0
MTEXT
  5
56E8C
330
56B71
100
AcDbEntity
  8
2
100
AcDbMText
 10
45.7416620648084
 20
29.64157035443957
 30
0.0
 40
3.5
 41
0.0
 71
     5
 72
     1
  1
\A1;15 [.591"]
  7
simplex
 73
     1
 44
0.892857
1001
ACAD
1000
MTEXTBEGIN
1070
    73
1070
     1
1070
    44
1040
0.892857
1070
    74
1070
     0
1000
MTEXTEND
  0
POINT
  5
56E8D
330
56B71
100
AcDbEntity
  8
Defpoints
 62
     0
100
AcDbPoint
 10
64.37499539814179
 20
5.74999998361133
 30
0.0
  0
POINT
  5
56E8E
330
56B71
100
AcDbEntity
  8
Defpoints
 62
     0
100
AcDbPoint
 10
79.37499539814172
 20
17.60461398361127
 30
0.0
  0
POINT
  5
56E8F
330
56B71
100
AcDbEntity
  8
Defpoints
 62
     0
100
AcDbPoint
 10
79.37499539814172
 20
25.59157035443957
 30
0.0
  0
ENDBLK
  5
56B7D
330
56B71
100
AcDbEntity
  8
0
100
AcDbBlockEnd
  0
BLOCK
  5
56B88
330
56B7E
100
AcDbEntity
  8
0
100
AcDbBlockBegin
  2
*D9
 70
     1
 10
0.0
 20
0.0
 30
0.0
  3
*D9
  1

  0
LINE
  5
56E90
330
56B7E
100
AcDbEntity
  8
sk2
100
AcDbLine
 10
-41.27499960185819
 20
5.349985983611276
 30
0.0
 11
-41.27499960185819
 21
51.17599390073382
 31
0.0
  0
LINE
  5
56E91
330
56B7E
100
AcDbEntity
  8
sk2
100
AcDbLine
 10
79.37500039814178
 20
3.326262223292586
 30
0.0
 11
79.37500039814178
 21
51.17599390073382
 31
0.0
  0
LINE
  5
56E92
330
56B7E
100
AcDbEntity
  8
sk2
100
AcDbLine
 10
-37.7749996018582
 20
49.67599390073382
 30
0.0
 11
75.87500039814178
 21
49.67599390073382
 31
0.0
  0
SOLID
  5
56E93
330
56B7E
100
AcDbEntity
  8
sk2
100
AcDbTrace
 10
-37.7749996018582
 20
50.25932723406715
 30
0.0
 11
-37.7749996018582
 21
49.09266056740048
 31
0.0
 12
-41.27499960185819
 22
49.67599390073382
 32
0.0
 13
-41.27499960185819
 23
49.67599390073382
 33
0.0
  0
SOLID
  5
56E94
330
56B7E
100
AcDbEntity
  8
sk2
100
AcDbTrace
 10
75.87500039814178
 20
50.25932723406715
 30
0.0
 11
75.87500039814178
 21
49.09266056740048
 31
0.0
 12
79.37500039814178
 22
49.67599390073382
 32
0.0
 13
79.37500039814178
 23
49.67599390073382
 33
0.0
  0
MTEXT
  5
56E95
330
56B7E
100
AcDbEntity
  8
sk2
100
AcDbMText
 10
19.05000039814179
 20
53.72599390073382
 30
0.0
 40
3.5
 41
0.0
 71
     5
 72
     1
  1
\A1;120.65 [4.750"]
  7
simplex
 73
     1
 44
0.892857
1001
ACAD
1000
MTEXTBEGIN
1070
    73
1070
     1
1070
    44
1040
0.892857
1070
    74
1070
     0
1000
MTEXTEND
  0
POINT
  5
56E96
330
56B7E
100
AcDbEntity
  8
Defpoints
 62
     0
100
AcDbPoint
 10
-41.27499960185819
 20
5.349985983611276
 30
0.0
  0
POINT
  5
56E97
330
56B7E
100
AcDbEntity
  8
Defpoints
 62
     0
100
AcDbPoint
 10
79.37500039814178
 20
3.326262223292586
 30
0.0
  0
POINT
  5
56E98
330
56B7E
100
AcDbEntity
  8
Defpoints
 62
     0
100
AcDbPoint
 10
79.37500039814178
 20
49.67599390073382
 30
0.0
  0
ENDBLK
  5
56B89
330
56B7E
100
AcDbEntity
  8
0
100
AcDbBlockEnd
  0
BLOCK
  5
56B94
330
56B8A
100
AcDbEntity
  8
0
100
AcDbBlockBegin
  2
*D10
 70
     1
 10
0.0
 20
0.0
 30
0.0
  3
*D10
  1

  0
LINE
  5
56E99
330
56B8A
100
AcDbEntity
  8
2
100
AcDbLine
 10
79.37500039814178
 20
6.349999983611352
 30
0.0
 11
79.37500039814178
 21
38.57138743236783
 31
0.0
  0
LINE
  5
56E9A
330
56B8A
100
AcDbEntity
  8
2
100
AcDbLine
 10
28.57500039814177
 20
6.350000483611352
 30
0.0
 11
28.57500039814177
 21
38.57138743236783
 31
0.0
  0
LINE
  5
56E9B
330
56B8A
100
AcDbEntity
  8
2
100
AcDbLine
 10
75.87500039814178
 20
37.07138743236783
 30
0.0
 11
32.07500039814177
 21
37.07138743236783
 31
0.0
  0
SOLID
  5
56E9C
330
56B8A
100
AcDbEntity
  8
2
100
AcDbTrace
 10
75.87500039814178
 20
37.65472076570116
 30
0.0
 11
75.87500039814178
 21
36.48805409903449
 31
0.0
 12
79.37500039814178
 22
37.07138743236783
 32
0.0
 13
79.37500039814178
 23
37.07138743236783
 33
0.0
  0
SOLID
  5
56E9D
330
56B8A
100
AcDbEntity
  8
2
100
AcDbTrace
 10
32.07500039814177
 20
37.65472076570116
 30
0.0
 11
32.07500039814177
 21
36.48805409903449
 31
0.0
 12
28.57500039814177
 22
37.07138743236783
 32
0.0
 13
28.57500039814177
 23
37.07138743236783
 33
0.0
  0
MTEXT
  5
56E9E
330
56B8A
100
AcDbEntity
  8
2
100
AcDbMText
 10
53.9750003981418
 20
41.12138743236783
 30
0.0
 40
3.5
 41
0.0
 71
     5
 72
     1
  1
\A1;50.8 [2.000"]
  7
simplex
 73
     1
 44
1.0
1001
ACAD
1000
MTEXTBEGIN
1070
    73
1070
     1
1070
    44
1040
1.0
1070
    74
1070
     0
1000
MTEXTEND
  0
POINT
  5
56E9F
330
56B8A
100
AcDbEntity
  8
Defpoints
 62
     0
100
AcDbPoint
 10
79.37500039814178
 20
6.349999983611352
 30
0.0
  0
POINT
  5
56EA0
330
56B8A
100
AcDbEntity
  8
Defpoints
 62
     0
100
AcDbPoint
 10
28.57500039814177
 20
6.350000483611352
 30
0.0
  0
POINT
  5
56EA1
330
56B8A
100
AcDbEntity
  8
Defpoints
 62
     0
100
AcDbPoint
 10
28.57500039814177
 20
37.07138743236783
 30
0.0
  0
ENDBLK
  5
56B95
330
56B8A
100
AcDbEntity
  8
0
100
AcDbBlockEnd
  0
BLOCK
  5
56BE2
330
56BD7
100
AcDbEntity
  8
0
100
AcDbBlockBegin
  2
*D11
 70
     1
 10
0.0
 20
0.0
 30
0.0
  3
*D11
  1

  0
LINE
  5
56E7C
330
56BD7
100
AcDbEntity
  8
2
100
AcDbLine
 10
64.37500339814171
 20
-5.750000016388652
 30
0.0
 11
55.99412504917298
 21
-5.750000016388649
 31
0.0
  0
LINE
  5
56E7D
330
56BD7
100
AcDbEntity
  8
2
100
AcDbLine
 10
64.37500339814171
 20
5.749999983611361
 30
0.0
 11
55.99412504917298
 21
5.749999983611363
 31
0.0
  0
LINE
  5
56E7E
330
56BD7
100
AcDbEntity
  8
2
100
AcDbLine
 10
57.49412504917298
 20
9.249999983611361
 30
0.0
 11
57.49412504917298
 21
12.74999998361136
 31
0.0
  0
LINE
  5
56E7F
330
56BD7
100
AcDbEntity
  8
2
100
AcDbLine
 10
57.49412504917298
 20
-9.25000001638865
 30
0.0
 11
57.49412504917296
 21
-58.13416374280007
 31
0.0
  0
SOLID
  5
56E80
330
56BD7
100
AcDbEntity
  8
2
100
AcDbTrace
 10
56.91079171583965
 20
9.249999983611361
 30
0.0
 11
58.07745838250632
 21
9.249999983611361
 31
0.0
 12
57.49412504917298
 22
5.749999983611362
 32
0.0
 13
57.49412504917298
 23
5.749999983611362
 33
0.0
  0
SOLID
  5
56E81
330
56BD7
100
AcDbEntity
  8
2
100
AcDbTrace
 10
56.91079171583965
 20
-9.25000001638865
 30
0.0
 11
58.07745838250632
 21
-9.25000001638865
 31
0.0
 12
57.49412504917298
 22
-5.75000001638865
 32
0.0
 13
57.49412504917298
 23
-5.75000001638865
 33
0.0
  0
MTEXT
  5
56E82
330
56BD7
100
AcDbEntity
  8
2
100
AcDbMText
 10
53.44412504917298
 20
-37.16749707613339
 30
0.0
 40
3.5
 41
0.0
 71
     5
 72
     1
  1
\A1;%%C11.5 [%%C.453"]
  7
simplex
 11
0.0000000000000001
 21
1.0
 31
0.0
 73
     1
 44
1.0
1001
ACAD
1000
MTEXTBEGIN
1070
    73
1070
     1
1070
    44
1040
1.0
1070
    74
1070
     0
1000
MTEXTEND
  0
POINT
  5
56E83
330
56BD7
100
AcDbEntity
  8
Defpoints
 62
     0
100
AcDbPoint
 10
64.37500339814171
 20
-5.750000016388652
 30
0.0
  0
POINT
  5
56E84
330
56BD7
100
AcDbEntity
  8
Defpoints
 62
     0
100
AcDbPoint
 10
64.37500339814171
 20
5.749999983611361
 30
0.0
  0
POINT
  5
56E85
330
56BD7
100
AcDbEntity
  8
Defpoints
 62
     0
100
AcDbPoint
 10
57.49412504917298
 20
5.749999983611362
 30
0.0
  0
ENDBLK
  5
56BE3
330
56BD7
100
AcDbEntity
  8
0
100
AcDbBlockEnd
  0
BLOCK
  5
56C0B
330
56C00
100
AcDbEntity
  8
0
100
AcDbBlockBegin
  2
*D12
 70
     1
 10
0.0
 20
0.0
 30
0.0
  3
*D12
  1

  0
LINE
  5
56C71
330
56C00
100
AcDbEntity
  8
sk2
100
AcDbLine
 10
-68.8499996018582
 20
-6.349999516388592
 30
0.0
 11
-91.11416924157646
 21
-6.349999516388584
 31
0.0
  0
LINE
  5
56C72
330
56C00
100
AcDbEntity
  8
sk2
100
AcDbLine
 10
-68.84998510185806
 20
6.350000483611352
 30
0.0
 11
-91.11416924157646
 21
6.35000048361136
 31
0.0
  0
LINE
  5
56C73
330
56C00
100
AcDbEntity
  8
sk2
100
AcDbLine
 10
-89.61416924157646
 20
2.850000483611357
 30
0.0
 11
-89.61416924157646
 21
-2.849999516388587
 31
0.0
  0
LINE
  5
56C74
330
56C00
100
AcDbEntity
  8
sk2
100
AcDbLine
 10
-89.61416924157646
 20
-6.349999516388588
 30
0.0
 11
-89.61416924157648
 21
-51.78333284972191
 31
0.0
  0
SOLID
  5
56C75
330
56C00
100
AcDbEntity
  8
sk2
100
AcDbTrace
 10
-90.19750257490981
 20
2.850000483611357
 30
0.0
 11
-89.03083590824314
 21
2.850000483611357
 31
0.0
 12
-89.61416924157646
 22
6.350000483611355
 32
0.0
 13
-89.61416924157646
 23
6.350000483611355
 33
0.0
  0
SOLID
  5
56C76
330
56C00
100
AcDbEntity
  8
sk2
100
AcDbTrace
 10
-90.19750257490981
 20
-2.849999516388587
 30
0.0
 11
-89.03083590824314
 21
-2.849999516388587
 31
0.0
 12
-89.61416924157646
 22
-6.349999516388588
 32
0.0
 13
-89.61416924157646
 23
-6.349999516388588
 33
0.0
  0
MTEXT
  5
56C77
330
56C00
100
AcDbEntity
  8
sk2
100
AcDbMText
 10
-93.66416924157645
 20
-30.81666618305528
 30
0.0
 40
3.5
 41
0.0
 71
     5
 72
     1
  1
\A1;%%C12.7 [%%C.500"]
  7
simplex
 11
0.0000000000000001
 21
1.0
 31
0.0
 73
     1
 44
1.0
1001
ACAD
1000
MTEXTBEGIN
1070
    73
1070
     1
1070
    44
1040
1.0
1070
    74
1070
     0
1000
MTEXTEND
  0
POINT
  5
56C78
330
56C00
100
AcDbEntity
  8
Defpoints
 62
     0
100
AcDbPoint
 10
-68.8499996018582
 20
-6.349999516388592
 30
0.0
  0
POINT
  5
56C79
330
56C00
100
AcDbEntity
  8
Defpoints
 62
     0
100
AcDbPoint
 10
-68.84998510185806
 20
6.350000483611352
 30
0.0
  0
POINT
  5
56C7A
330
56C00
100
AcDbEntity
  8
Defpoints
 62
     0
100
AcDbPoint
 10
-89.61416924157646
 20
6.350000483611355
 30
0.0
  0
ENDBLK
  5
56C0C
330
56C00
100
AcDbEntity
  8
0
100
AcDbBlockEnd
  0
BLOCK
  5
56CBF
330
56CBE
100
AcDbEntity
  8
0
100
AcDbBlockBegin
  2
*D13
 70
     1
 10
0.0
 20
0.0
 30
0.0
  3
*D13
  1

  0
LINE
  5
56CC0
330
56CBE
100
AcDbEntity
  8
2
100
AcDbLine
 10
64.37499500000003
 20
5.749999999999971
 30
0.0
 11
64.37499500000003
 21
27.09157037082821
 31
0.0
  0
LINE
  5
56CC1
330
56CBE
100
AcDbEntity
  8
2
100
AcDbLine
 10
79.37499499999995
 20
17.6046139999999
 30
0.0
 11
79.37499499999995
 21
27.09157037082821
 31
0.0
  0
LINE
  5
56CC2
330
56CBE
100
AcDbEntity
  8
2
100
AcDbLine
 10
75.87499499999996
 20
25.59157037082821
 30
0.0
 11
67.87499500000001
 21
25.59157037082821
 31
0.0
  0
LINE
  5
56CC3
330
56CBE
100
AcDbEntity
  8
2
100
AcDbLine
 10
64.37499500000003
 20
25.59157037082821
 30
0.0
 11
30.60832833333334
 21
25.59157037082821
 31
0.0
  0
SOLID
  5
56CC4
330
56CBE
100
AcDbEntity
  8
2
100
AcDbTrace
 10
75.87499499999996
 20
26.17490370416154
 30
0.0
 11
75.87499499999996
 21
25.00823703749488
 31
0.0
 12
79.37499499999995
 22
25.59157037082821
 32
0.0
 13
79.37499499999995
 23
25.59157037082821
 33
0.0
  0
SOLID
  5
56CC5
330
56CBE
100
AcDbEntity
  8
2
100
AcDbTrace
 10
67.87499500000001
 20
26.17490370416154
 30
0.0
 11
67.87499500000001
 21
25.00823703749488
 31
0.0
 12
64.37499500000003
 22
25.59157037082821
 32
0.0
 13
64.37499500000003
 23
25.59157037082821
 33
0.0
  0
MTEXT
  5
56CC6
330
56CBE
100
AcDbEntity
  8
2
100
AcDbMText
 10
45.74166166666667
 20
29.6415703708282
 30
0.0
 40
3.5
 41
0.0
 71
     5
 72
     1
  1
\A1;15 [.591"]
  7
simplex
 73
     1
 44
0.892857
1001
ACAD
1000
MTEXTBEGIN
1070
    73
1070
     1
1070
    44
1040
0.892857
1070
    74
1070
     0
1000
MTEXTEND
  0
POINT
  5
56CC7
330
56CBE
100
AcDbEntity
  8
Defpoints
 62
     0
100
AcDbPoint
 10
64.37499500000003
 20
5.749999999999971
 30
0.0
  0
POINT
  5
56CC8
330
56CBE
100
AcDbEntity
  8
Defpoints
 62
     0
100
AcDbPoint
 10
79.37499499999995
 20
17.6046139999999
 30
0.0
  0
POINT
  5
56CC9
330
56CBE
100
AcDbEntity
  8
Defpoints
 62
     0
100
AcDbPoint
 10
79.37499499999995
 20
25.59157037082821
 30
0.0
  0
ENDBLK
  5
56CCA
330
56CBE
100
AcDbEntity
  8
0
100
AcDbBlockEnd
  0
BLOCK
  5
56CCC
330
56CCB
100
AcDbEntity
  8
0
100
AcDbBlockBegin
  2
*D14
 70
     1
 10
0.0
 20
0.0
 30
0.0
  3
*D14
  1

  0
LINE
  5
56CCD
330
56CCB
100
AcDbEntity
  8
2
100
AcDbLine
 10
64.37500299999995
 20
-5.750000000000007
 30
0.0
 11
55.99412465103121
 21
-5.750000000000004
 31
0.0
  0
LINE
  5
56CCE
330
56CCB
100
AcDbEntity
  8
2
100
AcDbLine
 10
64.37500299999995
 20
5.75
 30
0.0
 11
55.99412465103121
 21
5.750000000000002
 31
0.0
  0
LINE
  5
56CCF
330
56CCB
100
AcDbEntity
  8
2
100
AcDbLine
 10
57.4941246510312
 20
9.25
 30
0.0
 11
57.4941246510312
 21
12.75
 31
0.0
  0
LINE
  5
56CD0
330
56CCB
100
AcDbEntity
  8
2
100
AcDbLine
 10
57.4941246510312
 20
-9.250000000000003
 30
0.0
 11
57.49412465103119
 21
-58.13416372641142
 31
0.0
  0
SOLID
  5
56CD1
330
56CCB
100
AcDbEntity
  8
2
100
AcDbTrace
 10
56.91079131769789
 20
9.25
 30
0.0
 11
58.07745798436455
 21
9.25
 31
0.0
 12
57.4941246510312
 22
5.75
 32
0.0
 13
57.4941246510312
 23
5.75
 33
0.0
  0
SOLID
  5
56CD2
330
56CCB
100
AcDbEntity
  8
2
100
AcDbTrace
 10
56.91079131769789
 20
-9.250000000000003
 30
0.0
 11
58.07745798436455
 21
-9.250000000000003
 31
0.0
 12
57.4941246510312
 22
-5.750000000000006
 32
0.0
 13
57.4941246510312
 23
-5.750000000000006
 33
0.0
  0
MTEXT
  5
56CD3
330
56CCB
100
AcDbEntity
  8
2
100
AcDbMText
 10
53.44412465103122
 20
-37.16749705974475
 30
0.0
 40
3.5
 41
0.0
 71
     5
 72
     1
  1
\A1;%%C11.5 [%%C.453"]
  7
simplex
 11
0.0000000000000001
 21
1.0
 31
0.0
 73
     1
 44
1.0
1001
ACAD
1000
MTEXTBEGIN
1070
    73
1070
     1
1070
    44
1040
1.0
1070
    74
1070
     0
1000
MTEXTEND
  0
POINT
  5
56CD4
330
56CCB
100
AcDbEntity
  8
Defpoints
 62
     0
100
AcDbPoint
 10
64.37500299999995
 20
-5.750000000000007
 30
0.0
  0
POINT
  5
56CD5
330
56CCB
100
AcDbEntity
  8
Defpoints
 62
     0
100
AcDbPoint
 10
64.37500299999995
 20
5.75
 30
0.0
  0
POINT
  5
56CD6
330
56CCB
100
AcDbEntity
  8
Defpoints
 62
     0
100
AcDbPoint
 10
57.4941246510312
 20
5.75
 30
0.0
  0
ENDBLK
  5
56CD7
330
56CCB
100
AcDbEntity
  8
0
100
AcDbBlockEnd
  0
BLOCK
  5
56CD9
330
56CD8
100
AcDbEntity
  8
0
100
AcDbBlockBegin
  2
*D15
 70
     1
 10
0.0
 20
0.0
 30
0.0
  3
*D15
  1

  0
LINE
  5
56CDA
330
56CD8
100
AcDbEntity
  8
2
100
AcDbLine
 10
73.37499999999995
 20
6.000000012888586
 30
0.0
 11
96.58826305924186
 21
6.000000012888579
 31
0.0
  0
LINE
  5
56CDB
330
56CD8
100
AcDbEntity
  8
2
100
AcDbLine
 10
95.08826305924186
 20
2.500000012888579
 30
0.0
 11
95.08826305924186
 21
-5.999999984711434
 31
0.0
  0
LINE
  5
56CDC
330
56CD8
100
AcDbEntity
  8
2
100
AcDbLine
 10
95.08826305924186
 20
-5.999999984711434
 30
0.0
 11
95.08826305924186
 21
-47.93333331804475
 31
0.0
  0
SOLID
  5
56CDD
330
56CD8
100
AcDbEntity
  8
2
100
AcDbTrace
 10
94.50492972590851
 20
2.500000012888579
 30
0.0
 11
95.67159639257518
 21
2.500000012888579
 31
0.0
 12
95.08826305924186
 22
6.000000012888579
 32
0.0
 13
95.08826305924186
 23
6.000000012888579
 33
0.0
  0
MTEXT
  5
56CDE
330
56CD8
100
AcDbEntity
  8
2
100
AcDbMText
 10
91.03826305924185
 20
-28.71666665137809
 30
0.0
 40
3.5
 41
0.0
 71
     5
 72
     1
  1
\A1;%%C12 [%%c.472"]
  7
simplex
 11
0.0000000000000001
 21
1.0
 31
0.0
 73
     1
 44
1.0
1001
ACAD
1000
MTEXTBEGIN
1070
    73
1070
     1
1070
    44
1040
1.0
1070
    74
1070
     0
1000
MTEXTEND
  0
POINT
  5
56CDF
330
56CD8
100
AcDbEntity
  8
Defpoints
 62
     0
100
AcDbPoint
 10
73.37499999999995
 20
-5.999999984711427
 30
0.0
  0
POINT
  5
56CE0
330
56CD8
100
AcDbEntity
  8
Defpoints
 62
     0
100
AcDbPoint
 10
73.37499999999995
 20
6.000000012888586
 30
0.0
  0
POINT
  5
56CE1
330
56CD8
100
AcDbEntity
  8
Defpoints
 62
     0
100
AcDbPoint
 10
95.08826305924186
 20
6.000000012888579
 30
0.0
  0
ENDBLK
  5
56CE2
330
56CD8
100
AcDbEntity
  8
0
100
AcDbBlockEnd
  0
BLOCK
  5
56CE4
330
56CE3
100
AcDbEntity
  8
0
100
AcDbBlockBegin
  2
*D16
 70
     1
 10
0.0
 20
0.0
 30
0.0
  3
*D16
  1

  0
LINE
  5
56CE5
330
56CE3
100
AcDbEntity
  8
sk2
100
AcDbLine
 10
-87.70001300000009
 20
-6.349999483611334
 30
0.0
 11
-117.1468653179264
 21
-6.349999483611326
 31
0.0
  0
LINE
  5
56CE6
330
56CE3
100
AcDbEntity
  8
sk2
100
AcDbLine
 10
-87.70001300000009
 20
6.350000516388647
 30
0.0
 11
-117.1468653179264
 21
6.350000516388655
 31
0.0
  0
LINE
  5
56CE7
330
56CE3
100
AcDbEntity
  8
sk2
100
AcDbLine
 10
-115.6468653179264
 20
2.850000516388654
 30
0.0
 11
-115.6468653179264
 21
-2.849999483611325
 31
0.0
  0
LINE
  5
56CE8
330
56CE3
100
AcDbEntity
  8
sk2
100
AcDbLine
 10
-115.6468653179264
 20
-6.349999483611326
 30
0.0
 11
-115.6468653179264
 21
-57.87916615027796
 31
0.0
  0
SOLID
  5
56CE9
330
56CE3
100
AcDbEntity
  8
sk2
100
AcDbTrace
 10
-116.2301986512597
 20
2.850000516388654
 30
0.0
 11
-115.0635319845931
 21
2.850000516388654
 31
0.0
 12
-115.6468653179264
 22
6.350000516388655
 32
0.0
 13
-115.6468653179264
 23
6.350000516388655
 33
0.0
  0
SOLID
  5
56CEA
330
56CE3
100
AcDbEntity
  8
sk2
100
AcDbTrace
 10
-116.2301986512597
 20
-2.849999483611325
 30
0.0
 11
-115.0635319845931
 21
-2.849999483611325
 31
0.0
 12
-115.6468653179264
 22
-6.349999483611326
 32
0.0
 13
-115.6468653179264
 23
-6.349999483611326
 33
0.0
  0
MTEXT
  5
56CEB
330
56CE3
100
AcDbEntity
  8
sk2
100
AcDbMText
 10
-119.6968653179264
 20
-36.91249948361135
 30
0.0
 40
3.5
 41
0.0
 71
     5
 72
     1
  1
\A1;%%c12.7 [%%c.500"]
  7
simplex
 11
0.0000000000000001
 21
1.0
 31
0.0
 73
     1
 44
0.75
1001
ACAD
1000
MTEXTBEGIN
1070
    73
1070
     1
1070
    44
1040
0.75
1070
    74
1070
     0
1000
MTEXTEND
  0
POINT
  5
56CEC
330
56CE3
100
AcDbEntity
  8
Defpoints
 62
     0
100
AcDbPoint
 10
-87.70001300000009
 20
-6.349999483611334
 30
0.0
  0
POINT
  5
56CED
330
56CE3
100
AcDbEntity
  8
Defpoints
 62
     0
100
AcDbPoint
 10
-87.70001300000009
 20
6.350000516388647
 30
0.0
  0
POINT
  5
56CEE
330
56CE3
100
AcDbEntity
  8
Defpoints
 62
     0
100
AcDbPoint
 10
-115.6468653179264
 20
6.350000516388655
 30
0.0
  0
ENDBLK
  5
56CEF
330
56CE3
100
AcDbEntity
  8
0
100
AcDbBlockEnd
  0
BLOCK
  5
56CF1
330
56CF0
100
AcDbEntity
  8
0
100
AcDbBlockBegin
  2
*D17
 70
     1
 10
0.0
 20
0.0
 30
0.0
  3
*D17
  1

  0
LINE
  5
56CF2
330
56CF0
100
AcDbEntity
  8
2
100
AcDbLine
 10
79.37499960185816
 20
6.349999999999987
 30
0.0
 11
79.37499960185816
 21
41.4170452787456
 31
0.0
  0
LINE
  5
56CF3
330
56CF0
100
AcDbEntity
  8
2
100
AcDbLine
 10
-0.0000003981417649
 20
6.349974999999978
 30
0.0
 11
-0.0000003981417627
 21
41.4170452787456
 31
0.0
  0
LINE
  5
56CF4
330
56CF0
100
AcDbEntity
  8
2
100
AcDbLine
 10
75.87499960185819
 20
39.9170452787456
 30
0.0
 11
3.499999601858236
 21
39.9170452787456
 31
0.0
  0
SOLID
  5
56CF5
330
56CF0
100
AcDbEntity
  8
2
100
AcDbTrace
 10
75.87499960185819
 20
40.50037861207893
 30
0.0
 11
75.87499960185819
 21
39.33371194541228
 31
0.0
 12
79.37499960185816
 22
39.9170452787456
 32
0.0
 13
79.37499960185816
 23
39.9170452787456
 33
0.0
  0
SOLID
  5
56CF6
330
56CF0
100
AcDbEntity
  8
2
100
AcDbTrace
 10
3.499999601858236
 20
40.50037861207893
 30
0.0
 11
3.499999601858236
 21
39.33371194541228
 31
0.0
 12
-0.0000003981417628
 22
39.9170452787456
 32
0.0
 13
-0.0000003981417628
 23
39.9170452787456
 33
0.0
  0
MTEXT
  5
56CF7
330
56CF0
100
AcDbEntity
  8
2
100
AcDbMText
 10
39.68749960185821
 20
43.9670452787456
 30
0.0
 40
3.5
 41
0.0
 71
     5
 72
     1
  1
\A1;79.375 [3.125"]
  7
simplex
 73
     1
 44
1.0
1001
ACAD
1000
MTEXTBEGIN
1070
    73
1070
     1
1070
    44
1040
1.0
1070
    74
1070
     0
1000
MTEXTEND
  0
POINT
  5
56CF8
330
56CF0
100
AcDbEntity
  8
Defpoints
 62
     0
100
AcDbPoint
 10
79.37499960185816
 20
6.349999999999987
 30
0.0
  0
POINT
  5
56CF9
330
56CF0
100
AcDbEntity
  8
Defpoints
 62
     0
100
AcDbPoint
 10
-0.0000003981417649
 20
6.349974999999978
 30
0.0
  0
POINT
  5
56CFA
330
56CF0
100
AcDbEntity
  8
Defpoints
 62
     0
100
AcDbPoint
 10
-0.0000003981417628
 20
39.9170452787456
 30
0.0
  0
ENDBLK
  5
56CFB
330
56CF0
100
AcDbEntity
  8
0
100
AcDbBlockEnd
  0
BLOCK
  5
56CFD
330
56CFC
100
AcDbEntity
  8
0
100
AcDbBlockBegin
  2
*D18
 70
     1
 10
0.0
 20
0.0
 30
0.0
  3
*D18
  1

  0
LINE
  5
56CFE
330
56CFC
100
AcDbEntity
  8
sk2
100
AcDbLine
 10
-88.90000000000004
 20
5.349996016388615
 30
0.0
 11
-88.90000000000004
 21
56.02343251608181
 31
0.0
  0
LINE
  5
56CFF
330
56CFC
100
AcDbEntity
  8
sk2
100
AcDbLine
 10
79.37499999999992
 20
-0.0000154836114064
 30
0.0
 11
79.37499999999992
 21
56.02343251608181
 31
0.0
  0
LINE
  5
56D00
330
56CFC
100
AcDbEntity
  8
sk2
100
AcDbLine
 10
-85.40000000000004
 20
54.52343251608181
 30
0.0
 11
75.87499999999995
 21
54.52343251608181
 31
0.0
  0
SOLID
  5
56D01
330
56CFC
100
AcDbEntity
  8
sk2
100
AcDbTrace
 10
-85.40000000000004
 20
55.10676584941514
 30
0.0
 11
-85.40000000000004
 21
53.94009918274846
 31
0.0
 12
-88.90000000000004
 22
54.52343251608181
 32
0.0
 13
-88.90000000000004
 23
54.52343251608181
 33
0.0
  0
SOLID
  5
56D02
330
56CFC
100
AcDbEntity
  8
sk2
100
AcDbTrace
 10
75.87499999999995
 20
55.10676584941514
 30
0.0
 11
75.87499999999995
 21
53.94009918274846
 31
0.0
 12
79.37499999999992
 22
54.52343251608181
 32
0.0
 13
79.37499999999992
 23
54.52343251608181
 33
0.0
  0
MTEXT
  5
56D03
330
56CFC
100
AcDbEntity
  8
sk2
100
AcDbMText
 10
-4.762496999999996
 20
58.57343251608181
 30
0.0
 40
3.5
 41
0.0
 71
     5
 72
     1
  1
\A1;168.275 [6.625"]
  7
simplex
 73
     1
 44
0.892857
1001
ACAD
1000
MTEXTBEGIN
1070
    73
1070
     1
1070
    44
1040
0.892857
1070
    74
1070
     0
1000
MTEXTEND
  0
POINT
  5
56D04
330
56CFC
100
AcDbEntity
  8
Defpoints
 62
     0
100
AcDbPoint
 10
-88.90000000000004
 20
5.349996016388615
 30
0.0
  0
POINT
  5
56D05
330
56CFC
100
AcDbEntity
  8
Defpoints
 62
     0
100
AcDbPoint
 10
79.37499999999992
 20
-0.0000154836114064
 30
0.0
  0
POINT
  5
56D06
330
56CFC
100
AcDbEntity
  8
Defpoints
 62
     0
100
AcDbPoint
 10
79.37499999999992
 20
54.52343251608181
 30
0.0
  0
ENDBLK
  5
56D07
330
56CFC
100
AcDbEntity
  8
0
100
AcDbBlockEnd
  0
BLOCK
  5
56D09
330
56D08
100
AcDbEntity
  8
0
100
AcDbBlockBegin
  2
*D19
 70
     1
 10
0.0
 20
0.0
 30
0.0
  3
*D19
  1

  0
LINE
  5
56D0A
330
56D08
100
AcDbEntity
  8
2
100
AcDbLine
 10
109.5963743893994
 20
33.14848470789363
 30
0.0
 11
80.38320889407916
 21
6.413657950590184
 31
0.0
  0
MTEXT
  5
56D0B
330
56D08
100
AcDbEntity
  8
2
100
AcDbMText
 10
93.54653384501537
 20
23.95024474038657
 30
0.0
 40
3.5
 41
0.0
 71
     5
 72
     1
  1
\A1;R6 [R.236"]
  7
simplex
 11
0.7377061993767749
 21
0.6751218878106933
 31
0.0
 73
     1
 44
1.0
1001
ACAD
1000
MTEXTBEGIN
1070
    73
1070
     1
1070
    44
1040
1.0
1070
    74
1070
     0
1000
MTEXTEND
  0
SOLID
  5
56D0C
330
56D08
100
AcDbEntity
  8
2
100
AcDbTrace
 10
79.98938779285625
 20
6.843986566893298
 30
0.0
 11
80.77702999530208
 21
5.983329334287063
 31
0.0
 12
77.80123719626043
 22
4.050731343252756
 32
0.0
 13
77.80123719626043
 23
4.050731343252756
 33
0.0
  0
LINE
  5
56D0D
330
56D08
100
AcDbEntity
  8
2
100
AcDbLine
 10
73.28499999999976
 20
0.0000000163885758
 30
0.0
 11
73.46499999999976
 21
0.0000000163885687
 31
0.0
  0
LINE
  5
56D0E
330
56D08
100
AcDbEntity
  8
2
100
AcDbLine
 10
73.37499999999976
 20
-0.0899999836114276
 30
0.0
 11
73.37499999999976
 21
0.0900000163885651
 31
0.0
  0
POINT
  5
56D0F
330
56D08
100
AcDbEntity
  8
Defpoints
 62
     0
100
AcDbPoint
 10
77.80123719626043
 20
4.050731343252756
 30
0.0
  0
POINT
  5
56D10
330
56D08
100
AcDbEntity
  8
Defpoints
 62
     0
100
AcDbPoint
 10
73.37499999999976
 20
0.0000000163885758
 30
0.0
  0
ENDBLK
  5
56D11
330
56D08
100
AcDbEntity
  8
0
100
AcDbBlockEnd
  0
BLOCK
  5
56DFE
330
56DF3
100
AcDbEntity
  8
0
100
AcDbBlockBegin
  2
*D21
 70
     1
 10
0.0
 20
0.0
 30
0.0
  3
*D21
  1

  0
LINE
  5
56E47
330
56DF3
100
AcDbEntity
  8
2
100
AcDbLine
 10
358.1205788066903
 20
-13.56508416031957
 30
0.0
 11
358.1205788066903
 21
7.776486210508664
 31
0.0
  0
LINE
  5
56E48
330
56DF3
100
AcDbEntity
  8
2
100
AcDbLine
 10
373.1205788066903
 20
-1.710470160319644
 30
0.0
 11
373.1205788066903
 21
7.776486210508664
 31
0.0
  0
LINE
  5
56E49
330
56DF3
100
AcDbEntity
  8
2
100
AcDbLine
 10
369.6205788066903
 20
6.276486210508664
 30
0.0
 11
361.6205788066903
 21
6.276486210508664
 31
0.0
  0
LINE
  5
56E4A
330
56DF3
100
AcDbEntity
  8
2
100
AcDbLine
 10
358.1205788066903
 20
6.276486210508664
 30
0.0
 11
324.3539121400237
 21
6.276486210508664
 31
0.0
  0
SOLID
  5
56E4B
330
56DF3
100
AcDbEntity
  8
2
100
AcDbTrace
 10
369.6205788066903
 20
6.859819543841997
 30
0.0
 11
369.6205788066903
 21
5.693152877175331
 31
0.0
 12
373.1205788066903
 22
6.276486210508664
 32
0.0
 13
373.1205788066903
 23
6.276486210508664
 33
0.0
  0
SOLID
  5
56E4C
330
56DF3
100
AcDbEntity
  8
2
100
AcDbTrace
 10
361.6205788066903
 20
6.859819543841997
 30
0.0
 11
361.6205788066903
 21
5.693152877175331
 31
0.0
 12
358.1205788066903
 22
6.276486210508664
 32
0.0
 13
358.1205788066903
 23
6.276486210508664
 33
0.0
  0
MTEXT
  5
56E4D
330
56DF3
100
AcDbEntity
  8
2
100
AcDbMText
 10
339.487245473357
 20
10.32648621050866
 30
0.0
 40
3.5
 41
0.0
 71
     5
 72
     1
  1
\A1;15 [.591"]
  7
simplex
 73
     1
 44
0.892857
1001
ACAD
1000
MTEXTBEGIN
1070
    73
1070
     1
1070
    44
1040
0.892857
1070
    74
1070
     0
1000
MTEXTEND
  0
POINT
  5
56E4E
330
56DF3
100
AcDbEntity
  8
Defpoints
 62
     0
100
AcDbPoint
 10
358.1205788066903
 20
-13.56508416031957
 30
0.0
  0
POINT
  5
56E4F
330
56DF3
100
AcDbEntity
  8
Defpoints
 62
     0
100
AcDbPoint
 10
373.1205788066903
 20
-1.710470160319644
 30
0.0
  0
POINT
  5
56E50
330
56DF3
100
AcDbEntity
  8
Defpoints
 62
     0
100
AcDbPoint
 10
373.1205788066903
 20
6.276486210508664
 30
0.0
  0
ENDBLK
  5
56DFF
330
56DF3
100
AcDbEntity
  8
0
100
AcDbBlockEnd
  0
BLOCK
  5
56E09
330
56E00
100
AcDbEntity
  8
0
100
AcDbBlockBegin
  2
*D22
 70
     1
 10
0.0
 20
0.0
 30
0.0
  3
*D22
  1

  0
LINE
  5
56E51
330
56E00
100
AcDbEntity
  8
2
100
AcDbLine
 10
367.1205838066903
 20
-13.31508414743095
 30
0.0
 11
390.3338468659322
 21
-13.31508414743096
 31
0.0
  0
LINE
  5
56E52
330
56E00
100
AcDbEntity
  8
2
100
AcDbLine
 10
388.8338468659322
 20
-16.81508414743096
 30
0.0
 11
388.8338468659322
 21
-25.31508414503098
 31
0.0
  0
LINE
  5
56E53
330
56E00
100
AcDbEntity
  8
2
100
AcDbLine
 10
388.8338468659322
 20
-25.31508414503098
 30
0.0
 11
388.8338468659322
 21
-67.24841747836435
 31
0.0
  0
SOLID
  5
56E54
330
56E00
100
AcDbEntity
  8
2
100
AcDbTrace
 10
388.2505135325989
 20
-16.81508414743096
 30
0.0
 11
389.4171801992655
 21
-16.81508414743096
 31
0.0
 12
388.8338468659322
 22
-13.31508414743096
 32
0.0
 13
388.8338468659322
 23
-13.31508414743096
 33
0.0
  0
MTEXT
  5
56E55
330
56E00
100
AcDbEntity
  8
2
100
AcDbMText
 10
384.7838468659322
 20
-48.03175081169763
 30
0.0
 40
3.5
 41
0.0
 71
     5
 72
     1
  1
\A1;%%C12 [%%c.472"]
  7
simplex
 11
0.0000000000000001
 21
1.0
 31
0.0
 73
     1
 44
1.0
1001
ACAD
1000
MTEXTBEGIN
1070
    73
1070
     1
1070
    44
1040
1.0
1070
    74
1070
     0
1000
MTEXTEND
  0
POINT
  5
56E56
330
56E00
100
AcDbEntity
  8
Defpoints
 62
     0
100
AcDbPoint
 10
367.1205838066903
 20
-25.31508414503097
 30
0.0
  0
POINT
  5
56E57
330
56E00
100
AcDbEntity
  8
Defpoints
 62
     0
100
AcDbPoint
 10
367.1205838066903
 20
-13.31508414743095
 30
0.0
  0
POINT
  5
56E58
330
56E00
100
AcDbEntity
  8
Defpoints
 62
     0
100
AcDbPoint
 10
388.8338468659322
 20
-13.31508414743096
 30
0.0
  0
ENDBLK
  5
56E0A
330
56E00
100
AcDbEntity
  8
0
100
AcDbBlockEnd
  0
BLOCK
  5
56E15
330
56E0B
100
AcDbEntity
  8
0
100
AcDbBlockBegin
  2
*D23
 70
     1
 10
0.0
 20
0.0
 30
0.0
  3
*D23
  1

  0
LINE
  5
56EB1
330
56E0B
100
AcDbEntity
  8
sk2
100
AcDbLine
 10
-88.8999992037165
 20
5.349995999999975
 30
0.0
 11
-88.8999992037165
 21
56.02343249969317
 31
0.0
  0
LINE
  5
56EB2
330
56E0B
100
AcDbEntity
  8
sk2
100
AcDbLine
 10
79.37500079628347
 20
-0.0000155000000461
 30
0.0
 11
79.37500079628347
 21
56.02343249969317
 31
0.0
  0
LINE
  5
56EB3
330
56E0B
100
AcDbEntity
  8
sk2
100
AcDbLine
 10
-85.3999992037165
 20
54.52343249969317
 30
0.0
 11
75.87500079628347
 21
54.52343249969317
 31
0.0
  0
SOLID
  5
56EB4
330
56E0B
100
AcDbEntity
  8
sk2
100
AcDbTrace
 10
-85.3999992037165
 20
55.1067658330265
 30
0.0
 11
-85.3999992037165
 21
53.94009916635983
 31
0.0
 12
-88.8999992037165
 22
54.52343249969317
 32
0.0
 13
-88.8999992037165
 23
54.52343249969317
 33
0.0
  0
SOLID
  5
56EB5
330
56E0B
100
AcDbEntity
  8
sk2
100
AcDbTrace
 10
75.87500079628347
 20
55.1067658330265
 30
0.0
 11
75.87500079628347
 21
53.94009916635983
 31
0.0
 12
79.37500079628347
 22
54.52343249969317
 32
0.0
 13
79.37500079628347
 23
54.52343249969317
 33
0.0
  0
MTEXT
  5
56EB6
330
56E0B
100
AcDbEntity
  8
sk2
100
AcDbMText
 10
-4.762496203716466
 20
58.57343249969317
 30
0.0
 40
3.5
 41
0.0
 71
     5
 72
     1
  1
\A1;168.275 [6.625"]
  7
simplex
 73
     1
 44
0.892857
1001
ACAD
1000
MTEXTBEGIN
1070
    73
1070
     1
1070
    44
1040
0.892857
1070
    74
1070
     0
1000
MTEXTEND
  0
POINT
  5
56EB7
330
56E0B
100
AcDbEntity
  8
Defpoints
 62
     0
100
AcDbPoint
 10
-88.8999992037165
 20
5.349995999999975
 30
0.0
  0
POINT
  5
56EB8
330
56E0B
100
AcDbEntity
  8
Defpoints
 62
     0
100
AcDbPoint
 10
79.37500079628347
 20
-0.0000155000000461
 30
0.0
  0
POINT
  5
56EB9
330
56E0B
100
AcDbEntity
  8
Defpoints
 62
     0
100
AcDbPoint
 10
79.37500079628347
 20
54.52343249969317
 30
0.0
  0
ENDBLK
  5
56E16
330
56E0B
100
AcDbEntity
  8
0
100
AcDbBlockEnd
  0
BLOCK
  5
56E22
330
56E17
100
AcDbEntity
  8
0
100
AcDbBlockBegin
  2
*D24
 70
     1
 10
0.0
 20
0.0
 30
0.0
  3
*D24
  1

  0
LINE
  5
56EBA
330
56E17
100
AcDbEntity
  8
sk2
100
AcDbLine
 10
-87.70001220371657
 20
-6.349999499999974
 30
0.0
 11
-117.1468645216429
 21
-6.349999499999966
 31
0.0
  0
LINE
  5
56EBB
330
56E17
100
AcDbEntity
  8
sk2
100
AcDbLine
 10
-87.70001220371657
 20
6.350000500000007
 30
0.0
 11
-117.1468645216429
 21
6.350000500000015
 31
0.0
  0
LINE
  5
56EBC
330
56E17
100
AcDbEntity
  8
sk2
100
AcDbLine
 10
-115.6468645216429
 20
2.850000500000015
 30
0.0
 11
-115.6468645216429
 21
-2.849999499999966
 31
0.0
  0
LINE
  5
56EBD
330
56E17
100
AcDbEntity
  8
sk2
100
AcDbLine
 10
-115.6468645216429
 20
-6.349999499999966
 30
0.0
 11
-115.6468645216429
 21
-57.87916616666663
 31
0.0
  0
SOLID
  5
56EBE
330
56E17
100
AcDbEntity
  8
sk2
100
AcDbTrace
 10
-116.2301978549762
 20
2.850000500000015
 30
0.0
 11
-115.0635311883095
 21
2.850000500000015
 31
0.0
 12
-115.6468645216429
 22
6.350000500000015
 32
0.0
 13
-115.6468645216429
 23
6.350000500000015
 33
0.0
  0
SOLID
  5
56EBF
330
56E17
100
AcDbEntity
  8
sk2
100
AcDbTrace
 10
-116.2301978549762
 20
-2.849999499999966
 30
0.0
 11
-115.0635311883095
 21
-2.849999499999966
 31
0.0
 12
-115.6468645216429
 22
-6.349999499999966
 32
0.0
 13
-115.6468645216429
 23
-6.349999499999966
 33
0.0
  0
MTEXT
  5
56EC0
330
56E17
100
AcDbEntity
  8
sk2
100
AcDbMText
 10
-119.6968645216429
 20
-36.91249949999999
 30
0.0
 40
3.5
 41
0.0
 71
     5
 72
     1
  1
\A1;%%c12.7 [%%c.500"]
  7
simplex
 11
0.0000000000000001
 21
1.0
 31
0.0
 73
     1
 44
0.75
1001
ACAD
1000
MTEXTBEGIN
1070
    73
1070
     1
1070
    44
1040
0.75
1070
    74
1070
     0
1000
MTEXTEND
  0
POINT
  5
56EC1
330
56E17
100
AcDbEntity
  8
Defpoints
 62
     0
100
AcDbPoint
 10
-87.70001220371657
 20
-6.349999499999974
 30
0.0
  0
POINT
  5
56EC2
330
56E17
100
AcDbEntity
  8
Defpoints
 62
     0
100
AcDbPoint
 10
-87.70001220371657
 20
6.350000500000007
 30
0.0
  0
POINT
  5
56EC3
330
56E17
100
AcDbEntity
  8
Defpoints
 62
     0
100
AcDbPoint
 10
-115.6468645216429
 20
6.350000500000015
 30
0.0
  0
ENDBLK
  5
56E23
330
56E17
100
AcDbEntity
  8
0
100
AcDbBlockEnd
  0
BLOCK
  5
56E2E
330
56E24
100
AcDbEntity
  8
0
100
AcDbBlockBegin
  2
*D25
 70
     1
 10
0.0
 20
0.0
 30
0.0
  3
*D25
  1

  0
LINE
  5
56EC4
330
56E24
100
AcDbEntity
  8
2
100
AcDbLine
 10
79.37500039814171
 20
6.349999983611354
 30
0.0
 11
79.37500039814171
 21
41.41704526235696
 31
0.0
  0
LINE
  5
56EC5
330
56E24
100
AcDbEntity
  8
2
100
AcDbLine
 10
0.0000003981417649
 20
6.349974983611332
 30
0.0
 11
0.000000398141767
 21
41.41704526235696
 31
0.0
  0
LINE
  5
56EC6
330
56E24
100
AcDbEntity
  8
2
100
AcDbLine
 10
75.8750003981417
 20
39.91704526235697
 30
0.0
 11
3.500000398141767
 21
39.91704526235697
 31
0.0
  0
SOLID
  5
56EC7
330
56E24
100
AcDbEntity
  8
2
100
AcDbTrace
 10
75.8750003981417
 20
40.50037859569029
 30
0.0
 11
75.8750003981417
 21
39.33371192902363
 31
0.0
 12
79.37500039814171
 22
39.91704526235697
 32
0.0
 13
79.37500039814171
 23
39.91704526235697
 33
0.0
  0
SOLID
  5
56EC8
330
56E24
100
AcDbEntity
  8
2
100
AcDbTrace
 10
3.500000398141767
 20
40.50037859569029
 30
0.0
 11
3.500000398141767
 21
39.33371192902363
 31
0.0
 12
0.0000003981417669
 22
39.91704526235697
 32
0.0
 13
0.0000003981417669
 23
39.91704526235697
 33
0.0
  0
MTEXT
  5
56EC9
330
56E24
100
AcDbEntity
  8
2
100
AcDbMText
 10
39.68750039814177
 20
43.96704526235696
 30
0.0
 40
3.5
 41
0.0
 71
     5
 72
     1
  1
\A1;79.375 [3.125"]
  7
simplex
 73
     1
 44
1.0
1001
ACAD
1000
MTEXTBEGIN
1070
    73
1070
     1
1070
    44
1040
1.0
1070
    74
1070
     0
1000
MTEXTEND
  0
POINT
  5
56ECA
330
56E24
100
AcDbEntity
  8
Defpoints
 62
     0
100
AcDbPoint
 10
79.37500039814171
 20
6.349999983611354
 30
0.0
  0
POINT
  5
56ECB
330
56E24
100
AcDbEntity
  8
Defpoints
 62
     0
100
AcDbPoint
 10
0.0000003981417649
 20
6.349974983611332
 30
0.0
  0
POINT
  5
56ECC
330
56E24
100
AcDbEntity
  8
Defpoints
 62
     0
100
AcDbPoint
 10
0.0000003981417669
 20
39.91704526235697
 30
0.0
  0
ENDBLK
  5
56E2F
330
56E24
100
AcDbEntity
  8
0
100
AcDbBlockEnd
  0
BLOCK
  5
56E38
330
56E30
100
AcDbEntity
  8
0
100
AcDbBlockBegin
  2
*D26
 70
     1
 10
0.0
 20
0.0
 30
0.0
  3
*D26
  1

  0
LINE
  5
56E75
330
56E30
100
AcDbEntity
  8
2
100
AcDbLine
 10
403.3419581960898
 20
13.83340054757397
 30
0.0
 11
374.1287927007694
 21
-12.90142620972938
 31
0.0
  0
MTEXT
  5
56E76
330
56E30
100
AcDbEntity
  8
2
100
AcDbMText
 10
387.2921176517057
 20
4.635160580066894
 30
0.0
 40
3.5
 41
0.0
 71
     5
 72
     1
  1
\A1;R6 [R.236"]
  7
simplex
 11
0.7377061993767772
 21
0.6751218878106906
 31
0.0
 73
     1
 44
1.0
1001
ACAD
1000
MTEXTBEGIN
1070
    73
1070
     1
1070
    44
1040
1.0
1070
    74
1070
     0
1000
MTEXTEND
  0
SOLID
  5
56E77
330
56E30
100
AcDbEntity
  8
2
100
AcDbTrace
 10
373.7349715995466
 20
-12.47109759342626
 30
0.0
 11
374.5226138019924
 21
-13.33175482603249
 31
0.0
 12
371.5468210029508
 22
-15.26435281706679
 32
0.0
 13
371.5468210029508
 23
-15.26435281706679
 33
0.0
  0
LINE
  5
56E78
330
56E30
100
AcDbEntity
  8
2
100
AcDbLine
 10
367.0305838066902
 20
-19.31508414393087
 30
0.0
 11
367.2105838066901
 21
-19.3150841439309
 31
0.0
  0
LINE
  5
56E79
330
56E30
100
AcDbEntity
  8
2
100
AcDbLine
 10
367.1205838066901
 20
-19.40508414393093
 30
0.0
 11
367.1205838066901
 21
-19.22508414393093
 31
0.0
  0
POINT
  5
56E7A
330
56E30
100
AcDbEntity
  8
Defpoints
 62
     0
100
AcDbPoint
 10
371.5468210029508
 20
-15.26435281706679
 30
0.0
  0
POINT
  5
56E7B
330
56E30
100
AcDbEntity
  8
Defpoints
 62
     0
100
AcDbPoint
 10
367.1205838066901
 20
-19.3150841439309
 30
0.0
  0
ENDBLK
  5
56E39
330
56E30
100
AcDbEntity
  8
0
100
AcDbBlockEnd
  0
BLOCK
  5
56E45
330
56E3A
100
AcDbEntity
  8
0
100
AcDbBlockBegin
  2
*D27
 70
     1
 10
0.0
 20
0.0
 30
0.0
  3
*D27
  1

  0
LINE
  5
56E3B
330
56E3A
100
AcDbEntity
  8
2
100
AcDbLine
 10
358.1205868066902
 20
-25.06508416031955
 30
0.0
 11
349.7397084577215
 21
-25.06508416031955
 31
0.0
  0
LINE
  5
56E3C
330
56E3A
100
AcDbEntity
  8
2
100
AcDbLine
 10
358.1205868066902
 20
-13.56508416031954
 30
0.0
 11
349.7397084577215
 21
-13.56508416031954
 31
0.0
  0
LINE
  5
56E3D
330
56E3A
100
AcDbEntity
  8
2
100
AcDbLine
 10
351.2397084577215
 20
-10.06508416031954
 30
0.0
 11
351.2397084577215
 21
-6.565084160319541
 31
0.0
  0
LINE
  5
56E3E
330
56E3A
100
AcDbEntity
  8
2
100
AcDbLine
 10
351.2397084577215
 20
-28.56508416031955
 30
0.0
 11
351.2397084577215
 21
-77.44924788673102
 31
0.0
  0
SOLID
  5
56E3F
330
56E3A
100
AcDbEntity
  8
2
100
AcDbTrace
 10
350.6563751243882
 20
-10.06508416031954
 30
0.0
 11
351.8230417910548
 21
-10.06508416031954
 31
0.0
 12
351.2397084577215
 22
-13.56508416031954
 32
0.0
 13
351.2397084577215
 23
-13.56508416031954
 33
0.0
  0
SOLID
  5
56E40
330
56E3A
100
AcDbEntity
  8
2
100
AcDbTrace
 10
350.6563751243882
 20
-28.56508416031955
 30
0.0
 11
351.8230417910548
 21
-28.56508416031955
 31
0.0
 12
351.2397084577215
 22
-25.06508416031955
 32
0.0
 13
351.2397084577215
 23
-25.06508416031955
 33
0.0
  0
MTEXT
  5
56E41
330
56E3A
100
AcDbEntity
  8
2
100
AcDbMText
 10
347.1897084577215
 20
-56.48258122006429
 30
0.0
 40
3.5
 41
0.0
 71
     5
 72
     1
  1
\A1;%%C11.5 [%%C.453"]
  7
simplex
 11
0.0000000000000001
 21
1.0
 31
0.0
 73
     1
 44
1.0
1001
ACAD
1000
MTEXTBEGIN
1070
    73
1070
     1
1070
    44
1040
1.0
1070
    74
1070
     0
1000
MTEXTEND
  0
POINT
  5
56E42
330
56E3A
100
AcDbEntity
  8
Defpoints
 62
     0
100
AcDbPoint
 10
358.1205868066902
 20
-25.06508416031955
 30
0.0
  0
POINT
  5
56E43
330
56E3A
100
AcDbEntity
  8
Defpoints
 62
     0
100
AcDbPoint
 10
358.1205868066902
 20
-13.56508416031954
 30
0.0
  0
POINT
  5
56E44
330
56E3A
100
AcDbEntity
  8
Defpoints
 62
     0
100
AcDbPoint
 10
351.2397084577215
 20
-13.56508416031954
 30
0.0
  0
ENDBLK
  5
56E46
330
56E3A
100
AcDbEntity
  8
0
100
AcDbBlockEnd
  0
ENDSEC
  0
SECTION
  2
ENTITIES
  0
INSERT
  5
68C
330
1F
100
AcDbEntity
  8
0
100
AcDbBlockReference
  2
zero block
 10
0.0
 20
0.0
 30
0.0
  0
MTEXT
  5
53AD9
330
1F
100
AcDbEntity
  8
sk6
100
AcDbMText
 10
-85.91431979934203
 20
84.56961532674586
 30
0.0
 40
5.0
 41
70.03712541027798
 71
     1
 72
     5
  1
SRFU08S08LW\PSUFT12R10
  7
simplex
 73
     1
 44
1.0
1001
ACAD
1000
ACAD_MTEXT_DEFINED_HEIGHT_BEGIN
1070
    46
1040
0.0
1000
ACAD_MTEXT_DEFINED_HEIGHT_END
1000
MTEXTBEGIN
1070
    73
1070
     1
1070
    44
1040
1.0
1070
    74
1070
     0
1000
MTEXTEND
  0
SPLINE
  5
56973
330
1F
100
AcDbEntity
  8
1
100
AcDbSpline
210
0.0
220
0.0
230
1.0
 70
     8
 71
     3
 72
    10
 73
     6
 74
     4
 42
0.0000000001
 43
0.0000000001
 44
0.000001
 12
0.9650356897166268
 22
-0.2621185181805258
 32
0.0
 13
0.9223637646072724
 23
-0.3863225151858227
 33
0.0
 40
0.0
 40
0.0
 40
0.0
 40
0.0
 40
0.7640390058029344
 40
1.533174933640703
 40
2.300551820622068
 40
2.300551820622068
 40
2.300551820622068
 40
2.300551820622068
 10
71.20068658564169
 20
4.608642087126893
 30
0.0
 10
71.44646155528684
 20
4.541885829782498
 30
0.0
 10
71.93680906940146
 20
4.397213087190335
 30
0.0
 10
72.66256324006558
 20
4.148852408373736
 30
0.0
 10
73.13940514046819
 20
3.961366660151597
 30
0.0
 10
73.37533868525111
 20
3.862548337126895
 30
0.0
 11
71.20068658564169
 21
4.608642087126893
 31
0.0
 11
71.93352044794636
 21
4.392516598845759
 31
0.0
 11
72.66114343378628
 21
4.143249020720701
 31
0.0
 11
73.37533868525111
 21
3.862548337126895
 31
0.0
  0
SPLINE
  5
56974
330
1F
100
AcDbEntity
  8
1
100
AcDbSpline
210
0.0
220
0.0
230
1.0
 70
     8
 71
     3
 72
     8
 73
     4
 74
     0
 42
0.0000000001
 43
0.0000000001
 40
0.0
 40
0.0
 40
0.0
 40
0.0
 40
0.5463012196666999
 40
0.5463012196666999
 40
0.5463012196666999
 40
0.5463012196666999
 10
68.84198297236044
 20
5.195189938689452
 30
0.0
 10
69.01999494608886
 20
5.156819438601045
 30
0.0
 10
69.19771158800149
 20
5.117049462489005
 30
0.0
 10
69.37505208963957
 20
5.075677700237719
 30
0.0
  0
SPLINE
  5
56975
330
1F
100
AcDbEntity
  8
1
100
AcDbSpline
210
0.0
220
0.0
230
1.0
 70
     8
 71
     3
 72
    11
 73
     7
 74
     0
 42
0.0000000001
 43
0.0000000001
 40
0.5463012196666999
 40
0.5463012196666999
 40
0.5463012196666999
 40
0.5463012196666999
 40
0.572560241578073
 40
1.173774481261014
 40
1.794959738262245
 40
2.430813038627595
 40
2.430813038627595
 40
2.430813038627595
 40
2.430813038627595
 10
69.37505208963957
 20
5.075677700237719
 30
0.0
 10
69.38357630293189
 20
5.073689086681012
 30
0.0
 10
69.5872461361875
 20
5.026081677667491
 30
0.0
 10
69.99154712820025
 20
4.927113284584263
 30
0.0
 10
70.59140106686602
 20
4.772636719275965
 30
0.0
 10
70.99620858264525
 20
4.664427525490339
 30
0.0
 10
71.20068658564169
 20
4.608642087126893
 30
0.0
  0
SPLINE
  5
56976
330
1F
100
AcDbEntity
  8
1
100
AcDbSpline
210
0.0
220
0.0
230
1.0
 70
     8
 71
     3
 72
    10
 73
     6
 74
     4
 42
0.0000000001
 43
0.0000000001
 44
0.000001
 12
0.9992380131607138
 22
-0.0390306681294253
 32
0.0
 13
0.9845565048197173
 23
-0.1750670980429567
 33
0.0
 40
0.0
 40
0.0
 40
0.0
 40
0.0
 40
0.1835697298275759
 40
0.3982883990865328
 40
0.6372284438358128
 40
0.6372284438358128
 40
0.6372284438358128
 40
0.6372284438358128
 10
67.64740289423551
 20
5.380095944548827
 30
0.0
 10
67.70854617827196
 20
5.37770766148099
 30
0.0
 10
67.84114505721831
 20
5.369395448887281
 30
0.0
 10
68.05185705670175
 20
5.341915246784999
 30
0.0
 10
68.2012951957565
 20
5.318661039993581
 30
0.0
 10
68.27971185419643
 20
5.304717526580077
 30
0.0
 11
67.64740289423551
 21
5.380095944548827
 31
0.0
 11
67.83058465693082
 21
5.368163571501952
 31
0.0
 11
68.04371942255582
 21
5.342132077361327
 31
0.0
 11
68.27971185419643
 21
5.304717526580077
 31
0.0
  0
SPLINE
  5
56977
330
1F
100
AcDbEntity
  8
1
100
AcDbSpline
210
0.0
220
0.0
230
1.0
 70
     8
 71
     3
 72
    21
 73
    17
 74
    15
 42
0.0000000001
 43
0.0000000001
 44
0.000001
 12
0.9216785663988003
 22
-0.3879544048481113
 32
0.0
 13
0.5206995909959633
 23
-0.8537399697429169
 33
0.0
 40
0.0
 40
0.0
 40
0.0
 40
0.0
 40
0.5301214347112503
 40
1.077157433463652
 40
1.632485665366786
 40
2.21383589319693
 40
2.795841884737329
 40
3.368614964653478
 40
3.928005971472935
 40
4.468702204198077
 40
4.980169212353196
 40
5.443678419843731
 40
5.869089330858205
 40
6.246455752011031
 40
6.49842454304168
 40
6.716659330773357
 40
6.716659330773357
 40
6.716659330773357
 40
6.716659330773357
 10
73.37533868525111
 20
3.862548337126895
 30
0.0
 10
73.53820587323844
 20
3.793994021893351
 30
0.0
 10
73.86611376048627
 20
3.647364925818361
 30
0.0
 10
74.3521967951076
 20
3.402360691206786
 30
0.0
 10
74.84203379464793
 20
3.128027054760475
 30
0.0
 10
75.32845012002626
 20
2.824967191862854
 30
0.0
 10
75.80577020659418
 20
2.49743648078943
 30
0.0
 10
76.26260160958982
 20
2.153910531259055
 30
0.0
 10
76.69280259165808
 20
1.798850092527205
 30
0.0
 10
77.09251261073915
 20
1.439737142027309
 30
0.0
 10
77.45397779373732
 20
1.086529209554453
 30
0.0
 10
77.77343997172962
 20
0.7459834623306567
 30
0.0
 10
78.04919997638603
 20
0.4262484311715007
 30
0.0
 10
78.26666342032506
 20
0.1498186814050938
 30
0.0
 10
78.4311432590046
 20
-0.0800135104718737
 30
0.0
 10
78.51560679265148
 20
-0.2121261943376662
 30
0.0
 10
78.55348504755579
 20
-0.2742314480292975
 30
0.0
 11
73.37533868525111
 21
3.862548337126895
 31
0.0
 11
73.85922540400112
 21
3.646026120330063
 31
0.0
 11
74.34787286493862
 21
3.400115475798813
 31
0.0
 11
74.83231652948941
 21
3.128631100798813
 31
0.0
 11
75.32591546747768
 21
2.821502194548813
 31
0.0
 11
75.80583490107144
 21
2.492248044158143
 31
0.0
 11
76.26346124384487
 21
2.147796139861327
 31
0.0
 11
76.6950103161105
 21
1.79186962618945
 31
0.0
 11
77.0971099254855
 21
1.430388913298825
 31
0.0
 11
77.46263421747769
 21
1.072631344939438
 31
0.0
 11
77.77962793085659
 21
0.7344660617363275
 31
0.0
 11
78.0570479748019
 21
0.4119562961113277
 31
0.0
 11
78.28977502558315
 21
0.1148981906425632
 31
0.0
 11
78.43574060175503
 21
-0.0904851101386868
 31
0.0
 11
78.55348504755579
 21
-0.2742314480292975
 31
0.0
  0
SPLINE
  5
56978
330
1F
100
AcDbEntity
  8
1
100
AcDbSpline
210
0.0
220
0.0
230
1.0
 70
     8
 71
     3
 72
    21
 73
    17
 74
    15
 42
0.0000000001
 43
0.0000000001
 44
0.000001
 12
0.999999013931181
 22
0.001404327834146
 32
0.0
 13
0.0541299792816777
 23
0.9985338979438632
 33
0.0
 40
0.0
 40
0.0
 40
0.0
 40
0.0
 40
0.5827374161316014
 40
1.167328770258606
 40
1.750052980559765
 40
2.332800278349655
 40
2.91738615252668
 40
3.500121267031758
 40
4.082791390541648
 40
4.667323391609658
 40
5.250003556959744
 40
5.832335799914082
 40
6.416519186882974
 40
6.998857841921573
 40
7.424561447293663
 40
7.850297666896677
 40
7.850297666896677
 40
7.850297666896677
 40
7.850297666896677
 10
73.37533868525111
 20
-5.167236819123103
 30
0.0
 10
73.56958429908857
 20
-5.166964034331946
 30
0.0
 10
73.95902861558409
 20
-5.144900595006124
 30
0.0
 10
74.53519759716946
 20
-5.046600797133712
 30
0.0
 10
75.09710973251337
 20
-4.885255996898377
 30
0.0
 10
75.63669879928571
 20
-4.660277141107707
 30
0.0
 10
76.14798357760509
 20
-4.376968704815397
 30
0.0
 10
76.62471926385444
 20
-4.038635359691832
 30
0.0
 10
77.05941414254998
 20
-3.647785257286331
 30
0.0
 10
77.44798540553339
 20
-3.211184274093431
 30
0.0
 10
77.78568797215851
 20
-2.734184723295133
 30
0.0
 10
78.06625627218986
 20
-2.221623261405717
 30
0.0
 10
78.28810656448226
 20
-1.681268355988722
 30
0.0
 10
78.4339038304864
 20
-1.169687389665035
 30
0.0
 10
78.51871741392518
 20
-0.6988422540280409
 30
0.0
 10
78.54580334997361
 20
-0.4159354636479918
 30
0.0
 10
78.55348504755579
 20
-0.2742314480292975
 30
0.0
 11
73.37533868525111
 21
-5.167236819123103
 31
0.0
 11
73.95713342402065
 21
-5.134094729279295
 31
0.0
 11
74.53342736933315
 21
-5.035950198029295
 31
0.0
 11
75.09338678095424
 21
-4.87466479763867
 31
0.0
 11
75.63142694208704
 21
-4.650818362091795
 31
0.0
 11
76.14274896357144
 21
-4.367462649201171
 31
0.0
 11
76.61773980829799
 21
-4.029877199982365
 31
0.0
 11
77.05128778193079
 21
-3.640594973419922
 31
0.0
 11
77.43989862177454
 21
-3.203949465607422
 31
0.0
 11
77.77624810907925
 21
-2.728149905060547
 31
0.0
 11
78.05620874140346
 21
-2.217529787873103
 31
0.0
 11
78.2780181286105
 21
-1.67709399685742
 31
0.0
 11
78.43734277460659
 21
-1.116974367951172
 31
0.0
 11
78.51289666864954
 21
-0.6980290554511726
 31
0.0
 11
78.55348504755579
 21
-0.2742314480292975
 31
0.0
  0
ARC
  5
56979
330
1F
100
AcDbEntity
  8
1
100
AcDbCircle
 10
73.37533839814177
 20
-0.0000000163886398
 30
0.0
 40
2.5
100
AcDbArc
 50
89.99999699999904
 51
180.0
  0
ARC
  5
5697A
330
1F
100
AcDbEntity
  8
1
100
AcDbCircle
 10
73.37533839814177
 20
-0.0000000163886398
 30
0.0
 40
2.5
100
AcDbArc
 50
180.0
 51
270.0000029999975
  0
ARC
  5
5697B
330
1F
100
AcDbEntity
  8
1
100
AcDbCircle
 10
73.37533839814177
 20
-0.0000000163886398
 30
0.0
 40
2.5
100
AcDbArc
 50
270.0000029999975
 51
0.0000049999988748
  0
ARC
  5
5697C
330
1F
100
AcDbEntity
  8
1
100
AcDbCircle
 10
73.37533839814177
 20
-0.0000000163886398
 30
0.0
 40
2.5
100
AcDbArc
 50
359.9999949999995
 51
89.99999699999904
  0
ARC
  5
5697D
330
1F
100
AcDbEntity
  8
1
100
AcDbCircle
 10
73.37533839814177
 20
-1.516510016388678
 30
0.0
 40
0.4880010000000001
100
AcDbArc
 50
43.60110900000101
 51
136.3988859999984
  0
ARC
  5
5697E
330
1F
100
AcDbEntity
  8
1
100
AcDbCircle
 10
73.94027239814175
 20
-0.9785160163886528
 30
0.0
 40
0.29213
100
AcDbArc
 50
223.6015470000006
 51
16.39845599999792
  0
ARC
  5
5697F
330
1F
100
AcDbEntity
  8
1
100
AcDbCircle
 10
74.50520639814175
 20
-0.0000000163886398
 30
0.0
 40
0.29213
100
AcDbArc
 50
283.6015319999969
 51
76.39847099999811
  0
ARC
  5
56980
330
1F
100
AcDbEntity
  8
1
100
AcDbCircle
 10
72.0620073981417
 20
0.7582389836113066
 30
0.0
 40
0.4880010000000001
100
AcDbArc
 50
283.6011150000006
 51
16.3988930000015
  0
ARC
  5
56981
330
1F
100
AcDbEntity
  8
1
100
AcDbCircle
 10
73.94027239814175
 20
0.9784849836113378
 30
0.0
 40
0.29213
100
AcDbArc
 50
343.60154
 51
136.3984589999984
  0
ARC
  5
56982
330
1F
100
AcDbEntity
  8
1
100
AcDbCircle
 10
72.0620073981417
 20
-0.7582710163886901
 30
0.0
 40
0.4880010000000001
100
AcDbArc
 50
343.6011170000004
 51
76.39888099999968
  0
ARC
  5
56983
330
1F
100
AcDbEntity
  8
1
100
AcDbCircle
 10
72.24547139814179
 20
-0.0000000163886398
 30
0.0
 40
0.29213
100
AcDbArc
 50
103.6015340000002
 51
256.398458999998
  0
ARC
  5
56984
330
1F
100
AcDbEntity
  8
1
100
AcDbCircle
 10
74.68866239814175
 20
-0.7582710163886901
 30
0.0
 40
0.4880010000000001
100
AcDbArc
 50
103.6011170000004
 51
196.3988879999984
  0
ARC
  5
56985
330
1F
100
AcDbEntity
  8
1
100
AcDbCircle
 10
74.68866239814175
 20
0.7582389836113066
 30
0.0
 40
0.4880010000000001
100
AcDbArc
 50
163.601115
 51
256.3988829999995
  0
ARC
  5
56986
330
1F
100
AcDbEntity
  8
1
100
AcDbCircle
 10
72.81040539814171
 20
-0.9785160163886528
 30
0.0
 40
0.29213
100
AcDbArc
 50
163.6015370000007
 51
316.398468
  0
ARC
  5
56987
330
1F
100
AcDbEntity
  8
1
100
AcDbCircle
 10
72.81040539814171
 20
0.9784849836113378
 30
0.0
 40
0.29213
100
AcDbArc
 50
43.60153199999996
 51
196.3984580000011
  0
ARC
  5
56988
330
1F
100
AcDbEntity
  8
1
100
AcDbCircle
 10
73.37533839814177
 20
1.516478983611349
 30
0.0
 40
0.4880010000000001
100
AcDbArc
 50
223.6011169999993
 51
316.398890999999
  0
ARC
  5
56989
330
1F
100
AcDbEntity
  8
1
100
AcDbCircle
 10
73.37533839814177
 20
-0.0000000163886398
 30
0.0
 40
1.750004
100
AcDbArc
 50
90.00011400000039
 51
269.9998929999996
  0
ARC
  5
5698A
330
1F
100
AcDbEntity
  8
1
100
AcDbCircle
 10
73.37533139814175
 20
-0.0000000163886398
 30
0.0
 40
1.750004
100
AcDbArc
 50
270.0001319999996
 51
89.99989099999686
  0
ARC
  5
5698B
330
1F
100
AcDbEntity
  8
1
100
AcDbCircle
 10
73.22533739814175
 20
-0.0000000163886398
 30
0.0
 40
2.75
100
AcDbArc
 50
89.99992899999806
 51
180.0
  0
ARC
  5
5698C
330
1F
100
AcDbEntity
  8
1
100
AcDbCircle
 10
73.22533739814175
 20
-0.0000000163886398
 30
0.0
 40
2.75
100
AcDbArc
 50
180.0
 51
269.9999339999986
  0
ARC
  5
5698D
330
1F
100
AcDbEntity
  8
1
100
AcDbCircle
 10
73.22533739814175
 20
-0.0000000163886398
 30
0.0
 40
2.75
100
AcDbArc
 50
269.9999339999986
 51
0.0000049999988748
  0
ARC
  5
5698E
330
1F
100
AcDbEntity
  8
1
100
AcDbCircle
 10
73.22533739814175
 20
-0.0000000163886398
 30
0.0
 40
2.75
100
AcDbArc
 50
0.0000049999988748
 51
89.99991899999706
  0
ARC
  5
5698F
330
1F
100
AcDbEntity
  8
1
100
AcDbCircle
 10
73.22533739814175
 20
-0.0000000163886398
 30
0.0
 40
2.9
100
AcDbArc
 50
89.99999699999904
 51
270.0000029999975
  0
ARC
  5
56990
330
1F
100
AcDbEntity
  8
1
100
AcDbCircle
 10
73.37533839814177
 20
-0.0000000163886398
 30
0.0
 40
2.9
100
AcDbArc
 50
270.0000029999975
 51
90.00000100000141
  0
LINE
  5
56991
330
1F
100
AcDbEntity
  8
1
100
AcDbLine
 10
68.59121239814175
 20
5.1951889836113
 30
0.0
 11
68.27970839814176
 21
5.3047109836113
 31
0.0
  0
LINE
  5
56992
330
1F
100
AcDbEntity
  8
1
100
AcDbLine
 10
67.57533539814172
 20
-5.304749016388655
 30
0.0
 11
69.37533839814178
 21
-5.304749016388655
 31
0.0
  0
LINE
  5
56993
330
1F
100
AcDbEntity
  8
1
100
AcDbLine
 10
67.57533539814172
 20
-5.195221016388643
 30
0.0
 11
67.57533539814172
 21
-5.304749016388655
 31
0.0
  0
LINE
  5
56994
330
1F
100
AcDbEntity
  8
1
100
AcDbLine
 10
67.57533539814172
 20
-5.195221016388643
 30
0.0
 11
69.37533839814178
 21
-5.195221016388643
 31
0.0
  0
LINE
  5
56995
330
1F
100
AcDbEntity
  8
1
100
AcDbLine
 10
70.18606839814168
 20
-5.167237016388696
 30
0.0
 11
73.37533839814177
 21
-5.167237016388696
 31
0.0
  0
LINE
  5
56996
330
1F
100
AcDbEntity
  8
1
100
AcDbLine
 10
69.37500039814178
 20
-5.167237016388696
 30
0.0
 11
70.18606839814168
 21
-5.167237016388696
 31
0.0
  0
LINE
  5
56997
330
1F
100
AcDbEntity
  8
1
100
AcDbLine
 10
73.22533739814175
 20
-2.900025016388667
 30
0.0
 11
73.37533839814177
 21
-2.900025016388667
 31
0.0
  0
LINE
  5
56998
330
1F
100
AcDbEntity
  8
1
100
AcDbLine
 10
73.22533739814175
 20
2.899992983611298
 30
0.0
 11
73.37533839814177
 21
2.899992983611298
 31
0.0
  0
LINE
  5
56999
330
1F
100
AcDbEntity
  8
1
100
AcDbLine
 10
67.57533539814172
 20
5.195189983611328
 30
0.0
 11
68.84198339814173
 21
5.195189983611328
 31
0.0
  0
LINE
  5
5699A
330
1F
100
AcDbEntity
  8
1
100
AcDbLine
 10
67.57533539814172
 20
5.304717983611283
 30
0.0
 11
67.57533539814172
 21
5.195189983611328
 31
0.0
  0
LINE
  5
5699B
330
1F
100
AcDbEntity
  8
1
100
AcDbLine
 10
67.57533539814172
 20
5.304717983611283
 30
0.0
 11
68.27971139814174
 21
5.304717983611283
 31
0.0
  0
LINE
  5
5699C
330
1F
100
AcDbEntity
  8
1
100
AcDbLine
 10
67.64740239814179
 20
5.380095983611338
 30
0.0
 11
69.37500339814171
 21
5.380095983611338
 31
0.0
  0
LINE
  5
5699D
330
1F
100
AcDbEntity
  8
1
100
AcDbLine
 10
67.37500339814172
 20
-5.380555016388711
 30
0.0
 11
67.37500339814172
 21
-0.0000000163886398
 31
0.0
  0
LINE
  5
5699E
330
1F
100
AcDbEntity
  8
1
100
AcDbLine
 10
67.37500339814172
 20
-0.0000000163886398
 30
0.0
 11
67.37500339814172
 21
5.38052298361134
 31
0.0
  0
LINE
  5
5699F
102
{ACAD_REACTORS
330
569A4
102
}
330
1F
100
AcDbEntity
  8
1
100
AcDbLine
 10
64.37500339814171
 20
-5.750000016388652
 30
0.0
 11
64.37500339814171
 21
5.749999983611361
 31
0.0
  0
LINE
  5
569A1
102
{ACAD_REACTORS
330
569A4
102
}
330
1F
100
AcDbEntity
  8
1
100
AcDbLine
 10
69.37500339814171
 20
5.075689059433869
 30
0.0
 11
69.37500339814171
 21
5.380095983611338
 31
0.0
  0
DIMENSION
  5
569A2
102
{ACAD_XDICTIONARY
360
569A3
102
}
102
{ACAD_REACTORS
330
569A4
102
}
330
1F
100
AcDbEntity
  8
2
100
AcDbDimension
  2
*D11
 10
57.49412504917298
 20
5.749999983611362
 30
0.0
 11
57.49412504917298
 21
-37.16749707613339
 31
0.0
 70
   160
  1
%%C<>
 71
     5
 42
11.50000000000001
  3
\M+18352\M+18373\M+1815B - ISO-25
100
AcDbAlignedDimension
 13
64.37500339814171
 23
-5.750000016388652
 33
0.0
 14
64.37500339814171
 24
5.749999983611361
 34
0.0
 50
270.0
100
AcDbRotatedDimension
1001
ACAD
1000
DSTYLE
1002
{
1070
     4
1000
%%C[]"
1070
    40
1040
1.0
1070
   143
1040
0.03937
1070
   170
1070
     1
1070
   171
1070
     3
1070
   271
1070
     8
1070
   285
1070
     4
1002
}
  0
DIMENSION
  5
569A5
330
1F
100
AcDbEntity
  8
2
100
AcDbDimension
  2
*D8
 10
79.37499539814172
 20
25.59157035443957
 30
0.0
 11
45.7416620648084
 21
25.59157035443957
 31
0.0
 70
   160
 71
     5
 41
0.892857
 42
14.99999999999993
  3
\M+18352\M+18373\M+1815B - ISO-25
100
AcDbAlignedDimension
 13
64.37499539814179
 23
5.74999998361133
 33
0.0
 14
79.37499539814172
 24
17.60461398361127
 34
0.0
 50
180.0
100
AcDbRotatedDimension
1001
ACAD
1000
DSTYLE
1002
{
1070
     4
1000
"
1070
    40
1040
1.0
1070
   143
1040
0.03937
1070
   170
1070
     1
1070
   171
1070
     3
1070
   271
1070
     8
1070
   285
1070
     4
1002
}
  0
LINE
  5
569A6
330
1F
100
AcDbEntity
  8
1
100
AcDbLine
 10
67.37499339814175
 20
5.37999998251135
 30
0.0
 11
69.37499339814175
 21
5.37999998251135
 31
0.0
1001
ACAD
1000
RTMaterial
1005
0
  0
LINE
  5
569A7
330
1F
100
AcDbEntity
  8
1
100
AcDbLine
 10
67.37499339814175
 20
5.37999998251135
 30
0.0
 11
64.37499339814175
 21
5.749999982511352
 31
0.0
1001
ACAD
1000
RTMaterial
1005
0
  0
LINE
  5
569A8
330
1F
100
AcDbEntity
  8
1
100
AcDbLine
 10
67.37499339641586
 20
-5.380000013639088
 30
0.0
 11
69.37499339641584
 21
-5.380000014280681
 31
0.0
1001
ACAD
1000
RTMaterial
1005
0
  0
LINE
  5
569A9
330
1F
100
AcDbEntity
  8
1
100
AcDbLine
 10
67.37499339641586
 20
-5.380000013639088
 30
0.0
 11
64.37499339629718
 21
-5.750000012676721
 31
0.0
1001
ACAD
1000
RTMaterial
1005
0
  0
LINE
  5
569AA
330
1F
100
AcDbEntity
  8
4
100
AcDbLine
 10
0.0000003981417649
 20
-0.0000000163886398
 30
0.0
 11
84.17781639814178
 21
-0.0000000163886398
 31
0.0
  0
ARC
  5
569AC
330
1F
100
AcDbEntity
  8
1
100
AcDbCircle
 10
61.77100339814177
 20
-0.000000016388654
 30
0.0
 40
0.8
100
AcDbArc
 50
329.9999969999998
 51
29.9999990000009
  0
LINE
  5
569AE
330
1F
100
AcDbEntity
  8
1
100
AcDbLine
 10
0.0000003981417649
 20
-6.350007016388699
 30
0.0
 11
0.0000003981417649
 21
-0.0000000163886398
 31
0.0
  0
LINE
  5
569B0
330
1F
100
AcDbEntity
  8
1
100
AcDbLine
 10
64.37499239814174
 20
-5.750000016388652
 30
0.0
 11
0.5999903981417562
 21
-5.750000016388524
 31
0.0
  0
LINE
  5
569B1
330
1F
100
AcDbEntity
  8
1
100
AcDbLine
 10
-0.000016601858249
 20
-6.350011016388691
 30
0.0
 11
0.5999903981416992
 21
-5.750000016388638
 31
0.0
  0
LINE
  5
569B2
330
1F
100
AcDbEntity
  8
1
100
AcDbLine
 10
0.5999903981416992
 20
-5.750000016388638
 30
0.0
 11
0.5999903981417562
 21
-0.0000000163886398
 31
0.0
  0
LINE
  5
569B6
330
1F
100
AcDbEntity
  8
1
100
AcDbLine
 10
0.0000003981417649
 20
6.350000483611352
 30
0.0
 11
0.0000003981417649
 21
-0.0000000163886398
 31
0.0
  0
LINE
  5
569B7
330
1F
100
AcDbEntity
  8
1
100
AcDbLine
 10
64.37499239814179
 20
5.749999983611361
 30
0.0
 11
0.5999903981417562
 21
5.749999983611361
 31
0.0
  0
LINE
  5
569B8
330
1F
100
AcDbEntity
  8
1
100
AcDbLine
 10
0.5999903981417562
 20
5.749999983611361
 30
0.0
 11
0.5999903981417562
 21
-0.0000000163886398
 31
0.0
  0
LINE
  5
569BB
330
1F
100
AcDbEntity
  8
1
100
AcDbLine
 10
0.0000003981417649
 20
6.350000483611352
 30
0.0
 11
0.5999903981417562
 21
5.749982983611346
 31
0.0
  0
LINE
  5
569BC
330
1F
100
AcDbEntity
  8
1
100
AcDbLine
 10
59.37499839814178
 20
5.750001983611356
 30
0.0
 11
62.46382739814182
 21
0.3999929836112841
 31
0.0
  0
LINE
  5
569BD
330
1F
100
AcDbEntity
  8
1
100
AcDbLine
 10
59.37499539814186
 20
-5.750008016388676
 30
0.0
 11
62.46381739814179
 21
-0.4000120163886578
 31
0.0
  0
LINE
  5
569BE
330
1F
100
AcDbEntity
  8
1
100
AcDbLine
 10
62.4060823981418
 20
-0.500000016388654
 30
0.0
 11
62.4060823981418
 21
0.499999983611346
 31
0.0
  0
ARC
  5
569C5
330
1F
100
AcDbEntity
  8
nocut
100
AcDbCircle
 10
73.37099999999999
 20
-0.0000000023000268
 30
0.0
 40
5.380000001200013
100
AcDbArc
 50
0.0
 51
90.0
  0
LINE
  5
569C6
330
1F
100
AcDbEntity
  8
nocut
100
AcDbLine
 10
78.75100000120001
 20
0.0000000000000284
 30
0.0
 11
0.0000003981417649
 21
-0.0000000000000162
 31
0.0
1001
ACAD
1000
RTMaterial
1005
0
  0
LINE
  5
569C7
330
1F
100
AcDbEntity
  8
nocut
100
AcDbLine
 10
67.37500000000001
 20
5.37999999889999
 30
0.0
 11
73.37099999999999
 21
5.37999999889999
 31
0.0
1001
ACAD
1000
RTMaterial
1005
0
  0
LINE
  5
569C8
330
1F
100
AcDbEntity
  8
nocut
100
AcDbLine
 10
67.37500000000001
 20
5.37999999889999
 30
0.0
 11
64.37500000000001
 21
5.749999998899992
 31
0.0
1001
ACAD
1000
RTMaterial
1005
0
  0
LINE
  5
569C9
330
1F
100
AcDbEntity
  8
nocut
100
AcDbLine
 10
0.0
 20
6.350000499999991
 30
0.0
 11
0.0
 21
0.0
 31
0.0
  0
LINE
  5
569CA
330
1F
100
AcDbEntity
  8
nocut
100
AcDbLine
 10
64.37499200000003
 20
5.75
 30
0.0
 11
0.5999903981417562
 21
5.749999999999999
 31
0.0
  0
LINE
  5
569CB
330
1F
100
AcDbEntity
  8
nocut
100
AcDbLine
 10
0.0
 20
6.350000499999991
 30
0.0
 11
0.5999899999999913
 21
5.749982999999986
 31
0.0
  0
DIMENSION
  5
56A94
330
1F
100
AcDbEntity
  8
2
100
AcDbDimension
  2
*D6
 10
98.27404693461387
 20
-6.000000016388645
 30
0.0
 11
98.27404693461387
 21
-28.71666668305531
 31
0.0
 70
   160
  1
%%c<>
 71
     5
 42
11.99999999890002
  3
\M+18352\M+18373\M+1815B - ISO-25
100
AcDbAlignedDimension
 13
78.37500339814171
 23
5.999999982511383
 33
0.0
 14
73.37500339814171
 24
-6.000000016388638
 34
0.0
 50
270.0
100
AcDbRotatedDimension
1001
ACAD
1000
DSTYLE
1002
{
1070
    76
1070
     1
1070
   344
1005
50E6F
1070
     4
1000
%%c[]"
1070
    40
1040
1.0
1070
    75
1070
     0
1070
   143
1040
0.03937
1070
   170
1070
     1
1070
   171
1070
     3
1070
   173
1070
     1
1070
   271
1070
     8
1070
   285
1070
     4
1070
   343
1005
0
1002
}
  0
SPLINE
  5
56A95
330
1F
100
AcDbEntity
  8
1
100
AcDbSpline
210
0.0
220
0.0
230
1.0
 70
     8
 71
     3
 72
     9
 73
     5
 74
     0
 42
0.0000000001
 43
0.0000000001
 40
0.0574794479555646
 40
0.0574794479555646
 40
0.0574794479555646
 40
0.0574794479555646
 40
0.0593364080895803
 40
0.0617537197602676
 40
0.0617537197602676
 40
0.0617537197602676
 40
0.0617537197602676
 10
78.54157885120804
 20
-5.841847804453379
 30
0.0
 10
78.54219047664042
 20
-5.841752625452784
 30
0.0
 10
78.54359808829423
 20
-5.841532250099476
 30
0.0
 10
78.54500523251212
 20
-5.841308905173491
 30
0.0
 10
78.54580089074153
 20
-5.841181648848362
 30
0.0
  0
SPLINE
  5
56A96
330
1F
100
AcDbEntity
  8
1
100
AcDbSpline
210
0.0
220
0.0
230
1.0
 70
     8
 71
     3
 72
    16
 73
    12
 74
    10
 42
0.0000000001
 43
0.0000000001
 44
0.000001
 12
0.0539752520239736
 22
0.9985422736013475
 32
0.0
 13
0.0553999942535331
 23
0.9984642410405635
 33
0.0
 40
0.0
 40
0.0
 40
0.0
 40
0.0
 40
0.1780186586442738
 40
0.3365526740955071
 40
0.4792019714670415
 40
0.6082098122965
 40
0.725475627462743
 40
0.8323588114292199
 40
0.9296258622776065
 40
1.017576339868611
 40
1.096344260044384
 40
1.096344260044384
 40
1.096344260044384
 40
1.096344260044384
 10
79.23990854574157
 20
1.806292839851605
 30
0.0
 10
79.24311141306334
 20
1.86554589190031
 30
0.0
 10
79.24916778138911
 20
1.977566518173713
 30
0.0
 10
79.25780752859404
 20
2.137066682818933
 30
0.0
 10
79.26555706562523
 20
2.280254178703909
 30
0.0
 10
79.27256083451317
 20
2.409705837919032
 30
0.0
 10
79.27892219018784
 20
2.527252779830051
 30
0.0
 10
79.28471524980949
 20
2.634234731327019
 30
0.0
 10
79.28999357393156
 20
2.731458460047424
 30
0.0
 10
79.29479597818811
 20
2.819322468574282
 30
0.0
 10
79.29786317096649
 20
2.874810563706109
 30
0.0
 10
79.29931775174153
 20
2.901026214251658
 30
0.0
 11
79.23990854574157
 21
1.806292839851605
 31
0.0
 11
79.24952262694168
 21
1.984051698951643
 31
0.0
 11
79.25809364494155
 21
2.142353852151641
 31
0.0
 11
79.26580334994158
 21
2.284794655551593
 31
0.0
 11
79.27277360374168
 21
2.413614058351639
 31
0.0
 11
79.27911086694149
 21
2.530708509451641
 31
0.0
 11
79.28489217654153
 21
2.637435223251655
 31
0.0
 11
79.2901691417415
 21
2.73455902445164
 31
0.0
 11
79.29497356054167
 21
2.822378179351573
 31
0.0
 11
79.29931775174153
 21
2.901026214251658
 31
0.0
  0
SPLINE
  5
56A97
330
1F
100
AcDbEntity
  8
1
100
AcDbSpline
210
0.0
220
0.0
230
1.0
 70
     8
 71
     3
 72
    18
 73
    14
 74
    12
 42
0.0000000001
 43
0.0000000001
 44
0.000001
 12
0.0520258745067726
 22
0.9986457371770059
 32
0.0
 13
0.0551127269601967
 23
0.9984801386742807
 33
0.0
 40
0.0
 40
0.0
 40
0.0
 40
0.0
 40
0.0391701863454063
 40
0.0741457833717054
 40
0.1052604008294892
 40
0.1327294099852351
 40
0.1569084716640611
 40
0.1787328159510219
 40
0.1992569124782593
 40
0.2195100275677071
 40
0.2398659880153189
 40
0.2602715720591866
 40
0.2806038826904709
 40
0.2806038826904709
 40
0.2806038826904709
 40
0.2806038826904709
 10
79.29931775174153
 20
2.901026214251658
 30
0.0
 10
79.29999703947459
 20
2.914065260791081
 30
0.0
 10
79.30129009611182
 20
2.938746674649167
 30
0.0
 10
79.30313843119328
 20
2.973784757720299
 30
0.0
 10
79.30479497837158
 20
3.004927139601117
 30
0.0
 10
79.30627103803487
 20
3.032475186743861
 30
0.0
 10
79.30759010190087
 20
3.056930444306563
 30
0.0
 10
79.30879069126624
 20
3.079073755179106
 30
0.0
 10
79.30992534846317
 20
3.099910069196361
 30
0.0
 10
79.31103742924043
 20
3.120257425743598
 30
0.0
 10
79.31215134871426
 20
3.140565118211502
 30
0.0
 10
79.31326864254295
 20
3.160899063666016
 30
0.0
 10
79.31401591941352
 20
3.174457784838693
 30
0.0
 10
79.31438944244161
 20
3.181224920951591
 30
0.0
 11
79.29931775174153
 21
2.901026214251658
 31
0.0
 11
79.30136473724164
 21
2.940142880251642
 31
0.0
 11
79.30320793664154
 21
2.975069875451652
 31
0.0
 11
79.30486065994165
 21
3.006140567951661
 31
0.0
 11
79.30633044414168
 21
3.033570227251573
 31
0.0
 11
79.30763256414168
 21
3.057714202051613
 31
0.0
 11
79.30881404124154
 21
3.079506543051648
 31
0.0
 11
79.30992994394165
 21
3.10000028135164
 31
0.0
 11
79.31103522124164
 21
3.120223214951636
 31
0.0
 11
79.31214976524161
 21
3.140548640651616
 31
0.0
 11
79.31327024324156
 21
3.160923437651661
 31
0.0
 11
79.31438944244161
 21
3.181224920951591
 31
0.0
  0
SPLINE
  5
56A98
330
1F
100
AcDbEntity
  8
1
100
AcDbSpline
210
0.0
220
0.0
230
1.0
 70
     8
 71
     3
 72
    23
 73
    19
 74
    17
 42
0.0000000001
 43
0.0000000001
 44
0.000001
 12
0.0525440123993889
 22
0.9986186092602984
 32
0.0
 13
0.0554307740602687
 23
0.9984625327407531
 33
0.0
 40
0.0
 40
0.0
 40
0.0
 40
0.0
 40
0.0246851570747171
 40
0.049405961221194
 40
0.0740365975549109
 40
0.0985778882624404
 40
0.1234211316447954
 40
0.1493226844094379
 40
0.177038891517443
 40
0.2073224712511388
 40
0.2409122674266427
 40
0.278340435400416
 40
0.3194955787830169
 40
0.3643938447717301
 40
0.4133221225955653
 40
0.4668897672190836
 40
0.5259490750595628
 40
0.591465703260057
 40
0.591465703260057
 40
0.591465703260057
 40
0.591465703260057
 10
79.31438944244161
 20
3.181224920951591
 30
0.0
 10
79.31482179484142
 20
3.189441940027366
 30
0.0
 10
79.31568709572736
 20
3.205887845646166
 30
0.0
 10
79.31698755580791
 20
3.230532423687903
 30
0.0
 10
79.31828733091274
 20
3.255129015560719
 30
0.0
 10
79.31959047102569
 20
3.279766299617987
 30
0.0
 10
79.32091744244672
 20
3.304826554120956
 30
0.0
 10
79.3223019420881
 20
3.330943550475067
 30
0.0
 10
79.32378431201684
 20
3.358871350268496
 30
0.0
 10
79.32540474359335
 20
3.38935817721701
 30
0.0
 10
79.32720013593507
 20
3.423077594456652
 30
0.0
 10
79.32919089846038
 20
3.460415597099537
 30
0.0
 10
79.33139159406214
 20
3.501517249539316
 30
0.0
 10
79.33380153565827
 20
3.546446559289803
 30
0.0
 10
79.33645020986853
 20
3.595506509241212
 30
0.0
 10
79.33937499822732
 20
3.649278772423203
 30
0.0
 10
79.34264417244114
 20
3.7085699098742
 30
0.0
 10
79.34493614083661
 20
3.750031921741686
 30
0.0
 10
79.3461466866416
 20
3.771837221251586
 30
0.0
 11
79.31438944244161
 21
3.181224920951591
 31
0.0
 11
79.31568775204171
 21
3.205875911251664
 31
0.0
 11
79.31699044684167
 21
3.230562367451625
 31
0.0
 11
79.3182901029416
 21
3.255158690951643
 31
0.0
 11
79.31958638894167
 21
3.279665722151662
 31
0.0
 11
79.32090003054153
 21
3.304474210051635
 31
0.0
 11
79.32227119884153
 21
3.330339443751596
 31
0.0
 11
79.32374027194153
 21
3.358016689551618
 31
0.0
 11
79.32534769154161
 21
3.388257578451656
 31
0.0
 11
79.32713348694147
 21
3.421799868851621
 31
0.0
 11
79.32912708664156
 21
3.459174897851596
 31
0.0
 11
79.3313245105415
 21
3.500271338151662
 31
0.0
 11
79.33373108154167
 21
3.545105067351641
 31
0.0
 11
79.33636897044158
 21
3.593962186151656
 31
0.0
 11
79.3392808818415
 21
3.647450627951626
 31
0.0
 11
79.3425259842416
 21
3.706420714851616
 31
0.0
 11
79.3461466866416
 21
3.771837221251586
 31
0.0
  0
SPLINE
  5
56A99
330
1F
100
AcDbEntity
  8
1
100
AcDbSpline
210
0.0
220
0.0
230
1.0
 70
     8
 71
     3
 72
    28
 73
    24
 74
    22
 42
0.0000000001
 43
0.0000000001
 44
0.000001
 12
0.0526973104939324
 22
0.9986105314218884
 32
0.0
 13
0.0211599710096203
 23
0.9997761027484465
 33
0.0
 40
0.0
 40
0.0
 40
0.0
 40
0.0
 40
0.0299373683305551
 40
0.0599281646562882
 40
0.089870364215275
 40
0.1196826851602887
 40
0.1493711302125507
 40
0.1790611461832257
 40
0.2088871224246584
 40
0.2389804633082569
 40
0.2694827872951358
 40
0.3005649222127733
 40
0.3322306091635827
 40
0.3639572181930009
 40
0.3945799832708706
 40
0.4220470785132305
 40
0.4454392378269879
 40
0.4660877402981005
 40
0.4855175228110408
 40
0.5051499771547934
 40
0.5252649555540139
 40
0.5454939070753987
 40
0.5653848416680662
 40
0.5653848416680662
 40
0.5653848416680662
 40
0.5653848416680662
 10
79.3461466866416
 20
3.771837221251586
 30
0.0
 10
79.34667255957302
 20
3.781802478350902
 30
0.0
 10
79.34772331287979
 20
3.801750879269718
 30
0.0
 10
79.34928808392152
 20
3.831666772852828
 30
0.0
 10
79.3508372648038
 20
3.861541740149035
 30
0.0
 10
79.35236180914671
 20
3.891317060564367
 30
0.0
 10
79.35386304611213
 20
3.921009395015246
 30
0.0
 10
79.35536402614559
 20
3.950706299316482
 30
0.0
 10
79.35688739957433
 20
3.980537208269157
 30
0.0
 10
79.35845747407327
 20
4.010636843013228
 30
0.0
 10
79.3601009151639
 20
4.041151906007035
 30
0.0
 10
79.36184352995207
 20
4.072186437223247
 30
0.0
 10
79.3637054410365
 20
4.103622889347961
 30
0.0
 10
79.36566227926363
 20
4.13490011485203
 30
0.0
 10
79.36755199368008
 20
4.164779233523657
 30
0.0
 10
79.36922756778255
 20
4.191888197227272
 30
0.0
 10
79.37062834051751
 20
4.215682966052567
 30
0.0
 10
79.37179249271697
 20
4.236807784774642
 30
0.0
 10
79.37280072794493
 20
4.256685884261001
 30
0.0
 10
79.37369856636029
 20
4.27639127955611
 30
0.0
 10
79.37448697296838
 20
4.296368007369236
 30
0.0
 10
79.37513428170174
 20
4.316436042566462
 30
0.0
 10
79.37546445344179
 20
4.329805402229246
 30
0.0
 10
79.37560475064157
 20
4.336434229251606
 30
0.0
 11
79.3461466866416
 21
3.771837221251586
 31
0.0
 11
79.34771955054164
 21
3.801733231351646
 31
0.0
 11
79.34928568794163
 21
3.831683107551667
 31
0.0
 11
79.35083525044167
 21
3.861585184151633
 31
0.0
 11
79.35235973794156
 21
3.891358501651609
 31
0.0
 11
79.35386193954157
 21
3.921008917751633
 31
0.0
 11
79.35536331454153
 21
3.950660948551615
 31
0.0
 11
79.35688725574159
 21
3.980447966951658
 31
0.0
 11
79.35845777774154
 21
4.010500298351587
 31
0.0
 11
79.36010102294159
 21
4.040958326851637
 31
0.0
 11
79.36184733884156
 21
4.071991365051586
 31
0.0
 11
79.36372073544164
 21
4.103601585651631
 31
0.0
 11
79.36568789824156
 21
4.135267148351656
 31
0.0
 11
79.36760970454163
 21
4.165829547151643
 31
0.0
 11
79.36929590664163
 21
4.193244832151663
 31
0.0
 11
79.37066558734153
 21
4.216596853951671
 31
0.0
 11
79.37179835374158
 21
4.237214257751617
 31
0.0
 11
79.37277974784169
 21
4.256619235351648
 31
0.0
 11
79.37367059214153
 21
4.27623146295167
 31
0.0
 11
79.37446041634162
 21
4.296330922951653
 31
0.0
 11
79.37511124374151
 21
4.31654939485162
 31
0.0
 11
79.37560475064157
 21
4.336434229251606
 31
0.0
  0
SPLINE
  5
56A9A
330
1F
100
AcDbEntity
  8
1
100
AcDbSpline
210
0.0
220
0.0
230
1.0
 70
     8
 71
     3
 72
    29
 73
    25
 74
    23
 42
0.0000000001
 43
0.0000000001
 44
0.000001
 12
0.0189656153535363
 22
0.9998201365416989
 32
0.0
 13
0.0008576140617857
 23
0.9999996322489931
 33
0.0
 40
0.0
 40
0.0
 40
0.0
 40
0.0
 40
0.0195030364614408
 40
0.0398463935259018
 40
0.0601649343662002
 40
0.0800363120067471
 40
0.099244710906889
 40
0.11756115863033
 40
0.1348281205126283
 40
0.151239557500184
 40
0.1671491447423188
 40
0.1828575030184981
 40
0.1986056227773964
 40
0.2143735239404398
 40
0.2299372135879067
 40
0.2456577162090745
 40
0.2623475206179716
 40
0.2807953953892561
 40
0.3014000650028293
 40
0.3243790049182107
 40
0.3496898768488187
 40
0.3770947184236636
 40
0.4063278921834813
 40
0.4371051798133063
 40
0.4371051798133063
 40
0.4371051798133063
 40
0.4371051798133063
 10
79.37560475064157
 20
4.336434229251606
 30
0.0
 10
79.3757280463375
 20
4.342934072110891
 30
0.0
 10
79.37594669812694
 20
4.356214485661263
 30
0.0
 10
79.37615809806496
 20
4.376268445445917
 30
0.0
 10
79.37627906127115
 20
4.396445896164796
 30
0.0
 10
79.37632332070799
 20
4.41624532142197
 30
0.0
 10
79.37631589394445
 20
4.435377404709342
 30
0.0
 10
79.37628871916359
 20
4.453641320251239
 30
0.0
 10
79.37627008090085
 20
4.470972926965907
 30
0.0
 10
79.37626315833736
 20
4.487502254876869
 30
0.0
 10
79.37626003543511
 20
4.503512048650264
 30
0.0
 10
79.37625608425623
 20
4.519300736635425
 30
0.0
 10
79.37625013594905
 20
4.535042195262741
 30
0.0
 10
79.37624372206581
 20
4.550735430804437
 30
0.0
 10
79.37623787247041
 20
4.566419460867013
 30
0.0
 10
79.37623299324909
 20
4.582410792359099
 30
0.0
 10
79.37622869474504
 20
4.599363519086403
 30
0.0
 10
79.37622476144213
 20
4.617944301606868
 30
0.0
 10
79.376221434656
 20
4.638621462786391
 30
0.0
 10
79.37621983817445
 20
4.661586289938695
 30
0.0
 10
79.37622153683442
 20
4.68681784110184
 30
0.0
 10
79.37622789206226
 20
4.714134136338509
 30
0.0
 10
79.37624147987779
 20
4.743272567636523
 30
0.0
 10
79.37625453449673
 20
4.763276050847813
 30
0.0
 10
79.37626333284161
 20
4.773535142951629
 30
0.0
 11
79.37560475064157
 21
4.336434229251606
 31
0.0
 11
79.37592224674159
 21
4.355934692551668
 31
0.0
 11
79.37614176214158
 21
4.376276860151619
 31
0.0
 11
79.37626608214152
 21
4.396595017251627
 31
0.0
 11
79.3763139784415
 21
4.416466334451627
 31
0.0
 11
79.37631117434154
 21
4.435674731051618
 31
0.0
 11
79.37628849514164
 21
4.453991163351643
 31
0.0
 11
79.37627071184152
 21
4.471258115351643
 31
0.0
 11
79.37626270984157
 21
4.487669550051632
 31
0.0
 11
79.37625887514157
 21
4.503579136651636
 31
0.0
 11
79.37625475394163
 21
4.519287494251613
 31
0.0
 11
79.3762490576417
 21
4.535035612851627
 31
0.0
 11
79.37624278884171
 21
4.550803512651611
 31
0.0
 11
79.37623706714163
 21
4.566367201151646
 31
0.0
 11
79.37623222294162
 21
4.582087702951637
 31
0.0
 11
79.37622795404156
 21
4.598777506751615
 31
0.0
 11
79.37622406124169
 21
4.617225381051637
 31
0.0
 11
79.37622085874164
 21
4.637830050351624
 31
0.0
 11
79.37621939104165
 21
4.660808990151622
 31
0.0
 11
79.37622115964163
 21
4.686119861951624
 31
0.0
 11
79.37622778314161
 21
4.713524702651625
 31
0.0
 11
79.37624112424163
 21
4.742757873251605
 31
0.0
 11
79.37626333284161
 21
4.773535142951629
 31
0.0
  0
SPLINE
  5
56A9B
330
1F
100
AcDbEntity
  8
1
100
AcDbSpline
210
0.0
220
0.0
230
1.0
 70
     8
 71
     3
 72
    16
 73
    12
 74
    10
 42
0.0000000001
 43
0.0000000001
 44
0.000001
 12
-0.9993916464217706
 22
0.0348760241768321
 32
0.0
 13
-0.9994569304888468
 23
0.0329521486069151
 33
0.0
 40
0.0
 40
0.0
 40
0.0
 40
0.0
 40
0.0729330748390938
 40
0.138978862418256
 40
0.1989165445864122
 40
0.2534609660254727
 40
0.3033091291769117
 40
0.3491327456203275
 40
0.3914687700556871
 40
0.4302028486314525
 40
0.4655603579529079
 40
0.4655603579529079
 40
0.4655603579529079
 40
0.4655603579529079
 10
78.1103050046416
 20
5.870240153751637
 30
0.0
 10
78.08600876939426
 20
5.87108802564543
 30
0.0
 10
78.03971038445794
 20
5.872695685486297
 30
0.0
 10
77.97344403734183
 20
5.874974429140086
 30
0.0
 10
77.91330304585241
 20
5.877025728292121
 30
0.0
 10
77.85855770936959
 20
5.878880756269134
 30
0.0
 10
77.80851401442501
 20
5.88056614261532
 30
0.0
 10
77.76253716730455
 20
5.882105260359717
 30
0.0
 10
77.72026270613517
 20
5.883513393918576
 30
0.0
 10
77.68147482307341
 20
5.884799652345026
 30
0.0
 10
77.65679108855363
 20
5.885614969617824
 30
0.0
 10
77.64501165264158
 20
5.886003338251668
 30
0.0
 11
78.1103050046416
 21
5.870240153751637
 31
0.0
 11
78.03741584684162
 21
5.872770825851659
 31
0.0
 11
77.97140905814154
 21
5.875040183051622
 31
0.0
 11
77.91150622134165
 21
5.877083677651626
 31
0.0
 11
77.85699308494152
 21
5.878930813051624
 31
0.0
 11
77.80717316294165
 21
5.880608548651649
 31
0.0
 11
77.76137521954156
 21
5.882142205351612
 31
0.0
 11
77.71906267564154
 21
5.883551981251628
 31
0.0
 11
77.68034988574161
 21
5.884835982351602
 31
0.0
 11
77.64501165264158
 21
5.886003338251668
 31
0.0
  0
SPLINE
  5
56A9C
330
1F
100
AcDbEntity
  8
1
100
AcDbSpline
210
0.0
220
0.0
230
1.0
 70
     8
 71
     3
 72
    46
 73
    42
 74
    40
 42
0.0000000001
 43
0.0000000001
 44
0.000001
 12
-0.9994753508588814
 22
0.0323886249401859
 32
0.0
 13
-0.9996356340061623
 23
0.0269925772222253
 33
0.0
 40
0.0
 40
0.0
 40
0.0
 40
0.0
 40
0.0373997983200883
 40
0.0718346316055774
 40
0.1031945607222711
 40
0.1318514208028578
 40
0.1578849300017615
 40
0.1812411884125116
 40
0.2019267463912913
 40
0.2201352211845363
 40
0.2361165746943386
 40
0.2502839193822473
 40
0.2632245581305261
 40
0.2755293262885639
 40
0.2877373061083495
 40
0.3001361596232544
 40
0.3126975258154122
 40
0.324558583061175
 40
0.3350165305769963
 40
0.3441432114455141
 40
0.3521303887246024
 40
0.3592556436412726
 40
0.3658461394167073
 40
0.3722356700749608
 40
0.378647523822329
 40
0.3850622610906844
 40
0.3914567893826432
 40
0.3978654233785155
 40
0.4042824784148606
 40
0.4106576337180095
 40
0.4169873932444792
 40
0.4233025878284959
 40
0.4296111285791091
 40
0.435911284785573
 40
0.4422312372671878
 40
0.4485979398499641
 40
0.4550051948814592
 40
0.4614168108096719
 40
0.4677653095833327
 40
0.4741345935301544
 40
0.4808008227007762
 40
0.4808008227007762
 40
0.4808008227007762
 40
0.4808008227007762
 10
77.64501165264158
 20
5.886003338251668
 30
0.0
 10
77.63255159379224
 20
5.88640711426521
 30
0.0
 10
77.60861926493745
 20
5.887182218475202
 30
0.0
 10
77.57423885474626
 20
5.888287963187914
 30
0.0
 10
77.54277113324064
 20
5.889296347483893
 30
0.0
 10
77.51410229653399
 20
5.890211292011164
 30
0.0
 10
77.48809990442317
 20
5.891038372009874
 30
0.0
 10
77.4647532029233
 20
5.891778869637721
 30
0.0
 10
77.44401347937878
 20
5.892434915604034
 30
0.0
 10
77.42573078165799
 20
5.893011755903425
 30
0.0
 10
77.40961970192147
 20
5.893518835871484
 30
0.0
 10
77.39526367248422
 20
5.893969850645544
 30
0.0
 10
77.38213255086006
 20
5.894381863700823
 30
0.0
 10
77.36965421847016
 20
5.894773039191866
 30
0.0
 10
77.35735638622303
 20
5.895158356230711
 30
0.0
 10
77.34497305587101
 20
5.895546116340336
 30
0.0
 10
77.33270528847407
 20
5.895929578137986
 30
0.0
 10
77.32108414342047
 20
5.896291850356482
 30
0.0
 10
77.31060730415146
 20
5.896617375368315
 30
0.0
 10
77.30142110435554
 20
5.896901798887784
 30
0.0
 10
77.29334524322741
 20
5.897150976822253
 30
0.0
 10
77.28611436402272
 20
5.897373726278228
 30
0.0
 10
77.27941577913146
 20
5.897580011481804
 30
0.0
 10
77.27295488618057
 20
5.897779114355744
 30
0.0
 10
77.26655256162735
 20
5.897976737889186
 30
0.0
 10
77.26014858823919
 20
5.898174938738648
 30
0.0
 10
77.2537457104336
 20
5.898373843459459
 30
0.0
 10
77.24734209039908
 20
5.898573735471554
 30
0.0
 10
77.24094496316386
 20
5.898774649464155
 30
0.0
 10
77.23457416089179
 20
5.89897621037078
 30
0.0
 10
77.22823731397554
 20
5.8991772913196
 30
0.0
 10
77.22192265145483
 20
5.899377375752665
 30
0.0
 10
77.21561781524972
 20
5.899575993714964
 30
0.0
 10
77.20931133359991
 20
5.899772741595624
 30
0.0
 10
77.20298539484597
 20
5.899967539381663
 30
0.0
 10
77.19662368032229
 20
5.900160392183728
 30
0.0
 10
77.19023132337163
 20
5.900350777624243
 30
0.0
 10
77.18384492822526
 20
5.900537480735485
 30
0.0
 10
77.17747107817984
 20
5.90072012395186
 30
0.0
 10
77.17101230323883
 20
5.900902106764409
 30
0.0
 10
77.1666687172827
 20
5.901019485683041
 30
0.0
 10
77.16444745054158
 20
5.901079465251597
 30
0.0
 11
77.64501165264158
 21
5.886003338251668
 31
0.0
 11
77.60763138524165
 21
5.887211751351628
 31
0.0
 11
77.57321436504168
 21
5.888319209751611
 31
0.0
 11
77.54187052084155
 21
5.889323493151607
 31
0.0
 11
77.51322824544155
 21
5.890237653851642
 31
0.0
 11
77.48720789664156
 21
5.89106533105166
 31
0.0
 11
77.46386337694167
 21
5.89180574095161
 31
0.0
 11
77.44318815954153
 21
5.892459724351624
 31
0.0
 11
77.42498874044153
 21
5.893033918351589
 31
0.0
 11
77.4090152976417
 21
5.893536695851651
 31
0.0
 11
77.39485494024162
 21
5.893981593451655
 31
0.0
 11
77.38192066744165
 21
5.894387448551638
 31
0.0
 11
77.3696219416416
 21
5.894773017051647
 31
0.0
 11
77.35741994954158
 21
5.895155325751657
 31
0.0
 11
77.3450271678417
 21
5.895543307751608
 31
0.0
 11
77.33247193164157
 21
5.895935690751628
 31
0.0
 11
77.32061663174166
 21
5.896305208351632
 31
0.0
 11
77.31016372754159
 21
5.896629954651642
 31
0.0
 11
77.30104141754153
 21
5.896912380151661
 31
0.0
 11
77.29305804144162
 21
5.897158768451617
 31
0.0
 11
77.28593616624159
 21
5.897378202951641
 31
0.0
 11
77.27934879434164
 21
5.897581097551606
 31
0.0
 11
77.27296229644169
 21
5.897777939551643
 31
0.0
 11
77.26655349614166
 21
5.897975796351659
 31
0.0
 11
77.2601418300415
 21
5.898174270751668
 31
0.0
 11
77.25375038614157
 21
5.898372857951642
 31
0.0
 11
77.24734487354163
 21
5.898572852351605
 31
0.0
 11
77.24093098244164
 21
5.898774336151633
 31
0.0
 11
77.23455901094162
 21
5.898975789151619
 31
0.0
 11
77.22823243124167
 21
5.899176396851657
 31
0.0
 11
77.22192040004151
 21
5.899376253751651
 31
0.0
 11
77.21561498344165
 21
5.899574761951669
 31
0.0
 11
77.20931788794162
 21
5.899771113051597
 31
0.0
 11
77.20300092764154
 21
5.899965558251607
 31
0.0
 11
77.19663714714155
 21
5.900158421751655
 31
0.0
 11
77.19023273174167
 21
5.900349149651615
 31
0.0
 11
77.18382385314153
 21
5.900536474451597
 31
0.0
 11
77.17747796244165
 21
5.900718420451596
 31
0.0
 11
77.17111118634154
 21
5.900897125051642
 31
0.0
 11
77.16444745054158
 21
5.901079465251597
 31
0.0
  0
SPLINE
  5
56A9D
330
1F
100
AcDbEntity
  8
1
100
AcDbSpline
210
0.0
220
0.0
230
1.0
 70
     8
 71
     3
 72
    58
 73
    54
 74
    52
 42
0.0000000001
 43
0.0000000001
 44
0.000001
 12
-0.999655453824285
 22
0.0262483073618625
 32
0.0
 13
-0.9997235109964211
 23
-0.0235138589131733
 33
0.0
 40
0.0
 40
0.0
 40
0.0
 40
0.0
 40
0.0071838989721034
 40
0.0148671141906919
 40
0.0229148877770681
 40
0.031172804990347
 40
0.0394445304841886
 40
0.0474209120778832
 40
0.0549193734180191
 40
0.0621475762907361
 40
0.0693725353029623
 40
0.0768566987895662
 40
0.0847123689015838
 40
0.0926691357988855
 40
0.1005458522726622
 40
0.108416492266284
 40
0.1164204905964703
 40
0.1247463563939986
 40
0.1335867895315158
 40
0.1431170768308906
 40
0.1534059399110895
 40
0.1644962512615816
 40
0.1763165171516101
 40
0.1884219495086405
 40
0.2004294430073429
 40
0.2122515603345707
 40
0.2237718306520916
 40
0.2347578690531482
 40
0.245220555363107
 40
0.2554778611545784
 40
0.2657540939302472
 40
0.2760389924247015
 40
0.2863141693569028
 40
0.2966236566297495
 40
0.3071852235915177
 40
0.3183358597820556
 40
0.3304661329055174
 40
0.3434557845812259
 40
0.3563619249946048
 40
0.3680502728597252
 40
0.3782954034833268
 40
0.3876033218740801
 40
0.3966051698109356
 40
0.405691641145841
 40
0.4148732153029691
 40
0.4240231054072383
 40
0.4330673782530793
 40
0.4422024095999518
 40
0.4519225343038713
 40
0.4627948250988027
 40
0.4751921373037829
 40
0.4890505089313594
 40
0.5040836054631925
 40
0.5040836054631925
 40
0.5040836054631925
 40
0.5040836054631925
 10
77.16444745054158
 20
5.901079465251597
 30
0.0
 10
77.1620536426125
 20
5.901142320314356
 30
0.0
 10
77.1570995401245
 20
5.901268368454672
 30
0.0
 10
77.14946359792236
 20
5.901458014497581
 30
0.0
 10
77.1414694944925
 20
5.901645638081521
 30
0.0
 10
77.13327900406169
 20
5.901825977480614
 30
0.0
 10
77.12511199275377
 20
5.901991075789831
 30
0.0
 10
77.11719778731808
 20
5.902135743127171
 30
0.0
 10
77.10963112831729
 20
5.902260397545843
 30
0.0
 10
77.1023147156939
 20
5.902368490640554
 30
0.0
 10
77.09500290256641
 20
5.90246461187468
 30
0.0
 10
77.0874818028642
 20
5.902551428515108
 30
0.0
 10
77.07971664985023
 20
5.902628629680853
 30
0.0
 10
77.07182054066855
 20
5.902694930424065
 30
0.0
 10
77.06391935148566
 20
5.902749460090053
 30
0.0
 10
77.05600234651132
 20
5.902792350754376
 30
0.0
 10
77.0479355710511
 20
5.902824044638369
 30
0.0
 10
77.03954549265292
 20
5.902844159587431
 30
0.0
 10
77.03064662915487
 20
5.90285109315739
 30
0.0
 10
77.02109343380048
 20
5.902841912232871
 30
0.0
 10
77.01079031573588
 20
5.902812066407483
 30
0.0
 10
76.99972397128772
 20
5.902755137155333
 30
0.0
 10
76.98805230051076
 20
5.902665213907747
 30
0.0
 10
76.97607521163942
 20
5.902539542918986
 30
0.0
 10
76.96409793621597
 20
5.90237806424473
 30
0.0
 10
76.95231614313931
 20
5.902189434715953
 30
0.0
 10
76.94087515757695
 20
5.901984916681254
 30
0.0
 10
76.92988751842232
 20
5.901773802636384
 30
0.0
 10
76.91932096174397
 20
5.901562102568286
 30
0.0
 10
76.90899101377784
 20
5.901352451115414
 30
0.0
 10
76.89872043574141
 20
5.901138183961477
 30
0.0
 10
76.88844398921412
 20
5.90091966138061
 30
0.0
 10
76.87815655516184
 20
5.900696485317245
 30
0.0
 10
76.86777701568479
 20
5.900466941363009
 30
0.0
 10
76.85710582838163
 20
5.90022643897862
 30
0.0
 10
76.84582797525883
 20
5.899967481814019
 30
0.0
 10
76.8337410932303
 20
5.899684792519773
 30
0.0
 10
76.821069325986
 20
5.899383214456896
 30
0.0
 10
76.80854493052096
 20
5.899080764624116
 30
0.0
 10
76.79693517760938
 20
5.898797569658553
 30
0.0
 10
76.78652450990384
 20
5.898542213155957
 30
0.0
 10
76.77700908510826
 20
5.898308318957811
 30
0.0
 10
76.76787976097489
 20
5.898084016067316
 30
0.0
 10
76.75879252424656
 20
5.897861343521842
 30
0.0
 10
76.74965592699054
 20
5.897638604701021
 30
0.0
 10
76.74053335689109
 20
5.897417641982938
 30
0.0
 10
76.73142626773452
 20
5.897198246758185
 30
0.0
 10
76.72212912938454
 20
5.896975361057776
 30
0.0
 10
76.71222280207913
 20
5.896738902678499
 30
0.0
 10
76.70122933103749
 20
5.896477605430248
 30
0.0
 10
76.68885681099775
 20
5.896184492437902
 30
0.0
 10
76.67509770313282
 20
5.895860293733222
 30
0.0
 10
76.66546991732364
 20
5.895632110655274
 30
0.0
 10
76.66046027064163
 20
5.895514281951648
 30
0.0
 11
77.16444745054158
 21
5.901079465251597
 31
0.0
 11
77.15726588774153
 21
5.901264432951619
 31
0.0
 11
77.14958501874157
 21
5.901454290351638
 31
0.0
 11
77.14153945764161
 21
5.901643073151632
 31
0.0
 11
77.13328352824153
 21
5.901824398251619
 31
0.0
 11
77.12501348334154
 21
5.90199134935159
 31
0.0
 11
77.11703842984168
 21
5.902137181151656
 31
0.0
 11
77.10954098104169
 21
5.902260717751629
 31
0.0
 11
77.1023135625415
 21
5.902367544451633
 31
0.0
 11
77.09508922354149
 21
5.90246257915163
 31
0.0
 11
77.08760555454168
 21
5.902549049251661
 31
0.0
 11
77.07975026904155
 21
5.902627282751607
 31
0.0
 11
77.07179377874156
 21
5.902694159751661
 31
0.0
 11
77.06391724604152
 21
5.902748523051627
 31
0.0
 11
77.05604671824161
 21
5.902791171151647
 31
0.0
 11
77.04804277864157
 21
5.90282261765162
 31
0.0
 11
77.0397169338416
 21
5.902842567051662
 31
0.0
 11
77.03087650044159
 21
5.902849443051593
 31
0.0
 11
77.02134621444163
 21
5.902840194751633
 31
0.0
 11
77.01105739144153
 21
5.902810126851647
 31
0.0
 11
76.9999672228416
 21
5.902752803651592
 31
0.0
 11
76.98814730114152
 21
5.902661514351621
 31
0.0
 11
76.97604252544154
 21
5.902534139151668
 31
0.0
 11
76.96403608844168
 21
5.902373124551616
 31
0.0
 11
76.95221542554152
 21
5.902185086051588
 31
0.0
 11
76.94069690014164
 21
5.901980071751609
 31
0.0
 11
76.92971269194157
 21
5.901769810851589
 31
0.0
 11
76.91925163084154
 21
5.901560721251655
 31
0.0
 11
76.90899658264159
 21
5.901350960351635
 31
0.0
 11
76.89872290334173
 21
5.901136655651669
 31
0.0
 11
76.88844046364166
 21
5.900917902751642
 31
0.0
 11
76.87816777114161
 21
5.900695041851632
 31
0.0
 11
76.86786084494165
 21
5.900467101251647
 31
0.0
 11
76.85730198724157
 21
5.900229151251607
 31
0.0
 11
76.84615431034155
 21
5.899973229251656
 31
0.0
 11
76.83402736994167
 21
5.899689696051665
 31
0.0
 11
76.82104140784152
 21
5.899380799151629
 31
0.0
 11
76.80813903794168
 21
5.899069418751594
 31
0.0
 11
76.79645417264151
 21
5.898784560751607
 31
0.0
 11
76.7862121281416
 21
5.898533462151648
 31
0.0
 11
76.77690702514162
 21
5.898304831551627
 31
0.0
 11
76.76790789714172
 21
5.89808380865162
 31
0.0
 11
76.75882415584154
 21
5.897861309951622
 31
0.0
 11
76.7496453124416
 21
5.897637589351631
 31
0.0
 11
76.74049811004154
 21
5.897415991251647
 31
0.0
 11
76.73145646424163
 21
5.897198151651592
 31
0.0
 11
76.72232406024154
 21
5.896979189651631
 31
0.0
 11
76.71260670634166
 21
5.896747222351621
 31
0.0
 11
76.70173748914163
 21
5.89648881665164
 31
0.0
 11
76.68934365474166
 21
5.896195277451622
 31
0.0
 11
76.67548914464155
 21
5.895868212651634
 31
0.0
 11
76.66046027064163
 21
5.895514281951648
 31
0.0
  0
SPLINE
  5
56A9E
330
1F
100
AcDbEntity
  8
1
100
AcDbSpline
210
0.0
220
0.0
230
1.0
 70
     8
 71
     3
 72
    26
 73
    22
 74
    20
 42
0.0000000001
 43
0.0000000001
 44
0.000001
 12
-0.9997019045481904
 22
-0.0244152010583803
 32
0.0
 13
-0.9996491922805661
 23
-0.0264857012897913
 33
0.0
 40
0.0
 40
0.0
 40
0.0
 40
0.0
 40
0.0156230523816579
 40
0.0326578262809966
 40
0.0510959948426808
 40
0.0701479357605784
 40
0.0889817171368859
 40
0.1074965237440804
 40
0.1260240699978306
 40
0.145409659393247
 40
0.1665538271320828
 40
0.1899027424762643
 40
0.2152593140292057
 40
0.2425317737995001
 40
0.2719604438662499
 40
0.303848683308249
 40
0.3385062974771924
 40
0.3762402329353322
 40
0.4173824537540586
 40
0.4623906427736015
 40
0.5117882862078432
 40
0.5117882862078432
 40
0.5117882862078432
 40
0.5117882862078432
 10
76.66046027064163
 20
5.895514281951648
 30
0.0
 10
76.65525413890136
 20
5.895387135296633
 30
0.0
 10
76.64437146060459
 20
5.895120585840619
 30
0.0
 10
76.62734455541913
 20
5.894704094466318
 30
0.0
 10
76.60917503965539
 20
5.894259224478995
 30
0.0
 10
76.59040608437429
 20
5.893797637810615
 30
0.0
 10
76.57161166245924
 20
5.8933325174483
 30
0.0
 10
76.55299205890781
 20
5.89286875593762
 30
0.0
 10
76.53418864280389
 20
5.892397755354906
 30
0.0
 10
76.51450911563674
 20
5.891902108461223
 30
0.0
 10
76.49322303784527
 20
5.8913635029147
 30
0.0
 10
76.46994736795907
 20
5.89077067721287
 30
0.0
 10
76.4446295562837
 20
5.890127409022278
 30
0.0
 10
76.41728599811212
 20
5.889425436725009
 30
0.0
 10
76.38776594486476
 20
5.888667190604109
 30
0.0
 10
76.35578505736191
 20
5.887842923846978
 30
0.0
 10
76.32103674381735
 20
5.886944357769878
 30
0.0
 10
76.28320490760512
 20
5.885961922466697
 30
0.0
 10
76.24192418158353
 20
5.884884577500336
 30
0.0
 10
76.19675706940632
 20
5.883698419695464
 30
0.0
 10
76.16529944992807
 20
5.882866763061107
 30
0.0
 10
76.14883934514153
 20
5.882430652651634
 30
0.0
 11
76.66046027064163
 21
5.895514281951648
 31
0.0
 11
76.64484187784165
 21
5.895132735451625
 31
0.0
 11
76.62781219054164
 21
5.894716469051616
 31
0.0
 11
76.60937955234166
 21
5.89426490375166
 31
0.0
 11
76.59033337374157
 21
5.893796356051665
 31
0.0
 11
76.57150535754166
 21
5.893330382551596
 31
0.0
 11
76.55299628984161
 21
5.892869425251602
 31
0.0
 11
76.53447455254156
 21
5.892405503251607
 31
0.0
 11
76.51509510614172
 21
5.891917505151639
 31
0.0
 11
76.49395770674171
 21
5.891382534951617
 31
0.0
 11
76.47061633644153
 21
5.890788947351607
 31
0.0
 11
76.4452680276416
 21
5.890141553751617
 31
0.0
 11
76.41800452374155
 21
5.88944282365162
 31
0.0
 11
76.38858556614157
 21
5.888686829051607
 31
0.0
 11
76.3567079117416
 21
5.887865273351621
 31
0.0
 11
76.32206188194169
 21
5.886969262951593
 31
0.0
 11
76.28434066484152
 21
5.885989636851661
 31
0.0
 11
76.24321245164158
 21
5.884916127851624
 31
0.0
 11
76.1982197664416
 21
5.883734896351652
 31
0.0
 11
76.14883934514153
 21
5.882430652651634
 31
0.0
  0
SPLINE
  5
56A9F
330
1F
100
AcDbEntity
  8
1
100
AcDbSpline
210
0.0
220
0.0
230
1.0
 70
     8
 71
     3
 72
    19
 73
    15
 74
    13
 42
0.0000000001
 43
0.0000000001
 44
0.000001
 12
-0.9996196249716998
 22
-0.0275790748836547
 32
0.0
 13
-0.9995738054367237
 23
-0.029192592977442
 33
0.0
 40
0.0
 40
0.0
 40
0.0
 40
0.0
 40
0.0337190123810718
 40
0.0701242698902079
 40
0.1069586766356388
 40
0.1431108661153055
 40
0.1787829008769353
 40
0.2149974667458062
 40
0.2533095680596733
 40
0.295390380059138
 40
0.3422781604361946
 40
0.3938869095342219
 40
0.4502077230972674
 40
0.5120073955396061
 40
0.5120073955396061
 40
0.5120073955396061
 40
0.5120073955396061
 10
76.14883934514153
 20
5.882430652651634
 30
0.0
 10
76.13760394963794
 20
5.882120672929147
 30
0.0
 10
76.11423812425016
 20
5.881474565592222
 30
0.0
 10
76.07859897994001
 20
5.880484554043244
 30
0.0
 10
76.0421492209803
 20
5.879467293192879
 30
0.0
 10
76.0059439025381
 20
5.87845227285778
 30
0.0
 10
75.96994523967937
 20
5.877438661302967
 30
0.0
 10
75.93322701486581
 20
5.876400411392875
 30
0.0
 10
75.89437351732634
 20
5.87529709167182
 30
0.0
 10
75.85196386840976
 20
5.874087399878942
 30
0.0
 10
75.80512398840077
 20
5.872744938011424
 30
0.0
 10
75.75353960643825
 20
5.871258939366908
 30
0.0
 10
75.6969869073728
 20
5.869621070446418
 30
0.0
 10
75.65763009979417
 20
5.868474837879544
 30
0.0
 10
75.63703898854152
 20
5.867873473651628
 30
0.0
 11
76.14883934514153
 21
5.882430652651634
 31
0.0
 11
76.11513321584161
 21
5.881498633551642
 31
0.0
 11
76.07874199684153
 21
5.880487694451574
 31
0.0
 11
76.04192192524152
 21
5.879460122351588
 31
0.0
 11
76.00578393184157
 21
5.878447061951646
 31
0.0
 11
75.9701260261416
 21
5.877443135251667
 31
0.0
 11
75.93392592644164
 21
5.876419615651627
 31
0.0
 11
75.8956292617416
 21
5.87533214565161
 31
0.0
 11
75.85356555884171
 21
5.874132303951623
 31
0.0
 11
75.80669702634152
 21
5.87278896775166
 31
0.0
 11
75.75510968004173
 21
5.871302837751668
 31
0.0
 11
75.69881247244151
 21
5.869672398551642
 31
0.0
 11
75.63703898854152
 21
5.867873473651628
 31
0.0
  0
SPLINE
  5
56AA0
330
1F
100
AcDbEntity
  8
1
100
AcDbSpline
210
0.0
220
0.0
230
1.0
 70
     8
 71
     3
 72
    16
 73
    12
 74
     0
 42
0.0000000001
 43
0.0000000001
 40
0.0
 40
0.0
 40
0.0
 40
0.0
 40
0.0025640086778009
 40
0.0051044981477774
 40
0.0076233096570371
 40
0.0101221180882352
 40
0.0126018828105166
 40
0.0150636805678323
 40
0.0175070420534929
 40
0.0199320460267734
 40
0.0204155601579927
 40
0.0204155601579927
 40
0.0204155601579927
 40
0.0204155601579927
 10
79.0552308904417
 20
-5.580800677748356
 30
0.0
 10
79.055835131542
 20
-5.580196233583675
 30
0.0
 10
79.0570365743809
 20
-5.57899139236207
 30
0.0
 10
79.05882638042587
 20
-5.577187559626707
 30
0.0
 10
79.06059643392978
 20
-5.575394755128852
 30
0.0
 10
79.06234785886507
 20
-5.573612014195077
 30
0.0
 10
79.06408159157703
 20
-5.57183854397644
 30
0.0
 10
79.06579806247856
 20
-5.570074055982103
 30
0.0
 10
79.06749749425769
 20
-5.568318468546832
 30
0.0
 10
79.06873513310447
 20
-5.567033645881166
 30
0.0
 10
79.06940670573824
 20
-5.566334408683103
 30
0.0
 10
79.06951831995735
 20
-5.566218139635566
 30
0.0
  0
SPLINE
  5
56AA1
330
1F
100
AcDbEntity
  8
1
100
AcDbSpline
210
0.0
220
0.0
230
1.0
 70
     8
 71
     3
 72
    38
 73
    34
 74
    32
 42
0.0000000001
 43
0.0000000001
 44
0.000001
 12
0.7592953681670908
 22
0.6507461439609167
 32
0.0
 13
0.7097519782432177
 23
0.704451651555903
 33
0.0
 40
0.0
 40
0.0
 40
0.0
 40
0.0
 40
0.002544792270632
 40
0.0050683340941359
 40
0.0075726268406156
 40
0.0100596649883235
 40
0.0125300409071906
 40
0.0149832288698955
 40
0.0174190290910711
 40
0.0198379478468716
 40
0.0222403850966635
 40
0.0246266538634647
 40
0.0269981817931583
 40
0.0293561968312022
 40
0.0317022814587582
 40
0.0340372860311329
 40
0.0363628447524308
 40
0.0386802730912663
 40
0.0409913492574591
 40
0.0432967767634066
 40
0.0455969982547338
 40
0.0478935550111192
 40
0.0501877404181286
 40
0.0524803079935475
 40
0.0547727622664823
 40
0.0570664076569891
 40
0.0593616936021396
 40
0.061659608525375
 40
0.0639617564334501
 40
0.0662691756242614
 40
0.0685834281175391
 40
0.0709052533440483
 40
0.0732359295596393
 40
0.0732359295596393
 40
0.0732359295596393
 40
0.0732359295596393
 10
79.00137877494154
 20
-5.630409815548373
 30
0.0
 10
79.00202285793622
 20
-5.629857810962607
 30
0.0
 10
79.00330432930768
 20
-5.628756874542016
 30
0.0
 10
79.00521503731074
 20
-5.627107378478465
 30
0.0
 10
79.00710726256959
 20
-5.625465943731712
 30
0.0
 10
79.00898221998865
 20
-5.623831658807981
 30
0.0
 10
79.01084048217306
 20
-5.622204156288541
 30
0.0
 10
79.01268206970306
 20
-5.620583548072779
 30
0.0
 10
79.01450698281912
 20
-5.61896996574082
 30
0.0
 10
79.01631545290593
 20
-5.617363335844723
 30
0.0
 10
79.01810783742098
 20
-5.615763468859642
 30
0.0
 10
79.01988472036181
 20
-5.614169967257105
 30
0.0
 10
79.02164688642566
 20
-5.612582243350241
 30
0.0
 10
79.02339542766447
 20
-5.610999417900787
 30
0.0
 10
79.02513128530428
 20
-5.60942073133217
 30
0.0
 10
79.02685549324804
 20
-5.607845324310361
 30
0.0
 10
79.02856901183639
 20
-5.606272388603701
 30
0.0
 10
79.03027302078564
 20
-5.604700897334833
 30
0.0
 10
79.03196846264108
 20
-5.603130023854134
 30
0.0
 10
79.03365605925978
 20
-5.60155913126649
 30
0.0
 10
79.03533646946226
 20
-5.599987630782994
 30
0.0
 10
79.03701048967903
 20
-5.598414792842834
 30
0.0
 10
79.03867898431935
 20
-5.596839808903501
 30
0.0
 10
79.04034280157209
 20
-5.595261871142667
 30
0.0
 10
79.0420027847576
 20
-5.593680161365364
 30
0.0
 10
79.04365969587276
 20
-5.592093923129846
 30
0.0
 10
79.04531416605539
 20
-5.59050251230307
 30
0.0
 10
79.04696689238493
 20
-5.588905209523318
 30
0.0
 10
79.04861870534183
 20
-5.58730115131728
 30
0.0
 10
79.0502705636512
 20
-5.585689332227379
 30
0.0
 10
79.05192321061299
 20
-5.584068939030314
 30
0.0
 10
79.05357743817202
 20
-5.582439094717247
 30
0.0
 10
79.05467948975682
 20
-5.581347960651461
 30
0.0
 10
79.0552308904417
 20
-5.580800677748356
 30
0.0
 11
79.00137877494154
 21
-5.630409815548373
 31
0.0
 11
79.00330901874152
 21
-5.628751473848353
 31
0.0
 11
79.00521917574161
 21
-5.627102389348406
 31
0.0
 11
79.0071108347416
 21
-5.625461357948379
 31
0.0
 11
79.00898556654152
 21
-5.623827164948408
 31
0.0
 11
79.01084387554165
 21
-5.622199505748369
 31
0.0
 11
79.0126854239416
 21
-5.620578810848369
 31
0.0
 11
79.01451012094168
 21
-5.618965297748387
 31
0.0
 11
79.01631840434157
 21
-5.617358715548391
 31
0.0
 11
79.01811062964164
 21
-5.615758880448368
 31
0.0
 11
79.01988708484153
 21
-5.614165663248342
 31
0.0
 11
79.02164888324168
 21
-5.612578185248366
 31
0.0
 11
79.02339698124167
 21
-5.610995691648382
 31
0.0
 11
79.02513258954155
 21
-5.609417180048353
 31
0.0
 11
79.02685636894155
 21
-5.607842131348377
 31
0.0
 11
79.0285695518415
 21
-5.60626948984833
 31
0.0
 11
79.03027312624164
 21
-5.604698404848363
 31
0.0
 11
79.03196841084157
 21
-5.603127701648361
 31
0.0
 11
79.03365592724168
 21
-5.601556926548369
 31
0.0
 11
79.03533600214162
 21
-5.599985799448346
 31
0.0
 11
79.03700975894169
 21
-5.598413283848401
 31
0.0
 11
79.03867813124164
 21
-5.596838503448393
 31
0.0
 11
79.04034165284165
 21
-5.595260945148368
 31
0.0
 11
79.0420013955416
 21
-5.593679572048358
 31
0.0
 11
79.04365827644149
 21
-5.592093475348347
 31
0.0
 11
79.04531258824166
 21
-5.59050233084838
 31
0.0
 11
79.04696500724168
 21
-5.588905436148365
 31
0.0
 11
79.04861664354161
 21
-5.587301652448386
 31
0.0
 11
79.05026819134157
 21
-5.585690225348399
 31
0.0
 11
79.05192071054154
 21
-5.584070026048379
 31
0.0
 11
79.05357466394169
 21
-5.582440492548355
 31
0.0
 11
79.0552308904417
 21
-5.580800677748356
 31
0.0
  0
SPLINE
  5
56AA2
330
1F
100
AcDbEntity
  8
1
100
AcDbSpline
210
0.0
220
0.0
230
1.0
 70
     8
 71
     3
 72
    16
 73
    12
 74
    10
 42
0.0000000001
 43
0.0000000001
 44
0.000001
 12
0.053975252023644
 22
-0.9985422736013653
 32
0.0
 13
0.0553999943569234
 23
-0.9984642410348268
 33
0.0
 40
0.0
 40
0.0
 40
0.0
 40
0.0
 40
0.1780186586442193
 40
0.3365526740955081
 40
0.47920197146704
 40
0.6082098122964438
 40
0.7254756274627431
 40
0.8323588114292196
 40
0.929625862277607
 40
1.017576339868667
 40
1.096344259944489
 40
1.096344259944489
 40
1.096344259944489
 40
1.096344259944489
 10
79.23990854574157
 20
-1.806292386148355
 30
0.0
 10
79.24311141306333
 20
-1.865545438197043
 30
0.0
 10
79.24916778138911
 20
-1.977566064470444
 30
0.0
 10
79.25780752859404
 20
-2.137066229115664
 30
0.0
 10
79.26555706562523
 20
-2.280253725000639
 30
0.0
 10
79.27256083451315
 20
-2.409705384215762
 30
0.0
 10
79.27892219018793
 20
-2.527252326126779
 30
0.0
 10
79.28471524980934
 20
-2.634234277623776
 30
0.0
 10
79.28999357393202
 20
-2.731458006344166
 30
0.0
 10
79.29479597818485
 20
-2.819322014837882
 30
0.0
 10
79.29786317096563
 20
-2.874810109936228
 30
0.0
 10
79.29931775174153
 20
-2.90102576044836
 30
0.0
 11
79.23990854574157
 21
-1.806292386148355
 31
0.0
 11
79.24952262694168
 21
-1.984051245248338
 31
0.0
 11
79.25809364494155
 21
-2.142353398448392
 31
0.0
 11
79.26580334994158
 21
-2.28479420184834
 31
0.0
 11
79.27277360374168
 21
-2.413613604648332
 31
0.0
 11
79.27911086694149
 21
-2.53070805574839
 31
0.0
 11
79.28489217654153
 21
-2.637434769548404
 31
0.0
 11
79.2901691417415
 21
-2.73455857074839
 31
0.0
 11
79.29497356054167
 21
-2.822377725648378
 31
0.0
 11
79.29931775174153
 21
-2.90102576044836
 31
0.0
  0
SPLINE
  5
56AA3
330
1F
100
AcDbEntity
  8
1
100
AcDbSpline
210
0.0
220
0.0
230
1.0
 70
     8
 71
     3
 72
    38
 73
    34
 74
    32
 42
0.0000000001
 43
0.0000000001
 44
0.000001
 12
0.8071761320228384
 22
0.5903106740460056
 32
0.0
 13
0.763785504125984
 23
0.6454701415921705
 33
0.0
 40
0.0
 40
0.0
 40
0.0
 40
0.0
 40
0.0025269936956566
 40
0.0050338713224158
 40
0.0075218502102791
 40
0.0099926658982433
 40
0.0124482135418595
 40
0.0148895991103906
 40
0.0173165781014243
 40
0.0197286062039843
 40
0.0221252537828353
 40
0.0245062988088865
 40
0.0268730049980562
 40
0.0292273579947768
 40
0.03157121628241
 40
0.0339052969565595
 40
0.0362296496595767
 40
0.0385449981992167
 40
0.0408530771154165
 40
0.0431553350006138
 40
0.0454535359230829
 40
0.0477488816348894
 40
0.0500430072396384
 40
0.0523365634090394
 40
0.0546299629851267
 40
0.0569243875782938
 40
0.0592213967044042
 40
0.0615216410361692
 40
0.0638260423956544
 40
0.0661365814621731
 40
0.0684542299736677
 40
0.0707798091801838
 40
0.073115194280155
 40
0.073115194280155
 40
0.073115194280155
 40
0.073115194280155
 10
78.94390384854166
 20
-5.675579187848368
 30
0.0
 10
78.9445837582073
 20
-5.675081950731104
 30
0.0
 10
78.94593701074659
 20
-5.674089855130849
 30
0.0
 10
78.94795564658359
 20
-5.672602713521311
 30
0.0
 10
78.9499557803947
 20
-5.671122040075757
 30
0.0
 10
78.95193876511392
 20
-5.669646969015287
 30
0.0
 10
78.95390591520153
 20
-5.668176643883953
 30
0.0
 10
78.95585800898617
 20
-5.666710592796858
 30
0.0
 10
78.95779517157686
 20
-5.665248827541663
 30
0.0
 10
78.95971712052909
 20
-5.66379166902259
 30
0.0
 10
78.96162358192703
 20
-5.662339436393919
 30
0.0
 10
78.96351476276132
 20
-5.660892084944357
 30
0.0
 10
78.965391506932
 20
-5.659449076864904
 30
0.0
 10
78.96725520101615
 20
-5.658009441819509
 30
0.0
 10
78.96910707823332
 20
-5.656572308504742
 30
0.0
 10
78.97094785505291
 20
-5.6551371919307
 30
0.0
 10
78.97277794624745
 20
-5.65370383492956
 30
0.0
 10
78.9745980307407
 20
-5.652271767244887
 30
0.0
 10
78.97640914833717
 20
-5.650840222860814
 30
0.0
 10
78.9782126029834
 20
-5.649408210518701
 30
0.0
 10
78.98000955086811
 20
-5.647974838306315
 30
0.0
 10
78.98180118861403
 20
-5.646539165216568
 30
0.0
 10
78.98358841541803
 20
-5.645100472555351
 30
0.0
 10
78.9853719195309
 20
-5.643658198995433
 30
0.0
 10
78.98715226730812
 20
-5.6422118729676
 30
0.0
 10
78.98893025545778
 20
-5.640760826118938
 30
0.0
 10
78.99070673546548
 20
-5.639304332002673
 30
0.0
 10
78.99248248538285
 20
-5.637841711419836
 30
0.0
 10
78.99425838556941
 20
-5.636372188839572
 30
0.0
 10
78.99603539113894
 20
-5.63489491155198
 30
0.0
 10
78.99781442333162
 20
-5.633409038858549
 30
0.0
 10
78.99959636895568
 20
-5.631913744481476
 30
0.0
 10
79.00078419717956
 20
-5.63091228933209
 30
0.0
 10
79.00137877494154
 20
-5.630409815548373
 30
0.0
 11
78.94390384854166
 21
-5.675579187848368
 31
0.0
 11
78.94594182364162
 21
-5.674085087048353
 31
0.0
 11
78.94796010114153
 21
-5.672598164148383
 31
0.0
 11
78.94995972564157
 21
-5.671117804848336
 31
0.0
 11
78.95194215034149
 21
-5.669643075248356
 31
0.0
 11
78.95390894624161
 21
-5.668172931848347
 31
0.0
 11
78.95586104354157
 21
-5.666706791548335
 31
0.0
 11
78.95779828894167
 21
-5.665244876948406
 31
0.0
 11
78.95972029194158
 21
-5.663787593648351
 31
0.0
 11
78.96162675584156
 21
-5.662335280748377
 31
0.0
 11
78.96351755094163
 21
-5.660888153548341
 31
0.0
 11
78.9653937256415
 21
-5.659445521648365
 31
0.0
 11
78.96725689224156
 21
-5.658006243248337
 31
0.0
 11
78.96910855184167
 21
-5.656569240248357
 31
0.0
 11
78.97094929584165
 21
-5.655134123748382
 31
0.0
 11
78.97277918694166
 21
-5.653700912048348
 31
0.0
 11
78.97459881654168
 21
-5.652269204948367
 31
0.0
 11
78.97640956444168
 21
-5.650837969548374
 31
0.0
 11
78.97821257694165
 21
-5.649406338548374
 31
0.0
 11
78.98000923884166
 21
-5.647973237648386
 31
0.0
 11
78.98180048634168
 21
-5.64653793194833
 31
0.0
 11
78.98358758634168
 21
-5.645099406348379
 31
0.0
 11
78.98537103134168
 21
-5.643657253848402
 31
0.0
 11
78.98715112544171
 21
-5.642211212948383
 31
0.0
 11
78.98892876534168
 21
-5.640760532648355
 31
0.0
 11
78.99070513254156
 21
-5.63930421354837
 31
0.0
 11
78.9924806986416
 21
-5.637841824248367
 31
0.0
 11
78.99425613954154
 21
-5.636372755348361
 31
0.0
 11
78.99603293884166
 21
-5.634895713148406
 31
0.0
 11
78.99781179414168
 21
-5.633410037348369
 31
0.0
 11
78.99959328114171
 21
-5.631915157148339
 31
0.0
 11
79.00137877494154
 21
-5.630409815548373
 31
0.0
  0
SPLINE
  5
56AA4
330
1F
100
AcDbEntity
  8
1
100
AcDbSpline
210
0.0
220
0.0
230
1.0
 70
     8
 71
     3
 72
    38
 73
    34
 74
    32
 42
0.0000000001
 43
0.0000000001
 44
0.000001
 12
0.8503647417464899
 22
0.5261936962701338
 32
0.0
 13
0.8124901891601361
 23
0.5829748643968507
 33
0.0
 40
0.0
 40
0.0
 40
0.0
 40
0.0
 40
0.0025119079220324
 40
0.0050049990018062
 40
0.0074808409245803
 40
0.00994130788306
 40
0.012386861730993
 40
0.0148177201196538
 40
0.0172349408340381
 40
0.01963909156677
 40
0.0220297278796271
 40
0.0244061641672695
 40
0.0267688441673047
 40
0.0291189316136289
 40
0.0314579265787067
 40
0.0337872590571352
 40
0.0361082750346812
 40
0.038422380529684
 40
0.0407304522553105
 40
0.043033285782132
 40
0.0453322089532612
 40
0.0476281634001626
 40
0.04992180674439
 40
0.0522144532486564
 40
0.0545074792114814
 40
0.0568020716699358
 40
0.05909947965075
 40
0.0614005135511508
 40
0.063706515158233
 40
0.0660184342549279
 40
0.0683376514961774
 40
0.0706651544379022
 40
0.0730022217029056
 40
0.0730022217029056
 40
0.0730022217029056
 40
0.0730022217029056
 10
78.88317445684157
 20
-5.716066202648391
 30
0.0
 10
78.88388646948539
 20
-5.715625619276996
 30
0.0
 10
78.88530415193057
 20
-5.714746120949554
 30
0.0
 10
78.88742010198185
 20
-5.71342669884828
 30
0.0
 10
78.88951850706712
 20
-5.712111558586374
 30
0.0
 10
78.89160051419833
 20
-5.710800104479003
 30
0.0
 10
78.8936668843786
 20
-5.709491971116756
 30
0.0
 10
78.8957181456246
 20
-5.708186933164001
 30
0.0
 10
78.89775485298897
 20
-5.70688474129102
 30
0.0
 10
78.89977737280663
 20
-5.705585260026454
 30
0.0
 10
78.90178558185951
 20
-5.70428866637782
 30
0.0
 10
78.90377932377281
 20
-5.70299516152791
 30
0.0
 10
78.90575889234961
 20
-5.701704654971527
 30
0.0
 10
78.90772518891667
 20
-5.700416653391361
 30
0.0
 10
78.90967938423685
 20
-5.699130474235974
 30
0.0
 10
78.91162269323078
 20
-5.697845391025229
 30
0.0
 10
78.91355629805866
 20
-5.696560684134482
 30
0.0
 10
78.91548122095557
 20
-5.695275726130688
 30
0.0
 10
78.91739832617067
 20
-5.693989983072599
 30
0.0
 10
78.91930845173998
 20
-5.692702928473693
 30
0.0
 10
78.92121244881399
 20
-5.691414016389768
 30
0.0
 10
78.92311112551485
 20
-5.690122719201548
 30
0.0
 10
78.92500528175876
 20
-5.688828505184248
 30
0.0
 10
78.92689583220104
 20
-5.687530753668124
 30
0.0
 10
78.92878383103741
 20
-5.68622873545028
 30
0.0
 10
78.93067030821524
 20
-5.684921724541462
 30
0.0
 10
78.93255613256951
 20
-5.683609093769706
 30
0.0
 10
78.93444220977136
 20
-5.682290178787253
 30
0.0
 10
78.93632935811144
 20
-5.680964364586797
 30
0.0
 10
78.93821854560063
 20
-5.679630918935522
 30
0.0
 10
78.94011063756487
 20
-5.678289169151473
 30
0.0
 10
78.94200658234993
 20
-5.676938370889139
 30
0.0
 10
78.94327090046693
 20
-5.676033338339002
 30
0.0
 10
78.94390384854166
 20
-5.675579187848368
 30
0.0
 11
78.88317445684157
 21
-5.716066202648391
 31
0.0
 11
78.88530896534152
 21
-5.714741986948353
 31
0.0
 11
78.8874244506415
 21
-5.713422820648361
 31
0.0
 11
78.88952229604168
 21
-5.712107982548388
 31
0.0
 11
78.89160413634164
 21
-5.71079657474837
 31
0.0
 11
78.89367040464168
 21
-5.709488440748372
 31
0.0
 11
78.89572132584165
 21
-5.708183551048362
 31
0.0
 11
78.89775783094167
 21
-5.706881420248405
 31
0.0
 11
78.89978043394157
 21
-5.705581819948347
 31
0.0
 11
78.9017887961416
 21
-5.704285066448393
 31
0.0
 11
78.90378237884156
 21
-5.702991610348361
 31
0.0
 11
78.90576159194148
 21
-5.701701288848369
 31
0.0
 11
78.9077274449416
 21
-5.700413539948327
 31
0.0
 11
78.90968122254168
 21
-5.69912760744836
 31
0.0
 11
78.91162414374169
 21
-5.697842762348327
 31
0.0
 11
78.91355735074154
 21
-5.69655831144837
 31
0.0
 11
78.91548202944164
 21
-5.695273518548388
 31
0.0
 11
78.91739891954156
 21
-5.693987932148331
 31
0.0
 11
78.91930868944161
 21
-5.692701139948382
 31
0.0
 11
78.92121244394168
 21
-5.691412424648375
 31
0.0
 11
78.92311096224154
 21
-5.6901212768484
 31
0.0
 11
78.92500478454151
 21
-5.688827340748331
 31
0.0
 11
78.92689498864168
 21
-5.687529883448347
 31
0.0
 11
78.92878269684167
 21
-5.686228127348329
 31
0.0
 11
78.93066886894162
 21
-5.684921392748378
 31
0.0
 11
78.9325545094417
 21
-5.683608955848342
 31
0.0
 11
78.93444025714152
 21
-5.682290335548372
 31
0.0
 11
78.9363271808416
 21
-5.6809647387484
 31
0.0
 11
78.93821602214152
 21
-5.679631588948383
 31
0.0
 11
78.94010786864154
 21
-5.678290053148372
 31
0.0
 11
78.94200348044169
 21
-5.67693951664836
 31
0.0
 11
78.94390384854166
 21
-5.675579187848368
 31
0.0
  0
SPLINE
  5
56AA5
330
1F
100
AcDbEntity
  8
1
100
AcDbSpline
210
0.0
220
0.0
230
1.0
 70
     8
 71
     3
 72
    37
 73
    33
 74
    31
 42
0.0000000001
 43
0.0000000001
 44
0.000001
 12
0.9215948190645415
 22
0.3881533066629665
 32
0.0
 13
0.8934370186932394
 23
0.4491884834104014
 33
0.0
 40
0.0
 40
0.0
 40
0.0
 40
0.0
 40
0.0025489219165194
 40
0.0050799966153528
 40
0.0075945835576705
 40
0.0100948770641252
 40
0.0125825872822783
 40
0.0150595878957112
 40
0.0175269530465341
 40
0.0199848327453606
 40
0.0224318295237557
 40
0.0248673360837637
 40
0.0272905278869991
 40
0.0297021349319001
 40
0.0321037295055846
 40
0.0344969806168074
 40
0.0368823999861069
 40
0.0392608118802793
 40
0.0416350683650503
 40
0.044005732494456
 40
0.0463736352298981
 40
0.0487400397503335
 40
0.05110616259379
 40
0.0534733912785207
 40
0.055842715518648
 40
0.0582156615047434
 40
0.0605933051484295
 40
0.0629770620447345
 40
0.0653675897532862
 40
0.0677665284148357
 40
0.0701753282620451
 40
0.0725959189973862
 40
0.0725959189973862
 40
0.0725959189973862
 40
0.0725959189973862
 10
78.75369131054168
 20
-5.782059281248336
 30
0.0
 10
78.7544743349525
 20
-5.781729490424894
 30
0.0
 10
78.75603411366784
 20
-5.781070346418599
 30
0.0
 10
78.75836361994636
 20
-5.780079364464501
 30
0.0
 10
78.76067587212405
 20
-5.779089249154137
 30
0.0
 10
78.76297251555365
 20
-5.778099421449961
 30
0.0
 10
78.76525534652635
 20
-5.777109217467522
 30
0.0
 10
78.76752581221314
 20
-5.776118105733063
 30
0.0
 10
78.7697848781492
 20
-5.775125750242701
 30
0.0
 10
78.77203250928605
 20
-5.774132247440927
 30
0.0
 10
78.77426815935539
 20
-5.77313792268654
 30
0.0
 10
78.77649098837415
 20
-5.772143239411562
 30
0.0
 10
78.77870080643322
 20
-5.771148376633769
 30
0.0
 10
78.7808980862726
 20
-5.770153214495272
 30
0.0
 10
78.78308405471656
 20
-5.769157282514447
 30
0.0
 10
78.78525986741074
 20
-5.768160128623996
 30
0.0
 10
78.78742644921317
 20
-5.767161394920426
 30
0.0
 10
78.78958507948016
 20
-5.766160549873897
 30
0.0
 10
78.79173704761976
 20
-5.765157042380087
 30
0.0
 10
78.79388363964918
 20
-5.764150308346229
 30
0.0
 10
78.79602565806482
 20
-5.763139999668482
 30
0.0
 10
78.79816409880195
 20
-5.76212566746202
 30
0.0
 10
78.80030012105146
 20
-5.761106773933199
 30
0.0
 10
78.80243479701012
 20
-5.760082810515328
 30
0.0
 10
78.80456928735481
 20
-5.759053214407403
 30
0.0
 10
78.80670465441458
 20
-5.758017458035632
 30
0.0
 10
78.80884208341392
 20
-5.756974942039255
 30
0.0
 10
78.81098249450712
 20
-5.755925184277931
 30
0.0
 10
78.81312697236987
 20
-5.754867611266003
 30
0.0
 10
78.81527660720604
 20
-5.753801634855967
 30
0.0
 10
78.8174328631671
 20
-5.752726467383118
 30
0.0
 10
78.81887191395158
 20
-5.752004952475459
 30
0.0
 10
78.8195927957416
 20
-5.751642518648337
 30
0.0
 11
78.75369131054168
 21
-5.782059281248336
 31
0.0
 11
78.75603919604152
 21
-5.781067088348379
 31
0.0
 11
78.7583682798416
 21
-5.780076265748391
 31
0.0
 11
78.76067985114156
 21
-5.779086409448383
 31
0.0
 11
78.76297596054162
 21
-5.778096770848377
 31
0.0
 11
78.76525820654167
 21
-5.777106774048378
 31
0.0
 11
78.76752833124154
 21
-5.776115761848357
 31
0.0
 11
78.76978733814161
 21
-5.775123382348338
 31
0.0
 11
78.77203538214151
 21
-5.774129648548353
 31
0.0
 11
78.7742712044415
 21
-5.77313520184833
 31
0.0
 11
78.7764942723416
 21
-5.772140370748331
 31
0.0
 11
78.7787038577415
 21
-5.771145577848357
 31
0.0
 11
78.78090065094155
 21
-5.770150608448375
 31
0.0
 11
78.78308610564167
 21
-5.769154890748382
 31
0.0
 11
78.78526175784152
 21
-5.76815779934833
 31
0.0
 11
78.78742808674164
 21
-5.767159179848362
 31
0.0
 11
78.78958585334165
 21
-5.766158741848357
 31
0.0
 11
78.79173765234154
 21
-5.76515532844837
 31
0.0
 11
78.79388399664168
 21
-5.764148734048376
 31
0.0
 11
78.7960256392417
 21
-5.763138633648337
 31
0.0
 11
78.79816372034163
 21
-5.762124509648343
 31
0.0
 11
78.80029933334168
 21
-5.761105854348386
 31
0.0
 11
78.80243372114168
 21
-5.760082076148361
 31
0.0
 11
78.80456776324155
 21
-5.75905274554833
 31
0.0
 11
78.80670281804153
 21
-5.758017191048338
 31
0.0
 11
78.80883983334168
 21
-5.756974926448377
 31
0.0
 11
78.81098005764153
 21
-5.755925307348377
 31
0.0
 11
78.81312405414161
 21
-5.754868013748361
 31
0.0
 11
78.8152732631416
 21
-5.753802282948356
 31
0.0
 11
78.81742894834165
 21
-5.752727423948329
 31
0.0
 11
78.8195927957416
 21
-5.751642518648337
 31
0.0
  0
SPLINE
  5
56AA6
330
1F
100
AcDbEntity
  8
1
100
AcDbSpline
210
0.0
220
0.0
230
1.0
 70
     8
 71
     3
 72
    37
 73
    33
 74
    31
 42
0.0000000001
 43
0.0000000001
 44
0.000001
 12
0.9491225641370618
 22
0.3149069040937158
 32
0.0
 13
0.9254889785225694
 23
0.3787745379949014
 33
0.0
 40
0.0
 40
0.0
 40
0.0
 40
0.0
 40
0.0025198372864543
 40
0.0050239316204939
 40
0.0075145019726416
 40
0.0099937139589944
 40
0.012462403252559
 40
0.0149205210195302
 40
0.0173683512263907
 40
0.0198069708334746
 40
0.0222365827789803
 40
0.0246566958134606
 40
0.0270672471772472
 40
0.0294692766554949
 40
0.0318626828554754
 40
0.0342472407415418
 40
0.0366233733986038
 40
0.0389931275311171
 40
0.0413582895556553
 40
0.043720681036941
 40
0.0460812360565168
 40
0.0484415407566024
 40
0.0508022524197333
 40
0.0531641547128525
 40
0.0555289146514092
 40
0.0578972527111657
 40
0.0602700802941711
 40
0.0626490271711626
 40
0.0650350276303507
 40
0.0674298548738391
 40
0.0698348889280661
 40
0.0722520855557569
 40
0.0722520855557569
 40
0.0722520855557569
 40
0.0722520855557569
 10
78.68595199514159
 20
-5.807153771948377
 30
0.0
 10
78.68674920661709
 20
-5.806889267228811
 30
0.0
 10
78.6883380027788
 20
-5.806359960598074
 30
0.0
 10
78.69071249146573
 20
-5.805562459174252
 30
0.0
 10
78.69307221654818
 20
-5.804763555756814
 30
0.0
 10
78.69541884581993
 20
-5.803962796038281
 30
0.0
 10
78.69775332749823
 20
-5.803159955292585
 30
0.0
 10
78.70007601473073
 20
-5.802355005861792
 30
0.0
 10
78.702387335908
 20
-5.8015478901542
 30
0.0
 10
78.70468779724703
 20
-5.800738517586721
 30
0.0
 10
78.70697765989635
 20
-5.79992687839162
 30
0.0
 10
78.70925682691037
 20
-5.799113088519226
 30
0.0
 10
78.71152546450614
 20
-5.798297170255396
 30
0.0
 10
78.71378386050955
 20
-5.797479098902092
 30
0.0
 10
78.7160322510584
 20
-5.796658864833259
 30
0.0
 10
78.71827067907384
 20
-5.795836527578877
 30
0.0
 10
78.72049985904553
 20
-5.795011897273912
 30
0.0
 10
78.72272113123307
 20
-5.794184542191677
 30
0.0
 10
78.72493626771789
 20
-5.79335385360659
 30
0.0
 10
78.72714668792903
 20
-5.7925193379812
 30
0.0
 10
78.72935374438016
 20
-5.791680513044988
 30
0.0
 10
78.73155842282047
 20
-5.790837023525774
 30
0.0
 10
78.73376165890673
 20
-5.789988523264357
 30
0.0
 10
78.73596441053397
 20
-5.789134648644574
 30
0.0
 10
78.73816765183001
 20
-5.788275019529126
 30
0.0
 10
78.74037239309711
 20
-5.787409231338576
 30
0.0
 10
78.74257962979351
 20
-5.786536875722351
 30
0.0
 10
78.7447904199295
 20
-5.785657508825543
 30
0.0
 10
78.7470060842816
 20
-5.784770570440423
 30
0.0
 10
78.74922786172182
 20
-5.783875519948053
 30
0.0
 10
78.75145730169575
 20
-5.782971677425703
 30
0.0
 10
78.75294561426241
 20
-5.782364472093634
 30
0.0
 10
78.75369131054168
 20
-5.782059281248336
 30
0.0
 11
78.68595199514159
 21
-5.807153771948377
 31
0.0
 11
78.68834265764149
 21
-5.806357322948372
 31
0.0
 11
78.69071644584171
 21
-5.805560039248406
 31
0.0
 11
78.69307548754166
 21
-5.804761337448382
 31
0.0
 11
78.69542185334157
 21
-5.803960629148378
 31
0.0
 11
78.69775635034153
 21
-5.803157739248375
 31
0.0
 11
78.70007894784165
 21
-5.802352774448364
 31
0.0
 11
78.70238992954165
 21
-5.801545730548411
 31
0.0
 11
78.70469032624153
 21
-5.800736335748353
 31
0.0
 11
78.70698034214168
 21
-5.799924600748338
 31
0.0
 11
78.7092595274415
 21
-5.79911076754837
 31
0.0
 11
78.71152783714169
 21
-5.798294936148352
 31
0.0
 11
78.71378626274154
 21
-5.797476829248352
 31
0.0
 11
78.71603472114165
 21
-5.796656552348338
 31
0.0
 11
78.71827301374158
 21
-5.795834253848338
 31
0.0
 11
78.72050155054157
 21
-5.79500985804833
 31
0.0
 11
78.72272226134164
 21
-5.794182716748366
 31
0.0
 11
78.72493682594161
 21
-5.793352255248406
 31
0.0
 11
78.7271469516416
 21
-5.792517871248377
 31
0.0
 11
78.72935351094163
 21
-5.791679263248338
 31
0.0
 11
78.73155798214162
 21
-5.790835887748357
 31
0.0
 11
78.73376097224158
 21
-5.789987522848378
 31
0.0
 11
78.73596320394162
 21
-5.789133895048338
 31
0.0
 11
78.73816622014153
 21
-5.788274402448338
 31
0.0
 11
78.7403706776416
 21
-5.787408775948335
 31
0.0
 11
78.74257740844163
 21
-5.786536670148334
 31
0.0
 11
78.74478790874157
 21
-5.785657465748329
 31
0.0
 11
78.74700302414163
 21
-5.784770789548359
 31
0.0
 11
78.74922437484165
 21
-5.783875946148382
 31
0.0
 11
78.75145321094153
 21
-5.782972373848393
 31
0.0
 11
78.75369131054168
 21
-5.782059281248336
 31
0.0
  0
SPLINE
  5
56AA7
330
1F
100
AcDbEntity
  8
1
100
AcDbSpline
210
0.0
220
0.0
230
1.0
 70
     8
 71
     3
 72
    37
 73
    33
 74
    31
 42
0.0000000001
 43
0.0000000001
 44
0.000001
 12
0.9709712251983745
 22
0.2391963207007323
 32
0.0
 13
0.9518521743692042
 23
0.3065573978044212
 33
0.0
 40
0.0
 40
0.0
 40
0.0
 40
0.0
 40
0.0025116830082894
 40
0.0050079351103198
 40
0.0074897277736134
 40
0.0099590873718812
 40
0.0124177822545237
 40
0.0148675886560513
 40
0.017309352555031
 40
0.0197435569399204
 40
0.0221691460383847
 40
0.0245851850742617
 40
0.0269911463514932
 40
0.0293869380234619
 40
0.031773404469717
 40
0.0341519808672234
 40
0.0365243063766688
 40
0.0388921934518744
 40
0.041257300707577
 40
0.0436204829612165
 40
0.0459820367591618
 40
0.0483428743899486
 40
0.0507045287165902
 40
0.0530679544434249
 40
0.055433420860994
 40
0.0578016662227135
 40
0.0601743375580426
 40
0.0625532632333255
 40
0.0649400215716263
 40
0.0673358248019466
 40
0.0697419143634946
 40
0.072159427220464
 40
0.072159427220464
 40
0.072159427220464
 40
0.072159427220464
 10
78.61655952294161
 20
-5.826890593248378
 30
0.0
 10
78.61737244691757
 20
-5.826690331470262
 30
0.0
 10
78.61899279152521
 20
-5.826288968705504
 30
0.0
 10
78.62141460202224
 20
-5.825682554780621
 30
0.0
 10
78.62382120363633
 20
-5.825073514807792
 30
0.0
 10
78.62621415071057
 20
-5.824461579283681
 30
0.0
 10
78.62859525381679
 20
-5.823846394266791
 30
0.0
 10
78.63096593853275
 20
-5.823227686662405
 30
0.0
 10
78.63332721291984
 20
-5.822605278262631
 30
0.0
 10
78.6356791707344
 20
-5.821979224135069
 30
0.0
 10
78.63802133276037
 20
-5.821349732812469
 30
0.0
 10
78.64035289646166
 20
-5.820717106179182
 30
0.0
 10
78.64267337148572
 20
-5.820081567970667
 30
0.0
 10
78.64498284051696
 20
-5.819443187359789
 30
0.0
 10
78.64728201634495
 20
-5.818801855537983
 30
0.0
 10
78.64957216533534
 20
-5.818157299134037
 30
0.0
 10
78.65185486107218
 20
-5.817509143818655
 30
0.0
 10
78.65413174478391
 20
-5.816856979595279
 30
0.0
 10
78.65640420238651
 20
-5.816200453585988
 30
0.0
 10
78.65867313129308
 20
-5.815539341784244
 30
0.0
 10
78.66093918822457
 20
-5.814873482760733
 30
0.0
 10
78.6632032450365
 20
-5.814202644950496
 30
0.0
 10
78.66546638136876
 20
-5.813526525323126
 30
0.0
 10
78.66772946874269
 20
-5.81284487262031
 30
0.0
 10
78.66999312313445
 20
-5.812157505318274
 30
0.0
 10
78.6722581796516
 20
-5.811464169102524
 30
0.0
 10
78.6745259675265
 20
-5.81076444827644
 30
0.0
 10
78.67679807949071
 20
-5.810057831387085
 30
0.0
 10
78.67907596546801
 20
-5.809343836073059
 30
0.0
 10
78.68136088480412
 20
-5.808622026243526
 30
0.0
 10
78.68365395283205
 20
-5.807891999473564
 30
0.0
 10
78.68518495685177
 20
-5.807400807431908
 30
0.0
 10
78.68595199514159
 20
-5.807153771948377
 30
0.0
 11
78.61655952294161
 21
-5.826890593248378
 31
0.0
 11
78.61899753114162
 21
-5.826286694048405
 31
0.0
 11
78.62141903324169
 21
-5.825680338048358
 31
0.0
 11
78.62382498764152
 21
-5.825071427448333
 31
0.0
 11
78.6262173725416
 21
-5.82445959034834
 31
0.0
 11
78.62859791184162
 21
-5.823844498348362
 31
0.0
 11
78.6309683332416
 21
-5.823225803148374
 31
0.0
 11
78.63332946114161
 21
-5.82260337644834
 31
0.0
 11
78.63568176754161
 21
-5.821977174748382
 31
0.0
 11
78.63802423794172
 21
-5.82134754994837
 31
0.0
 11
78.64035597764163
 21
-5.82071483124838
 31
0.0
 11
78.64267648694165
 21
-5.820079246748377
 31
0.0
 11
78.64498568784149
 21
-5.819440911948388
 31
0.0
 11
78.64728440434155
 21
-5.818799689248352
 31
0.0
 11
78.64957402704163
 21
-5.818155271348357
 31
0.0
 11
78.6518561394417
 21
-5.817507281548329
 31
0.0
 11
78.65413248764167
 21
-5.816855279748381
 31
0.0
 11
78.65640466564158
 21
-5.816198852148374
 31
0.0
 11
78.6586734920416
 21
-5.81553779584834
 31
0.0
 11
78.6609392481417
 21
-5.81487205854836
 31
0.0
 11
78.66320280484167
 21
-5.814201409448342
 31
0.0
 11
78.66546562524156
 21
-5.813525431148377
 31
0.0
 11
78.66772861514158
 21
-5.812843859848327
 31
0.0
 11
78.66999202244151
 21
-5.812156623448403
 31
0.0
 11
78.67225654264164
 21
-5.811463509348357
 31
0.0
 11
78.6745237374417
 21
-5.810764029448362
 31
0.0
 11
78.67679533744156
 21
-5.810057627648402
 31
0.0
 11
78.67907282974153
 21
-5.809343806648371
 31
0.0
 11
78.68135734834172
 21
-5.808622166548332
 31
0.0
 11
78.68365005164156
 21
-5.807892287748357
 31
0.0
 11
78.68595199514159
 21
-5.807153771948377
 31
0.0
  0
SPLINE
  5
56AA8
330
1F
100
AcDbEntity
  8
1
100
AcDbSpline
210
0.0
220
0.0
230
1.0
 70
     8
 71
     3
 72
    37
 73
    33
 74
    31
 42
0.0000000001
 43
0.0000000001
 44
0.000001
 12
0.9869052235383215
 22
0.1613012081565901
 32
0.0
 13
0.9725157957523016
 23
0.2328369107600159
 33
0.0
 40
0.0
 40
0.0
 40
0.0
 40
0.0
 40
0.0024991696861311
 40
0.0049854209612787
 40
0.0074597768414328
 40
0.009924298514331
 40
0.0123798851158226
 40
0.0148269338944092
 40
0.0172659740432883
 40
0.0196978593108061
 40
0.0221217411282603
 40
0.0245369380749444
 40
0.0269429604888683
 40
0.029339476541018
 40
0.031727500255755
 40
0.0341084702637855
 40
0.0364838739235029
 40
0.0388546269044271
 40
0.041221979715932
 40
0.0435868949660815
 40
0.0459506768090498
 40
0.048314378150952
 40
0.0506792347854875
 40
0.0530463784971621
 40
0.055416848472512
 40
0.0577919148700799
 40
0.0601726377290616
 40
0.0625602442276746
 40
0.0649557528704393
 40
0.0673603866413042
 40
0.069775699050581
 40
0.0722033913856261
 40
0.0722033913856261
 40
0.0722033913856261
 40
0.0722033913856261
 10
78.54580089074153
 20
-5.841181648848362
 30
0.0
 10
78.54662303861411
 20
-5.841047275818441
 30
0.0
 10
78.54826272485102
 20
-5.840777017849859
 30
0.0
 10
78.55071512733042
 20
-5.840366071269578
 30
0.0
 10
78.5531550478981
 20
-5.839950572089406
 30
0.0
 10
78.55558379742183
 20
-5.839530412601837
 30
0.0
 10
78.55800247965508
 20
-5.839105505928136
 30
0.0
 10
78.56041169417652
 20
-5.838675843654645
 30
0.0
 10
78.56281202507503
 20
-5.838241413381441
 30
0.0
 10
78.56520364725568
 20
-5.837802270689058
 30
0.0
 10
78.56758633903019
 20
-5.837358542953838
 30
0.0
 10
78.56995943971172
 20
-5.836910443440486
 30
0.0
 10
78.57232245936128
 20
-5.83645815859384
 30
0.0
 10
78.57467546410282
 20
-5.836001771008392
 30
0.0
 10
78.57701915087145
 20
-5.83554123714106
 30
0.0
 10
78.57935481009922
 20
-5.835076386228918
 30
0.0
 10
78.58168369784038
 20
-5.834607040452396
 30
0.0
 10
78.58400700659828
 20
-5.834133022082222
 30
0.0
 10
78.58632575557479
 20
-5.833654177234901
 30
0.0
 10
78.58864108893278
 20
-5.833170315347429
 30
0.0
 10
78.59095408436214
 20
-5.832681248481768
 30
0.0
 10
78.59326590660531
 20
-5.832186759150334
 30
0.0
 10
78.59557766209801
 20
-5.831686631094943
 30
0.0
 10
78.59789045068332
 20
-5.831180638539816
 30
0.0
 10
78.60020538127844
 20
-5.830668543099995
 30
0.0
 10
78.60252353725918
 20
-5.830150101331033
 30
0.0
 10
78.60484606090486
 20
-5.829625045913216
 30
0.0
 10
78.60717401037506
 20
-5.829093117847763
 30
0.0
 10
78.60950849448187
 20
-5.828554036226867
 30
0.0
 10
78.61185072563849
 20
-5.828007485404047
 30
0.0
 10
78.6142021348233
 20
-5.82745308625437
 30
0.0
 10
78.61577253322727
 20
-5.8270790120429
 30
0.0
 10
78.61655952294161
 20
-5.826890593248378
 30
0.0
 11
78.54580089074153
 21
-5.841181648848362
 31
0.0
 11
78.5482667976415
 21
-5.840775212548351
 31
0.0
 11
78.55071887624156
 21
-5.840364296748361
 31
0.0
 11
78.5531581371416
 21
-5.839948867148391
 31
0.0
 11
78.55558661264158
 21
-5.839528698348374
 31
0.0
 11
78.55800518774168
 21
-5.839103744248347
 31
0.0
 11
78.56041425254154
 21
-5.838674037148336
 31
0.0
 11
78.5628143267416
 21
-5.838239579748402
 31
0.0
 11
78.56520624884166
 21
-5.837800309348379
 31
0.0
 11
78.5675891831416
 21
-5.837356467348342
 31
0.0
 11
78.56996246034151
 21
-5.836908271648383
 31
0.0
 11
78.57232560124163
 21
-5.83645590934833
 31
0.0
 11
78.57467828294154
 21
-5.835999540548358
 31
0.0
 11
78.57702150394159
 21
-5.835539066048338
 31
0.0
 11
78.57935667764158
 21
-5.835074292348338
 31
0.0
 11
78.58168526284164
 21
-5.834605001248347
 31
0.0
 11
78.5840081559416
 21
-5.834131074848357
 31
0.0
 11
78.58632657974165
 21
-5.833652317548343
 31
0.0
 11
78.58864147324161
 21
-5.833168580748348
 31
0.0
 11
78.59095410794164
 21
-5.832679635248383
 31
0.0
 11
78.59326550744168
 21
-5.83218529214838
 31
0.0
 11
78.59557687224159
 21
-5.831685313648392
 31
0.0
 11
78.59788929904159
 21
-5.831179472648327
 31
0.0
 11
78.60020379214152
 21
-5.830667551748375
 31
0.0
 11
78.60252157924158
 21
-5.830149273048391
 31
0.0
 11
78.60484368074169
 21
-5.829624393548384
 31
0.0
 11
78.60717127794163
 21
-5.829092623248357
 31
0.0
 11
78.60950534644162
 21
-5.82855370804833
 31
0.0
 11
78.61184705884155
 21
-5.82800733764833
 31
0.0
 11
78.61419790694156
 21
-5.827453114748379
 31
0.0
 11
78.61655952294161
 21
-5.826890593248378
 31
0.0
  0
SPLINE
  5
56AA9
330
1F
100
AcDbEntity
  8
1
100
AcDbSpline
210
0.0
220
0.0
230
1.0
 70
     8
 71
     3
 72
    19
 73
    15
 74
    13
 42
0.0000000001
 43
0.0000000001
 44
0.000001
 12
-0.999619625092769
 22
0.0275790704954372
 32
0.0
 13
-0.9995738055357429
 23
0.0291925895869614
 33
0.0
 40
0.0
 40
0.0
 40
0.0
 40
0.0
 40
0.0337190123782929
 40
0.0701242698873791
 40
0.1069586766355349
 40
0.1431108661123445
 40
0.178782900873932
 40
0.2149974667455932
 40
0.2533095680566213
 40
0.2953903800561086
 40
0.3422781604332184
 40
0.3938869095313391
 40
0.4502077230973718
 40
0.5120073955368494
 40
0.5120073955368494
 40
0.5120073955368494
 40
0.5120073955368494
 10
76.14883934514153
 20
-5.882430198848338
 30
0.0
 10
76.13760394963751
 20
-5.882120219175199
 30
0.0
 10
76.11423812424831
 20
-5.881474111923045
 30
0.0
 10
76.07859897993602
 20
-5.880484100453906
 30
0.0
 10
76.0421492209753
 20
-5.879466839640617
 30
0.0
 10
76.00594390253315
 20
-5.878451819306462
 30
0.0
 10
75.96994523967518
 20
-5.877438207725378
 30
0.0
 10
75.93322701486295
 20
-5.876399957768676
 30
0.0
 10
75.89437351732526
 20
-5.875296637985435
 30
0.0
 10
75.85196386841166
 20
-5.874086946120604
 30
0.0
 10
75.80512398840463
 20
-5.872744484183414
 30
0.0
 10
75.75353960644233
 20
-5.871258485494256
 30
0.0
 10
75.69698690737637
 20
-5.869620616590101
 30
0.0
 10
75.65763009979526
 20
-5.868474384106421
 30
0.0
 10
75.63703898854152
 20
-5.867873019948376
 30
0.0
 11
76.14883934514153
 21
-5.882430198848338
 31
0.0
 11
76.11513321584161
 21
-5.881498179848335
 31
0.0
 11
76.07874199684153
 21
-5.880487240748379
 31
0.0
 11
76.04192192524152
 21
-5.879459668548348
 31
0.0
 11
76.00578393184157
 21
-5.878446608248339
 31
0.0
 11
75.9701260261416
 21
-5.877442681548356
 31
0.0
 11
75.93392592644164
 21
-5.87641916184833
 31
0.0
 11
75.8956292617416
 21
-5.87533169194836
 31
0.0
 11
75.85356555884171
 21
-5.874131850248375
 31
0.0
 11
75.80669702634152
 21
-5.872788514048409
 31
0.0
 11
75.75510968004173
 21
-5.871302384048362
 31
0.0
 11
75.69881247244151
 21
-5.869671944748402
 31
0.0
 11
75.63703898854152
 21
-5.867873019948376
 31
0.0
  0
SPLINE
  5
56AAA
330
1F
100
AcDbEntity
  8
1
100
AcDbSpline
210
0.0
220
0.0
230
1.0
 70
     8
 71
     3
 72
    26
 73
    22
 74
    20
 42
0.0000000001
 43
0.0000000001
 44
0.000001
 12
-0.9997019046167153
 22
0.0244151982525619
 32
0.0
 13
-0.9996491921681533
 23
0.0264857055325765
 33
0.0
 40
0.0
 40
0.0
 40
0.0
 40
0.0
 40
0.0156230523816532
 40
0.03265782628342
 40
0.0510959948451128
 40
0.0701479357605585
 40
0.0889817171393314
 40
0.1074965237440365
 40
0.1260240699977866
 40
0.1454096593931959
 40
0.1665538271345118
 40
0.189902742475874
 40
0.2152593140338764
 40
0.2425317737995837
 40
0.2719604438662694
 40
0.3038486833082544
 40
0.3385062974798041
 40
0.3762402329353567
 40
0.4173824537568184
 40
0.4623906427735153
 40
0.5117882862104148
 40
0.5117882862104148
 40
0.5117882862104148
 40
0.5117882862104148
 10
76.66046027064163
 20
-5.895513828248338
 30
0.0
 10
76.65525413890103
 20
-5.895386681607935
 30
0.0
 10
76.64437146060122
 20
-5.895120132242182
 30
0.0
 10
76.62734455542119
 20
-5.89470364061189
 30
0.0
 10
76.60917503965698
 20
-5.894258770645889
 30
0.0
 10
76.5904060843707
 20
-5.893797184186304
 30
0.0
 10
76.57161166246294
 20
-5.893332063563049
 30
0.0
 10
76.55299205890573
 20
-5.892868302285261
 30
0.0
 10
76.53418864280451
 20
-5.89239730162764
 30
0.0
 10
76.51450911563475
 20
-5.891901654804735
 30
0.0
 10
76.49322303784924
 20
-5.891363049027005
 30
0.0
 10
76.46994736795438
 20
-5.890770223604247
 30
0.0
 10
76.44462955628704
 20
-5.890126955129038
 30
0.0
 10
76.41728599810895
 20
-5.889424983080928
 30
0.0
 10
76.38776594486536
 20
-5.888666736873391
 30
0.0
 10
76.35578505735971
 20
-5.887842470192605
 30
0.0
 10
76.32103674382124
 20
-5.886943903879783
 30
0.0
 10
76.28320490760057
 20
-5.88596146886697
 30
0.0
 10
76.24192418158859
 20
-5.884884123566146
 30
0.0
 10
76.1967570693983
 20
-5.883697966226998
 30
0.0
 10
76.1652994499271
 20
-5.882866309327695
 30
0.0
 10
76.14883934514153
 20
-5.882430198848338
 30
0.0
 11
76.66046027064163
 21
-5.895513828248338
 31
0.0
 11
76.64484187784165
 21
-5.895132281748372
 31
0.0
 11
76.62781219054164
 21
-5.894716015248378
 31
0.0
 11
76.60937955234166
 21
-5.894264449948365
 31
0.0
 11
76.59033337374157
 21
-5.893795902348357
 31
0.0
 11
76.57150535754166
 21
-5.893329928748356
 31
0.0
 11
76.55299628984161
 21
-5.892868971548351
 31
0.0
 11
76.53447455254156
 21
-5.892405049548357
 31
0.0
 11
76.51509510614172
 21
-5.891917051448388
 31
0.0
 11
76.49395770674171
 21
-5.891382081148377
 31
0.0
 11
76.47061633644153
 21
-5.890788493648357
 31
0.0
 11
76.4452680276416
 21
-5.89014109994838
 31
0.0
 11
76.41800452374155
 21
-5.889442369948369
 31
0.0
 11
76.38858556614157
 21
-5.888686375348356
 31
0.0
 11
76.3567079117416
 21
-5.887864819648369
 31
0.0
 11
76.32206188194169
 21
-5.886968809148356
 31
0.0
 11
76.28434066484152
 21
-5.885989183148352
 31
0.0
 11
76.24321245164158
 21
-5.884915674048388
 31
0.0
 11
76.1982197664416
 21
-5.883734442648402
 31
0.0
 11
76.14883934514153
 21
-5.882430198848338
 31
0.0
  0
SPLINE
  5
56AAB
330
1F
100
AcDbEntity
  8
1
100
AcDbSpline
210
0.0
220
0.0
230
1.0
 70
     8
 71
     3
 72
    58
 73
    54
 74
    52
 42
0.0000000001
 43
0.0000000001
 44
0.000001
 12
-0.9996554538241845
 22
-0.0262483073656869
 32
0.0
 13
-0.9997235112341236
 23
0.0235138488069312
 33
0.0
 40
0.0
 40
0.0
 40
0.0
 40
0.0
 40
0.0071838989721034
 40
0.0148671141906919
 40
0.0229148877770687
 40
0.031172804988045
 40
0.039444530481915
 40
0.0474209120775158
 40
0.0549193734159547
 40
0.0621475762902054
 40
0.0693725353024394
 40
0.0768566987878378
 40
0.0847123689009085
 40
0.0926691357982168
 40
0.1005458522720082
 40
0.1084164922650526
 40
0.1164204905956743
 40
0.1247463563930411
 40
0.1335867895305651
 40
0.1431170768299541
 40
0.1534059399101602
 40
0.1644962512606663
 40
0.1763165171507228
 40
0.1884219495078041
 40
0.2004294430066126
 40
0.2122515603340829
 40
0.2237718306522898
 40
0.2347578690558038
 40
0.2452205553714416
 40
0.2554778611439448
 40
0.2657540939244345
 40
0.2760389924208884
 40
0.2863141693539814
 40
0.2966236566272803
 40
0.3071852235917234
 40
0.3183358597799943
 40
0.3304661329035987
 40
0.3434557845794118
 40
0.3563619249953716
 40
0.3680502728605414
 40
0.3782954034816512
 40
0.3876033218724399
 40
0.3966051698118425
 40
0.4056916411467621
 40
0.4148732153039057
 40
0.4240231054056682
 40
0.4330673782514935
 40
0.4422024095983306
 40
0.4519225343022004
 40
0.4627948250970266
 40
0.4751921373044863
 40
0.4890505089321126
 40
0.5040836054620903
 40
0.5040836054620903
 40
0.5040836054620903
 40
0.5040836054620903
 10
77.16444745054158
 20
-5.901079011548347
 30
0.0
 10
77.1620536426125
 20
-5.901141866611115
 30
0.0
 10
77.15709954012457
 20
-5.901267914753532
 30
0.0
 10
77.14946359792218
 20
-5.901457560786223
 30
0.0
 10
77.14146949449399
 20
-5.901645184410239
 30
0.0
 10
77.13327900406046
 20
-5.901825523654806
 30
0.0
 10
77.12511199275249
 20
-5.901990621943614
 30
0.0
 10
77.11719778732065
 20
-5.902135289505015
 30
0.0
 10
77.10963112831501
 20
-5.902259943665103
 30
0.0
 10
77.102314715695
 20
-5.902368036973186
 30
0.0
 10
77.09500290256707
 20
-5.902464158202213
 30
0.0
 10
77.08748180286275
 20
-5.902550974641236
 30
0.0
 10
77.07971664985105
 20
-5.902628176028239
 30
0.0
 10
77.07182054066833
 20
-5.902694476694877
 30
0.0
 10
77.0639193514861
 20
-5.90274900643917
 30
0.0
 10
77.05600234651061
 20
-5.902791896866098
 30
0.0
 10
77.04793557105152
 20
-5.902823591027326
 30
0.0
 10
77.03954549265259
 20
-5.902843705696767
 30
0.0
 10
77.03064662915489
 20
-5.902850639509958
 30
0.0
 10
77.02109343380039
 20
-5.90284145851283
 30
0.0
 10
77.01079031573579
 20
-5.90281161270917
 30
0.0
 10
76.9997239712876
 20
-5.902754683450599
 30
0.0
 10
76.98805230051066
 20
-5.902664760204935
 30
0.0
 10
76.9760752116392
 20
-5.902539089215802
 30
0.0
 10
76.96409793621568
 20
-5.902377610540332
 30
0.0
 10
76.95231614313856
 20
-5.902188981016872
 30
0.0
 10
76.94087515757544
 20
-5.901984462962603
 30
0.0
 10
76.92988751841653
 20
-5.901773348984853
 30
0.0
 10
76.91932096174667
 20
-5.901561648673883
 30
0.0
 10
76.9089910137788
 20
-5.901351997445617
 30
0.0
 10
76.89872043574737
 20
-5.901137730244899
 30
0.0
 10
76.88844398921713
 20
-5.900919207682507
 30
0.0
 10
76.87815655516413
 20
-5.900696031601198
 30
0.0
 10
76.86777701568447
 20
-5.900466487703742
 30
0.0
 10
76.85710582838592
 20
-5.900225985101855
 30
0.0
 10
76.84582797525776
 20
-5.899967028164552
 30
0.0
 10
76.83374109323171
 20
-5.899684338792296
 30
0.0
 10
76.82106932598497
 20
-5.899382760791841
 30
0.0
 10
76.80854493052288
 20
-5.899080310799098
 30
0.0
 10
76.79693517761148
 20
-5.898797115824111
 30
0.0
 10
76.78652450990307
 20
-5.898541759471737
 30
0.0
 10
76.77700908510715
 20
-5.898307865285353
 30
0.0
 10
76.76787976097705
 20
-5.898083562226793
 30
0.0
 10
76.7587925242465
 20
-5.89786088973781
 30
0.0
 10
76.7496559269927
 20
-5.897638150858375
 30
0.0
 10
76.74053335688983
 20
-5.897417188316439
 30
0.0
 10
76.73142626773525
 20
-5.897197793044637
 30
0.0
 10
76.72212912938494
 20
-5.896974907358946
 30
0.0
 10
76.71222280207991
 20
-5.896738448967584
 30
0.0
 10
76.70122933103655
 20
-5.896477151757486
 30
0.0
 10
76.68885681100002
 20
-5.896184038597378
 30
0.0
 10
76.67509770313412
 20
-5.89585983992263
 30
0.0
 10
76.6654699173242
 20
-5.895631656901307
 30
0.0
 10
76.66046027064163
 20
-5.895513828248338
 30
0.0
 11
77.16444745054158
 21
-5.901079011548347
 31
0.0
 11
77.15726588774153
 21
-5.901263979248367
 31
0.0
 11
77.14958501874157
 21
-5.901453836648387
 31
0.0
 11
77.14153945764161
 21
-5.901642619448407
 31
0.0
 11
77.13328352824153
 21
-5.90182394444838
 31
0.0
 11
77.12501348334154
 21
-5.901990895548352
 31
0.0
 11
77.11703842984168
 21
-5.902136727448407
 31
0.0
 11
77.10954098104169
 21
-5.902260263948392
 31
0.0
 11
77.1023135625415
 21
-5.902367090748325
 31
0.0
 11
77.09508922354149
 21
-5.902462125448378
 31
0.0
 11
77.08760555454168
 21
-5.902548595448365
 31
0.0
 11
77.07975026904155
 21
-5.902626829048356
 31
0.0
 11
77.07179377874156
 21
-5.902693706048352
 31
0.0
 11
77.06391724604152
 21
-5.902748069348374
 31
0.0
 11
77.05604671824161
 21
-5.902790717348407
 31
0.0
 11
77.04804277864157
 21
-5.902822163948371
 31
0.0
 11
77.03971693384151
 21
-5.902842113248367
 31
0.0
 11
77.03087650044159
 21
-5.902848989348342
 31
0.0
 11
77.02134621444163
 21
-5.902839741048352
 31
0.0
 11
77.01105739144153
 21
-5.90280967314834
 31
0.0
 11
76.9999672228416
 21
-5.902752349948342
 31
0.0
 11
76.98814730114152
 21
-5.902661060648424
 31
0.0
 11
76.97604252544154
 21
-5.902533685448361
 31
0.0
 11
76.96403608844168
 21
-5.902372670848365
 31
0.0
 11
76.95221542554152
 21
-5.902184632348338
 31
0.0
 11
76.94069690014164
 21
-5.901979618048358
 31
0.0
 11
76.92971269194157
 21
-5.901769357148337
 31
0.0
 11
76.91925163084154
 21
-5.901560267448361
 31
0.0
 11
76.90899658264159
 21
-5.901350506648384
 31
0.0
 11
76.89872290334159
 21
-5.901136201948361
 31
0.0
 11
76.88844046364166
 21
-5.900917449048335
 31
0.0
 11
76.87816777114161
 21
-5.900694588148382
 31
0.0
 11
76.86786084494165
 21
-5.900466647548339
 31
0.0
 11
76.85730198724157
 21
-5.900228697448369
 31
0.0
 11
76.84615431034155
 21
-5.899972775548405
 31
0.0
 11
76.83402736994167
 21
-5.899689242348357
 31
0.0
 11
76.82104140784152
 21
-5.899380345448378
 31
0.0
 11
76.80813903794168
 21
-5.899068964948412
 31
0.0
 11
76.79645417264151
 21
-5.898784106948426
 31
0.0
 11
76.7862121281416
 21
-5.898533008448397
 31
0.0
 11
76.77690702514162
 21
-5.898304377848376
 31
0.0
 11
76.76790789714172
 21
-5.898083354848381
 31
0.0
 11
76.75882415584154
 21
-5.897860856148382
 31
0.0
 11
76.7496453124416
 21
-5.897637135548336
 31
0.0
 11
76.74049811004154
 21
-5.897415537548339
 31
0.0
 11
76.73145646424163
 21
-5.897197697948342
 31
0.0
 11
76.72232406024154
 21
-5.89697873594838
 31
0.0
 11
76.71260670634166
 21
-5.89674676864837
 31
0.0
 11
76.70173748914163
 21
-5.89648836294833
 31
0.0
 11
76.68934365474166
 21
-5.896194823648387
 31
0.0
 11
76.67548914464155
 21
-5.895867758848396
 31
0.0
 11
76.66046027064163
 21
-5.895513828248338
 31
0.0
  0
SPLINE
  5
56AAC
330
1F
100
AcDbEntity
  8
1
100
AcDbSpline
210
0.0
220
0.0
230
1.0
 70
     8
 71
     3
 72
    46
 73
    42
 74
    40
 42
0.0000000001
 43
0.0000000001
 44
0.000001
 12
-0.9994753508099222
 22
-0.0323886264510081
 32
0.0
 13
-0.9996356340062801
 23
-0.026992577217865
 33
0.0
 40
0.0
 40
0.0
 40
0.0
 40
0.0
 40
0.0373997983200687
 40
0.0718346316023422
 40
0.1031945607190448
 40
0.1318514208028254
 40
0.1578849299985495
 40
0.1812411884093014
 40
0.2019267463880811
 40
0.2201352211813279
 40
0.2361165746942794
 40
0.2502839193821898
 40
0.263224558127331
 40
0.2755293262885019
 40
0.2877373061082893
 40
0.3001361596231942
 40
0.3126975258153521
 40
0.324558583057998
 40
0.3350165305769242
 40
0.3441432114454419
 40
0.352130388724532
 40
0.3592556436412023
 40
0.365846139416637
 40
0.3722356700748905
 40
0.3786475238222586
 40
0.3850622610875115
 40
0.3914567893825844
 40
0.3978654233784567
 40
0.4042824784148018
 40
0.4106576337179507
 40
0.4169873932444185
 40
0.4233025878284372
 40
0.4296111285790485
 40
0.4359112847855142
 40
0.4422312372640473
 40
0.4485979398498578
 40
0.4550051948783695
 40
0.4614168108095108
 40
0.4677653095831714
 40
0.4741345935299861
 40
0.480800822700615
 40
0.480800822700615
 40
0.480800822700615
 40
0.480800822700615
 10
77.64501165264158
 20
-5.886002884548361
 30
0.0
 10
77.63255159379287
 20
-5.886406660580738
 30
0.0
 10
77.60861926493951
 20
-5.887181764801824
 30
0.0
 10
77.57423885474472
 20
-5.88828750936955
 30
0.0
 10
77.54277113323813
 20
-5.889295893634954
 30
0.0
 10
77.51410229653841
 20
-5.890210838379431
 30
0.0
 10
77.4880999044209
 20
-5.891037918168501
 30
0.0
 10
77.46475320292346
 20
-5.891778415839441
 30
0.0
 10
77.44401347937913
 20
-5.892434461810879
 30
0.0
 10
77.42573078165577
 20
-5.893011302063518
 30
0.0
 10
77.40961970192302
 20
-5.893518382183158
 30
0.0
 10
77.39526367248666
 20
-5.893969396986972
 30
0.0
 10
77.38213255085577
 20
-5.894381409826951
 30
0.0
 10
77.36965421847253
 20
-5.894772585531883
 30
0.0
 10
77.35735638622279
 20
-5.895157902519148
 30
0.0
 10
77.34497305587066
 20
-5.895545662626188
 30
0.0
 10
77.33270528847675
 20
-5.895929124486318
 30
0.0
 10
77.32108414341609
 20
-5.896291396478954
 30
0.0
 10
77.31060730415366
 20
-5.896616921703138
 30
0.0
 10
77.30142110435529
 20
-5.896901345176023
 30
0.0
 10
77.29334524322746
 20
-5.897150523121196
 30
0.0
 10
77.28611436402267
 20
-5.89737327257353
 30
0.0
 10
77.27941577913156
 20
-5.897579557782084
 30
0.0
 10
77.27295488618018
 20
-5.897778660640089
 30
0.0
 10
77.26655256162982
 20
-5.897976284232335
 30
0.0
 10
77.26014858823487
 20
-5.898174484862257
 30
0.0
 10
77.25374571043608
 20
-5.898373389802605
 30
0.0
 10
77.24734209039872
 20
-5.898573281755849
 30
0.0
 10
77.24094496316394
 20
-5.898774195764148
 30
0.0
 10
77.23457416089178
 20
-5.898975756666932
 30
0.0
 10
77.22823731397551
 20
-5.899176837615524
 30
0.0
 10
77.22192265145493
 20
-5.899376922052953
 30
0.0
 10
77.21561781524929
 20
-5.899575539998419
 30
0.0
 10
77.20931133360245
 20
-5.899772287941638
 30
0.0
 10
77.20298539484133
 20
-5.899967085493257
 30
0.0
 10
77.19662368032707
 20
-5.900159938573283
 30
0.0
 10
77.19023132336713
 20
-5.900350323735239
 30
0.0
 10
77.18384492822768
 20
-5.900537027081449
 30
0.0
 10
77.17747107817946
 20
-5.900719670235376
 30
0.0
 10
77.17101230323894
 20
-5.900901653065128
 30
0.0
 10
77.1666687172827
 20
-5.9010190319798
 30
0.0
 10
77.16444745054158
 20
-5.901079011548347
 30
0.0
 11
77.64501165264158
 21
-5.886002884548361
 31
0.0
 11
77.60763138524165
 21
-5.887211297648377
 31
0.0
 11
77.57321436504168
 21
-5.888318755948375
 31
0.0
 11
77.54187052084155
 21
-5.889323039348425
 31
0.0
 11
77.51322824544155
 21
-5.890237200148361
 31
0.0
 11
77.48720789664156
 21
-5.891064877248367
 31
0.0
 11
77.46386337694167
 21
-5.891805287148372
 31
0.0
 11
77.44318815954153
 21
-5.892459270548386
 31
0.0
 11
77.42498874044153
 21
-5.893033464548407
 31
0.0
 11
77.4090152976417
 21
-5.893536242148343
 31
0.0
 11
77.39485494024162
 21
-5.893981139748403
 31
0.0
 11
77.38192066744165
 21
-5.894386994748343
 31
0.0
 11
77.3696219416416
 21
-5.89477256334834
 31
0.0
 11
77.35741994954158
 21
-5.895154872048407
 31
0.0
 11
77.3450271678417
 21
-5.895542854048357
 31
0.0
 11
77.33247193164157
 21
-5.895935237048377
 31
0.0
 11
77.32061663174166
 21
-5.896304754548337
 31
0.0
 11
77.31016372754159
 21
-5.896629500948336
 31
0.0
 11
77.30104141754153
 21
-5.896911926448352
 31
0.0
 11
77.29305804144162
 21
-5.897158314748367
 31
0.0
 11
77.28593616624159
 21
-5.89737774924839
 31
0.0
 11
77.27934879434164
 21
-5.897580643848357
 31
0.0
 11
77.27296229644169
 21
-5.897777485848392
 31
0.0
 11
77.26655349614166
 21
-5.897975342648407
 31
0.0
 11
77.2601418300415
 21
-5.898173816948371
 31
0.0
 11
77.25375038614157
 21
-5.898372404248391
 31
0.0
 11
77.24734487354163
 21
-5.898572398648354
 31
0.0
 11
77.24093098244164
 21
-5.898773882448381
 31
0.0
 11
77.23455901094162
 21
-5.898975335448367
 31
0.0
 11
77.22823243124167
 21
-5.899175943148348
 31
0.0
 11
77.22192040004151
 21
-5.899375800048402
 31
0.0
 11
77.21561498344165
 21
-5.899574308248361
 31
0.0
 11
77.20931788794162
 21
-5.899770659348346
 31
0.0
 11
77.20300092764154
 21
-5.899965104448424
 31
0.0
 11
77.19663714714155
 21
-5.900157968048402
 31
0.0
 11
77.19023273174167
 21
-5.900348695848379
 31
0.0
 11
77.18382385314153
 21
-5.900536020748348
 31
0.0
 11
77.17747796244165
 21
-5.900717966748343
 31
0.0
 11
77.17111118634154
 21
-5.900896671348391
 31
0.0
 11
77.16444745054158
 21
-5.901079011548347
 31
0.0
  0
SPLINE
  5
56AAD
330
1F
100
AcDbEntity
  8
1
100
AcDbSpline
210
0.0
220
0.0
230
1.0
 70
     8
 71
     3
 72
    16
 73
    12
 74
    10
 42
0.0000000001
 43
0.0000000001
 44
0.000001
 12
-0.999391646394066
 22
-0.0348760249707215
 32
0.0
 13
-0.9994569304888724
 23
-0.0329521486061463
 33
0.0
 40
0.0
 40
0.0
 40
0.0
 40
0.0
 40
0.0729330748390887
 40
0.138978862415041
 40
0.1989165445831403
 40
0.2534609660254659
 40
0.3033091291769245
 40
0.3491327456202615
 40
0.3914687700556324
 40
0.4302028486314147
 40
0.4655603579528753
 40
0.4655603579528753
 40
0.4655603579528753
 40
0.4655603579528753
 10
78.1103050046416
 20
-5.87023970004833
 30
0.0
 10
78.08600876939493
 20
-5.871087571961423
 30
0.0
 10
78.03971038446275
 20
-5.872695231891229
 30
0.0
 10
77.97344403733934
 20
-5.874973975300741
 30
0.0
 10
77.91330304585013
 20
-5.877025274458704
 30
0.0
 10
77.85855770937175
 20
-5.878880302598482
 30
0.0
 10
77.80851401442451
 20
-5.880565688896916
 30
0.0
 10
77.76253716730547
 20
-5.882104806684447
 30
0.0
 10
77.72026270613537
 20
-5.883512940220413
 30
0.0
 10
77.6814748230735
 20
-5.884799198643859
 30
0.0
 10
77.65679108855363
 20
-5.885614515914526
 30
0.0
 10
77.64501165264158
 20
-5.886002884548361
 30
0.0
 11
78.1103050046416
 21
-5.87023970004833
 31
0.0
 11
78.03741584684162
 21
-5.872770372148353
 31
0.0
 11
77.97140905814154
 21
-5.875039729248384
 31
0.0
 11
77.91150622134165
 21
-5.877083223848388
 31
0.0
 11
77.85699308494152
 21
-5.878930359348371
 31
0.0
 11
77.80717316294165
 21
-5.880608094948343
 31
0.0
 11
77.76137521954156
 21
-5.882141751648362
 31
0.0
 11
77.71906267564154
 21
-5.883551527548377
 31
0.0
 11
77.68034988574161
 21
-5.884835528648352
 31
0.0
 11
77.64501165264158
 21
-5.886002884548361
 31
0.0
  0
SPLINE
  5
56AAE
330
1F
100
AcDbEntity
  8
1
100
AcDbSpline
210
0.0
220
0.0
230
1.0
 70
     8
 71
     3
 72
    20
 73
    16
 74
    14
 42
0.0000000001
 43
0.0000000001
 44
0.000001
 12
-0.5291968932283396
 22
-0.8484990560969844
 32
0.0
 13
-0.6514682293586396
 23
-0.7586759164072096
 33
0.0
 40
0.0
 40
0.0
 40
0.0
 40
0.0
 40
0.0119161556364601
 40
0.0238378480824856
 40
0.0357645361699347
 40
0.0476968550885119
 40
0.0596341540966931
 40
0.0715768109157829
 40
0.0835245716508095
 40
0.0954772545348032
 40
0.1074351461762351
 40
0.1193975506609634
 40
0.1313650433812234
 40
0.1433371532866521
 40
0.1553143864825431
 40
0.1553143864825431
 40
0.1553143864825431
 40
0.1553143864825431
 10
79.2261054724416
 20
-5.3724767267484
 30
0.0
 10
79.2240034749276
 20
-5.375847009018348
 30
0.0
 10
79.21975892077387
 20
-5.382564545070881
 30
0.0
 10
79.21327313623918
 20
-5.392567705922224
 30
0.0
 10
79.20666770777225
 20
-5.402498759409776
 30
0.0
 10
79.19994382141786
 20
-5.412356287016335
 30
0.0
 10
79.19310228237245
 20
-5.422139024186492
 30
0.0
 10
79.18614383398383
 20
-5.431845286351897
 30
0.0
 10
79.1790694108278
 20
-5.441473711112576
 30
0.0
 10
79.17187998055034
 20
-5.45102292638996
 30
0.0
 10
79.16457645518789
 20
-5.46049132757397
 30
0.0
 10
79.15716025954381
 20
-5.469878030817225
 30
0.0
 10
79.14963199099104
 20
-5.479181196655259
 30
0.0
 10
79.1419925421137
 20
-5.48839968139898
 30
0.0
 10
79.13682711160909
 20
-5.494486706224699
 30
0.0
 10
79.13422618264151
 20
-5.497515652348337
 30
0.0
 11
79.2261054724416
 21
-5.3724767267484
 31
0.0
 11
79.21974040464156
 21
-5.382550584348336
 31
0.0
 11
79.21325487504154
 21
-5.392553924148329
 31
0.0
 11
79.20665001114167
 21
-5.402484864548339
 31
0.0
 11
79.19992631204157
 21
-5.412342484348356
 31
0.0
 11
79.19308499324151
 21
-5.42212486494833
 31
0.0
 11
79.18612668754153
 21
-5.431830976648369
 31
0.0
 11
79.1790524212416
 21
-5.441459233948362
 31
0.0
 11
79.17186321834158
 21
-5.451008135248399
 31
0.0
 11
79.16455983644171
 21
-5.460476562848326
 31
0.0
 11
79.15714365094171
 21
-5.469862612048358
 31
0.0
 11
79.14961524304165
 21
-5.479165456948352
 31
0.0
 11
79.14197587194149
 21
-5.488383437648336
 31
0.0
 11
79.13422618264151
 21
-5.497515652348337
 31
0.0
  0
SPLINE
  5
56AAF
330
1F
100
AcDbEntity
  8
1
100
AcDbSpline
210
0.0
220
0.0
230
1.0
 70
     8
 71
     3
 72
    20
 73
    16
 74
    14
 42
0.0000000001
 43
0.0000000001
 44
0.000001
 12
-0.3923183365558
 22
-0.91982950746434
 32
0.0
 13
-0.5287182275792006
 23
-0.8487974056425411
 33
0.0
 40
0.0
 40
0.0
 40
0.0
 40
0.0
 40
0.011913269156607
 40
0.0238315083066653
 40
0.0357550514651107
 40
0.0476833932312815
 40
0.0596170579677303
 40
0.0715554635578633
 40
0.083498778364992
 40
0.0954469221773377
 40
0.107399442420683
 40
0.1193569378081985
 40
0.1313188587267118
 40
0.1432859219091136
 40
0.1552579500626475
 40
0.1552579500626475
 40
0.1552579500626475
 40
0.1552579500626475
 10
79.29776269464159
 20
-5.234915759148348
 30
0.0
 10
79.29620476332877
 20
-5.238568484648552
 30
0.0
 10
79.29304477780639
 20
-5.245857005363384
 30
0.0
 10
79.28817431279826
 20
-5.256735056558732
 30
0.0
 10
79.28317296712925
 20
-5.267559110518158
 30
0.0
 10
79.27804175760581
 20
-5.278327899009469
 30
0.0
 10
79.27278121698264
 20
-5.289039626595982
 30
0.0
 10
79.26739184873008
 20
-5.29969271282089
 30
0.0
 10
79.26187446711168
 20
-5.310285507236845
 30
0.0
 10
79.256229844726
 20
-5.320816388093483
 30
0.0
 10
79.25045860256954
 20
-5.331283810811792
 30
0.0
 10
79.24456195573444
 20
-5.341686381955178
 30
0.0
 10
79.23854034552757
 20
-5.352022737213261
 30
0.0
 10
79.23239437098331
 20
-5.36229125907112
 30
0.0
 10
79.22821541561022
 20
-5.369089451269401
 30
0.0
 10
79.2261054724416
 20
-5.3724767267484
 30
0.0
 11
79.29776269464159
 21
-5.234915759148348
 31
0.0
 11
79.29302398294163
 21
-5.245846109748356
 31
0.0
 11
79.28815393214161
 21
-5.256724032848353
 31
0.0
 11
79.28315301304161
 21
-5.267548247548402
 31
0.0
 11
79.27802210404168
 21
-5.278316687148333
 31
0.0
 11
79.27276160474169
 21
-5.289028316148403
 31
0.0
 11
79.26737242164159
 21
-5.299681101048406
 31
0.0
 11
79.26185518284168
 21
-5.310273665948386
 31
0.0
 11
79.25621063044157
 21
-5.320804416148405
 31
0.0
 11
79.25043971534169
 21
-5.331271443248338
 31
0.0
 11
79.24454291854165
 21
-5.34167376474835
 31
0.0
 11
79.23852125814147
 21
-5.352009439248377
 31
0.0
 11
79.23237514754153
 21
-5.362277628948389
 31
0.0
 11
79.2261054724416
 21
-5.3724767267484
 31
0.0
  0
SPLINE
  5
56AB0
330
1F
100
AcDbEntity
  8
1
100
AcDbSpline
210
0.0
220
0.0
230
1.0
 70
     8
 71
     3
 72
    20
 73
    16
 74
    14
 42
0.0000000001
 43
0.0000000001
 44
0.000001
 12
-0.2438006317538901
 22
-0.9698253718873331
 32
0.0
 13
-0.3914252650354858
 23
-0.920209900996452
 33
0.0
 40
0.0
 40
0.0
 40
0.0
 40
0.0
 40
0.0118952166198183
 40
0.023795251940986
 40
0.0356998455562623
 40
0.0476094895662352
 40
0.0595237802610257
 40
0.0714429942146433
 40
0.0833670362864379
 40
0.0952957828460604
 40
0.1072295413184229
 40
0.1191679011345159
 40
0.1311113395359933
 40
0.1430595236600947
 40
0.1550127375710084
 40
0.1550127375710084
 40
0.1550127375710084
 40
0.1550127375710084
 10
79.34711295354154
 20
-5.088132960948371
 30
0.0
 10
79.34614626643261
 20
-5.091978388575703
 30
0.0
 10
79.34416617598708
 20
-5.09965924116374
 30
0.0
 10
79.34105720137836
 20
-5.111146170546052
 30
0.0
 10
79.33780904501023
 20
-5.122599537259842
 30
0.0
 10
79.33442282536931
 20
-5.134017798306079
 30
0.0
 10
79.33089834435449
 20
-5.145399247367333
 30
0.0
 10
79.32723611579723
 20
-5.156742165778652
 30
0.0
 10
79.32343654105739
 20
-5.168044902011894
 30
0.0
 10
79.31950012586146
 20
-5.179305847578945
 30
0.0
 10
79.31542731638355
 20
-5.190523261341972
 30
0.0
 10
79.31121883758058
 20
-5.201695714229645
 30
0.0
 10
79.30687533176353
 20
-5.212821537110695
 30
0.0
 10
79.30239688309041
 20
-5.223899053685699
 30
0.0
 10
79.29932229128262
 20
-5.231249270551831
 30
0.0
 10
79.29776269464159
 20
-5.234915759148348
 30
0.0
 11
79.34711295354154
 21
-5.088132960948371
 31
0.0
 11
79.34414368334168
 21
-5.09965171044837
 31
0.0
 11
79.34103506084153
 21
-5.111138635548343
 31
0.0
 11
79.33778752614156
 21
-5.122591789548379
 31
0.0
 11
79.33440133894155
 21
-5.134009892348387
 31
0.0
 11
79.33087700444168
 21
-5.14539096964836
 31
0.0
 11
79.32721486934163
 21
-5.156733634048406
 31
0.0
 11
79.32341540164164
 21
-5.168036131948381
 31
0.0
 11
79.31947912564152
 21
-5.179296695748405
 31
0.0
 11
79.3154064348417
 21
-5.190513967748358
 31
0.0
 11
79.31119798054154
 21
-5.201685911348363
 31
0.0
 11
79.30685413184147
 21
-5.212811370148358
 31
0.0
 11
79.30237555194169
 21
-5.223888433648369
 31
0.0
 11
79.29776269464159
 21
-5.234915759148348
 31
0.0
  0
SPLINE
  5
56AB1
330
1F
100
AcDbEntity
  8
1
100
AcDbSpline
210
0.0
220
0.0
230
1.0
 70
     8
 71
     3
 72
    29
 73
    25
 74
    23
 42
0.0000000001
 43
0.0000000001
 44
0.000001
 12
0.0189656152382223
 22
-0.9998201365438866
 32
0.0
 13
0.000857614063142
 23
-0.9999996322489918
 33
0.0
 40
0.0
 40
0.0
 40
0.0
 40
0.0
 40
0.0195030365613574
 40
0.0398463936259311
 40
0.0601649343661292
 40
0.080036312106722
 40
0.099244711006864
 40
0.1175611587303059
 40
0.1348281205125598
 40
0.1512395576001599
 40
0.167149144842237
 40
0.182857503118474
 40
0.1986056228773714
 40
0.2143735240404148
 40
0.2299372136878266
 40
0.2456577163089927
 40
0.2623475206179599
 40
0.2807953954891742
 40
0.3014000651028042
 40
0.3243790050181849
 40
0.3496898769487937
 40
0.3770947185236377
 40
0.4063278922834554
 40
0.4371051798132945
 40
0.4371051798132945
 40
0.4371051798132945
 40
0.4371051798132945
 10
79.37560475064157
 20
-4.336433775448369
 30
0.0
 10
79.37572804633737
 20
-4.342933618340968
 30
0.0
 10
79.37594669812617
 20
-4.356214031924697
 30
0.0
 10
79.37615809806455
 20
-4.376267991709319
 30
0.0
 10
79.3762790612717
 20
-4.396445442428213
 30
0.0
 10
79.37632332070783
 20
-4.416244867685371
 30
0.0
 10
79.37631589394448
 20
-4.435376951006091
 30
0.0
 10
79.37628871916368
 20
-4.453640866514641
 30
0.0
 10
79.37627008090075
 20
-4.470972473229309
 30
0.0
 10
79.37626315833739
 20
-4.487501801140251
 30
0.0
 10
79.37626003543511
 20
-4.503511594946996
 30
0.0
 10
79.37625608425623
 20
-4.519300282932154
 30
0.0
 10
79.37625013594905
 20
-4.53504174155949
 30
0.0
 10
79.37624372206579
 20
-4.550734977101168
 30
0.0
 10
79.3762378724704
 20
-4.566419007163724
 30
0.0
 10
79.3762329932491
 20
-4.582410338622483
 30
0.0
 10
79.37622869474501
 20
-4.599363065349784
 30
0.0
 10
79.37622476144216
 20
-4.617943847870271
 30
0.0
 10
79.376221434656
 20
-4.638621009083119
 30
0.0
 10
79.37621983817445
 20
-4.661585836235445
 30
0.0
 10
79.37622153683443
 20
-4.686817387398588
 30
0.0
 10
79.37622789206226
 20
-4.714133682635258
 30
0.0
 10
79.37624147987776
 20
-4.743272113899943
 30
0.0
 10
79.37625453449673
 20
-4.763275597077904
 30
0.0
 10
79.37626333284161
 20
-4.773534689148391
 30
0.0
 11
79.37560475064157
 21
-4.336433775448369
 31
0.0
 11
79.37592224674159
 21
-4.355934238848361
 31
0.0
 11
79.37614176214158
 21
-4.376276406448424
 31
0.0
 11
79.37626608214152
 21
-4.39659456344833
 31
0.0
 11
79.3763139784415
 21
-4.416465880748376
 31
0.0
 11
79.37631117434154
 21
-4.435674277348367
 31
0.0
 11
79.37628849514164
 21
-4.453990709648393
 31
0.0
 11
79.37627071184152
 21
-4.471257661548349
 31
0.0
 11
79.37626270984157
 21
-4.487669096348382
 31
0.0
 11
79.37625887514157
 21
-4.503578682948329
 31
0.0
 11
79.37625475394163
 21
-4.519287040548363
 31
0.0
 11
79.3762490576417
 21
-4.535035159148376
 31
0.0
 11
79.37624278884171
 21
-4.550803058948361
 31
0.0
 11
79.37623706714163
 21
-4.56636674744834
 31
0.0
 11
79.37623222294162
 21
-4.582087249248329
 31
0.0
 11
79.37622795404156
 21
-4.598777052948377
 31
0.0
 11
79.37622406124169
 21
-4.617224927348329
 31
0.0
 11
79.37622085874164
 21
-4.637829596648373
 31
0.0
 11
79.37621939104165
 21
-4.66080853644837
 31
0.0
 11
79.37622115964163
 21
-4.686119408248373
 31
0.0
 11
79.37622778314161
 21
-4.713524248948373
 31
0.0
 11
79.37624112424163
 21
-4.742757419548353
 31
0.0
 11
79.37626333284161
 21
-4.773534689148391
 31
0.0
  0
SPLINE
  5
56AB2
330
1F
100
AcDbEntity
  8
1
100
AcDbSpline
210
0.0
220
0.0
230
1.0
 70
     8
 71
     3
 72
    28
 73
    24
 74
    22
 42
0.0000000001
 43
0.0000000001
 44
0.000001
 12
0.0526973104939319
 22
-0.9986105314218884
 32
0.0
 13
0.0211599710095897
 23
-0.999776102748447
 33
0.0
 40
0.0
 40
0.0
 40
0.0
 40
0.0
 40
0.0299373683305551
 40
0.0599281646562328
 40
0.0898703642152196
 40
0.1196826850604306
 40
0.1493711302125535
 40
0.1790611461832271
 40
0.2088871224246589
 40
0.2389804633082587
 40
0.26948278729508
 40
0.3005649222127742
 40
0.3322306091635828
 40
0.3639572181929469
 40
0.3945799831710262
 40
0.4220470785132399
 40
0.4454392378269416
 40
0.4660877402980807
 40
0.4855175228109954
 40
0.5051499771547478
 40
0.5252649554540553
 40
0.5454939069754987
 40
0.5653848415681671
 40
0.5653848415681671
 40
0.5653848415681671
 40
0.5653848415681671
 10
79.3461466866416
 20
-3.771836767548336
 30
0.0
 10
79.34667255957302
 20
-3.781802024647652
 30
0.0
 10
79.34772331287959
 20
-3.80175042556646
 30
0.0
 10
79.34928808392218
 20
-3.831666319149508
 30
0.0
 10
79.3508372647997
 20
-3.861541286412628
 30
0.0
 10
79.35236180915379
 20
-3.891316606827406
 30
0.0
 10
79.35386304610812
 20
-3.92100894127887
 30
0.0
 10
79.35536402614622
 20
-3.950705845613199
 30
0.0
 10
79.35688739957416
 20
-3.980536754565914
 30
0.0
 10
79.35845747407329
 20
-4.010636389309955
 30
0.0
 10
79.36010091516395
 20
-4.041151452303763
 30
0.0
 10
79.36184352995184
 20
-4.07218598351999
 30
0.0
 10
79.36370544103735
 20
-4.103622435644636
 30
0.0
 10
79.36566227925839
 20
-4.134899661115739
 30
0.0
 10
79.36755199368885
 20
-4.164778779786494
 30
0.0
 10
79.36922756777825
 20
-4.191887743490919
 30
0.0
 10
79.37062834051804
 20
-4.215682512349253
 30
0.0
 10
79.37179249271678
 20
-4.236807331071355
 30
0.0
 10
79.3728007279453
 20
-4.256685430557686
 30
0.0
 10
79.37369856635744
 20
-4.276390825819586
 30
0.0
 10
79.37448697297099
 20
-4.296367553599185
 30
0.0
 10
79.37513428170132
 20
-4.316435588763222
 30
0.0
 10
79.37546445344179
 20
-4.329804948426008
 30
0.0
 10
79.37560475064157
 20
-4.336433775448369
 30
0.0
 11
79.3461466866416
 21
-3.771836767548336
 31
0.0
 11
79.34771955054164
 21
-3.801732777648396
 31
0.0
 11
79.34928568794163
 21
-3.831682653848361
 31
0.0
 11
79.35083525044167
 21
-3.861584730448328
 31
0.0
 11
79.35235973794156
 21
-3.89135804784837
 31
0.0
 11
79.35386193954157
 21
-3.921008464048383
 31
0.0
 11
79.35536331454153
 21
-3.950660494848364
 31
0.0
 11
79.35688725574159
 21
-3.980447513248405
 31
0.0
 11
79.35845777774154
 21
-4.010499844648336
 31
0.0
 11
79.36010102294159
 21
-4.040957873148328
 31
0.0
 11
79.36184733884156
 21
-4.071990911348335
 31
0.0
 11
79.36372073544164
 21
-4.103601131948378
 31
0.0
 11
79.36568789824156
 21
-4.13526669464835
 31
0.0
 11
79.36760970454163
 21
-4.165829093348349
 31
0.0
 11
79.36929590664163
 21
-4.193244378448412
 31
0.0
 11
79.37066558734153
 21
-4.216596400248363
 31
0.0
 11
79.37179835374158
 21
-4.237213804048336
 31
0.0
 11
79.37277974784169
 21
-4.256618781648342
 31
0.0
 11
79.37367059214153
 21
-4.276231009248363
 31
0.0
 11
79.37446041634162
 21
-4.296330469148356
 31
0.0
 11
79.37511124374151
 21
-4.316548941048381
 31
0.0
 11
79.37560475064157
 21
-4.336433775448369
 31
0.0
  0
SPLINE
  5
56AB3
330
1F
100
AcDbEntity
  8
1
100
AcDbSpline
210
0.0
220
0.0
230
1.0
 70
     8
 71
     3
 72
    23
 73
    19
 74
    17
 42
0.0000000001
 43
0.0000000001
 44
0.000001
 12
0.0525440123993884
 22
-0.9986186092602988
 32
0.0
 13
0.0554307741088542
 23
-0.9984625327380559
 33
0.0
 40
0.0
 40
0.0
 40
0.0
 40
0.0
 40
0.0246851570746613
 40
0.0494059612211913
 40
0.07403659755491
 40
0.0985778882624396
 40
0.1234211315448887
 40
0.1493226844094366
 40
0.17703889151744
 40
0.20732247125108
 40
0.2409122673267909
 40
0.2783404354004032
 40
0.3194955786831346
 40
0.3643938447717301
 40
0.4133221225955055
 40
0.4668897671191849
 40
0.5259490750595587
 40
0.5914657032600516
 40
0.5914657032600516
 40
0.5914657032600516
 40
0.5914657032600516
 10
79.31438944244161
 20
-3.181224467248341
 30
0.0
 10
79.31482179484142
 20
-3.189441486324098
 30
0.0
 10
79.31568709572729
 20
-3.205887391942898
 30
0.0
 10
79.31698755580774
 20
-3.230531969984641
 30
0.0
 10
79.31828733091339
 20
-3.255128561857433
 30
0.0
 10
79.31959047102155
 20
-3.279765845881608
 30
0.0
 10
79.32091744245411
 20
-3.304826100383962
 30
0.0
 10
79.32230194208354
 20
-3.33094309673871
 30
0.0
 10
79.32378431201818
 20
-3.358870896565154
 30
0.0
 10
79.32540474358913
 20
-3.389357723480636
 30
0.0
 10
79.32720013594309
 20
-3.42307714071962
 30
0.0
 10
79.32919089845182
 20
-3.46041514333007
 30
0.0
 10
79.3313915940704
 20
-3.501516795802279
 30
0.0
 10
79.33380153565391
 20
-3.546446105553425
 30
0.0
 10
79.33645020986549
 20
-3.595506055504761
 30
0.0
 10
79.33937499823461
 20
-3.649278318686186
 30
0.0
 10
79.34264417243667
 20
-3.708569456137847
 30
0.0
 10
79.34493614083556
 20
-3.750031468038495
 30
0.0
 10
79.3461466866416
 20
-3.771836767548336
 30
0.0
 11
79.31438944244161
 21
-3.181224467248341
 31
0.0
 11
79.31568775204171
 21
-3.205875457548359
 31
0.0
 11
79.31699044684167
 21
-3.230561913748372
 31
0.0
 11
79.3182901029416
 21
-3.255158237248393
 31
0.0
 11
79.31958638894167
 21
-3.279665268448411
 31
0.0
 11
79.32090003054153
 21
-3.304473756248341
 31
0.0
 11
79.32227119884153
 21
-3.330338990048345
 31
0.0
 11
79.32374027194153
 21
-3.358016235848365
 31
0.0
 11
79.32534769154161
 21
-3.388257124748347
 31
0.0
 11
79.32713348694147
 21
-3.421799415048383
 31
0.0
 11
79.32912708664156
 21
-3.459174444148345
 31
0.0
 11
79.3313245105415
 21
-3.500270884348366
 31
0.0
 11
79.33373108154167
 21
-3.545104613648391
 31
0.0
 11
79.33636897044158
 21
-3.593961732448348
 31
0.0
 11
79.3392808818415
 21
-3.647450174148331
 31
0.0
 11
79.3425259842416
 21
-3.706420261148366
 31
0.0
 11
79.3461466866416
 21
-3.771836767548336
 31
0.0
  0
SPLINE
  5
56AB4
330
1F
100
AcDbEntity
  8
1
100
AcDbSpline
210
0.0
220
0.0
230
1.0
 70
     8
 71
     3
 72
    18
 73
    14
 74
    12
 42
0.0000000001
 43
0.0000000001
 44
0.000001
 12
0.0520258743026642
 22
-0.9986457371876394
 32
0.0
 13
0.055112726420693
 23
-0.9984801387040596
 33
0.0
 40
0.0
 40
0.0
 40
0.0
 40
0.0
 40
0.039170186445313
 40
0.0741457834716125
 40
0.1052604009293396
 40
0.1327294100852003
 40
0.1569084716641249
 40
0.1787328160508734
 40
0.1992569124783274
 40
0.2195100276676174
 40
0.2398659881152389
 40
0.2602715720591962
 40
0.2806038827903779
 40
0.2806038827903779
 40
0.2806038827903779
 40
0.2806038827903779
 10
79.29931775174153
 20
-2.90102576044836
 30
0.0
 10
79.29999703947366
 20
-2.914064807021179
 30
0.0
 10
79.30129009610912
 20
-2.938746220912708
 30
0.0
 10
79.30313843119316
 20
-2.973784304017032
 30
0.0
 10
79.3047949783726
 20
-3.004926685897809
 30
0.0
 10
79.30627103802983
 20
-3.032474733007551
 30
0.0
 10
79.30759010190922
 20
-3.056929990569529
 30
0.0
 10
79.30879069125777
 20
-3.079073301409635
 30
0.0
 10
79.30992534847101
 20
-3.099909615459334
 30
0.0
 10
79.31103742923702
 20
-3.120256972007207
 30
0.0
 10
79.31215134870903
 20
-3.140564664475196
 30
0.0
 10
79.31326864255637
 20
-3.160898609928683
 30
0.0
 10
79.31401591941534
 20
-3.174457331101993
 30
0.0
 10
79.31438944244161
 20
-3.181224467248341
 30
0.0
 11
79.29931775174153
 21
-2.90102576044836
 31
0.0
 11
79.30136473724164
 21
-2.940142426548391
 31
0.0
 11
79.30320793664154
 21
-2.975069421748401
 31
0.0
 11
79.30486065994165
 21
-3.006140114248353
 31
0.0
 11
79.30633044414168
 21
-3.033569773548379
 31
0.0
 11
79.30763256414168
 21
-3.057713748248373
 31
0.0
 11
79.30881404124154
 21
-3.079506089348341
 31
0.0
 11
79.30992994394165
 21
-3.099999827548401
 31
0.0
 11
79.31103522124164
 21
-3.120222761248383
 31
0.0
 11
79.31214976524161
 21
-3.140548186948365
 31
0.0
 11
79.31327024324156
 21
-3.160922983848363
 31
0.0
 11
79.31438944244161
 21
-3.181224467248341
 31
0.0
  0
ARC
  5
56AB5
330
1F
100
AcDbEntity
  8
1
100
AcDbCircle
 10
78.32242039814159
 20
-4.788482773148358
 30
0.0
 40
1.083908
100
AcDbArc
 50
297.302286999997
 51
301.1543189999997
  0
ARC
  5
56AB6
330
1F
100
AcDbEntity
  8
1
100
AcDbCircle
 10
78.34028039814161
 20
-4.817412773148362
 30
0.0
 40
1.044024999999997
100
AcDbArc
 50
277.8244090000053
 51
281.1163669999992
  0
ARC
  5
56AB7
330
1F
100
AcDbEntity
  8
1
100
AcDbCircle
 10
78.35007439814154
 20
-4.823784773148361
 30
0.0
 40
1.033831999999996
100
AcDbArc
 50
314.0990440000006
 51
319.3313580000011
  0
ARC
  5
56AB8
330
1F
100
AcDbEntity
  8
1
100
AcDbCircle
 10
78.34270439814154
 20
-4.833796773148376
 30
0.0
 40
1.027463
100
AcDbArc
 50
275.9966269999976
 51
277.8148650000025
  0
ARC
  5
56AB9
330
1F
100
AcDbEntity
  8
1
100
AcDbCircle
 10
78.39476939814161
 20
-4.850059773148358
 30
0.0
 40
0.9816489999999999
100
AcDbArc
 50
345.96448
 51
354.9960699999993
  0
ARC
  5
56ABA
330
1F
100
AcDbEntity
  8
1
100
AcDbCircle
 10
78.40384139814166
 20
-4.852752773148381
 30
0.0
 40
0.9723779999999999
100
AcDbArc
 50
355.1075239999994
 51
355.9521479999999
  0
ARC
  5
56ABB
330
1F
100
AcDbEntity
  8
1
100
AcDbCircle
 10
72.3862193981416
 20
8.385000226851616
 30
0.0
 40
3.0
100
AcDbArc
 50
270.0
 51
300.8199460000006
  0
ARC
  5
56ABC
330
1F
100
AcDbEntity
  8
1
100
AcDbCircle
 10
72.3862193981416
 20
-8.384999773148365
 30
0.0
 40
3.0
100
AcDbArc
 50
59.18005399999934
 51
90.0
  0
LINE
  5
56ABD
330
1F
100
AcDbEntity
  8
1
100
AcDbLine
 10
69.38621939814161
 20
-5.229999773148391
 30
0.0
 11
69.54121939814156
 21
-5.384999773148365
 31
0.0
  0
LINE
  5
56ABE
330
1F
100
AcDbEntity
  8
1
100
AcDbLine
 10
69.54121939814156
 20
-5.384999773148365
 30
0.0
 11
72.3862193981416
 21
-5.384999773148365
 31
0.0
  0
LINE
  5
56ABF
330
1F
100
AcDbEntity
  8
1
100
AcDbLine
 10
72.3862193981416
 20
5.385000226851614
 30
0.0
 11
69.54121939814156
 21
5.385000226851614
 31
0.0
  0
LINE
  5
56AC0
330
1F
100
AcDbEntity
  8
1
100
AcDbLine
 10
70.25054639814158
 20
-5.384999773148365
 30
0.0
 11
70.25054639814158
 21
-5.17053817484836
 31
0.0
  0
LINE
  5
56AC1
330
1F
100
AcDbEntity
  8
1
100
AcDbLine
 10
70.25054639814158
 20
4.860104767209999
 30
0.0
 11
70.25054639814158
 21
5.385000226851614
 31
0.0
  0
LINE
  5
56AC2
330
1F
100
AcDbEntity
  8
1
100
AcDbLine
 10
69.38621939814161
 20
5.230000226851643
 30
0.0
 11
69.38621939814161
 21
5.073070243606541
 31
0.0
  0
LINE
  5
56AC3
330
1F
100
AcDbEntity
  8
1
100
AcDbLine
 10
69.38621939814161
 20
-5.17053817484836
 30
0.0
 11
69.38621939814161
 21
-5.229999773148391
 31
0.0
  0
LINE
  5
56AC4
330
1F
100
AcDbEntity
  8
1
100
AcDbLine
 10
69.38621939814161
 20
5.230000226851643
 30
0.0
 11
69.54121939814156
 21
5.385000226851614
 31
0.0
  0
LINE
  5
56AC5
330
1F
100
AcDbEntity
  8
1
100
AcDbLine
 10
79.15727339814162
 20
0.2812202268516444
 30
0.0
 11
79.16094539814169
 21
0.3486852268516145
 31
0.0
  0
LINE
  5
56AC6
330
1F
100
AcDbEntity
  8
1
100
AcDbLine
 10
79.14193939781542
 20
0.2520556350954735
 30
0.0
 11
79.15727339814162
 21
0.2812202268516444
 31
0.0
  0
LINE
  5
56AC7
330
1F
100
AcDbEntity
  8
1
100
AcDbLine
 10
79.16094539814169
 20
0.3486852268516145
 30
0.0
 11
79.23990839814161
 21
1.806293226851664
 31
0.0
  0
ARC
  5
56AC8
330
1F
100
AcDbEntity
  8
1
100
AcDbCircle
 10
78.37619151016186
 20
4.860028450988949
 30
0.0
 40
1.0
100
AcDbArc
 50
0.0473941754294751
 51
87.90478108107121
  0
LINE
  5
56AC9
330
1F
100
AcDbEntity
  8
1
100
AcDbLine
 10
78.32122939814161
 20
5.86270822685162
 30
0.0
 11
78.11030539814152
 21
5.870240226851646
 31
0.0
  0
LINE
  5
56ACA
330
1F
100
AcDbEntity
  8
1
100
AcDbLine
 10
78.4127518291769
 20
5.859359899044846
 30
0.0
 11
78.32122939814161
 21
5.86270822685162
 31
0.0
  0
LINE
  5
56ACB
330
1F
100
AcDbEntity
  8
1
100
AcDbLine
 10
75.63703939814157
 20
5.867873226851599
 30
0.0
 11
75.12508739814162
 21
5.851878226851622
 31
0.0
  0
LINE
  5
56ACC
330
1F
100
AcDbEntity
  8
1
100
AcDbLine
 10
75.12508739814162
 20
5.851878226851622
 30
0.0
 11
74.61298239814159
 21
5.834456226851612
 31
0.0
  0
LINE
  5
56ACD
330
1F
100
AcDbEntity
  8
1
100
AcDbLine
 10
74.61298239814159
 20
5.834456226851612
 30
0.0
 11
74.1007253981416
 21
5.815619226851652
 31
0.0
  0
LINE
  5
56ACE
330
1F
100
AcDbEntity
  8
1
100
AcDbLine
 10
74.1007253981416
 20
5.815619226851652
 30
0.0
 11
73.92324539814154
 21
5.808655226851612
 31
0.0
  0
LINE
  5
56ACF
330
1F
100
AcDbEntity
  8
1
100
AcDbLine
 10
79.14183839814161
 20
0.0688122268516054
 30
0.0
 11
79.14183839814161
 21
-0.0688117731483544
 31
0.0
  0
LINE
  5
56AD0
330
1F
100
AcDbEntity
  8
1
100
AcDbLine
 10
79.14183839814161
 20
-0.0688117731483544
 30
0.0
 11
79.14194139580598
 21
-0.2520601649173955
 31
0.0
  0
LINE
  5
56AD1
330
1F
100
AcDbEntity
  8
1
100
AcDbLine
 10
79.1419393981417
 20
0.2520562268516073
 30
0.0
 11
79.14183839814161
 21
0.0688122268516054
 31
0.0
  0
LINE
  5
56AD2
330
1F
100
AcDbEntity
  8
1
100
AcDbLine
 10
79.15727339814162
 20
-0.2812197731483934
 30
0.0
 11
79.16094539814169
 21
-0.3486847731483635
 31
0.0
  0
LINE
  5
56AD3
330
1F
100
AcDbEntity
  8
1
100
AcDbLine
 10
79.16094539814169
 20
-0.3486847731483635
 30
0.0
 11
79.23990839814161
 21
-1.806292773148413
 31
0.0
  0
LINE
  5
56AD4
330
1F
100
AcDbEntity
  8
1
100
AcDbLine
 10
74.1007253981416
 20
-5.815618773148401
 30
0.0
 11
73.92324539814154
 21
-5.808654773148361
 31
0.0
  0
LINE
  5
56AD5
330
1F
100
AcDbEntity
  8
1
100
AcDbLine
 10
74.61298239814159
 20
-5.834455773148362
 30
0.0
 11
74.1007253981416
 21
-5.815618773148401
 31
0.0
  0
LINE
  5
56AD6
330
1F
100
AcDbEntity
  8
1
100
AcDbLine
 10
75.12508739814162
 20
-5.851877773148371
 30
0.0
 11
74.61298239814159
 21
-5.834455773148362
 31
0.0
  0
LINE
  5
56AD7
330
1F
100
AcDbEntity
  8
1
100
AcDbLine
 10
75.63703939814157
 20
-5.867872773148347
 30
0.0
 11
75.12508739814162
 21
-5.851877773148371
 31
0.0
  0
LINE
  5
56AD8
330
1F
100
AcDbEntity
  8
1
100
AcDbLine
 10
78.45004339814164
 20
-5.85563777314837
 30
0.0
 11
78.4041873981417
 21
-5.859672773148361
 31
0.0
  0
LINE
  5
56AD9
330
1F
100
AcDbEntity
  8
1
100
AcDbLine
 10
78.4041873981417
 20
-5.859672773148361
 30
0.0
 11
78.32122939814161
 21
-5.862707773148372
 31
0.0
  0
LINE
  5
56ADA
330
1F
100
AcDbEntity
  8
1
100
AcDbLine
 10
78.32122939814161
 20
-5.862707773148372
 30
0.0
 11
78.11030539814152
 21
-5.870239773148397
 31
0.0
  0
LINE
  5
56ADB
330
1F
100
AcDbEntity
  8
1
100
AcDbLine
 10
79.37626339814149
 20
-4.773534773148355
 30
0.0
 11
79.37623839814168
 21
-4.803757773148388
 31
0.0
  0
LINE
  5
56ADC
330
1F
100
AcDbEntity
  8
1
100
AcDbLine
 10
79.37623839814168
 20
-4.803757773148388
 30
0.0
 11
79.37621339814161
 21
-4.875821773148402
 31
0.0
  0
LINE
  5
56ADD
330
1F
100
AcDbEntity
  8
1
100
AcDbLine
 10
79.37621339814161
 20
-4.875821773148402
 30
0.0
 11
79.3737933981416
 21
-4.921392773148396
 31
0.0
  0
LINE
  5
56ADE
330
1F
100
AcDbEntity
  8
1
100
AcDbLine
 10
79.37626333284161
 20
4.773535142951629
 30
0.0
 11
79.37619116866375
 21
4.860854886684933
 31
0.0
  0
DIMENSION
  5
56ADF
330
1F
100
AcDbEntity
  8
2
100
AcDbDimension
  2
*D7
 10
78.37619151016184
 20
4.860028450989005
 30
0.0
 11
91.58505377639407
 21
26.67078457340953
 31
0.0
 70
    36
 71
     5
 42
0.9999999999999644
  3
\M+18352\M+18373\M+1815B - ISO-25
100
AcDbRadialDimension
 15
79.02349632885918
 25
5.622259696537987
 35
0.0
 40
0.0
1001
ACAD
1000
DSTYLE
1002
{
1070
     4
1000
"
1070
    40
1040
1.0
1070
   143
1040
0.03937
1070
   170
1070
     1
1070
   171
1070
     3
1070
   271
1070
     8
1070
   285
1070
     4
1002
}
  0
LINE
  5
56AE0
330
1F
100
AcDbEntity
  8
1
100
AcDbLine
 10
79.14193939781542
 20
-0.2520563649045471
 30
0.0
 11
79.15727339781534
 21
-0.2812203649045273
 31
0.0
  0
LINE
  5
56AE1
330
1F
100
AcDbEntity
  8
cut
100
AcDbLine
 10
74.57500339814174
 20
5.863739756411347
 30
0.0
 11
77.17500339814169
 21
5.999999982511383
 31
0.0
1001
ACAD
1000
RTMaterial
1005
0
  0
LINE
  5
56AE2
330
1F
100
AcDbEntity
  8
cut
100
AcDbLine
 10
69.37500339814192
 20
5.38499998251143
 30
0.0
 11
72.94919686844179
 21
5.384999982511374
 31
0.0
1001
ACAD
1000
RTMaterial
1005
0
  0
LINE
  5
56AE3
330
1F
100
AcDbEntity
  8
cut
100
AcDbLine
 10
77.17500339814169
 20
5.999999982511383
 30
0.0
 11
78.37500339814171
 21
5.999999982511383
 31
0.0
1001
ACAD
1000
RTMaterial
1005
0
  0
LINE
  5
56AE4
330
1F
100
AcDbEntity
  8
cut
100
AcDbLine
 10
79.37500339814171
 20
4.49999998251013
 30
0.0
 11
79.37500339814171
 21
4.999999982511382
 31
0.0
1001
ACAD
1000
RTMaterial
1005
0
  0
LINE
  5
56AE5
330
1F
100
AcDbEntity
  8
cut
100
AcDbLine
 10
69.37500339814171
 20
-5.385000015288595
 30
0.0
 11
69.37500339814171
 21
5.384999982511374
 31
0.0
1001
ACAD
1000
RTMaterial
1005
0
  0
LINE
  5
56AE6
330
1F
100
AcDbEntity
  8
cut
100
AcDbLine
 10
79.13916839144175
 20
-0.0000000174886168
 30
0.0
 11
79.37500339814171
 21
4.499999982511382
 31
0.0
1001
ACAD
1000
RTMaterial
1005
0
  0
ARC
  5
56AE7
330
1F
100
AcDbEntity
  8
cut
100
AcDbCircle
 10
72.94919686844179
 20
8.384999982511374
 30
0.0
 40
3.0
100
AcDbArc
 50
270.0
 51
302.8154948393002
1001
ACAD
1000
RTMaterial
1005
0
  0
ARC
  5
56AE8
330
1F
100
AcDbEntity
  8
cut
100
AcDbCircle
 10
78.37500339814171
 20
4.999999982511382
 30
0.0
 40
1.0
100
AcDbArc
 50
0.0
 51
90.0
1001
ACAD
1000
RTMaterial
1005
0
  0
LINE
  5
56AE9
330
1F
100
AcDbEntity
  8
cut
100
AcDbLine
 10
74.57500339814174
 20
-5.863739789188628
 30
0.0
 11
77.17500339814169
 21
-6.000000015288605
 31
0.0
1001
ACAD
1000
RTMaterial
1005
0
  0
LINE
  5
56AEA
330
1F
100
AcDbEntity
  8
cut
100
AcDbLine
 10
69.37500339814171
 20
-5.385000015288595
 30
0.0
 11
72.94919686844179
 21
-5.385000015288653
 31
0.0
1001
ACAD
1000
RTMaterial
1005
0
  0
LINE
  5
56AEB
330
1F
100
AcDbEntity
  8
cut
100
AcDbLine
 10
77.17500339814169
 20
-6.000000015288605
 30
0.0
 11
78.37500339814171
 21
-6.000000015288605
 31
0.0
1001
ACAD
1000
RTMaterial
1005
0
  0
LINE
  5
56AEC
330
1F
100
AcDbEntity
  8
cut
100
AcDbLine
 10
79.37500339814171
 20
-4.500000015287412
 30
0.0
 11
79.37500339814171
 21
-5.000000015288605
 31
0.0
1001
ACAD
1000
RTMaterial
1005
0
  0
LINE
  5
56AED
330
1F
100
AcDbEntity
  8
cut
100
AcDbLine
 10
79.13916839144175
 20
-0.0000000152886059
 30
0.0
 11
79.37500339814171
 21
-4.500000015288605
 31
0.0
1001
ACAD
1000
RTMaterial
1005
0
  0
ARC
  5
56AEE
330
1F
100
AcDbEntity
  8
cut
100
AcDbCircle
 10
72.94919686844179
 20
-8.38500001528865
 30
0.0
 40
3.0
100
AcDbArc
 50
57.18450516069982
 51
90.0
1001
ACAD
1000
RTMaterial
1005
0
  0
ARC
  5
56AEF
330
1F
100
AcDbEntity
  8
cut
100
AcDbCircle
 10
78.37500339814171
 20
-5.000000015288605
 30
0.0
 40
1.0
100
AcDbArc
 50
270.0
 51
0.0
1001
ACAD
1000
RTMaterial
1005
0
  0
DIMENSION
  5
56DD2
330
1F
100
AcDbEntity
  8
sk2
100
AcDbDimension
  2
*D23
 10
79.37500079628347
 20
54.52343249969317
 30
0.0
 11
-4.762496203716466
 21
54.52343249969317
 31
0.0
 70
   160
 71
     5
 41
0.892857
 42
168.2749999999999
  3
\M+18352\M+18373\M+1815B - ISO-25
100
AcDbAlignedDimension
 13
-88.8999992037165
 23
5.349995999999975
 33
0.0
 14
79.37500079628347
 24
-0.0000155000000461
 34
0.0
 50
180.0
100
AcDbRotatedDimension
1001
ACAD
1000
DSTYLE
1002
{
1070
     4
1000
"
1070
    40
1040
1.0
1070
   143
1040
0.03937
1070
   170
1070
     1
1070
   171
1070
     3
1070
   271
1070
     8
1070
   285
1070
     4
1002
}
  0
LINE
  5
56DD3
330
1F
100
AcDbEntity
  8
sk1
100
AcDbLine
 10
-88.90000920371656
 20
0.0000000000000213
 30
0.0
 11
-88.90000920371656
 21
-5.35000700000004
 31
0.0
  0
LINE
  5
56DD4
330
1F
100
AcDbEntity
  8
sk4
100
AcDbLine
 10
-95.35812320371647
 20
0.0000000000000213
 30
0.0
 11
0.0000007962835298
 21
0.0000000000000071
 31
0.0
  0
LINE
  5
56DD5
330
1F
100
AcDbEntity
  8
sk1
100
AcDbLine
 10
-87.90000920371657
 20
-6.349999499999974
 30
0.0
 11
-88.90001620371654
 21
-5.350022000000002
 31
0.0
  0
LINE
  5
56DD6
330
1F
100
AcDbEntity
  8
sk1
100
AcDbLine
 10
-87.90000920371657
 20
0.0000000000000213
 30
0.0
 11
-87.90000920371657
 21
-6.349999499999974
 31
0.0
  0
LINE
  5
56DD7
330
1F
100
AcDbEntity
  8
sk1
100
AcDbLine
 10
-88.8999992037165
 20
0.0000209999999967
 30
0.0
 11
-88.8999992037165
 21
5.349995999999968
 31
0.0
  0
LINE
  5
56DD8
330
1F
100
AcDbEntity
  8
sk1
100
AcDbLine
 10
-87.90000920371657
 20
0.0000000000000213
 30
0.0
 11
-87.89999470371643
 21
6.350000500000007
 31
0.0
  0
LINE
  5
56DD9
330
1F
100
AcDbEntity
  8
sk1
100
AcDbLine
 10
-87.89999470371643
 20
6.350000500000007
 30
0.0
 11
-88.8999992037165
 21
5.349995999999975
 31
0.0
  0
DIMENSION
  5
56DDA
330
1F
100
AcDbEntity
  8
sk2
100
AcDbDimension
  2
*D24
 10
-115.6468645216429
 20
6.350000500000015
 30
0.0
 11
-115.6468645216429
 21
-36.91249949999999
 31
0.0
 70
   160
  1
%%c<>
 71
     5
 41
0.75
 42
12.69999999999998
  3
\M+18352\M+18373\M+1815B - ISO-25
100
AcDbAlignedDimension
 13
-87.70001220371657
 23
-6.349999499999974
 33
0.0
 14
-87.70001220371657
 24
6.350000500000007
 34
0.0
 50
270.0
100
AcDbRotatedDimension
1001
ACAD
1000
DSTYLE
1002
{
1070
     4
1000
%%c[]"
1070
    40
1040
1.0
1070
   143
1040
0.03937
1070
   170
1070
     1
1070
   171
1070
     3
1070
   271
1070
     8
1070
   285
1070
     4
1002
}
  0
LINE
  5
56DDB
330
1F
100
AcDbEntity
  8
sk1
100
AcDbLine
 10
-87.89999470371643
 20
6.350000500000007
 30
0.0
 11
0.0000007962835298
 21
6.350000499999993
 31
0.0
  0
LINE
  5
56DDC
330
1F
100
AcDbEntity
  8
sk1
100
AcDbLine
 10
-87.90000920371657
 20
-6.349999499999974
 30
0.0
 11
-0.0000047037356126
 21
-6.349999499999981
 31
0.0
  0
DIMENSION
  5
56DDD
330
1F
100
AcDbEntity
  8
2
100
AcDbDimension
  2
*D25
 10
0.0000003981417669
 20
39.91704526235697
 30
0.0
 11
39.68750039814177
 21
39.91704526235697
 31
0.0
 70
   160
 71
     5
 42
79.37499999999994
  3
\M+18352\M+18373\M+1815B - ISO-25
100
AcDbAlignedDimension
 13
79.37500039814171
 23
6.349999983611354
 33
0.0
 14
0.0000003981417649
 24
6.349974983611332
 34
0.0
 50
180.0
100
AcDbRotatedDimension
1001
ACAD
1000
DSTYLE
1002
{
1070
     4
1000
"
1070
    40
1040
1.0
1070
   143
1040
0.03937
1070
   170
1070
     1
1070
   171
1070
     3
1070
   271
1070
     8
1070
   285
1070
     4
1002
}
  0
VIEWPORT
  5
6B
102
{ACAD_XDICTIONARY
360
56ED4
102
}
330
50
100
AcDbEntity
 67
     1
  8
0
100
AcDbViewport
 10
150.1652135264906
 20
160.4455827878762
 30
0.0
 40
339.1973820494346
 41
282.2272140146125
 68
     1
 69
     1
 12
150.1652135264906
 22
160.4455827878762
 13
0.0
 23
0.0
 14
10.0
 24
10.0
 15
10.0
 25
10.0
 16
0.0
 26
0.0
 36
1.0
 17
0.0
 27
0.0
 37
0.0
 42
50.0
 43
0.0
 44
0.0
 45
282.2272140146125
 50
0.0
 51
0.0
 72
  1000
 90
    32864
  1

281
     0
 71
     1
 74
     0
110
0.0
120
0.0
130
0.0
111
1.0
121
0.0
131
0.0
112
0.0
122
1.0
132
0.0
 79
     0
146
0.0
  0
VIEWPORT
  5
6D
102
{ACAD_XDICTIONARY
360
56ED6
102
}
330
50
100
AcDbEntity
 67
     1
  8
0
100
AcDbViewport
 10
133.3499939441681
 20
101.5999939441681
 30
0.0
 40
213.3599903106689
 41
162.5599903106689
 68
     2
 69
     2
 12
210.0
 22
148.5
 13
0.0
 23
0.0
 14
10.0
 24
10.0
 15
10.0
 25
10.0
 16
0.0
 26
0.0
 36
1.0
 17
0.0
 27
0.0
 37
0.0
 42
50.0
 43
0.0
 44
0.0
 45
324.0677920111345
 50
0.0
 51
0.0
 72
   100
 90
    32864
  1

281
     0
 71
     1
 74
     0
110
0.0
120
0.0
130
0.0
111
1.0
121
0.0
131
0.0
112
0.0
122
1.0
132
0.0
 79
     0
146
0.0
  0
ENDSEC
  0
SECTION
  2
OBJECTS
  0
DICTIONARY
  5
C
330
0
100
AcDbDictionary
281
     1
  3
ACAD_COLOR
350
85
  3
ACAD_GROUP
350
D
  3
ACAD_LAYOUT
350
1A
  3
ACAD_MATERIAL
350
84
  3
ACAD_MLINESTYLE
350
17
  3
ACAD_PLOTSETTINGS
350
19
  3
ACAD_PLOTSTYLENAME
350
E
  3
ACAD_TABLESTYLE
350
A1
  3
ACDBHEADERROUNDTRIPXREC
350
56ECF
  3
AcDbVariableDictionary
350
5E
  3
ASE_INDEX_DICTIONARY
350
349E9
  3
DWGPROPS
350
56ECE
  0
DICTIONARY
  5
E2
330
2
100
AcDbDictionary
280
     1
281
     1
  3
ACAD_LAYERFILTERS
360
55CF7
  3
ACAD_LAYERSTATES
360
3759A
  3
ACLYDICTIONARY
360
55CF6
  0
DICTIONARY
  5
31EE
330
1F
100
AcDbDictionary
280
     1
281
     1
  3
ACAD_SORTENTS
360
31EF
  0
DICTIONARY
  5
3BEB2
330
680
100
AcDbDictionary
280
     1
281
     1
  3
ACAD_SORTENTS
360
56D81
  0
DICTIONARY
  5
56ED8
330
71
100
AcDbDictionary
280
     1
281
     1
  3
ACAD_XREC_ROUNDTRIP
360
56ED9
  0
DICTIONARY
  5
56EDA
330
73
100
AcDbDictionary
280
     1
281
     1
  3
ACAD_XREC_ROUNDTRIP
360
56EDB
  0
DICTIONARY
  5
569A3
330
569A2
100
AcDbDictionary
280
     1
281
     1
  3
ACAD_DIMASSOC
360
569A4
  0
DICTIONARY
  5
56ED4
330
6B
100
AcDbDictionary
280
     1
281
     1
  3
ACAD_XREC_ROUNDTRIP
360
56ED5
  0
DICTIONARY
  5
56ED6
330
6D
100
AcDbDictionary
280
     1
281
     1
  3
ACAD_XREC_ROUNDTRIP
360
56ED7
  0
DICTIONARY
  5
85
102
{ACAD_REACTORS
330
C
102
}
330
C
100
AcDbDictionary
281
     1
  0
DICTIONARY
  5
D
102
{ACAD_REACTORS
330
C
102
}
330
C
100
AcDbDictionary
281
     1
  0
DICTIONARY
  5
1A
102
{ACAD_REACTORS
330
C
102
}
330
C
100
AcDbDictionary
281
     1
  3
\M+1838C\M+18343\M+18341\M+18345\M+183671
350
51
  3
\M+1838C\M+18343\M+18341\M+18345\M+183672
350
56
  3
Model
350
22
  0
DICTIONARY
  5
84
102
{ACAD_REACTORS
330
C
102
}
330
C
100
AcDbDictionary
281
     1
  0
DICTIONARY
  5
17
102
{ACAD_REACTORS
330
C
102
}
330
C
100
AcDbDictionary
281
     1
  3
Standard
350
18
  0
DICTIONARY
  5
19
102
{ACAD_REACTORS
330
C
102
}
330
C
100
AcDbDictionary
281
     1
  0
ACDBDICTIONARYWDFLT
  5
E
102
{ACAD_REACTORS
330
C
102
}
330
C
100
AcDbDictionary
281
     1
  3
Normal
350
F
100
AcDbDictionaryWithDefault
340
F
  0
DICTIONARY
  5
A1
102
{ACAD_REACTORS
330
C
102
}
330
C
100
AcDbDictionary
281
     1
  3
Standard
350
A2
  0
DICTIONARY
  5
56ECF
102
{ACAD_REACTORS
330
C
102
}
330
C
100
AcDbDictionary
281
     1
  0
DICTIONARY
  5
5E
102
{ACAD_REACTORS
330
C
102
}
330
C
100
AcDbDictionary
281
     1
  3
CTABLESTYLE
350
B8
  3
DIMASSOC
350
5F
  3
HIDETEXT
350
63
  3
PROJECTNAME
350
31CE
  0
DICTIONARY
  5
349E9
102
{ACAD_REACTORS
330
C
102
}
330
C
100
AcDbDictionary
281
     1
  3
ASEBlockHierarchyIndexRecord
350
349EA
1001
DCO15
1040
1842496176.844
  0
XRECORD
  5
56ECE
102
{ACAD_REACTORS
330
C
102
}
330
C
100
AcDbXrecord
280
     1
  1
DWGPROPS COOKIE
  2

  3

  4

  6

  7

  8

  9

300
=
301
=
302
=
303
=
304
=
305
=
306
=
307
=
308
=
309
=
 40
2.783936539351851
 41
2455489.391063368
 42
2458573.050470914
  1

 90
        0
  0
DICTIONARY
  5
55CF7
102
{ACAD_REACTORS
330
E2
102
}
330
E2
100
AcDbDictionary
281
     1
  0
DICTIONARY
  5
3759A
102
{ACAD_REACTORS
330
E2
102
}
330
E2
100
AcDbDictionary
281
     1
  0
DICTIONARY
  5
55CF6
102
{ACAD_REACTORS
330
E2
102
}
330
E2
100
AcDbDictionary
281
     1
1001
ACAD
1000
<All
  0
SORTENTSTABLE
  5
31EF
102
{ACAD_REACTORS
330
31EE
102
}
330
31EE
100
AcDbSortentsTable
330
1F
331
53AD9
  5
53ADC
331
68C
  5
3C6B0
  0
SORTENTSTABLE
  5
56D81
102
{ACAD_REACTORS
330
3BEB2
102
}
330
3BEB2
100
AcDbSortentsTable
330
680
  0
XRECORD
  5
56ED9
102
{ACAD_REACTORS
330
56ED8
102
}
330
56ED8
100
AcDbXrecord
280
     1
102
SHADEPLOT
 70
     0
  0
XRECORD
  5
56EDB
102
{ACAD_REACTORS
330
56EDA
102
}
330
56EDA
100
AcDbXrecord
280
     1
102
SHADEPLOT
 70
     0
  0
DIMASSOC
  5
569A4
102
{ACAD_REACTORS
330
569A3
102
}
330
569A3
100
AcDbDimAssoc
330
569A2
 90
        3
 70
     0
 71
     0
  1
AcDbOsnapPointRef
 72
    13
331
5699F
 73
     2
 91
        0
 40
0.0
 10
0.0
 20
0.0
 30
2.000000000000000E+50
 75
     0
  1
AcDbOsnapPointRef
 72
     1
331
5699F
 73
     2
 91
        0
 40
1.0
 10
0.0
 20
0.0
 30
2.000000000000000E+50
 75
     0
  0
XRECORD
  5
56ED5
102
{ACAD_REACTORS
330
56ED4
102
}
330
56ED4
100
AcDbXrecord
280
     1
102
SHADEPLOT
 70
     0
  0
XRECORD
  5
56ED7
102
{ACAD_REACTORS
330
56ED6
102
}
330
56ED6
100
AcDbXrecord
280
     1
102
SHADEPLOT
 70
     0
  0
LAYOUT
  5
51
102
{ACAD_XDICTIONARY
360
B2
102
}
102
{ACAD_REACTORS
330
1A
102
}
330
1A
100
AcDbPlotSettings
  1

  2
none_device
  4
Letter_(8.50_x_11.00_Inches)
  6

 40
6.349999904632567
 41
6.349999904632567
 42
6.350006103515625
 43
6.350006103515625
 44
215.8999938964844
 45
279.3999938964844
 46
0.0
 47
0.0
 48
0.0
 49
0.0
140
0.0
141
0.0
142
1.0
143
1.0
 70
   688
 72
     1
 73
     1
 74
     5
  7

 75
    16
147
1.0
148
0.0
149
0.0
100
AcDbLayout
  1
\M+1838C\M+18343\M+18341\M+18345\M+183671
 70
     1
 71
     1
 10
-6.350006103515625
 20
-6.349999904632567
 11
273.0499877929688
 21
209.5499939918518
 12
0.0
 22
0.0
 32
0.0
 14
26.66999878883364
 24
20.31999878883365
 34
0.0
 15
240.0299890995025
 25
182.8799890995025
 35
0.0
146
0.0
 13
0.0
 23
0.0
 33
0.0
 16
1.0
 26
0.0
 36
0.0
 17
0.0
 27
1.0
 37
0.0
 76
     0
330
50
331
6B
  0
LAYOUT
  5
56
102
{ACAD_XDICTIONARY
360
B5
102
}
102
{ACAD_REACTORS
330
1A
102
}
330
1A
100
AcDbPlotSettings
  1

  2
none_device
  4
Letter_(8.50_x_11.00_Inches)
  6

 40
6.349999904632567
 41
6.349999904632567
 42
6.350006103515625
 43
6.350006103515625
 44
215.8999938964844
 45
279.3999938964844
 46
0.0
 47
0.0
 48
0.0
 49
0.0
140
0.0
141
0.0
142
1.0
143
1.0
 70
   688
 72
     1
 73
     1
 74
     5
  7

 75
    16
147
1.0
148
0.0
149
0.0
100
AcDbLayout
  1
\M+1838C\M+18343\M+18341\M+18345\M+183672
 70
     1
 71
     2
 10
-6.350006103515625
 20
-6.349999904632567
 11
273.0499877929688
 21
209.5499939918518
 12
0.0
 22
0.0
 32
0.0
 14
26.66999878883363
 24
20.31999878883363
 34
0.0
 15
240.0299890995026
 25
182.8799890995025
 35
0.0
146
0.0
 13
0.0
 23
0.0
 33
0.0
 16
1.0
 26
0.0
 36
0.0
 17
0.0
 27
1.0
 37
0.0
 76
     0
330
55
331
71
  0
LAYOUT
  5
22
102
{ACAD_XDICTIONARY
360
56ED0
102
}
102
{ACAD_REACTORS
330
1A
102
}
330
1A
100
AcDbPlotSettings
  1

  2
none_device
  4
ANSI_A_(8.50_x_11.00_Inches)
  6

 40
6.349999904632567
 41
19.04999923706055
 42
6.350006103515625
 43
19.04998779296875
 44
215.8999938964844
 45
279.3999938964844
 46
0.0
 47
0.0
 48
0.0
 49
0.0
140
0.0
141
0.0
142
1.0
143
78.436453180766
 70
 11952
 72
     0
 73
     1
 74
     0
  7

 75
     0
147
0.0127491741332998
148
0.0
149
0.0
100
AcDbLayout
  1
Model
 70
     1
 71
     0
 10
0.0
 20
0.0
 11
12.0
 21
9.0
 12
0.0
 22
0.0
 32
0.0
 14
0.0
 24
0.0
 34
0.0
 15
0.0
 25
0.0
 35
0.0
146
0.0
 13
0.0
 23
0.0
 33
0.0
 16
1.0
 26
0.0
 36
0.0
 17
0.0
 27
1.0
 37
0.0
 76
     0
330
1F
  0
MLINESTYLE
  5
18
102
{ACAD_REACTORS
330
17
102
}
330
17
100
AcDbMlineStyle
  2
STANDARD
 70
     0
  3

 62
   256
 51
90.0
 52
90.0
 71
     2
 49
0.5
 62
   256
  6
BYLAYER
 49
-0.5
 62
   256
  6
BYLAYER
  0
ACDBPLACEHOLDER
  5
F
102
{ACAD_REACTORS
330
E
102
}
330
E
  0
TABLESTYLE
  5
A2
102
{ACAD_REACTORS
330
A1
102
}
330
A1
100
AcDbTableStyle
  3
Standard
 70
     0
 71
     0
 40
1.5
 41
1.5
280
     0
281
     0
  7
Standard
140
4.5
170
     2
 62
     0
 63
     7
283
     0
274
    -2
284
     1
 64
     0
275
    -2
285
     1
 65
     0
276
    -2
286
     1
 66
     0
277
    -2
287
     1
 67
     0
278
    -2
288
     1
 68
     0
279
    -2
289
     1
 69
     0
  7
Standard
140
6.0
170
     5
 62
     0
 63
     7
283
     0
274
    -2
284
     1
 64
     0
275
    -2
285
     1
 65
     0
276
    -2
286
     1
 66
     0
277
    -2
287
     1
 67
     0
278
    -2
288
     1
 68
     0
279
    -2
289
     1
 69
     0
  7
Standard
140
4.5
170
     5
 62
     0
 63
     7
283
     0
274
    -2
284
     1
 64
     0
275
    -2
285
     1
 65
     0
276
    -2
286
     1
 66
     0
277
    -2
287
     1
 67
     0
278
    -2
288
     1
 68
     0
279
    -2
289
     1
 69
     0
  0
DICTIONARYVAR
  5
B8
102
{ACAD_REACTORS
330
5E
102
}
330
5E
100
DictionaryVariables
280
     0
  1
STANDARD
  0
DICTIONARYVAR
  5
5F
102
{ACAD_REACTORS
330
5E
102
}
330
5E
100
DictionaryVariables
280
     0
  1
2
  0
DICTIONARYVAR
  5
63
102
{ACAD_REACTORS
330
5E
102
}
330
5E
100
DictionaryVariables
280
     0
  1
1
  0
DICTIONARYVAR
  5
31CE
102
{ACAD_REACTORS
330
5E
102
}
330
5E
100
DictionaryVariables
280
     0
  1

  0
XRECORD
  5
349EA
102
{ACAD_REACTORS
330
349E9
102
}
330
349E9
100
AcDbXrecord
280
     1
330
68C
330
0
330
0
330
0
330
0
330
0
330
0
330
0
330
0
330
0
330
0
330
0
330
0
330
0
330
0
330
0
330
0
330
0
330
0
330
0
330
0
330
0
330
0
330
0
330
0
330
0
330
0
330
0
330
0
330
0
330
0
330
0
330
0
330
0
330
0
330
0
330
0
330
0
330
0
330
0
330
0
330
0
330
0
330
0
330
0
330
0
330
0
330
0
330
0
330
0
330
0
330
0
330
0
330
0
330
0
330
0
330
0
330
0
330
0
330
0
330
0
330
0
330
0
330
0
330
0
330
0
330
0
330
0
330
0
330
0
330
0
330
0
330
0
330
0
330
0
330
0
330
0
330
0
330
0
330
0
330
0
330
0
330
0
330
0
330
0
330
0
330
0
330
0
330
0
330
0
330
0
330
0
330
0
330
0
330
0
330
0
330
0
330
0
330
0
330
0
330
0
330
0
330
0
330
0
330
0
330
0
330
0
330
0
330
0
330
0
  0
DICTIONARY
  5
B2
330
51
100
AcDbDictionary
280
     1
281
     1
  3
ACAD_XREC_ROUNDTRIP
360
56ED2
  3
ADSK_XREC_LAYOUTTHUMBNAIL
360
B3
  0
DICTIONARY
  5
B5
330
56
100
AcDbDictionary
280
     1
281
     1
  3
ACAD_XREC_ROUNDTRIP
360
56ED3
  3
ADSK_XREC_LAYOUTTHUMBNAIL
360
B6
  0
DICTIONARY
  5
56ED0
330
22
100
AcDbDictionary
280
     1
281
     1
  3
ACAD_XREC_ROUNDTRIP
360
56ED1
  0
XRECORD
  5
56ED2
102
{ACAD_REACTORS
330
B2
102
}
330
B2
100
AcDbXrecord
280
     1
102
SHADEPLOT
 70
     0
102
SHADEPLOTRESLEVEL
 70
     2
102
SHADEPLOTCUSTOMDPI
 70
   300
  0
XRECORD
  5
B3
102
{ACAD_REACTORS
330
B2
102
}
330
B2
100
AcDbXrecord
280
     1
310
28000000B40000008B0000000100080000000000BC61000000000000000000000001000000000000FFFFFF0000000000FFFFFF000000000000000000000000000000000000000000000000000000000000000000330000006600000099000000CC000000FF00000000330000333300006633000099330000CC330000FF3300
310
0000660000336600006666000099660000CC660000FF66000000990000339900006699000099990000CC990000FF99000000CC000033CC000066CC000099CC0000CCCC0000FFCC000000FF000033FF000066FF000099FF0000CCFF0000FFFF000000003300330033006600330099003300CC003300FF003300003333003333
310
33006633330099333300CC333300FF33330000663300336633006666330099663300CC663300FF66330000993300339933006699330099993300CC993300FF99330000CC330033CC330066CC330099CC3300CCCC3300FFCC330000FF330033FF330066FF330099FF3300CCFF3300FFFF330000006600330066006600660099
310
006600CC006600FF00660000336600333366006633660099336600CC336600FF33660000666600336666006666660099666600CC666600FF66660000996600339966006699660099996600CC996600FF99660000CC660033CC660066CC660099CC6600CCCC6600FFCC660000FF660033FF660066FF660099FF6600CCFF6600
310
FFFF660000009900330099006600990099009900CC009900FF00990000339900333399006633990099339900CC339900FF33990000669900336699006666990099669900CC669900FF66990000999900339999006699990099999900CC999900FF99990000CC990033CC990066CC990099CC9900CCCC9900FFCC990000FF99
310
0033FF990066FF990099FF9900CCFF9900FFFF99000000CC003300CC006600CC009900CC00CC00CC00FF00CC000033CC003333CC006633CC009933CC00CC33CC00FF33CC000066CC003366CC006666CC009966CC00CC66CC00FF66CC000099CC003399CC006699CC009999CC00CC99CC00FF99CC0000CCCC0033CCCC0066CC
310
CC0099CCCC00CCCCCC00FFCCCC0000FFCC0033FFCC0066FFCC0099FFCC00CCFFCC00FFFFCC000000FF003300FF006600FF009900FF00CC00FF00FF00FF000033FF003333FF006633FF009933FF00CC33FF00FF33FF000066FF003366FF006666FF009966FF00CC66FF00FF66FF000099FF003399FF006699FF009999FF00CC
310
99FF00FF99FF0000CCFF0033CCFF0066CCFF0099CCFF00CCCCFF00FFCCFF0000FFFF0033FFFF0066FFFF0099FFFF00CCFFFF00FFFFFF00000000000D0D0D001A1A1A00282828003535350043434300505050005D5D5D006B6B6B00787878008686860093939300A1A1A100AEAEAE00BBBBBB00C9C9C900D6D6D600E4E4E400
310
F1F1F100FFFFFF0000000000000000000000000000000000000000000000000000000000000000000000000000000000E2E2E2E2E2E2E2E2E2E2E2E2E2E2E2E2E2E2E2E2E2E2E2E2E2E2E2E2E2E2E2E2E2E2E2E2E2E2E2E2E2E2E2E2E2E2E2E2E2E2E2E2E2E2E2E2E2E2E2E2E2E2E2E2E2E2E2E2E2E2E2E2E2E2E2E2E2E2E2
310
E2E2E2E2E2E2E2E2E2E2E2E2E2E2E2E2E2E2E2E2E2E2E2E2E2E2E2E2E2E2E2E2E2E2E2E2E2E2E2E2E2E2E2E2E2E2E2E2E2E2E2E2E2E2E2E2E2E2E2E2E2E2E2E2E2E2E2E2E2E2E2E2E2E2E2E2E2E2E2E2E2E2E2E2E2E2E2E2E2E2E2E2E2E2E2E2E2E2E2E2E2E2F5F5F5F5F5F5F5F5F5F5F5F5F5F5F5F5F5F5F5F5F5F5F5F5F5
310
F5F5F5F5F5F5F5F5F5F5F5F5F5F5F5F5F5F5F5F5F5F5F5F5F5F5F5F5F5F5F5F5F5F5F5F5F5F5F5F5F5F5F5F5F5F5F5F5F5F5F5F5F5F5F5F5F5F5F5F5F5F5F5F5F5F5F5F5F5F5F5F5F5F5F5F5F5F5F5F5F5F5F5F5F5F5F5F5F5F5F5F5F5F5F5F5F5F5F5F5F5F5F5F5F5F5F5F5F5F5F5F5F5F5F5F5F5F5F5F5F5F5F5F5F5F5F5
310
F5F5F5F5F5F5F5F5F5F5F5F5F5F5F5F5F5F5F5F5F5F5F5F5F5F5E2E2F5F5F5F5F5F5F5F5F5F5F5F5F5F5F5F5F5F5F5F5F5F5F5F5F5F5F5F5F5F5F5F5F5F5F5F5F5F5F5F5F5F5F5F5F5F5F5F5F5F5F5F5F5F5F5F5F5F5F5F5F5F5F5F5F5F5F5F5F5F5F5F5F5F5F5F5F5F5F5F5F5F5F5F5F5F5F5F5F5F5F5F5F5F5F5F5F5F5F5
310
F5F5F5F5F5F5F5F5F5F5F5F5F5F5F5F5F5F5F5F5F5F5F5F5F5F5F5F5F5F5F5F5F5F5F5F5F5F5F5F5F5F5F5F5F5F5F5F5F5F5F5F5F5F5F5F5F5F5F5F5F5F5F5F5F5F5F5F5F5F5F5F5F5F5F5F5F5F5F5E2E2F5F5F5F5F5F5F5F5F5F5F5F5F5F5F5F5F5F5F5F5F5F5F5F5F5F5F5F5F5F5F5F5F5F5F5F5F5F5F5F5F5F5F5F5F5F5
310
F5F5F5F5F5F5F5F5F5F5F5F5F5F5F5F5F5F5F5F5F5F5F5F5F5F5F5F5F5F5F5F5F5F5F5F5F5F5F5F5F5F5F5F5F5F5F5F5F5F5F5F5F5F5F5F5F5F5F5F5F5F5F5F5F5F5F5F5F5F5F5F5F5F5F5F5F5F5F5F5F5F5F5F5F5F5F5F5F5F5F5F5F5F5F5F5F5F5F5F5F5F5F5F5F5F5F5F5F5F5F5F5F5F5F5F5F5F5F5F5F5F5F5F5F5F5F5
310
F5F5F5F5F5E2E2F5F5F5F5E2E2E2E2E2E2E2E2F5F5F5F5F5F5F5F5F5E2E2E2E2E2E2E2E2E2E2E2E2E2E2E2F5F5F5F5F5F5F5F5F5E2E2E2E2E2E2E2E2E2E2E2E2E2E2E2E2F5F5F5F5F5F5F5F5E2E2E2E2E2E2E2E2E2E2E2E2E2E2E2E2F5F5F5F5F5F5F5F5E2E2E2E2E2E2E2E2E2E2E2E2E2E2E2E2F5F5F5F5F5F5F5F5E2E2E2
310
E2E2E2E2E2E2E2E2E2E2E2E2E2F5F5F5F5F5F5F5F5F5E2E2E2E2E2E2E2E2E2E2E2E2E2E2E2F5F5F5F5F5F5F5F5F5E2E2E2E2E2E2E2E2F5F5F5F5E2E2F5F5F5F5E2F5F5F5F5F5F5F5F5F5F5F5F5F5F5F5F5F5F5F5F5F5F5F5F5F5F5F5F5F5F5F5F5F5F5F5F5F5F5F5F5F5F5F5F5F5F5F5F5F5F5F5F5F5F5F5F5F5F5F5F5F5F5
310
F5F5F5F5F5F5F5F5F5F5F5F5F5F5F5F5F5F5F5F5F5F5F5F5F5F5F5F5F5F5F5F5F5F5F5F5F5F5F5F5F5F5F5F5F5F5F5F5F5F5F5F5F5F5F5F5F5F5F5F5F5F5F5F5F5F5F5F5F5F5F5F5F5F5F5F5F5F5F5F5F5F5F5F5F5F5F5F5F5F5F5F5F5F5F5F5F5F5F5F5F5F5F5F5F5F5E2F5F5F5F5E2E2F5F5F5F5E2F5F5F5F5F5F5F5F5F5
310
F5F5F5F5F5F5F5F5F5F5F5F5F5F5F5F5F5F5F5F5F5F5F5F5F5F5F5F5F5F5F5F5F5F5F5F5F5F5F5F5F5F5F5F5F5F5F5F5F5F5F5F5F5F5F5F5F5F5F5F5F5F5F5F5F5F5F5F5F5F5F5F5F5F5F5F5F5F5F5F5F5F5F5F5F5F5F5F5F5F5F5F5F5F5F5F5F5F5F5F5F5F5F5F5F5F5F5F5F5F5F5F5F5F5F5F5F5F5F5F5F5F5F5F5F5F5F5
310
F5F5F5F5F5F5F5F5F5F5F5F5F5F5F5F5F5F5F5F5F5F5F5F5F5F5F5F5F5F5F5F5E2F5F5F5F5E2E2F5F5F5F5E2F5F5F5F5F5F5F5F5F5F5F5F5F5F5F5F5F5F5F5F5F5F5F5F5F5F5F5F5F5F5F5F5F5F5F5F5F5F5F5F5F5F5F5F5F5F5F5F5F5F5F5F5F5F5F5F5F5F5F5F5F5F5F5F5F5F5F5F5F5F5F5F5F5F5F5F5F5F5F5F5F5F5F5
310
F5F5F5F5F5F5F5F5F5F5F5F5F5F5F5F5F5F5F5F5F5F5F5F5F5F5F5F5F5F5F5F5F5F5F5F5F5F5F5F5F5F5F5F5F5F5F5F5F5F5F5F5F5F5F5F5F5F5F5F5F5F5F5F5F5F5F5F5F5F5F5F5F5F5F5F5F5F5F5F5F5F5F5F5F5E2F5F5F5F5E2E2F5F5F5F5E2F5F5F5F5F5F5F5F5F5F5F5F5F5F5F5F5F5F5F5F5F5F5F5F5F5F5F5F5F5F5
310
F5F5F5F5F5F5F5F5F5F5F5F5F5F5F5F5F5F5F5F5F5F5F5F5F5F5F5F5F5F5F5F5F5F5F5F5F5F5F5F5F5F5F5F5F5F5F5F5F5F5F5F5F5F5F5F5F5F5F5F5F5F5F5F5F5F5F5F5F5F5F5F5F5F5F5F5F5F5F5F5F5F5F5F5F5F5F5F5F5F5F5F5F5F5F5F5F5F5F5F5F5F5F5F5F5F5F5F5F5F5F5F5F5F5F5F5F5F5F5F5F5F5F5F5F5F5F5
310
F5F5F5F5F5F5F5F5F5F5F5E2F5F5F5F5E2E2F5F5F5F5E2F5F5F5F5F5F5F5F5F5F5F5F5F5F5F5F5F5F5F5F5F5F5F5F5F5F5F5F5F5F5F5F5F5F5F5F5F5F5F5F5F5F5F5F5F5F5F5F5F5F5F5F5F5F5F5F5F5F5F5F5F5F5F5F5F5F5F5F5F5F5F5F5F5F5F5F5F5F5F5F5F5F5F5F5F5F5F5F5F5F5F5F5F5F5F5F5F5F5F5F5F5F5F5F5
310
F5F5F5F5F5F5F5F5F5F5F5F5F5F5F5F5F5F5F5F5F5F5F5F5F5F5F5F5F5F5F5F5F5F5F5F5F5F5F5F5F5F5F5F5F5F5F5F5F5F5F5F5F5F5F5F5F5F5F5F5F5F5F5F5E2F5F5F5F5E2E2F5F5F5F5E2F5F5F5F5F5F5F5F5F5F5F5F5F5F5F5F5F5F5F5F5F5F5F5F5F5F5F5F5F5F5F5F5F5F5F5F5F5F5F5F5F5F5F5F5F5F5F5F5F5F5F5
310
F5F5F5F5F5F5F5F5F5F5F5F5F5F5F5F5F5F5F5F5F5F5F5F5F5F5F5F5F5F5F5F5F5F5F5F5F5F5F5F5F5F5F5F5F5F5F5F5F5F5F5F5F5F5F5F5F5F5F5F5F5F5F5F5F5F5F5F5F5F5F5F5F5F5F5F5F5F5F5F5F5F5F5F5F5F5F5F5F5F5F5F5F5F5F5F5F5F5F5F5F5F5F5F5F5F5F5F5F5F5F5F5F5F5F5F5F5E2F5F5F5F5E2E2F5F5F5
310
F5E2F5F5F5F5F5F5F5F5F5F5F5F5F5F5F5F5F5F5F5F5F5F5F5F5F5F5F5F5F5F5F5F5F5F5F5F5F5F5F5F5F5F5F5F5F5F5F5F5F5F5F5F5F5F5F5F5F5F5F5F5F5F5F5F5F5F5F5F5F5F5F5F5F5F5F5F5F5F5F5F5F5F5F5F5F5F5F5F5F5F5F5F5F5F5F5F5F5F5F5F5F5F5F5F5F5F5F5F5F5F5F5F5F5F5F5F5F5F5F5F5F5F5F5F5F5
310
F5F5F5F5F5F5F5F5F5F5F5F5F5F5F5F5F5F5F5F5F5F5F5F5F5F5F5F5F5F5F5F5F5F5F5F5F5F5F5F5F5F5F5E2F5F5F5F5E2E2F5F5F5F5E2F5F5F5F5F5F5F5F5F5F5F5F5F5F5F5F5F5F5F5F5F5F5F5F5F5F5F5F5F5F5F5F5F5F5F5F5F5F5F5F5F5F5F5F5F5F5F5F5F5F5F5F5F5F5F5F5F5F5F5F5F5F5F5F5F5F5F5F5F5F5F5F5
310
F5F5F5F5F5F5F5F5F5F5F5F5F5F5F5F5F5F5F5F5F5F5F5F5F5F5F5F5F5F5F5F5F5F5F5F5F5F5F5F5F5F5F5F5F5F5F5F5F5F5F5F5F5F5F5F5F5F5F5F5F5F5F5F5F5F5F5F5F5F5F5F5F5F5F5F5F5F5F5F5F5F5F5F5F5F5F5F5F5F5F5F5F5F5F5F5E2F5F5F5F5E2E2F5F5F5F5F5F5F5F5F5F5F5F5F5F5F5F5F5F5F5F5F5F5F5F5
310
F5F5F5F5F5F5F5F5F5F5F5F5F5F5F5F5F5F5F5F5F5F5F5F5F5F5F5F5F5F5F5F5F5F5F5F5F5F5F5F5F5F5F5F5F5F5F5F5F5F5F5F5F5F5F5F5F5F5F5F5F5F5F5F5F5F5F5F5F5F5F5F5F5F5F5F5F5F5F5F5F5F5F5F5F5F5F5F5F5F5F5F5F5F5F5F5F5F5F5F5F5F5F5F5F5F5F5F5F5F5F5F5F5F5F5F5F5F5F5F5F5F5F5F5F5F5F5
310
F5F5F5F5F5F5F5F5F5F5F5F5F5F5F5F5F5F5F5F5F5F5F5F5F5F5F5E2E2F5F5F5F5F5F5F5F5F5F5F5F5F5F5F5F5F5F5F5F5F5F5F5F5F5F5F5F5F5F5F5F5F5F5F5F5F5F5F5F5F5F5F5F5F5F5F5F5F5F5F5F5F5F5F5F5F5F5F5F5F5F5F5F5F5F5F5F5F5F5F5F5F5F5F5F5F5F5F5F5F5F5F5F5F5F5F5F5F5F5F5F5F5F5F5F5F5F5
310
F5F5F5F5F5F5F5F5F5F5F5F5F5F5F5F5F5F5F5F5F5F5F5F5F5F5F5F5F5F5F5F5F5F5F5F5F5F5F5F5F5F5F5F5F5F5F5F5F5F5F5F5F5F5F5F5F5F5F5F5F5F5F5F5F5F5F5F5F5F5F5F5F5F5F5F5F5F5F5F5E2E2F5F5F5F5F5F5F5F5F5F5F5F5F5F5F5F5F5F5F5F5F5F5F5F5F5F5F5F5F5F5F5F5F5F5F5F5F5F5F5F5F5F5F5F5F5
310
F5F5F5F5F5F5F5F5F5F5F5F5F5F5F5F5F5F5F5F5F5F5F5F5F5F5F5F5F5F5F5F5F5F5F5F5F5F5F5F5F5F5F5F5F5F5F5F5F5F5F5F5F5F5F5F5F5F5F5F5F5F5F5F5F5F5F5F5F5F5F5F5F5F5F5F5F5F5F5F5F5F5F5F5F5F5F5F5F5F5F5F5F5F5F5F5F5F5F5F5F5F5F5F5F5F5F5F5F5F5F5F5F5F5F5F5F5F5F5F5F5F5F5F5F5F5F5
310
F5F5F5F5F5F5E2E2F5F5F5F5F5F5F5F5F5F5F5F5F5F5F5F5F5F5F5F5F5F5F5F5F5F5F5F5F5F5F5F5F5F5F5F5F5F5F5F5F5F5F5F5F5F5F5F5F5F5F5F5F5F5F5F5F5F5F5F5F5F5F5F5F5F5F5F5F5F5F5F5F5F5F5F5F5F5F5F5F5F5F5F5F5F5F5F5F5F5F5F5F5F5F5F5F5F5F5F5F5F5F5F5F5F5F5F5F5F5F5F5F5F5F5F5F5F5F5
310
F5F5F5F5F5F5F5F5F5F5F5F5F5F5F5F5F5F5F5F5F5F5F5F5F5F5F5F5F5F5F5F5F5F5F5F5F5F5F5F5F5F5F5F5F5F5F5F5F5F5F5F5F5F5F5F5F5F5F5E2E2F5F5F5F5F5F5F5F5F5F5F5F5F5F5F5F5F5F5F5F5F5E2E2E2E2E2E2E2E2E2E2E2E2E2E2E2E2E2E2E2E2E2E2E2E2E2E2E2E2E2E2E2E2E2E2E2E2E2E2E2E2E2E2E2E2E2
310
E2E2E2E2E2E2E2E2E2E2E2E2E2E2E2E2E2E2E2E2E2E2E2E2E2E2E2E2E2E2E2E2E2E2E2E2E2E2E2E2E2E2E2E2E2E2E2E2E2E2E2E2E2E2E2E2E2E2E2E2E2E2E2E2E2E2E2E2E2E2E2E2E2E2E2E2E2E2E2E2E2E2E2E2E2E2E2E2E2E2E2F5F5F5F5F5F5F5F5F5F5F5F5F5F5F5F5F5F5F5F5F5E2E2F5F5F5F5F5F5F5F5F5F5F5F5F5
310
F5F5F5F5F5F5F5F5E22D2D2D2D2D2D2D2D2D2D2D2DF5F5F5F5F5F5F5F5F5F5F5F5F5F5F5E2F5F5F5F5F5F5F5F5F5F5F5F5F5F5F5F5F5F5F5F5F5F5F5F5F5F5F5F5F5F5F5F5F5F5F5F5F5F5F5F5F5F5F5F5F5F5F5F5F5F5F5F5F5F5F5F5F5F5F5F5F5F5F5F5F5F5F5F5F5F5F5F5F5F5F5F5F5F5F5F5F5F5F5F5F5F5F5F5F5F5
310
F5F5F5F5F5F5F5F5F5F5F5F5F5F5F5F5E2F5F5F5F5F5F5F5F5F5F5F5F5F5F5F5F5F5F5F5F5F5E2E2F5F5F5F5F5F5F5F5F5F5F5F5F5F5F5F5F5F5F5F5F5E22D2D2DF5F5E2F5F5F5F5F52DF5F5F5F5F5F5F5F5F5F5F5F5F5F5F5E2F5F5F5F5F5F5F5F5F5F5F5F5F5F5F5F5F5F5F5F5F5F5F5F5F5F5F5F5F5F5F5F5F5F5F5F5F5
310
F5F5F5F5F5F5F5F5F5F5F5F5F5F5F5F5F5F5F5F5F5F5F5F5F5F5F5F5F5F5F5F5F5F5F5F5F5F5F5F5F5F5F5F5F5F5F5F5F5F5F5F5F5F5F5F5F5F5F5F5F5F5F5F5F5F5F5F5F5E2F5F5F5F5F5F5F5F5F5F5F5F5F5F5F5F5F5F5F5F5F5E2E2F5F5F5F5F5F5F5F5F5F5F5F5F5F5F5F5F5F5F5F5F5E2DCF52DF5F5E2F5F5F5F5F52D
310
F5F5F5F5F5F5F5F5F5F5F5F5F5F5F5E2F5F5F5F5F5F5F5F5F5F5F5F5F5F5F5F5F5F5F5F5F5F5F5F5F5F5F5F5F5F5F5F5F5F5F5F5F5F5F5F5F5F5F5F5F5F5F5F5F5F5F5F5F5F5F5F5F5F5F5F5F5F5F5F5F5F5F5F5F5F5F5F5F5F5F5F5F5F5F5F5F5F5F5F5F5F5F5F5F5F5F5F5F5F5F5F5F5F5F5F5F5F5F5F5F5F5E2F5F5F5F5
310
F5F5F5F5F5F5F5F5F5F5F5F5F5F5F5F5F5E2E2F5F5F5F5F5F5F5F5F5F5F5F5F5F5F5F5F5F5F5F5F5E2BEF52D2D2D2D2D2D2D2DE2E2E2E2E2E2E2E2E2E2E2E2E2E2E2E2E2E2F5F5F5F5F5F5F5F5F5F5F5F5F5F5F5F5F5F5F5F5F5F5F5F5F5F5F5F5F5F5F5F5F5F5F5F5F5F5F5F5F5F5F5F5F5F5F5F5F5F5F5F5F5F5F5F5F5F5
310
F5F5F5F5F5F5F5F5F5F5F5F5F5F5F5F5F5F5F5F5F5F5F5F5F5F5F5F5F5F5F5F5F5F5F5F5F5F5F5F5F5F5F5F5F5F5F5F5E2F5F5F5F5F5F5F5F5F5F5F5F5F5F5F5F5F5F5F5F5F5E2E2F5F5F5F5E2F5F5F5F5F5F5F5F5F5F5F5F5F5F5F5F5E2DCF5F5F5F5E2F5F5F5F5F5E2F5F5F5F5F5F5F5F5F5F5F5F5F5F5F5F5F5F5F5F5F5
310
F5F5F5F5F5F5F5F5F5F5F5F5F5F5F5F5F5F5F5F5F5F5F5F5F5F5F5F5F5F5F5F5F5F5F5F5F5F5F5F5F5F5F5F5F5F5F5F5F5F5F5F5F5F5F5F5F5F5F5F5F5F5F5F5F5F5F5F5F5F5F5F5F5F5F5F5F5F5F5F5F5F5F5F5F5F5F5F5F5F5F5F5F5F5F5F5F5F5F5F5F5E2F5F5F5F5F5F5F5F5F5F5F5F5F5F5F5F5E2F5F5F5F5E2E2F5F5
310
F5F5E2F5F5F5F5F5F5F5F5F5F5F5F5F5F5F5F5E2F5F5F5F5F5E2F5F5F5F5F5E2F5F5F5F5F5F5F5F5F5F5F5F5F5F5F5F5F5F5F5F5F5F5F5F5F5F5F5F5F5F5F5F5F5F5F5F5F5F5F5F5F5F5F5F5F5F5F5F5F5F5F5F5F5F5F5F5F5F5F5F5F5F5F5F5F5F5F5F5F5F5F5F5F5F5F5F5F5F5F5F5F5F5F5F5F5F5F5F5F5F5F5F5F5F5F5
310
F5F5F5F5F5F5F5F5F5F5F5F5F5F5F5F5F5F5F5F5F5F5F5F5F5F5F5E2F5F5F5F5F5F5F5F5F5F5F5F5F5F5F5F5E2F5F5F5F5E2E2F5F5F5F5E2F5F5F5F5F5F5F5F5F5F5F5F5F5F5F5F5E2F5F5F5F5F5E2F5F5F5F5F5E2F5F5F5F5F5F5F5F5F5F5F5F5F5F5F5F5F5F5F5F5F5F5F5F5F5F5F5F5F5F5F5F5F5F5F5F5F5F5F5F5F5F5
310
F5F5F5F5F5F5F5F5F5F5F5F5F5F5F5F5F5F5F5F5F5F5F5F5F5F5F5F5F5F5F5F5F5F5F5F5F5F5F5F5F5F5F5F5F5F5F5F5F5F5F5F5F5F5F5F5F5F5F5F5F5F5F5F5F5F5F5F5F5F5F5F5F5F5F5F5F5F5F5F5E2F5F5F5F5F5F5F5F5F5F5F5F5F5F5F5F5E2F5F5F5F5E2E2F5F5F5F5E2F5F5F5F5F5F5F5F5F5F5F5F5F5F5F5F5E2F5
310
F5F5F5F5E2F5F5F5F5F5E2F5F5F5F5F5F5F5F5F5F5F5F5F5F5F5F5F5F5F5F5F5F5F5F5F5F5F5F5F5F5F5F5F5F5F5F5F5F5F5F5F5F5F5F5F5F5F5F5F5F5F5F5F5F5F5F5F5F5F5F5F5F5F5F5F5F5F5F5F5F5F5F5F5F5F5F5F5F5F5F5F5F5F5F5F5F5F5F5F5F5F5F5F5F5F5F5F5F5F5F5F5F5F5F5F5F5F5F5F5F5F5F5F5F5F5F5
310
F5F5F5F5F5F5E2F5F5F5F5F5F5F5F5F5F5F5F5F5F5F5F5E2F5F5F5F5E2E2F5F5F5F5E2F5F5F5F5F5F5F5F5F5F5F5F5F5F5F5F5E2E2E2E2E2E2E2F5F5F5F5F5E2F5F5F5F5F5F5F5F5F5F5F5F5F5F5F5F5F5F5F5F5F5F5F5F5F5F5F5F5F5F5F5F5F5F5F5F5F5F5F5F5F5F5F5F5F5F5F5F5F5F5F5F5F5F5F5F5F5F5F5F5F5F5F5
310
F5F5F5F5F5F5F5F5F5F5F5F5F5F5F5F5F5F5F5F5F5F5F5F5F5F5F5F5F5F5F5F5F5F5F5F5F5F5F5F5F5F5F5F5F5F5F5F5F5F5F5F5F5F5F5F5F5F5F5E2F5F5F5F5F5F5F5F5F5F5F5F5F5F5F5F5E2F5F5F5F5E2E2F5F5F5F5E2F5F5F5F5F5F5F5F5F5F5F5F5F5F5F5F5E2E2E2E2F5E2E2F5F5F5F5F5E2F5F5F5F5F5F5F5F5F5F5
310
F5F5F5F5F5F5F5F5F5F5F5F5F5F5F5F5F5F5F5F5F5F5F5F5F5F5F5F5F5F5F5F5F5F5F5F5F5F5F5F5F5F5F5F5F5F5F5F5F5F5F5F5F5F5F5F5F5F5F5F5F5F5F5F5F5F5F5F5F5F5F5F5F5F5F5F5F5F5F5F5F5F5F5F5F5F5F5F5F5F5F5F5F5F5F5F5F5F5F5F5F5F5F5F5F5F5F5F5F5F5F5F5E2F5F5F5F5F5F5F5F5F5F5F5F5F5F5
310
F5F5E2F5F5F5F5E2E2F5F5F5F5E2F5F5F5F5F5F5F5F5F5F5F5F5F5F5F5F5E2E2E2E2F5F5F5F5F5F5F5F5E2F5F5F5F5F5F5F5F5F5F5F5F5F5F5F5F5F5F5F5F5F5F5F5F5F5F5F5F5F5F5F5F5F5F5F5F5F5F5F5F5F5F5F5F5F5F5F5F5F5F5F5F5F5F5F5F5F5F5F5F5F5F5F5F5F5F5F5F5F5F5F5F5F5F5F5F5F5F5F5F5F5F5F5F5
310
F5F5F5F5F5F5F5F5F5F5F5F5F5F5F5F5F5F5F5F5F5F5F5F5F5F5F5F5F5F5F5F5F5F5F5F5F5F5E2F5F5F5F5F5F5F5F5F5F5F5F5F5F5F5F5E2F5F5F5F5E2E2F5F5F5F5E2F5F5F5F5F5F5F5F5F5F5F5F5F5F5F5F5E2F5F5F5F5F5F5F5F5F5F5F5E2F5F5F5F5F5F5F5F5F5F5F5F5F5F5F5F5F5F5F5F5F5F5F5F5F5F5F5F5F5F5F5
310
F5F5F5F5F5F5F5F5F5F5F5F5F5F5F5F5F5F5F5F5F5F5F5F5F5F5F5F5F5F5F5F5F5F5F5F5F5F5F5F5F5F5F5F5F5F5F5F5F5F5F5F5F5F5F5F5F5F5F5F5F5F5F5F5F5F5F5F5F5F5F5F5F5F5F5F5F5F5F5F5F5F5F5F5F5F5F5F5F5F5F5E2F5F5F5F5F5F5F5F5F5F5F5F5F5F5F5F5E2F5F5F5F5E2E2F5F5F5F5E2F5F5F5F5F5F5F5
310
F5F5F5F5F5F5F5F5F5E2E2E2E2E2E2E2E2E2E2E2E2E2F5F5F5F5F5F5F5F5F5F5F5F5F5F5F5F5F5F5F5F5F5F5F5F5F5F5F5F5F5F5F5F5F5F5F5F5F5F5F5F5F5F5F5F5F5F5F5F5F5F5F5F5F5F5F5F5F5F5F5F5F5F5F5F5F5F5F5F5F5F5F5F5F5F5F5F5F5F5F5F5F5F5F5F5F5F5F5F5F5F5F5F5F5F5F5F5F5F5F5F5F5F5F5F5F5
310
F5F5F5F5F5F5F5F5F5F5F5F5F5F5F5F5F5E2F5F5F5F5F5F5F5F5F5F5F5F5F5F5F5F5E2F5F5F5F5E2E2F5F5F5F5E2F5F5F5F5F5F5F5F5F5F5F5F5F5F5F5F5E2E2E2F5F5F5F5F5F5F5F5F5F5F5F5F5F5F5F5F5F5F5F5F5F5F5F5F5F5F5F5F5F5F5F5F5F5F5F5F5F5F5F5F5F5F5F5F5F5F5F5F5F5F5F5F5F5F5F5F5F5F5F5F5F5
310
F5F5F5F5F5F5F5F5F5F5F5F5F5F5F5F5F5F5F5F5F5F5F5F5F5F5F5F5F5F5F5F5F5F5F5F5F5F5F5F5F5F5F5F5F5F5F5F5F5F5F5F5F5F5F5F5F5F5F5F5F5F5F5F5F5F5F5F5F5F5E2F5F5F5F5F5F5F5F5F5F5F5F5F5F5F5F5E2F5F5F5F5E2E2F5F5F5F5E2F5F5F5F5F5F5F5F5F5F5F5F5F5F5F5F5E2E2E2F5F5F5F5F5F5F5F5F5
310
F5F5F5F5F5F5F5F5F5F5F5F5F5F5F5F5F5F5F5F5F5F5F5F5F5F5F5F5F5F5F5F5F5F5F5F5F5F5F5F5F5F5F5F5F5F5F5F5F5F5F5F5F5F5F5F5F5F5F5F5F5F5F5F5F5F5F5F5F5F5F5F5F5F5F5F5F5F5F5F5F5F5F5F5F5F5F5F5F5F5F5F5F5F5F5F5F5F5F5F5F5F5F5F5F5F5F5F5F5F5F5F5F5F5F5F5F5F5F5F5F5F5F5E2F5F5F5
310
F5F5F5F5F5F5F5F5F5F5F5F5F5E2F5F5F5F5E2E2F5F5F5F5E2F5F5F5F5F5F5F5F5F5F5F5F5F5F5F5F5E2F5F5F5F5F5F5F5F5F5F5F5F5F5F5F5F5F5F5F5F5F5F5F5F5F5F5F5F5F5F5F5F5F5F5F5F5F5F5F5F5F5F5F5F5F5F5F5F5F5F5F5F5F5F5F5F5F5F5F5F5F5F5F5F5F5F5F5F5F5F5F5F5F5F5F5F5F5F5F5F5F5F5F5F5F5
310
F5F5F5F5F5F5F5F5F5F5F5F5F5F5F5F5F5F5F5F5F5F5F5F5F5F5F5F5F5F5F5F5F5F5F5F5F5F5F5F5F5F5F5F5F5F5F5F5F5E2F5F5F5F5F5F5F5F5F5F5F5F5F5F5F5F5E2F5F5F5F5E2E2F5F5F5F5E2F5F5F5F5F5F5F5F5F5F5F5F5F5F5F5F5E2F5F5F5F5F5F5F5F5F5F5F5F5F5F5F5F5F5F5F5F5F5F5F5F5F5F5F5F5F5F5F5F5
310
F5F5F5F5F5F5F5F5F5F5F5F5F5F5F5F5F5F5F5F5F5F5F5F5F5F5F5F5F5F5F5F5F5F5F5F5F5F5F5F5F5F5F5F5F5F5F5F5F5F5F5F5F5F5F5F5F5F5F5F5F5F5F5F5F5F5F5F5F5F5F5F5F5F5F5F5F5F5F5F5F5F5F5F5F5F5F5F5F5F5F5F5F5F5F5F5F5F5F5F5F5F5E2F5F5F5F5F5F5F5F5F5F5F5F5F5F5F5F5E2F5F5F5F5E2E2F5
310
F5F5F5E2F5F5F5F5F5F5F5F5F5F5F5F5F5F5F5F5E20F0F0F0F0F0F0F0F0F0F0FF5F5F5F5F5F5F5F5F5F5F5F5F5F5F5F5F5F5F5F5F5F5F5F5F5F5F5F5F5F5F5F5F5F5F5F5F5F5F5F5F5F5F5F5F5F5F5F5F5F5F5F5F5F5F5F5F5F5F5F5F5F5F5F5F5F5F5F5F5F5F5F5F5F5F5F5F5F5F5F5F5F5F5F5F5F5F5F5F5F5F5F5F5F5F5
310
F5F5F5F5F5F5F5F5F5F5F5F5F5F5F5F5F5F5F5F5F5F5F5F5F5F5F5F5E2F5F5F5F5F5F5F5F5F5F5F5F5F5F5F5F5E2F5F5F5F5E2E2F5F5F5F5E2F5F5F5F5F5F5F5F5F5F5F5F5F5F5F5F5E20F0F0F0F0F0F0F0F0F0F0FF5F5F5F5F5F5F5F5F5F5F5F5F5F5F5F5F5F5F5F5F5F5F5F5F5F5F5F5F5F5F5F5F5F5F5F5F5F5F5F5F5F5
310
F5F5F5F5F5F5F5F5F5F5F5F5F5F5F5F5F5F5F5F5F5F5F5F5F5F5F5F5F5F5F5F5F5F5F5F5F5F5F5F5F5F5F5F5F5F5F5F5F5F5F5F5F5F5F5F5F5F5F5F5F5F5F5F5F5F5F5F5F5F5F5F5F5F5F5F5F5F5F5F5F5E2F5F5F5F5F5F5F5F5F5F5F5F5F5F5F5F5E2F5F5F5F5E2E2F5F5F5F5E2F5F5F5F5F5F5F5F5F5F5F5F5F5F5F5F5E2
310
0F0F0F0F0F0F0F0F0F0FF5F5F5F5F5F5F5F5F5F5F5F5F5F5F5F5F5F5F5F5F5F5F5F5F5F5F5F5F5F5F5F5F5F5F5F5F5F5F5F5F5F5F5F5F5F5F5F5F5F5F5F5F5F5F5F5F5F5F5F5F5F5F5F5F5F5F5F5F5F5F5F5F5F5F5F5F5F5F5F5F5F5F5F5F5F5F5F5F5F5F5F5F5F5F5F5F5F5F5F5F5F5F5F5F5F5F5F5F5F5F5F5F5F5F5F5F5
310
F5F5F5F5F5F5F5E2F5F5F5F5F5F5F5F5F5F5F5F5F5F5F5F5E2F5F5F5F5E2E2F5F5F5F5E2F5F5F5F5F5F5F5F5F5F5F5F5F5F5F5F5E2F5F5F5F5F5F5F5F5F5F5F5F5F5F5F5F5F5F5F5F5F5F5F5F5F5F5F5F5F5F5F5F5F5F5F5F5F5F5F5F5F5F5F5F5F5F5F5F5F5F5F5F5F5F5F5F5F5F5F5F5F5F5F5F5F5F5F5F5F5F5F5F5F5F5
310
F5F5F5F5F5F5F5F5F5F5F5F5F5F5F5F5F5F5F5F5F5F5F5F5F5F5F5F5F5F5F5F5F5F5F5F5F5F5F5F5F5F5F5F5F5F5F5F5F5F5F5F5F5F5F5F5F5F5F5F5E2F5F5F5F5F5F5F5F5F5F5F5F5F5F5F5F5E2F5F5F5F5E2E2F5F5F5F5F5F5F5F5F5F5F5F5F5F5F5F5F5F5F5F5F5E2F5F5F5F5F5F5F5F5F5F5F5F5F5F5F5F5F5F5F5F5F5
310
F5F5F5F5F5F5F5F5F5F5F5F5F5F5F5F5F5F5F5F5F5F5F5F5F5F5F5F5F5F5F5F5F5F5F5F5F5F5F5F5F5F5F5F5F5F5F5F5F5F5F5F5F5F5F5F5F5F5F5F5F5F5F5F5F5F5F5F5F5F5F5F5F5F5F5F5F5F5F5F5F5F5F5F5F5F5F5F5F5F5F5F5F5F5F5F5F5F5F5F5F5F5F5F5F5F5F5F5F5F5F5F5F5E2F5F5F5F5F5F5F5F5F5F5F5F5F5
310
F5F5F5F5F5F5F5F5E2E2F5F5F5F5F5F5F5F5F5F5F5F5F5F5F5F5F5F5F5F5F5E2F5F5F5F5F5F5F5F5F5F5F5F5F5F5F5F5F5F5F5F5F5F5F5F5F5F5F5F5F5F5F5F5F5F5F5F5F5F5F5F5F5F5F5F5F5F5F5F5F5F5F5F5F5F5F5F5F5F5F5F5F5F5F5F5F5F5F5F5F5F5F5F5F5F5F5F5F5F5F5F5F5F5F5F5F5F5F5F5F5F5F5F5F5F5F5
310
F5F5F5F5F5F5F5F5F5F5F5F5F5F5F5F5F5F5F5F5F5F5F5F5F5F5F5F5F5F5F5F5F5F5F5F5F5F5F5E2F5F5F5F5F5F5F5F5F5F5F5F5F5F5F5F5F5F5F5F5F5E2E2F5F5F5F5F5F5F5F5F5F5F5F5F5F5F5F5F5F5F5F5F5E2F5F5F5F5F5F5F5F5F5F5F5F5F5F5F5F5F5F5F5F5F5F5F5F5F5F5F5F5F5F5F5F5F5F5F5F5F5F5F5F5F5F5
310
F5F5F5F5F5F5F5F5F5F5F5F5F5F5F5F5F5F5F5F5F5F5F5F5F5F5F5F5F5F5F5F5F5F5F5F5F5F5F5F5F5F5F5F5F5F5F5F5F5F5F5F5F5F5F5F5F5F5F5F5F5F5F5F5F5F5F5F5F5F5F5F5F5F5F5F5F5F5F5F5F5F5F5F5F5F5F5F5F5F5F5F5E2F5F5F5F5F5F5F5F5F5F5F5F5F5F5F5F5F5F5F5F5F5E2E2F5F5F5F5F5F5F5F5F5F5F5
310
F5F5F5F5F5F5F5F5F5F5E2F5F5F5F5F5F5F5F5F5F5F5F5F5F5F5F5F5F5F5F5F5F5F5F5F5F5F5F5F5F5F5F5F5F5F5F5F5F5F5F5F5F5F5F5F5F5F5F5F5F5F5F5F5F5F5F5F5F5F5F5F5F5F5F5F5F5F5F5F5F5F5F5F5F5F5F5F5F5F5F5F5F5F5F5F5F5F5F5F5F5F5F5F5F5F5F5F5F5F5F5F5F5F5F5F5F5F5F5F5F5F5F5F5F5F5F5
310
F5F5F5F5F5F5F5F5F5F5F5F5F5F5F5F5F5F5E2F5F5F5F5F5F5F5F5F5F5F5F5F5F5F5F5F5F5F5F5F5E2E2F5F5F5F5F5F5F5F5F5F5F5F5F5F5F5F5F5F5F5F5F5E2F5F5F5F5F5F5F5F5F5F5F5F5F5F5F5F5F5F5F5F5F5F5F5F5F5F5F5F5F5F5F5F5F5F5F5F5F5F5F5F5F5F5F5F5F5F5F5F5F5F5F5F5F5F5F5F5F5F5F5F5F5F5F5
310
F5F5F5F5F5F5F5F5F5F5F5F5F5F5F5F5F5F5F5F5F5F5F5F5F5F5F5F5F5F5F5F5F5F5F5F5F5F5F5F5F5F5F5F5F5F5F5F5F5F5F5F5F5F5F5F5F5F5F5F5F5F5F5F5F5F5F5F5F5F5F5E2F5F5F5F5F5F5F5F5F5F5F5F5F5F5F5F5F5F5F5F5F5E2E2F5F5F5F5F5F5F5F5F5F5F5F5F5F5F5F5F5F5F5F5F5E2F5F5F5F5F5F5F5F5F5F5
310
F5F5F5F5F5F5F5F5F5F5F5F5F5F5F5F5F5F5F5F5F5F5F5F5F5F5F5F5F5F5F5F5F5F5F5F5F5F5F5F5F5F5F5F5F5F5F5F5F5F5F5F5F5F5F5F5F5F5F5F5F5F5F5F5F5F5F5F5F5F5F5F5F5F5F5F5F5F5F5F5F5F5F5F5F5F5F5F5F5F5F5F5F5F5F5F5F5F5F5F5F5F5F5F5F5F5F5F5F5F5F5F5F5F5F5F5F5F5F5F5F5F5F5F5E2F5F5
310
F5F5F5F5F5F5F5F5F5F5F5F5F5F5F5F5F5F5F5E2E2F5F5F5F5F5F5F5F5F5F5F5F5F5F5F5F5F5F5F5F5F5E2F5F5F5F5F5F5F5F5F5F5F5F5F5F5F5F5F5F5F5F5F5F5F5F5F5F5F5F5F5F5F5F5F5F5F5F5F5F5F5F5F5F5F5F5F5F5F5F5F5F5F5F5F5F5F5F5F5F5F5F5F5F5F5F5F5F5F5F5F5F5F5F5F5F5F5F5F5F5F5F5F5F5F5F5
310
F5F5F5F5F5F5F5F5F5F5F5F5F5F5F5F5F5F5F5F5F5F5F5F5F5F5F5F5F5F5F5F5F5F5F5F5F5F5F5F5F5F5F5F5F5F5F5F5F5F5E2F5F5F5F5F5F5F5F5F5F5F5F5F5F5F5F5F5F5F5F5F5E2E2F5F5F5F5F5F5F5F5F5F5F5F5F5F5F5F5F5F5F5F5F5E2F5F5F5F5F5F5F5F5F5F5F5F5F5F5F5F5F5F5F5F5F5F5F5F5F5F5F5F5F5F5F5
310
F5F5F5F5F5F5F5F5F5F5F5F5F5F5F5F5F5F5F5F5F5F5F5F5F5F5F5F5F5F5F5F5F5F5F5F5F5F5F5F5F5F5F5F5F5F5F5F5F5F5F5F5F5F5F5F5F5F5F5F5F5F5F5F5F5F5F5F5F5F5F5F5F5F5F5F5F5F5F5F5F5F5F5F5F5F5F5F5F5F5F5F5F5F5F5F5F5F5F5F5F5F5F5E2F5F5F5F5F5F5F5F5F5F5F5F5F5F5F5F5F5F5F5F5F5E2E2
310
F5F5F5F5F5F5F5F5F5F5F5F5F5F5F5F5F5F5F5F5F5E2F5F5F5F5F5F5F5F5F5F5F5F5F5F5F5F5F5F5F5F5F5F5F5F5F5F5F5F5F5F5F5F5F5F5F5F5F5F5F5F5F5F5F5F5F5F5F5F5F5F5F5F5F5F5F5F5F5F5F5F5F5F5F5F5F5F5F5F5F5F5F5F5F5F5F5F5F5F5F5F5F5F5F5F5F5F5F5F5F5F5F5F5F5F5F5F5F5F5F5F5F5F5F5F5F5
310
F5F5F5F5F5F5F5F5F5F5F5F5F5F5F5F5F5F5F5F5F5F5F5F5F5F5F5F5F5E2F5F5F5F5F5F5F5F5F5F5F5F5F5F5F5F5F5F5F5F5F5E2E2F5F5F5F5E2F5F5F5F5F5F5F5F5F5F5F5F5F5F5F5F5E2F5F5F5F5F5F5F5F5F5F5F5F5F5F5F5F5F5F5F5F5F5F5F5F5F5F5F5F5F5F5F5F5F5F5F5F5F5F5F5F5F5F5F5F5F5F5F5F5F5F5F5F5
310
F5F5F5F5F5F5F5F5F5F5F5F5F5F5F5F5F5F5F5F5F5F5F5F5F5F5F5F5F5F5F5F5F5F5F5F5F5F5F5F5F5F5F5F5F5F5F5F5F5E2F0E2E2F5F5F5F5F5F5E2F0E2E2F5DCF5F5F5F5F5F5F0F0E2F5F5F5F5F5F5F5F5E2F5F5F5F5F5F5F5F5F5F5F5F5F5F5F5F5E2F5F5F5F5E2E2F5F5F5F5E2F5F5F5F5F5F5F5F5F5F5F5F5F5F5F5F5
310
E2F5F5F5F5F5F5F5F5F5F5F5F5F5F5F5F5F5F5F5F5F5F5F5F5F5F5F5F5F5F5F5F5F5F5F5F5F5F5F5F5F5F5F5F5F5F5F5F5F5F5F5F5F5F5F5F5F5F5F5F5F5F5F5F5F5F5F5F5F5F5F5F5F5F5F5F5F5F5F5F5F5F5F5F5F5F5F5F5F5F5F5F5F5F5F5F5F5F5F5F5E2DCDCF0F5E2F5F5F5F5F5E2F5F0E2E2DCF5F5F5F5F5E2F0F0F5
310
E2F5F5F5E2E2E2F5E2F5F5F5F5F5F5F5F5F5F5F5F5F5F5F5F5E2F5F5F5F5E2E2F5F5F5F5E2F5F5F5F5F5F5F5F5F5F5F5F5F5F5F5F5E2F5F5F5F5F5F5F5F5F5F5F5F5F5F5F5F5F5F5F5F5F5F5F5F5F5F5F5F5F5F5F5F5F5F5F5F5F5F5F5F5F5F5F5F5F5F5F5F5F5F5F5F5F5F5F5F5F5F5F5F5F5F5F5F5F5F5F5F5F5F5F5F5F5
310
F5F5F5F5F5F5F5F5F5F5F5F5F5F5F5F5F5F5F5F5F5F5F5F5F5F5E2F0DCF0DCE2E2E2F5F5F5E2E2F0F0F0E2DCF5F5F5F5E2F0F0F0E2E2F0E2E2E2E2E2E2E2F5F5F5F5F5F5F5F5F5F5F5F5F5F5F5F5E2F5F5F5F5E2E2F5F5F5F5E2F5F5F5F5F5F5F5F5F5F5F5F5F5F5F5F5E2F5F5F5F5F5F5F5F5F5F5F5F5F5F5F5F5F5F5F5F5
310
F5F5F5F5F5F5F5F5F5F5F5F5F5F5F5F5F5F5F5F5F5F5F5F5F5F5F5F5F5F5F5F5F5F5F5F5F5F5F5F5F5F5F5F5F5F5F5F5F5F5F5F5F5F5F5F5F5F5F5F5F5F5F5F5F5F5F5F5F5F5F5F5F5F5F5F5F5F5F5E2F0DCF0DCF0F0E2F5F5F5E2F0DCE2E2E2DCF5F5F5F5F0F0F0F0E2E2F0E2F5E2E2E2E2E2F5F5F5F5F5F5F5F5F5F5F5F5
310
F5F5F5F5E2F5F5F5F5E2E2F5F5F5F5E2F5F5F5F5F5F5F5F5F5F5F5F5F5F5F5F5E2F5F5F5F5F5F5F5F5F5F5F5F5F5F5F5F5F5F5F5F5F5F5F5F5F5F5F5F5F5F5F5F5F5F5F5F5F5F5F5F5F5F5F5F5F5F5F5F5F5F5F5F5F5F5F5F5F5F5F5F5F5F5F5F5F5F5F5F5F5F5F5F5F5F5F5F5F5F5F5F5F5F5F5F5F5F5F5F5F5F5F5F5F5F5
310
F5F5F5F5F5F5E2DCDCDCF0E2F5F5F5F5F5F0DCDCE2E2DCF5F5F5F5F5F0F0F0DCE2F0F5E2E2E2E2F5E2F5F5F5F5F5F5F5F5F5F5F5F5F5F5F5F5E2F5F5F5F5E2E2F5F5F5F5E2F5F5F5F5F5F5F5F5F5F5F5F5F5F5F5F5E2F5F5F5F5F5F5F5F5F5F5F5F5F5F5F5F5F5F5F5F5F5F5F5F5F5F5F5F5F5F5F5F5F5F5F5F5F5F5F5F5F5
310
F5F5F5F5F5F5F5F5F5F5F5F5F5F5F5F5F5F5F5F5F5F5F5F5F5F5F5F5F5F5F5F5F5F5F5F5F5F5F5F5F5F5F5F5F5F5F5F5F5F5F5F5F5F5F5F5F5F5F5E2F0F0F0E2F5F5F5F5F5E2F0E2E2E2E2DCF5F5F5F5F5F0F0E2E2F5F5F5F5E2E2E2F5E2F5F5F5F5F5F5F5F5F5F5F5F5F5F5F5F5E2F5F5F5F5E2E2F5F5F5F5E2F5F5F5F5F5
310
F5F5F5F5F5F5F5F5F5F5F5E2F5F5F5F5F5F5F5F5F5F5F5F5F5F5F5F5F5F5F5F5F5F5F5F5F5F5F5F5F5F5F5F5F5F5F5F5F5F5F5F5F5F5F5F5F5F5F5F5F5F5F5F5F5F5F5F5F5F5F5F5F5F5F5F5F5F5F5F5F5F5F5F5F5F5F5F5F5F5F5F5F5F5F5F5F5F5F5F5F5F5F5F5F5F5F5F5F5F5F5F5F5F5E2E2F5F5F5F5F5F5F5F5E2E2F5
310
F5DCF5F5F5F5F5F5F5F0E2F5F5F5F5F5E2F5F5E2F5F5F5F5F5F5F5F5F5F5F5F5F5F5F5F5E2F5F5F5F5E2E2F5F5F5F5E2F5F5F5F5F5F5F5F5F5F5F5F5F5F5F5F5E2F5F5F5F5F5F5F5F5F5F5F5F5F5F5F5F5F5F5F5F5F5F5F5F5F5F5F5F5F5F5F5F5F5F5F5F5F5F5F5F5F5F5F5F5F5F5F5F5F5F5F5F5F5F5F5F5F5F5F5F5F5F5
310
F5F5F5F5F5F5F5F5F5F5F5F5F5F5F5F5F5F5F5F5F5F5F5F5F5F5F5F5F5F5F5F5F5F5F5F5F5F5F5F5F5F5F5F5F5F5F5F5F5F5F5F5F5F5DCF5F5F5F5F5F5F5F5F5F5F5F5F5F5F5F5F5E2F5F5F5F5F5F5F5F5F5F5F5F5F5F5F5F5E2F5F5F5F5E2E2F5F5F5F5E2F5F5F5F5F5F5F5F5F5F5F5F5F5F5F5F5E2F5F5F5F5F5F5F5F5F5
310
F5F5F5F5F5F5F5F5F5F5F5F5F5F5F5F5F5F5F5F5F5F5F5F5F5F5F5F5F5F5F5F5F5F5F5F5F5F5F5F5F5F5F5F5F5F5F5F5F5F5F5F5F5F5F5F5F5F5F5F5F5F5F5F5F5F5F5F5F5F5F5F5F5F5F5F5F5F5F5F5F5F5F5F5F5F5F5F5F5F5F5F5F5F5F5F5F5F5F5F5F5F5F5F5F5F5F5DCF5F5F5F5F5F5F5F5F5F5F5F5F5F5F5F5F5E2F5
310
F5F5F5F5F5F5F5F5F5F5F5F5F5F5F5E2F5F5F5F5E2E2F5F5F5F5E2F5F5F5F5F5F5F5F5F5F5F5F5F5F5F5F5E2F5F5F5F5F5F5F5F5F5F5F5F5F5F5F5F5F5F5F5F5F5F5F5F5F5F5F5F5F5F5F5F5F5F5F5F5F5F5F5F5F5F5F5F5F5F5F5F5F5F5F5F5F5F5F5F5F5F5F5F5F5F5F5F5F5F5F5F5F5F5F5F5F5F5F5F5F5F5F5F5F5F5F5
310
F5F5F5F5F5F5F5F5F5F5F5F5F5F5F5F5F5F5F5F5F5F5F5F5F5F5F5F5F5F5F5F5F5DCF5F5F5F5F5F5F5F5F5F5F5F5F5F5F5F5F5E2F5F5F5F5F5F5F5F5F5F5F5F5F5F5F5F5E2F5F5F5F5E2E2F5F5F5F5E2F5F5F5F5F5F5F5F5F5F5F5F5F5F5F5F5E2F5F5F5F5F5F5F5F5F5F5F5F5F5F5F5F5F5F5F5F5F5F5F5F5F5F5F5F5F5F5
310
F5F5F5F5F5F5F5F5F5F5F5F5F5F5F5F5F5F5F5F5F5F5F5F5F5F5F5F5F5F5F5F5F5F5F5F5F5F5F5F5F5F5F5F5F5F5F5F5F5F5F5F5F5F5F5F5F5F5F5F5F5F5F5F5F5F5F5F5F5F5F5F5F5F5F5F5F5F5F5F5F5F5F5F5F5F5DCF5F5F5F5F5F5F5F5F5F5F5F5F5F5F5F5F5E2F5F5F5F5F5F5F5F5F5F5F5F5F5F5F5F5E2F5F5F5F5E2
310
E2F5F5F5F5E2F5F5F5F5F5F5F5F5F5F5F5F5F5F5F5F5E2F5F5F5F5F5F5F5F5F5F5F5F5F5F5F5F5F5F5F5F5F5F5F5F5F5F5F5F5F5F5F5F5F5F5F5F5F5F5F5F5F5F5F5F5F5F5F5F5F5F5F5F5F5F5F5F5F5F5F5F5F5F5F5F5F5F5F5F5F5F5F5F5F5F5F5F5F5F5F5F5F5F5F5F5F5F5F5F5F5F5F5F5F5F5F5F5F5F5F5F5F5F5F5F5
310
F5F5F5F5F5F5F5F5F5F5F5F5DCF5F5F5F5F5F5F5F5F5F5F5F5F5F5F5F5F5E2F5F5F5F5F5F5F5F5F5F5F5F5F5F5F5F5E2F5F5F5F5E2E2F5F5F5F5E2F5F5F5F5F5F5F5F5F5F5F5F5F5F5F5F5E2F5F5F5F5F5F5F5F5F5F5F5F5F5F5F5F5F5F5F5F5F5F5F5F5F5F5F5F5F5F5F5F5F5F5F5F5F5F5F5F5F5F5F5F5F5F5F5F5F5F5F5
310
F5F5F5F5F5F5F5F5F5F5F5F5F5F5F5F5F5F5F5F5F5F5F5F5F5F5F5F5F5F5F5F5F5F5F5F5F5F5F5F5F5F5F5F5F5F5F5F5F5F5F5F5F5F5F5F5F5F5F5F5F5F5F5F5F5DCF5F5F5F5F5F5F5F5F5F5F5F5F5F5F5F5F5E2F5F5F5F5F5F5F5F5F5F5F5F5F5F5F5F5E2F5F5F5F5E2E2F5F5F5F5E2F5F5F5F5F5F5F5F5F5F5F5F5F5F5F5
310
F5E2F5F5F5F5F5F5F5F5F5F5F5F5F5F5F5F5F5F5F5F5F5F5F5F5F5F5F5F5F5F5F5F5F5F5F5F5F5F5F5F5F5F5F5F5F5F5F5F5F5F5F5F5F5F5F5F5F5F5F5F5F5F5F5F5F5F5F5F5F5F5F5F5F5F5F5F5F5F5F5F5F5F5F5F5F5F5F5F5F5F5F5F5F5F5F5F5F5F5F5F5F5F5F5F5F5F5F5F5F5F5F5F5F5F5F5F5DCF5F5F5F5F5F5F5F5
310
F5F5F5F5F5F5F5F5F5E2F5F5F5F5F5F5F5F5F5F5F5F5F5F5F5F5E2F5F5F5F5E2E2F5F5F5F5E2F5F5F5F5F5F5F5F5F5F5F5F5F5F5F5F5E2F5F5F5F5F5F5F5F5F5F5F5F5F5F5F5F5F5F5F5F5F5F5F5F5F5F5F5F5F5F5F5F5F5F5F5F5F5F5F5F5F5F5F5F5F5F5F5F5F5F5F5F5F5F5F5F5F5F5F5F5F5F5F5F5F5F5F5F5F5F5F5F5
310
F5F5F5F5F5F5F5F5F5F5F5F5F5F5F5F5F5F5F5F5F5F5F5F5F5F5F5F5F5F5F5F5F5F5F5F5F5F5F5F5F5F5E2E2DCE2F5F5F5F5F5F5F5F5F5F5F5F5F5F5F5F5E2F5F5F5F5F5F5F5F5F5F5F5F5F5F5F5F5E2F5F5F5F5E2E2F5F5F5F5E2F5F5F5F5F5F5F5F5F5F5F5F5F5F5F5F5E2F5F5F5F5F5F5F5F5F5F5F5F5F5F5F5F5F5F5F5
310
F5F5F5F5F5F5F5F5F5F5F5F5F5F5F5F5F5F5F5F5F5F5F5F5F5F5F5F5F5F5F5F5F5F5F5F5F5F5F5F5F5F5F5F5F5F5F5F5F5F5F5F5F5F5F5F5F5F5F5F5F5F5F5F5F5F5F5F5F5F5F5F5F5F5F5F5F5F5F5F5F5F5F5F5F5F5F5F5F5F5F5F5F5F5F5F5F5DCF5F5F5F5F5F5F5F5F5F5F5F5F5F5F5F5F5E2F5F5F5F5F5F5F5F5F5F5F5
310
F5F5F5F5F5E2F5F5F5F5E2E2F5F5F5F5E2F5F5F5F5F5F5F5F5F5F5F5F5F5F5F5F5E2F5F5F5F5F5F5F5F5F5F5F5F5F5F5F5F5F5F5F5F5F5F5F5F5F5F5F5F5F5F5F5F5F5F5F5F5F5F5F5F5F5F5F5F5F5F5F5F5F5F5F5F5F5F5F5F5F5F5F5F5F5F5F5F5F5F5F5F5F5F5F5F5F5F5F5F5F5F5F5F5F5F5F5F5F5F5F5F5F5F5F5F5F5
310
F5F5F5F5F5F5F5F5F5F5F5F5F5F5F5F5F5F5F5F5F5F5F5DCF5F5F5F5F5F5F5F5F5F5F5F5F5F5F5F5F5E2F5F5F5F5F5F5F5F5F5F5F5F5F5F5F5F5E2F5F5F5F5E2E2F5F5F5F5F5F5F5F5F5F5F5F5F5F5F5F5F5F5F5F5F5E2F5F5F5F5F5F5F5F5F5F5F5F5F5F5F5F5F5F5F5F5F5F5F5F5F5F5F5F5F5F5F5F5F5F5F5F5F5F5F5F5
310
F5F5F5F5F5F5F5F5F5F5F5F5F5F5F5F5F5F5F5F5F5F5F5F5F5F5F5F5F5F5F5F5F5F5F5F5F5F5F5F5F5F5F5F5F5F5F5F5F5F5F5F5F5F5F5F5F5F5F5F5F5F5F5F5F5F5F5F5F5F5F5F5F5F5F5F5DCF5F5F5F5F5F5F5F5F5F5F5F5F5F5F5F5F5E2F5F5F5F5F5F5F5F5F5F5F5F5F5F5F5F5F5F5F5F5F5E2E2F5F5F5F5F5F5F5F5F5
310
F5F5F5F5F5F5F5F5F5F5F5F5E2F5F5F5F5F5F5F5F5F5F5F5F5F5F5F5F5F5F5F5F5F5F5F5F5F5F5F5F5F5F5F5F5F5F5F5F5F5F5F5F5F5F5F5F5F5F5F5F5F5F5F5F5F5F5F5F5F5F5F5F5F5F5F5F5F5F5F5F5F5F5F5F5F5F5F5F5F5F5F5F5F5F5F5F5F5F5F5F5F5F5F5F5F5F5F5F5F5F5F5F5F5F5F5F5F5F5F5F5F5F5F5F5F5F5
310
F5F5F5F5F5F5F5F5F5F5F5F5F5F5F5F5F5F5F5F5E2F5F5F5F5F5F5F5F5F5F5F5F5F5F5F5F5F5F5F5F5F5E2E2F5F5F5F5F5F5F5F5F5F5F5F5F5F5F5F5F5F5F5F5F5E2F5F5F5F5F5F5F5F5F5F5F5F5F5F5F5F5F5F5F5F5F5F5F5F5F5F5F5F5F5F5F5F5F5F5F5F5F5F5F5F5F5F5F5F5F5F5F5F5F5F5F5F5F5F5F5F5F5F5F5F5F5
310
F5F5F5F5F5F5F5F5F5F5F5F5F5F5F5F5F5F5F5F5F5F5F5F5F5F5F5F5F5F5F5F5F5F5F5F5F5F5F5F5F5F5F5F5F5F5F5F5F5F5F5F5F5F5F5F5F5F5F5F5F5F5F5F5F5F5F5F5F5F5F5F5F5E2F5F5F5F5F5F5F5F5F5F5F5F5F5F5F5F5F5F5F5F5F5E2E2F5F5F5F5F5F5F5F5F5F5F5F5F5F5F5F5F5F5F5F5F5E2F5F5F5F5F5F5F5F5
310
F5F5F5F5F5F5F5F5F5F5F5F5F5F5F5F5F5F5F5F5F5F5F5F5F5F5F5F5F5F5F5F5F5F5F5F5F5F5F5F5F5F5F5F5F5F5F5F5F5F5F5F5F5F5F5F5F5F5F5F5F5F5F5F5F5F5F5F5F5F5F5F5F5F5F5F5F5F5F5F5F5F5F5F5F5F5F5F5F5F5F5F5F5F5F5F5F5F5F5F5F5F5F5F5F5F5F5F5F5F5F5F5F5F5F5F5F5F5F5F5F5F5F5F5F5F5E2
310
F5F5F5F5F5F5F5F5F5F5F5F5F5F5F5F5F5F5F5F5F5E2E2F5F5F5F5F5F5F5F5F5F5F5F5F5F5F5F5F5F5F5F5F5E2F5F5F5F5F5F5F5F5F5F5F5F5F5F5F5F5F5F5F5F5F5F5F5F5F5F5F5F5F5F5F5F5F5F5F5F5F5F5F5F5F5F5F5F5F5F5F5F5F5F5F5F5F5F5F5F5F5F5F5F5F5F5F5F5F5F5F5F5F5F5F5F5F5F5F5F5F5F5F5F5F5F5
310
F5F5F5F5F5F5F5F5F5F5F5F5F5F5F5F5F5F5F5F5F5F5F5F5F5F5F5F5F5F5F5F5F5F5F5F5F5F5F5F5F5F5F5F5F5F5F5F5F5F5F5F5E2F5F5F5F5F5F5F5F5F5F5F5F5F5F5F5F5F5F5F5F5F5E2E2F5F5F5F5F5F5F5F5F5F5F5F5F5F5F5F5F5F5F5F5F5E2F5F5F5F5F5F5F5F5F5F5F5F5F5F5F5F5F5F5F5F5F5F5F5F5F5F5F5F5F5
310
F5F5F5F5F5F5F5F5F5F5F5F5F5F5F5F5F5F5F5F5F5F5F5F5F5F5F5F5F5F5F5F5F5F5F5F5F5F5F5F5F5F5F5F5F5F5F5F5F5F5F5F5F5F5F5F5F5F5F5F5F5F5F5F5F5F5F5F5F5F5F5F5F5F5F5F5F5F5F5F5F5F5F5F5F5F5F5F5F5F5F5F5F5F5F5F5F5F5F5F5F5F5F5F5F5E2F5F5F5F5F5F5F5F5F5F5F5F5F5F5F5F5F5F5F5F5F5
310
E2E2F5F5F5F5F5F5F5F5F5F5F5F5F5F5F5F5F5F5F5F5F5E2F5F5F5F5F5F5F5F5F5F5F5F5F5F5F5F5F5F5F5F5F5F5F5F5F5F5F5F5F5F5F5F5F5F5F5F5F5F5F5F5F5F5F5F5F5F5F5F5F5F5F5F5F5F5F5F5F5F5F5F5F5F5F5F5F5F5F5F5F5F5F5F5F5F5F5F5F5F5F5F5F5F5F5F5F5F5F5F5F5F5F5F5F5F5F5F5F5F5F5F5F5F5F5
310
F5F5F5F5F5F5F5F5F5F5F5F5F5F5F5F5F5F5F5F5F5F5F5F5F5F5F5F5F5F5F5E2F5F5F5F5F5F5F5F5F5F5F5F5F5F5F5F5F5F5F5F5F5E2E2F5F5F5F5F5F5F5F5F5F5F5F5F5F5F5F5F5F5F5F5F5E2F5F5F5F5F5F5F5F5F5F5F5F5F5F5F5F5F5F5F5F5F5F5F5F5F5F5F5F5F5F5F5F5F5F5F5F5F5F5F5F5F5F5F5F5F5F5F5F5F5F5
310
F5F5F5F5F5F5F5F5F5F5F5F5F5F5F5F5F5F5F5F5F5F5F5F5F5F5F5F5F5F5F5F5F5F5F5F5F5F5F5F5F5F5F5F5F5F5F5F5F5F5F5F5F5F5F5F5F5F5F5F5F5F5F5F5F5F5F5F5F5F5F5F5F5F5F5F5F5F5F5F5F5F5F5F5E2F5F5F5F5F5F5F5F5F5F5F5F5F5F5F5F5F5F5F5F5F5E2E2F5F5F5F5F5F5F5F5F5F5F5F5F5F5F5F5F5F5F5
310
F5F5E2F5F5F5F5F5F5F5F5F5F5F5F5F5F5F5F5F5F5F5F5F5F5F5F5F5F5F5F5F5F5F5F5F5F5F5F5F5F5F5F5F5F5F5F5F5F5F5F5F5F5F5F5F5F5F5F5F5F5F5F5F5F5F5F5F5F5F5F5F5F5F5F5F5F5F5F5F5F5F5F5F5F5F5F5F5F5F5F5F5F5F5F5F5F5F5F5F5F5F5F5F5F5F5F5F5F5F5F5F5F5F5F5F5F5F5F5F5F5F5F5F5F5F5F5
310
F5F5F5F5F5F5F5F5F5F5E2F5F5F5F5F5F5F5F5F5F5F5F5F5F5F5F5F5F5F5F5F5E2E2F5F5F5F5E2F5F5F5F5F5F5F5F5F5F5F5F5F5F5F5F5E2F5F5F5F5F5F5F5F5F5F5F5F5F5F5F5F5F5F5F5F5F5F5F5F5F5F5F5F5F5F5F5F5F5F5F5F5F5F5F5F5F5F5F5F5F5F5F5F5F5F5F5F5F5F5F5F5F5F5F5F5F5F5F5F5F5F5F5F5F5F5F5
310
F5F5F5F5F5F5F5F5F5F5F5F5F5F5F5F5F5F5F5F5F5F5F5F5F5F5F5F5F5F5F5F5F5F5F5F5F5F5F5F5F5F5F5F5F5F5F5F5F5F5F5F5F5F5F5F5F5F5F5F5F5F5F5E2F5F5F5F5F5F5F5F5F5F5F5F5F5F5F5F5E2F5F5F5F5E2E2F5F5F5F5E2F5F5F5F5F5F5F5F5F5F5F5F5F5F5F5F5E2F5F5F5F5F5F5F5F5F5F5F5F5F5F5F5F5F5F5
310
F5F5F5F5F5F5F5F5F5F5F5F5F5F5F5F5F5F5F5F5F5F5F5F5F5F5F5F5F5F5F5F5F5F5F5F5F5F5F5F5F5F5F5F5F5F5F5F5F5F5F5F5F5F5F5F5F5F5F5F5F5F5F5F5F5F5F5F5F5F5F5F5F5F5F5F5F5F5F5F5F5F5F5F5F5F5F5F5F5F5F5F5F5F5F5F5F5F5F5F5F5F5F5F5F5F5F5F5F5F5F5F5F5F5F5F5E2F5F5F5F5F5F5F5F5F5F5
310
F5F5F5F5F5F5E2F5F5F5F5E2E2F5F5F5F5E2F5F5F5F5F5F5F5F5F5F5F5F5F5F5F5F5E2F5F5F5F5F5F5F5F5F5F5F5F5F5F5F5F5F5F5F5F5F5F5F5F5F5F5F5F5F5F5F5F5F5F5F5F5F5F5F5F5F5F5F5F5F5F5F5F5F5F5F5F5F5F5F5F5F5F5F5F5F5F5F5F5F5F5F5F5F5F5F5F5F5F5F5F5F5F5F5F5F5F5F5F5F5F5F5F5F5F5F5F5
310
F5F5F5F5F5F5F5F5F5F5F5F5F5F5F5F5F5F5F5F5F5F5F5F5F5F5F5F5F5F5F5F5F5F5F5F5F5F5F5F5F5F5E2F5F5F5F5F5F5F5F5F5F5F5F5F5F5F5F5E2F5F5F5F5E2E2F5F5F5F5E2F5F5F5F5F5F5F5F5F5F5F5F5F5F5F5F5E2F5F5F5F5F5F5F5F5F5F5F5F5F5F5F5F5F5F5F5F5F5F5F5F5F5F5F5F5F5F5F5F5F5F5F5F5F5F5F5
310
F5F5F5F5F5F5F5F5F5F5F5F5F5F5F5F5F5F5F5F5F5F5F5F5F5F5F5F5F5F5F5F5F5F5F5F5F5F5F5F5F5F5F5F5F5F5F5F5F5F5F5F5F5F5F5F5F5F5F5F5F5F5F5F5F5F5F5F5F5F5F5F5F5F5F5F5F5F5F5F5F5F5F5F5F5F5F5F5F5F5F5F5F5F5F5E2F5F5F5F5F5F5F5F5F5F5F5F5F5F5F5F5E2F5F5F5F5E2E2F5F5F5F5E2F5F5F5
310
F5F5F5F5F5F5F5F5F5F5F5F5F5E2F5F5F5F5F5F5F5F5F5F5F5F5F5F5F5F5F5F5F5F5F5F5F5F5F5F5F5F5F5F5F5F5F5F5F5F5F5F5F5F5F5F5F5F5F5F5F5F5F5F5F5F5F5F5F5F5F5F5F5F5F5F5F5F5F5F5F5F5F5F5F5F5F5F5F5F5F5F5F5F5F5F5F5F5F5F5F5F5F5F5F5F5F5F5F5F5F5F5F5F5F5F5F5F5F5F5F5F5F5F5F5F5F5
310
F5F5F5F5F5F5F5F5F5F5F5F5F5F5F5F5F5F5F5F5F5E2F5F5F5F5F5F5F5F5F5F5F5F5F5F5F5F5E2F5F5F5F5E2E2F5F5F5F5E2F5F5F5F5F5F5F5F5F5F5F5F5F5F5F5F5E2F5F5F5F5F5F5F5F5F5F5F5F5F5F5F5F5F5F5F5F5F5F5F5F5F5F5F5F5F5F5F5F5F5F5F5F5F5F5F5F5F5F5F5F5F5F5F5F5F5F5F5F5F5F5F5F5F5F5F5F5
310
F5F5F5F5F5F5F5F5F5F5F5F5F5F5F5F5F5F5F5F5F5F5F5F5F5F5F5F5F5F5F5F5F5F5F5F5F5F5F5F5F5F5F5F5F5F5F5F5F5F5F5F5F5F5F5F5F5F5F5F5F5F5F5F5F5F5F5F5F5F5F5F5F5F5E2F5F5F5F5F5F5F5F5F5F5F5F5F5F5F5F5E2F5F5F5F5E2E2F5F5F5F5E2F5F5F5F5F5F5F5F5F5F5F5F5F5F5F5F5E2F5F5F5F5F5F5F5
310
F5F5F5F5F5F5F5F5F5F5F5F5F5F5F5F5F5F5F5F5F5F5F5F5F5F5F5F5F5F5F5F5F5F5F5F5F5F5F5F5F5F5F5F5F5F5F5F5F5F5F5F5F5F5F5F5F5F5F5F5F5F5F5F5F5F5F5F5F5F5F5F5F5F5F5F5F5F5F5F5F5F5F5F5F5F5F5F5F5F5F5F5F5F5F5F5F5F5F5F5F5F5F5F5F5F5F5F5F5F5F5F5F5F5F5F5F5F5F5F5F5F5F5F5F5F5F5
310
E2F5F5F5F5F5F5F5F5F5F5F5F5F5F5F5F5E2F5F5F5F5E2E2F5F5F5F5E2F5F5F5F5F5F5F5F5F5F5F5F5F5F5F5F5E2F5F5F5F5F5F5F5F5F5F5F5F5F5F5F5F5F5F5F5F5F5F5F5F5F5F5F5F5F5F5F5F5F5F5F5F5F5F5F5F5F5F5F5F5F5F5F5F5F5F5F5F5F5F5F5F5F5F5F5F5F5F5F5F5F5F5F5F5F5F5F5F5F5F5F5F5F5F5F5F5F5
310
F5F5F5F5F5F5F5F5F5F5F5F5F5F5F5F5F5F5F5F5F5F5F5F5F5F5F5F5F5F5F5F5F5F5F5F5F5F5F5F5F5F5F5F5F5F5F5F5F5F5F5F5F5E2F5F5F5F5F5F5F5F5F5F5F5F5F5F5F5F5E2F5F5F5F5E2E2F5F5F5F5E2F5F5F5F5F5F5F5F5F5F5F5F5F5F5F5F5E2F5F5F5F5F5F5F5F5F5F5F5F5F5F5F5F5F5F5F5F5F5F5F5F5F5F5F5F5
310
F5F5F5F5F5F5F5F5F5F5F5F5F5F5F5F5F5F5F5F5F5F5F5F5F5F5F5F5F5F5F5F5F5F5F5F5F5F5F5F5F5F5F5F5F5F5F5F5F5F5F5F5F5F5F5F5F5F5F5F5F5F5F5F5F5F5F5F5F5F5F5F5F5F5F5F5F5F5F5F5F5F5F5F5F5F5F5F5F5F5F5F5F5F5F5F5F5F5F5F5F5F5F5F5F5F5E2F5F5F5F5F5F5F5F5F5F5F5F5F5F5F5F5E2F5F5F5
310
F5E2E2F5F5F5F5E2F5F5F5F5F5F5F5F5F5F5F5F5F5F5F5F5E2F5F5F5F5F5F5F5F5F5F5F5F5F5F5F5F5F5F5F5F5F5F5F5F5F5F5F5F5F5F5F5F5F5F5F5F5F5F5F5F5F5F5F5F5F5F5F5F5F5F5F5F5F5F5F5F5F5F5F5F5F5F5F5F5F5F5F5F5F5F5F5F5F5F5F5F5F5F5F5F5F5F5F5F5F5F5F5F5F5F5F5F5F5F5F5F5F5F5F5F5F5F5
310
F5F5F5F5F5F5F5F5F5F5F5F5F5F5F5F5F5F5F5F5F5F5F5F5F5F5F5F5F5F5F5F5E2F5F5F5F5F5F5F5F5F5F5F5F5F5F5F5F5E2F5F5F5F5E2E2F5F5F5F5E2F5F5F5F5F5F5F5F5F5F5F5F5F5F5F5F5E2F5F5F5F5F5F5F5F5F5F5F5F5F5F5F5F5F5F5F5F5F5F5F5F5F5F5F5F5F5F5F5F5F5F5F5F5F5F5F5F5F5F5F5F5F5F5F5F5F5
310
F5F5F5F5F5F5F5F5F5F5F5F5F5F5F5F5F5F5F5F5F5F5F5F5F5F5F5F5F5F5F5F5F5F5F5F5F5F5F5F5F5F5F5F5F5F5F5F5F5F5F5F5F5F5F5F5F5F5F5F5F5F5F5F5F5F5F5F5F5F5F5F5F5F5F5F5F5F5F5F5F5F5F5F5F5E2F5F5F5F5F5F5F5F5F5F5F5F5F5F5F5F5E2F5F5F5F5E2E2F5F5F5F5E2F5F5F5F5F5F5F5F5F5F5F5F5F5
310
F5F5F5E2F5F5F5F5F5F5F5F5F5F5F5F5F5F5F5F5F5F5F5F5F5F5F5F5F5F5F5F5F5F5F5F5F5F5F5F5F5F5F5F5F5F5F5F5F5F5F5F5F5F5F5F5F5F5F5F5F5F5F5F5F5F5F5F5F5F5F5F5F5F5F5F5F5F5F5F5F5F5F5F5F5F5F5F5F5F5F5F5F5F5F5F5F5F5F5F5F5F5F5F5F5F5F5F5F5F5F5F5F5F5F5F5F5F5F5F5F5F5F5F5F5F5F5
310
F5F5F5F5F5F5F5F5F5F5F5E2F5F5F5F5F5F5F5F5F5F5F5F5F5F5F5F5E2F5F5F5F5E2E2F5F5F5F5E2F5F5F5F5F5F5F5F5F5F5F5F5F5F5F5F5E2F5F5F5F5F5F5F5F5F5F5F5F5F5F5F5F5F5F5F5F5F5F5F5F5F5F5F5F5F5F5F5F5F5F5F5F5F5F5F5F5F5F5F5F5F5F5F5F5F5F5F5F5F5F5F5F5F5F5F5F5F5F5F5F5F5F5F5F5F5F5
310
F5F5F5F5F5F5F5F5F5F5F5F5F5F5F5F5F5F5F5F5F5F5F5F5F5F5F5F5F5F5F5F5F5F5F5F5F5F5F5F5F5F5F5F5F5F5F5F5F5F5F5F5F5F5F5F5F5F5F5F5F5F5F5F5E2F5F5F5F5F5F5F5F5F5F5F5F5F5F5F5F5E2F5F5F5F5E2E2F5F5F5F5E2F5F5F5F5F5F5F5F5F5F5F5F5F5F5F5F5E2F5F5F5F5F5F5F5F5F5F5F5F5F5F5F5F5F5
310
F5F5F5F5F5F5F5F5F5F5F5F5F5F5F5F5F5F5F5F5F5F5F5F5F5F5F5F5F5F5F5F5F5F5F5F5F5F5F5F5F5F5F5F5F5F5F5F5F5F5F5F5F5F5F5F5F5F5F5F5F5F5F5F5F5F5F5F5F5F5F5F5F5F5F5F5F5F5F5F5F5F5F5F5F5F5F5F5F5F5F5F5F5F5F5F5F5F5F5F5F5F5F5F5F5F5F5F5F5F5F5F5F5F5F5F5F5E2F5F5F5F5F5F5F5F5F5
310
F5F5F5F5F5F5F5E2F5F5F5F5E2E2F5F5F5F5E2F5F5F5F5F5F5F5F5F5F5F5F5F5F5F5F5E2F5F5F5F5F5F5F5F5F5F5F5F5F5F5F5F5F5F5F5F5F5F5F5F5F5F5F5F5F5F5F5F5F5F5F5F5F5F5F5F5F5F5F5F5F5F5F5F5F5F5F5F5F5F5F5F5F5F5F5F5F5F5F5F5F5F5F5F5F5F5F5F5F5F5F5F5F5F5F5F5F5F5F5F5F5F5F5F5F5F5F5
310
F5F5F5F5F5F5F5F5F5F5F5F5F5F5F5F5F5F5F5F5F5F5F5F5F5F5F5F5F5F5F5F5F5F5F5F5F5F5F5F5F5F5F5E2F5F5F5F5F5F5F5F5F5F5F5F5F5F5F5F5E2F5F5F5F5E2E2F5F5F5F5E2F5F5F5F5F5F5F5F5F5F5F5F5F5F5F5F5E2F5F5F5F5F5F5F5F5F5F5F5F5F5F5F5F5F5F5F5F5F5F5F5F5F5F5F5F5F5F5F5F5F5F5F5F5F5F5
310
F5F5F5F5F5F5F5F5F5F5F5F5F5F5F5F5F5F5F5F5F5F5F5F5F5F5F5F5F5F5F5F5F5F5F5F5F5F5F5F5F5F5F5F5F5F5F5F5F5F5F5F5F5F5F5F5F5F5F5F5F5F5F5F5F5F5F5F5F5F5F5F5F5F5F5F5F5F5F5F5F5F5F5F5F5F5F5F5F5F5F5F5F5F5F5F5E2F5F5F5F5F5F5F5F5F5F5F5F5F5F5F5F5E2F5F5F5F5E2E2F5F5F5F5E2F5F5
310
F5F5F5F5F5F5F5F5F5F5F5F5F5F5E2F5F5F5F5F5F5F5F5F5F5F5F5F5F5F5F5F5F5F5F5F5F5F5F5F5F5F5F5F5F5F5F5F5F5F5F5F5F5F5F5F5F5F5F5F5F5F5F5F5F5F5F5F5F5F5F5F5F5F5F5F5F5F5F5F5F5F5F5F5F5F5F5F5F5F5F5F5F5F5F5F5F5F5F5F5F5F5F5F5F5F5F5F5F5F5F5F5F5F5F5F5F5F5F5F5F5F5F5F5F5F5F5
310
F5F5F5F5F5F5F5F5F5F5F5F5F5F5F5F5F5F5F5F5F5F5E2F5F5F5F5F5F5F5F5F5F5F5F5F5F5F5F5E2F5F5F5F5E2E2F5F5F5F5F5F5F5F5F5F5F5F5F5F5F5F5F5F5F5F5F5E2F5F5F5F5F5F5F5F5F5F5F5F5F5F5F5F5F5F5F5F5F5F5F5F5F5F5F5F5F5F5F5F5F5F5F5F5F5F5F5F5F5F5F5F5F5F5F5F5F5F5F5F5F5F5F5F5F5F5F5
310
F5F5F5F5F5F5F5F5F5F5F5F5F5F5F5F5F5F5F5F5F5F5F5F5F5F5F5F5F5F5F5F5F5F5F5F5F5F5F5F5F5F5F5F5F5F5F5F5F5F5F5F5F5F5F5F5F5F5F5F5F5F5F5F5F5F5F5F5F5F5F5F5F5F5F5E2F5F5F5F5F5F5F5F5F5F5F5F5F5F5F5F5F5F5F5F5F5E2E2F5F5F5F5F5F5F5F5F5F5F5F5F5F5F5F5F5F5F5F5F5E2F5F5F5F5F5F5
310
F5F5F5F5F5F5F5F5F5F5F5F5F5F5F5F5F5F5F5F5F5F5F5F5F5F5F5F5F5F5F5F5F5F5F5F5F5F5F5F5F5F5F5F5F5F5F5F5F5F5F5F5F5F5F5F5F5F5F5F5F5F5F5F5F5F5F5F5F5F5F5F5F5F5F5F5F5F5F5F5F5F5F5F5F5F5F5F5F5F5F5F5F5F5F5F5F5F5F5F5F5F5F5F5F5F5F5F5F5F5F5F5F5F5F5F5F5F5F5F5F5F5F5F5F5F5F5
310
F5E2F5F5F5F5F5F5F5F5F5F5F5F5F5F5F5F5F5F5F5F5F5E2E2F5F5F5F5F5F5F5F5F5F5F5F5F5F5F5F5F5F5F5F5F5E2F5F5F5F5F5F5F5F5F5F5F5F5F5F5F5F5F5F5F5F5F5F5F5F5F5F5F5F5F5F5F5F5F5F5F5F5F5F5F5F5F5F5F5F5F5F5F5F5F5F5F5F5F5F5F5F5F5F5F5F5F5F5F5F5F5F5F5F5F5F5F5F5F5F5F5F5F5F5F5F5
310
F5F5F5F5F5F5F5F5F5F5F5F5F5F5F5F5F5F5F5F5F5F5F5F5F5F5F5F5F5F5F5F5F5F5F5F5F5F5F5F5F5F5F5F5F5F5F5F5F5F5F5F5F5F5E2F5F5F5F5F5F5F5F5F5F5F5F5F5F5F5F5F5F5F5F5F5E2E2F5F5F5F5F5F5F5F5F5F5F5F5F5F5F5F5F5F5F5F5F5E2F5F5F5F5F5F5F5F5F5F5F5F5F5F5F5F5F5F5F5F5F5F5F5F5F5F5F5
310
F5F5F5F5F5F5F5F5F5F5F5F5F5F5F5F5F5F5F5F5F5F5F5F5F5F5F5F5F5F5F5F5F5F5F5F5F5F5F5F5F5F5F5F5F5F5F5F5F5F5F5F5F5F5F5F5F5F5F5F5F5F5F5F5F5F5F5F5F5F5F5F5F5F5F5F5F5F5F5F5F5F5F5F5F5F5F5F5F5F5F5F5F5F5F5F5F5F5F5F5F5F5F5F5F5F5F5E2F5F5F5F5F5F5F5F5F5F5F5F5F5F5F5F5F5F5F5
310
F5F5E2E2F5F5F5F5F5F5F5F5F5F5F5F5F5F5F5F5F5F5F5F5F5E2F5F5F5F5F5F5F5F5F5F5F5F5F5F5F5F5F5F5F5F5F5F5F5F5F5F5F5F5F5F5F5F5F5F5F5F5F5F5F5F5F5F5F5F5F5F5F5F5F5F5F5F5F5F5F5F5F5F5F5F5F5F5F5F5F5F5F5F5F5F5F5F5F5F5F5F5F5F5F5F5F5F5F5F5F5F5F5F5F5F5F5F5F5F5F5F5F5F5F5F5F5
310
F5F5F5F5F5F5F5F5F5F5F5F5F5F5F5F5F5F5F5F5F5F5F5F5F5F5F5F5F5F5F5F5F5E2F5F5F5F5F5F5F5F5F5F5F5F5F5F5F5F5F5F5F5F5F5E2E2F5F5F5F5F5F5F5F5F5F5F5F5F5F5F5F5F5F5F5F5F5E2F5F5F5F5F5F5F5F5F5F5F5F5F5F5F5F5F5F5F5F5F5F5F5F5F5F5F5F5F5F5F5F5F5F5F5F5F5F5F5F5F5F5F5F5F5F5F5F5
310
F5F5F5F5F5F5F5F5F5F5F5F5F5F5F5F5F5F5F5F5F5F5F5F5F5F5F5F5F5F5F5F5F5F5F5F5F5F5F5F5F5F5F5F5F5F5F5F5F5F5F5F5F5F5F5F5F5F5F5F5F5F5F5F5F5F5F5F5F5F5F5F5F5F5F5F5F5F5F5F5F5F5F5F5F5F5E2F5F5F5F5F5F5F5F5F5F5F5F5F5F5F5F5F5F5F5F5F5E2E2F5F5F5F5F5F5F5F5F5F5F5F5F5F5F5F5F5
310
F5F5F5F5E2F5F5F5F5F5F5F5F5F5F5F5F5F5F5F5F5F5F5F5F5F5F5F5F5F5F5F5F5F5F5F5F5F5F5F5F5F5F5F5F5F5F5F5F5F5F5F5F5F5F5F5F5F5F5F5F5F5F5F5F5F5F5F5F5F5F5F5F5F5F5F5F5F5F5F5F5F5F5F5F5F5F5F5F5F5F5F5F5F5F5F5F5F5F5F5F5F5F5F5F5F5F5F5F5F5F5F5F5F5F5F5F5F5F5F5F5F5F5F5F5F5F5
310
F5F5F5F5F5F5F5F5F5F5F5F5E2F5F5F5F5F5F5F5F5F5F5F5F5F5F5F5F5F5F5F5F5F5E2E2F5F5F5F5F5F5F5F5F5F5F5F5F5F5F5F5F5F5F5F5F5E2F5F5F5F5F5F5F5F5F5F5F5F5F5F5F5F5F5F5F5F5F5F5F5F5F5F5F5F5F5F5F5F5F5F5F5F5F5F5F5F5F5F5F5F5F5F5F5F5F5F5F5F5F5F5F5F5F5F5F5F5F5F5F5F5F5F5F5F5F5
310
F5F5F5F5F5F5F5F5F5F5F5F5F5F5F5F5F5F5F5F5F5F5F5F5F5F5F5F5F5F5F5F5F5F5F5F5F5F5F5F5F5F5F5F5F5F5F5F5F5F5F5F5F5F5F5F5F5F5F5F5F5F5F5F5F5E2F5F5F5F5F5F5F5F5F5F5F5F5F5F5F5F5F5F5F5F5F5E2E2F5F5F5F5F5F5F5F5F5F5F5F5F5F5F5F5F5F5F5F5F5E2F5F5F5F5F5F5F5F5F5F5F5F5F5F5F5F5
310
F5F5F5F5F5F5F5F5F5F5F5F5F5F5F5F5F5F5F5F5F5F5F5F5F5F5F5F5F5F5F5F5F5F5F5F5F5F5F5F5F5F5F5F5F5F5F5F5F5F5F5F5F5F5F5F5F5F5F5F5F5F5F5F5F5F5F5F5F5F5F5F5F5F5F5F5F5F5F5F5F5F5F5F5F5F5F5F5F5F5F5F5F5F5F5F5F5F5F5F5F5F5F5F5F5F5F5F5F5F5F5F5F5F5F5F5F5F5E2F5F5F5F5F5F5F5F5
310
F5F5F5F5F5F5F5F5F5F5F5F5F5E2E2F5F5F5F5E2F5F5F5F5F5F5F5F5F5F5F5F5F5F5F5F5E2F5F5F5F5F5F5F5F5F5F5F5F5F5F5F5F5F5F5F5F5F5F5F5F5F5F5F5F5F5F5F5F5F5F5F5F5F5F5F5F5F5F5F5F5F5F5F5F5F5F5F5F5F5F5F5F5F5F5F5F5F5F5F5F5F5F5F5F5F5F5F5F5F5F5F5F5F5F5F5F5F5F5F5F5F5F5F5F5F5F5
310
F5F5F5F5F5F5F5F5F5F5F5F5F5F5F5F5F5F5F5F5F5F5F5F5F5F5F5F5F5F5F5F5F5F5F5F5F5F5F5F5F5F5F5F5E2F5F5F5F5F5F5F5F5F5F5F5F5F5F5F5F5E2F5F5F5F5E2E2F5F5F5F5E2F5F5F5F5F5F5F5F5F5F5F5F5F5F5F5F5E2F5F5F5F5F5F5F5F5F5F5F5F5F5F5F5F5F5F5F5F5F5F5F5F5F5F5F5F5F5F5F5F5F5F5F5F5F5
310
F5F5F5F5F5F5F5F5F5F5F5F5F5F5F5F5F5F5F5F5F5F5F5F5F5F5F5F5F5F5F5F5F5F5F5F5F5F5F5F5F5F5F5F5F5F5F5F5F5F5F5F5F5F5F5F5F5F5F5F5F5F5F5F5F5F5F5F5F5F5F5F5F5F5F5F5F5F5F5F5F5F5F5F5F5F5F5F5F5F5F5F5F5F5F5F5F5E2F5F5F5F5F5F5F5F5F5F5F5F5F5F5F5F5E2F5F5F5F5E2E2F5F5F5F5E2F5
310
F5F5F5F5F5F5F5F5F5F5F5F5F5F5F5E2F5F5F5F5F5F5F5F5F5F5F5F5F5F5F5F5F5F5F5F5F5F5F5F5F5F5F5F5F5F5F5F5F5F5F5F5F5F5F5F5F5F5F5F5F5F5F5F5F5F5F5F5F5F5F5F5F5F5F5F5F5F5F5F5F5F5F5F5F5F5F5F5F5F5F5F5F5F5F5F5F5F5F5F5F5F5F5F5F5F5F5F5F5F5F5F5F5F5F5F5F5F5F5F5F5F5F5F5F5F5F5
310
F5F5F5F5F5F5F5F5F5F5F5F5F5F5F5F5F5F5F5F5F5F5F5E2F5F5F5F5F5F5F5F5F5F5F5F5F5F5F5F5E2F5F5F5F5E2E2F5F5F5F5E2F5F5F5F5F5F5F5F5F5F5F5F5F5F5F5F5E2F5F5F5F5F5F5F5F5F5F5F5F5F5F5F5F5F5F5F5F5F5F5F5F5F5F5F5F5F5F5F5F5F5F5F5F5F5F5F5F5F5F5F5F5F5F5F5F5F5F5F5F5F5F5F5F5F5F5
310
F5F5F5F5F5F5F5F5F5F5F5F5F5F5F5F5F5F5F5F5F5F5F5F5F5F5F5F5F5F5F5F5F5F5F5F5F5F5F5F5F5F5F5F5F5F5F5F5F5F5F5F5F5F5F5F5F5F5F5F5F5F5F5F5F5F5F5F5F5F5F5F5F5F5F5F5E2F5F5F5F5F5F5F5F5F5F5F5F5F5F5F5F5E2F5F5F5F5E2E2F5F5F5F5E2F5F5F5F5F5F5F5F5F5F5F5F5F5F5F5F5E2F5F5F5F5F5
310
F5F5F5F5F5F5F5F5F5F5F5F5F5F5F5F5F5F5F5F5F5F5F5F5F5F5F5F5F5F5F5F5F5F5F5F5F5F5F5F5F5F5F5F5F5F5F5F5F5F5F5F5F5F5F5F5F5F5F5F5F5F5F5F5F5F5F5F5F5F5F5F5F5F5F5F5F5F5F5F5F5F5F5F5F5F5F5F5F5F5F5F5F5F5F5F5F5F5F5F5F5F5F5F5F5F5F5F5F5F5F5F5F5F5F5F5F5F5F5F5F5F5F5F5F5F5F5
310
F5F5E2F5F5F5F5F5F5F5F5F5F5F5F5F5F5F5F5E2F5F5F5F5E2E2F5F5F5F5E2F5F5F5F5F5F5F5F5F5F5F5F5F5F5F5F5E2F5F5F5F5F5F5F5F5F5F5F5F5F5F5F5F5F5F5F5F5F5F5F5F5F5F5F5F5F5F5F5F5F5F5F5F5F5F5F5F5F5F5F5F5F5F5F5F5F5F5F5F5F5F5F5F5F5F5F5F5F5F5F5F5F5F5F5F5F5F5F5F5F5F5F5F5F5F5F5
310
F5F5F5F5F5F5F5F5F5F5F5F5F5F5F5F5F5F5F5F5F5F5F5F5F5F5F5F5F5F5F5F5F5F5F5F5F5F5F5F5F5F5F5F5F5F5F5F5F5F5F5F5F5F5F5E2F5F5F5F5F5F5F5F5F5F5F5F5F5F5F5F5E2F5F5F5F5E2E2F5F5F5F5E2F5F5F5F5F5F5F5F5F5F5F5F5F5F5F5F5E2F5F5F5F5F5F5F5F5F5F5F5F5F5F5F5F5F5F5F5F5F5F5F5F5F5F5
310
F5F5F5F5F5F5F5F5F5F5F5F5F5F5F5F5F5F5F5F5F5F5F5F5F5F5F5F5F5F5F5F5F5F5F5F5F5F5F5F5F5F5F5F5F5F5F5F5F5F5F5F5F5F5F5F5F5F5F5F5F5F5F5F5F5F5F5F5F5F5F5F5F5F5F5F5F5F5F5F5F5F5F5F5F5F5F5F5F5F5F5F5F5F5F5F5F5F5F5F5F5F5F5F5F5F5F5F5E2F5F5F5F5F5F5F5F5F5F5F5F5F5F5F5F5E2F5
310
F5F5F5E2E2F5F5F5F5E2F5F5F5F5F5F5F5F5F5F5F5F5F5F5F5F5E2F5F5F5F5F5F5F5F5F5F5F5F5F5F5F5F5F5F5F5F5F5F5F5F5F5F5F5F5F5F5F5F5F5F5F5F5F5F5F5F5F5F5F5F5F5F5F5F5F5F5F5F5F5F5F5F5F5F5F5F5F5F5F5F5F5F5F5F5F5F5F5F5F5F5F5F5F5F5F5F5F5F5F5F5F5F5F5F5F5F5F5F5F5F5F5F5F5F5F5F5
310
F5F5F5F5F5F5F5F5F5F5F5F5F5F5F5F5F5F5F5F5F5F5F5F5F5F5F5F5F5F5F5F5F5F5E2F5F5F5F5F5F5F5F5F5F5F5F5F5F5F5F5E2F5F5F5F5E2E2F5F5F5F5E2F5F5F5F5F5F5F5F5F5F5F5F5F5F5F5F5E2F5F5F5F5F5F5F5F5F5F5F5F5F5F5F5F5F5F5F5F5F5F5F5F5F5F5F5F5F5F5F5F5F5F5F5F5F5F5F5F5F5F5F5F5F5F5F5
310
F5F5F5F5F5F5F5F5F5F5F5F5F5F5F5F5F5F5F5F5F5F5F5F5F5F5F5F5F5F5F5F5F5F5F5F5F5F5F5F5F5F5F5F5F5F5F5F5F5F5F5F5F5F5F5F5F5F5F5F5F5F5F5F5F5F5F5F5F5F5F5F5F5F5F5F5F5F5F5F5F5F5F5F5F5F5F5E2F5F5F5F5F5F5F5F5F5F5F5F5F5F5F5F5E2F5F5F5F5E2E2F5F5F5F5E2F5F5F5F5F5F5F5F5F5F5F5
310
F5F5F5F5F5E2F5F5F5F5F5F5F5F5F5F5F5F5F5F5F5F5F5F5F5F5F5F5F5F5F5F5F5F5F5F5F5F5F5F5F5F5F5F5F5F5F5F5F5F5F5F5F5F5F5F5F5F5F5F5F5F5F5F5F5F5F5F5F5F5F5F5F5F5F5F5F5F5F5F5F5F5F5F5F5F5F5F5F5F5F5F5F5F5F5F5F5F5F5F5F5F5F5F5F5F5F5F5F5F5F5F5F5F5F5F5F5F5F5F5F5F5F5F5F5F5F5
310
F5F5F5F5F5F5F5F5F5F5F5F5F5E2F5F5F5F5F5F5F5F5F5F5F5F5F5F5F5F5E2F5F5F5F5E2E2F5F5F5F5E2F5F5F5F5F5F5F5F5F5F5F5F5F5F5F5F5E2F5F5F5F5F5F5F5F5F5F5F5F5F5F5F5F5F5F5F5F5F5F5F5F5F5F5F5F5F5F5F5F5F5F5F5F5F5F5F5F5F5F5F5F5F5F5F5F5F5F5F5F5F5F5F5F5F5F5F5F5F5F5F5F5F5F5F5F5
310
F5F5F5F5F5F5F5F5F5F5F5F5F5F5F5F5F5F5F5F5F5F5F5F5F5F5F5F5F5F5F5F5F5F5F5F5F5F5F5F5F5F5F5F5F5F5F5F5F5F5F5F5F5F5F5F5F5F5F5F5F5F5F5F5F5F5E2F5F5F5F5F5F5F5F5F5F5F5F5F5F5F5F5E2F5F5F5F5E2E2F5F5F5F5E2F5F5F5F5F5F5F5F5F5F5F5F5F5F5F5F5E2F5F5F5F5F5F5F5F5F5F5F5F5F5F5F5
310
F5F5F5F5F5F5F5F5F5F5F5F5F5F5F5F5F5F5F5F5F5F5F5F5F5F5F5F5F5F5F5F5F5F5F5F5F5F5F5F5F5F5F5F5F5F5F5F5F5F5F5F5F5F5F5F5F5F5F5F5F5F5F5F5F5F5F5F5F5F5F5F5F5F5F5F5F5F5F5F5F5F5F5F5F5F5F5F5F5F5F5F5F5F5F5F5F5F5F5F5F5F5F5F5F5F5F5F5F5F5F5F5F5F5F5F5F5F5F5E2F5F5F5F5F5F5F5
310
F5F5F5F5F5F5F5F5F5E2F5F5F5F5E2E2F5F5F5F5E2F5F5F5F5F5F5F5F5F5F5F5F5F5F5F5F5E2F5F5F5F5F5F5F5F5F5F5F5F5F5F5F5F5F5F5F5F5F5F5F5F5F5F5F5F5F5F5F5F5F5F5F5F5F5F5F5F5F5F5F5F5F5F5F5F5F5F5F5F5F5F5F5F5F5F5F5F5F5F5F5F5F5F5F5F5F5F5F5F5F5F5F5F5F5F5F5F5F5F5F5F5F5F5F5F5F5
310
F5F5F5F5F5F5F5F5F5F5F5F5F5F5F5F5F5F5F5F5F5F5F5F5F5F5F5F5F5F5F5F5F5F5F5F5F5F5F5F5F5F5F5F5F5E2F5F5F5F5F5F5F5F5F5F5F5F5F5F5F5F5E2F5F5F5F5E2E2F5F5F5F5E2F5F5F5F5F5F5F5F5F5F5F5F5F5F5F5F5E2F5F5F5F5F5F5F5F5F5F5F5F5F5F5F5F5F5F5F5F5F5F5F5F5F5F5F5F5F5F5F5F5F5F5F5F5
310
F5F5F5F5F5F5F5F5F5F5F5F5F5F5F5F5F5F5F5F5F5F5F5F5F5F5F5F5F5F5F5F5F5F5F5F5F5F5F5F5F5F5F5F5F5F5F5F5F5F5F5F5F5F5F5F5F5F5F5F5F5F5F5F5F5F5F5F5F5F5F5F5F5F5F5F5F5F5F5F5F5F5F5F5F5F5F5F5F5F5F5F5F5F5F5F5F5F5E2F5F5F5F5F5F5F5F5F5F5F5F5F5F5F5F5E2F5F5F5F5E2E2F5F5F5F5E2
310
F5F5F5F5F5F5F5F5F5F5F5F5F5F5F5F5E2F5F5F5F5F5F5F5F5F5F5F5F5F5F5F5F5F5F5F5F5F5F5F5F5F5F5F5F5F5F5F5F5F5F5F5F5F5F5F5F5F5F5F5F5F5F5F5F5F5F5F5F5F5F5F5F5F5F5F5F5F5F5F5F5F5F5F5F5F5F5F5F5F5F5F5F5F5F5F5F5F5F5F5F5F5F5F5F5F5F5F5F5F5F5F5F5F5F5F5F5F5F5F5F5F5F5F5F5F5F5
310
F5F5F5F5F5F5F5F5F5F5F5F5F5F5F5F5F5F5F5F5F5F5F5F5E2F5F5F5F5F5F5F5F5F5F5F5F5F5F5F5F5E2F5F5F5F5E2E2F5F5F5F5E2F5F5F5F5F5F5F5F5F5F5F5F5F5F5F5F5E2F5F5F5F5F5F5F5F5F5F5F5F5F5F5F5F5F5F5F5F5F5F5F5F5F5F5F5F5F5F5F5F5F5F5F5F5F5F5F5F5F5F5F5F5F5F5F5F5F5F5F5F5F5F5F5F5F5
310
F5F5F5F5F5F5F5F5F5F5F5F5F5F5F5F5F5F5F5F5F5F5F5F5F5F5F5F5F5F5F5F5F5F5F5F5F5F5F5F5F5F5F5F5F5F5F5F5F5F5F5F5F5F5F5F5F5F5F5F5F5F5F5F5F5F5F5F5F5F5F5F5F5F5F5F5F5E2F5F5F5F5F5F5F5F5F5F5F5F5F5F5F5F5E2F5F5F5F5E2E2F5F5F5F5E2F5F5F5F5F5F5F5F5F5F5F5F5F5F5F5F5E2F5F5F5F5
310
F5F5F5F5F5F5F5F5F5F5F5F5F5F5F5F5F5F5F5F5F5F5F5F5F5F5F5F5F5F5F5F5F5F5F5F5F5F5F5F5F5F5F5F5F5F5F5F5F5F5F5F5F5F5F5F5F5F5F5F5F5F5F5F5F5F5F5F5F5F5F5F5F5F5F5F5F5F5F5F5F5F5F5F5F5F5F5F5F5F5F5F5F5F5F5F5F5F5F5F5F5F5F5F5F5F5F5F5F5F5F5F5F5F5F5F5F5F5F5F5F5F5F5F5F5F5F5
310
F5F5F5E2F5F5F5F5F5F5F5F5F5F5F5F5F5F5F5F5E2F5F5F5F5E2E2F5F5F5F5F5F5F5F5F5F5F5F5F5F5F5F5F5F5F5F5F5E2F5F5F5F5F5F5F5F5F5F5F5F5F5F5F5F5F5F5F5F5F5F5F5F5F5F5F5F5F5F5F5F5F5F5F5F5F5F5F5F5F5F5F5F5F5F5F5F5F5F5F5F5F5F5F5F5F5F5F5F5F5F5F5F5F5F5F5F5F5F5F5F5F5F5F5F5F5F5
310
F5F5F5F5F5F5F5F5F5F5F5F5F5F5F5F5F5F5F5F5F5F5F5F5F5F5F5F5F5F5F5F5F5F5F5F5F5F5F5F5F5F5F5F5F5F5F5F5F5F5F5F5F5F5F5F5E2F5F5F5F5F5F5F5F5F5F5F5F5F5F5F5F5F5F5F5F5F5E2E2F5F5F5F5F5F5F5F5F5F5F5F5F5F5F5F5F5F5F5F5F5E2F5F5F5F5F5F5F5F5F5F5F5F5F5F5F5F5F5F5F5F5F5F5F5F5F5
310
F5F5F5F5F5F5F5F5F5F5F5F5F5F5F5F5F5F5F5F5F5F5F5F5F5F5F5F5F5F5F5F5F5F5F5F5F5F5F5F5F5F5F5F5F5F5F5F5F5F5F5F5F5F5F5F5F5F5F5F5F5F5F5F5F5F5F5F5F5F5F5F5F5F5F5F5F5F5F5F5F5F5F5F5F5F5F5F5F5F5F5F5F5F5F5F5F5F5F5F5F5F5F5F5F5F5F5F5F5E2F5F5F5F5F5F5F5F5F5F5F5F5F5F5F5F5F5
310
F5F5F5F5E2E2F5F5F5F5F5F5F5F5F5F5F5F5F5F5F5F5F5F5F5F5F5E2F5F5F5F5F5F5F5F5F5F5F5F5F5F5F5F5F5F5F5F5F5F5F5F5F5F5F5F5F5F5F5F5F5F5F5F5F5F5F5F5F5F5F5F5F5F5F5F5F5F5F5F5F5F5F5F5F5F5F5F5F5F5F5F5F5F5F5F5F5F5F5F5F5F5F5F5F5F5F5F5F5F5F5F5F5F5F5F5F5F5F5F5F5F5F5F5F5F5F5
310
F5F5F5F5F5F5F5F5F5F5F5F5F5F5F5F5F5F5F5F5F5F5F5F5F5F5F5F5F5F5F5F5F5F5F5E2F5F5F5F5F5F5F5F5F5F5F5F5F5F5F5F5F5F5F5F5F5E2E2F5F5F5F5F5F5F5F5F5F5F5F5F5F5F5F5F5F5F5F5F5E2F5F5F5F5F5F5F5F5F5F5F5F5F5F5F5F5F5F5F5F5F5F5F5F5F5F5F5F5F5F5F5F5F5F5F5F5F5F5F5F5F5F5F5F5F5F5
310
F5F5F5F5F5F5F5F5F5F5F5F5F5F5F5F5F5F5F5F5F5F5F5F5F5F5F5F5F5F5F5F5F5F5F5F5F5F5F5F5F5F5F5F5F5F5F5F5F5F5F5F5F5F5F5F5F5F5F5F5F5F5F5F5F5F5F5F5F5F5F5F5F5F5F5F5F5F5F5F5F5F5F5F5F5F5F5F5E2F5F5F5F5F5F5F5F5F5F5F5F5F5F5F5F5F5F5F5F5F5E2E2F5F5F5F5F5F5F5F5F5F5F5F5F5F5F5
310
F5F5F5F5F5F5E2E2E2E2E2E2E2E2E2E2E2E2E2E2E2E2E2E2E2E2E2E2E2E2E2E2E2E2E2E2E2E2E2E2E2E2E2E2E2E2E2E2E2E2E2E2E2E2E2E2E2E2E2E2E2E2E2E2E2E2E2E2E2E2E2E2E2E2E2E2E2E2E2E2E2E2E2E2E2E2E2E2E2E2E2E2E2E2E2E2E2E2E2E2E2E2E2E2E2E2E2E2E2E2E2E2E2E2E2E2E2E2E2E2E2E2E2E2E2E2E2
310
E2E2E2E2E2E2E2E2E2E2E2E2E2E2E2F5F5F5F5F5F5F5F5F5F5F5F5F5F5F5F5F5F5F5F5F5E2E2F5F5F5F5F5F5F5F5F5F5F5F5F5F5F5F5F5F5F5F5F5F5F5F5F5F5F5F5F5F5F5F5F5F5F5F5F5F5F5F5F5F5F5F5F5F5F5F5F5F5F5F5F5F5F5F5F5F5F5F5F5F5F5F5F5F5F5F5F5F5F5F5F5F5F5F5F5F5F5F5F5F5F5F5F5F5F5F5F5
310
F5F5F5F5F5F5F5F5F5F5F5F5F5F5F5F5F5F5F5F5F5F5F5F5F5F5F5F5F5F5F5F5F5F5F5F5F5F5F5F5F5F5F5F5F5F5F5F5F5F5F5F5F5F5F5F5F5F5F5F5F5F5F5F5F5F5F5F5F5F5F5F5F5F5F5F5F5F5F5F5F5F5F5F5F5F5F5F5F5E2E2F5F5F5F5F5F5F5F5F5F5F5F5F5F5F5F5F5F5F5F5F5F5F5F5F5F5F5F5F5F5F5F5F5F5F5F5
310
F5F5F5F5F5F5F5F5F5F5F5F5F5F5F5F5F5F5F5F5F5F5F5F5F5F5F5F5F5F5F5F5F5F5F5F5F5F5F5F5F5F5F5F5F5F5F5F5F5F5F5F5F5F5F5F5F5F5F5F5F5F5F5F5F5F5F5F5F5F5F5F5F5F5F5F5F5F5F5F5F5F5F5F5F5F5F5F5F5F5F5F5F5F5F5F5F5F5F5F5F5F5F5F5F5F5F5F5F5F5F5F5F5F5F5F5F5F5F5F5F5F5F5F5F5F5F5
310
F5F5F5F5F5F5F5F5F5F5F5F5F5F5F5E2E2F5F5F5F5F5F5F5F5F5F5F5F5F5F5F5F5F5F5F5F5F5F5F5F5F5F5F5F5F5F5F5F5F5F5F5F5F5F5F5F5F5F5F5F5F5F5F5F5F5F5F5F5F5F5F5F5F5F5F5F5F5F5F5F5F5F5F5F5F5F5F5F5F5F5F5F5F5F5F5F5F5F5F5F5F5F5F5F5F5F5F5F5F5F5F5F5F5F5F5F5F5F5F5F5F5F5F5F5F5F5
310
F5F5F5F5F5F5F5F5F5F5F5F5F5F5F5F5F5F5F5F5F5F5F5F5F5F5F5F5F5F5F5F5F5F5F5F5F5F5F5F5F5F5F5F5F5F5F5F5F5F5F5F5F5F5F5F5F5F5F5F5F5F5F5F5F5F5F5F5E2E2F5F5F5F5F5F5F5F5F5F5F5F5F5F5F5F5F5F5F5F5F5F5F5F5F5F5F5F5F5F5F5F5F5F5F5F5F5F5F5F5F5F5F5F5F5F5F5F5F5F5F5F5F5F5F5F5F5
310
F5F5F5F5F5F5F5F5F5F5F5F5F5F5F5F5F5F5F5F5F5F5F5F5F5F5F5F5F5F5F5F5F5F5F5F5F5F5F5F5F5F5F5F5F5F5F5F5F5F5F5F5F5F5F5F5F5F5F5F5F5F5F5F5F5F5F5F5F5F5F5F5F5F5F5F5F5F5F5F5F5F5F5F5F5F5F5F5F5F5F5F5F5F5F5F5F5F5F5F5F5F5F5F5F5F5F5F5F5F5F5F5F5F5F5F5F5F5F5F5F5E2E2F5F5F5F5
310
E2F5F5F5F5F5F5F5F5F5F5F5F5F5F5F5F5F5F5F5F5F5F5F5F5F5F5F5F5F5F5F5F5F5F5F5F5F5F5F5F5F5F5F5F5F5F5F5F5F5F5F5F5F5F5F5F5F5F5F5F5F5F5F5F5F5F5F5F5F5F5F5F5F5F5F5F5F5F5F5F5F5F5F5F5F5F5F5F5F5F5F5F5F5F5F5F5F5F5F5F5F5F5F5F5F5F5F5F5F5F5F5F5F5F5F5F5F5F5F5F5F5F5F5F5F5F5
310
F5F5F5F5F5F5F5F5F5F5F5F5F5F5F5F5F5F5F5F5F5F5F5F5F5F5F5F5F5F5F5F5F5F5F5F5F5F5F5F5F5F5E2F5F5F5F5E2E2F5F5F5F5E2F5F5F5F5F5F5F5F5F5F5F5F5F5F5F5F5F5F5F5F5F5F5F5F5F5F5F5F5F5F5F5F5F5F5F5F5F5F5F5F5F5F5F5F5F5F5F5F5F5F5F5F5F5F5F5F5F5F5F5F5F5F5F5F5F5F5F5F5F5F5F5F5F5
310
F5F5F5F5F5F5F5F5F5F5F5F5F5F5F5F5F5F5F5F5F5F5F5F5F5F5F5F5F5F5F5F5F5F5F5F5F5F5F5F5F5F5F5F5F5F5F5F5F5F5F5F5F5F5F5F5F5F5F5F5F5F5F5F5F5F5F5F5F5F5F5F5F5F5F5F5F5F5F5F5F5F5F5F5F5F5F5F5F5F5F5F5F5F5F5E2F5F5F5F5E2E2F5F5F5F5E2F5F5F5F5F5F5F5F5F5F5F5F5F5F5F5F5F5F5F5F5
310
F5F5F5F5F5F5F5F5F5F5F5F5F5F5F5F5F5F5F5F5F5F5F5F5F5F5F5F5F5F5F5F5F5F5F5F5F5F5F5F5F5F5F5F5F5F5F5F5F5F5F5F5F5F5F5F5F5F5F5F5F5F5F5F5F5F5F5F5F5F5F5F5F5F5F5F5F5F5F5F5F5F5F5F5F5F5F5F5F5F5F5F5F5F5F5F5F5F5F5F5F5F5F5F5F5F5F5F5F5F5F5F5F5F5F5F5F5F5F5F5F5F5F5F5F5F5F5
310
F5F5F5F5F5F5F5F5F5F5F5F5F5F5F5F5F5F5F5F5F5E2F5F5F5F5E2E2F5F5F5F5E2F5F5F5F5F5F5F5F5F5F5F5F5F5F5F5F5F5F5F5F5F5F5F5F5F5F5F5F5F5F5F5F5F5F5F5F5F5F5F5F5F5F5F5F5F5F5F5F5F5F5F5F5F5F5F5F5F5F5F5F5F5F5F5F5F5F5F5F5F5F5F5F5F5F5F5F5F5F5F5F5F5F5F5F5F5F5F5F5F5F5F5F5F5F5
310
F5F5F5F5F5F5F5F5F5F5F5F5F5F5F5F5F5F5F5F5F5F5F5F5F5F5F5F5F5F5F5F5F5F5F5F5F5F5F5F5F5F5F5F5F5F5F5F5F5F5F5F5F5F5F5F5F5F5F5F5F5F5F5F5F5F5F5F5F5F5F5F5F5F5E2F5F5F5F5E2E2F5F5F5F5E2F5F5F5F5F5F5F5F5F5F5F5F5F5F5F5F5F5F5F5F5F5F5F5F5F5F5F5F5F5F5F5F5F5F5F5F5F5F5F5F5F5
310
F5F5F5F5F5F5F5F5F5F5F5F5F5F5F5F5F5F5F5F5F5F5F5F5F5F5F5F5F5F5F5F5F5F5F5F5F5F5F5F5F5F5F5F5F5F5F5F5F5F5F5F5F5F5F5F5F5F5F5F5F5F5F5F5F5F5F5F5F5F5F5F5F5F5F5F5F5F5F5F5F5F5F5F5F5F5F5F5F5F5F5F5F5F5F5F5F5F5F5F5F5F5F5F5F5F5F5F5F5F5F5F5F5F5F5F5F5F5F5F5F5F5F5F5F5F5F5
310
E2F5F5F5F5E2E2F5F5F5F5E2F5F5F5F5F5F5F5F5F5F5F5F5F5F5F5F5F5F5F5F5F5F5F5F5F5F5F5F5F5F5F5F5F5F5F5F5F5F5F5F5F5F5F5F5F5F5F5F5F5F5F5F5F5F5F5F5F5F5F5F5F5F5F5F5F5F5F5F5F5F5F5F5F5F5F5F5F5F5F5F5F5F5F5F5F5F5F5F5F5F5F5F5F5F5F5F5F5F5F5F5F5F5F5F5F5F5F5F5F5F5F5F5F5F5F5
310
F5F5F5F5F5F5F5F5F5F5F5F5F5F5F5F5F5F5F5F5F5F5F5F5F5F5F5F5F5F5F5F5F5F5F5F5F5F5F5F5F5F5F5F5F5F5F5F5F5F5F5F5F5E2F5F5F5F5E2E2F5F5F5F5E2F5F5F5F5F5F5F5F5F5F5F5F5F5F5F5F5F5F5F5F5F5F5F5F5F5F5F5F5F5F5F5F5F5F5F5F5F5F5F5F5F5F5F5F5F5F5F5F5F5F5F5F5F5F5F5F5F5F5F5F5F5F5
310
F5F5F5F5F5F5F5F5F5F5F5F5F5F5F5F5F5F5F5F5F5F5F5F5F5F5F5F5F5F5F5F5F5F5F5F5F5F5F5F5F5F5F5F5F5F5F5F5F5F5F5F5F5F5F5F5F5F5F5F5F5F5F5F5F5F5F5F5F5F5F5F5F5F5F5F5F5F5F5F5F5F5F5F5F5F5F5F5F5F5F5F5F5F5F5F5F5F5F5F5F5F5F5F5F5F5E2F5F5F5F5E2E2F5F5F5F5E2F5F5F5F5F5F5F5F5F5
310
F5F5F5F5F5F5F5F5F5F5F5F5F5F5F5F5F5F5F5F5F5F5F5F5F5F5F5F5F5F5F5F5F5F5F5F5F5F5F5F5F5F5F5F5F5F5F5F5F5F5F5F5F5F5F5F5F5F5F5F5F5F5F5F5F5F5F5F5F5F5F5F5F5F5F5F5F5F5F5F5F5F5F5F5F5F5F5F5F5F5F5F5F5F5F5F5F5F5F5F5F5F5F5F5F5F5F5F5F5F5F5F5F5F5F5F5F5F5F5F5F5F5F5F5F5F5F5
310
F5F5F5F5F5F5F5F5F5F5F5F5F5F5F5F5F5F5F5F5F5F5F5F5F5F5F5F5F5F5F5F5E2F5F5F5F5E2E2F5F5F5F5E2E2E2E2E2E2E2E2F5F5F5F5F5F5F5F5F5E2E2E2E2E2E2E2E2E2E2E2E2E2E2E2F5F5F5F5F5F5F5F5F5E2E2E2E2E2E2E2E2E2E2E2E2E2E2E2E2F5F5F5F5F5F5F5F5E2E2E2E2E2E2E2E2E2E2E2E2E2E2E2E2F5F5F5
310
F5F5F5F5F5E2E2E2E2E2E2E2E2E2E2E2E2E2E2E2E2F5F5F5F5F5F5F5F5E2E2E2E2E2E2E2E2E2E2E2E2E2E2E2E2F5F5F5F5F5F5F5F5F5E2E2E2E2E2E2E2E2E2E2E2E2E2E2E2F5F5F5F5F5F5F5F5F5E2E2E2E2E2E2E2E2F5F5F5F5E2E2F5F5F5F5F5F5F5F5F5F5F5F5F5F5F5F5F5F5F5F5F5F5F5F5F5F5F5F5F5F5F5F5F5F5F5
310
F5F5F5F5F5F5F5F5F5F5F5F5F5F5F5F5F5F5F5F5F5F5F5F5F5F5F5F5F5F5F5F5F5F5F5F5F5F5F5F5F5F5F5F5F5F5F5F5F5F5F5F5F5F5F5F5F5F5F5F5F5F5F5F5F5F5F5F5F5F5F5F5F5F5F5F5F5F5F5F5F5F5F5F5F5F5F5F5F5F5F5F5F5F5F5F5F5F5F5F5F5F5F5F5F5F5F5F5F5F5F5F5F5F5F5F5F5F5F5F5F5F5F5F5F5F5F5
310
F5F5F5F5F5F5F5F5F5F5F5F5F5F5F5F5E2E2F5F5F5F5F5F5F5F5F5F5F5F5F5F5F5F5F5F5F5F5F5F5F5F5F5F5F5F5F5F5F5F5F5F5F5F5F5F5F5F5F5F5F5F5F5F5F5F5F5F5F5F5F5F5F5F5F5F5F5F5F5F5F5F5F5F5F5F5F5F5F5F5F5F5F5F5F5F5F5F5F5F5F5F5F5F5F5F5F5F5F5F5F5F5F5F5F5F5F5F5F5F5F5F5F5F5F5F5F5
310
F5F5F5F5F5F5F5F5F5F5F5F5F5F5F5F5F5F5F5F5F5F5F5F5F5F5F5F5F5F5F5F5F5F5F5F5F5F5F5F5F5F5F5F5F5F5F5F5F5F5F5F5F5F5F5F5F5F5F5F5F5F5F5F5F5F5F5F5F5E2E2F5F5F5F5F5F5F5F5F5F5F5F5F5F5F5F5F5F5F5F5F5F5F5F5F5F5F5F5F5F5F5F5F5F5F5F5F5F5F5F5F5F5F5F5F5F5F5F5F5F5F5F5F5F5F5F5
310
F5F5F5F5F5F5F5F5F5F5F5F5F5F5F5F5F5F5F5F5F5F5F5F5F5F5F5F5F5F5F5F5F5F5F5F5F5F5F5F5F5F5F5F5F5F5F5F5F5F5F5F5F5F5F5F5F5F5F5F5F5F5F5F5F5F5F5F5F5F5F5F5F5F5F5F5F5F5F5F5F5F5F5F5F5F5F5F5F5F5F5F5F5F5F5F5F5F5F5F5F5F5F5F5F5F5F5F5F5F5F5F5F5F5F5F5F5F5F5F5F5F5E2E2E2E2E2
310
E2E2E2E2E2E2E2E2E2E2E2E2E2E2E2E2E2E2E2E2E2E2E2E2E2E2E2E2E2E2E2E2E2E2E2E2E2E2E2E2E2E2E2E2E2E2E2E2E2E2E2E2E2E2E2E2E2E2E2E2E2E2E2E2E2E2E2E2E2E2E2E2E2E2E2E2E2E2E2E2E2E2E2E2E2E2E2E2E2E2E2E2E2E2E2E2E2E2E2E2E2E2E2E2E2E2E2E2E2E2E2E2E2E2E2E2E2E2E2E2E2E2E2E2E2E2E2
310
E2E2E2E2E2E2E2E2E2E2E2E2E2E2E2E2E2E2E2E2E2E2E2E2E2E2E2E2E2E2E2E2E2E2E2E2E2E2E2E2E2E2E2E2E2E2E2E2E2
  0
XRECORD
  5
56ED3
102
{ACAD_REACTORS
330
B5
102
}
330
B5
100
AcDbXrecord
280
     1
102
SHADEPLOT
 70
     0
102
SHADEPLOTRESLEVEL
 70
     2
102
SHADEPLOTCUSTOMDPI
 70
   300
  0
XRECORD
  5
B6
102
{ACAD_REACTORS
330
B5
102
}
330
B5
100
AcDbXrecord
280
     1
310
28000000B40000008B0000000100080000000000BC610000000000000000000000010000000000000000000000000000FFFFFF000000000000000000000000000000000000000000000000000000000000000000330000006600000099000000CC000000FF00000000330000333300006633000099330000CC330000FF3300
310
0000660000336600006666000099660000CC660000FF66000000990000339900006699000099990000CC990000FF99000000CC000033CC000066CC000099CC0000CCCC0000FFCC000000FF000033FF000066FF000099FF0000CCFF0000FFFF000000003300330033006600330099003300CC003300FF003300003333003333
310
33006633330099333300CC333300FF33330000663300336633006666330099663300CC663300FF66330000993300339933006699330099993300CC993300FF99330000CC330033CC330066CC330099CC3300CCCC3300FFCC330000FF330033FF330066FF330099FF3300CCFF3300FFFF330000006600330066006600660099
310
006600CC006600FF00660000336600333366006633660099336600CC336600FF33660000666600336666006666660099666600CC666600FF66660000996600339966006699660099996600CC996600FF99660000CC660033CC660066CC660099CC6600CCCC6600FFCC660000FF660033FF660066FF660099FF6600CCFF6600
310
FFFF660000009900330099006600990099009900CC009900FF00990000339900333399006633990099339900CC339900FF33990000669900336699006666990099669900CC669900FF66990000999900339999006699990099999900CC999900FF99990000CC990033CC990066CC990099CC9900CCCC9900FFCC990000FF99
310
0033FF990066FF990099FF9900CCFF9900FFFF99000000CC003300CC006600CC009900CC00CC00CC00FF00CC000033CC003333CC006633CC009933CC00CC33CC00FF33CC000066CC003366CC006666CC009966CC00CC66CC00FF66CC000099CC003399CC006699CC009999CC00CC99CC00FF99CC0000CCCC0033CCCC0066CC
310
CC0099CCCC00CCCCCC00FFCCCC0000FFCC0033FFCC0066FFCC0099FFCC00CCFFCC00FFFFCC000000FF003300FF006600FF009900FF00CC00FF00FF00FF000033FF003333FF006633FF009933FF00CC33FF00FF33FF000066FF003366FF006666FF009966FF00CC66FF00FF66FF000099FF003399FF006699FF009999FF00CC
310
99FF00FF99FF0000CCFF0033CCFF0066CCFF0099CCFF00CCCCFF00FFCCFF0000FFFF0033FFFF0066FFFF0099FFFF00CCFFFF00FFFFFF00000000000D0D0D001A1A1A00282828003535350043434300505050005D5D5D006B6B6B00787878008686860093939300A1A1A100AEAEAE00BBBBBB00C9C9C900D6D6D600E4E4E400
310
F1F1F100FFFFFF0000000000000000000000000000000000000000000000000000000000000000000000000000000000F5F5F5F5F5F5F5F5F5F5F5F5F5F5F5F5F5F5F5F5F5F5F5F5F5F5F5F5F5F5F5F5F5F5F5F5F5F5F5F5F5F5F5F5F5F5F5F5F5F5F5F5F5F5F5F5F5F5F5F5F5F5F5F5F5F5F5F5F5F5F5F5F5F5F5F5F5F5F5
310
F5F5F5F5F5F5F5F5F5F5F5F5F5F5F5F5F5F5F5F5F5F5F5F5F5F5F5F5F5F5F5F5F5F5F5F5F5F5F5F5F5F5F5F5F5F5F5F5F5F5F5F5F5F5F5F5F5F5F5F5F5F5F5F5F5F5F5F5F5F5F5F5F5F5F5F5F5F5F5F5F5F5F5F5F5F5F5F5F5F5F5F5F5F5F5F5F5F5F5F5F5F5E2E2E2E2E2E2E2E2E2E2E2E2E2E2E2E2E2E2E2E2E2E2E2E2E2
310
E2E2E2E2E2E2E2E2E2E2E2E2E2E2E2E2E2E2E2E2E2E2E2E2E2E2E2E2E2E2E2E2E2E2E2E2E2E2E2E2E2E2E2E2E2E2E2E2E2E2E2E2E2E2E2E2E2E2E2E2E2E2E2E2E2E2E2E2E2E2E2E2E2E2E2E2E2E2E2E2E2E2E2E2E2E2E2E2E2E2E2E2E2E2E2E2E2E2E2E2E2E2E2E2E2E2E2E2E2E2E2E2E2E2E2E2E2E2E2E2E2E2E2E2E2E2E2
310
E2E2E2E2E2E2E2E2E2E2E2E2E2E2E2E2E2E2E2E2E2E2E2E2E2E2F5F5E2E2E2E2E2E2E2E2E2E2E2E2E2E2E2E2E2E2E2E2E2E2E2E2E2E2E2E2E2E2E2E2E2E2E2E2E2E2E2E2E2E2E2E2E2E2E2E2E2E2E2E2E2E2E2E2E2E2E2E2E2E2E2E2E2E2E2E2E2E2E2E2E2E2E2E2E2E2E2E2E2E2E2E2E2E2E2E2E2E2E2E2E2E2E2E2E2E2E2
310
E2E2E2E2E2E2E2E2E2E2E2E2E2E2E2E2E2E2E2E2E2E2E2E2E2E2E2E2E2E2E2E2E2E2E2E2E2E2E2E2E2E2E2E2E2E2E2E2E2E2E2E2E2E2E2E2E2E2E2E2E2E2E2E2E2E2E2E2E2E2E2E2E2E2E2E2E2E2E2F5F5E2E2E2E2E2E2E2E2E2E2E2E2E2E2E2E2E2E2E2E2E2E2E2E2E2E2E2E2E2E2E2E2E2E2E2E2E2E2E2E2E2E2E2E2E2E2
310
E2E2E2E2E2E2E2E2E2E2E2E2E2E2E2E2E2E2E2E2E2E2E2E2E2E2E2E2E2E2E2E2E2E2E2E2E2E2E2E2E2E2E2E2E2E2E2E2E2E2E2E2E2E2E2E2E2E2E2E2E2E2E2E2E2E2E2E2E2E2E2E2E2E2E2E2E2E2E2E2E2E2E2E2E2E2E2E2E2E2E2E2E2E2E2E2E2E2E2E2E2E2E2E2E2E2E2E2E2E2E2E2E2E2E2E2E2E2E2E2E2E2E2E2E2E2E2
310
E2E2E2E2E2F5F5E2E2E2E2E2E2E2E2E2E2E2E2E2E2E2E2E2E2E2E2E2E2E2E2E2E2E2E2E2E2E2E2E2E2E2E2E2E2E2E2E2E2E2E2E2E2E2E2E2E2E2E2E2E2E2E2E2E2E2E2E2E2E2E2E2E2E2E2E2E2E2E2E2E2E2E2E2E2E2E2E2E2E2E2E2E2E2E2E2E2E2E2E2E2E2E2E2E2E2E2E2E2E2E2E2E2E2E2E2E2E2E2E2E2E2E2E2E2E2E2
310
E2E2E2E2E2E2E2E2E2E2E2E2E2E2E2E2E2E2E2E2E2E2E2E2E2E2E2E2E2E2E2E2E2E2E2E2E2E2E2E2E2E2E2E2E2E2E2E2E2E2E2E2E2E2E2E2E2E2F5F5E2E2E2F5F5F5F5F5F5F5F5E2E2E2E2E2E2E2E2E2F5F5F5F5F5F5F5F5F5F5F5F5F5F5F5F5E2E2E2E2E2E2E2E2E2F5F5F5F5F5F5F5F5F5F5F5F5F5F5F5E2E2E2E2E2E2E2
310
E2E2F5F5F5F5F5F5F5F5F5F5F5F5F5F5F5F5E2E2E2E2E2E2E2E2F5F5F5F5F5F5F5F5F5F5F5F5F5F5F5F5E2E2E2E2E2E2E2E2E2F5F5F5F5F5F5F5F5F5F5F5F5F5F5F5E2E2E2E2E2E2E2E2E2F5F5F5F5F5F5F5F5F5F5F5F5F5F5F5F5E2E2E2E2E2E2E2E2E2F5F5F5F5F5F5F5F5E2E2E2F5F5E2E2E2F5E2E2E2E2E2E2E2E2E2E2
310
E2E2E2E2E2E2E2E2E2E2E2E2E2E2E2E2E2E2E2E2E2E2E2E2E2E2E2E2E2E2E2E2E2E2E2E2E2E2E2E2E2E2E2E2E2E2E2E2E2E2E2E2E2E2E2E2E2E2E2E2E2E2E2E2E2E2E2E2E2E2E2E2E2E2E2E2E2E2E2E2E2E2E2E2E2E2E2E2E2E2E2E2E2E2E2E2E2E2E2E2E2E2E2E2E2E2E2E2E2E2E2E2E2E2E2E2E2E2E2E2E2E2E2E2E2E2E2
310
E2E2E2E2E2E2E2E2E2E2E2E2E2E2E2E2E2E2E2E2E2E2E2E2E2E2E2E2E2E2E2E2E2F5E2E2E2F5F5E2E2E2F5E2E2E2E2E2E2E2E2E2E2E2E2E2E2E2E2E2E2E2E2E2E2E2E2E2E2E2E2E2E2E2E2E2E2E2E2E2E2E2E2E2E2E2E2E2E2E2E2E2E2E2E2E2E2E2E2E2E2E2E2E2E2E2E2E2E2E2E2E2E2E2E2E2E2E2E2E2E2E2E2E2E2E2E2
310
E2E2E2E2E2E2E2E2E2E2E2E2E2E2E2E2E2E2E2E2E2E2E2E2E2E2E2E2E2E2E2E2E2E2E2E2E2E2E2E2E2E2E2E2E2E2E2E2E2E2E2E2E2E2E2E2E2E2E2E2E2E2E2E2E2E2E2E2E2E2E2E2E2E2E2E2E2E2E2E2E2E2E2E2E2E2F5E2E2E2F5F5E2E2E2F5E2E2E2E2E2E2E2E2E2E2E2E2E2E2E2E2E2E2E2E2E2E2E2E2E2E2E2E2E2E2E2
310
E2E2E2E2E2E2E2E2E2E2E2E2E2E2E2E2E2E2E2E2E2E2E2E2E2E2E2E2E2E2E2E2E2E2E2E2E2E2E2E2E2E2E2E2E2E2E2E2E2E2E2E2E2E2E2E2E2E2E2E2E2E2E2E2E2E2E2E2E2E2E2E2E2E2E2E2E2E2E2E2E2E2E2E2E2E2E2E2E2E2E2E2E2E2E2E2E2E2E2E2E2E2E2E2E2E2E2E2E2E2E2E2E2E2E2E2E2E2E2E2E2E2E2E2E2E2E2
310
E2E2E2E2E2E2E2E2E2E2E2E2F5E2E2E2F5F5E2E2E2F5E2E2E2E2E2E2E2E2E2E2E2E2E2E2E2E2E2E2E2E2E2E2E2E2E2E2E2E2E2E2E2E2E2E2E2E2E2E2E2E2E2E2E2E2E2E2E2E2E2E2E2E2E2E2E2E2E2E2E2E2E2E2E2E2E2E2E2E2E2E2E2E2E2E2E2E2E2E2E2E2E2E2E2E2E2E2E2E2E2E2E2E2E2E2E2E2E2E2E2E2E2E2E2E2E2
310
E2E2E2E2E2E2E2E2E2E2E2E2E2E2E2E2E2E2E2E2E2E2E2E2E2E2E2E2E2E2E2E2E2E2E2E2E2E2E2E2E2E2E2E2E2E2E2E2E2E2E2E2E2E2E2E2E2E2E2E2E2E2E2E2E2F5E2E2E2F5F5E2E2E2F5E2E2E2E2E2E2E2E2E2E2E2E2E2E2E2E2E2E2E2E2E2E2E2E2E2E2E2E2E2E2E2E2E2E2E2E2E2E2E2E2E2E2E2E2E2E2E2E2E2E2E2E2
310
E2E2E2E2E2E2E2E2E2E2E2E2E2E2E2E2E2E2E2E2E2E2E2E2E2E2E2E2E2E2E2E2E2E2E2E2E2E2E2E2E2E2E2E2E2E2E2E2E2E2E2E2E2E2E2E2E2E2E2E2E2E2E2E2E2E2E2E2E2E2E2E2E2E2E2E2E2E2E2E2E2E2E2E2E2E2E2E2E2E2E2E2E2E2E2E2E2E2E2E2E2E2E2E2E2E2E2E2E2E2E2E2E2E2E2E2E2E2F5E2E2E2F5F5E2E2E2
310
F5E2E2E2E2E2E2E2E2E2E2E2E2E2E2E2E2E2E2E2E2E2E2E2E2E2E2E2E2E2E2E2E2E2E2E2E2E2E2E2E2E2E2E2E2E2E2E2E2E2E2E2E2E2E2E2E2E2E2E2E2E2E2E2E2E2E2E2E2E2E2E2E2E2E2E2E2E2E2E2E2E2E2E2E2E2E2E2E2E2E2E2E2E2E2E2E2E2E2E2E2E2E2E2E2E2E2E2E2E2E2E2E2E2E2E2E2E2E2E2E2E2E2E2E2E2E2
310
E2E2E2E2E2E2E2E2E2E2E2E2E2E2E2E2E2E2E2E2E2E2E2E2E2E2E2E2E2E2E2E2E2E2E2E2E2E2E2E2E2E2E2E2F5E2E2E2F5F5E2E2E2F5E2E2E2E2E2E2E2E2E2E2E2E2E2E2E2E2E2E2E2E2E2E2E2E2E2E2E2E2E2E2E2E2E2E2E2E2E2E2E2E2E2E2E2E2E2E2E2E2E2E2E2E2E2E2E2E2E2E2E2E2E2E2E2E2E2E2E2E2E2E2E2E2E2
310
E2E2E2E2E2E2E2E2E2E2E2E2E2E2E2E2E2E2E2E2E2E2E2E2E2E2E2E2E2E2E2E2E2E2E2E2E2E2E2E2E2E2E2E2E2E2E2E2E2E2E2E2E2E2E2E2E2E2E2E2E2E2E2E2E2E2E2E2E2E2E2E2E2E2E2E2E2E2E2E2E2E2E2E2E2E2E2E2E2E2E2E2E2E2E2E2E2F5E2E2E2F5F5E2E2E2F5E2E2E2E2E2E2E2E2E2E2E2E2E2E2E2E2E2E2E2E2
310
E2E2E2E2E2E2E2E2E2E2E2E2E2E2E2E2E2E2E2E2E2E2E2E2E2E2E2E2E2E2E2E2E2E2E2E2E2E2E2E2E2E2E2E2E2E2E2E2E2E2E2E2E2E2E2E2E2E2E2E2E2E2E2E2E2E2E2E2E2E2E2E2E2E2E2E2E2E2E2E2E2E2E2E2E2E2E2E2E2E2E2E2E2E2E2E2E2E2E2E2E2E2E2E2E2E2E2E2E2E2E2E2E2E2E2E2E2E2E2E2E2E2E2E2E2E2E2
310
E2E2E2E2E2E2E2E2E2E2E2E2E2E2E2E2E2E2E2E2E2E2E2F5E2E2E2F5F5E2E2E2E2E2E2E2E2E2E2E2E2E2E2E2E2E2E2E2E2E2E2E2E2E2E2E2E2E2E2E2E2E2E2E2E2E2E2E2E2E2E2E2E2E2E2E2E2E2E2E2E2E2E2E2E2E2E2E2E2E2E2E2E2E2E2E2E2E2E2E2E2E2E2E2E2E2E2E2E2E2E2E2E2E2E2E2E2E2E2E2E2E2E2E2E2E2E2
310
E2E2E2E2E2E2E2E2E2E2E2E2E2E2E2E2E2E2E2E2E2E2E2E2E2E2E2E2E2E2E2E2E2E2E2E2E2E2E2E2E2E2E2E2E2E2E2E2E2E2E2E2E2E2E2E2E2E2E2E2E2E2E2E2E2E2E2E2E2E2E2E2E2E2E2E2E2E2E2E2F5F5E2E2E2E2E2E2E2E2E2E2E2E2E2E2E2E2E2E2E2E2E2E2E2E2E2E2E2E2E2E2E2E2E2E2E2E2E2E2E2E2E2E2E2E2E2
310
E2E2E2E2E2E2E2E2E2E2E2E2E2E2E2E2E2E2E2E2E2E2E2E2E2E2E2E2E2E2E2E2E2E2E2E2E2E2E2E2E2E2E2E2E2E2E2E2E2E2E2E2E2E2E2E2E2E2E2E2E2E2E2E2E2E2E2E2E2E2E2E2E2E2E2E2E2E2E2E2E2E2E2E2E2E2E2E2E2E2E2E2E2E2E2E2E2E2E2E2E2E2E2E2E2E2E2E2E2E2E2E2E2E2E2E2E2E2E2E2E2E2E2E2E2E2E2
310
E2E2E2E2E2E2F5F5E2E2E2E2E2E2E2E2E2E2E2E2E2E2E2E2E2E2E2E2E2E2E2E2E2E2E2E2E2E2E2E2E2E2E2E2E2E2E2E2E2E2E2E2E2E2E2E2E2E2E2E2E2E2E2E2E2E2E2E2E2E2E2E2E2E2E2E2E2E2E2E2E2E2E2E2E2E2E2E2E2E2E2E2E2E2E2E2E2E2E2E2E2E2E2E2E2E2E2E2E2E2E2E2E2E2E2E2E2E2E2E2E2E2E2E2E2E2E2
310
E2E2E2E2E2E2E2E2E2E2E2E2E2E2E2E2E2E2E2E2E2E2E2E2E2E2E2E2E2E2E2E2E2E2E2E2E2E2E2E2E2E2E2E2E2E2E2E2E2E2E2E2E2E2E2E2E2E2E2F5F5E2E2E2E2E2E2E2E2E2E2E2E2E2E2E2E2E2E2E2E2E2E2E2E2E2E2E2E2E2E2E2E2E2E2E2E2E2E2E2E2E2E2E2E2E2E2E2E2E2E2E2E2E2E2E2E2E2E2E2E2E2E2E2E2E2E2
310
E2E2E2E2E2E2E2E2E2E2E2E2E2E2E2E2E2E2E2E2E2E2E2E2E2E2E2E2E2E2E2E2E2E2E2E2E2E2E2E2E2E2E2E2E2E2E2E2E2E2E2E2E2E2E2E2E2E2E2E2E2E2E2E2E2E2E2E2E2E2E2E2E2E2E2E2E2E2E2E2E2E2E2E2E2E2E2E2E2E2E2E2E2E2E2E2E2E2E2E2E2E2E2E2E2E2E2E2E2E2E2E2F5F5E2E2E2E2E2E2E2E2E2E2E2E2E2
310
E2E2E2E2E2E2E2F5F5F5F5F5F5F5F5F5F5F5F5F5F5F5F5F5F5F5F5F5F5F5F5F5F5F5F5F5F5F5F5F5F5F5F5F5F5F5F5F5F5F5F5F5F5F5F5F5F5F5F5F5F5F5F5F5F5F5F5F5F5F5F5F5F5F5F5F5F5F5F5F5F5F5F5F5F5F5F5F5F5F5F5F5F5F5F5F5F5F5F5F5F5F5F5F5F5F5F5F5F5F5F5F5F5F5F5F5F5F5F5F5F5F5F5F5F5F5F5
310
F5F5F5F5F5F5F5F5F5F5F5F5F5F5F5F5F5F5E2E2E2E2E2E2E2E2E2E2E2E2E2E2E2E2E2E2E2E2F5F5E2E2E2E2E2E2E2E2E2E2E2E2E2E2E2E2E2E2E2E2F5E2E2E2E2E2E2E2E2E2E2E2E2E2E2E2E2E2E2E2E2E2E2E2E2E2E2E2E2E2E2E2E2E2E2E2E2E2E2E2E2E2E2E2E2E2E2E2E2E2E2E2E2E2E2E2E2E2E2E2E2E2E2E2E2E2E2
310
E2E2E2E2E2E2E2E2E2E2E2E2E2E2E2E2E2E2E2E2E2E2E2E2E2E2E2E2E2E2E2E2E2E2E2E2E2E2E2E2E2E2E2E2E2E2E2E2E2E2E2E2E2E2E2E2E2E2E2E2E2E2E2E2E2E2E2E2E2E2F5E2E2E2E2E2E2E2E2E2E2E2E2E2E2E2E2E2E2E2E2F5F5E2E2E2E2E2E2E2E2E2E2E2E2E2E2E2E2E2E2E2E2F5E2E2E2E2E2E2E2E2E2E2E2E2E2
310
E2E2E2E2E2E2E2E2E2E2E2E2E2E2E2E2E2E2E2E2E2E2E2E2E2E2E2E2E2E2E2E2E2E2E2E2E2E2E2E2E2E2E2E2E2E2E2E2E2E2E2E2E2E2E2E2E2E2E2E2E2E2E2E2E2E2E2E2E2E2E2E2E2E2E2E2E2E2E2E2E2E2E2E2E2E2E2E2E2E2E2E2E2E2E2E2E2E2E2E2E2E2E2E2E2E2E2E2E2E2E2E2E2E2E2E2E2E2E2E2E2E2E2F5E2E2E2
310
E2E2E2E2E2E2E2E2E2E2E2E2E2E2E2E2E2F5F5E2E2E2E2E2E2E2E2E2E2E2E2E2E2E2E2E2E2E2E2F5E2E2E2E2E2E2E2E2E2E2E2E2E2E2E2E2E2E2E2E2E2E2E2E2E2E2E2E2E2E2E2E2E2E2E2E2E2E2E2E2E2E2E2E2E2E2E2E2E2E2E2E2E2E2E2E2E2E2E2E2E2E2E2E2E2E2E2E2E2E2E2E2E2E2E2E2E2E2E2E2E2E2E2E2E2E2E2
310
E2E2E2E2E2E2E2E2E2E2E2E2E2E2E2E2E2E2E2E2E2E2E2E2E2E2E2E2E2E2E2E2E2E2E2E2E2E2E2E2E2E2E2E2E2E2E2E2E2F5E2E2E2E2E2E2E2E2E2E2E2E2E2E2E2E2E2E2E2E2F5F5E2E2E2E2E2E2E2E2E2E2E2E2E2E2E2E2E2E2E2E2F5E2E2E2E2E2E2E2E2E2E2E2E2E2E2E2E2E2E2E2E2E2E2E2E2E2E2E2E2E2E2E2E2E2E2
310
E2E2E2E2E2E2E2E2E2E2E2E2E2E2E2E2E2E2E2E2E2E2E2E2E2E2E2E2E2E2E2E2E2E2E2E2E2E2E2E2E2E2E2E2E2E2E2E2E2E2E2E2E2E2E2E2E2E2E2E2E2E2E2E2E2E2E2E2E2E2E2E2E2E2E2E2E2E2E2E2E2E2E2E2E2E2E2E2E2E2E2E2E2E2E2E2E2E2E2E2E2E2F5E2E2E2E2E2E2E2E2E2E2E2E2E2E2E2E2E2E2E2E2F5F5E2E2
310
E2F5E2E2E2E2E2E2E2E2E2E2E2E2E2E2E2E2F5E2E2E2E2E2E2E2E2E2E2E2E2E2E2E2E2E2E2E2E2E2E2E2E2E2E2E2E2E2E2E2E2E2E2E2E2E2E2E2E2E2E2E2E2E2E2E2E2E2E2E2E2E2E2E2E2E2E2E2E2E2E2E2E2E2E2E2E2E2E2E2E2E2E2E2E2E2E2E2E2E2E2E2E2E2E2E2E2E2E2E2E2E2E2E2E2E2E2E2E2E2E2E2E2E2E2E2E2
310
E2E2E2E2E2E2E2E2E2E2E2E2E2E2E2E2E2E2E2E2E2E2E2E2E2E2E2E2F5E2E2E2E2E2E2E2E2E2E2E2E2E2E2E2E2F5E2E2E2F5F5E2E2E2F5E2E2E2E2E2E2E2E2E2E2E2E2E2E2E2E2F5E2E2E2E2E2E2E2E2E2E2E2E2E2E2E2E2E2E2E2E2E2E2E2E2E2E2E2E2E2E2E2E2E2E2E2E2E2E2E2E2E2E2E2E2E2E2E2E2E2E2E2E2E2E2E2
310
E2E2E2E2E2E2E2E2E2E2E2E2E2E2E2E2E2E2E2E2E2E2E2E2E2E2E2E2E2E2E2E2E2E2E2E2E2E2E2E2E2E2E2E2E2E2E2E2E2E2E2E2E2E2E2E2E2E2E2E2E2E2E2E2E2E2E2E2E2E2E2E2E2E2E2E2E2E2E2E2E2F5E2E2E2E2E2E2E2E2E2E2E2E2E2E2E2E2F5E2E2E2F5F5E2E2E2F5E2E2E2E2E2E2E2E2E2E2E2E2E2E2E2E2F5E2E2
310
E2E2E2E2E2E2E2E2E2E2E2E2E2E2E2E2E2E2E2E2E2E2E2E2E2E2E2E2E2E2E2E2E2E2E2E2E2E2E2E2E2E2E2E2E2E2E2E2E2E2E2E2E2E2E2E2E2E2E2E2E2E2E2E2E2E2E2E2E2E2E2E2E2E2E2E2E2E2E2E2E2E2E2E2E2E2E2E2E2E2E2E2E2E2E2E2E2E2E2E2E2E2E2E2E2E2E2E2E2E2E2E2E2E2E2E2E2E2E2E2E2E2E2E2E2E2E2
310
E2E2E2E2E2E2E2F5E2E2E2E2E2E2E2E2E2E2E2E2E2E2E2E2F5E2E2E2F5F5E2E2E2F5E2E2E2E2E2E2E2E2E2E2E2E2E2E2E2E2F5E2E2E2E2E2E2E2E2E2E2E2E2E2E2E2E2E2E2E2E2E2E2E2E2E2E2E2E2E2E2E2E2E2E2E2E2E2E2E2E2E2E2E2E2E2E2E2E2E2E2E2E2E2E2E2E2E2E2E2E2E2E2E2E2E2E2E2E2E2E2E2E2E2E2E2E2
310
E2E2E2E2E2E2E2E2E2E2E2E2E2E2E2E2E2E2E2E2E2E2E2E2E2E2E2E2E2E2E2E2E2E2E2E2E2E2E2E2E2E2E2E2E2E2E2E2E2E2E2E2E2E2E2E2E2E2E2E2F5E2E2E2E2E2E2E2E2E2E2E2E2E2E2E2E2F5E2E2E2F5F5E2E2E2F5E2E2E2E2E2E2E2E2E2E2E2E2E2E2E2E2F5E2E2E2E2E2E2E2E2E2E2E2E2E2E2E2E2E2E2E2E2E2E2E2
310
E2E2E2E2E2E2E2E2E2E2E2E2E2E2E2E2E2E2E2E2E2E2E2E2E2E2E2E2E2E2E2E2E2E2E2E2E2E2E2E2E2E2E2E2E2E2E2E2E2E2E2E2E2E2E2E2E2E2E2E2E2E2E2E2E2E2E2E2E2E2E2E2E2E2E2E2E2E2E2E2E2E2E2E2E2E2E2E2E2E2E2E2E2E2E2E2E2E2E2E2E2E2E2E2E2E2E2E2E2E2E2E2E2F5E2E2E2E2E2E2E2E2E2E2E2E2E2
310
E2E2E2F5E2E2E2F5F5E2E2E2F5E2E2E2E2E2E2E2E2E2E2E2E2E2E2E2E2F5E2E2E2E2E2E2E2E2E2E2E2E2E2E2E2E2E2E2E2E2E2E2E2E2E2E2E2E2E2E2E2E2E2E2E2E2E2E2E2E2E2E2E2E2E2E2E2E2E2E2E2E2E2E2E2E2E2E2E2E2E2E2E2E2E2E2E2E2E2E2E2E2E2E2E2E2E2E2E2E2E2E2E2E2E2E2E2E2E2E2E2E2E2E2E2E2E2
310
E2E2E2E2E2E2E2E2E2E2E2E2E2E2E2E2E2E2E2E2E2E2E2E2E2E2E2E2E2E2E2E2E2E2E2E2E2E2E2F5E2E2E2E2E2E2E2E2E2E2E2E2E2E2E2E2F5E2E2E2F5F5E2E2E2F5E2E2E2E2E2E2E2E2E2E2E2E2E2E2E2E2F5E2E2E2E2E2E2E2E2E2E2E2E2E2E2E2E2E2E2E2E2E2E2E2E2E2E2E2E2E2E2E2E2E2E2E2E2E2E2E2E2E2E2E2E2
310
E2E2E2E2E2E2E2E2E2E2E2E2E2E2E2E2E2E2E2E2E2E2E2E2E2E2E2E2E2E2E2E2E2E2E2E2E2E2E2E2E2E2E2E2E2E2E2E2E2E2E2E2E2E2E2E2E2E2E2E2E2E2E2E2E2E2E2E2E2E2E2E2E2E2E2E2E2E2E2E2E2E2E2E2E2E2E2E2E2E2E2E2F5E2E2E2E2E2E2E2E2E2E2E2E2E2E2E2E2F5E2E2E2F5F5E2E2E2F5E2E2E2E2E2E2E2E2
310
E2E2E2E2E2E2E2E2F5E2E2E2E2E2E2E2E2E2E2E2E2E2E2E2E2E2E2E2E2E2E2E2E2E2E2E2E2E2E2E2E2E2E2E2E2E2E2E2E2E2E2E2E2E2E2E2E2E2E2E2E2E2E2E2E2E2E2E2E2E2E2E2E2E2E2E2E2E2E2E2E2E2E2E2E2E2E2E2E2E2E2E2E2E2E2E2E2E2E2E2E2E2E2E2E2E2E2E2E2E2E2E2E2E2E2E2E2E2E2E2E2E2E2E2E2E2E2
310
E2E2E2E2E2E2E2E2E2E2E2E2E2E2E2E2E2E2F5E2E2E2E2E2E2E2E2E2E2E2E2E2E2E2E2F5E2E2E2F5F5E2E2E2F5E2E2E2E2E2E2E2E2E2E2E2E2E2E2E2E2F5E2E2E2E2E2E2E2E2E2E2E2E2E2E2E2E2E2E2E2E2E2E2E2E2E2E2E2E2E2E2E2E2E2E2E2E2E2E2E2E2E2E2E2E2E2E2E2E2E2E2E2E2E2E2E2E2E2E2E2E2E2E2E2E2E2
310
E2E2E2E2E2E2E2E2E2E2E2E2E2E2E2E2E2E2E2E2E2E2E2E2E2E2E2E2E2E2E2E2E2E2E2E2E2E2E2E2E2E2E2E2E2E2E2E2E2E2E2E2E2E2E2E2E2E2E2E2E2E2E2E2E2E2E2E2E2E2E2F5E2E2E2E2E2E2E2E2E2E2E2E2E2E2E2E2F5E2E2E2F5F5E2E2E2F5E2E2E2E2E2E2E2E2E2E2E2E2E2E2E2E2F5E2E2E2E2E2E2E2E2E2E2E2E2
310
E2E2E2E2E2E2E2E2E2E2E2E2E2E2E2E2E2E2E2E2E2E2E2E2E2E2E2E2E2E2E2E2E2E2E2E2E2E2E2E2E2E2E2E2E2E2E2E2E2E2E2E2E2E2E2E2E2E2E2E2E2E2E2E2E2E2E2E2E2E2E2E2E2E2E2E2E2E2E2E2E2E2E2E2E2E2E2E2E2E2E2E2E2E2E2E2E2E2E2E2E2E2E2E2E2E2E2E2E2E2E2E2E2E2E2E2E2E2E2E2E2E2E2E2F5E2E2
310
E2E2E2E2E2E2E2E2E2E2E2E2E2E2F5E2E2E2F5F5E2E2E2F5E2E2E2E2E2E2E2E2E2E2E2E2E2E2E2E2F5E2E2E2E2E2E2E2E2E2E2E2E2E2E2E2E2E2E2E2E2E2E2E2E2E2E2E2E2E2E2E2E2E2E2E2E2E2E2E2E2E2E2E2E2E2E2E2E2E2E2E2E2E2E2E2E2E2E2E2E2E2E2E2E2E2E2E2E2E2E2E2E2E2E2E2E2E2E2E2E2E2E2E2E2E2E2
310
E2E2E2E2E2E2E2E2E2E2E2E2E2E2E2E2E2E2E2E2E2E2E2E2E2E2E2E2E2E2E2E2E2E2E2E2E2E2E2E2E2E2E2E2E2E2E2E2E2E2F5E2E2E2E2E2E2E2E2E2E2E2E2E2E2E2E2F5E2E2E2F5F5E2E2E2F5E2E2E2E2E2E2E2E2E2E2E2E2E2E2E2E2F5E2E2E2E2E2E2E2E2E2E2E2E2E2E2E2E2E2E2E2E2E2E2E2E2E2E2E2E2E2E2E2E2E2
310
E2E2E2E2E2E2E2E2E2E2E2E2E2E2E2E2E2E2E2E2E2E2E2E2E2E2E2E2E2E2E2E2E2E2E2E2E2E2E2E2E2E2E2E2E2E2E2E2E2E2E2E2E2E2E2E2E2E2E2E2E2E2E2E2E2E2E2E2E2E2E2E2E2E2E2E2E2E2E2E2E2E2E2E2E2E2E2E2E2E2E2E2E2E2E2E2E2E2E2E2E2E2E2F5E2E2E2E2E2E2E2E2E2E2E2E2E2E2E2E2F5E2E2E2F5F5E2
310
E2E2F5E2E2E2E2E2E2E2E2E2E2E2E2E2E2E2E2F5E2E2E2E2E2E2E2E2E2E2E2E2E2E2E2E2E2E2E2E2E2E2E2E2E2E2E2E2E2E2E2E2E2E2E2E2E2E2E2E2E2E2E2E2E2E2E2E2E2E2E2E2E2E2E2E2E2E2E2E2E2E2E2E2E2E2E2E2E2E2E2E2E2E2E2E2E2E2E2E2E2E2E2E2E2E2E2E2E2E2E2E2E2E2E2E2E2E2E2E2E2E2E2E2E2E2E2
310
E2E2E2E2E2E2E2E2E2E2E2E2E2E2E2E2E2E2E2E2E2E2E2E2E2E2E2E2E2F5E2E2E2E2E2E2E2E2E2E2E2E2E2E2E2E2F5E2E2E2F5F5E2E2E2F5E2E2E2E2E2E2E2E2E2E2E2E2E2E2E2E2F5E2E2E2E2E2E2E2E2E2E2E2E2E2E2E2E2E2E2E2E2E2E2E2E2E2E2E2E2E2E2E2E2E2E2E2E2E2E2E2E2E2E2E2E2E2E2E2E2E2E2E2E2E2E2
310
E2E2E2E2E2E2E2E2E2E2E2E2E2E2E2E2E2E2E2E2E2E2E2E2E2E2E2E2E2E2E2E2E2E2E2E2E2E2E2E2E2E2E2E2E2E2E2E2E2E2E2E2E2E2E2E2E2E2E2E2E2E2E2E2E2E2E2E2E2E2E2E2E2E2E2E2E2E2E2E2E2E2F5E2E2E2E2E2E2E2E2E2E2E2E2E2E2E2E2F5E2E2E2F5F5E2E2E2F5E2E2E2E2E2E2E2E2E2E2E2E2E2E2E2E2F5E2
310
E2E2E2E2E2E2E2E2E2E2E2E2E2E2E2E2E2E2E2E2E2E2E2E2E2E2E2E2E2E2E2E2E2E2E2E2E2E2E2E2E2E2E2E2E2E2E2E2E2E2E2E2E2E2E2E2E2E2E2E2E2E2E2E2E2E2E2E2E2E2E2E2E2E2E2E2E2E2E2E2E2E2E2E2E2E2E2E2E2E2E2E2E2E2E2E2E2E2E2E2E2E2E2E2E2E2E2E2E2E2E2E2E2E2E2E2E2E2E2E2E2E2E2E2E2E2E2
310
E2E2E2E2E2E2E2E2F5E2E2E2E2E2E2E2E2E2E2E2E2E2E2E2E2F5E2E2E2F5F5E2E2E2F5E2E2E2E2E2E2E2E2E2E2E2E2E2E2E2E2F5E2E2E2E2E2E2E2E2E2E2E2E2E2E2E2E2E2E2E2E2E2E2E2E2E2E2E2E2E2E2E2E2E2E2E2E2E2E2E2E2E2E2E2E2E2E2E2E2E2E2E2E2E2E2E2E2E2E2E2E2E2E2E2E2E2E2E2E2E2E2E2E2E2E2E2
310
E2E2E2E2E2E2E2E2E2E2E2E2E2E2E2E2E2E2E2E2E2E2E2E2E2E2E2E2E2E2E2E2E2E2E2E2E2E2E2E2E2E2E2E2E2E2E2E2E2E2E2E2E2E2E2E2E2E2E2E2E2F5E2E2E2E2E2E2E2E2E2E2E2E2E2E2E2E2F5E2E2E2F5F5E2E2E2F5E2E2E2E2E2E2E2E2E2E2E2E2E2E2E2E2F5E2E2E2E2E2E2E2E2E2E2E2E2E2E2E2E2E2E2E2E2E2E2
310
E2E2E2E2E2E2E2E2E2E2E2E2E2E2E2E2E2E2E2E2E2E2E2E2E2E2E2E2E2E2E2E2E2E2E2E2E2E2E2E2E2E2E2E2E2E2E2E2E2E2E2E2E2E2E2E2E2E2E2E2E2E2E2E2E2E2E2E2E2E2E2E2E2E2E2E2E2E2E2E2E2E2E2E2E2E2E2E2E2E2E2E2E2E2E2E2E2E2E2E2E2E2E2E2E2E2E2E2E2E2E2E2E2E2F5E2E2E2E2E2E2E2E2E2E2E2E2
310
E2E2E2E2F5E2E2E2F5F5E2E2E2E2E2E2E2E2E2E2E2E2E2E2E2E2E2E2E2E2F5E2E2E2E2E2E2E2E2E2E2E2E2E2E2E2E2E2E2E2E2E2E2E2E2E2E2E2E2E2E2E2E2E2E2E2E2E2E2E2E2E2E2E2E2E2E2E2E2E2E2E2E2E2E2E2E2E2E2E2E2E2E2E2E2E2E2E2E2E2E2E2E2E2E2E2E2E2E2E2E2E2E2E2E2E2E2E2E2E2E2E2E2E2E2E2E2
310
E2E2E2E2E2E2E2E2E2E2E2E2E2E2E2E2E2E2E2E2E2E2E2E2E2E2E2E2E2E2E2E2E2E2E2E2E2E2E2E2F5E2E2E2E2E2E2E2E2E2E2E2E2E2E2E2E2E2E2E2E2F5F5E2E2E2E2E2E2E2E2E2E2E2E2E2E2E2E2E2E2E2E2F5E2E2E2E2E2E2E2E2E2E2E2E2E2E2E2E2E2E2E2E2E2E2E2E2E2E2E2E2E2E2E2E2E2E2E2E2E2E2E2E2E2E2E2
310
E2E2E2E2E2E2E2E2E2E2E2E2E2E2E2E2E2E2E2E2E2E2E2E2E2E2E2E2E2E2E2E2E2E2E2E2E2E2E2E2E2E2E2E2E2E2E2E2E2E2E2E2E2E2E2E2E2E2E2E2E2E2E2E2E2E2E2E2E2E2E2E2E2E2E2E2E2E2E2E2E2E2E2E2E2E2E2E2E2E2E2E2E2F5E2E2E2E2E2E2E2E2E2E2E2E2E2E2E2E2E2E2E2E2F5F5E2E2E2E2E2E2E2E2E2E2E2
310
E2E2E2E2E2E2E2E2E2F5E2E2E2E2E2E2E2E2E2E2E2E2E2E2E2E2E2E2E2E2E2E2E2E2E2E2E2E2E2E2E2E2E2E2E2E2E2E2E2E2E2E2E2E2E2E2E2E2E2E2E2E2E2E2E2E2E2E2E2E2E2E2E2E2E2E2E2E2E2E2E2E2E2E2E2E2E2E2E2E2E2E2E2E2E2E2E2E2E2E2E2E2E2E2E2E2E2E2E2E2E2E2E2E2E2E2E2E2E2E2E2E2E2E2E2E2E2
310
E2E2E2E2E2E2E2E2E2E2E2E2E2E2E2E2E2E2E2F5E2E2E2E2E2E2E2E2E2E2E2E2E2E2E2E2E2E2E2E2F5F5E2E2E2E2E2E2E2E2E2E2E2E2E2E2E2E2E2E2E2E2F5E2E2E2E2E2E2E2E2E2E2E2E2E2E2E2E2E2E2E2E2E2E2E2E2E2E2E2E2E2E2E2E2E2E2E2E2E2E2E2E2E2E2E2E2E2E2E2E2E2E2E2E2E2E2E2E2E2E2E2E2E2E2E2E2
310
E2E2E2E2E2E2E2E2E2E2E2E2E2E2E2E2E2E2E2E2E2E2E2E2E2E2E2E2E2E2E2E2E2E2E2E2E2E2E2E2E2E2E2E2E2E2E2E2E2E2E2E2E2E2E2E2E2E2E2E2E2E2E2E2E2E2E2E2E2E2E2E2F5E2E2E2E2E2E2E2E2E2E2E2E2E2E2E2E2E2E2E2E2F5F5E2E2E2E2E2E2E2E2E2E2E2E2E2E2E2E2E2E2E2E2F5E2E2E2E2E2E2E2E2E2E2E2
310
E2E2E2E2E2E2E2E2E2E2E2E2E2E2E2E2E2E2E2E2E2E2E2E2E2E2E2E2E2E2E2E2E2E2E2E2E2E2E2E2E2E2E2E2E2E2E2E2E2E2E2E2E2E2E2E2E2E2E2E2E2E2E2E2E2E2E2E2E2E2E2E2E2E2E2E2E2E2E2E2E2E2E2E2E2E2E2E2E2E2E2E2E2E2E2E2E2E2E2E2E2E2E2E2E2E2E2E2E2E2E2E2E2E2E2E2E2E2E2E2E2E2E2E2E2F5E2
310
E2E2E2E2E2E2E2E2E2E2E2E2E2E2E2E2E2E2E2F5F5E2E2E2E2E2E2E2E2E2E2E2E2E2E2E2E2E2E2E2E2F5E2E2E2E2E2E2E2E2E2E2E2E2E2E2E2E2E2E2E2E2E2E2E2E2E2E2E2E2E2E2E2E2E2E2E2E2E2E2E2E2E2E2E2E2E2E2E2E2E2E2E2E2E2E2E2E2E2E2E2E2E2E2E2E2E2E2E2E2E2E2E2E2E2E2E2E2E2E2E2E2E2E2E2E2E2
310
E2E2E2E2E2E2E2E2E2E2E2E2E2E2E2E2E2E2E2E2E2E2E2E2E2E2E2E2E2E2E2E2E2E2E2E2E2E2E2E2E2E2E2E2E2E2E2E2E2E2E2F5E2E2E2E2E2E2E2E2E2E2E2E2E2E2E2E2E2E2E2E2F5F5E2E2E2E2E2E2E2E2E2E2E2E2E2E2E2E2E2E2E2E2F5E2E2E2E2E2E2E2E2E2E2E2E2E2E2E2E2E2E2E2E2E2E2E2E2E2E2E2E2E2E2E2E2
310
E2E2E2E2E2E2E2E2E2E2E2E2E2E2E2E2E2E2E2E2E2E2E2E2E2E2E2E2E2E2E2E2E2E2E2E2E2E2E2E2E2E2E2E2E2E2E2E2E2E2E2E2E2E2E2E2E2E2E2E2E2E2E2E2E2E2E2E2E2E2E2E2E2E2E2E2E2E2E2E2E2E2E2E2E2E2E2E2E2E2E2E2E2E2E2E2E2E2E2E2E2E2E2E2F5E2E2E2E2E2E2E2E2E2E2E2E2E2E2E2E2E2E2E2E2F5F5
310
E2E2E2E2E2E2E2E2E2E2E2E2E2E2E2E2E2E2E2E2F5E2E2E2E2E2E2E2E2E2E2E2E2E2E2E2E2E2E2E2E2E2E2E2E2E2E2E2E2E2E2E2E2E2E2E2E2E2E2E2E2E2E2E2E2E2E2E2E2E2E2E2E2E2E2E2E2E2E2E2E2E2E2E2E2E2E2E2E2E2E2E2E2E2E2E2E2E2E2E2E2E2E2E2E2E2E2E2E2E2E2E2E2E2E2E2E2E2E2E2E2E2E2E2E2E2E2
310
E2E2E2E2E2E2E2E2E2E2E2E2E2E2E2E2E2E2E2E2E2E2E2E2E2E2E2E2E2E2F5E2E2E2E2E2E2E2E2E2E2E2E2E2E2E2E2E2E2E2E2F5F5E2E2E2E2E2E2E2E2E2E2E2E2E2E2E2E2E2E2E2E2F5E2E2E2E2E2E2E2E2E2E2E2E2E2E2E2E2E2E2E2E2E2E2E2E2E2E2E2E2E2E2E2E2E2E2E2E2E2E2E2E2E2E2E2E2E2E2E2E2E2E2E2E2E2
310
E2E2E2E2E2E2E2E2E2E2E2E2E2E2E2E2E2E2E2E2E2E2E2E2E2E2E2E2E2E2E2E2E2E2E2E2E2E2E2E2E2E2E2E2E2E2E2E2E2E2E2E2E2E2E2E2E2E2E2E2E2E2E2E2E2E2E2E2E2E2E2E2E2E2E2E2E2E2E2E2E2E2E2F5E2E2E2E2E2E2E2E2E2E2E2E2E2E2E2E2E2E2E2E2F5F5E2E2E2F5E2E2E2E2E2E2E2E2E2E2E2E2E2E2E2E2F5
310
E2E2E2E2E2E2E2E2E2E2E2E2E2E2E2E2E2E2E2E2E2E2E2E2E2E2E2E2E2E2E2E2E2E2E2E2E2E2E2E2E2E2E2E2E2E2E2E2E2E2E2E2E2E2E2E2E2E2E2E2E2E2E2E2E2E2E2E2E2E2E2E2E2E2E2E2E2E2E2E2E2E2E2E2E2E2E2E2E2E2E2E2E2E2E2E2E2E2E2E2E2E2E2E2E2E2E2E2E2E2E2E2E2E2E2E2E2E2E2E2E2E2E2E2E2E2E2
310
E2E2E2E2E2E2E2E2E2F5E2E2E2E2E2E2E2E2E2E2E2E2E2E2E2E2F5E2E2E2F5F5E2E2E2F5E2E2E2E2E2E2E2E2E2E2E2E2E2E2E2E2F5E2E2E2E2E2E2E2E2E2E2E2E2E2E2E2E2E2E2E2E2E2E2E2E2E2E2E2E2E2E2E2E2E2E2E2E2E2E2E2E2E2E2E2E2E2E2E2E2E2E2E2E2E2E2E2E2E2E2E2E2E2E2E2E2E2E2E2E2E2E2E2E2E2E2
310
E2E2E2E2E2E2E2E2E2E2E2E2E2E2E2E2E2E2E2E2E2E2E2E2E2E2E2E2E2E2E2E2E2E2E2E2E2E2E2E2E2E2E2E2E2E2E2E2E2E2E2E2E2E2E2E2E2E2E2E2E2E2F5E2E2E2E2E2E2E2E2E2E2E2E2E2E2E2E2F5E2E2E2F5F5E2E2E2F5E2E2E2E2E2E2E2E2E2E2E2E2E2E2E2E2F5E2E2E2E2E2E2E2E2E2E2E2E2E2E2E2E2E2E2E2E2E2
310
E2E2E2E2E2E2E2E2E2E2E2E2E2E2E2E2E2E2E2E2E2E2E2E2E2E2E2E2E2E2E2E2E2E2E2E2E2E2E2E2E2E2E2E2E2E2E2E2E2E2E2E2E2E2E2E2E2E2E2E2E2E2E2E2E2E2E2E2E2E2E2E2E2E2E2E2E2E2E2E2E2E2E2E2E2E2E2E2E2E2E2E2E2E2E2E2E2E2E2E2E2E2E2E2E2E2E2E2E2E2E2E2E2E2E2F5E2E2E2E2E2E2E2E2E2E2E2
310
E2E2E2E2E2F5E2E2E2F5F5E2E2E2F5E2E2E2E2E2E2E2E2E2E2E2E2E2E2E2E2F5E2E2E2E2E2E2E2E2E2E2E2E2E2E2E2E2E2E2E2E2E2E2E2E2E2E2E2E2E2E2E2E2E2E2E2E2E2E2E2E2E2E2E2E2E2E2E2E2E2E2E2E2E2E2E2E2E2E2E2E2E2E2E2E2E2E2E2E2E2E2E2E2E2E2E2E2E2E2E2E2E2E2E2E2E2E2E2E2E2E2E2E2E2E2E2
310
E2E2E2E2E2E2E2E2E2E2E2E2E2E2E2E2E2E2E2E2E2E2E2E2E2E2E2E2E2E2E2E2E2E2E2E2E2E2E2E2E2F5E2E2E2E2E2E2E2E2E2E2E2E2E2E2E2E2F5E2E2E2F5F5E2E2E2F5E2E2E2E2E2E2E2E2E2E2E2E2E2E2E2E2F5E2E2E2E2E2E2E2E2E2E2E2E2E2E2E2E2E2E2E2E2E2E2E2E2E2E2E2E2E2E2E2E2E2E2E2E2E2E2E2E2E2E2
310
E2E2E2E2E2E2E2E2E2E2E2E2E2E2E2E2E2E2E2E2E2E2E2E2E2E2E2E2E2E2E2E2E2E2E2E2E2E2E2E2E2E2E2E2E2E2E2E2E2E2E2E2E2E2E2E2E2E2E2E2E2E2E2E2E2E2E2E2E2E2E2E2E2E2E2E2E2E2E2E2E2E2E2E2E2E2E2E2E2E2E2E2E2E2F5E2E2E2E2E2E2E2E2E2E2E2E2E2E2E2E2F5E2E2E2F5F5E2E2E2F5E2E2E2E2E2E2
310
E2E2E2E2E2E2E2E2E2E2F5E2E2E2E2E2E2E2E2E2E2E2E2E2E2E2E2E2E2E2E2E2E2E2E2E2E2E2E2E2E2E2E2E2E2E2E2E2E2E2E2E2E2E2E2E2E2E2E2E2E2E2E2E2E2E2E2E2E2E2E2E2E2E2E2E2E2E2E2E2E2E2E2E2E2E2E2E2E2E2E2E2E2E2E2E2E2E2E2E2E2E2E2E2E2E2E2E2E2E2E2E2E2E2E2E2E2E2E2E2E2E2E2E2E2E2E2
310
E2E2E2E2E2E2E2E2E2E2E2E2E2E2E2E2E2E2E2E2F5E2E2E2E2E2E2E2E2E2E2E2E2E2E2E2E2F5E2E2E2F5F5E2E2E2F5E2E2E2E2E2E2E2E2E2E2E2E2E2E2E2E2F5E2E2E2E2E2E2E2E2E2E2E2E2E2E2E2E2E2E2E2E2E2E2E2E2E2E2E2E2E2E2E2E2E2E2E2E2E2E2E2E2E2E2E2E2E2E2E2E2E2E2E2E2E2E2E2E2E2E2E2E2E2E2E2
310
E2E2E2E2E2E2E2E2E2E2E2E2E2E2E2E2E2E2E2E2E2E2E2E2E2E2E2E2E2E2E2E2E2E2E2E2E2E2E2E2E2E2E2E2E2E2E2E2E2E2E2E2E2E2E2E2E2E2E2E2E2E2E2E2E2E2E2E2E2E2E2E2E2F5E2E2E2E2E2E2E2E2E2E2E2E2E2E2E2E2F5E2E2E2F5F5E2E2E2F5E2E2E2E2E2E2E2E2E2E2E2E2E2E2E2E2F5E2E2E2E2E2E2E2E2E2E2
310
E2E2E2E2E2E2E2E2E2E2E2E2E2E2E2E2E2E2E2E2E2E2E2E2E2E2E2E2E2E2E2E2E2E2E2E2E2E2E2E2E2E2E2E2E2E2E2E2E2E2E2E2E2E2E2E2E2E2E2E2E2E2E2E2E2E2E2E2E2E2E2E2E2E2E2E2E2E2E2E2E2E2E2E2E2E2E2E2E2E2E2E2E2E2E2E2E2E2E2E2E2E2E2E2E2E2E2E2E2E2E2E2E2E2E2E2E2E2E2E2E2E2E2E2E2E2F5
310
E2E2E2E2E2E2E2E2E2E2E2E2E2E2E2E2F5E2E2E2F5F5E2E2E2F5E2E2E2E2E2E2E2E2E2E2E2E2E2E2E2E2F5E2E2E2E2E2E2E2E2E2E2E2E2E2E2E2E2E2E2E2E2E2E2E2E2E2E2E2E2E2E2E2E2E2E2E2E2E2E2E2E2E2E2E2E2E2E2E2E2E2E2E2E2E2E2E2E2E2E2E2E2E2E2E2E2E2E2E2E2E2E2E2E2E2E2E2E2E2E2E2E2E2E2E2E2
310
E2E2E2E2E2E2E2E2E2E2E2E2E2E2E2E2E2E2E2E2E2E2E2E2E2E2E2E2E2E2E2E2E2E2E2E2E2E2E2E2E2E2E2E2E2E2E2E2E2E2E2E2F5E2E2E2E2E2E2E2E2E2E2E2E2E2E2E2E2F5E2E2E2F5F5E2E2E2F5E2E2E2E2E2E2E2E2E2E2E2E2E2E2E2E2F5E2E2E2E2E2E2E2E2E2E2E2E2E2E2E2E2E2E2E2E2E2E2E2E2E2E2E2E2E2E2E2
310
E2E2E2E2E2E2E2E2E2E2E2E2E2E2E2E2E2E2E2E2E2E2E2E2E2E2E2E2E2E2E2E2E2E2E2E2E2E2E2E2E2E2E2E2E2E2E2E2E2E2E2E2E2E2E2E2E2E2E2E2E2E2E2E2E2E2E2E2E2E2E2E2E2E2E2E2E2E2E2E2E2E2E2E2E2E2E2E2E2E2E2E2E2E2E2E2E2E2E2E2E2E2E2E2E2F5E2E2E2E2E2E2E2E2E2E2E2E2E2E2E2E2F5E2E2E2F5
310
F5E2E2E2F5E2E2E2E2E2E2E2E2E2E2E2E2E2E2E2E2F5E2E2E2E2E2E2E2E2E2E2E2E2E2E2E2E2E2E2E2E2E2E2E2E2E2E2E2E2E2E2E2E2E2E2E2E2E2E2E2E2E2E2E2E2E2E2E2E2E2E2E2E2E2E2E2E2E2E2E2E2E2E2E2E2E2E2E2E2E2E2E2E2E2E2E2E2E2E2E2E2E2E2E2E2E2E2E2E2E2E2E2E2E2E2E2E2E2E2E2E2E2E2E2E2E2
310
E2E2E2E2E2E2E2E2E2E2E2E2E2E2E2E2E2E2E2E2E2E2E2E2E2E2E2E2E2E2E2F5E2E2E2E2E2E2E2E2E2E2E2E2E2E2E2E2F5E2E2E2F5F5E2E2E2F5E2E2E2E2E2E2E2E2E2E2E2E2E2E2E2E2F5E2E2E2E2E2E2E2E2E2E2E2E2E2E2E2E2E2E2E2E2E2E2E2E2E2E2E2E2E2E2E2E2E2E2E2E2E2E2E2E2E2E2E2E2E2E2E2E2E2E2E2E2
310
E2E2E2E2E2E2E2E2E2E2E2E2E2E2E2E2E2E2E2E2E2E2E2E2E2E2E2E2E2E2E2E2E2E2E2E2E2E2E2E2E2E2E2E2E2E2E2E2E2E2E2E2E2E2E2E2E2E2E2E2E2E2E2E2E2E2E2E2E2E2E2E2E2E2E2E2E2E2E2E2E2E2E2E2F5E2E2E2E2E2E2E2E2E2E2E2E2E2E2E2E2F5E2E2E2F5F5E2E2E2F5E2E2E2E2E2E2E2E2E2E2E2E2E2E2E2E2
310
F5E2E2E2E2E2E2E2E2E2E2E2E2E2E2E2E2E2E2E2E2E2E2E2E2E2E2E2E2E2E2E2E2E2E2E2E2E2E2E2E2E2E2E2E2E2E2E2E2E2E2E2E2E2E2E2E2E2E2E2E2E2E2E2E2E2E2E2E2E2E2E2E2E2E2E2E2E2E2E2E2E2E2E2E2E2E2E2E2E2E2E2E2E2E2E2E2E2E2E2E2E2E2E2E2E2E2E2E2E2E2E2E2E2E2E2E2E2E2E2E2E2E2E2E2E2E2
310
E2E2E2E2E2E2E2E2E2E2F5E2E2E2E2E2E2E2E2E2E2E2E2E2E2E2E2F5E2E2E2F5F5E2E2E2F5E2E2E2E2E2E2E2E2E2E2E2E2E2E2E2E2F5E2E2E2E2E2E2E2E2E2E2E2E2E2E2E2E2E2E2E2E2E2E2E2E2E2E2E2E2E2E2E2E2E2E2E2E2E2E2E2E2E2E2E2E2E2E2E2E2E2E2E2E2E2E2E2E2E2E2E2E2E2E2E2E2E2E2E2E2E2E2E2E2E2
310
E2E2E2E2E2E2E2E2E2E2E2E2E2E2E2E2E2E2E2E2E2E2E2E2E2E2E2E2E2E2E2E2E2E2E2E2E2E2E2E2E2E2E2E2E2E2E2E2E2E2E2E2E2E2E2E2E2E2E2E2E2E2E2F5E2E2E2E2E2E2E2E2E2E2E2E2E2E2E2E2F5E2E2E2F5F5E2E2E2F5E2E2E2E2E2E2E2E2E2E2E2E2E2E2E2E2F5E2E2E2E2E2E2E2E2E2E2E2E2E2E2E2E2E2E2E2E2
310
E2E2E2E2E2E2E2E2E2E2E2E2E2E2E2E2E2E2E2E2E2E2E2E2E2E2E2E2E2E2E2E2E2E2E2E2E2E2E2E2E2E2E2E2E2E2E2E2E2E2E2E2E2E2E2E2E2E2E2E2E2E2E2E2E2E2E2E2E2E2E2E2E2E2E2E2E2E2E2E2E2E2E2E2E2E2E2E2E2E2E2E2E2E2E2E2E2E2E2E2E2E2E2E2E2E2E2E2E2E2E2E2E2E2E2E2F5E2E2E2E2E2E2E2E2E2E2
310
E2E2E2E2E2E2F5E2E2E2F5F5E2E2E2F5E2E2E2E2E2E2E2E2E2E2E2E2E2E2E2E2F5E2E2E2E2E2E2E2E2E2E2E2E2E2E2E2E2E2E2E2E2E2E2E2E2E2E2E2E2E2E2E2E2E2E2E2E2E2E2E2E2E2E2E2E2E2E2E2E2E2E2E2E2E2E2E2E2E2E2E2E2E2E2E2E2E2E2E2E2E2E2E2E2E2E2E2E2E2E2E2E2E2E2E2E2E2E2E2E2E2E2E2E2E2E2
310
E2E2E2E2E2E2E2E2E2E2E2E2E2E2E2E2E2E2E2E2E2E2E2E2E2E2E2E2E2E2E2E2E2E2E2E2E2E2E2E2E2E2F5E2E2E2E2E2E2E2E2E2E2E2E2E2E2E2E2F5E2E2E2F5F5E2E2E2E2E2E2E2E2E2E2E2E2E2E2E2E2E2E2E2E2F5E2E2E2E2E2E2E2E2E2E2E2E2E2E2E2E2E2E2E2E2E2E2E2E2E2E2E2E2E2E2E2E2E2E2E2E2E2E2E2E2E2
310
E2E2E2E2E2E2E2E2E2E2E2E2E2E2E2E2E2E2E2E2E2E2E2E2E2E2E2E2E2E2E2E2E2E2E2E2E2E2E2E2E2E2E2E2E2E2E2E2E2E2E2E2E2E2E2E2E2E2E2E2E2E2E2E2E2E2E2E2E2E2E2E2E2E2E2E2E2E2E2E2E2E2E2E2E2E2E2E2E2E2E2E2E2E2E2F5E2E2E2E2E2E2E2E2E2E2E2E2E2E2E2E2E2E2E2E2F5F5E2E2E2E2E2E2E2E2E2
310
E2E2E2E2E2E2E2E2E2E2E2F5E2E2E2E2E2E2E2E2E2E2E2E2E2E2E2E2E2E2E2E2E2E2E2E2E2E2E2E2E2E2E2E2E2E2E2E2E2E2E2E2E2E2E2E2E2E2E2E2E2E2E2E2E2E2E2E2E2E2E2E2E2E2E2E2E2E2E2E2E2E2E2E2E2E2E2E2E2E2E2E2E2E2E2E2E2E2E2E2E2E2E2E2E2E2E2E2E2E2E2E2E2E2E2E2E2E2E2E2E2E2E2E2E2E2E2
310
E2E2E2E2E2E2E2E2E2E2E2E2E2E2E2E2E2E2E2E2E2F5E2E2E2E2E2E2E2E2E2E2E2E2E2E2E2E2E2E2E2E2F5F5E2E2E2E2E2E2E2E2E2E2E2E2E2E2E2E2E2E2E2E2F5E2E2E2E2E2E2E2E2E2E2E2E2E2E2E2E2E2E2E2E2E2E2E2E2E2E2E2E2E2E2E2E2E2E2E2E2E2E2E2E2E2E2E2E2E2E2E2E2E2E2E2E2E2E2E2E2E2E2E2E2E2E2
310
E2E2E2E2E2E2E2E2E2E2E2E2E2E2E2E2E2E2E2E2E2E2E2E2E2E2E2E2E2E2E2E2E2E2E2E2E2E2E2E2E2E2E2E2E2E2E2E2E2E2E2E2E2E2E2E2E2E2E2E2E2E2E2E2E2E2E2E2E2E2E2E2E2E2F5E2E2E2E2E2E2E2E2E2E2E2E2E2E2E2E2E2E2E2E2F5F5E2E2E2E2E2E2E2E2E2E2E2E2E2E2E2E2E2E2E2E2F5E2E2E2E2E2E2E2E2E2
310
E2E2E2E2E2E2E2E2E2E2E2E2E2E2E2E2E2E2E2E2E2E2E2E2E2E2E2E2E2E2E2E2E2E2E2E2E2E2E2E2E2E2E2E2E2E2E2E2E2E2E2E2E2E2E2E2E2E2E2E2E2E2E2E2E2E2E2E2E2E2E2E2E2E2E2E2E2E2E2E2E2E2E2E2E2E2E2E2E2E2E2E2E2E2E2E2E2E2E2E2E2E2E2E2E2E2E2E2E2E2E2E2E2E2E2E2E2E2E2E2E2E2E2E2E2E2E2
310
F5E2E2E2E2E2E2E2E2E2E2E2E2E2E2E2E2E2E2E2E2F5F5E2E2E2E2E2E2E2E2E2E2E2E2E2E2E2E2E2E2E2E2F5E2E2E2E2E2E2E2E2E2E2E2E2E2E2E2E2E2E2E2E2E2E2E2E2E2E2E2E2E2E2E2E2E2E2E2E2E2E2E2E2E2E2E2E2E2E2E2E2E2E2E2E2E2E2E2E2E2E2E2E2E2E2E2E2E2E2E2E2E2E2E2E2E2E2E2E2E2E2E2E2E2E2E2
310
E2E2E2E2E2E2E2E2E2E2E2E2E2E2E2E2E2E2E2E2E2E2E2E2E2E2E2E2E2E2E2E2E2E2E2E2E2E2E2E2E2E2E2E2E2E2E2E2E2E2E2E2E2F5E2E2E2E2E2E2E2E2E2E2E2E2E2E2E2E2E2E2E2E2F5F5E2E2E2E2E2E2E2E2E2E2E2E2E2E2E2E2E2E2E2E2F5E2E2E2E2E2E2E2E2E2E2E2E2E2E2E2E2E2E2E2E2E2E2E2E2E2E2E2E2E2E2
310
E2E2E2E2E2E2E2E2E2E2E2E2E2E2E2E2E2E2E2E2E2E2E2E2E2E2E2E2E2E2E2E2E2E2E2E2E2E2E2E2E2E2E2E2E2E2E2E2E2E2E2E2E2E2E2E2E2E2E2E2E2E2E2E2E2E2E2E2E2E2E2E2E2E2E2E2E2E2E2E2E2E2E2E2E2E2E2E2E2E2E2E2E2E2E2E2E2E2E2E2E2E2E2E2E2E2F5E2E2E2E2E2E2E2E2E2E2E2E2E2E2E2E2E2E2E2E2
310
F5F5E2E2E2E2E2E2E2E2E2E2E2E2E2E2E2E2E2E2E2E2F5E2E2E2E2E2E2E2E2E2E2E2E2E2E2E2E2E2E2E2E2E2E2E2E2E2E2E2E2E2E2E2E2E2E2E2E2E2E2E2E2E2E2E2E2E2E2E2E2E2E2E2E2E2E2E2E2E2E2E2E2E2E2E2E2E2E2E2E2E2E2E2E2E2E2E2E2E2E2E2E2E2E2E2E2E2E2E2E2E2E2E2E2E2E2E2E2E2E2E2E2E2E2E2E2
310
E2E2E2E2E2E2E2E2E2E2E2E2E2E2E2E2E2E2E2E2E2E2E2E2E2E2E2E2E2E2E2E2F5E2E2E2E2E2E2E2E2E2E2E2E2E2E2E2E2E2E2E2E2F5F5E2E2E2E2E2E2E2E2E2E2E2E2E2E2E2E2E2E2E2E2F5E2E2E2E2E2E2E2E2E2E2E2E2E2E2E2E2E2E2E2E2E2E2E2E2E2E2E2E2E2E2E2E2E2E2E2E2E2E2E2E2E2E2E2E2E2E2E2E2E2E2E2
310
E2E2E2E2E2E2E2E2E2E2E2E2E2E2E2E2E2E2E2E2E2E2E2E2E2E2E2E2E2E2E2E2E2E2E2E2E2E2E2E2E2E2E2E2E2E2E2E2E2E2E2E2E2E2E2E2E2E2E2E2E2E2E2E2E2E2E2E2E2E2E2E2E2E2E2E2E2E2E2E2E2E2E2E2E2F5E2E2E2E2E2E2E2E2E2E2E2E2E2E2E2E2E2E2E2E2F5F5E2E2E2E2E2E2E2E2E2E2E2E2E2E2E2E2E2E2E2
310
E2F5E2E2E2E2E2E2E2E2E2E2E2E2E2E2E2E2E2E2E2E2E2E2E2E2E2E2E2E2E2E2E2E2E2E2E2E2E2E2E2E2E2E2E2E2E2E2E2E2E2E2E2E2E2E2E2E2E2E2E2E2E2E2E2E2E2E2E2E2E2E2E2E2E2E2E2E2E2E2E2E2E2E2E2E2E2E2E2E2E2E2E2E2E2E2E2E2E2E2E2E2E2E2E2E2E2E2E2E2E2E2E2E2E2E2E2E2E2E2E2E2E2E2E2E2E2
310
E2E2E2E2E2E2E2E2E2E2E2F5E2E2E2E2E2E2E2E2E2E2E2E2E2E2E2E2E2E2E2E2F5F5E2E2E2E2E2E2E2E2E2E2E2E2E2E2E2E2E2E2E2E2F5E2E2E2E2E2E2E2E2E2E2E2E2E2E2E2E2E2E2E2E2E2E2E2E2E2E2E2E2E2E2E2E2E2E2E2E2E2E2E2E2E2E2E2E2E2E2E2E2E2E2E2E2E2E2E2E2E2E2E2E2E2E2E2E2E2E2E2E2E2E2E2E2
310
E2E2E2E2E2E2E2E2E2E2E2E2E2E2E2E2E2E2E2E2E2E2E2E2E2E2E2E2E2E2E2E2E2E2E2E2E2E2E2E2E2E2E2E2E2E2E2E2E2E2E2E2E2E2E2E2E2E2E2E2E2E2E2E2F5E2E2E2E2E2E2E2E2E2E2E2E2E2E2E2E2E2E2E2E2F5F5E2E2E2F5E2E2E2E2E2E2E2E2E2E2E2E2E2E2E2E2F5E2E2E2E2E2E2E2E2E2E2E2E2E2E2E2E2E2E2E2
310
E2E2E2E2E2E2E2E2E2E2E2E2E2E2E2E2E2E2E2E2E2E2E2E2E2E2E2E2E2E2E2E2E2E2E2E2E2E2E2E2E2E2E2E2E2E2E2E2E2E2E2E2E2E2E2E2E2E2E2E2E2E2E2E2E2E2E2E2E2E2E2E2E2E2E2E2E2E2E2E2E2E2E2E2E2E2E2E2E2E2E2E2E2E2E2E2E2E2E2E2E2E2E2E2E2E2E2E2E2E2E2E2E2E2E2E2E2F5E2E2E2E2E2E2E2E2E2
310
E2E2E2E2E2E2E2F5E2E2E2F5F5E2E2E2F5E2E2E2E2E2E2E2E2E2E2E2E2E2E2E2E2F5E2E2E2E2E2E2E2E2E2E2E2E2E2E2E2E2E2E2E2E2E2E2E2E2E2E2E2E2E2E2E2E2E2E2E2E2E2E2E2E2E2E2E2E2E2E2E2E2E2E2E2E2E2E2E2E2E2E2E2E2E2E2E2E2E2E2E2E2E2E2E2E2E2E2E2E2E2E2E2E2E2E2E2E2E2E2E2E2E2E2E2E2E2
310
E2E2E2E2E2E2E2E2E2E2E2E2E2E2E2E2E2E2E2E2E2E2E2E2E2E2E2E2E2E2E2E2E2E2E2E2E2E2E2E2E2E2E2F5E2E2E2E2E2E2E2E2E2E2E2E2E2E2E2E2F5E2E2E2F5F5E2E2E2F5E2E2E2E2E2E2E2E2E2E2E2E2E2E2E2E2F5E2E2E2E2E2E2E2E2E2E2E2E2E2E2E2E2E2E2E2E2E2E2E2E2E2E2E2E2E2E2E2E2E2E2E2E2E2E2E2E2
310
E2E2E2E2E2E2E2E2E2E2E2E2E2E2E2E2E2E2E2E2E2E2E2E2E2E2E2E2E2E2E2E2E2E2E2E2E2E2E2E2E2E2E2E2E2E2E2E2E2E2E2E2E2E2E2E2E2E2E2E2E2E2E2E2E2E2E2E2E2E2E2E2E2E2E2E2E2E2E2E2E2E2E2E2E2E2E2E2E2E2E2E2E2E2E2E2F5E2E2E2E2E2E2E2E2E2E2E2E2E2E2E2E2F5E2E2E2F5F5E2E2E2F5E2E2E2E2
310
E2E2E2E2E2E2E2E2E2E2E2E2F5E2E2E2E2E2E2E2E2E2E2E2E2E2E2E2E2E2E2E2E2E2E2E2E2E2E2E2E2E2E2E2E2E2E2E2E2E2E2E2E2E2E2E2E2E2E2E2E2E2E2E2E2E2E2E2E2E2E2E2E2E2E2E2E2E2E2E2E2E2E2E2E2E2E2E2E2E2E2E2E2E2E2E2E2E2E2E2E2E2E2E2E2E2E2E2E2E2E2E2E2E2E2E2E2E2E2E2E2E2E2E2E2E2E2
310
E2E2E2E2E2E2E2E2E2E2E2E2E2E2E2E2E2E2E2E2E2E2F5E2E2E2E2E2E2E2E2E2E2E2E2E2E2E2E2F5E2E2E2F5F5E2E2E2F5E2E2E2E2E2E2E2E2E2E2E2E2E2E2E2E2F5E2E2E2E2E2E2E2E2E2E2E2E2E2E2E2E2E2E2E2E2E2E2E2E2E2E2E2E2E2E2E2E2E2E2E2E2E2E2E2E2E2E2E2E2E2E2E2E2E2E2E2E2E2E2E2E2E2E2E2E2E2
310
E2E2E2E2E2E2E2E2E2E2E2E2E2E2E2E2E2E2E2E2E2E2E2E2E2E2E2E2E2E2E2E2E2E2E2E2E2E2E2E2E2E2E2E2E2E2E2E2E2E2E2E2E2E2E2E2E2E2E2E2E2E2E2E2E2E2E2E2E2E2E2E2E2E2E2F5E2E2E2E2E2E2E2E2E2E2E2E2E2E2E2E2F5E2E2E2F5F5E2E2E2F5E2E2E2E2E2E2E2E2E2E2E2E2E2E2E2E2F5E2E2E2E2E2E2E2E2
310
E2E2E2E2E2E2E2E2E2E2E2E2E2E2E2E2E2E2E2E2E2E2E2E2E2E2E2E2E2E2E2E2E2E2E2E2E2E2E2E2E2E2E2E2E2E2E2E2E2E2E2E2E2E2E2E2E2E2E2E2E2E2E2E2E2E2E2E2E2E2E2E2E2E2E2E2E2E2E2E2E2E2E2E2E2E2E2E2E2E2E2E2E2E2E2E2E2E2E2E2E2E2E2E2E2E2E2E2E2E2E2E2E2E2E2E2E2E2E2E2E2E2E2E2E2E2E2
310
E2F5E2E2E2E2E2E2E2E2E2E2E2E2E2E2E2E2F5E2E2E2F5F5E2E2E2F5E2E2E2E2E2E2E2E2E2E2E2E2E2E2E2E2F5E2E2E2E2E2E2E2E2E2E2E2E2E2E2E2E2E2E2E2E2E2E2E2E2E2E2E2E2E2E2E2E2E2E2E2E2E2E2E2E2E2E2E2E2E2E2E2E2E2E2E2E2E2E2E2E2E2E2E2E2E2E2E2E2E2E2E2E2E2E2E2E2E2E2E2E2E2E2E2E2E2E2
310
E2E2E2E2E2E2E2E2E2E2E2E2E2E2E2E2E2E2E2E2E2E2E2E2E2E2E2E2E2E2E2E2E2E2E2E2E2E2E2E2E2E2E2E2E2E2E2E2E2E2E2E2E2E2F5E2E2E2E2E2E2E2E2E2E2E2E2E2E2E2E2F5E2E2E2F5F5E2E2E2F5E2E2E2E2E2E2E2E2E2E2E2E2E2E2E2E2F5E2E2E2E2E2E2E2E2E2E2E2E2E2E2E2E2E2E2E2E2E2E2E2E2E2E2E2E2E2
310
E2E2E2E2E2E2E2E2E2E2E2E2E2E2E2E2E2E2E2E2E2E2E2E2E2E2E2E2E2E2E2E2E2E2E2E2E2E2E2E2E2E2E2E2E2E2E2E2E2E2E2E2E2E2E2E2E2E2E2E2E2E2E2E2E2E2E2E2E2E2E2E2E2E2E2E2E2E2E2E2E2E2E2E2E2E2E2E2E2E2E2E2E2E2E2E2E2E2E2E2E2E2E2E2E2E2E2F5E2E2E2E2E2E2E2E2E2E2E2E2E2E2E2E2F5E2E2
310
E2F5F5E2E2E2F5E2E2E2E2E2E2E2E2E2E2E2E2E2E2E2E2F5E2E2E2E2E2E2E2E2E2E2E2E2E2E2E2E2E2E2E2E2E2E2E2E2E2E2E2E2E2E2E2E2E2E2E2E2E2E2E2E2E2E2E2E2E2E2E2E2E2E2E2E2E2E2E2E2E2E2E2E2E2E2E2E2E2E2E2E2E2E2E2E2E2E2E2E2E2E2E2E2E2E2E2E2E2E2E2E2E2E2E2E2E2E2E2E2E2E2E2E2E2E2E2
310
E2E2E2E2E2E2E2E2E2E2E2E2E2E2E2E2E2E2E2E2E2E2E2E2E2E2E2E2E2E2E2E2E2F5E2E2E2E2E2E2E2E2E2E2E2E2E2E2E2E2F5E2E2E2F5F5E2E2E2F5E2E2E2E2E2E2E2E2E2E2E2E2E2E2E2E2F5E2E2E2E2E2E2E2E2E2E2E2E2E2E2E2E2E2E2E2E2E2E2E2E2E2E2E2E2E2E2E2E2E2E2E2E2E2E2E2E2E2E2E2E2E2E2E2E2E2E2
310
E2E2E2E2E2E2E2E2E2E2E2E2E2E2E2E2E2E2E2E2E2E2E2E2E2E2E2E2E2E2E2E2E2E2E2E2E2E2E2E2E2E2E2E2E2E2E2E2E2E2E2E2E2E2E2E2E2E2E2E2E2E2E2E2E2E2E2E2E2E2E2E2E2E2E2E2E2E2E2E2E2E2E2E2E2E2F5E2E2E2E2E2E2E2E2E2E2E2E2E2E2E2E2F5E2E2E2F5F5E2E2E2F5E2E2E2E2E2E2E2E2E2E2E2E2E2E2
310
E2E2F5E2E2E2E2E2E2E2E2E2E2E2E2E2E2E2E2E2E2E2E2E2E2E2E2E2E2E2E2E2E2E2E2E2E2E2E2E2E2E2E2E2E2E2E2E2E2E2E2E2E2E2E2E2E2E2E2E2E2E2E2E2E2E2E2E2E2E2E2E2E2E2E2E2E2E2E2E2E2E2E2E2E2E2E2E2E2E2E2E2E2E2E2E2E2E2E2E2E2E2E2E2E2E2E2E2E2E2E2E2E2E2E2E2E2E2E2E2E2E2E2E2E2E2E2
310
E2E2E2E2E2E2E2E2E2E2E2E2F5E2E2E2E2E2E2E2E2E2E2E2E2E2E2E2E2F5E2E2E2F5F5E2E2E2F5E2E2E2E2E2E2E2E2E2E2E2E2E2E2E2E2F5E2E2E2E2E2E2E2E2E2E2E2E2E2E2E2E2E2E2E2E2E2E2E2E2E2E2E2E2E2E2E2E2E2E2E2E2E2E2E2E2E2E2E2E2E2E2E2E2E2E2E2E2E2E2E2E2E2E2E2E2E2E2E2E2E2E2E2E2E2E2E2
310
E2E2E2E2E2E2E2E2E2E2E2E2E2E2E2E2E2E2E2E2E2E2E2E2E2E2E2E2E2E2E2E2E2E2E2E2E2E2E2E2E2E2E2E2E2E2E2E2E2E2E2E2E2E2E2E2E2E2E2E2E2E2E2E2E2F5E2E2E2E2E2E2E2E2E2E2E2E2E2E2E2E2F5E2E2E2F5F5E2E2E2F5E2E2E2E2E2E2E2E2E2E2E2E2E2E2E2E2F5E2E2E2E2E2E2E2E2E2E2E2E2E2E2E2E2E2E2
310
E2E2E2E2E2E2E2E2E2E2E2E2E2E2E2E2E2E2E2E2E2E2E2E2E2E2E2E2E2E2E2E2E2E2E2E2E2E2E2E2E2E2E2E2E2E2E2E2E2E2E2E2E2E2E2E2E2E2E2E2E2E2E2E2E2E2E2E2E2E2E2E2E2E2E2E2E2E2E2E2E2E2E2E2E2E2E2E2E2E2E2E2E2E2E2E2E2E2E2E2E2E2E2E2E2E2E2E2E2E2E2E2E2E2E2E2E2E2F5E2E2E2E2E2E2E2E2
310
E2E2E2E2E2E2E2E2F5E2E2E2F5F5E2E2E2F5E2E2E2E2E2E2E2E2E2E2E2E2E2E2E2E2F5E2E2E2E2E2E2E2E2E2E2E2E2E2E2E2E2E2E2E2E2E2E2E2E2E2E2E2E2E2E2E2E2E2E2E2E2E2E2E2E2E2E2E2E2E2E2E2E2E2E2E2E2E2E2E2E2E2E2E2E2E2E2E2E2E2E2E2E2E2E2E2E2E2E2E2E2E2E2E2E2E2E2E2E2E2E2E2E2E2E2E2E2
310
E2E2E2E2E2E2E2E2E2E2E2E2E2E2E2E2E2E2E2E2E2E2E2E2E2E2E2E2E2E2E2E2E2E2E2E2E2E2E2E2E2E2E2E2F5E2E2E2E2E2E2E2E2E2E2E2E2E2E2E2E2F5E2E2E2F5F5E2E2E2F5E2E2E2E2E2E2E2E2E2E2E2E2E2E2E2E2F5E2E2E2E2E2E2E2E2E2E2E2E2E2E2E2E2E2E2E2E2E2E2E2E2E2E2E2E2E2E2E2E2E2E2E2E2E2E2E2
310
E2E2E2E2E2E2E2E2E2E2E2E2E2E2E2E2E2E2E2E2E2E2E2E2E2E2E2E2E2E2E2E2E2E2E2E2E2E2E2E2E2E2E2E2E2E2E2E2E2E2E2E2E2E2E2E2E2E2E2E2E2E2E2E2E2E2E2E2E2E2E2E2E2E2E2E2E2E2E2E2E2E2E2E2E2E2E2E2E2E2E2E2E2E2E2E2E2F5E2E2E2E2E2E2E2E2E2E2E2E2E2E2E2E2F5E2E2E2F5F5E2E2E2F5E2E2E2
310
E2E2E2E2E2E2E2E2E2E2E2E2E2F5E2E2E2E2E2E2E2E2E2E2E2E2E2E2E2E2E2E2E2E2E2E2E2E2E2E2E2E2E2E2E2E2E2E2E2E2E2E2E2E2E2E2E2E2E2E2E2E2E2E2E2E2E2E2E2E2E2E2E2E2E2E2E2E2E2E2E2E2E2E2E2E2E2E2E2E2E2E2E2E2E2E2E2E2E2E2E2E2E2E2E2E2E2E2E2E2E2E2E2E2E2E2E2E2E2E2E2E2E2E2E2E2E2
310
E2E2E2E2E2E2E2E2E2E2E2E2E2E2E2E2E2E2E2E2E2E2E2F5E2E2E2E2E2E2E2E2E2E2E2E2E2E2E2E2F5E2E2E2F5F5E2E2E2E2E2E2E2E2E2E2E2E2E2E2E2E2E2E2E2E2F5E2E2E2E2E2E2E2E2E2E2E2E2E2E2E2E2E2E2E2E2E2E2E2E2E2E2E2E2E2E2E2E2E2E2E2E2E2E2E2E2E2E2E2E2E2E2E2E2E2E2E2E2E2E2E2E2E2E2E2E2
310
E2E2E2E2E2E2E2E2E2E2E2E2E2E2E2E2E2E2E2E2E2E2E2E2E2E2E2E2E2E2E2E2E2E2E2E2E2E2E2E2E2E2E2E2E2E2E2E2E2E2E2E2E2E2E2E2E2E2E2E2E2E2E2E2E2E2E2E2E2E2E2E2E2E2E2E2F5E2E2E2E2E2E2E2E2E2E2E2E2E2E2E2E2E2E2E2E2F5F5E2E2E2E2E2E2E2E2E2E2E2E2E2E2E2E2E2E2E2E2F5E2E2E2E2E2E2E2
310
E2E2E2E2E2E2E2E2E2E2E2E2E2E2E2E2E2E2E2E2E2E2E2E2E2E2E2E2E2E2E2E2E2E2E2E2E2E2E2E2E2E2E2E2E2E2E2E2E2E2E2E2E2E2E2E2E2E2E2E2E2E2E2E2E2E2E2E2E2E2E2E2E2E2E2E2E2E2E2E2E2E2E2E2E2E2E2E2E2E2E2E2E2E2E2E2E2E2E2E2E2E2E2E2E2E2E2E2E2E2E2E2E2E2E2E2E2E2E2E2E2E2E2E2E2E2E2
310
E2E2F5E2E2E2E2E2E2E2E2E2E2E2E2E2E2E2E2E2E2E2E2F5F5E2E2E2E2E2E2E2E2E2E2E2E2E2E2E2E2E2E2E2E2F5E2E2E2E2E2E2E2E2E2E2E2E2E2E2E2E2E2E2E2E2E2E2E2E2E2E2E2E2E2E2E2E2E2E2E2E2E2E2E2E2E2E2E2E2E2E2E2E2E2E2E2E2E2E2E2E2E2E2E2E2E2E2E2E2E2E2E2E2E2E2E2E2E2E2E2E2E2E2E2E2E2
310
E2E2E2E2E2E2E2E2E2E2E2E2E2E2E2E2E2E2E2E2E2E2E2E2E2E2E2E2E2E2E2E2E2E2E2E2E2E2E2E2E2E2E2E2E2E2E2E2E2E2E2E2E2E2E2F5E2E2E2E2E2E2E2E2E2E2E2E2E2E2E2E2E2E2E2E2F5F5E2E2E2E2E2E2E2E2E2E2E2E2E2E2E2E2E2E2E2E2F5E2E2E2E2E2E2E2E2E2E2E2E2E2E2E2E2E2E2E2E2E2E2E2E2E2E2E2E2
310
E2E2E2E2E2E2E2E2E2E2E2E2E2E2E2E2E2E2E2E2E2E2E2E2E2E2E2E2E2E2E2E2E2E2E2E2E2E2E2E2E2E2E2E2E2E2E2E2E2E2E2E2E2E2E2E2E2E2E2E2E2E2E2E2E2E2E2E2E2E2E2E2E2E2E2E2E2E2E2E2E2E2E2E2E2E2E2E2E2E2E2E2E2E2E2E2E2E2E2E2E2E2E2E2E2E2E2E2F5E2E2E2E2E2E2E2E2E2E2E2E2E2E2E2E2E2E2
310
E2E2F5F5E2E2E2E2E2E2E2E2E2E2E2E2E2E2E2E2E2E2E2E2F5E2E2E2E2E2E2E2E2E2E2E2E2E2E2E2E2E2E2E2E2E2E2E2E2E2E2E2E2E2E2E2E2E2E2E2E2E2E2E2E2E2E2E2E2E2E2E2E2E2E2E2E2E2E2E2E2E2E2E2E2E2E2E2E2E2E2E2E2E2E2E2E2E2E2E2E2E2E2E2E2E2E2E2E2E2E2E2E2E2E2E2E2E2E2E2E2E2E2E2E2E2E2
310
E2E2E2E2E2E2E2E2E2E2E2E2E2E2E2E2E2E2E2E2E2E2E2E2E2E2E2E2E2E2E2E2E2E2F5E2E2E2E2E2E2E2E2E2E2E2E2E2E2E2E2E2E2E2E2F5F5E2E2E2E2E2E2E2E2E2E2E2E2E2E2E2E2E2E2E2E2F5E2E2E2E2E2E2E2E2E2E2E2E2E2E2E2E2E2E2E2E2E2E2E2E2E2E2E2E2E2E2E2E2E2E2E2E2E2E2E2E2E2E2E2E2E2E2E2E2E2
310
E2E2E2E2E2E2E2E2E2E2E2E2E2E2E2E2E2E2E2E2E2E2E2E2E2E2E2E2E2E2E2E2E2E2E2E2E2E2E2E2E2E2E2E2E2E2E2E2E2E2E2E2E2E2E2E2E2E2E2E2E2E2E2E2E2E2E2E2E2E2E2E2E2E2E2E2E2E2E2E2E2E2E2E2E2E2E2F5E2E2E2E2E2E2E2E2E2E2E2E2E2E2E2E2E2E2E2E2F5F5E2E2E2E2E2E2E2E2E2E2E2E2E2E2E2E2E2
310
E2E2E2F5E2E2E2E2E2E2E2E2E2E2E2E2E2E2E2E2E2E2E2E2E2E2E2E2E2E2E2E2E2E2E2E2E2E2E2E2E2E2E2E2E2E2E2E2E2E2E2E2E2E2E2E2E2E2E2E2E2E2E2E2E2E2E2E2E2E2E2E2E2E2E2E2E2E2E2E2E2E2E2E2E2E2E2E2E2E2E2E2E2E2E2E2E2E2E2E2E2E2E2E2E2E2E2E2E2E2E2E2E2E2E2E2E2E2E2E2E2E2E2E2E2E2E2
310
E2E2E2E2E2E2E2E2E2E2E2E2E2F5E2E2E2E2E2E2E2E2E2E2E2E2E2E2E2E2E2E2E2E2F5F5E2E2E2E2E2E2E2E2E2E2E2E2E2E2E2E2E2E2E2E2F5E2E2E2E2E2E2E2E2E2E2E2E2E2E2E2E2E2E2E2E2E2E2E2E2E2E2E2E2E2E2E2E2E2E2E2E2E2E2E2E2E2E2E2E2E2E2E2E2E2E2E2E2E2E2E2E2E2E2E2E2E2E2E2E2E2E2E2E2E2E2
310
E2E2E2E2E2E2E2E2E2E2E2E2E2E2E2E2E2E2E2E2E2E2E2E2E2E2E2E2E2E2E2E2E2E2E2E2E2E2E2E2E2E2E2E2E2E2E2E2E2E2E2E2E2E2E2E2E2E2E2E2E2E2E2E2E2E2F5E2E2E2E2E2E2E2E2E2E2E2E2E2E2E2E2E2E2E2E2F5F5E2E2E2E2E2E2E2E2E2E2E2E2E2E2E2E2E2E2E2E2F5E2E2E2E2E2E2E2E2E2E2E2E2E2E2E2E2E2
310
E2E2E2E2E2E2E2E2E2E2E2E2E2E2E2E2E2E2E2E2E2E2E2E2E2E2E2E2E2E2E2E2E2E2E2E2E2E2E2E2E2E2E2E2E2E2E2E2E2E2E2E2E2E2E2E2E2E2E2E2E2E2E2E2E2E2E2E2E2E2E2E2E2E2E2E2E2E2E2E2E2E2E2E2E2E2E2E2E2E2E2E2E2E2E2E2E2E2E2E2E2E2E2E2E2E2E2E2E2E2E2E2E2E2E2E2E2E2E2F5E2E2E2E2E2E2E2
310
E2E2E2E2E2E2E2E2E2E2E2E2E2F5F5E2E2E2F5E2E2E2E2E2E2E2E2E2E2E2E2E2E2E2E2F5E2E2E2E2E2E2E2E2E2E2E2E2E2E2E2E2E2E2E2E2E2E2E2E2E2E2E2E2E2E2E2E2E2E2E2E2E2E2E2E2E2E2E2E2E2E2E2E2E2E2E2E2E2E2E2E2E2E2E2E2E2E2E2E2E2E2E2E2E2E2E2E2E2E2E2E2E2E2E2E2E2E2E2E2E2E2E2E2E2E2E2
310
E2E2E2E2E2E2E2E2E2E2E2E2E2E2E2E2E2E2E2E2E2E2E2E2E2E2E2E2E2E2E2E2E2E2E2E2E2E2E2E2E2E2E2E2E2F5E2E2E2E2E2E2E2E2E2E2E2E2E2E2E2E2F5E2E2E2F5F5E2E2E2F5E2E2E2E2E2E2E2E2E2E2E2E2E2E2E2E2F5E2E2E2E2E2E2E2E2E2E2E2E2E2E2E2E2E2E2E2E2E2E2E2E2E2E2E2E2E2E2E2E2E2E2E2E2E2E2
310
E2E2E2E2E2E2E2E2E2E2E2E2E2E2E2E2E2E2E2E2E2E2E2E2E2E2E2E2E2E2E2E2E2E2E2E2E2E2E2E2E2E2E2E2E2E2E2E2E2E2E2E2E2E2E2E2E2E2E2E2E2E2E2E2E2E2E2E2E2E2E2E2E2E2E2E2E2E2E2E2E2E2E2E2E2E2E2E2E2E2E2E2E2E2E2E2E2E2F5E2E2E2E2E2E2E2E2E2E2E2E2E2E2E2E2F5E2E2E2F5F5E2E2E2F5E2E2
310
E2E2E2E2E2E2E2E2E2E2E2E2E2E2F5E2E2E2E2E2E2E2E2E2E2E2E2E2E2E2E2E2E2E2E2E2E2E2E2E2E2E2E2E2E2E2E2E2E2E2E2E2E2E2E2E2E2E2E2E2E2E2E2E2E2E2E2E2E2E2E2E2E2E2E2E2E2E2E2E2E2E2E2E2E2E2E2E2E2E2E2E2E2E2E2E2E2E2E2E2E2E2E2E2E2E2E2E2E2E2E2E2E2E2E2E2E2E2E2E2E2E2E2E2E2E2E2
310
E2E2E2E2E2E2E2E2E2E2E2E2E2E2E2E2E2E2E2E2E2E2E2E2F5E2E2E2E2E2E2E2E2E2E2E2E2E2E2E2E2F5E2E2E2F5F5E2E2E2F5E2E2E2E2E2E2E2E2E2E2E2E2E2E2E2E2F5E2E2E2E2E2E2E2E2E2E2E2E2E2E2E2E2E2E2E2E2E2E2E2E2E2E2E2E2E2E2E2E2E2E2E2E2E2E2E2E2E2E2E2E2E2E2E2E2E2E2E2E2E2E2E2E2E2E2E2
310
E2E2E2E2E2E2E2E2E2E2E2E2E2E2E2E2E2E2E2E2E2E2E2E2E2E2E2E2E2E2E2E2E2E2E2E2E2E2E2E2E2E2E2E2E2E2E2E2E2E2E2E2E2E2E2E2E2E2E2E2E2E2E2E2E2E2E2E2E2E2E2E2E2E2E2E2E2F5E2E2E2E2E2E2E2E2E2E2E2E2E2E2E2E2F5E2E2E2F5F5E2E2E2F5E2E2E2E2E2E2E2E2E2E2E2E2E2E2E2E2F5E2E2E2E2E2E2
310
E2E2E2E2E2E2E2E2E2E2E2E2E2E2E2E2E2E2E2E2E2E2E2E2E2E2E2E2E2E2E2E2E2E2E2E2E2E2E2E2E2E2E2E2E2E2E2E2E2E2E2E2E2E2E2E2E2E2E2E2E2E2E2E2E2E2E2E2E2E2E2E2E2E2E2E2E2E2E2E2E2E2E2E2E2E2E2E2E2E2E2E2E2E2E2E2E2E2E2E2E2E2E2E2E2E2E2E2E2E2E2E2E2E2E2E2E2E2E2E2E2E2E2E2E2E2E2
310
E2E2E2F5E2E2E2E2E2E2E2E2E2E2E2E2E2E2E2E2F5E2E2E2F5F5E2E2E2F5E2E2E2E2E2E2E2E2E2E2E2E2E2E2E2E2F5E2E2E2E2E2E2E2E2E2E2E2E2E2E2E2E2E2E2E2E2E2E2E2E2E2E2E2E2E2E2E2E2E2E2E2E2E2E2E2E2E2E2E2E2E2E2E2E2E2E2E2E2E2E2E2E2E2E2E2E2E2E2E2E2E2E2E2E2E2E2E2E2E2E2E2E2E2E2E2E2
310
E2E2E2E2E2E2E2E2E2E2E2E2E2E2E2E2E2E2E2E2E2E2E2E2E2E2E2E2E2E2E2E2E2E2E2E2E2E2E2E2E2E2E2E2E2E2E2E2E2E2E2E2E2E2E2E2F5E2E2E2E2E2E2E2E2E2E2E2E2E2E2E2E2F5E2E2E2F5F5E2E2E2F5E2E2E2E2E2E2E2E2E2E2E2E2E2E2E2E2F5E2E2E2E2E2E2E2E2E2E2E2E2E2E2E2E2E2E2E2E2E2E2E2E2E2E2E2
310
E2E2E2E2E2E2E2E2E2E2E2E2E2E2E2E2E2E2E2E2E2E2E2E2E2E2E2E2E2E2E2E2E2E2E2E2E2E2E2E2E2E2E2E2E2E2E2E2E2E2E2E2E2E2E2E2E2E2E2E2E2E2E2E2E2E2E2E2E2E2E2E2E2E2E2E2E2E2E2E2E2E2E2E2E2E2E2E2E2E2E2E2E2E2E2E2E2E2E2E2E2E2E2E2E2E2E2E2E2F5E2E2E2E2E2E2E2E2E2E2E2E2E2E2E2E2F5
310
E2E2E2F5F5E2E2E2F5E2E2E2E2E2E2E2E2E2E2E2E2E2E2E2E2F5E2E2E2E2E2E2E2E2E2E2E2E2E2E2E2E2E2E2E2E2E2E2E2E2E2E2E2E2E2E2E2E2E2E2E2E2E2E2E2E2E2E2E2E2E2E2E2E2E2E2E2E2E2E2E2E2E2E2E2E2E2E2E2E2E2E2E2E2E2E2E2E2E2E2E2E2E2E2E2E2E2E2E2E2E2E2E2E2E2E2E2E2E2E2E2E2E2E2E2E2E2
310
E2E2E2E2E2E2E2E2E2E2E2E2E2E2E2E2E2E2E2E2E2E2E2E2E2E2E2E2E2E2E2E2E2E2E2F5E2E2E2E2E2E2E2E2E2E2E2E2E2E2E2E2F5E2E2E2F5F5E2E2E2F5E2E2E2E2E2E2E2E2E2E2E2E2E2E2E2E2F5E2E2E2E2E2E2E2E2E2E2E2E2E2E2E2E2E2E2E2E2E2E2E2E2E2E2E2E2E2E2E2E2E2E2E2E2E2E2E2E2E2E2E2E2E2E2E2E2
310
E2E2E2E2E2E2E2E2E2E2E2E2E2E2E2E2E2E2E2E2E2E2E2E2E2E2E2E2E2E2E2E2E2E2E2E2E2E2E2E2E2E2E2E2E2E2E2E2E2E2E2E2E2E2E2E2E2E2E2E2E2E2E2E2E2E2E2E2E2E2E2E2E2E2E2E2E2E2E2E2E2E2E2E2E2E2E2E2F5E2E2E2E2E2E2E2E2E2E2E2E2E2E2E2E2F5E2E2E2F5F5E2E2E2F5E2E2E2E2E2E2E2E2E2E2E2E2
310
E2E2E2E2F5E2E2E2E2E2E2E2E2E2E2E2E2E2E2E2E2E2E2E2E2E2E2E2E2E2E2E2E2E2E2E2E2E2E2E2E2E2E2E2E2E2E2E2E2E2E2E2E2E2E2E2E2E2E2E2E2E2E2E2E2E2E2E2E2E2E2E2E2E2E2E2E2E2E2E2E2E2E2E2E2E2E2E2E2E2E2E2E2E2E2E2E2E2E2E2E2E2E2E2E2E2E2E2E2E2E2E2E2E2E2E2E2E2E2E2E2E2E2E2E2E2E2
310
E2E2E2E2E2E2E2E2E2E2E2E2E2E2F5E2E2E2E2E2E2E2E2E2E2E2E2E2E2E2E2F5E2E2E2F5F5E2E2E2F5E2E2E2E2E2E2E2E2E2E2E2E2E2E2E2E2F5E2E2E2E2E2E2E2E2E2E2E2E2E2E2E2E2E2E2E2E2E2E2E2E2E2E2E2E2E2E2E2E2E2E2E2E2E2E2E2E2E2E2E2E2E2E2E2E2E2E2E2E2E2E2E2E2E2E2E2E2E2E2E2E2E2E2E2E2E2
310
E2E2E2E2E2E2E2E2E2E2E2E2E2E2E2E2E2E2E2E2E2E2E2E2E2E2E2E2E2E2E2E2E2E2E2E2E2E2E2E2E2E2E2E2E2E2E2E2E2E2E2E2E2E2E2E2E2E2E2E2E2E2E2E2E2E2E2F5E2E2E2E2E2E2E2E2E2E2E2E2E2E2E2E2F5E2E2E2F5F5E2E2E2F5E2E2E2E2E2E2E2E2E2E2E2E2E2E2E2E2F5E2E2E2E2E2E2E2E2E2E2E2E2E2E2E2E2
310
E2E2E2E2E2E2E2E2E2E2E2E2E2E2E2E2E2E2E2E2E2E2E2E2E2E2E2E2E2E2E2E2E2E2E2E2E2E2E2E2E2E2E2E2E2E2E2E2E2E2E2E2E2E2E2E2E2E2E2E2E2E2E2E2E2E2E2E2E2E2E2E2E2E2E2E2E2E2E2E2E2E2E2E2E2E2E2E2E2E2E2E2E2E2E2E2E2E2E2E2E2E2E2E2E2E2E2E2E2E2E2E2E2E2E2E2E2E2E2E2F5E2E2E2E2E2E2
310
E2E2E2E2E2E2E2E2E2E2F5E2E2E2F5F5E2E2E2F5E2E2E2E2E2E2E2E2E2E2E2E2E2E2E2E2F5E2E2E2E2E2E2E2E2E2E2E2E2E2E2E2E2E2E2E2E2E2E2E2E2E2E2E2E2E2E2E2E2E2E2E2E2E2E2E2E2E2E2E2E2E2E2E2E2E2E2E2E2E2E2E2E2E2E2E2E2E2E2E2E2E2E2E2E2E2E2E2E2E2E2E2E2E2E2E2E2E2E2E2E2E2E2E2E2E2E2
310
E2E2E2E2E2E2E2E2E2E2E2E2E2E2E2E2E2E2E2E2E2E2E2E2E2E2E2E2E2E2E2E2E2E2E2E2E2E2E2E2E2E2E2E2E2E2F5E2E2E2E2E2E2E2E2E2E2E2E2E2E2E2E2F5E2E2E2F5F5E2E2E2F5E2E2E2E2E2E2E2E2E2E2E2E2E2E2E2E2F5E2E2E2E2E2E2E2E2E2E2E2E2E2E2E2E2E2E2E2E2E2E2E2E2E2E2E2E2E2E2E2E2E2E2E2E2E2
310
E2E2E2E2E2E2E2E2E2E2E2E2E2E2E2E2E2E2E2E2E2E2E2E2E2E2E2E2E2E2E2E2E2E2E2E2E2E2E2E2E2E2E2E2E2E2E2E2E2E2E2E2E2E2E2E2E2E2E2E2E2E2E2E2E2E2E2E2E2E2E2E2E2E2E2E2E2E2E2E2E2E2E2E2E2E2E2E2E2E2E2E2E2E2E2E2E2E2E2F5E2E2E2E2E2E2E2E2E2E2E2E2E2E2E2E2F5E2E2E2F5F5E2E2E2F5E2
310
E2E2E2E2E2E2E2E2E2E2E2E2E2E2E2F5E2E2E2E2E2E2E2E2E2E2E2E2E2E2E2E2E2E2E2E2E2E2E2E2E2E2E2E2E2E2E2E2E2E2E2E2E2E2E2E2E2E2E2E2E2E2E2E2E2E2E2E2E2E2E2E2E2E2E2E2E2E2E2E2E2E2E2E2E2E2E2E2E2E2E2E2E2E2E2E2E2E2E2E2E2E2E2E2E2E2E2E2E2E2E2E2E2E2E2E2E2E2E2E2E2E2E2E2E2E2E2
310
E2E2E2E2E2E2E2E2E2E2E2E2E2E2E2E2E2E2E2E2E2E2E2E2E2F5E2E2E2E2E2E2E2E2E2E2E2E2E2E2E2E2F5E2E2E2F5F5E2E2E2F5E2E2E2E2E2E2E2E2E2E2E2E2E2E2E2E2F5E2E2E2E2E2E2E2E2E2E2E2E2E2E2E2E2E2E2E2E2E2E2E2E2E2E2E2E2E2E2E2E2E2E2E2E2E2E2E2E2E2E2E2E2E2E2E2E2E2E2E2E2E2E2E2E2E2E2
310
E2E2E2E2E2E2E2E2E2E2E2E2E2E2E2E2E2E2E2E2E2E2E2E2E2E2E2E2E2E2E2E2E2E2E2E2E2E2E2E2E2E2E2E2E2E2E2E2E2E2E2E2E2E2E2E2E2E2E2E2E2E2E2E2E2E2E2E2E2E2E2E2E2E2E2E2E2E2F5E2E2E2E2E2E2E2E2E2E2E2E2E2E2E2E2F5E2E2E2F5F5E2E2E2F5E2E2E2E2E2E2E2E2E2E2E2E2E2E2E2E2F5E2E2E2E2E2
310
E2E2E2E2E2E2E2E2E2E2E2E2E2E2E2E2E2E2E2E2E2E2E2E2E2E2E2E2E2E2E2E2E2E2E2E2E2E2E2E2E2E2E2E2E2E2E2E2E2E2E2E2E2E2E2E2E2E2E2E2E2E2E2E2E2E2E2E2E2E2E2E2E2E2E2E2E2E2E2E2E2E2E2E2E2E2E2E2E2E2E2E2E2E2E2E2E2E2E2E2E2E2E2E2E2E2E2E2E2E2E2E2E2E2E2E2E2E2E2E2E2E2E2E2E2E2E2
310
E2E2E2E2F5E2E2E2E2E2E2E2E2E2E2E2E2E2E2E2E2F5E2E2E2F5F5E2E2E2E2E2E2E2E2E2E2E2E2E2E2E2E2E2E2E2E2F5E2E2E2E2E2E2E2E2E2E2E2E2E2E2E2E2E2E2E2E2E2E2E2E2E2E2E2E2E2E2E2E2E2E2E2E2E2E2E2E2E2E2E2E2E2E2E2E2E2E2E2E2E2E2E2E2E2E2E2E2E2E2E2E2E2E2E2E2E2E2E2E2E2E2E2E2E2E2E2
310
E2E2E2E2E2E2E2E2E2E2E2E2E2E2E2E2E2E2E2E2E2E2E2E2E2E2E2E2E2E2E2E2E2E2E2E2E2E2E2E2E2E2E2E2E2E2E2E2E2E2E2E2E2E2E2E2E2F5E2E2E2E2E2E2E2E2E2E2E2E2E2E2E2E2E2E2E2E2F5F5E2E2E2E2E2E2E2E2E2E2E2E2E2E2E2E2E2E2E2E2F5E2E2E2E2E2E2E2E2E2E2E2E2E2E2E2E2E2E2E2E2E2E2E2E2E2E2
310
E2E2E2E2E2E2E2E2E2E2E2E2E2E2E2E2E2E2E2E2E2E2E2E2E2E2E2E2E2E2E2E2E2E2E2E2E2E2E2E2E2E2E2E2E2E2E2E2E2E2E2E2E2E2E2E2E2E2E2E2E2E2E2E2E2E2E2E2E2E2E2E2E2E2E2E2E2E2E2E2E2E2E2E2E2E2E2E2E2E2E2E2E2E2E2E2E2E2E2E2E2E2E2E2E2E2E2E2E2E2F5E2E2E2E2E2E2E2E2E2E2E2E2E2E2E2E2
310
E2E2E2E2F5F5E2E2E2E2E2E2E2E2E2E2E2E2E2E2E2E2E2E2E2E2F5E2E2E2E2E2E2E2E2E2E2E2E2E2E2E2E2E2E2E2E2E2E2E2E2E2E2E2E2E2E2E2E2E2E2E2E2E2E2E2E2E2E2E2E2E2E2E2E2E2E2E2E2E2E2E2E2E2E2E2E2E2E2E2E2E2E2E2E2E2E2E2E2E2E2E2E2E2E2E2E2E2E2E2E2E2E2E2E2E2E2E2E2E2E2E2E2E2E2E2E2
310
E2E2E2E2E2E2E2E2E2E2E2E2E2E2E2E2E2E2E2E2E2E2E2E2E2E2E2E2E2E2E2E2E2E2E2E2F5E2E2E2E2E2E2E2E2E2E2E2E2E2E2E2E2E2E2E2E2F5F5E2E2E2E2E2E2E2E2E2E2E2E2E2E2E2E2E2E2E2E2F5E2E2E2E2E2E2E2E2E2E2E2E2E2E2E2E2E2E2E2E2E2E2E2E2E2E2E2E2E2E2E2E2E2E2E2E2E2E2E2E2E2E2E2E2E2E2E2
310
E2E2E2E2E2E2E2E2E2E2E2E2E2E2E2E2E2E2E2E2E2E2E2E2E2E2E2E2E2E2E2E2E2E2E2E2E2E2E2E2E2E2E2E2E2E2E2E2E2E2E2E2E2E2E2E2E2E2E2E2E2E2E2E2E2E2E2E2E2E2E2E2E2E2E2E2E2E2E2E2E2E2E2E2E2E2E2E2E2F5E2E2E2E2E2E2E2E2E2E2E2E2E2E2E2E2E2E2E2E2F5F5E2E2E2E2E2E2E2E2E2E2E2E2E2E2E2
310
E2E2E2E2E2F5F5F5F5F5F5F5F5F5F5F5F5F5F5F5F5F5F5F5F5F5F5F5F5F5F5F5F5F5F5F5F5F5F5F5F5F5F5F5F5F5F5F5F5F5F5F5F5F5F5F5F5F5F5F5F5F5F5F5F5F5F5F5F5F5F5F5F5F5F5F5F5F5F5F5F5F5F5F5F5F5F5F5F5F5F5F5F5F5F5F5F5F5F5F5F5F5F5F5F5F5F5F5F5F5F5F5F5F5F5F5F5F5F5F5F5F5F5F5F5F5F5
310
F5F5F5F5F5F5F5F5F5F5F5F5F5F5F5F5E2E2E2E2E2E2E2E2E2E2E2E2E2E2E2E2E2E2E2E2F5F5E2E2E2E2E2E2E2E2E2E2E2E2E2E2E2E2E2E2E2E2E2E2E2E2E2E2E2E2E2E2E2E2E2E2E2E2E2E2E2E2E2E2E2E2E2E2E2E2E2E2E2E2E2E2E2E2E2E2E2E2E2E2E2E2E2E2E2E2E2E2E2E2E2E2E2E2E2E2E2E2E2E2E2E2E2E2E2E2E2
310
E2E2E2E2E2E2E2E2E2E2E2E2E2E2E2E2E2E2E2E2E2E2E2E2E2E2E2E2E2E2E2E2E2E2E2E2E2E2E2E2E2E2E2E2E2E2E2E2E2E2E2E2E2E2E2E2E2E2E2E2E2E2E2E2E2E2E2E2E2E2E2E2E2E2E2E2E2E2E2E2E2E2E2E2E2E2E2E2E2F5F5E2E2E2E2E2E2E2E2E2E2E2E2E2E2E2E2E2E2E2E2E2E2E2E2E2E2E2E2E2E2E2E2E2E2E2E2
310
E2E2E2E2E2E2E2E2E2E2E2E2E2E2E2E2E2E2E2E2E2E2E2E2E2E2E2E2E2E2E2E2E2E2E2E2E2E2E2E2E2E2E2E2E2E2E2E2E2E2E2E2E2E2E2E2E2E2E2E2E2E2E2E2E2E2E2E2E2E2E2E2E2E2E2E2E2E2E2E2E2E2E2E2E2E2E2E2E2E2E2E2E2E2E2E2E2E2E2E2E2E2E2E2E2E2E2E2E2E2E2E2E2E2E2E2E2E2E2E2E2E2E2E2E2E2E2
310
E2E2E2E2E2E2E2E2E2E2E2E2E2E2E2F5F5E2E2E2E2E2E2E2E2E2E2E2E2E2E2E2E2E2E2E2E2E2E2E2E2E2E2E2E2E2E2E2E2E2E2E2E2E2E2E2E2E2E2E2E2E2E2E2E2E2E2E2E2E2E2E2E2E2E2E2E2E2E2E2E2E2E2E2E2E2E2E2E2E2E2E2E2E2E2E2E2E2E2E2E2E2E2E2E2E2E2E2E2E2E2E2E2E2E2E2E2E2E2E2E2E2E2E2E2E2E2
310
E2E2E2E2E2E2E2E2E2E2E2E2E2E2E2E2E2E2E2E2E2E2E2E2E2E2E2E2E2E2E2E2E2E2E2E2E2E2E2E2E2E2E2E2E2E2E2E2E2E2E2E2E2E2E2E2E2E2E2E2E2E2E2E2E2E2E2E2F5F5E2E2E2E2E2E2E2E2E2E2E2E2E2E2E2E2E2E2E2E2E2E2E2E2E2E2E2E2E2E2E2E2E2E2E2E2E2E2E2E2E2E2E2E2E2E2E2E2E2E2E2E2E2E2E2E2E2
310
E2E2E2E2E2E2E2E2E2E2E2E2E2E2E2E2E2E2E2E2E2E2E2E2E2E2E2E2E2E2E2E2E2E2E2E2E2E2E2E2E2E2E2E2E2E2E2E2E2E2E2E2E2E2E2E2E2E2E2E2E2E2E2E2E2E2E2E2E2E2E2E2E2E2E2E2E2E2E2E2E2E2E2E2E2E2E2E2E2E2E2E2E2E2E2E2E2E2E2E2E2E2E2E2E2E2E2E2E2E2E2E2E2E2E2E2E2E2E2E2E2F5F5E2E2E2F5
310
E2E2E2E2E2E2E2E2E2E2E2E2E2E2E2E2E2E2E2E2E2E2E2E2E2E2E2E2E2E2E2E2E2E2E2E2E2E2E2E2E2E2E2E2E2E2E2E2E2E2E2E2E2E2E2E2E2E2E2E2E2E2E2E2E2E2E2E2E2E2E2E2E2E2E2E2E2E2E2E2E2E2E2E2E2E2E2E2E2E2E2E2E2E2E2E2E2E2E2E2E2E2E2E2E2E2E2E2E2E2E2E2E2E2E2E2E2E2E2E2E2E2E2E2E2E2E2
310
E2E2E2E2E2E2E2E2E2E2E2E2E2E2E2E2E2E2E2E2E2E2E2E2E2E2E2E2E2E2E2E2E2E2E2E2E2E2E2E2E2E2E2F5E2E2E2F5F5E2E2E2F5E2E2E2E2E2E2E2E2E2E2E2E2E2E2E2E2E2E2E2E2E2E2E2E2E2E2E2E2E2E2E2E2E2E2E2E2E2E2E2E2E2E2E2E2E2E2E2E2E2E2E2E2E2E2E2E2E2E2E2E2E2E2E2E2E2E2E2E2E2E2E2E2E2E2
310
E2E2E2E2E2E2E2E2E2E2E2E2E2E2E2E2E2E2E2E2E2E2E2E2E2E2E2E2E2E2E2E2E2E2E2E2E2E2E2E2E2E2E2E2E2E2E2E2E2E2E2E2E2E2E2E2E2E2E2E2E2E2E2E2E2E2E2E2E2E2E2E2E2E2E2E2E2E2E2E2E2E2E2E2E2E2E2E2E2E2E2E2E2E2E2E2F5E2E2E2F5F5E2E2E2F5E2E2E2E2E2E2E2E2E2E2E2E2E2E2E2E2E2E2E2E2E2
310
E2E2E2E2E2E2E2E2E2E2E2E2E2E2E2E2E2E2E2E2E2E2E2E2E2E2E2E2E2E2E2E2E2E2E2E2E2E2E2E2E2E2E2E2E2E2E2E2E2E2E2E2E2E2E2E2E2E2E2E2E2E2E2E2E2E2E2E2E2E2E2E2E2E2E2E2E2E2E2E2E2E2E2E2E2E2E2E2E2E2E2E2E2E2E2E2E2E2E2E2E2E2E2E2E2E2E2E2E2E2E2E2E2E2E2E2E2E2E2E2E2E2E2E2E2E2E2
310
E2E2E2E2E2E2E2E2E2E2E2E2E2E2E2E2E2E2E2E2E2E2F5E2E2E2F5F5E2E2E2F5E2E2E2E2E2E2E2E2E2E2E2E2E2E2E2E2E2E2E2E2E2E2E2E2E2E2E2E2E2E2E2E2E2E2E2E2E2E2E2E2E2E2E2E2E2E2E2E2E2E2E2E2E2E2E2E2E2E2E2E2E2E2E2E2E2E2E2E2E2E2E2E2E2E2E2E2E2E2E2E2E2E2E2E2E2E2E2E2E2E2E2E2E2E2E2
310
E2E2E2E2E2E2E2E2E2E2E2E2E2E2E2E2E2E2E2E2E2E2E2E2E2E2E2E2E2E2E2E2E2E2E2E2E2E2E2E2E2E2E2E2E2E2E2E2E2E2E2E2E2E2E2E2E2E2E2E2E2E2E2E2E2E2E2E2E2E2E2E2E2E2E2F5E2E2E2F5F5E2E2E2F5E2E2E2E2E2E2E2E2E2E2E2E2E2E2E2E2E2E2E2E2E2E2E2E2E2E2E2E2E2E2E2E2E2E2E2E2E2E2E2E2E2E2
310
E2E2E2E2E2E2E2E2E2E2E2E2E2E2E2E2E2E2E2E2E2E2E2E2E2E2E2E2E2E2E2E2E2E2E2E2E2E2E2E2E2E2E2E2E2E2E2E2E2E2E2E2E2E2E2E2E2E2E2E2E2E2E2E2E2E2E2E2E2E2E2E2E2E2E2E2E2E2E2E2E2E2E2E2E2E2E2E2E2E2E2E2E2E2E2E2E2E2E2E2E2E2E2E2E2E2E2E2E2E2E2E2E2E2E2E2E2E2E2E2E2E2E2E2E2E2E2
310
E2F5E2E2E2F5F5E2E2E2F5E2E2E2E2E2E2E2E2E2E2E2E2E2E2E2E2E2E2E2E2E2E2E2E2E2E2E2E2E2E2E2E2E2E2E2E2E2E2E2E2E2E2E2E2E2E2E2E2E2E2E2E2E2E2E2E2E2E2E2E2E2E2E2E2E2E2E2E2E2E2E2E2E2E2E2E2E2E2E2E2E2E2E2E2E2E2E2E2E2E2E2E2E2E2E2E2E2E2E2E2E2E2E2E2E2E2E2E2E2E2E2E2E2E2E2E2
310
E2E2E2E2E2E2E2E2E2E2E2E2E2E2E2E2E2E2E2E2E2E2E2E2E2E2E2E2E2E2E2E2E2E2E2E2E2E2E2E2E2E2E2E2E2E2E2E2E2E2E2E2E2E2F5E2E2E2F5F5E2E2E2F5E2E2E2E2E2E2E2E2E2E2E2E2E2E2E2E2E2E2E2E2E2E2E2E2E2E2E2E2E2E2E2E2E2E2E2E2E2E2E2E2E2E2E2E2E2E2E2E2E2E2E2E2E2E2E2E2E2E2E2E2E2E2E2
310
E2E2E2E2E2E2E2E2E2E2E2E2E2E2E2E2E2E2E2E2E2E2E2E2E2E2E2E2E2E2E2E2E2E2E2E2E2E2E2E2E2E2E2E2E2E2E2E2E2E2E2E2E2E2E2E2E2E2E2E2E2E2E2E2E2E2E2E2E2E2E2E2E2E2E2E2E2E2E2E2E2E2E2E2E2E2E2E2E2E2E2E2E2E2E2E2E2E2E2E2E2E2E2E2E2E2E2F5E2E2E2F5F5E2E2E2F5E2E2E2E2E2E2E2E2E2E2
310
E2E2E2E2E2E2E2E2E2E2E2E2E2E2E2E2E2E2E2E2E2E2E2E2E2E2E2E2E2E2E2E2E2E2E2E2E2E2E2E2E2E2E2E2E2E2E2E2E2E2E2E2E2E2E2E2E2E2E2E2E2E2E2E2E2E2E2E2E2E2E2E2E2E2E2E2E2E2E2E2E2E2E2E2E2E2E2E2E2E2E2E2E2E2E2E2E2E2E2E2E2E2E2E2E2E2E2E2E2E2E2E2E2E2E2E2E2E2E2E2E2E2E2E2E2E2E2
310
E2E2E2E2E2E2E2E2E2E2E2E2E2E2E2E2E2E2E2E2E2E2E2E2E2E2E2E2E2E2E2E2E2F5E2E2E2F5F5E2E2E2F5F5F5F5F5F5F5F5E2E2E2E2E2E2E2E2E2F5F5F5F5F5F5F5F5F5F5F5F5F5F5F5F5E2E2E2E2E2E2E2E2E2F5F5F5F5F5F5F5F5F5F5F5F5F5F5F5E2E2E2E2E2E2E2E2E2F5F5F5F5F5F5F5F5F5F5F5F5F5F5F5F5E2E2E2
310
E2E2E2E2E2F5F5F5F5F5F5F5F5F5F5F5F5F5F5F5F5E2E2E2E2E2E2E2E2E2F5F5F5F5F5F5F5F5F5F5F5F5F5F5F5E2E2E2E2E2E2E2E2E2F5F5F5F5F5F5F5F5F5F5F5F5F5F5F5F5E2E2E2E2E2E2E2E2E2F5F5F5F5F5F5F5F5E2E2E2F5F5E2E2E2E2E2E2E2E2E2E2E2E2E2E2E2E2E2E2E2E2E2E2E2E2E2E2E2E2E2E2E2E2E2E2E2
310
E2E2E2E2E2E2E2E2E2E2E2E2E2E2E2E2E2E2E2E2E2E2E2E2E2E2E2E2E2E2E2E2E2E2E2E2E2E2E2E2E2E2E2E2E2E2E2E2E2E2E2E2E2E2E2E2E2E2E2E2E2E2E2E2E2E2E2E2E2E2E2E2E2E2E2E2E2E2E2E2E2E2E2E2E2E2E2E2E2E2E2E2E2E2E2E2E2E2E2E2E2E2E2E2E2E2E2E2E2E2E2E2E2E2E2E2E2E2E2E2E2E2E2E2E2E2E2
310
E2E2E2E2E2E2E2E2E2E2E2E2E2E2E2E2F5F5E2E2E2E2E2E2E2E2E2E2E2E2E2E2E2E2E2E2E2E2E2E2E2E2E2E2E2E2E2E2E2E2E2E2E2E2E2E2E2E2E2E2E2E2E2E2E2E2E2E2E2E2E2E2E2E2E2E2E2E2E2E2E2E2E2E2E2E2E2E2E2E2E2E2E2E2E2E2E2E2E2E2E2E2E2E2E2E2E2E2E2E2E2E2E2E2E2E2E2E2E2E2E2E2E2E2E2E2E2
310
E2E2E2E2E2E2E2E2E2E2E2E2E2E2E2E2E2E2E2E2E2E2E2E2E2E2E2E2E2E2E2E2E2E2E2E2E2E2E2E2E2E2E2E2E2E2E2E2E2E2E2E2E2E2E2E2E2E2E2E2E2E2E2E2E2E2E2E2E2F5F5E2E2E2E2E2E2E2E2E2E2E2E2E2E2E2E2E2E2E2E2E2E2E2E2E2E2E2E2E2E2E2E2E2E2E2E2E2E2E2E2E2E2E2E2E2E2E2E2E2E2E2E2E2E2E2E2
310
E2E2E2E2E2E2E2E2E2E2E2E2E2E2E2E2E2E2E2E2E2E2E2E2E2E2E2E2E2E2E2E2E2E2E2E2E2E2E2E2E2E2E2E2E2E2E2E2E2E2E2E2E2E2E2E2E2E2E2E2E2E2E2E2E2E2E2E2E2E2E2E2E2E2E2E2E2E2E2E2E2E2E2E2E2E2E2E2E2E2E2E2E2E2E2E2E2E2E2E2E2E2E2E2E2E2E2E2E2E2E2E2E2E2E2E2E2E2E2E2E2E2F5F5E2E2E2
310
E2E2E2E2E2E2E2E2E2E2E2E2E2E2E2E2E2E2E2E2E2E2E2E2E2E2E2E2E2E2E2E2E2E2E2E2E2E2E2E2E2E2E2E2E2E2E2E2E2E2E2E2E2E2E2E2E2E2E2E2E2E2E2E2E2E2E2E2E2E2E2E2E2E2E2E2E2E2E2E2E2E2E2E2E2E2E2E2E2E2E2E2E2E2E2E2E2E2E2E2E2E2E2E2E2E2E2E2E2E2E2E2E2E2E2E2E2E2E2E2E2E2E2E2E2E2E2
310
E2E2E2E2E2E2E2E2E2E2E2E2E2E2E2E2E2E2E2E2E2E2E2E2E2E2E2E2E2E2E2E2E2E2E2E2E2E2E2E2E2E2E2E2E2E2E2E2F5
  0
XRECORD
  5
56ED1
102
{ACAD_REACTORS
330
56ED0
102
}
330
56ED0
100
AcDbXrecord
280
     1
102
SHADEPLOT
 70
     0
102
SHADEPLOTRESLEVEL
 70
     2
102
SHADEPLOTCUSTOMDPI
 70
   300
  0
ENDSEC
  0
EOF
