  0
SECTION
  2
HEADER
  9
$ACADVER
  1
AC1015
  9
$ACADMAINTVER
 70
    20
  9
$DWGCODEPAGE
  3
ANSI_936
  9
$INSBASE
 10
0.0
 20
0.0
 30
0.0
  9
$EXTMIN
 10
-125.4402099999999
 20
-238.2211354823208
 30
0.0
  9
$EXTMAX
 10
852.5914975947291
 20
91.33923152733041
 30
0.0
  9
$LIMMIN
 10
0.0
 20
0.0
  9
$LIMMAX
 10
420.0
 20
297.0
  9
$ORTHOMODE
 70
     0
  9
$REGENMODE
 70
     1
  9
$FILLMODE
 70
     1
  9
$QTEXTMODE
 70
     0
  9
$MIRRTEXT
 70
     1
  9
$LTSCALE
 40
1.0
  9
$ATTMODE
 70
     1
  9
$TEXTSIZE
 40
3.5
  9
$TRACEWID
 40
1.0
  9
$TEXTSTYLE
  7
simplex
  9
$CLAYER
  8
0
  9
$CELTYPE
  6
ByLayer
  9
$CECOLOR
 62
   256
  9
$CELTSCALE
 40
1.0
  9
$DISPSILH
 70
     0
  9
$DIMSCALE
 40
0.0
  9
$DIMASZ
 40
3.5
  9
$DIMEXO
 40
0.0
  9
$DIMDLI
 40
0.38
  9
$DIMRND
 40
0.0
  9
$DIMDLE
 40
0.0
  9
$DIMEXE
 40
1.5
  9
$DIMTP
 40
0.0
  9
$DIMTM
 40
0.0
  9
$DIMTXT
 40
3.5
  9
$DIMCEN
 40
0.09
  9
$DIMTSZ
 40
0.0
  9
$DIMTOL
 70
     0
  9
$DIMLIM
 70
     0
  9
$DIMTIH
 70
     0
  9
$DIMTOH
 70
     0
  9
$DIMSE1
 70
     0
  9
$DIMSE2
 70
     0
  9
$DIMTAD
 70
     1
  9
$DIMZIN
 70
     8
  9
$DIMBLK
  1

  9
$DIMASO
 70
     1
  9
$DIMSHO
 70
     1
  9
$DIMPOST
  1

  9
$DIMAPOST
  1

  9
$DIMALT
 70
     0
  9
$DIMALTD
 70
     2
  9
$DIMALTF
 40
25.4
  9
$DIMLFAC
 40
1.0
  9
$DIMTOFL
 70
     0
  9
$DIMTVP
 40
0.0
  9
$DIMTIX
 70
     0
  9
$DIMSOXD
 70
     0
  9
$DIMSAH
 70
     0
  9
$DIMBLK1
  1

  9
$DIMBLK2
  1

  9
$DIMSTYLE
  2
\M+18352\M+18373\M+1815B - ISO-25
  9
$DIMCLRD
 70
   256
  9
$DIMCLRE
 70
   256
  9
$DIMCLRT
 70
   256
  9
$DIMTFAC
 40
1.0
  9
$DIMGAP
 40
2.299999999999998
  9
$DIMJUST
 70
     0
  9
$DIMSD1
 70
     0
  9
$DIMSD2
 70
     0
  9
$DIMTOLJ
 70
     1
  9
$DIMTZIN
 70
     8
  9
$DIMALTZ
 70
     0
  9
$DIMALTTZ
 70
     0
  9
$DIMUPT
 70
     0
  9
$DIMDEC
 70
     2
  9
$DIMTDEC
 70
     2
  9
$DIMALTU
 70
     2
  9
$DIMALTTD
 70
     2
  9
$DIMTXSTY
  7
simplex
  9
$DIMAUNIT
 70
     0
  9
$DIMADEC
 70
     0
  9
$DIMALTRND
 40
0.0
  9
$DIMAZIN
 70
     0
  9
$DIMDSEP
 70
    46
  9
$DIMATFIT
 70
     3
  9
$DIMFRAC
 70
     0
  9
$DIMLDRBLK
  1

  9
$DIMLUNIT
 70
     2
  9
$DIMLWD
 70
    -1
  9
$DIMLWE
 70
    -1
  9
$DIMTMOVE
 70
     0
  9
$LUNITS
 70
     2
  9
$LUPREC
 70
     4
  9
$SKETCHINC
 40
1.0
  9
$FILLETRAD
 40
0.5
  9
$AUNITS
 70
     0
  9
$AUPREC
 70
     0
  9
$MENU
  1
.
  9
$ELEVATION
 40
0.0
  9
$PELEVATION
 40
0.0
  9
$THICKNESS
 40
0.0
  9
$LIMCHECK
 70
     0
  9
$CHAMFERA
 40
10.0
  9
$CHAMFERB
 40
10.0
  9
$CHAMFERC
 40
20.0
  9
$CHAMFERD
 40
0.0
  9
$SKPOLY
 70
     0
  9
$TDCREATE
 40
2455489.391063368
  9
$TDUCREATE
 40
2455489.057730035
  9
$TDUPDATE
 40
2458572.943223843
  9
$TDUUPDATE
 40
2458572.609890509
  9
$TDINDWG
 40
2.7186329398
  9
$TDUSRTIMER
 40
2.7185761921
  9
$USRTIMER
 70
     1
  9
$ANGBASE
 50
0.0
  9
$ANGDIR
 70
     0
  9
$PDMODE
 70
     0
  9
$PDSIZE
 40
0.0
  9
$PLINEWID
 40
0.0
  9
$SPLFRAME
 70
     0
  9
$SPLINETYPE
 70
     6
  9
$SPLINESEGS
 70
     8
  9
$HANDSEED
  5
56269
  9
$SURFTAB1
 70
     6
  9
$SURFTAB2
 70
     6
  9
$SURFTYPE
 70
     6
  9
$SURFU
 70
     6
  9
$SURFV
 70
     6
  9
$UCSBASE
  2

  9
$UCSNAME
  2

  9
$UCSORG
 10
0.0
 20
0.0
 30
0.0
  9
$UCSXDIR
 10
1.0
 20
0.0
 30
0.0
  9
$UCSYDIR
 10
0.0
 20
1.0
 30
0.0
  9
$UCSORTHOREF
  2

  9
$UCSORTHOVIEW
 70
     0
  9
$UCSORGTOP
 10
0.0
 20
0.0
 30
0.0
  9
$UCSORGBOTTOM
 10
0.0
 20
0.0
 30
0.0
  9
$UCSORGLEFT
 10
0.0
 20
0.0
 30
0.0
  9
$UCSORGRIGHT
 10
0.0
 20
0.0
 30
0.0
  9
$UCSORGFRONT
 10
0.0
 20
0.0
 30
0.0
  9
$UCSORGBACK
 10
0.0
 20
0.0
 30
0.0
  9
$PUCSBASE
  2

  9
$PUCSNAME
  2

  9
$PUCSORG
 10
0.0
 20
0.0
 30
0.0
  9
$PUCSXDIR
 10
1.0
 20
0.0
 30
0.0
  9
$PUCSYDIR
 10
0.0
 20
1.0
 30
0.0
  9
$PUCSORTHOREF
  2

  9
$PUCSORTHOVIEW
 70
     0
  9
$PUCSORGTOP
 10
0.0
 20
0.0
 30
0.0
  9
$PUCSORGBOTTOM
 10
0.0
 20
0.0
 30
0.0
  9
$PUCSORGLEFT
 10
0.0
 20
0.0
 30
0.0
  9
$PUCSORGRIGHT
 10
0.0
 20
0.0
 30
0.0
  9
$PUCSORGFRONT
 10
0.0
 20
0.0
 30
0.0
  9
$PUCSORGBACK
 10
0.0
 20
0.0
 30
0.0
  9
$USERI1
 70
     0
  9
$USERI2
 70
     0
  9
$USERI3
 70
     0
  9
$USERI4
 70
     0
  9
$USERI5
 70
     0
  9
$USERR1
 40
0.0
  9
$USERR2
 40
0.0
  9
$USERR3
 40
0.0
  9
$USERR4
 40
0.0
  9
$USERR5
 40
0.0
  9
$WORLDVIEW
 70
     1
  9
$SHADEDGE
 70
     3
  9
$SHADEDIF
 70
    70
  9
$TILEMODE
 70
     1
  9
$MAXACTVP
 70
    64
  9
$PINSBASE
 10
0.0
 20
0.0
 30
0.0
  9
$PLIMCHECK
 70
     0
  9
$PEXTMIN
 10
26.66999878883364
 20
20.31999878883365
 30
0.0
  9
$PEXTMAX
 10
240.0299890995025
 20
182.8799890995025
 30
0.0
  9
$PLIMMIN
 10
-6.350006103515625
 20
-6.349999904632567
  9
$PLIMMAX
 10
273.0499877929688
 20
209.5499939918518
  9
$UNITMODE
 70
     0
  9
$VISRETAIN
 70
     1
  9
$PLINEGEN
 70
     0
  9
$PSLTSCALE
 70
     1
  9
$TREEDEPTH
 70
  3020
  9
$CMLSTYLE
  2
Standard
  9
$CMLJUST
 70
     0
  9
$CMLSCALE
 40
20.0
  9
$PROXYGRAPHICS
 70
     1
  9
$MEASUREMENT
 70
     1
  9
$CELWEIGHT
370
    -1
  9
$ENDCAPS
280
     0
  9
$JOINSTYLE
280
     0
  9
$LWDISPLAY
290
     0
  9
$INSUNITS
 70
     4
  9
$HYPERLINKBASE
  1

  9
$STYLESHEET
  1

  9
$XEDIT
290
     1
  9
$CEPSNTYPE
380
     0
  9
$PSTYLEMODE
290
     1
  9
$FINGERPRINTGUID
  2
{601DDA01-5B13-4A4C-8F56-1333B78D855B}
  9
$VERSIONGUID
  2
{55692AE6-51A2-4C52-B329-6038F0C6FBB2}
  9
$EXTNAMES
290
     1
  9
$PSVPSCALE
 40
0.0
  9
$OLESTARTUP
290
     0
  0
ENDSEC
  0
SECTION
  2
CLASSES
  0
CLASS
  1
ACDBDICTIONARYWDFLT
  2
AcDbDictionaryWithDefault
  3
ObjectDBX Classes
 90
        0
280
     0
281
     0
  0
CLASS
  1
ACDBPLACEHOLDER
  2
AcDbPlaceHolder
  3
ObjectDBX Classes
 90
        0
280
     0
281
     0
  0
CLASS
  1
LAYOUT
  2
AcDbLayout
  3
ObjectDBX Classes
 90
        0
280
     0
281
     0
  0
CLASS
  1
DICTIONARYVAR
  2
AcDbDictionaryVar
  3
ObjectDBX Classes
 90
        0
280
     0
281
     0
  0
CLASS
  1
TABLESTYLE
  2
AcDbTableStyle
  3
ObjectDBX Classes
 90
     2047
280
     0
281
     0
  0
CLASS
  1
SORTENTSTABLE
  2
AcDbSortentsTable
  3
ObjectDBX Classes
 90
        0
280
     0
281
     0
  0
CLASS
  1
DIMASSOC
  2
AcDbDimAssoc
  3
"AcDbDimAssoc|Product Desc:     AcDim ARX App For Dimension|Company:          Autodesk, Inc.|WEB Address:      www.autodesk.com"
 90
        0
280
     0
281
     0
  0
CLASS
  1
ACAD_EVALUATION_GRAPH
  2
AcDbEvalGraph
  3
ObjectDBX Classes
 90
    33921
280
     0
281
     0
  0
CLASS
  1
ACAECUSTOBJ
  2
AcAeEditorObj
  3
AcAeEditorObj
 90
    33792
280
     0
281
     0
  0
CLASS
  1
ACDB_DYNAMICBLOCKPURGEPREVENTER_VERSION
  2
AcDbDynamicBlockPurgePreventer
  3
ObjectDBX Classes
 90
    33921
280
     0
281
     0
  0
ENDSEC
  0
SECTION
  2
TABLES
  0
TABLE
  2
VPORT
  5
8
330
0
100
AcDbSymbolTable
 70
     8
  0
VPORT
  5
5625A
330
8
100
AcDbSymbolTableRecord
100
AcDbViewportTableRecord
  2
*Active
 70
     0
 10
0.0
 20
0.0
 11
1.0
 21
1.0
 12
7.743189350851025
 22
1.542919246108539
 13
0.0
 23
0.0
 14
10.0
 24
10.0
 15
10.0
 25
10.0
 16
0.0
 26
0.0
 36
1.0
 17
0.0
 27
0.0
 37
0.0
 40
472.5136622561707
 41
1.508350730688935
 42
50.0
 43
0.0
 44
0.0
 50
0.0
 51
0.0
 71
     0
 72
  1000
 73
     1
 74
     1
 75
     0
 76
     0
 77
     0
 78
     0
281
     0
 65
     1
110
0.0
120
0.0
130
0.0
111
1.0
121
0.0
131
0.0
112
0.0
122
1.0
132
0.0
 79
     0
146
0.0
  0
ENDTAB
  0
TABLE
  2
LTYPE
  5
5
330
0
100
AcDbSymbolTable
 70
     4
  0
LTYPE
  5
14
330
5
100
AcDbSymbolTableRecord
100
AcDbLinetypeTableRecord
  2
ByBlock
 70
     0
  3

 72
    65
 73
     0
 40
0.0
  0
LTYPE
  5
15
330
5
100
AcDbSymbolTableRecord
100
AcDbLinetypeTableRecord
  2
ByLayer
 70
     0
  3

 72
    65
 73
     0
 40
0.0
  0
LTYPE
  5
16
330
5
100
AcDbSymbolTableRecord
100
AcDbLinetypeTableRecord
  2
Continuous
 70
     0
  3
Solid line
 72
    65
 73
     0
 40
0.0
  0
LTYPE
  5
D7
330
5
100
AcDbSymbolTableRecord
100
AcDbLinetypeTableRecord
  2
HIDDEN
 70
     0
  3
Hidden __ __ __ __ __ __ __ __ __ __ __ __ __ _
 72
    65
 73
     2
 40
9.524999999999996
 49
6.349999999999997
 74
     0
 49
-3.174999999999998
 74
     0
  0
LTYPE
  5
D9
330
5
100
AcDbSymbolTableRecord
100
AcDbLinetypeTableRecord
  2
CENTER
 70
     0
  3
Center ____ _ ____ _ ____ _ ____ _ ____ _ ____
 72
    65
 73
     4
 40
50.8
 49
31.75
 74
     0
 49
-6.349999999999997
 74
     0
 49
6.349999999999997
 74
     0
 49
-6.349999999999997
 74
     0
  0
LTYPE
  5
35815
330
5
100
AcDbSymbolTableRecord
100
AcDbLinetypeTableRecord
  2
PHANTOM
 70
     0
  3
_____ _ _ _____ _ _ _____ _ _ _____
 72
    65
 73
     6
 40
0.8
 49
0.45
 74
     0
 49
-0.05
 74
     0
 49
0.1
 74
     0
 49
-0.05
 74
     0
 49
0.1
 74
     0
 49
-0.05
 74
     0
  0
ENDTAB
  0
TABLE
  2
LAYER
  5
2
102
{ACAD_XDICTIONARY
360
E2
102
}
330
0
100
AcDbSymbolTable
 70
    14
  0
LAYER
  5
10
330
2
100
AcDbSymbolTableRecord
100
AcDbLayerTableRecord
  2
0
 70
     0
 62
     7
  6
Continuous
370
    -3
390
F
  0
LAYER
  5
D1
330
2
100
AcDbSymbolTableRecord
100
AcDbLayerTableRecord
  2
1
 70
     0
 62
     4
  6
Continuous
370
    50
390
F
1001
AcAecLayerStandard
1000

1000

  0
LAYER
  5
D3
330
2
100
AcDbSymbolTableRecord
100
AcDbLayerTableRecord
  2
2
 70
     0
 62
     7
  6
Continuous
370
    25
390
F
1001
AcAecLayerStandard
1000

1000

  0
LAYER
  5
D4
330
2
100
AcDbSymbolTableRecord
100
AcDbLayerTableRecord
  2
3
 70
     0
 62
     1
  6
HIDDEN
370
    35
390
F
1001
AcAecLayerStandard
1000

1000

  0
LAYER
  5
D8
330
2
100
AcDbSymbolTableRecord
100
AcDbLayerTableRecord
  2
4
 70
     0
 62
     2
  6
CENTER
370
    25
390
F
1001
AcAecLayerStandard
1000

1000

  0
LAYER
  5
DA
330
2
100
AcDbSymbolTableRecord
100
AcDbLayerTableRecord
  2
6
 70
     0
 62
     5
  6
Continuous
370
    35
390
F
1001
AcAecLayerStandard
1000

1000

  0
LAYER
  5
DB
330
2
100
AcDbSymbolTableRecord
100
AcDbLayerTableRecord
  2
cut
 70
     0
 62
     1
  6
Continuous
370
    25
390
F
1001
AcAecLayerStandard
1000

1000

  0
LAYER
  5
DC
330
2
100
AcDbSymbolTableRecord
100
AcDbLayerTableRecord
  2
nocut
 70
     0
 62
     7
  6
Continuous
370
    25
390
F
1001
AcAecLayerStandard
1000

1000

  0
LAYER
  5
DD
330
2
100
AcDbSymbolTableRecord
100
AcDbLayerTableRecord
  2
sk1
 70
     0
 62
     4
  6
Continuous
370
    50
390
F
1001
AcAecLayerStandard
1000

1000

  0
LAYER
  5
DE
330
2
100
AcDbSymbolTableRecord
100
AcDbLayerTableRecord
  2
sk2
 70
     0
 62
     7
  6
Continuous
370
    25
390
F
1001
AcAecLayerStandard
1000

1000

  0
LAYER
  5
DF
330
2
100
AcDbSymbolTableRecord
100
AcDbLayerTableRecord
  2
sk3
 70
     0
 62
     1
  6
HIDDEN
370
    35
390
F
1001
AcAecLayerStandard
1000

1000

  0
LAYER
  5
E0
330
2
100
AcDbSymbolTableRecord
100
AcDbLayerTableRecord
  2
sk4
 70
     0
 62
     2
  6
CENTER
370
    25
390
F
1001
AcAecLayerStandard
1000

1000

  0
LAYER
  5
E1
330
2
100
AcDbSymbolTableRecord
100
AcDbLayerTableRecord
  2
sk6
 70
     0
 62
     5
  6
Continuous
370
    35
390
F
1001
AcAecLayerStandard
1000

1000

  0
LAYER
  5
31B6
330
2
100
AcDbSymbolTableRecord
100
AcDbLayerTableRecord
  2
Defpoints
 70
     0
 62
     7
  6
Continuous
290
     0
370
    -3
390
F
  0
ENDTAB
  0
TABLE
  2
STYLE
  5
3
330
0
100
AcDbSymbolTable
 70
    12
  0
STYLE
  5
11
330
3
100
AcDbSymbolTableRecord
100
AcDbTextStyleTableRecord
  2
Standard
 70
     0
 40
0.0
 41
1.0
 50
0.0
 71
     0
 42
2.5
  3
txt.shx
  4
@extfont2.shx
  0
STYLE
  5
D6
330
3
100
AcDbSymbolTableRecord
100
AcDbTextStyleTableRecord
  2

 70
     1
 40
0.0
 41
1.0
 50
0.0
 71
     0
 42
2.5
  3
ltypeshp.shx
  4

  0
STYLE
  5
24A
330
3
100
AcDbSymbolTableRecord
100
AcDbTextStyleTableRecord
  2
simplex
 70
     0
 40
3.5
 41
1.0
 50
0.0
 71
     0
 42
3.5
  3
txt.shx
  4

  0
STYLE
  5
69E
330
3
100
AcDbSymbolTableRecord
100
AcDbTextStyleTableRecord
  2
MX_NOTE_STANDARD
 70
     0
 40
0.0
 41
1.0
 50
0.0
 71
     0
 42
4.2
  3
txt.shx
  4
extfont.shx
  0
STYLE
  5
3524
330
3
100
AcDbSymbolTableRecord
100
AcDbTextStyleTableRecord
  2
TEXTSTYLE_2
 70
     0
 40
0.0
 41
0.775
 50
0.0
 71
     0
 42
0.2
  3
gdt
  4

  0
STYLE
  5
3525
330
3
100
AcDbSymbolTableRecord
100
AcDbTextStyleTableRecord
  2
TEXTSTYLE_3
 70
     0
 40
0.0
 41
0.75
 50
0.0
 71
     0
 42
0.2
  3
txt
  4

  0
STYLE
  5
3526
330
3
100
AcDbSymbolTableRecord
100
AcDbTextStyleTableRecord
  2
TEXTSTYLE_13
 70
     0
 40
0.0
 41
1.0
 50
0.0
 71
     0
 42
0.2
  3
txt
  4

  0
STYLE
  5
519A
330
3
100
AcDbSymbolTableRecord
100
AcDbTextStyleTableRecord
  2
TEXTSTYLE_14
 70
     0
 40
0.0
 41
1.0
 50
0.0
 71
     0
 42
0.2
  3
txt
  4

  0
STYLE
  5
6F72
330
3
100
AcDbSymbolTableRecord
100
AcDbTextStyleTableRecord
  2
TEXTSTYLE_4
 70
     0
 40
0.0
 41
0.75
 50
0.0
 71
     0
 42
0.2
  3
txt
  4

  0
STYLE
  5
6F73
330
3
100
AcDbSymbolTableRecord
100
AcDbTextStyleTableRecord
  2
TEXTSTYLE_17
 70
     0
 40
0.0
 41
1.0
 50
0.0
 71
     0
 42
0.2
  3
txt
  4

  0
STYLE
  5
FE12
330
3
100
AcDbSymbolTableRecord
100
AcDbTextStyleTableRecord
  2
TEXTSTYLE_12
 70
     0
 40
0.0
 41
1.0
 50
0.0
 71
     0
 42
0.2
  3
txt
  4

  0
STYLE
  5
3AAB8
330
3
100
AcDbSymbolTableRecord
100
AcDbTextStyleTableRecord
  2
TEXTSTYLE_20
 70
     0
 40
0.0
 41
0.6
 50
0.0
 71
     0
 42
0.2
  3
txt
  4

  0
ENDTAB
  0
TABLE
  2
VIEW
  5
6
330
0
100
AcDbSymbolTable
 70
     0
  0
ENDTAB
  0
TABLE
  2
UCS
  5
7
330
0
100
AcDbSymbolTable
 70
     0
  0
ENDTAB
  0
TABLE
  2
APPID
  5
9
330
0
100
AcDbSymbolTable
 70
    11
  0
APPID
  5
12
330
9
100
AcDbSymbolTableRecord
100
AcDbRegAppTableRecord
  2
ACAD
 70
     0
  0
APPID
  5
D2
330
9
100
AcDbSymbolTableRecord
100
AcDbRegAppTableRecord
  2
AcAecLayerStandard
 70
     0
  0
APPID
  5
E6
330
9
100
AcDbSymbolTableRecord
100
AcDbRegAppTableRecord
  2
ACAD_DSTYLE_DIMTEXT_FILL
 70
     0
  0
APPID
  5
4C84
330
9
100
AcDbSymbolTableRecord
100
AcDbRegAppTableRecord
  2
ACAD_EXEMPT_FROM_CAD_STANDARDS
 70
     0
  0
APPID
  5
3493E
330
9
100
AcDbSymbolTableRecord
100
AcDbRegAppTableRecord
  2
DCO15
 70
     0
  0
APPID
  5
3BAB0
330
9
100
AcDbSymbolTableRecord
100
AcDbRegAppTableRecord
  2
ACAD_DSTYLE_DIMEXT_ENABLED
 70
     0
  0
APPID
  5
3BAB1
330
9
100
AcDbSymbolTableRecord
100
AcDbRegAppTableRecord
  2
ACAD_DSTYLE_DIMEXT_LENGTH
 70
     0
  0
APPID
  5
3BEB4
330
9
100
AcDbSymbolTableRecord
100
AcDbRegAppTableRecord
  2
ACAUTHENVIRON
 70
     0
  0
APPID
  5
3BEB7
330
9
100
AcDbSymbolTableRecord
100
AcDbRegAppTableRecord
  2
AcDbDynamicBlockTrueName
 70
     0
  0
APPID
  5
3BEB8
330
9
100
AcDbSymbolTableRecord
100
AcDbRegAppTableRecord
  2
AcDbDynamicBlockGUID
 70
     0
  0
APPID
  5
3BEBA
330
9
100
AcDbSymbolTableRecord
100
AcDbRegAppTableRecord
  2
AcDbBlockRepETag
 70
     0
  0
ENDTAB
  0
TABLE
  2
DIMSTYLE
  5
A
330
0
100
AcDbSymbolTable
 70
    11
100
AcDbDimStyleTable
 71
     5
340
1BF
340
27
340
352A
340
3527
340
69F
  0
DIMSTYLE
105
27
330
A
100
AcDbSymbolTableRecord
100
AcDbDimStyleTableRecord
  2
ISO-25
 70
     0
 41
2.5
 42
0.625
 43
3.75
 44
1.25
 73
     0
 74
     0
 77
     1
 78
     8
140
2.5
141
2.5
143
0.03937007874016
147
0.625
171
     3
172
     1
271
     2
272
     2
274
     3
278
    44
283
     0
284
     8
340
11
  0
DIMSTYLE
105
1BF
102
{ACAD_REACTORS
330
55FAF
330
55FF7
330
560C4
330
560C7
330
5610C
330
56111
330
5611D
102
}
330
A
100
AcDbSymbolTableRecord
100
AcDbDimStyleTableRecord
  2
\M+18352\M+18373\M+1815B - ISO-25
 70
     0
 40
0.0
 41
3.5
 42
0.0
 44
1.5
 73
     0
 74
     0
 77
     1
 78
     8
140
3.5
147
2.299999999999998
176
   256
177
   256
178
   256
271
     2
272
     2
284
     8
340
24A
371
    -1
372
    -1
  0
DIMSTYLE
105
69F
330
A
100
AcDbSymbolTableRecord
100
AcDbDimStyleTableRecord
  2
MXDIMSTYLE
 70
     0
 41
2.5
 42
0.5
 43
3.75
 44
1.5
 73
     0
 74
     0
 77
     1
 78
     8
140
4.2
141
2.5
143
0.03937
147
1.0
171
     4
172
     1
173
     1
271
     2
272
     2
274
     4
283
     0
288
     1
340
69E
341
697
343
697
344
697
  0
DIMSTYLE
105
3527
330
A
100
AcDbSymbolTableRecord
100
AcDbDimStyleTableRecord
  2
STANDARD
 70
     0
 41
3.0
 47
0.001
 48
0.001
 71
     1
 73
     0
 74
     0
 77
     1
 78
     8
140
4.0
271
     3
272
     3
284
     8
340
11
341
34B1
342
34B1
343
34B1
344
34B1
  0
DIMSTYLE
105
3528
330
A
100
AcDbSymbolTableRecord
100
AcDbDimStyleTableRecord
  2
DIMSTYLE_1
 70
     0
 41
3.0
 73
     0
 74
     0
 77
     1
 78
     8
140
4.0
271
     3
272
     3
284
     8
340
11
341
34B1
342
34B1
343
34B1
344
34B1
  0
DIMSTYLE
105
3529
330
A
100
AcDbSymbolTableRecord
100
AcDbDimStyleTableRecord
  2
DIMSTYLE_2
 70
     0
 41
3.0
 47
0.001
 48
0.001
 73
     0
 74
     0
 77
     1
 78
     8
140
4.0
271
     3
272
     3
284
     8
340
11
341
34B1
342
34B1
343
34B1
344
34B1
  0
DIMSTYLE
105
352A
330
A
100
AcDbSymbolTableRecord
100
AcDbDimStyleTableRecord
  2
DIMSTYLE_3
 70
     0
 41
3.0
 47
-0.1
 48
0.3
 71
     1
 73
     0
 74
     0
 77
     1
 78
     8
140
4.0
146
0.5
271
     3
272
     3
284
     8
340
11
341
34B1
342
34B1
343
34B1
344
34B1
  0
DIMSTYLE
105
352B
330
A
100
AcDbSymbolTableRecord
100
AcDbDimStyleTableRecord
  2
DIMSTYLE_4
 70
     0
 41
3.0
 47
0.1
 48
0.1
 71
     1
 73
     0
 74
     0
 77
     1
 78
     8
140
4.0
271
     3
272
     3
284
     8
340
11
341
34B1
342
34B1
343
34B1
344
34B1
  0
DIMSTYLE
105
27245
330
A
100
AcDbSymbolTableRecord
100
AcDbDimStyleTableRecord
  2
DIMSTYLE_5
 70
     0
 41
3.0
 47
0.001
 48
0.001
 73
     0
 74
     0
 77
     1
 78
     8
140
4.0
271
     3
272
     3
284
     8
340
11
341
34B1
342
34B1
343
34B1
344
34B1
  0
DIMSTYLE
105
3AAB9
330
A
100
AcDbSymbolTableRecord
100
AcDbDimStyleTableRecord
  2
DIMSTYLE_6
 70
     0
 41
3.0
 42
0.0
 44
1.0
 47
0.05
 48
0.05
 71
     1
 73
     0
 74
     0
 77
     1
 78
     8
140
4.0
147
1.0
271
     3
272
     3
284
     8
340
11
341
34B1
342
34B1
343
34B1
344
34B1
  0
DIMSTYLE
105
532EA
330
A
100
AcDbSymbolTableRecord
100
AcDbDimStyleTableRecord
  2
NEW-DIMSTYLE
 70
     0
 40
0.0
 41
4.57
 42
0.0
 44
5.0
 73
     0
 74
     0
 77
     1
 78
     8
140
4.57
147
2.299999999999998
271
     2
340
24A
  0
ENDTAB
  0
TABLE
  2
BLOCK_RECORD
  5
1
330
0
100
AcDbSymbolTable
 70
   122
  0
BLOCK_RECORD
  5
1F
102
{ACAD_XDICTIONARY
360
31EE
102
}
330
1
100
AcDbSymbolTableRecord
100
AcDbBlockTableRecord
  2
*Model_Space
340
22
  0
BLOCK_RECORD
  5
50
330
1
100
AcDbSymbolTableRecord
100
AcDbBlockTableRecord
  2
*Paper_Space
340
51
  0
BLOCK_RECORD
  5
55
330
1
100
AcDbSymbolTableRecord
100
AcDbBlockTableRecord
  2
*Paper_Space0
340
56
  0
BLOCK_RECORD
  5
680
102
{ACAD_XDICTIONARY
360
3BEB2
102
}
330
1
100
AcDbSymbolTableRecord
100
AcDbBlockTableRecord
  2
zero block
340
0
102
{BLKREFS
331
68C
102
}
1001
ACAD
1000
DesignCenter Data
1002
{
1070
     1
1070
     4
1002
}
1001
AcDbDynamicBlockGUID
1000
{C2E8894D-A8DA-456D-ABB6-198B00672C1A}
1001
AcDbBlockRepETag
1070
     1
1071
        7
  0
BLOCK_RECORD
  5
697
330
1
100
AcDbSymbolTableRecord
100
AcDbBlockTableRecord
  2
_OPEN30
340
0
  0
BLOCK_RECORD
  5
34B1
330
1
100
AcDbSymbolTableRecord
100
AcDbBlockTableRecord
  2
_OPEN
340
0
  0
BLOCK_RECORD
  5
50E6F
330
1
100
AcDbSymbolTableRecord
100
AcDbBlockTableRecord
  2
_None
340
0
  0
BLOCK_RECORD
  5
54C03
330
1
100
AcDbSymbolTableRecord
100
AcDbBlockTableRecord
  2
*D10
340
0
  0
BLOCK_RECORD
  5
5612A
330
1
100
AcDbSymbolTableRecord
100
AcDbBlockTableRecord
  2
*D109
340
0
  0
BLOCK_RECORD
  5
56152
330
1
100
AcDbSymbolTableRecord
100
AcDbBlockTableRecord
  2
*D113
340
0
  0
BLOCK_RECORD
  5
5615E
330
1
100
AcDbSymbolTableRecord
100
AcDbBlockTableRecord
  2
*D114
340
0
  0
BLOCK_RECORD
  5
56183
330
1
100
AcDbSymbolTableRecord
100
AcDbBlockTableRecord
  2
*D116
340
0
  0
BLOCK_RECORD
  5
561B6
330
1
100
AcDbSymbolTableRecord
100
AcDbBlockTableRecord
  2
*D119
340
0
  0
BLOCK_RECORD
  5
561CC
330
1
100
AcDbSymbolTableRecord
100
AcDbBlockTableRecord
  2
*D120
340
0
  0
BLOCK_RECORD
  5
561E2
330
1
100
AcDbSymbolTableRecord
100
AcDbBlockTableRecord
  2
*D121
340
0
  0
ENDTAB
  0
ENDSEC
  0
SECTION
  2
BLOCKS
  0
BLOCK
  5
20
330
1F
100
AcDbEntity
  8
0
100
AcDbBlockBegin
  2
*Model_Space
 70
     0
 10
0.0
 20
0.0
 30
0.0
  3
*Model_Space
  1

  0
ENDBLK
  5
21
330
1F
100
AcDbEntity
  8
0
100
AcDbBlockEnd
  0
BLOCK
  5
52
330
50
100
AcDbEntity
 67
     1
  8
0
100
AcDbBlockBegin
  2
*Paper_Space
 70
     0
 10
0.0
 20
0.0
 30
0.0
  3
*Paper_Space
  1

  0
ENDBLK
  5
53
330
50
100
AcDbEntity
 67
     1
  8
0
100
AcDbBlockEnd
  0
BLOCK
  5
57
330
55
100
AcDbEntity
 67
     1
  8
0
100
AcDbBlockBegin
  2
*Paper_Space0
 70
     0
 10
0.0
 20
0.0
 30
0.0
  3
*Paper_Space0
  1

  0
VIEWPORT
  5
71
102
{ACAD_XDICTIONARY
360
56265
102
}
330
55
100
AcDbEntity
 67
     1
  8
0
100
AcDbViewport
 10
150.1652135264906
 20
101.599997546291
 30
0.0
 40
339.1973820494347
 41
164.5360435314421
 68
     0
 69
     0
 12
150.1652135264906
 22
101.599997546291
 13
0.0
 23
0.0
 14
10.0
 24
10.0
 15
10.0
 25
10.0
 16
0.0
 26
0.0
 36
1.0
 17
0.0
 27
0.0
 37
0.0
 42
50.0
 43
0.0
 44
0.0
 45
164.5360435314421
 50
0.0
 51
0.0
 72
  1000
 90
    32864
  1

281
     0
 71
     1
 74
     0
110
0.0
120
0.0
130
0.0
111
1.0
121
0.0
131
0.0
112
0.0
122
1.0
132
0.0
 79
     0
146
0.0
  0
VIEWPORT
  5
73
102
{ACAD_XDICTIONARY
360
56267
102
}
330
55
100
AcDbEntity
 67
     1
  8
0
100
AcDbViewport
 10
133.3499939441681
 20
101.5999939441681
 30
0.0
 40
213.3599903106689
 41
162.5599903106689
 68
     0
 69
     0
 12
210.0
 22
148.5
 13
0.0
 23
0.0
 14
10.0
 24
10.0
 15
10.0
 25
10.0
 16
0.0
 26
0.0
 36
1.0
 17
0.0
 27
0.0
 37
0.0
 42
50.0
 43
0.0
 44
0.0
 45
324.0677920111345
 50
0.0
 51
0.0
 72
   100
 90
    32864
  1

281
     0
 71
     1
 74
     0
110
0.0
120
0.0
130
0.0
111
1.0
121
0.0
131
0.0
112
0.0
122
1.0
132
0.0
 79
     0
146
0.0
  0
ENDBLK
  5
58
330
55
100
AcDbEntity
 67
     1
  8
0
100
AcDbBlockEnd
  0
BLOCK
  5
68A
330
680
100
AcDbEntity
  8
0
100
AcDbBlockBegin
  2
zero block
 70
     0
 10
0.0
 20
0.0
 30
0.0
  3
zero block
  1

  0
HATCH
  5
3BEAB
330
680
100
AcDbEntity
  8
0
 62
     7
100
AcDbHatch
 10
0.0
 20
0.0
 30
0.0
210
0.0
220
0.0
230
1.0
  2
SOLID
 70
     1
 71
     0
 91
        2
 92
        7
 72
     1
 73
     1
 93
        3
 10
0.0
 20
0.9999999999999875
 42
0.4142135623730915
 10
-1.0
 20
0.0
 42
0.0
 10
0.0
 20
0.0
 42
0.0
 97
        0
 92
        7
 72
     1
 73
     1
 93
        3
 10
1.000000000000007
 20
0.0
 42
0.0
 10
0.0
 20
0.0
 42
0.0
 10
0.0
 20
-1.0
 42
0.4142135623730974
 97
        0
 75
     0
 76
     1
 47
0.0090601366782909
 98
        2
 10
-0.380591363650975
 20
0.4885804701532896
 10
0.4350764810977559
 20
-0.4536738423704725
1001
AcDbBlockRepETag
1070
     1
1071
        0
1005
3BEAB
  0
LINE
  5
3BEAC
330
680
100
AcDbEntity
  8
0
 62
     7
 48
0.2
100
AcDbLine
 10
-1.0
 20
0.0
 30
0.0
 11
1.000000000000007
 21
0.0
 31
0.0
1001
AcDbBlockRepETag
1070
     1
1071
        1
1005
3BEAC
  0
LINE
  5
3BEAD
330
680
100
AcDbEntity
  8
0
 62
     7
 48
0.2
100
AcDbLine
 10
0.0
 20
-1.0
 30
0.0
 11
0.0
 21
0.9999999999999875
 31
0.0
1001
AcDbBlockRepETag
1070
     1
1071
        2
1005
3BEAD
  0
ARC
  5
3BEAE
330
680
100
AcDbEntity
  8
0
 62
     7
 48
0.2
100
AcDbCircle
 10
0.0
 20
0.0
 30
0.0
 40
1.0
100
AcDbArc
 50
270.0
 51
0.0
1001
AcDbBlockRepETag
1070
     1
1071
        3
1005
3BEAE
  0
ARC
  5
3BEAF
330
680
100
AcDbEntity
  8
0
 62
     7
 48
0.2
100
AcDbCircle
 10
0.0
 20
0.0
 30
0.0
 40
1.0
100
AcDbArc
 50
0.0
 51
90.0
1001
AcDbBlockRepETag
1070
     1
1071
        4
1005
3BEAF
  0
ARC
  5
3BEB0
330
680
100
AcDbEntity
  8
0
 62
     7
 48
0.2
100
AcDbCircle
 10
0.0
 20
0.0
 30
0.0
 40
1.0
100
AcDbArc
 50
180.0
 51
270.0
1001
AcDbBlockRepETag
1070
     1
1071
        5
1005
3BEB0
  0
ARC
  5
3BEB1
330
680
100
AcDbEntity
  8
0
 62
     7
 48
0.2
100
AcDbCircle
 10
0.0
 20
0.0
 30
0.0
 40
1.0
100
AcDbArc
 50
90.0
 51
180.0
1001
AcDbBlockRepETag
1070
     1
1071
        6
1005
3BEB1
  0
ENDBLK
  5
68B
330
680
100
AcDbEntity
  8
0
100
AcDbBlockEnd
  0
BLOCK
  5
698
330
697
100
AcDbEntity
  8
0
  6
ByBlock
 62
     0
370
    -2
100
AcDbBlockBegin
  2
_OPEN30
 70
     2
 10
0.0
 20
0.0
 30
0.0
  3
_OPEN30
  1

  0
LINE
  5
699
330
697
100
AcDbEntity
  8
0
  6
ByBlock
 62
     0
370
    -2
100
AcDbLine
 10
-1.0
 20
0.267949
 30
0.0
 11
0.0
 21
0.0
 31
0.0
  0
LINE
  5
69A
330
697
100
AcDbEntity
  8
0
  6
ByBlock
 62
     0
370
    -2
100
AcDbLine
 10
0.0
 20
0.0
 30
0.0
 11
-1.0
 21
-0.267949
 31
0.0
  0
LINE
  5
69B
330
697
100
AcDbEntity
  8
0
  6
ByBlock
 62
     0
370
    -2
100
AcDbLine
 10
0.0
 20
0.0
 30
0.0
 11
-1.0
 21
0.0
 31
0.0
  0
ENDBLK
  5
69C
330
697
100
AcDbEntity
  8
0
  6
ByBlock
 62
     0
370
    -2
100
AcDbBlockEnd
  0
BLOCK
  5
34B2
330
34B1
100
AcDbEntity
  8
0
100
AcDbBlockBegin
  2
_OPEN
 70
     0
 10
0.0
 20
0.0
 30
0.0
  3
_OPEN
  1

  0
LINE
  5
34B3
330
34B1
100
AcDbEntity
  8
0
  6
ByBlock
 62
     0
100
AcDbLine
 10
0.0
 20
0.0
 30
0.0
 11
-1.0
 21
0.1766666667
 31
0.0
  0
LINE
  5
34B4
330
34B1
100
AcDbEntity
  8
0
  6
ByBlock
 62
     0
100
AcDbLine
 10
-1.0
 20
-0.1766666667
 30
0.0
 11
0.0
 21
0.0
 31
0.0
  0
LINE
  5
34B5
330
34B1
100
AcDbEntity
  8
0
  6
ByBlock
 62
     0
100
AcDbLine
 10
-1.0
 20
0.0
 30
0.0
 11
0.0
 21
0.0
 31
0.0
  0
ENDBLK
  5
34B6
330
34B1
100
AcDbEntity
  8
0
  6
ByBlock
 62
     0
100
AcDbBlockEnd
  0
BLOCK
  5
50E70
330
50E6F
100
AcDbEntity
  8
0
100
AcDbBlockBegin
  2
_None
 70
     0
 10
0.0
 20
0.0
 30
0.0
  3
_None
  1

  0
ENDBLK
  5
50E71
330
50E6F
100
AcDbEntity
  8
0
100
AcDbBlockEnd
  0
BLOCK
  5
54C0D
330
54C03
100
AcDbEntity
  8
0
100
AcDbBlockBegin
  2
*D10
 70
     1
 10
0.0
 20
0.0
 30
0.0
  3
*D10
  1

  0
LINE
  5
54E87
330
54C03
100
AcDbEntity
  8
2
100
AcDbLine
 10
0.0
 20
12.69999699999999
 30
0.0
 11
0.0000000000000021
 21
46.77728057510416
 31
0.0
  0
LINE
  5
54E88
330
54C03
100
AcDbEntity
  8
2
100
AcDbLine
 10
104.775
 20
0.0000000000001705
 30
0.0
 11
104.775
 21
46.77728057510416
 31
0.0
  0
LINE
  5
54E89
330
54C03
100
AcDbEntity
  8
2
100
AcDbLine
 10
3.500000000000001
 20
45.27728057510418
 30
0.0
 11
101.275
 21
45.27728057510418
 31
0.0
  0
SOLID
  5
54E8A
330
54C03
100
AcDbEntity
  8
2
100
AcDbTrace
 10
3.500000000000001
 20
45.86061390843751
 30
0.0
 11
3.500000000000001
 21
44.69394724177084
 31
0.0
 12
0.000000000000002
 22
45.27728057510418
 32
0.0
 13
0.000000000000002
 23
45.27728057510418
 33
0.0
  0
SOLID
  5
54E8B
330
54C03
100
AcDbEntity
  8
2
100
AcDbTrace
 10
101.275
 20
45.86061390843751
 30
0.0
 11
101.275
 21
44.69394724177084
 31
0.0
 12
104.775
 22
45.27728057510418
 32
0.0
 13
104.775
 23
45.27728057510418
 33
0.0
  0
MTEXT
  5
54E8C
330
54C03
100
AcDbEntity
  8
2
100
AcDbMText
 10
52.38750000000002
 20
49.32728057510416
 30
0.0
 40
3.5
 41
0.0
 71
     5
 72
     1
  1
\A1;104.775 [4.125"]
  7
simplex
 73
     1
 44
1.0
1001
ACAD
1000
MTEXTBEGIN
1070
    73
1070
     1
1070
    44
1040
1.0
1070
    74
1070
     0
1000
MTEXTEND
  0
POINT
  5
54E8D
330
54C03
100
AcDbEntity
  8
Defpoints
 62
     0
100
AcDbPoint
 10
0.0
 20
12.69999699999999
 30
0.0
  0
POINT
  5
54E8E
330
54C03
100
AcDbEntity
  8
Defpoints
 62
     0
100
AcDbPoint
 10
104.775
 20
0.0000000000001705
 30
0.0
  0
POINT
  5
54E8F
330
54C03
100
AcDbEntity
  8
Defpoints
 62
     0
100
AcDbPoint
 10
104.775
 20
45.27728057510418
 30
0.0
  0
ENDBLK
  5
54C0E
330
54C03
100
AcDbEntity
  8
0
100
AcDbBlockEnd
  0
BLOCK
  5
56132
330
5612A
100
AcDbEntity
  8
0
100
AcDbBlockBegin
  2
*D109
 70
     1
 10
0.0
 20
0.0
 30
0.0
  3
*D109
  1

  0
LINE
  5
56216
330
5612A
100
AcDbEntity
  8
2
100
AcDbLine
 10
101.7749999940215
 20
12.49999999889985
 30
0.0
 11
125.3342836123231
 21
12.49999999889984
 31
0.0
  0
LINE
  5
56217
330
5612A
100
AcDbEntity
  8
2
100
AcDbLine
 10
123.8342836123231
 20
-12.50000000000003
 30
0.0
 11
123.8342836123231
 21
8.999999998899847
 31
0.0
  0
SOLID
  5
56218
330
5612A
100
AcDbEntity
  8
2
100
AcDbTrace
 10
123.2509502789898
 20
8.999999998899847
 30
0.0
 11
124.4176169456564
 21
8.999999998899845
 31
0.0
 12
123.8342836123231
 22
12.49999999889985
 32
0.0
 13
123.8342836123231
 23
12.49999999889985
 33
0.0
  0
MTEXT
  5
56219
330
5612A
100
AcDbEntity
  8
2
100
AcDbMText
 10
119.7842836123231
 20
-7.579389114783508
 30
0.0
 40
3.5
 41
0.0
 71
     5
 72
     1
  1
\A1;%%c25 [%%c.984"]
  7
simplex
 11
0.0000000000000001
 21
1.0
 31
0.0
 73
     1
 44
1.0
1001
ACAD
1000
MTEXTBEGIN
1070
    73
1070
     1
1070
    44
1040
1.0
1070
    74
1070
     0
1000
MTEXTEND
  0
POINT
  5
5621A
330
5612A
100
AcDbEntity
  8
Defpoints
 62
     0
100
AcDbPoint
 10
92.14361584634776
 20
-12.50000000000003
 30
0.0
  0
POINT
  5
5621B
330
5612A
100
AcDbEntity
  8
Defpoints
 62
     0
100
AcDbPoint
 10
101.7749999940215
 20
12.49999999889985
 30
0.0
  0
POINT
  5
5621C
330
5612A
100
AcDbEntity
  8
Defpoints
 62
     0
100
AcDbPoint
 10
123.8342836123231
 20
12.49999999889985
 30
0.0
  0
ENDBLK
  5
56133
330
5612A
100
AcDbEntity
  8
0
100
AcDbBlockEnd
  0
BLOCK
  5
5615C
330
56152
100
AcDbEntity
  8
0
100
AcDbBlockBegin
  2
*D113
 70
     1
 10
0.0
 20
0.0
 30
0.0
  3
*D113
  1

  0
LINE
  5
5622E
330
56152
100
AcDbEntity
  8
sk2
100
AcDbLine
 10
-98.42500000000001
 20
11.5
 30
0.0
 11
-98.42500000000001
 21
60.03616018006437
 31
0.0
  0
LINE
  5
5622F
330
56152
100
AcDbEntity
  8
sk2
100
AcDbLine
 10
104.7750000000001
 20
9.503515091631811
 30
0.0
 11
104.7750000000001
 21
60.03616018006437
 31
0.0
  0
LINE
  5
56230
330
56152
100
AcDbEntity
  8
sk2
100
AcDbLine
 10
-94.92500000000001
 20
58.53616018006437
 30
0.0
 11
101.2750000000001
 21
58.53616018006437
 31
0.0
  0
SOLID
  5
56231
330
56152
100
AcDbEntity
  8
sk2
100
AcDbTrace
 10
-94.92500000000001
 20
59.11949351339771
 30
0.0
 11
-94.92500000000001
 21
57.95282684673104
 31
0.0
 12
-98.42500000000001
 22
58.53616018006437
 32
0.0
 13
-98.42500000000001
 23
58.53616018006437
 33
0.0
  0
SOLID
  5
56232
330
56152
100
AcDbEntity
  8
sk2
100
AcDbTrace
 10
101.2750000000001
 20
59.11949351339771
 30
0.0
 11
101.2750000000001
 21
57.95282684673104
 31
0.0
 12
104.7750000000001
 22
58.53616018006437
 32
0.0
 13
104.7750000000001
 23
58.53616018006437
 33
0.0
  0
MTEXT
  5
56233
330
56152
100
AcDbEntity
  8
sk2
100
AcDbMText
 10
4.088610673321454
 20
62.58616018006437
 30
0.0
 40
3.5
 41
0.0
 71
     5
 72
     1
  1
\A1;203.2 [8.000"]
  7
simplex
 73
     1
 44
0.892857
1001
ACAD
1000
MTEXTBEGIN
1070
    73
1070
     1
1070
    44
1040
0.892857
1070
    74
1070
     0
1000
MTEXTEND
  0
POINT
  5
56234
330
56152
100
AcDbEntity
  8
Defpoints
 62
     0
100
AcDbPoint
 10
-98.42500000000001
 20
11.5
 30
0.0
  0
POINT
  5
56235
330
56152
100
AcDbEntity
  8
Defpoints
 62
     0
100
AcDbPoint
 10
104.7750000000001
 20
9.503515091631811
 30
0.0
  0
POINT
  5
56236
330
56152
100
AcDbEntity
  8
Defpoints
 62
     0
100
AcDbPoint
 10
104.7750000000001
 20
58.53616018006437
 30
0.0
  0
ENDBLK
  5
5615D
330
56152
100
AcDbEntity
  8
0
100
AcDbBlockEnd
  0
BLOCK
  5
56169
330
5615E
100
AcDbEntity
  8
0
100
AcDbBlockBegin
  2
*D114
 70
     1
 10
0.0
 20
0.0
 30
0.0
  3
*D114
  1

  0
LINE
  5
56240
330
5615E
100
AcDbEntity
  8
sk2
100
AcDbLine
 10
-97.22498799999995
 20
-12.69999999999999
 30
0.0
 11
-121.1402099999999
 21
-12.69999999999998
 31
0.0
  0
LINE
  5
56241
330
5615E
100
AcDbEntity
  8
sk2
100
AcDbLine
 10
-97.22498799999995
 20
12.69999999999999
 30
0.0
 11
-121.1402099999999
 21
12.69999999999999
 31
0.0
  0
LINE
  5
56242
330
5615E
100
AcDbEntity
  8
sk2
100
AcDbLine
 10
-119.6402099999999
 20
9.199999999999995
 30
0.0
 11
-119.6402099999999
 21
-9.199999999999981
 31
0.0
  0
LINE
  5
56243
330
5615E
100
AcDbEntity
  8
sk2
100
AcDbLine
 10
-119.6402099999999
 20
-12.69999999999998
 30
0.0
 11
-119.6402099999999
 21
-61.05000000000003
 31
0.0
  0
SOLID
  5
56244
330
5615E
100
AcDbEntity
  8
sk2
100
AcDbTrace
 10
-120.2235433333332
 20
9.199999999999995
 30
0.0
 11
-119.0568766666666
 21
9.199999999999995
 31
0.0
 12
-119.6402099999999
 22
12.69999999999999
 32
0.0
 13
-119.6402099999999
 23
12.69999999999999
 33
0.0
  0
SOLID
  5
56245
330
5615E
100
AcDbEntity
  8
sk2
100
AcDbTrace
 10
-120.2235433333332
 20
-9.199999999999981
 30
0.0
 11
-119.0568766666666
 21
-9.199999999999981
 31
0.0
 12
-119.6402099999999
 22
-12.69999999999998
 32
0.0
 13
-119.6402099999999
 23
-12.69999999999998
 33
0.0
  0
MTEXT
  5
56246
330
5615E
100
AcDbEntity
  8
sk2
100
AcDbMText
 10
-123.6902099999999
 20
-38.62500000000006
 30
0.0
 40
3.5
 41
0.0
 71
     5
 72
     1
  1
\A1;%%C25.4 [%%C1.000"]
  7
simplex
 11
0.0000000000000001
 21
1.0
 31
0.0
 73
     1
 44
0.892857
1001
ACAD
1000
MTEXTBEGIN
1070
    73
1070
     1
1070
    44
1040
0.892857
1070
    74
1070
     0
1000
MTEXTEND
  0
POINT
  5
56247
330
5615E
100
AcDbEntity
  8
Defpoints
 62
     0
100
AcDbPoint
 10
-97.22498799999995
 20
-12.69999999999999
 30
0.0
  0
POINT
  5
56248
330
5615E
100
AcDbEntity
  8
Defpoints
 62
     0
100
AcDbPoint
 10
-97.22498799999995
 20
12.69999999999999
 30
0.0
  0
POINT
  5
56249
330
5615E
100
AcDbEntity
  8
Defpoints
 62
     0
100
AcDbPoint
 10
-119.6402099999999
 20
12.69999999999999
 30
0.0
  0
ENDBLK
  5
5616A
330
5615E
100
AcDbEntity
  8
0
100
AcDbBlockEnd
  0
BLOCK
  5
5618B
330
56183
100
AcDbEntity
  8
0
100
AcDbBlockBegin
  2
*D116
 70
     1
 10
0.0
 20
0.0
 30
0.0
  3
*D116
  1

  0
LINE
  5
56253
330
56183
100
AcDbEntity
  8
2
100
AcDbLine
 10
139.1171194935487
 20
34.57314916570047
 30
0.0
 11
107.5303007464767
 21
13.71900373991948
 31
0.0
  0
MTEXT
  5
56254
330
56183
100
AcDbEntity
  8
2
100
AcDbMText
 10
122.552709957079
 20
28.4901020914033
 30
0.0
 40
3.5
 41
0.0
 71
     5
 72
     1
  1
\A1;R1 [R.039"]
  7
simplex
 11
0.8345262548764065
 21
0.5509681750536587
 31
0.0
 73
     1
 44
1.0
1001
ACAD
1000
MTEXTBEGIN
1070
    73
1070
     1
1070
    44
1040
1.0
1070
    74
1070
     0
1000
MTEXTEND
  0
SOLID
  5
56255
330
56183
100
AcDbEntity
  8
2
100
AcDbTrace
 10
107.208902644362
 20
14.20581072193072
 30
0.0
 11
107.8516988485913
 21
13.23219675790824
 31
0.0
 12
104.6094588544092
 22
11.79061512723167
 32
0.0
 13
104.6094588544092
 23
11.79061512723167
 33
0.0
  0
LINE
  5
56256
330
56183
100
AcDbEntity
  8
2
100
AcDbLine
 10
103.6849325995323
 20
11.23964695217768
 30
0.0
 11
103.8649325995324
 21
11.23964695217768
 31
0.0
  0
LINE
  5
56257
330
56183
100
AcDbEntity
  8
2
100
AcDbLine
 10
103.7749325995324
 20
11.14964695217768
 30
0.0
 11
103.7749325995323
 21
11.32964695217768
 31
0.0
  0
POINT
  5
56258
330
56183
100
AcDbEntity
  8
Defpoints
 62
     0
100
AcDbPoint
 10
104.6094588544092
 20
11.79061512723167
 30
0.0
  0
POINT
  5
56259
330
56183
100
AcDbEntity
  8
Defpoints
 62
     0
100
AcDbPoint
 10
103.7749325995324
 20
11.23964695217768
 30
0.0
  0
ENDBLK
  5
5618C
330
56183
100
AcDbEntity
  8
0
100
AcDbBlockEnd
  0
BLOCK
  5
561C1
330
561B6
100
AcDbEntity
  8
0
100
AcDbBlockBegin
  2
*D119
 70
     1
 10
0.0
 20
0.0
 30
0.0
  3
*D119
  1

  0
LINE
  5
56224
330
561B6
100
AcDbEntity
  8
2
100
AcDbLine
 10
37.61251800000002
 20
-12.25000000000003
 30
0.0
 11
43.571978743101
 21
-12.25000000000003
 31
0.0
  0
LINE
  5
56225
330
561B6
100
AcDbEntity
  8
2
100
AcDbLine
 10
37.61250799701088
 20
12.24999999999997
 30
0.0
 11
43.571978743101
 21
12.24999999999997
 31
0.0
  0
LINE
  5
56226
330
561B6
100
AcDbEntity
  8
2
100
AcDbLine
 10
42.07197874310099
 20
8.749999999999971
 30
0.0
 11
42.07197874310099
 21
-8.750000000000028
 31
0.0
  0
LINE
  5
56227
330
561B6
100
AcDbEntity
  8
2
100
AcDbLine
 10
42.07197874310099
 20
-12.25000000000003
 30
0.0
 11
42.07197874310098
 21
-60.01666666666672
 31
0.0
  0
SOLID
  5
56228
330
561B6
100
AcDbEntity
  8
2
100
AcDbTrace
 10
41.48864540976766
 20
8.749999999999971
 30
0.0
 11
42.65531207643433
 21
8.749999999999971
 31
0.0
 12
42.07197874310099
 22
12.24999999999997
 32
0.0
 13
42.07197874310099
 23
12.24999999999997
 33
0.0
  0
SOLID
  5
56229
330
561B6
100
AcDbEntity
  8
2
100
AcDbTrace
 10
41.48864540976766
 20
-8.750000000000028
 30
0.0
 11
42.65531207643433
 21
-8.750000000000028
 31
0.0
 12
42.07197874310099
 22
-12.25000000000003
 32
0.0
 13
42.07197874310099
 23
-12.25000000000003
 33
0.0
  0
MTEXT
  5
5622A
330
561B6
100
AcDbEntity
  8
2
100
AcDbMText
 10
38.021978743101
 20
-37.88333333333338
 30
0.0
 40
3.5
 41
0.0
 71
     5
 72
     1
  1
\A1;%%c24.5 [%%C.965"]
  7
simplex
 11
0.0000000000000001
 21
1.0
 31
0.0
 73
     1
 44
1.0
1001
ACAD
1000
MTEXTBEGIN
1070
    73
1070
     1
1070
    44
1040
1.0
1070
    74
1070
     0
1000
MTEXTEND
  0
POINT
  5
5622B
330
561B6
100
AcDbEntity
  8
Defpoints
 62
     0
100
AcDbPoint
 10
37.61251800000002
 20
-12.25000000000003
 30
0.0
  0
POINT
  5
5622C
330
561B6
100
AcDbEntity
  8
Defpoints
 62
     0
100
AcDbPoint
 10
37.61250799701088
 20
12.24999999999997
 30
0.0
  0
POINT
  5
5622D
330
561B6
100
AcDbEntity
  8
Defpoints
 62
     0
100
AcDbPoint
 10
42.07197874310099
 20
12.24999999999997
 30
0.0
  0
ENDBLK
  5
561C2
330
561B6
100
AcDbEntity
  8
0
100
AcDbBlockEnd
  0
BLOCK
  5
561D6
330
561CC
100
AcDbEntity
  8
0
100
AcDbBlockBegin
  2
*D120
 70
     1
 10
0.0
 20
0.0
 30
0.0
  3
*D120
  1

  0
LINE
  5
56237
330
561CC
100
AcDbEntity
  8
2
100
AcDbLine
 10
0.0
 20
12.69999699999999
 30
0.0
 11
0.0000000000000021
 21
46.77728057510418
 31
0.0
  0
LINE
  5
56238
330
561CC
100
AcDbEntity
  8
2
100
AcDbLine
 10
104.7750000000001
 20
9.503515091631811
 30
0.0
 11
104.7750000000001
 21
46.77728057510418
 31
0.0
  0
LINE
  5
56239
330
561CC
100
AcDbEntity
  8
2
100
AcDbLine
 10
3.500000000000001
 20
45.27728057510418
 30
0.0
 11
101.2750000000001
 21
45.27728057510418
 31
0.0
  0
SOLID
  5
5623A
330
561CC
100
AcDbEntity
  8
2
100
AcDbTrace
 10
3.500000000000001
 20
45.86061390843751
 30
0.0
 11
3.500000000000001
 21
44.69394724177084
 31
0.0
 12
0.000000000000002
 22
45.27728057510418
 32
0.0
 13
0.000000000000002
 23
45.27728057510418
 33
0.0
  0
SOLID
  5
5623B
330
561CC
100
AcDbEntity
  8
2
100
AcDbTrace
 10
101.2750000000001
 20
45.86061390843751
 30
0.0
 11
101.2750000000001
 21
44.69394724177084
 31
0.0
 12
104.7750000000001
 22
45.27728057510418
 32
0.0
 13
104.7750000000001
 23
45.27728057510418
 33
0.0
  0
MTEXT
  5
5623C
330
561CC
100
AcDbEntity
  8
2
100
AcDbMText
 10
52.38750000000004
 20
49.32728057510418
 30
0.0
 40
3.5
 41
0.0
 71
     5
 72
     1
  1
\A1;104.775 [4.125"]
  7
simplex
 73
     1
 44
1.0
1001
ACAD
1000
MTEXTBEGIN
1070
    73
1070
     1
1070
    44
1040
1.0
1070
    74
1070
     0
1000
MTEXTEND
  0
POINT
  5
5623D
330
561CC
100
AcDbEntity
  8
Defpoints
 62
     0
100
AcDbPoint
 10
0.0
 20
12.69999699999999
 30
0.0
  0
POINT
  5
5623E
330
561CC
100
AcDbEntity
  8
Defpoints
 62
     0
100
AcDbPoint
 10
104.7750000000001
 20
9.503515091631811
 30
0.0
  0
POINT
  5
5623F
330
561CC
100
AcDbEntity
  8
Defpoints
 62
     0
100
AcDbPoint
 10
104.7750000000001
 20
45.27728057510418
 30
0.0
  0
ENDBLK
  5
561D7
330
561CC
100
AcDbEntity
  8
0
100
AcDbBlockEnd
  0
BLOCK
  5
561EC
330
561E2
100
AcDbEntity
  8
0
100
AcDbBlockBegin
  2
*D121
 70
     1
 10
0.0
 20
0.0
 30
0.0
  3
*D121
  1

  0
LINE
  5
5624A
330
561E2
100
AcDbEntity
  8
2
100
AcDbLine
 10
74.77499999999998
 20
12.24999999889991
 30
0.0
 11
74.77499999999998
 21
33.20548622665552
 31
0.0
  0
LINE
  5
5624B
330
561E2
100
AcDbEntity
  8
2
100
AcDbLine
 10
104.7749999999999
 20
9.50351509053155
 30
0.0
 11
104.7749999999999
 21
33.20548622665552
 31
0.0
  0
LINE
  5
5624C
330
561E2
100
AcDbEntity
  8
2
100
AcDbLine
 10
78.27499999999997
 20
31.70548622665553
 30
0.0
 11
101.275
 21
31.70548622665553
 31
0.0
  0
SOLID
  5
5624D
330
561E2
100
AcDbEntity
  8
2
100
AcDbTrace
 10
78.27499999999997
 20
32.28881955998886
 30
0.0
 11
78.27499999999997
 21
31.12215289332219
 31
0.0
 12
74.77499999999998
 22
31.70548622665553
 32
0.0
 13
74.77499999999998
 23
31.70548622665553
 33
0.0
  0
SOLID
  5
5624E
330
561E2
100
AcDbEntity
  8
2
100
AcDbTrace
 10
101.275
 20
32.28881955998886
 30
0.0
 11
101.275
 21
31.12215289332219
 31
0.0
 12
104.7749999999999
 22
31.70548622665553
 32
0.0
 13
104.7749999999999
 23
31.70548622665553
 33
0.0
  0
MTEXT
  5
5624F
330
561E2
100
AcDbEntity
  8
2
100
AcDbMText
 10
89.77499999999997
 20
35.75548622665552
 30
0.0
 40
3.5
 41
0.0
 71
     5
 72
     1
  1
\A1;30 [1.181"]
  7
simplex
 73
     1
 44
1.0
1001
ACAD
1000
MTEXTBEGIN
1070
    73
1070
     1
1070
    44
1040
1.0
1070
    74
1070
     0
1000
MTEXTEND
  0
POINT
  5
56250
330
561E2
100
AcDbEntity
  8
Defpoints
 62
     0
100
AcDbPoint
 10
74.77499999999998
 20
12.24999999889991
 30
0.0
  0
POINT
  5
56251
330
561E2
100
AcDbEntity
  8
Defpoints
 62
     0
100
AcDbPoint
 10
104.7749999999999
 20
9.50351509053155
 30
0.0
  0
POINT
  5
56252
330
561E2
100
AcDbEntity
  8
Defpoints
 62
     0
100
AcDbPoint
 10
104.7749999999999
 20
31.70548622665553
 30
0.0
  0
ENDBLK
  5
561ED
330
561E2
100
AcDbEntity
  8
0
100
AcDbBlockEnd
  0
ENDSEC
  0
SECTION
  2
ENTITIES
  0
INSERT
  5
68C
330
1F
100
AcDbEntity
  8
0
100
AcDbBlockReference
  2
zero block
 10
0.0
 20
0.0
 30
0.0
  0
MTEXT
  5
53DFB
330
1F
100
AcDbEntity
  8
sk6
100
AcDbMText
 10
-88.34009873463058
 20
91.33923152733039
 30
0.0
 40
5.0
 41
70.03712541027798
 71
     1
 72
     5
  1
SRFU16S16MW\PSUFT25R10
  7
simplex
 73
     1
 44
1.0
1001
ACAD
1000
ACAD_MTEXT_COLUMN_INFO_BEGIN
1070
    75
1070
     2
1070
    79
1070
     0
1070
    76
1070
     1
1070
    78
1070
     0
1070
    48
1040
59.04341590052445
1070
    49
1040
17.5
1070
    50
1070
     1
1040
0.0
1000
ACAD_MTEXT_COLUMN_INFO_END
1000
ACAD_MTEXT_DEFINED_HEIGHT_BEGIN
1070
    46
1040
0.0
1000
ACAD_MTEXT_DEFINED_HEIGHT_END
1000
MTEXTBEGIN
1070
    73
1070
     1
1070
    44
1040
1.0
1070
    74
1070
     0
1000
MTEXTEND
  0
DIMENSION
  5
55FAF
330
1F
100
AcDbEntity
  8
2
100
AcDbDimension
  2
*D109
 10
123.8342836123231
 20
12.49999999889985
 30
0.0
 11
123.8342836123231
 21
-7.579389114783509
 31
0.0
 70
   160
  1
%%c<>
 71
     5
 42
24.99999999889988
  3
\M+18352\M+18373\M+1815B - ISO-25
100
AcDbAlignedDimension
 13
92.14361584634776
 23
-12.50000000000003
 33
0.0
 14
101.7749999940215
 24
12.49999999889985
 34
0.0
 50
270.0
100
AcDbRotatedDimension
1001
ACAD
1000
DSTYLE
1002
{
1070
    75
1070
     1
1070
   343
1005
50E6F
1070
     4
1000
%%c[]"
1070
    40
1040
1.0
1070
    76
1070
     0
1070
   143
1040
0.03937
1070
   170
1070
     1
1070
   171
1070
     3
1070
   173
1070
     1
1070
   271
1070
     8
1070
   285
1070
     4
1070
   344
1005
0
1002
}
  0
SPLINE
  5
55FB0
330
1F
100
AcDbEntity
  8
1
100
AcDbSpline
210
0.0
220
0.0
230
1.0
 70
     8
 71
     3
 72
    12
 73
     8
 74
     6
 42
0.0000000001
 43
0.0000000001
 44
0.000001
 12
0.0537566380759423
 22
0.9985540665696436
 32
0.0
 13
0.0552813878764437
 23
0.9984708148736517
 33
0.0
 40
0.0
 40
0.0
 40
0.0
 40
0.0
 40
0.2209122770196051
 40
0.4175401307254177
 40
0.5973613852576813
 40
0.7637312137249407
 40
0.9175676701088244
 40
0.9175676701088244
 40
0.9175676701088244
 40
0.9175676701088244
 10
104.4788090362845
 20
5.144190706199822
 30
0.0
 10
104.4827675367253
 20
5.217721657057523
 30
0.0
 10
104.4902679767524
 20
5.35669945545635
 30
0.0
 10
104.5010488317684
 20
5.555527854763255
 30
0.0
 10
104.5109001774166
 20
5.736199123905095
 30
0.0
 10
104.5200298179511
 20
5.902624748179732
 30
0.0
 10
104.5259114643127
 20
6.009198001812222
 30
0.0
 10
104.5287462285844
 20
6.060398405799844
 30
0.0
 11
104.4788090362845
 21
5.144190706199822
 31
0.0
 11
104.4907150308845
 21
5.364781912699811
 31
0.0
 11
104.5013635228845
 21
5.561121213199783
 31
0.0
 11
104.5111550760846
 21
5.740675682099833
 31
0.0
 11
104.5202673929846
 21
5.906795781999846
 31
0.0
 11
104.5287462285844
 21
6.060398405799844
 31
0.0
  0
SPLINE
  5
55FB1
330
1F
100
AcDbEntity
  8
1
100
AcDbSpline
210
0.0
220
0.0
230
1.0
 70
     8
 71
     3
 72
    16
 73
    12
 74
    10
 42
0.0000000001
 43
0.0000000001
 44
0.000001
 12
0.0523642815861722
 22
0.998628049883421
 32
0.0
 13
0.0569679970418169
 23
0.998376004976604
 33
0.0
 40
0.0
 40
0.0
 40
0.0
 40
0.0
 40
0.0854285124863477
 40
0.1685700608950766
 40
0.2492343870075947
 40
0.3282451804660274
 40
0.4084813185550421
 40
0.4933911897960887
 40
0.5851106058513818
 40
0.6853132240075796
 40
0.7972341521209132
 40
0.7972341521209132
 40
0.7972341521209132
 40
0.7972341521209132
 10
104.5287462285844
 20
6.060398405799844
 30
0.0
 10
104.5302373628121
 20
6.088835508742732
 30
0.0
 10
104.5331957839689
 20
6.14494759706929
 30
0.0
 10
104.5376091183764
 20
6.227908422270189
 30
0.0
 10
104.5419512329763
 20
6.308730761133574
 30
0.0
 10
104.546282566979
 20
6.388583801598599
 30
0.0
 10
104.5507340368857
 20
6.469847576277004
 30
0.0
 10
104.5554615297453
 20
6.555338777664445
 30
0.0
 10
104.5606032433358
 20
6.647472723610206
 30
0.0
 10
104.5662987884744
 20
6.748593442954557
 30
0.0
 10
104.570306742884
 20
6.819187611905419
 30
0.0
 10
104.5724320465845
 20
6.85643400159978
 30
0.0
 11
104.5287462285844
 21
6.060398405799844
 31
0.0
 11
104.5332417393845
 21
6.145708556399824
 31
0.0
 11
104.5376593581843
 21
6.228732659399781
 31
0.0
 11
104.5419867971843
 21
6.309280823899825
 31
0.0
 11
104.5462664285844
 21
6.388175629099862
 31
0.0
 11
104.5506545529845
 21
6.468291684299742
 31
0.0
 11
104.5553420974845
 21
6.553072066899744
 31
0.0
 11
104.5604522053845
 21
6.644649019499809
 31
0.0
 11
104.5660852021844
 21
6.744693182399828
 31
0.0
 11
104.5724320465845
 21
6.85643400159978
 31
0.0
  0
SPLINE
  5
55FB2
330
1F
100
AcDbEntity
  8
1
100
AcDbSpline
210
0.0
220
0.0
230
1.0
 70
     8
 71
     3
 72
    20
 73
    16
 74
    14
 42
0.0000000001
 43
0.0000000001
 44
0.000001
 12
0.0504646768136971
 22
0.9987258464634273
 32
0.0
 13
0.0566339771029373
 23
0.9983950083196049
 33
0.0
 40
0.0
 40
0.0
 40
0.0
 40
0.0
 40
0.1299695316086983
 40
0.2634842210378501
 40
0.3944523656994926
 40
0.5221927303531916
 40
0.6478471449832548
 40
0.7733154705046026
 40
0.8993462909829316
 40
1.025951314724631
 40
1.153060762889081
 40
1.27968726531154
 40
1.405383091946248
 40
1.530137234819413
 40
1.653965431159819
 40
1.653965431159819
 40
1.653965431159819
 40
1.653965431159819
 10
104.5724320465845
 20
6.85643400159978
 30
0.0
 10
104.5746183367205
 20
6.899701978423223
 30
0.0
 10
104.5790724047819
 20
6.987417042399584
 30
0.0
 10
104.5857989718466
 20
7.11872899462611
 30
0.0
 10
104.592550953922
 20
7.249295600285677
 30
0.0
 10
104.599228780155
 20
7.377242433052401
 30
0.0
 10
104.6058715999969
 20
7.503355310079228
 30
0.0
 10
104.6125452658917
 20
7.628895909639879
 30
0.0
 10
104.6192979156828
 20
7.754749612424774
 30
0.0
 10
104.6261436460388
 20
7.881146132847959
 30
0.0
 10
104.6330656280427
 20
8.007737358458996
 30
0.0
 10
104.6400367126567
 20
8.134022362963889
 30
0.0
 10
104.6470242090323
 20
8.259520149675665
 30
0.0
 10
104.654015937323
 20
8.384083473246988
 30
0.0
 10
104.6586903269392
 20
8.466812303294631
 30
0.0
 10
104.6610279546846
 20
8.508022120999783
 30
0.0
 11
104.5724320465845
 21
6.85643400159978
 31
0.0
 11
104.5790209929844
 21
6.986236411399829
 31
0.0
 11
104.5858522989845
 21
7.119576223599835
 31
0.0
 11
104.5926160695846
 21
7.250369596399821
 31
0.0
 11
104.5992743134845
 21
7.377936318599779
 31
0.0
 11
104.6058840033845
 21
7.503416771199852
 31
0.0
 11
104.6125446049843
 21
7.628708180199794
 31
0.0
 11
104.6192972205845
 21
7.754557971499878
 31
0.0
 11
104.6261444362844
 21
7.880977699999846
 31
0.0
 11
104.6330844360843
 21
8.007897549899837
 31
0.0
 11
104.6400628712845
 21
8.13433161429981
 31
0.0
 11
104.6470501139845
 21
8.259833085799812
 31
0.0
 11
104.6540399760845
 21
8.384391257099821
 31
0.0
 11
104.6610279546846
 21
8.508022120999783
 31
0.0
  0
SPLINE
  5
55FB3
330
1F
100
AcDbEntity
  8
1
100
AcDbSpline
210
0.0
220
0.0
230
1.0
 70
     8
 71
     3
 72
    30
 73
    26
 74
    24
 42
0.0000000001
 43
0.0000000001
 44
0.000001
 12
0.0501108550457699
 22
0.9987436619105935
 32
0.0
 13
0.0685508447169234
 23
0.9976476240078941
 33
0.0
 40
0.0
 40
0.0
 40
0.0
 40
0.0
 40
0.1293520783930464
 40
0.2603192429101879
 40
0.3930945670089732
 40
0.5277045224369362
 40
0.659568533759785
 40
0.7806610712026744
 40
0.8876429477450827
 40
0.9818894022043988
 40
1.065234832682697
 40
1.139357155344317
 40
1.20578968228768
 40
1.265838053149865
 40
1.320505457373278
 40
1.369133043826469
 40
1.413180334557013
 40
1.454877083267379
 40
1.49578016481331
 40
1.535065932231218
 40
1.571692658061884
 40
1.606311803942294
 40
1.640121211670024
 40
1.67371329612085
 40
1.707260265385096
 40
1.707260265385096
 40
1.707260265385096
 40
1.707260265385096
 10
104.6610279546846
 20
8.508022120999783
 30
0.0
 10
104.6631886024347
 20
8.551085310483131
 30
0.0
 10
104.6675586444252
 20
8.637748283904613
 30
0.0
 10
104.6742220308557
 20
8.768610276076088
 30
0.0
 10
104.6810646670045
 20
8.901218011162967
 30
0.0
 10
104.6880329378943
 20
9.034118574651671
 30
0.0
 10
104.6949274644431
 20
9.163123319055983
 30
0.0
 10
104.7013821466485
 20
9.282929041809381
 30
0.0
 10
104.7071539492876
 20
9.390214187095125
 30
0.0
 10
104.7122094891257
 20
9.484937296027538
 30
0.0
 10
104.716626683374
 20
9.568725688338162
 30
0.0
 10
104.7204958586635
 20
9.643258757040882
 30
0.0
 10
104.7239579526035
 20
9.710036811226387
 30
0.0
 10
104.7271129416817
 20
9.770337103072478
 30
0.0
 10
104.7300050972114
 20
9.824708032848377
 30
0.0
 10
104.7326701300237
 20
9.873749780787306
 30
0.0
 10
104.7351595904164
 20
9.918471101465286
 30
0.0
 10
104.7375679103422
 20
9.960618074103109
 30
0.0
 10
104.7399522350106
 20
10.00117660435711
 30
0.0
 10
104.7423085111809
 20
10.04004379329757
 30
0.0
 10
104.7446071104328
 20
10.07681592725686
 30
0.0
 10
104.7468671452999
 20
10.11176137202207
 30
0.0
 10
104.7491223352458
 20
10.14569340604373
 30
0.0
 10
104.751399281214
 20
10.17926577211119
 30
0.0
 10
104.7529232227909
 20
10.20159351134006
 30
0.0
 10
104.7536897804846
 20
10.21274952939978
 30
0.0
 11
104.6610279546846
 21
8.508022120999783
 31
0.0
 11
104.6675430617845
 21
8.637210009099874
 31
0.0
 11
104.6742070919845
 21
8.768007520099843
 31
0.0
 11
104.6810523542845
 21
8.900606272599873
 31
0.0
 11
104.6881046987844
 21
9.03503136199987
 31
0.0
 11
104.6951299410846
 21
9.166708100899825
 31
0.0
 11
104.7016345332845
 21
9.287625812399824
 31
0.0
 11
104.7073749411845
 21
9.394453569199811
 31
0.0
 11
104.7123933010846
 21
9.488566321799851
 31
0.0
 11
104.7167777255845
 21
9.571796349599821
 31
0.0
 11
104.7206288676846
 21
9.645818557799827
 31
0.0
 11
104.7240746507843
 21
9.712161658999832
 31
0.0
 11
104.7272167536846
 21
9.77212776509981
 31
0.0
 11
104.7301240697845
 21
9.826717804799784
 31
0.0
 11
104.7327651826845
 21
9.875273613099864
 31
0.0
 11
104.7352152073845
 21
9.919252710599835
 31
0.0
 11
104.7375954926845
 21
9.960881460999814
 31
0.0
 11
104.7399975743844
 21
10.00171394439979
 31
0.0
 11
104.7423758481843
 21
10.0409276470998
 31
0.0
 11
104.7446633454844
 21
10.07748279009985
 31
0.0
 11
104.7468939410844
 21
10.11203006069979
 31
0.0
 11
104.7491337768845
 21
10.14576521759983
 31
0.0
 11
104.7514016991845
 21
10.17928065669986
 31
0.0
 11
104.7536897804846
 21
10.21274952939978
 31
0.0
  0
SPLINE
  5
55FB4
330
1F
100
AcDbEntity
  8
1
100
AcDbSpline
210
0.0
220
0.0
230
1.0
 70
     8
 71
     3
 72
    60
 73
    56
 74
    54
 42
0.0000000001
 43
0.0000000001
 44
0.000001
 12
0.0617078449968049
 22
0.9980942550009244
 32
0.0
 13
0.0007198759664901
 23
0.999999740889263
 33
0.0
 40
0.0
 40
0.0
 40
0.0
 40
0.0
 40
0.0432744837885932
 40
0.0823935686413708
 40
0.117753275128666
 40
0.1497220396493156
 40
0.178667736125607
 40
0.2049579182663405
 40
0.2289612973591754
 40
0.2510367030538518
 40
0.2714400706075915
 40
0.2902279561845108
 40
0.3074326456797626
 40
0.323088814384723
 40
0.3372401682802951
 40
0.349991265494681
 40
0.3615097087537369
 40
0.3719613084208726
 40
0.3814767611587875
 40
0.3900733407339416
 40
0.3977667556746879
 40
0.4047613026780376
 40
0.4113991159087026
 40
0.4179911797457342
 40
0.4246423719515261
 40
0.4312995505542793
 40
0.4379259624950536
 40
0.4445326626112591
 40
0.4513306213811464
 40
0.4586060647179321
 40
0.4666431659472768
 40
0.4757432275953821
 40
0.4862224114175458
 40
0.4982100138526698
 40
0.5109769144586024
 40
0.5237251080617603
 40
0.536408589982857
 40
0.5491335174157696
 40
0.5618998155987982
 40
0.5746609883569415
 40
0.587316263397412
 40
0.600032276931248
 40
0.6133728508367442
 40
0.6279311261331618
 40
0.6442952238062852
 40
0.6630490617362462
 40
0.6845048964668745
 40
0.7072608473498607
 40
0.7296861738991275
 40
0.7517301393963764
 40
0.7738938224330393
 40
0.7970569753997036
 40
0.8221667547043782
 40
0.8501715043166797
 40
0.8820608283995865
 40
0.8820608283995865
 40
0.8820608283995865
 40
0.8820608283995865
 10
104.7536897804846
 20
10.21274952939978
 30
0.0
 10
104.7545799055306
 20
10.22714686728562
 30
0.0
 10
104.7562613950799
 20
10.25455986944635
 30
0.0
 10
104.7586489903064
 20
10.29373828187965
 30
0.0
 10
104.760755847183
 20
10.32915821215107
 30
0.0
 10
104.7626041034815
 20
10.3611963535296
 30
0.0
 10
104.7642172303402
 20
10.39021979717239
 30
0.0
 10
104.765623098049
 20
10.41659546592456
 30
0.0
 10
104.7668499336837
 20
10.44068726097541
 30
0.0
 10
104.767923404454
 20
10.46282198540086
 30
0.0
 10
104.7688629481911
 20
10.4832226014777
 30
0.0
 10
104.7696823454175
 20
10.50200340060638
 30
0.0
 10
104.7703920858366
 20
10.51920502831893
 30
0.0
 10
104.7710024736309
 20
10.53486388653237
 30
0.0
 10
104.7715244310385
 20
10.54904049797719
 30
0.0
 10
104.7719697343131
 20
10.56183972687836
 30
0.0
 10
104.7723503358264
 20
10.5734071868994
 30
0.0
 10
104.7726770462305
 20
10.58389727071556
 30
0.0
 10
104.7729578725624
 20
10.59341434296345
 30
0.0
 10
104.7731985489647
 20
10.6020127940574
 30
0.0
 10
104.7734049383414
 20
10.60977156558397
 30
0.0
 10
104.7735849207718
 20
10.61687788021706
 30
0.0
 10
104.7737475317121
 20
10.62361739499937
 30
0.0
 10
104.773899574757
 20
10.63024267524986
 30
0.0
 10
104.7740438377395
 20
10.63687458620177
 30
0.0
 10
104.7741802816983
 20
10.6435181144416
 30
0.0
 10
104.7743083513905
 20
10.6501469759294
 30
0.0
 10
104.7744291795347
 20
10.65682290784875
 30
0.0
 10
104.7745453395574
 20
10.66371529832224
 30
0.0
 10
104.7746598167193
 20
10.67108457928657
 30
0.0
 10
104.7747744165526
 20
10.67922131087044
 30
0.0
 10
104.7748889258239
 20
10.6884260522672
 30
0.0
 10
104.7749997268056
 20
10.69894775893306
 30
0.0
 10
104.7750971053214
 20
10.71069192909743
 30
0.0
 10
104.7751690571119
 20
10.72319263543232
 30
0.0
 10
104.7752078741118
 20
10.73592545222345
 30
0.0
 10
104.7752111894165
 20
10.74864433187588
 30
0.0
 10
104.7751907389533
 20
10.76136922155837
 30
0.0
 10
104.7751582469252
 20
10.77411997968525
 30
0.0
 10
104.7751267754247
 20
10.78684752347152
 30
0.0
 10
104.7751064995758
 20
10.7995583291314
 30
0.0
 10
104.7750926292294
 20
10.81246227603981
 30
0.0
 10
104.7750822683754
 20
10.82600055973375
 30
0.0
 10
104.7750708526446
 20
10.84075487094941
 30
0.0
 10
104.7750553346477
 20
10.85731360069383
 30
0.0
 10
104.7750373224285
 20
10.87617151553263
 30
0.0
 10
104.7750205699107
 20
10.89716005018462
 30
0.0
 10
104.7750075506037
 20
10.91937241721578
 30
0.0
 10
104.7749974909302
 20
10.94178082931196
 30
0.0
 10
104.774990181487
 20
10.96399181987021
 30
0.0
 10
104.7749860968747
 20
10.98644875341972
 30
0.0
 10
104.7749856922929
 20
11.00992762531618
 30
0.0
 10
104.7749899045425
 20
11.03535351902312
 30
0.0
 10
104.7749995648807
 20
11.06368813537696
 30
0.0
 10
104.7750128708649
 20
11.08365282245981
 30
0.0
 10
104.7750205229843
 20
11.09428259439983
 30
0.0
 11
104.7536897804846
 21
10.21274952939978
 31
0.0
 11
104.7563442030843
 21
10.25594255279981
 31
0.0
 11
104.7587162749844
 21
10.29498965369981
 31
0.0
 11
104.7608129197845
 21
10.3302871465998
 31
0.0
 11
104.7626514005844
 21
10.36220300439987
 31
0.0
 11
104.7642558827845
 21
10.39110419919978
 31
0.0
 11
104.7656538195845
 21
10.41735718989986
 31
0.0
 11
104.7668735421846
 21
10.44132956039982
 31
0.0
 11
104.7679420931845
 21
10.46337909079983
 31
0.0
 11
104.7688801607844
 21
10.48376088379979
 31
0.0
 11
104.7696986229846
 21
10.5025309345998
 31
0.0
 11
104.7704075362846
 21
10.51972101369978
 31
0.0
 11
104.7710170973844
 21
10.53536531249983
 31
0.0
 11
104.7715375846844
 21
10.54950709229979
 31
0.0
 11
104.7719808103845
 21
10.56225048479979
 31
0.0
 11
104.7723594964843
 21
10.57376270219987
 31
0.0
 11
104.7726847787846
 21
10.58420923949978
 31
0.0
 11
104.7729653816843
 21
10.59372055459983
 31
0.0
 11
104.7732058727845
 21
10.60231377019983
 31
0.0
 11
104.7734104236845
 21
10.61000446589986
 31
0.0
 11
104.7735874981845
 21
10.61699677159987
 31
0.0
 11
104.7737475915844
 21
10.62363265439984
 31
0.0
 11
104.7738988151843
 21
10.63022298389984
 31
0.0
 11
104.7740434488844
 21
10.63687260379987
 31
0.0
 11
104.7741801385843
 21
10.64352837939981
 31
0.0
 11
104.7743081284845
 21
10.65015355559984
 31
0.0
 11
104.7744276742844
 21
10.65675917449982
 31
0.0
 11
104.7745422142845
 21
10.66355616869981
 31
0.0
 11
104.7746552027845
 21
10.67083073509985
 31
0.0
 11
104.7747683615846
 21
10.6788670401998
 31
0.0
 11
104.7748815156844
 21
10.68796639889979
 31
0.0
 11
104.7749917845844
 21
10.69844500319982
 31
0.0
 11
104.7750910448846
 21
10.71043219539984
 31
0.0
 11
104.7751643283845
 21
10.72319888639987
 31
0.0
 11
104.7752030012846
 21
10.73594702199983
 31
0.0
 11
104.7752082438844
 21
10.74863050339985
 31
0.0
 11
104.7751897683845
 21
10.76135541789983
 31
0.0
 11
104.7751594032845
 21
10.77412168039979
 31
0.0
 11
104.7751295622845
 21
10.78688281869978
 31
0.0
 11
104.7751086265846
 21
10.79953807689986
 31
0.0
 11
104.7750944933843
 21
10.81225408309984
 31
0.0
 11
104.7750835610845
 21
10.82559465309981
 31
0.0
 11
104.7750719449843
 21
10.84015292439983
 31
0.0
 11
104.7750570353844
 21
10.85651701599982
 31
0.0
 11
104.7750396403844
 21
10.87527084669983
 31
0.0
 11
104.7750226517844
 21
10.89672667569982
 31
0.0
 11
104.7750090101842
 21
10.91948262359983
 31
0.0
 11
104.7749988855846
 21
10.94190794899981
 31
0.0
 11
104.7749917339845
 21
10.96395191449983
 31
0.0
 11
104.7749877522844
 21
10.98611559839986
 31
0.0
 11
104.7749873810846
 21
11.00927875269974
 31
0.0
 11
104.7749914381845
 21
11.03438853319983
 31
0.0
 11
104.7750015442846
 21
11.0623932827998
 31
0.0
 11
104.7750205229843
 21
11.09428259439983
 31
0.0
  0
SPLINE
  5
55FB5
330
1F
100
AcDbEntity
  8
1
100
AcDbSpline
210
0.0
220
0.0
230
1.0
 70
     8
 71
     3
 72
    24
 73
    20
 74
     0
 42
0.0000000001
 43
0.0000000001
 40
0.487899064237684
 40
0.487899064237684
 40
0.487899064237684
 40
0.487899064237684
 40
0.5236648418388775
 40
0.5835404063895357
 40
0.6444439463131654
 40
0.7040897320836934
 40
0.7608884892163328
 40
0.8216121935209883
 40
0.8882564964476815
 40
0.9612742288492087
 40
1.041211352954175
 40
1.128859641138297
 40
1.225085230503133
 40
1.330891753639384
 40
1.447414246610523
 40
1.576366815720263
 40
1.719812078603109
 40
1.879584516116304
 40
2.058034587852425
 40
2.058034587852425
 40
2.058034587852425
 40
2.058034587852425
 10
100.0003134263527
 20
12.25507676184759
 30
0.0
 10
99.99435397698039
 20
12.25494244024673
 30
0.0
 10
99.97841780926478
 20
12.2545828708395
 30
0.0
 10
99.95233366872959
 20
12.2539928098364
 30
0.0
 10
99.92227058618778
 20
12.25331091084513
 30
0.0
 10
99.89272020838576
 20
12.25263908300951
 30
0.0
 10
99.86319983158978
 20
12.25196634841757
 30
0.0
 10
99.83251337676097
 20
12.25126534169533
 30
0.0
 10
99.79912451158703
 20
12.25050053831836
 30
0.0
 10
99.76253430803877
 20
12.24965985297564
 30
0.0
 10
99.72244443666319
 20
12.24873559589031
 30
0.0
 10
99.67848770756541
 20
12.24771825159826
 30
0.0
 10
99.63022068069973
 20
12.24659621103995
 30
0.0
 10
99.57714273081297
 20
12.24535612026034
 30
0.0
 10
99.51861195923971
 20
12.24398065084313
 30
0.0
 10
99.45381001622582
 20
12.24244845188303
 30
0.0
 10
99.38180202070975
 20
12.24073500664156
 30
0.0
 10
99.30154706785993
 20
12.23881308500216
 30
0.0
 10
99.2451930331847
 20
12.2374540934357
 30
0.0
 10
99.21546005008464
 20
12.23673495279985
 30
0.0
  0
SPLINE
  5
55FB6
330
1F
100
AcDbEntity
  8
1
100
AcDbSpline
210
0.0
220
0.0
230
1.0
 70
     8
 71
     3
 72
    15
 73
    11
 74
     9
 42
0.0000000001
 43
0.0000000001
 44
0.000001
 12
-0.9996952981782621
 22
-0.0246842216866443
 32
0.0
 13
-0.9996437941717914
 23
-0.0266886637699441
 33
0.0
 40
0.0
 40
0.0
 40
0.0
 40
0.0
 40
0.1282896066431957
 40
0.2566918152153812
 40
0.3852058623263814
 40
0.51381866076574
 40
0.6425190924699951
 40
0.7713050421614153
 40
0.900181115469423
 40
1.029150374371223
 40
1.029150374371223
 40
1.029150374371223
 40
1.029150374371223
 10
99.21546005008464
 20
12.23673495279985
 30
0.0
 10
99.17270987789585
 20
12.23567937643636
 30
0.0
 10
99.08717235896995
 20
12.2335531867372
 30
0.0
 10
98.95881097567077
 20
12.23032556823398
 30
0.0
 10
98.8303428512088
 20
12.22705745817225
 30
0.0
 10
98.70177627903855
 20
12.22375056238689
 30
0.0
 10
98.57311992726943
 20
12.22040944305536
 30
0.0
 10
98.44437660278277
 20
12.21703706402869
 30
0.0
 10
98.31554443580102
 20
12.2136343693366
 30
0.0
 10
98.229626401151
 20
12.21134822406233
 30
0.0
 10
98.18665196138432
 20
12.21020088499983
 30
0.0
 11
99.21546005008464
 21
12.23673495279985
 31
0.0
 11
99.0872100087845
 21
12.23354886569979
 31
0.0
 11
98.9588483717846
 21
12.23032121559987
 31
0.0
 11
98.83037587998456
 21
12.22705325859982
 31
0.0
 11
98.70180558118432
 21
12.22374700269978
 31
0.0
 11
98.57314852478452
 21
12.22040570979987
 31
0.0
 11
98.44440676058434
 21
12.21703265639979
 31
0.0
 11
98.31557560928445
 21
12.2136304491998
 31
0.0
 11
98.18665196138432
 21
12.21020088499983
 31
0.0
  0
SPLINE
  5
55FB7
330
1F
100
AcDbEntity
  8
1
100
AcDbSpline
210
0.0
220
0.0
230
1.0
 70
     8
 71
     3
 72
    15
 73
    11
 74
     9
 42
0.0000000001
 43
0.0000000001
 44
0.000001
 12
-0.9996187572485514
 22
-0.0276105080877133
 32
0.0
 13
-0.9995738757846494
 23
-0.0291901841182039
 33
0.0
 40
0.0
 40
0.0
 40
0.0
 40
0.0
 40
0.1283354155426486
 40
0.2567728937128316
 40
0.3853058315790946
 40
0.5139331379644128
 40
0.6426564717716863
 40
0.7714747182649058
 40
0.9003824744936189
 40
1.029374071479053
 40
1.029374071479053
 40
1.029374071479053
 40
1.029374071479053
 10
98.18665196138432
 20
12.21020088499983
 30
0.0
 10
98.14388979851901
 20
12.2090197496569
 30
0.0
 10
98.05833178563251
 20
12.20664491355924
 30
0.0
 10
97.9299468574559
 20
12.20304895013092
 30
0.0
 10
97.8014655293431
 20
12.19941973002596
 30
0.0
 10
97.67288975302609
 20
12.19575965149283
 30
0.0
 10
97.54421961364768
 20
12.19207231919162
 30
0.0
 10
97.41545668285255
 20
12.1883595779046
 30
0.0
 10
97.28660497341127
 20
12.18462333141863
 30
0.0
 10
97.20067500173195
 20
12.18211918925507
 30
0.0
 10
97.15769612488452
 20
12.18086409309984
 30
0.0
 11
98.18665196138432
 21
12.21020088499983
 31
0.0
 11
98.05836593198433
 21
12.20664077439983
 31
0.0
 11
97.92997880938447
 21
12.20304438379981
 31
0.0
 11
97.80149712388448
 21
12.19941492889978
 31
0.0
 11
97.67292188598435
 21
12.19575547579978
 31
0.0
 11
97.54425136798431
 21
12.19206844129979
 31
0.0
 11
97.41548663018443
 21
12.18835595369984
 31
0.0
 11
97.28663301728444
 21
12.18462030839981
 31
0.0
 11
97.15769612488452
 21
12.18086409309984
 31
0.0
  0
SPLINE
  5
55FB8
330
1F
100
AcDbEntity
  8
1
100
AcDbSpline
210
0.0
220
0.0
230
1.0
 70
     8
 71
     3
 72
    15
 73
    11
 74
     9
 42
0.0000000001
 43
0.0000000001
 44
0.000001
 12
-0.9995341523545667
 22
-0.0305201290435991
 32
0.0
 13
-0.9994985880247448
 23
-0.0316634258497375
 33
0.0
 40
0.0
 40
0.0
 40
0.0
 40
0.0
 40
0.1283545482250002
 40
0.2568116738954782
 40
0.3853670982437238
 40
0.5140174891475491
 40
0.6427625600596603
 40
0.7716018809101745
 40
0.9005310218899616
 40
1.029539878204208
 40
1.029539878204208
 40
1.029539878204208
 40
1.029539878204208
 10
97.15769612488452
 20
12.18086409309984
 30
0.0
 10
97.11493120669752
 20
12.17955829397479
 30
0.0
 10
97.02936747244917
 20
12.1769365179698
 30
0.0
 10
96.90097280539987
 20
12.1729771789094
 30
0.0
 10
96.77248028016288
 20
12.16899187160567
 30
0.0
 10
96.64389246058068
 20
12.16498297069682
 30
0.0
 10
96.51521063619179
 20
12.16095251889823
 30
0.0
 10
96.38643643819818
 20
12.15690330717817
 30
0.0
 10
96.25757479831897
 20
12.15283726591158
 30
0.0
 10
96.17163847849406
 20
12.15011797218514
 30
0.0
 10
96.12865708858453
 20
12.14875635139987
 30
0.0
 11
97.15769612488452
 21
12.18086409309984
 31
0.0
 11
97.02940176288462
 21
12.17693378499979
 31
0.0
 11
96.90100566438445
 21
12.17297448369987
 31
0.0
 11
96.77251203288438
 21
12.1689889330998
 31
0.0
 11
96.64392412168446
 21
12.16497989179987
 31
0.0
 11
96.51524214318465
 21
12.16094986369984
 31
0.0
 11
96.38646645998438
 21
12.15690100499984
 31
0.0
 11
96.25760143498451
 21
12.15283557349983
 31
0.0
 11
96.12865708858453
 21
12.14875635139987
 31
0.0
  0
SPLINE
  5
55FB9
330
1F
100
AcDbEntity
  8
1
100
AcDbSpline
210
0.0
220
0.0
230
1.0
 70
     8
 71
     3
 72
    65
 73
    61
 74
     0
 42
0.0000000001
 43
0.0000000001
 40
0.9419477497939141
 40
0.9419477497939141
 40
0.9419477497939141
 40
0.9419477497939141
 40
1.18325501640758
 40
1.36448006477373
 40
1.547973306492441
 40
1.733955933042738
 40
1.91932492568833
 40
2.100146633509103
 40
2.187622997150551
 40
2.272487439531325
 40
2.354634843873518
 40
2.435514156910338
 40
2.516960783854464
 40
2.600810153758548
 40
2.68889774845452
 40
2.783059119494629
 40
2.885129886638043
 40
2.996945727104926
 40
3.047118671259485
 40
3.072569920303745
 40
3.098048858233416
 40
3.148676789993535
 40
3.199169925868345
 40
3.249766715896661
 40
3.300310614597601
 40
3.350632794626609
 40
3.375931600850294
 40
3.401469416971781
 40
3.427247291820325
 40
3.452971419375818
 40
3.478239089882622
 40
3.502647499567276
 40
3.574757492423596
 40
3.637601219467498
 40
3.695479133018868
 40
3.752691587595001
 40
3.812631083798102
 40
3.87505336605219
 40
3.938806233820863
 40
4.002737481348662
 40
4.128473863578824
 40
4.252784712384696
 40
4.377617852860025
 40
4.502833392692362
 40
4.627909176444532
 40
4.752883442657235
 40
5.002934766993358
 40
5.252988149918849
 40
5.503042812872905
 40
5.753098964661754
 40
6.00315669723973
 40
6.253215100372284
 40
6.503276845562252
 40
6.753342553412742
 40
7.00340989561648
 40
7.253471114100201
 40
7.50352521845234
 40
7.753585627883567
 40
8.003668049512281
 40
8.25375722195819
 40
8.25375722195819
 40
8.25375722195819
 40
8.25375722195819
 10
100.0003134450978
 20
-12.25507626998609
 30
0.0
 10
100.0405040567154
 20
-12.25655697579475
 30
0.0
 10
100.1108787534206
 20
-12.25913917191502
 30
0.0
 10
100.2118166573157
 20
-12.26279984855392
 30
0.0
 10
100.303541347848
 20
-12.26608470142213
 30
0.0
 10
100.3959579924797
 20
-12.2693452957775
 30
0.0
 10
100.4879302420693
 20
-12.27257350815506
 30
0.0
 10
100.5634944973198
 20
-12.27523691902843
 30
0.0
 10
100.6223175634911
 20
-12.27733356139697
 30
0.0
 10
100.6647047857093
 20
-12.27886014504543
 30
0.0
 10
100.7059924537695
 20
-12.28036803823198
 30
0.0
 10
100.7467106525689
 20
-12.28186092590374
 30
0.0
 10
100.7877127175841
 20
-12.2833534163484
 30
0.0
 10
100.8299163433364
 20
-12.28486265478045
 30
0.0
 10
100.8742392159347
 20
-12.28640589963009
 30
0.0
 10
100.9215990066684
 20
-12.28800064137033
 30
0.0
 10
100.9729133880853
 20
-12.28966441597316
 30
0.0
 10
101.0169019586901
 20
-12.29103525496674
 30
0.0
 10
101.0481276506068
 20
-12.29198155686725
 30
0.0
 10
101.0649717114511
 20
-12.29244863441687
 30
0.0
 10
101.0818926783788
 20
-12.2928764129353
 30
0.0
 10
101.1029884361335
 20
-12.2933071149551
 30
0.0
 10
101.1282721712757
 20
-12.29367583070967
 30
0.0
 10
101.1535434109078
 20
-12.29391859544768
 30
0.0
 10
101.1787870309933
 20
-12.294038270523
 30
0.0
 10
101.199814622621
 20
-12.29403461756942
 30
0.0
 10
101.2166742695569
 20
-12.2939574523873
 30
0.0
 10
101.2294429986843
 20
-12.29385935028642
 30
0.0
 10
101.2422822231408
 20
-12.29371935660362
 30
0.0
 10
101.2550760443639
 20
-12.29354911279
 30
0.0
 10
101.267641330425
 20
-12.29336023703575
 30
0.0
 10
101.2879363732643
 20
-12.29303306069715
 30
0.0
 10
101.3144929037828
 20
-12.29258178801086
 30
0.0
 10
101.3466260976536
 20
-12.29199159132685
 30
0.0
 10
101.3762762266237
 20
-12.29141761715414
 30
0.0
 10
101.405442283343
 20
-12.29084668018493
 30
0.0
 10
101.4353659304554
 20
-12.29027852266767
 30
0.0
 10
101.4663796345164
 20
-12.28969955397412
 30
0.0
 10
101.4980585920218
 20
-12.28911233166127
 30
0.0
 10
101.5402880516737
 20
-12.2883276232227
 30
0.0
 10
101.5926084351147
 20
-12.28733767666483
 30
0.0
 10
101.6550769879816
 20
-12.28613848772158
 30
0.0
 10
101.7174586692265
 20
-12.28493677946142
 30
0.0
 10
101.7799676698953
 20
-12.28372504551703
 30
0.0
 10
101.8424999716871
 20
-12.28250178950287
 30
0.0
 10
101.9258339940036
 20
-12.2808581819699
 30
0.0
 10
102.0299931218148
 20
-12.27878135615378
 30
0.0
 10
102.1549940527518
 20
-12.27624977854265
 30
0.0
 10
102.2799950204228
 20
-12.27368056157473
 30
0.0
 10
102.4049959191022
 20
-12.2710729925252
 30
0.0
 10
102.5299966355453
 20
-12.26842708024077
 30
0.0
 10
102.6549974640065
 20
-12.26574268970284
 30
0.0
 10
102.7799988083045
 20
-12.26302067767153
 30
0.0
 10
102.9050008341457
 20
-12.26026178134663
 30
0.0
 10
103.0300019349324
 20
-12.25746519584157
 30
0.0
 10
103.1550001695664
 20
-12.25462725269722
 30
0.0
 10
103.2799962700794
 20
-12.25174654615199
 30
0.0
 10
103.4049950357041
 20
-12.2488283942352
 30
0.0
 10
103.5299990275641
 20
-12.24588380225043
 30
0.0
 10
103.6133372517652
 20
-12.24389573407069
 30
0.0
 10
103.6550067790845
 20
-12.24289556850022
 30
0.0
  0
SPLINE
  5
55FBA
330
1F
100
AcDbEntity
  8
1
100
AcDbSpline
210
0.0
220
0.0
230
1.0
 70
     8
 71
     3
 72
    65
 73
    61
 74
    59
 42
0.0000000001
 43
0.0000000001
 44
0.000001
 12
0.9993200971720092
 22
0.0368692743097341
 32
0.0
 13
0.9997120686114714
 23
-0.0239954135736991
 33
0.0
 40
0.0
 40
0.0
 40
0.0
 40
0.0
 40
0.1206536181303887
 40
0.2112661423199734
 40
0.3030127630153132
 40
0.3960040761773749
 40
0.4886885726174382
 40
0.579099426825871
 40
0.6228376088411531
 40
0.6652698302473056
 40
0.7063435326433904
 40
0.746783189356129
 40
0.7875065029627408
 40
0.8294311879762968
 40
0.8734749853094706
 40
0.9205556707415288
 40
0.9715910541598766
 40
1.027498974185738
 40
1.052585446149964
 40
1.06531107059223
 40
1.078050539454041
 40
1.103364505060528
 40
1.128611072669644
 40
1.153909467330306
 40
1.179181416322598
 40
1.204342505992045
 40
1.216991908943296
 40
1.229760816855589
 40
1.242649754148547
 40
1.255511817813218
 40
1.268145652969087
 40
1.280349857725569
 40
1.316404853918898
 40
1.347826717266513
 40
1.376765673898575
 40
1.405371901044402
 40
1.435341648974622
 40
1.466552789899927
 40
1.498429223560101
 40
1.530394847086565
 40
1.593263037713248
 40
1.655418461594108
 40
1.717835031247625
 40
1.780442800508818
 40
1.842980691656311
 40
1.905467823945029
 40
2.030493484152749
 40
2.155520173061035
 40
2.280547501109039
 40
2.405575572211329
 40
2.530604431420715
 40
2.655633621642765
 40
2.78066447360189
 40
2.905697280513155
 40
3.030730762208337
 40
3.155761157879
 40
3.28078852843516
 40
3.405818797500218
 40
3.530860026909937
 40
3.655904708460957
 40
3.655904708460957
 40
3.655904708460957
 40
3.655904708460957
 10
100.0003134256844
 20
12.25507679149979
 30
0.0
 10
100.0405039541492
 20
12.25655959528089
 30
0.0
 10
100.1108788010262
 20
12.25913759841518
 30
0.0
 10
100.2118166505984
 20
12.26279960421999
 30
0.0
 10
100.3035413530991
 20
12.26608413137589
 30
0.0
 10
100.3959579943902
 20
12.26934481451417
 30
0.0
 10
100.4879302449635
 20
12.27257300304737
 30
0.0
 10
100.5634945002098
 20
12.27523641953135
 30
0.0
 10
100.6223175666432
 20
12.27733306120018
 30
0.0
 10
100.6647047890684
 20
12.27885964498338
 30
0.0
 10
100.7059924573416
 20
12.28036753813666
 30
0.0
 10
100.7467106563255
 20
12.28186042581822
 30
0.0
 10
100.7877127214707
 20
12.28335291626152
 30
0.0
 10
100.8299163472836
 20
12.28486215469459
 30
0.0
 10
100.874239219868
 20
12.28640539954432
 30
0.0
 10
100.9215990105162
 20
12.28800014128404
 30
0.0
 10
100.9729133917838
 20
12.28966391588591
 30
0.0
 10
101.0169019622302
 20
12.29103475487838
 30
0.0
 10
101.0481276540136
 20
12.29198105677793
 30
0.0
 10
101.064971714759
 20
12.29244813432697
 30
0.0
 10
101.0818926815345
 20
12.29287591284407
 30
0.0
 10
101.1029884390545
 20
12.29330661486273
 30
0.0
 10
101.128272173878
 20
12.29367533061554
 30
0.0
 10
101.1535434131635
 20
12.2939180953517
 30
0.0
 10
101.1787870328971
 20
12.2940377704254
 30
0.0
 10
101.1998146242366
 20
12.29403411747063
 30
0.0
 10
101.2166742709545
 20
12.29395695228771
 30
0.0
 10
101.2294429999353
 20
12.29385885018629
 30
0.0
 10
101.2422822242606
 20
12.29371885650326
 30
0.0
 10
101.2550760453696
 20
12.29354861268834
 30
0.0
 10
101.267641331332
 20
12.29335973693691
 30
0.0
 10
101.2879363740314
 20
12.29303256058006
 30
0.0
 10
101.3144929043883
 20
12.29258128808877
 30
0.0
 10
101.3466260980708
 20
12.29199109118286
 30
0.0
 10
101.3762762268884
 20
12.29141711706194
 30
0.0
 10
101.4054422834551
 20
12.29084618007903
 30
0.0
 10
101.4353659303958
 20
12.29027802256539
 30
0.0
 10
101.4663796342578
 20
12.28969905387029
 30
0.0
 10
101.4980585915419
 20
12.28911183155722
 30
0.0
 10
101.5402880508773
 20
12.2883271231183
 30
0.0
 10
101.5926084339021
 20
12.28733717656036
 30
0.0
 10
101.6550769862372
 20
12.28613798761833
 30
0.0
 10
101.7174586668951
 20
12.28493627935506
 30
0.0
 10
101.7799676669081
 20
12.28372454542435
 30
0.0
 10
101.842499967965
 20
12.28250128936514
 30
0.0
 10
101.925833989117
 20
12.28085768207063
 30
0.0
 10
102.0299931151451
 20
12.27878085598596
 30
0.0
 10
102.1549940434375
 20
12.2762492785578
 30
0.0
 10
102.2799950075098
 20
12.2736800613149
 30
0.0
 10
102.404995901114
 20
12.27107249343407
 30
0.0
 10
102.5299966097281
 20
12.26842657724779
 30
0.0
 10
102.6549974255174
 20
12.26574220219552
 30
0.0
 10
102.7799987422156
 20
12.2630201346131
 30
0.0
 10
102.9050006872135
 20
12.26026145260505
 30
0.0
 10
103.0300016204119
 20
12.25746409417723
 30
0.0
 10
103.1549998971295
 20
12.25462924914012
 30
0.0
 10
103.2799960406332
 20
12.25174794583842
 30
0.0
 10
103.4049949386774
 20
12.24882974511507
 30
0.0
 10
103.5299990098376
 20
12.24588598284086
 30
0.0
 10
103.613337219997
 20
12.24389573478282
 30
0.0
 10
103.6550067790845
 20
12.24289556849982
 30
0.0
 11
100.0003134256844
 21
12.25507679149979
 31
0.0
 11
100.1208860740846
 21
12.25949709529988
 31
0.0
 11
100.2114391145844
 21
12.26277983909983
 31
0.0
 11
100.3031269973846
 21
12.26606230849978
 31
0.0
 11
100.3960602953846
 21
12.26934658759984
 31
0.0
 11
100.4886875719846
 21
12.27260288969984
 31
0.0
 11
100.5790421109843
 21
12.27579346809983
 31
0.0
 11
100.6227525049846
 21
12.27735231509979
 31
0.0
 11
100.6651571958844
 21
12.27888057619981
 31
0.0
 11
100.7062036211844
 21
12.28037723119979
 31
0.0
 11
100.7466162241846
 21
12.2818561950998
 31
0.0
 11
100.7873126755846
 21
12.28333508009979
 31
0.0
 11
100.8292106461845
 21
12.28483149819982
 31
0.0
 11
100.8732278064844
 21
12.28636306139987
 31
0.0
 11
100.9202818273845
 21
12.28794738189987
 31
0.0
 11
100.9712903794846
 21
12.28960207169979
 31
0.0
 11
101.0271711333846
 21
12.29134474279982
 31
0.0
 11
101.0522464559844
 21
12.29209259389978
 31
0.0
 11
101.0649672326844
 21
12.29244382149983
 31
0.0
 11
101.0777026757844
 21
12.29276407149979
 31
0.0
 11
101.1030113132844
 21
12.29328344059979
 31
0.0
 11
101.1282551446845
 21
12.29365516369984
 31
0.0
 11
101.1535523680843
 21
12.29389865569982
 31
0.0
 11
101.1788240348844
 21
12.29401820029983
 31
0.0
 11
101.2039851236843
 21
12.29400981819987
 31
0.0
 11
101.2166343929846
 21
12.29395161739984
 31
0.0
 11
101.2294029228844
 21
12.29385333659985
 31
0.0
 11
101.2422911135843
 21
12.29371459229986
 31
0.0
 11
101.2551520575846
 21
12.29354487099982
 31
0.0
 11
101.2677844847846
 21
12.29335625169983
 31
0.0
 11
101.2799871246846
 21
12.29316081349981
 31
0.0
 11
101.3160368997844
 21
12.29254722709987
 31
0.0
 11
101.3474534883846
 21
12.29197149179987
 31
0.0
 11
101.3763870924845
 21
12.29141491759986
 31
0.0
 11
101.4049879139845
 21
12.29085881439982
 31
0.0
 11
101.4349522339846
 21
12.29028843689986
 31
0.0
 11
101.4661579190845
 21
12.28970486949987
 31
0.0
 11
101.4980288603844
 21
12.28911314209978
 31
0.0
 11
101.5299889487844
 21
12.28851828439974
 31
0.0
 11
101.5928459236845
 21
12.28733077699979
 31
0.0
 11
101.6549899399845
 21
12.28613996489986
 31
0.0
 11
101.7173949215846
 21
12.2849372491998
 31
0.0
 11
101.7799909203845
 21
12.28372324669982
 31
0.0
 11
101.8425168532846
 21
12.28250027919983
 31
0.0
 11
101.9049918397843
 21
12.2812682564998
 31
0.0
 11
102.0299926461846
 21
12.27877533429984
 31
0.0
 11
102.1549937103843
 21
12.27624401229985
 31
0.0
 11
102.2799946391844
 21
12.27367467709979
 31
0.0
 11
102.4049955208845
 21
12.27106710959987
 31
0.0
 11
102.5299963868844
 21
12.26842117279983
 31
0.0
 11
102.6549967716844
 21
12.26573693619986
 31
0.0
 11
102.7799980137845
 21
12.26301505009979
 31
0.0
 11
102.9050004230846
 21
12.2602560054998
 31
0.0
 11
103.0300028010845
 21
12.25745877249983
 31
0.0
 11
103.1550011934844
 21
12.2546205938998
 31
0.0
 11
103.2799950769845
 21
12.25174084329984
 31
0.0
 11
103.4049912675843
 21
12.24882459629981
 31
0.0
 11
103.5299977579845
 21
12.24587809369978
 31
0.0
 11
103.6550067790845
 21
12.24289556849982
 31
0.0
  0
SPLINE
  5
55FBB
330
1F
100
AcDbEntity
  8
1
100
AcDbSpline
210
0.0
220
0.0
230
1.0
 70
     8
 71
     3
 72
    30
 73
    26
 74
    24
 42
0.0000000001
 43
0.0000000001
 44
0.000001
 12
0.5215181867291583
 22
0.8532401660205234
 32
0.0
 13
0.4780875323105111
 23
0.8783121947515281
 33
0.0
 40
0.0
 40
0.0
 40
0.0
 40
0.0
 40
0.0022065053235961
 40
0.0043931567899198
 40
0.0065602879747212
 40
0.0087081556901401
 40
0.0108374657359334
 40
0.0129483876021594
 40
0.0150412107360573
 40
0.0171166279682062
 40
0.0191756102856036
 40
0.021219158144872
 40
0.0232479414647023
 40
0.0252629323674541
 40
0.0272649230446178
 40
0.0292544591247416
 40
0.0312324827989804
 40
0.0331999036153405
 40
0.0351576626761321
 40
0.0371065129093317
 40
0.0390472471695012
 40
0.040980591555978
 40
0.0429073498683344
 40
0.0448283705386163
 40
0.0466620072689272
 40
0.0466620072689272
 40
0.0466620072689272
 40
0.0466620072689272
 10
104.5490937854845
 20
-11.8203761480002
 30
0.0
 10
104.5494773630363
 20
-11.819748588344
 30
0.0
 10
104.5502397229695
 20
-11.81849829379462
 30
0.0
 10
104.5513741127424
 20
-11.81662877571267
 30
0.0
 10
104.5524943524541
 20
-11.81477354014214
 30
0.0
 10
104.5536007305063
 20
-11.81293226851491
 30
0.0
 10
104.5546935051528
 20
-11.81110468745402
 30
0.0
 10
104.5557729383538
 20
-11.80929051287714
 30
0.0
 10
104.5568392883282
 20
-11.80748946319664
 30
0.0
 10
104.5578929468599
 20
-11.80570102513604
 30
0.0
 10
104.5589344213731
 20
-11.80392447818946
 30
0.0
 10
104.5599642095508
 20
-11.80215910473467
 30
0.0
 10
104.5609828036449
 20
-11.80040418330631
 30
0.0
 10
104.5619906555391
 20
-11.79865904906072
 30
0.0
 10
104.5629881910458
 20
-11.79692306974709
 30
0.0
 10
104.5639758261794
 20
-11.79519561881815
 30
0.0
 10
104.5649539913138
 20
-11.79347603272026
 30
0.0
 10
104.5659231761453
 20
-11.79176352985024
 30
0.0
 10
104.5668838329925
 20
-11.79005737983212
 30
0.0
 10
104.5678363891825
 20
-11.7883568827732
 30
0.0
 10
104.5687812314679
 20
-11.78666139813535
 30
0.0
 10
104.5697187495061
 20
-11.78497026755604
 30
0.0
 10
104.5706493364223
 20
-11.78328281335763
 30
0.0
 10
104.5715601736495
 20
-11.78162242799124
 30
0.0
 10
104.5721597097313
 20
-11.78052381846714
 30
0.0
 10
104.5724519226844
 20
-11.77998698330015
 30
0.0
 11
104.5490937854845
 21
-11.8203761480002
 31
0.0
 11
104.5502424620845
 21
-11.81849221990018
 31
0.0
 11
104.5513767428845
 21
-11.81662278410016
 31
0.0
 11
104.5524968740844
 21
-11.8147676083002
 31
0.0
 11
104.5536030602845
 21
-11.8129265249002
 31
0.0
 11
104.5546957343845
 21
-11.81109897980019
 31
0.0
 11
104.5557750503844
 21
-11.80928487710019
 31
0.0
 11
104.5568412222844
 21
-11.80748401710019
 31
0.0
 11
104.5578946662845
 21
-11.80569585110021
 31
0.0
 11
104.5589359341845
 21
-11.80391958750016
 31
0.0
 11
104.5599655854846
 21
-11.80215440510017
 31
0.0
 11
104.5609840066843
 21
-11.80039976450013
 31
0.0
 11
104.5619917304845
 21
-11.79865486180017
 31
0.0
 11
104.5629891928845
 21
-11.79691904510019
 31
0.0
 11
104.5639767018845
 21
-11.79519187340014
 31
0.0
 11
104.5649547573846
 21
-11.79347255870021
 31
0.0
 11
104.5659238359847
 21
-11.7917603374002
 31
0.0
 11
104.5668844231843
 21
-11.79005441480012
 31
0.0
 11
104.5678369053846
 21
-11.78835415650013
 31
0.0
 11
104.5687816830843
 21
-11.78665889040013
 31
0.0
 11
104.5697191181846
 21
-11.78496799950017
 31
0.0
 11
104.5706496043844
 21
-11.78328079580018
 31
0.0
 11
104.5715735504843
 21
-11.78159654890015
 31
0.0
 11
104.5724519226844
 21
-11.77998698330015
 31
0.0
  0
SPLINE
  5
55FBC
330
1F
100
AcDbEntity
  8
1
100
AcDbSpline
210
0.0
220
0.0
230
1.0
 70
     8
 71
     3
 72
    42
 73
    38
 74
    36
 42
0.0000000001
 43
0.0000000001
 44
0.000001
 12
0.5847748923758401
 22
0.8111956146619782
 32
0.0
 13
0.5258557844892641
 23
0.850573743962968
 33
0.0
 40
0.0
 40
0.0
 40
0.0
 40
0.0
 40
0.0021928550738477
 40
0.0043661293286399
 40
0.0065210020731628
 40
0.0086587748219288
 40
0.0107801086307924
 40
0.0128851471182262
 40
0.0149737827751414
 40
0.0170460978889737
 40
0.0191023592704582
 40
0.0211430987867583
 40
0.023169453863033
 40
0.0251821522452353
 40
0.0271815897551164
 40
0.0291683990125763
 40
0.0311437519787511
 40
0.0331086234329914
 40
0.035063977993757
 40
0.0370106733570523
 40
0.0389491418966829
 40
0.0408801039435922
 40
0.0428044458481286
 40
0.0447230198793953
 40
0.0466366347535354
 40
0.048545973650938
 40
0.0504517104033562
 40
0.0523544409699527
 40
0.0542551279530947
 40
0.0561547416349267
 40
0.0580543282037193
 40
0.0599541944347982
 40
0.061854456525287
 40
0.0637555745295734
 40
0.0656586374506318
 40
0.0675642256659292
 40
0.0694727771563255
 40
0.0694727771563255
 40
0.0694727771563255
 40
0.0694727771563255
 10
104.5104070600844
 20
-11.87806312070017
 30
0.0
 10
104.510834502281
 20
-11.87747017589368
 30
0.0
 10
104.5116844254958
 20
-11.87628875543862
 30
0.0
 10
104.5129503807136
 20
-11.87452178264354
 30
0.0
 10
104.5142022233867
 20
-11.87276729058968
 30
0.0
 10
104.5154406089931
 20
-11.87102447064603
 30
0.0
 10
104.5166659934646
 20
-11.8692927954591
 30
0.0
 10
104.5178785390528
 20
-11.86757210523311
 30
0.0
 10
104.5190783706849
 20
-11.86586244930751
 30
0.0
 10
104.5202653653683
 20
-11.86416365323452
 30
0.0
 10
104.5214398933942
 20
-11.86247562798115
 30
0.0
 10
104.5226023909536
 20
-11.86079790030925
 30
0.0
 10
104.5237533515489
 20
-11.85912984964125
 30
0.0
 10
104.5248932441175
 20
-11.85747089333347
 30
0.0
 10
104.5260224371786
 20
-11.85582058372063
 30
0.0
 10
104.5271413787937
 20
-11.85417834798036
 30
0.0
 10
104.5282506211866
 20
-11.85254345058763
 30
0.0
 10
104.5293507717078
 20
-11.85091505956035
 30
0.0
 10
104.5304423735838
 20
-11.84929242591985
 30
0.0
 10
104.5315258625116
 20
-11.84767494618154
 30
0.0
 10
104.5326016248791
 20
-11.84606208179897
 30
0.0
 10
104.533670048192
 20
-11.84445328345785
 30
0.0
 10
104.5347315919177
 20
-11.84284788160676
 30
0.0
 10
104.535786726533
 20
-11.84124517867212
 30
0.0
 10
104.5368358802309
 20
-11.8396445303544
 30
0.0
 10
104.5378794414889
 20
-11.83804533752567
 30
0.0
 10
104.538917761294
 20
-11.8364470612926
 30
0.0
 10
104.5399512145382
 20
-11.8348490675273
 30
0.0
 10
104.5409803063513
 20
-11.83325068828176
 30
0.0
 10
104.5420052680182
 20
-11.83165090192835
 30
0.0
 10
104.5430267854619
 20
-11.83004923877314
 30
0.0
 10
104.544045016303
 20
-11.82844522807397
 30
0.0
 10
104.5450601098973
 20
-11.82683862628667
 30
0.0
 10
104.5460723255948
 20
-11.82522895086714
 30
0.0
 10
104.5470820073842
 20
-11.82361559000469
 30
0.0
 10
104.5480894877098
 20
-11.82199793375221
 30
0.0
 10
104.5487592445374
 20
-11.82091726926245
 30
0.0
 10
104.5490937854845
 20
-11.8203761480002
 30
0.0
 11
104.5104070600844
 21
-11.87806312070017
 31
0.0
 11
104.5116876199843
 21
-11.87628302700017
 31
0.0
 11
104.5129532565845
 21
-11.87451634710015
 31
0.0
 11
104.5142047203846
 21
-11.87276217320021
 31
0.0
 11
104.5154428247845
 21
-11.87101949250012
 31
0.0
 11
104.5166680054844
 21
-11.86928780970021
 31
0.0
 11
104.5178803963845
 21
-11.86756705000022
 31
0.0
 11
104.5190799863846
 21
-11.86585734380026
 31
0.0
 11
104.5202669017844
 21
-11.86415862680013
 31
0.0
 11
104.5214413265846
 21
-11.86247075000017
 31
0.0
 11
104.5226036020844
 21
-11.86079333370026
 31
0.0
 11
104.5237544198846
 21
-11.85912548300013
 31
0.0
 11
104.5248942325845
 21
-11.85746663550026
 31
0.0
 11
104.5260233013844
 21
-11.85581649990018
 31
0.0
 11
104.5271420179845
 21
-11.85417458700016
 31
0.0
 11
104.5282510727845
 21
-11.8525399584002
 31
0.0
 11
104.5293510382846
 21
-11.85091183380012
 31
0.0
 11
104.5304424753844
 21
-11.84928943730017
 31
0.0
 11
104.5315258789844
 21
-11.84767207730016
 31
0.0
 11
104.5326015029843
 21
-11.84605941270018
 31
0.0
 11
104.5336697575846
 21
-11.84445086050021
 31
0.0
 11
104.5347311393846
 21
-11.84284569570019
 31
0.0
 11
104.5357861205846
 21
-11.84124321810014
 31
0.0
 11
104.5368351438844
 21
-11.83964276030019
 31
0.0
 11
104.5378785777845
 21
-11.83804375640017
 31
0.0
 11
104.5389167809846
 21
-11.83644564540014
 31
0.0
 11
104.5399500651845
 21
-11.83484792880017
 31
0.0
 11
104.5409789373846
 21
-11.83324979430017
 31
0.0
 11
104.5420039306843
 21
-11.83165037300017
 31
0.0
 11
104.5430255483845
 21
-11.83004882660015
 31
0.0
 11
104.5440439217843
 21
-11.82844488720019
 31
0.0
 11
104.5450590775845
 21
-11.8268384467002
 31
0.0
 11
104.5460712239844
 21
-11.82522910540018
 31
0.0
 11
104.5470808976845
 21
-11.82361592770013
 31
0.0
 11
104.5480883584844
 21
-11.82199840530018
 31
0.0
 11
104.5490937854845
 21
-11.8203761480002
 31
0.0
  0
SPLINE
  5
55FBD
330
1F
100
AcDbEntity
  8
1
100
AcDbSpline
210
0.0
220
0.0
230
1.0
 70
     8
 71
     3
 72
    42
 73
    38
 74
    36
 42
0.0000000001
 43
0.0000000001
 44
0.000001
 12
0.644572482870125
 22
0.7645432063177611
 32
0.0
 13
0.5945634191335855
 23
0.8040487178201209
 33
0.0
 40
0.0
 40
0.0
 40
0.0
 40
0.0
 40
0.0021802120418722
 40
0.0043420457869978
 40
0.0064867418036827
 40
0.0086146198478403
 40
0.0107260173558746
 40
0.0128219022324992
 40
0.014902650978167
 40
0.016968107629224
 40
0.0190180906454873
 40
0.0210532072109718
 40
0.0230742823537629
 40
0.0250819089282248
 40
0.0270771423433464
 40
0.0290606434221548
 40
0.0310328680173682
 40
0.0329947531244708
 40
0.0349471546127629
 40
0.0368910035162082
 40
0.0388270179025315
 40
0.0407559342120843
 40
0.0426783857137447
 40
0.0445950624551545
 40
0.046506911503133
 40
0.048415007961889
 40
0.0503203118433994
 40
0.0522231497687394
 40
0.0541237020394702
 40
0.0560225510222637
 40
0.0579207493763968
 40
0.0598188052085778
 40
0.0617171564958503
 40
0.0636166099446403
 40
0.0655182834909762
 40
0.0674225995417353
 40
0.0693300290516845
 40
0.0693300290516845
 40
0.0693300290516845
 40
0.0693300290516845
 10
104.4673689696844
 20
-11.93240233360012
 30
0.0
 10
104.4678374045808
 20
-11.93184671149848
 30
0.0
 10
104.4687693486194
 20
-11.93073932680195
 30
0.0
 10
104.4701586774606
 20
-11.92908249751684
 30
0.0
 10
104.4715338802846
 20
-11.92743659342414
 30
0.0
 10
104.4728954043044
 20
-11.92580117276168
 30
0.0
 10
104.47424363655
 20
-11.92417586157205
 30
0.0
 10
104.4755789730475
 20
-11.92256026863475
 30
0.0
 10
104.4769017047281
 20
-11.92095412901082
 30
0.0
 10
104.4782118706503
 20
-11.91935746660473
 30
0.0
 10
104.4795095874601
 20
-11.91777026907473
 30
0.0
 10
104.4807949979185
 20
-11.91619212352623
 30
0.0
 10
104.4820687513477
 20
-11.91462269690521
 30
0.0
 10
104.4833313528048
 20
-11.91306134524851
 30
0.0
 10
104.484583330614
 20
-11.91150751413147
 30
0.0
 10
104.4858251639328
 20
-11.90996066782992
 30
0.0
 10
104.4870573077753
 20
-11.90842030178152
 30
0.0
 10
104.4882802529776
 20
-11.90688585668559
 30
0.0
 10
104.4894945849382
 20
-11.9053566459678
 30
0.0
 10
104.4907008384709
 20
-11.90383203598895
 30
0.0
 10
104.491899519576
 20
-11.90231142102152
 30
0.0
 10
104.4930910681627
 20
-11.90079426958465
 30
0.0
 10
104.4942759149674
 20
-11.89928005484748
 30
0.0
 10
104.4954545288794
 20
-11.89776819069581
 30
0.0
 10
104.4966274683406
 20
-11.89625797406074
 30
0.0
 10
104.4977953280444
 20
-11.89474861623276
 30
0.0
 10
104.4989586206957
 20
-11.89323952637369
 30
0.0
 10
104.5001174853303
 20
-11.89173020267179
 30
0.0
 10
104.5012722310915
 20
-11.89022043342101
 30
0.0
 10
104.5024232272046
 20
-11.88870974738654
 30
0.0
 10
104.5035708866869
 20
-11.88719756949803
 30
0.0
 10
104.5047155940781
 20
-11.88568336361828
 30
0.0
 10
104.5058576795156
 20
-11.88416665539659
 30
0.0
 10
104.5069975917646
 20
-11.88264680552038
 30
0.0
 10
104.5081357711879
 20
-11.88112317499985
 30
0.0
 10
104.5092725862836
 20
-11.879595211219
 30
0.0
 10
104.5100290308139
 20
-11.8785743427841
 30
0.0
 10
104.5104070600844
 20
-11.87806312070017
 30
0.0
 11
104.4673689696844
 21
-11.93240233360012
 31
0.0
 11
104.4687727707844
 21
-11.93073421060018
 31
0.0
 11
104.4701617666844
 21
-11.92907767050013
 31
0.0
 11
104.4715368062846
 21
-11.92743181130021
 31
0.0
 11
104.4728981428845
 21
-11.92579643340019
 31
0.0
 11
104.4742460393843
 21
-11.92417132230019
 31
0.0
 11
104.4755811579846
 21
-11.92255577570017
 31
0.0
 11
104.4769037800845
 21
-11.92094954390012
 31
0.0
 11
104.4782138473845
 21
-11.91935278730017
 31
0.0
 11
104.4795112900845
 21
-11.91776568260019
 31
0.0
 11
104.4807965531845
 21
-11.91618777570016
 31
0.0
 11
104.4820701696846
 21
-11.91461849590013
 31
0.0
 11
104.4833325478846
 21
-11.91305741940022
 31
0.0
 11
104.4845843827845
 21
-11.91150375910018
 31
0.0
 11
104.4858261169845
 21
-11.90995703110013
 31
0.0
 11
104.4870580615845
 21
-11.90841690860014
 31
0.0
 11
104.4882808248846
 21
-11.90688268630021
 31
0.0
 11
104.4894949596844
 21
-11.9053537183002
 31
0.0
 11
104.4907010605846
 21
-11.90382929580016
 31
0.0
 11
104.4918995854843
 21
-11.90230887340016
 31
0.0
 11
104.4930909994843
 21
-11.90079188790014
 31
0.0
 11
104.4942757000844
 21
-11.89927785420019
 31
0.0
 11
104.4954541159845
 21
-11.89776623950018
 31
0.0
 11
104.4966268293844
 21
-11.89625630480015
 31
0.0
 11
104.4977944952845
 21
-11.89474720560014
 31
0.0
 11
104.4989576920845
 21
-11.89323818370013
 31
0.0
 11
104.5001166268846
 21
-11.89172895340022
 31
0.0
 11
104.5012713839844
 21
-11.89021938500019
 31
0.0
 11
104.5024222949844
 21
-11.88870902240018
 31
0.0
 11
104.5035699779844
 21
-11.88719702300017
 31
0.0
 11
104.5047147164844
 21
-11.88568297420016
 31
0.0
 11
104.5058567482845
 21
-11.8841665171002
 31
0.0
 11
104.5069965288846
 21
-11.88264699550012
 31
0.0
 11
104.5081346943846
 21
-11.88112350000017
 31
0.0
 11
104.5092714583845
 21
-11.87959567420017
 31
0.0
 11
104.5104070600844
 21
-11.87806312070017
 31
0.0
  0
SPLINE
  5
55FBE
330
1F
100
AcDbEntity
  8
1
100
AcDbSpline
210
0.0
220
0.0
230
1.0
 70
     8
 71
     3
 72
    42
 73
    38
 74
    36
 42
0.0000000001
 43
0.0000000001
 44
0.000001
 12
0.7006062732084163
 22
0.7135480712194618
 32
0.0
 13
0.6585192966998246
 23
0.7525638417263805
 33
0.0
 40
0.0
 40
0.0
 40
0.0
 40
0.0
 40
0.002165766427775
 40
0.0043137475547612
 40
0.0064449748026003
 40
0.008560637855278
 40
0.010661853207409
 40
0.0127494211619894
 40
0.0148232541185084
 40
0.0168830262700509
 40
0.0189288622876706
 40
0.0209606482069448
 40
0.0229781140164622
 40
0.0249817917115761
 40
0.0269729260067144
 40
0.0289527104502031
 40
0.0309218338844551
 40
0.0328809803074946
 40
0.0348309355428806
 40
0.0367724862596923
 40
0.038706461687263
 40
0.040633645696962
 40
0.0425548119801749
 40
0.0444703668780654
 40
0.0463812198495724
 40
0.0482878134305145
 40
0.050190787114638
 40
0.0520909662082065
 40
0.0539890587319644
 40
0.055885826566169
 40
0.0577818737587203
 40
0.0596779161510975
 40
0.0615745129904953
 40
0.0634724961069145
 40
0.0653726533779751
 40
0.0672758471266773
 40
0.0691825197816197
 40
0.0691825197816197
 40
0.0691825197816197
 40
0.0691825197816197
 10
104.4202919831843
 20
-11.98308433440019
 30
0.0
 10
104.4207977663662
 20
-11.98256920824778
 30
0.0
 10
104.4218043527369
 20
-11.98154237427474
 30
0.0
 10
104.4233057660706
 20
-11.98000579956419
 30
0.0
 10
104.42479304372
 20
-11.97847876673734
 30
0.0
 10
104.4262669969445
 20
-11.97696052077432
 30
0.0
 10
104.4277283787394
 20
-11.97545035714608
 30
0.0
 10
104.4291776421648
 20
-11.97394787341767
 30
0.0
 10
104.4306149050665
 20
-11.97245301162351
 30
0.0
 10
104.4320401291435
 20
-11.97096587594851
 30
0.0
 10
104.4334532726896
 20
-11.96948657930994
 30
0.0
 10
104.4348543007993
 20
-11.968015215299
 30
0.0
 10
104.4362432978885
 20
-11.96655180335233
 30
0.0
 10
104.4376205674646
 20
-11.96509594646989
 30
0.0
 10
104.438986870342
 20
-11.96364700888992
 30
0.0
 10
104.440342963677
 20
-11.96220427887655
 30
0.0
 10
104.4416894509941
 20
-11.96076715664787
 30
0.0
 10
104.4430268447138
 20
-11.95933514321547
 30
0.0
 10
104.4443556752159
 20
-11.95790771163967
 30
0.0
 10
104.4456765022138
 20
-11.95648429607013
 30
0.0
 10
104.4469898814731
 20
-11.95506432781604
 30
0.0
 10
104.448296361848
 20
-11.95364723764089
 30
0.0
 10
104.4495963930835
 20
-11.95223255662984
 30
0.0
 10
104.4508904509691
 20
-11.95081978295479
 30
0.0
 10
104.4521789288909
 20
-11.94940848891136
 30
0.0
 10
104.4534622026506
 20
-11.94799812591634
 30
0.0
 10
104.4547407822169
 20
-11.94658830555247
 30
0.0
 10
104.4560151272026
 20
-11.94517847374314
 30
0.0
 10
104.4572857494738
 20
-11.9437680689345
 30
0.0
 10
104.4585531003284
 20
-11.94235657425116
 30
0.0
 10
104.4598176314346
 20
-11.94094346975612
 30
0.0
 10
104.4610797455253
 20
-11.93952828244533
 30
0.0
 10
104.4623398927122
 20
-11.93811047994364
 30
0.0
 10
104.4635985353595
 20
-11.93668950877261
 30
0.0
 10
104.464856198784
 20
-11.9352647363649
 30
0.0
 10
104.4661133180871
 20
-11.93383562394624
 30
0.0
 10
104.4669504427724
 20
-11.93288063123282
 30
0.0
 10
104.4673689696844
 20
-11.93240233360012
 30
0.0
 11
104.4202919831843
 21
-11.98308433440019
 31
0.0
 11
104.4218080645844
 21
-11.98153771910017
 31
0.0
 11
104.4233091883845
 21
-11.98000136380017
 31
0.0
 11
104.4247961197845
 21
-11.97847457920016
 31
0.0
 11
104.4262697289844
 21
-11.97695655740017
 31
0.0
 11
104.4277308299845
 21
-11.97544653800025
 31
0.0
 11
104.4291800121843
 21
-11.97394398330021
 31
0.0
 11
104.4306172460844
 21
-11.97244899230014
 31
0.0
 11
104.4320423382844
 21
-11.97096183690013
 31
0.0
 11
104.4334554073846
 21
-11.96948246410016
 31
0.0
 11
104.4348564072845
 21
-11.96801099360022
 31
0.0
 11
104.4362451847844
 21
-11.96654765860017
 31
0.0
 11
104.4376221495845
 21
-11.96509209930019
 31
0.0
 11
104.4389881787844
 21
-11.96364345380021
 31
0.0
 11
104.4403441106844
 21
-11.96220089030015
 31
0.0
 11
104.4416904388845
 21
-11.96076393440018
 31
0.0
 11
104.4430276504845
 21
-11.95933211210018
 31
0.0
 11
104.4443562989845
 21
-11.95790487210018
 31
0.0
 11
104.4456769346845
 21
-11.95648165880021
 31
0.0
 11
104.4469901331845
 21
-11.95506188200016
 31
0.0
 11
104.4482964353844
 21
-11.95364498110012
 31
0.0
 11
104.4495963716845
 21
-11.95223039970017
 31
0.0
 11
104.4508902206846
 21
-11.95081784880017
 31
0.0
 11
104.4521786021844
 21
-11.94940666160016
 31
0.0
 11
104.4534618226846
 21
-11.94799650660019
 31
0.0
 11
104.4547402976843
 21
-11.94658692770019
 31
0.0
 11
104.4560145751845
 21
-11.94517731550019
 31
0.0
 11
104.4572851205846
 21
-11.94376714420019
 31
0.0
 11
104.4585524314846
 21
-11.94235584470021
 31
0.0
 11
104.4598168960845
 21
-11.94094296200018
 31
0.0
 11
104.4610789739845
 21
-11.93952795520016
 31
0.0
 11
104.4623390163845
 21
-11.93811039680014
 31
0.0
 11
104.4635975523845
 21
-11.93668965300026
 31
0.0
 11
104.4648550770846
 21
-11.93526511890019
 31
0.0
 11
104.4661121301844
 21
-11.9338361300002
 31
0.0
 11
104.4673689696844
 21
-11.93240233360012
 31
0.0
  0
SPLINE
  5
55FBF
330
1F
100
AcDbEntity
  8
1
100
AcDbSpline
210
0.0
220
0.0
230
1.0
 70
     8
 71
     3
 72
    12
 73
     8
 74
     6
 42
0.0000000001
 43
0.0000000001
 44
0.000001
 12
0.0537566380759419
 22
-0.9985540665696436
 32
0.0
 13
0.0552813878764529
 23
-0.9984708148736514
 33
0.0
 40
0.0
 40
0.0
 40
0.0
 40
0.0
 40
0.2209122770195928
 40
0.4175401307254178
 40
0.5973613852576532
 40
0.7637312137248557
 40
0.9175676701087679
 40
0.9175676701087679
 40
0.9175676701087679
 40
0.9175676701087679
 10
104.4788090362845
 20
-5.144190706300207
 30
0.0
 10
104.4827675367253
 20
-5.217721657157909
 30
0.0
 10
104.4902679767519
 20
-5.356699455556736
 30
0.0
 10
104.5010488317684
 20
-5.555527854863612
 30
0.0
 10
104.5109001774166
 20
-5.736199124005452
 30
0.0
 10
104.5200298179511
 20
-5.902624748280032
 30
0.0
 10
104.5259114643127
 20
-6.009198001912523
 30
0.0
 10
104.5287462285844
 20
-6.060398405900173
 30
0.0
 11
104.4788090362845
 21
-5.144190706300207
 31
0.0
 11
104.4907150308843
 21
-5.364781912800197
 31
0.0
 11
104.5013635228845
 21
-5.561121213300168
 31
0.0
 11
104.5111550760846
 21
-5.740675682200219
 31
0.0
 11
104.5202673929846
 21
-5.906795782100175
 31
0.0
 11
104.5287462285844
 21
-6.060398405900173
 31
0.0
  0
SPLINE
  5
55FC0
330
1F
100
AcDbEntity
  8
1
100
AcDbSpline
210
0.0
220
0.0
230
1.0
 70
     8
 71
     3
 72
    41
 73
    37
 74
    35
 42
0.0000000001
 43
0.0000000001
 44
0.000001
 12
0.7525912243647494
 22
0.6584880021755656
 32
0.0
 13
0.7174378700658707
 23
0.6966224964752051
 33
0.0
 40
0.0
 40
0.0
 40
0.0
 40
0.0
 40
0.0022131464720106
 40
0.0044084539595333
 40
0.006586548009865
 40
0.0087490930482861
 40
0.0108982063003758
 40
0.0130344040865204
 40
0.0151572223635205
 40
0.0172660959737814
 40
0.0193612743299418
 40
0.0214430248760099
 40
0.0235112455808439
 40
0.0255659069852016
 40
0.0276080055656237
 40
0.0296384899781409
 40
0.031658067242272
 40
0.0336677690241535
 40
0.035668777398808
 40
0.0376615391708702
 40
0.0396461675698843
 40
0.0416232845536294
 40
0.0435940300390701
 40
0.0455595795148155
 40
0.0475208603184234
 40
0.0494784649021435
 40
0.0514331229201115
 40
0.0533854837567468
 40
0.0553364071442507
 40
0.0572867288695352
 40
0.0592373490081077
 40
0.0611887739120292
 40
0.0631413646081826
 40
0.065096049642191
 40
0.0670536530330611
 40
0.0690151083873427
 40
0.0690151083873427
 40
0.0690151083873427
 40
0.0690151083873427
 10
104.3695184384844
 20
-12.0298183152002
 30
0.0
 10
104.3700736366888
 20
-12.02933253840058
 30
0.0
 10
104.3711788229458
 20
-12.02836405997416
 30
0.0
 10
104.3728278457292
 20
-12.02691457112846
 30
0.0
 10
104.3744620124982
 20
-12.02547373334627
 30
0.0
 10
104.3760824573905
 20
-12.02404061930304
 30
0.0
 10
104.3776902813472
 20
-12.02261431876795
 30
0.0
 10
104.3792860498967
 20
-12.02119438694876
 30
0.0
 10
104.3808696595652
 20
-12.01978097210727
 30
0.0
 10
104.3824409418987
 20
-12.01837428316432
 30
0.0
 10
104.3839999110798
 20
-12.01697436732925
 30
0.0
 10
104.385546696049
 20
-12.01558116839024
 30
0.0
 10
104.3870813565247
 20
-12.01419469201858
 30
0.0
 10
104.3886041324808
 20
-12.01281478074529
 30
0.0
 10
104.3901155219459
 20
-12.01144104014324
 30
0.0
 10
104.3916162016817
 20
-12.01007290728998
 30
0.0
 10
104.3931068538111
 20
-12.00870980760013
 30
0.0
 10
104.3945882144114
 20
-12.00735111007341
 30
0.0
 10
104.396060951841
 20
-12.00599623810115
 30
0.0
 10
104.3975255061211
 20
-12.00464481896918
 30
0.0
 10
104.398982178368
 20
-12.00329660467787
 30
0.0
 10
104.400431437613
 20
-12.00195118845243
 30
0.0
 10
104.4018740093632
 20
-12.0006079192994
 30
0.0
 10
104.403310689452
 20
-11.99926607233857
 30
0.0
 10
104.4047421362254
 20
-11.99792504282135
 30
0.0
 10
104.4061688962467
 20
-11.99658432405175
 30
0.0
 10
104.4075914457096
 20
-11.99524346976039
 30
0.0
 10
104.4090103228213
 20
-11.99390196961019
 30
0.0
 10
104.4104260883516
 20
-11.99255928567493
 30
0.0
 10
104.4118393602496
 20
-11.99121481894494
 30
0.0
 10
104.4132506675444
 20
-11.9898680479169
 30
0.0
 10
104.4146604217446
 20
-11.98851855725692
 30
0.0
 10
104.4160690387553
 20
-11.98716592261544
 30
0.0
 10
104.4174770080136
 20
-11.98580964342557
 30
0.0
 10
104.4188849527468
 20
-11.9844490831567
 30
0.0
 10
104.4198229090672
 20
-11.98353979904206
 30
0.0
 10
104.4202919831843
 20
-11.98308433440019
 30
0.0
 11
104.3695184384844
 21
-12.0298183152002
 31
0.0
 11
104.3711829086844
 21
-12.02835970630019
 31
0.0
 11
104.3728317382845
 21
-12.02691033050013
 31
0.0
 11
104.3744654373845
 21
-12.02546982610016
 31
0.0
 11
104.3760852908844
 21
-12.02403713930022
 31
0.0
 11
104.3776929155844
 21
-12.02261090810015
 31
0.0
 11
104.3792887246843
 21
-12.02119082610016
 31
0.0
 11
104.3808723982845
 21
-12.01977723780021
 31
0.0
 11
104.3824435429844
 21
-12.01837055720017
 31
0.0
 11
104.3840023732844
 21
-12.01697065610017
 31
0.0
 11
104.3855491160845
 21
-12.01557739310016
 31
0.0
 11
104.3870837230845
 21
-12.01419087330015
 31
0.0
 11
104.3886062000845
 21
-12.01281115340015
 31
0.0
 11
104.3901173117845
 21
-12.01143759970017
 31
0.0
 11
104.3916177833846
 21
-12.01006960610021
 31
0.0
 11
104.3931081580845
 21
-12.00870672550019
 31
0.0
 11
104.3945892151844
 21
-12.00734828790013
 31
0.0
 11
104.3960618405844
 21
-12.0059935170002
 31
0.0
 11
104.3975263751845
 21
-12.00464213010019
 31
0.0
 11
104.3989829135846
 21
-12.00329406950021
 31
0.0
 11
104.4004319222845
 21
-12.00194893040015
 31
0.0
 11
104.4018742443843
 21
-12.00060595240012
 31
0.0
 11
104.4033107439843
 21
-11.99926434550019
 31
0.0
 11
104.4047420994845
 21
-11.99792348450017
 31
0.0
 11
104.4061687412843
 21
-11.99658296940021
 31
0.0
 11
104.4075911970844
 21
-11.99524230350022
 31
0.0
 11
104.4090099329844
 21
-11.99390104190019
 31
0.0
 11
104.4104255647846
 21
-11.99255859200013
 31
0.0
 11
104.4118386869843
 21
-11.99121437370019
 31
0.0
 11
104.4132499367845
 21
-11.98986775870025
 31
0.0
 11
104.4146596629846
 21
-11.98851838700017
 31
0.0
 11
104.4160681070846
 21
-11.98716599690016
 31
0.0
 11
104.4174759171844
 21
-11.98580993100017
 31
0.0
 11
104.4188836615844
 21
-11.98444960000017
 31
0.0
 11
104.4202919831843
 21
-11.98308433440019
 31
0.0
  0
SPLINE
  5
55FC1
330
1F
100
AcDbEntity
  8
1
100
AcDbSpline
210
0.0
220
0.0
230
1.0
 70
     8
 71
     3
 72
    41
 73
    37
 74
    35
 42
0.0000000001
 43
0.0000000001
 44
0.000001
 12
0.800265348110911
 22
0.599646039437369
 32
0.0
 13
0.771091088120963
 23
0.6367248493819205
 33
0.0
 40
0.0
 40
0.0
 40
0.0
 40
0.0
 40
0.0021967030596154
 40
0.0043767393203203
 40
0.0065412445039835
 40
0.0086912826736584
 40
0.0108282574953528
 40
0.0129523468078926
 40
0.0150634411796084
 40
0.0171616651001955
 40
0.0192477565458635
 40
0.0213216058639687
 40
0.0233829993360802
 40
0.0254320918441908
 40
0.027469774584922
 40
0.0294962891478462
 40
0.0315117982814013
 40
0.0335167929394464
 40
0.0355125521576582
 40
0.0375001959782134
 40
0.0394807500872503
 40
0.041454730492325
 40
0.0434229657324253
 40
0.0453860894752427
 40
0.0473450310562928
 40
0.0493005086178789
 40
0.0512534206975691
 40
0.0532042253621373
 40
0.0551536696267483
 40
0.0571026535419523
 40
0.0590521683900669
 40
0.0610032645711943
 40
0.0629564409717369
 40
0.0649119100217667
 40
0.066870205532958
 40
0.0688322683782376
 40
0.0688322683782376
 40
0.0688322683782376
 40
0.0688322683782376
 10
104.3154052067846
 20
-12.07234784500014
 30
0.0
 10
104.3159911885641
 20
-12.07190876357029
 30
0.0
 10
104.3171580931507
 20
-12.07103311364202
 30
0.0
 10
104.3189002493241
 20
-12.06972196770169
 30
0.0
 10
104.3206281538598
 20
-12.06841775634305
 30
0.0
 10
104.3223427914972
 20
-12.06711979753521
 30
0.0
 10
104.3240448888236
 20
-12.06582759693344
 30
0.0
 10
104.3257348584645
 20
-12.06454089340678
 30
0.0
 10
104.3274127730548
 20
-12.06325968298563
 30
0.0
 10
104.3290788534638
 20
-12.06198384801922
 30
0.0
 10
104.3307333196671
 20
-12.06071326965409
 30
0.0
 10
104.3323763015795
 20
-12.05944789670923
 30
0.0
 10
104.3340077752314
 20
-12.05818779658875
 30
0.0
 10
104.3356279807212
 20
-12.05693283266629
 30
0.0
 10
104.3372372770113
 20
-12.0556827737829
 30
0.0
 10
104.338836023712
 20
-12.05443738520211
 30
0.0
 10
104.3404244741745
 20
-12.05319651274749
 30
0.0
 10
104.3420031530836
 20
-12.05195978771172
 30
0.0
 10
104.3435728338075
 20
-12.05072664127647
 30
0.0
 10
104.3451344263985
 20
-12.04949638997993
 30
0.0
 10
104.3466886376462
 20
-12.04826850326861
 30
0.0
 10
104.3482360953776
 20
-12.04704250731856
 30
0.0
 10
104.3497773226205
 20
-12.04581800640432
 30
0.0
 10
104.3513129479429
 20
-12.04459451611689
 30
0.0
 10
104.3528435685311
 20
-12.04337157168828
 30
0.0
 10
104.354369847877
 20
-12.0421486498829
 30
0.0
 10
104.3558923241824
 20
-12.04092532232369
 30
0.0
 10
104.3574115407991
 20
-12.03970115169539
 30
0.0
 10
104.3589280391472
 20
-12.0384756975061
 30
0.0
 10
104.3604424961854
 20
-12.03724840424499
 30
0.0
 10
104.3619556641943
 20
-12.03601864877868
 30
0.0
 10
104.3634681882627
 20
-12.0347858881743
 30
0.0
 10
104.3649805094517
 20
-12.03354974019825
 30
0.0
 10
104.3664929336809
 20
-12.03230992944856
 30
0.0
 10
104.368005879063
 20
-12.03106608520881
 30
0.0
 10
104.3690141287596
 20
-12.03023474659008
 30
0.0
 10
104.3695184384844
 20
-12.0298183152002
 30
0.0
 11
104.3154052067846
 21
-12.07234784500014
 31
0.0
 11
104.3171622172845
 21
-12.0710293580002
 31
0.0
 11
104.3189040461846
 21
-12.06971841920017
 31
0.0
 11
104.3206316326843
 21
-12.06841439340007
 31
0.0
 11
104.3223458547843
 21
-12.06711668320014
 31
0.0
 11
104.3240478571845
 21
-12.06582448080013
 31
0.0
 11
104.3257378050846
 21
-12.06453771540015
 31
0.0
 11
104.3274156346845
 21
-12.06325648960018
 31
0.0
 11
104.3290814681843
 21
-12.06198076410015
 31
0.0
 11
104.3307359135845
 21
-12.06071012490014
 31
0.0
 11
104.3323789053845
 21
-12.05944467260019
 31
0.0
 11
104.3340102959844
 21
-12.05818457170017
 31
0.0
 11
104.3356302297845
 21
-12.05692976170013
 31
0.0
 11
104.3372394317846
 21
-12.05567972920016
 31
0.0
 11
104.3388381116844
 21
-12.05443435630019
 31
0.0
 11
104.3404264162843
 21
-12.05319357260015
 31
0.0
 11
104.3420047500845
 21
-12.05195710440017
 31
0.0
 11
104.3435741351843
 21
-12.05072418840012
 31
0.0
 11
104.3451354645845
 21
-12.04949415430019
 31
0.0
 11
104.3466895534845
 21
-12.04826638550025
 31
0.0
 11
104.3482368141845
 21
-12.04704057760017
 31
0.0
 11
104.3497779017846
 21
-12.04581622940014
 31
0.0
 11
104.3513133163844
 21
-12.04459295790019
 31
0.0
 11
104.3528437863844
 21
-12.04337019220014
 31
0.0
 11
104.3543698724845
 21
-12.04214748990017
 31
0.0
 11
104.3558922733843
 21
-12.04092429240018
 31
0.0
 11
104.3574113417844
 21
-12.03970031380021
 31
0.0
 11
104.3589276532846
 21
-12.0384750844002
 31
0.0
 11
104.3604418995844
 21
-12.03724803480014
 31
0.0
 11
104.3619548397844
 21
-12.03601853400022
 31
0.0
 11
104.3634672749845
 21
-12.03478590910021
 31
0.0
 11
104.3649795755843
 21
-12.03354983190019
 31
0.0
 11
104.3664918884844
 21
-12.03231015360012
 31
0.0
 11
104.3680046076845
 21
-12.03106652010018
 31
0.0
 11
104.3695184384844
 21
-12.0298183152002
 31
0.0
  0
SPLINE
  5
55FC2
330
1F
100
AcDbEntity
  8
1
100
AcDbSpline
210
0.0
220
0.0
230
1.0
 70
     8
 71
     3
 72
    41
 73
    37
 74
    35
 42
0.0000000001
 43
0.0000000001
 44
0.000001
 12
0.843390315682342
 22
0.5373013822923216
 32
0.0
 13
0.8193082197580736
 23
0.5733533300128783
 33
0.0
 40
0.0
 40
0.0
 40
0.0
 40
0.0
 40
0.0021816768942865
 40
0.0043470923843446
 40
0.0064974802810833
 40
0.0086339172923161
 40
0.010757470431142
 40
0.0128689863916122
 40
0.0149689940869029
 40
0.0170579403889208
 40
0.0191360175407774
 40
0.0212028933592348
 40
0.0232582328325045
 40
0.0253020331568583
 40
0.0273350897624726
 40
0.0293575183345318
 40
0.0313693897797864
 40
0.0333710309827818
 40
0.035363726392867
 40
0.0373484893153031
 40
0.0393265183654595
 40
0.0412982975625927
 40
0.0432644134671281
 40
0.0452257134506409
 40
0.0471829381928534
 40
0.0491369190002904
 40
0.0510882688720939
 40
0.053037775968486
 40
0.0549859536322613
 40
0.0569338151740182
 40
0.0588822129548966
 40
0.0608322085360196
 40
0.0627841766737169
 40
0.0647383148724868
 40
0.066695542880603
 40
0.0686566185808812
 40
0.0686566185808812
 40
0.0686566185808812
 40
0.0686566185808812
 10
104.2583044568844
 20
-12.11045949360022
 30
0.0
 10
104.2589177919392
 20
-12.11006875426321
 30
0.0
 10
104.260139381779
 20
-12.10928938918286
 30
0.0
 10
104.2619637348761
 20
-12.1081221086423
 30
0.0
 10
104.263773875213
 20
-12.10696059824954
 30
0.0
 10
104.2655707727467
 20
-12.10580429173086
 30
0.0
 10
104.2673552860324
 20
-12.10465268783923
 30
0.0
 10
104.2691281176419
 20
-12.10350538022001
 30
0.0
 10
104.2708897946517
 20
-12.10236207164013
 30
0.0
 10
104.2726406597728
 20
-12.10122258135811
 30
0.0
 10
104.2743808143943
 20
-12.10008688390195
 30
0.0
 10
104.2761101417522
 20
-12.09895509626449
 30
0.0
 10
104.2778284713781
 20
-12.09782737196644
 30
0.0
 10
104.2795359474532
 20
-12.09670365877318
 30
0.0
 10
104.2812328390329
 20
-12.09558382077489
 30
0.0
 10
104.2829194347913
 20
-12.09446770704207
 30
0.0
 10
104.2845958925935
 20
-12.09335525185349
 30
0.0
 10
104.2862626942337
 20
-12.09224617290823
 30
0.0
 10
104.2879205811566
 20
-12.09114001094022
 30
0.0
 10
104.2895705337557
 20
-12.09003614115946
 30
0.0
 10
104.291213307711
 20
-12.0889340826267
 30
0.0
 10
104.2928495382643
 20
-12.08783343013465
 30
0.0
 10
104.2944797616887
 20
-12.08673384105788
 30
0.0
 10
104.2961045833326
 20
-12.08563492213389
 30
0.0
 10
104.297724674026
 20
-12.08453623125936
 30
0.0
 10
104.299340637777
 20
-12.08343736696497
 30
0.0
 10
104.3009530896477
 20
-12.08233791587727
 30
0.0
 10
104.3025625551479
 20
-12.0812375214243
 30
0.0
 10
104.3041696680321
 20
-12.0801357489413
 30
0.0
 10
104.3057750774906
 20
-12.07903214845552
 30
0.0
 10
104.30737958078
 20
-12.07792616284001
 30
0.0
 10
104.3089837972256
 20
-12.07681735193
 30
0.0
 10
104.3105881645087
 20
-12.0757053967439
 30
0.0
 10
104.3121930800408
 20
-12.07459000323405
 30
0.0
 10
104.3137990443831
 20
-12.07347080217826
 30
0.0
 10
104.3148696316376
 20
-12.07272264142784
 30
0.0
 10
104.3154052067846
 20
-12.07234784500014
 30
0.0
 11
104.2583044568844
 21
-12.11045949360022
 31
0.0
 11
104.2601436882844
 21
-12.10928606460021
 31
0.0
 11
104.2619676781844
 21
-12.10811898840012
 31
0.0
 11
104.2637774926845
 21
-12.10695764770025
 31
0.0
 11
104.2655740621846
 21
-12.10580150450022
 31
0.0
 11
104.2673583058845
 21
-12.10465002120014
 31
0.0
 11
104.2691309549843
 21
-12.10350277510019
 31
0.0
 11
104.2708924717844
 21
-12.1023595128002
 31
0.0
 11
104.2726432482843
 21
-12.10122002320014
 31
0.0
 11
104.2743834620844
 21
-12.10008423250019
 31
0.0
 11
104.2761128515844
 21
-12.09895235340019
 31
0.0
 11
104.2778311536844
 21
-12.09782460140019
 31
0.0
 11
104.2795383833843
 21
-12.09670101020021
 31
0.0
 11
104.2812352218845
 21
-12.09558117370017
 31
0.0
 11
104.2829217813844
 21
-12.09446505760019
 31
0.0
 11
104.2845981365844
 21
-12.09335265200019
 31
0.0
 11
104.2862645748844
 21
-12.09224380450013
 31
0.0
 11
104.2879221789847
 21
-12.09113782930018
 31
0.0
 11
104.2895718026846
 21
-12.09003418600019
 31
0.0
 11
104.2912144507843
 21
-12.08893222660026
 31
0.0
 11
104.2928505319844
 21
-12.08783169720019
 31
0.0
 11
104.2944805384843
 21
-12.08673228430013
 31
0.0
 11
104.2961051769846
 21
-12.08563352600021
 31
0.0
 11
104.2977250631845
 21
-12.08453501630021
 31
0.0
 11
104.2993408857844
 21
-12.08343629540019
 31
0.0
 11
104.3009531505845
 21
-12.08233702280017
 31
0.0
 11
104.3025625062844
 21
-12.08123675670021
 31
0.0
 11
104.3041693724845
 21
-12.08013520720015
 31
0.0
 11
104.3057745791845
 21
-12.07903179890019
 31
0.0
 11
104.3073788208846
 21
-12.07792604350021
 31
0.0
 11
104.3089829615844
 21
-12.07681733010014
 31
0.0
 11
104.3105872977846
 21
-12.07570543480017
 31
0.0
 11
104.3121919791845
 21
-12.07459023320012
 31
0.0
 11
104.3137977469844
 21
-12.07347118660021
 31
0.0
 11
104.3154052067846
 21
-12.07234784500014
 31
0.0
  0
SPLINE
  5
55FC3
330
1F
100
AcDbEntity
  8
1
100
AcDbSpline
210
0.0
220
0.0
230
1.0
 70
     8
 71
     3
 72
    41
 73
    37
 74
    35
 42
0.0000000001
 43
0.0000000001
 44
0.000001
 12
0.881731776567252
 22
0.4717510722738825
 32
0.0
 13
0.8619662190229442
 23
0.5069657160630193
 33
0.0
 40
0.0
 40
0.0
 40
0.0
 40
0.0
 40
0.0021649091964279
 40
0.004315187689422
 40
0.0064512015390078
 40
0.0085736064647485
 40
0.0106836565739275
 40
0.0127824776811783
 40
0.014871248772539
 40
0.0169508710683117
 40
0.0190213711920181
 40
0.0210817208907521
 40
0.0231312002082588
 40
0.0251691497050238
 40
0.0271957493410707
 40
0.029211654060273
 40
0.0312176957877801
 40
0.0332149285465403
 40
0.0352040150521754
 40
0.0371856372948056
 40
0.0391606535127484
 40
0.0411295512282731
 40
0.0430929335807445
 40
0.0450516693162237
 40
0.047006590148814
 40
0.0489584927334556
 40
0.0509080079072001
 40
0.0528558235152739
 40
0.0548026567625283
 40
0.0567492004026812
 40
0.0586962103225473
 40
0.0606443291449588
 40
0.0625942497590288
 40
0.0645465660484077
 40
0.0665023305301217
 40
0.0684624984207554
 40
0.0684624984207554
 40
0.0684624984207554
 40
0.0684624984207554
 10
104.1985999072844
 20
-12.14395343300015
 30
0.0
 10
104.1992361970284
 20
-12.14361300025521
 30
0.0
 10
104.2005040575497
 20
-12.14293365225768
 30
0.0
 10
104.2023982536225
 20
-12.1419156906563
 30
0.0
 10
104.2042787266947
 20
-12.14090212649822
 30
0.0
 10
104.2061461632272
 20
-12.13989264130879
 30
0.0
 10
104.2080014705315
 20
-12.13888679226934
 30
0.0
 10
104.2098457067323
 20
-12.13788404861466
 30
0.0
 10
104.211679824006
 20
-12.13688393078527
 30
0.0
 10
104.2135044506492
 20
-12.13588613044908
 30
0.0
 10
104.2153195684162
 20
-12.13489069029327
 30
0.0
 10
104.2171246859516
 20
-12.13389791401064
 30
0.0
 10
104.2189191131951
 20
-12.13290821840997
 30
0.0
 10
104.2207025143407
 20
-12.13192182854237
 30
0.0
 10
104.2224749552315
 20
-12.13093874857651
 30
0.0
 10
104.2242369358528
 20
-12.12995874033555
 30
0.0
 10
104.2259892092949
 20
-12.12898142114835
 30
0.0
 10
104.2277325289492
 20
-12.1280064034247
 30
0.0
 10
104.2294676027013
 20
-12.12703332047516
 30
0.0
 10
104.2311950798331
 20
-12.12606183442159
 30
0.0
 10
104.2329155570927
 20
-12.12509163301246
 30
0.0
 10
104.2346296068381
 20
-12.12412241416837
 30
0.0
 10
104.2363378030784
 20
-12.12315387154063
 30
0.0
 10
104.2380408180446
 20
-12.12218563933982
 30
0.0
 10
104.2397393782221
 20
-12.12121731663811
 30
0.0
 10
104.2414341393616
 20
-12.12024853852043
 30
0.0
 10
104.2431257139095
 20
-12.11927896092308
 30
0.0
 10
104.2448146897567
 20
-12.1183082501845
 30
0.0
 10
104.2465016710905
 20
-12.1173360595796
 30
0.0
 10
104.2481872801022
 20
-12.11636202820762
 30
0.0
 10
104.2498721157703
 20
-12.11538580470991
 30
0.0
 10
104.2515567754545
 20
-12.11440703487443
 30
0.0
 10
104.2532418081933
 20
-12.11342538886492
 30
0.0
 10
104.2549278794477
 20
-12.11244046529063
 30
0.0
 10
104.2566157281508
 20
-12.11145181533797
 30
0.0
 10
104.2577412573826
 20
-12.11079073957299
 30
0.0
 10
104.2583044568844
 20
-12.11045949360022
 30
0.0
 11
104.1985999072844
 21
-12.14395343300015
 31
0.0
 11
104.2005081410846
 21
-12.14293094960015
 31
0.0
 11
104.2024022185844
 21
-12.14191303110021
 31
0.0
 11
104.2042824832845
 21
-12.14089954960019
 31
0.0
 11
104.2061495324844
 21
-12.13989023740015
 31
0.0
 11
104.2080044877846
 21
-12.13888453820021
 31
0.0
 11
104.2098483551844
 21
-12.13788195150022
 31
0.0
 11
104.2116821845845
 21
-12.13688194610017
 31
0.0
 11
104.2135067795846
 21
-12.13588411920017
 31
0.0
 11
104.2153221748844
 21
-12.13488848470018
 31
0.0
 11
104.2171274812847
 21
-12.13389556550015
 31
0.0
 11
104.2189220816844
 21
-12.1329057394002
 31
0.0
 11
104.2207054134844
 21
-12.13191935760017
 31
0.0
 11
104.2224776493847
 21
-12.1309363663002
 31
0.0
 11
104.2242393766844
 21
-12.12995647980017
 31
0.0
 11
104.2259913354844
 21
-12.12897932290019
 31
0.0
 11
104.2277344577844
 21
-12.12800440840016
 31
0.0
 11
104.2294693319843
 21
-12.12703143630017
 31
0.0
 11
104.2311965617843
 21
-12.1260600944002
 31
0.0
 11
104.2329169026845
 21
-12.12508998080017
 31
0.0
 11
104.2346307857844
 21
-12.12412087300021
 31
0.0
 11
104.2363387413845
 21
-12.12315248900017
 31
0.0
 11
104.2380415293844
 21
-12.12218441320016
 31
0.0
 11
104.2397398752844
 21
-12.12121624440016
 31
0.0
 11
104.2414344723845
 21
-12.12024759570016
 31
0.0
 11
104.2431258680844
 21
-12.11927815910013
 31
0.0
 11
104.2448146578845
 21
-12.11830759590015
 31
0.0
 11
104.2465014607844
 21
-12.11733554940014
 31
0.0
 11
104.2481868731845
 21
-12.11636167270018
 31
0.0
 11
104.2498715440845
 21
-12.11538558380022
 31
0.0
 11
104.2515560228844
 21
-12.11440695480013
 31
0.0
 11
104.2532409006846
 21
-12.11342542960017
 31
0.0
 11
104.2549266813846
 21
-12.11244069920013
 31
0.0
 11
104.2566142629846
 21
-12.11145222010015
 31
0.0
 11
104.2583044568844
 21
-12.11045949360022
 31
0.0
  0
SPLINE
  5
55FC4
330
1F
100
AcDbEntity
  8
1
100
AcDbSpline
210
0.0
220
0.0
230
1.0
 70
     8
 71
     3
 72
    40
 73
    36
 74
    34
 42
0.0000000001
 43
0.0000000001
 44
0.000001
 12
0.9829897778219701
 22
0.1836602752298757
 32
0.0
 13
0.9755011572322501
 23
0.2199943004683095
 33
0.0
 40
0.0
 40
0.0
 40
0.0
 40
0.0
 40
0.0021557349551251
 40
0.0042994647909523
 40
0.0064323604603613
 40
0.0085556510871188
 40
0.0106701178927658
 40
0.0127767774775752
 40
0.0148765180154903
 40
0.0169692147624612
 40
0.0190548468340264
 40
0.0211338300904913
 40
0.023205682767666
 40
0.0252695835675879
 40
0.0273248589978503
 40
0.0293718896264264
 40
0.0314110862472385
 40
0.0334426628597278
 40
0.0354673152098408
 40
0.0374859476565843
 40
0.0394988570754857
 40
0.0415064551757081
 40
0.0435098718650207
 40
0.045509921113016
 40
0.0475076742916899
 40
0.0495037551839697
 40
0.0514991038895984
 40
0.0534942838975776
 40
0.0554897628785785
 40
0.057486496002584
 40
0.0594849522524742
 40
0.0614858191937991
 40
0.0634899050447033
 40
0.0654978452310393
 40
0.0675106811010354
 40
0.0675106811010354
 40
0.0675106811010354
 40
0.0675106811010354
 10
103.9422665706845
 20
-12.22864930650013
 30
0.0
 10
103.9429729258261
 20
-12.22851733220841
 30
0.0
 10
103.9443815411261
 20
-12.22825325417221
 30
0.0
 10
103.9464884638337
 20
-12.22785559842936
 30
0.0
 10
103.9485842784145
 20
-12.22745740837689
 30
0.0
 10
103.9506700315692
 20
-12.22705852879071
 30
0.0
 10
103.9527467186299
 20
-12.22665880888323
 30
0.0
 10
103.9548152224957
 20
-12.22625811459346
 30
0.0
 10
103.9568761288834
 20
-12.22585636515745
 30
0.0
 10
103.9589296837005
 20
-12.22545354366286
 30
0.0
 10
103.9609759782838
 20
-12.22504966270946
 30
0.0
 10
103.9630149871768
 20
-12.2246447573425
 30
0.0
 10
103.9650464233513
 20
-12.22423891481875
 30
0.0
 10
103.9670696441642
 20
-12.22383229547941
 30
0.0
 10
103.969084289366
 20
-12.22342500554183
 30
0.0
 10
103.9710904014878
 20
-12.2230170705447
 30
0.0
 10
103.9730883128072
 20
-12.22260845593467
 30
0.0
 10
103.9750784582436
 20
-12.2221991043055
 30
0.0
 10
103.9770614334569
 20
-12.22178892276383
 30
0.0
 10
103.9790378605962
 20
-12.22137780974904
 30
0.0
 10
103.9810082686039
 20
-12.22096568021104
 30
0.0
 10
103.982973259581
 20
-12.22055243135943
 30
0.0
 10
103.9849336037047
 20
-12.22013792181786
 30
0.0
 10
103.9868902855094
 20
-12.21972196083078
 30
0.0
 10
103.9888441236778
 20
-12.21930438861548
 30
0.0
 10
103.9907959772606
 20
-12.21888503294758
 30
0.0
 10
103.9927465390763
 20
-12.21846375369657
 30
0.0
 10
103.9946964504529
 20
-12.21804041871982
 30
0.0
 10
103.9966463570761
 20
-12.21761489218195
 30
0.0
 10
103.998596873257
 20
-12.21718704216872
 30
0.0
 10
104.0005486843001
 20
-12.21675671826949
 30
0.0
 10
104.0025024270712
 20
-12.21632377787699
 30
0.0
 10
104.0044587919778
 20
-12.21588806351258
 30
0.0
 10
104.0064185838079
 20
-12.21544938899908
 30
0.0
 10
104.0077261650776
 20
-12.21515523703988
 30
0.0
 10
104.0083806729844
 20
-12.21500763290015
 30
0.0
 11
103.9422665706845
 21
-12.22864930650013
 31
0.0
 11
103.9443853933846
 21
-12.22825208180012
 31
0.0
 11
103.9464919322845
 21
-12.22785448780013
 31
0.0
 11
103.9485873436845
 21
-12.22745635620021
 31
0.0
 11
103.9506728400845
 21
-12.2270575020002
 31
0.0
 11
103.9527491930846
 21
-12.2266578185002
 31
0.0
 11
103.9548174046845
 21
-12.22625715000021
 31
0.0
 11
103.9568783500845
 21
-12.2258553609002
 31
0.0
 11
103.9589319097845
 21
-12.22545250630026
 31
0.0
 11
103.9609780663843
 21
-12.22504862170018
 31
0.0
 11
103.9630172307845
 21
-12.22464365660016
 31
0.0
 11
103.9650489334844
 21
-12.22423773500014
 31
0.0
 11
103.9670723725846
 21
-12.22383104970021
 31
0.0
 11
103.9690868917844
 21
-12.22342376730017
 31
0.0
 11
103.9710928682846
 21
-12.2230158467002
 31
0.0
 11
103.9730907084845
 21
-12.22260723820017
 31
0.0
 11
103.9750806257845
 21
-12.22219793010021
 31
0.0
 11
103.9770633050846
 21
-12.22178781140013
 31
0.0
 11
103.9790396348846
 21
-12.22137672510013
 31
0.0
 11
103.9810099083845
 21
-12.22096463490021
 31
0.0
 11
103.9829745308846
 21
-12.22055147920019
 31
0.0
 11
103.9849346098844
 21
-12.22013704530019
 31
0.0
 11
103.9868909429845
 21
-12.21972118180019
 31
0.0
 11
103.9888445786844
 21
-12.21930367940018
 31
0.0
 11
103.9907961269844
 21
-12.21888441840013
 31
0.0
 11
103.9927465064845
 21
-12.21846320940017
 31
0.0
 11
103.9946962669844
 21
-12.21803993920019
 31
0.0
 11
103.9966458640845
 21
-12.21761451220021
 31
0.0
 11
103.9985962291846
 21
-12.21718672650019
 31
0.0
 11
104.0005478179844
 21
-12.21675648060017
 31
0.0
 11
104.0025012991843
 21
-12.21632362380012
 31
0.0
 11
104.0044574585845
 21
-12.21588797610013
 31
0.0
 11
104.0064169125846
 21
-12.21544939170013
 31
0.0
 11
104.0083806729844
 21
-12.21500763290015
 31
0.0
  0
SPLINE
  5
55FC5
330
1F
100
AcDbEntity
  8
1
100
AcDbSpline
210
0.0
220
0.0
230
1.0
 70
     8
 71
     3
 72
    41
 73
    37
 74
    35
 42
0.0000000001
 43
0.0000000001
 44
0.000001
 12
0.9943769463696765
 22
0.1058984821823119
 32
0.0
 13
0.9894598742051009
 23
0.1448073110655193
 33
0.0
 40
0.0
 40
0.0
 40
0.0
 40
0.0
 40
0.0020994898589587
 40
0.0041893106132882
 40
0.0062704561142251
 40
0.0083437188367814
 40
0.0104096062837312
 40
0.012468730303947
 40
0.0145222849571545
 40
0.0165707940506154
 40
0.0186144539774981
 40
0.0206535731643919
 40
0.0226888074982121
 40
0.0247196080196316
 40
0.0267451388280024
 40
0.0287646475284326
 40
0.0307782899665846
 40
0.0327858028697539
 40
0.0347867076592769
 40
0.0367805351868503
 40
0.0387679332500601
 40
0.0407500782052736
 40
0.042728349300022
 40
0.0447035658327664
 40
0.0466765343466318
 40
0.0486480137844756
 40
0.0506183812852578
 40
0.0525879881675562
 40
0.0545576898220793
 40
0.0565281245486313
 40
0.0584994833228418
 40
0.0604723394153176
 40
0.0624476152144629
 40
0.0644262339118042
 40
0.0664090661657608
 40
0.0683968396015477
 40
0.0683968396015477
 40
0.0683968396015477
 40
0.0683968396015477
 10
103.8744169204844
 20
-12.23724892320018
 30
0.0
 10
103.8751128152561
 20
-12.23717481227038
 30
0.0
 10
103.8765013060488
 20
-12.23702604905583
 30
0.0
 10
103.8785792812944
 20
-12.23680075676822
 30
0.0
 10
103.880648282023
 20
-12.23657381087119
 30
0.0
 10
103.8827090693426
 20
-12.23634516785833
 30
0.0
 10
103.8847622775438
 20
-12.23611479445509
 30
0.0
 10
103.8868086736415
 20
-12.23588263897835
 30
0.0
 10
103.888849029673
 20
-12.23564864495472
 30
0.0
 10
103.8908839797288
 20
-12.23541276778439
 30
0.0
 10
103.8929138644313
 20
-12.23517499429525
 30
0.0
 10
103.8949390679984
 20
-12.23493530444367
 30
0.0
 10
103.8969597277751
 20
-12.2346937055776
 30
0.0
 10
103.8989756023965
 20
-12.23445025008834
 30
0.0
 10
103.9009859847754
 20
-12.23420504872965
 30
0.0
 10
103.9029904014641
 20
-12.23395818679802
 30
0.0
 10
103.9049885687328
 20
-12.23370972785446
 30
0.0
 10
103.906980293593
 20
-12.23345972494456
 30
0.0
 10
103.9089651765654
 20
-12.23320825818393
 30
0.0
 10
103.9109431197014
 20
-12.23295537086702
 30
0.0
 10
103.9129145722429
 20
-12.23270103570561
 30
0.0
 10
103.9148805941295
 20
-12.23244514311659
 30
0.0
 10
103.9168423013737
 20
-12.23218757088512
 30
0.0
 10
103.9188006871718
 20
-12.23192820787381
 30
0.0
 10
103.9207565392496
 20
-12.23166696599975
 30
0.0
 10
103.9227104988335
 20
-12.23140377329801
 30
0.0
 10
103.9246630564496
 20
-12.23113857542461
 30
0.0
 10
103.9266147342295
 20
-12.23087131161739
 30
0.0
 10
103.928566140241
 20
-12.23060190680758
 30
0.0
 10
103.9305178292516
 20
-12.23033029047678
 30
0.0
 10
103.9324702626049
 20
-12.23005640290876
 30
0.0
 10
103.9344239951593
 20
-12.22978016922178
 30
0.0
 10
103.9363798230487
 20
-12.22950147751268
 30
0.0
 10
103.9383386400429
 20
-12.22922019824162
 30
0.0
 10
103.940301275076
 20
-12.22893620735596
 30
0.0
 10
103.9416109633332
 20
-12.22874525454222
 30
0.0
 10
103.9422665706845
 20
-12.22864930650013
 30
0.0
 11
103.8744169204844
 21
-12.23724892320018
 31
0.0
 11
103.8765044642844
 21
-12.23702526160019
 31
0.0
 11
103.8785821117844
 21
-12.23679999110021
 31
0.0
 11
103.8806508521845
 21
-12.23657305060015
 31
0.0
 11
103.8827114740845
 21
-12.23634439550017
 31
0.0
 11
103.8847644825844
 21
-12.23611400880014
 31
0.0
 11
103.8868104862845
 21
-12.23588185880015
 31
0.0
 11
103.8888506718845
 21
-12.23564784340016
 31
0.0
 11
103.8908855597844
 21
-12.23541193220012
 31
0.0
 11
103.8929153449846
 21
-12.23517413010017
 31
0.0
 11
103.8949403336844
 21
-12.23493442740022
 31
0.0
 11
103.8969611769846
 21
-12.2346927714002
 31
0.0
 11
103.8989773295845
 21
-12.23444925100017
 31
0.0
 11
103.9009879617845
 21
-12.23420399260016
 31
0.0
 11
103.9029923272844
 21
-12.23395711580014
 31
0.0
 11
103.9049905814843
 21
-12.23370863050019
 31
0.0
 11
103.9069824639843
 21
-12.2334585984002
 31
0.0
 11
103.9089675009843
 21
-12.23320710900015
 31
0.0
 11
103.9109452283844
 21
-12.23295425250018
 31
0.0
 11
103.9129162900845
 21
-12.23269997720018
 31
0.0
 11
103.9148818537844
 21
-12.23244415980019
 31
0.0
 11
103.9168432876843
 21
-12.23218664480015
 31
0.0
 11
103.9188014041845
 21
-12.23192734430017
 31
0.0
 11
103.9207570025844
 21
-12.23166616810016
 31
0.0
 11
103.9227108345844
 21
-12.23140302870018
 31
0.0
 11
103.9246632731845
 21
-12.2311378868001
 31
0.0
 11
103.9266146655843
 21
-12.23087070460019
 31
0.0
 11
103.9285658580845
 21
-12.2306013733002
 31
0.0
 11
103.9305174814844
 21
-12.2303298102002
 31
0.0
 11
103.9324697232844
 21
-12.23005599220022
 31
0.0
 11
103.9344231493844
 21
-12.22977984150015
 31
0.0
 11
103.9363786709843
 21
-12.22950122850017
 31
0.0
 11
103.9383371994845
 21
-12.22922001910018
 31
0.0
 11
103.9402995937846
 21
-12.22893608300018
 31
0.0
 11
103.9422665706845
 21
-12.22864930650013
 31
0.0
  0
SPLINE
  5
55FC6
330
1F
100
AcDbEntity
  8
1
100
AcDbSpline
210
0.0
220
0.0
230
1.0
 70
     8
 71
     3
 72
    15
 73
    11
 74
     9
 42
0.0000000001
 43
0.0000000001
 44
0.000001
 12
-0.9995341523545736
 22
0.0305201290433787
 32
0.0
 13
-0.9994985880247446
 23
0.0316634258497379
 33
0.0
 40
0.0
 40
0.0
 40
0.0
 40
0.0
 40
0.1283545482249993
 40
0.2568116738954773
 40
0.3853670982437229
 40
0.5140174891475482
 40
0.6427625600596603
 40
0.7716018809101755
 40
0.9005310218899635
 40
1.02953987820421
 40
1.02953987820421
 40
1.02953987820421
 40
1.02953987820421
 10
97.15769612488452
 20
-12.18086409320017
 30
0.0
 10
97.11493120669752
 20
-12.17955829407512
 30
0.0
 10
97.02936747244917
 20
-12.17693651807013
 30
0.0
 10
96.90097280539999
 20
-12.17297717900982
 30
0.0
 10
96.77248028016288
 20
-12.168991871706
 30
0.0
 10
96.64389246058078
 20
-12.16498297079727
 30
0.0
 10
96.51521063619179
 20
-12.16095251899847
 30
0.0
 10
96.38643643819831
 20
-12.15690330727858
 30
0.0
 10
96.25757479831897
 20
-12.15283726601185
 30
0.0
 10
96.17163847849406
 20
-12.15011797228541
 30
0.0
 10
96.12865708858453
 20
-12.14875635150014
 30
0.0
 11
97.15769612488452
 21
-12.18086409320017
 31
0.0
 11
97.02940176288462
 21
-12.17693378510017
 31
0.0
 11
96.90100566438445
 21
-12.1729744838002
 31
0.0
 11
96.77251203288438
 21
-12.16898893320018
 31
0.0
 11
96.64392412168446
 21
-12.16497989190014
 31
0.0
 11
96.51524214318465
 21
-12.16094986380017
 31
0.0
 11
96.38646645998438
 21
-12.15690100510016
 31
0.0
 11
96.25760143498451
 21
-12.15283557360021
 31
0.0
 11
96.12865708858453
 21
-12.14875635150014
 31
0.0
  0
SPLINE
  5
55FC7
330
1F
100
AcDbEntity
  8
1
100
AcDbSpline
210
0.0
220
0.0
230
1.0
 70
     8
 71
     3
 72
    15
 73
    11
 74
     9
 42
0.0000000001
 43
0.0000000001
 44
0.000001
 12
-0.9996187572485576
 22
0.0276105080874927
 32
0.0
 13
-0.9995738757846494
 23
0.0291901841182045
 33
0.0
 40
0.0
 40
0.0
 40
0.0
 40
0.0
 40
0.1283354155426486
 40
0.2567728937128316
 40
0.385305831579093
 40
0.5139331379644112
 40
0.6426564717716863
 40
0.7714747182649058
 40
0.9003824744936197
 40
1.029374071479053
 40
1.029374071479053
 40
1.029374071479053
 40
1.029374071479053
 10
98.18665196138432
 20
-12.21020088510016
 30
0.0
 10
98.14388979851901
 20
-12.20901974975726
 30
0.0
 10
98.05833178563261
 20
-12.20664491365951
 30
0.0
 10
97.92994685745567
 20
-12.20304895023128
 30
0.0
 10
97.8014655293432
 20
-12.19941973012629
 30
0.0
 10
97.67288975302609
 20
-12.19575965159325
 30
0.0
 10
97.54421961364778
 20
-12.19207231929187
 30
0.0
 10
97.41545668285267
 20
-12.18835957800493
 30
0.0
 10
97.28660497341117
 20
-12.18462333151885
 30
0.0
 10
97.20067500173195
 20
-12.1821191893554
 30
0.0
 10
97.15769612488452
 20
-12.18086409320017
 30
0.0
 11
98.18665196138432
 21
-12.21020088510016
 31
0.0
 11
98.05836593198433
 21
-12.20664077450016
 31
0.0
 11
97.92997880938447
 21
-12.20304438390013
 31
0.0
 11
97.80149712388448
 21
-12.19941492900017
 31
0.0
 11
97.67292188598435
 21
-12.19575547590017
 31
0.0
 11
97.54425136798431
 21
-12.19206844140012
 31
0.0
 11
97.41548663018443
 21
-12.18835595380017
 31
0.0
 11
97.28663301728444
 21
-12.1846203085002
 31
0.0
 11
97.15769612488452
 21
-12.18086409320017
 31
0.0
  0
SPLINE
  5
55FC8
330
1F
100
AcDbEntity
  8
1
100
AcDbSpline
210
0.0
220
0.0
230
1.0
 70
     8
 71
     3
 72
    15
 73
    11
 74
     9
 42
0.0000000001
 43
0.0000000001
 44
0.000001
 12
-0.9996952981782733
 22
0.0246842216861969
 32
0.0
 13
-0.9996437941717855
 23
0.0266886637701593
 33
0.0
 40
0.0
 40
0.0
 40
0.0
 40
0.0
 40
0.1282896066431936
 40
0.2566918152153812
 40
0.3852058623263785
 40
0.5138186607657371
 40
0.6425190924699916
 40
0.7713050421614125
 40
0.9001811154694204
 40
1.029150374371222
 40
1.029150374371222
 40
1.029150374371222
 40
1.029150374371222
 10
99.21546005008464
 20
-12.23673495290012
 30
0.0
 10
99.17270987789585
 20
-12.23567937653664
 30
0.0
 10
99.08717235896984
 20
-12.23355318683758
 30
0.0
 10
98.95881097567077
 20
-12.23032556833419
 30
0.0
 10
98.8303428512088
 20
-12.22705745827272
 30
0.0
 10
98.70177627903842
 20
-12.22375056248725
 30
0.0
 10
98.57311992726955
 20
-12.2204094431558
 30
0.0
 10
98.44437660278277
 20
-12.2170370641291
 30
0.0
 10
98.31554443580115
 20
-12.21363436943696
 30
0.0
 10
98.229626401151
 20
-12.21134822416266
 30
0.0
 10
98.18665196138432
 20
-12.21020088510016
 30
0.0
 11
99.21546005008464
 21
-12.23673495290012
 31
0.0
 11
99.0872100087845
 21
-12.23354886580017
 31
0.0
 11
98.9588483717846
 21
-12.23032121570014
 31
0.0
 11
98.83037587998456
 21
-12.22705325870021
 31
0.0
 11
98.70180558118432
 21
-12.22374700280016
 31
0.0
 11
98.57314852478452
 21
-12.2204057099002
 31
0.0
 11
98.44440676058434
 21
-12.21703265650018
 31
0.0
 11
98.31557560928445
 21
-12.21363044930018
 31
0.0
 11
98.18665196138432
 21
-12.21020088510016
 31
0.0
  0
SPLINE
  5
55FC9
330
1F
100
AcDbEntity
  8
1
100
AcDbSpline
210
0.0
220
0.0
230
1.0
 70
     8
 71
     3
 72
    24
 73
    20
 74
    18
 42
0.0000000001
 43
0.0000000001
 44
0.000001
 12
-0.9997460450447274
 22
0.0225354258319229
 32
0.0
 13
-0.9997076317538615
 23
0.0241795577520699
 33
0.0
 40
0.0
 40
0.0
 40
0.0
 40
0.0
 40
0.0178828971112327
 40
0.047820679290279
 40
0.0782724491080666
 40
0.1080953418156907
 40
0.1364947201858861
 40
0.1668565721046417
 40
0.2001787236499668
 40
0.236687590032044
 40
0.2766561521658919
 40
0.3204802963058166
 40
0.3685930910292219
 40
0.4214963526450452
 40
0.4797575991773265
 40
0.5442338837685066
 40
0.6159565152091034
 40
0.6958427337994464
 40
0.7850677676584418
 40
0.7850677676584418
 40
0.7850677676584418
 40
0.7850677676584418
 10
100.0003134453843
 20
-12.25507626220013
 30
0.0
 10
99.99435399349739
 20
-12.25494192929963
 30
0.0
 10
99.97841782202044
 20
-12.25458240540806
 30
0.0
 10
99.95233367280775
 20
-12.25399260914244
 30
0.0
 10
99.92227058581443
 20
-12.2533109123286
 30
0.0
 10
99.89272021153363
 20
-12.25263893699883
 30
0.0
 10
99.86319984290355
 20
-12.25196585278911
 30
0.0
 10
99.83251340458094
 20
-12.25126412888627
 30
0.0
 10
99.79912454799569
 20
-12.25049895075992
 30
0.0
 10
99.76253434169258
 20
-12.24965838046708
 30
0.0
 10
99.72244447102333
 20
-12.24873408809947
 30
0.0
 10
99.67848774162121
 20
-12.2477167545955
 30
0.0
 10
99.63022071478111
 20
-12.24659471092596
 30
0.0
 10
99.57714276484933
 20
-12.24535462019639
 30
0.0
 10
99.51861199313725
 20
-12.24397915469322
 30
0.0
 10
99.45381005054072
 20
-12.24244693739189
 30
0.0
 10
99.3818020531088
 20
-12.2407335729664
 30
0.0
 10
99.30154710960403
 20
-12.23881129578228
 30
0.0
 10
99.24519303251543
 20
-12.23745409351983
 30
0.0
 10
99.21546005008464
 20
-12.23673495290012
 30
0.0
 11
100.0003134453843
 21
-12.25507626220013
 31
0.0
 11
99.98243509828467
 21
-12.2546728833002
 31
0.0
 11
99.95250497168468
 21
-12.25399588410022
 31
0.0
 11
99.92206103128433
 21
-12.25330538730014
 31
0.0
 11
99.89224584318458
 21
-12.25262752430018
 31
0.0
 11
99.86385383618449
 21
-12.25198049920021
 31
0.0
 11
99.83349990338433
 21
-12.25128708010021
 31
0.0
 11
99.8001864904843
 21
-12.25052399430018
 31
0.0
 11
99.76368725698444
 21
-12.24968538430016
 31
0.0
 11
99.7237293130845
 21
-12.24876414900012
 31
0.0
 11
99.67991690218447
 21
-12.24775011700018
 31
0.0
 11
99.63181710308459
 21
-12.24663192840018
 31
0.0
 11
99.5789282757844
 21
-12.24539619290016
 31
0.0
 11
99.52068310848449
 21
-12.24402749190017
 31
0.0
 11
99.45622483688453
 21
-12.24250351410018
 31
0.0
 11
99.38452249768467
 21
-12.24079751670018
 31
0.0
 11
99.3046591754844
 21
-12.23888500580017
 31
0.0
 11
99.21546005008464
 21
-12.23673495290012
 31
0.0
  0
SPLINE
  5
55FCA
330
1F
100
AcDbEntity
  8
1
100
AcDbSpline
210
0.0
220
0.0
230
1.0
 70
     8
 71
     3
 72
    22
 73
    18
 74
    16
 42
0.0000000001
 43
0.0000000001
 44
0.000001
 12
-0.3921572058543344
 22
-0.9198982149653955
 32
0.0
 13
-0.528623876631518
 23
-0.8488561698280019
 33
0.0
 40
0.0
 40
0.0
 40
0.0
 40
0.0
 40
0.010305976362537
 40
0.0206147535927305
 40
0.0309265464299851
 40
0.041241105256992
 40
0.0515584470867853
 40
0.0618783234157784
 40
0.0722006225105462
 40
0.0825255085979962
 40
0.092852989075454
 40
0.1031833106961832
 40
0.1135163837619889
 40
0.1238521793700572
 40
0.134190448331392
 40
0.1445308122887018
 40
0.1548734196145533
 40
0.1548734196145533
 40
0.1548734196145533
 40
0.1548734196145533
 10
104.6965143893846
 20
-11.55960268150016
 30
0.0
 10
104.6951672017533
 20
-11.56276283125328
 30
0.0
 10
104.6924398718274
 20
-11.56907015408836
 30
0.0
 10
104.6882511171679
 20
-11.57848982819206
 30
0.0
 10
104.6839645355305
 20
-11.58786854767015
 30
0.0
 10
104.6795804714284
 20
-11.59720524610776
 30
0.0
 10
104.6750999573532
 20
-11.6064990374665
 30
0.0
 10
104.6705229766421
 20
-11.61574858234149
 30
0.0
 10
104.665850119949
 20
-11.62495288250179
 30
0.0
 10
104.6610818289011
 20
-11.6341109647557
 30
0.0
 10
104.6562185195138
 20
-11.64322197566059
 30
0.0
 10
104.6512606297401
 20
-11.65228497765582
 30
0.0
 10
104.6462086862138
 20
-11.6612990664949
 30
0.0
 10
104.6410635245751
 20
-11.6702633282087
 30
0.0
 10
104.6358253751389
 20
-11.67917639689909
 30
0.0
 10
104.6304949055285
 20
-11.68803719876774
 30
0.0
 10
104.6268804198109
 20
-11.69390824378663
 30
0.0
 10
104.6250579700845
 20
-11.6968347058002
 30
0.0
 11
104.6965143893846
 21
-11.55960268150016
 31
0.0
 11
104.6924241319846
 21
-11.5690622836002
 31
0.0
 11
104.6882356940843
 21
-11.57848190070018
 31
0.0
 11
104.6839493920845
 21
-11.58786070340017
 31
0.0
 11
104.6795657569844
 21
-11.59719745310013
 31
0.0
 11
104.6750852384846
 21
-11.60649111820015
 31
0.0
 11
104.6705083547845
 21
-11.61574053440017
 31
0.0
 11
104.6658356163846
 21
-11.62494461690016
 31
0.0
 11
104.6610674251844
 21
-11.63410253060016
 31
0.0
 11
104.6562042513844
 21
-11.64321330050012
 31
0.0
 11
104.6512464595846
 21
-11.65227616550015
 31
0.0
 11
104.6461945956846
 21
-11.66129007320018
 31
0.0
 11
104.6410491750846
 21
-11.67025403640019
 31
0.0
 11
104.6358108216843
 21
-11.6791668955002
 31
0.0
 11
104.6304802632846
 21
-11.68802738670018
 31
0.0
 11
104.6250579700845
 21
-11.6968347058002
 31
0.0
  0
SPLINE
  5
55FCB
330
1F
100
AcDbEntity
  8
1
100
AcDbSpline
210
0.0
220
0.0
230
1.0
 70
     8
 71
     3
 72
    23
 73
    19
 74
    17
 42
0.0000000001
 43
0.0000000001
 44
0.000001
 12
-0.2422901253804503
 22
-0.9702038420574956
 32
0.0
 13
-0.3915625629086832
 23
-0.9201514871630559
 33
0.0
 40
0.0
 40
0.0
 40
0.0
 40
0.0
 40
0.0097666588534999
 40
0.0195346417021375
 40
0.0293037923556152
 40
0.0390743558338641
 40
0.0488462221313498
 40
0.058619317521529
 40
0.0683938304785831
 40
0.0781697694612519
 40
0.0879475174113195
 40
0.0977272048080268
 40
0.1075089590888032
 40
0.1172929349245162
 40
0.1270786982148538
 40
0.1368665641552266
 40
0.1466563722882838
 40
0.1564483300269383
 40
0.1564483300269383
 40
0.1564483300269383
 40
0.1564483300269383
 10
104.7462099349845
 20
-11.41142698450017
 30
0.0
 10
104.7454211466517
 20
-11.4145855344814
 30
0.0
 10
104.7438122310123
 20
-11.42089531024103
 30
0.0
 10
104.741305369609
 20
-11.43033623507881
 30
0.0
 10
104.7387051434566
 20
-11.43975323384876
 30
0.0
 10
104.7360118147341
 20
-11.44914537077261
 30
0.0
 10
104.7332261295446
 20
-11.45851190316986
 30
0.0
 10
104.7303477673719
 20
-11.46785175070928
 30
0.0
 10
104.7273771451484
 20
-11.47716408931302
 30
0.0
 10
104.7243144246508
 20
-11.48644817865258
 30
0.0
 10
104.7211598440619
 20
-11.49570328102075
 30
0.0
 10
104.7179136137448
 20
-11.50492869119577
 30
0.0
 10
104.7145760215037
 20
-11.51412365213582
 30
0.0
 10
104.7111471920377
 20
-11.52328714272349
 30
0.0
 10
104.7076281036575
 20
-11.5324185335474
 30
0.0
 10
104.7040184872045
 20
-11.54151661510485
 30
0.0
 10
104.7003186819559
 20
-11.55058061439601
 30
0.0
 10
104.697792444074
 20
-11.55659932000836
 30
0.0
 10
104.6965143893846
 20
-11.55960268150016
 30
0.0
 11
104.7462099349845
 21
-11.41142698450017
 31
0.0
 11
104.7437968783845
 21
-11.42089089960012
 31
0.0
 11
104.7412902858843
 21
-11.43033184820018
 31
0.0
 11
104.7386904363845
 21
-11.43974875160018
 31
0.0
 11
104.7359975053844
 21
-11.44914091150013
 31
0.0
 11
104.7332117726844
 21
-11.45850727480018
 31
0.0
 11
104.7303335114845
 21
-11.46784691010021
 31
0.0
 11
104.7273629373846
 21
-11.47715908570018
 31
0.0
 11
104.7243003164844
 21
-11.48644289850017
 31
0.0
 11
104.7211458081845
 21
-11.49569780410019
 31
0.0
 11
104.7178996603845
 21
-11.50492302120017
 31
0.0
 11
104.7145621176844
 21
-11.51411776400022
 31
0.0
 11
104.7111334166845
 21
-11.52328127100014
 31
0.0
 11
104.7076140261845
 21
-11.53241224700014
 31
0.0
 11
104.7040041564844
 21
-11.54151010740014
 31
0.0
 11
104.7003041909845
 21
-11.55057381570014
 31
0.0
 11
104.6965143893846
 21
-11.55960268150016
 31
0.0
  0
SPLINE
  5
55FCC
330
1F
100
AcDbEntity
  8
1
100
AcDbSpline
210
0.0
220
0.0
230
1.0
 70
     8
 71
     3
 72
    22
 73
    18
 74
    16
 42
0.0000000001
 43
0.0000000001
 44
0.000001
 12
-0.0924202070271411
 22
-0.9957200938682822
 32
0.0
 13
-0.2410830776333412
 23
-0.9705044820498441
 33
0.0
 40
0.0
 40
0.0
 40
0.0
 40
0.0
 40
0.0098508584371792
 40
0.0197066562732318
 40
0.0295663272909289
 40
0.0394298579702018
 40
0.0492970912289744
 40
0.059167842022875
 40
0.0690423245901177
 40
0.0789201446525809
 40
0.0888012456117369
 40
0.0986844926302199
 40
0.1085690857391849
 40
0.1184548278173522
 40
0.1283414807632657
 40
0.1382295073426493
 40
0.1481187325325329
 40
0.1481187325325329
 40
0.1481187325325329
 40
0.1481187325325329
 10
104.7709661040846
 20
-11.26553355790014
 30
0.0
 10
104.7706626312927
 20
-11.26880312379606
 30
0.0
 10
104.7700225495644
 20
-11.27534088179982
 30
0.0
 10
104.7689634425458
 20
-11.28513941036027
 30
0.0
 10
104.7678052151051
 20
-11.29493098127636
 30
0.0
 10
104.7665480009533
 20
-11.304714175544
 30
0.0
 10
104.7651919053993
 20
-11.3144878835229
 30
0.0
 10
104.7637370284365
 20
-11.32425106684837
 30
0.0
 10
104.7621834836558
 20
-11.33400261012116
 30
0.0
 10
104.7605313821416
 20
-11.34374143990499
 30
0.0
 10
104.7587809192751
 20
-11.35346604022618
 30
0.0
 10
104.7569323373814
 20
-11.3631747650254
 30
0.0
 10
104.7549859171306
 20
-11.37286592732451
 30
0.0
 10
104.7529419035339
 20
-11.382538135912
 30
0.0
 10
104.7508004635763
 20
-11.39219041708435
 30
0.0
 10
104.7485617651978
 20
-11.40182178684043
 30
0.0
 10
104.7470046432658
 20
-11.40822780537658
 30
0.0
 10
104.7462099349845
 20
-11.41142698450017
 30
0.0
 11
104.7709661040846
 21
-11.26553355790014
 31
0.0
 11
104.7700063279846
 21
-11.27533759600021
 31
0.0
 11
104.7689473584844
 21
-11.28513638760017
 31
0.0
 11
104.7677893443845
 21
-11.29492786320014
 31
0.0
 11
104.7665323385845
 21
-11.30471100370022
 31
0.0
 11
104.7651764155846
 21
-11.31448464950017
 31
0.0
 11
104.7637216686846
 21
-11.32424761640021
 31
0.0
 11
104.7621681626844
 21
-11.33399912060014
 31
0.0
 11
104.7605160660844
 21
-11.34373777970018
 31
0.0
 11
104.7587655016843
 21
-11.3534625467002
 31
0.0
 11
104.7569168005846
 21
-11.36317131680022
 31
0.0
 11
104.7549702699846
 21
-11.37286232150012
 31
0.0
 11
104.7529261207844
 21
-11.38253438770022
 31
0.0
 11
104.7507845878845
 21
-11.39218630510021
 31
0.0
 11
104.7485457769846
 21
-11.40181755210017
 31
0.0
 11
104.7462099349845
 21
-11.41142698450017
 31
0.0
  0
SPLINE
  5
55FCD
330
1F
100
AcDbEntity
  8
1
100
AcDbSpline
210
0.0
220
0.0
230
1.0
 70
     8
 71
     3
 72
    60
 73
    56
 74
    54
 42
0.0000000001
 43
0.0000000001
 44
0.000001
 12
0.0617078449968043
 22
-0.9980942550009244
 32
0.0
 13
0.0007198759664897
 23
-0.999999740889263
 33
0.0
 40
0.0
 40
0.0
 40
0.0
 40
0.0
 40
0.0432744837885932
 40
0.0823935686413708
 40
0.117753275128666
 40
0.1497220396492021
 40
0.1786677361256071
 40
0.2049579182662269
 40
0.2289612973591186
 40
0.2510367030538518
 40
0.2714400706075915
 40
0.290227956184454
 40
0.3074326456797626
 40
0.3230888143846662
 40
0.3372401682802951
 40
0.349991265494681
 40
0.3615097087536232
 40
0.3719613084208726
 40
0.3814767611587308
 40
0.3900733407339416
 40
0.3977667556745743
 40
0.4047613026779239
 40
0.4113991159086458
 40
0.4179911796457161
 40
0.4246423719514152
 40
0.4312995505542819
 40
0.4379259624949995
 40
0.4445326626112049
 40
0.4513306213811492
 40
0.4586060647178212
 40
0.4666431659472795
 40
0.4757432275953848
 40
0.4862224114174917
 40
0.4982100138526157
 40
0.5109769144584914
 40
0.5237251080617631
 40
0.5364085899827461
 40
0.5491335174157155
 40
0.5618998155988009
 40
0.5746609883569443
 40
0.587316263397301
 40
0.600032276931194
 40
0.6133728508368038
 40
0.6279311261331077
 40
0.6442952238062879
 40
0.663049061736249
 40
0.6845048963668328
 40
0.7072608473498066
 40
0.7296861738991871
 40
0.7517301393963223
 40
0.7738938224329284
 40
0.7970569753997632
 40
0.8221667547043242
 40
0.8501715043166257
 40
0.8820608283995325
 40
0.8820608283995325
 40
0.8820608283995325
 40
0.8820608283995325
 10
104.7536897804846
 20
-10.21274952950017
 30
0.0
 10
104.7545799055306
 20
-10.22714686738601
 30
0.0
 10
104.7562613950799
 20
-10.25455986954677
 30
0.0
 10
104.7586489903064
 20
-10.2937382819801
 30
0.0
 10
104.760755847183
 20
-10.32915821225137
 30
0.0
 10
104.7626041034816
 20
-10.36119635362999
 30
0.0
 10
104.7642172303401
 20
-10.39021979727266
 30
0.0
 10
104.7656230980491
 20
-10.41659546602488
 30
0.0
 10
104.7668499336837
 20
-10.44068726107571
 30
0.0
 10
104.7679234044541
 20
-10.46282198550125
 30
0.0
 10
104.7688629481911
 20
-10.48322260157803
 30
0.0
 10
104.7696823454175
 20
-10.50200340070677
 30
0.0
 10
104.7703920858366
 20
-10.51920502841929
 30
0.0
 10
104.7710024736309
 20
-10.5348638866327
 30
0.0
 10
104.7715244310385
 20
-10.54904049807754
 30
0.0
 10
104.7719697343131
 20
-10.56183972697875
 30
0.0
 10
104.7723503358263
 20
-10.57340718699973
 30
0.0
 10
104.7726770462306
 20
-10.58389727081598
 30
0.0
 10
104.7729578725623
 20
-10.59341434306378
 30
0.0
 10
104.7731985489647
 20
-10.60201279415764
 30
0.0
 10
104.7734049383411
 20
-10.60977156568432
 30
0.0
 10
104.773584920772
 20
-10.6168778803173
 30
0.0
 10
104.7737475317103
 20
-10.62361739506647
 30
0.0
 10
104.7738995747602
 20
-10.63024267531676
 30
0.0
 10
104.7740438377377
 20
-10.6368745862687
 30
0.0
 10
104.7741802816986
 20
-10.64351811454193
 30
0.0
 10
104.7743083513905
 20
-10.65014697602979
 30
0.0
 10
104.7744291795347
 20
-10.6568229079491
 30
0.0
 10
104.7745453395573
 20
-10.66371529842257
 30
0.0
 10
104.7746598167193
 20
-10.6710845793869
 30
0.0
 10
104.7747744165526
 20
-10.67922131097074
 30
0.0
 10
104.7748889258239
 20
-10.68842605236762
 30
0.0
 10
104.7749997268056
 20
-10.69894775903341
 30
0.0
 10
104.7750971053214
 20
-10.71069192919782
 30
0.0
 10
104.7751690571119
 20
-10.72319263553263
 30
0.0
 10
104.7752078741117
 20
-10.73592545232378
 30
0.0
 10
104.7752111894165
 20
-10.74864433197618
 30
0.0
 10
104.7751907389531
 20
-10.76136922165864
 30
0.0
 10
104.7751582469254
 20
-10.77411997978564
 30
0.0
 10
104.7751267754247
 20
-10.7868475235719
 30
0.0
 10
104.7751064995759
 20
-10.79955832923178
 30
0.0
 10
104.7750926292293
 20
-10.81246227614011
 30
0.0
 10
104.7750822683754
 20
-10.82600055983414
 30
0.0
 10
104.7750708526447
 20
-10.84075487104977
 30
0.0
 10
104.7750553346477
 20
-10.85731360079418
 30
0.0
 10
104.7750373224287
 20
-10.87617151559965
 30
0.0
 10
104.7750205699107
 20
-10.89716005025167
 30
0.0
 10
104.7750075506037
 20
-10.9193724172828
 30
0.0
 10
104.7749974909302
 20
-10.94178082941241
 30
0.0
 10
104.7749901814869
 20
-10.96399181997043
 30
0.0
 10
104.7749860968747
 20
-10.98644875352013
 30
0.0
 10
104.7749856922928
 20
-11.00992762541645
 30
0.0
 10
104.7749899045425
 20
-11.0353535191235
 30
0.0
 10
104.7749995648807
 20
-11.06368813547723
 30
0.0
 10
104.7750128708649
 20
-11.08365282256014
 30
0.0
 10
104.7750205229843
 20
-11.09428259450015
 30
0.0
 11
104.7536897804846
 21
-10.21274952950017
 31
0.0
 11
104.7563442030843
 21
-10.25594255290019
 31
0.0
 11
104.7587162749844
 21
-10.2949896538002
 31
0.0
 11
104.7608129197845
 21
-10.33028714670018
 31
0.0
 11
104.7626514005844
 21
-10.36220300450014
 31
0.0
 11
104.7642558827845
 21
-10.39110419930017
 31
0.0
 11
104.7656538195845
 21
-10.41735719000013
 31
0.0
 11
104.7668735421846
 21
-10.44132956050015
 31
0.0
 11
104.7679420931845
 21
-10.46337909090022
 31
0.0
 11
104.7688801607844
 21
-10.48376088390017
 31
0.0
 11
104.7696986229846
 21
-10.50253093470013
 31
0.0
 11
104.7704075362846
 21
-10.51972101380016
 31
0.0
 11
104.7710170973844
 21
-10.53536531260016
 31
0.0
 11
104.7715375846844
 21
-10.54950709240017
 31
0.0
 11
104.7719808103845
 21
-10.56225048490017
 31
0.0
 11
104.7723594964843
 21
-10.57376270230014
 31
0.0
 11
104.7726847787846
 21
-10.58420923960017
 31
0.0
 11
104.7729653816843
 21
-10.59372055470015
 31
0.0
 11
104.7732058727845
 21
-10.60231377030021
 31
0.0
 11
104.7734104236845
 21
-10.61000446600013
 31
0.0
 11
104.7735874981845
 21
-10.61699677170014
 31
0.0
 11
104.7737475915844
 21
-10.62363265450017
 31
0.0
 11
104.7738988151843
 21
-10.63022298390018
 31
0.0
 11
104.7740434488844
 21
-10.63687260390014
 31
0.0
 11
104.7741801385843
 21
-10.6435283795002
 31
0.0
 11
104.7743081284845
 21
-10.65015355570017
 31
0.0
 11
104.7744276742844
 21
-10.65675917460015
 31
0.0
 11
104.7745422142845
 21
-10.6635561688002
 31
0.0
 11
104.7746552027845
 21
-10.67083073520012
 31
0.0
 11
104.7747683615846
 21
-10.67886704030019
 31
0.0
 11
104.7748815156844
 21
-10.68796639900017
 31
0.0
 11
104.7749917845844
 21
-10.69844500330015
 31
0.0
 11
104.7750910448846
 21
-10.71043219550017
 31
0.0
 11
104.7751643283845
 21
-10.72319888650014
 31
0.0
 11
104.7752030012846
 21
-10.73594702210022
 31
0.0
 11
104.7752082438844
 21
-10.74863050350012
 31
0.0
 11
104.7751897683845
 21
-10.76135541800016
 31
0.0
 11
104.7751594032845
 21
-10.77412168050017
 31
0.0
 11
104.7751295622845
 21
-10.78688281880016
 31
0.0
 11
104.7751086265846
 21
-10.79953807700013
 31
0.0
 11
104.7750944933843
 21
-10.81225408320017
 31
0.0
 11
104.7750835610845
 21
-10.82559465320025
 31
0.0
 11
104.7750719449843
 21
-10.84015292450016
 31
0.0
 11
104.7750570353844
 21
-10.85651701610021
 31
0.0
 11
104.7750396403844
 21
-10.87527084680022
 31
0.0
 11
104.7750226517844
 21
-10.89672667570016
 31
0.0
 11
104.7750090101842
 21
-10.91948262370016
 31
0.0
 11
104.7749988855846
 21
-10.94190794910025
 31
0.0
 11
104.7749917339845
 21
-10.96395191460016
 31
0.0
 11
104.7749877522844
 21
-10.98611559850013
 31
0.0
 11
104.7749873810846
 21
-11.00927875280018
 31
0.0
 11
104.7749914381845
 21
-11.03438853330016
 31
0.0
 11
104.7750015442846
 21
-11.06239328290013
 31
0.0
 11
104.7750205229843
 21
-11.09428259450015
 31
0.0
  0
SPLINE
  5
55FCE
330
1F
100
AcDbEntity
  8
1
100
AcDbSpline
210
0.0
220
0.0
230
1.0
 70
     8
 71
     3
 72
    30
 73
    26
 74
    24
 42
0.0000000001
 43
0.0000000001
 44
0.000001
 12
0.0501108550457803
 22
-0.9987436619105929
 32
0.0
 13
0.0685508443136677
 23
-0.9976476240356028
 33
0.0
 40
0.0
 40
0.0
 40
0.0
 40
0.0
 40
0.1293520783929329
 40
0.2603192429101311
 40
0.3930945670088597
 40
0.5277045224368225
 40
0.6595685337597848
 40
0.7806610712026174
 40
0.8876429477450827
 40
0.9818894022042851
 40
1.06523483268264
 40
1.139357155344317
 40
1.20578968228768
 40
1.265838053149865
 40
1.320505457373278
 40
1.369133043826355
 40
1.413180334556956
 40
1.454877083267379
 40
1.49578016481331
 40
1.535065932231161
 40
1.571692658062114
 40
1.606311803942124
 40
1.640121211669995
 40
1.673713296021006
 40
1.707260265385091
 40
1.707260265385091
 40
1.707260265385091
 40
1.707260265385091
 10
104.6610279546846
 20
-8.508022121100168
 30
0.0
 10
104.6631886024347
 20
-8.551085310583459
 30
0.0
 10
104.6675586444253
 20
-8.637748284004914
 30
0.0
 10
104.6742220308556
 20
-8.768610276176389
 30
0.0
 10
104.6810646670045
 20
-8.901218011263324
 30
0.0
 10
104.6880329378945
 20
-9.034118574751914
 30
0.0
 10
104.694927464443
 20
-9.163123319156341
 30
0.0
 10
104.7013821466483
 20
-9.282929041909653
 30
0.0
 10
104.7071539492876
 20
-9.39021418719551
 30
0.0
 10
104.7122094891258
 20
-9.484937296127895
 30
0.0
 10
104.716626683374
 20
-9.568725688438462
 30
0.0
 10
104.7204958586634
 20
-9.643258757141268
 30
0.0
 10
104.7239579526035
 20
-9.710036811326688
 30
0.0
 10
104.7271129416817
 20
-9.770337103172892
 30
0.0
 10
104.7300050972115
 20
-9.824708032948706
 30
0.0
 10
104.7326701300236
 20
-9.873749780887663
 30
0.0
 10
104.7351595904164
 20
-9.918471101565529
 30
0.0
 10
104.7375679103422
 20
-9.960618074203523
 30
0.0
 10
104.7399522350107
 20
-10.00117660445744
 30
0.0
 10
104.7423085111809
 20
-10.04004379339801
 30
0.0
 10
104.7446071104328
 20
-10.0768159273573
 30
0.0
 10
104.7468671453007
 20
-10.11176137212237
 30
0.0
 10
104.7491223352408
 20
-10.14569340611103
 30
0.0
 10
104.7513992812221
 20
-10.17926577217764
 30
0.0
 10
104.7529232227932
 20
-10.20159351140694
 30
0.0
 10
104.7536897804846
 20
-10.21274952950017
 30
0.0
 11
104.6610279546846
 21
-8.508022121100168
 31
0.0
 11
104.6675430617845
 21
-8.637210009200146
 31
0.0
 11
104.6742070919845
 21
-8.768007520200171
 31
0.0
 11
104.6810523542845
 21
-8.900606272700144
 31
0.0
 11
104.6881046987844
 21
-9.035031362100141
 31
0.0
 11
104.6951299410846
 21
-9.16670810100021
 31
0.0
 11
104.7016345332845
 21
-9.287625812500152
 31
0.0
 11
104.7073749411845
 21
-9.394453569300196
 31
0.0
 11
104.7123933010846
 21
-9.488566321900123
 31
0.0
 11
104.7167777255845
 21
-9.57179634970015
 31
0.0
 11
104.7206288676846
 21
-9.645818557900213
 31
0.0
 11
104.7240746507843
 21
-9.712161659100218
 31
0.0
 11
104.7272167536846
 21
-9.772127765200195
 31
0.0
 11
104.7301240697845
 21
-9.826717804900169
 31
0.0
 11
104.7327651826845
 21
-9.875273613200135
 31
0.0
 11
104.7352152073845
 21
-9.919252710700163
 31
0.0
 11
104.7375954926845
 21
-9.9608814611002
 31
0.0
 11
104.7399975743844
 21
-10.00171394450018
 31
0.0
 11
104.7423758481843
 21
-10.04092764720013
 31
0.0
 11
104.7446633454844
 21
-10.07748279020012
 31
0.0
 11
104.7468939410844
 21
-10.11203006080012
 31
0.0
 11
104.7491337768845
 21
-10.14576521770021
 31
0.0
 11
104.7514016991845
 21
-10.1792806567002
 31
0.0
 11
104.7536897804846
 21
-10.21274952950017
 31
0.0
  0
SPLINE
  5
55FCF
330
1F
100
AcDbEntity
  8
1
100
AcDbSpline
210
0.0
220
0.0
230
1.0
 70
     8
 71
     3
 72
    20
 73
    16
 74
    14
 42
0.0000000001
 43
0.0000000001
 44
0.000001
 12
0.0504646768136967
 22
-0.9987258464634273
 32
0.0
 13
0.0566339771029237
 23
-0.9983950083196058
 33
0.0
 40
0.0
 40
0.0
 40
0.0
 40
0.0
 40
0.1299695316086983
 40
0.2634842210377934
 40
0.3944523656994926
 40
0.5221927303531916
 40
0.6478471449831414
 40
0.7733154705046027
 40
0.8993462909828181
 40
1.025951314724574
 40
1.153060762889024
 40
1.27968726531154
 40
1.405383091946248
 40
1.530137234819413
 40
1.653965431159819
 40
1.653965431159819
 40
1.653965431159819
 40
1.653965431159819
 10
104.5724320465845
 20
-6.856434001700165
 30
0.0
 10
104.5746183367205
 20
-6.899701978523609
 30
0.0
 10
104.5790724047819
 20
-6.987417042499998
 30
0.0
 10
104.5857989718465
 20
-7.118728994726438
 30
0.0
 10
104.592550953922
 20
-7.249295600386147
 30
0.0
 10
104.5992287801551
 20
-7.377242433152673
 30
0.0
 10
104.6058715999969
 20
-7.503355310179614
 30
0.0
 10
104.6125452658918
 20
-7.628895909740236
 30
0.0
 10
104.6192979156827
 20
-7.754749612525046
 30
0.0
 10
104.626143646039
 20
-7.881146132948288
 30
0.0
 10
104.6330656280427
 20
-8.007737358559381
 30
0.0
 10
104.6400367126568
 20
-8.13402236306419
 30
0.0
 10
104.6470242090322
 20
-8.259520149775994
 30
0.0
 10
104.654015937323
 20
-8.384083473347459
 30
0.0
 10
104.6586903269392
 20
-8.466812303395016
 30
0.0
 10
104.6610279546846
 20
-8.508022121100168
 30
0.0
 11
104.5724320465845
 21
-6.856434001700165
 31
0.0
 11
104.5790209929844
 21
-6.986236411500215
 31
0.0
 11
104.5858522989845
 21
-7.119576223700164
 31
0.0
 11
104.5926160695846
 21
-7.250369596500206
 31
0.0
 11
104.5992743134845
 21
-7.377936318700164
 31
0.0
 11
104.6058840033845
 21
-7.503416771300123
 31
0.0
 11
104.6125446049843
 21
-7.628708180300179
 31
0.0
 11
104.6192972205845
 21
-7.754557971600149
 31
0.0
 11
104.6261444362844
 21
-7.880977700100174
 31
0.0
 11
104.6330844360843
 21
-8.007897550000166
 31
0.0
 11
104.6400628712845
 21
-8.134331614400196
 31
0.0
 11
104.6470501139845
 21
-8.259833085900197
 31
0.0
 11
104.6540399760845
 21
-8.384391257200206
 31
0.0
 11
104.6610279546846
 21
-8.508022121100168
 31
0.0
  0
SPLINE
  5
55FD0
330
1F
100
AcDbEntity
  8
1
100
AcDbSpline
210
0.0
220
0.0
230
1.0
 70
     8
 71
     3
 72
    16
 73
    12
 74
    10
 42
0.0000000001
 43
0.0000000001
 44
0.000001
 12
0.0523642815861715
 22
-0.998628049883421
 32
0.0
 13
0.0569679970418007
 23
-0.9983760049766047
 33
0.0
 40
0.0
 40
0.0
 40
0.0
 40
0.0
 40
0.0854285124864044
 40
0.1685700608951334
 40
0.2492343870075947
 40
0.3282451804659707
 40
0.4084813185551556
 40
0.4933911897962022
 40
0.585110605851426
 40
0.6853132240076081
 40
0.7972341521209701
 40
0.7972341521209701
 40
0.7972341521209701
 40
0.7972341521209701
 10
104.5287462285844
 20
-6.060398405900173
 30
0.0
 10
104.5302373628121
 20
-6.088835508843089
 30
0.0
 10
104.5331957839688
 20
-6.144947597169561
 30
0.0
 10
104.5376091183764
 20
-6.22790842237066
 30
0.0
 10
104.5419512329763
 20
-6.308730761233874
 30
0.0
 10
104.546282566979
 20
-6.388583801698985
 30
0.0
 10
104.5507340368856
 20
-6.469847576377361
 30
0.0
 10
104.5554615297454
 20
-6.555338777764859
 30
0.0
 10
104.5606032433352
 20
-6.647472723710677
 30
0.0
 10
104.5662987884745
 20
-6.748593443054886
 30
0.0
 10
104.570306742884
 20
-6.819187612005805
 30
0.0
 10
104.5724320465845
 20
-6.856434001700165
 30
0.0
 11
104.5287462285844
 21
-6.060398405900173
 31
0.0
 11
104.5332417393845
 21
-6.14570855650021
 31
0.0
 11
104.5376593581843
 21
-6.228732659500167
 31
0.0
 11
104.5419867971843
 21
-6.309280824000154
 31
0.0
 11
104.5462664285844
 21
-6.388175629200134
 31
0.0
 11
104.5506545529845
 21
-6.468291684400185
 31
0.0
 11
104.5553420974845
 21
-6.553072067000186
 31
0.0
 11
104.5604522053843
 21
-6.644649019600194
 31
0.0
 11
104.5660852021844
 21
-6.744693182500157
 31
0.0
 11
104.5724320465845
 21
-6.856434001700165
 31
0.0
  0
ARC
  5
55FD1
330
1F
100
AcDbEntity
  8
1
100
AcDbCircle
 10
103.5290611246844
 20
-10.42866700000019
 30
0.0
 40
1.8495305
100
AcDbArc
 50
285.0200780000069
 51
287.113774
  0
ARC
  5
55FD2
330
1F
100
AcDbEntity
  8
1
100
AcDbCircle
 10
103.4632981246843
 20
-10.46526500000016
 30
0.0
 40
1.835383
100
AcDbArc
 50
289.4126370000055
 51
291.5276320000018
  0
ARC
  5
55FD3
330
1F
100
AcDbEntity
  8
1
100
AcDbCircle
 10
103.4177141246844
 20
-10.54077700000016
 30
0.0
 40
1.783243999999999
100
AcDbArc
 50
293.780952999992
 51
295.9700880000096
  0
ARC
  5
55FD4
330
1F
100
AcDbEntity
  8
1
100
AcDbCircle
 10
103.7892096246844
 20
-10.91833650000018
 30
0.0
 40
1.321662
100
AcDbArc
 50
273.4000250000002
 51
273.6964119999963
  0
ARC
  5
55FD5
330
1F
100
AcDbEntity
  8
1
100
AcDbCircle
 10
103.7621406246846
 20
-11.15926200000018
 30
0.0
 40
1.0166665
100
AcDbArc
 50
325.2284509999977
 51
328.0782749999969
  0
ARC
  5
55FD6
330
1F
100
AcDbEntity
  8
1
100
AcDbCircle
 10
103.8034206246845
 20
-11.17720800000018
 30
0.0
 40
0.9715684999999998
100
AcDbArc
 50
354.7840119999987
 51
355.9414410000014
  0
ARC
  5
55FD7
330
1F
100
AcDbEntity
  8
1
100
AcDbCircle
 10
104.8749169602304
 20
-11.93543405837079
 30
0.0
 40
0.3400723319673814
100
AcDbArc
 50
144.7313882016998
 51
152.7998538176565
  0
ARC
  5
55FD8
330
1F
100
AcDbEntity
  8
1
100
AcDbCircle
 10
92.98498712468449
 20
-14.76500000000015
 30
0.0
 40
3.0
100
AcDbArc
 50
63.25191099999798
 51
90.0
  0
ARC
  5
55FD9
330
1F
100
AcDbEntity
  8
1
100
AcDbCircle
 10
92.98498712468449
 20
14.76499999999981
 30
0.0
 40
3.0
100
AcDbArc
 50
270.0
 51
296.748089000002
  0
LINE
  5
55FDA
330
1F
100
AcDbEntity
  8
1
100
AcDbLine
 10
86.28498712468445
 20
-11.76500000000015
 30
0.0
 11
92.9301586246845
 21
-11.76500000000015
 31
0.0
  0
LINE
  5
55FDB
330
1F
100
AcDbEntity
  8
1
100
AcDbLine
 10
92.9301586246845
 20
-11.76500000000015
 30
0.0
 11
92.98498712468449
 21
-11.76500000000015
 31
0.0
  0
LINE
  5
55FDC
330
1F
100
AcDbEntity
  8
1
100
AcDbLine
 10
92.98498712468449
 20
11.76499999999981
 30
0.0
 11
86.28498712468468
 21
11.76499999999981
 31
0.0
  0
LINE
  5
55FDD
330
1F
100
AcDbEntity
  8
1
100
AcDbLine
 10
87.40912162468452
 20
-11.76500000000015
 30
0.0
 11
87.40912162468452
 21
-10.92547599999999
 31
0.0
  0
LINE
  5
55FDE
330
1F
100
AcDbEntity
  8
1
100
AcDbLine
 10
87.40912162468452
 20
9.949307293192788
 30
0.0
 11
87.40912162468452
 21
11.76499999999981
 31
0.0
  0
LINE
  5
55FDF
330
1F
100
AcDbEntity
  8
1
100
AcDbLine
 10
86.28498712468445
 20
-11.76500000000015
 30
0.0
 11
86.28498712468456
 21
-10.92547599999999
 31
0.0
  0
LINE
  5
55FE0
330
1F
100
AcDbEntity
  8
1
100
AcDbLine
 10
86.28498712468468
 20
10.24737293408989
 30
0.0
 11
86.28498712468468
 21
11.76499999999981
 31
0.0
  0
LINE
  5
55FE1
330
1F
100
AcDbEntity
  8
1
100
AcDbLine
 10
104.2201691246844
 20
0.3698299999998085
 30
0.0
 11
104.2502211246844
 21
0.9227554999998233
 31
0.0
  0
LINE
  5
55FE2
330
1F
100
AcDbEntity
  8
1
100
AcDbLine
 10
104.200284624389
 20
0.3319590366421607
 30
0.0
 11
104.2201691246844
 21
0.3698299999998085
 31
0.0
  0
LINE
  5
55FE3
330
1F
100
AcDbEntity
  8
1
100
AcDbLine
 10
104.2502211246844
 20
0.9227554999998233
 30
0.0
 11
104.3671106246845
 21
3.080857499999808
 31
0.0
  0
LINE
  5
55FE4
330
1F
100
AcDbEntity
  8
1
100
AcDbLine
 10
104.3671106246845
 20
3.080857499999808
 30
0.0
 11
104.4788091246844
 21
5.144190499999808
 31
0.0
  0
LINE
  5
55FE5
330
1F
100
AcDbEntity
  8
1
100
AcDbLine
 10
104.7750206246844
 20
11.09428249999979
 30
0.0
 11
104.7749324169479
 21
11.24025124401402
 31
0.0
  0
ARC
  5
55FE6
102
{ACAD_REACTORS
330
55FF9
102
}
330
1F
100
AcDbEntity
  8
1
100
AcDbCircle
 10
103.7749325995323
 20
11.23964695217768
 30
0.0
 40
1.0
100
AcDbArc
 50
0.0346233739236728
 51
88.59245861885588
  0
LINE
  5
55FE7
330
1F
100
AcDbEntity
  8
1
100
AcDbLine
 10
96.12865712468442
 20
12.14875649999982
 30
0.0
 11
95.0994706246845
 21
12.11390049999983
 31
0.0
  0
LINE
  5
55FE8
330
1F
100
AcDbEntity
  8
1
100
AcDbLine
 10
95.0994706246845
 20
12.11390049999983
 30
0.0
 11
94.33519312468456
 21
12.0860179999998
 31
0.0
  0
LINE
  5
55FE9
330
1F
100
AcDbEntity
  8
1
100
AcDbLine
 10
104.2001341246844
 20
0.0959244999998532
 30
0.0
 11
104.2001341246844
 21
-0.0959245000001943
 31
0.0
  0
LINE
  5
55FEA
330
1F
100
AcDbEntity
  8
1
100
AcDbLine
 10
104.2001341246844
 20
-0.0959245000001943
 30
0.0
 11
104.2002867720209
 21
-0.3319626374702693
 31
0.0
  0
LINE
  5
55FEB
330
1F
100
AcDbEntity
  8
1
100
AcDbLine
 10
104.2002846246844
 20
0.3319594999998117
 30
0.0
 11
104.2001341246844
 21
0.0959244999998532
 31
0.0
  0
LINE
  5
55FEC
330
1F
100
AcDbEntity
  8
1
100
AcDbLine
 10
103.6550066246843
 20
-12.2428955000002
 30
0.0
 11
103.8675931246846
 21
-12.2376720000002
 31
0.0
  0
LINE
  5
55FED
330
1F
100
AcDbEntity
  8
1
100
AcDbLine
 10
103.6550066246843
 20
12.2428954999998
 30
0.0
 11
103.7994963601138
 21
12.23934521748885
 31
0.0
  0
LINE
  5
55FEE
330
1F
100
AcDbEntity
  8
1
100
AcDbLine
 10
104.2201691246844
 20
-0.3698300000002064
 30
0.0
 11
104.2502211246844
 21
-0.9227555000001643
 31
0.0
  0
LINE
  5
55FEF
330
1F
100
AcDbEntity
  8
1
100
AcDbLine
 10
104.2002851246845
 20
-0.3319595000001527
 30
0.0
 11
104.2201691246844
 21
-0.3698300000002064
 31
0.0
  0
LINE
  5
55FF0
330
1F
100
AcDbEntity
  8
1
100
AcDbLine
 10
104.2502211246844
 20
-0.9227555000001643
 30
0.0
 11
104.3671106246845
 21
-3.080857500000149
 31
0.0
  0
LINE
  5
55FF1
330
1F
100
AcDbEntity
  8
1
100
AcDbLine
 10
104.3671106246845
 20
-3.080857500000149
 30
0.0
 11
104.4788091246844
 21
-5.144190500000206
 31
0.0
  0
LINE
  5
55FF2
330
1F
100
AcDbEntity
  8
1
100
AcDbLine
 10
95.0994706246845
 20
-12.11390050000017
 30
0.0
 11
94.33519312468456
 21
-12.08601800000014
 31
0.0
  0
LINE
  5
55FF3
330
1F
100
AcDbEntity
  8
1
100
AcDbLine
 10
96.12865712468442
 20
-12.14875650000016
 30
0.0
 11
95.0994706246845
 21
-12.11390050000017
 31
0.0
  0
LINE
  5
55FF4
330
1F
100
AcDbEntity
  8
1
100
AcDbLine
 10
104.7750206246844
 20
-11.09428250000013
 30
0.0
 11
104.7750001246843
 21
-11.1282065000002
 31
0.0
  0
LINE
  5
55FF5
330
1F
100
AcDbEntity
  8
1
100
AcDbLine
 10
104.7750001246843
 20
-11.1282065000002
 30
0.0
 11
104.7749836246846
 21
-11.20030200000013
 31
0.0
  0
LINE
  5
55FF6
330
1F
100
AcDbEntity
  8
1
100
AcDbLine
 10
104.7749836246846
 20
-11.20030200000013
 30
0.0
 11
104.7725526246845
 21
-11.24597150000016
 31
0.0
  0
DIMENSION
  5
55FF7
102
{ACAD_XDICTIONARY
360
55FF8
102
}
102
{ACAD_REACTORS
330
55FF9
102
}
330
1F
100
AcDbEntity
  8
2
100
AcDbDimension
  2
*D116
 10
103.7749325995324
 20
11.23964695217768
 30
0.0
 11
122.552709957079
 21
28.4901020914033
 31
0.0
 70
    36
 71
     5
 42
1.000000000000596
  3
\M+18352\M+18373\M+1815B - ISO-25
100
AcDbRadialDimension
 15
104.6094588544092
 25
11.79061512723167
 35
0.0
 40
0.0
1001
ACAD
1000
DSTYLE
1002
{
1070
     4
1000
"
1070
    40
1040
1.0
1070
   143
1040
0.03937
1070
   170
1070
     1
1070
   171
1070
     3
1070
   271
1070
     8
1070
   285
1070
     4
1002
}
  0
LINE
  5
55FFA
330
1F
100
AcDbEntity
  8
cut
100
AcDbLine
 10
94.77499999402153
 20
12.15934943349981
 30
0.0
 11
101.2749999940215
 21
12.49999999889979
 31
0.0
1001
ACAD
1000
RTMaterial
1005
0
  0
LINE
  5
55FFB
330
1F
100
AcDbEntity
  8
cut
100
AcDbLine
 10
86.27499999402152
 20
11.76499999889978
 30
0.0
 11
93.28819633142144
 21
11.76499999889978
 31
0.0
1001
ACAD
1000
RTMaterial
1005
0
  0
LINE
  5
55FFC
330
1F
100
AcDbEntity
  8
cut
100
AcDbLine
 10
101.2749999940215
 20
12.49999999889979
 30
0.0
 11
103.7749999940215
 21
12.49999999889979
 31
0.0
1001
ACAD
1000
RTMaterial
1005
0
  0
LINE
  5
55FFD
330
1F
100
AcDbEntity
  8
cut
100
AcDbLine
 10
104.7749999940213
 20
10.99999999889798
 30
0.0
 11
104.7749999940215
 21
11.49999999889979
 31
0.0
1001
ACAD
1000
RTMaterial
1005
0
  0
LINE
  5
55FFE
330
1F
100
AcDbEntity
  8
cut
100
AcDbLine
 10
86.27499999402152
 20
-11.76500000110019
 30
0.0
 11
86.27499999402152
 21
11.76499999889972
 31
0.0
1001
ACAD
1000
RTMaterial
1005
0
  0
LINE
  5
55FFF
330
1F
100
AcDbEntity
  8
cut
100
AcDbLine
 10
104.1985144219216
 20
-0.0000000011002044
 30
0.0
 11
104.7749999940215
 21
10.99999999889979
 31
0.0
1001
ACAD
1000
RTMaterial
1005
0
  0
ARC
  5
56000
330
1F
100
AcDbEntity
  8
cut
100
AcDbCircle
 10
93.28819633142144
 20
14.76499999889978
 30
0.0
 40
3.0
100
AcDbArc
 50
270.0
 51
299.709403338995
1001
ACAD
1000
RTMaterial
1005
0
  0
ARC
  5
56001
330
1F
100
AcDbEntity
  8
cut
100
AcDbCircle
 10
103.7749999940215
 20
11.49999999889979
 30
0.0
 40
1.0
100
AcDbArc
 50
0.0
 51
90.0
1001
ACAD
1000
RTMaterial
1005
0
  0
LINE
  5
56002
330
1F
100
AcDbEntity
  8
cut
100
AcDbLine
 10
94.77499999402153
 20
-12.15934943570022
 30
0.0
 11
101.2749999940215
 21
-12.5000000011002
 31
0.0
1001
ACAD
1000
RTMaterial
1005
0
  0
LINE
  5
56003
330
1F
100
AcDbEntity
  8
cut
100
AcDbLine
 10
86.27499999402152
 20
-11.76500000110019
 30
0.0
 11
93.28819633142144
 21
-11.76500000110019
 31
0.0
1001
ACAD
1000
RTMaterial
1005
0
  0
LINE
  5
56004
330
1F
100
AcDbEntity
  8
cut
100
AcDbLine
 10
101.2749999940215
 20
-12.5000000011002
 30
0.0
 11
103.7749999940215
 21
-12.5000000011002
 31
0.0
1001
ACAD
1000
RTMaterial
1005
0
  0
LINE
  5
56005
330
1F
100
AcDbEntity
  8
cut
100
AcDbLine
 10
104.7749999940213
 20
-11.00000000109838
 30
0.0
 11
104.7749999940215
 21
-11.5000000011002
 31
0.0
1001
ACAD
1000
RTMaterial
1005
0
  0
LINE
  5
56006
330
1F
100
AcDbEntity
  8
cut
100
AcDbLine
 10
104.1985144219216
 20
-0.0000000011002044
 30
0.0
 11
104.7749999940215
 21
-11.0000000011002
 31
0.0
1001
ACAD
1000
RTMaterial
1005
0
  0
ARC
  5
56007
330
1F
100
AcDbEntity
  8
cut
100
AcDbCircle
 10
93.28819633142144
 20
-14.76500000110016
 30
0.0
 40
3.0
100
AcDbArc
 50
60.29059666100495
 51
90.0
1001
ACAD
1000
RTMaterial
1005
0
  0
ARC
  5
56008
330
1F
100
AcDbEntity
  8
cut
100
AcDbCircle
 10
103.7749999940215
 20
-11.5000000011002
 30
0.0
 40
1.0
100
AcDbArc
 50
270.0
 51
0.0
1001
ACAD
1000
RTMaterial
1005
0
  0
DIMENSION
  5
560C4
102
{ACAD_XDICTIONARY
360
560C5
102
}
102
{ACAD_REACTORS
330
560C6
102
}
330
1F
100
AcDbEntity
  8
2
100
AcDbDimension
  2
*D119
 10
42.07197874310099
 20
12.24999999999997
 30
0.0
 11
42.07197874310099
 21
-37.88333333333338
 31
0.0
 70
   160
  1
%%c<>
 71
     5
 42
24.5
  3
\M+18352\M+18373\M+1815B - ISO-25
100
AcDbAlignedDimension
 13
37.61251800000002
 23
-12.25000000000003
 33
0.0
 14
37.61250799701088
 24
12.24999999999997
 34
0.0
 50
270.0
100
AcDbRotatedDimension
1001
ACAD
1000
DSTYLE
1002
{
1070
     4
1000
%%C[]"
1070
    40
1040
1.0
1070
   143
1040
0.03937
1070
   170
1070
     1
1070
   171
1070
     3
1070
   271
1070
     8
1070
   285
1070
     4
1002
}
  0
DIMENSION
  5
560C7
330
1F
100
AcDbEntity
  8
sk2
100
AcDbDimension
  2
*D113
 10
104.7750000000001
 20
58.53616018006437
 30
0.0
 11
4.088610673321454
 21
58.53616018006437
 31
0.0
 70
   160
 71
     5
 41
0.892857
 42
203.2000000000001
  3
\M+18352\M+18373\M+1815B - ISO-25
100
AcDbAlignedDimension
 13
-98.42500000000001
 23
11.5
 33
0.0
 14
104.7750000000001
 24
9.503515091631811
 34
0.0
 50
180.0
100
AcDbRotatedDimension
1001
ACAD
1000
DSTYLE
1002
{
1070
     4
1000
"
1070
    40
1040
1.0
1070
   143
1040
0.03937
1070
   170
1070
     1
1070
   171
1070
     3
1070
   271
1070
     8
1070
   285
1070
     4
1002
}
  0
SPLINE
  5
560C8
330
1F
100
AcDbEntity
  8
1
100
AcDbSpline
210
0.0
220
0.0
230
1.0
 70
     8
 71
     3
 72
    10
 73
     6
 74
     4
 42
0.0000000001
 43
0.0000000001
 44
0.000001
 12
0.9939981913532239
 22
-0.1093965062811404
 32
0.0
 13
0.9846601879733476
 23
-0.1744829912062825
 33
0.0
 40
0.0
 40
0.0
 40
0.0
 40
0.0
 40
0.2729697609933898
 40
0.5696278389164875
 40
0.8867687606914943
 40
0.8867687606914943
 40
0.8867687606914943
 40
0.8867687606914943
 10
81.3790621572266
 20
11.29785149999998
 30
0.0
 10
81.46950597346711
 20
11.28789752060896
 30
0.0
 10
81.65801941679729
 20
11.2649822616074
 30
0.0
 10
81.95040243129801
 20
11.221406312743
 30
0.0
 10
82.15224370358043
 20
11.18784824589366
 30
0.0
 10
82.25633571679679
 20
11.16940301367191
 30
0.0
 11
81.3790621572266
 21
11.29785149999998
 31
0.0
 11
81.65002010400394
 21
11.26477044531248
 31
0.0
 11
81.94352291162113
 21
11.22161858984373
 31
0.0
 11
82.25633571679679
 21
11.16940301367191
 31
0.0
  0
SPLINE
  5
560C9
330
1F
100
AcDbEntity
  8
1
100
AcDbSpline
210
0.0
220
0.0
230
1.0
 70
     8
 71
     3
 72
    56
 73
    52
 74
    50
 42
0.0000000001
 43
0.0000000001
 44
0.000001
 12
-0.9999999973384662
 22
-0.0000729593564862
 32
0.0
 13
0.9999999688642722
 23
-0.0002495424907634
 33
0.0
 40
0.0
 40
0.0
 40
0.0
 40
0.0
 40
0.3454426790745903
 40
0.6888896339249497
 40
1.033155236005501
 40
1.287867330899103
 40
1.54811153611753
 40
1.800358867128082
 40
2.060957197459983
 40
2.393530606407342
 40
2.734671295356906
 40
3.074454177494022
 40
3.407139508863278
 40
3.736957054307934
 40
4.081619005168118
 40
4.420707103818583
 40
4.756233735105898
 40
5.091598916829777
 40
5.434016585142151
 40
5.769121316671343
 40
6.102741471089074
 40
6.615314631995273
 40
7.131163564364459
 40
7.644478160687592
 40
8.160279889619571
 40
8.680738616401193
 40
9.196026435569244
 40
9.536635767940804
 40
9.878551174167046
 40
10.22461154121135
 40
10.60145228066312
 40
10.97676858055232
 40
11.35889573095384
 40
11.50918079326291
 40
11.65604052546496
 40
11.80406806210352
 40
11.95290699754607
 40
12.09417303029838
 40
12.25060695890133
 40
12.54280924015629
 40
12.82845866301494
 40
13.11574013593834
 40
13.40469365475342
 40
13.69337892231567
 40
13.98638816610843
 40
14.26925018304902
 40
14.61197023292304
 40
14.95259428508425
 40
15.29467796946486
 40
15.81250869270012
 40
16.33267399543929
 40
16.33267399543929
 40
16.33267399543929
 40
16.33267399543929
 10
92.12502620751957
 20
5.199981626953103
 30
0.0
 10
92.00987864813454
 20
5.199973225861242
 30
0.0
 10
91.78017546312799
 20
5.192343142509088
 30
0.0
 10
91.43725597814796
 20
5.158150002851613
 30
0.0
 10
91.12717318528394
 20
5.106308246427488
 30
0.0
 10
90.84777324236744
 20
5.042863205842166
 30
0.0
 10
90.60138229630082
 20
4.97395909677175
 30
0.0
 10
90.35684131001607
 20
4.892356509592133
 30
0.0
 10
90.09412226363417
 20
4.790094910212189
 30
0.0
 10
89.81063545756445
 20
4.660613664967513
 30
0.0
 10
89.51283616523552
 20
4.500583622499902
 30
0.0
 10
89.22615266559786
 20
4.3213315492562
 30
0.0
 10
88.95467079112426
 20
4.126217535772553
 30
0.0
 10
88.69496525102466
 20
3.913115102033088
 30
0.0
 10
88.44801053349829
 20
3.682186362708705
 30
0.0
 10
88.21546213177986
 20
3.434151664370375
 30
0.0
 10
88.0014918596737
 20
3.173932007998473
 30
0.0
 10
87.80407023421707
 20
2.899577194490802
 30
0.0
 10
87.6250037027005
 20
2.613056833717678
 30
0.0
 10
87.4652594616939
 20
2.315998710676353
 30
0.0
 10
87.30132630942945
 20
1.957710907268506
 30
0.0
 10
87.14636773427287
 20
1.530127764044408
 30
0.0
 10
87.01963276894231
 20
1.031228993287669
 30
0.0
 10
86.94266795967791
 20
0.5211755605643021
 30
0.0
 10
86.91640147139242
 20
0.0044676541966737
 30
0.0
 10
86.94172406986183
 20
-0.5129504150444291
 30
0.0
 10
87.00975318916745
 20
-0.967469380545026
 30
0.0
 10
87.10117084249407
 20
-1.356399510518201
 30
0.0
 10
87.20141628340456
 20
-1.684545388136882
 30
0.0
 10
87.32744646230207
 20
-2.016628935361154
 30
0.0
 10
87.48089839602698
 20
-2.349349049600419
 30
0.0
 10
87.66383555767708
 20
-2.680601223759765
 30
0.0
 10
87.82912488477814
 20
-2.934404947219547
 30
0.0
 10
87.96230229016135
 20
-3.117549499498579
 30
0.0
 10
88.05296296330197
 20
-3.235051400799477
 30
0.0
 10
88.14660510049202
 20
-3.349567234116562
 30
0.0
 10
88.24224522114286
 20
-3.459965699370513
 30
0.0
 10
88.34285785383906
 20
-3.569683045527227
 30
0.0
 10
88.47983108725202
 20
-3.710797145767827
 30
0.0
 10
88.65784556658036
 20
-3.878987184942815
 30
0.0
 10
88.87822251444664
 20
-4.065205246988881
 30
0.0
 10
89.10768371801749
 20
-4.238324481941702
 30
0.0
 10
89.34719503978124
 20
-4.399076278958006
 30
0.0
 10
89.59694482407462
 20
-4.547185150338151
 30
0.0
 10
89.85274568166017
 20
-4.680249810533496
 30
0.0
 10
90.13195959951417
 20
-4.806286088586176
 30
0.0
 10
90.43314646670706
 20
-4.921041525816406
 30
0.0
 10
90.7601014285376
 20
-5.021556478836885
 30
0.0
 10
91.14976418422987
 20
-5.113866396563366
 30
0.0
 10
91.60539075884845
 20
-5.182725495706648
 30
0.0
 10
91.9516301492772
 20
-5.199969001749479
 30
0.0
 10
92.12501857812503
 20
-5.200012269531242
 30
0.0
 11
92.12502620751957
 21
5.199981626953103
 31
0.0
 11
91.77977321679691
 21
5.188507017578103
 31
0.0
 11
91.4380221181641
 21
5.154418882812478
 31
0.0
 11
91.09846828515628
 21
5.097656187499978
 31
0.0
 11
90.85007808740238
 21
5.041259703124978
 31
0.0
 11
90.59945247705082
 21
4.97116082617191
 31
0.0
 11
90.36017177636722
 21
4.891326841796853
 31
0.0
 11
90.11732814843753
 21
4.796783384765546
 31
0.0
 11
89.81480739648441
 21
4.658630308593728
 31
0.0
 11
89.51431606347659
 21
4.497131285156285
 31
0.0
 11
89.22619960839847
 21
4.317016539062478
 31
0.0
 11
88.95606563623051
 21
4.122833189453103
 31
0.0
 11
88.70108364160159
 21
3.913635191406285
 31
0.0
 11
88.44934413964848
 21
3.678222593749978
 31
0.0
 11
88.21742580468754
 21
3.430847105468728
 31
0.0
 11
88.00431392724613
 21
3.171691832031228
 31
0.0
 11
87.80843685205082
 21
2.899475035156285
 31
0.0
 11
87.6269640737305
 21
2.609100279296853
 31
0.0
 11
87.46824977929691
 21
2.313964781249978
 31
0.0
 11
87.32944820458987
 21
2.010589537109353
 31
0.0
 11
87.15480373437504
 21
1.528686460937478
 31
0.0
 11
87.02779720361332
 21
1.028716978515546
 31
0.0
 11
86.95120571191409
 21
0.5211486191406039
 31
0.0
 11
86.92502162988285
 21
0.0060119003906323
 31
0.0
 11
86.95046566064457
 21
-0.5138245253906462
 31
0.0
 11
87.02672908837895
 21
-1.023437562499992
 31
0.0
 11
87.10466335351554
 21
-1.35501104882806
 31
0.0
 11
87.20456264550785
 21
-1.682006898437492
 31
0.0
 11
87.32734249169926
 21
-2.005554261718742
 31
0.0
 11
87.48517940576176
 21
-2.347747865234424
 31
0.0
 11
87.66660640771476
 21
-2.67630011132806
 31
0.0
 11
87.87517116601566
 21
-2.99649054101556
 31
0.0
 11
87.96355007226566
 21
-3.118042054687492
 31
0.0
 11
88.05326412255851
 21
-3.234314027343685
 31
0.0
 11
88.14696834619144
 21
-3.348907533203117
 31
0.0
 11
88.24443386132816
 21
-3.461395326171867
 31
0.0
 11
88.3399004750977
 21
-3.565521302734424
 31
0.0
 11
88.44886348779301
 21
-3.67776495507806
 31
0.0
 11
88.66125057275395
 21
-3.87844854882806
 31
0.0
 11
88.87944362695316
 21
-4.062805238281242
 31
0.0
 11
89.10876796777348
 21
-4.235839906249992
 31
0.0
 11
89.34870479638675
 21
-4.396850648437492
 31
0.0
 11
89.59699581201176
 21
-4.544128480468742
 31
0.0
 11
89.85695217187503
 21
-4.679321351562492
 31
0.0
 11
90.1147570424805
 21
-4.795715394531242
 31
0.0
 11
90.43502376611332
 21
-4.917724671874992
 31
0.0
 11
90.76060817773441
 21
-5.017822328124992
 31
0.0
 11
91.09347866113285
 21
-5.096679749999992
 31
0.0
 11
91.6055025869141
 21
-5.174011292968742
 31
0.0
 11
92.12501857812503
 21
-5.200012269531242
 31
0.0
  0
SPLINE
  5
560CA
330
1F
100
AcDbEntity
  8
1
100
AcDbSpline
210
0.0
220
0.0
230
1.0
 70
     8
 71
     3
 72
     9
 73
     5
 74
     3
 42
0.0000000001
 43
0.0000000001
 44
0.000001
 12
0.9603132869219134
 22
-0.278923629262977
 32
0.0
 13
0.9442995354099643
 23
-0.3290872033740075
 33
0.0
 40
0.0
 40
0.0
 40
0.0
 40
0.0
 40
0.7348450070664709
 40
1.479601022990584
 40
1.479601022990584
 40
1.479601022990584
 40
1.479601022990584
 10
90.86561916406253
 20
8.97750848242191
 30
0.0
 10
91.10084630543395
 20
8.909186603649658
 30
0.0
 10
91.57269549438353
 20
8.765426205270529
 30
0.0
 10
92.04059585072696
 20
8.609284386283803
 30
0.0
 10
92.27502010400394
 20
8.527587828124978
 30
0.0
 11
90.86561916406253
 21
8.97750848242191
 31
0.0
 11
91.56856105859379
 21
8.763336119140603
 31
0.0
 11
92.27502010400394
 21
8.527587828124978
 31
0.0
  0
SPLINE
  5
560CB
330
1F
100
AcDbEntity
  8
1
100
AcDbSpline
210
0.0
220
0.0
230
1.0
 70
     8
 71
     3
 72
    18
 73
    14
 74
    12
 42
0.0000000001
 43
0.0000000001
 44
0.000001
 12
0.9775947559519689
 22
-0.210495826883124
 32
0.0
 13
0.9602144660513589
 23
-0.2792636374211717
 33
0.0
 40
0.0
 40
0.0
 40
0.0
 40
0.0
 40
0.5333439082108037
 40
1.107779624537654
 40
1.723354797019663
 40
2.308162769073047
 40
2.916598674837099
 40
3.560113329748731
 40
4.183693023625521
 40
5.057589400325888
 40
5.956706750495079
 40
6.843108628109292
 40
7.765135339238772
 40
7.765135339238772
 40
7.765135339238772
 40
7.765135339238772
 10
83.35731075341801
 20
10.9524230332031
 30
0.0
 10
83.53110882267992
 20
10.91500081087912
 30
0.0
 10
83.89172034451735
 20
10.83551315103582
 30
0.0
 10
84.45129247083798
 20
10.705571530491
 30
0.0
 10
85.02637867705606
 20
10.56671352635067
 30
0.0
 10
85.61139975349817
 20
10.42079568189098
 30
0.0
 10
86.20451407818235
 20
10.26889621010877
 30
0.0
 10
86.80923345055305
 20
10.11026335992534
 30
0.0
 10
87.49865150674509
 20
9.925813269163228
 30
0.0
 10
88.26926068515547
 20
9.715211177356366
 30
0.0
 10
89.12314777160601
 20
9.477060352086567
 30
0.0
 10
89.99130728296462
 20
9.230407204038158
 30
0.0
 10
90.57050470202511
 20
9.063337993471748
 30
0.0
 10
90.86561916406253
 20
8.97750848242191
 30
0.0
 11
83.35731075341801
 21
10.9524230332031
 31
0.0
 11
83.87813137109379
 21
10.83752435156248
 31
0.0
 11
84.43774745996098
 21
10.70788567968748
 31
0.0
 11
85.03615902001957
 21
10.56353753515628
 31
0.0
 11
85.60361049707035
 21
10.42211907812498
 31
0.0
 11
86.19304225976566
 21
10.27124017187498
 31
0.0
 11
86.81552455957035
 21
10.1080626816406
 31
0.0
 11
87.41792629296879
 21
9.946929869140603
 31
0.0
 11
88.26095150048832
 21
9.716705259765603
 31
0.0
 11
89.12703273828128
 21
9.475219664062478
 31
0.0
 11
89.97972438867179
 21
9.233093199218728
 31
0.0
 11
90.86561916406253
 21
8.97750848242191
 31
0.0
  0
SPLINE
  5
560CC
330
1F
100
AcDbEntity
  8
1
100
AcDbSpline
210
0.0
220
0.0
230
1.0
 70
     8
 71
     3
 72
    37
 73
    33
 74
    31
 42
0.0000000001
 43
0.0000000001
 44
0.000001
 12
0.9441111917890602
 22
-0.3296271492742075
 32
0.0
 13
0.4601198425223931
 23
-0.8878568187028628
 33
0.0
 40
0.0
 40
0.0
 40
0.0
 40
0.0
 40
0.8083824956881878
 40
1.644479507183102
 40
2.493266844779988
 40
3.363734089813587
 40
4.312698579940748
 40
5.270568765785349
 40
5.759274703376269
 40
6.246744268859059
 40
6.735870884293047
 40
7.22237731177192
 40
7.690001998303117
 40
8.153851389677384
 40
8.616568337460021
 40
9.07405418004428
 40
9.535893699124093
 40
9.990685472413677
 40
10.44111490690928
 40
10.88260187309943
 40
11.28568693886663
 40
11.67935634278466
 40
12.06564315798047
 40
12.4405419697564
 40
12.81236820244358
 40
13.17015040462176
 40
13.51600763302897
 40
13.84532011729101
 40
14.14943727039555
 40
14.43553863186614
 40
14.7052653124998
 40
14.95418097071379
 40
14.95418097071379
 40
14.95418097071379
 40
14.95418097071379
 10
92.27502010400394
 20
8.527587828124978
 30
0.0
 10
92.52942109114576
 20
8.438766222266025
 30
0.0
 10
93.04332783831194
 20
8.247506331302474
 30
0.0
 10
93.80954386240512
 20
7.924999061429588
 30
0.0
 10
94.58051584083296
 20
7.562294266439096
 30
0.0
 10
95.3690486317887
 20
7.150326132844782
 30
0.0
 10
96.17059714165078
 20
6.686508260843311
 30
0.0
 10
96.84350387427151
 20
6.256071037473134
 30
0.0
 10
97.37472769137799
 20
5.890731240048438
 30
0.0
 10
97.77092928427919
 20
5.605015304664675
 30
0.0
 10
98.16006890668383
 20
5.310972766797931
 30
0.0
 10
98.53744864465534
 20
5.012533329418971
 30
0.0
 10
98.90176258395696
 20
4.711342291079944
 30
0.0
 10
99.25369293086134
 20
4.407778681240046
 30
0.0
 10
99.59665386262713
 20
4.099147331479457
 30
0.0
 10
99.93268311013162
 20
3.783963323880158
 30
0.0
 10
100.2601843512055
 20
3.463692075721525
 30
0.0
 10
100.5793028891341
 20
3.138356351649917
 30
0.0
 10
100.8870012815312
 20
2.811455798774943
 30
0.0
 10
101.1763579964301
 20
2.49108832019823
 30
0.0
 10
101.4469853245737
 20
2.179413673658444
 30
0.0
 10
101.6998633844141
 20
1.876790528448708
 30
0.0
 10
101.9411390650657
 20
1.576805345868052
 30
0.0
 10
102.172304983142
 20
1.278117812605728
 30
0.0
 10
102.392037575183
 20
0.9826809481782561
 30
0.0
 10
102.6004368559023
 20
0.6909623572626913
 30
0.0
 10
102.7950407591397
 20
0.4068855963831198
 30
0.0
 10
102.9740699534734
 20
0.1339038424990804
 30
0.0
 10
103.1369102979349
 20
-0.1257984186227077
 30
0.0
 10
103.283976282142
 20
-0.3718699956123714
 30
0.0
 10
103.4164598174674
 20
-0.6051500852484822
 30
0.0
 10
103.497802718095
 20
-0.7577232885503236
 30
0.0
 10
103.5359797292479
 20
-0.8313904433593961
 30
0.0
 11
92.27502010400394
 21
8.527587828124978
 31
0.0
 11
93.03260372216801
 21
8.245544371093728
 31
0.0
 11
93.80331752832034
 21
7.921417173828103
 31
0.0
 11
94.57138393457034
 21
7.56015008398441
 31
0.0
 11
95.34296749169925
 21
7.15719598242191
 31
0.0
 11
96.16438625390628
 21
6.682006773437478
 31
0.0
 11
96.97133968408207
 21
6.165924009765546
 31
0.0
 11
97.37401912744145
 21
5.889007505859353
 31
0.0
 11
97.76940486962894
 21
5.603881773437478
 31
0.0
 11
98.15966365869144
 21
5.309020933593728
 31
0.0
 11
98.54125545556644
 21
5.007232603515546
 31
0.0
 11
98.90167568261723
 21
4.709289488281228
 31
0.0
 11
99.25290248925785
 21
4.406310972656285
 31
0.0
 11
99.59686611230473
 21
4.096801695312478
 31
0.0
 11
99.93053005273441
 21
3.783813414062478
 31
0.0
 11
100.2607226186522
 21
3.460906919921853
 31
0.0
 11
100.5791888051758
 21
3.136230406249978
 31
0.0
 11
100.8878969960937
 21
2.808227476562478
 31
0.0
 11
101.1838106923828
 21
2.480590757812478
 31
0.0
 11
101.4480624013672
 21
2.176208433593728
 31
0.0
 11
101.7004809194336
 21
1.87411492773441
 31
0.0
 11
101.9425577932129
 21
1.573089537109353
 31
0.0
 11
102.1719736867676
 21
1.276580748046853
 31
0.0
 11
102.3938517385254
 21
0.9782103867187288
 31
0.0
 11
102.601767998291
 21
0.6870421738281039
 31
0.0
 11
102.797168236328
 21
0.4016723007812289
 31
0.0
 11
102.9776949697265
 21
0.1262511582031038
 31
0.0
 11
103.1391482167969
 21
-0.1314697890625212
 31
0.0
 11
103.2858347707519
 21
-0.3771057753906462
 31
0.0
 11
103.4187922292479
 21
-0.6117859511718962
 31
0.0
 11
103.5359797292479
 21
-0.8313904433593961
 31
0.0
  0
SPLINE
  5
560CD
330
1F
100
AcDbEntity
  8
1
100
AcDbSpline
210
0.0
220
0.0
230
1.0
 70
     8
 71
     3
 72
    64
 73
    60
 74
    58
 42
0.0000000001
 43
0.0000000001
 44
0.000001
 12
0.9999999976027297
 22
0.0000692426238353
 32
0.0
 13
-0.9999999719526073
 23
0.0002368433759521
 33
0.0
 40
0.0
 40
0.0
 40
0.0
 40
0.0
 40
0.3374190964438537
 40
0.6773914010440344
 40
1.019911651532954
 40
1.352142635755065
 40
1.693066038515864
 40
2.042667927938275
 40
2.31016461889271
 40
2.591203251274183
 40
2.885763865020358
 40
3.174760143389367
 40
3.284467825271924
 40
3.398621910127493
 40
3.517229077804004
 40
3.622135851970901
 40
3.721280166375334
 40
3.831251186483026
 40
3.952046973523837
 40
4.083636686280853
 40
4.275330389386184
 40
4.424017139584479
 40
4.529678794419066
 40
4.593807665578381
 40
4.734420365890507
 40
4.985745701574225
 40
5.236696413603004
 40
5.475218035428539
 40
5.702583326615235
 40
5.918743282244586
 40
6.123702580472995
 40
6.647465346935289
 40
7.144947289306796
 40
7.657727828884167
 40
8.163132935634662
 40
8.500766745983241
 40
8.841850067950176
 40
9.18644502803129
 40
9.514333228165259
 40
9.853441834433308
 40
10.20385901110016
 40
10.47236430950707
 40
10.75988189842911
 40
11.06640438449335
 40
11.35795789144735
 40
11.65393283904731
 40
11.86469131291771
 40
12.24627859719349
 40
12.5657831231586
 40
12.83643926831477
 40
13.13054947344814
 40
13.42336127629139
 40
13.72624593097746
 40
14.01483804142044
 40
14.28916038932707
 40
14.80751342159209
 40
15.30649973848986
 40
15.82270679006101
 40
16.33305485315846
 40
16.33305485315846
 40
16.33305485315846
 40
16.33305485315846
 10
92.27502010400394
 20
-5.200012269531242
 30
0.0
 10
92.38749313588233
 20
-5.200004481603372
 30
0.0
 10
92.61335768651258
 20
-5.192665835936509
 30
0.0
 10
92.95194251388625
 20
-5.159544140285305
 30
0.0
 10
93.2859327396286
 20
-5.10452729343433
 30
0.0
 10
93.61594143304751
 20
-5.027910199957574
 30
0.0
 10
93.94257955923354
 20
-4.929429139834695
 30
0.0
 10
94.24176088859326
 20
-4.817045892959669
 30
0.0
 10
94.51540605424497
 20
-4.695308108950627
 30
0.0
 10
94.76591056515463
 20
-4.567616858785896
 30
0.0
 10
95.0151831277501
 20
-4.422674217089166
 30
0.0
 10
95.20822724324773
 20
-4.295408090500302
 30
0.0
 10
95.34726083067051
 20
-4.195921953814917
 30
0.0
 10
95.43865101310121
 20
-4.127498297429269
 30
0.0
 10
95.5272046277712
 20
-4.058005043103719
 30
0.0
 10
95.61039854443334
 20
-3.989829676944083
 30
0.0
 10
95.69005101667448
 20
-3.921907373842941
 30
0.0
 10
95.77228220701238
 20
-3.848877531283392
 30
0.0
 10
95.86077410071879
 20
-3.766652241955085
 30
0.0
 10
95.96678758756059
 20
-3.663321904649393
 30
0.0
 10
96.07597694529921
 20
-3.550004707038965
 30
0.0
 10
96.17559786613526
 20
-3.439608607688512
 30
0.0
 10
96.24479396538232
 20
-3.35908998491854
 30
0.0
 10
96.31093527868438
 20
-3.279520119372023
 30
0.0
 10
96.40577959151006
 20
-3.160689687833297
 30
0.0
 10
96.53313228724165
 20
-2.988230577391846
 30
0.0
 10
96.6701214625217
 20
-2.782666708994099
 30
0.0
 10
96.79315357099836
 20
-2.577730889103236
 30
0.0
 10
96.90135574528609
 20
-2.377700429049099
 30
0.0
 10
96.99603265331848
 20
-2.183301655148653
 30
0.0
 10
97.12241623513046
 20
-1.894747519820441
 30
0.0
 10
97.2599947997952
 20
-1.509036716447155
 30
0.0
 10
97.38391287818139
 20
-1.012168064207543
 30
0.0
 10
97.45815597457886
 20
-0.5115981368246026
 30
0.0
 10
97.48044985532908
 20
-0.0594576417062172
 30
0.0
 10
97.46790350997764
 20
0.3353036593336469
 30
0.0
 10
97.43481721291267
 20
0.6750505079621405
 30
0.0
 10
97.379944126272
 20
1.008671432734388
 30
0.0
 10
97.30379695451484
 20
1.33738625952759
 30
0.0
 10
97.20613436902977
 20
1.662406201370004
 30
0.0
 10
97.09412457471808
 20
1.961732267402055
 30
0.0
 10
96.97150107739709
 20
2.238015089310636
 30
0.0
 10
96.84093986780681
 20
2.494342317611
 30
0.0
 10
96.69206085711198
 20
2.749449899265357
 30
0.0
 10
96.52722942988294
 20
2.997914469788753
 30
0.0
 10
96.36773808917405
 20
3.211109811320625
 30
0.0
 10
96.17899597985843
 20
3.439348725893921
 30
0.0
 10
95.97203817520641
 20
3.662371594773162
 30
0.0
 10
95.73610749003956
 20
3.884600288046215
 30
0.0
 10
95.51028897557978
 20
4.074242430692152
 30
0.0
 10
95.28163491934334
 20
4.246061617732749
 30
0.0
 10
95.03467930584122
 20
4.410615038951505
 30
0.0
 10
94.78032078267721
 20
4.559897798265126
 30
0.0
 10
94.5233573233412
 20
4.691612642069173
 30
0.0
 10
94.19407680966925
 20
4.838508334217237
 30
0.0
 10
93.78791911319764
 20
4.983718130327304
 30
0.0
 10
93.2913209436889
 20
5.108130051436688
 30
0.0
 10
92.78755675222896
 20
5.18321512339034
 30
0.0
 10
92.44513612026514
 20
5.19994133610038
 30
0.0
 10
92.27502010400394
 20
5.199981626953103
 30
0.0
 11
92.27502010400394
 21
-5.200012269531242
 31
0.0
 11
92.61226223046879
 21
-5.189056458984424
 31
0.0
 11
92.95061824853519
 21
-5.155944886718742
 31
0.0
 11
93.2885851674805
 21
-5.100280824218742
 31
0.0
 11
93.61220882470707
 21
-5.025146546874992
 31
0.0
 11
93.93861721093754
 21
-4.926727357421867
 31
0.0
 11
94.26589534814457
 21
-4.803802552734424
 31
0.0
 11
94.51029537255863
 21
-4.695068421874992
 31
0.0
 11
94.76068447167973
 21
-4.567443910156242
 31
0.0
 11
95.01532314355472
 21
-4.419372621093685
 31
0.0
 11
95.25661037500004
 21
-4.260315003906242
 31
0.0
 11
95.34582851464847
 21
-4.196472230468742
 31
0.0
 11
95.43720577294925
 21
-4.128051820312492
 31
0.0
 11
95.53052089746097
 21
-4.054840150390617
 31
0.0
 11
95.61165950830082
 21
-3.988342347656242
 31
0.0
 11
95.68709896142582
 21
-3.924011292968742
 31
0.0
 11
95.7693209462891
 21
-3.850982728515589
 31
0.0
 11
95.8578219228516
 21
-3.768768373046867
 31
0.0
 11
95.95204494531254
 21
-3.676910462890617
 31
0.0
 11
96.08506343896488
 21
-3.538879457031242
 31
0.0
 11
96.18468044335941
 21
-3.428497376953117
 31
0.0
 11
96.25354335839848
 21
-3.348358216796867
 31
0.0
 11
96.29453609521489
 21
-3.299041810546867
 31
0.0
 11
96.3822588735352
 21
-3.189148011718742
 31
0.0
 11
96.53155086572269
 21
-2.986969056640617
 31
0.0
 11
96.67071102197269
 21
-2.778137269531242
 31
0.0
 11
96.79348323876958
 21
-2.573638978515589
 31
0.0
 11
96.90166042382816
 21
-2.373657289062492
 31
0.0
 11
96.99631069238286
 21
-2.179321351562492
 31
0.0
 11
97.07853267724614
 21
-1.991577210937492
 31
0.0
 11
97.25450466210942
 21
-1.498260560546867
 31
0.0
 11
97.374888878418
 21
-1.015564027343714
 31
0.0
 11
97.45011470849613
 21
-0.5083313613280894
 31
0.0
 11
97.47501705224614
 21
-0.0035401015625212
 31
0.0
 11
97.46429012353519
 21
0.3339232773437288
 31
0.0
 11
97.43123195703129
 21
0.6734008164062857
 31
0.0
 11
97.37530849511722
 21
1.013427671874978
 31
0.0
 11
97.3013033681641
 21
1.332855162109353
 31
0.0
 11
97.20373104150395
 21
1.657623228515546
 31
0.0
 11
97.08090541894534
 21
1.98580926367191
 31
0.0
 11
96.97198818261723
 21
2.231231626953103
 31
0.0
 11
96.8414873891602
 21
2.487426695312478
 31
0.0
 11
96.68699214990239
 21
2.752166685546853
 31
0.0
 11
96.52581356103519
 21
2.995117124999978
 31
0.0
 11
96.348521690918
 21
3.232116636718728
 31
0.0
 11
96.21420620019534
 21
3.394531187499978
 31
0.0
 11
95.95466182763676
 21
3.674255308593728
 31
0.0
 11
95.72207210595706
 21
3.893310484374978
 31
0.0
 11
95.51481960351566
 21
4.067382749999978
 31
0.0
 11
95.27968166406253
 21
4.244049009765546
 31
0.0
 11
95.036021690918
 21
4.406433042968728
 31
0.0
 11
94.774791222168
 21
4.559722837890603
 31
0.0
 11
94.51797817285159
 21
4.69137566992191
 31
0.0
 11
94.26745174462894
 21
4.803131041015546
 31
0.0
 11
93.7793536000977
 21
4.97763055273441
 31
0.0
 11
93.29532955224612
 21
5.098907408203103
 31
0.0
 11
92.78475521142581
 21
5.174957212890603
 31
0.0
 11
92.27502010400394
 21
5.199981626953103
 31
0.0
  0
SPLINE
  5
560CE
330
1F
100
AcDbEntity
  8
1
100
AcDbSpline
210
0.0
220
0.0
230
1.0
 70
     8
 71
     3
 72
    29
 73
    25
 74
    23
 42
0.0000000001
 43
0.0000000001
 44
0.000001
 12
0.9999998154086332
 22
0.0006076040649003
 32
0.0
 13
0.0859107384651211
 23
0.9963028380047793
 33
0.0
 40
0.0
 40
0.0
 40
0.0
 40
0.0
 40
0.7671199296735529
 40
1.536854420461715
 40
2.307476727085569
 40
3.077218851214593
 40
3.84433939060697
 40
4.611477114665397
 40
5.381269819471615
 40
6.151928265694309
 40
6.921700066999264
 40
7.688847781081322
 40
8.455184083126567
 40
9.224178949643606
 40
9.994047668203794
 40
10.7630091779419
 40
11.52930339426551
 40
12.29171394284818
 40
13.05694882906446
 40
13.8229895917249
 40
14.58794791634943
 40
15.35012882298947
 40
15.96307553540751
 40
16.57600564145742
 40
16.57600564145742
 40
16.57600564145742
 40
16.57600564145742
 10
92.27502010400394
 20
-10.92547613671874
 30
0.0
 10
92.53072670002723
 20
-10.9253207683229
 30
0.0
 10
93.04317672729666
 20
-10.90783559591685
 30
0.0
 10
93.80887725662399
 20
-10.82936145395192
 30
0.0
 10
94.56856706677275
 20
-10.70011465466601
 30
0.0
 10
95.3170870843752
 20
-10.52064350210324
 30
0.0
 10
96.05073772253218
 20
-10.29150918817893
 30
0.0
 10
96.76684216734987
 20
-10.01227610796962
 30
0.0
 10
97.46349353892208
 20
-9.684827001603082
 30
0.0
 10
98.13755447245876
 20
-9.311283547858323
 30
0.0
 10
98.78444704784385
 20
-8.894063049348062
 30
0.0
 10
99.40054349922741
 20
-8.434937409570949
 30
0.0
 10
99.98319594801706
 20
-7.934449696910064
 30
0.0
 10
100.5313211779275
 20
-7.395113794717843
 30
0.0
 10
101.0426950398789
 20
-6.819641967367886
 30
0.0
 10
101.5137412559181
 20
-6.211850619124902
 30
0.0
 10
101.9409732633293
 20
-5.575457779187587
 30
0.0
 10
102.3222680092382
 20
-4.911961547645091
 30
0.0
 10
102.6573505908475
 20
-4.224080494936742
 30
0.0
 10
102.9448666522116
 20
-3.514065994733016
 30
0.0
 10
103.1820437523616
 20
-2.786742082140818
 30
0.0
 10
103.3542728006719
 20
-2.093806129427832
 30
0.0
 10
103.4710548673471
 20
-1.441118352760412
 30
0.0
 10
103.5184273032353
 20
-1.034945111411417
 30
0.0
 10
103.5359797292479
 20
-0.8313904433593961
 30
0.0
 11
92.27502010400394
 21
-10.92547613671874
 31
0.0
 11
93.04169033105472
 21
-10.89920050195314
 31
0.0
 11
93.80743740136722
 21
-10.82095343164064
 31
0.0
 11
94.56713436181644
 21
-10.69165045312502
 31
0.0
 11
95.31563900048832
 21
-10.51208502343752
 31
0.0
 11
96.04780910546878
 21
-10.28317266992186
 31
0.0
 11
96.76260707910159
 21
-10.00466925195311
 31
0.0
 11
97.45933864648442
 21
-9.677337708984453
 31
0.0
 11
98.13340328271488
 21
-9.303772035156271
 31
0.0
 11
98.78023098046879
 21
-8.886444154296896
 31
0.0
 11
99.3952212148438
 21
-8.427856507812521
 31
0.0
 11
99.97668026025394
 21
-7.928680482421896
 31
0.0
 11
100.5248904042969
 21
-7.389404359375021
 31
0.0
 11
101.0362582021483
 21
-6.813903871093685
 31
0.0
 11
101.5071978383789
 21
-6.206024232421896
 31
0.0
 11
101.9341196828612
 21
-5.569671693359396
 31
0.0
 11
102.3141398244629
 21
-4.908721986328089
 31
0.0
 11
102.6492495351561
 21
-4.220764222656242
 31
0.0
 11
102.9366526418457
 21
-3.510681214843714
 31
0.0
 11
103.1735377126465
 21
-2.783325257812492
 31
0.0
 11
103.3571009450683
 21
-2.043579164062492
 31
0.0
 11
103.4648966604004
 21
-1.440185609374992
 31
0.0
 11
103.5359797292479
 21
-0.8313904433593961
 31
0.0
  0
ARC
  5
560CF
330
1F
100
AcDbEntity
  8
1
100
AcDbCircle
 10
92.12501899999995
 20
-0.0000000000000568
 30
0.0
 40
5.000002999999998
100
AcDbArc
 50
269.9999959999944
 51
359.9999499999983
  0
ARC
  5
560D0
330
1F
100
AcDbEntity
  8
1
100
AcDbCircle
 10
92.12501899999995
 20
-0.0000000000000568
 30
0.0
 40
5.000002999999998
100
AcDbArc
 50
180.0000529999995
 51
270.0000089999996
  0
ARC
  5
560D1
330
1F
100
AcDbEntity
  8
1
100
AcDbCircle
 10
92.12501899999995
 20
-0.0000310000000354
 30
0.0
 40
5.000002999999998
100
AcDbArc
 50
89.99992199999475
 51
179.9999470000005
  0
ARC
  5
560D2
330
1F
100
AcDbEntity
  8
1
100
AcDbCircle
 10
92.12501899999995
 20
-0.0000310000000354
 30
0.0
 40
5.000002999999998
100
AcDbArc
 50
0.0000499999985184
 51
89.99993599999486
  0
ARC
  5
560D3
330
1F
100
AcDbEntity
  8
1
100
AcDbCircle
 10
92.27502000000004
 20
-0.0000000000000568
 30
0.0
 40
4.750003999999997
100
AcDbArc
 50
270.0000429999952
 51
0.0000729999982277
  0
ARC
  5
560D4
330
1F
100
AcDbEntity
  8
1
100
AcDbCircle
 10
92.27502000000004
 20
-0.0000000000000568
 30
0.0
 40
4.750003999999997
100
AcDbArc
 50
0.0000630000004781
 51
89.99995699999827
  0
ARC
  5
560D5
330
1F
100
AcDbEntity
  8
1
100
AcDbCircle
 10
92.27502000000004
 20
-0.0000000000000568
 30
0.0
 40
4.750003999999997
100
AcDbArc
 50
89.99999699999579
 51
179.9999299999995
  0
ARC
  5
560D6
330
1F
100
AcDbEntity
  8
1
100
AcDbCircle
 10
92.27502000000004
 20
-0.0000000000000568
 30
0.0
 40
4.750003999999997
100
AcDbArc
 50
180.0000210000001
 51
270.0000429999952
  0
ARC
  5
560D7
330
1F
100
AcDbEntity
  8
1
100
AcDbCircle
 10
90.43641200000001
 20
-0.0000000000000568
 30
0.0
 40
0.440895
100
AcDbArc
 50
103.4785079999975
 51
256.5214849999957
  0
ARC
  5
560D8
330
1F
100
AcDbEntity
  8
1
100
AcDbCircle
 10
90.14113199999997
 20
1.231994999999983
 30
0.0
 40
0.8260009999999999
100
AcDbArc
 50
283.4780969999962
 51
16.5219179999999
  0
ARC
  5
560D9
330
1F
100
AcDbEntity
  8
1
100
AcDbCircle
 10
91.35571600000004
 20
1.592254999999966
 30
0.0
 40
0.440895
100
AcDbArc
 50
43.47854799999807
 51
196.5214589999994
  0
ARC
  5
560DA
330
1F
100
AcDbEntity
  8
1
100
AcDbCircle
 10
94.11362800000006
 20
-0.0000000000000568
 30
0.0
 40
0.440895
100
AcDbArc
 50
283.4785130000033
 51
76.52149700000153
  0
ARC
  5
560DB
330
1F
100
AcDbEntity
  8
1
100
AcDbCircle
 10
91.35571600000004
 20
-1.592285000000032
 30
0.0
 40
0.440895
100
AcDbArc
 50
163.4785359999994
 51
316.521452000002
  0
ARC
  5
560DC
330
1F
100
AcDbEntity
  8
1
100
AcDbCircle
 10
94.408908
 20
-1.232024999999993
 30
0.0
 40
0.8260009999999999
100
AcDbArc
 50
103.4780990000003
 51
196.5219169999995
  0
ARC
  5
560DD
330
1F
100
AcDbEntity
  8
1
100
AcDbCircle
 10
92.27502000000004
 20
2.463988999999969
 30
0.0
 40
0.8260009999999999
100
AcDbArc
 50
223.4780780000007
 51
316.5219300000052
  0
ARC
  5
560DE
330
1F
100
AcDbEntity
  8
1
100
AcDbCircle
 10
93.19432400000005
 20
1.592254999999966
 30
0.0
 40
0.440895
100
AcDbArc
 50
343.4785419999973
 51
136.5214569999954
  0
ARC
  5
560DF
330
1F
100
AcDbEntity
  8
1
100
AcDbCircle
 10
92.27502000000004
 20
-2.464020000000004
 30
0.0
 40
0.8260009999999999
100
AcDbArc
 50
43.4780829999976
 51
136.5219249999958
  0
ARC
  5
560E0
330
1F
100
AcDbEntity
  8
1
100
AcDbCircle
 10
93.19432400000005
 20
-1.592285000000032
 30
0.0
 40
0.440895
100
AcDbArc
 50
223.4785489999975
 51
16.52145399999822
  0
ARC
  5
560E1
330
1F
100
AcDbEntity
  8
1
100
AcDbCircle
 10
94.408908
 20
1.231994999999983
 30
0.0
 40
0.8260009999999999
100
AcDbArc
 50
163.4780849999978
 51
256.5219009999997
  0
ARC
  5
560E2
330
1F
100
AcDbEntity
  8
1
100
AcDbCircle
 10
92.27502000000004
 20
-0.0000000000000568
 30
0.0
 40
3.000002999999998
100
AcDbArc
 50
270.0000499999985
 51
89.99997299999469
  0
ARC
  5
560E3
330
1F
100
AcDbEntity
  8
1
100
AcDbCircle
 10
92.27502000000004
 20
-0.0000000000000568
 30
0.0
 40
3.000002999999998
100
AcDbArc
 50
90.000044999998
 51
269.9999619999988
  0
ARC
  5
560E4
330
1F
100
AcDbEntity
  8
1
100
AcDbCircle
 10
90.14113199999997
 20
-1.232024999999993
 30
0.0
 40
0.8260009999999999
100
AcDbArc
 50
343.4780919999997
 51
76.52190599999709
  0
ARC
  5
560E5
330
1F
100
AcDbEntity
  8
1
100
AcDbCircle
 10
72.92380900000001
 20
-0.0000000000000284
 30
0.0
 40
0.8
100
AcDbArc
 50
329.9999970000011
 51
29.999998999998
  0
LINE
  5
560E6
330
1F
100
AcDbEntity
  8
1
100
AcDbLine
 10
97.12502600000005
 20
-0.0000000000000568
 30
0.0
 11
97.02502000000004
 21
-0.0000000000000568
 31
0.0
  0
LINE
  5
560E7
330
1F
100
AcDbEntity
  8
1
100
AcDbLine
 10
87.12501900000006
 20
-0.0000000000000284
 30
0.0
 11
87.53002500000002
 21
-0.0000000000000568
 31
0.0
  0
LINE
  5
560E8
330
1F
100
AcDbEntity
  8
1
100
AcDbLine
 10
82.86371000000007
 20
10.95242899999999
 30
0.0
 11
82.25634300000001
 21
11.16940199999999
 31
0.0
  0
LINE
  5
560E9
330
1F
100
AcDbEntity
  8
1
100
AcDbLine
 10
86.27502000000005
 20
-10.92547599999997
 30
0.0
 11
86.27502000000005
 21
-10.95245400000004
 31
0.0
  0
LINE
  5
560EA
330
1F
100
AcDbEntity
  8
1
100
AcDbLine
 10
87.39777700000002
 20
-10.92547599999997
 30
0.0
 11
92.27502000000004
 21
-10.92547599999997
 31
0.0
  0
LINE
  5
560EB
330
1F
100
AcDbEntity
  8
1
100
AcDbLine
 10
86.27502000000005
 20
-10.92547599999997
 30
0.0
 11
87.39777700000002
 21
-10.92547599999997
 31
0.0
  0
LINE
  5
560EC
330
1F
100
AcDbEntity
  8
1
100
AcDbLine
 10
81.37907699999994
 20
11.29785099999998
 30
0.0
 11
86.27502000000005
 21
11.29785099999998
 31
0.0
  0
LINE
  5
560ED
330
1F
100
AcDbEntity
  8
1
100
AcDbLine
 10
81.27502000000005
 20
-11.16943399999999
 30
0.0
 11
86.27502000000005
 21
-11.16943399999999
 31
0.0
  0
LINE
  5
560EE
330
1F
100
AcDbEntity
  8
1
100
AcDbLine
 10
81.27502000000005
 20
-10.95245400000004
 30
0.0
 11
81.27502000000005
 21
-11.16943399999999
 31
0.0
  0
LINE
  5
560EF
330
1F
100
AcDbEntity
  8
1
100
AcDbLine
 10
81.27502000000005
 20
-10.95245400000004
 30
0.0
 11
86.27502000000005
 21
-10.95245400000004
 31
0.0
  0
LINE
  5
560F0
330
1F
100
AcDbEntity
  8
1
100
AcDbLine
 10
92.12501899999995
 20
-5.200011999999986
 30
0.0
 11
92.27502000000004
 21
-5.200011999999986
 31
0.0
  0
LINE
  5
560F1
330
1F
100
AcDbEntity
  8
1
100
AcDbLine
 10
92.12501899999995
 20
5.199981999999977
 30
0.0
 11
92.27502000000004
 21
5.199981999999977
 31
0.0
  0
LINE
  5
560F2
330
1F
100
AcDbEntity
  8
1
100
AcDbLine
 10
81.27502000000005
 20
10.95242299999995
 30
0.0
 11
83.35731799999996
 21
10.95242299999995
 31
0.0
  0
LINE
  5
560F3
330
1F
100
AcDbEntity
  8
1
100
AcDbLine
 10
81.27502000000005
 20
11.16940299999999
 30
0.0
 11
81.27502000000005
 21
10.95242299999995
 31
0.0
  0
LINE
  5
560F4
330
1F
100
AcDbEntity
  8
1
100
AcDbLine
 10
81.27502000000005
 20
11.16940299999999
 30
0.0
 11
82.25634300000001
 21
11.16940299999999
 31
0.0
  0
LINE
  5
560F5
330
1F
100
AcDbEntity
  8
1
100
AcDbLine
 10
79.77502000000004
 20
-0.0000000000000284
 30
0.0
 11
79.77502000000004
 21
-11.32986500000001
 31
0.0
  0
LINE
  5
560F6
330
1F
100
AcDbEntity
  8
1
100
AcDbLine
 10
79.77502000000004
 20
-0.0000000000000284
 30
0.0
 11
79.77502000000004
 21
11.32986399999998
 31
0.0
  0
LINE
  5
560F7
330
1F
100
AcDbEntity
  8
1
100
AcDbLine
 10
74.77502000000004
 20
-12.25000000000003
 30
0.0
 11
74.77502000000004
 21
-0.0000000000000284
 31
0.0
  0
LINE
  5
560F8
330
1F
100
AcDbEntity
  8
1
100
AcDbLine
 10
74.77499999402152
 20
-0.0000000000000284
 30
0.0
 11
74.77499999402152
 21
12.25
 31
0.0
  0
LINE
  5
560FA
330
1F
100
AcDbEntity
  8
1
100
AcDbLine
 10
92.27502000000004
 20
4.740020999999956
 30
0.0
 11
92.27502000000004
 21
4.749999999999943
 31
0.0
  0
LINE
  5
560FB
330
1F
100
AcDbEntity
  8
sk4
100
AcDbLine
 10
-104.788067
 20
0.0
 30
0.0
 11
0.0
 21
0.0
 31
0.0
  0
LINE
  5
560FC
330
1F
100
AcDbEntity
  8
4
100
AcDbLine
 10
0.0
 20
0.0
 30
0.0
 11
114.7472379999999
 21
-0.0000000000000568
 31
0.0
  0
LINE
  5
560FD
330
1F
100
AcDbEntity
  8
sk1
100
AcDbLine
 10
-98.42500000000001
 20
11.5
 30
0.0
 11
-98.42500000000001
 21
0.0
 31
0.0
  0
LINE
  5
560FE
330
1F
100
AcDbEntity
  8
sk1
100
AcDbLine
 10
-97.22498799999995
 20
12.69998200000003
 30
0.0
 11
0.0
 21
12.69998200000003
 31
0.0
  0
LINE
  5
560FF
330
1F
100
AcDbEntity
  8
sk1
100
AcDbLine
 10
-97.22497699999998
 20
12.69999799999999
 30
0.0
 11
-98.42499499999997
 21
11.49997899999999
 31
0.0
  0
LINE
  5
56100
330
1F
100
AcDbEntity
  8
1
100
AcDbLine
 10
0.0
 20
12.69998200000003
 30
0.0
 11
0.4500090000000228
 21
12.24999300000002
 31
0.0
  0
LINE
  5
56101
330
1F
100
AcDbEntity
  8
1
100
AcDbLine
 10
0.4500160000000051
 20
12.25
 30
0.0
 11
0.4500160000000051
 21
-0.0000000000000284
 31
0.0
  0
LINE
  5
56102
330
1F
100
AcDbEntity
  8
sk1
100
AcDbLine
 10
-97.22498799999995
 20
-12.70001199999996
 30
0.0
 11
0.0000190000000657
 21
-12.70001199999998
 31
0.0
  0
LINE
  5
56103
330
1F
100
AcDbEntity
  8
1
100
AcDbLine
 10
0.4500160000000051
 20
-12.25003100000001
 30
0.0
 11
0.4500160000000051
 21
-0.0000000000000284
 31
0.0
  0
LINE
  5
56104
330
1F
100
AcDbEntity
  8
1
100
AcDbLine
 10
0.0000179999999546
 20
-12.70001299999998
 30
0.0
 11
0.4500090000000228
 21
-12.25002300000002
 31
0.0
  0
LINE
  5
56105
330
1F
100
AcDbEntity
  8
sk1
100
AcDbLine
 10
-98.42500000000001
 20
-11.5
 30
0.0
 11
-98.42500000000001
 21
0.0
 31
0.0
  0
LINE
  5
56106
102
{ACAD_REACTORS
330
5610E
102
}
330
1F
100
AcDbEntity
  8
1
100
AcDbLine
 10
0.0
 20
-12.69999700000002
 30
0.0
 11
0.0
 21
12.69999699999999
 31
0.0
  0
LINE
  5
56107
330
1F
100
AcDbEntity
  8
sk1
100
AcDbLine
 10
-97.22499700000003
 20
-12.70002299999999
 30
0.0
 11
-98.42499700000002
 21
-11.50002199999994
 31
0.0
  0
LINE
  5
56108
330
1F
100
AcDbEntity
  8
sk1
100
AcDbLine
 10
-97.22498799999995
 20
-12.70001199999996
 30
0.0
 11
-97.22498799999995
 21
12.69998200000003
 31
0.0
  0
LINE
  5
56109
330
1F
100
AcDbEntity
  8
1
100
AcDbLine
 10
66.77502300000003
 20
12.24998800000003
 30
0.0
 11
73.6166290000001
 21
0.3999790000000018
 31
0.0
  0
LINE
  5
5610A
330
1F
100
AcDbEntity
  8
1
100
AcDbLine
 10
66.77501900000004
 20
-12.25001799999998
 30
0.0
 11
73.61661700000002
 21
-0.400022000000007
 31
0.0
  0
LINE
  5
5610B
330
1F
100
AcDbEntity
  8
1
100
AcDbLine
 10
73.55888700000003
 20
-0.5000000000000285
 30
0.0
 11
73.55888700000003
 21
0.4999999999999716
 31
0.0
  0
DIMENSION
  5
5610C
102
{ACAD_XDICTIONARY
360
5610D
102
}
102
{ACAD_REACTORS
330
5610E
102
}
330
1F
100
AcDbEntity
  8
2
100
AcDbDimension
  2
*D120
 10
104.7750000000001
 20
45.27728057510418
 30
0.0
 11
52.38750000000004
 21
49.32728057510418
 31
0.0
 70
    32
 71
     5
 42
104.7750000000001
  3
\M+18352\M+18373\M+1815B - ISO-25
100
AcDbAlignedDimension
 13
0.0
 23
12.69999699999999
 33
0.0
 14
104.7750000000001
 24
9.503515091631811
 34
0.0
 50
180.0
100
AcDbRotatedDimension
1001
ACAD
1000
DSTYLE
1002
{
1070
     4
1000
"
1070
    40
1040
1.0
1070
   143
1040
0.03937
1070
   170
1070
     1
1070
   171
1070
     3
1070
   271
1070
     8
1070
   285
1070
     4
1002
}
  0
LINE
  5
5610F
102
{ACAD_REACTORS
330
560C6
102
}
330
1F
100
AcDbEntity
  8
1
100
AcDbLine
 10
74.77499999402164
 20
12.24999999999994
 30
0.0
 11
0.4500160000000051
 21
12.24999999999997
 31
0.0
  0
LINE
  5
56110
102
{ACAD_REACTORS
330
560C6
102
}
330
1F
100
AcDbEntity
  8
1
100
AcDbLine
 10
74.77502000000004
 20
-12.25000000000003
 30
0.0
 11
0.4500160000000051
 21
-12.25000000000003
 31
0.0
  0
DIMENSION
  5
56111
330
1F
100
AcDbEntity
  8
sk2
100
AcDbDimension
  2
*D114
 10
-119.6402099999999
 20
12.69999999999999
 30
0.0
 11
-119.6402099999999
 21
-38.62500000000006
 31
0.0
 70
   160
  1
%%C<>
 71
     5
 41
0.892857
 42
25.39999999999998
  3
\M+18352\M+18373\M+1815B - ISO-25
100
AcDbAlignedDimension
 13
-97.22498799999995
 23
-12.69999999999999
 33
0.0
 14
-97.22498799999995
 24
12.69999999999999
 34
0.0
 50
270.0
100
AcDbRotatedDimension
1001
ACAD
1000
DSTYLE
1002
{
1070
     4
1000
%%C[]"
1070
    40
1040
1.0
1070
   143
1040
0.03937
1070
   170
1070
     1
1070
   171
1070
     3
1070
   271
1070
     8
1070
   285
1070
     4
1002
}
  0
LINE
  5
56112
330
1F
100
AcDbEntity
  8
1
100
AcDbLine
 10
79.77499999999998
 20
11.32999999889995
 30
0.0
 11
86.2750000000001
 21
11.32999999889998
 31
0.0
1001
ACAD
1000
RTMaterial
1005
0
  0
LINE
  5
56113
102
{ACAD_REACTORS
330
5611F
102
}
330
1F
100
AcDbEntity
  8
1
100
AcDbLine
 10
79.77499999999998
 20
11.32999999889995
 30
0.0
 11
74.77499999999998
 21
12.24999999889991
 31
0.0
1001
ACAD
1000
RTMaterial
1005
0
  0
ARC
  5
56114
330
1F
100
AcDbEntity
  8
nocut
100
AcDbCircle
 10
92.27849999999989
 20
0.0
 30
0.0
 40
11.32999999889999
100
AcDbArc
 50
0.0
 51
90.0
  0
LINE
  5
56115
330
1F
100
AcDbEntity
  8
nocut
100
AcDbLine
 10
103.6084999988999
 20
0.0
 30
0.0
 11
0.0
 21
0.0
 31
0.0
1001
ACAD
1000
RTMaterial
1005
0
  0
LINE
  5
56116
330
1F
100
AcDbEntity
  8
nocut
100
AcDbLine
 10
79.77499999999998
 20
11.3299999989
 30
0.0
 11
92.27849999999989
 21
11.32999999890006
 31
0.0
1001
ACAD
1000
RTMaterial
1005
0
  0
LINE
  5
56117
330
1F
100
AcDbEntity
  8
nocut
100
AcDbLine
 10
0.4500000000000455
 20
12.24999999889996
 30
0.0
 11
74.77499999999998
 21
12.24999999889996
 31
0.0
1001
ACAD
1000
RTMaterial
1005
0
  0
LINE
  5
56118
330
1F
100
AcDbEntity
  8
nocut
100
AcDbLine
 10
0.4500000000000455
 20
12.24999999889996
 30
0.0
 11
0.0
 21
12.69999999889995
 31
0.0
1001
ACAD
1000
RTMaterial
1005
0
  0
LINE
  5
56119
330
1F
100
AcDbEntity
  8
nocut
100
AcDbLine
 10
79.77499999999998
 20
11.3299999989
 30
0.0
 11
74.77499999999998
 21
12.24999999889996
 31
0.0
1001
ACAD
1000
RTMaterial
1005
0
  0
LINE
  5
5611A
330
1F
100
AcDbEntity
  8
nocut
100
AcDbLine
 10
0.0
 20
12.69999999889995
 30
0.0
 11
0.0
 21
0.0000000000000568
 31
0.0
  0
LINE
  5
5611B
330
1F
100
AcDbEntity
  8
1
100
AcDbLine
 10
79.77499999999998
 20
-11.32999999890012
 30
0.0
 11
86.2750000000001
 21
-11.32999999890015
 31
0.0
1001
ACAD
1000
RTMaterial
1005
0
  0
LINE
  5
5611C
330
1F
100
AcDbEntity
  8
1
100
AcDbLine
 10
79.77499999999998
 20
-11.32999999890012
 30
0.0
 11
74.77502000000004
 21
-12.25000000000003
 31
0.0
1001
ACAD
1000
RTMaterial
1005
0
  0
DIMENSION
  5
5611D
102
{ACAD_XDICTIONARY
360
5611E
102
}
102
{ACAD_REACTORS
330
5611F
102
}
330
1F
100
AcDbEntity
  8
2
100
AcDbDimension
  2
*D121
 10
104.7749999999999
 20
31.70548622665553
 30
0.0
 11
89.77499999999997
 21
31.70548622665553
 31
0.0
 70
   160
 71
     5
 42
30.0
  3
\M+18352\M+18373\M+1815B - ISO-25
100
AcDbAlignedDimension
 13
74.77499999999998
 23
12.24999999889991
 33
0.0
 14
104.7749999999999
 24
9.50351509053155
 34
0.0
100
AcDbRotatedDimension
1001
ACAD
1000
DSTYLE
1002
{
1070
     4
1000
"
1070
    40
1040
1.0
1070
   143
1040
0.03937
1070
   170
1070
     1
1070
   171
1070
     3
1070
   271
1070
     8
1070
   285
1070
     4
1002
}
  0
VIEWPORT
  5
6B
102
{ACAD_XDICTIONARY
360
56261
102
}
330
50
100
AcDbEntity
 67
     1
  8
0
100
AcDbViewport
 10
150.1652135264906
 20
160.4455827878762
 30
0.0
 40
339.1973820494346
 41
282.2272140146125
 68
     1
 69
     1
 12
150.1652135264906
 22
160.4455827878762
 13
0.0
 23
0.0
 14
10.0
 24
10.0
 15
10.0
 25
10.0
 16
0.0
 26
0.0
 36
1.0
 17
0.0
 27
0.0
 37
0.0
 42
50.0
 43
0.0
 44
0.0
 45
282.2272140146125
 50
0.0
 51
0.0
 72
  1000
 90
    32864
  1

281
     0
 71
     1
 74
     0
110
0.0
120
0.0
130
0.0
111
1.0
121
0.0
131
0.0
112
0.0
122
1.0
132
0.0
 79
     0
146
0.0
  0
VIEWPORT
  5
6D
102
{ACAD_XDICTIONARY
360
56263
102
}
330
50
100
AcDbEntity
 67
     1
  8
0
100
AcDbViewport
 10
133.3499939441681
 20
101.5999939441681
 30
0.0
 40
213.3599903106689
 41
162.5599903106689
 68
     2
 69
     2
 12
210.0
 22
148.5
 13
0.0
 23
0.0
 14
10.0
 24
10.0
 15
10.0
 25
10.0
 16
0.0
 26
0.0
 36
1.0
 17
0.0
 27
0.0
 37
0.0
 42
50.0
 43
0.0
 44
0.0
 45
324.0677920111345
 50
0.0
 51
0.0
 72
   100
 90
    32864
  1

281
     0
 71
     1
 74
     0
110
0.0
120
0.0
130
0.0
111
1.0
121
0.0
131
0.0
112
0.0
122
1.0
132
0.0
 79
     0
146
0.0
  0
ENDSEC
  0
SECTION
  2
OBJECTS
  0
DICTIONARY
  5
C
330
0
100
AcDbDictionary
281
     1
  3
ACAD_COLOR
350
85
  3
ACAD_GROUP
350
D
  3
ACAD_LAYOUT
350
1A
  3
ACAD_MATERIAL
350
84
  3
ACAD_MLINESTYLE
350
17
  3
ACAD_PLOTSETTINGS
350
19
  3
ACAD_PLOTSTYLENAME
350
E
  3
ACAD_TABLESTYLE
350
A1
  3
ACDBHEADERROUNDTRIPXREC
350
5625C
  3
AcDbVariableDictionary
350
5E
  3
ASE_INDEX_DICTIONARY
350
349E9
  3
DWGPROPS
350
5625B
  0
DICTIONARY
  5
E2
330
2
100
AcDbDictionary
280
     1
281
     1
  3
ACAD_LAYERFILTERS
360
56215
  3
ACAD_LAYERSTATES
360
3759A
  3
ACLYDICTIONARY
360
56214
  0
DICTIONARY
  5
31EE
330
1F
100
AcDbDictionary
280
     1
281
     1
  3
ACAD_SORTENTS
360
31EF
  0
DICTIONARY
  5
3BEB2
330
680
100
AcDbDictionary
280
     1
281
     1
  3
ACAD_SORTENTS
360
54B4E
  0
DICTIONARY
  5
56265
330
71
100
AcDbDictionary
280
     1
281
     1
  3
ACAD_XREC_ROUNDTRIP
360
56266
  0
DICTIONARY
  5
56267
330
73
100
AcDbDictionary
280
     1
281
     1
  3
ACAD_XREC_ROUNDTRIP
360
56268
  0
DICTIONARY
  5
55FF8
330
55FF7
100
AcDbDictionary
280
     1
281
     1
  3
ACAD_DIMASSOC
360
55FF9
  0
DICTIONARY
  5
560C5
330
560C4
100
AcDbDictionary
280
     1
281
     1
  3
ACAD_DIMASSOC
360
560C6
  0
DICTIONARY
  5
5610D
330
5610C
100
AcDbDictionary
280
     1
281
     1
  3
ACAD_DIMASSOC
360
5610E
  0
DICTIONARY
  5
5611E
330
5611D
100
AcDbDictionary
280
     1
281
     1
  3
ACAD_DIMASSOC
360
5611F
  0
DICTIONARY
  5
56261
330
6B
100
AcDbDictionary
280
     1
281
     1
  3
ACAD_XREC_ROUNDTRIP
360
56262
  0
DICTIONARY
  5
56263
330
6D
100
AcDbDictionary
280
     1
281
     1
  3
ACAD_XREC_ROUNDTRIP
360
56264
  0
DICTIONARY
  5
85
102
{ACAD_REACTORS
330
C
102
}
330
C
100
AcDbDictionary
281
     1
  0
DICTIONARY
  5
D
102
{ACAD_REACTORS
330
C
102
}
330
C
100
AcDbDictionary
281
     1
  0
DICTIONARY
  5
1A
102
{ACAD_REACTORS
330
C
102
}
330
C
100
AcDbDictionary
281
     1
  3
\M+1838C\M+18343\M+18341\M+18345\M+183671
350
51
  3
\M+1838C\M+18343\M+18341\M+18345\M+183672
350
56
  3
Model
350
22
  0
DICTIONARY
  5
84
102
{ACAD_REACTORS
330
C
102
}
330
C
100
AcDbDictionary
281
     1
  0
DICTIONARY
  5
17
102
{ACAD_REACTORS
330
C
102
}
330
C
100
AcDbDictionary
281
     1
  3
Standard
350
18
  0
DICTIONARY
  5
19
102
{ACAD_REACTORS
330
C
102
}
330
C
100
AcDbDictionary
281
     1
  0
ACDBDICTIONARYWDFLT
  5
E
102
{ACAD_REACTORS
330
C
102
}
330
C
100
AcDbDictionary
281
     1
  3
Normal
350
F
100
AcDbDictionaryWithDefault
340
F
  0
DICTIONARY
  5
A1
102
{ACAD_REACTORS
330
C
102
}
330
C
100
AcDbDictionary
281
     1
  3
Standard
350
A2
  0
DICTIONARY
  5
5625C
102
{ACAD_REACTORS
330
C
102
}
330
C
100
AcDbDictionary
281
     1
  0
DICTIONARY
  5
5E
102
{ACAD_REACTORS
330
C
102
}
330
C
100
AcDbDictionary
281
     1
  3
CTABLESTYLE
350
B8
  3
DIMASSOC
350
5F
  3
HIDETEXT
350
63
  3
PROJECTNAME
350
31CE
  0
DICTIONARY
  5
349E9
102
{ACAD_REACTORS
330
C
102
}
330
C
100
AcDbDictionary
281
     1
  3
ASEBlockHierarchyIndexRecord
350
349EA
1001
DCO15
1040
1842496176.844
  0
XRECORD
  5
5625B
102
{ACAD_REACTORS
330
C
102
}
330
C
100
AcDbXrecord
280
     1
  1
DWGPROPS COOKIE
  2

  3

  4

  6

  7

  8

  9

300
=
301
=
302
=
303
=
304
=
305
=
306
=
307
=
308
=
309
=
 40
2.718632418981481
 41
2455489.391063368
 42
2458572.943223843
  1

 90
        0
  0
DICTIONARY
  5
56215
102
{ACAD_REACTORS
330
E2
102
}
330
E2
100
AcDbDictionary
281
     1
  0
DICTIONARY
  5
3759A
102
{ACAD_REACTORS
330
E2
102
}
330
E2
100
AcDbDictionary
281
     1
  0
DICTIONARY
  5
56214
102
{ACAD_REACTORS
330
E2
102
}
330
E2
100
AcDbDictionary
281
     1
1001
ACAD
1000
<All
  0
SORTENTSTABLE
  5
31EF
102
{ACAD_REACTORS
330
31EE
102
}
330
31EE
100
AcDbSortentsTable
330
1F
331
53DFB
  5
53DFB
331
68C
  5
3C6B0
  0
SORTENTSTABLE
  5
54B4E
102
{ACAD_REACTORS
330
3BEB2
102
}
330
3BEB2
100
AcDbSortentsTable
330
680
  0
XRECORD
  5
56266
102
{ACAD_REACTORS
330
56265
102
}
330
56265
100
AcDbXrecord
280
     1
102
SHADEPLOT
 70
     0
  0
XRECORD
  5
56268
102
{ACAD_REACTORS
330
56267
102
}
330
56267
100
AcDbXrecord
280
     1
102
SHADEPLOT
 70
     0
  0
DIMASSOC
  5
55FF9
102
{ACAD_REACTORS
330
55FF8
102
}
330
55FF8
100
AcDbDimAssoc
330
55FF7
 90
        2
 70
     0
 71
     0
  1
AcDbOsnapPointRef
 72
     3
331
55FE6
 73
     2
 91
        0
 40
0.0
 10
0.0
 20
0.0
 30
0.0
 75
     0
  0
DIMASSOC
  5
560C6
102
{ACAD_REACTORS
330
560C5
102
}
330
560C5
100
AcDbDimAssoc
330
560C4
 90
        3
 70
     0
 71
     0
  1
AcDbOsnapPointRef
 72
     2
331
56110
 73
     2
 91
        0
 40
0.5
 10
0.0
 20
0.0
 30
0.0
 75
     0
  1
AcDbOsnapPointRef
 72
     2
331
5610F
 73
     2
 91
        0
 40
0.5
 10
0.0
 20
0.0
 30
0.0
 75
     0
  0
DIMASSOC
  5
5610E
102
{ACAD_REACTORS
330
5610D
102
}
330
5610D
100
AcDbDimAssoc
330
5610C
 90
        1
 70
     0
 71
     0
  1
AcDbOsnapPointRef
 72
     1
331
56106
 73
     2
 91
        0
 40
1.0
 10
0.0
 20
0.0
 30
2.000000000000000E+50
 75
     0
  0
DIMASSOC
  5
5611F
102
{ACAD_REACTORS
330
5611E
102
}
330
5611E
100
AcDbDimAssoc
330
5611D
 90
        1
 70
     0
 71
     0
  1
AcDbOsnapPointRef
 72
     1
331
56113
 73
     2
 91
        0
 40
1.0
 10
0.0
 20
0.0
 30
2.000000000000000E+50
 75
     0
  0
XRECORD
  5
56262
102
{ACAD_REACTORS
330
56261
102
}
330
56261
100
AcDbXrecord
280
     1
102
SHADEPLOT
 70
     0
  0
XRECORD
  5
56264
102
{ACAD_REACTORS
330
56263
102
}
330
56263
100
AcDbXrecord
280
     1
102
SHADEPLOT
 70
     0
  0
LAYOUT
  5
51
102
{ACAD_XDICTIONARY
360
B2
102
}
102
{ACAD_REACTORS
330
1A
102
}
330
1A
100
AcDbPlotSettings
  1

  2
none_device
  4
Letter_(8.50_x_11.00_Inches)
  6

 40
6.349999904632567
 41
6.349999904632567
 42
6.350006103515625
 43
6.350006103515625
 44
215.8999938964844
 45
279.3999938964844
 46
0.0
 47
0.0
 48
0.0
 49
0.0
140
0.0
141
0.0
142
1.0
143
1.0
 70
   688
 72
     1
 73
     1
 74
     5
  7

 75
    16
147
1.0
148
0.0
149
0.0
100
AcDbLayout
  1
\M+1838C\M+18343\M+18341\M+18345\M+183671
 70
     1
 71
     1
 10
-6.350006103515625
 20
-6.349999904632567
 11
273.0499877929688
 21
209.5499939918518
 12
0.0
 22
0.0
 32
0.0
 14
26.66999878883364
 24
20.31999878883365
 34
0.0
 15
240.0299890995025
 25
182.8799890995025
 35
0.0
146
0.0
 13
0.0
 23
0.0
 33
0.0
 16
1.0
 26
0.0
 36
0.0
 17
0.0
 27
1.0
 37
0.0
 76
     0
330
50
331
6B
  0
LAYOUT
  5
56
102
{ACAD_XDICTIONARY
360
B5
102
}
102
{ACAD_REACTORS
330
1A
102
}
330
1A
100
AcDbPlotSettings
  1

  2
none_device
  4
Letter_(8.50_x_11.00_Inches)
  6

 40
6.349999904632567
 41
6.349999904632567
 42
6.350006103515625
 43
6.350006103515625
 44
215.8999938964844
 45
279.3999938964844
 46
0.0
 47
0.0
 48
0.0
 49
0.0
140
0.0
141
0.0
142
1.0
143
1.0
 70
   688
 72
     1
 73
     1
 74
     5
  7

 75
    16
147
1.0
148
0.0
149
0.0
100
AcDbLayout
  1
\M+1838C\M+18343\M+18341\M+18345\M+183672
 70
     1
 71
     2
 10
-6.350006103515625
 20
-6.349999904632567
 11
273.0499877929688
 21
209.5499939918518
 12
0.0
 22
0.0
 32
0.0
 14
26.66999878883363
 24
20.31999878883363
 34
0.0
 15
240.0299890995026
 25
182.8799890995025
 35
0.0
146
0.0
 13
0.0
 23
0.0
 33
0.0
 16
1.0
 26
0.0
 36
0.0
 17
0.0
 27
1.0
 37
0.0
 76
     0
330
55
331
71
  0
LAYOUT
  5
22
102
{ACAD_XDICTIONARY
360
5625D
102
}
102
{ACAD_REACTORS
330
1A
102
}
330
1A
100
AcDbPlotSettings
  1

  2
none_device
  4
ANSI_A_(8.50_x_11.00_Inches)
  6

 40
6.349999904632567
 41
19.04999923706055
 42
6.350006103515625
 43
19.04998779296875
 44
215.8999938964844
 45
279.3999938964844
 46
0.0
 47
0.0
 48
0.0
 49
0.0
140
0.0
141
0.0
142
1.0
143
78.436453180766
 70
 11952
 72
     0
 73
     1
 74
     0
  7

 75
     0
147
0.0127491741332998
148
0.0
149
0.0
100
AcDbLayout
  1
Model
 70
     1
 71
     0
 10
0.0
 20
0.0
 11
12.0
 21
9.0
 12
0.0
 22
0.0
 32
0.0
 14
0.0
 24
0.0
 34
0.0
 15
0.0
 25
0.0
 35
0.0
146
0.0
 13
0.0
 23
0.0
 33
0.0
 16
1.0
 26
0.0
 36
0.0
 17
0.0
 27
1.0
 37
0.0
 76
     0
330
1F
  0
MLINESTYLE
  5
18
102
{ACAD_REACTORS
330
17
102
}
330
17
100
AcDbMlineStyle
  2
STANDARD
 70
     0
  3

 62
   256
 51
90.0
 52
90.0
 71
     2
 49
0.5
 62
   256
  6
BYLAYER
 49
-0.5
 62
   256
  6
BYLAYER
  0
ACDBPLACEHOLDER
  5
F
102
{ACAD_REACTORS
330
E
102
}
330
E
  0
TABLESTYLE
  5
A2
102
{ACAD_REACTORS
330
A1
102
}
330
A1
100
AcDbTableStyle
  3
Standard
 70
     0
 71
     0
 40
1.5
 41
1.5
280
     0
281
     0
  7
Standard
140
4.5
170
     2
 62
     0
 63
     7
283
     0
274
    -2
284
     1
 64
     0
275
    -2
285
     1
 65
     0
276
    -2
286
     1
 66
     0
277
    -2
287
     1
 67
     0
278
    -2
288
     1
 68
     0
279
    -2
289
     1
 69
     0
  7
Standard
140
6.0
170
     5
 62
     0
 63
     7
283
     0
274
    -2
284
     1
 64
     0
275
    -2
285
     1
 65
     0
276
    -2
286
     1
 66
     0
277
    -2
287
     1
 67
     0
278
    -2
288
     1
 68
     0
279
    -2
289
     1
 69
     0
  7
Standard
140
4.5
170
     5
 62
     0
 63
     7
283
     0
274
    -2
284
     1
 64
     0
275
    -2
285
     1
 65
     0
276
    -2
286
     1
 66
     0
277
    -2
287
     1
 67
     0
278
    -2
288
     1
 68
     0
279
    -2
289
     1
 69
     0
  0
DICTIONARYVAR
  5
B8
102
{ACAD_REACTORS
330
5E
102
}
330
5E
100
DictionaryVariables
280
     0
  1
STANDARD
  0
DICTIONARYVAR
  5
5F
102
{ACAD_REACTORS
330
5E
102
}
330
5E
100
DictionaryVariables
280
     0
  1
2
  0
DICTIONARYVAR
  5
63
102
{ACAD_REACTORS
330
5E
102
}
330
5E
100
DictionaryVariables
280
     0
  1
1
  0
DICTIONARYVAR
  5
31CE
102
{ACAD_REACTORS
330
5E
102
}
330
5E
100
DictionaryVariables
280
     0
  1

  0
XRECORD
  5
349EA
102
{ACAD_REACTORS
330
349E9
102
}
330
349E9
100
AcDbXrecord
280
     1
330
68C
330
0
330
0
330
0
330
0
330
0
330
0
330
0
330
0
330
0
330
0
330
0
330
0
330
0
330
0
330
0
330
0
330
0
330
0
330
0
330
0
330
0
330
0
330
0
330
0
330
0
330
0
330
0
330
0
330
0
330
0
330
0
330
0
330
0
330
0
330
0
330
0
330
0
330
0
330
0
330
0
330
0
330
0
330
0
330
0
330
0
330
0
330
0
330
0
330
0
330
0
330
0
330
0
330
0
330
0
330
0
330
0
330
0
330
0
330
0
330
0
330
0
330
0
330
0
330
0
330
0
330
0
330
0
330
0
330
0
330
0
330
0
330
0
330
0
330
0
330
0
330
0
330
0
330
0
330
0
330
0
330
0
330
0
330
0
330
0
330
0
330
0
330
0
330
0
330
0
330
0
330
0
330
0
330
0
330
0
330
0
330
0
330
0
330
0
330
0
330
0
330
0
330
0
330
0
330
0
330
0
330
0
330
0
330
0
330
0
  0
DICTIONARY
  5
B2
330
51
100
AcDbDictionary
280
     1
281
     1
  3
ACAD_XREC_ROUNDTRIP
360
5625F
  3
ADSK_XREC_LAYOUTTHUMBNAIL
360
B3
  0
DICTIONARY
  5
B5
330
56
100
AcDbDictionary
280
     1
281
     1
  3
ACAD_XREC_ROUNDTRIP
360
56260
  3
ADSK_XREC_LAYOUTTHUMBNAIL
360
B6
  0
DICTIONARY
  5
5625D
330
22
100
AcDbDictionary
280
     1
281
     1
  3
ACAD_XREC_ROUNDTRIP
360
5625E
  0
XRECORD
  5
5625F
102
{ACAD_REACTORS
330
B2
102
}
330
B2
100
AcDbXrecord
280
     1
102
SHADEPLOT
 70
     0
102
SHADEPLOTRESLEVEL
 70
     2
102
SHADEPLOTCUSTOMDPI
 70
   300
  0
XRECORD
  5
B3
102
{ACAD_REACTORS
330
B2
102
}
330
B2
100
AcDbXrecord
280
     1
310
28000000B40000008B0000000100080000000000BC61000000000000000000000001000000000000FFFFFF0000000000FFFFFF000000000000000000000000000000000000000000000000000000000000000000330000006600000099000000CC000000FF00000000330000333300006633000099330000CC330000FF3300
310
0000660000336600006666000099660000CC660000FF66000000990000339900006699000099990000CC990000FF99000000CC000033CC000066CC000099CC0000CCCC0000FFCC000000FF000033FF000066FF000099FF0000CCFF0000FFFF000000003300330033006600330099003300CC003300FF003300003333003333
310
33006633330099333300CC333300FF33330000663300336633006666330099663300CC663300FF66330000993300339933006699330099993300CC993300FF99330000CC330033CC330066CC330099CC3300CCCC3300FFCC330000FF330033FF330066FF330099FF3300CCFF3300FFFF330000006600330066006600660099
310
006600CC006600FF00660000336600333366006633660099336600CC336600FF33660000666600336666006666660099666600CC666600FF66660000996600339966006699660099996600CC996600FF99660000CC660033CC660066CC660099CC6600CCCC6600FFCC660000FF660033FF660066FF660099FF6600CCFF6600
310
FFFF660000009900330099006600990099009900CC009900FF00990000339900333399006633990099339900CC339900FF33990000669900336699006666990099669900CC669900FF66990000999900339999006699990099999900CC999900FF99990000CC990033CC990066CC990099CC9900CCCC9900FFCC990000FF99
310
0033FF990066FF990099FF9900CCFF9900FFFF99000000CC003300CC006600CC009900CC00CC00CC00FF00CC000033CC003333CC006633CC009933CC00CC33CC00FF33CC000066CC003366CC006666CC009966CC00CC66CC00FF66CC000099CC003399CC006699CC009999CC00CC99CC00FF99CC0000CCCC0033CCCC0066CC
310
CC0099CCCC00CCCCCC00FFCCCC0000FFCC0033FFCC0066FFCC0099FFCC00CCFFCC00FFFFCC000000FF003300FF006600FF009900FF00CC00FF00FF00FF000033FF003333FF006633FF009933FF00CC33FF00FF33FF000066FF003366FF006666FF009966FF00CC66FF00FF66FF000099FF003399FF006699FF009999FF00CC
310
99FF00FF99FF0000CCFF0033CCFF0066CCFF0099CCFF00CCCCFF00FFCCFF0000FFFF0033FFFF0066FFFF0099FFFF00CCFFFF00FFFFFF00000000000D0D0D001A1A1A00282828003535350043434300505050005D5D5D006B6B6B00787878008686860093939300A1A1A100AEAEAE00BBBBBB00C9C9C900D6D6D600E4E4E400
310
F1F1F100FFFFFF0000000000000000000000000000000000000000000000000000000000000000000000000000000000E2E2E2E2E2E2E2E2E2E2E2E2E2E2E2E2E2E2E2E2E2E2E2E2E2E2E2E2E2E2E2E2E2E2E2E2E2E2E2E2E2E2E2E2E2E2E2E2E2E2E2E2E2E2E2E2E2E2E2E2E2E2E2E2E2E2E2E2E2E2E2E2E2E2E2E2E2E2E2
310
E2E2E2E2E2E2E2E2E2E2E2E2E2E2E2E2E2E2E2E2E2E2E2E2E2E2E2E2E2E2E2E2E2E2E2E2E2E2E2E2E2E2E2E2E2E2E2E2E2E2E2E2E2E2E2E2E2E2E2E2E2E2E2E2E2E2E2E2E2E2E2E2E2E2E2E2E2E2E2E2E2E2E2E2E2E2E2E2E2E2E2E2E2E2E2E2E2E2E2E2E2E2F5F5F5F5F5F5F5F5F5F5F5F5F5F5F5F5F5F5F5F5F5F5F5F5F5
310
F5F5F5F5F5F5F5F5F5F5F5F5F5F5F5F5F5F5F5F5F5F5F5F5F5F5F5F5F5F5F5F5F5F5F5F5F5F5F5F5F5F5F5F5F5F5F5F5F5F5F5F5F5F5F5F5F5F5F5F5F5F5F5F5F5F5F5F5F5F5F5F5F5F5F5F5F5F5F5F5F5F5F5F5F5F5F5F5F5F5F5F5F5F5F5F5F5F5F5F5F5F5F5F5F5F5F5F5F5F5F5F5F5F5F5F5F5F5F5F5F5F5F5F5F5F5F5
310
F5F5F5F5F5F5F5F5F5F5F5F5F5F5F5F5F5F5F5F5F5F5F5F5F5F5E2E2F5F5F5F5F5F5F5F5F5F5F5F5F5F5F5F5F5F5F5F5F5F5F5F5F5F5F5F5F5F5F5F5F5F5F5F5F5F5F5F5F5F5F5F5F5F5F5F5F5F5F5F5F5F5F5F5F5F5F5F5F5F5F5F5F5F5F5F5F5F5F5F5F5F5F5F5F5F5F5F5F5F5F5F5F5F5F5F5F5F5F5F5F5F5F5F5F5F5F5
310
F5F5F5F5F5F5F5F5F5F5F5F5F5F5F5F5F5F5F5F5F5F5F5F5F5F5F5F5F5F5F5F5F5F5F5F5F5F5F5F5F5F5F5F5F5F5F5F5F5F5F5F5F5F5F5F5F5F5F5F5F5F5F5F5F5F5F5F5F5F5F5F5F5F5F5F5F5F5F5E2E2F5F5F5F5F5F5F5F5F5F5F5F5F5F5F5F5F5F5F5F5F5F5F5F5F5F5F5F5F5F5F5F5F5F5F5F5F5F5F5F5F5F5F5F5F5F5
310
F5F5F5F5F5F5F5F5F5F5F5F5F5F5F5F5F5F5F5F5F5F5F5F5F5F5F5F5F5F5F5F5F5F5F5F5F5F5F5F5F5F5F5F5F5F5F5F5F5F5F5F5F5F5F5F5F5F5F5F5F5F5F5F5F5F5F5F5F5F5F5F5F5F5F5F5F5F5F5F5F5F5F5F5F5F5F5F5F5F5F5F5F5F5F5F5F5F5F5F5F5F5F5F5F5F5F5F5F5F5F5F5F5F5F5F5F5F5F5F5F5F5F5F5F5F5F5
310
F5F5F5F5F5E2E2F5F5F5F5E2E2E2E2E2E2E2E2F5F5F5F5F5F5F5F5F5E2E2E2E2E2E2E2E2E2E2E2E2E2E2E2F5F5F5F5F5F5F5F5F5E2E2E2E2E2E2E2E2E2E2E2E2E2E2E2E2F5F5F5F5F5F5F5F5E2E2E2E2E2E2E2E2E2E2E2E2E2E2E2E2F5F5F5F5F5F5F5F5E2E2E2E2E2E2E2E2E2E2E2E2E2E2E2E2F5F5F5F5F5F5F5F5E2E2E2
310
E2E2E2E2E2E2E2E2E2E2E2E2E2F5F5F5F5F5F5F5F5F5E2E2E2E2E2E2E2E2E2E2E2E2E2E2E2F5F5F5F5F5F5F5F5F5E2E2E2E2E2E2E2E2F5F5F5F5E2E2F5F5F5F5E2F5F5F5F5F5F5F5F5F5F5F5F5F5F5F5F5F5F5F5F5F5F5F5F5F5F5F5F5F5F5F5F5F5F5F5F5F5F5F5F5F5F5F5F5F5F5F5F5F5F5F5F5F5F5F5F5F5F5F5F5F5F5
310
F5F5F5F5F5F5F5F5F5F5F5F5F5F5F5F5F5F5F5F5F5F5F5F5F5F5F5F5F5F5F5F5F5F5F5F5F5F5F5F5F5F5F5F5F5F5F5F5F5F5F5F5F5F5F5F5F5F5F5F5F5F5F5F5F5F5F5F5F5F5F5F5F5F5F5F5F5F5F5F5F5F5F5F5F5F5F5F5F5F5F5F5F5F5F5F5F5F5F5F5F5F5F5F5F5F5E2F5F5F5F5E2E2F5F5F5F5E2F5F5F5F5F5F5F5F5F5
310
F5F5F5F5F5F5F5F5F5F5F5F5F5F5F5F5F5F5F5F5F5F5F5F5F5F5F5F5F5F5F5F5F5F5F5F5F5F5F5F5F5F5F5F5F5F5F5F5F5F5F5F5F5F5F5F5F5F5F5F5F5F5F5F5F5F5F5F5F5F5F5F5F5F5F5F5F5F5F5F5F5F5F5F5F5F5F5F5F5F5F5F5F5F5F5F5F5F5F5F5F5F5F5F5F5F5F5F5F5F5F5F5F5F5F5F5F5F5F5F5F5F5F5F5F5F5F5
310
F5F5F5F5F5F5F5F5F5F5F5F5F5F5F5F5F5F5F5F5F5F5F5F5F5F5F5F5F5F5F5F5E2F5F5F5F5E2E2F5F5F5F5E2F5F5F5F5F5F5F5F5F5F5F5F5F5F5F5F5F5F5F5F5F5F5F5F5F5F5F5F5F5F5F5F5F5F5F5F5F5F5F5F5F5F5F5F5F5F5F5F5F5F5F5F5F5F5F5F5F5F5F5F5F5F5F5F5F5F5F5F5F5F5F5F5F5F5F5F5F5F5F5F5F5F5F5
310
F5F5F5F5F5F5F5F5F5F5F5F5F5F5F5F5F5F5F5F5F5F5F5F5F5F5F5F5F5F5F5F5F5F5F5F5F5F5F5F5F5F5F5F5F5F5F5F5F5F5F5F5F5F5F5F5F5F5F5F5F5F5F5F5F5F5F5F5F5F5F5F5F5F5F5F5F5F5F5F5F5F5F5F5F5E2F5F5F5F5E2E2F5F5F5F5E2F5F5F5F5F5F5F5F5F5F5F5F5F5F5F5F5F5F5F5F5F5F5F5F5F5F5F5F5F5F5
310
F5F5F5F5F5F5F5F5F5F5F5F5F5F5F5F5F5F5F5F5F5F5F5F5F5F5F5F5F5F5F5F5F5F5F5F5F5F5F5F5F5F5F5F5F5F5F5F5F5F5F5F5F5F5F5F5F5F5F5F5F5F5F5F5F5F5F5F5F5F5F5F5F5F5F5F5F5F5F5F5F5F5F5F5F5F5F5F5F5F5F5F5F5F5F5F5F5F5F5F5F5F5F5F5F5F5F5F5F5F5F5F5F5F5F5F5F5F5F5F5F5F5F5F5F5F5F5
310
F5F5F5F5F5F5F5F5F5F5F5E2F5F5F5F5E2E2F5F5F5F5E2F5F5F5F5F5F5F5F5F5F5F5F5F5F5F5F5F5F5F5F5F5F5F5F5F5F5F5F5F5F5F5F5F5F5F5F5F5F5F5F5F5F5F5F5F5F5F5F5F5F5F5F5F5F5F5F5F5F5F5F5F5F5F5F5F5F5F5F5F5F5F5F5F5F5F5F5F5F5F5F5F5F5F5F5F5F5F5F5F5F5F5F5F5F5F5F5F5F5F5F5F5F5F5F5
310
F5F5F5F5F5F5F5F5F5F5F5F5F5F5F5F5F5F5F5F5F5F5F5F5F5F5F5F5F5F5F5F5F5F5F5F5F5F5F5F5F5F5F5F5F5F5F5F5F5F5F5F5F5F5F5F5F5F5F5F5F5F5F5F5E2F5F5F5F5E2E2F5F5F5F5E2F5F5F5F5F5F5F5F5F5F5F5F5F5F5F5F5F5F5F5F5F5F5F5F5F5F5F5F5F5F5F5F5F5F5F5F5F5F5F5F5F5F5F5F5F5F5F5F5F5F5F5
310
F5F5F5F5F5F5F5F5F5F5F5F5F5F5F5F5F5F5F5F5F5F5F5F5F5F5F5F5F5F5F5F5F5F5F5F5F5F5F5F5F5F5F5F5F5F5F5F5F5F5F5F5F5F5F5F5F5F5F5F5F5F5F5F5F5F5F5F5F5F5F5F5F5F5F5F5F5F5F5F5F5F5F5F5F5F5F5F5F5F5F5F5F5F5F5F5F5F5F5F5F5F5F5F5F5F5F5F5F5F5F5F5F5F5F5F5F5E2F5F5F5F5E2E2F5F5F5
310
F5E2F5F5F5F5F5F5F5F5F5F5F5F5F5F5F5F5F5F5F5F5F5F5F5F5F5F5F5F5F5F5F5F5F5F5F5F5F5F5F5F5F5F5F5F5F5F5F5F5F5F5F5F5F5F5F5F5F5F5F5F5F5F5F5F5F5F5F5F5F5F5F5F5F5F5F5F5F5F5F5F5F5F5F5F5F5F5F5F5F5F5F5F5F5F5F5F5F5F5F5F5F5F5F5F5F5F5F5F5F5F5F5F5F5F5F5F5F5F5F5F5F5F5F5F5F5
310
F5F5F5F5F5F5F5F5F5F5F5F5F5F5F5F5F5F5F5F5F5F5F5F5F5F5F5F5F5F5F5F5F5F5F5F5F5F5F5F5F5F5F5E2F5F5F5F5E2E2F5F5F5F5E2F5F5F5F5F5F5F5F5F5F5F5F5F5F5F5F5F5F5F5F5F5F5F5F5F5F5F5F5F5F5F5F5F5F5F5F5F5F5F5F5F5F5F5F5F5F5F5F5F5F5F5F5F5F5F5F5F5F5F5F5F5F5F5F5F5F5F5F5F5F5F5F5
310
F5F5F5F5F5F5F5F5F5F5F5F5F5F5F5F5F5F5F5F5F5F5F5F5F5F5F5F5F5F5F5F5F5F5F5F5F5F5F5F5F5F5F5F5F5F5F5F5F5F5F5F5F5F5F5F5F5F5F5F5F5F5F5F5F5F5F5F5F5F5F5F5F5F5F5F5F5F5F5F5F5F5F5F5F5F5F5F5F5F5F5F5F5F5F5F5E2F5F5F5F5E2E2F5F5F5F5F5F5F5F5F5F5F5F5F5F5F5F5F5F5F5F5F5F5F5F5
310
F5F5F5F5F5F5F5F5F5F5F5F5F5F5F5F5F5F5F5F5F5F5F5F5F5F5F5F5F5F5F5F5F5F5F5F5F5F5F5F5F5F5F5F5F5F5F5F5F5F5F5F5F5F5F5F5F5F5F5F5F5F5F5F5F5F5F5F5F5F5F5F5F5F5F5F5F5F5F5F5F5F5F5F5F5F5F5F5F5F5F5F5F5F5F5F5F5F5F5F5F5F5F5F5F5F5F5F5F5F5F5F5F5F5F5F5F5F5F5F5F5F5F5F5F5F5F5
310
F5F5F5F5F5F5F5F5F5F5F5F5F5F5F5F5F5F5F5F5F5F5F5F5F5F5F5E2E2F5F5F5F5F5F5F5F5F5F5F5F5F5F5F5F5F5F5F5F5F5F5F5F5F5F5F5F5F5F5F5F5F5F5F5F5F5F5F5F5F5F5F5F5F5F5F5F5F5F5F5F5F5F5F5F5F5F5F5F5F5F5F5F5F5F5F5F5F5F5F5F5F5F5F5F5F5F5F5F5F5F5F5F5F5F5F5F5F5F5F5F5F5F5F5F5F5F5
310
F5F5F5F5F5F5F5F5F5F5F5F5F5F5F5F5F5F5F5F5F5F5F5F5F5F5F5F5F5F5F5F5F5F5F5F5F5F5F5F5F5F5F5F5F5F5F5F5F5F5F5F5F5F5F5F5F5F5F5F5F5F5F5F5F5F5F5F5F5F5F5F5F5F5F5F5F5F5F5F5E2E2F5F5F5F5F5F5F5F5F5F5F5F5F5F5F5F5F5F5F5F5F5F5F5F5F5F5F5F5F5F5F5F5F5F5F5F5F5F5F5F5F5F5F5F5F5
310
F5F5F5F5F5F5F5F5F5F5F5F5F5F5F5F5F5F5F5F5F5F5F5F5F5F5F5F5F5F5F5F5F5F5F5F5F5F5F5F5F5F5F5F5F5F5F5F5F5F5F5F5F5F5F5F5F5F5F5F5F5F5F5F5F5F5F5F5F5F5F5F5F5F5F5F5F5F5F5F5F5F5F5F5F5F5F5F5F5F5F5F5F5F5F5F5F5F5F5F5F5F5F5F5F5F5F5F5F5F5F5F5F5F5F5F5F5F5F5F5F5F5F5F5F5F5F5
310
F5F5F5F5F5F5E2E2F5F5F5F5F5F5F5F5F5F5F5F5F5F5F5F5F5F5F5F5F5F5F5F5F5F5F5F5F5F5F5F5F5F5F5F5F5F5F5F5F5F5F5F5F5F5F5F5F5F5F5F5F5F5F5F5F5F5F5F5F5F5F5F5F5F5F5F5F5F5F5F5F5F5F5F5F5F5F5F5F5F5F5F5F5F5F5F5F5F5F5F5F5F5F5F5F5F5F5F5F5F5F5F5F5F5F5F5F5F5F5F5F5F5F5F5F5F5F5
310
F5F5F5F5F5F5F5F5F5F5F5F5F5F5F5F5F5F5F5F5F5F5F5F5F5F5F5F5F5F5F5F5F5F5F5F5F5F5F5F5F5F5F5F5F5F5F5F5F5F5F5F5F5F5F5F5F5F5F5E2E2F5F5F5F5F5F5F5F5F5F5F5F5F5F5F5F5F5F5F5F5F5E2E2E2E2E2E2E2E2E2E2E2E2E2E2E2E2E2E2E2E2E2E2E2E2E2E2E2E2E2E2E2E2E2E2E2E2E2E2E2E2E2E2E2E2E2
310
E2E2E2E2E2E2E2E2E2E2E2E2E2E2E2E2E2E2E2E2E2E2E2E2E2E2E2E2E2E2E2E2E2E2E2E2E2E2E2E2E2E2E2E2E2E2E2E2E2E2E2E2E2E2E2E2E2E2E2E2E2E2E2E2E2E2E2E2E2E2E2E2E2E2E2E2E2E2E2E2E2E2E2E2E2E2E2E2E2E2E2F5F5F5F5F5F5F5F5F5F5F5F5F5F5F5F5F5F5F5F5F5E2E2F5F5F5F5F5F5F5F5F5F5F5F5F5
310
F5F5F5F5F5F5F5F5E22D2D2D2D2D2D2D2D2D2D2D2DF5F5F5F5F5F5F5F5F5F5F5F5F5F5F5E2F5F5F5F5F5F5F5F5F5F5F5F5F5F5F5F5F5F5F5F5F5F5F5F5F5F5F5F5F5F5F5F5F5F5F5F5F5F5F5F5F5F5F5F5F5F5F5F5F5F5F5F5F5F5F5F5F5F5F5F5F5F5F5F5F5F5F5F5F5F5F5F5F5F5F5F5F5F5F5F5F5F5F5F5F5F5F5F5F5F5
310
F5F5F5F5F5F5F5F5F5F5F5F5F5F5F5F5E2F5F5F5F5F5F5F5F5F5F5F5F5F5F5F5F5F5F5F5F5F5E2E2F5F5F5F5F5F5F5F5F5F5F5F5F5F5F5F5F5F5F5F5F5E22D2D2DF5F5E2F5F5F5F5F52DF5F5F5F5F5F5F5F5F5F5F5F5F5F5F5E2F5F5F5F5F5F5F5F5F5F5F5F5F5F5F5F5F5F5F5F5F5F5F5F5F5F5F5F5F5F5F5F5F5F5F5F5F5
310
F5F5F5F5F5F5F5F5F5F5F5F5F5F5F5F5F5F5F5F5F5F5F5F5F5F5F5F5F5F5F5F5F5F5F5F5F5F5F5F5F5F5F5F5F5F5F5F5F5F5F5F5F5F5F5F5F5F5F5F5F5F5F5F5F5F5F5F5F5E2F5F5F5F5F5F5F5F5F5F5F5F5F5F5F5F5F5F5F5F5F5E2E2F5F5F5F5F5F5F5F5F5F5F5F5F5F5F5F5F5F5F5F5F5E2DCF52DF5F5E2F5F5F5F5F52D
310
F5F5F5F5F5F5F5F5F5F5F5F5F5F5F5E2F5F5F5F5F5F5F5F5F5F5F5F5F5F5F5F5F5F5F5F5F5F5F5F5F5F5F5F5F5F5F5F5F5F5F5F5F5F5F5F5F5F5F5F5F5F5F5F5F5F5F5F5F5F5F5F5F5F5F5F5F5F5F5F5F5F5F5F5F5F5F5F5F5F5F5F5F5F5F5F5F5F5F5F5F5F5F5F5F5F5F5F5F5F5F5F5F5F5F5F5F5F5F5F5F5F5E2F5F5F5F5
310
F5F5F5F5F5F5F5F5F5F5F5F5F5F5F5F5F5E2E2F5F5F5F5F5F5F5F5F5F5F5F5F5F5F5F5F5F5F5F5F5E2BEF52D2D2D2D2D2D2D2DE2E2E2E2E2E2E2E2E2E2E2E2E2E2E2E2E2E2F5F5F5F5F5F5F5F5F5F5F5F5F5F5F5F5F5F5F5F5F5F5F5F5F5F5F5F5F5F5F5F5F5F5F5F5F5F5F5F5F5F5F5F5F5F5F5F5F5F5F5F5F5F5F5F5F5F5
310
F5F5F5F5F5F5F5F5F5F5F5F5F5F5F5F5F5F5F5F5F5F5F5F5F5F5F5F5F5F5F5F5F5F5F5F5F5F5F5F5F5F5F5F5F5F5F5F5E2F5F5F5F5F5F5F5F5F5F5F5F5F5F5F5F5F5F5F5F5F5E2E2F5F5F5F5E2F5F5F5F5F5F5F5F5F5F5F5F5F5F5F5F5E2DCF5F5F5F5E2F5F5F5F5F5E2F5F5F5F5F5F5F5F5F5F5F5F5F5F5F5F5F5F5F5F5F5
310
F5F5F5F5F5F5F5F5F5F5F5F5F5F5F5F5F5F5F5F5F5F5F5F5F5F5F5F5F5F5F5F5F5F5F5F5F5F5F5F5F5F5F5F5F5F5F5F5F5F5F5F5F5F5F5F5F5F5F5F5F5F5F5F5F5F5F5F5F5F5F5F5F5F5F5F5F5F5F5F5F5F5F5F5F5F5F5F5F5F5F5F5F5F5F5F5F5F5F5F5F5E2F5F5F5F5F5F5F5F5F5F5F5F5F5F5F5F5E2F5F5F5F5E2E2F5F5
310
F5F5E2F5F5F5F5F5F5F5F5F5F5F5F5F5F5F5F5E2F5F5F5F5F5E2F5F5F5F5F5E2F5F5F5F5F5F5F5F5F5F5F5F5F5F5F5F5F5F5F5F5F5F5F5F5F5F5F5F5F5F5F5F5F5F5F5F5F5F5F5F5F5F5F5F5F5F5F5F5F5F5F5F5F5F5F5F5F5F5F5F5F5F5F5F5F5F5F5F5F5F5F5F5F5F5F5F5F5F5F5F5F5F5F5F5F5F5F5F5F5F5F5F5F5F5F5
310
F5F5F5F5F5F5F5F5F5F5F5F5F5F5F5F5F5F5F5F5F5F5F5F5F5F5F5E2F5F5F5F5F5F5F5F5F5F5F5F5F5F5F5F5E2F5F5F5F5E2E2F5F5F5F5E2F5F5F5F5F5F5F5F5F5F5F5F5F5F5F5F5E2F5F5F5F5F5E2F5F5F5F5F5E2F5F5F5F5F5F5F5F5F5F5F5F5F5F5F5F5F5F5F5F5F5F5F5F5F5F5F5F5F5F5F5F5F5F5F5F5F5F5F5F5F5F5
310
F5F5F5F5F5F5F5F5F5F5F5F5F5F5F5F5F5F5F5F5F5F5F5F5F5F5F5F5F5F5F5F5F5F5F5F5F5F5F5F5F5F5F5F5F5F5F5F5F5F5F5F5F5F5F5F5F5F5F5F5F5F5F5F5F5F5F5F5F5F5F5F5F5F5F5F5F5F5F5F5E2F5F5F5F5F5F5F5F5F5F5F5F5F5F5F5F5E2F5F5F5F5E2E2F5F5F5F5E2F5F5F5F5F5F5F5F5F5F5F5F5F5F5F5F5E2F5
310
F5F5F5F5E2F5F5F5F5F5E2F5F5F5F5F5F5F5F5F5F5F5F5F5F5F5F5F5F5F5F5F5F5F5F5F5F5F5F5F5F5F5F5F5F5F5F5F5F5F5F5F5F5F5F5F5F5F5F5F5F5F5F5F5F5F5F5F5F5F5F5F5F5F5F5F5F5F5F5F5F5F5F5F5F5F5F5F5F5F5F5F5F5F5F5F5F5F5F5F5F5F5F5F5F5F5F5F5F5F5F5F5F5F5F5F5F5F5F5F5F5F5F5F5F5F5F5
310
F5F5F5F5F5F5E2F5F5F5F5F5F5F5F5F5F5F5F5F5F5F5F5E2F5F5F5F5E2E2F5F5F5F5E2F5F5F5F5F5F5F5F5F5F5F5F5F5F5F5F5E2E2E2E2E2E2E2F5F5F5F5F5E2F5F5F5F5F5F5F5F5F5F5F5F5F5F5F5F5F5F5F5F5F5F5F5F5F5F5F5F5F5F5F5F5F5F5F5F5F5F5F5F5F5F5F5F5F5F5F5F5F5F5F5F5F5F5F5F5F5F5F5F5F5F5F5
310
F5F5F5F5F5F5F5F5F5F5F5F5F5F5F5F5F5F5F5F5F5F5F5F5F5F5F5F5F5F5F5F5F5F5F5F5F5F5F5F5F5F5F5F5F5F5F5F5F5F5F5F5F5F5F5F5F5F5F5E2F5F5F5F5F5F5F5F5F5F5F5F5F5F5F5F5E2F5F5F5F5E2E2F5F5F5F5E2F5F5F5F5F5F5F5F5F5F5F5F5F5F5F5F5E2E2E2E2F5E2E2F5F5F5F5F5E2F5F5F5F5F5F5F5F5F5F5
310
F5F5F5F5F5F5F5F5F5F5F5F5F5F5F5F5F5F5F5F5F5F5F5F5F5F5F5F5F5F5F5F5F5F5F5F5F5F5F5F5F5F5F5F5F5F5F5F5F5F5F5F5F5F5F5F5F5F5F5F5F5F5F5F5F5F5F5F5F5F5F5F5F5F5F5F5F5F5F5F5F5F5F5F5F5F5F5F5F5F5F5F5F5F5F5F5F5F5F5F5F5F5F5F5F5F5F5F5F5F5F5F5E2F5F5F5F5F5F5F5F5F5F5F5F5F5F5
310
F5F5E2F5F5F5F5E2E2F5F5F5F5E2F5F5F5F5F5F5F5F5F5F5F5F5F5F5F5F5E2E2E2E2F5F5F5F5F5F5F5F5E2F5F5F5F5F5F5F5F5F5F5F5F5F5F5F5F5F5F5F5F5F5F5F5F5F5F5F5F5F5F5F5F5F5F5F5F5F5F5F5F5F5F5F5F5F5F5F5F5F5F5F5F5F5F5F5F5F5F5F5F5F5F5F5F5F5F5F5F5F5F5F5F5F5F5F5F5F5F5F5F5F5F5F5F5
310
F5F5F5F5F5F5F5F5F5F5F5F5F5F5F5F5F5F5F5F5F5F5F5F5F5F5F5F5F5F5F5F5F5F5F5F5F5F5E2F5F5F5F5F5F5F5F5F5F5F5F5F5F5F5F5E2F5F5F5F5E2E2F5F5F5F5E2F5F5F5F5F5F5F5F5F5F5F5F5F5F5F5F5E2F5F5F5F5F5F5F5F5F5F5F5E2F5F5F5F5F5F5F5F5F5F5F5F5F5F5F5F5F5F5F5F5F5F5F5F5F5F5F5F5F5F5F5
310
F5F5F5F5F5F5F5F5F5F5F5F5F5F5F5F5F5F5F5F5F5F5F5F5F5F5F5F5F5F5F5F5F5F5F5F5F5F5F5F5F5F5F5F5F5F5F5F5F5F5F5F5F5F5F5F5F5F5F5F5F5F5F5F5F5F5F5F5F5F5F5F5F5F5F5F5F5F5F5F5F5F5F5F5F5F5F5F5F5F5F5E2F5F5F5F5F5F5F5F5F5F5F5F5F5F5F5F5E2F5F5F5F5E2E2F5F5F5F5E2F5F5F5F5F5F5F5
310
F5F5F5F5F5F5F5F5F5E2E2E2E2E2E2E2E2E2E2E2E2E2F5F5F5F5F5F5F5F5F5F5F5F5F5F5F5F5F5F5F5F5F5F5F5F5F5F5F5F5F5F5F5F5F5F5F5F5F5F5F5F5F5F5F5F5F5F5F5F5F5F5F5F5F5F5F5F5F5F5F5F5F5F5F5F5F5F5F5F5F5F5F5F5F5F5F5F5F5F5F5F5F5F5F5F5F5F5F5F5F5F5F5F5F5F5F5F5F5F5F5F5F5F5F5F5F5
310
F5F5F5F5F5F5F5F5F5F5F5F5F5F5F5F5F5E2F5F5F5F5F5F5F5F5F5F5F5F5F5F5F5F5E2F5F5F5F5E2E2F5F5F5F5E2F5F5F5F5F5F5F5F5F5F5F5F5F5F5F5F5E2E2E2F5F5F5F5F5F5F5F5F5F5F5F5F5F5F5F5F5F5F5F5F5F5F5F5F5F5F5F5F5F5F5F5F5F5F5F5F5F5F5F5F5F5F5F5F5F5F5F5F5F5F5F5F5F5F5F5F5F5F5F5F5F5
310
F5F5F5F5F5F5F5F5F5F5F5F5F5F5F5F5F5F5F5F5F5F5F5F5F5F5F5F5F5F5F5F5F5F5F5F5F5F5F5F5F5F5F5F5F5F5F5F5F5F5F5F5F5F5F5F5F5F5F5F5F5F5F5F5F5F5F5F5F5F5E2F5F5F5F5F5F5F5F5F5F5F5F5F5F5F5F5E2F5F5F5F5E2E2F5F5F5F5E2F5F5F5F5F5F5F5F5F5F5F5F5F5F5F5F5E2E2E2F5F5F5F5F5F5F5F5F5
310
F5F5F5F5F5F5F5F5F5F5F5F5F5F5F5F5F5F5F5F5F5F5F5F5F5F5F5F5F5F5F5F5F5F5F5F5F5F5F5F5F5F5F5F5F5F5F5F5F5F5F5F5F5F5F5F5F5F5F5F5F5F5F5F5F5F5F5F5F5F5F5F5F5F5F5F5F5F5F5F5F5F5F5F5F5F5F5F5F5F5F5F5F5F5F5F5F5F5F5F5F5F5F5F5F5F5F5F5F5F5F5F5F5F5F5F5F5F5F5F5F5F5F5E2F5F5F5
310
F5F5F5F5F5F5F5F5F5F5F5F5F5E2F5F5F5F5E2E2F5F5F5F5E2F5F5F5F5F5F5F5F5F5F5F5F5F5F5F5F5E2F5F5F5F5F5F5F5F5F5F5F5F5F5F5F5F5F5F5F5F5F5F5F5F5F5F5F5F5F5F5F5F5F5F5F5F5F5F5F5F5F5F5F5F5F5F5F5F5F5F5F5F5F5F5F5F5F5F5F5F5F5F5F5F5F5F5F5F5F5F5F5F5F5F5F5F5F5F5F5F5F5F5F5F5F5
310
F5F5F5F5F5F5F5F5F5F5F5F5F5F5F5F5F5F5F5F5F5F5F5F5F5F5F5F5F5F5F5F5F5F5F5F5F5F5F5F5F5F5F5F5F5F5F5F5F5E2F5F5F5F5F5F5F5F5F5F5F5F5F5F5F5F5E2F5F5F5F5E2E2F5F5F5F5E2F5F5F5F5F5F5F5F5F5F5F5F5F5F5F5F5E2F5F5F5F5F5F5F5F5F5F5F5F5F5F5F5F5F5F5F5F5F5F5F5F5F5F5F5F5F5F5F5F5
310
F5F5F5F5F5F5F5F5F5F5F5F5F5F5F5F5F5F5F5F5F5F5F5F5F5F5F5F5F5F5F5F5F5F5F5F5F5F5F5F5F5F5F5F5F5F5F5F5F5F5F5F5F5F5F5F5F5F5F5F5F5F5F5F5F5F5F5F5F5F5F5F5F5F5F5F5F5F5F5F5F5F5F5F5F5F5F5F5F5F5F5F5F5F5F5F5F5F5F5F5F5F5E2F5F5F5F5F5F5F5F5F5F5F5F5F5F5F5F5E2F5F5F5F5E2E2F5
310
F5F5F5E2F5F5F5F5F5F5F5F5F5F5F5F5F5F5F5F5E20F0F0F0F0F0F0F0F0F0F0FF5F5F5F5F5F5F5F5F5F5F5F5F5F5F5F5F5F5F5F5F5F5F5F5F5F5F5F5F5F5F5F5F5F5F5F5F5F5F5F5F5F5F5F5F5F5F5F5F5F5F5F5F5F5F5F5F5F5F5F5F5F5F5F5F5F5F5F5F5F5F5F5F5F5F5F5F5F5F5F5F5F5F5F5F5F5F5F5F5F5F5F5F5F5F5
310
F5F5F5F5F5F5F5F5F5F5F5F5F5F5F5F5F5F5F5F5F5F5F5F5F5F5F5F5E2F5F5F5F5F5F5F5F5F5F5F5F5F5F5F5F5E2F5F5F5F5E2E2F5F5F5F5E2F5F5F5F5F5F5F5F5F5F5F5F5F5F5F5F5E20F0F0F0F0F0F0F0F0F0F0FF5F5F5F5F5F5F5F5F5F5F5F5F5F5F5F5F5F5F5F5F5F5F5F5F5F5F5F5F5F5F5F5F5F5F5F5F5F5F5F5F5F5
310
F5F5F5F5F5F5F5F5F5F5F5F5F5F5F5F5F5F5F5F5F5F5F5F5F5F5F5F5F5F5F5F5F5F5F5F5F5F5F5F5F5F5F5F5F5F5F5F5F5F5F5F5F5F5F5F5F5F5F5F5F5F5F5F5F5F5F5F5F5F5F5F5F5F5F5F5F5F5F5F5F5E2F5F5F5F5F5F5F5F5F5F5F5F5F5F5F5F5E2F5F5F5F5E2E2F5F5F5F5E2F5F5F5F5F5F5F5F5F5F5F5F5F5F5F5F5E2
310
0F0F0F0F0F0F0F0F0F0FF5F5F5F5F5F5F5F5F5F5F5F5F5F5F5F5F5F5F5F5F5F5F5F5F5F5F5F5F5F5F5F5F5F5F5F5F5F5F5F5F5F5F5F5F5F5F5F5F5F5F5F5F5F5F5F5F5F5F5F5F5F5F5F5F5F5F5F5F5F5F5F5F5F5F5F5F5F5F5F5F5F5F5F5F5F5F5F5F5F5F5F5F5F5F5F5F5F5F5F5F5F5F5F5F5F5F5F5F5F5F5F5F5F5F5F5F5
310
F5F5F5F5F5F5F5E2F5F5F5F5F5F5F5F5F5F5F5F5F5F5F5F5E2F5F5F5F5E2E2F5F5F5F5E2F5F5F5F5F5F5F5F5F5F5F5F5F5F5F5F5E2F5F5F5F5F5F5F5F5F5F5F5F5F5F5F5F5F5F5F5F5F5F5F5F5F5F5F5F5F5F5F5F5F5F5F5F5F5F5F5F5F5F5F5F5F5F5F5F5F5F5F5F5F5F5F5F5F5F5F5F5F5F5F5F5F5F5F5F5F5F5F5F5F5F5
310
F5F5F5F5F5F5F5F5F5F5F5F5F5F5F5F5F5F5F5F5F5F5F5F5F5F5F5F5F5F5F5F5F5F5F5F5F5F5F5F5F5F5F5F5F5F5F5F5F5F5F5F5F5F5F5F5F5F5F5F5E2F5F5F5F5F5F5F5F5F5F5F5F5F5F5F5F5E2F5F5F5F5E2E2F5F5F5F5F5F5F5F5F5F5F5F5F5F5F5F5F5F5F5F5F5E2F5F5F5F5F5F5F5F5F5F5F5F5F5F5F5F5F5F5F5F5F5
310
F5F5F5F5F5F5F5F5F5F5F5F5F5F5F5F5F5F5F5F5F5F5F5F5F5F5F5F5F5F5F5F5F5F5F5F5F5F5F5F5F5F5F5F5F5F5F5F5F5F5F5F5F5F5F5F5F5F5F5F5F5F5F5F5F5F5F5F5F5F5F5F5F5F5F5F5F5F5F5F5F5F5F5F5F5F5F5F5F5F5F5F5F5F5F5F5F5F5F5F5F5F5F5F5F5F5F5F5F5F5F5F5F5E2F5F5F5F5F5F5F5F5F5F5F5F5F5
310
F5F5F5F5F5F5F5F5E2E2F5F5F5F5F5F5F5F5F5F5F5F5F5F5F5F5F5F5F5F5F5E2F5F5F5F5F5F5F5F5F5F5F5F5F5F5F5F5F5F5F5F5F5F5F5F5F5F5F5F5F5F5F5F5F5F5F5F5F5F5F5F5F5F5F5F5F5F5F5F5F5F5F5F5F5F5F5F5F5F5F5F5F5F5F5F5F5F5F5F5F5F5F5F5F5F5F5F5F5F5F5F5F5F5F5F5F5F5F5F5F5F5F5F5F5F5F5
310
F5F5F5F5F5F5F5F5F5F5F5F5F5F5F5F5F5F5F5F5F5F5F5F5F5F5F5F5F5F5F5F5F5F5F5F5F5F5F5E2F5F5F5F5F5F5F5F5F5F5F5F5F5F5F5F5F5F5F5F5F5E2E2F5F5F5F5F5F5F5F5F5F5F5F5F5F5F5F5F5F5F5F5F5E2F5F5F5F5F5F5F5F5F5F5F5F5F5F5F5F5F5F5F5F5F5F5F5F5F5F5F5F5F5F5F5F5F5F5F5F5F5F5F5F5F5F5
310
F5F5F5F5F5F5F5F5F5F5F5F5F5F5F5F5F5F5F5F5F5F5F5F5F5F5F5F5F5F5F5F5F5F5F5F5F5F5F5F5F5F5F5F5F5F5F5F5F5F5F5F5F5F5F5F5F5F5F5F5F5F5F5F5F5F5F5F5F5F5F5F5F5F5F5F5F5F5F5F5F5F5F5F5F5F5F5F5F5F5F5F5E2F5F5F5F5F5F5F5F5F5F5F5F5F5F5F5F5F5F5F5F5F5E2E2F5F5F5F5F5F5F5F5F5F5F5
310
F5F5F5F5F5F5F5F5F5F5E2F5F5F5F5F5F5F5F5F5F5F5F5F5F5F5F5F5F5F5F5F5F5F5F5F5F5F5F5F5F5F5F5F5F5F5F5F5F5F5F5F5F5F5F5F5F5F5F5F5F5F5F5F5F5F5F5F5F5F5F5F5F5F5F5F5F5F5F5F5F5F5F5F5F5F5F5F5F5F5F5F5F5F5F5F5F5F5F5F5F5F5F5F5F5F5F5F5F5F5F5F5F5F5F5F5F5F5F5F5F5F5F5F5F5F5F5
310
F5F5F5F5F5F5F5F5F5F5F5F5F5F5F5F5F5F5E2F5F5F5F5F5F5F5F5F5F5F5F5F5F5F5F5F5F5F5F5F5E2E2F5F5F5F5F5F5F5F5F5F5F5F5F5F5F5F5F5F5F5F5F5E2F5F5F5F5F5F5F5F5F5F5F5F5F5F5F5F5F5F5F5F5F5F5F5F5F5F5F5F5F5F5F5F5F5F5F5F5F5F5F5F5F5F5F5F5F5F5F5F5F5F5F5F5F5F5F5F5F5F5F5F5F5F5F5
310
F5F5F5F5F5F5F5F5F5F5F5F5F5F5F5F5F5F5F5F5F5F5F5F5F5F5F5F5F5F5F5F5F5F5F5F5F5F5F5F5F5F5F5F5F5F5F5F5F5F5F5F5F5F5F5F5F5F5F5F5F5F5F5F5F5F5F5F5F5F5F5E2F5F5F5F5F5F5F5F5F5F5F5F5F5F5F5F5F5F5F5F5F5E2E2F5F5F5F5F5F5F5F5F5F5F5F5F5F5F5F5F5F5F5F5F5E2F5F5F5F5F5F5F5F5F5F5
310
F5F5F5F5F5F5F5F5F5F5F5F5F5F5F5F5F5F5F5F5F5F5F5F5F5F5F5F5F5F5F5F5F5F5F5F5F5F5F5F5F5F5F5F5F5F5F5F5F5F5F5F5F5F5F5F5F5F5F5F5F5F5F5F5F5F5F5F5F5F5F5F5F5F5F5F5F5F5F5F5F5F5F5F5F5F5F5F5F5F5F5F5F5F5F5F5F5F5F5F5F5F5F5F5F5F5F5F5F5F5F5F5F5F5F5F5F5F5F5F5F5F5F5F5E2F5F5
310
F5F5F5F5F5F5F5F5F5F5F5F5F5F5F5F5F5F5F5E2E2F5F5F5F5F5F5F5F5F5F5F5F5F5F5F5F5F5F5F5F5F5E2F5F5F5F5F5F5F5F5F5F5F5F5F5F5F5F5F5F5F5F5F5F5F5F5F5F5F5F5F5F5F5F5F5F5F5F5F5F5F5F5F5F5F5F5F5F5F5F5F5F5F5F5F5F5F5F5F5F5F5F5F5F5F5F5F5F5F5F5F5F5F5F5F5F5F5F5F5F5F5F5F5F5F5F5
310
F5F5F5F5F5F5F5F5F5F5F5F5F5F5F5F5F5F5F5F5F5F5F5F5F5F5F5F5F5F5F5F5F5F5F5F5F5F5F5F5F5F5F5F5F5F5F5F5F5F5E2F5F5F5F5F5F5F5F5F5F5F5F5F5F5F5F5F5F5F5F5F5E2E2F5F5F5F5F5F5F5F5F5F5F5F5F5F5F5F5F5F5F5F5F5E2F5F5F5F5F5F5F5F5F5F5F5F5F5F5F5F5F5F5F5F5F5F5F5F5F5F5F5F5F5F5F5
310
F5F5F5F5F5F5F5F5F5F5F5F5F5F5F5F5F5F5F5F5F5F5F5F5F5F5F5F5F5F5F5F5F5F5F5F5F5F5F5F5F5F5F5F5F5F5F5F5F5F5F5F5F5F5F5F5F5F5F5F5F5F5F5F5F5F5F5F5F5F5F5F5F5F5F5F5F5F5F5F5F5F5F5F5F5F5F5F5F5F5F5F5F5F5F5F5F5F5F5F5F5F5F5E2F5F5F5F5F5F5F5F5F5F5F5F5F5F5F5F5F5F5F5F5F5E2E2
310
F5F5F5F5F5F5F5F5F5F5F5F5F5F5F5F5F5F5F5F5F5E2F5F5F5F5F5F5F5F5F5F5F5F5F5F5F5F5F5F5F5F5F5F5F5F5F5F5F5F5F5F5F5F5F5F5F5F5F5F5F5F5F5F5F5F5F5F5F5F5F5F5F5F5F5F5F5F5F5F5F5F5F5F5F5F5F5F5F5F5F5F5F5F5F5F5F5F5F5F5F5F5F5F5F5F5F5F5F5F5F5F5F5F5F5F5F5F5F5F5F5F5F5F5F5F5F5
310
F5F5F5F5F5F5F5F5F5F5F5F5F5F5F5F5F5F5F5F5F5F5F5F5F5F5F5F5F5E2F5F5F5F5F5F5F5F5F5F5F5F5F5F5F5F5F5F5F5F5F5E2E2F5F5F5F5E2F5F5F5F5F5F5F5F5F5F5F5F5F5F5F5F5E2F5F5F5F5F5F5F5F5F5F5F5F5F5F5F5F5F5F5F5F5F5F5F5F5F5F5F5F5F5F5F5F5F5F5F5F5F5F5F5F5F5F5F5F5F5F5F5F5F5F5F5F5
310
F5F5F5F5F5F5F5F5F5F5F5F5F5F5F5F5F5F5F5F5F5F5F5F5F5F5F5F5F5F5F5F5F5F5F5F5F5F5F5F5F5F5F5F5F5F5F5F5F5E2F0E2E2F5F5F5F5F5F5E2F0E2E2F5DCF5F5F5F5F5F5F0F0E2F5F5F5F5F5F5F5F5E2F5F5F5F5F5F5F5F5F5F5F5F5F5F5F5F5E2F5F5F5F5E2E2F5F5F5F5E2F5F5F5F5F5F5F5F5F5F5F5F5F5F5F5F5
310
E2F5F5F5F5F5F5F5F5F5F5F5F5F5F5F5F5F5F5F5F5F5F5F5F5F5F5F5F5F5F5F5F5F5F5F5F5F5F5F5F5F5F5F5F5F5F5F5F5F5F5F5F5F5F5F5F5F5F5F5F5F5F5F5F5F5F5F5F5F5F5F5F5F5F5F5F5F5F5F5F5F5F5F5F5F5F5F5F5F5F5F5F5F5F5F5F5F5F5F5F5E2DCDCF0F5E2F5F5F5F5F5E2F5F0E2E2DCF5F5F5F5F5E2F0F0F5
310
E2F5F5F5E2E2E2F5E2F5F5F5F5F5F5F5F5F5F5F5F5F5F5F5F5E2F5F5F5F5E2E2F5F5F5F5E2F5F5F5F5F5F5F5F5F5F5F5F5F5F5F5F5E2F5F5F5F5F5F5F5F5F5F5F5F5F5F5F5F5F5F5F5F5F5F5F5F5F5F5F5F5F5F5F5F5F5F5F5F5F5F5F5F5F5F5F5F5F5F5F5F5F5F5F5F5F5F5F5F5F5F5F5F5F5F5F5F5F5F5F5F5F5F5F5F5F5
310
F5F5F5F5F5F5F5F5F5F5F5F5F5F5F5F5F5F5F5F5F5F5F5F5F5F5E2F0DCF0DCE2E2E2F5F5F5E2E2F0F0F0E2DCF5F5F5F5E2F0F0F0E2E2F0E2E2E2E2E2E2E2F5F5F5F5F5F5F5F5F5F5F5F5F5F5F5F5E2F5F5F5F5E2E2F5F5F5F5E2F5F5F5F5F5F5F5F5F5F5F5F5F5F5F5F5E2F5F5F5F5F5F5F5F5F5F5F5F5F5F5F5F5F5F5F5F5
310
F5F5F5F5F5F5F5F5F5F5F5F5F5F5F5F5F5F5F5F5F5F5F5F5F5F5F5F5F5F5F5F5F5F5F5F5F5F5F5F5F5F5F5F5F5F5F5F5F5F5F5F5F5F5F5F5F5F5F5F5F5F5F5F5F5F5F5F5F5F5F5F5F5F5F5F5F5F5F5E2F0DCF0DCF0F0E2F5F5F5E2F0DCE2E2E2DCF5F5F5F5F0F0F0F0E2E2F0E2F5E2E2E2E2E2F5F5F5F5F5F5F5F5F5F5F5F5
310
F5F5F5F5E2F5F5F5F5E2E2F5F5F5F5E2F5F5F5F5F5F5F5F5F5F5F5F5F5F5F5F5E2F5F5F5F5F5F5F5F5F5F5F5F5F5F5F5F5F5F5F5F5F5F5F5F5F5F5F5F5F5F5F5F5F5F5F5F5F5F5F5F5F5F5F5F5F5F5F5F5F5F5F5F5F5F5F5F5F5F5F5F5F5F5F5F5F5F5F5F5F5F5F5F5F5F5F5F5F5F5F5F5F5F5F5F5F5F5F5F5F5F5F5F5F5F5
310
F5F5F5F5F5F5E2DCDCDCF0E2F5F5F5F5F5F0DCDCE2E2DCF5F5F5F5F5F0F0F0DCE2F0F5E2E2E2E2F5E2F5F5F5F5F5F5F5F5F5F5F5F5F5F5F5F5E2F5F5F5F5E2E2F5F5F5F5E2F5F5F5F5F5F5F5F5F5F5F5F5F5F5F5F5E2F5F5F5F5F5F5F5F5F5F5F5F5F5F5F5F5F5F5F5F5F5F5F5F5F5F5F5F5F5F5F5F5F5F5F5F5F5F5F5F5F5
310
F5F5F5F5F5F5F5F5F5F5F5F5F5F5F5F5F5F5F5F5F5F5F5F5F5F5F5F5F5F5F5F5F5F5F5F5F5F5F5F5F5F5F5F5F5F5F5F5F5F5F5F5F5F5F5F5F5F5F5E2F0F0F0E2F5F5F5F5F5E2F0E2E2E2E2DCF5F5F5F5F5F0F0E2E2F5F5F5F5E2E2E2F5E2F5F5F5F5F5F5F5F5F5F5F5F5F5F5F5F5E2F5F5F5F5E2E2F5F5F5F5E2F5F5F5F5F5
310
F5F5F5F5F5F5F5F5F5F5F5E2F5F5F5F5F5F5F5F5F5F5F5F5F5F5F5F5F5F5F5F5F5F5F5F5F5F5F5F5F5F5F5F5F5F5F5F5F5F5F5F5F5F5F5F5F5F5F5F5F5F5F5F5F5F5F5F5F5F5F5F5F5F5F5F5F5F5F5F5F5F5F5F5F5F5F5F5F5F5F5F5F5F5F5F5F5F5F5F5F5F5F5F5F5F5F5F5F5F5F5F5F5F5E2E2F5F5F5F5F5F5F5F5E2E2F5
310
F5DCF5F5F5F5F5F5F5F0E2F5F5F5F5F5E2F5F5E2F5F5F5F5F5F5F5F5F5F5F5F5F5F5F5F5E2F5F5F5F5E2E2F5F5F5F5E2F5F5F5F5F5F5F5F5F5F5F5F5F5F5F5F5E2F5F5F5F5F5F5F5F5F5F5F5F5F5F5F5F5F5F5F5F5F5F5F5F5F5F5F5F5F5F5F5F5F5F5F5F5F5F5F5F5F5F5F5F5F5F5F5F5F5F5F5F5F5F5F5F5F5F5F5F5F5F5
310
F5F5F5F5F5F5F5F5F5F5F5F5F5F5F5F5F5F5F5F5F5F5F5F5F5F5F5F5F5F5F5F5F5F5F5F5F5F5F5F5F5F5F5F5F5F5F5F5F5F5F5F5F5F5DCF5F5F5F5F5F5F5F5F5F5F5F5F5F5F5F5F5E2F5F5F5F5F5F5F5F5F5F5F5F5F5F5F5F5E2F5F5F5F5E2E2F5F5F5F5E2F5F5F5F5F5F5F5F5F5F5F5F5F5F5F5F5E2F5F5F5F5F5F5F5F5F5
310
F5F5F5F5F5F5F5F5F5F5F5F5F5F5F5F5F5F5F5F5F5F5F5F5F5F5F5F5F5F5F5F5F5F5F5F5F5F5F5F5F5F5F5F5F5F5F5F5F5F5F5F5F5F5F5F5F5F5F5F5F5F5F5F5F5F5F5F5F5F5F5F5F5F5F5F5F5F5F5F5F5F5F5F5F5F5F5F5F5F5F5F5F5F5F5F5F5F5F5F5F5F5F5F5F5F5F5DCF5F5F5F5F5F5F5F5F5F5F5F5F5F5F5F5F5E2F5
310
F5F5F5F5F5F5F5F5F5F5F5F5F5F5F5E2F5F5F5F5E2E2F5F5F5F5E2F5F5F5F5F5F5F5F5F5F5F5F5F5F5F5F5E2F5F5F5F5F5F5F5F5F5F5F5F5F5F5F5F5F5F5F5F5F5F5F5F5F5F5F5F5F5F5F5F5F5F5F5F5F5F5F5F5F5F5F5F5F5F5F5F5F5F5F5F5F5F5F5F5F5F5F5F5F5F5F5F5F5F5F5F5F5F5F5F5F5F5F5F5F5F5F5F5F5F5F5
310
F5F5F5F5F5F5F5F5F5F5F5F5F5F5F5F5F5F5F5F5F5F5F5F5F5F5F5F5F5F5F5F5F5DCF5F5F5F5F5F5F5F5F5F5F5F5F5F5F5F5F5E2F5F5F5F5F5F5F5F5F5F5F5F5F5F5F5F5E2F5F5F5F5E2E2F5F5F5F5E2F5F5F5F5F5F5F5F5F5F5F5F5F5F5F5F5E2F5F5F5F5F5F5F5F5F5F5F5F5F5F5F5F5F5F5F5F5F5F5F5F5F5F5F5F5F5F5
310
F5F5F5F5F5F5F5F5F5F5F5F5F5F5F5F5F5F5F5F5F5F5F5F5F5F5F5F5F5F5F5F5F5F5F5F5F5F5F5F5F5F5F5F5F5F5F5F5F5F5F5F5F5F5F5F5F5F5F5F5F5F5F5F5F5F5F5F5F5F5F5F5F5F5F5F5F5F5F5F5F5F5F5F5F5F5DCF5F5F5F5F5F5F5F5F5F5F5F5F5F5F5F5F5E2F5F5F5F5F5F5F5F5F5F5F5F5F5F5F5F5E2F5F5F5F5E2
310
E2F5F5F5F5E2F5F5F5F5F5F5F5F5F5F5F5F5F5F5F5F5E2F5F5F5F5F5F5F5F5F5F5F5F5F5F5F5F5F5F5F5F5F5F5F5F5F5F5F5F5F5F5F5F5F5F5F5F5F5F5F5F5F5F5F5F5F5F5F5F5F5F5F5F5F5F5F5F5F5F5F5F5F5F5F5F5F5F5F5F5F5F5F5F5F5F5F5F5F5F5F5F5F5F5F5F5F5F5F5F5F5F5F5F5F5F5F5F5F5F5F5F5F5F5F5F5
310
F5F5F5F5F5F5F5F5F5F5F5F5DCF5F5F5F5F5F5F5F5F5F5F5F5F5F5F5F5F5E2F5F5F5F5F5F5F5F5F5F5F5F5F5F5F5F5E2F5F5F5F5E2E2F5F5F5F5E2F5F5F5F5F5F5F5F5F5F5F5F5F5F5F5F5E2F5F5F5F5F5F5F5F5F5F5F5F5F5F5F5F5F5F5F5F5F5F5F5F5F5F5F5F5F5F5F5F5F5F5F5F5F5F5F5F5F5F5F5F5F5F5F5F5F5F5F5
310
F5F5F5F5F5F5F5F5F5F5F5F5F5F5F5F5F5F5F5F5F5F5F5F5F5F5F5F5F5F5F5F5F5F5F5F5F5F5F5F5F5F5F5F5F5F5F5F5F5F5F5F5F5F5F5F5F5F5F5F5F5F5F5F5F5DCF5F5F5F5F5F5F5F5F5F5F5F5F5F5F5F5F5E2F5F5F5F5F5F5F5F5F5F5F5F5F5F5F5F5E2F5F5F5F5E2E2F5F5F5F5E2F5F5F5F5F5F5F5F5F5F5F5F5F5F5F5
310
F5E2F5F5F5F5F5F5F5F5F5F5F5F5F5F5F5F5F5F5F5F5F5F5F5F5F5F5F5F5F5F5F5F5F5F5F5F5F5F5F5F5F5F5F5F5F5F5F5F5F5F5F5F5F5F5F5F5F5F5F5F5F5F5F5F5F5F5F5F5F5F5F5F5F5F5F5F5F5F5F5F5F5F5F5F5F5F5F5F5F5F5F5F5F5F5F5F5F5F5F5F5F5F5F5F5F5F5F5F5F5F5F5F5F5F5F5F5DCF5F5F5F5F5F5F5F5
310
F5F5F5F5F5F5F5F5F5E2F5F5F5F5F5F5F5F5F5F5F5F5F5F5F5F5E2F5F5F5F5E2E2F5F5F5F5E2F5F5F5F5F5F5F5F5F5F5F5F5F5F5F5F5E2F5F5F5F5F5F5F5F5F5F5F5F5F5F5F5F5F5F5F5F5F5F5F5F5F5F5F5F5F5F5F5F5F5F5F5F5F5F5F5F5F5F5F5F5F5F5F5F5F5F5F5F5F5F5F5F5F5F5F5F5F5F5F5F5F5F5F5F5F5F5F5F5
310
F5F5F5F5F5F5F5F5F5F5F5F5F5F5F5F5F5F5F5F5F5F5F5F5F5F5F5F5F5F5F5F5F5F5F5F5F5F5F5F5F5F5E2E2DCE2F5F5F5F5F5F5F5F5F5F5F5F5F5F5F5F5E2F5F5F5F5F5F5F5F5F5F5F5F5F5F5F5F5E2F5F5F5F5E2E2F5F5F5F5E2F5F5F5F5F5F5F5F5F5F5F5F5F5F5F5F5E2F5F5F5F5F5F5F5F5F5F5F5F5F5F5F5F5F5F5F5
310
F5F5F5F5F5F5F5F5F5F5F5F5F5F5F5F5F5F5F5F5F5F5F5F5F5F5F5F5F5F5F5F5F5F5F5F5F5F5F5F5F5F5F5F5F5F5F5F5F5F5F5F5F5F5F5F5F5F5F5F5F5F5F5F5F5F5F5F5F5F5F5F5F5F5F5F5F5F5F5F5F5F5F5F5F5F5F5F5F5F5F5F5F5F5F5F5F5DCF5F5F5F5F5F5F5F5F5F5F5F5F5F5F5F5F5E2F5F5F5F5F5F5F5F5F5F5F5
310
F5F5F5F5F5E2F5F5F5F5E2E2F5F5F5F5E2F5F5F5F5F5F5F5F5F5F5F5F5F5F5F5F5E2F5F5F5F5F5F5F5F5F5F5F5F5F5F5F5F5F5F5F5F5F5F5F5F5F5F5F5F5F5F5F5F5F5F5F5F5F5F5F5F5F5F5F5F5F5F5F5F5F5F5F5F5F5F5F5F5F5F5F5F5F5F5F5F5F5F5F5F5F5F5F5F5F5F5F5F5F5F5F5F5F5F5F5F5F5F5F5F5F5F5F5F5F5
310
F5F5F5F5F5F5F5F5F5F5F5F5F5F5F5F5F5F5F5F5F5F5F5DCF5F5F5F5F5F5F5F5F5F5F5F5F5F5F5F5F5E2F5F5F5F5F5F5F5F5F5F5F5F5F5F5F5F5E2F5F5F5F5E2E2F5F5F5F5F5F5F5F5F5F5F5F5F5F5F5F5F5F5F5F5F5E2F5F5F5F5F5F5F5F5F5F5F5F5F5F5F5F5F5F5F5F5F5F5F5F5F5F5F5F5F5F5F5F5F5F5F5F5F5F5F5F5
310
F5F5F5F5F5F5F5F5F5F5F5F5F5F5F5F5F5F5F5F5F5F5F5F5F5F5F5F5F5F5F5F5F5F5F5F5F5F5F5F5F5F5F5F5F5F5F5F5F5F5F5F5F5F5F5F5F5F5F5F5F5F5F5F5F5F5F5F5F5F5F5F5F5F5F5F5DCF5F5F5F5F5F5F5F5F5F5F5F5F5F5F5F5F5E2F5F5F5F5F5F5F5F5F5F5F5F5F5F5F5F5F5F5F5F5F5E2E2F5F5F5F5F5F5F5F5F5
310
F5F5F5F5F5F5F5F5F5F5F5F5E2F5F5F5F5F5F5F5F5F5F5F5F5F5F5F5F5F5F5F5F5F5F5F5F5F5F5F5F5F5F5F5F5F5F5F5F5F5F5F5F5F5F5F5F5F5F5F5F5F5F5F5F5F5F5F5F5F5F5F5F5F5F5F5F5F5F5F5F5F5F5F5F5F5F5F5F5F5F5F5F5F5F5F5F5F5F5F5F5F5F5F5F5F5F5F5F5F5F5F5F5F5F5F5F5F5F5F5F5F5F5F5F5F5F5
310
F5F5F5F5F5F5F5F5F5F5F5F5F5F5F5F5F5F5F5F5E2F5F5F5F5F5F5F5F5F5F5F5F5F5F5F5F5F5F5F5F5F5E2E2F5F5F5F5F5F5F5F5F5F5F5F5F5F5F5F5F5F5F5F5F5E2F5F5F5F5F5F5F5F5F5F5F5F5F5F5F5F5F5F5F5F5F5F5F5F5F5F5F5F5F5F5F5F5F5F5F5F5F5F5F5F5F5F5F5F5F5F5F5F5F5F5F5F5F5F5F5F5F5F5F5F5F5
310
F5F5F5F5F5F5F5F5F5F5F5F5F5F5F5F5F5F5F5F5F5F5F5F5F5F5F5F5F5F5F5F5F5F5F5F5F5F5F5F5F5F5F5F5F5F5F5F5F5F5F5F5F5F5F5F5F5F5F5F5F5F5F5F5F5F5F5F5F5F5F5F5F5E2F5F5F5F5F5F5F5F5F5F5F5F5F5F5F5F5F5F5F5F5F5E2E2F5F5F5F5F5F5F5F5F5F5F5F5F5F5F5F5F5F5F5F5F5E2F5F5F5F5F5F5F5F5
310
F5F5F5F5F5F5F5F5F5F5F5F5F5F5F5F5F5F5F5F5F5F5F5F5F5F5F5F5F5F5F5F5F5F5F5F5F5F5F5F5F5F5F5F5F5F5F5F5F5F5F5F5F5F5F5F5F5F5F5F5F5F5F5F5F5F5F5F5F5F5F5F5F5F5F5F5F5F5F5F5F5F5F5F5F5F5F5F5F5F5F5F5F5F5F5F5F5F5F5F5F5F5F5F5F5F5F5F5F5F5F5F5F5F5F5F5F5F5F5F5F5F5F5F5F5F5E2
310
F5F5F5F5F5F5F5F5F5F5F5F5F5F5F5F5F5F5F5F5F5E2E2F5F5F5F5F5F5F5F5F5F5F5F5F5F5F5F5F5F5F5F5F5E2F5F5F5F5F5F5F5F5F5F5F5F5F5F5F5F5F5F5F5F5F5F5F5F5F5F5F5F5F5F5F5F5F5F5F5F5F5F5F5F5F5F5F5F5F5F5F5F5F5F5F5F5F5F5F5F5F5F5F5F5F5F5F5F5F5F5F5F5F5F5F5F5F5F5F5F5F5F5F5F5F5F5
310
F5F5F5F5F5F5F5F5F5F5F5F5F5F5F5F5F5F5F5F5F5F5F5F5F5F5F5F5F5F5F5F5F5F5F5F5F5F5F5F5F5F5F5F5F5F5F5F5F5F5F5F5E2F5F5F5F5F5F5F5F5F5F5F5F5F5F5F5F5F5F5F5F5F5E2E2F5F5F5F5F5F5F5F5F5F5F5F5F5F5F5F5F5F5F5F5F5E2F5F5F5F5F5F5F5F5F5F5F5F5F5F5F5F5F5F5F5F5F5F5F5F5F5F5F5F5F5
310
F5F5F5F5F5F5F5F5F5F5F5F5F5F5F5F5F5F5F5F5F5F5F5F5F5F5F5F5F5F5F5F5F5F5F5F5F5F5F5F5F5F5F5F5F5F5F5F5F5F5F5F5F5F5F5F5F5F5F5F5F5F5F5F5F5F5F5F5F5F5F5F5F5F5F5F5F5F5F5F5F5F5F5F5F5F5F5F5F5F5F5F5F5F5F5F5F5F5F5F5F5F5F5F5F5E2F5F5F5F5F5F5F5F5F5F5F5F5F5F5F5F5F5F5F5F5F5
310
E2E2F5F5F5F5F5F5F5F5F5F5F5F5F5F5F5F5F5F5F5F5F5E2F5F5F5F5F5F5F5F5F5F5F5F5F5F5F5F5F5F5F5F5F5F5F5F5F5F5F5F5F5F5F5F5F5F5F5F5F5F5F5F5F5F5F5F5F5F5F5F5F5F5F5F5F5F5F5F5F5F5F5F5F5F5F5F5F5F5F5F5F5F5F5F5F5F5F5F5F5F5F5F5F5F5F5F5F5F5F5F5F5F5F5F5F5F5F5F5F5F5F5F5F5F5F5
310
F5F5F5F5F5F5F5F5F5F5F5F5F5F5F5F5F5F5F5F5F5F5F5F5F5F5F5F5F5F5F5E2F5F5F5F5F5F5F5F5F5F5F5F5F5F5F5F5F5F5F5F5F5E2E2F5F5F5F5F5F5F5F5F5F5F5F5F5F5F5F5F5F5F5F5F5E2F5F5F5F5F5F5F5F5F5F5F5F5F5F5F5F5F5F5F5F5F5F5F5F5F5F5F5F5F5F5F5F5F5F5F5F5F5F5F5F5F5F5F5F5F5F5F5F5F5F5
310
F5F5F5F5F5F5F5F5F5F5F5F5F5F5F5F5F5F5F5F5F5F5F5F5F5F5F5F5F5F5F5F5F5F5F5F5F5F5F5F5F5F5F5F5F5F5F5F5F5F5F5F5F5F5F5F5F5F5F5F5F5F5F5F5F5F5F5F5F5F5F5F5F5F5F5F5F5F5F5F5F5F5F5F5E2F5F5F5F5F5F5F5F5F5F5F5F5F5F5F5F5F5F5F5F5F5E2E2F5F5F5F5F5F5F5F5F5F5F5F5F5F5F5F5F5F5F5
310
F5F5E2F5F5F5F5F5F5F5F5F5F5F5F5F5F5F5F5F5F5F5F5F5F5F5F5F5F5F5F5F5F5F5F5F5F5F5F5F5F5F5F5F5F5F5F5F5F5F5F5F5F5F5F5F5F5F5F5F5F5F5F5F5F5F5F5F5F5F5F5F5F5F5F5F5F5F5F5F5F5F5F5F5F5F5F5F5F5F5F5F5F5F5F5F5F5F5F5F5F5F5F5F5F5F5F5F5F5F5F5F5F5F5F5F5F5F5F5F5F5F5F5F5F5F5F5
310
F5F5F5F5F5F5F5F5F5F5E2F5F5F5F5F5F5F5F5F5F5F5F5F5F5F5F5F5F5F5F5F5E2E2F5F5F5F5E2F5F5F5F5F5F5F5F5F5F5F5F5F5F5F5F5E2F5F5F5F5F5F5F5F5F5F5F5F5F5F5F5F5F5F5F5F5F5F5F5F5F5F5F5F5F5F5F5F5F5F5F5F5F5F5F5F5F5F5F5F5F5F5F5F5F5F5F5F5F5F5F5F5F5F5F5F5F5F5F5F5F5F5F5F5F5F5F5
310
F5F5F5F5F5F5F5F5F5F5F5F5F5F5F5F5F5F5F5F5F5F5F5F5F5F5F5F5F5F5F5F5F5F5F5F5F5F5F5F5F5F5F5F5F5F5F5F5F5F5F5F5F5F5F5F5F5F5F5F5F5F5F5E2F5F5F5F5F5F5F5F5F5F5F5F5F5F5F5F5E2F5F5F5F5E2E2F5F5F5F5E2F5F5F5F5F5F5F5F5F5F5F5F5F5F5F5F5E2F5F5F5F5F5F5F5F5F5F5F5F5F5F5F5F5F5F5
310
F5F5F5F5F5F5F5F5F5F5F5F5F5F5F5F5F5F5F5F5F5F5F5F5F5F5F5F5F5F5F5F5F5F5F5F5F5F5F5F5F5F5F5F5F5F5F5F5F5F5F5F5F5F5F5F5F5F5F5F5F5F5F5F5F5F5F5F5F5F5F5F5F5F5F5F5F5F5F5F5F5F5F5F5F5F5F5F5F5F5F5F5F5F5F5F5F5F5F5F5F5F5F5F5F5F5F5F5F5F5F5F5F5F5F5F5E2F5F5F5F5F5F5F5F5F5F5
310
F5F5F5F5F5F5E2F5F5F5F5E2E2F5F5F5F5E2F5F5F5F5F5F5F5F5F5F5F5F5F5F5F5F5E2F5F5F5F5F5F5F5F5F5F5F5F5F5F5F5F5F5F5F5F5F5F5F5F5F5F5F5F5F5F5F5F5F5F5F5F5F5F5F5F5F5F5F5F5F5F5F5F5F5F5F5F5F5F5F5F5F5F5F5F5F5F5F5F5F5F5F5F5F5F5F5F5F5F5F5F5F5F5F5F5F5F5F5F5F5F5F5F5F5F5F5F5
310
F5F5F5F5F5F5F5F5F5F5F5F5F5F5F5F5F5F5F5F5F5F5F5F5F5F5F5F5F5F5F5F5F5F5F5F5F5F5F5F5F5F5E2F5F5F5F5F5F5F5F5F5F5F5F5F5F5F5F5E2F5F5F5F5E2E2F5F5F5F5E2F5F5F5F5F5F5F5F5F5F5F5F5F5F5F5F5E2F5F5F5F5F5F5F5F5F5F5F5F5F5F5F5F5F5F5F5F5F5F5F5F5F5F5F5F5F5F5F5F5F5F5F5F5F5F5F5
310
F5F5F5F5F5F5F5F5F5F5F5F5F5F5F5F5F5F5F5F5F5F5F5F5F5F5F5F5F5F5F5F5F5F5F5F5F5F5F5F5F5F5F5F5F5F5F5F5F5F5F5F5F5F5F5F5F5F5F5F5F5F5F5F5F5F5F5F5F5F5F5F5F5F5F5F5F5F5F5F5F5F5F5F5F5F5F5F5F5F5F5F5F5F5F5E2F5F5F5F5F5F5F5F5F5F5F5F5F5F5F5F5E2F5F5F5F5E2E2F5F5F5F5E2F5F5F5
310
F5F5F5F5F5F5F5F5F5F5F5F5F5E2F5F5F5F5F5F5F5F5F5F5F5F5F5F5F5F5F5F5F5F5F5F5F5F5F5F5F5F5F5F5F5F5F5F5F5F5F5F5F5F5F5F5F5F5F5F5F5F5F5F5F5F5F5F5F5F5F5F5F5F5F5F5F5F5F5F5F5F5F5F5F5F5F5F5F5F5F5F5F5F5F5F5F5F5F5F5F5F5F5F5F5F5F5F5F5F5F5F5F5F5F5F5F5F5F5F5F5F5F5F5F5F5F5
310
F5F5F5F5F5F5F5F5F5F5F5F5F5F5F5F5F5F5F5F5F5E2F5F5F5F5F5F5F5F5F5F5F5F5F5F5F5F5E2F5F5F5F5E2E2F5F5F5F5E2F5F5F5F5F5F5F5F5F5F5F5F5F5F5F5F5E2F5F5F5F5F5F5F5F5F5F5F5F5F5F5F5F5F5F5F5F5F5F5F5F5F5F5F5F5F5F5F5F5F5F5F5F5F5F5F5F5F5F5F5F5F5F5F5F5F5F5F5F5F5F5F5F5F5F5F5F5
310
F5F5F5F5F5F5F5F5F5F5F5F5F5F5F5F5F5F5F5F5F5F5F5F5F5F5F5F5F5F5F5F5F5F5F5F5F5F5F5F5F5F5F5F5F5F5F5F5F5F5F5F5F5F5F5F5F5F5F5F5F5F5F5F5F5F5F5F5F5F5F5F5F5F5E2F5F5F5F5F5F5F5F5F5F5F5F5F5F5F5F5E2F5F5F5F5E2E2F5F5F5F5E2F5F5F5F5F5F5F5F5F5F5F5F5F5F5F5F5E2F5F5F5F5F5F5F5
310
F5F5F5F5F5F5F5F5F5F5F5F5F5F5F5F5F5F5F5F5F5F5F5F5F5F5F5F5F5F5F5F5F5F5F5F5F5F5F5F5F5F5F5F5F5F5F5F5F5F5F5F5F5F5F5F5F5F5F5F5F5F5F5F5F5F5F5F5F5F5F5F5F5F5F5F5F5F5F5F5F5F5F5F5F5F5F5F5F5F5F5F5F5F5F5F5F5F5F5F5F5F5F5F5F5F5F5F5F5F5F5F5F5F5F5F5F5F5F5F5F5F5F5F5F5F5F5
310
E2F5F5F5F5F5F5F5F5F5F5F5F5F5F5F5F5E2F5F5F5F5E2E2F5F5F5F5E2F5F5F5F5F5F5F5F5F5F5F5F5F5F5F5F5E2F5F5F5F5F5F5F5F5F5F5F5F5F5F5F5F5F5F5F5F5F5F5F5F5F5F5F5F5F5F5F5F5F5F5F5F5F5F5F5F5F5F5F5F5F5F5F5F5F5F5F5F5F5F5F5F5F5F5F5F5F5F5F5F5F5F5F5F5F5F5F5F5F5F5F5F5F5F5F5F5F5
310
F5F5F5F5F5F5F5F5F5F5F5F5F5F5F5F5F5F5F5F5F5F5F5F5F5F5F5F5F5F5F5F5F5F5F5F5F5F5F5F5F5F5F5F5F5F5F5F5F5F5F5F5F5E2F5F5F5F5F5F5F5F5F5F5F5F5F5F5F5F5E2F5F5F5F5E2E2F5F5F5F5E2F5F5F5F5F5F5F5F5F5F5F5F5F5F5F5F5E2F5F5F5F5F5F5F5F5F5F5F5F5F5F5F5F5F5F5F5F5F5F5F5F5F5F5F5F5
310
F5F5F5F5F5F5F5F5F5F5F5F5F5F5F5F5F5F5F5F5F5F5F5F5F5F5F5F5F5F5F5F5F5F5F5F5F5F5F5F5F5F5F5F5F5F5F5F5F5F5F5F5F5F5F5F5F5F5F5F5F5F5F5F5F5F5F5F5F5F5F5F5F5F5F5F5F5F5F5F5F5F5F5F5F5F5F5F5F5F5F5F5F5F5F5F5F5F5F5F5F5F5F5F5F5F5E2F5F5F5F5F5F5F5F5F5F5F5F5F5F5F5F5E2F5F5F5
310
F5E2E2F5F5F5F5E2F5F5F5F5F5F5F5F5F5F5F5F5F5F5F5F5E2F5F5F5F5F5F5F5F5F5F5F5F5F5F5F5F5F5F5F5F5F5F5F5F5F5F5F5F5F5F5F5F5F5F5F5F5F5F5F5F5F5F5F5F5F5F5F5F5F5F5F5F5F5F5F5F5F5F5F5F5F5F5F5F5F5F5F5F5F5F5F5F5F5F5F5F5F5F5F5F5F5F5F5F5F5F5F5F5F5F5F5F5F5F5F5F5F5F5F5F5F5F5
310
F5F5F5F5F5F5F5F5F5F5F5F5F5F5F5F5F5F5F5F5F5F5F5F5F5F5F5F5F5F5F5F5E2F5F5F5F5F5F5F5F5F5F5F5F5F5F5F5F5E2F5F5F5F5E2E2F5F5F5F5E2F5F5F5F5F5F5F5F5F5F5F5F5F5F5F5F5E2F5F5F5F5F5F5F5F5F5F5F5F5F5F5F5F5F5F5F5F5F5F5F5F5F5F5F5F5F5F5F5F5F5F5F5F5F5F5F5F5F5F5F5F5F5F5F5F5F5
310
F5F5F5F5F5F5F5F5F5F5F5F5F5F5F5F5F5F5F5F5F5F5F5F5F5F5F5F5F5F5F5F5F5F5F5F5F5F5F5F5F5F5F5F5F5F5F5F5F5F5F5F5F5F5F5F5F5F5F5F5F5F5F5F5F5F5F5F5F5F5F5F5F5F5F5F5F5F5F5F5F5F5F5F5F5E2F5F5F5F5F5F5F5F5F5F5F5F5F5F5F5F5E2F5F5F5F5E2E2F5F5F5F5E2F5F5F5F5F5F5F5F5F5F5F5F5F5
310
F5F5F5E2F5F5F5F5F5F5F5F5F5F5F5F5F5F5F5F5F5F5F5F5F5F5F5F5F5F5F5F5F5F5F5F5F5F5F5F5F5F5F5F5F5F5F5F5F5F5F5F5F5F5F5F5F5F5F5F5F5F5F5F5F5F5F5F5F5F5F5F5F5F5F5F5F5F5F5F5F5F5F5F5F5F5F5F5F5F5F5F5F5F5F5F5F5F5F5F5F5F5F5F5F5F5F5F5F5F5F5F5F5F5F5F5F5F5F5F5F5F5F5F5F5F5F5
310
F5F5F5F5F5F5F5F5F5F5F5E2F5F5F5F5F5F5F5F5F5F5F5F5F5F5F5F5E2F5F5F5F5E2E2F5F5F5F5E2F5F5F5F5F5F5F5F5F5F5F5F5F5F5F5F5E2F5F5F5F5F5F5F5F5F5F5F5F5F5F5F5F5F5F5F5F5F5F5F5F5F5F5F5F5F5F5F5F5F5F5F5F5F5F5F5F5F5F5F5F5F5F5F5F5F5F5F5F5F5F5F5F5F5F5F5F5F5F5F5F5F5F5F5F5F5F5
310
F5F5F5F5F5F5F5F5F5F5F5F5F5F5F5F5F5F5F5F5F5F5F5F5F5F5F5F5F5F5F5F5F5F5F5F5F5F5F5F5F5F5F5F5F5F5F5F5F5F5F5F5F5F5F5F5F5F5F5F5F5F5F5F5E2F5F5F5F5F5F5F5F5F5F5F5F5F5F5F5F5E2F5F5F5F5E2E2F5F5F5F5E2F5F5F5F5F5F5F5F5F5F5F5F5F5F5F5F5E2F5F5F5F5F5F5F5F5F5F5F5F5F5F5F5F5F5
310
F5F5F5F5F5F5F5F5F5F5F5F5F5F5F5F5F5F5F5F5F5F5F5F5F5F5F5F5F5F5F5F5F5F5F5F5F5F5F5F5F5F5F5F5F5F5F5F5F5F5F5F5F5F5F5F5F5F5F5F5F5F5F5F5F5F5F5F5F5F5F5F5F5F5F5F5F5F5F5F5F5F5F5F5F5F5F5F5F5F5F5F5F5F5F5F5F5F5F5F5F5F5F5F5F5F5F5F5F5F5F5F5F5F5F5F5F5E2F5F5F5F5F5F5F5F5F5
310
F5F5F5F5F5F5F5E2F5F5F5F5E2E2F5F5F5F5E2F5F5F5F5F5F5F5F5F5F5F5F5F5F5F5F5E2F5F5F5F5F5F5F5F5F5F5F5F5F5F5F5F5F5F5F5F5F5F5F5F5F5F5F5F5F5F5F5F5F5F5F5F5F5F5F5F5F5F5F5F5F5F5F5F5F5F5F5F5F5F5F5F5F5F5F5F5F5F5F5F5F5F5F5F5F5F5F5F5F5F5F5F5F5F5F5F5F5F5F5F5F5F5F5F5F5F5F5
310
F5F5F5F5F5F5F5F5F5F5F5F5F5F5F5F5F5F5F5F5F5F5F5F5F5F5F5F5F5F5F5F5F5F5F5F5F5F5F5F5F5F5F5E2F5F5F5F5F5F5F5F5F5F5F5F5F5F5F5F5E2F5F5F5F5E2E2F5F5F5F5E2F5F5F5F5F5F5F5F5F5F5F5F5F5F5F5F5E2F5F5F5F5F5F5F5F5F5F5F5F5F5F5F5F5F5F5F5F5F5F5F5F5F5F5F5F5F5F5F5F5F5F5F5F5F5F5
310
F5F5F5F5F5F5F5F5F5F5F5F5F5F5F5F5F5F5F5F5F5F5F5F5F5F5F5F5F5F5F5F5F5F5F5F5F5F5F5F5F5F5F5F5F5F5F5F5F5F5F5F5F5F5F5F5F5F5F5F5F5F5F5F5F5F5F5F5F5F5F5F5F5F5F5F5F5F5F5F5F5F5F5F5F5F5F5F5F5F5F5F5F5F5F5F5E2F5F5F5F5F5F5F5F5F5F5F5F5F5F5F5F5E2F5F5F5F5E2E2F5F5F5F5E2F5F5
310
F5F5F5F5F5F5F5F5F5F5F5F5F5F5E2F5F5F5F5F5F5F5F5F5F5F5F5F5F5F5F5F5F5F5F5F5F5F5F5F5F5F5F5F5F5F5F5F5F5F5F5F5F5F5F5F5F5F5F5F5F5F5F5F5F5F5F5F5F5F5F5F5F5F5F5F5F5F5F5F5F5F5F5F5F5F5F5F5F5F5F5F5F5F5F5F5F5F5F5F5F5F5F5F5F5F5F5F5F5F5F5F5F5F5F5F5F5F5F5F5F5F5F5F5F5F5F5
310
F5F5F5F5F5F5F5F5F5F5F5F5F5F5F5F5F5F5F5F5F5F5E2F5F5F5F5F5F5F5F5F5F5F5F5F5F5F5F5E2F5F5F5F5E2E2F5F5F5F5F5F5F5F5F5F5F5F5F5F5F5F5F5F5F5F5F5E2F5F5F5F5F5F5F5F5F5F5F5F5F5F5F5F5F5F5F5F5F5F5F5F5F5F5F5F5F5F5F5F5F5F5F5F5F5F5F5F5F5F5F5F5F5F5F5F5F5F5F5F5F5F5F5F5F5F5F5
310
F5F5F5F5F5F5F5F5F5F5F5F5F5F5F5F5F5F5F5F5F5F5F5F5F5F5F5F5F5F5F5F5F5F5F5F5F5F5F5F5F5F5F5F5F5F5F5F5F5F5F5F5F5F5F5F5F5F5F5F5F5F5F5F5F5F5F5F5F5F5F5F5F5F5F5E2F5F5F5F5F5F5F5F5F5F5F5F5F5F5F5F5F5F5F5F5F5E2E2F5F5F5F5F5F5F5F5F5F5F5F5F5F5F5F5F5F5F5F5F5E2F5F5F5F5F5F5
310
F5F5F5F5F5F5F5F5F5F5F5F5F5F5F5F5F5F5F5F5F5F5F5F5F5F5F5F5F5F5F5F5F5F5F5F5F5F5F5F5F5F5F5F5F5F5F5F5F5F5F5F5F5F5F5F5F5F5F5F5F5F5F5F5F5F5F5F5F5F5F5F5F5F5F5F5F5F5F5F5F5F5F5F5F5F5F5F5F5F5F5F5F5F5F5F5F5F5F5F5F5F5F5F5F5F5F5F5F5F5F5F5F5F5F5F5F5F5F5F5F5F5F5F5F5F5F5
310
F5E2F5F5F5F5F5F5F5F5F5F5F5F5F5F5F5F5F5F5F5F5F5E2E2F5F5F5F5F5F5F5F5F5F5F5F5F5F5F5F5F5F5F5F5F5E2F5F5F5F5F5F5F5F5F5F5F5F5F5F5F5F5F5F5F5F5F5F5F5F5F5F5F5F5F5F5F5F5F5F5F5F5F5F5F5F5F5F5F5F5F5F5F5F5F5F5F5F5F5F5F5F5F5F5F5F5F5F5F5F5F5F5F5F5F5F5F5F5F5F5F5F5F5F5F5F5
310
F5F5F5F5F5F5F5F5F5F5F5F5F5F5F5F5F5F5F5F5F5F5F5F5F5F5F5F5F5F5F5F5F5F5F5F5F5F5F5F5F5F5F5F5F5F5F5F5F5F5F5F5F5F5E2F5F5F5F5F5F5F5F5F5F5F5F5F5F5F5F5F5F5F5F5F5E2E2F5F5F5F5F5F5F5F5F5F5F5F5F5F5F5F5F5F5F5F5F5E2F5F5F5F5F5F5F5F5F5F5F5F5F5F5F5F5F5F5F5F5F5F5F5F5F5F5F5
310
F5F5F5F5F5F5F5F5F5F5F5F5F5F5F5F5F5F5F5F5F5F5F5F5F5F5F5F5F5F5F5F5F5F5F5F5F5F5F5F5F5F5F5F5F5F5F5F5F5F5F5F5F5F5F5F5F5F5F5F5F5F5F5F5F5F5F5F5F5F5F5F5F5F5F5F5F5F5F5F5F5F5F5F5F5F5F5F5F5F5F5F5F5F5F5F5F5F5F5F5F5F5F5F5F5F5F5E2F5F5F5F5F5F5F5F5F5F5F5F5F5F5F5F5F5F5F5
310
F5F5E2E2F5F5F5F5F5F5F5F5F5F5F5F5F5F5F5F5F5F5F5F5F5E2F5F5F5F5F5F5F5F5F5F5F5F5F5F5F5F5F5F5F5F5F5F5F5F5F5F5F5F5F5F5F5F5F5F5F5F5F5F5F5F5F5F5F5F5F5F5F5F5F5F5F5F5F5F5F5F5F5F5F5F5F5F5F5F5F5F5F5F5F5F5F5F5F5F5F5F5F5F5F5F5F5F5F5F5F5F5F5F5F5F5F5F5F5F5F5F5F5F5F5F5F5
310
F5F5F5F5F5F5F5F5F5F5F5F5F5F5F5F5F5F5F5F5F5F5F5F5F5F5F5F5F5F5F5F5F5E2F5F5F5F5F5F5F5F5F5F5F5F5F5F5F5F5F5F5F5F5F5E2E2F5F5F5F5F5F5F5F5F5F5F5F5F5F5F5F5F5F5F5F5F5E2F5F5F5F5F5F5F5F5F5F5F5F5F5F5F5F5F5F5F5F5F5F5F5F5F5F5F5F5F5F5F5F5F5F5F5F5F5F5F5F5F5F5F5F5F5F5F5F5
310
F5F5F5F5F5F5F5F5F5F5F5F5F5F5F5F5F5F5F5F5F5F5F5F5F5F5F5F5F5F5F5F5F5F5F5F5F5F5F5F5F5F5F5F5F5F5F5F5F5F5F5F5F5F5F5F5F5F5F5F5F5F5F5F5F5F5F5F5F5F5F5F5F5F5F5F5F5F5F5F5F5F5F5F5F5F5E2F5F5F5F5F5F5F5F5F5F5F5F5F5F5F5F5F5F5F5F5F5E2E2F5F5F5F5F5F5F5F5F5F5F5F5F5F5F5F5F5
310
F5F5F5F5E2F5F5F5F5F5F5F5F5F5F5F5F5F5F5F5F5F5F5F5F5F5F5F5F5F5F5F5F5F5F5F5F5F5F5F5F5F5F5F5F5F5F5F5F5F5F5F5F5F5F5F5F5F5F5F5F5F5F5F5F5F5F5F5F5F5F5F5F5F5F5F5F5F5F5F5F5F5F5F5F5F5F5F5F5F5F5F5F5F5F5F5F5F5F5F5F5F5F5F5F5F5F5F5F5F5F5F5F5F5F5F5F5F5F5F5F5F5F5F5F5F5F5
310
F5F5F5F5F5F5F5F5F5F5F5F5E2F5F5F5F5F5F5F5F5F5F5F5F5F5F5F5F5F5F5F5F5F5E2E2F5F5F5F5F5F5F5F5F5F5F5F5F5F5F5F5F5F5F5F5F5E2F5F5F5F5F5F5F5F5F5F5F5F5F5F5F5F5F5F5F5F5F5F5F5F5F5F5F5F5F5F5F5F5F5F5F5F5F5F5F5F5F5F5F5F5F5F5F5F5F5F5F5F5F5F5F5F5F5F5F5F5F5F5F5F5F5F5F5F5F5
310
F5F5F5F5F5F5F5F5F5F5F5F5F5F5F5F5F5F5F5F5F5F5F5F5F5F5F5F5F5F5F5F5F5F5F5F5F5F5F5F5F5F5F5F5F5F5F5F5F5F5F5F5F5F5F5F5F5F5F5F5F5F5F5F5F5E2F5F5F5F5F5F5F5F5F5F5F5F5F5F5F5F5F5F5F5F5F5E2E2F5F5F5F5F5F5F5F5F5F5F5F5F5F5F5F5F5F5F5F5F5E2F5F5F5F5F5F5F5F5F5F5F5F5F5F5F5F5
310
F5F5F5F5F5F5F5F5F5F5F5F5F5F5F5F5F5F5F5F5F5F5F5F5F5F5F5F5F5F5F5F5F5F5F5F5F5F5F5F5F5F5F5F5F5F5F5F5F5F5F5F5F5F5F5F5F5F5F5F5F5F5F5F5F5F5F5F5F5F5F5F5F5F5F5F5F5F5F5F5F5F5F5F5F5F5F5F5F5F5F5F5F5F5F5F5F5F5F5F5F5F5F5F5F5F5F5F5F5F5F5F5F5F5F5F5F5F5E2F5F5F5F5F5F5F5F5
310
F5F5F5F5F5F5F5F5F5F5F5F5F5E2E2F5F5F5F5E2F5F5F5F5F5F5F5F5F5F5F5F5F5F5F5F5E2F5F5F5F5F5F5F5F5F5F5F5F5F5F5F5F5F5F5F5F5F5F5F5F5F5F5F5F5F5F5F5F5F5F5F5F5F5F5F5F5F5F5F5F5F5F5F5F5F5F5F5F5F5F5F5F5F5F5F5F5F5F5F5F5F5F5F5F5F5F5F5F5F5F5F5F5F5F5F5F5F5F5F5F5F5F5F5F5F5F5
310
F5F5F5F5F5F5F5F5F5F5F5F5F5F5F5F5F5F5F5F5F5F5F5F5F5F5F5F5F5F5F5F5F5F5F5F5F5F5F5F5F5F5F5F5E2F5F5F5F5F5F5F5F5F5F5F5F5F5F5F5F5E2F5F5F5F5E2E2F5F5F5F5E2F5F5F5F5F5F5F5F5F5F5F5F5F5F5F5F5E2F5F5F5F5F5F5F5F5F5F5F5F5F5F5F5F5F5F5F5F5F5F5F5F5F5F5F5F5F5F5F5F5F5F5F5F5F5
310
F5F5F5F5F5F5F5F5F5F5F5F5F5F5F5F5F5F5F5F5F5F5F5F5F5F5F5F5F5F5F5F5F5F5F5F5F5F5F5F5F5F5F5F5F5F5F5F5F5F5F5F5F5F5F5F5F5F5F5F5F5F5F5F5F5F5F5F5F5F5F5F5F5F5F5F5F5F5F5F5F5F5F5F5F5F5F5F5F5F5F5F5F5F5F5F5F5E2F5F5F5F5F5F5F5F5F5F5F5F5F5F5F5F5E2F5F5F5F5E2E2F5F5F5F5E2F5
310
F5F5F5F5F5F5F5F5F5F5F5F5F5F5F5E2F5F5F5F5F5F5F5F5F5F5F5F5F5F5F5F5F5F5F5F5F5F5F5F5F5F5F5F5F5F5F5F5F5F5F5F5F5F5F5F5F5F5F5F5F5F5F5F5F5F5F5F5F5F5F5F5F5F5F5F5F5F5F5F5F5F5F5F5F5F5F5F5F5F5F5F5F5F5F5F5F5F5F5F5F5F5F5F5F5F5F5F5F5F5F5F5F5F5F5F5F5F5F5F5F5F5F5F5F5F5F5
310
F5F5F5F5F5F5F5F5F5F5F5F5F5F5F5F5F5F5F5F5F5F5F5E2F5F5F5F5F5F5F5F5F5F5F5F5F5F5F5F5E2F5F5F5F5E2E2F5F5F5F5E2F5F5F5F5F5F5F5F5F5F5F5F5F5F5F5F5E2F5F5F5F5F5F5F5F5F5F5F5F5F5F5F5F5F5F5F5F5F5F5F5F5F5F5F5F5F5F5F5F5F5F5F5F5F5F5F5F5F5F5F5F5F5F5F5F5F5F5F5F5F5F5F5F5F5F5
310
F5F5F5F5F5F5F5F5F5F5F5F5F5F5F5F5F5F5F5F5F5F5F5F5F5F5F5F5F5F5F5F5F5F5F5F5F5F5F5F5F5F5F5F5F5F5F5F5F5F5F5F5F5F5F5F5F5F5F5F5F5F5F5F5F5F5F5F5F5F5F5F5F5F5F5F5E2F5F5F5F5F5F5F5F5F5F5F5F5F5F5F5F5E2F5F5F5F5E2E2F5F5F5F5E2F5F5F5F5F5F5F5F5F5F5F5F5F5F5F5F5E2F5F5F5F5F5
310
F5F5F5F5F5F5F5F5F5F5F5F5F5F5F5F5F5F5F5F5F5F5F5F5F5F5F5F5F5F5F5F5F5F5F5F5F5F5F5F5F5F5F5F5F5F5F5F5F5F5F5F5F5F5F5F5F5F5F5F5F5F5F5F5F5F5F5F5F5F5F5F5F5F5F5F5F5F5F5F5F5F5F5F5F5F5F5F5F5F5F5F5F5F5F5F5F5F5F5F5F5F5F5F5F5F5F5F5F5F5F5F5F5F5F5F5F5F5F5F5F5F5F5F5F5F5F5
310
F5F5E2F5F5F5F5F5F5F5F5F5F5F5F5F5F5F5F5E2F5F5F5F5E2E2F5F5F5F5E2F5F5F5F5F5F5F5F5F5F5F5F5F5F5F5F5E2F5F5F5F5F5F5F5F5F5F5F5F5F5F5F5F5F5F5F5F5F5F5F5F5F5F5F5F5F5F5F5F5F5F5F5F5F5F5F5F5F5F5F5F5F5F5F5F5F5F5F5F5F5F5F5F5F5F5F5F5F5F5F5F5F5F5F5F5F5F5F5F5F5F5F5F5F5F5F5
310
F5F5F5F5F5F5F5F5F5F5F5F5F5F5F5F5F5F5F5F5F5F5F5F5F5F5F5F5F5F5F5F5F5F5F5F5F5F5F5F5F5F5F5F5F5F5F5F5F5F5F5F5F5F5F5E2F5F5F5F5F5F5F5F5F5F5F5F5F5F5F5F5E2F5F5F5F5E2E2F5F5F5F5E2F5F5F5F5F5F5F5F5F5F5F5F5F5F5F5F5E2F5F5F5F5F5F5F5F5F5F5F5F5F5F5F5F5F5F5F5F5F5F5F5F5F5F5
310
F5F5F5F5F5F5F5F5F5F5F5F5F5F5F5F5F5F5F5F5F5F5F5F5F5F5F5F5F5F5F5F5F5F5F5F5F5F5F5F5F5F5F5F5F5F5F5F5F5F5F5F5F5F5F5F5F5F5F5F5F5F5F5F5F5F5F5F5F5F5F5F5F5F5F5F5F5F5F5F5F5F5F5F5F5F5F5F5F5F5F5F5F5F5F5F5F5F5F5F5F5F5F5F5F5F5F5F5E2F5F5F5F5F5F5F5F5F5F5F5F5F5F5F5F5E2F5
310
F5F5F5E2E2F5F5F5F5E2F5F5F5F5F5F5F5F5F5F5F5F5F5F5F5F5E2F5F5F5F5F5F5F5F5F5F5F5F5F5F5F5F5F5F5F5F5F5F5F5F5F5F5F5F5F5F5F5F5F5F5F5F5F5F5F5F5F5F5F5F5F5F5F5F5F5F5F5F5F5F5F5F5F5F5F5F5F5F5F5F5F5F5F5F5F5F5F5F5F5F5F5F5F5F5F5F5F5F5F5F5F5F5F5F5F5F5F5F5F5F5F5F5F5F5F5F5
310
F5F5F5F5F5F5F5F5F5F5F5F5F5F5F5F5F5F5F5F5F5F5F5F5F5F5F5F5F5F5F5F5F5F5E2F5F5F5F5F5F5F5F5F5F5F5F5F5F5F5F5E2F5F5F5F5E2E2F5F5F5F5E2F5F5F5F5F5F5F5F5F5F5F5F5F5F5F5F5E2F5F5F5F5F5F5F5F5F5F5F5F5F5F5F5F5F5F5F5F5F5F5F5F5F5F5F5F5F5F5F5F5F5F5F5F5F5F5F5F5F5F5F5F5F5F5F5
310
F5F5F5F5F5F5F5F5F5F5F5F5F5F5F5F5F5F5F5F5F5F5F5F5F5F5F5F5F5F5F5F5F5F5F5F5F5F5F5F5F5F5F5F5F5F5F5F5F5F5F5F5F5F5F5F5F5F5F5F5F5F5F5F5F5F5F5F5F5F5F5F5F5F5F5F5F5F5F5F5F5F5F5F5F5F5F5E2F5F5F5F5F5F5F5F5F5F5F5F5F5F5F5F5E2F5F5F5F5E2E2F5F5F5F5E2F5F5F5F5F5F5F5F5F5F5F5
310
F5F5F5F5F5E2F5F5F5F5F5F5F5F5F5F5F5F5F5F5F5F5F5F5F5F5F5F5F5F5F5F5F5F5F5F5F5F5F5F5F5F5F5F5F5F5F5F5F5F5F5F5F5F5F5F5F5F5F5F5F5F5F5F5F5F5F5F5F5F5F5F5F5F5F5F5F5F5F5F5F5F5F5F5F5F5F5F5F5F5F5F5F5F5F5F5F5F5F5F5F5F5F5F5F5F5F5F5F5F5F5F5F5F5F5F5F5F5F5F5F5F5F5F5F5F5F5
310
F5F5F5F5F5F5F5F5F5F5F5F5F5E2F5F5F5F5F5F5F5F5F5F5F5F5F5F5F5F5E2F5F5F5F5E2E2F5F5F5F5E2F5F5F5F5F5F5F5F5F5F5F5F5F5F5F5F5E2F5F5F5F5F5F5F5F5F5F5F5F5F5F5F5F5F5F5F5F5F5F5F5F5F5F5F5F5F5F5F5F5F5F5F5F5F5F5F5F5F5F5F5F5F5F5F5F5F5F5F5F5F5F5F5F5F5F5F5F5F5F5F5F5F5F5F5F5
310
F5F5F5F5F5F5F5F5F5F5F5F5F5F5F5F5F5F5F5F5F5F5F5F5F5F5F5F5F5F5F5F5F5F5F5F5F5F5F5F5F5F5F5F5F5F5F5F5F5F5F5F5F5F5F5F5F5F5F5F5F5F5F5F5F5F5E2F5F5F5F5F5F5F5F5F5F5F5F5F5F5F5F5E2F5F5F5F5E2E2F5F5F5F5E2F5F5F5F5F5F5F5F5F5F5F5F5F5F5F5F5E2F5F5F5F5F5F5F5F5F5F5F5F5F5F5F5
310
F5F5F5F5F5F5F5F5F5F5F5F5F5F5F5F5F5F5F5F5F5F5F5F5F5F5F5F5F5F5F5F5F5F5F5F5F5F5F5F5F5F5F5F5F5F5F5F5F5F5F5F5F5F5F5F5F5F5F5F5F5F5F5F5F5F5F5F5F5F5F5F5F5F5F5F5F5F5F5F5F5F5F5F5F5F5F5F5F5F5F5F5F5F5F5F5F5F5F5F5F5F5F5F5F5F5F5F5F5F5F5F5F5F5F5F5F5F5F5E2F5F5F5F5F5F5F5
310
F5F5F5F5F5F5F5F5F5E2F5F5F5F5E2E2F5F5F5F5E2F5F5F5F5F5F5F5F5F5F5F5F5F5F5F5F5E2F5F5F5F5F5F5F5F5F5F5F5F5F5F5F5F5F5F5F5F5F5F5F5F5F5F5F5F5F5F5F5F5F5F5F5F5F5F5F5F5F5F5F5F5F5F5F5F5F5F5F5F5F5F5F5F5F5F5F5F5F5F5F5F5F5F5F5F5F5F5F5F5F5F5F5F5F5F5F5F5F5F5F5F5F5F5F5F5F5
310
F5F5F5F5F5F5F5F5F5F5F5F5F5F5F5F5F5F5F5F5F5F5F5F5F5F5F5F5F5F5F5F5F5F5F5F5F5F5F5F5F5F5F5F5F5E2F5F5F5F5F5F5F5F5F5F5F5F5F5F5F5F5E2F5F5F5F5E2E2F5F5F5F5E2F5F5F5F5F5F5F5F5F5F5F5F5F5F5F5F5E2F5F5F5F5F5F5F5F5F5F5F5F5F5F5F5F5F5F5F5F5F5F5F5F5F5F5F5F5F5F5F5F5F5F5F5F5
310
F5F5F5F5F5F5F5F5F5F5F5F5F5F5F5F5F5F5F5F5F5F5F5F5F5F5F5F5F5F5F5F5F5F5F5F5F5F5F5F5F5F5F5F5F5F5F5F5F5F5F5F5F5F5F5F5F5F5F5F5F5F5F5F5F5F5F5F5F5F5F5F5F5F5F5F5F5F5F5F5F5F5F5F5F5F5F5F5F5F5F5F5F5F5F5F5F5F5E2F5F5F5F5F5F5F5F5F5F5F5F5F5F5F5F5E2F5F5F5F5E2E2F5F5F5F5E2
310
F5F5F5F5F5F5F5F5F5F5F5F5F5F5F5F5E2F5F5F5F5F5F5F5F5F5F5F5F5F5F5F5F5F5F5F5F5F5F5F5F5F5F5F5F5F5F5F5F5F5F5F5F5F5F5F5F5F5F5F5F5F5F5F5F5F5F5F5F5F5F5F5F5F5F5F5F5F5F5F5F5F5F5F5F5F5F5F5F5F5F5F5F5F5F5F5F5F5F5F5F5F5F5F5F5F5F5F5F5F5F5F5F5F5F5F5F5F5F5F5F5F5F5F5F5F5F5
310
F5F5F5F5F5F5F5F5F5F5F5F5F5F5F5F5F5F5F5F5F5F5F5F5E2F5F5F5F5F5F5F5F5F5F5F5F5F5F5F5F5E2F5F5F5F5E2E2F5F5F5F5E2F5F5F5F5F5F5F5F5F5F5F5F5F5F5F5F5E2F5F5F5F5F5F5F5F5F5F5F5F5F5F5F5F5F5F5F5F5F5F5F5F5F5F5F5F5F5F5F5F5F5F5F5F5F5F5F5F5F5F5F5F5F5F5F5F5F5F5F5F5F5F5F5F5F5
310
F5F5F5F5F5F5F5F5F5F5F5F5F5F5F5F5F5F5F5F5F5F5F5F5F5F5F5F5F5F5F5F5F5F5F5F5F5F5F5F5F5F5F5F5F5F5F5F5F5F5F5F5F5F5F5F5F5F5F5F5F5F5F5F5F5F5F5F5F5F5F5F5F5F5F5F5F5E2F5F5F5F5F5F5F5F5F5F5F5F5F5F5F5F5E2F5F5F5F5E2E2F5F5F5F5E2F5F5F5F5F5F5F5F5F5F5F5F5F5F5F5F5E2F5F5F5F5
310
F5F5F5F5F5F5F5F5F5F5F5F5F5F5F5F5F5F5F5F5F5F5F5F5F5F5F5F5F5F5F5F5F5F5F5F5F5F5F5F5F5F5F5F5F5F5F5F5F5F5F5F5F5F5F5F5F5F5F5F5F5F5F5F5F5F5F5F5F5F5F5F5F5F5F5F5F5F5F5F5F5F5F5F5F5F5F5F5F5F5F5F5F5F5F5F5F5F5F5F5F5F5F5F5F5F5F5F5F5F5F5F5F5F5F5F5F5F5F5F5F5F5F5F5F5F5F5
310
F5F5F5E2F5F5F5F5F5F5F5F5F5F5F5F5F5F5F5F5E2F5F5F5F5E2E2F5F5F5F5F5F5F5F5F5F5F5F5F5F5F5F5F5F5F5F5F5E2F5F5F5F5F5F5F5F5F5F5F5F5F5F5F5F5F5F5F5F5F5F5F5F5F5F5F5F5F5F5F5F5F5F5F5F5F5F5F5F5F5F5F5F5F5F5F5F5F5F5F5F5F5F5F5F5F5F5F5F5F5F5F5F5F5F5F5F5F5F5F5F5F5F5F5F5F5F5
310
F5F5F5F5F5F5F5F5F5F5F5F5F5F5F5F5F5F5F5F5F5F5F5F5F5F5F5F5F5F5F5F5F5F5F5F5F5F5F5F5F5F5F5F5F5F5F5F5F5F5F5F5F5F5F5F5E2F5F5F5F5F5F5F5F5F5F5F5F5F5F5F5F5F5F5F5F5F5E2E2F5F5F5F5F5F5F5F5F5F5F5F5F5F5F5F5F5F5F5F5F5E2F5F5F5F5F5F5F5F5F5F5F5F5F5F5F5F5F5F5F5F5F5F5F5F5F5
310
F5F5F5F5F5F5F5F5F5F5F5F5F5F5F5F5F5F5F5F5F5F5F5F5F5F5F5F5F5F5F5F5F5F5F5F5F5F5F5F5F5F5F5F5F5F5F5F5F5F5F5F5F5F5F5F5F5F5F5F5F5F5F5F5F5F5F5F5F5F5F5F5F5F5F5F5F5F5F5F5F5F5F5F5F5F5F5F5F5F5F5F5F5F5F5F5F5F5F5F5F5F5F5F5F5F5F5F5F5E2F5F5F5F5F5F5F5F5F5F5F5F5F5F5F5F5F5
310
F5F5F5F5E2E2F5F5F5F5F5F5F5F5F5F5F5F5F5F5F5F5F5F5F5F5F5E2F5F5F5F5F5F5F5F5F5F5F5F5F5F5F5F5F5F5F5F5F5F5F5F5F5F5F5F5F5F5F5F5F5F5F5F5F5F5F5F5F5F5F5F5F5F5F5F5F5F5F5F5F5F5F5F5F5F5F5F5F5F5F5F5F5F5F5F5F5F5F5F5F5F5F5F5F5F5F5F5F5F5F5F5F5F5F5F5F5F5F5F5F5F5F5F5F5F5F5
310
F5F5F5F5F5F5F5F5F5F5F5F5F5F5F5F5F5F5F5F5F5F5F5F5F5F5F5F5F5F5F5F5F5F5F5E2F5F5F5F5F5F5F5F5F5F5F5F5F5F5F5F5F5F5F5F5F5E2E2F5F5F5F5F5F5F5F5F5F5F5F5F5F5F5F5F5F5F5F5F5E2F5F5F5F5F5F5F5F5F5F5F5F5F5F5F5F5F5F5F5F5F5F5F5F5F5F5F5F5F5F5F5F5F5F5F5F5F5F5F5F5F5F5F5F5F5F5
310
F5F5F5F5F5F5F5F5F5F5F5F5F5F5F5F5F5F5F5F5F5F5F5F5F5F5F5F5F5F5F5F5F5F5F5F5F5F5F5F5F5F5F5F5F5F5F5F5F5F5F5F5F5F5F5F5F5F5F5F5F5F5F5F5F5F5F5F5F5F5F5F5F5F5F5F5F5F5F5F5F5F5F5F5F5F5F5F5E2F5F5F5F5F5F5F5F5F5F5F5F5F5F5F5F5F5F5F5F5F5E2E2F5F5F5F5F5F5F5F5F5F5F5F5F5F5F5
310
F5F5F5F5F5F5E2E2E2E2E2E2E2E2E2E2E2E2E2E2E2E2E2E2E2E2E2E2E2E2E2E2E2E2E2E2E2E2E2E2E2E2E2E2E2E2E2E2E2E2E2E2E2E2E2E2E2E2E2E2E2E2E2E2E2E2E2E2E2E2E2E2E2E2E2E2E2E2E2E2E2E2E2E2E2E2E2E2E2E2E2E2E2E2E2E2E2E2E2E2E2E2E2E2E2E2E2E2E2E2E2E2E2E2E2E2E2E2E2E2E2E2E2E2E2E2E2
310
E2E2E2E2E2E2E2E2E2E2E2E2E2E2E2F5F5F5F5F5F5F5F5F5F5F5F5F5F5F5F5F5F5F5F5F5E2E2F5F5F5F5F5F5F5F5F5F5F5F5F5F5F5F5F5F5F5F5F5F5F5F5F5F5F5F5F5F5F5F5F5F5F5F5F5F5F5F5F5F5F5F5F5F5F5F5F5F5F5F5F5F5F5F5F5F5F5F5F5F5F5F5F5F5F5F5F5F5F5F5F5F5F5F5F5F5F5F5F5F5F5F5F5F5F5F5F5
310
F5F5F5F5F5F5F5F5F5F5F5F5F5F5F5F5F5F5F5F5F5F5F5F5F5F5F5F5F5F5F5F5F5F5F5F5F5F5F5F5F5F5F5F5F5F5F5F5F5F5F5F5F5F5F5F5F5F5F5F5F5F5F5F5F5F5F5F5F5F5F5F5F5F5F5F5F5F5F5F5F5F5F5F5F5F5F5F5F5E2E2F5F5F5F5F5F5F5F5F5F5F5F5F5F5F5F5F5F5F5F5F5F5F5F5F5F5F5F5F5F5F5F5F5F5F5F5
310
F5F5F5F5F5F5F5F5F5F5F5F5F5F5F5F5F5F5F5F5F5F5F5F5F5F5F5F5F5F5F5F5F5F5F5F5F5F5F5F5F5F5F5F5F5F5F5F5F5F5F5F5F5F5F5F5F5F5F5F5F5F5F5F5F5F5F5F5F5F5F5F5F5F5F5F5F5F5F5F5F5F5F5F5F5F5F5F5F5F5F5F5F5F5F5F5F5F5F5F5F5F5F5F5F5F5F5F5F5F5F5F5F5F5F5F5F5F5F5F5F5F5F5F5F5F5F5
310
F5F5F5F5F5F5F5F5F5F5F5F5F5F5F5E2E2F5F5F5F5F5F5F5F5F5F5F5F5F5F5F5F5F5F5F5F5F5F5F5F5F5F5F5F5F5F5F5F5F5F5F5F5F5F5F5F5F5F5F5F5F5F5F5F5F5F5F5F5F5F5F5F5F5F5F5F5F5F5F5F5F5F5F5F5F5F5F5F5F5F5F5F5F5F5F5F5F5F5F5F5F5F5F5F5F5F5F5F5F5F5F5F5F5F5F5F5F5F5F5F5F5F5F5F5F5F5
310
F5F5F5F5F5F5F5F5F5F5F5F5F5F5F5F5F5F5F5F5F5F5F5F5F5F5F5F5F5F5F5F5F5F5F5F5F5F5F5F5F5F5F5F5F5F5F5F5F5F5F5F5F5F5F5F5F5F5F5F5F5F5F5F5F5F5F5F5E2E2F5F5F5F5F5F5F5F5F5F5F5F5F5F5F5F5F5F5F5F5F5F5F5F5F5F5F5F5F5F5F5F5F5F5F5F5F5F5F5F5F5F5F5F5F5F5F5F5F5F5F5F5F5F5F5F5F5
310
F5F5F5F5F5F5F5F5F5F5F5F5F5F5F5F5F5F5F5F5F5F5F5F5F5F5F5F5F5F5F5F5F5F5F5F5F5F5F5F5F5F5F5F5F5F5F5F5F5F5F5F5F5F5F5F5F5F5F5F5F5F5F5F5F5F5F5F5F5F5F5F5F5F5F5F5F5F5F5F5F5F5F5F5F5F5F5F5F5F5F5F5F5F5F5F5F5F5F5F5F5F5F5F5F5F5F5F5F5F5F5F5F5F5F5F5F5F5F5F5F5E2E2F5F5F5F5
310
E2F5F5F5F5F5F5F5F5F5F5F5F5F5F5F5F5F5F5F5F5F5F5F5F5F5F5F5F5F5F5F5F5F5F5F5F5F5F5F5F5F5F5F5F5F5F5F5F5F5F5F5F5F5F5F5F5F5F5F5F5F5F5F5F5F5F5F5F5F5F5F5F5F5F5F5F5F5F5F5F5F5F5F5F5F5F5F5F5F5F5F5F5F5F5F5F5F5F5F5F5F5F5F5F5F5F5F5F5F5F5F5F5F5F5F5F5F5F5F5F5F5F5F5F5F5F5
310
F5F5F5F5F5F5F5F5F5F5F5F5F5F5F5F5F5F5F5F5F5F5F5F5F5F5F5F5F5F5F5F5F5F5F5F5F5F5F5F5F5F5E2F5F5F5F5E2E2F5F5F5F5E2F5F5F5F5F5F5F5F5F5F5F5F5F5F5F5F5F5F5F5F5F5F5F5F5F5F5F5F5F5F5F5F5F5F5F5F5F5F5F5F5F5F5F5F5F5F5F5F5F5F5F5F5F5F5F5F5F5F5F5F5F5F5F5F5F5F5F5F5F5F5F5F5F5
310
F5F5F5F5F5F5F5F5F5F5F5F5F5F5F5F5F5F5F5F5F5F5F5F5F5F5F5F5F5F5F5F5F5F5F5F5F5F5F5F5F5F5F5F5F5F5F5F5F5F5F5F5F5F5F5F5F5F5F5F5F5F5F5F5F5F5F5F5F5F5F5F5F5F5F5F5F5F5F5F5F5F5F5F5F5F5F5F5F5F5F5F5F5F5F5E2F5F5F5F5E2E2F5F5F5F5E2F5F5F5F5F5F5F5F5F5F5F5F5F5F5F5F5F5F5F5F5
310
F5F5F5F5F5F5F5F5F5F5F5F5F5F5F5F5F5F5F5F5F5F5F5F5F5F5F5F5F5F5F5F5F5F5F5F5F5F5F5F5F5F5F5F5F5F5F5F5F5F5F5F5F5F5F5F5F5F5F5F5F5F5F5F5F5F5F5F5F5F5F5F5F5F5F5F5F5F5F5F5F5F5F5F5F5F5F5F5F5F5F5F5F5F5F5F5F5F5F5F5F5F5F5F5F5F5F5F5F5F5F5F5F5F5F5F5F5F5F5F5F5F5F5F5F5F5F5
310
F5F5F5F5F5F5F5F5F5F5F5F5F5F5F5F5F5F5F5F5F5E2F5F5F5F5E2E2F5F5F5F5E2F5F5F5F5F5F5F5F5F5F5F5F5F5F5F5F5F5F5F5F5F5F5F5F5F5F5F5F5F5F5F5F5F5F5F5F5F5F5F5F5F5F5F5F5F5F5F5F5F5F5F5F5F5F5F5F5F5F5F5F5F5F5F5F5F5F5F5F5F5F5F5F5F5F5F5F5F5F5F5F5F5F5F5F5F5F5F5F5F5F5F5F5F5F5
310
F5F5F5F5F5F5F5F5F5F5F5F5F5F5F5F5F5F5F5F5F5F5F5F5F5F5F5F5F5F5F5F5F5F5F5F5F5F5F5F5F5F5F5F5F5F5F5F5F5F5F5F5F5F5F5F5F5F5F5F5F5F5F5F5F5F5F5F5F5F5F5F5F5F5E2F5F5F5F5E2E2F5F5F5F5E2F5F5F5F5F5F5F5F5F5F5F5F5F5F5F5F5F5F5F5F5F5F5F5F5F5F5F5F5F5F5F5F5F5F5F5F5F5F5F5F5F5
310
F5F5F5F5F5F5F5F5F5F5F5F5F5F5F5F5F5F5F5F5F5F5F5F5F5F5F5F5F5F5F5F5F5F5F5F5F5F5F5F5F5F5F5F5F5F5F5F5F5F5F5F5F5F5F5F5F5F5F5F5F5F5F5F5F5F5F5F5F5F5F5F5F5F5F5F5F5F5F5F5F5F5F5F5F5F5F5F5F5F5F5F5F5F5F5F5F5F5F5F5F5F5F5F5F5F5F5F5F5F5F5F5F5F5F5F5F5F5F5F5F5F5F5F5F5F5F5
310
E2F5F5F5F5E2E2F5F5F5F5E2F5F5F5F5F5F5F5F5F5F5F5F5F5F5F5F5F5F5F5F5F5F5F5F5F5F5F5F5F5F5F5F5F5F5F5F5F5F5F5F5F5F5F5F5F5F5F5F5F5F5F5F5F5F5F5F5F5F5F5F5F5F5F5F5F5F5F5F5F5F5F5F5F5F5F5F5F5F5F5F5F5F5F5F5F5F5F5F5F5F5F5F5F5F5F5F5F5F5F5F5F5F5F5F5F5F5F5F5F5F5F5F5F5F5F5
310
F5F5F5F5F5F5F5F5F5F5F5F5F5F5F5F5F5F5F5F5F5F5F5F5F5F5F5F5F5F5F5F5F5F5F5F5F5F5F5F5F5F5F5F5F5F5F5F5F5F5F5F5F5E2F5F5F5F5E2E2F5F5F5F5E2F5F5F5F5F5F5F5F5F5F5F5F5F5F5F5F5F5F5F5F5F5F5F5F5F5F5F5F5F5F5F5F5F5F5F5F5F5F5F5F5F5F5F5F5F5F5F5F5F5F5F5F5F5F5F5F5F5F5F5F5F5F5
310
F5F5F5F5F5F5F5F5F5F5F5F5F5F5F5F5F5F5F5F5F5F5F5F5F5F5F5F5F5F5F5F5F5F5F5F5F5F5F5F5F5F5F5F5F5F5F5F5F5F5F5F5F5F5F5F5F5F5F5F5F5F5F5F5F5F5F5F5F5F5F5F5F5F5F5F5F5F5F5F5F5F5F5F5F5F5F5F5F5F5F5F5F5F5F5F5F5F5F5F5F5F5F5F5F5F5E2F5F5F5F5E2E2F5F5F5F5E2F5F5F5F5F5F5F5F5F5
310
F5F5F5F5F5F5F5F5F5F5F5F5F5F5F5F5F5F5F5F5F5F5F5F5F5F5F5F5F5F5F5F5F5F5F5F5F5F5F5F5F5F5F5F5F5F5F5F5F5F5F5F5F5F5F5F5F5F5F5F5F5F5F5F5F5F5F5F5F5F5F5F5F5F5F5F5F5F5F5F5F5F5F5F5F5F5F5F5F5F5F5F5F5F5F5F5F5F5F5F5F5F5F5F5F5F5F5F5F5F5F5F5F5F5F5F5F5F5F5F5F5F5F5F5F5F5F5
310
F5F5F5F5F5F5F5F5F5F5F5F5F5F5F5F5F5F5F5F5F5F5F5F5F5F5F5F5F5F5F5F5E2F5F5F5F5E2E2F5F5F5F5E2E2E2E2E2E2E2E2F5F5F5F5F5F5F5F5F5E2E2E2E2E2E2E2E2E2E2E2E2E2E2E2F5F5F5F5F5F5F5F5F5E2E2E2E2E2E2E2E2E2E2E2E2E2E2E2E2F5F5F5F5F5F5F5F5E2E2E2E2E2E2E2E2E2E2E2E2E2E2E2E2F5F5F5
310
F5F5F5F5F5E2E2E2E2E2E2E2E2E2E2E2E2E2E2E2E2F5F5F5F5F5F5F5F5E2E2E2E2E2E2E2E2E2E2E2E2E2E2E2E2F5F5F5F5F5F5F5F5F5E2E2E2E2E2E2E2E2E2E2E2E2E2E2E2F5F5F5F5F5F5F5F5F5E2E2E2E2E2E2E2E2F5F5F5F5E2E2F5F5F5F5F5F5F5F5F5F5F5F5F5F5F5F5F5F5F5F5F5F5F5F5F5F5F5F5F5F5F5F5F5F5F5
310
F5F5F5F5F5F5F5F5F5F5F5F5F5F5F5F5F5F5F5F5F5F5F5F5F5F5F5F5F5F5F5F5F5F5F5F5F5F5F5F5F5F5F5F5F5F5F5F5F5F5F5F5F5F5F5F5F5F5F5F5F5F5F5F5F5F5F5F5F5F5F5F5F5F5F5F5F5F5F5F5F5F5F5F5F5F5F5F5F5F5F5F5F5F5F5F5F5F5F5F5F5F5F5F5F5F5F5F5F5F5F5F5F5F5F5F5F5F5F5F5F5F5F5F5F5F5F5
310
F5F5F5F5F5F5F5F5F5F5F5F5F5F5F5F5E2E2F5F5F5F5F5F5F5F5F5F5F5F5F5F5F5F5F5F5F5F5F5F5F5F5F5F5F5F5F5F5F5F5F5F5F5F5F5F5F5F5F5F5F5F5F5F5F5F5F5F5F5F5F5F5F5F5F5F5F5F5F5F5F5F5F5F5F5F5F5F5F5F5F5F5F5F5F5F5F5F5F5F5F5F5F5F5F5F5F5F5F5F5F5F5F5F5F5F5F5F5F5F5F5F5F5F5F5F5F5
310
F5F5F5F5F5F5F5F5F5F5F5F5F5F5F5F5F5F5F5F5F5F5F5F5F5F5F5F5F5F5F5F5F5F5F5F5F5F5F5F5F5F5F5F5F5F5F5F5F5F5F5F5F5F5F5F5F5F5F5F5F5F5F5F5F5F5F5F5F5E2E2F5F5F5F5F5F5F5F5F5F5F5F5F5F5F5F5F5F5F5F5F5F5F5F5F5F5F5F5F5F5F5F5F5F5F5F5F5F5F5F5F5F5F5F5F5F5F5F5F5F5F5F5F5F5F5F5
310
F5F5F5F5F5F5F5F5F5F5F5F5F5F5F5F5F5F5F5F5F5F5F5F5F5F5F5F5F5F5F5F5F5F5F5F5F5F5F5F5F5F5F5F5F5F5F5F5F5F5F5F5F5F5F5F5F5F5F5F5F5F5F5F5F5F5F5F5F5F5F5F5F5F5F5F5F5F5F5F5F5F5F5F5F5F5F5F5F5F5F5F5F5F5F5F5F5F5F5F5F5F5F5F5F5F5F5F5F5F5F5F5F5F5F5F5F5F5F5F5F5F5E2E2E2E2E2
310
E2E2E2E2E2E2E2E2E2E2E2E2E2E2E2E2E2E2E2E2E2E2E2E2E2E2E2E2E2E2E2E2E2E2E2E2E2E2E2E2E2E2E2E2E2E2E2E2E2E2E2E2E2E2E2E2E2E2E2E2E2E2E2E2E2E2E2E2E2E2E2E2E2E2E2E2E2E2E2E2E2E2E2E2E2E2E2E2E2E2E2E2E2E2E2E2E2E2E2E2E2E2E2E2E2E2E2E2E2E2E2E2E2E2E2E2E2E2E2E2E2E2E2E2E2E2E2
310
E2E2E2E2E2E2E2E2E2E2E2E2E2E2E2E2E2E2E2E2E2E2E2E2E2E2E2E2E2E2E2E2E2E2E2E2E2E2E2E2E2E2E2E2E2E2E2E2E2
  0
XRECORD
  5
56260
102
{ACAD_REACTORS
330
B5
102
}
330
B5
100
AcDbXrecord
280
     1
102
SHADEPLOT
 70
     0
102
SHADEPLOTRESLEVEL
 70
     2
102
SHADEPLOTCUSTOMDPI
 70
   300
  0
XRECORD
  5
B6
102
{ACAD_REACTORS
330
B5
102
}
330
B5
100
AcDbXrecord
280
     1
310
28000000B40000008B0000000100080000000000BC610000000000000000000000010000000000000000000000000000FFFFFF000000000000000000000000000000000000000000000000000000000000000000330000006600000099000000CC000000FF00000000330000333300006633000099330000CC330000FF3300
310
0000660000336600006666000099660000CC660000FF66000000990000339900006699000099990000CC990000FF99000000CC000033CC000066CC000099CC0000CCCC0000FFCC000000FF000033FF000066FF000099FF0000CCFF0000FFFF000000003300330033006600330099003300CC003300FF003300003333003333
310
33006633330099333300CC333300FF33330000663300336633006666330099663300CC663300FF66330000993300339933006699330099993300CC993300FF99330000CC330033CC330066CC330099CC3300CCCC3300FFCC330000FF330033FF330066FF330099FF3300CCFF3300FFFF330000006600330066006600660099
310
006600CC006600FF00660000336600333366006633660099336600CC336600FF33660000666600336666006666660099666600CC666600FF66660000996600339966006699660099996600CC996600FF99660000CC660033CC660066CC660099CC6600CCCC6600FFCC660000FF660033FF660066FF660099FF6600CCFF6600
310
FFFF660000009900330099006600990099009900CC009900FF00990000339900333399006633990099339900CC339900FF33990000669900336699006666990099669900CC669900FF66990000999900339999006699990099999900CC999900FF99990000CC990033CC990066CC990099CC9900CCCC9900FFCC990000FF99
310
0033FF990066FF990099FF9900CCFF9900FFFF99000000CC003300CC006600CC009900CC00CC00CC00FF00CC000033CC003333CC006633CC009933CC00CC33CC00FF33CC000066CC003366CC006666CC009966CC00CC66CC00FF66CC000099CC003399CC006699CC009999CC00CC99CC00FF99CC0000CCCC0033CCCC0066CC
310
CC0099CCCC00CCCCCC00FFCCCC0000FFCC0033FFCC0066FFCC0099FFCC00CCFFCC00FFFFCC000000FF003300FF006600FF009900FF00CC00FF00FF00FF000033FF003333FF006633FF009933FF00CC33FF00FF33FF000066FF003366FF006666FF009966FF00CC66FF00FF66FF000099FF003399FF006699FF009999FF00CC
310
99FF00FF99FF0000CCFF0033CCFF0066CCFF0099CCFF00CCCCFF00FFCCFF0000FFFF0033FFFF0066FFFF0099FFFF00CCFFFF00FFFFFF00000000000D0D0D001A1A1A00282828003535350043434300505050005D5D5D006B6B6B00787878008686860093939300A1A1A100AEAEAE00BBBBBB00C9C9C900D6D6D600E4E4E400
310
F1F1F100FFFFFF0000000000000000000000000000000000000000000000000000000000000000000000000000000000F5F5F5F5F5F5F5F5F5F5F5F5F5F5F5F5F5F5F5F5F5F5F5F5F5F5F5F5F5F5F5F5F5F5F5F5F5F5F5F5F5F5F5F5F5F5F5F5F5F5F5F5F5F5F5F5F5F5F5F5F5F5F5F5F5F5F5F5F5F5F5F5F5F5F5F5F5F5F5
310
F5F5F5F5F5F5F5F5F5F5F5F5F5F5F5F5F5F5F5F5F5F5F5F5F5F5F5F5F5F5F5F5F5F5F5F5F5F5F5F5F5F5F5F5F5F5F5F5F5F5F5F5F5F5F5F5F5F5F5F5F5F5F5F5F5F5F5F5F5F5F5F5F5F5F5F5F5F5F5F5F5F5F5F5F5F5F5F5F5F5F5F5F5F5F5F5F5F5F5F5F5F5E2E2E2E2E2E2E2E2E2E2E2E2E2E2E2E2E2E2E2E2E2E2E2E2E2
310
E2E2E2E2E2E2E2E2E2E2E2E2E2E2E2E2E2E2E2E2E2E2E2E2E2E2E2E2E2E2E2E2E2E2E2E2E2E2E2E2E2E2E2E2E2E2E2E2E2E2E2E2E2E2E2E2E2E2E2E2E2E2E2E2E2E2E2E2E2E2E2E2E2E2E2E2E2E2E2E2E2E2E2E2E2E2E2E2E2E2E2E2E2E2E2E2E2E2E2E2E2E2E2E2E2E2E2E2E2E2E2E2E2E2E2E2E2E2E2E2E2E2E2E2E2E2E2
310
E2E2E2E2E2E2E2E2E2E2E2E2E2E2E2E2E2E2E2E2E2E2E2E2E2E2F5F5E2E2E2E2E2E2E2E2E2E2E2E2E2E2E2E2E2E2E2E2E2E2E2E2E2E2E2E2E2E2E2E2E2E2E2E2E2E2E2E2E2E2E2E2E2E2E2E2E2E2E2E2E2E2E2E2E2E2E2E2E2E2E2E2E2E2E2E2E2E2E2E2E2E2E2E2E2E2E2E2E2E2E2E2E2E2E2E2E2E2E2E2E2E2E2E2E2E2E2
310
E2E2E2E2E2E2E2E2E2E2E2E2E2E2E2E2E2E2E2E2E2E2E2E2E2E2E2E2E2E2E2E2E2E2E2E2E2E2E2E2E2E2E2E2E2E2E2E2E2E2E2E2E2E2E2E2E2E2E2E2E2E2E2E2E2E2E2E2E2E2E2E2E2E2E2E2E2E2E2F5F5E2E2E2E2E2E2E2E2E2E2E2E2E2E2E2E2E2E2E2E2E2E2E2E2E2E2E2E2E2E2E2E2E2E2E2E2E2E2E2E2E2E2E2E2E2E2
310
E2E2E2E2E2E2E2E2E2E2E2E2E2E2E2E2E2E2E2E2E2E2E2E2E2E2E2E2E2E2E2E2E2E2E2E2E2E2E2E2E2E2E2E2E2E2E2E2E2E2E2E2E2E2E2E2E2E2E2E2E2E2E2E2E2E2E2E2E2E2E2E2E2E2E2E2E2E2E2E2E2E2E2E2E2E2E2E2E2E2E2E2E2E2E2E2E2E2E2E2E2E2E2E2E2E2E2E2E2E2E2E2E2E2E2E2E2E2E2E2E2E2E2E2E2E2E2
310
E2E2E2E2E2F5F5E2E2E2E2E2E2E2E2E2E2E2E2E2E2E2E2E2E2E2E2E2E2E2E2E2E2E2E2E2E2E2E2E2E2E2E2E2E2E2E2E2E2E2E2E2E2E2E2E2E2E2E2E2E2E2E2E2E2E2E2E2E2E2E2E2E2E2E2E2E2E2E2E2E2E2E2E2E2E2E2E2E2E2E2E2E2E2E2E2E2E2E2E2E2E2E2E2E2E2E2E2E2E2E2E2E2E2E2E2E2E2E2E2E2E2E2E2E2E2E2
310
E2E2E2E2E2E2E2E2E2E2E2E2E2E2E2E2E2E2E2E2E2E2E2E2E2E2E2E2E2E2E2E2E2E2E2E2E2E2E2E2E2E2E2E2E2E2E2E2E2E2E2E2E2E2E2E2E2E2F5F5E2E2E2F5F5F5F5F5F5F5F5E2E2E2E2E2E2E2E2E2F5F5F5F5F5F5F5F5F5F5F5F5F5F5F5F5E2E2E2E2E2E2E2E2E2F5F5F5F5F5F5F5F5F5F5F5F5F5F5F5E2E2E2E2E2E2E2
310
E2E2F5F5F5F5F5F5F5F5F5F5F5F5F5F5F5F5E2E2E2E2E2E2E2E2F5F5F5F5F5F5F5F5F5F5F5F5F5F5F5F5E2E2E2E2E2E2E2E2E2F5F5F5F5F5F5F5F5F5F5F5F5F5F5F5E2E2E2E2E2E2E2E2E2F5F5F5F5F5F5F5F5F5F5F5F5F5F5F5F5E2E2E2E2E2E2E2E2E2F5F5F5F5F5F5F5F5E2E2E2F5F5E2E2E2F5E2E2E2E2E2E2E2E2E2E2
310
E2E2E2E2E2E2E2E2E2E2E2E2E2E2E2E2E2E2E2E2E2E2E2E2E2E2E2E2E2E2E2E2E2E2E2E2E2E2E2E2E2E2E2E2E2E2E2E2E2E2E2E2E2E2E2E2E2E2E2E2E2E2E2E2E2E2E2E2E2E2E2E2E2E2E2E2E2E2E2E2E2E2E2E2E2E2E2E2E2E2E2E2E2E2E2E2E2E2E2E2E2E2E2E2E2E2E2E2E2E2E2E2E2E2E2E2E2E2E2E2E2E2E2E2E2E2E2
310
E2E2E2E2E2E2E2E2E2E2E2E2E2E2E2E2E2E2E2E2E2E2E2E2E2E2E2E2E2E2E2E2E2F5E2E2E2F5F5E2E2E2F5E2E2E2E2E2E2E2E2E2E2E2E2E2E2E2E2E2E2E2E2E2E2E2E2E2E2E2E2E2E2E2E2E2E2E2E2E2E2E2E2E2E2E2E2E2E2E2E2E2E2E2E2E2E2E2E2E2E2E2E2E2E2E2E2E2E2E2E2E2E2E2E2E2E2E2E2E2E2E2E2E2E2E2E2
310
E2E2E2E2E2E2E2E2E2E2E2E2E2E2E2E2E2E2E2E2E2E2E2E2E2E2E2E2E2E2E2E2E2E2E2E2E2E2E2E2E2E2E2E2E2E2E2E2E2E2E2E2E2E2E2E2E2E2E2E2E2E2E2E2E2E2E2E2E2E2E2E2E2E2E2E2E2E2E2E2E2E2E2E2E2E2F5E2E2E2F5F5E2E2E2F5E2E2E2E2E2E2E2E2E2E2E2E2E2E2E2E2E2E2E2E2E2E2E2E2E2E2E2E2E2E2E2
310
E2E2E2E2E2E2E2E2E2E2E2E2E2E2E2E2E2E2E2E2E2E2E2E2E2E2E2E2E2E2E2E2E2E2E2E2E2E2E2E2E2E2E2E2E2E2E2E2E2E2E2E2E2E2E2E2E2E2E2E2E2E2E2E2E2E2E2E2E2E2E2E2E2E2E2E2E2E2E2E2E2E2E2E2E2E2E2E2E2E2E2E2E2E2E2E2E2E2E2E2E2E2E2E2E2E2E2E2E2E2E2E2E2E2E2E2E2E2E2E2E2E2E2E2E2E2E2
310
E2E2E2E2E2E2E2E2E2E2E2E2F5E2E2E2F5F5E2E2E2F5E2E2E2E2E2E2E2E2E2E2E2E2E2E2E2E2E2E2E2E2E2E2E2E2E2E2E2E2E2E2E2E2E2E2E2E2E2E2E2E2E2E2E2E2E2E2E2E2E2E2E2E2E2E2E2E2E2E2E2E2E2E2E2E2E2E2E2E2E2E2E2E2E2E2E2E2E2E2E2E2E2E2E2E2E2E2E2E2E2E2E2E2E2E2E2E2E2E2E2E2E2E2E2E2E2
310
E2E2E2E2E2E2E2E2E2E2E2E2E2E2E2E2E2E2E2E2E2E2E2E2E2E2E2E2E2E2E2E2E2E2E2E2E2E2E2E2E2E2E2E2E2E2E2E2E2E2E2E2E2E2E2E2E2E2E2E2E2E2E2E2E2F5E2E2E2F5F5E2E2E2F5E2E2E2E2E2E2E2E2E2E2E2E2E2E2E2E2E2E2E2E2E2E2E2E2E2E2E2E2E2E2E2E2E2E2E2E2E2E2E2E2E2E2E2E2E2E2E2E2E2E2E2E2
310
E2E2E2E2E2E2E2E2E2E2E2E2E2E2E2E2E2E2E2E2E2E2E2E2E2E2E2E2E2E2E2E2E2E2E2E2E2E2E2E2E2E2E2E2E2E2E2E2E2E2E2E2E2E2E2E2E2E2E2E2E2E2E2E2E2E2E2E2E2E2E2E2E2E2E2E2E2E2E2E2E2E2E2E2E2E2E2E2E2E2E2E2E2E2E2E2E2E2E2E2E2E2E2E2E2E2E2E2E2E2E2E2E2E2E2E2E2E2F5E2E2E2F5F5E2E2E2
310
F5E2E2E2E2E2E2E2E2E2E2E2E2E2E2E2E2E2E2E2E2E2E2E2E2E2E2E2E2E2E2E2E2E2E2E2E2E2E2E2E2E2E2E2E2E2E2E2E2E2E2E2E2E2E2E2E2E2E2E2E2E2E2E2E2E2E2E2E2E2E2E2E2E2E2E2E2E2E2E2E2E2E2E2E2E2E2E2E2E2E2E2E2E2E2E2E2E2E2E2E2E2E2E2E2E2E2E2E2E2E2E2E2E2E2E2E2E2E2E2E2E2E2E2E2E2E2
310
E2E2E2E2E2E2E2E2E2E2E2E2E2E2E2E2E2E2E2E2E2E2E2E2E2E2E2E2E2E2E2E2E2E2E2E2E2E2E2E2E2E2E2E2F5E2E2E2F5F5E2E2E2F5E2E2E2E2E2E2E2E2E2E2E2E2E2E2E2E2E2E2E2E2E2E2E2E2E2E2E2E2E2E2E2E2E2E2E2E2E2E2E2E2E2E2E2E2E2E2E2E2E2E2E2E2E2E2E2E2E2E2E2E2E2E2E2E2E2E2E2E2E2E2E2E2E2
310
E2E2E2E2E2E2E2E2E2E2E2E2E2E2E2E2E2E2E2E2E2E2E2E2E2E2E2E2E2E2E2E2E2E2E2E2E2E2E2E2E2E2E2E2E2E2E2E2E2E2E2E2E2E2E2E2E2E2E2E2E2E2E2E2E2E2E2E2E2E2E2E2E2E2E2E2E2E2E2E2E2E2E2E2E2E2E2E2E2E2E2E2E2E2E2E2E2F5E2E2E2F5F5E2E2E2F5E2E2E2E2E2E2E2E2E2E2E2E2E2E2E2E2E2E2E2E2
310
E2E2E2E2E2E2E2E2E2E2E2E2E2E2E2E2E2E2E2E2E2E2E2E2E2E2E2E2E2E2E2E2E2E2E2E2E2E2E2E2E2E2E2E2E2E2E2E2E2E2E2E2E2E2E2E2E2E2E2E2E2E2E2E2E2E2E2E2E2E2E2E2E2E2E2E2E2E2E2E2E2E2E2E2E2E2E2E2E2E2E2E2E2E2E2E2E2E2E2E2E2E2E2E2E2E2E2E2E2E2E2E2E2E2E2E2E2E2E2E2E2E2E2E2E2E2E2
310
E2E2E2E2E2E2E2E2E2E2E2E2E2E2E2E2E2E2E2E2E2E2E2F5E2E2E2F5F5E2E2E2E2E2E2E2E2E2E2E2E2E2E2E2E2E2E2E2E2E2E2E2E2E2E2E2E2E2E2E2E2E2E2E2E2E2E2E2E2E2E2E2E2E2E2E2E2E2E2E2E2E2E2E2E2E2E2E2E2E2E2E2E2E2E2E2E2E2E2E2E2E2E2E2E2E2E2E2E2E2E2E2E2E2E2E2E2E2E2E2E2E2E2E2E2E2E2
310
E2E2E2E2E2E2E2E2E2E2E2E2E2E2E2E2E2E2E2E2E2E2E2E2E2E2E2E2E2E2E2E2E2E2E2E2E2E2E2E2E2E2E2E2E2E2E2E2E2E2E2E2E2E2E2E2E2E2E2E2E2E2E2E2E2E2E2E2E2E2E2E2E2E2E2E2E2E2E2E2F5F5E2E2E2E2E2E2E2E2E2E2E2E2E2E2E2E2E2E2E2E2E2E2E2E2E2E2E2E2E2E2E2E2E2E2E2E2E2E2E2E2E2E2E2E2E2
310
E2E2E2E2E2E2E2E2E2E2E2E2E2E2E2E2E2E2E2E2E2E2E2E2E2E2E2E2E2E2E2E2E2E2E2E2E2E2E2E2E2E2E2E2E2E2E2E2E2E2E2E2E2E2E2E2E2E2E2E2E2E2E2E2E2E2E2E2E2E2E2E2E2E2E2E2E2E2E2E2E2E2E2E2E2E2E2E2E2E2E2E2E2E2E2E2E2E2E2E2E2E2E2E2E2E2E2E2E2E2E2E2E2E2E2E2E2E2E2E2E2E2E2E2E2E2E2
310
E2E2E2E2E2E2F5F5E2E2E2E2E2E2E2E2E2E2E2E2E2E2E2E2E2E2E2E2E2E2E2E2E2E2E2E2E2E2E2E2E2E2E2E2E2E2E2E2E2E2E2E2E2E2E2E2E2E2E2E2E2E2E2E2E2E2E2E2E2E2E2E2E2E2E2E2E2E2E2E2E2E2E2E2E2E2E2E2E2E2E2E2E2E2E2E2E2E2E2E2E2E2E2E2E2E2E2E2E2E2E2E2E2E2E2E2E2E2E2E2E2E2E2E2E2E2E2
310
E2E2E2E2E2E2E2E2E2E2E2E2E2E2E2E2E2E2E2E2E2E2E2E2E2E2E2E2E2E2E2E2E2E2E2E2E2E2E2E2E2E2E2E2E2E2E2E2E2E2E2E2E2E2E2E2E2E2E2F5F5E2E2E2E2E2E2E2E2E2E2E2E2E2E2E2E2E2E2E2E2E2E2E2E2E2E2E2E2E2E2E2E2E2E2E2E2E2E2E2E2E2E2E2E2E2E2E2E2E2E2E2E2E2E2E2E2E2E2E2E2E2E2E2E2E2E2
310
E2E2E2E2E2E2E2E2E2E2E2E2E2E2E2E2E2E2E2E2E2E2E2E2E2E2E2E2E2E2E2E2E2E2E2E2E2E2E2E2E2E2E2E2E2E2E2E2E2E2E2E2E2E2E2E2E2E2E2E2E2E2E2E2E2E2E2E2E2E2E2E2E2E2E2E2E2E2E2E2E2E2E2E2E2E2E2E2E2E2E2E2E2E2E2E2E2E2E2E2E2E2E2E2E2E2E2E2E2E2E2E2F5F5E2E2E2E2E2E2E2E2E2E2E2E2E2
310
E2E2E2E2E2E2E2F5F5F5F5F5F5F5F5F5F5F5F5F5F5F5F5F5F5F5F5F5F5F5F5F5F5F5F5F5F5F5F5F5F5F5F5F5F5F5F5F5F5F5F5F5F5F5F5F5F5F5F5F5F5F5F5F5F5F5F5F5F5F5F5F5F5F5F5F5F5F5F5F5F5F5F5F5F5F5F5F5F5F5F5F5F5F5F5F5F5F5F5F5F5F5F5F5F5F5F5F5F5F5F5F5F5F5F5F5F5F5F5F5F5F5F5F5F5F5F5
310
F5F5F5F5F5F5F5F5F5F5F5F5F5F5F5F5F5F5E2E2E2E2E2E2E2E2E2E2E2E2E2E2E2E2E2E2E2E2F5F5E2E2E2E2E2E2E2E2E2E2E2E2E2E2E2E2E2E2E2E2F5E2E2E2E2E2E2E2E2E2E2E2E2E2E2E2E2E2E2E2E2E2E2E2E2E2E2E2E2E2E2E2E2E2E2E2E2E2E2E2E2E2E2E2E2E2E2E2E2E2E2E2E2E2E2E2E2E2E2E2E2E2E2E2E2E2E2
310
E2E2E2E2E2E2E2E2E2E2E2E2E2E2E2E2E2E2E2E2E2E2E2E2E2E2E2E2E2E2E2E2E2E2E2E2E2E2E2E2E2E2E2E2E2E2E2E2E2E2E2E2E2E2E2E2E2E2E2E2E2E2E2E2E2E2E2E2E2E2F5E2E2E2E2E2E2E2E2E2E2E2E2E2E2E2E2E2E2E2E2F5F5E2E2E2E2E2E2E2E2E2E2E2E2E2E2E2E2E2E2E2E2F5E2E2E2E2E2E2E2E2E2E2E2E2E2
310
E2E2E2E2E2E2E2E2E2E2E2E2E2E2E2E2E2E2E2E2E2E2E2E2E2E2E2E2E2E2E2E2E2E2E2E2E2E2E2E2E2E2E2E2E2E2E2E2E2E2E2E2E2E2E2E2E2E2E2E2E2E2E2E2E2E2E2E2E2E2E2E2E2E2E2E2E2E2E2E2E2E2E2E2E2E2E2E2E2E2E2E2E2E2E2E2E2E2E2E2E2E2E2E2E2E2E2E2E2E2E2E2E2E2E2E2E2E2E2E2E2E2E2F5E2E2E2
310
E2E2E2E2E2E2E2E2E2E2E2E2E2E2E2E2E2F5F5E2E2E2E2E2E2E2E2E2E2E2E2E2E2E2E2E2E2E2E2F5E2E2E2E2E2E2E2E2E2E2E2E2E2E2E2E2E2E2E2E2E2E2E2E2E2E2E2E2E2E2E2E2E2E2E2E2E2E2E2E2E2E2E2E2E2E2E2E2E2E2E2E2E2E2E2E2E2E2E2E2E2E2E2E2E2E2E2E2E2E2E2E2E2E2E2E2E2E2E2E2E2E2E2E2E2E2E2
310
E2E2E2E2E2E2E2E2E2E2E2E2E2E2E2E2E2E2E2E2E2E2E2E2E2E2E2E2E2E2E2E2E2E2E2E2E2E2E2E2E2E2E2E2E2E2E2E2E2F5E2E2E2E2E2E2E2E2E2E2E2E2E2E2E2E2E2E2E2E2F5F5E2E2E2E2E2E2E2E2E2E2E2E2E2E2E2E2E2E2E2E2F5E2E2E2E2E2E2E2E2E2E2E2E2E2E2E2E2E2E2E2E2E2E2E2E2E2E2E2E2E2E2E2E2E2E2
310
E2E2E2E2E2E2E2E2E2E2E2E2E2E2E2E2E2E2E2E2E2E2E2E2E2E2E2E2E2E2E2E2E2E2E2E2E2E2E2E2E2E2E2E2E2E2E2E2E2E2E2E2E2E2E2E2E2E2E2E2E2E2E2E2E2E2E2E2E2E2E2E2E2E2E2E2E2E2E2E2E2E2E2E2E2E2E2E2E2E2E2E2E2E2E2E2E2E2E2E2E2E2F5E2E2E2E2E2E2E2E2E2E2E2E2E2E2E2E2E2E2E2E2F5F5E2E2
310
E2F5E2E2E2E2E2E2E2E2E2E2E2E2E2E2E2E2F5E2E2E2E2E2E2E2E2E2E2E2E2E2E2E2E2E2E2E2E2E2E2E2E2E2E2E2E2E2E2E2E2E2E2E2E2E2E2E2E2E2E2E2E2E2E2E2E2E2E2E2E2E2E2E2E2E2E2E2E2E2E2E2E2E2E2E2E2E2E2E2E2E2E2E2E2E2E2E2E2E2E2E2E2E2E2E2E2E2E2E2E2E2E2E2E2E2E2E2E2E2E2E2E2E2E2E2E2
310
E2E2E2E2E2E2E2E2E2E2E2E2E2E2E2E2E2E2E2E2E2E2E2E2E2E2E2E2F5E2E2E2E2E2E2E2E2E2E2E2E2E2E2E2E2F5E2E2E2F5F5E2E2E2F5E2E2E2E2E2E2E2E2E2E2E2E2E2E2E2E2F5E2E2E2E2E2E2E2E2E2E2E2E2E2E2E2E2E2E2E2E2E2E2E2E2E2E2E2E2E2E2E2E2E2E2E2E2E2E2E2E2E2E2E2E2E2E2E2E2E2E2E2E2E2E2E2
310
E2E2E2E2E2E2E2E2E2E2E2E2E2E2E2E2E2E2E2E2E2E2E2E2E2E2E2E2E2E2E2E2E2E2E2E2E2E2E2E2E2E2E2E2E2E2E2E2E2E2E2E2E2E2E2E2E2E2E2E2E2E2E2E2E2E2E2E2E2E2E2E2E2E2E2E2E2E2E2E2E2F5E2E2E2E2E2E2E2E2E2E2E2E2E2E2E2E2F5E2E2E2F5F5E2E2E2F5E2E2E2E2E2E2E2E2E2E2E2E2E2E2E2E2F5E2E2
310
E2E2E2E2E2E2E2E2E2E2E2E2E2E2E2E2E2E2E2E2E2E2E2E2E2E2E2E2E2E2E2E2E2E2E2E2E2E2E2E2E2E2E2E2E2E2E2E2E2E2E2E2E2E2E2E2E2E2E2E2E2E2E2E2E2E2E2E2E2E2E2E2E2E2E2E2E2E2E2E2E2E2E2E2E2E2E2E2E2E2E2E2E2E2E2E2E2E2E2E2E2E2E2E2E2E2E2E2E2E2E2E2E2E2E2E2E2E2E2E2E2E2E2E2E2E2E2
310
E2E2E2E2E2E2E2F5E2E2E2E2E2E2E2E2E2E2E2E2E2E2E2E2F5E2E2E2F5F5E2E2E2F5E2E2E2E2E2E2E2E2E2E2E2E2E2E2E2E2F5E2E2E2E2E2E2E2E2E2E2E2E2E2E2E2E2E2E2E2E2E2E2E2E2E2E2E2E2E2E2E2E2E2E2E2E2E2E2E2E2E2E2E2E2E2E2E2E2E2E2E2E2E2E2E2E2E2E2E2E2E2E2E2E2E2E2E2E2E2E2E2E2E2E2E2E2
310
E2E2E2E2E2E2E2E2E2E2E2E2E2E2E2E2E2E2E2E2E2E2E2E2E2E2E2E2E2E2E2E2E2E2E2E2E2E2E2E2E2E2E2E2E2E2E2E2E2E2E2E2E2E2E2E2E2E2E2E2F5E2E2E2E2E2E2E2E2E2E2E2E2E2E2E2E2F5E2E2E2F5F5E2E2E2F5E2E2E2E2E2E2E2E2E2E2E2E2E2E2E2E2F5E2E2E2E2E2E2E2E2E2E2E2E2E2E2E2E2E2E2E2E2E2E2E2
310
E2E2E2E2E2E2E2E2E2E2E2E2E2E2E2E2E2E2E2E2E2E2E2E2E2E2E2E2E2E2E2E2E2E2E2E2E2E2E2E2E2E2E2E2E2E2E2E2E2E2E2E2E2E2E2E2E2E2E2E2E2E2E2E2E2E2E2E2E2E2E2E2E2E2E2E2E2E2E2E2E2E2E2E2E2E2E2E2E2E2E2E2E2E2E2E2E2E2E2E2E2E2E2E2E2E2E2E2E2E2E2E2E2F5E2E2E2E2E2E2E2E2E2E2E2E2E2
310
E2E2E2F5E2E2E2F5F5E2E2E2F5E2E2E2E2E2E2E2E2E2E2E2E2E2E2E2E2F5E2E2E2E2E2E2E2E2E2E2E2E2E2E2E2E2E2E2E2E2E2E2E2E2E2E2E2E2E2E2E2E2E2E2E2E2E2E2E2E2E2E2E2E2E2E2E2E2E2E2E2E2E2E2E2E2E2E2E2E2E2E2E2E2E2E2E2E2E2E2E2E2E2E2E2E2E2E2E2E2E2E2E2E2E2E2E2E2E2E2E2E2E2E2E2E2E2
310
E2E2E2E2E2E2E2E2E2E2E2E2E2E2E2E2E2E2E2E2E2E2E2E2E2E2E2E2E2E2E2E2E2E2E2E2E2E2E2F5E2E2E2E2E2E2E2E2E2E2E2E2E2E2E2E2F5E2E2E2F5F5E2E2E2F5E2E2E2E2E2E2E2E2E2E2E2E2E2E2E2E2F5E2E2E2E2E2E2E2E2E2E2E2E2E2E2E2E2E2E2E2E2E2E2E2E2E2E2E2E2E2E2E2E2E2E2E2E2E2E2E2E2E2E2E2E2
310
E2E2E2E2E2E2E2E2E2E2E2E2E2E2E2E2E2E2E2E2E2E2E2E2E2E2E2E2E2E2E2E2E2E2E2E2E2E2E2E2E2E2E2E2E2E2E2E2E2E2E2E2E2E2E2E2E2E2E2E2E2E2E2E2E2E2E2E2E2E2E2E2E2E2E2E2E2E2E2E2E2E2E2E2E2E2E2E2E2E2E2E2F5E2E2E2E2E2E2E2E2E2E2E2E2E2E2E2E2F5E2E2E2F5F5E2E2E2F5E2E2E2E2E2E2E2E2
310
E2E2E2E2E2E2E2E2F5E2E2E2E2E2E2E2E2E2E2E2E2E2E2E2E2E2E2E2E2E2E2E2E2E2E2E2E2E2E2E2E2E2E2E2E2E2E2E2E2E2E2E2E2E2E2E2E2E2E2E2E2E2E2E2E2E2E2E2E2E2E2E2E2E2E2E2E2E2E2E2E2E2E2E2E2E2E2E2E2E2E2E2E2E2E2E2E2E2E2E2E2E2E2E2E2E2E2E2E2E2E2E2E2E2E2E2E2E2E2E2E2E2E2E2E2E2E2
310
E2E2E2E2E2E2E2E2E2E2E2E2E2E2E2E2E2E2F5E2E2E2E2E2E2E2E2E2E2E2E2E2E2E2E2F5E2E2E2F5F5E2E2E2F5E2E2E2E2E2E2E2E2E2E2E2E2E2E2E2E2F5E2E2E2E2E2E2E2E2E2E2E2E2E2E2E2E2E2E2E2E2E2E2E2E2E2E2E2E2E2E2E2E2E2E2E2E2E2E2E2E2E2E2E2E2E2E2E2E2E2E2E2E2E2E2E2E2E2E2E2E2E2E2E2E2E2
310
E2E2E2E2E2E2E2E2E2E2E2E2E2E2E2E2E2E2E2E2E2E2E2E2E2E2E2E2E2E2E2E2E2E2E2E2E2E2E2E2E2E2E2E2E2E2E2E2E2E2E2E2E2E2E2E2E2E2E2E2E2E2E2E2E2E2E2E2E2E2E2F5E2E2E2E2E2E2E2E2E2E2E2E2E2E2E2E2F5E2E2E2F5F5E2E2E2F5E2E2E2E2E2E2E2E2E2E2E2E2E2E2E2E2F5E2E2E2E2E2E2E2E2E2E2E2E2
310
E2E2E2E2E2E2E2E2E2E2E2E2E2E2E2E2E2E2E2E2E2E2E2E2E2E2E2E2E2E2E2E2E2E2E2E2E2E2E2E2E2E2E2E2E2E2E2E2E2E2E2E2E2E2E2E2E2E2E2E2E2E2E2E2E2E2E2E2E2E2E2E2E2E2E2E2E2E2E2E2E2E2E2E2E2E2E2E2E2E2E2E2E2E2E2E2E2E2E2E2E2E2E2E2E2E2E2E2E2E2E2E2E2E2E2E2E2E2E2E2E2E2E2E2F5E2E2
310
E2E2E2E2E2E2E2E2E2E2E2E2E2E2F5E2E2E2F5F5E2E2E2F5E2E2E2E2E2E2E2E2E2E2E2E2E2E2E2E2F5E2E2E2E2E2E2E2E2E2E2E2E2E2E2E2E2E2E2E2E2E2E2E2E2E2E2E2E2E2E2E2E2E2E2E2E2E2E2E2E2E2E2E2E2E2E2E2E2E2E2E2E2E2E2E2E2E2E2E2E2E2E2E2E2E2E2E2E2E2E2E2E2E2E2E2E2E2E2E2E2E2E2E2E2E2E2
310
E2E2E2E2E2E2E2E2E2E2E2E2E2E2E2E2E2E2E2E2E2E2E2E2E2E2E2E2E2E2E2E2E2E2E2E2E2E2E2E2E2E2E2E2E2E2E2E2E2E2F5E2E2E2E2E2E2E2E2E2E2E2E2E2E2E2E2F5E2E2E2F5F5E2E2E2F5E2E2E2E2E2E2E2E2E2E2E2E2E2E2E2E2F5E2E2E2E2E2E2E2E2E2E2E2E2E2E2E2E2E2E2E2E2E2E2E2E2E2E2E2E2E2E2E2E2E2
310
E2E2E2E2E2E2E2E2E2E2E2E2E2E2E2E2E2E2E2E2E2E2E2E2E2E2E2E2E2E2E2E2E2E2E2E2E2E2E2E2E2E2E2E2E2E2E2E2E2E2E2E2E2E2E2E2E2E2E2E2E2E2E2E2E2E2E2E2E2E2E2E2E2E2E2E2E2E2E2E2E2E2E2E2E2E2E2E2E2E2E2E2E2E2E2E2E2E2E2E2E2E2E2F5E2E2E2E2E2E2E2E2E2E2E2E2E2E2E2E2F5E2E2E2F5F5E2
310
E2E2F5E2E2E2E2E2E2E2E2E2E2E2E2E2E2E2E2F5E2E2E2E2E2E2E2E2E2E2E2E2E2E2E2E2E2E2E2E2E2E2E2E2E2E2E2E2E2E2E2E2E2E2E2E2E2E2E2E2E2E2E2E2E2E2E2E2E2E2E2E2E2E2E2E2E2E2E2E2E2E2E2E2E2E2E2E2E2E2E2E2E2E2E2E2E2E2E2E2E2E2E2E2E2E2E2E2E2E2E2E2E2E2E2E2E2E2E2E2E2E2E2E2E2E2E2
310
E2E2E2E2E2E2E2E2E2E2E2E2E2E2E2E2E2E2E2E2E2E2E2E2E2E2E2E2E2F5E2E2E2E2E2E2E2E2E2E2E2E2E2E2E2E2F5E2E2E2F5F5E2E2E2F5E2E2E2E2E2E2E2E2E2E2E2E2E2E2E2E2F5E2E2E2E2E2E2E2E2E2E2E2E2E2E2E2E2E2E2E2E2E2E2E2E2E2E2E2E2E2E2E2E2E2E2E2E2E2E2E2E2E2E2E2E2E2E2E2E2E2E2E2E2E2E2
310
E2E2E2E2E2E2E2E2E2E2E2E2E2E2E2E2E2E2E2E2E2E2E2E2E2E2E2E2E2E2E2E2E2E2E2E2E2E2E2E2E2E2E2E2E2E2E2E2E2E2E2E2E2E2E2E2E2E2E2E2E2E2E2E2E2E2E2E2E2E2E2E2E2E2E2E2E2E2E2E2E2E2F5E2E2E2E2E2E2E2E2E2E2E2E2E2E2E2E2F5E2E2E2F5F5E2E2E2F5E2E2E2E2E2E2E2E2E2E2E2E2E2E2E2E2F5E2
310
E2E2E2E2E2E2E2E2E2E2E2E2E2E2E2E2E2E2E2E2E2E2E2E2E2E2E2E2E2E2E2E2E2E2E2E2E2E2E2E2E2E2E2E2E2E2E2E2E2E2E2E2E2E2E2E2E2E2E2E2E2E2E2E2E2E2E2E2E2E2E2E2E2E2E2E2E2E2E2E2E2E2E2E2E2E2E2E2E2E2E2E2E2E2E2E2E2E2E2E2E2E2E2E2E2E2E2E2E2E2E2E2E2E2E2E2E2E2E2E2E2E2E2E2E2E2E2
310
E2E2E2E2E2E2E2E2F5E2E2E2E2E2E2E2E2E2E2E2E2E2E2E2E2F5E2E2E2F5F5E2E2E2F5E2E2E2E2E2E2E2E2E2E2E2E2E2E2E2E2F5E2E2E2E2E2E2E2E2E2E2E2E2E2E2E2E2E2E2E2E2E2E2E2E2E2E2E2E2E2E2E2E2E2E2E2E2E2E2E2E2E2E2E2E2E2E2E2E2E2E2E2E2E2E2E2E2E2E2E2E2E2E2E2E2E2E2E2E2E2E2E2E2E2E2E2
310
E2E2E2E2E2E2E2E2E2E2E2E2E2E2E2E2E2E2E2E2E2E2E2E2E2E2E2E2E2E2E2E2E2E2E2E2E2E2E2E2E2E2E2E2E2E2E2E2E2E2E2E2E2E2E2E2E2E2E2E2E2F5E2E2E2E2E2E2E2E2E2E2E2E2E2E2E2E2F5E2E2E2F5F5E2E2E2F5E2E2E2E2E2E2E2E2E2E2E2E2E2E2E2E2F5E2E2E2E2E2E2E2E2E2E2E2E2E2E2E2E2E2E2E2E2E2E2
310
E2E2E2E2E2E2E2E2E2E2E2E2E2E2E2E2E2E2E2E2E2E2E2E2E2E2E2E2E2E2E2E2E2E2E2E2E2E2E2E2E2E2E2E2E2E2E2E2E2E2E2E2E2E2E2E2E2E2E2E2E2E2E2E2E2E2E2E2E2E2E2E2E2E2E2E2E2E2E2E2E2E2E2E2E2E2E2E2E2E2E2E2E2E2E2E2E2E2E2E2E2E2E2E2E2E2E2E2E2E2E2E2E2E2F5E2E2E2E2E2E2E2E2E2E2E2E2
310
E2E2E2E2F5E2E2E2F5F5E2E2E2E2E2E2E2E2E2E2E2E2E2E2E2E2E2E2E2E2F5E2E2E2E2E2E2E2E2E2E2E2E2E2E2E2E2E2E2E2E2E2E2E2E2E2E2E2E2E2E2E2E2E2E2E2E2E2E2E2E2E2E2E2E2E2E2E2E2E2E2E2E2E2E2E2E2E2E2E2E2E2E2E2E2E2E2E2E2E2E2E2E2E2E2E2E2E2E2E2E2E2E2E2E2E2E2E2E2E2E2E2E2E2E2E2E2
310
E2E2E2E2E2E2E2E2E2E2E2E2E2E2E2E2E2E2E2E2E2E2E2E2E2E2E2E2E2E2E2E2E2E2E2E2E2E2E2E2F5E2E2E2E2E2E2E2E2E2E2E2E2E2E2E2E2E2E2E2E2F5F5E2E2E2E2E2E2E2E2E2E2E2E2E2E2E2E2E2E2E2E2F5E2E2E2E2E2E2E2E2E2E2E2E2E2E2E2E2E2E2E2E2E2E2E2E2E2E2E2E2E2E2E2E2E2E2E2E2E2E2E2E2E2E2E2
310
E2E2E2E2E2E2E2E2E2E2E2E2E2E2E2E2E2E2E2E2E2E2E2E2E2E2E2E2E2E2E2E2E2E2E2E2E2E2E2E2E2E2E2E2E2E2E2E2E2E2E2E2E2E2E2E2E2E2E2E2E2E2E2E2E2E2E2E2E2E2E2E2E2E2E2E2E2E2E2E2E2E2E2E2E2E2E2E2E2E2E2E2E2F5E2E2E2E2E2E2E2E2E2E2E2E2E2E2E2E2E2E2E2E2F5F5E2E2E2E2E2E2E2E2E2E2E2
310
E2E2E2E2E2E2E2E2E2F5E2E2E2E2E2E2E2E2E2E2E2E2E2E2E2E2E2E2E2E2E2E2E2E2E2E2E2E2E2E2E2E2E2E2E2E2E2E2E2E2E2E2E2E2E2E2E2E2E2E2E2E2E2E2E2E2E2E2E2E2E2E2E2E2E2E2E2E2E2E2E2E2E2E2E2E2E2E2E2E2E2E2E2E2E2E2E2E2E2E2E2E2E2E2E2E2E2E2E2E2E2E2E2E2E2E2E2E2E2E2E2E2E2E2E2E2E2
310
E2E2E2E2E2E2E2E2E2E2E2E2E2E2E2E2E2E2E2F5E2E2E2E2E2E2E2E2E2E2E2E2E2E2E2E2E2E2E2E2F5F5E2E2E2E2E2E2E2E2E2E2E2E2E2E2E2E2E2E2E2E2F5E2E2E2E2E2E2E2E2E2E2E2E2E2E2E2E2E2E2E2E2E2E2E2E2E2E2E2E2E2E2E2E2E2E2E2E2E2E2E2E2E2E2E2E2E2E2E2E2E2E2E2E2E2E2E2E2E2E2E2E2E2E2E2E2
310
E2E2E2E2E2E2E2E2E2E2E2E2E2E2E2E2E2E2E2E2E2E2E2E2E2E2E2E2E2E2E2E2E2E2E2E2E2E2E2E2E2E2E2E2E2E2E2E2E2E2E2E2E2E2E2E2E2E2E2E2E2E2E2E2E2E2E2E2E2E2E2E2F5E2E2E2E2E2E2E2E2E2E2E2E2E2E2E2E2E2E2E2E2F5F5E2E2E2E2E2E2E2E2E2E2E2E2E2E2E2E2E2E2E2E2F5E2E2E2E2E2E2E2E2E2E2E2
310
E2E2E2E2E2E2E2E2E2E2E2E2E2E2E2E2E2E2E2E2E2E2E2E2E2E2E2E2E2E2E2E2E2E2E2E2E2E2E2E2E2E2E2E2E2E2E2E2E2E2E2E2E2E2E2E2E2E2E2E2E2E2E2E2E2E2E2E2E2E2E2E2E2E2E2E2E2E2E2E2E2E2E2E2E2E2E2E2E2E2E2E2E2E2E2E2E2E2E2E2E2E2E2E2E2E2E2E2E2E2E2E2E2E2E2E2E2E2E2E2E2E2E2E2E2F5E2
310
E2E2E2E2E2E2E2E2E2E2E2E2E2E2E2E2E2E2E2F5F5E2E2E2E2E2E2E2E2E2E2E2E2E2E2E2E2E2E2E2E2F5E2E2E2E2E2E2E2E2E2E2E2E2E2E2E2E2E2E2E2E2E2E2E2E2E2E2E2E2E2E2E2E2E2E2E2E2E2E2E2E2E2E2E2E2E2E2E2E2E2E2E2E2E2E2E2E2E2E2E2E2E2E2E2E2E2E2E2E2E2E2E2E2E2E2E2E2E2E2E2E2E2E2E2E2E2
310
E2E2E2E2E2E2E2E2E2E2E2E2E2E2E2E2E2E2E2E2E2E2E2E2E2E2E2E2E2E2E2E2E2E2E2E2E2E2E2E2E2E2E2E2E2E2E2E2E2E2E2F5E2E2E2E2E2E2E2E2E2E2E2E2E2E2E2E2E2E2E2E2F5F5E2E2E2E2E2E2E2E2E2E2E2E2E2E2E2E2E2E2E2E2F5E2E2E2E2E2E2E2E2E2E2E2E2E2E2E2E2E2E2E2E2E2E2E2E2E2E2E2E2E2E2E2E2
310
E2E2E2E2E2E2E2E2E2E2E2E2E2E2E2E2E2E2E2E2E2E2E2E2E2E2E2E2E2E2E2E2E2E2E2E2E2E2E2E2E2E2E2E2E2E2E2E2E2E2E2E2E2E2E2E2E2E2E2E2E2E2E2E2E2E2E2E2E2E2E2E2E2E2E2E2E2E2E2E2E2E2E2E2E2E2E2E2E2E2E2E2E2E2E2E2E2E2E2E2E2E2E2E2F5E2E2E2E2E2E2E2E2E2E2E2E2E2E2E2E2E2E2E2E2F5F5
310
E2E2E2E2E2E2E2E2E2E2E2E2E2E2E2E2E2E2E2E2F5E2E2E2E2E2E2E2E2E2E2E2E2E2E2E2E2E2E2E2E2E2E2E2E2E2E2E2E2E2E2E2E2E2E2E2E2E2E2E2E2E2E2E2E2E2E2E2E2E2E2E2E2E2E2E2E2E2E2E2E2E2E2E2E2E2E2E2E2E2E2E2E2E2E2E2E2E2E2E2E2E2E2E2E2E2E2E2E2E2E2E2E2E2E2E2E2E2E2E2E2E2E2E2E2E2E2
310
E2E2E2E2E2E2E2E2E2E2E2E2E2E2E2E2E2E2E2E2E2E2E2E2E2E2E2E2E2E2F5E2E2E2E2E2E2E2E2E2E2E2E2E2E2E2E2E2E2E2E2F5F5E2E2E2E2E2E2E2E2E2E2E2E2E2E2E2E2E2E2E2E2F5E2E2E2E2E2E2E2E2E2E2E2E2E2E2E2E2E2E2E2E2E2E2E2E2E2E2E2E2E2E2E2E2E2E2E2E2E2E2E2E2E2E2E2E2E2E2E2E2E2E2E2E2E2
310
E2E2E2E2E2E2E2E2E2E2E2E2E2E2E2E2E2E2E2E2E2E2E2E2E2E2E2E2E2E2E2E2E2E2E2E2E2E2E2E2E2E2E2E2E2E2E2E2E2E2E2E2E2E2E2E2E2E2E2E2E2E2E2E2E2E2E2E2E2E2E2E2E2E2E2E2E2E2E2E2E2E2E2F5E2E2E2E2E2E2E2E2E2E2E2E2E2E2E2E2E2E2E2E2F5F5E2E2E2F5E2E2E2E2E2E2E2E2E2E2E2E2E2E2E2E2F5
310
E2E2E2E2E2E2E2E2E2E2E2E2E2E2E2E2E2E2E2E2E2E2E2E2E2E2E2E2E2E2E2E2E2E2E2E2E2E2E2E2E2E2E2E2E2E2E2E2E2E2E2E2E2E2E2E2E2E2E2E2E2E2E2E2E2E2E2E2E2E2E2E2E2E2E2E2E2E2E2E2E2E2E2E2E2E2E2E2E2E2E2E2E2E2E2E2E2E2E2E2E2E2E2E2E2E2E2E2E2E2E2E2E2E2E2E2E2E2E2E2E2E2E2E2E2E2E2
310
E2E2E2E2E2E2E2E2E2F5E2E2E2E2E2E2E2E2E2E2E2E2E2E2E2E2F5E2E2E2F5F5E2E2E2F5E2E2E2E2E2E2E2E2E2E2E2E2E2E2E2E2F5E2E2E2E2E2E2E2E2E2E2E2E2E2E2E2E2E2E2E2E2E2E2E2E2E2E2E2E2E2E2E2E2E2E2E2E2E2E2E2E2E2E2E2E2E2E2E2E2E2E2E2E2E2E2E2E2E2E2E2E2E2E2E2E2E2E2E2E2E2E2E2E2E2E2
310
E2E2E2E2E2E2E2E2E2E2E2E2E2E2E2E2E2E2E2E2E2E2E2E2E2E2E2E2E2E2E2E2E2E2E2E2E2E2E2E2E2E2E2E2E2E2E2E2E2E2E2E2E2E2E2E2E2E2E2E2E2E2F5E2E2E2E2E2E2E2E2E2E2E2E2E2E2E2E2F5E2E2E2F5F5E2E2E2F5E2E2E2E2E2E2E2E2E2E2E2E2E2E2E2E2F5E2E2E2E2E2E2E2E2E2E2E2E2E2E2E2E2E2E2E2E2E2
310
E2E2E2E2E2E2E2E2E2E2E2E2E2E2E2E2E2E2E2E2E2E2E2E2E2E2E2E2E2E2E2E2E2E2E2E2E2E2E2E2E2E2E2E2E2E2E2E2E2E2E2E2E2E2E2E2E2E2E2E2E2E2E2E2E2E2E2E2E2E2E2E2E2E2E2E2E2E2E2E2E2E2E2E2E2E2E2E2E2E2E2E2E2E2E2E2E2E2E2E2E2E2E2E2E2E2E2E2E2E2E2E2E2E2E2F5E2E2E2E2E2E2E2E2E2E2E2
310
E2E2E2E2E2F5E2E2E2F5F5E2E2E2F5E2E2E2E2E2E2E2E2E2E2E2E2E2E2E2E2F5E2E2E2E2E2E2E2E2E2E2E2E2E2E2E2E2E2E2E2E2E2E2E2E2E2E2E2E2E2E2E2E2E2E2E2E2E2E2E2E2E2E2E2E2E2E2E2E2E2E2E2E2E2E2E2E2E2E2E2E2E2E2E2E2E2E2E2E2E2E2E2E2E2E2E2E2E2E2E2E2E2E2E2E2E2E2E2E2E2E2E2E2E2E2E2
310
E2E2E2E2E2E2E2E2E2E2E2E2E2E2E2E2E2E2E2E2E2E2E2E2E2E2E2E2E2E2E2E2E2E2E2E2E2E2E2E2E2F5E2E2E2E2E2E2E2E2E2E2E2E2E2E2E2E2F5E2E2E2F5F5E2E2E2F5E2E2E2E2E2E2E2E2E2E2E2E2E2E2E2E2F5E2E2E2E2E2E2E2E2E2E2E2E2E2E2E2E2E2E2E2E2E2E2E2E2E2E2E2E2E2E2E2E2E2E2E2E2E2E2E2E2E2E2
310
E2E2E2E2E2E2E2E2E2E2E2E2E2E2E2E2E2E2E2E2E2E2E2E2E2E2E2E2E2E2E2E2E2E2E2E2E2E2E2E2E2E2E2E2E2E2E2E2E2E2E2E2E2E2E2E2E2E2E2E2E2E2E2E2E2E2E2E2E2E2E2E2E2E2E2E2E2E2E2E2E2E2E2E2E2E2E2E2E2E2E2E2E2E2F5E2E2E2E2E2E2E2E2E2E2E2E2E2E2E2E2F5E2E2E2F5F5E2E2E2F5E2E2E2E2E2E2
310
E2E2E2E2E2E2E2E2E2E2F5E2E2E2E2E2E2E2E2E2E2E2E2E2E2E2E2E2E2E2E2E2E2E2E2E2E2E2E2E2E2E2E2E2E2E2E2E2E2E2E2E2E2E2E2E2E2E2E2E2E2E2E2E2E2E2E2E2E2E2E2E2E2E2E2E2E2E2E2E2E2E2E2E2E2E2E2E2E2E2E2E2E2E2E2E2E2E2E2E2E2E2E2E2E2E2E2E2E2E2E2E2E2E2E2E2E2E2E2E2E2E2E2E2E2E2E2
310
E2E2E2E2E2E2E2E2E2E2E2E2E2E2E2E2E2E2E2E2F5E2E2E2E2E2E2E2E2E2E2E2E2E2E2E2E2F5E2E2E2F5F5E2E2E2F5E2E2E2E2E2E2E2E2E2E2E2E2E2E2E2E2F5E2E2E2E2E2E2E2E2E2E2E2E2E2E2E2E2E2E2E2E2E2E2E2E2E2E2E2E2E2E2E2E2E2E2E2E2E2E2E2E2E2E2E2E2E2E2E2E2E2E2E2E2E2E2E2E2E2E2E2E2E2E2E2
310
E2E2E2E2E2E2E2E2E2E2E2E2E2E2E2E2E2E2E2E2E2E2E2E2E2E2E2E2E2E2E2E2E2E2E2E2E2E2E2E2E2E2E2E2E2E2E2E2E2E2E2E2E2E2E2E2E2E2E2E2E2E2E2E2E2E2E2E2E2E2E2E2E2F5E2E2E2E2E2E2E2E2E2E2E2E2E2E2E2E2F5E2E2E2F5F5E2E2E2F5E2E2E2E2E2E2E2E2E2E2E2E2E2E2E2E2F5E2E2E2E2E2E2E2E2E2E2
310
E2E2E2E2E2E2E2E2E2E2E2E2E2E2E2E2E2E2E2E2E2E2E2E2E2E2E2E2E2E2E2E2E2E2E2E2E2E2E2E2E2E2E2E2E2E2E2E2E2E2E2E2E2E2E2E2E2E2E2E2E2E2E2E2E2E2E2E2E2E2E2E2E2E2E2E2E2E2E2E2E2E2E2E2E2E2E2E2E2E2E2E2E2E2E2E2E2E2E2E2E2E2E2E2E2E2E2E2E2E2E2E2E2E2E2E2E2E2E2E2E2E2E2E2E2E2F5
310
E2E2E2E2E2E2E2E2E2E2E2E2E2E2E2E2F5E2E2E2F5F5E2E2E2F5E2E2E2E2E2E2E2E2E2E2E2E2E2E2E2E2F5E2E2E2E2E2E2E2E2E2E2E2E2E2E2E2E2E2E2E2E2E2E2E2E2E2E2E2E2E2E2E2E2E2E2E2E2E2E2E2E2E2E2E2E2E2E2E2E2E2E2E2E2E2E2E2E2E2E2E2E2E2E2E2E2E2E2E2E2E2E2E2E2E2E2E2E2E2E2E2E2E2E2E2E2
310
E2E2E2E2E2E2E2E2E2E2E2E2E2E2E2E2E2E2E2E2E2E2E2E2E2E2E2E2E2E2E2E2E2E2E2E2E2E2E2E2E2E2E2E2E2E2E2E2E2E2E2E2F5E2E2E2E2E2E2E2E2E2E2E2E2E2E2E2E2F5E2E2E2F5F5E2E2E2F5E2E2E2E2E2E2E2E2E2E2E2E2E2E2E2E2F5E2E2E2E2E2E2E2E2E2E2E2E2E2E2E2E2E2E2E2E2E2E2E2E2E2E2E2E2E2E2E2
310
E2E2E2E2E2E2E2E2E2E2E2E2E2E2E2E2E2E2E2E2E2E2E2E2E2E2E2E2E2E2E2E2E2E2E2E2E2E2E2E2E2E2E2E2E2E2E2E2E2E2E2E2E2E2E2E2E2E2E2E2E2E2E2E2E2E2E2E2E2E2E2E2E2E2E2E2E2E2E2E2E2E2E2E2E2E2E2E2E2E2E2E2E2E2E2E2E2E2E2E2E2E2E2E2E2F5E2E2E2E2E2E2E2E2E2E2E2E2E2E2E2E2F5E2E2E2F5
310
F5E2E2E2F5E2E2E2E2E2E2E2E2E2E2E2E2E2E2E2E2F5E2E2E2E2E2E2E2E2E2E2E2E2E2E2E2E2E2E2E2E2E2E2E2E2E2E2E2E2E2E2E2E2E2E2E2E2E2E2E2E2E2E2E2E2E2E2E2E2E2E2E2E2E2E2E2E2E2E2E2E2E2E2E2E2E2E2E2E2E2E2E2E2E2E2E2E2E2E2E2E2E2E2E2E2E2E2E2E2E2E2E2E2E2E2E2E2E2E2E2E2E2E2E2E2E2
310
E2E2E2E2E2E2E2E2E2E2E2E2E2E2E2E2E2E2E2E2E2E2E2E2E2E2E2E2E2E2E2F5E2E2E2E2E2E2E2E2E2E2E2E2E2E2E2E2F5E2E2E2F5F5E2E2E2F5E2E2E2E2E2E2E2E2E2E2E2E2E2E2E2E2F5E2E2E2E2E2E2E2E2E2E2E2E2E2E2E2E2E2E2E2E2E2E2E2E2E2E2E2E2E2E2E2E2E2E2E2E2E2E2E2E2E2E2E2E2E2E2E2E2E2E2E2E2
310
E2E2E2E2E2E2E2E2E2E2E2E2E2E2E2E2E2E2E2E2E2E2E2E2E2E2E2E2E2E2E2E2E2E2E2E2E2E2E2E2E2E2E2E2E2E2E2E2E2E2E2E2E2E2E2E2E2E2E2E2E2E2E2E2E2E2E2E2E2E2E2E2E2E2E2E2E2E2E2E2E2E2E2E2F5E2E2E2E2E2E2E2E2E2E2E2E2E2E2E2E2F5E2E2E2F5F5E2E2E2F5E2E2E2E2E2E2E2E2E2E2E2E2E2E2E2E2
310
F5E2E2E2E2E2E2E2E2E2E2E2E2E2E2E2E2E2E2E2E2E2E2E2E2E2E2E2E2E2E2E2E2E2E2E2E2E2E2E2E2E2E2E2E2E2E2E2E2E2E2E2E2E2E2E2E2E2E2E2E2E2E2E2E2E2E2E2E2E2E2E2E2E2E2E2E2E2E2E2E2E2E2E2E2E2E2E2E2E2E2E2E2E2E2E2E2E2E2E2E2E2E2E2E2E2E2E2E2E2E2E2E2E2E2E2E2E2E2E2E2E2E2E2E2E2E2
310
E2E2E2E2E2E2E2E2E2E2F5E2E2E2E2E2E2E2E2E2E2E2E2E2E2E2E2F5E2E2E2F5F5E2E2E2F5E2E2E2E2E2E2E2E2E2E2E2E2E2E2E2E2F5E2E2E2E2E2E2E2E2E2E2E2E2E2E2E2E2E2E2E2E2E2E2E2E2E2E2E2E2E2E2E2E2E2E2E2E2E2E2E2E2E2E2E2E2E2E2E2E2E2E2E2E2E2E2E2E2E2E2E2E2E2E2E2E2E2E2E2E2E2E2E2E2E2
310
E2E2E2E2E2E2E2E2E2E2E2E2E2E2E2E2E2E2E2E2E2E2E2E2E2E2E2E2E2E2E2E2E2E2E2E2E2E2E2E2E2E2E2E2E2E2E2E2E2E2E2E2E2E2E2E2E2E2E2E2E2E2E2F5E2E2E2E2E2E2E2E2E2E2E2E2E2E2E2E2F5E2E2E2F5F5E2E2E2F5E2E2E2E2E2E2E2E2E2E2E2E2E2E2E2E2F5E2E2E2E2E2E2E2E2E2E2E2E2E2E2E2E2E2E2E2E2
310
E2E2E2E2E2E2E2E2E2E2E2E2E2E2E2E2E2E2E2E2E2E2E2E2E2E2E2E2E2E2E2E2E2E2E2E2E2E2E2E2E2E2E2E2E2E2E2E2E2E2E2E2E2E2E2E2E2E2E2E2E2E2E2E2E2E2E2E2E2E2E2E2E2E2E2E2E2E2E2E2E2E2E2E2E2E2E2E2E2E2E2E2E2E2E2E2E2E2E2E2E2E2E2E2E2E2E2E2E2E2E2E2E2E2E2E2F5E2E2E2E2E2E2E2E2E2E2
310
E2E2E2E2E2E2F5E2E2E2F5F5E2E2E2F5E2E2E2E2E2E2E2E2E2E2E2E2E2E2E2E2F5E2E2E2E2E2E2E2E2E2E2E2E2E2E2E2E2E2E2E2E2E2E2E2E2E2E2E2E2E2E2E2E2E2E2E2E2E2E2E2E2E2E2E2E2E2E2E2E2E2E2E2E2E2E2E2E2E2E2E2E2E2E2E2E2E2E2E2E2E2E2E2E2E2E2E2E2E2E2E2E2E2E2E2E2E2E2E2E2E2E2E2E2E2E2
310
E2E2E2E2E2E2E2E2E2E2E2E2E2E2E2E2E2E2E2E2E2E2E2E2E2E2E2E2E2E2E2E2E2E2E2E2E2E2E2E2E2E2F5E2E2E2E2E2E2E2E2E2E2E2E2E2E2E2E2F5E2E2E2F5F5E2E2E2E2E2E2E2E2E2E2E2E2E2E2E2E2E2E2E2E2F5E2E2E2E2E2E2E2E2E2E2E2E2E2E2E2E2E2E2E2E2E2E2E2E2E2E2E2E2E2E2E2E2E2E2E2E2E2E2E2E2E2
310
E2E2E2E2E2E2E2E2E2E2E2E2E2E2E2E2E2E2E2E2E2E2E2E2E2E2E2E2E2E2E2E2E2E2E2E2E2E2E2E2E2E2E2E2E2E2E2E2E2E2E2E2E2E2E2E2E2E2E2E2E2E2E2E2E2E2E2E2E2E2E2E2E2E2E2E2E2E2E2E2E2E2E2E2E2E2E2E2E2E2E2E2E2E2E2F5E2E2E2E2E2E2E2E2E2E2E2E2E2E2E2E2E2E2E2E2F5F5E2E2E2E2E2E2E2E2E2
310
E2E2E2E2E2E2E2E2E2E2E2F5E2E2E2E2E2E2E2E2E2E2E2E2E2E2E2E2E2E2E2E2E2E2E2E2E2E2E2E2E2E2E2E2E2E2E2E2E2E2E2E2E2E2E2E2E2E2E2E2E2E2E2E2E2E2E2E2E2E2E2E2E2E2E2E2E2E2E2E2E2E2E2E2E2E2E2E2E2E2E2E2E2E2E2E2E2E2E2E2E2E2E2E2E2E2E2E2E2E2E2E2E2E2E2E2E2E2E2E2E2E2E2E2E2E2E2
310
E2E2E2E2E2E2E2E2E2E2E2E2E2E2E2E2E2E2E2E2E2F5E2E2E2E2E2E2E2E2E2E2E2E2E2E2E2E2E2E2E2E2F5F5E2E2E2E2E2E2E2E2E2E2E2E2E2E2E2E2E2E2E2E2F5E2E2E2E2E2E2E2E2E2E2E2E2E2E2E2E2E2E2E2E2E2E2E2E2E2E2E2E2E2E2E2E2E2E2E2E2E2E2E2E2E2E2E2E2E2E2E2E2E2E2E2E2E2E2E2E2E2E2E2E2E2E2
310
E2E2E2E2E2E2E2E2E2E2E2E2E2E2E2E2E2E2E2E2E2E2E2E2E2E2E2E2E2E2E2E2E2E2E2E2E2E2E2E2E2E2E2E2E2E2E2E2E2E2E2E2E2E2E2E2E2E2E2E2E2E2E2E2E2E2E2E2E2E2E2E2E2E2F5E2E2E2E2E2E2E2E2E2E2E2E2E2E2E2E2E2E2E2E2F5F5E2E2E2E2E2E2E2E2E2E2E2E2E2E2E2E2E2E2E2E2F5E2E2E2E2E2E2E2E2E2
310
E2E2E2E2E2E2E2E2E2E2E2E2E2E2E2E2E2E2E2E2E2E2E2E2E2E2E2E2E2E2E2E2E2E2E2E2E2E2E2E2E2E2E2E2E2E2E2E2E2E2E2E2E2E2E2E2E2E2E2E2E2E2E2E2E2E2E2E2E2E2E2E2E2E2E2E2E2E2E2E2E2E2E2E2E2E2E2E2E2E2E2E2E2E2E2E2E2E2E2E2E2E2E2E2E2E2E2E2E2E2E2E2E2E2E2E2E2E2E2E2E2E2E2E2E2E2E2
310
F5E2E2E2E2E2E2E2E2E2E2E2E2E2E2E2E2E2E2E2E2F5F5E2E2E2E2E2E2E2E2E2E2E2E2E2E2E2E2E2E2E2E2F5E2E2E2E2E2E2E2E2E2E2E2E2E2E2E2E2E2E2E2E2E2E2E2E2E2E2E2E2E2E2E2E2E2E2E2E2E2E2E2E2E2E2E2E2E2E2E2E2E2E2E2E2E2E2E2E2E2E2E2E2E2E2E2E2E2E2E2E2E2E2E2E2E2E2E2E2E2E2E2E2E2E2E2
310
E2E2E2E2E2E2E2E2E2E2E2E2E2E2E2E2E2E2E2E2E2E2E2E2E2E2E2E2E2E2E2E2E2E2E2E2E2E2E2E2E2E2E2E2E2E2E2E2E2E2E2E2E2F5E2E2E2E2E2E2E2E2E2E2E2E2E2E2E2E2E2E2E2E2F5F5E2E2E2E2E2E2E2E2E2E2E2E2E2E2E2E2E2E2E2E2F5E2E2E2E2E2E2E2E2E2E2E2E2E2E2E2E2E2E2E2E2E2E2E2E2E2E2E2E2E2E2
310
E2E2E2E2E2E2E2E2E2E2E2E2E2E2E2E2E2E2E2E2E2E2E2E2E2E2E2E2E2E2E2E2E2E2E2E2E2E2E2E2E2E2E2E2E2E2E2E2E2E2E2E2E2E2E2E2E2E2E2E2E2E2E2E2E2E2E2E2E2E2E2E2E2E2E2E2E2E2E2E2E2E2E2E2E2E2E2E2E2E2E2E2E2E2E2E2E2E2E2E2E2E2E2E2E2E2F5E2E2E2E2E2E2E2E2E2E2E2E2E2E2E2E2E2E2E2E2
310
F5F5E2E2E2E2E2E2E2E2E2E2E2E2E2E2E2E2E2E2E2E2F5E2E2E2E2E2E2E2E2E2E2E2E2E2E2E2E2E2E2E2E2E2E2E2E2E2E2E2E2E2E2E2E2E2E2E2E2E2E2E2E2E2E2E2E2E2E2E2E2E2E2E2E2E2E2E2E2E2E2E2E2E2E2E2E2E2E2E2E2E2E2E2E2E2E2E2E2E2E2E2E2E2E2E2E2E2E2E2E2E2E2E2E2E2E2E2E2E2E2E2E2E2E2E2E2
310
E2E2E2E2E2E2E2E2E2E2E2E2E2E2E2E2E2E2E2E2E2E2E2E2E2E2E2E2E2E2E2E2F5E2E2E2E2E2E2E2E2E2E2E2E2E2E2E2E2E2E2E2E2F5F5E2E2E2E2E2E2E2E2E2E2E2E2E2E2E2E2E2E2E2E2F5E2E2E2E2E2E2E2E2E2E2E2E2E2E2E2E2E2E2E2E2E2E2E2E2E2E2E2E2E2E2E2E2E2E2E2E2E2E2E2E2E2E2E2E2E2E2E2E2E2E2E2
310
E2E2E2E2E2E2E2E2E2E2E2E2E2E2E2E2E2E2E2E2E2E2E2E2E2E2E2E2E2E2E2E2E2E2E2E2E2E2E2E2E2E2E2E2E2E2E2E2E2E2E2E2E2E2E2E2E2E2E2E2E2E2E2E2E2E2E2E2E2E2E2E2E2E2E2E2E2E2E2E2E2E2E2E2E2F5E2E2E2E2E2E2E2E2E2E2E2E2E2E2E2E2E2E2E2E2F5F5E2E2E2E2E2E2E2E2E2E2E2E2E2E2E2E2E2E2E2
310
E2F5E2E2E2E2E2E2E2E2E2E2E2E2E2E2E2E2E2E2E2E2E2E2E2E2E2E2E2E2E2E2E2E2E2E2E2E2E2E2E2E2E2E2E2E2E2E2E2E2E2E2E2E2E2E2E2E2E2E2E2E2E2E2E2E2E2E2E2E2E2E2E2E2E2E2E2E2E2E2E2E2E2E2E2E2E2E2E2E2E2E2E2E2E2E2E2E2E2E2E2E2E2E2E2E2E2E2E2E2E2E2E2E2E2E2E2E2E2E2E2E2E2E2E2E2E2
310
E2E2E2E2E2E2E2E2E2E2E2F5E2E2E2E2E2E2E2E2E2E2E2E2E2E2E2E2E2E2E2E2F5F5E2E2E2E2E2E2E2E2E2E2E2E2E2E2E2E2E2E2E2E2F5E2E2E2E2E2E2E2E2E2E2E2E2E2E2E2E2E2E2E2E2E2E2E2E2E2E2E2E2E2E2E2E2E2E2E2E2E2E2E2E2E2E2E2E2E2E2E2E2E2E2E2E2E2E2E2E2E2E2E2E2E2E2E2E2E2E2E2E2E2E2E2E2
310
E2E2E2E2E2E2E2E2E2E2E2E2E2E2E2E2E2E2E2E2E2E2E2E2E2E2E2E2E2E2E2E2E2E2E2E2E2E2E2E2E2E2E2E2E2E2E2E2E2E2E2E2E2E2E2E2E2E2E2E2E2E2E2E2F5E2E2E2E2E2E2E2E2E2E2E2E2E2E2E2E2E2E2E2E2F5F5E2E2E2F5E2E2E2E2E2E2E2E2E2E2E2E2E2E2E2E2F5E2E2E2E2E2E2E2E2E2E2E2E2E2E2E2E2E2E2E2
310
E2E2E2E2E2E2E2E2E2E2E2E2E2E2E2E2E2E2E2E2E2E2E2E2E2E2E2E2E2E2E2E2E2E2E2E2E2E2E2E2E2E2E2E2E2E2E2E2E2E2E2E2E2E2E2E2E2E2E2E2E2E2E2E2E2E2E2E2E2E2E2E2E2E2E2E2E2E2E2E2E2E2E2E2E2E2E2E2E2E2E2E2E2E2E2E2E2E2E2E2E2E2E2E2E2E2E2E2E2E2E2E2E2E2E2E2E2F5E2E2E2E2E2E2E2E2E2
310
E2E2E2E2E2E2E2F5E2E2E2F5F5E2E2E2F5E2E2E2E2E2E2E2E2E2E2E2E2E2E2E2E2F5E2E2E2E2E2E2E2E2E2E2E2E2E2E2E2E2E2E2E2E2E2E2E2E2E2E2E2E2E2E2E2E2E2E2E2E2E2E2E2E2E2E2E2E2E2E2E2E2E2E2E2E2E2E2E2E2E2E2E2E2E2E2E2E2E2E2E2E2E2E2E2E2E2E2E2E2E2E2E2E2E2E2E2E2E2E2E2E2E2E2E2E2E2
310
E2E2E2E2E2E2E2E2E2E2E2E2E2E2E2E2E2E2E2E2E2E2E2E2E2E2E2E2E2E2E2E2E2E2E2E2E2E2E2E2E2E2E2F5E2E2E2E2E2E2E2E2E2E2E2E2E2E2E2E2F5E2E2E2F5F5E2E2E2F5E2E2E2E2E2E2E2E2E2E2E2E2E2E2E2E2F5E2E2E2E2E2E2E2E2E2E2E2E2E2E2E2E2E2E2E2E2E2E2E2E2E2E2E2E2E2E2E2E2E2E2E2E2E2E2E2E2
310
E2E2E2E2E2E2E2E2E2E2E2E2E2E2E2E2E2E2E2E2E2E2E2E2E2E2E2E2E2E2E2E2E2E2E2E2E2E2E2E2E2E2E2E2E2E2E2E2E2E2E2E2E2E2E2E2E2E2E2E2E2E2E2E2E2E2E2E2E2E2E2E2E2E2E2E2E2E2E2E2E2E2E2E2E2E2E2E2E2E2E2E2E2E2E2E2F5E2E2E2E2E2E2E2E2E2E2E2E2E2E2E2E2F5E2E2E2F5F5E2E2E2F5E2E2E2E2
310
E2E2E2E2E2E2E2E2E2E2E2E2F5E2E2E2E2E2E2E2E2E2E2E2E2E2E2E2E2E2E2E2E2E2E2E2E2E2E2E2E2E2E2E2E2E2E2E2E2E2E2E2E2E2E2E2E2E2E2E2E2E2E2E2E2E2E2E2E2E2E2E2E2E2E2E2E2E2E2E2E2E2E2E2E2E2E2E2E2E2E2E2E2E2E2E2E2E2E2E2E2E2E2E2E2E2E2E2E2E2E2E2E2E2E2E2E2E2E2E2E2E2E2E2E2E2E2
310
E2E2E2E2E2E2E2E2E2E2E2E2E2E2E2E2E2E2E2E2E2E2F5E2E2E2E2E2E2E2E2E2E2E2E2E2E2E2E2F5E2E2E2F5F5E2E2E2F5E2E2E2E2E2E2E2E2E2E2E2E2E2E2E2E2F5E2E2E2E2E2E2E2E2E2E2E2E2E2E2E2E2E2E2E2E2E2E2E2E2E2E2E2E2E2E2E2E2E2E2E2E2E2E2E2E2E2E2E2E2E2E2E2E2E2E2E2E2E2E2E2E2E2E2E2E2E2
310
E2E2E2E2E2E2E2E2E2E2E2E2E2E2E2E2E2E2E2E2E2E2E2E2E2E2E2E2E2E2E2E2E2E2E2E2E2E2E2E2E2E2E2E2E2E2E2E2E2E2E2E2E2E2E2E2E2E2E2E2E2E2E2E2E2E2E2E2E2E2E2E2E2E2E2F5E2E2E2E2E2E2E2E2E2E2E2E2E2E2E2E2F5E2E2E2F5F5E2E2E2F5E2E2E2E2E2E2E2E2E2E2E2E2E2E2E2E2F5E2E2E2E2E2E2E2E2
310
E2E2E2E2E2E2E2E2E2E2E2E2E2E2E2E2E2E2E2E2E2E2E2E2E2E2E2E2E2E2E2E2E2E2E2E2E2E2E2E2E2E2E2E2E2E2E2E2E2E2E2E2E2E2E2E2E2E2E2E2E2E2E2E2E2E2E2E2E2E2E2E2E2E2E2E2E2E2E2E2E2E2E2E2E2E2E2E2E2E2E2E2E2E2E2E2E2E2E2E2E2E2E2E2E2E2E2E2E2E2E2E2E2E2E2E2E2E2E2E2E2E2E2E2E2E2E2
310
E2F5E2E2E2E2E2E2E2E2E2E2E2E2E2E2E2E2F5E2E2E2F5F5E2E2E2F5E2E2E2E2E2E2E2E2E2E2E2E2E2E2E2E2F5E2E2E2E2E2E2E2E2E2E2E2E2E2E2E2E2E2E2E2E2E2E2E2E2E2E2E2E2E2E2E2E2E2E2E2E2E2E2E2E2E2E2E2E2E2E2E2E2E2E2E2E2E2E2E2E2E2E2E2E2E2E2E2E2E2E2E2E2E2E2E2E2E2E2E2E2E2E2E2E2E2E2
310
E2E2E2E2E2E2E2E2E2E2E2E2E2E2E2E2E2E2E2E2E2E2E2E2E2E2E2E2E2E2E2E2E2E2E2E2E2E2E2E2E2E2E2E2E2E2E2E2E2E2E2E2E2E2F5E2E2E2E2E2E2E2E2E2E2E2E2E2E2E2E2F5E2E2E2F5F5E2E2E2F5E2E2E2E2E2E2E2E2E2E2E2E2E2E2E2E2F5E2E2E2E2E2E2E2E2E2E2E2E2E2E2E2E2E2E2E2E2E2E2E2E2E2E2E2E2E2
310
E2E2E2E2E2E2E2E2E2E2E2E2E2E2E2E2E2E2E2E2E2E2E2E2E2E2E2E2E2E2E2E2E2E2E2E2E2E2E2E2E2E2E2E2E2E2E2E2E2E2E2E2E2E2E2E2E2E2E2E2E2E2E2E2E2E2E2E2E2E2E2E2E2E2E2E2E2E2E2E2E2E2E2E2E2E2E2E2E2E2E2E2E2E2E2E2E2E2E2E2E2E2E2E2E2E2E2F5E2E2E2E2E2E2E2E2E2E2E2E2E2E2E2E2F5E2E2
310
E2F5F5E2E2E2F5E2E2E2E2E2E2E2E2E2E2E2E2E2E2E2E2F5E2E2E2E2E2E2E2E2E2E2E2E2E2E2E2E2E2E2E2E2E2E2E2E2E2E2E2E2E2E2E2E2E2E2E2E2E2E2E2E2E2E2E2E2E2E2E2E2E2E2E2E2E2E2E2E2E2E2E2E2E2E2E2E2E2E2E2E2E2E2E2E2E2E2E2E2E2E2E2E2E2E2E2E2E2E2E2E2E2E2E2E2E2E2E2E2E2E2E2E2E2E2E2
310
E2E2E2E2E2E2E2E2E2E2E2E2E2E2E2E2E2E2E2E2E2E2E2E2E2E2E2E2E2E2E2E2E2F5E2E2E2E2E2E2E2E2E2E2E2E2E2E2E2E2F5E2E2E2F5F5E2E2E2F5E2E2E2E2E2E2E2E2E2E2E2E2E2E2E2E2F5E2E2E2E2E2E2E2E2E2E2E2E2E2E2E2E2E2E2E2E2E2E2E2E2E2E2E2E2E2E2E2E2E2E2E2E2E2E2E2E2E2E2E2E2E2E2E2E2E2E2
310
E2E2E2E2E2E2E2E2E2E2E2E2E2E2E2E2E2E2E2E2E2E2E2E2E2E2E2E2E2E2E2E2E2E2E2E2E2E2E2E2E2E2E2E2E2E2E2E2E2E2E2E2E2E2E2E2E2E2E2E2E2E2E2E2E2E2E2E2E2E2E2E2E2E2E2E2E2E2E2E2E2E2E2E2E2E2F5E2E2E2E2E2E2E2E2E2E2E2E2E2E2E2E2F5E2E2E2F5F5E2E2E2F5E2E2E2E2E2E2E2E2E2E2E2E2E2E2
310
E2E2F5E2E2E2E2E2E2E2E2E2E2E2E2E2E2E2E2E2E2E2E2E2E2E2E2E2E2E2E2E2E2E2E2E2E2E2E2E2E2E2E2E2E2E2E2E2E2E2E2E2E2E2E2E2E2E2E2E2E2E2E2E2E2E2E2E2E2E2E2E2E2E2E2E2E2E2E2E2E2E2E2E2E2E2E2E2E2E2E2E2E2E2E2E2E2E2E2E2E2E2E2E2E2E2E2E2E2E2E2E2E2E2E2E2E2E2E2E2E2E2E2E2E2E2E2
310
E2E2E2E2E2E2E2E2E2E2E2E2F5E2E2E2E2E2E2E2E2E2E2E2E2E2E2E2E2F5E2E2E2F5F5E2E2E2F5E2E2E2E2E2E2E2E2E2E2E2E2E2E2E2E2F5E2E2E2E2E2E2E2E2E2E2E2E2E2E2E2E2E2E2E2E2E2E2E2E2E2E2E2E2E2E2E2E2E2E2E2E2E2E2E2E2E2E2E2E2E2E2E2E2E2E2E2E2E2E2E2E2E2E2E2E2E2E2E2E2E2E2E2E2E2E2E2
310
E2E2E2E2E2E2E2E2E2E2E2E2E2E2E2E2E2E2E2E2E2E2E2E2E2E2E2E2E2E2E2E2E2E2E2E2E2E2E2E2E2E2E2E2E2E2E2E2E2E2E2E2E2E2E2E2E2E2E2E2E2E2E2E2E2F5E2E2E2E2E2E2E2E2E2E2E2E2E2E2E2E2F5E2E2E2F5F5E2E2E2F5E2E2E2E2E2E2E2E2E2E2E2E2E2E2E2E2F5E2E2E2E2E2E2E2E2E2E2E2E2E2E2E2E2E2E2
310
E2E2E2E2E2E2E2E2E2E2E2E2E2E2E2E2E2E2E2E2E2E2E2E2E2E2E2E2E2E2E2E2E2E2E2E2E2E2E2E2E2E2E2E2E2E2E2E2E2E2E2E2E2E2E2E2E2E2E2E2E2E2E2E2E2E2E2E2E2E2E2E2E2E2E2E2E2E2E2E2E2E2E2E2E2E2E2E2E2E2E2E2E2E2E2E2E2E2E2E2E2E2E2E2E2E2E2E2E2E2E2E2E2E2E2E2E2E2F5E2E2E2E2E2E2E2E2
310
E2E2E2E2E2E2E2E2F5E2E2E2F5F5E2E2E2F5E2E2E2E2E2E2E2E2E2E2E2E2E2E2E2E2F5E2E2E2E2E2E2E2E2E2E2E2E2E2E2E2E2E2E2E2E2E2E2E2E2E2E2E2E2E2E2E2E2E2E2E2E2E2E2E2E2E2E2E2E2E2E2E2E2E2E2E2E2E2E2E2E2E2E2E2E2E2E2E2E2E2E2E2E2E2E2E2E2E2E2E2E2E2E2E2E2E2E2E2E2E2E2E2E2E2E2E2E2
310
E2E2E2E2E2E2E2E2E2E2E2E2E2E2E2E2E2E2E2E2E2E2E2E2E2E2E2E2E2E2E2E2E2E2E2E2E2E2E2E2E2E2E2E2F5E2E2E2E2E2E2E2E2E2E2E2E2E2E2E2E2F5E2E2E2F5F5E2E2E2F5E2E2E2E2E2E2E2E2E2E2E2E2E2E2E2E2F5E2E2E2E2E2E2E2E2E2E2E2E2E2E2E2E2E2E2E2E2E2E2E2E2E2E2E2E2E2E2E2E2E2E2E2E2E2E2E2
310
E2E2E2E2E2E2E2E2E2E2E2E2E2E2E2E2E2E2E2E2E2E2E2E2E2E2E2E2E2E2E2E2E2E2E2E2E2E2E2E2E2E2E2E2E2E2E2E2E2E2E2E2E2E2E2E2E2E2E2E2E2E2E2E2E2E2E2E2E2E2E2E2E2E2E2E2E2E2E2E2E2E2E2E2E2E2E2E2E2E2E2E2E2E2E2E2E2F5E2E2E2E2E2E2E2E2E2E2E2E2E2E2E2E2F5E2E2E2F5F5E2E2E2F5E2E2E2
310
E2E2E2E2E2E2E2E2E2E2E2E2E2F5E2E2E2E2E2E2E2E2E2E2E2E2E2E2E2E2E2E2E2E2E2E2E2E2E2E2E2E2E2E2E2E2E2E2E2E2E2E2E2E2E2E2E2E2E2E2E2E2E2E2E2E2E2E2E2E2E2E2E2E2E2E2E2E2E2E2E2E2E2E2E2E2E2E2E2E2E2E2E2E2E2E2E2E2E2E2E2E2E2E2E2E2E2E2E2E2E2E2E2E2E2E2E2E2E2E2E2E2E2E2E2E2E2
310
E2E2E2E2E2E2E2E2E2E2E2E2E2E2E2E2E2E2E2E2E2E2E2F5E2E2E2E2E2E2E2E2E2E2E2E2E2E2E2E2F5E2E2E2F5F5E2E2E2E2E2E2E2E2E2E2E2E2E2E2E2E2E2E2E2E2F5E2E2E2E2E2E2E2E2E2E2E2E2E2E2E2E2E2E2E2E2E2E2E2E2E2E2E2E2E2E2E2E2E2E2E2E2E2E2E2E2E2E2E2E2E2E2E2E2E2E2E2E2E2E2E2E2E2E2E2E2
310
E2E2E2E2E2E2E2E2E2E2E2E2E2E2E2E2E2E2E2E2E2E2E2E2E2E2E2E2E2E2E2E2E2E2E2E2E2E2E2E2E2E2E2E2E2E2E2E2E2E2E2E2E2E2E2E2E2E2E2E2E2E2E2E2E2E2E2E2E2E2E2E2E2E2E2E2F5E2E2E2E2E2E2E2E2E2E2E2E2E2E2E2E2E2E2E2E2F5F5E2E2E2E2E2E2E2E2E2E2E2E2E2E2E2E2E2E2E2E2F5E2E2E2E2E2E2E2
310
E2E2E2E2E2E2E2E2E2E2E2E2E2E2E2E2E2E2E2E2E2E2E2E2E2E2E2E2E2E2E2E2E2E2E2E2E2E2E2E2E2E2E2E2E2E2E2E2E2E2E2E2E2E2E2E2E2E2E2E2E2E2E2E2E2E2E2E2E2E2E2E2E2E2E2E2E2E2E2E2E2E2E2E2E2E2E2E2E2E2E2E2E2E2E2E2E2E2E2E2E2E2E2E2E2E2E2E2E2E2E2E2E2E2E2E2E2E2E2E2E2E2E2E2E2E2E2
310
E2E2F5E2E2E2E2E2E2E2E2E2E2E2E2E2E2E2E2E2E2E2E2F5F5E2E2E2E2E2E2E2E2E2E2E2E2E2E2E2E2E2E2E2E2F5E2E2E2E2E2E2E2E2E2E2E2E2E2E2E2E2E2E2E2E2E2E2E2E2E2E2E2E2E2E2E2E2E2E2E2E2E2E2E2E2E2E2E2E2E2E2E2E2E2E2E2E2E2E2E2E2E2E2E2E2E2E2E2E2E2E2E2E2E2E2E2E2E2E2E2E2E2E2E2E2E2
310
E2E2E2E2E2E2E2E2E2E2E2E2E2E2E2E2E2E2E2E2E2E2E2E2E2E2E2E2E2E2E2E2E2E2E2E2E2E2E2E2E2E2E2E2E2E2E2E2E2E2E2E2E2E2E2F5E2E2E2E2E2E2E2E2E2E2E2E2E2E2E2E2E2E2E2E2F5F5E2E2E2E2E2E2E2E2E2E2E2E2E2E2E2E2E2E2E2E2F5E2E2E2E2E2E2E2E2E2E2E2E2E2E2E2E2E2E2E2E2E2E2E2E2E2E2E2E2
310
E2E2E2E2E2E2E2E2E2E2E2E2E2E2E2E2E2E2E2E2E2E2E2E2E2E2E2E2E2E2E2E2E2E2E2E2E2E2E2E2E2E2E2E2E2E2E2E2E2E2E2E2E2E2E2E2E2E2E2E2E2E2E2E2E2E2E2E2E2E2E2E2E2E2E2E2E2E2E2E2E2E2E2E2E2E2E2E2E2E2E2E2E2E2E2E2E2E2E2E2E2E2E2E2E2E2E2E2F5E2E2E2E2E2E2E2E2E2E2E2E2E2E2E2E2E2E2
310
E2E2F5F5E2E2E2E2E2E2E2E2E2E2E2E2E2E2E2E2E2E2E2E2F5E2E2E2E2E2E2E2E2E2E2E2E2E2E2E2E2E2E2E2E2E2E2E2E2E2E2E2E2E2E2E2E2E2E2E2E2E2E2E2E2E2E2E2E2E2E2E2E2E2E2E2E2E2E2E2E2E2E2E2E2E2E2E2E2E2E2E2E2E2E2E2E2E2E2E2E2E2E2E2E2E2E2E2E2E2E2E2E2E2E2E2E2E2E2E2E2E2E2E2E2E2E2
310
E2E2E2E2E2E2E2E2E2E2E2E2E2E2E2E2E2E2E2E2E2E2E2E2E2E2E2E2E2E2E2E2E2E2F5E2E2E2E2E2E2E2E2E2E2E2E2E2E2E2E2E2E2E2E2F5F5E2E2E2E2E2E2E2E2E2E2E2E2E2E2E2E2E2E2E2E2F5E2E2E2E2E2E2E2E2E2E2E2E2E2E2E2E2E2E2E2E2E2E2E2E2E2E2E2E2E2E2E2E2E2E2E2E2E2E2E2E2E2E2E2E2E2E2E2E2E2
310
E2E2E2E2E2E2E2E2E2E2E2E2E2E2E2E2E2E2E2E2E2E2E2E2E2E2E2E2E2E2E2E2E2E2E2E2E2E2E2E2E2E2E2E2E2E2E2E2E2E2E2E2E2E2E2E2E2E2E2E2E2E2E2E2E2E2E2E2E2E2E2E2E2E2E2E2E2E2E2E2E2E2E2E2E2E2E2F5E2E2E2E2E2E2E2E2E2E2E2E2E2E2E2E2E2E2E2E2F5F5E2E2E2E2E2E2E2E2E2E2E2E2E2E2E2E2E2
310
E2E2E2F5E2E2E2E2E2E2E2E2E2E2E2E2E2E2E2E2E2E2E2E2E2E2E2E2E2E2E2E2E2E2E2E2E2E2E2E2E2E2E2E2E2E2E2E2E2E2E2E2E2E2E2E2E2E2E2E2E2E2E2E2E2E2E2E2E2E2E2E2E2E2E2E2E2E2E2E2E2E2E2E2E2E2E2E2E2E2E2E2E2E2E2E2E2E2E2E2E2E2E2E2E2E2E2E2E2E2E2E2E2E2E2E2E2E2E2E2E2E2E2E2E2E2E2
310
E2E2E2E2E2E2E2E2E2E2E2E2E2F5E2E2E2E2E2E2E2E2E2E2E2E2E2E2E2E2E2E2E2E2F5F5E2E2E2E2E2E2E2E2E2E2E2E2E2E2E2E2E2E2E2E2F5E2E2E2E2E2E2E2E2E2E2E2E2E2E2E2E2E2E2E2E2E2E2E2E2E2E2E2E2E2E2E2E2E2E2E2E2E2E2E2E2E2E2E2E2E2E2E2E2E2E2E2E2E2E2E2E2E2E2E2E2E2E2E2E2E2E2E2E2E2E2
310
E2E2E2E2E2E2E2E2E2E2E2E2E2E2E2E2E2E2E2E2E2E2E2E2E2E2E2E2E2E2E2E2E2E2E2E2E2E2E2E2E2E2E2E2E2E2E2E2E2E2E2E2E2E2E2E2E2E2E2E2E2E2E2E2E2E2F5E2E2E2E2E2E2E2E2E2E2E2E2E2E2E2E2E2E2E2E2F5F5E2E2E2E2E2E2E2E2E2E2E2E2E2E2E2E2E2E2E2E2F5E2E2E2E2E2E2E2E2E2E2E2E2E2E2E2E2E2
310
E2E2E2E2E2E2E2E2E2E2E2E2E2E2E2E2E2E2E2E2E2E2E2E2E2E2E2E2E2E2E2E2E2E2E2E2E2E2E2E2E2E2E2E2E2E2E2E2E2E2E2E2E2E2E2E2E2E2E2E2E2E2E2E2E2E2E2E2E2E2E2E2E2E2E2E2E2E2E2E2E2E2E2E2E2E2E2E2E2E2E2E2E2E2E2E2E2E2E2E2E2E2E2E2E2E2E2E2E2E2E2E2E2E2E2E2E2E2E2F5E2E2E2E2E2E2E2
310
E2E2E2E2E2E2E2E2E2E2E2E2E2F5F5E2E2E2F5E2E2E2E2E2E2E2E2E2E2E2E2E2E2E2E2F5E2E2E2E2E2E2E2E2E2E2E2E2E2E2E2E2E2E2E2E2E2E2E2E2E2E2E2E2E2E2E2E2E2E2E2E2E2E2E2E2E2E2E2E2E2E2E2E2E2E2E2E2E2E2E2E2E2E2E2E2E2E2E2E2E2E2E2E2E2E2E2E2E2E2E2E2E2E2E2E2E2E2E2E2E2E2E2E2E2E2E2
310
E2E2E2E2E2E2E2E2E2E2E2E2E2E2E2E2E2E2E2E2E2E2E2E2E2E2E2E2E2E2E2E2E2E2E2E2E2E2E2E2E2E2E2E2E2F5E2E2E2E2E2E2E2E2E2E2E2E2E2E2E2E2F5E2E2E2F5F5E2E2E2F5E2E2E2E2E2E2E2E2E2E2E2E2E2E2E2E2F5E2E2E2E2E2E2E2E2E2E2E2E2E2E2E2E2E2E2E2E2E2E2E2E2E2E2E2E2E2E2E2E2E2E2E2E2E2E2
310
E2E2E2E2E2E2E2E2E2E2E2E2E2E2E2E2E2E2E2E2E2E2E2E2E2E2E2E2E2E2E2E2E2E2E2E2E2E2E2E2E2E2E2E2E2E2E2E2E2E2E2E2E2E2E2E2E2E2E2E2E2E2E2E2E2E2E2E2E2E2E2E2E2E2E2E2E2E2E2E2E2E2E2E2E2E2E2E2E2E2E2E2E2E2E2E2E2E2F5E2E2E2E2E2E2E2E2E2E2E2E2E2E2E2E2F5E2E2E2F5F5E2E2E2F5E2E2
310
E2E2E2E2E2E2E2E2E2E2E2E2E2E2F5E2E2E2E2E2E2E2E2E2E2E2E2E2E2E2E2E2E2E2E2E2E2E2E2E2E2E2E2E2E2E2E2E2E2E2E2E2E2E2E2E2E2E2E2E2E2E2E2E2E2E2E2E2E2E2E2E2E2E2E2E2E2E2E2E2E2E2E2E2E2E2E2E2E2E2E2E2E2E2E2E2E2E2E2E2E2E2E2E2E2E2E2E2E2E2E2E2E2E2E2E2E2E2E2E2E2E2E2E2E2E2E2
310
E2E2E2E2E2E2E2E2E2E2E2E2E2E2E2E2E2E2E2E2E2E2E2E2F5E2E2E2E2E2E2E2E2E2E2E2E2E2E2E2E2F5E2E2E2F5F5E2E2E2F5E2E2E2E2E2E2E2E2E2E2E2E2E2E2E2E2F5E2E2E2E2E2E2E2E2E2E2E2E2E2E2E2E2E2E2E2E2E2E2E2E2E2E2E2E2E2E2E2E2E2E2E2E2E2E2E2E2E2E2E2E2E2E2E2E2E2E2E2E2E2E2E2E2E2E2E2
310
E2E2E2E2E2E2E2E2E2E2E2E2E2E2E2E2E2E2E2E2E2E2E2E2E2E2E2E2E2E2E2E2E2E2E2E2E2E2E2E2E2E2E2E2E2E2E2E2E2E2E2E2E2E2E2E2E2E2E2E2E2E2E2E2E2E2E2E2E2E2E2E2E2E2E2E2E2F5E2E2E2E2E2E2E2E2E2E2E2E2E2E2E2E2F5E2E2E2F5F5E2E2E2F5E2E2E2E2E2E2E2E2E2E2E2E2E2E2E2E2F5E2E2E2E2E2E2
310
E2E2E2E2E2E2E2E2E2E2E2E2E2E2E2E2E2E2E2E2E2E2E2E2E2E2E2E2E2E2E2E2E2E2E2E2E2E2E2E2E2E2E2E2E2E2E2E2E2E2E2E2E2E2E2E2E2E2E2E2E2E2E2E2E2E2E2E2E2E2E2E2E2E2E2E2E2E2E2E2E2E2E2E2E2E2E2E2E2E2E2E2E2E2E2E2E2E2E2E2E2E2E2E2E2E2E2E2E2E2E2E2E2E2E2E2E2E2E2E2E2E2E2E2E2E2E2
310
E2E2E2F5E2E2E2E2E2E2E2E2E2E2E2E2E2E2E2E2F5E2E2E2F5F5E2E2E2F5E2E2E2E2E2E2E2E2E2E2E2E2E2E2E2E2F5E2E2E2E2E2E2E2E2E2E2E2E2E2E2E2E2E2E2E2E2E2E2E2E2E2E2E2E2E2E2E2E2E2E2E2E2E2E2E2E2E2E2E2E2E2E2E2E2E2E2E2E2E2E2E2E2E2E2E2E2E2E2E2E2E2E2E2E2E2E2E2E2E2E2E2E2E2E2E2E2
310
E2E2E2E2E2E2E2E2E2E2E2E2E2E2E2E2E2E2E2E2E2E2E2E2E2E2E2E2E2E2E2E2E2E2E2E2E2E2E2E2E2E2E2E2E2E2E2E2E2E2E2E2E2E2E2E2F5E2E2E2E2E2E2E2E2E2E2E2E2E2E2E2E2F5E2E2E2F5F5E2E2E2F5E2E2E2E2E2E2E2E2E2E2E2E2E2E2E2E2F5E2E2E2E2E2E2E2E2E2E2E2E2E2E2E2E2E2E2E2E2E2E2E2E2E2E2E2
310
E2E2E2E2E2E2E2E2E2E2E2E2E2E2E2E2E2E2E2E2E2E2E2E2E2E2E2E2E2E2E2E2E2E2E2E2E2E2E2E2E2E2E2E2E2E2E2E2E2E2E2E2E2E2E2E2E2E2E2E2E2E2E2E2E2E2E2E2E2E2E2E2E2E2E2E2E2E2E2E2E2E2E2E2E2E2E2E2E2E2E2E2E2E2E2E2E2E2E2E2E2E2E2E2E2E2E2E2E2F5E2E2E2E2E2E2E2E2E2E2E2E2E2E2E2E2F5
310
E2E2E2F5F5E2E2E2F5E2E2E2E2E2E2E2E2E2E2E2E2E2E2E2E2F5E2E2E2E2E2E2E2E2E2E2E2E2E2E2E2E2E2E2E2E2E2E2E2E2E2E2E2E2E2E2E2E2E2E2E2E2E2E2E2E2E2E2E2E2E2E2E2E2E2E2E2E2E2E2E2E2E2E2E2E2E2E2E2E2E2E2E2E2E2E2E2E2E2E2E2E2E2E2E2E2E2E2E2E2E2E2E2E2E2E2E2E2E2E2E2E2E2E2E2E2E2
310
E2E2E2E2E2E2E2E2E2E2E2E2E2E2E2E2E2E2E2E2E2E2E2E2E2E2E2E2E2E2E2E2E2E2E2F5E2E2E2E2E2E2E2E2E2E2E2E2E2E2E2E2F5E2E2E2F5F5E2E2E2F5E2E2E2E2E2E2E2E2E2E2E2E2E2E2E2E2F5E2E2E2E2E2E2E2E2E2E2E2E2E2E2E2E2E2E2E2E2E2E2E2E2E2E2E2E2E2E2E2E2E2E2E2E2E2E2E2E2E2E2E2E2E2E2E2E2
310
E2E2E2E2E2E2E2E2E2E2E2E2E2E2E2E2E2E2E2E2E2E2E2E2E2E2E2E2E2E2E2E2E2E2E2E2E2E2E2E2E2E2E2E2E2E2E2E2E2E2E2E2E2E2E2E2E2E2E2E2E2E2E2E2E2E2E2E2E2E2E2E2E2E2E2E2E2E2E2E2E2E2E2E2E2E2E2E2F5E2E2E2E2E2E2E2E2E2E2E2E2E2E2E2E2F5E2E2E2F5F5E2E2E2F5E2E2E2E2E2E2E2E2E2E2E2E2
310
E2E2E2E2F5E2E2E2E2E2E2E2E2E2E2E2E2E2E2E2E2E2E2E2E2E2E2E2E2E2E2E2E2E2E2E2E2E2E2E2E2E2E2E2E2E2E2E2E2E2E2E2E2E2E2E2E2E2E2E2E2E2E2E2E2E2E2E2E2E2E2E2E2E2E2E2E2E2E2E2E2E2E2E2E2E2E2E2E2E2E2E2E2E2E2E2E2E2E2E2E2E2E2E2E2E2E2E2E2E2E2E2E2E2E2E2E2E2E2E2E2E2E2E2E2E2E2
310
E2E2E2E2E2E2E2E2E2E2E2E2E2E2F5E2E2E2E2E2E2E2E2E2E2E2E2E2E2E2E2F5E2E2E2F5F5E2E2E2F5E2E2E2E2E2E2E2E2E2E2E2E2E2E2E2E2F5E2E2E2E2E2E2E2E2E2E2E2E2E2E2E2E2E2E2E2E2E2E2E2E2E2E2E2E2E2E2E2E2E2E2E2E2E2E2E2E2E2E2E2E2E2E2E2E2E2E2E2E2E2E2E2E2E2E2E2E2E2E2E2E2E2E2E2E2E2
310
E2E2E2E2E2E2E2E2E2E2E2E2E2E2E2E2E2E2E2E2E2E2E2E2E2E2E2E2E2E2E2E2E2E2E2E2E2E2E2E2E2E2E2E2E2E2E2E2E2E2E2E2E2E2E2E2E2E2E2E2E2E2E2E2E2E2E2F5E2E2E2E2E2E2E2E2E2E2E2E2E2E2E2E2F5E2E2E2F5F5E2E2E2F5E2E2E2E2E2E2E2E2E2E2E2E2E2E2E2E2F5E2E2E2E2E2E2E2E2E2E2E2E2E2E2E2E2
310
E2E2E2E2E2E2E2E2E2E2E2E2E2E2E2E2E2E2E2E2E2E2E2E2E2E2E2E2E2E2E2E2E2E2E2E2E2E2E2E2E2E2E2E2E2E2E2E2E2E2E2E2E2E2E2E2E2E2E2E2E2E2E2E2E2E2E2E2E2E2E2E2E2E2E2E2E2E2E2E2E2E2E2E2E2E2E2E2E2E2E2E2E2E2E2E2E2E2E2E2E2E2E2E2E2E2E2E2E2E2E2E2E2E2E2E2E2E2E2E2F5E2E2E2E2E2E2
310
E2E2E2E2E2E2E2E2E2E2F5E2E2E2F5F5E2E2E2F5E2E2E2E2E2E2E2E2E2E2E2E2E2E2E2E2F5E2E2E2E2E2E2E2E2E2E2E2E2E2E2E2E2E2E2E2E2E2E2E2E2E2E2E2E2E2E2E2E2E2E2E2E2E2E2E2E2E2E2E2E2E2E2E2E2E2E2E2E2E2E2E2E2E2E2E2E2E2E2E2E2E2E2E2E2E2E2E2E2E2E2E2E2E2E2E2E2E2E2E2E2E2E2E2E2E2E2
310
E2E2E2E2E2E2E2E2E2E2E2E2E2E2E2E2E2E2E2E2E2E2E2E2E2E2E2E2E2E2E2E2E2E2E2E2E2E2E2E2E2E2E2E2E2E2F5E2E2E2E2E2E2E2E2E2E2E2E2E2E2E2E2F5E2E2E2F5F5E2E2E2F5E2E2E2E2E2E2E2E2E2E2E2E2E2E2E2E2F5E2E2E2E2E2E2E2E2E2E2E2E2E2E2E2E2E2E2E2E2E2E2E2E2E2E2E2E2E2E2E2E2E2E2E2E2E2
310
E2E2E2E2E2E2E2E2E2E2E2E2E2E2E2E2E2E2E2E2E2E2E2E2E2E2E2E2E2E2E2E2E2E2E2E2E2E2E2E2E2E2E2E2E2E2E2E2E2E2E2E2E2E2E2E2E2E2E2E2E2E2E2E2E2E2E2E2E2E2E2E2E2E2E2E2E2E2E2E2E2E2E2E2E2E2E2E2E2E2E2E2E2E2E2E2E2E2E2F5E2E2E2E2E2E2E2E2E2E2E2E2E2E2E2E2F5E2E2E2F5F5E2E2E2F5E2
310
E2E2E2E2E2E2E2E2E2E2E2E2E2E2E2F5E2E2E2E2E2E2E2E2E2E2E2E2E2E2E2E2E2E2E2E2E2E2E2E2E2E2E2E2E2E2E2E2E2E2E2E2E2E2E2E2E2E2E2E2E2E2E2E2E2E2E2E2E2E2E2E2E2E2E2E2E2E2E2E2E2E2E2E2E2E2E2E2E2E2E2E2E2E2E2E2E2E2E2E2E2E2E2E2E2E2E2E2E2E2E2E2E2E2E2E2E2E2E2E2E2E2E2E2E2E2E2
310
E2E2E2E2E2E2E2E2E2E2E2E2E2E2E2E2E2E2E2E2E2E2E2E2E2F5E2E2E2E2E2E2E2E2E2E2E2E2E2E2E2E2F5E2E2E2F5F5E2E2E2F5E2E2E2E2E2E2E2E2E2E2E2E2E2E2E2E2F5E2E2E2E2E2E2E2E2E2E2E2E2E2E2E2E2E2E2E2E2E2E2E2E2E2E2E2E2E2E2E2E2E2E2E2E2E2E2E2E2E2E2E2E2E2E2E2E2E2E2E2E2E2E2E2E2E2E2
310
E2E2E2E2E2E2E2E2E2E2E2E2E2E2E2E2E2E2E2E2E2E2E2E2E2E2E2E2E2E2E2E2E2E2E2E2E2E2E2E2E2E2E2E2E2E2E2E2E2E2E2E2E2E2E2E2E2E2E2E2E2E2E2E2E2E2E2E2E2E2E2E2E2E2E2E2E2E2F5E2E2E2E2E2E2E2E2E2E2E2E2E2E2E2E2F5E2E2E2F5F5E2E2E2F5E2E2E2E2E2E2E2E2E2E2E2E2E2E2E2E2F5E2E2E2E2E2
310
E2E2E2E2E2E2E2E2E2E2E2E2E2E2E2E2E2E2E2E2E2E2E2E2E2E2E2E2E2E2E2E2E2E2E2E2E2E2E2E2E2E2E2E2E2E2E2E2E2E2E2E2E2E2E2E2E2E2E2E2E2E2E2E2E2E2E2E2E2E2E2E2E2E2E2E2E2E2E2E2E2E2E2E2E2E2E2E2E2E2E2E2E2E2E2E2E2E2E2E2E2E2E2E2E2E2E2E2E2E2E2E2E2E2E2E2E2E2E2E2E2E2E2E2E2E2E2
310
E2E2E2E2F5E2E2E2E2E2E2E2E2E2E2E2E2E2E2E2E2F5E2E2E2F5F5E2E2E2E2E2E2E2E2E2E2E2E2E2E2E2E2E2E2E2E2F5E2E2E2E2E2E2E2E2E2E2E2E2E2E2E2E2E2E2E2E2E2E2E2E2E2E2E2E2E2E2E2E2E2E2E2E2E2E2E2E2E2E2E2E2E2E2E2E2E2E2E2E2E2E2E2E2E2E2E2E2E2E2E2E2E2E2E2E2E2E2E2E2E2E2E2E2E2E2E2
310
E2E2E2E2E2E2E2E2E2E2E2E2E2E2E2E2E2E2E2E2E2E2E2E2E2E2E2E2E2E2E2E2E2E2E2E2E2E2E2E2E2E2E2E2E2E2E2E2E2E2E2E2E2E2E2E2E2F5E2E2E2E2E2E2E2E2E2E2E2E2E2E2E2E2E2E2E2E2F5F5E2E2E2E2E2E2E2E2E2E2E2E2E2E2E2E2E2E2E2E2F5E2E2E2E2E2E2E2E2E2E2E2E2E2E2E2E2E2E2E2E2E2E2E2E2E2E2
310
E2E2E2E2E2E2E2E2E2E2E2E2E2E2E2E2E2E2E2E2E2E2E2E2E2E2E2E2E2E2E2E2E2E2E2E2E2E2E2E2E2E2E2E2E2E2E2E2E2E2E2E2E2E2E2E2E2E2E2E2E2E2E2E2E2E2E2E2E2E2E2E2E2E2E2E2E2E2E2E2E2E2E2E2E2E2E2E2E2E2E2E2E2E2E2E2E2E2E2E2E2E2E2E2E2E2E2E2E2E2F5E2E2E2E2E2E2E2E2E2E2E2E2E2E2E2E2
310
E2E2E2E2F5F5E2E2E2E2E2E2E2E2E2E2E2E2E2E2E2E2E2E2E2E2F5E2E2E2E2E2E2E2E2E2E2E2E2E2E2E2E2E2E2E2E2E2E2E2E2E2E2E2E2E2E2E2E2E2E2E2E2E2E2E2E2E2E2E2E2E2E2E2E2E2E2E2E2E2E2E2E2E2E2E2E2E2E2E2E2E2E2E2E2E2E2E2E2E2E2E2E2E2E2E2E2E2E2E2E2E2E2E2E2E2E2E2E2E2E2E2E2E2E2E2E2
310
E2E2E2E2E2E2E2E2E2E2E2E2E2E2E2E2E2E2E2E2E2E2E2E2E2E2E2E2E2E2E2E2E2E2E2E2F5E2E2E2E2E2E2E2E2E2E2E2E2E2E2E2E2E2E2E2E2F5F5E2E2E2E2E2E2E2E2E2E2E2E2E2E2E2E2E2E2E2E2F5E2E2E2E2E2E2E2E2E2E2E2E2E2E2E2E2E2E2E2E2E2E2E2E2E2E2E2E2E2E2E2E2E2E2E2E2E2E2E2E2E2E2E2E2E2E2E2
310
E2E2E2E2E2E2E2E2E2E2E2E2E2E2E2E2E2E2E2E2E2E2E2E2E2E2E2E2E2E2E2E2E2E2E2E2E2E2E2E2E2E2E2E2E2E2E2E2E2E2E2E2E2E2E2E2E2E2E2E2E2E2E2E2E2E2E2E2E2E2E2E2E2E2E2E2E2E2E2E2E2E2E2E2E2E2E2E2E2F5E2E2E2E2E2E2E2E2E2E2E2E2E2E2E2E2E2E2E2E2F5F5E2E2E2E2E2E2E2E2E2E2E2E2E2E2E2
310
E2E2E2E2E2F5F5F5F5F5F5F5F5F5F5F5F5F5F5F5F5F5F5F5F5F5F5F5F5F5F5F5F5F5F5F5F5F5F5F5F5F5F5F5F5F5F5F5F5F5F5F5F5F5F5F5F5F5F5F5F5F5F5F5F5F5F5F5F5F5F5F5F5F5F5F5F5F5F5F5F5F5F5F5F5F5F5F5F5F5F5F5F5F5F5F5F5F5F5F5F5F5F5F5F5F5F5F5F5F5F5F5F5F5F5F5F5F5F5F5F5F5F5F5F5F5F5
310
F5F5F5F5F5F5F5F5F5F5F5F5F5F5F5F5E2E2E2E2E2E2E2E2E2E2E2E2E2E2E2E2E2E2E2E2F5F5E2E2E2E2E2E2E2E2E2E2E2E2E2E2E2E2E2E2E2E2E2E2E2E2E2E2E2E2E2E2E2E2E2E2E2E2E2E2E2E2E2E2E2E2E2E2E2E2E2E2E2E2E2E2E2E2E2E2E2E2E2E2E2E2E2E2E2E2E2E2E2E2E2E2E2E2E2E2E2E2E2E2E2E2E2E2E2E2E2
310
E2E2E2E2E2E2E2E2E2E2E2E2E2E2E2E2E2E2E2E2E2E2E2E2E2E2E2E2E2E2E2E2E2E2E2E2E2E2E2E2E2E2E2E2E2E2E2E2E2E2E2E2E2E2E2E2E2E2E2E2E2E2E2E2E2E2E2E2E2E2E2E2E2E2E2E2E2E2E2E2E2E2E2E2E2E2E2E2E2F5F5E2E2E2E2E2E2E2E2E2E2E2E2E2E2E2E2E2E2E2E2E2E2E2E2E2E2E2E2E2E2E2E2E2E2E2E2
310
E2E2E2E2E2E2E2E2E2E2E2E2E2E2E2E2E2E2E2E2E2E2E2E2E2E2E2E2E2E2E2E2E2E2E2E2E2E2E2E2E2E2E2E2E2E2E2E2E2E2E2E2E2E2E2E2E2E2E2E2E2E2E2E2E2E2E2E2E2E2E2E2E2E2E2E2E2E2E2E2E2E2E2E2E2E2E2E2E2E2E2E2E2E2E2E2E2E2E2E2E2E2E2E2E2E2E2E2E2E2E2E2E2E2E2E2E2E2E2E2E2E2E2E2E2E2E2
310
E2E2E2E2E2E2E2E2E2E2E2E2E2E2E2F5F5E2E2E2E2E2E2E2E2E2E2E2E2E2E2E2E2E2E2E2E2E2E2E2E2E2E2E2E2E2E2E2E2E2E2E2E2E2E2E2E2E2E2E2E2E2E2E2E2E2E2E2E2E2E2E2E2E2E2E2E2E2E2E2E2E2E2E2E2E2E2E2E2E2E2E2E2E2E2E2E2E2E2E2E2E2E2E2E2E2E2E2E2E2E2E2E2E2E2E2E2E2E2E2E2E2E2E2E2E2E2
310
E2E2E2E2E2E2E2E2E2E2E2E2E2E2E2E2E2E2E2E2E2E2E2E2E2E2E2E2E2E2E2E2E2E2E2E2E2E2E2E2E2E2E2E2E2E2E2E2E2E2E2E2E2E2E2E2E2E2E2E2E2E2E2E2E2E2E2E2F5F5E2E2E2E2E2E2E2E2E2E2E2E2E2E2E2E2E2E2E2E2E2E2E2E2E2E2E2E2E2E2E2E2E2E2E2E2E2E2E2E2E2E2E2E2E2E2E2E2E2E2E2E2E2E2E2E2E2
310
E2E2E2E2E2E2E2E2E2E2E2E2E2E2E2E2E2E2E2E2E2E2E2E2E2E2E2E2E2E2E2E2E2E2E2E2E2E2E2E2E2E2E2E2E2E2E2E2E2E2E2E2E2E2E2E2E2E2E2E2E2E2E2E2E2E2E2E2E2E2E2E2E2E2E2E2E2E2E2E2E2E2E2E2E2E2E2E2E2E2E2E2E2E2E2E2E2E2E2E2E2E2E2E2E2E2E2E2E2E2E2E2E2E2E2E2E2E2E2E2E2F5F5E2E2E2F5
310
E2E2E2E2E2E2E2E2E2E2E2E2E2E2E2E2E2E2E2E2E2E2E2E2E2E2E2E2E2E2E2E2E2E2E2E2E2E2E2E2E2E2E2E2E2E2E2E2E2E2E2E2E2E2E2E2E2E2E2E2E2E2E2E2E2E2E2E2E2E2E2E2E2E2E2E2E2E2E2E2E2E2E2E2E2E2E2E2E2E2E2E2E2E2E2E2E2E2E2E2E2E2E2E2E2E2E2E2E2E2E2E2E2E2E2E2E2E2E2E2E2E2E2E2E2E2E2
310
E2E2E2E2E2E2E2E2E2E2E2E2E2E2E2E2E2E2E2E2E2E2E2E2E2E2E2E2E2E2E2E2E2E2E2E2E2E2E2E2E2E2E2F5E2E2E2F5F5E2E2E2F5E2E2E2E2E2E2E2E2E2E2E2E2E2E2E2E2E2E2E2E2E2E2E2E2E2E2E2E2E2E2E2E2E2E2E2E2E2E2E2E2E2E2E2E2E2E2E2E2E2E2E2E2E2E2E2E2E2E2E2E2E2E2E2E2E2E2E2E2E2E2E2E2E2E2
310
E2E2E2E2E2E2E2E2E2E2E2E2E2E2E2E2E2E2E2E2E2E2E2E2E2E2E2E2E2E2E2E2E2E2E2E2E2E2E2E2E2E2E2E2E2E2E2E2E2E2E2E2E2E2E2E2E2E2E2E2E2E2E2E2E2E2E2E2E2E2E2E2E2E2E2E2E2E2E2E2E2E2E2E2E2E2E2E2E2E2E2E2E2E2E2E2F5E2E2E2F5F5E2E2E2F5E2E2E2E2E2E2E2E2E2E2E2E2E2E2E2E2E2E2E2E2E2
310
E2E2E2E2E2E2E2E2E2E2E2E2E2E2E2E2E2E2E2E2E2E2E2E2E2E2E2E2E2E2E2E2E2E2E2E2E2E2E2E2E2E2E2E2E2E2E2E2E2E2E2E2E2E2E2E2E2E2E2E2E2E2E2E2E2E2E2E2E2E2E2E2E2E2E2E2E2E2E2E2E2E2E2E2E2E2E2E2E2E2E2E2E2E2E2E2E2E2E2E2E2E2E2E2E2E2E2E2E2E2E2E2E2E2E2E2E2E2E2E2E2E2E2E2E2E2E2
310
E2E2E2E2E2E2E2E2E2E2E2E2E2E2E2E2E2E2E2E2E2E2F5E2E2E2F5F5E2E2E2F5E2E2E2E2E2E2E2E2E2E2E2E2E2E2E2E2E2E2E2E2E2E2E2E2E2E2E2E2E2E2E2E2E2E2E2E2E2E2E2E2E2E2E2E2E2E2E2E2E2E2E2E2E2E2E2E2E2E2E2E2E2E2E2E2E2E2E2E2E2E2E2E2E2E2E2E2E2E2E2E2E2E2E2E2E2E2E2E2E2E2E2E2E2E2E2
310
E2E2E2E2E2E2E2E2E2E2E2E2E2E2E2E2E2E2E2E2E2E2E2E2E2E2E2E2E2E2E2E2E2E2E2E2E2E2E2E2E2E2E2E2E2E2E2E2E2E2E2E2E2E2E2E2E2E2E2E2E2E2E2E2E2E2E2E2E2E2E2E2E2E2E2F5E2E2E2F5F5E2E2E2F5E2E2E2E2E2E2E2E2E2E2E2E2E2E2E2E2E2E2E2E2E2E2E2E2E2E2E2E2E2E2E2E2E2E2E2E2E2E2E2E2E2E2
310
E2E2E2E2E2E2E2E2E2E2E2E2E2E2E2E2E2E2E2E2E2E2E2E2E2E2E2E2E2E2E2E2E2E2E2E2E2E2E2E2E2E2E2E2E2E2E2E2E2E2E2E2E2E2E2E2E2E2E2E2E2E2E2E2E2E2E2E2E2E2E2E2E2E2E2E2E2E2E2E2E2E2E2E2E2E2E2E2E2E2E2E2E2E2E2E2E2E2E2E2E2E2E2E2E2E2E2E2E2E2E2E2E2E2E2E2E2E2E2E2E2E2E2E2E2E2E2
310
E2F5E2E2E2F5F5E2E2E2F5E2E2E2E2E2E2E2E2E2E2E2E2E2E2E2E2E2E2E2E2E2E2E2E2E2E2E2E2E2E2E2E2E2E2E2E2E2E2E2E2E2E2E2E2E2E2E2E2E2E2E2E2E2E2E2E2E2E2E2E2E2E2E2E2E2E2E2E2E2E2E2E2E2E2E2E2E2E2E2E2E2E2E2E2E2E2E2E2E2E2E2E2E2E2E2E2E2E2E2E2E2E2E2E2E2E2E2E2E2E2E2E2E2E2E2E2
310
E2E2E2E2E2E2E2E2E2E2E2E2E2E2E2E2E2E2E2E2E2E2E2E2E2E2E2E2E2E2E2E2E2E2E2E2E2E2E2E2E2E2E2E2E2E2E2E2E2E2E2E2E2E2F5E2E2E2F5F5E2E2E2F5E2E2E2E2E2E2E2E2E2E2E2E2E2E2E2E2E2E2E2E2E2E2E2E2E2E2E2E2E2E2E2E2E2E2E2E2E2E2E2E2E2E2E2E2E2E2E2E2E2E2E2E2E2E2E2E2E2E2E2E2E2E2E2
310
E2E2E2E2E2E2E2E2E2E2E2E2E2E2E2E2E2E2E2E2E2E2E2E2E2E2E2E2E2E2E2E2E2E2E2E2E2E2E2E2E2E2E2E2E2E2E2E2E2E2E2E2E2E2E2E2E2E2E2E2E2E2E2E2E2E2E2E2E2E2E2E2E2E2E2E2E2E2E2E2E2E2E2E2E2E2E2E2E2E2E2E2E2E2E2E2E2E2E2E2E2E2E2E2E2E2E2F5E2E2E2F5F5E2E2E2F5E2E2E2E2E2E2E2E2E2E2
310
E2E2E2E2E2E2E2E2E2E2E2E2E2E2E2E2E2E2E2E2E2E2E2E2E2E2E2E2E2E2E2E2E2E2E2E2E2E2E2E2E2E2E2E2E2E2E2E2E2E2E2E2E2E2E2E2E2E2E2E2E2E2E2E2E2E2E2E2E2E2E2E2E2E2E2E2E2E2E2E2E2E2E2E2E2E2E2E2E2E2E2E2E2E2E2E2E2E2E2E2E2E2E2E2E2E2E2E2E2E2E2E2E2E2E2E2E2E2E2E2E2E2E2E2E2E2E2
310
E2E2E2E2E2E2E2E2E2E2E2E2E2E2E2E2E2E2E2E2E2E2E2E2E2E2E2E2E2E2E2E2E2F5E2E2E2F5F5E2E2E2F5F5F5F5F5F5F5F5E2E2E2E2E2E2E2E2E2F5F5F5F5F5F5F5F5F5F5F5F5F5F5F5F5E2E2E2E2E2E2E2E2E2F5F5F5F5F5F5F5F5F5F5F5F5F5F5F5E2E2E2E2E2E2E2E2E2F5F5F5F5F5F5F5F5F5F5F5F5F5F5F5F5E2E2E2
310
E2E2E2E2E2F5F5F5F5F5F5F5F5F5F5F5F5F5F5F5F5E2E2E2E2E2E2E2E2E2F5F5F5F5F5F5F5F5F5F5F5F5F5F5F5E2E2E2E2E2E2E2E2E2F5F5F5F5F5F5F5F5F5F5F5F5F5F5F5F5E2E2E2E2E2E2E2E2E2F5F5F5F5F5F5F5F5E2E2E2F5F5E2E2E2E2E2E2E2E2E2E2E2E2E2E2E2E2E2E2E2E2E2E2E2E2E2E2E2E2E2E2E2E2E2E2E2
310
E2E2E2E2E2E2E2E2E2E2E2E2E2E2E2E2E2E2E2E2E2E2E2E2E2E2E2E2E2E2E2E2E2E2E2E2E2E2E2E2E2E2E2E2E2E2E2E2E2E2E2E2E2E2E2E2E2E2E2E2E2E2E2E2E2E2E2E2E2E2E2E2E2E2E2E2E2E2E2E2E2E2E2E2E2E2E2E2E2E2E2E2E2E2E2E2E2E2E2E2E2E2E2E2E2E2E2E2E2E2E2E2E2E2E2E2E2E2E2E2E2E2E2E2E2E2E2
310
E2E2E2E2E2E2E2E2E2E2E2E2E2E2E2E2F5F5E2E2E2E2E2E2E2E2E2E2E2E2E2E2E2E2E2E2E2E2E2E2E2E2E2E2E2E2E2E2E2E2E2E2E2E2E2E2E2E2E2E2E2E2E2E2E2E2E2E2E2E2E2E2E2E2E2E2E2E2E2E2E2E2E2E2E2E2E2E2E2E2E2E2E2E2E2E2E2E2E2E2E2E2E2E2E2E2E2E2E2E2E2E2E2E2E2E2E2E2E2E2E2E2E2E2E2E2E2
310
E2E2E2E2E2E2E2E2E2E2E2E2E2E2E2E2E2E2E2E2E2E2E2E2E2E2E2E2E2E2E2E2E2E2E2E2E2E2E2E2E2E2E2E2E2E2E2E2E2E2E2E2E2E2E2E2E2E2E2E2E2E2E2E2E2E2E2E2E2F5F5E2E2E2E2E2E2E2E2E2E2E2E2E2E2E2E2E2E2E2E2E2E2E2E2E2E2E2E2E2E2E2E2E2E2E2E2E2E2E2E2E2E2E2E2E2E2E2E2E2E2E2E2E2E2E2E2
310
E2E2E2E2E2E2E2E2E2E2E2E2E2E2E2E2E2E2E2E2E2E2E2E2E2E2E2E2E2E2E2E2E2E2E2E2E2E2E2E2E2E2E2E2E2E2E2E2E2E2E2E2E2E2E2E2E2E2E2E2E2E2E2E2E2E2E2E2E2E2E2E2E2E2E2E2E2E2E2E2E2E2E2E2E2E2E2E2E2E2E2E2E2E2E2E2E2E2E2E2E2E2E2E2E2E2E2E2E2E2E2E2E2E2E2E2E2E2E2E2E2E2F5F5E2E2E2
310
E2E2E2E2E2E2E2E2E2E2E2E2E2E2E2E2E2E2E2E2E2E2E2E2E2E2E2E2E2E2E2E2E2E2E2E2E2E2E2E2E2E2E2E2E2E2E2E2E2E2E2E2E2E2E2E2E2E2E2E2E2E2E2E2E2E2E2E2E2E2E2E2E2E2E2E2E2E2E2E2E2E2E2E2E2E2E2E2E2E2E2E2E2E2E2E2E2E2E2E2E2E2E2E2E2E2E2E2E2E2E2E2E2E2E2E2E2E2E2E2E2E2E2E2E2E2E2
310
E2E2E2E2E2E2E2E2E2E2E2E2E2E2E2E2E2E2E2E2E2E2E2E2E2E2E2E2E2E2E2E2E2E2E2E2E2E2E2E2E2E2E2E2E2E2E2E2F5
  0
XRECORD
  5
5625E
102
{ACAD_REACTORS
330
5625D
102
}
330
5625D
100
AcDbXrecord
280
     1
102
SHADEPLOT
 70
     0
102
SHADEPLOTRESLEVEL
 70
     2
102
SHADEPLOTCUSTOMDPI
 70
   300
  0
ENDSEC
  0
EOF
