  0
SECTION
  2
HEADER
  9
$ACADVER
  1
AC1015
  9
$ACADMAINTVER
 70
    20
  9
$DWGCODEPAGE
  3
ANSI_936
  9
$INSBASE
 10
0.0
 20
0.0
 30
0.0
  9
$EXTMIN
 10
-112.8986429999393
 20
-62.28332120018093
 30
0.0
  9
$EXTMAX
 10
139.5739435375629
 20
89.07870708909856
 30
0.0
  9
$LIMMIN
 10
0.0
 20
0.0
  9
$LIMMAX
 10
420.0
 20
297.0
  9
$ORTHOMODE
 70
     0
  9
$REGENMODE
 70
     1
  9
$FILLMODE
 70
     1
  9
$QTEXTMODE
 70
     0
  9
$MIRRTEXT
 70
     1
  9
$LTSCALE
 40
1.0
  9
$ATTMODE
 70
     1
  9
$TEXTSIZE
 40
3.5
  9
$TRACEWID
 40
1.0
  9
$TEXTSTYLE
  7
simplex
  9
$CLAYER
  8
0
  9
$CELTYPE
  6
ByLayer
  9
$CECOLOR
 62
   256
  9
$CELTSCALE
 40
1.0
  9
$DISPSILH
 70
     0
  9
$DIMSCALE
 40
0.0
  9
$DIMASZ
 40
3.5
  9
$DIMEXO
 40
0.0
  9
$DIMDLI
 40
0.38
  9
$DIMRND
 40
0.0
  9
$DIMDLE
 40
0.0
  9
$DIMEXE
 40
1.5
  9
$DIMTP
 40
0.0
  9
$DIMTM
 40
0.0
  9
$DIMTXT
 40
3.5
  9
$DIMCEN
 40
0.09
  9
$DIMTSZ
 40
0.0
  9
$DIMTOL
 70
     0
  9
$DIMLIM
 70
     0
  9
$DIMTIH
 70
     0
  9
$DIMTOH
 70
     0
  9
$DIMSE1
 70
     0
  9
$DIMSE2
 70
     0
  9
$DIMTAD
 70
     1
  9
$DIMZIN
 70
     8
  9
$DIMBLK
  1

  9
$DIMASO
 70
     1
  9
$DIMSHO
 70
     1
  9
$DIMPOST
  1

  9
$DIMAPOST
  1

  9
$DIMALT
 70
     0
  9
$DIMALTD
 70
     2
  9
$DIMALTF
 40
25.4
  9
$DIMLFAC
 40
1.0
  9
$DIMTOFL
 70
     0
  9
$DIMTVP
 40
0.0
  9
$DIMTIX
 70
     0
  9
$DIMSOXD
 70
     0
  9
$DIMSAH
 70
     0
  9
$DIMBLK1
  1

  9
$DIMBLK2
  1

  9
$DIMSTYLE
  2
\M+18352\M+18373\M+1815B - ISO-25
  9
$DIMCLRD
 70
   256
  9
$DIMCLRE
 70
   256
  9
$DIMCLRT
 70
   256
  9
$DIMTFAC
 40
1.0
  9
$DIMGAP
 40
2.299999999999998
  9
$DIMJUST
 70
     0
  9
$DIMSD1
 70
     0
  9
$DIMSD2
 70
     0
  9
$DIMTOLJ
 70
     1
  9
$DIMTZIN
 70
     8
  9
$DIMALTZ
 70
     0
  9
$DIMALTTZ
 70
     0
  9
$DIMUPT
 70
     0
  9
$DIMDEC
 70
     2
  9
$DIMTDEC
 70
     2
  9
$DIMALTU
 70
     2
  9
$DIMALTTD
 70
     2
  9
$DIMTXSTY
  7
simplex
  9
$DIMAUNIT
 70
     0
  9
$DIMADEC
 70
     0
  9
$DIMALTRND
 40
0.0
  9
$DIMAZIN
 70
     0
  9
$DIMDSEP
 70
    46
  9
$DIMATFIT
 70
     3
  9
$DIMFRAC
 70
     0
  9
$DIMLDRBLK
  1

  9
$DIMLUNIT
 70
     2
  9
$DIMLWD
 70
    -1
  9
$DIMLWE
 70
    -1
  9
$DIMTMOVE
 70
     0
  9
$LUNITS
 70
     2
  9
$LUPREC
 70
     4
  9
$SKETCHINC
 40
1.0
  9
$FILLETRAD
 40
0.5
  9
$AUNITS
 70
     0
  9
$AUPREC
 70
     0
  9
$MENU
  1
.
  9
$ELEVATION
 40
0.0
  9
$PELEVATION
 40
0.0
  9
$THICKNESS
 40
0.0
  9
$LIMCHECK
 70
     0
  9
$CHAMFERA
 40
10.0
  9
$CHAMFERB
 40
10.0
  9
$CHAMFERC
 40
20.0
  9
$CHAMFERD
 40
0.0
  9
$SKPOLY
 70
     0
  9
$TDCREATE
 40
2455489.391063368
  9
$TDUCREATE
 40
2455489.057730035
  9
$TDUPDATE
 40
2458572.974031076
  9
$TDUUPDATE
 40
2458572.640697743
  9
$TDINDWG
 40
2.6504737963
  9
$TDUSRTIMER
 40
2.6504183449
  9
$USRTIMER
 70
     1
  9
$ANGBASE
 50
0.0
  9
$ANGDIR
 70
     0
  9
$PDMODE
 70
     0
  9
$PDSIZE
 40
0.0
  9
$PLINEWID
 40
0.0
  9
$SPLFRAME
 70
     0
  9
$SPLINETYPE
 70
     6
  9
$SPLINESEGS
 70
     8
  9
$HANDSEED
  5
5594A
  9
$SURFTAB1
 70
     6
  9
$SURFTAB2
 70
     6
  9
$SURFTYPE
 70
     6
  9
$SURFU
 70
     6
  9
$SURFV
 70
     6
  9
$UCSBASE
  2

  9
$UCSNAME
  2

  9
$UCSORG
 10
0.0
 20
0.0
 30
0.0
  9
$UCSXDIR
 10
1.0
 20
0.0
 30
0.0
  9
$UCSYDIR
 10
0.0
 20
1.0
 30
0.0
  9
$UCSORTHOREF
  2

  9
$UCSORTHOVIEW
 70
     0
  9
$UCSORGTOP
 10
0.0
 20
0.0
 30
0.0
  9
$UCSORGBOTTOM
 10
0.0
 20
0.0
 30
0.0
  9
$UCSORGLEFT
 10
0.0
 20
0.0
 30
0.0
  9
$UCSORGRIGHT
 10
0.0
 20
0.0
 30
0.0
  9
$UCSORGFRONT
 10
0.0
 20
0.0
 30
0.0
  9
$UCSORGBACK
 10
0.0
 20
0.0
 30
0.0
  9
$PUCSBASE
  2

  9
$PUCSNAME
  2

  9
$PUCSORG
 10
0.0
 20
0.0
 30
0.0
  9
$PUCSXDIR
 10
1.0
 20
0.0
 30
0.0
  9
$PUCSYDIR
 10
0.0
 20
1.0
 30
0.0
  9
$PUCSORTHOREF
  2

  9
$PUCSORTHOVIEW
 70
     0
  9
$PUCSORGTOP
 10
0.0
 20
0.0
 30
0.0
  9
$PUCSORGBOTTOM
 10
0.0
 20
0.0
 30
0.0
  9
$PUCSORGLEFT
 10
0.0
 20
0.0
 30
0.0
  9
$PUCSORGRIGHT
 10
0.0
 20
0.0
 30
0.0
  9
$PUCSORGFRONT
 10
0.0
 20
0.0
 30
0.0
  9
$PUCSORGBACK
 10
0.0
 20
0.0
 30
0.0
  9
$USERI1
 70
     0
  9
$USERI2
 70
     0
  9
$USERI3
 70
     0
  9
$USERI4
 70
     0
  9
$USERI5
 70
     0
  9
$USERR1
 40
0.0
  9
$USERR2
 40
0.0
  9
$USERR3
 40
0.0
  9
$USERR4
 40
0.0
  9
$USERR5
 40
0.0
  9
$WORLDVIEW
 70
     1
  9
$SHADEDGE
 70
     3
  9
$SHADEDIF
 70
    70
  9
$TILEMODE
 70
     1
  9
$MAXACTVP
 70
    64
  9
$PINSBASE
 10
0.0
 20
0.0
 30
0.0
  9
$PLIMCHECK
 70
     0
  9
$PEXTMIN
 10
26.66999878883364
 20
20.31999878883365
 30
0.0
  9
$PEXTMAX
 10
240.0299890995025
 20
182.8799890995025
 30
0.0
  9
$PLIMMIN
 10
-6.350006103515625
 20
-6.349999904632567
  9
$PLIMMAX
 10
273.0499877929688
 20
209.5499939918518
  9
$UNITMODE
 70
     0
  9
$VISRETAIN
 70
     1
  9
$PLINEGEN
 70
     0
  9
$PSLTSCALE
 70
     1
  9
$TREEDEPTH
 70
  3020
  9
$CMLSTYLE
  2
Standard
  9
$CMLJUST
 70
     0
  9
$CMLSCALE
 40
20.0
  9
$PROXYGRAPHICS
 70
     1
  9
$MEASUREMENT
 70
     1
  9
$CELWEIGHT
370
    -1
  9
$ENDCAPS
280
     0
  9
$JOINSTYLE
280
     0
  9
$LWDISPLAY
290
     0
  9
$INSUNITS
 70
     4
  9
$HYPERLINKBASE
  1

  9
$STYLESHEET
  1

  9
$XEDIT
290
     1
  9
$CEPSNTYPE
380
     0
  9
$PSTYLEMODE
290
     1
  9
$FINGERPRINTGUID
  2
{601DDA01-5B13-4A4C-8F56-1333B78D855B}
  9
$VERSIONGUID
  2
{37A90F1C-9E59-4DF7-9A57-D085BA98224C}
  9
$EXTNAMES
290
     1
  9
$PSVPSCALE
 40
0.0
  9
$OLESTARTUP
290
     0
  0
ENDSEC
  0
SECTION
  2
CLASSES
  0
CLASS
  1
ACDBDICTIONARYWDFLT
  2
AcDbDictionaryWithDefault
  3
ObjectDBX Classes
 90
        0
280
     0
281
     0
  0
CLASS
  1
ACDBPLACEHOLDER
  2
AcDbPlaceHolder
  3
ObjectDBX Classes
 90
        0
280
     0
281
     0
  0
CLASS
  1
LAYOUT
  2
AcDbLayout
  3
ObjectDBX Classes
 90
        0
280
     0
281
     0
  0
CLASS
  1
DICTIONARYVAR
  2
AcDbDictionaryVar
  3
ObjectDBX Classes
 90
        0
280
     0
281
     0
  0
CLASS
  1
TABLESTYLE
  2
AcDbTableStyle
  3
ObjectDBX Classes
 90
     2047
280
     0
281
     0
  0
CLASS
  1
SORTENTSTABLE
  2
AcDbSortentsTable
  3
ObjectDBX Classes
 90
        0
280
     0
281
     0
  0
CLASS
  1
DIMASSOC
  2
AcDbDimAssoc
  3
"AcDbDimAssoc|Product Desc:     AcDim ARX App For Dimension|Company:          Autodesk, Inc.|WEB Address:      www.autodesk.com"
 90
        0
280
     0
281
     0
  0
CLASS
  1
ACAD_EVALUATION_GRAPH
  2
AcDbEvalGraph
  3
ObjectDBX Classes
 90
    33921
280
     0
281
     0
  0
CLASS
  1
ACAECUSTOBJ
  2
AcAeEditorObj
  3
AcAeEditorObj
 90
    33792
280
     0
281
     0
  0
CLASS
  1
ACDB_DYNAMICBLOCKPURGEPREVENTER_VERSION
  2
AcDbDynamicBlockPurgePreventer
  3
ObjectDBX Classes
 90
    33921
280
     0
281
     0
  0
ENDSEC
  0
SECTION
  2
TABLES
  0
TABLE
  2
VPORT
  5
8
330
0
100
AcDbSymbolTable
 70
     5
  0
VPORT
  5
5593B
330
8
100
AcDbSymbolTableRecord
100
AcDbViewportTableRecord
  2
*Active
 70
     0
 10
0.0
 20
0.0
 11
1.0
 21
1.0
 12
0.1127178752071813
 22
2.486692582737873
 13
0.0
 23
0.0
 14
10.0
 24
10.0
 15
10.0
 25
10.0
 16
0.0
 26
0.0
 36
1.0
 17
0.0
 27
0.0
 37
0.0
 40
378.184631432777
 41
1.508350730688935
 42
50.0
 43
0.0
 44
0.0
 50
0.0
 51
0.0
 71
     0
 72
  1000
 73
     1
 74
     1
 75
     0
 76
     0
 77
     0
 78
     0
281
     0
 65
     1
110
0.0
120
0.0
130
0.0
111
1.0
121
0.0
131
0.0
112
0.0
122
1.0
132
0.0
 79
     0
146
0.0
  0
ENDTAB
  0
TABLE
  2
LTYPE
  5
5
330
0
100
AcDbSymbolTable
 70
     4
  0
LTYPE
  5
14
330
5
100
AcDbSymbolTableRecord
100
AcDbLinetypeTableRecord
  2
ByBlock
 70
     0
  3

 72
    65
 73
     0
 40
0.0
  0
LTYPE
  5
15
330
5
100
AcDbSymbolTableRecord
100
AcDbLinetypeTableRecord
  2
ByLayer
 70
     0
  3

 72
    65
 73
     0
 40
0.0
  0
LTYPE
  5
16
330
5
100
AcDbSymbolTableRecord
100
AcDbLinetypeTableRecord
  2
Continuous
 70
     0
  3
Solid line
 72
    65
 73
     0
 40
0.0
  0
LTYPE
  5
D7
330
5
100
AcDbSymbolTableRecord
100
AcDbLinetypeTableRecord
  2
HIDDEN
 70
     0
  3
Hidden __ __ __ __ __ __ __ __ __ __ __ __ __ _
 72
    65
 73
     2
 40
9.524999999999996
 49
6.349999999999997
 74
     0
 49
-3.174999999999998
 74
     0
  0
LTYPE
  5
D9
330
5
100
AcDbSymbolTableRecord
100
AcDbLinetypeTableRecord
  2
CENTER
 70
     0
  3
Center ____ _ ____ _ ____ _ ____ _ ____ _ ____
 72
    65
 73
     4
 40
50.8
 49
31.75
 74
     0
 49
-6.349999999999997
 74
     0
 49
6.349999999999997
 74
     0
 49
-6.349999999999997
 74
     0
  0
LTYPE
  5
35815
330
5
100
AcDbSymbolTableRecord
100
AcDbLinetypeTableRecord
  2
PHANTOM
 70
     0
  3
_____ _ _ _____ _ _ _____ _ _ _____
 72
    65
 73
     6
 40
0.8
 49
0.45
 74
     0
 49
-0.05
 74
     0
 49
0.1
 74
     0
 49
-0.05
 74
     0
 49
0.1
 74
     0
 49
-0.05
 74
     0
  0
ENDTAB
  0
TABLE
  2
LAYER
  5
2
102
{ACAD_XDICTIONARY
360
E2
102
}
330
0
100
AcDbSymbolTable
 70
    14
  0
LAYER
  5
10
330
2
100
AcDbSymbolTableRecord
100
AcDbLayerTableRecord
  2
0
 70
     0
 62
     7
  6
Continuous
370
    -3
390
F
  0
LAYER
  5
D1
330
2
100
AcDbSymbolTableRecord
100
AcDbLayerTableRecord
  2
1
 70
     0
 62
     4
  6
Continuous
370
    50
390
F
1001
AcAecLayerStandard
1000

1000

  0
LAYER
  5
D3
330
2
100
AcDbSymbolTableRecord
100
AcDbLayerTableRecord
  2
2
 70
     0
 62
     7
  6
Continuous
370
    25
390
F
1001
AcAecLayerStandard
1000

1000

  0
LAYER
  5
D4
330
2
100
AcDbSymbolTableRecord
100
AcDbLayerTableRecord
  2
3
 70
     0
 62
     1
  6
HIDDEN
370
    35
390
F
1001
AcAecLayerStandard
1000

1000

  0
LAYER
  5
D8
330
2
100
AcDbSymbolTableRecord
100
AcDbLayerTableRecord
  2
4
 70
     0
 62
     2
  6
CENTER
370
    25
390
F
1001
AcAecLayerStandard
1000

1000

  0
LAYER
  5
DA
330
2
100
AcDbSymbolTableRecord
100
AcDbLayerTableRecord
  2
6
 70
     0
 62
     5
  6
Continuous
370
    35
390
F
1001
AcAecLayerStandard
1000

1000

  0
LAYER
  5
DB
330
2
100
AcDbSymbolTableRecord
100
AcDbLayerTableRecord
  2
cut
 70
     0
 62
     1
  6
Continuous
370
    25
390
F
1001
AcAecLayerStandard
1000

1000

  0
LAYER
  5
DC
330
2
100
AcDbSymbolTableRecord
100
AcDbLayerTableRecord
  2
nocut
 70
     0
 62
     7
  6
Continuous
370
    25
390
F
1001
AcAecLayerStandard
1000

1000

  0
LAYER
  5
DD
330
2
100
AcDbSymbolTableRecord
100
AcDbLayerTableRecord
  2
sk1
 70
     0
 62
     4
  6
Continuous
370
    50
390
F
1001
AcAecLayerStandard
1000

1000

  0
LAYER
  5
DE
330
2
100
AcDbSymbolTableRecord
100
AcDbLayerTableRecord
  2
sk2
 70
     0
 62
     7
  6
Continuous
370
    25
390
F
1001
AcAecLayerStandard
1000

1000

  0
LAYER
  5
DF
330
2
100
AcDbSymbolTableRecord
100
AcDbLayerTableRecord
  2
sk3
 70
     0
 62
     1
  6
HIDDEN
370
    35
390
F
1001
AcAecLayerStandard
1000

1000

  0
LAYER
  5
E0
330
2
100
AcDbSymbolTableRecord
100
AcDbLayerTableRecord
  2
sk4
 70
     0
 62
     2
  6
CENTER
370
    25
390
F
1001
AcAecLayerStandard
1000

1000

  0
LAYER
  5
E1
330
2
100
AcDbSymbolTableRecord
100
AcDbLayerTableRecord
  2
sk6
 70
     0
 62
     5
  6
Continuous
370
    35
390
F
1001
AcAecLayerStandard
1000

1000

  0
LAYER
  5
31B6
330
2
100
AcDbSymbolTableRecord
100
AcDbLayerTableRecord
  2
Defpoints
 70
     0
 62
     7
  6
Continuous
290
     0
370
    -3
390
F
  0
ENDTAB
  0
TABLE
  2
STYLE
  5
3
330
0
100
AcDbSymbolTable
 70
    12
  0
STYLE
  5
11
330
3
100
AcDbSymbolTableRecord
100
AcDbTextStyleTableRecord
  2
Standard
 70
     0
 40
0.0
 41
1.0
 50
0.0
 71
     0
 42
2.5
  3
txt.shx
  4
@extfont2.shx
  0
STYLE
  5
D6
330
3
100
AcDbSymbolTableRecord
100
AcDbTextStyleTableRecord
  2

 70
     1
 40
0.0
 41
1.0
 50
0.0
 71
     0
 42
2.5
  3
ltypeshp.shx
  4

  0
STYLE
  5
24A
330
3
100
AcDbSymbolTableRecord
100
AcDbTextStyleTableRecord
  2
simplex
 70
     0
 40
3.5
 41
1.0
 50
0.0
 71
     0
 42
3.5
  3
txt.shx
  4

  0
STYLE
  5
69E
330
3
100
AcDbSymbolTableRecord
100
AcDbTextStyleTableRecord
  2
MX_NOTE_STANDARD
 70
     0
 40
0.0
 41
1.0
 50
0.0
 71
     0
 42
4.2
  3
txt.shx
  4
extfont.shx
  0
STYLE
  5
3524
330
3
100
AcDbSymbolTableRecord
100
AcDbTextStyleTableRecord
  2
TEXTSTYLE_2
 70
     0
 40
0.0
 41
0.775
 50
0.0
 71
     0
 42
0.2
  3
gdt
  4

  0
STYLE
  5
3525
330
3
100
AcDbSymbolTableRecord
100
AcDbTextStyleTableRecord
  2
TEXTSTYLE_3
 70
     0
 40
0.0
 41
0.75
 50
0.0
 71
     0
 42
0.2
  3
txt
  4

  0
STYLE
  5
3526
330
3
100
AcDbSymbolTableRecord
100
AcDbTextStyleTableRecord
  2
TEXTSTYLE_13
 70
     0
 40
0.0
 41
1.0
 50
0.0
 71
     0
 42
0.2
  3
txt
  4

  0
STYLE
  5
519A
330
3
100
AcDbSymbolTableRecord
100
AcDbTextStyleTableRecord
  2
TEXTSTYLE_14
 70
     0
 40
0.0
 41
1.0
 50
0.0
 71
     0
 42
0.2
  3
txt
  4

  0
STYLE
  5
6F72
330
3
100
AcDbSymbolTableRecord
100
AcDbTextStyleTableRecord
  2
TEXTSTYLE_4
 70
     0
 40
0.0
 41
0.75
 50
0.0
 71
     0
 42
0.2
  3
txt
  4

  0
STYLE
  5
6F73
330
3
100
AcDbSymbolTableRecord
100
AcDbTextStyleTableRecord
  2
TEXTSTYLE_17
 70
     0
 40
0.0
 41
1.0
 50
0.0
 71
     0
 42
0.2
  3
txt
  4

  0
STYLE
  5
FE12
330
3
100
AcDbSymbolTableRecord
100
AcDbTextStyleTableRecord
  2
TEXTSTYLE_12
 70
     0
 40
0.0
 41
1.0
 50
0.0
 71
     0
 42
0.2
  3
txt
  4

  0
STYLE
  5
3AAB8
330
3
100
AcDbSymbolTableRecord
100
AcDbTextStyleTableRecord
  2
TEXTSTYLE_20
 70
     0
 40
0.0
 41
0.6
 50
0.0
 71
     0
 42
0.2
  3
txt
  4

  0
ENDTAB
  0
TABLE
  2
VIEW
  5
6
330
0
100
AcDbSymbolTable
 70
     0
  0
ENDTAB
  0
TABLE
  2
UCS
  5
7
330
0
100
AcDbSymbolTable
 70
     0
  0
ENDTAB
  0
TABLE
  2
APPID
  5
9
330
0
100
AcDbSymbolTable
 70
    11
  0
APPID
  5
12
330
9
100
AcDbSymbolTableRecord
100
AcDbRegAppTableRecord
  2
ACAD
 70
     0
  0
APPID
  5
D2
330
9
100
AcDbSymbolTableRecord
100
AcDbRegAppTableRecord
  2
AcAecLayerStandard
 70
     0
  0
APPID
  5
E6
330
9
100
AcDbSymbolTableRecord
100
AcDbRegAppTableRecord
  2
ACAD_DSTYLE_DIMTEXT_FILL
 70
     0
  0
APPID
  5
4C84
330
9
100
AcDbSymbolTableRecord
100
AcDbRegAppTableRecord
  2
ACAD_EXEMPT_FROM_CAD_STANDARDS
 70
     0
  0
APPID
  5
3493E
330
9
100
AcDbSymbolTableRecord
100
AcDbRegAppTableRecord
  2
DCO15
 70
     0
  0
APPID
  5
3BAB0
330
9
100
AcDbSymbolTableRecord
100
AcDbRegAppTableRecord
  2
ACAD_DSTYLE_DIMEXT_ENABLED
 70
     0
  0
APPID
  5
3BAB1
330
9
100
AcDbSymbolTableRecord
100
AcDbRegAppTableRecord
  2
ACAD_DSTYLE_DIMEXT_LENGTH
 70
     0
  0
APPID
  5
3BEB4
330
9
100
AcDbSymbolTableRecord
100
AcDbRegAppTableRecord
  2
ACAUTHENVIRON
 70
     0
  0
APPID
  5
3BEB7
330
9
100
AcDbSymbolTableRecord
100
AcDbRegAppTableRecord
  2
AcDbDynamicBlockTrueName
 70
     0
  0
APPID
  5
3BEB8
330
9
100
AcDbSymbolTableRecord
100
AcDbRegAppTableRecord
  2
AcDbDynamicBlockGUID
 70
     0
  0
APPID
  5
3BEBA
330
9
100
AcDbSymbolTableRecord
100
AcDbRegAppTableRecord
  2
AcDbBlockRepETag
 70
     0
  0
ENDTAB
  0
TABLE
  2
DIMSTYLE
  5
A
330
0
100
AcDbSymbolTable
 70
    11
100
AcDbDimStyleTable
 71
     5
340
1BF
340
27
340
352A
340
3527
340
69F
  0
DIMSTYLE
105
27
330
A
100
AcDbSymbolTableRecord
100
AcDbDimStyleTableRecord
  2
ISO-25
 70
     0
 41
2.5
 42
0.625
 43
3.75
 44
1.25
 73
     0
 74
     0
 77
     1
 78
     8
140
2.5
141
2.5
143
0.03937007874016
147
0.625
171
     3
172
     1
271
     2
272
     2
274
     3
278
    44
283
     0
284
     8
340
11
  0
DIMSTYLE
105
1BF
102
{ACAD_REACTORS
330
55592
330
55593
330
55596
330
55597
330
555E9
330
555F5
330
55640
102
}
330
A
100
AcDbSymbolTableRecord
100
AcDbDimStyleTableRecord
  2
\M+18352\M+18373\M+1815B - ISO-25
 70
     0
 40
0.0
 41
3.5
 42
0.0
 44
1.5
 73
     0
 74
     0
 77
     1
 78
     8
140
3.5
147
2.299999999999998
176
   256
177
   256
178
   256
271
     2
272
     2
284
     8
340
24A
371
    -1
372
    -1
  0
DIMSTYLE
105
69F
330
A
100
AcDbSymbolTableRecord
100
AcDbDimStyleTableRecord
  2
MXDIMSTYLE
 70
     0
 41
2.5
 42
0.5
 43
3.75
 44
1.5
 73
     0
 74
     0
 77
     1
 78
     8
140
4.2
141
2.5
143
0.03937
147
1.0
171
     4
172
     1
173
     1
271
     2
272
     2
274
     4
283
     0
288
     1
340
69E
341
697
343
697
344
697
  0
DIMSTYLE
105
3527
330
A
100
AcDbSymbolTableRecord
100
AcDbDimStyleTableRecord
  2
STANDARD
 70
     0
 41
3.0
 47
0.001
 48
0.001
 71
     1
 73
     0
 74
     0
 77
     1
 78
     8
140
4.0
271
     3
272
     3
284
     8
340
11
341
34B1
342
34B1
343
34B1
344
34B1
  0
DIMSTYLE
105
3528
330
A
100
AcDbSymbolTableRecord
100
AcDbDimStyleTableRecord
  2
DIMSTYLE_1
 70
     0
 41
3.0
 73
     0
 74
     0
 77
     1
 78
     8
140
4.0
271
     3
272
     3
284
     8
340
11
341
34B1
342
34B1
343
34B1
344
34B1
  0
DIMSTYLE
105
3529
330
A
100
AcDbSymbolTableRecord
100
AcDbDimStyleTableRecord
  2
DIMSTYLE_2
 70
     0
 41
3.0
 47
0.001
 48
0.001
 73
     0
 74
     0
 77
     1
 78
     8
140
4.0
271
     3
272
     3
284
     8
340
11
341
34B1
342
34B1
343
34B1
344
34B1
  0
DIMSTYLE
105
352A
330
A
100
AcDbSymbolTableRecord
100
AcDbDimStyleTableRecord
  2
DIMSTYLE_3
 70
     0
 41
3.0
 47
-0.1
 48
0.3
 71
     1
 73
     0
 74
     0
 77
     1
 78
     8
140
4.0
146
0.5
271
     3
272
     3
284
     8
340
11
341
34B1
342
34B1
343
34B1
344
34B1
  0
DIMSTYLE
105
352B
330
A
100
AcDbSymbolTableRecord
100
AcDbDimStyleTableRecord
  2
DIMSTYLE_4
 70
     0
 41
3.0
 47
0.1
 48
0.1
 71
     1
 73
     0
 74
     0
 77
     1
 78
     8
140
4.0
271
     3
272
     3
284
     8
340
11
341
34B1
342
34B1
343
34B1
344
34B1
  0
DIMSTYLE
105
27245
330
A
100
AcDbSymbolTableRecord
100
AcDbDimStyleTableRecord
  2
DIMSTYLE_5
 70
     0
 41
3.0
 47
0.001
 48
0.001
 73
     0
 74
     0
 77
     1
 78
     8
140
4.0
271
     3
272
     3
284
     8
340
11
341
34B1
342
34B1
343
34B1
344
34B1
  0
DIMSTYLE
105
3AAB9
330
A
100
AcDbSymbolTableRecord
100
AcDbDimStyleTableRecord
  2
DIMSTYLE_6
 70
     0
 41
3.0
 42
0.0
 44
1.0
 47
0.05
 48
0.05
 71
     1
 73
     0
 74
     0
 77
     1
 78
     8
140
4.0
147
1.0
271
     3
272
     3
284
     8
340
11
341
34B1
342
34B1
343
34B1
344
34B1
  0
DIMSTYLE
105
532EA
330
A
100
AcDbSymbolTableRecord
100
AcDbDimStyleTableRecord
  2
NEW-DIMSTYLE
 70
     0
 40
0.0
 41
4.57
 42
0.0
 44
5.0
 73
     0
 74
     0
 77
     1
 78
     8
140
4.57
147
2.299999999999998
271
     2
340
24A
  0
ENDTAB
  0
TABLE
  2
BLOCK_RECORD
  5
1
330
0
100
AcDbSymbolTable
 70
    96
  0
BLOCK_RECORD
  5
1F
102
{ACAD_XDICTIONARY
360
31EE
102
}
330
1
100
AcDbSymbolTableRecord
100
AcDbBlockTableRecord
  2
*Model_Space
340
22
  0
BLOCK_RECORD
  5
50
330
1
100
AcDbSymbolTableRecord
100
AcDbBlockTableRecord
  2
*Paper_Space
340
51
  0
BLOCK_RECORD
  5
55
330
1
100
AcDbSymbolTableRecord
100
AcDbBlockTableRecord
  2
*Paper_Space0
340
56
  0
BLOCK_RECORD
  5
680
102
{ACAD_XDICTIONARY
360
3BEB2
102
}
330
1
100
AcDbSymbolTableRecord
100
AcDbBlockTableRecord
  2
zero block
340
0
102
{BLKREFS
331
68C
102
}
1001
ACAD
1000
DesignCenter Data
1002
{
1070
     1
1070
     4
1002
}
1001
AcDbDynamicBlockGUID
1000
{C2E8894D-A8DA-456D-ABB6-198B00672C1A}
1001
AcDbBlockRepETag
1070
     1
1071
        7
  0
BLOCK_RECORD
  5
697
330
1
100
AcDbSymbolTableRecord
100
AcDbBlockTableRecord
  2
_OPEN30
340
0
  0
BLOCK_RECORD
  5
34B1
330
1
100
AcDbSymbolTableRecord
100
AcDbBlockTableRecord
  2
_OPEN
340
0
  0
BLOCK_RECORD
  5
50E6F
330
1
100
AcDbSymbolTableRecord
100
AcDbBlockTableRecord
  2
_None
340
0
  0
BLOCK_RECORD
  5
542BC
330
1
100
AcDbSymbolTableRecord
100
AcDbBlockTableRecord
  2
*D10
340
0
  0
BLOCK_RECORD
  5
557E3
330
1
100
AcDbSymbolTableRecord
100
AcDbBlockTableRecord
  2
*D83
340
0
  0
BLOCK_RECORD
  5
557EF
330
1
100
AcDbSymbolTableRecord
100
AcDbBlockTableRecord
  2
*D84
340
0
  0
BLOCK_RECORD
  5
557FC
330
1
100
AcDbSymbolTableRecord
100
AcDbBlockTableRecord
  2
*D85
340
0
  0
BLOCK_RECORD
  5
55808
330
1
100
AcDbSymbolTableRecord
100
AcDbBlockTableRecord
  2
*D86
340
0
  0
BLOCK_RECORD
  5
55815
330
1
100
AcDbSymbolTableRecord
100
AcDbBlockTableRecord
  2
*D87
340
0
  0
BLOCK_RECORD
  5
55863
330
1
100
AcDbSymbolTableRecord
100
AcDbBlockTableRecord
  2
*D92
340
0
  0
BLOCK_RECORD
  5
55895
330
1
100
AcDbSymbolTableRecord
100
AcDbBlockTableRecord
  2
*D93
340
0
  0
ENDTAB
  0
ENDSEC
  0
SECTION
  2
BLOCKS
  0
BLOCK
  5
20
330
1F
100
AcDbEntity
  8
0
100
AcDbBlockBegin
  2
*Model_Space
 70
     0
 10
0.0
 20
0.0
 30
0.0
  3
*Model_Space
  1

  0
ENDBLK
  5
21
330
1F
100
AcDbEntity
  8
0
100
AcDbBlockEnd
  0
BLOCK
  5
52
330
50
100
AcDbEntity
 67
     1
  8
0
100
AcDbBlockBegin
  2
*Paper_Space
 70
     0
 10
0.0
 20
0.0
 30
0.0
  3
*Paper_Space
  1

  0
ENDBLK
  5
53
330
50
100
AcDbEntity
 67
     1
  8
0
100
AcDbBlockEnd
  0
BLOCK
  5
57
330
55
100
AcDbEntity
 67
     1
  8
0
100
AcDbBlockBegin
  2
*Paper_Space0
 70
     0
 10
0.0
 20
0.0
 30
0.0
  3
*Paper_Space0
  1

  0
VIEWPORT
  5
71
102
{ACAD_XDICTIONARY
360
55946
102
}
330
55
100
AcDbEntity
 67
     1
  8
0
100
AcDbViewport
 10
150.1652135264906
 20
101.599997546291
 30
0.0
 40
339.1973820494347
 41
164.5360435314421
 68
     0
 69
     0
 12
150.1652135264906
 22
101.599997546291
 13
0.0
 23
0.0
 14
10.0
 24
10.0
 15
10.0
 25
10.0
 16
0.0
 26
0.0
 36
1.0
 17
0.0
 27
0.0
 37
0.0
 42
50.0
 43
0.0
 44
0.0
 45
164.5360435314421
 50
0.0
 51
0.0
 72
  1000
 90
    32864
  1

281
     0
 71
     1
 74
     0
110
0.0
120
0.0
130
0.0
111
1.0
121
0.0
131
0.0
112
0.0
122
1.0
132
0.0
 79
     0
146
0.0
  0
VIEWPORT
  5
73
102
{ACAD_XDICTIONARY
360
55948
102
}
330
55
100
AcDbEntity
 67
     1
  8
0
100
AcDbViewport
 10
133.3499939441681
 20
101.5999939441681
 30
0.0
 40
213.3599903106689
 41
162.5599903106689
 68
     0
 69
     0
 12
210.0
 22
148.5
 13
0.0
 23
0.0
 14
10.0
 24
10.0
 15
10.0
 25
10.0
 16
0.0
 26
0.0
 36
1.0
 17
0.0
 27
0.0
 37
0.0
 42
50.0
 43
0.0
 44
0.0
 45
324.0677920111345
 50
0.0
 51
0.0
 72
   100
 90
    32864
  1

281
     0
 71
     1
 74
     0
110
0.0
120
0.0
130
0.0
111
1.0
121
0.0
131
0.0
112
0.0
122
1.0
132
0.0
 79
     0
146
0.0
  0
ENDBLK
  5
58
330
55
100
AcDbEntity
 67
     1
  8
0
100
AcDbBlockEnd
  0
BLOCK
  5
68A
330
680
100
AcDbEntity
  8
0
100
AcDbBlockBegin
  2
zero block
 70
     0
 10
0.0
 20
0.0
 30
0.0
  3
zero block
  1

  0
HATCH
  5
3BEAB
330
680
100
AcDbEntity
  8
0
 62
     7
100
AcDbHatch
 10
0.0
 20
0.0
 30
0.0
210
0.0
220
0.0
230
1.0
  2
SOLID
 70
     1
 71
     0
 91
        2
 92
        7
 72
     1
 73
     1
 93
        3
 10
0.0
 20
0.9999999999999875
 42
0.4142135623730915
 10
-1.0
 20
0.0
 42
0.0
 10
0.0
 20
0.0
 42
0.0
 97
        0
 92
        7
 72
     1
 73
     1
 93
        3
 10
1.000000000000007
 20
0.0
 42
0.0
 10
0.0
 20
0.0
 42
0.0
 10
0.0
 20
-1.0
 42
0.4142135623730974
 97
        0
 75
     0
 76
     1
 47
0.0090601366782909
 98
        2
 10
-0.380591363650975
 20
0.4885804701532896
 10
0.4350764810977559
 20
-0.4536738423704725
1001
AcDbBlockRepETag
1070
     1
1071
        0
1005
3BEAB
  0
LINE
  5
3BEAC
330
680
100
AcDbEntity
  8
0
 62
     7
 48
0.2
100
AcDbLine
 10
-1.0
 20
0.0
 30
0.0
 11
1.000000000000007
 21
0.0
 31
0.0
1001
AcDbBlockRepETag
1070
     1
1071
        1
1005
3BEAC
  0
LINE
  5
3BEAD
330
680
100
AcDbEntity
  8
0
 62
     7
 48
0.2
100
AcDbLine
 10
0.0
 20
-1.0
 30
0.0
 11
0.0
 21
0.9999999999999875
 31
0.0
1001
AcDbBlockRepETag
1070
     1
1071
        2
1005
3BEAD
  0
ARC
  5
3BEAE
330
680
100
AcDbEntity
  8
0
 62
     7
 48
0.2
100
AcDbCircle
 10
0.0
 20
0.0
 30
0.0
 40
1.0
100
AcDbArc
 50
270.0
 51
0.0
1001
AcDbBlockRepETag
1070
     1
1071
        3
1005
3BEAE
  0
ARC
  5
3BEAF
330
680
100
AcDbEntity
  8
0
 62
     7
 48
0.2
100
AcDbCircle
 10
0.0
 20
0.0
 30
0.0
 40
1.0
100
AcDbArc
 50
0.0
 51
90.0
1001
AcDbBlockRepETag
1070
     1
1071
        4
1005
3BEAF
  0
ARC
  5
3BEB0
330
680
100
AcDbEntity
  8
0
 62
     7
 48
0.2
100
AcDbCircle
 10
0.0
 20
0.0
 30
0.0
 40
1.0
100
AcDbArc
 50
180.0
 51
270.0
1001
AcDbBlockRepETag
1070
     1
1071
        5
1005
3BEB0
  0
ARC
  5
3BEB1
330
680
100
AcDbEntity
  8
0
 62
     7
 48
0.2
100
AcDbCircle
 10
0.0
 20
0.0
 30
0.0
 40
1.0
100
AcDbArc
 50
90.0
 51
180.0
1001
AcDbBlockRepETag
1070
     1
1071
        6
1005
3BEB1
  0
ENDBLK
  5
68B
330
680
100
AcDbEntity
  8
0
100
AcDbBlockEnd
  0
BLOCK
  5
698
330
697
100
AcDbEntity
  8
0
  6
ByBlock
 62
     0
370
    -2
100
AcDbBlockBegin
  2
_OPEN30
 70
     2
 10
0.0
 20
0.0
 30
0.0
  3
_OPEN30
  1

  0
LINE
  5
699
330
697
100
AcDbEntity
  8
0
  6
ByBlock
 62
     0
370
    -2
100
AcDbLine
 10
-1.0
 20
0.267949
 30
0.0
 11
0.0
 21
0.0
 31
0.0
  0
LINE
  5
69A
330
697
100
AcDbEntity
  8
0
  6
ByBlock
 62
     0
370
    -2
100
AcDbLine
 10
0.0
 20
0.0
 30
0.0
 11
-1.0
 21
-0.267949
 31
0.0
  0
LINE
  5
69B
330
697
100
AcDbEntity
  8
0
  6
ByBlock
 62
     0
370
    -2
100
AcDbLine
 10
0.0
 20
0.0
 30
0.0
 11
-1.0
 21
0.0
 31
0.0
  0
ENDBLK
  5
69C
330
697
100
AcDbEntity
  8
0
  6
ByBlock
 62
     0
370
    -2
100
AcDbBlockEnd
  0
BLOCK
  5
34B2
330
34B1
100
AcDbEntity
  8
0
100
AcDbBlockBegin
  2
_OPEN
 70
     0
 10
0.0
 20
0.0
 30
0.0
  3
_OPEN
  1

  0
LINE
  5
34B3
330
34B1
100
AcDbEntity
  8
0
  6
ByBlock
 62
     0
100
AcDbLine
 10
0.0
 20
0.0
 30
0.0
 11
-1.0
 21
0.1766666667
 31
0.0
  0
LINE
  5
34B4
330
34B1
100
AcDbEntity
  8
0
  6
ByBlock
 62
     0
100
AcDbLine
 10
-1.0
 20
-0.1766666667
 30
0.0
 11
0.0
 21
0.0
 31
0.0
  0
LINE
  5
34B5
330
34B1
100
AcDbEntity
  8
0
  6
ByBlock
 62
     0
100
AcDbLine
 10
-1.0
 20
0.0
 30
0.0
 11
0.0
 21
0.0
 31
0.0
  0
ENDBLK
  5
34B6
330
34B1
100
AcDbEntity
  8
0
  6
ByBlock
 62
     0
100
AcDbBlockEnd
  0
BLOCK
  5
50E70
330
50E6F
100
AcDbEntity
  8
0
100
AcDbBlockBegin
  2
_None
 70
     0
 10
0.0
 20
0.0
 30
0.0
  3
_None
  1

  0
ENDBLK
  5
50E71
330
50E6F
100
AcDbEntity
  8
0
100
AcDbBlockEnd
  0
BLOCK
  5
542C7
330
542BC
100
AcDbEntity
  8
0
100
AcDbBlockBegin
  2
*D10
 70
     1
 10
0.0
 20
0.0
 30
0.0
  3
*D10
  1

  0
LINE
  5
5525D
330
542BC
100
AcDbEntity
  8
2
100
AcDbLine
 10
101.5999999999999
 20
7.027038349460411
 30
0.0
 11
101.5999999999999
 21
30.64144139851817
 31
0.0
  0
LINE
  5
5525E
330
542BC
100
AcDbEntity
  8
2
100
AcDbLine
 10
77.60000000000002
 20
9.300031000000032
 30
0.0
 11
77.60000000000002
 21
30.64144139851817
 31
0.0
  0
LINE
  5
5525F
330
542BC
100
AcDbEntity
  8
2
100
AcDbLine
 10
98.09999999999991
 20
29.14144139851817
 30
0.0
 11
81.10000000000002
 21
29.14144139851817
 31
0.0
  0
LINE
  5
55260
330
542BC
100
AcDbEntity
  8
2
100
AcDbLine
 10
77.60000000000002
 20
29.14144139851817
 30
0.0
 11
41.50000000000003
 21
29.14144139851817
 31
0.0
  0
SOLID
  5
55261
330
542BC
100
AcDbEntity
  8
2
100
AcDbTrace
 10
98.09999999999991
 20
29.7247747318515
 30
0.0
 11
98.09999999999991
 21
28.55810806518484
 31
0.0
 12
101.5999999999999
 22
29.14144139851817
 32
0.0
 13
101.5999999999999
 23
29.14144139851817
 33
0.0
  0
SOLID
  5
55262
330
542BC
100
AcDbEntity
  8
2
100
AcDbTrace
 10
81.10000000000002
 20
29.7247747318515
 30
0.0
 11
81.10000000000002
 21
28.55810806518484
 31
0.0
 12
77.60000000000002
 22
29.14144139851817
 32
0.0
 13
77.60000000000002
 23
29.14144139851817
 33
0.0
  0
MTEXT
  5
55263
330
542BC
100
AcDbEntity
  8
2
100
AcDbMText
 10
57.80000000000002
 20
33.19144139851817
 30
0.0
 40
3.5
 41
0.0
 71
     5
 72
     1
  1
\A1;24 [.945"]
  7
simplex
 73
     1
 44
1.0
1001
ACAD
1000
MTEXTBEGIN
1070
    73
1070
     1
1070
    44
1040
1.0
1070
    74
1070
     0
1000
MTEXTEND
  0
POINT
  5
55264
330
542BC
100
AcDbEntity
  8
Defpoints
 62
     0
100
AcDbPoint
 10
101.5999999999999
 20
7.027038349460411
 30
0.0
  0
POINT
  5
55265
330
542BC
100
AcDbEntity
  8
Defpoints
 62
     0
100
AcDbPoint
 10
77.60000000000002
 20
9.300031000000032
 30
0.0
  0
POINT
  5
55266
330
542BC
100
AcDbEntity
  8
Defpoints
 62
     0
100
AcDbPoint
 10
77.60000000000002
 20
29.14144139851817
 30
0.0
  0
ENDBLK
  5
542C8
330
542BC
100
AcDbEntity
  8
0
100
AcDbBlockEnd
  0
BLOCK
  5
557ED
330
557E3
100
AcDbEntity
  8
0
100
AcDbBlockBegin
  2
*D83
 70
     1
 10
0.0
 20
0.0
 30
0.0
  3
*D83
  1

  0
LINE
  5
558F5
330
557E3
100
AcDbEntity
  8
2
100
AcDbLine
 10
101.5999999999999
 20
30.39062183468946
 30
0.0
 11
101.5999999999999
 21
43.76990414400578
 31
0.0
  0
LINE
  5
558F6
330
557E3
100
AcDbEntity
  8
2
100
AcDbLine
 10
0.0
 20
9.515888750352843
 30
0.0
 11
0.0000000000000021
 21
43.76990414400578
 31
0.0
  0
LINE
  5
558F7
330
557E3
100
AcDbEntity
  8
2
100
AcDbLine
 10
98.09999999999991
 20
42.26990414400577
 30
0.0
 11
3.500000000000002
 21
42.26990414400577
 31
0.0
  0
SOLID
  5
558F8
330
557E3
100
AcDbEntity
  8
2
100
AcDbTrace
 10
98.09999999999991
 20
42.85323747733911
 30
0.0
 11
98.09999999999991
 21
41.68657081067244
 31
0.0
 12
101.5999999999999
 22
42.26990414400577
 32
0.0
 13
101.5999999999999
 23
42.26990414400577
 33
0.0
  0
SOLID
  5
558F9
330
557E3
100
AcDbEntity
  8
2
100
AcDbTrace
 10
3.500000000000002
 20
42.85323747733911
 30
0.0
 11
3.500000000000002
 21
41.68657081067244
 31
0.0
 12
0.000000000000002
 22
42.26990414400577
 32
0.0
 13
0.000000000000002
 23
42.26990414400577
 33
0.0
  0
MTEXT
  5
558FA
330
557E3
100
AcDbEntity
  8
2
100
AcDbMText
 10
50.79999999999995
 20
46.31990414400577
 30
0.0
 40
3.5
 41
0.0
 71
     5
 72
     1
  1
\A1;101.6 [4.000"]
  7
simplex
 73
     1
 44
1.0
1001
ACAD
1000
MTEXTBEGIN
1070
    73
1070
     1
1070
    44
1040
1.0
1070
    74
1070
     0
1000
MTEXTEND
  0
POINT
  5
558FB
330
557E3
100
AcDbEntity
  8
Defpoints
 62
     0
100
AcDbPoint
 10
101.5999999999999
 20
30.39062183468946
 30
0.0
  0
POINT
  5
558FC
330
557E3
100
AcDbEntity
  8
Defpoints
 62
     0
100
AcDbPoint
 10
0.0
 20
9.515888750352843
 30
0.0
  0
POINT
  5
558FD
330
557E3
100
AcDbEntity
  8
Defpoints
 62
     0
100
AcDbPoint
 10
0.000000000000002
 20
42.26990414400577
 30
0.0
  0
ENDBLK
  5
557EE
330
557E3
100
AcDbEntity
  8
0
100
AcDbBlockEnd
  0
BLOCK
  5
557FA
330
557EF
100
AcDbEntity
  8
0
100
AcDbBlockBegin
  2
*D84
 70
     1
 10
0.0
 20
0.0
 30
0.0
  3
*D84
  1

  0
LINE
  5
55908
330
557EF
100
AcDbEntity
  8
2
100
AcDbLine
 10
60.82528429688818
 20
-9.299968866847535
 30
0.0
 11
54.81770868978628
 21
-9.299968866847533
 31
0.0
  0
LINE
  5
55909
330
557EF
100
AcDbEntity
  8
2
100
AcDbLine
 10
61.01506250750526
 20
9.300031133152486
 30
0.0
 11
54.81770868978628
 21
9.300031133152488
 31
0.0
  0
LINE
  5
5590A
330
557EF
100
AcDbEntity
  8
2
100
AcDbLine
 10
56.31770868978628
 20
5.800031133152488
 30
0.0
 11
56.31770868978628
 21
-5.799968866847533
 31
0.0
  0
LINE
  5
5590B
330
557EF
100
AcDbEntity
  8
2
100
AcDbLine
 10
56.31770868978628
 20
-9.299968866847533
 30
0.0
 11
56.31770868978627
 21
-55.89996886684758
 31
0.0
  0
SOLID
  5
5590C
330
557EF
100
AcDbEntity
  8
2
100
AcDbTrace
 10
55.73437535645295
 20
5.800031133152488
 30
0.0
 11
56.90104202311962
 21
5.800031133152488
 31
0.0
 12
56.31770868978628
 22
9.300031133152488
 32
0.0
 13
56.31770868978628
 23
9.300031133152488
 33
0.0
  0
SOLID
  5
5590D
330
557EF
100
AcDbEntity
  8
2
100
AcDbTrace
 10
55.73437535645295
 20
-5.799968866847533
 30
0.0
 11
56.90104202311962
 21
-5.799968866847533
 31
0.0
 12
56.31770868978628
 22
-9.299968866847533
 32
0.0
 13
56.31770868978628
 23
-9.299968866847533
 33
0.0
  0
MTEXT
  5
5590E
330
557EF
100
AcDbEntity
  8
2
100
AcDbMText
 10
52.26770868978629
 20
-34.34996886684757
 30
0.0
 40
3.5
 41
0.0
 71
     5
 72
     1
  1
\A1;%%c18.6 [%%C.732"]
  7
simplex
 11
0.0000000000000001
 21
1.0
 31
0.0
 73
     1
 44
1.0
1001
ACAD
1000
MTEXTBEGIN
1070
    73
1070
     1
1070
    44
1040
1.0
1070
    74
1070
     0
1000
MTEXTEND
  0
POINT
  5
5590F
330
557EF
100
AcDbEntity
  8
Defpoints
 62
     0
100
AcDbPoint
 10
60.82528429688818
 20
-9.299968866847535
 30
0.0
  0
POINT
  5
55910
330
557EF
100
AcDbEntity
  8
Defpoints
 62
     0
100
AcDbPoint
 10
61.01506250750526
 20
9.300031133152486
 30
0.0
  0
POINT
  5
55911
330
557EF
100
AcDbEntity
  8
Defpoints
 62
     0
100
AcDbPoint
 10
56.31770868978628
 20
9.300031133152488
 30
0.0
  0
ENDBLK
  5
557FB
330
557EF
100
AcDbEntity
  8
0
100
AcDbBlockEnd
  0
BLOCK
  5
55806
330
557FC
100
AcDbEntity
  8
0
100
AcDbBlockBegin
  2
*D85
 70
     1
 10
0.0
 20
0.0
 30
0.0
  3
*D85
  1

  0
LINE
  5
55912
330
557FC
100
AcDbEntity
  8
sk2
100
AcDbLine
 10
-79.375
 20
8.325012133152455
 30
0.0
 11
-79.375
 21
56.42108818086788
 31
0.0
  0
LINE
  5
55913
330
557FC
100
AcDbEntity
  8
sk2
100
AcDbLine
 10
101.5999999999999
 20
7.027038482612852
 30
0.0
 11
101.5999999999999
 21
56.42108818086788
 31
0.0
  0
LINE
  5
55914
330
557FC
100
AcDbEntity
  8
sk2
100
AcDbLine
 10
-75.875
 20
54.92108818086788
 30
0.0
 11
98.09999999999991
 21
54.92108818086788
 31
0.0
  0
SOLID
  5
55915
330
557FC
100
AcDbEntity
  8
sk2
100
AcDbTrace
 10
-75.875
 20
55.50442151420122
 30
0.0
 11
-75.875
 21
54.33775484753454
 31
0.0
 12
-79.375
 22
54.92108818086788
 32
0.0
 13
-79.375
 23
54.92108818086788
 33
0.0
  0
SOLID
  5
55916
330
557FC
100
AcDbEntity
  8
sk2
100
AcDbTrace
 10
98.09999999999991
 20
55.50442151420122
 30
0.0
 11
98.09999999999991
 21
54.33775484753454
 31
0.0
 12
101.5999999999999
 22
54.92108818086788
 32
0.0
 13
101.5999999999999
 23
54.92108818086788
 33
0.0
  0
MTEXT
  5
55917
330
557FC
100
AcDbEntity
  8
sk2
100
AcDbMText
 10
11.112503
 20
58.97108818086788
 30
0.0
 40
3.5
 41
0.0
 71
     5
 72
     1
  1
\A1;180.975 [7.125"]
  7
simplex
 73
     1
 44
0.892857
1001
ACAD
1000
MTEXTBEGIN
1070
    73
1070
     1
1070
    44
1040
0.892857
1070
    74
1070
     0
1000
MTEXTEND
  0
POINT
  5
55918
330
557FC
100
AcDbEntity
  8
Defpoints
 62
     0
100
AcDbPoint
 10
-79.375
 20
8.325012133152455
 30
0.0
  0
POINT
  5
55919
330
557FC
100
AcDbEntity
  8
Defpoints
 62
     0
100
AcDbPoint
 10
101.5999999999999
 20
7.027038482612852
 30
0.0
  0
POINT
  5
5591A
330
557FC
100
AcDbEntity
  8
Defpoints
 62
     0
100
AcDbPoint
 10
101.5999999999999
 20
54.92108818086788
 30
0.0
  0
ENDBLK
  5
55807
330
557FC
100
AcDbEntity
  8
0
100
AcDbBlockEnd
  0
BLOCK
  5
55813
330
55808
100
AcDbEntity
  8
0
100
AcDbBlockBegin
  2
*D86
 70
     1
 10
0.0
 20
0.0
 30
0.0
  3
*D86
  1

  0
LINE
  5
5591B
330
55808
100
AcDbEntity
  8
sk2
100
AcDbLine
 10
-78.17500099993947
 20
-9.524977866847535
 30
0.0
 11
-108.5986429999393
 21
-9.524977866847526
 31
0.0
  0
LINE
  5
5591C
330
55808
100
AcDbEntity
  8
sk2
100
AcDbLine
 10
-78.17500099993947
 20
9.525022133152475
 30
0.0
 11
-108.5986429999393
 21
9.525022133152484
 31
0.0
  0
LINE
  5
5591D
330
55808
100
AcDbEntity
  8
sk2
100
AcDbLine
 10
-107.0986429999393
 20
6.025022133152483
 30
0.0
 11
-107.0986429999393
 21
-6.024977866847527
 31
0.0
  0
LINE
  5
5591E
330
55808
100
AcDbEntity
  8
sk2
100
AcDbLine
 10
-107.0986429999393
 20
-9.524977866847528
 30
0.0
 11
-107.0986429999393
 21
-62.28332120018093
 31
0.0
  0
SOLID
  5
5591F
330
55808
100
AcDbEntity
  8
sk2
100
AcDbTrace
 10
-107.6819763332726
 20
6.025022133152483
 30
0.0
 11
-106.515309666606
 21
6.025022133152483
 31
0.0
 12
-107.0986429999393
 22
9.525022133152482
 32
0.0
 13
-107.0986429999393
 23
9.525022133152482
 33
0.0
  0
SOLID
  5
55920
330
55808
100
AcDbEntity
  8
sk2
100
AcDbTrace
 10
-107.6819763332726
 20
-6.024977866847527
 30
0.0
 11
-106.515309666606
 21
-6.024977866847527
 31
0.0
 12
-107.0986429999393
 22
-9.524977866847528
 32
0.0
 13
-107.0986429999393
 23
-9.524977866847528
 33
0.0
  0
MTEXT
  5
55921
330
55808
100
AcDbEntity
  8
sk2
100
AcDbMText
 10
-111.1486429999393
 20
-39.56665453351428
 30
0.0
 40
3.5
 41
0.0
 71
     5
 72
     1
  1
\A1;%%c19.05 [%%C.750"]
  7
simplex
 11
0.0000000000000001
 21
1.0
 31
0.0
 73
     1
 44
0.892857
1001
ACAD
1000
MTEXTBEGIN
1070
    73
1070
     1
1070
    44
1040
0.892857
1070
    74
1070
     0
1000
MTEXTEND
  0
POINT
  5
55922
330
55808
100
AcDbEntity
  8
Defpoints
 62
     0
100
AcDbPoint
 10
-78.17500099993947
 20
-9.524977866847535
 30
0.0
  0
POINT
  5
55923
330
55808
100
AcDbEntity
  8
Defpoints
 62
     0
100
AcDbPoint
 10
-78.17500099993947
 20
9.525022133152475
 30
0.0
  0
POINT
  5
55924
330
55808
100
AcDbEntity
  8
Defpoints
 62
     0
100
AcDbPoint
 10
-107.0986429999393
 20
9.525022133152482
 30
0.0
  0
ENDBLK
  5
55814
330
55808
100
AcDbEntity
  8
0
100
AcDbBlockEnd
  0
BLOCK
  5
5581E
330
55815
100
AcDbEntity
  8
0
100
AcDbBlockBegin
  2
*D87
 70
     1
 10
0.0
 20
0.0
 30
0.0
  3
*D87
  1

  0
LINE
  5
55925
330
55815
100
AcDbEntity
  8
2
100
AcDbLine
 10
99.600006
 20
9.999999998900019
 30
0.0
 11
123.100006
 21
9.999999998900012
 31
0.0
  0
LINE
  5
55926
330
55815
100
AcDbEntity
  8
2
100
AcDbLine
 10
121.600006
 20
6.499999998900012
 30
0.0
 11
121.600006
 21
-9.999999999999984
 31
0.0
  0
LINE
  5
55927
330
55815
100
AcDbEntity
  8
2
100
AcDbLine
 10
121.600006
 20
-9.999999999999984
 30
0.0
 11
121.600006
 21
-52.51666666666664
 31
0.0
  0
SOLID
  5
55928
330
55815
100
AcDbEntity
  8
2
100
AcDbTrace
 10
121.0166726666667
 20
6.499999998900012
 30
0.0
 11
122.1833393333333
 21
6.499999998900011
 31
0.0
 12
121.600006
 22
9.999999998900012
 32
0.0
 13
121.600006
 23
9.999999998900012
 33
0.0
  0
MTEXT
  5
55929
330
55815
100
AcDbEntity
  8
2
100
AcDbMText
 10
117.550006
 20
-33.00833333333329
 30
0.0
 40
3.5
 41
0.0
 71
     5
 72
     1
  1
\A1;%%c20 [%%c.787"]
  7
simplex
 11
0.0000000000000001
 21
1.0
 31
0.0
 73
     1
 44
1.0
1001
ACAD
1000
MTEXTBEGIN
1070
    73
1070
     1
1070
    44
1040
1.0
1070
    74
1070
     0
1000
MTEXTEND
  0
POINT
  5
5592A
330
55815
100
AcDbEntity
  8
Defpoints
 62
     0
100
AcDbPoint
 10
99.600006
 20
9.999999998900019
 30
0.0
  0
POINT
  5
5592B
330
55815
100
AcDbEntity
  8
Defpoints
 62
     0
100
AcDbPoint
 10
91.60000600000001
 20
-9.999999999999975
 30
0.0
  0
POINT
  5
5592C
330
55815
100
AcDbEntity
  8
Defpoints
 62
     0
100
AcDbPoint
 10
121.600006
 20
-9.999999999999984
 30
0.0
  0
ENDBLK
  5
5581F
330
55815
100
AcDbEntity
  8
0
100
AcDbBlockEnd
  0
BLOCK
  5
5586E
330
55863
100
AcDbEntity
  8
0
100
AcDbBlockBegin
  2
*D92
 70
     1
 10
0.0
 20
0.0
 30
0.0
  3
*D92
  1

  0
LINE
  5
558FE
330
55863
100
AcDbEntity
  8
2
100
AcDbLine
 10
101.5999999999999
 20
7.027038482612852
 30
0.0
 11
101.5999999999999
 21
30.64144153167061
 31
0.0
  0
LINE
  5
558FF
330
55863
100
AcDbEntity
  8
2
100
AcDbLine
 10
77.60000000000002
 20
9.300031133152458
 30
0.0
 11
77.60000000000002
 21
30.64144153167061
 31
0.0
  0
LINE
  5
55900
330
55863
100
AcDbEntity
  8
2
100
AcDbLine
 10
98.09999999999991
 20
29.14144153167061
 30
0.0
 11
81.10000000000002
 21
29.14144153167061
 31
0.0
  0
LINE
  5
55901
330
55863
100
AcDbEntity
  8
2
100
AcDbLine
 10
77.60000000000002
 20
29.14144153167061
 30
0.0
 11
41.50000000000003
 21
29.14144153167061
 31
0.0
  0
SOLID
  5
55902
330
55863
100
AcDbEntity
  8
2
100
AcDbTrace
 10
98.09999999999991
 20
29.72477486500394
 30
0.0
 11
98.09999999999991
 21
28.55810819833728
 31
0.0
 12
101.5999999999999
 22
29.14144153167061
 32
0.0
 13
101.5999999999999
 23
29.14144153167061
 33
0.0
  0
SOLID
  5
55903
330
55863
100
AcDbEntity
  8
2
100
AcDbTrace
 10
81.10000000000002
 20
29.72477486500394
 30
0.0
 11
81.10000000000002
 21
28.55810819833728
 31
0.0
 12
77.60000000000002
 22
29.14144153167061
 32
0.0
 13
77.60000000000002
 23
29.14144153167061
 33
0.0
  0
MTEXT
  5
55904
330
55863
100
AcDbEntity
  8
2
100
AcDbMText
 10
57.80000000000002
 20
33.19144153167061
 30
0.0
 40
3.5
 41
0.0
 71
     5
 72
     1
  1
\A1;24 [.945"]
  7
simplex
 73
     1
 44
1.0
1001
ACAD
1000
MTEXTBEGIN
1070
    73
1070
     1
1070
    44
1040
1.0
1070
    74
1070
     0
1000
MTEXTEND
  0
POINT
  5
55905
330
55863
100
AcDbEntity
  8
Defpoints
 62
     0
100
AcDbPoint
 10
101.5999999999999
 20
7.027038482612852
 30
0.0
  0
POINT
  5
55906
330
55863
100
AcDbEntity
  8
Defpoints
 62
     0
100
AcDbPoint
 10
77.60000000000002
 20
9.300031133152458
 30
0.0
  0
POINT
  5
55907
330
55863
100
AcDbEntity
  8
Defpoints
 62
     0
100
AcDbPoint
 10
77.60000000000002
 20
29.14144153167061
 30
0.0
  0
ENDBLK
  5
5586F
330
55863
100
AcDbEntity
  8
0
100
AcDbBlockEnd
  0
BLOCK
  5
5589D
330
55895
100
AcDbEntity
  8
0
100
AcDbBlockBegin
  2
*D93
 70
     1
 10
0.0
 20
0.0
 30
0.0
  3
*D93
  1

  0
LINE
  5
55934
330
55895
100
AcDbEntity
  8
2
100
AcDbLine
 10
139.5739435375629
 20
34.39283635191135
 30
0.0
 11
104.1785561594338
 21
10.8379324718989
 31
0.0
  0
MTEXT
  5
55935
330
55895
100
AcDbEntity
  8
2
100
AcDbMText
 10
121.0893717739631
 20
26.95656200511824
 30
0.0
 40
3.5
 41
0.0
 71
     5
 72
     1
  1
\A1;R2 [R.0787"]
  7
simplex
 11
0.8325061711829652
 21
0.5540157713840638
 31
0.0
 73
     1
 44
1.0
1001
ACAD
1000
MTEXTBEGIN
1070
    73
1070
     1
1070
    44
1040
1.0
1070
    74
1070
     0
1000
MTEXTEND
  0
SOLID
  5
55936
330
55895
100
AcDbEntity
  8
2
100
AcDbTrace
 10
103.8553802927931
 20
11.32356107175563
 30
0.0
 11
104.5017320260746
 21
10.35230387204217
 31
0.0
 12
101.2647845602935
 22
8.898877272054683
 32
0.0
 13
101.2647845602935
 23
8.898877272054683
 33
0.0
  0
LINE
  5
55937
330
55895
100
AcDbEntity
  8
2
100
AcDbLine
 10
99.50977221792792
 20
7.790845729286793
 30
0.0
 11
99.68977221792792
 21
7.790845729286786
 31
0.0
  0
LINE
  5
55938
330
55895
100
AcDbEntity
  8
2
100
AcDbLine
 10
99.5997722179279
 20
7.70084572928679
 30
0.0
 11
99.5997722179279
 21
7.880845729286789
 31
0.0
  0
POINT
  5
55939
330
55895
100
AcDbEntity
  8
Defpoints
 62
     0
100
AcDbPoint
 10
101.2647845602935
 20
8.898877272054683
 30
0.0
  0
POINT
  5
5593A
330
55895
100
AcDbEntity
  8
Defpoints
 62
     0
100
AcDbPoint
 10
99.59977221792792
 20
7.790845729286793
 30
0.0
  0
ENDBLK
  5
5589E
330
55895
100
AcDbEntity
  8
0
100
AcDbBlockEnd
  0
ENDSEC
  0
SECTION
  2
ENTITIES
  0
INSERT
  5
68C
330
1F
100
AcDbEntity
  8
0
100
AcDbBlockReference
  2
zero block
 10
0.0
 20
0.0
 30
0.0
  0
MTEXT
  5
53DFB
330
1F
100
AcDbEntity
  8
sk6
100
AcDbMText
 10
-78.53516903596937
 20
89.07870708909854
 30
0.0
 40
5.0
 41
70.03712541027798
 71
     1
 72
     5
  1
SRFU12S12MW\PSUFT20R20
  7
simplex
 73
     1
 44
1.0
1001
ACAD
1000
ACAD_MTEXT_COLUMN_INFO_BEGIN
1070
    75
1070
     2
1070
    79
1070
     0
1070
    76
1070
     1
1070
    78
1070
     0
1070
    48
1040
59.04341590052445
1070
    49
1040
17.5
1070
    50
1070
     1
1040
0.0
1000
ACAD_MTEXT_COLUMN_INFO_END
1000
ACAD_MTEXT_DEFINED_HEIGHT_BEGIN
1070
    46
1040
0.0
1000
ACAD_MTEXT_DEFINED_HEIGHT_END
1000
MTEXTBEGIN
1070
    73
1070
     1
1070
    44
1040
1.0
1070
    74
1070
     0
1000
MTEXTEND
  0
DIMENSION
  5
55592
330
1F
100
AcDbEntity
  8
2
100
AcDbDimension
  2
*D83
 10
0.000000000000002
 20
42.26990414400577
 30
0.0
 11
50.79999999999995
 21
46.31990414400577
 31
0.0
 70
    32
 71
     5
 42
101.5999999999999
  3
\M+18352\M+18373\M+1815B - ISO-25
100
AcDbAlignedDimension
 13
101.5999999999999
 23
30.39062183468946
 33
0.0
 14
0.0
 24
9.515888750352843
 34
0.0
 50
180.0
100
AcDbRotatedDimension
1001
ACAD
1000
DSTYLE
1002
{
1070
     4
1000
"
1070
    40
1040
1.0
1070
   143
1040
0.03937
1070
   170
1070
     1
1070
   171
1070
     3
1070
   271
1070
     8
1070
   285
1070
     4
1002
}
  0
DIMENSION
  5
55593
102
{ACAD_XDICTIONARY
360
55594
102
}
102
{ACAD_REACTORS
330
55595
102
}
330
1F
100
AcDbEntity
  8
2
100
AcDbDimension
  2
*D92
 10
77.60000000000002
 20
29.14144153167061
 30
0.0
 11
57.80000000000002
 21
33.19144153167061
 31
0.0
 70
    32
 71
     5
 42
23.99999999999989
  3
\M+18352\M+18373\M+1815B - ISO-25
100
AcDbAlignedDimension
 13
101.5999999999999
 23
7.027038482612852
 33
0.0
 14
77.60000000000002
 24
9.300031133152458
 34
0.0
 50
180.0
100
AcDbRotatedDimension
1001
ACAD
1000
DSTYLE
1002
{
1070
     4
1000
"
1070
    40
1040
1.0
1070
   143
1040
0.03937
1070
   170
1070
     1
1070
   171
1070
     3
1070
   271
1070
     8
1070
   285
1070
     4
1002
}
  0
DIMENSION
  5
55596
330
1F
100
AcDbEntity
  8
2
100
AcDbDimension
  2
*D84
 10
56.31770868978628
 20
9.300031133152488
 30
0.0
 11
56.31770868978628
 21
-34.34996886684757
 31
0.0
 70
   160
  1
%%c<>
 71
     5
 42
18.60000000000002
  3
\M+18352\M+18373\M+1815B - ISO-25
100
AcDbAlignedDimension
 13
60.82528429688818
 23
-9.299968866847535
 33
0.0
 14
61.01506250750526
 24
9.300031133152486
 34
0.0
 50
270.0
100
AcDbRotatedDimension
1001
ACAD
1000
DSTYLE
1002
{
1070
     4
1000
%%C[]"
1070
    40
1040
1.0
1070
   143
1040
0.03937
1070
   170
1070
     1
1070
   171
1070
     3
1070
   271
1070
     8
1070
   285
1070
     4
1002
}
  0
DIMENSION
  5
55597
330
1F
100
AcDbEntity
  8
sk2
100
AcDbDimension
  2
*D85
 10
101.5999999999999
 20
54.92108818086788
 30
0.0
 11
11.112503
 21
54.92108818086788
 31
0.0
 70
   160
 71
     5
 41
0.892857
 42
180.9749999999999
  3
\M+18352\M+18373\M+1815B - ISO-25
100
AcDbAlignedDimension
 13
-79.375
 23
8.325012133152455
 33
0.0
 14
101.5999999999999
 24
7.027038482612852
 34
0.0
 50
180.0
100
AcDbRotatedDimension
1001
ACAD
1000
DSTYLE
1002
{
1070
     4
1000
"
1070
    40
1040
1.0
1070
   143
1040
0.03937
1070
   170
1070
     1
1070
   171
1070
     3
1070
   271
1070
     8
1070
   285
1070
     4
1002
}
  0
SPLINE
  5
55598
330
1F
100
AcDbEntity
  8
1
100
AcDbSpline
210
0.0
220
0.0
230
1.0
 70
     8
 71
     3
 72
    10
 73
     6
 74
     4
 42
0.0000000001
 43
0.0000000001
 44
0.000001
 12
0.9959101553832343
 22
-0.0903491140218995
 32
0.0
 13
0.9824277678813343
 23
-0.1866431913992558
 33
0.0
 40
0.0
 40
0.0
 40
0.0
 40
0.0
 40
0.2021055945012296
 40
0.4283313520614417
 40
0.6758636495257356
 40
0.6758636495257356
 40
0.6758636495257356
 40
0.6758636495257356
 10
82.70584895947264
 20
9.074737930027424
 30
0.0
 10
82.77294196414715
 20
9.068651242893395
 30
0.0
 10
82.9149495955238
 20
9.053429266801288
 30
0.0
 10
83.13777274061772
 20
9.019920396263728
 30
0.0
 10
83.29338245233214
 20
8.992908998778887
 30
0.0
 10
83.37444331982425
 20
8.977508926121174
 30
0.0
 11
82.70584895947264
 21
9.074737930027424
 31
0.0
 11
82.90677669384763
 21
9.052948379246174
 31
0.0
 11
83.13061549999998
 21
9.020172500339924
 31
0.0
 11
83.37444331982425
 21
8.977508926121174
 31
0.0
  0
SPLINE
  5
55599
330
1F
100
AcDbEntity
  8
1
100
AcDbSpline
210
0.0
220
0.0
230
1.0
 70
     8
 71
     3
 72
    47
 73
    43
 74
    41
 42
0.0000000001
 43
0.0000000001
 44
0.000001
 12
-0.9999999690484479
 22
-0.0002488033421133
 32
0.0
 13
0.9999999685521048
 23
-0.0002507903296894
 33
0.0
 40
0.0
 40
0.0
 40
0.0
 40
0.0
 40
0.4500639720985335
 40
0.8959485888982106
 40
1.191304801459401
 40
1.486816615524884
 40
1.785831016514248
 40
2.073244113150638
 40
2.368341678515673
 40
2.662228446819022
 40
2.948784443830366
 40
3.232224318899082
 40
3.531077361431541
 40
3.882237252846916
 40
4.229753878224944
 40
4.583087740818494
 40
4.929408382840595
 40
5.277496673287302
 40
5.722068780334531
 40
6.168456027443294
 40
6.613407203131409
 40
7.06134560065564
 40
7.512815786772361
 40
7.959527579216302
 40
8.404985700370536
 40
8.851021064228737
 40
9.14133237028566
 40
9.432527611006463
 40
9.72912759188355
 40
10.01942694871503
 40
10.30917308752303
 40
10.60160863062471
 40
10.95630604829189
 40
11.29856678801463
 40
11.64837944602209
 40
11.99924207410437
 40
12.34505588393598
 40
12.64215686729148
 40
12.93740326680139
 40
13.23397775726081
 40
13.68210193950054
 40
14.13315345404614
 40
14.13315345404614
 40
14.13315345404614
 40
14.13315345404614
 10
91.45001247265623
 20
4.500030898777424
 30
0.0
 10
91.29999115326677
 20
4.499993572970623
 30
0.0
 10
91.00113490149807
 20
4.485071094671241
 30
0.0
 10
90.60782410399088
 20
4.42574675488197
 30
0.0
 10
90.27127015703445
 20
4.346251811353795
 30
0.0
 10
89.98748052632732
 20
4.259188883177756
 30
0.0
 10
89.71253220276514
 20
4.154519737902603
 30
0.0
 10
89.44513247392194
 20
4.032222985721318
 30
0.0
 10
89.18769176406124
 20
3.893699143919718
 30
0.0
 10
88.94011001815261
 20
3.738782940447805
 30
0.0
 10
88.70617940394067
 20
3.570527447936058
 30
0.0
 10
88.48210448881014
 20
3.386736804260777
 30
0.0
 10
88.25462119318268
 20
3.174120702026016
 30
0.0
 10
88.02850736471071
 20
2.92985374827765
 30
0.0
 10
87.81073049364442
 20
2.654563946968721
 30
0.0
 10
87.61594389997123
 20
2.364475416519098
 30
0.0
 10
87.44417365914229
 20
2.059989995882432
 30
0.0
 10
87.28352947872185
 20
1.7155917010503
 30
0.0
 10
87.14233519831237
 20
1.32671721995706
 30
0.0
 10
87.03227597414622
 20
0.8944808878615049
 30
0.0
 10
86.96536972908608
 20
0.4523590147874757
 30
0.0
 10
86.94250836006256
 20
0.0040810516710224
 30
0.0
 10
86.96454040197783
 20
-0.4448402596444794
 30
0.0
 10
87.0310597297788
 20
-0.8885005935470076
 30
0.0
 10
87.14076389550928
 20
-1.321608555649959
 30
0.0
 10
87.27500149535023
 20
-1.692696896690051
 30
0.0
 10
87.41756227895406
 20
-2.00436893799565
 30
0.0
 10
87.55633217318763
 20
-2.262321888550502
 30
0.0
 10
87.71165808170747
 20
-2.510657571724266
 30
0.0
 10
87.88255168675647
 20
-2.747940005123268
 30
0.0
 10
88.06748764818143
 20
-2.972655614486768
 30
0.0
 10
88.28124849145201
 20
-3.200614208208833
 30
0.0
 10
88.5238045945494
 20
-3.424595974492802
 30
0.0
 10
88.79796531144023
 20
-3.640961606831638
 30
0.0
 10
89.08689359366617
 20
-3.834929201086339
 30
0.0
 10
89.39106836621908
 20
-4.006410425914936
 30
0.0
 10
89.69166576785648
 20
-4.14639522178902
 30
0.0
 10
89.98405409557927
 20
-4.257928967440307
 30
0.0
 10
90.26744363776021
 20
-4.345210887710663
 30
0.0
 10
90.60497410918868
 20
-4.425210579790842
 30
0.0
 10
90.99972712568193
 20
-4.484969749913801
 30
0.0
 10
91.29966197253589
 20
-4.499961912348027
 30
0.0
 10
91.45001247265623
 20
-4.4999996188007
 30
0.0
 11
91.45001247265623
 21
4.500030898777424
 31
0.0
 11
91.00051143505856
 21
4.477508926121174
 31
0.0
 11
90.55960872509762
 21
4.411041640964924
 31
0.0
 11
90.27216365673826
 21
4.343140029636856
 31
0.0
 11
89.98964717724607
 21
4.256470107761799
 31
0.0
 11
89.7101977143555
 21
4.150085830418049
 31
0.0
 11
89.44882228710936
 21
4.030548476902424
 31
0.0
 11
89.1889574799805
 21
3.890716933933674
 31
0.0
 11
88.93981960156253
 21
3.734833144871174
 31
0.0
 11
88.70719173291012
 21
3.567505264011799
 31
0.0
 11
88.48803737499997
 21
3.387756728855549
 31
0.0
 11
88.26970699169924
 21
3.183685683933674
 31
0.0
 11
88.03115108349606
 21
2.925995254246174
 31
0.0
 11
87.81555202343753
 21
2.653442764011799
 31
0.0
 11
87.61857631542966
 21
2.360107803074328
 31
0.0
 11
87.44841792919919
 21
2.058472060886856
 31
0.0
 11
87.30127742626951
 21
1.743011855808731
 31
0.0
 11
87.14954402783206
 21
1.325134658543049
 31
0.0
 11
87.03940608837887
 21
0.8925479886211746
 31
0.0
 11
86.97282436230466
 21
0.4526065823712031
 31
0.0
 11
86.95001247265627
 21
0.0052494046368849
 31
0.0
 11
86.97213771679685
 21
-0.4456783297382004
 31
0.0
 11
87.03838374951175
 21
-0.887450790675615
 31
0.0
 11
87.14775112011722
 21
-1.31927452114445
 31
0.0
 11
87.29948451855467
 21
-1.738708114894421
 31
0.0
 11
87.42023494580081
 21
-2.002715683253825
 31
0.0
 11
87.55819728710935
 21
-2.2591548922382
 31
0.0
 11
87.71547725537107
 21
-2.5106197359882
 31
0.0
 11
87.88513210156253
 21
-2.746184921535075
 31
0.0
 11
88.06925227978513
 21
-2.96990928676945
 31
0.0
 11
88.26928737500002
 21
-3.183227157863115
 31
0.0
 11
88.52987697460935
 21
-3.423858261378825
 31
0.0
 11
88.79854610302732
 21
-3.63589439419124
 31
0.0
 11
89.08898189404295
 21
-3.830871200831978
 31
0.0
 11
89.39462306835935
 21
-4.0031734469257
 31
0.0
 11
89.70810726025389
 21
-4.149169540675615
 31
0.0
 11
89.98569515087893
 21
-4.25506553676945
 31
0.0
 11
90.26786830761722
 21
-4.34194908169124
 31
0.0
 11
90.55644252636723
 21
-4.410369491847575
 31
0.0
 11
90.99952724316409
 21
-4.477386093410075
 31
0.0
 11
91.45001247265623
 21
-4.4999996188007
 31
0.0
  0
SPLINE
  5
5559A
330
1F
100
AcDbEntity
  8
1
100
AcDbSpline
210
0.0
220
0.0
230
1.0
 70
     8
 71
     3
 72
    16
 73
    12
 74
    10
 42
0.0000000001
 43
0.0000000001
 44
0.000001
 12
0.971374906312096
 22
-0.2375516604597128
 32
0.0
 13
0.9474750794729757
 23
-0.3198296011592397
 33
0.0
 40
0.0
 40
0.0
 40
0.0
 40
0.0
 40
0.6162145973288218
 40
1.266626627454472
 40
1.944370548754221
 40
2.643145743297843
 40
3.346122528223272
 40
4.065749713953455
 40
5.218353512666032
 40
6.376518205591064
 40
7.57972414164504
 40
7.57972414164504
 40
7.57972414164504
 40
7.57972414164504
 10
84.3507616791992
 20
8.764130019871174
 30
0.0
 10
84.5502868114487
 20
8.715335752939523
 30
0.0
 10
84.95969181170801
 20
8.612055570619645
 30
0.0
 10
85.58534613789641
 20
8.442791763652849
 30
0.0
 10
86.23549443052615
 20
8.258898504236839
 30
0.0
 10
86.90057908828714
 20
8.063567746312202
 30
0.0
 10
87.57745597900134
 20
7.858936251878162
 30
0.0
 10
88.39739006647915
 20
7.604824756787053
 30
0.0
 10
89.35996691383389
 20
7.298492373847722
 30
0.0
 10
90.47335016567382
 20
6.934626670514859
 30
0.0
 10
91.22000382251224
 20
6.685463947485743
 30
0.0
 10
91.60000636914061
 20
6.557190322605549
 30
0.0
 11
84.3507616791992
 21
8.764130019871174
 31
0.0
 11
84.94820430615233
 21
8.613190078464924
 31
0.0
 11
85.57622554638674
 21
8.444000625339924
 31
0.0
 11
86.22843959667966
 21
8.259735488621174
 31
0.0
 11
86.89897182324216
 21
8.063080215183674
 31
0.0
 11
87.57190730908206
 21
7.859772109714924
 31
0.0
 11
88.25932338574217
 21
7.646881484714924
 31
0.0
 11
89.35774257519529
 21
7.297638320652424
 31
0.0
 11
90.45870998242184
 21
6.938171767918021
 31
0.0
 11
91.60000636914061
 21
6.557190322605549
 31
0.0
  0
SPLINE
  5
5559B
330
1F
100
AcDbEntity
  8
1
100
AcDbSpline
210
0.0
220
0.0
230
1.0
 70
     8
 71
     3
 72
    25
 73
    21
 74
    19
 42
0.0000000001
 43
0.0000000001
 44
0.000001
 12
0.9468450350588154
 22
-0.3216900365017087
 32
0.0
 13
0.472672644905016
 23
-0.8812380897115698
 33
0.0
 40
0.0
 40
0.0
 40
0.0
 40
0.0
 40
0.662444520600661
 40
1.34363547587583
 40
2.037040079009769
 40
2.744199950257069
 40
3.498205810178708
 40
4.256610477156673
 40
5.026797246402638
 40
5.793620296026163
 40
6.519210198597749
 40
7.232934175056409
 40
7.940540043673013
 40
8.625243546979087
 40
9.231306695479121
 40
9.80626408891773
 40
10.35277308570656
 40
10.85315577138674
 40
11.19387071088565
 40
11.49794782721767
 40
11.49794782721767
 40
11.49794782721767
 40
11.49794782721767
 10
91.67525508740238
 20
6.531738662449299
 30
0.0
 10
91.88433252251327
 20
6.460704728445165
 30
0.0
 10
92.30541031084545
 20
6.307632134697172
 30
0.0
 10
92.93315354178117
 20
6.048261593561335
 30
0.0
 10
93.56268674524875
 20
5.755840542630039
 30
0.0
 10
94.20063501198047
 20
5.425483379182878
 30
0.0
 10
94.84212276578404
 20
5.056348064985002
 30
0.0
 10
95.48403930771485
 20
4.647386077617966
 30
0.0
 10
96.11028918381936
 20
4.20733003875955
 30
0.0
 10
96.70746017537044
 20
3.746257448731682
 30
0.0
 10
97.26954441589834
 20
3.271742656868411
 30
0.0
 10
97.79668871953113
 20
2.787431261349297
 30
0.0
 10
98.29347006846507
 20
2.291129697355017
 30
0.0
 10
98.74492351958384
 20
1.801060639993806
 30
0.0
 10
99.14791044749746
 20
1.327189075693411
 30
0.0
 10
99.50418602424878
 20
0.8746155943380244
 30
0.0
 10
99.82200070961027
 20
0.4371075884014886
 30
0.0
 10
100.0785005338082
 20
0.0520446867897704
 30
0.0
 10
100.2779151407229
 20
-0.2735486290553126
 30
0.0
 10
100.3827508684837
 20
-0.4612458000466689
 30
0.0
 10
100.4306605134276
 20
-0.5505672457538254
 30
0.0
 11
91.67525508740238
 21
6.531738662449299
 31
0.0
 11
92.29782893994139
 21
6.305389785496174
 31
0.0
 11
92.92744472363279
 21
6.045380019871174
 31
0.0
 11
93.55635860302738
 21
5.753357314793049
 31
0.0
 11
94.18434169628909
 21
5.428223037449299
 31
0.0
 11
94.83792140820311
 21
5.052246474949299
 31
0.0
 11
95.47756603100584
 21
4.644775771824356
 31
0.0
 11
96.10777309277342
 21
4.202026748386856
 31
0.0
 11
96.71473720410155
 21
3.733398818699299
 31
0.0
 11
97.26918437817387
 21
3.265350722996174
 31
0.0
 11
97.7947314057617
 21
2.782440566746174
 31
0.0
 11
98.29528453686521
 21
2.282287978855549
 31
0.0
 11
98.7590868745117
 21
1.778595351902424
 31
0.0
 11
99.1515925202637
 21
1.316803359714924
 31
0.0
 11
99.50702312329099
 21
0.8648685452617996
 31
0.0
 11
99.82786968090819
 21
0.4224552151836747
 31
0.0
 11
100.1048243317871
 21
0.0057071683087315
 31
0.0
 11
100.2822153840332
 21
-0.2851863863788253
 31
0.0
 11
100.4306605134276
 21
-0.5505672457538254
 31
0.0
  0
SPLINE
  5
5559C
330
1F
100
AcDbEntity
  8
1
100
AcDbSpline
210
0.0
220
0.0
230
1.0
 70
     8
 71
     3
 72
    11
 73
     7
 74
     5
 42
0.0000000001
 43
0.0000000001
 44
0.000001
 12
-0.9469616152808802
 22
0.3213466962404101
 32
0.0
 13
-0.9475844315216047
 23
0.3195054696525196
 33
0.0
 40
0.0
 40
0.0
 40
0.0
 40
0.0
 40
0.0198802755307976
 40
0.0397533242843719
 40
0.0596021423995566
 40
0.079436503640411
 40
0.079436503640411
 40
0.079436503640411
 40
0.079436503640411
 10
91.67525508740238
 20
6.531738662449299
 30
0.0
 10
91.66897980145938
 20
6.53386814940336
 30
0.0
 10
91.65642732099149
 20
6.538113987952755
 30
0.0
 10
91.63761352892606
 20
6.544497898165531
 30
0.0
 10
91.61880120263118
 20
6.550838369758849
 30
0.0
 10
91.60627127978091
 20
6.555077926971051
 30
0.0
 10
91.60000636914061
 20
6.557190322605549
 30
0.0
 11
91.67525508740238
 21
6.531738662449299
 31
0.0
 11
91.6564257416992
 21
6.538116836277424
 31
0.0
 11
91.63760402539066
 21
6.544495010105549
 31
0.0
 11
91.61879756787106
 21
6.550842666355549
 31
0.0
 11
91.60000636914061
 21
6.557190322605549
 31
0.0
  0
SPLINE
  5
5559D
330
1F
100
AcDbEntity
  8
1
100
AcDbSpline
210
0.0
220
0.0
230
1.0
 70
     8
 71
     3
 72
    22
 73
    18
 74
    16
 42
0.0000000001
 43
0.0000000001
 44
0.000001
 12
0.9501051262673982
 22
0.3119298784028415
 32
0.0
 13
0.066472848683105
 23
0.9977882342400882
 33
0.0
 40
0.0
 40
0.0
 40
0.0
 40
0.0
 40
0.1773883036630988
 40
0.9247315811029064
 40
1.674737135718249
 40
2.424737316490602
 40
3.17207019131399
 40
3.919106641142016
 40
4.668827456206416
 40
5.418510117280326
 40
6.16552086352837
 40
6.91103256414448
 40
7.65926965023964
 40
8.407429476083708
 40
9.152836368564294
 40
9.788513183690753
 40
10.42417075748352
 40
10.42417075748352
 40
10.42417075748352
 40
10.42417075748352
 10
94.37123134472654
 20
-8.290740585597575
 30
0.0
 10
94.42741052360991
 20
-8.272296348266991
 30
0.0
 10
94.71929749261335
 20
-8.173187968567646
 30
0.0
 10
95.23834194991218
 20
-7.965616939199662
 30
0.0
 10
95.9088425897794
 20
-7.629674853224145
 30
0.0
 10
96.54915995926565
 20
-7.239198378128151
 30
0.0
 10
97.15368643607957
 20
-6.796929070471776
 30
0.0
 10
97.71768698019929
 20
-6.304160068898028
 30
0.0
 10
98.23884796300525
 20
-5.765262642471043
 30
0.0
 10
98.71336941598087
 20
-5.184883510120926
 30
0.0
 10
99.13660379634809
 20
-4.567748057640869
 30
0.0
 10
99.50460038766898
 20
-3.916719755069209
 30
0.0
 10
99.81652389536225
 20
-3.23666204785519
 30
0.0
 10
100.0701974315728
 20
-2.532826152233496
 30
0.0
 10
100.2529935186029
 20
-1.846061609101298
 30
0.0
 10
100.3726200804943
 20
-1.183949605028459
 30
0.0
 10
100.4165758568553
 20
-0.7619844617991589
 30
0.0
 10
100.4306605134276
 20
-0.5505672457538254
 30
0.0
 11
94.37123134472654
 21
-8.290740585597575
 31
0.0
 11
94.53920009472653
 21
-8.233703232082007
 31
0.0
 11
95.23320033886722
 21
-7.9564205172382
 31
0.0
 11
95.90380885937497
 21
-7.620574569972575
 31
0.0
 11
96.54407146313474
 21
-7.2299800875507
 31
0.0
 11
97.14703014233402
 21
-6.7884517672382
 31
0.0
 11
97.70980480053715
 21
-6.297179794582007
 31
0.0
 11
98.23107555249022
 21
-5.758330917628825
 31
0.0
 11
98.70549419262694
 21
-5.177856064113115
 31
0.0
 11
99.12771633007816
 21
-4.561614609035075
 31
0.0
 11
99.49481609204099
 21
-3.91274986294124
 31
0.0
 11
99.8068163666992
 21
-3.232665634425615
 31
0.0
 11
100.060276297119
 21
-2.52874717739445
 31
0.0
 11
100.2517397675781
 21
-1.808349228175615
 31
0.0
 11
100.3647578034667
 21
-1.18279991176945
 31
0.0
 11
100.4306605134276
 21
-0.5505672457538254
 31
0.0
  0
SPLINE
  5
5559E
330
1F
100
AcDbEntity
  8
1
100
AcDbSpline
210
0.0
220
0.0
230
1.0
 70
     8
 71
     3
 72
    11
 73
     7
 74
     5
 42
0.0000000001
 43
0.0000000001
 44
0.000001
 12
0.9999996031474408
 22
0.0008909012070156
 32
0.0
 13
0.9508619751644026
 23
0.3096150903726288
 33
0.0
 40
0.0
 40
0.0
 40
0.0
 40
0.0
 40
0.7473246493751331
 40
1.497319414912209
 40
2.247314232719058
 40
2.80470049245647
 40
2.80470049245647
 40
2.80470049245647
 40
2.80470049245647
 10
91.60000636914061
 20
-8.734160995753825
 30
0.0
 10
91.84911448673972
 20
-8.733939064943115
 30
0.0
 10
92.34847240325633
 20
-8.712727018291388
 30
0.0
 10
93.09233321618648
 20
-8.617469938976341
 30
0.0
 10
93.76385054002367
 20
-8.474292556722303
 30
0.0
 10
94.18251873080725
 20
-8.352202418902663
 30
0.0
 10
94.35918453076169
 20
-8.294677353175643
 30
0.0
 11
91.60000636914061
 21
-8.734160995753825
 31
0.0
 11
92.34664943554685
 21
-8.702239609035075
 31
0.0
 11
93.0906069550781
 21
-8.607268905910075
 31
0.0
 11
93.82406642773435
 21
-8.450652694972575
 31
0.0
 11
94.35918453076169
 21
-8.294677353175643
 31
0.0
  0
ARC
  5
5559F
330
1F
100
AcDbEntity
  8
1
100
AcDbCircle
 10
91.60000600000001
 20
0.0000001331524402
 30
0.0
 40
4.050004
100
AcDbArc
 50
270.0000429999985
 51
0.0000050000005032
  0
ARC
  5
555A0
330
1F
100
AcDbEntity
  8
1
100
AcDbCircle
 10
91.60000600000001
 20
0.0000001331524402
 30
0.0
 40
4.050004
100
AcDbArc
 50
359.9999949999995
 51
89.99999699999904
  0
ARC
  5
555A1
330
1F
100
AcDbEntity
  8
1
100
AcDbCircle
 10
91.60000600000001
 20
0.0000001331524402
 30
0.0
 40
4.050004
100
AcDbArc
 50
89.99999699999904
 51
179.9999980000004
  0
ARC
  5
555A2
330
1F
100
AcDbEntity
  8
1
100
AcDbCircle
 10
91.60000600000001
 20
0.0000001331524402
 30
0.0
 40
4.050004
100
AcDbArc
 50
180.0000890000011
 51
270.0000429999985
  0
ARC
  5
555A3
330
1F
100
AcDbEntity
  8
1
100
AcDbCircle
 10
91.60000600000001
 20
2.22952313315244
 30
0.0
 40
0.8260009999999999
100
AcDbArc
 50
223.6651810000034
 51
316.3348239999998
  0
ARC
  5
555A4
330
1F
100
AcDbEntity
  8
1
100
AcDbCircle
 10
89.94023900000001
 20
0.0000001331524402
 30
0.0
 40
0.321227
100
AcDbArc
 50
103.665615
 51
256.3343789999976
  0
ARC
  5
555A5
330
1F
100
AcDbEntity
  8
1
100
AcDbCircle
 10
92.42989399999999
 20
1.437409133152414
 30
0.0
 40
0.321227
100
AcDbArc
 50
343.6656079999978
 51
136.3343920000024
  0
ARC
  5
555A6
330
1F
100
AcDbEntity
  8
1
100
AcDbCircle
 10
89.66920500000004
 20
1.114777133152415
 30
0.0
 40
0.8260009999999999
100
AcDbArc
 50
283.6651760000001
 51
16.33482599999894
  0
ARC
  5
555A7
330
1F
100
AcDbEntity
  8
1
100
AcDbCircle
 10
93.25978099999998
 20
0.0000001331524402
 30
0.0
 40
0.321227
100
AcDbArc
 50
283.6656199999975
 51
76.33437700000127
  0
ARC
  5
555A8
330
1F
100
AcDbEntity
  8
1
100
AcDbCircle
 10
92.42989399999999
 20
-1.437377866847583
 30
0.0
 40
0.321227
100
AcDbArc
 50
223.6655969999993
 51
16.33438900000068
  0
ARC
  5
555A9
330
1F
100
AcDbEntity
  8
1
100
AcDbCircle
 10
93.53081500000001
 20
-1.114745866847528
 30
0.0
 40
0.8260009999999999
100
AcDbArc
 50
103.665171000002
 51
196.3348259999989
  0
ARC
  5
555AA
330
1F
100
AcDbEntity
  8
1
100
AcDbCircle
 10
93.53081500000001
 20
1.114777133152415
 30
0.0
 40
0.8260009999999999
100
AcDbArc
 50
163.6651770000016
 51
256.3348289999979
  0
ARC
  5
555AB
330
1F
100
AcDbEntity
  8
1
100
AcDbCircle
 10
90.770127
 20
-1.437377866847583
 30
0.0
 40
0.321227
100
AcDbArc
 50
163.6656079999978
 51
316.3344009999988
  0
ARC
  5
555AC
330
1F
100
AcDbEntity
  8
1
100
AcDbCircle
 10
90.770127
 20
1.437409133152414
 30
0.0
 40
0.321227
100
AcDbArc
 50
43.66559900000116
 51
196.3343849999986
  0
ARC
  5
555AD
330
1F
100
AcDbEntity
  8
1
100
AcDbCircle
 10
91.60000600000001
 20
-2.229491866847553
 30
0.0
 40
0.8260009999999999
100
AcDbArc
 50
43.66517600000025
 51
136.3348230000024
  0
ARC
  5
555AE
330
1F
100
AcDbEntity
  8
1
100
AcDbCircle
 10
89.66920500000004
 20
-1.114745866847528
 30
0.0
 40
0.8260009999999999
100
AcDbArc
 50
343.6651700000006
 51
76.33484099999975
  0
ARC
  5
555AF
330
1F
100
AcDbEntity
  8
1
100
AcDbCircle
 10
91.60000600000001
 20
0.0000001331524402
 30
0.0
 40
3.000001999999998
100
AcDbArc
 50
270.0000499999985
 51
89.99997299999794
  0
ARC
  5
555B0
330
1F
100
AcDbEntity
  8
1
100
AcDbCircle
 10
91.60001399999998
 20
0.0000001331524402
 30
0.0
 40
3.000001999999998
100
AcDbArc
 50
90.000044999998
 51
269.9999619999988
  0
ARC
  5
555B1
330
1F
100
AcDbEntity
  8
1
100
AcDbCircle
 10
91.45001200000001
 20
0.0000001331524402
 30
0.0
 40
4.300003
100
AcDbArc
 50
89.999921999998
 51
179.9999470000005
  0
ARC
  5
555B2
330
1F
100
AcDbEntity
  8
1
100
AcDbCircle
 10
91.45001200000001
 20
0.0000001331524402
 30
0.0
 40
4.300003
100
AcDbArc
 50
0.0000499999985184
 51
89.99993599999811
  0
ARC
  5
555B3
330
1F
100
AcDbEntity
  8
1
100
AcDbCircle
 10
91.45001200000001
 20
0.0000311331524756
 30
0.0
 40
4.300003
100
AcDbArc
 50
269.9999959999976
 51
359.9999499999983
  0
ARC
  5
555B4
330
1F
100
AcDbEntity
  8
1
100
AcDbCircle
 10
91.45001200000001
 20
0.0000311331524756
 30
0.0
 40
4.300003
100
AcDbArc
 50
180.0000529999995
 51
270.0000089999996
  0
ARC
  5
555B5
330
1F
100
AcDbEntity
  8
1
100
AcDbCircle
 10
91.60000600000001
 20
0.0000001331524402
 30
0.0
 40
4.500003999999997
100
AcDbArc
 50
270.0000429999985
 51
90.00000100000141
  0
ARC
  5
555B6
330
1F
100
AcDbEntity
  8
1
100
AcDbCircle
 10
74.03116599999998
 20
0.0000001331524402
 30
0.0
 40
0.8
100
AcDbArc
 50
329.9999970000009
 51
29.99999899999989
  0
LINE
  5
555B7
330
1F
100
AcDbEntity
  8
1
100
AcDbLine
 10
86.60000600000001
 20
8.841736133152409
 30
0.0
 11
86.60000600000001
 21
8.268646133152429
 31
0.0
  0
LINE
  5
555B8
330
1F
100
AcDbEntity
  8
1
100
AcDbLine
 10
86.60000600000001
 20
-8.764098866847575
 30
0.0
 11
86.60000600000001
 21
-8.841735866847528
 31
0.0
  0
LINE
  5
555B9
330
1F
100
AcDbEntity
  8
1
100
AcDbLine
 10
86.60000600000001
 20
8.15075713315241
 30
0.0
 11
86.60000600000001
 21
8.268646133152429
 31
0.0
  0
LINE
  5
555BA
330
1F
100
AcDbEntity
  8
1
100
AcDbLine
 10
91.60000600000001
 20
4.040039133152447
 30
0.0
 11
91.60000600000001
 21
4.050019133152432
 31
0.0
  0
LINE
  5
555BB
330
1F
100
AcDbEntity
  8
1
100
AcDbLine
 10
86.60000600000001
 20
9.074738133152436
 30
0.0
 11
86.60000600000001
 21
8.841743251516504
 31
0.0
  0
LINE
  5
555BC
330
1F
100
AcDbEntity
  8
1
100
AcDbLine
 10
95.65000900000001
 20
0.0000001331524402
 30
0.0
 11
95.64999799999998
 21
0.0000001331524402
 31
0.0
  0
LINE
  5
555BD
330
1F
100
AcDbEntity
  8
1
100
AcDbLine
 10
83.90903300000003
 20
8.764123133152452
 30
0.0
 11
83.374456
 21
8.977515133152422
 31
0.0
  0
LINE
  5
555BE
330
1F
100
AcDbEntity
  8
1
100
AcDbLine
 10
86.60000700000001
 20
-8.841729866847543
 30
0.0
 11
86.60000600000001
 21
-8.977477866847578
 31
0.0
  0
LINE
  5
555BF
330
1F
100
AcDbEntity
  8
1
100
AcDbLine
 10
86.60000600000001
 20
-8.734160866847531
 30
0.0
 11
86.60000600000001
 21
-8.764098866847575
 31
0.0
  0
LINE
  5
555C0
330
1F
100
AcDbEntity
  8
1
100
AcDbLine
 10
86.60000600000001
 20
-8.734160866847531
 30
0.0
 11
91.60000600000001
 21
-8.734160866847531
 31
0.0
  0
LINE
  5
555C1
330
1F
100
AcDbEntity
  8
1
100
AcDbLine
 10
82.70585700000003
 20
9.074738133152436
 30
0.0
 11
86.60000600000001
 21
9.074738133152436
 31
0.0
  0
LINE
  5
555C2
330
1F
100
AcDbEntity
  8
1
100
AcDbLine
 10
86.60000600000001
 20
9.084961133152432
 30
0.0
 11
86.60000600000001
 21
9.074738133152436
 31
0.0
  0
LINE
  5
555C3
330
1F
100
AcDbEntity
  8
1
100
AcDbLine
 10
81.60000600000001
 20
9.084961133152432
 30
0.0
 11
86.60000600000001
 21
9.084961133152432
 31
0.0
  0
LINE
  5
555C4
330
1F
100
AcDbEntity
  8
1
100
AcDbLine
 10
81.60000600000001
 20
-9.084929866847545
 30
0.0
 11
86.60000600000001
 21
-9.084929866847545
 31
0.0
  0
LINE
  5
555C5
330
1F
100
AcDbEntity
  8
1
100
AcDbLine
 10
86.60000600000001
 20
-8.977477866847578
 30
0.0
 11
86.60000600000001
 21
-9.084929866847545
 31
0.0
  0
LINE
  5
555C6
330
1F
100
AcDbEntity
  8
1
100
AcDbLine
 10
83.100006
 20
-8.977477866847578
 30
0.0
 11
86.60000600000001
 21
-8.977477866847578
 31
0.0
  0
LINE
  5
555C7
330
1F
100
AcDbEntity
  8
1
100
AcDbLine
 10
83.100006
 20
-8.764098866847575
 30
0.0
 11
83.100006
 21
-8.977477866847578
 31
0.0
  0
LINE
  5
555C8
330
1F
100
AcDbEntity
  8
1
100
AcDbLine
 10
83.100006
 20
-8.764098866847575
 30
0.0
 11
86.60000600000001
 21
-8.764098866847575
 31
0.0
  0
LINE
  5
555C9
330
1F
100
AcDbEntity
  8
1
100
AcDbLine
 10
91.45001200000001
 20
-4.499999866847588
 30
0.0
 11
91.60000600000001
 21
-4.499999866847588
 31
0.0
  0
LINE
  5
555CA
330
1F
100
AcDbEntity
  8
1
100
AcDbLine
 10
91.45001200000001
 20
4.50000013315244
 30
0.0
 11
91.60000600000001
 21
4.50000013315244
 31
0.0
  0
LINE
  5
555CB
330
1F
100
AcDbEntity
  8
1
100
AcDbLine
 10
83.100006
 20
8.764130133152406
 30
0.0
 11
84.35076900000002
 21
8.764130133152406
 31
0.0
  0
LINE
  5
555CC
330
1F
100
AcDbEntity
  8
1
100
AcDbLine
 10
83.100006
 20
8.977509133152409
 30
0.0
 11
83.100006
 21
8.764130133152406
 31
0.0
  0
LINE
  5
555CD
330
1F
100
AcDbEntity
  8
1
100
AcDbLine
 10
83.100006
 20
8.977509133152409
 30
0.0
 11
83.37445100000001
 21
8.977509133152409
 31
0.0
  0
LINE
  5
555CE
330
1F
100
AcDbEntity
  8
1
100
AcDbLine
 10
94.35918100000003
 20
-8.294683866847549
 30
0.0
 11
94.37122999999997
 21
-8.290735866847569
 31
0.0
  0
LINE
  5
555CF
330
1F
100
AcDbEntity
  8
1
100
AcDbLine
 10
77.60000600000001
 20
-9.299968866847535
 30
0.0
 11
81.60000700000001
 21
-9.084918866847516
 31
0.0
  0
LINE
  5
555D0
330
1F
100
AcDbEntity
  8
1
100
AcDbLine
 10
81.59999099999998
 20
-9.084929866847545
 30
0.0
 11
81.59999099999998
 21
9.084961133152432
 31
0.0
  0
LINE
  5
555D1
330
1F
100
AcDbEntity
  8
1
100
AcDbLine
 10
77.60000600000001
 20
9.300031133152458
 30
0.0
 11
81.600011
 21
9.084945133152473
 31
0.0
  0
LINE
  5
555D2
330
1F
100
AcDbEntity
  8
1
100
AcDbLine
 10
77.60000600000001
 20
-9.299968866847535
 30
0.0
 11
77.60000600000001
 21
0.0000311331524756
 31
0.0
  0
LINE
  5
555D3
102
{ACAD_REACTORS
330
55595
102
}
330
1F
100
AcDbEntity
  8
1
100
AcDbLine
 10
77.59999300000004
 20
0.0000311331524756
 30
0.0
 11
77.60000000000002
 21
9.300031133152458
 31
0.0
  0
LINE
  5
555D4
330
1F
100
AcDbEntity
  8
sk1
100
AcDbLine
 10
-79.375
 20
0.0000001331524402
 30
0.0
 11
-79.375
 21
-8.324980866847511
 31
0.0
  0
LINE
  5
555D5
330
1F
100
AcDbEntity
  8
sk1
100
AcDbLine
 10
-78.17498799999999
 20
0.0000001331524402
 30
0.0
 11
-78.17498799999999
 21
-9.524993866847552
 31
0.0
  0
LINE
  5
555D6
330
1F
100
AcDbEntity
  8
1
100
AcDbLine
 10
0.0
 20
-9.524993866847552
 30
0.0
 11
0.0
 21
0.0000001331524402
 31
0.0
  0
LINE
  5
555D7
330
1F
100
AcDbEntity
  8
sk4
100
AcDbLine
 10
-86.041336
 20
0.0000001331524402
 30
0.0
 11
0.0
 21
0.0000001331524402
 31
0.0
  0
LINE
  5
555D8
330
1F
100
AcDbEntity
  8
4
100
AcDbLine
 10
0.0
 20
0.0000001331524402
 30
0.0
 11
106.1289789999999
 21
0.0000001331524402
 31
0.0
  0
LINE
  5
555D9
330
1F
100
AcDbEntity
  8
sk1
100
AcDbLine
 10
-78.175003
 20
-9.524993866847552
 30
0.0
 11
0.0
 21
-9.524993866847552
 31
0.0
  0
LINE
  5
555DA
330
1F
100
AcDbEntity
  8
sk1
100
AcDbLine
 10
-78.17499600000002
 20
-9.524985866847515
 30
0.0
 11
-79.37499500000001
 21
-8.324985866847526
 31
0.0
  0
LINE
  5
555DB
330
1F
100
AcDbEntity
  8
1
100
AcDbLine
 10
77.60000600000001
 20
-9.299968866847535
 30
0.0
 11
0.2249699999999848
 21
-9.299968866847535
 31
0.0
  0
LINE
  5
555DC
330
1F
100
AcDbEntity
  8
1
100
AcDbLine
 10
0.0000049999999874
 20
-9.524980866847528
 30
0.0
 11
0.2249699999999848
 21
-9.299968866847507
 31
0.0
  0
LINE
  5
555DD
330
1F
100
AcDbEntity
  8
1
100
AcDbLine
 10
0.2249699999999848
 20
-9.299968866847507
 30
0.0
 11
0.2249699999999848
 21
0.0000001331524402
 31
0.0
  0
LINE
  5
555DE
330
1F
100
AcDbEntity
  8
sk1
100
AcDbLine
 10
-79.375
 20
0.0000311331524756
 30
0.0
 11
-79.375
 21
8.325012133152455
 31
0.0
  0
LINE
  5
555DF
330
1F
100
AcDbEntity
  8
1
100
AcDbLine
 10
0.0
 20
0.0000001331524402
 30
0.0
 11
0.0
 21
9.525025133152468
 31
0.0
  0
LINE
  5
555E0
330
1F
100
AcDbEntity
  8
sk1
100
AcDbLine
 10
-78.17498799999999
 20
0.0000311331524756
 30
0.0
 11
-78.17498799999999
 21
9.525025133152496
 31
0.0
  0
LINE
  5
555E1
330
1F
100
AcDbEntity
  8
1
100
AcDbLine
 10
77.60000600000001
 20
9.300031133152458
 30
0.0
 11
0.2249699999999848
 21
9.300031133152458
 31
0.0
  0
LINE
  5
555E2
330
1F
100
AcDbEntity
  8
1
100
AcDbLine
 10
0.2249699999999848
 20
9.300031133152458
 30
0.0
 11
0.2249699999999848
 21
0.0000001331524118
 31
0.0
  0
LINE
  5
555E3
330
1F
100
AcDbEntity
  8
1
100
AcDbLine
 10
0.0000000000163709
 20
9.525025133152468
 30
0.0
 11
0.2249699999999848
 21
9.300031133152458
 31
0.0
  0
LINE
  5
555E4
330
1F
100
AcDbEntity
  8
sk1
100
AcDbLine
 10
-78.17500799999999
 20
9.525003133152438
 30
0.0
 11
-79.37500499999998
 21
8.32500613315247
 31
0.0
  0
LINE
  5
555E5
330
1F
100
AcDbEntity
  8
sk1
100
AcDbLine
 10
-78.175003
 20
9.525025133152496
 30
0.0
 11
0.0
 21
9.525025133152468
 31
0.0
  0
LINE
  5
555E6
330
1F
100
AcDbEntity
  8
1
100
AcDbLine
 10
69.59999800000002
 20
9.275017133152431
 30
0.0
 11
74.72398299999998
 21
0.4000141331524958
 31
0.0
  0
LINE
  5
555E7
330
1F
100
AcDbEntity
  8
1
100
AcDbLine
 10
69.59999900000003
 20
-9.274992866847554
 30
0.0
 11
74.72399200000001
 21
-0.3999768668475383
 31
0.0
  0
LINE
  5
555E8
330
1F
100
AcDbEntity
  8
1
100
AcDbLine
 10
74.66625199999999
 20
-0.4999998668475599
 30
0.0
 11
74.66625199999999
 21
0.5000001331524402
 31
0.0
  0
DIMENSION
  5
555E9
330
1F
100
AcDbEntity
  8
sk2
100
AcDbDimension
  2
*D86
 10
-107.0986429999393
 20
9.525022133152482
 30
0.0
 11
-107.0986429999393
 21
-39.56665453351428
 31
0.0
 70
   160
  1
%%c<>
 71
     5
 41
0.892857
 42
19.05000000000001
  3
\M+18352\M+18373\M+1815B - ISO-25
100
AcDbAlignedDimension
 13
-78.17500099993947
 23
-9.524977866847535
 33
0.0
 14
-78.17500099993947
 24
9.525022133152475
 34
0.0
 50
270.0
100
AcDbRotatedDimension
1001
ACAD
1000
DSTYLE
1002
{
1070
     4
1000
%%C[]"
1070
    40
1040
1.0
1070
   143
1040
0.03937
1070
   170
1070
     1
1070
   171
1070
     3
1070
   271
1070
     8
1070
   285
1070
     4
1002
}
  0
LINE
  5
555EA
330
1F
100
AcDbEntity
  8
nocut
100
AcDbLine
 10
81.6000060038246
 20
9.084960999999992
 30
0.0
 11
91.60200600382466
 21
9.084960999999992
 31
0.0
1001
ACAD
1000
RTMaterial
1005
0
  0
ARC
  5
555EB
330
1F
100
AcDbEntity
  8
nocut
100
AcDbCircle
 10
91.60200600382466
 20
0.0000309999995807
 30
0.0
 40
9.084930000000424
100
AcDbArc
 50
0.0000000000032569
 51
90.0
  0
LINE
  5
555EC
330
1F
100
AcDbEntity
  8
nocut
100
AcDbLine
 10
0.0000000038246526
 20
0.0000000000000284
 30
0.0
 11
0.0000000038246526
 21
9.5249999989
 31
0.0
1001
ACAD
1000
RTMaterial
1005
0
  0
LINE
  5
555ED
330
1F
100
AcDbEntity
  8
nocut
100
AcDbLine
 10
100.6869360037721
 20
0.0000000000000284
 30
0.0
 11
0.0000000038246526
 21
0.0
 31
0.0
1001
ACAD
1000
RTMaterial
1005
0
  0
LINE
  5
555EE
330
1F
100
AcDbEntity
  8
nocut
100
AcDbLine
 10
0.2250000038246753
 20
9.299999998900034
 30
0.0
 11
0.0000000038246526
 21
9.524999998900028
 31
0.0
1001
ACAD
1000
RTMaterial
1005
0
  0
LINE
  5
555EF
330
1F
100
AcDbEntity
  8
nocut
100
AcDbLine
 10
0.2250000038246753
 20
9.299999998900034
 30
0.0
 11
77.60000000382468
 21
9.299999998900034
 31
0.0
1001
ACAD
1000
RTMaterial
1005
0
  0
LINE
  5
555F0
330
1F
100
AcDbEntity
  8
nocut
100
AcDbLine
 10
81.60000600382465
 20
9.084960999999992
 30
0.0
 11
77.60000600382466
 21
9.300031000000046
 31
0.0
  0
LINE
  5
555F1
330
1F
100
AcDbEntity
  8
nocut
100
AcDbLine
 10
77.60000600382466
 20
9.300031000000046
 30
0.0
 11
81.60000600382465
 21
9.084960999999992
 31
0.0
  0
LINE
  5
555F3
330
1F
100
AcDbEntity
  8
cut
100
AcDbLine
 10
86.60000600000001
 20
-0.0000000010998917
 30
0.0
 11
86.60000600000001
 21
-9.21500000109998
 31
0.0
1001
ACAD
1000
RTMaterial
1005
0
  0
DIMENSION
  5
555F5
330
1F
100
AcDbEntity
  8
2
100
AcDbDimension
  2
*D87
 10
121.600006
 20
-9.999999999999984
 30
0.0
 11
117.550006
 21
-33.00833333333329
 31
0.0
 70
    32
  1
%%c<>
 71
     5
 42
19.99999999889999
  3
\M+18352\M+18373\M+1815B - ISO-25
100
AcDbAlignedDimension
 13
99.600006
 23
9.999999998900019
 33
0.0
 14
91.60000600000001
 24
-9.999999999999975
 34
0.0
 50
270.0
100
AcDbRotatedDimension
1001
ACAD
1000
DSTYLE
1002
{
1070
    76
1070
     1
1070
   344
1005
50E6F
1070
     4
1000
%%c[]"
1070
    40
1040
1.0
1070
    75
1070
     0
1070
   143
1040
0.03937
1070
   170
1070
     1
1070
   171
1070
     3
1070
   173
1070
     1
1070
   271
1070
     8
1070
   285
1070
     4
1070
   343
1005
0
1002
}
  0
SPLINE
  5
555F6
330
1F
100
AcDbEntity
  8
1
100
AcDbSpline
210
0.0
220
0.0
230
1.0
 70
     8
 71
     3
 72
    14
 73
    10
 74
     8
 42
0.0000000001
 43
0.0000000001
 44
0.000001
 12
0.0506334837042103
 22
-0.9987173025075591
 32
0.0
 13
0.0557805924395193
 23
-0.9984430507079991
 33
0.0
 40
0.0
 40
0.0
 40
0.0
 40
0.0
 40
0.0573501914590793
 40
0.1102663095490891
 40
0.1623615261918185
 40
0.2140997768049177
 40
0.2658390888234648
 40
0.3182982801899726
 40
0.3722868905523342
 40
0.3722868905523342
 40
0.3722868905523342
 40
0.3722868905523342
 10
101.4727695096864
 20
-4.747355095500527
 30
0.0
 10
101.473737456348
 20
-4.766447305004621
 30
0.0
 10
101.4756142324944
 20
-4.803154799292006
 30
0.0
 10
101.4784141591904
 20
-4.857202836313067
 30
0.0
 10
101.481157784318
 20
-4.90938062077507
 30
0.0
 10
101.4839230014084
 20
-4.961164441759652
 30
0.0
 10
101.4867359606281
 20
-5.013067194417832
 30
0.0
 10
101.4896279354849
 20
-5.065716869195629
 30
0.0
 10
101.4915939820961
 20
-5.101144962622644
 30
0.0
 10
101.4925978209863
 20
-5.119113146900534
 30
0.0
 11
101.4727695096864
 21
-4.747355095500527
 31
0.0
 11
101.4756954035863
 21
-4.804630604500548
 31
0.0
 11
101.4784342025863
 21
-4.857475798300558
 31
0.0
 11
101.4811701219863
 21
-4.909499123600514
 31
0.0
 11
101.4839288308864
 21
-4.961163774500537
 31
0.0
 11
101.4867282160863
 21
-5.01282730040052
 31
0.0
 11
101.4896038260864
 21
-5.06520761810049
 31
0.0
 11
101.4925978209863
 21
-5.119113146900534
 31
0.0
  0
SPLINE
  5
555F7
330
1F
100
AcDbEntity
  8
1
100
AcDbSpline
210
0.0
220
0.0
230
1.0
 70
     8
 71
     3
 72
    21
 73
    17
 74
    15
 42
0.0000000001
 43
0.0000000001
 44
0.000001
 12
0.0511078688581111
 22
-0.9986931389274595
 32
0.0
 13
0.0551810176571189
 23
-0.9984763669162756
 33
0.0
 40
0.0
 40
0.0
 40
0.0
 40
0.0
 40
0.0415683516766122
 40
0.0832511107815861
 40
0.1248411935694311
 40
0.1661822997767889
 40
0.207353604335947
 40
0.2488506702005786
 40
0.2906688272927175
 40
0.3313998396280523
 40
0.3713994895712619
 40
0.4141705428455465
 40
0.4610851038639585
 40
0.5130193503344542
 40
0.5708153131043439
 40
0.6353896487833051
 40
0.6353896487833051
 40
0.6353896487833051
 40
0.6353896487833051
 10
101.4925978209863
 20
-5.119113146900534
 30
0.0
 10
101.4933059776084
 20
-5.132951156105864
 30
0.0
 10
101.4947277934195
 20
-5.160665079243674
 30
0.0
 10
101.4968787768129
 20
-5.202223182951062
 30
0.0
 10
101.4990381202112
 20
-5.24370500163727
 30
0.0
 10
101.501199841696
 20
-5.285015979275019
 30
0.0
 10
101.5033684672154
 20
-5.326295546531358
 30
0.0
 10
101.5055540375054
 20
-5.367733459010285
 30
0.0
 10
101.5077409285598
 20
-5.409024332787371
 30
0.0
 10
101.5099105933417
 20
-5.449816279673544
 30
0.0
 10
101.512106490957
 20
-5.490924911255266
 30
0.0
 10
101.5144227657563
 20
-5.534091232940401
 30
0.0
 10
101.5169649135829
 20
-5.581229354937139
 30
0.0
 10
101.5197931185838
 20
-5.633367628518247
 30
0.0
 10
101.5229599467533
 20
-5.691382776825125
 30
0.0
 10
101.5252030273005
 20
-5.732111157005594
 30
0.0
 10
101.5263907864863
 20
-5.753603139700519
 30
0.0
 11
101.4925978209863
 21
-5.119113146900534
 31
0.0
 11
101.4947299746862
 21
-5.160626780600527
 31
0.0
 11
101.4968834275863
 21
-5.202253875400547
 31
0.0
 11
101.4990453223863
 21
-5.243787731200516
 31
0.0
 11
101.5012052218864
 21
-5.285072375800528
 31
0.0
 11
101.5033651859863
 21
-5.326186982200514
 31
0.0
 11
101.5055509068863
 21
-5.367626445100487
 31
0.0
 11
101.5077626787863
 21
-5.40938607050052
 31
0.0
 11
101.5099260981864
 21
-5.450059587300561
 31
0.0
 11
101.5120597680862
 21
-5.490002289200536
 31
0.0
 11
101.5143515891862
 21
-5.532711896300529
 31
0.0
 11
101.5168781306863
 21
-5.579558375400527
 31
0.0
 11
101.5196910734863
 21
-5.63141638620053
 31
0.0
 11
101.5228422129861
 21
-5.689126381900539
 31
0.0
 11
101.5263907864863
 21
-5.753603139700519
 31
0.0
  0
SPLINE
  5
555F8
330
1F
100
AcDbEntity
  8
1
100
AcDbSpline
210
0.0
220
0.0
230
1.0
 70
     8
 71
     3
 72
    14
 73
    10
 74
     8
 42
0.0000000001
 43
0.0000000001
 44
0.000001
 12
0.0505181688986341
 22
-0.998723142122545
 32
0.0
 13
0.0534636888484701
 23
-0.9985697942431034
 33
0.0
 40
0.0
 40
0.0
 40
0.0
 40
0.0
 40
0.0881924567879329
 40
0.178550738150115
 40
0.2704015820190334
 40
0.3631240271482043
 40
0.4553680577225921
 40
0.546802542673081
 40
0.6377289465635162
 40
0.6377289465635162
 40
0.6377289465635162
 40
0.6377289465635162
 10
101.5263907864863
 20
-5.753603139700519
 30
0.0
 10
101.5278758936289
 20
-5.782963088885427
 30
0.0
 10
101.5309069825079
 20
-5.842402773853425
 30
0.0
 10
101.5355607098959
 20
-5.932416423911522
 30
0.0
 10
101.5403745080515
 20
-6.023933780670834
 30
0.0
 10
101.545307802252
 20
-6.116074256924608
 30
0.0
 10
101.5502778561606
 20
-6.208073760693967
 30
0.0
 10
101.5552265097545
 20
-6.299474867800231
 30
0.0
 10
101.5584830886645
 20
-6.360174536925828
 30
0.0
 10
101.5601035089863
 20
-6.390439990400555
 30
0.0
 11
101.5263907864863
 21
-5.753603139700519
 31
0.0
 11
101.5308794260863
 21
-5.841681299600512
 31
0.0
 11
101.5355474058864
 21
-5.931918924600584
 31
0.0
 11
101.5403725280863
 21
-6.023642944200535
 31
0.0
 11
101.5453227593863
 21
-6.116233155000546
 31
0.0
 11
101.5502932523862
 21
-6.208343173400525
 31
0.0
 11
101.5552271897863
 21
-6.299644443700547
 31
0.0
 11
101.5601035089863
 21
-6.390439990400555
 31
0.0
  0
SPLINE
  5
555F9
330
1F
100
AcDbEntity
  8
1
100
AcDbSpline
210
0.0
220
0.0
230
1.0
 70
     8
 71
     3
 72
    16
 73
    12
 74
    10
 42
0.0000000001
 43
0.0000000001
 44
0.000001
 12
0.0482150813204129
 22
-0.9988369766549826
 32
0.0
 13
0.0465816941588105
 23
-0.9989144837118416
 33
0.0
 40
0.0
 40
0.0
 40
0.0
 40
0.0
 40
0.0934047751872732
 40
0.1846952751433144
 40
0.270969547143512
 40
0.3494597662359872
 40
0.4195708436449767
 40
0.4824303558567052
 40
0.5390649160255938
 40
0.5903807594740386
 40
0.6373488984060765
 40
0.6373488984060765
 40
0.6373488984060765
 40
0.6373488984060765
 10
101.5601035089863
 20
-6.390439990400555
 30
0.0
 10
101.5616046819301
 20
-6.421538704818292
 30
0.0
 10
101.5646194380096
 20
-6.483029943916054
 30
0.0
 10
101.5691060614093
 20
-6.573241668657804
 30
0.0
 10
101.573582528575
 20
-6.6584760140307
 30
0.0
 10
101.5779862887319
 20
-6.736644194580097
 30
0.0
 10
101.582258921204
 20
-6.807001603774981
 30
0.0
 10
101.5861204087137
 20
-6.870085236266593
 30
0.0
 10
101.5894732462833
 20
-6.926923150015344
 30
0.0
 10
101.592310325273
 20
-6.978484901016148
 30
0.0
 10
101.5939149999252
 20
-7.011207104683169
 30
0.0
 10
101.5946442850862
 20
-7.026846156100564
 30
0.0
 11
101.5601035089863
 21
-6.390439990400555
 31
0.0
 11
101.5646640417864
 21
-6.48373336880056
 31
0.0
 11
101.5692315240863
 21
-6.574909536200582
 31
0.0
 11
101.5737748460862
 21
-6.661064096700531
 31
0.0
 11
101.5782027556863
 21
-6.739429319300572
 31
0.0
 11
101.5824103806864
 21
-6.809414024200524
 31
0.0
 11
101.5862218203864
 21
-6.872157875900573
 31
0.0
 11
101.5895375561863
 21
-6.928695287700524
 31
0.0
 11
101.5923357246863
 21
-6.979934779300581
 31
0.0
 11
101.5946442850862
 21
-7.026846156100564
 31
0.0
  0
SPLINE
  5
555FA
330
1F
100
AcDbEntity
  8
1
100
AcDbSpline
210
0.0
220
0.0
230
1.0
 70
     8
 71
     3
 72
    32
 73
    28
 74
    26
 42
0.0000000001
 43
0.0000000001
 44
0.000001
 12
0.0416878758996551
 22
-0.9991306826451557
 32
0.0
 13
0.0019987911344949
 23
-0.9999980024150051
 33
0.0
 40
0.0
 40
0.0
 40
0.0
 40
0.0
 40
0.0253133319661682
 40
0.0509427929948145
 40
0.0764004652371324
 40
0.1012401766811069
 40
0.1250533978001619
 40
0.1475424225628598
 40
0.1687766574405523
 40
0.1893683020126136
 40
0.2098316069471283
 40
0.2303177311687326
 40
0.2508257447397931
 40
0.2711925831334399
 40
0.2913544538676647
 40
0.3114780897314772
 40
0.3316522802766579
 40
0.3518362433463217
 40
0.3723443680462191
 40
0.3939907504043459
 40
0.4175913240086527
 40
0.4437149185543369
 40
0.4726668127186144
 40
0.5047461785271612
 40
0.5402520825516736
 40
0.5794833583851297
 40
0.6227389047413725
 40
0.6227389047413725
 40
0.6227389047413725
 40
0.6227389047413725
 10
101.5946442850862
 20
-7.026846156100564
 30
0.0
 10
101.5949960381001
 20
-7.035276598316361
 30
0.0
 10
101.5956689134369
 20
-7.05224424045426
 30
0.0
 10
101.5965843459192
 20
-7.077694668317835
 30
0.0
 10
101.5973828114012
 20
-7.102991107749549
 30
0.0
 10
101.5980504848216
 20
-7.127685700053437
 30
0.0
 10
101.5985882055614
 20
-7.151393660080092
 30
0.0
 10
101.5990051394075
 20
-7.173902022216427
 30
0.0
 10
101.599316620755
 20
-7.195338111669489
 30
0.0
 10
101.5995415807355
 20
-7.216100003653767
 30
0.0
 10
101.5996827396716
 20
-7.236613264392023
 30
0.0
 10
101.5997421902776
 20
-7.257099045082956
 30
0.0
 10
101.5997305414328
 20
-7.27755271970776
 30
0.0
 10
101.59969561539
 20
-7.297898262172825
 30
0.0
 10
101.5996826958115
 20
-7.318115711242004
 30
0.0
 10
101.599685815013
 20
-7.338268943589444
 30
0.0
 10
101.5996911491205
 20
-7.358429539379304
 30
0.0
 10
101.5996932772019
 20
-7.378718298744193
 30
0.0
 10
101.5996967131076
 20
-7.399497788562431
 30
0.0
 10
101.5997049351408
 20
-7.42141614742346
 30
0.0
 10
101.5997184725746
 20
-7.445206327177377
 30
0.0
 10
101.5997371849215
 20
-7.471431674693722
 30
0.0
 10
101.5997626975089
 20
-7.50048328184636
 30
0.0
 10
101.5997978306155
 20
-7.532662317578601
 30
0.0
 10
101.599844675495
 20
-7.568267802383846
 30
0.0
 10
101.5999069017665
 20
-7.607598662194224
 30
0.0
 10
101.5999563945855
 20
-7.635094225550663
 30
0.0
 10
101.5999852141864
 20
-7.649512712200536
 30
0.0
 11
101.5946442850862
 21
-7.026846156100564
 31
0.0
 11
101.5956503102862
 21
-7.052139583100572
 31
0.0
 11
101.5965685559863
 21
-7.077752591100537
 31
0.0
 11
101.5973708881863
 21
-7.103197632000533
 31
0.0
 11
101.5980423298864
 21
-7.12802829310053
 31
0.0
 11
101.5985822425863
 21
-7.15183543670054
 31
0.0
 11
101.5989984683864
 21
-7.174320704500534
 31
0.0
 11
101.5993072451863
 21
-7.195553069800528
 31
0.0
 11
101.5995275712863
 21
-7.216143408600576
 31
0.0
 11
101.5996681423863
 21
-7.236605916300536
 31
0.0
 11
101.5997293281863
 21
-7.257091865300569
 31
0.0
 11
101.5997255828863
 21
-7.27759984280053
 31
0.0
 11
101.5996981760863
 21
-7.297966646000535
 31
0.0
 11
101.5996843587863
 21
-7.318128504100545
 31
0.0
 11
101.5996851811864
 21
-7.338252135700574
 31
0.0
 11
101.5996896122864
 21
-7.35842632290053
 31
0.0
 11
101.5996924683862
 21
-7.378610283500538
 31
0.0
 11
101.5996963486863
 21
-7.399118406000557
 31
0.0
 11
101.5997043607864
 21
-7.420764785400539
 31
0.0
 11
101.5997175340864
 21
-7.444365354100543
 31
0.0
 11
101.5997361928863
 21
-7.470488940900541
 31
0.0
 11
101.5997617604863
 21
-7.499440822800554
 31
0.0
 11
101.5997967202863
 21
-7.531520168700527
 31
0.0
 11
101.5998435403863
 21
-7.56702604110055
 31
0.0
 11
101.5999051351863
 21
-7.606257267900534
 31
0.0
 11
101.5999852141864
 21
-7.649512712200536
 31
0.0
  0
SPLINE
  5
555FB
330
1F
100
AcDbEntity
  8
1
100
AcDbSpline
210
0.0
220
0.0
230
1.0
 70
     8
 71
     3
 72
    20
 73
    16
 74
    14
 42
0.0000000001
 43
0.0000000001
 44
0.000001
 12
-0.0705500074041531
 22
-0.9975082438031648
 32
0.0
 13
-0.2048092514259854
 23
-0.9788019056634123
 33
0.0
 40
0.0
 40
0.0
 40
0.0
 40
0.0
 40
0.0212122497786451
 40
0.0424244089386453
 40
0.0636342518070118
 40
0.0848414159043881
 40
0.1060437011342844
 40
0.1272402104853254
 40
0.1484307849998278
 40
0.169614868970584
 40
0.1907933407181582
 40
0.2119669497222473
 40
0.2331364766532446
 40
0.2543034182839259
 40
0.2754685412008604
 40
0.2754685412008604
 40
0.2754685412008604
 40
0.2754685412008604
 10
101.5948673858863
 20
-7.839938075500558
 30
0.0
 10
101.5943685444266
 20
-7.846991206841838
 30
0.0
 10
101.5932972193578
 20
-7.86109234205529
 30
0.0
 10
101.5914696889477
 20
-7.882225252410879
 30
0.0
 10
101.5894218333406
 20
-7.903336271041556
 30
0.0
 10
101.587154632513
 20
-7.924421543150206
 30
0.0
 10
101.5846683107155
 20
-7.945477628859126
 30
0.0
 10
101.5819631059681
 20
-7.966501137984469
 30
0.0
 10
101.5790394937636
 20
-7.98748926320221
 30
0.0
 10
101.5758978406103
 20
-8.008439779220257
 30
0.0
 10
101.5725386093307
 20
-8.029350784401575
 30
0.0
 10
101.5689619528403
 20
-8.050220774293823
 30
0.0
 10
101.5651687010776
 20
-8.071048584348407
 30
0.0
 10
101.5611589023311
 20
-8.091832887233781
 30
0.0
 10
101.5583411202466
 20
-8.10565968065234
 30
0.0
 10
101.5568961825863
 20
-8.112565168200578
 30
0.0
 11
101.5948673858863
 21
-7.839938075500558
 31
0.0
 11
101.5932605617862
 21
-7.86108944810056
 31
0.0
 11
101.5914332826863
 21
-7.882222776800521
 31
0.0
 11
101.5893859474863
 21
-7.903333558500552
 31
0.0
 11
101.5871188391862
 21
-7.924419148500536
 31
0.0
 11
101.5846324776863
 21
-7.945475110100549
 31
0.0
 11
101.5819273054864
 21
-7.966498267500558
 31
0.0
 11
101.5790036994864
 21
-7.98748617500053
 31
0.0
 11
101.5758621458864
 21
-8.00843600420055
 31
0.0
 11
101.5725029742863
 21
-8.029346355900518
 31
0.0
 11
101.5689265057864
 21
-8.050215696500519
 31
0.0
 11
101.5651330438863
 21
-8.071042589800558
 31
0.0
 11
101.5611228195863
 21
-8.091826265800566
 31
0.0
 11
101.5568961825863
 21
-8.112565168200578
 31
0.0
  0
SPLINE
  5
555FC
330
1F
100
AcDbEntity
  8
1
100
AcDbSpline
210
0.0
220
0.0
230
1.0
 70
     8
 71
     3
 72
    16
 73
    12
 74
    10
 42
0.0000000001
 43
0.0000000001
 44
0.000001
 12
-0.9996962433583492
 22
0.0246459127484515
 32
0.0
 13
-0.9996000911015123
 23
0.0282782225369379
 33
0.0
 40
0.0
 40
0.0
 40
0.0
 40
0.0
 40
0.1637618602780669
 40
0.3277414180042656
 40
0.4919281962052537
 40
0.6563135297889687
 40
0.8208888962267828
 40
0.9856442955217458
 40
1.150570143171777
 40
1.31565619556667
 40
1.480892119941619
 40
1.480892119941619
 40
1.480892119941619
 40
1.480892119941619
 10
96.14664209588624
 20
-9.798387295500535
 30
0.0
 10
96.09207139037778
 20
-9.797041941993885
 30
0.0
 10
95.9828581859125
 20
-9.79431892397611
 30
0.0
 10
95.81893525215321
 20
-9.790144705445843
 30
0.0
 10
95.65480669931639
 20
-9.785882077762639
 30
0.0
 10
95.49048160101369
 20
-9.781538383637329
 30
0.0
 10
95.3259688426773
 20
-9.777121612039199
 30
0.0
 10
95.16127771282061
 20
-9.772635869596886
 30
0.0
 10
94.99641801025211
 20
-9.768087420669903
 30
0.0
 10
94.83139958496019
 20
-9.763484428756388
 30
0.0
 10
94.72133590780572
 20
-9.760384358380665
 30
0.0
 10
94.66627929278628
 20
-9.758826832300488
 30
0.0
 11
96.14664209588624
 21
-9.798387295500535
 31
0.0
 11
95.98293105528625
 21
-9.794307249600567
 31
0.0
 11
95.81900460498639
 21
-9.790133635200536
 31
0.0
 11
95.6548731097863
 21
-9.785872163600519
 31
0.0
 11
95.49054507658627
 21
-9.781529607500576
 31
0.0
 11
95.32602900468635
 21
-9.777112306900509
 31
0.0
 11
95.16133472268633
 21
-9.77262675400053
 31
0.0
 11
94.99647161838641
 21
-9.768079551200546
 31
0.0
 11
94.83144974818641
 21
-9.763477340600505
 31
0.0
 11
94.66627929278628
 21
-9.758826832300488
 31
0.0
  0
SPLINE
  5
555FD
330
1F
100
AcDbEntity
  8
1
100
AcDbSpline
210
0.0
220
0.0
230
1.0
 70
     8
 71
     3
 72
    17
 73
    13
 74
    11
 42
0.0000000001
 43
0.0000000001
 44
0.000001
 12
-0.9995492550243911
 22
0.0300214386761347
 32
0.0
 13
-0.9994721208135452
 23
0.0324881473228999
 33
0.0
 40
0.0
 40
0.0
 40
0.0
 40
0.0
 40
0.1392979215172725
 40
0.278751503744328
 40
0.4183555683841112
 40
0.5581042733331173
 40
0.6979920413608001
 40
0.8380131354085818
 40
0.9781617522585802
 40
1.118431689016459
 40
1.258816639445009
 40
1.399309822882252
 40
1.399309822882252
 40
1.399309822882252
 40
1.399309822882252
 10
94.66627929278628
 20
-9.758826832300488
 30
0.0
 10
94.6198675815599
 20
-9.757432857630963
 30
0.0
 10
94.52699282861647
 20
-9.754625578832591
 30
0.0
 10
94.38760610854364
 20
-9.750363753841899
 30
0.0
 10
94.24807062653599
 20
-9.746050857366075
 30
0.0
 10
94.10839178336482
 20
-9.741691703387576
 30
0.0
 10
93.96857519438425
 20
-9.737290055102196
 30
0.0
 10
93.82862646188971
 20
-9.732849593993112
 30
0.0
 10
93.68855138742516
 20
-9.728374210422263
 30
0.0
 10
93.54835596997384
 20
-9.723867484704559
 30
0.0
 10
93.408046479498
 20
-9.719334633770845
 30
0.0
 10
93.31446969128966
 20
-9.71629802441436
 30
0.0
 10
93.26766335128638
 20
-9.714776570000569
 30
0.0
 11
94.66627929278628
 21
-9.758826832300488
 31
0.0
 11
94.52704489868631
 21
-9.754619995900529
 31
0.0
 11
94.38765642748638
 21
-9.750358551100507
 31
0.0
 11
94.24811895398637
 21
-9.746046390100534
 31
0.0
 11
94.10843822478637
 21
-9.74168745910055
 31
0.0
 11
93.96861972238628
 21
-9.737285728700502
 31
0.0
 11
93.82866906498623
 21
-9.732845205700559
 31
0.0
 11
93.6885919397863
 21
-9.72836992960055
 31
0.0
 11
93.54839441838635
 21
-9.723863981900567
 31
0.0
 11
93.40808266968634
 21
-9.719331476300542
 31
0.0
 11
93.26766335128638
 21
-9.714776570000569
 31
0.0
  0
SPLINE
  5
555FE
330
1F
100
AcDbEntity
  8
1
100
AcDbSpline
210
0.0
220
0.0
230
1.0
 70
     8
 71
     3
 72
    51
 73
    47
 74
    45
 42
0.0000000001
 43
0.0000000001
 44
0.000001
 12
0.9920984437143754
 22
0.125461858664354
 32
0.0
 13
0.987794970035512
 23
0.1557597418222757
 33
0.0
 40
0.0
 40
0.0
 40
0.0
 40
0.0
 40
0.004337127192218
 40
0.0086255241854078
 40
0.0128669465092453
 40
0.0170639554851467
 40
0.0212194754740538
 40
0.0253357886206
 40
0.029415795111151
 40
0.0334621347430358
 40
0.0374768070110892
 40
0.0414625634164899
 40
0.0454216618659246
 40
0.049355659022059
 40
0.0532669861141934
 40
0.0571580295661141
 40
0.0610311150805936
 40
0.0648890999507279
 40
0.0687347230930659
 40
0.0725704720333575
 40
0.0763970939473931
 40
0.080215287310537
 40
0.0840273043508213
 40
0.0878365205488176
 40
0.0916441470024964
 40
0.0954476132978739
 40
0.0992434393881553
 40
0.103029255259995
 40
0.1068042835058475
 40
0.1105709737721804
 40
0.1143322493864121
 40
0.1180900649977797
 40
0.1218457238554438
 40
0.1256013156500279
 40
0.1293583643273531
 40
0.1331188821547491
 40
0.1368851145538547
 40
0.1406590656352508
 40
0.1444428255175654
 40
0.1482382465000518
 40
0.1520473725220171
 40
0.1558720674826952
 40
0.159714668588863
 40
0.1635772520372853
 40
0.1674619424898176
 40
0.1713703407097385
 40
0.1713703407097385
 40
0.1713703407097385
 40
0.1713703407097385
 10
99.77037650918635
 20
-9.786257170600581
 30
0.0
 10
99.7718107948989
 20
-9.786075789254315
 30
0.0
 10
99.77466308595195
 20
-9.785713755830816
 30
0.0
 10
99.77891744111184
 20
-9.785169848762993
 30
0.0
 10
99.78312498784612
 20
-9.784628127731341
 30
0.0
 10
99.78728813594081
 20
-9.784088433391534
 30
0.0
 10
99.79140946807468
 20
-9.783550571995679
 30
0.0
 10
99.79549167765766
 20
-9.783014323526774
 30
0.0
 10
99.79953736281107
 20
-9.782479468994868
 30
0.0
 10
99.80354902704107
 20
-9.781945790928066
 30
0.0
 10
99.8075291236114
 20
-9.781413068491136
 30
0.0
 10
99.81147997853907
 20
-9.780881088304656
 30
0.0
 10
99.81540377052363
 20
-9.780349647784564
 30
0.0
 10
99.81930257156774
 20
-9.779818550822287
 30
0.0
 10
99.82317849523941
 20
-9.779287587979045
 30
0.0
 10
99.82703390813652
 20
-9.778756507150351
 30
0.0
 10
99.83087131656066
 20
-9.778225028775498
 30
0.0
 10
99.83469334216273
 20
-9.777692848874099
 30
0.0
 10
99.83850265894659
 20
-9.777159647609042
 30
0.0
 10
99.84230124335624
 20
-9.776625195006975
 30
0.0
 10
99.84609039765803
 20
-9.776089350567705
 30
0.0
 10
99.84987134603125
 20
-9.775551981221386
 30
0.0
 10
99.85364617947437
 20
-9.775012826143811
 30
0.0
 10
99.85741715726783
 20
-9.774471593772407
 30
0.0
 10
99.86118494675668
 20
-9.773928215706494
 30
0.0
 10
99.86494795363729
 20
-9.773382950257573
 30
0.0
 10
99.86870340314011
 20
-9.772836232760599
 30
0.0
 10
99.87244911297739
 20
-9.772288419236875
 30
0.0
 10
99.87618485722499
 20
-9.771739583365221
 30
0.0
 10
99.87991215549881
 20
-9.771189540757891
 30
0.0
 10
99.88363342759146
 20
-9.770637968560667
 30
0.0
 10
99.88735071444194
 20
-9.77008459383072
 30
0.0
 10
99.89106578147028
 20
-9.76952917971349
 30
0.0
 10
99.89478025150255
 20
-9.76897150625027
 30
0.0
 10
99.89849598048534
 20
-9.768411314123117
 30
0.0
 10
99.90221487505586
 20
-9.767848331804064
 30
0.0
 10
99.90593899941599
 20
-9.767282259058138
 30
0.0
 10
99.90967044271133
 20
-9.766712786893922
 30
0.0
 10
99.91341116385592
 20
-9.766139621418094
 30
0.0
 10
99.91716313423092
 20
-9.76556246233142
 30
0.0
 10
99.92092825004419
 20
-9.764981016523368
 30
0.0
 10
99.92470856660588
 20
-9.764394962003255
 30
0.0
 10
99.92850614917244
 20
-9.763803970714835
 30
0.0
 10
99.93232314819977
 20
-9.763207696765537
 30
0.0
 10
99.93616147091131
 20
-9.762605827854319
 30
0.0
 10
99.93872757738541
 20
-9.762201941599759
 30
0.0
 10
99.94001447608628
 20
-9.761999017900539
 30
0.0
 11
99.77037650918635
 21
-9.786257170600581
 31
0.0
 11
99.77467912278633
 21
-9.785711066000491
 31
0.0
 11
99.77893291118641
 21
-9.785167242400522
 31
0.0
 11
99.78313963098628
 21
-9.784625636400509
 31
0.0
 11
99.78730183708638
 21
-9.784086070900546
 31
0.0
 11
99.79142244328626
 21
-9.783548309900513
 31
0.0
 11
99.79550372538632
 21
-9.783012188300549
 31
0.0
 11
99.79954857088637
 21
-9.782477449400548
 31
0.0
 11
99.80355960798636
 21
-9.781943859300529
 31
0.0
 11
99.80753882918634
 21
-9.781411258800549
 31
0.0
 11
99.81148897138632
 21
-9.78087937960058
 31
0.0
 11
99.81541228128628
 21
-9.780348009800579
 31
0.0
 11
99.81931030988642
 21
-9.779817024000525
 31
0.0
 11
99.82318547398643
 21
-9.779286171500505
 31
0.0
 11
99.82704014508636
 21
-9.778755199600514
 31
0.0
 11
99.8308766335864
 21
-9.778223855700506
 31
0.0
 11
99.83469777548634
 21
-9.777691806100538
 31
0.0
 11
99.83850628848632
 21
-9.77715872480056
 31
0.0
 11
99.84230464028634
 21
-9.77662431230053
 31
0.0
 11
99.84609357458635
 21
-9.776088506300514
 31
0.0
 11
99.84987378658628
 21
-9.775551248500537
 31
0.0
 11
99.85364750938641
 21
-9.775012258400497
 31
0.0
 11
99.85741808708633
 21
-9.774471089200549
 31
0.0
 11
99.86118672038641
 21
-9.773927594200561
 31
0.0
 11
99.86495086738637
 21
-9.773382167100525
 31
0.0
 11
99.8687070871863
 21
-9.77283533980054
 31
0.0
 11
99.87245303858628
 21
-9.772287492100563
 31
0.0
 11
99.87618795698631
 21
-9.771738777800553
 31
0.0
 11
99.8799142703864
 21
-9.771188879800522
 31
0.0
 11
99.88363487448635
 21
-9.770637405100533
 31
0.0
 11
99.88735170588633
 21
-9.770084096100536
 31
0.0
 11
99.89106605628638
 21
-9.769528786500561
 31
0.0
 11
99.89477999468636
 21
-9.768971189900558
 31
0.0
 11
99.8984950299863
 21
-9.768411099200566
 31
0.0
 11
99.90221315338636
 21
-9.767848230300533
 31
0.0
 11
99.9059365859863
 21
-9.767282259600481
 31
0.0
 11
99.90966730958632
 21
-9.76671289450056
 31
0.0
 11
99.91340739038617
 21
-9.766139824900509
 31
0.0
 11
99.91715865888636
 21
-9.765562772200556
 31
0.0
 11
99.92092313448631
 21
-9.764981424900529
 31
0.0
 11
99.92470265798637
 21
-9.764395494200531
 31
0.0
 11
99.9284995373863
 21
-9.763804615000569
 31
0.0
 11
99.93231582208625
 21
-9.763208457400541
 31
0.0
 11
99.93615360878642
 21
-9.762606679800544
 31
0.0
 11
99.94001447608628
 21
-9.761999017900539
 31
0.0
  0
SPLINE
  5
555FF
330
1F
100
AcDbEntity
  8
1
100
AcDbSpline
210
0.0
220
0.0
230
1.0
 70
     8
 71
     3
 72
    46
 73
    42
 74
    40
 42
0.0000000001
 43
0.0000000001
 44
0.000001
 12
0.9782223854983003
 22
0.2075595444926938
 32
0.0
 13
0.9732252220544843
 23
0.2298535776467269
 33
0.0
 40
0.0
 40
0.0
 40
0.0
 40
0.0
 40
0.0040736484003983
 40
0.0081108059046039
 40
0.0121134571729636
 40
0.0160846197031517
 40
0.0200272021203239
 40
0.023942465802834
 40
0.0278318939417982
 40
0.0316982854989825
 40
0.0355444703349093
 40
0.0393721880243188
 40
0.0431838581217865
 40
0.0469822452948487
 40
0.0507681400121131
 40
0.0545423578273261
 40
0.0583079057903255
 40
0.0620683586735521
 40
0.0658264700916981
 40
0.0695800952633173
 40
0.073326465019127
 40
0.077062822179447
 40
0.0807863067578735
 40
0.0844987187992246
 40
0.088203460518654
 40
0.0919041271414983
 40
0.0956013162920524
 40
0.0992948589234487
 40
0.1029851037894451
 40
0.1066749104892475
 40
0.1103669371564869
 40
0.1140641391027522
 40
0.1177678160976169
 40
0.1214798577511201
 40
0.1252020564035022
 40
0.1289365618103894
 40
0.1326852815623547
 40
0.1364501190322801
 40
0.1402329339066753
 40
0.1440354859918057
 40
0.147860232740483
 40
0.147860232740483
 40
0.147860232740483
 40
0.147860232740483
 10
99.94001447608628
 20
-9.761999017900539
 30
0.0
 10
99.94134278743821
 20
-9.76171717636507
 30
0.0
 10
99.94398730760099
 20
-9.761155056958845
 30
0.0
 10
99.94793628421042
 20
-9.760312697715281
 30
0.0
 10
99.95185125936803
 20
-9.759474698693939
 30
0.0
 10
99.95573482846328
 20
-9.758640596316784
 30
0.0
 10
99.95958934946953
 20
-9.757809968904101
 30
0.0
 10
99.96341667897116
 20
-9.756982495326386
 30
0.0
 10
99.9672186366887
 20
-9.756157856367995
 30
0.0
 10
99.97099755200782
 20
-9.755335615569638
 30
0.0
 10
99.9747558363191
 20
-9.754515310935037
 30
0.0
 10
99.97849577605371
 20
-9.753696500595683
 30
0.0
 10
99.98221963510616
 20
-9.752878740979671
 30
0.0
 10
99.98592936706666
 20
-9.752061650102778
 30
0.0
 10
99.989626402363
 20
-9.75124495608907
 30
0.0
 10
99.99331224958394
 20
-9.750428366031659
 30
0.0
 10
99.99698932243916
 20
-9.749611381451959
 30
0.0
 10
100.0006606637833
 20
-9.748793356773493
 30
0.0
 10
100.0043276388966
 20
-9.747974013399446
 30
0.0
 10
100.007989549005
 20
-9.747153532356325
 30
0.0
 10
100.011643903686
 20
-9.746332499856951
 30
0.0
 10
100.0152879812732
 20
-9.745511560233186
 30
0.0
 10
100.0189205471428
 20
-9.744691028235653
 30
0.0
 10
100.0225423696068
 20
-9.743870767160647
 30
0.0
 10
100.0261563146554
 20
-9.743050160774945
 30
0.0
 10
100.0297648559368
 20
-9.742228674856878
 30
0.0
 10
100.0333693053323
 20
-9.741406034672056
 30
0.0
 10
100.0369699193181
 20
-9.740582204467646
 30
0.0
 10
100.0405676891823
 20
-9.739756979359757
 30
0.0
 10
100.0441645240937
 20
-9.738929940761071
 30
0.0
 10
100.0477631788643
 20
-9.738100470412778
 30
0.0
 10
100.0513659003974
 20
-9.737268061315237
 30
0.0
 10
100.0549746849999
 20
-9.736432259730808
 30
0.0
 10
100.0585911504989
 20
-9.735592695783854
 30
0.0
 10
100.0622171899302
 20
-9.73474893210994
 30
0.0
 10
100.0658547013141
 20
-9.733900526271899
 30
0.0
 10
100.0695056178567
 20
-9.733047023718516
 30
0.0
 10
100.0731717777806
 20
-9.73218798832946
 30
0.0
 10
100.0768549705556
 20
-9.731322991825525
 30
0.0
 10
100.0805571646491
 20
-9.730451560349369
 30
0.0
 10
100.0830316705851
 20
-9.729867791308496
 30
0.0
 10
100.0842724505863
 20
-9.729574747400565
 30
0.0
 11
99.94001447608628
 21
-9.761999017900539
 31
0.0
 11
99.94399910778623
 21
-9.761152058500531
 31
0.0
 11
99.94794744718626
 21
-9.760309855300565
 31
0.0
 11
99.95186145258628
 21
-9.759472089000528
 31
0.0
 11
99.95574409068638
 21
-9.75863821570056
 31
0.0
 11
99.95959821988629
 21
-9.757807704700528
 31
0.0
 11
99.96342508698639
 21
-9.756980365300538
 31
0.0
 11
99.96722615468627
 21
-9.756155954900552
 31
0.0
 11
99.97100417038632
 21
-9.755333945800462
 31
0.0
 11
99.97476191008638
 21
-9.75451379570055
 31
0.0
 11
99.9785010831863
 21
-9.753695187800506
 31
0.0
 11
99.98222406228627
 21
-9.752877654500569
 31
0.0
 11
99.98593355558625
 21
-9.752060646900563
 31
0.0
 11
99.98963034228632
 21
-9.751244035700526
 31
0.0
 11
99.99331522558634
 21
-9.750427683500536
 31
0.0
 11
99.9969911475863
 21
-9.749610975200486
 31
0.0
 11
100.0006616028862
 21
-9.748793164500543
 31
0.0
 11
100.0043292829863
 21
-9.747973676200533
 31
0.0
 11
100.0079920983863
 21
-9.747153000800583
 31
0.0
 11
100.0116473515862
 21
-9.746331770700525
 31
0.0
 11
100.0152923582863
 21
-9.745510622000526
 31
0.0
 11
100.0189243352863
 21
-9.744690219200581
 31
0.0
 11
100.0225450454863
 21
-9.743870202300545
 31
0.0
 11
100.0261578131864
 21
-9.743049851800581
 31
0.0
 11
100.0297661491863
 21
-9.742228397600545
 31
0.0
 11
100.0333706402863
 21
-9.741405729500545
 31
0.0
 11
100.0369711257864
 21
-9.740581907400528
 31
0.0
 11
100.0405679496863
 21
-9.73975687520053
 31
0.0
 11
100.0441639027864
 21
-9.738930013100489
 31
0.0
 11
100.0477615781864
 21
-9.738100740300556
 31
0.0
 11
100.0513638573862
 21
-9.737268403900518
 31
0.0
 11
100.0549720077863
 21
-9.736432718900548
 31
0.0
 11
100.0585878707862
 21
-9.73559326430055
 31
0.0
 11
100.0622131923863
 21
-9.734749638100513
 31
0.0
 11
100.0658500658863
 21
-9.733901353600519
 31
0.0
 11
100.0695003478863
 21
-9.733047975200552
 31
0.0
 11
100.0731658901862
 21
-9.732189065100502
 31
0.0
 11
100.0768485012862
 21
-9.731324192000531
 31
0.0
 11
100.0805498917863
 21
-9.730452944400528
 31
0.0
 11
100.0842724505863
 21
-9.729574747400565
 31
0.0
  0
SPLINE
  5
55600
330
1F
100
AcDbEntity
  8
1
100
AcDbSpline
210
0.0
220
0.0
230
1.0
 70
     8
 71
     3
 72
    46
 73
    42
 74
    40
 42
0.0000000001
 43
0.0000000001
 44
0.000001
 12
0.9591977425440447
 22
0.2827360795837851
 32
0.0
 13
0.9529761039563
 23
0.3030454508621958
 33
0.0
 40
0.0
 40
0.0
 40
0.0
 40
0.0
 40
0.0041072006853248
 40
0.0081750302865209
 40
0.0122062631024186
 40
0.0162040920298497
 40
0.02017068124724
 40
0.0241078454937832
 40
0.0280184278304326
 40
0.0319051096953416
 40
0.0357690238194864
 40
0.0396116054819521
 40
0.0434351980772328
 40
0.0472423129121194
 40
0.051035264787309
 40
0.0548178075191629
 40
0.0585934984243584
 40
0.0623647590154941
 40
0.0661302983793563
 40
0.0698882907658125
 40
0.073637387314646
 40
0.0773762121794086
 40
0.0811019609982561
 40
0.0848151604236656
 40
0.0885181878864265
 40
0.092213657682486
 40
0.0959027949874089
 40
0.0995878229635337
 40
0.103271223896727
 40
0.1069559283332574
 40
0.1106433715671148
 40
0.1143340717794518
 40
0.1180294151852758
 40
0.1217323982619888
 40
0.1254444915589264
 40
0.1291672756406931
 40
0.1329041677492129
 40
0.1366568597330667
 40
0.1404264361692431
 40
0.1442140856872704
 40
0.1480229930160565
 40
0.1480229930160565
 40
0.1480229930160565
 40
0.1480229930160565
 10
100.0842724505863
 20
-9.729574747400565
 30
0.0
 10
100.0855856564616
 20
-9.72918766279395
 30
0.0
 10
100.0881992205846
 20
-9.728416323751478
 30
0.0
 10
100.0921008056009
 20
-9.727262027972987
 30
0.0
 10
100.0959666811701
 20
-9.726115542724134
 30
0.0
 10
100.0997994688362
 20
-9.724976180821474
 30
0.0
 10
100.1036014813535
 20
-9.723843338301808
 30
0.0
 10
100.1073749178084
 20
-9.72271643772132
 30
0.0
 10
100.1111221405955
 20
-9.721594845564002
 30
0.0
 10
100.1148452923697
 20
-9.720477986658725
 30
0.0
 10
100.1185460647216
 20
-9.719365415059375
 30
0.0
 10
100.1222260400624
 20
-9.718256712768866
 30
0.0
 10
100.1258872394147
 20
-9.717151324387746
 30
0.0
 10
100.1295319628169
 20
-9.716048604100993
 30
0.0
 10
100.1331629585237
 20
-9.714947763848588
 30
0.0
 10
100.1367833064035
 20
-9.713847907428633
 30
0.0
 10
100.1403961181203
 20
-9.712748120764533
 30
0.0
 10
100.1440028948197
 20
-9.711647973340408
 30
0.0
 10
100.1476034207843
 20
-9.710547556150604
 30
0.0
 10
100.1511962789415
 20
-9.709447329217514
 30
0.0
 10
100.1547800261008
 20
-9.708347763839444
 30
0.0
 10
100.1583529081755
 20
-9.707249429990131
 30
0.0
 10
100.1619137697092
 20
-9.70615271724603
 30
0.0
 10
100.1654626514087
 20
-9.705057648392742
 30
0.0
 10
100.1690013193252
 20
-9.703963711635939
 30
0.0
 10
100.1725317606516
 20
-9.702870322033707
 30
0.0
 10
100.1760559121977
 20
-9.701776905663425
 30
0.0
 10
100.1795756675592
 20
-9.700682897704414
 30
0.0
 10
100.1830934618373
 20
-9.699587560226863
 30
0.0
 10
100.1866114778921
 20
-9.698490228496357
 30
0.0
 10
100.1901312723599
 20
-9.697390428749915
 30
0.0
 10
100.1936539097713
 20
-9.696287838269174
 30
0.0
 10
100.1971809506204
 20
-9.69518197669544
 30
0.0
 10
100.2007142572805
 20
-9.694072265333918
 30
0.0
 10
100.2042557527967
 20
-9.692958102434634
 30
0.0
 10
100.2078074929478
 20
-9.691838840767278
 30
0.0
 10
100.2113716026304
 20
-9.690713806981765
 30
0.0
 10
100.2149500478474
 20
-9.689582373585071
 30
0.0
 10
100.218544085396
 20
-9.688444134187225
 30
0.0
 10
100.2221554457477
 20
-9.687298529900804
 30
0.0
 10
100.2245687379307
 20
-9.68653172784673
 30
0.0
 10
100.2257786704863
 20
-9.686146970500491
 30
0.0
 11
100.0842724505863
 21
-9.729574747400565
 31
0.0
 11
100.0882116830863
 21
-9.728412181200528
 31
0.0
 11
100.0921123935862
 21
-9.72725817260056
 31
0.0
 11
100.0959772660864
 21
-9.726112023100487
 31
0.0
 11
100.0998093834863
 21
-9.724972906300511
 31
0.0
 11
100.1036108403863
 21
-9.723840280800519
 31
0.0
 11
100.1073833948863
 21
-9.722713699000539
 31
0.0
 11
100.1111297885862
 21
-9.7215924124005
 31
0.0
 11
100.1148526062862
 21
-9.720475711800563
 31
0.0
 11
100.1185529476863
 21
-9.719363326900552
 31
0.0
 11
100.1222322013862
 21
-9.718254897100539
 31
0.0
 11
100.1258926241863
 21
-9.717149795100542
 31
0.0
 11
100.1295366320862
 21
-9.716047339600525
 31
0.0
 11
100.1331664511864
 21
-9.714946899900528
 31
0.0
 11
100.1367856828861
 21
-9.713847421500563
 31
0.0
 11
100.1403977380863
 21
-9.712747898600557
 31
0.0
 11
100.1440049390863
 21
-9.711647649300548
 31
0.0
 11
100.1476060566863
 21
-9.710547072700567
 31
0.0
 11
100.1511993510863
 21
-9.709446726900555
 31
0.0
 11
100.1547835396862
 21
-9.708347034100629
 31
0.0
 11
100.1583573148863
 21
-9.707248426800536
 31
0.0
 11
100.1619180048864
 21
-9.70615176110056
 31
0.0
 11
100.1654661222864
 21
-9.705056915500509
 31
0.0
 11
100.1690039473864
 21
-9.703963220000506
 31
0.0
 11
100.1725339852863
 21
-9.702869929600499
 31
0.0
 11
100.1760574128863
 21
-9.701776706000547
 31
0.0
 11
100.1795763592863
 21
-9.700682911900518
 31
0.0
 11
100.1830931996863
 21
-9.699587828600531
 31
0.0
 11
100.1866107357863
 21
-9.698490599200514
 31
0.0
 11
100.1901303405863
 21
-9.697390807800534
 31
0.0
 11
100.1936525111863
 21
-9.69628831020049
 31
0.0
 11
100.1971785726863
 21
-9.695182701500559
 31
0.0
 11
100.2007113855862
 21
-9.694073091400557
 31
0.0
 11
100.2042523532862
 21
-9.692959042600538
 31
0.0
 11
100.2078029833864
 21
-9.691840082300561
 31
0.0
 11
100.2113665340863
 21
-9.690715181900575
 31
0.0
 11
100.2149446167863
 21
-9.689583827500516
 31
0.0
 11
100.2185382631863
 21
-9.688445686000537
 31
0.0
 11
100.2221486036864
 21
-9.687300391200526
 31
0.0
 11
100.2257786704863
 21
-9.686146970500491
 31
0.0
  0
SPLINE
  5
55601
330
1F
100
AcDbEntity
  8
1
100
AcDbSpline
210
0.0
220
0.0
230
1.0
 70
     8
 71
     3
 72
    46
 73
    42
 74
    40
 42
0.0000000001
 43
0.0000000001
 44
0.000001
 12
0.934654589246212
 22
0.3555570260886354
 32
0.0
 13
0.9270502599381027
 23
0.3749370821200486
 33
0.0
 40
0.0
 40
0.0
 40
0.0
 40
0.0
 40
0.0041489707828624
 40
0.0082565603931789
 40
0.0123250116902178
 40
0.0163580731550204
 40
0.0203579126050656
 40
0.0243260303253977
 40
0.0282643136393785
 40
0.0321762600407963
 40
0.0360641228160973
 40
0.0399300050653113
 40
0.0437770990339963
 40
0.0476067487896223
 40
0.0514199296420906
 40
0.0552194179635506
 40
0.0590082029416575
 40
0.0627890717001582
 40
0.0665617949562703
 40
0.0703261004419877
 40
0.0740815003526494
 40
0.0778261335241505
 40
0.081558030306536
 40
0.0852767775455631
 40
0.0889843882534463
 40
0.0926825609917724
 40
0.0963738986539912
 40
0.1000595777609762
 40
0.1037414501407085
 40
0.1074215742909802
 40
0.1111020975761075
 40
0.11478498873717
 40
0.1184721199178577
 40
0.1221653977690307
 40
0.125866410926024
 40
0.1295774299286456
 40
0.1333003117464787
 40
0.1370373136132909
 40
0.14078950981983
 40
0.1445591218300182
 40
0.1483484900644252
 40
0.1483484900644252
 40
0.1483484900644252
 40
0.1483484900644252
 10
100.2257786704863
 20
-9.686146970500491
 30
0.0
 10
100.2270712886806
 20
-9.685655238596186
 30
0.0
 10
100.2296433128685
 20
-9.684675838259952
 30
0.0
 10
100.2334817654813
 20
-9.683211352503523
 30
0.0
 10
100.2372831957858
 20
-9.681758219888113
 30
0.0
 10
100.2410501735006
 20
-9.680315550516557
 30
0.0
 10
100.2447850343829
 20
-9.678882535278408
 30
0.0
 10
100.2484895327027
 20
-9.677458581099106
 30
0.0
 10
100.2521658344427
 20
-9.676042930391677
 30
0.0
 10
100.2558163374123
 20
-9.674634728864365
 30
0.0
 10
100.2594435040234
 20
-9.673233089619007
 30
0.0
 10
100.2630496994744
 20
-9.671837156258707
 30
0.0
 10
100.2666370040836
 20
-9.670446175809335
 30
0.0
 10
100.270207145755
 20
-9.669059526101225
 30
0.0
 10
100.2737617217084
 20
-9.667676631224342
 30
0.0
 10
100.2773028385863
 20
-9.666296712093387
 30
0.0
 10
100.2808331636116
 20
-9.664918764708691
 30
0.0
 10
100.2843544285521
 20
-9.66354214374758
 30
0.0
 10
100.2878673514691
 20
-9.662166596608617
 30
0.0
 10
100.2913716337065
 20
-9.660792268046694
 30
0.0
 10
100.2948664705333
 20
-9.65941950217709
 30
0.0
 10
100.2983505313915
 20
-9.658048851908379
 30
0.0
 10
100.3018225100155
 20
-9.656680863823854
 30
0.0
 10
100.3052823023508
 20
-9.655315612828051
 30
0.0
 10
100.3087309413422
 20
-9.653952723918596
 30
0.0
 10
100.312170393698
 20
-9.652591449401771
 30
0.0
 10
100.3156023652883
 20
-9.651231140127183
 30
0.0
 10
100.3190286080726
 20
-9.649871124493959
 30
0.0
 10
100.3224507040473
 20
-9.648510794504435
 30
0.0
 10
100.3258705345816
 20
-9.647149419151819
 30
0.0
 10
100.3292900157688
 20
-9.645786249233427
 30
0.0
 10
100.3327110045422
 20
-9.644420554843495
 30
0.0
 10
100.3361352819355
 20
-9.643051632331722
 30
0.0
 10
100.339564510028
 20
-9.641678821778729
 30
0.0
 10
100.343000472937
 20
-9.640301410771346
 30
0.0
 10
100.3464449380985
 20
-9.638918689768136
 30
0.0
 10
100.349899878414
 20
-9.637529862808893
 30
0.0
 10
100.3533668954536
 20
-9.636134279283201
 30
0.0
 10
100.3568477023423
 20
-9.634731240335842
 30
0.0
 10
100.360344036715
 20
-9.633320033790685
 30
0.0
 10
100.3626801086173
 20
-9.63237586455688
 30
0.0
 10
100.3638510868862
 20
-9.63190227300058
 30
0.0
 11
100.2257786704863
 21
-9.686146970500491
 31
0.0
 11
100.2296560496863
 21
-9.684670521300549
 31
0.0
 11
100.2334938182863
 21
-9.683206329000487
 31
0.0
 11
100.2372941020863
 21
-9.681753679700538
 31
0.0
 11
100.2410604302863
 21
-9.680311313600501
 31
0.0
 11
100.2447948528863
 21
-9.678878527700565
 31
0.0
 11
100.2484987948863
 21
-9.677454853100559
 31
0.0
 11
100.2521740408863
 21
-9.67603967730054
 31
0.0
 11
100.2558238757864
 21
-9.674631802800579
 31
0.0
 11
100.2594504208863
 21
-9.673230472400522
 31
0.0
 11
100.2630556554862
 21
-9.671834977800561
 31
0.0
 11
100.2666425722863
 21
-9.67044421130058
 31
0.0
 11
100.2702124387863
 21
-9.66905772790054
 31
0.0
 11
100.2737661775862
 21
-9.667675212900551
 31
0.0
 11
100.2773063884864
 21
-9.666295695000574
 31
0.0
 11
100.2808358671863
 21
-9.664918119300498
 31
0.0
 11
100.2843572188863
 21
-9.663541498400551
 31
0.0
 11
100.2878702380864
 21
-9.66216593960053
 31
0.0
 11
100.2913746794863
 21
-9.660791566300563
 31
0.0
 11
100.2948700973863
 21
-9.659418581100542
 31
0.0
 11
100.2983547686864
 21
-9.65804769080049
 31
0.0
 11
100.3018268706863
 21
-9.656679645200572
 31
0.0
 11
100.3052860299864
 21
-9.65531462630054
 31
0.0
 11
100.3087341294863
 21
-9.653951924100542
 31
0.0
 11
100.3121727584863
 21
-9.652590941100502
 31
0.0
 11
100.3156043453863
 21
-9.651230742400546
 31
0.0
 11
100.3190299912863
 21
-9.649870915300514
 31
0.0
 11
100.3224514237863
 21
-9.648510794900548
 31
0.0
 11
100.3258705612863
 21
-9.647149636700564
 31
0.0
 11
100.3292894031864
 21
-9.645786659300572
 31
0.0
 11
100.3327097815863
 21
-9.644421143900476
 31
0.0
 11
100.3361334375863
 21
-9.643052404200549
 31
0.0
 11
100.3395621430863
 21
-9.641679737900549
 31
0.0
 11
100.3429973735863
 21
-9.640302557900557
 31
0.0
 11
100.3464412362863
 21
-9.63892002020049
 31
0.0
 11
100.3498954533863
 21
-9.637531431800486
 31
0.0
 11
100.3533621170863
 21
-9.636135946900569
 31
0.0
 11
100.3568422211864
 21
-9.634733158800546
 31
0.0
 11
100.3603378224862
 21
-9.633322229400537
 31
0.0
 11
100.3638510868862
 21
-9.63190227300058
 31
0.0
  0
SPLINE
  5
55602
330
1F
100
AcDbEntity
  8
1
100
AcDbSpline
210
0.0
220
0.0
230
1.0
 70
     8
 71
     3
 72
    46
 73
    42
 74
    40
 42
0.0000000001
 43
0.0000000001
 44
0.000001
 12
0.9048663183377422
 22
0.4256958373509188
 32
0.0
 13
0.8954624942028466
 23
0.4451369693431638
 33
0.0
 40
0.0
 40
0.0
 40
0.0
 40
0.0
 40
0.0041898318147985
 40
0.0083356622691775
 40
0.0124407086068523
 40
0.0165080840728316
 40
0.0205393342853316
 40
0.0245362547388145
 40
0.0285016149438541
 40
0.0324382540901617
 40
0.0363487309727849
 40
0.0402357613822865
 40
0.0441017546842465
 40
0.0479498487080815
 40
0.0517823015241722
 40
0.0556009111708921
 40
0.0594082428771084
 40
0.0632062342246502
 40
0.066994092501444
 40
0.0707708004453524
 40
0.0745356841702907
 40
0.0782867511412631
 40
0.0820211458585211
 40
0.0857403735664686
 40
0.0894485139436913
 40
0.0931487961937373
 40
0.0968419744212341
 40
0.1005285228851405
 40
0.1042099377597689
 40
0.1078889159230324
 40
0.1115665657129943
 40
0.1152435094231895
 40
0.1189212070487303
 40
0.122602605100466
 40
0.1262903366172111
 40
0.1299872301998854
 40
0.1336957407495542
 40
0.1374184733912704
 40
0.1411564978285367
 40
0.1449103717262422
 40
0.1486816431750512
 40
0.1486816431750512
 40
0.1486816431750512
 40
0.1486816431750512
 10
100.3638510868862
 20
-9.63190227300058
 30
0.0
 10
100.3651148327825
 20
-9.631307741679652
 30
0.0
 10
100.3676286599753
 20
-9.630124087585247
 30
0.0
 10
100.3713793036445
 20
-9.628355054576136
 30
0.0
 10
100.3750918932201
 20
-9.626601028486593
 30
0.0
 10
100.3787688387147
 20
-9.624860968556166
 30
0.0
 10
100.3824121186603
 20
-9.623134029823237
 30
0.0
 10
100.3860236054519
 20
-9.621419410674693
 30
0.0
 10
100.3896055582628
 20
-9.619716118548016
 30
0.0
 10
100.3931604629432
 20
-9.618023044876881
 30
0.0
 10
100.396690786053
 20
-9.616339082037516
 30
0.0
 10
100.4001988618479
 20
-9.614663177644022
 30
0.0
 10
100.4036871958632
 20
-9.612994189921128
 30
0.0
 10
100.4071581530728
 20
-9.611331036672087
 30
0.0
 10
100.4106139119556
 20
-9.6096727179353
 30
0.0
 10
100.4140564765495
 20
-9.608018311286631
 30
0.0
 10
100.4174877523652
 20
-9.606366935809521
 30
0.0
 10
100.4209088648014
 20
-9.604718080930272
 30
0.0
 10
100.4243198627057
 20
-9.603071752777115
 30
0.0
 10
100.4277200113148
 20
-9.601428336482971
 30
0.0
 10
100.4311082166135
 20
-9.599788392866006
 30
0.0
 10
100.4344828343213
 20
-9.598152752240057
 30
0.0
 10
100.437842875427
 20
-9.596521931365916
 30
0.0
 10
100.4411891722092
 20
-9.59489556386271
 30
0.0
 10
100.4445243792772
 20
-9.593272392827348
 30
0.0
 10
100.4478509231963
 20
-9.591651264862495
 30
0.0
 10
100.4511701480928
 20
-9.590031548697343
 30
0.0
 10
100.4544828778653
 20
-9.588412864154467
 30
0.0
 10
100.457790517236
 20
-9.586794544603638
 30
0.0
 10
100.4610946591793
 20
-9.585175827198245
 30
0.0
 10
100.4643966335116
 20
-9.583556073999407
 30
0.0
 10
100.4676973987957
 20
-9.581934826372251
 30
0.0
 10
100.4709984624824
 20
-9.580311353325644
 30
0.0
 10
100.4743019317186
 20
-9.578684624486957
 30
0.0
 10
100.4776103206568
 20
-9.577053403322228
 30
0.0
 10
100.4809259940679
 20
-9.575416520874657
 30
0.0
 10
100.4842513060792
 20
-9.573772807644363
 30
0.0
 10
100.4875880830894
 20
-9.572121349622822
 30
0.0
 10
100.4909375831321
 20
-9.570461510147968
 30
0.0
 10
100.4943007475286
 20
-9.568792807034046
 30
0.0
 10
100.496547187207
 20
-9.567676792448313
 30
0.0
 10
100.4976728645863
 20
-9.567117215000539
 30
0.0
 11
100.3638510868862
 21
-9.63190227300058
 31
0.0
 11
100.3676417392863
 21
-9.630117432400485
 31
0.0
 11
100.3713914286862
 21
-9.628348882700581
 31
0.0
 11
100.3751031025863
 21
-9.626595336500574
 31
0.0
 11
100.3787796103863
 21
-9.624855541800545
 31
0.0
 11
100.3824223815862
 21
-9.623128910600573
 31
0.0
 11
100.3860330692863
 21
-9.62141474290053
 31
0.0
 11
100.3896142039863
 21
-9.619711915400532
 31
0.0
 11
100.3931683758864
 21
-9.618019267800551
 31
0.0
 11
100.3966979189863
 21
-9.616335753700557
 31
0.0
 11
100.4002053061863
 21
-9.614660253000497
 31
0.0
 11
100.4036927310864
 21
-9.612991771600579
 31
0.0
 11
100.4071630415864
 21
-9.611328994900564
 31
0.0
 11
100.4106182892864
 21
-9.609670982200501
 31
0.0
 11
100.4140601089863
 21
-9.608016987400535
 31
0.0
 11
100.4174908247863
 21
-9.606365927400563
 31
0.0
 11
100.4209121929863
 21
-9.604716986500509
 31
0.0
 11
100.4243235094862
 21
-9.603070532500542
 31
0.0
 11
100.4277238687863
 21
-9.601427032400525
 31
0.0
 11
100.4311126754863
 21
-9.599786805600505
 31
0.0
 11
100.4344881484863
 21
-9.598150748400573
 31
0.0
 11
100.4378477321863
 21
-9.596520137600553
 31
0.0
 11
100.4411927952864
 21
-9.594894348300531
 31
0.0
 11
100.4445270195864
 21
-9.593271625300506
 31
0.0
 11
100.4478533184863
 21
-9.591650577900541
 31
0.0
 11
100.4511723784863
 21
-9.590030895600509
 31
0.0
 11
100.4544846339863
 21
-9.588412389300518
 31
0.0
 11
100.4577914366863
 21
-9.58679441940055
 31
0.0
 11
100.4610952152862
 21
-9.585175815400507
 31
0.0
 11
100.4643969698863
 21
-9.583556101400493
 31
0.0
 11
100.4676972635864
 21
-9.581935014200528
 31
0.0
 11
100.4709974106863
 21
-9.580311919800497
 31
0.0
 11
100.4743000574864
 21
-9.578685524200498
 31
0.0
 11
100.4776075667863
 21
-9.577054667200489
 31
0.0
 11
100.4809224744863
 21
-9.575418097400561
 31
0.0
 11
100.4842469791863
 21
-9.573774724300537
 31
0.0
 11
100.4875834120863
 21
-9.572123386600569
 31
0.0
 11
100.4909327266863
 21
-9.57046360080054
 31
0.0
 11
100.4942954172863
 21
-9.568795109900495
 31
0.0
 11
100.4976728645863
 21
-9.567117215000539
 31
0.0
  0
SPLINE
  5
55603
330
1F
100
AcDbEntity
  8
1
100
AcDbSpline
210
0.0
220
0.0
230
1.0
 70
     8
 71
     3
 72
    47
 73
    43
 74
    41
 42
0.0000000001
 43
0.0000000001
 44
0.000001
 12
0.8701112419890822
 22
0.4928553809833235
 32
0.0
 13
0.858239587974398
 23
0.5132492665689215
 33
0.0
 40
0.0
 40
0.0
 40
0.0
 40
0.0
 40
0.0041278870644202
 40
0.0082110238743292
 40
0.0122524453580523
 40
0.0162547744086632
 40
0.0202204634869017
 40
0.0241521666702747
 40
0.0280518479829256
 40
0.0319222996937459
 40
0.0357655159383521
 40
0.0395837898671175
 40
0.0433794750146706
 40
0.0471539450763085
 40
0.0509096937319622
 40
0.0546487205145136
 40
0.0583736698610611
 40
0.0620867826256538
 40
0.0657903318620902
 40
0.0694833712088747
 40
0.0731640206796587
 40
0.0768304914915752
 40
0.0804831195609853
 40
0.0841222439032153
 40
0.0877474221351077
 40
0.0913597961744858
 40
0.0949613023578309
 40
0.0985530355968504
 40
0.1021368027996385
 40
0.1057151347606281
 40
0.1092900443261215
 40
0.1128636441847341
 40
0.1164374256000659
 40
0.1200133943547181
 40
0.1235930616648807
 40
0.1271784470450014
 40
0.1307710261824696
 40
0.1343728210198647
 40
0.1379855608129867
 40
0.1416113498166677
 40
0.1452516777035249
 40
0.1489080280146537
 40
0.1489080280146537
 40
0.1489080280146537
 40
0.1489080280146537
 10
100.4976728645863
 20
-9.567117215000539
 30
0.0
 10
100.4988701048997
 20
-9.566439064549943
 30
0.0
 10
100.5012511423251
 20
-9.565089296147792
 30
0.0
 10
100.5048027381065
 20
-9.563072754947118
 30
0.0
 10
100.5083165937816
 20
-9.561074511731252
 30
0.0
 10
100.5117951015352
 20
-9.55909330797235
 30
0.0
 10
100.5152405393244
 20
-9.557127940791335
 30
0.0
 10
100.5186549906335
 20
-9.555177309423928
 30
0.0
 10
100.5220406338686
 20
-9.553240250709112
 30
0.0
 10
100.5253994531201
 20
-9.551315704634905
 30
0.0
 10
100.5287335244602
 20
-9.549402550877207
 30
0.0
 10
100.5320447940279
 20
-9.547499736358961
 30
0.0
 10
100.5353350257177
 20
-9.545606305802269
 30
0.0
 10
100.5386060387271
 20
-9.543721265888311
 30
0.0
 10
100.5418595474043
 20
-9.541843677563409
 30
0.0
 10
100.5450976302464
 20
-9.539972385229592
 30
0.0
 10
100.5483222898514
 20
-9.538106270284377
 30
0.0
 10
100.5515356048235
 20
-9.536244163351799
 30
0.0
 10
100.5547386156421
 20
-9.534385490776973
 30
0.0
 10
100.5579311738209
 20
-9.532530366716375
 30
0.0
 10
100.5611119611479
 20
-9.530679587110146
 30
0.0
 10
100.5642800305619
 20
-9.528833735812643
 30
0.0
 10
100.5674350750042
 20
-9.526993025785376
 30
0.0
 10
100.5705771750875
 20
-9.525157443790195
 30
0.0
 10
100.5737066432019
 20
-9.523326840645669
 30
0.0
 10
100.576824250698
 20
-9.521500797192008
 30
0.0
 10
100.5799312096853
 20
-9.519678632810641
 30
0.0
 10
100.5830289217396
 20
-9.517859551717553
 30
0.0
 10
100.586118957421
 20
-9.516042654523378
 30
0.0
 10
100.5892031487838
 20
-9.514226882846319
 30
0.0
 10
100.5922834132395
 20
-9.512411122344449
 30
0.0
 10
100.595361367331
 20
-9.510594430601404
 30
0.0
 10
100.598438623494
 20
-9.508775862849152
 30
0.0
 10
100.601516619561
 20
-9.506954572923067
 30
0.0
 10
100.6045969429743
 20
-9.505129621712828
 30
0.0
 10
100.6076810271756
 20
-9.503300156827808
 30
0.0
 10
100.6107704501037
 20
-9.501465235784909
 30
0.0
 10
100.6138667045213
 20
-9.499623962163955
 30
0.0
 10
100.6169714612413
 20
-9.49777532904719
 30
0.0
 10
100.6200862365166
 20
-9.495918416746608
 30
0.0
 10
100.6232124742629
 20
-9.49405234424697
 30
0.0
 10
100.6253002499915
 20
-9.492804579505733
 30
0.0
 10
100.6263462581863
 20
-9.492179039800564
 30
0.0
 11
100.4976728645863
 21
-9.567117215000539
 31
0.0
 11
100.5012638916863
 21
-9.565081537400605
 31
0.0
 11
100.5048146218863
 21
-9.56306551660052
 31
0.0
 11
100.5083277382863
 21
-9.561067735800552
 31
0.0
 11
100.5118055616864
 21
-9.559086974300502
 31
0.0
 11
100.5152502608863
 21
-9.557122088600554
 31
0.0
 11
100.5186641764863
 21
-9.555171829200535
 31
0.0
 11
100.5220490462862
 21
-9.553235282300509
 31
0.0
 11
100.5254073240863
 21
-9.551311117500549
 31
0.0
 11
100.5287407676863
 21
-9.549398394900524
 31
0.0
 11
100.5320513914863
 21
-9.547496020800512
 31
0.0
 11
100.5353412592864
 21
-9.545602866100555
 31
0.0
 11
100.5386115828861
 21
-9.543718285500521
 31
0.0
 11
100.5418645424863
 21
-9.54184107090052
 31
0.0
 11
100.5451018870864
 21
-9.539970255500552
 31
0.0
 11
100.5483259216863
 21
-9.538104545600535
 31
0.0
 11
100.5515385988864
 21
-9.536242844200533
 31
0.0
 11
100.5547418963863
 21
-9.534384033300543
 31
0.0
 11
100.5579350060862
 21
-9.532528608500545
 31
0.0
 11
100.5611163142862
 21
-9.530677537200521
 31
0.0
 11
100.5642842881863
 21
-9.528831744400552
 31
0.0
 11
100.5674392319863
 21
-9.526991087400521
 31
0.0
 11
100.5705814521862
 21
-9.52515542120054
 31
0.0
 11
100.5737105804863
 21
-9.523324994700576
 31
0.0
 11
100.5768276158863
 21
-9.521499256400577
 31
0.0
 11
100.5799342412863
 21
-9.519677250500567
 31
0.0
 11
100.5830314117863
 21
-9.517858443400516
 31
0.0
 11
100.5861206949863
 21
-9.516041938400551
 31
0.0
 11
100.5892042801863
 21
-9.514226467900531
 31
0.0
 11
100.5922839076863
 21
-9.512411022500575
 31
0.0
 11
100.5953614015862
 21
-9.510594538300527
 31
0.0
 11
100.5984380486862
 21
-9.508776263600541
 31
0.0
 11
100.6015155770864
 21
-9.506955182100487
 31
0.0
 11
100.6045952872863
 21
-9.505130526000559
 31
0.0
 11
100.6076789153864
 21
-9.503301265500542
 31
0.0
 11
100.6107677277863
 21
-9.501466644900521
 31
0.0
 11
100.6138634586863
 21
-9.499625626400561
 31
0.0
 11
100.6169675888862
 21
-9.497777318700546
 31
0.0
 11
100.6200819192862
 21
-9.495920635100535
 31
0.0
 11
100.6232077209863
 21
-9.494054800400508
 31
0.0
 11
100.6263462581863
 21
-9.492179039800564
 31
0.0
  0
SPLINE
  5
55604
330
1F
100
AcDbEntity
  8
1
100
AcDbSpline
210
0.0
220
0.0
230
1.0
 70
     8
 71
     3
 72
    21
 73
    17
 74
    15
 42
0.0000000001
 43
0.0000000001
 44
0.000001
 12
0.0529856683051067
 22
-0.9985952728479448
 32
0.0
 13
0.0561841219915477
 23
-0.9984204246889378
 33
0.0
 40
0.0
 40
0.0
 40
0.0
 40
0.0
 40
0.0414828819672477
 40
0.0841943123596496
 40
0.1297373316848002
 40
0.1782820053246831
 40
0.2287344996061459
 40
0.2808102188464743
 40
0.3355674621593601
 40
0.3944642926659687
 40
0.4588516966675562
 40
0.5297385936655409
 40
0.6078072277792881
 40
0.6930985300723175
 40
0.7831805019654742
 40
0.8730019523472149
 40
0.8730019523472149
 40
0.8730019523472149
 40
0.8730019523472149
 10
101.4200108616863
 20
-3.783416977900518
 30
0.0
 10
101.4207435277611
 20
-3.797225181179388
 30
0.0
 10
101.4222330199205
 20
-3.825250398309524
 30
0.0
 10
101.4245427990148
 20
-3.86843444904321
 30
0.0
 10
101.4269924329556
 20
-3.913968312370858
 30
0.0
 10
101.4295956707464
 20
-3.962077995758111
 30
0.0
 10
101.4323299230806
 20
-4.012361340085394
 30
0.0
 10
101.4351880863417
 20
-4.0647118609991
 30
0.0
 10
101.4382087676671
 20
-4.119872478828003
 30
0.0
 10
101.4414602034632
 20
-4.179130503461156
 30
0.0
 10
101.4450078380877
 20
-4.243756914394314
 30
0.0
 10
101.4489034716583
 20
-4.31476444473802
 30
0.0
 10
101.4531867546063
 20
-4.392729152379192
 30
0.0
 10
101.4578380634074
 20
-4.477081646790768
 30
0.0
 10
101.4627339437691
 20
-4.565344210001089
 30
0.0
 10
101.4660901974111
 20
-4.625218026588473
 30
0.0
 10
101.4677723771864
 20
-4.65511121680058
 30
0.0
 11
101.4200108616863
 21
-3.783416977900518
 31
0.0
 11
101.4222145809864
 21
-3.824841283900557
 31
0.0
 11
101.4244955204862
 21
-3.86749176550052
 31
0.0
 11
101.4269419671863
 21
-3.912969028900509
 31
0.0
 11
101.4295644132863
 21
-3.961442816600513
 31
0.0
 11
101.4323033535863
 21
-4.011820910700524
 31
0.0
 11
101.4351417457864
 21
-4.063819218800492
 31
0.0
 11
101.4381352574863
 21
-4.118494574900555
 31
0.0
 11
101.4413611687863
 21
-4.177302993700553
 31
0.0
 11
101.4448897586863
 21
-4.241593637100525
 31
0.0
 11
101.4487741880863
 21
-4.312374025300531
 31
0.0
 11
101.4530581921861
 21
-4.390325028600532
 31
0.0
 11
101.4577556576863
 21
-4.475486874700525
 31
0.0
 11
101.4627485208863
 21
-4.565430373300532
 31
0.0
 11
101.4677723771864
 21
-4.65511121680058
 31
0.0
  0
SPLINE
  5
55605
330
1F
100
AcDbEntity
  8
1
100
AcDbSpline
210
0.0
220
0.0
230
1.0
 70
     8
 71
     3
 72
    47
 73
    43
 74
    41
 42
0.0000000001
 43
0.0000000001
 44
0.000001
 12
0.7868237050203132
 22
0.6171778165311092
 32
0.0
 13
0.7670990057521833
 23
0.6415287330852859
 33
0.0
 40
0.0
 40
0.0
 40
0.0
 40
0.0
 40
0.0041994556737358
 40
0.0083499187244351
 40
0.0124539277414128
 40
0.0165143870421294
 40
0.0205339163309477
 40
0.0245149557043452
 40
0.0284604663384607
 40
0.0323725308727186
 40
0.0362540181024802
 40
0.0401064639687227
 40
0.0439317242450933
 40
0.0477328718146348
 40
0.0515127761539017
 40
0.055272831874315
 40
0.0590154206931144
 40
0.0627430779611647
 40
0.066457814801766
 40
0.0701592049023907
 40
0.0738461853469896
 40
0.077516249352449
 40
0.0811682533780883
 40
0.0848025195277132
 40
0.0884197923648968
 40
0.0920221411402993
 40
0.0956114417433761
 40
0.0991896483528004
 40
0.1027589564630132
 40
0.1063205026423065
 40
0.1098757595274569
 40
0.1134268479147781
 40
0.116975912402613
 40
0.1205248782999498
 40
0.1240753883627781
 40
0.1276292351172039
 40
0.1311880989038062
 40
0.1347537289075938
 40
0.1383276955463497
 40
0.141911777755285
 40
0.1455081265014854
 40
0.1491187378755515
 40
0.1491187378755515
 40
0.1491187378755515
 40
0.1491187378755515
 10
100.7490104304863
 20
-9.407547542300509
 30
0.0
 10
100.7501118409104
 20
-9.406683605339399
 30
0.0
 10
100.7523010809252
 20
-9.404964877898667
 30
0.0
 10
100.755564162683
 20
-9.402398621910837
 30
0.0
 10
100.7587886921118
 20
-9.399858296907101
 30
0.0
 10
100.7619768437026
 20
-9.397342324895337
 30
0.0
 10
100.7651307603213
 20
-9.394849140452013
 30
0.0
 10
100.7682525940346
 20
-9.392377159001316
 30
0.0
 10
100.771344350975
 20
-9.389924899812971
 30
0.0
 10
100.7744081439219
 20
-9.387490786450289
 30
0.0
 10
100.7774457085566
 20
-9.385073531359385
 30
0.0
 10
100.7804587169699
 20
-9.382671888349452
 30
0.0
 10
100.7834488903737
 20
-9.380284563551729
 30
0.0
 10
100.7864182926546
 20
-9.377909979718342
 30
0.0
 10
100.7893688623743
 20
-9.375546648885151
 30
0.0
 10
100.7923023537198
 20
-9.373193221316487
 30
0.0
 10
100.7952204298764
 20
-9.370848411725521
 30
0.0
 10
100.7981249098455
 20
-9.368510800567694
 30
0.0
 10
100.8010168794334
 20
-9.366179550101637
 30
0.0
 10
100.8038964888589
 20
-9.363854573056247
 30
0.0
 10
100.8067627174815
 20
-9.361536729219441
 30
0.0
 10
100.8096143617146
 20
-9.359227032295795
 30
0.0
 10
100.8124505796962
 20
-9.356926209003635
 30
0.0
 10
100.8152713725213
 20
-9.354634304796096
 30
0.0
 10
100.8180775717133
 20
-9.352350688819317
 30
0.0
 10
100.8208704080807
 20
-9.350074400238359
 30
0.0
 10
100.823651421585
 20
-9.347804219251973
 30
0.0
 10
100.8264221810241
 20
-9.34553889478062
 30
0.0
 10
100.8291840606524
 20
-9.343277327092639
 30
0.0
 10
100.8319383072912
 20
-9.341018514153834
 30
0.0
 10
100.8346861456081
 20
-9.338761466151968
 30
0.0
 10
100.8374290566352
 20
-9.336504975985494
 30
0.0
 10
100.8401686340813
 20
-9.334247735998534
 30
0.0
 10
100.8429063447844
 20
-9.331988535143214
 30
0.0
 10
100.8456435614874
 20
-9.329726232742647
 30
0.0
 10
100.848381590576
 20
-9.327459736028064
 30
0.0
 10
100.8511217623722
 20
-9.325187925543193
 30
0.0
 10
100.8538653467927
 20
-9.322909725011957
 30
0.0
 10
100.8566136356737
 20
-9.320624033164907
 30
0.0
 10
100.859368020321
 20
-9.31832965893162
 30
0.0
 10
100.8621299971324
 20
-9.316025315837553
 30
0.0
 10
100.8639734198546
 20
-9.314484882247374
 30
0.0
 10
100.8648966519863
 20
-9.31371277860055
 30
0.0
 11
100.7490104304863
 21
-9.407547542300509
 31
0.0
 11
100.7523135549862
 21
-9.404954322400502
 31
0.0
 11
100.7555759670863
 21
-9.402388588600533
 31
0.0
 11
100.7587997303864
 21
-9.399848862500537
 31
0.0
 11
100.7619871899863
 21
-9.39733343180055
 31
0.0
 11
100.7651404614863
 21
-9.39484075260049
 31
0.0
 11
100.7682615139863
 21
-9.392369385100526
 31
0.0
 11
100.7713527196863
 21
-9.38991755900054
 31
0.0
 11
100.7744157567863
 21
-9.387484042600565
 31
0.0
 11
100.7774529140863
 21
-9.385067108800544
 31
0.0
 11
100.7804654326863
 21
-9.382665854300544
 31
0.0
 11
100.7834548001862
 21
-9.380279171800541
 31
0.0
 11
100.7864234507863
 21
-9.377905188800557
 31
0.0
 11
100.7893736538864
 21
-9.375542152300543
 31
0.0
 11
100.7923065230862
 21
-9.373189225400526
 31
0.0
 11
100.7952239383863
 21
-9.370844949000545
 31
0.0
 11
100.7981278948863
 21
-9.368507761900534
 31
0.0
 11
100.8010199746862
 21
-9.366176425800549
 31
0.0
 11
100.8038998600863
 21
-9.363851229400527
 31
0.0
 11
100.8067667393862
 21
-9.361532862900535
 31
0.0
 11
100.8096186812863
 21
-9.359222928200527
 31
0.0
 11
100.8124548177862
 21
-9.356922174000604
 31
0.0
 11
100.8152754200863
 21
-9.354630426800529
 31
0.0
 11
100.8180810865864
 21
-9.352347245800505
 31
0.0
 11
100.8208734407864
 21
-9.350071351100499
 31
0.0
 11
100.8236539523863
 21
-9.34780158010054
 31
0.0
 11
100.8264241481863
 21
-9.345536716300532
 31
0.0
 11
100.8291857377863
 21
-9.343275385500508
 31
0.0
 11
100.8319396080864
 21
-9.341016880200559
 31
0.0
 11
100.8346869034864
 21
-9.338760276900561
 31
0.0
 11
100.8374292658863
 21
-9.336504236600578
 31
0.0
 11
100.8401683513863
 21
-9.334247400100569
 31
0.0
 11
100.8429056430863
 21
-9.331988543100553
 31
0.0
 11
100.8456424023862
 21
-9.329726616600542
 31
0.0
 11
100.8483800028863
 21
-9.327460472300519
 31
0.0
 11
100.8511197283864
 21
-9.325189029400522
 31
0.0
 11
100.8538629121864
 21
-9.322911159000543
 31
0.0
 11
100.8566107465864
 21
-9.320625842300504
 31
0.0
 11
100.8593645810863
 21
-9.318331923500497
 31
0.0
 11
100.8621260468864
 21
-9.316028003800543
 31
0.0
 11
100.8648966519863
 21
-9.31371277860055
 31
0.0
  0
SPLINE
  5
55606
330
1F
100
AcDbEntity
  8
1
100
AcDbSpline
210
0.0
220
0.0
230
1.0
 70
     8
 71
     3
 72
    19
 73
    15
 74
    13
 42
0.0000000001
 43
0.0000000001
 44
0.000001
 12
0.0539732259751213
 22
-0.9985423831154282
 32
0.0
 13
0.0556055887574215
 23
-0.9984528123546654
 33
0.0
 40
0.0
 40
0.0
 40
0.0
 40
0.0
 40
0.1074676643135343
 40
0.2056032265421363
 40
0.2931078830036871
 40
0.3705032989617901
 40
0.4392331727926214
 40
0.5010157423126601
 40
0.5581652280587033
 40
0.6130978806274006
 40
0.6678713714534734
 40
0.723046911626012
 40
0.7781499500077889
 40
0.8332325007366938
 40
0.8332325007366938
 40
0.8332325007366938
 40
0.8332325007366938
 10
101.3745968846863
 20
-2.951423070800533
 30
0.0
 10
101.3765303435299
 20
-2.987193410011034
 30
0.0
 10
101.380233302174
 20
-3.055627709889339
 30
0.0
 10
101.3855381909359
 20
-3.153186213835173
 30
0.0
 10
101.3902951392514
 20
-3.240735620804432
 30
0.0
 10
101.3945212398106
 20
-3.318497516994799
 30
0.0
 10
101.3982854200179
 20
-3.387697835345282
 30
0.0
 10
101.401687644102
 20
-3.450159222134491
 30
0.0
 10
101.4048450774956
 20
-3.508028051066194
 30
0.0
 10
101.40788114299
 20
-3.563563667121147
 30
0.0
 10
101.4108891926699
 20
-3.618441849997797
 30
0.0
 10
101.4139112474375
 20
-3.673376144687583
 30
0.0
 10
101.4169512708266
 20
-3.728412625761226
 30
0.0
 10
101.4189898957985
 20
-3.765084535338193
 30
0.0
 10
101.4200108616863
 20
-3.783416977900518
 30
0.0
 11
101.3745968846863
 21
-2.951423070800533
 31
0.0
 11
101.3804073474863
 21
-3.05873354200057
 31
0.0
 11
101.3857308717863
 21
-3.15672460620053
 31
0.0
 11
101.3904791498863
 21
-3.244100339300533
 31
0.0
 11
101.3946796511862
 21
-3.321381683600552
 31
0.0
 11
101.3984130863863
 21
-3.390010081500495
 31
0.0
 11
101.4017736251863
 21
-3.45170118830055
 31
0.0
 11
101.4048873679863
 21
-3.508765786000569
 31
0.0
 11
101.4078863556864
 21
-3.563616514100491
 31
0.0
 11
101.4108846576863
 21
-3.618307879600539
 31
0.0
 11
101.4139156283863
 21
-3.673400106100533
 31
0.0
 11
101.4169558862863
 21
-3.728419208400513
 31
0.0
 11
101.4200108616863
 21
-3.783416977900518
 31
0.0
  0
SPLINE
  5
55607
330
1F
100
AcDbEntity
  8
1
100
AcDbSpline
210
0.0
220
0.0
230
1.0
 70
     8
 71
     3
 72
    47
 73
    43
 74
    41
 42
0.0000000001
 43
0.0000000001
 44
0.000001
 12
0.7388589381848503
 22
0.6738601260383015
 32
0.0
 13
0.7133658030530894
 23
0.7007918599944074
 33
0.0
 40
0.0
 40
0.0
 40
0.0
 40
0.0
 40
0.0042333093801417
 40
0.008414435488851
 40
0.0125463139975533
 40
0.0166323476717992
 40
0.0206751221949067
 40
0.0246777063389331
 40
0.0286422782093545
 40
0.0325714597381049
 40
0.0364675492886227
 40
0.040333004031937
 40
0.0441706071906313
 40
0.0479833853819862
 40
0.0517744075021455
 40
0.0555454679163753
 40
0.0592976822076691
 40
0.0630329850287846
 40
0.0667529984004184
 40
0.070457375645794
 40
0.0741451614180174
 40
0.0778162614093155
 40
0.0814696605463928
 40
0.0851029651677502
 40
0.0887157040208002
 40
0.0923104706135762
 40
0.0958909653755153
 40
0.0994600563608662
 40
0.1030196587864744
 40
0.1065718962138673
 40
0.1101177154520259
 40
0.1136581222451514
 40
0.1171953534125019
 40
0.1207313663251122
 40
0.124267402895604
 40
0.1278055922517827
 40
0.1313479982782583
 40
0.1348953686723293
 40
0.1384492709266019
 40
0.1420121645593992
 40
0.1455856425849546
 40
0.1491720854137074
 40
0.1491720854137074
 40
0.1491720854137074
 40
0.1491720854137074
 10
100.8648966519863
 20
-9.31371277860055
 30
0.0
 10
100.8659392581441
 20
-9.312761892469726
 30
0.0
 10
100.8680106998371
 20
-9.310870834125214
 30
0.0
 10
100.871096576948
 20
-9.308048181636568
 30
0.0
 10
100.8741435414602
 20
-9.305255726250383
 30
0.0
 10
100.8771538640802
 20
-9.302491548586974
 30
0.0
 10
100.8801298404487
 20
-9.299753690418928
 30
0.0
 10
100.8830734583703
 20
-9.29704046159296
 30
0.0
 10
100.8859867078539
 20
-9.29435015625285
 30
0.0
 10
100.8888713839077
 20
-9.291681235670612
 30
0.0
 10
100.8917293437614
 20
-9.289032091178828
 30
0.0
 10
100.8945624779568
 20
-9.286401070766491
 30
0.0
 10
100.8973728484621
 20
-9.283786350106769
 30
0.0
 10
100.9001626594992
 20
-9.281185958262089
 30
0.0
 10
100.9029338670264
 20
-9.27859814123926
 30
0.0
 10
100.905687955492
 20
-9.276021573343744
 30
0.0
 10
100.9084261289715
 20
-9.2734551825063
 30
0.0
 10
100.9111495458107
 20
-9.270897931787747
 30
0.0
 10
100.9138590054295
 20
-9.268349113987657
 30
0.0
 10
100.91655460391
 20
-9.265808680120901
 30
0.0
 10
100.9192360216849
 20
-9.263276974262598
 30
0.0
 10
100.9219027786666
 20
-9.260754494941924
 30
0.0
 10
100.9245540485365
 20
-9.258242072271716
 30
0.0
 10
100.9271889172492
 20
-9.255740626380006
 30
0.0
 10
100.929807345812
 20
-9.253250251976115
 30
0.0
 10
100.9324107655193
 20
-9.250769641994114
 30
0.0
 10
100.9350014073234
 20
-9.248296714931658
 30
0.0
 10
100.9375813310854
 20
-9.245829537432801
 30
0.0
 10
100.9401522103977
 20
-9.243366532694725
 30
0.0
 10
100.9427152512978
 20
-9.240906561584129
 30
0.0
 10
100.9452714372668
 20
-9.238448690875916
 30
0.0
 10
100.947821775851
 20
-9.235991957900271
 30
0.0
 10
100.9503675133564
 20
-9.233535162305518
 30
0.0
 10
100.9529099480784
 20
-9.231077044263546
 30
0.0
 10
100.955450348042
 20
-9.228616364313101
 30
0.0
 10
100.9579900022353
 20
-9.226151853646261
 30
0.0
 10
100.9605300766238
 20
-9.223682353290858
 30
0.0
 10
100.9630715988631
 20
-9.221206830649382
 30
0.0
 10
100.9656156872639
 20
-9.218724157276401
 30
0.0
 10
100.9681636570191
 20
-9.216233003104154
 30
0.0
 10
100.9707170116013
 20
-9.213731843220561
 30
0.0
 10
100.9724203619634
 20
-9.212060122114085
 30
0.0
 10
100.9732731771863
 20
-9.211222338800499
 30
0.0
 11
100.8648966519863
 21
-9.31371277860055
 31
0.0
 11
100.8680230690863
 21
-9.310858588600499
 31
0.0
 11
100.8711081942863
 21
-9.308036576700576
 31
0.0
 11
100.8741542809863
 21
-9.305244861100536
 31
0.0
 11
100.8771639181863
 21
-9.30248123470054
 31
0.0
 11
100.8801390848863
 21
-9.299744034000557
 31
0.0
 11
100.8830821079863
 21
-9.297031260000554
 31
0.0
 11
100.8859946522863
 21
-9.294341509400542
 31
0.0
 11
100.8888787024863
 21
-9.291673071000506
 31
0.0
 11
100.8917359991863
 21
-9.289024446100601
 31
0.0
 11
100.8945683934863
 21
-9.286394021500516
 31
0.0
 11
100.8973779686863
 21
-9.283779954800511
 31
0.0
 11
100.9001669791863
 21
-9.281180230100549
 31
0.0
 11
100.9029377023863
 21
-9.27859279410055
 31
0.0
 11
100.9056914778863
 21
-9.276016456600505
 31
0.0
 11
100.9084291456863
 21
-9.273450486900518
 31
0.0
 11
100.9111521397864
 21
-9.270893590300577
 31
0.0
 11
100.9138616618863
 21
-9.268344681400524
 31
0.0
 11
100.9165574774863
 21
-9.265804021300542
 31
0.0
 11
100.9192389106863
 21
-9.263272290200522
 31
0.0
 11
100.9219059133863
 21
-9.260749579000478
 31
0.0
 11
100.9245577696863
 21
-9.258236612500557
 31
0.0
 11
100.9271927667863
 21
-9.255735067700559
 31
0.0
 11
100.9298105901863
 21
-9.253245302300488
 31
0.0
 11
100.9324131446864
 21
-9.250765560300525
 31
0.0
 11
100.9350031288863
 21
-9.248293314100553
 31
0.0
 11
100.9375826306863
 21
-9.245826601800505
 31
0.0
 11
100.9401530432864
 21
-9.243364113700526
 31
0.0
 11
100.9427159049863
 21
-9.240904390400576
 31
0.0
 11
100.9452719011864
 21
-9.238446783300535
 31
0.0
 11
100.9478217570863
 21
-9.235990600200526
 31
0.0
 11
100.9503670807863
 21
-9.233534291000498
 31
0.0
 11
100.9529092737863
 21
-9.231076494000578
 31
0.0
 11
100.9554492187864
 21
-9.228616340300536
 31
0.0
 11
100.9579884315864
 21
-9.226152339500519
 31
0.0
 11
100.9605283755863
 21
-9.223683041000558
 31
0.0
 11
100.9630695661864
 21
-9.221207907400557
 31
0.0
 11
100.9656131032862
 21
-9.21872582660055
 31
0.0
 11
100.9681607196863
 21
-9.21623505800051
 31
0.0
 11
100.9707135228863
 21
-9.213734461100532
 31
0.0
 11
100.9732731771863
 21
-9.211222338800499
 31
0.0
  0
SPLINE
  5
55608
330
1F
100
AcDbEntity
  8
1
100
AcDbSpline
210
0.0
220
0.0
230
1.0
 70
     8
 71
     3
 72
    19
 73
    15
 74
    13
 42
0.0000000001
 43
0.0000000001
 44
0.000001
 12
0.0538085029810505
 22
-0.9985512730986519
 32
0.0
 13
0.0566763476030875
 23
-0.9983926039501566
 33
0.0
 40
0.0
 40
0.0
 40
0.0
 40
0.0
 40
0.1007597028417825
 40
0.1918198453534249
 40
0.2745202638349158
 40
0.3490695690306138
 40
0.415601567312396
 40
0.4753173843569794
 40
0.5306870848672199
 40
0.5841779500529793
 40
0.6379045465048351
 40
0.6921169631948042
 40
0.7463628107728661
 40
0.800096122581762
 40
0.800096122581762
 40
0.800096122581762
 40
0.800096122581762
 10
101.3306284461863
 20
-2.15253626480052
 30
0.0
 10
101.3324356891099
 20
-2.186074174650432
 30
0.0
 10
101.3358814643511
 20
-2.249921208322266
 30
0.0
 10
101.340832760883
 20
-2.341293911650215
 30
0.0
 10
101.3453270609166
 20
-2.423941760239674
 30
0.0
 10
101.3493921283664
 20
-2.498424820604643
 30
0.0
 10
101.3530514163379
 20
-2.565257090782157
 30
0.0
 10
101.3563791235983
 20
-2.625704735662257
 30
0.0
 10
101.3594771012527
 20
-2.681811399963894
 30
0.0
 10
101.3624798041689
 20
-2.735923875410296
 30
0.0
 10
101.3654758834565
 20
-2.789650361615176
 30
0.0
 10
101.3685028663668
 20
-2.843627174017345
 30
0.0
 10
101.3715479430332
 20
-2.897605210114338
 30
0.0
 10
101.3735817487337
 20
-2.933540757101955
 30
0.0
 10
101.3745968846863
 20
-2.951423070800533
 30
0.0
 11
101.3306284461863
 21
-2.15253626480052
 31
0.0
 11
101.3360605429862
 21
-2.25314943030057
 31
0.0
 11
101.3409875612861
 21
-2.344076180000545
 31
0.0
 11
101.3454784507863
 21
-2.426654572200536
 31
0.0
 11
101.3495410669862
 21
-2.501093093200498
 31
0.0
 11
101.3531800926863
 21
-2.567525465800574
 31
0.0
 11
101.3564594506863
 21
-2.627151190600503
 31
0.0
 11
101.3595131922862
 21
-2.682436631100532
 31
0.0
 11
101.3624768901862
 21
-2.735845334000575
 31
0.0
 11
101.3654686533863
 21
-2.789488569500552
 31
0.0
 11
101.3685042458863
 21
-2.84361593230054
 31
0.0
 11
101.3715582185863
 21
-2.89777574420049
 31
0.0
 11
101.3745968846863
 21
-2.951423070800533
 31
0.0
  0
SPLINE
  5
55609
330
1F
100
AcDbEntity
  8
1
100
AcDbSpline
210
0.0
220
0.0
230
1.0
 70
     8
 71
     3
 72
    19
 73
    15
 74
    13
 42
0.0000000001
 43
0.0000000001
 44
0.000001
 12
0.0538989856343329
 22
-0.9985463931874122
 32
0.0
 13
0.0566953971756919
 23
-0.9983915223694012
 33
0.0
 40
0.0
 40
0.0
 40
0.0
 40
0.0
 40
0.048159329592193
 40
0.098185270736582
 40
0.1502228643354383
 40
0.2034551794316481
 40
0.2583157413557193
 40
0.3169186162271573
 40
0.3814642349521731
 40
0.4537562252742623
 40
0.534472858569833
 40
0.6238599491699264
 40
0.7227951737312494
 40
0.8331341791522342
 40
0.8331341791522342
 40
0.8331341791522342
 40
0.8331341791522342
 10
101.2843267596863
 20
-1.320689968300573
 30
0.0
 10
101.2851920060242
 20
-1.336719743254779
 30
0.0
 10
101.2869607542505
 20
-1.369400337817385
 30
0.0
 10
101.289676442486
 20
-1.419400931882396
 30
0.0
 10
101.2924982637452
 20
-1.471089247357443
 30
0.0
 10
101.2954229199471
 20
-1.52438588652598
 30
0.0
 10
101.2984814991638
 20
-1.579866894257893
 30
0.0
 10
101.3017602746111
 20
-1.639112589098377
 30
0.0
 10
101.3053787797666
 20
-1.704158847358915
 30
0.0
 10
101.3094221188946
 20
-1.776564120059251
 30
0.0
 10
101.3139440257306
 20
-1.8572360581764
 30
0.0
 10
101.3189816886478
 20
-1.946774103703891
 30
0.0
 10
101.324594585924
 20
-2.046169522904992
 30
0.0
 10
101.3285432082742
 20
-2.115815755600866
 30
0.0
 10
101.3306284461863
 20
-2.15253626480052
 30
0.0
 11
101.2843267596863
 21
-1.320689968300573
 31
0.0
 11
101.2869279142863
 21
-1.368779003800543
 31
0.0
 11
101.2896413556862
 21
-1.418731302600523
 31
0.0
 11
101.2924779642863
 21
-1.470691528100534
 31
0.0
 11
101.2953943873864
 21
-1.52384389920056
 31
0.0
 11
101.2984142391861
 21
-1.578621313600539
 31
0.0
 11
101.3016544759863
 21
-1.637134518800539
 31
0.0
 11
101.3052385136862
 21
-1.701580543700519
 31
0.0
 11
101.3092689203863
 21
-1.773760092100534
 31
0.0
 11
101.3137859422863
 21
-1.854350235300533
 31
0.0
 11
101.3188068232863
 21
-1.943596202000552
 31
0.0
 11
101.3243847590863
 21
-2.042374059300559
 31
0.0
 11
101.3306284461863
 21
-2.15253626480052
 31
0.0
  0
SPLINE
  5
5560A
330
1F
100
AcDbEntity
  8
1
100
AcDbSpline
210
0.0
220
0.0
230
1.0
 70
     8
 71
     3
 72
    18
 73
    14
 74
    12
 42
0.0000000001
 43
0.0000000001
 44
0.000001
 12
0.0551823759455847
 22
-0.9984762918492357
 32
0.0
 13
0.0569091252315841
 23
-0.9983793624997343
 33
0.0
 40
0.0
 40
0.0
 40
0.0
 40
0.0
 40
0.1034938397612894
 40
0.2006097325419658
 40
0.2891938172656437
 40
0.3692262147892508
 40
0.4413512521560806
 40
0.5068294486225616
 40
0.5668484553409927
 40
0.6221055373332637
 40
0.6728349672627246
 40
0.7192927952926228
 40
0.761717663075711
 40
0.761717663075711
 40
0.761717663075711
 40
0.761717663075711
 10
101.2415829725863
 20
-0.5601726050005347
 30
0.0
 10
101.2434866512443
 20
-0.5946179867852415
 30
0.0
 10
101.247186693229
 20
-0.661385455960474
 30
0.0
 10
101.2525601075953
 20
-0.7576335177008709
 30
0.0
 10
101.2575154154932
 20
-0.8460722598159726
 30
0.0
 10
101.2620183354413
 20
-0.926192997272242
 30
0.0
 10
101.2660975554016
 20
-0.9986234296812348
 30
0.0
 10
101.2698072446616
 20
-1.064392971662474
 30
0.0
 10
101.2732033176611
 20
-1.124548614066586
 30
0.0
 10
101.2763260131845
 20
-1.179795606217883
 30
0.0
 10
101.2791995221469
 20
-1.23052907463435
 30
0.0
 10
101.2818364747187
 20
-1.276991681138131
 30
0.0
 10
101.2835219723151
 20
-1.306571264150111
 30
0.0
 10
101.2843267596863
 20
-1.320689968300573
 30
0.0
 11
101.2415829725863
 21
-0.5601726050005347
 31
0.0
 11
101.2473126244863
 21
-0.6635077201005722
 31
0.0
 11
101.2527230391863
 21
-0.7604727858005483
 31
0.0
 11
101.2576785193863
 21
-0.8489181545005557
 31
0.0
 11
101.2621688765863
 21
-0.928824482900584
 31
0.0
 11
101.2662242066864
 21
-1.000835421600559
 31
0.0
 11
101.2699112921863
 21
-1.066209725400515
 31
0.0
 11
101.2732944863863
 21
-1.126133303000532
 31
0.0
 11
101.2764132971864
 21
-1.181302299000524
 31
0.0
 11
101.2792820483863
 21
-1.231950549900577
 31
0.0
 11
101.2819154789863
 21
-1.278333680700573
 31
0.0
 11
101.2843267596863
 21
-1.320689968300573
 31
0.0
  0
SPLINE
  5
5560B
330
1F
100
AcDbEntity
  8
1
100
AcDbSpline
210
0.0
220
0.0
230
1.0
 70
     8
 71
     3
 72
    47
 73
    43
 74
    41
 42
0.0000000001
 43
0.0000000001
 44
0.000001
 12
0.6870671021677919
 22
0.7265939699163165
 32
0.0
 13
0.6543764207597062
 23
0.7561689625696867
 33
0.0
 40
0.0
 40
0.0
 40
0.0
 40
0.0
 40
0.0042667549002776
 40
0.0084791366573292
 40
0.0126405864126524
 40
0.0167538556280911
 40
0.0208219702923229
 40
0.0248475985964764
 40
0.0288333926903852
 40
0.0327821047198931
 40
0.0366958155444248
 40
0.0405774334821986
 40
0.0444293629447732
 40
0.0482542663923102
 40
0.0520544416339799
 40
0.0558310149530064
 40
0.0595861951712204
 40
0.0633231946500521
 40
0.0670448793158557
 40
0.0707509661052491
 40
0.0744397967676904
 40
0.0781088030239787
 40
0.0817560107285326
 40
0.0853820334760176
 40
0.0889891640394384
 40
0.0925794227890889
 40
0.0961543019339796
 40
0.0997158767772747
 40
0.1032656564335675
 40
0.1068054742182024
 40
0.1103372639854297
 40
0.1138630765867101
 40
0.1173847473631792
 40
0.1209040918426733
 40
0.1244227527489425
 40
0.1279423840968249
 40
0.1314650763835459
 40
0.13499330008744
 40
0.1385291852154862
 40
0.14207367387383
 40
0.1456273194670172
 40
0.1491921256909519
 40
0.1491921256909519
 40
0.1491921256909519
 40
0.1491921256909519
 10
100.9732731771863
 20
-9.211222338800499
 30
0.0
 10
100.9742503594947
 20
-9.21018893933996
 30
0.0
 10
100.9761911246653
 20
-9.208134224731399
 30
0.0
 10
100.9790809654552
 20
-9.205067850295083
 30
0.0
 10
100.98193234651
 20
-9.20203553573916
 30
0.0
 10
100.9847474660937
 20
-9.199035137257201
 30
0.0
 10
100.987528336266
 20
-9.19606468917826
 30
0.0
 10
100.990276940936
 20
-9.193122244505165
 30
0.0
 10
100.9929951819856
 20
-9.190205904312652
 30
0.0
 10
100.9956848617688
 20
-9.187313944035711
 30
0.0
 10
100.9983475922739
 20
-9.184444345773645
 30
0.0
 10
101.0009853415112
 20
-9.181595580233452
 30
0.0
 10
101.0035999079408
 20
-9.178765695662466
 30
0.0
 10
101.0061930212972
 20
-9.175952954117381
 30
0.0
 10
101.0087660944949
 20
-9.173155904724414
 30
0.0
 10
101.0113204379994
 20
-9.170373207735938
 30
0.0
 10
101.0138575609815
 20
-9.167603291845839
 30
0.0
 10
101.0163793568289
 20
-9.164844151200814
 30
0.0
 10
101.0188871506183
 20
-9.162094385733499
 30
0.0
 10
101.0213811684342
 20
-9.159353790362334
 30
0.0
 10
101.0238604194747
 20
-9.156623501732813
 30
0.0
 10
101.0263235392359
 20
-9.153905078502706
 30
0.0
 10
101.0287696782263
 20
-9.151199523986438
 30
0.0
 10
101.0311990760779
 20
-9.14850664166838
 30
0.0
 10
101.033612861539
 20
-9.145825243774257
 30
0.0
 10
101.0360123531618
 20
-9.143153919246433
 30
0.0
 10
101.0383988155727
 20
-9.140491305959248
 30
0.0
 10
101.0407733931856
 20
-9.137836162840958
 30
0.0
 10
101.0431373016149
 20
-9.135187159918306
 30
0.0
 10
101.0454917175258
 20
-9.132542995647245
 30
0.0
 10
101.0478379375822
 20
-9.129902233495901
 30
0.0
 10
101.0501772297682
 20
-9.127263410691117
 30
0.0
 10
101.052510914906
 20
-9.124625163740919
 30
0.0
 10
101.0548398983054
 20
-9.121985943805729
 30
0.0
 10
101.0571655383966
 20
-9.11934468313473
 30
0.0
 10
101.0594889445628
 20
-9.116699971511881
 30
0.0
 10
101.0618114767975
 20
-9.114050252147283
 30
0.0
 10
101.0641345721334
 20
-9.111393824746048
 30
0.0
 10
101.0664594134258
 20
-9.108729275455093
 30
0.0
 10
101.068786756144
 20
-9.106055665705898
 30
0.0
 10
101.0711173243399
 20
-9.103372085694193
 30
0.0
 10
101.0726710933404
 20
-9.101578746141914
 30
0.0
 10
101.0734486683863
 20
-9.10068021420054
 30
0.0
 11
100.9732731771863
 21
-9.211222338800499
 31
0.0
 11
100.9762029598863
 21
-9.208120481600534
 31
0.0
 11
100.9790919436863
 21
-9.205054900500531
 31
0.0
 11
100.9819425966863
 21
-9.202023197100519
 31
0.0
 11
100.9847569036864
 21
-9.199023465200557
 31
0.0
 11
100.9875370278863
 21
-9.196053589500568
 31
0.0
 11
100.9902848781863
 21
-9.193111706700538
 31
0.0
 11
100.9930023437863
 21
-9.190195957000558
 31
0.0
 11
100.9956913768863
 21
-9.187304395900557
 31
0.0
 11
100.9983534821864
 21
-9.184435543200581
 31
0.0
 11
101.0009906727863
 21
-9.181587355400527
 31
0.0
 11
101.0036046357862
 21
-9.178758124100543
 31
0.0
 11
101.0061972254863
 21
-9.175945943800545
 31
0.0
 11
101.0087700410862
 21
-9.173149169600581
 31
0.0
 11
101.0113238830863
 21
-9.1703670136005
 31
0.0
 11
101.0138602792864
 21
-9.167597885900566
 31
0.0
 11
101.0163814271862
 21
-9.164839449000542
 31
0.0
 11
101.0188892809864
 21
-9.162089612300551
 31
0.0
 11
101.0213836673863
 21
-9.15934860670055
 31
0.0
 11
101.0238634903863
 21
-9.156617682800519
 31
0.0
 11
101.0263270484863
 21
-9.153898770500521
 31
0.0
 11
101.0287730467863
 21
-9.151193366300535
 31
0.0
 11
101.0312019291863
 21
-9.148501050100552
 31
0.0
 11
101.0336152604862
 21
-9.14582015140056
 31
0.0
 11
101.0360144161863
 21
-9.143149195700491
 31
0.0
 11
101.0384004131864
 21
-9.140487096300578
 31
0.0
 11
101.0407746518864
 21
-9.137832327100543
 31
0.0
 11
101.0431381494862
 21
-9.135183778900543
 31
0.0
 11
101.0454921336862
 21
-9.132540095800525
 31
0.0
 11
101.0478378927863
 21
-9.129899841200515
 31
0.0
 11
101.0501767863862
 21
-9.127261485400513
 31
0.0
 11
101.0525100244863
 21
-9.124623654100506
 31
0.0
 11
101.0548388225862
 21
-9.121984954800527
 31
0.0
 11
101.0571642270863
 21
-9.119344174100522
 31
0.0
 11
101.0594873088863
 21
-9.116700059800539
 31
0.0
 11
101.0618094211863
 21
-9.114051025200556
 31
0.0
 11
101.0641321596863
 21
-9.111395191100516
 31
0.0
 11
101.0664568871863
 21
-9.108730927200529
 31
0.0
 11
101.0687841790862
 21
-9.106057493000523
 31
0.0
 11
101.0711143518863
 21
-9.103374438300566
 31
0.0
 11
101.0734486683863
 21
-9.10068021420054
 31
0.0
  0
SPLINE
  5
5560C
330
1F
100
AcDbEntity
  8
1
100
AcDbSpline
210
0.0
220
0.0
230
1.0
 70
     8
 71
     3
 72
    47
 73
    43
 74
    41
 42
0.0000000001
 43
0.0000000001
 44
0.000001
 12
0.6317454721875885
 22
0.7751758886668762
 32
0.0
 13
0.5903292049932213
 23
0.8071625794919333
 33
0.0
 40
0.0
 40
0.0
 40
0.0
 40
0.0
 40
0.0042961580133868
 40
0.0085360334436976
 40
0.0127228725201579
 40
0.0168598422086339
 40
0.0209492861728948
 40
0.0249943025728062
 40
0.0289978492901791
 40
0.0329620038053769
 40
0.0368898165227655
 40
0.0407841523163904
 40
0.0446469237059236
 40
0.0484812533922509
 40
0.0522902374112201
 40
0.0560756382038745
 40
0.0598393650434806
 40
0.0635839766233243
 40
0.0673104535610418
 40
0.0710174897030037
 40
0.0747043389302172
 40
0.0783714292042762
 40
0.0820186034192381
 40
0.0856445293686242
 40
0.0892493235489398
 40
0.0928349404533206
 40
0.0964030932138878
 40
0.0999550207938358
 40
0.1034930839899456
 40
0.1070200535548675
 40
0.1105382467455195
 40
0.1140496803732734
 40
0.1175559833081149
 40
0.1210589458104158
 40
0.1245601719460903
 40
0.1280615549142242
 40
0.1315648456709676
 40
0.1350719854726327
 40
0.1385844238583142
 40
0.142103712493416
 40
0.145631679020843
 40
0.1491698333561723
 40
0.1491698333561723
 40
0.1491698333561723
 40
0.1491698333561723
 10
101.0734486683863
 20
-9.10068021420054
 30
0.0
 10
101.0743533611772
 20
-9.099570121498576
 30
0.0
 10
101.0761494795007
 20
-9.097363325288146
 30
0.0
 10
101.0788223354155
 20
-9.094070671161947
 30
0.0
 10
101.0814575773314
 20
-9.090815832883183
 30
0.0
 10
101.0840571265575
 20
-9.087596619415283
 30
0.0
 10
101.0866229821002
 20
-9.084410964936243
 30
0.0
 10
101.0891566531648
 20
-9.081256498924435
 30
0.0
 10
101.0916601588975
 20
-9.078131375050052
 30
0.0
 10
101.0941353054861
 20
-9.075033594970822
 30
0.0
 10
101.0965838279069
 20
-9.07196114290858
 30
0.0
 10
101.0990074273948
 20
-9.068912046216329
 30
0.0
 10
101.1014078074096
 20
-9.065884302971713
 30
0.0
 10
101.1037867100625
 20
-9.062875843338535
 30
0.0
 10
101.1061458347148
 20
-9.059884627260547
 30
0.0
 10
101.108486621432
 20
-9.05690892515631
 30
0.0
 10
101.110810390688
 20
-9.053947141126574
 30
0.0
 10
101.113118294314
 20
-9.050997878098005
 30
0.0
 10
101.1154108176372
 20
-9.048060578321727
 30
0.0
 10
101.1176877673007
 20
-9.0451355516924
 30
0.0
 10
101.119948839069
 20
-9.042223255176654
 30
0.0
 10
101.1221939654837
 20
-9.039323844592193
 30
0.0
 10
101.1244229596788
 20
-9.03643763030033
 30
0.0
 10
101.1266355737872
 20
-9.03356500664876
 30
0.0
 10
101.1288319910123
 20
-9.030705811466138
 30
0.0
 10
101.1310130095934
 20
-9.027859074898803
 30
0.0
 10
101.133179650293
 20
-9.025023526155028
 30
0.0
 10
101.1353330086721
 20
-9.022197781089378
 30
0.0
 10
101.1374743868102
 20
-9.019380169658777
 30
0.0
 10
101.1396052949732
 20
-9.016568728569271
 30
0.0
 10
101.1417271636277
 20
-9.013761577938058
 30
0.0
 10
101.1438411848571
 20
-9.010957134861516
 30
0.0
 10
101.1459484342921
 20
-9.008153948738911
 30
0.0
 10
101.1480499060154
 20
-9.005350679817187
 30
0.0
 10
101.1501466076766
 20
-9.002545888727102
 30
0.0
 10
101.1522396463079
 20
-8.99973822638535
 30
0.0
 10
101.1543296852866
 20
-8.996925874024729
 30
0.0
 10
101.1564181600671
 20
-8.994107771933304
 30
0.0
 10
101.1585058874477
 20
-8.991282482650493
 30
0.0
 10
101.1605938075805
 20
-8.988448708049478
 30
0.0
 10
101.1626828235454
 20
-8.98560509775547
 30
0.0
 10
101.1640746253077
 20
-8.983704919560526
 30
0.0
 10
101.1647708505863
 20
-8.982752964300548
 30
0.0
 11
101.0734486683863
 21
-9.10068021420054
 31
0.0
 11
101.0761605497863
 21
-9.097348161700526
 31
0.0
 11
101.0788325935863
 21
-9.094056284700545
 31
0.0
 11
101.0814669788864
 21
-9.090802174600529
 31
0.0
 11
101.0840658214863
 21
-9.087583473700508
 31
0.0
 11
101.0866307084862
 21
-9.084398455700497
 31
0.0
 11
101.0891637236863
 21
-9.081244755300506
 31
0.0
 11
101.0916667956863
 21
-9.078120175000524
 31
0.0
 11
101.0941413001864
 21
-9.075023186600535
 31
0.0
 11
101.0965892220863
 21
-9.071951479900494
 31
0.0
 11
101.0990124191863
 21
-9.06890288030053
 31
0.0
 11
101.1014121470863
 21
-9.065875950800521
 31
0.0
 11
101.1037904040863
 21
-9.062868298600537
 31
0.0
 11
101.1061491595864
 21
-9.059877541800549
 31
0.0
 11
101.1084895473863
 21
-9.056902337800497
 31
0.0
 11
101.1108127847864
 21
-9.053941222700562
 31
0.0
 11
101.1131204815864
 21
-9.050992215000551
 31
0.0
 11
101.1154132673863
 21
-9.048054569900532
 31
0.0
 11
101.1176903643862
 21
-9.045129344900605
 31
0.0
 11
101.1199513432863
 21
-9.042217159000561
 31
0.0
 11
101.1221964962864
 21
-9.039317704900529
 31
0.0
 11
101.1244257564864
 21
-9.036431137100553
 31
0.0
 11
101.1266383414863
 21
-9.033558542200555
 31
0.0
 11
101.1288343562863
 21
-9.030699861600542
 31
0.0
 11
101.1310150221862
 21
-9.027853576400506
 31
0.0
 11
101.1331814065863
 21
-9.025018353800508
 31
0.0
 11
101.1353342824862
 21
-9.022193232700576
 31
0.0
 11
101.1374750962863
 21
-9.019376354700543
 31
0.0
 11
101.1396055322863
 21
-9.016565527300574
 31
0.0
 11
101.1417269899863
 21
-9.013758911200543
 31
0.0
 11
101.1438406782863
 21
-9.010954899700525
 31
0.0
 11
101.1459475643862
 21
-9.008152189800544
 31
0.0
 11
101.1480487051864
 21
-9.005349344200542
 31
0.0
 11
101.1501450377862
 21
-9.002545068600486
 31
0.0
 11
101.1522376669862
 21
-8.999737828800537
 31
0.0
 11
101.1543276342863
 21
-8.99692615740054
 31
0.0
 11
101.1564160151863
 21
-8.994108522400527
 31
0.0
 11
101.1585036209863
 21
-8.991283731600535
 31
0.0
 11
101.1605913157863
 21
-8.988450505300509
 31
0.0
 11
101.1626801183863
 21
-8.985607335500535
 31
0.0
 11
101.1647708505863
 21
-8.982752964300548
 31
0.0
  0
SPLINE
  5
5560D
330
1F
100
AcDbEntity
  8
1
100
AcDbSpline
210
0.0
220
0.0
230
1.0
 70
     8
 71
     3
 72
    48
 73
    44
 74
    42
 42
0.0000000001
 43
0.0000000001
 44
0.000001
 12
0.5731995894183429
 22
0.8194157862102995
 32
0.0
 13
0.5214814048625435
 23
0.8532626467756504
 33
0.0
 40
0.0
 40
0.0
 40
0.0
 40
0.0
 40
0.00422240005766
 40
0.0083888175611477
 40
0.012502709156059
 40
0.016567648057509
 40
0.020585079001799
 40
0.0245569329354686
 40
0.0284858147279674
 40
0.0323751521372641
 40
0.0362273788674865
 40
0.0400455794797219
 40
0.0438315964564008
 40
0.0475880986669112
 40
0.0513169359735865
 40
0.0550200063949293
 40
0.0587003947605809
 40
0.0623603480332755
 40
0.0660023042600074
 40
0.0696258296299779
 40
0.0732301098514818
 40
0.0768142776576692
 40
0.0803758415437423
 40
0.0839148019082674
 40
0.0874321824928771
 40
0.0909300870960763
 40
0.0944100657567036
 40
0.0978742640882466
 40
0.101324571303782
 40
0.1047632495911704
 40
0.1081920636140725
 40
0.1116118823554799
 40
0.1150245652423194
 40
0.1184318269122706
 40
0.1218347651023075
 40
0.1252355133848009
 40
0.1286360599977557
 40
0.1320381014193039
 40
0.1354438824911375
 40
0.138854960216961
 40
0.1422717919807941
 40
0.1456952229976381
 40
0.1491273682498387
 40
0.1491273682498387
 40
0.1491273682498387
 40
0.1491273682498387
 10
101.1647708505863
 20
-8.982752964300548
 30
0.0
 10
101.1655776099128
 20
-8.981599663879567
 30
0.0
 10
101.1671787843917
 20
-8.979307200867285
 30
0.0
 10
101.1695602519113
 20
-8.975887074893226
 30
0.0
 10
101.171906807425
 20
-8.972506602503077
 30
0.0
 10
101.1742203848429
 20
-8.969163697168117
 30
0.0
 10
101.1765016693874
 20
-8.965856027739594
 30
0.0
 10
101.1787525899418
 20
-8.962582514518008
 30
0.0
 10
101.1809745945112
 20
-8.959340941079236
 30
0.0
 10
101.1831694276882
 20
-8.95612909204917
 30
0.0
 10
101.1853388538778
 20
-8.952944571084803
 30
0.0
 10
101.1874843423037
 20
-8.949785419971792
 30
0.0
 10
101.1896073907172
 20
-8.946649604776272
 30
0.0
 10
101.1917092566348
 20
-8.943535425696413
 30
0.0
 10
101.1937911970651
 20
-8.940441160030307
 30
0.0
 10
101.1958545376676
 20
-8.937364963960877
 30
0.0
 10
101.1979006656736
 20
-8.934304875423098
 30
0.0
 10
101.1999310577737
 20
-8.931258775505686
 30
0.0
 10
101.2019465285855
 20
-8.928225513451796
 30
0.0
 10
101.203947323264
 20
-8.925204785209732
 30
0.0
 10
101.2059330799111
 20
-8.922197206128036
 30
0.0
 10
101.2079030624362
 20
-8.919203966352998
 30
0.0
 10
101.2098566919259
 20
-8.916226034307502
 30
0.0
 10
101.2117937396703
 20
-8.913263854189469
 30
0.0
 10
101.2137148156215
 20
-8.910316588312216
 30
0.0
 10
101.2156208053667
 20
-8.907382961960482
 30
0.0
 10
101.2175127897825
 20
-8.904461381269616
 30
0.0
 10
101.2193918022819
 20
-8.901550306803105
 30
0.0
 10
101.2212589941483
 20
-8.898647992645837
 30
0.0
 10
101.2231154385337
 20
-8.89575279362231
 30
0.0
 10
101.2249620146079
 20
-8.892863344201291
 30
0.0
 10
101.2267995217781
 20
-8.889978387281733
 30
0.0
 10
101.2286287421269
 20
-8.887096674601796
 30
0.0
 10
101.2304504911711
 20
-8.884216888927884
 30
0.0
 10
101.2322656216535
 20
-8.881337628631772
 30
0.0
 10
101.2340750357965
 20
-8.878457415577205
 30
0.0
 10
101.235879693855
 20
-8.875574572838704
 30
0.0
 10
101.2376807037358
 20
-8.872687471905297
 30
0.0
 10
101.2394785653906
 20
-8.869794275573472
 30
0.0
 10
101.2412742619328
 20
-8.866893935006803
 30
0.0
 10
101.2430683226187
 20
-8.863985667211839
 30
0.0
 10
101.2448612561579
 20
-8.861068458452056
 30
0.0
 10
101.2460545784102
 20
-8.859119589381155
 30
0.0
 10
101.2466511783863
 20
-8.858143415600498
 30
0.0
 11
101.1647708505863
 21
-8.982752964300548
 31
0.0
 11
101.1671885512863
 21
-8.979291284600524
 31
0.0
 11
101.1695691425863
 21
-8.975872017900517
 31
0.0
 11
101.1719147523863
 21
-8.972492436300516
 31
0.0
 11
101.1742275577864
 21
-8.969149704600514
 31
0.0
 11
101.1765085734863
 21
-8.965842639400566
 31
0.0
 11
101.1787589658863
 21
-8.962569821100547
 31
0.0
 11
101.1809803239863
 21
-8.959329193600556
 31
0.0
 11
101.1831746897863
 21
-8.956118011100532
 31
0.0
 11
101.1853435300863
 21
-8.952934338200496
 31
0.0
 11
101.1874886658863
 21
-8.949775692900519
 31
0.0
 11
101.1896112082863
 21
-8.946640612200528
 31
0.0
 11
101.1917127218863
 21
-8.943526941900561
 31
0.0
 11
101.1937943019862
 21
-8.940433198900539
 31
0.0
 11
101.1958570624863
 21
-8.937357854400577
 31
0.0
 11
101.1979027670863
 21
-8.934298386200541
 31
0.0
 11
101.1999327011864
 21
-8.931252960100525
 31
0.0
 11
101.2019482447864
 21
-8.928219575200532
 31
0.0
 11
101.2039491821863
 21
-8.92519861830053
 31
0.0
 11
101.2059350907863
 21
-8.922190795500487
 31
0.0
 11
101.2079055226862
 21
-8.919196859600535
 31
0.0
 11
101.2098591447862
 21
-8.916218925200528
 31
0.0
 11
101.2117959985863
 21
-8.913257028300538
 31
0.0
 11
101.2137166843863
 21
-8.910310347500487
 31
0.0
 11
101.2156223853864
 21
-8.907377152000524
 31
0.0
 11
101.2175139738863
 21
-8.904456169300576
 31
0.0
 11
101.2193926374863
 21
-8.901545621500563
 31
0.0
 11
101.2212594140863
 21
-8.898643939200528
 31
0.0
 11
101.2231155334863
 21
-8.89574923300049
 31
0.0
 11
101.2249619460864
 21
-8.892860025400526
 31
0.0
 11
101.2267991125862
 21
-8.88997558900056
 31
0.0
 11
101.2286280189863
 21
-8.887094356800535
 31
0.0
 11
101.2304495640863
 21
-8.884214878100497
 31
0.0
 11
101.2322643084863
 21
-8.881336218400495
 31
0.0
 11
101.2340733567863
 21
-8.878456561900524
 31
0.0
 11
101.2358777243863
 21
-8.875574208700502
 31
0.0
 11
101.2376782607863
 21
-8.872687699700552
 31
0.0
 11
101.2394761256862
 21
-8.869795052900574
 31
0.0
 11
101.2412720498863
 21
-8.866894949000485
 31
0.0
 11
101.2430661821863
 21
-8.863986991900535
 31
0.0
 11
101.2448588855862
 21
-8.8610704277005
 31
0.0
 11
101.2466511783863
 21
-8.858143415600498
 31
0.0
  0
SPLINE
  5
5560E
330
1F
100
AcDbEntity
  8
1
100
AcDbSpline
210
0.0
220
0.0
230
1.0
 70
     8
 71
     3
 72
    47
 73
    43
 74
    41
 42
0.0000000001
 43
0.0000000001
 44
0.000001
 12
0.5117436941092194
 22
0.859138167898185
 32
0.0
 13
0.448150011366692
 23
0.893958370010614
 33
0.0
 40
0.0
 40
0.0
 40
0.0
 40
0.0
 40
0.0043539141027643
 40
0.0086469475033216
 40
0.0128826881155959
 40
0.0170636183978863
 40
0.0211934785584641
 40
0.0252748998853033
 40
0.0293114492098326
 40
0.0333056917747087
 40
0.0372595669328861
 40
0.0411765268648478
 40
0.045059087051689
 40
0.0489092158611825
 40
0.0527302243619585
 40
0.0565240347218923
 40
0.0602917487986369
 40
0.0640358015316785
 40
0.0677589560531737
 40
0.0714631793179933
 40
0.0751465732734478
 40
0.0788074293234844
 40
0.0824457856740326
 40
0.0860610968770706
 40
0.0896529966443341
 40
0.0932239836028498
 40
0.0967763372798171
 40
0.1003117922119583
 40
0.1038325668519152
 40
0.1073418176065951
 40
0.1108402857175139
 40
0.1143283398882625
 40
0.1178074356506244
 40
0.1212804053581445
 40
0.1247496509617792
 40
0.1282178333026492
 40
0.1316872054866717
 40
0.1351600605115751
 40
0.1386369453386395
 40
0.1421182468659232
 40
0.1456058715294975
 40
0.1491021265564809
 40
0.1491021265564809
 40
0.1491021265564809
 40
0.1491021265564809
 10
101.2466511783863
 20
-8.858143415600498
 30
0.0
 10
101.2473938744152
 20
-8.856896544338699
 30
0.0
 10
101.2488668115971
 20
-8.854419003154507
 30
0.0
 10
101.2510549616843
 20
-8.850724084942672
 30
0.0
 10
101.2532077470233
 20
-8.847075243490824
 30
0.0
 10
101.2553260616632
 20
-8.84346922530867
 30
0.0
 10
101.2574122803961
 20
-8.839904018779183
 30
0.0
 10
101.2594681220505
 20
-8.83637680481701
 30
0.0
 10
101.2614952273792
 20
-8.832885172799539
 30
0.0
 10
101.2634950694981
 20
-8.829426880540584
 30
0.0
 10
101.2654690969898
 20
-8.825999715464948
 30
0.0
 10
101.2674187327197
 20
-8.822601468857218
 30
0.0
 10
101.2693453898454
 20
-8.819229914916665
 30
0.0
 10
101.2712504431152
 20
-8.815882859740813
 30
0.0
 10
101.2731351554513
 20
-8.812558273061004
 30
0.0
 10
101.2750006332207
 20
-8.80925436764949
 30
0.0
 10
101.2768478286556
 20
-8.805969604444303
 30
0.0
 10
101.2786778204384
 20
-8.80270219373293
 30
0.0
 10
101.2804918146113
 20
-8.799450086508134
 30
0.0
 10
101.2822903020078
 20
-8.796212488584306
 30
0.0
 10
101.28407304776
 20
-8.792989907735435
 30
0.0
 10
101.2858395124759
 20
-8.789783417968639
 30
0.0
 10
101.2875893807592
 20
-8.786593701863981
 30
0.0
 10
101.2893225557154
 20
-8.7834210514462
 30
0.0
 10
101.2910393352016
 20
-8.780265039755224
 30
0.0
 10
101.29274046128
 20
-8.777124409405761
 30
0.0
 10
101.2944269983601
 20
-8.773997281144776
 30
0.0
 10
101.2960999535265
 20
-8.77088185088596
 30
0.0
 10
101.2977604580149
 20
-8.767776049463041
 30
0.0
 10
101.2994094723518
 20
-8.764678091962739
 30
0.0
 10
101.301047654579
 20
-8.761586731083472
 30
0.0
 10
101.3026753900897
 20
-8.758501216855027
 30
0.0
 10
101.3042933823316
 20
-8.75542017920728
 30
0.0
 10
101.3059026371007
 20
-8.752341641541679
 30
0.0
 10
101.3075043260337
 20
-8.749263260933194
 30
0.0
 10
101.3090995270296
 20
-8.746182863564204
 30
0.0
 10
101.3106892302457
 20
-8.743098271872302
 30
0.0
 10
101.3122742831568
 20
-8.740008027112114
 30
0.0
 10
101.3138545016796
 20
-8.73691084253372
 30
0.0
 10
101.3154306930229
 20
-8.733806084526978
 30
0.0
 10
101.3170035611716
 20
-8.730692406242528
 30
0.0
 10
101.3180489725429
 20
-8.728612377082246
 30
0.0
 10
101.3185712547863
 20
-8.72757054160056
 30
0.0
 11
101.2466511783863
 21
-8.858143415600498
 31
0.0
 11
101.2488759788863
 21
-8.854400882500531
 31
0.0
 11
101.2510632303863
 21
-8.850706926000501
 31
0.0
 11
101.2532149612863
 21
-8.84705857850054
 31
0.0
 11
101.2553326921863
 21
-8.843453689900545
 31
0.0
 11
101.2574184379863
 21
-8.839889229000537
 31
0.0
 11
101.2594736739863
 21
-8.836363043400556
 31
0.0
 11
101.2615003374863
 21
-8.832872148100509
 31
0.0
 11
101.2634998451864
 21
-8.829414413300529
 31
0.0
 11
101.2654732872863
 21
-8.825988242800551
 31
0.0
 11
101.2674224949863
 21
-8.82259072090051
 31
0.0
 11
101.2693488157863
 21
-8.819219733900556
 31
0.0
 11
101.2712533124863
 21
-8.815873635200521
 31
0.0
 11
101.2731376981863
 21
-8.812549603100567
 31
0.0
 11
101.2750029847863
 21
-8.809246014700509
 31
0.0
 11
101.2768497717862
 21
-8.805961956100535
 31
0.0
 11
101.2786793028863
 21
-8.802695346100538
 31
0.0
 11
101.2804929670864
 21
-8.799443808600504
 31
0.0
 11
101.2822917510863
 21
-8.796205654700518
 31
0.0
 11
101.2840747618862
 21
-8.792982572600497
 31
0.0
 11
101.2858412097863
 21
-8.789776091100552
 31
0.0
 11
101.2875911547863
 21
-8.786586212700516
 31
0.0
 11
101.2893243775863
 21
-8.783413452300553
 31
0.0
 11
101.2910407482862
 21
-8.780258169400529
 31
0.0
 11
101.2927415016863
 21
-8.777118204400554
 31
0.0
 11
101.2944277534862
 21
-8.773991582300514
 31
0.0
 11
101.2961003477863
 21
-8.770876800800497
 31
0.0
 11
101.2977603451862
 21
-8.767771924600484
 31
0.0
 11
101.2994092321863
 21
-8.764674182600547
 31
0.0
 11
101.3010473454863
 21
-8.761582927800507
 31
0.0
 11
101.3026748430862
 21
-8.758497840300581
 31
0.0
 11
101.3042923846864
 21
-8.755417636300538
 31
0.0
 11
101.3059012560862
 21
-8.752339805900565
 31
0.0
 11
101.3075025251863
 21
-8.749262211300536
 31
0.0
 11
101.3090973611863
 21
-8.746182476000516
 31
0.0
 11
101.3106867269863
 21
-8.743098576400573
 31
0.0
 11
101.3122715863864
 21
-8.740008445400551
 31
0.0
 11
101.3138521314863
 21
-8.736911487000529
 31
0.0
 11
101.3154284059863
 21
-8.733807382300572
 31
0.0
 11
101.3170011423864
 21
-8.730694433600522
 31
0.0
 11
101.3185712547863
 21
-8.72757054160056
 31
0.0
  0
SPLINE
  5
5560F
330
1F
100
AcDbEntity
  8
1
100
AcDbSpline
210
0.0
220
0.0
230
1.0
 70
     8
 71
     3
 72
    59
 73
    55
 74
    53
 42
0.0000000001
 43
0.0000000001
 44
0.000001
 12
0.9993424176592453
 22
0.0362592369883121
 32
0.0
 13
0.999723953563212
 23
-0.0234950350487293
 33
0.0
 40
0.0
 40
0.0
 40
0.0
 40
0.0
 40
0.0423103895361238
 40
0.1032191964306921
 40
0.1639271086824989
 40
0.2231405518876751
 40
0.251782608287475
 40
0.279565963301013
 40
0.3064562830323069
 40
0.3329296707724421
 40
0.3595895696751794
 40
0.3870394295313735
 40
0.4158827146563553
 40
0.4467229081417439
 40
0.5168080352738543
 40
0.5419709247261877
 40
0.5548278002577522
 40
0.5677047780040397
 40
0.5932126739662151
 40
0.6186097321252775
 40
0.6440790004561427
 40
0.66952296712461
 40
0.6948273752475491
 40
0.7075626348611978
 40
0.7204448969207025
 40
0.7334746440557323
 40
0.7464716859459886
 40
0.7713755130395277
 40
0.8002093809718777
 40
0.8253460575983718
 40
0.8485014653846199
 40
0.8713914866037837
 40
0.8953693789491897
 40
0.9203379561565089
 40
0.9714079517496269
 40
1.021700821039139
 40
1.071425038664165
 40
1.121357438249513
 40
1.171442456677053
 40
1.271460555788109
 40
1.371479467897773
 40
1.471498875817468
 40
1.571518831082918
 40
1.671539360991334
 40
1.771560630279024
 40
1.871582504236534
 40
1.971604975264707
 40
2.071628102566659
 40
2.171651904446498
 40
2.271676436814788
 40
2.37170158967058
 40
2.471727229228792
 40
2.571753819929224
 40
2.67178197177628
 40
2.67178197177628
 40
2.67178197177628
 40
2.67178197177628
 10
96.83367620068622
 20
9.814259385599452
 30
0.0
 10
96.84777038967661
 20
9.8147707664132
 30
0.0
 10
96.88215437706686
 20
9.816012433802651
 30
0.0
 10
96.93676182209129
 20
9.817965787253594
 30
0.0
 10
96.99700035652075
 20
9.820111013951699
 30
0.0
 10
97.04648983126356
 20
9.821881620429845
 30
0.0
 10
97.0850109385516
 20
9.823274606929853
 30
0.0
 10
97.11276434972308
 20
9.824288130495258
 30
0.0
 10
97.1397948739267
 20
9.825288290706506
 30
0.0
 10
97.16645102317375
 20
9.826278513786459
 30
0.0
 10
97.19329378479972
 20
9.827269537792286
 30
0.0
 10
97.22092655936103
 20
9.828273785255358
 30
0.0
 10
97.24995274230208
 20
9.829303742699831
 30
0.0
 10
97.29318332865501
 20
9.830792436847897
 30
0.0
 10
97.33519040096702
 20
9.832163315002016
 30
0.0
 10
97.37120785181993
 20
9.833287459803838
 30
0.0
 10
97.38816651240473
 20
9.833772479960142
 30
0.0
 10
97.40524127581796
 20
9.834219089001205
 30
0.0
 10
97.42649725439651
 20
9.83467182448194
 30
0.0
 10
97.45195242383283
 20
9.835064054967997
 30
0.0
 10
97.47738791234702
 20
9.835328828458525
 30
0.0
 10
97.50279349500216
 20
9.835469825977295
 30
0.0
 10
97.52395481584574
 20
9.835482874015237
 30
0.0
 10
97.54092869190925
 20
9.835417930073329
 30
0.0
 10
97.55381082727025
 20
9.835328410259389
 30
0.0
 10
97.56677985846545
 20
9.835196557214427
 30
0.0
 10
97.58375540364125
 20
9.834983331401357
 30
0.0
 10
97.60599778219569
 20
9.834646153255274
 30
0.0
 10
97.63228569988939
 20
9.834214544937164
 30
0.0
 10
97.65799027974276
 20
9.833756594881574
 30
0.0
 10
97.68171344530891
 20
9.83330996867394
 30
0.0
 10
97.70505032092922
 20
9.832865521431269
 30
0.0
 10
97.72899174854035
 20
9.832424013677265
 30
0.0
 10
97.76232510213048
 20
9.831820216171902
 30
0.0
 10
97.80442883234332
 20
9.83106619798411
 30
0.0
 10
97.85478269950397
 20
9.830141206188809
 30
0.0
 10
97.90475717147376
 20
9.829209188580559
 30
0.0
 10
97.95466231459194
 20
9.828275395492394
 30
0.0
 10
98.02132899210107
 20
9.82701950764348
 30
0.0
 10
98.10468786223726
 20
9.825430621318613
 30
0.0
 10
98.2046878541861
 20
9.823490626884133
 30
0.0
 10
98.30468788389692
 20
9.821520919473694
 30
0.0
 10
98.40468784309223
 20
9.819520481931217
 30
0.0
 10
98.50468780846894
 20
9.81748956563899
 30
0.0
 10
98.60468778781786
 20
9.815428068874634
 30
0.0
 10
98.70468778140946
 20
9.813336095058641
 30
0.0
 10
98.80468775103475
 20
9.811213586085184
 30
0.0
 10
98.90468771075985
 20
9.809060546193588
 30
0.0
 10
99.00468769664918
 20
9.80687701631032
 30
0.0
 10
99.10468768861949
 20
9.80466304882341
 30
0.0
 10
99.20468761446365
 20
9.802418625986714
 30
0.0
 10
99.30468752715524
 20
9.800143258063169
 30
0.0
 10
99.4046877624088
 20
9.797838308257549
 30
0.0
 10
99.47135446874234
 20
9.796280039410614
 30
0.0
 10
99.50468798188637
 20
9.795496651099451
 30
0.0
 11
96.83367620068622
 21
9.814259385599452
 31
0.0
 11
96.87595900678628
 21
9.815787738199471
 31
0.0
 11
96.93682879478627
 21
9.817967571199485
 31
0.0
 11
96.99749812998641
 21
9.820131432599421
 31
0.0
 11
97.05667358628637
 21
9.822252077099417
 31
0.0
 11
97.08529691418631
 21
9.823287678699468
 31
0.0
 11
97.11306173758636
 21
9.824302259099479
 31
0.0
 11
97.13993372218636
 21
9.825295091499437
 31
0.0
 11
97.16638892318634
 21
9.826276203599487
 31
0.0
 11
97.19303072648642
 21
9.82725830149948
 31
0.0
 11
97.22046251838628
 21
9.828254091399482
 31
0.0
 11
97.24928768508631
 21
9.829276279599437
 31
0.0
 11
97.2801096124864
 21
9.830337572299438
 31
0.0
 11
97.35015729448628
 21
9.832628296399459
 31
0.0
 11
97.37530828818638
 21
9.833401950999441
 31
0.0
 11
97.3881599502863
 21
9.833768061199432
 31
0.0
 11
97.40103257128636
 21
9.834103013799474
 31
0.0
 11
97.42653463428633
 21
9.834648526599462
 31
0.0
 11
97.45192862108627
 21
9.835043559099428
 31
0.0
 11
97.47739650438631
 21
9.835309278899469
 31
0.0
 11
97.50284008248639
 21
9.835450106599434
 31
0.0
 11
97.52814448918627
 21
9.835461529799456
 31
0.0
 11
97.54087965508631
 21
9.83541252709946
 31
0.0
 11
97.55376160578634
 21
9.835322883599442
 31
0.0
 11
97.56679069848633
 21
9.835192241999461
 31
0.0
 11
97.57978673218634
 21
9.835030320899445
 31
0.0
 11
97.60468783878639
 21
9.834662167299452
 31
0.0
 11
97.63351781098629
 21
9.834188141299446
 31
0.0
 11
97.65865051878632
 21
9.833741424999427
 31
0.0
 11
97.6818018791863
 21
9.833308456799468
 31
0.0
 11
97.70468780968634
 21
9.832875674699462
 31
0.0
 11
97.7286616051864
 21
9.832432383099469
 31
0.0
 11
97.75362607358637
 21
9.831979350799453
 31
0.0
 11
97.80468777228634
 21
9.83105860549946
 31
0.0
 11
97.85497219068634
 21
9.830136365099431
 31
0.0
 11
97.90468780538629
 21
9.829210973999433
 31
0.0
 11
97.95461147248637
 21
9.828276291999483
 31
0.0
 11
98.00468764378628
 21
9.827332761599475
 31
0.0
 11
98.10468768108638
 21
9.82542399599944
 31
0.0
 11
98.20468765268618
 21
9.823484681799438
 31
0.0
 11
98.30468764008641
 21
9.821514803999459
 31
0.0
 11
98.40468758128634
 21
9.81951440859947
 31
0.0
 11
98.50468748548633
 21
9.817483476499457
 31
0.0
 11
98.60468750578627
 21
9.815421996099441
 31
0.0
 11
98.70468749828626
 21
9.813330012499502
 31
0.0
 11
98.80468744528627
 21
9.811207504799451
 31
0.0
 11
98.90468739648634
 21
9.809054472099457
 31
0.0
 11
99.00468736158632
 21
9.806870951399471
 31
0.0
 11
99.10468738798636
 21
9.80465697999946
 31
0.0
 11
99.20468735448629
 21
9.802412474899451
 31
0.0
 11
99.3046871156863
 21
9.800137338999459
 31
0.0
 11
99.40468713458631
 21
9.797831913799452
 31
0.0
 11
99.50468798188637
 21
9.795496651099451
 31
0.0
  0
SPLINE
  5
55610
330
1F
100
AcDbEntity
  8
1
100
AcDbSpline
210
0.0
220
0.0
230
1.0
 70
     8
 71
     3
 72
    36
 73
    32
 74
     0
 42
0.0000000001
 43
0.0000000001
 40
0.6009475512781837
 40
0.6009475512781837
 40
0.6009475512781837
 40
0.6009475512781837
 40
0.6025607008871142
 40
0.6245638633691149
 40
0.6455120022656839
 40
0.6664536395021453
 40
0.6876655592525417
 40
0.7088958440466378
 40
0.7299774841903504
 40
0.7510167166707486
 40
0.7725510991794109
 40
0.7953389828261355
 40
0.8201280080374594
 40
0.8476477227366999
 40
0.878446672652249
 40
0.912856010572989
 40
0.9511741463463874
 40
0.9936947108028483
 40
1.04069306154564
 40
1.092432569736951
 40
1.149746704230999
 40
1.214699473542321
 40
1.288395308757229
 40
1.367365087796228
 40
1.446108260723369
 40
1.522815633881833
 40
1.599096733834828
 40
1.679619999129544
 40
1.768996195770915
 40
1.867736263267303
 40
1.975382571895489
 40
1.975382571895489
 40
1.975382571895489
 40
1.975382571895489
 10
96.83367622891672
 20
9.814258100452118
 30
0.0
 10
96.83340743549194
 20
9.81425219594362
 30
0.0
 10
96.82947233300286
 20
9.814165744381025
 30
0.0
 10
96.82204672251089
 20
9.81400232495994
 30
0.0
 10
96.81140049299267
 20
9.813767312901031
 30
0.0
 10
96.80088611988105
 20
9.813534544593888
 30
0.0
 10
96.79032474836834
 20
9.813300086142501
 30
0.0
 10
96.77974006281885
 20
9.813064478527987
 30
0.0
 10
96.76918416475349
 20
9.812828910213195
 30
0.0
 10
96.75857760921156
 20
9.812591635581977
 30
0.0
 10
96.74768676362839
 20
9.812347431826335
 30
0.0
 10
96.73617112297836
 20
9.812088623996341
 30
0.0
 10
96.72365819346817
 20
9.811806750419432
 30
0.0
 10
96.70981044152188
 20
9.811494069721842
 30
0.0
 10
96.69435973167026
 20
9.811144355325748
 30
0.0
 10
96.67710976699925
 20
9.810752980461895
 30
0.0
 10
96.6579067252543
 20
9.81031629255548
 30
0.0
 10
96.63660608024805
 20
9.809830882797623
 30
0.0
 10
96.61306914106194
 20
9.809293606665416
 30
0.0
 10
96.58706727358413
 20
9.808698986676997
 30
0.0
 10
96.55807381835746
 20
9.80803450295124
 30
0.0
 10
96.52542198092158
 20
9.807284214600738
 30
0.0
 10
96.48916188326381
 20
9.806448344907121
 30
0.0
 10
96.4506040739144
 20
9.805556108034149
 30
0.0
 10
96.41154456533218
 20
9.804648402644115
 30
0.0
 10
96.37293314530337
 20
9.803746972567378
 30
0.0
 10
96.33402522070685
 20
9.802834486628366
 30
0.0
 10
96.29300650580297
 20
9.801868247561738
 30
0.0
 10
96.24824577823176
 20
9.800809176487145
 30
0.0
 10
96.19896594660453
 20
9.799637346263434
 30
0.0
 10
96.16457800685328
 20
9.79881674221664
 30
0.0
 10
96.14664209588624
 20
9.798387295499448
 30
0.0
  0
SPLINE
  5
55611
330
1F
100
AcDbEntity
  8
1
100
AcDbSpline
210
0.0
220
0.0
230
1.0
 70
     8
 71
     3
 72
    41
 73
    37
 74
     0
 42
0.0000000001
 43
0.0000000001
 40
0.0
 40
0.0
 40
0.0
 40
0.0
 40
0.0086742543841339
 40
0.017251048394832
 40
0.025733893041621
 40
0.0341279109661479
 40
0.0424389509424542
 40
0.0506715772594268
 40
0.0588315902384174
 40
0.0669242694736539
 40
0.0749536140341751
 40
0.0829251268162632
 40
0.0908433237130376
 40
0.0987113180499454
 40
0.1065339722050548
 40
0.1143160591345143
 40
0.1220622301615951
 40
0.1297781998729032
 40
0.1374694461839589
 40
0.1451409440353203
 40
0.152794187890375
 40
0.1604305745877657
 40
0.1680546086673145
 40
0.1756730410913943
 40
0.1832882939982845
 40
0.1908952265602227
 40
0.1984868787697523
 40
0.206058510484689
 40
0.2136085670058364
 40
0.2211419475388856
 40
0.2286644987387072
 40
0.2361801299622986
 40
0.2436914476783827
 40
0.2512026312685796
 40
0.2587167286542775
 40
0.2588176947272802
 40
0.2588176947272802
 40
0.2588176947272802
 40
0.2588176947272802
 10
99.77037650918635
 20
9.786257170599437
 30
0.0
 10
99.77181079490094
 20
9.786075789269855
 30
0.0
 10
99.77466308596149
 20
9.785713755874635
 30
0.0
 10
99.77891744112923
 20
9.785169848836883
 30
0.0
 10
99.78312498786534
 20
9.784628127824301
 30
0.0
 10
99.78728813595616
 20
9.784088433493675
 30
0.0
 10
99.79140946808911
 20
9.783550572097137
 30
0.0
 10
99.79549167767414
 20
9.783014323618512
 30
0.0
 10
99.79953736282448
 20
9.782479469069894
 30
0.0
 10
99.80354902705029
 20
9.781945790979843
 30
0.0
 10
99.80752912361106
 20
9.781413068514293
 30
0.0
 10
99.81147997853316
 20
9.780881088293678
 30
0.0
 10
99.81540377051159
 20
9.780349647735047
 30
0.0
 10
99.81930257154875
 20
9.779818550730535
 30
0.0
 10
99.82317849521757
 20
9.779287587841476
 30
0.0
 10
99.82703390810707
 20
9.778756506965148
 30
0.0
 10
99.83087131652382
 20
9.778225028540898
 30
0.0
 10
99.83469334211793
 20
9.77769284858871
 30
0.0
 10
99.83850265888953
 20
9.777159647272949
 30
0.0
 10
99.84230124329577
 20
9.776625194618784
 30
0.0
 10
99.84609039758504
 20
9.776089350129065
 30
0.0
 10
99.84987134595087
 20
9.775551980732725
 30
0.0
 10
99.85364617938671
 20
9.77501282560652
 30
0.0
 10
99.85741715717779
 20
9.774471593187794
 30
0.0
 10
99.86118494666005
 20
9.773928215077742
 30
0.0
 10
99.86494795353486
 20
9.773382949587894
 30
0.0
 10
99.86870340302743
 20
9.772836232054284
 30
0.0
 10
99.87244911286461
 20
9.772288418496795
 30
0.0
 10
99.87618485710834
 20
9.771739582596776
 30
0.0
 10
99.87991215537897
 20
9.771189539966368
 30
0.0
 10
99.88363342746447
 20
9.770637967752431
 30
0.0
 10
99.88735071430893
 20
9.770084593011826
 30
0.0
 10
99.8910657813368
 20
9.769529178890163
 30
0.0
 10
99.89478025137522
 20
9.768971505428989
 30
0.0
 10
99.89727312130083
 20
9.768595674445091
 30
0.0
 10
99.89852805779719
 20
9.76840608195047
 30
0.0
 10
99.89854469665159
 20
9.768403568126782
 30
0.0
  0
SPLINE
  5
55612
330
1F
100
AcDbEntity
  8
1
100
AcDbSpline
210
0.0
220
0.0
230
1.0
 70
     8
 71
     3
 72
    17
 73
    13
 74
    11
 42
0.0000000001
 43
0.0000000001
 44
0.000001
 12
-0.9995492549813393
 22
-0.0300214401095161
 32
0.0
 13
-0.9994721208135317
 23
-0.0324881473233101
 33
0.0
 40
0.0
 40
0.0
 40
0.0
 40
0.0
 40
0.139297921520404
 40
0.2787515037496774
 40
0.418355568396984
 40
0.5581042733365677
 40
0.6979920413611258
 40
0.8380131354088284
 40
0.9781617522606815
 40
1.118431689015235
 40
1.258816639444882
 40
1.399309822881991
 40
1.399309822881991
 40
1.399309822881991
 40
1.399309822881991
 10
94.66627929278628
 20
9.75882683229943
 30
0.0
 10
94.61986758156092
 20
9.75743285756334
 30
0.0
 10
94.5269928286217
 20
9.754625578570195
 30
0.0
 10
94.38760610853512
 20
9.750363753883984
 30
0.0
 10
94.24807062652599
 20
9.74605085745264
 30
0.0
 10
94.10839178337154
 20
9.741691702986994
 30
0.0
 10
93.96857519438993
 20
9.737290054875753
 30
0.0
 10
93.82862646189517
 20
9.732849593785484
 30
0.0
 10
93.68855138742777
 20
9.728374210313599
 30
0.0
 10
93.54835596997224
 20
9.723867484740704
 30
0.0
 10
93.4080464794996
 20
9.719334633727978
 30
0.0
 10
93.31446969128966
 20
9.716298024413273
 30
0.0
 10
93.26766335128638
 20
9.714776569999454
 30
0.0
 11
94.66627929278628
 21
9.75882683229943
 31
0.0
 11
94.52704489868631
 21
9.754619995799455
 31
0.0
 11
94.38765642748638
 21
9.750358551099477
 31
0.0
 11
94.24811895398637
 21
9.746046390099447
 31
0.0
 11
94.10843822478637
 21
9.741687458999447
 31
0.0
 11
93.96861972238628
 21
9.737285728699443
 31
0.0
 11
93.82866906498623
 21
9.732845205699444
 31
0.0
 11
93.6885919397863
 21
9.728369929499475
 31
0.0
 11
93.54839441838635
 21
9.723863981899423
 31
0.0
 11
93.40808266968634
 21
9.719331476299455
 31
0.0
 11
93.26766335128638
 21
9.714776569999454
 31
0.0
  0
SPLINE
  5
55613
330
1F
100
AcDbEntity
  8
1
100
AcDbSpline
210
0.0
220
0.0
230
1.0
 70
     8
 71
     3
 72
    16
 73
    12
 74
    10
 42
0.0000000001
 43
0.0000000001
 44
0.000001
 12
-0.9996962433357856
 22
-0.0246459136636909
 32
0.0
 13
-0.9996000911271801
 23
-0.0282782216296055
 33
0.0
 40
0.0
 40
0.0
 40
0.0
 40
0.0
 40
0.1637618602809003
 40
0.3277414180084643
 40
0.4919281962147167
 40
0.6563135297889157
 40
0.8208888962293475
 40
0.9856442955118957
 40
1.15057014317174
 40
1.315656195568791
 40
1.480892119941153
 40
1.480892119941153
 40
1.480892119941153
 40
1.480892119941153
 10
96.14664209588624
 20
9.798387295499448
 30
0.0
 10
96.09207139037801
 20
9.797041941942833
 30
0.0
 10
95.98285818591273
 20
9.794318923871056
 30
0.0
 10
95.81893525215184
 20
9.790144705283264
 30
0.0
 10
95.65480669930797
 20
9.785882077911335
 30
0.0
 10
95.49048160102108
 20
9.781538383194256
 30
0.0
 10
95.32596884268992
 20
9.777121611655726
 30
0.0
 10
95.16127771282333
 20
9.772635869568713
 30
0.0
 10
94.99641801025735
 20
9.768087420554987
 30
0.0
 10
94.83139958496236
 20
9.763484428637948
 30
0.0
 10
94.72133590780629
 20
9.760384358329613
 30
0.0
 10
94.66627929278628
 20
9.75882683229943
 30
0.0
 11
96.14664209588624
 21
9.798387295499448
 31
0.0
 11
95.98293105528625
 21
9.794307249499464
 31
0.0
 11
95.81900460498639
 21
9.790133635099461
 31
0.0
 11
95.6548731097863
 21
9.78587216359946
 31
0.0
 11
95.49054507658627
 21
9.781529607499432
 31
0.0
 11
95.32602900468635
 21
9.777112306799462
 31
0.0
 11
95.16133472268633
 21
9.772626753899455
 31
0.0
 11
94.99647161838641
 21
9.768079551099472
 31
0.0
 11
94.83144974818641
 21
9.763477340499459
 31
0.0
 11
94.66627929278628
 21
9.75882683229943
 31
0.0
  0
SPLINE
  5
55614
330
1F
100
AcDbEntity
  8
1
100
AcDbSpline
210
0.0
220
0.0
230
1.0
 70
     8
 71
     3
 72
    32
 73
    28
 74
    26
 42
0.0000000001
 43
0.0000000001
 44
0.000001
 12
0.0416878756684485
 22
0.9991306826548028
 32
0.0
 13
0.0019987911344967
 23
0.9999980024150051
 33
0.0
 40
0.0
 40
0.0
 40
0.0
 40
0.0
 40
0.0253133237737771
 40
0.0509427840260011
 40
0.0764004519048413
 40
0.1012401531212046
 40
0.1250533484845149
 40
0.1475422696219395
 40
0.1687763512392466
 40
0.1893685203037044
 40
0.2098316533873734
 40
0.230317749752155
 40
0.2508257554714715
 40
0.2711925912183194
 40
0.2913544608748968
 40
0.3114780964012572
 40
0.3316522865852516
 40
0.3518362494561893
 40
0.3723443739989984
 40
0.3939907562334035
 40
0.4175913298325067
 40
0.4437149242710664
 40
0.4726668182013438
 40
0.5047461838967362
 40
0.5402520874222572
 40
0.5794833610640965
 40
0.6400628535945333
 40
0.6400628535945333
 40
0.6400628535945333
 40
0.6400628535945333
 10
101.5946442850862
 20
7.026846155999461
 30
0.0
 10
101.5949960379843
 20
7.035276595486916
 30
0.0
 10
101.5956689152968
 20
7.052244234578036
 30
0.0
 10
101.5965843430575
 20
7.077694658074303
 30
0.0
 10
101.5973828238136
 20
7.102991092163389
 30
0.0
 10
101.5980504455173
 20
7.127685671693168
 30
0.0
 10
101.598588354164
 20
7.151393582605631
 30
0.0
 10
101.5990046697728
 20
7.173901858706553
 30
0.0
 10
101.5993185225451
 20
7.195338004735869
 30
0.0
 10
101.5995412250785
 20
7.216099989419003
 30
0.0
 10
101.5996828458718
 20
7.236613352428602
 30
0.0
 10
101.5997421638802
 20
7.257099065564627
 30
0.0
 10
101.5997305490246
 20
7.277552726966913
 30
0.0
 10
101.5996956136083
 20
7.29789826568901
 30
0.0
 10
101.5996826964119
 20
7.31811571337354
 30
0.0
 10
101.5996858149428
 20
7.338268945137027
 30
0.0
 10
101.5996911492016
 20
7.358429540625618
 30
0.0
 10
101.5996932772608
 20
7.378718299752048
 30
0.0
 10
101.5996967130362
 20
7.399497789410386
 30
0.0
 10
101.5997049356111
 20
7.421416148175293
 30
0.0
 10
101.5997184706982
 20
7.445206327854545
 30
0.0
 10
101.5997371932234
 20
7.471431675237877
 30
0.0
 10
101.5997626614058
 20
7.500483282315823
 30
0.0
 10
101.5997979879995
 20
7.532662317431256
 30
0.0
 10
101.5998439911243
 20
7.56826780275875
 30
0.0
 10
101.599919541747
 20
7.613373295964546
 30
0.0
 10
101.5999656380825
 20
7.646643522070771
 30
0.0
 10
101.600006
 20
7.66683664591002
 30
0.0
 11
101.5946442850862
 21
7.026846155999461
 31
0.0
 11
101.5956503102862
 21
7.052139583099485
 31
0.0
 11
101.5965685559863
 21
7.077752591099422
 31
0.0
 11
101.5973708881863
 21
7.103197631999503
 31
0.0
 11
101.5980423298864
 21
7.128028292999456
 31
0.0
 11
101.5985822425863
 21
7.151835436699482
 31
0.0
 11
101.5989984683864
 21
7.174320704499475
 31
0.0
 11
101.5993072451863
 21
7.195553069799441
 31
0.0
 11
101.5995275712863
 21
7.216143408499444
 31
0.0
 11
101.5996681423863
 21
7.236605916199462
 31
0.0
 11
101.5997293281863
 21
7.257091865299482
 31
0.0
 11
101.5997255828863
 21
7.277599842799443
 31
0.0
 11
101.5996981760863
 21
7.297966645999419
 31
0.0
 11
101.5996843587863
 21
7.318128503999471
 31
0.0
 11
101.5996851811864
 21
7.338252135699431
 31
0.0
 11
101.5996896122864
 21
7.358426322799484
 31
0.0
 11
101.5996924683862
 21
7.378610283399464
 31
0.0
 11
101.5996963486863
 21
7.399118405899482
 31
0.0
 11
101.5997043607864
 21
7.420764785299464
 31
0.0
 11
101.5997175340864
 21
7.444365354099456
 31
0.0
 11
101.5997361928863
 21
7.470488940899453
 31
0.0
 11
101.5997617604863
 21
7.499440822699423
 31
0.0
 11
101.5997967202863
 21
7.531520168699469
 31
0.0
 11
101.5998435403863
 21
7.567026041099463
 31
0.0
 11
101.5999051351863
 21
7.606257267899447
 31
0.0
 11
101.600006
 21
7.66683664591002
 31
0.0
  0
SPLINE
  5
55615
330
1F
100
AcDbEntity
  8
1
100
AcDbSpline
210
0.0
220
0.0
230
1.0
 70
     8
 71
     3
 72
    16
 73
    12
 74
    10
 42
0.0000000001
 43
0.0000000001
 44
0.000001
 12
0.0482150812919933
 22
0.9988369766563543
 32
0.0
 13
0.0465816943160087
 23
0.9989144837045111
 33
0.0
 40
0.0
 40
0.0
 40
0.0
 40
0.0
 40
0.0934047751872448
 40
0.1846952750434236
 40
0.2709695470436496
 40
0.3494597662359531
 40
0.4195708436449709
 40
0.4824303558566711
 40
0.5390649160255881
 40
0.5903807594739478
 40
0.6373488983061472
 40
0.6373488983061472
 40
0.6373488983061472
 40
0.6373488983061472
 10
101.5601035089863
 20
6.390439990399467
 30
0.0
 10
101.5616046819292
 20
6.421538704817233
 30
0.0
 10
101.5646194380066
 20
6.483029943881799
 30
0.0
 10
101.5691060614118
 20
6.57324166858984
 30
0.0
 10
101.5735825285787
 20
6.658476013962708
 30
0.0
 10
101.5779862887283
 20
6.736644194545899
 30
0.0
 10
101.5822589212046
 20
6.807001603773837
 30
0.0
 10
101.5861204087135
 20
6.870085236265534
 30
0.0
 10
101.5894732462838
 20
6.926923150014285
 30
0.0
 10
101.5923103252701
 20
6.978484900981836
 30
0.0
 10
101.5939149999243
 20
7.011207104615404
 30
0.0
 10
101.5946442850862
 20
7.026846155999461
 30
0.0
 11
101.5601035089863
 21
6.390439990399467
 31
0.0
 11
101.5646640417864
 21
6.483733368799445
 31
0.0
 11
101.5692315240863
 21
6.574909536099479
 31
0.0
 11
101.5737748460862
 21
6.661064096599456
 31
0.0
 11
101.5782027556863
 21
6.739429319299485
 31
0.0
 11
101.5824103806864
 21
6.809414024199465
 31
0.0
 11
101.5862218203864
 21
6.872157875899485
 31
0.0
 11
101.5895375561863
 21
6.928695287699465
 31
0.0
 11
101.5923357246863
 21
6.979934779299437
 31
0.0
 11
101.5946442850862
 21
7.026846155999461
 31
0.0
  0
SPLINE
  5
55616
330
1F
100
AcDbEntity
  8
1
100
AcDbSpline
210
0.0
220
0.0
230
1.0
 70
     8
 71
     3
 72
    14
 73
    10
 74
     8
 42
0.0000000001
 43
0.0000000001
 44
0.000001
 12
0.0505181688986345
 22
0.998723142122545
 32
0.0
 13
0.0534636888779657
 23
0.9985697942415242
 33
0.0
 40
0.0
 40
0.0
 40
0.0
 40
0.0
 40
0.0881924567879613
 40
0.1785507381500866
 40
0.2704015820190618
 40
0.3631240270483309
 40
0.4553680576227755
 40
0.5468025426731062
 40
0.6377289465635131
 40
0.6377289465635131
 40
0.6377289465635131
 40
0.6377289465635131
 10
101.5263907864863
 20
5.753603139699432
 30
0.0
 10
101.5278758936289
 20
5.782963088884368
 30
0.0
 10
101.5309069825076
 20
5.842402773852366
 30
0.0
 10
101.5355607098963
 20
5.932416423910463
 30
0.0
 10
101.5403745080481
 20
6.023933780636607
 30
0.0
 10
101.5453078022553
 20
6.116074256856702
 30
0.0
 10
101.5502778561638
 20
6.208073760626145
 30
0.0
 10
101.5552265097512
 20
6.299474867766004
 30
0.0
 10
101.5584830886636
 20
6.360174536924827
 30
0.0
 10
101.5601035089863
 20
6.390439990399467
 30
0.0
 11
101.5263907864863
 21
5.753603139699432
 31
0.0
 11
101.5308794260863
 21
5.841681299599454
 31
0.0
 11
101.5355474058864
 21
5.931918924599468
 31
0.0
 11
101.5403725280863
 21
6.023642944199476
 31
0.0
 11
101.5453227593863
 21
6.116233154899443
 31
0.0
 11
101.5502932523862
 21
6.208343173299478
 31
0.0
 11
101.5552271897863
 21
6.29964444369946
 31
0.0
 11
101.5601035089863
 21
6.390439990399467
 31
0.0
  0
SPLINE
  5
55617
330
1F
100
AcDbEntity
  8
1
100
AcDbSpline
210
0.0
220
0.0
230
1.0
 70
     8
 71
     3
 72
    21
 73
    17
 74
    15
 42
0.0000000001
 43
0.0000000001
 44
0.000001
 12
0.0511078686737044
 22
0.9986931389368965
 32
0.0
 13
0.0551810174779677
 23
0.9984763669261763
 33
0.0
 40
0.0
 40
0.0
 40
0.0
 40
0.0
 40
0.0415683517764967
 40
0.0832511108814422
 40
0.1248411935694348
 40
0.166182299876672
 40
0.2073536044358585
 40
0.2488506702006412
 40
0.2906688273925994
 40
0.3313998397278774
 40
0.3713994895712986
 40
0.4141705429454272
 40
0.4610851039638392
 40
0.5130193504343348
 40
0.5708153131043573
 40
0.6353896488831833
 40
0.6353896488831833
 40
0.6353896488831833
 40
0.6353896488831833
 10
101.4925978209863
 20
5.119113146799431
 30
0.0
 10
101.4933059776075
 20
5.132951156038128
 30
0.0
 10
101.4947277934174
 20
5.160665079209419
 30
0.0
 10
101.4968787768092
 20
5.202223182916807
 30
0.0
 10
101.4990381202182
 20
5.243705001602503
 30
0.0
 10
101.5011998416926
 20
5.285015979240792
 30
0.0
 10
101.503368467212
 20
5.326295546497188
 30
0.0
 10
101.5055540375124
 20
5.367733458975546
 30
0.0
 10
101.5077409285565
 20
5.409024332753116
 30
0.0
 10
101.509910593338
 20
5.449816279639289
 30
0.0
 10
101.5121064909644
 20
5.490924911220471
 30
0.0
 10
101.5144227657516
 20
5.534091232906174
 30
0.0
 10
101.5169649135843
 20
5.581229354936024
 30
0.0
 10
101.5197931185796
 20
5.63336762848402
 30
0.0
 10
101.5229599467601
 20
5.691382776790359
 30
0.0
 10
101.5252030273026
 20
5.732111156971054
 30
0.0
 10
101.5263907864863
 20
5.753603139699432
 30
0.0
 11
101.4925978209863
 21
5.119113146799431
 31
0.0
 11
101.4947299746862
 21
5.160626780599439
 31
0.0
 11
101.4968834275863
 21
5.20225387539946
 31
0.0
 11
101.4990453223863
 21
5.243787731099441
 31
0.0
 11
101.5012052218864
 21
5.28507237579944
 31
0.0
 11
101.5033651859863
 21
5.326186982199455
 31
0.0
 11
101.5055509068863
 21
5.367626444999441
 31
0.0
 11
101.5077626787863
 21
5.409386070499433
 31
0.0
 11
101.5099260981864
 21
5.450059587299417
 31
0.0
 11
101.5120597680862
 21
5.490002289099461
 31
0.0
 11
101.5143515891862
 21
5.532711896299442
 31
0.0
 11
101.5168781306863
 21
5.579558375399439
 31
0.0
 11
101.5196910734863
 21
5.631416386199443
 31
0.0
 11
101.5228422129861
 21
5.689126381799464
 31
0.0
 11
101.5263907864863
 21
5.753603139699432
 31
0.0
  0
SPLINE
  5
55618
330
1F
100
AcDbEntity
  8
1
100
AcDbSpline
210
0.0
220
0.0
230
1.0
 70
     8
 71
     3
 72
    14
 73
    10
 74
     8
 42
0.0000000001
 43
0.0000000001
 44
0.000001
 12
0.0506334838899357
 22
0.9987173024981432
 32
0.0
 13
0.0557805926463935
 23
0.9984430506964418
 33
0.0
 40
0.0
 40
0.0
 40
0.0
 40
0.0
 40
0.057350191359222
 40
0.1102663095490854
 40
0.1623615261918148
 40
0.2140997768049139
 40
0.26583908872362
 40
0.318298280189965
 40
0.3722868904524645
 40
0.3722868904524645
 40
0.3722868904524645
 40
0.3722868904524645
 10
101.4727695096864
 20
4.74735509549944
 30
0.0
 10
101.4737374563498
 20
4.76644730497011
 30
0.0
 10
101.4756142325008
 20
4.803154799257267
 30
0.0
 10
101.4784141591864
 20
4.857202836278812
 30
0.0
 10
101.4811577843193
 20
4.909380620773927
 30
0.0
 10
101.4839230014039
 20
4.961164441725511
 30
0.0
 10
101.4867359606361
 20
5.01306719438298
 30
0.0
 10
101.4896279354776
 20
5.065716869128262
 30
0.0
 10
101.4915939820941
 20
5.101144962554993
 30
0.0
 10
101.4925978209863
 20
5.119113146799431
 30
0.0
 11
101.4727695096864
 21
4.74735509549944
 31
0.0
 11
101.4756954035863
 21
4.804630604399473
 31
0.0
 11
101.4784342025863
 21
4.857475798299471
 31
0.0
 11
101.4811701219863
 21
4.909499123599399
 31
0.0
 11
101.4839288308864
 21
4.96116377449945
 31
0.0
 11
101.4867282160863
 21
5.012827300299445
 31
0.0
 11
101.4896038260864
 21
5.065207618099432
 31
0.0
 11
101.4925978209863
 21
5.119113146799431
 31
0.0
  0
SPLINE
  5
55619
330
1F
100
AcDbEntity
  8
1
100
AcDbSpline
210
0.0
220
0.0
230
1.0
 70
     8
 71
     3
 72
    21
 73
    17
 74
    15
 42
0.0000000001
 43
0.0000000001
 44
0.000001
 12
0.0529856682432913
 22
0.9985952728512248
 32
0.0
 13
0.0561841220223891
 23
0.9984204246872023
 33
0.0
 40
0.0
 40
0.0
 40
0.0
 40
0.0
 40
0.0414828819672194
 40
0.0841943122598047
 40
0.1297373316847701
 40
0.1782820053246531
 40
0.2287344995063041
 40
0.2808102187466608
 40
0.3355674620594899
 40
0.3944642926659076
 40
0.458851696567743
 40
0.5297385936654799
 40
0.6078072277792839
 40
0.6930985299724492
 40
0.7831805019654397
 40
0.8730019523471236
 40
0.8730019523471236
 40
0.8730019523471236
 40
0.8730019523471236
 10
101.4200108616863
 20
3.783416977899459
 30
0.0
 10
101.4207435277602
 20
3.797225181178358
 30
0.0
 10
101.4222330199168
 20
3.825250398275382
 30
0.0
 10
101.4245427990221
 20
3.868434449008386
 30
0.0
 10
101.4269924329516
 20
3.913968312336688
 30
0.0
 10
101.4295956707435
 20
3.962077995723827
 30
0.0
 10
101.4323299230842
 20
4.012361340017459
 30
0.0
 10
101.4351880863408
 20
4.064711860898139
 30
0.0
 10
101.4382087676712
 20
4.11987247876004
 30
0.0
 10
101.4414602034552
 20
4.179130503393903
 30
0.0
 10
101.445007838096
 20
4.243756914359376
 30
0.0
 10
101.4489034716538
 20
4.314764444703964
 30
0.0
 10
101.4531867546033
 20
4.392729152344937
 30
0.0
 10
101.4578380634149
 20
4.477081646756001
 30
0.0
 10
101.4627339437649
 20
4.565344209966948
 30
0.0
 10
101.4660901974102
 20
4.625218026587415
 30
0.0
 10
101.4677723771864
 20
4.655111216799436
 30
0.0
 11
101.4200108616863
 21
3.783416977899459
 31
0.0
 11
101.4222145809864
 21
3.82484128389947
 31
0.0
 11
101.4244955204862
 21
3.867491765399474
 31
0.0
 11
101.4269419671863
 21
3.912969028899421
 31
0.0
 11
101.4295644132863
 21
3.961442816599426
 31
0.0
 11
101.4323033535863
 21
4.011820910599478
 31
0.0
 11
101.4351417457864
 21
4.063819218699475
 31
0.0
 11
101.4381352574863
 21
4.118494574799481
 31
0.0
 11
101.4413611687863
 21
4.177302993699438
 31
0.0
 11
101.4448897586863
 21
4.241593636999507
 31
0.0
 11
101.4487741880863
 21
4.312374025299416
 31
0.0
 11
101.4530581921861
 21
4.390325028599473
 31
0.0
 11
101.4577556576863
 21
4.47548687459945
 31
0.0
 11
101.4627485208863
 21
4.565430373299445
 31
0.0
 11
101.4677723771864
 21
4.655111216799436
 31
0.0
  0
SPLINE
  5
5561A
330
1F
100
AcDbEntity
  8
1
100
AcDbSpline
210
0.0
220
0.0
230
1.0
 70
     8
 71
     3
 72
    19
 73
    15
 74
    13
 42
0.0000000001
 43
0.0000000001
 44
0.000001
 12
0.0538085030625013
 22
0.9985512730942629
 32
0.0
 13
0.0566763474465095
 23
0.9983926039590452
 33
0.0
 40
0.0
 40
0.0
 40
0.0
 40
0.0
 40
0.1007597027418551
 40
0.1918198452535826
 40
0.2745202637350736
 40
0.3490695689308283
 40
0.4156015672130394
 40
0.4753173843567466
 40
0.5306870848672142
 40
0.5841779499530544
 40
0.6379045465048278
 40
0.6921169630949377
 40
0.7463628106730279
 40
0.8000961225817516
 40
0.8000961225817516
 40
0.8000961225817516
 40
0.8000961225817516
 10
101.3306284461863
 20
2.152536264799433
 30
0.0
 10
101.3324356891109
 20
2.186074174615921
 30
0.0
 10
101.3358814643542
 20
2.249921208254303
 30
0.0
 10
101.3408327608824
 20
2.341293911549197
 30
0.0
 10
101.345327060917
 20
2.423941760138571
 30
0.0
 10
101.3493921283656
 20
2.498424820503739
 30
0.0
 10
101.3530514163419
 20
2.565257090714364
 30
0.0
 10
101.3563791235955
 20
2.625704735628058
 30
0.0
 10
101.3594771012484
 20
2.681811399929582
 30
0.0
 10
101.3624798041772
 20
2.735923875375387
 30
0.0
 10
101.3654758834481
 20
2.789650361547867
 30
0.0
 10
101.3685028663712
 20
2.843627173949325
 30
0.0
 10
101.3715479430354
 20
2.897605210046432
 30
0.0
 10
101.3735817487346
 20
2.933540757067472
 30
0.0
 10
101.3745968846863
 20
2.951423070799446
 30
0.0
 11
101.3306284461863
 21
2.152536264799433
 31
0.0
 11
101.3360605429862
 21
2.253149430199439
 31
0.0
 11
101.3409875612861
 21
2.34407617989947
 31
0.0
 11
101.3454784507863
 21
2.426654572099462
 31
0.0
 11
101.3495410669862
 21
2.501093093099452
 31
0.0
 11
101.3531800926863
 21
2.567525465699443
 31
0.0
 11
101.3564594506863
 21
2.627151190599445
 31
0.0
 11
101.3595131922862
 21
2.682436631099474
 31
0.0
 11
101.3624768901862
 21
2.735845333899444
 31
0.0
 11
101.3654686533863
 21
2.789488569499464
 31
0.0
 11
101.3685042458863
 21
2.843615932199465
 31
0.0
 11
101.3715582185863
 21
2.897775744099444
 31
0.0
 11
101.3745968846863
 21
2.951423070799446
 31
0.0
  0
SPLINE
  5
5561B
330
1F
100
AcDbEntity
  8
1
100
AcDbSpline
210
0.0
220
0.0
230
1.0
 70
     8
 71
     3
 72
    19
 73
    15
 74
    13
 42
0.0000000001
 43
0.0000000001
 44
0.000001
 12
0.0538989856337871
 22
0.9985463931874416
 32
0.0
 13
0.0566953971756925
 23
0.9983915223694012
 33
0.0
 40
0.0
 40
0.0
 40
0.0
 40
0.0
 40
0.0481593295921332
 40
0.098185270736582
 40
0.1502228643354384
 40
0.2034551794315913
 40
0.2583157413557162
 40
0.3169186162271574
 40
0.3814642348523682
 40
0.4537562251744007
 40
0.5344728584699997
 40
0.6238599491698946
 40
0.7227951737312459
 40
0.8331341791522309
 40
0.8331341791522309
 40
0.8331341791522309
 40
0.8331341791522309
 10
101.2843267596863
 20
1.320689968299486
 30
0.0
 10
101.2851920060242
 20
1.336719743253663
 30
0.0
 10
101.2869607542504
 20
1.369400337816241
 30
0.0
 10
101.289676442486
 20
1.419400931881252
 30
0.0
 10
101.2924982637452
 20
1.471089247356356
 30
0.0
 10
101.2954229199471
 20
1.524385886524893
 30
0.0
 10
101.2984814991642
 20
1.579866894256749
 30
0.0
 10
101.3017602746073
 20
1.639112589064151
 30
0.0
 10
101.305378779771
 20
1.704158847290923
 30
0.0
 10
101.3094221188935
 20
1.776564119958177
 30
0.0
 10
101.3139440257345
 20
1.857236058108437
 30
0.0
 10
101.3189816886435
 20
1.946774103669721
 30
0.0
 10
101.3245945859247
 20
2.046169522903849
 30
0.0
 10
101.3285432082742
 20
2.115815755599779
 30
0.0
 10
101.3306284461863
 20
2.152536264799433
 30
0.0
 11
101.2843267596863
 21
1.320689968299486
 31
0.0
 11
101.2869279142863
 21
1.368779003799428
 31
0.0
 11
101.2896413556862
 21
1.418731302599464
 31
0.0
 11
101.2924779642863
 21
1.470691528099447
 31
0.0
 11
101.2953943873864
 21
1.523843899199416
 31
0.0
 11
101.2984142391861
 21
1.57862131359948
 31
0.0
 11
101.3016544759863
 21
1.637134518799452
 31
0.0
 11
101.3052385136862
 21
1.701580543599472
 31
0.0
 11
101.3092689203863
 21
1.773760091999431
 31
0.0
 11
101.3137859422863
 21
1.854350235199458
 31
0.0
 11
101.3188068232863
 21
1.943596201999437
 31
0.0
 11
101.3243847590863
 21
2.042374059299472
 31
0.0
 11
101.3306284461863
 21
2.152536264799433
 31
0.0
  0
SPLINE
  5
5561C
330
1F
100
AcDbEntity
  8
1
100
AcDbSpline
210
0.0
220
0.0
230
1.0
 70
     8
 71
     3
 72
    18
 73
    14
 74
    12
 42
0.0000000001
 43
0.0000000001
 44
0.000001
 12
0.0551823759458681
 22
0.9984762918492201
 32
0.0
 13
0.0569091249763605
 23
0.9983793625142823
 33
0.0
 40
0.0
 40
0.0
 40
0.0
 40
0.0
 40
0.1034938397612894
 40
0.2006097325419658
 40
0.2891938172656154
 40
0.3692262147891941
 40
0.4413512520562512
 40
0.5068294485227323
 40
0.5668484553409634
 40
0.6221055373332628
 40
0.6728349672626671
 40
0.7192927951927669
 40
0.7617176630757091
 40
0.7617176630757091
 40
0.7617176630757091
 40
0.7617176630757091
 10
101.2415829725863
 20
0.5601726049994476
 30
0.0
 10
101.2434866512443
 20
0.5946179867841544
 30
0.0
 10
101.2471866932292
 20
0.66138545595933
 30
0.0
 10
101.252560107595
 20
0.7576335176998122
 30
0.0
 10
101.2575154154939
 20
0.8460722598148002
 30
0.0
 10
101.2620183354373
 20
0.9261929972381004
 30
0.0
 10
101.2660975554046
 20
0.9986234296132145
 30
0.0
 10
101.2698072446653
 20
1.064392971594568
 30
0.0
 10
101.2732033176572
 20
1.124548614032331
 30
0.0
 10
101.2763260131858
 20
1.179795606216739
 30
0.0
 10
101.2791995221422
 20
1.230529074600152
 30
0.0
 10
101.2818364747257
 20
1.27699168110325
 30
0.0
 10
101.2835219723168
 20
1.306571264115572
 30
0.0
 10
101.2843267596863
 20
1.320689968299486
 30
0.0
 11
101.2415829725863
 21
0.5601726049994476
 31
0.0
 11
101.2473126244863
 21
0.663507720099485
 31
0.0
 11
101.2527230391863
 21
0.7604727857994611
 31
0.0
 11
101.2576785193863
 21
0.8489181544994401
 31
0.0
 11
101.2621688765863
 21
0.92882448289944
 31
0.0
 11
101.2662242066864
 21
1.000835421499484
 31
0.0
 11
101.2699112921863
 21
1.06620972529944
 31
0.0
 11
101.2732944863863
 21
1.126133302999416
 31
0.0
 11
101.2764132971864
 21
1.181302298999437
 31
0.0
 11
101.2792820483863
 21
1.231950549899433
 31
0.0
 11
101.2819154789863
 21
1.278333680599441
 31
0.0
 11
101.2843267596863
 21
1.320689968299486
 31
0.0
  0
SPLINE
  5
5561D
330
1F
100
AcDbEntity
  8
1
100
AcDbSpline
210
0.0
220
0.0
230
1.0
 70
     8
 71
     3
 72
    35
 73
    31
 74
    29
 42
0.0000000001
 43
0.0000000001
 44
0.000001
 12
-0.9997588000473873
 22
0.0219622796587335
 32
0.0
 13
-0.9997134798575704
 23
0.0239365450946275
 33
0.0
 40
0.0
 40
0.0
 40
0.0
 40
0.0
 40
0.0118081673492176
 40
0.0222822366242736
 40
0.0327530550382619
 40
0.0433590149631518
 40
0.0539741574023054
 40
0.0645149775181756
 40
0.0750345937982198
 40
0.0858017850913135
 40
0.0971957269534614
 40
0.1095902395986828
 40
0.1233500969867721
 40
0.1387495719860577
 40
0.1559542409894859
 40
0.1751133089143439
 40
0.1963735911748492
 40
0.2198727665677798
 40
0.2457425206713473
 40
0.2743995879173826
 40
0.3068759725577284
 40
0.3437238901288031
 40
0.3832087795824758
 40
0.4225803659508803
 40
0.4609340524124818
 40
0.4990746022746159
 40
0.5393362348066982
 40
0.5840243330373287
 40
0.6333943674371425
 40
0.6872175244037897
 40
0.6872175244037897
 40
0.6872175244037897
 40
0.6872175244037897
 10
96.83367622928631
 20
-9.814258600600542
 30
0.0
 10
96.82974112287968
 20
-9.814172155842673
 30
0.0
 10
96.82231550608106
 20
-9.81400885445652
 30
0.0
 10
96.81140047155929
 20
-9.813768298065898
 30
0.0
 10
96.80088608407482
 20
-9.813536184226055
 30
0.0
 10
96.79032471653375
 20
-9.813301547986615
 30
0.0
 10
96.77974002987662
 20
-9.813065988386572
 30
0.0
 10
96.76918413205555
 20
-9.812830407136207
 30
0.0
 10
96.75857757639585
 20
-9.812593135970619
 30
0.0
 10
96.74768673079483
 20
-9.812348931251879
 30
0.0
 10
96.73617109009933
 20
-9.812090123708717
 30
0.0
 10
96.72365816055332
 20
-9.811808250008684
 30
0.0
 10
96.70981040856259
 20
-9.81149556950169
 30
0.0
 10
96.69435969867061
 20
-9.811145855080528
 30
0.0
 10
96.67710973396209
 20
-9.810754480062715
 30
0.0
 10
96.65790669217848
 20
-9.810317792201633
 30
0.0
 10
96.63660604714165
 20
-9.809832382437239
 30
0.0
 10
96.61306910793587
 20
-9.809295106269079
 30
0.0
 10
96.58706724044442
 20
-9.808700486453066
 30
0.0
 10
96.55807378522196
 20
-9.808036002672086
 30
0.0
 10
96.52542194780302
 20
-9.807285714345628
 30
0.0
 10
96.48916185018505
 20
-9.806449844618871
 30
0.0
 10
96.45060404089873
 20
-9.805557607865328
 30
0.0
 10
96.41154453241973
 20
-9.804649902042545
 30
0.0
 10
96.37293311247606
 20
-9.803748472962755
 30
0.0
 10
96.3340251880669
 20
-9.802835984051373
 30
0.0
 10
96.29300647299841
 20
-9.80186975623096
 30
0.0
 10
96.24824574644605
 20
-9.800810636759511
 30
0.0
 10
96.19896590870041
 20
-9.799639015703409
 30
0.0
 10
96.16457800773559
 20
-9.798816742308478
 30
0.0
 10
96.14664209588624
 20
-9.798387295500535
 30
0.0
 11
96.83367622928631
 21
-9.814258600600542
 31
0.0
 11
96.82187091958633
 21
-9.813998830000546
 31
0.0
 11
96.8113994010863
 21
-9.813767678200495
 31
0.0
 11
96.80093114728641
 21
-9.813535935000519
 31
0.0
 11
96.79032779978626
 21
-9.813300548600526
 31
0.0
 11
96.77971528608635
 21
-9.813064326100519
 31
0.0
 11
96.76917708968643
 21
-9.812829157000525
 31
0.0
 11
96.75866010458628
 21
-9.812593890600542
 31
0.0
 11
96.74789561898627
 21
-9.812352525100525
 31
0.0
 11
96.73650455348628
 21
-9.81209652300058
 31
0.0
 11
96.72411318428636
 21
-9.811817395600517
 31
0.0
 11
96.71035683308639
 21
-9.811506789900565
 31
0.0
 11
96.69496130088635
 21
-9.811158340100522
 31
0.0
 11
96.67776105788641
 21
-9.810768116000534
 31
0.0
 11
96.65860694128639
 21
-9.810332570900559
 31
0.0
 11
96.63735217618626
 21
-9.809848256000524
 31
0.0
 11
96.61385912068636
 21
-9.80931198520054
 31
0.0
 11
96.58799612878636
 21
-9.808720523600559
 31
0.0
 11
96.55934658508625
 21
-9.808063904200569
 31
0.0
 11
96.52687877158633
 21
-9.807317816400516
 31
0.0
 11
96.4900406414863
 21
-9.806468579600508
 31
0.0
 11
96.45056632038631
 21
-9.805555083700571
 31
0.0
 11
96.41120536248639
 21
-9.804640307800557
 31
0.0
 11
96.37286212398635
 21
-9.803745133900552
 31
0.0
 11
96.3347320578863
 21
-9.802850923200512
 31
0.0
 11
96.29448158978631
 21
-9.801902829300534
 31
0.0
 11
96.24980599548633
 21
-9.800845754900567
 31
0.0
 11
96.20044990528619
 21
-9.79967247230056
 31
0.0
 11
96.14664209588624
 21
-9.798387295500535
 31
0.0
  0
SPLINE
  5
5561E
330
1F
100
AcDbEntity
  8
1
100
AcDbSpline
210
0.0
220
0.0
230
1.0
 70
     8
 71
     3
 72
    59
 73
    55
 74
     0
 42
0.0000000001
 43
0.0000000001
 40
0.5997190317629693
 40
0.5997190317629693
 40
0.5997190317629693
 40
0.5997190317629693
 40
0.684339842132693
 40
0.8061574557202135
 40
0.9275732787535487
 40
1.046000163577517
 40
1.1032842756125
 40
1.158850984892509
 40
1.212631623664287
 40
1.265578398615363
 40
1.318898196141071
 40
1.373797915828377
 40
1.431484486291829
 40
1.493164873692021
 40
1.633335129267376
 40
1.683660908733054
 40
1.709374660182733
 40
1.735128616146675
 40
1.786144409303761
 40
1.836938527085473
 40
1.887877065326837
 40
1.938765000307538
 40
1.989373818213739
 40
2.014844338266077
 40
2.040608863195588
 40
2.066668358253504
 40
2.092662442786032
 40
2.142470098372601
 40
2.200137835925038
 40
2.250411190733589
 40
2.296722007862324
 40
2.34250205203934
 40
2.39045783888483
 40
2.440394995965394
 40
2.542534994332423
 40
2.643120743439355
 40
2.742569195665789
 40
2.842434026966662
 40
2.942604145139917
 40
3.142640648521602
 40
3.342678195444423
 40
3.542716967983567
 40
3.742756858739761
 40
3.942797905110756
 40
4.142840431616568
 40
4.342884165788308
 40
4.54292908818257
 40
4.742975305853113
 40
4.943022796709585
 40
5.143071158495579
 40
5.343122129372068
 40
5.543173486775771
 40
5.743226697041677
 40
5.94328301938217
 40
5.94328301938217
 40
5.94328301938217
 40
5.94328301938217
 10
96.83367621904279
 20
-9.814258882817629
 30
0.0
 10
96.84777040651022
 20
-9.814770453455682
 30
0.0
 10
96.88215434979065
 20
-9.81601348466663
 30
0.0
 10
96.93676182579077
 20
-9.817966117837645
 30
0.0
 10
96.9970003519162
 20
-9.820111559240391
 30
0.0
 10
97.04648982785341
 20
-9.821882115043226
 30
0.0
 10
97.08501093439565
 20
-9.82327510788534
 30
0.0
 10
97.11276434524563
 20
-9.824288630183705
 30
0.0
 10
97.13979486910194
 20
-9.825288790921693
 30
0.0
 10
97.16645101811003
 20
-9.826279013700972
 30
0.0
 10
97.19329377959377
 20
-9.827270037783737
 30
0.0
 10
97.22092655414066
 20
-9.82827428523365
 30
0.0
 10
97.24995273718571
 20
-9.829304242646205
 30
0.0
 10
97.29318332385663
 20
-9.830792937020337
 30
0.0
 10
97.3351903965571
 20
-9.832163815052926
 30
0.0
 10
97.37120784779087
 20
-9.833287959700559
 30
0.0
 10
97.38816650860497
 20
-9.833772980110868
 30
0.0
 10
97.40524127237359
 20
-9.834219588903383
 30
0.0
 10
97.42649725147749
 20
-9.834672324461084
 30
0.0
 10
97.45195242162436
 20
-9.835064555125061
 30
0.0
 10
97.47738791092196
 20
-9.835329328434998
 30
0.0
 10
97.50279349439018
 20
-9.835470325917956
 30
0.0
 10
97.52395481592294
 20
-9.835483374237274
 30
0.0
 10
97.54092869253419
 20
-9.835418429997421
 30
0.0
 10
97.55381082830105
 20
-9.835328910446239
 30
0.0
 10
97.56677985988597
 20
-9.835197057176205
 30
0.0
 10
97.58375540555187
 20
-9.834983831409179
 30
0.0
 10
97.60599778474944
 20
-9.834646653441698
 30
0.0
 10
97.63228570321212
 20
-9.834215044841702
 30
0.0
 10
97.65799028387062
 20
-9.833757095063706
 30
0.0
 10
97.68171345024086
 20
-9.833310468623185
 30
0.0
 10
97.70505032677068
 20
-9.832866021437897
 30
0.0
 10
97.72899175547468
 20
-9.83242451365135
 30
0.0
 10
97.76232511106583
 20
-9.831820716185806
 30
0.0
 10
97.80442884469643
 20
-9.83106669910396
 30
0.0
 10
97.85478271752948
 20
-9.830141701579922
 30
0.0
 10
97.90475719984772
 20
-9.829209705335021
 30
0.0
 10
97.95466236315371
 20
-9.828275830809278
 30
0.0
 10
98.02132911810247
 20
-9.827020344378386
 30
0.0
 10
98.10468794741872
 20
-9.825428364290448
 30
0.0
 10
98.20468795513319
 20
-9.82348933169786
 30
0.0
 10
98.30468792316743
 20
-9.821519365373919
 30
0.0
 10
98.40468787092744
 20
-9.819518997128742
 30
0.0
 10
98.50468782840778
 20
-9.817488062593358
 30
0.0
 10
98.60468780126929
 20
-9.815426569088206
 30
0.0
 10
98.7046877873869
 20
-9.813334599927689
 30
0.0
 10
98.80468774481677
 20
-9.811212069779774
 30
0.0
 10
98.90468767810865
 20
-9.809059112337397
 30
0.0
 10
99.00468751524488
 20
-9.806875284693379
 30
0.0
 10
99.10468750777091
 20
-9.804662478375153
 30
0.0
 10
99.20468744187758
 20
-9.80241811908812
 30
0.0
 10
99.30468748479587
 20
-9.800142814758149
 30
0.0
 10
99.40468773426403
 20
-9.797837575546399
 30
0.0
 10
99.47135446563549
 20
-9.796280039484745
 30
0.0
 10
99.50468798188637
 20
-9.79549665110051
 30
0.0
  0
ARC
  5
5561F
330
1F
100
AcDbEntity
  8
1
100
AcDbCircle
 10
91.60968783878628
 20
12.21499999999949
 30
0.0
 40
3.0
100
AcDbArc
 50
270.0
 51
303.5495889999984
  0
ARC
  5
55620
330
1F
100
AcDbEntity
  8
1
100
AcDbCircle
 10
99.56297483878632
 20
-7.693473500000525
 30
0.0
 40
2.037488499999998
100
AcDbArc
 50
340.4821559999993
 51
348.1300820000012
  0
ARC
  5
55621
330
1F
100
AcDbEntity
  8
1
100
AcDbCircle
 10
99.55186583878628
 20
-7.688403000000537
 30
0.0
 40
2.049654
100
AcDbArc
 50
332.9637470000067
 51
340.4523199999966
  0
ARC
  5
55622
330
1F
100
AcDbEntity
  8
1
100
AcDbCircle
 10
99.5427668387864
 20
-7.68339250000054
 30
0.0
 40
2.060036
100
AcDbArc
 50
329.5494119999996
 51
332.954651999998
  0
ARC
  5
55623
330
1F
100
AcDbEntity
  8
1
100
AcDbCircle
 10
99.35610283878634
 20
-7.745022500000519
 30
0.0
 40
2.194693999999999
100
AcDbArc
 50
333.4042630000009
 51
333.4080050525545
  0
ARC
  5
55624
330
1F
100
AcDbEntity
  8
1
100
AcDbCircle
 10
99.56486783878631
 20
-6.891601500000522
 30
0.0
 40
2.901941499999998
100
AcDbArc
 50
273.3418310000049
 51
274.0609489999987
  0
ARC
  5
55625
330
1F
100
AcDbEntity
  8
1
100
AcDbCircle
 10
99.56486783878631
 20
6.891601499999463
 30
0.0
 40
2.901941499999998
100
AcDbArc
 50
85.9390510000013
 51
86.65816900000173
  0
ARC
  5
55626
330
1F
100
AcDbEntity
  8
1
100
AcDbCircle
 10
97.53811833878637
 20
-4.884984000000518
 30
0.0
 40
5.546476999999997
100
AcDbArc
 50
303.8341630000053
 51
305.3736739999941
  0
ARC
  5
55627
330
1F
100
AcDbEntity
  8
1
100
AcDbCircle
 10
91.60968783878628
 20
-12.21500000000052
 30
0.0
 40
3.0
100
AcDbArc
 50
56.45041099999366
 51
90.0
  0
LINE
  5
55628
330
1F
100
AcDbEntity
  8
1
100
AcDbLine
 10
101.5999853387862
 20
-7.649512500000529
 30
0.0
 11
101.6000133387863
 21
-7.66288550000053
 31
0.0
  0
LINE
  5
55629
330
1F
100
AcDbEntity
  8
1
100
AcDbLine
 10
101.5998578387863
 20
-7.74660550000053
 30
0.0
 11
101.5948673387863
 21
-7.839938000000504
 31
0.0
  0
LINE
  5
5562A
330
1F
100
AcDbEntity
  8
1
100
AcDbLine
 10
101.6000133387863
 20
-7.66288550000053
 30
0.0
 11
101.5998578387863
 21
-7.74660550000053
 31
0.0
  0
LINE
  5
5562B
330
1F
100
AcDbEntity
  8
1
100
AcDbLine
 10
101.4677723387864
 20
-4.65511100000052
 30
0.0
 11
101.4727693387864
 21
-4.747355000000514
 31
0.0
  0
LINE
  5
5562C
330
1F
100
AcDbEntity
  8
1
100
AcDbLine
 10
101.2091398387863
 20
-0.2282125000005273
 30
0.0
 11
101.2241038387864
 21
-0.2561170000005042
 31
0.0
  0
LINE
  5
5562D
330
1F
100
AcDbEntity
  8
1
100
AcDbLine
 10
101.2241038387864
 20
-0.2561170000005042
 30
0.0
 11
101.2415828387863
 21
-0.5601725000005367
 31
0.0
  0
LINE
  5
5562E
330
1F
100
AcDbEntity
  8
1
100
AcDbLine
 10
99.67179683878624
 20
9.791523499999495
 30
0.0
 11
99.73403033878629
 21
9.788608499999465
 31
0.0
  0
LINE
  5
5562F
330
1F
100
AcDbEntity
  8
1
100
AcDbLine
 10
99.50468783878626
 20
9.795496499999469
 30
0.0
 11
99.67179683878624
 21
9.791523499999495
 31
0.0
  0
LINE
  5
55630
330
1F
100
AcDbEntity
  8
1
100
AcDbLine
 10
99.67179683878624
 20
-9.791523500000526
 30
0.0
 11
99.73403033878629
 21
-9.788608500000524
 31
0.0
  0
LINE
  5
55631
330
1F
100
AcDbEntity
  8
1
100
AcDbLine
 10
101.2091398387863
 20
0.2282124999994686
 30
0.0
 11
101.2090318387863
 21
0.0794724999994649
 31
0.0
  0
LINE
  5
55632
330
1F
100
AcDbEntity
  8
1
100
AcDbLine
 10
101.2090318387863
 20
-0.0794725000005521
 30
0.0
 11
101.2091446607656
 21
-0.228221491909526
 31
0.0
  0
LINE
  5
55633
330
1F
100
AcDbEntity
  8
1
100
AcDbLine
 10
101.2090318387863
 20
0.0794724999994649
 30
0.0
 11
101.2090318387863
 21
-0.0794725000005521
 31
0.0
  0
LINE
  5
55634
330
1F
100
AcDbEntity
  8
1
100
AcDbLine
 10
101.600006
 20
7.66683664591002
 30
0.0
 11
101.5997687680698
 21
7.794560486376578
 31
0.0
  0
LINE
  5
55635
330
1F
100
AcDbEntity
  8
1
100
AcDbLine
 10
99.50468783878626
 20
-9.795496500000556
 30
0.0
 11
99.67179683878624
 21
-9.791523500000526
 31
0.0
  0
LINE
  5
55636
330
1F
100
AcDbEntity
  8
1
100
AcDbLine
 10
101.2091398383555
 20
0.2282119067322377
 30
0.0
 11
101.2241038387864
 21
0.2561169999994739
 31
0.0
  0
LINE
  5
55637
330
1F
100
AcDbEntity
  8
1
100
AcDbLine
 10
101.2241038387864
 20
0.2561169999994739
 30
0.0
 11
101.2415828387863
 21
0.560172499999478
 31
0.0
  0
LINE
  5
55638
330
1F
100
AcDbEntity
  8
1
100
AcDbLine
 10
86.60968783878628
 20
-9.215000000000518
 30
0.0
 11
86.60968783878621
 21
-8.734160866847531
 31
0.0
  0
LINE
  5
55639
330
1F
100
AcDbEntity
  8
1
100
AcDbLine
 10
86.60968783878628
 20
8.148725298226549
 30
0.0
 11
86.60968783878628
 21
9.214999999999488
 31
0.0
  0
LINE
  5
5563A
330
1F
100
AcDbEntity
  8
1
100
AcDbLine
 10
91.60968783878628
 20
9.214999999999488
 30
0.0
 11
86.60968783878628
 21
9.214999999999488
 31
0.0
  0
LINE
  5
5563B
330
1F
100
AcDbEntity
  8
1
100
AcDbLine
 10
87.3874118387863
 20
-9.215000000000518
 30
0.0
 11
87.38741183878625
 21
-8.734160866847531
 31
0.0
  0
LINE
  5
5563C
330
1F
100
AcDbEntity
  8
1
100
AcDbLine
 10
87.3874118387863
 20
7.9160486347851
 30
0.0
 11
87.3874118387863
 21
9.214999999999459
 31
0.0
  0
LINE
  5
5563D
330
1F
100
AcDbEntity
  8
1
100
AcDbLine
 10
91.56911033878634
 20
-9.215000000000518
 30
0.0
 11
91.60968783878628
 21
-9.215000000000518
 31
0.0
  0
LINE
  5
5563E
330
1F
100
AcDbEntity
  8
1
100
AcDbLine
 10
86.60968783878628
 20
-9.215000000000518
 30
0.0
 11
91.56911033878634
 21
-9.215000000000518
 31
0.0
  0
ARC
  5
5563F
102
{ACAD_REACTORS
330
55642
102
}
330
1F
100
AcDbEntity
  8
1
100
AcDbCircle
 10
99.59977221792792
 20
7.790845729286782
 30
0.0
 40
2.0
100
AcDbArc
 50
0.1064200127673506
 51
81.40864008301477
  0
DIMENSION
  5
55640
102
{ACAD_XDICTIONARY
360
55641
102
}
102
{ACAD_REACTORS
330
55642
102
}
330
1F
100
AcDbEntity
  8
2
100
AcDbDimension
  2
*D93
 10
99.59977221792792
 20
7.790845729286793
 30
0.0
 11
121.0893717739631
 21
26.95656200511824
 31
0.0
 70
    36
 71
     5
 42
1.999999999999573
  3
\M+18352\M+18373\M+1815B - ISO-25
100
AcDbRadialDimension
 15
101.2647845602935
 25
8.898877272054683
 35
0.0
 40
0.0
1001
ACAD
1000
DSTYLE
1002
{
1070
     4
1000
"
1070
    40
1040
1.0
1070
   143
1040
0.03937
1070
   170
1070
     1
1070
   171
1070
     4
1070
   271
1070
     8
1070
   285
1070
     4
1002
}
  0
LINE
  5
55643
330
1F
100
AcDbEntity
  8
1
100
AcDbLine
 10
101.4677723771864
 20
4.655111216799436
 30
0.0
 11
101.4727695096864
 21
4.74735509549944
 31
0.0
  0
SPLINE
  5
55644
330
1F
100
AcDbEntity
  8
1
100
AcDbSpline
210
0.0
220
0.0
230
1.0
 70
     8
 71
     3
 72
    19
 73
    15
 74
    13
 42
0.0000000001
 43
0.0000000001
 44
0.000001
 12
0.053973225975107
 22
0.9985423831154289
 32
0.0
 13
0.0556055887574507
 23
0.9984528123546636
 33
0.0
 40
0.0
 40
0.0
 40
0.0
 40
0.0
 40
0.1074676643135343
 40
0.2056032265421363
 40
0.2931078829038185
 40
0.3705032989617901
 40
0.4392331727926783
 40
0.5010157422127923
 40
0.5581652280587029
 40
0.6130978806274286
 40
0.6678713714535015
 40
0.7230469116259832
 40
0.7781499500078169
 40
0.8332325007367217
 40
0.8332325007367217
 40
0.8332325007367217
 40
0.8332325007367217
 10
101.3745968846863
 20
2.951423070799446
 30
0.0
 10
101.3765303435299
 20
2.987193410009947
 30
0.0
 10
101.380233302175
 20
3.055627709888167
 30
0.0
 10
101.385538190931
 20
3.15318621380106
 30
0.0
 10
101.3902951392588
 20
3.24073562076958
 30
0.0
 10
101.3945212398075
 20
3.318497516960601
 30
0.0
 10
101.3982854200137
 20
3.387697835311026
 30
0.0
 10
101.4016876441094
 20
3.450159222099724
 30
0.0
 10
101.4048450774915
 20
3.508028051032024
 30
0.0
 10
101.4078811429907
 20
3.563563667120003
 30
0.0
 10
101.4108891926697
 20
3.618441849996795
 30
0.0
 10
101.4139112474375
 20
3.673376144686496
 30
0.0
 10
101.4169512708266
 20
3.72841262576011
 30
0.0
 10
101.4189898957985
 20
3.765084535337134
 30
0.0
 10
101.4200108616863
 20
3.783416977899459
 30
0.0
 11
101.3745968846863
 21
2.951423070799446
 31
0.0
 11
101.3804073474863
 21
3.058733541999483
 31
0.0
 11
101.3857308717863
 21
3.156724606199443
 31
0.0
 11
101.3904791498863
 21
3.24410033919943
 31
0.0
 11
101.3946796511862
 21
3.321381683599465
 31
0.0
 11
101.3984130863863
 21
3.390010081499465
 31
0.0
 11
101.4017736251863
 21
3.451701188199447
 31
0.0
 11
101.4048873679863
 21
3.508765785999482
 31
0.0
 11
101.4078863556864
 21
3.563616514099432
 31
0.0
 11
101.4108846576863
 21
3.61830787959948
 31
0.0
 11
101.4139156283863
 21
3.673400106099418
 31
0.0
 11
101.4169558862863
 21
3.728419208399454
 31
0.0
 11
101.4200108616863
 21
3.783416977899459
 31
0.0
  0
LINE
  5
55645
330
1F
100
AcDbEntity
  8
cut
100
AcDbLine
 10
93.60000600000001
 20
9.790368881800045
 30
0.0
 11
97.60000600000001
 21
9.999999998900019
 31
0.0
1001
ACAD
1000
RTMaterial
1005
0
  0
LINE
  5
55646
330
1F
100
AcDbEntity
  8
cut
100
AcDbLine
 10
86.60000600000001
 20
9.214999998900051
 30
0.0
 11
91.8333243802
 21
9.214999998900022
 31
0.0
1001
ACAD
1000
RTMaterial
1005
0
  0
LINE
  5
55647
330
1F
100
AcDbEntity
  8
cut
100
AcDbLine
 10
97.60000600000001
 20
9.999999998900019
 30
0.0
 11
99.600006
 21
9.999999998900019
 31
0.0
1001
ACAD
1000
RTMaterial
1005
0
  0
LINE
  5
55648
330
1F
100
AcDbEntity
  8
cut
100
AcDbLine
 10
101.600006
 20
7.499999998898939
 30
0.0
 11
101.600006
 21
7.999999998900019
 31
0.0
1001
ACAD
1000
RTMaterial
1005
0
  0
LINE
  5
55649
330
1F
100
AcDbEntity
  8
cut
100
AcDbLine
 10
86.60000600000001
 20
-9.214999998900001
 30
0.0
 11
86.60000600000001
 21
9.214999998900051
 31
0.0
1001
ACAD
1000
RTMaterial
1005
0
  0
LINE
  5
5564A
330
1F
100
AcDbEntity
  8
cut
100
AcDbLine
 10
101.2069476553999
 20
-0.0000000010999806
 30
0.0
 11
101.600006
 21
7.499999998900019
 31
0.0
1001
ACAD
1000
RTMaterial
1005
0
  0
ARC
  5
5564B
330
1F
100
AcDbEntity
  8
cut
100
AcDbCircle
 10
91.8333243802
 20
12.21499999890002
 30
0.0
 40
3.0
100
AcDbArc
 50
270.0
 51
306.0785533250036
1001
ACAD
1000
RTMaterial
1005
0
  0
ARC
  5
5564C
330
1F
100
AcDbEntity
  8
cut
100
AcDbCircle
 10
99.600006
 20
7.999999998900019
 30
0.0
 40
2.0
100
AcDbArc
 50
0.0
 51
90.0
1001
ACAD
1000
RTMaterial
1005
0
  0
LINE
  5
5564D
330
1F
100
AcDbEntity
  8
cut
100
AcDbLine
 10
93.60000599852549
 20
-9.790368882854298
 30
0.0
 11
97.60000599849389
 21
-10.00000000055673
 31
0.0
1001
ACAD
1000
RTMaterial
1005
0
  0
LINE
  5
5564E
330
1F
100
AcDbEntity
  8
cut
100
AcDbLine
 10
86.60000599861211
 20
-9.214999998900001
 30
0.0
 11
91.8333243788121
 21
-9.214999999688192
 31
0.0
1001
ACAD
1000
RTMaterial
1005
0
  0
LINE
  5
5564F
330
1F
100
AcDbEntity
  8
cut
100
AcDbLine
 10
97.60000599849389
 20
-10.00000000055673
 30
0.0
 11
99.60000599849388
 21
-10.00000000085797
 31
0.0
1001
ACAD
1000
RTMaterial
1005
0
  0
LINE
  5
55650
330
1F
100
AcDbEntity
  8
cut
100
AcDbLine
 10
101.6000059988704
 20
-7.500000001158102
 30
0.0
 11
101.6000059987951
 21
-8.000000001159182
 31
0.0
1001
ACAD
1000
RTMaterial
1005
0
  0
LINE
  5
55651
330
1F
100
AcDbEntity
  8
cut
100
AcDbLine
 10
101.2069476553999
 20
-0.0000000010999806
 30
0.0
 11
101.6000059988704
 21
-7.500000001159182
 31
0.0
1001
ACAD
1000
RTMaterial
1005
0
  0
ARC
  5
55652
330
1F
100
AcDbEntity
  8
cut
100
AcDbCircle
 10
91.83332437836032
 20
-12.21499999968819
 30
0.0
 40
3.0
100
AcDbArc
 50
53.92144666637274
 51
89.99999999136925
1001
ACAD
1000
RTMaterial
1005
0
  0
ARC
  5
55653
330
1F
100
AcDbEntity
  8
cut
100
AcDbCircle
 10
99.60000599879515
 20
-8.000000000857969
 30
0.0
 40
2.0
100
AcDbArc
 50
269.9999999913692
 51
359.9999999913692
1001
ACAD
1000
RTMaterial
1005
0
  0
VIEWPORT
  5
6B
102
{ACAD_XDICTIONARY
360
55942
102
}
330
50
100
AcDbEntity
 67
     1
  8
0
100
AcDbViewport
 10
150.1652135264906
 20
160.4455827878762
 30
0.0
 40
339.1973820494346
 41
282.2272140146125
 68
     1
 69
     1
 12
150.1652135264906
 22
160.4455827878762
 13
0.0
 23
0.0
 14
10.0
 24
10.0
 15
10.0
 25
10.0
 16
0.0
 26
0.0
 36
1.0
 17
0.0
 27
0.0
 37
0.0
 42
50.0
 43
0.0
 44
0.0
 45
282.2272140146125
 50
0.0
 51
0.0
 72
  1000
 90
    32864
  1

281
     0
 71
     1
 74
     0
110
0.0
120
0.0
130
0.0
111
1.0
121
0.0
131
0.0
112
0.0
122
1.0
132
0.0
 79
     0
146
0.0
  0
VIEWPORT
  5
6D
102
{ACAD_XDICTIONARY
360
55944
102
}
330
50
100
AcDbEntity
 67
     1
  8
0
100
AcDbViewport
 10
133.3499939441681
 20
101.5999939441681
 30
0.0
 40
213.3599903106689
 41
162.5599903106689
 68
     2
 69
     2
 12
210.0
 22
148.5
 13
0.0
 23
0.0
 14
10.0
 24
10.0
 15
10.0
 25
10.0
 16
0.0
 26
0.0
 36
1.0
 17
0.0
 27
0.0
 37
0.0
 42
50.0
 43
0.0
 44
0.0
 45
324.0677920111345
 50
0.0
 51
0.0
 72
   100
 90
    32864
  1

281
     0
 71
     1
 74
     0
110
0.0
120
0.0
130
0.0
111
1.0
121
0.0
131
0.0
112
0.0
122
1.0
132
0.0
 79
     0
146
0.0
  0
ENDSEC
  0
SECTION
  2
OBJECTS
  0
DICTIONARY
  5
C
330
0
100
AcDbDictionary
281
     1
  3
ACAD_COLOR
350
85
  3
ACAD_GROUP
350
D
  3
ACAD_LAYOUT
350
1A
  3
ACAD_MATERIAL
350
84
  3
ACAD_MLINESTYLE
350
17
  3
ACAD_PLOTSETTINGS
350
19
  3
ACAD_PLOTSTYLENAME
350
E
  3
ACAD_TABLESTYLE
350
A1
  3
ACDBHEADERROUNDTRIPXREC
350
5593D
  3
AcDbVariableDictionary
350
5E
  3
ASE_INDEX_DICTIONARY
350
349E9
  3
DWGPROPS
350
5593C
  0
DICTIONARY
  5
E2
330
2
100
AcDbDictionary
280
     1
281
     1
  3
ACAD_LAYERFILTERS
360
54D7C
  3
ACAD_LAYERSTATES
360
3759A
  3
ACLYDICTIONARY
360
54D7B
  0
DICTIONARY
  5
31EE
330
1F
100
AcDbDictionary
280
     1
281
     1
  3
ACAD_SORTENTS
360
31EF
  0
DICTIONARY
  5
3BEB2
330
680
100
AcDbDictionary
280
     1
281
     1
  3
ACAD_SORTENTS
360
545AE
  0
DICTIONARY
  5
55946
330
71
100
AcDbDictionary
280
     1
281
     1
  3
ACAD_XREC_ROUNDTRIP
360
55947
  0
DICTIONARY
  5
55948
330
73
100
AcDbDictionary
280
     1
281
     1
  3
ACAD_XREC_ROUNDTRIP
360
55949
  0
DICTIONARY
  5
55594
330
55593
100
AcDbDictionary
280
     1
281
     1
  3
ACAD_DIMASSOC
360
55595
  0
DICTIONARY
  5
55641
330
55640
100
AcDbDictionary
280
     1
281
     1
  3
ACAD_DIMASSOC
360
55642
  0
DICTIONARY
  5
55942
330
6B
100
AcDbDictionary
280
     1
281
     1
  3
ACAD_XREC_ROUNDTRIP
360
55943
  0
DICTIONARY
  5
55944
330
6D
100
AcDbDictionary
280
     1
281
     1
  3
ACAD_XREC_ROUNDTRIP
360
55945
  0
DICTIONARY
  5
85
102
{ACAD_REACTORS
330
C
102
}
330
C
100
AcDbDictionary
281
     1
  0
DICTIONARY
  5
D
102
{ACAD_REACTORS
330
C
102
}
330
C
100
AcDbDictionary
281
     1
  0
DICTIONARY
  5
1A
102
{ACAD_REACTORS
330
C
102
}
330
C
100
AcDbDictionary
281
     1
  3
\M+1838C\M+18343\M+18341\M+18345\M+183671
350
51
  3
\M+1838C\M+18343\M+18341\M+18345\M+183672
350
56
  3
Model
350
22
  0
DICTIONARY
  5
84
102
{ACAD_REACTORS
330
C
102
}
330
C
100
AcDbDictionary
281
     1
  0
DICTIONARY
  5
17
102
{ACAD_REACTORS
330
C
102
}
330
C
100
AcDbDictionary
281
     1
  3
Standard
350
18
  0
DICTIONARY
  5
19
102
{ACAD_REACTORS
330
C
102
}
330
C
100
AcDbDictionary
281
     1
  0
ACDBDICTIONARYWDFLT
  5
E
102
{ACAD_REACTORS
330
C
102
}
330
C
100
AcDbDictionary
281
     1
  3
Normal
350
F
100
AcDbDictionaryWithDefault
340
F
  0
DICTIONARY
  5
A1
102
{ACAD_REACTORS
330
C
102
}
330
C
100
AcDbDictionary
281
     1
  3
Standard
350
A2
  0
DICTIONARY
  5
5593D
102
{ACAD_REACTORS
330
C
102
}
330
C
100
AcDbDictionary
281
     1
  0
DICTIONARY
  5
5E
102
{ACAD_REACTORS
330
C
102
}
330
C
100
AcDbDictionary
281
     1
  3
CTABLESTYLE
350
B8
  3
DIMASSOC
350
5F
  3
HIDETEXT
350
63
  3
PROJECTNAME
350
31CE
  0
DICTIONARY
  5
349E9
102
{ACAD_REACTORS
330
C
102
}
330
C
100
AcDbDictionary
281
     1
  3
ASEBlockHierarchyIndexRecord
350
349EA
1001
DCO15
1040
1842496176.844
  0
XRECORD
  5
5593C
102
{ACAD_REACTORS
330
C
102
}
330
C
100
AcDbXrecord
280
     1
  1
DWGPROPS COOKIE
  2

  3

  4

  6

  7

  8

  9

300
=
301
=
302
=
303
=
304
=
305
=
306
=
307
=
308
=
309
=
 40
2.650473356481481
 41
2455489.391063368
 42
2458572.974031076
  1

 90
        0
  0
DICTIONARY
  5
54D7C
102
{ACAD_REACTORS
330
E2
102
}
330
E2
100
AcDbDictionary
281
     1
  0
DICTIONARY
  5
3759A
102
{ACAD_REACTORS
330
E2
102
}
330
E2
100
AcDbDictionary
281
     1
  0
DICTIONARY
  5
54D7B
102
{ACAD_REACTORS
330
E2
102
}
330
E2
100
AcDbDictionary
281
     1
1001
ACAD
1000
<All
  0
SORTENTSTABLE
  5
31EF
102
{ACAD_REACTORS
330
31EE
102
}
330
31EE
100
AcDbSortentsTable
330
1F
331
53DFB
  5
53DFB
331
68C
  5
3C6B0
  0
SORTENTSTABLE
  5
545AE
102
{ACAD_REACTORS
330
3BEB2
102
}
330
3BEB2
100
AcDbSortentsTable
330
680
  0
XRECORD
  5
55947
102
{ACAD_REACTORS
330
55946
102
}
330
55946
100
AcDbXrecord
280
     1
102
SHADEPLOT
 70
     0
  0
XRECORD
  5
55949
102
{ACAD_REACTORS
330
55948
102
}
330
55948
100
AcDbXrecord
280
     1
102
SHADEPLOT
 70
     0
  0
DIMASSOC
  5
55595
102
{ACAD_REACTORS
330
55594
102
}
330
55594
100
AcDbDimAssoc
330
55593
 90
        2
 70
     0
 71
     0
  1
AcDbOsnapPointRef
 72
     1
331
555D3
 73
     2
 91
        0
 40
1.0
 10
0.0
 20
0.0
 30
2.000000000000000E+50
 75
     0
  0
DIMASSOC
  5
55642
102
{ACAD_REACTORS
330
55641
102
}
330
55641
100
AcDbDimAssoc
330
55640
 90
        2
 70
     0
 71
     0
  1
AcDbOsnapPointRef
 72
     3
331
5563F
 73
     2
 91
        0
 40
0.0
 10
0.0
 20
0.0
 30
0.0
 75
     0
  0
XRECORD
  5
55943
102
{ACAD_REACTORS
330
55942
102
}
330
55942
100
AcDbXrecord
280
     1
102
SHADEPLOT
 70
     0
  0
XRECORD
  5
55945
102
{ACAD_REACTORS
330
55944
102
}
330
55944
100
AcDbXrecord
280
     1
102
SHADEPLOT
 70
     0
  0
LAYOUT
  5
51
102
{ACAD_XDICTIONARY
360
B2
102
}
102
{ACAD_REACTORS
330
1A
102
}
330
1A
100
AcDbPlotSettings
  1

  2
none_device
  4
Letter_(8.50_x_11.00_Inches)
  6

 40
6.349999904632567
 41
6.349999904632567
 42
6.350006103515625
 43
6.350006103515625
 44
215.8999938964844
 45
279.3999938964844
 46
0.0
 47
0.0
 48
0.0
 49
0.0
140
0.0
141
0.0
142
1.0
143
1.0
 70
   688
 72
     1
 73
     1
 74
     5
  7

 75
    16
147
1.0
148
0.0
149
0.0
100
AcDbLayout
  1
\M+1838C\M+18343\M+18341\M+18345\M+183671
 70
     1
 71
     1
 10
-6.350006103515625
 20
-6.349999904632567
 11
273.0499877929688
 21
209.5499939918518
 12
0.0
 22
0.0
 32
0.0
 14
26.66999878883364
 24
20.31999878883365
 34
0.0
 15
240.0299890995025
 25
182.8799890995025
 35
0.0
146
0.0
 13
0.0
 23
0.0
 33
0.0
 16
1.0
 26
0.0
 36
0.0
 17
0.0
 27
1.0
 37
0.0
 76
     0
330
50
331
6B
  0
LAYOUT
  5
56
102
{ACAD_XDICTIONARY
360
B5
102
}
102
{ACAD_REACTORS
330
1A
102
}
330
1A
100
AcDbPlotSettings
  1

  2
none_device
  4
Letter_(8.50_x_11.00_Inches)
  6

 40
6.349999904632567
 41
6.349999904632567
 42
6.350006103515625
 43
6.350006103515625
 44
215.8999938964844
 45
279.3999938964844
 46
0.0
 47
0.0
 48
0.0
 49
0.0
140
0.0
141
0.0
142
1.0
143
1.0
 70
   688
 72
     1
 73
     1
 74
     5
  7

 75
    16
147
1.0
148
0.0
149
0.0
100
AcDbLayout
  1
\M+1838C\M+18343\M+18341\M+18345\M+183672
 70
     1
 71
     2
 10
-6.350006103515625
 20
-6.349999904632567
 11
273.0499877929688
 21
209.5499939918518
 12
0.0
 22
0.0
 32
0.0
 14
26.66999878883363
 24
20.31999878883363
 34
0.0
 15
240.0299890995026
 25
182.8799890995025
 35
0.0
146
0.0
 13
0.0
 23
0.0
 33
0.0
 16
1.0
 26
0.0
 36
0.0
 17
0.0
 27
1.0
 37
0.0
 76
     0
330
55
331
71
  0
LAYOUT
  5
22
102
{ACAD_XDICTIONARY
360
5593E
102
}
102
{ACAD_REACTORS
330
1A
102
}
330
1A
100
AcDbPlotSettings
  1

  2
none_device
  4
ANSI_A_(8.50_x_11.00_Inches)
  6

 40
6.349999904632567
 41
19.04999923706055
 42
6.350006103515625
 43
19.04998779296875
 44
215.8999938964844
 45
279.3999938964844
 46
0.0
 47
0.0
 48
0.0
 49
0.0
140
0.0
141
0.0
142
1.0
143
78.436453180766
 70
 11952
 72
     0
 73
     1
 74
     0
  7

 75
     0
147
0.0127491741332998
148
0.0
149
0.0
100
AcDbLayout
  1
Model
 70
     1
 71
     0
 10
0.0
 20
0.0
 11
12.0
 21
9.0
 12
0.0
 22
0.0
 32
0.0
 14
0.0
 24
0.0
 34
0.0
 15
0.0
 25
0.0
 35
0.0
146
0.0
 13
0.0
 23
0.0
 33
0.0
 16
1.0
 26
0.0
 36
0.0
 17
0.0
 27
1.0
 37
0.0
 76
     0
330
1F
  0
MLINESTYLE
  5
18
102
{ACAD_REACTORS
330
17
102
}
330
17
100
AcDbMlineStyle
  2
STANDARD
 70
     0
  3

 62
   256
 51
90.0
 52
90.0
 71
     2
 49
0.5
 62
   256
  6
BYLAYER
 49
-0.5
 62
   256
  6
BYLAYER
  0
ACDBPLACEHOLDER
  5
F
102
{ACAD_REACTORS
330
E
102
}
330
E
  0
TABLESTYLE
  5
A2
102
{ACAD_REACTORS
330
A1
102
}
330
A1
100
AcDbTableStyle
  3
Standard
 70
     0
 71
     0
 40
1.5
 41
1.5
280
     0
281
     0
  7
Standard
140
4.5
170
     2
 62
     0
 63
     7
283
     0
274
    -2
284
     1
 64
     0
275
    -2
285
     1
 65
     0
276
    -2
286
     1
 66
     0
277
    -2
287
     1
 67
     0
278
    -2
288
     1
 68
     0
279
    -2
289
     1
 69
     0
  7
Standard
140
6.0
170
     5
 62
     0
 63
     7
283
     0
274
    -2
284
     1
 64
     0
275
    -2
285
     1
 65
     0
276
    -2
286
     1
 66
     0
277
    -2
287
     1
 67
     0
278
    -2
288
     1
 68
     0
279
    -2
289
     1
 69
     0
  7
Standard
140
4.5
170
     5
 62
     0
 63
     7
283
     0
274
    -2
284
     1
 64
     0
275
    -2
285
     1
 65
     0
276
    -2
286
     1
 66
     0
277
    -2
287
     1
 67
     0
278
    -2
288
     1
 68
     0
279
    -2
289
     1
 69
     0
  0
DICTIONARYVAR
  5
B8
102
{ACAD_REACTORS
330
5E
102
}
330
5E
100
DictionaryVariables
280
     0
  1
STANDARD
  0
DICTIONARYVAR
  5
5F
102
{ACAD_REACTORS
330
5E
102
}
330
5E
100
DictionaryVariables
280
     0
  1
2
  0
DICTIONARYVAR
  5
63
102
{ACAD_REACTORS
330
5E
102
}
330
5E
100
DictionaryVariables
280
     0
  1
1
  0
DICTIONARYVAR
  5
31CE
102
{ACAD_REACTORS
330
5E
102
}
330
5E
100
DictionaryVariables
280
     0
  1

  0
XRECORD
  5
349EA
102
{ACAD_REACTORS
330
349E9
102
}
330
349E9
100
AcDbXrecord
280
     1
330
68C
330
0
330
0
330
0
330
0
330
0
330
0
330
0
330
0
330
0
330
0
330
0
330
0
330
0
330
0
330
0
330
0
330
0
330
0
330
0
330
0
330
0
330
0
330
0
330
0
330
0
330
0
330
0
330
0
330
0
330
0
330
0
330
0
330
0
330
0
330
0
330
0
330
0
330
0
330
0
330
0
330
0
330
0
330
0
330
0
330
0
330
0
330
0
330
0
330
0
330
0
330
0
330
0
330
0
330
0
330
0
330
0
330
0
330
0
330
0
330
0
330
0
330
0
330
0
330
0
330
0
330
0
330
0
330
0
330
0
330
0
330
0
330
0
330
0
330
0
330
0
330
0
330
0
330
0
330
0
330
0
330
0
330
0
330
0
330
0
330
0
330
0
330
0
330
0
330
0
330
0
330
0
330
0
330
0
330
0
330
0
330
0
330
0
330
0
330
0
330
0
330
0
330
0
330
0
330
0
330
0
330
0
330
0
330
0
330
0
  0
DICTIONARY
  5
B2
330
51
100
AcDbDictionary
280
     1
281
     1
  3
ACAD_XREC_ROUNDTRIP
360
55940
  3
ADSK_XREC_LAYOUTTHUMBNAIL
360
B3
  0
DICTIONARY
  5
B5
330
56
100
AcDbDictionary
280
     1
281
     1
  3
ACAD_XREC_ROUNDTRIP
360
55941
  3
ADSK_XREC_LAYOUTTHUMBNAIL
360
B6
  0
DICTIONARY
  5
5593E
330
22
100
AcDbDictionary
280
     1
281
     1
  3
ACAD_XREC_ROUNDTRIP
360
5593F
  0
XRECORD
  5
55940
102
{ACAD_REACTORS
330
B2
102
}
330
B2
100
AcDbXrecord
280
     1
102
SHADEPLOT
 70
     0
102
SHADEPLOTRESLEVEL
 70
     2
102
SHADEPLOTCUSTOMDPI
 70
   300
  0
XRECORD
  5
B3
102
{ACAD_REACTORS
330
B2
102
}
330
B2
100
AcDbXrecord
280
     1
310
28000000B40000008B0000000100080000000000BC61000000000000000000000001000000000000FFFFFF0000000000FFFFFF000000000000000000000000000000000000000000000000000000000000000000330000006600000099000000CC000000FF00000000330000333300006633000099330000CC330000FF3300
310
0000660000336600006666000099660000CC660000FF66000000990000339900006699000099990000CC990000FF99000000CC000033CC000066CC000099CC0000CCCC0000FFCC000000FF000033FF000066FF000099FF0000CCFF0000FFFF000000003300330033006600330099003300CC003300FF003300003333003333
310
33006633330099333300CC333300FF33330000663300336633006666330099663300CC663300FF66330000993300339933006699330099993300CC993300FF99330000CC330033CC330066CC330099CC3300CCCC3300FFCC330000FF330033FF330066FF330099FF3300CCFF3300FFFF330000006600330066006600660099
310
006600CC006600FF00660000336600333366006633660099336600CC336600FF33660000666600336666006666660099666600CC666600FF66660000996600339966006699660099996600CC996600FF99660000CC660033CC660066CC660099CC6600CCCC6600FFCC660000FF660033FF660066FF660099FF6600CCFF6600
310
FFFF660000009900330099006600990099009900CC009900FF00990000339900333399006633990099339900CC339900FF33990000669900336699006666990099669900CC669900FF66990000999900339999006699990099999900CC999900FF99990000CC990033CC990066CC990099CC9900CCCC9900FFCC990000FF99
310
0033FF990066FF990099FF9900CCFF9900FFFF99000000CC003300CC006600CC009900CC00CC00CC00FF00CC000033CC003333CC006633CC009933CC00CC33CC00FF33CC000066CC003366CC006666CC009966CC00CC66CC00FF66CC000099CC003399CC006699CC009999CC00CC99CC00FF99CC0000CCCC0033CCCC0066CC
310
CC0099CCCC00CCCCCC00FFCCCC0000FFCC0033FFCC0066FFCC0099FFCC00CCFFCC00FFFFCC000000FF003300FF006600FF009900FF00CC00FF00FF00FF000033FF003333FF006633FF009933FF00CC33FF00FF33FF000066FF003366FF006666FF009966FF00CC66FF00FF66FF000099FF003399FF006699FF009999FF00CC
310
99FF00FF99FF0000CCFF0033CCFF0066CCFF0099CCFF00CCCCFF00FFCCFF0000FFFF0033FFFF0066FFFF0099FFFF00CCFFFF00FFFFFF00000000000D0D0D001A1A1A00282828003535350043434300505050005D5D5D006B6B6B00787878008686860093939300A1A1A100AEAEAE00BBBBBB00C9C9C900D6D6D600E4E4E400
310
F1F1F100FFFFFF0000000000000000000000000000000000000000000000000000000000000000000000000000000000E2E2E2E2E2E2E2E2E2E2E2E2E2E2E2E2E2E2E2E2E2E2E2E2E2E2E2E2E2E2E2E2E2E2E2E2E2E2E2E2E2E2E2E2E2E2E2E2E2E2E2E2E2E2E2E2E2E2E2E2E2E2E2E2E2E2E2E2E2E2E2E2E2E2E2E2E2E2E2
310
E2E2E2E2E2E2E2E2E2E2E2E2E2E2E2E2E2E2E2E2E2E2E2E2E2E2E2E2E2E2E2E2E2E2E2E2E2E2E2E2E2E2E2E2E2E2E2E2E2E2E2E2E2E2E2E2E2E2E2E2E2E2E2E2E2E2E2E2E2E2E2E2E2E2E2E2E2E2E2E2E2E2E2E2E2E2E2E2E2E2E2E2E2E2E2E2E2E2E2E2E2E2F5F5F5F5F5F5F5F5F5F5F5F5F5F5F5F5F5F5F5F5F5F5F5F5F5
310
F5F5F5F5F5F5F5F5F5F5F5F5F5F5F5F5F5F5F5F5F5F5F5F5F5F5F5F5F5F5F5F5F5F5F5F5F5F5F5F5F5F5F5F5F5F5F5F5F5F5F5F5F5F5F5F5F5F5F5F5F5F5F5F5F5F5F5F5F5F5F5F5F5F5F5F5F5F5F5F5F5F5F5F5F5F5F5F5F5F5F5F5F5F5F5F5F5F5F5F5F5F5F5F5F5F5F5F5F5F5F5F5F5F5F5F5F5F5F5F5F5F5F5F5F5F5F5
310
F5F5F5F5F5F5F5F5F5F5F5F5F5F5F5F5F5F5F5F5F5F5F5F5F5F5E2E2F5F5F5F5F5F5F5F5F5F5F5F5F5F5F5F5F5F5F5F5F5F5F5F5F5F5F5F5F5F5F5F5F5F5F5F5F5F5F5F5F5F5F5F5F5F5F5F5F5F5F5F5F5F5F5F5F5F5F5F5F5F5F5F5F5F5F5F5F5F5F5F5F5F5F5F5F5F5F5F5F5F5F5F5F5F5F5F5F5F5F5F5F5F5F5F5F5F5F5
310
F5F5F5F5F5F5F5F5F5F5F5F5F5F5F5F5F5F5F5F5F5F5F5F5F5F5F5F5F5F5F5F5F5F5F5F5F5F5F5F5F5F5F5F5F5F5F5F5F5F5F5F5F5F5F5F5F5F5F5F5F5F5F5F5F5F5F5F5F5F5F5F5F5F5F5F5F5F5F5E2E2F5F5F5F5F5F5F5F5F5F5F5F5F5F5F5F5F5F5F5F5F5F5F5F5F5F5F5F5F5F5F5F5F5F5F5F5F5F5F5F5F5F5F5F5F5F5
310
F5F5F5F5F5F5F5F5F5F5F5F5F5F5F5F5F5F5F5F5F5F5F5F5F5F5F5F5F5F5F5F5F5F5F5F5F5F5F5F5F5F5F5F5F5F5F5F5F5F5F5F5F5F5F5F5F5F5F5F5F5F5F5F5F5F5F5F5F5F5F5F5F5F5F5F5F5F5F5F5F5F5F5F5F5F5F5F5F5F5F5F5F5F5F5F5F5F5F5F5F5F5F5F5F5F5F5F5F5F5F5F5F5F5F5F5F5F5F5F5F5F5F5F5F5F5F5
310
F5F5F5F5F5E2E2F5F5F5F5E2E2E2E2E2E2E2E2F5F5F5F5F5F5F5F5F5E2E2E2E2E2E2E2E2E2E2E2E2E2E2E2F5F5F5F5F5F5F5F5F5E2E2E2E2E2E2E2E2E2E2E2E2E2E2E2E2F5F5F5F5F5F5F5F5E2E2E2E2E2E2E2E2E2E2E2E2E2E2E2E2F5F5F5F5F5F5F5F5E2E2E2E2E2E2E2E2E2E2E2E2E2E2E2E2F5F5F5F5F5F5F5F5E2E2E2
310
E2E2E2E2E2E2E2E2E2E2E2E2E2F5F5F5F5F5F5F5F5F5E2E2E2E2E2E2E2E2E2E2E2E2E2E2E2F5F5F5F5F5F5F5F5F5E2E2E2E2E2E2E2E2F5F5F5F5E2E2F5F5F5F5E2F5F5F5F5F5F5F5F5F5F5F5F5F5F5F5F5F5F5F5F5F5F5F5F5F5F5F5F5F5F5F5F5F5F5F5F5F5F5F5F5F5F5F5F5F5F5F5F5F5F5F5F5F5F5F5F5F5F5F5F5F5F5
310
F5F5F5F5F5F5F5F5F5F5F5F5F5F5F5F5F5F5F5F5F5F5F5F5F5F5F5F5F5F5F5F5F5F5F5F5F5F5F5F5F5F5F5F5F5F5F5F5F5F5F5F5F5F5F5F5F5F5F5F5F5F5F5F5F5F5F5F5F5F5F5F5F5F5F5F5F5F5F5F5F5F5F5F5F5F5F5F5F5F5F5F5F5F5F5F5F5F5F5F5F5F5F5F5F5F5E2F5F5F5F5E2E2F5F5F5F5E2F5F5F5F5F5F5F5F5F5
310
F5F5F5F5F5F5F5F5F5F5F5F5F5F5F5F5F5F5F5F5F5F5F5F5F5F5F5F5F5F5F5F5F5F5F5F5F5F5F5F5F5F5F5F5F5F5F5F5F5F5F5F5F5F5F5F5F5F5F5F5F5F5F5F5F5F5F5F5F5F5F5F5F5F5F5F5F5F5F5F5F5F5F5F5F5F5F5F5F5F5F5F5F5F5F5F5F5F5F5F5F5F5F5F5F5F5F5F5F5F5F5F5F5F5F5F5F5F5F5F5F5F5F5F5F5F5F5
310
F5F5F5F5F5F5F5F5F5F5F5F5F5F5F5F5F5F5F5F5F5F5F5F5F5F5F5F5F5F5F5F5E2F5F5F5F5E2E2F5F5F5F5E2F5F5F5F5F5F5F5F5F5F5F5F5F5F5F5F5F5F5F5F5F5F5F5F5F5F5F5F5F5F5F5F5F5F5F5F5F5F5F5F5F5F5F5F5F5F5F5F5F5F5F5F5F5F5F5F5F5F5F5F5F5F5F5F5F5F5F5F5F5F5F5F5F5F5F5F5F5F5F5F5F5F5F5
310
F5F5F5F5F5F5F5F5F5F5F5F5F5F5F5F5F5F5F5F5F5F5F5F5F5F5F5F5F5F5F5F5F5F5F5F5F5F5F5F5F5F5F5F5F5F5F5F5F5F5F5F5F5F5F5F5F5F5F5F5F5F5F5F5F5F5F5F5F5F5F5F5F5F5F5F5F5F5F5F5F5F5F5F5F5E2F5F5F5F5E2E2F5F5F5F5E2F5F5F5F5F5F5F5F5F5F5F5F5F5F5F5F5F5F5F5F5F5F5F5F5F5F5F5F5F5F5
310
F5F5F5F5F5F5F5F5F5F5F5F5F5F5F5F5F5F5F5F5F5F5F5F5F5F5F5F5F5F5F5F5F5F5F5F5F5F5F5F5F5F5F5F5F5F5F5F5F5F5F5F5F5F5F5F5F5F5F5F5F5F5F5F5F5F5F5F5F5F5F5F5F5F5F5F5F5F5F5F5F5F5F5F5F5F5F5F5F5F5F5F5F5F5F5F5F5F5F5F5F5F5F5F5F5F5F5F5F5F5F5F5F5F5F5F5F5F5F5F5F5F5F5F5F5F5F5
310
F5F5F5F5F5F5F5F5F5F5F5E2F5F5F5F5E2E2F5F5F5F5E2F5F5F5F5F5F5F5F5F5F5F5F5F5F5F5F5F5F5F5F5F5F5F5F5F5F5F5F5F5F5F5F5F5F5F5F5F5F5F5F5F5F5F5F5F5F5F5F5F5F5F5F5F5F5F5F5F5F5F5F5F5F5F5F5F5F5F5F5F5F5F5F5F5F5F5F5F5F5F5F5F5F5F5F5F5F5F5F5F5F5F5F5F5F5F5F5F5F5F5F5F5F5F5F5
310
F5F5F5F5F5F5F5F5F5F5F5F5F5F5F5F5F5F5F5F5F5F5F5F5F5F5F5F5F5F5F5F5F5F5F5F5F5F5F5F5F5F5F5F5F5F5F5F5F5F5F5F5F5F5F5F5F5F5F5F5F5F5F5F5E2F5F5F5F5E2E2F5F5F5F5E2F5F5F5F5F5F5F5F5F5F5F5F5F5F5F5F5F5F5F5F5F5F5F5F5F5F5F5F5F5F5F5F5F5F5F5F5F5F5F5F5F5F5F5F5F5F5F5F5F5F5F5
310
F5F5F5F5F5F5F5F5F5F5F5F5F5F5F5F5F5F5F5F5F5F5F5F5F5F5F5F5F5F5F5F5F5F5F5F5F5F5F5F5F5F5F5F5F5F5F5F5F5F5F5F5F5F5F5F5F5F5F5F5F5F5F5F5F5F5F5F5F5F5F5F5F5F5F5F5F5F5F5F5F5F5F5F5F5F5F5F5F5F5F5F5F5F5F5F5F5F5F5F5F5F5F5F5F5F5F5F5F5F5F5F5F5F5F5F5F5E2F5F5F5F5E2E2F5F5F5
310
F5E2F5F5F5F5F5F5F5F5F5F5F5F5F5F5F5F5F5F5F5F5F5F5F5F5F5F5F5F5F5F5F5F5F5F5F5F5F5F5F5F5F5F5F5F5F5F5F5F5F5F5F5F5F5F5F5F5F5F5F5F5F5F5F5F5F5F5F5F5F5F5F5F5F5F5F5F5F5F5F5F5F5F5F5F5F5F5F5F5F5F5F5F5F5F5F5F5F5F5F5F5F5F5F5F5F5F5F5F5F5F5F5F5F5F5F5F5F5F5F5F5F5F5F5F5F5
310
F5F5F5F5F5F5F5F5F5F5F5F5F5F5F5F5F5F5F5F5F5F5F5F5F5F5F5F5F5F5F5F5F5F5F5F5F5F5F5F5F5F5F5E2F5F5F5F5E2E2F5F5F5F5E2F5F5F5F5F5F5F5F5F5F5F5F5F5F5F5F5F5F5F5F5F5F5F5F5F5F5F5F5F5F5F5F5F5F5F5F5F5F5F5F5F5F5F5F5F5F5F5F5F5F5F5F5F5F5F5F5F5F5F5F5F5F5F5F5F5F5F5F5F5F5F5F5
310
F5F5F5F5F5F5F5F5F5F5F5F5F5F5F5F5F5F5F5F5F5F5F5F5F5F5F5F5F5F5F5F5F5F5F5F5F5F5F5F5F5F5F5F5F5F5F5F5F5F5F5F5F5F5F5F5F5F5F5F5F5F5F5F5F5F5F5F5F5F5F5F5F5F5F5F5F5F5F5F5F5F5F5F5F5F5F5F5F5F5F5F5F5F5F5F5E2F5F5F5F5E2E2F5F5F5F5F5F5F5F5F5F5F5F5F5F5F5F5F5F5F5F5F5F5F5F5
310
F5F5F5F5F5F5F5F5F5F5F5F5F5F5F5F5F5F5F5F5F5F5F5F5F5F5F5F5F5F5F5F5F5F5F5F5F5F5F5F5F5F5F5F5F5F5F5F5F5F5F5F5F5F5F5F5F5F5F5F5F5F5F5F5F5F5F5F5F5F5F5F5F5F5F5F5F5F5F5F5F5F5F5F5F5F5F5F5F5F5F5F5F5F5F5F5F5F5F5F5F5F5F5F5F5F5F5F5F5F5F5F5F5F5F5F5F5F5F5F5F5F5F5F5F5F5F5
310
F5F5F5F5F5F5F5F5F5F5F5F5F5F5F5F5F5F5F5F5F5F5F5F5F5F5F5E2E2F5F5F5F5F5F5F5F5F5F5F5F5F5F5F5F5F5F5F5F5F5F5F5F5F5F5F5F5F5F5F5F5F5F5F5F5F5F5F5F5F5F5F5F5F5F5F5F5F5F5F5F5F5F5F5F5F5F5F5F5F5F5F5F5F5F5F5F5F5F5F5F5F5F5F5F5F5F5F5F5F5F5F5F5F5F5F5F5F5F5F5F5F5F5F5F5F5F5
310
F5F5F5F5F5F5F5F5F5F5F5F5F5F5F5F5F5F5F5F5F5F5F5F5F5F5F5F5F5F5F5F5F5F5F5F5F5F5F5F5F5F5F5F5F5F5F5F5F5F5F5F5F5F5F5F5F5F5F5F5F5F5F5F5F5F5F5F5F5F5F5F5F5F5F5F5F5F5F5F5E2E2F5F5F5F5F5F5F5F5F5F5F5F5F5F5F5F5F5F5F5F5F5F5F5F5F5F5F5F5F5F5F5F5F5F5F5F5F5F5F5F5F5F5F5F5F5
310
F5F5F5F5F5F5F5F5F5F5F5F5F5F5F5F5F5F5F5F5F5F5F5F5F5F5F5F5F5F5F5F5F5F5F5F5F5F5F5F5F5F5F5F5F5F5F5F5F5F5F5F5F5F5F5F5F5F5F5F5F5F5F5F5F5F5F5F5F5F5F5F5F5F5F5F5F5F5F5F5F5F5F5F5F5F5F5F5F5F5F5F5F5F5F5F5F5F5F5F5F5F5F5F5F5F5F5F5F5F5F5F5F5F5F5F5F5F5F5F5F5F5F5F5F5F5F5
310
F5F5F5F5F5F5E2E2F5F5F5F5F5F5F5F5F5F5F5F5F5F5F5F5F5F5F5F5F5F5F5F5F5F5F5F5F5F5F5F5F5F5F5F5F5F5F5F5F5F5F5F5F5F5F5F5F5F5F5F5F5F5F5F5F5F5F5F5F5F5F5F5F5F5F5F5F5F5F5F5F5F5F5F5F5F5F5F5F5F5F5F5F5F5F5F5F5F5F5F5F5F5F5F5F5F5F5F5F5F5F5F5F5F5F5F5F5F5F5F5F5F5F5F5F5F5F5
310
F5F5F5F5F5F5F5F5F5F5F5F5F5F5F5F5F5F5F5F5F5F5F5F5F5F5F5F5F5F5F5F5F5F5F5F5F5F5F5F5F5F5F5F5F5F5F5F5F5F5F5F5F5F5F5F5F5F5F5E2E2F5F5F5F5F5F5F5F5F5F5F5F5F5F5F5F5F5F5F5F5F5E2E2E2E2E2E2E2E2E2E2E2E2E2E2E2E2E2E2E2E2E2E2E2E2E2E2E2E2E2E2E2E2E2E2E2E2E2E2E2E2E2E2E2E2E2
310
E2E2E2E2E2E2E2E2E2E2E2E2E2E2E2E2E2E2E2E2E2E2E2E2E2E2E2E2E2E2E2E2E2E2E2E2E2E2E2E2E2E2E2E2E2E2E2E2E2E2E2E2E2E2E2E2E2E2E2E2E2E2E2E2E2E2E2E2E2E2E2E2E2E2E2E2E2E2E2E2E2E2E2E2E2E2E2E2E2E2E2F5F5F5F5F5F5F5F5F5F5F5F5F5F5F5F5F5F5F5F5F5E2E2F5F5F5F5F5F5F5F5F5F5F5F5F5
310
F5F5F5F5F5F5F5F5E22D2D2D2D2D2D2D2D2D2D2D2DF5F5F5F5F5F5F5F5F5F5F5F5F5F5F5E2F5F5F5F5F5F5F5F5F5F5F5F5F5F5F5F5F5F5F5F5F5F5F5F5F5F5F5F5F5F5F5F5F5F5F5F5F5F5F5F5F5F5F5F5F5F5F5F5F5F5F5F5F5F5F5F5F5F5F5F5F5F5F5F5F5F5F5F5F5F5F5F5F5F5F5F5F5F5F5F5F5F5F5F5F5F5F5F5F5F5
310
F5F5F5F5F5F5F5F5F5F5F5F5F5F5F5F5E2F5F5F5F5F5F5F5F5F5F5F5F5F5F5F5F5F5F5F5F5F5E2E2F5F5F5F5F5F5F5F5F5F5F5F5F5F5F5F5F5F5F5F5F5E22D2D2DF5F5E2F5F5F5F5F52DF5F5F5F5F5F5F5F5F5F5F5F5F5F5F5E2F5F5F5F5F5F5F5F5F5F5F5F5F5F5F5F5F5F5F5F5F5F5F5F5F5F5F5F5F5F5F5F5F5F5F5F5F5
310
F5F5F5F5F5F5F5F5F5F5F5F5F5F5F5F5F5F5F5F5F5F5F5F5F5F5F5F5F5F5F5F5F5F5F5F5F5F5F5F5F5F5F5F5F5F5F5F5F5F5F5F5F5F5F5F5F5F5F5F5F5F5F5F5F5F5F5F5F5E2F5F5F5F5F5F5F5F5F5F5F5F5F5F5F5F5F5F5F5F5F5E2E2F5F5F5F5F5F5F5F5F5F5F5F5F5F5F5F5F5F5F5F5F5E2DCF52DF5F5E2F5F5F5F5F52D
310
F5F5F5F5F5F5F5F5F5F5F5F5F5F5F5E2F5F5F5F5F5F5F5F5F5F5F5F5F5F5F5F5F5F5F5F5F5F5F5F5F5F5F5F5F5F5F5F5F5F5F5F5F5F5F5F5F5F5F5F5F5F5F5F5F5F5F5F5F5F5F5F5F5F5F5F5F5F5F5F5F5F5F5F5F5F5F5F5F5F5F5F5F5F5F5F5F5F5F5F5F5F5F5F5F5F5F5F5F5F5F5F5F5F5F5F5F5F5F5F5F5F5E2F5F5F5F5
310
F5F5F5F5F5F5F5F5F5F5F5F5F5F5F5F5F5E2E2F5F5F5F5F5F5F5F5F5F5F5F5F5F5F5F5F5F5F5F5F5E2BEF52D2D2D2D2D2D2D2DE2E2E2E2E2E2E2E2E2E2E2E2E2E2E2E2E2E2F5F5F5F5F5F5F5F5F5F5F5F5F5F5F5F5F5F5F5F5F5F5F5F5F5F5F5F5F5F5F5F5F5F5F5F5F5F5F5F5F5F5F5F5F5F5F5F5F5F5F5F5F5F5F5F5F5F5
310
F5F5F5F5F5F5F5F5F5F5F5F5F5F5F5F5F5F5F5F5F5F5F5F5F5F5F5F5F5F5F5F5F5F5F5F5F5F5F5F5F5F5F5F5F5F5F5F5E2F5F5F5F5F5F5F5F5F5F5F5F5F5F5F5F5F5F5F5F5F5E2E2F5F5F5F5E2F5F5F5F5F5F5F5F5F5F5F5F5F5F5F5F5E2DCF5F5F5F5E2F5F5F5F5F5E2F5F5F5F5F5F5F5F5F5F5F5F5F5F5F5F5F5F5F5F5F5
310
F5F5F5F5F5F5F5F5F5F5F5F5F5F5F5F5F5F5F5F5F5F5F5F5F5F5F5F5F5F5F5F5F5F5F5F5F5F5F5F5F5F5F5F5F5F5F5F5F5F5F5F5F5F5F5F5F5F5F5F5F5F5F5F5F5F5F5F5F5F5F5F5F5F5F5F5F5F5F5F5F5F5F5F5F5F5F5F5F5F5F5F5F5F5F5F5F5F5F5F5F5E2F5F5F5F5F5F5F5F5F5F5F5F5F5F5F5F5E2F5F5F5F5E2E2F5F5
310
F5F5E2F5F5F5F5F5F5F5F5F5F5F5F5F5F5F5F5E2F5F5F5F5F5E2F5F5F5F5F5E2F5F5F5F5F5F5F5F5F5F5F5F5F5F5F5F5F5F5F5F5F5F5F5F5F5F5F5F5F5F5F5F5F5F5F5F5F5F5F5F5F5F5F5F5F5F5F5F5F5F5F5F5F5F5F5F5F5F5F5F5F5F5F5F5F5F5F5F5F5F5F5F5F5F5F5F5F5F5F5F5F5F5F5F5F5F5F5F5F5F5F5F5F5F5F5
310
F5F5F5F5F5F5F5F5F5F5F5F5F5F5F5F5F5F5F5F5F5F5F5F5F5F5F5E2F5F5F5F5F5F5F5F5F5F5F5F5F5F5F5F5E2F5F5F5F5E2E2F5F5F5F5E2F5F5F5F5F5F5F5F5F5F5F5F5F5F5F5F5E2F5F5F5F5F5E2F5F5F5F5F5E2F5F5F5F5F5F5F5F5F5F5F5F5F5F5F5F5F5F5F5F5F5F5F5F5F5F5F5F5F5F5F5F5F5F5F5F5F5F5F5F5F5F5
310
F5F5F5F5F5F5F5F5F5F5F5F5F5F5F5F5F5F5F5F5F5F5F5F5F5F5F5F5F5F5F5F5F5F5F5F5F5F5F5F5F5F5F5F5F5F5F5F5F5F5F5F5F5F5F5F5F5F5F5F5F5F5F5F5F5F5F5F5F5F5F5F5F5F5F5F5F5F5F5F5E2F5F5F5F5F5F5F5F5F5F5F5F5F5F5F5F5E2F5F5F5F5E2E2F5F5F5F5E2F5F5F5F5F5F5F5F5F5F5F5F5F5F5F5F5E2F5
310
F5F5F5F5E2F5F5F5F5F5E2F5F5F5F5F5F5F5F5F5F5F5F5F5F5F5F5F5F5F5F5F5F5F5F5F5F5F5F5F5F5F5F5F5F5F5F5F5F5F5F5F5F5F5F5F5F5F5F5F5F5F5F5F5F5F5F5F5F5F5F5F5F5F5F5F5F5F5F5F5F5F5F5F5F5F5F5F5F5F5F5F5F5F5F5F5F5F5F5F5F5F5F5F5F5F5F5F5F5F5F5F5F5F5F5F5F5F5F5F5F5F5F5F5F5F5F5
310
F5F5F5F5F5F5E2F5F5F5F5F5F5F5F5F5F5F5F5F5F5F5F5E2F5F5F5F5E2E2F5F5F5F5E2F5F5F5F5F5F5F5F5F5F5F5F5F5F5F5F5E2E2E2E2E2E2E2F5F5F5F5F5E2F5F5F5F5F5F5F5F5F5F5F5F5F5F5F5F5F5F5F5F5F5F5F5F5F5F5F5F5F5F5F5F5F5F5F5F5F5F5F5F5F5F5F5F5F5F5F5F5F5F5F5F5F5F5F5F5F5F5F5F5F5F5F5
310
F5F5F5F5F5F5F5F5F5F5F5F5F5F5F5F5F5F5F5F5F5F5F5F5F5F5F5F5F5F5F5F5F5F5F5F5F5F5F5F5F5F5F5F5F5F5F5F5F5F5F5F5F5F5F5F5F5F5F5E2F5F5F5F5F5F5F5F5F5F5F5F5F5F5F5F5E2F5F5F5F5E2E2F5F5F5F5E2F5F5F5F5F5F5F5F5F5F5F5F5F5F5F5F5E2E2E2E2F5E2E2F5F5F5F5F5E2F5F5F5F5F5F5F5F5F5F5
310
F5F5F5F5F5F5F5F5F5F5F5F5F5F5F5F5F5F5F5F5F5F5F5F5F5F5F5F5F5F5F5F5F5F5F5F5F5F5F5F5F5F5F5F5F5F5F5F5F5F5F5F5F5F5F5F5F5F5F5F5F5F5F5F5F5F5F5F5F5F5F5F5F5F5F5F5F5F5F5F5F5F5F5F5F5F5F5F5F5F5F5F5F5F5F5F5F5F5F5F5F5F5F5F5F5F5F5F5F5F5F5F5E2F5F5F5F5F5F5F5F5F5F5F5F5F5F5
310
F5F5E2F5F5F5F5E2E2F5F5F5F5E2F5F5F5F5F5F5F5F5F5F5F5F5F5F5F5F5E2E2E2E2F5F5F5F5F5F5F5F5E2F5F5F5F5F5F5F5F5F5F5F5F5F5F5F5F5F5F5F5F5F5F5F5F5F5F5F5F5F5F5F5F5F5F5F5F5F5F5F5F5F5F5F5F5F5F5F5F5F5F5F5F5F5F5F5F5F5F5F5F5F5F5F5F5F5F5F5F5F5F5F5F5F5F5F5F5F5F5F5F5F5F5F5F5
310
F5F5F5F5F5F5F5F5F5F5F5F5F5F5F5F5F5F5F5F5F5F5F5F5F5F5F5F5F5F5F5F5F5F5F5F5F5F5E2F5F5F5F5F5F5F5F5F5F5F5F5F5F5F5F5E2F5F5F5F5E2E2F5F5F5F5E2F5F5F5F5F5F5F5F5F5F5F5F5F5F5F5F5E2F5F5F5F5F5F5F5F5F5F5F5E2F5F5F5F5F5F5F5F5F5F5F5F5F5F5F5F5F5F5F5F5F5F5F5F5F5F5F5F5F5F5F5
310
F5F5F5F5F5F5F5F5F5F5F5F5F5F5F5F5F5F5F5F5F5F5F5F5F5F5F5F5F5F5F5F5F5F5F5F5F5F5F5F5F5F5F5F5F5F5F5F5F5F5F5F5F5F5F5F5F5F5F5F5F5F5F5F5F5F5F5F5F5F5F5F5F5F5F5F5F5F5F5F5F5F5F5F5F5F5F5F5F5F5F5E2F5F5F5F5F5F5F5F5F5F5F5F5F5F5F5F5E2F5F5F5F5E2E2F5F5F5F5E2F5F5F5F5F5F5F5
310
F5F5F5F5F5F5F5F5F5E2E2E2E2E2E2E2E2E2E2E2E2E2F5F5F5F5F5F5F5F5F5F5F5F5F5F5F5F5F5F5F5F5F5F5F5F5F5F5F5F5F5F5F5F5F5F5F5F5F5F5F5F5F5F5F5F5F5F5F5F5F5F5F5F5F5F5F5F5F5F5F5F5F5F5F5F5F5F5F5F5F5F5F5F5F5F5F5F5F5F5F5F5F5F5F5F5F5F5F5F5F5F5F5F5F5F5F5F5F5F5F5F5F5F5F5F5F5
310
F5F5F5F5F5F5F5F5F5F5F5F5F5F5F5F5F5E2F5F5F5F5F5F5F5F5F5F5F5F5F5F5F5F5E2F5F5F5F5E2E2F5F5F5F5E2F5F5F5F5F5F5F5F5F5F5F5F5F5F5F5F5E2E2E2F5F5F5F5F5F5F5F5F5F5F5F5F5F5F5F5F5F5F5F5F5F5F5F5F5F5F5F5F5F5F5F5F5F5F5F5F5F5F5F5F5F5F5F5F5F5F5F5F5F5F5F5F5F5F5F5F5F5F5F5F5F5
310
F5F5F5F5F5F5F5F5F5F5F5F5F5F5F5F5F5F5F5F5F5F5F5F5F5F5F5F5F5F5F5F5F5F5F5F5F5F5F5F5F5F5F5F5F5F5F5F5F5F5F5F5F5F5F5F5F5F5F5F5F5F5F5F5F5F5F5F5F5F5E2F5F5F5F5F5F5F5F5F5F5F5F5F5F5F5F5E2F5F5F5F5E2E2F5F5F5F5E2F5F5F5F5F5F5F5F5F5F5F5F5F5F5F5F5E2E2E2F5F5F5F5F5F5F5F5F5
310
F5F5F5F5F5F5F5F5F5F5F5F5F5F5F5F5F5F5F5F5F5F5F5F5F5F5F5F5F5F5F5F5F5F5F5F5F5F5F5F5F5F5F5F5F5F5F5F5F5F5F5F5F5F5F5F5F5F5F5F5F5F5F5F5F5F5F5F5F5F5F5F5F5F5F5F5F5F5F5F5F5F5F5F5F5F5F5F5F5F5F5F5F5F5F5F5F5F5F5F5F5F5F5F5F5F5F5F5F5F5F5F5F5F5F5F5F5F5F5F5F5F5F5E2F5F5F5
310
F5F5F5F5F5F5F5F5F5F5F5F5F5E2F5F5F5F5E2E2F5F5F5F5E2F5F5F5F5F5F5F5F5F5F5F5F5F5F5F5F5E2F5F5F5F5F5F5F5F5F5F5F5F5F5F5F5F5F5F5F5F5F5F5F5F5F5F5F5F5F5F5F5F5F5F5F5F5F5F5F5F5F5F5F5F5F5F5F5F5F5F5F5F5F5F5F5F5F5F5F5F5F5F5F5F5F5F5F5F5F5F5F5F5F5F5F5F5F5F5F5F5F5F5F5F5F5
310
F5F5F5F5F5F5F5F5F5F5F5F5F5F5F5F5F5F5F5F5F5F5F5F5F5F5F5F5F5F5F5F5F5F5F5F5F5F5F5F5F5F5F5F5F5F5F5F5F5E2F5F5F5F5F5F5F5F5F5F5F5F5F5F5F5F5E2F5F5F5F5E2E2F5F5F5F5E2F5F5F5F5F5F5F5F5F5F5F5F5F5F5F5F5E2F5F5F5F5F5F5F5F5F5F5F5F5F5F5F5F5F5F5F5F5F5F5F5F5F5F5F5F5F5F5F5F5
310
F5F5F5F5F5F5F5F5F5F5F5F5F5F5F5F5F5F5F5F5F5F5F5F5F5F5F5F5F5F5F5F5F5F5F5F5F5F5F5F5F5F5F5F5F5F5F5F5F5F5F5F5F5F5F5F5F5F5F5F5F5F5F5F5F5F5F5F5F5F5F5F5F5F5F5F5F5F5F5F5F5F5F5F5F5F5F5F5F5F5F5F5F5F5F5F5F5F5F5F5F5F5E2F5F5F5F5F5F5F5F5F5F5F5F5F5F5F5F5E2F5F5F5F5E2E2F5
310
F5F5F5E2F5F5F5F5F5F5F5F5F5F5F5F5F5F5F5F5E20F0F0F0F0F0F0F0F0F0F0FF5F5F5F5F5F5F5F5F5F5F5F5F5F5F5F5F5F5F5F5F5F5F5F5F5F5F5F5F5F5F5F5F5F5F5F5F5F5F5F5F5F5F5F5F5F5F5F5F5F5F5F5F5F5F5F5F5F5F5F5F5F5F5F5F5F5F5F5F5F5F5F5F5F5F5F5F5F5F5F5F5F5F5F5F5F5F5F5F5F5F5F5F5F5F5
310
F5F5F5F5F5F5F5F5F5F5F5F5F5F5F5F5F5F5F5F5F5F5F5F5F5F5F5F5E2F5F5F5F5F5F5F5F5F5F5F5F5F5F5F5F5E2F5F5F5F5E2E2F5F5F5F5E2F5F5F5F5F5F5F5F5F5F5F5F5F5F5F5F5E20F0F0F0F0F0F0F0F0F0F0FF5F5F5F5F5F5F5F5F5F5F5F5F5F5F5F5F5F5F5F5F5F5F5F5F5F5F5F5F5F5F5F5F5F5F5F5F5F5F5F5F5F5
310
F5F5F5F5F5F5F5F5F5F5F5F5F5F5F5F5F5F5F5F5F5F5F5F5F5F5F5F5F5F5F5F5F5F5F5F5F5F5F5F5F5F5F5F5F5F5F5F5F5F5F5F5F5F5F5F5F5F5F5F5F5F5F5F5F5F5F5F5F5F5F5F5F5F5F5F5F5F5F5F5F5E2F5F5F5F5F5F5F5F5F5F5F5F5F5F5F5F5E2F5F5F5F5E2E2F5F5F5F5E2F5F5F5F5F5F5F5F5F5F5F5F5F5F5F5F5E2
310
0F0F0F0F0F0F0F0F0F0FF5F5F5F5F5F5F5F5F5F5F5F5F5F5F5F5F5F5F5F5F5F5F5F5F5F5F5F5F5F5F5F5F5F5F5F5F5F5F5F5F5F5F5F5F5F5F5F5F5F5F5F5F5F5F5F5F5F5F5F5F5F5F5F5F5F5F5F5F5F5F5F5F5F5F5F5F5F5F5F5F5F5F5F5F5F5F5F5F5F5F5F5F5F5F5F5F5F5F5F5F5F5F5F5F5F5F5F5F5F5F5F5F5F5F5F5F5
310
F5F5F5F5F5F5F5E2F5F5F5F5F5F5F5F5F5F5F5F5F5F5F5F5E2F5F5F5F5E2E2F5F5F5F5E2F5F5F5F5F5F5F5F5F5F5F5F5F5F5F5F5E2F5F5F5F5F5F5F5F5F5F5F5F5F5F5F5F5F5F5F5F5F5F5F5F5F5F5F5F5F5F5F5F5F5F5F5F5F5F5F5F5F5F5F5F5F5F5F5F5F5F5F5F5F5F5F5F5F5F5F5F5F5F5F5F5F5F5F5F5F5F5F5F5F5F5
310
F5F5F5F5F5F5F5F5F5F5F5F5F5F5F5F5F5F5F5F5F5F5F5F5F5F5F5F5F5F5F5F5F5F5F5F5F5F5F5F5F5F5F5F5F5F5F5F5F5F5F5F5F5F5F5F5F5F5F5F5E2F5F5F5F5F5F5F5F5F5F5F5F5F5F5F5F5E2F5F5F5F5E2E2F5F5F5F5F5F5F5F5F5F5F5F5F5F5F5F5F5F5F5F5F5E2F5F5F5F5F5F5F5F5F5F5F5F5F5F5F5F5F5F5F5F5F5
310
F5F5F5F5F5F5F5F5F5F5F5F5F5F5F5F5F5F5F5F5F5F5F5F5F5F5F5F5F5F5F5F5F5F5F5F5F5F5F5F5F5F5F5F5F5F5F5F5F5F5F5F5F5F5F5F5F5F5F5F5F5F5F5F5F5F5F5F5F5F5F5F5F5F5F5F5F5F5F5F5F5F5F5F5F5F5F5F5F5F5F5F5F5F5F5F5F5F5F5F5F5F5F5F5F5F5F5F5F5F5F5F5F5E2F5F5F5F5F5F5F5F5F5F5F5F5F5
310
F5F5F5F5F5F5F5F5E2E2F5F5F5F5F5F5F5F5F5F5F5F5F5F5F5F5F5F5F5F5F5E2F5F5F5F5F5F5F5F5F5F5F5F5F5F5F5F5F5F5F5F5F5F5F5F5F5F5F5F5F5F5F5F5F5F5F5F5F5F5F5F5F5F5F5F5F5F5F5F5F5F5F5F5F5F5F5F5F5F5F5F5F5F5F5F5F5F5F5F5F5F5F5F5F5F5F5F5F5F5F5F5F5F5F5F5F5F5F5F5F5F5F5F5F5F5F5
310
F5F5F5F5F5F5F5F5F5F5F5F5F5F5F5F5F5F5F5F5F5F5F5F5F5F5F5F5F5F5F5F5F5F5F5F5F5F5F5E2F5F5F5F5F5F5F5F5F5F5F5F5F5F5F5F5F5F5F5F5F5E2E2F5F5F5F5F5F5F5F5F5F5F5F5F5F5F5F5F5F5F5F5F5E2F5F5F5F5F5F5F5F5F5F5F5F5F5F5F5F5F5F5F5F5F5F5F5F5F5F5F5F5F5F5F5F5F5F5F5F5F5F5F5F5F5F5
310
F5F5F5F5F5F5F5F5F5F5F5F5F5F5F5F5F5F5F5F5F5F5F5F5F5F5F5F5F5F5F5F5F5F5F5F5F5F5F5F5F5F5F5F5F5F5F5F5F5F5F5F5F5F5F5F5F5F5F5F5F5F5F5F5F5F5F5F5F5F5F5F5F5F5F5F5F5F5F5F5F5F5F5F5F5F5F5F5F5F5F5F5E2F5F5F5F5F5F5F5F5F5F5F5F5F5F5F5F5F5F5F5F5F5E2E2F5F5F5F5F5F5F5F5F5F5F5
310
F5F5F5F5F5F5F5F5F5F5E2F5F5F5F5F5F5F5F5F5F5F5F5F5F5F5F5F5F5F5F5F5F5F5F5F5F5F5F5F5F5F5F5F5F5F5F5F5F5F5F5F5F5F5F5F5F5F5F5F5F5F5F5F5F5F5F5F5F5F5F5F5F5F5F5F5F5F5F5F5F5F5F5F5F5F5F5F5F5F5F5F5F5F5F5F5F5F5F5F5F5F5F5F5F5F5F5F5F5F5F5F5F5F5F5F5F5F5F5F5F5F5F5F5F5F5F5
310
F5F5F5F5F5F5F5F5F5F5F5F5F5F5F5F5F5F5E2F5F5F5F5F5F5F5F5F5F5F5F5F5F5F5F5F5F5F5F5F5E2E2F5F5F5F5F5F5F5F5F5F5F5F5F5F5F5F5F5F5F5F5F5E2F5F5F5F5F5F5F5F5F5F5F5F5F5F5F5F5F5F5F5F5F5F5F5F5F5F5F5F5F5F5F5F5F5F5F5F5F5F5F5F5F5F5F5F5F5F5F5F5F5F5F5F5F5F5F5F5F5F5F5F5F5F5F5
310
F5F5F5F5F5F5F5F5F5F5F5F5F5F5F5F5F5F5F5F5F5F5F5F5F5F5F5F5F5F5F5F5F5F5F5F5F5F5F5F5F5F5F5F5F5F5F5F5F5F5F5F5F5F5F5F5F5F5F5F5F5F5F5F5F5F5F5F5F5F5F5E2F5F5F5F5F5F5F5F5F5F5F5F5F5F5F5F5F5F5F5F5F5E2E2F5F5F5F5F5F5F5F5F5F5F5F5F5F5F5F5F5F5F5F5F5E2F5F5F5F5F5F5F5F5F5F5
310
F5F5F5F5F5F5F5F5F5F5F5F5F5F5F5F5F5F5F5F5F5F5F5F5F5F5F5F5F5F5F5F5F5F5F5F5F5F5F5F5F5F5F5F5F5F5F5F5F5F5F5F5F5F5F5F5F5F5F5F5F5F5F5F5F5F5F5F5F5F5F5F5F5F5F5F5F5F5F5F5F5F5F5F5F5F5F5F5F5F5F5F5F5F5F5F5F5F5F5F5F5F5F5F5F5F5F5F5F5F5F5F5F5F5F5F5F5F5F5F5F5F5F5F5E2F5F5
310
F5F5F5F5F5F5F5F5F5F5F5F5F5F5F5F5F5F5F5E2E2F5F5F5F5F5F5F5F5F5F5F5F5F5F5F5F5F5F5F5F5F5E2F5F5F5F5F5F5F5F5F5F5F5F5F5F5F5F5F5F5F5F5F5F5F5F5F5F5F5F5F5F5F5F5F5F5F5F5F5F5F5F5F5F5F5F5F5F5F5F5F5F5F5F5F5F5F5F5F5F5F5F5F5F5F5F5F5F5F5F5F5F5F5F5F5F5F5F5F5F5F5F5F5F5F5F5
310
F5F5F5F5F5F5F5F5F5F5F5F5F5F5F5F5F5F5F5F5F5F5F5F5F5F5F5F5F5F5F5F5F5F5F5F5F5F5F5F5F5F5F5F5F5F5F5F5F5F5E2F5F5F5F5F5F5F5F5F5F5F5F5F5F5F5F5F5F5F5F5F5E2E2F5F5F5F5F5F5F5F5F5F5F5F5F5F5F5F5F5F5F5F5F5E2F5F5F5F5F5F5F5F5F5F5F5F5F5F5F5F5F5F5F5F5F5F5F5F5F5F5F5F5F5F5F5
310
F5F5F5F5F5F5F5F5F5F5F5F5F5F5F5F5F5F5F5F5F5F5F5F5F5F5F5F5F5F5F5F5F5F5F5F5F5F5F5F5F5F5F5F5F5F5F5F5F5F5F5F5F5F5F5F5F5F5F5F5F5F5F5F5F5F5F5F5F5F5F5F5F5F5F5F5F5F5F5F5F5F5F5F5F5F5F5F5F5F5F5F5F5F5F5F5F5F5F5F5F5F5F5E2F5F5F5F5F5F5F5F5F5F5F5F5F5F5F5F5F5F5F5F5F5E2E2
310
F5F5F5F5F5F5F5F5F5F5F5F5F5F5F5F5F5F5F5F5F5E2F5F5F5F5F5F5F5F5F5F5F5F5F5F5F5F5F5F5F5F5F5F5F5F5F5F5F5F5F5F5F5F5F5F5F5F5F5F5F5F5F5F5F5F5F5F5F5F5F5F5F5F5F5F5F5F5F5F5F5F5F5F5F5F5F5F5F5F5F5F5F5F5F5F5F5F5F5F5F5F5F5F5F5F5F5F5F5F5F5F5F5F5F5F5F5F5F5F5F5F5F5F5F5F5F5
310
F5F5F5F5F5F5F5F5F5F5F5F5F5F5F5F5F5F5F5F5F5F5F5F5F5F5F5F5F5E2F5F5F5F5F5F5F5F5F5F5F5F5F5F5F5F5F5F5F5F5F5E2E2F5F5F5F5E2F5F5F5F5F5F5F5F5F5F5F5F5F5F5F5F5E2F5F5F5F5F5F5F5F5F5F5F5F5F5F5F5F5F5F5F5F5F5F5F5F5F5F5F5F5F5F5F5F5F5F5F5F5F5F5F5F5F5F5F5F5F5F5F5F5F5F5F5F5
310
F5F5F5F5F5F5F5F5F5F5F5F5F5F5F5F5F5F5F5F5F5F5F5F5F5F5F5F5F5F5F5F5F5F5F5F5F5F5F5F5F5F5F5F5F5F5F5F5F5E2F0E2E2F5F5F5F5F5F5E2F0E2E2F5DCF5F5F5F5F5F5F0F0E2F5F5F5F5F5F5F5F5E2F5F5F5F5F5F5F5F5F5F5F5F5F5F5F5F5E2F5F5F5F5E2E2F5F5F5F5E2F5F5F5F5F5F5F5F5F5F5F5F5F5F5F5F5
310
E2F5F5F5F5F5F5F5F5F5F5F5F5F5F5F5F5F5F5F5F5F5F5F5F5F5F5F5F5F5F5F5F5F5F5F5F5F5F5F5F5F5F5F5F5F5F5F5F5F5F5F5F5F5F5F5F5F5F5F5F5F5F5F5F5F5F5F5F5F5F5F5F5F5F5F5F5F5F5F5F5F5F5F5F5F5F5F5F5F5F5F5F5F5F5F5F5F5F5F5F5E2DCDCF0F5E2F5F5F5F5F5E2F5F0E2E2DCF5F5F5F5F5E2F0F0F5
310
E2F5F5F5E2E2E2F5E2F5F5F5F5F5F5F5F5F5F5F5F5F5F5F5F5E2F5F5F5F5E2E2F5F5F5F5E2F5F5F5F5F5F5F5F5F5F5F5F5F5F5F5F5E2F5F5F5F5F5F5F5F5F5F5F5F5F5F5F5F5F5F5F5F5F5F5F5F5F5F5F5F5F5F5F5F5F5F5F5F5F5F5F5F5F5F5F5F5F5F5F5F5F5F5F5F5F5F5F5F5F5F5F5F5F5F5F5F5F5F5F5F5F5F5F5F5F5
310
F5F5F5F5F5F5F5F5F5F5F5F5F5F5F5F5F5F5F5F5F5F5F5F5F5F5E2F0DCF0DCE2E2E2F5F5F5E2E2F0F0F0E2DCF5F5F5F5E2F0F0F0E2E2F0E2E2E2E2E2E2E2F5F5F5F5F5F5F5F5F5F5F5F5F5F5F5F5E2F5F5F5F5E2E2F5F5F5F5E2F5F5F5F5F5F5F5F5F5F5F5F5F5F5F5F5E2F5F5F5F5F5F5F5F5F5F5F5F5F5F5F5F5F5F5F5F5
310
F5F5F5F5F5F5F5F5F5F5F5F5F5F5F5F5F5F5F5F5F5F5F5F5F5F5F5F5F5F5F5F5F5F5F5F5F5F5F5F5F5F5F5F5F5F5F5F5F5F5F5F5F5F5F5F5F5F5F5F5F5F5F5F5F5F5F5F5F5F5F5F5F5F5F5F5F5F5F5E2F0DCF0DCF0F0E2F5F5F5E2F0DCE2E2E2DCF5F5F5F5F0F0F0F0E2E2F0E2F5E2E2E2E2E2F5F5F5F5F5F5F5F5F5F5F5F5
310
F5F5F5F5E2F5F5F5F5E2E2F5F5F5F5E2F5F5F5F5F5F5F5F5F5F5F5F5F5F5F5F5E2F5F5F5F5F5F5F5F5F5F5F5F5F5F5F5F5F5F5F5F5F5F5F5F5F5F5F5F5F5F5F5F5F5F5F5F5F5F5F5F5F5F5F5F5F5F5F5F5F5F5F5F5F5F5F5F5F5F5F5F5F5F5F5F5F5F5F5F5F5F5F5F5F5F5F5F5F5F5F5F5F5F5F5F5F5F5F5F5F5F5F5F5F5F5
310
F5F5F5F5F5F5E2DCDCDCF0E2F5F5F5F5F5F0DCDCE2E2DCF5F5F5F5F5F0F0F0DCE2F0F5E2E2E2E2F5E2F5F5F5F5F5F5F5F5F5F5F5F5F5F5F5F5E2F5F5F5F5E2E2F5F5F5F5E2F5F5F5F5F5F5F5F5F5F5F5F5F5F5F5F5E2F5F5F5F5F5F5F5F5F5F5F5F5F5F5F5F5F5F5F5F5F5F5F5F5F5F5F5F5F5F5F5F5F5F5F5F5F5F5F5F5F5
310
F5F5F5F5F5F5F5F5F5F5F5F5F5F5F5F5F5F5F5F5F5F5F5F5F5F5F5F5F5F5F5F5F5F5F5F5F5F5F5F5F5F5F5F5F5F5F5F5F5F5F5F5F5F5F5F5F5F5F5E2F0F0F0E2F5F5F5F5F5E2F0E2E2E2E2DCF5F5F5F5F5F0F0E2E2F5F5F5F5E2E2E2F5E2F5F5F5F5F5F5F5F5F5F5F5F5F5F5F5F5E2F5F5F5F5E2E2F5F5F5F5E2F5F5F5F5F5
310
F5F5F5F5F5F5F5F5F5F5F5E2F5F5F5F5F5F5F5F5F5F5F5F5F5F5F5F5F5F5F5F5F5F5F5F5F5F5F5F5F5F5F5F5F5F5F5F5F5F5F5F5F5F5F5F5F5F5F5F5F5F5F5F5F5F5F5F5F5F5F5F5F5F5F5F5F5F5F5F5F5F5F5F5F5F5F5F5F5F5F5F5F5F5F5F5F5F5F5F5F5F5F5F5F5F5F5F5F5F5F5F5F5F5E2E2F5F5F5F5F5F5F5F5E2E2F5
310
F5DCF5F5F5F5F5F5F5F0E2F5F5F5F5F5E2F5F5E2F5F5F5F5F5F5F5F5F5F5F5F5F5F5F5F5E2F5F5F5F5E2E2F5F5F5F5E2F5F5F5F5F5F5F5F5F5F5F5F5F5F5F5F5E2F5F5F5F5F5F5F5F5F5F5F5F5F5F5F5F5F5F5F5F5F5F5F5F5F5F5F5F5F5F5F5F5F5F5F5F5F5F5F5F5F5F5F5F5F5F5F5F5F5F5F5F5F5F5F5F5F5F5F5F5F5F5
310
F5F5F5F5F5F5F5F5F5F5F5F5F5F5F5F5F5F5F5F5F5F5F5F5F5F5F5F5F5F5F5F5F5F5F5F5F5F5F5F5F5F5F5F5F5F5F5F5F5F5F5F5F5F5DCF5F5F5F5F5F5F5F5F5F5F5F5F5F5F5F5F5E2F5F5F5F5F5F5F5F5F5F5F5F5F5F5F5F5E2F5F5F5F5E2E2F5F5F5F5E2F5F5F5F5F5F5F5F5F5F5F5F5F5F5F5F5E2F5F5F5F5F5F5F5F5F5
310
F5F5F5F5F5F5F5F5F5F5F5F5F5F5F5F5F5F5F5F5F5F5F5F5F5F5F5F5F5F5F5F5F5F5F5F5F5F5F5F5F5F5F5F5F5F5F5F5F5F5F5F5F5F5F5F5F5F5F5F5F5F5F5F5F5F5F5F5F5F5F5F5F5F5F5F5F5F5F5F5F5F5F5F5F5F5F5F5F5F5F5F5F5F5F5F5F5F5F5F5F5F5F5F5F5F5F5DCF5F5F5F5F5F5F5F5F5F5F5F5F5F5F5F5F5E2F5
310
F5F5F5F5F5F5F5F5F5F5F5F5F5F5F5E2F5F5F5F5E2E2F5F5F5F5E2F5F5F5F5F5F5F5F5F5F5F5F5F5F5F5F5E2F5F5F5F5F5F5F5F5F5F5F5F5F5F5F5F5F5F5F5F5F5F5F5F5F5F5F5F5F5F5F5F5F5F5F5F5F5F5F5F5F5F5F5F5F5F5F5F5F5F5F5F5F5F5F5F5F5F5F5F5F5F5F5F5F5F5F5F5F5F5F5F5F5F5F5F5F5F5F5F5F5F5F5
310
F5F5F5F5F5F5F5F5F5F5F5F5F5F5F5F5F5F5F5F5F5F5F5F5F5F5F5F5F5F5F5F5F5DCF5F5F5F5F5F5F5F5F5F5F5F5F5F5F5F5F5E2F5F5F5F5F5F5F5F5F5F5F5F5F5F5F5F5E2F5F5F5F5E2E2F5F5F5F5E2F5F5F5F5F5F5F5F5F5F5F5F5F5F5F5F5E2F5F5F5F5F5F5F5F5F5F5F5F5F5F5F5F5F5F5F5F5F5F5F5F5F5F5F5F5F5F5
310
F5F5F5F5F5F5F5F5F5F5F5F5F5F5F5F5F5F5F5F5F5F5F5F5F5F5F5F5F5F5F5F5F5F5F5F5F5F5F5F5F5F5F5F5F5F5F5F5F5F5F5F5F5F5F5F5F5F5F5F5F5F5F5F5F5F5F5F5F5F5F5F5F5F5F5F5F5F5F5F5F5F5F5F5F5F5DCF5F5F5F5F5F5F5F5F5F5F5F5F5F5F5F5F5E2F5F5F5F5F5F5F5F5F5F5F5F5F5F5F5F5E2F5F5F5F5E2
310
E2F5F5F5F5E2F5F5F5F5F5F5F5F5F5F5F5F5F5F5F5F5E2F5F5F5F5F5F5F5F5F5F5F5F5F5F5F5F5F5F5F5F5F5F5F5F5F5F5F5F5F5F5F5F5F5F5F5F5F5F5F5F5F5F5F5F5F5F5F5F5F5F5F5F5F5F5F5F5F5F5F5F5F5F5F5F5F5F5F5F5F5F5F5F5F5F5F5F5F5F5F5F5F5F5F5F5F5F5F5F5F5F5F5F5F5F5F5F5F5F5F5F5F5F5F5F5
310
F5F5F5F5F5F5F5F5F5F5F5F5DCF5F5F5F5F5F5F5F5F5F5F5F5F5F5F5F5F5E2F5F5F5F5F5F5F5F5F5F5F5F5F5F5F5F5E2F5F5F5F5E2E2F5F5F5F5E2F5F5F5F5F5F5F5F5F5F5F5F5F5F5F5F5E2F5F5F5F5F5F5F5F5F5F5F5F5F5F5F5F5F5F5F5F5F5F5F5F5F5F5F5F5F5F5F5F5F5F5F5F5F5F5F5F5F5F5F5F5F5F5F5F5F5F5F5
310
F5F5F5F5F5F5F5F5F5F5F5F5F5F5F5F5F5F5F5F5F5F5F5F5F5F5F5F5F5F5F5F5F5F5F5F5F5F5F5F5F5F5F5F5F5F5F5F5F5F5F5F5F5F5F5F5F5F5F5F5F5F5F5F5F5DCF5F5F5F5F5F5F5F5F5F5F5F5F5F5F5F5F5E2F5F5F5F5F5F5F5F5F5F5F5F5F5F5F5F5E2F5F5F5F5E2E2F5F5F5F5E2F5F5F5F5F5F5F5F5F5F5F5F5F5F5F5
310
F5E2F5F5F5F5F5F5F5F5F5F5F5F5F5F5F5F5F5F5F5F5F5F5F5F5F5F5F5F5F5F5F5F5F5F5F5F5F5F5F5F5F5F5F5F5F5F5F5F5F5F5F5F5F5F5F5F5F5F5F5F5F5F5F5F5F5F5F5F5F5F5F5F5F5F5F5F5F5F5F5F5F5F5F5F5F5F5F5F5F5F5F5F5F5F5F5F5F5F5F5F5F5F5F5F5F5F5F5F5F5F5F5F5F5F5F5F5DCF5F5F5F5F5F5F5F5
310
F5F5F5F5F5F5F5F5F5E2F5F5F5F5F5F5F5F5F5F5F5F5F5F5F5F5E2F5F5F5F5E2E2F5F5F5F5E2F5F5F5F5F5F5F5F5F5F5F5F5F5F5F5F5E2F5F5F5F5F5F5F5F5F5F5F5F5F5F5F5F5F5F5F5F5F5F5F5F5F5F5F5F5F5F5F5F5F5F5F5F5F5F5F5F5F5F5F5F5F5F5F5F5F5F5F5F5F5F5F5F5F5F5F5F5F5F5F5F5F5F5F5F5F5F5F5F5
310
F5F5F5F5F5F5F5F5F5F5F5F5F5F5F5F5F5F5F5F5F5F5F5F5F5F5F5F5F5F5F5F5F5F5F5F5F5F5F5F5F5F5E2E2DCE2F5F5F5F5F5F5F5F5F5F5F5F5F5F5F5F5E2F5F5F5F5F5F5F5F5F5F5F5F5F5F5F5F5E2F5F5F5F5E2E2F5F5F5F5E2F5F5F5F5F5F5F5F5F5F5F5F5F5F5F5F5E2F5F5F5F5F5F5F5F5F5F5F5F5F5F5F5F5F5F5F5
310
F5F5F5F5F5F5F5F5F5F5F5F5F5F5F5F5F5F5F5F5F5F5F5F5F5F5F5F5F5F5F5F5F5F5F5F5F5F5F5F5F5F5F5F5F5F5F5F5F5F5F5F5F5F5F5F5F5F5F5F5F5F5F5F5F5F5F5F5F5F5F5F5F5F5F5F5F5F5F5F5F5F5F5F5F5F5F5F5F5F5F5F5F5F5F5F5F5DCF5F5F5F5F5F5F5F5F5F5F5F5F5F5F5F5F5E2F5F5F5F5F5F5F5F5F5F5F5
310
F5F5F5F5F5E2F5F5F5F5E2E2F5F5F5F5E2F5F5F5F5F5F5F5F5F5F5F5F5F5F5F5F5E2F5F5F5F5F5F5F5F5F5F5F5F5F5F5F5F5F5F5F5F5F5F5F5F5F5F5F5F5F5F5F5F5F5F5F5F5F5F5F5F5F5F5F5F5F5F5F5F5F5F5F5F5F5F5F5F5F5F5F5F5F5F5F5F5F5F5F5F5F5F5F5F5F5F5F5F5F5F5F5F5F5F5F5F5F5F5F5F5F5F5F5F5F5
310
F5F5F5F5F5F5F5F5F5F5F5F5F5F5F5F5F5F5F5F5F5F5F5DCF5F5F5F5F5F5F5F5F5F5F5F5F5F5F5F5F5E2F5F5F5F5F5F5F5F5F5F5F5F5F5F5F5F5E2F5F5F5F5E2E2F5F5F5F5F5F5F5F5F5F5F5F5F5F5F5F5F5F5F5F5F5E2F5F5F5F5F5F5F5F5F5F5F5F5F5F5F5F5F5F5F5F5F5F5F5F5F5F5F5F5F5F5F5F5F5F5F5F5F5F5F5F5
310
F5F5F5F5F5F5F5F5F5F5F5F5F5F5F5F5F5F5F5F5F5F5F5F5F5F5F5F5F5F5F5F5F5F5F5F5F5F5F5F5F5F5F5F5F5F5F5F5F5F5F5F5F5F5F5F5F5F5F5F5F5F5F5F5F5F5F5F5F5F5F5F5F5F5F5F5DCF5F5F5F5F5F5F5F5F5F5F5F5F5F5F5F5F5E2F5F5F5F5F5F5F5F5F5F5F5F5F5F5F5F5F5F5F5F5F5E2E2F5F5F5F5F5F5F5F5F5
310
F5F5F5F5F5F5F5F5F5F5F5F5E2F5F5F5F5F5F5F5F5F5F5F5F5F5F5F5F5F5F5F5F5F5F5F5F5F5F5F5F5F5F5F5F5F5F5F5F5F5F5F5F5F5F5F5F5F5F5F5F5F5F5F5F5F5F5F5F5F5F5F5F5F5F5F5F5F5F5F5F5F5F5F5F5F5F5F5F5F5F5F5F5F5F5F5F5F5F5F5F5F5F5F5F5F5F5F5F5F5F5F5F5F5F5F5F5F5F5F5F5F5F5F5F5F5F5
310
F5F5F5F5F5F5F5F5F5F5F5F5F5F5F5F5F5F5F5F5E2F5F5F5F5F5F5F5F5F5F5F5F5F5F5F5F5F5F5F5F5F5E2E2F5F5F5F5F5F5F5F5F5F5F5F5F5F5F5F5F5F5F5F5F5E2F5F5F5F5F5F5F5F5F5F5F5F5F5F5F5F5F5F5F5F5F5F5F5F5F5F5F5F5F5F5F5F5F5F5F5F5F5F5F5F5F5F5F5F5F5F5F5F5F5F5F5F5F5F5F5F5F5F5F5F5F5
310
F5F5F5F5F5F5F5F5F5F5F5F5F5F5F5F5F5F5F5F5F5F5F5F5F5F5F5F5F5F5F5F5F5F5F5F5F5F5F5F5F5F5F5F5F5F5F5F5F5F5F5F5F5F5F5F5F5F5F5F5F5F5F5F5F5F5F5F5F5F5F5F5F5E2F5F5F5F5F5F5F5F5F5F5F5F5F5F5F5F5F5F5F5F5F5E2E2F5F5F5F5F5F5F5F5F5F5F5F5F5F5F5F5F5F5F5F5F5E2F5F5F5F5F5F5F5F5
310
F5F5F5F5F5F5F5F5F5F5F5F5F5F5F5F5F5F5F5F5F5F5F5F5F5F5F5F5F5F5F5F5F5F5F5F5F5F5F5F5F5F5F5F5F5F5F5F5F5F5F5F5F5F5F5F5F5F5F5F5F5F5F5F5F5F5F5F5F5F5F5F5F5F5F5F5F5F5F5F5F5F5F5F5F5F5F5F5F5F5F5F5F5F5F5F5F5F5F5F5F5F5F5F5F5F5F5F5F5F5F5F5F5F5F5F5F5F5F5F5F5F5F5F5F5F5E2
310
F5F5F5F5F5F5F5F5F5F5F5F5F5F5F5F5F5F5F5F5F5E2E2F5F5F5F5F5F5F5F5F5F5F5F5F5F5F5F5F5F5F5F5F5E2F5F5F5F5F5F5F5F5F5F5F5F5F5F5F5F5F5F5F5F5F5F5F5F5F5F5F5F5F5F5F5F5F5F5F5F5F5F5F5F5F5F5F5F5F5F5F5F5F5F5F5F5F5F5F5F5F5F5F5F5F5F5F5F5F5F5F5F5F5F5F5F5F5F5F5F5F5F5F5F5F5F5
310
F5F5F5F5F5F5F5F5F5F5F5F5F5F5F5F5F5F5F5F5F5F5F5F5F5F5F5F5F5F5F5F5F5F5F5F5F5F5F5F5F5F5F5F5F5F5F5F5F5F5F5F5E2F5F5F5F5F5F5F5F5F5F5F5F5F5F5F5F5F5F5F5F5F5E2E2F5F5F5F5F5F5F5F5F5F5F5F5F5F5F5F5F5F5F5F5F5E2F5F5F5F5F5F5F5F5F5F5F5F5F5F5F5F5F5F5F5F5F5F5F5F5F5F5F5F5F5
310
F5F5F5F5F5F5F5F5F5F5F5F5F5F5F5F5F5F5F5F5F5F5F5F5F5F5F5F5F5F5F5F5F5F5F5F5F5F5F5F5F5F5F5F5F5F5F5F5F5F5F5F5F5F5F5F5F5F5F5F5F5F5F5F5F5F5F5F5F5F5F5F5F5F5F5F5F5F5F5F5F5F5F5F5F5F5F5F5F5F5F5F5F5F5F5F5F5F5F5F5F5F5F5F5F5E2F5F5F5F5F5F5F5F5F5F5F5F5F5F5F5F5F5F5F5F5F5
310
E2E2F5F5F5F5F5F5F5F5F5F5F5F5F5F5F5F5F5F5F5F5F5E2F5F5F5F5F5F5F5F5F5F5F5F5F5F5F5F5F5F5F5F5F5F5F5F5F5F5F5F5F5F5F5F5F5F5F5F5F5F5F5F5F5F5F5F5F5F5F5F5F5F5F5F5F5F5F5F5F5F5F5F5F5F5F5F5F5F5F5F5F5F5F5F5F5F5F5F5F5F5F5F5F5F5F5F5F5F5F5F5F5F5F5F5F5F5F5F5F5F5F5F5F5F5F5
310
F5F5F5F5F5F5F5F5F5F5F5F5F5F5F5F5F5F5F5F5F5F5F5F5F5F5F5F5F5F5F5E2F5F5F5F5F5F5F5F5F5F5F5F5F5F5F5F5F5F5F5F5F5E2E2F5F5F5F5F5F5F5F5F5F5F5F5F5F5F5F5F5F5F5F5F5E2F5F5F5F5F5F5F5F5F5F5F5F5F5F5F5F5F5F5F5F5F5F5F5F5F5F5F5F5F5F5F5F5F5F5F5F5F5F5F5F5F5F5F5F5F5F5F5F5F5F5
310
F5F5F5F5F5F5F5F5F5F5F5F5F5F5F5F5F5F5F5F5F5F5F5F5F5F5F5F5F5F5F5F5F5F5F5F5F5F5F5F5F5F5F5F5F5F5F5F5F5F5F5F5F5F5F5F5F5F5F5F5F5F5F5F5F5F5F5F5F5F5F5F5F5F5F5F5F5F5F5F5F5F5F5F5E2F5F5F5F5F5F5F5F5F5F5F5F5F5F5F5F5F5F5F5F5F5E2E2F5F5F5F5F5F5F5F5F5F5F5F5F5F5F5F5F5F5F5
310
F5F5E2F5F5F5F5F5F5F5F5F5F5F5F5F5F5F5F5F5F5F5F5F5F5F5F5F5F5F5F5F5F5F5F5F5F5F5F5F5F5F5F5F5F5F5F5F5F5F5F5F5F5F5F5F5F5F5F5F5F5F5F5F5F5F5F5F5F5F5F5F5F5F5F5F5F5F5F5F5F5F5F5F5F5F5F5F5F5F5F5F5F5F5F5F5F5F5F5F5F5F5F5F5F5F5F5F5F5F5F5F5F5F5F5F5F5F5F5F5F5F5F5F5F5F5F5
310
F5F5F5F5F5F5F5F5F5F5E2F5F5F5F5F5F5F5F5F5F5F5F5F5F5F5F5F5F5F5F5F5E2E2F5F5F5F5E2F5F5F5F5F5F5F5F5F5F5F5F5F5F5F5F5E2F5F5F5F5F5F5F5F5F5F5F5F5F5F5F5F5F5F5F5F5F5F5F5F5F5F5F5F5F5F5F5F5F5F5F5F5F5F5F5F5F5F5F5F5F5F5F5F5F5F5F5F5F5F5F5F5F5F5F5F5F5F5F5F5F5F5F5F5F5F5F5
310
F5F5F5F5F5F5F5F5F5F5F5F5F5F5F5F5F5F5F5F5F5F5F5F5F5F5F5F5F5F5F5F5F5F5F5F5F5F5F5F5F5F5F5F5F5F5F5F5F5F5F5F5F5F5F5F5F5F5F5F5F5F5F5E2F5F5F5F5F5F5F5F5F5F5F5F5F5F5F5F5E2F5F5F5F5E2E2F5F5F5F5E2F5F5F5F5F5F5F5F5F5F5F5F5F5F5F5F5E2F5F5F5F5F5F5F5F5F5F5F5F5F5F5F5F5F5F5
310
F5F5F5F5F5F5F5F5F5F5F5F5F5F5F5F5F5F5F5F5F5F5F5F5F5F5F5F5F5F5F5F5F5F5F5F5F5F5F5F5F5F5F5F5F5F5F5F5F5F5F5F5F5F5F5F5F5F5F5F5F5F5F5F5F5F5F5F5F5F5F5F5F5F5F5F5F5F5F5F5F5F5F5F5F5F5F5F5F5F5F5F5F5F5F5F5F5F5F5F5F5F5F5F5F5F5F5F5F5F5F5F5F5F5F5F5E2F5F5F5F5F5F5F5F5F5F5
310
F5F5F5F5F5F5E2F5F5F5F5E2E2F5F5F5F5E2F5F5F5F5F5F5F5F5F5F5F5F5F5F5F5F5E2F5F5F5F5F5F5F5F5F5F5F5F5F5F5F5F5F5F5F5F5F5F5F5F5F5F5F5F5F5F5F5F5F5F5F5F5F5F5F5F5F5F5F5F5F5F5F5F5F5F5F5F5F5F5F5F5F5F5F5F5F5F5F5F5F5F5F5F5F5F5F5F5F5F5F5F5F5F5F5F5F5F5F5F5F5F5F5F5F5F5F5F5
310
F5F5F5F5F5F5F5F5F5F5F5F5F5F5F5F5F5F5F5F5F5F5F5F5F5F5F5F5F5F5F5F5F5F5F5F5F5F5F5F5F5F5E2F5F5F5F5F5F5F5F5F5F5F5F5F5F5F5F5E2F5F5F5F5E2E2F5F5F5F5E2F5F5F5F5F5F5F5F5F5F5F5F5F5F5F5F5E2F5F5F5F5F5F5F5F5F5F5F5F5F5F5F5F5F5F5F5F5F5F5F5F5F5F5F5F5F5F5F5F5F5F5F5F5F5F5F5
310
F5F5F5F5F5F5F5F5F5F5F5F5F5F5F5F5F5F5F5F5F5F5F5F5F5F5F5F5F5F5F5F5F5F5F5F5F5F5F5F5F5F5F5F5F5F5F5F5F5F5F5F5F5F5F5F5F5F5F5F5F5F5F5F5F5F5F5F5F5F5F5F5F5F5F5F5F5F5F5F5F5F5F5F5F5F5F5F5F5F5F5F5F5F5F5E2F5F5F5F5F5F5F5F5F5F5F5F5F5F5F5F5E2F5F5F5F5E2E2F5F5F5F5E2F5F5F5
310
F5F5F5F5F5F5F5F5F5F5F5F5F5E2F5F5F5F5F5F5F5F5F5F5F5F5F5F5F5F5F5F5F5F5F5F5F5F5F5F5F5F5F5F5F5F5F5F5F5F5F5F5F5F5F5F5F5F5F5F5F5F5F5F5F5F5F5F5F5F5F5F5F5F5F5F5F5F5F5F5F5F5F5F5F5F5F5F5F5F5F5F5F5F5F5F5F5F5F5F5F5F5F5F5F5F5F5F5F5F5F5F5F5F5F5F5F5F5F5F5F5F5F5F5F5F5F5
310
F5F5F5F5F5F5F5F5F5F5F5F5F5F5F5F5F5F5F5F5F5E2F5F5F5F5F5F5F5F5F5F5F5F5F5F5F5F5E2F5F5F5F5E2E2F5F5F5F5E2F5F5F5F5F5F5F5F5F5F5F5F5F5F5F5F5E2F5F5F5F5F5F5F5F5F5F5F5F5F5F5F5F5F5F5F5F5F5F5F5F5F5F5F5F5F5F5F5F5F5F5F5F5F5F5F5F5F5F5F5F5F5F5F5F5F5F5F5F5F5F5F5F5F5F5F5F5
310
F5F5F5F5F5F5F5F5F5F5F5F5F5F5F5F5F5F5F5F5F5F5F5F5F5F5F5F5F5F5F5F5F5F5F5F5F5F5F5F5F5F5F5F5F5F5F5F5F5F5F5F5F5F5F5F5F5F5F5F5F5F5F5F5F5F5F5F5F5F5F5F5F5F5E2F5F5F5F5F5F5F5F5F5F5F5F5F5F5F5F5E2F5F5F5F5E2E2F5F5F5F5E2F5F5F5F5F5F5F5F5F5F5F5F5F5F5F5F5E2F5F5F5F5F5F5F5
310
F5F5F5F5F5F5F5F5F5F5F5F5F5F5F5F5F5F5F5F5F5F5F5F5F5F5F5F5F5F5F5F5F5F5F5F5F5F5F5F5F5F5F5F5F5F5F5F5F5F5F5F5F5F5F5F5F5F5F5F5F5F5F5F5F5F5F5F5F5F5F5F5F5F5F5F5F5F5F5F5F5F5F5F5F5F5F5F5F5F5F5F5F5F5F5F5F5F5F5F5F5F5F5F5F5F5F5F5F5F5F5F5F5F5F5F5F5F5F5F5F5F5F5F5F5F5F5
310
E2F5F5F5F5F5F5F5F5F5F5F5F5F5F5F5F5E2F5F5F5F5E2E2F5F5F5F5E2F5F5F5F5F5F5F5F5F5F5F5F5F5F5F5F5E2F5F5F5F5F5F5F5F5F5F5F5F5F5F5F5F5F5F5F5F5F5F5F5F5F5F5F5F5F5F5F5F5F5F5F5F5F5F5F5F5F5F5F5F5F5F5F5F5F5F5F5F5F5F5F5F5F5F5F5F5F5F5F5F5F5F5F5F5F5F5F5F5F5F5F5F5F5F5F5F5F5
310
F5F5F5F5F5F5F5F5F5F5F5F5F5F5F5F5F5F5F5F5F5F5F5F5F5F5F5F5F5F5F5F5F5F5F5F5F5F5F5F5F5F5F5F5F5F5F5F5F5F5F5F5F5E2F5F5F5F5F5F5F5F5F5F5F5F5F5F5F5F5E2F5F5F5F5E2E2F5F5F5F5E2F5F5F5F5F5F5F5F5F5F5F5F5F5F5F5F5E2F5F5F5F5F5F5F5F5F5F5F5F5F5F5F5F5F5F5F5F5F5F5F5F5F5F5F5F5
310
F5F5F5F5F5F5F5F5F5F5F5F5F5F5F5F5F5F5F5F5F5F5F5F5F5F5F5F5F5F5F5F5F5F5F5F5F5F5F5F5F5F5F5F5F5F5F5F5F5F5F5F5F5F5F5F5F5F5F5F5F5F5F5F5F5F5F5F5F5F5F5F5F5F5F5F5F5F5F5F5F5F5F5F5F5F5F5F5F5F5F5F5F5F5F5F5F5F5F5F5F5F5F5F5F5F5E2F5F5F5F5F5F5F5F5F5F5F5F5F5F5F5F5E2F5F5F5
310
F5E2E2F5F5F5F5E2F5F5F5F5F5F5F5F5F5F5F5F5F5F5F5F5E2F5F5F5F5F5F5F5F5F5F5F5F5F5F5F5F5F5F5F5F5F5F5F5F5F5F5F5F5F5F5F5F5F5F5F5F5F5F5F5F5F5F5F5F5F5F5F5F5F5F5F5F5F5F5F5F5F5F5F5F5F5F5F5F5F5F5F5F5F5F5F5F5F5F5F5F5F5F5F5F5F5F5F5F5F5F5F5F5F5F5F5F5F5F5F5F5F5F5F5F5F5F5
310
F5F5F5F5F5F5F5F5F5F5F5F5F5F5F5F5F5F5F5F5F5F5F5F5F5F5F5F5F5F5F5F5E2F5F5F5F5F5F5F5F5F5F5F5F5F5F5F5F5E2F5F5F5F5E2E2F5F5F5F5E2F5F5F5F5F5F5F5F5F5F5F5F5F5F5F5F5E2F5F5F5F5F5F5F5F5F5F5F5F5F5F5F5F5F5F5F5F5F5F5F5F5F5F5F5F5F5F5F5F5F5F5F5F5F5F5F5F5F5F5F5F5F5F5F5F5F5
310
F5F5F5F5F5F5F5F5F5F5F5F5F5F5F5F5F5F5F5F5F5F5F5F5F5F5F5F5F5F5F5F5F5F5F5F5F5F5F5F5F5F5F5F5F5F5F5F5F5F5F5F5F5F5F5F5F5F5F5F5F5F5F5F5F5F5F5F5F5F5F5F5F5F5F5F5F5F5F5F5F5F5F5F5F5E2F5F5F5F5F5F5F5F5F5F5F5F5F5F5F5F5E2F5F5F5F5E2E2F5F5F5F5E2F5F5F5F5F5F5F5F5F5F5F5F5F5
310
F5F5F5E2F5F5F5F5F5F5F5F5F5F5F5F5F5F5F5F5F5F5F5F5F5F5F5F5F5F5F5F5F5F5F5F5F5F5F5F5F5F5F5F5F5F5F5F5F5F5F5F5F5F5F5F5F5F5F5F5F5F5F5F5F5F5F5F5F5F5F5F5F5F5F5F5F5F5F5F5F5F5F5F5F5F5F5F5F5F5F5F5F5F5F5F5F5F5F5F5F5F5F5F5F5F5F5F5F5F5F5F5F5F5F5F5F5F5F5F5F5F5F5F5F5F5F5
310
F5F5F5F5F5F5F5F5F5F5F5E2F5F5F5F5F5F5F5F5F5F5F5F5F5F5F5F5E2F5F5F5F5E2E2F5F5F5F5E2F5F5F5F5F5F5F5F5F5F5F5F5F5F5F5F5E2F5F5F5F5F5F5F5F5F5F5F5F5F5F5F5F5F5F5F5F5F5F5F5F5F5F5F5F5F5F5F5F5F5F5F5F5F5F5F5F5F5F5F5F5F5F5F5F5F5F5F5F5F5F5F5F5F5F5F5F5F5F5F5F5F5F5F5F5F5F5
310
F5F5F5F5F5F5F5F5F5F5F5F5F5F5F5F5F5F5F5F5F5F5F5F5F5F5F5F5F5F5F5F5F5F5F5F5F5F5F5F5F5F5F5F5F5F5F5F5F5F5F5F5F5F5F5F5F5F5F5F5F5F5F5F5E2F5F5F5F5F5F5F5F5F5F5F5F5F5F5F5F5E2F5F5F5F5E2E2F5F5F5F5E2F5F5F5F5F5F5F5F5F5F5F5F5F5F5F5F5E2F5F5F5F5F5F5F5F5F5F5F5F5F5F5F5F5F5
310
F5F5F5F5F5F5F5F5F5F5F5F5F5F5F5F5F5F5F5F5F5F5F5F5F5F5F5F5F5F5F5F5F5F5F5F5F5F5F5F5F5F5F5F5F5F5F5F5F5F5F5F5F5F5F5F5F5F5F5F5F5F5F5F5F5F5F5F5F5F5F5F5F5F5F5F5F5F5F5F5F5F5F5F5F5F5F5F5F5F5F5F5F5F5F5F5F5F5F5F5F5F5F5F5F5F5F5F5F5F5F5F5F5F5F5F5F5E2F5F5F5F5F5F5F5F5F5
310
F5F5F5F5F5F5F5E2F5F5F5F5E2E2F5F5F5F5E2F5F5F5F5F5F5F5F5F5F5F5F5F5F5F5F5E2F5F5F5F5F5F5F5F5F5F5F5F5F5F5F5F5F5F5F5F5F5F5F5F5F5F5F5F5F5F5F5F5F5F5F5F5F5F5F5F5F5F5F5F5F5F5F5F5F5F5F5F5F5F5F5F5F5F5F5F5F5F5F5F5F5F5F5F5F5F5F5F5F5F5F5F5F5F5F5F5F5F5F5F5F5F5F5F5F5F5F5
310
F5F5F5F5F5F5F5F5F5F5F5F5F5F5F5F5F5F5F5F5F5F5F5F5F5F5F5F5F5F5F5F5F5F5F5F5F5F5F5F5F5F5F5E2F5F5F5F5F5F5F5F5F5F5F5F5F5F5F5F5E2F5F5F5F5E2E2F5F5F5F5E2F5F5F5F5F5F5F5F5F5F5F5F5F5F5F5F5E2F5F5F5F5F5F5F5F5F5F5F5F5F5F5F5F5F5F5F5F5F5F5F5F5F5F5F5F5F5F5F5F5F5F5F5F5F5F5
310
F5F5F5F5F5F5F5F5F5F5F5F5F5F5F5F5F5F5F5F5F5F5F5F5F5F5F5F5F5F5F5F5F5F5F5F5F5F5F5F5F5F5F5F5F5F5F5F5F5F5F5F5F5F5F5F5F5F5F5F5F5F5F5F5F5F5F5F5F5F5F5F5F5F5F5F5F5F5F5F5F5F5F5F5F5F5F5F5F5F5F5F5F5F5F5F5E2F5F5F5F5F5F5F5F5F5F5F5F5F5F5F5F5E2F5F5F5F5E2E2F5F5F5F5E2F5F5
310
F5F5F5F5F5F5F5F5F5F5F5F5F5F5E2F5F5F5F5F5F5F5F5F5F5F5F5F5F5F5F5F5F5F5F5F5F5F5F5F5F5F5F5F5F5F5F5F5F5F5F5F5F5F5F5F5F5F5F5F5F5F5F5F5F5F5F5F5F5F5F5F5F5F5F5F5F5F5F5F5F5F5F5F5F5F5F5F5F5F5F5F5F5F5F5F5F5F5F5F5F5F5F5F5F5F5F5F5F5F5F5F5F5F5F5F5F5F5F5F5F5F5F5F5F5F5F5
310
F5F5F5F5F5F5F5F5F5F5F5F5F5F5F5F5F5F5F5F5F5F5E2F5F5F5F5F5F5F5F5F5F5F5F5F5F5F5F5E2F5F5F5F5E2E2F5F5F5F5F5F5F5F5F5F5F5F5F5F5F5F5F5F5F5F5F5E2F5F5F5F5F5F5F5F5F5F5F5F5F5F5F5F5F5F5F5F5F5F5F5F5F5F5F5F5F5F5F5F5F5F5F5F5F5F5F5F5F5F5F5F5F5F5F5F5F5F5F5F5F5F5F5F5F5F5F5
310
F5F5F5F5F5F5F5F5F5F5F5F5F5F5F5F5F5F5F5F5F5F5F5F5F5F5F5F5F5F5F5F5F5F5F5F5F5F5F5F5F5F5F5F5F5F5F5F5F5F5F5F5F5F5F5F5F5F5F5F5F5F5F5F5F5F5F5F5F5F5F5F5F5F5F5E2F5F5F5F5F5F5F5F5F5F5F5F5F5F5F5F5F5F5F5F5F5E2E2F5F5F5F5F5F5F5F5F5F5F5F5F5F5F5F5F5F5F5F5F5E2F5F5F5F5F5F5
310
F5F5F5F5F5F5F5F5F5F5F5F5F5F5F5F5F5F5F5F5F5F5F5F5F5F5F5F5F5F5F5F5F5F5F5F5F5F5F5F5F5F5F5F5F5F5F5F5F5F5F5F5F5F5F5F5F5F5F5F5F5F5F5F5F5F5F5F5F5F5F5F5F5F5F5F5F5F5F5F5F5F5F5F5F5F5F5F5F5F5F5F5F5F5F5F5F5F5F5F5F5F5F5F5F5F5F5F5F5F5F5F5F5F5F5F5F5F5F5F5F5F5F5F5F5F5F5
310
F5E2F5F5F5F5F5F5F5F5F5F5F5F5F5F5F5F5F5F5F5F5F5E2E2F5F5F5F5F5F5F5F5F5F5F5F5F5F5F5F5F5F5F5F5F5E2F5F5F5F5F5F5F5F5F5F5F5F5F5F5F5F5F5F5F5F5F5F5F5F5F5F5F5F5F5F5F5F5F5F5F5F5F5F5F5F5F5F5F5F5F5F5F5F5F5F5F5F5F5F5F5F5F5F5F5F5F5F5F5F5F5F5F5F5F5F5F5F5F5F5F5F5F5F5F5F5
310
F5F5F5F5F5F5F5F5F5F5F5F5F5F5F5F5F5F5F5F5F5F5F5F5F5F5F5F5F5F5F5F5F5F5F5F5F5F5F5F5F5F5F5F5F5F5F5F5F5F5F5F5F5F5E2F5F5F5F5F5F5F5F5F5F5F5F5F5F5F5F5F5F5F5F5F5E2E2F5F5F5F5F5F5F5F5F5F5F5F5F5F5F5F5F5F5F5F5F5E2F5F5F5F5F5F5F5F5F5F5F5F5F5F5F5F5F5F5F5F5F5F5F5F5F5F5F5
310
F5F5F5F5F5F5F5F5F5F5F5F5F5F5F5F5F5F5F5F5F5F5F5F5F5F5F5F5F5F5F5F5F5F5F5F5F5F5F5F5F5F5F5F5F5F5F5F5F5F5F5F5F5F5F5F5F5F5F5F5F5F5F5F5F5F5F5F5F5F5F5F5F5F5F5F5F5F5F5F5F5F5F5F5F5F5F5F5F5F5F5F5F5F5F5F5F5F5F5F5F5F5F5F5F5F5F5E2F5F5F5F5F5F5F5F5F5F5F5F5F5F5F5F5F5F5F5
310
F5F5E2E2F5F5F5F5F5F5F5F5F5F5F5F5F5F5F5F5F5F5F5F5F5E2F5F5F5F5F5F5F5F5F5F5F5F5F5F5F5F5F5F5F5F5F5F5F5F5F5F5F5F5F5F5F5F5F5F5F5F5F5F5F5F5F5F5F5F5F5F5F5F5F5F5F5F5F5F5F5F5F5F5F5F5F5F5F5F5F5F5F5F5F5F5F5F5F5F5F5F5F5F5F5F5F5F5F5F5F5F5F5F5F5F5F5F5F5F5F5F5F5F5F5F5F5
310
F5F5F5F5F5F5F5F5F5F5F5F5F5F5F5F5F5F5F5F5F5F5F5F5F5F5F5F5F5F5F5F5F5E2F5F5F5F5F5F5F5F5F5F5F5F5F5F5F5F5F5F5F5F5F5E2E2F5F5F5F5F5F5F5F5F5F5F5F5F5F5F5F5F5F5F5F5F5E2F5F5F5F5F5F5F5F5F5F5F5F5F5F5F5F5F5F5F5F5F5F5F5F5F5F5F5F5F5F5F5F5F5F5F5F5F5F5F5F5F5F5F5F5F5F5F5F5
310
F5F5F5F5F5F5F5F5F5F5F5F5F5F5F5F5F5F5F5F5F5F5F5F5F5F5F5F5F5F5F5F5F5F5F5F5F5F5F5F5F5F5F5F5F5F5F5F5F5F5F5F5F5F5F5F5F5F5F5F5F5F5F5F5F5F5F5F5F5F5F5F5F5F5F5F5F5F5F5F5F5F5F5F5F5F5E2F5F5F5F5F5F5F5F5F5F5F5F5F5F5F5F5F5F5F5F5F5E2E2F5F5F5F5F5F5F5F5F5F5F5F5F5F5F5F5F5
310
F5F5F5F5E2F5F5F5F5F5F5F5F5F5F5F5F5F5F5F5F5F5F5F5F5F5F5F5F5F5F5F5F5F5F5F5F5F5F5F5F5F5F5F5F5F5F5F5F5F5F5F5F5F5F5F5F5F5F5F5F5F5F5F5F5F5F5F5F5F5F5F5F5F5F5F5F5F5F5F5F5F5F5F5F5F5F5F5F5F5F5F5F5F5F5F5F5F5F5F5F5F5F5F5F5F5F5F5F5F5F5F5F5F5F5F5F5F5F5F5F5F5F5F5F5F5F5
310
F5F5F5F5F5F5F5F5F5F5F5F5E2F5F5F5F5F5F5F5F5F5F5F5F5F5F5F5F5F5F5F5F5F5E2E2F5F5F5F5F5F5F5F5F5F5F5F5F5F5F5F5F5F5F5F5F5E2F5F5F5F5F5F5F5F5F5F5F5F5F5F5F5F5F5F5F5F5F5F5F5F5F5F5F5F5F5F5F5F5F5F5F5F5F5F5F5F5F5F5F5F5F5F5F5F5F5F5F5F5F5F5F5F5F5F5F5F5F5F5F5F5F5F5F5F5F5
310
F5F5F5F5F5F5F5F5F5F5F5F5F5F5F5F5F5F5F5F5F5F5F5F5F5F5F5F5F5F5F5F5F5F5F5F5F5F5F5F5F5F5F5F5F5F5F5F5F5F5F5F5F5F5F5F5F5F5F5F5F5F5F5F5F5E2F5F5F5F5F5F5F5F5F5F5F5F5F5F5F5F5F5F5F5F5F5E2E2F5F5F5F5F5F5F5F5F5F5F5F5F5F5F5F5F5F5F5F5F5E2F5F5F5F5F5F5F5F5F5F5F5F5F5F5F5F5
310
F5F5F5F5F5F5F5F5F5F5F5F5F5F5F5F5F5F5F5F5F5F5F5F5F5F5F5F5F5F5F5F5F5F5F5F5F5F5F5F5F5F5F5F5F5F5F5F5F5F5F5F5F5F5F5F5F5F5F5F5F5F5F5F5F5F5F5F5F5F5F5F5F5F5F5F5F5F5F5F5F5F5F5F5F5F5F5F5F5F5F5F5F5F5F5F5F5F5F5F5F5F5F5F5F5F5F5F5F5F5F5F5F5F5F5F5F5F5E2F5F5F5F5F5F5F5F5
310
F5F5F5F5F5F5F5F5F5F5F5F5F5E2E2F5F5F5F5E2F5F5F5F5F5F5F5F5F5F5F5F5F5F5F5F5E2F5F5F5F5F5F5F5F5F5F5F5F5F5F5F5F5F5F5F5F5F5F5F5F5F5F5F5F5F5F5F5F5F5F5F5F5F5F5F5F5F5F5F5F5F5F5F5F5F5F5F5F5F5F5F5F5F5F5F5F5F5F5F5F5F5F5F5F5F5F5F5F5F5F5F5F5F5F5F5F5F5F5F5F5F5F5F5F5F5F5
310
F5F5F5F5F5F5F5F5F5F5F5F5F5F5F5F5F5F5F5F5F5F5F5F5F5F5F5F5F5F5F5F5F5F5F5F5F5F5F5F5F5F5F5F5E2F5F5F5F5F5F5F5F5F5F5F5F5F5F5F5F5E2F5F5F5F5E2E2F5F5F5F5E2F5F5F5F5F5F5F5F5F5F5F5F5F5F5F5F5E2F5F5F5F5F5F5F5F5F5F5F5F5F5F5F5F5F5F5F5F5F5F5F5F5F5F5F5F5F5F5F5F5F5F5F5F5F5
310
F5F5F5F5F5F5F5F5F5F5F5F5F5F5F5F5F5F5F5F5F5F5F5F5F5F5F5F5F5F5F5F5F5F5F5F5F5F5F5F5F5F5F5F5F5F5F5F5F5F5F5F5F5F5F5F5F5F5F5F5F5F5F5F5F5F5F5F5F5F5F5F5F5F5F5F5F5F5F5F5F5F5F5F5F5F5F5F5F5F5F5F5F5F5F5F5F5E2F5F5F5F5F5F5F5F5F5F5F5F5F5F5F5F5E2F5F5F5F5E2E2F5F5F5F5E2F5
310
F5F5F5F5F5F5F5F5F5F5F5F5F5F5F5E2F5F5F5F5F5F5F5F5F5F5F5F5F5F5F5F5F5F5F5F5F5F5F5F5F5F5F5F5F5F5F5F5F5F5F5F5F5F5F5F5F5F5F5F5F5F5F5F5F5F5F5F5F5F5F5F5F5F5F5F5F5F5F5F5F5F5F5F5F5F5F5F5F5F5F5F5F5F5F5F5F5F5F5F5F5F5F5F5F5F5F5F5F5F5F5F5F5F5F5F5F5F5F5F5F5F5F5F5F5F5F5
310
F5F5F5F5F5F5F5F5F5F5F5F5F5F5F5F5F5F5F5F5F5F5F5E2F5F5F5F5F5F5F5F5F5F5F5F5F5F5F5F5E2F5F5F5F5E2E2F5F5F5F5E2F5F5F5F5F5F5F5F5F5F5F5F5F5F5F5F5E2F5F5F5F5F5F5F5F5F5F5F5F5F5F5F5F5F5F5F5F5F5F5F5F5F5F5F5F5F5F5F5F5F5F5F5F5F5F5F5F5F5F5F5F5F5F5F5F5F5F5F5F5F5F5F5F5F5F5
310
F5F5F5F5F5F5F5F5F5F5F5F5F5F5F5F5F5F5F5F5F5F5F5F5F5F5F5F5F5F5F5F5F5F5F5F5F5F5F5F5F5F5F5F5F5F5F5F5F5F5F5F5F5F5F5F5F5F5F5F5F5F5F5F5F5F5F5F5F5F5F5F5F5F5F5F5E2F5F5F5F5F5F5F5F5F5F5F5F5F5F5F5F5E2F5F5F5F5E2E2F5F5F5F5E2F5F5F5F5F5F5F5F5F5F5F5F5F5F5F5F5E2F5F5F5F5F5
310
F5F5F5F5F5F5F5F5F5F5F5F5F5F5F5F5F5F5F5F5F5F5F5F5F5F5F5F5F5F5F5F5F5F5F5F5F5F5F5F5F5F5F5F5F5F5F5F5F5F5F5F5F5F5F5F5F5F5F5F5F5F5F5F5F5F5F5F5F5F5F5F5F5F5F5F5F5F5F5F5F5F5F5F5F5F5F5F5F5F5F5F5F5F5F5F5F5F5F5F5F5F5F5F5F5F5F5F5F5F5F5F5F5F5F5F5F5F5F5F5F5F5F5F5F5F5F5
310
F5F5E2F5F5F5F5F5F5F5F5F5F5F5F5F5F5F5F5E2F5F5F5F5E2E2F5F5F5F5E2F5F5F5F5F5F5F5F5F5F5F5F5F5F5F5F5E2F5F5F5F5F5F5F5F5F5F5F5F5F5F5F5F5F5F5F5F5F5F5F5F5F5F5F5F5F5F5F5F5F5F5F5F5F5F5F5F5F5F5F5F5F5F5F5F5F5F5F5F5F5F5F5F5F5F5F5F5F5F5F5F5F5F5F5F5F5F5F5F5F5F5F5F5F5F5F5
310
F5F5F5F5F5F5F5F5F5F5F5F5F5F5F5F5F5F5F5F5F5F5F5F5F5F5F5F5F5F5F5F5F5F5F5F5F5F5F5F5F5F5F5F5F5F5F5F5F5F5F5F5F5F5F5E2F5F5F5F5F5F5F5F5F5F5F5F5F5F5F5F5E2F5F5F5F5E2E2F5F5F5F5E2F5F5F5F5F5F5F5F5F5F5F5F5F5F5F5F5E2F5F5F5F5F5F5F5F5F5F5F5F5F5F5F5F5F5F5F5F5F5F5F5F5F5F5
310
F5F5F5F5F5F5F5F5F5F5F5F5F5F5F5F5F5F5F5F5F5F5F5F5F5F5F5F5F5F5F5F5F5F5F5F5F5F5F5F5F5F5F5F5F5F5F5F5F5F5F5F5F5F5F5F5F5F5F5F5F5F5F5F5F5F5F5F5F5F5F5F5F5F5F5F5F5F5F5F5F5F5F5F5F5F5F5F5F5F5F5F5F5F5F5F5F5F5F5F5F5F5F5F5F5F5F5F5E2F5F5F5F5F5F5F5F5F5F5F5F5F5F5F5F5E2F5
310
F5F5F5E2E2F5F5F5F5E2F5F5F5F5F5F5F5F5F5F5F5F5F5F5F5F5E2F5F5F5F5F5F5F5F5F5F5F5F5F5F5F5F5F5F5F5F5F5F5F5F5F5F5F5F5F5F5F5F5F5F5F5F5F5F5F5F5F5F5F5F5F5F5F5F5F5F5F5F5F5F5F5F5F5F5F5F5F5F5F5F5F5F5F5F5F5F5F5F5F5F5F5F5F5F5F5F5F5F5F5F5F5F5F5F5F5F5F5F5F5F5F5F5F5F5F5F5
310
F5F5F5F5F5F5F5F5F5F5F5F5F5F5F5F5F5F5F5F5F5F5F5F5F5F5F5F5F5F5F5F5F5F5E2F5F5F5F5F5F5F5F5F5F5F5F5F5F5F5F5E2F5F5F5F5E2E2F5F5F5F5E2F5F5F5F5F5F5F5F5F5F5F5F5F5F5F5F5E2F5F5F5F5F5F5F5F5F5F5F5F5F5F5F5F5F5F5F5F5F5F5F5F5F5F5F5F5F5F5F5F5F5F5F5F5F5F5F5F5F5F5F5F5F5F5F5
310
F5F5F5F5F5F5F5F5F5F5F5F5F5F5F5F5F5F5F5F5F5F5F5F5F5F5F5F5F5F5F5F5F5F5F5F5F5F5F5F5F5F5F5F5F5F5F5F5F5F5F5F5F5F5F5F5F5F5F5F5F5F5F5F5F5F5F5F5F5F5F5F5F5F5F5F5F5F5F5F5F5F5F5F5F5F5F5E2F5F5F5F5F5F5F5F5F5F5F5F5F5F5F5F5E2F5F5F5F5E2E2F5F5F5F5E2F5F5F5F5F5F5F5F5F5F5F5
310
F5F5F5F5F5E2F5F5F5F5F5F5F5F5F5F5F5F5F5F5F5F5F5F5F5F5F5F5F5F5F5F5F5F5F5F5F5F5F5F5F5F5F5F5F5F5F5F5F5F5F5F5F5F5F5F5F5F5F5F5F5F5F5F5F5F5F5F5F5F5F5F5F5F5F5F5F5F5F5F5F5F5F5F5F5F5F5F5F5F5F5F5F5F5F5F5F5F5F5F5F5F5F5F5F5F5F5F5F5F5F5F5F5F5F5F5F5F5F5F5F5F5F5F5F5F5F5
310
F5F5F5F5F5F5F5F5F5F5F5F5F5E2F5F5F5F5F5F5F5F5F5F5F5F5F5F5F5F5E2F5F5F5F5E2E2F5F5F5F5E2F5F5F5F5F5F5F5F5F5F5F5F5F5F5F5F5E2F5F5F5F5F5F5F5F5F5F5F5F5F5F5F5F5F5F5F5F5F5F5F5F5F5F5F5F5F5F5F5F5F5F5F5F5F5F5F5F5F5F5F5F5F5F5F5F5F5F5F5F5F5F5F5F5F5F5F5F5F5F5F5F5F5F5F5F5
310
F5F5F5F5F5F5F5F5F5F5F5F5F5F5F5F5F5F5F5F5F5F5F5F5F5F5F5F5F5F5F5F5F5F5F5F5F5F5F5F5F5F5F5F5F5F5F5F5F5F5F5F5F5F5F5F5F5F5F5F5F5F5F5F5F5F5E2F5F5F5F5F5F5F5F5F5F5F5F5F5F5F5F5E2F5F5F5F5E2E2F5F5F5F5E2F5F5F5F5F5F5F5F5F5F5F5F5F5F5F5F5E2F5F5F5F5F5F5F5F5F5F5F5F5F5F5F5
310
F5F5F5F5F5F5F5F5F5F5F5F5F5F5F5F5F5F5F5F5F5F5F5F5F5F5F5F5F5F5F5F5F5F5F5F5F5F5F5F5F5F5F5F5F5F5F5F5F5F5F5F5F5F5F5F5F5F5F5F5F5F5F5F5F5F5F5F5F5F5F5F5F5F5F5F5F5F5F5F5F5F5F5F5F5F5F5F5F5F5F5F5F5F5F5F5F5F5F5F5F5F5F5F5F5F5F5F5F5F5F5F5F5F5F5F5F5F5F5E2F5F5F5F5F5F5F5
310
F5F5F5F5F5F5F5F5F5E2F5F5F5F5E2E2F5F5F5F5E2F5F5F5F5F5F5F5F5F5F5F5F5F5F5F5F5E2F5F5F5F5F5F5F5F5F5F5F5F5F5F5F5F5F5F5F5F5F5F5F5F5F5F5F5F5F5F5F5F5F5F5F5F5F5F5F5F5F5F5F5F5F5F5F5F5F5F5F5F5F5F5F5F5F5F5F5F5F5F5F5F5F5F5F5F5F5F5F5F5F5F5F5F5F5F5F5F5F5F5F5F5F5F5F5F5F5
310
F5F5F5F5F5F5F5F5F5F5F5F5F5F5F5F5F5F5F5F5F5F5F5F5F5F5F5F5F5F5F5F5F5F5F5F5F5F5F5F5F5F5F5F5F5E2F5F5F5F5F5F5F5F5F5F5F5F5F5F5F5F5E2F5F5F5F5E2E2F5F5F5F5E2F5F5F5F5F5F5F5F5F5F5F5F5F5F5F5F5E2F5F5F5F5F5F5F5F5F5F5F5F5F5F5F5F5F5F5F5F5F5F5F5F5F5F5F5F5F5F5F5F5F5F5F5F5
310
F5F5F5F5F5F5F5F5F5F5F5F5F5F5F5F5F5F5F5F5F5F5F5F5F5F5F5F5F5F5F5F5F5F5F5F5F5F5F5F5F5F5F5F5F5F5F5F5F5F5F5F5F5F5F5F5F5F5F5F5F5F5F5F5F5F5F5F5F5F5F5F5F5F5F5F5F5F5F5F5F5F5F5F5F5F5F5F5F5F5F5F5F5F5F5F5F5F5E2F5F5F5F5F5F5F5F5F5F5F5F5F5F5F5F5E2F5F5F5F5E2E2F5F5F5F5E2
310
F5F5F5F5F5F5F5F5F5F5F5F5F5F5F5F5E2F5F5F5F5F5F5F5F5F5F5F5F5F5F5F5F5F5F5F5F5F5F5F5F5F5F5F5F5F5F5F5F5F5F5F5F5F5F5F5F5F5F5F5F5F5F5F5F5F5F5F5F5F5F5F5F5F5F5F5F5F5F5F5F5F5F5F5F5F5F5F5F5F5F5F5F5F5F5F5F5F5F5F5F5F5F5F5F5F5F5F5F5F5F5F5F5F5F5F5F5F5F5F5F5F5F5F5F5F5F5
310
F5F5F5F5F5F5F5F5F5F5F5F5F5F5F5F5F5F5F5F5F5F5F5F5E2F5F5F5F5F5F5F5F5F5F5F5F5F5F5F5F5E2F5F5F5F5E2E2F5F5F5F5E2F5F5F5F5F5F5F5F5F5F5F5F5F5F5F5F5E2F5F5F5F5F5F5F5F5F5F5F5F5F5F5F5F5F5F5F5F5F5F5F5F5F5F5F5F5F5F5F5F5F5F5F5F5F5F5F5F5F5F5F5F5F5F5F5F5F5F5F5F5F5F5F5F5F5
310
F5F5F5F5F5F5F5F5F5F5F5F5F5F5F5F5F5F5F5F5F5F5F5F5F5F5F5F5F5F5F5F5F5F5F5F5F5F5F5F5F5F5F5F5F5F5F5F5F5F5F5F5F5F5F5F5F5F5F5F5F5F5F5F5F5F5F5F5F5F5F5F5F5F5F5F5F5E2F5F5F5F5F5F5F5F5F5F5F5F5F5F5F5F5E2F5F5F5F5E2E2F5F5F5F5E2F5F5F5F5F5F5F5F5F5F5F5F5F5F5F5F5E2F5F5F5F5
310
F5F5F5F5F5F5F5F5F5F5F5F5F5F5F5F5F5F5F5F5F5F5F5F5F5F5F5F5F5F5F5F5F5F5F5F5F5F5F5F5F5F5F5F5F5F5F5F5F5F5F5F5F5F5F5F5F5F5F5F5F5F5F5F5F5F5F5F5F5F5F5F5F5F5F5F5F5F5F5F5F5F5F5F5F5F5F5F5F5F5F5F5F5F5F5F5F5F5F5F5F5F5F5F5F5F5F5F5F5F5F5F5F5F5F5F5F5F5F5F5F5F5F5F5F5F5F5
310
F5F5F5E2F5F5F5F5F5F5F5F5F5F5F5F5F5F5F5F5E2F5F5F5F5E2E2F5F5F5F5F5F5F5F5F5F5F5F5F5F5F5F5F5F5F5F5F5E2F5F5F5F5F5F5F5F5F5F5F5F5F5F5F5F5F5F5F5F5F5F5F5F5F5F5F5F5F5F5F5F5F5F5F5F5F5F5F5F5F5F5F5F5F5F5F5F5F5F5F5F5F5F5F5F5F5F5F5F5F5F5F5F5F5F5F5F5F5F5F5F5F5F5F5F5F5F5
310
F5F5F5F5F5F5F5F5F5F5F5F5F5F5F5F5F5F5F5F5F5F5F5F5F5F5F5F5F5F5F5F5F5F5F5F5F5F5F5F5F5F5F5F5F5F5F5F5F5F5F5F5F5F5F5F5E2F5F5F5F5F5F5F5F5F5F5F5F5F5F5F5F5F5F5F5F5F5E2E2F5F5F5F5F5F5F5F5F5F5F5F5F5F5F5F5F5F5F5F5F5E2F5F5F5F5F5F5F5F5F5F5F5F5F5F5F5F5F5F5F5F5F5F5F5F5F5
310
F5F5F5F5F5F5F5F5F5F5F5F5F5F5F5F5F5F5F5F5F5F5F5F5F5F5F5F5F5F5F5F5F5F5F5F5F5F5F5F5F5F5F5F5F5F5F5F5F5F5F5F5F5F5F5F5F5F5F5F5F5F5F5F5F5F5F5F5F5F5F5F5F5F5F5F5F5F5F5F5F5F5F5F5F5F5F5F5F5F5F5F5F5F5F5F5F5F5F5F5F5F5F5F5F5F5F5F5F5E2F5F5F5F5F5F5F5F5F5F5F5F5F5F5F5F5F5
310
F5F5F5F5E2E2F5F5F5F5F5F5F5F5F5F5F5F5F5F5F5F5F5F5F5F5F5E2F5F5F5F5F5F5F5F5F5F5F5F5F5F5F5F5F5F5F5F5F5F5F5F5F5F5F5F5F5F5F5F5F5F5F5F5F5F5F5F5F5F5F5F5F5F5F5F5F5F5F5F5F5F5F5F5F5F5F5F5F5F5F5F5F5F5F5F5F5F5F5F5F5F5F5F5F5F5F5F5F5F5F5F5F5F5F5F5F5F5F5F5F5F5F5F5F5F5F5
310
F5F5F5F5F5F5F5F5F5F5F5F5F5F5F5F5F5F5F5F5F5F5F5F5F5F5F5F5F5F5F5F5F5F5F5E2F5F5F5F5F5F5F5F5F5F5F5F5F5F5F5F5F5F5F5F5F5E2E2F5F5F5F5F5F5F5F5F5F5F5F5F5F5F5F5F5F5F5F5F5E2F5F5F5F5F5F5F5F5F5F5F5F5F5F5F5F5F5F5F5F5F5F5F5F5F5F5F5F5F5F5F5F5F5F5F5F5F5F5F5F5F5F5F5F5F5F5
310
F5F5F5F5F5F5F5F5F5F5F5F5F5F5F5F5F5F5F5F5F5F5F5F5F5F5F5F5F5F5F5F5F5F5F5F5F5F5F5F5F5F5F5F5F5F5F5F5F5F5F5F5F5F5F5F5F5F5F5F5F5F5F5F5F5F5F5F5F5F5F5F5F5F5F5F5F5F5F5F5F5F5F5F5F5F5F5F5E2F5F5F5F5F5F5F5F5F5F5F5F5F5F5F5F5F5F5F5F5F5E2E2F5F5F5F5F5F5F5F5F5F5F5F5F5F5F5
310
F5F5F5F5F5F5E2E2E2E2E2E2E2E2E2E2E2E2E2E2E2E2E2E2E2E2E2E2E2E2E2E2E2E2E2E2E2E2E2E2E2E2E2E2E2E2E2E2E2E2E2E2E2E2E2E2E2E2E2E2E2E2E2E2E2E2E2E2E2E2E2E2E2E2E2E2E2E2E2E2E2E2E2E2E2E2E2E2E2E2E2E2E2E2E2E2E2E2E2E2E2E2E2E2E2E2E2E2E2E2E2E2E2E2E2E2E2E2E2E2E2E2E2E2E2E2E2
310
E2E2E2E2E2E2E2E2E2E2E2E2E2E2E2F5F5F5F5F5F5F5F5F5F5F5F5F5F5F5F5F5F5F5F5F5E2E2F5F5F5F5F5F5F5F5F5F5F5F5F5F5F5F5F5F5F5F5F5F5F5F5F5F5F5F5F5F5F5F5F5F5F5F5F5F5F5F5F5F5F5F5F5F5F5F5F5F5F5F5F5F5F5F5F5F5F5F5F5F5F5F5F5F5F5F5F5F5F5F5F5F5F5F5F5F5F5F5F5F5F5F5F5F5F5F5F5
310
F5F5F5F5F5F5F5F5F5F5F5F5F5F5F5F5F5F5F5F5F5F5F5F5F5F5F5F5F5F5F5F5F5F5F5F5F5F5F5F5F5F5F5F5F5F5F5F5F5F5F5F5F5F5F5F5F5F5F5F5F5F5F5F5F5F5F5F5F5F5F5F5F5F5F5F5F5F5F5F5F5F5F5F5F5F5F5F5F5E2E2F5F5F5F5F5F5F5F5F5F5F5F5F5F5F5F5F5F5F5F5F5F5F5F5F5F5F5F5F5F5F5F5F5F5F5F5
310
F5F5F5F5F5F5F5F5F5F5F5F5F5F5F5F5F5F5F5F5F5F5F5F5F5F5F5F5F5F5F5F5F5F5F5F5F5F5F5F5F5F5F5F5F5F5F5F5F5F5F5F5F5F5F5F5F5F5F5F5F5F5F5F5F5F5F5F5F5F5F5F5F5F5F5F5F5F5F5F5F5F5F5F5F5F5F5F5F5F5F5F5F5F5F5F5F5F5F5F5F5F5F5F5F5F5F5F5F5F5F5F5F5F5F5F5F5F5F5F5F5F5F5F5F5F5F5
310
F5F5F5F5F5F5F5F5F5F5F5F5F5F5F5E2E2F5F5F5F5F5F5F5F5F5F5F5F5F5F5F5F5F5F5F5F5F5F5F5F5F5F5F5F5F5F5F5F5F5F5F5F5F5F5F5F5F5F5F5F5F5F5F5F5F5F5F5F5F5F5F5F5F5F5F5F5F5F5F5F5F5F5F5F5F5F5F5F5F5F5F5F5F5F5F5F5F5F5F5F5F5F5F5F5F5F5F5F5F5F5F5F5F5F5F5F5F5F5F5F5F5F5F5F5F5F5
310
F5F5F5F5F5F5F5F5F5F5F5F5F5F5F5F5F5F5F5F5F5F5F5F5F5F5F5F5F5F5F5F5F5F5F5F5F5F5F5F5F5F5F5F5F5F5F5F5F5F5F5F5F5F5F5F5F5F5F5F5F5F5F5F5F5F5F5F5E2E2F5F5F5F5F5F5F5F5F5F5F5F5F5F5F5F5F5F5F5F5F5F5F5F5F5F5F5F5F5F5F5F5F5F5F5F5F5F5F5F5F5F5F5F5F5F5F5F5F5F5F5F5F5F5F5F5F5
310
F5F5F5F5F5F5F5F5F5F5F5F5F5F5F5F5F5F5F5F5F5F5F5F5F5F5F5F5F5F5F5F5F5F5F5F5F5F5F5F5F5F5F5F5F5F5F5F5F5F5F5F5F5F5F5F5F5F5F5F5F5F5F5F5F5F5F5F5F5F5F5F5F5F5F5F5F5F5F5F5F5F5F5F5F5F5F5F5F5F5F5F5F5F5F5F5F5F5F5F5F5F5F5F5F5F5F5F5F5F5F5F5F5F5F5F5F5F5F5F5F5E2E2F5F5F5F5
310
E2F5F5F5F5F5F5F5F5F5F5F5F5F5F5F5F5F5F5F5F5F5F5F5F5F5F5F5F5F5F5F5F5F5F5F5F5F5F5F5F5F5F5F5F5F5F5F5F5F5F5F5F5F5F5F5F5F5F5F5F5F5F5F5F5F5F5F5F5F5F5F5F5F5F5F5F5F5F5F5F5F5F5F5F5F5F5F5F5F5F5F5F5F5F5F5F5F5F5F5F5F5F5F5F5F5F5F5F5F5F5F5F5F5F5F5F5F5F5F5F5F5F5F5F5F5F5
310
F5F5F5F5F5F5F5F5F5F5F5F5F5F5F5F5F5F5F5F5F5F5F5F5F5F5F5F5F5F5F5F5F5F5F5F5F5F5F5F5F5F5E2F5F5F5F5E2E2F5F5F5F5E2F5F5F5F5F5F5F5F5F5F5F5F5F5F5F5F5F5F5F5F5F5F5F5F5F5F5F5F5F5F5F5F5F5F5F5F5F5F5F5F5F5F5F5F5F5F5F5F5F5F5F5F5F5F5F5F5F5F5F5F5F5F5F5F5F5F5F5F5F5F5F5F5F5
310
F5F5F5F5F5F5F5F5F5F5F5F5F5F5F5F5F5F5F5F5F5F5F5F5F5F5F5F5F5F5F5F5F5F5F5F5F5F5F5F5F5F5F5F5F5F5F5F5F5F5F5F5F5F5F5F5F5F5F5F5F5F5F5F5F5F5F5F5F5F5F5F5F5F5F5F5F5F5F5F5F5F5F5F5F5F5F5F5F5F5F5F5F5F5F5E2F5F5F5F5E2E2F5F5F5F5E2F5F5F5F5F5F5F5F5F5F5F5F5F5F5F5F5F5F5F5F5
310
F5F5F5F5F5F5F5F5F5F5F5F5F5F5F5F5F5F5F5F5F5F5F5F5F5F5F5F5F5F5F5F5F5F5F5F5F5F5F5F5F5F5F5F5F5F5F5F5F5F5F5F5F5F5F5F5F5F5F5F5F5F5F5F5F5F5F5F5F5F5F5F5F5F5F5F5F5F5F5F5F5F5F5F5F5F5F5F5F5F5F5F5F5F5F5F5F5F5F5F5F5F5F5F5F5F5F5F5F5F5F5F5F5F5F5F5F5F5F5F5F5F5F5F5F5F5F5
310
F5F5F5F5F5F5F5F5F5F5F5F5F5F5F5F5F5F5F5F5F5E2F5F5F5F5E2E2F5F5F5F5E2F5F5F5F5F5F5F5F5F5F5F5F5F5F5F5F5F5F5F5F5F5F5F5F5F5F5F5F5F5F5F5F5F5F5F5F5F5F5F5F5F5F5F5F5F5F5F5F5F5F5F5F5F5F5F5F5F5F5F5F5F5F5F5F5F5F5F5F5F5F5F5F5F5F5F5F5F5F5F5F5F5F5F5F5F5F5F5F5F5F5F5F5F5F5
310
F5F5F5F5F5F5F5F5F5F5F5F5F5F5F5F5F5F5F5F5F5F5F5F5F5F5F5F5F5F5F5F5F5F5F5F5F5F5F5F5F5F5F5F5F5F5F5F5F5F5F5F5F5F5F5F5F5F5F5F5F5F5F5F5F5F5F5F5F5F5F5F5F5F5E2F5F5F5F5E2E2F5F5F5F5E2F5F5F5F5F5F5F5F5F5F5F5F5F5F5F5F5F5F5F5F5F5F5F5F5F5F5F5F5F5F5F5F5F5F5F5F5F5F5F5F5F5
310
F5F5F5F5F5F5F5F5F5F5F5F5F5F5F5F5F5F5F5F5F5F5F5F5F5F5F5F5F5F5F5F5F5F5F5F5F5F5F5F5F5F5F5F5F5F5F5F5F5F5F5F5F5F5F5F5F5F5F5F5F5F5F5F5F5F5F5F5F5F5F5F5F5F5F5F5F5F5F5F5F5F5F5F5F5F5F5F5F5F5F5F5F5F5F5F5F5F5F5F5F5F5F5F5F5F5F5F5F5F5F5F5F5F5F5F5F5F5F5F5F5F5F5F5F5F5F5
310
E2F5F5F5F5E2E2F5F5F5F5E2F5F5F5F5F5F5F5F5F5F5F5F5F5F5F5F5F5F5F5F5F5F5F5F5F5F5F5F5F5F5F5F5F5F5F5F5F5F5F5F5F5F5F5F5F5F5F5F5F5F5F5F5F5F5F5F5F5F5F5F5F5F5F5F5F5F5F5F5F5F5F5F5F5F5F5F5F5F5F5F5F5F5F5F5F5F5F5F5F5F5F5F5F5F5F5F5F5F5F5F5F5F5F5F5F5F5F5F5F5F5F5F5F5F5F5
310
F5F5F5F5F5F5F5F5F5F5F5F5F5F5F5F5F5F5F5F5F5F5F5F5F5F5F5F5F5F5F5F5F5F5F5F5F5F5F5F5F5F5F5F5F5F5F5F5F5F5F5F5F5E2F5F5F5F5E2E2F5F5F5F5E2F5F5F5F5F5F5F5F5F5F5F5F5F5F5F5F5F5F5F5F5F5F5F5F5F5F5F5F5F5F5F5F5F5F5F5F5F5F5F5F5F5F5F5F5F5F5F5F5F5F5F5F5F5F5F5F5F5F5F5F5F5F5
310
F5F5F5F5F5F5F5F5F5F5F5F5F5F5F5F5F5F5F5F5F5F5F5F5F5F5F5F5F5F5F5F5F5F5F5F5F5F5F5F5F5F5F5F5F5F5F5F5F5F5F5F5F5F5F5F5F5F5F5F5F5F5F5F5F5F5F5F5F5F5F5F5F5F5F5F5F5F5F5F5F5F5F5F5F5F5F5F5F5F5F5F5F5F5F5F5F5F5F5F5F5F5F5F5F5F5E2F5F5F5F5E2E2F5F5F5F5E2F5F5F5F5F5F5F5F5F5
310
F5F5F5F5F5F5F5F5F5F5F5F5F5F5F5F5F5F5F5F5F5F5F5F5F5F5F5F5F5F5F5F5F5F5F5F5F5F5F5F5F5F5F5F5F5F5F5F5F5F5F5F5F5F5F5F5F5F5F5F5F5F5F5F5F5F5F5F5F5F5F5F5F5F5F5F5F5F5F5F5F5F5F5F5F5F5F5F5F5F5F5F5F5F5F5F5F5F5F5F5F5F5F5F5F5F5F5F5F5F5F5F5F5F5F5F5F5F5F5F5F5F5F5F5F5F5F5
310
F5F5F5F5F5F5F5F5F5F5F5F5F5F5F5F5F5F5F5F5F5F5F5F5F5F5F5F5F5F5F5F5E2F5F5F5F5E2E2F5F5F5F5E2E2E2E2E2E2E2E2F5F5F5F5F5F5F5F5F5E2E2E2E2E2E2E2E2E2E2E2E2E2E2E2F5F5F5F5F5F5F5F5F5E2E2E2E2E2E2E2E2E2E2E2E2E2E2E2E2F5F5F5F5F5F5F5F5E2E2E2E2E2E2E2E2E2E2E2E2E2E2E2E2F5F5F5
310
F5F5F5F5F5E2E2E2E2E2E2E2E2E2E2E2E2E2E2E2E2F5F5F5F5F5F5F5F5E2E2E2E2E2E2E2E2E2E2E2E2E2E2E2E2F5F5F5F5F5F5F5F5F5E2E2E2E2E2E2E2E2E2E2E2E2E2E2E2F5F5F5F5F5F5F5F5F5E2E2E2E2E2E2E2E2F5F5F5F5E2E2F5F5F5F5F5F5F5F5F5F5F5F5F5F5F5F5F5F5F5F5F5F5F5F5F5F5F5F5F5F5F5F5F5F5F5
310
F5F5F5F5F5F5F5F5F5F5F5F5F5F5F5F5F5F5F5F5F5F5F5F5F5F5F5F5F5F5F5F5F5F5F5F5F5F5F5F5F5F5F5F5F5F5F5F5F5F5F5F5F5F5F5F5F5F5F5F5F5F5F5F5F5F5F5F5F5F5F5F5F5F5F5F5F5F5F5F5F5F5F5F5F5F5F5F5F5F5F5F5F5F5F5F5F5F5F5F5F5F5F5F5F5F5F5F5F5F5F5F5F5F5F5F5F5F5F5F5F5F5F5F5F5F5F5
310
F5F5F5F5F5F5F5F5F5F5F5F5F5F5F5F5E2E2F5F5F5F5F5F5F5F5F5F5F5F5F5F5F5F5F5F5F5F5F5F5F5F5F5F5F5F5F5F5F5F5F5F5F5F5F5F5F5F5F5F5F5F5F5F5F5F5F5F5F5F5F5F5F5F5F5F5F5F5F5F5F5F5F5F5F5F5F5F5F5F5F5F5F5F5F5F5F5F5F5F5F5F5F5F5F5F5F5F5F5F5F5F5F5F5F5F5F5F5F5F5F5F5F5F5F5F5F5
310
F5F5F5F5F5F5F5F5F5F5F5F5F5F5F5F5F5F5F5F5F5F5F5F5F5F5F5F5F5F5F5F5F5F5F5F5F5F5F5F5F5F5F5F5F5F5F5F5F5F5F5F5F5F5F5F5F5F5F5F5F5F5F5F5F5F5F5F5F5E2E2F5F5F5F5F5F5F5F5F5F5F5F5F5F5F5F5F5F5F5F5F5F5F5F5F5F5F5F5F5F5F5F5F5F5F5F5F5F5F5F5F5F5F5F5F5F5F5F5F5F5F5F5F5F5F5F5
310
F5F5F5F5F5F5F5F5F5F5F5F5F5F5F5F5F5F5F5F5F5F5F5F5F5F5F5F5F5F5F5F5F5F5F5F5F5F5F5F5F5F5F5F5F5F5F5F5F5F5F5F5F5F5F5F5F5F5F5F5F5F5F5F5F5F5F5F5F5F5F5F5F5F5F5F5F5F5F5F5F5F5F5F5F5F5F5F5F5F5F5F5F5F5F5F5F5F5F5F5F5F5F5F5F5F5F5F5F5F5F5F5F5F5F5F5F5F5F5F5F5F5E2E2E2E2E2
310
E2E2E2E2E2E2E2E2E2E2E2E2E2E2E2E2E2E2E2E2E2E2E2E2E2E2E2E2E2E2E2E2E2E2E2E2E2E2E2E2E2E2E2E2E2E2E2E2E2E2E2E2E2E2E2E2E2E2E2E2E2E2E2E2E2E2E2E2E2E2E2E2E2E2E2E2E2E2E2E2E2E2E2E2E2E2E2E2E2E2E2E2E2E2E2E2E2E2E2E2E2E2E2E2E2E2E2E2E2E2E2E2E2E2E2E2E2E2E2E2E2E2E2E2E2E2E2
310
E2E2E2E2E2E2E2E2E2E2E2E2E2E2E2E2E2E2E2E2E2E2E2E2E2E2E2E2E2E2E2E2E2E2E2E2E2E2E2E2E2E2E2E2E2E2E2E2E2
  0
XRECORD
  5
55941
102
{ACAD_REACTORS
330
B5
102
}
330
B5
100
AcDbXrecord
280
     1
102
SHADEPLOT
 70
     0
102
SHADEPLOTRESLEVEL
 70
     2
102
SHADEPLOTCUSTOMDPI
 70
   300
  0
XRECORD
  5
B6
102
{ACAD_REACTORS
330
B5
102
}
330
B5
100
AcDbXrecord
280
     1
310
28000000B40000008B0000000100080000000000BC610000000000000000000000010000000000000000000000000000FFFFFF000000000000000000000000000000000000000000000000000000000000000000330000006600000099000000CC000000FF00000000330000333300006633000099330000CC330000FF3300
310
0000660000336600006666000099660000CC660000FF66000000990000339900006699000099990000CC990000FF99000000CC000033CC000066CC000099CC0000CCCC0000FFCC000000FF000033FF000066FF000099FF0000CCFF0000FFFF000000003300330033006600330099003300CC003300FF003300003333003333
310
33006633330099333300CC333300FF33330000663300336633006666330099663300CC663300FF66330000993300339933006699330099993300CC993300FF99330000CC330033CC330066CC330099CC3300CCCC3300FFCC330000FF330033FF330066FF330099FF3300CCFF3300FFFF330000006600330066006600660099
310
006600CC006600FF00660000336600333366006633660099336600CC336600FF33660000666600336666006666660099666600CC666600FF66660000996600339966006699660099996600CC996600FF99660000CC660033CC660066CC660099CC6600CCCC6600FFCC660000FF660033FF660066FF660099FF6600CCFF6600
310
FFFF660000009900330099006600990099009900CC009900FF00990000339900333399006633990099339900CC339900FF33990000669900336699006666990099669900CC669900FF66990000999900339999006699990099999900CC999900FF99990000CC990033CC990066CC990099CC9900CCCC9900FFCC990000FF99
310
0033FF990066FF990099FF9900CCFF9900FFFF99000000CC003300CC006600CC009900CC00CC00CC00FF00CC000033CC003333CC006633CC009933CC00CC33CC00FF33CC000066CC003366CC006666CC009966CC00CC66CC00FF66CC000099CC003399CC006699CC009999CC00CC99CC00FF99CC0000CCCC0033CCCC0066CC
310
CC0099CCCC00CCCCCC00FFCCCC0000FFCC0033FFCC0066FFCC0099FFCC00CCFFCC00FFFFCC000000FF003300FF006600FF009900FF00CC00FF00FF00FF000033FF003333FF006633FF009933FF00CC33FF00FF33FF000066FF003366FF006666FF009966FF00CC66FF00FF66FF000099FF003399FF006699FF009999FF00CC
310
99FF00FF99FF0000CCFF0033CCFF0066CCFF0099CCFF00CCCCFF00FFCCFF0000FFFF0033FFFF0066FFFF0099FFFF00CCFFFF00FFFFFF00000000000D0D0D001A1A1A00282828003535350043434300505050005D5D5D006B6B6B00787878008686860093939300A1A1A100AEAEAE00BBBBBB00C9C9C900D6D6D600E4E4E400
310
F1F1F100FFFFFF0000000000000000000000000000000000000000000000000000000000000000000000000000000000F5F5F5F5F5F5F5F5F5F5F5F5F5F5F5F5F5F5F5F5F5F5F5F5F5F5F5F5F5F5F5F5F5F5F5F5F5F5F5F5F5F5F5F5F5F5F5F5F5F5F5F5F5F5F5F5F5F5F5F5F5F5F5F5F5F5F5F5F5F5F5F5F5F5F5F5F5F5F5
310
F5F5F5F5F5F5F5F5F5F5F5F5F5F5F5F5F5F5F5F5F5F5F5F5F5F5F5F5F5F5F5F5F5F5F5F5F5F5F5F5F5F5F5F5F5F5F5F5F5F5F5F5F5F5F5F5F5F5F5F5F5F5F5F5F5F5F5F5F5F5F5F5F5F5F5F5F5F5F5F5F5F5F5F5F5F5F5F5F5F5F5F5F5F5F5F5F5F5F5F5F5F5E2E2E2E2E2E2E2E2E2E2E2E2E2E2E2E2E2E2E2E2E2E2E2E2E2
310
E2E2E2E2E2E2E2E2E2E2E2E2E2E2E2E2E2E2E2E2E2E2E2E2E2E2E2E2E2E2E2E2E2E2E2E2E2E2E2E2E2E2E2E2E2E2E2E2E2E2E2E2E2E2E2E2E2E2E2E2E2E2E2E2E2E2E2E2E2E2E2E2E2E2E2E2E2E2E2E2E2E2E2E2E2E2E2E2E2E2E2E2E2E2E2E2E2E2E2E2E2E2E2E2E2E2E2E2E2E2E2E2E2E2E2E2E2E2E2E2E2E2E2E2E2E2E2
310
E2E2E2E2E2E2E2E2E2E2E2E2E2E2E2E2E2E2E2E2E2E2E2E2E2E2F5F5E2E2E2E2E2E2E2E2E2E2E2E2E2E2E2E2E2E2E2E2E2E2E2E2E2E2E2E2E2E2E2E2E2E2E2E2E2E2E2E2E2E2E2E2E2E2E2E2E2E2E2E2E2E2E2E2E2E2E2E2E2E2E2E2E2E2E2E2E2E2E2E2E2E2E2E2E2E2E2E2E2E2E2E2E2E2E2E2E2E2E2E2E2E2E2E2E2E2E2
310
E2E2E2E2E2E2E2E2E2E2E2E2E2E2E2E2E2E2E2E2E2E2E2E2E2E2E2E2E2E2E2E2E2E2E2E2E2E2E2E2E2E2E2E2E2E2E2E2E2E2E2E2E2E2E2E2E2E2E2E2E2E2E2E2E2E2E2E2E2E2E2E2E2E2E2E2E2E2E2F5F5E2E2E2E2E2E2E2E2E2E2E2E2E2E2E2E2E2E2E2E2E2E2E2E2E2E2E2E2E2E2E2E2E2E2E2E2E2E2E2E2E2E2E2E2E2E2
310
E2E2E2E2E2E2E2E2E2E2E2E2E2E2E2E2E2E2E2E2E2E2E2E2E2E2E2E2E2E2E2E2E2E2E2E2E2E2E2E2E2E2E2E2E2E2E2E2E2E2E2E2E2E2E2E2E2E2E2E2E2E2E2E2E2E2E2E2E2E2E2E2E2E2E2E2E2E2E2E2E2E2E2E2E2E2E2E2E2E2E2E2E2E2E2E2E2E2E2E2E2E2E2E2E2E2E2E2E2E2E2E2E2E2E2E2E2E2E2E2E2E2E2E2E2E2E2
310
E2E2E2E2E2F5F5E2E2E2E2E2E2E2E2E2E2E2E2E2E2E2E2E2E2E2E2E2E2E2E2E2E2E2E2E2E2E2E2E2E2E2E2E2E2E2E2E2E2E2E2E2E2E2E2E2E2E2E2E2E2E2E2E2E2E2E2E2E2E2E2E2E2E2E2E2E2E2E2E2E2E2E2E2E2E2E2E2E2E2E2E2E2E2E2E2E2E2E2E2E2E2E2E2E2E2E2E2E2E2E2E2E2E2E2E2E2E2E2E2E2E2E2E2E2E2E2
310
E2E2E2E2E2E2E2E2E2E2E2E2E2E2E2E2E2E2E2E2E2E2E2E2E2E2E2E2E2E2E2E2E2E2E2E2E2E2E2E2E2E2E2E2E2E2E2E2E2E2E2E2E2E2E2E2E2E2F5F5E2E2E2F5F5F5F5F5F5F5F5E2E2E2E2E2E2E2E2E2F5F5F5F5F5F5F5F5F5F5F5F5F5F5F5F5E2E2E2E2E2E2E2E2E2F5F5F5F5F5F5F5F5F5F5F5F5F5F5F5E2E2E2E2E2E2E2
310
E2E2F5F5F5F5F5F5F5F5F5F5F5F5F5F5F5F5E2E2E2E2E2E2E2E2F5F5F5F5F5F5F5F5F5F5F5F5F5F5F5F5E2E2E2E2E2E2E2E2E2F5F5F5F5F5F5F5F5F5F5F5F5F5F5F5E2E2E2E2E2E2E2E2E2F5F5F5F5F5F5F5F5F5F5F5F5F5F5F5F5E2E2E2E2E2E2E2E2E2F5F5F5F5F5F5F5F5E2E2E2F5F5E2E2E2F5E2E2E2E2E2E2E2E2E2E2
310
E2E2E2E2E2E2E2E2E2E2E2E2E2E2E2E2E2E2E2E2E2E2E2E2E2E2E2E2E2E2E2E2E2E2E2E2E2E2E2E2E2E2E2E2E2E2E2E2E2E2E2E2E2E2E2E2E2E2E2E2E2E2E2E2E2E2E2E2E2E2E2E2E2E2E2E2E2E2E2E2E2E2E2E2E2E2E2E2E2E2E2E2E2E2E2E2E2E2E2E2E2E2E2E2E2E2E2E2E2E2E2E2E2E2E2E2E2E2E2E2E2E2E2E2E2E2E2
310
E2E2E2E2E2E2E2E2E2E2E2E2E2E2E2E2E2E2E2E2E2E2E2E2E2E2E2E2E2E2E2E2E2F5E2E2E2F5F5E2E2E2F5E2E2E2E2E2E2E2E2E2E2E2E2E2E2E2E2E2E2E2E2E2E2E2E2E2E2E2E2E2E2E2E2E2E2E2E2E2E2E2E2E2E2E2E2E2E2E2E2E2E2E2E2E2E2E2E2E2E2E2E2E2E2E2E2E2E2E2E2E2E2E2E2E2E2E2E2E2E2E2E2E2E2E2E2
310
E2E2E2E2E2E2E2E2E2E2E2E2E2E2E2E2E2E2E2E2E2E2E2E2E2E2E2E2E2E2E2E2E2E2E2E2E2E2E2E2E2E2E2E2E2E2E2E2E2E2E2E2E2E2E2E2E2E2E2E2E2E2E2E2E2E2E2E2E2E2E2E2E2E2E2E2E2E2E2E2E2E2E2E2E2E2F5E2E2E2F5F5E2E2E2F5E2E2E2E2E2E2E2E2E2E2E2E2E2E2E2E2E2E2E2E2E2E2E2E2E2E2E2E2E2E2E2
310
E2E2E2E2E2E2E2E2E2E2E2E2E2E2E2E2E2E2E2E2E2E2E2E2E2E2E2E2E2E2E2E2E2E2E2E2E2E2E2E2E2E2E2E2E2E2E2E2E2E2E2E2E2E2E2E2E2E2E2E2E2E2E2E2E2E2E2E2E2E2E2E2E2E2E2E2E2E2E2E2E2E2E2E2E2E2E2E2E2E2E2E2E2E2E2E2E2E2E2E2E2E2E2E2E2E2E2E2E2E2E2E2E2E2E2E2E2E2E2E2E2E2E2E2E2E2E2
310
E2E2E2E2E2E2E2E2E2E2E2E2F5E2E2E2F5F5E2E2E2F5E2E2E2E2E2E2E2E2E2E2E2E2E2E2E2E2E2E2E2E2E2E2E2E2E2E2E2E2E2E2E2E2E2E2E2E2E2E2E2E2E2E2E2E2E2E2E2E2E2E2E2E2E2E2E2E2E2E2E2E2E2E2E2E2E2E2E2E2E2E2E2E2E2E2E2E2E2E2E2E2E2E2E2E2E2E2E2E2E2E2E2E2E2E2E2E2E2E2E2E2E2E2E2E2E2
310
E2E2E2E2E2E2E2E2E2E2E2E2E2E2E2E2E2E2E2E2E2E2E2E2E2E2E2E2E2E2E2E2E2E2E2E2E2E2E2E2E2E2E2E2E2E2E2E2E2E2E2E2E2E2E2E2E2E2E2E2E2E2E2E2E2F5E2E2E2F5F5E2E2E2F5E2E2E2E2E2E2E2E2E2E2E2E2E2E2E2E2E2E2E2E2E2E2E2E2E2E2E2E2E2E2E2E2E2E2E2E2E2E2E2E2E2E2E2E2E2E2E2E2E2E2E2E2
310
E2E2E2E2E2E2E2E2E2E2E2E2E2E2E2E2E2E2E2E2E2E2E2E2E2E2E2E2E2E2E2E2E2E2E2E2E2E2E2E2E2E2E2E2E2E2E2E2E2E2E2E2E2E2E2E2E2E2E2E2E2E2E2E2E2E2E2E2E2E2E2E2E2E2E2E2E2E2E2E2E2E2E2E2E2E2E2E2E2E2E2E2E2E2E2E2E2E2E2E2E2E2E2E2E2E2E2E2E2E2E2E2E2E2E2E2E2E2F5E2E2E2F5F5E2E2E2
310
F5E2E2E2E2E2E2E2E2E2E2E2E2E2E2E2E2E2E2E2E2E2E2E2E2E2E2E2E2E2E2E2E2E2E2E2E2E2E2E2E2E2E2E2E2E2E2E2E2E2E2E2E2E2E2E2E2E2E2E2E2E2E2E2E2E2E2E2E2E2E2E2E2E2E2E2E2E2E2E2E2E2E2E2E2E2E2E2E2E2E2E2E2E2E2E2E2E2E2E2E2E2E2E2E2E2E2E2E2E2E2E2E2E2E2E2E2E2E2E2E2E2E2E2E2E2E2
310
E2E2E2E2E2E2E2E2E2E2E2E2E2E2E2E2E2E2E2E2E2E2E2E2E2E2E2E2E2E2E2E2E2E2E2E2E2E2E2E2E2E2E2E2F5E2E2E2F5F5E2E2E2F5E2E2E2E2E2E2E2E2E2E2E2E2E2E2E2E2E2E2E2E2E2E2E2E2E2E2E2E2E2E2E2E2E2E2E2E2E2E2E2E2E2E2E2E2E2E2E2E2E2E2E2E2E2E2E2E2E2E2E2E2E2E2E2E2E2E2E2E2E2E2E2E2E2
310
E2E2E2E2E2E2E2E2E2E2E2E2E2E2E2E2E2E2E2E2E2E2E2E2E2E2E2E2E2E2E2E2E2E2E2E2E2E2E2E2E2E2E2E2E2E2E2E2E2E2E2E2E2E2E2E2E2E2E2E2E2E2E2E2E2E2E2E2E2E2E2E2E2E2E2E2E2E2E2E2E2E2E2E2E2E2E2E2E2E2E2E2E2E2E2E2E2F5E2E2E2F5F5E2E2E2F5E2E2E2E2E2E2E2E2E2E2E2E2E2E2E2E2E2E2E2E2
310
E2E2E2E2E2E2E2E2E2E2E2E2E2E2E2E2E2E2E2E2E2E2E2E2E2E2E2E2E2E2E2E2E2E2E2E2E2E2E2E2E2E2E2E2E2E2E2E2E2E2E2E2E2E2E2E2E2E2E2E2E2E2E2E2E2E2E2E2E2E2E2E2E2E2E2E2E2E2E2E2E2E2E2E2E2E2E2E2E2E2E2E2E2E2E2E2E2E2E2E2E2E2E2E2E2E2E2E2E2E2E2E2E2E2E2E2E2E2E2E2E2E2E2E2E2E2E2
310
E2E2E2E2E2E2E2E2E2E2E2E2E2E2E2E2E2E2E2E2E2E2E2F5E2E2E2F5F5E2E2E2E2E2E2E2E2E2E2E2E2E2E2E2E2E2E2E2E2E2E2E2E2E2E2E2E2E2E2E2E2E2E2E2E2E2E2E2E2E2E2E2E2E2E2E2E2E2E2E2E2E2E2E2E2E2E2E2E2E2E2E2E2E2E2E2E2E2E2E2E2E2E2E2E2E2E2E2E2E2E2E2E2E2E2E2E2E2E2E2E2E2E2E2E2E2E2
310
E2E2E2E2E2E2E2E2E2E2E2E2E2E2E2E2E2E2E2E2E2E2E2E2E2E2E2E2E2E2E2E2E2E2E2E2E2E2E2E2E2E2E2E2E2E2E2E2E2E2E2E2E2E2E2E2E2E2E2E2E2E2E2E2E2E2E2E2E2E2E2E2E2E2E2E2E2E2E2E2F5F5E2E2E2E2E2E2E2E2E2E2E2E2E2E2E2E2E2E2E2E2E2E2E2E2E2E2E2E2E2E2E2E2E2E2E2E2E2E2E2E2E2E2E2E2E2
310
E2E2E2E2E2E2E2E2E2E2E2E2E2E2E2E2E2E2E2E2E2E2E2E2E2E2E2E2E2E2E2E2E2E2E2E2E2E2E2E2E2E2E2E2E2E2E2E2E2E2E2E2E2E2E2E2E2E2E2E2E2E2E2E2E2E2E2E2E2E2E2E2E2E2E2E2E2E2E2E2E2E2E2E2E2E2E2E2E2E2E2E2E2E2E2E2E2E2E2E2E2E2E2E2E2E2E2E2E2E2E2E2E2E2E2E2E2E2E2E2E2E2E2E2E2E2E2
310
E2E2E2E2E2E2F5F5E2E2E2E2E2E2E2E2E2E2E2E2E2E2E2E2E2E2E2E2E2E2E2E2E2E2E2E2E2E2E2E2E2E2E2E2E2E2E2E2E2E2E2E2E2E2E2E2E2E2E2E2E2E2E2E2E2E2E2E2E2E2E2E2E2E2E2E2E2E2E2E2E2E2E2E2E2E2E2E2E2E2E2E2E2E2E2E2E2E2E2E2E2E2E2E2E2E2E2E2E2E2E2E2E2E2E2E2E2E2E2E2E2E2E2E2E2E2E2
310
E2E2E2E2E2E2E2E2E2E2E2E2E2E2E2E2E2E2E2E2E2E2E2E2E2E2E2E2E2E2E2E2E2E2E2E2E2E2E2E2E2E2E2E2E2E2E2E2E2E2E2E2E2E2E2E2E2E2E2F5F5E2E2E2E2E2E2E2E2E2E2E2E2E2E2E2E2E2E2E2E2E2E2E2E2E2E2E2E2E2E2E2E2E2E2E2E2E2E2E2E2E2E2E2E2E2E2E2E2E2E2E2E2E2E2E2E2E2E2E2E2E2E2E2E2E2E2
310
E2E2E2E2E2E2E2E2E2E2E2E2E2E2E2E2E2E2E2E2E2E2E2E2E2E2E2E2E2E2E2E2E2E2E2E2E2E2E2E2E2E2E2E2E2E2E2E2E2E2E2E2E2E2E2E2E2E2E2E2E2E2E2E2E2E2E2E2E2E2E2E2E2E2E2E2E2E2E2E2E2E2E2E2E2E2E2E2E2E2E2E2E2E2E2E2E2E2E2E2E2E2E2E2E2E2E2E2E2E2E2E2F5F5E2E2E2E2E2E2E2E2E2E2E2E2E2
310
E2E2E2E2E2E2E2F5F5F5F5F5F5F5F5F5F5F5F5F5F5F5F5F5F5F5F5F5F5F5F5F5F5F5F5F5F5F5F5F5F5F5F5F5F5F5F5F5F5F5F5F5F5F5F5F5F5F5F5F5F5F5F5F5F5F5F5F5F5F5F5F5F5F5F5F5F5F5F5F5F5F5F5F5F5F5F5F5F5F5F5F5F5F5F5F5F5F5F5F5F5F5F5F5F5F5F5F5F5F5F5F5F5F5F5F5F5F5F5F5F5F5F5F5F5F5F5
310
F5F5F5F5F5F5F5F5F5F5F5F5F5F5F5F5F5F5E2E2E2E2E2E2E2E2E2E2E2E2E2E2E2E2E2E2E2E2F5F5E2E2E2E2E2E2E2E2E2E2E2E2E2E2E2E2E2E2E2E2F5E2E2E2E2E2E2E2E2E2E2E2E2E2E2E2E2E2E2E2E2E2E2E2E2E2E2E2E2E2E2E2E2E2E2E2E2E2E2E2E2E2E2E2E2E2E2E2E2E2E2E2E2E2E2E2E2E2E2E2E2E2E2E2E2E2E2
310
E2E2E2E2E2E2E2E2E2E2E2E2E2E2E2E2E2E2E2E2E2E2E2E2E2E2E2E2E2E2E2E2E2E2E2E2E2E2E2E2E2E2E2E2E2E2E2E2E2E2E2E2E2E2E2E2E2E2E2E2E2E2E2E2E2E2E2E2E2E2F5E2E2E2E2E2E2E2E2E2E2E2E2E2E2E2E2E2E2E2E2F5F5E2E2E2E2E2E2E2E2E2E2E2E2E2E2E2E2E2E2E2E2F5E2E2E2E2E2E2E2E2E2E2E2E2E2
310
E2E2E2E2E2E2E2E2E2E2E2E2E2E2E2E2E2E2E2E2E2E2E2E2E2E2E2E2E2E2E2E2E2E2E2E2E2E2E2E2E2E2E2E2E2E2E2E2E2E2E2E2E2E2E2E2E2E2E2E2E2E2E2E2E2E2E2E2E2E2E2E2E2E2E2E2E2E2E2E2E2E2E2E2E2E2E2E2E2E2E2E2E2E2E2E2E2E2E2E2E2E2E2E2E2E2E2E2E2E2E2E2E2E2E2E2E2E2E2E2E2E2E2F5E2E2E2
310
E2E2E2E2E2E2E2E2E2E2E2E2E2E2E2E2E2F5F5E2E2E2E2E2E2E2E2E2E2E2E2E2E2E2E2E2E2E2E2F5E2E2E2E2E2E2E2E2E2E2E2E2E2E2E2E2E2E2E2E2E2E2E2E2E2E2E2E2E2E2E2E2E2E2E2E2E2E2E2E2E2E2E2E2E2E2E2E2E2E2E2E2E2E2E2E2E2E2E2E2E2E2E2E2E2E2E2E2E2E2E2E2E2E2E2E2E2E2E2E2E2E2E2E2E2E2E2
310
E2E2E2E2E2E2E2E2E2E2E2E2E2E2E2E2E2E2E2E2E2E2E2E2E2E2E2E2E2E2E2E2E2E2E2E2E2E2E2E2E2E2E2E2E2E2E2E2E2F5E2E2E2E2E2E2E2E2E2E2E2E2E2E2E2E2E2E2E2E2F5F5E2E2E2E2E2E2E2E2E2E2E2E2E2E2E2E2E2E2E2E2F5E2E2E2E2E2E2E2E2E2E2E2E2E2E2E2E2E2E2E2E2E2E2E2E2E2E2E2E2E2E2E2E2E2E2
310
E2E2E2E2E2E2E2E2E2E2E2E2E2E2E2E2E2E2E2E2E2E2E2E2E2E2E2E2E2E2E2E2E2E2E2E2E2E2E2E2E2E2E2E2E2E2E2E2E2E2E2E2E2E2E2E2E2E2E2E2E2E2E2E2E2E2E2E2E2E2E2E2E2E2E2E2E2E2E2E2E2E2E2E2E2E2E2E2E2E2E2E2E2E2E2E2E2E2E2E2E2E2F5E2E2E2E2E2E2E2E2E2E2E2E2E2E2E2E2E2E2E2E2F5F5E2E2
310
E2F5E2E2E2E2E2E2E2E2E2E2E2E2E2E2E2E2F5E2E2E2E2E2E2E2E2E2E2E2E2E2E2E2E2E2E2E2E2E2E2E2E2E2E2E2E2E2E2E2E2E2E2E2E2E2E2E2E2E2E2E2E2E2E2E2E2E2E2E2E2E2E2E2E2E2E2E2E2E2E2E2E2E2E2E2E2E2E2E2E2E2E2E2E2E2E2E2E2E2E2E2E2E2E2E2E2E2E2E2E2E2E2E2E2E2E2E2E2E2E2E2E2E2E2E2E2
310
E2E2E2E2E2E2E2E2E2E2E2E2E2E2E2E2E2E2E2E2E2E2E2E2E2E2E2E2F5E2E2E2E2E2E2E2E2E2E2E2E2E2E2E2E2F5E2E2E2F5F5E2E2E2F5E2E2E2E2E2E2E2E2E2E2E2E2E2E2E2E2F5E2E2E2E2E2E2E2E2E2E2E2E2E2E2E2E2E2E2E2E2E2E2E2E2E2E2E2E2E2E2E2E2E2E2E2E2E2E2E2E2E2E2E2E2E2E2E2E2E2E2E2E2E2E2E2
310
E2E2E2E2E2E2E2E2E2E2E2E2E2E2E2E2E2E2E2E2E2E2E2E2E2E2E2E2E2E2E2E2E2E2E2E2E2E2E2E2E2E2E2E2E2E2E2E2E2E2E2E2E2E2E2E2E2E2E2E2E2E2E2E2E2E2E2E2E2E2E2E2E2E2E2E2E2E2E2E2E2F5E2E2E2E2E2E2E2E2E2E2E2E2E2E2E2E2F5E2E2E2F5F5E2E2E2F5E2E2E2E2E2E2E2E2E2E2E2E2E2E2E2E2F5E2E2
310
E2E2E2E2E2E2E2E2E2E2E2E2E2E2E2E2E2E2E2E2E2E2E2E2E2E2E2E2E2E2E2E2E2E2E2E2E2E2E2E2E2E2E2E2E2E2E2E2E2E2E2E2E2E2E2E2E2E2E2E2E2E2E2E2E2E2E2E2E2E2E2E2E2E2E2E2E2E2E2E2E2E2E2E2E2E2E2E2E2E2E2E2E2E2E2E2E2E2E2E2E2E2E2E2E2E2E2E2E2E2E2E2E2E2E2E2E2E2E2E2E2E2E2E2E2E2E2
310
E2E2E2E2E2E2E2F5E2E2E2E2E2E2E2E2E2E2E2E2E2E2E2E2F5E2E2E2F5F5E2E2E2F5E2E2E2E2E2E2E2E2E2E2E2E2E2E2E2E2F5E2E2E2E2E2E2E2E2E2E2E2E2E2E2E2E2E2E2E2E2E2E2E2E2E2E2E2E2E2E2E2E2E2E2E2E2E2E2E2E2E2E2E2E2E2E2E2E2E2E2E2E2E2E2E2E2E2E2E2E2E2E2E2E2E2E2E2E2E2E2E2E2E2E2E2E2
310
E2E2E2E2E2E2E2E2E2E2E2E2E2E2E2E2E2E2E2E2E2E2E2E2E2E2E2E2E2E2E2E2E2E2E2E2E2E2E2E2E2E2E2E2E2E2E2E2E2E2E2E2E2E2E2E2E2E2E2E2F5E2E2E2E2E2E2E2E2E2E2E2E2E2E2E2E2F5E2E2E2F5F5E2E2E2F5E2E2E2E2E2E2E2E2E2E2E2E2E2E2E2E2F5E2E2E2E2E2E2E2E2E2E2E2E2E2E2E2E2E2E2E2E2E2E2E2
310
E2E2E2E2E2E2E2E2E2E2E2E2E2E2E2E2E2E2E2E2E2E2E2E2E2E2E2E2E2E2E2E2E2E2E2E2E2E2E2E2E2E2E2E2E2E2E2E2E2E2E2E2E2E2E2E2E2E2E2E2E2E2E2E2E2E2E2E2E2E2E2E2E2E2E2E2E2E2E2E2E2E2E2E2E2E2E2E2E2E2E2E2E2E2E2E2E2E2E2E2E2E2E2E2E2E2E2E2E2E2E2E2E2F5E2E2E2E2E2E2E2E2E2E2E2E2E2
310
E2E2E2F5E2E2E2F5F5E2E2E2F5E2E2E2E2E2E2E2E2E2E2E2E2E2E2E2E2F5E2E2E2E2E2E2E2E2E2E2E2E2E2E2E2E2E2E2E2E2E2E2E2E2E2E2E2E2E2E2E2E2E2E2E2E2E2E2E2E2E2E2E2E2E2E2E2E2E2E2E2E2E2E2E2E2E2E2E2E2E2E2E2E2E2E2E2E2E2E2E2E2E2E2E2E2E2E2E2E2E2E2E2E2E2E2E2E2E2E2E2E2E2E2E2E2E2
310
E2E2E2E2E2E2E2E2E2E2E2E2E2E2E2E2E2E2E2E2E2E2E2E2E2E2E2E2E2E2E2E2E2E2E2E2E2E2E2F5E2E2E2E2E2E2E2E2E2E2E2E2E2E2E2E2F5E2E2E2F5F5E2E2E2F5E2E2E2E2E2E2E2E2E2E2E2E2E2E2E2E2F5E2E2E2E2E2E2E2E2E2E2E2E2E2E2E2E2E2E2E2E2E2E2E2E2E2E2E2E2E2E2E2E2E2E2E2E2E2E2E2E2E2E2E2E2
310
E2E2E2E2E2E2E2E2E2E2E2E2E2E2E2E2E2E2E2E2E2E2E2E2E2E2E2E2E2E2E2E2E2E2E2E2E2E2E2E2E2E2E2E2E2E2E2E2E2E2E2E2E2E2E2E2E2E2E2E2E2E2E2E2E2E2E2E2E2E2E2E2E2E2E2E2E2E2E2E2E2E2E2E2E2E2E2E2E2E2E2E2F5E2E2E2E2E2E2E2E2E2E2E2E2E2E2E2E2F5E2E2E2F5F5E2E2E2F5E2E2E2E2E2E2E2E2
310
E2E2E2E2E2E2E2E2F5E2E2E2E2E2E2E2E2E2E2E2E2E2E2E2E2E2E2E2E2E2E2E2E2E2E2E2E2E2E2E2E2E2E2E2E2E2E2E2E2E2E2E2E2E2E2E2E2E2E2E2E2E2E2E2E2E2E2E2E2E2E2E2E2E2E2E2E2E2E2E2E2E2E2E2E2E2E2E2E2E2E2E2E2E2E2E2E2E2E2E2E2E2E2E2E2E2E2E2E2E2E2E2E2E2E2E2E2E2E2E2E2E2E2E2E2E2E2
310
E2E2E2E2E2E2E2E2E2E2E2E2E2E2E2E2E2E2F5E2E2E2E2E2E2E2E2E2E2E2E2E2E2E2E2F5E2E2E2F5F5E2E2E2F5E2E2E2E2E2E2E2E2E2E2E2E2E2E2E2E2F5E2E2E2E2E2E2E2E2E2E2E2E2E2E2E2E2E2E2E2E2E2E2E2E2E2E2E2E2E2E2E2E2E2E2E2E2E2E2E2E2E2E2E2E2E2E2E2E2E2E2E2E2E2E2E2E2E2E2E2E2E2E2E2E2E2
310
E2E2E2E2E2E2E2E2E2E2E2E2E2E2E2E2E2E2E2E2E2E2E2E2E2E2E2E2E2E2E2E2E2E2E2E2E2E2E2E2E2E2E2E2E2E2E2E2E2E2E2E2E2E2E2E2E2E2E2E2E2E2E2E2E2E2E2E2E2E2E2F5E2E2E2E2E2E2E2E2E2E2E2E2E2E2E2E2F5E2E2E2F5F5E2E2E2F5E2E2E2E2E2E2E2E2E2E2E2E2E2E2E2E2F5E2E2E2E2E2E2E2E2E2E2E2E2
310
E2E2E2E2E2E2E2E2E2E2E2E2E2E2E2E2E2E2E2E2E2E2E2E2E2E2E2E2E2E2E2E2E2E2E2E2E2E2E2E2E2E2E2E2E2E2E2E2E2E2E2E2E2E2E2E2E2E2E2E2E2E2E2E2E2E2E2E2E2E2E2E2E2E2E2E2E2E2E2E2E2E2E2E2E2E2E2E2E2E2E2E2E2E2E2E2E2E2E2E2E2E2E2E2E2E2E2E2E2E2E2E2E2E2E2E2E2E2E2E2E2E2E2E2F5E2E2
310
E2E2E2E2E2E2E2E2E2E2E2E2E2E2F5E2E2E2F5F5E2E2E2F5E2E2E2E2E2E2E2E2E2E2E2E2E2E2E2E2F5E2E2E2E2E2E2E2E2E2E2E2E2E2E2E2E2E2E2E2E2E2E2E2E2E2E2E2E2E2E2E2E2E2E2E2E2E2E2E2E2E2E2E2E2E2E2E2E2E2E2E2E2E2E2E2E2E2E2E2E2E2E2E2E2E2E2E2E2E2E2E2E2E2E2E2E2E2E2E2E2E2E2E2E2E2E2
310
E2E2E2E2E2E2E2E2E2E2E2E2E2E2E2E2E2E2E2E2E2E2E2E2E2E2E2E2E2E2E2E2E2E2E2E2E2E2E2E2E2E2E2E2E2E2E2E2E2E2F5E2E2E2E2E2E2E2E2E2E2E2E2E2E2E2E2F5E2E2E2F5F5E2E2E2F5E2E2E2E2E2E2E2E2E2E2E2E2E2E2E2E2F5E2E2E2E2E2E2E2E2E2E2E2E2E2E2E2E2E2E2E2E2E2E2E2E2E2E2E2E2E2E2E2E2E2
310
E2E2E2E2E2E2E2E2E2E2E2E2E2E2E2E2E2E2E2E2E2E2E2E2E2E2E2E2E2E2E2E2E2E2E2E2E2E2E2E2E2E2E2E2E2E2E2E2E2E2E2E2E2E2E2E2E2E2E2E2E2E2E2E2E2E2E2E2E2E2E2E2E2E2E2E2E2E2E2E2E2E2E2E2E2E2E2E2E2E2E2E2E2E2E2E2E2E2E2E2E2E2E2F5E2E2E2E2E2E2E2E2E2E2E2E2E2E2E2E2F5E2E2E2F5F5E2
310
E2E2F5E2E2E2E2E2E2E2E2E2E2E2E2E2E2E2E2F5E2E2E2E2E2E2E2E2E2E2E2E2E2E2E2E2E2E2E2E2E2E2E2E2E2E2E2E2E2E2E2E2E2E2E2E2E2E2E2E2E2E2E2E2E2E2E2E2E2E2E2E2E2E2E2E2E2E2E2E2E2E2E2E2E2E2E2E2E2E2E2E2E2E2E2E2E2E2E2E2E2E2E2E2E2E2E2E2E2E2E2E2E2E2E2E2E2E2E2E2E2E2E2E2E2E2E2
310
E2E2E2E2E2E2E2E2E2E2E2E2E2E2E2E2E2E2E2E2E2E2E2E2E2E2E2E2E2F5E2E2E2E2E2E2E2E2E2E2E2E2E2E2E2E2F5E2E2E2F5F5E2E2E2F5E2E2E2E2E2E2E2E2E2E2E2E2E2E2E2E2F5E2E2E2E2E2E2E2E2E2E2E2E2E2E2E2E2E2E2E2E2E2E2E2E2E2E2E2E2E2E2E2E2E2E2E2E2E2E2E2E2E2E2E2E2E2E2E2E2E2E2E2E2E2E2
310
E2E2E2E2E2E2E2E2E2E2E2E2E2E2E2E2E2E2E2E2E2E2E2E2E2E2E2E2E2E2E2E2E2E2E2E2E2E2E2E2E2E2E2E2E2E2E2E2E2E2E2E2E2E2E2E2E2E2E2E2E2E2E2E2E2E2E2E2E2E2E2E2E2E2E2E2E2E2E2E2E2E2F5E2E2E2E2E2E2E2E2E2E2E2E2E2E2E2E2F5E2E2E2F5F5E2E2E2F5E2E2E2E2E2E2E2E2E2E2E2E2E2E2E2E2F5E2
310
E2E2E2E2E2E2E2E2E2E2E2E2E2E2E2E2E2E2E2E2E2E2E2E2E2E2E2E2E2E2E2E2E2E2E2E2E2E2E2E2E2E2E2E2E2E2E2E2E2E2E2E2E2E2E2E2E2E2E2E2E2E2E2E2E2E2E2E2E2E2E2E2E2E2E2E2E2E2E2E2E2E2E2E2E2E2E2E2E2E2E2E2E2E2E2E2E2E2E2E2E2E2E2E2E2E2E2E2E2E2E2E2E2E2E2E2E2E2E2E2E2E2E2E2E2E2E2
310
E2E2E2E2E2E2E2E2F5E2E2E2E2E2E2E2E2E2E2E2E2E2E2E2E2F5E2E2E2F5F5E2E2E2F5E2E2E2E2E2E2E2E2E2E2E2E2E2E2E2E2F5E2E2E2E2E2E2E2E2E2E2E2E2E2E2E2E2E2E2E2E2E2E2E2E2E2E2E2E2E2E2E2E2E2E2E2E2E2E2E2E2E2E2E2E2E2E2E2E2E2E2E2E2E2E2E2E2E2E2E2E2E2E2E2E2E2E2E2E2E2E2E2E2E2E2E2
310
E2E2E2E2E2E2E2E2E2E2E2E2E2E2E2E2E2E2E2E2E2E2E2E2E2E2E2E2E2E2E2E2E2E2E2E2E2E2E2E2E2E2E2E2E2E2E2E2E2E2E2E2E2E2E2E2E2E2E2E2E2F5E2E2E2E2E2E2E2E2E2E2E2E2E2E2E2E2F5E2E2E2F5F5E2E2E2F5E2E2E2E2E2E2E2E2E2E2E2E2E2E2E2E2F5E2E2E2E2E2E2E2E2E2E2E2E2E2E2E2E2E2E2E2E2E2E2
310
E2E2E2E2E2E2E2E2E2E2E2E2E2E2E2E2E2E2E2E2E2E2E2E2E2E2E2E2E2E2E2E2E2E2E2E2E2E2E2E2E2E2E2E2E2E2E2E2E2E2E2E2E2E2E2E2E2E2E2E2E2E2E2E2E2E2E2E2E2E2E2E2E2E2E2E2E2E2E2E2E2E2E2E2E2E2E2E2E2E2E2E2E2E2E2E2E2E2E2E2E2E2E2E2E2E2E2E2E2E2E2E2E2E2F5E2E2E2E2E2E2E2E2E2E2E2E2
310
E2E2E2E2F5E2E2E2F5F5E2E2E2E2E2E2E2E2E2E2E2E2E2E2E2E2E2E2E2E2F5E2E2E2E2E2E2E2E2E2E2E2E2E2E2E2E2E2E2E2E2E2E2E2E2E2E2E2E2E2E2E2E2E2E2E2E2E2E2E2E2E2E2E2E2E2E2E2E2E2E2E2E2E2E2E2E2E2E2E2E2E2E2E2E2E2E2E2E2E2E2E2E2E2E2E2E2E2E2E2E2E2E2E2E2E2E2E2E2E2E2E2E2E2E2E2E2
310
E2E2E2E2E2E2E2E2E2E2E2E2E2E2E2E2E2E2E2E2E2E2E2E2E2E2E2E2E2E2E2E2E2E2E2E2E2E2E2E2F5E2E2E2E2E2E2E2E2E2E2E2E2E2E2E2E2E2E2E2E2F5F5E2E2E2E2E2E2E2E2E2E2E2E2E2E2E2E2E2E2E2E2F5E2E2E2E2E2E2E2E2E2E2E2E2E2E2E2E2E2E2E2E2E2E2E2E2E2E2E2E2E2E2E2E2E2E2E2E2E2E2E2E2E2E2E2
310
E2E2E2E2E2E2E2E2E2E2E2E2E2E2E2E2E2E2E2E2E2E2E2E2E2E2E2E2E2E2E2E2E2E2E2E2E2E2E2E2E2E2E2E2E2E2E2E2E2E2E2E2E2E2E2E2E2E2E2E2E2E2E2E2E2E2E2E2E2E2E2E2E2E2E2E2E2E2E2E2E2E2E2E2E2E2E2E2E2E2E2E2E2F5E2E2E2E2E2E2E2E2E2E2E2E2E2E2E2E2E2E2E2E2F5F5E2E2E2E2E2E2E2E2E2E2E2
310
E2E2E2E2E2E2E2E2E2F5E2E2E2E2E2E2E2E2E2E2E2E2E2E2E2E2E2E2E2E2E2E2E2E2E2E2E2E2E2E2E2E2E2E2E2E2E2E2E2E2E2E2E2E2E2E2E2E2E2E2E2E2E2E2E2E2E2E2E2E2E2E2E2E2E2E2E2E2E2E2E2E2E2E2E2E2E2E2E2E2E2E2E2E2E2E2E2E2E2E2E2E2E2E2E2E2E2E2E2E2E2E2E2E2E2E2E2E2E2E2E2E2E2E2E2E2E2
310
E2E2E2E2E2E2E2E2E2E2E2E2E2E2E2E2E2E2E2F5E2E2E2E2E2E2E2E2E2E2E2E2E2E2E2E2E2E2E2E2F5F5E2E2E2E2E2E2E2E2E2E2E2E2E2E2E2E2E2E2E2E2F5E2E2E2E2E2E2E2E2E2E2E2E2E2E2E2E2E2E2E2E2E2E2E2E2E2E2E2E2E2E2E2E2E2E2E2E2E2E2E2E2E2E2E2E2E2E2E2E2E2E2E2E2E2E2E2E2E2E2E2E2E2E2E2E2
310
E2E2E2E2E2E2E2E2E2E2E2E2E2E2E2E2E2E2E2E2E2E2E2E2E2E2E2E2E2E2E2E2E2E2E2E2E2E2E2E2E2E2E2E2E2E2E2E2E2E2E2E2E2E2E2E2E2E2E2E2E2E2E2E2E2E2E2E2E2E2E2E2F5E2E2E2E2E2E2E2E2E2E2E2E2E2E2E2E2E2E2E2E2F5F5E2E2E2E2E2E2E2E2E2E2E2E2E2E2E2E2E2E2E2E2F5E2E2E2E2E2E2E2E2E2E2E2
310
E2E2E2E2E2E2E2E2E2E2E2E2E2E2E2E2E2E2E2E2E2E2E2E2E2E2E2E2E2E2E2E2E2E2E2E2E2E2E2E2E2E2E2E2E2E2E2E2E2E2E2E2E2E2E2E2E2E2E2E2E2E2E2E2E2E2E2E2E2E2E2E2E2E2E2E2E2E2E2E2E2E2E2E2E2E2E2E2E2E2E2E2E2E2E2E2E2E2E2E2E2E2E2E2E2E2E2E2E2E2E2E2E2E2E2E2E2E2E2E2E2E2E2E2E2F5E2
310
E2E2E2E2E2E2E2E2E2E2E2E2E2E2E2E2E2E2E2F5F5E2E2E2E2E2E2E2E2E2E2E2E2E2E2E2E2E2E2E2E2F5E2E2E2E2E2E2E2E2E2E2E2E2E2E2E2E2E2E2E2E2E2E2E2E2E2E2E2E2E2E2E2E2E2E2E2E2E2E2E2E2E2E2E2E2E2E2E2E2E2E2E2E2E2E2E2E2E2E2E2E2E2E2E2E2E2E2E2E2E2E2E2E2E2E2E2E2E2E2E2E2E2E2E2E2E2
310
E2E2E2E2E2E2E2E2E2E2E2E2E2E2E2E2E2E2E2E2E2E2E2E2E2E2E2E2E2E2E2E2E2E2E2E2E2E2E2E2E2E2E2E2E2E2E2E2E2E2E2F5E2E2E2E2E2E2E2E2E2E2E2E2E2E2E2E2E2E2E2E2F5F5E2E2E2E2E2E2E2E2E2E2E2E2E2E2E2E2E2E2E2E2F5E2E2E2E2E2E2E2E2E2E2E2E2E2E2E2E2E2E2E2E2E2E2E2E2E2E2E2E2E2E2E2E2
310
E2E2E2E2E2E2E2E2E2E2E2E2E2E2E2E2E2E2E2E2E2E2E2E2E2E2E2E2E2E2E2E2E2E2E2E2E2E2E2E2E2E2E2E2E2E2E2E2E2E2E2E2E2E2E2E2E2E2E2E2E2E2E2E2E2E2E2E2E2E2E2E2E2E2E2E2E2E2E2E2E2E2E2E2E2E2E2E2E2E2E2E2E2E2E2E2E2E2E2E2E2E2E2E2F5E2E2E2E2E2E2E2E2E2E2E2E2E2E2E2E2E2E2E2E2F5F5
310
E2E2E2E2E2E2E2E2E2E2E2E2E2E2E2E2E2E2E2E2F5E2E2E2E2E2E2E2E2E2E2E2E2E2E2E2E2E2E2E2E2E2E2E2E2E2E2E2E2E2E2E2E2E2E2E2E2E2E2E2E2E2E2E2E2E2E2E2E2E2E2E2E2E2E2E2E2E2E2E2E2E2E2E2E2E2E2E2E2E2E2E2E2E2E2E2E2E2E2E2E2E2E2E2E2E2E2E2E2E2E2E2E2E2E2E2E2E2E2E2E2E2E2E2E2E2E2
310
E2E2E2E2E2E2E2E2E2E2E2E2E2E2E2E2E2E2E2E2E2E2E2E2E2E2E2E2E2E2F5E2E2E2E2E2E2E2E2E2E2E2E2E2E2E2E2E2E2E2E2F5F5E2E2E2E2E2E2E2E2E2E2E2E2E2E2E2E2E2E2E2E2F5E2E2E2E2E2E2E2E2E2E2E2E2E2E2E2E2E2E2E2E2E2E2E2E2E2E2E2E2E2E2E2E2E2E2E2E2E2E2E2E2E2E2E2E2E2E2E2E2E2E2E2E2E2
310
E2E2E2E2E2E2E2E2E2E2E2E2E2E2E2E2E2E2E2E2E2E2E2E2E2E2E2E2E2E2E2E2E2E2E2E2E2E2E2E2E2E2E2E2E2E2E2E2E2E2E2E2E2E2E2E2E2E2E2E2E2E2E2E2E2E2E2E2E2E2E2E2E2E2E2E2E2E2E2E2E2E2E2F5E2E2E2E2E2E2E2E2E2E2E2E2E2E2E2E2E2E2E2E2F5F5E2E2E2F5E2E2E2E2E2E2E2E2E2E2E2E2E2E2E2E2F5
310
E2E2E2E2E2E2E2E2E2E2E2E2E2E2E2E2E2E2E2E2E2E2E2E2E2E2E2E2E2E2E2E2E2E2E2E2E2E2E2E2E2E2E2E2E2E2E2E2E2E2E2E2E2E2E2E2E2E2E2E2E2E2E2E2E2E2E2E2E2E2E2E2E2E2E2E2E2E2E2E2E2E2E2E2E2E2E2E2E2E2E2E2E2E2E2E2E2E2E2E2E2E2E2E2E2E2E2E2E2E2E2E2E2E2E2E2E2E2E2E2E2E2E2E2E2E2E2
310
E2E2E2E2E2E2E2E2E2F5E2E2E2E2E2E2E2E2E2E2E2E2E2E2E2E2F5E2E2E2F5F5E2E2E2F5E2E2E2E2E2E2E2E2E2E2E2E2E2E2E2E2F5E2E2E2E2E2E2E2E2E2E2E2E2E2E2E2E2E2E2E2E2E2E2E2E2E2E2E2E2E2E2E2E2E2E2E2E2E2E2E2E2E2E2E2E2E2E2E2E2E2E2E2E2E2E2E2E2E2E2E2E2E2E2E2E2E2E2E2E2E2E2E2E2E2E2
310
E2E2E2E2E2E2E2E2E2E2E2E2E2E2E2E2E2E2E2E2E2E2E2E2E2E2E2E2E2E2E2E2E2E2E2E2E2E2E2E2E2E2E2E2E2E2E2E2E2E2E2E2E2E2E2E2E2E2E2E2E2E2F5E2E2E2E2E2E2E2E2E2E2E2E2E2E2E2E2F5E2E2E2F5F5E2E2E2F5E2E2E2E2E2E2E2E2E2E2E2E2E2E2E2E2F5E2E2E2E2E2E2E2E2E2E2E2E2E2E2E2E2E2E2E2E2E2
310
E2E2E2E2E2E2E2E2E2E2E2E2E2E2E2E2E2E2E2E2E2E2E2E2E2E2E2E2E2E2E2E2E2E2E2E2E2E2E2E2E2E2E2E2E2E2E2E2E2E2E2E2E2E2E2E2E2E2E2E2E2E2E2E2E2E2E2E2E2E2E2E2E2E2E2E2E2E2E2E2E2E2E2E2E2E2E2E2E2E2E2E2E2E2E2E2E2E2E2E2E2E2E2E2E2E2E2E2E2E2E2E2E2E2E2F5E2E2E2E2E2E2E2E2E2E2E2
310
E2E2E2E2E2F5E2E2E2F5F5E2E2E2F5E2E2E2E2E2E2E2E2E2E2E2E2E2E2E2E2F5E2E2E2E2E2E2E2E2E2E2E2E2E2E2E2E2E2E2E2E2E2E2E2E2E2E2E2E2E2E2E2E2E2E2E2E2E2E2E2E2E2E2E2E2E2E2E2E2E2E2E2E2E2E2E2E2E2E2E2E2E2E2E2E2E2E2E2E2E2E2E2E2E2E2E2E2E2E2E2E2E2E2E2E2E2E2E2E2E2E2E2E2E2E2E2
310
E2E2E2E2E2E2E2E2E2E2E2E2E2E2E2E2E2E2E2E2E2E2E2E2E2E2E2E2E2E2E2E2E2E2E2E2E2E2E2E2E2F5E2E2E2E2E2E2E2E2E2E2E2E2E2E2E2E2F5E2E2E2F5F5E2E2E2F5E2E2E2E2E2E2E2E2E2E2E2E2E2E2E2E2F5E2E2E2E2E2E2E2E2E2E2E2E2E2E2E2E2E2E2E2E2E2E2E2E2E2E2E2E2E2E2E2E2E2E2E2E2E2E2E2E2E2E2
310
E2E2E2E2E2E2E2E2E2E2E2E2E2E2E2E2E2E2E2E2E2E2E2E2E2E2E2E2E2E2E2E2E2E2E2E2E2E2E2E2E2E2E2E2E2E2E2E2E2E2E2E2E2E2E2E2E2E2E2E2E2E2E2E2E2E2E2E2E2E2E2E2E2E2E2E2E2E2E2E2E2E2E2E2E2E2E2E2E2E2E2E2E2E2F5E2E2E2E2E2E2E2E2E2E2E2E2E2E2E2E2F5E2E2E2F5F5E2E2E2F5E2E2E2E2E2E2
310
E2E2E2E2E2E2E2E2E2E2F5E2E2E2E2E2E2E2E2E2E2E2E2E2E2E2E2E2E2E2E2E2E2E2E2E2E2E2E2E2E2E2E2E2E2E2E2E2E2E2E2E2E2E2E2E2E2E2E2E2E2E2E2E2E2E2E2E2E2E2E2E2E2E2E2E2E2E2E2E2E2E2E2E2E2E2E2E2E2E2E2E2E2E2E2E2E2E2E2E2E2E2E2E2E2E2E2E2E2E2E2E2E2E2E2E2E2E2E2E2E2E2E2E2E2E2E2
310
E2E2E2E2E2E2E2E2E2E2E2E2E2E2E2E2E2E2E2E2F5E2E2E2E2E2E2E2E2E2E2E2E2E2E2E2E2F5E2E2E2F5F5E2E2E2F5E2E2E2E2E2E2E2E2E2E2E2E2E2E2E2E2F5E2E2E2E2E2E2E2E2E2E2E2E2E2E2E2E2E2E2E2E2E2E2E2E2E2E2E2E2E2E2E2E2E2E2E2E2E2E2E2E2E2E2E2E2E2E2E2E2E2E2E2E2E2E2E2E2E2E2E2E2E2E2E2
310
E2E2E2E2E2E2E2E2E2E2E2E2E2E2E2E2E2E2E2E2E2E2E2E2E2E2E2E2E2E2E2E2E2E2E2E2E2E2E2E2E2E2E2E2E2E2E2E2E2E2E2E2E2E2E2E2E2E2E2E2E2E2E2E2E2E2E2E2E2E2E2E2E2F5E2E2E2E2E2E2E2E2E2E2E2E2E2E2E2E2F5E2E2E2F5F5E2E2E2F5E2E2E2E2E2E2E2E2E2E2E2E2E2E2E2E2F5E2E2E2E2E2E2E2E2E2E2
310
E2E2E2E2E2E2E2E2E2E2E2E2E2E2E2E2E2E2E2E2E2E2E2E2E2E2E2E2E2E2E2E2E2E2E2E2E2E2E2E2E2E2E2E2E2E2E2E2E2E2E2E2E2E2E2E2E2E2E2E2E2E2E2E2E2E2E2E2E2E2E2E2E2E2E2E2E2E2E2E2E2E2E2E2E2E2E2E2E2E2E2E2E2E2E2E2E2E2E2E2E2E2E2E2E2E2E2E2E2E2E2E2E2E2E2E2E2E2E2E2E2E2E2E2E2E2F5
310
E2E2E2E2E2E2E2E2E2E2E2E2E2E2E2E2F5E2E2E2F5F5E2E2E2F5E2E2E2E2E2E2E2E2E2E2E2E2E2E2E2E2F5E2E2E2E2E2E2E2E2E2E2E2E2E2E2E2E2E2E2E2E2E2E2E2E2E2E2E2E2E2E2E2E2E2E2E2E2E2E2E2E2E2E2E2E2E2E2E2E2E2E2E2E2E2E2E2E2E2E2E2E2E2E2E2E2E2E2E2E2E2E2E2E2E2E2E2E2E2E2E2E2E2E2E2E2
310
E2E2E2E2E2E2E2E2E2E2E2E2E2E2E2E2E2E2E2E2E2E2E2E2E2E2E2E2E2E2E2E2E2E2E2E2E2E2E2E2E2E2E2E2E2E2E2E2E2E2E2E2F5E2E2E2E2E2E2E2E2E2E2E2E2E2E2E2E2F5E2E2E2F5F5E2E2E2F5E2E2E2E2E2E2E2E2E2E2E2E2E2E2E2E2F5E2E2E2E2E2E2E2E2E2E2E2E2E2E2E2E2E2E2E2E2E2E2E2E2E2E2E2E2E2E2E2
310
E2E2E2E2E2E2E2E2E2E2E2E2E2E2E2E2E2E2E2E2E2E2E2E2E2E2E2E2E2E2E2E2E2E2E2E2E2E2E2E2E2E2E2E2E2E2E2E2E2E2E2E2E2E2E2E2E2E2E2E2E2E2E2E2E2E2E2E2E2E2E2E2E2E2E2E2E2E2E2E2E2E2E2E2E2E2E2E2E2E2E2E2E2E2E2E2E2E2E2E2E2E2E2E2E2F5E2E2E2E2E2E2E2E2E2E2E2E2E2E2E2E2F5E2E2E2F5
310
F5E2E2E2F5E2E2E2E2E2E2E2E2E2E2E2E2E2E2E2E2F5E2E2E2E2E2E2E2E2E2E2E2E2E2E2E2E2E2E2E2E2E2E2E2E2E2E2E2E2E2E2E2E2E2E2E2E2E2E2E2E2E2E2E2E2E2E2E2E2E2E2E2E2E2E2E2E2E2E2E2E2E2E2E2E2E2E2E2E2E2E2E2E2E2E2E2E2E2E2E2E2E2E2E2E2E2E2E2E2E2E2E2E2E2E2E2E2E2E2E2E2E2E2E2E2E2
310
E2E2E2E2E2E2E2E2E2E2E2E2E2E2E2E2E2E2E2E2E2E2E2E2E2E2E2E2E2E2E2F5E2E2E2E2E2E2E2E2E2E2E2E2E2E2E2E2F5E2E2E2F5F5E2E2E2F5E2E2E2E2E2E2E2E2E2E2E2E2E2E2E2E2F5E2E2E2E2E2E2E2E2E2E2E2E2E2E2E2E2E2E2E2E2E2E2E2E2E2E2E2E2E2E2E2E2E2E2E2E2E2E2E2E2E2E2E2E2E2E2E2E2E2E2E2E2
310
E2E2E2E2E2E2E2E2E2E2E2E2E2E2E2E2E2E2E2E2E2E2E2E2E2E2E2E2E2E2E2E2E2E2E2E2E2E2E2E2E2E2E2E2E2E2E2E2E2E2E2E2E2E2E2E2E2E2E2E2E2E2E2E2E2E2E2E2E2E2E2E2E2E2E2E2E2E2E2E2E2E2E2E2F5E2E2E2E2E2E2E2E2E2E2E2E2E2E2E2E2F5E2E2E2F5F5E2E2E2F5E2E2E2E2E2E2E2E2E2E2E2E2E2E2E2E2
310
F5E2E2E2E2E2E2E2E2E2E2E2E2E2E2E2E2E2E2E2E2E2E2E2E2E2E2E2E2E2E2E2E2E2E2E2E2E2E2E2E2E2E2E2E2E2E2E2E2E2E2E2E2E2E2E2E2E2E2E2E2E2E2E2E2E2E2E2E2E2E2E2E2E2E2E2E2E2E2E2E2E2E2E2E2E2E2E2E2E2E2E2E2E2E2E2E2E2E2E2E2E2E2E2E2E2E2E2E2E2E2E2E2E2E2E2E2E2E2E2E2E2E2E2E2E2E2
310
E2E2E2E2E2E2E2E2E2E2F5E2E2E2E2E2E2E2E2E2E2E2E2E2E2E2E2F5E2E2E2F5F5E2E2E2F5E2E2E2E2E2E2E2E2E2E2E2E2E2E2E2E2F5E2E2E2E2E2E2E2E2E2E2E2E2E2E2E2E2E2E2E2E2E2E2E2E2E2E2E2E2E2E2E2E2E2E2E2E2E2E2E2E2E2E2E2E2E2E2E2E2E2E2E2E2E2E2E2E2E2E2E2E2E2E2E2E2E2E2E2E2E2E2E2E2E2
310
E2E2E2E2E2E2E2E2E2E2E2E2E2E2E2E2E2E2E2E2E2E2E2E2E2E2E2E2E2E2E2E2E2E2E2E2E2E2E2E2E2E2E2E2E2E2E2E2E2E2E2E2E2E2E2E2E2E2E2E2E2E2E2F5E2E2E2E2E2E2E2E2E2E2E2E2E2E2E2E2F5E2E2E2F5F5E2E2E2F5E2E2E2E2E2E2E2E2E2E2E2E2E2E2E2E2F5E2E2E2E2E2E2E2E2E2E2E2E2E2E2E2E2E2E2E2E2
310
E2E2E2E2E2E2E2E2E2E2E2E2E2E2E2E2E2E2E2E2E2E2E2E2E2E2E2E2E2E2E2E2E2E2E2E2E2E2E2E2E2E2E2E2E2E2E2E2E2E2E2E2E2E2E2E2E2E2E2E2E2E2E2E2E2E2E2E2E2E2E2E2E2E2E2E2E2E2E2E2E2E2E2E2E2E2E2E2E2E2E2E2E2E2E2E2E2E2E2E2E2E2E2E2E2E2E2E2E2E2E2E2E2E2E2E2F5E2E2E2E2E2E2E2E2E2E2
310
E2E2E2E2E2E2F5E2E2E2F5F5E2E2E2F5E2E2E2E2E2E2E2E2E2E2E2E2E2E2E2E2F5E2E2E2E2E2E2E2E2E2E2E2E2E2E2E2E2E2E2E2E2E2E2E2E2E2E2E2E2E2E2E2E2E2E2E2E2E2E2E2E2E2E2E2E2E2E2E2E2E2E2E2E2E2E2E2E2E2E2E2E2E2E2E2E2E2E2E2E2E2E2E2E2E2E2E2E2E2E2E2E2E2E2E2E2E2E2E2E2E2E2E2E2E2E2
310
E2E2E2E2E2E2E2E2E2E2E2E2E2E2E2E2E2E2E2E2E2E2E2E2E2E2E2E2E2E2E2E2E2E2E2E2E2E2E2E2E2E2F5E2E2E2E2E2E2E2E2E2E2E2E2E2E2E2E2F5E2E2E2F5F5E2E2E2E2E2E2E2E2E2E2E2E2E2E2E2E2E2E2E2E2F5E2E2E2E2E2E2E2E2E2E2E2E2E2E2E2E2E2E2E2E2E2E2E2E2E2E2E2E2E2E2E2E2E2E2E2E2E2E2E2E2E2
310
E2E2E2E2E2E2E2E2E2E2E2E2E2E2E2E2E2E2E2E2E2E2E2E2E2E2E2E2E2E2E2E2E2E2E2E2E2E2E2E2E2E2E2E2E2E2E2E2E2E2E2E2E2E2E2E2E2E2E2E2E2E2E2E2E2E2E2E2E2E2E2E2E2E2E2E2E2E2E2E2E2E2E2E2E2E2E2E2E2E2E2E2E2E2E2F5E2E2E2E2E2E2E2E2E2E2E2E2E2E2E2E2E2E2E2E2F5F5E2E2E2E2E2E2E2E2E2
310
E2E2E2E2E2E2E2E2E2E2E2F5E2E2E2E2E2E2E2E2E2E2E2E2E2E2E2E2E2E2E2E2E2E2E2E2E2E2E2E2E2E2E2E2E2E2E2E2E2E2E2E2E2E2E2E2E2E2E2E2E2E2E2E2E2E2E2E2E2E2E2E2E2E2E2E2E2E2E2E2E2E2E2E2E2E2E2E2E2E2E2E2E2E2E2E2E2E2E2E2E2E2E2E2E2E2E2E2E2E2E2E2E2E2E2E2E2E2E2E2E2E2E2E2E2E2E2
310
E2E2E2E2E2E2E2E2E2E2E2E2E2E2E2E2E2E2E2E2E2F5E2E2E2E2E2E2E2E2E2E2E2E2E2E2E2E2E2E2E2E2F5F5E2E2E2E2E2E2E2E2E2E2E2E2E2E2E2E2E2E2E2E2F5E2E2E2E2E2E2E2E2E2E2E2E2E2E2E2E2E2E2E2E2E2E2E2E2E2E2E2E2E2E2E2E2E2E2E2E2E2E2E2E2E2E2E2E2E2E2E2E2E2E2E2E2E2E2E2E2E2E2E2E2E2E2
310
E2E2E2E2E2E2E2E2E2E2E2E2E2E2E2E2E2E2E2E2E2E2E2E2E2E2E2E2E2E2E2E2E2E2E2E2E2E2E2E2E2E2E2E2E2E2E2E2E2E2E2E2E2E2E2E2E2E2E2E2E2E2E2E2E2E2E2E2E2E2E2E2E2E2F5E2E2E2E2E2E2E2E2E2E2E2E2E2E2E2E2E2E2E2E2F5F5E2E2E2E2E2E2E2E2E2E2E2E2E2E2E2E2E2E2E2E2F5E2E2E2E2E2E2E2E2E2
310
E2E2E2E2E2E2E2E2E2E2E2E2E2E2E2E2E2E2E2E2E2E2E2E2E2E2E2E2E2E2E2E2E2E2E2E2E2E2E2E2E2E2E2E2E2E2E2E2E2E2E2E2E2E2E2E2E2E2E2E2E2E2E2E2E2E2E2E2E2E2E2E2E2E2E2E2E2E2E2E2E2E2E2E2E2E2E2E2E2E2E2E2E2E2E2E2E2E2E2E2E2E2E2E2E2E2E2E2E2E2E2E2E2E2E2E2E2E2E2E2E2E2E2E2E2E2E2
310
F5E2E2E2E2E2E2E2E2E2E2E2E2E2E2E2E2E2E2E2E2F5F5E2E2E2E2E2E2E2E2E2E2E2E2E2E2E2E2E2E2E2E2F5E2E2E2E2E2E2E2E2E2E2E2E2E2E2E2E2E2E2E2E2E2E2E2E2E2E2E2E2E2E2E2E2E2E2E2E2E2E2E2E2E2E2E2E2E2E2E2E2E2E2E2E2E2E2E2E2E2E2E2E2E2E2E2E2E2E2E2E2E2E2E2E2E2E2E2E2E2E2E2E2E2E2E2
310
E2E2E2E2E2E2E2E2E2E2E2E2E2E2E2E2E2E2E2E2E2E2E2E2E2E2E2E2E2E2E2E2E2E2E2E2E2E2E2E2E2E2E2E2E2E2E2E2E2E2E2E2E2F5E2E2E2E2E2E2E2E2E2E2E2E2E2E2E2E2E2E2E2E2F5F5E2E2E2E2E2E2E2E2E2E2E2E2E2E2E2E2E2E2E2E2F5E2E2E2E2E2E2E2E2E2E2E2E2E2E2E2E2E2E2E2E2E2E2E2E2E2E2E2E2E2E2
310
E2E2E2E2E2E2E2E2E2E2E2E2E2E2E2E2E2E2E2E2E2E2E2E2E2E2E2E2E2E2E2E2E2E2E2E2E2E2E2E2E2E2E2E2E2E2E2E2E2E2E2E2E2E2E2E2E2E2E2E2E2E2E2E2E2E2E2E2E2E2E2E2E2E2E2E2E2E2E2E2E2E2E2E2E2E2E2E2E2E2E2E2E2E2E2E2E2E2E2E2E2E2E2E2E2E2F5E2E2E2E2E2E2E2E2E2E2E2E2E2E2E2E2E2E2E2E2
310
F5F5E2E2E2E2E2E2E2E2E2E2E2E2E2E2E2E2E2E2E2E2F5E2E2E2E2E2E2E2E2E2E2E2E2E2E2E2E2E2E2E2E2E2E2E2E2E2E2E2E2E2E2E2E2E2E2E2E2E2E2E2E2E2E2E2E2E2E2E2E2E2E2E2E2E2E2E2E2E2E2E2E2E2E2E2E2E2E2E2E2E2E2E2E2E2E2E2E2E2E2E2E2E2E2E2E2E2E2E2E2E2E2E2E2E2E2E2E2E2E2E2E2E2E2E2E2
310
E2E2E2E2E2E2E2E2E2E2E2E2E2E2E2E2E2E2E2E2E2E2E2E2E2E2E2E2E2E2E2E2F5E2E2E2E2E2E2E2E2E2E2E2E2E2E2E2E2E2E2E2E2F5F5E2E2E2E2E2E2E2E2E2E2E2E2E2E2E2E2E2E2E2E2F5E2E2E2E2E2E2E2E2E2E2E2E2E2E2E2E2E2E2E2E2E2E2E2E2E2E2E2E2E2E2E2E2E2E2E2E2E2E2E2E2E2E2E2E2E2E2E2E2E2E2E2
310
E2E2E2E2E2E2E2E2E2E2E2E2E2E2E2E2E2E2E2E2E2E2E2E2E2E2E2E2E2E2E2E2E2E2E2E2E2E2E2E2E2E2E2E2E2E2E2E2E2E2E2E2E2E2E2E2E2E2E2E2E2E2E2E2E2E2E2E2E2E2E2E2E2E2E2E2E2E2E2E2E2E2E2E2E2F5E2E2E2E2E2E2E2E2E2E2E2E2E2E2E2E2E2E2E2E2F5F5E2E2E2E2E2E2E2E2E2E2E2E2E2E2E2E2E2E2E2
310
E2F5E2E2E2E2E2E2E2E2E2E2E2E2E2E2E2E2E2E2E2E2E2E2E2E2E2E2E2E2E2E2E2E2E2E2E2E2E2E2E2E2E2E2E2E2E2E2E2E2E2E2E2E2E2E2E2E2E2E2E2E2E2E2E2E2E2E2E2E2E2E2E2E2E2E2E2E2E2E2E2E2E2E2E2E2E2E2E2E2E2E2E2E2E2E2E2E2E2E2E2E2E2E2E2E2E2E2E2E2E2E2E2E2E2E2E2E2E2E2E2E2E2E2E2E2E2
310
E2E2E2E2E2E2E2E2E2E2E2F5E2E2E2E2E2E2E2E2E2E2E2E2E2E2E2E2E2E2E2E2F5F5E2E2E2E2E2E2E2E2E2E2E2E2E2E2E2E2E2E2E2E2F5E2E2E2E2E2E2E2E2E2E2E2E2E2E2E2E2E2E2E2E2E2E2E2E2E2E2E2E2E2E2E2E2E2E2E2E2E2E2E2E2E2E2E2E2E2E2E2E2E2E2E2E2E2E2E2E2E2E2E2E2E2E2E2E2E2E2E2E2E2E2E2E2
310
E2E2E2E2E2E2E2E2E2E2E2E2E2E2E2E2E2E2E2E2E2E2E2E2E2E2E2E2E2E2E2E2E2E2E2E2E2E2E2E2E2E2E2E2E2E2E2E2E2E2E2E2E2E2E2E2E2E2E2E2E2E2E2E2F5E2E2E2E2E2E2E2E2E2E2E2E2E2E2E2E2E2E2E2E2F5F5E2E2E2F5E2E2E2E2E2E2E2E2E2E2E2E2E2E2E2E2F5E2E2E2E2E2E2E2E2E2E2E2E2E2E2E2E2E2E2E2
310
E2E2E2E2E2E2E2E2E2E2E2E2E2E2E2E2E2E2E2E2E2E2E2E2E2E2E2E2E2E2E2E2E2E2E2E2E2E2E2E2E2E2E2E2E2E2E2E2E2E2E2E2E2E2E2E2E2E2E2E2E2E2E2E2E2E2E2E2E2E2E2E2E2E2E2E2E2E2E2E2E2E2E2E2E2E2E2E2E2E2E2E2E2E2E2E2E2E2E2E2E2E2E2E2E2E2E2E2E2E2E2E2E2E2E2E2E2F5E2E2E2E2E2E2E2E2E2
310
E2E2E2E2E2E2E2F5E2E2E2F5F5E2E2E2F5E2E2E2E2E2E2E2E2E2E2E2E2E2E2E2E2F5E2E2E2E2E2E2E2E2E2E2E2E2E2E2E2E2E2E2E2E2E2E2E2E2E2E2E2E2E2E2E2E2E2E2E2E2E2E2E2E2E2E2E2E2E2E2E2E2E2E2E2E2E2E2E2E2E2E2E2E2E2E2E2E2E2E2E2E2E2E2E2E2E2E2E2E2E2E2E2E2E2E2E2E2E2E2E2E2E2E2E2E2E2
310
E2E2E2E2E2E2E2E2E2E2E2E2E2E2E2E2E2E2E2E2E2E2E2E2E2E2E2E2E2E2E2E2E2E2E2E2E2E2E2E2E2E2E2F5E2E2E2E2E2E2E2E2E2E2E2E2E2E2E2E2F5E2E2E2F5F5E2E2E2F5E2E2E2E2E2E2E2E2E2E2E2E2E2E2E2E2F5E2E2E2E2E2E2E2E2E2E2E2E2E2E2E2E2E2E2E2E2E2E2E2E2E2E2E2E2E2E2E2E2E2E2E2E2E2E2E2E2
310
E2E2E2E2E2E2E2E2E2E2E2E2E2E2E2E2E2E2E2E2E2E2E2E2E2E2E2E2E2E2E2E2E2E2E2E2E2E2E2E2E2E2E2E2E2E2E2E2E2E2E2E2E2E2E2E2E2E2E2E2E2E2E2E2E2E2E2E2E2E2E2E2E2E2E2E2E2E2E2E2E2E2E2E2E2E2E2E2E2E2E2E2E2E2E2E2F5E2E2E2E2E2E2E2E2E2E2E2E2E2E2E2E2F5E2E2E2F5F5E2E2E2F5E2E2E2E2
310
E2E2E2E2E2E2E2E2E2E2E2E2F5E2E2E2E2E2E2E2E2E2E2E2E2E2E2E2E2E2E2E2E2E2E2E2E2E2E2E2E2E2E2E2E2E2E2E2E2E2E2E2E2E2E2E2E2E2E2E2E2E2E2E2E2E2E2E2E2E2E2E2E2E2E2E2E2E2E2E2E2E2E2E2E2E2E2E2E2E2E2E2E2E2E2E2E2E2E2E2E2E2E2E2E2E2E2E2E2E2E2E2E2E2E2E2E2E2E2E2E2E2E2E2E2E2E2
310
E2E2E2E2E2E2E2E2E2E2E2E2E2E2E2E2E2E2E2E2E2E2F5E2E2E2E2E2E2E2E2E2E2E2E2E2E2E2E2F5E2E2E2F5F5E2E2E2F5E2E2E2E2E2E2E2E2E2E2E2E2E2E2E2E2F5E2E2E2E2E2E2E2E2E2E2E2E2E2E2E2E2E2E2E2E2E2E2E2E2E2E2E2E2E2E2E2E2E2E2E2E2E2E2E2E2E2E2E2E2E2E2E2E2E2E2E2E2E2E2E2E2E2E2E2E2E2
310
E2E2E2E2E2E2E2E2E2E2E2E2E2E2E2E2E2E2E2E2E2E2E2E2E2E2E2E2E2E2E2E2E2E2E2E2E2E2E2E2E2E2E2E2E2E2E2E2E2E2E2E2E2E2E2E2E2E2E2E2E2E2E2E2E2E2E2E2E2E2E2E2E2E2E2F5E2E2E2E2E2E2E2E2E2E2E2E2E2E2E2E2F5E2E2E2F5F5E2E2E2F5E2E2E2E2E2E2E2E2E2E2E2E2E2E2E2E2F5E2E2E2E2E2E2E2E2
310
E2E2E2E2E2E2E2E2E2E2E2E2E2E2E2E2E2E2E2E2E2E2E2E2E2E2E2E2E2E2E2E2E2E2E2E2E2E2E2E2E2E2E2E2E2E2E2E2E2E2E2E2E2E2E2E2E2E2E2E2E2E2E2E2E2E2E2E2E2E2E2E2E2E2E2E2E2E2E2E2E2E2E2E2E2E2E2E2E2E2E2E2E2E2E2E2E2E2E2E2E2E2E2E2E2E2E2E2E2E2E2E2E2E2E2E2E2E2E2E2E2E2E2E2E2E2E2
310
E2F5E2E2E2E2E2E2E2E2E2E2E2E2E2E2E2E2F5E2E2E2F5F5E2E2E2F5E2E2E2E2E2E2E2E2E2E2E2E2E2E2E2E2F5E2E2E2E2E2E2E2E2E2E2E2E2E2E2E2E2E2E2E2E2E2E2E2E2E2E2E2E2E2E2E2E2E2E2E2E2E2E2E2E2E2E2E2E2E2E2E2E2E2E2E2E2E2E2E2E2E2E2E2E2E2E2E2E2E2E2E2E2E2E2E2E2E2E2E2E2E2E2E2E2E2E2
310
E2E2E2E2E2E2E2E2E2E2E2E2E2E2E2E2E2E2E2E2E2E2E2E2E2E2E2E2E2E2E2E2E2E2E2E2E2E2E2E2E2E2E2E2E2E2E2E2E2E2E2E2E2E2F5E2E2E2E2E2E2E2E2E2E2E2E2E2E2E2E2F5E2E2E2F5F5E2E2E2F5E2E2E2E2E2E2E2E2E2E2E2E2E2E2E2E2F5E2E2E2E2E2E2E2E2E2E2E2E2E2E2E2E2E2E2E2E2E2E2E2E2E2E2E2E2E2
310
E2E2E2E2E2E2E2E2E2E2E2E2E2E2E2E2E2E2E2E2E2E2E2E2E2E2E2E2E2E2E2E2E2E2E2E2E2E2E2E2E2E2E2E2E2E2E2E2E2E2E2E2E2E2E2E2E2E2E2E2E2E2E2E2E2E2E2E2E2E2E2E2E2E2E2E2E2E2E2E2E2E2E2E2E2E2E2E2E2E2E2E2E2E2E2E2E2E2E2E2E2E2E2E2E2E2E2F5E2E2E2E2E2E2E2E2E2E2E2E2E2E2E2E2F5E2E2
310
E2F5F5E2E2E2F5E2E2E2E2E2E2E2E2E2E2E2E2E2E2E2E2F5E2E2E2E2E2E2E2E2E2E2E2E2E2E2E2E2E2E2E2E2E2E2E2E2E2E2E2E2E2E2E2E2E2E2E2E2E2E2E2E2E2E2E2E2E2E2E2E2E2E2E2E2E2E2E2E2E2E2E2E2E2E2E2E2E2E2E2E2E2E2E2E2E2E2E2E2E2E2E2E2E2E2E2E2E2E2E2E2E2E2E2E2E2E2E2E2E2E2E2E2E2E2E2
310
E2E2E2E2E2E2E2E2E2E2E2E2E2E2E2E2E2E2E2E2E2E2E2E2E2E2E2E2E2E2E2E2E2F5E2E2E2E2E2E2E2E2E2E2E2E2E2E2E2E2F5E2E2E2F5F5E2E2E2F5E2E2E2E2E2E2E2E2E2E2E2E2E2E2E2E2F5E2E2E2E2E2E2E2E2E2E2E2E2E2E2E2E2E2E2E2E2E2E2E2E2E2E2E2E2E2E2E2E2E2E2E2E2E2E2E2E2E2E2E2E2E2E2E2E2E2E2
310
E2E2E2E2E2E2E2E2E2E2E2E2E2E2E2E2E2E2E2E2E2E2E2E2E2E2E2E2E2E2E2E2E2E2E2E2E2E2E2E2E2E2E2E2E2E2E2E2E2E2E2E2E2E2E2E2E2E2E2E2E2E2E2E2E2E2E2E2E2E2E2E2E2E2E2E2E2E2E2E2E2E2E2E2E2E2F5E2E2E2E2E2E2E2E2E2E2E2E2E2E2E2E2F5E2E2E2F5F5E2E2E2F5E2E2E2E2E2E2E2E2E2E2E2E2E2E2
310
E2E2F5E2E2E2E2E2E2E2E2E2E2E2E2E2E2E2E2E2E2E2E2E2E2E2E2E2E2E2E2E2E2E2E2E2E2E2E2E2E2E2E2E2E2E2E2E2E2E2E2E2E2E2E2E2E2E2E2E2E2E2E2E2E2E2E2E2E2E2E2E2E2E2E2E2E2E2E2E2E2E2E2E2E2E2E2E2E2E2E2E2E2E2E2E2E2E2E2E2E2E2E2E2E2E2E2E2E2E2E2E2E2E2E2E2E2E2E2E2E2E2E2E2E2E2E2
310
E2E2E2E2E2E2E2E2E2E2E2E2F5E2E2E2E2E2E2E2E2E2E2E2E2E2E2E2E2F5E2E2E2F5F5E2E2E2F5E2E2E2E2E2E2E2E2E2E2E2E2E2E2E2E2F5E2E2E2E2E2E2E2E2E2E2E2E2E2E2E2E2E2E2E2E2E2E2E2E2E2E2E2E2E2E2E2E2E2E2E2E2E2E2E2E2E2E2E2E2E2E2E2E2E2E2E2E2E2E2E2E2E2E2E2E2E2E2E2E2E2E2E2E2E2E2E2
310
E2E2E2E2E2E2E2E2E2E2E2E2E2E2E2E2E2E2E2E2E2E2E2E2E2E2E2E2E2E2E2E2E2E2E2E2E2E2E2E2E2E2E2E2E2E2E2E2E2E2E2E2E2E2E2E2E2E2E2E2E2E2E2E2E2F5E2E2E2E2E2E2E2E2E2E2E2E2E2E2E2E2F5E2E2E2F5F5E2E2E2F5E2E2E2E2E2E2E2E2E2E2E2E2E2E2E2E2F5E2E2E2E2E2E2E2E2E2E2E2E2E2E2E2E2E2E2
310
E2E2E2E2E2E2E2E2E2E2E2E2E2E2E2E2E2E2E2E2E2E2E2E2E2E2E2E2E2E2E2E2E2E2E2E2E2E2E2E2E2E2E2E2E2E2E2E2E2E2E2E2E2E2E2E2E2E2E2E2E2E2E2E2E2E2E2E2E2E2E2E2E2E2E2E2E2E2E2E2E2E2E2E2E2E2E2E2E2E2E2E2E2E2E2E2E2E2E2E2E2E2E2E2E2E2E2E2E2E2E2E2E2E2E2E2E2E2F5E2E2E2E2E2E2E2E2
310
E2E2E2E2E2E2E2E2F5E2E2E2F5F5E2E2E2F5E2E2E2E2E2E2E2E2E2E2E2E2E2E2E2E2F5E2E2E2E2E2E2E2E2E2E2E2E2E2E2E2E2E2E2E2E2E2E2E2E2E2E2E2E2E2E2E2E2E2E2E2E2E2E2E2E2E2E2E2E2E2E2E2E2E2E2E2E2E2E2E2E2E2E2E2E2E2E2E2E2E2E2E2E2E2E2E2E2E2E2E2E2E2E2E2E2E2E2E2E2E2E2E2E2E2E2E2E2
310
E2E2E2E2E2E2E2E2E2E2E2E2E2E2E2E2E2E2E2E2E2E2E2E2E2E2E2E2E2E2E2E2E2E2E2E2E2E2E2E2E2E2E2E2F5E2E2E2E2E2E2E2E2E2E2E2E2E2E2E2E2F5E2E2E2F5F5E2E2E2F5E2E2E2E2E2E2E2E2E2E2E2E2E2E2E2E2F5E2E2E2E2E2E2E2E2E2E2E2E2E2E2E2E2E2E2E2E2E2E2E2E2E2E2E2E2E2E2E2E2E2E2E2E2E2E2E2
310
E2E2E2E2E2E2E2E2E2E2E2E2E2E2E2E2E2E2E2E2E2E2E2E2E2E2E2E2E2E2E2E2E2E2E2E2E2E2E2E2E2E2E2E2E2E2E2E2E2E2E2E2E2E2E2E2E2E2E2E2E2E2E2E2E2E2E2E2E2E2E2E2E2E2E2E2E2E2E2E2E2E2E2E2E2E2E2E2E2E2E2E2E2E2E2E2E2F5E2E2E2E2E2E2E2E2E2E2E2E2E2E2E2E2F5E2E2E2F5F5E2E2E2F5E2E2E2
310
E2E2E2E2E2E2E2E2E2E2E2E2E2F5E2E2E2E2E2E2E2E2E2E2E2E2E2E2E2E2E2E2E2E2E2E2E2E2E2E2E2E2E2E2E2E2E2E2E2E2E2E2E2E2E2E2E2E2E2E2E2E2E2E2E2E2E2E2E2E2E2E2E2E2E2E2E2E2E2E2E2E2E2E2E2E2E2E2E2E2E2E2E2E2E2E2E2E2E2E2E2E2E2E2E2E2E2E2E2E2E2E2E2E2E2E2E2E2E2E2E2E2E2E2E2E2E2
310
E2E2E2E2E2E2E2E2E2E2E2E2E2E2E2E2E2E2E2E2E2E2E2F5E2E2E2E2E2E2E2E2E2E2E2E2E2E2E2E2F5E2E2E2F5F5E2E2E2E2E2E2E2E2E2E2E2E2E2E2E2E2E2E2E2E2F5E2E2E2E2E2E2E2E2E2E2E2E2E2E2E2E2E2E2E2E2E2E2E2E2E2E2E2E2E2E2E2E2E2E2E2E2E2E2E2E2E2E2E2E2E2E2E2E2E2E2E2E2E2E2E2E2E2E2E2E2
310
E2E2E2E2E2E2E2E2E2E2E2E2E2E2E2E2E2E2E2E2E2E2E2E2E2E2E2E2E2E2E2E2E2E2E2E2E2E2E2E2E2E2E2E2E2E2E2E2E2E2E2E2E2E2E2E2E2E2E2E2E2E2E2E2E2E2E2E2E2E2E2E2E2E2E2E2F5E2E2E2E2E2E2E2E2E2E2E2E2E2E2E2E2E2E2E2E2F5F5E2E2E2E2E2E2E2E2E2E2E2E2E2E2E2E2E2E2E2E2F5E2E2E2E2E2E2E2
310
E2E2E2E2E2E2E2E2E2E2E2E2E2E2E2E2E2E2E2E2E2E2E2E2E2E2E2E2E2E2E2E2E2E2E2E2E2E2E2E2E2E2E2E2E2E2E2E2E2E2E2E2E2E2E2E2E2E2E2E2E2E2E2E2E2E2E2E2E2E2E2E2E2E2E2E2E2E2E2E2E2E2E2E2E2E2E2E2E2E2E2E2E2E2E2E2E2E2E2E2E2E2E2E2E2E2E2E2E2E2E2E2E2E2E2E2E2E2E2E2E2E2E2E2E2E2E2
310
E2E2F5E2E2E2E2E2E2E2E2E2E2E2E2E2E2E2E2E2E2E2E2F5F5E2E2E2E2E2E2E2E2E2E2E2E2E2E2E2E2E2E2E2E2F5E2E2E2E2E2E2E2E2E2E2E2E2E2E2E2E2E2E2E2E2E2E2E2E2E2E2E2E2E2E2E2E2E2E2E2E2E2E2E2E2E2E2E2E2E2E2E2E2E2E2E2E2E2E2E2E2E2E2E2E2E2E2E2E2E2E2E2E2E2E2E2E2E2E2E2E2E2E2E2E2E2
310
E2E2E2E2E2E2E2E2E2E2E2E2E2E2E2E2E2E2E2E2E2E2E2E2E2E2E2E2E2E2E2E2E2E2E2E2E2E2E2E2E2E2E2E2E2E2E2E2E2E2E2E2E2E2E2F5E2E2E2E2E2E2E2E2E2E2E2E2E2E2E2E2E2E2E2E2F5F5E2E2E2E2E2E2E2E2E2E2E2E2E2E2E2E2E2E2E2E2F5E2E2E2E2E2E2E2E2E2E2E2E2E2E2E2E2E2E2E2E2E2E2E2E2E2E2E2E2
310
E2E2E2E2E2E2E2E2E2E2E2E2E2E2E2E2E2E2E2E2E2E2E2E2E2E2E2E2E2E2E2E2E2E2E2E2E2E2E2E2E2E2E2E2E2E2E2E2E2E2E2E2E2E2E2E2E2E2E2E2E2E2E2E2E2E2E2E2E2E2E2E2E2E2E2E2E2E2E2E2E2E2E2E2E2E2E2E2E2E2E2E2E2E2E2E2E2E2E2E2E2E2E2E2E2E2E2E2F5E2E2E2E2E2E2E2E2E2E2E2E2E2E2E2E2E2E2
310
E2E2F5F5E2E2E2E2E2E2E2E2E2E2E2E2E2E2E2E2E2E2E2E2F5E2E2E2E2E2E2E2E2E2E2E2E2E2E2E2E2E2E2E2E2E2E2E2E2E2E2E2E2E2E2E2E2E2E2E2E2E2E2E2E2E2E2E2E2E2E2E2E2E2E2E2E2E2E2E2E2E2E2E2E2E2E2E2E2E2E2E2E2E2E2E2E2E2E2E2E2E2E2E2E2E2E2E2E2E2E2E2E2E2E2E2E2E2E2E2E2E2E2E2E2E2E2
310
E2E2E2E2E2E2E2E2E2E2E2E2E2E2E2E2E2E2E2E2E2E2E2E2E2E2E2E2E2E2E2E2E2E2F5E2E2E2E2E2E2E2E2E2E2E2E2E2E2E2E2E2E2E2E2F5F5E2E2E2E2E2E2E2E2E2E2E2E2E2E2E2E2E2E2E2E2F5E2E2E2E2E2E2E2E2E2E2E2E2E2E2E2E2E2E2E2E2E2E2E2E2E2E2E2E2E2E2E2E2E2E2E2E2E2E2E2E2E2E2E2E2E2E2E2E2E2
310
E2E2E2E2E2E2E2E2E2E2E2E2E2E2E2E2E2E2E2E2E2E2E2E2E2E2E2E2E2E2E2E2E2E2E2E2E2E2E2E2E2E2E2E2E2E2E2E2E2E2E2E2E2E2E2E2E2E2E2E2E2E2E2E2E2E2E2E2E2E2E2E2E2E2E2E2E2E2E2E2E2E2E2E2E2E2E2F5E2E2E2E2E2E2E2E2E2E2E2E2E2E2E2E2E2E2E2E2F5F5E2E2E2E2E2E2E2E2E2E2E2E2E2E2E2E2E2
310
E2E2E2F5E2E2E2E2E2E2E2E2E2E2E2E2E2E2E2E2E2E2E2E2E2E2E2E2E2E2E2E2E2E2E2E2E2E2E2E2E2E2E2E2E2E2E2E2E2E2E2E2E2E2E2E2E2E2E2E2E2E2E2E2E2E2E2E2E2E2E2E2E2E2E2E2E2E2E2E2E2E2E2E2E2E2E2E2E2E2E2E2E2E2E2E2E2E2E2E2E2E2E2E2E2E2E2E2E2E2E2E2E2E2E2E2E2E2E2E2E2E2E2E2E2E2E2
310
E2E2E2E2E2E2E2E2E2E2E2E2E2F5E2E2E2E2E2E2E2E2E2E2E2E2E2E2E2E2E2E2E2E2F5F5E2E2E2E2E2E2E2E2E2E2E2E2E2E2E2E2E2E2E2E2F5E2E2E2E2E2E2E2E2E2E2E2E2E2E2E2E2E2E2E2E2E2E2E2E2E2E2E2E2E2E2E2E2E2E2E2E2E2E2E2E2E2E2E2E2E2E2E2E2E2E2E2E2E2E2E2E2E2E2E2E2E2E2E2E2E2E2E2E2E2E2
310
E2E2E2E2E2E2E2E2E2E2E2E2E2E2E2E2E2E2E2E2E2E2E2E2E2E2E2E2E2E2E2E2E2E2E2E2E2E2E2E2E2E2E2E2E2E2E2E2E2E2E2E2E2E2E2E2E2E2E2E2E2E2E2E2E2E2F5E2E2E2E2E2E2E2E2E2E2E2E2E2E2E2E2E2E2E2E2F5F5E2E2E2E2E2E2E2E2E2E2E2E2E2E2E2E2E2E2E2E2F5E2E2E2E2E2E2E2E2E2E2E2E2E2E2E2E2E2
310
E2E2E2E2E2E2E2E2E2E2E2E2E2E2E2E2E2E2E2E2E2E2E2E2E2E2E2E2E2E2E2E2E2E2E2E2E2E2E2E2E2E2E2E2E2E2E2E2E2E2E2E2E2E2E2E2E2E2E2E2E2E2E2E2E2E2E2E2E2E2E2E2E2E2E2E2E2E2E2E2E2E2E2E2E2E2E2E2E2E2E2E2E2E2E2E2E2E2E2E2E2E2E2E2E2E2E2E2E2E2E2E2E2E2E2E2E2E2E2F5E2E2E2E2E2E2E2
310
E2E2E2E2E2E2E2E2E2E2E2E2E2F5F5E2E2E2F5E2E2E2E2E2E2E2E2E2E2E2E2E2E2E2E2F5E2E2E2E2E2E2E2E2E2E2E2E2E2E2E2E2E2E2E2E2E2E2E2E2E2E2E2E2E2E2E2E2E2E2E2E2E2E2E2E2E2E2E2E2E2E2E2E2E2E2E2E2E2E2E2E2E2E2E2E2E2E2E2E2E2E2E2E2E2E2E2E2E2E2E2E2E2E2E2E2E2E2E2E2E2E2E2E2E2E2E2
310
E2E2E2E2E2E2E2E2E2E2E2E2E2E2E2E2E2E2E2E2E2E2E2E2E2E2E2E2E2E2E2E2E2E2E2E2E2E2E2E2E2E2E2E2E2F5E2E2E2E2E2E2E2E2E2E2E2E2E2E2E2E2F5E2E2E2F5F5E2E2E2F5E2E2E2E2E2E2E2E2E2E2E2E2E2E2E2E2F5E2E2E2E2E2E2E2E2E2E2E2E2E2E2E2E2E2E2E2E2E2E2E2E2E2E2E2E2E2E2E2E2E2E2E2E2E2E2
310
E2E2E2E2E2E2E2E2E2E2E2E2E2E2E2E2E2E2E2E2E2E2E2E2E2E2E2E2E2E2E2E2E2E2E2E2E2E2E2E2E2E2E2E2E2E2E2E2E2E2E2E2E2E2E2E2E2E2E2E2E2E2E2E2E2E2E2E2E2E2E2E2E2E2E2E2E2E2E2E2E2E2E2E2E2E2E2E2E2E2E2E2E2E2E2E2E2E2F5E2E2E2E2E2E2E2E2E2E2E2E2E2E2E2E2F5E2E2E2F5F5E2E2E2F5E2E2
310
E2E2E2E2E2E2E2E2E2E2E2E2E2E2F5E2E2E2E2E2E2E2E2E2E2E2E2E2E2E2E2E2E2E2E2E2E2E2E2E2E2E2E2E2E2E2E2E2E2E2E2E2E2E2E2E2E2E2E2E2E2E2E2E2E2E2E2E2E2E2E2E2E2E2E2E2E2E2E2E2E2E2E2E2E2E2E2E2E2E2E2E2E2E2E2E2E2E2E2E2E2E2E2E2E2E2E2E2E2E2E2E2E2E2E2E2E2E2E2E2E2E2E2E2E2E2E2
310
E2E2E2E2E2E2E2E2E2E2E2E2E2E2E2E2E2E2E2E2E2E2E2E2F5E2E2E2E2E2E2E2E2E2E2E2E2E2E2E2E2F5E2E2E2F5F5E2E2E2F5E2E2E2E2E2E2E2E2E2E2E2E2E2E2E2E2F5E2E2E2E2E2E2E2E2E2E2E2E2E2E2E2E2E2E2E2E2E2E2E2E2E2E2E2E2E2E2E2E2E2E2E2E2E2E2E2E2E2E2E2E2E2E2E2E2E2E2E2E2E2E2E2E2E2E2E2
310
E2E2E2E2E2E2E2E2E2E2E2E2E2E2E2E2E2E2E2E2E2E2E2E2E2E2E2E2E2E2E2E2E2E2E2E2E2E2E2E2E2E2E2E2E2E2E2E2E2E2E2E2E2E2E2E2E2E2E2E2E2E2E2E2E2E2E2E2E2E2E2E2E2E2E2E2E2F5E2E2E2E2E2E2E2E2E2E2E2E2E2E2E2E2F5E2E2E2F5F5E2E2E2F5E2E2E2E2E2E2E2E2E2E2E2E2E2E2E2E2F5E2E2E2E2E2E2
310
E2E2E2E2E2E2E2E2E2E2E2E2E2E2E2E2E2E2E2E2E2E2E2E2E2E2E2E2E2E2E2E2E2E2E2E2E2E2E2E2E2E2E2E2E2E2E2E2E2E2E2E2E2E2E2E2E2E2E2E2E2E2E2E2E2E2E2E2E2E2E2E2E2E2E2E2E2E2E2E2E2E2E2E2E2E2E2E2E2E2E2E2E2E2E2E2E2E2E2E2E2E2E2E2E2E2E2E2E2E2E2E2E2E2E2E2E2E2E2E2E2E2E2E2E2E2E2
310
E2E2E2F5E2E2E2E2E2E2E2E2E2E2E2E2E2E2E2E2F5E2E2E2F5F5E2E2E2F5E2E2E2E2E2E2E2E2E2E2E2E2E2E2E2E2F5E2E2E2E2E2E2E2E2E2E2E2E2E2E2E2E2E2E2E2E2E2E2E2E2E2E2E2E2E2E2E2E2E2E2E2E2E2E2E2E2E2E2E2E2E2E2E2E2E2E2E2E2E2E2E2E2E2E2E2E2E2E2E2E2E2E2E2E2E2E2E2E2E2E2E2E2E2E2E2E2
310
E2E2E2E2E2E2E2E2E2E2E2E2E2E2E2E2E2E2E2E2E2E2E2E2E2E2E2E2E2E2E2E2E2E2E2E2E2E2E2E2E2E2E2E2E2E2E2E2E2E2E2E2E2E2E2E2F5E2E2E2E2E2E2E2E2E2E2E2E2E2E2E2E2F5E2E2E2F5F5E2E2E2F5E2E2E2E2E2E2E2E2E2E2E2E2E2E2E2E2F5E2E2E2E2E2E2E2E2E2E2E2E2E2E2E2E2E2E2E2E2E2E2E2E2E2E2E2
310
E2E2E2E2E2E2E2E2E2E2E2E2E2E2E2E2E2E2E2E2E2E2E2E2E2E2E2E2E2E2E2E2E2E2E2E2E2E2E2E2E2E2E2E2E2E2E2E2E2E2E2E2E2E2E2E2E2E2E2E2E2E2E2E2E2E2E2E2E2E2E2E2E2E2E2E2E2E2E2E2E2E2E2E2E2E2E2E2E2E2E2E2E2E2E2E2E2E2E2E2E2E2E2E2E2E2E2E2E2F5E2E2E2E2E2E2E2E2E2E2E2E2E2E2E2E2F5
310
E2E2E2F5F5E2E2E2F5E2E2E2E2E2E2E2E2E2E2E2E2E2E2E2E2F5E2E2E2E2E2E2E2E2E2E2E2E2E2E2E2E2E2E2E2E2E2E2E2E2E2E2E2E2E2E2E2E2E2E2E2E2E2E2E2E2E2E2E2E2E2E2E2E2E2E2E2E2E2E2E2E2E2E2E2E2E2E2E2E2E2E2E2E2E2E2E2E2E2E2E2E2E2E2E2E2E2E2E2E2E2E2E2E2E2E2E2E2E2E2E2E2E2E2E2E2E2
310
E2E2E2E2E2E2E2E2E2E2E2E2E2E2E2E2E2E2E2E2E2E2E2E2E2E2E2E2E2E2E2E2E2E2E2F5E2E2E2E2E2E2E2E2E2E2E2E2E2E2E2E2F5E2E2E2F5F5E2E2E2F5E2E2E2E2E2E2E2E2E2E2E2E2E2E2E2E2F5E2E2E2E2E2E2E2E2E2E2E2E2E2E2E2E2E2E2E2E2E2E2E2E2E2E2E2E2E2E2E2E2E2E2E2E2E2E2E2E2E2E2E2E2E2E2E2E2
310
E2E2E2E2E2E2E2E2E2E2E2E2E2E2E2E2E2E2E2E2E2E2E2E2E2E2E2E2E2E2E2E2E2E2E2E2E2E2E2E2E2E2E2E2E2E2E2E2E2E2E2E2E2E2E2E2E2E2E2E2E2E2E2E2E2E2E2E2E2E2E2E2E2E2E2E2E2E2E2E2E2E2E2E2E2E2E2E2F5E2E2E2E2E2E2E2E2E2E2E2E2E2E2E2E2F5E2E2E2F5F5E2E2E2F5E2E2E2E2E2E2E2E2E2E2E2E2
310
E2E2E2E2F5E2E2E2E2E2E2E2E2E2E2E2E2E2E2E2E2E2E2E2E2E2E2E2E2E2E2E2E2E2E2E2E2E2E2E2E2E2E2E2E2E2E2E2E2E2E2E2E2E2E2E2E2E2E2E2E2E2E2E2E2E2E2E2E2E2E2E2E2E2E2E2E2E2E2E2E2E2E2E2E2E2E2E2E2E2E2E2E2E2E2E2E2E2E2E2E2E2E2E2E2E2E2E2E2E2E2E2E2E2E2E2E2E2E2E2E2E2E2E2E2E2E2
310
E2E2E2E2E2E2E2E2E2E2E2E2E2E2F5E2E2E2E2E2E2E2E2E2E2E2E2E2E2E2E2F5E2E2E2F5F5E2E2E2F5E2E2E2E2E2E2E2E2E2E2E2E2E2E2E2E2F5E2E2E2E2E2E2E2E2E2E2E2E2E2E2E2E2E2E2E2E2E2E2E2E2E2E2E2E2E2E2E2E2E2E2E2E2E2E2E2E2E2E2E2E2E2E2E2E2E2E2E2E2E2E2E2E2E2E2E2E2E2E2E2E2E2E2E2E2E2
310
E2E2E2E2E2E2E2E2E2E2E2E2E2E2E2E2E2E2E2E2E2E2E2E2E2E2E2E2E2E2E2E2E2E2E2E2E2E2E2E2E2E2E2E2E2E2E2E2E2E2E2E2E2E2E2E2E2E2E2E2E2E2E2E2E2E2E2F5E2E2E2E2E2E2E2E2E2E2E2E2E2E2E2E2F5E2E2E2F5F5E2E2E2F5E2E2E2E2E2E2E2E2E2E2E2E2E2E2E2E2F5E2E2E2E2E2E2E2E2E2E2E2E2E2E2E2E2
310
E2E2E2E2E2E2E2E2E2E2E2E2E2E2E2E2E2E2E2E2E2E2E2E2E2E2E2E2E2E2E2E2E2E2E2E2E2E2E2E2E2E2E2E2E2E2E2E2E2E2E2E2E2E2E2E2E2E2E2E2E2E2E2E2E2E2E2E2E2E2E2E2E2E2E2E2E2E2E2E2E2E2E2E2E2E2E2E2E2E2E2E2E2E2E2E2E2E2E2E2E2E2E2E2E2E2E2E2E2E2E2E2E2E2E2E2E2E2E2E2F5E2E2E2E2E2E2
310
E2E2E2E2E2E2E2E2E2E2F5E2E2E2F5F5E2E2E2F5E2E2E2E2E2E2E2E2E2E2E2E2E2E2E2E2F5E2E2E2E2E2E2E2E2E2E2E2E2E2E2E2E2E2E2E2E2E2E2E2E2E2E2E2E2E2E2E2E2E2E2E2E2E2E2E2E2E2E2E2E2E2E2E2E2E2E2E2E2E2E2E2E2E2E2E2E2E2E2E2E2E2E2E2E2E2E2E2E2E2E2E2E2E2E2E2E2E2E2E2E2E2E2E2E2E2E2
310
E2E2E2E2E2E2E2E2E2E2E2E2E2E2E2E2E2E2E2E2E2E2E2E2E2E2E2E2E2E2E2E2E2E2E2E2E2E2E2E2E2E2E2E2E2E2F5E2E2E2E2E2E2E2E2E2E2E2E2E2E2E2E2F5E2E2E2F5F5E2E2E2F5E2E2E2E2E2E2E2E2E2E2E2E2E2E2E2E2F5E2E2E2E2E2E2E2E2E2E2E2E2E2E2E2E2E2E2E2E2E2E2E2E2E2E2E2E2E2E2E2E2E2E2E2E2E2
310
E2E2E2E2E2E2E2E2E2E2E2E2E2E2E2E2E2E2E2E2E2E2E2E2E2E2E2E2E2E2E2E2E2E2E2E2E2E2E2E2E2E2E2E2E2E2E2E2E2E2E2E2E2E2E2E2E2E2E2E2E2E2E2E2E2E2E2E2E2E2E2E2E2E2E2E2E2E2E2E2E2E2E2E2E2E2E2E2E2E2E2E2E2E2E2E2E2E2E2F5E2E2E2E2E2E2E2E2E2E2E2E2E2E2E2E2F5E2E2E2F5F5E2E2E2F5E2
310
E2E2E2E2E2E2E2E2E2E2E2E2E2E2E2F5E2E2E2E2E2E2E2E2E2E2E2E2E2E2E2E2E2E2E2E2E2E2E2E2E2E2E2E2E2E2E2E2E2E2E2E2E2E2E2E2E2E2E2E2E2E2E2E2E2E2E2E2E2E2E2E2E2E2E2E2E2E2E2E2E2E2E2E2E2E2E2E2E2E2E2E2E2E2E2E2E2E2E2E2E2E2E2E2E2E2E2E2E2E2E2E2E2E2E2E2E2E2E2E2E2E2E2E2E2E2E2
310
E2E2E2E2E2E2E2E2E2E2E2E2E2E2E2E2E2E2E2E2E2E2E2E2E2F5E2E2E2E2E2E2E2E2E2E2E2E2E2E2E2E2F5E2E2E2F5F5E2E2E2F5E2E2E2E2E2E2E2E2E2E2E2E2E2E2E2E2F5E2E2E2E2E2E2E2E2E2E2E2E2E2E2E2E2E2E2E2E2E2E2E2E2E2E2E2E2E2E2E2E2E2E2E2E2E2E2E2E2E2E2E2E2E2E2E2E2E2E2E2E2E2E2E2E2E2E2
310
E2E2E2E2E2E2E2E2E2E2E2E2E2E2E2E2E2E2E2E2E2E2E2E2E2E2E2E2E2E2E2E2E2E2E2E2E2E2E2E2E2E2E2E2E2E2E2E2E2E2E2E2E2E2E2E2E2E2E2E2E2E2E2E2E2E2E2E2E2E2E2E2E2E2E2E2E2E2F5E2E2E2E2E2E2E2E2E2E2E2E2E2E2E2E2F5E2E2E2F5F5E2E2E2F5E2E2E2E2E2E2E2E2E2E2E2E2E2E2E2E2F5E2E2E2E2E2
310
E2E2E2E2E2E2E2E2E2E2E2E2E2E2E2E2E2E2E2E2E2E2E2E2E2E2E2E2E2E2E2E2E2E2E2E2E2E2E2E2E2E2E2E2E2E2E2E2E2E2E2E2E2E2E2E2E2E2E2E2E2E2E2E2E2E2E2E2E2E2E2E2E2E2E2E2E2E2E2E2E2E2E2E2E2E2E2E2E2E2E2E2E2E2E2E2E2E2E2E2E2E2E2E2E2E2E2E2E2E2E2E2E2E2E2E2E2E2E2E2E2E2E2E2E2E2E2
310
E2E2E2E2F5E2E2E2E2E2E2E2E2E2E2E2E2E2E2E2E2F5E2E2E2F5F5E2E2E2E2E2E2E2E2E2E2E2E2E2E2E2E2E2E2E2E2F5E2E2E2E2E2E2E2E2E2E2E2E2E2E2E2E2E2E2E2E2E2E2E2E2E2E2E2E2E2E2E2E2E2E2E2E2E2E2E2E2E2E2E2E2E2E2E2E2E2E2E2E2E2E2E2E2E2E2E2E2E2E2E2E2E2E2E2E2E2E2E2E2E2E2E2E2E2E2E2
310
E2E2E2E2E2E2E2E2E2E2E2E2E2E2E2E2E2E2E2E2E2E2E2E2E2E2E2E2E2E2E2E2E2E2E2E2E2E2E2E2E2E2E2E2E2E2E2E2E2E2E2E2E2E2E2E2E2F5E2E2E2E2E2E2E2E2E2E2E2E2E2E2E2E2E2E2E2E2F5F5E2E2E2E2E2E2E2E2E2E2E2E2E2E2E2E2E2E2E2E2F5E2E2E2E2E2E2E2E2E2E2E2E2E2E2E2E2E2E2E2E2E2E2E2E2E2E2
310
E2E2E2E2E2E2E2E2E2E2E2E2E2E2E2E2E2E2E2E2E2E2E2E2E2E2E2E2E2E2E2E2E2E2E2E2E2E2E2E2E2E2E2E2E2E2E2E2E2E2E2E2E2E2E2E2E2E2E2E2E2E2E2E2E2E2E2E2E2E2E2E2E2E2E2E2E2E2E2E2E2E2E2E2E2E2E2E2E2E2E2E2E2E2E2E2E2E2E2E2E2E2E2E2E2E2E2E2E2E2F5E2E2E2E2E2E2E2E2E2E2E2E2E2E2E2E2
310
E2E2E2E2F5F5E2E2E2E2E2E2E2E2E2E2E2E2E2E2E2E2E2E2E2E2F5E2E2E2E2E2E2E2E2E2E2E2E2E2E2E2E2E2E2E2E2E2E2E2E2E2E2E2E2E2E2E2E2E2E2E2E2E2E2E2E2E2E2E2E2E2E2E2E2E2E2E2E2E2E2E2E2E2E2E2E2E2E2E2E2E2E2E2E2E2E2E2E2E2E2E2E2E2E2E2E2E2E2E2E2E2E2E2E2E2E2E2E2E2E2E2E2E2E2E2E2
310
E2E2E2E2E2E2E2E2E2E2E2E2E2E2E2E2E2E2E2E2E2E2E2E2E2E2E2E2E2E2E2E2E2E2E2E2F5E2E2E2E2E2E2E2E2E2E2E2E2E2E2E2E2E2E2E2E2F5F5E2E2E2E2E2E2E2E2E2E2E2E2E2E2E2E2E2E2E2E2F5E2E2E2E2E2E2E2E2E2E2E2E2E2E2E2E2E2E2E2E2E2E2E2E2E2E2E2E2E2E2E2E2E2E2E2E2E2E2E2E2E2E2E2E2E2E2E2
310
E2E2E2E2E2E2E2E2E2E2E2E2E2E2E2E2E2E2E2E2E2E2E2E2E2E2E2E2E2E2E2E2E2E2E2E2E2E2E2E2E2E2E2E2E2E2E2E2E2E2E2E2E2E2E2E2E2E2E2E2E2E2E2E2E2E2E2E2E2E2E2E2E2E2E2E2E2E2E2E2E2E2E2E2E2E2E2E2E2F5E2E2E2E2E2E2E2E2E2E2E2E2E2E2E2E2E2E2E2E2F5F5E2E2E2E2E2E2E2E2E2E2E2E2E2E2E2
310
E2E2E2E2E2F5F5F5F5F5F5F5F5F5F5F5F5F5F5F5F5F5F5F5F5F5F5F5F5F5F5F5F5F5F5F5F5F5F5F5F5F5F5F5F5F5F5F5F5F5F5F5F5F5F5F5F5F5F5F5F5F5F5F5F5F5F5F5F5F5F5F5F5F5F5F5F5F5F5F5F5F5F5F5F5F5F5F5F5F5F5F5F5F5F5F5F5F5F5F5F5F5F5F5F5F5F5F5F5F5F5F5F5F5F5F5F5F5F5F5F5F5F5F5F5F5F5
310
F5F5F5F5F5F5F5F5F5F5F5F5F5F5F5F5E2E2E2E2E2E2E2E2E2E2E2E2E2E2E2E2E2E2E2E2F5F5E2E2E2E2E2E2E2E2E2E2E2E2E2E2E2E2E2E2E2E2E2E2E2E2E2E2E2E2E2E2E2E2E2E2E2E2E2E2E2E2E2E2E2E2E2E2E2E2E2E2E2E2E2E2E2E2E2E2E2E2E2E2E2E2E2E2E2E2E2E2E2E2E2E2E2E2E2E2E2E2E2E2E2E2E2E2E2E2E2
310
E2E2E2E2E2E2E2E2E2E2E2E2E2E2E2E2E2E2E2E2E2E2E2E2E2E2E2E2E2E2E2E2E2E2E2E2E2E2E2E2E2E2E2E2E2E2E2E2E2E2E2E2E2E2E2E2E2E2E2E2E2E2E2E2E2E2E2E2E2E2E2E2E2E2E2E2E2E2E2E2E2E2E2E2E2E2E2E2E2F5F5E2E2E2E2E2E2E2E2E2E2E2E2E2E2E2E2E2E2E2E2E2E2E2E2E2E2E2E2E2E2E2E2E2E2E2E2
310
E2E2E2E2E2E2E2E2E2E2E2E2E2E2E2E2E2E2E2E2E2E2E2E2E2E2E2E2E2E2E2E2E2E2E2E2E2E2E2E2E2E2E2E2E2E2E2E2E2E2E2E2E2E2E2E2E2E2E2E2E2E2E2E2E2E2E2E2E2E2E2E2E2E2E2E2E2E2E2E2E2E2E2E2E2E2E2E2E2E2E2E2E2E2E2E2E2E2E2E2E2E2E2E2E2E2E2E2E2E2E2E2E2E2E2E2E2E2E2E2E2E2E2E2E2E2E2
310
E2E2E2E2E2E2E2E2E2E2E2E2E2E2E2F5F5E2E2E2E2E2E2E2E2E2E2E2E2E2E2E2E2E2E2E2E2E2E2E2E2E2E2E2E2E2E2E2E2E2E2E2E2E2E2E2E2E2E2E2E2E2E2E2E2E2E2E2E2E2E2E2E2E2E2E2E2E2E2E2E2E2E2E2E2E2E2E2E2E2E2E2E2E2E2E2E2E2E2E2E2E2E2E2E2E2E2E2E2E2E2E2E2E2E2E2E2E2E2E2E2E2E2E2E2E2E2
310
E2E2E2E2E2E2E2E2E2E2E2E2E2E2E2E2E2E2E2E2E2E2E2E2E2E2E2E2E2E2E2E2E2E2E2E2E2E2E2E2E2E2E2E2E2E2E2E2E2E2E2E2E2E2E2E2E2E2E2E2E2E2E2E2E2E2E2E2F5F5E2E2E2E2E2E2E2E2E2E2E2E2E2E2E2E2E2E2E2E2E2E2E2E2E2E2E2E2E2E2E2E2E2E2E2E2E2E2E2E2E2E2E2E2E2E2E2E2E2E2E2E2E2E2E2E2E2
310
E2E2E2E2E2E2E2E2E2E2E2E2E2E2E2E2E2E2E2E2E2E2E2E2E2E2E2E2E2E2E2E2E2E2E2E2E2E2E2E2E2E2E2E2E2E2E2E2E2E2E2E2E2E2E2E2E2E2E2E2E2E2E2E2E2E2E2E2E2E2E2E2E2E2E2E2E2E2E2E2E2E2E2E2E2E2E2E2E2E2E2E2E2E2E2E2E2E2E2E2E2E2E2E2E2E2E2E2E2E2E2E2E2E2E2E2E2E2E2E2E2F5F5E2E2E2F5
310
E2E2E2E2E2E2E2E2E2E2E2E2E2E2E2E2E2E2E2E2E2E2E2E2E2E2E2E2E2E2E2E2E2E2E2E2E2E2E2E2E2E2E2E2E2E2E2E2E2E2E2E2E2E2E2E2E2E2E2E2E2E2E2E2E2E2E2E2E2E2E2E2E2E2E2E2E2E2E2E2E2E2E2E2E2E2E2E2E2E2E2E2E2E2E2E2E2E2E2E2E2E2E2E2E2E2E2E2E2E2E2E2E2E2E2E2E2E2E2E2E2E2E2E2E2E2E2
310
E2E2E2E2E2E2E2E2E2E2E2E2E2E2E2E2E2E2E2E2E2E2E2E2E2E2E2E2E2E2E2E2E2E2E2E2E2E2E2E2E2E2E2F5E2E2E2F5F5E2E2E2F5E2E2E2E2E2E2E2E2E2E2E2E2E2E2E2E2E2E2E2E2E2E2E2E2E2E2E2E2E2E2E2E2E2E2E2E2E2E2E2E2E2E2E2E2E2E2E2E2E2E2E2E2E2E2E2E2E2E2E2E2E2E2E2E2E2E2E2E2E2E2E2E2E2E2
310
E2E2E2E2E2E2E2E2E2E2E2E2E2E2E2E2E2E2E2E2E2E2E2E2E2E2E2E2E2E2E2E2E2E2E2E2E2E2E2E2E2E2E2E2E2E2E2E2E2E2E2E2E2E2E2E2E2E2E2E2E2E2E2E2E2E2E2E2E2E2E2E2E2E2E2E2E2E2E2E2E2E2E2E2E2E2E2E2E2E2E2E2E2E2E2E2F5E2E2E2F5F5E2E2E2F5E2E2E2E2E2E2E2E2E2E2E2E2E2E2E2E2E2E2E2E2E2
310
E2E2E2E2E2E2E2E2E2E2E2E2E2E2E2E2E2E2E2E2E2E2E2E2E2E2E2E2E2E2E2E2E2E2E2E2E2E2E2E2E2E2E2E2E2E2E2E2E2E2E2E2E2E2E2E2E2E2E2E2E2E2E2E2E2E2E2E2E2E2E2E2E2E2E2E2E2E2E2E2E2E2E2E2E2E2E2E2E2E2E2E2E2E2E2E2E2E2E2E2E2E2E2E2E2E2E2E2E2E2E2E2E2E2E2E2E2E2E2E2E2E2E2E2E2E2E2
310
E2E2E2E2E2E2E2E2E2E2E2E2E2E2E2E2E2E2E2E2E2E2F5E2E2E2F5F5E2E2E2F5E2E2E2E2E2E2E2E2E2E2E2E2E2E2E2E2E2E2E2E2E2E2E2E2E2E2E2E2E2E2E2E2E2E2E2E2E2E2E2E2E2E2E2E2E2E2E2E2E2E2E2E2E2E2E2E2E2E2E2E2E2E2E2E2E2E2E2E2E2E2E2E2E2E2E2E2E2E2E2E2E2E2E2E2E2E2E2E2E2E2E2E2E2E2E2
310
E2E2E2E2E2E2E2E2E2E2E2E2E2E2E2E2E2E2E2E2E2E2E2E2E2E2E2E2E2E2E2E2E2E2E2E2E2E2E2E2E2E2E2E2E2E2E2E2E2E2E2E2E2E2E2E2E2E2E2E2E2E2E2E2E2E2E2E2E2E2E2E2E2E2E2F5E2E2E2F5F5E2E2E2F5E2E2E2E2E2E2E2E2E2E2E2E2E2E2E2E2E2E2E2E2E2E2E2E2E2E2E2E2E2E2E2E2E2E2E2E2E2E2E2E2E2E2
310
E2E2E2E2E2E2E2E2E2E2E2E2E2E2E2E2E2E2E2E2E2E2E2E2E2E2E2E2E2E2E2E2E2E2E2E2E2E2E2E2E2E2E2E2E2E2E2E2E2E2E2E2E2E2E2E2E2E2E2E2E2E2E2E2E2E2E2E2E2E2E2E2E2E2E2E2E2E2E2E2E2E2E2E2E2E2E2E2E2E2E2E2E2E2E2E2E2E2E2E2E2E2E2E2E2E2E2E2E2E2E2E2E2E2E2E2E2E2E2E2E2E2E2E2E2E2E2
310
E2F5E2E2E2F5F5E2E2E2F5E2E2E2E2E2E2E2E2E2E2E2E2E2E2E2E2E2E2E2E2E2E2E2E2E2E2E2E2E2E2E2E2E2E2E2E2E2E2E2E2E2E2E2E2E2E2E2E2E2E2E2E2E2E2E2E2E2E2E2E2E2E2E2E2E2E2E2E2E2E2E2E2E2E2E2E2E2E2E2E2E2E2E2E2E2E2E2E2E2E2E2E2E2E2E2E2E2E2E2E2E2E2E2E2E2E2E2E2E2E2E2E2E2E2E2E2
310
E2E2E2E2E2E2E2E2E2E2E2E2E2E2E2E2E2E2E2E2E2E2E2E2E2E2E2E2E2E2E2E2E2E2E2E2E2E2E2E2E2E2E2E2E2E2E2E2E2E2E2E2E2E2F5E2E2E2F5F5E2E2E2F5E2E2E2E2E2E2E2E2E2E2E2E2E2E2E2E2E2E2E2E2E2E2E2E2E2E2E2E2E2E2E2E2E2E2E2E2E2E2E2E2E2E2E2E2E2E2E2E2E2E2E2E2E2E2E2E2E2E2E2E2E2E2E2
310
E2E2E2E2E2E2E2E2E2E2E2E2E2E2E2E2E2E2E2E2E2E2E2E2E2E2E2E2E2E2E2E2E2E2E2E2E2E2E2E2E2E2E2E2E2E2E2E2E2E2E2E2E2E2E2E2E2E2E2E2E2E2E2E2E2E2E2E2E2E2E2E2E2E2E2E2E2E2E2E2E2E2E2E2E2E2E2E2E2E2E2E2E2E2E2E2E2E2E2E2E2E2E2E2E2E2E2F5E2E2E2F5F5E2E2E2F5E2E2E2E2E2E2E2E2E2E2
310
E2E2E2E2E2E2E2E2E2E2E2E2E2E2E2E2E2E2E2E2E2E2E2E2E2E2E2E2E2E2E2E2E2E2E2E2E2E2E2E2E2E2E2E2E2E2E2E2E2E2E2E2E2E2E2E2E2E2E2E2E2E2E2E2E2E2E2E2E2E2E2E2E2E2E2E2E2E2E2E2E2E2E2E2E2E2E2E2E2E2E2E2E2E2E2E2E2E2E2E2E2E2E2E2E2E2E2E2E2E2E2E2E2E2E2E2E2E2E2E2E2E2E2E2E2E2E2
310
E2E2E2E2E2E2E2E2E2E2E2E2E2E2E2E2E2E2E2E2E2E2E2E2E2E2E2E2E2E2E2E2E2F5E2E2E2F5F5E2E2E2F5F5F5F5F5F5F5F5E2E2E2E2E2E2E2E2E2F5F5F5F5F5F5F5F5F5F5F5F5F5F5F5F5E2E2E2E2E2E2E2E2E2F5F5F5F5F5F5F5F5F5F5F5F5F5F5F5E2E2E2E2E2E2E2E2E2F5F5F5F5F5F5F5F5F5F5F5F5F5F5F5F5E2E2E2
310
E2E2E2E2E2F5F5F5F5F5F5F5F5F5F5F5F5F5F5F5F5E2E2E2E2E2E2E2E2E2F5F5F5F5F5F5F5F5F5F5F5F5F5F5F5E2E2E2E2E2E2E2E2E2F5F5F5F5F5F5F5F5F5F5F5F5F5F5F5F5E2E2E2E2E2E2E2E2E2F5F5F5F5F5F5F5F5E2E2E2F5F5E2E2E2E2E2E2E2E2E2E2E2E2E2E2E2E2E2E2E2E2E2E2E2E2E2E2E2E2E2E2E2E2E2E2E2
310
E2E2E2E2E2E2E2E2E2E2E2E2E2E2E2E2E2E2E2E2E2E2E2E2E2E2E2E2E2E2E2E2E2E2E2E2E2E2E2E2E2E2E2E2E2E2E2E2E2E2E2E2E2E2E2E2E2E2E2E2E2E2E2E2E2E2E2E2E2E2E2E2E2E2E2E2E2E2E2E2E2E2E2E2E2E2E2E2E2E2E2E2E2E2E2E2E2E2E2E2E2E2E2E2E2E2E2E2E2E2E2E2E2E2E2E2E2E2E2E2E2E2E2E2E2E2E2
310
E2E2E2E2E2E2E2E2E2E2E2E2E2E2E2E2F5F5E2E2E2E2E2E2E2E2E2E2E2E2E2E2E2E2E2E2E2E2E2E2E2E2E2E2E2E2E2E2E2E2E2E2E2E2E2E2E2E2E2E2E2E2E2E2E2E2E2E2E2E2E2E2E2E2E2E2E2E2E2E2E2E2E2E2E2E2E2E2E2E2E2E2E2E2E2E2E2E2E2E2E2E2E2E2E2E2E2E2E2E2E2E2E2E2E2E2E2E2E2E2E2E2E2E2E2E2E2
310
E2E2E2E2E2E2E2E2E2E2E2E2E2E2E2E2E2E2E2E2E2E2E2E2E2E2E2E2E2E2E2E2E2E2E2E2E2E2E2E2E2E2E2E2E2E2E2E2E2E2E2E2E2E2E2E2E2E2E2E2E2E2E2E2E2E2E2E2E2F5F5E2E2E2E2E2E2E2E2E2E2E2E2E2E2E2E2E2E2E2E2E2E2E2E2E2E2E2E2E2E2E2E2E2E2E2E2E2E2E2E2E2E2E2E2E2E2E2E2E2E2E2E2E2E2E2E2
310
E2E2E2E2E2E2E2E2E2E2E2E2E2E2E2E2E2E2E2E2E2E2E2E2E2E2E2E2E2E2E2E2E2E2E2E2E2E2E2E2E2E2E2E2E2E2E2E2E2E2E2E2E2E2E2E2E2E2E2E2E2E2E2E2E2E2E2E2E2E2E2E2E2E2E2E2E2E2E2E2E2E2E2E2E2E2E2E2E2E2E2E2E2E2E2E2E2E2E2E2E2E2E2E2E2E2E2E2E2E2E2E2E2E2E2E2E2E2E2E2E2E2F5F5E2E2E2
310
E2E2E2E2E2E2E2E2E2E2E2E2E2E2E2E2E2E2E2E2E2E2E2E2E2E2E2E2E2E2E2E2E2E2E2E2E2E2E2E2E2E2E2E2E2E2E2E2E2E2E2E2E2E2E2E2E2E2E2E2E2E2E2E2E2E2E2E2E2E2E2E2E2E2E2E2E2E2E2E2E2E2E2E2E2E2E2E2E2E2E2E2E2E2E2E2E2E2E2E2E2E2E2E2E2E2E2E2E2E2E2E2E2E2E2E2E2E2E2E2E2E2E2E2E2E2E2
310
E2E2E2E2E2E2E2E2E2E2E2E2E2E2E2E2E2E2E2E2E2E2E2E2E2E2E2E2E2E2E2E2E2E2E2E2E2E2E2E2E2E2E2E2E2E2E2E2F5
  0
XRECORD
  5
5593F
102
{ACAD_REACTORS
330
5593E
102
}
330
5593E
100
AcDbXrecord
280
     1
102
SHADEPLOT
 70
     0
102
SHADEPLOTRESLEVEL
 70
     2
102
SHADEPLOTCUSTOMDPI
 70
   300
  0
ENDSEC
  0
EOF
