  0
SECTION
  2
HEADER
  9
$ACADVER
  1
AC1015
  9
$ACADMAINTVER
 70
    20
  9
$DWGCODEPAGE
  3
ANSI_936
  9
$INSBASE
 10
0.0
 20
0.0
 30
0.0
  9
$EXTMIN
 10
-172.1882980281032
 20
-140.9511409302907
 30
0.0
  9
$EXTMAX
 10
1048.382586769732
 20
153.1997390190736
 30
0.0
  9
$LIMMIN
 10
0.0
 20
0.0
  9
$LIMMAX
 10
420.0
 20
297.0
  9
$ORTHOMODE
 70
     0
  9
$REGENMODE
 70
     1
  9
$FILLMODE
 70
     1
  9
$QTEXTMODE
 70
     0
  9
$MIRRTEXT
 70
     1
  9
$LTSCALE
 40
1.0
  9
$ATTMODE
 70
     1
  9
$TEXTSIZE
 40
3.5
  9
$TRACEWID
 40
1.0
  9
$TEXTSTYLE
  7
simplex
  9
$CLAYER
  8
0
  9
$CELTYPE
  6
ByLayer
  9
$CECOLOR
 62
   256
  9
$CELTSCALE
 40
1.0
  9
$DISPSILH
 70
     0
  9
$DIMSCALE
 40
0.0
  9
$DIMASZ
 40
3.5
  9
$DIMEXO
 40
0.0
  9
$DIMDLI
 40
0.38
  9
$DIMRND
 40
0.0
  9
$DIMDLE
 40
0.0
  9
$DIMEXE
 40
1.5
  9
$DIMTP
 40
0.0
  9
$DIMTM
 40
0.0
  9
$DIMTXT
 40
3.5
  9
$DIMCEN
 40
0.09
  9
$DIMTSZ
 40
0.0
  9
$DIMTOL
 70
     0
  9
$DIMLIM
 70
     0
  9
$DIMTIH
 70
     0
  9
$DIMTOH
 70
     0
  9
$DIMSE1
 70
     0
  9
$DIMSE2
 70
     0
  9
$DIMTAD
 70
     1
  9
$DIMZIN
 70
     8
  9
$DIMBLK
  1

  9
$DIMASO
 70
     1
  9
$DIMSHO
 70
     1
  9
$DIMPOST
  1

  9
$DIMAPOST
  1

  9
$DIMALT
 70
     0
  9
$DIMALTD
 70
     2
  9
$DIMALTF
 40
25.4
  9
$DIMLFAC
 40
1.0
  9
$DIMTOFL
 70
     0
  9
$DIMTVP
 40
0.0
  9
$DIMTIX
 70
     0
  9
$DIMSOXD
 70
     0
  9
$DIMSAH
 70
     0
  9
$DIMBLK1
  1

  9
$DIMBLK2
  1

  9
$DIMSTYLE
  2
\M+18352\M+18373\M+1815B - ISO-25
  9
$DIMCLRD
 70
   256
  9
$DIMCLRE
 70
   256
  9
$DIMCLRT
 70
   256
  9
$DIMTFAC
 40
1.0
  9
$DIMGAP
 40
2.299999999999998
  9
$DIMJUST
 70
     0
  9
$DIMSD1
 70
     0
  9
$DIMSD2
 70
     0
  9
$DIMTOLJ
 70
     1
  9
$DIMTZIN
 70
     8
  9
$DIMALTZ
 70
     0
  9
$DIMALTTZ
 70
     0
  9
$DIMUPT
 70
     0
  9
$DIMDEC
 70
     2
  9
$DIMTDEC
 70
     2
  9
$DIMALTU
 70
     2
  9
$DIMALTTD
 70
     2
  9
$DIMTXSTY
  7
simplex
  9
$DIMAUNIT
 70
     0
  9
$DIMADEC
 70
     0
  9
$DIMALTRND
 40
0.0
  9
$DIMAZIN
 70
     0
  9
$DIMDSEP
 70
    46
  9
$DIMATFIT
 70
     3
  9
$DIMFRAC
 70
     0
  9
$DIMLDRBLK
  1

  9
$DIMLUNIT
 70
     2
  9
$DIMLWD
 70
    -1
  9
$DIMLWE
 70
    -1
  9
$DIMTMOVE
 70
     0
  9
$LUNITS
 70
     2
  9
$LUPREC
 70
     4
  9
$SKETCHINC
 40
1.0
  9
$FILLETRAD
 40
0.5
  9
$AUNITS
 70
     0
  9
$AUPREC
 70
     0
  9
$MENU
  1
.
  9
$ELEVATION
 40
0.0
  9
$PELEVATION
 40
0.0
  9
$THICKNESS
 40
0.0
  9
$LIMCHECK
 70
     0
  9
$CHAMFERA
 40
10.0
  9
$CHAMFERB
 40
10.0
  9
$CHAMFERC
 40
20.0
  9
$CHAMFERD
 40
0.0
  9
$SKPOLY
 70
     0
  9
$TDCREATE
 40
2455489.391063368
  9
$TDUCREATE
 40
2455489.057730035
  9
$TDUPDATE
 40
2458570.846266447
  9
$TDUUPDATE
 40
2458570.512933114
  9
$TDINDWG
 40
2.6848905324
  9
$TDUSRTIMER
 40
2.6848337616
  9
$USRTIMER
 70
     1
  9
$ANGBASE
 50
0.0
  9
$ANGDIR
 70
     0
  9
$PDMODE
 70
     0
  9
$PDSIZE
 40
0.0
  9
$PLINEWID
 40
0.0
  9
$SPLFRAME
 70
     0
  9
$SPLINETYPE
 70
     6
  9
$SPLINESEGS
 70
     8
  9
$HANDSEED
  5
59AF1
  9
$SURFTAB1
 70
     6
  9
$SURFTAB2
 70
     6
  9
$SURFTYPE
 70
     6
  9
$SURFU
 70
     6
  9
$SURFV
 70
     6
  9
$UCSBASE
  2

  9
$UCSNAME
  2

  9
$UCSORG
 10
0.0
 20
0.0
 30
0.0
  9
$UCSXDIR
 10
1.0
 20
0.0
 30
0.0
  9
$UCSYDIR
 10
0.0
 20
1.0
 30
0.0
  9
$UCSORTHOREF
  2

  9
$UCSORTHOVIEW
 70
     0
  9
$UCSORGTOP
 10
0.0
 20
0.0
 30
0.0
  9
$UCSORGBOTTOM
 10
0.0
 20
0.0
 30
0.0
  9
$UCSORGLEFT
 10
0.0
 20
0.0
 30
0.0
  9
$UCSORGRIGHT
 10
0.0
 20
0.0
 30
0.0
  9
$UCSORGFRONT
 10
0.0
 20
0.0
 30
0.0
  9
$UCSORGBACK
 10
0.0
 20
0.0
 30
0.0
  9
$PUCSBASE
  2

  9
$PUCSNAME
  2

  9
$PUCSORG
 10
0.0
 20
0.0
 30
0.0
  9
$PUCSXDIR
 10
1.0
 20
0.0
 30
0.0
  9
$PUCSYDIR
 10
0.0
 20
1.0
 30
0.0
  9
$PUCSORTHOREF
  2

  9
$PUCSORTHOVIEW
 70
     0
  9
$PUCSORGTOP
 10
0.0
 20
0.0
 30
0.0
  9
$PUCSORGBOTTOM
 10
0.0
 20
0.0
 30
0.0
  9
$PUCSORGLEFT
 10
0.0
 20
0.0
 30
0.0
  9
$PUCSORGRIGHT
 10
0.0
 20
0.0
 30
0.0
  9
$PUCSORGFRONT
 10
0.0
 20
0.0
 30
0.0
  9
$PUCSORGBACK
 10
0.0
 20
0.0
 30
0.0
  9
$USERI1
 70
     0
  9
$USERI2
 70
     0
  9
$USERI3
 70
     0
  9
$USERI4
 70
     0
  9
$USERI5
 70
     0
  9
$USERR1
 40
0.0
  9
$USERR2
 40
0.0
  9
$USERR3
 40
0.0
  9
$USERR4
 40
0.0
  9
$USERR5
 40
0.0
  9
$WORLDVIEW
 70
     1
  9
$SHADEDGE
 70
     3
  9
$SHADEDIF
 70
    70
  9
$TILEMODE
 70
     1
  9
$MAXACTVP
 70
    64
  9
$PINSBASE
 10
0.0
 20
0.0
 30
0.0
  9
$PLIMCHECK
 70
     0
  9
$PEXTMIN
 10
26.66999878883364
 20
20.31999878883365
 30
0.0
  9
$PEXTMAX
 10
240.0299890995025
 20
182.8799890995025
 30
0.0
  9
$PLIMMIN
 10
-6.350006103515625
 20
-6.349999904632567
  9
$PLIMMAX
 10
273.0499877929688
 20
209.5499939918518
  9
$UNITMODE
 70
     0
  9
$VISRETAIN
 70
     1
  9
$PLINEGEN
 70
     0
  9
$PSLTSCALE
 70
     1
  9
$TREEDEPTH
 70
  3020
  9
$CMLSTYLE
  2
Standard
  9
$CMLJUST
 70
     0
  9
$CMLSCALE
 40
20.0
  9
$PROXYGRAPHICS
 70
     1
  9
$MEASUREMENT
 70
     1
  9
$CELWEIGHT
370
    -1
  9
$ENDCAPS
280
     0
  9
$JOINSTYLE
280
     0
  9
$LWDISPLAY
290
     0
  9
$INSUNITS
 70
     4
  9
$HYPERLINKBASE
  1

  9
$STYLESHEET
  1

  9
$XEDIT
290
     1
  9
$CEPSNTYPE
380
     0
  9
$PSTYLEMODE
290
     1
  9
$FINGERPRINTGUID
  2
{601DDA01-5B13-4A4C-8F56-1333B78D855B}
  9
$VERSIONGUID
  2
{16BDBBF5-2865-4361-B661-736DF6861A4F}
  9
$EXTNAMES
290
     1
  9
$PSVPSCALE
 40
0.0
  9
$OLESTARTUP
290
     0
  0
ENDSEC
  0
SECTION
  2
CLASSES
  0
CLASS
  1
ACDBDICTIONARYWDFLT
  2
AcDbDictionaryWithDefault
  3
ObjectDBX Classes
 90
        0
280
     0
281
     0
  0
CLASS
  1
ACDBPLACEHOLDER
  2
AcDbPlaceHolder
  3
ObjectDBX Classes
 90
        0
280
     0
281
     0
  0
CLASS
  1
LAYOUT
  2
AcDbLayout
  3
ObjectDBX Classes
 90
        0
280
     0
281
     0
  0
CLASS
  1
DICTIONARYVAR
  2
AcDbDictionaryVar
  3
ObjectDBX Classes
 90
        0
280
     0
281
     0
  0
CLASS
  1
TABLESTYLE
  2
AcDbTableStyle
  3
ObjectDBX Classes
 90
     2047
280
     0
281
     0
  0
CLASS
  1
SORTENTSTABLE
  2
AcDbSortentsTable
  3
ObjectDBX Classes
 90
        0
280
     0
281
     0
  0
CLASS
  1
DIMASSOC
  2
AcDbDimAssoc
  3
"AcDbDimAssoc|Product Desc:     AcDim ARX App For Dimension|Company:          Autodesk, Inc.|WEB Address:      www.autodesk.com"
 90
        0
280
     0
281
     0
  0
CLASS
  1
ACAD_EVALUATION_GRAPH
  2
AcDbEvalGraph
  3
ObjectDBX Classes
 90
    33921
280
     0
281
     0
  0
CLASS
  1
ACAECUSTOBJ
  2
AcAeEditorObj
  3
AcAeEditorObj
 90
    33792
280
     0
281
     0
  0
CLASS
  1
ACDB_DYNAMICBLOCKPURGEPREVENTER_VERSION
  2
AcDbDynamicBlockPurgePreventer
  3
ObjectDBX Classes
 90
    33921
280
     0
281
     0
  0
ENDSEC
  0
SECTION
  2
TABLES
  0
TABLE
  2
VPORT
  5
8
330
0
100
AcDbSymbolTable
 70
     5
  0
VPORT
  5
59AE2
330
8
100
AcDbSymbolTableRecord
100
AcDbViewportTableRecord
  2
*Active
 70
     0
 10
0.0
 20
0.0
 11
1.0
 21
1.0
 12
48.76865841097288
 22
5.382046862007115
 13
0.0
 23
0.0
 14
10.0
 24
10.0
 15
10.0
 25
10.0
 16
0.0
 26
0.0
 36
1.0
 17
0.0
 27
0.0
 37
0.0
 40
350.7110394438635
 41
1.54384133611691
 42
50.0
 43
0.0
 44
0.0
 50
0.0
 51
0.0
 71
     0
 72
  1000
 73
     1
 74
     1
 75
     0
 76
     0
 77
     0
 78
     0
281
     0
 65
     1
110
0.0
120
0.0
130
0.0
111
1.0
121
0.0
131
0.0
112
0.0
122
1.0
132
0.0
 79
     0
146
0.0
  0
ENDTAB
  0
TABLE
  2
LTYPE
  5
5
330
0
100
AcDbSymbolTable
 70
     4
  0
LTYPE
  5
14
330
5
100
AcDbSymbolTableRecord
100
AcDbLinetypeTableRecord
  2
ByBlock
 70
     0
  3

 72
    65
 73
     0
 40
0.0
  0
LTYPE
  5
15
330
5
100
AcDbSymbolTableRecord
100
AcDbLinetypeTableRecord
  2
ByLayer
 70
     0
  3

 72
    65
 73
     0
 40
0.0
  0
LTYPE
  5
16
330
5
100
AcDbSymbolTableRecord
100
AcDbLinetypeTableRecord
  2
Continuous
 70
     0
  3
Solid line
 72
    65
 73
     0
 40
0.0
  0
LTYPE
  5
D7
330
5
100
AcDbSymbolTableRecord
100
AcDbLinetypeTableRecord
  2
HIDDEN
 70
     0
  3
Hidden __ __ __ __ __ __ __ __ __ __ __ __ __ _
 72
    65
 73
     2
 40
9.524999999999996
 49
6.349999999999997
 74
     0
 49
-3.174999999999998
 74
     0
  0
LTYPE
  5
D9
330
5
100
AcDbSymbolTableRecord
100
AcDbLinetypeTableRecord
  2
CENTER
 70
     0
  3
Center ____ _ ____ _ ____ _ ____ _ ____ _ ____
 72
    65
 73
     4
 40
50.8
 49
31.75
 74
     0
 49
-6.349999999999997
 74
     0
 49
6.349999999999997
 74
     0
 49
-6.349999999999997
 74
     0
  0
LTYPE
  5
35815
330
5
100
AcDbSymbolTableRecord
100
AcDbLinetypeTableRecord
  2
PHANTOM
 70
     0
  3
_____ _ _ _____ _ _ _____ _ _ _____
 72
    65
 73
     6
 40
0.8
 49
0.45
 74
     0
 49
-0.05
 74
     0
 49
0.1
 74
     0
 49
-0.05
 74
     0
 49
0.1
 74
     0
 49
-0.05
 74
     0
  0
ENDTAB
  0
TABLE
  2
LAYER
  5
2
102
{ACAD_XDICTIONARY
360
E2
102
}
330
0
100
AcDbSymbolTable
 70
    14
  0
LAYER
  5
10
330
2
100
AcDbSymbolTableRecord
100
AcDbLayerTableRecord
  2
0
 70
     0
 62
     7
  6
Continuous
370
    -3
390
F
  0
LAYER
  5
D1
330
2
100
AcDbSymbolTableRecord
100
AcDbLayerTableRecord
  2
1
 70
     0
 62
     4
  6
Continuous
370
    50
390
F
1001
AcAecLayerStandard
1000

1000

  0
LAYER
  5
D3
330
2
100
AcDbSymbolTableRecord
100
AcDbLayerTableRecord
  2
2
 70
     0
 62
     7
  6
Continuous
370
    25
390
F
1001
AcAecLayerStandard
1000

1000

  0
LAYER
  5
D4
330
2
100
AcDbSymbolTableRecord
100
AcDbLayerTableRecord
  2
3
 70
     0
 62
     1
  6
HIDDEN
370
    35
390
F
1001
AcAecLayerStandard
1000

1000

  0
LAYER
  5
D8
330
2
100
AcDbSymbolTableRecord
100
AcDbLayerTableRecord
  2
4
 70
     0
 62
     2
  6
CENTER
370
    25
390
F
1001
AcAecLayerStandard
1000

1000

  0
LAYER
  5
DA
330
2
100
AcDbSymbolTableRecord
100
AcDbLayerTableRecord
  2
6
 70
     0
 62
     5
  6
Continuous
370
    35
390
F
1001
AcAecLayerStandard
1000

1000

  0
LAYER
  5
DB
330
2
100
AcDbSymbolTableRecord
100
AcDbLayerTableRecord
  2
cut
 70
     0
 62
     1
  6
Continuous
370
    25
390
F
1001
AcAecLayerStandard
1000

1000

  0
LAYER
  5
DC
330
2
100
AcDbSymbolTableRecord
100
AcDbLayerTableRecord
  2
nocut
 70
     0
 62
     7
  6
Continuous
370
    25
390
F
1001
AcAecLayerStandard
1000

1000

  0
LAYER
  5
DD
330
2
100
AcDbSymbolTableRecord
100
AcDbLayerTableRecord
  2
sk1
 70
     0
 62
     4
  6
Continuous
370
    50
390
F
1001
AcAecLayerStandard
1000

1000

  0
LAYER
  5
DE
330
2
100
AcDbSymbolTableRecord
100
AcDbLayerTableRecord
  2
sk2
 70
     0
 62
     7
  6
Continuous
370
    25
390
F
1001
AcAecLayerStandard
1000

1000

  0
LAYER
  5
DF
330
2
100
AcDbSymbolTableRecord
100
AcDbLayerTableRecord
  2
sk3
 70
     0
 62
     1
  6
HIDDEN
370
    35
390
F
1001
AcAecLayerStandard
1000

1000

  0
LAYER
  5
E0
330
2
100
AcDbSymbolTableRecord
100
AcDbLayerTableRecord
  2
sk4
 70
     0
 62
     2
  6
CENTER
370
    25
390
F
1001
AcAecLayerStandard
1000

1000

  0
LAYER
  5
E1
330
2
100
AcDbSymbolTableRecord
100
AcDbLayerTableRecord
  2
sk6
 70
     0
 62
     5
  6
Continuous
370
    35
390
F
1001
AcAecLayerStandard
1000

1000

  0
LAYER
  5
31B6
330
2
100
AcDbSymbolTableRecord
100
AcDbLayerTableRecord
  2
Defpoints
 70
     0
 62
     7
  6
Continuous
290
     0
370
    -3
390
F
  0
ENDTAB
  0
TABLE
  2
STYLE
  5
3
330
0
100
AcDbSymbolTable
 70
    12
  0
STYLE
  5
11
330
3
100
AcDbSymbolTableRecord
100
AcDbTextStyleTableRecord
  2
Standard
 70
     0
 40
0.0
 41
1.0
 50
0.0
 71
     0
 42
2.5
  3
txt.shx
  4
@extfont2.shx
  0
STYLE
  5
D6
330
3
100
AcDbSymbolTableRecord
100
AcDbTextStyleTableRecord
  2

 70
     1
 40
0.0
 41
1.0
 50
0.0
 71
     0
 42
2.5
  3
ltypeshp.shx
  4

  0
STYLE
  5
24A
330
3
100
AcDbSymbolTableRecord
100
AcDbTextStyleTableRecord
  2
simplex
 70
     0
 40
3.5
 41
1.0
 50
0.0
 71
     0
 42
3.5
  3
txt.shx
  4

  0
STYLE
  5
69E
330
3
100
AcDbSymbolTableRecord
100
AcDbTextStyleTableRecord
  2
MX_NOTE_STANDARD
 70
     0
 40
0.0
 41
1.0
 50
0.0
 71
     0
 42
4.2
  3
txt.shx
  4
extfont.shx
  0
STYLE
  5
3524
330
3
100
AcDbSymbolTableRecord
100
AcDbTextStyleTableRecord
  2
TEXTSTYLE_2
 70
     0
 40
0.0
 41
0.775
 50
0.0
 71
     0
 42
0.2
  3
gdt
  4

  0
STYLE
  5
3525
330
3
100
AcDbSymbolTableRecord
100
AcDbTextStyleTableRecord
  2
TEXTSTYLE_3
 70
     0
 40
0.0
 41
0.75
 50
0.0
 71
     0
 42
0.2
  3
txt
  4

  0
STYLE
  5
3526
330
3
100
AcDbSymbolTableRecord
100
AcDbTextStyleTableRecord
  2
TEXTSTYLE_13
 70
     0
 40
0.0
 41
1.0
 50
0.0
 71
     0
 42
0.2
  3
txt
  4

  0
STYLE
  5
519A
330
3
100
AcDbSymbolTableRecord
100
AcDbTextStyleTableRecord
  2
TEXTSTYLE_14
 70
     0
 40
0.0
 41
1.0
 50
0.0
 71
     0
 42
0.2
  3
txt
  4

  0
STYLE
  5
6F72
330
3
100
AcDbSymbolTableRecord
100
AcDbTextStyleTableRecord
  2
TEXTSTYLE_4
 70
     0
 40
0.0
 41
0.75
 50
0.0
 71
     0
 42
0.2
  3
txt
  4

  0
STYLE
  5
6F73
330
3
100
AcDbSymbolTableRecord
100
AcDbTextStyleTableRecord
  2
TEXTSTYLE_17
 70
     0
 40
0.0
 41
1.0
 50
0.0
 71
     0
 42
0.2
  3
txt
  4

  0
STYLE
  5
FE12
330
3
100
AcDbSymbolTableRecord
100
AcDbTextStyleTableRecord
  2
TEXTSTYLE_12
 70
     0
 40
0.0
 41
1.0
 50
0.0
 71
     0
 42
0.2
  3
txt
  4

  0
STYLE
  5
3AAB8
330
3
100
AcDbSymbolTableRecord
100
AcDbTextStyleTableRecord
  2
TEXTSTYLE_20
 70
     0
 40
0.0
 41
0.6
 50
0.0
 71
     0
 42
0.2
  3
txt
  4

  0
ENDTAB
  0
TABLE
  2
VIEW
  5
6
330
0
100
AcDbSymbolTable
 70
     0
  0
ENDTAB
  0
TABLE
  2
UCS
  5
7
330
0
100
AcDbSymbolTable
 70
     0
  0
ENDTAB
  0
TABLE
  2
APPID
  5
9
330
0
100
AcDbSymbolTable
 70
    12
  0
APPID
  5
12
330
9
100
AcDbSymbolTableRecord
100
AcDbRegAppTableRecord
  2
ACAD
 70
     0
  0
APPID
  5
D2
330
9
100
AcDbSymbolTableRecord
100
AcDbRegAppTableRecord
  2
AcAecLayerStandard
 70
     0
  0
APPID
  5
E6
330
9
100
AcDbSymbolTableRecord
100
AcDbRegAppTableRecord
  2
ACAD_DSTYLE_DIMTEXT_FILL
 70
     0
  0
APPID
  5
4C84
330
9
100
AcDbSymbolTableRecord
100
AcDbRegAppTableRecord
  2
ACAD_EXEMPT_FROM_CAD_STANDARDS
 70
     0
  0
APPID
  5
3493E
330
9
100
AcDbSymbolTableRecord
100
AcDbRegAppTableRecord
  2
DCO15
 70
     0
  0
APPID
  5
3BAB0
330
9
100
AcDbSymbolTableRecord
100
AcDbRegAppTableRecord
  2
ACAD_DSTYLE_DIMEXT_ENABLED
 70
     0
  0
APPID
  5
3BAB1
330
9
100
AcDbSymbolTableRecord
100
AcDbRegAppTableRecord
  2
ACAD_DSTYLE_DIMEXT_LENGTH
 70
     0
  0
APPID
  5
3BEB4
330
9
100
AcDbSymbolTableRecord
100
AcDbRegAppTableRecord
  2
ACAUTHENVIRON
 70
     0
  0
APPID
  5
3BEB7
330
9
100
AcDbSymbolTableRecord
100
AcDbRegAppTableRecord
  2
AcDbDynamicBlockTrueName
 70
     0
  0
APPID
  5
3BEB8
330
9
100
AcDbSymbolTableRecord
100
AcDbRegAppTableRecord
  2
AcDbDynamicBlockGUID
 70
     0
  0
APPID
  5
3BEBA
330
9
100
AcDbSymbolTableRecord
100
AcDbRegAppTableRecord
  2
AcDbBlockRepETag
 70
     0
  0
APPID
  5
547FC
330
9
100
AcDbSymbolTableRecord
100
AcDbRegAppTableRecord
  2
ACAD_DSTYLE_DIMRADIAL_EXTENSION
 70
     0
  0
ENDTAB
  0
TABLE
  2
DIMSTYLE
  5
A
330
0
100
AcDbSymbolTable
 70
    11
100
AcDbDimStyleTable
 71
     5
340
1BF
340
27
340
352A
340
3527
340
69F
  0
DIMSTYLE
105
27
330
A
100
AcDbSymbolTableRecord
100
AcDbDimStyleTableRecord
  2
ISO-25
 70
     0
 41
2.5
 42
0.625
 43
3.75
 44
1.25
 73
     0
 74
     0
 77
     1
 78
     8
140
2.5
141
2.5
143
0.03937007874016
147
0.625
171
     3
172
     1
271
     2
272
     2
274
     3
278
    44
283
     0
284
     8
340
11
  0
DIMSTYLE
105
1BF
102
{ACAD_REACTORS
330
59203
330
59204
330
59205
330
5921A
330
5921B
330
592BA
330
59302
102
}
330
A
100
AcDbSymbolTableRecord
100
AcDbDimStyleTableRecord
  2
\M+18352\M+18373\M+1815B - ISO-25
 70
     0
 40
0.0
 41
3.5
 42
0.0
 44
1.5
 73
     0
 74
     0
 77
     1
 78
     8
140
3.5
147
2.299999999999998
176
   256
177
   256
178
   256
271
     2
272
     2
284
     8
340
24A
371
    -1
372
    -1
  0
DIMSTYLE
105
69F
330
A
100
AcDbSymbolTableRecord
100
AcDbDimStyleTableRecord
  2
MXDIMSTYLE
 70
     0
 41
2.5
 42
0.5
 43
3.75
 44
1.5
 73
     0
 74
     0
 77
     1
 78
     8
140
4.2
141
2.5
143
0.03937
147
1.0
171
     4
172
     1
173
     1
271
     2
272
     2
274
     4
283
     0
288
     1
340
69E
341
697
343
697
344
697
  0
DIMSTYLE
105
3527
330
A
100
AcDbSymbolTableRecord
100
AcDbDimStyleTableRecord
  2
STANDARD
 70
     0
 41
3.0
 47
0.001
 48
0.001
 71
     1
 73
     0
 74
     0
 77
     1
 78
     8
140
4.0
271
     3
272
     3
284
     8
340
11
341
34B1
342
34B1
343
34B1
344
34B1
  0
DIMSTYLE
105
3528
330
A
100
AcDbSymbolTableRecord
100
AcDbDimStyleTableRecord
  2
DIMSTYLE_1
 70
     0
 41
3.0
 73
     0
 74
     0
 77
     1
 78
     8
140
4.0
271
     3
272
     3
284
     8
340
11
341
34B1
342
34B1
343
34B1
344
34B1
  0
DIMSTYLE
105
3529
330
A
100
AcDbSymbolTableRecord
100
AcDbDimStyleTableRecord
  2
DIMSTYLE_2
 70
     0
 41
3.0
 47
0.001
 48
0.001
 73
     0
 74
     0
 77
     1
 78
     8
140
4.0
271
     3
272
     3
284
     8
340
11
341
34B1
342
34B1
343
34B1
344
34B1
  0
DIMSTYLE
105
352A
330
A
100
AcDbSymbolTableRecord
100
AcDbDimStyleTableRecord
  2
DIMSTYLE_3
 70
     0
 41
3.0
 47
-0.1
 48
0.3
 71
     1
 73
     0
 74
     0
 77
     1
 78
     8
140
4.0
146
0.5
271
     3
272
     3
284
     8
340
11
341
34B1
342
34B1
343
34B1
344
34B1
  0
DIMSTYLE
105
352B
330
A
100
AcDbSymbolTableRecord
100
AcDbDimStyleTableRecord
  2
DIMSTYLE_4
 70
     0
 41
3.0
 47
0.1
 48
0.1
 71
     1
 73
     0
 74
     0
 77
     1
 78
     8
140
4.0
271
     3
272
     3
284
     8
340
11
341
34B1
342
34B1
343
34B1
344
34B1
  0
DIMSTYLE
105
27245
330
A
100
AcDbSymbolTableRecord
100
AcDbDimStyleTableRecord
  2
DIMSTYLE_5
 70
     0
 41
3.0
 47
0.001
 48
0.001
 73
     0
 74
     0
 77
     1
 78
     8
140
4.0
271
     3
272
     3
284
     8
340
11
341
34B1
342
34B1
343
34B1
344
34B1
  0
DIMSTYLE
105
3AAB9
330
A
100
AcDbSymbolTableRecord
100
AcDbDimStyleTableRecord
  2
DIMSTYLE_6
 70
     0
 41
3.0
 42
0.0
 44
1.0
 47
0.05
 48
0.05
 71
     1
 73
     0
 74
     0
 77
     1
 78
     8
140
4.0
147
1.0
271
     3
272
     3
284
     8
340
11
341
34B1
342
34B1
343
34B1
344
34B1
  0
DIMSTYLE
105
532EA
330
A
100
AcDbSymbolTableRecord
100
AcDbDimStyleTableRecord
  2
NEW-DIMSTYLE
 70
     0
 40
0.0
 41
4.57
 42
0.0
 44
5.0
 73
     0
 74
     0
 77
     1
 78
     8
140
4.57
147
2.299999999999998
271
     2
340
24A
  0
ENDTAB
  0
TABLE
  2
BLOCK_RECORD
  5
1
330
0
100
AcDbSymbolTable
 70
    67
  0
BLOCK_RECORD
  5
1F
102
{ACAD_XDICTIONARY
360
31EE
102
}
330
1
100
AcDbSymbolTableRecord
100
AcDbBlockTableRecord
  2
*Model_Space
340
22
  0
BLOCK_RECORD
  5
50
330
1
100
AcDbSymbolTableRecord
100
AcDbBlockTableRecord
  2
*Paper_Space
340
51
  0
BLOCK_RECORD
  5
55
330
1
100
AcDbSymbolTableRecord
100
AcDbBlockTableRecord
  2
*Paper_Space0
340
56
  0
BLOCK_RECORD
  5
680
102
{ACAD_XDICTIONARY
360
3BEB2
102
}
330
1
100
AcDbSymbolTableRecord
100
AcDbBlockTableRecord
  2
zero block
340
0
102
{BLKREFS
331
68C
102
}
1001
ACAD
1000
DesignCenter Data
1002
{
1070
     1
1070
     4
1002
}
1001
AcDbDynamicBlockGUID
1000
{C2E8894D-A8DA-456D-ABB6-198B00672C1A}
1001
AcDbBlockRepETag
1070
     1
1071
        7
  0
BLOCK_RECORD
  5
697
330
1
100
AcDbSymbolTableRecord
100
AcDbBlockTableRecord
  2
_OPEN30
340
0
  0
BLOCK_RECORD
  5
34B1
330
1
100
AcDbSymbolTableRecord
100
AcDbBlockTableRecord
  2
_OPEN
340
0
  0
BLOCK_RECORD
  5
50E6F
330
1
100
AcDbSymbolTableRecord
100
AcDbBlockTableRecord
  2
_None
340
0
  0
BLOCK_RECORD
  5
58879
330
1
100
AcDbSymbolTableRecord
100
AcDbBlockTableRecord
  2
*D10
340
0
  0
BLOCK_RECORD
  5
593CF
330
1
100
AcDbSymbolTableRecord
100
AcDbBlockTableRecord
  2
*D54
340
0
  0
BLOCK_RECORD
  5
593DC
330
1
100
AcDbSymbolTableRecord
100
AcDbBlockTableRecord
  2
*D55
340
0
  0
BLOCK_RECORD
  5
593E8
330
1
100
AcDbSymbolTableRecord
100
AcDbBlockTableRecord
  2
*D56
340
0
  0
BLOCK_RECORD
  5
593F5
330
1
100
AcDbSymbolTableRecord
100
AcDbBlockTableRecord
  2
*D57
340
0
  0
BLOCK_RECORD
  5
59401
330
1
100
AcDbSymbolTableRecord
100
AcDbBlockTableRecord
  2
*D58
340
0
  0
BLOCK_RECORD
  5
59417
330
1
100
AcDbSymbolTableRecord
100
AcDbBlockTableRecord
  2
*D60
340
0
  0
BLOCK_RECORD
  5
5947C
330
1
100
AcDbSymbolTableRecord
100
AcDbBlockTableRecord
  2
*D64
340
0
  0
ENDTAB
  0
ENDSEC
  0
SECTION
  2
BLOCKS
  0
BLOCK
  5
20
330
1F
100
AcDbEntity
  8
0
100
AcDbBlockBegin
  2
*Model_Space
 70
     0
 10
0.0
 20
0.0
 30
0.0
  3
*Model_Space
  1

  0
ENDBLK
  5
21
330
1F
100
AcDbEntity
  8
0
100
AcDbBlockEnd
  0
BLOCK
  5
52
330
50
100
AcDbEntity
 67
     1
  8
0
100
AcDbBlockBegin
  2
*Paper_Space
 70
     0
 10
0.0
 20
0.0
 30
0.0
  3
*Paper_Space
  1

  0
ENDBLK
  5
53
330
50
100
AcDbEntity
 67
     1
  8
0
100
AcDbBlockEnd
  0
BLOCK
  5
57
330
55
100
AcDbEntity
 67
     1
  8
0
100
AcDbBlockBegin
  2
*Paper_Space0
 70
     0
 10
0.0
 20
0.0
 30
0.0
  3
*Paper_Space0
  1

  0
VIEWPORT
  5
71
102
{ACAD_XDICTIONARY
360
59AED
102
}
330
55
100
AcDbEntity
 67
     1
  8
0
100
AcDbViewport
 10
150.1652135264906
 20
101.599997546291
 30
0.0
 40
339.1973820494347
 41
164.5360435314421
 68
     0
 69
     0
 12
150.1652135264906
 22
101.599997546291
 13
0.0
 23
0.0
 14
10.0
 24
10.0
 15
10.0
 25
10.0
 16
0.0
 26
0.0
 36
1.0
 17
0.0
 27
0.0
 37
0.0
 42
50.0
 43
0.0
 44
0.0
 45
164.5360435314421
 50
0.0
 51
0.0
 72
  1000
 90
    32864
  1

281
     0
 71
     1
 74
     0
110
0.0
120
0.0
130
0.0
111
1.0
121
0.0
131
0.0
112
0.0
122
1.0
132
0.0
 79
     0
146
0.0
  0
VIEWPORT
  5
73
102
{ACAD_XDICTIONARY
360
59AEF
102
}
330
55
100
AcDbEntity
 67
     1
  8
0
100
AcDbViewport
 10
133.3499939441681
 20
101.5999939441681
 30
0.0
 40
213.3599903106689
 41
162.5599903106689
 68
     0
 69
     0
 12
210.0
 22
148.5
 13
0.0
 23
0.0
 14
10.0
 24
10.0
 15
10.0
 25
10.0
 16
0.0
 26
0.0
 36
1.0
 17
0.0
 27
0.0
 37
0.0
 42
50.0
 43
0.0
 44
0.0
 45
324.0677920111345
 50
0.0
 51
0.0
 72
   100
 90
    32864
  1

281
     0
 71
     1
 74
     0
110
0.0
120
0.0
130
0.0
111
1.0
121
0.0
131
0.0
112
0.0
122
1.0
132
0.0
 79
     0
146
0.0
  0
ENDBLK
  5
58
330
55
100
AcDbEntity
 67
     1
  8
0
100
AcDbBlockEnd
  0
BLOCK
  5
68A
330
680
100
AcDbEntity
  8
0
100
AcDbBlockBegin
  2
zero block
 70
     0
 10
0.0
 20
0.0
 30
0.0
  3
zero block
  1

  0
HATCH
  5
3BEAB
330
680
100
AcDbEntity
  8
0
 62
     7
100
AcDbHatch
 10
0.0
 20
0.0
 30
0.0
210
0.0
220
0.0
230
1.0
  2
SOLID
 70
     1
 71
     0
 91
        2
 92
        7
 72
     1
 73
     1
 93
        3
 10
0.0
 20
0.9999999999999875
 42
0.4142135623730915
 10
-1.0
 20
0.0
 42
0.0
 10
0.0
 20
0.0
 42
0.0
 97
        0
 92
        7
 72
     1
 73
     1
 93
        3
 10
1.000000000000007
 20
0.0
 42
0.0
 10
0.0
 20
0.0
 42
0.0
 10
0.0
 20
-1.0
 42
0.4142135623730974
 97
        0
 75
     0
 76
     1
 47
0.0090601366782909
 98
        2
 10
-0.380591363650975
 20
0.4885804701532896
 10
0.4350764810977559
 20
-0.4536738423704725
1001
AcDbBlockRepETag
1070
     1
1071
        0
1005
3BEAB
  0
LINE
  5
3BEAC
330
680
100
AcDbEntity
  8
0
 62
     7
 48
0.2
100
AcDbLine
 10
-1.0
 20
0.0
 30
0.0
 11
1.000000000000007
 21
0.0
 31
0.0
1001
AcDbBlockRepETag
1070
     1
1071
        1
1005
3BEAC
  0
LINE
  5
3BEAD
330
680
100
AcDbEntity
  8
0
 62
     7
 48
0.2
100
AcDbLine
 10
0.0
 20
-1.0
 30
0.0
 11
0.0
 21
0.9999999999999875
 31
0.0
1001
AcDbBlockRepETag
1070
     1
1071
        2
1005
3BEAD
  0
ARC
  5
3BEAE
330
680
100
AcDbEntity
  8
0
 62
     7
 48
0.2
100
AcDbCircle
 10
0.0
 20
0.0
 30
0.0
 40
1.0
100
AcDbArc
 50
270.0
 51
0.0
1001
AcDbBlockRepETag
1070
     1
1071
        3
1005
3BEAE
  0
ARC
  5
3BEAF
330
680
100
AcDbEntity
  8
0
 62
     7
 48
0.2
100
AcDbCircle
 10
0.0
 20
0.0
 30
0.0
 40
1.0
100
AcDbArc
 50
0.0
 51
90.0
1001
AcDbBlockRepETag
1070
     1
1071
        4
1005
3BEAF
  0
ARC
  5
3BEB0
330
680
100
AcDbEntity
  8
0
 62
     7
 48
0.2
100
AcDbCircle
 10
0.0
 20
0.0
 30
0.0
 40
1.0
100
AcDbArc
 50
180.0
 51
270.0
1001
AcDbBlockRepETag
1070
     1
1071
        5
1005
3BEB0
  0
ARC
  5
3BEB1
330
680
100
AcDbEntity
  8
0
 62
     7
 48
0.2
100
AcDbCircle
 10
0.0
 20
0.0
 30
0.0
 40
1.0
100
AcDbArc
 50
90.0
 51
180.0
1001
AcDbBlockRepETag
1070
     1
1071
        6
1005
3BEB1
  0
ENDBLK
  5
68B
330
680
100
AcDbEntity
  8
0
100
AcDbBlockEnd
  0
BLOCK
  5
698
330
697
100
AcDbEntity
  8
0
  6
ByBlock
 62
     0
370
    -2
100
AcDbBlockBegin
  2
_OPEN30
 70
     2
 10
0.0
 20
0.0
 30
0.0
  3
_OPEN30
  1

  0
LINE
  5
699
330
697
100
AcDbEntity
  8
0
  6
ByBlock
 62
     0
370
    -2
100
AcDbLine
 10
-1.0
 20
0.267949
 30
0.0
 11
0.0
 21
0.0
 31
0.0
  0
LINE
  5
69A
330
697
100
AcDbEntity
  8
0
  6
ByBlock
 62
     0
370
    -2
100
AcDbLine
 10
0.0
 20
0.0
 30
0.0
 11
-1.0
 21
-0.267949
 31
0.0
  0
LINE
  5
69B
330
697
100
AcDbEntity
  8
0
  6
ByBlock
 62
     0
370
    -2
100
AcDbLine
 10
0.0
 20
0.0
 30
0.0
 11
-1.0
 21
0.0
 31
0.0
  0
ENDBLK
  5
69C
330
697
100
AcDbEntity
  8
0
  6
ByBlock
 62
     0
370
    -2
100
AcDbBlockEnd
  0
BLOCK
  5
34B2
330
34B1
100
AcDbEntity
  8
0
100
AcDbBlockBegin
  2
_OPEN
 70
     0
 10
0.0
 20
0.0
 30
0.0
  3
_OPEN
  1

  0
LINE
  5
34B3
330
34B1
100
AcDbEntity
  8
0
  6
ByBlock
 62
     0
100
AcDbLine
 10
0.0
 20
0.0
 30
0.0
 11
-1.0
 21
0.1766666667
 31
0.0
  0
LINE
  5
34B4
330
34B1
100
AcDbEntity
  8
0
  6
ByBlock
 62
     0
100
AcDbLine
 10
-1.0
 20
-0.1766666667
 30
0.0
 11
0.0
 21
0.0
 31
0.0
  0
LINE
  5
34B5
330
34B1
100
AcDbEntity
  8
0
  6
ByBlock
 62
     0
100
AcDbLine
 10
-1.0
 20
0.0
 30
0.0
 11
0.0
 21
0.0
 31
0.0
  0
ENDBLK
  5
34B6
330
34B1
100
AcDbEntity
  8
0
  6
ByBlock
 62
     0
100
AcDbBlockEnd
  0
BLOCK
  5
50E70
330
50E6F
100
AcDbEntity
  8
0
100
AcDbBlockBegin
  2
_None
 70
     0
 10
0.0
 20
0.0
 30
0.0
  3
_None
  1

  0
ENDBLK
  5
50E71
330
50E6F
100
AcDbEntity
  8
0
100
AcDbBlockEnd
  0
BLOCK
  5
58883
330
58879
100
AcDbEntity
  8
0
100
AcDbBlockBegin
  2
*D10
 70
     1
 10
0.0
 20
0.0
 30
0.0
  3
*D10
  1

  0
LINE
  5
58977
330
58879
100
AcDbEntity
  8
sk2
100
AcDbLine
 10
257.1750000000081
 20
11.59092925224453
 30
0.0
 11
257.1750000000081
 21
76.59913296379375
 31
0.0
  0
LINE
  5
58978
330
58879
100
AcDbEntity
  8
sk2
100
AcDbLine
 10
-98.42500000000008
 20
14.17499500000014
 30
0.0
 11
-98.42500000000008
 21
76.59913296379375
 31
0.0
  0
LINE
  5
58979
330
58879
100
AcDbEntity
  8
sk2
100
AcDbLine
 10
253.6750000000081
 20
75.09913296379375
 30
0.0
 11
-94.92500000000005
 21
75.09913296379375
 31
0.0
  0
SOLID
  5
5897A
330
58879
100
AcDbEntity
  8
sk2
100
AcDbTrace
 10
253.6750000000081
 20
75.68246629712708
 30
0.0
 11
253.6750000000081
 21
74.51579963046042
 31
0.0
 12
257.1750000000081
 22
75.09913296379375
 32
0.0
 13
257.1750000000081
 23
75.09913296379375
 33
0.0
  0
SOLID
  5
5897B
330
58879
100
AcDbEntity
  8
sk2
100
AcDbTrace
 10
-94.92500000000005
 20
75.68246629712708
 30
0.0
 11
-94.92500000000005
 21
74.51579963046042
 31
0.0
 12
-98.42500000000008
 22
75.09913296379375
 32
0.0
 13
-98.42500000000008
 23
75.09913296379375
 33
0.0
  0
MTEXT
  5
5897C
330
58879
100
AcDbEntity
  8
sk2
100
AcDbMText
 10
79.37500000000409
 20
79.14913296379373
 30
0.0
 40
3.5
 41
0.0
 71
     5
 72
     1
  1
\A1;355.6 [14.000"]
  7
simplex
 73
     1
 44
1.0
1001
ACAD
1000
MTEXTBEGIN
1070
    73
1070
     1
1070
    44
1040
1.0
1070
    74
1070
     0
1000
MTEXTEND
  0
POINT
  5
5897D
330
58879
100
AcDbEntity
  8
Defpoints
 62
     0
100
AcDbPoint
 10
257.1750000000081
 20
11.59092925224453
 30
0.0
  0
POINT
  5
5897E
330
58879
100
AcDbEntity
  8
Defpoints
 62
     0
100
AcDbPoint
 10
-98.42500000000008
 20
14.17499500000014
 30
0.0
  0
POINT
  5
5897F
330
58879
100
AcDbEntity
  8
Defpoints
 62
     0
100
AcDbPoint
 10
-98.42500000000008
 20
75.09913296379375
 30
0.0
  0
ENDBLK
  5
58884
330
58879
100
AcDbEntity
  8
0
100
AcDbBlockEnd
  0
BLOCK
  5
593DA
330
593CF
100
AcDbEntity
  8
0
100
AcDbBlockBegin
  2
*D54
 70
     1
 10
0.0
 20
0.0
 30
0.0
  3
*D54
  1

  0
LINE
  5
594D9
330
593CF
100
AcDbEntity
  8
2
100
AcDbLine
 10
89.09663672056046
 20
-14.74999999999994
 30
0.0
 11
71.37298558939005
 21
-14.74999999999994
 31
0.0
  0
LINE
  5
594DA
330
593CF
100
AcDbEntity
  8
2
100
AcDbLine
 10
89.09663672056046
 20
14.75000000000006
 30
0.0
 11
71.37298558939005
 21
14.75000000000006
 31
0.0
  0
LINE
  5
594DB
330
593CF
100
AcDbEntity
  8
2
100
AcDbLine
 10
72.87298558939006
 20
11.25000000000006
 30
0.0
 11
72.87298558939006
 21
-11.24999999999994
 31
0.0
  0
LINE
  5
594DC
330
593CF
100
AcDbEntity
  8
2
100
AcDbLine
 10
72.87298558939006
 20
-14.74999999999994
 30
0.0
 11
72.87298558939004
 21
-62.51666666666661
 31
0.0
  0
SOLID
  5
594DD
330
593CF
100
AcDbEntity
  8
2
100
AcDbTrace
 10
72.28965225605673
 20
11.25000000000006
 30
0.0
 11
73.45631892272338
 21
11.25000000000006
 31
0.0
 12
72.87298558939006
 22
14.75000000000006
 32
0.0
 13
72.87298558939006
 23
14.75000000000006
 33
0.0
  0
SOLID
  5
594DE
330
593CF
100
AcDbEntity
  8
2
100
AcDbTrace
 10
72.28965225605673
 20
-11.24999999999994
 30
0.0
 11
73.45631892272338
 21
-11.24999999999994
 31
0.0
 12
72.87298558939006
 22
-14.74999999999994
 32
0.0
 13
72.87298558939006
 23
-14.74999999999994
 33
0.0
  0
MTEXT
  5
594DF
330
593CF
100
AcDbEntity
  8
2
100
AcDbMText
 10
68.82298558939005
 20
-40.38333333333326
 30
0.0
 40
3.5
 41
0.0
 71
     5
 72
     1
  1
\A1;%%C29.5 [%%C1.161"]
  7
simplex
 11
0.0000000000000001
 21
1.0
 31
0.0
 73
     1
 44
1.0
1001
ACAD
1000
MTEXTBEGIN
1070
    73
1070
     1
1070
    44
1040
1.0
1070
    74
1070
     0
1000
MTEXTEND
  0
POINT
  5
594E0
330
593CF
100
AcDbEntity
  8
Defpoints
 62
     0
100
AcDbPoint
 10
89.09663672056046
 20
-14.74999999999994
 30
0.0
  0
POINT
  5
594E1
330
593CF
100
AcDbEntity
  8
Defpoints
 62
     0
100
AcDbPoint
 10
89.09663672056046
 20
14.75000000000006
 30
0.0
  0
POINT
  5
594E2
330
593CF
100
AcDbEntity
  8
Defpoints
 62
     0
100
AcDbPoint
 10
72.87298558939006
 20
14.75000000000006
 30
0.0
  0
ENDBLK
  5
593DB
330
593CF
100
AcDbEntity
  8
0
100
AcDbBlockEnd
  0
BLOCK
  5
593E6
330
593DC
100
AcDbEntity
  8
0
100
AcDbBlockBegin
  2
*D55
 70
     1
 10
0.0
 20
0.0
 30
0.0
  3
*D55
  1

  0
LINE
  5
594E3
330
593DC
100
AcDbEntity
  8
2
100
AcDbLine
 10
133.2750000000024
 20
14.74998400000004
 30
0.0
 11
133.2750000000024
 21
46.90957599999999
 31
0.0
  0
LINE
  5
594E4
330
593DC
100
AcDbEntity
  8
2
100
AcDbLine
 10
168.2749999999999
 20
11.56895637048254
 30
0.0
 11
168.2749999999999
 21
46.90957599999999
 31
0.0
  0
LINE
  5
594E5
330
593DC
100
AcDbEntity
  8
2
100
AcDbLine
 10
136.7750000000025
 20
45.40957599999998
 30
0.0
 11
164.775
 21
45.40957599999998
 31
0.0
  0
SOLID
  5
594E6
330
593DC
100
AcDbEntity
  8
2
100
AcDbTrace
 10
136.7750000000025
 20
45.99290933333332
 30
0.0
 11
136.7750000000025
 21
44.82624266666665
 31
0.0
 12
133.2750000000024
 22
45.40957599999998
 32
0.0
 13
133.2750000000024
 23
45.40957599999998
 33
0.0
  0
SOLID
  5
594E7
330
593DC
100
AcDbEntity
  8
2
100
AcDbTrace
 10
164.775
 20
45.99290933333332
 30
0.0
 11
164.775
 21
44.82624266666665
 31
0.0
 12
168.2749999999999
 22
45.40957599999998
 32
0.0
 13
168.2749999999999
 23
45.40957599999998
 33
0.0
  0
MTEXT
  5
594E8
330
593DC
100
AcDbEntity
  8
2
100
AcDbMText
 10
150.2750025
 20
49.45957599999998
 30
0.0
 40
3.5
 41
0.0
 71
     5
 72
     1
  1
\A1;35 [1.378"]
  7
simplex
 73
     1
 44
0.892857
1001
ACAD
1000
MTEXTBEGIN
1070
    73
1070
     1
1070
    44
1040
0.892857
1070
    74
1070
     0
1000
MTEXTEND
  0
POINT
  5
594E9
330
593DC
100
AcDbEntity
  8
Defpoints
 62
     0
100
AcDbPoint
 10
133.2750000000024
 20
14.74998400000004
 30
0.0
  0
POINT
  5
594EA
330
593DC
100
AcDbEntity
  8
Defpoints
 62
     0
100
AcDbPoint
 10
168.2749999999999
 20
11.56895637048254
 30
0.0
  0
POINT
  5
594EB
330
593DC
100
AcDbEntity
  8
Defpoints
 62
     0
100
AcDbPoint
 10
168.2749999999999
 20
45.40957599999998
 30
0.0
  0
ENDBLK
  5
593E7
330
593DC
100
AcDbEntity
  8
0
100
AcDbBlockEnd
  0
BLOCK
  5
593F3
330
593E8
100
AcDbEntity
  8
0
100
AcDbBlockBegin
  2
*D56
 70
     1
 10
0.0
 20
0.0
 30
0.0
  3
*D56
  1

  0
LINE
  5
594EC
330
593E8
100
AcDbEntity
  8
sk2
100
AcDbLine
 10
-93.42499999999995
 20
-15.87499999999993
 30
0.0
 11
-124.9169633333333
 21
-15.87499999999992
 31
0.0
  0
LINE
  5
594ED
330
593E8
100
AcDbEntity
  8
sk2
100
AcDbLine
 10
-93.42499999999995
 20
15.87500000000005
 30
0.0
 11
-124.9169633333333
 21
15.87500000000006
 31
0.0
  0
LINE
  5
594EE
330
593E8
100
AcDbEntity
  8
sk2
100
AcDbLine
 10
-123.4169633333333
 20
12.37500000000006
 30
0.0
 11
-123.4169633333333
 21
-12.37499999999992
 31
0.0
  0
LINE
  5
594EF
330
593E8
100
AcDbEntity
  8
sk2
100
AcDbLine
 10
-123.4169633333333
 20
-15.87499999999992
 30
0.0
 11
-123.4169633333333
 21
-67.72499999999992
 31
0.0
  0
SOLID
  5
594F0
330
593E8
100
AcDbEntity
  8
sk2
100
AcDbTrace
 10
-124.0002966666666
 20
12.37500000000006
 30
0.0
 11
-122.8336299999999
 21
12.37500000000006
 31
0.0
 12
-123.4169633333333
 22
15.87500000000006
 32
0.0
 13
-123.4169633333333
 23
15.87500000000006
 33
0.0
  0
SOLID
  5
594F1
330
593E8
100
AcDbEntity
  8
sk2
100
AcDbTrace
 10
-124.0002966666666
 20
-12.37499999999992
 30
0.0
 11
-122.8336299999999
 21
-12.37499999999992
 31
0.0
 12
-123.4169633333333
 22
-15.87499999999992
 32
0.0
 13
-123.4169633333333
 23
-15.87499999999992
 33
0.0
  0
MTEXT
  5
594F2
330
593E8
100
AcDbEntity
  8
sk2
100
AcDbMText
 10
-127.4669633333333
 20
-43.54999999999994
 30
0.0
 40
3.5
 41
0.0
 71
     5
 72
     1
  1
\A1;%%c31.75 [%%C1.250"]
  7
simplex
 11
0.0000000000000001
 21
1.0
 31
0.0
 73
     1
 44
0.892857
1001
ACAD
1000
MTEXTBEGIN
1070
    73
1070
     1
1070
    44
1040
0.892857
1070
    74
1070
     0
1000
MTEXTEND
  0
POINT
  5
594F3
330
593E8
100
AcDbEntity
  8
Defpoints
 62
     0
100
AcDbPoint
 10
-93.42499999999995
 20
-15.87499999999993
 30
0.0
  0
POINT
  5
594F4
330
593E8
100
AcDbEntity
  8
Defpoints
 62
     0
100
AcDbPoint
 10
-93.42499999999995
 20
15.87500000000005
 30
0.0
  0
POINT
  5
594F5
330
593E8
100
AcDbEntity
  8
Defpoints
 62
     0
100
AcDbPoint
 10
-123.4169633333333
 20
15.87500000000006
 30
0.0
  0
ENDBLK
  5
593F4
330
593E8
100
AcDbEntity
  8
0
100
AcDbBlockEnd
  0
BLOCK
  5
593FF
330
593F5
100
AcDbEntity
  8
0
100
AcDbBlockBegin
  2
*D57
 70
     1
 10
0.0
 20
0.0
 30
0.0
  3
*D57
  1

  0
LINE
  5
594F6
330
593F5
100
AcDbEntity
  8
2
100
AcDbLine
 10
168.2749999999999
 20
11.64636622588332
 30
0.0
 11
168.2749999999999
 21
61.91687375734298
 31
0.0
  0
LINE
  5
594F7
330
593F5
100
AcDbEntity
  8
2
100
AcDbLine
 10
0.0
 20
15.87500000000003
 30
0.0
 11
0.0000000000000028
 21
61.91687375734298
 31
0.0
  0
LINE
  5
594F8
330
593F5
100
AcDbEntity
  8
2
100
AcDbLine
 10
164.775
 20
60.41687375734298
 30
0.0
 11
3.500000000000002
 21
60.41687375734298
 31
0.0
  0
SOLID
  5
594F9
330
593F5
100
AcDbEntity
  8
2
100
AcDbTrace
 10
164.775
 20
61.00020709067631
 30
0.0
 11
164.775
 21
59.83354042400964
 31
0.0
 12
168.2749999999999
 22
60.41687375734298
 32
0.0
 13
168.2749999999999
 23
60.41687375734298
 33
0.0
  0
SOLID
  5
594FA
330
593F5
100
AcDbEntity
  8
2
100
AcDbTrace
 10
3.500000000000002
 20
61.00020709067631
 30
0.0
 11
3.500000000000002
 21
59.83354042400964
 31
0.0
 12
0.0000000000000027
 22
60.41687375734298
 32
0.0
 13
0.0000000000000027
 23
60.41687375734298
 33
0.0
  0
MTEXT
  5
594FB
330
593F5
100
AcDbEntity
  8
2
100
AcDbMText
 10
83.63750000000004
 20
64.46687375734298
 30
0.0
 40
3.5
 41
0.0
 71
     5
 72
     1
  1
\A1;168.275 [6.625"]
  7
simplex
 73
     1
 44
1.0
1001
ACAD
1000
MTEXTBEGIN
1070
    73
1070
     1
1070
    44
1040
1.0
1070
    74
1070
     0
1000
MTEXTEND
  0
POINT
  5
594FC
330
593F5
100
AcDbEntity
  8
Defpoints
 62
     0
100
AcDbPoint
 10
168.2749999999999
 20
11.64636622588332
 30
0.0
  0
POINT
  5
594FD
330
593F5
100
AcDbEntity
  8
Defpoints
 62
     0
100
AcDbPoint
 10
0.0
 20
15.87500000000003
 30
0.0
  0
POINT
  5
594FE
330
593F5
100
AcDbEntity
  8
Defpoints
 62
     0
100
AcDbPoint
 10
0.0000000000000027
 20
60.41687375734298
 30
0.0
  0
ENDBLK
  5
59400
330
593F5
100
AcDbEntity
  8
0
100
AcDbBlockEnd
  0
BLOCK
  5
5940B
330
59401
100
AcDbEntity
  8
0
100
AcDbBlockBegin
  2
*D58
 70
     1
 10
0.0
 20
0.0
 30
0.0
  3
*D58
  1

  0
LINE
  5
594FF
330
59401
100
AcDbEntity
  8
sk2
100
AcDbLine
 10
168.2749999999999
 20
11.33672548644156
 30
0.0
 11
168.2749999999999
 21
78.5417680190468
 31
0.0
  0
LINE
  5
59500
330
59401
100
AcDbEntity
  8
sk2
100
AcDbLine
 10
-98.42499999999995
 20
14.17498700000004
 30
0.0
 11
-98.42499999999995
 21
78.5417680190468
 31
0.0
  0
LINE
  5
59501
330
59401
100
AcDbEntity
  8
sk2
100
AcDbLine
 10
164.775
 20
77.04176801904679
 30
0.0
 11
-94.92499999999996
 21
77.04176801904679
 31
0.0
  0
SOLID
  5
59502
330
59401
100
AcDbEntity
  8
sk2
100
AcDbTrace
 10
164.775
 20
77.62510135238013
 30
0.0
 11
164.775
 21
76.45843468571347
 31
0.0
 12
168.2749999999999
 22
77.04176801904679
 32
0.0
 13
168.2749999999999
 23
77.04176801904679
 33
0.0
  0
SOLID
  5
59503
330
59401
100
AcDbEntity
  8
sk2
100
AcDbTrace
 10
-94.92499999999996
 20
77.62510135238013
 30
0.0
 11
-94.92499999999996
 21
76.45843468571347
 31
0.0
 12
-98.42499999999995
 22
77.04176801904679
 32
0.0
 13
-98.42499999999995
 23
77.04176801904679
 33
0.0
  0
MTEXT
  5
59504
330
59401
100
AcDbEntity
  8
sk2
100
AcDbMText
 10
34.42499999999995
 20
81.09176801904679
 30
0.0
 40
3.5
 41
0.0
 71
     5
 72
     1
  1
\A1;266.7 [10.500"]
  7
simplex
 73
     1
 44
1.0
1001
ACAD
1000
MTEXTBEGIN
1070
    73
1070
     1
1070
    44
1040
1.0
1070
    74
1070
     0
1000
MTEXTEND
  0
POINT
  5
59505
330
59401
100
AcDbEntity
  8
Defpoints
 62
     0
100
AcDbPoint
 10
168.2749999999999
 20
11.33672548644156
 30
0.0
  0
POINT
  5
59506
330
59401
100
AcDbEntity
  8
Defpoints
 62
     0
100
AcDbPoint
 10
-98.42499999999995
 20
14.17498700000004
 30
0.0
  0
POINT
  5
59507
330
59401
100
AcDbEntity
  8
Defpoints
 62
     0
100
AcDbPoint
 10
-98.42499999999995
 20
77.04176801904679
 30
0.0
  0
ENDBLK
  5
5940C
330
59401
100
AcDbEntity
  8
0
100
AcDbBlockEnd
  0
BLOCK
  5
5941F
330
59417
100
AcDbEntity
  8
0
100
AcDbBlockBegin
  2
*D60
 70
     1
 10
0.0
 20
0.0
 30
0.0
  3
*D60
  1

  0
LINE
  5
59508
330
59417
100
AcDbEntity
  8
2
100
AcDbLine
 10
165.2750000014762
 20
14.99999999879991
 30
0.0
 11
188.9956053586393
 21
14.9999999987999
 31
0.0
  0
LINE
  5
59509
330
59417
100
AcDbEntity
  8
2
100
AcDbLine
 10
187.4956053586393
 20
-15.00000000000005
 30
0.0
 11
187.4956053586393
 21
11.4999999987999
 31
0.0
  0
SOLID
  5
5950A
330
59417
100
AcDbEntity
  8
2
100
AcDbTrace
 10
186.9122720253059
 20
11.4999999987999
 30
0.0
 11
188.0789386919726
 21
11.4999999987999
 31
0.0
 12
187.4956053586393
 22
14.9999999987999
 32
0.0
 13
187.4956053586393
 23
14.9999999987999
 33
0.0
  0
MTEXT
  5
5950B
330
59417
100
AcDbEntity
  8
2
100
AcDbMText
 10
183.4456053586393
 20
-4.622641836083587
 30
0.0
 40
3.5
 41
0.0
 71
     5
 72
     1
  1
\A1;%%c30 [%%c1.181"]
  7
simplex
 11
0.0000000000000001
 21
1.0
 31
0.0
 73
     1
 44
1.0
1001
ACAD
1000
MTEXTBEGIN
1070
    73
1070
     1
1070
    44
1040
1.0
1070
    74
1070
     0
1000
MTEXTEND
  0
POINT
  5
5950C
330
59417
100
AcDbEntity
  8
Defpoints
 62
     0
100
AcDbPoint
 10
153.2750000014761
 20
-15.00000000000004
 30
0.0
  0
POINT
  5
5950D
330
59417
100
AcDbEntity
  8
Defpoints
 62
     0
100
AcDbPoint
 10
165.2750000014762
 20
14.99999999879991
 30
0.0
  0
POINT
  5
5950E
330
59417
100
AcDbEntity
  8
Defpoints
 62
     0
100
AcDbPoint
 10
187.4956053586393
 20
14.9999999987999
 30
0.0
  0
ENDBLK
  5
59420
330
59417
100
AcDbEntity
  8
0
100
AcDbBlockEnd
  0
BLOCK
  5
59484
330
5947C
100
AcDbEntity
  8
0
100
AcDbBlockBegin
  2
*D64
 70
     1
 10
0.0
 20
0.0
 30
0.0
  3
*D64
  1

  0
LINE
  5
59516
330
5947C
100
AcDbEntity
  8
2
100
AcDbLine
 10
196.7873855925915
 20
45.11220249872815
 30
0.0
 11
170.0447519271462
 21
16.70213698642129
 31
0.0
  0
MTEXT
  5
59517
330
5947C
100
AcDbEntity
  8
2
100
AcDbMText
 10
181.6665303640471
 20
34.95736916995422
 30
0.0
 40
3.5
 41
0.0
 71
     5
 72
     1
  1
\A1;R2 [R.079"]
  7
simplex
 11
0.685415642856352
 21
0.7281520421778779
 31
0.0
 73
     1
 44
1.0
1001
ACAD
1000
MTEXTBEGIN
1070
    73
1070
     1
1070
    44
1040
1.0
1070
    74
1070
     0
1000
MTEXTEND
  0
SOLID
  5
59518
330
5947C
100
AcDbEntity
  8
2
100
AcDbTrace
 10
169.6199965692091
 20
17.1019627780875
 30
0.0
 11
170.4695072850833
 21
16.30231119475509
 31
0.0
 12
167.645797177149
 22
14.15360483879871
 32
0.0
 13
167.645797177149
 23
14.15360483879871
 33
0.0
  0
LINE
  5
59519
330
5947C
100
AcDbEntity
  8
2
100
AcDbLine
 10
166.184965891436
 20
12.69730075444272
 30
0.0
 11
166.364965891436
 21
12.69730075444272
 31
0.0
  0
LINE
  5
5951A
330
5947C
100
AcDbEntity
  8
2
100
AcDbLine
 10
166.274965891436
 20
12.60730075444272
 30
0.0
 11
166.274965891436
 21
12.78730075444272
 31
0.0
  0
POINT
  5
5951B
330
5947C
100
AcDbEntity
  8
Defpoints
 62
     0
100
AcDbPoint
 10
167.645797177149
 20
14.15360483879871
 30
0.0
  0
POINT
  5
5951C
330
5947C
100
AcDbEntity
  8
Defpoints
 62
     0
100
AcDbPoint
 10
166.274965891436
 20
12.69730075444272
 30
0.0
  0
ENDBLK
  5
59485
330
5947C
100
AcDbEntity
  8
0
100
AcDbBlockEnd
  0
ENDSEC
  0
SECTION
  2
ENTITIES
  0
INSERT
  5
68C
330
1F
100
AcDbEntity
  8
0
100
AcDbBlockReference
  2
zero block
 10
0.0
 20
0.0
 30
0.0
  0
MTEXT
  5
58C93
330
1F
100
AcDbEntity
  8
sk6
100
AcDbMText
 10
-94.42777190166044
 20
109.3738164937135
 30
0.0
 40
5.0
 41
70.03712541027798
 71
     1
 72
     5
  1
SRFU20S20L\PSUFT30R20
  7
simplex
 73
     1
 44
1.0
1001
ACAD
1000
ACAD_MTEXT_DEFINED_HEIGHT_BEGIN
1070
    46
1040
0.0
1000
ACAD_MTEXT_DEFINED_HEIGHT_END
1000
MTEXTBEGIN
1070
    73
1070
     1
1070
    44
1040
1.0
1070
    74
1070
     0
1000
MTEXTEND
  0
DIMENSION
  5
59203
330
1F
100
AcDbEntity
  8
2
100
AcDbDimension
  2
*D54
 10
72.87298558939006
 20
14.75000000000006
 30
0.0
 11
72.87298558939006
 21
-40.38333333333326
 31
0.0
 70
   160
  1
%%C<>
 71
     5
 42
29.5
  3
\M+18352\M+18373\M+1815B - ISO-25
100
AcDbAlignedDimension
 13
89.09663672056046
 23
-14.74999999999994
 33
0.0
 14
89.09663672056046
 24
14.75000000000006
 34
0.0
 50
270.0
100
AcDbRotatedDimension
1001
ACAD
1000
DSTYLE
1002
{
1070
     4
1000
%%C[]"
1070
    40
1040
1.0
1070
   143
1040
0.03937
1070
   170
1070
     1
1070
   171
1070
     3
1070
   271
1070
     8
1070
   285
1070
     4
1002
}
  0
DIMENSION
  5
59204
330
1F
100
AcDbEntity
  8
2
100
AcDbDimension
  2
*D55
 10
168.2749999999999
 20
45.40957599999998
 30
0.0
 11
150.2750025
 21
45.40957599999998
 31
0.0
 70
   160
 71
     5
 41
0.892857
 42
34.9999999999975
  3
\M+18352\M+18373\M+1815B - ISO-25
100
AcDbAlignedDimension
 13
133.2750000000024
 23
14.74998400000004
 33
0.0
 14
168.2749999999999
 24
11.56895637048254
 34
0.0
 50
180.0
100
AcDbRotatedDimension
1001
ACAD
1000
DSTYLE
1002
{
1070
     4
1000
"
1070
    40
1040
1.0
1070
   143
1040
0.03937
1070
   170
1070
     1
1070
   171
1070
     3
1070
   271
1070
     8
1070
   285
1070
     4
1002
}
  0
DIMENSION
  5
59205
330
1F
100
AcDbEntity
  8
sk2
100
AcDbDimension
  2
*D56
 10
-123.4169633333333
 20
15.87500000000006
 30
0.0
 11
-123.4169633333333
 21
-43.54999999999994
 31
0.0
 70
   160
  1
%%c<>
 71
     5
 41
0.892857
 42
31.74999999999999
  3
\M+18352\M+18373\M+1815B - ISO-25
100
AcDbAlignedDimension
 13
-93.42499999999995
 23
-15.87499999999993
 33
0.0
 14
-93.42499999999995
 24
15.87500000000005
 34
0.0
 50
270.0
100
AcDbRotatedDimension
1001
ACAD
1000
DSTYLE
1002
{
1070
     4
1000
%%C[]"
1070
    40
1040
1.0
1070
   143
1040
0.03937
1070
   170
1070
     1
1070
   171
1070
     3
1070
   271
1070
     8
1070
   285
1070
     4
1002
}
  0
ARC
  5
59206
330
1F
100
AcDbEntity
  8
1
100
AcDbCircle
 10
2.367649000000028
 20
17.74998400000001
 30
0.0
 40
3.0
100
AcDbArc
 50
225.0000459999994
 51
270.0000089999996
  0
ARC
  5
59207
330
1F
100
AcDbEntity
  8
1
100
AcDbCircle
 10
2.367649000000028
 20
-17.75003099999996
 30
0.0
 40
3.0
100
AcDbArc
 50
89.99999100000039
 51
134.9999540000006
  0
LINE
  5
59208
330
1F
100
AcDbEntity
  8
1
100
AcDbLine
 10
133.2750049999999
 20
-14.75003099999998
 30
0.0
 11
133.2750000000024
 21
14.74998400000004
 31
0.0
  0
LINE
  5
59209
330
1F
100
AcDbEntity
  8
1
100
AcDbLine
 10
0.0
 20
15.87500000000003
 30
0.0
 11
0.2463310000000547
 21
15.62867600000001
 31
0.0
  0
LINE
  5
5920A
330
1F
100
AcDbEntity
  8
1
100
AcDbLine
 10
0.0000079999999798
 20
-15.87501999999999
 30
0.0
 11
0.2463350000000446
 21
-15.62869399999998
 31
0.0
  0
LINE
  5
5920B
330
1F
100
AcDbEntity
  8
sk1
100
AcDbLine
 10
-93.42499999999995
 20
-15.87499999999993
 30
0.0
 11
0.0000029999999924
 21
-15.87499999999993
 31
0.0
  0
LINE
  5
5920C
330
1F
100
AcDbEntity
  8
sk1
100
AcDbLine
 10
-93.42499999999995
 20
15.87500000000005
 30
0.0
 11
0.0
 21
15.87500000000003
 31
0.0
  0
LINE
  5
5920D
330
1F
100
AcDbEntity
  8
sk4
100
AcDbLine
 10
-107.3780029999999
 20
0.0000000000000853
 30
0.0
 11
0.0
 21
0.0000000000000568
 31
0.0
  0
LINE
  5
5920E
330
1F
100
AcDbEntity
  8
4
100
AcDbLine
 10
0.0
 20
0.0000000000000568
 30
0.0
 11
176.8308369999999
 21
0.0000000000000284
 31
0.0
  0
LINE
  5
5920F
330
1F
100
AcDbEntity
  8
1
100
AcDbLine
 10
2.362436441120848
 20
-14.74999999999993
 30
0.0
 11
133.2751960554173
 21
-14.74999999999994
 31
0.0
  0
LINE
  5
59210
330
1F
100
AcDbEntity
  8
1
100
AcDbLine
 10
2.377446945919245
 20
14.75000000000006
 30
0.0
 11
133.2750000000024
 21
14.74998400000004
 31
0.0
  0
LINE
  5
59211
330
1F
100
AcDbEntity
  8
1
100
AcDbLine
 10
1.125002999999992
 20
14.88474712723558
 30
0.0
 11
1.125002999999992
 21
-14.88474712723544
 31
0.0
  0
LINE
  5
59212
330
1F
100
AcDbEntity
  8
sk1
100
AcDbLine
 10
-97.22498699999995
 20
15.37498400000001
 30
0.0
 11
-93.42499999999995
 21
15.37498400000001
 31
0.0
  0
LINE
  5
59213
330
1F
100
AcDbEntity
  8
sk1
100
AcDbLine
 10
-93.42499999999995
 20
-15.37499999999993
 30
0.0
 11
-97.22498699999995
 21
-15.37499999999991
 31
0.0
  0
LINE
  5
59214
330
1F
100
AcDbEntity
  8
sk1
100
AcDbLine
 10
-97.22498699999995
 20
15.37498400000001
 30
0.0
 11
-97.22498699999995
 21
-15.37499999999991
 31
0.0
  0
LINE
  5
59215
330
1F
100
AcDbEntity
  8
sk1
100
AcDbLine
 10
-98.42499999999995
 20
-14.17501899999999
 30
0.0
 11
-98.42499999999995
 21
14.17498700000004
 31
0.0
  0
LINE
  5
59216
330
1F
100
AcDbEntity
  8
1
100
AcDbLine
 10
0.0
 20
-15.87499999999993
 30
0.0
 11
0.0
 21
15.8750000000027
 31
0.0
  0
LINE
  5
59217
330
1F
100
AcDbEntity
  8
sk1
100
AcDbLine
 10
-98.42500800000005
 20
-14.17502199999993
 30
0.0
 11
-97.225009
 21
-15.37502199999997
 31
0.0
  0
LINE
  5
59218
330
1F
100
AcDbEntity
  8
sk1
100
AcDbLine
 10
-98.42499999999995
 20
14.17498700000004
 30
0.0
 11
-97.22501099999995
 21
15.37497700000003
 31
0.0
  0
LINE
  5
59219
330
1F
100
AcDbEntity
  8
sk1
100
AcDbLine
 10
-93.42499999999995
 20
-15.87499999999993
 30
0.0
 11
-93.42499999999995
 21
15.87498400000001
 31
0.0
  0
DIMENSION
  5
5921A
330
1F
100
AcDbEntity
  8
2
100
AcDbDimension
  2
*D57
 10
0.0000000000000027
 20
60.41687375734298
 30
0.0
 11
83.63750000000004
 21
60.41687375734298
 31
0.0
 70
   160
 71
     5
 42
168.2749999999999
  3
\M+18352\M+18373\M+1815B - ISO-25
100
AcDbAlignedDimension
 13
168.2749999999999
 23
11.64636622588332
 33
0.0
 14
0.0
 24
15.87500000000003
 34
0.0
 50
180.0
100
AcDbRotatedDimension
1001
ACAD
1000
DSTYLE
1002
{
1070
     4
1000
"
1070
    40
1040
1.0
1070
   143
1040
0.03937
1070
   170
1070
     1
1070
   171
1070
     3
1070
   271
1070
     8
1070
   285
1070
     4
1002
}
  0
DIMENSION
  5
5921B
330
1F
100
AcDbEntity
  8
sk2
100
AcDbDimension
  2
*D58
 10
-98.42499999999995
 20
77.04176801904679
 30
0.0
 11
34.42499999999995
 21
77.04176801904679
 31
0.0
 70
   160
 71
     5
 42
266.6999999999999
  3
\M+18352\M+18373\M+1815B - ISO-25
100
AcDbAlignedDimension
 13
168.2749999999999
 23
11.33672548644156
 33
0.0
 14
-98.42499999999995
 24
14.17498700000004
 34
0.0
 50
180.0
100
AcDbRotatedDimension
1001
ACAD
1000
DSTYLE
1002
{
1070
     4
1000
"
1070
    40
1040
1.0
1070
   143
1040
0.03937
1070
   170
1070
     1
1070
   171
1070
     3
1070
   271
1070
     8
1070
   285
1070
     4
1002
}
  0
SPLINE
  5
5921D
330
1F
100
AcDbEntity
  8
1
100
AcDbSpline
210
0.0
220
0.0
230
1.0
 70
     8
 71
     3
 72
    10
 73
     6
 74
     4
 42
0.0000000001
 43
0.0000000001
 44
0.000001
 12
0.9964403109017972
 22
-0.0843012859328368
 32
0.0
 13
0.9804329779411416
 23
-0.1968531832749092
 33
0.0
 40
0.0
 40
0.0
 40
0.0
 40
0.0
 40
0.3904600840320484
 40
0.8329409188725607
 40
1.318419721001468
 40
1.318419721001468
 40
1.318419721001468
 40
1.318419721001468
 10
139.5662647705112
 20
13.98489826782688
 30
0.0
 10
139.6959548263537
 20
13.97392617209709
 30
0.0
 10
139.9722331105424
 20
13.94514180007101
 30
0.0
 10
140.4064896325676
 20
13.87689551660864
 30
0.0
 10
140.7108581351065
 20
13.82156385400989
 30
0.0
 10
140.8695179443393
 20
13.78970783813938
 30
0.0
 11
139.5662647705112
 21
13.98489826782688
 31
0.0
 11
139.9545551757846
 21
13.94379109009247
 31
0.0
 11
140.3920361022983
 21
13.87746113403784
 31
0.0
 11
140.8695179443393
 21
13.78970783813938
 31
0.0
  0
SPLINE
  5
5921E
330
1F
100
AcDbEntity
  8
1
100
AcDbSpline
210
0.0
220
0.0
230
1.0
 70
     8
 71
     3
 72
    64
 73
    60
 74
    58
 42
0.0000000001
 43
0.0000000001
 44
0.000001
 12
-0.9999999973171489
 22
-0.0000732509547234
 32
0.0
 13
0.9999999692115709
 23
-0.0002481468458461
 33
0.0
 40
0.0
 40
0.0
 40
0.0
 40
0.0
 40
0.428965880974421
 40
0.8559538303388503
 40
1.284491052860162
 40
1.601613560749464
 40
1.925668852646845
 40
2.237368283583065
 40
2.559384035366927
 40
2.911456355457897
 40
3.276246422857157
 40
3.635145995809036
 40
3.993136232622692
 40
4.348719728251029
 40
4.702727009608497
 40
5.065446297871767
 40
5.42530661019502
 40
5.78448958400402
 40
6.142659560215526
 40
6.503722220762877
 40
6.858229191089408
 40
7.218552298721661
 40
7.572965720152752
 40
8.001898735968769
 40
8.425686335389055
 40
8.847874542784756
 40
9.484275499669159
 40
10.12720823242499
 40
10.55605880400414
 40
10.98262357088426
 40
11.40933947678366
 40
11.72639251193146
 40
12.04830208145628
 40
12.36369627863015
 40
12.6865215459108
 40
13.15308738689579
 40
13.61900290870647
 40
14.0942775082497
 40
14.28127395607175
 40
14.46263854557988
 40
14.64548764780102
 40
14.8294162785041
 40
15.00426205769659
 40
15.19799106108229
 40
15.45300955474753
 40
15.67747938924848
 40
15.90117200214303
 40
16.13058802641431
 40
16.36873581587658
 40
16.60278359773977
 40
16.87728378190168
 40
17.15332335910154
 40
17.43312022972963
 40
17.70142608954088
 40
18.12841281941703
 40
18.55176713121176
 40
18.97602160971072
 40
19.61557017222252
 40
20.25988153604464
 40
20.25988153604464
 40
20.25988153604464
 40
20.25988153604464
 10
152.1209713439975
 20
6.441319166264378
 30
0.0
 10
151.9779827173897
 20
6.441308692210924
 30
0.0
 10
151.6925709714771
 20
6.431854621925651
 30
0.0
 10
151.2662432801231
 20
6.389192831477259
 30
0.0
 10
150.8804223936367
 20
6.324616747551942
 30
0.0
 10
150.5326138190656
 20
6.2454476220243
 30
0.0
 10
150.2266582393825
 20
6.159629462271482
 30
0.0
 10
149.9237781223814
 20
6.058305309639933
 30
0.0
 10
149.6175093334666
 20
5.938873954402936
 30
0.0
 10
149.3017501735864
 20
5.796273908927759
 30
0.0
 10
148.9834633592102
 20
5.630694319508506
 30
0.0
 10
148.6732997158294
 20
5.446477423464529
 30
0.0
 10
148.3763647174919
 20
5.247077780638051
 30
0.0
 10
148.0922149075105
 20
5.032543993818535
 30
0.0
 10
147.8191239703462
 20
4.801654778877036
 30
0.0
 10
147.5581933736978
 20
4.555009657600322
 30
0.0
 10
147.3103268531234
 20
4.292863720044579
 30
0.0
 10
147.0784140629611
 20
4.018488393566173
 30
0.0
 10
146.8618785036681
 20
3.731320916919855
 30
0.0
 10
146.6625550102242
 20
3.433820589900562
 30
0.0
 10
146.4796458171804
 20
3.12513185697378
 30
0.0
 10
146.3151672641946
 20
2.808725861511106
 30
0.0
 10
146.1582441305172
 20
2.461096090438303
 30
0.0
 10
146.0151575682848
 20
2.084691908576928
 30
0.0
 10
145.890626176402
 20
1.67805404674587
 30
0.0
 10
145.7771495151997
 20
1.196801803495958
 30
0.0
 10
145.6925172237532
 20
0.6350065935457394
 30
0.0
 10
145.663865030346
 20
0.06534412258668
 30
0.0
 10
145.6802770771294
 20
-0.4341743453968263
 30
0.0
 10
145.7226215459636
 20
-0.8597647500325535
 30
0.0
 10
145.7868695384588
 20
-1.244849339032498
 30
0.0
 10
145.8654462632896
 20
-1.591413730699827
 30
0.0
 10
145.9511225809464
 20
-1.897917549032541
 30
0.0
 10
146.0524036767123
 20
-2.20164804930232
 30
0.0
 10
146.1861238476251
 20
-2.544926535534159
 30
0.0
 10
146.3617007454163
 20
-2.925171716157365
 30
0.0
 10
146.588888452633
 20
-3.336204561217869
 30
0.0
 10
146.7945170081267
 20
-3.65152394396722
 30
0.0
 10
146.9600337430026
 20
-3.878900598855977
 30
0.0
 10
147.0723742201862
 20
-4.024325483698248
 30
0.0
 10
147.1881415919015
 20
-4.165715388731769
 30
0.0
 10
147.3064477362396
 20
-4.302125702847746
 30
0.0
 10
147.4309671771316
 20
-4.437849123428208
 30
0.0
 10
147.5757913053396
 20
-4.586999859731349
 30
0.0
 10
147.7377066309913
 20
-4.74246527304902
 30
0.0
 10
147.9127174265594
 20
-4.898455298992246
 30
0.0
 10
148.0864844117641
 20
-5.042809506040526
 30
0.0
 10
148.2688110472097
 20
-5.183777912959243
 30
0.0
 10
148.4589502798901
 20
-5.320041146481941
 30
0.0
 10
148.6664498106872
 20
-5.457594001558106
 30
0.0
 10
148.8900695348712
 20
-5.593367246508989
 30
0.0
 10
149.1326020317722
 20
-5.726896300850967
 30
0.0
 10
149.3788300117213
 20
-5.848917941372803
 30
0.0
 10
149.6760202814953
 20
-5.980736855393047
 30
0.0
 10
150.0247795792083
 20
-6.113492765461046
 30
0.0
 10
150.4312406296919
 20
-6.238230174567576
 30
0.0
 10
150.913998475509
 20
-6.352305827922918
 30
0.0
 10
151.4779469095567
 20
-6.4373135943502
 30
0.0
 10
151.9061970813054
 20
-6.458621435609103
 30
0.0
 10
152.1209675293003
 20
-6.458674730219996
 30
0.0
 11
152.1209713439975
 21
6.441319166264378
 31
0.0
 11
151.6922413330112
 21
6.427067457280003
 31
0.0
 11
151.2673717956577
 21
6.384586988530003
 31
0.0
 11
150.8447185974155
 21
6.313816724858128
 31
0.0
 11
150.5355030517612
 21
6.243443189701878
 31
0.0
 11
150.2234913330112
 21
6.155918775639378
 31
0.0
 11
149.9278904418979
 21
6.057041822514378
 31
0.0
 11
149.6278835754428
 21
5.940037427983185
 31
0.0
 11
149.3070103149448
 21
5.795139967045628
 31
0.0
 11
148.98339810181
 21
5.626774488530003
 31
0.0
 11
148.6748119812046
 21
5.443516431889378
 31
0.0
 11
148.3776203613315
 21
5.243931470951878
 31
0.0
 11
148.0938412170444
 21
5.029667554936253
 31
0.0
 11
147.8234936218296
 21
4.801121412358128
 31
0.0
 11
147.5599094848667
 21
4.551945386967503
 31
0.0
 11
147.3126636962923
 21
4.290470777592446
 31
0.0
 11
147.0808025817905
 21
4.016148267826878
 31
0.0
 11
146.865161560062
 21
3.730168043217503
 31
0.0
 11
146.6641842346225
 21
3.430210767826878
 31
0.0
 11
146.4834782104526
 21
3.125218092045628
 31
0.0
 11
146.3172756652866
 21
2.805515943608128
 31
0.0
 11
146.1714626770053
 21
2.482487379155003
 31
0.0
 11
146.0190464477573
 21
2.08154743774881
 31
0.0
 11
145.8949543457065
 21
1.676335035405003
 31
0.0
 11
145.7980610351596
 21
1.265415845951878
 31
0.0
 11
145.7032772522007
 21
0.6361128674362533
 31
0.0
 11
145.6709667663608
 21
-0.0060074938918717
 31
0.0
 11
145.6850468139682
 21
-0.4346268786575536
 31
0.0
 11
145.727279327396
 21
-0.8590958727981217
 31
0.0
 11
145.7975002746616
 21
-1.279994310298121
 31
0.0
 11
145.8676105957065
 21
-1.589198411860621
 31
0.0
 11
145.9542614440952
 21
-1.899226488032496
 31
0.0
 11
146.0540424804721
 21
-2.198420823969996
 31
0.0
 11
146.1712109069858
 21
-2.499232591548121
 31
0.0
 11
146.366813323978
 21
-2.922816575923121
 31
0.0
 11
146.5921932678257
 21
-3.330592454829371
 31
0.0
 11
146.8518101196323
 21
-3.728694261469996
 31
0.0
 11
146.9618603210483
 21
-3.879878343501189
 31
0.0
 11
147.0727383117709
 21
-4.023402513423121
 31
0.0
 11
147.1885715942417
 21
-4.164882005610621
 31
0.0
 11
147.3090855102573
 21
-4.303828538813746
 31
0.0
 11
147.4272800903354
 21
-4.432673753657553
 31
0.0
 11
147.5622478942905
 21
-4.571650804438689
 31
0.0
 11
147.7461887817415
 21
-4.748286546626246
 31
0.0
 11
147.913760803226
 21
-4.897639573969996
 31
0.0
 11
148.0858227233921
 21
-5.040583909907553
 31
0.0
 11
148.2673222045932
 21
-5.180903734126246
 31
0.0
 11
148.4608875732456
 21
-5.319636644282496
 31
0.0
 11
148.6559750061069
 21
-5.448939622798121
 31
0.0
 11
148.890597961429
 21
-5.591426195063746
 31
0.0
 11
149.1324192504917
 21
-5.724543870844996
 31
0.0
 11
149.3831211547886
 21
-5.848780931391871
 31
0.0
 11
149.6283794860874
 21
-5.957576097407553
 31
0.0
 11
150.0274387817417
 21
-6.109462083735621
 31
0.0
 11
150.4321629028354
 21
-6.233668626704371
 31
0.0
 11
150.8450466613802
 21
-6.331233323969996
 31
0.0
 11
151.4774586181673
 21
-6.426509202876246
 31
0.0
 11
152.1209675293003
 21
-6.458674730219996
 31
0.0
  0
SPLINE
  5
5921F
330
1F
100
AcDbEntity
  8
1
100
AcDbSpline
210
0.0
220
0.0
230
1.0
 70
     8
 71
     3
 72
    11
 73
     7
 74
     0
 42
0.0000000001
 43
0.0000000001
 40
0.0
 40
0.0
 40
0.0
 40
0.0
 40
0.7930666274576284
 40
1.617277665925309
 40
2.481404274262184
 40
3.020484110757303
 40
3.020484110757303
 40
3.020484110757303
 40
3.020484110757303
 10
141.8491856079135
 20
13.57790058716279
 30
0.0
 10
142.1065761078244
 20
13.51761805736677
 30
0.0
 10
142.6306067945886
 20
13.39096264100806
 30
0.0
 10
143.431311071919
 20
13.18343052318047
 30
0.0
 10
144.1478784617054
 20
12.98897005253101
 30
0.0
 10
144.5983135560553
 20
12.86292384014342
 30
0.0
 10
144.7712301226183
 20
12.81403852756179
 30
0.0
  0
SPLINE
  5
59220
330
1F
100
AcDbEntity
  8
1
100
AcDbSpline
210
0.0
220
0.0
230
1.0
 70
     8
 71
     3
 72
    13
 73
     9
 74
     0
 42
0.0000000001
 43
0.0000000001
 40
3.020484110757303
 40
3.020484110757303
 40
3.020484110757303
 40
3.020484110757303
 40
3.373101059755161
 40
4.271813753383002
 40
5.192266625133706
 40
6.668884796836307
 40
8.17051594639247
 40
9.701007097296356
 40
9.701007097296356
 40
9.701007097296356
 40
9.701007097296356
 10
144.7712301226183
 20
12.81403852756179
 30
0.0
 10
144.8843363974311
 20
12.78206220679007
 30
0.0
 10
145.2855181154209
 20
12.6678877121366
 30
0.0
 10
145.98067110651
 20
12.4657917919184
 30
0.0
 10
147.0334495601339
 20
12.15181210775364
 30
0.0
 10
148.2759186636801
 20
11.77077058375087
 30
0.0
 10
149.7092798612652
 20
11.31882277075414
 30
0.0
 10
150.6712790574975
 20
11.00881639029378
 30
0.0
 10
151.1563106994663
 20
10.85066670044406
 30
0.0
  0
SPLINE
  5
59221
330
1F
100
AcDbEntity
  8
1
100
AcDbSpline
210
0.0
220
0.0
230
1.0
 70
     8
 71
     3
 72
    42
 73
    38
 74
    36
 42
0.0000000001
 43
0.0000000001
 44
0.000001
 12
0.9396724172213344
 22
-0.3420756470627722
 32
0.0
 13
0.4450074971865884
 23
-0.8955268435104157
 33
0.0
 40
0.0
 40
0.0
 40
0.0
 40
0.0
 40
0.5126165463577403
 40
1.031346463841959
 40
1.558895901335882
 40
2.091343862567062
 40
2.638658657616581
 40
3.189745447560044
 40
3.747610955635575
 40
4.307944382075358
 40
4.879036264367535
 40
5.451292272577764
 40
6.027963419202926
 40
6.604367544960772
 40
7.192196919866582
 40
7.778190047544534
 40
8.365835939033892
 40
8.949905291042632
 40
9.510007486560343
 40
10.06515653070496
 40
10.61847782301419
 40
11.16504556331785
 40
11.71632035518872
 40
12.25856732739684
 40
12.79503054108252
 40
13.32012269471084
 40
13.79786984571389
 40
14.26381122998155
 40
14.87690858324535
 40
15.46410191346513
 40
16.02149893846928
 40
16.42743746401781
 40
16.81315782153436
 40
17.21081315254936
 40
17.580930286444
 40
17.92616327599312
 40
18.23962229676394
 40
18.23962229676394
 40
18.23962229676394
 40
18.23962229676394
 10
152.2750088195835
 20
10.46518391235813
 30
0.0
 10
152.4355726959913
 20
10.40673270009466
 30
0.0
 10
152.7573858567735
 20
10.28572178707747
 30
0.0
 10
153.2397506441948
 20
10.09238013320163
 30
0.0
 10
153.7239738755293
 20
9.886221376551787
 30
0.0
 10
154.2123774612224
 20
9.66586848063622
 30
0.0
 10
154.7030254766624
 20
9.431711849645353
 30
0.0
 10
155.1961008008347
 20
9.183264653339136
 30
0.0
 10
155.6875292527705
 20
8.922192777018238
 30
0.0
 10
156.1791029512301
 20
8.647453414946141
 30
0.0
 10
156.6687526619713
 20
8.359708732838356
 30
0.0
 10
157.1567572434113
 20
8.058676633019899
 30
0.0
 10
157.6396311840853
 20
7.746208966057338
 30
0.0
 10
158.1200261363683
 20
7.420599970704643
 30
0.0
 10
158.595845381757
 20
7.08293865044132
 30
0.0
 10
159.0673017830861
 20
6.732889416998091
 30
0.0
 10
159.5301053045407
 20
6.37351878050461
 30
0.0
 10
159.9785006507393
 20
6.009876671112067
 30
0.0
 10
160.4109013282092
 20
5.643914631003752
 30
0.0
 10
160.8281788284777
 20
5.276124684973297
 30
0.0
 10
161.2346054529796
 20
4.903018062245621
 30
0.0
 10
161.6326128001247
 20
4.522811895623021
 30
0.0
 10
162.0202695793291
 20
4.137273342607215
 30
0.0
 10
162.3978240155367
 20
3.746508317899468
 30
0.0
 10
162.7615425773811
 20
3.354660520114151
 30
0.0
 10
163.103146118614
 20
2.971758936968143
 30
0.0
 10
163.4221033502192
 20
2.60028215315782
 30
0.0
 10
163.7529336042784
 20
2.200449638742981
 30
0.0
 10
164.0978244861662
 20
1.765022401311711
 30
0.0
 10
164.4502652556582
 20
1.2969130187995
 30
0.0
 10
164.7508911743669
 20
0.8764255175105972
 30
0.0
 10
165.0040690118518
 20
0.5047496208692622
 30
0.0
 10
165.2207470606267
 20
0.172733701288422
 30
0.0
 10
165.4238935948268
 20
-0.1537592336830755
 30
0.0
 10
165.6122745367363
 20
-0.4734171875210223
 30
0.0
 10
165.7787803753713
 20
-0.7732746028269446
 30
0.0
 10
165.879226489083
 20
-0.9685589975835
 30
0.0
 10
165.925723693851
 20
-1.062129320063746
 30
0.0
 11
152.2750088195835
 21
10.46518391235813
 31
0.0
 11
152.7548138122593
 21
10.284733472905
 31
0.0
 11
153.2363239746128
 21
10.09178608520969
 31
0.0
 11
153.7217213134798
 21
9.885151563725287
 31
0.0
 11
154.2070690612827
 21
9.666203199467503
 31
0.0
 11
154.7010303955112
 21
9.430500684819065
 31
0.0
 11
155.1931759338413
 21
9.182530103764378
 31
0.0
 11
155.6858555297885
 21
8.920841871342446
 31
0.0
 11
156.1749760131869
 21
8.64746540649881
 31
0.0
 11
156.6673656921421
 21
8.358158765873753
 31
0.0
 11
157.1544071655307
 21
8.057713209233185
 31
0.0
 11
157.6385723571811
 21
7.744450269780003
 31
0.0
 11
158.115707061771
 21
7.421055494389378
 31
0.0
 11
158.5951038818393
 21
7.080876051030003
 31
0.0
 11
159.0655857543979
 21
6.731541334233185
 31
0.0
 11
159.5297543029819
 21
6.371159254155003
 31
0.0
 11
159.9833752136264
 21
6.003239332280003
 31
0.0
 11
160.410930297855
 21
5.641422926030003
 31
0.0
 11
160.8273807983432
 21
5.274326978764378
 31
0.0
 11
161.2350040893589
 21
4.900150953373753
 31
0.0
 11
161.6302029113803
 21
4.52258747681131
 31
0.0
 11
162.0210873107944
 21
4.133854566655003
 31
0.0
 11
162.3978420715366
 21
3.743870435795628
 31
0.0
 11
162.7628017883335
 21
3.350681959233185
 31
0.0
 11
163.1123424987827
 21
2.958836256108128
 31
0.0
 11
163.4235416870151
 21
2.596348463139378
 31
0.0
 11
163.7205502014194
 21
2.237339674076878
 31
0.0
 11
164.1011578063999
 21
1.756687818608128
 31
0.0
 11
164.4542423706087
 21
1.287510572514378
 31
0.0
 11
164.7782513122592
 21
0.8339583264206282
 31
0.0
 11
165.0067211608921
 21
0.4984175549362533
 31
0.0
 11
165.2174183349643
 21
0.1753279553268783
 31
0.0
 11
165.4273296813999
 21
-0.1624100817824967
 31
0.0
 11
165.6150661926304
 21
-0.4813798083449968
 31
0.0
 11
165.7822300415073
 21
-0.7834427966262468
 31
0.0
 11
165.925723693851
 21
-1.062129320063746
 31
0.0
  0
SPLINE
  5
59222
330
1F
100
AcDbEntity
  8
1
100
AcDbSpline
210
0.0
220
0.0
230
1.0
 70
     8
 71
     3
 72
    29
 73
    25
 74
    23
 42
0.0000000001
 43
0.0000000001
 44
0.000001
 12
0.9999998140644615
 22
0.0006098123011687
 32
0.0
 13
0.0809064511576216
 23
0.9967216994533025
 33
0.0
 40
0.0
 40
0.0
 40
0.0
 40
0.0
 40
0.9238052355773909
 40
1.850765273727766
 40
2.778799003477974
 40
3.705761590230363
 40
4.629571175049475
 40
5.553385807955566
 40
6.480360366061518
 40
7.408411186423963
 40
8.335373179514993
 40
9.259193164994458
 40
10.18277295459144
 40
11.10953656933927
 40
12.03735855512749
 40
12.9640970086087
 40
13.88765509522592
 40
14.81009388561924
 40
15.73572674800783
 40
16.66243536657701
 40
17.58797447159375
 40
18.51035000622949
 40
19.42074852905451
 40
20.33116767011329
 40
20.33116767011329
 40
20.33116767011329
 40
20.33116767011329
 10
152.2750088195835
 20
-13.56985026732937
 30
0.0
 10
152.5829438408532
 20
-13.56966248473053
 30
0.0
 10
153.2000634933643
 20
-13.54859693155998
 30
0.0
 10
154.1221690457669
 20
-13.45411379417209
 30
0.0
 10
155.0370123198725
 20
-13.2983490239966
 30
0.0
 10
155.9384190714256
 20
-13.08220994018993
 30
0.0
 10
156.821899756045
 20
-12.8062150131513
 30
0.0
 10
157.6842134588035
 20
-12.46986352952345
 30
0.0
 10
158.5231498578903
 20
-12.07557933248189
 30
0.0
 10
159.3348416727406
 20
-11.62572466134946
 30
0.0
 10
160.1138948035911
 20
-11.12338485897447
 30
0.0
 10
160.8561101790144
 20
-10.5704924960022
 30
0.0
 10
161.5583161856075
 20
-9.967700940020222
 30
0.0
 10
162.2191610418641
 20
-9.317976039224959
 30
0.0
 10
162.835922592364
 20
-8.624859716055397
 30
0.0
 10
163.4043861101762
 20
-7.892957757314576
 30
0.0
 10
163.9211543571227
 20
-7.125803459352141
 30
0.0
 10
164.3833705321826
 20
-6.325025128621717
 30
0.0
 10
164.7908929953285
 20
-5.493940392385354
 30
0.0
 10
165.1421077310931
 20
-4.636420897142443
 30
0.0
 10
165.4345447589124
 20
-3.758250798842624
 30
0.0
 10
165.6647039123257
 20
-2.867315982077343
 30
0.0
 10
165.8318475377923
 20
-1.967628274589856
 30
0.0
 10
165.9016247155693
 20
-1.364149727555513
 30
0.0
 10
165.9261776428257
 20
-1.061671556391871
 30
0.0
 11
152.2750088195835
 21
-13.56985026732937
 31
0.0
 11
153.1982723693882
 21
-13.53820353881374
 31
0.0
 11
154.1204296569858
 21
-13.44396525756375
 31
0.0
 11
155.0352932434116
 21
-13.28817302123562
 31
0.0
 11
155.9366718750034
 21
-13.07189494506374
 31
0.0
 11
156.8183742980991
 21
-12.79616862670437
 31
0.0
 11
157.6791340332065
 21
-12.46071940795437
 31
0.0
 11
158.5181309204136
 21
-12.06655436889187
 31
0.0
 11
159.3298603515659
 21
-11.61669474975119
 31
0.0
 11
160.1088215332065
 21
-11.11422282592312
 31
0.0
 11
160.8495213012729
 21
-10.56212932006374
 31
0.0
 11
161.5504795532261
 21
-9.960749925532496
 31
0.0
 11
162.2114445190464
 21
-9.311122239985621
 31
0.0
 11
162.8282124023471
 21
-8.617976488032496
 31
0.0
 11
163.3965679626499
 21
-7.885981859126246
 31
0.0
 11
163.9123035888706
 21
-7.119838060298121
 31
0.0
 11
164.3736759643589
 21
-6.321070970454371
 31
0.0
 11
164.7812839965854
 21
-5.490016282954371
 31
0.0
 11
165.1325031738315
 21
-4.632441820063746
 31
0.0
 11
165.4247013549837
 21
-3.754237474360621
 31
0.0
 11
165.6552540283237
 21
-2.861140550532496
 31
0.0
 11
165.8215557556186
 21
-1.966059984126246
 31
0.0
 11
165.9261776428257
 21
-1.061671556391871
 31
0.0
  0
SPLINE
  5
59223
330
1F
100
AcDbEntity
  8
1
100
AcDbSpline
210
0.0
220
0.0
230
1.0
 70
     8
 71
     3
 72
    11
 73
     7
 74
     5
 42
0.0000000001
 43
0.0000000001
 44
0.000001
 12
0.9999010176688614
 22
0.0140696433776823
 32
0.0
 13
0.0140688535888031
 23
0.9999010287816973
 33
0.0
 40
0.0
 40
0.0
 40
0.0
 40
0.0
 40
1.560724032831213
 40
3.121450709673006
 40
4.68215306451696
 40
6.242902563367949
 40
6.242902563367949
 40
6.242902563367949
 40
6.242902563367949
 10
152.2709690551792
 20
-4.008693040766814
 30
0.0
 10
152.7911589047553
 20
-4.001373430582503
 30
0.0
 10
153.8433631474547
 20
-3.803905726424062
 30
0.0
 10
155.1716868276605
 20
-2.909399371208564
 30
0.0
 10
156.0662271393517
 20
-1.58107527409669
 30
0.0
 10
156.2636497364498
 20
-0.5288608663792332
 30
0.0
 10
156.2709690551792
 20
-0.0086625231886899
 30
0.0
 11
152.2709690551792
 21
-4.008693040766814
 31
0.0
 11
153.801700256351
 21
-3.704188646235621
 31
0.0
 11
155.0993954162632
 21
-2.837092698969996
 31
0.0
 11
155.9664875488315
 21
-1.539424241938689
 31
0.0
 11
156.2709690551792
 21
-0.0086625231886899
 31
0.0
  0
SPLINE
  5
59224
330
1F
100
AcDbEntity
  8
1
100
AcDbSpline
210
0.0
220
0.0
230
1.0
 70
     8
 71
     3
 72
    11
 73
     7
 74
     5
 42
0.0000000001
 43
0.0000000001
 44
0.000001
 12
-0.0140688535888032
 22
0.9999010287816973
 32
0.0
 13
-0.9999010176688614
 23
0.0140696433776826
 33
0.0
 40
0.0
 40
0.0
 40
0.0
 40
0.0
 40
1.56071956758449
 40
3.121421922455045
 40
4.682148599311129
 40
6.242872632173428
 40
6.242872632173428
 40
6.242872632173428
 40
6.242872632173428
 10
156.2709690551792
 20
-0.0086625231886899
 30
0.0
 10
156.2636498768161
 20
0.511525843900472
 30
0.0
 10
156.0662195979741
 20
1.563728033266443
 30
0.0
 10
155.1716873185105
 20
2.89204385251736
 30
0.0
 10
153.8433630072452
 20
3.786550149501863
 30
0.0
 10
152.7911589047655
 20
3.984017866626857
 30
0.0
 10
152.2709690551792
 20
3.99133747681131
 30
0.0
 11
156.2709690551792
 21
-0.0086625231886899
 31
0.0
 11
155.9664875488315
 21
1.522068677983185
 31
0.0
 11
155.0993954162632
 21
2.819737135014378
 31
0.0
 11
153.801700256351
 21
3.686833082280003
 31
0.0
 11
152.2709690551792
 21
3.99133747681131
 31
0.0
  0
ARC
  5
59225
330
1F
100
AcDbEntity
  8
1
100
AcDbCircle
 10
152.2709610014683
 20
-0.0086621071730804
 30
0.0
 40
6.000005
100
AcDbArc
 50
89.99999699999579
 51
179.999928999998
  0
ARC
  5
59226
330
1F
100
AcDbEntity
  8
1
100
AcDbCircle
 10
152.2709610014683
 20
-0.0086621071730804
 30
0.0
 40
6.000005
100
AcDbArc
 50
180.0000190000005
 51
270.0000429999952
  0
ARC
  5
59227
330
1F
100
AcDbEntity
  8
1
100
AcDbCircle
 10
152.2709610014683
 20
-0.0086621071730804
 30
0.0
 40
6.000005
100
AcDbArc
 50
270.0000429999952
 51
0.0000729999982277
  0
ARC
  5
59228
330
1F
100
AcDbEntity
  8
1
100
AcDbCircle
 10
152.2709610014683
 20
-0.0086621071730804
 30
0.0
 40
6.000005
100
AcDbArc
 50
0.0000770000005844
 51
89.99999699999579
  0
ARC
  5
59229
330
1F
100
AcDbEntity
  8
1
100
AcDbCircle
 10
155.0240630014682
 20
-1.598170107173103
 30
0.0
 40
1.156001
100
AcDbArc
 50
104.6045539999957
 51
195.3954479999999
  0
ARC
  5
5922A
330
1F
100
AcDbEntity
  8
1
100
AcDbCircle
 10
153.4404290014682
 20
2.01688089282689
 30
0.0
 40
0.4865770000000003
100
AcDbArc
 50
344.6049770000016
 51
135.394995000004
  0
ARC
  5
5922B
330
1F
100
AcDbEntity
  8
1
100
AcDbCircle
 10
153.4404290014682
 20
-2.034236107173143
 30
0.0
 40
0.4865770000000003
100
AcDbArc
 50
224.6049940000034
 51
15.39500599999886
  0
ARC
  5
5922C
330
1F
100
AcDbEntity
  8
1
100
AcDbCircle
 10
151.1015050014682
 20
-2.034236107173143
 30
0.0
 40
0.4865770000000003
100
AcDbArc
 50
164.6049889999999
 51
315.3950039999983
  0
ARC
  5
5922D
330
1F
100
AcDbEntity
  8
1
100
AcDbCircle
 10
152.2709690014682
 20
3.170322892826874
 30
0.0
 40
1.156001
100
AcDbArc
 50
224.6045499999947
 51
315.3954549999986
  0
ARC
  5
5922E
330
1F
100
AcDbEntity
  8
1
100
AcDbCircle
 10
149.5178720014683
 20
-1.598170107173103
 30
0.0
 40
1.156001
100
AcDbArc
 50
344.604554000001
 51
75.39547200000102
  0
ARC
  5
5922F
330
1F
100
AcDbEntity
  8
1
100
AcDbCircle
 10
152.2709690014682
 20
-3.187679107173124
 30
0.0
 40
1.156001
100
AcDbArc
 50
44.60454500000142
 51
135.3954530000027
  0
ARC
  5
59230
330
1F
100
AcDbEntity
  8
1
100
AcDbCircle
 10
154.6098900014683
 20
-0.0086621071730804
 30
0.0
 40
0.4865770000000003
100
AcDbArc
 50
284.6049759999995
 51
75.39500700000577
  0
ARC
  5
59231
330
1F
100
AcDbEntity
  8
1
100
AcDbCircle
 10
155.0240630014682
 20
1.58081489282685
 30
0.0
 40
1.156001
100
AcDbArc
 50
164.604556000001
 51
255.3954459999976
  0
ARC
  5
59232
330
1F
100
AcDbEntity
  8
1
100
AcDbCircle
 10
149.9320450014681
 20
-0.0086621071730804
 30
0.0
 40
0.4865770000000003
100
AcDbArc
 50
104.6050590000008
 51
255.3949339999948
  0
ARC
  5
59233
330
1F
100
AcDbEntity
  8
1
100
AcDbCircle
 10
149.5178720014683
 20
1.58081489282685
 30
0.0
 40
1.156001
100
AcDbArc
 50
284.6045250000006
 51
15.39545599999765
  0
ARC
  5
59234
330
1F
100
AcDbEntity
  8
1
100
AcDbCircle
 10
151.1015050014682
 20
2.01688089282689
 30
0.0
 40
0.4865770000000003
100
AcDbArc
 50
44.60499600000166
 51
195.3950040000015
  0
ARC
  5
59235
330
1F
100
AcDbEntity
  8
1
100
AcDbCircle
 10
152.2709500014682
 20
-0.0086931071731158
 30
0.0
 40
3.499989999999998
100
AcDbArc
 50
270.0002689999997
 51
0.0003740000005145
  0
ARC
  5
59236
330
1F
100
AcDbEntity
  8
1
100
AcDbCircle
 10
152.2709500014682
 20
-0.0086621071730804
 30
0.0
 40
3.499989999999998
100
AcDbArc
 50
359.9999499999983
 51
89.99975499999488
  0
ARC
  5
59237
330
1F
100
AcDbEntity
  8
1
100
AcDbCircle
 10
152.2709840014682
 20
-0.0086621071730804
 30
0.0
 40
3.499989999999998
100
AcDbArc
 50
90.000270999996
 51
180.0002179999998
  0
ARC
  5
59238
330
1F
100
AcDbEntity
  8
1
100
AcDbCircle
 10
152.2709840014682
 20
-0.0086931071731158
 30
0.0
 40
3.499989999999998
100
AcDbArc
 50
179.9997820000001
 51
269.9997429999976
  0
ARC
  5
59239
330
1F
100
AcDbEntity
  8
1
100
AcDbCircle
 10
152.1209680014682
 20
-0.0086621071730804
 30
0.0
 40
6.250003999999997
100
AcDbArc
 50
269.9999959999944
 51
359.9999499999983
  0
ARC
  5
5923A
330
1F
100
AcDbEntity
  8
1
100
AcDbCircle
 10
152.1209680014682
 20
-0.0086621071730804
 30
0.0
 40
6.250003999999997
100
AcDbArc
 50
180.0000529999995
 51
270.0000089999996
  0
ARC
  5
5923B
330
1F
100
AcDbEntity
  8
1
100
AcDbCircle
 10
152.1209680014682
 20
-0.0086931071731158
 30
0.0
 40
6.250003999999997
100
AcDbArc
 50
89.99992199999475
 51
179.9999470000005
  0
ARC
  5
5923C
330
1F
100
AcDbEntity
  8
1
100
AcDbCircle
 10
152.1209680014682
 20
-0.0086931071731158
 30
0.0
 40
6.250003999999997
100
AcDbArc
 50
0.0000499999985184
 51
89.99993599999486
  0
ARC
  5
5923D
330
1F
100
AcDbEntity
  8
1
100
AcDbCircle
 10
152.2709610014683
 20
-0.0086621071730804
 30
0.0
 40
6.450006
100
AcDbArc
 50
270.0179930000001
 51
89.98199599999699
  0
ARC
  5
5923E
330
1F
100
AcDbEntity
  8
1
100
AcDbCircle
 10
152.2709690014682
 20
-0.0086621071730804
 30
0.0
 40
4.000002999999998
100
AcDbArc
 50
90.000044999998
 51
269.9999549999954
  0
LINE
  5
5923F
330
1F
100
AcDbEntity
  8
1
100
AcDbLine
 10
158.3709710014682
 20
-0.0086621071730804
 30
0.0
 11
158.2709690014683
 21
-0.0086621071730804
 31
0.0
  0
LINE
  5
59240
330
1F
100
AcDbEntity
  8
1
100
AcDbLine
 10
145.8709640014682
 20
-0.0086621071730804
 30
0.0
 11
146.2709650014683
 21
-0.0086621071730804
 31
0.0
  0
LINE
  5
59241
330
1F
100
AcDbEntity
  8
1
100
AcDbLine
 10
141.4041110014682
 20
13.57791789282689
 30
0.0
 11
140.8695350014683
 21
13.7897068928269
 31
0.0
  0
LINE
  5
59242
330
1F
100
AcDbEntity
  8
1
100
AcDbLine
 10
138.7750090014683
 20
-13.59527110717315
 30
0.0
 11
138.7750090014683
 21
-13.80706310717315
 31
0.0
  0
LINE
  5
59243
330
1F
100
AcDbEntity
  8
1
100
AcDbLine
 10
138.7750090014683
 20
-13.59527110717315
 30
0.0
 11
144.7709690014682
 21
-13.59527110717315
 31
0.0
  0
LINE
  5
59244
330
1F
100
AcDbEntity
  8
1
100
AcDbLine
 10
146.4479440014683
 20
-13.56985010717315
 30
0.0
 11
152.2750090014683
 21
-13.56985010717315
 31
0.0
  0
LINE
  5
59245
330
1F
100
AcDbEntity
  8
1
100
AcDbLine
 10
144.7709690014682
 20
-13.56985010717312
 30
0.0
 11
146.4479440014683
 21
-13.56985010717315
 31
0.0
  0
LINE
  5
59246
330
1F
100
AcDbEntity
  8
1
100
AcDbLine
 10
152.1209680014682
 20
-6.458675107173149
 30
0.0
 11
152.2729870014683
 21
-6.458675107173149
 31
0.0
  0
LINE
  5
59247
330
1F
100
AcDbEntity
  8
1
100
AcDbLine
 10
152.1209680014682
 20
6.441318892826842
 30
0.0
 11
152.2729870014683
 21
6.441318892826842
 31
0.0
  0
LINE
  5
59248
330
1F
100
AcDbEntity
  8
1
100
AcDbLine
 10
151.1563060014682
 20
10.85066489282681
 30
0.0
 11
152.2750070014683
 21
10.46517989282688
 31
0.0
  0
LINE
  5
59249
330
1F
100
AcDbEntity
  8
1
100
AcDbLine
 10
138.7750090014683
 20
13.57791589282689
 30
0.0
 11
141.8491930014682
 21
13.57791589282689
 31
0.0
  0
LINE
  5
5924A
330
1F
100
AcDbEntity
  8
1
100
AcDbLine
 10
138.7750090014683
 20
13.78970789282687
 30
0.0
 11
138.7750090014683
 21
13.57791589282689
 31
0.0
  0
LINE
  5
5924B
330
1F
100
AcDbEntity
  8
1
100
AcDbLine
 10
138.7750090014683
 20
13.78970789282687
 30
0.0
 11
140.8695290014683
 21
13.78970789282687
 31
0.0
  0
LINE
  5
5924C
330
1F
100
AcDbEntity
  8
1
100
AcDbLine
 10
133.2750000000024
 20
14.74998400000004
 30
0.0
 11
137.2750060014683
 21
13.99686789282688
 31
0.0
  0
LINE
  5
5924D
330
1F
100
AcDbEntity
  8
1
100
AcDbLine
 10
133.2751960554173
 20
-14.74999999999994
 30
0.0
 11
137.2750120014682
 21
-14.01422810717312
 31
0.0
  0
LINE
  5
5924E
330
1F
100
AcDbEntity
  8
1
100
AcDbLine
 10
137.2750050014683
 20
13.99687689282686
 30
0.0
 11
137.2750050014683
 21
-14.01421710717315
 31
0.0
  0
LINE
  5
59250
330
1F
100
AcDbEntity
  8
1
100
AcDbLine
 10
139.5662879991866
 20
13.97994796851904
 30
0.0
 11
144.7609732591867
 21
13.97994796851907
 31
0.0
  0
LINE
  5
59251
330
1F
100
AcDbEntity
  8
1
100
AcDbLine
 10
137.2750089991868
 20
13.99191096851902
 30
0.0
 11
144.7609732591867
 21
13.99191096851902
 31
0.0
  0
LINE
  5
59252
330
1F
100
AcDbEntity
  8
1
100
AcDbLine
 10
137.2750089991868
 20
-14.01918303148099
 30
0.0
 11
144.7609732591867
 21
-14.01918303148102
 31
0.0
  0
LINE
  5
59253
330
1F
100
AcDbEntity
  8
1
100
AcDbLine
 10
138.7750129991868
 20
-13.81202903148099
 30
0.0
 11
144.7609732591867
 21
-13.81202903148096
 31
0.0
  0
LINE
  5
59254
330
1F
100
AcDbEntity
  8
1
100
AcDbLine
 10
138.7750129991868
 20
-13.60023703148099
 30
0.0
 11
144.7609732591867
 21
-13.60023703148099
 31
0.0
  0
LINE
  5
59255
330
1F
100
AcDbEntity
  8
1
100
AcDbLine
 10
144.7609732591867
 20
-14.01918303148102
 30
0.0
 11
144.7609732591867
 21
-13.57481603148096
 31
0.0
  0
LINE
  5
59256
330
1F
100
AcDbEntity
  8
1
100
AcDbLine
 10
144.7609732591867
 20
12.82872193447599
 30
0.0
 11
144.7609732591867
 21
13.99191096851902
 31
0.0
  0
LINE
  5
59257
330
1F
100
AcDbEntity
  8
nocut
100
AcDbLine
 10
137.275005
 20
13.99687689282677
 30
0.0
 11
154.2658965925335
 21
13.99687689282677
 31
0.0
  0
LINE
  5
59258
330
1F
100
AcDbEntity
  8
nocut
100
AcDbLine
 10
133.2750000000024
 20
14.74998400000007
 30
0.0
 11
137.2750060000001
 21
13.9968678928268
 31
0.0
  0
LINE
  5
59259
330
1F
100
AcDbEntity
  8
nocut
100
AcDbLine
 10
2.367649471238905
 20
14.74998400000007
 30
0.0
 11
133.2750000000024
 21
14.74998400000007
 31
0.0
  0
LINE
  5
5925A
330
1F
100
AcDbEntity
  8
nocut
100
AcDbLine
 10
0.0
 20
15.87500000000003
 30
0.0
 11
0.0
 21
0.0
 31
0.0
  0
ARC
  5
5925B
330
1F
100
AcDbEntity
  8
nocut
100
AcDbCircle
 10
153.2513605365865
 20
-0.0000000000001705
 30
0.0
 40
14.03359705000002
100
AcDbArc
 50
0.0
 51
85.85427836715265
  0
LINE
  5
5925C
330
1F
100
AcDbEntity
  8
nocut
100
AcDbLine
 10
167.2849575865865
 20
-0.0000000000000853
 30
0.0
 11
0.0000000000001137
 21
0.0000000000000568
 31
0.0
1001
ACAD
1000
RTMaterial
1005
0
  0
DIMENSION
  5
592BA
330
1F
100
AcDbEntity
  8
2
100
AcDbDimension
  2
*D60
 10
187.4956053586393
 20
14.9999999987999
 30
0.0
 11
187.4956053586393
 21
-4.622641836083587
 31
0.0
 70
   160
  1
%%c<>
 71
     5
 42
29.99999999879996
  3
\M+18352\M+18373\M+1815B - ISO-25
100
AcDbAlignedDimension
 13
153.2750000014761
 23
-15.00000000000004
 33
0.0
 14
165.2750000014762
 24
14.99999999879991
 34
0.0
 50
270.0
100
AcDbRotatedDimension
1001
ACAD
1000
DSTYLE
1002
{
1070
    75
1070
     1
1070
   343
1005
50E6F
1070
     4
1000
%%c[]"
1070
    40
1040
1.0
1070
    76
1070
     0
1070
   143
1040
0.03937
1070
   170
1070
     1
1070
   171
1070
     3
1070
   173
1070
     1
1070
   271
1070
     8
1070
   285
1070
     4
1070
   344
1005
0
1002
}
  0
SPLINE
  5
592BB
330
1F
100
AcDbEntity
  8
1
100
AcDbSpline
210
0.0
220
0.0
230
1.0
 70
     8
 71
     3
 72
    64
 73
    60
 74
    58
 42
0.0000000001
 43
0.0000000001
 44
0.000001
 12
0.9993625715275891
 22
-0.0356994485918817
 32
0.0
 13
0.9996880839946935
 23
0.024974681559905
 33
0.0
 40
0.0
 40
0.0
 40
0.0
 40
0.0
 40
0.1579046397819233
 40
0.2547727244112608
 40
0.3528629048832916
 40
0.4522947977094456
 40
0.5513973697148682
 40
0.6480513195467496
 40
0.6947977843455129
 40
0.7401373674566344
 40
0.7840139199029887
 40
0.8272073502636436
 40
0.8707062978197878
 40
0.9154994143613254
 40
0.9625753800773747
 40
1.012922912175176
 40
1.067530765499658
 40
1.127387725991398
 40
1.15248531236557
 40
1.165205587729322
 40
1.177938528931944
 40
1.203251320925322
 40
1.228498758150792
 40
1.253794017866232
 40
1.279068429004821
 40
1.3042473114855
 40
1.316895772305808
 40
1.329647853313059
 40
1.342504516114669
 40
1.355338105616936
 40
1.380236972793921
 40
1.423743037646212
 40
1.461457964060526
 40
1.496069484559062
 40
1.530265270203941
 40
1.56616500827105
 40
1.603616532785174
 40
1.641899705326483
 40
1.680294384652548
 40
1.755754971372708
 40
1.83032437350869
 40
1.905220217475152
 40
1.980355359410711
 40
2.055403148154469
 40
2.130387062826395
 40
2.280419978638418
 40
2.430453630779334
 40
2.580488614512144
 40
2.730524189881605
 40
2.880560754007295
 40
3.030598018638527
 40
3.180637557983565
 40
3.330677360514796
 40
3.480718105878167
 40
3.630759963721132
 40
3.780803095463889
 40
3.930847836308227
 40
4.080894199775912
 40
4.230940319318641
 40
4.230940319318641
 40
4.230940319318641
 40
4.230940319318641
 10
161.9004582532184
 20
-14.72433086399978
 30
0.0
 10
161.9530595821746
 20
-14.72620990018988
 30
0.0
 10
162.037930542461
 20
-14.72921782521673
 30
0.0
 10
162.1554791830817
 20
-14.73334210150511
 30
0.0
 10
162.2535504137105
 20
-14.73673943135826
 30
0.0
 10
162.3523677171433
 20
-14.74011333425869
 30
0.0
 10
162.4507070730169
 20
-14.74345562991153
 30
0.0
 10
162.5314942707525
 20
-14.74621566508402
 30
0.0
 10
162.5943700091794
 20
-14.74839030609598
 30
0.0
 10
162.6396631802581
 20
-14.74997453989501
 30
0.0
 10
162.6837719094432
 20
-14.75154064401432
 30
0.0
 10
162.7272672290214
 20
-14.75309198501024
 30
0.0
 10
162.7710682651335
 20
-14.75464330762395
 30
0.0
 10
162.8161636692695
 20
-14.756212028511
 30
0.0
 10
162.8635420839008
 20
-14.75781568669987
 30
0.0
 10
162.9141921356611
 20
-14.75947207397465
 30
0.0
 10
162.9691024522531
 20
-14.76119903687288
 30
0.0
 10
163.0156020702863
 20
-14.76260273992746
 30
0.0
 10
163.0481463576859
 20
-14.76355773843589
 30
0.0
 10
163.0649906018919
 20
-14.76400875592439
 30
0.0
 10
163.081907619983
 20
-14.76442029789548
 30
0.0
 10
163.103001503104
 20
-14.7648307728182
 30
0.0
 10
163.1282844303996
 20
-14.76517543812305
 30
0.0
 10
163.1535559534852
 20
-14.76539431747267
 30
0.0
 10
163.178805382617
 20
-14.76548999683891
 30
0.0
 10
163.1998393983481
 20
-14.76546627604847
 30
0.0
 10
163.2166989724695
 20
-14.76537319545295
 30
0.0
 10
163.2294509229938
 20
-14.76526321472563
 30
0.0
 10
163.2422641512825
 20
-14.76511130171885
 30
0.0
 10
163.2591254886526
 20
-14.76487081970837
 30
0.0
 10
163.2862011857635
 20
-14.76441530873083
 30
0.0
 10
163.3215688249324
 20
-14.76378305461067
 30
0.0
 10
163.3601725046933
 20
-14.76303899078994
 30
0.0
 10
163.3956726037707
 20
-14.76231837562811
 30
0.0
 10
163.4305676067536
 20
-14.76160234199959
 30
0.0
 10
163.4664095247388
 20
-14.76088889142004
 30
0.0
 10
163.5036138760493
 20
-14.76016062684108
 30
0.0
 10
163.5416498166319
 20
-14.75942128892266
 30
0.0
 10
163.5923530066956
 20
-14.75843339852876
 30
0.0
 10
163.6551488826112
 20
-14.75718798792815
 30
0.0
 10
163.7301089989669
 20
-14.75568026563157
 30
0.0
 10
163.8049605624984
 20
-14.75417010323311
 30
0.0
 10
163.8799713758114
 20
-14.75264781750839
 30
0.0
 10
163.9550112685786
 20
-14.75111161578125
 30
0.0
 10
164.0550115220331
 20
-14.74904817673621
 30
0.0
 10
164.1800011774467
 20
-14.74644170047479
 30
0.0
 10
164.3300014473516
 20
-14.74326742135638
 30
0.0
 10
164.4800016245629
 20
-14.74004719461061
 30
0.0
 10
164.6300017837547
 20
-14.73678122365096
 30
0.0
 10
164.7800016893151
 20
-14.7334690180031
 30
0.0
 10
164.9300019692597
 20
-14.73011417783659
 30
0.0
 10
165.0800022295784
 20
-14.72671052773371
 30
0.0
 10
165.2300026115191
 20
-14.72326140916907
 30
0.0
 10
165.3800027021414
 20
-14.7197663034477
 30
0.0
 10
165.5300028287698
 20
-14.71622540671687
 30
0.0
 10
165.6800032066738
 20
-14.71263900928142
 30
0.0
 10
165.8300039879741
 20
-14.70900694895928
 30
0.0
 10
165.9800046948578
 20
-14.70533092656748
 30
0.0
 10
166.0800046733328
 20
-14.70284673941826
 30
0.0
 10
166.1300044459183
 20
-14.70159762139997
 30
0.0
 11
161.9004582532184
 21
-14.72433086399978
 31
0.0
 11
162.0582636968186
 21
-14.7299278671998
 31
0.0
 11
162.1550723106186
 21
-14.73332170329983
 31
0.0
 11
162.2531037159185
 21
-14.73671686579985
 31
0.0
 11
162.3524775083183
 21
-14.7401155037998
 31
0.0
 11
162.4515227036186
 21
-14.74348730789983
 31
0.0
 11
162.5481200786187
 21
-14.74679383359982
 31
0.0
 11
162.5948385761185
 21
-14.74841060319983
 31
0.0
 11
162.6401504098185
 21
-14.74999663649981
 31
0.0
 11
162.6839994242184
 21
-14.75155091039981
 31
0.0
 11
162.7271655114184
 21
-14.7530875695998
 31
0.0
 11
162.7706372970183
 21
-14.75462454079984
 31
0.0
 11
162.8154034070182
 21
-14.75617975079984
 31
0.0
 11
162.8624524673185
 21
-14.75777112619981
 31
0.0
 11
162.9127731036185
 21
-14.75941659399983
 31
0.0
 11
162.9673539419184
 21
-14.76113408079982
 31
0.0
 11
163.0271836080185
 21
-14.76294151339981
 31
0.0
 11
163.0522707497182
 21
-14.7636655102999
 31
0.0
 11
163.0649865085186
 21
-14.76400445929981
 31
0.0
 11
163.0777157254185
 21
-14.7643124082998
 31
0.0
 11
163.1030236738186
 21
-14.76480759139986
 31
0.0
 11
163.1282687167186
 21
-14.76515532599982
 31
0.0
 11
163.1535630245182
 21
-14.76537483169983
 31
0.0
 11
163.1788372556182
 21
-14.76547036549981
 31
0.0
 11
163.2040161178186
 21
-14.76543802319979
 31
0.0
 11
163.2166643843184
 21
-14.76536787049986
 31
0.0
 11
163.2294159894184
 21
-14.76525767679978
 31
0.0
 11
163.2422717700185
 21
-14.7651070508998
 31
0.0
 11
163.2551040747182
 21
-14.76492544829982
 31
0.0
 11
163.2799995993184
 21
-14.76451746109983
 31
0.0
 11
163.3234986940185
 21
-14.76373869889981
 31
0.0
 11
163.3612066448186
 21
-14.76301334329986
 31
0.0
 11
163.3958111254182
 21
-14.76231528319981
 31
0.0
 11
163.4299998097183
 21
-14.76161840759981
 31
0.0
 11
163.4658924015182
 21
-14.76090212179979
 31
0.0
 11
163.5033367285184
 21
-14.76016789649992
 31
0.0
 11
163.5416126483185
 21
-14.75942271889987
 31
0.0
 11
163.5800000188183
 21
-14.75867357609984
 31
0.0
 11
163.6554458148185
 21
-14.75717954489987
 31
0.0
 11
163.7300001928183
 21
-14.75568268829987
 31
0.0
 11
163.8048807850184
 21
-14.75417123269989
 31
0.0
 11
163.8800004455186
 21
-14.75264600299986
 31
0.0
 11
163.9550325182185
 21
-14.7511101473999
 31
0.0
 11
164.0300004805183
 21
-14.74956343779989
 31
0.0
 11
164.1800007801184
 21
-14.74643500179991
 31
0.0
 11
164.3300008562182
 21
-14.7432607758999
 31
0.0
 11
164.4800012884184
 21
-14.74004057799986
 31
0.0
 11
164.6300013316186
 21
-14.73677452679986
 31
0.0
 11
164.7800014114184
 21
-14.73346291589989
 31
0.0
 11
164.9300016956183
 21
-14.73010531939991
 31
0.0
 11
165.0800020794186
 21
-14.72670196219991
 31
0.0
 11
165.2300021847186
 21
-14.72325275699994
 31
0.0
 11
165.3800022005186
 21
-14.71975768579993
 31
0.0
 11
165.5300022635185
 21
-14.71621683939992
 31
0.0
 11
165.6800025213185
 21
-14.71263041829995
 31
0.0
 11
165.8300032990184
 21
-14.70899863959994
 31
0.0
 11
165.9800045973186
 21
-14.70532155059992
 31
0.0
 11
166.1300044459183
 21
-14.70159762139997
 31
0.0
  0
SPLINE
  5
592BC
330
1F
100
AcDbEntity
  8
1
100
AcDbSpline
210
0.0
220
0.0
230
1.0
 70
     8
 71
     3
 72
    11
 73
     7
 74
     5
 42
0.0000000001
 43
0.0000000001
 44
0.000001
 12
0.0560845231132493
 22
0.9984260244340386
 32
0.0
 13
0.0580070876147328
 23
0.9983161712536048
 33
0.0
 40
0.0
 40
0.0
 40
0.0
 40
0.0
 40
0.1192640738723068
 40
0.2486812810486996
 40
0.3902403779697425
 40
0.5473593311797913
 40
0.5473593311797913
 40
0.5473593311797913
 40
0.5473593311797913
 10
167.6430454846188
 20
0.3624888511000108
 30
0.0
 10
167.6452751075213
 20
0.402180969478053
 30
0.0
 10
167.649945897778
 20
0.4849430373674295
 30
0.0
 10
167.6573394671691
 20
0.6148128787611711
 30
0.0
 10
167.6655225019566
 20
0.7572764818958149
 30
0.0
 10
167.671275104424
 20
0.8566695023333181
 30
0.0
 10
167.6743131087189
 20
0.9089542995999977
 30
0.0
 11
167.6430454846188
 21
0.3624888511000108
 31
0.0
 11
167.6497637276191
 21
0.4815635567999835
 31
0.0
 11
167.6571203664191
 21
0.6107715064999866
 31
0.0
 11
167.665235817519
 21
0.7520977808999874
 31
0.0
 11
167.6743131087189
 21
0.9089542995999977
 31
0.0
  0
SPLINE
  5
592BD
330
1F
100
AcDbEntity
  8
1
100
AcDbSpline
210
0.0
220
0.0
230
1.0
 70
     8
 71
     3
 72
    13
 73
     9
 74
     7
 42
0.0000000001
 43
0.0000000001
 44
0.000001
 12
0.0548657962919379
 22
0.9984937377856969
 32
0.0
 13
0.0566918823909723
 23
0.9983917219563513
 33
0.0
 40
0.0
 40
0.0
 40
0.0
 40
0.0
 40
0.1733168964624227
 40
0.3693132973578347
 40
0.5772240127260679
 40
0.7732015541890707
 40
0.9508881523586547
 40
1.112938080124251
 40
1.112938080124251
 40
1.112938080124251
 40
1.112938080124251
 10
167.6743131087189
 20
0.9089542995999977
 30
0.0
 10
167.6774828318973
 20
0.9666395781900547
 30
0.0
 10
167.6842511800437
 20
1.089557808342206
 30
0.0
 10
167.6948951930757
 20
1.281671175816271
 30
0.0
 10
167.705993697822
 20
1.481324491340146
 30
0.0
 10
167.7168126487016
 20
1.674880649190299
 30
0.0
 10
167.7268359224035
 20
1.853170482140498
 30
0.0
 10
167.7332382708704
 20
1.966234870191712
 30
0.0
 10
167.7363005760192
 20
2.020164638999972
 30
0.0
 11
167.6743131087189
 21
0.9089542995999977
 31
0.0
 11
167.6838457385188
 21
1.082008843600021
 31
0.0
 11
167.6946822988191
 21
1.277705440700003
 31
0.0
 11
167.7062263666191
 21
1.485295420900001
 31
0.0
 11
167.7171649362192
 21
1.680967453199968
 31
0.0
 11
167.7271420232191
 21
1.858373722300029
 31
0.0
 11
167.7363005760192
 21
2.020164638999972
 31
0.0
  0
SPLINE
  5
592BE
330
1F
100
AcDbEntity
  8
1
100
AcDbSpline
210
0.0
220
0.0
230
1.0
 70
     8
 71
     3
 72
    16
 73
    12
 74
    10
 42
0.0000000001
 43
0.0000000001
 44
0.000001
 12
0.0536804788170368
 22
0.9985581636509582
 32
0.0
 13
0.0567198587979384
 23
0.9983901329730487
 33
0.0
 40
0.0
 40
0.0
 40
0.0
 40
0.0
 40
0.1672259898119675
 40
0.3238072441890677
 40
0.4741136109005818
 40
0.6146784048160637
 40
0.7410891906616469
 40
0.8523864751776779
 40
0.9510235443681997
 40
1.039823359635358
 40
1.120227860033944
 40
1.120227860033944
 40
1.120227860033944
 40
1.120227860033944
 10
167.7363005760192
 20
2.020164638999972
 30
0.0
 10
167.7392928330871
 20
2.075826264767087
 30
0.0
 10
167.7451160112184
 20
2.183604821889147
 30
0.0
 10
167.7537125924243
 20
2.341408716431075
 30
0.0
 10
167.7619068799006
 20
2.490334263137953
 30
0.0
 10
167.7696150011727
 20
2.629214506150546
 30
0.0
 10
167.7766506681974
 20
2.755109021023059
 30
0.0
 10
167.7829402043564
 20
2.867047511596169
 30
0.0
 10
167.7885494904022
 20
2.966467456079627
 30
0.0
 10
167.793595521101
 20
3.055605205937524
 30
0.0
 10
167.7967895320159
 20
3.11191613371848
 30
0.0
 10
167.798309709319
 20
3.138674487000002
 30
0.0
 11
167.7363005760192
 21
2.020164638999972
 31
0.0
 11
167.7453192608191
 21
2.187147260599999
 31
0.0
 11
167.753839854219
 21
2.343496512800015
 31
0.0
 11
167.762096631219
 21
2.493575923899982
 31
0.0
 11
167.7698848752191
 21
2.633924791699996
 31
0.0
 11
167.7769375085188
 21
2.760138686599987
 31
0.0
 11
167.7831805027192
 21
2.871260739600018
 31
0.0
 11
167.788736463219
 21
2.969741208799973
 31
0.0
 11
167.793754596619
 21
3.0583991222
 31
0.0
 11
167.798309709319
 21
3.138674487000002
 31
0.0
  0
SPLINE
  5
592BF
330
1F
100
AcDbEntity
  8
1
100
AcDbSpline
210
0.0
220
0.0
230
1.0
 70
     8
 71
     3
 72
    14
 73
    10
 74
     8
 42
0.0000000001
 43
0.0000000001
 44
0.000001
 12
0.0538658620029742
 22
0.9985481805655032
 32
0.0
 13
0.0562179244528704
 23
0.9984185219486924
 33
0.0
 40
0.0
 40
0.0
 40
0.0
 40
0.0
 40
0.214347851272804
 40
0.4188375344546609
 40
0.6001082600814131
 40
0.7606646151085888
 40
0.9029489812303051
 40
1.031128905131485
 40
1.157370050971998
 40
1.157370050971998
 40
1.157370050971998
 40
1.157370050971998
 10
167.798309709319
 20
3.138674487000002
 30
0.0
 10
167.802158386578
 20
3.210020039298868
 30
0.0
 10
167.8096863498305
 20
3.349429448655627
 30
0.0
 10
167.8205136683862
 20
3.549172296656252
 30
0.0
 10
167.830368224097
 20
3.731011052081072
 30
0.0
 10
167.8391416359918
 20
3.892142863978662
 30
0.0
 10
167.847013409126
 20
4.035600611440159
 30
0.0
 10
167.8543298613621
 20
4.167633202618873
 30
0.0
 10
167.8590749584857
 20
4.25230737955357
 30
0.0
 10
167.861440630219
 20
4.294321212299962
 30
0.0
 11
167.798309709319
 21
3.138674487000002
 31
0.0
 11
167.809872081619
 21
3.352710259800005
 31
0.0
 11
167.820933144819
 21
3.556900571399978
 31
0.0
 11
167.8307509984192
 21
3.73790522720003
 31
0.0
 11
167.8394857224191
 21
3.898223807799979
 31
0.0
 11
167.847285466619
 21
4.040294227000003
 31
0.0
 11
167.8543800176192
 21
4.168277651399989
 31
0.0
 11
167.861440630219
 21
4.294321212299962
 31
0.0
  0
SPLINE
  5
592C0
330
1F
100
AcDbEntity
  8
1
100
AcDbSpline
210
0.0
220
0.0
230
1.0
 70
     8
 71
     3
 72
    13
 73
     9
 74
     7
 42
0.0000000001
 43
0.0000000001
 44
0.000001
 12
0.0534720225315534
 22
0.9985693480206496
 32
0.0
 13
0.0552825702298262
 23
0.9984707494107098
 33
0.0
 40
0.0
 40
0.0
 40
0.0
 40
0.0
 40
0.1470098352426187
 40
0.3166138670728758
 40
0.5090775808797689
 40
0.7276580799870495
 40
0.9695145939401903
 40
1.201232310291126
 40
1.201232310291126
 40
1.201232310291126
 40
1.201232310291126
 10
167.861440630219
 20
4.294321212299962
 30
0.0
 10
167.8640609346265
 20
4.343254384076914
 30
0.0
 10
167.8697242050701
 20
4.448640286616281
 30
0.0
 10
167.8789217861026
 20
4.61808337523486
 30
0.0
 10
167.8894739005272
 20
4.811344932187111
 30
0.0
 10
167.9013841367317
 20
5.028652364736203
 30
0.0
 10
167.9140619993186
 20
5.259022025300865
 30
0.0
 10
167.9227729251766
 20
5.416639577067783
 30
0.0
 10
167.9270429088192
 20
5.493760697699997
 30
0.0
 11
167.861440630219
 21
4.294321212299962
 31
0.0
 11
167.8693333588189
 21
4.441119022900011
 31
0.0
 11
167.8785181841192
 21
4.610474170600014
 31
0.0
 11
167.8890065010189
 21
4.802651890899994
 31
0.0
 11
167.9009682622193
 21
5.020904842300012
 31
0.0
 11
167.9142582764191
 21
5.262395937000007
 31
0.0
 11
167.9270429088192
 21
5.493760697699997
 31
0.0
  0
SPLINE
  5
592C1
330
1F
100
AcDbEntity
  8
1
100
AcDbSpline
210
0.0
220
0.0
230
1.0
 70
     8
 71
     3
 72
    15
 73
    11
 74
     9
 42
0.0000000001
 43
0.0000000001
 44
0.000001
 12
0.0526205313751397
 22
0.9986145801448113
 32
0.0
 13
0.0556854973616708
 23
0.998448358896735
 33
0.0
 40
0.0
 40
0.0
 40
0.0
 40
0.0
 40
0.1771456839598494
 40
0.3340604116076742
 40
0.4795662624454222
 40
0.6234661277612418
 40
0.7734269284288687
 40
0.9341825536484833
 40
1.097265093130243
 40
1.253057771308742
 40
1.253057771308742
 40
1.253057771308742
 40
1.253057771308742
 10
167.9270429088192
 20
5.493760697699997
 30
0.0
 10
167.9301500754927
 20
5.552727451970667
 30
0.0
 10
167.936032467438
 20
5.663925444093436
 30
0.0
 10
167.9445251052541
 20
5.823555114405593
 30
0.0
 10
167.9524923025726
 20
5.97211511579367
 30
0.0
 10
167.9604001951637
 20
6.118356975789026
 30
0.0
 10
167.9686437879677
 20
6.269671354792151
 30
0.0
 10
167.9772971800171
 20
6.427367102484211
 30
0.0
 10
167.9861131359074
 20
6.587000802794378
 30
0.0
 10
167.9920118306293
 20
6.69312874358151
 30
0.0
 10
167.9949036282191
 20
6.744979058199987
 30
0.0
 11
167.9270429088192
 21
5.493760697699997
 31
0.0
 11
167.936397126419
 21
5.670659234100014
 31
0.0
 11
167.9447376953192
 21
5.827352139799984
 31
0.0
 11
167.9525307665192
 21
5.972649148500011
 31
0.0
 11
167.9602996000192
 21
6.116339149999987
 31
0.0
 11
167.9684565105192
 21
6.266077944599999
 31
0.0
 11
167.9772630088191
 21
6.426592170300011
 31
0.0
 11
167.9862559496193
 21
6.589426569900012
 31
0.0
 11
167.9949036282191
 21
6.744979058199987
 31
0.0
  0
SPLINE
  5
592C2
330
1F
100
AcDbEntity
  8
1
100
AcDbSpline
210
0.0
220
0.0
230
1.0
 70
     8
 71
     3
 72
    17
 73
    13
 74
    11
 42
0.0000000001
 43
0.0000000001
 44
0.000001
 12
0.0497871495389766
 22
0.9987598508854787
 32
0.0
 13
0.056159391388787
 23
0.9984218160471259
 33
0.0
 40
0.0
 40
0.0
 40
0.0
 40
0.0
 40
0.0923941942801956
 40
0.1884209952034373
 40
0.2890132954962569
 40
0.3951574903207931
 40
0.5082433211658982
 40
0.6280817734000055
 40
0.7497019467951307
 40
0.869619193244149
 40
0.9867311056901675
 40
1.100201406538965
 40
1.100201406538965
 40
1.100201406538965
 40
1.100201406538965
 10
168.047383768019
 20
7.715082757900006
 30
0.0
 10
168.0489171158747
 20
7.745842628467329
 30
0.0
 10
168.0520627739667
 20
7.808570808365644
 30
0.0
 10
168.0569553519783
 20
7.904784264091674
 30
0.0
 10
168.0621453424077
 20
8.005571830466621
 30
0.0
 10
168.0676967059936
 20
8.112034643797684
 30
0.0
 10
168.0736539632836
 20
8.224900369242959
 30
0.0
 10
168.0799567369501
 20
8.342913674707062
 30
0.0
 10
168.0864520504123
 20
8.463197060067145
 30
0.0
 10
168.0929731756427
 20
8.582568857800069
 30
0.0
 10
168.0994198055642
 20
8.69922402746711
 30
0.0
 10
168.1037133209071
 20
8.775964757919723
 30
0.0
 10
168.1058374619192
 20
8.81372849920001
 30
0.0
 11
168.047383768019
 21
7.715082757900006
 31
0.0
 11
168.0520137161193
 21
7.807360879099974
 31
0.0
 11
168.0568890771192
 21
7.903263834799986
 31
0.0
 11
168.0620617217191
 21
8.003723052400005
 31
0.0
 11
168.0675881007194
 21
8.10972328370002
 31
0.0
 11
168.0735477212195
 21
8.222651968600018
 31
0.0
 11
168.0799377633191
 21
8.342319933499993
 31
0.0
 11
168.0864964323193
 21
8.463763131400014
 31
0.0
 11
168.0930379371191
 21
8.58350182449999
 31
0.0
 11
168.0995013227191
 21
8.700435244199979
 31
0.0
 11
168.1058374619192
 21
8.81372849920001
 31
0.0
  0
SPLINE
  5
592C3
330
1F
100
AcDbEntity
  8
1
100
AcDbSpline
210
0.0
220
0.0
230
1.0
 70
     8
 71
     3
 72
    17
 73
    13
 74
    11
 42
0.0000000001
 43
0.0000000001
 44
0.000001
 12
0.0497034067389969
 22
0.9987640218582855
 32
0.0
 13
0.0558862042950858
 23
0.9984371448265976
 33
0.0
 40
0.0
 40
0.0
 40
0.0
 40
0.0
 40
0.1098064247759202
 40
0.2187434806459643
 40
0.3276465117498764
 40
0.4370539146693605
 40
0.5472414005749866
 40
0.6582985178781973
 40
0.769835693109343
 40
0.8814999519241821
 40
0.9930466762152473
 40
1.10422910309871
 40
1.10422910309871
 40
1.10422910309871
 40
1.10422910309871
 10
168.1058374619192
 20
8.81372849920001
 30
0.0
 10
168.1076567130503
 20
8.850285401345033
 30
0.0
 10
168.1113028149104
 20
8.923108681897446
 30
0.0
 10
168.1168372813024
 20
9.032183874348987
 30
0.0
 10
168.1224331862911
 20
9.141122749082043
 30
0.0
 10
168.1281173702582
 20
9.250474427880675
 30
0.0
 10
168.1339039850085
 20
9.360539760726126
 30
0.0
 10
168.1397917983368
 20
9.471310658758682
 30
0.0
 10
168.1457670837175
 20
9.582569842672853
 30
0.0
 10
168.1518135335178
 20
9.693988625224349
 30
0.0
 10
168.1579230265632
 20
9.805285544035399
 30
0.0
 10
168.1620479977783
 20
9.879413921015867
 30
0.0
 10
168.1641191857193
 20
9.916416809300002
 30
0.0
 11
168.1058374619192
 21
8.81372849920001
 31
0.0
 11
168.1113306069194
 21
8.923397437299968
 31
0.0
 11
168.1168502044193
 21
9.032194569800026
 31
0.0
 11
168.1224366233191
 21
9.140954222300024
 31
0.0
 11
168.1281156121192
 21
9.250214136299973
 31
0.0
 11
168.1339003062194
 21
9.360249672699978
 31
0.0
 11
168.1397944721191
 21
9.471150267899986
 31
0.0
 11
168.1457762023194
 21
9.582526927300023
 31
0.0
 11
168.1518282570193
 21
9.69402705829998
 31
0.0
 11
168.1579446329192
 21
9.80540596779997
 31
0.0
 11
168.1641191857193
 21
9.916416809300002
 31
0.0
  0
SPLINE
  5
592C4
330
1F
100
AcDbEntity
  8
1
100
AcDbSpline
210
0.0
220
0.0
230
1.0
 70
     8
 71
     3
 72
    17
 73
    13
 74
    11
 42
0.0000000001
 43
0.0000000001
 44
0.000001
 12
0.0494397150539299
 22
0.9987771095571755
 32
0.0
 13
0.0536597443229419
 23
0.9985592780797725
 33
0.0
 40
0.0
 40
0.0
 40
0.0
 40
0.0
 40
0.1112158671471144
 40
0.2221456327888126
 40
0.3328873315185747
 40
0.4435271274166264
 40
0.5541287957636452
 40
0.6646577342116327
 40
0.7751066789725892
 40
0.8856017900237638
 40
0.9963074519806788
 40
1.107407050318666
 40
1.107407050318666
 40
1.107407050318666
 40
1.107407050318666
 10
168.1641191857193
 20
9.916416809300002
 30
0.0
 10
168.1659520126463
 20
9.953443430075367
 30
0.0
 10
168.1696423241159
 20
10.02739997037433
 30
0.0
 10
168.1752629616996
 20
10.13821998416033
 30
0.0
 10
168.1809738137921
 20
10.24884310589333
 30
0.0
 10
168.1867572787669
 20
10.35935293253048
 30
0.0
 10
168.1925877303215
 20
10.4697892674483
 30
0.0
 10
168.1984390204725
 20
10.5801607916881
 30
0.0
 10
168.2042874172703
 20
10.6904969014422
 30
0.0
 10
168.2101063289996
 20
10.80089355943651
 30
0.0
 10
168.2158998996781
 20
10.91150873968013
 30
0.0
 10
168.2198467104056
 20
10.98533842079621
 30
0.0
 10
168.2218339024193
 20
11.02231826569999
 30
0.0
 11
168.1641191857193
 21
9.916416809300002
 31
0.0
 11
168.1696632418193
 21
10.02749441379995
 31
0.0
 11
168.1752838310192
 21
10.13828169190002
 31
0.0
 11
168.1809896212194
 21
10.24887629950001
 31
0.0
 11
168.1867673958192
 21
10.35936512910001
 31
0.0
 11
168.1925940433191
 21
10.46981321209999
 31
0.0
 11
168.1984412618194
 21
10.58018737639996
 31
0.0
 11
168.2042821736193
 21
10.6904817691
 31
0.0
 11
168.2100975281193
 21
10.80082374279999
 31
0.0
 11
168.2159138828194
 21
10.91137650649999
 31
0.0
 11
168.2218339024193
 21
11.02231826569999
 31
0.0
  0
SPLINE
  5
592C5
330
1F
100
AcDbEntity
  8
1
100
AcDbSpline
210
0.0
220
0.0
230
1.0
 70
     8
 71
     3
 72
    26
 73
    22
 74
    20
 42
0.0000000001
 43
0.0000000001
 44
0.000001
 12
0.0474280304701566
 22
0.9988746577652884
 32
0.0
 13
0.0054010698384836
 23
0.9999854141159259
 33
0.0
 40
0.0
 40
0.0
 40
0.0
 40
0.0
 40
0.0712510218152019
 40
0.1337412363680923
 40
0.1917845120612221
 40
0.2493622582132915
 40
0.3081201732314103
 40
0.3673274028492019
 40
0.4256818205127657
 40
0.4823690349032794
 40
0.5421213185202523
 40
0.6110974069338717
 40
0.6846884965363729
 40
0.7563149620366555
 40
0.8245639840560301
 40
0.8883500863065588
 40
0.9466145256250888
 40
0.9983386708933695
 40
1.044226232707667
 40
1.086827222970742
 40
1.129017547272681
 40
1.129017547272681
 40
1.129017547272681
 40
1.129017547272681
 10
168.2218339024193
 20
11.02231826569999
 30
0.0
 10
168.2229603342972
 20
11.04604187904368
 30
0.0
 10
168.2251081709596
 20
11.09057053636772
 30
0.0
 10
168.2282630248306
 20
11.15442083001228
 30
0.0
 10
168.2312817999492
 20
11.21371447023996
 30
0.0
 10
168.2343326860508
 20
11.27176069039421
 30
0.0
 10
168.2375151879213
 20
11.33018841889891
 30
0.0
 10
168.2408428129315
 20
11.38886738683762
 30
0.0
 10
168.2442665956862
 20
11.4468493779031
 30
0.0
 10
168.247774961134
 20
11.50500829706291
 30
0.0
 10
168.2515210219233
 20
11.56669986104187
 30
0.0
 10
168.2555657207729
 20
11.63401829697079
 30
0.0
 10
168.2597006165908
 20
11.70529643938789
 30
0.0
 10
168.2635684824392
 20
11.7763469720967
 30
0.0
 10
168.2669357987454
 20
11.84415091629866
 30
0.0
 10
168.2697248160516
 20
11.90752314523791
 30
0.0
 10
168.2719132086112
 20
11.96540706277761
 30
0.0
 10
168.2735533162051
 20
12.01734023833968
 30
0.0
 10
168.2747214491672
 20
12.06406354855301
 30
0.0
 10
168.2755014339415
 20
12.10761662095755
 30
0.0
 10
168.2757645194899
 20
12.13587956469374
 30
0.0
 10
168.2758404771193
 20
12.14994280099999
 30
0.0
 11
168.2218339024193
 21
11.02231826569999
 31
0.0
 11
168.2252626841193
 21
11.09348671859999
 31
0.0
 11
168.2283513382192
 21
11.15590055580003
 31
0.0
 11
168.2313046265192
 21
11.21386864899999
 31
0.0
 11
168.2343290985193
 21
11.27136690340001
 31
0.0
 11
168.2375277939193
 21
11.33003768559996
 31
0.0
 11
168.2408810505194
 21
11.38914987849999
 31
0.0
 11
168.2443108642194
 21
11.44740341010002
 31
0.0
 11
168.2477160879193
 21
11.50398825039997
 31
0.0
 11
168.2513277895193
 21
11.56363127409997
 31
0.0
 11
168.2554495273195
 21
11.63248409519991
 31
0.0
 11
168.2596933437194
 21
11.70595270889998
 31
0.0
 11
168.2635705294194
 21
11.77747415169999
 31
0.0
 11
168.2669423383195
 21
11.84563982420002
 31
0.0
 11
168.2697359812192
 21
11.90936471469996
 31
0.0
 11
168.2719306399194
 21
11.96758780179999
 31
0.0
 11
168.2735536847192
 21
12.0192864717
 31
0.0
 11
168.2746916149194
 21
12.06515991489998
 31
0.0
 11
168.2754415451193
 21
12.1077542854
 31
0.0
 11
168.2758404771193
 21
12.14994280099999
 31
0.0
  0
SPLINE
  5
592C6
330
1F
100
AcDbEntity
  8
1
100
AcDbSpline
210
0.0
220
0.0
230
1.0
 70
     8
 71
     3
 72
    27
 73
    23
 74
    21
 42
0.0000000001
 43
0.0000000001
 44
0.000001
 12
-0.0012068872247292
 22
0.9999992717113482
 32
0.0
 13
-0.0008370782835973
 23
0.9999996496499122
 33
0.0
 40
0.0
 40
0.0
 40
0.0
 40
0.0
 40
0.0128028250483016
 40
0.0255694319224383
 40
0.0382661630896458
 40
0.0509360186926559
 40
0.0636369178091554
 40
0.0762909126565907
 40
0.0888427493760401
 40
0.1016022169125897
 40
0.1151538403644966
 40
0.1300671393670738
 40
0.1467684584664086
 40
0.1653265984379325
 40
0.1857071554781242
 40
0.2079923174058679
 40
0.2324548404674979
 40
0.259384173132448
 40
0.2890672733900863
 40
0.3217907951134506
 40
0.357841420905264
 40
0.3975061159376297
 40
0.3975061159376297
 40
0.3975061159376297
 40
0.3975061159376297
 10
168.2758404771193
 20
12.14994280099999
 30
0.0
 10
168.2758353265973
 20
12.15421040624137
 30
0.0
 10
168.2758208334312
 20
12.16273354287541
 30
0.0
 10
168.2757741823695
 20
12.17548884945732
 30
0.0
 10
168.2757220327578
 20
12.1881998060533
 30
0.0
 10
168.2756751137656
 20
12.20088888253634
 30
0.0
 10
168.2756385541028
 20
12.21356374729966
 30
0.0
 10
168.2756076448561
 20
12.22619928652261
 30
0.0
 10
168.2755797199908
 20
12.23885435545055
 30
0.0
 10
168.2755506491694
 20
12.2518086320786
 30
0.0
 10
168.2755180096394
 20
12.26555005667384
 30
0.0
 10
168.2754817679549
 20
12.28060542689135
 30
0.0
 10
168.2754423794135
 20
12.29732963324304
 30
0.0
 10
168.2754018981519
 20
12.31587626119778
 30
0.0
 10
168.2753603664715
 20
12.33628417196837
 30
0.0
 10
168.2753172817588
 20
12.35866021120148
 30
0.0
 10
168.2752725000404
 20
12.38321917631377
 30
0.0
 10
168.2752270186929
 20
12.41024412348461
 30
0.0
 10
168.2751817815919
 20
12.44002274079373
 30
0.0
 10
168.2751373445715
 20
12.47284179352181
 30
0.0
 10
168.275095867168
 20
12.5089880507013
 30
0.0
 10
168.2750705185043
 20
12.5342264785214
 30
0.0
 10
168.2750594510194
 20
12.54744803890001
 30
0.0
 11
168.2758404771193
 21
12.14994280099999
 31
0.0
 11
168.2758156313195
 21
12.16274560229999
 31
0.0
 11
168.2757721470195
 21
12.17551213449997
 31
0.0
 11
168.2757218542194
 21
12.18820876580003
 31
0.0
 11
168.2756758670195
 21
12.20087853789999
 31
0.0
 11
168.2756384383194
 21
12.21357938189999
 31
0.0
 11
168.2756070689192
 21
12.22623333789997
 31
0.0
 11
168.2755787949193
 21
12.23878514279998
 31
0.0
 11
168.2755499712195
 21
12.25154457780003
 31
0.0
 11
168.2755180190192
 21
12.26509616359999
 31
0.0
 11
168.2754823247194
 21
12.28000941990001
 31
0.0
 11
168.2754432920192
 21
12.29671069339997
 31
0.0
 11
168.2754026592195
 21
12.31526878889997
 31
0.0
 11
168.2753610141194
 21
12.33564930340003
 31
0.0
 11
168.2753180406193
 21
12.35793442389996
 31
0.0
 11
168.2752735447195
 21
12.38239690649999
 31
0.0
 11
168.2752282630192
 21
12.40932620109999
 31
0.0
 11
168.2751830982195
 21
12.439009267
 31
0.0
 11
168.2751389180193
 21
12.47173275889996
 31
0.0
 11
168.2750970684192
 21
12.50778336040001
 31
0.0
 11
168.2750594510194
 21
12.54744803890001
 31
0.0
  0
SPLINE
  5
592C7
330
1F
100
AcDbEntity
  8
1
100
AcDbSpline
210
0.0
220
0.0
230
1.0
 70
     8
 71
     3
 72
    22
 73
    18
 74
    16
 42
0.0000000001
 43
0.0000000001
 44
0.000001
 12
-0.9996410372925096
 22
-0.0267917256024239
 32
0.0
 13
-0.9995746229449741
 23
-0.0291645875063039
 33
0.0
 40
0.0
 40
0.0
 40
0.0
 40
0.0
 40
1.870283259696127
 40
2.020106451073705
 40
2.170068035286869
 40
2.320164700733306
 40
2.470393165254461
 40
2.620749214409118
 40
2.771228183281037
 40
2.921825417680479
 40
3.07253643148352
 40
3.223356703384931
 40
3.374281541125002
 40
3.525306068731572
 40
3.67642531043552
 40
3.827634260874943
 40
3.978927810012877
 40
3.978927810012877
 40
3.978927810012877
 40
3.978927810012877
 10
162.4700736112195
 20
14.74411982310016
 30
0.0
 10
161.8468696453017
 20
14.72741711780263
 30
0.0
 10
161.173606767122
 20
14.71468878008228
 30
0.0
 10
160.4505230939814
 20
14.69482910161896
 30
0.0
 10
160.300619251829
 20
14.69070860139973
 30
0.0
 10
160.1505817018209
 20
14.68653531186489
 30
0.0
 10
160.0004136349154
 20
14.68232567739103
 30
0.0
 10
159.8501191107234
 20
14.67807945808241
 30
0.0
 10
159.699702529226
 20
14.67380097858066
 30
0.0
 10
159.5491684071151
 20
14.66949343922079
 30
0.0
 10
159.3985212027554
 20
14.6651603841412
 30
0.0
 10
159.2477653878769
 20
14.6608052715126
 30
0.0
 10
159.0969055606606
 20
14.65643164123658
 30
0.0
 10
158.9459464724996
 20
14.65204293967163
 30
0.0
 10
158.7948929643801
 20
14.64764309332594
 30
0.0
 10
158.6437500025158
 20
14.64323439113603
 30
0.0
 10
158.5429586637974
 20
14.64029582345132
 30
0.0
 10
158.4925489330196
 20
14.63882501880033
 30
0.0
 11
162.4700736112195
 21
14.74411982310016
 31
0.0
 11
160.6003367775195
 21
14.69891307330023
 31
0.0
 11
160.4505692115196
 21
14.69483081060025
 31
0.0
 11
160.3006644577197
 21
14.6907026697002
 31
0.0
 11
160.1506257451194
 21
14.68653209200027
 31
0.0
 11
160.0004562747197
 21
14.68232237340028
 31
0.0
 11
159.8501601775194
 21
14.67807682260029
 31
0.0
 11
159.6997420310194
 21
14.67379882150028
 31
0.0
 11
159.5492063982194
 21
14.66949181760031
 31
0.0
 11
159.3985576716193
 21
14.66515928130026
 31
0.0
 11
159.2478002770195
 21
14.66080469700029
 31
0.0
 11
159.0969388092196
 21
14.65643157530029
 31
0.0
 11
158.9459780448194
 21
14.65204345930026
 31
0.0
 11
158.7949228585196
 21
14.64764392370027
 31
0.0
 11
158.6437781533193
 21
14.6432365684002
 31
0.0
 11
158.4925489330196
 21
14.63882501880033
 31
0.0
  0
SPLINE
  5
592C8
330
1F
100
AcDbEntity
  8
1
100
AcDbSpline
210
0.0
220
0.0
230
1.0
 70
     8
 71
     3
 72
    22
 73
    18
 74
    16
 42
0.0000000001
 43
0.0000000001
 44
0.000001
 12
-0.9994697870193002
 22
-0.0325598654111905
 32
0.0
 13
-0.9994493541994511
 23
-0.0331811451023019
 33
0.0
 40
0.0
 40
0.0
 40
0.0
 40
0.0
 40
0.1496746163751728
 40
0.2994911257918328
 40
0.4494455195662118
 40
0.5995337340187821
 40
0.7497515829511949
 40
0.9000947975758542
 40
1.050559032979749
 40
1.201139817686929
 40
1.351832583326539
 40
1.50263266216191
 40
1.653535338527657
 40
1.804535777460697
 40
1.955629019690564
 40
2.106810045804555
 40
2.25807369621154
 40
2.25807369621154
 40
2.25807369621154
 40
2.25807369621154
 10
158.4925489330196
 20
14.63882501880033
 30
0.0
 10
158.4426838473694
 20
14.63720055701212
 30
0.0
 10
158.3429067404132
 20
14.6339397449812
 30
0.0
 10
158.1931723606471
 20
14.62902020950544
 30
0.0
 10
158.0433010005978
 20
14.62407151382436
 30
0.0
 10
157.8932966301705
 20
14.61909735770825
 30
0.0
 10
157.743163319254
 20
14.61410099071007
 30
0.0
 10
157.59290522506
 20
14.60908582522715
 30
0.0
 10
157.4425265994921
 20
14.60405525765186
 30
0.0
 10
157.2920317910649
 20
14.59901276153761
 30
0.0
 10
157.1414252314969
 20
14.593962523342
 30
0.0
 10
156.9907114885373
 20
14.5889070925617
 30
0.0
 10
156.8398951778449
 20
14.58385023943647
 30
0.0
 10
156.6889810361255
 20
14.57879502741025
 30
0.0
 10
156.5379738744584
 20
14.57374533287534
 30
0.0
 10
156.3868786145465
 20
14.56870498324233
 30
0.0
 10
156.2861194426906
 20
14.56535359241137
 30
0.0
 10
156.2357259901196
 20
14.56368055870041
 30
0.0
 11
158.4925489330196
 21
14.63882501880033
 31
0.0
 11
158.3429541185194
 21
14.63393789380036
 31
0.0
 11
158.1932183882193
 21
14.62901861790034
 31
0.0
 11
158.0433456501196
 21
14.62407048180033
 31
0.0
 11
157.8933398633196
 21
14.61909680630033
 31
0.0
 11
157.7432051073194
 21
14.61410094370036
 31
0.0
 11
157.5929455417192
 21
14.60908627670031
 31
0.0
 11
157.4425653992195
 21
14.60405621660032
 31
0.0
 11
157.2920690402195
 21
14.59901420580036
 31
0.0
 11
157.1414609409196
 21
14.59396371620032
 31
0.0
 11
156.9907456368194
 21
14.5889082468003
 31
0.0
 11
156.8399277264195
 21
14.58385132330039
 31
0.0
 11
156.6890119284196
 21
14.57879649930039
 31
0.0
 11
156.5380030804197
 21
14.57374735570039
 31
0.0
 11
156.3869060864194
 21
14.56870749820042
 31
0.0
 11
156.2357259901196
 21
14.56368055870041
 31
0.0
  0
SPLINE
  5
592C9
330
1F
100
AcDbEntity
  8
1
100
AcDbSpline
210
0.0
220
0.0
230
1.0
 70
     8
 71
     3
 72
    59
 73
    55
 74
    53
 42
0.0000000001
 43
0.0000000001
 44
0.000001
 12
0.9994209363019345
 22
0.0340263439317902
 32
0.0
 13
0.9996880839697254
 23
-0.0249746825593306
 33
0.0
 40
0.0
 40
0.0
 40
0.0
 40
0.0
 40
0.0780922387445133
 40
0.1248387033615633
 40
0.1701782864705649
 40
0.2140548389144807
 40
0.2572482690745641
 40
0.3007472162323501
 40
0.3455403322207584
 40
0.3926162972882215
 40
0.4429638286736095
 40
0.4975716812737125
 40
0.5574286410650601
 40
0.5825262271571612
 40
0.5952465023414343
 40
0.607979443324413
 40
0.6332922347686396
 40
0.6585396713378094
 40
0.6838349303292625
 40
0.7091093406830758
 40
0.7342882223225856
 40
0.7469366827006536
 40
0.7596887632511839
 40
0.7725454255812009
 40
0.7853790146017991
 40
0.8102778807724217
 40
0.853783943410314
 40
0.8914988671457567
 40
0.9261103840710982
 40
0.9603061641648483
 40
0.996205891818079
 40
1.033657391334683
 40
1.071940442895814
 40
1.110335048765648
 40
1.185795797558488
 40
1.260365218410866
 40
1.335261070185546
 40
1.410396216831163
 40
1.485444009082196
 40
1.560427926763626
 40
1.710460848391679
 40
1.8604945075984
 40
2.010529502095103
 40
2.16056509861138
 40
2.310601730262268
 40
2.460639588204159
 40
2.610678576679481
 40
2.760718333663156
 40
2.910759062539916
 40
3.060800911855975
 40
3.210844038343739
 40
3.360888775588553
 40
3.510935136770413
 40
3.660981239552763
 40
3.660981239552763
 40
3.660981239552763
 40
3.660981239552763
 10
162.4700736112195
 20
14.74411982310016
 30
0.0
 10
162.4960892840074
 20
14.7450055542248
 30
0.0
 10
162.5376778074397
 20
14.7464297659196
 30
0.0
 10
162.5943700154692
 20
14.74839025873567
 30
0.0
 10
162.6396631844886
 20
14.7499745519933
 30
0.0
 10
162.6837719141108
 20
14.75154064105256
 30
0.0
 10
162.7272672333569
 20
14.75309198596794
 30
0.0
 10
162.7710682691187
 20
14.75464330757454
 30
0.0
 10
162.8161636727186
 20
14.75621202852565
 30
0.0
 10
162.8635420867059
 20
14.75781568689069
 30
0.0
 10
162.914192137778
 20
14.75947207393663
 30
0.0
 10
162.9691024536544
 20
14.76119903692684
 30
0.0
 10
163.0156020711224
 20
14.76260273985014
 30
0.0
 10
163.0481463581294
 20
14.76355773853346
 30
0.0
 10
163.0649906021074
 20
14.76400875605958
 30
0.0
 10
163.0819076198877
 20
14.76442029779677
 30
0.0
 10
163.1030015025272
 20
14.76483077302697
 30
0.0
 10
163.1282844291847
 20
14.76517543802708
 30
0.0
 10
163.1535559515457
 20
14.76539431761438
 30
0.0
 10
163.1788053798949
 20
14.76548999692605
 30
0.0
 10
163.1998393949364
 20
14.76546627611809
 30
0.0
 10
163.2166989684781
 20
14.76537319559151
 30
0.0
 10
163.229450918544
 20
14.76526321464961
 30
0.0
 10
163.2422641463647
 20
14.76511130185908
 30
0.0
 10
163.2591254830812
 20
14.76487081979584
 30
0.0
 10
163.2862011789559
 20
14.76441530872567
 30
0.0
 10
163.3215688161533
 20
14.76378305437059
 30
0.0
 10
163.3601724931136
 20
14.76303899167487
 30
0.0
 10
163.3956725881851
 20
14.76231837288011
 30
0.0
 10
163.4305675849209
 20
14.76160235293181
 30
0.0
 10
163.4664094882183
 20
14.76088884947306
 30
0.0
 10
163.5036137914984
 20
14.7601607957538
 30
0.0
 10
163.5416496432867
 20
14.75942065559498
 30
0.0
 10
163.5923529021793
 20
14.75843685043445
 30
0.0
 10
163.6551487761425
 20
14.75718950298072
 30
0.0
 10
163.7301089673524
 20
14.75568239534822
 30
0.0
 10
163.8049605380851
 20
14.75417206806112
 30
0.0
 10
163.8799713576059
 20
14.7526498267318
 30
0.0
 10
163.9550112538899
 20
14.75111361335921
 30
0.0
 10
164.0550115115163
 20
14.74905017749754
 30
0.0
 10
164.1800011722772
 20
14.7464437031942
 30
0.0
 10
164.3300014497407
 20
14.74326940960367
 30
0.0
 10
164.4800016411647
 20
14.74004923726723
 30
0.0
 10
164.6300018289257
 20
14.73678306134518
 30
0.0
 10
164.7800019787852
 20
14.7334716119105
 30
0.0
 10
164.9300022313075
 20
14.73011390629618
 30
0.0
 10
165.0800024982584
 20
14.72671060506283
 30
0.0
 10
165.2300026737174
 20
14.7232613898794
 30
0.0
 10
165.3800027413798
 20
14.71976630993886
 30
0.0
 10
165.530002857754
 20
14.71622540587425
 30
0.0
 10
165.6800032299001
 20
14.71263901014994
 30
0.0
 10
165.8300040074728
 20
14.70900694926401
 30
0.0
 10
165.9800047068202
 20
14.70533092746427
 30
0.0
 10
166.08000467892
 20
14.70284673932876
 30
0.0
 10
166.1300044459192
 20
14.70159762140001
 30
0.0
 11
162.4700736112195
 21
14.74411982310016
 31
0.0
 11
162.5481200786196
 21
14.74679383360019
 31
0.0
 11
162.5948385761196
 21
14.74841060320017
 31
0.0
 11
162.6401504098196
 21
14.74999663650016
 31
0.0
 11
162.6839994242195
 21
14.75155091050015
 31
0.0
 11
162.7271655114193
 21
14.75308756970018
 31
0.0
 11
162.7706372970195
 21
14.75462454090018
 31
0.0
 11
162.8154034070196
 21
14.75617975080018
 31
0.0
 11
162.8624524673196
 21
14.75777112630014
 31
0.0
 11
162.9127731036194
 21
14.75941659400018
 31
0.0
 11
162.9673539419193
 21
14.76113408080016
 31
0.0
 11
163.0271836080194
 21
14.76294151340015
 31
0.0
 11
163.0522707497196
 21
14.76366551040019
 31
0.0
 11
163.0649865085195
 21
14.76400445940014
 31
0.0
 11
163.0777157254194
 21
14.76431240830016
 31
0.0
 11
163.1030236738195
 21
14.76480759150019
 31
0.0
 11
163.1282687167193
 21
14.76515532600017
 31
0.0
 11
163.1535630245196
 21
14.76537483180016
 31
0.0
 11
163.1788372556195
 21
14.76547036560015
 31
0.0
 11
163.2040161178195
 21
14.76543802330012
 31
0.0
 11
163.2166643843195
 21
14.76536787060013
 31
0.0
 11
163.2294159894193
 21
14.76525767680016
 31
0.0
 11
163.2422717700194
 21
14.76510705100014
 31
0.0
 11
163.2551040747196
 21
14.76492544840016
 31
0.0
 11
163.2799995993193
 21
14.76451746110017
 31
0.0
 11
163.3234986940195
 21
14.76373869890017
 31
0.0
 11
163.3612066448195
 21
14.7630133433002
 31
0.0
 11
163.3958111254194
 21
14.76231528320016
 31
0.0
 11
163.4299998097194
 21
14.76161840770015
 31
0.0
 11
163.4658924015195
 21
14.76090212180014
 31
0.0
 11
163.5033367285193
 21
14.76016789650009
 31
0.0
 11
163.5416126483194
 21
14.75942271890011
 31
0.0
 11
163.5800000188196
 21
14.75867357620011
 31
0.0
 11
163.6554458148196
 21
14.75717954500007
 31
0.0
 11
163.7300001928192
 21
14.7556826884001
 31
0.0
 11
163.8048807850196
 21
14.75417123280009
 31
0.0
 11
163.8800004455195
 21
14.75264600310008
 31
0.0
 11
163.9550325182197
 21
14.75111014750011
 31
0.0
 11
164.0300004805196
 21
14.74956343780012
 31
0.0
 11
164.1800007801196
 21
14.74643500190011
 31
0.0
 11
164.3300008562196
 21
14.74326077590012
 31
0.0
 11
164.4800012884195
 21
14.74004057800009
 31
0.0
 11
164.6300013316195
 21
14.73677452690015
 31
0.0
 11
164.7800014114193
 21
14.73346291590012
 31
0.0
 11
164.9300016956197
 21
14.73010531950011
 31
0.0
 11
165.0800020794195
 21
14.72670196230011
 31
0.0
 11
165.2300021847193
 21
14.72325275700008
 31
0.0
 11
165.3800022005196
 21
14.71975768580006
 31
0.0
 11
165.5300022635194
 21
14.71621683940003
 31
0.0
 11
165.6800025213194
 21
14.71263041830008
 31
0.0
 11
165.8300032990196
 21
14.70899863970004
 31
0.0
 11
165.9800045973195
 21
14.70532155070002
 31
0.0
 11
166.1300044459192
 21
14.70159762140001
 31
0.0
  0
SPLINE
  5
592CA
330
1F
100
AcDbEntity
  8
1
100
AcDbSpline
210
0.0
220
0.0
230
1.0
 70
     8
 71
     3
 72
    57
 73
    53
 74
    51
 42
0.0000000001
 43
0.0000000001
 44
0.000001
 12
0.5542851417438515
 22
0.8323268478440416
 32
0.0
 13
0.484455734304265
 23
0.8748157757492233
 33
0.0
 40
0.0
 40
0.0
 40
0.0
 40
0.0
 40
0.0040250668637707
 40
0.0079968166836815
 40
0.0119178409979437
 40
0.0157904799134626
 40
0.0196170532416818
 40
0.0234001461588724
 40
0.0271415786587004
 40
0.0308435137262212
 40
0.034508385329591
 40
0.0381379710080081
 40
0.0417345622492621
 40
0.0453005441457413
 40
0.0488374551240437
 40
0.0523465194180833
 40
0.0558299143825493
 40
0.0592897265437755
 40
0.0627269542845806
 40
0.0661422886886398
 40
0.0695373750150946
 40
0.07291471798053
 40
0.0762766291175323
 40
0.0796246788735883
 40
0.0829583131972821
 40
0.0862756764228377
 40
0.0895752849838824
 40
0.0928553735243879
 40
0.0961156813298413
 40
0.0993583129869072
 40
0.1025853587147564
 40
0.1057981531826258
 40
0.1089977917526354
 40
0.1121859122548636
 40
0.1153638284071568
 40
0.118533155809005
 40
0.1216947543496629
 40
0.1248502381222132
 40
0.1280007072592329
 40
0.1311474598897941
 40
0.1342919803404624
 40
0.1374352425764827
 40
0.1405788853463842
 40
0.1437237597208089
 40
0.1468714389889986
 40
0.1500228591792754
 40
0.1531794952076424
 40
0.1563425788434074
 40
0.159513578498273
 40
0.1626936749584621
 40
0.1658834966732169
 40
0.2054911757643673
 40
0.2054911757643673
 40
0.2054911757643673
 40
0.2054911757643673
 10
167.8517314659184
 20
-13.85741903500002
 30
0.0
 10
167.8524751441707
 20
-13.85630231126166
 30
0.0
 10
167.853952078786
 20
-13.85408327419148
 30
0.0
 10
167.8561456299749
 20
-13.85077117314492
 30
0.0
 10
167.8583065292485
 20
-13.84749839560338
 30
0.0
 10
167.8604354952764
 20
-13.84426252794297
 30
0.0
 10
167.8625341956914
 20
-13.84106178940236
 30
0.0
 10
167.8646039388332
 20
-13.8378943680989
 30
0.0
 10
167.8666460585844
 20
-13.83475853152454
 30
0.0
 10
167.8686618340023
 20
-13.83165257090277
 30
0.0
 10
167.8706525300565
 20
-13.8285747848144
 30
0.0
 10
167.8726194229141
 20
-13.82552342764167
 30
0.0
 10
167.874563769573
 20
-13.82249676043162
 30
0.0
 10
167.8764867729882
 20
-13.81949310391024
 30
0.0
 10
167.8783894343946
 20
-13.81651107177495
 30
0.0
 10
167.8802727101021
 20
-13.81354933093051
 30
0.0
 10
167.8821376453277
 20
-13.81060638806359
 30
0.0
 10
167.8839852360818
 20
-13.80768080759226
 30
0.0
 10
167.8858162057098
 20
-13.80477156750274
 30
0.0
 10
167.8876311937513
 20
-13.80187776666987
 30
0.0
 10
167.8894311000774
 20
-13.79899807440483
 30
0.0
 10
167.891217101499
 20
-13.79613069601261
 30
0.0
 10
167.8929903499655
 20
-13.79327385060475
 30
0.0
 10
167.8947514506724
 20
-13.79042661790036
 30
0.0
 10
167.8965002742183
 20
-13.78758925653213
 30
0.0
 10
167.8982361618289
 20
-13.78476289466857
 30
0.0
 10
167.8999582516304
 20
-13.78194900953778
 30
0.0
 10
167.9016659676179
 20
-13.77914862993749
 30
0.0
 10
167.9033593615228
 20
-13.77636176647486
 30
0.0
 10
167.9050391497478
 20
-13.77358732967516
 30
0.0
 10
167.9067063157199
 20
-13.77082376997332
 30
0.0
 10
167.908361659383
 20
-13.7680698199368
 30
0.0
 10
167.9100058956441
 20
-13.76532433693016
 30
0.0
 10
167.9116397286455
 20
-13.76258618000155
 30
0.0
 10
167.9132639428394
 20
-13.75985405420086
 30
0.0
 10
167.9148791830982
 20
-13.75712688331923
 30
0.0
 10
167.9164861366477
 20
-13.75440349993614
 30
0.0
 10
167.918085397333
 20
-13.75168288113185
 30
0.0
 10
167.9196776241144
 20
-13.74896387293683
 30
0.0
 10
167.9212634476554
 20
-13.74624535508984
 30
0.0
 10
167.9228434681614
 20
-13.7435262384265
 30
0.0
 10
167.9244183358296
 20
-13.74080533173124
 30
0.0
 10
167.9259885855617
 20
-13.73808162116844
 30
0.0
 10
167.9275548477167
 20
-13.73535391769165
 30
0.0
 10
167.92911761359
 20
-13.73262122248398
 30
0.0
 10
167.9306775203811
 20
-13.72988238232103
 30
0.0
 10
167.9322349493693
 20
-13.72713622406221
 30
0.0
 10
167.9337910737325
 20
-13.72438184253859
 30
0.0
 10
167.935344333726
 20
-13.72161681173631
 30
0.0
 10
167.936903084916
 20
-13.71884487581931
 30
0.0
 10
167.9442771080486
 20
-13.7054055835865
 30
0.0
 10
167.9536062989616
 20
-13.69437812630821
 30
0.0
 10
167.9600023547143
 20
-13.68282831880496
 30
0.0
 11
167.8517314659184
 21
-13.85741903500002
 31
0.0
 11
167.8539597881185
 21
-13.85406710400001
 31
0.0
 11
167.8561533325185
 21
-13.85075603789998
 31
0.0
 11
167.8583136685183
 21
-13.84748382449997
 31
0.0
 11
167.8604422348185
 21
-13.8442486215
 31
0.0
 11
167.8625404466186
 21
-13.84104859469998
 31
0.0
 11
167.8646098527185
 21
-13.8378816796
 31
0.0
 11
167.8666515712184
 21
-13.83474644379997
 31
0.0
 11
167.8686668980183
 21
-13.83164116089999
 31
0.0
 11
167.8706572652186
 21
-13.8285638694
 31
0.0
 11
167.8726237373187
 21
-13.82551315139999
 31
0.0
 11
167.8745676474184
 21
-13.82248715029999
 31
0.0
 11
167.8764903675185
 21
-13.81948392290002
 31
0.0
 11
167.8783928027185
 21
-13.81650223209998
 31
0.0
 11
167.8802756822185
 21
-13.813541101
 31
0.0
 11
167.8821402385185
 21
-13.810598743
 31
0.0
 11
167.8839876449183
 21
-13.80767344129997
 31
0.0
 11
167.8858184852185
 21
-13.80476439360001
 31
0.0
 11
167.8876331752183
 21
-13.80187105480002
 31
0.0
 11
167.8894326324187
 21
-13.79899206800002
 31
0.0
 11
167.8912182198185
 21
-13.79612534109996
 31
0.0
 11
167.8929911856185
 21
-13.79326893799997
 31
0.0
 11
167.8947523767183
 21
-13.79042154569998
 31
0.0
 11
167.8965015181186
 21
-13.78758365530001
 31
0.0
 11
167.8982376578183
 21
-13.7847568696
 31
0.0
 11
167.8999600480185
 21
-13.78194248009997
 31
0.0
 11
167.9016678025184
 21
-13.77914202390001
 31
0.0
 11
167.9033608254183
 21
-13.7763557576
 31
0.0
 11
167.9050402461187
 21
-13.77358191450007
 31
0.0
 11
167.9067071755184
 21
-13.77081873339999
 31
0.0
 11
167.9083623243185
 21
-13.76806509399999
 31
0.0
 11
167.9100062733184
 21
-13.7653200771
 31
0.0
 11
167.9116398750186
 21
-13.76258229389996
 31
0.0
 11
167.9132638072185
 21
-13.75985062879999
 31
0.0
 11
167.9148788943187
 21
-13.75712370219996
 31
0.0
 11
167.9164855675183
 21
-13.75440077999997
 31
0.0
 11
167.9180846351185
 21
-13.751680475
 31
0.0
 11
167.9196766361185
 21
-13.748961838
 31
0.0
 11
167.9212622029185
 21
-13.74624374519999
 31
0.0
 11
167.9228420529182
 21
-13.74352490699998
 31
0.0
 11
167.9244166392184
 21
-13.74080447070001
 31
0.0
 11
167.9259867400185
 21
-13.73808100389998
 31
0.0
 11
167.9275527313184
 21
-13.73535375179999
 31
0.0
 11
167.9291153409185
 21
-13.73262132909995
 31
0.0
 11
167.9306749711186
 21
-13.72988289879998
 31
0.0
 11
167.9322322828186
 21
-13.72713715140007
 31
0.0
 11
167.9337878067183
 21
-13.72438298349998
 31
0.0
 11
167.9353421803187
 21
-13.72161908070001
 31
0.0
 11
167.9368958898183
 21
-13.718844374
 31
0.0
 11
167.9384491432186
 21
-13.71605827220007
 31
0.0
 11
167.9600023547143
 21
-13.68282831880496
 31
0.0
  0
SPLINE
  5
592CB
330
1F
100
AcDbEntity
  8
1
100
AcDbSpline
210
0.0
220
0.0
230
1.0
 70
     8
 71
     3
 72
    11
 73
     7
 74
     5
 42
0.0000000001
 43
0.0000000001
 44
0.000001
 12
0.0560845230918119
 22
-0.9984260244352427
 32
0.0
 13
0.0580070876146744
 23
-0.9983161712536082
 33
0.0
 40
0.0
 40
0.0
 40
0.0
 40
0.0
 40
0.1192640738723123
 40
0.2486812809488659
 40
0.3902403778699401
 40
0.5473593310799683
 40
0.5473593310799683
 40
0.5473593310799683
 40
0.5473593310799683
 10
167.6430454846188
 20
-0.3624888511000108
 30
0.0
 10
167.6452751075205
 20
-0.4021809694781098
 30
0.0
 10
167.6499458977748
 20
-0.4849430373342898
 30
0.0
 10
167.6573394671652
 20
-0.6148128786947354
 30
0.0
 10
167.6655225019588
 20
-0.7572764817956852
 30
0.0
 10
167.671275104424
 20
-0.8566695022333448
 30
0.0
 10
167.6743131087189
 20
-0.9089542995000101
 30
0.0
 11
167.6430454846188
 21
-0.3624888511000108
 31
0.0
 11
167.6497637276191
 21
-0.4815635567999835
 31
0.0
 11
167.6571203664189
 21
-0.610771506399999
 31
0.0
 11
167.665235817519
 21
-0.7520977807999998
 31
0.0
 11
167.6743131087189
 21
-0.9089542995000101
 31
0.0
  0
SPLINE
  5
592CC
330
1F
100
AcDbEntity
  8
1
100
AcDbSpline
210
0.0
220
0.0
230
1.0
 70
     8
 71
     3
 72
    57
 73
    53
 74
    51
 42
0.0000000001
 43
0.0000000001
 44
0.000001
 12
0.6218414946316713
 22
0.7831431258424281
 32
0.0
 13
0.5657844593952174
 23
0.8245531793079582
 33
0.0
 40
0.0
 40
0.0
 40
0.0
 40
0.0
 40
0.0039898783970339
 40
0.007929115017425
 40
0.0118195822574385
 40
0.0156637041280284
 40
0.0194642610768991
 40
0.0232228578586457
 40
0.0269412998097979
 40
0.0306225003321016
 40
0.0342683121979438
 40
0.0378802757274499
 40
0.0414606037212011
 40
0.0450117421968859
 40
0.0485347676851997
 40
0.0520306798460253
 40
0.0555012638654158
 40
0.0589487505910702
 40
0.0623745126737954
 40
0.0657807323964619
 40
0.0691695308284606
 40
0.0725425464338774
 40
0.0759016972650034
 40
0.0792471281597964
 40
0.0825780379542774
 40
0.0858938014535755
 40
0.0891923167056023
 40
0.092472202152884
 40
0.0957342536990265
 40
0.0989805221629584
 40
0.1022126173288384
 40
0.105431201532364
 40
0.1086371688464522
 40
0.1118322738018973
 40
0.1150179386336224
 40
0.1181951422098628
 40
0.1213655815498395
 40
0.1245306891376735
 40
0.1276908992466705
 40
0.1308473066491728
 40
0.13400164992464
 40
0.13715543177096
 40
0.1403103146803833
 40
0.1434676424796919
 40
0.1466289025416264
 40
0.1497951214423991
 40
0.1529668763642157
 40
0.1561454795185874
 40
0.1593324327358076
 40
0.1625285240991142
 40
0.1657353230388805
 40
0.1689542612074352
 40
0.1689542612074352
 40
0.1689542612074352
 40
0.1689542612074352
 10
167.7510877054183
 20
-13.99308361250001
 30
0.0
 10
167.7519147294002
 20
-13.99204206388681
 30
0.0
 10
167.7535568727703
 20
-13.98997106849224
 30
0.0
 10
167.7560005364121
 20
-13.98688059602979
 30
0.0
 10
167.7584098910488
 20
-13.98382493859951
 30
0.0
 10
167.7607866038862
 20
-13.98080241564987
 30
0.0
 10
167.763131819098
 20
-13.97781104889751
 30
0.0
 10
167.7654470563933
 20
-13.97484941779717
 30
0.0
 10
167.7677338403561
 20
-13.97191604751967
 30
0.0
 10
167.7699935771545
 20
-13.9690092653676
 30
0.0
 10
167.7722276520151
 20
-13.96612749407958
 30
0.0
 10
167.7744372875801
 20
-13.96326932544238
 30
0.0
 10
167.7766238226757
 20
-13.96043319083603
 30
0.0
 10
167.7787884921732
 20
-13.95761763641651
 30
0.0
 10
167.7809322772698
 20
-13.95482152314578
 30
0.0
 10
167.7830560200559
 20
-13.95204388267474
 30
0.0
 10
167.7851607902098
 20
-13.94928343610067
 30
0.0
 10
167.7872477255866
 20
-13.9465387999676
 30
0.0
 10
167.7893180366102
 20
-13.94380847954852
 30
0.0
 10
167.7913729037834
 20
-13.94109100321118
 30
0.0
 10
167.7934135530822
 20
-13.93838482250548
 30
0.0
 10
167.7954411490817
 20
-13.93568845290282
 30
0.0
 10
167.797456454037
 20
-13.93300093148217
 30
0.0
 10
167.7994597373949
 20
-13.9303219421822
 30
0.0
 10
167.8014507616042
 20
-13.92765184833961
 30
0.0
 10
167.8034288439503
 20
-13.924991615525
 30
0.0
 10
167.8053931923423
 20
-13.92234236901413
 30
0.0
 10
167.8073433024699
 20
-13.91970485768289
 30
0.0
 10
167.8092794953443
 20
-13.91707871900077
 30
0.0
 10
167.8112026789924
 20
-13.91446278431955
 30
0.0
 10
167.8131137290028
 20
-13.91185591633132
 30
0.0
 10
167.8150132871922
 20
-13.90925728439332
 30
0.0
 10
167.8169020194346
 20
-13.9066660156476
 30
0.0
 10
167.8187807359624
 20
-13.90408102898861
 30
0.0
 10
167.820650256601
 20
-13.90150121533692
 30
0.0
 10
167.8225113844156
 20
-13.8989254771604
 30
0.0
 10
167.8243649183241
 20
-13.89635270974921
 30
0.0
 10
167.8262115447024
 20
-13.89378195110437
 30
0.0
 10
167.8280518273576
 20
-13.8912123984347
 30
0.0
 10
167.829886385627
 20
-13.88864316331073
 30
0.0
 10
167.83171603944
 20
-13.8860730630267
 30
0.0
 10
167.8335417108599
 20
-13.88350075542483
 30
0.0
 10
167.8353642387766
 20
-13.88092500082177
 30
0.0
 10
167.8371844492775
 20
-13.8783445569433
 30
0.0
 10
167.839003046825
 20
-13.87575835525241
 30
0.0
 10
167.8408205511042
 20
-13.87316551016452
 30
0.0
 10
167.8426375614338
 20
-13.87056526283932
 30
0.0
 10
167.8444541804631
 20
-13.86795631582485
 30
0.0
 10
167.8462716090093
 20
-13.86533805190471
 30
0.0
 10
167.8480903679572
 20
-13.86270927491236
 30
0.0
 10
167.8499111522059
 20
-13.86006893919085
 30
0.0
 10
167.8511243908546
 20
-13.85830376356698
 30
0.0
 10
167.8517314659184
 20
-13.85741903500002
 30
0.0
 11
167.7510877054183
 21
-13.99308361250001
 31
0.0
 11
167.7535665794187
 21
-13.98995724640001
 31
0.0
 11
167.7560096758186
 21
-13.98686718900001
 31
0.0
 11
167.7584182878186
 21
-13.98381207790002
 31
0.0
 11
167.7607940406183
 21
-13.98079011029999
 31
0.0
 11
167.7631388159186
 21
-13.97779913380002
 31
0.0
 11
167.7654536973184
 21
-13.97483799279995
 31
0.0
 11
167.7677398728185
 21
-13.97190538329998
 31
0.0
 11
167.7699992264185
 21
-13.96899908879999
 31
0.0
 11
167.7722329808186
 21
-13.9661177217
 31
0.0
 11
167.7744421600185
 21
-13.96326013529999
 31
0.0
 11
167.7766281920183
 21
-13.9604246449
 31
0.0
 11
167.7787926376184
 21
-13.95760937340002
 31
0.0
 11
167.7809362149185
 21
-13.95481352299997
 31
0.0
 11
167.7830595912185
 21
-13.95203635360001
 31
0.0
 11
167.7851639055186
 21
-13.94927649670001
 31
0.0
 11
167.7872505590185
 21
-13.94653222309999
 31
0.0
 11
167.7893204256186
 21
-13.94380248059997
 31
0.0
 11
167.7913748615183
 21
-13.94108556649995
 31
0.0
 11
167.7934151771185
 21
-13.93837982010001
 31
0.0
 11
167.7954423841186
 21
-13.93568395980009
 31
0.0
 11
167.7974576552185
 21
-13.9329964752
 31
0.0
 11
167.7994610937185
 21
-13.93031727030001
 31
0.0
 11
167.8014522376186
 21
-13.9276470076
 31
0.0
 11
167.8034307332184
 21
-13.9249862108
 31
0.0
 11
167.8053953510184
 21
-13.92233659259999
 31
0.0
 11
167.8073452986184
 21
-13.91969929290002
 31
0.0
 11
167.8092810809185
 21
-13.91707370270001
 31
0.0
 11
167.8112039419186
 21
-13.91445819869999
 31
0.0
 11
167.8131148565185
 21
-13.91185150709997
 31
0.0
 11
167.8150142339184
 21
-13.90925311409999
 31
0.0
 11
167.8169026168186
 21
-13.90666231639999
 31
0.0
 11
167.8187810496185
 21
-13.90407771159998
 31
0.0
 11
167.8206503738186
 21
-13.9014981606
 31
0.0
 11
167.8225111653184
 21
-13.89892287939999
 31
0.0
 11
167.8243644150186
 21
-13.8963504979
 31
0.0
 11
167.8262109517186
 21
-13.89377985530001
 31
0.0
 11
167.8280510167185
 21
-13.89121059789998
 31
0.0
 11
167.8298852329183
 21
-13.88864183299999
 31
0.0
 11
167.8317145908186
 21
-13.88607213940003
 31
0.0
 11
167.8335399361183
 21
-13.88350028249998
 31
0.0
 11
167.8353621994185
 21
-13.88092489220007
 31
0.0
 11
167.8371821194184
 21
-13.87834485320002
 31
0.0
 11
167.8390005100184
 21
-13.87575892779999
 31
0.0
 11
167.8408179132187
 21
-13.87316625079999
 31
0.0
 11
167.8426346121185
 21
-13.87056631509999
 31
0.0
 11
167.8444513446186
 21
-13.86795795250002
 31
0.0
 11
167.8462688506185
 21
-13.86533997470002
 31
0.0
 11
167.8480875094185
 21
-13.86271169809998
 31
0.0
 11
167.8499081380184
 21
-13.86007179239999
 31
0.0
 11
167.8517314659184
 21
-13.85741903500002
 31
0.0
  0
SPLINE
  5
592CD
330
1F
100
AcDbEntity
  8
1
100
AcDbSpline
210
0.0
220
0.0
230
1.0
 70
     8
 71
     3
 72
    13
 73
     9
 74
     7
 42
0.0000000001
 43
0.0000000001
 44
0.000001
 12
0.0548657962451082
 22
-0.9984937377882699
 32
0.0
 13
0.0566918823395947
 23
-0.9983917219592688
 33
0.0
 40
0.0
 40
0.0
 40
0.0
 40
0.0
 40
0.1733168965622589
 40
0.3693132974576567
 40
0.5772240128258915
 40
0.7732015541890498
 40
0.9508881523585898
 40
1.112938080224058
 40
1.112938080224058
 40
1.112938080224058
 40
1.112938080224058
 10
167.6743131087189
 20
-0.9089542995000101
 30
0.0
 10
167.6774828318964
 20
-0.9666395781234484
 30
0.0
 10
167.6842511800404
 20
-1.089557808309066
 30
0.0
 10
167.6948951930764
 20
-1.281671175816214
 30
0.0
 10
167.705993697818
 20
-1.481324491307006
 30
0.0
 10
167.7168126487043
 20
-1.67488064912348
 30
0.0
 10
167.7268359224061
 20
-1.853170482073636
 30
0.0
 10
167.7332382708708
 20
-1.966234870158316
 30
0.0
 10
167.7363005760187
 20
-2.020164638999972
 30
0.0
 11
167.6743131087189
 21
-0.9089542995000101
 31
0.0
 11
167.6838457385188
 21
-1.082008843600021
 31
0.0
 11
167.6946822988191
 21
-1.277705440700003
 31
0.0
 11
167.7062263666189
 21
-1.485295420900001
 31
0.0
 11
167.7171649362187
 21
-1.680967453099981
 31
0.0
 11
167.7271420232189
 21
-1.858373722199985
 31
0.0
 11
167.7363005760187
 21
-2.020164638999972
 31
0.0
  0
SPLINE
  5
592CE
330
1F
100
AcDbEntity
  8
1
100
AcDbSpline
210
0.0
220
0.0
230
1.0
 70
     8
 71
     3
 72
    16
 73
    12
 74
    10
 42
0.0000000001
 43
0.0000000001
 44
0.000001
 12
0.0536804787991484
 22
-0.9985581636519198
 32
0.0
 13
0.0567198587675384
 23
-0.9983901329747759
 33
0.0
 40
0.0
 40
0.0
 40
0.0
 40
0.0
 40
0.1672259898119737
 40
0.3238072440891963
 40
0.4741136109005895
 40
0.6146784048160856
 40
0.7410891906616546
 40
0.8523864751776871
 40
0.9510235443682088
 40
1.039823359535535
 40
1.120227859934125
 40
1.120227859934125
 40
1.120227859934125
 40
1.120227859934125
 10
167.7363005760187
 20
-2.020164638999972
 30
0.0
 10
167.7392928330856
 20
-2.075826264767144
 30
0.0
 10
167.7451160112136
 20
-2.18360482185605
 30
0.0
 10
167.753712592432
 20
-2.341408716397282
 30
0.0
 10
167.7619068798966
 20
-2.490334263104813
 30
0.0
 10
167.7696150011732
 20
-2.629214506150518
 30
0.0
 10
167.7766506681972
 20
-2.755109021023073
 30
0.0
 10
167.7829402043571
 20
-2.867047511596126
 30
0.0
 10
167.7885494903968
 20
-2.966467456046572
 30
0.0
 10
167.7935955211079
 20
-3.055605205870463
 30
0.0
 10
167.7967895320165
 20
-3.111916133618436
 30
0.0
 10
167.7983097093188
 20
-3.138674486900015
 30
0.0
 11
167.7363005760187
 21
-2.020164638999972
 31
0.0
 11
167.7453192608187
 21
-2.187147260599999
 31
0.0
 11
167.753839854219
 21
-2.343496512699971
 31
0.0
 11
167.762096631219
 21
-2.493575923899967
 31
0.0
 11
167.7698848752191
 21
-2.633924791699996
 31
0.0
 11
167.7769375085188
 21
-2.760138686599972
 31
0.0
 11
167.783180502719
 21
-2.871260739600018
 31
0.0
 11
167.7887364632188
 21
-2.969741208799973
 31
0.0
 11
167.793754596619
 21
-3.058399122099999
 31
0.0
 11
167.7983097093188
 21
-3.138674486900015
 31
0.0
  0
SPLINE
  5
592CF
330
1F
100
AcDbEntity
  8
1
100
AcDbSpline
210
0.0
220
0.0
230
1.0
 70
     8
 71
     3
 72
    14
 73
    10
 74
     8
 42
0.0000000001
 43
0.0000000001
 44
0.000001
 12
0.0538658619648496
 22
-0.9985481805675597
 32
0.0
 13
0.0562179245401726
 23
-0.9984185219437765
 33
0.0
 40
0.0
 40
0.0
 40
0.0
 40
0.0
 40
0.214347851372646
 40
0.4188375345545153
 40
0.6001082601812429
 40
0.760664615208431
 40
0.9029489812303101
 40
1.031128905231269
 40
1.157370050971993
 40
1.157370050971993
 40
1.157370050971993
 40
1.157370050971993
 10
167.7983097093188
 20
-3.138674486900015
 30
0.0
 10
167.8021583865769
 20
-3.210020039232261
 30
0.0
 10
167.8096863498272
 20
-3.349429448622473
 30
0.0
 10
167.8205136683864
 20
-3.549172296656209
 30
0.0
 10
167.8303682240972
 20
-3.731011052081058
 30
0.0
 10
167.8391416359865
 20
-3.892142863945593
 30
0.0
 10
167.8470134091341
 20
-4.035600611406337
 30
0.0
 10
167.8543298613541
 20
-4.167633202552636
 30
0.0
 10
167.8590749584838
 20
-4.252307379486978
 30
0.0
 10
167.8614406302188
 20
-4.29432121219996
 30
0.0
 11
167.7983097093188
 21
-3.138674486900015
 31
0.0
 11
167.8098720816187
 21
-3.352710259800005
 31
0.0
 11
167.820933144819
 21
-3.556900571399978
 31
0.0
 11
167.8307509984188
 21
-3.73790522720003
 31
0.0
 11
167.8394857224189
 21
-3.898223807799979
 31
0.0
 11
167.8472854666188
 21
-4.040294226900016
 31
0.0
 11
167.8543800176187
 21
-4.168277651399989
 31
0.0
 11
167.8614406302188
 21
-4.29432121219996
 31
0.0
  0
SPLINE
  5
592D0
330
1F
100
AcDbEntity
  8
1
100
AcDbSpline
210
0.0
220
0.0
230
1.0
 70
     8
 71
     3
 72
    56
 73
    52
 74
    50
 42
0.0000000001
 43
0.0000000001
 44
0.000001
 12
0.6852968673639857
 22
0.7282638282800458
 32
0.0
 13
0.6409913533104508
 23
0.7675480994577715
 33
0.0
 40
0.0
 40
0.0
 40
0.0
 40
0.0
 40
0.0040340980836195
 40
0.0080176515711752
 40
0.0119527537323852
 40
0.0158421682268349
 40
0.0196877840750625
 40
0.023491534483996
 40
0.0272558927921612
 40
0.0309828652254189
 40
0.0346747596515986
 40
0.0383338429687421
 40
0.0419625237903612
 40
0.0455630577557858
 40
0.0491366004574303
 40
0.052684672419147
 40
0.0562096271603215
 40
0.0597131008687639
 40
0.063195654515161
 40
0.0666581772190769
 40
0.0701027231870742
 40
0.0735321282733325
 40
0.0769484955864174
 40
0.0803520584911082
 40
0.0837420376778723
 40
0.0871163531624381
 40
0.0904729344696084
 40
0.0938120980375122
 40
0.0971348044066027
 40
0.1004426530770745
 40
0.1037364959078662
 40
0.1070177316187987
 40
0.1102882778851813
 40
0.1135486961185705
 40
0.1167998497879623
 40
0.1200438463728844
 40
0.1232822633678278
 40
0.1265169610260579
 40
0.1297489277397079
 40
0.132979755937627
 40
0.1362104445036747
 40
0.1394426179436686
 40
0.1426774699243258
 40
0.1459165486054663
 40
0.1491607678738698
 40
0.1524113982405089
 40
0.155670374464027
 40
0.1589394334291556
 40
0.1622202970774354
 40
0.1655132876751347
 40
0.1688185902780245
 40
0.1688185902780245
 40
0.1688185902780245
 40
0.1688185902780245
 10
167.6389287107185
 20
-14.11922548979997
 30
0.0
 10
167.6398502289783
 20
-14.11824619389529
 30
0.0
 10
167.6416805355664
 20
-14.1162987575549
 30
0.0
 10
167.6444056259463
 20
-14.11339218778293
 30
0.0
 10
167.6470942457148
 20
-14.11051753799239
 30
0.0
 10
167.6497480291911
 20
-14.10767326580297
 30
0.0
 10
167.6523685516668
 20
-14.10485784635375
 30
0.0
 10
167.6549573716834
 20
-14.10206987067681
 30
0.0
 10
167.6575157026462
 20
-14.09930755666865
 30
0.0
 10
167.6600455060947
 20
-14.09656964522092
 30
0.0
 10
167.6625482526427
 20
-14.0938545152616
 30
0.0
 10
167.6650256114394
 20
-14.09116054672307
 30
0.0
 10
167.6674792016979
 20
-14.08848609674453
 30
0.0
 10
167.6699103922374
 20
-14.08582979530365
 30
0.0
 10
167.6723203441173
 20
-14.08319048328514
 30
0.0
 10
167.6747102355852
 20
-14.08056697289642
 30
0.0
 10
167.6770813462107
 20
-14.07795795176062
 30
0.0
 10
167.6794347350056
 20
-14.07536233910399
 30
0.0
 10
167.6817711281404
 20
-14.07277941113391
 30
0.0
 10
167.6840913422805
 20
-14.07020833790127
 30
0.0
 10
167.6863966973178
 20
-14.06764772205199
 30
0.0
 10
167.6886887761139
 20
-14.0650958583858
 30
0.0
 10
167.6909687489579
 20
-14.06255148689108
 30
0.0
 10
167.6932369770811
 20
-14.0600142406022
 30
0.0
 10
167.6954928924758
 20
-14.0574847921131
 30
0.0
 10
167.6977354207769
 20
-14.05496439136803
 30
0.0
 10
167.6999637357946
 20
-14.05245402016602
 30
0.0
 10
167.7021776878823
 20
-14.04995390556585
 30
0.0
 10
167.7043779373854
 20
-14.04746335778418
 30
0.0
 10
167.70656525915
 20
-14.04498154996852
 30
0.0
 10
167.7087405203581
 20
-14.04250754188804
 30
0.0
 10
167.7109046541899
 20
-14.04004031006123
 30
0.0
 10
167.7130585245555
 20
-14.03757889898848
 30
0.0
 10
167.7152028740463
 20
-14.03512248406746
 30
0.0
 10
167.7173384828256
 20
-14.03267018949629
 30
0.0
 10
167.7194663486959
 20
-14.03022087988323
 30
0.0
 10
167.7215876815418
 20
-14.0277731639654
 30
0.0
 10
167.7237034401492
 20
-14.02532592652514
 30
0.0
 10
167.7258145814327
 20
-14.02287804420587
 30
0.0
 10
167.727921869555
 20
-14.020428606637
 30
0.0
 10
167.7300262009603
 20
-14.0179765376525
 30
0.0
 10
167.7321283857961
 20
-14.01552086224173
 30
0.0
 10
167.7342293250045
 20
-14.0130604423688
 30
0.0
 10
167.7363298475141
 20
-14.01059438980579
 30
0.0
 10
167.7384304652555
 20
-14.00812151334698
 30
0.0
 10
167.7405322194171
 20
-14.0056409033448
 30
0.0
 10
167.7426361703724
 20
-14.00315130575435
 30
0.0
 10
167.7447434231733
 20
-14.00065130753258
 30
0.0
 10
167.7468547417286
 20
-13.99813991125963
 30
0.0
 10
167.7489705489403
 20
-13.9956165089812
 30
0.0
 10
167.7503814819554
 20
-13.99392927207701
 30
0.0
 10
167.7510877054183
 20
-13.99308361250001
 30
0.0
 11
167.6389287107185
 21
-14.11922548979997
 31
0.0
 11
167.6416914331184
 21
-14.11628589399994
 31
0.0
 11
167.6444159422183
 21
-14.11337977940002
 31
0.0
 11
167.6471037810186
 21
-14.11050572659997
 31
0.0
 11
167.6497569415182
 21
-14.1076618183
 31
0.0
 11
167.6523768102186
 21
-14.10484676850001
 31
0.0
 11
167.6549648040186
 21
-14.10205924419996
 31
0.0
 11
167.6575227330186
 21
-14.09929747329998
 31
0.0
 11
167.6600519950184
 21
-14.09656011210001
 31
0.0
 11
167.6625542293184
 21
-14.09384554039997
 31
0.0
 11
167.6650310397183
 21
-14.0911521607
 31
0.0
 11
167.6674841181186
 21
-14.08847826369997
 31
0.0
 11
167.6699150448184
 21
-14.08582224500001
 31
0.0
 11
167.6723246513186
 21
-14.08318330590003
 31
0.0
 11
167.6747140108184
 21
-14.080560374
 31
0.0
 11
167.6770847511186
 21
-14.07795175509999
 31
0.0
 11
167.6794380107183
 21
-14.0753562795
 31
0.0
 11
167.6817742015184
 21
-14.07277356989998
 31
0.0
 11
167.6840939534186
 21
-14.0702030036
 31
0.0
 11
167.6863986724186
 21
-14.06764308880001
 31
0.0
 11
167.6886902793182
 21
-14.06509174529998
 31
0.0
 11
167.6909701967186
 21
-14.0625474303
 31
0.0
 11
167.6932385944185
 21
-14.06000998889998
 31
0.0
 11
167.6954949678186
 21
-14.05748002159994
 31
0.0
 11
167.6977379513183
 21
-14.05495910379999
 31
0.0
 11
167.6999661928187
 21
-14.05244881010002
 31
0.0
 11
167.7021799291185
 21
-14.04994893379994
 31
0.0
 11
167.7043798221184
 21
-14.04745878419999
 31
0.0
 11
167.7065669526184
 21
-14.044977188
 31
0.0
 11
167.7087419025185
 21
-14.04250352870001
 31
0.0
 11
167.7109056113186
 21
-14.04003677600001
 31
0.0
 11
167.7130593550184
 21
-14.03757550440001
 31
0.0
 11
167.7152035117185
 21
-14.03511930489996
 31
0.0
 11
167.7173386556183
 21
-14.03266753869997
 31
0.0
 11
167.7194661731184
 21
-14.03021862470001
 31
0.0
 11
167.7215870962186
 21
-14.02777137600002
 31
0.0
 11
167.7237026357186
 21
-14.0253243865
 31
0.0
 11
167.7258134266183
 21
-14.02287690489997
 31
0.0
 11
167.7279204936183
 21
-14.0204277184
 31
0.0
 11
167.7300244692185
 21
-14.01797605990003
 31
0.0
 11
167.7321263882186
 21
-14.01552068319999
 31
0.0
 11
167.7342269996186
 21
-14.01306066479998
 31
0.0
 11
167.7363272770183
 21
-14.010594807
 31
0.0
 11
167.7384278082186
 21
-14.00812235410001
 31
0.0
 11
167.7405293549184
 21
-14.0056423364
 31
0.0
 11
167.7426331096182
 21
-14.003153263
 31
0.0
 11
167.7447401417184
 21
-14.00065377269999
 31
0.0
 11
167.7468515032185
 21
-13.99814250960007
 31
0.0
 11
167.7489673394186
 21
-13.9956191846
 31
0.0
 11
167.7510877054183
 21
-13.99308361250001
 31
0.0
  0
SPLINE
  5
592D1
330
1F
100
AcDbEntity
  8
1
100
AcDbSpline
210
0.0
220
0.0
230
1.0
 70
     8
 71
     3
 72
    13
 73
     9
 74
     7
 42
0.0000000001
 43
0.0000000001
 44
0.000001
 12
0.0534720225462834
 22
-0.9985693480198607
 32
0.0
 13
0.0552825702653447
 23
-0.998470749408743
 33
0.0
 40
0.0
 40
0.0
 40
0.0
 40
0.0
 40
0.1470098352425883
 40
0.3166138671727042
 40
0.5090775808797974
 40
0.7276580800868908
 40
0.9695145940400315
 40
1.201232310291144
 40
1.201232310291144
 40
1.201232310291144
 40
1.201232310291144
 10
167.8614406302188
 20
-4.29432121219996
 30
0.0
 10
167.864060934627
 20
-4.343254383976855
 30
0.0
 10
167.8697242050741
 20
-4.448640286549391
 30
0.0
 10
167.8789217860936
 20
-4.618083375168609
 30
0.0
 10
167.8894739005359
 20
-4.811344932153289
 30
0.0
 10
167.9013841367265
 20
-5.028652364703177
 30
0.0
 10
167.9140619993158
 20
-5.25902202526764
 30
0.0
 10
167.9227729251755
 20
-5.416639577001163
 30
0.0
 10
167.9270429088189
 20
-5.493760697600009
 30
0.0
 11
167.8614406302188
 21
-4.29432121219996
 31
0.0
 11
167.8693333588189
 21
-4.441119022799966
 31
0.0
 11
167.8785181841188
 21
-4.610474170599999
 31
0.0
 11
167.8890065010189
 21
-4.802651890800007
 31
0.0
 11
167.9009682622188
 21
-5.020904842300012
 31
0.0
 11
167.9142582764186
 21
-5.262395937000007
 31
0.0
 11
167.9270429088189
 21
-5.493760697600009
 31
0.0
  0
SPLINE
  5
592D2
330
1F
100
AcDbEntity
  8
1
100
AcDbSpline
210
0.0
220
0.0
230
1.0
 70
     8
 71
     3
 72
    56
 73
    52
 74
    50
 42
0.0000000001
 43
0.0000000001
 44
0.000001
 12
0.7441893548074693
 22
0.6679687149794088
 32
0.0
 13
0.7096312621496561
 23
0.7045732550841582
 33
0.0
 40
0.0
 40
0.0
 40
0.0
 40
0.0
 40
0.0039943024379379
 40
0.0079401070396442
 40
0.0118402194594816
 40
0.0156967459525987
 40
0.0195112994110334
 40
0.0232861930638038
 40
0.0270236714794684
 40
0.0307257042062965
 40
0.0343946031233782
 40
0.0380324813422365
 40
0.0416417136662453
 40
0.0452239710677813
 40
0.0487801926586608
 40
0.0523121257384655
 40
0.0558222845585666
 40
0.0593123477571361
 40
0.0627837890961343
 40
0.0662386815077293
 40
0.0696789723909649
 40
0.0731048199768552
 40
0.0765163739446179
 40
0.0799142913073704
 40
0.0832991827140149
 40
0.0866697838365759
 40
0.0900250277439009
 40
0.0933651729176122
 40
0.0966911360927061
 40
0.10000302976117
 40
0.1033015362918596
 40
0.1065885599704053
 40
0.1098650113535466
 40
0.1131315860039829
 40
0.1163896688502818
 40
0.119641465863499
 40
0.12288857523714
 40
0.126132871498541
 40
0.1293756207380844
 40
0.1326185006896806
 40
0.1358621279660426
 40
0.139107647368308
 40
0.1423568832057193
 40
0.1456107252714018
 40
0.1488708047235729
 40
0.1521385071275351
 40
0.1554145658175652
 40
0.1587007307401631
 40
0.1619981881836862
 40
0.1653084591325685
 40
0.1686328530415008
 40
0.1686328530415008
 40
0.1686328530415008
 40
0.1686328530415008
 10
167.5162217121185
 20
-14.23487164139999
 30
0.0
 10
167.5172125512366
 20
-14.23398228504442
 30
0.0
 10
167.5191812534374
 20
-14.23221331694454
 30
0.0
 10
167.5221141433669
 20
-14.22957231004045
 30
0.0
 10
167.525010131703
 20
-14.22695895757293
 30
0.0
 10
167.5278709106283
 20
-14.22437189494067
 30
0.0
 10
167.5306980452128
 20
-14.22180986124296
 30
0.0
 10
167.5334931279406
 20
-14.2192715568909
 30
0.0
 10
167.5362578376899
 20
-14.21675560024844
 30
0.0
 10
167.5389938313557
 20
-14.21426058601319
 30
0.0
 10
167.5417027855486
 20
-14.21178519504848
 30
0.0
 10
167.5443862572352
 20
-14.20932777715649
 30
0.0
 10
167.5470459487556
 20
-14.2068871574982
 30
0.0
 10
167.5496831199966
 20
-14.20446225683425
 30
0.0
 10
167.5522988843088
 20
-14.20205214558498
 30
0.0
 10
167.5548945549526
 20
-14.19965569607822
 30
0.0
 10
167.557471621449
 20
-14.19727160801774
 30
0.0
 10
167.5600315012955
 20
-14.19489863737739
 30
0.0
 10
167.5625754989523
 20
-14.19253563445899
 30
0.0
 10
167.5651049799881
 20
-14.19018138361025
 30
0.0
 10
167.5676209840886
 20
-14.18783496258956
 30
0.0
 10
167.5701240790274
 20
-14.18549588302782
 30
0.0
 10
167.572614517033
 20
-14.18316394879711
 30
0.0
 10
167.5750926594456
 20
-14.18083885959723
 30
0.0
 10
167.5775585230562
 20
-14.17852063669342
 30
0.0
 10
167.5800117065359
 20
-14.17620969549723
 30
0.0
 10
167.5824517252208
 20
-14.1739065340938
 30
0.0
 10
167.5848786244576
 20
-14.17161115284942
 30
0.0
 10
167.587292734502
 20
-14.16932328116026
 30
0.0
 10
167.5896944869159
 20
-14.16704254983975
 30
0.0
 10
167.5920845501242
 20
-14.16476836102409
 30
0.0
 10
167.5944637825737
 20
-14.16249993058096
 30
0.0
 10
167.5968330425526
 20
-14.16023646779303
 30
0.0
 10
167.5991930601854
 20
-14.15797729836465
 30
0.0
 10
167.6015448745284
 20
-14.15572144625463
 30
0.0
 10
167.6038897374883
 20
-14.15346772265688
 30
0.0
 10
167.6062290127389
 20
-14.1512148195464
 30
0.0
 10
167.608563835916
 20
-14.14896164375153
 30
0.0
 10
167.6108953487169
 20
-14.14670707027434
 30
0.0
 10
167.6132244172251
 20
-14.14445029223584
 30
0.0
 10
167.6155517639928
 20
-14.1421904129068
 30
0.0
 10
167.6178782500915
 20
-14.13992660858928
 30
0.0
 10
167.6202048444365
 20
-14.13765803556897
 30
0.0
 10
167.6225325465568
 20
-14.13538364916164
 30
0.0
 10
167.6248622691294
 20
-14.13310252526311
 30
0.0
 10
167.6271948775951
 20
-14.13081376614259
 30
0.0
 10
167.6295312634453
 20
-14.12851644421799
 30
0.0
 10
167.6318722663793
 20
-14.12620967411543
 30
0.0
 10
167.6342189088911
 20
-14.12389238202904
 30
0.0
 10
167.6365721042941
 20
-14.12156359281835
 30
0.0
 10
167.6381423461034
 20
-14.12000624947917
 30
0.0
 10
167.6389287107185
 20
-14.11922548979997
 30
0.0
 11
167.5162217121185
 21
-14.23487164139999
 31
0.0
 11
167.5191927793187
 21
-14.23220196610003
 31
0.0
 11
167.5221249228184
 21
-14.22956155299998
 31
0.0
 11
167.5250203149185
 21
-14.22694862569999
 31
0.0
 11
167.5278806013182
 21
-14.22436186809999
 31
0.0
 11
167.5307070558183
 21
-14.2218002883
 31
0.0
 11
167.5335014656184
 21
-14.21926241789997
 31
0.0
 11
167.5362655603185
 21
-14.21674682709998
 31
0.0
 11
167.5390008600187
 21
-14.21425226440003
 31
0.0
 11
167.5417091316183
 21
-14.21177724080002
 31
0.0
 11
167.5443920164183
 21
-14.20932036920003
 31
0.0
 11
167.5470512931185
 21
-14.20688012430003
 31
0.0
 11
167.5496882315185
 21
-14.20445543569997
 31
0.0
 11
167.5523035647186
 21
-14.20204571870005
 31
0.0
 11
167.5548986169185
 21
-14.1996498373
 31
0.0
 11
167.5574752701184
 21
-14.19726612879997
 31
0.0
 11
167.5600347871184
 21
-14.1948934916
 31
0.0
 11
167.5625782760182
 21
-14.19253095839997
 31
0.0
 11
167.5651072794182
 21
-14.19017714919998
 31
0.0
 11
167.5676232425185
 21
-14.1878307635
 31
0.0
 11
167.5701262986185
 21
-14.18549171729994
 31
0.0
 11
167.5726165744186
 21
-14.18315993200001
 31
0.0
 11
167.5750945661184
 21
-14.18083498129999
 31
0.0
 11
167.5775607345183
 21
-14.1785164689
 31
0.0
 11
167.5800141746183
 21
-14.176205283
 31
0.0
 11
167.5824541284182
 21
-14.17390217990004
 31
0.0
 11
167.5848808034186
 21
-14.17160700779999
 31
0.0
 11
167.5872948840186
 21
-14.16931916110002
 31
0.0
 11
167.5896964692186
 21
-14.16703858559997
 31
0.0
 11
167.5920860703183
 21
-14.16476483359996
 31
0.0
 11
167.5944650808185
 21
-14.16249661189998
 31
0.0
 11
167.5968341708185
 21
-14.16023330859997
 31
0.0
 11
167.5991938526183
 21
-14.15797445779998
 31
0.0
 11
167.6015451339183
 21
-14.15571911419998
 31
0.0
 11
167.6038896102186
 21
-14.15346575919999
 31
0.0
 11
167.6062284332186
 21
-14.15121328950005
 31
0.0
 11
167.6085629490183
 21
-14.14896040540002
 31
0.0
 11
167.6108940610186
 21
-14.14670622459998
 31
0.0
 11
167.6132229645186
 21
-14.14444957459999
 31
0.0
 11
167.6155501051185
 21
-14.14219000149995
 31
0.0
 11
167.6178762859185
 21
-14.13992669949998
 31
0.0
 11
167.6202027818183
 21
-14.13765839580001
 31
0.0
 11
167.6225302075186
 21
-14.1353844522
 31
0.0
 11
167.6248597044185
 21
-14.13310370890001
 31
0.0
 11
167.6271922337182
 21
-14.13081517329998
 31
0.0
 11
167.6295282871185
 21
-14.1285183058
 31
0.0
 11
167.6318690774185
 21
-14.12621185040001
 31
0.0
 11
167.6342154108183
 21
-14.1238949418
 31
0.0
 11
167.6365683271185
 21
-14.12156647520002
 31
0.0
 11
167.6389287107185
 21
-14.11922548979997
 31
0.0
  0
SPLINE
  5
592D3
330
1F
100
AcDbEntity
  8
1
100
AcDbSpline
210
0.0
220
0.0
230
1.0
 70
     8
 71
     3
 72
    15
 73
    11
 74
     9
 42
0.0000000001
 43
0.0000000001
 44
0.000001
 12
0.0526205313293737
 22
-0.9986145801472229
 32
0.0
 13
0.0556854974309711
 23
-0.99844835889287
 33
0.0
 40
0.0
 40
0.0
 40
0.0
 40
0.0
 40
0.1771456840596975
 40
0.3340604117075101
 40
0.4795662624454141
 40
0.6234661278610754
 40
0.773426928528674
 40
0.9341825536484778
 40
1.097265093230046
 40
1.25305777130874
 40
1.25305777130874
 40
1.25305777130874
 40
1.25305777130874
 10
167.9270429088189
 20
-5.493760697600009
 30
0.0
 10
167.9301500754916
 20
-5.552727451904061
 30
0.0
 10
167.9360324674362
 20
-5.663925444060197
 30
0.0
 10
167.9445251052493
 20
-5.82355511437251
 30
0.0
 10
167.9524923025794
 20
-5.972115115759933
 30
0.0
 10
167.9604001951596
 20
-6.118356975755901
 30
0.0
 10
167.9686437879637
 20
-6.269671354758983
 30
0.0
 10
167.9772971800248
 20
-6.427367102450446
 30
0.0
 10
167.9861131358996
 20
-6.587000802728127
 30
0.0
 10
167.9920118306271
 20
-6.693128743514932
 30
0.0
 10
167.9949036282187
 20
-6.7449790581
 30
0.0
 11
167.9270429088189
 21
-5.493760697600009
 31
0.0
 11
167.9363971264188
 21
-5.670659234100014
 31
0.0
 11
167.9447376953187
 21
-5.827352139799984
 31
0.0
 11
167.9525307665187
 21
-5.972649148400023
 31
0.0
 11
167.9602996000187
 21
-6.116339149999987
 31
0.0
 11
167.9684565105187
 21
-6.266077944599985
 31
0.0
 11
167.9772630088189
 21
-6.426592170200009
 31
0.0
 11
167.9862559496189
 21
-6.589426569899998
 31
0.0
 11
167.9949036282187
 21
-6.7449790581
 31
0.0
  0
SPLINE
  5
592D4
330
1F
100
AcDbEntity
  8
1
100
AcDbSpline
210
0.0
220
0.0
230
1.0
 70
     8
 71
     3
 72
    56
 73
    52
 74
    50
 42
0.0000000001
 43
0.0000000001
 44
0.000001
 12
0.7980718052101211
 22
0.6025623567139409
 32
0.0
 13
0.7713620648922249
 23
0.6363965468520421
 33
0.0
 40
0.0
 40
0.0
 40
0.0
 40
0.0
 40
0.0039536601112999
 40
0.007861260818348
 40
0.011725094228807
 40
0.0155472824949831
 40
0.0193299750264723
 40
0.0230753161902108
 40
0.0267851420190185
 40
0.030461581531487
 40
0.0341065733046685
 40
0.037722139417104
 40
0.0413104703311685
 40
0.0448729590195014
 40
0.0484114162034979
 40
0.0519282012313025
 40
0.0554248492835612
 40
0.0589024083038507
 40
0.0623625605097589
 40
0.0658076218471946
 40
0.0692387213559163
 40
0.0726565233641205
 40
0.0760620685638814
 40
0.0794564997236267
 40
0.0828388673039839
 40
0.0862079694432622
 40
0.0895635986214216
 40
0.0929052164453997
 40
0.0962315775341379
 40
0.0995424931586134
 40
0.1028403775548146
 40
0.106127688147232
 40
0.109406277559557
 40
0.1126769340010572
 40
0.1159412955075136
 40
0.1192004763155919
 40
0.1224562378727032
 40
0.1257095765121314
 40
0.1289621679115024
 40
0.1322149975841372
 40
0.1354696854026285
 40
0.1387274004782768
 40
0.1419897359471889
 40
0.1452578488822554
 40
0.1485328726719828
 40
0.1518163548845437
 40
0.1551093216410681
 40
0.1584133627399488
 40
0.1617294663480504
 40
0.1650593168352051
 40
0.1684043977602451
 40
0.1684043977602451
 40
0.1684043977602451
 40
0.1684043977602451
 10
167.3840041526184
 20
-14.33915091649999
 30
0.0
 10
167.3850559208391
 20
-14.33835680758189
 30
0.0
 10
167.3871464557761
 20
-14.33677684918659
 30
0.0
 10
167.3902622645884
 20
-14.3344173885071
 30
0.0
 10
167.3933409468037
 20
-14.33208149557894
 30
0.0
 10
167.3963843084121
 20
-14.32976793665186
 30
0.0
 10
167.3993941111878
 20
-14.32747550077533
 30
0.0
 10
167.4023720361276
 20
-14.32520302808218
 30
0.0
 10
167.4053197541932
 20
-14.3229493564789
 30
0.0
 10
167.4082388773158
 20
-14.32071335935451
 30
0.0
 10
167.411131062188
 20
-14.31849386631547
 30
0.0
 10
167.4139979772716
 20
-14.31628968845092
 30
0.0
 10
167.4168411424219
 20
-14.31409974174481
 30
0.0
 10
167.4196620176922
 20
-14.31192297981908
 30
0.0
 10
167.4224621038987
 20
-14.30975831680392
 30
0.0
 10
167.4252429352303
 20
-14.30760463234732
 30
0.0
 10
167.4280058409097
 20
-14.30546095655371
 30
0.0
 10
167.4307519686479
 20
-14.303326453667
 30
0.0
 10
167.4334826685323
 20
-14.3012001241067
 30
0.0
 10
167.4361993082485
 20
-14.29908094679703
 30
0.0
 10
167.4389029845355
 20
-14.29696810488126
 30
0.0
 10
167.4415944568004
 20
-14.29486104011984
 30
0.0
 10
167.4442744861436
 20
-14.29275918894375
 30
0.0
 10
167.4469434086044
 20
-14.29066231746347
 30
0.0
 10
167.4496009721646
 20
-14.28857065322523
 30
0.0
 10
167.4522465725296
 20
-14.28648470388529
 30
0.0
 10
167.4548797146449
 20
-14.28440489423848
 30
0.0
 10
167.4574998933728
 20
-14.28233165965299
 30
0.0
 10
167.4601066100758
 20
-14.2802654335465
 30
0.0
 10
167.4627001383692
 20
-14.27820603910193
 30
0.0
 10
167.4652817167481
 20
-14.27615252972657
 30
0.0
 10
167.4678531121288
 20
-14.27410353001031
 30
0.0
 10
167.4704156631506
 20
-14.27205799675748
 30
0.0
 10
167.4729704917647
 20
-14.27001505308584
 30
0.0
 10
167.4755185249415
 20
-14.26797397235394
 30
0.0
 10
167.4780609400861
 20
-14.26593382163494
 30
0.0
 10
167.4805987447375
 20
-14.26389379807622
 30
0.0
 10
167.4831330894015
 20
-14.26185297797168
 30
0.0
 10
167.4856649201855
 20
-14.25981059617896
 30
0.0
 10
167.4881953421652
 20
-14.25776575359931
 30
0.0
 10
167.4907253261378
 20
-14.25571765364771
 30
0.0
 10
167.4932559973748
 20
-14.25366536869303
 30
0.0
 10
167.4957883582196
 20
-14.25160806448455
 30
0.0
 10
167.4983233988075
 20
-14.24954491068584
 30
0.0
 10
167.500862094639
 20
-14.2474750831078
 30
0.0
 10
167.5034053844241
 20
-14.24539778159193
 30
0.0
 10
167.5059543216954
 20
-14.24331210614302
 30
0.0
 10
167.508509812538
 20
-14.24121727112388
 30
0.0
 10
167.5110729296536
 20
-14.23911234813367
 30
0.0
 10
167.5136447149493
 20
-14.23699642726515
 30
0.0
 10
167.5153616226087
 20
-14.23558124071654
 30
0.0
 10
167.5162217121185
 20
-14.23487164139999
 30
0.0
 11
167.3840041526184
 21
-14.33915091649999
 31
0.0
 11
167.3871583188186
 21
-14.33676708670003
 31
0.0
 11
167.3902735003184
 21
-14.3344080758
 31
0.0
 11
167.3933515931183
 21
-14.33207259519996
 31
0.0
 11
167.3963943524186
 21
-14.3297594517
 31
0.0
 11
167.3994035500184
 21
-14.32746742869999
 31
0.0
 11
167.4023809483183
 21
-14.32519530540004
 31
0.0
 11
167.4053280601185
 21
-14.32294204199992
 31
0.0
 11
167.4082466263182
 21
-14.32070641449996
 31
0.0
 11
167.4111382319186
 21
-14.31848730839998
 31
0.0
 11
167.4140045236186
 21
-14.31628355230003
 31
0.0
 11
167.4168472771186
 21
-14.31409386620004
 31
0.0
 11
167.4196676319186
 21
-14.3119174509
 31
0.0
 11
167.4224670550186
 21
-14.30975324769996
 31
0.0
 11
167.4252474430184
 21
-14.30759985650002
 31
0.0
 11
167.4280100366186
 21
-14.30545637619997
 31
0.0
 11
167.4307556886185
 21
-14.30332220050002
 31
0.0
 11
167.4334857498186
 21
-14.3011963302
 31
0.0
 11
167.4362020669184
 21
-14.2990773714
 31
0.0
 11
167.4389055468184
 21
-14.2969646551
 31
0.0
 11
167.4415967282184
 21
-14.2948577958
 31
0.0
 11
167.4442764443186
 21
-14.29275617360001
 31
0.0
 11
167.4469456066183
 21
-14.29065910299998
 31
0.0
 11
167.4496034804185
 21
-14.28856718989998
 31
0.0
 11
167.4522491349187
 21
-14.28648119899998
 31
0.0
 11
167.4548824220182
 21
-14.2844012817
 31
0.0
 11
167.4575029347186
 21
-14.28232779540001
 31
0.0
 11
167.4601097132186
 21
-14.28026153819995
 31
0.0
 11
167.4627026276184
 21
-14.27820265410007
 31
0.0
 11
167.4652835849185
 21
-14.27614966639999
 31
0.0
 11
167.4678545206186
 21
-14.27410106479999
 31
0.0
 11
167.4704168926184
 21
-14.2720557101
 31
0.0
 11
167.4729713237186
 21
-14.2700131231
 31
0.0
 11
167.4755190983185
 21
-14.26797229120001
 31
0.0
 11
167.4780610888185
 21
-14.2659325253
 31
0.0
 11
167.4805986697186
 21
-14.26389272789997
 31
0.0
 11
167.4831326158185
 21
-14.26185227670004
 31
0.0
 11
167.4856642284183
 21
-14.25981012009997
 31
0.0
 11
167.4881942685185
 21
-14.25776563599997
 31
0.0
 11
167.4907239878186
 21
-14.25571780029996
 31
0.0
 11
167.4932542845185
 21
-14.2536658687
 31
0.0
 11
167.4957863829186
 21
-14.25160882589999
 31
0.0
 11
167.4983211658184
 21
-14.24954592789997
 31
0.0
 11
167.5008594949186
 21
-14.2474764424
 31
0.0
 11
167.5034025499183
 21
-14.24539937179996
 31
0.0
 11
167.5059511033184
 21
-14.24331404439998
 31
0.0
 11
167.5085063610186
 21
-14.24121942819998
 31
0.0
 11
167.5110690602183
 21
-14.23911486859997
 31
0.0
 11
167.5136404729185
 21
-14.2369992654
 31
0.0
 11
167.5162217121185
 21
-14.23487164139999
 31
0.0
  0
SPLINE
  5
592D5
330
1F
100
AcDbEntity
  8
1
100
AcDbSpline
210
0.0
220
0.0
230
1.0
 70
     8
 71
     3
 72
    55
 73
    51
 74
    49
 42
0.0000000001
 43
0.0000000001
 44
0.000001
 12
0.8465098640842011
 22
0.5323730365149494
 32
0.0
 13
0.8259364124963308
 23
0.5637632858857439
 33
0.0
 40
0.0
 40
0.0
 40
0.0
 40
0.0
 40
0.0039920486869594
 40
0.0079386347551781
 40
0.0118421357748478
 40
0.015704560061128
 40
0.0195283993092871
 40
0.0233153869160078
 40
0.0270676474319303
 40
0.0307869024681454
 40
0.0344761396231541
 40
0.0381382249128959
 40
0.0417743949796005
 40
0.0453856389840392
 40
0.0489739398774804
 40
0.0525414232809758
 40
0.0560891431230907
 40
0.0596179652788066
 40
0.0631299585664147
 40
0.0666277447479584
 40
0.0701133850451573
 40
0.0735892749320615
 40
0.0770555712930913
 40
0.0805108631736395
 40
0.0839544630400803
 40
0.0873852480366335
 40
0.0908010766570041
 40
0.0942008862018627
 40
0.0975862671340665
 40
0.1009596170566161
 40
0.1043226907658078
 40
0.1076765772005371
 40
0.1110229510015357
 40
0.1143632531946498
 40
0.1176989633083253
 40
0.1210304735918265
 40
0.1243601707681889
 40
0.127690386425515
 40
0.1310216257341135
 40
0.1343551881025792
 40
0.1376923467013853
 40
0.1410348179451444
 40
0.1443838405847002
 40
0.1477407618661097
 40
0.1511073513191875
 40
0.1544854755430971
 40
0.1578769809832053
 40
0.161282670088363
 40
0.164702938891
 40
0.168139633265482
 40
0.168139633265482
 40
0.168139633265482
 40
0.168139633265482
 10
167.2433729167185
 20
-14.43129468709996
 30
0.0
 10
167.2444993529157
 20
-14.43058626740617
 30
0.0
 10
167.2467387830434
 20
-14.42917651900249
 30
0.0
 10
167.2500775354192
 20
-14.42707068567711
 30
0.0
 10
167.2533779511906
 20
-14.42498506671263
 30
0.0
 10
167.2566420217599
 20
-14.42291852735445
 30
0.0
 10
167.2598715527615
 20
-14.42087004042665
 30
0.0
 10
167.263068378461
 20
-14.41883855127945
 30
0.0
 10
167.2662341126253
 20
-14.4168231366008
 30
0.0
 10
167.2693707179395
 20
-14.41482264241945
 30
0.0
 10
167.2724803611145
 20
-14.41283577479383
 30
0.0
 10
167.2755650679469
 20
-14.41086131926406
 30
0.0
 10
167.2786262993589
 20
-14.40889841432972
 30
0.0
 10
167.2816652658171
 20
-14.40694635304048
 30
0.0
 10
167.2846834244379
 20
-14.40500426397001
 30
0.0
 10
167.2876822473409
 20
-14.40307125895684
 30
0.0
 10
167.2906628908877
 20
-14.40114664712058
 30
0.0
 10
167.2936264933665
 20
-14.39922974436692
 30
0.0
 10
167.29657462931
 20
-14.39731957867231
 30
0.0
 10
167.2995092041067
 20
-14.39541495578503
 30
0.0
 10
167.3024322105809
 20
-14.39351461607531
 30
0.0
 10
167.305344949129
 20
-14.39161774217083
 30
0.0
 10
167.3082477482991
 20
-14.38972414519047
 30
0.0
 10
167.3111400761422
 20
-14.3878341980252
 30
0.0
 10
167.3140210450581
 20
-14.38594850906845
 30
0.0
 10
167.316889565539
 20
-14.3840678228311
 30
0.0
 10
167.3197444458953
 20
-14.38219295598051
 30
0.0
 10
167.3225852525294
 20
-14.38032423182558
 30
0.0
 10
167.325412815828
 20
-14.37846114195102
 30
0.0
 10
167.3282287479588
 20
-14.37660265740503
 30
0.0
 10
167.3310345183741
 20
-14.37474783642152
 30
0.0
 10
167.3338313928309
 20
-14.37289586603879
 30
0.0
 10
167.3366205474801
 20
-14.37104598736543
 30
0.0
 10
167.3394032645385
 20
-14.36919736583266
 30
0.0
 10
167.3421804678386
 20
-14.3673493998732
 30
0.0
 10
167.3449533417685
 20
-14.36550131043174
 30
0.0
 10
167.3477233045957
 20
-14.36365215723005
 30
0.0
 10
167.3504918027703
 20
-14.36180097440582
 30
0.0
 10
167.3532599788279
 20
-14.35994699363799
 30
0.0
 10
167.3560286802001
 20
-14.35808964000395
 30
0.0
 10
167.3587990875932
 20
-14.35622811066906
 30
0.0
 10
167.3615723624805
 20
-14.35436161045592
 30
0.0
 10
167.3643496843613
 20
-14.35248932678694
 30
0.0
 10
167.367132244986
 20
-14.35061043362869
 30
0.0
 10
167.3699214068764
 20
-14.34872398392879
 30
0.0
 10
167.3727186673225
 20
-14.34682893294272
 30
0.0
 10
167.3755252536034
 20
-14.34492441219429
 30
0.0
 10
167.3783419849443
 20
-14.34300982493271
 30
0.0
 10
167.3811696786463
 20
-14.34108457207634
 30
0.0
 10
167.3830579889443
 20
-14.33979674387103
 30
0.0
 10
167.3840041526184
 20
-14.33915091649999
 30
0.0
 11
167.2433729167185
 21
-14.43129468709996
 31
0.0
 11
167.2467512978185
 21
-14.42916795500001
 31
0.0
 11
167.2500893795186
 21
-14.42706254810001
 31
0.0
 11
167.2533892296185
 21
-14.4249772932
 31
0.0
 11
167.2566525991185
 21
-14.42291120669999
 31
0.0
 11
167.2598816432182
 21
-14.42086303949996
 31
0.0
 11
167.2630778725185
 21
-14.41883194170002
 31
0.0
 11
167.2662431242186
 21
-14.41681684780002
 31
0.0
 11
167.2693788918184
 21
-14.41481690250002
 31
0.0
 11
167.2724877322186
 21
-14.41283056330002
 31
0.0
 11
167.2755720945185
 21
-14.41085634459995
 31
0.0
 11
167.2786330513186
 21
-14.40889363249998
 31
0.0
 11
167.2816714648186
 21
-14.40694194329999
 31
0.0
 11
167.2846890310186
 21
-14.40500025239997
 31
0.0
 11
167.2876875623185
 21
-14.40306745230003
 31
0.0
 11
167.2906679671184
 21
-14.40114301099997
 31
0.0
 11
167.2936309944185
 21
-14.3992264962
 31
0.0
 11
167.2965784007185
 21
-14.39731681820001
 31
0.0
 11
167.2995124029182
 21
-14.39541258090001
 31
0.0
 11
167.3024347435184
 21
-14.39351268680001
 31
0.0
 11
167.3053474415183
 21
-14.3916158504
 31
0.0
 11
167.3082506375183
 21
-14.38972200389997
 31
0.0
 11
167.3111431597183
 21
-14.38783193719995
 31
0.0
 11
167.3140244437184
 21
-14.38594604719998
 31
0.0
 11
167.3168935624185
 21
-14.38406497149997
 31
0.0
 11
167.3197487394184
 21
-14.38218991010001
 31
0.0
 11
167.3225891031186
 21
-14.38032147539995
 31
0.0
 11
167.3254159984183
 21
-14.37845882149997
 31
0.0
 11
167.3282314412183
 21
-14.37660065379997
 31
0.0
 11
167.3310369072183
 21
-14.3747460261
 31
0.0
 11
167.3338333141184
 21
-14.37289435550001
 31
0.0
 11
167.3366220659184
 21
-14.37104473259999
 31
0.0
 11
167.3394043692185
 21
-14.36919637300001
 31
0.0
 11
167.3421814603186
 21
-14.36734846739999
 31
0.0
 11
167.3449536685182
 21
-14.36550080609999
 31
0.0
 11
167.3477229809184
 21
-14.36365207049999
 31
0.0
 11
167.3504913348186
 21
-14.36180096669999
 31
0.0
 11
167.3532591464184
 21
-14.35994721179996
 31
0.0
 11
167.3560274905183
 21
-14.35809007900002
 31
0.0
 11
167.3587974180184
 21
-14.35622885299999
 31
0.0
 11
167.3615703452185
 21
-14.35436256759999
 31
0.0
 11
167.3643472894184
 21
-14.35249051929996
 31
0.0
 11
167.3671293559185
 21
-14.3506119411
 31
0.0
 11
167.3699179971186
 21
-14.34872582550001
 31
0.0
 11
167.3727147429188
 21
-14.34683110640007
 31
0.0
 11
167.3755211032185
 21
-14.34492672419998
 31
0.0
 11
167.3783377215186
 21
-14.34301220190001
 31
0.0
 11
167.3811649037186
 21
-14.34108728889997
 31
0.0
 11
167.3840041526184
 21
-14.33915091649999
 31
0.0
  0
SPLINE
  5
592D6
330
1F
100
AcDbEntity
  8
1
100
AcDbSpline
210
0.0
220
0.0
230
1.0
 70
     8
 71
     3
 72
    55
 73
    51
 74
    49
 42
0.0000000001
 43
0.0000000001
 44
0.000001
 12
0.8890761806487537
 22
0.4577592653382613
 32
0.0
 13
0.8731857566968614
 23
0.487387560676029
 33
0.0
 40
0.0
 40
0.0
 40
0.0
 40
0.0
 40
0.0039454587184732
 40
0.0078481860651375
 40
0.0117102451711205
 40
0.0155336256635772
 40
0.0193206088628269
 40
0.0230729789120439
 40
0.0267930990558965
 40
0.0304831511264391
 40
0.0341457025216234
 40
0.0377820435221651
 40
0.0413933871333658
 40
0.0449817437284714
 40
0.0485494227559011
 40
0.0520974424805769
 40
0.0556267312629526
 40
0.0591391594128138
 40
0.0626371641508863
 40
0.066122367678064
 40
0.0695969792512106
 40
0.0730623493413679
 40
0.0765186597428301
 40
0.0799663337327299
 40
0.0834039595401465
 40
0.0868292822062899
 40
0.0902412053979359
 40
0.0936390858080376
 40
0.0970241078007423
 40
0.1003979568512684
 40
0.1037625759613931
 40
0.1071190637352752
 40
0.1104690665812013
 40
0.113813797708768
 40
0.1171549304250356
 40
0.120493750823604
 40
0.1238316946172207
 40
0.1271702718845205
 40
0.1305107661167606
 40
0.1338547196208244
 40
0.1372032286183987
 40
0.1405580525457948
 40
0.1439209501697569
 40
0.1472940204057242
 40
0.1506784646743683
 40
0.1540746629512599
 40
0.1574835792859079
 40
0.1609072158881866
 40
0.1643470423598736
 40
0.1678040238880288
 40
0.1678040238880288
 40
0.1678040238880288
 40
0.1678040238880288
 10
167.0955103821184
 20
-14.51061813870001
 30
0.0
 10
167.0966796532411
 20
-14.51001611527188
 30
0.0
 10
167.0990050491082
 20
-14.50881765112167
 30
0.0
 10
167.1024733288213
 20
-14.50702664916869
 30
0.0
 10
167.1059040476721
 20
-14.50525160128895
 30
0.0
 10
167.1092991230296
 20
-14.50349162397843
 30
0.0
 10
167.1126603863605
 20
-14.50174586966717
 30
0.0
 10
167.1159897763896
 20
-14.50001342682051
 30
0.0
 10
167.1192891991464
 20
-14.49829339262308
 30
0.0
 10
167.1225607888154
 20
-14.49658473686834
 30
0.0
 10
167.1258063591696
 20
-14.49488658819126
 30
0.0
 10
167.1290274350159
 20
-14.49319821932683
 30
0.0
 10
167.132225374442
 20
-14.49151898468676
 30
0.0
 10
167.1354018339697
 20
-14.48984807609315
 30
0.0
 10
167.1385584099653
 20
-14.4881847102762
 30
0.0
 10
167.1416963773791
 20
-14.48652826751476
 30
0.0
 10
167.1448168799198
 20
-14.4848781928883
 30
0.0
 10
167.1479214774534
 20
-14.48323370651646
 30
0.0
 10
167.151011931635
 20
-14.48159391525087
 30
0.0
 10
167.1540901012099
 20
-14.47995786776728
 30
0.0
 10
167.1571575224395
 20
-14.47832477775287
 30
0.0
 10
167.16021530562
 20
-14.47669408041235
 30
0.0
 10
167.1632640344548
 20
-14.47506548858513
 30
0.0
 10
167.1663034800616
 20
-14.4734391480377
 30
0.0
 10
167.1693326980636
 20
-14.47181558894735
 30
0.0
 10
167.1723502994312
 20
-14.47019558407136
 30
0.0
 10
167.1753551228057
 20
-14.46857978862279
 30
0.0
 10
167.1783470177156
 20
-14.46696831695098
 30
0.0
 10
167.181326649828
 20
-14.46536084315383
 30
0.0
 10
167.1842954420574
 20
-14.46375662916564
 30
0.0
 10
167.1872547900288
 20
-14.46215494647792
 30
0.0
 10
167.1902060759059
 20
-14.46055506900494
 30
0.0
 10
167.1931504661264
 20
-14.45895638309721
 30
0.0
 10
167.1960892936973
 20
-14.45735818036796
 30
0.0
 10
167.1990237842505
 20
-14.45575980634405
 30
0.0
 10
167.201955226732
 20
-14.45416056770554
 30
0.0
 10
167.2048848605139
 20
-14.4525597938523
 30
0.0
 10
167.2078139223991
 20
-14.4509568112739
 30
0.0
 10
167.2107436785604
 20
-14.4493509261106
 30
0.0
 10
167.2136752724152
 20
-14.44774150755471
 30
0.0
 10
167.2166099847256
 20
-14.44612784532042
 30
0.0
 10
167.2195491575912
 20
-14.44450919093637
 30
0.0
 10
167.2224944237219
 20
-14.44288463080232
 30
0.0
 10
167.2254472505741
 20
-14.44125333687037
 30
0.0
 10
167.2284087012722
 20
-14.43961469968488
 30
0.0
 10
167.2313795065823
 20
-14.43796829052859
 30
0.0
 10
167.2343606295656
 20
-14.43631354922961
 30
0.0
 10
167.2373533491102
 20
-14.43464973625772
 30
0.0
 10
167.2403589423263
 20
-14.43297610822944
 30
0.0
 10
167.2423667210413
 20
-14.4318563170314
 30
0.0
 10
167.2433729167185
 20
-14.43129468709996
 30
0.0
 11
167.0955103821184
 21
-14.51061813870001
 31
0.0
 11
167.0990174706182
 21
-14.50881065989999
 31
0.0
 11
167.1024851473184
 21
-14.50701998659996
 31
0.0
 11
167.1059152895184
 21
-14.5052452634
 31
0.0
 11
167.1093097057185
 21
-14.50348566149999
 31
0.0
 11
167.1126704601185
 21
-14.50174021119998
 31
0.0
 11
167.1159991725183
 21
-14.50000816549999
 31
0.0
 11
167.1192979733184
 21
-14.49828850379997
 31
0.0
 11
167.1225688285183
 21
-14.49658028229999
 31
0.0
 11
167.1258140427182
 21
-14.4948823724
 31
0.0
 11
167.1290347856186
 21
-14.49319423100002
 31
0.0
 11
167.1322321568184
 21
-14.4915153475
 31
0.0
 11
167.1354079596183
 21
-14.48984483610002
 31
0.0
 11
167.1385642590182
 21
-14.4881816659
 31
0.0
 11
167.1417019753182
 21
-14.48652540319999
 31
0.0
 11
167.1448219477186
 21
-14.4848756531
 31
0.0
 11
167.1479258466186
 21
-14.48323157739996
 31
0.0
 11
167.1510158404185
 21
-14.48159206679996
 31
0.0
 11
167.1540933749186
 21
-14.47995638889999
 31
0.0
 11
167.1571604118185
 21
-14.478323531
 31
0.0
 11
167.1602181522182
 21
-14.47669287910007
 31
0.0
 11
167.1632667649185
 21
-14.475064367
 31
0.0
 11
167.1663066313185
 21
-14.47343781390002
 31
0.0
 11
167.1693365152184
 21
-14.47181390539997
 31
0.0
 11
167.1723544394183
 21
-14.47019372940001
 31
0.0
 11
167.1753594500185
 21
-14.46857783030002
 31
0.0
 11
167.1783509932186
 21
-14.4669665399
 31
0.0
 11
167.1813301243185
 21
-14.46535932319999
 31
0.0
 11
167.1842983378185
 21
-14.46375540380001
 31
0.0
 11
167.1872573525186
 21
-14.46215387860002
 31
0.0
 11
167.1902081424184
 21
-14.46055424229993
 31
0.0
 11
167.1931521617187
 21
-14.4589557259
 31
0.0
 11
167.1960904817185
 21
-14.45735776299999
 31
0.0
 11
167.1990245764184
 21
-14.45575956459997
 31
0.0
 11
167.2019555777185
 21
-14.45416052309996
 31
0.0
 11
167.2048847472185
 21
-14.45255995619999
 31
0.0
 11
167.2078134100184
 21
-14.45095714270002
 31
0.0
 11
167.2107426907184
 21
-14.44935146699997
 31
0.0
 11
167.2136739390187
 21
-14.44774218570001
 31
0.0
 11
167.2166081121186
 21
-14.44612876740001
 31
0.0
 11
167.2195467464182
 21
-14.44451035759998
 31
0.0
 11
167.2224913756186
 21
-14.44288609829998
 31
0.0
 11
167.2254438288184
 21
-14.44125496280007
 31
0.0
 11
167.2284051474185
 21
-14.43961635459998
 31
0.0
 11
167.2313756527185
 21
-14.43797007250003
 31
0.0
 11
167.2343561763184
 21
-14.43631563119999
 31
0.0
 11
167.2373484555185
 21
-14.43465203800001
 31
0.0
 11
167.2403537599184
 21
-14.43297855510002
 31
0.0
 11
167.2433729167185
 21
-14.43129468709996
 31
0.0
  0
SPLINE
  5
592D7
330
1F
100
AcDbEntity
  8
1
100
AcDbSpline
210
0.0
220
0.0
230
1.0
 70
     8
 71
     3
 72
    55
 73
    51
 74
    49
 42
0.0000000001
 43
0.0000000001
 44
0.000001
 12
0.925353507878524
 22
0.3791053751358722
 32
0.0
 13
0.9130035552679538
 23
0.4079516001538376
 33
0.0
 40
0.0
 40
0.0
 40
0.0
 40
0.0
 40
0.0038958410575287
 40
0.0077512005884513
 40
0.0115678800262427
 40
0.0153484375677814
 40
0.0190948892708894
 40
0.0228088501474127
 40
0.0264927485505344
 40
0.0301481479691661
 40
0.0337769040953731
 40
0.0373811954995891
 40
0.0409621318384147
 40
0.0445214149925481
 40
0.0480610921726267
 40
0.0515827806918597
 40
0.0550885321775676
 40
0.0585796840532739
 40
0.0620586134685255
 40
0.0655269081392189
 40
0.0689861137891162
 40
0.0724380891062336
 40
0.0758824161239201
 40
0.0793182194835248
 40
0.0827455238004891
 40
0.0861629407655449
 40
0.089568338276806
 40
0.0929609447010083
 40
0.0963419177486496
 40
0.0997130164663493
 40
0.1030760313704318
 40
0.1064328032077188
 40
0.1097849115926097
 40
0.1131329480950402
 40
0.1164780602939098
 40
0.1198221327498994
 40
0.1231662617901979
 40
0.1265118812075484
 40
0.1298607801517744
 40
0.1332137252757119
 40
0.1365716424293271
 40
0.1399362987875755
 40
0.1433093707302243
 40
0.1466926501395509
 40
0.150087817928477
 40
0.1534965796275366
 40
0.1569198497182024
 40
0.1603584984687405
 40
0.1638143635559598
 40
0.1672888589303796
 40
0.1672888589303796
 40
0.1672888589303796
 40
0.1672888589303796
 10
166.9417490650185
 20
-14.57650230889999
 30
0.0
 10
166.942950741748
 20
-14.57600999747146
 30
0.0
 10
166.9453412304091
 20
-14.5750295667071
 30
0.0
 10
166.9489076693401
 20
-14.57356363912767
 30
0.0
 10
166.9524374663809
 20
-14.57210964892616
 30
0.0
 10
166.9559326193972
 20
-14.57066687208778
 30
0.0
 10
166.9593950660771
 20
-14.5692346012057
 30
0.0
 10
166.9628267015697
 20
-14.56781213895363
 30
0.0
 10
166.9662292791948
 20
-14.56639883948681
 30
0.0
 10
166.9696046240052
 20
-14.56499402022585
 30
0.0
 10
166.9729544819314
 20
-14.56359702490093
 30
0.0
 10
166.976280457073
 20
-14.56220724992433
 30
0.0
 10
166.9795841042458
 20
-14.56082410652182
 30
0.0
 10
166.9828669360392
 20
-14.5594470182243
 30
0.0
 10
166.9861306191294
 20
-14.55807533824601
 30
0.0
 10
166.9893769256352
 20
-14.55670836961103
 30
0.0
 10
166.9926074076155
 20
-14.55534550223619
 30
0.0
 10
166.995823848606
 20
-14.55398602297246
 30
0.0
 10
166.9990278877092
 20
-14.55262927401827
 30
0.0
 10
167.0022212260188
 20
-14.55127456578857
 30
0.0
 10
167.0054054037243
 20
-14.54992127182214
 30
0.0
 10
167.0085813441488
 20
-14.54856902337954
 30
0.0
 10
167.0117492273341
 20
-14.5472177660126
 30
0.0
 10
167.0149086711476
 20
-14.54586768544273
 30
0.0
 10
167.018058996524
 20
-14.54451909557367
 30
0.0
 10
167.0211991401147
 20
-14.54317247702094
 30
0.0
 10
167.0243277960073
 20
-14.54182841811725
 30
0.0
 10
167.0274444392533
 20
-14.54048717490667
 30
0.0
 10
167.0305497363384
 20
-14.53914849067325
 30
0.0
 10
167.0336451368767
 20
-14.53781176784564
 30
0.0
 10
167.0367322978102
 20
-14.53647631457808
 30
0.0
 10
167.0398128193976
 20
-14.53514145856461
 30
0.0
 10
167.0428879335766
 20
-14.53380668259534
 30
0.0
 10
167.0459586591283
 20
-14.53247155863308
 30
0.0
 10
167.049026107
 20
-14.5311356156359
 30
0.0
 10
167.0520915410939
 20
-14.52979831235332
 30
0.0
 10
167.0551563113649
 20
-14.52845906615809
 30
0.0
 10
167.058221737249
 20
-14.52711730398817
 30
0.0
 10
167.061289036099
 20
-14.52577249359781
 30
0.0
 10
167.0643592689637
 20
-14.5244241678984
 30
0.0
 10
167.0674334891399
 20
-14.52307186036165
 30
0.0
 10
167.0705130262561
 20
-14.52171497954182
 30
0.0
 10
167.0735994725577
 20
-14.52035281407919
 30
0.0
 10
167.0766943922866
 20
-14.51898466039958
 30
0.0
 10
167.0797993568785
 20
-14.51760980720013
 30
0.0
 10
167.0829156687219
 20
-14.51622765796195
 30
0.0
 10
167.0860443818652
 20
-14.51483772277443
 30
0.0
 10
167.0891865895071
 20
-14.51343949139557
 30
0.0
 10
167.0923435356369
 20
-14.51203238305074
 30
0.0
 10
167.0944529732418
 20
-14.51109061401591
 30
0.0
 10
167.0955103821184
 20
-14.51061813870001
 30
0.0
 11
166.9417490650185
 21
-14.57650230889999
 31
0.0
 11
166.9453535294185
 21
-14.57502399079999
 31
0.0
 11
166.9489194240184
 21
-14.57355831000001
 31
0.0
 11
166.9524484490187
 21
-14.57210467129998
 31
0.0
 11
166.9559430017184
 21
-14.57066218440002
 31
0.0
 11
166.9594049753184
 21
-14.5692301582
 31
0.0
 11
166.9628358901184
 21
-14.56780804890002
 31
0.0
 11
166.9662380154184
 21
-14.56639499520004
 31
0.0
 11
166.9696128193184
 21
-14.5649904612
 31
0.0
 11
166.9729620378184
 21
-14.56359379389998
 31
0.0
 11
166.9762877026185
 21
-14.56220421020003
 31
0.0
 11
166.9795908571184
 21
-14.56082133400001
 31
0.0
 11
166.9828730895183
 21
-14.55944455669997
 31
0.0
 11
166.9861363044183
 21
-14.558073131
 31
0.0
 11
166.9893820080185
 21
-14.55670647100002
 31
0.0
 11
166.9926121049184
 21
-14.55534381760002
 31
0.0
 11
166.9958278397187
 21
-14.55398468449998
 31
0.0
 11
166.9990314129186
 21
-14.5526281762
 31
0.0
 11
167.0022242959185
 21
-14.55127369979999
 31
0.0
 11
167.0054079198185
 21
-14.54992067480002
 31
0.0
 11
167.0085840020183
 21
-14.54856839409997
 31
0.0
 11
167.0117521642185
 21
-14.54721704000002
 31
0.0
 11
167.0149116080185
 21
-14.54586697559999
 31
0.0
 11
167.0180623632184
 21
-14.54451821169998
 31
0.0
 11
167.0212031611186
 21
-14.54317131600002
 31
0.0
 11
167.0243320512184
 21
-14.54182715339998
 31
0.0
 11
167.0274483346186
 21
-14.54048605539997
 31
0.0
 11
167.0305530846183
 21
-14.53914759069998
 31
0.0
 11
167.0336479254183
 21
-14.53781108679999
 31
0.0
 11
167.0367345084184
 21
-14.53647585470007
 31
0.0
 11
167.0398145293184
 21
-14.53514118119999
 31
0.0
 11
167.0428894424183
 21
-14.53380645269999
 31
0.0
 11
167.0459597946185
 21
-14.53247144649997
 31
0.0
 11
167.0490266419183
 21
-14.5311357163
 31
0.0
 11
167.0520917146184
 21
-14.52979851830001
 31
0.0
 11
167.0551560189185
 21
-14.52845942009998
 31
0.0
 11
167.0582208693186
 21
-14.52711785199999
 31
0.0
 11
167.0612879041185
 21
-14.52577309780001
 31
0.0
 11
167.0643578240186
 21
-14.52442484919997
 31
0.0
 11
167.0674314746186
 21
-14.5230727319
 31
0.0
 11
167.0705104705187
 21
-14.5217160303
 31
0.0
 11
167.0735963415186
 21
-14.52035406150007
 31
0.0
 11
167.0766907215186
 21
-14.51898609239997
 31
0.0
 11
167.0797951412185
 21
-14.51761143089999
 31
0.0
 11
167.0829111522187
 21
-14.51622937130008
 31
0.0
 11
167.0860395816184
 21
-14.51483952550001
 31
0.0
 11
167.0891812154184
 21
-14.51344152180002
 31
0.0
 11
167.0923377222184
 21
-14.51203459240007
 31
0.0
 11
167.0955103821184
 21
-14.51061813870001
 31
0.0
  0
SPLINE
  5
592D8
330
1F
100
AcDbEntity
  8
1
100
AcDbSpline
210
0.0
220
0.0
230
1.0
 70
     8
 71
     3
 72
    55
 73
    51
 74
    49
 42
0.0000000001
 43
0.0000000001
 44
0.000001
 12
0.9549284082720459
 22
0.2968362091710118
 32
0.0
 13
0.9453394986909032
 23
0.3260877676559362
 33
0.0
 40
0.0
 40
0.0
 40
0.0
 40
0.0
 40
0.0038473426047913
 40
0.0076563243536324
 40
0.0114291428174189
 40
0.0151683867898474
 40
0.0188755203806814
 40
0.0225524831320347
 40
0.0262013591069891
 40
0.0298233546208029
 40
0.0334201335766459
 40
0.0369937402803109
 40
0.0405458874774516
 40
0.0440785353899187
 40
0.04759309042122
 40
0.0510914540793036
 40
0.0545749663365434
 40
0.0580454148800752
 40
0.0615044008594518
 40
0.0649535165649474
 40
0.068394784748737
 40
0.071829655881383
 40
0.0752595749864718
 40
0.0786844629449023
 40
0.0821027835303991
 40
0.0855121392337579
 40
0.0889098186307324
 40
0.092295505855489
 40
0.0956709434466584
 40
0.0990378865966244
 40
0.102397675743329
 40
0.1057517006729776
 40
0.109101295571372
 40
0.1124478809188403
 40
0.1157928120551248
 40
0.1191374049863768
 40
0.1224831457675646
 40
0.1258313947350103
 40
0.1291836774744106
 40
0.1325413202755989
 40
0.1359057860353959
 40
0.1392783219441168
 40
0.1426606775024679
 40
0.1460544688619172
 40
0.1494614205283911
 40
0.1528822929402934
 40
0.1563181892775757
 40
0.159770985598529
 40
0.1632417186096322
 40
0.1667317735385321
 40
0.1667317735385321
 40
0.1667317735385321
 40
0.1667317735385321
 10
166.7833423456184
 20
-14.6285080791
 30
0.0
 10
166.7845669912016
 20
-14.62812740223526
 30
0.0
 10
166.7870037792429
 20
-14.62736890278351
 30
0.0
 10
166.7906404787512
 20
-14.62623385116461
 30
0.0
 10
166.7942419313078
 20
-14.6251068136915
 30
0.0
 10
166.7978101498788
 20
-14.62398725383191
 30
0.0
 10
166.8013470633343
 20
-14.62287465373585
 30
0.0
 10
166.804854438166
 20
-14.6217685396421
 30
0.0
 10
166.8083339571014
 20
-14.62066845748362
 30
0.0
 10
166.81178721362
 20
-14.61957397533099
 30
0.0
 10
166.8152157870449
 20
-14.61848466011032
 30
0.0
 10
166.8186214159705
 20
-14.61740002223583
 30
0.0
 10
166.8220059314251
 20
-14.61631953657837
 30
0.0
 10
166.8253709602344
 20
-14.61524273727055
 30
0.0
 10
166.828718187646
 20
-14.61416913431729
 30
0.0
 10
166.8320491005753
 20
-14.61309829609038
 30
0.0
 10
166.8353653055596
 20
-14.61202974758657
 30
0.0
 10
166.8386683124677
 20
-14.61096304005463
 30
0.0
 10
166.8419597098436
 20
-14.60989769451585
 30
0.0
 10
166.8452411594049
 20
-14.60883320346581
 30
0.0
 10
166.8485142736718
 20
-14.60776907037727
 30
0.0
 10
166.8517806171174
 20
-14.60670480958531
 30
0.0
 10
166.8550410869223
 20
-14.6056401488845
 30
0.0
 10
166.8582956333809
 20
-14.60457512347565
 30
0.0
 10
166.8615429899104
 20
-14.60351016819054
 30
0.0
 10
166.8647810575288
 20
-14.6024459952945
 30
0.0
 10
166.8680081254205
 20
-14.60138319514991
 30
0.0
 10
166.87122379459
 20
-14.60032192953234
 30
0.0
 10
166.8744290796971
 20
-14.59926189283801
 30
0.0
 10
166.8776255184928
 20
-14.59820260269626
 30
0.0
 10
166.8808145358849
 20
-14.59714360991117
 30
0.0
 10
166.883997422489
 20
-14.5960845060778
 30
0.0
 10
166.887175493187
 20
-14.59502487112662
 30
0.0
 10
166.8903500509147
 20
-14.59396428538819
 30
0.0
 10
166.8935223918208
 20
-14.592902327931
 30
0.0
 10
166.8966938317533
 20
-14.59183856776182
 30
0.0
 10
166.8998656870974
 20
-14.59077257020442
 30
0.0
 10
166.9030393394027
 20
-14.58970387514902
 30
0.0
 10
166.9062161186756
 20
-14.58863203627018
 30
0.0
 10
166.9093973862628
 20
-14.58755659317511
 30
0.0
 10
166.9125844145592
 20
-14.5864771121028
 30
0.0
 10
166.9157786085484
 20
-14.58539311101226
 30
0.0
 10
166.918981420476
 20
-14.58430408817028
 30
0.0
 10
166.9221944520211
 20
-14.58320948711335
 30
0.0
 10
166.9254189915913
 20
-14.58210885420438
 30
0.0
 10
166.9286561648049
 20
-14.5810017882561
 30
0.0
 10
166.9319071442271
 20
-14.57988786928462
 30
0.0
 10
166.935173188544
 20
-14.57876664458777
 30
0.0
 10
166.9384556442931
 20
-14.57763762793885
 30
0.0
 10
166.9406493027595
 20
-14.57688166364025
 30
0.0
 10
166.9417490650185
 20
-14.57650230889999
 30
0.0
 11
166.7833423456184
 21
-14.6285080791
 31
0.0
 11
166.7870158459184
 21
-14.62736463899999
 31
0.0
 11
166.7906518567183
 21
-14.6262298235
 31
0.0
 11
166.7942525013186
 21
-14.62510306889999
 31
0.0
 11
166.7978202740185
 21
-14.62398368639997
 31
0.0
 11
166.8013565939184
 21
-14.62287131660001
 31
0.0
 11
166.8048633320186
 21
-14.6217654517
 31
0.0
 11
166.8083424953186
 21
-14.6206655341
 31
0.0
 11
166.8117952522184
 21
-14.61957126499999
 31
0.0
 11
166.8152232061186
 21
-14.61848220310007
 31
0.0
 11
166.8186283212183
 21
-14.61739778600001
 31
0.0
 11
166.8220122442183
 21
-14.61631754659997
 31
0.0
 11
166.8253768559184
 21
-14.61524093700001
 31
0.0
 11
166.8287235081184
 21
-14.61416757300009
 31
0.0
 11
166.8320540228185
 21
-14.61309691500004
 31
0.0
 11
166.8353696859183
 21
-14.61202859029997
 31
0.0
 11
166.8386722082184
 21
-14.61096208479999
 31
0.0
 11
166.8419631216184
 21
-14.60989693719999
 31
0.0
 11
166.8452439483183
 21
-14.60883268479999
 31
0.0
 11
166.8485166185185
 21
-14.6077687274
 31
0.0
 11
166.8517825168185
 21
-14.6067046374
 31
0.0
 11
166.8550430215184
 21
-14.6056399853
 31
0.0
 11
166.8582980614185
 21
-14.60457481259999
 31
0.0
 11
166.8615461810184
 21
-14.6035096155
 31
0.0
 11
166.8647851078183
 21
-14.60244516270001
 31
0.0
 11
166.8680122732181
 21
-14.60138232719997
 31
0.0
 11
166.8712273853184
 21
-14.60032123659998
 31
0.0
 11
166.8744321065185
 21
-14.599261372
 31
0.0
 11
166.8776281099183
 21
-14.59820220639999
 31
0.0
 11
166.8808166737183
 21
-14.59714333950001
 31
0.0
 11
166.8839991218183
 21
-14.59608435189999
 31
0.0
 11
166.8871767244186
 21
-14.59502483879997
 31
0.0
 11
166.8903508325186
 21
-14.5939643648
 31
0.0
 11
166.8935227343186
 21
-14.59290251199995
 31
0.0
 11
166.8966936797183
 21
-14.59183887189998
 31
0.0
 11
166.8998650788182
 21
-14.59077297880009
 31
0.0
 11
166.9030382215185
 21
-14.58970440389997
 31
0.0
 11
166.9062145533185
 21
-14.58863266259999
 31
0.0
 11
166.9093953298186
 21
-14.58755733079998
 31
0.0
 11
166.9125819350186
 21
-14.58647793760001
 31
0.0
 11
166.9157755478184
 21
-14.58539407889996
 31
0.0
 11
166.9189778216185
 21
-14.58430518570009
 31
0.0
 11
166.9221902824185
 21
-14.58321072849996
 31
0.0
 11
166.9254145576185
 21
-14.5821101394
 31
0.0
 11
166.9286513612185
 21
-14.58100315889999
 31
0.0
 11
166.9319017310183
 21
-14.5798894151
 31
0.0
 11
166.9351674348186
 21
-14.57876828220007
 31
0.0
 11
166.9384494456183
 21
-14.5776394042
 31
0.0
 11
166.9417490650185
 21
-14.57650230889999
 31
0.0
  0
SPLINE
  5
592D9
330
1F
100
AcDbEntity
  8
1
100
AcDbSpline
210
0.0
220
0.0
230
1.0
 70
     8
 71
     3
 72
    54
 73
    50
 74
    48
 42
0.0000000001
 43
0.0000000001
 44
0.000001
 12
0.9773946771351324
 22
0.2114229058260022
 32
0.0
 13
0.970173958123421
 23
0.2424097584239027
 33
0.0
 40
0.0
 40
0.0
 40
0.0
 40
0.0
 40
0.0038832070872715
 40
0.0077288847459458
 40
0.0115396138399324
 40
0.0153171721370025
 40
0.019063307817319
 40
0.0227806644912379
 40
0.0264708017056313
 40
0.0301352381098018
 40
0.0337764598662289
 40
0.0373958126489371
 40
0.0409943580832312
 40
0.0445741332096366
 40
0.0481370899423037
 40
0.0516851666504317
 40
0.0552202536002686
 40
0.0587437982478881
 40
0.0622582392776549
 40
0.0657651359960093
 40
0.0692662001833472
 40
0.072763092388459
 40
0.0762549854133125
 40
0.0797407794894397
 40
0.0832195078077029
 40
0.0866877959384601
 40
0.090144355472523
 40
0.093591218912428
 40
0.0970313370375144
 40
0.1004658656021464
 40
0.1038951709323449
 40
0.1073196813163591
 40
0.1107416998545463
 40
0.1141628947755059
 40
0.1175843686856319
 40
0.121007328588057
 40
0.124434338896241
 40
0.1278663916362197
 40
0.1313038911337669
 40
0.1347473942114126
 40
0.1381992657934394
 40
0.1416615606562477
 40
0.1451365081101934
 40
0.1486252934382662
 40
0.1521297169195928
 40
0.155650844252418
 40
0.159190368016148
 40
0.1627498681533425
 40
0.1663308605499319
 40
0.1663308605499319
 40
0.1663308605499319
 40
0.1663308605499319
 10
166.6213805377185
 20
-14.66634976459993
 30
0.0
 10
166.6226456796977
 20
-14.66607609829116
 30
0.0
 10
166.6251635119874
 20
-14.66553037140907
 30
0.0
 10
166.6289220948318
 20
-14.66471250084466
 30
0.0
 10
166.6326456122531
 20
-14.66389911647499
 30
0.0
 10
166.6363360710666
 20
-14.66308987837727
 30
0.0
 10
166.6399954970698
 20
-14.66228443458536
 30
0.0
 10
166.643625843481
 20
-14.66148244112767
 30
0.0
 10
166.6472289873666
 20
-14.66068356334966
 30
0.0
 10
166.6508067532601
 20
-14.65988747153308
 30
0.0
 10
166.6543608947904
 20
-14.65909384497711
 30
0.0
 10
166.6578930156726
 20
-14.65830239015851
 30
0.0
 10
166.6614045725123
 20
-14.65751284124903
 30
0.0
 10
166.6648972180234
 20
-14.65672488299252
 30
0.0
 10
166.6683728887883
 20
-14.65593813003797
 30
0.0
 10
166.671833472398
 20
-14.65515220184818
 30
0.0
 10
166.6752806912562
 20
-14.65436674947266
 30
0.0
 10
166.6787164292402
 20
-14.65358138165658
 30
0.0
 10
166.6821424614862
 20
-14.65279572623591
 30
0.0
 10
166.6855606478389
 20
-14.65200938601494
 30
0.0
 10
166.6889725942752
 20
-14.65122201699853
 30
0.0
 10
166.6923791307545
 20
-14.65043345003654
 30
0.0
 10
166.695780173897
 20
-14.64964372587731
 30
0.0
 10
166.6991747875647
 20
-14.64885308462834
 30
0.0
 10
166.7025612094121
 20
-14.64806196199123
 30
0.0
 10
166.7059376170281
 20
-14.64727081278958
 30
0.0
 10
166.7093031624542
 20
-14.64647986802624
 30
0.0
 10
166.7126590502273
 20
-14.64568887618075
 30
0.0
 10
166.7160072768199
 20
-14.64489739413969
 30
0.0
 10
166.7193492970689
 20
-14.64410510156016
 30
0.0
 10
166.7226857470081
 20
-14.64331186916782
 30
0.0
 10
166.7260176343516
 20
-14.64251747741177
 30
0.0
 10
166.7293463882354
 20
-14.64172160296682
 30
0.0
 10
166.7326736554459
 20
-14.64092386610899
 30
0.0
 10
166.7360007265965
 20
-14.64012396853846
 30
0.0
 10
166.7393291819737
 20
-14.63932153881238
 30
0.0
 10
166.7426605650714
 20
-14.63851621006928
 30
0.0
 10
166.7459961584218
 20
-14.63770767457527
 30
0.0
 10
166.749336593637
 20
-14.63689577990747
 30
0.0
 10
166.7526829466212
 20
-14.63608026390445
 30
0.0
 10
166.7560368270329
 20
-14.63526073104049
 30
0.0
 10
166.7594003849939
 20
-14.63443664894652
 30
0.0
 10
166.7627753875107
 20
-14.63360757395445
 30
0.0
 10
166.7661635182012
 20
-14.63277307856342
 30
0.0
 10
166.7695660831689
 20
-14.63193282443559
 30
0.0
 10
166.7729845518843
 20
-14.63108642950372
 30
0.0
 10
166.7764203216927
 20
-14.63023352604428
 30
0.0
 10
166.7798749346849
 20
-14.62937370673134
 30
0.0
 10
166.7821842837626
 20
-14.62879743493393
 30
0.0
 10
166.7833423456184
 20
-14.6285080791
 30
0.0
 11
166.6213805377185
 21
-14.66634976459993
 31
0.0
 11
166.6251756293184
 21
-14.66552720929995
 31
0.0
 11
166.6289333815182
 21
-14.66470953639991
 31
0.0
 11
166.6326563346185
 21
-14.66389629749993
 31
0.0
 11
166.6363462426184
 21
-14.66308720659992
 31
0.0
 11
166.6400048294183
 21
-14.66228197749996
 31
0.0
 11
166.6436346919186
 21
-14.66148012369996
 31
0.0
 11
166.6472373669182
 21
-14.66068138459991
 31
0.0
 11
166.6508143502185
 21
-14.65988550279995
 31
0.0
 11
166.6543680808186
 21
-14.65909200449994
 31
0.0
 11
166.6578998832185
 21
-14.65830065739992
 31
0.0
 11
166.6614108039183
 21
-14.65751128699992
 31
0.0
 11
166.6649028402185
 21
-14.65672350039993
 31
0.0
 11
166.6683779051184
 21
-14.65593691729992
 31
0.0
 11
166.6718378971184
 21
-14.65515115419997
 31
0.0
 11
166.6752846667184
 21
-14.65436583299993
 31
0.0
 11
166.6787196315183
 21
-14.65358066849994
 31
0.0
 11
166.6821451743183
 21
-14.65279514939993
 31
0.0
 11
166.6855628195183
 21
-14.6520089550999
 31
0.0
 11
166.6889742391186
 21
-14.65122172619998
 31
0.0
 11
166.6923810542184
 21
-14.65043311029994
 31
0.0
 11
166.6957824618183
 21
-14.64964331389994
 31
0.0
 11
166.6991773940183
 21
-14.64885260749992
 31
0.0
 11
166.7025649131183
 21
-14.64806123419997
 31
0.0
 11
166.7059417380185
 21
-14.64726998919997
 31
0.0
 11
166.7093066203185
 21
-14.64647919869992
 31
0.0
 11
166.7126615444183
 21
-14.64568842869994
 31
0.0
 11
166.7160093871185
 21
-14.64489702839994
 31
0.0
 11
166.7193512770184
 21
-14.64410475409993
 31
0.0
 11
166.7226875740184
 21
-14.64331154159991
 31
0.0
 11
166.7260186982185
 21
-14.64251731179995
 31
0.0
 11
166.7293468927184
 21
-14.64172154769993
 31
0.0
 11
166.7326737820183
 21
-14.64092387499993
 31
0.0
 11
166.7360004398185
 21
-14.64012404790002
 31
0.0
 11
166.7393280406186
 21
-14.63932179309994
 31
0.0
 11
166.7426590776183
 21
-14.63851651529994
 31
0.0
 11
166.7459945145185
 21
-14.63770798379993
 31
0.0
 11
166.7493347435186
 21
-14.63689610480003
 31
0.0
 11
166.7526803047183
 21
-14.63608074719997
 31
0.0
 11
166.7560334943184
 21
-14.63526134929997
 31
0.0
 11
166.7593963059182
 21
-14.63443741749994
 31
0.0
 11
166.7627709015184
 21
-14.63360841199993
 31
0.0
 11
166.7661584282184
 21
-14.63277403779995
 31
0.0
 11
166.7695606295183
 21
-14.63193384970002
 31
0.0
 11
166.7729785349186
 21
-14.63108757510001
 31
0.0
 11
166.7764137818183
 21
-14.63023478820007
 31
0.0
 11
166.7798678973183
 21
-14.62937508629998
 31
0.0
 11
166.7833423456184
 21
-14.6285080791
 31
0.0
  0
SPLINE
  5
592DA
330
1F
100
AcDbEntity
  8
1
100
AcDbSpline
210
0.0
220
0.0
230
1.0
 70
     8
 71
     3
 72
    57
 73
    53
 74
    51
 42
0.0000000001
 43
0.0000000001
 44
0.000001
 12
0.9926442983151567
 22
0.1210673243381963
 32
0.0
 13
0.9875148019949907
 23
0.1575262385788291
 33
0.0
 40
0.0
 40
0.0
 40
0.0
 40
0.0
 40
0.0038850967491884
 40
0.007732292576715
 40
0.0115428835525308
 40
0.0153186304446548
 40
0.019061796912997
 40
0.0227740558610079
 40
0.0264573476449382
 40
0.0301137558727186
 40
0.0337444646674425
 40
0.0373510925554079
 40
0.040935662590165
 40
0.0444997548362812
 40
0.0480453823959186
 40
0.0515740974554795
 40
0.0550877849652446
 40
0.0585875368531056
 40
0.0620746092049999
 40
0.0655514898261957
 40
0.0690202682313654
 40
0.0724833252251842
 40
0.0759416502817701
 40
0.0793946843771313
 40
0.0828420737710451
 40
0.0862843243328876
 40
0.0897216669319899
 40
0.0931529019703439
 40
0.0965769584370369
 40
0.0999940358720369
 40
0.1034048368658151
 40
0.1068089751991919
 40
0.1102061195621734
 40
0.1135971648553504
 40
0.116984782309505
 40
0.1203714848093838
 40
0.1237587347602637
 40
0.1271475512013324
 40
0.1305395611078384
 40
0.1339361976439155
 40
0.1373386530000112
 40
0.1407475239572199
 40
0.1441659609576045
 40
0.147595165176519
 40
0.151035715417738
 40
0.1544894620329134
 40
0.157958271445976
 40
0.1614443625039153
 40
0.1649486914684817
 40
0.1684717007479785
 40
0.1720150699029063
 40
0.1755807400986104
 40
0.1755807400986104
 40
0.1755807400986104
 40
0.1755807400986104
 10
166.4475427602185
 20
-14.6909574427999
 30
0.0
 10
166.4488282665974
 20
-14.69080065671049
 30
0.0
 10
166.4513865941519
 20
-14.69048742803902
 30
0.0
 10
166.4552052734681
 20
-14.69001633118738
 30
0.0
 10
166.4589873537361
 20
-14.68954627824144
 30
0.0
 10
166.4627346059042
 20
-14.68907716412075
 30
0.0
 10
166.466448924776
 20
-14.68860885969721
 30
0.0
 10
166.4701322636758
 20
-14.68814121994872
 30
0.0
 10
166.4737865155559
 20
-14.6876740993402
 30
0.0
 10
166.4774134109372
 20
-14.68720736522374
 30
0.0
 10
166.4810145732176
 20
-14.68674089176697
 30
0.0
 10
166.4845916051108
 20
-14.68627454942128
 30
0.0
 10
166.4881462394893
 20
-14.68580818502148
 30
0.0
 10
166.4916803388854
 20
-14.68534162161187
 30
0.0
 10
166.4951956094752
 20
-14.68487469618628
 30
0.0
 10
166.4986938574571
 20
-14.68440722610505
 30
0.0
 10
166.5021765839798
 20
-14.68393906342355
 30
0.0
 10
166.5056451917755
 20
-14.68347006823254
 30
0.0
 10
166.509101282157
 20
-14.68300006892936
 30
0.0
 10
166.5125467852313
 20
-14.68252884335422
 30
0.0
 10
166.5159840017033
 20
-14.68205611182945
 30
0.0
 10
166.5194147366299
 20
-14.68158165599225
 30
0.0
 10
166.5228399199311
 20
-14.68110537360229
 30
0.0
 10
166.5262595785102
 20
-14.68062728625544
 30
0.0
 10
166.5296735797051
 20
-14.68014743811567
 30
0.0
 10
166.5330820516209
 20
-14.67966583659891
 30
0.0
 10
166.5364848431623
 20
-14.67918252808356
 30
0.0
 10
166.5398812830042
 20
-14.67869763376819
 30
0.0
 10
166.5432706898298
 20
-14.67821127842124
 30
0.0
 10
166.5466530101673
 20
-14.67772349788133
 30
0.0
 10
166.5500284164426
 20
-14.67723429485601
 30
0.0
 10
166.5533969059312
 20
-14.67674369690427
 30
0.0
 10
166.5567585393941
 20
-14.67625172237511
 30
0.0
 10
166.5601143858731
 20
-14.67575824084569
 30
0.0
 10
166.5634664518137
 20
-14.67526297976003
 30
0.0
 10
166.5668169299399
 20
-14.67476563284428
 30
0.0
 10
166.5701674674355
 20
-14.67426596923474
 30
0.0
 10
166.5735194188486
 20
-14.67376379766881
 30
0.0
 10
166.5768741285762
 20
-14.67325892476616
 30
0.0
 10
166.580232997555
 20
-14.67275114487975
 30
0.0
 10
166.5835970866916
 20
-14.67224030035096
 30
0.0
 10
166.5869680223928
 20
-14.6717261446246
 30
0.0
 10
166.5903474333786
 20
-14.67120842638323
 30
0.0
 10
166.5937369417647
 20
-14.67068689075663
 30
0.0
 10
166.5971377408366
 20
-14.67016134547175
 30
0.0
 10
166.6005512425474
 20
-14.66963156131147
 30
0.0
 10
166.603979398423
 20
-14.66909722111256
 30
0.0
 10
166.6074238647693
 20
-14.66855804890419
 30
0.0
 10
166.6108858283358
 20
-14.66801383841921
 30
0.0
 10
166.6143662979025
 20
-14.66746440890718
 30
0.0
 10
166.6178666060796
 20
-14.66690952583161
 30
0.0
 10
166.6202068203528
 20
-14.66653699347124
 30
0.0
 10
166.6213805377185
 20
-14.66634976459993
 30
0.0
 11
166.4475427602185
 21
-14.6909574427999
 31
0.0
 11
166.4513990659184
 21
-14.69048530429994
 31
0.0
 11
166.4552173275185
 21
-14.69001426359993
 31
0.0
 11
166.4589988418186
 21
-14.68954428289999
 31
0.0
 11
166.4627453662185
 21
-14.68907525979995
 31
0.0
 11
166.4664591563185
 21
-14.68860702039994
 31
0.0
 11
166.4701418808185
 21
-14.68813945609992
 31
0.0
 11
166.4737954730183
 21
-14.68767241669995
 31
0.0
 11
166.4774220075185
 21
-14.68720572559994
 31
0.0
 11
166.4810226661184
 21
-14.68673931399989
 31
0.0
 11
166.4845990609185
 21
-14.68627305169995
 31
0.0
 11
166.4881532044185
 21
-14.68580674899992
 31
0.0
 11
166.4916866692185
 21
-14.68534026729992
 31
0.0
 11
166.4952014565183
 21
-14.68487340459988
 31
0.0
 11
166.4986991099183
 21
-14.68440601320002
 31
0.0
 11
166.5021815022185
 21
-14.68393789549991
 31
0.0
 11
166.5056497196185
 21
-14.68346895379994
 31
0.0
 11
166.5091050106184
 21
-14.68299906469995
 31
0.0
 11
166.5125498435184
 21
-14.68252793290003
 31
0.0
 11
166.5159862911184
 21
-14.68205530989989
 31
0.0
 11
166.5194167139184
 21
-14.68158090049995
 31
0.0
 11
166.5228420935184
 21
-14.68110459459994
 31
0.0
 11
166.5262618776185
 21
-14.68062649369993
 31
0.0
 11
166.5296757175185
 21
-14.68014667239993
 31
0.0
 11
166.5330841158186
 21
-14.67966508549995
 31
0.0
 11
166.5364873027185
 21
-14.67918172499992
 31
0.0
 11
166.5398840923183
 21
-14.67869678459992
 31
0.0
 11
166.5432734266185
 21
-14.67821044349995
 31
0.0
 11
166.5466555055184
 21
-14.67772270149993
 31
0.0
 11
166.5500310267184
 21
-14.67723348539992
 31
0.0
 11
166.5533996103186
 21
-14.67674287729993
 31
0.0
 11
166.5567609309182
 21
-14.67625095199993
 31
0.0
 11
166.5601158764184
 21
-14.67575760639994
 31
0.0
 11
166.5634670915183
 21
-14.67526247429997
 31
0.0
 11
166.5668170633184
 21
-14.67476520579991
 31
0.0
 11
166.5701672390184
 21
-14.6742655993999
 31
0.0
 11
166.5735186268184
 21
-14.67376351539995
 31
0.0
 11
166.5768728357184
 21
-14.67325872089996
 31
0.0
 11
166.5802312825183
 21
-14.67275100789992
 31
0.0
 11
166.5835951452186
 21
-14.67224020059996
 31
0.0
 11
166.5869650129182
 21
-14.67172621069993
 31
0.0
 11
166.5903439985184
 21
-14.67120856040002
 31
0.0
 11
166.5937332873184
 21
-14.67068706140003
 31
0.0
 11
166.5971334491185
 21
-14.67016161739997
 31
0.0
 11
166.6005463100185
 21
-14.66963193559995
 31
0.0
 11
166.6039737113183
 21
-14.66909771609994
 31
0.0
 11
166.6074178418187
 21
-14.66855859989994
 31
0.0
 11
166.6108796423184
 21
-14.66801441909995
 31
0.0
 11
166.6143595457185
 21
-14.66746508359995
 31
0.0
 11
166.6178592067185
 21
-14.66691030879997
 31
0.0
 11
166.6213805377185
 21
-14.66634976459993
 31
0.0
  0
SPLINE
  5
592DB
330
1F
100
AcDbEntity
  8
1
100
AcDbSpline
210
0.0
220
0.0
230
1.0
 70
     8
 71
     3
 72
    22
 73
    18
 74
    16
 42
0.0000000001
 43
0.0000000001
 44
0.000001
 12
-0.9994697870301607
 22
0.0325598650778102
 32
0.0
 13
-0.999449354199455
 23
0.0331811451021839
 33
0.0
 40
0.0
 40
0.0
 40
0.0
 40
0.0
 40
0.1496746163749449
 40
0.2994911257937015
 40
0.4494455195654062
 40
0.5995337340200929
 40
0.7497515829495815
 40
0.900094797574899
 40
1.050559032977312
 40
1.201139817686575
 40
1.351832583326637
 40
1.502632662165122
 40
1.653535338527558
 40
1.804535777460838
 40
1.955629019690763
 40
2.106810045804536
 40
2.258073696211512
 40
2.258073696211512
 40
2.258073696211512
 40
2.258073696211512
 10
158.4925489330185
 20
-14.63882501879963
 30
0.0
 10
158.4426838473678
 20
-14.63720055702805
 30
0.0
 10
158.3429067404072
 20
-14.63393974510687
 30
0.0
 10
158.1931723606526
 20
-14.62902020929819
 30
0.0
 10
158.0433010005923
 20
-14.62407151392415
 30
0.0
 10
157.8932966301764
 20
-14.61909735751236
 30
0.0
 10
157.7431633192506
 20
-14.61410099079104
 30
0.0
 10
157.5929052250648
 20
-14.60908582509535
 30
0.0
 10
157.4425265994976
 20
-14.60405525749546
 30
0.0
 10
157.2920317910592
 20
-14.59901276169361
 30
0.0
 10
157.141425231493
 20
-14.59396252339621
 30
0.0
 10
156.9907114885331
 20
-14.58890709261924
 30
0.0
 10
156.8398951778411
 20
-14.58385023948325
 30
0.0
 10
156.6889810361246
 20
-14.57879502739713
 30
0.0
 10
156.537973874457
 20
-14.57374533287644
 30
0.0
 10
156.3868786145451
 20
-14.56870498324635
 30
0.0
 10
156.2861194426895
 20
-14.56535359241051
 30
0.0
 10
156.2357259901184
 20
-14.56368055869957
 30
0.0
 11
158.4925489330185
 21
-14.63882501879963
 31
0.0
 11
158.3429541185185
 21
-14.63393789379967
 31
0.0
 11
158.1932183882184
 21
-14.62901861779966
 31
0.0
 11
158.0433456501184
 21
-14.62407048179965
 31
0.0
 11
157.8933398633185
 21
-14.6190968061997
 31
0.0
 11
157.7432051073185
 21
-14.61410094369965
 31
0.0
 11
157.5929455417188
 21
-14.60908627659967
 31
0.0
 11
157.4425653992184
 21
-14.60405621649964
 31
0.0
 11
157.2920690402186
 21
-14.59901420579966
 31
0.0
 11
157.1414609409182
 21
-14.59396371619964
 31
0.0
 11
156.9907456368182
 21
-14.58890824669963
 31
0.0
 11
156.8399277264184
 21
-14.5838513232996
 31
0.0
 11
156.6890119284185
 21
-14.57879649929963
 31
0.0
 11
156.5380030804183
 21
-14.57374735569958
 31
0.0
 11
156.3869060864183
 21
-14.5687074981996
 31
0.0
 11
156.2357259901184
 21
-14.56368055869957
 31
0.0
  0
SPLINE
  5
592DC
330
1F
100
AcDbEntity
  8
1
100
AcDbSpline
210
0.0
220
0.0
230
1.0
 70
     8
 71
     3
 72
    22
 73
    18
 74
    16
 42
0.0000000001
 43
0.0000000001
 44
0.000001
 12
-0.999641037256743
 22
0.0267917269369339
 32
0.0
 13
-0.9995746229738797
 23
0.0291645865156063
 33
0.0
 40
0.0
 40
0.0
 40
0.0
 40
0.0
 40
1.30036991103644
 40
1.45019310241505
 40
1.600154686636997
 40
1.75025135208794
 40
1.900479816618652
 40
2.050835865782866
 40
2.201314834668207
 40
2.35191206907571
 40
2.502623082892205
 40
2.653443354801762
 40
2.804368192554968
 40
2.955392720171037
 40
3.106511961884083
 40
3.257720912329701
 40
3.409014459012538
 40
3.409014459012538
 40
3.409014459012538
 40
3.409014459012538
 10
161.9004582532184
 20
-14.72433086399978
 30
0.0
 10
161.4671572109897
 20
-14.71271781214194
 30
0.0
 10
160.9836992988773
 20
-14.7098242452398
 30
0.0
 10
160.4505235890103
 20
-14.69480691920554
 30
0.0
 10
160.3006191160316
 20
-14.69071455301885
 30
0.0
 10
160.1505817352688
 20
-14.68653371494407
 30
0.0
 10
160.0004136229445
 20
-14.68232610574809
 30
0.0
 10
159.8501191109237
 20
-14.67807934313261
 30
0.0
 10
159.6997025261537
 20
-14.67380100916917
 30
0.0
 10
159.5491684049002
 20
-14.66949343098398
 30
0.0
 10
159.3985212003038
 20
-14.66516038610386
 30
0.0
 10
159.2477653854687
 20
-14.66080527094236
 30
0.0
 10
159.0969055582316
 20
-14.65643164118506
 30
0.0
 10
158.945946470063
 20
-14.65204293947896
 30
0.0
 10
158.7948929619344
 20
-14.64764309317668
 30
0.0
 10
158.6437500008835
 20
-14.64323439097687
 30
0.0
 10
158.5429586629798
 20
-14.6402958233768
 30
0.0
 10
158.4925489330185
 20
-14.63882501879963
 30
0.0
 11
161.9004582532184
 21
-14.72433086399978
 31
0.0
 11
160.6003367775185
 21
-14.69891307319976
 31
0.0
 11
160.4505692115183
 21
-14.69483081059978
 31
0.0
 11
160.3006644577183
 21
-14.69070266959976
 31
0.0
 11
160.1506257451185
 21
-14.68653209199975
 31
0.0
 11
160.0004562747183
 21
-14.68232237339974
 31
0.0
 11
159.8501601775185
 21
-14.67807682259972
 31
0.0
 11
159.6997420310185
 21
-14.6737988213997
 31
0.0
 11
159.5492063982183
 21
-14.66949181759975
 31
0.0
 11
159.3985576716184
 21
-14.66515928119967
 31
0.0
 11
159.2478002770183
 21
-14.66080469699972
 31
0.0
 11
159.0969388092185
 21
-14.65643157519973
 31
0.0
 11
158.9459780448185
 21
-14.6520434591997
 31
0.0
 11
158.7949228585185
 21
-14.64764392359971
 31
0.0
 11
158.6437781533184
 21
-14.6432365682997
 31
0.0
 11
158.4925489330185
 21
-14.63882501879963
 31
0.0
  0
SPLINE
  5
592DD
330
1F
100
AcDbEntity
  8
1
100
AcDbSpline
210
0.0
220
0.0
230
1.0
 70
     8
 71
     3
 72
    27
 73
    23
 74
    21
 42
0.0000000001
 43
0.0000000001
 44
0.000001
 12
-0.0012068872270195
 22
-0.9999992717113455
 32
0.0
 13
-0.0008370782836669
 23
-0.9999996496499122
 33
0.0
 40
0.0
 40
0.0
 40
0.0
 40
0.0
 40
0.012802825048302
 40
0.0255694319224813
 40
0.038266163089632
 40
0.0509360186926563
 40
0.0636369177091544
 40
0.0762909126566049
 40
0.0888427493760543
 40
0.1016022169125759
 40
0.1151538403644823
 40
0.130067139267016
 40
0.146768458366407
 40
0.1653265984379898
 40
0.1857071554781105
 40
0.2079923173059375
 40
0.2324548404674984
 40
0.2593841730324607
 40
0.2890672733900868
 40
0.3217907951135218
 40
0.3578414209052215
 40
0.397506115937687
 40
0.397506115937687
 40
0.397506115937687
 40
0.397506115937687
 10
168.2758404771186
 20
-12.14994280099999
 30
0.0
 10
168.2758353265966
 20
-12.15421040624137
 30
0.0
 10
168.2758208334303
 20
-12.16273354287544
 30
0.0
 10
168.2757741823686
 20
-12.17548884945732
 30
0.0
 10
168.2757220327569
 20
-12.18819980605332
 30
0.0
 10
168.275675113765
 20
-12.20088888250302
 30
0.0
 10
168.2756385541014
 20
-12.2135637472663
 30
0.0
 10
168.2756076448557
 20
-12.22619928648932
 30
0.0
 10
168.2755797199902
 20
-12.2388543554505
 30
0.0
 10
168.275550649168
 20
-12.25180863207865
 30
0.0
 10
168.2755180096393
 20
-12.26555005664045
 30
0.0
 10
168.2754817679533
 20
-12.28060542682469
 30
0.0
 10
168.2754423794128
 20
-12.29732963317639
 30
0.0
 10
168.275401898151
 20
-12.31587626116448
 30
0.0
 10
168.2753603664705
 20
-12.33628417193507
 30
0.0
 10
168.2753172817581
 20
-12.35866021116818
 30
0.0
 10
168.2752725000393
 20
-12.38321917624712
 30
0.0
 10
168.2752270186925
 20
-12.41024412345133
 30
0.0
 10
168.2751817815907
 20
-12.44002274076043
 30
0.0
 10
168.2751373445711
 20
-12.47284179352179
 30
0.0
 10
168.2750958671673
 20
-12.50898805070136
 30
0.0
 10
168.2750705185034
 20
-12.53422647852143
 30
0.0
 10
168.2750594510185
 20
-12.54744803890007
 30
0.0
 11
168.2758404771186
 21
-12.14994280099999
 31
0.0
 11
168.2758156313186
 21
-12.16274560229999
 31
0.0
 11
168.2757721470186
 21
-12.17551213450001
 31
0.0
 11
168.2757218542185
 21
-12.18820876580001
 31
0.0
 11
168.2756758670186
 21
-12.20087853789999
 31
0.0
 11
168.2756384383185
 21
-12.21357938179999
 31
0.0
 11
168.2756070689186
 21
-12.22623333789998
 31
0.0
 11
168.2755787949186
 21
-12.2387851428
 31
0.0
 11
168.2755499712186
 21
-12.25154457780002
 31
0.0
 11
168.2755180190186
 21
-12.26509616359998
 31
0.0
 11
168.2754823247185
 21
-12.28000941979995
 31
0.0
 11
168.2754432920185
 21
-12.29671069329997
 31
0.0
 11
168.2754026592185
 21
-12.31526878890003
 31
0.0
 11
168.2753610141185
 21
-12.33564930340002
 31
0.0
 11
168.2753180406186
 21
-12.35793442380003
 31
0.0
 11
168.2752735447186
 21
-12.38239690649999
 31
0.0
 11
168.2752282630185
 21
-12.409326201
 31
0.0
 11
168.2751830982186
 21
-12.439009267
 31
0.0
 11
168.2751389180187
 21
-12.47173275890003
 31
0.0
 11
168.2750970684185
 21
-12.50778336039997
 31
0.0
 11
168.2750594510185
 21
-12.54744803890007
 31
0.0
  0
SPLINE
  5
592DE
330
1F
100
AcDbEntity
  8
1
100
AcDbSpline
210
0.0
220
0.0
230
1.0
 70
     8
 71
     3
 72
    26
 73
    22
 74
    20
 42
0.0000000001
 43
0.0000000001
 44
0.000001
 12
0.047428030470533
 22
-0.9988746577652706
 32
0.0
 13
0.0054010698384173
 23
-0.9999854141159262
 33
0.0
 40
0.0
 40
0.0
 40
0.0
 40
0.0
 40
0.0712510218151909
 40
0.13374123636805
 40
0.1917845120612365
 40
0.2493622583131294
 40
0.308120173231478
 40
0.3673274029490541
 40
0.4256818205127473
 40
0.4823690350031667
 40
0.5421213185202781
 40
0.6110974070338063
 40
0.684688496536386
 40
0.7563149621365115
 40
0.8245639841558858
 40
0.8883500864064865
 40
0.9466145256250245
 40
0.9983386709932576
 40
1.04422623280755
 40
1.086827223070629
 40
1.129017547372568
 40
1.129017547372568
 40
1.129017547372568
 40
1.129017547372568
 10
168.2218339024186
 20
-11.02231826559999
 30
0.0
 10
168.2229603342965
 20
-11.04604187894368
 30
0.0
 10
168.2251081709587
 20
-11.09057053626772
 30
0.0
 10
168.2282630248292
 20
-11.15442082991227
 30
0.0
 10
168.2312817999529
 20
-11.21371447017307
 30
0.0
 10
168.2343326860416
 20
-11.27176069032803
 30
0.0
 10
168.2375151879298
 20
-11.33018841886506
 30
0.0
 10
168.2408428129212
 20
-11.38886738677148
 30
0.0
 10
168.2442665956948
 20
-11.44684937786921
 30
0.0
 10
168.2477749611237
 20
-11.5050082969968
 30
0.0
 10
168.2515210219327
 20
-11.56669986100803
 30
0.0
 10
168.2555657207618
 20
-11.63401829690473
 30
0.0
 10
168.2597006165992
 20
-11.70529643935407
 30
0.0
 10
168.2635684824336
 20
-11.77634697206362
 30
0.0
 10
168.2669357987456
 20
-11.84415091629863
 30
0.0
 10
168.2697248160477
 20
-11.9075231452047
 30
0.0
 10
168.2719132086151
 20
-11.96540706274412
 30
0.0
 10
168.2735533162024
 20
-12.01734023830643
 30
0.0
 10
168.2747214491662
 20
-12.06406354855299
 30
0.0
 10
168.2755014339409
 20
-12.10761662095754
 30
0.0
 10
168.2757645194892
 20
-12.13587956469374
 30
0.0
 10
168.2758404771186
 20
-12.14994280099999
 30
0.0
 11
168.2218339024186
 21
-11.02231826559999
 31
0.0
 11
168.2252626841184
 21
-11.09348671849999
 31
0.0
 11
168.2283513382185
 21
-11.15590055569998
 31
0.0
 11
168.2313046265185
 21
-11.2138686489
 31
0.0
 11
168.2343290985184
 21
-11.27136690339999
 31
0.0
 11
168.2375277939186
 21
-11.33003768550001
 31
0.0
 11
168.2408810505187
 21
-11.38914987849999
 31
0.0
 11
168.2443108642185
 21
-11.44740340999999
 31
0.0
 11
168.2477160879186
 21
-11.50398825040001
 31
0.0
 11
168.2513277895186
 21
-11.56363127399997
 31
0.0
 11
168.2554495273186
 21
-11.63248409520001
 31
0.0
 11
168.2596933437187
 21
-11.70595270879998
 31
0.0
 11
168.2635705294185
 21
-11.77747415169999
 31
0.0
 11
168.2669423383186
 21
-11.84563982420002
 31
0.0
 11
168.2697359812187
 21
-11.90936471470002
 31
0.0
 11
168.2719306399187
 21
-11.96758780169999
 31
0.0
 11
168.2735536847185
 21
-12.0192864717
 31
0.0
 11
168.2746916149185
 21
-12.06515991489998
 31
0.0
 11
168.2754415451186
 21
-12.1077542854
 31
0.0
 11
168.2758404771186
 21
-12.14994280099999
 31
0.0
  0
SPLINE
  5
592DF
330
1F
100
AcDbEntity
  8
1
100
AcDbSpline
210
0.0
220
0.0
230
1.0
 70
     8
 71
     3
 72
    17
 73
    13
 74
    11
 42
0.0000000001
 43
0.0000000001
 44
0.000001
 12
0.0494397151443355
 22
-0.9987771095527003
 32
0.0
 13
0.0536597442991858
 23
-0.9985592780810492
 33
0.0
 40
0.0
 40
0.0
 40
0.0
 40
0.0
 40
0.1112158670472369
 40
0.222145632788749
 40
0.3328873314186304
 40
0.4435271273167389
 40
0.5541287957636325
 40
0.6646577342116648
 40
0.7751066788727736
 40
0.8856017900237404
 40
0.9963074518808085
 40
1.107407050218779
 40
1.107407050218779
 40
1.107407050218779
 40
1.107407050218779
 10
168.1641191857186
 20
-9.916416809300017
 30
0.0
 10
168.1659520126474
 20
-9.953443430041957
 30
0.0
 10
168.1696423241218
 20
-10.02739997034071
 30
0.0
 10
168.175262961692
 20
-10.13821998409395
 30
0.0
 10
168.180973813795
 20
-10.24884310582645
 30
0.0
 10
168.1867572787689
 20
-10.35935293246366
 30
0.0
 10
168.1925877303184
 20
-10.46978926741509
 30
0.0
 10
168.1984390204678
 20
-10.58016079165503
 30
0.0
 10
168.2042874172773
 20
-10.69049690140851
 30
0.0
 10
168.2101063289913
 20
-10.80089355937028
 30
0.0
 10
168.2158998996811
 20
-10.91150873961325
 30
0.0
 10
168.2198467104058
 20
-10.98533842069616
 30
0.0
 10
168.2218339024186
 20
-11.02231826559999
 30
0.0
 11
168.1641191857186
 21
-9.916416809300017
 31
0.0
 11
168.1696632418186
 21
-10.02749441369997
 31
0.0
 11
168.1752838310187
 21
-10.13828169189996
 31
0.0
 11
168.1809896212187
 21
-10.24887629939995
 31
0.0
 11
168.1867673958186
 21
-10.35936512900001
 31
0.0
 11
168.1925940433186
 21
-10.46981321209999
 31
0.0
 11
168.1984412618187
 21
-10.58018737640002
 31
0.0
 11
168.2042821736186
 21
-10.69048176900007
 31
0.0
 11
168.2100975281187
 21
-10.80082374279999
 31
0.0
 11
168.2159138828185
 21
-10.91137650640002
 31
0.0
 11
168.2218339024186
 21
-11.02231826559999
 31
0.0
  0
SPLINE
  5
592E0
330
1F
100
AcDbEntity
  8
1
100
AcDbSpline
210
0.0
220
0.0
230
1.0
 70
     8
 71
     3
 72
    17
 73
    13
 74
    11
 42
0.0000000001
 43
0.0000000001
 44
0.000001
 12
0.0497034067628443
 22
-0.9987640218570987
 32
0.0
 13
0.0558862043195374
 23
-0.9984371448252288
 33
0.0
 40
0.0
 40
0.0
 40
0.0
 40
0.0
 40
0.1098064247759542
 40
0.218743480745869
 40
0.3276465117498883
 40
0.4370539147692737
 40
0.5472414005750382
 40
0.658298517878261
 40
0.7698356931093256
 40
0.8814999519242196
 40
0.9930466763151219
 40
1.104229103198613
 40
1.104229103198613
 40
1.104229103198613
 40
1.104229103198613
 10
168.1058374619188
 20
-8.813728499099966
 30
0.0
 10
168.1076567130507
 20
-8.85028540124496
 30
0.0
 10
168.1113028149133
 20
-8.923108681830555
 30
0.0
 10
168.1168372812942
 20
-9.032183874282722
 30
0.0
 10
168.1224331862986
 20
-9.141122749048292
 30
0.0
 10
168.12811737025
 20
-9.250474427814381
 30
0.0
 10
168.1339039850118
 20
-9.360539760659307
 30
0.0
 10
168.1397917983362
 20
-9.471310658658666
 30
0.0
 10
168.145767083716
 20
-9.582569842572866
 30
0.0
 10
168.1518135335209
 20
-9.693988625157459
 30
0.0
 10
168.1579230265589
 20
-9.805285544002245
 30
0.0
 10
168.1620479977767
 20
-9.879413921015924
 30
0.0
 10
168.1641191857186
 20
-9.916416809300017
 30
0.0
 11
168.1058374619188
 21
-8.813728499099966
 31
0.0
 11
168.1113306069185
 21
-8.92339743719998
 31
0.0
 11
168.1168502044186
 21
-9.032194569800026
 31
0.0
 11
168.1224366233185
 21
-9.140954222199979
 31
0.0
 11
168.1281156121188
 21
-9.250214136299973
 31
0.0
 11
168.1339003062187
 21
-9.360249672599991
 31
0.0
 11
168.1397944721186
 21
-9.471150267799998
 31
0.0
 11
168.1457762023185
 21
-9.582526927199978
 31
0.0
 11
168.1518282570187
 21
-9.694027058199992
 31
0.0
 11
168.1579446329185
 21
-9.805405967799956
 31
0.0
 11
168.1641191857186
 21
-9.916416809300017
 31
0.0
  0
SPLINE
  5
592E1
330
1F
100
AcDbEntity
  8
1
100
AcDbSpline
210
0.0
220
0.0
230
1.0
 70
     8
 71
     3
 72
    17
 73
    13
 74
    11
 42
0.0000000001
 43
0.0000000001
 44
0.000001
 12
0.0497871496459523
 22
-0.9987598508801461
 32
0.0
 13
0.0561593913656676
 23
-0.9984218160484264
 33
0.0
 40
0.0
 40
0.0
 40
0.0
 40
0.0
 40
0.0923941941802825
 40
0.1884209952034111
 40
0.2890132954962424
 40
0.3951574903207668
 40
0.5082433210660234
 40
0.6280817733001429
 40
0.7497019467951102
 40
0.8696191932441285
 40
0.9867311055903117
 40
1.100201406439053
 40
1.100201406439053
 40
1.100201406439053
 40
1.100201406439053
 10
168.0473837680188
 20
-7.715082757900006
 30
0.0
 10
168.0489171158761
 20
-7.745842628433905
 30
0.0
 10
168.0520627739717
 20
-7.808570808332007
 30
0.0
 10
168.0569553519737
 20
-7.904784264058562
 30
0.0
 10
168.0621453424083
 20
-8.005571830466521
 30
0.0
 10
168.0676967059892
 20
-8.112034643764573
 30
0.0
 10
168.0736539632862
 20
-8.22490036917614
 30
0.0
 10
168.079956736953
 20
-8.342913674640229
 30
0.0
 10
168.0864520504086
 20
-8.463197060033976
 30
0.0
 10
168.092973175639
 20
-8.582568857766958
 30
0.0
 10
168.0994198055673
 20
-8.699224027400219
 30
0.0
 10
168.1037133209075
 20
-8.77596475781965
 30
0.0
 10
168.1058374619188
 20
-8.813728499099966
 30
0.0
 11
168.0473837680188
 21
-7.715082757900006
 31
0.0
 11
168.0520137161186
 21
-7.807360878999972
 31
0.0
 11
168.0568890771185
 21
-7.903263834799986
 31
0.0
 11
168.0620617217187
 21
-8.003723052400005
 31
0.0
 11
168.0675881007187
 21
-8.10972328370002
 31
0.0
 11
168.0735477212188
 21
-8.222651968500031
 31
0.0
 11
168.0799377633186
 21
-8.342319933400005
 31
0.0
 11
168.0864964323188
 21
-8.463763131400014
 31
0.0
 11
168.0930379371186
 21
-8.58350182449999
 31
0.0
 11
168.0995013227186
 21
-8.700435244099992
 31
0.0
 11
168.1058374619188
 21
-8.813728499099966
 31
0.0
  0
ARC
  5
592E2
330
1F
100
AcDbEntity
  8
1
100
AcDbCircle
 10
301.7736185993188
 20
0.18220699999533
 30
0.0
 40
133.9382325
100
AcDbArc
 50
176.7759029999953
 51
177.0156969999996
  0
ARC
  5
592E3
330
1F
100
AcDbEntity
  8
1
100
AcDbCircle
 10
301.7736185993188
 20
-0.1822070000046807
 30
0.0
 40
133.9382325
100
AcDbArc
 50
182.9843029999902
 51
183.2240969999981
  0
ARC
  5
592E4
330
1F
100
AcDbEntity
  8
1
100
AcDbCircle
 10
171.084453599319
 20
2.038863499999877
 30
0.0
 40
4.1964015
100
AcDbArc
 50
214.433537999995
 51
214.9066400000032
  0
ARC
  5
592E5
330
1F
100
AcDbEntity
  8
1
100
AcDbCircle
 10
154.3849995993184
 20
-17.0649999999995
 30
0.0
 40
3.0
100
AcDbArc
 50
56.76283999999506
 51
90.0
  0
ARC
  5
592E6
330
1F
100
AcDbEntity
  8
1
100
AcDbCircle
 10
166.2502025993185
 20
-11.97034749999993
 30
0.0
 40
2.7277575
100
AcDbArc
 50
273.2982669999983
 51
274.1486999999994
  0
ARC
  5
592E7
330
1F
100
AcDbEntity
  8
1
100
AcDbCircle
 10
166.2186600993184
 20
-12.58464349999997
 30
0.0
 40
2.058708999999999
100
AcDbArc
 50
327.7622470000014
 51
336.1692730000028
  0
ARC
  5
592E8
330
1F
100
AcDbEntity
  8
1
100
AcDbCircle
 10
166.2278950993186
 20
-12.58966799999996
 30
0.0
 40
2.048230999999999
100
AcDbArc
 50
336.1934619999985
 51
344.5762729999963
  0
ARC
  5
592E9
330
1F
100
AcDbEntity
  8
1
100
AcDbCircle
 10
166.2361540993186
 20
-12.59366649999991
 30
0.0
 40
2.039206999999999
100
AcDbArc
 50
344.6228689999976
 51
353.2128599999996
  0
ARC
  5
592EA
330
1F
100
AcDbEntity
  8
1
100
AcDbCircle
 10
166.2417055993185
 20
-12.59694499999993
 30
0.0
 40
2.033308499999999
100
AcDbArc
 50
353.2860969999978
 51
356.0232269999918
  0
ARC
  5
592EB
330
1F
100
AcDbEntity
  8
1
100
AcDbCircle
 10
154.3849995993196
 20
17.06500000000045
 30
0.0
 40
3.0
100
AcDbArc
 50
270.0
 51
303.237159999997
  0
LINE
  5
592EC
330
1F
100
AcDbEntity
  8
1
100
AcDbLine
 10
145.7750000014761
 20
-14.06499999999923
 30
0.0
 11
154.3362105993185
 21
-14.06499999999953
 31
0.0
  0
LINE
  5
592ED
330
1F
100
AcDbEntity
  8
1
100
AcDbLine
 10
154.3362105993185
 20
-14.06499999999953
 30
0.0
 11
154.3849995993184
 21
-14.06499999999953
 31
0.0
  0
LINE
  5
592EE
330
1F
100
AcDbEntity
  8
1
100
AcDbLine
 10
147.4287490993186
 20
-14.0649999999993
 30
0.0
 11
147.4287490993186
 21
-13.62492130669996
 31
0.0
  0
LINE
  5
592EF
330
1F
100
AcDbEntity
  8
1
100
AcDbLine
 10
147.4287490993192
 20
12.3435362203026
 30
0.0
 11
147.4287490993194
 21
14.06500000000069
 31
0.0
  0
LINE
  5
592F0
330
1F
100
AcDbEntity
  8
1
100
AcDbLine
 10
145.775000001476
 20
-14.06500000110004
 30
0.0
 11
145.775000001476
 21
-13.62492130780076
 31
0.0
  0
LINE
  5
592F1
330
1F
100
AcDbEntity
  8
1
100
AcDbLine
 10
145.775000001476
 20
12.83368785878379
 30
0.0
 11
145.775000001476
 21
14.06500000000074
 31
0.0
  0
LINE
  5
592F2
330
1F
100
AcDbEntity
  8
1
100
AcDbLine
 10
154.3849995993196
 20
14.06500000000045
 30
0.0
 11
145.775000001476
 21
14.06500000000074
 31
0.0
  0
LINE
  5
592F3
330
1F
100
AcDbEntity
  8
1
100
AcDbLine
 10
167.6233220983874
 20
0.3252948861678533
 30
0.0
 11
167.643045599319
 21
0.3624889999999823
 31
0.0
  0
LINE
  5
592F4
330
1F
100
AcDbEntity
  8
1
100
AcDbLine
 10
167.9949035993193
 20
6.744979
 30
0.0
 11
168.0170280993191
 21
7.155348500000002
 31
0.0
  0
LINE
  5
592F5
330
1F
100
AcDbEntity
  8
1
100
AcDbLine
 10
168.2750595993195
 20
12.54744799999996
 30
0.0
 11
168.2749655036248
 21
12.6985462444461
 31
0.0
  0
LINE
  5
592F6
330
1F
100
AcDbEntity
  8
1
100
AcDbLine
 10
156.2357260993194
 20
14.56368050000036
 30
0.0
 11
156.0293170993193
 21
14.55577300000038
 31
0.0
  0
LINE
  5
592F7
330
1F
100
AcDbEntity
  8
1
100
AcDbLine
 10
167.623122599319
 20
0.0867954999999938
 30
0.0
 11
167.623122599319
 21
-0.0867954999999938
 31
0.0
  0
LINE
  5
592F8
330
1F
100
AcDbEntity
  8
1
100
AcDbLine
 10
167.623122599319
 20
-0.0867954999999938
 30
0.0
 11
167.6233345993189
 21
-0.3339910000000259
 31
0.0
  0
LINE
  5
592F9
330
1F
100
AcDbEntity
  8
1
100
AcDbLine
 10
167.6233220993188
 20
0.3252959999999803
 30
0.0
 11
167.623122599319
 21
0.0867954999999938
 31
0.0
  0
LINE
  5
592FA
330
1F
100
AcDbEntity
  8
1
100
AcDbLine
 10
166.3571985993183
 20
-14.69586199999992
 30
0.0
 11
166.4071410993185
 21
-14.69358649999991
 31
0.0
  0
LINE
  5
592FB
330
1F
100
AcDbEntity
  8
1
100
AcDbLine
 10
166.1300045993186
 20
-14.70159749999992
 30
0.0
 11
166.3571985993183
 21
-14.69586199999992
 31
0.0
  0
LINE
  5
592FC
330
1F
100
AcDbEntity
  8
1
100
AcDbLine
 10
166.1300045993196
 20
14.70159750000003
 30
0.0
 11
166.325439700034
 21
14.69666375166099
 31
0.0
  0
ARC
  5
592FD
102
{ACAD_REACTORS
330
59304
102
}
330
1F
100
AcDbEntity
  8
1
100
AcDbCircle
 10
166.274965891436
 20
12.69730075444272
 30
0.0
 40
2.0
100
AcDbArc
 50
0.0356806626160585
 51
88.55387836185082
  0
LINE
  5
592FE
330
1F
100
AcDbEntity
  8
1
100
AcDbLine
 10
167.9949035993188
 20
-6.744979
 30
0.0
 11
168.0170280993186
 21
-7.155348500000002
 31
0.0
  0
LINE
  5
592FF
330
1F
100
AcDbEntity
  8
1
100
AcDbLine
 10
156.2357260993183
 20
-14.56368049999956
 30
0.0
 11
156.0293170993184
 21
-14.55577299999959
 31
0.0
  0
LINE
  5
59300
330
1F
100
AcDbEntity
  8
1
100
AcDbLine
 10
168.2750595993186
 20
-12.54744799999996
 30
0.0
 11
168.2749990993186
 21
-12.64459849999996
 31
0.0
  0
LINE
  5
59301
330
1F
100
AcDbEntity
  8
1
100
AcDbLine
 10
168.2749990993186
 20
-12.64459849999996
 30
0.0
 11
168.2701185993185
 21
-12.73795899999999
 31
0.0
  0
DIMENSION
  5
59302
102
{ACAD_XDICTIONARY
360
59303
102
}
102
{ACAD_REACTORS
330
59304
102
}
330
1F
100
AcDbEntity
  8
2
100
AcDbDimension
  2
*D64
 10
166.274965891436
 20
12.69730075444272
 30
0.0
 11
181.6665303640471
 21
34.95736916995422
 31
0.0
 70
    36
 71
     5
 42
2.000000000000341
  3
\M+18352\M+18373\M+1815B - ISO-25
100
AcDbRadialDimension
 15
167.645797177149
 25
14.15360483879871
 35
0.0
 40
0.0
1001
ACAD
1000
DSTYLE
1002
{
1070
     4
1000
"
1070
    40
1040
1.0
1070
   143
1040
0.03937
1070
   170
1070
     1
1070
   171
1070
     3
1070
   271
1070
     8
1070
   285
1070
     4
1002
}
  0
LINE
  5
59305
330
1F
100
AcDbEntity
  8
cut
100
AcDbLine
 10
156.2750000014762
 20
14.6331455439
 30
0.0
 11
163.2750000014762
 21
14.99999999889995
 31
0.0
1001
ACAD
1000
RTMaterial
1005
0
  0
LINE
  5
59306
330
1F
100
AcDbEntity
  8
cut
100
AcDbLine
 10
145.775000001476
 20
14.06499999889995
 30
0.0
 11
154.5182746643761
 21
14.06499999889995
 31
0.0
1001
ACAD
1000
RTMaterial
1005
0
  0
LINE
  5
59307
330
1F
100
AcDbEntity
  8
cut
100
AcDbLine
 10
163.2750000014762
 20
14.99999999889995
 30
0.0
 11
166.2750000014762
 21
14.99999999889995
 31
0.0
1001
ACAD
1000
RTMaterial
1005
0
  0
LINE
  5
59308
330
1F
100
AcDbEntity
  8
cut
100
AcDbLine
 10
168.2750000014762
 20
12.49999999889972
 30
0.0
 11
168.2750000014762
 21
12.99999999889995
 31
0.0
1001
ACAD
1000
RTMaterial
1005
0
  0
LINE
  5
59309
330
1F
100
AcDbEntity
  8
cut
100
AcDbLine
 10
145.7750000014762
 20
-14.06500000110003
 30
0.0
 11
145.775000001476
 21
14.06499999889995
 31
0.0
1001
ACAD
1000
RTMaterial
1005
0
  0
LINE
  5
5930A
330
1F
100
AcDbEntity
  8
cut
100
AcDbLine
 10
167.6199027603761
 20
-0.0000000011000481
 30
0.0
 11
168.2750000014762
 21
12.49999999889995
 31
0.0
1001
ACAD
1000
RTMaterial
1005
0
  0
ARC
  5
5930B
330
1F
100
AcDbEntity
  8
cut
100
AcDbCircle
 10
154.5182746643761
 20
17.06499999889995
 30
0.0
 40
3.0
100
AcDbArc
 50
270.0
 51
305.8436294584034
1001
ACAD
1000
RTMaterial
1005
0
  0
ARC
  5
5930C
330
1F
100
AcDbEntity
  8
cut
100
AcDbCircle
 10
166.2750000014762
 20
12.99999999889995
 30
0.0
 40
2.0
100
AcDbArc
 50
0.0
 51
90.0
1001
ACAD
1000
RTMaterial
1005
0
  0
LINE
  5
5930D
330
1F
100
AcDbEntity
  8
cut
100
AcDbLine
 10
156.2750000014762
 20
-14.63314554610009
 30
0.0
 11
163.2750000014762
 21
-15.00000000110005
 31
0.0
1001
ACAD
1000
RTMaterial
1005
0
  0
LINE
  5
5930E
330
1F
100
AcDbEntity
  8
cut
100
AcDbLine
 10
145.775000001476
 20
-14.06500000110004
 30
0.0
 11
154.5182746643761
 21
-14.06500000110004
 31
0.0
1001
ACAD
1000
RTMaterial
1005
0
  0
LINE
  5
5930F
330
1F
100
AcDbEntity
  8
cut
100
AcDbLine
 10
163.2750000014762
 20
-15.00000000110005
 30
0.0
 11
166.2750000014762
 21
-15.00000000110005
 31
0.0
1001
ACAD
1000
RTMaterial
1005
0
  0
LINE
  5
59310
330
1F
100
AcDbEntity
  8
cut
100
AcDbLine
 10
168.2750000014762
 20
-12.50000000109982
 30
0.0
 11
168.2750000014762
 21
-13.00000000110005
 31
0.0
1001
ACAD
1000
RTMaterial
1005
0
  0
LINE
  5
59311
330
1F
100
AcDbEntity
  8
cut
100
AcDbLine
 10
167.6199027603761
 20
-0.0000000011000481
 30
0.0
 11
168.2750000014762
 21
-12.50000000110005
 31
0.0
1001
ACAD
1000
RTMaterial
1005
0
  0
ARC
  5
59312
330
1F
100
AcDbEntity
  8
cut
100
AcDbCircle
 10
154.5182746643761
 20
-17.06500000110004
 30
0.0
 40
3.0
100
AcDbArc
 50
54.15637054159657
 51
90.0
1001
ACAD
1000
RTMaterial
1005
0
  0
ARC
  5
59313
330
1F
100
AcDbEntity
  8
cut
100
AcDbCircle
 10
166.2750000014762
 20
-13.00000000110005
 30
0.0
 40
2.0
100
AcDbArc
 50
270.0
 51
0.0
1001
ACAD
1000
RTMaterial
1005
0
  0
ARC
  5
593CD
330
1F
100
AcDbEntity
  8
nocut
100
AcDbCircle
 10
2.367649000000028
 20
17.74998400000001
 30
0.0
 40
3.0
100
AcDbArc
 50
225.0000459999994
 51
270.0000089999996
  0
LINE
  5
593CE
330
1F
100
AcDbEntity
  8
nocut
100
AcDbLine
 10
0.0
 20
15.87500000000003
 30
0.0
 11
0.2463310000000547
 21
15.62867600000001
 31
0.0
  0
VIEWPORT
  5
6B
102
{ACAD_XDICTIONARY
360
59AE9
102
}
330
50
100
AcDbEntity
 67
     1
  8
0
100
AcDbViewport
 10
150.1652135264906
 20
160.4455827878762
 30
0.0
 40
339.1973820494346
 41
282.2272140146125
 68
     1
 69
     1
 12
150.1652135264906
 22
160.4455827878762
 13
0.0
 23
0.0
 14
10.0
 24
10.0
 15
10.0
 25
10.0
 16
0.0
 26
0.0
 36
1.0
 17
0.0
 27
0.0
 37
0.0
 42
50.0
 43
0.0
 44
0.0
 45
282.2272140146125
 50
0.0
 51
0.0
 72
  1000
 90
    32864
  1

281
     0
 71
     1
 74
     0
110
0.0
120
0.0
130
0.0
111
1.0
121
0.0
131
0.0
112
0.0
122
1.0
132
0.0
 79
     0
146
0.0
  0
VIEWPORT
  5
6D
102
{ACAD_XDICTIONARY
360
59AEB
102
}
330
50
100
AcDbEntity
 67
     1
  8
0
100
AcDbViewport
 10
133.3499939441681
 20
101.5999939441681
 30
0.0
 40
213.3599903106689
 41
162.5599903106689
 68
     2
 69
     2
 12
210.0
 22
148.5
 13
0.0
 23
0.0
 14
10.0
 24
10.0
 15
10.0
 25
10.0
 16
0.0
 26
0.0
 36
1.0
 17
0.0
 27
0.0
 37
0.0
 42
50.0
 43
0.0
 44
0.0
 45
324.0677920111345
 50
0.0
 51
0.0
 72
   100
 90
    32864
  1

281
     0
 71
     1
 74
     0
110
0.0
120
0.0
130
0.0
111
1.0
121
0.0
131
0.0
112
0.0
122
1.0
132
0.0
 79
     0
146
0.0
  0
ENDSEC
  0
SECTION
  2
OBJECTS
  0
DICTIONARY
  5
C
330
0
100
AcDbDictionary
281
     1
  3
ACAD_COLOR
350
85
  3
ACAD_GROUP
350
D
  3
ACAD_LAYOUT
350
1A
  3
ACAD_MATERIAL
350
84
  3
ACAD_MLINESTYLE
350
17
  3
ACAD_PLOTSETTINGS
350
19
  3
ACAD_PLOTSTYLENAME
350
E
  3
ACAD_TABLESTYLE
350
A1
  3
ACDBHEADERROUNDTRIPXREC
350
59AE4
  3
AcDbVariableDictionary
350
5E
  3
ASE_INDEX_DICTIONARY
350
349E9
  3
DWGPROPS
350
59AE3
  0
DICTIONARY
  5
E2
330
2
100
AcDbDictionary
280
     1
281
     1
  3
ACAD_LAYERFILTERS
360
589C8
  3
ACAD_LAYERSTATES
360
3759A
  3
ACLYDICTIONARY
360
589C7
  0
DICTIONARY
  5
31EE
330
1F
100
AcDbDictionary
280
     1
281
     1
  3
ACAD_SORTENTS
360
31EF
  0
DICTIONARY
  5
3BEB2
330
680
100
AcDbDictionary
280
     1
281
     1
  3
ACAD_SORTENTS
360
55347
  0
DICTIONARY
  5
59AED
330
71
100
AcDbDictionary
280
     1
281
     1
  3
ACAD_XREC_ROUNDTRIP
360
59AEE
  0
DICTIONARY
  5
59AEF
330
73
100
AcDbDictionary
280
     1
281
     1
  3
ACAD_XREC_ROUNDTRIP
360
59AF0
  0
DICTIONARY
  5
59303
330
59302
100
AcDbDictionary
280
     1
281
     1
  3
ACAD_DIMASSOC
360
59304
  0
DICTIONARY
  5
59AE9
330
6B
100
AcDbDictionary
280
     1
281
     1
  3
ACAD_XREC_ROUNDTRIP
360
59AEA
  0
DICTIONARY
  5
59AEB
330
6D
100
AcDbDictionary
280
     1
281
     1
  3
ACAD_XREC_ROUNDTRIP
360
59AEC
  0
DICTIONARY
  5
85
102
{ACAD_REACTORS
330
C
102
}
330
C
100
AcDbDictionary
281
     1
  0
DICTIONARY
  5
D
102
{ACAD_REACTORS
330
C
102
}
330
C
100
AcDbDictionary
281
     1
  0
DICTIONARY
  5
1A
102
{ACAD_REACTORS
330
C
102
}
330
C
100
AcDbDictionary
281
     1
  3
\M+1838C\M+18343\M+18341\M+18345\M+183671
350
51
  3
\M+1838C\M+18343\M+18341\M+18345\M+183672
350
56
  3
Model
350
22
  0
DICTIONARY
  5
84
102
{ACAD_REACTORS
330
C
102
}
330
C
100
AcDbDictionary
281
     1
  0
DICTIONARY
  5
17
102
{ACAD_REACTORS
330
C
102
}
330
C
100
AcDbDictionary
281
     1
  3
Standard
350
18
  0
DICTIONARY
  5
19
102
{ACAD_REACTORS
330
C
102
}
330
C
100
AcDbDictionary
281
     1
  0
ACDBDICTIONARYWDFLT
  5
E
102
{ACAD_REACTORS
330
C
102
}
330
C
100
AcDbDictionary
281
     1
  3
Normal
350
F
100
AcDbDictionaryWithDefault
340
F
  0
DICTIONARY
  5
A1
102
{ACAD_REACTORS
330
C
102
}
330
C
100
AcDbDictionary
281
     1
  3
Standard
350
A2
  0
DICTIONARY
  5
59AE4
102
{ACAD_REACTORS
330
C
102
}
330
C
100
AcDbDictionary
281
     1
  0
DICTIONARY
  5
5E
102
{ACAD_REACTORS
330
C
102
}
330
C
100
AcDbDictionary
281
     1
  3
CTABLESTYLE
350
B8
  3
DIMASSOC
350
5F
  3
HIDETEXT
350
63
  3
PROJECTNAME
350
31CE
  0
DICTIONARY
  5
349E9
102
{ACAD_REACTORS
330
C
102
}
330
C
100
AcDbDictionary
281
     1
  3
ASEBlockHierarchyIndexRecord
350
349EA
1001
DCO15
1040
1842496176.844
  0
XRECORD
  5
59AE3
102
{ACAD_REACTORS
330
C
102
}
330
C
100
AcDbXrecord
280
     1
  1
DWGPROPS COOKIE
  2

  3

  4

  6

  7

  8

  9

300
=
301
=
302
=
303
=
304
=
305
=
306
=
307
=
308
=
309
=
 40
2.684890266203703
 41
2455489.391063368
 42
2458570.846266447
  1

 90
        0
  0
DICTIONARY
  5
589C8
102
{ACAD_REACTORS
330
E2
102
}
330
E2
100
AcDbDictionary
281
     1
  0
DICTIONARY
  5
3759A
102
{ACAD_REACTORS
330
E2
102
}
330
E2
100
AcDbDictionary
281
     1
  0
DICTIONARY
  5
589C7
102
{ACAD_REACTORS
330
E2
102
}
330
E2
100
AcDbDictionary
281
     1
1001
ACAD
1000
<All
  0
SORTENTSTABLE
  5
31EF
102
{ACAD_REACTORS
330
31EE
102
}
330
31EE
100
AcDbSortentsTable
330
1F
331
68C
  5
3C6B0
  0
SORTENTSTABLE
  5
55347
102
{ACAD_REACTORS
330
3BEB2
102
}
330
3BEB2
100
AcDbSortentsTable
330
680
  0
XRECORD
  5
59AEE
102
{ACAD_REACTORS
330
59AED
102
}
330
59AED
100
AcDbXrecord
280
     1
102
SHADEPLOT
 70
     0
  0
XRECORD
  5
59AF0
102
{ACAD_REACTORS
330
59AEF
102
}
330
59AEF
100
AcDbXrecord
280
     1
102
SHADEPLOT
 70
     0
  0
DIMASSOC
  5
59304
102
{ACAD_REACTORS
330
59303
102
}
330
59303
100
AcDbDimAssoc
330
59302
 90
        2
 70
     0
 71
     0
  1
AcDbOsnapPointRef
 72
     3
331
592FD
 73
     2
 91
        0
 40
0.0
 10
0.0
 20
0.0
 30
0.0
 75
     0
  0
XRECORD
  5
59AEA
102
{ACAD_REACTORS
330
59AE9
102
}
330
59AE9
100
AcDbXrecord
280
     1
102
SHADEPLOT
 70
     0
  0
XRECORD
  5
59AEC
102
{ACAD_REACTORS
330
59AEB
102
}
330
59AEB
100
AcDbXrecord
280
     1
102
SHADEPLOT
 70
     0
  0
LAYOUT
  5
51
102
{ACAD_XDICTIONARY
360
B2
102
}
102
{ACAD_REACTORS
330
1A
102
}
330
1A
100
AcDbPlotSettings
  1

  2
none_device
  4
Letter_(8.50_x_11.00_Inches)
  6

 40
6.349999904632567
 41
6.349999904632567
 42
6.350006103515625
 43
6.350006103515625
 44
215.8999938964844
 45
279.3999938964844
 46
0.0
 47
0.0
 48
0.0
 49
0.0
140
0.0
141
0.0
142
1.0
143
1.0
 70
   688
 72
     1
 73
     1
 74
     5
  7

 75
    16
147
1.0
148
0.0
149
0.0
100
AcDbLayout
  1
\M+1838C\M+18343\M+18341\M+18345\M+183671
 70
     1
 71
     1
 10
-6.350006103515625
 20
-6.349999904632567
 11
273.0499877929688
 21
209.5499939918518
 12
0.0
 22
0.0
 32
0.0
 14
26.66999878883364
 24
20.31999878883365
 34
0.0
 15
240.0299890995025
 25
182.8799890995025
 35
0.0
146
0.0
 13
0.0
 23
0.0
 33
0.0
 16
1.0
 26
0.0
 36
0.0
 17
0.0
 27
1.0
 37
0.0
 76
     0
330
50
331
6B
  0
LAYOUT
  5
56
102
{ACAD_XDICTIONARY
360
B5
102
}
102
{ACAD_REACTORS
330
1A
102
}
330
1A
100
AcDbPlotSettings
  1

  2
none_device
  4
Letter_(8.50_x_11.00_Inches)
  6

 40
6.349999904632567
 41
6.349999904632567
 42
6.350006103515625
 43
6.350006103515625
 44
215.8999938964844
 45
279.3999938964844
 46
0.0
 47
0.0
 48
0.0
 49
0.0
140
0.0
141
0.0
142
1.0
143
1.0
 70
   688
 72
     1
 73
     1
 74
     5
  7

 75
    16
147
1.0
148
0.0
149
0.0
100
AcDbLayout
  1
\M+1838C\M+18343\M+18341\M+18345\M+183672
 70
     1
 71
     2
 10
-6.350006103515625
 20
-6.349999904632567
 11
273.0499877929688
 21
209.5499939918518
 12
0.0
 22
0.0
 32
0.0
 14
26.66999878883363
 24
20.31999878883363
 34
0.0
 15
240.0299890995026
 25
182.8799890995025
 35
0.0
146
0.0
 13
0.0
 23
0.0
 33
0.0
 16
1.0
 26
0.0
 36
0.0
 17
0.0
 27
1.0
 37
0.0
 76
     0
330
55
331
71
  0
LAYOUT
  5
22
102
{ACAD_XDICTIONARY
360
59AE5
102
}
102
{ACAD_REACTORS
330
1A
102
}
330
1A
100
AcDbPlotSettings
  1

  2
none_device
  4
ANSI_A_(8.50_x_11.00_Inches)
  6

 40
6.349999904632567
 41
19.04999923706055
 42
6.350006103515625
 43
19.04998779296875
 44
215.8999938964844
 45
279.3999938964844
 46
0.0
 47
0.0
 48
0.0
 49
0.0
140
0.0
141
0.0
142
1.0
143
78.436453180766
 70
 11952
 72
     0
 73
     1
 74
     0
  7

 75
     0
147
0.0127491741332998
148
0.0
149
0.0
100
AcDbLayout
  1
Model
 70
     1
 71
     0
 10
0.0
 20
0.0
 11
12.0
 21
9.0
 12
0.0
 22
0.0
 32
0.0
 14
0.0
 24
0.0
 34
0.0
 15
0.0
 25
0.0
 35
0.0
146
0.0
 13
0.0
 23
0.0
 33
0.0
 16
1.0
 26
0.0
 36
0.0
 17
0.0
 27
1.0
 37
0.0
 76
     0
330
1F
  0
MLINESTYLE
  5
18
102
{ACAD_REACTORS
330
17
102
}
330
17
100
AcDbMlineStyle
  2
STANDARD
 70
     0
  3

 62
   256
 51
90.0
 52
90.0
 71
     2
 49
0.5
 62
   256
  6
BYLAYER
 49
-0.5
 62
   256
  6
BYLAYER
  0
ACDBPLACEHOLDER
  5
F
102
{ACAD_REACTORS
330
E
102
}
330
E
  0
TABLESTYLE
  5
A2
102
{ACAD_REACTORS
330
A1
102
}
330
A1
100
AcDbTableStyle
  3
Standard
 70
     0
 71
     0
 40
1.5
 41
1.5
280
     0
281
     0
  7
Standard
140
4.5
170
     2
 62
     0
 63
     7
283
     0
274
    -2
284
     1
 64
     0
275
    -2
285
     1
 65
     0
276
    -2
286
     1
 66
     0
277
    -2
287
     1
 67
     0
278
    -2
288
     1
 68
     0
279
    -2
289
     1
 69
     0
  7
Standard
140
6.0
170
     5
 62
     0
 63
     7
283
     0
274
    -2
284
     1
 64
     0
275
    -2
285
     1
 65
     0
276
    -2
286
     1
 66
     0
277
    -2
287
     1
 67
     0
278
    -2
288
     1
 68
     0
279
    -2
289
     1
 69
     0
  7
Standard
140
4.5
170
     5
 62
     0
 63
     7
283
     0
274
    -2
284
     1
 64
     0
275
    -2
285
     1
 65
     0
276
    -2
286
     1
 66
     0
277
    -2
287
     1
 67
     0
278
    -2
288
     1
 68
     0
279
    -2
289
     1
 69
     0
  0
DICTIONARYVAR
  5
B8
102
{ACAD_REACTORS
330
5E
102
}
330
5E
100
DictionaryVariables
280
     0
  1
STANDARD
  0
DICTIONARYVAR
  5
5F
102
{ACAD_REACTORS
330
5E
102
}
330
5E
100
DictionaryVariables
280
     0
  1
2
  0
DICTIONARYVAR
  5
63
102
{ACAD_REACTORS
330
5E
102
}
330
5E
100
DictionaryVariables
280
     0
  1
1
  0
DICTIONARYVAR
  5
31CE
102
{ACAD_REACTORS
330
5E
102
}
330
5E
100
DictionaryVariables
280
     0
  1

  0
XRECORD
  5
349EA
102
{ACAD_REACTORS
330
349E9
102
}
330
349E9
100
AcDbXrecord
280
     1
330
68C
330
0
330
0
330
0
330
0
330
0
330
0
330
0
330
0
330
0
330
0
330
0
330
0
330
0
330
0
330
0
330
0
330
0
330
0
330
0
330
0
330
0
330
0
330
0
330
0
330
0
330
0
330
0
330
0
330
0
330
0
330
0
330
0
330
0
330
0
330
0
330
0
330
0
330
0
330
0
330
0
330
0
330
0
330
0
330
0
330
0
330
0
330
0
330
0
330
0
330
0
330
0
330
0
330
0
330
0
330
0
330
0
330
0
330
0
330
0
330
0
330
0
330
0
330
0
330
0
330
0
330
0
330
0
330
0
330
0
330
0
330
0
330
0
330
0
330
0
330
0
330
0
330
0
330
0
330
0
330
0
330
0
330
0
330
0
330
0
330
0
330
0
330
0
330
0
330
0
330
0
330
0
330
0
330
0
330
0
330
0
330
0
330
0
330
0
330
0
330
0
330
0
330
0
330
0
330
0
330
0
330
0
330
0
330
0
330
0
  0
DICTIONARY
  5
B2
330
51
100
AcDbDictionary
280
     1
281
     1
  3
ACAD_XREC_ROUNDTRIP
360
59AE7
  3
ADSK_XREC_LAYOUTTHUMBNAIL
360
B3
  0
DICTIONARY
  5
B5
330
56
100
AcDbDictionary
280
     1
281
     1
  3
ACAD_XREC_ROUNDTRIP
360
59AE8
  3
ADSK_XREC_LAYOUTTHUMBNAIL
360
B6
  0
DICTIONARY
  5
59AE5
330
22
100
AcDbDictionary
280
     1
281
     1
  3
ACAD_XREC_ROUNDTRIP
360
59AE6
  0
XRECORD
  5
59AE7
102
{ACAD_REACTORS
330
B2
102
}
330
B2
100
AcDbXrecord
280
     1
102
SHADEPLOT
 70
     0
102
SHADEPLOTRESLEVEL
 70
     2
102
SHADEPLOTCUSTOMDPI
 70
   300
  0
XRECORD
  5
B3
102
{ACAD_REACTORS
330
B2
102
}
330
B2
100
AcDbXrecord
280
     1
310
28000000B40000008B0000000100080000000000BC61000000000000000000000001000000000000FFFFFF0000000000FFFFFF000000000000000000000000000000000000000000000000000000000000000000330000006600000099000000CC000000FF00000000330000333300006633000099330000CC330000FF3300
310
0000660000336600006666000099660000CC660000FF66000000990000339900006699000099990000CC990000FF99000000CC000033CC000066CC000099CC0000CCCC0000FFCC000000FF000033FF000066FF000099FF0000CCFF0000FFFF000000003300330033006600330099003300CC003300FF003300003333003333
310
33006633330099333300CC333300FF33330000663300336633006666330099663300CC663300FF66330000993300339933006699330099993300CC993300FF99330000CC330033CC330066CC330099CC3300CCCC3300FFCC330000FF330033FF330066FF330099FF3300CCFF3300FFFF330000006600330066006600660099
310
006600CC006600FF00660000336600333366006633660099336600CC336600FF33660000666600336666006666660099666600CC666600FF66660000996600339966006699660099996600CC996600FF99660000CC660033CC660066CC660099CC6600CCCC6600FFCC660000FF660033FF660066FF660099FF6600CCFF6600
310
FFFF660000009900330099006600990099009900CC009900FF00990000339900333399006633990099339900CC339900FF33990000669900336699006666990099669900CC669900FF66990000999900339999006699990099999900CC999900FF99990000CC990033CC990066CC990099CC9900CCCC9900FFCC990000FF99
310
0033FF990066FF990099FF9900CCFF9900FFFF99000000CC003300CC006600CC009900CC00CC00CC00FF00CC000033CC003333CC006633CC009933CC00CC33CC00FF33CC000066CC003366CC006666CC009966CC00CC66CC00FF66CC000099CC003399CC006699CC009999CC00CC99CC00FF99CC0000CCCC0033CCCC0066CC
310
CC0099CCCC00CCCCCC00FFCCCC0000FFCC0033FFCC0066FFCC0099FFCC00CCFFCC00FFFFCC000000FF003300FF006600FF009900FF00CC00FF00FF00FF000033FF003333FF006633FF009933FF00CC33FF00FF33FF000066FF003366FF006666FF009966FF00CC66FF00FF66FF000099FF003399FF006699FF009999FF00CC
310
99FF00FF99FF0000CCFF0033CCFF0066CCFF0099CCFF00CCCCFF00FFCCFF0000FFFF0033FFFF0066FFFF0099FFFF00CCFFFF00FFFFFF00000000000D0D0D001A1A1A00282828003535350043434300505050005D5D5D006B6B6B00787878008686860093939300A1A1A100AEAEAE00BBBBBB00C9C9C900D6D6D600E4E4E400
310
F1F1F100FFFFFF0000000000000000000000000000000000000000000000000000000000000000000000000000000000E2E2E2E2E2E2E2E2E2E2E2E2E2E2E2E2E2E2E2E2E2E2E2E2E2E2E2E2E2E2E2E2E2E2E2E2E2E2E2E2E2E2E2E2E2E2E2E2E2E2E2E2E2E2E2E2E2E2E2E2E2E2E2E2E2E2E2E2E2E2E2E2E2E2E2E2E2E2E2
310
E2E2E2E2E2E2E2E2E2E2E2E2E2E2E2E2E2E2E2E2E2E2E2E2E2E2E2E2E2E2E2E2E2E2E2E2E2E2E2E2E2E2E2E2E2E2E2E2E2E2E2E2E2E2E2E2E2E2E2E2E2E2E2E2E2E2E2E2E2E2E2E2E2E2E2E2E2E2E2E2E2E2E2E2E2E2E2E2E2E2E2E2E2E2E2E2E2E2E2E2E2E2F5F5F5F5F5F5F5F5F5F5F5F5F5F5F5F5F5F5F5F5F5F5F5F5F5
310
F5F5F5F5F5F5F5F5F5F5F5F5F5F5F5F5F5F5F5F5F5F5F5F5F5F5F5F5F5F5F5F5F5F5F5F5F5F5F5F5F5F5F5F5F5F5F5F5F5F5F5F5F5F5F5F5F5F5F5F5F5F5F5F5F5F5F5F5F5F5F5F5F5F5F5F5F5F5F5F5F5F5F5F5F5F5F5F5F5F5F5F5F5F5F5F5F5F5F5F5F5F5F5F5F5F5F5F5F5F5F5F5F5F5F5F5F5F5F5F5F5F5F5F5F5F5F5
310
F5F5F5F5F5F5F5F5F5F5F5F5F5F5F5F5F5F5F5F5F5F5F5F5F5F5E2E2F5F5F5F5F5F5F5F5F5F5F5F5F5F5F5F5F5F5F5F5F5F5F5F5F5F5F5F5F5F5F5F5F5F5F5F5F5F5F5F5F5F5F5F5F5F5F5F5F5F5F5F5F5F5F5F5F5F5F5F5F5F5F5F5F5F5F5F5F5F5F5F5F5F5F5F5F5F5F5F5F5F5F5F5F5F5F5F5F5F5F5F5F5F5F5F5F5F5F5
310
F5F5F5F5F5F5F5F5F5F5F5F5F5F5F5F5F5F5F5F5F5F5F5F5F5F5F5F5F5F5F5F5F5F5F5F5F5F5F5F5F5F5F5F5F5F5F5F5F5F5F5F5F5F5F5F5F5F5F5F5F5F5F5F5F5F5F5F5F5F5F5F5F5F5F5F5F5F5F5E2E2F5F5F5F5F5F5F5F5F5F5F5F5F5F5F5F5F5F5F5F5F5F5F5F5F5F5F5F5F5F5F5F5F5F5F5F5F5F5F5F5F5F5F5F5F5F5
310
F5F5F5F5F5F5F5F5F5F5F5F5F5F5F5F5F5F5F5F5F5F5F5F5F5F5F5F5F5F5F5F5F5F5F5F5F5F5F5F5F5F5F5F5F5F5F5F5F5F5F5F5F5F5F5F5F5F5F5F5F5F5F5F5F5F5F5F5F5F5F5F5F5F5F5F5F5F5F5F5F5F5F5F5F5F5F5F5F5F5F5F5F5F5F5F5F5F5F5F5F5F5F5F5F5F5F5F5F5F5F5F5F5F5F5F5F5F5F5F5F5F5F5F5F5F5F5
310
F5F5F5F5F5E2E2F5F5F5F5E2E2E2E2E2E2E2E2F5F5F5F5F5F5F5F5F5E2E2E2E2E2E2E2E2E2E2E2E2E2E2E2F5F5F5F5F5F5F5F5F5E2E2E2E2E2E2E2E2E2E2E2E2E2E2E2E2F5F5F5F5F5F5F5F5E2E2E2E2E2E2E2E2E2E2E2E2E2E2E2E2F5F5F5F5F5F5F5F5E2E2E2E2E2E2E2E2E2E2E2E2E2E2E2E2F5F5F5F5F5F5F5F5E2E2E2
310
E2E2E2E2E2E2E2E2E2E2E2E2E2F5F5F5F5F5F5F5F5F5E2E2E2E2E2E2E2E2E2E2E2E2E2E2E2F5F5F5F5F5F5F5F5F5E2E2E2E2E2E2E2E2F5F5F5F5E2E2F5F5F5F5E2F5F5F5F5F5F5F5F5F5F5F5F5F5F5F5F5F5F5F5F5F5F5F5F5F5F5F5F5F5F5F5F5F5F5F5F5F5F5F5F5F5F5F5F5F5F5F5F5F5F5F5F5F5F5F5F5F5F5F5F5F5F5
310
F5F5F5F5F5F5F5F5F5F5F5F5F5F5F5F5F5F5F5F5F5F5F5F5F5F5F5F5F5F5F5F5F5F5F5F5F5F5F5F5F5F5F5F5F5F5F5F5F5F5F5F5F5F5F5F5F5F5F5F5F5F5F5F5F5F5F5F5F5F5F5F5F5F5F5F5F5F5F5F5F5F5F5F5F5F5F5F5F5F5F5F5F5F5F5F5F5F5F5F5F5F5F5F5F5F5E2F5F5F5F5E2E2F5F5F5F5E2F5F5F5F5F5F5F5F5F5
310
F5F5F5F5F5F5F5F5F5F5F5F5F5F5F5F5F5F5F5F5F5F5F5F5F5F5F5F5F5F5F5F5F5F5F5F5F5F5F5F5F5F5F5F5F5F5F5F5F5F5F5F5F5F5F5F5F5F5F5F5F5F5F5F5F5F5F5F5F5F5F5F5F5F5F5F5F5F5F5F5F5F5F5F5F5F5F5F5F5F5F5F5F5F5F5F5F5F5F5F5F5F5F5F5F5F5F5F5F5F5F5F5F5F5F5F5F5F5F5F5F5F5F5F5F5F5F5
310
F5F5F5F5F5F5F5F5F5F5F5F5F5F5F5F5F5F5F5F5F5F5F5F5F5F5F5F5F5F5F5F5E2F5F5F5F5E2E2F5F5F5F5E2F5F5F5F5F5F5F5F5F5F5F5F5F5F5F5F5F5F5F5F5F5F5F5F5F5F5F5F5F5F5F5F5F5F5F5F5F5F5F5F5F5F5F5F5F5F5F5F5F5F5F5F5F5F5F5F5F5F5F5F5F5F5F5F5F5F5F5F5F5F5F5F5F5F5F5F5F5F5F5F5F5F5F5
310
F5F5F5F5F5F5F5F5F5F5F5F5F5F5F5F5F5F5F5F5F5F5F5F5F5F5F5F5F5F5F5F5F5F5F5F5F5F5F5F5F5F5F5F5F5F5F5F5F5F5F5F5F5F5F5F5F5F5F5F5F5F5F5F5F5F5F5F5F5F5F5F5F5F5F5F5F5F5F5F5F5F5F5F5F5E2F5F5F5F5E2E2F5F5F5F5E2F5F5F5F5F5F5F5F5F5F5F5F5F5F5F5F5F5F5F5F5F5F5F5F5F5F5F5F5F5F5
310
F5F5F5F5F5F5F5F5F5F5F5F5F5F5F5F5F5F5F5F5F5F5F5F5F5F5F5F5F5F5F5F5F5F5F5F5F5F5F5F5F5F5F5F5F5F5F5F5F5F5F5F5F5F5F5F5F5F5F5F5F5F5F5F5F5F5F5F5F5F5F5F5F5F5F5F5F5F5F5F5F5F5F5F5F5F5F5F5F5F5F5F5F5F5F5F5F5F5F5F5F5F5F5F5F5F5F5F5F5F5F5F5F5F5F5F5F5F5F5F5F5F5F5F5F5F5F5
310
F5F5F5F5F5F5F5F5F5F5F5E2F5F5F5F5E2E2F5F5F5F5E2F5F5F5F5F5F5F5F5F5F5F5F5F5F5F5F5F5F5F5F5F5F5F5F5F5F5F5F5F5F5F5F5F5F5F5F5F5F5F5F5F5F5F5F5F5F5F5F5F5F5F5F5F5F5F5F5F5F5F5F5F5F5F5F5F5F5F5F5F5F5F5F5F5F5F5F5F5F5F5F5F5F5F5F5F5F5F5F5F5F5F5F5F5F5F5F5F5F5F5F5F5F5F5F5
310
F5F5F5F5F5F5F5F5F5F5F5F5F5F5F5F5F5F5F5F5F5F5F5F5F5F5F5F5F5F5F5F5F5F5F5F5F5F5F5F5F5F5F5F5F5F5F5F5F5F5F5F5F5F5F5F5F5F5F5F5F5F5F5F5E2F5F5F5F5E2E2F5F5F5F5E2F5F5F5F5F5F5F5F5F5F5F5F5F5F5F5F5F5F5F5F5F5F5F5F5F5F5F5F5F5F5F5F5F5F5F5F5F5F5F5F5F5F5F5F5F5F5F5F5F5F5F5
310
F5F5F5F5F5F5F5F5F5F5F5F5F5F5F5F5F5F5F5F5F5F5F5F5F5F5F5F5F5F5F5F5F5F5F5F5F5F5F5F5F5F5F5F5F5F5F5F5F5F5F5F5F5F5F5F5F5F5F5F5F5F5F5F5F5F5F5F5F5F5F5F5F5F5F5F5F5F5F5F5F5F5F5F5F5F5F5F5F5F5F5F5F5F5F5F5F5F5F5F5F5F5F5F5F5F5F5F5F5F5F5F5F5F5F5F5F5E2F5F5F5F5E2E2F5F5F5
310
F5E2F5F5F5F5F5F5F5F5F5F5F5F5F5F5F5F5F5F5F5F5F5F5F5F5F5F5F5F5F5F5F5F5F5F5F5F5F5F5F5F5F5F5F5F5F5F5F5F5F5F5F5F5F5F5F5F5F5F5F5F5F5F5F5F5F5F5F5F5F5F5F5F5F5F5F5F5F5F5F5F5F5F5F5F5F5F5F5F5F5F5F5F5F5F5F5F5F5F5F5F5F5F5F5F5F5F5F5F5F5F5F5F5F5F5F5F5F5F5F5F5F5F5F5F5F5
310
F5F5F5F5F5F5F5F5F5F5F5F5F5F5F5F5F5F5F5F5F5F5F5F5F5F5F5F5F5F5F5F5F5F5F5F5F5F5F5F5F5F5F5E2F5F5F5F5E2E2F5F5F5F5E2F5F5F5F5F5F5F5F5F5F5F5F5F5F5F5F5F5F5F5F5F5F5F5F5F5F5F5F5F5F5F5F5F5F5F5F5F5F5F5F5F5F5F5F5F5F5F5F5F5F5F5F5F5F5F5F5F5F5F5F5F5F5F5F5F5F5F5F5F5F5F5F5
310
F5F5F5F5F5F5F5F5F5F5F5F5F5F5F5F5F5F5F5F5F5F5F5F5F5F5F5F5F5F5F5F5F5F5F5F5F5F5F5F5F5F5F5F5F5F5F5F5F5F5F5F5F5F5F5F5F5F5F5F5F5F5F5F5F5F5F5F5F5F5F5F5F5F5F5F5F5F5F5F5F5F5F5F5F5F5F5F5F5F5F5F5F5F5F5F5E2F5F5F5F5E2E2F5F5F5F5F5F5F5F5F5F5F5F5F5F5F5F5F5F5F5F5F5F5F5F5
310
F5F5F5F5F5F5F5F5F5F5F5F5F5F5F5F5F5F5F5F5F5F5F5F5F5F5F5F5F5F5F5F5F5F5F5F5F5F5F5F5F5F5F5F5F5F5F5F5F5F5F5F5F5F5F5F5F5F5F5F5F5F5F5F5F5F5F5F5F5F5F5F5F5F5F5F5F5F5F5F5F5F5F5F5F5F5F5F5F5F5F5F5F5F5F5F5F5F5F5F5F5F5F5F5F5F5F5F5F5F5F5F5F5F5F5F5F5F5F5F5F5F5F5F5F5F5F5
310
F5F5F5F5F5F5F5F5F5F5F5F5F5F5F5F5F5F5F5F5F5F5F5F5F5F5F5E2E2F5F5F5F5F5F5F5F5F5F5F5F5F5F5F5F5F5F5F5F5F5F5F5F5F5F5F5F5F5F5F5F5F5F5F5F5F5F5F5F5F5F5F5F5F5F5F5F5F5F5F5F5F5F5F5F5F5F5F5F5F5F5F5F5F5F5F5F5F5F5F5F5F5F5F5F5F5F5F5F5F5F5F5F5F5F5F5F5F5F5F5F5F5F5F5F5F5F5
310
F5F5F5F5F5F5F5F5F5F5F5F5F5F5F5F5F5F5F5F5F5F5F5F5F5F5F5F5F5F5F5F5F5F5F5F5F5F5F5F5F5F5F5F5F5F5F5F5F5F5F5F5F5F5F5F5F5F5F5F5F5F5F5F5F5F5F5F5F5F5F5F5F5F5F5F5F5F5F5F5E2E2F5F5F5F5F5F5F5F5F5F5F5F5F5F5F5F5F5F5F5F5F5F5F5F5F5F5F5F5F5F5F5F5F5F5F5F5F5F5F5F5F5F5F5F5F5
310
F5F5F5F5F5F5F5F5F5F5F5F5F5F5F5F5F5F5F5F5F5F5F5F5F5F5F5F5F5F5F5F5F5F5F5F5F5F5F5F5F5F5F5F5F5F5F5F5F5F5F5F5F5F5F5F5F5F5F5F5F5F5F5F5F5F5F5F5F5F5F5F5F5F5F5F5F5F5F5F5F5F5F5F5F5F5F5F5F5F5F5F5F5F5F5F5F5F5F5F5F5F5F5F5F5F5F5F5F5F5F5F5F5F5F5F5F5F5F5F5F5F5F5F5F5F5F5
310
F5F5F5F5F5F5E2E2F5F5F5F5F5F5F5F5F5F5F5F5F5F5F5F5F5F5F5F5F5F5F5F5F5F5F5F5F5F5F5F5F5F5F5F5F5F5F5F5F5F5F5F5F5F5F5F5F5F5F5F5F5F5F5F5F5F5F5F5F5F5F5F5F5F5F5F5F5F5F5F5F5F5F5F5F5F5F5F5F5F5F5F5F5F5F5F5F5F5F5F5F5F5F5F5F5F5F5F5F5F5F5F5F5F5F5F5F5F5F5F5F5F5F5F5F5F5F5
310
F5F5F5F5F5F5F5F5F5F5F5F5F5F5F5F5F5F5F5F5F5F5F5F5F5F5F5F5F5F5F5F5F5F5F5F5F5F5F5F5F5F5F5F5F5F5F5F5F5F5F5F5F5F5F5F5F5F5F5E2E2F5F5F5F5F5F5F5F5F5F5F5F5F5F5F5F5F5F5F5F5F5E2E2E2E2E2E2E2E2E2E2E2E2E2E2E2E2E2E2E2E2E2E2E2E2E2E2E2E2E2E2E2E2E2E2E2E2E2E2E2E2E2E2E2E2E2
310
E2E2E2E2E2E2E2E2E2E2E2E2E2E2E2E2E2E2E2E2E2E2E2E2E2E2E2E2E2E2E2E2E2E2E2E2E2E2E2E2E2E2E2E2E2E2E2E2E2E2E2E2E2E2E2E2E2E2E2E2E2E2E2E2E2E2E2E2E2E2E2E2E2E2E2E2E2E2E2E2E2E2E2E2E2E2E2E2E2E2E2F5F5F5F5F5F5F5F5F5F5F5F5F5F5F5F5F5F5F5F5F5E2E2F5F5F5F5F5F5F5F5F5F5F5F5F5
310
F5F5F5F5F5F5F5F5E22D2D2D2D2D2D2D2D2D2D2D2DF5F5F5F5F5F5F5F5F5F5F5F5F5F5F5E2F5F5F5F5F5F5F5F5F5F5F5F5F5F5F5F5F5F5F5F5F5F5F5F5F5F5F5F5F5F5F5F5F5F5F5F5F5F5F5F5F5F5F5F5F5F5F5F5F5F5F5F5F5F5F5F5F5F5F5F5F5F5F5F5F5F5F5F5F5F5F5F5F5F5F5F5F5F5F5F5F5F5F5F5F5F5F5F5F5F5
310
F5F5F5F5F5F5F5F5F5F5F5F5F5F5F5F5E2F5F5F5F5F5F5F5F5F5F5F5F5F5F5F5F5F5F5F5F5F5E2E2F5F5F5F5F5F5F5F5F5F5F5F5F5F5F5F5F5F5F5F5F5E22D2D2DF5F5E2F5F5F5F5F52DF5F5F5F5F5F5F5F5F5F5F5F5F5F5F5E2F5F5F5F5F5F5F5F5F5F5F5F5F5F5F5F5F5F5F5F5F5F5F5F5F5F5F5F5F5F5F5F5F5F5F5F5F5
310
F5F5F5F5F5F5F5F5F5F5F5F5F5F5F5F5F5F5F5F5F5F5F5F5F5F5F5F5F5F5F5F5F5F5F5F5F5F5F5F5F5F5F5F5F5F5F5F5F5F5F5F5F5F5F5F5F5F5F5F5F5F5F5F5F5F5F5F5F5E2F5F5F5F5F5F5F5F5F5F5F5F5F5F5F5F5F5F5F5F5F5E2E2F5F5F5F5F5F5F5F5F5F5F5F5F5F5F5F5F5F5F5F5F5E2DCF52DF5F5E2F5F5F5F5F52D
310
F5F5F5F5F5F5F5F5F5F5F5F5F5F5F5E2F5F5F5F5F5F5F5F5F5F5F5F5F5F5F5F5F5F5F5F5F5F5F5F5F5F5F5F5F5F5F5F5F5F5F5F5F5F5F5F5F5F5F5F5F5F5F5F5F5F5F5F5F5F5F5F5F5F5F5F5F5F5F5F5F5F5F5F5F5F5F5F5F5F5F5F5F5F5F5F5F5F5F5F5F5F5F5F5F5F5F5F5F5F5F5F5F5F5F5F5F5F5F5F5F5F5E2F5F5F5F5
310
F5F5F5F5F5F5F5F5F5F5F5F5F5F5F5F5F5E2E2F5F5F5F5F5F5F5F5F5F5F5F5F5F5F5F5F5F5F5F5F5E2BEF52D2D2D2D2D2D2D2DE2E2E2E2E2E2E2E2E2E2E2E2E2E2E2E2E2E2F5F5F5F5F5F5F5F5F5F5F5F5F5F5F5F5F5F5F5F5F5F5F5F5F5F5F5F5F5F5F5F5F5F5F5F5F5F5F5F5F5F5F5F5F5F5F5F5F5F5F5F5F5F5F5F5F5F5
310
F5F5F5F5F5F5F5F5F5F5F5F5F5F5F5F5F5F5F5F5F5F5F5F5F5F5F5F5F5F5F5F5F5F5F5F5F5F5F5F5F5F5F5F5F5F5F5F5E2F5F5F5F5F5F5F5F5F5F5F5F5F5F5F5F5F5F5F5F5F5E2E2F5F5F5F5E2F5F5F5F5F5F5F5F5F5F5F5F5F5F5F5F5E2DCF5F5F5F5E2F5F5F5F5F5E2F5F5F5F5F5F5F5F5F5F5F5F5F5F5F5F5F5F5F5F5F5
310
F5F5F5F5F5F5F5F5F5F5F5F5F5F5F5F5F5F5F5F5F5F5F5F5F5F5F5F5F5F5F5F5F5F5F5F5F5F5F5F5F5F5F5F5F5F5F5F5F5F5F5F5F5F5F5F5F5F5F5F5F5F5F5F5F5F5F5F5F5F5F5F5F5F5F5F5F5F5F5F5F5F5F5F5F5F5F5F5F5F5F5F5F5F5F5F5F5F5F5F5F5E2F5F5F5F5F5F5F5F5F5F5F5F5F5F5F5F5E2F5F5F5F5E2E2F5F5
310
F5F5E2F5F5F5F5F5F5F5F5F5F5F5F5F5F5F5F5E2F5F5F5F5F5E2F5F5F5F5F5E2F5F5F5F5F5F5F5F5F5F5F5F5F5F5F5F5F5F5F5F5F5F5F5F5F5F5F5F5F5F5F5F5F5F5F5F5F5F5F5F5F5F5F5F5F5F5F5F5F5F5F5F5F5F5F5F5F5F5F5F5F5F5F5F5F5F5F5F5F5F5F5F5F5F5F5F5F5F5F5F5F5F5F5F5F5F5F5F5F5F5F5F5F5F5F5
310
F5F5F5F5F5F5F5F5F5F5F5F5F5F5F5F5F5F5F5F5F5F5F5F5F5F5F5E2F5F5F5F5F5F5F5F5F5F5F5F5F5F5F5F5E2F5F5F5F5E2E2F5F5F5F5E2F5F5F5F5F5F5F5F5F5F5F5F5F5F5F5F5E2F5F5F5F5F5E2F5F5F5F5F5E2F5F5F5F5F5F5F5F5F5F5F5F5F5F5F5F5F5F5F5F5F5F5F5F5F5F5F5F5F5F5F5F5F5F5F5F5F5F5F5F5F5F5
310
F5F5F5F5F5F5F5F5F5F5F5F5F5F5F5F5F5F5F5F5F5F5F5F5F5F5F5F5F5F5F5F5F5F5F5F5F5F5F5F5F5F5F5F5F5F5F5F5F5F5F5F5F5F5F5F5F5F5F5F5F5F5F5F5F5F5F5F5F5F5F5F5F5F5F5F5F5F5F5F5E2F5F5F5F5F5F5F5F5F5F5F5F5F5F5F5F5E2F5F5F5F5E2E2F5F5F5F5E2F5F5F5F5F5F5F5F5F5F5F5F5F5F5F5F5E2F5
310
F5F5F5F5E2F5F5F5F5F5E2F5F5F5F5F5F5F5F5F5F5F5F5F5F5F5F5F5F5F5F5F5F5F5F5F5F5F5F5F5F5F5F5F5F5F5F5F5F5F5F5F5F5F5F5F5F5F5F5F5F5F5F5F5F5F5F5F5F5F5F5F5F5F5F5F5F5F5F5F5F5F5F5F5F5F5F5F5F5F5F5F5F5F5F5F5F5F5F5F5F5F5F5F5F5F5F5F5F5F5F5F5F5F5F5F5F5F5F5F5F5F5F5F5F5F5F5
310
F5F5F5F5F5F5E2F5F5F5F5F5F5F5F5F5F5F5F5F5F5F5F5E2F5F5F5F5E2E2F5F5F5F5E2F5F5F5F5F5F5F5F5F5F5F5F5F5F5F5F5E2E2E2E2E2E2E2F5F5F5F5F5E2F5F5F5F5F5F5F5F5F5F5F5F5F5F5F5F5F5F5F5F5F5F5F5F5F5F5F5F5F5F5F5F5F5F5F5F5F5F5F5F5F5F5F5F5F5F5F5F5F5F5F5F5F5F5F5F5F5F5F5F5F5F5F5
310
F5F5F5F5F5F5F5F5F5F5F5F5F5F5F5F5F5F5F5F5F5F5F5F5F5F5F5F5F5F5F5F5F5F5F5F5F5F5F5F5F5F5F5F5F5F5F5F5F5F5F5F5F5F5F5F5F5F5F5E2F5F5F5F5F5F5F5F5F5F5F5F5F5F5F5F5E2F5F5F5F5E2E2F5F5F5F5E2F5F5F5F5F5F5F5F5F5F5F5F5F5F5F5F5E2E2E2E2F5E2E2F5F5F5F5F5E2F5F5F5F5F5F5F5F5F5F5
310
F5F5F5F5F5F5F5F5F5F5F5F5F5F5F5F5F5F5F5F5F5F5F5F5F5F5F5F5F5F5F5F5F5F5F5F5F5F5F5F5F5F5F5F5F5F5F5F5F5F5F5F5F5F5F5F5F5F5F5F5F5F5F5F5F5F5F5F5F5F5F5F5F5F5F5F5F5F5F5F5F5F5F5F5F5F5F5F5F5F5F5F5F5F5F5F5F5F5F5F5F5F5F5F5F5F5F5F5F5F5F5F5E2F5F5F5F5F5F5F5F5F5F5F5F5F5F5
310
F5F5E2F5F5F5F5E2E2F5F5F5F5E2F5F5F5F5F5F5F5F5F5F5F5F5F5F5F5F5E2E2E2E2F5F5F5F5F5F5F5F5E2F5F5F5F5F5F5F5F5F5F5F5F5F5F5F5F5F5F5F5F5F5F5F5F5F5F5F5F5F5F5F5F5F5F5F5F5F5F5F5F5F5F5F5F5F5F5F5F5F5F5F5F5F5F5F5F5F5F5F5F5F5F5F5F5F5F5F5F5F5F5F5F5F5F5F5F5F5F5F5F5F5F5F5F5
310
F5F5F5F5F5F5F5F5F5F5F5F5F5F5F5F5F5F5F5F5F5F5F5F5F5F5F5F5F5F5F5F5F5F5F5F5F5F5E2F5F5F5F5F5F5F5F5F5F5F5F5F5F5F5F5E2F5F5F5F5E2E2F5F5F5F5E2F5F5F5F5F5F5F5F5F5F5F5F5F5F5F5F5E2F5F5F5F5F5F5F5F5F5F5F5E2F5F5F5F5F5F5F5F5F5F5F5F5F5F5F5F5F5F5F5F5F5F5F5F5F5F5F5F5F5F5F5
310
F5F5F5F5F5F5F5F5F5F5F5F5F5F5F5F5F5F5F5F5F5F5F5F5F5F5F5F5F5F5F5F5F5F5F5F5F5F5F5F5F5F5F5F5F5F5F5F5F5F5F5F5F5F5F5F5F5F5F5F5F5F5F5F5F5F5F5F5F5F5F5F5F5F5F5F5F5F5F5F5F5F5F5F5F5F5F5F5F5F5F5E2F5F5F5F5F5F5F5F5F5F5F5F5F5F5F5F5E2F5F5F5F5E2E2F5F5F5F5E2F5F5F5F5F5F5F5
310
F5F5F5F5F5F5F5F5F5E2E2E2E2E2E2E2E2E2E2E2E2E2F5F5F5F5F5F5F5F5F5F5F5F5F5F5F5F5F5F5F5F5F5F5F5F5F5F5F5F5F5F5F5F5F5F5F5F5F5F5F5F5F5F5F5F5F5F5F5F5F5F5F5F5F5F5F5F5F5F5F5F5F5F5F5F5F5F5F5F5F5F5F5F5F5F5F5F5F5F5F5F5F5F5F5F5F5F5F5F5F5F5F5F5F5F5F5F5F5F5F5F5F5F5F5F5F5
310
F5F5F5F5F5F5F5F5F5F5F5F5F5F5F5F5F5E2F5F5F5F5F5F5F5F5F5F5F5F5F5F5F5F5E2F5F5F5F5E2E2F5F5F5F5E2F5F5F5F5F5F5F5F5F5F5F5F5F5F5F5F5E2E2E2F5F5F5F5F5F5F5F5F5F5F5F5F5F5F5F5F5F5F5F5F5F5F5F5F5F5F5F5F5F5F5F5F5F5F5F5F5F5F5F5F5F5F5F5F5F5F5F5F5F5F5F5F5F5F5F5F5F5F5F5F5F5
310
F5F5F5F5F5F5F5F5F5F5F5F5F5F5F5F5F5F5F5F5F5F5F5F5F5F5F5F5F5F5F5F5F5F5F5F5F5F5F5F5F5F5F5F5F5F5F5F5F5F5F5F5F5F5F5F5F5F5F5F5F5F5F5F5F5F5F5F5F5F5E2F5F5F5F5F5F5F5F5F5F5F5F5F5F5F5F5E2F5F5F5F5E2E2F5F5F5F5E2F5F5F5F5F5F5F5F5F5F5F5F5F5F5F5F5E2E2E2F5F5F5F5F5F5F5F5F5
310
F5F5F5F5F5F5F5F5F5F5F5F5F5F5F5F5F5F5F5F5F5F5F5F5F5F5F5F5F5F5F5F5F5F5F5F5F5F5F5F5F5F5F5F5F5F5F5F5F5F5F5F5F5F5F5F5F5F5F5F5F5F5F5F5F5F5F5F5F5F5F5F5F5F5F5F5F5F5F5F5F5F5F5F5F5F5F5F5F5F5F5F5F5F5F5F5F5F5F5F5F5F5F5F5F5F5F5F5F5F5F5F5F5F5F5F5F5F5F5F5F5F5F5E2F5F5F5
310
F5F5F5F5F5F5F5F5F5F5F5F5F5E2F5F5F5F5E2E2F5F5F5F5E2F5F5F5F5F5F5F5F5F5F5F5F5F5F5F5F5E2F5F5F5F5F5F5F5F5F5F5F5F5F5F5F5F5F5F5F5F5F5F5F5F5F5F5F5F5F5F5F5F5F5F5F5F5F5F5F5F5F5F5F5F5F5F5F5F5F5F5F5F5F5F5F5F5F5F5F5F5F5F5F5F5F5F5F5F5F5F5F5F5F5F5F5F5F5F5F5F5F5F5F5F5F5
310
F5F5F5F5F5F5F5F5F5F5F5F5F5F5F5F5F5F5F5F5F5F5F5F5F5F5F5F5F5F5F5F5F5F5F5F5F5F5F5F5F5F5F5F5F5F5F5F5F5E2F5F5F5F5F5F5F5F5F5F5F5F5F5F5F5F5E2F5F5F5F5E2E2F5F5F5F5E2F5F5F5F5F5F5F5F5F5F5F5F5F5F5F5F5E2F5F5F5F5F5F5F5F5F5F5F5F5F5F5F5F5F5F5F5F5F5F5F5F5F5F5F5F5F5F5F5F5
310
F5F5F5F5F5F5F5F5F5F5F5F5F5F5F5F5F5F5F5F5F5F5F5F5F5F5F5F5F5F5F5F5F5F5F5F5F5F5F5F5F5F5F5F5F5F5F5F5F5F5F5F5F5F5F5F5F5F5F5F5F5F5F5F5F5F5F5F5F5F5F5F5F5F5F5F5F5F5F5F5F5F5F5F5F5F5F5F5F5F5F5F5F5F5F5F5F5F5F5F5F5F5E2F5F5F5F5F5F5F5F5F5F5F5F5F5F5F5F5E2F5F5F5F5E2E2F5
310
F5F5F5E2F5F5F5F5F5F5F5F5F5F5F5F5F5F5F5F5E20F0F0F0F0F0F0F0F0F0F0FF5F5F5F5F5F5F5F5F5F5F5F5F5F5F5F5F5F5F5F5F5F5F5F5F5F5F5F5F5F5F5F5F5F5F5F5F5F5F5F5F5F5F5F5F5F5F5F5F5F5F5F5F5F5F5F5F5F5F5F5F5F5F5F5F5F5F5F5F5F5F5F5F5F5F5F5F5F5F5F5F5F5F5F5F5F5F5F5F5F5F5F5F5F5F5
310
F5F5F5F5F5F5F5F5F5F5F5F5F5F5F5F5F5F5F5F5F5F5F5F5F5F5F5F5E2F5F5F5F5F5F5F5F5F5F5F5F5F5F5F5F5E2F5F5F5F5E2E2F5F5F5F5E2F5F5F5F5F5F5F5F5F5F5F5F5F5F5F5F5E20F0F0F0F0F0F0F0F0F0F0FF5F5F5F5F5F5F5F5F5F5F5F5F5F5F5F5F5F5F5F5F5F5F5F5F5F5F5F5F5F5F5F5F5F5F5F5F5F5F5F5F5F5
310
F5F5F5F5F5F5F5F5F5F5F5F5F5F5F5F5F5F5F5F5F5F5F5F5F5F5F5F5F5F5F5F5F5F5F5F5F5F5F5F5F5F5F5F5F5F5F5F5F5F5F5F5F5F5F5F5F5F5F5F5F5F5F5F5F5F5F5F5F5F5F5F5F5F5F5F5F5F5F5F5F5E2F5F5F5F5F5F5F5F5F5F5F5F5F5F5F5F5E2F5F5F5F5E2E2F5F5F5F5E2F5F5F5F5F5F5F5F5F5F5F5F5F5F5F5F5E2
310
0F0F0F0F0F0F0F0F0F0FF5F5F5F5F5F5F5F5F5F5F5F5F5F5F5F5F5F5F5F5F5F5F5F5F5F5F5F5F5F5F5F5F5F5F5F5F5F5F5F5F5F5F5F5F5F5F5F5F5F5F5F5F5F5F5F5F5F5F5F5F5F5F5F5F5F5F5F5F5F5F5F5F5F5F5F5F5F5F5F5F5F5F5F5F5F5F5F5F5F5F5F5F5F5F5F5F5F5F5F5F5F5F5F5F5F5F5F5F5F5F5F5F5F5F5F5F5
310
F5F5F5F5F5F5F5E2F5F5F5F5F5F5F5F5F5F5F5F5F5F5F5F5E2F5F5F5F5E2E2F5F5F5F5E2F5F5F5F5F5F5F5F5F5F5F5F5F5F5F5F5E2F5F5F5F5F5F5F5F5F5F5F5F5F5F5F5F5F5F5F5F5F5F5F5F5F5F5F5F5F5F5F5F5F5F5F5F5F5F5F5F5F5F5F5F5F5F5F5F5F5F5F5F5F5F5F5F5F5F5F5F5F5F5F5F5F5F5F5F5F5F5F5F5F5F5
310
F5F5F5F5F5F5F5F5F5F5F5F5F5F5F5F5F5F5F5F5F5F5F5F5F5F5F5F5F5F5F5F5F5F5F5F5F5F5F5F5F5F5F5F5F5F5F5F5F5F5F5F5F5F5F5F5F5F5F5F5E2F5F5F5F5F5F5F5F5F5F5F5F5F5F5F5F5E2F5F5F5F5E2E2F5F5F5F5F5F5F5F5F5F5F5F5F5F5F5F5F5F5F5F5F5E2F5F5F5F5F5F5F5F5F5F5F5F5F5F5F5F5F5F5F5F5F5
310
F5F5F5F5F5F5F5F5F5F5F5F5F5F5F5F5F5F5F5F5F5F5F5F5F5F5F5F5F5F5F5F5F5F5F5F5F5F5F5F5F5F5F5F5F5F5F5F5F5F5F5F5F5F5F5F5F5F5F5F5F5F5F5F5F5F5F5F5F5F5F5F5F5F5F5F5F5F5F5F5F5F5F5F5F5F5F5F5F5F5F5F5F5F5F5F5F5F5F5F5F5F5F5F5F5F5F5F5F5F5F5F5F5E2F5F5F5F5F5F5F5F5F5F5F5F5F5
310
F5F5F5F5F5F5F5F5E2E2F5F5F5F5F5F5F5F5F5F5F5F5F5F5F5F5F5F5F5F5F5E2F5F5F5F5F5F5F5F5F5F5F5F5F5F5F5F5F5F5F5F5F5F5F5F5F5F5F5F5F5F5F5F5F5F5F5F5F5F5F5F5F5F5F5F5F5F5F5F5F5F5F5F5F5F5F5F5F5F5F5F5F5F5F5F5F5F5F5F5F5F5F5F5F5F5F5F5F5F5F5F5F5F5F5F5F5F5F5F5F5F5F5F5F5F5F5
310
F5F5F5F5F5F5F5F5F5F5F5F5F5F5F5F5F5F5F5F5F5F5F5F5F5F5F5F5F5F5F5F5F5F5F5F5F5F5F5E2F5F5F5F5F5F5F5F5F5F5F5F5F5F5F5F5F5F5F5F5F5E2E2F5F5F5F5F5F5F5F5F5F5F5F5F5F5F5F5F5F5F5F5F5E2F5F5F5F5F5F5F5F5F5F5F5F5F5F5F5F5F5F5F5F5F5F5F5F5F5F5F5F5F5F5F5F5F5F5F5F5F5F5F5F5F5F5
310
F5F5F5F5F5F5F5F5F5F5F5F5F5F5F5F5F5F5F5F5F5F5F5F5F5F5F5F5F5F5F5F5F5F5F5F5F5F5F5F5F5F5F5F5F5F5F5F5F5F5F5F5F5F5F5F5F5F5F5F5F5F5F5F5F5F5F5F5F5F5F5F5F5F5F5F5F5F5F5F5F5F5F5F5F5F5F5F5F5F5F5F5E2F5F5F5F5F5F5F5F5F5F5F5F5F5F5F5F5F5F5F5F5F5E2E2F5F5F5F5F5F5F5F5F5F5F5
310
F5F5F5F5F5F5F5F5F5F5E2F5F5F5F5F5F5F5F5F5F5F5F5F5F5F5F5F5F5F5F5F5F5F5F5F5F5F5F5F5F5F5F5F5F5F5F5F5F5F5F5F5F5F5F5F5F5F5F5F5F5F5F5F5F5F5F5F5F5F5F5F5F5F5F5F5F5F5F5F5F5F5F5F5F5F5F5F5F5F5F5F5F5F5F5F5F5F5F5F5F5F5F5F5F5F5F5F5F5F5F5F5F5F5F5F5F5F5F5F5F5F5F5F5F5F5F5
310
F5F5F5F5F5F5F5F5F5F5F5F5F5F5F5F5F5F5E2F5F5F5F5F5F5F5F5F5F5F5F5F5F5F5F5F5F5F5F5F5E2E2F5F5F5F5F5F5F5F5F5F5F5F5F5F5F5F5F5F5F5F5F5E2F5F5F5F5F5F5F5F5F5F5F5F5F5F5F5F5F5F5F5F5F5F5F5F5F5F5F5F5F5F5F5F5F5F5F5F5F5F5F5F5F5F5F5F5F5F5F5F5F5F5F5F5F5F5F5F5F5F5F5F5F5F5F5
310
F5F5F5F5F5F5F5F5F5F5F5F5F5F5F5F5F5F5F5F5F5F5F5F5F5F5F5F5F5F5F5F5F5F5F5F5F5F5F5F5F5F5F5F5F5F5F5F5F5F5F5F5F5F5F5F5F5F5F5F5F5F5F5F5F5F5F5F5F5F5F5E2F5F5F5F5F5F5F5F5F5F5F5F5F5F5F5F5F5F5F5F5F5E2E2F5F5F5F5F5F5F5F5F5F5F5F5F5F5F5F5F5F5F5F5F5E2F5F5F5F5F5F5F5F5F5F5
310
F5F5F5F5F5F5F5F5F5F5F5F5F5F5F5F5F5F5F5F5F5F5F5F5F5F5F5F5F5F5F5F5F5F5F5F5F5F5F5F5F5F5F5F5F5F5F5F5F5F5F5F5F5F5F5F5F5F5F5F5F5F5F5F5F5F5F5F5F5F5F5F5F5F5F5F5F5F5F5F5F5F5F5F5F5F5F5F5F5F5F5F5F5F5F5F5F5F5F5F5F5F5F5F5F5F5F5F5F5F5F5F5F5F5F5F5F5F5F5F5F5F5F5F5E2F5F5
310
F5F5F5F5F5F5F5F5F5F5F5F5F5F5F5F5F5F5F5E2E2F5F5F5F5F5F5F5F5F5F5F5F5F5F5F5F5F5F5F5F5F5E2F5F5F5F5F5F5F5F5F5F5F5F5F5F5F5F5F5F5F5F5F5F5F5F5F5F5F5F5F5F5F5F5F5F5F5F5F5F5F5F5F5F5F5F5F5F5F5F5F5F5F5F5F5F5F5F5F5F5F5F5F5F5F5F5F5F5F5F5F5F5F5F5F5F5F5F5F5F5F5F5F5F5F5F5
310
F5F5F5F5F5F5F5F5F5F5F5F5F5F5F5F5F5F5F5F5F5F5F5F5F5F5F5F5F5F5F5F5F5F5F5F5F5F5F5F5F5F5F5F5F5F5F5F5F5F5E2F5F5F5F5F5F5F5F5F5F5F5F5F5F5F5F5F5F5F5F5F5E2E2F5F5F5F5F5F5F5F5F5F5F5F5F5F5F5F5F5F5F5F5F5E2F5F5F5F5F5F5F5F5F5F5F5F5F5F5F5F5F5F5F5F5F5F5F5F5F5F5F5F5F5F5F5
310
F5F5F5F5F5F5F5F5F5F5F5F5F5F5F5F5F5F5F5F5F5F5F5F5F5F5F5F5F5F5F5F5F5F5F5F5F5F5F5F5F5F5F5F5F5F5F5F5F5F5F5F5F5F5F5F5F5F5F5F5F5F5F5F5F5F5F5F5F5F5F5F5F5F5F5F5F5F5F5F5F5F5F5F5F5F5F5F5F5F5F5F5F5F5F5F5F5F5F5F5F5F5F5E2F5F5F5F5F5F5F5F5F5F5F5F5F5F5F5F5F5F5F5F5F5E2E2
310
F5F5F5F5F5F5F5F5F5F5F5F5F5F5F5F5F5F5F5F5F5E2F5F5F5F5F5F5F5F5F5F5F5F5F5F5F5F5F5F5F5F5F5F5F5F5F5F5F5F5F5F5F5F5F5F5F5F5F5F5F5F5F5F5F5F5F5F5F5F5F5F5F5F5F5F5F5F5F5F5F5F5F5F5F5F5F5F5F5F5F5F5F5F5F5F5F5F5F5F5F5F5F5F5F5F5F5F5F5F5F5F5F5F5F5F5F5F5F5F5F5F5F5F5F5F5F5
310
F5F5F5F5F5F5F5F5F5F5F5F5F5F5F5F5F5F5F5F5F5F5F5F5F5F5F5F5F5E2F5F5F5F5F5F5F5F5F5F5F5F5F5F5F5F5F5F5F5F5F5E2E2F5F5F5F5E2F5F5F5F5F5F5F5F5F5F5F5F5F5F5F5F5E2F5F5F5F5F5F5F5F5F5F5F5F5F5F5F5F5F5F5F5F5F5F5F5F5F5F5F5F5F5F5F5F5F5F5F5F5F5F5F5F5F5F5F5F5F5F5F5F5F5F5F5F5
310
F5F5F5F5F5F5F5F5F5F5F5F5F5F5F5F5F5F5F5F5F5F5F5F5F5F5F5F5F5F5F5F5F5F5F5F5F5F5F5F5F5F5F5F5F5F5F5F5F5E2F0E2E2F5F5F5F5F5F5E2F0E2E2F5DCF5F5F5F5F5F5F0F0E2F5F5F5F5F5F5F5F5E2F5F5F5F5F5F5F5F5F5F5F5F5F5F5F5F5E2F5F5F5F5E2E2F5F5F5F5E2F5F5F5F5F5F5F5F5F5F5F5F5F5F5F5F5
310
E2F5F5F5F5F5F5F5F5F5F5F5F5F5F5F5F5F5F5F5F5F5F5F5F5F5F5F5F5F5F5F5F5F5F5F5F5F5F5F5F5F5F5F5F5F5F5F5F5F5F5F5F5F5F5F5F5F5F5F5F5F5F5F5F5F5F5F5F5F5F5F5F5F5F5F5F5F5F5F5F5F5F5F5F5F5F5F5F5F5F5F5F5F5F5F5F5F5F5F5F5E2DCDCF0F5E2F5F5F5F5F5E2F5F0E2E2DCF5F5F5F5F5E2F0F0F5
310
E2F5F5F5E2E2E2F5E2F5F5F5F5F5F5F5F5F5F5F5F5F5F5F5F5E2F5F5F5F5E2E2F5F5F5F5E2F5F5F5F5F5F5F5F5F5F5F5F5F5F5F5F5E2F5F5F5F5F5F5F5F5F5F5F5F5F5F5F5F5F5F5F5F5F5F5F5F5F5F5F5F5F5F5F5F5F5F5F5F5F5F5F5F5F5F5F5F5F5F5F5F5F5F5F5F5F5F5F5F5F5F5F5F5F5F5F5F5F5F5F5F5F5F5F5F5F5
310
F5F5F5F5F5F5F5F5F5F5F5F5F5F5F5F5F5F5F5F5F5F5F5F5F5F5E2F0DCF0DCE2E2E2F5F5F5E2E2F0F0F0E2DCF5F5F5F5E2F0F0F0E2E2F0E2E2E2E2E2E2E2F5F5F5F5F5F5F5F5F5F5F5F5F5F5F5F5E2F5F5F5F5E2E2F5F5F5F5E2F5F5F5F5F5F5F5F5F5F5F5F5F5F5F5F5E2F5F5F5F5F5F5F5F5F5F5F5F5F5F5F5F5F5F5F5F5
310
F5F5F5F5F5F5F5F5F5F5F5F5F5F5F5F5F5F5F5F5F5F5F5F5F5F5F5F5F5F5F5F5F5F5F5F5F5F5F5F5F5F5F5F5F5F5F5F5F5F5F5F5F5F5F5F5F5F5F5F5F5F5F5F5F5F5F5F5F5F5F5F5F5F5F5F5F5F5F5E2F0DCF0DCF0F0E2F5F5F5E2F0DCE2E2E2DCF5F5F5F5F0F0F0F0E2E2F0E2F5E2E2E2E2E2F5F5F5F5F5F5F5F5F5F5F5F5
310
F5F5F5F5E2F5F5F5F5E2E2F5F5F5F5E2F5F5F5F5F5F5F5F5F5F5F5F5F5F5F5F5E2F5F5F5F5F5F5F5F5F5F5F5F5F5F5F5F5F5F5F5F5F5F5F5F5F5F5F5F5F5F5F5F5F5F5F5F5F5F5F5F5F5F5F5F5F5F5F5F5F5F5F5F5F5F5F5F5F5F5F5F5F5F5F5F5F5F5F5F5F5F5F5F5F5F5F5F5F5F5F5F5F5F5F5F5F5F5F5F5F5F5F5F5F5F5
310
F5F5F5F5F5F5E2DCDCDCF0E2F5F5F5F5F5F0DCDCE2E2DCF5F5F5F5F5F0F0F0DCE2F0F5E2E2E2E2F5E2F5F5F5F5F5F5F5F5F5F5F5F5F5F5F5F5E2F5F5F5F5E2E2F5F5F5F5E2F5F5F5F5F5F5F5F5F5F5F5F5F5F5F5F5E2F5F5F5F5F5F5F5F5F5F5F5F5F5F5F5F5F5F5F5F5F5F5F5F5F5F5F5F5F5F5F5F5F5F5F5F5F5F5F5F5F5
310
F5F5F5F5F5F5F5F5F5F5F5F5F5F5F5F5F5F5F5F5F5F5F5F5F5F5F5F5F5F5F5F5F5F5F5F5F5F5F5F5F5F5F5F5F5F5F5F5F5F5F5F5F5F5F5F5F5F5F5E2F0F0F0E2F5F5F5F5F5E2F0E2E2E2E2DCF5F5F5F5F5F0F0E2E2F5F5F5F5E2E2E2F5E2F5F5F5F5F5F5F5F5F5F5F5F5F5F5F5F5E2F5F5F5F5E2E2F5F5F5F5E2F5F5F5F5F5
310
F5F5F5F5F5F5F5F5F5F5F5E2F5F5F5F5F5F5F5F5F5F5F5F5F5F5F5F5F5F5F5F5F5F5F5F5F5F5F5F5F5F5F5F5F5F5F5F5F5F5F5F5F5F5F5F5F5F5F5F5F5F5F5F5F5F5F5F5F5F5F5F5F5F5F5F5F5F5F5F5F5F5F5F5F5F5F5F5F5F5F5F5F5F5F5F5F5F5F5F5F5F5F5F5F5F5F5F5F5F5F5F5F5F5E2E2F5F5F5F5F5F5F5F5E2E2F5
310
F5DCF5F5F5F5F5F5F5F0E2F5F5F5F5F5E2F5F5E2F5F5F5F5F5F5F5F5F5F5F5F5F5F5F5F5E2F5F5F5F5E2E2F5F5F5F5E2F5F5F5F5F5F5F5F5F5F5F5F5F5F5F5F5E2F5F5F5F5F5F5F5F5F5F5F5F5F5F5F5F5F5F5F5F5F5F5F5F5F5F5F5F5F5F5F5F5F5F5F5F5F5F5F5F5F5F5F5F5F5F5F5F5F5F5F5F5F5F5F5F5F5F5F5F5F5F5
310
F5F5F5F5F5F5F5F5F5F5F5F5F5F5F5F5F5F5F5F5F5F5F5F5F5F5F5F5F5F5F5F5F5F5F5F5F5F5F5F5F5F5F5F5F5F5F5F5F5F5F5F5F5F5DCF5F5F5F5F5F5F5F5F5F5F5F5F5F5F5F5F5E2F5F5F5F5F5F5F5F5F5F5F5F5F5F5F5F5E2F5F5F5F5E2E2F5F5F5F5E2F5F5F5F5F5F5F5F5F5F5F5F5F5F5F5F5E2F5F5F5F5F5F5F5F5F5
310
F5F5F5F5F5F5F5F5F5F5F5F5F5F5F5F5F5F5F5F5F5F5F5F5F5F5F5F5F5F5F5F5F5F5F5F5F5F5F5F5F5F5F5F5F5F5F5F5F5F5F5F5F5F5F5F5F5F5F5F5F5F5F5F5F5F5F5F5F5F5F5F5F5F5F5F5F5F5F5F5F5F5F5F5F5F5F5F5F5F5F5F5F5F5F5F5F5F5F5F5F5F5F5F5F5F5F5DCF5F5F5F5F5F5F5F5F5F5F5F5F5F5F5F5F5E2F5
310
F5F5F5F5F5F5F5F5F5F5F5F5F5F5F5E2F5F5F5F5E2E2F5F5F5F5E2F5F5F5F5F5F5F5F5F5F5F5F5F5F5F5F5E2F5F5F5F5F5F5F5F5F5F5F5F5F5F5F5F5F5F5F5F5F5F5F5F5F5F5F5F5F5F5F5F5F5F5F5F5F5F5F5F5F5F5F5F5F5F5F5F5F5F5F5F5F5F5F5F5F5F5F5F5F5F5F5F5F5F5F5F5F5F5F5F5F5F5F5F5F5F5F5F5F5F5F5
310
F5F5F5F5F5F5F5F5F5F5F5F5F5F5F5F5F5F5F5F5F5F5F5F5F5F5F5F5F5F5F5F5F5DCF5F5F5F5F5F5F5F5F5F5F5F5F5F5F5F5F5E2F5F5F5F5F5F5F5F5F5F5F5F5F5F5F5F5E2F5F5F5F5E2E2F5F5F5F5E2F5F5F5F5F5F5F5F5F5F5F5F5F5F5F5F5E2F5F5F5F5F5F5F5F5F5F5F5F5F5F5F5F5F5F5F5F5F5F5F5F5F5F5F5F5F5F5
310
F5F5F5F5F5F5F5F5F5F5F5F5F5F5F5F5F5F5F5F5F5F5F5F5F5F5F5F5F5F5F5F5F5F5F5F5F5F5F5F5F5F5F5F5F5F5F5F5F5F5F5F5F5F5F5F5F5F5F5F5F5F5F5F5F5F5F5F5F5F5F5F5F5F5F5F5F5F5F5F5F5F5F5F5F5F5DCF5F5F5F5F5F5F5F5F5F5F5F5F5F5F5F5F5E2F5F5F5F5F5F5F5F5F5F5F5F5F5F5F5F5E2F5F5F5F5E2
310
E2F5F5F5F5E2F5F5F5F5F5F5F5F5F5F5F5F5F5F5F5F5E2F5F5F5F5F5F5F5F5F5F5F5F5F5F5F5F5F5F5F5F5F5F5F5F5F5F5F5F5F5F5F5F5F5F5F5F5F5F5F5F5F5F5F5F5F5F5F5F5F5F5F5F5F5F5F5F5F5F5F5F5F5F5F5F5F5F5F5F5F5F5F5F5F5F5F5F5F5F5F5F5F5F5F5F5F5F5F5F5F5F5F5F5F5F5F5F5F5F5F5F5F5F5F5F5
310
F5F5F5F5F5F5F5F5F5F5F5F5DCF5F5F5F5F5F5F5F5F5F5F5F5F5F5F5F5F5E2F5F5F5F5F5F5F5F5F5F5F5F5F5F5F5F5E2F5F5F5F5E2E2F5F5F5F5E2F5F5F5F5F5F5F5F5F5F5F5F5F5F5F5F5E2F5F5F5F5F5F5F5F5F5F5F5F5F5F5F5F5F5F5F5F5F5F5F5F5F5F5F5F5F5F5F5F5F5F5F5F5F5F5F5F5F5F5F5F5F5F5F5F5F5F5F5
310
F5F5F5F5F5F5F5F5F5F5F5F5F5F5F5F5F5F5F5F5F5F5F5F5F5F5F5F5F5F5F5F5F5F5F5F5F5F5F5F5F5F5F5F5F5F5F5F5F5F5F5F5F5F5F5F5F5F5F5F5F5F5F5F5F5DCF5F5F5F5F5F5F5F5F5F5F5F5F5F5F5F5F5E2F5F5F5F5F5F5F5F5F5F5F5F5F5F5F5F5E2F5F5F5F5E2E2F5F5F5F5E2F5F5F5F5F5F5F5F5F5F5F5F5F5F5F5
310
F5E2F5F5F5F5F5F5F5F5F5F5F5F5F5F5F5F5F5F5F5F5F5F5F5F5F5F5F5F5F5F5F5F5F5F5F5F5F5F5F5F5F5F5F5F5F5F5F5F5F5F5F5F5F5F5F5F5F5F5F5F5F5F5F5F5F5F5F5F5F5F5F5F5F5F5F5F5F5F5F5F5F5F5F5F5F5F5F5F5F5F5F5F5F5F5F5F5F5F5F5F5F5F5F5F5F5F5F5F5F5F5F5F5F5F5F5F5DCF5F5F5F5F5F5F5F5
310
F5F5F5F5F5F5F5F5F5E2F5F5F5F5F5F5F5F5F5F5F5F5F5F5F5F5E2F5F5F5F5E2E2F5F5F5F5E2F5F5F5F5F5F5F5F5F5F5F5F5F5F5F5F5E2F5F5F5F5F5F5F5F5F5F5F5F5F5F5F5F5F5F5F5F5F5F5F5F5F5F5F5F5F5F5F5F5F5F5F5F5F5F5F5F5F5F5F5F5F5F5F5F5F5F5F5F5F5F5F5F5F5F5F5F5F5F5F5F5F5F5F5F5F5F5F5F5
310
F5F5F5F5F5F5F5F5F5F5F5F5F5F5F5F5F5F5F5F5F5F5F5F5F5F5F5F5F5F5F5F5F5F5F5F5F5F5F5F5F5F5E2E2DCE2F5F5F5F5F5F5F5F5F5F5F5F5F5F5F5F5E2F5F5F5F5F5F5F5F5F5F5F5F5F5F5F5F5E2F5F5F5F5E2E2F5F5F5F5E2F5F5F5F5F5F5F5F5F5F5F5F5F5F5F5F5E2F5F5F5F5F5F5F5F5F5F5F5F5F5F5F5F5F5F5F5
310
F5F5F5F5F5F5F5F5F5F5F5F5F5F5F5F5F5F5F5F5F5F5F5F5F5F5F5F5F5F5F5F5F5F5F5F5F5F5F5F5F5F5F5F5F5F5F5F5F5F5F5F5F5F5F5F5F5F5F5F5F5F5F5F5F5F5F5F5F5F5F5F5F5F5F5F5F5F5F5F5F5F5F5F5F5F5F5F5F5F5F5F5F5F5F5F5F5DCF5F5F5F5F5F5F5F5F5F5F5F5F5F5F5F5F5E2F5F5F5F5F5F5F5F5F5F5F5
310
F5F5F5F5F5E2F5F5F5F5E2E2F5F5F5F5E2F5F5F5F5F5F5F5F5F5F5F5F5F5F5F5F5E2F5F5F5F5F5F5F5F5F5F5F5F5F5F5F5F5F5F5F5F5F5F5F5F5F5F5F5F5F5F5F5F5F5F5F5F5F5F5F5F5F5F5F5F5F5F5F5F5F5F5F5F5F5F5F5F5F5F5F5F5F5F5F5F5F5F5F5F5F5F5F5F5F5F5F5F5F5F5F5F5F5F5F5F5F5F5F5F5F5F5F5F5F5
310
F5F5F5F5F5F5F5F5F5F5F5F5F5F5F5F5F5F5F5F5F5F5F5DCF5F5F5F5F5F5F5F5F5F5F5F5F5F5F5F5F5E2F5F5F5F5F5F5F5F5F5F5F5F5F5F5F5F5E2F5F5F5F5E2E2F5F5F5F5F5F5F5F5F5F5F5F5F5F5F5F5F5F5F5F5F5E2F5F5F5F5F5F5F5F5F5F5F5F5F5F5F5F5F5F5F5F5F5F5F5F5F5F5F5F5F5F5F5F5F5F5F5F5F5F5F5F5
310
F5F5F5F5F5F5F5F5F5F5F5F5F5F5F5F5F5F5F5F5F5F5F5F5F5F5F5F5F5F5F5F5F5F5F5F5F5F5F5F5F5F5F5F5F5F5F5F5F5F5F5F5F5F5F5F5F5F5F5F5F5F5F5F5F5F5F5F5F5F5F5F5F5F5F5F5DCF5F5F5F5F5F5F5F5F5F5F5F5F5F5F5F5F5E2F5F5F5F5F5F5F5F5F5F5F5F5F5F5F5F5F5F5F5F5F5E2E2F5F5F5F5F5F5F5F5F5
310
F5F5F5F5F5F5F5F5F5F5F5F5E2F5F5F5F5F5F5F5F5F5F5F5F5F5F5F5F5F5F5F5F5F5F5F5F5F5F5F5F5F5F5F5F5F5F5F5F5F5F5F5F5F5F5F5F5F5F5F5F5F5F5F5F5F5F5F5F5F5F5F5F5F5F5F5F5F5F5F5F5F5F5F5F5F5F5F5F5F5F5F5F5F5F5F5F5F5F5F5F5F5F5F5F5F5F5F5F5F5F5F5F5F5F5F5F5F5F5F5F5F5F5F5F5F5F5
310
F5F5F5F5F5F5F5F5F5F5F5F5F5F5F5F5F5F5F5F5E2F5F5F5F5F5F5F5F5F5F5F5F5F5F5F5F5F5F5F5F5F5E2E2F5F5F5F5F5F5F5F5F5F5F5F5F5F5F5F5F5F5F5F5F5E2F5F5F5F5F5F5F5F5F5F5F5F5F5F5F5F5F5F5F5F5F5F5F5F5F5F5F5F5F5F5F5F5F5F5F5F5F5F5F5F5F5F5F5F5F5F5F5F5F5F5F5F5F5F5F5F5F5F5F5F5F5
310
F5F5F5F5F5F5F5F5F5F5F5F5F5F5F5F5F5F5F5F5F5F5F5F5F5F5F5F5F5F5F5F5F5F5F5F5F5F5F5F5F5F5F5F5F5F5F5F5F5F5F5F5F5F5F5F5F5F5F5F5F5F5F5F5F5F5F5F5F5F5F5F5F5E2F5F5F5F5F5F5F5F5F5F5F5F5F5F5F5F5F5F5F5F5F5E2E2F5F5F5F5F5F5F5F5F5F5F5F5F5F5F5F5F5F5F5F5F5E2F5F5F5F5F5F5F5F5
310
F5F5F5F5F5F5F5F5F5F5F5F5F5F5F5F5F5F5F5F5F5F5F5F5F5F5F5F5F5F5F5F5F5F5F5F5F5F5F5F5F5F5F5F5F5F5F5F5F5F5F5F5F5F5F5F5F5F5F5F5F5F5F5F5F5F5F5F5F5F5F5F5F5F5F5F5F5F5F5F5F5F5F5F5F5F5F5F5F5F5F5F5F5F5F5F5F5F5F5F5F5F5F5F5F5F5F5F5F5F5F5F5F5F5F5F5F5F5F5F5F5F5F5F5F5F5E2
310
F5F5F5F5F5F5F5F5F5F5F5F5F5F5F5F5F5F5F5F5F5E2E2F5F5F5F5F5F5F5F5F5F5F5F5F5F5F5F5F5F5F5F5F5E2F5F5F5F5F5F5F5F5F5F5F5F5F5F5F5F5F5F5F5F5F5F5F5F5F5F5F5F5F5F5F5F5F5F5F5F5F5F5F5F5F5F5F5F5F5F5F5F5F5F5F5F5F5F5F5F5F5F5F5F5F5F5F5F5F5F5F5F5F5F5F5F5F5F5F5F5F5F5F5F5F5F5
310
F5F5F5F5F5F5F5F5F5F5F5F5F5F5F5F5F5F5F5F5F5F5F5F5F5F5F5F5F5F5F5F5F5F5F5F5F5F5F5F5F5F5F5F5F5F5F5F5F5F5F5F5E2F5F5F5F5F5F5F5F5F5F5F5F5F5F5F5F5F5F5F5F5F5E2E2F5F5F5F5F5F5F5F5F5F5F5F5F5F5F5F5F5F5F5F5F5E2F5F5F5F5F5F5F5F5F5F5F5F5F5F5F5F5F5F5F5F5F5F5F5F5F5F5F5F5F5
310
F5F5F5F5F5F5F5F5F5F5F5F5F5F5F5F5F5F5F5F5F5F5F5F5F5F5F5F5F5F5F5F5F5F5F5F5F5F5F5F5F5F5F5F5F5F5F5F5F5F5F5F5F5F5F5F5F5F5F5F5F5F5F5F5F5F5F5F5F5F5F5F5F5F5F5F5F5F5F5F5F5F5F5F5F5F5F5F5F5F5F5F5F5F5F5F5F5F5F5F5F5F5F5F5F5E2F5F5F5F5F5F5F5F5F5F5F5F5F5F5F5F5F5F5F5F5F5
310
E2E2F5F5F5F5F5F5F5F5F5F5F5F5F5F5F5F5F5F5F5F5F5E2F5F5F5F5F5F5F5F5F5F5F5F5F5F5F5F5F5F5F5F5F5F5F5F5F5F5F5F5F5F5F5F5F5F5F5F5F5F5F5F5F5F5F5F5F5F5F5F5F5F5F5F5F5F5F5F5F5F5F5F5F5F5F5F5F5F5F5F5F5F5F5F5F5F5F5F5F5F5F5F5F5F5F5F5F5F5F5F5F5F5F5F5F5F5F5F5F5F5F5F5F5F5F5
310
F5F5F5F5F5F5F5F5F5F5F5F5F5F5F5F5F5F5F5F5F5F5F5F5F5F5F5F5F5F5F5E2F5F5F5F5F5F5F5F5F5F5F5F5F5F5F5F5F5F5F5F5F5E2E2F5F5F5F5F5F5F5F5F5F5F5F5F5F5F5F5F5F5F5F5F5E2F5F5F5F5F5F5F5F5F5F5F5F5F5F5F5F5F5F5F5F5F5F5F5F5F5F5F5F5F5F5F5F5F5F5F5F5F5F5F5F5F5F5F5F5F5F5F5F5F5F5
310
F5F5F5F5F5F5F5F5F5F5F5F5F5F5F5F5F5F5F5F5F5F5F5F5F5F5F5F5F5F5F5F5F5F5F5F5F5F5F5F5F5F5F5F5F5F5F5F5F5F5F5F5F5F5F5F5F5F5F5F5F5F5F5F5F5F5F5F5F5F5F5F5F5F5F5F5F5F5F5F5F5F5F5F5E2F5F5F5F5F5F5F5F5F5F5F5F5F5F5F5F5F5F5F5F5F5E2E2F5F5F5F5F5F5F5F5F5F5F5F5F5F5F5F5F5F5F5
310
F5F5E2F5F5F5F5F5F5F5F5F5F5F5F5F5F5F5F5F5F5F5F5F5F5F5F5F5F5F5F5F5F5F5F5F5F5F5F5F5F5F5F5F5F5F5F5F5F5F5F5F5F5F5F5F5F5F5F5F5F5F5F5F5F5F5F5F5F5F5F5F5F5F5F5F5F5F5F5F5F5F5F5F5F5F5F5F5F5F5F5F5F5F5F5F5F5F5F5F5F5F5F5F5F5F5F5F5F5F5F5F5F5F5F5F5F5F5F5F5F5F5F5F5F5F5F5
310
F5F5F5F5F5F5F5F5F5F5E2F5F5F5F5F5F5F5F5F5F5F5F5F5F5F5F5F5F5F5F5F5E2E2F5F5F5F5E2F5F5F5F5F5F5F5F5F5F5F5F5F5F5F5F5E2F5F5F5F5F5F5F5F5F5F5F5F5F5F5F5F5F5F5F5F5F5F5F5F5F5F5F5F5F5F5F5F5F5F5F5F5F5F5F5F5F5F5F5F5F5F5F5F5F5F5F5F5F5F5F5F5F5F5F5F5F5F5F5F5F5F5F5F5F5F5F5
310
F5F5F5F5F5F5F5F5F5F5F5F5F5F5F5F5F5F5F5F5F5F5F5F5F5F5F5F5F5F5F5F5F5F5F5F5F5F5F5F5F5F5F5F5F5F5F5F5F5F5F5F5F5F5F5F5F5F5F5F5F5F5F5E2F5F5F5F5F5F5F5F5F5F5F5F5F5F5F5F5E2F5F5F5F5E2E2F5F5F5F5E2F5F5F5F5F5F5F5F5F5F5F5F5F5F5F5F5E2F5F5F5F5F5F5F5F5F5F5F5F5F5F5F5F5F5F5
310
F5F5F5F5F5F5F5F5F5F5F5F5F5F5F5F5F5F5F5F5F5F5F5F5F5F5F5F5F5F5F5F5F5F5F5F5F5F5F5F5F5F5F5F5F5F5F5F5F5F5F5F5F5F5F5F5F5F5F5F5F5F5F5F5F5F5F5F5F5F5F5F5F5F5F5F5F5F5F5F5F5F5F5F5F5F5F5F5F5F5F5F5F5F5F5F5F5F5F5F5F5F5F5F5F5F5F5F5F5F5F5F5F5F5F5F5E2F5F5F5F5F5F5F5F5F5F5
310
F5F5F5F5F5F5E2F5F5F5F5E2E2F5F5F5F5E2F5F5F5F5F5F5F5F5F5F5F5F5F5F5F5F5E2F5F5F5F5F5F5F5F5F5F5F5F5F5F5F5F5F5F5F5F5F5F5F5F5F5F5F5F5F5F5F5F5F5F5F5F5F5F5F5F5F5F5F5F5F5F5F5F5F5F5F5F5F5F5F5F5F5F5F5F5F5F5F5F5F5F5F5F5F5F5F5F5F5F5F5F5F5F5F5F5F5F5F5F5F5F5F5F5F5F5F5F5
310
F5F5F5F5F5F5F5F5F5F5F5F5F5F5F5F5F5F5F5F5F5F5F5F5F5F5F5F5F5F5F5F5F5F5F5F5F5F5F5F5F5F5E2F5F5F5F5F5F5F5F5F5F5F5F5F5F5F5F5E2F5F5F5F5E2E2F5F5F5F5E2F5F5F5F5F5F5F5F5F5F5F5F5F5F5F5F5E2F5F5F5F5F5F5F5F5F5F5F5F5F5F5F5F5F5F5F5F5F5F5F5F5F5F5F5F5F5F5F5F5F5F5F5F5F5F5F5
310
F5F5F5F5F5F5F5F5F5F5F5F5F5F5F5F5F5F5F5F5F5F5F5F5F5F5F5F5F5F5F5F5F5F5F5F5F5F5F5F5F5F5F5F5F5F5F5F5F5F5F5F5F5F5F5F5F5F5F5F5F5F5F5F5F5F5F5F5F5F5F5F5F5F5F5F5F5F5F5F5F5F5F5F5F5F5F5F5F5F5F5F5F5F5F5E2F5F5F5F5F5F5F5F5F5F5F5F5F5F5F5F5E2F5F5F5F5E2E2F5F5F5F5E2F5F5F5
310
F5F5F5F5F5F5F5F5F5F5F5F5F5E2F5F5F5F5F5F5F5F5F5F5F5F5F5F5F5F5F5F5F5F5F5F5F5F5F5F5F5F5F5F5F5F5F5F5F5F5F5F5F5F5F5F5F5F5F5F5F5F5F5F5F5F5F5F5F5F5F5F5F5F5F5F5F5F5F5F5F5F5F5F5F5F5F5F5F5F5F5F5F5F5F5F5F5F5F5F5F5F5F5F5F5F5F5F5F5F5F5F5F5F5F5F5F5F5F5F5F5F5F5F5F5F5F5
310
F5F5F5F5F5F5F5F5F5F5F5F5F5F5F5F5F5F5F5F5F5E2F5F5F5F5F5F5F5F5F5F5F5F5F5F5F5F5E2F5F5F5F5E2E2F5F5F5F5E2F5F5F5F5F5F5F5F5F5F5F5F5F5F5F5F5E2F5F5F5F5F5F5F5F5F5F5F5F5F5F5F5F5F5F5F5F5F5F5F5F5F5F5F5F5F5F5F5F5F5F5F5F5F5F5F5F5F5F5F5F5F5F5F5F5F5F5F5F5F5F5F5F5F5F5F5F5
310
F5F5F5F5F5F5F5F5F5F5F5F5F5F5F5F5F5F5F5F5F5F5F5F5F5F5F5F5F5F5F5F5F5F5F5F5F5F5F5F5F5F5F5F5F5F5F5F5F5F5F5F5F5F5F5F5F5F5F5F5F5F5F5F5F5F5F5F5F5F5F5F5F5F5E2F5F5F5F5F5F5F5F5F5F5F5F5F5F5F5F5E2F5F5F5F5E2E2F5F5F5F5E2F5F5F5F5F5F5F5F5F5F5F5F5F5F5F5F5E2F5F5F5F5F5F5F5
310
F5F5F5F5F5F5F5F5F5F5F5F5F5F5F5F5F5F5F5F5F5F5F5F5F5F5F5F5F5F5F5F5F5F5F5F5F5F5F5F5F5F5F5F5F5F5F5F5F5F5F5F5F5F5F5F5F5F5F5F5F5F5F5F5F5F5F5F5F5F5F5F5F5F5F5F5F5F5F5F5F5F5F5F5F5F5F5F5F5F5F5F5F5F5F5F5F5F5F5F5F5F5F5F5F5F5F5F5F5F5F5F5F5F5F5F5F5F5F5F5F5F5F5F5F5F5F5
310
E2F5F5F5F5F5F5F5F5F5F5F5F5F5F5F5F5E2F5F5F5F5E2E2F5F5F5F5E2F5F5F5F5F5F5F5F5F5F5F5F5F5F5F5F5E2F5F5F5F5F5F5F5F5F5F5F5F5F5F5F5F5F5F5F5F5F5F5F5F5F5F5F5F5F5F5F5F5F5F5F5F5F5F5F5F5F5F5F5F5F5F5F5F5F5F5F5F5F5F5F5F5F5F5F5F5F5F5F5F5F5F5F5F5F5F5F5F5F5F5F5F5F5F5F5F5F5
310
F5F5F5F5F5F5F5F5F5F5F5F5F5F5F5F5F5F5F5F5F5F5F5F5F5F5F5F5F5F5F5F5F5F5F5F5F5F5F5F5F5F5F5F5F5F5F5F5F5F5F5F5F5E2F5F5F5F5F5F5F5F5F5F5F5F5F5F5F5F5E2F5F5F5F5E2E2F5F5F5F5E2F5F5F5F5F5F5F5F5F5F5F5F5F5F5F5F5E2F5F5F5F5F5F5F5F5F5F5F5F5F5F5F5F5F5F5F5F5F5F5F5F5F5F5F5F5
310
F5F5F5F5F5F5F5F5F5F5F5F5F5F5F5F5F5F5F5F5F5F5F5F5F5F5F5F5F5F5F5F5F5F5F5F5F5F5F5F5F5F5F5F5F5F5F5F5F5F5F5F5F5F5F5F5F5F5F5F5F5F5F5F5F5F5F5F5F5F5F5F5F5F5F5F5F5F5F5F5F5F5F5F5F5F5F5F5F5F5F5F5F5F5F5F5F5F5F5F5F5F5F5F5F5F5E2F5F5F5F5F5F5F5F5F5F5F5F5F5F5F5F5E2F5F5F5
310
F5E2E2F5F5F5F5E2F5F5F5F5F5F5F5F5F5F5F5F5F5F5F5F5E2F5F5F5F5F5F5F5F5F5F5F5F5F5F5F5F5F5F5F5F5F5F5F5F5F5F5F5F5F5F5F5F5F5F5F5F5F5F5F5F5F5F5F5F5F5F5F5F5F5F5F5F5F5F5F5F5F5F5F5F5F5F5F5F5F5F5F5F5F5F5F5F5F5F5F5F5F5F5F5F5F5F5F5F5F5F5F5F5F5F5F5F5F5F5F5F5F5F5F5F5F5F5
310
F5F5F5F5F5F5F5F5F5F5F5F5F5F5F5F5F5F5F5F5F5F5F5F5F5F5F5F5F5F5F5F5E2F5F5F5F5F5F5F5F5F5F5F5F5F5F5F5F5E2F5F5F5F5E2E2F5F5F5F5E2F5F5F5F5F5F5F5F5F5F5F5F5F5F5F5F5E2F5F5F5F5F5F5F5F5F5F5F5F5F5F5F5F5F5F5F5F5F5F5F5F5F5F5F5F5F5F5F5F5F5F5F5F5F5F5F5F5F5F5F5F5F5F5F5F5F5
310
F5F5F5F5F5F5F5F5F5F5F5F5F5F5F5F5F5F5F5F5F5F5F5F5F5F5F5F5F5F5F5F5F5F5F5F5F5F5F5F5F5F5F5F5F5F5F5F5F5F5F5F5F5F5F5F5F5F5F5F5F5F5F5F5F5F5F5F5F5F5F5F5F5F5F5F5F5F5F5F5F5F5F5F5F5E2F5F5F5F5F5F5F5F5F5F5F5F5F5F5F5F5E2F5F5F5F5E2E2F5F5F5F5E2F5F5F5F5F5F5F5F5F5F5F5F5F5
310
F5F5F5E2F5F5F5F5F5F5F5F5F5F5F5F5F5F5F5F5F5F5F5F5F5F5F5F5F5F5F5F5F5F5F5F5F5F5F5F5F5F5F5F5F5F5F5F5F5F5F5F5F5F5F5F5F5F5F5F5F5F5F5F5F5F5F5F5F5F5F5F5F5F5F5F5F5F5F5F5F5F5F5F5F5F5F5F5F5F5F5F5F5F5F5F5F5F5F5F5F5F5F5F5F5F5F5F5F5F5F5F5F5F5F5F5F5F5F5F5F5F5F5F5F5F5F5
310
F5F5F5F5F5F5F5F5F5F5F5E2F5F5F5F5F5F5F5F5F5F5F5F5F5F5F5F5E2F5F5F5F5E2E2F5F5F5F5E2F5F5F5F5F5F5F5F5F5F5F5F5F5F5F5F5E2F5F5F5F5F5F5F5F5F5F5F5F5F5F5F5F5F5F5F5F5F5F5F5F5F5F5F5F5F5F5F5F5F5F5F5F5F5F5F5F5F5F5F5F5F5F5F5F5F5F5F5F5F5F5F5F5F5F5F5F5F5F5F5F5F5F5F5F5F5F5
310
F5F5F5F5F5F5F5F5F5F5F5F5F5F5F5F5F5F5F5F5F5F5F5F5F5F5F5F5F5F5F5F5F5F5F5F5F5F5F5F5F5F5F5F5F5F5F5F5F5F5F5F5F5F5F5F5F5F5F5F5F5F5F5F5E2F5F5F5F5F5F5F5F5F5F5F5F5F5F5F5F5E2F5F5F5F5E2E2F5F5F5F5E2F5F5F5F5F5F5F5F5F5F5F5F5F5F5F5F5E2F5F5F5F5F5F5F5F5F5F5F5F5F5F5F5F5F5
310
F5F5F5F5F5F5F5F5F5F5F5F5F5F5F5F5F5F5F5F5F5F5F5F5F5F5F5F5F5F5F5F5F5F5F5F5F5F5F5F5F5F5F5F5F5F5F5F5F5F5F5F5F5F5F5F5F5F5F5F5F5F5F5F5F5F5F5F5F5F5F5F5F5F5F5F5F5F5F5F5F5F5F5F5F5F5F5F5F5F5F5F5F5F5F5F5F5F5F5F5F5F5F5F5F5F5F5F5F5F5F5F5F5F5F5F5F5E2F5F5F5F5F5F5F5F5F5
310
F5F5F5F5F5F5F5E2F5F5F5F5E2E2F5F5F5F5E2F5F5F5F5F5F5F5F5F5F5F5F5F5F5F5F5E2F5F5F5F5F5F5F5F5F5F5F5F5F5F5F5F5F5F5F5F5F5F5F5F5F5F5F5F5F5F5F5F5F5F5F5F5F5F5F5F5F5F5F5F5F5F5F5F5F5F5F5F5F5F5F5F5F5F5F5F5F5F5F5F5F5F5F5F5F5F5F5F5F5F5F5F5F5F5F5F5F5F5F5F5F5F5F5F5F5F5F5
310
F5F5F5F5F5F5F5F5F5F5F5F5F5F5F5F5F5F5F5F5F5F5F5F5F5F5F5F5F5F5F5F5F5F5F5F5F5F5F5F5F5F5F5E2F5F5F5F5F5F5F5F5F5F5F5F5F5F5F5F5E2F5F5F5F5E2E2F5F5F5F5E2F5F5F5F5F5F5F5F5F5F5F5F5F5F5F5F5E2F5F5F5F5F5F5F5F5F5F5F5F5F5F5F5F5F5F5F5F5F5F5F5F5F5F5F5F5F5F5F5F5F5F5F5F5F5F5
310
F5F5F5F5F5F5F5F5F5F5F5F5F5F5F5F5F5F5F5F5F5F5F5F5F5F5F5F5F5F5F5F5F5F5F5F5F5F5F5F5F5F5F5F5F5F5F5F5F5F5F5F5F5F5F5F5F5F5F5F5F5F5F5F5F5F5F5F5F5F5F5F5F5F5F5F5F5F5F5F5F5F5F5F5F5F5F5F5F5F5F5F5F5F5F5F5E2F5F5F5F5F5F5F5F5F5F5F5F5F5F5F5F5E2F5F5F5F5E2E2F5F5F5F5E2F5F5
310
F5F5F5F5F5F5F5F5F5F5F5F5F5F5E2F5F5F5F5F5F5F5F5F5F5F5F5F5F5F5F5F5F5F5F5F5F5F5F5F5F5F5F5F5F5F5F5F5F5F5F5F5F5F5F5F5F5F5F5F5F5F5F5F5F5F5F5F5F5F5F5F5F5F5F5F5F5F5F5F5F5F5F5F5F5F5F5F5F5F5F5F5F5F5F5F5F5F5F5F5F5F5F5F5F5F5F5F5F5F5F5F5F5F5F5F5F5F5F5F5F5F5F5F5F5F5F5
310
F5F5F5F5F5F5F5F5F5F5F5F5F5F5F5F5F5F5F5F5F5F5E2F5F5F5F5F5F5F5F5F5F5F5F5F5F5F5F5E2F5F5F5F5E2E2F5F5F5F5F5F5F5F5F5F5F5F5F5F5F5F5F5F5F5F5F5E2F5F5F5F5F5F5F5F5F5F5F5F5F5F5F5F5F5F5F5F5F5F5F5F5F5F5F5F5F5F5F5F5F5F5F5F5F5F5F5F5F5F5F5F5F5F5F5F5F5F5F5F5F5F5F5F5F5F5F5
310
F5F5F5F5F5F5F5F5F5F5F5F5F5F5F5F5F5F5F5F5F5F5F5F5F5F5F5F5F5F5F5F5F5F5F5F5F5F5F5F5F5F5F5F5F5F5F5F5F5F5F5F5F5F5F5F5F5F5F5F5F5F5F5F5F5F5F5F5F5F5F5F5F5F5F5E2F5F5F5F5F5F5F5F5F5F5F5F5F5F5F5F5F5F5F5F5F5E2E2F5F5F5F5F5F5F5F5F5F5F5F5F5F5F5F5F5F5F5F5F5E2F5F5F5F5F5F5
310
F5F5F5F5F5F5F5F5F5F5F5F5F5F5F5F5F5F5F5F5F5F5F5F5F5F5F5F5F5F5F5F5F5F5F5F5F5F5F5F5F5F5F5F5F5F5F5F5F5F5F5F5F5F5F5F5F5F5F5F5F5F5F5F5F5F5F5F5F5F5F5F5F5F5F5F5F5F5F5F5F5F5F5F5F5F5F5F5F5F5F5F5F5F5F5F5F5F5F5F5F5F5F5F5F5F5F5F5F5F5F5F5F5F5F5F5F5F5F5F5F5F5F5F5F5F5F5
310
F5E2F5F5F5F5F5F5F5F5F5F5F5F5F5F5F5F5F5F5F5F5F5E2E2F5F5F5F5F5F5F5F5F5F5F5F5F5F5F5F5F5F5F5F5F5E2F5F5F5F5F5F5F5F5F5F5F5F5F5F5F5F5F5F5F5F5F5F5F5F5F5F5F5F5F5F5F5F5F5F5F5F5F5F5F5F5F5F5F5F5F5F5F5F5F5F5F5F5F5F5F5F5F5F5F5F5F5F5F5F5F5F5F5F5F5F5F5F5F5F5F5F5F5F5F5F5
310
F5F5F5F5F5F5F5F5F5F5F5F5F5F5F5F5F5F5F5F5F5F5F5F5F5F5F5F5F5F5F5F5F5F5F5F5F5F5F5F5F5F5F5F5F5F5F5F5F5F5F5F5F5F5E2F5F5F5F5F5F5F5F5F5F5F5F5F5F5F5F5F5F5F5F5F5E2E2F5F5F5F5F5F5F5F5F5F5F5F5F5F5F5F5F5F5F5F5F5E2F5F5F5F5F5F5F5F5F5F5F5F5F5F5F5F5F5F5F5F5F5F5F5F5F5F5F5
310
F5F5F5F5F5F5F5F5F5F5F5F5F5F5F5F5F5F5F5F5F5F5F5F5F5F5F5F5F5F5F5F5F5F5F5F5F5F5F5F5F5F5F5F5F5F5F5F5F5F5F5F5F5F5F5F5F5F5F5F5F5F5F5F5F5F5F5F5F5F5F5F5F5F5F5F5F5F5F5F5F5F5F5F5F5F5F5F5F5F5F5F5F5F5F5F5F5F5F5F5F5F5F5F5F5F5F5E2F5F5F5F5F5F5F5F5F5F5F5F5F5F5F5F5F5F5F5
310
F5F5E2E2F5F5F5F5F5F5F5F5F5F5F5F5F5F5F5F5F5F5F5F5F5E2F5F5F5F5F5F5F5F5F5F5F5F5F5F5F5F5F5F5F5F5F5F5F5F5F5F5F5F5F5F5F5F5F5F5F5F5F5F5F5F5F5F5F5F5F5F5F5F5F5F5F5F5F5F5F5F5F5F5F5F5F5F5F5F5F5F5F5F5F5F5F5F5F5F5F5F5F5F5F5F5F5F5F5F5F5F5F5F5F5F5F5F5F5F5F5F5F5F5F5F5F5
310
F5F5F5F5F5F5F5F5F5F5F5F5F5F5F5F5F5F5F5F5F5F5F5F5F5F5F5F5F5F5F5F5F5E2F5F5F5F5F5F5F5F5F5F5F5F5F5F5F5F5F5F5F5F5F5E2E2F5F5F5F5F5F5F5F5F5F5F5F5F5F5F5F5F5F5F5F5F5E2F5F5F5F5F5F5F5F5F5F5F5F5F5F5F5F5F5F5F5F5F5F5F5F5F5F5F5F5F5F5F5F5F5F5F5F5F5F5F5F5F5F5F5F5F5F5F5F5
310
F5F5F5F5F5F5F5F5F5F5F5F5F5F5F5F5F5F5F5F5F5F5F5F5F5F5F5F5F5F5F5F5F5F5F5F5F5F5F5F5F5F5F5F5F5F5F5F5F5F5F5F5F5F5F5F5F5F5F5F5F5F5F5F5F5F5F5F5F5F5F5F5F5F5F5F5F5F5F5F5F5F5F5F5F5F5E2F5F5F5F5F5F5F5F5F5F5F5F5F5F5F5F5F5F5F5F5F5E2E2F5F5F5F5F5F5F5F5F5F5F5F5F5F5F5F5F5
310
F5F5F5F5E2F5F5F5F5F5F5F5F5F5F5F5F5F5F5F5F5F5F5F5F5F5F5F5F5F5F5F5F5F5F5F5F5F5F5F5F5F5F5F5F5F5F5F5F5F5F5F5F5F5F5F5F5F5F5F5F5F5F5F5F5F5F5F5F5F5F5F5F5F5F5F5F5F5F5F5F5F5F5F5F5F5F5F5F5F5F5F5F5F5F5F5F5F5F5F5F5F5F5F5F5F5F5F5F5F5F5F5F5F5F5F5F5F5F5F5F5F5F5F5F5F5F5
310
F5F5F5F5F5F5F5F5F5F5F5F5E2F5F5F5F5F5F5F5F5F5F5F5F5F5F5F5F5F5F5F5F5F5E2E2F5F5F5F5F5F5F5F5F5F5F5F5F5F5F5F5F5F5F5F5F5E2F5F5F5F5F5F5F5F5F5F5F5F5F5F5F5F5F5F5F5F5F5F5F5F5F5F5F5F5F5F5F5F5F5F5F5F5F5F5F5F5F5F5F5F5F5F5F5F5F5F5F5F5F5F5F5F5F5F5F5F5F5F5F5F5F5F5F5F5F5
310
F5F5F5F5F5F5F5F5F5F5F5F5F5F5F5F5F5F5F5F5F5F5F5F5F5F5F5F5F5F5F5F5F5F5F5F5F5F5F5F5F5F5F5F5F5F5F5F5F5F5F5F5F5F5F5F5F5F5F5F5F5F5F5F5F5E2F5F5F5F5F5F5F5F5F5F5F5F5F5F5F5F5F5F5F5F5F5E2E2F5F5F5F5F5F5F5F5F5F5F5F5F5F5F5F5F5F5F5F5F5E2F5F5F5F5F5F5F5F5F5F5F5F5F5F5F5F5
310
F5F5F5F5F5F5F5F5F5F5F5F5F5F5F5F5F5F5F5F5F5F5F5F5F5F5F5F5F5F5F5F5F5F5F5F5F5F5F5F5F5F5F5F5F5F5F5F5F5F5F5F5F5F5F5F5F5F5F5F5F5F5F5F5F5F5F5F5F5F5F5F5F5F5F5F5F5F5F5F5F5F5F5F5F5F5F5F5F5F5F5F5F5F5F5F5F5F5F5F5F5F5F5F5F5F5F5F5F5F5F5F5F5F5F5F5F5F5E2F5F5F5F5F5F5F5F5
310
F5F5F5F5F5F5F5F5F5F5F5F5F5E2E2F5F5F5F5E2F5F5F5F5F5F5F5F5F5F5F5F5F5F5F5F5E2F5F5F5F5F5F5F5F5F5F5F5F5F5F5F5F5F5F5F5F5F5F5F5F5F5F5F5F5F5F5F5F5F5F5F5F5F5F5F5F5F5F5F5F5F5F5F5F5F5F5F5F5F5F5F5F5F5F5F5F5F5F5F5F5F5F5F5F5F5F5F5F5F5F5F5F5F5F5F5F5F5F5F5F5F5F5F5F5F5F5
310
F5F5F5F5F5F5F5F5F5F5F5F5F5F5F5F5F5F5F5F5F5F5F5F5F5F5F5F5F5F5F5F5F5F5F5F5F5F5F5F5F5F5F5F5E2F5F5F5F5F5F5F5F5F5F5F5F5F5F5F5F5E2F5F5F5F5E2E2F5F5F5F5E2F5F5F5F5F5F5F5F5F5F5F5F5F5F5F5F5E2F5F5F5F5F5F5F5F5F5F5F5F5F5F5F5F5F5F5F5F5F5F5F5F5F5F5F5F5F5F5F5F5F5F5F5F5F5
310
F5F5F5F5F5F5F5F5F5F5F5F5F5F5F5F5F5F5F5F5F5F5F5F5F5F5F5F5F5F5F5F5F5F5F5F5F5F5F5F5F5F5F5F5F5F5F5F5F5F5F5F5F5F5F5F5F5F5F5F5F5F5F5F5F5F5F5F5F5F5F5F5F5F5F5F5F5F5F5F5F5F5F5F5F5F5F5F5F5F5F5F5F5F5F5F5F5E2F5F5F5F5F5F5F5F5F5F5F5F5F5F5F5F5E2F5F5F5F5E2E2F5F5F5F5E2F5
310
F5F5F5F5F5F5F5F5F5F5F5F5F5F5F5E2F5F5F5F5F5F5F5F5F5F5F5F5F5F5F5F5F5F5F5F5F5F5F5F5F5F5F5F5F5F5F5F5F5F5F5F5F5F5F5F5F5F5F5F5F5F5F5F5F5F5F5F5F5F5F5F5F5F5F5F5F5F5F5F5F5F5F5F5F5F5F5F5F5F5F5F5F5F5F5F5F5F5F5F5F5F5F5F5F5F5F5F5F5F5F5F5F5F5F5F5F5F5F5F5F5F5F5F5F5F5F5
310
F5F5F5F5F5F5F5F5F5F5F5F5F5F5F5F5F5F5F5F5F5F5F5E2F5F5F5F5F5F5F5F5F5F5F5F5F5F5F5F5E2F5F5F5F5E2E2F5F5F5F5E2F5F5F5F5F5F5F5F5F5F5F5F5F5F5F5F5E2F5F5F5F5F5F5F5F5F5F5F5F5F5F5F5F5F5F5F5F5F5F5F5F5F5F5F5F5F5F5F5F5F5F5F5F5F5F5F5F5F5F5F5F5F5F5F5F5F5F5F5F5F5F5F5F5F5F5
310
F5F5F5F5F5F5F5F5F5F5F5F5F5F5F5F5F5F5F5F5F5F5F5F5F5F5F5F5F5F5F5F5F5F5F5F5F5F5F5F5F5F5F5F5F5F5F5F5F5F5F5F5F5F5F5F5F5F5F5F5F5F5F5F5F5F5F5F5F5F5F5F5F5F5F5F5E2F5F5F5F5F5F5F5F5F5F5F5F5F5F5F5F5E2F5F5F5F5E2E2F5F5F5F5E2F5F5F5F5F5F5F5F5F5F5F5F5F5F5F5F5E2F5F5F5F5F5
310
F5F5F5F5F5F5F5F5F5F5F5F5F5F5F5F5F5F5F5F5F5F5F5F5F5F5F5F5F5F5F5F5F5F5F5F5F5F5F5F5F5F5F5F5F5F5F5F5F5F5F5F5F5F5F5F5F5F5F5F5F5F5F5F5F5F5F5F5F5F5F5F5F5F5F5F5F5F5F5F5F5F5F5F5F5F5F5F5F5F5F5F5F5F5F5F5F5F5F5F5F5F5F5F5F5F5F5F5F5F5F5F5F5F5F5F5F5F5F5F5F5F5F5F5F5F5F5
310
F5F5E2F5F5F5F5F5F5F5F5F5F5F5F5F5F5F5F5E2F5F5F5F5E2E2F5F5F5F5E2F5F5F5F5F5F5F5F5F5F5F5F5F5F5F5F5E2F5F5F5F5F5F5F5F5F5F5F5F5F5F5F5F5F5F5F5F5F5F5F5F5F5F5F5F5F5F5F5F5F5F5F5F5F5F5F5F5F5F5F5F5F5F5F5F5F5F5F5F5F5F5F5F5F5F5F5F5F5F5F5F5F5F5F5F5F5F5F5F5F5F5F5F5F5F5F5
310
F5F5F5F5F5F5F5F5F5F5F5F5F5F5F5F5F5F5F5F5F5F5F5F5F5F5F5F5F5F5F5F5F5F5F5F5F5F5F5F5F5F5F5F5F5F5F5F5F5F5F5F5F5F5F5E2F5F5F5F5F5F5F5F5F5F5F5F5F5F5F5F5E2F5F5F5F5E2E2F5F5F5F5E2F5F5F5F5F5F5F5F5F5F5F5F5F5F5F5F5E2F5F5F5F5F5F5F5F5F5F5F5F5F5F5F5F5F5F5F5F5F5F5F5F5F5F5
310
F5F5F5F5F5F5F5F5F5F5F5F5F5F5F5F5F5F5F5F5F5F5F5F5F5F5F5F5F5F5F5F5F5F5F5F5F5F5F5F5F5F5F5F5F5F5F5F5F5F5F5F5F5F5F5F5F5F5F5F5F5F5F5F5F5F5F5F5F5F5F5F5F5F5F5F5F5F5F5F5F5F5F5F5F5F5F5F5F5F5F5F5F5F5F5F5F5F5F5F5F5F5F5F5F5F5F5F5E2F5F5F5F5F5F5F5F5F5F5F5F5F5F5F5F5E2F5
310
F5F5F5E2E2F5F5F5F5E2F5F5F5F5F5F5F5F5F5F5F5F5F5F5F5F5E2F5F5F5F5F5F5F5F5F5F5F5F5F5F5F5F5F5F5F5F5F5F5F5F5F5F5F5F5F5F5F5F5F5F5F5F5F5F5F5F5F5F5F5F5F5F5F5F5F5F5F5F5F5F5F5F5F5F5F5F5F5F5F5F5F5F5F5F5F5F5F5F5F5F5F5F5F5F5F5F5F5F5F5F5F5F5F5F5F5F5F5F5F5F5F5F5F5F5F5F5
310
F5F5F5F5F5F5F5F5F5F5F5F5F5F5F5F5F5F5F5F5F5F5F5F5F5F5F5F5F5F5F5F5F5F5E2F5F5F5F5F5F5F5F5F5F5F5F5F5F5F5F5E2F5F5F5F5E2E2F5F5F5F5E2F5F5F5F5F5F5F5F5F5F5F5F5F5F5F5F5E2F5F5F5F5F5F5F5F5F5F5F5F5F5F5F5F5F5F5F5F5F5F5F5F5F5F5F5F5F5F5F5F5F5F5F5F5F5F5F5F5F5F5F5F5F5F5F5
310
F5F5F5F5F5F5F5F5F5F5F5F5F5F5F5F5F5F5F5F5F5F5F5F5F5F5F5F5F5F5F5F5F5F5F5F5F5F5F5F5F5F5F5F5F5F5F5F5F5F5F5F5F5F5F5F5F5F5F5F5F5F5F5F5F5F5F5F5F5F5F5F5F5F5F5F5F5F5F5F5F5F5F5F5F5F5F5E2F5F5F5F5F5F5F5F5F5F5F5F5F5F5F5F5E2F5F5F5F5E2E2F5F5F5F5E2F5F5F5F5F5F5F5F5F5F5F5
310
F5F5F5F5F5E2F5F5F5F5F5F5F5F5F5F5F5F5F5F5F5F5F5F5F5F5F5F5F5F5F5F5F5F5F5F5F5F5F5F5F5F5F5F5F5F5F5F5F5F5F5F5F5F5F5F5F5F5F5F5F5F5F5F5F5F5F5F5F5F5F5F5F5F5F5F5F5F5F5F5F5F5F5F5F5F5F5F5F5F5F5F5F5F5F5F5F5F5F5F5F5F5F5F5F5F5F5F5F5F5F5F5F5F5F5F5F5F5F5F5F5F5F5F5F5F5F5
310
F5F5F5F5F5F5F5F5F5F5F5F5F5E2F5F5F5F5F5F5F5F5F5F5F5F5F5F5F5F5E2F5F5F5F5E2E2F5F5F5F5E2F5F5F5F5F5F5F5F5F5F5F5F5F5F5F5F5E2F5F5F5F5F5F5F5F5F5F5F5F5F5F5F5F5F5F5F5F5F5F5F5F5F5F5F5F5F5F5F5F5F5F5F5F5F5F5F5F5F5F5F5F5F5F5F5F5F5F5F5F5F5F5F5F5F5F5F5F5F5F5F5F5F5F5F5F5
310
F5F5F5F5F5F5F5F5F5F5F5F5F5F5F5F5F5F5F5F5F5F5F5F5F5F5F5F5F5F5F5F5F5F5F5F5F5F5F5F5F5F5F5F5F5F5F5F5F5F5F5F5F5F5F5F5F5F5F5F5F5F5F5F5F5F5E2F5F5F5F5F5F5F5F5F5F5F5F5F5F5F5F5E2F5F5F5F5E2E2F5F5F5F5E2F5F5F5F5F5F5F5F5F5F5F5F5F5F5F5F5E2F5F5F5F5F5F5F5F5F5F5F5F5F5F5F5
310
F5F5F5F5F5F5F5F5F5F5F5F5F5F5F5F5F5F5F5F5F5F5F5F5F5F5F5F5F5F5F5F5F5F5F5F5F5F5F5F5F5F5F5F5F5F5F5F5F5F5F5F5F5F5F5F5F5F5F5F5F5F5F5F5F5F5F5F5F5F5F5F5F5F5F5F5F5F5F5F5F5F5F5F5F5F5F5F5F5F5F5F5F5F5F5F5F5F5F5F5F5F5F5F5F5F5F5F5F5F5F5F5F5F5F5F5F5F5F5E2F5F5F5F5F5F5F5
310
F5F5F5F5F5F5F5F5F5E2F5F5F5F5E2E2F5F5F5F5E2F5F5F5F5F5F5F5F5F5F5F5F5F5F5F5F5E2F5F5F5F5F5F5F5F5F5F5F5F5F5F5F5F5F5F5F5F5F5F5F5F5F5F5F5F5F5F5F5F5F5F5F5F5F5F5F5F5F5F5F5F5F5F5F5F5F5F5F5F5F5F5F5F5F5F5F5F5F5F5F5F5F5F5F5F5F5F5F5F5F5F5F5F5F5F5F5F5F5F5F5F5F5F5F5F5F5
310
F5F5F5F5F5F5F5F5F5F5F5F5F5F5F5F5F5F5F5F5F5F5F5F5F5F5F5F5F5F5F5F5F5F5F5F5F5F5F5F5F5F5F5F5F5E2F5F5F5F5F5F5F5F5F5F5F5F5F5F5F5F5E2F5F5F5F5E2E2F5F5F5F5E2F5F5F5F5F5F5F5F5F5F5F5F5F5F5F5F5E2F5F5F5F5F5F5F5F5F5F5F5F5F5F5F5F5F5F5F5F5F5F5F5F5F5F5F5F5F5F5F5F5F5F5F5F5
310
F5F5F5F5F5F5F5F5F5F5F5F5F5F5F5F5F5F5F5F5F5F5F5F5F5F5F5F5F5F5F5F5F5F5F5F5F5F5F5F5F5F5F5F5F5F5F5F5F5F5F5F5F5F5F5F5F5F5F5F5F5F5F5F5F5F5F5F5F5F5F5F5F5F5F5F5F5F5F5F5F5F5F5F5F5F5F5F5F5F5F5F5F5F5F5F5F5F5E2F5F5F5F5F5F5F5F5F5F5F5F5F5F5F5F5E2F5F5F5F5E2E2F5F5F5F5E2
310
F5F5F5F5F5F5F5F5F5F5F5F5F5F5F5F5E2F5F5F5F5F5F5F5F5F5F5F5F5F5F5F5F5F5F5F5F5F5F5F5F5F5F5F5F5F5F5F5F5F5F5F5F5F5F5F5F5F5F5F5F5F5F5F5F5F5F5F5F5F5F5F5F5F5F5F5F5F5F5F5F5F5F5F5F5F5F5F5F5F5F5F5F5F5F5F5F5F5F5F5F5F5F5F5F5F5F5F5F5F5F5F5F5F5F5F5F5F5F5F5F5F5F5F5F5F5F5
310
F5F5F5F5F5F5F5F5F5F5F5F5F5F5F5F5F5F5F5F5F5F5F5F5E2F5F5F5F5F5F5F5F5F5F5F5F5F5F5F5F5E2F5F5F5F5E2E2F5F5F5F5E2F5F5F5F5F5F5F5F5F5F5F5F5F5F5F5F5E2F5F5F5F5F5F5F5F5F5F5F5F5F5F5F5F5F5F5F5F5F5F5F5F5F5F5F5F5F5F5F5F5F5F5F5F5F5F5F5F5F5F5F5F5F5F5F5F5F5F5F5F5F5F5F5F5F5
310
F5F5F5F5F5F5F5F5F5F5F5F5F5F5F5F5F5F5F5F5F5F5F5F5F5F5F5F5F5F5F5F5F5F5F5F5F5F5F5F5F5F5F5F5F5F5F5F5F5F5F5F5F5F5F5F5F5F5F5F5F5F5F5F5F5F5F5F5F5F5F5F5F5F5F5F5F5E2F5F5F5F5F5F5F5F5F5F5F5F5F5F5F5F5E2F5F5F5F5E2E2F5F5F5F5E2F5F5F5F5F5F5F5F5F5F5F5F5F5F5F5F5E2F5F5F5F5
310
F5F5F5F5F5F5F5F5F5F5F5F5F5F5F5F5F5F5F5F5F5F5F5F5F5F5F5F5F5F5F5F5F5F5F5F5F5F5F5F5F5F5F5F5F5F5F5F5F5F5F5F5F5F5F5F5F5F5F5F5F5F5F5F5F5F5F5F5F5F5F5F5F5F5F5F5F5F5F5F5F5F5F5F5F5F5F5F5F5F5F5F5F5F5F5F5F5F5F5F5F5F5F5F5F5F5F5F5F5F5F5F5F5F5F5F5F5F5F5F5F5F5F5F5F5F5F5
310
F5F5F5E2F5F5F5F5F5F5F5F5F5F5F5F5F5F5F5F5E2F5F5F5F5E2E2F5F5F5F5F5F5F5F5F5F5F5F5F5F5F5F5F5F5F5F5F5E2F5F5F5F5F5F5F5F5F5F5F5F5F5F5F5F5F5F5F5F5F5F5F5F5F5F5F5F5F5F5F5F5F5F5F5F5F5F5F5F5F5F5F5F5F5F5F5F5F5F5F5F5F5F5F5F5F5F5F5F5F5F5F5F5F5F5F5F5F5F5F5F5F5F5F5F5F5F5
310
F5F5F5F5F5F5F5F5F5F5F5F5F5F5F5F5F5F5F5F5F5F5F5F5F5F5F5F5F5F5F5F5F5F5F5F5F5F5F5F5F5F5F5F5F5F5F5F5F5F5F5F5F5F5F5F5E2F5F5F5F5F5F5F5F5F5F5F5F5F5F5F5F5F5F5F5F5F5E2E2F5F5F5F5F5F5F5F5F5F5F5F5F5F5F5F5F5F5F5F5F5E2F5F5F5F5F5F5F5F5F5F5F5F5F5F5F5F5F5F5F5F5F5F5F5F5F5
310
F5F5F5F5F5F5F5F5F5F5F5F5F5F5F5F5F5F5F5F5F5F5F5F5F5F5F5F5F5F5F5F5F5F5F5F5F5F5F5F5F5F5F5F5F5F5F5F5F5F5F5F5F5F5F5F5F5F5F5F5F5F5F5F5F5F5F5F5F5F5F5F5F5F5F5F5F5F5F5F5F5F5F5F5F5F5F5F5F5F5F5F5F5F5F5F5F5F5F5F5F5F5F5F5F5F5F5F5F5E2F5F5F5F5F5F5F5F5F5F5F5F5F5F5F5F5F5
310
F5F5F5F5E2E2F5F5F5F5F5F5F5F5F5F5F5F5F5F5F5F5F5F5F5F5F5E2F5F5F5F5F5F5F5F5F5F5F5F5F5F5F5F5F5F5F5F5F5F5F5F5F5F5F5F5F5F5F5F5F5F5F5F5F5F5F5F5F5F5F5F5F5F5F5F5F5F5F5F5F5F5F5F5F5F5F5F5F5F5F5F5F5F5F5F5F5F5F5F5F5F5F5F5F5F5F5F5F5F5F5F5F5F5F5F5F5F5F5F5F5F5F5F5F5F5F5
310
F5F5F5F5F5F5F5F5F5F5F5F5F5F5F5F5F5F5F5F5F5F5F5F5F5F5F5F5F5F5F5F5F5F5F5E2F5F5F5F5F5F5F5F5F5F5F5F5F5F5F5F5F5F5F5F5F5E2E2F5F5F5F5F5F5F5F5F5F5F5F5F5F5F5F5F5F5F5F5F5E2F5F5F5F5F5F5F5F5F5F5F5F5F5F5F5F5F5F5F5F5F5F5F5F5F5F5F5F5F5F5F5F5F5F5F5F5F5F5F5F5F5F5F5F5F5F5
310
F5F5F5F5F5F5F5F5F5F5F5F5F5F5F5F5F5F5F5F5F5F5F5F5F5F5F5F5F5F5F5F5F5F5F5F5F5F5F5F5F5F5F5F5F5F5F5F5F5F5F5F5F5F5F5F5F5F5F5F5F5F5F5F5F5F5F5F5F5F5F5F5F5F5F5F5F5F5F5F5F5F5F5F5F5F5F5F5E2F5F5F5F5F5F5F5F5F5F5F5F5F5F5F5F5F5F5F5F5F5E2E2F5F5F5F5F5F5F5F5F5F5F5F5F5F5F5
310
F5F5F5F5F5F5E2E2E2E2E2E2E2E2E2E2E2E2E2E2E2E2E2E2E2E2E2E2E2E2E2E2E2E2E2E2E2E2E2E2E2E2E2E2E2E2E2E2E2E2E2E2E2E2E2E2E2E2E2E2E2E2E2E2E2E2E2E2E2E2E2E2E2E2E2E2E2E2E2E2E2E2E2E2E2E2E2E2E2E2E2E2E2E2E2E2E2E2E2E2E2E2E2E2E2E2E2E2E2E2E2E2E2E2E2E2E2E2E2E2E2E2E2E2E2E2E2
310
E2E2E2E2E2E2E2E2E2E2E2E2E2E2E2F5F5F5F5F5F5F5F5F5F5F5F5F5F5F5F5F5F5F5F5F5E2E2F5F5F5F5F5F5F5F5F5F5F5F5F5F5F5F5F5F5F5F5F5F5F5F5F5F5F5F5F5F5F5F5F5F5F5F5F5F5F5F5F5F5F5F5F5F5F5F5F5F5F5F5F5F5F5F5F5F5F5F5F5F5F5F5F5F5F5F5F5F5F5F5F5F5F5F5F5F5F5F5F5F5F5F5F5F5F5F5F5
310
F5F5F5F5F5F5F5F5F5F5F5F5F5F5F5F5F5F5F5F5F5F5F5F5F5F5F5F5F5F5F5F5F5F5F5F5F5F5F5F5F5F5F5F5F5F5F5F5F5F5F5F5F5F5F5F5F5F5F5F5F5F5F5F5F5F5F5F5F5F5F5F5F5F5F5F5F5F5F5F5F5F5F5F5F5F5F5F5F5E2E2F5F5F5F5F5F5F5F5F5F5F5F5F5F5F5F5F5F5F5F5F5F5F5F5F5F5F5F5F5F5F5F5F5F5F5F5
310
F5F5F5F5F5F5F5F5F5F5F5F5F5F5F5F5F5F5F5F5F5F5F5F5F5F5F5F5F5F5F5F5F5F5F5F5F5F5F5F5F5F5F5F5F5F5F5F5F5F5F5F5F5F5F5F5F5F5F5F5F5F5F5F5F5F5F5F5F5F5F5F5F5F5F5F5F5F5F5F5F5F5F5F5F5F5F5F5F5F5F5F5F5F5F5F5F5F5F5F5F5F5F5F5F5F5F5F5F5F5F5F5F5F5F5F5F5F5F5F5F5F5F5F5F5F5F5
310
F5F5F5F5F5F5F5F5F5F5F5F5F5F5F5E2E2F5F5F5F5F5F5F5F5F5F5F5F5F5F5F5F5F5F5F5F5F5F5F5F5F5F5F5F5F5F5F5F5F5F5F5F5F5F5F5F5F5F5F5F5F5F5F5F5F5F5F5F5F5F5F5F5F5F5F5F5F5F5F5F5F5F5F5F5F5F5F5F5F5F5F5F5F5F5F5F5F5F5F5F5F5F5F5F5F5F5F5F5F5F5F5F5F5F5F5F5F5F5F5F5F5F5F5F5F5F5
310
F5F5F5F5F5F5F5F5F5F5F5F5F5F5F5F5F5F5F5F5F5F5F5F5F5F5F5F5F5F5F5F5F5F5F5F5F5F5F5F5F5F5F5F5F5F5F5F5F5F5F5F5F5F5F5F5F5F5F5F5F5F5F5F5F5F5F5F5E2E2F5F5F5F5F5F5F5F5F5F5F5F5F5F5F5F5F5F5F5F5F5F5F5F5F5F5F5F5F5F5F5F5F5F5F5F5F5F5F5F5F5F5F5F5F5F5F5F5F5F5F5F5F5F5F5F5F5
310
F5F5F5F5F5F5F5F5F5F5F5F5F5F5F5F5F5F5F5F5F5F5F5F5F5F5F5F5F5F5F5F5F5F5F5F5F5F5F5F5F5F5F5F5F5F5F5F5F5F5F5F5F5F5F5F5F5F5F5F5F5F5F5F5F5F5F5F5F5F5F5F5F5F5F5F5F5F5F5F5F5F5F5F5F5F5F5F5F5F5F5F5F5F5F5F5F5F5F5F5F5F5F5F5F5F5F5F5F5F5F5F5F5F5F5F5F5F5F5F5F5E2E2F5F5F5F5
310
E2F5F5F5F5F5F5F5F5F5F5F5F5F5F5F5F5F5F5F5F5F5F5F5F5F5F5F5F5F5F5F5F5F5F5F5F5F5F5F5F5F5F5F5F5F5F5F5F5F5F5F5F5F5F5F5F5F5F5F5F5F5F5F5F5F5F5F5F5F5F5F5F5F5F5F5F5F5F5F5F5F5F5F5F5F5F5F5F5F5F5F5F5F5F5F5F5F5F5F5F5F5F5F5F5F5F5F5F5F5F5F5F5F5F5F5F5F5F5F5F5F5F5F5F5F5F5
310
F5F5F5F5F5F5F5F5F5F5F5F5F5F5F5F5F5F5F5F5F5F5F5F5F5F5F5F5F5F5F5F5F5F5F5F5F5F5F5F5F5F5E2F5F5F5F5E2E2F5F5F5F5E2F5F5F5F5F5F5F5F5F5F5F5F5F5F5F5F5F5F5F5F5F5F5F5F5F5F5F5F5F5F5F5F5F5F5F5F5F5F5F5F5F5F5F5F5F5F5F5F5F5F5F5F5F5F5F5F5F5F5F5F5F5F5F5F5F5F5F5F5F5F5F5F5F5
310
F5F5F5F5F5F5F5F5F5F5F5F5F5F5F5F5F5F5F5F5F5F5F5F5F5F5F5F5F5F5F5F5F5F5F5F5F5F5F5F5F5F5F5F5F5F5F5F5F5F5F5F5F5F5F5F5F5F5F5F5F5F5F5F5F5F5F5F5F5F5F5F5F5F5F5F5F5F5F5F5F5F5F5F5F5F5F5F5F5F5F5F5F5F5F5E2F5F5F5F5E2E2F5F5F5F5E2F5F5F5F5F5F5F5F5F5F5F5F5F5F5F5F5F5F5F5F5
310
F5F5F5F5F5F5F5F5F5F5F5F5F5F5F5F5F5F5F5F5F5F5F5F5F5F5F5F5F5F5F5F5F5F5F5F5F5F5F5F5F5F5F5F5F5F5F5F5F5F5F5F5F5F5F5F5F5F5F5F5F5F5F5F5F5F5F5F5F5F5F5F5F5F5F5F5F5F5F5F5F5F5F5F5F5F5F5F5F5F5F5F5F5F5F5F5F5F5F5F5F5F5F5F5F5F5F5F5F5F5F5F5F5F5F5F5F5F5F5F5F5F5F5F5F5F5F5
310
F5F5F5F5F5F5F5F5F5F5F5F5F5F5F5F5F5F5F5F5F5E2F5F5F5F5E2E2F5F5F5F5E2F5F5F5F5F5F5F5F5F5F5F5F5F5F5F5F5F5F5F5F5F5F5F5F5F5F5F5F5F5F5F5F5F5F5F5F5F5F5F5F5F5F5F5F5F5F5F5F5F5F5F5F5F5F5F5F5F5F5F5F5F5F5F5F5F5F5F5F5F5F5F5F5F5F5F5F5F5F5F5F5F5F5F5F5F5F5F5F5F5F5F5F5F5F5
310
F5F5F5F5F5F5F5F5F5F5F5F5F5F5F5F5F5F5F5F5F5F5F5F5F5F5F5F5F5F5F5F5F5F5F5F5F5F5F5F5F5F5F5F5F5F5F5F5F5F5F5F5F5F5F5F5F5F5F5F5F5F5F5F5F5F5F5F5F5F5F5F5F5F5E2F5F5F5F5E2E2F5F5F5F5E2F5F5F5F5F5F5F5F5F5F5F5F5F5F5F5F5F5F5F5F5F5F5F5F5F5F5F5F5F5F5F5F5F5F5F5F5F5F5F5F5F5
310
F5F5F5F5F5F5F5F5F5F5F5F5F5F5F5F5F5F5F5F5F5F5F5F5F5F5F5F5F5F5F5F5F5F5F5F5F5F5F5F5F5F5F5F5F5F5F5F5F5F5F5F5F5F5F5F5F5F5F5F5F5F5F5F5F5F5F5F5F5F5F5F5F5F5F5F5F5F5F5F5F5F5F5F5F5F5F5F5F5F5F5F5F5F5F5F5F5F5F5F5F5F5F5F5F5F5F5F5F5F5F5F5F5F5F5F5F5F5F5F5F5F5F5F5F5F5F5
310
E2F5F5F5F5E2E2F5F5F5F5E2F5F5F5F5F5F5F5F5F5F5F5F5F5F5F5F5F5F5F5F5F5F5F5F5F5F5F5F5F5F5F5F5F5F5F5F5F5F5F5F5F5F5F5F5F5F5F5F5F5F5F5F5F5F5F5F5F5F5F5F5F5F5F5F5F5F5F5F5F5F5F5F5F5F5F5F5F5F5F5F5F5F5F5F5F5F5F5F5F5F5F5F5F5F5F5F5F5F5F5F5F5F5F5F5F5F5F5F5F5F5F5F5F5F5F5
310
F5F5F5F5F5F5F5F5F5F5F5F5F5F5F5F5F5F5F5F5F5F5F5F5F5F5F5F5F5F5F5F5F5F5F5F5F5F5F5F5F5F5F5F5F5F5F5F5F5F5F5F5F5E2F5F5F5F5E2E2F5F5F5F5E2F5F5F5F5F5F5F5F5F5F5F5F5F5F5F5F5F5F5F5F5F5F5F5F5F5F5F5F5F5F5F5F5F5F5F5F5F5F5F5F5F5F5F5F5F5F5F5F5F5F5F5F5F5F5F5F5F5F5F5F5F5F5
310
F5F5F5F5F5F5F5F5F5F5F5F5F5F5F5F5F5F5F5F5F5F5F5F5F5F5F5F5F5F5F5F5F5F5F5F5F5F5F5F5F5F5F5F5F5F5F5F5F5F5F5F5F5F5F5F5F5F5F5F5F5F5F5F5F5F5F5F5F5F5F5F5F5F5F5F5F5F5F5F5F5F5F5F5F5F5F5F5F5F5F5F5F5F5F5F5F5F5F5F5F5F5F5F5F5F5E2F5F5F5F5E2E2F5F5F5F5E2F5F5F5F5F5F5F5F5F5
310
F5F5F5F5F5F5F5F5F5F5F5F5F5F5F5F5F5F5F5F5F5F5F5F5F5F5F5F5F5F5F5F5F5F5F5F5F5F5F5F5F5F5F5F5F5F5F5F5F5F5F5F5F5F5F5F5F5F5F5F5F5F5F5F5F5F5F5F5F5F5F5F5F5F5F5F5F5F5F5F5F5F5F5F5F5F5F5F5F5F5F5F5F5F5F5F5F5F5F5F5F5F5F5F5F5F5F5F5F5F5F5F5F5F5F5F5F5F5F5F5F5F5F5F5F5F5F5
310
F5F5F5F5F5F5F5F5F5F5F5F5F5F5F5F5F5F5F5F5F5F5F5F5F5F5F5F5F5F5F5F5E2F5F5F5F5E2E2F5F5F5F5E2E2E2E2E2E2E2E2F5F5F5F5F5F5F5F5F5E2E2E2E2E2E2E2E2E2E2E2E2E2E2E2F5F5F5F5F5F5F5F5F5E2E2E2E2E2E2E2E2E2E2E2E2E2E2E2E2F5F5F5F5F5F5F5F5E2E2E2E2E2E2E2E2E2E2E2E2E2E2E2E2F5F5F5
310
F5F5F5F5F5E2E2E2E2E2E2E2E2E2E2E2E2E2E2E2E2F5F5F5F5F5F5F5F5E2E2E2E2E2E2E2E2E2E2E2E2E2E2E2E2F5F5F5F5F5F5F5F5F5E2E2E2E2E2E2E2E2E2E2E2E2E2E2E2F5F5F5F5F5F5F5F5F5E2E2E2E2E2E2E2E2F5F5F5F5E2E2F5F5F5F5F5F5F5F5F5F5F5F5F5F5F5F5F5F5F5F5F5F5F5F5F5F5F5F5F5F5F5F5F5F5F5
310
F5F5F5F5F5F5F5F5F5F5F5F5F5F5F5F5F5F5F5F5F5F5F5F5F5F5F5F5F5F5F5F5F5F5F5F5F5F5F5F5F5F5F5F5F5F5F5F5F5F5F5F5F5F5F5F5F5F5F5F5F5F5F5F5F5F5F5F5F5F5F5F5F5F5F5F5F5F5F5F5F5F5F5F5F5F5F5F5F5F5F5F5F5F5F5F5F5F5F5F5F5F5F5F5F5F5F5F5F5F5F5F5F5F5F5F5F5F5F5F5F5F5F5F5F5F5F5
310
F5F5F5F5F5F5F5F5F5F5F5F5F5F5F5F5E2E2F5F5F5F5F5F5F5F5F5F5F5F5F5F5F5F5F5F5F5F5F5F5F5F5F5F5F5F5F5F5F5F5F5F5F5F5F5F5F5F5F5F5F5F5F5F5F5F5F5F5F5F5F5F5F5F5F5F5F5F5F5F5F5F5F5F5F5F5F5F5F5F5F5F5F5F5F5F5F5F5F5F5F5F5F5F5F5F5F5F5F5F5F5F5F5F5F5F5F5F5F5F5F5F5F5F5F5F5F5
310
F5F5F5F5F5F5F5F5F5F5F5F5F5F5F5F5F5F5F5F5F5F5F5F5F5F5F5F5F5F5F5F5F5F5F5F5F5F5F5F5F5F5F5F5F5F5F5F5F5F5F5F5F5F5F5F5F5F5F5F5F5F5F5F5F5F5F5F5F5E2E2F5F5F5F5F5F5F5F5F5F5F5F5F5F5F5F5F5F5F5F5F5F5F5F5F5F5F5F5F5F5F5F5F5F5F5F5F5F5F5F5F5F5F5F5F5F5F5F5F5F5F5F5F5F5F5F5
310
F5F5F5F5F5F5F5F5F5F5F5F5F5F5F5F5F5F5F5F5F5F5F5F5F5F5F5F5F5F5F5F5F5F5F5F5F5F5F5F5F5F5F5F5F5F5F5F5F5F5F5F5F5F5F5F5F5F5F5F5F5F5F5F5F5F5F5F5F5F5F5F5F5F5F5F5F5F5F5F5F5F5F5F5F5F5F5F5F5F5F5F5F5F5F5F5F5F5F5F5F5F5F5F5F5F5F5F5F5F5F5F5F5F5F5F5F5F5F5F5F5F5E2E2E2E2E2
310
E2E2E2E2E2E2E2E2E2E2E2E2E2E2E2E2E2E2E2E2E2E2E2E2E2E2E2E2E2E2E2E2E2E2E2E2E2E2E2E2E2E2E2E2E2E2E2E2E2E2E2E2E2E2E2E2E2E2E2E2E2E2E2E2E2E2E2E2E2E2E2E2E2E2E2E2E2E2E2E2E2E2E2E2E2E2E2E2E2E2E2E2E2E2E2E2E2E2E2E2E2E2E2E2E2E2E2E2E2E2E2E2E2E2E2E2E2E2E2E2E2E2E2E2E2E2E2
310
E2E2E2E2E2E2E2E2E2E2E2E2E2E2E2E2E2E2E2E2E2E2E2E2E2E2E2E2E2E2E2E2E2E2E2E2E2E2E2E2E2E2E2E2E2E2E2E2E2
  0
XRECORD
  5
59AE8
102
{ACAD_REACTORS
330
B5
102
}
330
B5
100
AcDbXrecord
280
     1
102
SHADEPLOT
 70
     0
102
SHADEPLOTRESLEVEL
 70
     2
102
SHADEPLOTCUSTOMDPI
 70
   300
  0
XRECORD
  5
B6
102
{ACAD_REACTORS
330
B5
102
}
330
B5
100
AcDbXrecord
280
     1
310
28000000B40000008B0000000100080000000000BC610000000000000000000000010000000000000000000000000000FFFFFF000000000000000000000000000000000000000000000000000000000000000000330000006600000099000000CC000000FF00000000330000333300006633000099330000CC330000FF3300
310
0000660000336600006666000099660000CC660000FF66000000990000339900006699000099990000CC990000FF99000000CC000033CC000066CC000099CC0000CCCC0000FFCC000000FF000033FF000066FF000099FF0000CCFF0000FFFF000000003300330033006600330099003300CC003300FF003300003333003333
310
33006633330099333300CC333300FF33330000663300336633006666330099663300CC663300FF66330000993300339933006699330099993300CC993300FF99330000CC330033CC330066CC330099CC3300CCCC3300FFCC330000FF330033FF330066FF330099FF3300CCFF3300FFFF330000006600330066006600660099
310
006600CC006600FF00660000336600333366006633660099336600CC336600FF33660000666600336666006666660099666600CC666600FF66660000996600339966006699660099996600CC996600FF99660000CC660033CC660066CC660099CC6600CCCC6600FFCC660000FF660033FF660066FF660099FF6600CCFF6600
310
FFFF660000009900330099006600990099009900CC009900FF00990000339900333399006633990099339900CC339900FF33990000669900336699006666990099669900CC669900FF66990000999900339999006699990099999900CC999900FF99990000CC990033CC990066CC990099CC9900CCCC9900FFCC990000FF99
310
0033FF990066FF990099FF9900CCFF9900FFFF99000000CC003300CC006600CC009900CC00CC00CC00FF00CC000033CC003333CC006633CC009933CC00CC33CC00FF33CC000066CC003366CC006666CC009966CC00CC66CC00FF66CC000099CC003399CC006699CC009999CC00CC99CC00FF99CC0000CCCC0033CCCC0066CC
310
CC0099CCCC00CCCCCC00FFCCCC0000FFCC0033FFCC0066FFCC0099FFCC00CCFFCC00FFFFCC000000FF003300FF006600FF009900FF00CC00FF00FF00FF000033FF003333FF006633FF009933FF00CC33FF00FF33FF000066FF003366FF006666FF009966FF00CC66FF00FF66FF000099FF003399FF006699FF009999FF00CC
310
99FF00FF99FF0000CCFF0033CCFF0066CCFF0099CCFF00CCCCFF00FFCCFF0000FFFF0033FFFF0066FFFF0099FFFF00CCFFFF00FFFFFF00000000000D0D0D001A1A1A00282828003535350043434300505050005D5D5D006B6B6B00787878008686860093939300A1A1A100AEAEAE00BBBBBB00C9C9C900D6D6D600E4E4E400
310
F1F1F100FFFFFF0000000000000000000000000000000000000000000000000000000000000000000000000000000000F5F5F5F5F5F5F5F5F5F5F5F5F5F5F5F5F5F5F5F5F5F5F5F5F5F5F5F5F5F5F5F5F5F5F5F5F5F5F5F5F5F5F5F5F5F5F5F5F5F5F5F5F5F5F5F5F5F5F5F5F5F5F5F5F5F5F5F5F5F5F5F5F5F5F5F5F5F5F5
310
F5F5F5F5F5F5F5F5F5F5F5F5F5F5F5F5F5F5F5F5F5F5F5F5F5F5F5F5F5F5F5F5F5F5F5F5F5F5F5F5F5F5F5F5F5F5F5F5F5F5F5F5F5F5F5F5F5F5F5F5F5F5F5F5F5F5F5F5F5F5F5F5F5F5F5F5F5F5F5F5F5F5F5F5F5F5F5F5F5F5F5F5F5F5F5F5F5F5F5F5F5F5E2E2E2E2E2E2E2E2E2E2E2E2E2E2E2E2E2E2E2E2E2E2E2E2E2
310
E2E2E2E2E2E2E2E2E2E2E2E2E2E2E2E2E2E2E2E2E2E2E2E2E2E2E2E2E2E2E2E2E2E2E2E2E2E2E2E2E2E2E2E2E2E2E2E2E2E2E2E2E2E2E2E2E2E2E2E2E2E2E2E2E2E2E2E2E2E2E2E2E2E2E2E2E2E2E2E2E2E2E2E2E2E2E2E2E2E2E2E2E2E2E2E2E2E2E2E2E2E2E2E2E2E2E2E2E2E2E2E2E2E2E2E2E2E2E2E2E2E2E2E2E2E2E2
310
E2E2E2E2E2E2E2E2E2E2E2E2E2E2E2E2E2E2E2E2E2E2E2E2E2E2F5F5E2E2E2E2E2E2E2E2E2E2E2E2E2E2E2E2E2E2E2E2E2E2E2E2E2E2E2E2E2E2E2E2E2E2E2E2E2E2E2E2E2E2E2E2E2E2E2E2E2E2E2E2E2E2E2E2E2E2E2E2E2E2E2E2E2E2E2E2E2E2E2E2E2E2E2E2E2E2E2E2E2E2E2E2E2E2E2E2E2E2E2E2E2E2E2E2E2E2E2
310
E2E2E2E2E2E2E2E2E2E2E2E2E2E2E2E2E2E2E2E2E2E2E2E2E2E2E2E2E2E2E2E2E2E2E2E2E2E2E2E2E2E2E2E2E2E2E2E2E2E2E2E2E2E2E2E2E2E2E2E2E2E2E2E2E2E2E2E2E2E2E2E2E2E2E2E2E2E2E2F5F5E2E2E2E2E2E2E2E2E2E2E2E2E2E2E2E2E2E2E2E2E2E2E2E2E2E2E2E2E2E2E2E2E2E2E2E2E2E2E2E2E2E2E2E2E2E2
310
E2E2E2E2E2E2E2E2E2E2E2E2E2E2E2E2E2E2E2E2E2E2E2E2E2E2E2E2E2E2E2E2E2E2E2E2E2E2E2E2E2E2E2E2E2E2E2E2E2E2E2E2E2E2E2E2E2E2E2E2E2E2E2E2E2E2E2E2E2E2E2E2E2E2E2E2E2E2E2E2E2E2E2E2E2E2E2E2E2E2E2E2E2E2E2E2E2E2E2E2E2E2E2E2E2E2E2E2E2E2E2E2E2E2E2E2E2E2E2E2E2E2E2E2E2E2E2
310
E2E2E2E2E2F5F5E2E2E2E2E2E2E2E2E2E2E2E2E2E2E2E2E2E2E2E2E2E2E2E2E2E2E2E2E2E2E2E2E2E2E2E2E2E2E2E2E2E2E2E2E2E2E2E2E2E2E2E2E2E2E2E2E2E2E2E2E2E2E2E2E2E2E2E2E2E2E2E2E2E2E2E2E2E2E2E2E2E2E2E2E2E2E2E2E2E2E2E2E2E2E2E2E2E2E2E2E2E2E2E2E2E2E2E2E2E2E2E2E2E2E2E2E2E2E2E2
310
E2E2E2E2E2E2E2E2E2E2E2E2E2E2E2E2E2E2E2E2E2E2E2E2E2E2E2E2E2E2E2E2E2E2E2E2E2E2E2E2E2E2E2E2E2E2E2E2E2E2E2E2E2E2E2E2E2E2F5F5E2E2E2F5F5F5F5F5F5F5F5E2E2E2E2E2E2E2E2E2F5F5F5F5F5F5F5F5F5F5F5F5F5F5F5F5E2E2E2E2E2E2E2E2E2F5F5F5F5F5F5F5F5F5F5F5F5F5F5F5E2E2E2E2E2E2E2
310
E2E2F5F5F5F5F5F5F5F5F5F5F5F5F5F5F5F5E2E2E2E2E2E2E2E2F5F5F5F5F5F5F5F5F5F5F5F5F5F5F5F5E2E2E2E2E2E2E2E2E2F5F5F5F5F5F5F5F5F5F5F5F5F5F5F5E2E2E2E2E2E2E2E2E2F5F5F5F5F5F5F5F5F5F5F5F5F5F5F5F5E2E2E2E2E2E2E2E2E2F5F5F5F5F5F5F5F5E2E2E2F5F5E2E2E2F5E2E2E2E2E2E2E2E2E2E2
310
E2E2E2E2E2E2E2E2E2E2E2E2E2E2E2E2E2E2E2E2E2E2E2E2E2E2E2E2E2E2E2E2E2E2E2E2E2E2E2E2E2E2E2E2E2E2E2E2E2E2E2E2E2E2E2E2E2E2E2E2E2E2E2E2E2E2E2E2E2E2E2E2E2E2E2E2E2E2E2E2E2E2E2E2E2E2E2E2E2E2E2E2E2E2E2E2E2E2E2E2E2E2E2E2E2E2E2E2E2E2E2E2E2E2E2E2E2E2E2E2E2E2E2E2E2E2E2
310
E2E2E2E2E2E2E2E2E2E2E2E2E2E2E2E2E2E2E2E2E2E2E2E2E2E2E2E2E2E2E2E2E2F5E2E2E2F5F5E2E2E2F5E2E2E2E2E2E2E2E2E2E2E2E2E2E2E2E2E2E2E2E2E2E2E2E2E2E2E2E2E2E2E2E2E2E2E2E2E2E2E2E2E2E2E2E2E2E2E2E2E2E2E2E2E2E2E2E2E2E2E2E2E2E2E2E2E2E2E2E2E2E2E2E2E2E2E2E2E2E2E2E2E2E2E2E2
310
E2E2E2E2E2E2E2E2E2E2E2E2E2E2E2E2E2E2E2E2E2E2E2E2E2E2E2E2E2E2E2E2E2E2E2E2E2E2E2E2E2E2E2E2E2E2E2E2E2E2E2E2E2E2E2E2E2E2E2E2E2E2E2E2E2E2E2E2E2E2E2E2E2E2E2E2E2E2E2E2E2E2E2E2E2E2F5E2E2E2F5F5E2E2E2F5E2E2E2E2E2E2E2E2E2E2E2E2E2E2E2E2E2E2E2E2E2E2E2E2E2E2E2E2E2E2E2
310
E2E2E2E2E2E2E2E2E2E2E2E2E2E2E2E2E2E2E2E2E2E2E2E2E2E2E2E2E2E2E2E2E2E2E2E2E2E2E2E2E2E2E2E2E2E2E2E2E2E2E2E2E2E2E2E2E2E2E2E2E2E2E2E2E2E2E2E2E2E2E2E2E2E2E2E2E2E2E2E2E2E2E2E2E2E2E2E2E2E2E2E2E2E2E2E2E2E2E2E2E2E2E2E2E2E2E2E2E2E2E2E2E2E2E2E2E2E2E2E2E2E2E2E2E2E2E2
310
E2E2E2E2E2E2E2E2E2E2E2E2F5E2E2E2F5F5E2E2E2F5E2E2E2E2E2E2E2E2E2E2E2E2E2E2E2E2E2E2E2E2E2E2E2E2E2E2E2E2E2E2E2E2E2E2E2E2E2E2E2E2E2E2E2E2E2E2E2E2E2E2E2E2E2E2E2E2E2E2E2E2E2E2E2E2E2E2E2E2E2E2E2E2E2E2E2E2E2E2E2E2E2E2E2E2E2E2E2E2E2E2E2E2E2E2E2E2E2E2E2E2E2E2E2E2E2
310
E2E2E2E2E2E2E2E2E2E2E2E2E2E2E2E2E2E2E2E2E2E2E2E2E2E2E2E2E2E2E2E2E2E2E2E2E2E2E2E2E2E2E2E2E2E2E2E2E2E2E2E2E2E2E2E2E2E2E2E2E2E2E2E2E2F5E2E2E2F5F5E2E2E2F5E2E2E2E2E2E2E2E2E2E2E2E2E2E2E2E2E2E2E2E2E2E2E2E2E2E2E2E2E2E2E2E2E2E2E2E2E2E2E2E2E2E2E2E2E2E2E2E2E2E2E2E2
310
E2E2E2E2E2E2E2E2E2E2E2E2E2E2E2E2E2E2E2E2E2E2E2E2E2E2E2E2E2E2E2E2E2E2E2E2E2E2E2E2E2E2E2E2E2E2E2E2E2E2E2E2E2E2E2E2E2E2E2E2E2E2E2E2E2E2E2E2E2E2E2E2E2E2E2E2E2E2E2E2E2E2E2E2E2E2E2E2E2E2E2E2E2E2E2E2E2E2E2E2E2E2E2E2E2E2E2E2E2E2E2E2E2E2E2E2E2E2F5E2E2E2F5F5E2E2E2
310
F5E2E2E2E2E2E2E2E2E2E2E2E2E2E2E2E2E2E2E2E2E2E2E2E2E2E2E2E2E2E2E2E2E2E2E2E2E2E2E2E2E2E2E2E2E2E2E2E2E2E2E2E2E2E2E2E2E2E2E2E2E2E2E2E2E2E2E2E2E2E2E2E2E2E2E2E2E2E2E2E2E2E2E2E2E2E2E2E2E2E2E2E2E2E2E2E2E2E2E2E2E2E2E2E2E2E2E2E2E2E2E2E2E2E2E2E2E2E2E2E2E2E2E2E2E2E2
310
E2E2E2E2E2E2E2E2E2E2E2E2E2E2E2E2E2E2E2E2E2E2E2E2E2E2E2E2E2E2E2E2E2E2E2E2E2E2E2E2E2E2E2E2F5E2E2E2F5F5E2E2E2F5E2E2E2E2E2E2E2E2E2E2E2E2E2E2E2E2E2E2E2E2E2E2E2E2E2E2E2E2E2E2E2E2E2E2E2E2E2E2E2E2E2E2E2E2E2E2E2E2E2E2E2E2E2E2E2E2E2E2E2E2E2E2E2E2E2E2E2E2E2E2E2E2E2
310
E2E2E2E2E2E2E2E2E2E2E2E2E2E2E2E2E2E2E2E2E2E2E2E2E2E2E2E2E2E2E2E2E2E2E2E2E2E2E2E2E2E2E2E2E2E2E2E2E2E2E2E2E2E2E2E2E2E2E2E2E2E2E2E2E2E2E2E2E2E2E2E2E2E2E2E2E2E2E2E2E2E2E2E2E2E2E2E2E2E2E2E2E2E2E2E2E2F5E2E2E2F5F5E2E2E2F5E2E2E2E2E2E2E2E2E2E2E2E2E2E2E2E2E2E2E2E2
310
E2E2E2E2E2E2E2E2E2E2E2E2E2E2E2E2E2E2E2E2E2E2E2E2E2E2E2E2E2E2E2E2E2E2E2E2E2E2E2E2E2E2E2E2E2E2E2E2E2E2E2E2E2E2E2E2E2E2E2E2E2E2E2E2E2E2E2E2E2E2E2E2E2E2E2E2E2E2E2E2E2E2E2E2E2E2E2E2E2E2E2E2E2E2E2E2E2E2E2E2E2E2E2E2E2E2E2E2E2E2E2E2E2E2E2E2E2E2E2E2E2E2E2E2E2E2E2
310
E2E2E2E2E2E2E2E2E2E2E2E2E2E2E2E2E2E2E2E2E2E2E2F5E2E2E2F5F5E2E2E2E2E2E2E2E2E2E2E2E2E2E2E2E2E2E2E2E2E2E2E2E2E2E2E2E2E2E2E2E2E2E2E2E2E2E2E2E2E2E2E2E2E2E2E2E2E2E2E2E2E2E2E2E2E2E2E2E2E2E2E2E2E2E2E2E2E2E2E2E2E2E2E2E2E2E2E2E2E2E2E2E2E2E2E2E2E2E2E2E2E2E2E2E2E2E2
310
E2E2E2E2E2E2E2E2E2E2E2E2E2E2E2E2E2E2E2E2E2E2E2E2E2E2E2E2E2E2E2E2E2E2E2E2E2E2E2E2E2E2E2E2E2E2E2E2E2E2E2E2E2E2E2E2E2E2E2E2E2E2E2E2E2E2E2E2E2E2E2E2E2E2E2E2E2E2E2E2F5F5E2E2E2E2E2E2E2E2E2E2E2E2E2E2E2E2E2E2E2E2E2E2E2E2E2E2E2E2E2E2E2E2E2E2E2E2E2E2E2E2E2E2E2E2E2
310
E2E2E2E2E2E2E2E2E2E2E2E2E2E2E2E2E2E2E2E2E2E2E2E2E2E2E2E2E2E2E2E2E2E2E2E2E2E2E2E2E2E2E2E2E2E2E2E2E2E2E2E2E2E2E2E2E2E2E2E2E2E2E2E2E2E2E2E2E2E2E2E2E2E2E2E2E2E2E2E2E2E2E2E2E2E2E2E2E2E2E2E2E2E2E2E2E2E2E2E2E2E2E2E2E2E2E2E2E2E2E2E2E2E2E2E2E2E2E2E2E2E2E2E2E2E2E2
310
E2E2E2E2E2E2F5F5E2E2E2E2E2E2E2E2E2E2E2E2E2E2E2E2E2E2E2E2E2E2E2E2E2E2E2E2E2E2E2E2E2E2E2E2E2E2E2E2E2E2E2E2E2E2E2E2E2E2E2E2E2E2E2E2E2E2E2E2E2E2E2E2E2E2E2E2E2E2E2E2E2E2E2E2E2E2E2E2E2E2E2E2E2E2E2E2E2E2E2E2E2E2E2E2E2E2E2E2E2E2E2E2E2E2E2E2E2E2E2E2E2E2E2E2E2E2E2
310
E2E2E2E2E2E2E2E2E2E2E2E2E2E2E2E2E2E2E2E2E2E2E2E2E2E2E2E2E2E2E2E2E2E2E2E2E2E2E2E2E2E2E2E2E2E2E2E2E2E2E2E2E2E2E2E2E2E2E2F5F5E2E2E2E2E2E2E2E2E2E2E2E2E2E2E2E2E2E2E2E2E2E2E2E2E2E2E2E2E2E2E2E2E2E2E2E2E2E2E2E2E2E2E2E2E2E2E2E2E2E2E2E2E2E2E2E2E2E2E2E2E2E2E2E2E2E2
310
E2E2E2E2E2E2E2E2E2E2E2E2E2E2E2E2E2E2E2E2E2E2E2E2E2E2E2E2E2E2E2E2E2E2E2E2E2E2E2E2E2E2E2E2E2E2E2E2E2E2E2E2E2E2E2E2E2E2E2E2E2E2E2E2E2E2E2E2E2E2E2E2E2E2E2E2E2E2E2E2E2E2E2E2E2E2E2E2E2E2E2E2E2E2E2E2E2E2E2E2E2E2E2E2E2E2E2E2E2E2E2E2F5F5E2E2E2E2E2E2E2E2E2E2E2E2E2
310
E2E2E2E2E2E2E2F5F5F5F5F5F5F5F5F5F5F5F5F5F5F5F5F5F5F5F5F5F5F5F5F5F5F5F5F5F5F5F5F5F5F5F5F5F5F5F5F5F5F5F5F5F5F5F5F5F5F5F5F5F5F5F5F5F5F5F5F5F5F5F5F5F5F5F5F5F5F5F5F5F5F5F5F5F5F5F5F5F5F5F5F5F5F5F5F5F5F5F5F5F5F5F5F5F5F5F5F5F5F5F5F5F5F5F5F5F5F5F5F5F5F5F5F5F5F5F5
310
F5F5F5F5F5F5F5F5F5F5F5F5F5F5F5F5F5F5E2E2E2E2E2E2E2E2E2E2E2E2E2E2E2E2E2E2E2E2F5F5E2E2E2E2E2E2E2E2E2E2E2E2E2E2E2E2E2E2E2E2F5E2E2E2E2E2E2E2E2E2E2E2E2E2E2E2E2E2E2E2E2E2E2E2E2E2E2E2E2E2E2E2E2E2E2E2E2E2E2E2E2E2E2E2E2E2E2E2E2E2E2E2E2E2E2E2E2E2E2E2E2E2E2E2E2E2E2
310
E2E2E2E2E2E2E2E2E2E2E2E2E2E2E2E2E2E2E2E2E2E2E2E2E2E2E2E2E2E2E2E2E2E2E2E2E2E2E2E2E2E2E2E2E2E2E2E2E2E2E2E2E2E2E2E2E2E2E2E2E2E2E2E2E2E2E2E2E2E2F5E2E2E2E2E2E2E2E2E2E2E2E2E2E2E2E2E2E2E2E2F5F5E2E2E2E2E2E2E2E2E2E2E2E2E2E2E2E2E2E2E2E2F5E2E2E2E2E2E2E2E2E2E2E2E2E2
310
E2E2E2E2E2E2E2E2E2E2E2E2E2E2E2E2E2E2E2E2E2E2E2E2E2E2E2E2E2E2E2E2E2E2E2E2E2E2E2E2E2E2E2E2E2E2E2E2E2E2E2E2E2E2E2E2E2E2E2E2E2E2E2E2E2E2E2E2E2E2E2E2E2E2E2E2E2E2E2E2E2E2E2E2E2E2E2E2E2E2E2E2E2E2E2E2E2E2E2E2E2E2E2E2E2E2E2E2E2E2E2E2E2E2E2E2E2E2E2E2E2E2E2F5E2E2E2
310
E2E2E2E2E2E2E2E2E2E2E2E2E2E2E2E2E2F5F5E2E2E2E2E2E2E2E2E2E2E2E2E2E2E2E2E2E2E2E2F5E2E2E2E2E2E2E2E2E2E2E2E2E2E2E2E2E2E2E2E2E2E2E2E2E2E2E2E2E2E2E2E2E2E2E2E2E2E2E2E2E2E2E2E2E2E2E2E2E2E2E2E2E2E2E2E2E2E2E2E2E2E2E2E2E2E2E2E2E2E2E2E2E2E2E2E2E2E2E2E2E2E2E2E2E2E2E2
310
E2E2E2E2E2E2E2E2E2E2E2E2E2E2E2E2E2E2E2E2E2E2E2E2E2E2E2E2E2E2E2E2E2E2E2E2E2E2E2E2E2E2E2E2E2E2E2E2E2F5E2E2E2E2E2E2E2E2E2E2E2E2E2E2E2E2E2E2E2E2F5F5E2E2E2E2E2E2E2E2E2E2E2E2E2E2E2E2E2E2E2E2F5E2E2E2E2E2E2E2E2E2E2E2E2E2E2E2E2E2E2E2E2E2E2E2E2E2E2E2E2E2E2E2E2E2E2
310
E2E2E2E2E2E2E2E2E2E2E2E2E2E2E2E2E2E2E2E2E2E2E2E2E2E2E2E2E2E2E2E2E2E2E2E2E2E2E2E2E2E2E2E2E2E2E2E2E2E2E2E2E2E2E2E2E2E2E2E2E2E2E2E2E2E2E2E2E2E2E2E2E2E2E2E2E2E2E2E2E2E2E2E2E2E2E2E2E2E2E2E2E2E2E2E2E2E2E2E2E2E2F5E2E2E2E2E2E2E2E2E2E2E2E2E2E2E2E2E2E2E2E2F5F5E2E2
310
E2F5E2E2E2E2E2E2E2E2E2E2E2E2E2E2E2E2F5E2E2E2E2E2E2E2E2E2E2E2E2E2E2E2E2E2E2E2E2E2E2E2E2E2E2E2E2E2E2E2E2E2E2E2E2E2E2E2E2E2E2E2E2E2E2E2E2E2E2E2E2E2E2E2E2E2E2E2E2E2E2E2E2E2E2E2E2E2E2E2E2E2E2E2E2E2E2E2E2E2E2E2E2E2E2E2E2E2E2E2E2E2E2E2E2E2E2E2E2E2E2E2E2E2E2E2E2
310
E2E2E2E2E2E2E2E2E2E2E2E2E2E2E2E2E2E2E2E2E2E2E2E2E2E2E2E2F5E2E2E2E2E2E2E2E2E2E2E2E2E2E2E2E2F5E2E2E2F5F5E2E2E2F5E2E2E2E2E2E2E2E2E2E2E2E2E2E2E2E2F5E2E2E2E2E2E2E2E2E2E2E2E2E2E2E2E2E2E2E2E2E2E2E2E2E2E2E2E2E2E2E2E2E2E2E2E2E2E2E2E2E2E2E2E2E2E2E2E2E2E2E2E2E2E2E2
310
E2E2E2E2E2E2E2E2E2E2E2E2E2E2E2E2E2E2E2E2E2E2E2E2E2E2E2E2E2E2E2E2E2E2E2E2E2E2E2E2E2E2E2E2E2E2E2E2E2E2E2E2E2E2E2E2E2E2E2E2E2E2E2E2E2E2E2E2E2E2E2E2E2E2E2E2E2E2E2E2E2F5E2E2E2E2E2E2E2E2E2E2E2E2E2E2E2E2F5E2E2E2F5F5E2E2E2F5E2E2E2E2E2E2E2E2E2E2E2E2E2E2E2E2F5E2E2
310
E2E2E2E2E2E2E2E2E2E2E2E2E2E2E2E2E2E2E2E2E2E2E2E2E2E2E2E2E2E2E2E2E2E2E2E2E2E2E2E2E2E2E2E2E2E2E2E2E2E2E2E2E2E2E2E2E2E2E2E2E2E2E2E2E2E2E2E2E2E2E2E2E2E2E2E2E2E2E2E2E2E2E2E2E2E2E2E2E2E2E2E2E2E2E2E2E2E2E2E2E2E2E2E2E2E2E2E2E2E2E2E2E2E2E2E2E2E2E2E2E2E2E2E2E2E2E2
310
E2E2E2E2E2E2E2F5E2E2E2E2E2E2E2E2E2E2E2E2E2E2E2E2F5E2E2E2F5F5E2E2E2F5E2E2E2E2E2E2E2E2E2E2E2E2E2E2E2E2F5E2E2E2E2E2E2E2E2E2E2E2E2E2E2E2E2E2E2E2E2E2E2E2E2E2E2E2E2E2E2E2E2E2E2E2E2E2E2E2E2E2E2E2E2E2E2E2E2E2E2E2E2E2E2E2E2E2E2E2E2E2E2E2E2E2E2E2E2E2E2E2E2E2E2E2E2
310
E2E2E2E2E2E2E2E2E2E2E2E2E2E2E2E2E2E2E2E2E2E2E2E2E2E2E2E2E2E2E2E2E2E2E2E2E2E2E2E2E2E2E2E2E2E2E2E2E2E2E2E2E2E2E2E2E2E2E2E2F5E2E2E2E2E2E2E2E2E2E2E2E2E2E2E2E2F5E2E2E2F5F5E2E2E2F5E2E2E2E2E2E2E2E2E2E2E2E2E2E2E2E2F5E2E2E2E2E2E2E2E2E2E2E2E2E2E2E2E2E2E2E2E2E2E2E2
310
E2E2E2E2E2E2E2E2E2E2E2E2E2E2E2E2E2E2E2E2E2E2E2E2E2E2E2E2E2E2E2E2E2E2E2E2E2E2E2E2E2E2E2E2E2E2E2E2E2E2E2E2E2E2E2E2E2E2E2E2E2E2E2E2E2E2E2E2E2E2E2E2E2E2E2E2E2E2E2E2E2E2E2E2E2E2E2E2E2E2E2E2E2E2E2E2E2E2E2E2E2E2E2E2E2E2E2E2E2E2E2E2E2F5E2E2E2E2E2E2E2E2E2E2E2E2E2
310
E2E2E2F5E2E2E2F5F5E2E2E2F5E2E2E2E2E2E2E2E2E2E2E2E2E2E2E2E2F5E2E2E2E2E2E2E2E2E2E2E2E2E2E2E2E2E2E2E2E2E2E2E2E2E2E2E2E2E2E2E2E2E2E2E2E2E2E2E2E2E2E2E2E2E2E2E2E2E2E2E2E2E2E2E2E2E2E2E2E2E2E2E2E2E2E2E2E2E2E2E2E2E2E2E2E2E2E2E2E2E2E2E2E2E2E2E2E2E2E2E2E2E2E2E2E2E2
310
E2E2E2E2E2E2E2E2E2E2E2E2E2E2E2E2E2E2E2E2E2E2E2E2E2E2E2E2E2E2E2E2E2E2E2E2E2E2E2F5E2E2E2E2E2E2E2E2E2E2E2E2E2E2E2E2F5E2E2E2F5F5E2E2E2F5E2E2E2E2E2E2E2E2E2E2E2E2E2E2E2E2F5E2E2E2E2E2E2E2E2E2E2E2E2E2E2E2E2E2E2E2E2E2E2E2E2E2E2E2E2E2E2E2E2E2E2E2E2E2E2E2E2E2E2E2E2
310
E2E2E2E2E2E2E2E2E2E2E2E2E2E2E2E2E2E2E2E2E2E2E2E2E2E2E2E2E2E2E2E2E2E2E2E2E2E2E2E2E2E2E2E2E2E2E2E2E2E2E2E2E2E2E2E2E2E2E2E2E2E2E2E2E2E2E2E2E2E2E2E2E2E2E2E2E2E2E2E2E2E2E2E2E2E2E2E2E2E2E2E2F5E2E2E2E2E2E2E2E2E2E2E2E2E2E2E2E2F5E2E2E2F5F5E2E2E2F5E2E2E2E2E2E2E2E2
310
E2E2E2E2E2E2E2E2F5E2E2E2E2E2E2E2E2E2E2E2E2E2E2E2E2E2E2E2E2E2E2E2E2E2E2E2E2E2E2E2E2E2E2E2E2E2E2E2E2E2E2E2E2E2E2E2E2E2E2E2E2E2E2E2E2E2E2E2E2E2E2E2E2E2E2E2E2E2E2E2E2E2E2E2E2E2E2E2E2E2E2E2E2E2E2E2E2E2E2E2E2E2E2E2E2E2E2E2E2E2E2E2E2E2E2E2E2E2E2E2E2E2E2E2E2E2E2
310
E2E2E2E2E2E2E2E2E2E2E2E2E2E2E2E2E2E2F5E2E2E2E2E2E2E2E2E2E2E2E2E2E2E2E2F5E2E2E2F5F5E2E2E2F5E2E2E2E2E2E2E2E2E2E2E2E2E2E2E2E2F5E2E2E2E2E2E2E2E2E2E2E2E2E2E2E2E2E2E2E2E2E2E2E2E2E2E2E2E2E2E2E2E2E2E2E2E2E2E2E2E2E2E2E2E2E2E2E2E2E2E2E2E2E2E2E2E2E2E2E2E2E2E2E2E2E2
310
E2E2E2E2E2E2E2E2E2E2E2E2E2E2E2E2E2E2E2E2E2E2E2E2E2E2E2E2E2E2E2E2E2E2E2E2E2E2E2E2E2E2E2E2E2E2E2E2E2E2E2E2E2E2E2E2E2E2E2E2E2E2E2E2E2E2E2E2E2E2E2F5E2E2E2E2E2E2E2E2E2E2E2E2E2E2E2E2F5E2E2E2F5F5E2E2E2F5E2E2E2E2E2E2E2E2E2E2E2E2E2E2E2E2F5E2E2E2E2E2E2E2E2E2E2E2E2
310
E2E2E2E2E2E2E2E2E2E2E2E2E2E2E2E2E2E2E2E2E2E2E2E2E2E2E2E2E2E2E2E2E2E2E2E2E2E2E2E2E2E2E2E2E2E2E2E2E2E2E2E2E2E2E2E2E2E2E2E2E2E2E2E2E2E2E2E2E2E2E2E2E2E2E2E2E2E2E2E2E2E2E2E2E2E2E2E2E2E2E2E2E2E2E2E2E2E2E2E2E2E2E2E2E2E2E2E2E2E2E2E2E2E2E2E2E2E2E2E2E2E2E2E2F5E2E2
310
E2E2E2E2E2E2E2E2E2E2E2E2E2E2F5E2E2E2F5F5E2E2E2F5E2E2E2E2E2E2E2E2E2E2E2E2E2E2E2E2F5E2E2E2E2E2E2E2E2E2E2E2E2E2E2E2E2E2E2E2E2E2E2E2E2E2E2E2E2E2E2E2E2E2E2E2E2E2E2E2E2E2E2E2E2E2E2E2E2E2E2E2E2E2E2E2E2E2E2E2E2E2E2E2E2E2E2E2E2E2E2E2E2E2E2E2E2E2E2E2E2E2E2E2E2E2E2
310
E2E2E2E2E2E2E2E2E2E2E2E2E2E2E2E2E2E2E2E2E2E2E2E2E2E2E2E2E2E2E2E2E2E2E2E2E2E2E2E2E2E2E2E2E2E2E2E2E2E2F5E2E2E2E2E2E2E2E2E2E2E2E2E2E2E2E2F5E2E2E2F5F5E2E2E2F5E2E2E2E2E2E2E2E2E2E2E2E2E2E2E2E2F5E2E2E2E2E2E2E2E2E2E2E2E2E2E2E2E2E2E2E2E2E2E2E2E2E2E2E2E2E2E2E2E2E2
310
E2E2E2E2E2E2E2E2E2E2E2E2E2E2E2E2E2E2E2E2E2E2E2E2E2E2E2E2E2E2E2E2E2E2E2E2E2E2E2E2E2E2E2E2E2E2E2E2E2E2E2E2E2E2E2E2E2E2E2E2E2E2E2E2E2E2E2E2E2E2E2E2E2E2E2E2E2E2E2E2E2E2E2E2E2E2E2E2E2E2E2E2E2E2E2E2E2E2E2E2E2E2E2F5E2E2E2E2E2E2E2E2E2E2E2E2E2E2E2E2F5E2E2E2F5F5E2
310
E2E2F5E2E2E2E2E2E2E2E2E2E2E2E2E2E2E2E2F5E2E2E2E2E2E2E2E2E2E2E2E2E2E2E2E2E2E2E2E2E2E2E2E2E2E2E2E2E2E2E2E2E2E2E2E2E2E2E2E2E2E2E2E2E2E2E2E2E2E2E2E2E2E2E2E2E2E2E2E2E2E2E2E2E2E2E2E2E2E2E2E2E2E2E2E2E2E2E2E2E2E2E2E2E2E2E2E2E2E2E2E2E2E2E2E2E2E2E2E2E2E2E2E2E2E2E2
310
E2E2E2E2E2E2E2E2E2E2E2E2E2E2E2E2E2E2E2E2E2E2E2E2E2E2E2E2E2F5E2E2E2E2E2E2E2E2E2E2E2E2E2E2E2E2F5E2E2E2F5F5E2E2E2F5E2E2E2E2E2E2E2E2E2E2E2E2E2E2E2E2F5E2E2E2E2E2E2E2E2E2E2E2E2E2E2E2E2E2E2E2E2E2E2E2E2E2E2E2E2E2E2E2E2E2E2E2E2E2E2E2E2E2E2E2E2E2E2E2E2E2E2E2E2E2E2
310
E2E2E2E2E2E2E2E2E2E2E2E2E2E2E2E2E2E2E2E2E2E2E2E2E2E2E2E2E2E2E2E2E2E2E2E2E2E2E2E2E2E2E2E2E2E2E2E2E2E2E2E2E2E2E2E2E2E2E2E2E2E2E2E2E2E2E2E2E2E2E2E2E2E2E2E2E2E2E2E2E2E2F5E2E2E2E2E2E2E2E2E2E2E2E2E2E2E2E2F5E2E2E2F5F5E2E2E2F5E2E2E2E2E2E2E2E2E2E2E2E2E2E2E2E2F5E2
310
E2E2E2E2E2E2E2E2E2E2E2E2E2E2E2E2E2E2E2E2E2E2E2E2E2E2E2E2E2E2E2E2E2E2E2E2E2E2E2E2E2E2E2E2E2E2E2E2E2E2E2E2E2E2E2E2E2E2E2E2E2E2E2E2E2E2E2E2E2E2E2E2E2E2E2E2E2E2E2E2E2E2E2E2E2E2E2E2E2E2E2E2E2E2E2E2E2E2E2E2E2E2E2E2E2E2E2E2E2E2E2E2E2E2E2E2E2E2E2E2E2E2E2E2E2E2E2
310
E2E2E2E2E2E2E2E2F5E2E2E2E2E2E2E2E2E2E2E2E2E2E2E2E2F5E2E2E2F5F5E2E2E2F5E2E2E2E2E2E2E2E2E2E2E2E2E2E2E2E2F5E2E2E2E2E2E2E2E2E2E2E2E2E2E2E2E2E2E2E2E2E2E2E2E2E2E2E2E2E2E2E2E2E2E2E2E2E2E2E2E2E2E2E2E2E2E2E2E2E2E2E2E2E2E2E2E2E2E2E2E2E2E2E2E2E2E2E2E2E2E2E2E2E2E2E2
310
E2E2E2E2E2E2E2E2E2E2E2E2E2E2E2E2E2E2E2E2E2E2E2E2E2E2E2E2E2E2E2E2E2E2E2E2E2E2E2E2E2E2E2E2E2E2E2E2E2E2E2E2E2E2E2E2E2E2E2E2E2F5E2E2E2E2E2E2E2E2E2E2E2E2E2E2E2E2F5E2E2E2F5F5E2E2E2F5E2E2E2E2E2E2E2E2E2E2E2E2E2E2E2E2F5E2E2E2E2E2E2E2E2E2E2E2E2E2E2E2E2E2E2E2E2E2E2
310
E2E2E2E2E2E2E2E2E2E2E2E2E2E2E2E2E2E2E2E2E2E2E2E2E2E2E2E2E2E2E2E2E2E2E2E2E2E2E2E2E2E2E2E2E2E2E2E2E2E2E2E2E2E2E2E2E2E2E2E2E2E2E2E2E2E2E2E2E2E2E2E2E2E2E2E2E2E2E2E2E2E2E2E2E2E2E2E2E2E2E2E2E2E2E2E2E2E2E2E2E2E2E2E2E2E2E2E2E2E2E2E2E2E2F5E2E2E2E2E2E2E2E2E2E2E2E2
310
E2E2E2E2F5E2E2E2F5F5E2E2E2E2E2E2E2E2E2E2E2E2E2E2E2E2E2E2E2E2F5E2E2E2E2E2E2E2E2E2E2E2E2E2E2E2E2E2E2E2E2E2E2E2E2E2E2E2E2E2E2E2E2E2E2E2E2E2E2E2E2E2E2E2E2E2E2E2E2E2E2E2E2E2E2E2E2E2E2E2E2E2E2E2E2E2E2E2E2E2E2E2E2E2E2E2E2E2E2E2E2E2E2E2E2E2E2E2E2E2E2E2E2E2E2E2E2
310
E2E2E2E2E2E2E2E2E2E2E2E2E2E2E2E2E2E2E2E2E2E2E2E2E2E2E2E2E2E2E2E2E2E2E2E2E2E2E2E2F5E2E2E2E2E2E2E2E2E2E2E2E2E2E2E2E2E2E2E2E2F5F5E2E2E2E2E2E2E2E2E2E2E2E2E2E2E2E2E2E2E2E2F5E2E2E2E2E2E2E2E2E2E2E2E2E2E2E2E2E2E2E2E2E2E2E2E2E2E2E2E2E2E2E2E2E2E2E2E2E2E2E2E2E2E2E2
310
E2E2E2E2E2E2E2E2E2E2E2E2E2E2E2E2E2E2E2E2E2E2E2E2E2E2E2E2E2E2E2E2E2E2E2E2E2E2E2E2E2E2E2E2E2E2E2E2E2E2E2E2E2E2E2E2E2E2E2E2E2E2E2E2E2E2E2E2E2E2E2E2E2E2E2E2E2E2E2E2E2E2E2E2E2E2E2E2E2E2E2E2E2F5E2E2E2E2E2E2E2E2E2E2E2E2E2E2E2E2E2E2E2E2F5F5E2E2E2E2E2E2E2E2E2E2E2
310
E2E2E2E2E2E2E2E2E2F5E2E2E2E2E2E2E2E2E2E2E2E2E2E2E2E2E2E2E2E2E2E2E2E2E2E2E2E2E2E2E2E2E2E2E2E2E2E2E2E2E2E2E2E2E2E2E2E2E2E2E2E2E2E2E2E2E2E2E2E2E2E2E2E2E2E2E2E2E2E2E2E2E2E2E2E2E2E2E2E2E2E2E2E2E2E2E2E2E2E2E2E2E2E2E2E2E2E2E2E2E2E2E2E2E2E2E2E2E2E2E2E2E2E2E2E2E2
310
E2E2E2E2E2E2E2E2E2E2E2E2E2E2E2E2E2E2E2F5E2E2E2E2E2E2E2E2E2E2E2E2E2E2E2E2E2E2E2E2F5F5E2E2E2E2E2E2E2E2E2E2E2E2E2E2E2E2E2E2E2E2F5E2E2E2E2E2E2E2E2E2E2E2E2E2E2E2E2E2E2E2E2E2E2E2E2E2E2E2E2E2E2E2E2E2E2E2E2E2E2E2E2E2E2E2E2E2E2E2E2E2E2E2E2E2E2E2E2E2E2E2E2E2E2E2E2
310
E2E2E2E2E2E2E2E2E2E2E2E2E2E2E2E2E2E2E2E2E2E2E2E2E2E2E2E2E2E2E2E2E2E2E2E2E2E2E2E2E2E2E2E2E2E2E2E2E2E2E2E2E2E2E2E2E2E2E2E2E2E2E2E2E2E2E2E2E2E2E2E2F5E2E2E2E2E2E2E2E2E2E2E2E2E2E2E2E2E2E2E2E2F5F5E2E2E2E2E2E2E2E2E2E2E2E2E2E2E2E2E2E2E2E2F5E2E2E2E2E2E2E2E2E2E2E2
310
E2E2E2E2E2E2E2E2E2E2E2E2E2E2E2E2E2E2E2E2E2E2E2E2E2E2E2E2E2E2E2E2E2E2E2E2E2E2E2E2E2E2E2E2E2E2E2E2E2E2E2E2E2E2E2E2E2E2E2E2E2E2E2E2E2E2E2E2E2E2E2E2E2E2E2E2E2E2E2E2E2E2E2E2E2E2E2E2E2E2E2E2E2E2E2E2E2E2E2E2E2E2E2E2E2E2E2E2E2E2E2E2E2E2E2E2E2E2E2E2E2E2E2E2E2F5E2
310
E2E2E2E2E2E2E2E2E2E2E2E2E2E2E2E2E2E2E2F5F5E2E2E2E2E2E2E2E2E2E2E2E2E2E2E2E2E2E2E2E2F5E2E2E2E2E2E2E2E2E2E2E2E2E2E2E2E2E2E2E2E2E2E2E2E2E2E2E2E2E2E2E2E2E2E2E2E2E2E2E2E2E2E2E2E2E2E2E2E2E2E2E2E2E2E2E2E2E2E2E2E2E2E2E2E2E2E2E2E2E2E2E2E2E2E2E2E2E2E2E2E2E2E2E2E2E2
310
E2E2E2E2E2E2E2E2E2E2E2E2E2E2E2E2E2E2E2E2E2E2E2E2E2E2E2E2E2E2E2E2E2E2E2E2E2E2E2E2E2E2E2E2E2E2E2E2E2E2E2F5E2E2E2E2E2E2E2E2E2E2E2E2E2E2E2E2E2E2E2E2F5F5E2E2E2E2E2E2E2E2E2E2E2E2E2E2E2E2E2E2E2E2F5E2E2E2E2E2E2E2E2E2E2E2E2E2E2E2E2E2E2E2E2E2E2E2E2E2E2E2E2E2E2E2E2
310
E2E2E2E2E2E2E2E2E2E2E2E2E2E2E2E2E2E2E2E2E2E2E2E2E2E2E2E2E2E2E2E2E2E2E2E2E2E2E2E2E2E2E2E2E2E2E2E2E2E2E2E2E2E2E2E2E2E2E2E2E2E2E2E2E2E2E2E2E2E2E2E2E2E2E2E2E2E2E2E2E2E2E2E2E2E2E2E2E2E2E2E2E2E2E2E2E2E2E2E2E2E2E2E2F5E2E2E2E2E2E2E2E2E2E2E2E2E2E2E2E2E2E2E2E2F5F5
310
E2E2E2E2E2E2E2E2E2E2E2E2E2E2E2E2E2E2E2E2F5E2E2E2E2E2E2E2E2E2E2E2E2E2E2E2E2E2E2E2E2E2E2E2E2E2E2E2E2E2E2E2E2E2E2E2E2E2E2E2E2E2E2E2E2E2E2E2E2E2E2E2E2E2E2E2E2E2E2E2E2E2E2E2E2E2E2E2E2E2E2E2E2E2E2E2E2E2E2E2E2E2E2E2E2E2E2E2E2E2E2E2E2E2E2E2E2E2E2E2E2E2E2E2E2E2E2
310
E2E2E2E2E2E2E2E2E2E2E2E2E2E2E2E2E2E2E2E2E2E2E2E2E2E2E2E2E2E2F5E2E2E2E2E2E2E2E2E2E2E2E2E2E2E2E2E2E2E2E2F5F5E2E2E2E2E2E2E2E2E2E2E2E2E2E2E2E2E2E2E2E2F5E2E2E2E2E2E2E2E2E2E2E2E2E2E2E2E2E2E2E2E2E2E2E2E2E2E2E2E2E2E2E2E2E2E2E2E2E2E2E2E2E2E2E2E2E2E2E2E2E2E2E2E2E2
310
E2E2E2E2E2E2E2E2E2E2E2E2E2E2E2E2E2E2E2E2E2E2E2E2E2E2E2E2E2E2E2E2E2E2E2E2E2E2E2E2E2E2E2E2E2E2E2E2E2E2E2E2E2E2E2E2E2E2E2E2E2E2E2E2E2E2E2E2E2E2E2E2E2E2E2E2E2E2E2E2E2E2E2F5E2E2E2E2E2E2E2E2E2E2E2E2E2E2E2E2E2E2E2E2F5F5E2E2E2F5E2E2E2E2E2E2E2E2E2E2E2E2E2E2E2E2F5
310
E2E2E2E2E2E2E2E2E2E2E2E2E2E2E2E2E2E2E2E2E2E2E2E2E2E2E2E2E2E2E2E2E2E2E2E2E2E2E2E2E2E2E2E2E2E2E2E2E2E2E2E2E2E2E2E2E2E2E2E2E2E2E2E2E2E2E2E2E2E2E2E2E2E2E2E2E2E2E2E2E2E2E2E2E2E2E2E2E2E2E2E2E2E2E2E2E2E2E2E2E2E2E2E2E2E2E2E2E2E2E2E2E2E2E2E2E2E2E2E2E2E2E2E2E2E2E2
310
E2E2E2E2E2E2E2E2E2F5E2E2E2E2E2E2E2E2E2E2E2E2E2E2E2E2F5E2E2E2F5F5E2E2E2F5E2E2E2E2E2E2E2E2E2E2E2E2E2E2E2E2F5E2E2E2E2E2E2E2E2E2E2E2E2E2E2E2E2E2E2E2E2E2E2E2E2E2E2E2E2E2E2E2E2E2E2E2E2E2E2E2E2E2E2E2E2E2E2E2E2E2E2E2E2E2E2E2E2E2E2E2E2E2E2E2E2E2E2E2E2E2E2E2E2E2E2
310
E2E2E2E2E2E2E2E2E2E2E2E2E2E2E2E2E2E2E2E2E2E2E2E2E2E2E2E2E2E2E2E2E2E2E2E2E2E2E2E2E2E2E2E2E2E2E2E2E2E2E2E2E2E2E2E2E2E2E2E2E2E2F5E2E2E2E2E2E2E2E2E2E2E2E2E2E2E2E2F5E2E2E2F5F5E2E2E2F5E2E2E2E2E2E2E2E2E2E2E2E2E2E2E2E2F5E2E2E2E2E2E2E2E2E2E2E2E2E2E2E2E2E2E2E2E2E2
310
E2E2E2E2E2E2E2E2E2E2E2E2E2E2E2E2E2E2E2E2E2E2E2E2E2E2E2E2E2E2E2E2E2E2E2E2E2E2E2E2E2E2E2E2E2E2E2E2E2E2E2E2E2E2E2E2E2E2E2E2E2E2E2E2E2E2E2E2E2E2E2E2E2E2E2E2E2E2E2E2E2E2E2E2E2E2E2E2E2E2E2E2E2E2E2E2E2E2E2E2E2E2E2E2E2E2E2E2E2E2E2E2E2E2E2F5E2E2E2E2E2E2E2E2E2E2E2
310
E2E2E2E2E2F5E2E2E2F5F5E2E2E2F5E2E2E2E2E2E2E2E2E2E2E2E2E2E2E2E2F5E2E2E2E2E2E2E2E2E2E2E2E2E2E2E2E2E2E2E2E2E2E2E2E2E2E2E2E2E2E2E2E2E2E2E2E2E2E2E2E2E2E2E2E2E2E2E2E2E2E2E2E2E2E2E2E2E2E2E2E2E2E2E2E2E2E2E2E2E2E2E2E2E2E2E2E2E2E2E2E2E2E2E2E2E2E2E2E2E2E2E2E2E2E2E2
310
E2E2E2E2E2E2E2E2E2E2E2E2E2E2E2E2E2E2E2E2E2E2E2E2E2E2E2E2E2E2E2E2E2E2E2E2E2E2E2E2E2F5E2E2E2E2E2E2E2E2E2E2E2E2E2E2E2E2F5E2E2E2F5F5E2E2E2F5E2E2E2E2E2E2E2E2E2E2E2E2E2E2E2E2F5E2E2E2E2E2E2E2E2E2E2E2E2E2E2E2E2E2E2E2E2E2E2E2E2E2E2E2E2E2E2E2E2E2E2E2E2E2E2E2E2E2E2
310
E2E2E2E2E2E2E2E2E2E2E2E2E2E2E2E2E2E2E2E2E2E2E2E2E2E2E2E2E2E2E2E2E2E2E2E2E2E2E2E2E2E2E2E2E2E2E2E2E2E2E2E2E2E2E2E2E2E2E2E2E2E2E2E2E2E2E2E2E2E2E2E2E2E2E2E2E2E2E2E2E2E2E2E2E2E2E2E2E2E2E2E2E2E2F5E2E2E2E2E2E2E2E2E2E2E2E2E2E2E2E2F5E2E2E2F5F5E2E2E2F5E2E2E2E2E2E2
310
E2E2E2E2E2E2E2E2E2E2F5E2E2E2E2E2E2E2E2E2E2E2E2E2E2E2E2E2E2E2E2E2E2E2E2E2E2E2E2E2E2E2E2E2E2E2E2E2E2E2E2E2E2E2E2E2E2E2E2E2E2E2E2E2E2E2E2E2E2E2E2E2E2E2E2E2E2E2E2E2E2E2E2E2E2E2E2E2E2E2E2E2E2E2E2E2E2E2E2E2E2E2E2E2E2E2E2E2E2E2E2E2E2E2E2E2E2E2E2E2E2E2E2E2E2E2E2
310
E2E2E2E2E2E2E2E2E2E2E2E2E2E2E2E2E2E2E2E2F5E2E2E2E2E2E2E2E2E2E2E2E2E2E2E2E2F5E2E2E2F5F5E2E2E2F5E2E2E2E2E2E2E2E2E2E2E2E2E2E2E2E2F5E2E2E2E2E2E2E2E2E2E2E2E2E2E2E2E2E2E2E2E2E2E2E2E2E2E2E2E2E2E2E2E2E2E2E2E2E2E2E2E2E2E2E2E2E2E2E2E2E2E2E2E2E2E2E2E2E2E2E2E2E2E2E2
310
E2E2E2E2E2E2E2E2E2E2E2E2E2E2E2E2E2E2E2E2E2E2E2E2E2E2E2E2E2E2E2E2E2E2E2E2E2E2E2E2E2E2E2E2E2E2E2E2E2E2E2E2E2E2E2E2E2E2E2E2E2E2E2E2E2E2E2E2E2E2E2E2E2F5E2E2E2E2E2E2E2E2E2E2E2E2E2E2E2E2F5E2E2E2F5F5E2E2E2F5E2E2E2E2E2E2E2E2E2E2E2E2E2E2E2E2F5E2E2E2E2E2E2E2E2E2E2
310
E2E2E2E2E2E2E2E2E2E2E2E2E2E2E2E2E2E2E2E2E2E2E2E2E2E2E2E2E2E2E2E2E2E2E2E2E2E2E2E2E2E2E2E2E2E2E2E2E2E2E2E2E2E2E2E2E2E2E2E2E2E2E2E2E2E2E2E2E2E2E2E2E2E2E2E2E2E2E2E2E2E2E2E2E2E2E2E2E2E2E2E2E2E2E2E2E2E2E2E2E2E2E2E2E2E2E2E2E2E2E2E2E2E2E2E2E2E2E2E2E2E2E2E2E2E2F5
310
E2E2E2E2E2E2E2E2E2E2E2E2E2E2E2E2F5E2E2E2F5F5E2E2E2F5E2E2E2E2E2E2E2E2E2E2E2E2E2E2E2E2F5E2E2E2E2E2E2E2E2E2E2E2E2E2E2E2E2E2E2E2E2E2E2E2E2E2E2E2E2E2E2E2E2E2E2E2E2E2E2E2E2E2E2E2E2E2E2E2E2E2E2E2E2E2E2E2E2E2E2E2E2E2E2E2E2E2E2E2E2E2E2E2E2E2E2E2E2E2E2E2E2E2E2E2E2
310
E2E2E2E2E2E2E2E2E2E2E2E2E2E2E2E2E2E2E2E2E2E2E2E2E2E2E2E2E2E2E2E2E2E2E2E2E2E2E2E2E2E2E2E2E2E2E2E2E2E2E2E2F5E2E2E2E2E2E2E2E2E2E2E2E2E2E2E2E2F5E2E2E2F5F5E2E2E2F5E2E2E2E2E2E2E2E2E2E2E2E2E2E2E2E2F5E2E2E2E2E2E2E2E2E2E2E2E2E2E2E2E2E2E2E2E2E2E2E2E2E2E2E2E2E2E2E2
310
E2E2E2E2E2E2E2E2E2E2E2E2E2E2E2E2E2E2E2E2E2E2E2E2E2E2E2E2E2E2E2E2E2E2E2E2E2E2E2E2E2E2E2E2E2E2E2E2E2E2E2E2E2E2E2E2E2E2E2E2E2E2E2E2E2E2E2E2E2E2E2E2E2E2E2E2E2E2E2E2E2E2E2E2E2E2E2E2E2E2E2E2E2E2E2E2E2E2E2E2E2E2E2E2E2F5E2E2E2E2E2E2E2E2E2E2E2E2E2E2E2E2F5E2E2E2F5
310
F5E2E2E2F5E2E2E2E2E2E2E2E2E2E2E2E2E2E2E2E2F5E2E2E2E2E2E2E2E2E2E2E2E2E2E2E2E2E2E2E2E2E2E2E2E2E2E2E2E2E2E2E2E2E2E2E2E2E2E2E2E2E2E2E2E2E2E2E2E2E2E2E2E2E2E2E2E2E2E2E2E2E2E2E2E2E2E2E2E2E2E2E2E2E2E2E2E2E2E2E2E2E2E2E2E2E2E2E2E2E2E2E2E2E2E2E2E2E2E2E2E2E2E2E2E2E2
310
E2E2E2E2E2E2E2E2E2E2E2E2E2E2E2E2E2E2E2E2E2E2E2E2E2E2E2E2E2E2E2F5E2E2E2E2E2E2E2E2E2E2E2E2E2E2E2E2F5E2E2E2F5F5E2E2E2F5E2E2E2E2E2E2E2E2E2E2E2E2E2E2E2E2F5E2E2E2E2E2E2E2E2E2E2E2E2E2E2E2E2E2E2E2E2E2E2E2E2E2E2E2E2E2E2E2E2E2E2E2E2E2E2E2E2E2E2E2E2E2E2E2E2E2E2E2E2
310
E2E2E2E2E2E2E2E2E2E2E2E2E2E2E2E2E2E2E2E2E2E2E2E2E2E2E2E2E2E2E2E2E2E2E2E2E2E2E2E2E2E2E2E2E2E2E2E2E2E2E2E2E2E2E2E2E2E2E2E2E2E2E2E2E2E2E2E2E2E2E2E2E2E2E2E2E2E2E2E2E2E2E2E2F5E2E2E2E2E2E2E2E2E2E2E2E2E2E2E2E2F5E2E2E2F5F5E2E2E2F5E2E2E2E2E2E2E2E2E2E2E2E2E2E2E2E2
310
F5E2E2E2E2E2E2E2E2E2E2E2E2E2E2E2E2E2E2E2E2E2E2E2E2E2E2E2E2E2E2E2E2E2E2E2E2E2E2E2E2E2E2E2E2E2E2E2E2E2E2E2E2E2E2E2E2E2E2E2E2E2E2E2E2E2E2E2E2E2E2E2E2E2E2E2E2E2E2E2E2E2E2E2E2E2E2E2E2E2E2E2E2E2E2E2E2E2E2E2E2E2E2E2E2E2E2E2E2E2E2E2E2E2E2E2E2E2E2E2E2E2E2E2E2E2E2
310
E2E2E2E2E2E2E2E2E2E2F5E2E2E2E2E2E2E2E2E2E2E2E2E2E2E2E2F5E2E2E2F5F5E2E2E2F5E2E2E2E2E2E2E2E2E2E2E2E2E2E2E2E2F5E2E2E2E2E2E2E2E2E2E2E2E2E2E2E2E2E2E2E2E2E2E2E2E2E2E2E2E2E2E2E2E2E2E2E2E2E2E2E2E2E2E2E2E2E2E2E2E2E2E2E2E2E2E2E2E2E2E2E2E2E2E2E2E2E2E2E2E2E2E2E2E2E2
310
E2E2E2E2E2E2E2E2E2E2E2E2E2E2E2E2E2E2E2E2E2E2E2E2E2E2E2E2E2E2E2E2E2E2E2E2E2E2E2E2E2E2E2E2E2E2E2E2E2E2E2E2E2E2E2E2E2E2E2E2E2E2E2F5E2E2E2E2E2E2E2E2E2E2E2E2E2E2E2E2F5E2E2E2F5F5E2E2E2F5E2E2E2E2E2E2E2E2E2E2E2E2E2E2E2E2F5E2E2E2E2E2E2E2E2E2E2E2E2E2E2E2E2E2E2E2E2
310
E2E2E2E2E2E2E2E2E2E2E2E2E2E2E2E2E2E2E2E2E2E2E2E2E2E2E2E2E2E2E2E2E2E2E2E2E2E2E2E2E2E2E2E2E2E2E2E2E2E2E2E2E2E2E2E2E2E2E2E2E2E2E2E2E2E2E2E2E2E2E2E2E2E2E2E2E2E2E2E2E2E2E2E2E2E2E2E2E2E2E2E2E2E2E2E2E2E2E2E2E2E2E2E2E2E2E2E2E2E2E2E2E2E2E2E2F5E2E2E2E2E2E2E2E2E2E2
310
E2E2E2E2E2E2F5E2E2E2F5F5E2E2E2F5E2E2E2E2E2E2E2E2E2E2E2E2E2E2E2E2F5E2E2E2E2E2E2E2E2E2E2E2E2E2E2E2E2E2E2E2E2E2E2E2E2E2E2E2E2E2E2E2E2E2E2E2E2E2E2E2E2E2E2E2E2E2E2E2E2E2E2E2E2E2E2E2E2E2E2E2E2E2E2E2E2E2E2E2E2E2E2E2E2E2E2E2E2E2E2E2E2E2E2E2E2E2E2E2E2E2E2E2E2E2E2
310
E2E2E2E2E2E2E2E2E2E2E2E2E2E2E2E2E2E2E2E2E2E2E2E2E2E2E2E2E2E2E2E2E2E2E2E2E2E2E2E2E2E2F5E2E2E2E2E2E2E2E2E2E2E2E2E2E2E2E2F5E2E2E2F5F5E2E2E2E2E2E2E2E2E2E2E2E2E2E2E2E2E2E2E2E2F5E2E2E2E2E2E2E2E2E2E2E2E2E2E2E2E2E2E2E2E2E2E2E2E2E2E2E2E2E2E2E2E2E2E2E2E2E2E2E2E2E2
310
E2E2E2E2E2E2E2E2E2E2E2E2E2E2E2E2E2E2E2E2E2E2E2E2E2E2E2E2E2E2E2E2E2E2E2E2E2E2E2E2E2E2E2E2E2E2E2E2E2E2E2E2E2E2E2E2E2E2E2E2E2E2E2E2E2E2E2E2E2E2E2E2E2E2E2E2E2E2E2E2E2E2E2E2E2E2E2E2E2E2E2E2E2E2E2F5E2E2E2E2E2E2E2E2E2E2E2E2E2E2E2E2E2E2E2E2F5F5E2E2E2E2E2E2E2E2E2
310
E2E2E2E2E2E2E2E2E2E2E2F5E2E2E2E2E2E2E2E2E2E2E2E2E2E2E2E2E2E2E2E2E2E2E2E2E2E2E2E2E2E2E2E2E2E2E2E2E2E2E2E2E2E2E2E2E2E2E2E2E2E2E2E2E2E2E2E2E2E2E2E2E2E2E2E2E2E2E2E2E2E2E2E2E2E2E2E2E2E2E2E2E2E2E2E2E2E2E2E2E2E2E2E2E2E2E2E2E2E2E2E2E2E2E2E2E2E2E2E2E2E2E2E2E2E2E2
310
E2E2E2E2E2E2E2E2E2E2E2E2E2E2E2E2E2E2E2E2E2F5E2E2E2E2E2E2E2E2E2E2E2E2E2E2E2E2E2E2E2E2F5F5E2E2E2E2E2E2E2E2E2E2E2E2E2E2E2E2E2E2E2E2F5E2E2E2E2E2E2E2E2E2E2E2E2E2E2E2E2E2E2E2E2E2E2E2E2E2E2E2E2E2E2E2E2E2E2E2E2E2E2E2E2E2E2E2E2E2E2E2E2E2E2E2E2E2E2E2E2E2E2E2E2E2E2
310
E2E2E2E2E2E2E2E2E2E2E2E2E2E2E2E2E2E2E2E2E2E2E2E2E2E2E2E2E2E2E2E2E2E2E2E2E2E2E2E2E2E2E2E2E2E2E2E2E2E2E2E2E2E2E2E2E2E2E2E2E2E2E2E2E2E2E2E2E2E2E2E2E2E2F5E2E2E2E2E2E2E2E2E2E2E2E2E2E2E2E2E2E2E2E2F5F5E2E2E2E2E2E2E2E2E2E2E2E2E2E2E2E2E2E2E2E2F5E2E2E2E2E2E2E2E2E2
310
E2E2E2E2E2E2E2E2E2E2E2E2E2E2E2E2E2E2E2E2E2E2E2E2E2E2E2E2E2E2E2E2E2E2E2E2E2E2E2E2E2E2E2E2E2E2E2E2E2E2E2E2E2E2E2E2E2E2E2E2E2E2E2E2E2E2E2E2E2E2E2E2E2E2E2E2E2E2E2E2E2E2E2E2E2E2E2E2E2E2E2E2E2E2E2E2E2E2E2E2E2E2E2E2E2E2E2E2E2E2E2E2E2E2E2E2E2E2E2E2E2E2E2E2E2E2E2
310
F5E2E2E2E2E2E2E2E2E2E2E2E2E2E2E2E2E2E2E2E2F5F5E2E2E2E2E2E2E2E2E2E2E2E2E2E2E2E2E2E2E2E2F5E2E2E2E2E2E2E2E2E2E2E2E2E2E2E2E2E2E2E2E2E2E2E2E2E2E2E2E2E2E2E2E2E2E2E2E2E2E2E2E2E2E2E2E2E2E2E2E2E2E2E2E2E2E2E2E2E2E2E2E2E2E2E2E2E2E2E2E2E2E2E2E2E2E2E2E2E2E2E2E2E2E2E2
310
E2E2E2E2E2E2E2E2E2E2E2E2E2E2E2E2E2E2E2E2E2E2E2E2E2E2E2E2E2E2E2E2E2E2E2E2E2E2E2E2E2E2E2E2E2E2E2E2E2E2E2E2E2F5E2E2E2E2E2E2E2E2E2E2E2E2E2E2E2E2E2E2E2E2F5F5E2E2E2E2E2E2E2E2E2E2E2E2E2E2E2E2E2E2E2E2F5E2E2E2E2E2E2E2E2E2E2E2E2E2E2E2E2E2E2E2E2E2E2E2E2E2E2E2E2E2E2
310
E2E2E2E2E2E2E2E2E2E2E2E2E2E2E2E2E2E2E2E2E2E2E2E2E2E2E2E2E2E2E2E2E2E2E2E2E2E2E2E2E2E2E2E2E2E2E2E2E2E2E2E2E2E2E2E2E2E2E2E2E2E2E2E2E2E2E2E2E2E2E2E2E2E2E2E2E2E2E2E2E2E2E2E2E2E2E2E2E2E2E2E2E2E2E2E2E2E2E2E2E2E2E2E2E2E2F5E2E2E2E2E2E2E2E2E2E2E2E2E2E2E2E2E2E2E2E2
310
F5F5E2E2E2E2E2E2E2E2E2E2E2E2E2E2E2E2E2E2E2E2F5E2E2E2E2E2E2E2E2E2E2E2E2E2E2E2E2E2E2E2E2E2E2E2E2E2E2E2E2E2E2E2E2E2E2E2E2E2E2E2E2E2E2E2E2E2E2E2E2E2E2E2E2E2E2E2E2E2E2E2E2E2E2E2E2E2E2E2E2E2E2E2E2E2E2E2E2E2E2E2E2E2E2E2E2E2E2E2E2E2E2E2E2E2E2E2E2E2E2E2E2E2E2E2E2
310
E2E2E2E2E2E2E2E2E2E2E2E2E2E2E2E2E2E2E2E2E2E2E2E2E2E2E2E2E2E2E2E2F5E2E2E2E2E2E2E2E2E2E2E2E2E2E2E2E2E2E2E2E2F5F5E2E2E2E2E2E2E2E2E2E2E2E2E2E2E2E2E2E2E2E2F5E2E2E2E2E2E2E2E2E2E2E2E2E2E2E2E2E2E2E2E2E2E2E2E2E2E2E2E2E2E2E2E2E2E2E2E2E2E2E2E2E2E2E2E2E2E2E2E2E2E2E2
310
E2E2E2E2E2E2E2E2E2E2E2E2E2E2E2E2E2E2E2E2E2E2E2E2E2E2E2E2E2E2E2E2E2E2E2E2E2E2E2E2E2E2E2E2E2E2E2E2E2E2E2E2E2E2E2E2E2E2E2E2E2E2E2E2E2E2E2E2E2E2E2E2E2E2E2E2E2E2E2E2E2E2E2E2E2F5E2E2E2E2E2E2E2E2E2E2E2E2E2E2E2E2E2E2E2E2F5F5E2E2E2E2E2E2E2E2E2E2E2E2E2E2E2E2E2E2E2
310
E2F5E2E2E2E2E2E2E2E2E2E2E2E2E2E2E2E2E2E2E2E2E2E2E2E2E2E2E2E2E2E2E2E2E2E2E2E2E2E2E2E2E2E2E2E2E2E2E2E2E2E2E2E2E2E2E2E2E2E2E2E2E2E2E2E2E2E2E2E2E2E2E2E2E2E2E2E2E2E2E2E2E2E2E2E2E2E2E2E2E2E2E2E2E2E2E2E2E2E2E2E2E2E2E2E2E2E2E2E2E2E2E2E2E2E2E2E2E2E2E2E2E2E2E2E2E2
310
E2E2E2E2E2E2E2E2E2E2E2F5E2E2E2E2E2E2E2E2E2E2E2E2E2E2E2E2E2E2E2E2F5F5E2E2E2E2E2E2E2E2E2E2E2E2E2E2E2E2E2E2E2E2F5E2E2E2E2E2E2E2E2E2E2E2E2E2E2E2E2E2E2E2E2E2E2E2E2E2E2E2E2E2E2E2E2E2E2E2E2E2E2E2E2E2E2E2E2E2E2E2E2E2E2E2E2E2E2E2E2E2E2E2E2E2E2E2E2E2E2E2E2E2E2E2E2
310
E2E2E2E2E2E2E2E2E2E2E2E2E2E2E2E2E2E2E2E2E2E2E2E2E2E2E2E2E2E2E2E2E2E2E2E2E2E2E2E2E2E2E2E2E2E2E2E2E2E2E2E2E2E2E2E2E2E2E2E2E2E2E2E2F5E2E2E2E2E2E2E2E2E2E2E2E2E2E2E2E2E2E2E2E2F5F5E2E2E2F5E2E2E2E2E2E2E2E2E2E2E2E2E2E2E2E2F5E2E2E2E2E2E2E2E2E2E2E2E2E2E2E2E2E2E2E2
310
E2E2E2E2E2E2E2E2E2E2E2E2E2E2E2E2E2E2E2E2E2E2E2E2E2E2E2E2E2E2E2E2E2E2E2E2E2E2E2E2E2E2E2E2E2E2E2E2E2E2E2E2E2E2E2E2E2E2E2E2E2E2E2E2E2E2E2E2E2E2E2E2E2E2E2E2E2E2E2E2E2E2E2E2E2E2E2E2E2E2E2E2E2E2E2E2E2E2E2E2E2E2E2E2E2E2E2E2E2E2E2E2E2E2E2E2E2F5E2E2E2E2E2E2E2E2E2
310
E2E2E2E2E2E2E2F5E2E2E2F5F5E2E2E2F5E2E2E2E2E2E2E2E2E2E2E2E2E2E2E2E2F5E2E2E2E2E2E2E2E2E2E2E2E2E2E2E2E2E2E2E2E2E2E2E2E2E2E2E2E2E2E2E2E2E2E2E2E2E2E2E2E2E2E2E2E2E2E2E2E2E2E2E2E2E2E2E2E2E2E2E2E2E2E2E2E2E2E2E2E2E2E2E2E2E2E2E2E2E2E2E2E2E2E2E2E2E2E2E2E2E2E2E2E2E2
310
E2E2E2E2E2E2E2E2E2E2E2E2E2E2E2E2E2E2E2E2E2E2E2E2E2E2E2E2E2E2E2E2E2E2E2E2E2E2E2E2E2E2E2F5E2E2E2E2E2E2E2E2E2E2E2E2E2E2E2E2F5E2E2E2F5F5E2E2E2F5E2E2E2E2E2E2E2E2E2E2E2E2E2E2E2E2F5E2E2E2E2E2E2E2E2E2E2E2E2E2E2E2E2E2E2E2E2E2E2E2E2E2E2E2E2E2E2E2E2E2E2E2E2E2E2E2E2
310
E2E2E2E2E2E2E2E2E2E2E2E2E2E2E2E2E2E2E2E2E2E2E2E2E2E2E2E2E2E2E2E2E2E2E2E2E2E2E2E2E2E2E2E2E2E2E2E2E2E2E2E2E2E2E2E2E2E2E2E2E2E2E2E2E2E2E2E2E2E2E2E2E2E2E2E2E2E2E2E2E2E2E2E2E2E2E2E2E2E2E2E2E2E2E2E2F5E2E2E2E2E2E2E2E2E2E2E2E2E2E2E2E2F5E2E2E2F5F5E2E2E2F5E2E2E2E2
310
E2E2E2E2E2E2E2E2E2E2E2E2F5E2E2E2E2E2E2E2E2E2E2E2E2E2E2E2E2E2E2E2E2E2E2E2E2E2E2E2E2E2E2E2E2E2E2E2E2E2E2E2E2E2E2E2E2E2E2E2E2E2E2E2E2E2E2E2E2E2E2E2E2E2E2E2E2E2E2E2E2E2E2E2E2E2E2E2E2E2E2E2E2E2E2E2E2E2E2E2E2E2E2E2E2E2E2E2E2E2E2E2E2E2E2E2E2E2E2E2E2E2E2E2E2E2E2
310
E2E2E2E2E2E2E2E2E2E2E2E2E2E2E2E2E2E2E2E2E2E2F5E2E2E2E2E2E2E2E2E2E2E2E2E2E2E2E2F5E2E2E2F5F5E2E2E2F5E2E2E2E2E2E2E2E2E2E2E2E2E2E2E2E2F5E2E2E2E2E2E2E2E2E2E2E2E2E2E2E2E2E2E2E2E2E2E2E2E2E2E2E2E2E2E2E2E2E2E2E2E2E2E2E2E2E2E2E2E2E2E2E2E2E2E2E2E2E2E2E2E2E2E2E2E2E2
310
E2E2E2E2E2E2E2E2E2E2E2E2E2E2E2E2E2E2E2E2E2E2E2E2E2E2E2E2E2E2E2E2E2E2E2E2E2E2E2E2E2E2E2E2E2E2E2E2E2E2E2E2E2E2E2E2E2E2E2E2E2E2E2E2E2E2E2E2E2E2E2E2E2E2E2F5E2E2E2E2E2E2E2E2E2E2E2E2E2E2E2E2F5E2E2E2F5F5E2E2E2F5E2E2E2E2E2E2E2E2E2E2E2E2E2E2E2E2F5E2E2E2E2E2E2E2E2
310
E2E2E2E2E2E2E2E2E2E2E2E2E2E2E2E2E2E2E2E2E2E2E2E2E2E2E2E2E2E2E2E2E2E2E2E2E2E2E2E2E2E2E2E2E2E2E2E2E2E2E2E2E2E2E2E2E2E2E2E2E2E2E2E2E2E2E2E2E2E2E2E2E2E2E2E2E2E2E2E2E2E2E2E2E2E2E2E2E2E2E2E2E2E2E2E2E2E2E2E2E2E2E2E2E2E2E2E2E2E2E2E2E2E2E2E2E2E2E2E2E2E2E2E2E2E2E2
310
E2F5E2E2E2E2E2E2E2E2E2E2E2E2E2E2E2E2F5E2E2E2F5F5E2E2E2F5E2E2E2E2E2E2E2E2E2E2E2E2E2E2E2E2F5E2E2E2E2E2E2E2E2E2E2E2E2E2E2E2E2E2E2E2E2E2E2E2E2E2E2E2E2E2E2E2E2E2E2E2E2E2E2E2E2E2E2E2E2E2E2E2E2E2E2E2E2E2E2E2E2E2E2E2E2E2E2E2E2E2E2E2E2E2E2E2E2E2E2E2E2E2E2E2E2E2E2
310
E2E2E2E2E2E2E2E2E2E2E2E2E2E2E2E2E2E2E2E2E2E2E2E2E2E2E2E2E2E2E2E2E2E2E2E2E2E2E2E2E2E2E2E2E2E2E2E2E2E2E2E2E2E2F5E2E2E2E2E2E2E2E2E2E2E2E2E2E2E2E2F5E2E2E2F5F5E2E2E2F5E2E2E2E2E2E2E2E2E2E2E2E2E2E2E2E2F5E2E2E2E2E2E2E2E2E2E2E2E2E2E2E2E2E2E2E2E2E2E2E2E2E2E2E2E2E2
310
E2E2E2E2E2E2E2E2E2E2E2E2E2E2E2E2E2E2E2E2E2E2E2E2E2E2E2E2E2E2E2E2E2E2E2E2E2E2E2E2E2E2E2E2E2E2E2E2E2E2E2E2E2E2E2E2E2E2E2E2E2E2E2E2E2E2E2E2E2E2E2E2E2E2E2E2E2E2E2E2E2E2E2E2E2E2E2E2E2E2E2E2E2E2E2E2E2E2E2E2E2E2E2E2E2E2E2F5E2E2E2E2E2E2E2E2E2E2E2E2E2E2E2E2F5E2E2
310
E2F5F5E2E2E2F5E2E2E2E2E2E2E2E2E2E2E2E2E2E2E2E2F5E2E2E2E2E2E2E2E2E2E2E2E2E2E2E2E2E2E2E2E2E2E2E2E2E2E2E2E2E2E2E2E2E2E2E2E2E2E2E2E2E2E2E2E2E2E2E2E2E2E2E2E2E2E2E2E2E2E2E2E2E2E2E2E2E2E2E2E2E2E2E2E2E2E2E2E2E2E2E2E2E2E2E2E2E2E2E2E2E2E2E2E2E2E2E2E2E2E2E2E2E2E2E2
310
E2E2E2E2E2E2E2E2E2E2E2E2E2E2E2E2E2E2E2E2E2E2E2E2E2E2E2E2E2E2E2E2E2F5E2E2E2E2E2E2E2E2E2E2E2E2E2E2E2E2F5E2E2E2F5F5E2E2E2F5E2E2E2E2E2E2E2E2E2E2E2E2E2E2E2E2F5E2E2E2E2E2E2E2E2E2E2E2E2E2E2E2E2E2E2E2E2E2E2E2E2E2E2E2E2E2E2E2E2E2E2E2E2E2E2E2E2E2E2E2E2E2E2E2E2E2E2
310
E2E2E2E2E2E2E2E2E2E2E2E2E2E2E2E2E2E2E2E2E2E2E2E2E2E2E2E2E2E2E2E2E2E2E2E2E2E2E2E2E2E2E2E2E2E2E2E2E2E2E2E2E2E2E2E2E2E2E2E2E2E2E2E2E2E2E2E2E2E2E2E2E2E2E2E2E2E2E2E2E2E2E2E2E2E2F5E2E2E2E2E2E2E2E2E2E2E2E2E2E2E2E2F5E2E2E2F5F5E2E2E2F5E2E2E2E2E2E2E2E2E2E2E2E2E2E2
310
E2E2F5E2E2E2E2E2E2E2E2E2E2E2E2E2E2E2E2E2E2E2E2E2E2E2E2E2E2E2E2E2E2E2E2E2E2E2E2E2E2E2E2E2E2E2E2E2E2E2E2E2E2E2E2E2E2E2E2E2E2E2E2E2E2E2E2E2E2E2E2E2E2E2E2E2E2E2E2E2E2E2E2E2E2E2E2E2E2E2E2E2E2E2E2E2E2E2E2E2E2E2E2E2E2E2E2E2E2E2E2E2E2E2E2E2E2E2E2E2E2E2E2E2E2E2E2
310
E2E2E2E2E2E2E2E2E2E2E2E2F5E2E2E2E2E2E2E2E2E2E2E2E2E2E2E2E2F5E2E2E2F5F5E2E2E2F5E2E2E2E2E2E2E2E2E2E2E2E2E2E2E2E2F5E2E2E2E2E2E2E2E2E2E2E2E2E2E2E2E2E2E2E2E2E2E2E2E2E2E2E2E2E2E2E2E2E2E2E2E2E2E2E2E2E2E2E2E2E2E2E2E2E2E2E2E2E2E2E2E2E2E2E2E2E2E2E2E2E2E2E2E2E2E2E2
310
E2E2E2E2E2E2E2E2E2E2E2E2E2E2E2E2E2E2E2E2E2E2E2E2E2E2E2E2E2E2E2E2E2E2E2E2E2E2E2E2E2E2E2E2E2E2E2E2E2E2E2E2E2E2E2E2E2E2E2E2E2E2E2E2E2F5E2E2E2E2E2E2E2E2E2E2E2E2E2E2E2E2F5E2E2E2F5F5E2E2E2F5E2E2E2E2E2E2E2E2E2E2E2E2E2E2E2E2F5E2E2E2E2E2E2E2E2E2E2E2E2E2E2E2E2E2E2
310
E2E2E2E2E2E2E2E2E2E2E2E2E2E2E2E2E2E2E2E2E2E2E2E2E2E2E2E2E2E2E2E2E2E2E2E2E2E2E2E2E2E2E2E2E2E2E2E2E2E2E2E2E2E2E2E2E2E2E2E2E2E2E2E2E2E2E2E2E2E2E2E2E2E2E2E2E2E2E2E2E2E2E2E2E2E2E2E2E2E2E2E2E2E2E2E2E2E2E2E2E2E2E2E2E2E2E2E2E2E2E2E2E2E2E2E2E2E2F5E2E2E2E2E2E2E2E2
310
E2E2E2E2E2E2E2E2F5E2E2E2F5F5E2E2E2F5E2E2E2E2E2E2E2E2E2E2E2E2E2E2E2E2F5E2E2E2E2E2E2E2E2E2E2E2E2E2E2E2E2E2E2E2E2E2E2E2E2E2E2E2E2E2E2E2E2E2E2E2E2E2E2E2E2E2E2E2E2E2E2E2E2E2E2E2E2E2E2E2E2E2E2E2E2E2E2E2E2E2E2E2E2E2E2E2E2E2E2E2E2E2E2E2E2E2E2E2E2E2E2E2E2E2E2E2E2
310
E2E2E2E2E2E2E2E2E2E2E2E2E2E2E2E2E2E2E2E2E2E2E2E2E2E2E2E2E2E2E2E2E2E2E2E2E2E2E2E2E2E2E2E2F5E2E2E2E2E2E2E2E2E2E2E2E2E2E2E2E2F5E2E2E2F5F5E2E2E2F5E2E2E2E2E2E2E2E2E2E2E2E2E2E2E2E2F5E2E2E2E2E2E2E2E2E2E2E2E2E2E2E2E2E2E2E2E2E2E2E2E2E2E2E2E2E2E2E2E2E2E2E2E2E2E2E2
310
E2E2E2E2E2E2E2E2E2E2E2E2E2E2E2E2E2E2E2E2E2E2E2E2E2E2E2E2E2E2E2E2E2E2E2E2E2E2E2E2E2E2E2E2E2E2E2E2E2E2E2E2E2E2E2E2E2E2E2E2E2E2E2E2E2E2E2E2E2E2E2E2E2E2E2E2E2E2E2E2E2E2E2E2E2E2E2E2E2E2E2E2E2E2E2E2E2F5E2E2E2E2E2E2E2E2E2E2E2E2E2E2E2E2F5E2E2E2F5F5E2E2E2F5E2E2E2
310
E2E2E2E2E2E2E2E2E2E2E2E2E2F5E2E2E2E2E2E2E2E2E2E2E2E2E2E2E2E2E2E2E2E2E2E2E2E2E2E2E2E2E2E2E2E2E2E2E2E2E2E2E2E2E2E2E2E2E2E2E2E2E2E2E2E2E2E2E2E2E2E2E2E2E2E2E2E2E2E2E2E2E2E2E2E2E2E2E2E2E2E2E2E2E2E2E2E2E2E2E2E2E2E2E2E2E2E2E2E2E2E2E2E2E2E2E2E2E2E2E2E2E2E2E2E2E2
310
E2E2E2E2E2E2E2E2E2E2E2E2E2E2E2E2E2E2E2E2E2E2E2F5E2E2E2E2E2E2E2E2E2E2E2E2E2E2E2E2F5E2E2E2F5F5E2E2E2E2E2E2E2E2E2E2E2E2E2E2E2E2E2E2E2E2F5E2E2E2E2E2E2E2E2E2E2E2E2E2E2E2E2E2E2E2E2E2E2E2E2E2E2E2E2E2E2E2E2E2E2E2E2E2E2E2E2E2E2E2E2E2E2E2E2E2E2E2E2E2E2E2E2E2E2E2E2
310
E2E2E2E2E2E2E2E2E2E2E2E2E2E2E2E2E2E2E2E2E2E2E2E2E2E2E2E2E2E2E2E2E2E2E2E2E2E2E2E2E2E2E2E2E2E2E2E2E2E2E2E2E2E2E2E2E2E2E2E2E2E2E2E2E2E2E2E2E2E2E2E2E2E2E2E2F5E2E2E2E2E2E2E2E2E2E2E2E2E2E2E2E2E2E2E2E2F5F5E2E2E2E2E2E2E2E2E2E2E2E2E2E2E2E2E2E2E2E2F5E2E2E2E2E2E2E2
310
E2E2E2E2E2E2E2E2E2E2E2E2E2E2E2E2E2E2E2E2E2E2E2E2E2E2E2E2E2E2E2E2E2E2E2E2E2E2E2E2E2E2E2E2E2E2E2E2E2E2E2E2E2E2E2E2E2E2E2E2E2E2E2E2E2E2E2E2E2E2E2E2E2E2E2E2E2E2E2E2E2E2E2E2E2E2E2E2E2E2E2E2E2E2E2E2E2E2E2E2E2E2E2E2E2E2E2E2E2E2E2E2E2E2E2E2E2E2E2E2E2E2E2E2E2E2E2
310
E2E2F5E2E2E2E2E2E2E2E2E2E2E2E2E2E2E2E2E2E2E2E2F5F5E2E2E2E2E2E2E2E2E2E2E2E2E2E2E2E2E2E2E2E2F5E2E2E2E2E2E2E2E2E2E2E2E2E2E2E2E2E2E2E2E2E2E2E2E2E2E2E2E2E2E2E2E2E2E2E2E2E2E2E2E2E2E2E2E2E2E2E2E2E2E2E2E2E2E2E2E2E2E2E2E2E2E2E2E2E2E2E2E2E2E2E2E2E2E2E2E2E2E2E2E2E2
310
E2E2E2E2E2E2E2E2E2E2E2E2E2E2E2E2E2E2E2E2E2E2E2E2E2E2E2E2E2E2E2E2E2E2E2E2E2E2E2E2E2E2E2E2E2E2E2E2E2E2E2E2E2E2E2F5E2E2E2E2E2E2E2E2E2E2E2E2E2E2E2E2E2E2E2E2F5F5E2E2E2E2E2E2E2E2E2E2E2E2E2E2E2E2E2E2E2E2F5E2E2E2E2E2E2E2E2E2E2E2E2E2E2E2E2E2E2E2E2E2E2E2E2E2E2E2E2
310
E2E2E2E2E2E2E2E2E2E2E2E2E2E2E2E2E2E2E2E2E2E2E2E2E2E2E2E2E2E2E2E2E2E2E2E2E2E2E2E2E2E2E2E2E2E2E2E2E2E2E2E2E2E2E2E2E2E2E2E2E2E2E2E2E2E2E2E2E2E2E2E2E2E2E2E2E2E2E2E2E2E2E2E2E2E2E2E2E2E2E2E2E2E2E2E2E2E2E2E2E2E2E2E2E2E2E2E2F5E2E2E2E2E2E2E2E2E2E2E2E2E2E2E2E2E2E2
310
E2E2F5F5E2E2E2E2E2E2E2E2E2E2E2E2E2E2E2E2E2E2E2E2F5E2E2E2E2E2E2E2E2E2E2E2E2E2E2E2E2E2E2E2E2E2E2E2E2E2E2E2E2E2E2E2E2E2E2E2E2E2E2E2E2E2E2E2E2E2E2E2E2E2E2E2E2E2E2E2E2E2E2E2E2E2E2E2E2E2E2E2E2E2E2E2E2E2E2E2E2E2E2E2E2E2E2E2E2E2E2E2E2E2E2E2E2E2E2E2E2E2E2E2E2E2E2
310
E2E2E2E2E2E2E2E2E2E2E2E2E2E2E2E2E2E2E2E2E2E2E2E2E2E2E2E2E2E2E2E2E2E2F5E2E2E2E2E2E2E2E2E2E2E2E2E2E2E2E2E2E2E2E2F5F5E2E2E2E2E2E2E2E2E2E2E2E2E2E2E2E2E2E2E2E2F5E2E2E2E2E2E2E2E2E2E2E2E2E2E2E2E2E2E2E2E2E2E2E2E2E2E2E2E2E2E2E2E2E2E2E2E2E2E2E2E2E2E2E2E2E2E2E2E2E2
310
E2E2E2E2E2E2E2E2E2E2E2E2E2E2E2E2E2E2E2E2E2E2E2E2E2E2E2E2E2E2E2E2E2E2E2E2E2E2E2E2E2E2E2E2E2E2E2E2E2E2E2E2E2E2E2E2E2E2E2E2E2E2E2E2E2E2E2E2E2E2E2E2E2E2E2E2E2E2E2E2E2E2E2E2E2E2E2F5E2E2E2E2E2E2E2E2E2E2E2E2E2E2E2E2E2E2E2E2F5F5E2E2E2E2E2E2E2E2E2E2E2E2E2E2E2E2E2
310
E2E2E2F5E2E2E2E2E2E2E2E2E2E2E2E2E2E2E2E2E2E2E2E2E2E2E2E2E2E2E2E2E2E2E2E2E2E2E2E2E2E2E2E2E2E2E2E2E2E2E2E2E2E2E2E2E2E2E2E2E2E2E2E2E2E2E2E2E2E2E2E2E2E2E2E2E2E2E2E2E2E2E2E2E2E2E2E2E2E2E2E2E2E2E2E2E2E2E2E2E2E2E2E2E2E2E2E2E2E2E2E2E2E2E2E2E2E2E2E2E2E2E2E2E2E2E2
310
E2E2E2E2E2E2E2E2E2E2E2E2E2F5E2E2E2E2E2E2E2E2E2E2E2E2E2E2E2E2E2E2E2E2F5F5E2E2E2E2E2E2E2E2E2E2E2E2E2E2E2E2E2E2E2E2F5E2E2E2E2E2E2E2E2E2E2E2E2E2E2E2E2E2E2E2E2E2E2E2E2E2E2E2E2E2E2E2E2E2E2E2E2E2E2E2E2E2E2E2E2E2E2E2E2E2E2E2E2E2E2E2E2E2E2E2E2E2E2E2E2E2E2E2E2E2E2
310
E2E2E2E2E2E2E2E2E2E2E2E2E2E2E2E2E2E2E2E2E2E2E2E2E2E2E2E2E2E2E2E2E2E2E2E2E2E2E2E2E2E2E2E2E2E2E2E2E2E2E2E2E2E2E2E2E2E2E2E2E2E2E2E2E2E2F5E2E2E2E2E2E2E2E2E2E2E2E2E2E2E2E2E2E2E2E2F5F5E2E2E2E2E2E2E2E2E2E2E2E2E2E2E2E2E2E2E2E2F5E2E2E2E2E2E2E2E2E2E2E2E2E2E2E2E2E2
310
E2E2E2E2E2E2E2E2E2E2E2E2E2E2E2E2E2E2E2E2E2E2E2E2E2E2E2E2E2E2E2E2E2E2E2E2E2E2E2E2E2E2E2E2E2E2E2E2E2E2E2E2E2E2E2E2E2E2E2E2E2E2E2E2E2E2E2E2E2E2E2E2E2E2E2E2E2E2E2E2E2E2E2E2E2E2E2E2E2E2E2E2E2E2E2E2E2E2E2E2E2E2E2E2E2E2E2E2E2E2E2E2E2E2E2E2E2E2E2F5E2E2E2E2E2E2E2
310
E2E2E2E2E2E2E2E2E2E2E2E2E2F5F5E2E2E2F5E2E2E2E2E2E2E2E2E2E2E2E2E2E2E2E2F5E2E2E2E2E2E2E2E2E2E2E2E2E2E2E2E2E2E2E2E2E2E2E2E2E2E2E2E2E2E2E2E2E2E2E2E2E2E2E2E2E2E2E2E2E2E2E2E2E2E2E2E2E2E2E2E2E2E2E2E2E2E2E2E2E2E2E2E2E2E2E2E2E2E2E2E2E2E2E2E2E2E2E2E2E2E2E2E2E2E2E2
310
E2E2E2E2E2E2E2E2E2E2E2E2E2E2E2E2E2E2E2E2E2E2E2E2E2E2E2E2E2E2E2E2E2E2E2E2E2E2E2E2E2E2E2E2E2F5E2E2E2E2E2E2E2E2E2E2E2E2E2E2E2E2F5E2E2E2F5F5E2E2E2F5E2E2E2E2E2E2E2E2E2E2E2E2E2E2E2E2F5E2E2E2E2E2E2E2E2E2E2E2E2E2E2E2E2E2E2E2E2E2E2E2E2E2E2E2E2E2E2E2E2E2E2E2E2E2E2
310
E2E2E2E2E2E2E2E2E2E2E2E2E2E2E2E2E2E2E2E2E2E2E2E2E2E2E2E2E2E2E2E2E2E2E2E2E2E2E2E2E2E2E2E2E2E2E2E2E2E2E2E2E2E2E2E2E2E2E2E2E2E2E2E2E2E2E2E2E2E2E2E2E2E2E2E2E2E2E2E2E2E2E2E2E2E2E2E2E2E2E2E2E2E2E2E2E2E2F5E2E2E2E2E2E2E2E2E2E2E2E2E2E2E2E2F5E2E2E2F5F5E2E2E2F5E2E2
310
E2E2E2E2E2E2E2E2E2E2E2E2E2E2F5E2E2E2E2E2E2E2E2E2E2E2E2E2E2E2E2E2E2E2E2E2E2E2E2E2E2E2E2E2E2E2E2E2E2E2E2E2E2E2E2E2E2E2E2E2E2E2E2E2E2E2E2E2E2E2E2E2E2E2E2E2E2E2E2E2E2E2E2E2E2E2E2E2E2E2E2E2E2E2E2E2E2E2E2E2E2E2E2E2E2E2E2E2E2E2E2E2E2E2E2E2E2E2E2E2E2E2E2E2E2E2E2
310
E2E2E2E2E2E2E2E2E2E2E2E2E2E2E2E2E2E2E2E2E2E2E2E2F5E2E2E2E2E2E2E2E2E2E2E2E2E2E2E2E2F5E2E2E2F5F5E2E2E2F5E2E2E2E2E2E2E2E2E2E2E2E2E2E2E2E2F5E2E2E2E2E2E2E2E2E2E2E2E2E2E2E2E2E2E2E2E2E2E2E2E2E2E2E2E2E2E2E2E2E2E2E2E2E2E2E2E2E2E2E2E2E2E2E2E2E2E2E2E2E2E2E2E2E2E2E2
310
E2E2E2E2E2E2E2E2E2E2E2E2E2E2E2E2E2E2E2E2E2E2E2E2E2E2E2E2E2E2E2E2E2E2E2E2E2E2E2E2E2E2E2E2E2E2E2E2E2E2E2E2E2E2E2E2E2E2E2E2E2E2E2E2E2E2E2E2E2E2E2E2E2E2E2E2E2F5E2E2E2E2E2E2E2E2E2E2E2E2E2E2E2E2F5E2E2E2F5F5E2E2E2F5E2E2E2E2E2E2E2E2E2E2E2E2E2E2E2E2F5E2E2E2E2E2E2
310
E2E2E2E2E2E2E2E2E2E2E2E2E2E2E2E2E2E2E2E2E2E2E2E2E2E2E2E2E2E2E2E2E2E2E2E2E2E2E2E2E2E2E2E2E2E2E2E2E2E2E2E2E2E2E2E2E2E2E2E2E2E2E2E2E2E2E2E2E2E2E2E2E2E2E2E2E2E2E2E2E2E2E2E2E2E2E2E2E2E2E2E2E2E2E2E2E2E2E2E2E2E2E2E2E2E2E2E2E2E2E2E2E2E2E2E2E2E2E2E2E2E2E2E2E2E2E2
310
E2E2E2F5E2E2E2E2E2E2E2E2E2E2E2E2E2E2E2E2F5E2E2E2F5F5E2E2E2F5E2E2E2E2E2E2E2E2E2E2E2E2E2E2E2E2F5E2E2E2E2E2E2E2E2E2E2E2E2E2E2E2E2E2E2E2E2E2E2E2E2E2E2E2E2E2E2E2E2E2E2E2E2E2E2E2E2E2E2E2E2E2E2E2E2E2E2E2E2E2E2E2E2E2E2E2E2E2E2E2E2E2E2E2E2E2E2E2E2E2E2E2E2E2E2E2E2
310
E2E2E2E2E2E2E2E2E2E2E2E2E2E2E2E2E2E2E2E2E2E2E2E2E2E2E2E2E2E2E2E2E2E2E2E2E2E2E2E2E2E2E2E2E2E2E2E2E2E2E2E2E2E2E2E2F5E2E2E2E2E2E2E2E2E2E2E2E2E2E2E2E2F5E2E2E2F5F5E2E2E2F5E2E2E2E2E2E2E2E2E2E2E2E2E2E2E2E2F5E2E2E2E2E2E2E2E2E2E2E2E2E2E2E2E2E2E2E2E2E2E2E2E2E2E2E2
310
E2E2E2E2E2E2E2E2E2E2E2E2E2E2E2E2E2E2E2E2E2E2E2E2E2E2E2E2E2E2E2E2E2E2E2E2E2E2E2E2E2E2E2E2E2E2E2E2E2E2E2E2E2E2E2E2E2E2E2E2E2E2E2E2E2E2E2E2E2E2E2E2E2E2E2E2E2E2E2E2E2E2E2E2E2E2E2E2E2E2E2E2E2E2E2E2E2E2E2E2E2E2E2E2E2E2E2E2E2F5E2E2E2E2E2E2E2E2E2E2E2E2E2E2E2E2F5
310
E2E2E2F5F5E2E2E2F5E2E2E2E2E2E2E2E2E2E2E2E2E2E2E2E2F5E2E2E2E2E2E2E2E2E2E2E2E2E2E2E2E2E2E2E2E2E2E2E2E2E2E2E2E2E2E2E2E2E2E2E2E2E2E2E2E2E2E2E2E2E2E2E2E2E2E2E2E2E2E2E2E2E2E2E2E2E2E2E2E2E2E2E2E2E2E2E2E2E2E2E2E2E2E2E2E2E2E2E2E2E2E2E2E2E2E2E2E2E2E2E2E2E2E2E2E2E2
310
E2E2E2E2E2E2E2E2E2E2E2E2E2E2E2E2E2E2E2E2E2E2E2E2E2E2E2E2E2E2E2E2E2E2E2F5E2E2E2E2E2E2E2E2E2E2E2E2E2E2E2E2F5E2E2E2F5F5E2E2E2F5E2E2E2E2E2E2E2E2E2E2E2E2E2E2E2E2F5E2E2E2E2E2E2E2E2E2E2E2E2E2E2E2E2E2E2E2E2E2E2E2E2E2E2E2E2E2E2E2E2E2E2E2E2E2E2E2E2E2E2E2E2E2E2E2E2
310
E2E2E2E2E2E2E2E2E2E2E2E2E2E2E2E2E2E2E2E2E2E2E2E2E2E2E2E2E2E2E2E2E2E2E2E2E2E2E2E2E2E2E2E2E2E2E2E2E2E2E2E2E2E2E2E2E2E2E2E2E2E2E2E2E2E2E2E2E2E2E2E2E2E2E2E2E2E2E2E2E2E2E2E2E2E2E2E2F5E2E2E2E2E2E2E2E2E2E2E2E2E2E2E2E2F5E2E2E2F5F5E2E2E2F5E2E2E2E2E2E2E2E2E2E2E2E2
310
E2E2E2E2F5E2E2E2E2E2E2E2E2E2E2E2E2E2E2E2E2E2E2E2E2E2E2E2E2E2E2E2E2E2E2E2E2E2E2E2E2E2E2E2E2E2E2E2E2E2E2E2E2E2E2E2E2E2E2E2E2E2E2E2E2E2E2E2E2E2E2E2E2E2E2E2E2E2E2E2E2E2E2E2E2E2E2E2E2E2E2E2E2E2E2E2E2E2E2E2E2E2E2E2E2E2E2E2E2E2E2E2E2E2E2E2E2E2E2E2E2E2E2E2E2E2E2
310
E2E2E2E2E2E2E2E2E2E2E2E2E2E2F5E2E2E2E2E2E2E2E2E2E2E2E2E2E2E2E2F5E2E2E2F5F5E2E2E2F5E2E2E2E2E2E2E2E2E2E2E2E2E2E2E2E2F5E2E2E2E2E2E2E2E2E2E2E2E2E2E2E2E2E2E2E2E2E2E2E2E2E2E2E2E2E2E2E2E2E2E2E2E2E2E2E2E2E2E2E2E2E2E2E2E2E2E2E2E2E2E2E2E2E2E2E2E2E2E2E2E2E2E2E2E2E2
310
E2E2E2E2E2E2E2E2E2E2E2E2E2E2E2E2E2E2E2E2E2E2E2E2E2E2E2E2E2E2E2E2E2E2E2E2E2E2E2E2E2E2E2E2E2E2E2E2E2E2E2E2E2E2E2E2E2E2E2E2E2E2E2E2E2E2E2F5E2E2E2E2E2E2E2E2E2E2E2E2E2E2E2E2F5E2E2E2F5F5E2E2E2F5E2E2E2E2E2E2E2E2E2E2E2E2E2E2E2E2F5E2E2E2E2E2E2E2E2E2E2E2E2E2E2E2E2
310
E2E2E2E2E2E2E2E2E2E2E2E2E2E2E2E2E2E2E2E2E2E2E2E2E2E2E2E2E2E2E2E2E2E2E2E2E2E2E2E2E2E2E2E2E2E2E2E2E2E2E2E2E2E2E2E2E2E2E2E2E2E2E2E2E2E2E2E2E2E2E2E2E2E2E2E2E2E2E2E2E2E2E2E2E2E2E2E2E2E2E2E2E2E2E2E2E2E2E2E2E2E2E2E2E2E2E2E2E2E2E2E2E2E2E2E2E2E2E2E2F5E2E2E2E2E2E2
310
E2E2E2E2E2E2E2E2E2E2F5E2E2E2F5F5E2E2E2F5E2E2E2E2E2E2E2E2E2E2E2E2E2E2E2E2F5E2E2E2E2E2E2E2E2E2E2E2E2E2E2E2E2E2E2E2E2E2E2E2E2E2E2E2E2E2E2E2E2E2E2E2E2E2E2E2E2E2E2E2E2E2E2E2E2E2E2E2E2E2E2E2E2E2E2E2E2E2E2E2E2E2E2E2E2E2E2E2E2E2E2E2E2E2E2E2E2E2E2E2E2E2E2E2E2E2E2
310
E2E2E2E2E2E2E2E2E2E2E2E2E2E2E2E2E2E2E2E2E2E2E2E2E2E2E2E2E2E2E2E2E2E2E2E2E2E2E2E2E2E2E2E2E2E2F5E2E2E2E2E2E2E2E2E2E2E2E2E2E2E2E2F5E2E2E2F5F5E2E2E2F5E2E2E2E2E2E2E2E2E2E2E2E2E2E2E2E2F5E2E2E2E2E2E2E2E2E2E2E2E2E2E2E2E2E2E2E2E2E2E2E2E2E2E2E2E2E2E2E2E2E2E2E2E2E2
310
E2E2E2E2E2E2E2E2E2E2E2E2E2E2E2E2E2E2E2E2E2E2E2E2E2E2E2E2E2E2E2E2E2E2E2E2E2E2E2E2E2E2E2E2E2E2E2E2E2E2E2E2E2E2E2E2E2E2E2E2E2E2E2E2E2E2E2E2E2E2E2E2E2E2E2E2E2E2E2E2E2E2E2E2E2E2E2E2E2E2E2E2E2E2E2E2E2E2E2F5E2E2E2E2E2E2E2E2E2E2E2E2E2E2E2E2F5E2E2E2F5F5E2E2E2F5E2
310
E2E2E2E2E2E2E2E2E2E2E2E2E2E2E2F5E2E2E2E2E2E2E2E2E2E2E2E2E2E2E2E2E2E2E2E2E2E2E2E2E2E2E2E2E2E2E2E2E2E2E2E2E2E2E2E2E2E2E2E2E2E2E2E2E2E2E2E2E2E2E2E2E2E2E2E2E2E2E2E2E2E2E2E2E2E2E2E2E2E2E2E2E2E2E2E2E2E2E2E2E2E2E2E2E2E2E2E2E2E2E2E2E2E2E2E2E2E2E2E2E2E2E2E2E2E2E2
310
E2E2E2E2E2E2E2E2E2E2E2E2E2E2E2E2E2E2E2E2E2E2E2E2E2F5E2E2E2E2E2E2E2E2E2E2E2E2E2E2E2E2F5E2E2E2F5F5E2E2E2F5E2E2E2E2E2E2E2E2E2E2E2E2E2E2E2E2F5E2E2E2E2E2E2E2E2E2E2E2E2E2E2E2E2E2E2E2E2E2E2E2E2E2E2E2E2E2E2E2E2E2E2E2E2E2E2E2E2E2E2E2E2E2E2E2E2E2E2E2E2E2E2E2E2E2E2
310
E2E2E2E2E2E2E2E2E2E2E2E2E2E2E2E2E2E2E2E2E2E2E2E2E2E2E2E2E2E2E2E2E2E2E2E2E2E2E2E2E2E2E2E2E2E2E2E2E2E2E2E2E2E2E2E2E2E2E2E2E2E2E2E2E2E2E2E2E2E2E2E2E2E2E2E2E2E2F5E2E2E2E2E2E2E2E2E2E2E2E2E2E2E2E2F5E2E2E2F5F5E2E2E2F5E2E2E2E2E2E2E2E2E2E2E2E2E2E2E2E2F5E2E2E2E2E2
310
E2E2E2E2E2E2E2E2E2E2E2E2E2E2E2E2E2E2E2E2E2E2E2E2E2E2E2E2E2E2E2E2E2E2E2E2E2E2E2E2E2E2E2E2E2E2E2E2E2E2E2E2E2E2E2E2E2E2E2E2E2E2E2E2E2E2E2E2E2E2E2E2E2E2E2E2E2E2E2E2E2E2E2E2E2E2E2E2E2E2E2E2E2E2E2E2E2E2E2E2E2E2E2E2E2E2E2E2E2E2E2E2E2E2E2E2E2E2E2E2E2E2E2E2E2E2E2
310
E2E2E2E2F5E2E2E2E2E2E2E2E2E2E2E2E2E2E2E2E2F5E2E2E2F5F5E2E2E2E2E2E2E2E2E2E2E2E2E2E2E2E2E2E2E2E2F5E2E2E2E2E2E2E2E2E2E2E2E2E2E2E2E2E2E2E2E2E2E2E2E2E2E2E2E2E2E2E2E2E2E2E2E2E2E2E2E2E2E2E2E2E2E2E2E2E2E2E2E2E2E2E2E2E2E2E2E2E2E2E2E2E2E2E2E2E2E2E2E2E2E2E2E2E2E2E2
310
E2E2E2E2E2E2E2E2E2E2E2E2E2E2E2E2E2E2E2E2E2E2E2E2E2E2E2E2E2E2E2E2E2E2E2E2E2E2E2E2E2E2E2E2E2E2E2E2E2E2E2E2E2E2E2E2E2F5E2E2E2E2E2E2E2E2E2E2E2E2E2E2E2E2E2E2E2E2F5F5E2E2E2E2E2E2E2E2E2E2E2E2E2E2E2E2E2E2E2E2F5E2E2E2E2E2E2E2E2E2E2E2E2E2E2E2E2E2E2E2E2E2E2E2E2E2E2
310
E2E2E2E2E2E2E2E2E2E2E2E2E2E2E2E2E2E2E2E2E2E2E2E2E2E2E2E2E2E2E2E2E2E2E2E2E2E2E2E2E2E2E2E2E2E2E2E2E2E2E2E2E2E2E2E2E2E2E2E2E2E2E2E2E2E2E2E2E2E2E2E2E2E2E2E2E2E2E2E2E2E2E2E2E2E2E2E2E2E2E2E2E2E2E2E2E2E2E2E2E2E2E2E2E2E2E2E2E2E2F5E2E2E2E2E2E2E2E2E2E2E2E2E2E2E2E2
310
E2E2E2E2F5F5E2E2E2E2E2E2E2E2E2E2E2E2E2E2E2E2E2E2E2E2F5E2E2E2E2E2E2E2E2E2E2E2E2E2E2E2E2E2E2E2E2E2E2E2E2E2E2E2E2E2E2E2E2E2E2E2E2E2E2E2E2E2E2E2E2E2E2E2E2E2E2E2E2E2E2E2E2E2E2E2E2E2E2E2E2E2E2E2E2E2E2E2E2E2E2E2E2E2E2E2E2E2E2E2E2E2E2E2E2E2E2E2E2E2E2E2E2E2E2E2E2
310
E2E2E2E2E2E2E2E2E2E2E2E2E2E2E2E2E2E2E2E2E2E2E2E2E2E2E2E2E2E2E2E2E2E2E2E2F5E2E2E2E2E2E2E2E2E2E2E2E2E2E2E2E2E2E2E2E2F5F5E2E2E2E2E2E2E2E2E2E2E2E2E2E2E2E2E2E2E2E2F5E2E2E2E2E2E2E2E2E2E2E2E2E2E2E2E2E2E2E2E2E2E2E2E2E2E2E2E2E2E2E2E2E2E2E2E2E2E2E2E2E2E2E2E2E2E2E2
310
E2E2E2E2E2E2E2E2E2E2E2E2E2E2E2E2E2E2E2E2E2E2E2E2E2E2E2E2E2E2E2E2E2E2E2E2E2E2E2E2E2E2E2E2E2E2E2E2E2E2E2E2E2E2E2E2E2E2E2E2E2E2E2E2E2E2E2E2E2E2E2E2E2E2E2E2E2E2E2E2E2E2E2E2E2E2E2E2E2F5E2E2E2E2E2E2E2E2E2E2E2E2E2E2E2E2E2E2E2E2F5F5E2E2E2E2E2E2E2E2E2E2E2E2E2E2E2
310
E2E2E2E2E2F5F5F5F5F5F5F5F5F5F5F5F5F5F5F5F5F5F5F5F5F5F5F5F5F5F5F5F5F5F5F5F5F5F5F5F5F5F5F5F5F5F5F5F5F5F5F5F5F5F5F5F5F5F5F5F5F5F5F5F5F5F5F5F5F5F5F5F5F5F5F5F5F5F5F5F5F5F5F5F5F5F5F5F5F5F5F5F5F5F5F5F5F5F5F5F5F5F5F5F5F5F5F5F5F5F5F5F5F5F5F5F5F5F5F5F5F5F5F5F5F5F5
310
F5F5F5F5F5F5F5F5F5F5F5F5F5F5F5F5E2E2E2E2E2E2E2E2E2E2E2E2E2E2E2E2E2E2E2E2F5F5E2E2E2E2E2E2E2E2E2E2E2E2E2E2E2E2E2E2E2E2E2E2E2E2E2E2E2E2E2E2E2E2E2E2E2E2E2E2E2E2E2E2E2E2E2E2E2E2E2E2E2E2E2E2E2E2E2E2E2E2E2E2E2E2E2E2E2E2E2E2E2E2E2E2E2E2E2E2E2E2E2E2E2E2E2E2E2E2E2
310
E2E2E2E2E2E2E2E2E2E2E2E2E2E2E2E2E2E2E2E2E2E2E2E2E2E2E2E2E2E2E2E2E2E2E2E2E2E2E2E2E2E2E2E2E2E2E2E2E2E2E2E2E2E2E2E2E2E2E2E2E2E2E2E2E2E2E2E2E2E2E2E2E2E2E2E2E2E2E2E2E2E2E2E2E2E2E2E2E2F5F5E2E2E2E2E2E2E2E2E2E2E2E2E2E2E2E2E2E2E2E2E2E2E2E2E2E2E2E2E2E2E2E2E2E2E2E2
310
E2E2E2E2E2E2E2E2E2E2E2E2E2E2E2E2E2E2E2E2E2E2E2E2E2E2E2E2E2E2E2E2E2E2E2E2E2E2E2E2E2E2E2E2E2E2E2E2E2E2E2E2E2E2E2E2E2E2E2E2E2E2E2E2E2E2E2E2E2E2E2E2E2E2E2E2E2E2E2E2E2E2E2E2E2E2E2E2E2E2E2E2E2E2E2E2E2E2E2E2E2E2E2E2E2E2E2E2E2E2E2E2E2E2E2E2E2E2E2E2E2E2E2E2E2E2E2
310
E2E2E2E2E2E2E2E2E2E2E2E2E2E2E2F5F5E2E2E2E2E2E2E2E2E2E2E2E2E2E2E2E2E2E2E2E2E2E2E2E2E2E2E2E2E2E2E2E2E2E2E2E2E2E2E2E2E2E2E2E2E2E2E2E2E2E2E2E2E2E2E2E2E2E2E2E2E2E2E2E2E2E2E2E2E2E2E2E2E2E2E2E2E2E2E2E2E2E2E2E2E2E2E2E2E2E2E2E2E2E2E2E2E2E2E2E2E2E2E2E2E2E2E2E2E2E2
310
E2E2E2E2E2E2E2E2E2E2E2E2E2E2E2E2E2E2E2E2E2E2E2E2E2E2E2E2E2E2E2E2E2E2E2E2E2E2E2E2E2E2E2E2E2E2E2E2E2E2E2E2E2E2E2E2E2E2E2E2E2E2E2E2E2E2E2E2F5F5E2E2E2E2E2E2E2E2E2E2E2E2E2E2E2E2E2E2E2E2E2E2E2E2E2E2E2E2E2E2E2E2E2E2E2E2E2E2E2E2E2E2E2E2E2E2E2E2E2E2E2E2E2E2E2E2E2
310
E2E2E2E2E2E2E2E2E2E2E2E2E2E2E2E2E2E2E2E2E2E2E2E2E2E2E2E2E2E2E2E2E2E2E2E2E2E2E2E2E2E2E2E2E2E2E2E2E2E2E2E2E2E2E2E2E2E2E2E2E2E2E2E2E2E2E2E2E2E2E2E2E2E2E2E2E2E2E2E2E2E2E2E2E2E2E2E2E2E2E2E2E2E2E2E2E2E2E2E2E2E2E2E2E2E2E2E2E2E2E2E2E2E2E2E2E2E2E2E2E2F5F5E2E2E2F5
310
E2E2E2E2E2E2E2E2E2E2E2E2E2E2E2E2E2E2E2E2E2E2E2E2E2E2E2E2E2E2E2E2E2E2E2E2E2E2E2E2E2E2E2E2E2E2E2E2E2E2E2E2E2E2E2E2E2E2E2E2E2E2E2E2E2E2E2E2E2E2E2E2E2E2E2E2E2E2E2E2E2E2E2E2E2E2E2E2E2E2E2E2E2E2E2E2E2E2E2E2E2E2E2E2E2E2E2E2E2E2E2E2E2E2E2E2E2E2E2E2E2E2E2E2E2E2E2
310
E2E2E2E2E2E2E2E2E2E2E2E2E2E2E2E2E2E2E2E2E2E2E2E2E2E2E2E2E2E2E2E2E2E2E2E2E2E2E2E2E2E2E2F5E2E2E2F5F5E2E2E2F5E2E2E2E2E2E2E2E2E2E2E2E2E2E2E2E2E2E2E2E2E2E2E2E2E2E2E2E2E2E2E2E2E2E2E2E2E2E2E2E2E2E2E2E2E2E2E2E2E2E2E2E2E2E2E2E2E2E2E2E2E2E2E2E2E2E2E2E2E2E2E2E2E2E2
310
E2E2E2E2E2E2E2E2E2E2E2E2E2E2E2E2E2E2E2E2E2E2E2E2E2E2E2E2E2E2E2E2E2E2E2E2E2E2E2E2E2E2E2E2E2E2E2E2E2E2E2E2E2E2E2E2E2E2E2E2E2E2E2E2E2E2E2E2E2E2E2E2E2E2E2E2E2E2E2E2E2E2E2E2E2E2E2E2E2E2E2E2E2E2E2E2F5E2E2E2F5F5E2E2E2F5E2E2E2E2E2E2E2E2E2E2E2E2E2E2E2E2E2E2E2E2E2
310
E2E2E2E2E2E2E2E2E2E2E2E2E2E2E2E2E2E2E2E2E2E2E2E2E2E2E2E2E2E2E2E2E2E2E2E2E2E2E2E2E2E2E2E2E2E2E2E2E2E2E2E2E2E2E2E2E2E2E2E2E2E2E2E2E2E2E2E2E2E2E2E2E2E2E2E2E2E2E2E2E2E2E2E2E2E2E2E2E2E2E2E2E2E2E2E2E2E2E2E2E2E2E2E2E2E2E2E2E2E2E2E2E2E2E2E2E2E2E2E2E2E2E2E2E2E2E2
310
E2E2E2E2E2E2E2E2E2E2E2E2E2E2E2E2E2E2E2E2E2E2F5E2E2E2F5F5E2E2E2F5E2E2E2E2E2E2E2E2E2E2E2E2E2E2E2E2E2E2E2E2E2E2E2E2E2E2E2E2E2E2E2E2E2E2E2E2E2E2E2E2E2E2E2E2E2E2E2E2E2E2E2E2E2E2E2E2E2E2E2E2E2E2E2E2E2E2E2E2E2E2E2E2E2E2E2E2E2E2E2E2E2E2E2E2E2E2E2E2E2E2E2E2E2E2E2
310
E2E2E2E2E2E2E2E2E2E2E2E2E2E2E2E2E2E2E2E2E2E2E2E2E2E2E2E2E2E2E2E2E2E2E2E2E2E2E2E2E2E2E2E2E2E2E2E2E2E2E2E2E2E2E2E2E2E2E2E2E2E2E2E2E2E2E2E2E2E2E2E2E2E2E2F5E2E2E2F5F5E2E2E2F5E2E2E2E2E2E2E2E2E2E2E2E2E2E2E2E2E2E2E2E2E2E2E2E2E2E2E2E2E2E2E2E2E2E2E2E2E2E2E2E2E2E2
310
E2E2E2E2E2E2E2E2E2E2E2E2E2E2E2E2E2E2E2E2E2E2E2E2E2E2E2E2E2E2E2E2E2E2E2E2E2E2E2E2E2E2E2E2E2E2E2E2E2E2E2E2E2E2E2E2E2E2E2E2E2E2E2E2E2E2E2E2E2E2E2E2E2E2E2E2E2E2E2E2E2E2E2E2E2E2E2E2E2E2E2E2E2E2E2E2E2E2E2E2E2E2E2E2E2E2E2E2E2E2E2E2E2E2E2E2E2E2E2E2E2E2E2E2E2E2E2
310
E2F5E2E2E2F5F5E2E2E2F5E2E2E2E2E2E2E2E2E2E2E2E2E2E2E2E2E2E2E2E2E2E2E2E2E2E2E2E2E2E2E2E2E2E2E2E2E2E2E2E2E2E2E2E2E2E2E2E2E2E2E2E2E2E2E2E2E2E2E2E2E2E2E2E2E2E2E2E2E2E2E2E2E2E2E2E2E2E2E2E2E2E2E2E2E2E2E2E2E2E2E2E2E2E2E2E2E2E2E2E2E2E2E2E2E2E2E2E2E2E2E2E2E2E2E2E2
310
E2E2E2E2E2E2E2E2E2E2E2E2E2E2E2E2E2E2E2E2E2E2E2E2E2E2E2E2E2E2E2E2E2E2E2E2E2E2E2E2E2E2E2E2E2E2E2E2E2E2E2E2E2E2F5E2E2E2F5F5E2E2E2F5E2E2E2E2E2E2E2E2E2E2E2E2E2E2E2E2E2E2E2E2E2E2E2E2E2E2E2E2E2E2E2E2E2E2E2E2E2E2E2E2E2E2E2E2E2E2E2E2E2E2E2E2E2E2E2E2E2E2E2E2E2E2E2
310
E2E2E2E2E2E2E2E2E2E2E2E2E2E2E2E2E2E2E2E2E2E2E2E2E2E2E2E2E2E2E2E2E2E2E2E2E2E2E2E2E2E2E2E2E2E2E2E2E2E2E2E2E2E2E2E2E2E2E2E2E2E2E2E2E2E2E2E2E2E2E2E2E2E2E2E2E2E2E2E2E2E2E2E2E2E2E2E2E2E2E2E2E2E2E2E2E2E2E2E2E2E2E2E2E2E2E2F5E2E2E2F5F5E2E2E2F5E2E2E2E2E2E2E2E2E2E2
310
E2E2E2E2E2E2E2E2E2E2E2E2E2E2E2E2E2E2E2E2E2E2E2E2E2E2E2E2E2E2E2E2E2E2E2E2E2E2E2E2E2E2E2E2E2E2E2E2E2E2E2E2E2E2E2E2E2E2E2E2E2E2E2E2E2E2E2E2E2E2E2E2E2E2E2E2E2E2E2E2E2E2E2E2E2E2E2E2E2E2E2E2E2E2E2E2E2E2E2E2E2E2E2E2E2E2E2E2E2E2E2E2E2E2E2E2E2E2E2E2E2E2E2E2E2E2E2
310
E2E2E2E2E2E2E2E2E2E2E2E2E2E2E2E2E2E2E2E2E2E2E2E2E2E2E2E2E2E2E2E2E2F5E2E2E2F5F5E2E2E2F5F5F5F5F5F5F5F5E2E2E2E2E2E2E2E2E2F5F5F5F5F5F5F5F5F5F5F5F5F5F5F5F5E2E2E2E2E2E2E2E2E2F5F5F5F5F5F5F5F5F5F5F5F5F5F5F5E2E2E2E2E2E2E2E2E2F5F5F5F5F5F5F5F5F5F5F5F5F5F5F5F5E2E2E2
310
E2E2E2E2E2F5F5F5F5F5F5F5F5F5F5F5F5F5F5F5F5E2E2E2E2E2E2E2E2E2F5F5F5F5F5F5F5F5F5F5F5F5F5F5F5E2E2E2E2E2E2E2E2E2F5F5F5F5F5F5F5F5F5F5F5F5F5F5F5F5E2E2E2E2E2E2E2E2E2F5F5F5F5F5F5F5F5E2E2E2F5F5E2E2E2E2E2E2E2E2E2E2E2E2E2E2E2E2E2E2E2E2E2E2E2E2E2E2E2E2E2E2E2E2E2E2E2
310
E2E2E2E2E2E2E2E2E2E2E2E2E2E2E2E2E2E2E2E2E2E2E2E2E2E2E2E2E2E2E2E2E2E2E2E2E2E2E2E2E2E2E2E2E2E2E2E2E2E2E2E2E2E2E2E2E2E2E2E2E2E2E2E2E2E2E2E2E2E2E2E2E2E2E2E2E2E2E2E2E2E2E2E2E2E2E2E2E2E2E2E2E2E2E2E2E2E2E2E2E2E2E2E2E2E2E2E2E2E2E2E2E2E2E2E2E2E2E2E2E2E2E2E2E2E2E2
310
E2E2E2E2E2E2E2E2E2E2E2E2E2E2E2E2F5F5E2E2E2E2E2E2E2E2E2E2E2E2E2E2E2E2E2E2E2E2E2E2E2E2E2E2E2E2E2E2E2E2E2E2E2E2E2E2E2E2E2E2E2E2E2E2E2E2E2E2E2E2E2E2E2E2E2E2E2E2E2E2E2E2E2E2E2E2E2E2E2E2E2E2E2E2E2E2E2E2E2E2E2E2E2E2E2E2E2E2E2E2E2E2E2E2E2E2E2E2E2E2E2E2E2E2E2E2E2
310
E2E2E2E2E2E2E2E2E2E2E2E2E2E2E2E2E2E2E2E2E2E2E2E2E2E2E2E2E2E2E2E2E2E2E2E2E2E2E2E2E2E2E2E2E2E2E2E2E2E2E2E2E2E2E2E2E2E2E2E2E2E2E2E2E2E2E2E2E2F5F5E2E2E2E2E2E2E2E2E2E2E2E2E2E2E2E2E2E2E2E2E2E2E2E2E2E2E2E2E2E2E2E2E2E2E2E2E2E2E2E2E2E2E2E2E2E2E2E2E2E2E2E2E2E2E2E2
310
E2E2E2E2E2E2E2E2E2E2E2E2E2E2E2E2E2E2E2E2E2E2E2E2E2E2E2E2E2E2E2E2E2E2E2E2E2E2E2E2E2E2E2E2E2E2E2E2E2E2E2E2E2E2E2E2E2E2E2E2E2E2E2E2E2E2E2E2E2E2E2E2E2E2E2E2E2E2E2E2E2E2E2E2E2E2E2E2E2E2E2E2E2E2E2E2E2E2E2E2E2E2E2E2E2E2E2E2E2E2E2E2E2E2E2E2E2E2E2E2E2E2F5F5E2E2E2
310
E2E2E2E2E2E2E2E2E2E2E2E2E2E2E2E2E2E2E2E2E2E2E2E2E2E2E2E2E2E2E2E2E2E2E2E2E2E2E2E2E2E2E2E2E2E2E2E2E2E2E2E2E2E2E2E2E2E2E2E2E2E2E2E2E2E2E2E2E2E2E2E2E2E2E2E2E2E2E2E2E2E2E2E2E2E2E2E2E2E2E2E2E2E2E2E2E2E2E2E2E2E2E2E2E2E2E2E2E2E2E2E2E2E2E2E2E2E2E2E2E2E2E2E2E2E2E2
310
E2E2E2E2E2E2E2E2E2E2E2E2E2E2E2E2E2E2E2E2E2E2E2E2E2E2E2E2E2E2E2E2E2E2E2E2E2E2E2E2E2E2E2E2E2E2E2E2F5
  0
XRECORD
  5
59AE6
102
{ACAD_REACTORS
330
59AE5
102
}
330
59AE5
100
AcDbXrecord
280
     1
102
SHADEPLOT
 70
     0
102
SHADEPLOTRESLEVEL
 70
     2
102
SHADEPLOTCUSTOMDPI
 70
   300
  0
ENDSEC
  0
EOF
