  0
SECTION
  2
HEADER
  9
$ACADVER
  1
AC1015
  9
$ACADMAINTVER
 70
    20
  9
$DWGCODEPAGE
  3
ANSI_936
  9
$INSBASE
 10
0.0
 20
0.0
 30
0.0
  9
$EXTMIN
 10
-172.1882980281032
 20
-140.9511409302907
 30
0.0
  9
$EXTMAX
 10
1048.382586769732
 20
153.1997390190736
 30
0.0
  9
$LIMMIN
 10
0.0
 20
0.0
  9
$LIMMAX
 10
420.0
 20
297.0
  9
$ORTHOMODE
 70
     0
  9
$REGENMODE
 70
     1
  9
$FILLMODE
 70
     1
  9
$QTEXTMODE
 70
     0
  9
$MIRRTEXT
 70
     1
  9
$LTSCALE
 40
1.0
  9
$ATTMODE
 70
     1
  9
$TEXTSIZE
 40
3.5
  9
$TRACEWID
 40
1.0
  9
$TEXTSTYLE
  7
simplex
  9
$CLAYER
  8
0
  9
$CELTYPE
  6
ByLayer
  9
$CECOLOR
 62
   256
  9
$CELTSCALE
 40
1.0
  9
$DISPSILH
 70
     0
  9
$DIMSCALE
 40
0.0
  9
$DIMASZ
 40
3.5
  9
$DIMEXO
 40
0.0
  9
$DIMDLI
 40
0.38
  9
$DIMRND
 40
0.0
  9
$DIMDLE
 40
0.0
  9
$DIMEXE
 40
1.5
  9
$DIMTP
 40
0.0
  9
$DIMTM
 40
0.0
  9
$DIMTXT
 40
3.5
  9
$DIMCEN
 40
0.09
  9
$DIMTSZ
 40
0.0
  9
$DIMTOL
 70
     0
  9
$DIMLIM
 70
     0
  9
$DIMTIH
 70
     0
  9
$DIMTOH
 70
     0
  9
$DIMSE1
 70
     0
  9
$DIMSE2
 70
     0
  9
$DIMTAD
 70
     1
  9
$DIMZIN
 70
     8
  9
$DIMBLK
  1

  9
$DIMASO
 70
     1
  9
$DIMSHO
 70
     1
  9
$DIMPOST
  1

  9
$DIMAPOST
  1

  9
$DIMALT
 70
     0
  9
$DIMALTD
 70
     2
  9
$DIMALTF
 40
25.4
  9
$DIMLFAC
 40
1.0
  9
$DIMTOFL
 70
     0
  9
$DIMTVP
 40
0.0
  9
$DIMTIX
 70
     0
  9
$DIMSOXD
 70
     0
  9
$DIMSAH
 70
     0
  9
$DIMBLK1
  1

  9
$DIMBLK2
  1

  9
$DIMSTYLE
  2
\M+18352\M+18373\M+1815B - ISO-25
  9
$DIMCLRD
 70
   256
  9
$DIMCLRE
 70
   256
  9
$DIMCLRT
 70
   256
  9
$DIMTFAC
 40
1.0
  9
$DIMGAP
 40
2.299999999999998
  9
$DIMJUST
 70
     0
  9
$DIMSD1
 70
     0
  9
$DIMSD2
 70
     0
  9
$DIMTOLJ
 70
     1
  9
$DIMTZIN
 70
     8
  9
$DIMALTZ
 70
     0
  9
$DIMALTTZ
 70
     0
  9
$DIMUPT
 70
     0
  9
$DIMDEC
 70
     2
  9
$DIMTDEC
 70
     2
  9
$DIMALTU
 70
     2
  9
$DIMALTTD
 70
     2
  9
$DIMTXSTY
  7
simplex
  9
$DIMAUNIT
 70
     0
  9
$DIMADEC
 70
     0
  9
$DIMALTRND
 40
0.0
  9
$DIMAZIN
 70
     0
  9
$DIMDSEP
 70
    46
  9
$DIMATFIT
 70
     3
  9
$DIMFRAC
 70
     0
  9
$DIMLDRBLK
  1

  9
$DIMLUNIT
 70
     2
  9
$DIMLWD
 70
    -1
  9
$DIMLWE
 70
    -1
  9
$DIMTMOVE
 70
     0
  9
$LUNITS
 70
     2
  9
$LUPREC
 70
     4
  9
$SKETCHINC
 40
1.0
  9
$FILLETRAD
 40
0.5
  9
$AUNITS
 70
     0
  9
$AUPREC
 70
     0
  9
$MENU
  1
.
  9
$ELEVATION
 40
0.0
  9
$PELEVATION
 40
0.0
  9
$THICKNESS
 40
0.0
  9
$LIMCHECK
 70
     0
  9
$CHAMFERA
 40
10.0
  9
$CHAMFERB
 40
10.0
  9
$CHAMFERC
 40
20.0
  9
$CHAMFERD
 40
0.0
  9
$SKPOLY
 70
     0
  9
$TDCREATE
 40
2455489.391063368
  9
$TDUCREATE
 40
2455489.057730035
  9
$TDUPDATE
 40
2458571.899671713
  9
$TDUUPDATE
 40
2458571.566338379
  9
$TDINDWG
 40
3.7382960532
  9
$TDUSRTIMER
 40
3.7382392824
  9
$USRTIMER
 70
     1
  9
$ANGBASE
 50
0.0
  9
$ANGDIR
 70
     0
  9
$PDMODE
 70
     0
  9
$PDSIZE
 40
0.0
  9
$PLINEWID
 40
0.0
  9
$SPLFRAME
 70
     0
  9
$SPLINETYPE
 70
     6
  9
$SPLINESEGS
 70
     8
  9
$HANDSEED
  5
5A098
  9
$SURFTAB1
 70
     6
  9
$SURFTAB2
 70
     6
  9
$SURFTYPE
 70
     6
  9
$SURFU
 70
     6
  9
$SURFV
 70
     6
  9
$UCSBASE
  2

  9
$UCSNAME
  2

  9
$UCSORG
 10
0.0
 20
0.0
 30
0.0
  9
$UCSXDIR
 10
1.0
 20
0.0
 30
0.0
  9
$UCSYDIR
 10
0.0
 20
1.0
 30
0.0
  9
$UCSORTHOREF
  2

  9
$UCSORTHOVIEW
 70
     0
  9
$UCSORGTOP
 10
0.0
 20
0.0
 30
0.0
  9
$UCSORGBOTTOM
 10
0.0
 20
0.0
 30
0.0
  9
$UCSORGLEFT
 10
0.0
 20
0.0
 30
0.0
  9
$UCSORGRIGHT
 10
0.0
 20
0.0
 30
0.0
  9
$UCSORGFRONT
 10
0.0
 20
0.0
 30
0.0
  9
$UCSORGBACK
 10
0.0
 20
0.0
 30
0.0
  9
$PUCSBASE
  2

  9
$PUCSNAME
  2

  9
$PUCSORG
 10
0.0
 20
0.0
 30
0.0
  9
$PUCSXDIR
 10
1.0
 20
0.0
 30
0.0
  9
$PUCSYDIR
 10
0.0
 20
1.0
 30
0.0
  9
$PUCSORTHOREF
  2

  9
$PUCSORTHOVIEW
 70
     0
  9
$PUCSORGTOP
 10
0.0
 20
0.0
 30
0.0
  9
$PUCSORGBOTTOM
 10
0.0
 20
0.0
 30
0.0
  9
$PUCSORGLEFT
 10
0.0
 20
0.0
 30
0.0
  9
$PUCSORGRIGHT
 10
0.0
 20
0.0
 30
0.0
  9
$PUCSORGFRONT
 10
0.0
 20
0.0
 30
0.0
  9
$PUCSORGBACK
 10
0.0
 20
0.0
 30
0.0
  9
$USERI1
 70
     0
  9
$USERI2
 70
     0
  9
$USERI3
 70
     0
  9
$USERI4
 70
     0
  9
$USERI5
 70
     0
  9
$USERR1
 40
0.0
  9
$USERR2
 40
0.0
  9
$USERR3
 40
0.0
  9
$USERR4
 40
0.0
  9
$USERR5
 40
0.0
  9
$WORLDVIEW
 70
     1
  9
$SHADEDGE
 70
     3
  9
$SHADEDIF
 70
    70
  9
$TILEMODE
 70
     1
  9
$MAXACTVP
 70
    64
  9
$PINSBASE
 10
0.0
 20
0.0
 30
0.0
  9
$PLIMCHECK
 70
     0
  9
$PEXTMIN
 10
26.66999878883364
 20
20.31999878883365
 30
0.0
  9
$PEXTMAX
 10
240.0299890995025
 20
182.8799890995025
 30
0.0
  9
$PLIMMIN
 10
-6.350006103515625
 20
-6.349999904632567
  9
$PLIMMAX
 10
273.0499877929688
 20
209.5499939918518
  9
$UNITMODE
 70
     0
  9
$VISRETAIN
 70
     1
  9
$PLINEGEN
 70
     0
  9
$PSLTSCALE
 70
     1
  9
$TREEDEPTH
 70
  3020
  9
$CMLSTYLE
  2
Standard
  9
$CMLJUST
 70
     0
  9
$CMLSCALE
 40
20.0
  9
$PROXYGRAPHICS
 70
     1
  9
$MEASUREMENT
 70
     1
  9
$CELWEIGHT
370
    -1
  9
$ENDCAPS
280
     0
  9
$JOINSTYLE
280
     0
  9
$LWDISPLAY
290
     0
  9
$INSUNITS
 70
     4
  9
$HYPERLINKBASE
  1

  9
$STYLESHEET
  1

  9
$XEDIT
290
     1
  9
$CEPSNTYPE
380
     0
  9
$PSTYLEMODE
290
     1
  9
$FINGERPRINTGUID
  2
{601DDA01-5B13-4A4C-8F56-1333B78D855B}
  9
$VERSIONGUID
  2
{150A1981-1D47-4B38-BB59-9A169A19B72A}
  9
$EXTNAMES
290
     1
  9
$PSVPSCALE
 40
0.0
  9
$OLESTARTUP
290
     0
  0
ENDSEC
  0
SECTION
  2
CLASSES
  0
CLASS
  1
ACDBDICTIONARYWDFLT
  2
AcDbDictionaryWithDefault
  3
ObjectDBX Classes
 90
        0
280
     0
281
     0
  0
CLASS
  1
ACDBPLACEHOLDER
  2
AcDbPlaceHolder
  3
ObjectDBX Classes
 90
        0
280
     0
281
     0
  0
CLASS
  1
LAYOUT
  2
AcDbLayout
  3
ObjectDBX Classes
 90
        0
280
     0
281
     0
  0
CLASS
  1
DICTIONARYVAR
  2
AcDbDictionaryVar
  3
ObjectDBX Classes
 90
        0
280
     0
281
     0
  0
CLASS
  1
TABLESTYLE
  2
AcDbTableStyle
  3
ObjectDBX Classes
 90
     2047
280
     0
281
     0
  0
CLASS
  1
SORTENTSTABLE
  2
AcDbSortentsTable
  3
ObjectDBX Classes
 90
        0
280
     0
281
     0
  0
CLASS
  1
DIMASSOC
  2
AcDbDimAssoc
  3
"AcDbDimAssoc|Product Desc:     AcDim ARX App For Dimension|Company:          Autodesk, Inc.|WEB Address:      www.autodesk.com"
 90
        0
280
     0
281
     0
  0
CLASS
  1
ACAD_EVALUATION_GRAPH
  2
AcDbEvalGraph
  3
ObjectDBX Classes
 90
    33921
280
     0
281
     0
  0
CLASS
  1
ACAECUSTOBJ
  2
AcAeEditorObj
  3
AcAeEditorObj
 90
    33792
280
     0
281
     0
  0
CLASS
  1
ACDB_DYNAMICBLOCKPURGEPREVENTER_VERSION
  2
AcDbDynamicBlockPurgePreventer
  3
ObjectDBX Classes
 90
    33921
280
     0
281
     0
  0
ENDSEC
  0
SECTION
  2
TABLES
  0
TABLE
  2
VPORT
  5
8
330
0
100
AcDbSymbolTable
 70
     8
  0
VPORT
  5
5A089
330
8
100
AcDbSymbolTableRecord
100
AcDbViewportTableRecord
  2
*Active
 70
     0
 10
0.0
 20
0.0
 11
1.0
 21
1.0
 12
32.00038478515205
 22
10.73418087462752
 13
0.0
 23
0.0
 14
10.0
 24
10.0
 15
10.0
 25
10.0
 16
0.0
 26
0.0
 36
1.0
 17
0.0
 27
0.0
 37
0.0
 40
426.6408470222742
 41
1.54384133611691
 42
50.0
 43
0.0
 44
0.0
 50
0.0
 51
0.0
 71
     0
 72
  1000
 73
     1
 74
     1
 75
     0
 76
     0
 77
     0
 78
     0
281
     0
 65
     1
110
0.0
120
0.0
130
0.0
111
1.0
121
0.0
131
0.0
112
0.0
122
1.0
132
0.0
 79
     0
146
0.0
  0
ENDTAB
  0
TABLE
  2
LTYPE
  5
5
330
0
100
AcDbSymbolTable
 70
     4
  0
LTYPE
  5
14
330
5
100
AcDbSymbolTableRecord
100
AcDbLinetypeTableRecord
  2
ByBlock
 70
     0
  3

 72
    65
 73
     0
 40
0.0
  0
LTYPE
  5
15
330
5
100
AcDbSymbolTableRecord
100
AcDbLinetypeTableRecord
  2
ByLayer
 70
     0
  3

 72
    65
 73
     0
 40
0.0
  0
LTYPE
  5
16
330
5
100
AcDbSymbolTableRecord
100
AcDbLinetypeTableRecord
  2
Continuous
 70
     0
  3
Solid line
 72
    65
 73
     0
 40
0.0
  0
LTYPE
  5
D7
330
5
100
AcDbSymbolTableRecord
100
AcDbLinetypeTableRecord
  2
HIDDEN
 70
     0
  3
Hidden __ __ __ __ __ __ __ __ __ __ __ __ __ _
 72
    65
 73
     2
 40
9.524999999999996
 49
6.349999999999997
 74
     0
 49
-3.174999999999998
 74
     0
  0
LTYPE
  5
D9
330
5
100
AcDbSymbolTableRecord
100
AcDbLinetypeTableRecord
  2
CENTER
 70
     0
  3
Center ____ _ ____ _ ____ _ ____ _ ____ _ ____
 72
    65
 73
     4
 40
50.8
 49
31.75
 74
     0
 49
-6.349999999999997
 74
     0
 49
6.349999999999997
 74
     0
 49
-6.349999999999997
 74
     0
  0
LTYPE
  5
35815
330
5
100
AcDbSymbolTableRecord
100
AcDbLinetypeTableRecord
  2
PHANTOM
 70
     0
  3
_____ _ _ _____ _ _ _____ _ _ _____
 72
    65
 73
     6
 40
0.8
 49
0.45
 74
     0
 49
-0.05
 74
     0
 49
0.1
 74
     0
 49
-0.05
 74
     0
 49
0.1
 74
     0
 49
-0.05
 74
     0
  0
ENDTAB
  0
TABLE
  2
LAYER
  5
2
102
{ACAD_XDICTIONARY
360
E2
102
}
330
0
100
AcDbSymbolTable
 70
    14
  0
LAYER
  5
10
330
2
100
AcDbSymbolTableRecord
100
AcDbLayerTableRecord
  2
0
 70
     0
 62
     7
  6
Continuous
370
    -3
390
F
  0
LAYER
  5
D1
330
2
100
AcDbSymbolTableRecord
100
AcDbLayerTableRecord
  2
1
 70
     0
 62
     4
  6
Continuous
370
    50
390
F
1001
AcAecLayerStandard
1000

1000

  0
LAYER
  5
D3
330
2
100
AcDbSymbolTableRecord
100
AcDbLayerTableRecord
  2
2
 70
     0
 62
     7
  6
Continuous
370
    25
390
F
1001
AcAecLayerStandard
1000

1000

  0
LAYER
  5
D4
330
2
100
AcDbSymbolTableRecord
100
AcDbLayerTableRecord
  2
3
 70
     0
 62
     1
  6
HIDDEN
370
    35
390
F
1001
AcAecLayerStandard
1000

1000

  0
LAYER
  5
D8
330
2
100
AcDbSymbolTableRecord
100
AcDbLayerTableRecord
  2
4
 70
     0
 62
     2
  6
CENTER
370
    25
390
F
1001
AcAecLayerStandard
1000

1000

  0
LAYER
  5
DA
330
2
100
AcDbSymbolTableRecord
100
AcDbLayerTableRecord
  2
6
 70
     0
 62
     5
  6
Continuous
370
    35
390
F
1001
AcAecLayerStandard
1000

1000

  0
LAYER
  5
DB
330
2
100
AcDbSymbolTableRecord
100
AcDbLayerTableRecord
  2
cut
 70
     0
 62
     1
  6
Continuous
370
    25
390
F
1001
AcAecLayerStandard
1000

1000

  0
LAYER
  5
DC
330
2
100
AcDbSymbolTableRecord
100
AcDbLayerTableRecord
  2
nocut
 70
     0
 62
     7
  6
Continuous
370
    25
390
F
1001
AcAecLayerStandard
1000

1000

  0
LAYER
  5
DD
330
2
100
AcDbSymbolTableRecord
100
AcDbLayerTableRecord
  2
sk1
 70
     0
 62
     4
  6
Continuous
370
    50
390
F
1001
AcAecLayerStandard
1000

1000

  0
LAYER
  5
DE
330
2
100
AcDbSymbolTableRecord
100
AcDbLayerTableRecord
  2
sk2
 70
     0
 62
     7
  6
Continuous
370
    25
390
F
1001
AcAecLayerStandard
1000

1000

  0
LAYER
  5
DF
330
2
100
AcDbSymbolTableRecord
100
AcDbLayerTableRecord
  2
sk3
 70
     0
 62
     1
  6
HIDDEN
370
    35
390
F
1001
AcAecLayerStandard
1000

1000

  0
LAYER
  5
E0
330
2
100
AcDbSymbolTableRecord
100
AcDbLayerTableRecord
  2
sk4
 70
     0
 62
     2
  6
CENTER
370
    25
390
F
1001
AcAecLayerStandard
1000

1000

  0
LAYER
  5
E1
330
2
100
AcDbSymbolTableRecord
100
AcDbLayerTableRecord
  2
sk6
 70
     0
 62
     5
  6
Continuous
370
    35
390
F
1001
AcAecLayerStandard
1000

1000

  0
LAYER
  5
31B6
330
2
100
AcDbSymbolTableRecord
100
AcDbLayerTableRecord
  2
Defpoints
 70
     0
 62
     7
  6
Continuous
290
     0
370
    -3
390
F
  0
ENDTAB
  0
TABLE
  2
STYLE
  5
3
330
0
100
AcDbSymbolTable
 70
    12
  0
STYLE
  5
11
330
3
100
AcDbSymbolTableRecord
100
AcDbTextStyleTableRecord
  2
Standard
 70
     0
 40
0.0
 41
1.0
 50
0.0
 71
     0
 42
2.5
  3
txt.shx
  4
@extfont2.shx
  0
STYLE
  5
D6
330
3
100
AcDbSymbolTableRecord
100
AcDbTextStyleTableRecord
  2

 70
     1
 40
0.0
 41
1.0
 50
0.0
 71
     0
 42
2.5
  3
ltypeshp.shx
  4

  0
STYLE
  5
24A
330
3
100
AcDbSymbolTableRecord
100
AcDbTextStyleTableRecord
  2
simplex
 70
     0
 40
3.5
 41
1.0
 50
0.0
 71
     0
 42
3.5
  3
txt.shx
  4

  0
STYLE
  5
69E
330
3
100
AcDbSymbolTableRecord
100
AcDbTextStyleTableRecord
  2
MX_NOTE_STANDARD
 70
     0
 40
0.0
 41
1.0
 50
0.0
 71
     0
 42
4.2
  3
txt.shx
  4
extfont.shx
  0
STYLE
  5
3524
330
3
100
AcDbSymbolTableRecord
100
AcDbTextStyleTableRecord
  2
TEXTSTYLE_2
 70
     0
 40
0.0
 41
0.775
 50
0.0
 71
     0
 42
0.2
  3
gdt
  4

  0
STYLE
  5
3525
330
3
100
AcDbSymbolTableRecord
100
AcDbTextStyleTableRecord
  2
TEXTSTYLE_3
 70
     0
 40
0.0
 41
0.75
 50
0.0
 71
     0
 42
0.2
  3
txt
  4

  0
STYLE
  5
3526
330
3
100
AcDbSymbolTableRecord
100
AcDbTextStyleTableRecord
  2
TEXTSTYLE_13
 70
     0
 40
0.0
 41
1.0
 50
0.0
 71
     0
 42
0.2
  3
txt
  4

  0
STYLE
  5
519A
330
3
100
AcDbSymbolTableRecord
100
AcDbTextStyleTableRecord
  2
TEXTSTYLE_14
 70
     0
 40
0.0
 41
1.0
 50
0.0
 71
     0
 42
0.2
  3
txt
  4

  0
STYLE
  5
6F72
330
3
100
AcDbSymbolTableRecord
100
AcDbTextStyleTableRecord
  2
TEXTSTYLE_4
 70
     0
 40
0.0
 41
0.75
 50
0.0
 71
     0
 42
0.2
  3
txt
  4

  0
STYLE
  5
6F73
330
3
100
AcDbSymbolTableRecord
100
AcDbTextStyleTableRecord
  2
TEXTSTYLE_17
 70
     0
 40
0.0
 41
1.0
 50
0.0
 71
     0
 42
0.2
  3
txt
  4

  0
STYLE
  5
FE12
330
3
100
AcDbSymbolTableRecord
100
AcDbTextStyleTableRecord
  2
TEXTSTYLE_12
 70
     0
 40
0.0
 41
1.0
 50
0.0
 71
     0
 42
0.2
  3
txt
  4

  0
STYLE
  5
3AAB8
330
3
100
AcDbSymbolTableRecord
100
AcDbTextStyleTableRecord
  2
TEXTSTYLE_20
 70
     0
 40
0.0
 41
0.6
 50
0.0
 71
     0
 42
0.2
  3
txt
  4

  0
ENDTAB
  0
TABLE
  2
VIEW
  5
6
330
0
100
AcDbSymbolTable
 70
     0
  0
ENDTAB
  0
TABLE
  2
UCS
  5
7
330
0
100
AcDbSymbolTable
 70
     0
  0
ENDTAB
  0
TABLE
  2
APPID
  5
9
330
0
100
AcDbSymbolTable
 70
    12
  0
APPID
  5
12
330
9
100
AcDbSymbolTableRecord
100
AcDbRegAppTableRecord
  2
ACAD
 70
     0
  0
APPID
  5
D2
330
9
100
AcDbSymbolTableRecord
100
AcDbRegAppTableRecord
  2
AcAecLayerStandard
 70
     0
  0
APPID
  5
E6
330
9
100
AcDbSymbolTableRecord
100
AcDbRegAppTableRecord
  2
ACAD_DSTYLE_DIMTEXT_FILL
 70
     0
  0
APPID
  5
4C84
330
9
100
AcDbSymbolTableRecord
100
AcDbRegAppTableRecord
  2
ACAD_EXEMPT_FROM_CAD_STANDARDS
 70
     0
  0
APPID
  5
3493E
330
9
100
AcDbSymbolTableRecord
100
AcDbRegAppTableRecord
  2
DCO15
 70
     0
  0
APPID
  5
3BAB0
330
9
100
AcDbSymbolTableRecord
100
AcDbRegAppTableRecord
  2
ACAD_DSTYLE_DIMEXT_ENABLED
 70
     0
  0
APPID
  5
3BAB1
330
9
100
AcDbSymbolTableRecord
100
AcDbRegAppTableRecord
  2
ACAD_DSTYLE_DIMEXT_LENGTH
 70
     0
  0
APPID
  5
3BEB4
330
9
100
AcDbSymbolTableRecord
100
AcDbRegAppTableRecord
  2
ACAUTHENVIRON
 70
     0
  0
APPID
  5
3BEB7
330
9
100
AcDbSymbolTableRecord
100
AcDbRegAppTableRecord
  2
AcDbDynamicBlockTrueName
 70
     0
  0
APPID
  5
3BEB8
330
9
100
AcDbSymbolTableRecord
100
AcDbRegAppTableRecord
  2
AcDbDynamicBlockGUID
 70
     0
  0
APPID
  5
3BEBA
330
9
100
AcDbSymbolTableRecord
100
AcDbRegAppTableRecord
  2
AcDbBlockRepETag
 70
     0
  0
APPID
  5
547FC
330
9
100
AcDbSymbolTableRecord
100
AcDbRegAppTableRecord
  2
ACAD_DSTYLE_DIMRADIAL_EXTENSION
 70
     0
  0
ENDTAB
  0
TABLE
  2
DIMSTYLE
  5
A
330
0
100
AcDbSymbolTable
 70
    11
100
AcDbDimStyleTable
 71
     5
340
1BF
340
27
340
352A
340
3527
340
69F
  0
DIMSTYLE
105
27
330
A
100
AcDbSymbolTableRecord
100
AcDbDimStyleTableRecord
  2
ISO-25
 70
     0
 41
2.5
 42
0.625
 43
3.75
 44
1.25
 73
     0
 74
     0
 77
     1
 78
     8
140
2.5
141
2.5
143
0.03937007874016
147
0.625
171
     3
172
     1
271
     2
272
     2
274
     3
278
    44
283
     0
284
     8
340
11
  0
DIMSTYLE
105
1BF
102
{ACAD_REACTORS
330
59D51
330
59D52
330
59D53
330
59D68
330
59D69
330
59EBD
330
59F08
102
}
330
A
100
AcDbSymbolTableRecord
100
AcDbDimStyleTableRecord
  2
\M+18352\M+18373\M+1815B - ISO-25
 70
     0
 40
0.0
 41
3.5
 42
0.0
 44
1.5
 73
     0
 74
     0
 77
     1
 78
     8
140
3.5
147
2.299999999999998
176
   256
177
   256
178
   256
271
     2
272
     2
284
     8
340
24A
371
    -1
372
    -1
  0
DIMSTYLE
105
69F
330
A
100
AcDbSymbolTableRecord
100
AcDbDimStyleTableRecord
  2
MXDIMSTYLE
 70
     0
 41
2.5
 42
0.5
 43
3.75
 44
1.5
 73
     0
 74
     0
 77
     1
 78
     8
140
4.2
141
2.5
143
0.03937
147
1.0
171
     4
172
     1
173
     1
271
     2
272
     2
274
     4
283
     0
288
     1
340
69E
341
697
343
697
344
697
  0
DIMSTYLE
105
3527
330
A
100
AcDbSymbolTableRecord
100
AcDbDimStyleTableRecord
  2
STANDARD
 70
     0
 41
3.0
 47
0.001
 48
0.001
 71
     1
 73
     0
 74
     0
 77
     1
 78
     8
140
4.0
271
     3
272
     3
284
     8
340
11
341
34B1
342
34B1
343
34B1
344
34B1
  0
DIMSTYLE
105
3528
330
A
100
AcDbSymbolTableRecord
100
AcDbDimStyleTableRecord
  2
DIMSTYLE_1
 70
     0
 41
3.0
 73
     0
 74
     0
 77
     1
 78
     8
140
4.0
271
     3
272
     3
284
     8
340
11
341
34B1
342
34B1
343
34B1
344
34B1
  0
DIMSTYLE
105
3529
330
A
100
AcDbSymbolTableRecord
100
AcDbDimStyleTableRecord
  2
DIMSTYLE_2
 70
     0
 41
3.0
 47
0.001
 48
0.001
 73
     0
 74
     0
 77
     1
 78
     8
140
4.0
271
     3
272
     3
284
     8
340
11
341
34B1
342
34B1
343
34B1
344
34B1
  0
DIMSTYLE
105
352A
330
A
100
AcDbSymbolTableRecord
100
AcDbDimStyleTableRecord
  2
DIMSTYLE_3
 70
     0
 41
3.0
 47
-0.1
 48
0.3
 71
     1
 73
     0
 74
     0
 77
     1
 78
     8
140
4.0
146
0.5
271
     3
272
     3
284
     8
340
11
341
34B1
342
34B1
343
34B1
344
34B1
  0
DIMSTYLE
105
352B
330
A
100
AcDbSymbolTableRecord
100
AcDbDimStyleTableRecord
  2
DIMSTYLE_4
 70
     0
 41
3.0
 47
0.1
 48
0.1
 71
     1
 73
     0
 74
     0
 77
     1
 78
     8
140
4.0
271
     3
272
     3
284
     8
340
11
341
34B1
342
34B1
343
34B1
344
34B1
  0
DIMSTYLE
105
27245
330
A
100
AcDbSymbolTableRecord
100
AcDbDimStyleTableRecord
  2
DIMSTYLE_5
 70
     0
 41
3.0
 47
0.001
 48
0.001
 73
     0
 74
     0
 77
     1
 78
     8
140
4.0
271
     3
272
     3
284
     8
340
11
341
34B1
342
34B1
343
34B1
344
34B1
  0
DIMSTYLE
105
3AAB9
330
A
100
AcDbSymbolTableRecord
100
AcDbDimStyleTableRecord
  2
DIMSTYLE_6
 70
     0
 41
3.0
 42
0.0
 44
1.0
 47
0.05
 48
0.05
 71
     1
 73
     0
 74
     0
 77
     1
 78
     8
140
4.0
147
1.0
271
     3
272
     3
284
     8
340
11
341
34B1
342
34B1
343
34B1
344
34B1
  0
DIMSTYLE
105
532EA
330
A
100
AcDbSymbolTableRecord
100
AcDbDimStyleTableRecord
  2
NEW-DIMSTYLE
 70
     0
 40
0.0
 41
4.57
 42
0.0
 44
5.0
 73
     0
 74
     0
 77
     1
 78
     8
140
4.57
147
2.299999999999998
271
     2
340
24A
  0
ENDTAB
  0
TABLE
  2
BLOCK_RECORD
  5
1
330
0
100
AcDbSymbolTable
 70
    94
  0
BLOCK_RECORD
  5
1F
102
{ACAD_XDICTIONARY
360
31EE
102
}
330
1
100
AcDbSymbolTableRecord
100
AcDbBlockTableRecord
  2
*Model_Space
340
22
  0
BLOCK_RECORD
  5
50
330
1
100
AcDbSymbolTableRecord
100
AcDbBlockTableRecord
  2
*Paper_Space
340
51
  0
BLOCK_RECORD
  5
55
330
1
100
AcDbSymbolTableRecord
100
AcDbBlockTableRecord
  2
*Paper_Space0
340
56
  0
BLOCK_RECORD
  5
680
102
{ACAD_XDICTIONARY
360
3BEB2
102
}
330
1
100
AcDbSymbolTableRecord
100
AcDbBlockTableRecord
  2
zero block
340
0
102
{BLKREFS
331
68C
102
}
1001
ACAD
1000
DesignCenter Data
1002
{
1070
     1
1070
     4
1002
}
1001
AcDbDynamicBlockGUID
1000
{C2E8894D-A8DA-456D-ABB6-198B00672C1A}
1001
AcDbBlockRepETag
1070
     1
1071
        7
  0
BLOCK_RECORD
  5
697
330
1
100
AcDbSymbolTableRecord
100
AcDbBlockTableRecord
  2
_OPEN30
340
0
  0
BLOCK_RECORD
  5
34B1
330
1
100
AcDbSymbolTableRecord
100
AcDbBlockTableRecord
  2
_OPEN
340
0
  0
BLOCK_RECORD
  5
50E6F
330
1
100
AcDbSymbolTableRecord
100
AcDbBlockTableRecord
  2
_None
340
0
  0
BLOCK_RECORD
  5
58879
330
1
100
AcDbSymbolTableRecord
100
AcDbBlockTableRecord
  2
*D10
340
0
  0
BLOCK_RECORD
  5
593CF
330
1
100
AcDbSymbolTableRecord
100
AcDbBlockTableRecord
  2
*D54
340
0
  0
BLOCK_RECORD
  5
593DC
330
1
100
AcDbSymbolTableRecord
100
AcDbBlockTableRecord
  2
*D55
340
0
  0
BLOCK_RECORD
  5
593E8
330
1
100
AcDbSymbolTableRecord
100
AcDbBlockTableRecord
  2
*D56
340
0
  0
BLOCK_RECORD
  5
593F5
330
1
100
AcDbSymbolTableRecord
100
AcDbBlockTableRecord
  2
*D57
340
0
  0
BLOCK_RECORD
  5
59401
330
1
100
AcDbSymbolTableRecord
100
AcDbBlockTableRecord
  2
*D58
340
0
  0
BLOCK_RECORD
  5
59417
330
1
100
AcDbSymbolTableRecord
100
AcDbBlockTableRecord
  2
*D60
340
0
  0
BLOCK_RECORD
  5
5947C
330
1
100
AcDbSymbolTableRecord
100
AcDbBlockTableRecord
  2
*D64
340
0
  0
BLOCK_RECORD
  5
59AF1
330
1
100
AcDbSymbolTableRecord
100
AcDbBlockTableRecord
  2
*D67
340
0
  0
BLOCK_RECORD
  5
59AFD
330
1
100
AcDbSymbolTableRecord
100
AcDbBlockTableRecord
  2
*D68
340
0
  0
BLOCK_RECORD
  5
59B0A
330
1
100
AcDbSymbolTableRecord
100
AcDbBlockTableRecord
  2
*D69
340
0
  0
BLOCK_RECORD
  5
59B16
330
1
100
AcDbSymbolTableRecord
100
AcDbBlockTableRecord
  2
*D70
340
0
  0
BLOCK_RECORD
  5
59B22
330
1
100
AcDbSymbolTableRecord
100
AcDbBlockTableRecord
  2
*D71
340
0
  0
BLOCK_RECORD
  5
59B2F
330
1
100
AcDbSymbolTableRecord
100
AcDbBlockTableRecord
  2
*D72
340
0
  0
BLOCK_RECORD
  5
59B39
330
1
100
AcDbSymbolTableRecord
100
AcDbBlockTableRecord
  2
*D73
340
0
  0
BLOCK_RECORD
  5
59B43
330
1
100
AcDbSymbolTableRecord
100
AcDbBlockTableRecord
  2
*D74
340
0
  0
BLOCK_RECORD
  5
59B4D
330
1
100
AcDbSymbolTableRecord
100
AcDbBlockTableRecord
  2
*D75
340
0
  0
BLOCK_RECORD
  5
59B57
330
1
100
AcDbSymbolTableRecord
100
AcDbBlockTableRecord
  2
*D76
340
0
  0
BLOCK_RECORD
  5
59B61
330
1
100
AcDbSymbolTableRecord
100
AcDbBlockTableRecord
  2
*D77
340
0
  0
BLOCK_RECORD
  5
59B6B
330
1
100
AcDbSymbolTableRecord
100
AcDbBlockTableRecord
  2
*D78
340
0
  0
BLOCK_RECORD
  5
59B75
330
1
100
AcDbSymbolTableRecord
100
AcDbBlockTableRecord
  2
*D79
340
0
  0
BLOCK_RECORD
  5
59F1D
330
1
100
AcDbSymbolTableRecord
100
AcDbBlockTableRecord
  2
*D81
340
0
  0
BLOCK_RECORD
  5
59F2A
330
1
100
AcDbSymbolTableRecord
100
AcDbBlockTableRecord
  2
*D82
340
0
  0
BLOCK_RECORD
  5
59F36
330
1
100
AcDbSymbolTableRecord
100
AcDbBlockTableRecord
  2
*D83
340
0
  0
BLOCK_RECORD
  5
59F43
330
1
100
AcDbSymbolTableRecord
100
AcDbBlockTableRecord
  2
*D84
340
0
  0
BLOCK_RECORD
  5
59F4F
330
1
100
AcDbSymbolTableRecord
100
AcDbBlockTableRecord
  2
*D85
340
0
  0
BLOCK_RECORD
  5
59F5B
330
1
100
AcDbSymbolTableRecord
100
AcDbBlockTableRecord
  2
*D86
340
0
  0
BLOCK_RECORD
  5
59F65
330
1
100
AcDbSymbolTableRecord
100
AcDbBlockTableRecord
  2
*D87
340
0
  0
BLOCK_RECORD
  5
59F6F
330
1
100
AcDbSymbolTableRecord
100
AcDbBlockTableRecord
  2
*D88
340
0
  0
BLOCK_RECORD
  5
59F79
330
1
100
AcDbSymbolTableRecord
100
AcDbBlockTableRecord
  2
*D89
340
0
  0
BLOCK_RECORD
  5
59FB9
330
1
100
AcDbSymbolTableRecord
100
AcDbBlockTableRecord
  2
*D90
340
0
  0
BLOCK_RECORD
  5
59FCA
330
1
100
AcDbSymbolTableRecord
100
AcDbBlockTableRecord
  2
*D91
340
0
  0
BLOCK_RECORD
  5
59FDB
330
1
100
AcDbSymbolTableRecord
100
AcDbBlockTableRecord
  2
*D92
340
0
  0
BLOCK_RECORD
  5
59FEC
330
1
100
AcDbSymbolTableRecord
100
AcDbBlockTableRecord
  2
*D93
340
0
  0
ENDTAB
  0
ENDSEC
  0
SECTION
  2
BLOCKS
  0
BLOCK
  5
20
330
1F
100
AcDbEntity
  8
0
100
AcDbBlockBegin
  2
*Model_Space
 70
     0
 10
0.0
 20
0.0
 30
0.0
  3
*Model_Space
  1

  0
ENDBLK
  5
21
330
1F
100
AcDbEntity
  8
0
100
AcDbBlockEnd
  0
BLOCK
  5
52
330
50
100
AcDbEntity
 67
     1
  8
0
100
AcDbBlockBegin
  2
*Paper_Space
 70
     0
 10
0.0
 20
0.0
 30
0.0
  3
*Paper_Space
  1

  0
ENDBLK
  5
53
330
50
100
AcDbEntity
 67
     1
  8
0
100
AcDbBlockEnd
  0
BLOCK
  5
57
330
55
100
AcDbEntity
 67
     1
  8
0
100
AcDbBlockBegin
  2
*Paper_Space0
 70
     0
 10
0.0
 20
0.0
 30
0.0
  3
*Paper_Space0
  1

  0
VIEWPORT
  5
71
102
{ACAD_XDICTIONARY
360
5A094
102
}
330
55
100
AcDbEntity
 67
     1
  8
0
100
AcDbViewport
 10
150.1652135264906
 20
101.599997546291
 30
0.0
 40
339.1973820494347
 41
164.5360435314421
 68
     0
 69
     0
 12
150.1652135264906
 22
101.599997546291
 13
0.0
 23
0.0
 14
10.0
 24
10.0
 15
10.0
 25
10.0
 16
0.0
 26
0.0
 36
1.0
 17
0.0
 27
0.0
 37
0.0
 42
50.0
 43
0.0
 44
0.0
 45
164.5360435314421
 50
0.0
 51
0.0
 72
  1000
 90
    32864
  1

281
     0
 71
     1
 74
     0
110
0.0
120
0.0
130
0.0
111
1.0
121
0.0
131
0.0
112
0.0
122
1.0
132
0.0
 79
     0
146
0.0
  0
VIEWPORT
  5
73
102
{ACAD_XDICTIONARY
360
5A096
102
}
330
55
100
AcDbEntity
 67
     1
  8
0
100
AcDbViewport
 10
133.3499939441681
 20
101.5999939441681
 30
0.0
 40
213.3599903106689
 41
162.5599903106689
 68
     0
 69
     0
 12
210.0
 22
148.5
 13
0.0
 23
0.0
 14
10.0
 24
10.0
 15
10.0
 25
10.0
 16
0.0
 26
0.0
 36
1.0
 17
0.0
 27
0.0
 37
0.0
 42
50.0
 43
0.0
 44
0.0
 45
324.0677920111345
 50
0.0
 51
0.0
 72
   100
 90
    32864
  1

281
     0
 71
     1
 74
     0
110
0.0
120
0.0
130
0.0
111
1.0
121
0.0
131
0.0
112
0.0
122
1.0
132
0.0
 79
     0
146
0.0
  0
ENDBLK
  5
58
330
55
100
AcDbEntity
 67
     1
  8
0
100
AcDbBlockEnd
  0
BLOCK
  5
68A
330
680
100
AcDbEntity
  8
0
100
AcDbBlockBegin
  2
zero block
 70
     0
 10
0.0
 20
0.0
 30
0.0
  3
zero block
  1

  0
HATCH
  5
3BEAB
330
680
100
AcDbEntity
  8
0
 62
     7
100
AcDbHatch
 10
0.0
 20
0.0
 30
0.0
210
0.0
220
0.0
230
1.0
  2
SOLID
 70
     1
 71
     0
 91
        2
 92
        7
 72
     1
 73
     1
 93
        3
 10
0.0
 20
0.9999999999999875
 42
0.4142135623730915
 10
-1.0
 20
0.0
 42
0.0
 10
0.0
 20
0.0
 42
0.0
 97
        0
 92
        7
 72
     1
 73
     1
 93
        3
 10
1.000000000000007
 20
0.0
 42
0.0
 10
0.0
 20
0.0
 42
0.0
 10
0.0
 20
-1.0
 42
0.4142135623730974
 97
        0
 75
     0
 76
     1
 47
0.0090601366782909
 98
        2
 10
-0.380591363650975
 20
0.4885804701532896
 10
0.4350764810977559
 20
-0.4536738423704725
1001
AcDbBlockRepETag
1070
     1
1071
        0
1005
3BEAB
  0
LINE
  5
3BEAC
330
680
100
AcDbEntity
  8
0
 62
     7
 48
0.2
100
AcDbLine
 10
-1.0
 20
0.0
 30
0.0
 11
1.000000000000007
 21
0.0
 31
0.0
1001
AcDbBlockRepETag
1070
     1
1071
        1
1005
3BEAC
  0
LINE
  5
3BEAD
330
680
100
AcDbEntity
  8
0
 62
     7
 48
0.2
100
AcDbLine
 10
0.0
 20
-1.0
 30
0.0
 11
0.0
 21
0.9999999999999875
 31
0.0
1001
AcDbBlockRepETag
1070
     1
1071
        2
1005
3BEAD
  0
ARC
  5
3BEAE
330
680
100
AcDbEntity
  8
0
 62
     7
 48
0.2
100
AcDbCircle
 10
0.0
 20
0.0
 30
0.0
 40
1.0
100
AcDbArc
 50
270.0
 51
0.0
1001
AcDbBlockRepETag
1070
     1
1071
        3
1005
3BEAE
  0
ARC
  5
3BEAF
330
680
100
AcDbEntity
  8
0
 62
     7
 48
0.2
100
AcDbCircle
 10
0.0
 20
0.0
 30
0.0
 40
1.0
100
AcDbArc
 50
0.0
 51
90.0
1001
AcDbBlockRepETag
1070
     1
1071
        4
1005
3BEAF
  0
ARC
  5
3BEB0
330
680
100
AcDbEntity
  8
0
 62
     7
 48
0.2
100
AcDbCircle
 10
0.0
 20
0.0
 30
0.0
 40
1.0
100
AcDbArc
 50
180.0
 51
270.0
1001
AcDbBlockRepETag
1070
     1
1071
        5
1005
3BEB0
  0
ARC
  5
3BEB1
330
680
100
AcDbEntity
  8
0
 62
     7
 48
0.2
100
AcDbCircle
 10
0.0
 20
0.0
 30
0.0
 40
1.0
100
AcDbArc
 50
90.0
 51
180.0
1001
AcDbBlockRepETag
1070
     1
1071
        6
1005
3BEB1
  0
ENDBLK
  5
68B
330
680
100
AcDbEntity
  8
0
100
AcDbBlockEnd
  0
BLOCK
  5
698
330
697
100
AcDbEntity
  8
0
  6
ByBlock
 62
     0
370
    -2
100
AcDbBlockBegin
  2
_OPEN30
 70
     2
 10
0.0
 20
0.0
 30
0.0
  3
_OPEN30
  1

  0
LINE
  5
699
330
697
100
AcDbEntity
  8
0
  6
ByBlock
 62
     0
370
    -2
100
AcDbLine
 10
-1.0
 20
0.267949
 30
0.0
 11
0.0
 21
0.0
 31
0.0
  0
LINE
  5
69A
330
697
100
AcDbEntity
  8
0
  6
ByBlock
 62
     0
370
    -2
100
AcDbLine
 10
0.0
 20
0.0
 30
0.0
 11
-1.0
 21
-0.267949
 31
0.0
  0
LINE
  5
69B
330
697
100
AcDbEntity
  8
0
  6
ByBlock
 62
     0
370
    -2
100
AcDbLine
 10
0.0
 20
0.0
 30
0.0
 11
-1.0
 21
0.0
 31
0.0
  0
ENDBLK
  5
69C
330
697
100
AcDbEntity
  8
0
  6
ByBlock
 62
     0
370
    -2
100
AcDbBlockEnd
  0
BLOCK
  5
34B2
330
34B1
100
AcDbEntity
  8
0
100
AcDbBlockBegin
  2
_OPEN
 70
     0
 10
0.0
 20
0.0
 30
0.0
  3
_OPEN
  1

  0
LINE
  5
34B3
330
34B1
100
AcDbEntity
  8
0
  6
ByBlock
 62
     0
100
AcDbLine
 10
0.0
 20
0.0
 30
0.0
 11
-1.0
 21
0.1766666667
 31
0.0
  0
LINE
  5
34B4
330
34B1
100
AcDbEntity
  8
0
  6
ByBlock
 62
     0
100
AcDbLine
 10
-1.0
 20
-0.1766666667
 30
0.0
 11
0.0
 21
0.0
 31
0.0
  0
LINE
  5
34B5
330
34B1
100
AcDbEntity
  8
0
  6
ByBlock
 62
     0
100
AcDbLine
 10
-1.0
 20
0.0
 30
0.0
 11
0.0
 21
0.0
 31
0.0
  0
ENDBLK
  5
34B6
330
34B1
100
AcDbEntity
  8
0
  6
ByBlock
 62
     0
100
AcDbBlockEnd
  0
BLOCK
  5
50E70
330
50E6F
100
AcDbEntity
  8
0
100
AcDbBlockBegin
  2
_None
 70
     0
 10
0.0
 20
0.0
 30
0.0
  3
_None
  1

  0
ENDBLK
  5
50E71
330
50E6F
100
AcDbEntity
  8
0
100
AcDbBlockEnd
  0
BLOCK
  5
58883
330
58879
100
AcDbEntity
  8
0
100
AcDbBlockBegin
  2
*D10
 70
     1
 10
0.0
 20
0.0
 30
0.0
  3
*D10
  1

  0
LINE
  5
58977
330
58879
100
AcDbEntity
  8
sk2
100
AcDbLine
 10
257.1750000000081
 20
11.59092925224453
 30
0.0
 11
257.1750000000081
 21
76.59913296379375
 31
0.0
  0
LINE
  5
58978
330
58879
100
AcDbEntity
  8
sk2
100
AcDbLine
 10
-98.42500000000008
 20
14.17499500000014
 30
0.0
 11
-98.42500000000008
 21
76.59913296379375
 31
0.0
  0
LINE
  5
58979
330
58879
100
AcDbEntity
  8
sk2
100
AcDbLine
 10
253.6750000000081
 20
75.09913296379375
 30
0.0
 11
-94.92500000000005
 21
75.09913296379375
 31
0.0
  0
SOLID
  5
5897A
330
58879
100
AcDbEntity
  8
sk2
100
AcDbTrace
 10
253.6750000000081
 20
75.68246629712708
 30
0.0
 11
253.6750000000081
 21
74.51579963046042
 31
0.0
 12
257.1750000000081
 22
75.09913296379375
 32
0.0
 13
257.1750000000081
 23
75.09913296379375
 33
0.0
  0
SOLID
  5
5897B
330
58879
100
AcDbEntity
  8
sk2
100
AcDbTrace
 10
-94.92500000000005
 20
75.68246629712708
 30
0.0
 11
-94.92500000000005
 21
74.51579963046042
 31
0.0
 12
-98.42500000000008
 22
75.09913296379375
 32
0.0
 13
-98.42500000000008
 23
75.09913296379375
 33
0.0
  0
MTEXT
  5
5897C
330
58879
100
AcDbEntity
  8
sk2
100
AcDbMText
 10
79.37500000000409
 20
79.14913296379373
 30
0.0
 40
3.5
 41
0.0
 71
     5
 72
     1
  1
\A1;355.6 [14.000"]
  7
simplex
 73
     1
 44
1.0
1001
ACAD
1000
MTEXTBEGIN
1070
    73
1070
     1
1070
    44
1040
1.0
1070
    74
1070
     0
1000
MTEXTEND
  0
POINT
  5
5897D
330
58879
100
AcDbEntity
  8
Defpoints
 62
     0
100
AcDbPoint
 10
257.1750000000081
 20
11.59092925224453
 30
0.0
  0
POINT
  5
5897E
330
58879
100
AcDbEntity
  8
Defpoints
 62
     0
100
AcDbPoint
 10
-98.42500000000008
 20
14.17499500000014
 30
0.0
  0
POINT
  5
5897F
330
58879
100
AcDbEntity
  8
Defpoints
 62
     0
100
AcDbPoint
 10
-98.42500000000008
 20
75.09913296379375
 30
0.0
  0
ENDBLK
  5
58884
330
58879
100
AcDbEntity
  8
0
100
AcDbBlockEnd
  0
BLOCK
  5
593DA
330
593CF
100
AcDbEntity
  8
0
100
AcDbBlockBegin
  2
*D54
 70
     1
 10
0.0
 20
0.0
 30
0.0
  3
*D54
  1

  0
LINE
  5
594D9
330
593CF
100
AcDbEntity
  8
2
100
AcDbLine
 10
89.09663672056046
 20
-14.74999999999994
 30
0.0
 11
71.37298558939005
 21
-14.74999999999994
 31
0.0
  0
LINE
  5
594DA
330
593CF
100
AcDbEntity
  8
2
100
AcDbLine
 10
89.09663672056046
 20
14.75000000000006
 30
0.0
 11
71.37298558939005
 21
14.75000000000006
 31
0.0
  0
LINE
  5
594DB
330
593CF
100
AcDbEntity
  8
2
100
AcDbLine
 10
72.87298558939006
 20
11.25000000000006
 30
0.0
 11
72.87298558939006
 21
-11.24999999999994
 31
0.0
  0
LINE
  5
594DC
330
593CF
100
AcDbEntity
  8
2
100
AcDbLine
 10
72.87298558939006
 20
-14.74999999999994
 30
0.0
 11
72.87298558939004
 21
-62.51666666666661
 31
0.0
  0
SOLID
  5
594DD
330
593CF
100
AcDbEntity
  8
2
100
AcDbTrace
 10
72.28965225605673
 20
11.25000000000006
 30
0.0
 11
73.45631892272338
 21
11.25000000000006
 31
0.0
 12
72.87298558939006
 22
14.75000000000006
 32
0.0
 13
72.87298558939006
 23
14.75000000000006
 33
0.0
  0
SOLID
  5
594DE
330
593CF
100
AcDbEntity
  8
2
100
AcDbTrace
 10
72.28965225605673
 20
-11.24999999999994
 30
0.0
 11
73.45631892272338
 21
-11.24999999999994
 31
0.0
 12
72.87298558939006
 22
-14.74999999999994
 32
0.0
 13
72.87298558939006
 23
-14.74999999999994
 33
0.0
  0
MTEXT
  5
594DF
330
593CF
100
AcDbEntity
  8
2
100
AcDbMText
 10
68.82298558939005
 20
-40.38333333333326
 30
0.0
 40
3.5
 41
0.0
 71
     5
 72
     1
  1
\A1;%%C29.5 [%%C1.161"]
  7
simplex
 11
0.0000000000000001
 21
1.0
 31
0.0
 73
     1
 44
1.0
1001
ACAD
1000
MTEXTBEGIN
1070
    73
1070
     1
1070
    44
1040
1.0
1070
    74
1070
     0
1000
MTEXTEND
  0
POINT
  5
594E0
330
593CF
100
AcDbEntity
  8
Defpoints
 62
     0
100
AcDbPoint
 10
89.09663672056046
 20
-14.74999999999994
 30
0.0
  0
POINT
  5
594E1
330
593CF
100
AcDbEntity
  8
Defpoints
 62
     0
100
AcDbPoint
 10
89.09663672056046
 20
14.75000000000006
 30
0.0
  0
POINT
  5
594E2
330
593CF
100
AcDbEntity
  8
Defpoints
 62
     0
100
AcDbPoint
 10
72.87298558939006
 20
14.75000000000006
 30
0.0
  0
ENDBLK
  5
593DB
330
593CF
100
AcDbEntity
  8
0
100
AcDbBlockEnd
  0
BLOCK
  5
593E6
330
593DC
100
AcDbEntity
  8
0
100
AcDbBlockBegin
  2
*D55
 70
     1
 10
0.0
 20
0.0
 30
0.0
  3
*D55
  1

  0
LINE
  5
594E3
330
593DC
100
AcDbEntity
  8
2
100
AcDbLine
 10
133.2750000000024
 20
14.74998400000004
 30
0.0
 11
133.2750000000024
 21
46.90957599999999
 31
0.0
  0
LINE
  5
594E4
330
593DC
100
AcDbEntity
  8
2
100
AcDbLine
 10
168.2749999999999
 20
11.56895637048254
 30
0.0
 11
168.2749999999999
 21
46.90957599999999
 31
0.0
  0
LINE
  5
594E5
330
593DC
100
AcDbEntity
  8
2
100
AcDbLine
 10
136.7750000000025
 20
45.40957599999998
 30
0.0
 11
164.775
 21
45.40957599999998
 31
0.0
  0
SOLID
  5
594E6
330
593DC
100
AcDbEntity
  8
2
100
AcDbTrace
 10
136.7750000000025
 20
45.99290933333332
 30
0.0
 11
136.7750000000025
 21
44.82624266666665
 31
0.0
 12
133.2750000000024
 22
45.40957599999998
 32
0.0
 13
133.2750000000024
 23
45.40957599999998
 33
0.0
  0
SOLID
  5
594E7
330
593DC
100
AcDbEntity
  8
2
100
AcDbTrace
 10
164.775
 20
45.99290933333332
 30
0.0
 11
164.775
 21
44.82624266666665
 31
0.0
 12
168.2749999999999
 22
45.40957599999998
 32
0.0
 13
168.2749999999999
 23
45.40957599999998
 33
0.0
  0
MTEXT
  5
594E8
330
593DC
100
AcDbEntity
  8
2
100
AcDbMText
 10
150.2750025
 20
49.45957599999998
 30
0.0
 40
3.5
 41
0.0
 71
     5
 72
     1
  1
\A1;35 [1.378"]
  7
simplex
 73
     1
 44
0.892857
1001
ACAD
1000
MTEXTBEGIN
1070
    73
1070
     1
1070
    44
1040
0.892857
1070
    74
1070
     0
1000
MTEXTEND
  0
POINT
  5
594E9
330
593DC
100
AcDbEntity
  8
Defpoints
 62
     0
100
AcDbPoint
 10
133.2750000000024
 20
14.74998400000004
 30
0.0
  0
POINT
  5
594EA
330
593DC
100
AcDbEntity
  8
Defpoints
 62
     0
100
AcDbPoint
 10
168.2749999999999
 20
11.56895637048254
 30
0.0
  0
POINT
  5
594EB
330
593DC
100
AcDbEntity
  8
Defpoints
 62
     0
100
AcDbPoint
 10
168.2749999999999
 20
45.40957599999998
 30
0.0
  0
ENDBLK
  5
593E7
330
593DC
100
AcDbEntity
  8
0
100
AcDbBlockEnd
  0
BLOCK
  5
593F3
330
593E8
100
AcDbEntity
  8
0
100
AcDbBlockBegin
  2
*D56
 70
     1
 10
0.0
 20
0.0
 30
0.0
  3
*D56
  1

  0
LINE
  5
594EC
330
593E8
100
AcDbEntity
  8
sk2
100
AcDbLine
 10
-93.42499999999995
 20
-15.87499999999993
 30
0.0
 11
-124.9169633333333
 21
-15.87499999999992
 31
0.0
  0
LINE
  5
594ED
330
593E8
100
AcDbEntity
  8
sk2
100
AcDbLine
 10
-93.42499999999995
 20
15.87500000000005
 30
0.0
 11
-124.9169633333333
 21
15.87500000000006
 31
0.0
  0
LINE
  5
594EE
330
593E8
100
AcDbEntity
  8
sk2
100
AcDbLine
 10
-123.4169633333333
 20
12.37500000000006
 30
0.0
 11
-123.4169633333333
 21
-12.37499999999992
 31
0.0
  0
LINE
  5
594EF
330
593E8
100
AcDbEntity
  8
sk2
100
AcDbLine
 10
-123.4169633333333
 20
-15.87499999999992
 30
0.0
 11
-123.4169633333333
 21
-67.72499999999992
 31
0.0
  0
SOLID
  5
594F0
330
593E8
100
AcDbEntity
  8
sk2
100
AcDbTrace
 10
-124.0002966666666
 20
12.37500000000006
 30
0.0
 11
-122.8336299999999
 21
12.37500000000006
 31
0.0
 12
-123.4169633333333
 22
15.87500000000006
 32
0.0
 13
-123.4169633333333
 23
15.87500000000006
 33
0.0
  0
SOLID
  5
594F1
330
593E8
100
AcDbEntity
  8
sk2
100
AcDbTrace
 10
-124.0002966666666
 20
-12.37499999999992
 30
0.0
 11
-122.8336299999999
 21
-12.37499999999992
 31
0.0
 12
-123.4169633333333
 22
-15.87499999999992
 32
0.0
 13
-123.4169633333333
 23
-15.87499999999992
 33
0.0
  0
MTEXT
  5
594F2
330
593E8
100
AcDbEntity
  8
sk2
100
AcDbMText
 10
-127.4669633333333
 20
-43.54999999999994
 30
0.0
 40
3.5
 41
0.0
 71
     5
 72
     1
  1
\A1;%%c31.75 [%%C1.250"]
  7
simplex
 11
0.0000000000000001
 21
1.0
 31
0.0
 73
     1
 44
0.892857
1001
ACAD
1000
MTEXTBEGIN
1070
    73
1070
     1
1070
    44
1040
0.892857
1070
    74
1070
     0
1000
MTEXTEND
  0
POINT
  5
594F3
330
593E8
100
AcDbEntity
  8
Defpoints
 62
     0
100
AcDbPoint
 10
-93.42499999999995
 20
-15.87499999999993
 30
0.0
  0
POINT
  5
594F4
330
593E8
100
AcDbEntity
  8
Defpoints
 62
     0
100
AcDbPoint
 10
-93.42499999999995
 20
15.87500000000005
 30
0.0
  0
POINT
  5
594F5
330
593E8
100
AcDbEntity
  8
Defpoints
 62
     0
100
AcDbPoint
 10
-123.4169633333333
 20
15.87500000000006
 30
0.0
  0
ENDBLK
  5
593F4
330
593E8
100
AcDbEntity
  8
0
100
AcDbBlockEnd
  0
BLOCK
  5
593FF
330
593F5
100
AcDbEntity
  8
0
100
AcDbBlockBegin
  2
*D57
 70
     1
 10
0.0
 20
0.0
 30
0.0
  3
*D57
  1

  0
LINE
  5
594F6
330
593F5
100
AcDbEntity
  8
2
100
AcDbLine
 10
168.2749999999999
 20
11.64636622588332
 30
0.0
 11
168.2749999999999
 21
61.91687375734298
 31
0.0
  0
LINE
  5
594F7
330
593F5
100
AcDbEntity
  8
2
100
AcDbLine
 10
0.0
 20
15.87500000000003
 30
0.0
 11
0.0000000000000028
 21
61.91687375734298
 31
0.0
  0
LINE
  5
594F8
330
593F5
100
AcDbEntity
  8
2
100
AcDbLine
 10
164.775
 20
60.41687375734298
 30
0.0
 11
3.500000000000002
 21
60.41687375734298
 31
0.0
  0
SOLID
  5
594F9
330
593F5
100
AcDbEntity
  8
2
100
AcDbTrace
 10
164.775
 20
61.00020709067631
 30
0.0
 11
164.775
 21
59.83354042400964
 31
0.0
 12
168.2749999999999
 22
60.41687375734298
 32
0.0
 13
168.2749999999999
 23
60.41687375734298
 33
0.0
  0
SOLID
  5
594FA
330
593F5
100
AcDbEntity
  8
2
100
AcDbTrace
 10
3.500000000000002
 20
61.00020709067631
 30
0.0
 11
3.500000000000002
 21
59.83354042400964
 31
0.0
 12
0.0000000000000027
 22
60.41687375734298
 32
0.0
 13
0.0000000000000027
 23
60.41687375734298
 33
0.0
  0
MTEXT
  5
594FB
330
593F5
100
AcDbEntity
  8
2
100
AcDbMText
 10
83.63750000000004
 20
64.46687375734298
 30
0.0
 40
3.5
 41
0.0
 71
     5
 72
     1
  1
\A1;168.275 [6.625"]
  7
simplex
 73
     1
 44
1.0
1001
ACAD
1000
MTEXTBEGIN
1070
    73
1070
     1
1070
    44
1040
1.0
1070
    74
1070
     0
1000
MTEXTEND
  0
POINT
  5
594FC
330
593F5
100
AcDbEntity
  8
Defpoints
 62
     0
100
AcDbPoint
 10
168.2749999999999
 20
11.64636622588332
 30
0.0
  0
POINT
  5
594FD
330
593F5
100
AcDbEntity
  8
Defpoints
 62
     0
100
AcDbPoint
 10
0.0
 20
15.87500000000003
 30
0.0
  0
POINT
  5
594FE
330
593F5
100
AcDbEntity
  8
Defpoints
 62
     0
100
AcDbPoint
 10
0.0000000000000027
 20
60.41687375734298
 30
0.0
  0
ENDBLK
  5
59400
330
593F5
100
AcDbEntity
  8
0
100
AcDbBlockEnd
  0
BLOCK
  5
5940B
330
59401
100
AcDbEntity
  8
0
100
AcDbBlockBegin
  2
*D58
 70
     1
 10
0.0
 20
0.0
 30
0.0
  3
*D58
  1

  0
LINE
  5
594FF
330
59401
100
AcDbEntity
  8
sk2
100
AcDbLine
 10
168.2749999999999
 20
11.33672548644156
 30
0.0
 11
168.2749999999999
 21
78.5417680190468
 31
0.0
  0
LINE
  5
59500
330
59401
100
AcDbEntity
  8
sk2
100
AcDbLine
 10
-98.42499999999995
 20
14.17498700000004
 30
0.0
 11
-98.42499999999995
 21
78.5417680190468
 31
0.0
  0
LINE
  5
59501
330
59401
100
AcDbEntity
  8
sk2
100
AcDbLine
 10
164.775
 20
77.04176801904679
 30
0.0
 11
-94.92499999999996
 21
77.04176801904679
 31
0.0
  0
SOLID
  5
59502
330
59401
100
AcDbEntity
  8
sk2
100
AcDbTrace
 10
164.775
 20
77.62510135238013
 30
0.0
 11
164.775
 21
76.45843468571347
 31
0.0
 12
168.2749999999999
 22
77.04176801904679
 32
0.0
 13
168.2749999999999
 23
77.04176801904679
 33
0.0
  0
SOLID
  5
59503
330
59401
100
AcDbEntity
  8
sk2
100
AcDbTrace
 10
-94.92499999999996
 20
77.62510135238013
 30
0.0
 11
-94.92499999999996
 21
76.45843468571347
 31
0.0
 12
-98.42499999999995
 22
77.04176801904679
 32
0.0
 13
-98.42499999999995
 23
77.04176801904679
 33
0.0
  0
MTEXT
  5
59504
330
59401
100
AcDbEntity
  8
sk2
100
AcDbMText
 10
34.42499999999995
 20
81.09176801904679
 30
0.0
 40
3.5
 41
0.0
 71
     5
 72
     1
  1
\A1;266.7 [10.500"]
  7
simplex
 73
     1
 44
1.0
1001
ACAD
1000
MTEXTBEGIN
1070
    73
1070
     1
1070
    44
1040
1.0
1070
    74
1070
     0
1000
MTEXTEND
  0
POINT
  5
59505
330
59401
100
AcDbEntity
  8
Defpoints
 62
     0
100
AcDbPoint
 10
168.2749999999999
 20
11.33672548644156
 30
0.0
  0
POINT
  5
59506
330
59401
100
AcDbEntity
  8
Defpoints
 62
     0
100
AcDbPoint
 10
-98.42499999999995
 20
14.17498700000004
 30
0.0
  0
POINT
  5
59507
330
59401
100
AcDbEntity
  8
Defpoints
 62
     0
100
AcDbPoint
 10
-98.42499999999995
 20
77.04176801904679
 30
0.0
  0
ENDBLK
  5
5940C
330
59401
100
AcDbEntity
  8
0
100
AcDbBlockEnd
  0
BLOCK
  5
5941F
330
59417
100
AcDbEntity
  8
0
100
AcDbBlockBegin
  2
*D60
 70
     1
 10
0.0
 20
0.0
 30
0.0
  3
*D60
  1

  0
LINE
  5
59508
330
59417
100
AcDbEntity
  8
2
100
AcDbLine
 10
165.2750000014762
 20
14.99999999879991
 30
0.0
 11
188.9956053586393
 21
14.9999999987999
 31
0.0
  0
LINE
  5
59509
330
59417
100
AcDbEntity
  8
2
100
AcDbLine
 10
187.4956053586393
 20
-15.00000000000005
 30
0.0
 11
187.4956053586393
 21
11.4999999987999
 31
0.0
  0
SOLID
  5
5950A
330
59417
100
AcDbEntity
  8
2
100
AcDbTrace
 10
186.9122720253059
 20
11.4999999987999
 30
0.0
 11
188.0789386919726
 21
11.4999999987999
 31
0.0
 12
187.4956053586393
 22
14.9999999987999
 32
0.0
 13
187.4956053586393
 23
14.9999999987999
 33
0.0
  0
MTEXT
  5
5950B
330
59417
100
AcDbEntity
  8
2
100
AcDbMText
 10
183.4456053586393
 20
-4.622641836083587
 30
0.0
 40
3.5
 41
0.0
 71
     5
 72
     1
  1
\A1;%%c30 [%%c1.181"]
  7
simplex
 11
0.0000000000000001
 21
1.0
 31
0.0
 73
     1
 44
1.0
1001
ACAD
1000
MTEXTBEGIN
1070
    73
1070
     1
1070
    44
1040
1.0
1070
    74
1070
     0
1000
MTEXTEND
  0
POINT
  5
5950C
330
59417
100
AcDbEntity
  8
Defpoints
 62
     0
100
AcDbPoint
 10
153.2750000014761
 20
-15.00000000000004
 30
0.0
  0
POINT
  5
5950D
330
59417
100
AcDbEntity
  8
Defpoints
 62
     0
100
AcDbPoint
 10
165.2750000014762
 20
14.99999999879991
 30
0.0
  0
POINT
  5
5950E
330
59417
100
AcDbEntity
  8
Defpoints
 62
     0
100
AcDbPoint
 10
187.4956053586393
 20
14.9999999987999
 30
0.0
  0
ENDBLK
  5
59420
330
59417
100
AcDbEntity
  8
0
100
AcDbBlockEnd
  0
BLOCK
  5
59484
330
5947C
100
AcDbEntity
  8
0
100
AcDbBlockBegin
  2
*D64
 70
     1
 10
0.0
 20
0.0
 30
0.0
  3
*D64
  1

  0
LINE
  5
59516
330
5947C
100
AcDbEntity
  8
2
100
AcDbLine
 10
196.7873855925915
 20
45.11220249872815
 30
0.0
 11
170.0447519271462
 21
16.70213698642129
 31
0.0
  0
MTEXT
  5
59517
330
5947C
100
AcDbEntity
  8
2
100
AcDbMText
 10
181.6665303640471
 20
34.95736916995422
 30
0.0
 40
3.5
 41
0.0
 71
     5
 72
     1
  1
\A1;R2 [R.079"]
  7
simplex
 11
0.685415642856352
 21
0.7281520421778779
 31
0.0
 73
     1
 44
1.0
1001
ACAD
1000
MTEXTBEGIN
1070
    73
1070
     1
1070
    44
1040
1.0
1070
    74
1070
     0
1000
MTEXTEND
  0
SOLID
  5
59518
330
5947C
100
AcDbEntity
  8
2
100
AcDbTrace
 10
169.6199965692091
 20
17.1019627780875
 30
0.0
 11
170.4695072850833
 21
16.30231119475509
 31
0.0
 12
167.645797177149
 22
14.15360483879871
 32
0.0
 13
167.645797177149
 23
14.15360483879871
 33
0.0
  0
LINE
  5
59519
330
5947C
100
AcDbEntity
  8
2
100
AcDbLine
 10
166.184965891436
 20
12.69730075444272
 30
0.0
 11
166.364965891436
 21
12.69730075444272
 31
0.0
  0
LINE
  5
5951A
330
5947C
100
AcDbEntity
  8
2
100
AcDbLine
 10
166.274965891436
 20
12.60730075444272
 30
0.0
 11
166.274965891436
 21
12.78730075444272
 31
0.0
  0
POINT
  5
5951B
330
5947C
100
AcDbEntity
  8
Defpoints
 62
     0
100
AcDbPoint
 10
167.645797177149
 20
14.15360483879871
 30
0.0
  0
POINT
  5
5951C
330
5947C
100
AcDbEntity
  8
Defpoints
 62
     0
100
AcDbPoint
 10
166.274965891436
 20
12.69730075444272
 30
0.0
  0
ENDBLK
  5
59485
330
5947C
100
AcDbEntity
  8
0
100
AcDbBlockEnd
  0
BLOCK
  5
59AF2
330
59AF1
100
AcDbEntity
  8
0
100
AcDbBlockBegin
  2
*D67
 70
     1
 10
0.0
 20
0.0
 30
0.0
  3
*D67
  1

  0
LINE
  5
59AF3
330
59AF1
100
AcDbEntity
  8
2
100
AcDbLine
 10
133.2750000000024
 20
14.74998399999999
 30
0.0
 11
133.2750000000024
 21
46.90957599999993
 31
0.0
  0
LINE
  5
59AF4
330
59AF1
100
AcDbEntity
  8
2
100
AcDbLine
 10
168.275
 20
11.56895637048249
 30
0.0
 11
168.275
 21
46.90957599999993
 31
0.0
  0
LINE
  5
59AF5
330
59AF1
100
AcDbEntity
  8
2
100
AcDbLine
 10
136.7750000000025
 20
45.40957599999994
 30
0.0
 11
164.775
 21
45.40957599999994
 31
0.0
  0
SOLID
  5
59AF6
330
59AF1
100
AcDbEntity
  8
2
100
AcDbTrace
 10
136.7750000000025
 20
45.99290933333327
 30
0.0
 11
136.7750000000025
 21
44.8262426666666
 31
0.0
 12
133.2750000000024
 22
45.40957599999994
 32
0.0
 13
133.2750000000024
 23
45.40957599999994
 33
0.0
  0
SOLID
  5
59AF7
330
59AF1
100
AcDbEntity
  8
2
100
AcDbTrace
 10
164.775
 20
45.99290933333327
 30
0.0
 11
164.775
 21
44.8262426666666
 31
0.0
 12
168.275
 22
45.40957599999994
 32
0.0
 13
168.275
 23
45.40957599999994
 33
0.0
  0
MTEXT
  5
59AF8
330
59AF1
100
AcDbEntity
  8
2
100
AcDbMText
 10
150.2750025
 20
49.45957599999993
 30
0.0
 40
3.5
 41
0.0
 71
     5
 72
     1
  1
\A1;35 [1.378"]
  7
simplex
 73
     1
 44
0.892857
1001
ACAD
1000
MTEXTBEGIN
1070
    73
1070
     1
1070
    44
1040
0.892857
1070
    74
1070
     0
1000
MTEXTEND
  0
POINT
  5
59AF9
330
59AF1
100
AcDbEntity
  8
Defpoints
 62
     0
100
AcDbPoint
 10
133.2750000000024
 20
14.74998399999999
 30
0.0
  0
POINT
  5
59AFA
330
59AF1
100
AcDbEntity
  8
Defpoints
 62
     0
100
AcDbPoint
 10
168.275
 20
11.56895637048249
 30
0.0
  0
POINT
  5
59AFB
330
59AF1
100
AcDbEntity
  8
Defpoints
 62
     0
100
AcDbPoint
 10
168.275
 20
45.40957599999994
 30
0.0
  0
ENDBLK
  5
59AFC
330
59AF1
100
AcDbEntity
  8
0
100
AcDbBlockEnd
  0
BLOCK
  5
59AFE
330
59AFD
100
AcDbEntity
  8
0
100
AcDbBlockBegin
  2
*D68
 70
     1
 10
0.0
 20
0.0
 30
0.0
  3
*D68
  1

  0
LINE
  5
59AFF
330
59AFD
100
AcDbEntity
  8
sk2
100
AcDbLine
 10
-93.42499999999999
 20
-15.87499999999998
 30
0.0
 11
-124.9169633333333
 21
-15.87499999999997
 31
0.0
  0
LINE
  5
59B00
330
59AFD
100
AcDbEntity
  8
sk2
100
AcDbLine
 10
-93.42499999999999
 20
15.87499999999999
 30
0.0
 11
-124.9169633333333
 21
15.875
 31
0.0
  0
LINE
  5
59B01
330
59AFD
100
AcDbEntity
  8
sk2
100
AcDbLine
 10
-123.4169633333333
 20
12.375
 30
0.0
 11
-123.4169633333333
 21
-12.37499999999997
 31
0.0
  0
LINE
  5
59B02
330
59AFD
100
AcDbEntity
  8
sk2
100
AcDbLine
 10
-123.4169633333333
 20
-15.87499999999997
 30
0.0
 11
-123.4169633333333
 21
-67.72499999999997
 31
0.0
  0
SOLID
  5
59B03
330
59AFD
100
AcDbEntity
  8
sk2
100
AcDbTrace
 10
-124.0002966666666
 20
12.375
 30
0.0
 11
-122.8336299999999
 21
12.375
 31
0.0
 12
-123.4169633333333
 22
15.875
 32
0.0
 13
-123.4169633333333
 23
15.875
 33
0.0
  0
SOLID
  5
59B04
330
59AFD
100
AcDbEntity
  8
sk2
100
AcDbTrace
 10
-124.0002966666666
 20
-12.37499999999997
 30
0.0
 11
-122.8336299999999
 21
-12.37499999999997
 31
0.0
 12
-123.4169633333333
 22
-15.87499999999997
 32
0.0
 13
-123.4169633333333
 23
-15.87499999999997
 33
0.0
  0
MTEXT
  5
59B05
330
59AFD
100
AcDbEntity
  8
sk2
100
AcDbMText
 10
-127.4669633333333
 20
-43.54999999999999
 30
0.0
 40
3.5
 41
0.0
 71
     5
 72
     1
  1
\A1;%%c31.75 [%%C1.250"]
  7
simplex
 11
0.0000000000000001
 21
1.0
 31
0.0
 73
     1
 44
0.892857
1001
ACAD
1000
MTEXTBEGIN
1070
    73
1070
     1
1070
    44
1040
0.892857
1070
    74
1070
     0
1000
MTEXTEND
  0
POINT
  5
59B06
330
59AFD
100
AcDbEntity
  8
Defpoints
 62
     0
100
AcDbPoint
 10
-93.42499999999999
 20
-15.87499999999998
 30
0.0
  0
POINT
  5
59B07
330
59AFD
100
AcDbEntity
  8
Defpoints
 62
     0
100
AcDbPoint
 10
-93.42499999999999
 20
15.87499999999999
 30
0.0
  0
POINT
  5
59B08
330
59AFD
100
AcDbEntity
  8
Defpoints
 62
     0
100
AcDbPoint
 10
-123.4169633333333
 20
15.875
 30
0.0
  0
ENDBLK
  5
59B09
330
59AFD
100
AcDbEntity
  8
0
100
AcDbBlockEnd
  0
BLOCK
  5
59B0B
330
59B0A
100
AcDbEntity
  8
0
100
AcDbBlockBegin
  2
*D69
 70
     1
 10
0.0
 20
0.0
 30
0.0
  3
*D69
  1

  0
LINE
  5
59B0C
330
59B0A
100
AcDbEntity
  8
2
100
AcDbLine
 10
168.275
 20
11.64636622588328
 30
0.0
 11
168.275
 21
61.91687375734293
 31
0.0
  0
LINE
  5
59B0D
330
59B0A
100
AcDbEntity
  8
2
100
AcDbLine
 10
0.0000000000000091
 20
15.87499999999998
 30
0.0
 11
0.000000000000012
 21
61.91687375734293
 31
0.0
  0
LINE
  5
59B0E
330
59B0A
100
AcDbEntity
  8
2
100
AcDbLine
 10
164.775
 20
60.41687375734293
 30
0.0
 11
3.500000000000011
 21
60.41687375734293
 31
0.0
  0
SOLID
  5
59B0F
330
59B0A
100
AcDbEntity
  8
2
100
AcDbTrace
 10
164.775
 20
61.00020709067627
 30
0.0
 11
164.775
 21
59.8335404240096
 31
0.0
 12
168.275
 22
60.41687375734293
 32
0.0
 13
168.275
 23
60.41687375734293
 33
0.0
  0
SOLID
  5
59B10
330
59B0A
100
AcDbEntity
  8
2
100
AcDbTrace
 10
3.500000000000011
 20
61.00020709067627
 30
0.0
 11
3.500000000000011
 21
59.8335404240096
 31
0.0
 12
0.0000000000000119
 22
60.41687375734293
 32
0.0
 13
0.0000000000000119
 23
60.41687375734293
 33
0.0
  0
MTEXT
  5
59B11
330
59B0A
100
AcDbEntity
  8
2
100
AcDbMText
 10
83.63750000000004
 20
64.46687375734294
 30
0.0
 40
3.5
 41
0.0
 71
     5
 72
     1
  1
\A1;168.275 [6.625"]
  7
simplex
 73
     1
 44
1.0
1001
ACAD
1000
MTEXTBEGIN
1070
    73
1070
     1
1070
    44
1040
1.0
1070
    74
1070
     0
1000
MTEXTEND
  0
POINT
  5
59B12
330
59B0A
100
AcDbEntity
  8
Defpoints
 62
     0
100
AcDbPoint
 10
168.275
 20
11.64636622588328
 30
0.0
  0
POINT
  5
59B13
330
59B0A
100
AcDbEntity
  8
Defpoints
 62
     0
100
AcDbPoint
 10
0.0000000000000091
 20
15.87499999999998
 30
0.0
  0
POINT
  5
59B14
330
59B0A
100
AcDbEntity
  8
Defpoints
 62
     0
100
AcDbPoint
 10
0.0000000000000119
 20
60.41687375734293
 30
0.0
  0
ENDBLK
  5
59B15
330
59B0A
100
AcDbEntity
  8
0
100
AcDbBlockEnd
  0
BLOCK
  5
59B17
330
59B16
100
AcDbEntity
  8
0
100
AcDbBlockBegin
  2
*D70
 70
     1
 10
0.0
 20
0.0
 30
0.0
  3
*D70
  1

  0
LINE
  5
59B18
330
59B16
100
AcDbEntity
  8
sk2
100
AcDbLine
 10
168.275
 20
11.33672548644151
 30
0.0
 11
168.275
 21
78.54176801904674
 31
0.0
  0
LINE
  5
59B19
330
59B16
100
AcDbEntity
  8
sk2
100
AcDbLine
 10
-98.42499999999999
 20
14.17498699999998
 30
0.0
 11
-98.42499999999999
 21
78.54176801904674
 31
0.0
  0
LINE
  5
59B1A
330
59B16
100
AcDbEntity
  8
sk2
100
AcDbLine
 10
164.775
 20
77.04176801904674
 30
0.0
 11
-94.92499999999997
 21
77.04176801904674
 31
0.0
  0
SOLID
  5
59B1B
330
59B16
100
AcDbEntity
  8
sk2
100
AcDbTrace
 10
164.775
 20
77.62510135238007
 30
0.0
 11
164.775
 21
76.45843468571341
 31
0.0
 12
168.275
 22
77.04176801904674
 32
0.0
 13
168.275
 23
77.04176801904674
 33
0.0
  0
SOLID
  5
59B1C
330
59B16
100
AcDbEntity
  8
sk2
100
AcDbTrace
 10
-94.92499999999997
 20
77.62510135238007
 30
0.0
 11
-94.92499999999997
 21
76.45843468571341
 31
0.0
 12
-98.42499999999999
 22
77.04176801904674
 32
0.0
 13
-98.42499999999999
 23
77.04176801904674
 33
0.0
  0
MTEXT
  5
59B1D
330
59B16
100
AcDbEntity
  8
sk2
100
AcDbMText
 10
34.42500000000003
 20
81.09176801904673
 30
0.0
 40
3.5
 41
0.0
 71
     5
 72
     1
  1
\A1;266.7 [10.500"]
  7
simplex
 73
     1
 44
1.0
1001
ACAD
1000
MTEXTBEGIN
1070
    73
1070
     1
1070
    44
1040
1.0
1070
    74
1070
     0
1000
MTEXTEND
  0
POINT
  5
59B1E
330
59B16
100
AcDbEntity
  8
Defpoints
 62
     0
100
AcDbPoint
 10
168.275
 20
11.33672548644151
 30
0.0
  0
POINT
  5
59B1F
330
59B16
100
AcDbEntity
  8
Defpoints
 62
     0
100
AcDbPoint
 10
-98.42499999999999
 20
14.17498699999998
 30
0.0
  0
POINT
  5
59B20
330
59B16
100
AcDbEntity
  8
Defpoints
 62
     0
100
AcDbPoint
 10
-98.42499999999999
 20
77.04176801904674
 30
0.0
  0
ENDBLK
  5
59B21
330
59B16
100
AcDbEntity
  8
0
100
AcDbBlockEnd
  0
BLOCK
  5
59B23
330
59B22
100
AcDbEntity
  8
0
100
AcDbBlockBegin
  2
*D71
 70
     1
 10
0.0
 20
0.0
 30
0.0
  3
*D71
  1

  0
LINE
  5
59B24
330
59B22
100
AcDbEntity
  8
2
100
AcDbLine
 10
89.09663672056046
 20
-14.75
 30
0.0
 11
71.37298558939
 21
-14.74999999999999
 31
0.0
  0
LINE
  5
59B25
330
59B22
100
AcDbEntity
  8
2
100
AcDbLine
 10
89.09663672056046
 20
14.74999999999999
 30
0.0
 11
71.37298558939
 21
14.74999999999999
 31
0.0
  0
LINE
  5
59B26
330
59B22
100
AcDbEntity
  8
2
100
AcDbLine
 10
72.87298558938999
 20
11.24999999999999
 30
0.0
 11
72.87298558938999
 21
-11.25
 31
0.0
  0
LINE
  5
59B27
330
59B22
100
AcDbEntity
  8
2
100
AcDbLine
 10
72.87298558938999
 20
-14.74999999999999
 30
0.0
 11
72.87298558938998
 21
-62.51666666666665
 31
0.0
  0
SOLID
  5
59B28
330
59B22
100
AcDbEntity
  8
2
100
AcDbTrace
 10
72.28965225605667
 20
11.24999999999999
 30
0.0
 11
73.45631892272333
 21
11.24999999999999
 31
0.0
 12
72.87298558938999
 22
14.74999999999999
 32
0.0
 13
72.87298558938999
 23
14.74999999999999
 33
0.0
  0
SOLID
  5
59B29
330
59B22
100
AcDbEntity
  8
2
100
AcDbTrace
 10
72.28965225605667
 20
-11.25
 30
0.0
 11
73.45631892272333
 21
-11.25
 31
0.0
 12
72.87298558938999
 22
-14.74999999999999
 32
0.0
 13
72.87298558938999
 23
-14.74999999999999
 33
0.0
  0
MTEXT
  5
59B2A
330
59B22
100
AcDbEntity
  8
2
100
AcDbMText
 10
68.82298558939
 20
-40.38333333333332
 30
0.0
 40
3.5
 41
0.0
 71
     5
 72
     1
  1
\A1;%%C29.5 [%%C1.161"]
  7
simplex
 11
0.0000000000000001
 21
1.0
 31
0.0
 73
     1
 44
1.0
1001
ACAD
1000
MTEXTBEGIN
1070
    73
1070
     1
1070
    44
1040
1.0
1070
    74
1070
     0
1000
MTEXTEND
  0
POINT
  5
59B2B
330
59B22
100
AcDbEntity
  8
Defpoints
 62
     0
100
AcDbPoint
 10
89.09663672056046
 20
-14.75
 30
0.0
  0
POINT
  5
59B2C
330
59B22
100
AcDbEntity
  8
Defpoints
 62
     0
100
AcDbPoint
 10
89.09663672056046
 20
14.74999999999999
 30
0.0
  0
POINT
  5
59B2D
330
59B22
100
AcDbEntity
  8
Defpoints
 62
     0
100
AcDbPoint
 10
72.87298558938999
 20
14.74999999999999
 30
0.0
  0
ENDBLK
  5
59B2E
330
59B22
100
AcDbEntity
  8
0
100
AcDbBlockEnd
  0
BLOCK
  5
59B30
330
59B2F
100
AcDbEntity
  8
0
100
AcDbBlockBegin
  2
*D72
 70
     1
 10
0.0
 20
0.0
 30
0.0
  3
*D72
  1

  0
LINE
  5
59B31
330
59B2F
100
AcDbEntity
  8
2
100
AcDbLine
 10
345.9357549767208
 20
-102.2368809561405
 30
0.0
 11
369.581441193667
 21
-102.2368809561405
 31
0.0
  0
LINE
  5
59B32
330
59B2F
100
AcDbEntity
  8
2
100
AcDbLine
 10
368.0814411936669
 20
-132.2368809549404
 30
0.0
 11
368.0814411936669
 21
-105.7368809561405
 31
0.0
  0
SOLID
  5
59B33
330
59B2F
100
AcDbEntity
  8
2
100
AcDbTrace
 10
367.4981078603336
 20
-105.7368809561405
 30
0.0
 11
368.6647745270002
 21
-105.7368809561405
 31
0.0
 12
368.0814411936669
 22
-102.2368809561405
 32
0.0
 13
368.0814411936669
 23
-102.2368809561405
 33
0.0
  0
MTEXT
  5
59B34
330
59B2F
100
AcDbEntity
  8
2
100
AcDbMText
 10
364.0314411936669
 20
-121.9599384276413
 30
0.0
 40
3.5
 41
0.0
 71
     5
 72
     1
  1
\A1;%%c30 [%%c1.181"]
  7
simplex
 11
0.0000000000000001
 21
1.0
 31
0.0
 73
     1
 44
1.0
1001
ACAD
1000
MTEXTBEGIN
1070
    73
1070
     1
1070
    44
1040
1.0
1070
    74
1070
     0
1000
MTEXTEND
  0
POINT
  5
59B35
330
59B2F
100
AcDbEntity
  8
Defpoints
 62
     0
100
AcDbPoint
 10
333.9357549767207
 20
-132.2368809549404
 30
0.0
  0
POINT
  5
59B36
330
59B2F
100
AcDbEntity
  8
Defpoints
 62
     0
100
AcDbPoint
 10
345.9357549767208
 20
-102.2368809561405
 30
0.0
  0
POINT
  5
59B37
330
59B2F
100
AcDbEntity
  8
Defpoints
 62
     0
100
AcDbPoint
 10
368.0814411936669
 20
-102.2368809561405
 30
0.0
  0
ENDBLK
  5
59B38
330
59B2F
100
AcDbEntity
  8
0
100
AcDbBlockEnd
  0
BLOCK
  5
59B3A
330
59B39
100
AcDbEntity
  8
0
100
AcDbBlockBegin
  2
*D73
 70
     1
 10
0.0
 20
0.0
 30
0.0
  3
*D73
  1

  0
LINE
  5
59B3B
330
59B39
100
AcDbEntity
  8
2
100
AcDbLine
 10
346.0674431120467
 20
-37.8320439559931
 30
0.0
 11
369.7880484692098
 21
-37.83204395599311
 31
0.0
  0
LINE
  5
59B3C
330
59B39
100
AcDbEntity
  8
2
100
AcDbLine
 10
368.2880484692098
 20
-67.83204395479306
 30
0.0
 11
368.2880484692098
 21
-41.3320439559931
 31
0.0
  0
SOLID
  5
59B3D
330
59B39
100
AcDbEntity
  8
2
100
AcDbTrace
 10
367.7047151358765
 20
-41.33204395599309
 30
0.0
 11
368.8713818025431
 21
-41.3320439559931
 31
0.0
 12
368.2880484692098
 22
-37.83204395599311
 32
0.0
 13
368.2880484692098
 23
-37.83204395599311
 33
0.0
  0
MTEXT
  5
59B3E
330
59B39
100
AcDbEntity
  8
2
100
AcDbMText
 10
364.2380484692098
 20
-57.4546857908766
 30
0.0
 40
3.5
 41
0.0
 71
     5
 72
     1
  1
\A1;%%c30 [%%c1.181"]
  7
simplex
 11
0.0000000000000001
 21
1.0
 31
0.0
 73
     1
 44
1.0
1001
ACAD
1000
MTEXTBEGIN
1070
    73
1070
     1
1070
    44
1040
1.0
1070
    74
1070
     0
1000
MTEXTEND
  0
POINT
  5
59B3F
330
59B39
100
AcDbEntity
  8
Defpoints
 62
     0
100
AcDbPoint
 10
334.0674431120466
 20
-67.83204395479305
 30
0.0
  0
POINT
  5
59B40
330
59B39
100
AcDbEntity
  8
Defpoints
 62
     0
100
AcDbPoint
 10
346.0674431120467
 20
-37.8320439559931
 30
0.0
  0
POINT
  5
59B41
330
59B39
100
AcDbEntity
  8
Defpoints
 62
     0
100
AcDbPoint
 10
368.2880484692098
 20
-37.83204395599311
 30
0.0
  0
ENDBLK
  5
59B42
330
59B39
100
AcDbEntity
  8
0
100
AcDbBlockEnd
  0
BLOCK
  5
59B44
330
59B43
100
AcDbEntity
  8
0
100
AcDbBlockBegin
  2
*D74
 70
     1
 10
0.0
 20
0.0
 30
0.0
  3
*D74
  1

  0
LINE
  5
59B45
330
59B43
100
AcDbEntity
  8
2
100
AcDbLine
 10
343.5002026954646
 20
32.13996741365608
 30
0.0
 11
365.4894736683066
 21
32.13996741365608
 31
0.0
  0
LINE
  5
59B46
330
59B43
100
AcDbEntity
  8
2
100
AcDbLine
 10
363.9894736683066
 20
2.139967414856121
 30
0.0
 11
363.9894736683066
 21
28.63996741365608
 31
0.0
  0
SOLID
  5
59B47
330
59B43
100
AcDbEntity
  8
2
100
AcDbTrace
 10
363.4061403349733
 20
28.63996741365608
 30
0.0
 11
364.5728070016399
 21
28.63996741365608
 31
0.0
 12
363.9894736683066
 22
32.13996741365608
 32
0.0
 13
363.9894736683066
 23
32.13996741365608
 33
0.0
  0
MTEXT
  5
59B48
330
59B43
100
AcDbEntity
  8
2
100
AcDbMText
 10
359.9394736683066
 20
12.47537558329023
 30
0.0
 40
3.5
 41
0.0
 71
     5
 72
     1
  1
\A1;%%c30 [%%c1.181"]
  7
simplex
 11
0.0000000000000001
 21
1.0
 31
0.0
 73
     1
 44
1.0
1001
ACAD
1000
MTEXTBEGIN
1070
    73
1070
     1
1070
    44
1040
1.0
1070
    74
1070
     0
1000
MTEXTEND
  0
POINT
  5
59B49
330
59B43
100
AcDbEntity
  8
Defpoints
 62
     0
100
AcDbPoint
 10
331.5002026954645
 20
2.13996741485613
 30
0.0
  0
POINT
  5
59B4A
330
59B43
100
AcDbEntity
  8
Defpoints
 62
     0
100
AcDbPoint
 10
343.5002026954646
 20
32.13996741365608
 30
0.0
  0
POINT
  5
59B4B
330
59B43
100
AcDbEntity
  8
Defpoints
 62
     0
100
AcDbPoint
 10
363.9894736683066
 20
32.13996741365608
 30
0.0
  0
ENDBLK
  5
59B4C
330
59B43
100
AcDbEntity
  8
0
100
AcDbBlockEnd
  0
BLOCK
  5
59B4E
330
59B4D
100
AcDbEntity
  8
0
100
AcDbBlockBegin
  2
*D75
 70
     1
 10
0.0
 20
0.0
 30
0.0
  3
*D75
  1

  0
LINE
  5
59B4F
330
59B4D
100
AcDbEntity
  8
2
100
AcDbLine
 10
345.3622625829682
 20
100.5177931471126
 30
0.0
 11
367.5040241436839
 21
100.5177931471126
 31
0.0
  0
LINE
  5
59B50
330
59B4D
100
AcDbEntity
  8
2
100
AcDbLine
 10
366.0040241436839
 20
70.51779314831269
 30
0.0
 11
366.0040241436839
 21
97.01779314711265
 31
0.0
  0
SOLID
  5
59B51
330
59B4D
100
AcDbEntity
  8
2
100
AcDbTrace
 10
365.4206908103506
 20
97.01779314711265
 30
0.0
 11
366.5873574770172
 21
97.01779314711265
 31
0.0
 12
366.0040241436839
 22
100.5177931471126
 32
0.0
 13
366.0040241436839
 23
100.5177931471126
 33
0.0
  0
MTEXT
  5
59B52
330
59B4D
100
AcDbEntity
  8
2
100
AcDbMText
 10
361.9540241436839
 20
80.67873576805814
 30
0.0
 40
3.5
 41
0.0
 71
     5
 72
     1
  1
\A1;%%c30 [%%c1.181"]
  7
simplex
 11
0.0000000000000001
 21
1.0
 31
0.0
 73
     1
 44
1.0
1001
ACAD
1000
MTEXTBEGIN
1070
    73
1070
     1
1070
    44
1040
1.0
1070
    74
1070
     0
1000
MTEXTEND
  0
POINT
  5
59B53
330
59B4D
100
AcDbEntity
  8
Defpoints
 62
     0
100
AcDbPoint
 10
333.3622625829681
 20
70.51779314831271
 30
0.0
  0
POINT
  5
59B54
330
59B4D
100
AcDbEntity
  8
Defpoints
 62
     0
100
AcDbPoint
 10
345.3622625829682
 20
100.5177931471126
 30
0.0
  0
POINT
  5
59B55
330
59B4D
100
AcDbEntity
  8
Defpoints
 62
     0
100
AcDbPoint
 10
366.0040241436839
 20
100.5177931471126
 30
0.0
  0
ENDBLK
  5
59B56
330
59B4D
100
AcDbEntity
  8
0
100
AcDbBlockEnd
  0
BLOCK
  5
59B58
330
59B57
100
AcDbEntity
  8
0
100
AcDbBlockBegin
  2
*D76
 70
     1
 10
0.0
 20
0.0
 30
0.0
  3
*D76
  1

  0
LINE
  5
59B59
330
59B57
100
AcDbEntity
  8
2
100
AcDbLine
 10
376.5478507614863
 20
-74.2486895673284
 30
0.0
 11
350.481893290638
 21
-100.8826961298486
 31
0.0
  0
MTEXT
  5
59B5A
330
59B57
100
AcDbEntity
  8
2
100
AcDbMText
 10
361.8444167218344
 20
-83.48224099059171
 30
0.0
 40
3.5
 41
0.0
 71
     5
 72
     1
  1
\A1;R3 [R.118"]
  7
simplex
 11
0.6994442970710644
 21
0.7146871170622601
 31
0.0
 73
     1
 44
1.0
1001
ACAD
1000
MTEXTBEGIN
1070
    73
1070
     1
1070
    44
1040
1.0
1070
    74
1070
     0
1000
MTEXTEND
  0
SOLID
  5
59B5B
330
59B57
100
AcDbEntity
  8
2
100
AcDbTrace
 10
350.0649924723517
 20
-100.4746869565571
 30
0.0
 11
350.8987941089243
 21
-101.29070530314
 31
0.0
 12
348.0338382508893
 22
-103.3841010395665
 32
0.0
 13
348.0338382508893
 23
-103.3841010395665
 33
0.0
  0
LINE
  5
59B5C
330
59B57
100
AcDbEntity
  8
2
100
AcDbLine
 10
345.8455053596759
 20
-105.5281623907534
 30
0.0
 11
346.0255053596759
 21
-105.5281623907533
 31
0.0
  0
LINE
  5
59B5D
330
59B57
100
AcDbEntity
  8
2
100
AcDbLine
 10
345.935505359676
 20
-105.6181623907534
 30
0.0
 11
345.935505359676
 21
-105.4381623907534
 31
0.0
  0
POINT
  5
59B5E
330
59B57
100
AcDbEntity
  8
Defpoints
 62
     0
100
AcDbPoint
 10
348.0338382508893
 20
-103.3841010395665
 30
0.0
  0
POINT
  5
59B5F
330
59B57
100
AcDbEntity
  8
Defpoints
 62
     0
100
AcDbPoint
 10
345.935505359676
 20
-105.5281623907534
 30
0.0
  0
ENDBLK
  5
59B60
330
59B57
100
AcDbEntity
  8
0
100
AcDbBlockEnd
  0
BLOCK
  5
59B62
330
59B61
100
AcDbEntity
  8
0
100
AcDbBlockBegin
  2
*D77
 70
     1
 10
0.0
 20
0.0
 30
0.0
  3
*D77
  1

  0
LINE
  5
59B63
330
59B61
100
AcDbEntity
  8
2
100
AcDbLine
 10
377.5798287031621
 20
-7.719841456064614
 30
0.0
 11
350.8371950377169
 21
-36.12990696837156
 31
0.0
  0
MTEXT
  5
59B64
330
59B61
100
AcDbEntity
  8
2
100
AcDbMText
 10
362.4589734746177
 20
-17.87467478483856
 30
0.0
 40
3.5
 41
0.0
 71
     5
 72
     1
  1
\A1;R2 [R.079"]
  7
simplex
 11
0.6854156428563496
 21
0.72815204217788
 31
0.0
 73
     1
 44
1.0
1001
ACAD
1000
MTEXTBEGIN
1070
    73
1070
     1
1070
    44
1040
1.0
1070
    74
1070
     0
1000
MTEXTEND
  0
SOLID
  5
59B65
330
59B61
100
AcDbEntity
  8
2
100
AcDbTrace
 10
350.4124396797798
 20
-35.73008117670537
 30
0.0
 11
351.2619503956539
 21
-36.52973276003775
 31
0.0
 12
348.4382402877196
 22
-38.67843911599414
 32
0.0
 13
348.4382402877196
 23
-38.67843911599414
 33
0.0
  0
LINE
  5
59B66
330
59B61
100
AcDbEntity
  8
2
100
AcDbLine
 10
346.9774090020067
 20
-40.13474320035027
 30
0.0
 11
347.1574090020066
 21
-40.13474320035027
 31
0.0
  0
LINE
  5
59B67
330
59B61
100
AcDbEntity
  8
2
100
AcDbLine
 10
347.0674090020066
 20
-40.22474320035033
 30
0.0
 11
347.0674090020066
 21
-40.04474320035029
 31
0.0
  0
POINT
  5
59B68
330
59B61
100
AcDbEntity
  8
Defpoints
 62
     0
100
AcDbPoint
 10
348.4382402877196
 20
-38.67843911599414
 30
0.0
  0
POINT
  5
59B69
330
59B61
100
AcDbEntity
  8
Defpoints
 62
     0
100
AcDbPoint
 10
347.0674090020066
 20
-40.1347432003503
 30
0.0
  0
ENDBLK
  5
59B6A
330
59B61
100
AcDbEntity
  8
0
100
AcDbBlockEnd
  0
BLOCK
  5
59B6C
330
59B6B
100
AcDbEntity
  8
0
100
AcDbBlockBegin
  2
*D78
 70
     1
 10
0.0
 20
0.0
 30
0.0
  3
*D78
  1

  0
LINE
  5
59B6D
330
59B6B
100
AcDbEntity
  8
2
100
AcDbLine
 10
374.5293940596083
 20
61.66433316817299
 30
0.0
 11
348.5847591169081
 21
34.1053343167992
 31
0.0
  0
MTEXT
  5
59B6E
330
59B6B
100
AcDbEntity
  8
2
100
AcDbMText
 10
359.8077811008517
 20
51.93513808879632
 30
0.0
 40
3.5
 41
0.0
 71
     5
 72
     1
  1
\A1;R1 [R.039"]
  7
simplex
 11
0.6854593115640739
 21
0.7281109339860967
 31
0.0
 73
     1
 44
1.0
1001
ACAD
1000
MTEXTBEGIN
1070
    73
1070
     1
1070
    44
1040
1.0
1070
    74
1070
     0
1000
MTEXTEND
  0
SOLID
  5
59B6F
330
59B6B
100
AcDbEntity
  8
2
100
AcDbTrace
 10
348.1600277387495
 20
34.50518558187827
 30
0.0
 11
349.0094904950666
 21
33.70548305172017
 31
0.0
 12
346.1856515264338
 22
31.55694604784788
 32
0.0
 13
346.1856515264338
 23
31.55694604784788
 33
0.0
  0
LINE
  5
59B70
330
59B6B
100
AcDbEntity
  8
2
100
AcDbLine
 10
345.4101922148693
 20
30.82883511386115
 30
0.0
 11
345.5901922148692
 21
30.82883511386112
 31
0.0
  0
LINE
  5
59B71
330
59B6B
100
AcDbEntity
  8
2
100
AcDbLine
 10
345.5001922148692
 20
30.73883511386112
 30
0.0
 11
345.5001922148692
 21
30.91883511386115
 31
0.0
  0
POINT
  5
59B72
330
59B6B
100
AcDbEntity
  8
Defpoints
 62
     0
100
AcDbPoint
 10
346.1856515264338
 20
31.55694604784788
 30
0.0
  0
POINT
  5
59B73
330
59B6B
100
AcDbEntity
  8
Defpoints
 62
     0
100
AcDbPoint
 10
345.5001922148692
 20
30.82883511386115
 30
0.0
  0
ENDBLK
  5
59B74
330
59B6B
100
AcDbEntity
  8
0
100
AcDbBlockEnd
  0
BLOCK
  5
59B76
330
59B75
100
AcDbEntity
  8
0
100
AcDbBlockBegin
  2
*D79
 70
     1
 10
0.0
 20
0.0
 30
0.0
  3
*D79
  1

  0
LINE
  5
59B77
330
59B75
100
AcDbEntity
  8
2
100
AcDbLine
 10
384.4458339337898
 20
128.4315796476398
 30
0.0
 11
351.0080984834499
 21
102.1716331054718
 31
0.0
  0
MTEXT
  5
59B78
330
59B75
100
AcDbEntity
  8
2
100
AcDbMText
 10
366.6018369309008
 20
119.5676448325967
 30
0.0
 40
3.5
 41
0.0
 71
     5
 72
     1
  1
\A1;R0.5 [R.020"]
  7
simplex
 11
0.786461829486631
 21
0.6176388837828638
 31
0.0
 73
     1
 44
1.0
1001
ACAD
1000
MTEXTBEGIN
1070
    73
1070
     1
1070
    44
1040
1.0
1070
    74
1070
     0
1000
MTEXTEND
  0
SOLID
  5
59B79
330
59B75
100
AcDbEntity
  8
2
100
AcDbTrace
 10
350.6478091345765
 20
102.6304025060056
 30
0.0
 11
351.3683878323232
 21
101.7128637049379
 31
0.0
 12
348.2554820802467
 22
100.0098970122317
 32
0.0
 13
348.2554820802467
 23
100.0098970122317
 33
0.0
  0
LINE
  5
59B7A
330
59B75
100
AcDbEntity
  8
2
100
AcDbLine
 10
347.7722511655043
 20
99.70107757034101
 30
0.0
 11
347.9522511655042
 21
99.70107757034099
 31
0.0
  0
LINE
  5
59B7B
330
59B75
100
AcDbEntity
  8
2
100
AcDbLine
 10
347.8622511655043
 20
99.61107757034103
 30
0.0
 11
347.8622511655043
 21
99.79107757034103
 31
0.0
  0
POINT
  5
59B7C
330
59B75
100
AcDbEntity
  8
Defpoints
 62
     0
100
AcDbPoint
 10
348.2554820802467
 20
100.0098970122317
 30
0.0
  0
POINT
  5
59B7D
330
59B75
100
AcDbEntity
  8
Defpoints
 62
     0
100
AcDbPoint
 10
347.8622511655043
 20
99.70107757034103
 30
0.0
  0
ENDBLK
  5
59B7E
330
59B75
100
AcDbEntity
  8
0
100
AcDbBlockEnd
  0
BLOCK
  5
59F28
330
59F1D
100
AcDbEntity
  8
0
100
AcDbBlockBegin
  2
*D81
 70
     1
 10
0.0
 20
0.0
 30
0.0
  3
*D81
  1

  0
LINE
  5
5A027
330
59F1D
100
AcDbEntity
  8
2
100
AcDbLine
 10
89.09663672056035
 20
-14.75
 30
0.0
 11
71.37298558938994
 21
-14.74999999999999
 31
0.0
  0
LINE
  5
5A028
330
59F1D
100
AcDbEntity
  8
2
100
AcDbLine
 10
89.09663672056035
 20
14.75
 30
0.0
 11
71.37298558938994
 21
14.75
 31
0.0
  0
LINE
  5
5A029
330
59F1D
100
AcDbEntity
  8
2
100
AcDbLine
 10
72.87298558938994
 20
11.25
 30
0.0
 11
72.87298558938994
 21
-11.24999999999999
 31
0.0
  0
LINE
  5
5A02A
330
59F1D
100
AcDbEntity
  8
2
100
AcDbLine
 10
72.87298558938994
 20
-14.74999999999999
 30
0.0
 11
72.87298558938992
 21
-62.51666666666666
 31
0.0
  0
SOLID
  5
5A02B
330
59F1D
100
AcDbEntity
  8
2
100
AcDbTrace
 10
72.28965225605661
 20
11.25
 30
0.0
 11
73.45631892272327
 21
11.25
 31
0.0
 12
72.87298558938994
 22
14.75
 32
0.0
 13
72.87298558938994
 23
14.75
 33
0.0
  0
SOLID
  5
5A02C
330
59F1D
100
AcDbEntity
  8
2
100
AcDbTrace
 10
72.28965225605661
 20
-11.24999999999999
 30
0.0
 11
73.45631892272327
 21
-11.24999999999999
 31
0.0
 12
72.87298558938994
 22
-14.74999999999999
 32
0.0
 13
72.87298558938994
 23
-14.74999999999999
 33
0.0
  0
MTEXT
  5
5A02D
330
59F1D
100
AcDbEntity
  8
2
100
AcDbMText
 10
68.82298558938995
 20
-40.38333333333333
 30
0.0
 40
3.5
 41
0.0
 71
     5
 72
     1
  1
\A1;%%C29.5 [%%C1.161"]
  7
simplex
 11
0.0000000000000001
 21
1.0
 31
0.0
 73
     1
 44
1.0
1001
ACAD
1000
MTEXTBEGIN
1070
    73
1070
     1
1070
    44
1040
1.0
1070
    74
1070
     0
1000
MTEXTEND
  0
POINT
  5
5A02E
330
59F1D
100
AcDbEntity
  8
Defpoints
 62
     0
100
AcDbPoint
 10
89.09663672056035
 20
-14.75
 30
0.0
  0
POINT
  5
5A02F
330
59F1D
100
AcDbEntity
  8
Defpoints
 62
     0
100
AcDbPoint
 10
89.09663672056035
 20
14.75
 30
0.0
  0
POINT
  5
5A030
330
59F1D
100
AcDbEntity
  8
Defpoints
 62
     0
100
AcDbPoint
 10
72.87298558938994
 20
14.75
 30
0.0
  0
ENDBLK
  5
59F29
330
59F1D
100
AcDbEntity
  8
0
100
AcDbBlockEnd
  0
BLOCK
  5
59F34
330
59F2A
100
AcDbEntity
  8
0
100
AcDbBlockBegin
  2
*D82
 70
     1
 10
0.0
 20
0.0
 30
0.0
  3
*D82
  1

  0
LINE
  5
5A031
330
59F2A
100
AcDbEntity
  8
2
100
AcDbLine
 10
133.2750000000023
 20
14.74998399999998
 30
0.0
 11
133.2750000000023
 21
46.90957599999992
 31
0.0
  0
LINE
  5
5A032
330
59F2A
100
AcDbEntity
  8
2
100
AcDbLine
 10
168.2749999999998
 20
11.56895637048248
 30
0.0
 11
168.2749999999998
 21
46.90957599999992
 31
0.0
  0
LINE
  5
5A033
330
59F2A
100
AcDbEntity
  8
2
100
AcDbLine
 10
136.7750000000024
 20
45.40957599999993
 30
0.0
 11
164.7749999999998
 21
45.40957599999993
 31
0.0
  0
SOLID
  5
5A034
330
59F2A
100
AcDbEntity
  8
2
100
AcDbTrace
 10
136.7750000000024
 20
45.99290933333326
 30
0.0
 11
136.7750000000024
 21
44.82624266666659
 31
0.0
 12
133.2750000000023
 22
45.40957599999993
 32
0.0
 13
133.2750000000023
 23
45.40957599999993
 33
0.0
  0
SOLID
  5
5A035
330
59F2A
100
AcDbEntity
  8
2
100
AcDbTrace
 10
164.7749999999998
 20
45.99290933333326
 30
0.0
 11
164.7749999999998
 21
44.82624266666659
 31
0.0
 12
168.2749999999998
 22
45.40957599999993
 32
0.0
 13
168.2749999999998
 23
45.40957599999993
 33
0.0
  0
MTEXT
  5
5A036
330
59F2A
100
AcDbEntity
  8
2
100
AcDbMText
 10
150.2750024999999
 20
49.45957599999992
 30
0.0
 40
3.5
 41
0.0
 71
     5
 72
     1
  1
\A1;35 [1.378"]
  7
simplex
 73
     1
 44
0.892857
1001
ACAD
1000
MTEXTBEGIN
1070
    73
1070
     1
1070
    44
1040
0.892857
1070
    74
1070
     0
1000
MTEXTEND
  0
POINT
  5
5A037
330
59F2A
100
AcDbEntity
  8
Defpoints
 62
     0
100
AcDbPoint
 10
133.2750000000023
 20
14.74998399999998
 30
0.0
  0
POINT
  5
5A038
330
59F2A
100
AcDbEntity
  8
Defpoints
 62
     0
100
AcDbPoint
 10
168.2749999999998
 20
11.56895637048248
 30
0.0
  0
POINT
  5
5A039
330
59F2A
100
AcDbEntity
  8
Defpoints
 62
     0
100
AcDbPoint
 10
168.2749999999998
 20
45.40957599999993
 30
0.0
  0
ENDBLK
  5
59F35
330
59F2A
100
AcDbEntity
  8
0
100
AcDbBlockEnd
  0
BLOCK
  5
59F41
330
59F36
100
AcDbEntity
  8
0
100
AcDbBlockBegin
  2
*D83
 70
     1
 10
0.0
 20
0.0
 30
0.0
  3
*D83
  1

  0
LINE
  5
5A03A
330
59F36
100
AcDbEntity
  8
sk2
100
AcDbLine
 10
-93.42500000000006
 20
-15.87499999999998
 30
0.0
 11
-124.9169633333334
 21
-15.87499999999997
 31
0.0
  0
LINE
  5
5A03B
330
59F36
100
AcDbEntity
  8
sk2
100
AcDbLine
 10
-93.42500000000006
 20
15.875
 30
0.0
 11
-124.9169633333334
 21
15.87500000000001
 31
0.0
  0
LINE
  5
5A03C
330
59F36
100
AcDbEntity
  8
sk2
100
AcDbLine
 10
-123.4169633333334
 20
12.375
 30
0.0
 11
-123.4169633333334
 21
-12.37499999999998
 31
0.0
  0
LINE
  5
5A03D
330
59F36
100
AcDbEntity
  8
sk2
100
AcDbLine
 10
-123.4169633333334
 20
-15.87499999999998
 30
0.0
 11
-123.4169633333334
 21
-67.72499999999998
 31
0.0
  0
SOLID
  5
5A03E
330
59F36
100
AcDbEntity
  8
sk2
100
AcDbTrace
 10
-124.0002966666667
 20
12.37500000000001
 30
0.0
 11
-122.83363
 21
12.375
 31
0.0
 12
-123.4169633333334
 22
15.87500000000001
 32
0.0
 13
-123.4169633333334
 23
15.87500000000001
 33
0.0
  0
SOLID
  5
5A03F
330
59F36
100
AcDbEntity
  8
sk2
100
AcDbTrace
 10
-124.0002966666667
 20
-12.37499999999998
 30
0.0
 11
-122.83363
 21
-12.37499999999998
 31
0.0
 12
-123.4169633333334
 22
-15.87499999999998
 32
0.0
 13
-123.4169633333334
 23
-15.87499999999998
 33
0.0
  0
MTEXT
  5
5A040
330
59F36
100
AcDbEntity
  8
sk2
100
AcDbMText
 10
-127.4669633333334
 20
-43.54999999999999
 30
0.0
 40
3.5
 41
0.0
 71
     5
 72
     1
  1
\A1;%%c31.75 [%%C1.250"]
  7
simplex
 11
0.0000000000000001
 21
1.0
 31
0.0
 73
     1
 44
0.892857
1001
ACAD
1000
MTEXTBEGIN
1070
    73
1070
     1
1070
    44
1040
0.892857
1070
    74
1070
     0
1000
MTEXTEND
  0
POINT
  5
5A041
330
59F36
100
AcDbEntity
  8
Defpoints
 62
     0
100
AcDbPoint
 10
-93.42500000000006
 20
-15.87499999999998
 30
0.0
  0
POINT
  5
5A042
330
59F36
100
AcDbEntity
  8
Defpoints
 62
     0
100
AcDbPoint
 10
-93.42500000000006
 20
15.875
 30
0.0
  0
POINT
  5
5A043
330
59F36
100
AcDbEntity
  8
Defpoints
 62
     0
100
AcDbPoint
 10
-123.4169633333334
 20
15.87500000000001
 30
0.0
  0
ENDBLK
  5
59F42
330
59F36
100
AcDbEntity
  8
0
100
AcDbBlockEnd
  0
BLOCK
  5
59F4D
330
59F43
100
AcDbEntity
  8
0
100
AcDbBlockBegin
  2
*D84
 70
     1
 10
0.0
 20
0.0
 30
0.0
  3
*D84
  1

  0
LINE
  5
5A044
330
59F43
100
AcDbEntity
  8
2
100
AcDbLine
 10
168.2749999999998
 20
11.64636622588327
 30
0.0
 11
168.2749999999998
 21
61.91687375734293
 31
0.0
  0
LINE
  5
5A045
330
59F43
100
AcDbEntity
  8
2
100
AcDbLine
 10
-0.0000000000001137
 20
15.87499999999997
 30
0.0
 11
-0.0000000000001109
 21
61.91687375734293
 31
0.0
  0
LINE
  5
5A046
330
59F43
100
AcDbEntity
  8
2
100
AcDbLine
 10
164.7749999999998
 20
60.41687375734293
 30
0.0
 11
3.499999999999888
 21
60.41687375734293
 31
0.0
  0
SOLID
  5
5A047
330
59F43
100
AcDbEntity
  8
2
100
AcDbTrace
 10
164.7749999999998
 20
61.00020709067626
 30
0.0
 11
164.7749999999998
 21
59.83354042400959
 31
0.0
 12
168.2749999999998
 22
60.41687375734293
 32
0.0
 13
168.2749999999998
 23
60.41687375734293
 33
0.0
  0
SOLID
  5
5A048
330
59F43
100
AcDbEntity
  8
2
100
AcDbTrace
 10
3.499999999999888
 20
61.00020709067626
 30
0.0
 11
3.499999999999888
 21
59.83354042400959
 31
0.0
 12
-0.000000000000111
 22
60.41687375734293
 32
0.0
 13
-0.000000000000111
 23
60.41687375734293
 33
0.0
  0
MTEXT
  5
5A049
330
59F43
100
AcDbEntity
  8
2
100
AcDbMText
 10
83.63749999999994
 20
64.46687375734292
 30
0.0
 40
3.5
 41
0.0
 71
     5
 72
     1
  1
\A1;168.275 [6.625"]
  7
simplex
 73
     1
 44
1.0
1001
ACAD
1000
MTEXTBEGIN
1070
    73
1070
     1
1070
    44
1040
1.0
1070
    74
1070
     0
1000
MTEXTEND
  0
POINT
  5
5A04A
330
59F43
100
AcDbEntity
  8
Defpoints
 62
     0
100
AcDbPoint
 10
168.2749999999998
 20
11.64636622588327
 30
0.0
  0
POINT
  5
5A04B
330
59F43
100
AcDbEntity
  8
Defpoints
 62
     0
100
AcDbPoint
 10
-0.0000000000001137
 20
15.87499999999997
 30
0.0
  0
POINT
  5
5A04C
330
59F43
100
AcDbEntity
  8
Defpoints
 62
     0
100
AcDbPoint
 10
-0.000000000000111
 20
60.41687375734293
 30
0.0
  0
ENDBLK
  5
59F4E
330
59F43
100
AcDbEntity
  8
0
100
AcDbBlockEnd
  0
BLOCK
  5
59F59
330
59F4F
100
AcDbEntity
  8
0
100
AcDbBlockBegin
  2
*D85
 70
     1
 10
0.0
 20
0.0
 30
0.0
  3
*D85
  1

  0
LINE
  5
5A04D
330
59F4F
100
AcDbEntity
  8
sk2
100
AcDbLine
 10
168.2749999999998
 20
11.33672548644151
 30
0.0
 11
168.2749999999998
 21
78.54176801904674
 31
0.0
  0
LINE
  5
5A04E
330
59F4F
100
AcDbEntity
  8
sk2
100
AcDbLine
 10
-98.42500000000008
 20
14.17498699999999
 30
0.0
 11
-98.42500000000008
 21
78.54176801904674
 31
0.0
  0
LINE
  5
5A04F
330
59F4F
100
AcDbEntity
  8
sk2
100
AcDbLine
 10
164.7749999999998
 20
77.04176801904674
 30
0.0
 11
-94.92500000000006
 21
77.04176801904674
 31
0.0
  0
SOLID
  5
5A050
330
59F4F
100
AcDbEntity
  8
sk2
100
AcDbTrace
 10
164.7749999999998
 20
77.62510135238007
 30
0.0
 11
164.7749999999998
 21
76.45843468571341
 31
0.0
 12
168.2749999999998
 22
77.04176801904674
 32
0.0
 13
168.2749999999998
 23
77.04176801904674
 33
0.0
  0
SOLID
  5
5A051
330
59F4F
100
AcDbEntity
  8
sk2
100
AcDbTrace
 10
-94.92500000000006
 20
77.62510135238007
 30
0.0
 11
-94.92500000000006
 21
76.45843468571341
 31
0.0
 12
-98.42500000000008
 22
77.04176801904674
 32
0.0
 13
-98.42500000000008
 23
77.04176801904674
 33
0.0
  0
MTEXT
  5
5A052
330
59F4F
100
AcDbEntity
  8
sk2
100
AcDbMText
 10
34.42499999999984
 20
81.09176801904673
 30
0.0
 40
3.5
 41
0.0
 71
     5
 72
     1
  1
\A1;266.7 [10.500"]
  7
simplex
 73
     1
 44
1.0
1001
ACAD
1000
MTEXTBEGIN
1070
    73
1070
     1
1070
    44
1040
1.0
1070
    74
1070
     0
1000
MTEXTEND
  0
POINT
  5
5A053
330
59F4F
100
AcDbEntity
  8
Defpoints
 62
     0
100
AcDbPoint
 10
168.2749999999998
 20
11.33672548644151
 30
0.0
  0
POINT
  5
5A054
330
59F4F
100
AcDbEntity
  8
Defpoints
 62
     0
100
AcDbPoint
 10
-98.42500000000008
 20
14.17498699999999
 30
0.0
  0
POINT
  5
5A055
330
59F4F
100
AcDbEntity
  8
Defpoints
 62
     0
100
AcDbPoint
 10
-98.42500000000008
 20
77.04176801904674
 30
0.0
  0
ENDBLK
  5
59F5A
330
59F4F
100
AcDbEntity
  8
0
100
AcDbBlockEnd
  0
BLOCK
  5
59F63
330
59F5B
100
AcDbEntity
  8
0
100
AcDbBlockBegin
  2
*D86
 70
     1
 10
0.0
 20
0.0
 30
0.0
  3
*D86
  1

  0
LINE
  5
59FB2
330
59F5B
100
AcDbEntity
  8
2
100
AcDbLine
 10
921.1603866236746
 20
-83.61596939296598
 30
0.0
 11
944.8060728406208
 21
-83.615969392966
 31
0.0
  0
LINE
  5
59FB3
330
59F5B
100
AcDbEntity
  8
2
100
AcDbLine
 10
943.3060728406207
 20
-113.6159693917659
 30
0.0
 11
943.3060728406207
 21
-87.11596939296599
 31
0.0
  0
SOLID
  5
59FB4
330
59F5B
100
AcDbEntity
  8
2
100
AcDbTrace
 10
942.7227395072874
 20
-87.11596939296599
 30
0.0
 11
943.8894061739542
 21
-87.11596939296599
 31
0.0
 12
943.3060728406207
 22
-83.615969392966
 32
0.0
 13
943.3060728406207
 23
-83.615969392966
 33
0.0
  0
MTEXT
  5
59FB5
330
59F5B
100
AcDbEntity
  8
2
100
AcDbMText
 10
939.2560728406207
 20
-103.3390268644667
 30
0.0
 40
3.5
 41
0.0
 71
     5
 72
     1
  1
\A1;%%c30 [%%c1.181"]
  7
simplex
 11
0.0000000000000001
 21
1.0
 31
0.0
 73
     1
 44
1.0
1001
ACAD
1000
MTEXTBEGIN
1070
    73
1070
     1
1070
    44
1040
1.0
1070
    74
1070
     0
1000
MTEXTEND
  0
POINT
  5
59FB6
330
59F5B
100
AcDbEntity
  8
Defpoints
 62
     0
100
AcDbPoint
 10
909.1603866236745
 20
-113.6159693917659
 30
0.0
  0
POINT
  5
59FB7
330
59F5B
100
AcDbEntity
  8
Defpoints
 62
     0
100
AcDbPoint
 10
921.1603866236746
 20
-83.61596939296598
 30
0.0
  0
POINT
  5
59FB8
330
59F5B
100
AcDbEntity
  8
Defpoints
 62
     0
100
AcDbPoint
 10
943.3060728406207
 20
-83.615969392966
 30
0.0
  0
ENDBLK
  5
59F64
330
59F5B
100
AcDbEntity
  8
0
100
AcDbBlockEnd
  0
BLOCK
  5
59F6D
330
59F65
100
AcDbEntity
  8
0
100
AcDbBlockBegin
  2
*D87
 70
     1
 10
0.0
 20
0.0
 30
0.0
  3
*D87
  1

  0
LINE
  5
59FC3
330
59F65
100
AcDbEntity
  8
2
100
AcDbLine
 10
921.2920747590006
 20
-19.21113239281854
 30
0.0
 11
945.0126801161637
 21
-19.21113239281854
 31
0.0
  0
LINE
  5
59FC4
330
59F65
100
AcDbEntity
  8
2
100
AcDbLine
 10
943.5126801161636
 20
-49.2111323916185
 30
0.0
 11
943.5126801161636
 21
-22.71113239281854
 31
0.0
  0
SOLID
  5
59FC5
330
59F65
100
AcDbEntity
  8
2
100
AcDbTrace
 10
942.9293467828303
 20
-22.71113239281854
 30
0.0
 11
944.096013449497
 21
-22.71113239281854
 31
0.0
 12
943.5126801161636
 22
-19.21113239281854
 32
0.0
 13
943.5126801161636
 23
-19.21113239281854
 33
0.0
  0
MTEXT
  5
59FC6
330
59F65
100
AcDbEntity
  8
2
100
AcDbMText
 10
939.4626801161637
 20
-38.83377422770204
 30
0.0
 40
3.5
 41
0.0
 71
     5
 72
     1
  1
\A1;%%c30 [%%c1.181"]
  7
simplex
 11
0.0000000000000001
 21
1.0
 31
0.0
 73
     1
 44
1.0
1001
ACAD
1000
MTEXTBEGIN
1070
    73
1070
     1
1070
    44
1040
1.0
1070
    74
1070
     0
1000
MTEXTEND
  0
POINT
  5
59FC7
330
59F65
100
AcDbEntity
  8
Defpoints
 62
     0
100
AcDbPoint
 10
909.2920747590005
 20
-49.21113239161849
 30
0.0
  0
POINT
  5
59FC8
330
59F65
100
AcDbEntity
  8
Defpoints
 62
     0
100
AcDbPoint
 10
921.2920747590006
 20
-19.21113239281854
 30
0.0
  0
POINT
  5
59FC9
330
59F65
100
AcDbEntity
  8
Defpoints
 62
     0
100
AcDbPoint
 10
943.5126801161636
 20
-19.21113239281854
 30
0.0
  0
ENDBLK
  5
59F6E
330
59F65
100
AcDbEntity
  8
0
100
AcDbBlockEnd
  0
BLOCK
  5
59F77
330
59F6F
100
AcDbEntity
  8
0
100
AcDbBlockBegin
  2
*D88
 70
     1
 10
0.0
 20
0.0
 30
0.0
  3
*D88
  1

  0
LINE
  5
59FD4
330
59F6F
100
AcDbEntity
  8
2
100
AcDbLine
 10
918.7248343424185
 20
50.76087897683064
 30
0.0
 11
940.7141053152605
 21
50.76087897683064
 31
0.0
  0
LINE
  5
59FD5
330
59F6F
100
AcDbEntity
  8
2
100
AcDbLine
 10
939.2141053152604
 20
20.76087897803068
 30
0.0
 11
939.2141053152604
 21
47.26087897683064
 31
0.0
  0
SOLID
  5
59FD6
330
59F6F
100
AcDbEntity
  8
2
100
AcDbTrace
 10
938.6307719819271
 20
47.26087897683064
 30
0.0
 11
939.7974386485937
 21
47.26087897683064
 31
0.0
 12
939.2141053152604
 22
50.76087897683064
 32
0.0
 13
939.2141053152604
 23
50.76087897683064
 33
0.0
  0
MTEXT
  5
59FD7
330
59F6F
100
AcDbEntity
  8
2
100
AcDbMText
 10
935.1641053152604
 20
31.09628714646479
 30
0.0
 40
3.5
 41
0.0
 71
     5
 72
     1
  1
\A1;%%c30 [%%c1.181"]
  7
simplex
 11
0.0000000000000001
 21
1.0
 31
0.0
 73
     1
 44
1.0
1001
ACAD
1000
MTEXTBEGIN
1070
    73
1070
     1
1070
    44
1040
1.0
1070
    74
1070
     0
1000
MTEXTEND
  0
POINT
  5
59FD8
330
59F6F
100
AcDbEntity
  8
Defpoints
 62
     0
100
AcDbPoint
 10
906.7248343424184
 20
20.76087897803069
 30
0.0
  0
POINT
  5
59FD9
330
59F6F
100
AcDbEntity
  8
Defpoints
 62
     0
100
AcDbPoint
 10
918.7248343424185
 20
50.76087897683064
 30
0.0
  0
POINT
  5
59FDA
330
59F6F
100
AcDbEntity
  8
Defpoints
 62
     0
100
AcDbPoint
 10
939.2141053152604
 20
50.76087897683064
 30
0.0
  0
ENDBLK
  5
59F78
330
59F6F
100
AcDbEntity
  8
0
100
AcDbBlockEnd
  0
BLOCK
  5
59F81
330
59F79
100
AcDbEntity
  8
0
100
AcDbBlockBegin
  2
*D89
 70
     1
 10
0.0
 20
0.0
 30
0.0
  3
*D89
  1

  0
LINE
  5
5A056
330
59F79
100
AcDbEntity
  8
2
100
AcDbLine
 10
165.275000001476
 20
14.99999331007683
 30
0.0
 11
187.4167615621917
 21
14.99999331007682
 31
0.0
  0
LINE
  5
5A057
330
59F79
100
AcDbEntity
  8
2
100
AcDbLine
 10
185.9167615621917
 20
-15.00000668872313
 30
0.0
 11
185.9167615621917
 21
11.49999331007682
 31
0.0
  0
SOLID
  5
5A058
330
59F79
100
AcDbEntity
  8
2
100
AcDbTrace
 10
185.3334282288583
 20
11.49999331007682
 30
0.0
 11
186.500094895525
 21
11.49999331007682
 31
0.0
 12
185.9167615621917
 22
14.99999331007682
 32
0.0
 13
185.9167615621917
 23
14.99999331007682
 33
0.0
  0
MTEXT
  5
5A059
330
59F79
100
AcDbEntity
  8
2
100
AcDbMText
 10
181.8667615621917
 20
-4.839064068977677
 30
0.0
 40
3.5
 41
0.0
 71
     5
 72
     1
  1
\A1;%%c30 [%%c1.181"]
  7
simplex
 11
0.0000000000000001
 21
1.0
 31
0.0
 73
     1
 44
1.0
1001
ACAD
1000
MTEXTBEGIN
1070
    73
1070
     1
1070
    44
1040
1.0
1070
    74
1070
     0
1000
MTEXTEND
  0
POINT
  5
5A05A
330
59F79
100
AcDbEntity
  8
Defpoints
 62
     0
100
AcDbPoint
 10
153.2750000014759
 20
-15.00000668872312
 30
0.0
  0
POINT
  5
5A05B
330
59F79
100
AcDbEntity
  8
Defpoints
 62
     0
100
AcDbPoint
 10
165.275000001476
 20
14.99999331007683
 30
0.0
  0
POINT
  5
5A05C
330
59F79
100
AcDbEntity
  8
Defpoints
 62
     0
100
AcDbPoint
 10
185.9167615621917
 20
14.99999331007682
 30
0.0
  0
ENDBLK
  5
59F82
330
59F79
100
AcDbEntity
  8
0
100
AcDbBlockEnd
  0
BLOCK
  5
59FC1
330
59FB9
100
AcDbEntity
  8
0
100
AcDbBlockBegin
  2
*D90
 70
     1
 10
0.0
 20
0.0
 30
0.0
  3
*D90
  1

  0
LINE
  5
59FF6
330
59FB9
100
AcDbEntity
  8
2
100
AcDbLine
 10
951.7724824084405
 20
-55.62777800415432
 30
0.0
 11
925.7065249375919
 21
-82.26178456667417
 31
0.0
  0
MTEXT
  5
59FF7
330
59FB9
100
AcDbEntity
  8
2
100
AcDbMText
 10
937.0690483687885
 20
-64.8613294274175
 30
0.0
 40
3.5
 41
0.0
 71
     5
 72
     1
  1
\A1;R3 [R.118"]
  7
simplex
 11
0.699444297071074
 21
0.7146871170622508
 31
0.0
 73
     1
 44
1.0
1001
ACAD
1000
MTEXTBEGIN
1070
    73
1070
     1
1070
    44
1040
1.0
1070
    74
1070
     0
1000
MTEXTEND
  0
SOLID
  5
59FF8
330
59FB9
100
AcDbEntity
  8
2
100
AcDbTrace
 10
925.2896241193056
 20
-81.85377539338265
 30
0.0
 11
926.1234257558783
 21
-82.66979373996566
 31
0.0
 12
923.2584698978431
 22
-84.76318947639208
 32
0.0
 13
923.2584698978431
 23
-84.76318947639208
 33
0.0
  0
LINE
  5
59FF9
330
59FB9
100
AcDbEntity
  8
2
100
AcDbLine
 10
921.0701370066297
 20
-86.90725082757877
 30
0.0
 11
921.2501370066297
 21
-86.90725082757882
 31
0.0
  0
LINE
  5
59FFA
330
59FB9
100
AcDbEntity
  8
2
100
AcDbLine
 10
921.1601370066299
 20
-86.99725082757884
 30
0.0
 11
921.1601370066299
 21
-86.81725082757884
 31
0.0
  0
POINT
  5
59FFB
330
59FB9
100
AcDbEntity
  8
Defpoints
 62
     0
100
AcDbPoint
 10
923.2584698978431
 20
-84.76318947639208
 30
0.0
  0
POINT
  5
59FFC
330
59FB9
100
AcDbEntity
  8
Defpoints
 62
     0
100
AcDbPoint
 10
921.1601370066299
 20
-86.90725082757882
 30
0.0
  0
ENDBLK
  5
59FC2
330
59FB9
100
AcDbEntity
  8
0
100
AcDbBlockEnd
  0
BLOCK
  5
59FD2
330
59FCA
100
AcDbEntity
  8
0
100
AcDbBlockBegin
  2
*D91
 70
     1
 10
0.0
 20
0.0
 30
0.0
  3
*D91
  1

  0
LINE
  5
59FFD
330
59FCA
100
AcDbEntity
  8
2
100
AcDbLine
 10
952.8044603501133
 20
10.90107010711244
 30
0.0
 11
926.0618266846703
 21
-17.50899540519663
 31
0.0
  0
MTEXT
  5
59FFE
330
59FCA
100
AcDbEntity
  8
2
100
AcDbMText
 10
937.6836051215699
 20
0.7462367783371633
 30
0.0
 40
3.5
 41
0.0
 71
     5
 72
     1
  1
\A1;R2 [R.079"]
  7
simplex
 11
0.6854156428562915
 21
0.7281520421779347
 31
0.0
 73
     1
 44
1.0
1001
ACAD
1000
MTEXTBEGIN
1070
    73
1070
     1
1070
    44
1040
1.0
1070
    74
1070
     0
1000
MTEXTEND
  0
SOLID
  5
59FFF
330
59FCA
100
AcDbEntity
  8
2
100
AcDbTrace
 10
925.6370713267331
 20
-17.10916961353047
 30
0.0
 11
926.4865820426075
 21
-17.90882119686284
 31
0.0
 12
923.6628719346734
 22
-20.05752755281941
 32
0.0
 13
923.6628719346734
 23
-20.05752755281941
 33
0.0
  0
LINE
  5
5A000
330
59FCA
100
AcDbEntity
  8
2
100
AcDbLine
 10
922.2020406489605
 20
-21.51383163717583
 30
0.0
 11
922.3820406489604
 21
-21.51383163717588
 31
0.0
  0
LINE
  5
5A001
330
59FCA
100
AcDbEntity
  8
2
100
AcDbLine
 10
922.2920406489604
 20
-21.60383163717574
 30
0.0
 11
922.2920406489604
 21
-21.4238316371758
 31
0.0
  0
POINT
  5
5A002
330
59FCA
100
AcDbEntity
  8
Defpoints
 62
     0
100
AcDbPoint
 10
923.6628719346734
 20
-20.05752755281941
 30
0.0
  0
POINT
  5
5A003
330
59FCA
100
AcDbEntity
  8
Defpoints
 62
     0
100
AcDbPoint
 10
922.2920406489604
 20
-21.51383163717583
 30
0.0
  0
ENDBLK
  5
59FD3
330
59FCA
100
AcDbEntity
  8
0
100
AcDbBlockEnd
  0
BLOCK
  5
59FE3
330
59FDB
100
AcDbEntity
  8
0
100
AcDbBlockBegin
  2
*D92
 70
     1
 10
0.0
 20
0.0
 30
0.0
  3
*D92
  1

  0
LINE
  5
5A004
330
59FDB
100
AcDbEntity
  8
2
100
AcDbLine
 10
949.7540257065583
 20
80.28524473135087
 30
0.0
 11
923.8093907638615
 21
52.72624587997404
 31
0.0
  0
MTEXT
  5
5A005
330
59FDB
100
AcDbEntity
  8
2
100
AcDbMText
 10
935.032412747803
 20
70.55604965197227
 30
0.0
 40
3.5
 41
0.0
 71
     5
 72
     1
  1
\A1;R1 [R.039"]
  7
simplex
 11
0.6854593115639852
 21
0.7281109339861801
 31
0.0
 73
     1
 44
1.0
1001
ACAD
1000
MTEXTBEGIN
1070
    73
1070
     1
1070
    44
1040
1.0
1070
    74
1070
     0
1000
MTEXTEND
  0
SOLID
  5
5A006
330
59FDB
100
AcDbEntity
  8
2
100
AcDbTrace
 10
923.384659385703
 20
53.12609714505305
 30
0.0
 11
924.2341221420202
 21
52.32639461489504
 31
0.0
 12
921.4102831733876
 22
50.17785761102243
 32
0.0
 13
921.4102831733876
 23
50.17785761102243
 33
0.0
  0
LINE
  5
5A007
330
59FDB
100
AcDbEntity
  8
2
100
AcDbLine
 10
920.6348238618231
 20
49.44974667703576
 30
0.0
 11
920.8148238618234
 21
49.44974667703582
 31
0.0
  0
LINE
  5
5A008
330
59FDB
100
AcDbEntity
  8
2
100
AcDbLine
 10
920.7248238618232
 20
49.35974667703579
 30
0.0
 11
920.7248238618232
 21
49.5397466770358
 31
0.0
  0
POINT
  5
5A009
330
59FDB
100
AcDbEntity
  8
Defpoints
 62
     0
100
AcDbPoint
 10
921.4102831733876
 20
50.17785761102243
 30
0.0
  0
POINT
  5
5A00A
330
59FDB
100
AcDbEntity
  8
Defpoints
 62
     0
100
AcDbPoint
 10
920.7248238618232
 20
49.44974667703576
 30
0.0
  0
ENDBLK
  5
59FE4
330
59FDB
100
AcDbEntity
  8
0
100
AcDbBlockEnd
  0
BLOCK
  5
59FF4
330
59FEC
100
AcDbEntity
  8
0
100
AcDbBlockBegin
  2
*D93
 70
     1
 10
0.0
 20
0.0
 30
0.0
  3
*D93
  1

  0
LINE
  5
5A064
330
59FEC
100
AcDbEntity
  8
2
100
AcDbLine
 10
204.3585713523052
 20
42.91377981059419
 30
0.0
 11
170.9208359019583
 21
16.65383326843505
 31
0.0
  0
MTEXT
  5
5A065
330
59FEC
100
AcDbEntity
  8
2
100
AcDbMText
 10
186.5145743494139
 20
34.04984499555578
 30
0.0
 40
3.5
 41
0.0
 71
     5
 72
     1
  1
\A1;R0.5 [R.020"]
  7
simplex
 11
0.7864618294867958
 21
0.6176388837826536
 31
0.0
 73
     1
 44
1.0
1001
ACAD
1000
MTEXTBEGIN
1070
    73
1070
     1
1070
    44
1040
1.0
1070
    74
1070
     0
1000
MTEXTEND
  0
SOLID
  5
5A066
330
59FEC
100
AcDbEntity
  8
2
100
AcDbTrace
 10
170.5605465530851
 20
17.11260266896902
 30
0.0
 11
171.2811252508315
 21
16.1950638679011
 31
0.0
 12
168.1682194987545
 22
14.49209717519575
 32
0.0
 13
168.1682194987545
 23
14.49209717519575
 33
0.0
  0
LINE
  5
5A067
330
59FEC
100
AcDbEntity
  8
2
100
AcDbLine
 10
167.6849885840121
 20
14.18327773330523
 30
0.0
 11
167.8649885840121
 21
14.18327773330527
 31
0.0
  0
LINE
  5
5A068
330
59FEC
100
AcDbEntity
  8
2
100
AcDbLine
 10
167.7749885840121
 20
14.09327773330524
 30
0.0
 11
167.7749885840121
 21
14.27327773330523
 31
0.0
  0
POINT
  5
5A069
330
59FEC
100
AcDbEntity
  8
Defpoints
 62
     0
100
AcDbPoint
 10
168.1682194987545
 20
14.49209717519575
 30
0.0
  0
POINT
  5
5A06A
330
59FEC
100
AcDbEntity
  8
Defpoints
 62
     0
100
AcDbPoint
 10
167.7749885840121
 20
14.18327773330524
 30
0.0
  0
ENDBLK
  5
59FF5
330
59FEC
100
AcDbEntity
  8
0
100
AcDbBlockEnd
  0
ENDSEC
  0
SECTION
  2
ENTITIES
  0
INSERT
  5
68C
330
1F
100
AcDbEntity
  8
0
100
AcDbBlockReference
  2
zero block
 10
0.0
 20
0.0
 30
0.0
  0
MTEXT
  5
58C93
330
1F
100
AcDbEntity
  8
sk6
100
AcDbMText
 10
-94.42777190166044
 20
109.3738164937135
 30
0.0
 40
5.0
 41
70.03712541027798
 71
     1
 72
     5
  1
SRFU20S20L\PSUFT30R05
  7
simplex
 73
     1
 44
1.0
1001
ACAD
1000
ACAD_MTEXT_DEFINED_HEIGHT_BEGIN
1070
    46
1040
0.0
1000
ACAD_MTEXT_DEFINED_HEIGHT_END
1000
MTEXTBEGIN
1070
    73
1070
     1
1070
    44
1040
1.0
1070
    74
1070
     0
1000
MTEXTEND
  0
DIMENSION
  5
59D51
330
1F
100
AcDbEntity
  8
2
100
AcDbDimension
  2
*D81
 10
72.87298558938994
 20
14.75
 30
0.0
 11
72.87298558938994
 21
-40.38333333333333
 31
0.0
 70
   160
  1
%%C<>
 71
     5
 42
29.5
  3
\M+18352\M+18373\M+1815B - ISO-25
100
AcDbAlignedDimension
 13
89.09663672056035
 23
-14.75
 33
0.0
 14
89.09663672056035
 24
14.75
 34
0.0
 50
270.0
100
AcDbRotatedDimension
1001
ACAD
1000
DSTYLE
1002
{
1070
     4
1000
%%C[]"
1070
    40
1040
1.0
1070
   143
1040
0.03937
1070
   170
1070
     1
1070
   171
1070
     3
1070
   271
1070
     8
1070
   285
1070
     4
1002
}
  0
DIMENSION
  5
59D52
330
1F
100
AcDbEntity
  8
2
100
AcDbDimension
  2
*D82
 10
168.2749999999998
 20
45.40957599999993
 30
0.0
 11
150.2750024999999
 21
45.40957599999993
 31
0.0
 70
   160
 71
     5
 41
0.892857
 42
34.9999999999975
  3
\M+18352\M+18373\M+1815B - ISO-25
100
AcDbAlignedDimension
 13
133.2750000000023
 23
14.74998399999998
 33
0.0
 14
168.2749999999998
 24
11.56895637048248
 34
0.0
 50
180.0
100
AcDbRotatedDimension
1001
ACAD
1000
DSTYLE
1002
{
1070
     4
1000
"
1070
    40
1040
1.0
1070
   143
1040
0.03937
1070
   170
1070
     1
1070
   171
1070
     3
1070
   271
1070
     8
1070
   285
1070
     4
1002
}
  0
DIMENSION
  5
59D53
330
1F
100
AcDbEntity
  8
sk2
100
AcDbDimension
  2
*D83
 10
-123.4169633333334
 20
15.87500000000001
 30
0.0
 11
-123.4169633333334
 21
-43.54999999999999
 31
0.0
 70
   160
  1
%%c<>
 71
     5
 41
0.892857
 42
31.74999999999999
  3
\M+18352\M+18373\M+1815B - ISO-25
100
AcDbAlignedDimension
 13
-93.42500000000006
 23
-15.87499999999998
 33
0.0
 14
-93.42500000000006
 24
15.875
 34
0.0
 50
270.0
100
AcDbRotatedDimension
1001
ACAD
1000
DSTYLE
1002
{
1070
     4
1000
%%C[]"
1070
    40
1040
1.0
1070
   143
1040
0.03937
1070
   170
1070
     1
1070
   171
1070
     3
1070
   271
1070
     8
1070
   285
1070
     4
1002
}
  0
ARC
  5
59D54
330
1F
100
AcDbEntity
  8
1
100
AcDbCircle
 10
2.367648999999914
 20
17.74998399999995
 30
0.0
 40
3.0
100
AcDbArc
 50
225.0000459999994
 51
270.0000089999996
  0
ARC
  5
59D55
330
1F
100
AcDbEntity
  8
1
100
AcDbCircle
 10
2.367648999999914
 20
-17.75003100000002
 30
0.0
 40
3.0
100
AcDbArc
 50
89.99999100000039
 51
134.9999540000006
  0
LINE
  5
59D56
330
1F
100
AcDbEntity
  8
1
100
AcDbLine
 10
133.2750049999998
 20
-14.75003100000003
 30
0.0
 11
133.2750000000023
 21
14.74998399999998
 31
0.0
  0
LINE
  5
59D57
330
1F
100
AcDbEntity
  8
1
100
AcDbLine
 10
-0.0000000000001137
 20
15.87499999999997
 30
0.0
 11
0.246330999999941
 21
15.62867599999995
 31
0.0
  0
LINE
  5
59D58
330
1F
100
AcDbEntity
  8
1
100
AcDbLine
 10
0.0000079999998661
 20
-15.87502000000005
 30
0.0
 11
0.2463349999999309
 21
-15.62869400000004
 31
0.0
  0
LINE
  5
59D59
330
1F
100
AcDbEntity
  8
sk1
100
AcDbLine
 10
-93.42500000000006
 20
-15.87499999999998
 30
0.0
 11
0.0000029999998787
 21
-15.87499999999998
 31
0.0
  0
LINE
  5
59D5A
330
1F
100
AcDbEntity
  8
sk1
100
AcDbLine
 10
-93.42500000000006
 20
15.875
 30
0.0
 11
-0.0000000000001137
 21
15.87499999999997
 31
0.0
  0
LINE
  5
59D5B
330
1F
100
AcDbEntity
  8
sk4
100
AcDbLine
 10
-107.378003
 20
0.0000000000000284
 30
0.0
 11
-0.0000000000001137
 21
0.0
 31
0.0
  0
LINE
  5
59D5C
330
1F
100
AcDbEntity
  8
4
100
AcDbLine
 10
-0.0000000000001137
 20
0.0
 30
0.0
 11
176.8308369999998
 21
-0.0000000000000284
 31
0.0
  0
LINE
  5
59D5D
330
1F
100
AcDbEntity
  8
1
100
AcDbLine
 10
2.362436441120735
 20
-14.74999999999998
 30
0.0
 11
133.2751960554172
 21
-14.75
 31
0.0
  0
LINE
  5
59D5E
330
1F
100
AcDbEntity
  8
1
100
AcDbLine
 10
2.377446945919132
 20
14.75
 30
0.0
 11
133.2750000000023
 21
14.74998399999998
 31
0.0
  0
LINE
  5
59D5F
330
1F
100
AcDbEntity
  8
1
100
AcDbLine
 10
1.125002999999878
 20
14.88474712723553
 30
0.0
 11
1.125002999999878
 21
-14.8847471272355
 31
0.0
  0
LINE
  5
59D60
330
1F
100
AcDbEntity
  8
sk1
100
AcDbLine
 10
-97.22498700000006
 20
15.37498399999995
 30
0.0
 11
-93.42500000000006
 21
15.37498399999995
 31
0.0
  0
LINE
  5
59D61
330
1F
100
AcDbEntity
  8
sk1
100
AcDbLine
 10
-93.42500000000006
 20
-15.37499999999998
 30
0.0
 11
-97.22498700000006
 21
-15.37499999999997
 31
0.0
  0
LINE
  5
59D62
330
1F
100
AcDbEntity
  8
sk1
100
AcDbLine
 10
-97.22498700000006
 20
15.37498399999995
 30
0.0
 11
-97.22498700000006
 21
-15.37499999999997
 31
0.0
  0
LINE
  5
59D63
330
1F
100
AcDbEntity
  8
sk1
100
AcDbLine
 10
-98.42500000000008
 20
-14.17501900000005
 30
0.0
 11
-98.42500000000008
 21
14.17498699999999
 31
0.0
  0
LINE
  5
59D64
330
1F
100
AcDbEntity
  8
1
100
AcDbLine
 10
-0.0000000000001137
 20
-15.87499999999998
 30
0.0
 11
-0.0000000000001137
 21
15.87500000000264
 31
0.0
  0
LINE
  5
59D65
330
1F
100
AcDbEntity
  8
sk1
100
AcDbLine
 10
-98.42500800000017
 20
-14.17502199999998
 30
0.0
 11
-97.22500900000012
 21
-15.37502200000003
 31
0.0
  0
LINE
  5
59D66
330
1F
100
AcDbEntity
  8
sk1
100
AcDbLine
 10
-98.42500000000008
 20
14.17498699999999
 30
0.0
 11
-97.22501100000005
 21
15.37497699999997
 31
0.0
  0
LINE
  5
59D67
330
1F
100
AcDbEntity
  8
sk1
100
AcDbLine
 10
-93.42500000000006
 20
-15.87499999999998
 30
0.0
 11
-93.42500000000006
 21
15.87498399999995
 31
0.0
  0
DIMENSION
  5
59D68
330
1F
100
AcDbEntity
  8
2
100
AcDbDimension
  2
*D84
 10
-0.000000000000111
 20
60.41687375734293
 30
0.0
 11
83.63749999999994
 21
60.41687375734293
 31
0.0
 70
   160
 71
     5
 42
168.2749999999999
  3
\M+18352\M+18373\M+1815B - ISO-25
100
AcDbAlignedDimension
 13
168.2749999999998
 23
11.64636622588327
 33
0.0
 14
-0.0000000000001137
 24
15.87499999999997
 34
0.0
 50
180.0
100
AcDbRotatedDimension
1001
ACAD
1000
DSTYLE
1002
{
1070
     4
1000
"
1070
    40
1040
1.0
1070
   143
1040
0.03937
1070
   170
1070
     1
1070
   171
1070
     3
1070
   271
1070
     8
1070
   285
1070
     4
1002
}
  0
DIMENSION
  5
59D69
330
1F
100
AcDbEntity
  8
sk2
100
AcDbDimension
  2
*D85
 10
-98.42500000000008
 20
77.04176801904674
 30
0.0
 11
34.42499999999984
 21
77.04176801904674
 31
0.0
 70
   160
 71
     5
 42
266.6999999999999
  3
\M+18352\M+18373\M+1815B - ISO-25
100
AcDbAlignedDimension
 13
168.2749999999998
 23
11.33672548644151
 33
0.0
 14
-98.42500000000008
 24
14.17498699999999
 34
0.0
 50
180.0
100
AcDbRotatedDimension
1001
ACAD
1000
DSTYLE
1002
{
1070
     4
1000
"
1070
    40
1040
1.0
1070
   143
1040
0.03937
1070
   170
1070
     1
1070
   171
1070
     3
1070
   271
1070
     8
1070
   285
1070
     4
1002
}
  0
SPLINE
  5
59D6B
330
1F
100
AcDbEntity
  8
1
100
AcDbSpline
210
0.0
220
0.0
230
1.0
 70
     8
 71
     3
 72
    10
 73
     6
 74
     4
 42
0.0000000001
 43
0.0000000001
 44
0.000001
 12
0.9964403109017972
 22
-0.0843012859328368
 32
0.0
 13
0.9804329779411416
 23
-0.1968531832749092
 33
0.0
 40
0.0
 40
0.0
 40
0.0
 40
0.0
 40
0.3904600840320484
 40
0.8329409188725607
 40
1.318419721001468
 40
1.318419721001468
 40
1.318419721001468
 40
1.318419721001468
 10
139.5662647705111
 20
13.98489826782682
 30
0.0
 10
139.6959548263536
 20
13.97392617209703
 30
0.0
 10
139.9722331105423
 20
13.94514180007095
 30
0.0
 10
140.4064896325675
 20
13.87689551660858
 30
0.0
 10
140.7108581351064
 20
13.82156385400984
 30
0.0
 10
140.8695179443392
 20
13.78970783813932
 30
0.0
 11
139.5662647705111
 21
13.98489826782682
 31
0.0
 11
139.9545551757845
 21
13.94379109009242
 31
0.0
 11
140.3920361022982
 21
13.87746113403778
 31
0.0
 11
140.8695179443392
 21
13.78970783813932
 31
0.0
  0
SPLINE
  5
59D6C
330
1F
100
AcDbEntity
  8
1
100
AcDbSpline
210
0.0
220
0.0
230
1.0
 70
     8
 71
     3
 72
    64
 73
    60
 74
    58
 42
0.0000000001
 43
0.0000000001
 44
0.000001
 12
-0.9999999973171489
 22
-0.0000732509547234
 32
0.0
 13
0.9999999692115709
 23
-0.0002481468458461
 33
0.0
 40
0.0
 40
0.0
 40
0.0
 40
0.0
 40
0.428965880974421
 40
0.8559538303388503
 40
1.284491052860162
 40
1.601613560749464
 40
1.925668852646845
 40
2.237368283583065
 40
2.559384035366927
 40
2.911456355457897
 40
3.276246422857157
 40
3.635145995809036
 40
3.993136232622692
 40
4.348719728251029
 40
4.702727009608497
 40
5.065446297871767
 40
5.42530661019502
 40
5.78448958400402
 40
6.142659560215526
 40
6.503722220762877
 40
6.858229191089408
 40
7.218552298721661
 40
7.572965720152752
 40
8.001898735968769
 40
8.425686335389055
 40
8.847874542784756
 40
9.484275499669159
 40
10.12720823242499
 40
10.55605880400414
 40
10.98262357088426
 40
11.40933947678366
 40
11.72639251193146
 40
12.04830208145628
 40
12.36369627863015
 40
12.6865215459108
 40
13.15308738689579
 40
13.61900290870647
 40
14.0942775082497
 40
14.28127395607175
 40
14.46263854557988
 40
14.64548764780102
 40
14.8294162785041
 40
15.00426205769659
 40
15.19799106108229
 40
15.45300955474753
 40
15.67747938924848
 40
15.90117200214303
 40
16.13058802641431
 40
16.36873581587658
 40
16.60278359773977
 40
16.87728378190168
 40
17.15332335910154
 40
17.43312022972963
 40
17.70142608954088
 40
18.12841281941703
 40
18.55176713121176
 40
18.97602160971072
 40
19.61557017222252
 40
20.25988153604464
 40
20.25988153604464
 40
20.25988153604464
 40
20.25988153604464
 10
152.1209713439974
 20
6.441319166264321
 30
0.0
 10
151.9779827173896
 20
6.441308692210867
 30
0.0
 10
151.692570971477
 20
6.431854621925594
 30
0.0
 10
151.266243280123
 20
6.389192831477203
 30
0.0
 10
150.8804223936366
 20
6.324616747551885
 30
0.0
 10
150.5326138190655
 20
6.245447622024244
 30
0.0
 10
150.2266582393824
 20
6.159629462271425
 30
0.0
 10
149.9237781223813
 20
6.058305309639877
 30
0.0
 10
149.6175093334665
 20
5.938873954402879
 30
0.0
 10
149.3017501735863
 20
5.796273908927702
 30
0.0
 10
148.9834633592101
 20
5.63069431950845
 30
0.0
 10
148.6732997158293
 20
5.446477423464472
 30
0.0
 10
148.3763647174918
 20
5.247077780637994
 30
0.0
 10
148.0922149075104
 20
5.032543993818478
 30
0.0
 10
147.8191239703461
 20
4.801654778876979
 30
0.0
 10
147.5581933736977
 20
4.555009657600265
 30
0.0
 10
147.3103268531233
 20
4.292863720044522
 30
0.0
 10
147.078414062961
 20
4.018488393566116
 30
0.0
 10
146.861878503668
 20
3.731320916919798
 30
0.0
 10
146.6625550102241
 20
3.433820589900506
 30
0.0
 10
146.4796458171803
 20
3.125131856973723
 30
0.0
 10
146.3151672641945
 20
2.808725861511049
 30
0.0
 10
146.1582441305171
 20
2.461096090438246
 30
0.0
 10
146.0151575682847
 20
2.084691908576871
 30
0.0
 10
145.8906261764019
 20
1.678054046745813
 30
0.0
 10
145.7771495151996
 20
1.196801803495901
 30
0.0
 10
145.6925172237531
 20
0.6350065935456826
 30
0.0
 10
145.6638650303459
 20
0.0653441225866232
 30
0.0
 10
145.6802770771293
 20
-0.4341743453968832
 30
0.0
 10
145.7226215459635
 20
-0.8597647500326104
 30
0.0
 10
145.7868695384587
 20
-1.244849339032555
 30
0.0
 10
145.8654462632895
 20
-1.591413730699883
 30
0.0
 10
145.9511225809462
 20
-1.897917549032598
 30
0.0
 10
146.0524036767121
 20
-2.201648049302377
 30
0.0
 10
146.186123847625
 20
-2.544926535534216
 30
0.0
 10
146.3617007454162
 20
-2.925171716157421
 30
0.0
 10
146.5888884526329
 20
-3.336204561217925
 30
0.0
 10
146.7945170081266
 20
-3.651523943967276
 30
0.0
 10
146.9600337430025
 20
-3.878900598856034
 30
0.0
 10
147.0723742201861
 20
-4.024325483698305
 30
0.0
 10
147.1881415919014
 20
-4.165715388731825
 30
0.0
 10
147.3064477362395
 20
-4.302125702847803
 30
0.0
 10
147.4309671771315
 20
-4.437849123428264
 30
0.0
 10
147.5757913053395
 20
-4.586999859731406
 30
0.0
 10
147.7377066309911
 20
-4.742465273049077
 30
0.0
 10
147.9127174265593
 20
-4.898455298992303
 30
0.0
 10
148.086484411764
 20
-5.042809506040583
 30
0.0
 10
148.2688110472096
 20
-5.1837779129593
 30
0.0
 10
148.45895027989
 20
-5.320041146481997
 30
0.0
 10
148.6664498106871
 20
-5.457594001558163
 30
0.0
 10
148.8900695348711
 20
-5.593367246509046
 30
0.0
 10
149.132602031772
 20
-5.726896300851024
 30
0.0
 10
149.3788300117212
 20
-5.84891794137286
 30
0.0
 10
149.6760202814952
 20
-5.980736855393104
 30
0.0
 10
150.0247795792082
 20
-6.113492765461103
 30
0.0
 10
150.4312406296918
 20
-6.238230174567632
 30
0.0
 10
150.9139984755089
 20
-6.352305827922975
 30
0.0
 10
151.4779469095566
 20
-6.437313594350257
 30
0.0
 10
151.9061970813053
 20
-6.45862143560916
 30
0.0
 10
152.1209675293001
 20
-6.458674730220053
 30
0.0
 11
152.1209713439974
 21
6.441319166264321
 31
0.0
 11
151.6922413330111
 21
6.427067457279946
 31
0.0
 11
151.2673717956576
 21
6.384586988529946
 31
0.0
 11
150.8447185974154
 21
6.313816724858071
 31
0.0
 11
150.5355030517611
 21
6.243443189701821
 31
0.0
 11
150.2234913330111
 21
6.155918775639321
 31
0.0
 11
149.9278904418978
 21
6.057041822514321
 31
0.0
 11
149.6278835754427
 21
5.940037427983128
 31
0.0
 11
149.3070103149447
 21
5.795139967045571
 31
0.0
 11
148.9833981018099
 21
5.626774488529946
 31
0.0
 11
148.6748119812044
 21
5.443516431889321
 31
0.0
 11
148.3776203613314
 21
5.243931470951821
 31
0.0
 11
148.0938412170443
 21
5.029667554936196
 31
0.0
 11
147.8234936218294
 21
4.801121412358071
 31
0.0
 11
147.5599094848666
 21
4.551945386967446
 31
0.0
 11
147.3126636962922
 21
4.290470777592389
 31
0.0
 11
147.0808025817904
 21
4.016148267826821
 31
0.0
 11
146.8651615600619
 21
3.730168043217446
 31
0.0
 11
146.6641842346224
 21
3.430210767826821
 31
0.0
 11
146.4834782104525
 21
3.125218092045571
 31
0.0
 11
146.3172756652865
 21
2.805515943608071
 31
0.0
 11
146.1714626770052
 21
2.482487379154946
 31
0.0
 11
146.0190464477572
 21
2.081547437748753
 31
0.0
 11
145.8949543457064
 21
1.676335035404946
 31
0.0
 11
145.7980610351595
 21
1.265415845951821
 31
0.0
 11
145.7032772522005
 21
0.6361128674361965
 31
0.0
 11
145.6709667663607
 21
-0.0060074938919286
 31
0.0
 11
145.6850468139681
 21
-0.4346268786576104
 31
0.0
 11
145.7272793273959
 21
-0.8590958727981785
 31
0.0
 11
145.7975002746615
 21
-1.279994310298178
 31
0.0
 11
145.8676105957064
 21
-1.589198411860678
 31
0.0
 11
145.9542614440951
 21
-1.899226488032553
 31
0.0
 11
146.054042480472
 21
-2.198420823970053
 31
0.0
 11
146.1712109069857
 21
-2.499232591548178
 31
0.0
 11
146.3668133239779
 21
-2.922816575923178
 31
0.0
 11
146.5921932678256
 21
-3.330592454829428
 31
0.0
 11
146.8518101196322
 21
-3.728694261470053
 31
0.0
 11
146.9618603210482
 21
-3.879878343501246
 31
0.0
 11
147.0727383117707
 21
-4.023402513423178
 31
0.0
 11
147.1885715942416
 21
-4.164882005610678
 31
0.0
 11
147.3090855102572
 21
-4.303828538813803
 31
0.0
 11
147.4272800903353
 21
-4.43267375365761
 31
0.0
 11
147.5622478942904
 21
-4.571650804438746
 31
0.0
 11
147.7461887817414
 21
-4.748286546626303
 31
0.0
 11
147.9137608032259
 21
-4.897639573970053
 31
0.0
 11
148.0858227233919
 21
-5.04058390990761
 31
0.0
 11
148.2673222045931
 21
-5.180903734126303
 31
0.0
 11
148.4608875732455
 21
-5.319636644282553
 31
0.0
 11
148.6559750061068
 21
-5.448939622798178
 31
0.0
 11
148.8905979614289
 21
-5.591426195063803
 31
0.0
 11
149.1324192504916
 21
-5.724543870845053
 31
0.0
 11
149.3831211547884
 21
-5.848780931391928
 31
0.0
 11
149.6283794860873
 21
-5.95757609740761
 31
0.0
 11
150.0274387817416
 21
-6.109462083735678
 31
0.0
 11
150.4321629028353
 21
-6.233668626704428
 31
0.0
 11
150.8450466613801
 21
-6.331233323970053
 31
0.0
 11
151.4774586181672
 21
-6.426509202876303
 31
0.0
 11
152.1209675293001
 21
-6.458674730220053
 31
0.0
  0
SPLINE
  5
59D6D
330
1F
100
AcDbEntity
  8
1
100
AcDbSpline
210
0.0
220
0.0
230
1.0
 70
     8
 71
     3
 72
    11
 73
     7
 74
     0
 42
0.0000000001
 43
0.0000000001
 40
0.0
 40
0.0
 40
0.0
 40
0.0
 40
0.7930666274576284
 40
1.617277665925309
 40
2.481404274262184
 40
3.020484110757303
 40
3.020484110757303
 40
3.020484110757303
 40
3.020484110757303
 10
141.8491856079134
 20
13.57790058716273
 30
0.0
 10
142.1065761078242
 20
13.51761805736672
 30
0.0
 10
142.6306067945885
 20
13.390962641008
 30
0.0
 10
143.4313110719189
 20
13.18343052318042
 30
0.0
 10
144.1478784617053
 20
12.98897005253096
 30
0.0
 10
144.5983135560552
 20
12.86292384014336
 30
0.0
 10
144.7712301226182
 20
12.81403852756173
 30
0.0
  0
SPLINE
  5
59D6E
330
1F
100
AcDbEntity
  8
1
100
AcDbSpline
210
0.0
220
0.0
230
1.0
 70
     8
 71
     3
 72
    13
 73
     9
 74
     0
 42
0.0000000001
 43
0.0000000001
 40
3.020484110757303
 40
3.020484110757303
 40
3.020484110757303
 40
3.020484110757303
 40
3.373101059755161
 40
4.271813753383002
 40
5.192266625133706
 40
6.668884796836307
 40
8.17051594639247
 40
9.701007097296356
 40
9.701007097296356
 40
9.701007097296356
 40
9.701007097296356
 10
144.7712301226182
 20
12.81403852756173
 30
0.0
 10
144.8843363974309
 20
12.78206220679001
 30
0.0
 10
145.2855181154208
 20
12.66788771213654
 30
0.0
 10
145.9806711065099
 20
12.46579179191835
 30
0.0
 10
147.0334495601338
 20
12.15181210775358
 30
0.0
 10
148.27591866368
 20
11.77077058375082
 30
0.0
 10
149.7092798612651
 20
11.31882277075408
 30
0.0
 10
150.6712790574973
 20
11.00881639029373
 30
0.0
 10
151.1563106994662
 20
10.85066670044401
 30
0.0
  0
SPLINE
  5
59D6F
330
1F
100
AcDbEntity
  8
1
100
AcDbSpline
210
0.0
220
0.0
230
1.0
 70
     8
 71
     3
 72
    42
 73
    38
 74
    36
 42
0.0000000001
 43
0.0000000001
 44
0.000001
 12
0.9396724172213344
 22
-0.3420756470627722
 32
0.0
 13
0.4450074971865884
 23
-0.8955268435104157
 33
0.0
 40
0.0
 40
0.0
 40
0.0
 40
0.0
 40
0.5126165463577403
 40
1.031346463841959
 40
1.558895901335882
 40
2.091343862567062
 40
2.638658657616581
 40
3.189745447560044
 40
3.747610955635575
 40
4.307944382075358
 40
4.879036264367535
 40
5.451292272577764
 40
6.027963419202926
 40
6.604367544960772
 40
7.192196919866582
 40
7.778190047544534
 40
8.365835939033892
 40
8.949905291042632
 40
9.510007486560343
 40
10.06515653070496
 40
10.61847782301419
 40
11.16504556331785
 40
11.71632035518872
 40
12.25856732739684
 40
12.79503054108252
 40
13.32012269471084
 40
13.79786984571389
 40
14.26381122998155
 40
14.87690858324535
 40
15.46410191346513
 40
16.02149893846928
 40
16.42743746401781
 40
16.81315782153436
 40
17.21081315254936
 40
17.580930286444
 40
17.92616327599312
 40
18.23962229676394
 40
18.23962229676394
 40
18.23962229676394
 40
18.23962229676394
 10
152.2750088195834
 20
10.46518391235807
 30
0.0
 10
152.4355726959912
 20
10.4067327000946
 30
0.0
 10
152.7573858567734
 20
10.28572178707742
 30
0.0
 10
153.2397506441947
 20
10.09238013320157
 30
0.0
 10
153.7239738755291
 20
9.886221376551731
 30
0.0
 10
154.2123774612223
 20
9.665868480636163
 30
0.0
 10
154.7030254766623
 20
9.431711849645296
 30
0.0
 10
155.1961008008346
 20
9.18326465333908
 30
0.0
 10
155.6875292527704
 20
8.922192777018182
 30
0.0
 10
156.17910295123
 20
8.647453414946085
 30
0.0
 10
156.6687526619712
 20
8.359708732838299
 30
0.0
 10
157.1567572434112
 20
8.058676633019842
 30
0.0
 10
157.6396311840852
 20
7.746208966057281
 30
0.0
 10
158.1200261363682
 20
7.420599970704586
 30
0.0
 10
158.5958453817569
 20
7.082938650441263
 30
0.0
 10
159.067301783086
 20
6.732889416998034
 30
0.0
 10
159.5301053045406
 20
6.373518780504554
 30
0.0
 10
159.9785006507392
 20
6.00987667111201
 30
0.0
 10
160.4109013282091
 20
5.643914631003696
 30
0.0
 10
160.8281788284775
 20
5.27612468497324
 30
0.0
 10
161.2346054529795
 20
4.903018062245564
 30
0.0
 10
161.6326128001246
 20
4.522811895622965
 30
0.0
 10
162.020269579329
 20
4.137273342607159
 30
0.0
 10
162.3978240155365
 20
3.746508317899412
 30
0.0
 10
162.7615425773809
 20
3.354660520114094
 30
0.0
 10
163.1031461186139
 20
2.971758936968086
 30
0.0
 10
163.4221033502191
 20
2.600282153157763
 30
0.0
 10
163.7529336042782
 20
2.200449638742924
 30
0.0
 10
164.0978244861661
 20
1.765022401311654
 30
0.0
 10
164.4502652556581
 20
1.296913018799443
 30
0.0
 10
164.7508911743667
 20
0.8764255175105404
 30
0.0
 10
165.0040690118517
 20
0.5047496208692053
 30
0.0
 10
165.2207470606266
 20
0.1727337012883652
 30
0.0
 10
165.4238935948267
 20
-0.1537592336831324
 30
0.0
 10
165.6122745367362
 20
-0.4734171875210791
 30
0.0
 10
165.7787803753712
 20
-0.7732746028270015
 30
0.0
 10
165.8792264890829
 20
-0.9685589975835569
 30
0.0
 10
165.9257236938509
 20
-1.062129320063803
 30
0.0
 11
152.2750088195834
 21
10.46518391235807
 31
0.0
 11
152.7548138122591
 21
10.28473347290494
 31
0.0
 11
153.2363239746127
 21
10.09178608520963
 31
0.0
 11
153.7217213134797
 21
9.88515156372523
 31
0.0
 11
154.2070690612826
 21
9.666203199467446
 31
0.0
 11
154.7010303955111
 21
9.430500684819008
 31
0.0
 11
155.1931759338412
 21
9.182530103764321
 31
0.0
 11
155.6858555297884
 21
8.920841871342389
 31
0.0
 11
156.1749760131867
 21
8.647465406498753
 31
0.0
 11
156.6673656921419
 21
8.358158765873696
 31
0.0
 11
157.1544071655306
 21
8.057713209233128
 31
0.0
 11
157.638572357181
 21
7.744450269779946
 31
0.0
 11
158.1157070617708
 21
7.421055494389321
 31
0.0
 11
158.5951038818392
 21
7.080876051029946
 31
0.0
 11
159.0655857543978
 21
6.731541334233128
 31
0.0
 11
159.5297543029818
 21
6.371159254154946
 31
0.0
 11
159.9833752136263
 21
6.003239332279946
 31
0.0
 11
160.4109302978548
 21
5.641422926029946
 31
0.0
 11
160.8273807983431
 21
5.274326978764321
 31
0.0
 11
161.2350040893588
 21
4.900150953373696
 31
0.0
 11
161.6302029113802
 21
4.522587476811253
 31
0.0
 11
162.0210873107943
 21
4.133854566654946
 31
0.0
 11
162.3978420715365
 21
3.743870435795571
 31
0.0
 11
162.7628017883333
 21
3.350681959233128
 31
0.0
 11
163.1123424987826
 21
2.958836256108071
 31
0.0
 11
163.423541687015
 21
2.596348463139321
 31
0.0
 11
163.7205502014193
 21
2.237339674076821
 31
0.0
 11
164.1011578063998
 21
1.756687818608071
 31
0.0
 11
164.4542423706086
 21
1.287510572514321
 31
0.0
 11
164.7782513122591
 21
0.8339583264205714
 31
0.0
 11
165.0067211608919
 21
0.4984175549361965
 31
0.0
 11
165.2174183349642
 21
0.1753279553268214
 31
0.0
 11
165.4273296813998
 21
-0.1624100817825536
 31
0.0
 11
165.6150661926302
 21
-0.4813798083450536
 31
0.0
 11
165.7822300415072
 21
-0.7834427966263036
 31
0.0
 11
165.9257236938509
 21
-1.062129320063803
 31
0.0
  0
SPLINE
  5
59D70
330
1F
100
AcDbEntity
  8
1
100
AcDbSpline
210
0.0
220
0.0
230
1.0
 70
     8
 71
     3
 72
    29
 73
    25
 74
    23
 42
0.0000000001
 43
0.0000000001
 44
0.000001
 12
0.9999998140644615
 22
0.0006098123011687
 32
0.0
 13
0.0809064511576216
 23
0.9967216994533025
 33
0.0
 40
0.0
 40
0.0
 40
0.0
 40
0.0
 40
0.9238052355773909
 40
1.850765273727766
 40
2.778799003477974
 40
3.705761590230363
 40
4.629571175049475
 40
5.553385807955566
 40
6.480360366061518
 40
7.408411186423963
 40
8.335373179514993
 40
9.259193164994458
 40
10.18277295459144
 40
11.10953656933927
 40
12.03735855512749
 40
12.9640970086087
 40
13.88765509522592
 40
14.81009388561924
 40
15.73572674800783
 40
16.66243536657701
 40
17.58797447159375
 40
18.51035000622949
 40
19.42074852905451
 40
20.33116767011329
 40
20.33116767011329
 40
20.33116767011329
 40
20.33116767011329
 10
152.2750088195834
 20
-13.56985026732943
 30
0.0
 10
152.5829438408531
 20
-13.56966248473058
 30
0.0
 10
153.2000634933641
 20
-13.54859693156004
 30
0.0
 10
154.1221690457668
 20
-13.45411379417214
 30
0.0
 10
155.0370123198723
 20
-13.29834902399666
 30
0.0
 10
155.9384190714255
 20
-13.08220994018998
 30
0.0
 10
156.8218997560449
 20
-12.80621501315136
 30
0.0
 10
157.6842134588033
 20
-12.46986352952351
 30
0.0
 10
158.5231498578902
 20
-12.07557933248195
 30
0.0
 10
159.3348416727405
 20
-11.62572466134952
 30
0.0
 10
160.113894803591
 20
-11.12338485897453
 30
0.0
 10
160.8561101790143
 20
-10.57049249600226
 30
0.0
 10
161.5583161856074
 20
-9.967700940020279
 30
0.0
 10
162.219161041864
 20
-9.317976039225015
 30
0.0
 10
162.8359225923639
 20
-8.624859716055453
 30
0.0
 10
163.4043861101761
 20
-7.892957757314633
 30
0.0
 10
163.9211543571226
 20
-7.125803459352198
 30
0.0
 10
164.3833705321825
 20
-6.325025128621774
 30
0.0
 10
164.7908929953283
 20
-5.493940392385411
 30
0.0
 10
165.142107731093
 20
-4.6364208971425
 30
0.0
 10
165.4345447589123
 20
-3.758250798842681
 30
0.0
 10
165.6647039123256
 20
-2.8673159820774
 30
0.0
 10
165.8318475377922
 20
-1.967628274589912
 30
0.0
 10
165.9016247155692
 20
-1.36414972755557
 30
0.0
 10
165.9261776428255
 20
-1.061671556391928
 30
0.0
 11
152.2750088195834
 21
-13.56985026732943
 31
0.0
 11
153.198272369388
 21
-13.5382035388138
 31
0.0
 11
154.1204296569857
 21
-13.4439652575638
 31
0.0
 11
155.0352932434115
 21
-13.28817302123568
 31
0.0
 11
155.9366718750033
 21
-13.0718949450638
 31
0.0
 11
156.818374298099
 21
-12.79616862670443
 31
0.0
 11
157.6791340332064
 21
-12.46071940795443
 31
0.0
 11
158.5181309204134
 21
-12.06655436889193
 31
0.0
 11
159.3298603515658
 21
-11.61669474975124
 31
0.0
 11
160.1088215332064
 21
-11.11422282592318
 31
0.0
 11
160.8495213012728
 21
-10.5621293200638
 31
0.0
 11
161.5504795532259
 21
-9.960749925532553
 31
0.0
 11
162.2114445190462
 21
-9.311122239985678
 31
0.0
 11
162.828212402347
 21
-8.617976488032553
 31
0.0
 11
163.3965679626498
 21
-7.885981859126303
 31
0.0
 11
163.9123035888705
 21
-7.119838060298178
 31
0.0
 11
164.3736759643587
 21
-6.321070970454428
 31
0.0
 11
164.7812839965853
 21
-5.490016282954428
 31
0.0
 11
165.1325031738314
 21
-4.632441820063803
 31
0.0
 11
165.4247013549836
 21
-3.754237474360678
 31
0.0
 11
165.6552540283236
 21
-2.861140550532553
 31
0.0
 11
165.8215557556185
 21
-1.966059984126303
 31
0.0
 11
165.9261776428255
 21
-1.061671556391928
 31
0.0
  0
SPLINE
  5
59D71
330
1F
100
AcDbEntity
  8
1
100
AcDbSpline
210
0.0
220
0.0
230
1.0
 70
     8
 71
     3
 72
    11
 73
     7
 74
     5
 42
0.0000000001
 43
0.0000000001
 44
0.000001
 12
0.9999010176688614
 22
0.0140696433776823
 32
0.0
 13
0.0140688535888031
 23
0.9999010287816973
 33
0.0
 40
0.0
 40
0.0
 40
0.0
 40
0.0
 40
1.560724032831213
 40
3.121450709673006
 40
4.68215306451696
 40
6.242902563367949
 40
6.242902563367949
 40
6.242902563367949
 40
6.242902563367949
 10
152.270969055179
 20
-4.008693040766871
 30
0.0
 10
152.7911589047552
 20
-4.00137343058256
 30
0.0
 10
153.8433631474546
 20
-3.803905726424119
 30
0.0
 10
155.1716868276604
 20
-2.909399371208621
 30
0.0
 10
156.0662271393515
 20
-1.581075274096747
 30
0.0
 10
156.2636497364497
 20
-0.52886086637929
 30
0.0
 10
156.270969055179
 20
-0.0086625231887467
 30
0.0
 11
152.270969055179
 21
-4.008693040766871
 31
0.0
 11
153.8017002563509
 21
-3.704188646235678
 31
0.0
 11
155.099395416263
 21
-2.837092698970053
 31
0.0
 11
155.9664875488314
 21
-1.539424241938746
 31
0.0
 11
156.270969055179
 21
-0.0086625231887467
 31
0.0
  0
SPLINE
  5
59D72
330
1F
100
AcDbEntity
  8
1
100
AcDbSpline
210
0.0
220
0.0
230
1.0
 70
     8
 71
     3
 72
    11
 73
     7
 74
     5
 42
0.0000000001
 43
0.0000000001
 44
0.000001
 12
-0.0140688535888032
 22
0.9999010287816973
 32
0.0
 13
-0.9999010176688614
 23
0.0140696433776826
 33
0.0
 40
0.0
 40
0.0
 40
0.0
 40
0.0
 40
1.56071956758449
 40
3.121421922455045
 40
4.682148599311129
 40
6.242872632173428
 40
6.242872632173428
 40
6.242872632173428
 40
6.242872632173428
 10
156.270969055179
 20
-0.0086625231887467
 30
0.0
 10
156.263649876816
 20
0.5115258439004152
 30
0.0
 10
156.066219597974
 20
1.563728033266386
 30
0.0
 10
155.1716873185104
 20
2.892043852517304
 30
0.0
 10
153.8433630072451
 20
3.786550149501806
 30
0.0
 10
152.7911589047654
 20
3.9840178666268
 30
0.0
 10
152.270969055179
 20
3.991337476811253
 30
0.0
 11
156.270969055179
 21
-0.0086625231887467
 31
0.0
 11
155.9664875488314
 21
1.522068677983128
 31
0.0
 11
155.099395416263
 21
2.819737135014321
 31
0.0
 11
153.8017002563509
 21
3.686833082279946
 31
0.0
 11
152.270969055179
 21
3.991337476811253
 31
0.0
  0
ARC
  5
59D73
330
1F
100
AcDbEntity
  8
1
100
AcDbCircle
 10
152.2709610014682
 20
-0.0086621071731372
 30
0.0
 40
6.000005
100
AcDbArc
 50
89.99999699999579
 51
179.9999289999981
  0
ARC
  5
59D74
330
1F
100
AcDbEntity
  8
1
100
AcDbCircle
 10
152.2709610014682
 20
-0.0086621071731372
 30
0.0
 40
6.000005
100
AcDbArc
 50
180.0000190000006
 51
270.0000429999952
  0
ARC
  5
59D75
330
1F
100
AcDbEntity
  8
1
100
AcDbCircle
 10
152.2709610014682
 20
-0.0086621071731372
 30
0.0
 40
6.000005
100
AcDbArc
 50
270.0000429999952
 51
0.0000729999982277
  0
ARC
  5
59D76
330
1F
100
AcDbEntity
  8
1
100
AcDbCircle
 10
152.2709610014682
 20
-0.0086621071731372
 30
0.0
 40
6.000005
100
AcDbArc
 50
0.0000770000005844
 51
89.99999699999579
  0
ARC
  5
59D77
330
1F
100
AcDbEntity
  8
1
100
AcDbCircle
 10
155.0240630014681
 20
-1.59817010717316
 30
0.0
 40
1.156001
100
AcDbArc
 50
104.6045539999956
 51
195.3954479999999
  0
ARC
  5
59D78
330
1F
100
AcDbEntity
  8
1
100
AcDbCircle
 10
153.4404290014681
 20
2.016880892826833
 30
0.0
 40
0.4865770000000003
100
AcDbArc
 50
344.6049770000016
 51
135.3949950000039
  0
ARC
  5
59D79
330
1F
100
AcDbEntity
  8
1
100
AcDbCircle
 10
153.4404290014681
 20
-2.0342361071732
 30
0.0
 40
0.4865770000000003
100
AcDbArc
 50
224.6049940000033
 51
15.39500599999878
  0
ARC
  5
59D7A
330
1F
100
AcDbEntity
  8
1
100
AcDbCircle
 10
151.1015050014681
 20
-2.0342361071732
 30
0.0
 40
0.4865770000000003
100
AcDbArc
 50
164.6049889999999
 51
315.3950039999984
  0
ARC
  5
59D7B
330
1F
100
AcDbEntity
  8
1
100
AcDbCircle
 10
152.270969001468
 20
3.170322892826817
 30
0.0
 40
1.156001
100
AcDbArc
 50
224.6045499999947
 51
315.3954549999986
  0
ARC
  5
59D7C
330
1F
100
AcDbEntity
  8
1
100
AcDbCircle
 10
149.5178720014681
 20
-1.59817010717316
 30
0.0
 40
1.156001
100
AcDbArc
 50
344.6045540000009
 51
75.395472000001
  0
ARC
  5
59D7D
330
1F
100
AcDbEntity
  8
1
100
AcDbCircle
 10
152.270969001468
 20
-3.187679107173181
 30
0.0
 40
1.156001
100
AcDbArc
 50
44.60454500000139
 51
135.3954530000029
  0
ARC
  5
59D7E
330
1F
100
AcDbEntity
  8
1
100
AcDbCircle
 10
154.6098900014682
 20
-0.0086621071731372
 30
0.0
 40
0.4865770000000003
100
AcDbArc
 50
284.6049759999994
 51
75.39500700000579
  0
ARC
  5
59D7F
330
1F
100
AcDbEntity
  8
1
100
AcDbCircle
 10
155.0240630014681
 20
1.580814892826793
 30
0.0
 40
1.156001
100
AcDbArc
 50
164.604556000001
 51
255.3954459999976
  0
ARC
  5
59D80
330
1F
100
AcDbEntity
  8
1
100
AcDbCircle
 10
149.932045001468
 20
-0.0086621071731372
 30
0.0
 40
0.4865770000000003
100
AcDbArc
 50
104.6050590000008
 51
255.3949339999948
  0
ARC
  5
59D81
330
1F
100
AcDbEntity
  8
1
100
AcDbCircle
 10
149.5178720014681
 20
1.580814892826793
 30
0.0
 40
1.156001
100
AcDbArc
 50
284.6045250000006
 51
15.39545599999774
  0
ARC
  5
59D82
330
1F
100
AcDbEntity
  8
1
100
AcDbCircle
 10
151.1015050014681
 20
2.016880892826833
 30
0.0
 40
0.4865770000000003
100
AcDbArc
 50
44.60499600000161
 51
195.3950040000015
  0
ARC
  5
59D83
330
1F
100
AcDbEntity
  8
1
100
AcDbCircle
 10
152.2709500014681
 20
-0.0086931071731726
 30
0.0
 40
3.499989999999998
100
AcDbArc
 50
270.0002689999997
 51
0.0003740000005145
  0
ARC
  5
59D84
330
1F
100
AcDbEntity
  8
1
100
AcDbCircle
 10
152.2709500014681
 20
-0.0086621071731372
 30
0.0
 40
3.499989999999998
100
AcDbArc
 50
359.9999499999983
 51
89.99975499999488
  0
ARC
  5
59D85
330
1F
100
AcDbEntity
  8
1
100
AcDbCircle
 10
152.2709840014681
 20
-0.0086621071731372
 30
0.0
 40
3.499989999999998
100
AcDbArc
 50
90.000270999996
 51
180.0002179999998
  0
ARC
  5
59D86
330
1F
100
AcDbEntity
  8
1
100
AcDbCircle
 10
152.2709840014681
 20
-0.0086931071731726
 30
0.0
 40
3.499989999999998
100
AcDbArc
 50
179.9997820000002
 51
269.9997429999976
  0
ARC
  5
59D87
330
1F
100
AcDbEntity
  8
1
100
AcDbCircle
 10
152.1209680014681
 20
-0.0086621071731372
 30
0.0
 40
6.250003999999997
100
AcDbArc
 50
269.9999959999944
 51
359.9999499999983
  0
ARC
  5
59D88
330
1F
100
AcDbEntity
  8
1
100
AcDbCircle
 10
152.1209680014681
 20
-0.0086621071731372
 30
0.0
 40
6.250003999999997
100
AcDbArc
 50
180.0000529999995
 51
270.0000089999996
  0
ARC
  5
59D89
330
1F
100
AcDbEntity
  8
1
100
AcDbCircle
 10
152.1209680014681
 20
-0.0086931071731726
 30
0.0
 40
6.250003999999997
100
AcDbArc
 50
89.99992199999475
 51
179.9999470000005
  0
ARC
  5
59D8A
330
1F
100
AcDbEntity
  8
1
100
AcDbCircle
 10
152.1209680014681
 20
-0.0086931071731726
 30
0.0
 40
6.250003999999997
100
AcDbArc
 50
0.0000499999985184
 51
89.99993599999486
  0
ARC
  5
59D8B
330
1F
100
AcDbEntity
  8
1
100
AcDbCircle
 10
152.2709610014682
 20
-0.0086621071731372
 30
0.0
 40
6.450006
100
AcDbArc
 50
270.0179930000001
 51
89.98199599999699
  0
ARC
  5
59D8C
330
1F
100
AcDbEntity
  8
1
100
AcDbCircle
 10
152.270969001468
 20
-0.0086621071731372
 30
0.0
 40
4.000002999999998
100
AcDbArc
 50
90.000044999998
 51
269.9999549999954
  0
LINE
  5
59D8D
330
1F
100
AcDbEntity
  8
1
100
AcDbLine
 10
158.3709710014681
 20
-0.0086621071731372
 30
0.0
 11
158.2709690014682
 21
-0.0086621071731372
 31
0.0
  0
LINE
  5
59D8E
330
1F
100
AcDbEntity
  8
1
100
AcDbLine
 10
145.8709640014681
 20
-0.0086621071731372
 30
0.0
 11
146.2709650014682
 21
-0.0086621071731372
 31
0.0
  0
LINE
  5
59D8F
330
1F
100
AcDbEntity
  8
1
100
AcDbLine
 10
141.4041110014681
 20
13.57791789282683
 30
0.0
 11
140.8695350014682
 21
13.78970689282684
 31
0.0
  0
LINE
  5
59D90
330
1F
100
AcDbEntity
  8
1
100
AcDbLine
 10
138.7750090014682
 20
-13.5952711071732
 30
0.0
 11
138.7750090014682
 21
-13.8070631071732
 31
0.0
  0
LINE
  5
59D91
330
1F
100
AcDbEntity
  8
1
100
AcDbLine
 10
138.7750090014682
 20
-13.5952711071732
 30
0.0
 11
144.7709690014681
 21
-13.5952711071732
 31
0.0
  0
LINE
  5
59D92
330
1F
100
AcDbEntity
  8
1
100
AcDbLine
 10
146.4479440014681
 20
-13.56985010717321
 30
0.0
 11
152.2750090014682
 21
-13.56985010717321
 31
0.0
  0
LINE
  5
59D93
330
1F
100
AcDbEntity
  8
1
100
AcDbLine
 10
144.7709690014681
 20
-13.56985010717318
 30
0.0
 11
146.4479440014681
 21
-13.56985010717321
 31
0.0
  0
LINE
  5
59D94
330
1F
100
AcDbEntity
  8
1
100
AcDbLine
 10
152.1209680014681
 20
-6.458675107173206
 30
0.0
 11
152.2729870014682
 21
-6.458675107173206
 31
0.0
  0
LINE
  5
59D95
330
1F
100
AcDbEntity
  8
1
100
AcDbLine
 10
152.1209680014681
 20
6.441318892826785
 30
0.0
 11
152.2729870014682
 21
6.441318892826785
 31
0.0
  0
LINE
  5
59D96
330
1F
100
AcDbEntity
  8
1
100
AcDbLine
 10
151.1563060014681
 20
10.85066489282676
 30
0.0
 11
152.2750070014682
 21
10.46517989282682
 31
0.0
  0
LINE
  5
59D97
330
1F
100
AcDbEntity
  8
1
100
AcDbLine
 10
138.7750090014682
 20
13.57791589282683
 30
0.0
 11
141.8491930014681
 21
13.57791589282683
 31
0.0
  0
LINE
  5
59D98
330
1F
100
AcDbEntity
  8
1
100
AcDbLine
 10
138.7750090014682
 20
13.78970789282681
 30
0.0
 11
138.7750090014682
 21
13.57791589282683
 31
0.0
  0
LINE
  5
59D99
330
1F
100
AcDbEntity
  8
1
100
AcDbLine
 10
138.7750090014682
 20
13.78970789282681
 30
0.0
 11
140.8695290014682
 21
13.78970789282681
 31
0.0
  0
LINE
  5
59D9A
330
1F
100
AcDbEntity
  8
1
100
AcDbLine
 10
133.2750000000023
 20
14.74998399999998
 30
0.0
 11
137.2750060014682
 21
13.99686789282682
 31
0.0
  0
LINE
  5
59D9B
330
1F
100
AcDbEntity
  8
1
100
AcDbLine
 10
133.2751960554172
 20
-14.75
 30
0.0
 11
137.2750120014681
 21
-14.01422810717318
 31
0.0
  0
LINE
  5
59D9C
330
1F
100
AcDbEntity
  8
1
100
AcDbLine
 10
137.2750050014682
 20
13.9968768928268
 30
0.0
 11
137.2750050014682
 21
-14.01421710717321
 31
0.0
  0
LINE
  5
59D9E
330
1F
100
AcDbEntity
  8
1
100
AcDbLine
 10
139.5662879991865
 20
13.97994796851898
 30
0.0
 11
144.7609732591866
 21
13.97994796851901
 31
0.0
  0
LINE
  5
59D9F
330
1F
100
AcDbEntity
  8
1
100
AcDbLine
 10
137.2750089991867
 20
13.99191096851896
 30
0.0
 11
144.7609732591866
 21
13.99191096851896
 31
0.0
  0
LINE
  5
59DA0
330
1F
100
AcDbEntity
  8
1
100
AcDbLine
 10
137.2750089991867
 20
-14.01918303148105
 30
0.0
 11
144.7609732591866
 21
-14.01918303148107
 31
0.0
  0
LINE
  5
59DA1
330
1F
100
AcDbEntity
  8
1
100
AcDbLine
 10
138.7750129991867
 20
-13.81202903148105
 30
0.0
 11
144.7609732591866
 21
-13.81202903148102
 31
0.0
  0
LINE
  5
59DA2
330
1F
100
AcDbEntity
  8
1
100
AcDbLine
 10
138.7750129991867
 20
-13.60023703148104
 30
0.0
 11
144.7609732591866
 21
-13.60023703148104
 31
0.0
  0
LINE
  5
59DA3
330
1F
100
AcDbEntity
  8
1
100
AcDbLine
 10
144.7609732591866
 20
-14.01918303148107
 30
0.0
 11
144.7609732591866
 21
-13.57481603148102
 31
0.0
  0
LINE
  5
59DA4
330
1F
100
AcDbEntity
  8
1
100
AcDbLine
 10
144.7609732591866
 20
12.82872193447593
 30
0.0
 11
144.7609732591866
 21
13.99191096851896
 31
0.0
  0
LINE
  5
59DA5
330
1F
100
AcDbEntity
  8
nocut
100
AcDbLine
 10
137.2750049999999
 20
13.99687689282672
 30
0.0
 11
154.2658965925334
 21
13.99687689282672
 31
0.0
  0
LINE
  5
59DA6
330
1F
100
AcDbEntity
  8
nocut
100
AcDbLine
 10
133.2750000000023
 20
14.74998400000001
 30
0.0
 11
137.2750059999999
 21
13.99686789282674
 31
0.0
  0
LINE
  5
59DA7
330
1F
100
AcDbEntity
  8
nocut
100
AcDbLine
 10
2.367649471238792
 20
14.74998400000001
 30
0.0
 11
133.2750000000023
 21
14.74998400000001
 31
0.0
  0
LINE
  5
59DA8
330
1F
100
AcDbEntity
  8
nocut
100
AcDbLine
 10
-0.0000000000001137
 20
15.87499999999997
 30
0.0
 11
-0.0000000000001137
 21
-0.0000000000000568
 31
0.0
  0
ARC
  5
59DA9
330
1F
100
AcDbEntity
  8
nocut
100
AcDbCircle
 10
153.2513605365864
 20
-0.0000000000002274
 30
0.0
 40
14.03359705000002
100
AcDbArc
 50
0.0
 51
85.85427836715265
  0
LINE
  5
59DAA
330
1F
100
AcDbEntity
  8
nocut
100
AcDbLine
 10
167.2849575865864
 20
-0.0000000000001421
 30
0.0
 11
0.0
 21
0.0
 31
0.0
1001
ACAD
1000
RTMaterial
1005
0
  0
DIMENSION
  5
59EBD
330
1F
100
AcDbEntity
  8
2
100
AcDbDimension
  2
*D89
 10
185.9167615621917
 20
14.99999331007682
 30
0.0
 11
185.9167615621917
 21
-4.839064068977677
 31
0.0
 70
   160
  1
%%c<>
 71
     5
 42
29.99999999879996
  3
\M+18352\M+18373\M+1815B - ISO-25
100
AcDbAlignedDimension
 13
153.2750000014759
 23
-15.00000668872312
 33
0.0
 14
165.275000001476
 24
14.99999331007683
 34
0.0
 50
270.0
100
AcDbRotatedDimension
1001
ACAD
1000
DSTYLE
1002
{
1070
    75
1070
     1
1070
   343
1005
50E6F
1070
     4
1000
%%c[]"
1070
    40
1040
1.0
1070
    76
1070
     0
1070
   143
1040
0.03937
1070
   170
1070
     1
1070
   171
1070
     3
1070
   173
1070
     1
1070
   271
1070
     8
1070
   285
1070
     4
1070
   344
1005
0
1002
}
  0
LWPOLYLINE
  5
59EBE
330
1F
100
AcDbEntity
  8
1
100
AcDbPolyline
 90
       24
 70
     0
 43
0.0
 10
168.1319662713197
 20
-14.49254531192312
 10
168.1350700993196
 20
-14.48697068872312
 10
168.1371135993197
 20
-14.48336568872312
 10
168.1391450993194
 20
-14.47983368872312
 10
168.1411640993195
 20
-14.4763736887231
 10
168.1431695993194
 20
-14.47298468872313
 10
168.1451610993197
 20
-14.4696651887231
 10
168.1471380993196
 20
-14.46641568872311
 10
168.1490990993196
 20
-14.46323568872313
 10
168.1510440993195
 20
-14.46012368872309
 10
168.1529725993196
 20
-14.4570786887231
 10
168.1548825993194
 20
-14.45410218872311
 10
168.1567745993194
 20
-14.45119218872313
 10
168.1586475993197
 20
-14.44834718872309
 10
168.1605000993198
 20
-14.44556918872311
 10
168.1623315993195
 20
-14.44285618872314
 10
168.1641425993196
 20
-14.44020718872303
 10
168.1659300993195
 20
-14.4376241887231
 10
168.1676945993197
 20
-14.4351051887231
 10
168.1694360993194
 20
-14.4326491887231
 10
168.1711510993195
 20
-14.43025868872311
 10
168.1728395993195
 20
-14.42793268872313
 10
168.1745025993195
 20
-14.42566868872311
 10
168.1761245993195
 20
-14.4234856887231
  0
SPLINE
  5
59EBF
330
1F
100
AcDbEntity
  8
1
100
AcDbSpline
210
0.0
220
0.0
230
1.0
 70
     8
 71
     3
 72
    16
 73
    12
 74
    10
 42
0.0000000001
 43
0.0000000001
 44
0.000001
 12
0.0523808175141617
 22
-0.9986271826645559
 32
0.0
 13
0.0575400577881666
 23
-0.9983431983790618
 33
0.0
 40
0.0
 40
0.0
 40
0.0
 40
0.0
 40
0.1088212508373886
 40
0.2169598480614314
 40
0.3254848683159251
 40
0.4355535080703166
 40
0.5479645563375978
 40
0.6629289509376616
 40
0.7806967065157421
 40
0.9016638510408274
 40
1.026497566435032
 40
1.026497566435032
 40
1.026497566435032
 40
1.026497566435032
 10
167.9355985797194
 20
-7.272627950423128
 30
0.0
 10
167.9374986284133
 20
-7.308851903469047
 30
0.0
 10
167.9413089787491
 20
-7.381071409091077
 30
0.0
 10
167.94708525884
 20
-7.489412496760508
 30
0.0
 10
167.9529478504785
 20
-7.598165351448329
 30
0.0
 10
167.9589506597998
 20
-7.708336846709329
 30
0.0
 10
167.9651347506568
 20
-7.820648088157128
 30
0.0
 10
167.9715256786179
 20
-7.935518181328887
 30
0.0
 10
167.9781420817224
 20
-8.053232153546247
 30
0.0
 10
167.985010812976
 20
-8.174226890085293
 30
0.0
 10
167.9897020086537
 20
-8.256026105625721
 30
0.0
 10
167.9920963217196
 20
-8.297568402523125
 30
0.0
 11
167.9355985797194
 21
-7.272627950423128
 31
0.0
 11
167.9413301457195
 21
-7.381298164123137
 31
0.0
 11
167.9470880039196
 21
-7.489283364023123
 31
0.0
 11
167.9529295005194
 21
-7.597651058923105
 31
0.0
 11
167.9589175911196
 21
-7.707556694523105
 31
0.0
 11
167.9650975451195
 21
-7.819797741323128
 31
0.0
 11
167.9714835366194
 21
-7.9345846398231
 31
0.0
 11
167.9780923033197
 21
-8.052166820323094
 31
0.0
 11
167.9849493313197
 21
-8.172939450623147
 31
0.0
 11
167.9920963217196
 21
-8.297568402523125
 31
0.0
  0
SPLINE
  5
59EC0
330
1F
100
AcDbEntity
  8
1
100
AcDbSpline
210
0.0
220
0.0
230
1.0
 70
     8
 71
     3
 72
    21
 73
    17
 74
    15
 42
0.0000000001
 43
0.0000000001
 44
0.000001
 12
0.0496102869702508
 22
-0.9987686516039286
 32
0.0
 13
0.0575024421365339
 23
-0.9983453656667789
 33
0.0
 40
0.0
 40
0.0
 40
0.0
 40
0.0
 40
0.136047509567483
 40
0.2783599343369007
 40
0.4279229679385815
 40
0.5858965661817597
 40
0.7439423327014812
 40
0.8972285904743234
 40
1.04621558654319
 40
1.191518251506827
 40
1.335194839434409
 40
1.479091253191527
 40
1.624218391600257
 40
1.770745835969799
 40
1.918358728833036
 40
2.065949293051398
 40
2.065949293051398
 40
2.065949293051398
 40
2.065949293051398
 10
167.9920963217196
 20
-8.297568402523125
 30
0.0
 10
167.9943461070499
 20
-8.342861731751384
 30
0.0
 10
167.9989730575179
 20
-8.435532945338962
 30
0.0
 10
168.0061704263372
 20
-8.577992244464439
 30
0.0
 10
168.0138190247052
 20
-8.727746741488857
 30
0.0
 10
168.0218208238094
 20
-8.882734458718886
 30
0.0
 10
168.029970403457
 20
-9.038957251252753
 30
0.0
 10
168.038048360733
 20
-9.192184149642145
 30
0.0
 10
168.0459846182194
 20
-9.341164896190974
 30
0.0
 10
168.0538308262579
 20
-9.486942652439978
 30
0.0
 10
168.0616661395262
 20
-9.631021655873581
 30
0.0
 10
168.0695793275338
 20
-9.775037806352287
 30
0.0
 10
168.0776275003748
 20
-9.919998235293519
 30
0.0
 10
168.0858293101797
 20
-10.06619084446382
 30
0.0
 10
168.0941653456497
 20
-10.21319832975189
 30
0.0
 10
168.0997950397267
 20
-10.31143831478857
 30
0.0
 10
168.1026239790196
 20
-10.36055376672308
 30
0.0
 11
167.9920963217196
 21
-8.297568402523125
 31
0.0
 11
167.9988830269196
 21
-8.433446528123141
 31
0.0
 11
168.0060621922196
 21
-8.575577755223122
 31
0.0
 11
168.0136904095196
 21
-8.724946129323114
 31
0.0
 11
168.0218346813196
 21
-8.882709649823112
 31
0.0
 11
168.0300687677198
 21
-9.040540774523122
 31
0.0
 11
168.0381390335194
 21
-9.193614441123116
 31
0.0
 11
168.0460647830195
 21
-9.342390471623133
 31
0.0
 11
168.0538745095196
 21
-9.487483105323093
 31
0.0
 11
168.0616766051196
 21
-9.630947696523122
 31
0.0
 11
168.0695714458195
 21
-9.774627371623154
 31
0.0
 11
168.0776165914196
 21
-9.919531344923115
 31
0.0
 11
168.0858246206195
 21
-10.06582871142311
 31
0.0
 11
168.0941810440197
 21
-10.21320488422313
 31
0.0
 11
168.1026239790196
 21
-10.36055376672308
 31
0.0
  0
SPLINE
  5
59EC1
330
1F
100
AcDbEntity
  8
1
100
AcDbSpline
210
0.0
220
0.0
230
1.0
 70
     8
 71
     3
 72
    33
 73
    29
 74
    27
 42
0.0000000001
 43
0.0000000001
 44
0.000001
 12
0.0495622764386842
 22
-0.9987710351998677
 32
0.0
 13
0.0533843309208353
 23
-0.9985740399249996
 33
0.0
 40
0.0
 40
0.0
 40
0.0
 40
0.0
 40
0.1451779039667738
 40
0.2889470647491914
 40
0.4313489213959361
 40
0.5729122863683238
 40
0.7154778845653607
 40
0.8552308134140327
 40
0.9853528866365905
 40
1.100669940332916
 40
1.202473906825993
 40
1.292987395380041
 40
1.373990203085643
 40
1.447007871294021
 40
1.513504456789648
 40
1.573586374947439
 40
1.627557304942556
 40
1.676482161179125
 40
1.721463089012254
 40
1.762950553915135
 40
1.800655220436069
 40
1.834451475598486
 40
1.86536645978311
 40
1.89480805846581
 40
1.924121885823383
 40
1.95367270601666
 40
1.983281753589143
 40
2.01270872566385
 40
2.01270872566385
 40
2.01270872566385
 40
2.01270872566385
 10
168.1026239790196
 20
-10.36055376672308
 30
0.0
 10
168.1050224281561
 20
-10.40888692853409
 30
0.0
 10
168.1098214178283
 20
-10.50508299109751
 30
0.0
 10
168.1170557953743
 20
-10.64868385748187
 30
0.0
 10
168.1242960364984
 20
-10.79107803817882
 30
0.0
 10
168.1315752008314
 20
-10.93306852054351
 30
0.0
 10
168.13887026954
 20
-11.07417404099604
 30
0.0
 10
168.1460478387504
 20
-11.21146675922955
 30
0.0
 10
168.1528373813106
 20
-11.33968448373181
 30
0.0
 10
168.1590411279197
 20
-11.45526582021031
 30
0.0
 10
168.1646105347199
 20
-11.55765931153521
 30
0.0
 10
168.1696235316645
 20
-11.64862805087955
 30
0.0
 10
168.1741457139928
 20
-11.73001383353639
 30
0.0
 10
168.1782418978879
 20
-11.80340530009889
 30
0.0
 10
168.1819558070383
 20
-11.8698336187833
 30
0.0
 10
168.1853140487128
 20
-11.92992299475796
 30
0.0
 10
168.1883396913165
 20
-11.98416457544431
 30
0.0
 10
168.1910767808044
 20
-12.03338076281167
 30
0.0
 10
168.1935733302117
 20
-12.07844274156801
 30
0.0
 10
168.1958528889773
 20
-12.11977094214316
 30
0.0
 10
168.1979172907368
 20
-12.15737711787912
 30
0.0
 10
168.1997788166037
 20
-12.19146496259884
 30
0.0
 10
168.2014828396281
 20
-12.22280294819166
 30
0.0
 10
168.2030928637401
 20
-12.25264969218736
 30
0.0
 10
168.204674407575
 20
-12.28204258934843
 30
0.0
 10
168.2062523582125
 20
-12.31149157629548
 30
0.0
 10
168.2078288687975
 20
-12.34097840897374
 30
0.0
 10
168.2088809728143
 20
-12.36062893716064
 30
0.0
 10
168.2094046192194
 20
-12.37042394062311
 30
0.0
 11
168.1026239790196
 21
-10.36055376672308
 31
0.0
 11
168.1098557046196
 21
-10.50555144752312
 31
0.0
 11
168.1170889554196
 21
-10.64913853492314
 31
0.0
 11
168.1243191586196
 21
-10.79135672262313
 31
0.0
 11
168.1315672668195
 21
-10.93273441252307
 31
0.0
 11
168.1389315382196
 21
-11.07510968172309
 31
0.0
 11
168.1462306327196
 21
-11.21467186982315
 31
0.0
 11
168.1531138523196
 21
-11.34461176072312
 31
0.0
 11
168.1592961429195
 21
-11.45976297512314
 31
0.0
 11
168.1648267181197
 21
-11.5614166044231
 31
0.0
 11
168.1698042279197
 21
-11.65179312802311
 31
0.0
 11
168.1742958911196
 21
-11.73267130692315
 31
0.0
 11
168.1783632444197
 21
-11.80557560382314
 31
0.0
 11
168.1820739227196
 21
-11.87196857592309
 31
0.0
 11
168.1854255962196
 21
-11.93195693452307
 31
0.0
 11
168.1884308009196
 21
-11.98584413172315
 31
0.0
 11
168.1911469967197
 21
-12.03469353122313
 31
0.0
 11
168.1936348455197
 21
-12.07960560612312
 31
0.0
 11
168.1959194439196
 21
-12.12103012002311
 31
0.0
 11
168.1979858180195
 21
-12.15867812102314
 31
0.0
 11
168.1998288177196
 21
-12.19242408722309
 31
0.0
 11
168.2015062339196
 21
-12.22329353242307
 31
0.0
 11
168.2030954905197
 21
-12.25269220592312
 31
0.0
 11
168.2046700740195
 21
-12.28196371172314
 31
0.0
 11
168.2062517421195
 21
-12.31147217292309
 31
0.0
 11
168.2078333623196
 21
-12.34103894772315
 31
0.0
 11
168.2094046192194
 21
-12.37042394062311
 31
0.0
  0
SPLINE
  5
59EC2
330
1F
100
AcDbEntity
  8
1
100
AcDbSpline
210
0.0
220
0.0
230
1.0
 70
     8
 71
     3
 72
    40
 73
    36
 74
    34
 42
0.0000000001
 43
0.0000000001
 44
0.000001
 12
0.0457242482447587
 22
-0.9989540996074101
 32
0.0
 13
0.0088560479979532
 23
-0.9999607844379989
 33
0.0
 40
0.0
 40
0.0
 40
0.0
 40
0.0
 40
0.0953583339252621
 40
0.1801120461260394
 40
0.255642465487853
 40
0.323314112057639
 40
0.3843073552655281
 40
0.4395911904553677
 40
0.4898407667342704
 40
0.5405751707290707
 40
0.5943855241762516
 40
0.6479462157123367
 40
0.6995773831060632
 40
0.7487460996222012
 40
0.7955314408853772
 40
0.8398257911913924
 40
0.880514301760421
 40
0.9162169884324853
 40
0.9473892477065987
 40
0.9759596534555765
 40
1.004037314424878
 40
1.032503104970869
 40
1.061015765668348
 40
1.088756954554757
 40
1.114853293764079
 40
1.139074308471461
 40
1.16178972254328
 40
1.183003073222981
 40
1.202165466448902
 40
1.218932266916193
 40
1.233706085397556
 40
1.247327038206687
 40
1.260542458198101
 40
1.273658115423177
 40
1.286309972665578
 40
1.286309972665578
 40
1.286309972665578
 40
1.286309972665578
 10
168.2094046192194
 20
-12.37042394062311
 30
0.0
 10
168.2108580152636
 20
-12.40217680682522
 30
0.0
 10
168.2136386789028
 20
-12.4621497348688
 30
0.0
 10
168.217645833836
 20
-12.54726963790065
 30
0.0
 10
168.2213400858163
 20
-12.62316508095907
 30
0.0
 10
168.2247758956879
 20
-12.69114345668279
 30
0.0
 10
168.2280008241786
 20
-12.75237488137944
 30
0.0
 10
168.2310455680513
 20
-12.80780024967581
 30
0.0
 10
168.2340253806431
 20
-12.85980426619721
 30
0.0
 10
168.2371048379222
 20
-12.91131046785549
 30
0.0
 10
168.2404078341881
 20
-12.96390875496561
 30
0.0
 10
168.2438613196099
 20
-13.01679688998186
 30
0.0
 10
168.2472788885816
 20
-13.0681367936688
 30
0.0
 10
168.2505583637631
 20
-13.1172224372907
 30
0.0
 10
168.2536429895625
 20
-13.16387003916773
 30
0.0
 10
168.2564771558899
 20
-13.20770126230729
 30
0.0
 10
168.2589897772185
 20
-13.24785126982979
 30
0.0
 10
168.2611419529012
 20
-13.28364114292259
 30
0.0
 10
168.2629701179879
 20
-13.31540372675547
 30
0.0
 10
168.2645755327181
 20
-13.34463314773697
 30
0.0
 10
168.2660530211949
 20
-13.37296597494142
 30
0.0
 10
168.2674436328183
 20
-13.4012839364893
 30
0.0
 10
168.2687350035136
 20
-13.42949433121504
 30
0.0
 10
168.2698932609631
 20
-13.45692000680392
 30
0.0
 10
168.2708971582677
 20
-13.48292020413348
 30
0.0
 10
168.2717494537743
 20
-13.50724958658668
 30
0.0
 10
168.2724653464665
 20
-13.52995494195991
 30
0.0
 10
168.2730563709986
 20
-13.5509770611296
 30
0.0
 10
168.2735297718216
 20
-13.57001872346478
 30
0.0
 10
168.2738994421985
 20
-13.5869157066115
 30
0.0
 10
168.2741883236114
 20
-13.60196680786603
 30
0.0
 10
168.2744202672934
 20
-13.61583494559787
 30
0.0
 10
168.2746114209543
 20
-13.62915092802117
 30
0.0
 10
168.2747694213922
 20
-13.64214429055113
 30
0.0
 10
168.2748532488345
 20
-13.65073306075885
 30
0.0
 10
168.2748905973195
 20
-13.6549501811231
 30
0.0
 11
168.2094046192194
 21
-12.37042394062311
 31
0.0
 11
168.2138133302196
 21
-12.46568029732313
 31
0.0
 11
168.2178132124195
 21
-12.55033957142311
 31
0.0
 11
168.2214911489196
 21
-12.6257803893231
 31
0.0
 11
168.2249123807196
 21
-12.69336549772311
 31
0.0
 11
168.2281239847195
 21
-12.75427412812311
 31
0.0
 11
168.2311593425195
 21
-12.8094745716231
 31
0.0
 11
168.2340357706196
 21
-12.85964175202312
 31
0.0
 11
168.2370671987196
 21
-12.91028550842307
 31
0.0
 11
168.2404343968196
 21
-12.96399040482313
 31
0.0
 11
168.2439136947196
 21
-13.01743796662313
 31
0.0
 11
168.2473345428195
 21
-13.06895568092315
 31
0.0
 11
168.2506046086196
 21
-13.1180155317231
 31
0.0
 11
168.2536851139196
 21
-13.16469934292311
 31
0.0
 11
168.2565378025194
 21
-13.20890173212305
 31
0.0
 11
168.2590750008195
 21
-13.24951105512312
 31
0.0
 11
168.2612153146195
 21
-13.28514952522309
 31
0.0
 11
168.2630047486196
 21
-13.31627037662312
 31
0.0
 11
168.2645702591196
 21
-13.34479785472311
 31
0.0
 11
168.2660312071195
 21
-13.37283747692308
 31
0.0
 11
168.2674261313195
 21
-13.4012690637231
 31
0.0
 11
168.2687287411196
 21
-13.42975194832311
 31
0.0
 11
168.2698981829195
 21
-13.45746847132312
 31
0.0
 11
168.2709041604196
 21
-13.48354540792306
 31
0.0
 11
168.2717514593196
 21
-13.50775159202314
 31
0.0
 11
168.2724667720195
 21
-13.5304557344231
 31
0.0
 11
168.2730625122195
 21
-13.55166071172309
 31
0.0
 11
168.2735384647196
 21
-13.5708171863231
 31
0.0
 11
168.2739050042196
 21
-13.5875799726231
 31
0.0
 11
168.2741883790196
 21
-13.60235106542311
 31
0.0
 11
168.2744160722195
 21
-13.6159701067231
 31
0.0
 11
168.2746060504196
 21
-13.62918415312313
 31
0.0
 11
168.2747649663195
 21
-13.6422988402231
 31
0.0
 11
168.2748905973195
 21
-13.6549501811231
 31
0.0
  0
SPLINE
  5
59EC3
330
1F
100
AcDbEntity
  8
1
100
AcDbSpline
210
0.0
220
0.0
230
1.0
 70
     8
 71
     3
 72
    18
 73
    14
 74
    12
 42
0.0000000001
 43
0.0000000001
 44
0.000001
 12
-0.9997449814877258
 22
0.0225825594232978
 32
0.0
 13
-0.9996914211206549
 23
0.0248407435026691
 33
0.0
 40
0.0
 40
0.0
 40
0.0
 40
0.0
 40
0.0685739441725154
 40
0.1457021032601407
 40
0.2313253948037909
 40
0.3243230178426156
 40
0.4257783665644445
 40
0.5395810391569054
 40
0.6687332279154915
 40
0.8138688305041785
 40
0.9685786649645788
 40
1.123842536929776
 40
1.278957200198008
 40
1.278957200198008
 40
1.278957200198008
 40
1.278957200198008
 10
163.3666352119195
 20
-14.71435310282314
 30
0.0
 10
163.3437830597371
 20
-14.71383691110009
 30
0.0
 10
163.2952281480018
 20
-14.71273700264089
 30
0.0
 10
163.2181399244082
 20
-14.71097029368024
 30
0.0
 10
163.132912948852
 20
-14.70900241833973
 30
0.0
 10
163.0395793770478
 20
-14.70683413188914
 30
0.0
 10
162.9368555788884
 20
-14.70443193909386
 30
0.0
 10
162.8220840424114
 20
-14.70172712912094
 30
0.0
 10
162.6927571134309
 20
-14.69865177497666
 30
0.0
 10
162.5497992602326
 20
-14.69521281837345
 30
0.0
 10
162.3981410016482
 20
-14.6915243873824
 30
0.0
 10
162.2431582183642
 20
-14.68772048930069
 30
0.0
 10
162.1397303913393
 20
-14.6851601503777
 30
0.0
 10
162.0880414586195
 20
-14.68387576252311
 30
0.0
 11
163.3666352119195
 21
-14.71435310282314
 31
0.0
 11
163.2980789083196
 21
-14.71279772872313
 31
0.0
 11
163.2209709621195
 21
-14.71103208252313
 31
0.0
 11
163.1353704713195
 21
-14.70905622282313
 31
0.0
 11
163.0423979333195
 21
-14.70689633772312
 31
0.0
 11
162.9409703180197
 21
-14.70452426272314
 31
0.0
 11
162.8271992370196
 21
-14.70184289832312
 31
0.0
 11
162.6980835607196
 21
-14.69877184182311
 31
0.0
 11
162.5529898720194
 21
-14.69528318072309
 31
0.0
 11
162.3983257409196
 21
-14.69152343592304
 31
0.0
 11
162.2431086371195
 21
-14.68771335102312
 31
0.0
 11
162.0880414586195
 21
-14.68387576252311
 31
0.0
  0
SPLINE
  5
59EC4
330
1F
100
AcDbEntity
  8
1
100
AcDbSpline
210
0.0
220
0.0
230
1.0
 70
     8
 71
     3
 72
    15
 73
    11
 74
     9
 42
0.0000000001
 43
0.0000000001
 44
0.000001
 12
-0.9996712541513982
 22
0.0256394934304597
 32
0.0
 13
-0.9996249723591088
 23
0.02738456930556
 33
0.0
 40
0.0
 40
0.0
 40
0.0
 40
0.0
 40
0.1594002322810476
 40
0.3189591947020522
 40
0.4786673101529731
 40
0.6385133362557213
 40
0.798489048374961
 40
0.958589504561027
 40
1.118809533759589
 40
1.279142456486454
 40
1.279142456486454
 40
1.279142456486454
 40
1.279142456486454
 10
162.0880414586195
 20
-14.68387576252311
 30
0.0
 10
162.0349255152473
 20
-14.68251344878698
 30
0.0
 10
161.9286411659751
 20
-14.67977067402688
 30
0.0
 10
161.7691396562998
 20
-14.67560981127713
 30
0.0
 10
161.6094907494582
 20
-14.67140121341524
 30
0.0
 10
161.4497040025641
 20
-14.66715014711408
 30
0.0
 10
161.2897874356496
 20
-14.66286139511072
 30
0.0
 10
161.1297470901778
 20
-14.65853794042775
 30
0.0
 10
160.9695884591776
 20
-14.65418392764468
 30
0.0
 10
160.8627773666027
 20
-14.65126444826791
 30
0.0
 10
160.8093531021196
 20
-14.6498008989231
 30
0.0
 11
162.0880414586195
 21
-14.68387576252311
 31
0.0
 11
161.9286942202194
 21
-14.67976559352308
 31
0.0
 11
161.7691895125197
 21
-14.67560480722315
 31
0.0
 11
161.6095368316196
 21
-14.6713969642231
 31
0.0
 11
161.4497473244196
 21
-14.66714624842311
 31
0.0
 11
161.2898291269195
 21
-14.6628570314231
 31
0.0
 11
161.1297870657197
 21
-14.6585336110231
 31
0.0
 11
160.9696262022195
 21
-14.65418016582311
 31
0.0
 11
160.8093531021196
 21
-14.6498008989231
 31
0.0
  0
SPLINE
  5
59EC5
330
1F
100
AcDbEntity
  8
1
100
AcDbSpline
210
0.0
220
0.0
230
1.0
 70
     8
 71
     3
 72
    15
 73
    11
 74
     9
 42
0.0000000001
 43
0.0000000001
 44
0.000001
 12
-0.9995873717393608
 22
0.0287243147733276
 32
0.0
 13
-0.9995527331897299
 23
0.0299054104292275
 33
0.0
 40
0.0
 40
0.0
 40
0.0
 40
0.0
 40
0.1594372515189488
 40
0.3190245411039925
 40
0.4787557667946141
 40
0.6386246546142143
 40
0.7986248497424544
 40
0.9587498030910225
 40
1.118992505344221
 40
1.279345950382582
 40
1.279345950382582
 40
1.279345950382582
 40
1.279345950382582
 10
160.8093531021196
 20
-14.6498008989231
 30
0.0
 10
160.7562292810519
 20
-14.64827432365669
 30
0.0
 10
160.6499320164206
 20
-14.64520686428892
 30
0.0
 10
160.4904141718025
 20
-14.64056882686043
 30
0.0
 10
160.3307534216558
 20
-14.6358953356727
 30
0.0
 10
160.170955897148
 20
-14.63119051052859
 30
0.0
 10
160.0110278858549
 20
-14.62645814985421
 30
0.0
 10
159.8509759138076
 20
-14.62170222754577
 30
0.0
 10
159.6908067231509
 20
-14.6169267058404
 30
0.0
 10
159.5839890534411
 20
-14.61373367945234
 30
0.0
 10
159.5305618120196
 20
-14.61213520092312
 30
0.0
 11
160.8093531021196
 21
-14.6498008989231
 31
0.0
 11
160.6499821463194
 21
-14.64520340922308
 31
0.0
 11
160.4904622424194
 21
-14.64056601542307
 31
0.0
 11
160.3307993867195
 21
-14.63589280792311
 31
0.0
 11
160.1709997440195
 21
-14.63118791462312
 31
0.0
 11
160.0110695538194
 21
-14.62645549102311
 31
0.0
 11
159.8510152457195
 21
-14.62169973072312
 31
0.0
 11
159.6908437054197
 21
-14.61692487512309
 31
0.0
 11
159.5305618120196
 21
-14.61213520092312
 31
0.0
  0
SPLINE
  5
59EC6
330
1F
100
AcDbEntity
  8
1
100
AcDbSpline
210
0.0
220
0.0
230
1.0
 70
     8
 71
     3
 72
    15
 73
    11
 74
     9
 42
0.0000000001
 43
0.0000000001
 44
0.000001
 12
-0.9994948615907695
 22
0.0317808378374181
 32
0.0
 13
-0.9994750296656452
 23
0.0323985350727135
 33
0.0
 40
0.0
 40
0.0
 40
0.0
 40
0.0
 40
0.1594685012784387
 40
0.3190859534604767
 40
0.4788462480589222
 40
0.6387430028769318
 40
0.7987698790810257
 40
0.9589203273305507
 40
1.119187218284028
 40
1.279563137523555
 40
1.279563137523555
 40
1.279563137523555
 40
1.279563137523555
 10
159.5305618120196
 20
-14.61213520092312
 30
0.0
 10
159.4774324961484
 20
-14.6104458533967
 30
0.0
 10
159.3711245283595
 20
-14.60705648129604
 30
0.0
 10
159.2115909228689
 20
-14.6019466970836
 30
0.0
 10
159.0519152814912
 20
-14.59681233746224
 30
0.0
 10
158.8921037516131
 20
-14.5916575840306
 30
0.0
 10
158.7321626389929
 20
-14.58648622741714
 30
0.0
 10
158.5720984912094
 20
-14.58130226073436
 30
0.0
 10
158.4119182144591
 20
-14.57610966082862
 30
0.0
 10
158.305093416266
 20
-14.57264597383789
 30
0.0
 10
158.2516628407195
 20
-14.57091399222312
 30
0.0
 11
159.5305618120196
 21
-14.61213520092312
 31
0.0
 11
159.3711742477196
 21
-14.60705504682309
 31
0.0
 11
159.2116385817195
 21
-14.60194589082309
 31
0.0
 11
159.0519607995195
 21
-14.59681182942307
 31
0.0
 11
158.8921471575196
 21
-14.59165700222309
 31
0.0
 11
158.7322038646196
 21
-14.58648557632315
 31
0.0
 11
158.5721373376195
 21
-14.58130175382311
 31
0.0
 11
158.4119545707197
 21
-14.5761097880231
 31
0.0
 11
158.2516628407195
 21
-14.57091399222312
 31
0.0
  0
SPLINE
  5
59EC7
330
1F
100
AcDbEntity
  8
1
100
AcDbSpline
210
0.0
220
0.0
230
1.0
 70
     8
 71
     3
 72
    31
 73
    27
 74
    25
 42
0.0000000001
 43
0.0000000001
 44
0.000001
 12
0.0073353680253001
 22
-0.9999730958260494
 32
0.0
 13
0.0012043637891211
 23
-0.9999992747536687
 33
0.0
 40
0.0
 40
0.0
 40
0.0
 40
0.0
 40
0.0106365724294792
 40
0.0209099274580927
 40
0.0311896756622607
 40
0.0415103088998839
 40
0.051826204760145
 40
0.0620812586791604
 40
0.0722715003618311
 40
0.0824739377190643
 40
0.0926843374747926
 40
0.1027889415516675
 40
0.1129422820965254
 40
0.1235718966162294
 40
0.1351565771462179
 40
0.1480666713627816
 40
0.1626104528936532
 40
0.1786108271663905
 40
0.1951297826502472
 40
0.2114252092590076
 40
0.2274668325180368
 40
0.2436494749370871
 40
0.260592432809933
 40
0.2789817454067911
 40
0.299493694715566
 40
0.3228369825958635
 40
0.3228369825958635
 40
0.3228369825958635
 40
0.3228369825958635
 10
168.2748905973195
 20
-13.6549501811231
 30
0.0
 10
168.2749166050439
 20
-13.65849560987686
 30
0.0
 10
168.2749629195052
 20
-13.66546543636718
 30
0.0
 10
168.2750109757507
 20
-13.67586188971029
 30
0.0
 10
168.27504128372
 20
-13.68615309576017
 30
0.0
 10
168.2750529632121
 20
-13.69645851968602
 30
0.0
 10
168.2750506703565
 20
-13.70675571570652
 30
0.0
 10
168.2750394973151
 20
-13.71700944073134
 30
0.0
 10
168.2750245959299
 20
-13.7272253407618
 30
0.0
 10
168.2750112971801
 20
-13.73742635867293
 30
0.0
 10
168.2750039166586
 20
-13.7475988368954
 30
0.0
 10
168.2750005534732
 20
-13.75775495127357
 30
0.0
 10
168.2749999670778
 20
-13.76805080438899
 30
0.0
 10
168.2750009714644
 20
-13.77884001620813
 30
0.0
 10
168.2750019728975
 20
-13.7905481459272
 30
0.0
 10
168.2750019687231
 20
-13.80356099803012
 30
0.0
 10
168.2750018331996
 20
-13.81804574802956
 30
0.0
 10
168.2750026356254
 20
-13.83373345181067
 30
0.0
 10
168.2750060754447
 20
-13.8500050369752
 30
0.0
 10
168.2750118224957
 20
-13.86629037112198
 30
0.0
 10
168.2750194382497
 20
-13.88246360011933
 30
0.0
 10
168.2750287194843
 20
-13.89885267203729
 30
0.0
 10
168.2750403104882
 20
-13.91602430578078
 30
0.0
 10
168.2750550534971
 20
-13.93463903996078
 30
0.0
 10
168.275075192387
 20
-13.95538721346193
 30
0.0
 10
168.2750900831494
 20
-13.97000561840625
 30
0.0
 10
168.2750994544196
 20
-13.97778670872313
 30
0.0
 11
168.2748905973195
 21
-13.6549501811231
 31
0.0
 11
168.2749590763196
 21
-13.66558653682315
 31
0.0
 11
168.2750070949194
 21
-13.67585977822315
 31
0.0
 11
168.2750371458197
 21
-13.68613948122314
 31
0.0
 11
168.2750496320194
 21
-13.6964601057231
 31
0.0
 11
168.2750481708195
 21
-13.70677600052315
 31
0.0
 11
168.2750378411194
 21
-13.7170310485231
 31
0.0
 11
168.2750238649196
 21
-13.72722128012313
 31
0.0
 11
168.2750112833196
 21
-13.73742370942315
 31
0.0
 11
168.2750035657196
 21
-13.74763410612309
 31
0.0
 11
168.2750000195194
 21
-13.75773870952309
 31
0.0
 11
168.2749992242195
 21
-13.7678920500231
 31
0.0
 11
168.2749999290197
 21
-13.77852166452314
 31
0.0
 11
168.2750007783197
 21
-13.79010634502313
 31
0.0
 11
168.2750009506197
 21
-13.80301643922311
 31
0.0
 11
168.2750009774197
 21
-13.81756022072315
 31
0.0
 11
168.2750020473196
 21
-13.83356059492311
 31
0.0
 11
168.2750054834196
 21
-13.85007955002308
 31
0.0
 11
168.2750111753196
 21
-13.86637497562313
 31
0.0
 11
168.2750186701196
 21
-13.88241659712312
 31
0.0
 11
168.2750278624195
 21
-13.89859923692307
 31
0.0
 11
168.2750393019196
 21
-13.9155421909231
 31
0.0
 11
168.2750540107196
 21
-13.93393149762309
 31
0.0
 11
168.2750734298195
 21
-13.95444343772314
 31
0.0
 11
168.2750994544196
 21
-13.97778670872313
 31
0.0
  0
SPLINE
  5
59EC8
330
1F
100
AcDbEntity
  8
1
100
AcDbSpline
210
0.0
220
0.0
230
1.0
 70
     8
 71
     3
 72
    29
 73
    25
 74
    23
 42
0.0000000001
 43
0.0000000001
 44
0.000001
 12
0.8088407951806244
 22
0.5880276932692672
 32
0.0
 13
0.7758589535383893
 23
0.63090639893277
 33
0.0
 40
0.0
 40
0.0
 40
0.0
 40
0.0
 40
0.0014310248183812
 40
0.002849795741154
 40
0.0042561303533857
 40
0.0056503216215392
 40
0.0070325780265771
 40
0.0084027950693445
 40
0.0097615666041499
 40
0.0111097505224724
 40
0.0124484234344094
 40
0.0137784231717261
 40
0.0151006291855315
 40
0.0164158339122239
 40
0.0177248844549456
 40
0.01902853879791
 40
0.0203275502939625
 40
0.0216226884718043
 40
0.0229146612851119
 40
0.0242042663436943
 40
0.0254922421564786
 40
0.0267794202357204
 40
0.0280665851741501
 40
0.0293545431104406
 40
0.0293545431104406
 40
0.0293545431104406
 40
0.0293545431104406
 10
168.0200545827194
 20
-14.61758445872311
 30
0.0
 10
168.0204404064701
 20
-14.61730396464878
 30
0.0
 10
168.0212080560247
 20
-14.61674442285707
 30
0.0
 10
168.0223524449701
 20
-14.61590590256239
 30
0.0
 10
168.0234848625399
 20
-14.61507182446172
 30
0.0
 10
168.0246054295452
 20
-14.61424218803299
 30
0.0
 10
168.0257142872896
 20
-14.613416976031
 30
0.0
 10
168.0268116570635
 20
-14.61259611026114
 30
0.0
 10
168.0278979321598
 20
-14.61177938056701
 30
0.0
 10
168.028973817266
 20
-14.61096633536019
 30
0.0
 10
168.0300400770196
 20
-14.61015646706377
 30
0.0
 10
168.0310974765881
 20
-14.60934925654587
 30
0.0
 10
168.0321467008911
 20
-14.60854423534175
 30
0.0
 10
168.0331884326225
 20
-14.60774092673861
 30
0.0
 10
168.0342233177762
 20
-14.60693887250875
 30
0.0
 10
168.0352519875329
 20
-14.60613761640238
 30
0.0
 10
168.0362750482639
 20
-14.60533671226102
 30
0.0
 10
168.0372930888419
 20
-14.60453571853543
 30
0.0
 10
168.0383067053739
 20
-14.60373417896332
 30
0.0
 10
168.0393164813913
 20
-14.60293163803359
 30
0.0
 10
168.0403230280695
 20
-14.60212760887177
 30
0.0
 10
168.0413269484107
 20
-14.60132160134137
 30
0.0
 10
168.042328857938
 20
-14.60051310522928
 30
0.0
 10
168.0429955154874
 20
-14.59997238722428
 30
0.0
 10
168.0433286067195
 20
-14.5997015269231
 30
0.0
 11
168.0200545827194
 21
-14.61758445872311
 31
0.0
 11
168.0212109953197
 21
-14.61674152622308
 31
0.0
 11
168.0223554102196
 21
-14.61590295212315
 31
0.0
 11
168.0234877194195
 21
-14.61506891002312
 31
0.0
 11
168.0246081976195
 21
-14.61423929132311
 31
0.0
 11
168.0257170500197
 21
-14.61341403532313
 31
0.0
 11
168.0268142298196
 21
-14.61259326672311
 31
0.0
 11
168.0279002486195
 21
-14.61177669062314
 31
0.0
 11
168.0289758246197
 21
-14.61096384732312
 31
0.0
 11
168.0300418451196
 21
-14.61015413792307
 31
0.0
 11
168.0310990012197
 21
-14.60934709982311
 31
0.0
 11
168.0321480124196
 21
-14.60854223892315
 31
0.0
 11
168.0331895238196
 21
-14.60773910702309
 31
0.0
 11
168.0342242191194
 21
-14.60693721642312
 31
0.0
 11
168.0352527066196
 21
-14.6061361276231
 31
0.0
 11
168.0362755862195
 21
-14.60533539792314
 31
0.0
 11
168.0372934659196
 21
-14.60453456882314
 31
0.0
 11
168.0383069005195
 21
-14.6037332139231
 31
0.0
 11
168.0393165104195
 21
-14.60293084542306
 31
0.0
 11
168.0403228648194
 21
-14.60212700632311
 31
0.0
 11
168.0413266005196
 21
-14.60132117552311
 31
0.0
 11
168.0423283124196
 21
-14.60051285502314
 31
0.0
 11
168.0433286067195
 21
-14.5997015269231
 31
0.0
  0
SPLINE
  5
59EC9
330
1F
100
AcDbEntity
  8
1
100
AcDbSpline
210
0.0
220
0.0
230
1.0
 70
     8
 71
     3
 72
    29
 73
    25
 74
    23
 42
0.0000000001
 43
0.0000000001
 44
0.000001
 12
0.7613704672648655
 22
0.6483170609947578
 32
0.0
 13
0.7225898007953973
 23
0.6912770644151795
 33
0.0
 40
0.0
 40
0.0
 40
0.0
 40
0.0
 40
0.0014455445095783
 40
0.0028781428565691
 40
0.0042978597296725
 40
0.0057048287938245
 40
0.0070996214245038
 40
0.0084821561816441
 40
0.0098524756384095
 40
0.0112111689554601
 40
0.0125597726553155
 40
0.0138995767369633
 40
0.0152316483083135
 40
0.0165564678679061
 40
0.0178749829486995
 40
0.0191878406237688
 40
0.0204960767062265
 40
0.0218003548030644
 40
0.0231016867209736
 40
0.0244006440902865
 40
0.0256980370885923
 40
0.0269946953346198
 40
0.0282912223570969
 40
0.0295885360948166
 40
0.0295885360948166
 40
0.0295885360948166
 40
0.0295885360948166
 10
168.0433286067195
 20
-14.5997015269231
 30
0.0
 10
168.0436954716858
 20
-14.59938913653377
 30
0.0
 10
168.044425097906
 20
-14.59876619197459
 30
0.0
 10
168.0455121718472
 20
-14.59783309252969
 30
0.0
 10
168.046587049526
 20
-14.59690553379784
 30
0.0
 10
168.0476499664113
 20
-14.59598341116418
 30
0.0
 10
168.0487011200117
 20
-14.59506664984204
 30
0.0
 10
168.0497406840098
 20
-14.5941551935102
 30
0.0
 10
168.0507688361813
 20
-14.59324898103301
 30
0.0
 10
168.0517861569783
 20
-14.59234759202741
 30
0.0
 10
168.0527935322664
 20
-14.59145032336207
 30
0.0
 10
168.0537919587074
 20
-14.59055635639404
 30
0.0
 10
168.054782162957
 20
-14.58966509831984
 30
0.0
 10
168.0557647811259
 20
-14.58877602613862
 30
0.0
 10
168.0567403405089
 20
-14.58788870506745
 30
0.0
 10
168.0577095002994
 20
-14.58700257008738
 30
0.0
 10
168.0586728441888
 20
-14.58611711374499
 30
0.0
 10
168.0596310397478
 20
-14.58523174012879
 30
0.0
 10
168.0605846350621
 20
-14.5843459519933
 30
0.0
 10
168.0615342086257
 20
-14.58345921307591
 30
0.0
 10
168.0624802891796
 20
-14.58257102290778
 30
0.0
 10
168.063423407754
 20
-14.58168086798832
 30
0.0
 10
168.0643641158721
 20
-14.58078820459945
 30
0.0
 10
168.0649896885945
 20
-14.58019136493388
 30
0.0
 10
168.0653021638196
 20
-14.57989243052313
 30
0.0
 11
168.0433286067195
 21
-14.5997015269231
 31
0.0
 11
168.0444279514195
 21
-14.59876289472308
 31
0.0
 11
168.0455149783195
 21
-14.59782979042308
 31
0.0
 11
168.0465897831194
 21
-14.59690223832311
 31
0.0
 11
168.0476525129196
 21
-14.59598021662313
 31
0.0
 11
168.0487036432196
 21
-14.59506341402309
 31
0.0
 11
168.0497431551196
 21
-14.59415194542311
 31
0.0
 11
168.0507711231196
 21
-14.59324584402313
 31
0.0
 11
168.0517880302196
 21
-14.59234477972308
 31
0.0
 11
168.0527950620194
 21
-14.59144778672313
 31
0.0
 11
168.0537932099196
 21
-14.5905540517231
 31
0.0
 11
168.0547832908196
 21
-14.58966290062309
 31
0.0
 11
168.0557656797196
 21
-14.58877404522306
 31
0.0
 11
168.0567410933197
 21
-14.58788687892311
 31
0.0
 11
168.0577100198194
 21
-14.58700099052314
 31
0.0
 11
168.0586732288195
 21
-14.58611570062314
 31
0.0
 11
168.0596312092195
 21
-14.5852305746231
 31
0.0
 11
168.0605846998196
 21
-14.58434493552315
 31
0.0
 11
168.0615341108196
 21
-14.58345839962314
 31
0.0
 11
168.0624800215197
 21
-14.58257041512311
 31
0.0
 11
168.0634230191197
 21
-14.58168041062313
 31
0.0
 11
168.0643635203196
 21
-14.58078796392314
 31
0.0
 11
168.0653021638196
 21
-14.57989243052313
 31
0.0
  0
SPLINE
  5
59ECA
330
1F
100
AcDbEntity
  8
1
100
AcDbSpline
210
0.0
220
0.0
230
1.0
 70
     8
 71
     3
 72
    12
 73
     8
 74
     6
 42
0.0000000001
 43
0.0000000001
 44
0.000001
 12
0.0536633730227895
 22
-0.998559083077119
 32
0.0
 13
0.0551393927594986
 23
-0.9984786664551796
 33
0.0
 40
0.0
 40
0.0
 40
0.0
 40
0.0
 40
0.2539982346960072
 40
0.4795042456090503
 40
0.6832544223719114
 40
0.8746313967110895
 40
1.059027242522998
 40
1.059027242522998
 40
1.059027242522998
 40
1.059027242522998
 10
167.8780832724197
 20
-6.215163770923112
 30
0.0
 10
167.8826267397583
 20
-6.299707852370204
 30
0.0
 10
167.891223639338
 20
-6.459311238301694
 30
0.0
 10
167.903530477639
 20
-6.686729964007412
 30
0.0
 10
167.9147681431543
 20
-6.893302245740272
 30
0.0
 10
167.9253243222704
 20
-7.08618793983814
 30
0.0
 10
167.9322094213976
 20
-7.211256177681065
 30
0.0
 10
167.9355985797194
 20
-7.272627950423128
 30
0.0
 11
167.8780832724197
 21
-6.215163770923112
 31
0.0
 11
167.8917466830196
 21
-6.468794236123102
 31
0.0
 11
167.9039327257196
 21
-6.693970738023125
 31
0.0
 11
167.9150025842195
 21
-6.89741998512315
 31
0.0
 11
167.9254609367195
 21
-7.088510984023145
 31
0.0
 11
167.9355985797194
 21
-7.272627950423128
 31
0.0
  0
SPLINE
  5
59ECB
330
1F
100
AcDbEntity
  8
1
100
AcDbSpline
210
0.0
220
0.0
230
1.0
 70
     8
 71
     3
 72
    29
 73
    25
 74
    23
 42
0.0000000001
 43
0.0000000001
 44
0.000001
 12
0.709387084025006
 22
0.7048191009177457
 32
0.0
 13
0.6641247049669241
 23
0.7476218136548693
 33
0.0
 40
0.0
 40
0.0
 40
0.0
 40
0.0
 40
0.0014612156715433
 40
0.0029073996395435
 40
0.0043389955086356
 40
0.0057568554680537
 40
0.0071611508270207
 40
0.0085526635982135
 40
0.0099324952375273
 40
0.0113013704700376
 40
0.0126605637180748
 40
0.0140108621531196
 40
0.0153525820178701
 40
0.016686683541738
 40
0.0180141799765121
 40
0.0193361098975195
 40
0.0206533794551873
 40
0.0219666367946631
 40
0.023276823276894
 40
0.0245845513573971
 40
0.0258908336041472
 40
0.0271963339074286
 40
0.0285020333200646
 40
0.0298083322268629
 40
0.0298083322268629
 40
0.0298083322268629
 40
0.0298083322268629
 10
168.0653021638196
 20
-14.57989243052313
 30
0.0
 10
168.0656476863278
 20
-14.57954913295117
 30
0.0
 10
168.0663342186187
 20
-14.57886510404589
 30
0.0
 10
168.0673559180275
 20
-14.5778413797918
 30
0.0
 10
168.0683645554353
 20
-14.57682504511228
 30
0.0
 10
168.0693605286477
 20
-14.57581582194149
 30
0.0
 10
168.0703443114619
 20
-14.57481334791387
 30
0.0
 10
168.0713164318839
 20
-14.57381719699433
 30
0.0
 10
168.0722775411445
 20
-14.57282680513998
 30
0.0
 10
168.0732283980919
 20
-14.57184148359681
 30
0.0
 10
168.0741696814665
 20
-14.57086061150778
 30
0.0
 10
168.0751019689335
 20
-14.56988365941396
 30
0.0
 10
168.0760257607215
 20
-14.56891016845645
 30
0.0
 10
168.0769416038497
 20
-14.5679396200484
 30
0.0
 10
168.0778502039223
 20
-14.56697131400486
 30
0.0
 10
168.0787522464296
 20
-14.56600455584817
 30
0.0
 10
168.0796483263826
 20
-14.56503873305249
 30
0.0
 10
168.0805390101656
 20
-14.56407325071498
 30
0.0
 10
168.081424791394
 20
-14.56310758002056
 30
0.0
 10
168.0823062394873
 20
-14.56214109692368
 30
0.0
 10
168.0831838547143
 20
-14.56117323963039
 30
0.0
 10
168.0840582130239
 20
-14.56020334922928
 30
0.0
 10
168.0849297465287
 20
-14.55923091236343
 30
0.0
 10
168.0855089389275
 20
-14.55858083680906
 30
0.0
 10
168.0857981207195
 20
-14.5582552976231
 30
0.0
 11
168.0653021638196
 21
-14.57989243052313
 31
0.0
 11
168.0663372631195
 21
-14.5788610688231
 31
0.0
 11
168.0673588175196
 21
-14.5778374295231
 31
0.0
 11
168.0683672031195
 21
-14.57682127342312
 31
0.0
 11
168.0693630790194
 21
-14.57581206652307
 31
0.0
 11
168.0703466213197
 21
-14.5748097547231
 31
0.0
 11
168.0713184306196
 21
-14.57381384482309
 31
0.0
 11
168.0722793234197
 21
-14.57282360792314
 31
0.0
 11
168.0732298461196
 21
-14.5718385779231
 31
0.0
 11
168.0741709192195
 21
-14.57085788582307
 31
0.0
 11
168.0751031170196
 21
-14.56988100572309
 31
0.0
 11
168.0760266837195
 21
-14.5689077477231
 31
0.0
 11
168.0769423022195
 21
-14.56793745052309
 31
0.0
 11
168.0778506838194
 21
-14.56696940682306
 31
0.0
 11
168.0787525484195
 21
-14.56600288282314
 31
0.0
 11
168.0796485178196
 21
-14.56503723452314
 31
0.0
 11
168.0805390313197
 21
-14.56407200082313
 31
0.0
 11
168.0814247204196
 21
-14.56310649932314
 31
0.0
 11
168.0823059870197
 21
-14.56214028372309
 31
0.0
 11
168.0831834957196
 21
-14.56117260622315
 31
0.0
 11
168.0840576687194
 21
-14.56020297042309
 31
0.0
 11
168.0849291330196
 21
-14.55923063812312
 31
0.0
 11
168.0857981207195
 21
-14.5582552976231
 31
0.0
  0
SPLINE
  5
59ECC
330
1F
100
AcDbEntity
  8
1
100
AcDbSpline
210
0.0
220
0.0
230
1.0
 70
     8
 71
     3
 72
    30
 73
    26
 74
    24
 42
0.0000000001
 43
0.0000000001
 44
0.000001
 12
0.6531583501531971
 22
0.7572213478403485
 32
0.0
 13
0.600715653290029
 23
0.7994627595406393
 33
0.0
 40
0.0
 40
0.0
 40
0.0
 40
0.0
 40
0.0014110724484809
 40
0.0028077374878166
 40
0.0041899723278327
 40
0.0055583683177024
 40
0.0069138029182371
 40
0.0082568878181178
 40
0.0095886645520225
 40
0.0109100462952462
 40
0.0122218891504411
 40
0.0135250626772378
 40
0.0148202677422431
 40
0.0161083222422018
 40
0.0173900366303571
 40
0.0186661578090937
 40
0.0199374927230126
 40
0.0212046261649972
 40
0.0224683914246349
 40
0.0237293716142024
 40
0.0249884334985251
 40
0.026246218546383
 40
0.0275035610850234
 40
0.0287609600693122
 40
0.0300190114839828
 40
0.0300190114839828
 40
0.0300190114839828
 40
0.0300190114839828
 10
168.0857981207195
 20
-14.5582552976231
 30
0.0
 10
168.086105338637
 20
-14.55789913289598
 30
0.0
 10
168.0867156192435
 20
-14.55718956072547
 30
0.0
 10
168.0876232762816
 20
-14.55612804489257
 30
0.0
 10
168.0885186543723
 20
-14.55507475407304
 30
0.0
 10
168.0894021231939
 20
-14.55402938516906
 30
0.0
 10
168.0902741847515
 20
-14.55299146925273
 30
0.0
 10
168.0911354318966
 20
-14.5519604173252
 30
0.0
 10
168.0919864585505
 20
-14.55093562532121
 30
0.0
 10
168.0928279034797
 20
-14.54991642013871
 30
0.0
 10
168.0936603616533
 20
-14.54890216652399
 30
0.0
 10
168.0944843762292
 20
-14.54789227797184
 30
0.0
 10
168.0953004758395
 20
-14.54688617232929
 30
0.0
 10
168.0961091703128
 20
-14.54588327736968
 30
0.0
 10
168.0969109725647
 20
-14.54488300349717
 30
0.0
 10
168.097706386608
 20
-14.54388475855842
 30
0.0
 10
168.0984958630575
 20
-14.54288800397449
 30
0.0
 10
168.0992798642419
 20
-14.54189217370117
 30
0.0
 10
168.1000588000826
 20
-14.5408967554213
 30
0.0
 10
168.1008331321828
 20
-14.53990115799038
 30
0.0
 10
168.1016032762092
 20
-14.5389048356491
 30
0.0
 10
168.1023696922456
 20
-14.53790717131863
 30
0.0
 10
168.1031327587233
 20
-14.53690763994243
 30
0.0
 10
168.1038928384027
 20
-14.53590572408979
 30
0.0
 10
168.104397562527
 20
-14.53523616400829
 30
0.0
 10
168.1046494729195
 20
-14.53490090892308
 30
0.0
 11
168.0857981207195
 21
-14.5582552976231
 31
0.0
 11
168.0867182114195
 21
-14.55718546492309
 31
0.0
 11
168.0876258245196
 21
-14.55612392502309
 31
0.0
 11
168.0885210122194
 21
-14.55507076342312
 31
0.0
 11
168.0894042224197
 21
-14.55402559602314
 31
0.0
 11
168.0902760815197
 21
-14.5529878150231
 31
0.0
 11
168.0911370379197
 21
-14.5519570102231
 31
0.0
 11
168.0919878088196
 21
-14.5509324359231
 31
0.0
 11
168.0928290205195
 21
-14.54991343782305
 31
0.0
 11
168.0936612550197
 21
-14.54889939912308
 31
0.0
 11
168.0944850953195
 21
-14.54788968652312
 31
0.0
 11
168.0953010105198
 21
-14.54688379162312
 31
0.0
 11
168.0961095367198
 21
-14.54588110982311
 31
0.0
 11
168.0969111983197
 21
-14.54488103682311
 31
0.0
 11
168.0977064726196
 21
-14.54388301222306
 31
0.0
 11
168.0984958673195
 21
-14.5428864233231
 31
0.0
 11
168.0992797453195
 21
-14.5418908264231
 31
0.0
 11
168.1000586165195
 21
-14.5408955776231
 31
0.0
 11
168.1008328297196
 21
-14.5399002250231
 31
0.0
 11
168.1016029006196
 21
-14.53890408762314
 31
0.0
 11
168.1023691994195
 21
-14.53790665722315
 31
0.0
 11
168.1031322062197
 21
-14.53690726742306
 31
0.0
 11
168.1038921901195
 21
-14.53590551332311
 31
0.0
 11
168.1046494729195
 21
-14.53490090892308
 31
0.0
  0
SPLINE
  5
59ECD
330
1F
100
AcDbEntity
  8
1
100
AcDbSpline
210
0.0
220
0.0
230
1.0
 70
     8
 71
     3
 72
    30
 73
    26
 74
    24
 42
0.0000000001
 43
0.0000000001
 44
0.000001
 12
0.5929791176877908
 22
0.8052178375981306
 32
0.0
 13
0.532651650440401
 23
0.8463345788062287
 33
0.0
 40
0.0
 40
0.0
 40
0.0
 40
0.0
 40
0.0014226883977685
 40
0.0028293986796619
 40
0.0042209807603389
 40
0.0055985986875873
 40
0.006963140241567
 40
0.0083153036038959
 40
0.0096559866613901
 40
0.0109860543757186
 40
0.0123065014707174
 40
0.0136184303170014
 40
0.0149229062759985
 40
0.0162206774165634
 40
0.0175120308280502
 40
0.0187976476320031
 40
0.0200785194392525
 40
0.0213549794036988
 40
0.0226273976778736
 40
0.0238967179684931
 40
0.0251639524058733
 40
0.0264300647377427
 40
0.0276958054175557
 40
0.0289618850356598
 40
0.0302290288525882
 40
0.0302290288525882
 40
0.0302290288525882
 40
0.0302290288525882
 10
168.1046494729195
 20
-14.53490090892308
 30
0.0
 10
168.1049306810897
 20
-14.53451905089801
 30
0.0
 10
168.1054887678764
 20
-14.53375876005222
 30
0.0
 10
168.1063178167988
 20
-14.53262195977709
 30
0.0
 10
168.1071345245486
 20
-14.53149476171111
 30
0.0
 10
168.1079395247726
 20
-14.53037644722994
 30
0.0
 10
168.1087334132202
 20
-14.52926633194858
 30
0.0
 10
168.1095167264905
 20
-14.5281637978581
 30
0.0
 10
168.1102899896527
 20
-14.52706822764517
 30
0.0
 10
168.1110537771275
 20
-14.52597891746907
 30
0.0
 10
168.111808693926
 20
-14.52489510136584
 30
0.0
 10
168.1125553737684
 20
-14.52381595169197
 30
0.0
 10
168.1132943937667
 20
-14.5227407014155
 30
0.0
 10
168.1140261687234
 20
-14.52166880156463
 30
0.0
 10
168.1147510354705
 20
-14.52059980493183
 30
0.0
 10
168.1154693711056
 20
-14.51953319346796
 30
0.0
 10
168.1161815545159
 20
-14.5184684317947
 30
0.0
 10
168.116887900698
 20
-14.51740506653206
 30
0.0
 10
168.117588710867
 20
-14.51634265437829
 30
0.0
 10
168.1182844044822
 20
-14.51528055899106
 30
0.0
 10
168.1189755002687
 20
-14.51421797265604
 30
0.0
 10
168.119662471541
 20
-14.51315413519617
 30
0.0
 10
168.1203457276045
 20
-14.51208836495252
 30
0.0
 10
168.1210256261273
 20
-14.51102004222264
 30
0.0
 10
168.1214766081377
 20
-14.5103061493993
 30
0.0
 10
168.1217015902196
 20
-14.5099486735231
 30
0.0
 11
168.1046494729195
 21
-14.53490090892308
 31
0.0
 11
168.1054912959196
 21
-14.53375402002311
 31
0.0
 11
168.1063201170194
 21
-14.53261743302309
 31
0.0
 11
168.1071365192194
 21
-14.53149053242313
 31
0.0
 11
168.1079412600195
 21
-14.53037244142311
 31
0.0
 11
168.1087349247195
 21
-14.52926249982315
 31
0.0
 11
168.1095179801195
 21
-14.52816019592311
 31
0.0
 11
168.1102910007196
 21
-14.52706484972313
 31
0.0
 11
168.1110545333197
 21
-14.52597580212315
 31
0.0
 11
168.1118091899195
 21
-14.52489228142312
 31
0.0
 11
168.1125556339195
 21
-14.52381342072309
 31
0.0
 11
168.1132944963195
 21
-14.52273837592307
 31
0.0
 11
168.1140262190194
 21
-14.52166655822313
 31
0.0
 11
168.1147509775194
 21
-14.52059775542315
 31
0.0
 11
168.1154691640197
 21
-14.51953142652311
 31
0.0
 11
168.1161813355197
 21
-14.51846676752311
 31
0.0
 11
168.1168876748195
 21
-14.51740351672313
 31
0.0
 11
168.1175883812195
 21
-14.51634137942309
 31
0.0
 11
168.1182839630197
 21
-14.51527957812314
 31
0.0
 11
168.1189749553196
 21
-14.51421727162309
 31
0.0
 11
168.1196618553197
 21
-14.51315365242308
 31
0.0
 11
168.1203450344195
 21
-14.51208808642306
 31
0.0
 11
168.1210248330194
 21
-14.5110199678231
 31
0.0
 11
168.1217015902196
 21
-14.5099486735231
 31
0.0
  0
SPLINE
  5
59ECE
330
1F
100
AcDbEntity
  8
1
100
AcDbSpline
210
0.0
220
0.0
230
1.0
 70
     8
 71
     3
 72
    22
 73
    18
 74
    16
 42
0.0000000001
 43
0.0000000001
 44
0.000001
 12
0.5291490911548289
 22
0.8485288677057596
 32
0.0
 13
0.4855598142273926
 23
0.8742034470347622
 33
0.0
 40
0.0
 40
0.0
 40
0.0
 40
0.0
 40
0.0014326978263326
 40
0.0028498033537379
 40
0.0042518912293013
 40
0.0056393341086592
 40
0.0070129339014639
 40
0.0083739544040785
 40
0.0097233336535873
 40
0.011062006723767
 40
0.0123911514299749
 40
0.0137115302035986
 40
0.0150237635353117
 40
0.0163288262668177
 40
0.0176274238105971
 40
0.0189199156898056
 40
0.0202071126443324
 40
0.0202071126443324
 40
0.0202071126443324
 40
0.0202071126443324
 10
168.1217015902196
 20
-14.5099486735231
 30
0.0
 10
168.1219542938038
 20
-14.50954344503498
 30
0.0
 10
168.1224556067651
 20
-14.50873655918192
 30
0.0
 10
168.123199522087
 20
-14.50753018935816
 30
0.0
 10
168.1239315155845
 20
-14.50633419950446
 30
0.0
 10
168.1246519695543
 20
-14.50514815869425
 30
0.0
 10
168.125361379803
 20
-14.50397143526464
 30
0.0
 10
168.1260603303
 20
-14.50280323016028
 30
0.0
 10
168.1267494171982
 20
-14.50164269937184
 30
0.0
 10
168.1274292115927
 20
-14.50048901691835
 30
0.0
 10
168.1281002443161
 20
-14.49934140066787
 30
0.0
 10
168.1287629834861
 20
-14.49819915299622
 30
0.0
 10
168.1294178549864
 20
-14.49706162975155
 30
0.0
 10
168.1300652669562
 20
-14.49592819832995
 30
0.0
 10
168.130705576287
 20
-14.49479829682056
 30
0.0
 10
168.131339106106
 20
-14.49367140726286
 30
0.0
 10
168.1317579342816
 20
-14.49292040259468
 30
0.0
 10
168.1319662713197
 20
-14.49254531192312
 30
0.0
 11
168.1217015902196
 21
-14.5099486735231
 31
0.0
 11
168.1224576467196
 21
-14.50873171342309
 31
0.0
 11
168.1232014274194
 21
-14.50752549932312
 31
0.0
 11
168.1239333204196
 21
-14.50632961052312
 31
0.0
 11
168.1246536030196
 21
-14.50514379542306
 31
0.0
 11
168.1253627691196
 21
-14.50396743182315
 31
0.0
 11
168.1260615403196
 21
-14.50279949552313
 31
0.0
 11
168.1267504584195
 21
-14.50163923442309
 31
0.0
 11
168.1274300530197
 21
-14.50048589272308
 31
0.0
 11
168.1281009654194
 21
-14.49933849882311
 31
0.0
 11
168.1287636155196
 21
-14.49819643302314
 31
0.0
 11
168.1294183437195
 21
-14.4970591938231
 31
0.0
 11
168.1300656584194
 21
-14.49592596782312
 31
0.0
 11
168.1307059241196
 21
-14.49479617002313
 31
0.0
 11
168.1313393279195
 21
-14.49366951282306
 31
0.0
 11
168.1319662713197
 21
-14.49254531192312
 31
0.0
  0
SPLINE
  5
59ECF
330
1F
100
AcDbEntity
  8
1
100
AcDbSpline
210
0.0
220
0.0
230
1.0
 70
     8
 71
     3
 72
    62
 73
    58
 74
    56
 42
0.0000000001
 43
0.0000000001
 44
0.000001
 12
0.999411087812833
 22
0.0343143928515413
 32
0.0
 13
0.9996673810171435
 23
-0.0257900626273964
 33
0.0
 40
0.0
 40
0.0
 40
0.0
 40
0.0
 40
0.075888892127409
 40
0.1929894508376636
 40
0.3117145261090843
 40
0.4300403020055431
 40
0.5453999595497118
 40
0.6011653682155213
 40
0.6552267034481389
 40
0.707515927972028
 40
0.7589776708196369
 40
0.8108093347740206
 40
0.8642083394737433
 40
0.9203721419745667
 40
0.980498247330382
 40
1.045784208084357
 40
1.117427615998783
 40
1.14255069073229
 40
1.167976007339329
 40
1.193281021222778
 40
1.218535098318785
 40
1.243831633509324
 40
1.269104411470594
 40
1.294282891228695
 40
1.306931767528862
 40
1.319684347662579
 40
1.332541527242817
 40
1.345375518447001
 40
1.370275018368098
 40
1.413781373323329
 40
1.451497001254805
 40
1.486109363407164
 40
1.520305861784212
 40
1.556206518896013
 40
1.59365875106463
 40
1.631942540519867
 40
1.670337866719208
 40
1.745799698210605
 40
1.820370664347593
 40
1.895268175744569
 40
1.97040451559925
 40
2.045453510580428
 40
2.120439269373786
 40
2.270474846970237
 40
2.420511942430442
 40
2.570549839717231
 40
2.720588424580536
 40
2.870627670393992
 40
3.020667753947952
 40
3.170711042446622
 40
3.320757907874515
 40
3.470803879892643
 40
3.620842353998662
 40
3.770874741672371
 40
3.920916808708999
 40
4.070988238969044
 40
4.221080873090759
 40
4.221080873090759
 40
4.221080873090759
 40
4.221080873090759
 10
163.4103659389196
 20
14.71531568287687
 30
0.0
 10
163.4356473389977
 20
14.7161837099627
 30
0.0
 10
163.4999396883374
 20
14.71837899523353
 30
0.0
 10
163.603785242062
 20
14.72188872835397
 30
0.0
 10
163.7217706202058
 20
14.72580854031744
 30
0.0
 10
163.8391767472319
 20
14.72968691492539
 30
0.0
 10
163.9356072902418
 20
14.7328867055939
 30
0.0
 10
164.0106271049339
 20
14.73540692655942
 30
0.0
 10
164.064634590204
 20
14.73724217704142
 30
0.0
 10
164.1172073952816
 20
14.73905649054526
 30
0.0
 10
164.169037153482
 20
14.74085279368316
 30
0.0
 10
164.2212371209756
 20
14.74264735647466
 30
0.0
 10
164.2750047515519
 20
14.74445961349906
 30
0.0
 10
164.331537486869
 20
14.74630915601753
 30
0.0
 10
164.3920327505376
 20
14.74821590683544
 30
0.0
 10
164.4576879602799
 20
14.75019981188077
 30
0.0
 10
164.5116828939805
 20
14.75176091827538
 30
0.0
 10
164.552397447064
 20
14.7529042404891
 30
0.0
 10
164.5776743294861
 20
14.75352838167262
 30
0.0
 10
164.6029984436803
 20
14.75398976958641
 30
0.0
 10
164.6282818223952
 20
14.75430328926242
 30
0.0
 10
164.6535556880503
 20
14.75449125351861
 30
0.0
 10
164.6788049614277
 20
14.75455613512011
 30
0.0
 10
164.699838392475
 20
14.75450695837051
 30
0.0
 10
164.7166980129583
 20
14.75439359077191
 30
0.0
 10
164.7294502994976
 20
14.75426831563433
 30
0.0
 10
164.7422638094808
 20
14.75410107921044
 30
0.0
 10
164.7591253653321
 20
14.75384050055999
 30
0.0
 10
164.7862009450205
 20
14.7533529030089
 30
0.0
 10
164.8215683643915
 20
14.75267942886873
 30
0.0
 10
164.8601717824552
 20
14.75189139555564
 30
0.0
 10
164.8956718032109
 20
14.75113097122994
 30
0.0
 10
164.9305668067424
 20
14.75037584407721
 30
0.0
 10
164.9664086713227
 20
14.74962169259927
 30
0.0
 10
165.0036129132587
 20
14.74885087041522
 30
0.0
 10
165.0416486377188
 20
14.7480678879399
 30
0.0
 10
165.0923514980564
 20
14.74702186024183
 30
0.0
 10
165.1551470672551
 20
14.74570494874174
 30
0.0
 10
165.2301069162503
 20
14.74411213686443
 30
0.0
 10
165.3049581871347
 20
14.74251668148395
 30
0.0
 10
165.3799685716367
 20
14.74090878305995
 30
0.0
 10
165.4550080793556
 20
14.73928697030504
 30
0.0
 10
165.5550078206951
 20
14.7371095646011
 30
0.0
 10
165.6799970829504
 20
14.73436101284741
 30
0.0
 10
165.8299966422505
 20
14.73101567270083
 30
0.0
 10
165.9799961888363
 20
14.7276251098742
 30
0.0
 10
166.1299953973047
 20
14.72418818587809
 30
0.0
 10
166.2799942745129
 20
14.72070529123272
 30
0.0
 10
166.4299936218984
 20
14.71717543998954
 30
0.0
 10
166.5799945576001
 20
14.71360534953592
 30
0.0
 10
166.7299963301282
 20
14.70998822336406
 30
0.0
 10
166.8799953953884
 20
14.70632566886797
 30
0.0
 10
167.029988297153
 20
14.70260876462376
 30
0.0
 10
167.1799785472695
 20
14.69883782214785
 30
0.0
 10
167.3299787361269
 20
14.6950254233881
 30
0.0
 10
167.4799986746362
 20
14.69119971019117
 30
0.0
 10
167.5800202638987
 20
14.68862629355487
 30
0.0
 10
167.6300345007196
 20
14.6873359940769
 30
0.0
 11
163.4103659389196
 21
14.71531568287687
 31
0.0
 11
163.4862105810196
 21
14.71790775307684
 31
0.0
 11
163.6032444142195
 21
14.72186031567687
 31
0.0
 11
163.7219037660195
 21
14.72581021927689
 31
0.0
 11
163.8401648130195
 21
14.72972351877686
 31
0.0
 11
163.9554607525194
 21
14.73355715707689
 31
0.0
 11
164.0111946811196
 21
14.73543064767685
 31
0.0
 11
164.0652247818196
 21
14.73726807647691
 31
0.0
 11
164.1174830077196
 21
14.73906829507686
 31
0.0
 11
164.1689139969197
 21
14.74084714137686
 31
0.0
 11
164.2207151716194
 21
14.74262468657687
 31
0.0
 11
164.2740839541194
 21
14.74442100227688
 31
0.0
 11
164.3302177667193
 21
14.74625615957686
 31
0.0
 11
164.3903140317195
 21
14.74815022997686
 31
0.0
 11
164.4555701714196
 21
14.7501232846769
 31
0.0
 11
164.5271836081194
 21
14.75219539507688
 31
0.0
 11
164.5522971253197
 21
14.75288832117687
 31
0.0
 11
164.5777150134196
 21
14.75350289657686
 31
0.0
 11
164.6030157802195
 21
14.75396652057688
 31
0.0
 11
164.6282678716194
 21
14.75428324447685
 31
0.0
 11
164.6535637047194
 21
14.7544717818769
 31
0.0
 11
164.6788364003196
 21
14.75453650547686
 31
0.0
 11
164.7040148022195
 21
14.75447369137689
 31
0.0
 11
164.7166633906197
 21
14.75438831627687
 31
0.0
 11
164.7294153535197
 21
14.75426282697688
 31
0.0
 11
164.7422714616195
 21
14.75409682717688
 31
0.0
 11
164.7551039425196
 21
14.75389993097687
 31
0.0
 11
164.7799995993196
 21
14.75346245987688
 31
0.0
 11
164.8234980476195
 21
14.75263303297689
 31
0.0
 11
164.8612058486194
 21
14.75186468767688
 31
0.0
 11
164.8958103645196
 21
14.7511277290769
 31
0.0
 11
164.9299989576195
 21
14.75039246197687
 31
0.0
 11
164.9658916330196
 21
14.74963545957686
 31
0.0
 11
165.0033358041196
 21
14.74885843397689
 31
0.0
 11
165.0416114613197
 21
14.74806936597687
 31
0.0
 11
165.0799985952194
 21
14.74727623657688
 31
0.0
 11
165.1554438844196
 21
14.74569621457689
 31
0.0
 11
165.2299980775194
 21
14.7441146295769
 31
0.0
 11
165.3048785672197
 21
14.74251787507685
 31
0.0
 11
165.3799976369196
 21
14.74090694147688
 31
0.0
 11
165.4550291154195
 21
14.73928549747691
 31
0.0
 11
165.5299971109196
 21
14.7376533504769
 31
0.0
 11
165.6799964160195
 21
14.73435422707686
 31
0.0
 11
165.8299962234196
 21
14.7310091451769
 31
0.0
 11
165.9799958110196
 21
14.72761839057685
 31
0.0
 11
166.1299950453196
 21
14.72418153097689
 31
0.0
 11
166.2799939008196
 21
14.72069847387686
 31
0.0
 11
166.4299927204194
 21
14.71716971447691
 31
0.0
 11
166.5799934576196
 21
14.71359658647688
 31
0.0
 11
166.7299965671193
 21
14.70997964577688
 31
0.0
 11
166.8799977589197
 21
14.70631553317687
 31
0.0
 11
167.0299901722194
 21
14.70259870497685
 31
0.0
 11
167.1799752069196
 21
14.69883004257687
 31
0.0
 11
167.3299689430196
 21
14.6950225396769
 31
0.0
 11
167.4799915034195
 21
14.69119321327687
 31
0.0
 11
167.6300345007196
 21
14.6873359940769
 31
0.0
  0
SPLINE
  5
59ED0
330
1F
100
AcDbEntity
  8
1
100
AcDbSpline
210
0.0
220
0.0
230
1.0
 70
     8
 71
     3
 72
    15
 73
    11
 74
     9
 42
0.0000000001
 43
0.0000000001
 44
0.000001
 12
-0.9994948615509482
 22
-0.0317808390897879
 32
0.0
 13
-0.9994750296656395
 23
-0.0323985350728841
 33
0.0
 40
0.0
 40
0.0
 40
0.0
 40
0.0
 40
0.1594685012816349
 40
0.319085953461818
 40
0.4788462480589337
 40
0.6387430028801285
 40
0.7987698790810178
 40
0.9589203273337641
 40
1.119187218287187
 40
1.27956313752671
 40
1.27956313752671
 40
1.27956313752671
 40
1.27956313752671
 10
159.5305618120196
 20
14.61212182347688
 30
0.0
 10
159.4774324961496
 20
14.61043247588384
 30
0.0
 10
159.3711245283671
 20
14.60704310356053
 30
0.0
 10
159.2115909228619
 20
14.60193331980602
 30
0.0
 10
159.051915281502
 20
14.59679895963032
 30
0.0
 10
158.8921037516193
 20
14.59164420635991
 30
0.0
 10
158.7321626389978
 20
14.58647284975191
 30
0.0
 10
158.5720984912121
 20
14.58128888313192
 30
0.0
 10
158.4119182144596
 20
14.57609628326816
 30
0.0
 10
158.305093416266
 20
14.57263259629161
 30
0.0
 10
158.2516628407195
 20
14.57090061467684
 30
0.0
 11
159.5305618120196
 21
14.61212182347688
 31
0.0
 11
159.3711742477196
 21
14.60704166927687
 31
0.0
 11
159.2116385817195
 21
14.60193251337685
 31
0.0
 11
159.0519607995195
 21
14.59679845197686
 31
0.0
 11
158.8921471575196
 21
14.59164362467689
 31
0.0
 11
158.7322038646196
 21
14.58647219887686
 31
0.0
 11
158.5721373376195
 21
14.58128837627689
 31
0.0
 11
158.4119545707197
 21
14.57609641047688
 31
0.0
 11
158.2516628407195
 21
14.57090061467684
 31
0.0
  0
SPLINE
  5
59ED1
330
1F
100
AcDbEntity
  8
1
100
AcDbSpline
210
0.0
220
0.0
230
1.0
 70
     8
 71
     3
 72
    15
 73
    11
 74
     9
 42
0.0000000001
 43
0.0000000001
 44
0.000001
 12
-0.9995873717393555
 22
-0.0287243147735048
 32
0.0
 13
-0.9995527331804066
 23
-0.0299054107408531
 33
0.0
 40
0.0
 40
0.0
 40
0.0
 40
0.0
 40
0.1594372515190211
 40
0.3190245411039937
 40
0.4787557667976885
 40
0.6386246546143504
 40
0.7986248497425624
 40
0.9587498030941549
 40
1.118992505344304
 40
1.279345950382613
 40
1.279345950382613
 40
1.279345950382613
 40
1.279345950382613
 10
160.8093531021196
 20
14.64978752147689
 30
0.0
 10
160.7562292810519
 20
14.64826094621048
 30
0.0
 10
160.6499320164201
 20
14.64519348685607
 30
0.0
 10
160.4904141718019
 20
14.6405554493999
 30
0.0
 10
160.3307534216535
 20
14.63588195827029
 30
0.0
 10
160.1709558971454
 20
14.6311771331307
 30
0.0
 10
160.011027885852
 20
14.62644477246877
 30
0.0
 10
159.8509759138048
 20
14.62168885015802
 30
0.0
 10
159.6908067231486
 20
14.6169133284358
 30
0.0
 10
159.5839890534406
 20
14.61372030202275
 30
0.0
 10
159.5305618120196
 20
14.61212182347688
 30
0.0
 11
160.8093531021196
 21
14.64978752147689
 31
0.0
 11
160.6499821463194
 21
14.64519003177688
 31
0.0
 11
160.4904622424194
 21
14.64055263797687
 31
0.0
 11
160.3307993867195
 21
14.63587943037692
 31
0.0
 11
160.1709997440195
 21
14.63117453717686
 31
0.0
 11
160.0110695538194
 21
14.62644211357687
 31
0.0
 11
159.8510152457195
 21
14.6216863531769
 31
0.0
 11
159.6908437054197
 21
14.61691149767685
 31
0.0
 11
159.5305618120196
 21
14.61212182347688
 31
0.0
  0
SPLINE
  5
59ED2
330
1F
100
AcDbEntity
  8
1
100
AcDbSpline
210
0.0
220
0.0
230
1.0
 70
     8
 71
     3
 72
    15
 73
    11
 74
     9
 42
0.0000000001
 43
0.0000000001
 44
0.000001
 12
-0.9996712541594256
 22
-0.0256394931174765
 32
0.0
 13
-0.9996249723591088
 23
-0.0273845693055595
 33
0.0
 40
0.0
 40
0.0
 40
0.0
 40
0.0
 40
0.1594002322808196
 40
0.318959194703751
 40
0.4786673101521497
 40
0.6385133362556119
 40
0.7984890483747948
 40
0.9585895045608497
 40
1.118809533759434
 40
1.279142456486449
 40
1.279142456486449
 40
1.279142456486449
 40
1.279142456486449
 10
162.0880414586195
 20
14.6838623850769
 30
0.0
 10
162.034925515247
 20
14.68250007135742
 30
0.0
 10
161.9286411659732
 20
14.67975729662114
 30
0.0
 10
161.7691396563041
 20
14.67559643366408
 30
0.0
 10
161.6094907494571
 20
14.67138783599577
 30
0.0
 10
161.4497040025627
 20
14.66713676972799
 30
0.0
 10
161.2897874356489
 20
14.6628480176976
 30
0.0
 10
161.1297470901773
 20
14.65852456300055
 30
0.0
 10
160.9695884591776
 20
14.65417055020239
 30
0.0
 10
160.8627773666027
 20
14.6512510708217
 30
0.0
 10
160.8093531021196
 20
14.64978752147689
 30
0.0
 11
162.0880414586195
 21
14.6838623850769
 31
0.0
 11
161.9286942202194
 21
14.67975221607687
 31
0.0
 11
161.7691895125197
 21
14.67559142967687
 31
0.0
 11
161.6095368316196
 21
14.6713835867769
 31
0.0
 11
161.4497473244196
 21
14.66713287097687
 31
0.0
 11
161.2898291269195
 21
14.66284365397686
 31
0.0
 11
161.1297870657197
 21
14.65852023357686
 31
0.0
 11
160.9696262022195
 21
14.6541667883769
 31
0.0
 11
160.8093531021196
 21
14.64978752147689
 31
0.0
  0
SPLINE
  5
59ED3
330
1F
100
AcDbEntity
  8
1
100
AcDbSpline
210
0.0
220
0.0
230
1.0
 70
     8
 71
     3
 72
    18
 73
    14
 74
    12
 42
0.0000000001
 43
0.0000000001
 44
0.000001
 12
-0.9997449815015103
 22
-0.0225825588130488
 32
0.0
 13
-0.999691421152665
 23
-0.0248407422144537
 33
0.0
 40
0.0
 40
0.0
 40
0.0
 40
0.0
 40
0.1123155591656083
 40
0.1894437177120797
 40
0.2750670088426753
 40
0.3680646315396548
 40
0.4695199802776048
 40
0.5833226538938914
 40
0.7124748478798849
 40
0.857610471330293
 40
1.012320293363621
 40
1.167584152178583
 40
1.322698810811591
 40
1.322698810811591
 40
1.322698810811591
 40
1.322698810811591
 10
163.4103659389196
 20
14.71531568287687
 30
0.0
 10
163.3729369667128
 20
14.71447022530339
 30
0.0
 10
163.3098048291485
 20
14.71305899110911
 30
0.0
 10
163.2181399881297
 20
14.71095408578861
 30
0.0
 10
163.1329129885374
 20
14.70898729483048
 30
0.0
 10
163.0395794243864
 20
14.7068186799749
 30
0.0
 10
162.9368556239899
 20
14.70441657672492
 30
0.0
 10
162.8220840848779
 20
14.70171178772548
 30
0.0
 10
162.6927571523415
 20
14.69863620485245
 30
0.0
 10
162.5497992696592
 20
14.6951982904271
 30
0.0
 10
162.398140987729
 20
14.69151087250384
 30
0.0
 10
162.2431582719963
 20
14.68770463981087
 30
0.0
 10
162.1397303897963
 20
14.6851467728265
 30
0.0
 10
162.0880414586195
 20
14.6838623850769
 30
0.0
 11
163.4103659389196
 21
14.71531568287687
 31
0.0
 11
163.2980789083196
 21
14.71278435127689
 31
0.0
 11
163.2209709621195
 21
14.71101870497685
 31
0.0
 11
163.1353704713195
 21
14.7090428453769
 31
0.0
 11
163.0423979333195
 21
14.70688296027688
 31
0.0
 11
162.9409703180197
 21
14.70451088527684
 31
0.0
 11
162.8271992370196
 21
14.70182952087688
 31
0.0
 11
162.6980835607196
 21
14.69875846437688
 31
0.0
 11
162.5529898720194
 21
14.69526980327688
 31
0.0
 11
162.3983257409196
 21
14.69151005847689
 31
0.0
 11
162.2431086371195
 21
14.68769997347689
 31
0.0
 11
162.0880414586195
 21
14.6838623850769
 31
0.0
  0
SPLINE
  5
59ED4
330
1F
100
AcDbEntity
  8
1
100
AcDbSpline
210
0.0
220
0.0
230
1.0
 70
     8
 71
     3
 72
    31
 73
    27
 74
    25
 42
0.0000000001
 43
0.0000000001
 44
0.000001
 12
0.0073353680253009
 22
0.9999730958260494
 32
0.0
 13
0.0012043637891218
 23
0.9999992747536687
 33
0.0
 40
0.0
 40
0.0
 40
0.0
 40
0.0
 40
0.0106365724294508
 40
0.0209099274580359
 40
0.0311896755622736
 40
0.0415103088998842
 40
0.0518262046601009
 40
0.0620812585791447
 40
0.0722715003618314
 40
0.0824739377190077
 40
0.0926843373748338
 40
0.1027889415516962
 40
0.1129422820965256
 40
0.1235718966162297
 40
0.1351565771462182
 40
0.1480666713628103
 40
0.1626104528935966
 40
0.1786108270664032
 40
0.1951297825503168
 40
0.2114252091590202
 40
0.2274668324180496
 40
0.2436494749371158
 40
0.2605924328099332
 40
0.2789817454067914
 40
0.2994936947155947
 40
0.3228369825958638
 40
0.3228369825958638
 40
0.3228369825958638
 40
0.3228369825958638
 10
168.2748905973195
 20
13.65493680367686
 30
0.0
 10
168.2749166050439
 20
13.6584822324306
 30
0.0
 10
168.2749629195052
 20
13.66545205892097
 30
0.0
 10
168.2750109757505
 20
13.67584851223063
 30
0.0
 10
168.2750412837204
 20
13.6861397182806
 30
0.0
 10
168.275052963212
 20
13.69644514217302
 30
0.0
 10
168.2750506703565
 20
13.7067423381936
 30
0.0
 10
168.275039497315
 20
13.71699606321837
 30
0.0
 10
168.2750245959299
 20
13.7272119632822
 30
0.0
 10
168.2750112971801
 20
13.73741298119333
 30
0.0
 10
168.2750039166584
 20
13.74758545941594
 30
0.0
 10
168.2750005534732
 20
13.75774157379408
 30
0.0
 10
168.2749999670778
 20
13.7680374269427
 30
0.0
 10
168.2750009714643
 20
13.77882663876198
 30
0.0
 10
168.2750019728975
 20
13.79053476848097
 30
0.0
 10
168.2750019687229
 20
13.80354762058383
 30
0.0
 10
168.2750018331998
 20
13.81803237055013
 30
0.0
 10
168.2750026356254
 20
13.83372007429773
 30
0.0
 10
168.2750060754446
 20
13.84999165942903
 30
0.0
 10
168.2750118224958
 20
13.86627699357584
 30
0.0
 10
168.2750194382497
 20
13.88245022260636
 30
0.0
 10
168.2750287194843
 20
13.89883929455786
 30
0.0
 10
168.2750403104883
 20
13.91601092833446
 30
0.0
 10
168.2750550534971
 20
13.93462566251449
 30
0.0
 10
168.2750751923868
 20
13.95537383601575
 30
0.0
 10
168.2750900831494
 20
13.96999224096001
 30
0.0
 10
168.2750994544196
 20
13.97777333127689
 30
0.0
 11
168.2748905973195
 21
13.65493680367686
 31
0.0
 11
168.2749590763196
 21
13.66557315937686
 31
0.0
 11
168.2750070949194
 21
13.67584640077686
 31
0.0
 11
168.2750371458197
 21
13.68612610367691
 31
0.0
 11
168.2750496320194
 21
13.69644672827687
 31
0.0
 11
168.2750481708195
 21
13.70676262297687
 31
0.0
 11
168.2750378411194
 21
13.71701767097684
 31
0.0
 11
168.2750238649196
 21
13.72720790267689
 31
0.0
 11
168.2750112833196
 21
13.73741033197686
 31
0.0
 11
168.2750035657196
 21
13.74762072857689
 31
0.0
 11
168.2750000195194
 21
13.75772533207689
 31
0.0
 11
168.2749992242195
 21
13.76787867257687
 31
0.0
 11
168.2749999290197
 21
13.7785082870769
 31
0.0
 11
168.2750007783197
 21
13.79009296757689
 31
0.0
 11
168.2750009506197
 21
13.80300306177687
 31
0.0
 11
168.2750009774197
 21
13.81754684327686
 31
0.0
 11
168.2750020473196
 21
13.83354721737689
 31
0.0
 11
168.2750054834196
 21
13.85006617247691
 31
0.0
 11
168.2750111753196
 21
13.86636159807691
 31
0.0
 11
168.2750186701196
 21
13.8824032195769
 31
0.0
 11
168.2750278624195
 21
13.89858585947687
 31
0.0
 11
168.2750393019196
 21
13.91552881347687
 31
0.0
 11
168.2750540107196
 21
13.93391812017685
 31
0.0
 11
168.2750734298195
 21
13.9544300602769
 31
0.0
 11
168.2750994544196
 21
13.97777333127689
 31
0.0
  0
SPLINE
  5
59ED5
330
1F
100
AcDbEntity
  8
1
100
AcDbSpline
210
0.0
220
0.0
230
1.0
 70
     8
 71
     3
 72
    40
 73
    36
 74
    34
 42
0.0000000001
 43
0.0000000001
 44
0.000001
 12
0.0457242482447594
 22
0.9989540996074101
 32
0.0
 13
0.0088560479957668
 23
0.9999607844380181
 33
0.0
 40
0.0
 40
0.0
 40
0.0
 40
0.0
 40
0.0953583339252621
 40
0.1801120461260394
 40
0.2556424654878814
 40
0.3233141120576674
 40
0.3843073551656792
 40
0.4395911904553555
 40
0.4898407667342582
 40
0.5405751706292496
 40
0.5943855241762221
 40
0.6479462157123072
 40
0.6995773830062091
 40
0.7487460995224038
 40
0.7955314408853504
 40
0.8398257911914225
 40
0.8805143016606011
 40
0.9162169883326656
 40
0.9473892476067788
 40
0.9759596533557568
 40
1.00403731442491
 40
1.032503104970901
 40
1.061015765568497
 40
1.088756954554776
 40
1.11485329366427
 40
1.139074308471522
 40
1.161789722543341
 40
1.183003073223042
 40
1.202165466448991
 40
1.21893226681629
 40
1.233706085397622
 40
1.247327038106808
 40
1.26054245819817
 40
1.273658115423247
 40
1.286309972665648
 40
1.286309972665648
 40
1.286309972665648
 40
1.286309972665648
 10
168.2094046192194
 20
12.37041056317687
 30
0.0
 10
168.2108580152636
 20
12.40216342937898
 30
0.0
 10
168.2136386789029
 20
12.46213635742256
 30
0.0
 10
168.2176458338358
 20
12.54725626045447
 30
0.0
 10
168.2213400858171
 20
12.62315170351283
 30
0.0
 10
168.2247758956834
 20
12.69113007920359
 30
0.0
 10
168.2280008241857
 20
12.75236150389943
 30
0.0
 10
168.231045568048
 20
12.80778687219643
 30
0.0
 10
168.2340253806392
 20
12.85979088871795
 30
0.0
 10
168.2371048379303
 20
12.91129709037537
 30
0.0
 10
168.2404078341837
 20
12.96389537748632
 30
0.0
 10
168.243861319606
 20
13.01678351250243
 30
0.0
 10
168.2472788885853
 20
13.06812341615566
 30
0.0
 10
168.2505583637671
 20
13.11720905977756
 30
0.0
 10
168.2536429895592
 20
13.16385666168841
 30
0.0
 10
168.2564771558856
 20
13.20768788482797
 30
0.0
 10
168.2589897772223
 20
13.24783789231671
 30
0.0
 10
168.2611419529008
 20
13.28362776537628
 30
0.0
 10
168.2629701179875
 20
13.31539034920931
 30
0.0
 10
168.2645755327218
 20
13.34461977022377
 30
0.0
 10
168.2660530211918
 20
13.37295259746216
 30
0.0
 10
168.2674436328151
 20
13.40127055900981
 30
0.0
 10
168.2687350035202
 20
13.42948095373518
 30
0.0
 10
168.2698932609566
 20
13.45690662929124
 30
0.0
 10
168.2708971582732
 20
13.48290682665379
 30
0.0
 10
168.2717494537718
 20
13.50723620910722
 30
0.0
 10
168.2724653464669
 20
13.52994156451356
 30
0.0
 10
168.2730563709989
 20
13.55096368368342
 30
0.0
 10
168.2735297718195
 20
13.57000534598521
 30
0.0
 10
168.2738994422015
 20
13.58690232913196
 30
0.0
 10
168.2741883236088
 20
13.60195343035315
 30
0.0
 10
168.2744202672956
 20
13.61582156811838
 30
0.0
 10
168.2746114209532
 20
13.62913755054157
 30
0.0
 10
168.2747694213924
 20
13.64213091310495
 30
0.0
 10
168.2748532488345
 20
13.65071968331261
 30
0.0
 10
168.2748905973195
 20
13.65493680367686
 30
0.0
 11
168.2094046192194
 21
12.37041056317687
 31
0.0
 11
168.2138133302196
 21
12.46566691987689
 31
0.0
 11
168.2178132124195
 21
12.55032619397687
 31
0.0
 11
168.2214911489196
 21
12.62576701187689
 31
0.0
 11
168.2249123807196
 21
12.6933521202769
 31
0.0
 11
168.2281239847195
 21
12.75426075057689
 31
0.0
 11
168.2311593425195
 21
12.80946119417686
 31
0.0
 11
168.2340357706196
 21
12.85962837457688
 31
0.0
 11
168.2370671987196
 21
12.91027213087685
 31
0.0
 11
168.2404343968196
 21
12.9639770273769
 31
0.0
 11
168.2439136947196
 21
13.0174245891769
 31
0.0
 11
168.2473345428195
 21
13.06894230337687
 31
0.0
 11
168.2506046086196
 21
13.11800215417688
 31
0.0
 11
168.2536851139196
 21
13.16468596547688
 31
0.0
 11
168.2565378025194
 21
13.20888835467687
 31
0.0
 11
168.2590750008195
 21
13.2494976775769
 31
0.0
 11
168.2612153146195
 21
13.28513614767686
 31
0.0
 11
168.2630047486196
 21
13.3162569990769
 31
0.0
 11
168.2645702591196
 21
13.34478447717688
 31
0.0
 11
168.2660312071195
 21
13.37282409947684
 31
0.0
 11
168.2674261313195
 21
13.40125568627687
 31
0.0
 11
168.2687287411196
 21
13.42973857077689
 31
0.0
 11
168.2698981829195
 21
13.45745509387686
 31
0.0
 11
168.2709041604196
 21
13.48353203037689
 31
0.0
 11
168.2717514593196
 21
13.5077382145769
 31
0.0
 11
168.2724667720195
 21
13.53044235697686
 31
0.0
 11
168.2730625122195
 21
13.55164733427685
 31
0.0
 11
168.2735384647196
 21
13.57080380887689
 31
0.0
 11
168.2739050042196
 21
13.58756659507688
 31
0.0
 11
168.2741883790196
 21
13.60233768797687
 31
0.0
 11
168.2744160722195
 21
13.61595672917687
 31
0.0
 11
168.2746060504196
 21
13.62917077567689
 31
0.0
 11
168.2747649663195
 21
13.64228546277687
 31
0.0
 11
168.2748905973195
 21
13.65493680367686
 31
0.0
  0
SPLINE
  5
59ED6
330
1F
100
AcDbEntity
  8
1
100
AcDbSpline
210
0.0
220
0.0
230
1.0
 70
     8
 71
     3
 72
    33
 73
    29
 74
    27
 42
0.0000000001
 43
0.0000000001
 44
0.000001
 12
0.0495622764384886
 22
0.9987710351998774
 32
0.0
 13
0.0533843310101584
 23
0.9985740399202244
 33
0.0
 40
0.0
 40
0.0
 40
0.0
 40
0.0
 40
0.1451779039667738
 40
0.2889470647491914
 40
0.4313489213959361
 40
0.5729122863683523
 40
0.7154778844655066
 40
0.8552308134140012
 40
0.9853528866365589
 40
1.100669940332856
 40
1.202473906825989
 40
1.292987395380038
 40
1.373990203085584
 40
1.447007871294019
 40
1.513504456789645
 40
1.573586374847661
 40
1.627557304842664
 40
1.676482161079262
 40
1.721463088912419
 40
1.762950553915136
 40
1.800655220336176
 40
1.834451475598489
 40
1.865366459783142
 40
1.894808058365914
 40
1.924121885823386
 40
1.95367270591682
 40
1.98328175358915
 40
2.012708725663854
 40
2.012708725663854
 40
2.012708725663854
 40
2.012708725663854
 10
168.1026239790196
 20
10.36054038927685
 30
0.0
 10
168.1050224281561
 20
10.40887355108785
 30
0.0
 10
168.1098214178284
 20
10.50506961365116
 30
0.0
 10
168.117055795374
 20
10.64867048003566
 30
0.0
 10
168.124296036499
 20
10.79106466073264
 30
0.0
 10
168.1315752008274
 20
10.93305514306414
 30
0.0
 10
168.138870269547
 20
11.07416066351604
 30
0.0
 10
168.1460478387465
 20
11.21145338175009
 30
0.0
 10
168.1528373813111
 20
11.33967110628558
 30
0.0
 10
168.1590411279195
 20
11.45525244276396
 30
0.0
 10
168.16461053472
 20
11.55764593408895
 30
0.0
 10
168.1696235316647
 20
11.64861467343328
 30
0.0
 10
168.1741457139926
 20
11.73000045609021
 30
0.0
 10
168.1782418978886
 20
11.80339192265253
 30
0.0
 10
168.1819558070341
 20
11.8698202413041
 30
0.0
 10
168.1853140487164
 20
11.92990961724476
 30
0.0
 10
168.1883396913161
 20
11.98415119789817
 30
0.0
 10
168.1910767808035
 20
12.03336738526539
 30
0.0
 10
168.1935733302167
 20
12.0784293640549
 30
0.0
 10
168.1958528889691
 20
12.1197575646307
 30
0.0
 10
168.1979172907444
 20
12.15736374039912
 30
0.0
 10
168.1997788166005
 20
12.19145158511947
 30
0.0
 10
168.2014828396241
 20
12.22278957071239
 30
0.0
 10
168.203092863748
 20
12.2526363147073
 30
0.0
 10
168.2046744075663
 20
12.28202921183597
 30
0.0
 10
168.2062523582218
 20
12.31147819881533
 30
0.0
 10
168.2078288687884
 20
12.34096503149479
 30
0.0
 10
168.2088809728134
 20
12.36061555971446
 30
0.0
 10
168.2094046192194
 20
12.37041056317687
 30
0.0
 11
168.1026239790196
 21
10.36054038927685
 31
0.0
 11
168.1098557046196
 21
10.50553807007688
 31
0.0
 11
168.1170889554196
 21
10.6491251574769
 31
0.0
 11
168.1243191586196
 21
10.7913433451769
 31
0.0
 11
168.1315672668195
 21
10.93272103507686
 31
0.0
 11
168.1389315382196
 21
11.07509630417687
 31
0.0
 11
168.1462306327196
 21
11.21465849237691
 31
0.0
 11
168.1531138523196
 21
11.34459838327686
 31
0.0
 11
168.1592961429195
 21
11.45974959767684
 31
0.0
 11
168.1648267181197
 21
11.56140322697686
 31
0.0
 11
168.1698042279197
 21
11.65177975057688
 31
0.0
 11
168.1742958911196
 21
11.73265792947685
 31
0.0
 11
168.1783632444197
 21
11.8055622263769
 31
0.0
 11
168.1820739227196
 21
11.87195519847685
 31
0.0
 11
168.1854255962196
 21
11.9319435569769
 31
0.0
 11
168.1884308009196
 21
11.98583075417687
 31
0.0
 11
168.1911469967197
 21
12.03468015367687
 31
0.0
 11
168.1936348455197
 21
12.0795922285769
 31
0.0
 11
168.1959194439196
 21
12.12101674257687
 31
0.0
 11
168.1979858180195
 21
12.15866474347686
 31
0.0
 11
168.1998288177196
 21
12.19241070977685
 31
0.0
 11
168.2015062339196
 21
12.22328015497689
 31
0.0
 11
168.2030954905197
 21
12.25267882837684
 31
0.0
 11
168.2046700740195
 21
12.2819503342769
 31
0.0
 11
168.2062517421195
 21
12.31145879537686
 31
0.0
 11
168.2078333623196
 21
12.34102557027691
 31
0.0
 11
168.2094046192194
 21
12.37041056317687
 31
0.0
  0
SPLINE
  5
59ED7
330
1F
100
AcDbEntity
  8
1
100
AcDbSpline
210
0.0
220
0.0
230
1.0
 70
     8
 71
     3
 72
    21
 73
    17
 74
    15
 42
0.0000000001
 43
0.0000000001
 44
0.000001
 12
0.0496102869156625
 22
0.99876865160664
 32
0.0
 13
0.0575024421365344
 23
0.9983453656667789
 33
0.0
 40
0.0
 40
0.0
 40
0.0
 40
0.0
 40
0.1360475096672894
 40
0.2783599344367638
 40
0.4279229680384446
 40
0.5858965661817681
 40
0.7439423327014896
 40
0.8972285904743317
 40
1.046215586543142
 40
1.19151825160665
 40
1.33519483943442
 40
1.479091253291318
 40
1.624218391700105
 40
1.770745836069619
 40
1.918358728932887
 40
2.065949293151247
 40
2.065949293151247
 40
2.065949293151247
 40
2.065949293151247
 10
167.9920963217196
 20
8.297555024976901
 30
0.0
 10
167.9943461070491
 20
8.342848354238526
 30
0.0
 10
167.998973057515
 20
8.435519567859472
 30
0.0
 10
168.0061704263379
 20
8.577978867018174
 30
0.0
 10
168.0138190247014
 20
8.727733364009424
 30
0.0
 10
168.0218208238133
 20
8.882721081205886
 30
0.0
 10
168.0299704034567
 20
9.038943873706585
 30
0.0
 10
168.0380483607324
 20
9.19217077209592
 30
0.0
 10
168.045984618224
 20
9.341151518677861
 30
0.0
 10
168.0538308262496
 20
9.486929274927518
 30
0.0
 10
168.0616661395344
 20
9.631008278393579
 30
0.0
 10
168.0695793275291
 20
9.775024428872825
 30
0.0
 10
168.0776275003756
 20
9.919984857847254
 30
0.0
 10
168.0858293101796
 20
10.06617746701746
 30
0.0
 10
168.0941653456491
 20
10.21318495230576
 30
0.0
 10
168.0997950397267
 20
10.31142493734233
 30
0.0
 10
168.1026239790196
 20
10.36054038927685
 30
0.0
 11
167.9920963217196
 21
8.297555024976901
 31
0.0
 11
167.9988830269196
 21
8.433433150676847
 31
0.0
 11
168.0060621922196
 21
8.575564377776885
 31
0.0
 11
168.0136904095196
 21
8.724932751876878
 31
0.0
 11
168.0218346813196
 21
8.882696272276888
 31
0.0
 11
168.0300687677198
 21
9.040527396976898
 31
0.0
 11
168.0381390335194
 21
9.193601063576892
 31
0.0
 11
168.0460647830195
 21
9.342377094076852
 31
0.0
 11
168.0538745095196
 21
9.487469727876856
 31
0.0
 11
168.0616766051196
 21
9.630934318976898
 31
0.0
 11
168.0695714458195
 21
9.77461399417686
 31
0.0
 11
168.0776165914196
 21
9.919517967476878
 31
0.0
 11
168.0858246206195
 21
10.06581533397687
 31
0.0
 11
168.0941810440197
 21
10.21319150677689
 31
0.0
 11
168.1026239790196
 21
10.36054038927685
 31
0.0
  0
SPLINE
  5
59ED8
330
1F
100
AcDbEntity
  8
1
100
AcDbSpline
210
0.0
220
0.0
230
1.0
 70
     8
 71
     3
 72
    16
 73
    12
 74
    10
 42
0.0000000001
 43
0.0000000001
 44
0.000001
 12
0.0523808174169923
 22
0.9986271826696528
 32
0.0
 13
0.0575400578808313
 23
0.998343198373721
 33
0.0
 40
0.0
 40
0.0
 40
0.0
 40
0.0
 40
0.1088212509372144
 40
0.2169598480614368
 40
0.3254848683159305
 40
0.4355535081701615
 40
0.5479645563375781
 40
0.66292895103739
 40
0.7806967065157866
 40
0.9016638511406954
 40
1.026497566435116
 40
1.026497566435116
 40
1.026497566435116
 40
1.026497566435116
 10
167.9355985797194
 20
7.272614572876847
 30
0.0
 10
167.9374986284116
 20
7.30883852595619
 30
0.0
 10
167.9413089787351
 20
7.381058031578874
 30
0.0
 10
167.9470852588455
 20
7.489399119247252
 30
0.0
 10
167.9529478504815
 20
7.598151973935159
 30
0.0
 10
167.9589506597924
 20
7.708323469196812
 30
0.0
 10
167.9651347506639
 20
7.820634710677069
 30
0.0
 10
167.9715256786162
 20
7.935504803816002
 30
0.0
 10
167.9781420817027
 20
8.053218776067723
 30
0.0
 10
167.9850108129687
 20
8.174213512572805
 30
0.0
 10
167.9897020086517
 20
8.256012728112921
 30
0.0
 10
167.9920963217196
 20
8.297555024976901
 30
0.0
 11
167.9355985797194
 21
7.272614572876847
 31
0.0
 11
167.9413301457195
 21
7.381284786676843
 31
0.0
 11
167.9470880039196
 21
7.489269986476898
 31
0.0
 11
167.9529295005194
 21
7.59763768137688
 31
0.0
 11
167.9589175911196
 21
7.707543317076869
 31
0.0
 11
167.9650975451195
 21
7.819784363776904
 31
0.0
 11
167.9714835366194
 21
7.934571262376863
 31
0.0
 11
167.9780923033197
 21
8.052153442776869
 31
0.0
 11
167.9849493313197
 21
8.17292607317691
 31
0.0
 11
167.9920963217196
 21
8.297555024976901
 31
0.0
  0
SPLINE
  5
59ED9
330
1F
100
AcDbEntity
  8
1
100
AcDbSpline
210
0.0
220
0.0
230
1.0
 70
     8
 71
     3
 72
    12
 73
     8
 74
     6
 42
0.0000000001
 43
0.0000000001
 44
0.000001
 12
0.0536633729903869
 22
0.9985590830788606
 32
0.0
 13
0.0551393927594993
 23
0.9984786664551796
 33
0.0
 40
0.0
 40
0.0
 40
0.0
 40
0.0
 40
0.2539982347958784
 40
0.4795042457089078
 40
0.6832544223718858
 40
0.8746313967110637
 40
1.059027242522944
 40
1.059027242522944
 40
1.059027242522944
 40
1.059027242522944
 10
167.8780832724197
 20
6.215150393376887
 30
0.0
 10
167.8826267397574
 20
6.299694474857375
 30
0.0
 10
167.8912236393355
 20
6.45929786082226
 30
0.0
 10
167.9035304776366
 20
6.686716586528035
 30
0.0
 10
167.9147681431578
 20
6.893288868227244
 30
0.0
 10
167.9253243222699
 20
7.086174562291887
 30
0.0
 10
167.9322094213976
 20
7.211242800134812
 30
0.0
 10
167.9355985797194
 20
7.272614572876847
 30
0.0
 11
167.8780832724197
 21
6.215150393376887
 31
0.0
 11
167.8917466830196
 21
6.468780858676865
 31
0.0
 11
167.9039327257196
 21
6.693957360576888
 31
0.0
 11
167.9150025842195
 21
6.897406607576868
 31
0.0
 11
167.9254609367195
 21
7.088497606476863
 31
0.0
 11
167.9355985797194
 21
7.272614572876847
 31
0.0
  0
ARC
  5
59EDA
330
1F
100
AcDbEntity
  8
1
100
AcDbCircle
 10
154.3849995993196
 20
17.06499331127688
 30
0.0
 40
3.0
100
AcDbArc
 50
270.0
 51
300.7338609999949
  0
ARC
  5
59EDB
330
1F
100
AcDbEntity
  8
1
100
AcDbCircle
 10
172.2867665993196
 20
2.431026311276895
 30
0.0
 40
5.4934845
100
AcDbArc
 50
210.2837629999978
 51
210.6826240000055
  0
ARC
  5
59EDC
330
1F
100
AcDbEntity
  8
1
100
AcDbCircle
 10
154.3849995993196
 20
-17.06500668872311
 30
0.0
 40
3.0
100
AcDbArc
 50
59.26613900000517
 51
90.0
  0
ARC
  5
59EDD
330
1F
100
AcDbEntity
  8
1
100
AcDbCircle
 10
167.7902995993196
 20
-14.1289776887231
 30
0.0
 40
0.4847035
100
AcDbArc
 50
354.0360800000002
 51
355.9340969999987
  0
ARC
  5
59EDE
330
1F
100
AcDbEntity
  8
1
100
AcDbCircle
 10
167.7806345993197
 20
-14.12602368872311
 30
0.0
 40
0.4947605
100
AcDbArc
 50
336.616197000003
 51
345.7808319999994
  0
ARC
  5
59EDF
330
1F
100
AcDbEntity
  8
1
100
AcDbCircle
 10
167.7703210993198
 20
-14.1201961887231
 30
0.0
 40
0.506617
100
AcDbArc
 50
323.2262780000079
 51
327.8752150000014
  0
ARC
  5
59EE0
330
1F
100
AcDbEntity
  8
1
100
AcDbCircle
 10
167.7750315993196
 20
-14.1232361887231
 30
0.0
 40
0.5010105
100
AcDbArc
 50
327.8831680000027
 51
336.5779049999901
  0
ARC
  5
59EE1
330
1F
100
AcDbEntity
  8
1
100
AcDbCircle
 10
167.7851720993194
 20
-14.12779068872314
 30
0.0
 40
0.489928
100
AcDbArc
 50
345.8508000000018
 51
353.9603050000009
  0
ARC
  5
59EE2
330
1F
100
AcDbEntity
  8
1
100
AcDbCircle
 10
167.6963675993198
 20
-14.14684718872311
 30
0.0
 40
0.571286
100
AcDbArc
 50
301.5905500000012
 51
304.513059999995
  0
ARC
  5
59EE3
330
1F
100
AcDbEntity
  8
1
100
AcDbCircle
 10
167.6983720993196
 20
-14.1180771887231
 30
0.0
 40
0.5949810000000002
100
AcDbArc
 50
297.1919570000053
 51
299.9746139999968
  0
ARC
  5
59EE4
330
1F
100
AcDbEntity
  8
1
100
AcDbCircle
 10
167.7633190993194
 20
-14.08078818872312
 30
0.0
 40
0.6085050000000001
100
AcDbArc
 50
279.7583270000008
 51
282.0765329999994
  0
ARC
  5
59EE5
330
1F
100
AcDbEntity
  8
1
100
AcDbCircle
 10
167.7074045993197
 20
-14.09537368872307
 30
0.0
 40
0.6113260000000002
100
AcDbArc
 50
292.7953490000005
 51
295.4663319999962
  0
ARC
  5
59EE6
330
1F
100
AcDbEntity
  8
1
100
AcDbCircle
 10
167.7418755993194
 20
-14.07614268872314
 30
0.0
 40
0.6178580000000001
100
AcDbArc
 50
283.9312219999982
 51
286.5297390000044
  0
ARC
  5
59EE7
330
1F
100
AcDbEntity
  8
1
100
AcDbCircle
 10
167.7227535993198
 20
-14.0816966887231
 30
0.0
 40
0.6182945000000001
100
AcDbArc
 50
288.3752569999989
 51
290.9927259999971
  0
LINE
  5
59EE8
330
1F
100
AcDbEntity
  8
1
100
AcDbLine
 10
168.2749980993196
 20
-14.14056518872311
 30
0.0
 11
168.2737830993194
 21
-14.16334518872313
 31
0.0
  0
LINE
  5
59EE9
330
1F
100
AcDbEntity
  8
1
100
AcDbLine
 10
168.2750115993196
 20
-14.07986818872311
 30
0.0
 11
168.2749980993196
 21
-14.14056518872311
 31
0.0
  0
LINE
  5
59EEA
330
1F
100
AcDbEntity
  8
1
100
AcDbLine
 10
168.2750995993194
 20
-13.97778668872311
 30
0.0
 11
168.2750115993196
 21
-14.07986818872311
 31
0.0
  0
LINE
  5
59EEB
330
1F
100
AcDbEntity
  8
1
100
AcDbLine
 10
158.2516625993196
 20
-14.57091418872309
 30
0.0
 11
156.9726570993196
 21
-14.5261736887231
 31
0.0
  0
LINE
  5
59EEC
330
1F
100
AcDbEntity
  8
1
100
AcDbLine
 10
156.9726570993196
 20
-14.5261736887231
 30
0.0
 11
155.9181525993197
 21
-14.48635568872308
 31
0.0
  0
LINE
  5
59EED
330
1F
100
AcDbEntity
  8
1
100
AcDbLine
 10
167.8507870993196
 20
-14.68144168872311
 30
0.0
 11
167.8634265993196
 21
-14.68074068872309
 31
0.0
  0
LINE
  5
59EEE
330
1F
100
AcDbEntity
  8
1
100
AcDbLine
 10
167.8634265993196
 20
-14.68074068872309
 30
0.0
 11
167.8664560993195
 21
-14.6804881887231
 31
0.0
  0
LINE
  5
59EEF
330
1F
100
AcDbEntity
  8
1
100
AcDbLine
 10
167.7439480993196
 20
-3.731380188723136
 30
0.0
 11
167.8780830993196
 21
-6.215163688723094
 31
0.0
  0
LINE
  5
59EF0
330
1F
100
AcDbEntity
  8
1
100
AcDbLine
 10
167.6229935993195
 20
-1.493896188723141
 30
0.0
 11
167.7439480993196
 21
-3.731380188723136
 31
0.0
  0
LINE
  5
59EF1
330
1F
100
AcDbEntity
  8
1
100
AcDbLine
 10
167.5623310993196
 20
-0.3722001887230988
 30
0.0
 11
167.6229935993195
 21
-1.493896188723141
 31
0.0
  0
LINE
  5
59EF2
330
1F
100
AcDbEntity
  8
1
100
AcDbLine
 10
167.6300345993196
 20
14.68733581127688
 30
0.0
 11
167.7883641649124
 21
14.68309879512199
 31
0.0
  0
ARC
  5
59EF3
102
{ACAD_REACTORS
330
59F0A
102
}
330
1F
100
AcDbEntity
  8
1
100
AcDbCircle
 10
167.7749885840121
 20
14.18327773330523
 30
0.0
 40
0.5
100
AcDbArc
 50
0.0127435131365083
 51
88.46708846312184
  0
LINE
  5
59EF4
330
1F
100
AcDbEntity
  8
1
100
AcDbLine
 10
167.6300345993196
 20
-14.68734918872309
 30
0.0
 11
167.8507870993196
 21
-14.68144168872311
 31
0.0
  0
LINE
  5
59EF5
330
1F
100
AcDbEntity
  8
1
100
AcDbLine
 10
167.5429275993194
 20
0.3351238112768726
 30
0.0
 11
167.5427845993197
 21
0.0936743112768852
 31
0.0
  0
LINE
  5
59EF6
330
1F
100
AcDbEntity
  8
1
100
AcDbLine
 10
167.5427845993197
 20
-0.0936876887231222
 30
0.0
 11
167.5429315993197
 21
-0.339243688723144
 31
0.0
  0
LINE
  5
59EF7
330
1F
100
AcDbEntity
  8
1
100
AcDbLine
 10
167.5427845993197
 20
0.0936743112768852
 30
0.0
 11
167.5427845993197
 21
-0.0936876887231222
 31
0.0
  0
LINE
  5
59EF8
330
1F
100
AcDbEntity
  8
1
100
AcDbLine
 10
163.4103660993196
 20
-14.71532618872308
 30
0.0
 11
163.3666350993196
 21
-14.71435318872309
 31
0.0
  0
LINE
  5
59EF9
330
1F
100
AcDbEntity
  8
1
100
AcDbLine
 10
156.9726570993196
 20
14.52616031127689
 30
0.0
 11
155.9181525993197
 21
14.4863423112769
 31
0.0
  0
LINE
  5
59EFA
330
1F
100
AcDbEntity
  8
1
100
AcDbLine
 10
158.2516625993196
 20
14.57090081127686
 30
0.0
 11
156.9726570993196
 21
14.52616031127689
 31
0.0
  0
LINE
  5
59EFB
330
1F
100
AcDbEntity
  8
1
100
AcDbLine
 10
168.2750995993194
 20
13.97777331127687
 30
0.0
 11
168.2750115993196
 21
14.07985481127687
 31
0.0
  0
LINE
  5
59EFC
330
1F
100
AcDbEntity
  8
1
100
AcDbLine
 10
168.2750115993196
 20
14.07985481127687
 30
0.0
 11
168.2749885716447
 21
14.18338894143559
 31
0.0
  0
LINE
  5
59EFD
330
1F
100
AcDbEntity
  8
1
100
AcDbLine
 10
167.7439480993196
 20
3.731366811276899
 30
0.0
 11
167.8780830993196
 21
6.215150311276914
 31
0.0
  0
LINE
  5
59EFE
330
1F
100
AcDbEntity
  8
1
100
AcDbLine
 10
167.6229935993195
 20
1.493882811276904
 30
0.0
 11
167.7439480993196
 21
3.731366811276899
 31
0.0
  0
LINE
  5
59EFF
330
1F
100
AcDbEntity
  8
1
100
AcDbLine
 10
167.5429275991674
 20
0.3351235541502149
 30
0.0
 11
167.5623310993196
 21
0.3721868112769187
 31
0.0
  0
LINE
  5
59F00
330
1F
100
AcDbEntity
  8
1
100
AcDbLine
 10
167.5623310993196
 20
0.3721868112769187
 30
0.0
 11
167.6229935993195
 21
1.493882811276904
 31
0.0
  0
LINE
  5
59F01
330
1F
100
AcDbEntity
  8
1
100
AcDbLine
 10
145.775000001476
 20
-14.06500668872311
 30
0.0
 11
145.775000001476
 21
-13.62492799542303
 31
0.0
  0
LINE
  5
59F02
330
1F
100
AcDbEntity
  8
1
100
AcDbLine
 10
145.775000001476
 20
12.83368117006066
 30
0.0
 11
145.775000001476
 21
14.0649933112769
 31
0.0
  0
LINE
  5
59F03
330
1F
100
AcDbEntity
  8
1
100
AcDbLine
 10
147.4287490993194
 20
-14.06500668872311
 30
0.0
 11
147.4287490993194
 21
-13.62492799542303
 31
0.0
  0
LINE
  5
59F04
330
1F
100
AcDbEntity
  8
1
100
AcDbLine
 10
147.4287490993194
 20
12.3435295315794
 30
0.0
 11
147.4287490993194
 21
14.0649933112769
 31
0.0
  0
LINE
  5
59F05
330
1F
100
AcDbEntity
  8
1
100
AcDbLine
 10
154.3849995993196
 20
14.06499331127688
 30
0.0
 11
145.775000001476
 21
14.0649933112769
 31
0.0
  0
LINE
  5
59F06
330
1F
100
AcDbEntity
  8
1
100
AcDbLine
 10
154.3584595993196
 20
-14.06500668872311
 30
0.0
 11
154.3849995993196
 21
-14.06500668872311
 31
0.0
  0
LINE
  5
59F07
330
1F
100
AcDbEntity
  8
1
100
AcDbLine
 10
145.775000001476
 20
-14.06500668872311
 30
0.0
 11
154.3584595993196
 21
-14.06500668872311
 31
0.0
  0
DIMENSION
  5
59F08
102
{ACAD_XDICTIONARY
360
59F09
102
}
102
{ACAD_REACTORS
330
59F0A
102
}
330
1F
100
AcDbEntity
  8
2
100
AcDbDimension
  2
*D93
 10
167.7749885840121
 20
14.18327773330524
 30
0.0
 11
186.5145743494139
 21
34.04984499555578
 31
0.0
 70
    36
 71
     5
 42
0.4999999999986926
  3
\M+18352\M+18373\M+1815B - ISO-25
100
AcDbRadialDimension
 15
168.1682194987545
 25
14.49209717519575
 35
0.0
 40
0.0
1001
ACAD
1000
DSTYLE
1002
{
1070
     4
1000
"
1070
    40
1040
1.0
1070
   143
1040
0.03937
1070
   170
1070
     1
1070
   171
1070
     3
1070
   271
1070
     8
1070
   285
1070
     4
1002
}
  0
LINE
  5
59F0B
330
1F
100
AcDbEntity
  8
1
100
AcDbLine
 10
167.6300345993196
 20
-14.68734918872309
 30
0.0
 11
163.4103660993196
 21
-14.71532618872308
 31
0.0
  0
LINE
  5
59F0C
330
1F
100
AcDbEntity
  8
cut
100
AcDbLine
 10
156.275000001476
 20
14.55452718627691
 30
0.0
 11
164.775000001476
 21
14.99999331017687
 31
0.0
1001
ACAD
1000
RTMaterial
1005
0
  0
LINE
  5
59F0D
330
1F
100
AcDbEntity
  8
cut
100
AcDbLine
 10
145.775000001476
 20
14.06499331017687
 30
0.0
 11
154.6325750135761
 21
14.06499331017687
 31
0.0
1001
ACAD
1000
RTMaterial
1005
0
  0
LINE
  5
59F0E
330
1F
100
AcDbEntity
  8
cut
100
AcDbLine
 10
164.775000001476
 20
14.99999331017687
 30
0.0
 11
167.775000001476
 21
14.99999331017687
 31
0.0
1001
ACAD
1000
RTMaterial
1005
0
  0
LINE
  5
59F0F
330
1F
100
AcDbEntity
  8
cut
100
AcDbLine
 10
168.2750000014759
 20
13.99999331017613
 30
0.0
 11
168.2750000014759
 21
14.49999331017687
 31
0.0
1001
ACAD
1000
RTMaterial
1005
0
  0
LINE
  5
59F10
330
1F
100
AcDbEntity
  8
cut
100
AcDbLine
 10
145.775000001476
 20
-14.06500668762305
 30
0.0
 11
145.775000001476
 21
14.06499331017687
 31
0.0
1001
ACAD
1000
RTMaterial
1005
0
  0
LINE
  5
59F11
330
1F
100
AcDbEntity
  8
cut
100
AcDbLine
 10
167.541291091476
 20
-0.0000066898231239
 30
0.0
 11
168.2750000014759
 21
13.99999331017687
 31
0.0
1001
ACAD
1000
RTMaterial
1005
0
  0
ARC
  5
59F12
330
1F
100
AcDbEntity
  8
cut
100
AcDbCircle
 10
154.6325750135761
 20
17.06499331017687
 30
0.0
 40
3.0
100
AcDbArc
 50
270.0
 51
303.1939590023019
1001
ACAD
1000
RTMaterial
1005
0
  0
ARC
  5
59F13
330
1F
100
AcDbEntity
  8
cut
100
AcDbCircle
 10
167.775000001476
 20
14.49999331017687
 30
0.0
 40
0.5
100
AcDbArc
 50
0.0
 51
90.0
1001
ACAD
1000
RTMaterial
1005
0
  0
LINE
  5
59F14
330
1F
100
AcDbEntity
  8
cut
100
AcDbLine
 10
156.275000000005
 20
-14.55454056478447
 30
0.0
 11
164.7749999999599
 21
-15.00000668954356
 31
0.0
1001
ACAD
1000
RTMaterial
1005
0
  0
LINE
  5
59F15
330
1F
100
AcDbEntity
  8
cut
100
AcDbLine
 10
145.7750000000545
 20
-14.06500668762311
 30
0.0
 11
154.6325750121545
 21
-14.06500668851839
 31
0.0
1001
ACAD
1000
RTMaterial
1005
0
  0
LINE
  5
59F16
330
1F
100
AcDbEntity
  8
cut
100
AcDbLine
 10
164.7749999999599
 20
-15.00000668954356
 30
0.0
 11
167.7749999999599
 21
-15.00000668984682
 31
0.0
1001
ACAD
1000
RTMaterial
1005
0
  0
LINE
  5
59F17
330
1F
100
AcDbEntity
  8
cut
100
AcDbLine
 10
168.275000000061
 20
-14.00000668989662
 30
0.0
 11
168.2750000000106
 21
-14.50000668989736
 31
0.0
1001
ACAD
1000
RTMaterial
1005
0
  0
LINE
  5
59F18
330
1F
100
AcDbEntity
  8
cut
100
AcDbLine
 10
167.541291091476
 20
-0.0000066898231807
 30
0.0
 11
168.275000000061
 21
-14.00000668989736
 31
0.0
1001
ACAD
1000
RTMaterial
1005
0
  0
ARC
  5
59F19
330
1F
100
AcDbEntity
  8
cut
100
AcDbCircle
 10
154.6325750118512
 20
-17.06500668851839
 30
0.0
 40
3.0
100
AcDbArc
 50
56.80604099190681
 51
89.99999999420925
1001
ACAD
1000
RTMaterial
1005
0
  0
ARC
  5
59F1A
330
1F
100
AcDbEntity
  8
cut
100
AcDbCircle
 10
167.7750000000106
 20
-14.50000668984683
 30
0.0
 40
0.5
100
AcDbArc
 50
269.9999999942093
 51
359.9999999942093
1001
ACAD
1000
RTMaterial
1005
0
  0
ARC
  5
59F1B
330
1F
100
AcDbEntity
  8
nocut
100
AcDbCircle
 10
2.367648999999914
 20
17.74998399999995
 30
0.0
 40
3.0
100
AcDbArc
 50
225.0000459999994
 51
270.0000089999996
  0
LINE
  5
59F1C
330
1F
100
AcDbEntity
  8
nocut
100
AcDbLine
 10
-0.0000000000001137
 20
15.87499999999997
 30
0.0
 11
0.246330999999941
 21
15.62867599999995
 31
0.0
  0
VIEWPORT
  5
6B
102
{ACAD_XDICTIONARY
360
5A090
102
}
330
50
100
AcDbEntity
 67
     1
  8
0
100
AcDbViewport
 10
150.1652135264906
 20
160.4455827878762
 30
0.0
 40
339.1973820494346
 41
282.2272140146125
 68
     1
 69
     1
 12
150.1652135264906
 22
160.4455827878762
 13
0.0
 23
0.0
 14
10.0
 24
10.0
 15
10.0
 25
10.0
 16
0.0
 26
0.0
 36
1.0
 17
0.0
 27
0.0
 37
0.0
 42
50.0
 43
0.0
 44
0.0
 45
282.2272140146125
 50
0.0
 51
0.0
 72
  1000
 90
    32864
  1

281
     0
 71
     1
 74
     0
110
0.0
120
0.0
130
0.0
111
1.0
121
0.0
131
0.0
112
0.0
122
1.0
132
0.0
 79
     0
146
0.0
  0
VIEWPORT
  5
6D
102
{ACAD_XDICTIONARY
360
5A092
102
}
330
50
100
AcDbEntity
 67
     1
  8
0
100
AcDbViewport
 10
133.3499939441681
 20
101.5999939441681
 30
0.0
 40
213.3599903106689
 41
162.5599903106689
 68
     2
 69
     2
 12
210.0
 22
148.5
 13
0.0
 23
0.0
 14
10.0
 24
10.0
 15
10.0
 25
10.0
 16
0.0
 26
0.0
 36
1.0
 17
0.0
 27
0.0
 37
0.0
 42
50.0
 43
0.0
 44
0.0
 45
324.0677920111345
 50
0.0
 51
0.0
 72
   100
 90
    32864
  1

281
     0
 71
     1
 74
     0
110
0.0
120
0.0
130
0.0
111
1.0
121
0.0
131
0.0
112
0.0
122
1.0
132
0.0
 79
     0
146
0.0
  0
ENDSEC
  0
SECTION
  2
OBJECTS
  0
DICTIONARY
  5
C
330
0
100
AcDbDictionary
281
     1
  3
ACAD_COLOR
350
85
  3
ACAD_GROUP
350
D
  3
ACAD_LAYOUT
350
1A
  3
ACAD_MATERIAL
350
84
  3
ACAD_MLINESTYLE
350
17
  3
ACAD_PLOTSETTINGS
350
19
  3
ACAD_PLOTSTYLENAME
350
E
  3
ACAD_TABLESTYLE
350
A1
  3
ACDBHEADERROUNDTRIPXREC
350
5A08B
  3
AcDbVariableDictionary
350
5E
  3
ASE_INDEX_DICTIONARY
350
349E9
  3
DWGPROPS
350
5A08A
  0
DICTIONARY
  5
E2
330
2
100
AcDbDictionary
280
     1
281
     1
  3
ACAD_LAYERFILTERS
360
589C8
  3
ACAD_LAYERSTATES
360
3759A
  3
ACLYDICTIONARY
360
589C7
  0
DICTIONARY
  5
31EE
330
1F
100
AcDbDictionary
280
     1
281
     1
  3
ACAD_SORTENTS
360
31EF
  0
DICTIONARY
  5
3BEB2
330
680
100
AcDbDictionary
280
     1
281
     1
  3
ACAD_SORTENTS
360
55347
  0
DICTIONARY
  5
5A094
330
71
100
AcDbDictionary
280
     1
281
     1
  3
ACAD_XREC_ROUNDTRIP
360
5A095
  0
DICTIONARY
  5
5A096
330
73
100
AcDbDictionary
280
     1
281
     1
  3
ACAD_XREC_ROUNDTRIP
360
5A097
  0
DICTIONARY
  5
59F09
330
59F08
100
AcDbDictionary
280
     1
281
     1
  3
ACAD_DIMASSOC
360
59F0A
  0
DICTIONARY
  5
5A090
330
6B
100
AcDbDictionary
280
     1
281
     1
  3
ACAD_XREC_ROUNDTRIP
360
5A091
  0
DICTIONARY
  5
5A092
330
6D
100
AcDbDictionary
280
     1
281
     1
  3
ACAD_XREC_ROUNDTRIP
360
5A093
  0
DICTIONARY
  5
85
102
{ACAD_REACTORS
330
C
102
}
330
C
100
AcDbDictionary
281
     1
  0
DICTIONARY
  5
D
102
{ACAD_REACTORS
330
C
102
}
330
C
100
AcDbDictionary
281
     1
  0
DICTIONARY
  5
1A
102
{ACAD_REACTORS
330
C
102
}
330
C
100
AcDbDictionary
281
     1
  3
\M+1838C\M+18343\M+18341\M+18345\M+183671
350
51
  3
\M+1838C\M+18343\M+18341\M+18345\M+183672
350
56
  3
Model
350
22
  0
DICTIONARY
  5
84
102
{ACAD_REACTORS
330
C
102
}
330
C
100
AcDbDictionary
281
     1
  0
DICTIONARY
  5
17
102
{ACAD_REACTORS
330
C
102
}
330
C
100
AcDbDictionary
281
     1
  3
Standard
350
18
  0
DICTIONARY
  5
19
102
{ACAD_REACTORS
330
C
102
}
330
C
100
AcDbDictionary
281
     1
  0
ACDBDICTIONARYWDFLT
  5
E
102
{ACAD_REACTORS
330
C
102
}
330
C
100
AcDbDictionary
281
     1
  3
Normal
350
F
100
AcDbDictionaryWithDefault
340
F
  0
DICTIONARY
  5
A1
102
{ACAD_REACTORS
330
C
102
}
330
C
100
AcDbDictionary
281
     1
  3
Standard
350
A2
  0
DICTIONARY
  5
5A08B
102
{ACAD_REACTORS
330
C
102
}
330
C
100
AcDbDictionary
281
     1
  0
DICTIONARY
  5
5E
102
{ACAD_REACTORS
330
C
102
}
330
C
100
AcDbDictionary
281
     1
  3
CTABLESTYLE
350
B8
  3
DIMASSOC
350
5F
  3
HIDETEXT
350
63
  3
PROJECTNAME
350
31CE
  0
DICTIONARY
  5
349E9
102
{ACAD_REACTORS
330
C
102
}
330
C
100
AcDbDictionary
281
     1
  3
ASEBlockHierarchyIndexRecord
350
349EA
1001
DCO15
1040
1842496176.844
  0
XRECORD
  5
5A08A
102
{ACAD_REACTORS
330
C
102
}
330
C
100
AcDbXrecord
280
     1
  1
DWGPROPS COOKIE
  2

  3

  4

  6

  7

  8

  9

300
=
301
=
302
=
303
=
304
=
305
=
306
=
307
=
308
=
309
=
 40
3.738295636574074
 41
2455489.391063368
 42
2458571.899671713
  1

 90
        0
  0
DICTIONARY
  5
589C8
102
{ACAD_REACTORS
330
E2
102
}
330
E2
100
AcDbDictionary
281
     1
  0
DICTIONARY
  5
3759A
102
{ACAD_REACTORS
330
E2
102
}
330
E2
100
AcDbDictionary
281
     1
  0
DICTIONARY
  5
589C7
102
{ACAD_REACTORS
330
E2
102
}
330
E2
100
AcDbDictionary
281
     1
1001
ACAD
1000
<All
  0
SORTENTSTABLE
  5
31EF
102
{ACAD_REACTORS
330
31EE
102
}
330
31EE
100
AcDbSortentsTable
330
1F
331
68C
  5
3C6B0
  0
SORTENTSTABLE
  5
55347
102
{ACAD_REACTORS
330
3BEB2
102
}
330
3BEB2
100
AcDbSortentsTable
330
680
  0
XRECORD
  5
5A095
102
{ACAD_REACTORS
330
5A094
102
}
330
5A094
100
AcDbXrecord
280
     1
102
SHADEPLOT
 70
     0
  0
XRECORD
  5
5A097
102
{ACAD_REACTORS
330
5A096
102
}
330
5A096
100
AcDbXrecord
280
     1
102
SHADEPLOT
 70
     0
  0
DIMASSOC
  5
59F0A
102
{ACAD_REACTORS
330
59F09
102
}
330
59F09
100
AcDbDimAssoc
330
59F08
 90
        2
 70
     0
 71
     0
  1
AcDbOsnapPointRef
 72
     3
331
59EF3
 73
     2
 91
        0
 40
0.0
 10
0.0
 20
0.0
 30
0.0
 75
     0
  0
XRECORD
  5
5A091
102
{ACAD_REACTORS
330
5A090
102
}
330
5A090
100
AcDbXrecord
280
     1
102
SHADEPLOT
 70
     0
  0
XRECORD
  5
5A093
102
{ACAD_REACTORS
330
5A092
102
}
330
5A092
100
AcDbXrecord
280
     1
102
SHADEPLOT
 70
     0
  0
LAYOUT
  5
51
102
{ACAD_XDICTIONARY
360
B2
102
}
102
{ACAD_REACTORS
330
1A
102
}
330
1A
100
AcDbPlotSettings
  1

  2
none_device
  4
Letter_(8.50_x_11.00_Inches)
  6

 40
6.349999904632567
 41
6.349999904632567
 42
6.350006103515625
 43
6.350006103515625
 44
215.8999938964844
 45
279.3999938964844
 46
0.0
 47
0.0
 48
0.0
 49
0.0
140
0.0
141
0.0
142
1.0
143
1.0
 70
   688
 72
     1
 73
     1
 74
     5
  7

 75
    16
147
1.0
148
0.0
149
0.0
100
AcDbLayout
  1
\M+1838C\M+18343\M+18341\M+18345\M+183671
 70
     1
 71
     1
 10
-6.350006103515625
 20
-6.349999904632567
 11
273.0499877929688
 21
209.5499939918518
 12
0.0
 22
0.0
 32
0.0
 14
26.66999878883364
 24
20.31999878883365
 34
0.0
 15
240.0299890995025
 25
182.8799890995025
 35
0.0
146
0.0
 13
0.0
 23
0.0
 33
0.0
 16
1.0
 26
0.0
 36
0.0
 17
0.0
 27
1.0
 37
0.0
 76
     0
330
50
331
6B
  0
LAYOUT
  5
56
102
{ACAD_XDICTIONARY
360
B5
102
}
102
{ACAD_REACTORS
330
1A
102
}
330
1A
100
AcDbPlotSettings
  1

  2
none_device
  4
Letter_(8.50_x_11.00_Inches)
  6

 40
6.349999904632567
 41
6.349999904632567
 42
6.350006103515625
 43
6.350006103515625
 44
215.8999938964844
 45
279.3999938964844
 46
0.0
 47
0.0
 48
0.0
 49
0.0
140
0.0
141
0.0
142
1.0
143
1.0
 70
   688
 72
     1
 73
     1
 74
     5
  7

 75
    16
147
1.0
148
0.0
149
0.0
100
AcDbLayout
  1
\M+1838C\M+18343\M+18341\M+18345\M+183672
 70
     1
 71
     2
 10
-6.350006103515625
 20
-6.349999904632567
 11
273.0499877929688
 21
209.5499939918518
 12
0.0
 22
0.0
 32
0.0
 14
26.66999878883363
 24
20.31999878883363
 34
0.0
 15
240.0299890995026
 25
182.8799890995025
 35
0.0
146
0.0
 13
0.0
 23
0.0
 33
0.0
 16
1.0
 26
0.0
 36
0.0
 17
0.0
 27
1.0
 37
0.0
 76
     0
330
55
331
71
  0
LAYOUT
  5
22
102
{ACAD_XDICTIONARY
360
5A08C
102
}
102
{ACAD_REACTORS
330
1A
102
}
330
1A
100
AcDbPlotSettings
  1

  2
none_device
  4
ANSI_A_(8.50_x_11.00_Inches)
  6

 40
6.349999904632567
 41
19.04999923706055
 42
6.350006103515625
 43
19.04998779296875
 44
215.8999938964844
 45
279.3999938964844
 46
0.0
 47
0.0
 48
0.0
 49
0.0
140
0.0
141
0.0
142
1.0
143
78.436453180766
 70
 11952
 72
     0
 73
     1
 74
     0
  7

 75
     0
147
0.0127491741332998
148
0.0
149
0.0
100
AcDbLayout
  1
Model
 70
     1
 71
     0
 10
0.0
 20
0.0
 11
12.0
 21
9.0
 12
0.0
 22
0.0
 32
0.0
 14
0.0
 24
0.0
 34
0.0
 15
0.0
 25
0.0
 35
0.0
146
0.0
 13
0.0
 23
0.0
 33
0.0
 16
1.0
 26
0.0
 36
0.0
 17
0.0
 27
1.0
 37
0.0
 76
     0
330
1F
  0
MLINESTYLE
  5
18
102
{ACAD_REACTORS
330
17
102
}
330
17
100
AcDbMlineStyle
  2
STANDARD
 70
     0
  3

 62
   256
 51
90.0
 52
90.0
 71
     2
 49
0.5
 62
   256
  6
BYLAYER
 49
-0.5
 62
   256
  6
BYLAYER
  0
ACDBPLACEHOLDER
  5
F
102
{ACAD_REACTORS
330
E
102
}
330
E
  0
TABLESTYLE
  5
A2
102
{ACAD_REACTORS
330
A1
102
}
330
A1
100
AcDbTableStyle
  3
Standard
 70
     0
 71
     0
 40
1.5
 41
1.5
280
     0
281
     0
  7
Standard
140
4.5
170
     2
 62
     0
 63
     7
283
     0
274
    -2
284
     1
 64
     0
275
    -2
285
     1
 65
     0
276
    -2
286
     1
 66
     0
277
    -2
287
     1
 67
     0
278
    -2
288
     1
 68
     0
279
    -2
289
     1
 69
     0
  7
Standard
140
6.0
170
     5
 62
     0
 63
     7
283
     0
274
    -2
284
     1
 64
     0
275
    -2
285
     1
 65
     0
276
    -2
286
     1
 66
     0
277
    -2
287
     1
 67
     0
278
    -2
288
     1
 68
     0
279
    -2
289
     1
 69
     0
  7
Standard
140
4.5
170
     5
 62
     0
 63
     7
283
     0
274
    -2
284
     1
 64
     0
275
    -2
285
     1
 65
     0
276
    -2
286
     1
 66
     0
277
    -2
287
     1
 67
     0
278
    -2
288
     1
 68
     0
279
    -2
289
     1
 69
     0
  0
DICTIONARYVAR
  5
B8
102
{ACAD_REACTORS
330
5E
102
}
330
5E
100
DictionaryVariables
280
     0
  1
STANDARD
  0
DICTIONARYVAR
  5
5F
102
{ACAD_REACTORS
330
5E
102
}
330
5E
100
DictionaryVariables
280
     0
  1
2
  0
DICTIONARYVAR
  5
63
102
{ACAD_REACTORS
330
5E
102
}
330
5E
100
DictionaryVariables
280
     0
  1
1
  0
DICTIONARYVAR
  5
31CE
102
{ACAD_REACTORS
330
5E
102
}
330
5E
100
DictionaryVariables
280
     0
  1

  0
XRECORD
  5
349EA
102
{ACAD_REACTORS
330
349E9
102
}
330
349E9
100
AcDbXrecord
280
     1
330
68C
330
0
330
0
330
0
330
0
330
0
330
0
330
0
330
0
330
0
330
0
330
0
330
0
330
0
330
0
330
0
330
0
330
0
330
0
330
0
330
0
330
0
330
0
330
0
330
0
330
0
330
0
330
0
330
0
330
0
330
0
330
0
330
0
330
0
330
0
330
0
330
0
330
0
330
0
330
0
330
0
330
0
330
0
330
0
330
0
330
0
330
0
330
0
330
0
330
0
330
0
330
0
330
0
330
0
330
0
330
0
330
0
330
0
330
0
330
0
330
0
330
0
330
0
330
0
330
0
330
0
330
0
330
0
330
0
330
0
330
0
330
0
330
0
330
0
330
0
330
0
330
0
330
0
330
0
330
0
330
0
330
0
330
0
330
0
330
0
330
0
330
0
330
0
330
0
330
0
330
0
330
0
330
0
330
0
330
0
330
0
330
0
330
0
330
0
330
0
330
0
330
0
330
0
330
0
330
0
330
0
330
0
330
0
330
0
330
0
  0
DICTIONARY
  5
B2
330
51
100
AcDbDictionary
280
     1
281
     1
  3
ACAD_XREC_ROUNDTRIP
360
5A08E
  3
ADSK_XREC_LAYOUTTHUMBNAIL
360
B3
  0
DICTIONARY
  5
B5
330
56
100
AcDbDictionary
280
     1
281
     1
  3
ACAD_XREC_ROUNDTRIP
360
5A08F
  3
ADSK_XREC_LAYOUTTHUMBNAIL
360
B6
  0
DICTIONARY
  5
5A08C
330
22
100
AcDbDictionary
280
     1
281
     1
  3
ACAD_XREC_ROUNDTRIP
360
5A08D
  0
XRECORD
  5
5A08E
102
{ACAD_REACTORS
330
B2
102
}
330
B2
100
AcDbXrecord
280
     1
102
SHADEPLOT
 70
     0
102
SHADEPLOTRESLEVEL
 70
     2
102
SHADEPLOTCUSTOMDPI
 70
   300
  0
XRECORD
  5
B3
102
{ACAD_REACTORS
330
B2
102
}
330
B2
100
AcDbXrecord
280
     1
310
28000000B40000008B0000000100080000000000BC61000000000000000000000001000000000000FFFFFF0000000000FFFFFF000000000000000000000000000000000000000000000000000000000000000000330000006600000099000000CC000000FF00000000330000333300006633000099330000CC330000FF3300
310
0000660000336600006666000099660000CC660000FF66000000990000339900006699000099990000CC990000FF99000000CC000033CC000066CC000099CC0000CCCC0000FFCC000000FF000033FF000066FF000099FF0000CCFF0000FFFF000000003300330033006600330099003300CC003300FF003300003333003333
310
33006633330099333300CC333300FF33330000663300336633006666330099663300CC663300FF66330000993300339933006699330099993300CC993300FF99330000CC330033CC330066CC330099CC3300CCCC3300FFCC330000FF330033FF330066FF330099FF3300CCFF3300FFFF330000006600330066006600660099
310
006600CC006600FF00660000336600333366006633660099336600CC336600FF33660000666600336666006666660099666600CC666600FF66660000996600339966006699660099996600CC996600FF99660000CC660033CC660066CC660099CC6600CCCC6600FFCC660000FF660033FF660066FF660099FF6600CCFF6600
310
FFFF660000009900330099006600990099009900CC009900FF00990000339900333399006633990099339900CC339900FF33990000669900336699006666990099669900CC669900FF66990000999900339999006699990099999900CC999900FF99990000CC990033CC990066CC990099CC9900CCCC9900FFCC990000FF99
310
0033FF990066FF990099FF9900CCFF9900FFFF99000000CC003300CC006600CC009900CC00CC00CC00FF00CC000033CC003333CC006633CC009933CC00CC33CC00FF33CC000066CC003366CC006666CC009966CC00CC66CC00FF66CC000099CC003399CC006699CC009999CC00CC99CC00FF99CC0000CCCC0033CCCC0066CC
310
CC0099CCCC00CCCCCC00FFCCCC0000FFCC0033FFCC0066FFCC0099FFCC00CCFFCC00FFFFCC000000FF003300FF006600FF009900FF00CC00FF00FF00FF000033FF003333FF006633FF009933FF00CC33FF00FF33FF000066FF003366FF006666FF009966FF00CC66FF00FF66FF000099FF003399FF006699FF009999FF00CC
310
99FF00FF99FF0000CCFF0033CCFF0066CCFF0099CCFF00CCCCFF00FFCCFF0000FFFF0033FFFF0066FFFF0099FFFF00CCFFFF00FFFFFF00000000000D0D0D001A1A1A00282828003535350043434300505050005D5D5D006B6B6B00787878008686860093939300A1A1A100AEAEAE00BBBBBB00C9C9C900D6D6D600E4E4E400
310
F1F1F100FFFFFF0000000000000000000000000000000000000000000000000000000000000000000000000000000000E2E2E2E2E2E2E2E2E2E2E2E2E2E2E2E2E2E2E2E2E2E2E2E2E2E2E2E2E2E2E2E2E2E2E2E2E2E2E2E2E2E2E2E2E2E2E2E2E2E2E2E2E2E2E2E2E2E2E2E2E2E2E2E2E2E2E2E2E2E2E2E2E2E2E2E2E2E2E2
310
E2E2E2E2E2E2E2E2E2E2E2E2E2E2E2E2E2E2E2E2E2E2E2E2E2E2E2E2E2E2E2E2E2E2E2E2E2E2E2E2E2E2E2E2E2E2E2E2E2E2E2E2E2E2E2E2E2E2E2E2E2E2E2E2E2E2E2E2E2E2E2E2E2E2E2E2E2E2E2E2E2E2E2E2E2E2E2E2E2E2E2E2E2E2E2E2E2E2E2E2E2E2F5F5F5F5F5F5F5F5F5F5F5F5F5F5F5F5F5F5F5F5F5F5F5F5F5
310
F5F5F5F5F5F5F5F5F5F5F5F5F5F5F5F5F5F5F5F5F5F5F5F5F5F5F5F5F5F5F5F5F5F5F5F5F5F5F5F5F5F5F5F5F5F5F5F5F5F5F5F5F5F5F5F5F5F5F5F5F5F5F5F5F5F5F5F5F5F5F5F5F5F5F5F5F5F5F5F5F5F5F5F5F5F5F5F5F5F5F5F5F5F5F5F5F5F5F5F5F5F5F5F5F5F5F5F5F5F5F5F5F5F5F5F5F5F5F5F5F5F5F5F5F5F5F5
310
F5F5F5F5F5F5F5F5F5F5F5F5F5F5F5F5F5F5F5F5F5F5F5F5F5F5E2E2F5F5F5F5F5F5F5F5F5F5F5F5F5F5F5F5F5F5F5F5F5F5F5F5F5F5F5F5F5F5F5F5F5F5F5F5F5F5F5F5F5F5F5F5F5F5F5F5F5F5F5F5F5F5F5F5F5F5F5F5F5F5F5F5F5F5F5F5F5F5F5F5F5F5F5F5F5F5F5F5F5F5F5F5F5F5F5F5F5F5F5F5F5F5F5F5F5F5F5
310
F5F5F5F5F5F5F5F5F5F5F5F5F5F5F5F5F5F5F5F5F5F5F5F5F5F5F5F5F5F5F5F5F5F5F5F5F5F5F5F5F5F5F5F5F5F5F5F5F5F5F5F5F5F5F5F5F5F5F5F5F5F5F5F5F5F5F5F5F5F5F5F5F5F5F5F5F5F5F5E2E2F5F5F5F5F5F5F5F5F5F5F5F5F5F5F5F5F5F5F5F5F5F5F5F5F5F5F5F5F5F5F5F5F5F5F5F5F5F5F5F5F5F5F5F5F5F5
310
F5F5F5F5F5F5F5F5F5F5F5F5F5F5F5F5F5F5F5F5F5F5F5F5F5F5F5F5F5F5F5F5F5F5F5F5F5F5F5F5F5F5F5F5F5F5F5F5F5F5F5F5F5F5F5F5F5F5F5F5F5F5F5F5F5F5F5F5F5F5F5F5F5F5F5F5F5F5F5F5F5F5F5F5F5F5F5F5F5F5F5F5F5F5F5F5F5F5F5F5F5F5F5F5F5F5F5F5F5F5F5F5F5F5F5F5F5F5F5F5F5F5F5F5F5F5F5
310
F5F5F5F5F5E2E2F5F5F5F5E2E2E2E2E2E2E2E2F5F5F5F5F5F5F5F5F5E2E2E2E2E2E2E2E2E2E2E2E2E2E2E2F5F5F5F5F5F5F5F5F5E2E2E2E2E2E2E2E2E2E2E2E2E2E2E2E2F5F5F5F5F5F5F5F5E2E2E2E2E2E2E2E2E2E2E2E2E2E2E2E2F5F5F5F5F5F5F5F5E2E2E2E2E2E2E2E2E2E2E2E2E2E2E2E2F5F5F5F5F5F5F5F5E2E2E2
310
E2E2E2E2E2E2E2E2E2E2E2E2E2F5F5F5F5F5F5F5F5F5E2E2E2E2E2E2E2E2E2E2E2E2E2E2E2F5F5F5F5F5F5F5F5F5E2E2E2E2E2E2E2E2F5F5F5F5E2E2F5F5F5F5E2F5F5F5F5F5F5F5F5F5F5F5F5F5F5F5F5F5F5F5F5F5F5F5F5F5F5F5F5F5F5F5F5F5F5F5F5F5F5F5F5F5F5F5F5F5F5F5F5F5F5F5F5F5F5F5F5F5F5F5F5F5F5
310
F5F5F5F5F5F5F5F5F5F5F5F5F5F5F5F5F5F5F5F5F5F5F5F5F5F5F5F5F5F5F5F5F5F5F5F5F5F5F5F5F5F5F5F5F5F5F5F5F5F5F5F5F5F5F5F5F5F5F5F5F5F5F5F5F5F5F5F5F5F5F5F5F5F5F5F5F5F5F5F5F5F5F5F5F5F5F5F5F5F5F5F5F5F5F5F5F5F5F5F5F5F5F5F5F5F5E2F5F5F5F5E2E2F5F5F5F5E2F5F5F5F5F5F5F5F5F5
310
F5F5F5F5F5F5F5F5F5F5F5F5F5F5F5F5F5F5F5F5F5F5F5F5F5F5F5F5F5F5F5F5F5F5F5F5F5F5F5F5F5F5F5F5F5F5F5F5F5F5F5F5F5F5F5F5F5F5F5F5F5F5F5F5F5F5F5F5F5F5F5F5F5F5F5F5F5F5F5F5F5F5F5F5F5F5F5F5F5F5F5F5F5F5F5F5F5F5F5F5F5F5F5F5F5F5F5F5F5F5F5F5F5F5F5F5F5F5F5F5F5F5F5F5F5F5F5
310
F5F5F5F5F5F5F5F5F5F5F5F5F5F5F5F5F5F5F5F5F5F5F5F5F5F5F5F5F5F5F5F5E2F5F5F5F5E2E2F5F5F5F5E2F5F5F5F5F5F5F5F5F5F5F5F5F5F5F5F5F5F5F5F5F5F5F5F5F5F5F5F5F5F5F5F5F5F5F5F5F5F5F5F5F5F5F5F5F5F5F5F5F5F5F5F5F5F5F5F5F5F5F5F5F5F5F5F5F5F5F5F5F5F5F5F5F5F5F5F5F5F5F5F5F5F5F5
310
F5F5F5F5F5F5F5F5F5F5F5F5F5F5F5F5F5F5F5F5F5F5F5F5F5F5F5F5F5F5F5F5F5F5F5F5F5F5F5F5F5F5F5F5F5F5F5F5F5F5F5F5F5F5F5F5F5F5F5F5F5F5F5F5F5F5F5F5F5F5F5F5F5F5F5F5F5F5F5F5F5F5F5F5F5E2F5F5F5F5E2E2F5F5F5F5E2F5F5F5F5F5F5F5F5F5F5F5F5F5F5F5F5F5F5F5F5F5F5F5F5F5F5F5F5F5F5
310
F5F5F5F5F5F5F5F5F5F5F5F5F5F5F5F5F5F5F5F5F5F5F5F5F5F5F5F5F5F5F5F5F5F5F5F5F5F5F5F5F5F5F5F5F5F5F5F5F5F5F5F5F5F5F5F5F5F5F5F5F5F5F5F5F5F5F5F5F5F5F5F5F5F5F5F5F5F5F5F5F5F5F5F5F5F5F5F5F5F5F5F5F5F5F5F5F5F5F5F5F5F5F5F5F5F5F5F5F5F5F5F5F5F5F5F5F5F5F5F5F5F5F5F5F5F5F5
310
F5F5F5F5F5F5F5F5F5F5F5E2F5F5F5F5E2E2F5F5F5F5E2F5F5F5F5F5F5F5F5F5F5F5F5F5F5F5F5F5F5F5F5F5F5F5F5F5F5F5F5F5F5F5F5F5F5F5F5F5F5F5F5F5F5F5F5F5F5F5F5F5F5F5F5F5F5F5F5F5F5F5F5F5F5F5F5F5F5F5F5F5F5F5F5F5F5F5F5F5F5F5F5F5F5F5F5F5F5F5F5F5F5F5F5F5F5F5F5F5F5F5F5F5F5F5F5
310
F5F5F5F5F5F5F5F5F5F5F5F5F5F5F5F5F5F5F5F5F5F5F5F5F5F5F5F5F5F5F5F5F5F5F5F5F5F5F5F5F5F5F5F5F5F5F5F5F5F5F5F5F5F5F5F5F5F5F5F5F5F5F5F5E2F5F5F5F5E2E2F5F5F5F5E2F5F5F5F5F5F5F5F5F5F5F5F5F5F5F5F5F5F5F5F5F5F5F5F5F5F5F5F5F5F5F5F5F5F5F5F5F5F5F5F5F5F5F5F5F5F5F5F5F5F5F5
310
F5F5F5F5F5F5F5F5F5F5F5F5F5F5F5F5F5F5F5F5F5F5F5F5F5F5F5F5F5F5F5F5F5F5F5F5F5F5F5F5F5F5F5F5F5F5F5F5F5F5F5F5F5F5F5F5F5F5F5F5F5F5F5F5F5F5F5F5F5F5F5F5F5F5F5F5F5F5F5F5F5F5F5F5F5F5F5F5F5F5F5F5F5F5F5F5F5F5F5F5F5F5F5F5F5F5F5F5F5F5F5F5F5F5F5F5F5E2F5F5F5F5E2E2F5F5F5
310
F5E2F5F5F5F5F5F5F5F5F5F5F5F5F5F5F5F5F5F5F5F5F5F5F5F5F5F5F5F5F5F5F5F5F5F5F5F5F5F5F5F5F5F5F5F5F5F5F5F5F5F5F5F5F5F5F5F5F5F5F5F5F5F5F5F5F5F5F5F5F5F5F5F5F5F5F5F5F5F5F5F5F5F5F5F5F5F5F5F5F5F5F5F5F5F5F5F5F5F5F5F5F5F5F5F5F5F5F5F5F5F5F5F5F5F5F5F5F5F5F5F5F5F5F5F5F5
310
F5F5F5F5F5F5F5F5F5F5F5F5F5F5F5F5F5F5F5F5F5F5F5F5F5F5F5F5F5F5F5F5F5F5F5F5F5F5F5F5F5F5F5E2F5F5F5F5E2E2F5F5F5F5E2F5F5F5F5F5F5F5F5F5F5F5F5F5F5F5F5F5F5F5F5F5F5F5F5F5F5F5F5F5F5F5F5F5F5F5F5F5F5F5F5F5F5F5F5F5F5F5F5F5F5F5F5F5F5F5F5F5F5F5F5F5F5F5F5F5F5F5F5F5F5F5F5
310
F5F5F5F5F5F5F5F5F5F5F5F5F5F5F5F5F5F5F5F5F5F5F5F5F5F5F5F5F5F5F5F5F5F5F5F5F5F5F5F5F5F5F5F5F5F5F5F5F5F5F5F5F5F5F5F5F5F5F5F5F5F5F5F5F5F5F5F5F5F5F5F5F5F5F5F5F5F5F5F5F5F5F5F5F5F5F5F5F5F5F5F5F5F5F5F5E2F5F5F5F5E2E2F5F5F5F5F5F5F5F5F5F5F5F5F5F5F5F5F5F5F5F5F5F5F5F5
310
F5F5F5F5F5F5F5F5F5F5F5F5F5F5F5F5F5F5F5F5F5F5F5F5F5F5F5F5F5F5F5F5F5F5F5F5F5F5F5F5F5F5F5F5F5F5F5F5F5F5F5F5F5F5F5F5F5F5F5F5F5F5F5F5F5F5F5F5F5F5F5F5F5F5F5F5F5F5F5F5F5F5F5F5F5F5F5F5F5F5F5F5F5F5F5F5F5F5F5F5F5F5F5F5F5F5F5F5F5F5F5F5F5F5F5F5F5F5F5F5F5F5F5F5F5F5F5
310
F5F5F5F5F5F5F5F5F5F5F5F5F5F5F5F5F5F5F5F5F5F5F5F5F5F5F5E2E2F5F5F5F5F5F5F5F5F5F5F5F5F5F5F5F5F5F5F5F5F5F5F5F5F5F5F5F5F5F5F5F5F5F5F5F5F5F5F5F5F5F5F5F5F5F5F5F5F5F5F5F5F5F5F5F5F5F5F5F5F5F5F5F5F5F5F5F5F5F5F5F5F5F5F5F5F5F5F5F5F5F5F5F5F5F5F5F5F5F5F5F5F5F5F5F5F5F5
310
F5F5F5F5F5F5F5F5F5F5F5F5F5F5F5F5F5F5F5F5F5F5F5F5F5F5F5F5F5F5F5F5F5F5F5F5F5F5F5F5F5F5F5F5F5F5F5F5F5F5F5F5F5F5F5F5F5F5F5F5F5F5F5F5F5F5F5F5F5F5F5F5F5F5F5F5F5F5F5F5E2E2F5F5F5F5F5F5F5F5F5F5F5F5F5F5F5F5F5F5F5F5F5F5F5F5F5F5F5F5F5F5F5F5F5F5F5F5F5F5F5F5F5F5F5F5F5
310
F5F5F5F5F5F5F5F5F5F5F5F5F5F5F5F5F5F5F5F5F5F5F5F5F5F5F5F5F5F5F5F5F5F5F5F5F5F5F5F5F5F5F5F5F5F5F5F5F5F5F5F5F5F5F5F5F5F5F5F5F5F5F5F5F5F5F5F5F5F5F5F5F5F5F5F5F5F5F5F5F5F5F5F5F5F5F5F5F5F5F5F5F5F5F5F5F5F5F5F5F5F5F5F5F5F5F5F5F5F5F5F5F5F5F5F5F5F5F5F5F5F5F5F5F5F5F5
310
F5F5F5F5F5F5E2E2F5F5F5F5F5F5F5F5F5F5F5F5F5F5F5F5F5F5F5F5F5F5F5F5F5F5F5F5F5F5F5F5F5F5F5F5F5F5F5F5F5F5F5F5F5F5F5F5F5F5F5F5F5F5F5F5F5F5F5F5F5F5F5F5F5F5F5F5F5F5F5F5F5F5F5F5F5F5F5F5F5F5F5F5F5F5F5F5F5F5F5F5F5F5F5F5F5F5F5F5F5F5F5F5F5F5F5F5F5F5F5F5F5F5F5F5F5F5F5
310
F5F5F5F5F5F5F5F5F5F5F5F5F5F5F5F5F5F5F5F5F5F5F5F5F5F5F5F5F5F5F5F5F5F5F5F5F5F5F5F5F5F5F5F5F5F5F5F5F5F5F5F5F5F5F5F5F5F5F5E2E2F5F5F5F5F5F5F5F5F5F5F5F5F5F5F5F5F5F5F5F5F5E2E2E2E2E2E2E2E2E2E2E2E2E2E2E2E2E2E2E2E2E2E2E2E2E2E2E2E2E2E2E2E2E2E2E2E2E2E2E2E2E2E2E2E2E2
310
E2E2E2E2E2E2E2E2E2E2E2E2E2E2E2E2E2E2E2E2E2E2E2E2E2E2E2E2E2E2E2E2E2E2E2E2E2E2E2E2E2E2E2E2E2E2E2E2E2E2E2E2E2E2E2E2E2E2E2E2E2E2E2E2E2E2E2E2E2E2E2E2E2E2E2E2E2E2E2E2E2E2E2E2E2E2E2E2E2E2E2F5F5F5F5F5F5F5F5F5F5F5F5F5F5F5F5F5F5F5F5F5E2E2F5F5F5F5F5F5F5F5F5F5F5F5F5
310
F5F5F5F5F5F5F5F5E22D2D2D2D2D2D2D2D2D2D2D2DF5F5F5F5F5F5F5F5F5F5F5F5F5F5F5E2F5F5F5F5F5F5F5F5F5F5F5F5F5F5F5F5F5F5F5F5F5F5F5F5F5F5F5F5F5F5F5F5F5F5F5F5F5F5F5F5F5F5F5F5F5F5F5F5F5F5F5F5F5F5F5F5F5F5F5F5F5F5F5F5F5F5F5F5F5F5F5F5F5F5F5F5F5F5F5F5F5F5F5F5F5F5F5F5F5F5
310
F5F5F5F5F5F5F5F5F5F5F5F5F5F5F5F5E2F5F5F5F5F5F5F5F5F5F5F5F5F5F5F5F5F5F5F5F5F5E2E2F5F5F5F5F5F5F5F5F5F5F5F5F5F5F5F5F5F5F5F5F5E22D2D2DF5F5E2F5F5F5F5F52DF5F5F5F5F5F5F5F5F5F5F5F5F5F5F5E2F5F5F5F5F5F5F5F5F5F5F5F5F5F5F5F5F5F5F5F5F5F5F5F5F5F5F5F5F5F5F5F5F5F5F5F5F5
310
F5F5F5F5F5F5F5F5F5F5F5F5F5F5F5F5F5F5F5F5F5F5F5F5F5F5F5F5F5F5F5F5F5F5F5F5F5F5F5F5F5F5F5F5F5F5F5F5F5F5F5F5F5F5F5F5F5F5F5F5F5F5F5F5F5F5F5F5F5E2F5F5F5F5F5F5F5F5F5F5F5F5F5F5F5F5F5F5F5F5F5E2E2F5F5F5F5F5F5F5F5F5F5F5F5F5F5F5F5F5F5F5F5F5E2DCF52DF5F5E2F5F5F5F5F52D
310
F5F5F5F5F5F5F5F5F5F5F5F5F5F5F5E2F5F5F5F5F5F5F5F5F5F5F5F5F5F5F5F5F5F5F5F5F5F5F5F5F5F5F5F5F5F5F5F5F5F5F5F5F5F5F5F5F5F5F5F5F5F5F5F5F5F5F5F5F5F5F5F5F5F5F5F5F5F5F5F5F5F5F5F5F5F5F5F5F5F5F5F5F5F5F5F5F5F5F5F5F5F5F5F5F5F5F5F5F5F5F5F5F5F5F5F5F5F5F5F5F5F5E2F5F5F5F5
310
F5F5F5F5F5F5F5F5F5F5F5F5F5F5F5F5F5E2E2F5F5F5F5F5F5F5F5F5F5F5F5F5F5F5F5F5F5F5F5F5E2BEF52D2D2D2D2D2D2D2DE2E2E2E2E2E2E2E2E2E2E2E2E2E2E2E2E2E2F5F5F5F5F5F5F5F5F5F5F5F5F5F5F5F5F5F5F5F5F5F5F5F5F5F5F5F5F5F5F5F5F5F5F5F5F5F5F5F5F5F5F5F5F5F5F5F5F5F5F5F5F5F5F5F5F5F5
310
F5F5F5F5F5F5F5F5F5F5F5F5F5F5F5F5F5F5F5F5F5F5F5F5F5F5F5F5F5F5F5F5F5F5F5F5F5F5F5F5F5F5F5F5F5F5F5F5E2F5F5F5F5F5F5F5F5F5F5F5F5F5F5F5F5F5F5F5F5F5E2E2F5F5F5F5E2F5F5F5F5F5F5F5F5F5F5F5F5F5F5F5F5E2DCF5F5F5F5E2F5F5F5F5F5E2F5F5F5F5F5F5F5F5F5F5F5F5F5F5F5F5F5F5F5F5F5
310
F5F5F5F5F5F5F5F5F5F5F5F5F5F5F5F5F5F5F5F5F5F5F5F5F5F5F5F5F5F5F5F5F5F5F5F5F5F5F5F5F5F5F5F5F5F5F5F5F5F5F5F5F5F5F5F5F5F5F5F5F5F5F5F5F5F5F5F5F5F5F5F5F5F5F5F5F5F5F5F5F5F5F5F5F5F5F5F5F5F5F5F5F5F5F5F5F5F5F5F5F5E2F5F5F5F5F5F5F5F5F5F5F5F5F5F5F5F5E2F5F5F5F5E2E2F5F5
310
F5F5E2F5F5F5F5F5F5F5F5F5F5F5F5F5F5F5F5E2F5F5F5F5F5E2F5F5F5F5F5E2F5F5F5F5F5F5F5F5F5F5F5F5F5F5F5F5F5F5F5F5F5F5F5F5F5F5F5F5F5F5F5F5F5F5F5F5F5F5F5F5F5F5F5F5F5F5F5F5F5F5F5F5F5F5F5F5F5F5F5F5F5F5F5F5F5F5F5F5F5F5F5F5F5F5F5F5F5F5F5F5F5F5F5F5F5F5F5F5F5F5F5F5F5F5F5
310
F5F5F5F5F5F5F5F5F5F5F5F5F5F5F5F5F5F5F5F5F5F5F5F5F5F5F5E2F5F5F5F5F5F5F5F5F5F5F5F5F5F5F5F5E2F5F5F5F5E2E2F5F5F5F5E2F5F5F5F5F5F5F5F5F5F5F5F5F5F5F5F5E2F5F5F5F5F5E2F5F5F5F5F5E2F5F5F5F5F5F5F5F5F5F5F5F5F5F5F5F5F5F5F5F5F5F5F5F5F5F5F5F5F5F5F5F5F5F5F5F5F5F5F5F5F5F5
310
F5F5F5F5F5F5F5F5F5F5F5F5F5F5F5F5F5F5F5F5F5F5F5F5F5F5F5F5F5F5F5F5F5F5F5F5F5F5F5F5F5F5F5F5F5F5F5F5F5F5F5F5F5F5F5F5F5F5F5F5F5F5F5F5F5F5F5F5F5F5F5F5F5F5F5F5F5F5F5F5E2F5F5F5F5F5F5F5F5F5F5F5F5F5F5F5F5E2F5F5F5F5E2E2F5F5F5F5E2F5F5F5F5F5F5F5F5F5F5F5F5F5F5F5F5E2F5
310
F5F5F5F5E2F5F5F5F5F5E2F5F5F5F5F5F5F5F5F5F5F5F5F5F5F5F5F5F5F5F5F5F5F5F5F5F5F5F5F5F5F5F5F5F5F5F5F5F5F5F5F5F5F5F5F5F5F5F5F5F5F5F5F5F5F5F5F5F5F5F5F5F5F5F5F5F5F5F5F5F5F5F5F5F5F5F5F5F5F5F5F5F5F5F5F5F5F5F5F5F5F5F5F5F5F5F5F5F5F5F5F5F5F5F5F5F5F5F5F5F5F5F5F5F5F5F5
310
F5F5F5F5F5F5E2F5F5F5F5F5F5F5F5F5F5F5F5F5F5F5F5E2F5F5F5F5E2E2F5F5F5F5E2F5F5F5F5F5F5F5F5F5F5F5F5F5F5F5F5E2E2E2E2E2E2E2F5F5F5F5F5E2F5F5F5F5F5F5F5F5F5F5F5F5F5F5F5F5F5F5F5F5F5F5F5F5F5F5F5F5F5F5F5F5F5F5F5F5F5F5F5F5F5F5F5F5F5F5F5F5F5F5F5F5F5F5F5F5F5F5F5F5F5F5F5
310
F5F5F5F5F5F5F5F5F5F5F5F5F5F5F5F5F5F5F5F5F5F5F5F5F5F5F5F5F5F5F5F5F5F5F5F5F5F5F5F5F5F5F5F5F5F5F5F5F5F5F5F5F5F5F5F5F5F5F5E2F5F5F5F5F5F5F5F5F5F5F5F5F5F5F5F5E2F5F5F5F5E2E2F5F5F5F5E2F5F5F5F5F5F5F5F5F5F5F5F5F5F5F5F5E2E2E2E2F5E2E2F5F5F5F5F5E2F5F5F5F5F5F5F5F5F5F5
310
F5F5F5F5F5F5F5F5F5F5F5F5F5F5F5F5F5F5F5F5F5F5F5F5F5F5F5F5F5F5F5F5F5F5F5F5F5F5F5F5F5F5F5F5F5F5F5F5F5F5F5F5F5F5F5F5F5F5F5F5F5F5F5F5F5F5F5F5F5F5F5F5F5F5F5F5F5F5F5F5F5F5F5F5F5F5F5F5F5F5F5F5F5F5F5F5F5F5F5F5F5F5F5F5F5F5F5F5F5F5F5F5E2F5F5F5F5F5F5F5F5F5F5F5F5F5F5
310
F5F5E2F5F5F5F5E2E2F5F5F5F5E2F5F5F5F5F5F5F5F5F5F5F5F5F5F5F5F5E2E2E2E2F5F5F5F5F5F5F5F5E2F5F5F5F5F5F5F5F5F5F5F5F5F5F5F5F5F5F5F5F5F5F5F5F5F5F5F5F5F5F5F5F5F5F5F5F5F5F5F5F5F5F5F5F5F5F5F5F5F5F5F5F5F5F5F5F5F5F5F5F5F5F5F5F5F5F5F5F5F5F5F5F5F5F5F5F5F5F5F5F5F5F5F5F5
310
F5F5F5F5F5F5F5F5F5F5F5F5F5F5F5F5F5F5F5F5F5F5F5F5F5F5F5F5F5F5F5F5F5F5F5F5F5F5E2F5F5F5F5F5F5F5F5F5F5F5F5F5F5F5F5E2F5F5F5F5E2E2F5F5F5F5E2F5F5F5F5F5F5F5F5F5F5F5F5F5F5F5F5E2F5F5F5F5F5F5F5F5F5F5F5E2F5F5F5F5F5F5F5F5F5F5F5F5F5F5F5F5F5F5F5F5F5F5F5F5F5F5F5F5F5F5F5
310
F5F5F5F5F5F5F5F5F5F5F5F5F5F5F5F5F5F5F5F5F5F5F5F5F5F5F5F5F5F5F5F5F5F5F5F5F5F5F5F5F5F5F5F5F5F5F5F5F5F5F5F5F5F5F5F5F5F5F5F5F5F5F5F5F5F5F5F5F5F5F5F5F5F5F5F5F5F5F5F5F5F5F5F5F5F5F5F5F5F5F5E2F5F5F5F5F5F5F5F5F5F5F5F5F5F5F5F5E2F5F5F5F5E2E2F5F5F5F5E2F5F5F5F5F5F5F5
310
F5F5F5F5F5F5F5F5F5E2E2E2E2E2E2E2E2E2E2E2E2E2F5F5F5F5F5F5F5F5F5F5F5F5F5F5F5F5F5F5F5F5F5F5F5F5F5F5F5F5F5F5F5F5F5F5F5F5F5F5F5F5F5F5F5F5F5F5F5F5F5F5F5F5F5F5F5F5F5F5F5F5F5F5F5F5F5F5F5F5F5F5F5F5F5F5F5F5F5F5F5F5F5F5F5F5F5F5F5F5F5F5F5F5F5F5F5F5F5F5F5F5F5F5F5F5F5
310
F5F5F5F5F5F5F5F5F5F5F5F5F5F5F5F5F5E2F5F5F5F5F5F5F5F5F5F5F5F5F5F5F5F5E2F5F5F5F5E2E2F5F5F5F5E2F5F5F5F5F5F5F5F5F5F5F5F5F5F5F5F5E2E2E2F5F5F5F5F5F5F5F5F5F5F5F5F5F5F5F5F5F5F5F5F5F5F5F5F5F5F5F5F5F5F5F5F5F5F5F5F5F5F5F5F5F5F5F5F5F5F5F5F5F5F5F5F5F5F5F5F5F5F5F5F5F5
310
F5F5F5F5F5F5F5F5F5F5F5F5F5F5F5F5F5F5F5F5F5F5F5F5F5F5F5F5F5F5F5F5F5F5F5F5F5F5F5F5F5F5F5F5F5F5F5F5F5F5F5F5F5F5F5F5F5F5F5F5F5F5F5F5F5F5F5F5F5F5E2F5F5F5F5F5F5F5F5F5F5F5F5F5F5F5F5E2F5F5F5F5E2E2F5F5F5F5E2F5F5F5F5F5F5F5F5F5F5F5F5F5F5F5F5E2E2E2F5F5F5F5F5F5F5F5F5
310
F5F5F5F5F5F5F5F5F5F5F5F5F5F5F5F5F5F5F5F5F5F5F5F5F5F5F5F5F5F5F5F5F5F5F5F5F5F5F5F5F5F5F5F5F5F5F5F5F5F5F5F5F5F5F5F5F5F5F5F5F5F5F5F5F5F5F5F5F5F5F5F5F5F5F5F5F5F5F5F5F5F5F5F5F5F5F5F5F5F5F5F5F5F5F5F5F5F5F5F5F5F5F5F5F5F5F5F5F5F5F5F5F5F5F5F5F5F5F5F5F5F5F5E2F5F5F5
310
F5F5F5F5F5F5F5F5F5F5F5F5F5E2F5F5F5F5E2E2F5F5F5F5E2F5F5F5F5F5F5F5F5F5F5F5F5F5F5F5F5E2F5F5F5F5F5F5F5F5F5F5F5F5F5F5F5F5F5F5F5F5F5F5F5F5F5F5F5F5F5F5F5F5F5F5F5F5F5F5F5F5F5F5F5F5F5F5F5F5F5F5F5F5F5F5F5F5F5F5F5F5F5F5F5F5F5F5F5F5F5F5F5F5F5F5F5F5F5F5F5F5F5F5F5F5F5
310
F5F5F5F5F5F5F5F5F5F5F5F5F5F5F5F5F5F5F5F5F5F5F5F5F5F5F5F5F5F5F5F5F5F5F5F5F5F5F5F5F5F5F5F5F5F5F5F5F5E2F5F5F5F5F5F5F5F5F5F5F5F5F5F5F5F5E2F5F5F5F5E2E2F5F5F5F5E2F5F5F5F5F5F5F5F5F5F5F5F5F5F5F5F5E2F5F5F5F5F5F5F5F5F5F5F5F5F5F5F5F5F5F5F5F5F5F5F5F5F5F5F5F5F5F5F5F5
310
F5F5F5F5F5F5F5F5F5F5F5F5F5F5F5F5F5F5F5F5F5F5F5F5F5F5F5F5F5F5F5F5F5F5F5F5F5F5F5F5F5F5F5F5F5F5F5F5F5F5F5F5F5F5F5F5F5F5F5F5F5F5F5F5F5F5F5F5F5F5F5F5F5F5F5F5F5F5F5F5F5F5F5F5F5F5F5F5F5F5F5F5F5F5F5F5F5F5F5F5F5F5E2F5F5F5F5F5F5F5F5F5F5F5F5F5F5F5F5E2F5F5F5F5E2E2F5
310
F5F5F5E2F5F5F5F5F5F5F5F5F5F5F5F5F5F5F5F5E20F0F0F0F0F0F0F0F0F0F0FF5F5F5F5F5F5F5F5F5F5F5F5F5F5F5F5F5F5F5F5F5F5F5F5F5F5F5F5F5F5F5F5F5F5F5F5F5F5F5F5F5F5F5F5F5F5F5F5F5F5F5F5F5F5F5F5F5F5F5F5F5F5F5F5F5F5F5F5F5F5F5F5F5F5F5F5F5F5F5F5F5F5F5F5F5F5F5F5F5F5F5F5F5F5F5
310
F5F5F5F5F5F5F5F5F5F5F5F5F5F5F5F5F5F5F5F5F5F5F5F5F5F5F5F5E2F5F5F5F5F5F5F5F5F5F5F5F5F5F5F5F5E2F5F5F5F5E2E2F5F5F5F5E2F5F5F5F5F5F5F5F5F5F5F5F5F5F5F5F5E20F0F0F0F0F0F0F0F0F0F0FF5F5F5F5F5F5F5F5F5F5F5F5F5F5F5F5F5F5F5F5F5F5F5F5F5F5F5F5F5F5F5F5F5F5F5F5F5F5F5F5F5F5
310
F5F5F5F5F5F5F5F5F5F5F5F5F5F5F5F5F5F5F5F5F5F5F5F5F5F5F5F5F5F5F5F5F5F5F5F5F5F5F5F5F5F5F5F5F5F5F5F5F5F5F5F5F5F5F5F5F5F5F5F5F5F5F5F5F5F5F5F5F5F5F5F5F5F5F5F5F5F5F5F5F5E2F5F5F5F5F5F5F5F5F5F5F5F5F5F5F5F5E2F5F5F5F5E2E2F5F5F5F5E2F5F5F5F5F5F5F5F5F5F5F5F5F5F5F5F5E2
310
0F0F0F0F0F0F0F0F0F0FF5F5F5F5F5F5F5F5F5F5F5F5F5F5F5F5F5F5F5F5F5F5F5F5F5F5F5F5F5F5F5F5F5F5F5F5F5F5F5F5F5F5F5F5F5F5F5F5F5F5F5F5F5F5F5F5F5F5F5F5F5F5F5F5F5F5F5F5F5F5F5F5F5F5F5F5F5F5F5F5F5F5F5F5F5F5F5F5F5F5F5F5F5F5F5F5F5F5F5F5F5F5F5F5F5F5F5F5F5F5F5F5F5F5F5F5F5
310
F5F5F5F5F5F5F5E2F5F5F5F5F5F5F5F5F5F5F5F5F5F5F5F5E2F5F5F5F5E2E2F5F5F5F5E2F5F5F5F5F5F5F5F5F5F5F5F5F5F5F5F5E2F5F5F5F5F5F5F5F5F5F5F5F5F5F5F5F5F5F5F5F5F5F5F5F5F5F5F5F5F5F5F5F5F5F5F5F5F5F5F5F5F5F5F5F5F5F5F5F5F5F5F5F5F5F5F5F5F5F5F5F5F5F5F5F5F5F5F5F5F5F5F5F5F5F5
310
F5F5F5F5F5F5F5F5F5F5F5F5F5F5F5F5F5F5F5F5F5F5F5F5F5F5F5F5F5F5F5F5F5F5F5F5F5F5F5F5F5F5F5F5F5F5F5F5F5F5F5F5F5F5F5F5F5F5F5F5E2F5F5F5F5F5F5F5F5F5F5F5F5F5F5F5F5E2F5F5F5F5E2E2F5F5F5F5F5F5F5F5F5F5F5F5F5F5F5F5F5F5F5F5F5E2F5F5F5F5F5F5F5F5F5F5F5F5F5F5F5F5F5F5F5F5F5
310
F5F5F5F5F5F5F5F5F5F5F5F5F5F5F5F5F5F5F5F5F5F5F5F5F5F5F5F5F5F5F5F5F5F5F5F5F5F5F5F5F5F5F5F5F5F5F5F5F5F5F5F5F5F5F5F5F5F5F5F5F5F5F5F5F5F5F5F5F5F5F5F5F5F5F5F5F5F5F5F5F5F5F5F5F5F5F5F5F5F5F5F5F5F5F5F5F5F5F5F5F5F5F5F5F5F5F5F5F5F5F5F5F5E2F5F5F5F5F5F5F5F5F5F5F5F5F5
310
F5F5F5F5F5F5F5F5E2E2F5F5F5F5F5F5F5F5F5F5F5F5F5F5F5F5F5F5F5F5F5E2F5F5F5F5F5F5F5F5F5F5F5F5F5F5F5F5F5F5F5F5F5F5F5F5F5F5F5F5F5F5F5F5F5F5F5F5F5F5F5F5F5F5F5F5F5F5F5F5F5F5F5F5F5F5F5F5F5F5F5F5F5F5F5F5F5F5F5F5F5F5F5F5F5F5F5F5F5F5F5F5F5F5F5F5F5F5F5F5F5F5F5F5F5F5F5
310
F5F5F5F5F5F5F5F5F5F5F5F5F5F5F5F5F5F5F5F5F5F5F5F5F5F5F5F5F5F5F5F5F5F5F5F5F5F5F5E2F5F5F5F5F5F5F5F5F5F5F5F5F5F5F5F5F5F5F5F5F5E2E2F5F5F5F5F5F5F5F5F5F5F5F5F5F5F5F5F5F5F5F5F5E2F5F5F5F5F5F5F5F5F5F5F5F5F5F5F5F5F5F5F5F5F5F5F5F5F5F5F5F5F5F5F5F5F5F5F5F5F5F5F5F5F5F5
310
F5F5F5F5F5F5F5F5F5F5F5F5F5F5F5F5F5F5F5F5F5F5F5F5F5F5F5F5F5F5F5F5F5F5F5F5F5F5F5F5F5F5F5F5F5F5F5F5F5F5F5F5F5F5F5F5F5F5F5F5F5F5F5F5F5F5F5F5F5F5F5F5F5F5F5F5F5F5F5F5F5F5F5F5F5F5F5F5F5F5F5F5E2F5F5F5F5F5F5F5F5F5F5F5F5F5F5F5F5F5F5F5F5F5E2E2F5F5F5F5F5F5F5F5F5F5F5
310
F5F5F5F5F5F5F5F5F5F5E2F5F5F5F5F5F5F5F5F5F5F5F5F5F5F5F5F5F5F5F5F5F5F5F5F5F5F5F5F5F5F5F5F5F5F5F5F5F5F5F5F5F5F5F5F5F5F5F5F5F5F5F5F5F5F5F5F5F5F5F5F5F5F5F5F5F5F5F5F5F5F5F5F5F5F5F5F5F5F5F5F5F5F5F5F5F5F5F5F5F5F5F5F5F5F5F5F5F5F5F5F5F5F5F5F5F5F5F5F5F5F5F5F5F5F5F5
310
F5F5F5F5F5F5F5F5F5F5F5F5F5F5F5F5F5F5E2F5F5F5F5F5F5F5F5F5F5F5F5F5F5F5F5F5F5F5F5F5E2E2F5F5F5F5F5F5F5F5F5F5F5F5F5F5F5F5F5F5F5F5F5E2F5F5F5F5F5F5F5F5F5F5F5F5F5F5F5F5F5F5F5F5F5F5F5F5F5F5F5F5F5F5F5F5F5F5F5F5F5F5F5F5F5F5F5F5F5F5F5F5F5F5F5F5F5F5F5F5F5F5F5F5F5F5F5
310
F5F5F5F5F5F5F5F5F5F5F5F5F5F5F5F5F5F5F5F5F5F5F5F5F5F5F5F5F5F5F5F5F5F5F5F5F5F5F5F5F5F5F5F5F5F5F5F5F5F5F5F5F5F5F5F5F5F5F5F5F5F5F5F5F5F5F5F5F5F5F5E2F5F5F5F5F5F5F5F5F5F5F5F5F5F5F5F5F5F5F5F5F5E2E2F5F5F5F5F5F5F5F5F5F5F5F5F5F5F5F5F5F5F5F5F5E2F5F5F5F5F5F5F5F5F5F5
310
F5F5F5F5F5F5F5F5F5F5F5F5F5F5F5F5F5F5F5F5F5F5F5F5F5F5F5F5F5F5F5F5F5F5F5F5F5F5F5F5F5F5F5F5F5F5F5F5F5F5F5F5F5F5F5F5F5F5F5F5F5F5F5F5F5F5F5F5F5F5F5F5F5F5F5F5F5F5F5F5F5F5F5F5F5F5F5F5F5F5F5F5F5F5F5F5F5F5F5F5F5F5F5F5F5F5F5F5F5F5F5F5F5F5F5F5F5F5F5F5F5F5F5F5E2F5F5
310
F5F5F5F5F5F5F5F5F5F5F5F5F5F5F5F5F5F5F5E2E2F5F5F5F5F5F5F5F5F5F5F5F5F5F5F5F5F5F5F5F5F5E2F5F5F5F5F5F5F5F5F5F5F5F5F5F5F5F5F5F5F5F5F5F5F5F5F5F5F5F5F5F5F5F5F5F5F5F5F5F5F5F5F5F5F5F5F5F5F5F5F5F5F5F5F5F5F5F5F5F5F5F5F5F5F5F5F5F5F5F5F5F5F5F5F5F5F5F5F5F5F5F5F5F5F5F5
310
F5F5F5F5F5F5F5F5F5F5F5F5F5F5F5F5F5F5F5F5F5F5F5F5F5F5F5F5F5F5F5F5F5F5F5F5F5F5F5F5F5F5F5F5F5F5F5F5F5F5E2F5F5F5F5F5F5F5F5F5F5F5F5F5F5F5F5F5F5F5F5F5E2E2F5F5F5F5F5F5F5F5F5F5F5F5F5F5F5F5F5F5F5F5F5E2F5F5F5F5F5F5F5F5F5F5F5F5F5F5F5F5F5F5F5F5F5F5F5F5F5F5F5F5F5F5F5
310
F5F5F5F5F5F5F5F5F5F5F5F5F5F5F5F5F5F5F5F5F5F5F5F5F5F5F5F5F5F5F5F5F5F5F5F5F5F5F5F5F5F5F5F5F5F5F5F5F5F5F5F5F5F5F5F5F5F5F5F5F5F5F5F5F5F5F5F5F5F5F5F5F5F5F5F5F5F5F5F5F5F5F5F5F5F5F5F5F5F5F5F5F5F5F5F5F5F5F5F5F5F5F5E2F5F5F5F5F5F5F5F5F5F5F5F5F5F5F5F5F5F5F5F5F5E2E2
310
F5F5F5F5F5F5F5F5F5F5F5F5F5F5F5F5F5F5F5F5F5E2F5F5F5F5F5F5F5F5F5F5F5F5F5F5F5F5F5F5F5F5F5F5F5F5F5F5F5F5F5F5F5F5F5F5F5F5F5F5F5F5F5F5F5F5F5F5F5F5F5F5F5F5F5F5F5F5F5F5F5F5F5F5F5F5F5F5F5F5F5F5F5F5F5F5F5F5F5F5F5F5F5F5F5F5F5F5F5F5F5F5F5F5F5F5F5F5F5F5F5F5F5F5F5F5F5
310
F5F5F5F5F5F5F5F5F5F5F5F5F5F5F5F5F5F5F5F5F5F5F5F5F5F5F5F5F5E2F5F5F5F5F5F5F5F5F5F5F5F5F5F5F5F5F5F5F5F5F5E2E2F5F5F5F5E2F5F5F5F5F5F5F5F5F5F5F5F5F5F5F5F5E2F5F5F5F5F5F5F5F5F5F5F5F5F5F5F5F5F5F5F5F5F5F5F5F5F5F5F5F5F5F5F5F5F5F5F5F5F5F5F5F5F5F5F5F5F5F5F5F5F5F5F5F5
310
F5F5F5F5F5F5F5F5F5F5F5F5F5F5F5F5F5F5F5F5F5F5F5F5F5F5F5F5F5F5F5F5F5F5F5F5F5F5F5F5F5F5F5F5F5F5F5F5F5E2F0E2E2F5F5F5F5F5F5E2F0E2E2F5DCF5F5F5F5F5F5F0F0E2F5F5F5F5F5F5F5F5E2F5F5F5F5F5F5F5F5F5F5F5F5F5F5F5F5E2F5F5F5F5E2E2F5F5F5F5E2F5F5F5F5F5F5F5F5F5F5F5F5F5F5F5F5
310
E2F5F5F5F5F5F5F5F5F5F5F5F5F5F5F5F5F5F5F5F5F5F5F5F5F5F5F5F5F5F5F5F5F5F5F5F5F5F5F5F5F5F5F5F5F5F5F5F5F5F5F5F5F5F5F5F5F5F5F5F5F5F5F5F5F5F5F5F5F5F5F5F5F5F5F5F5F5F5F5F5F5F5F5F5F5F5F5F5F5F5F5F5F5F5F5F5F5F5F5F5E2DCDCF0F5E2F5F5F5F5F5E2F5F0E2E2DCF5F5F5F5F5E2F0F0F5
310
E2F5F5F5E2E2E2F5E2F5F5F5F5F5F5F5F5F5F5F5F5F5F5F5F5E2F5F5F5F5E2E2F5F5F5F5E2F5F5F5F5F5F5F5F5F5F5F5F5F5F5F5F5E2F5F5F5F5F5F5F5F5F5F5F5F5F5F5F5F5F5F5F5F5F5F5F5F5F5F5F5F5F5F5F5F5F5F5F5F5F5F5F5F5F5F5F5F5F5F5F5F5F5F5F5F5F5F5F5F5F5F5F5F5F5F5F5F5F5F5F5F5F5F5F5F5F5
310
F5F5F5F5F5F5F5F5F5F5F5F5F5F5F5F5F5F5F5F5F5F5F5F5F5F5E2F0DCF0DCE2E2E2F5F5F5E2E2F0F0F0E2DCF5F5F5F5E2F0F0F0E2E2F0E2E2E2E2E2E2E2F5F5F5F5F5F5F5F5F5F5F5F5F5F5F5F5E2F5F5F5F5E2E2F5F5F5F5E2F5F5F5F5F5F5F5F5F5F5F5F5F5F5F5F5E2F5F5F5F5F5F5F5F5F5F5F5F5F5F5F5F5F5F5F5F5
310
F5F5F5F5F5F5F5F5F5F5F5F5F5F5F5F5F5F5F5F5F5F5F5F5F5F5F5F5F5F5F5F5F5F5F5F5F5F5F5F5F5F5F5F5F5F5F5F5F5F5F5F5F5F5F5F5F5F5F5F5F5F5F5F5F5F5F5F5F5F5F5F5F5F5F5F5F5F5F5E2F0DCF0DCF0F0E2F5F5F5E2F0DCE2E2E2DCF5F5F5F5F0F0F0F0E2E2F0E2F5E2E2E2E2E2F5F5F5F5F5F5F5F5F5F5F5F5
310
F5F5F5F5E2F5F5F5F5E2E2F5F5F5F5E2F5F5F5F5F5F5F5F5F5F5F5F5F5F5F5F5E2F5F5F5F5F5F5F5F5F5F5F5F5F5F5F5F5F5F5F5F5F5F5F5F5F5F5F5F5F5F5F5F5F5F5F5F5F5F5F5F5F5F5F5F5F5F5F5F5F5F5F5F5F5F5F5F5F5F5F5F5F5F5F5F5F5F5F5F5F5F5F5F5F5F5F5F5F5F5F5F5F5F5F5F5F5F5F5F5F5F5F5F5F5F5
310
F5F5F5F5F5F5E2DCDCDCF0E2F5F5F5F5F5F0DCDCE2E2DCF5F5F5F5F5F0F0F0DCE2F0F5E2E2E2E2F5E2F5F5F5F5F5F5F5F5F5F5F5F5F5F5F5F5E2F5F5F5F5E2E2F5F5F5F5E2F5F5F5F5F5F5F5F5F5F5F5F5F5F5F5F5E2F5F5F5F5F5F5F5F5F5F5F5F5F5F5F5F5F5F5F5F5F5F5F5F5F5F5F5F5F5F5F5F5F5F5F5F5F5F5F5F5F5
310
F5F5F5F5F5F5F5F5F5F5F5F5F5F5F5F5F5F5F5F5F5F5F5F5F5F5F5F5F5F5F5F5F5F5F5F5F5F5F5F5F5F5F5F5F5F5F5F5F5F5F5F5F5F5F5F5F5F5F5E2F0F0F0E2F5F5F5F5F5E2F0E2E2E2E2DCF5F5F5F5F5F0F0E2E2F5F5F5F5E2E2E2F5E2F5F5F5F5F5F5F5F5F5F5F5F5F5F5F5F5E2F5F5F5F5E2E2F5F5F5F5E2F5F5F5F5F5
310
F5F5F5F5F5F5F5F5F5F5F5E2F5F5F5F5F5F5F5F5F5F5F5F5F5F5F5F5F5F5F5F5F5F5F5F5F5F5F5F5F5F5F5F5F5F5F5F5F5F5F5F5F5F5F5F5F5F5F5F5F5F5F5F5F5F5F5F5F5F5F5F5F5F5F5F5F5F5F5F5F5F5F5F5F5F5F5F5F5F5F5F5F5F5F5F5F5F5F5F5F5F5F5F5F5F5F5F5F5F5F5F5F5F5E2E2F5F5F5F5F5F5F5F5E2E2F5
310
F5DCF5F5F5F5F5F5F5F0E2F5F5F5F5F5E2F5F5E2F5F5F5F5F5F5F5F5F5F5F5F5F5F5F5F5E2F5F5F5F5E2E2F5F5F5F5E2F5F5F5F5F5F5F5F5F5F5F5F5F5F5F5F5E2F5F5F5F5F5F5F5F5F5F5F5F5F5F5F5F5F5F5F5F5F5F5F5F5F5F5F5F5F5F5F5F5F5F5F5F5F5F5F5F5F5F5F5F5F5F5F5F5F5F5F5F5F5F5F5F5F5F5F5F5F5F5
310
F5F5F5F5F5F5F5F5F5F5F5F5F5F5F5F5F5F5F5F5F5F5F5F5F5F5F5F5F5F5F5F5F5F5F5F5F5F5F5F5F5F5F5F5F5F5F5F5F5F5F5F5F5F5DCF5F5F5F5F5F5F5F5F5F5F5F5F5F5F5F5F5E2F5F5F5F5F5F5F5F5F5F5F5F5F5F5F5F5E2F5F5F5F5E2E2F5F5F5F5E2F5F5F5F5F5F5F5F5F5F5F5F5F5F5F5F5E2F5F5F5F5F5F5F5F5F5
310
F5F5F5F5F5F5F5F5F5F5F5F5F5F5F5F5F5F5F5F5F5F5F5F5F5F5F5F5F5F5F5F5F5F5F5F5F5F5F5F5F5F5F5F5F5F5F5F5F5F5F5F5F5F5F5F5F5F5F5F5F5F5F5F5F5F5F5F5F5F5F5F5F5F5F5F5F5F5F5F5F5F5F5F5F5F5F5F5F5F5F5F5F5F5F5F5F5F5F5F5F5F5F5F5F5F5F5DCF5F5F5F5F5F5F5F5F5F5F5F5F5F5F5F5F5E2F5
310
F5F5F5F5F5F5F5F5F5F5F5F5F5F5F5E2F5F5F5F5E2E2F5F5F5F5E2F5F5F5F5F5F5F5F5F5F5F5F5F5F5F5F5E2F5F5F5F5F5F5F5F5F5F5F5F5F5F5F5F5F5F5F5F5F5F5F5F5F5F5F5F5F5F5F5F5F5F5F5F5F5F5F5F5F5F5F5F5F5F5F5F5F5F5F5F5F5F5F5F5F5F5F5F5F5F5F5F5F5F5F5F5F5F5F5F5F5F5F5F5F5F5F5F5F5F5F5
310
F5F5F5F5F5F5F5F5F5F5F5F5F5F5F5F5F5F5F5F5F5F5F5F5F5F5F5F5F5F5F5F5F5DCF5F5F5F5F5F5F5F5F5F5F5F5F5F5F5F5F5E2F5F5F5F5F5F5F5F5F5F5F5F5F5F5F5F5E2F5F5F5F5E2E2F5F5F5F5E2F5F5F5F5F5F5F5F5F5F5F5F5F5F5F5F5E2F5F5F5F5F5F5F5F5F5F5F5F5F5F5F5F5F5F5F5F5F5F5F5F5F5F5F5F5F5F5
310
F5F5F5F5F5F5F5F5F5F5F5F5F5F5F5F5F5F5F5F5F5F5F5F5F5F5F5F5F5F5F5F5F5F5F5F5F5F5F5F5F5F5F5F5F5F5F5F5F5F5F5F5F5F5F5F5F5F5F5F5F5F5F5F5F5F5F5F5F5F5F5F5F5F5F5F5F5F5F5F5F5F5F5F5F5F5DCF5F5F5F5F5F5F5F5F5F5F5F5F5F5F5F5F5E2F5F5F5F5F5F5F5F5F5F5F5F5F5F5F5F5E2F5F5F5F5E2
310
E2F5F5F5F5E2F5F5F5F5F5F5F5F5F5F5F5F5F5F5F5F5E2F5F5F5F5F5F5F5F5F5F5F5F5F5F5F5F5F5F5F5F5F5F5F5F5F5F5F5F5F5F5F5F5F5F5F5F5F5F5F5F5F5F5F5F5F5F5F5F5F5F5F5F5F5F5F5F5F5F5F5F5F5F5F5F5F5F5F5F5F5F5F5F5F5F5F5F5F5F5F5F5F5F5F5F5F5F5F5F5F5F5F5F5F5F5F5F5F5F5F5F5F5F5F5F5
310
F5F5F5F5F5F5F5F5F5F5F5F5DCF5F5F5F5F5F5F5F5F5F5F5F5F5F5F5F5F5E2F5F5F5F5F5F5F5F5F5F5F5F5F5F5F5F5E2F5F5F5F5E2E2F5F5F5F5E2F5F5F5F5F5F5F5F5F5F5F5F5F5F5F5F5E2F5F5F5F5F5F5F5F5F5F5F5F5F5F5F5F5F5F5F5F5F5F5F5F5F5F5F5F5F5F5F5F5F5F5F5F5F5F5F5F5F5F5F5F5F5F5F5F5F5F5F5
310
F5F5F5F5F5F5F5F5F5F5F5F5F5F5F5F5F5F5F5F5F5F5F5F5F5F5F5F5F5F5F5F5F5F5F5F5F5F5F5F5F5F5F5F5F5F5F5F5F5F5F5F5F5F5F5F5F5F5F5F5F5F5F5F5F5DCF5F5F5F5F5F5F5F5F5F5F5F5F5F5F5F5F5E2F5F5F5F5F5F5F5F5F5F5F5F5F5F5F5F5E2F5F5F5F5E2E2F5F5F5F5E2F5F5F5F5F5F5F5F5F5F5F5F5F5F5F5
310
F5E2F5F5F5F5F5F5F5F5F5F5F5F5F5F5F5F5F5F5F5F5F5F5F5F5F5F5F5F5F5F5F5F5F5F5F5F5F5F5F5F5F5F5F5F5F5F5F5F5F5F5F5F5F5F5F5F5F5F5F5F5F5F5F5F5F5F5F5F5F5F5F5F5F5F5F5F5F5F5F5F5F5F5F5F5F5F5F5F5F5F5F5F5F5F5F5F5F5F5F5F5F5F5F5F5F5F5F5F5F5F5F5F5F5F5F5F5DCF5F5F5F5F5F5F5F5
310
F5F5F5F5F5F5F5F5F5E2F5F5F5F5F5F5F5F5F5F5F5F5F5F5F5F5E2F5F5F5F5E2E2F5F5F5F5E2F5F5F5F5F5F5F5F5F5F5F5F5F5F5F5F5E2F5F5F5F5F5F5F5F5F5F5F5F5F5F5F5F5F5F5F5F5F5F5F5F5F5F5F5F5F5F5F5F5F5F5F5F5F5F5F5F5F5F5F5F5F5F5F5F5F5F5F5F5F5F5F5F5F5F5F5F5F5F5F5F5F5F5F5F5F5F5F5F5
310
F5F5F5F5F5F5F5F5F5F5F5F5F5F5F5F5F5F5F5F5F5F5F5F5F5F5F5F5F5F5F5F5F5F5F5F5F5F5F5F5F5F5E2E2DCE2F5F5F5F5F5F5F5F5F5F5F5F5F5F5F5F5E2F5F5F5F5F5F5F5F5F5F5F5F5F5F5F5F5E2F5F5F5F5E2E2F5F5F5F5E2F5F5F5F5F5F5F5F5F5F5F5F5F5F5F5F5E2F5F5F5F5F5F5F5F5F5F5F5F5F5F5F5F5F5F5F5
310
F5F5F5F5F5F5F5F5F5F5F5F5F5F5F5F5F5F5F5F5F5F5F5F5F5F5F5F5F5F5F5F5F5F5F5F5F5F5F5F5F5F5F5F5F5F5F5F5F5F5F5F5F5F5F5F5F5F5F5F5F5F5F5F5F5F5F5F5F5F5F5F5F5F5F5F5F5F5F5F5F5F5F5F5F5F5F5F5F5F5F5F5F5F5F5F5F5DCF5F5F5F5F5F5F5F5F5F5F5F5F5F5F5F5F5E2F5F5F5F5F5F5F5F5F5F5F5
310
F5F5F5F5F5E2F5F5F5F5E2E2F5F5F5F5E2F5F5F5F5F5F5F5F5F5F5F5F5F5F5F5F5E2F5F5F5F5F5F5F5F5F5F5F5F5F5F5F5F5F5F5F5F5F5F5F5F5F5F5F5F5F5F5F5F5F5F5F5F5F5F5F5F5F5F5F5F5F5F5F5F5F5F5F5F5F5F5F5F5F5F5F5F5F5F5F5F5F5F5F5F5F5F5F5F5F5F5F5F5F5F5F5F5F5F5F5F5F5F5F5F5F5F5F5F5F5
310
F5F5F5F5F5F5F5F5F5F5F5F5F5F5F5F5F5F5F5F5F5F5F5DCF5F5F5F5F5F5F5F5F5F5F5F5F5F5F5F5F5E2F5F5F5F5F5F5F5F5F5F5F5F5F5F5F5F5E2F5F5F5F5E2E2F5F5F5F5F5F5F5F5F5F5F5F5F5F5F5F5F5F5F5F5F5E2F5F5F5F5F5F5F5F5F5F5F5F5F5F5F5F5F5F5F5F5F5F5F5F5F5F5F5F5F5F5F5F5F5F5F5F5F5F5F5F5
310
F5F5F5F5F5F5F5F5F5F5F5F5F5F5F5F5F5F5F5F5F5F5F5F5F5F5F5F5F5F5F5F5F5F5F5F5F5F5F5F5F5F5F5F5F5F5F5F5F5F5F5F5F5F5F5F5F5F5F5F5F5F5F5F5F5F5F5F5F5F5F5F5F5F5F5F5DCF5F5F5F5F5F5F5F5F5F5F5F5F5F5F5F5F5E2F5F5F5F5F5F5F5F5F5F5F5F5F5F5F5F5F5F5F5F5F5E2E2F5F5F5F5F5F5F5F5F5
310
F5F5F5F5F5F5F5F5F5F5F5F5E2F5F5F5F5F5F5F5F5F5F5F5F5F5F5F5F5F5F5F5F5F5F5F5F5F5F5F5F5F5F5F5F5F5F5F5F5F5F5F5F5F5F5F5F5F5F5F5F5F5F5F5F5F5F5F5F5F5F5F5F5F5F5F5F5F5F5F5F5F5F5F5F5F5F5F5F5F5F5F5F5F5F5F5F5F5F5F5F5F5F5F5F5F5F5F5F5F5F5F5F5F5F5F5F5F5F5F5F5F5F5F5F5F5F5
310
F5F5F5F5F5F5F5F5F5F5F5F5F5F5F5F5F5F5F5F5E2F5F5F5F5F5F5F5F5F5F5F5F5F5F5F5F5F5F5F5F5F5E2E2F5F5F5F5F5F5F5F5F5F5F5F5F5F5F5F5F5F5F5F5F5E2F5F5F5F5F5F5F5F5F5F5F5F5F5F5F5F5F5F5F5F5F5F5F5F5F5F5F5F5F5F5F5F5F5F5F5F5F5F5F5F5F5F5F5F5F5F5F5F5F5F5F5F5F5F5F5F5F5F5F5F5F5
310
F5F5F5F5F5F5F5F5F5F5F5F5F5F5F5F5F5F5F5F5F5F5F5F5F5F5F5F5F5F5F5F5F5F5F5F5F5F5F5F5F5F5F5F5F5F5F5F5F5F5F5F5F5F5F5F5F5F5F5F5F5F5F5F5F5F5F5F5F5F5F5F5F5E2F5F5F5F5F5F5F5F5F5F5F5F5F5F5F5F5F5F5F5F5F5E2E2F5F5F5F5F5F5F5F5F5F5F5F5F5F5F5F5F5F5F5F5F5E2F5F5F5F5F5F5F5F5
310
F5F5F5F5F5F5F5F5F5F5F5F5F5F5F5F5F5F5F5F5F5F5F5F5F5F5F5F5F5F5F5F5F5F5F5F5F5F5F5F5F5F5F5F5F5F5F5F5F5F5F5F5F5F5F5F5F5F5F5F5F5F5F5F5F5F5F5F5F5F5F5F5F5F5F5F5F5F5F5F5F5F5F5F5F5F5F5F5F5F5F5F5F5F5F5F5F5F5F5F5F5F5F5F5F5F5F5F5F5F5F5F5F5F5F5F5F5F5F5F5F5F5F5F5F5F5E2
310
F5F5F5F5F5F5F5F5F5F5F5F5F5F5F5F5F5F5F5F5F5E2E2F5F5F5F5F5F5F5F5F5F5F5F5F5F5F5F5F5F5F5F5F5E2F5F5F5F5F5F5F5F5F5F5F5F5F5F5F5F5F5F5F5F5F5F5F5F5F5F5F5F5F5F5F5F5F5F5F5F5F5F5F5F5F5F5F5F5F5F5F5F5F5F5F5F5F5F5F5F5F5F5F5F5F5F5F5F5F5F5F5F5F5F5F5F5F5F5F5F5F5F5F5F5F5F5
310
F5F5F5F5F5F5F5F5F5F5F5F5F5F5F5F5F5F5F5F5F5F5F5F5F5F5F5F5F5F5F5F5F5F5F5F5F5F5F5F5F5F5F5F5F5F5F5F5F5F5F5F5E2F5F5F5F5F5F5F5F5F5F5F5F5F5F5F5F5F5F5F5F5F5E2E2F5F5F5F5F5F5F5F5F5F5F5F5F5F5F5F5F5F5F5F5F5E2F5F5F5F5F5F5F5F5F5F5F5F5F5F5F5F5F5F5F5F5F5F5F5F5F5F5F5F5F5
310
F5F5F5F5F5F5F5F5F5F5F5F5F5F5F5F5F5F5F5F5F5F5F5F5F5F5F5F5F5F5F5F5F5F5F5F5F5F5F5F5F5F5F5F5F5F5F5F5F5F5F5F5F5F5F5F5F5F5F5F5F5F5F5F5F5F5F5F5F5F5F5F5F5F5F5F5F5F5F5F5F5F5F5F5F5F5F5F5F5F5F5F5F5F5F5F5F5F5F5F5F5F5F5F5F5E2F5F5F5F5F5F5F5F5F5F5F5F5F5F5F5F5F5F5F5F5F5
310
E2E2F5F5F5F5F5F5F5F5F5F5F5F5F5F5F5F5F5F5F5F5F5E2F5F5F5F5F5F5F5F5F5F5F5F5F5F5F5F5F5F5F5F5F5F5F5F5F5F5F5F5F5F5F5F5F5F5F5F5F5F5F5F5F5F5F5F5F5F5F5F5F5F5F5F5F5F5F5F5F5F5F5F5F5F5F5F5F5F5F5F5F5F5F5F5F5F5F5F5F5F5F5F5F5F5F5F5F5F5F5F5F5F5F5F5F5F5F5F5F5F5F5F5F5F5F5
310
F5F5F5F5F5F5F5F5F5F5F5F5F5F5F5F5F5F5F5F5F5F5F5F5F5F5F5F5F5F5F5E2F5F5F5F5F5F5F5F5F5F5F5F5F5F5F5F5F5F5F5F5F5E2E2F5F5F5F5F5F5F5F5F5F5F5F5F5F5F5F5F5F5F5F5F5E2F5F5F5F5F5F5F5F5F5F5F5F5F5F5F5F5F5F5F5F5F5F5F5F5F5F5F5F5F5F5F5F5F5F5F5F5F5F5F5F5F5F5F5F5F5F5F5F5F5F5
310
F5F5F5F5F5F5F5F5F5F5F5F5F5F5F5F5F5F5F5F5F5F5F5F5F5F5F5F5F5F5F5F5F5F5F5F5F5F5F5F5F5F5F5F5F5F5F5F5F5F5F5F5F5F5F5F5F5F5F5F5F5F5F5F5F5F5F5F5F5F5F5F5F5F5F5F5F5F5F5F5F5F5F5F5E2F5F5F5F5F5F5F5F5F5F5F5F5F5F5F5F5F5F5F5F5F5E2E2F5F5F5F5F5F5F5F5F5F5F5F5F5F5F5F5F5F5F5
310
F5F5E2F5F5F5F5F5F5F5F5F5F5F5F5F5F5F5F5F5F5F5F5F5F5F5F5F5F5F5F5F5F5F5F5F5F5F5F5F5F5F5F5F5F5F5F5F5F5F5F5F5F5F5F5F5F5F5F5F5F5F5F5F5F5F5F5F5F5F5F5F5F5F5F5F5F5F5F5F5F5F5F5F5F5F5F5F5F5F5F5F5F5F5F5F5F5F5F5F5F5F5F5F5F5F5F5F5F5F5F5F5F5F5F5F5F5F5F5F5F5F5F5F5F5F5F5
310
F5F5F5F5F5F5F5F5F5F5E2F5F5F5F5F5F5F5F5F5F5F5F5F5F5F5F5F5F5F5F5F5E2E2F5F5F5F5E2F5F5F5F5F5F5F5F5F5F5F5F5F5F5F5F5E2F5F5F5F5F5F5F5F5F5F5F5F5F5F5F5F5F5F5F5F5F5F5F5F5F5F5F5F5F5F5F5F5F5F5F5F5F5F5F5F5F5F5F5F5F5F5F5F5F5F5F5F5F5F5F5F5F5F5F5F5F5F5F5F5F5F5F5F5F5F5F5
310
F5F5F5F5F5F5F5F5F5F5F5F5F5F5F5F5F5F5F5F5F5F5F5F5F5F5F5F5F5F5F5F5F5F5F5F5F5F5F5F5F5F5F5F5F5F5F5F5F5F5F5F5F5F5F5F5F5F5F5F5F5F5F5E2F5F5F5F5F5F5F5F5F5F5F5F5F5F5F5F5E2F5F5F5F5E2E2F5F5F5F5E2F5F5F5F5F5F5F5F5F5F5F5F5F5F5F5F5E2F5F5F5F5F5F5F5F5F5F5F5F5F5F5F5F5F5F5
310
F5F5F5F5F5F5F5F5F5F5F5F5F5F5F5F5F5F5F5F5F5F5F5F5F5F5F5F5F5F5F5F5F5F5F5F5F5F5F5F5F5F5F5F5F5F5F5F5F5F5F5F5F5F5F5F5F5F5F5F5F5F5F5F5F5F5F5F5F5F5F5F5F5F5F5F5F5F5F5F5F5F5F5F5F5F5F5F5F5F5F5F5F5F5F5F5F5F5F5F5F5F5F5F5F5F5F5F5F5F5F5F5F5F5F5F5E2F5F5F5F5F5F5F5F5F5F5
310
F5F5F5F5F5F5E2F5F5F5F5E2E2F5F5F5F5E2F5F5F5F5F5F5F5F5F5F5F5F5F5F5F5F5E2F5F5F5F5F5F5F5F5F5F5F5F5F5F5F5F5F5F5F5F5F5F5F5F5F5F5F5F5F5F5F5F5F5F5F5F5F5F5F5F5F5F5F5F5F5F5F5F5F5F5F5F5F5F5F5F5F5F5F5F5F5F5F5F5F5F5F5F5F5F5F5F5F5F5F5F5F5F5F5F5F5F5F5F5F5F5F5F5F5F5F5F5
310
F5F5F5F5F5F5F5F5F5F5F5F5F5F5F5F5F5F5F5F5F5F5F5F5F5F5F5F5F5F5F5F5F5F5F5F5F5F5F5F5F5F5E2F5F5F5F5F5F5F5F5F5F5F5F5F5F5F5F5E2F5F5F5F5E2E2F5F5F5F5E2F5F5F5F5F5F5F5F5F5F5F5F5F5F5F5F5E2F5F5F5F5F5F5F5F5F5F5F5F5F5F5F5F5F5F5F5F5F5F5F5F5F5F5F5F5F5F5F5F5F5F5F5F5F5F5F5
310
F5F5F5F5F5F5F5F5F5F5F5F5F5F5F5F5F5F5F5F5F5F5F5F5F5F5F5F5F5F5F5F5F5F5F5F5F5F5F5F5F5F5F5F5F5F5F5F5F5F5F5F5F5F5F5F5F5F5F5F5F5F5F5F5F5F5F5F5F5F5F5F5F5F5F5F5F5F5F5F5F5F5F5F5F5F5F5F5F5F5F5F5F5F5F5E2F5F5F5F5F5F5F5F5F5F5F5F5F5F5F5F5E2F5F5F5F5E2E2F5F5F5F5E2F5F5F5
310
F5F5F5F5F5F5F5F5F5F5F5F5F5E2F5F5F5F5F5F5F5F5F5F5F5F5F5F5F5F5F5F5F5F5F5F5F5F5F5F5F5F5F5F5F5F5F5F5F5F5F5F5F5F5F5F5F5F5F5F5F5F5F5F5F5F5F5F5F5F5F5F5F5F5F5F5F5F5F5F5F5F5F5F5F5F5F5F5F5F5F5F5F5F5F5F5F5F5F5F5F5F5F5F5F5F5F5F5F5F5F5F5F5F5F5F5F5F5F5F5F5F5F5F5F5F5F5
310
F5F5F5F5F5F5F5F5F5F5F5F5F5F5F5F5F5F5F5F5F5E2F5F5F5F5F5F5F5F5F5F5F5F5F5F5F5F5E2F5F5F5F5E2E2F5F5F5F5E2F5F5F5F5F5F5F5F5F5F5F5F5F5F5F5F5E2F5F5F5F5F5F5F5F5F5F5F5F5F5F5F5F5F5F5F5F5F5F5F5F5F5F5F5F5F5F5F5F5F5F5F5F5F5F5F5F5F5F5F5F5F5F5F5F5F5F5F5F5F5F5F5F5F5F5F5F5
310
F5F5F5F5F5F5F5F5F5F5F5F5F5F5F5F5F5F5F5F5F5F5F5F5F5F5F5F5F5F5F5F5F5F5F5F5F5F5F5F5F5F5F5F5F5F5F5F5F5F5F5F5F5F5F5F5F5F5F5F5F5F5F5F5F5F5F5F5F5F5F5F5F5F5E2F5F5F5F5F5F5F5F5F5F5F5F5F5F5F5F5E2F5F5F5F5E2E2F5F5F5F5E2F5F5F5F5F5F5F5F5F5F5F5F5F5F5F5F5E2F5F5F5F5F5F5F5
310
F5F5F5F5F5F5F5F5F5F5F5F5F5F5F5F5F5F5F5F5F5F5F5F5F5F5F5F5F5F5F5F5F5F5F5F5F5F5F5F5F5F5F5F5F5F5F5F5F5F5F5F5F5F5F5F5F5F5F5F5F5F5F5F5F5F5F5F5F5F5F5F5F5F5F5F5F5F5F5F5F5F5F5F5F5F5F5F5F5F5F5F5F5F5F5F5F5F5F5F5F5F5F5F5F5F5F5F5F5F5F5F5F5F5F5F5F5F5F5F5F5F5F5F5F5F5F5
310
E2F5F5F5F5F5F5F5F5F5F5F5F5F5F5F5F5E2F5F5F5F5E2E2F5F5F5F5E2F5F5F5F5F5F5F5F5F5F5F5F5F5F5F5F5E2F5F5F5F5F5F5F5F5F5F5F5F5F5F5F5F5F5F5F5F5F5F5F5F5F5F5F5F5F5F5F5F5F5F5F5F5F5F5F5F5F5F5F5F5F5F5F5F5F5F5F5F5F5F5F5F5F5F5F5F5F5F5F5F5F5F5F5F5F5F5F5F5F5F5F5F5F5F5F5F5F5
310
F5F5F5F5F5F5F5F5F5F5F5F5F5F5F5F5F5F5F5F5F5F5F5F5F5F5F5F5F5F5F5F5F5F5F5F5F5F5F5F5F5F5F5F5F5F5F5F5F5F5F5F5F5E2F5F5F5F5F5F5F5F5F5F5F5F5F5F5F5F5E2F5F5F5F5E2E2F5F5F5F5E2F5F5F5F5F5F5F5F5F5F5F5F5F5F5F5F5E2F5F5F5F5F5F5F5F5F5F5F5F5F5F5F5F5F5F5F5F5F5F5F5F5F5F5F5F5
310
F5F5F5F5F5F5F5F5F5F5F5F5F5F5F5F5F5F5F5F5F5F5F5F5F5F5F5F5F5F5F5F5F5F5F5F5F5F5F5F5F5F5F5F5F5F5F5F5F5F5F5F5F5F5F5F5F5F5F5F5F5F5F5F5F5F5F5F5F5F5F5F5F5F5F5F5F5F5F5F5F5F5F5F5F5F5F5F5F5F5F5F5F5F5F5F5F5F5F5F5F5F5F5F5F5F5E2F5F5F5F5F5F5F5F5F5F5F5F5F5F5F5F5E2F5F5F5
310
F5E2E2F5F5F5F5E2F5F5F5F5F5F5F5F5F5F5F5F5F5F5F5F5E2F5F5F5F5F5F5F5F5F5F5F5F5F5F5F5F5F5F5F5F5F5F5F5F5F5F5F5F5F5F5F5F5F5F5F5F5F5F5F5F5F5F5F5F5F5F5F5F5F5F5F5F5F5F5F5F5F5F5F5F5F5F5F5F5F5F5F5F5F5F5F5F5F5F5F5F5F5F5F5F5F5F5F5F5F5F5F5F5F5F5F5F5F5F5F5F5F5F5F5F5F5F5
310
F5F5F5F5F5F5F5F5F5F5F5F5F5F5F5F5F5F5F5F5F5F5F5F5F5F5F5F5F5F5F5F5E2F5F5F5F5F5F5F5F5F5F5F5F5F5F5F5F5E2F5F5F5F5E2E2F5F5F5F5E2F5F5F5F5F5F5F5F5F5F5F5F5F5F5F5F5E2F5F5F5F5F5F5F5F5F5F5F5F5F5F5F5F5F5F5F5F5F5F5F5F5F5F5F5F5F5F5F5F5F5F5F5F5F5F5F5F5F5F5F5F5F5F5F5F5F5
310
F5F5F5F5F5F5F5F5F5F5F5F5F5F5F5F5F5F5F5F5F5F5F5F5F5F5F5F5F5F5F5F5F5F5F5F5F5F5F5F5F5F5F5F5F5F5F5F5F5F5F5F5F5F5F5F5F5F5F5F5F5F5F5F5F5F5F5F5F5F5F5F5F5F5F5F5F5F5F5F5F5F5F5F5F5E2F5F5F5F5F5F5F5F5F5F5F5F5F5F5F5F5E2F5F5F5F5E2E2F5F5F5F5E2F5F5F5F5F5F5F5F5F5F5F5F5F5
310
F5F5F5E2F5F5F5F5F5F5F5F5F5F5F5F5F5F5F5F5F5F5F5F5F5F5F5F5F5F5F5F5F5F5F5F5F5F5F5F5F5F5F5F5F5F5F5F5F5F5F5F5F5F5F5F5F5F5F5F5F5F5F5F5F5F5F5F5F5F5F5F5F5F5F5F5F5F5F5F5F5F5F5F5F5F5F5F5F5F5F5F5F5F5F5F5F5F5F5F5F5F5F5F5F5F5F5F5F5F5F5F5F5F5F5F5F5F5F5F5F5F5F5F5F5F5F5
310
F5F5F5F5F5F5F5F5F5F5F5E2F5F5F5F5F5F5F5F5F5F5F5F5F5F5F5F5E2F5F5F5F5E2E2F5F5F5F5E2F5F5F5F5F5F5F5F5F5F5F5F5F5F5F5F5E2F5F5F5F5F5F5F5F5F5F5F5F5F5F5F5F5F5F5F5F5F5F5F5F5F5F5F5F5F5F5F5F5F5F5F5F5F5F5F5F5F5F5F5F5F5F5F5F5F5F5F5F5F5F5F5F5F5F5F5F5F5F5F5F5F5F5F5F5F5F5
310
F5F5F5F5F5F5F5F5F5F5F5F5F5F5F5F5F5F5F5F5F5F5F5F5F5F5F5F5F5F5F5F5F5F5F5F5F5F5F5F5F5F5F5F5F5F5F5F5F5F5F5F5F5F5F5F5F5F5F5F5F5F5F5F5E2F5F5F5F5F5F5F5F5F5F5F5F5F5F5F5F5E2F5F5F5F5E2E2F5F5F5F5E2F5F5F5F5F5F5F5F5F5F5F5F5F5F5F5F5E2F5F5F5F5F5F5F5F5F5F5F5F5F5F5F5F5F5
310
F5F5F5F5F5F5F5F5F5F5F5F5F5F5F5F5F5F5F5F5F5F5F5F5F5F5F5F5F5F5F5F5F5F5F5F5F5F5F5F5F5F5F5F5F5F5F5F5F5F5F5F5F5F5F5F5F5F5F5F5F5F5F5F5F5F5F5F5F5F5F5F5F5F5F5F5F5F5F5F5F5F5F5F5F5F5F5F5F5F5F5F5F5F5F5F5F5F5F5F5F5F5F5F5F5F5F5F5F5F5F5F5F5F5F5F5F5E2F5F5F5F5F5F5F5F5F5
310
F5F5F5F5F5F5F5E2F5F5F5F5E2E2F5F5F5F5E2F5F5F5F5F5F5F5F5F5F5F5F5F5F5F5F5E2F5F5F5F5F5F5F5F5F5F5F5F5F5F5F5F5F5F5F5F5F5F5F5F5F5F5F5F5F5F5F5F5F5F5F5F5F5F5F5F5F5F5F5F5F5F5F5F5F5F5F5F5F5F5F5F5F5F5F5F5F5F5F5F5F5F5F5F5F5F5F5F5F5F5F5F5F5F5F5F5F5F5F5F5F5F5F5F5F5F5F5
310
F5F5F5F5F5F5F5F5F5F5F5F5F5F5F5F5F5F5F5F5F5F5F5F5F5F5F5F5F5F5F5F5F5F5F5F5F5F5F5F5F5F5F5E2F5F5F5F5F5F5F5F5F5F5F5F5F5F5F5F5E2F5F5F5F5E2E2F5F5F5F5E2F5F5F5F5F5F5F5F5F5F5F5F5F5F5F5F5E2F5F5F5F5F5F5F5F5F5F5F5F5F5F5F5F5F5F5F5F5F5F5F5F5F5F5F5F5F5F5F5F5F5F5F5F5F5F5
310
F5F5F5F5F5F5F5F5F5F5F5F5F5F5F5F5F5F5F5F5F5F5F5F5F5F5F5F5F5F5F5F5F5F5F5F5F5F5F5F5F5F5F5F5F5F5F5F5F5F5F5F5F5F5F5F5F5F5F5F5F5F5F5F5F5F5F5F5F5F5F5F5F5F5F5F5F5F5F5F5F5F5F5F5F5F5F5F5F5F5F5F5F5F5F5F5E2F5F5F5F5F5F5F5F5F5F5F5F5F5F5F5F5E2F5F5F5F5E2E2F5F5F5F5E2F5F5
310
F5F5F5F5F5F5F5F5F5F5F5F5F5F5E2F5F5F5F5F5F5F5F5F5F5F5F5F5F5F5F5F5F5F5F5F5F5F5F5F5F5F5F5F5F5F5F5F5F5F5F5F5F5F5F5F5F5F5F5F5F5F5F5F5F5F5F5F5F5F5F5F5F5F5F5F5F5F5F5F5F5F5F5F5F5F5F5F5F5F5F5F5F5F5F5F5F5F5F5F5F5F5F5F5F5F5F5F5F5F5F5F5F5F5F5F5F5F5F5F5F5F5F5F5F5F5F5
310
F5F5F5F5F5F5F5F5F5F5F5F5F5F5F5F5F5F5F5F5F5F5E2F5F5F5F5F5F5F5F5F5F5F5F5F5F5F5F5E2F5F5F5F5E2E2F5F5F5F5F5F5F5F5F5F5F5F5F5F5F5F5F5F5F5F5F5E2F5F5F5F5F5F5F5F5F5F5F5F5F5F5F5F5F5F5F5F5F5F5F5F5F5F5F5F5F5F5F5F5F5F5F5F5F5F5F5F5F5F5F5F5F5F5F5F5F5F5F5F5F5F5F5F5F5F5F5
310
F5F5F5F5F5F5F5F5F5F5F5F5F5F5F5F5F5F5F5F5F5F5F5F5F5F5F5F5F5F5F5F5F5F5F5F5F5F5F5F5F5F5F5F5F5F5F5F5F5F5F5F5F5F5F5F5F5F5F5F5F5F5F5F5F5F5F5F5F5F5F5F5F5F5F5E2F5F5F5F5F5F5F5F5F5F5F5F5F5F5F5F5F5F5F5F5F5E2E2F5F5F5F5F5F5F5F5F5F5F5F5F5F5F5F5F5F5F5F5F5E2F5F5F5F5F5F5
310
F5F5F5F5F5F5F5F5F5F5F5F5F5F5F5F5F5F5F5F5F5F5F5F5F5F5F5F5F5F5F5F5F5F5F5F5F5F5F5F5F5F5F5F5F5F5F5F5F5F5F5F5F5F5F5F5F5F5F5F5F5F5F5F5F5F5F5F5F5F5F5F5F5F5F5F5F5F5F5F5F5F5F5F5F5F5F5F5F5F5F5F5F5F5F5F5F5F5F5F5F5F5F5F5F5F5F5F5F5F5F5F5F5F5F5F5F5F5F5F5F5F5F5F5F5F5F5
310
F5E2F5F5F5F5F5F5F5F5F5F5F5F5F5F5F5F5F5F5F5F5F5E2E2F5F5F5F5F5F5F5F5F5F5F5F5F5F5F5F5F5F5F5F5F5E2F5F5F5F5F5F5F5F5F5F5F5F5F5F5F5F5F5F5F5F5F5F5F5F5F5F5F5F5F5F5F5F5F5F5F5F5F5F5F5F5F5F5F5F5F5F5F5F5F5F5F5F5F5F5F5F5F5F5F5F5F5F5F5F5F5F5F5F5F5F5F5F5F5F5F5F5F5F5F5F5
310
F5F5F5F5F5F5F5F5F5F5F5F5F5F5F5F5F5F5F5F5F5F5F5F5F5F5F5F5F5F5F5F5F5F5F5F5F5F5F5F5F5F5F5F5F5F5F5F5F5F5F5F5F5F5E2F5F5F5F5F5F5F5F5F5F5F5F5F5F5F5F5F5F5F5F5F5E2E2F5F5F5F5F5F5F5F5F5F5F5F5F5F5F5F5F5F5F5F5F5E2F5F5F5F5F5F5F5F5F5F5F5F5F5F5F5F5F5F5F5F5F5F5F5F5F5F5F5
310
F5F5F5F5F5F5F5F5F5F5F5F5F5F5F5F5F5F5F5F5F5F5F5F5F5F5F5F5F5F5F5F5F5F5F5F5F5F5F5F5F5F5F5F5F5F5F5F5F5F5F5F5F5F5F5F5F5F5F5F5F5F5F5F5F5F5F5F5F5F5F5F5F5F5F5F5F5F5F5F5F5F5F5F5F5F5F5F5F5F5F5F5F5F5F5F5F5F5F5F5F5F5F5F5F5F5F5E2F5F5F5F5F5F5F5F5F5F5F5F5F5F5F5F5F5F5F5
310
F5F5E2E2F5F5F5F5F5F5F5F5F5F5F5F5F5F5F5F5F5F5F5F5F5E2F5F5F5F5F5F5F5F5F5F5F5F5F5F5F5F5F5F5F5F5F5F5F5F5F5F5F5F5F5F5F5F5F5F5F5F5F5F5F5F5F5F5F5F5F5F5F5F5F5F5F5F5F5F5F5F5F5F5F5F5F5F5F5F5F5F5F5F5F5F5F5F5F5F5F5F5F5F5F5F5F5F5F5F5F5F5F5F5F5F5F5F5F5F5F5F5F5F5F5F5F5
310
F5F5F5F5F5F5F5F5F5F5F5F5F5F5F5F5F5F5F5F5F5F5F5F5F5F5F5F5F5F5F5F5F5E2F5F5F5F5F5F5F5F5F5F5F5F5F5F5F5F5F5F5F5F5F5E2E2F5F5F5F5F5F5F5F5F5F5F5F5F5F5F5F5F5F5F5F5F5E2F5F5F5F5F5F5F5F5F5F5F5F5F5F5F5F5F5F5F5F5F5F5F5F5F5F5F5F5F5F5F5F5F5F5F5F5F5F5F5F5F5F5F5F5F5F5F5F5
310
F5F5F5F5F5F5F5F5F5F5F5F5F5F5F5F5F5F5F5F5F5F5F5F5F5F5F5F5F5F5F5F5F5F5F5F5F5F5F5F5F5F5F5F5F5F5F5F5F5F5F5F5F5F5F5F5F5F5F5F5F5F5F5F5F5F5F5F5F5F5F5F5F5F5F5F5F5F5F5F5F5F5F5F5F5F5E2F5F5F5F5F5F5F5F5F5F5F5F5F5F5F5F5F5F5F5F5F5E2E2F5F5F5F5F5F5F5F5F5F5F5F5F5F5F5F5F5
310
F5F5F5F5E2F5F5F5F5F5F5F5F5F5F5F5F5F5F5F5F5F5F5F5F5F5F5F5F5F5F5F5F5F5F5F5F5F5F5F5F5F5F5F5F5F5F5F5F5F5F5F5F5F5F5F5F5F5F5F5F5F5F5F5F5F5F5F5F5F5F5F5F5F5F5F5F5F5F5F5F5F5F5F5F5F5F5F5F5F5F5F5F5F5F5F5F5F5F5F5F5F5F5F5F5F5F5F5F5F5F5F5F5F5F5F5F5F5F5F5F5F5F5F5F5F5F5
310
F5F5F5F5F5F5F5F5F5F5F5F5E2F5F5F5F5F5F5F5F5F5F5F5F5F5F5F5F5F5F5F5F5F5E2E2F5F5F5F5F5F5F5F5F5F5F5F5F5F5F5F5F5F5F5F5F5E2F5F5F5F5F5F5F5F5F5F5F5F5F5F5F5F5F5F5F5F5F5F5F5F5F5F5F5F5F5F5F5F5F5F5F5F5F5F5F5F5F5F5F5F5F5F5F5F5F5F5F5F5F5F5F5F5F5F5F5F5F5F5F5F5F5F5F5F5F5
310
F5F5F5F5F5F5F5F5F5F5F5F5F5F5F5F5F5F5F5F5F5F5F5F5F5F5F5F5F5F5F5F5F5F5F5F5F5F5F5F5F5F5F5F5F5F5F5F5F5F5F5F5F5F5F5F5F5F5F5F5F5F5F5F5F5E2F5F5F5F5F5F5F5F5F5F5F5F5F5F5F5F5F5F5F5F5F5E2E2F5F5F5F5F5F5F5F5F5F5F5F5F5F5F5F5F5F5F5F5F5E2F5F5F5F5F5F5F5F5F5F5F5F5F5F5F5F5
310
F5F5F5F5F5F5F5F5F5F5F5F5F5F5F5F5F5F5F5F5F5F5F5F5F5F5F5F5F5F5F5F5F5F5F5F5F5F5F5F5F5F5F5F5F5F5F5F5F5F5F5F5F5F5F5F5F5F5F5F5F5F5F5F5F5F5F5F5F5F5F5F5F5F5F5F5F5F5F5F5F5F5F5F5F5F5F5F5F5F5F5F5F5F5F5F5F5F5F5F5F5F5F5F5F5F5F5F5F5F5F5F5F5F5F5F5F5F5E2F5F5F5F5F5F5F5F5
310
F5F5F5F5F5F5F5F5F5F5F5F5F5E2E2F5F5F5F5E2F5F5F5F5F5F5F5F5F5F5F5F5F5F5F5F5E2F5F5F5F5F5F5F5F5F5F5F5F5F5F5F5F5F5F5F5F5F5F5F5F5F5F5F5F5F5F5F5F5F5F5F5F5F5F5F5F5F5F5F5F5F5F5F5F5F5F5F5F5F5F5F5F5F5F5F5F5F5F5F5F5F5F5F5F5F5F5F5F5F5F5F5F5F5F5F5F5F5F5F5F5F5F5F5F5F5F5
310
F5F5F5F5F5F5F5F5F5F5F5F5F5F5F5F5F5F5F5F5F5F5F5F5F5F5F5F5F5F5F5F5F5F5F5F5F5F5F5F5F5F5F5F5E2F5F5F5F5F5F5F5F5F5F5F5F5F5F5F5F5E2F5F5F5F5E2E2F5F5F5F5E2F5F5F5F5F5F5F5F5F5F5F5F5F5F5F5F5E2F5F5F5F5F5F5F5F5F5F5F5F5F5F5F5F5F5F5F5F5F5F5F5F5F5F5F5F5F5F5F5F5F5F5F5F5F5
310
F5F5F5F5F5F5F5F5F5F5F5F5F5F5F5F5F5F5F5F5F5F5F5F5F5F5F5F5F5F5F5F5F5F5F5F5F5F5F5F5F5F5F5F5F5F5F5F5F5F5F5F5F5F5F5F5F5F5F5F5F5F5F5F5F5F5F5F5F5F5F5F5F5F5F5F5F5F5F5F5F5F5F5F5F5F5F5F5F5F5F5F5F5F5F5F5F5E2F5F5F5F5F5F5F5F5F5F5F5F5F5F5F5F5E2F5F5F5F5E2E2F5F5F5F5E2F5
310
F5F5F5F5F5F5F5F5F5F5F5F5F5F5F5E2F5F5F5F5F5F5F5F5F5F5F5F5F5F5F5F5F5F5F5F5F5F5F5F5F5F5F5F5F5F5F5F5F5F5F5F5F5F5F5F5F5F5F5F5F5F5F5F5F5F5F5F5F5F5F5F5F5F5F5F5F5F5F5F5F5F5F5F5F5F5F5F5F5F5F5F5F5F5F5F5F5F5F5F5F5F5F5F5F5F5F5F5F5F5F5F5F5F5F5F5F5F5F5F5F5F5F5F5F5F5F5
310
F5F5F5F5F5F5F5F5F5F5F5F5F5F5F5F5F5F5F5F5F5F5F5E2F5F5F5F5F5F5F5F5F5F5F5F5F5F5F5F5E2F5F5F5F5E2E2F5F5F5F5E2F5F5F5F5F5F5F5F5F5F5F5F5F5F5F5F5E2F5F5F5F5F5F5F5F5F5F5F5F5F5F5F5F5F5F5F5F5F5F5F5F5F5F5F5F5F5F5F5F5F5F5F5F5F5F5F5F5F5F5F5F5F5F5F5F5F5F5F5F5F5F5F5F5F5F5
310
F5F5F5F5F5F5F5F5F5F5F5F5F5F5F5F5F5F5F5F5F5F5F5F5F5F5F5F5F5F5F5F5F5F5F5F5F5F5F5F5F5F5F5F5F5F5F5F5F5F5F5F5F5F5F5F5F5F5F5F5F5F5F5F5F5F5F5F5F5F5F5F5F5F5F5F5E2F5F5F5F5F5F5F5F5F5F5F5F5F5F5F5F5E2F5F5F5F5E2E2F5F5F5F5E2F5F5F5F5F5F5F5F5F5F5F5F5F5F5F5F5E2F5F5F5F5F5
310
F5F5F5F5F5F5F5F5F5F5F5F5F5F5F5F5F5F5F5F5F5F5F5F5F5F5F5F5F5F5F5F5F5F5F5F5F5F5F5F5F5F5F5F5F5F5F5F5F5F5F5F5F5F5F5F5F5F5F5F5F5F5F5F5F5F5F5F5F5F5F5F5F5F5F5F5F5F5F5F5F5F5F5F5F5F5F5F5F5F5F5F5F5F5F5F5F5F5F5F5F5F5F5F5F5F5F5F5F5F5F5F5F5F5F5F5F5F5F5F5F5F5F5F5F5F5F5
310
F5F5E2F5F5F5F5F5F5F5F5F5F5F5F5F5F5F5F5E2F5F5F5F5E2E2F5F5F5F5E2F5F5F5F5F5F5F5F5F5F5F5F5F5F5F5F5E2F5F5F5F5F5F5F5F5F5F5F5F5F5F5F5F5F5F5F5F5F5F5F5F5F5F5F5F5F5F5F5F5F5F5F5F5F5F5F5F5F5F5F5F5F5F5F5F5F5F5F5F5F5F5F5F5F5F5F5F5F5F5F5F5F5F5F5F5F5F5F5F5F5F5F5F5F5F5F5
310
F5F5F5F5F5F5F5F5F5F5F5F5F5F5F5F5F5F5F5F5F5F5F5F5F5F5F5F5F5F5F5F5F5F5F5F5F5F5F5F5F5F5F5F5F5F5F5F5F5F5F5F5F5F5F5E2F5F5F5F5F5F5F5F5F5F5F5F5F5F5F5F5E2F5F5F5F5E2E2F5F5F5F5E2F5F5F5F5F5F5F5F5F5F5F5F5F5F5F5F5E2F5F5F5F5F5F5F5F5F5F5F5F5F5F5F5F5F5F5F5F5F5F5F5F5F5F5
310
F5F5F5F5F5F5F5F5F5F5F5F5F5F5F5F5F5F5F5F5F5F5F5F5F5F5F5F5F5F5F5F5F5F5F5F5F5F5F5F5F5F5F5F5F5F5F5F5F5F5F5F5F5F5F5F5F5F5F5F5F5F5F5F5F5F5F5F5F5F5F5F5F5F5F5F5F5F5F5F5F5F5F5F5F5F5F5F5F5F5F5F5F5F5F5F5F5F5F5F5F5F5F5F5F5F5F5F5E2F5F5F5F5F5F5F5F5F5F5F5F5F5F5F5F5E2F5
310
F5F5F5E2E2F5F5F5F5E2F5F5F5F5F5F5F5F5F5F5F5F5F5F5F5F5E2F5F5F5F5F5F5F5F5F5F5F5F5F5F5F5F5F5F5F5F5F5F5F5F5F5F5F5F5F5F5F5F5F5F5F5F5F5F5F5F5F5F5F5F5F5F5F5F5F5F5F5F5F5F5F5F5F5F5F5F5F5F5F5F5F5F5F5F5F5F5F5F5F5F5F5F5F5F5F5F5F5F5F5F5F5F5F5F5F5F5F5F5F5F5F5F5F5F5F5F5
310
F5F5F5F5F5F5F5F5F5F5F5F5F5F5F5F5F5F5F5F5F5F5F5F5F5F5F5F5F5F5F5F5F5F5E2F5F5F5F5F5F5F5F5F5F5F5F5F5F5F5F5E2F5F5F5F5E2E2F5F5F5F5E2F5F5F5F5F5F5F5F5F5F5F5F5F5F5F5F5E2F5F5F5F5F5F5F5F5F5F5F5F5F5F5F5F5F5F5F5F5F5F5F5F5F5F5F5F5F5F5F5F5F5F5F5F5F5F5F5F5F5F5F5F5F5F5F5
310
F5F5F5F5F5F5F5F5F5F5F5F5F5F5F5F5F5F5F5F5F5F5F5F5F5F5F5F5F5F5F5F5F5F5F5F5F5F5F5F5F5F5F5F5F5F5F5F5F5F5F5F5F5F5F5F5F5F5F5F5F5F5F5F5F5F5F5F5F5F5F5F5F5F5F5F5F5F5F5F5F5F5F5F5F5F5F5E2F5F5F5F5F5F5F5F5F5F5F5F5F5F5F5F5E2F5F5F5F5E2E2F5F5F5F5E2F5F5F5F5F5F5F5F5F5F5F5
310
F5F5F5F5F5E2F5F5F5F5F5F5F5F5F5F5F5F5F5F5F5F5F5F5F5F5F5F5F5F5F5F5F5F5F5F5F5F5F5F5F5F5F5F5F5F5F5F5F5F5F5F5F5F5F5F5F5F5F5F5F5F5F5F5F5F5F5F5F5F5F5F5F5F5F5F5F5F5F5F5F5F5F5F5F5F5F5F5F5F5F5F5F5F5F5F5F5F5F5F5F5F5F5F5F5F5F5F5F5F5F5F5F5F5F5F5F5F5F5F5F5F5F5F5F5F5F5
310
F5F5F5F5F5F5F5F5F5F5F5F5F5E2F5F5F5F5F5F5F5F5F5F5F5F5F5F5F5F5E2F5F5F5F5E2E2F5F5F5F5E2F5F5F5F5F5F5F5F5F5F5F5F5F5F5F5F5E2F5F5F5F5F5F5F5F5F5F5F5F5F5F5F5F5F5F5F5F5F5F5F5F5F5F5F5F5F5F5F5F5F5F5F5F5F5F5F5F5F5F5F5F5F5F5F5F5F5F5F5F5F5F5F5F5F5F5F5F5F5F5F5F5F5F5F5F5
310
F5F5F5F5F5F5F5F5F5F5F5F5F5F5F5F5F5F5F5F5F5F5F5F5F5F5F5F5F5F5F5F5F5F5F5F5F5F5F5F5F5F5F5F5F5F5F5F5F5F5F5F5F5F5F5F5F5F5F5F5F5F5F5F5F5F5E2F5F5F5F5F5F5F5F5F5F5F5F5F5F5F5F5E2F5F5F5F5E2E2F5F5F5F5E2F5F5F5F5F5F5F5F5F5F5F5F5F5F5F5F5E2F5F5F5F5F5F5F5F5F5F5F5F5F5F5F5
310
F5F5F5F5F5F5F5F5F5F5F5F5F5F5F5F5F5F5F5F5F5F5F5F5F5F5F5F5F5F5F5F5F5F5F5F5F5F5F5F5F5F5F5F5F5F5F5F5F5F5F5F5F5F5F5F5F5F5F5F5F5F5F5F5F5F5F5F5F5F5F5F5F5F5F5F5F5F5F5F5F5F5F5F5F5F5F5F5F5F5F5F5F5F5F5F5F5F5F5F5F5F5F5F5F5F5F5F5F5F5F5F5F5F5F5F5F5F5F5E2F5F5F5F5F5F5F5
310
F5F5F5F5F5F5F5F5F5E2F5F5F5F5E2E2F5F5F5F5E2F5F5F5F5F5F5F5F5F5F5F5F5F5F5F5F5E2F5F5F5F5F5F5F5F5F5F5F5F5F5F5F5F5F5F5F5F5F5F5F5F5F5F5F5F5F5F5F5F5F5F5F5F5F5F5F5F5F5F5F5F5F5F5F5F5F5F5F5F5F5F5F5F5F5F5F5F5F5F5F5F5F5F5F5F5F5F5F5F5F5F5F5F5F5F5F5F5F5F5F5F5F5F5F5F5F5
310
F5F5F5F5F5F5F5F5F5F5F5F5F5F5F5F5F5F5F5F5F5F5F5F5F5F5F5F5F5F5F5F5F5F5F5F5F5F5F5F5F5F5F5F5F5E2F5F5F5F5F5F5F5F5F5F5F5F5F5F5F5F5E2F5F5F5F5E2E2F5F5F5F5E2F5F5F5F5F5F5F5F5F5F5F5F5F5F5F5F5E2F5F5F5F5F5F5F5F5F5F5F5F5F5F5F5F5F5F5F5F5F5F5F5F5F5F5F5F5F5F5F5F5F5F5F5F5
310
F5F5F5F5F5F5F5F5F5F5F5F5F5F5F5F5F5F5F5F5F5F5F5F5F5F5F5F5F5F5F5F5F5F5F5F5F5F5F5F5F5F5F5F5F5F5F5F5F5F5F5F5F5F5F5F5F5F5F5F5F5F5F5F5F5F5F5F5F5F5F5F5F5F5F5F5F5F5F5F5F5F5F5F5F5F5F5F5F5F5F5F5F5F5F5F5F5F5E2F5F5F5F5F5F5F5F5F5F5F5F5F5F5F5F5E2F5F5F5F5E2E2F5F5F5F5E2
310
F5F5F5F5F5F5F5F5F5F5F5F5F5F5F5F5E2F5F5F5F5F5F5F5F5F5F5F5F5F5F5F5F5F5F5F5F5F5F5F5F5F5F5F5F5F5F5F5F5F5F5F5F5F5F5F5F5F5F5F5F5F5F5F5F5F5F5F5F5F5F5F5F5F5F5F5F5F5F5F5F5F5F5F5F5F5F5F5F5F5F5F5F5F5F5F5F5F5F5F5F5F5F5F5F5F5F5F5F5F5F5F5F5F5F5F5F5F5F5F5F5F5F5F5F5F5F5
310
F5F5F5F5F5F5F5F5F5F5F5F5F5F5F5F5F5F5F5F5F5F5F5F5E2F5F5F5F5F5F5F5F5F5F5F5F5F5F5F5F5E2F5F5F5F5E2E2F5F5F5F5E2F5F5F5F5F5F5F5F5F5F5F5F5F5F5F5F5E2F5F5F5F5F5F5F5F5F5F5F5F5F5F5F5F5F5F5F5F5F5F5F5F5F5F5F5F5F5F5F5F5F5F5F5F5F5F5F5F5F5F5F5F5F5F5F5F5F5F5F5F5F5F5F5F5F5
310
F5F5F5F5F5F5F5F5F5F5F5F5F5F5F5F5F5F5F5F5F5F5F5F5F5F5F5F5F5F5F5F5F5F5F5F5F5F5F5F5F5F5F5F5F5F5F5F5F5F5F5F5F5F5F5F5F5F5F5F5F5F5F5F5F5F5F5F5F5F5F5F5F5F5F5F5F5E2F5F5F5F5F5F5F5F5F5F5F5F5F5F5F5F5E2F5F5F5F5E2E2F5F5F5F5E2F5F5F5F5F5F5F5F5F5F5F5F5F5F5F5F5E2F5F5F5F5
310
F5F5F5F5F5F5F5F5F5F5F5F5F5F5F5F5F5F5F5F5F5F5F5F5F5F5F5F5F5F5F5F5F5F5F5F5F5F5F5F5F5F5F5F5F5F5F5F5F5F5F5F5F5F5F5F5F5F5F5F5F5F5F5F5F5F5F5F5F5F5F5F5F5F5F5F5F5F5F5F5F5F5F5F5F5F5F5F5F5F5F5F5F5F5F5F5F5F5F5F5F5F5F5F5F5F5F5F5F5F5F5F5F5F5F5F5F5F5F5F5F5F5F5F5F5F5F5
310
F5F5F5E2F5F5F5F5F5F5F5F5F5F5F5F5F5F5F5F5E2F5F5F5F5E2E2F5F5F5F5F5F5F5F5F5F5F5F5F5F5F5F5F5F5F5F5F5E2F5F5F5F5F5F5F5F5F5F5F5F5F5F5F5F5F5F5F5F5F5F5F5F5F5F5F5F5F5F5F5F5F5F5F5F5F5F5F5F5F5F5F5F5F5F5F5F5F5F5F5F5F5F5F5F5F5F5F5F5F5F5F5F5F5F5F5F5F5F5F5F5F5F5F5F5F5F5
310
F5F5F5F5F5F5F5F5F5F5F5F5F5F5F5F5F5F5F5F5F5F5F5F5F5F5F5F5F5F5F5F5F5F5F5F5F5F5F5F5F5F5F5F5F5F5F5F5F5F5F5F5F5F5F5F5E2F5F5F5F5F5F5F5F5F5F5F5F5F5F5F5F5F5F5F5F5F5E2E2F5F5F5F5F5F5F5F5F5F5F5F5F5F5F5F5F5F5F5F5F5E2F5F5F5F5F5F5F5F5F5F5F5F5F5F5F5F5F5F5F5F5F5F5F5F5F5
310
F5F5F5F5F5F5F5F5F5F5F5F5F5F5F5F5F5F5F5F5F5F5F5F5F5F5F5F5F5F5F5F5F5F5F5F5F5F5F5F5F5F5F5F5F5F5F5F5F5F5F5F5F5F5F5F5F5F5F5F5F5F5F5F5F5F5F5F5F5F5F5F5F5F5F5F5F5F5F5F5F5F5F5F5F5F5F5F5F5F5F5F5F5F5F5F5F5F5F5F5F5F5F5F5F5F5F5F5F5E2F5F5F5F5F5F5F5F5F5F5F5F5F5F5F5F5F5
310
F5F5F5F5E2E2F5F5F5F5F5F5F5F5F5F5F5F5F5F5F5F5F5F5F5F5F5E2F5F5F5F5F5F5F5F5F5F5F5F5F5F5F5F5F5F5F5F5F5F5F5F5F5F5F5F5F5F5F5F5F5F5F5F5F5F5F5F5F5F5F5F5F5F5F5F5F5F5F5F5F5F5F5F5F5F5F5F5F5F5F5F5F5F5F5F5F5F5F5F5F5F5F5F5F5F5F5F5F5F5F5F5F5F5F5F5F5F5F5F5F5F5F5F5F5F5F5
310
F5F5F5F5F5F5F5F5F5F5F5F5F5F5F5F5F5F5F5F5F5F5F5F5F5F5F5F5F5F5F5F5F5F5F5E2F5F5F5F5F5F5F5F5F5F5F5F5F5F5F5F5F5F5F5F5F5E2E2F5F5F5F5F5F5F5F5F5F5F5F5F5F5F5F5F5F5F5F5F5E2F5F5F5F5F5F5F5F5F5F5F5F5F5F5F5F5F5F5F5F5F5F5F5F5F5F5F5F5F5F5F5F5F5F5F5F5F5F5F5F5F5F5F5F5F5F5
310
F5F5F5F5F5F5F5F5F5F5F5F5F5F5F5F5F5F5F5F5F5F5F5F5F5F5F5F5F5F5F5F5F5F5F5F5F5F5F5F5F5F5F5F5F5F5F5F5F5F5F5F5F5F5F5F5F5F5F5F5F5F5F5F5F5F5F5F5F5F5F5F5F5F5F5F5F5F5F5F5F5F5F5F5F5F5F5F5E2F5F5F5F5F5F5F5F5F5F5F5F5F5F5F5F5F5F5F5F5F5E2E2F5F5F5F5F5F5F5F5F5F5F5F5F5F5F5
310
F5F5F5F5F5F5E2E2E2E2E2E2E2E2E2E2E2E2E2E2E2E2E2E2E2E2E2E2E2E2E2E2E2E2E2E2E2E2E2E2E2E2E2E2E2E2E2E2E2E2E2E2E2E2E2E2E2E2E2E2E2E2E2E2E2E2E2E2E2E2E2E2E2E2E2E2E2E2E2E2E2E2E2E2E2E2E2E2E2E2E2E2E2E2E2E2E2E2E2E2E2E2E2E2E2E2E2E2E2E2E2E2E2E2E2E2E2E2E2E2E2E2E2E2E2E2E2
310
E2E2E2E2E2E2E2E2E2E2E2E2E2E2E2F5F5F5F5F5F5F5F5F5F5F5F5F5F5F5F5F5F5F5F5F5E2E2F5F5F5F5F5F5F5F5F5F5F5F5F5F5F5F5F5F5F5F5F5F5F5F5F5F5F5F5F5F5F5F5F5F5F5F5F5F5F5F5F5F5F5F5F5F5F5F5F5F5F5F5F5F5F5F5F5F5F5F5F5F5F5F5F5F5F5F5F5F5F5F5F5F5F5F5F5F5F5F5F5F5F5F5F5F5F5F5F5
310
F5F5F5F5F5F5F5F5F5F5F5F5F5F5F5F5F5F5F5F5F5F5F5F5F5F5F5F5F5F5F5F5F5F5F5F5F5F5F5F5F5F5F5F5F5F5F5F5F5F5F5F5F5F5F5F5F5F5F5F5F5F5F5F5F5F5F5F5F5F5F5F5F5F5F5F5F5F5F5F5F5F5F5F5F5F5F5F5F5E2E2F5F5F5F5F5F5F5F5F5F5F5F5F5F5F5F5F5F5F5F5F5F5F5F5F5F5F5F5F5F5F5F5F5F5F5F5
310
F5F5F5F5F5F5F5F5F5F5F5F5F5F5F5F5F5F5F5F5F5F5F5F5F5F5F5F5F5F5F5F5F5F5F5F5F5F5F5F5F5F5F5F5F5F5F5F5F5F5F5F5F5F5F5F5F5F5F5F5F5F5F5F5F5F5F5F5F5F5F5F5F5F5F5F5F5F5F5F5F5F5F5F5F5F5F5F5F5F5F5F5F5F5F5F5F5F5F5F5F5F5F5F5F5F5F5F5F5F5F5F5F5F5F5F5F5F5F5F5F5F5F5F5F5F5F5
310
F5F5F5F5F5F5F5F5F5F5F5F5F5F5F5E2E2F5F5F5F5F5F5F5F5F5F5F5F5F5F5F5F5F5F5F5F5F5F5F5F5F5F5F5F5F5F5F5F5F5F5F5F5F5F5F5F5F5F5F5F5F5F5F5F5F5F5F5F5F5F5F5F5F5F5F5F5F5F5F5F5F5F5F5F5F5F5F5F5F5F5F5F5F5F5F5F5F5F5F5F5F5F5F5F5F5F5F5F5F5F5F5F5F5F5F5F5F5F5F5F5F5F5F5F5F5F5
310
F5F5F5F5F5F5F5F5F5F5F5F5F5F5F5F5F5F5F5F5F5F5F5F5F5F5F5F5F5F5F5F5F5F5F5F5F5F5F5F5F5F5F5F5F5F5F5F5F5F5F5F5F5F5F5F5F5F5F5F5F5F5F5F5F5F5F5F5E2E2F5F5F5F5F5F5F5F5F5F5F5F5F5F5F5F5F5F5F5F5F5F5F5F5F5F5F5F5F5F5F5F5F5F5F5F5F5F5F5F5F5F5F5F5F5F5F5F5F5F5F5F5F5F5F5F5F5
310
F5F5F5F5F5F5F5F5F5F5F5F5F5F5F5F5F5F5F5F5F5F5F5F5F5F5F5F5F5F5F5F5F5F5F5F5F5F5F5F5F5F5F5F5F5F5F5F5F5F5F5F5F5F5F5F5F5F5F5F5F5F5F5F5F5F5F5F5F5F5F5F5F5F5F5F5F5F5F5F5F5F5F5F5F5F5F5F5F5F5F5F5F5F5F5F5F5F5F5F5F5F5F5F5F5F5F5F5F5F5F5F5F5F5F5F5F5F5F5F5F5E2E2F5F5F5F5
310
E2F5F5F5F5F5F5F5F5F5F5F5F5F5F5F5F5F5F5F5F5F5F5F5F5F5F5F5F5F5F5F5F5F5F5F5F5F5F5F5F5F5F5F5F5F5F5F5F5F5F5F5F5F5F5F5F5F5F5F5F5F5F5F5F5F5F5F5F5F5F5F5F5F5F5F5F5F5F5F5F5F5F5F5F5F5F5F5F5F5F5F5F5F5F5F5F5F5F5F5F5F5F5F5F5F5F5F5F5F5F5F5F5F5F5F5F5F5F5F5F5F5F5F5F5F5F5
310
F5F5F5F5F5F5F5F5F5F5F5F5F5F5F5F5F5F5F5F5F5F5F5F5F5F5F5F5F5F5F5F5F5F5F5F5F5F5F5F5F5F5E2F5F5F5F5E2E2F5F5F5F5E2F5F5F5F5F5F5F5F5F5F5F5F5F5F5F5F5F5F5F5F5F5F5F5F5F5F5F5F5F5F5F5F5F5F5F5F5F5F5F5F5F5F5F5F5F5F5F5F5F5F5F5F5F5F5F5F5F5F5F5F5F5F5F5F5F5F5F5F5F5F5F5F5F5
310
F5F5F5F5F5F5F5F5F5F5F5F5F5F5F5F5F5F5F5F5F5F5F5F5F5F5F5F5F5F5F5F5F5F5F5F5F5F5F5F5F5F5F5F5F5F5F5F5F5F5F5F5F5F5F5F5F5F5F5F5F5F5F5F5F5F5F5F5F5F5F5F5F5F5F5F5F5F5F5F5F5F5F5F5F5F5F5F5F5F5F5F5F5F5F5E2F5F5F5F5E2E2F5F5F5F5E2F5F5F5F5F5F5F5F5F5F5F5F5F5F5F5F5F5F5F5F5
310
F5F5F5F5F5F5F5F5F5F5F5F5F5F5F5F5F5F5F5F5F5F5F5F5F5F5F5F5F5F5F5F5F5F5F5F5F5F5F5F5F5F5F5F5F5F5F5F5F5F5F5F5F5F5F5F5F5F5F5F5F5F5F5F5F5F5F5F5F5F5F5F5F5F5F5F5F5F5F5F5F5F5F5F5F5F5F5F5F5F5F5F5F5F5F5F5F5F5F5F5F5F5F5F5F5F5F5F5F5F5F5F5F5F5F5F5F5F5F5F5F5F5F5F5F5F5F5
310
F5F5F5F5F5F5F5F5F5F5F5F5F5F5F5F5F5F5F5F5F5E2F5F5F5F5E2E2F5F5F5F5E2F5F5F5F5F5F5F5F5F5F5F5F5F5F5F5F5F5F5F5F5F5F5F5F5F5F5F5F5F5F5F5F5F5F5F5F5F5F5F5F5F5F5F5F5F5F5F5F5F5F5F5F5F5F5F5F5F5F5F5F5F5F5F5F5F5F5F5F5F5F5F5F5F5F5F5F5F5F5F5F5F5F5F5F5F5F5F5F5F5F5F5F5F5F5
310
F5F5F5F5F5F5F5F5F5F5F5F5F5F5F5F5F5F5F5F5F5F5F5F5F5F5F5F5F5F5F5F5F5F5F5F5F5F5F5F5F5F5F5F5F5F5F5F5F5F5F5F5F5F5F5F5F5F5F5F5F5F5F5F5F5F5F5F5F5F5F5F5F5F5E2F5F5F5F5E2E2F5F5F5F5E2F5F5F5F5F5F5F5F5F5F5F5F5F5F5F5F5F5F5F5F5F5F5F5F5F5F5F5F5F5F5F5F5F5F5F5F5F5F5F5F5F5
310
F5F5F5F5F5F5F5F5F5F5F5F5F5F5F5F5F5F5F5F5F5F5F5F5F5F5F5F5F5F5F5F5F5F5F5F5F5F5F5F5F5F5F5F5F5F5F5F5F5F5F5F5F5F5F5F5F5F5F5F5F5F5F5F5F5F5F5F5F5F5F5F5F5F5F5F5F5F5F5F5F5F5F5F5F5F5F5F5F5F5F5F5F5F5F5F5F5F5F5F5F5F5F5F5F5F5F5F5F5F5F5F5F5F5F5F5F5F5F5F5F5F5F5F5F5F5F5
310
E2F5F5F5F5E2E2F5F5F5F5E2F5F5F5F5F5F5F5F5F5F5F5F5F5F5F5F5F5F5F5F5F5F5F5F5F5F5F5F5F5F5F5F5F5F5F5F5F5F5F5F5F5F5F5F5F5F5F5F5F5F5F5F5F5F5F5F5F5F5F5F5F5F5F5F5F5F5F5F5F5F5F5F5F5F5F5F5F5F5F5F5F5F5F5F5F5F5F5F5F5F5F5F5F5F5F5F5F5F5F5F5F5F5F5F5F5F5F5F5F5F5F5F5F5F5F5
310
F5F5F5F5F5F5F5F5F5F5F5F5F5F5F5F5F5F5F5F5F5F5F5F5F5F5F5F5F5F5F5F5F5F5F5F5F5F5F5F5F5F5F5F5F5F5F5F5F5F5F5F5F5E2F5F5F5F5E2E2F5F5F5F5E2F5F5F5F5F5F5F5F5F5F5F5F5F5F5F5F5F5F5F5F5F5F5F5F5F5F5F5F5F5F5F5F5F5F5F5F5F5F5F5F5F5F5F5F5F5F5F5F5F5F5F5F5F5F5F5F5F5F5F5F5F5F5
310
F5F5F5F5F5F5F5F5F5F5F5F5F5F5F5F5F5F5F5F5F5F5F5F5F5F5F5F5F5F5F5F5F5F5F5F5F5F5F5F5F5F5F5F5F5F5F5F5F5F5F5F5F5F5F5F5F5F5F5F5F5F5F5F5F5F5F5F5F5F5F5F5F5F5F5F5F5F5F5F5F5F5F5F5F5F5F5F5F5F5F5F5F5F5F5F5F5F5F5F5F5F5F5F5F5F5E2F5F5F5F5E2E2F5F5F5F5E2F5F5F5F5F5F5F5F5F5
310
F5F5F5F5F5F5F5F5F5F5F5F5F5F5F5F5F5F5F5F5F5F5F5F5F5F5F5F5F5F5F5F5F5F5F5F5F5F5F5F5F5F5F5F5F5F5F5F5F5F5F5F5F5F5F5F5F5F5F5F5F5F5F5F5F5F5F5F5F5F5F5F5F5F5F5F5F5F5F5F5F5F5F5F5F5F5F5F5F5F5F5F5F5F5F5F5F5F5F5F5F5F5F5F5F5F5F5F5F5F5F5F5F5F5F5F5F5F5F5F5F5F5F5F5F5F5F5
310
F5F5F5F5F5F5F5F5F5F5F5F5F5F5F5F5F5F5F5F5F5F5F5F5F5F5F5F5F5F5F5F5E2F5F5F5F5E2E2F5F5F5F5E2E2E2E2E2E2E2E2F5F5F5F5F5F5F5F5F5E2E2E2E2E2E2E2E2E2E2E2E2E2E2E2F5F5F5F5F5F5F5F5F5E2E2E2E2E2E2E2E2E2E2E2E2E2E2E2E2F5F5F5F5F5F5F5F5E2E2E2E2E2E2E2E2E2E2E2E2E2E2E2E2F5F5F5
310
F5F5F5F5F5E2E2E2E2E2E2E2E2E2E2E2E2E2E2E2E2F5F5F5F5F5F5F5F5E2E2E2E2E2E2E2E2E2E2E2E2E2E2E2E2F5F5F5F5F5F5F5F5F5E2E2E2E2E2E2E2E2E2E2E2E2E2E2E2F5F5F5F5F5F5F5F5F5E2E2E2E2E2E2E2E2F5F5F5F5E2E2F5F5F5F5F5F5F5F5F5F5F5F5F5F5F5F5F5F5F5F5F5F5F5F5F5F5F5F5F5F5F5F5F5F5F5
310
F5F5F5F5F5F5F5F5F5F5F5F5F5F5F5F5F5F5F5F5F5F5F5F5F5F5F5F5F5F5F5F5F5F5F5F5F5F5F5F5F5F5F5F5F5F5F5F5F5F5F5F5F5F5F5F5F5F5F5F5F5F5F5F5F5F5F5F5F5F5F5F5F5F5F5F5F5F5F5F5F5F5F5F5F5F5F5F5F5F5F5F5F5F5F5F5F5F5F5F5F5F5F5F5F5F5F5F5F5F5F5F5F5F5F5F5F5F5F5F5F5F5F5F5F5F5F5
310
F5F5F5F5F5F5F5F5F5F5F5F5F5F5F5F5E2E2F5F5F5F5F5F5F5F5F5F5F5F5F5F5F5F5F5F5F5F5F5F5F5F5F5F5F5F5F5F5F5F5F5F5F5F5F5F5F5F5F5F5F5F5F5F5F5F5F5F5F5F5F5F5F5F5F5F5F5F5F5F5F5F5F5F5F5F5F5F5F5F5F5F5F5F5F5F5F5F5F5F5F5F5F5F5F5F5F5F5F5F5F5F5F5F5F5F5F5F5F5F5F5F5F5F5F5F5F5
310
F5F5F5F5F5F5F5F5F5F5F5F5F5F5F5F5F5F5F5F5F5F5F5F5F5F5F5F5F5F5F5F5F5F5F5F5F5F5F5F5F5F5F5F5F5F5F5F5F5F5F5F5F5F5F5F5F5F5F5F5F5F5F5F5F5F5F5F5F5E2E2F5F5F5F5F5F5F5F5F5F5F5F5F5F5F5F5F5F5F5F5F5F5F5F5F5F5F5F5F5F5F5F5F5F5F5F5F5F5F5F5F5F5F5F5F5F5F5F5F5F5F5F5F5F5F5F5
310
F5F5F5F5F5F5F5F5F5F5F5F5F5F5F5F5F5F5F5F5F5F5F5F5F5F5F5F5F5F5F5F5F5F5F5F5F5F5F5F5F5F5F5F5F5F5F5F5F5F5F5F5F5F5F5F5F5F5F5F5F5F5F5F5F5F5F5F5F5F5F5F5F5F5F5F5F5F5F5F5F5F5F5F5F5F5F5F5F5F5F5F5F5F5F5F5F5F5F5F5F5F5F5F5F5F5F5F5F5F5F5F5F5F5F5F5F5F5F5F5F5F5E2E2E2E2E2
310
E2E2E2E2E2E2E2E2E2E2E2E2E2E2E2E2E2E2E2E2E2E2E2E2E2E2E2E2E2E2E2E2E2E2E2E2E2E2E2E2E2E2E2E2E2E2E2E2E2E2E2E2E2E2E2E2E2E2E2E2E2E2E2E2E2E2E2E2E2E2E2E2E2E2E2E2E2E2E2E2E2E2E2E2E2E2E2E2E2E2E2E2E2E2E2E2E2E2E2E2E2E2E2E2E2E2E2E2E2E2E2E2E2E2E2E2E2E2E2E2E2E2E2E2E2E2E2
310
E2E2E2E2E2E2E2E2E2E2E2E2E2E2E2E2E2E2E2E2E2E2E2E2E2E2E2E2E2E2E2E2E2E2E2E2E2E2E2E2E2E2E2E2E2E2E2E2E2
  0
XRECORD
  5
5A08F
102
{ACAD_REACTORS
330
B5
102
}
330
B5
100
AcDbXrecord
280
     1
102
SHADEPLOT
 70
     0
102
SHADEPLOTRESLEVEL
 70
     2
102
SHADEPLOTCUSTOMDPI
 70
   300
  0
XRECORD
  5
B6
102
{ACAD_REACTORS
330
B5
102
}
330
B5
100
AcDbXrecord
280
     1
310
28000000B40000008B0000000100080000000000BC610000000000000000000000010000000000000000000000000000FFFFFF000000000000000000000000000000000000000000000000000000000000000000330000006600000099000000CC000000FF00000000330000333300006633000099330000CC330000FF3300
310
0000660000336600006666000099660000CC660000FF66000000990000339900006699000099990000CC990000FF99000000CC000033CC000066CC000099CC0000CCCC0000FFCC000000FF000033FF000066FF000099FF0000CCFF0000FFFF000000003300330033006600330099003300CC003300FF003300003333003333
310
33006633330099333300CC333300FF33330000663300336633006666330099663300CC663300FF66330000993300339933006699330099993300CC993300FF99330000CC330033CC330066CC330099CC3300CCCC3300FFCC330000FF330033FF330066FF330099FF3300CCFF3300FFFF330000006600330066006600660099
310
006600CC006600FF00660000336600333366006633660099336600CC336600FF33660000666600336666006666660099666600CC666600FF66660000996600339966006699660099996600CC996600FF99660000CC660033CC660066CC660099CC6600CCCC6600FFCC660000FF660033FF660066FF660099FF6600CCFF6600
310
FFFF660000009900330099006600990099009900CC009900FF00990000339900333399006633990099339900CC339900FF33990000669900336699006666990099669900CC669900FF66990000999900339999006699990099999900CC999900FF99990000CC990033CC990066CC990099CC9900CCCC9900FFCC990000FF99
310
0033FF990066FF990099FF9900CCFF9900FFFF99000000CC003300CC006600CC009900CC00CC00CC00FF00CC000033CC003333CC006633CC009933CC00CC33CC00FF33CC000066CC003366CC006666CC009966CC00CC66CC00FF66CC000099CC003399CC006699CC009999CC00CC99CC00FF99CC0000CCCC0033CCCC0066CC
310
CC0099CCCC00CCCCCC00FFCCCC0000FFCC0033FFCC0066FFCC0099FFCC00CCFFCC00FFFFCC000000FF003300FF006600FF009900FF00CC00FF00FF00FF000033FF003333FF006633FF009933FF00CC33FF00FF33FF000066FF003366FF006666FF009966FF00CC66FF00FF66FF000099FF003399FF006699FF009999FF00CC
310
99FF00FF99FF0000CCFF0033CCFF0066CCFF0099CCFF00CCCCFF00FFCCFF0000FFFF0033FFFF0066FFFF0099FFFF00CCFFFF00FFFFFF00000000000D0D0D001A1A1A00282828003535350043434300505050005D5D5D006B6B6B00787878008686860093939300A1A1A100AEAEAE00BBBBBB00C9C9C900D6D6D600E4E4E400
310
F1F1F100FFFFFF0000000000000000000000000000000000000000000000000000000000000000000000000000000000F5F5F5F5F5F5F5F5F5F5F5F5F5F5F5F5F5F5F5F5F5F5F5F5F5F5F5F5F5F5F5F5F5F5F5F5F5F5F5F5F5F5F5F5F5F5F5F5F5F5F5F5F5F5F5F5F5F5F5F5F5F5F5F5F5F5F5F5F5F5F5F5F5F5F5F5F5F5F5
310
F5F5F5F5F5F5F5F5F5F5F5F5F5F5F5F5F5F5F5F5F5F5F5F5F5F5F5F5F5F5F5F5F5F5F5F5F5F5F5F5F5F5F5F5F5F5F5F5F5F5F5F5F5F5F5F5F5F5F5F5F5F5F5F5F5F5F5F5F5F5F5F5F5F5F5F5F5F5F5F5F5F5F5F5F5F5F5F5F5F5F5F5F5F5F5F5F5F5F5F5F5F5E2E2E2E2E2E2E2E2E2E2E2E2E2E2E2E2E2E2E2E2E2E2E2E2E2
310
E2E2E2E2E2E2E2E2E2E2E2E2E2E2E2E2E2E2E2E2E2E2E2E2E2E2E2E2E2E2E2E2E2E2E2E2E2E2E2E2E2E2E2E2E2E2E2E2E2E2E2E2E2E2E2E2E2E2E2E2E2E2E2E2E2E2E2E2E2E2E2E2E2E2E2E2E2E2E2E2E2E2E2E2E2E2E2E2E2E2E2E2E2E2E2E2E2E2E2E2E2E2E2E2E2E2E2E2E2E2E2E2E2E2E2E2E2E2E2E2E2E2E2E2E2E2E2
310
E2E2E2E2E2E2E2E2E2E2E2E2E2E2E2E2E2E2E2E2E2E2E2E2E2E2F5F5E2E2E2E2E2E2E2E2E2E2E2E2E2E2E2E2E2E2E2E2E2E2E2E2E2E2E2E2E2E2E2E2E2E2E2E2E2E2E2E2E2E2E2E2E2E2E2E2E2E2E2E2E2E2E2E2E2E2E2E2E2E2E2E2E2E2E2E2E2E2E2E2E2E2E2E2E2E2E2E2E2E2E2E2E2E2E2E2E2E2E2E2E2E2E2E2E2E2E2
310
E2E2E2E2E2E2E2E2E2E2E2E2E2E2E2E2E2E2E2E2E2E2E2E2E2E2E2E2E2E2E2E2E2E2E2E2E2E2E2E2E2E2E2E2E2E2E2E2E2E2E2E2E2E2E2E2E2E2E2E2E2E2E2E2E2E2E2E2E2E2E2E2E2E2E2E2E2E2E2F5F5E2E2E2E2E2E2E2E2E2E2E2E2E2E2E2E2E2E2E2E2E2E2E2E2E2E2E2E2E2E2E2E2E2E2E2E2E2E2E2E2E2E2E2E2E2E2
310
E2E2E2E2E2E2E2E2E2E2E2E2E2E2E2E2E2E2E2E2E2E2E2E2E2E2E2E2E2E2E2E2E2E2E2E2E2E2E2E2E2E2E2E2E2E2E2E2E2E2E2E2E2E2E2E2E2E2E2E2E2E2E2E2E2E2E2E2E2E2E2E2E2E2E2E2E2E2E2E2E2E2E2E2E2E2E2E2E2E2E2E2E2E2E2E2E2E2E2E2E2E2E2E2E2E2E2E2E2E2E2E2E2E2E2E2E2E2E2E2E2E2E2E2E2E2E2
310
E2E2E2E2E2F5F5E2E2E2E2E2E2E2E2E2E2E2E2E2E2E2E2E2E2E2E2E2E2E2E2E2E2E2E2E2E2E2E2E2E2E2E2E2E2E2E2E2E2E2E2E2E2E2E2E2E2E2E2E2E2E2E2E2E2E2E2E2E2E2E2E2E2E2E2E2E2E2E2E2E2E2E2E2E2E2E2E2E2E2E2E2E2E2E2E2E2E2E2E2E2E2E2E2E2E2E2E2E2E2E2E2E2E2E2E2E2E2E2E2E2E2E2E2E2E2E2
310
E2E2E2E2E2E2E2E2E2E2E2E2E2E2E2E2E2E2E2E2E2E2E2E2E2E2E2E2E2E2E2E2E2E2E2E2E2E2E2E2E2E2E2E2E2E2E2E2E2E2E2E2E2E2E2E2E2E2F5F5E2E2E2F5F5F5F5F5F5F5F5E2E2E2E2E2E2E2E2E2F5F5F5F5F5F5F5F5F5F5F5F5F5F5F5F5E2E2E2E2E2E2E2E2E2F5F5F5F5F5F5F5F5F5F5F5F5F5F5F5E2E2E2E2E2E2E2
310
E2E2F5F5F5F5F5F5F5F5F5F5F5F5F5F5F5F5E2E2E2E2E2E2E2E2F5F5F5F5F5F5F5F5F5F5F5F5F5F5F5F5E2E2E2E2E2E2E2E2E2F5F5F5F5F5F5F5F5F5F5F5F5F5F5F5E2E2E2E2E2E2E2E2E2F5F5F5F5F5F5F5F5F5F5F5F5F5F5F5F5E2E2E2E2E2E2E2E2E2F5F5F5F5F5F5F5F5E2E2E2F5F5E2E2E2F5E2E2E2E2E2E2E2E2E2E2
310
E2E2E2E2E2E2E2E2E2E2E2E2E2E2E2E2E2E2E2E2E2E2E2E2E2E2E2E2E2E2E2E2E2E2E2E2E2E2E2E2E2E2E2E2E2E2E2E2E2E2E2E2E2E2E2E2E2E2E2E2E2E2E2E2E2E2E2E2E2E2E2E2E2E2E2E2E2E2E2E2E2E2E2E2E2E2E2E2E2E2E2E2E2E2E2E2E2E2E2E2E2E2E2E2E2E2E2E2E2E2E2E2E2E2E2E2E2E2E2E2E2E2E2E2E2E2E2
310
E2E2E2E2E2E2E2E2E2E2E2E2E2E2E2E2E2E2E2E2E2E2E2E2E2E2E2E2E2E2E2E2E2F5E2E2E2F5F5E2E2E2F5E2E2E2E2E2E2E2E2E2E2E2E2E2E2E2E2E2E2E2E2E2E2E2E2E2E2E2E2E2E2E2E2E2E2E2E2E2E2E2E2E2E2E2E2E2E2E2E2E2E2E2E2E2E2E2E2E2E2E2E2E2E2E2E2E2E2E2E2E2E2E2E2E2E2E2E2E2E2E2E2E2E2E2E2
310
E2E2E2E2E2E2E2E2E2E2E2E2E2E2E2E2E2E2E2E2E2E2E2E2E2E2E2E2E2E2E2E2E2E2E2E2E2E2E2E2E2E2E2E2E2E2E2E2E2E2E2E2E2E2E2E2E2E2E2E2E2E2E2E2E2E2E2E2E2E2E2E2E2E2E2E2E2E2E2E2E2E2E2E2E2E2F5E2E2E2F5F5E2E2E2F5E2E2E2E2E2E2E2E2E2E2E2E2E2E2E2E2E2E2E2E2E2E2E2E2E2E2E2E2E2E2E2
310
E2E2E2E2E2E2E2E2E2E2E2E2E2E2E2E2E2E2E2E2E2E2E2E2E2E2E2E2E2E2E2E2E2E2E2E2E2E2E2E2E2E2E2E2E2E2E2E2E2E2E2E2E2E2E2E2E2E2E2E2E2E2E2E2E2E2E2E2E2E2E2E2E2E2E2E2E2E2E2E2E2E2E2E2E2E2E2E2E2E2E2E2E2E2E2E2E2E2E2E2E2E2E2E2E2E2E2E2E2E2E2E2E2E2E2E2E2E2E2E2E2E2E2E2E2E2E2
310
E2E2E2E2E2E2E2E2E2E2E2E2F5E2E2E2F5F5E2E2E2F5E2E2E2E2E2E2E2E2E2E2E2E2E2E2E2E2E2E2E2E2E2E2E2E2E2E2E2E2E2E2E2E2E2E2E2E2E2E2E2E2E2E2E2E2E2E2E2E2E2E2E2E2E2E2E2E2E2E2E2E2E2E2E2E2E2E2E2E2E2E2E2E2E2E2E2E2E2E2E2E2E2E2E2E2E2E2E2E2E2E2E2E2E2E2E2E2E2E2E2E2E2E2E2E2E2
310
E2E2E2E2E2E2E2E2E2E2E2E2E2E2E2E2E2E2E2E2E2E2E2E2E2E2E2E2E2E2E2E2E2E2E2E2E2E2E2E2E2E2E2E2E2E2E2E2E2E2E2E2E2E2E2E2E2E2E2E2E2E2E2E2E2F5E2E2E2F5F5E2E2E2F5E2E2E2E2E2E2E2E2E2E2E2E2E2E2E2E2E2E2E2E2E2E2E2E2E2E2E2E2E2E2E2E2E2E2E2E2E2E2E2E2E2E2E2E2E2E2E2E2E2E2E2E2
310
E2E2E2E2E2E2E2E2E2E2E2E2E2E2E2E2E2E2E2E2E2E2E2E2E2E2E2E2E2E2E2E2E2E2E2E2E2E2E2E2E2E2E2E2E2E2E2E2E2E2E2E2E2E2E2E2E2E2E2E2E2E2E2E2E2E2E2E2E2E2E2E2E2E2E2E2E2E2E2E2E2E2E2E2E2E2E2E2E2E2E2E2E2E2E2E2E2E2E2E2E2E2E2E2E2E2E2E2E2E2E2E2E2E2E2E2E2E2F5E2E2E2F5F5E2E2E2
310
F5E2E2E2E2E2E2E2E2E2E2E2E2E2E2E2E2E2E2E2E2E2E2E2E2E2E2E2E2E2E2E2E2E2E2E2E2E2E2E2E2E2E2E2E2E2E2E2E2E2E2E2E2E2E2E2E2E2E2E2E2E2E2E2E2E2E2E2E2E2E2E2E2E2E2E2E2E2E2E2E2E2E2E2E2E2E2E2E2E2E2E2E2E2E2E2E2E2E2E2E2E2E2E2E2E2E2E2E2E2E2E2E2E2E2E2E2E2E2E2E2E2E2E2E2E2E2
310
E2E2E2E2E2E2E2E2E2E2E2E2E2E2E2E2E2E2E2E2E2E2E2E2E2E2E2E2E2E2E2E2E2E2E2E2E2E2E2E2E2E2E2E2F5E2E2E2F5F5E2E2E2F5E2E2E2E2E2E2E2E2E2E2E2E2E2E2E2E2E2E2E2E2E2E2E2E2E2E2E2E2E2E2E2E2E2E2E2E2E2E2E2E2E2E2E2E2E2E2E2E2E2E2E2E2E2E2E2E2E2E2E2E2E2E2E2E2E2E2E2E2E2E2E2E2E2
310
E2E2E2E2E2E2E2E2E2E2E2E2E2E2E2E2E2E2E2E2E2E2E2E2E2E2E2E2E2E2E2E2E2E2E2E2E2E2E2E2E2E2E2E2E2E2E2E2E2E2E2E2E2E2E2E2E2E2E2E2E2E2E2E2E2E2E2E2E2E2E2E2E2E2E2E2E2E2E2E2E2E2E2E2E2E2E2E2E2E2E2E2E2E2E2E2E2F5E2E2E2F5F5E2E2E2F5E2E2E2E2E2E2E2E2E2E2E2E2E2E2E2E2E2E2E2E2
310
E2E2E2E2E2E2E2E2E2E2E2E2E2E2E2E2E2E2E2E2E2E2E2E2E2E2E2E2E2E2E2E2E2E2E2E2E2E2E2E2E2E2E2E2E2E2E2E2E2E2E2E2E2E2E2E2E2E2E2E2E2E2E2E2E2E2E2E2E2E2E2E2E2E2E2E2E2E2E2E2E2E2E2E2E2E2E2E2E2E2E2E2E2E2E2E2E2E2E2E2E2E2E2E2E2E2E2E2E2E2E2E2E2E2E2E2E2E2E2E2E2E2E2E2E2E2E2
310
E2E2E2E2E2E2E2E2E2E2E2E2E2E2E2E2E2E2E2E2E2E2E2F5E2E2E2F5F5E2E2E2E2E2E2E2E2E2E2E2E2E2E2E2E2E2E2E2E2E2E2E2E2E2E2E2E2E2E2E2E2E2E2E2E2E2E2E2E2E2E2E2E2E2E2E2E2E2E2E2E2E2E2E2E2E2E2E2E2E2E2E2E2E2E2E2E2E2E2E2E2E2E2E2E2E2E2E2E2E2E2E2E2E2E2E2E2E2E2E2E2E2E2E2E2E2E2
310
E2E2E2E2E2E2E2E2E2E2E2E2E2E2E2E2E2E2E2E2E2E2E2E2E2E2E2E2E2E2E2E2E2E2E2E2E2E2E2E2E2E2E2E2E2E2E2E2E2E2E2E2E2E2E2E2E2E2E2E2E2E2E2E2E2E2E2E2E2E2E2E2E2E2E2E2E2E2E2E2F5F5E2E2E2E2E2E2E2E2E2E2E2E2E2E2E2E2E2E2E2E2E2E2E2E2E2E2E2E2E2E2E2E2E2E2E2E2E2E2E2E2E2E2E2E2E2
310
E2E2E2E2E2E2E2E2E2E2E2E2E2E2E2E2E2E2E2E2E2E2E2E2E2E2E2E2E2E2E2E2E2E2E2E2E2E2E2E2E2E2E2E2E2E2E2E2E2E2E2E2E2E2E2E2E2E2E2E2E2E2E2E2E2E2E2E2E2E2E2E2E2E2E2E2E2E2E2E2E2E2E2E2E2E2E2E2E2E2E2E2E2E2E2E2E2E2E2E2E2E2E2E2E2E2E2E2E2E2E2E2E2E2E2E2E2E2E2E2E2E2E2E2E2E2E2
310
E2E2E2E2E2E2F5F5E2E2E2E2E2E2E2E2E2E2E2E2E2E2E2E2E2E2E2E2E2E2E2E2E2E2E2E2E2E2E2E2E2E2E2E2E2E2E2E2E2E2E2E2E2E2E2E2E2E2E2E2E2E2E2E2E2E2E2E2E2E2E2E2E2E2E2E2E2E2E2E2E2E2E2E2E2E2E2E2E2E2E2E2E2E2E2E2E2E2E2E2E2E2E2E2E2E2E2E2E2E2E2E2E2E2E2E2E2E2E2E2E2E2E2E2E2E2E2
310
E2E2E2E2E2E2E2E2E2E2E2E2E2E2E2E2E2E2E2E2E2E2E2E2E2E2E2E2E2E2E2E2E2E2E2E2E2E2E2E2E2E2E2E2E2E2E2E2E2E2E2E2E2E2E2E2E2E2E2F5F5E2E2E2E2E2E2E2E2E2E2E2E2E2E2E2E2E2E2E2E2E2E2E2E2E2E2E2E2E2E2E2E2E2E2E2E2E2E2E2E2E2E2E2E2E2E2E2E2E2E2E2E2E2E2E2E2E2E2E2E2E2E2E2E2E2E2
310
E2E2E2E2E2E2E2E2E2E2E2E2E2E2E2E2E2E2E2E2E2E2E2E2E2E2E2E2E2E2E2E2E2E2E2E2E2E2E2E2E2E2E2E2E2E2E2E2E2E2E2E2E2E2E2E2E2E2E2E2E2E2E2E2E2E2E2E2E2E2E2E2E2E2E2E2E2E2E2E2E2E2E2E2E2E2E2E2E2E2E2E2E2E2E2E2E2E2E2E2E2E2E2E2E2E2E2E2E2E2E2E2F5F5E2E2E2E2E2E2E2E2E2E2E2E2E2
310
E2E2E2E2E2E2E2F5F5F5F5F5F5F5F5F5F5F5F5F5F5F5F5F5F5F5F5F5F5F5F5F5F5F5F5F5F5F5F5F5F5F5F5F5F5F5F5F5F5F5F5F5F5F5F5F5F5F5F5F5F5F5F5F5F5F5F5F5F5F5F5F5F5F5F5F5F5F5F5F5F5F5F5F5F5F5F5F5F5F5F5F5F5F5F5F5F5F5F5F5F5F5F5F5F5F5F5F5F5F5F5F5F5F5F5F5F5F5F5F5F5F5F5F5F5F5F5
310
F5F5F5F5F5F5F5F5F5F5F5F5F5F5F5F5F5F5E2E2E2E2E2E2E2E2E2E2E2E2E2E2E2E2E2E2E2E2F5F5E2E2E2E2E2E2E2E2E2E2E2E2E2E2E2E2E2E2E2E2F5E2E2E2E2E2E2E2E2E2E2E2E2E2E2E2E2E2E2E2E2E2E2E2E2E2E2E2E2E2E2E2E2E2E2E2E2E2E2E2E2E2E2E2E2E2E2E2E2E2E2E2E2E2E2E2E2E2E2E2E2E2E2E2E2E2E2
310
E2E2E2E2E2E2E2E2E2E2E2E2E2E2E2E2E2E2E2E2E2E2E2E2E2E2E2E2E2E2E2E2E2E2E2E2E2E2E2E2E2E2E2E2E2E2E2E2E2E2E2E2E2E2E2E2E2E2E2E2E2E2E2E2E2E2E2E2E2E2F5E2E2E2E2E2E2E2E2E2E2E2E2E2E2E2E2E2E2E2E2F5F5E2E2E2E2E2E2E2E2E2E2E2E2E2E2E2E2E2E2E2E2F5E2E2E2E2E2E2E2E2E2E2E2E2E2
310
E2E2E2E2E2E2E2E2E2E2E2E2E2E2E2E2E2E2E2E2E2E2E2E2E2E2E2E2E2E2E2E2E2E2E2E2E2E2E2E2E2E2E2E2E2E2E2E2E2E2E2E2E2E2E2E2E2E2E2E2E2E2E2E2E2E2E2E2E2E2E2E2E2E2E2E2E2E2E2E2E2E2E2E2E2E2E2E2E2E2E2E2E2E2E2E2E2E2E2E2E2E2E2E2E2E2E2E2E2E2E2E2E2E2E2E2E2E2E2E2E2E2E2F5E2E2E2
310
E2E2E2E2E2E2E2E2E2E2E2E2E2E2E2E2E2F5F5E2E2E2E2E2E2E2E2E2E2E2E2E2E2E2E2E2E2E2E2F5E2E2E2E2E2E2E2E2E2E2E2E2E2E2E2E2E2E2E2E2E2E2E2E2E2E2E2E2E2E2E2E2E2E2E2E2E2E2E2E2E2E2E2E2E2E2E2E2E2E2E2E2E2E2E2E2E2E2E2E2E2E2E2E2E2E2E2E2E2E2E2E2E2E2E2E2E2E2E2E2E2E2E2E2E2E2E2
310
E2E2E2E2E2E2E2E2E2E2E2E2E2E2E2E2E2E2E2E2E2E2E2E2E2E2E2E2E2E2E2E2E2E2E2E2E2E2E2E2E2E2E2E2E2E2E2E2E2F5E2E2E2E2E2E2E2E2E2E2E2E2E2E2E2E2E2E2E2E2F5F5E2E2E2E2E2E2E2E2E2E2E2E2E2E2E2E2E2E2E2E2F5E2E2E2E2E2E2E2E2E2E2E2E2E2E2E2E2E2E2E2E2E2E2E2E2E2E2E2E2E2E2E2E2E2E2
310
E2E2E2E2E2E2E2E2E2E2E2E2E2E2E2E2E2E2E2E2E2E2E2E2E2E2E2E2E2E2E2E2E2E2E2E2E2E2E2E2E2E2E2E2E2E2E2E2E2E2E2E2E2E2E2E2E2E2E2E2E2E2E2E2E2E2E2E2E2E2E2E2E2E2E2E2E2E2E2E2E2E2E2E2E2E2E2E2E2E2E2E2E2E2E2E2E2E2E2E2E2E2F5E2E2E2E2E2E2E2E2E2E2E2E2E2E2E2E2E2E2E2E2F5F5E2E2
310
E2F5E2E2E2E2E2E2E2E2E2E2E2E2E2E2E2E2F5E2E2E2E2E2E2E2E2E2E2E2E2E2E2E2E2E2E2E2E2E2E2E2E2E2E2E2E2E2E2E2E2E2E2E2E2E2E2E2E2E2E2E2E2E2E2E2E2E2E2E2E2E2E2E2E2E2E2E2E2E2E2E2E2E2E2E2E2E2E2E2E2E2E2E2E2E2E2E2E2E2E2E2E2E2E2E2E2E2E2E2E2E2E2E2E2E2E2E2E2E2E2E2E2E2E2E2E2
310
E2E2E2E2E2E2E2E2E2E2E2E2E2E2E2E2E2E2E2E2E2E2E2E2E2E2E2E2F5E2E2E2E2E2E2E2E2E2E2E2E2E2E2E2E2F5E2E2E2F5F5E2E2E2F5E2E2E2E2E2E2E2E2E2E2E2E2E2E2E2E2F5E2E2E2E2E2E2E2E2E2E2E2E2E2E2E2E2E2E2E2E2E2E2E2E2E2E2E2E2E2E2E2E2E2E2E2E2E2E2E2E2E2E2E2E2E2E2E2E2E2E2E2E2E2E2E2
310
E2E2E2E2E2E2E2E2E2E2E2E2E2E2E2E2E2E2E2E2E2E2E2E2E2E2E2E2E2E2E2E2E2E2E2E2E2E2E2E2E2E2E2E2E2E2E2E2E2E2E2E2E2E2E2E2E2E2E2E2E2E2E2E2E2E2E2E2E2E2E2E2E2E2E2E2E2E2E2E2E2F5E2E2E2E2E2E2E2E2E2E2E2E2E2E2E2E2F5E2E2E2F5F5E2E2E2F5E2E2E2E2E2E2E2E2E2E2E2E2E2E2E2E2F5E2E2
310
E2E2E2E2E2E2E2E2E2E2E2E2E2E2E2E2E2E2E2E2E2E2E2E2E2E2E2E2E2E2E2E2E2E2E2E2E2E2E2E2E2E2E2E2E2E2E2E2E2E2E2E2E2E2E2E2E2E2E2E2E2E2E2E2E2E2E2E2E2E2E2E2E2E2E2E2E2E2E2E2E2E2E2E2E2E2E2E2E2E2E2E2E2E2E2E2E2E2E2E2E2E2E2E2E2E2E2E2E2E2E2E2E2E2E2E2E2E2E2E2E2E2E2E2E2E2E2
310
E2E2E2E2E2E2E2F5E2E2E2E2E2E2E2E2E2E2E2E2E2E2E2E2F5E2E2E2F5F5E2E2E2F5E2E2E2E2E2E2E2E2E2E2E2E2E2E2E2E2F5E2E2E2E2E2E2E2E2E2E2E2E2E2E2E2E2E2E2E2E2E2E2E2E2E2E2E2E2E2E2E2E2E2E2E2E2E2E2E2E2E2E2E2E2E2E2E2E2E2E2E2E2E2E2E2E2E2E2E2E2E2E2E2E2E2E2E2E2E2E2E2E2E2E2E2E2
310
E2E2E2E2E2E2E2E2E2E2E2E2E2E2E2E2E2E2E2E2E2E2E2E2E2E2E2E2E2E2E2E2E2E2E2E2E2E2E2E2E2E2E2E2E2E2E2E2E2E2E2E2E2E2E2E2E2E2E2E2F5E2E2E2E2E2E2E2E2E2E2E2E2E2E2E2E2F5E2E2E2F5F5E2E2E2F5E2E2E2E2E2E2E2E2E2E2E2E2E2E2E2E2F5E2E2E2E2E2E2E2E2E2E2E2E2E2E2E2E2E2E2E2E2E2E2E2
310
E2E2E2E2E2E2E2E2E2E2E2E2E2E2E2E2E2E2E2E2E2E2E2E2E2E2E2E2E2E2E2E2E2E2E2E2E2E2E2E2E2E2E2E2E2E2E2E2E2E2E2E2E2E2E2E2E2E2E2E2E2E2E2E2E2E2E2E2E2E2E2E2E2E2E2E2E2E2E2E2E2E2E2E2E2E2E2E2E2E2E2E2E2E2E2E2E2E2E2E2E2E2E2E2E2E2E2E2E2E2E2E2E2F5E2E2E2E2E2E2E2E2E2E2E2E2E2
310
E2E2E2F5E2E2E2F5F5E2E2E2F5E2E2E2E2E2E2E2E2E2E2E2E2E2E2E2E2F5E2E2E2E2E2E2E2E2E2E2E2E2E2E2E2E2E2E2E2E2E2E2E2E2E2E2E2E2E2E2E2E2E2E2E2E2E2E2E2E2E2E2E2E2E2E2E2E2E2E2E2E2E2E2E2E2E2E2E2E2E2E2E2E2E2E2E2E2E2E2E2E2E2E2E2E2E2E2E2E2E2E2E2E2E2E2E2E2E2E2E2E2E2E2E2E2E2
310
E2E2E2E2E2E2E2E2E2E2E2E2E2E2E2E2E2E2E2E2E2E2E2E2E2E2E2E2E2E2E2E2E2E2E2E2E2E2E2F5E2E2E2E2E2E2E2E2E2E2E2E2E2E2E2E2F5E2E2E2F5F5E2E2E2F5E2E2E2E2E2E2E2E2E2E2E2E2E2E2E2E2F5E2E2E2E2E2E2E2E2E2E2E2E2E2E2E2E2E2E2E2E2E2E2E2E2E2E2E2E2E2E2E2E2E2E2E2E2E2E2E2E2E2E2E2E2
310
E2E2E2E2E2E2E2E2E2E2E2E2E2E2E2E2E2E2E2E2E2E2E2E2E2E2E2E2E2E2E2E2E2E2E2E2E2E2E2E2E2E2E2E2E2E2E2E2E2E2E2E2E2E2E2E2E2E2E2E2E2E2E2E2E2E2E2E2E2E2E2E2E2E2E2E2E2E2E2E2E2E2E2E2E2E2E2E2E2E2E2E2F5E2E2E2E2E2E2E2E2E2E2E2E2E2E2E2E2F5E2E2E2F5F5E2E2E2F5E2E2E2E2E2E2E2E2
310
E2E2E2E2E2E2E2E2F5E2E2E2E2E2E2E2E2E2E2E2E2E2E2E2E2E2E2E2E2E2E2E2E2E2E2E2E2E2E2E2E2E2E2E2E2E2E2E2E2E2E2E2E2E2E2E2E2E2E2E2E2E2E2E2E2E2E2E2E2E2E2E2E2E2E2E2E2E2E2E2E2E2E2E2E2E2E2E2E2E2E2E2E2E2E2E2E2E2E2E2E2E2E2E2E2E2E2E2E2E2E2E2E2E2E2E2E2E2E2E2E2E2E2E2E2E2E2
310
E2E2E2E2E2E2E2E2E2E2E2E2E2E2E2E2E2E2F5E2E2E2E2E2E2E2E2E2E2E2E2E2E2E2E2F5E2E2E2F5F5E2E2E2F5E2E2E2E2E2E2E2E2E2E2E2E2E2E2E2E2F5E2E2E2E2E2E2E2E2E2E2E2E2E2E2E2E2E2E2E2E2E2E2E2E2E2E2E2E2E2E2E2E2E2E2E2E2E2E2E2E2E2E2E2E2E2E2E2E2E2E2E2E2E2E2E2E2E2E2E2E2E2E2E2E2E2
310
E2E2E2E2E2E2E2E2E2E2E2E2E2E2E2E2E2E2E2E2E2E2E2E2E2E2E2E2E2E2E2E2E2E2E2E2E2E2E2E2E2E2E2E2E2E2E2E2E2E2E2E2E2E2E2E2E2E2E2E2E2E2E2E2E2E2E2E2E2E2E2F5E2E2E2E2E2E2E2E2E2E2E2E2E2E2E2E2F5E2E2E2F5F5E2E2E2F5E2E2E2E2E2E2E2E2E2E2E2E2E2E2E2E2F5E2E2E2E2E2E2E2E2E2E2E2E2
310
E2E2E2E2E2E2E2E2E2E2E2E2E2E2E2E2E2E2E2E2E2E2E2E2E2E2E2E2E2E2E2E2E2E2E2E2E2E2E2E2E2E2E2E2E2E2E2E2E2E2E2E2E2E2E2E2E2E2E2E2E2E2E2E2E2E2E2E2E2E2E2E2E2E2E2E2E2E2E2E2E2E2E2E2E2E2E2E2E2E2E2E2E2E2E2E2E2E2E2E2E2E2E2E2E2E2E2E2E2E2E2E2E2E2E2E2E2E2E2E2E2E2E2E2F5E2E2
310
E2E2E2E2E2E2E2E2E2E2E2E2E2E2F5E2E2E2F5F5E2E2E2F5E2E2E2E2E2E2E2E2E2E2E2E2E2E2E2E2F5E2E2E2E2E2E2E2E2E2E2E2E2E2E2E2E2E2E2E2E2E2E2E2E2E2E2E2E2E2E2E2E2E2E2E2E2E2E2E2E2E2E2E2E2E2E2E2E2E2E2E2E2E2E2E2E2E2E2E2E2E2E2E2E2E2E2E2E2E2E2E2E2E2E2E2E2E2E2E2E2E2E2E2E2E2E2
310
E2E2E2E2E2E2E2E2E2E2E2E2E2E2E2E2E2E2E2E2E2E2E2E2E2E2E2E2E2E2E2E2E2E2E2E2E2E2E2E2E2E2E2E2E2E2E2E2E2E2F5E2E2E2E2E2E2E2E2E2E2E2E2E2E2E2E2F5E2E2E2F5F5E2E2E2F5E2E2E2E2E2E2E2E2E2E2E2E2E2E2E2E2F5E2E2E2E2E2E2E2E2E2E2E2E2E2E2E2E2E2E2E2E2E2E2E2E2E2E2E2E2E2E2E2E2E2
310
E2E2E2E2E2E2E2E2E2E2E2E2E2E2E2E2E2E2E2E2E2E2E2E2E2E2E2E2E2E2E2E2E2E2E2E2E2E2E2E2E2E2E2E2E2E2E2E2E2E2E2E2E2E2E2E2E2E2E2E2E2E2E2E2E2E2E2E2E2E2E2E2E2E2E2E2E2E2E2E2E2E2E2E2E2E2E2E2E2E2E2E2E2E2E2E2E2E2E2E2E2E2E2F5E2E2E2E2E2E2E2E2E2E2E2E2E2E2E2E2F5E2E2E2F5F5E2
310
E2E2F5E2E2E2E2E2E2E2E2E2E2E2E2E2E2E2E2F5E2E2E2E2E2E2E2E2E2E2E2E2E2E2E2E2E2E2E2E2E2E2E2E2E2E2E2E2E2E2E2E2E2E2E2E2E2E2E2E2E2E2E2E2E2E2E2E2E2E2E2E2E2E2E2E2E2E2E2E2E2E2E2E2E2E2E2E2E2E2E2E2E2E2E2E2E2E2E2E2E2E2E2E2E2E2E2E2E2E2E2E2E2E2E2E2E2E2E2E2E2E2E2E2E2E2E2
310
E2E2E2E2E2E2E2E2E2E2E2E2E2E2E2E2E2E2E2E2E2E2E2E2E2E2E2E2E2F5E2E2E2E2E2E2E2E2E2E2E2E2E2E2E2E2F5E2E2E2F5F5E2E2E2F5E2E2E2E2E2E2E2E2E2E2E2E2E2E2E2E2F5E2E2E2E2E2E2E2E2E2E2E2E2E2E2E2E2E2E2E2E2E2E2E2E2E2E2E2E2E2E2E2E2E2E2E2E2E2E2E2E2E2E2E2E2E2E2E2E2E2E2E2E2E2E2
310
E2E2E2E2E2E2E2E2E2E2E2E2E2E2E2E2E2E2E2E2E2E2E2E2E2E2E2E2E2E2E2E2E2E2E2E2E2E2E2E2E2E2E2E2E2E2E2E2E2E2E2E2E2E2E2E2E2E2E2E2E2E2E2E2E2E2E2E2E2E2E2E2E2E2E2E2E2E2E2E2E2E2F5E2E2E2E2E2E2E2E2E2E2E2E2E2E2E2E2F5E2E2E2F5F5E2E2E2F5E2E2E2E2E2E2E2E2E2E2E2E2E2E2E2E2F5E2
310
E2E2E2E2E2E2E2E2E2E2E2E2E2E2E2E2E2E2E2E2E2E2E2E2E2E2E2E2E2E2E2E2E2E2E2E2E2E2E2E2E2E2E2E2E2E2E2E2E2E2E2E2E2E2E2E2E2E2E2E2E2E2E2E2E2E2E2E2E2E2E2E2E2E2E2E2E2E2E2E2E2E2E2E2E2E2E2E2E2E2E2E2E2E2E2E2E2E2E2E2E2E2E2E2E2E2E2E2E2E2E2E2E2E2E2E2E2E2E2E2E2E2E2E2E2E2E2
310
E2E2E2E2E2E2E2E2F5E2E2E2E2E2E2E2E2E2E2E2E2E2E2E2E2F5E2E2E2F5F5E2E2E2F5E2E2E2E2E2E2E2E2E2E2E2E2E2E2E2E2F5E2E2E2E2E2E2E2E2E2E2E2E2E2E2E2E2E2E2E2E2E2E2E2E2E2E2E2E2E2E2E2E2E2E2E2E2E2E2E2E2E2E2E2E2E2E2E2E2E2E2E2E2E2E2E2E2E2E2E2E2E2E2E2E2E2E2E2E2E2E2E2E2E2E2E2
310
E2E2E2E2E2E2E2E2E2E2E2E2E2E2E2E2E2E2E2E2E2E2E2E2E2E2E2E2E2E2E2E2E2E2E2E2E2E2E2E2E2E2E2E2E2E2E2E2E2E2E2E2E2E2E2E2E2E2E2E2E2F5E2E2E2E2E2E2E2E2E2E2E2E2E2E2E2E2F5E2E2E2F5F5E2E2E2F5E2E2E2E2E2E2E2E2E2E2E2E2E2E2E2E2F5E2E2E2E2E2E2E2E2E2E2E2E2E2E2E2E2E2E2E2E2E2E2
310
E2E2E2E2E2E2E2E2E2E2E2E2E2E2E2E2E2E2E2E2E2E2E2E2E2E2E2E2E2E2E2E2E2E2E2E2E2E2E2E2E2E2E2E2E2E2E2E2E2E2E2E2E2E2E2E2E2E2E2E2E2E2E2E2E2E2E2E2E2E2E2E2E2E2E2E2E2E2E2E2E2E2E2E2E2E2E2E2E2E2E2E2E2E2E2E2E2E2E2E2E2E2E2E2E2E2E2E2E2E2E2E2E2E2F5E2E2E2E2E2E2E2E2E2E2E2E2
310
E2E2E2E2F5E2E2E2F5F5E2E2E2E2E2E2E2E2E2E2E2E2E2E2E2E2E2E2E2E2F5E2E2E2E2E2E2E2E2E2E2E2E2E2E2E2E2E2E2E2E2E2E2E2E2E2E2E2E2E2E2E2E2E2E2E2E2E2E2E2E2E2E2E2E2E2E2E2E2E2E2E2E2E2E2E2E2E2E2E2E2E2E2E2E2E2E2E2E2E2E2E2E2E2E2E2E2E2E2E2E2E2E2E2E2E2E2E2E2E2E2E2E2E2E2E2E2
310
E2E2E2E2E2E2E2E2E2E2E2E2E2E2E2E2E2E2E2E2E2E2E2E2E2E2E2E2E2E2E2E2E2E2E2E2E2E2E2E2F5E2E2E2E2E2E2E2E2E2E2E2E2E2E2E2E2E2E2E2E2F5F5E2E2E2E2E2E2E2E2E2E2E2E2E2E2E2E2E2E2E2E2F5E2E2E2E2E2E2E2E2E2E2E2E2E2E2E2E2E2E2E2E2E2E2E2E2E2E2E2E2E2E2E2E2E2E2E2E2E2E2E2E2E2E2E2
310
E2E2E2E2E2E2E2E2E2E2E2E2E2E2E2E2E2E2E2E2E2E2E2E2E2E2E2E2E2E2E2E2E2E2E2E2E2E2E2E2E2E2E2E2E2E2E2E2E2E2E2E2E2E2E2E2E2E2E2E2E2E2E2E2E2E2E2E2E2E2E2E2E2E2E2E2E2E2E2E2E2E2E2E2E2E2E2E2E2E2E2E2E2F5E2E2E2E2E2E2E2E2E2E2E2E2E2E2E2E2E2E2E2E2F5F5E2E2E2E2E2E2E2E2E2E2E2
310
E2E2E2E2E2E2E2E2E2F5E2E2E2E2E2E2E2E2E2E2E2E2E2E2E2E2E2E2E2E2E2E2E2E2E2E2E2E2E2E2E2E2E2E2E2E2E2E2E2E2E2E2E2E2E2E2E2E2E2E2E2E2E2E2E2E2E2E2E2E2E2E2E2E2E2E2E2E2E2E2E2E2E2E2E2E2E2E2E2E2E2E2E2E2E2E2E2E2E2E2E2E2E2E2E2E2E2E2E2E2E2E2E2E2E2E2E2E2E2E2E2E2E2E2E2E2E2
310
E2E2E2E2E2E2E2E2E2E2E2E2E2E2E2E2E2E2E2F5E2E2E2E2E2E2E2E2E2E2E2E2E2E2E2E2E2E2E2E2F5F5E2E2E2E2E2E2E2E2E2E2E2E2E2E2E2E2E2E2E2E2F5E2E2E2E2E2E2E2E2E2E2E2E2E2E2E2E2E2E2E2E2E2E2E2E2E2E2E2E2E2E2E2E2E2E2E2E2E2E2E2E2E2E2E2E2E2E2E2E2E2E2E2E2E2E2E2E2E2E2E2E2E2E2E2E2
310
E2E2E2E2E2E2E2E2E2E2E2E2E2E2E2E2E2E2E2E2E2E2E2E2E2E2E2E2E2E2E2E2E2E2E2E2E2E2E2E2E2E2E2E2E2E2E2E2E2E2E2E2E2E2E2E2E2E2E2E2E2E2E2E2E2E2E2E2E2E2E2E2F5E2E2E2E2E2E2E2E2E2E2E2E2E2E2E2E2E2E2E2E2F5F5E2E2E2E2E2E2E2E2E2E2E2E2E2E2E2E2E2E2E2E2F5E2E2E2E2E2E2E2E2E2E2E2
310
E2E2E2E2E2E2E2E2E2E2E2E2E2E2E2E2E2E2E2E2E2E2E2E2E2E2E2E2E2E2E2E2E2E2E2E2E2E2E2E2E2E2E2E2E2E2E2E2E2E2E2E2E2E2E2E2E2E2E2E2E2E2E2E2E2E2E2E2E2E2E2E2E2E2E2E2E2E2E2E2E2E2E2E2E2E2E2E2E2E2E2E2E2E2E2E2E2E2E2E2E2E2E2E2E2E2E2E2E2E2E2E2E2E2E2E2E2E2E2E2E2E2E2E2E2F5E2
310
E2E2E2E2E2E2E2E2E2E2E2E2E2E2E2E2E2E2E2F5F5E2E2E2E2E2E2E2E2E2E2E2E2E2E2E2E2E2E2E2E2F5E2E2E2E2E2E2E2E2E2E2E2E2E2E2E2E2E2E2E2E2E2E2E2E2E2E2E2E2E2E2E2E2E2E2E2E2E2E2E2E2E2E2E2E2E2E2E2E2E2E2E2E2E2E2E2E2E2E2E2E2E2E2E2E2E2E2E2E2E2E2E2E2E2E2E2E2E2E2E2E2E2E2E2E2E2
310
E2E2E2E2E2E2E2E2E2E2E2E2E2E2E2E2E2E2E2E2E2E2E2E2E2E2E2E2E2E2E2E2E2E2E2E2E2E2E2E2E2E2E2E2E2E2E2E2E2E2E2F5E2E2E2E2E2E2E2E2E2E2E2E2E2E2E2E2E2E2E2E2F5F5E2E2E2E2E2E2E2E2E2E2E2E2E2E2E2E2E2E2E2E2F5E2E2E2E2E2E2E2E2E2E2E2E2E2E2E2E2E2E2E2E2E2E2E2E2E2E2E2E2E2E2E2E2
310
E2E2E2E2E2E2E2E2E2E2E2E2E2E2E2E2E2E2E2E2E2E2E2E2E2E2E2E2E2E2E2E2E2E2E2E2E2E2E2E2E2E2E2E2E2E2E2E2E2E2E2E2E2E2E2E2E2E2E2E2E2E2E2E2E2E2E2E2E2E2E2E2E2E2E2E2E2E2E2E2E2E2E2E2E2E2E2E2E2E2E2E2E2E2E2E2E2E2E2E2E2E2E2E2F5E2E2E2E2E2E2E2E2E2E2E2E2E2E2E2E2E2E2E2E2F5F5
310
E2E2E2E2E2E2E2E2E2E2E2E2E2E2E2E2E2E2E2E2F5E2E2E2E2E2E2E2E2E2E2E2E2E2E2E2E2E2E2E2E2E2E2E2E2E2E2E2E2E2E2E2E2E2E2E2E2E2E2E2E2E2E2E2E2E2E2E2E2E2E2E2E2E2E2E2E2E2E2E2E2E2E2E2E2E2E2E2E2E2E2E2E2E2E2E2E2E2E2E2E2E2E2E2E2E2E2E2E2E2E2E2E2E2E2E2E2E2E2E2E2E2E2E2E2E2E2
310
E2E2E2E2E2E2E2E2E2E2E2E2E2E2E2E2E2E2E2E2E2E2E2E2E2E2E2E2E2E2F5E2E2E2E2E2E2E2E2E2E2E2E2E2E2E2E2E2E2E2E2F5F5E2E2E2E2E2E2E2E2E2E2E2E2E2E2E2E2E2E2E2E2F5E2E2E2E2E2E2E2E2E2E2E2E2E2E2E2E2E2E2E2E2E2E2E2E2E2E2E2E2E2E2E2E2E2E2E2E2E2E2E2E2E2E2E2E2E2E2E2E2E2E2E2E2E2
310
E2E2E2E2E2E2E2E2E2E2E2E2E2E2E2E2E2E2E2E2E2E2E2E2E2E2E2E2E2E2E2E2E2E2E2E2E2E2E2E2E2E2E2E2E2E2E2E2E2E2E2E2E2E2E2E2E2E2E2E2E2E2E2E2E2E2E2E2E2E2E2E2E2E2E2E2E2E2E2E2E2E2E2F5E2E2E2E2E2E2E2E2E2E2E2E2E2E2E2E2E2E2E2E2F5F5E2E2E2F5E2E2E2E2E2E2E2E2E2E2E2E2E2E2E2E2F5
310
E2E2E2E2E2E2E2E2E2E2E2E2E2E2E2E2E2E2E2E2E2E2E2E2E2E2E2E2E2E2E2E2E2E2E2E2E2E2E2E2E2E2E2E2E2E2E2E2E2E2E2E2E2E2E2E2E2E2E2E2E2E2E2E2E2E2E2E2E2E2E2E2E2E2E2E2E2E2E2E2E2E2E2E2E2E2E2E2E2E2E2E2E2E2E2E2E2E2E2E2E2E2E2E2E2E2E2E2E2E2E2E2E2E2E2E2E2E2E2E2E2E2E2E2E2E2E2
310
E2E2E2E2E2E2E2E2E2F5E2E2E2E2E2E2E2E2E2E2E2E2E2E2E2E2F5E2E2E2F5F5E2E2E2F5E2E2E2E2E2E2E2E2E2E2E2E2E2E2E2E2F5E2E2E2E2E2E2E2E2E2E2E2E2E2E2E2E2E2E2E2E2E2E2E2E2E2E2E2E2E2E2E2E2E2E2E2E2E2E2E2E2E2E2E2E2E2E2E2E2E2E2E2E2E2E2E2E2E2E2E2E2E2E2E2E2E2E2E2E2E2E2E2E2E2E2
310
E2E2E2E2E2E2E2E2E2E2E2E2E2E2E2E2E2E2E2E2E2E2E2E2E2E2E2E2E2E2E2E2E2E2E2E2E2E2E2E2E2E2E2E2E2E2E2E2E2E2E2E2E2E2E2E2E2E2E2E2E2E2F5E2E2E2E2E2E2E2E2E2E2E2E2E2E2E2E2F5E2E2E2F5F5E2E2E2F5E2E2E2E2E2E2E2E2E2E2E2E2E2E2E2E2F5E2E2E2E2E2E2E2E2E2E2E2E2E2E2E2E2E2E2E2E2E2
310
E2E2E2E2E2E2E2E2E2E2E2E2E2E2E2E2E2E2E2E2E2E2E2E2E2E2E2E2E2E2E2E2E2E2E2E2E2E2E2E2E2E2E2E2E2E2E2E2E2E2E2E2E2E2E2E2E2E2E2E2E2E2E2E2E2E2E2E2E2E2E2E2E2E2E2E2E2E2E2E2E2E2E2E2E2E2E2E2E2E2E2E2E2E2E2E2E2E2E2E2E2E2E2E2E2E2E2E2E2E2E2E2E2E2E2F5E2E2E2E2E2E2E2E2E2E2E2
310
E2E2E2E2E2F5E2E2E2F5F5E2E2E2F5E2E2E2E2E2E2E2E2E2E2E2E2E2E2E2E2F5E2E2E2E2E2E2E2E2E2E2E2E2E2E2E2E2E2E2E2E2E2E2E2E2E2E2E2E2E2E2E2E2E2E2E2E2E2E2E2E2E2E2E2E2E2E2E2E2E2E2E2E2E2E2E2E2E2E2E2E2E2E2E2E2E2E2E2E2E2E2E2E2E2E2E2E2E2E2E2E2E2E2E2E2E2E2E2E2E2E2E2E2E2E2E2
310
E2E2E2E2E2E2E2E2E2E2E2E2E2E2E2E2E2E2E2E2E2E2E2E2E2E2E2E2E2E2E2E2E2E2E2E2E2E2E2E2E2F5E2E2E2E2E2E2E2E2E2E2E2E2E2E2E2E2F5E2E2E2F5F5E2E2E2F5E2E2E2E2E2E2E2E2E2E2E2E2E2E2E2E2F5E2E2E2E2E2E2E2E2E2E2E2E2E2E2E2E2E2E2E2E2E2E2E2E2E2E2E2E2E2E2E2E2E2E2E2E2E2E2E2E2E2E2
310
E2E2E2E2E2E2E2E2E2E2E2E2E2E2E2E2E2E2E2E2E2E2E2E2E2E2E2E2E2E2E2E2E2E2E2E2E2E2E2E2E2E2E2E2E2E2E2E2E2E2E2E2E2E2E2E2E2E2E2E2E2E2E2E2E2E2E2E2E2E2E2E2E2E2E2E2E2E2E2E2E2E2E2E2E2E2E2E2E2E2E2E2E2E2F5E2E2E2E2E2E2E2E2E2E2E2E2E2E2E2E2F5E2E2E2F5F5E2E2E2F5E2E2E2E2E2E2
310
E2E2E2E2E2E2E2E2E2E2F5E2E2E2E2E2E2E2E2E2E2E2E2E2E2E2E2E2E2E2E2E2E2E2E2E2E2E2E2E2E2E2E2E2E2E2E2E2E2E2E2E2E2E2E2E2E2E2E2E2E2E2E2E2E2E2E2E2E2E2E2E2E2E2E2E2E2E2E2E2E2E2E2E2E2E2E2E2E2E2E2E2E2E2E2E2E2E2E2E2E2E2E2E2E2E2E2E2E2E2E2E2E2E2E2E2E2E2E2E2E2E2E2E2E2E2E2
310
E2E2E2E2E2E2E2E2E2E2E2E2E2E2E2E2E2E2E2E2F5E2E2E2E2E2E2E2E2E2E2E2E2E2E2E2E2F5E2E2E2F5F5E2E2E2F5E2E2E2E2E2E2E2E2E2E2E2E2E2E2E2E2F5E2E2E2E2E2E2E2E2E2E2E2E2E2E2E2E2E2E2E2E2E2E2E2E2E2E2E2E2E2E2E2E2E2E2E2E2E2E2E2E2E2E2E2E2E2E2E2E2E2E2E2E2E2E2E2E2E2E2E2E2E2E2E2
310
E2E2E2E2E2E2E2E2E2E2E2E2E2E2E2E2E2E2E2E2E2E2E2E2E2E2E2E2E2E2E2E2E2E2E2E2E2E2E2E2E2E2E2E2E2E2E2E2E2E2E2E2E2E2E2E2E2E2E2E2E2E2E2E2E2E2E2E2E2E2E2E2E2F5E2E2E2E2E2E2E2E2E2E2E2E2E2E2E2E2F5E2E2E2F5F5E2E2E2F5E2E2E2E2E2E2E2E2E2E2E2E2E2E2E2E2F5E2E2E2E2E2E2E2E2E2E2
310
E2E2E2E2E2E2E2E2E2E2E2E2E2E2E2E2E2E2E2E2E2E2E2E2E2E2E2E2E2E2E2E2E2E2E2E2E2E2E2E2E2E2E2E2E2E2E2E2E2E2E2E2E2E2E2E2E2E2E2E2E2E2E2E2E2E2E2E2E2E2E2E2E2E2E2E2E2E2E2E2E2E2E2E2E2E2E2E2E2E2E2E2E2E2E2E2E2E2E2E2E2E2E2E2E2E2E2E2E2E2E2E2E2E2E2E2E2E2E2E2E2E2E2E2E2E2F5
310
E2E2E2E2E2E2E2E2E2E2E2E2E2E2E2E2F5E2E2E2F5F5E2E2E2F5E2E2E2E2E2E2E2E2E2E2E2E2E2E2E2E2F5E2E2E2E2E2E2E2E2E2E2E2E2E2E2E2E2E2E2E2E2E2E2E2E2E2E2E2E2E2E2E2E2E2E2E2E2E2E2E2E2E2E2E2E2E2E2E2E2E2E2E2E2E2E2E2E2E2E2E2E2E2E2E2E2E2E2E2E2E2E2E2E2E2E2E2E2E2E2E2E2E2E2E2E2
310
E2E2E2E2E2E2E2E2E2E2E2E2E2E2E2E2E2E2E2E2E2E2E2E2E2E2E2E2E2E2E2E2E2E2E2E2E2E2E2E2E2E2E2E2E2E2E2E2E2E2E2E2F5E2E2E2E2E2E2E2E2E2E2E2E2E2E2E2E2F5E2E2E2F5F5E2E2E2F5E2E2E2E2E2E2E2E2E2E2E2E2E2E2E2E2F5E2E2E2E2E2E2E2E2E2E2E2E2E2E2E2E2E2E2E2E2E2E2E2E2E2E2E2E2E2E2E2
310
E2E2E2E2E2E2E2E2E2E2E2E2E2E2E2E2E2E2E2E2E2E2E2E2E2E2E2E2E2E2E2E2E2E2E2E2E2E2E2E2E2E2E2E2E2E2E2E2E2E2E2E2E2E2E2E2E2E2E2E2E2E2E2E2E2E2E2E2E2E2E2E2E2E2E2E2E2E2E2E2E2E2E2E2E2E2E2E2E2E2E2E2E2E2E2E2E2E2E2E2E2E2E2E2E2F5E2E2E2E2E2E2E2E2E2E2E2E2E2E2E2E2F5E2E2E2F5
310
F5E2E2E2F5E2E2E2E2E2E2E2E2E2E2E2E2E2E2E2E2F5E2E2E2E2E2E2E2E2E2E2E2E2E2E2E2E2E2E2E2E2E2E2E2E2E2E2E2E2E2E2E2E2E2E2E2E2E2E2E2E2E2E2E2E2E2E2E2E2E2E2E2E2E2E2E2E2E2E2E2E2E2E2E2E2E2E2E2E2E2E2E2E2E2E2E2E2E2E2E2E2E2E2E2E2E2E2E2E2E2E2E2E2E2E2E2E2E2E2E2E2E2E2E2E2E2
310
E2E2E2E2E2E2E2E2E2E2E2E2E2E2E2E2E2E2E2E2E2E2E2E2E2E2E2E2E2E2E2F5E2E2E2E2E2E2E2E2E2E2E2E2E2E2E2E2F5E2E2E2F5F5E2E2E2F5E2E2E2E2E2E2E2E2E2E2E2E2E2E2E2E2F5E2E2E2E2E2E2E2E2E2E2E2E2E2E2E2E2E2E2E2E2E2E2E2E2E2E2E2E2E2E2E2E2E2E2E2E2E2E2E2E2E2E2E2E2E2E2E2E2E2E2E2E2
310
E2E2E2E2E2E2E2E2E2E2E2E2E2E2E2E2E2E2E2E2E2E2E2E2E2E2E2E2E2E2E2E2E2E2E2E2E2E2E2E2E2E2E2E2E2E2E2E2E2E2E2E2E2E2E2E2E2E2E2E2E2E2E2E2E2E2E2E2E2E2E2E2E2E2E2E2E2E2E2E2E2E2E2E2F5E2E2E2E2E2E2E2E2E2E2E2E2E2E2E2E2F5E2E2E2F5F5E2E2E2F5E2E2E2E2E2E2E2E2E2E2E2E2E2E2E2E2
310
F5E2E2E2E2E2E2E2E2E2E2E2E2E2E2E2E2E2E2E2E2E2E2E2E2E2E2E2E2E2E2E2E2E2E2E2E2E2E2E2E2E2E2E2E2E2E2E2E2E2E2E2E2E2E2E2E2E2E2E2E2E2E2E2E2E2E2E2E2E2E2E2E2E2E2E2E2E2E2E2E2E2E2E2E2E2E2E2E2E2E2E2E2E2E2E2E2E2E2E2E2E2E2E2E2E2E2E2E2E2E2E2E2E2E2E2E2E2E2E2E2E2E2E2E2E2E2
310
E2E2E2E2E2E2E2E2E2E2F5E2E2E2E2E2E2E2E2E2E2E2E2E2E2E2E2F5E2E2E2F5F5E2E2E2F5E2E2E2E2E2E2E2E2E2E2E2E2E2E2E2E2F5E2E2E2E2E2E2E2E2E2E2E2E2E2E2E2E2E2E2E2E2E2E2E2E2E2E2E2E2E2E2E2E2E2E2E2E2E2E2E2E2E2E2E2E2E2E2E2E2E2E2E2E2E2E2E2E2E2E2E2E2E2E2E2E2E2E2E2E2E2E2E2E2E2
310
E2E2E2E2E2E2E2E2E2E2E2E2E2E2E2E2E2E2E2E2E2E2E2E2E2E2E2E2E2E2E2E2E2E2E2E2E2E2E2E2E2E2E2E2E2E2E2E2E2E2E2E2E2E2E2E2E2E2E2E2E2E2E2F5E2E2E2E2E2E2E2E2E2E2E2E2E2E2E2E2F5E2E2E2F5F5E2E2E2F5E2E2E2E2E2E2E2E2E2E2E2E2E2E2E2E2F5E2E2E2E2E2E2E2E2E2E2E2E2E2E2E2E2E2E2E2E2
310
E2E2E2E2E2E2E2E2E2E2E2E2E2E2E2E2E2E2E2E2E2E2E2E2E2E2E2E2E2E2E2E2E2E2E2E2E2E2E2E2E2E2E2E2E2E2E2E2E2E2E2E2E2E2E2E2E2E2E2E2E2E2E2E2E2E2E2E2E2E2E2E2E2E2E2E2E2E2E2E2E2E2E2E2E2E2E2E2E2E2E2E2E2E2E2E2E2E2E2E2E2E2E2E2E2E2E2E2E2E2E2E2E2E2E2E2F5E2E2E2E2E2E2E2E2E2E2
310
E2E2E2E2E2E2F5E2E2E2F5F5E2E2E2F5E2E2E2E2E2E2E2E2E2E2E2E2E2E2E2E2F5E2E2E2E2E2E2E2E2E2E2E2E2E2E2E2E2E2E2E2E2E2E2E2E2E2E2E2E2E2E2E2E2E2E2E2E2E2E2E2E2E2E2E2E2E2E2E2E2E2E2E2E2E2E2E2E2E2E2E2E2E2E2E2E2E2E2E2E2E2E2E2E2E2E2E2E2E2E2E2E2E2E2E2E2E2E2E2E2E2E2E2E2E2E2
310
E2E2E2E2E2E2E2E2E2E2E2E2E2E2E2E2E2E2E2E2E2E2E2E2E2E2E2E2E2E2E2E2E2E2E2E2E2E2E2E2E2E2F5E2E2E2E2E2E2E2E2E2E2E2E2E2E2E2E2F5E2E2E2F5F5E2E2E2E2E2E2E2E2E2E2E2E2E2E2E2E2E2E2E2E2F5E2E2E2E2E2E2E2E2E2E2E2E2E2E2E2E2E2E2E2E2E2E2E2E2E2E2E2E2E2E2E2E2E2E2E2E2E2E2E2E2E2
310
E2E2E2E2E2E2E2E2E2E2E2E2E2E2E2E2E2E2E2E2E2E2E2E2E2E2E2E2E2E2E2E2E2E2E2E2E2E2E2E2E2E2E2E2E2E2E2E2E2E2E2E2E2E2E2E2E2E2E2E2E2E2E2E2E2E2E2E2E2E2E2E2E2E2E2E2E2E2E2E2E2E2E2E2E2E2E2E2E2E2E2E2E2E2E2F5E2E2E2E2E2E2E2E2E2E2E2E2E2E2E2E2E2E2E2E2F5F5E2E2E2E2E2E2E2E2E2
310
E2E2E2E2E2E2E2E2E2E2E2F5E2E2E2E2E2E2E2E2E2E2E2E2E2E2E2E2E2E2E2E2E2E2E2E2E2E2E2E2E2E2E2E2E2E2E2E2E2E2E2E2E2E2E2E2E2E2E2E2E2E2E2E2E2E2E2E2E2E2E2E2E2E2E2E2E2E2E2E2E2E2E2E2E2E2E2E2E2E2E2E2E2E2E2E2E2E2E2E2E2E2E2E2E2E2E2E2E2E2E2E2E2E2E2E2E2E2E2E2E2E2E2E2E2E2E2
310
E2E2E2E2E2E2E2E2E2E2E2E2E2E2E2E2E2E2E2E2E2F5E2E2E2E2E2E2E2E2E2E2E2E2E2E2E2E2E2E2E2E2F5F5E2E2E2E2E2E2E2E2E2E2E2E2E2E2E2E2E2E2E2E2F5E2E2E2E2E2E2E2E2E2E2E2E2E2E2E2E2E2E2E2E2E2E2E2E2E2E2E2E2E2E2E2E2E2E2E2E2E2E2E2E2E2E2E2E2E2E2E2E2E2E2E2E2E2E2E2E2E2E2E2E2E2E2
310
E2E2E2E2E2E2E2E2E2E2E2E2E2E2E2E2E2E2E2E2E2E2E2E2E2E2E2E2E2E2E2E2E2E2E2E2E2E2E2E2E2E2E2E2E2E2E2E2E2E2E2E2E2E2E2E2E2E2E2E2E2E2E2E2E2E2E2E2E2E2E2E2E2E2F5E2E2E2E2E2E2E2E2E2E2E2E2E2E2E2E2E2E2E2E2F5F5E2E2E2E2E2E2E2E2E2E2E2E2E2E2E2E2E2E2E2E2F5E2E2E2E2E2E2E2E2E2
310
E2E2E2E2E2E2E2E2E2E2E2E2E2E2E2E2E2E2E2E2E2E2E2E2E2E2E2E2E2E2E2E2E2E2E2E2E2E2E2E2E2E2E2E2E2E2E2E2E2E2E2E2E2E2E2E2E2E2E2E2E2E2E2E2E2E2E2E2E2E2E2E2E2E2E2E2E2E2E2E2E2E2E2E2E2E2E2E2E2E2E2E2E2E2E2E2E2E2E2E2E2E2E2E2E2E2E2E2E2E2E2E2E2E2E2E2E2E2E2E2E2E2E2E2E2E2E2
310
F5E2E2E2E2E2E2E2E2E2E2E2E2E2E2E2E2E2E2E2E2F5F5E2E2E2E2E2E2E2E2E2E2E2E2E2E2E2E2E2E2E2E2F5E2E2E2E2E2E2E2E2E2E2E2E2E2E2E2E2E2E2E2E2E2E2E2E2E2E2E2E2E2E2E2E2E2E2E2E2E2E2E2E2E2E2E2E2E2E2E2E2E2E2E2E2E2E2E2E2E2E2E2E2E2E2E2E2E2E2E2E2E2E2E2E2E2E2E2E2E2E2E2E2E2E2E2
310
E2E2E2E2E2E2E2E2E2E2E2E2E2E2E2E2E2E2E2E2E2E2E2E2E2E2E2E2E2E2E2E2E2E2E2E2E2E2E2E2E2E2E2E2E2E2E2E2E2E2E2E2E2F5E2E2E2E2E2E2E2E2E2E2E2E2E2E2E2E2E2E2E2E2F5F5E2E2E2E2E2E2E2E2E2E2E2E2E2E2E2E2E2E2E2E2F5E2E2E2E2E2E2E2E2E2E2E2E2E2E2E2E2E2E2E2E2E2E2E2E2E2E2E2E2E2E2
310
E2E2E2E2E2E2E2E2E2E2E2E2E2E2E2E2E2E2E2E2E2E2E2E2E2E2E2E2E2E2E2E2E2E2E2E2E2E2E2E2E2E2E2E2E2E2E2E2E2E2E2E2E2E2E2E2E2E2E2E2E2E2E2E2E2E2E2E2E2E2E2E2E2E2E2E2E2E2E2E2E2E2E2E2E2E2E2E2E2E2E2E2E2E2E2E2E2E2E2E2E2E2E2E2E2E2F5E2E2E2E2E2E2E2E2E2E2E2E2E2E2E2E2E2E2E2E2
310
F5F5E2E2E2E2E2E2E2E2E2E2E2E2E2E2E2E2E2E2E2E2F5E2E2E2E2E2E2E2E2E2E2E2E2E2E2E2E2E2E2E2E2E2E2E2E2E2E2E2E2E2E2E2E2E2E2E2E2E2E2E2E2E2E2E2E2E2E2E2E2E2E2E2E2E2E2E2E2E2E2E2E2E2E2E2E2E2E2E2E2E2E2E2E2E2E2E2E2E2E2E2E2E2E2E2E2E2E2E2E2E2E2E2E2E2E2E2E2E2E2E2E2E2E2E2E2
310
E2E2E2E2E2E2E2E2E2E2E2E2E2E2E2E2E2E2E2E2E2E2E2E2E2E2E2E2E2E2E2E2F5E2E2E2E2E2E2E2E2E2E2E2E2E2E2E2E2E2E2E2E2F5F5E2E2E2E2E2E2E2E2E2E2E2E2E2E2E2E2E2E2E2E2F5E2E2E2E2E2E2E2E2E2E2E2E2E2E2E2E2E2E2E2E2E2E2E2E2E2E2E2E2E2E2E2E2E2E2E2E2E2E2E2E2E2E2E2E2E2E2E2E2E2E2E2
310
E2E2E2E2E2E2E2E2E2E2E2E2E2E2E2E2E2E2E2E2E2E2E2E2E2E2E2E2E2E2E2E2E2E2E2E2E2E2E2E2E2E2E2E2E2E2E2E2E2E2E2E2E2E2E2E2E2E2E2E2E2E2E2E2E2E2E2E2E2E2E2E2E2E2E2E2E2E2E2E2E2E2E2E2E2F5E2E2E2E2E2E2E2E2E2E2E2E2E2E2E2E2E2E2E2E2F5F5E2E2E2E2E2E2E2E2E2E2E2E2E2E2E2E2E2E2E2
310
E2F5E2E2E2E2E2E2E2E2E2E2E2E2E2E2E2E2E2E2E2E2E2E2E2E2E2E2E2E2E2E2E2E2E2E2E2E2E2E2E2E2E2E2E2E2E2E2E2E2E2E2E2E2E2E2E2E2E2E2E2E2E2E2E2E2E2E2E2E2E2E2E2E2E2E2E2E2E2E2E2E2E2E2E2E2E2E2E2E2E2E2E2E2E2E2E2E2E2E2E2E2E2E2E2E2E2E2E2E2E2E2E2E2E2E2E2E2E2E2E2E2E2E2E2E2E2
310
E2E2E2E2E2E2E2E2E2E2E2F5E2E2E2E2E2E2E2E2E2E2E2E2E2E2E2E2E2E2E2E2F5F5E2E2E2E2E2E2E2E2E2E2E2E2E2E2E2E2E2E2E2E2F5E2E2E2E2E2E2E2E2E2E2E2E2E2E2E2E2E2E2E2E2E2E2E2E2E2E2E2E2E2E2E2E2E2E2E2E2E2E2E2E2E2E2E2E2E2E2E2E2E2E2E2E2E2E2E2E2E2E2E2E2E2E2E2E2E2E2E2E2E2E2E2E2
310
E2E2E2E2E2E2E2E2E2E2E2E2E2E2E2E2E2E2E2E2E2E2E2E2E2E2E2E2E2E2E2E2E2E2E2E2E2E2E2E2E2E2E2E2E2E2E2E2E2E2E2E2E2E2E2E2E2E2E2E2E2E2E2E2F5E2E2E2E2E2E2E2E2E2E2E2E2E2E2E2E2E2E2E2E2F5F5E2E2E2F5E2E2E2E2E2E2E2E2E2E2E2E2E2E2E2E2F5E2E2E2E2E2E2E2E2E2E2E2E2E2E2E2E2E2E2E2
310
E2E2E2E2E2E2E2E2E2E2E2E2E2E2E2E2E2E2E2E2E2E2E2E2E2E2E2E2E2E2E2E2E2E2E2E2E2E2E2E2E2E2E2E2E2E2E2E2E2E2E2E2E2E2E2E2E2E2E2E2E2E2E2E2E2E2E2E2E2E2E2E2E2E2E2E2E2E2E2E2E2E2E2E2E2E2E2E2E2E2E2E2E2E2E2E2E2E2E2E2E2E2E2E2E2E2E2E2E2E2E2E2E2E2E2E2E2F5E2E2E2E2E2E2E2E2E2
310
E2E2E2E2E2E2E2F5E2E2E2F5F5E2E2E2F5E2E2E2E2E2E2E2E2E2E2E2E2E2E2E2E2F5E2E2E2E2E2E2E2E2E2E2E2E2E2E2E2E2E2E2E2E2E2E2E2E2E2E2E2E2E2E2E2E2E2E2E2E2E2E2E2E2E2E2E2E2E2E2E2E2E2E2E2E2E2E2E2E2E2E2E2E2E2E2E2E2E2E2E2E2E2E2E2E2E2E2E2E2E2E2E2E2E2E2E2E2E2E2E2E2E2E2E2E2E2
310
E2E2E2E2E2E2E2E2E2E2E2E2E2E2E2E2E2E2E2E2E2E2E2E2E2E2E2E2E2E2E2E2E2E2E2E2E2E2E2E2E2E2E2F5E2E2E2E2E2E2E2E2E2E2E2E2E2E2E2E2F5E2E2E2F5F5E2E2E2F5E2E2E2E2E2E2E2E2E2E2E2E2E2E2E2E2F5E2E2E2E2E2E2E2E2E2E2E2E2E2E2E2E2E2E2E2E2E2E2E2E2E2E2E2E2E2E2E2E2E2E2E2E2E2E2E2E2
310
E2E2E2E2E2E2E2E2E2E2E2E2E2E2E2E2E2E2E2E2E2E2E2E2E2E2E2E2E2E2E2E2E2E2E2E2E2E2E2E2E2E2E2E2E2E2E2E2E2E2E2E2E2E2E2E2E2E2E2E2E2E2E2E2E2E2E2E2E2E2E2E2E2E2E2E2E2E2E2E2E2E2E2E2E2E2E2E2E2E2E2E2E2E2E2E2F5E2E2E2E2E2E2E2E2E2E2E2E2E2E2E2E2F5E2E2E2F5F5E2E2E2F5E2E2E2E2
310
E2E2E2E2E2E2E2E2E2E2E2E2F5E2E2E2E2E2E2E2E2E2E2E2E2E2E2E2E2E2E2E2E2E2E2E2E2E2E2E2E2E2E2E2E2E2E2E2E2E2E2E2E2E2E2E2E2E2E2E2E2E2E2E2E2E2E2E2E2E2E2E2E2E2E2E2E2E2E2E2E2E2E2E2E2E2E2E2E2E2E2E2E2E2E2E2E2E2E2E2E2E2E2E2E2E2E2E2E2E2E2E2E2E2E2E2E2E2E2E2E2E2E2E2E2E2E2
310
E2E2E2E2E2E2E2E2E2E2E2E2E2E2E2E2E2E2E2E2E2E2F5E2E2E2E2E2E2E2E2E2E2E2E2E2E2E2E2F5E2E2E2F5F5E2E2E2F5E2E2E2E2E2E2E2E2E2E2E2E2E2E2E2E2F5E2E2E2E2E2E2E2E2E2E2E2E2E2E2E2E2E2E2E2E2E2E2E2E2E2E2E2E2E2E2E2E2E2E2E2E2E2E2E2E2E2E2E2E2E2E2E2E2E2E2E2E2E2E2E2E2E2E2E2E2E2
310
E2E2E2E2E2E2E2E2E2E2E2E2E2E2E2E2E2E2E2E2E2E2E2E2E2E2E2E2E2E2E2E2E2E2E2E2E2E2E2E2E2E2E2E2E2E2E2E2E2E2E2E2E2E2E2E2E2E2E2E2E2E2E2E2E2E2E2E2E2E2E2E2E2E2E2F5E2E2E2E2E2E2E2E2E2E2E2E2E2E2E2E2F5E2E2E2F5F5E2E2E2F5E2E2E2E2E2E2E2E2E2E2E2E2E2E2E2E2F5E2E2E2E2E2E2E2E2
310
E2E2E2E2E2E2E2E2E2E2E2E2E2E2E2E2E2E2E2E2E2E2E2E2E2E2E2E2E2E2E2E2E2E2E2E2E2E2E2E2E2E2E2E2E2E2E2E2E2E2E2E2E2E2E2E2E2E2E2E2E2E2E2E2E2E2E2E2E2E2E2E2E2E2E2E2E2E2E2E2E2E2E2E2E2E2E2E2E2E2E2E2E2E2E2E2E2E2E2E2E2E2E2E2E2E2E2E2E2E2E2E2E2E2E2E2E2E2E2E2E2E2E2E2E2E2E2
310
E2F5E2E2E2E2E2E2E2E2E2E2E2E2E2E2E2E2F5E2E2E2F5F5E2E2E2F5E2E2E2E2E2E2E2E2E2E2E2E2E2E2E2E2F5E2E2E2E2E2E2E2E2E2E2E2E2E2E2E2E2E2E2E2E2E2E2E2E2E2E2E2E2E2E2E2E2E2E2E2E2E2E2E2E2E2E2E2E2E2E2E2E2E2E2E2E2E2E2E2E2E2E2E2E2E2E2E2E2E2E2E2E2E2E2E2E2E2E2E2E2E2E2E2E2E2E2
310
E2E2E2E2E2E2E2E2E2E2E2E2E2E2E2E2E2E2E2E2E2E2E2E2E2E2E2E2E2E2E2E2E2E2E2E2E2E2E2E2E2E2E2E2E2E2E2E2E2E2E2E2E2E2F5E2E2E2E2E2E2E2E2E2E2E2E2E2E2E2E2F5E2E2E2F5F5E2E2E2F5E2E2E2E2E2E2E2E2E2E2E2E2E2E2E2E2F5E2E2E2E2E2E2E2E2E2E2E2E2E2E2E2E2E2E2E2E2E2E2E2E2E2E2E2E2E2
310
E2E2E2E2E2E2E2E2E2E2E2E2E2E2E2E2E2E2E2E2E2E2E2E2E2E2E2E2E2E2E2E2E2E2E2E2E2E2E2E2E2E2E2E2E2E2E2E2E2E2E2E2E2E2E2E2E2E2E2E2E2E2E2E2E2E2E2E2E2E2E2E2E2E2E2E2E2E2E2E2E2E2E2E2E2E2E2E2E2E2E2E2E2E2E2E2E2E2E2E2E2E2E2E2E2E2E2F5E2E2E2E2E2E2E2E2E2E2E2E2E2E2E2E2F5E2E2
310
E2F5F5E2E2E2F5E2E2E2E2E2E2E2E2E2E2E2E2E2E2E2E2F5E2E2E2E2E2E2E2E2E2E2E2E2E2E2E2E2E2E2E2E2E2E2E2E2E2E2E2E2E2E2E2E2E2E2E2E2E2E2E2E2E2E2E2E2E2E2E2E2E2E2E2E2E2E2E2E2E2E2E2E2E2E2E2E2E2E2E2E2E2E2E2E2E2E2E2E2E2E2E2E2E2E2E2E2E2E2E2E2E2E2E2E2E2E2E2E2E2E2E2E2E2E2E2
310
E2E2E2E2E2E2E2E2E2E2E2E2E2E2E2E2E2E2E2E2E2E2E2E2E2E2E2E2E2E2E2E2E2F5E2E2E2E2E2E2E2E2E2E2E2E2E2E2E2E2F5E2E2E2F5F5E2E2E2F5E2E2E2E2E2E2E2E2E2E2E2E2E2E2E2E2F5E2E2E2E2E2E2E2E2E2E2E2E2E2E2E2E2E2E2E2E2E2E2E2E2E2E2E2E2E2E2E2E2E2E2E2E2E2E2E2E2E2E2E2E2E2E2E2E2E2E2
310
E2E2E2E2E2E2E2E2E2E2E2E2E2E2E2E2E2E2E2E2E2E2E2E2E2E2E2E2E2E2E2E2E2E2E2E2E2E2E2E2E2E2E2E2E2E2E2E2E2E2E2E2E2E2E2E2E2E2E2E2E2E2E2E2E2E2E2E2E2E2E2E2E2E2E2E2E2E2E2E2E2E2E2E2E2E2F5E2E2E2E2E2E2E2E2E2E2E2E2E2E2E2E2F5E2E2E2F5F5E2E2E2F5E2E2E2E2E2E2E2E2E2E2E2E2E2E2
310
E2E2F5E2E2E2E2E2E2E2E2E2E2E2E2E2E2E2E2E2E2E2E2E2E2E2E2E2E2E2E2E2E2E2E2E2E2E2E2E2E2E2E2E2E2E2E2E2E2E2E2E2E2E2E2E2E2E2E2E2E2E2E2E2E2E2E2E2E2E2E2E2E2E2E2E2E2E2E2E2E2E2E2E2E2E2E2E2E2E2E2E2E2E2E2E2E2E2E2E2E2E2E2E2E2E2E2E2E2E2E2E2E2E2E2E2E2E2E2E2E2E2E2E2E2E2E2
310
E2E2E2E2E2E2E2E2E2E2E2E2F5E2E2E2E2E2E2E2E2E2E2E2E2E2E2E2E2F5E2E2E2F5F5E2E2E2F5E2E2E2E2E2E2E2E2E2E2E2E2E2E2E2E2F5E2E2E2E2E2E2E2E2E2E2E2E2E2E2E2E2E2E2E2E2E2E2E2E2E2E2E2E2E2E2E2E2E2E2E2E2E2E2E2E2E2E2E2E2E2E2E2E2E2E2E2E2E2E2E2E2E2E2E2E2E2E2E2E2E2E2E2E2E2E2E2
310
E2E2E2E2E2E2E2E2E2E2E2E2E2E2E2E2E2E2E2E2E2E2E2E2E2E2E2E2E2E2E2E2E2E2E2E2E2E2E2E2E2E2E2E2E2E2E2E2E2E2E2E2E2E2E2E2E2E2E2E2E2E2E2E2E2F5E2E2E2E2E2E2E2E2E2E2E2E2E2E2E2E2F5E2E2E2F5F5E2E2E2F5E2E2E2E2E2E2E2E2E2E2E2E2E2E2E2E2F5E2E2E2E2E2E2E2E2E2E2E2E2E2E2E2E2E2E2
310
E2E2E2E2E2E2E2E2E2E2E2E2E2E2E2E2E2E2E2E2E2E2E2E2E2E2E2E2E2E2E2E2E2E2E2E2E2E2E2E2E2E2E2E2E2E2E2E2E2E2E2E2E2E2E2E2E2E2E2E2E2E2E2E2E2E2E2E2E2E2E2E2E2E2E2E2E2E2E2E2E2E2E2E2E2E2E2E2E2E2E2E2E2E2E2E2E2E2E2E2E2E2E2E2E2E2E2E2E2E2E2E2E2E2E2E2E2E2F5E2E2E2E2E2E2E2E2
310
E2E2E2E2E2E2E2E2F5E2E2E2F5F5E2E2E2F5E2E2E2E2E2E2E2E2E2E2E2E2E2E2E2E2F5E2E2E2E2E2E2E2E2E2E2E2E2E2E2E2E2E2E2E2E2E2E2E2E2E2E2E2E2E2E2E2E2E2E2E2E2E2E2E2E2E2E2E2E2E2E2E2E2E2E2E2E2E2E2E2E2E2E2E2E2E2E2E2E2E2E2E2E2E2E2E2E2E2E2E2E2E2E2E2E2E2E2E2E2E2E2E2E2E2E2E2E2
310
E2E2E2E2E2E2E2E2E2E2E2E2E2E2E2E2E2E2E2E2E2E2E2E2E2E2E2E2E2E2E2E2E2E2E2E2E2E2E2E2E2E2E2E2F5E2E2E2E2E2E2E2E2E2E2E2E2E2E2E2E2F5E2E2E2F5F5E2E2E2F5E2E2E2E2E2E2E2E2E2E2E2E2E2E2E2E2F5E2E2E2E2E2E2E2E2E2E2E2E2E2E2E2E2E2E2E2E2E2E2E2E2E2E2E2E2E2E2E2E2E2E2E2E2E2E2E2
310
E2E2E2E2E2E2E2E2E2E2E2E2E2E2E2E2E2E2E2E2E2E2E2E2E2E2E2E2E2E2E2E2E2E2E2E2E2E2E2E2E2E2E2E2E2E2E2E2E2E2E2E2E2E2E2E2E2E2E2E2E2E2E2E2E2E2E2E2E2E2E2E2E2E2E2E2E2E2E2E2E2E2E2E2E2E2E2E2E2E2E2E2E2E2E2E2E2F5E2E2E2E2E2E2E2E2E2E2E2E2E2E2E2E2F5E2E2E2F5F5E2E2E2F5E2E2E2
310
E2E2E2E2E2E2E2E2E2E2E2E2E2F5E2E2E2E2E2E2E2E2E2E2E2E2E2E2E2E2E2E2E2E2E2E2E2E2E2E2E2E2E2E2E2E2E2E2E2E2E2E2E2E2E2E2E2E2E2E2E2E2E2E2E2E2E2E2E2E2E2E2E2E2E2E2E2E2E2E2E2E2E2E2E2E2E2E2E2E2E2E2E2E2E2E2E2E2E2E2E2E2E2E2E2E2E2E2E2E2E2E2E2E2E2E2E2E2E2E2E2E2E2E2E2E2E2
310
E2E2E2E2E2E2E2E2E2E2E2E2E2E2E2E2E2E2E2E2E2E2E2F5E2E2E2E2E2E2E2E2E2E2E2E2E2E2E2E2F5E2E2E2F5F5E2E2E2E2E2E2E2E2E2E2E2E2E2E2E2E2E2E2E2E2F5E2E2E2E2E2E2E2E2E2E2E2E2E2E2E2E2E2E2E2E2E2E2E2E2E2E2E2E2E2E2E2E2E2E2E2E2E2E2E2E2E2E2E2E2E2E2E2E2E2E2E2E2E2E2E2E2E2E2E2E2
310
E2E2E2E2E2E2E2E2E2E2E2E2E2E2E2E2E2E2E2E2E2E2E2E2E2E2E2E2E2E2E2E2E2E2E2E2E2E2E2E2E2E2E2E2E2E2E2E2E2E2E2E2E2E2E2E2E2E2E2E2E2E2E2E2E2E2E2E2E2E2E2E2E2E2E2E2F5E2E2E2E2E2E2E2E2E2E2E2E2E2E2E2E2E2E2E2E2F5F5E2E2E2E2E2E2E2E2E2E2E2E2E2E2E2E2E2E2E2E2F5E2E2E2E2E2E2E2
310
E2E2E2E2E2E2E2E2E2E2E2E2E2E2E2E2E2E2E2E2E2E2E2E2E2E2E2E2E2E2E2E2E2E2E2E2E2E2E2E2E2E2E2E2E2E2E2E2E2E2E2E2E2E2E2E2E2E2E2E2E2E2E2E2E2E2E2E2E2E2E2E2E2E2E2E2E2E2E2E2E2E2E2E2E2E2E2E2E2E2E2E2E2E2E2E2E2E2E2E2E2E2E2E2E2E2E2E2E2E2E2E2E2E2E2E2E2E2E2E2E2E2E2E2E2E2E2
310
E2E2F5E2E2E2E2E2E2E2E2E2E2E2E2E2E2E2E2E2E2E2E2F5F5E2E2E2E2E2E2E2E2E2E2E2E2E2E2E2E2E2E2E2E2F5E2E2E2E2E2E2E2E2E2E2E2E2E2E2E2E2E2E2E2E2E2E2E2E2E2E2E2E2E2E2E2E2E2E2E2E2E2E2E2E2E2E2E2E2E2E2E2E2E2E2E2E2E2E2E2E2E2E2E2E2E2E2E2E2E2E2E2E2E2E2E2E2E2E2E2E2E2E2E2E2E2
310
E2E2E2E2E2E2E2E2E2E2E2E2E2E2E2E2E2E2E2E2E2E2E2E2E2E2E2E2E2E2E2E2E2E2E2E2E2E2E2E2E2E2E2E2E2E2E2E2E2E2E2E2E2E2E2F5E2E2E2E2E2E2E2E2E2E2E2E2E2E2E2E2E2E2E2E2F5F5E2E2E2E2E2E2E2E2E2E2E2E2E2E2E2E2E2E2E2E2F5E2E2E2E2E2E2E2E2E2E2E2E2E2E2E2E2E2E2E2E2E2E2E2E2E2E2E2E2
310
E2E2E2E2E2E2E2E2E2E2E2E2E2E2E2E2E2E2E2E2E2E2E2E2E2E2E2E2E2E2E2E2E2E2E2E2E2E2E2E2E2E2E2E2E2E2E2E2E2E2E2E2E2E2E2E2E2E2E2E2E2E2E2E2E2E2E2E2E2E2E2E2E2E2E2E2E2E2E2E2E2E2E2E2E2E2E2E2E2E2E2E2E2E2E2E2E2E2E2E2E2E2E2E2E2E2E2E2F5E2E2E2E2E2E2E2E2E2E2E2E2E2E2E2E2E2E2
310
E2E2F5F5E2E2E2E2E2E2E2E2E2E2E2E2E2E2E2E2E2E2E2E2F5E2E2E2E2E2E2E2E2E2E2E2E2E2E2E2E2E2E2E2E2E2E2E2E2E2E2E2E2E2E2E2E2E2E2E2E2E2E2E2E2E2E2E2E2E2E2E2E2E2E2E2E2E2E2E2E2E2E2E2E2E2E2E2E2E2E2E2E2E2E2E2E2E2E2E2E2E2E2E2E2E2E2E2E2E2E2E2E2E2E2E2E2E2E2E2E2E2E2E2E2E2E2
310
E2E2E2E2E2E2E2E2E2E2E2E2E2E2E2E2E2E2E2E2E2E2E2E2E2E2E2E2E2E2E2E2E2E2F5E2E2E2E2E2E2E2E2E2E2E2E2E2E2E2E2E2E2E2E2F5F5E2E2E2E2E2E2E2E2E2E2E2E2E2E2E2E2E2E2E2E2F5E2E2E2E2E2E2E2E2E2E2E2E2E2E2E2E2E2E2E2E2E2E2E2E2E2E2E2E2E2E2E2E2E2E2E2E2E2E2E2E2E2E2E2E2E2E2E2E2E2
310
E2E2E2E2E2E2E2E2E2E2E2E2E2E2E2E2E2E2E2E2E2E2E2E2E2E2E2E2E2E2E2E2E2E2E2E2E2E2E2E2E2E2E2E2E2E2E2E2E2E2E2E2E2E2E2E2E2E2E2E2E2E2E2E2E2E2E2E2E2E2E2E2E2E2E2E2E2E2E2E2E2E2E2E2E2E2E2F5E2E2E2E2E2E2E2E2E2E2E2E2E2E2E2E2E2E2E2E2F5F5E2E2E2E2E2E2E2E2E2E2E2E2E2E2E2E2E2
310
E2E2E2F5E2E2E2E2E2E2E2E2E2E2E2E2E2E2E2E2E2E2E2E2E2E2E2E2E2E2E2E2E2E2E2E2E2E2E2E2E2E2E2E2E2E2E2E2E2E2E2E2E2E2E2E2E2E2E2E2E2E2E2E2E2E2E2E2E2E2E2E2E2E2E2E2E2E2E2E2E2E2E2E2E2E2E2E2E2E2E2E2E2E2E2E2E2E2E2E2E2E2E2E2E2E2E2E2E2E2E2E2E2E2E2E2E2E2E2E2E2E2E2E2E2E2E2
310
E2E2E2E2E2E2E2E2E2E2E2E2E2F5E2E2E2E2E2E2E2E2E2E2E2E2E2E2E2E2E2E2E2E2F5F5E2E2E2E2E2E2E2E2E2E2E2E2E2E2E2E2E2E2E2E2F5E2E2E2E2E2E2E2E2E2E2E2E2E2E2E2E2E2E2E2E2E2E2E2E2E2E2E2E2E2E2E2E2E2E2E2E2E2E2E2E2E2E2E2E2E2E2E2E2E2E2E2E2E2E2E2E2E2E2E2E2E2E2E2E2E2E2E2E2E2E2
310
E2E2E2E2E2E2E2E2E2E2E2E2E2E2E2E2E2E2E2E2E2E2E2E2E2E2E2E2E2E2E2E2E2E2E2E2E2E2E2E2E2E2E2E2E2E2E2E2E2E2E2E2E2E2E2E2E2E2E2E2E2E2E2E2E2E2F5E2E2E2E2E2E2E2E2E2E2E2E2E2E2E2E2E2E2E2E2F5F5E2E2E2E2E2E2E2E2E2E2E2E2E2E2E2E2E2E2E2E2F5E2E2E2E2E2E2E2E2E2E2E2E2E2E2E2E2E2
310
E2E2E2E2E2E2E2E2E2E2E2E2E2E2E2E2E2E2E2E2E2E2E2E2E2E2E2E2E2E2E2E2E2E2E2E2E2E2E2E2E2E2E2E2E2E2E2E2E2E2E2E2E2E2E2E2E2E2E2E2E2E2E2E2E2E2E2E2E2E2E2E2E2E2E2E2E2E2E2E2E2E2E2E2E2E2E2E2E2E2E2E2E2E2E2E2E2E2E2E2E2E2E2E2E2E2E2E2E2E2E2E2E2E2E2E2E2E2E2F5E2E2E2E2E2E2E2
310
E2E2E2E2E2E2E2E2E2E2E2E2E2F5F5E2E2E2F5E2E2E2E2E2E2E2E2E2E2E2E2E2E2E2E2F5E2E2E2E2E2E2E2E2E2E2E2E2E2E2E2E2E2E2E2E2E2E2E2E2E2E2E2E2E2E2E2E2E2E2E2E2E2E2E2E2E2E2E2E2E2E2E2E2E2E2E2E2E2E2E2E2E2E2E2E2E2E2E2E2E2E2E2E2E2E2E2E2E2E2E2E2E2E2E2E2E2E2E2E2E2E2E2E2E2E2E2
310
E2E2E2E2E2E2E2E2E2E2E2E2E2E2E2E2E2E2E2E2E2E2E2E2E2E2E2E2E2E2E2E2E2E2E2E2E2E2E2E2E2E2E2E2E2F5E2E2E2E2E2E2E2E2E2E2E2E2E2E2E2E2F5E2E2E2F5F5E2E2E2F5E2E2E2E2E2E2E2E2E2E2E2E2E2E2E2E2F5E2E2E2E2E2E2E2E2E2E2E2E2E2E2E2E2E2E2E2E2E2E2E2E2E2E2E2E2E2E2E2E2E2E2E2E2E2E2
310
E2E2E2E2E2E2E2E2E2E2E2E2E2E2E2E2E2E2E2E2E2E2E2E2E2E2E2E2E2E2E2E2E2E2E2E2E2E2E2E2E2E2E2E2E2E2E2E2E2E2E2E2E2E2E2E2E2E2E2E2E2E2E2E2E2E2E2E2E2E2E2E2E2E2E2E2E2E2E2E2E2E2E2E2E2E2E2E2E2E2E2E2E2E2E2E2E2E2F5E2E2E2E2E2E2E2E2E2E2E2E2E2E2E2E2F5E2E2E2F5F5E2E2E2F5E2E2
310
E2E2E2E2E2E2E2E2E2E2E2E2E2E2F5E2E2E2E2E2E2E2E2E2E2E2E2E2E2E2E2E2E2E2E2E2E2E2E2E2E2E2E2E2E2E2E2E2E2E2E2E2E2E2E2E2E2E2E2E2E2E2E2E2E2E2E2E2E2E2E2E2E2E2E2E2E2E2E2E2E2E2E2E2E2E2E2E2E2E2E2E2E2E2E2E2E2E2E2E2E2E2E2E2E2E2E2E2E2E2E2E2E2E2E2E2E2E2E2E2E2E2E2E2E2E2E2
310
E2E2E2E2E2E2E2E2E2E2E2E2E2E2E2E2E2E2E2E2E2E2E2E2F5E2E2E2E2E2E2E2E2E2E2E2E2E2E2E2E2F5E2E2E2F5F5E2E2E2F5E2E2E2E2E2E2E2E2E2E2E2E2E2E2E2E2F5E2E2E2E2E2E2E2E2E2E2E2E2E2E2E2E2E2E2E2E2E2E2E2E2E2E2E2E2E2E2E2E2E2E2E2E2E2E2E2E2E2E2E2E2E2E2E2E2E2E2E2E2E2E2E2E2E2E2E2
310
E2E2E2E2E2E2E2E2E2E2E2E2E2E2E2E2E2E2E2E2E2E2E2E2E2E2E2E2E2E2E2E2E2E2E2E2E2E2E2E2E2E2E2E2E2E2E2E2E2E2E2E2E2E2E2E2E2E2E2E2E2E2E2E2E2E2E2E2E2E2E2E2E2E2E2E2E2F5E2E2E2E2E2E2E2E2E2E2E2E2E2E2E2E2F5E2E2E2F5F5E2E2E2F5E2E2E2E2E2E2E2E2E2E2E2E2E2E2E2E2F5E2E2E2E2E2E2
310
E2E2E2E2E2E2E2E2E2E2E2E2E2E2E2E2E2E2E2E2E2E2E2E2E2E2E2E2E2E2E2E2E2E2E2E2E2E2E2E2E2E2E2E2E2E2E2E2E2E2E2E2E2E2E2E2E2E2E2E2E2E2E2E2E2E2E2E2E2E2E2E2E2E2E2E2E2E2E2E2E2E2E2E2E2E2E2E2E2E2E2E2E2E2E2E2E2E2E2E2E2E2E2E2E2E2E2E2E2E2E2E2E2E2E2E2E2E2E2E2E2E2E2E2E2E2E2
310
E2E2E2F5E2E2E2E2E2E2E2E2E2E2E2E2E2E2E2E2F5E2E2E2F5F5E2E2E2F5E2E2E2E2E2E2E2E2E2E2E2E2E2E2E2E2F5E2E2E2E2E2E2E2E2E2E2E2E2E2E2E2E2E2E2E2E2E2E2E2E2E2E2E2E2E2E2E2E2E2E2E2E2E2E2E2E2E2E2E2E2E2E2E2E2E2E2E2E2E2E2E2E2E2E2E2E2E2E2E2E2E2E2E2E2E2E2E2E2E2E2E2E2E2E2E2E2
310
E2E2E2E2E2E2E2E2E2E2E2E2E2E2E2E2E2E2E2E2E2E2E2E2E2E2E2E2E2E2E2E2E2E2E2E2E2E2E2E2E2E2E2E2E2E2E2E2E2E2E2E2E2E2E2E2F5E2E2E2E2E2E2E2E2E2E2E2E2E2E2E2E2F5E2E2E2F5F5E2E2E2F5E2E2E2E2E2E2E2E2E2E2E2E2E2E2E2E2F5E2E2E2E2E2E2E2E2E2E2E2E2E2E2E2E2E2E2E2E2E2E2E2E2E2E2E2
310
E2E2E2E2E2E2E2E2E2E2E2E2E2E2E2E2E2E2E2E2E2E2E2E2E2E2E2E2E2E2E2E2E2E2E2E2E2E2E2E2E2E2E2E2E2E2E2E2E2E2E2E2E2E2E2E2E2E2E2E2E2E2E2E2E2E2E2E2E2E2E2E2E2E2E2E2E2E2E2E2E2E2E2E2E2E2E2E2E2E2E2E2E2E2E2E2E2E2E2E2E2E2E2E2E2E2E2E2E2F5E2E2E2E2E2E2E2E2E2E2E2E2E2E2E2E2F5
310
E2E2E2F5F5E2E2E2F5E2E2E2E2E2E2E2E2E2E2E2E2E2E2E2E2F5E2E2E2E2E2E2E2E2E2E2E2E2E2E2E2E2E2E2E2E2E2E2E2E2E2E2E2E2E2E2E2E2E2E2E2E2E2E2E2E2E2E2E2E2E2E2E2E2E2E2E2E2E2E2E2E2E2E2E2E2E2E2E2E2E2E2E2E2E2E2E2E2E2E2E2E2E2E2E2E2E2E2E2E2E2E2E2E2E2E2E2E2E2E2E2E2E2E2E2E2E2
310
E2E2E2E2E2E2E2E2E2E2E2E2E2E2E2E2E2E2E2E2E2E2E2E2E2E2E2E2E2E2E2E2E2E2E2F5E2E2E2E2E2E2E2E2E2E2E2E2E2E2E2E2F5E2E2E2F5F5E2E2E2F5E2E2E2E2E2E2E2E2E2E2E2E2E2E2E2E2F5E2E2E2E2E2E2E2E2E2E2E2E2E2E2E2E2E2E2E2E2E2E2E2E2E2E2E2E2E2E2E2E2E2E2E2E2E2E2E2E2E2E2E2E2E2E2E2E2
310
E2E2E2E2E2E2E2E2E2E2E2E2E2E2E2E2E2E2E2E2E2E2E2E2E2E2E2E2E2E2E2E2E2E2E2E2E2E2E2E2E2E2E2E2E2E2E2E2E2E2E2E2E2E2E2E2E2E2E2E2E2E2E2E2E2E2E2E2E2E2E2E2E2E2E2E2E2E2E2E2E2E2E2E2E2E2E2E2F5E2E2E2E2E2E2E2E2E2E2E2E2E2E2E2E2F5E2E2E2F5F5E2E2E2F5E2E2E2E2E2E2E2E2E2E2E2E2
310
E2E2E2E2F5E2E2E2E2E2E2E2E2E2E2E2E2E2E2E2E2E2E2E2E2E2E2E2E2E2E2E2E2E2E2E2E2E2E2E2E2E2E2E2E2E2E2E2E2E2E2E2E2E2E2E2E2E2E2E2E2E2E2E2E2E2E2E2E2E2E2E2E2E2E2E2E2E2E2E2E2E2E2E2E2E2E2E2E2E2E2E2E2E2E2E2E2E2E2E2E2E2E2E2E2E2E2E2E2E2E2E2E2E2E2E2E2E2E2E2E2E2E2E2E2E2E2
310
E2E2E2E2E2E2E2E2E2E2E2E2E2E2F5E2E2E2E2E2E2E2E2E2E2E2E2E2E2E2E2F5E2E2E2F5F5E2E2E2F5E2E2E2E2E2E2E2E2E2E2E2E2E2E2E2E2F5E2E2E2E2E2E2E2E2E2E2E2E2E2E2E2E2E2E2E2E2E2E2E2E2E2E2E2E2E2E2E2E2E2E2E2E2E2E2E2E2E2E2E2E2E2E2E2E2E2E2E2E2E2E2E2E2E2E2E2E2E2E2E2E2E2E2E2E2E2
310
E2E2E2E2E2E2E2E2E2E2E2E2E2E2E2E2E2E2E2E2E2E2E2E2E2E2E2E2E2E2E2E2E2E2E2E2E2E2E2E2E2E2E2E2E2E2E2E2E2E2E2E2E2E2E2E2E2E2E2E2E2E2E2E2E2E2E2F5E2E2E2E2E2E2E2E2E2E2E2E2E2E2E2E2F5E2E2E2F5F5E2E2E2F5E2E2E2E2E2E2E2E2E2E2E2E2E2E2E2E2F5E2E2E2E2E2E2E2E2E2E2E2E2E2E2E2E2
310
E2E2E2E2E2E2E2E2E2E2E2E2E2E2E2E2E2E2E2E2E2E2E2E2E2E2E2E2E2E2E2E2E2E2E2E2E2E2E2E2E2E2E2E2E2E2E2E2E2E2E2E2E2E2E2E2E2E2E2E2E2E2E2E2E2E2E2E2E2E2E2E2E2E2E2E2E2E2E2E2E2E2E2E2E2E2E2E2E2E2E2E2E2E2E2E2E2E2E2E2E2E2E2E2E2E2E2E2E2E2E2E2E2E2E2E2E2E2E2E2F5E2E2E2E2E2E2
310
E2E2E2E2E2E2E2E2E2E2F5E2E2E2F5F5E2E2E2F5E2E2E2E2E2E2E2E2E2E2E2E2E2E2E2E2F5E2E2E2E2E2E2E2E2E2E2E2E2E2E2E2E2E2E2E2E2E2E2E2E2E2E2E2E2E2E2E2E2E2E2E2E2E2E2E2E2E2E2E2E2E2E2E2E2E2E2E2E2E2E2E2E2E2E2E2E2E2E2E2E2E2E2E2E2E2E2E2E2E2E2E2E2E2E2E2E2E2E2E2E2E2E2E2E2E2E2
310
E2E2E2E2E2E2E2E2E2E2E2E2E2E2E2E2E2E2E2E2E2E2E2E2E2E2E2E2E2E2E2E2E2E2E2E2E2E2E2E2E2E2E2E2E2E2F5E2E2E2E2E2E2E2E2E2E2E2E2E2E2E2E2F5E2E2E2F5F5E2E2E2F5E2E2E2E2E2E2E2E2E2E2E2E2E2E2E2E2F5E2E2E2E2E2E2E2E2E2E2E2E2E2E2E2E2E2E2E2E2E2E2E2E2E2E2E2E2E2E2E2E2E2E2E2E2E2
310
E2E2E2E2E2E2E2E2E2E2E2E2E2E2E2E2E2E2E2E2E2E2E2E2E2E2E2E2E2E2E2E2E2E2E2E2E2E2E2E2E2E2E2E2E2E2E2E2E2E2E2E2E2E2E2E2E2E2E2E2E2E2E2E2E2E2E2E2E2E2E2E2E2E2E2E2E2E2E2E2E2E2E2E2E2E2E2E2E2E2E2E2E2E2E2E2E2E2E2F5E2E2E2E2E2E2E2E2E2E2E2E2E2E2E2E2F5E2E2E2F5F5E2E2E2F5E2
310
E2E2E2E2E2E2E2E2E2E2E2E2E2E2E2F5E2E2E2E2E2E2E2E2E2E2E2E2E2E2E2E2E2E2E2E2E2E2E2E2E2E2E2E2E2E2E2E2E2E2E2E2E2E2E2E2E2E2E2E2E2E2E2E2E2E2E2E2E2E2E2E2E2E2E2E2E2E2E2E2E2E2E2E2E2E2E2E2E2E2E2E2E2E2E2E2E2E2E2E2E2E2E2E2E2E2E2E2E2E2E2E2E2E2E2E2E2E2E2E2E2E2E2E2E2E2E2
310
E2E2E2E2E2E2E2E2E2E2E2E2E2E2E2E2E2E2E2E2E2E2E2E2E2F5E2E2E2E2E2E2E2E2E2E2E2E2E2E2E2E2F5E2E2E2F5F5E2E2E2F5E2E2E2E2E2E2E2E2E2E2E2E2E2E2E2E2F5E2E2E2E2E2E2E2E2E2E2E2E2E2E2E2E2E2E2E2E2E2E2E2E2E2E2E2E2E2E2E2E2E2E2E2E2E2E2E2E2E2E2E2E2E2E2E2E2E2E2E2E2E2E2E2E2E2E2
310
E2E2E2E2E2E2E2E2E2E2E2E2E2E2E2E2E2E2E2E2E2E2E2E2E2E2E2E2E2E2E2E2E2E2E2E2E2E2E2E2E2E2E2E2E2E2E2E2E2E2E2E2E2E2E2E2E2E2E2E2E2E2E2E2E2E2E2E2E2E2E2E2E2E2E2E2E2E2F5E2E2E2E2E2E2E2E2E2E2E2E2E2E2E2E2F5E2E2E2F5F5E2E2E2F5E2E2E2E2E2E2E2E2E2E2E2E2E2E2E2E2F5E2E2E2E2E2
310
E2E2E2E2E2E2E2E2E2E2E2E2E2E2E2E2E2E2E2E2E2E2E2E2E2E2E2E2E2E2E2E2E2E2E2E2E2E2E2E2E2E2E2E2E2E2E2E2E2E2E2E2E2E2E2E2E2E2E2E2E2E2E2E2E2E2E2E2E2E2E2E2E2E2E2E2E2E2E2E2E2E2E2E2E2E2E2E2E2E2E2E2E2E2E2E2E2E2E2E2E2E2E2E2E2E2E2E2E2E2E2E2E2E2E2E2E2E2E2E2E2E2E2E2E2E2E2
310
E2E2E2E2F5E2E2E2E2E2E2E2E2E2E2E2E2E2E2E2E2F5E2E2E2F5F5E2E2E2E2E2E2E2E2E2E2E2E2E2E2E2E2E2E2E2E2F5E2E2E2E2E2E2E2E2E2E2E2E2E2E2E2E2E2E2E2E2E2E2E2E2E2E2E2E2E2E2E2E2E2E2E2E2E2E2E2E2E2E2E2E2E2E2E2E2E2E2E2E2E2E2E2E2E2E2E2E2E2E2E2E2E2E2E2E2E2E2E2E2E2E2E2E2E2E2E2
310
E2E2E2E2E2E2E2E2E2E2E2E2E2E2E2E2E2E2E2E2E2E2E2E2E2E2E2E2E2E2E2E2E2E2E2E2E2E2E2E2E2E2E2E2E2E2E2E2E2E2E2E2E2E2E2E2E2F5E2E2E2E2E2E2E2E2E2E2E2E2E2E2E2E2E2E2E2E2F5F5E2E2E2E2E2E2E2E2E2E2E2E2E2E2E2E2E2E2E2E2F5E2E2E2E2E2E2E2E2E2E2E2E2E2E2E2E2E2E2E2E2E2E2E2E2E2E2
310
E2E2E2E2E2E2E2E2E2E2E2E2E2E2E2E2E2E2E2E2E2E2E2E2E2E2E2E2E2E2E2E2E2E2E2E2E2E2E2E2E2E2E2E2E2E2E2E2E2E2E2E2E2E2E2E2E2E2E2E2E2E2E2E2E2E2E2E2E2E2E2E2E2E2E2E2E2E2E2E2E2E2E2E2E2E2E2E2E2E2E2E2E2E2E2E2E2E2E2E2E2E2E2E2E2E2E2E2E2E2F5E2E2E2E2E2E2E2E2E2E2E2E2E2E2E2E2
310
E2E2E2E2F5F5E2E2E2E2E2E2E2E2E2E2E2E2E2E2E2E2E2E2E2E2F5E2E2E2E2E2E2E2E2E2E2E2E2E2E2E2E2E2E2E2E2E2E2E2E2E2E2E2E2E2E2E2E2E2E2E2E2E2E2E2E2E2E2E2E2E2E2E2E2E2E2E2E2E2E2E2E2E2E2E2E2E2E2E2E2E2E2E2E2E2E2E2E2E2E2E2E2E2E2E2E2E2E2E2E2E2E2E2E2E2E2E2E2E2E2E2E2E2E2E2E2
310
E2E2E2E2E2E2E2E2E2E2E2E2E2E2E2E2E2E2E2E2E2E2E2E2E2E2E2E2E2E2E2E2E2E2E2E2F5E2E2E2E2E2E2E2E2E2E2E2E2E2E2E2E2E2E2E2E2F5F5E2E2E2E2E2E2E2E2E2E2E2E2E2E2E2E2E2E2E2E2F5E2E2E2E2E2E2E2E2E2E2E2E2E2E2E2E2E2E2E2E2E2E2E2E2E2E2E2E2E2E2E2E2E2E2E2E2E2E2E2E2E2E2E2E2E2E2E2
310
E2E2E2E2E2E2E2E2E2E2E2E2E2E2E2E2E2E2E2E2E2E2E2E2E2E2E2E2E2E2E2E2E2E2E2E2E2E2E2E2E2E2E2E2E2E2E2E2E2E2E2E2E2E2E2E2E2E2E2E2E2E2E2E2E2E2E2E2E2E2E2E2E2E2E2E2E2E2E2E2E2E2E2E2E2E2E2E2E2F5E2E2E2E2E2E2E2E2E2E2E2E2E2E2E2E2E2E2E2E2F5F5E2E2E2E2E2E2E2E2E2E2E2E2E2E2E2
310
E2E2E2E2E2F5F5F5F5F5F5F5F5F5F5F5F5F5F5F5F5F5F5F5F5F5F5F5F5F5F5F5F5F5F5F5F5F5F5F5F5F5F5F5F5F5F5F5F5F5F5F5F5F5F5F5F5F5F5F5F5F5F5F5F5F5F5F5F5F5F5F5F5F5F5F5F5F5F5F5F5F5F5F5F5F5F5F5F5F5F5F5F5F5F5F5F5F5F5F5F5F5F5F5F5F5F5F5F5F5F5F5F5F5F5F5F5F5F5F5F5F5F5F5F5F5F5
310
F5F5F5F5F5F5F5F5F5F5F5F5F5F5F5F5E2E2E2E2E2E2E2E2E2E2E2E2E2E2E2E2E2E2E2E2F5F5E2E2E2E2E2E2E2E2E2E2E2E2E2E2E2E2E2E2E2E2E2E2E2E2E2E2E2E2E2E2E2E2E2E2E2E2E2E2E2E2E2E2E2E2E2E2E2E2E2E2E2E2E2E2E2E2E2E2E2E2E2E2E2E2E2E2E2E2E2E2E2E2E2E2E2E2E2E2E2E2E2E2E2E2E2E2E2E2E2
310
E2E2E2E2E2E2E2E2E2E2E2E2E2E2E2E2E2E2E2E2E2E2E2E2E2E2E2E2E2E2E2E2E2E2E2E2E2E2E2E2E2E2E2E2E2E2E2E2E2E2E2E2E2E2E2E2E2E2E2E2E2E2E2E2E2E2E2E2E2E2E2E2E2E2E2E2E2E2E2E2E2E2E2E2E2E2E2E2E2F5F5E2E2E2E2E2E2E2E2E2E2E2E2E2E2E2E2E2E2E2E2E2E2E2E2E2E2E2E2E2E2E2E2E2E2E2E2
310
E2E2E2E2E2E2E2E2E2E2E2E2E2E2E2E2E2E2E2E2E2E2E2E2E2E2E2E2E2E2E2E2E2E2E2E2E2E2E2E2E2E2E2E2E2E2E2E2E2E2E2E2E2E2E2E2E2E2E2E2E2E2E2E2E2E2E2E2E2E2E2E2E2E2E2E2E2E2E2E2E2E2E2E2E2E2E2E2E2E2E2E2E2E2E2E2E2E2E2E2E2E2E2E2E2E2E2E2E2E2E2E2E2E2E2E2E2E2E2E2E2E2E2E2E2E2E2
310
E2E2E2E2E2E2E2E2E2E2E2E2E2E2E2F5F5E2E2E2E2E2E2E2E2E2E2E2E2E2E2E2E2E2E2E2E2E2E2E2E2E2E2E2E2E2E2E2E2E2E2E2E2E2E2E2E2E2E2E2E2E2E2E2E2E2E2E2E2E2E2E2E2E2E2E2E2E2E2E2E2E2E2E2E2E2E2E2E2E2E2E2E2E2E2E2E2E2E2E2E2E2E2E2E2E2E2E2E2E2E2E2E2E2E2E2E2E2E2E2E2E2E2E2E2E2E2
310
E2E2E2E2E2E2E2E2E2E2E2E2E2E2E2E2E2E2E2E2E2E2E2E2E2E2E2E2E2E2E2E2E2E2E2E2E2E2E2E2E2E2E2E2E2E2E2E2E2E2E2E2E2E2E2E2E2E2E2E2E2E2E2E2E2E2E2E2F5F5E2E2E2E2E2E2E2E2E2E2E2E2E2E2E2E2E2E2E2E2E2E2E2E2E2E2E2E2E2E2E2E2E2E2E2E2E2E2E2E2E2E2E2E2E2E2E2E2E2E2E2E2E2E2E2E2E2
310
E2E2E2E2E2E2E2E2E2E2E2E2E2E2E2E2E2E2E2E2E2E2E2E2E2E2E2E2E2E2E2E2E2E2E2E2E2E2E2E2E2E2E2E2E2E2E2E2E2E2E2E2E2E2E2E2E2E2E2E2E2E2E2E2E2E2E2E2E2E2E2E2E2E2E2E2E2E2E2E2E2E2E2E2E2E2E2E2E2E2E2E2E2E2E2E2E2E2E2E2E2E2E2E2E2E2E2E2E2E2E2E2E2E2E2E2E2E2E2E2E2F5F5E2E2E2F5
310
E2E2E2E2E2E2E2E2E2E2E2E2E2E2E2E2E2E2E2E2E2E2E2E2E2E2E2E2E2E2E2E2E2E2E2E2E2E2E2E2E2E2E2E2E2E2E2E2E2E2E2E2E2E2E2E2E2E2E2E2E2E2E2E2E2E2E2E2E2E2E2E2E2E2E2E2E2E2E2E2E2E2E2E2E2E2E2E2E2E2E2E2E2E2E2E2E2E2E2E2E2E2E2E2E2E2E2E2E2E2E2E2E2E2E2E2E2E2E2E2E2E2E2E2E2E2E2
310
E2E2E2E2E2E2E2E2E2E2E2E2E2E2E2E2E2E2E2E2E2E2E2E2E2E2E2E2E2E2E2E2E2E2E2E2E2E2E2E2E2E2E2F5E2E2E2F5F5E2E2E2F5E2E2E2E2E2E2E2E2E2E2E2E2E2E2E2E2E2E2E2E2E2E2E2E2E2E2E2E2E2E2E2E2E2E2E2E2E2E2E2E2E2E2E2E2E2E2E2E2E2E2E2E2E2E2E2E2E2E2E2E2E2E2E2E2E2E2E2E2E2E2E2E2E2E2
310
E2E2E2E2E2E2E2E2E2E2E2E2E2E2E2E2E2E2E2E2E2E2E2E2E2E2E2E2E2E2E2E2E2E2E2E2E2E2E2E2E2E2E2E2E2E2E2E2E2E2E2E2E2E2E2E2E2E2E2E2E2E2E2E2E2E2E2E2E2E2E2E2E2E2E2E2E2E2E2E2E2E2E2E2E2E2E2E2E2E2E2E2E2E2E2E2F5E2E2E2F5F5E2E2E2F5E2E2E2E2E2E2E2E2E2E2E2E2E2E2E2E2E2E2E2E2E2
310
E2E2E2E2E2E2E2E2E2E2E2E2E2E2E2E2E2E2E2E2E2E2E2E2E2E2E2E2E2E2E2E2E2E2E2E2E2E2E2E2E2E2E2E2E2E2E2E2E2E2E2E2E2E2E2E2E2E2E2E2E2E2E2E2E2E2E2E2E2E2E2E2E2E2E2E2E2E2E2E2E2E2E2E2E2E2E2E2E2E2E2E2E2E2E2E2E2E2E2E2E2E2E2E2E2E2E2E2E2E2E2E2E2E2E2E2E2E2E2E2E2E2E2E2E2E2E2
310
E2E2E2E2E2E2E2E2E2E2E2E2E2E2E2E2E2E2E2E2E2E2F5E2E2E2F5F5E2E2E2F5E2E2E2E2E2E2E2E2E2E2E2E2E2E2E2E2E2E2E2E2E2E2E2E2E2E2E2E2E2E2E2E2E2E2E2E2E2E2E2E2E2E2E2E2E2E2E2E2E2E2E2E2E2E2E2E2E2E2E2E2E2E2E2E2E2E2E2E2E2E2E2E2E2E2E2E2E2E2E2E2E2E2E2E2E2E2E2E2E2E2E2E2E2E2E2
310
E2E2E2E2E2E2E2E2E2E2E2E2E2E2E2E2E2E2E2E2E2E2E2E2E2E2E2E2E2E2E2E2E2E2E2E2E2E2E2E2E2E2E2E2E2E2E2E2E2E2E2E2E2E2E2E2E2E2E2E2E2E2E2E2E2E2E2E2E2E2E2E2E2E2E2F5E2E2E2F5F5E2E2E2F5E2E2E2E2E2E2E2E2E2E2E2E2E2E2E2E2E2E2E2E2E2E2E2E2E2E2E2E2E2E2E2E2E2E2E2E2E2E2E2E2E2E2
310
E2E2E2E2E2E2E2E2E2E2E2E2E2E2E2E2E2E2E2E2E2E2E2E2E2E2E2E2E2E2E2E2E2E2E2E2E2E2E2E2E2E2E2E2E2E2E2E2E2E2E2E2E2E2E2E2E2E2E2E2E2E2E2E2E2E2E2E2E2E2E2E2E2E2E2E2E2E2E2E2E2E2E2E2E2E2E2E2E2E2E2E2E2E2E2E2E2E2E2E2E2E2E2E2E2E2E2E2E2E2E2E2E2E2E2E2E2E2E2E2E2E2E2E2E2E2E2
310
E2F5E2E2E2F5F5E2E2E2F5E2E2E2E2E2E2E2E2E2E2E2E2E2E2E2E2E2E2E2E2E2E2E2E2E2E2E2E2E2E2E2E2E2E2E2E2E2E2E2E2E2E2E2E2E2E2E2E2E2E2E2E2E2E2E2E2E2E2E2E2E2E2E2E2E2E2E2E2E2E2E2E2E2E2E2E2E2E2E2E2E2E2E2E2E2E2E2E2E2E2E2E2E2E2E2E2E2E2E2E2E2E2E2E2E2E2E2E2E2E2E2E2E2E2E2E2
310
E2E2E2E2E2E2E2E2E2E2E2E2E2E2E2E2E2E2E2E2E2E2E2E2E2E2E2E2E2E2E2E2E2E2E2E2E2E2E2E2E2E2E2E2E2E2E2E2E2E2E2E2E2E2F5E2E2E2F5F5E2E2E2F5E2E2E2E2E2E2E2E2E2E2E2E2E2E2E2E2E2E2E2E2E2E2E2E2E2E2E2E2E2E2E2E2E2E2E2E2E2E2E2E2E2E2E2E2E2E2E2E2E2E2E2E2E2E2E2E2E2E2E2E2E2E2E2
310
E2E2E2E2E2E2E2E2E2E2E2E2E2E2E2E2E2E2E2E2E2E2E2E2E2E2E2E2E2E2E2E2E2E2E2E2E2E2E2E2E2E2E2E2E2E2E2E2E2E2E2E2E2E2E2E2E2E2E2E2E2E2E2E2E2E2E2E2E2E2E2E2E2E2E2E2E2E2E2E2E2E2E2E2E2E2E2E2E2E2E2E2E2E2E2E2E2E2E2E2E2E2E2E2E2E2E2F5E2E2E2F5F5E2E2E2F5E2E2E2E2E2E2E2E2E2E2
310
E2E2E2E2E2E2E2E2E2E2E2E2E2E2E2E2E2E2E2E2E2E2E2E2E2E2E2E2E2E2E2E2E2E2E2E2E2E2E2E2E2E2E2E2E2E2E2E2E2E2E2E2E2E2E2E2E2E2E2E2E2E2E2E2E2E2E2E2E2E2E2E2E2E2E2E2E2E2E2E2E2E2E2E2E2E2E2E2E2E2E2E2E2E2E2E2E2E2E2E2E2E2E2E2E2E2E2E2E2E2E2E2E2E2E2E2E2E2E2E2E2E2E2E2E2E2E2
310
E2E2E2E2E2E2E2E2E2E2E2E2E2E2E2E2E2E2E2E2E2E2E2E2E2E2E2E2E2E2E2E2E2F5E2E2E2F5F5E2E2E2F5F5F5F5F5F5F5F5E2E2E2E2E2E2E2E2E2F5F5F5F5F5F5F5F5F5F5F5F5F5F5F5F5E2E2E2E2E2E2E2E2E2F5F5F5F5F5F5F5F5F5F5F5F5F5F5F5E2E2E2E2E2E2E2E2E2F5F5F5F5F5F5F5F5F5F5F5F5F5F5F5F5E2E2E2
310
E2E2E2E2E2F5F5F5F5F5F5F5F5F5F5F5F5F5F5F5F5E2E2E2E2E2E2E2E2E2F5F5F5F5F5F5F5F5F5F5F5F5F5F5F5E2E2E2E2E2E2E2E2E2F5F5F5F5F5F5F5F5F5F5F5F5F5F5F5F5E2E2E2E2E2E2E2E2E2F5F5F5F5F5F5F5F5E2E2E2F5F5E2E2E2E2E2E2E2E2E2E2E2E2E2E2E2E2E2E2E2E2E2E2E2E2E2E2E2E2E2E2E2E2E2E2E2
310
E2E2E2E2E2E2E2E2E2E2E2E2E2E2E2E2E2E2E2E2E2E2E2E2E2E2E2E2E2E2E2E2E2E2E2E2E2E2E2E2E2E2E2E2E2E2E2E2E2E2E2E2E2E2E2E2E2E2E2E2E2E2E2E2E2E2E2E2E2E2E2E2E2E2E2E2E2E2E2E2E2E2E2E2E2E2E2E2E2E2E2E2E2E2E2E2E2E2E2E2E2E2E2E2E2E2E2E2E2E2E2E2E2E2E2E2E2E2E2E2E2E2E2E2E2E2E2
310
E2E2E2E2E2E2E2E2E2E2E2E2E2E2E2E2F5F5E2E2E2E2E2E2E2E2E2E2E2E2E2E2E2E2E2E2E2E2E2E2E2E2E2E2E2E2E2E2E2E2E2E2E2E2E2E2E2E2E2E2E2E2E2E2E2E2E2E2E2E2E2E2E2E2E2E2E2E2E2E2E2E2E2E2E2E2E2E2E2E2E2E2E2E2E2E2E2E2E2E2E2E2E2E2E2E2E2E2E2E2E2E2E2E2E2E2E2E2E2E2E2E2E2E2E2E2E2
310
E2E2E2E2E2E2E2E2E2E2E2E2E2E2E2E2E2E2E2E2E2E2E2E2E2E2E2E2E2E2E2E2E2E2E2E2E2E2E2E2E2E2E2E2E2E2E2E2E2E2E2E2E2E2E2E2E2E2E2E2E2E2E2E2E2E2E2E2E2F5F5E2E2E2E2E2E2E2E2E2E2E2E2E2E2E2E2E2E2E2E2E2E2E2E2E2E2E2E2E2E2E2E2E2E2E2E2E2E2E2E2E2E2E2E2E2E2E2E2E2E2E2E2E2E2E2E2
310
E2E2E2E2E2E2E2E2E2E2E2E2E2E2E2E2E2E2E2E2E2E2E2E2E2E2E2E2E2E2E2E2E2E2E2E2E2E2E2E2E2E2E2E2E2E2E2E2E2E2E2E2E2E2E2E2E2E2E2E2E2E2E2E2E2E2E2E2E2E2E2E2E2E2E2E2E2E2E2E2E2E2E2E2E2E2E2E2E2E2E2E2E2E2E2E2E2E2E2E2E2E2E2E2E2E2E2E2E2E2E2E2E2E2E2E2E2E2E2E2E2E2F5F5E2E2E2
310
E2E2E2E2E2E2E2E2E2E2E2E2E2E2E2E2E2E2E2E2E2E2E2E2E2E2E2E2E2E2E2E2E2E2E2E2E2E2E2E2E2E2E2E2E2E2E2E2E2E2E2E2E2E2E2E2E2E2E2E2E2E2E2E2E2E2E2E2E2E2E2E2E2E2E2E2E2E2E2E2E2E2E2E2E2E2E2E2E2E2E2E2E2E2E2E2E2E2E2E2E2E2E2E2E2E2E2E2E2E2E2E2E2E2E2E2E2E2E2E2E2E2E2E2E2E2E2
310
E2E2E2E2E2E2E2E2E2E2E2E2E2E2E2E2E2E2E2E2E2E2E2E2E2E2E2E2E2E2E2E2E2E2E2E2E2E2E2E2E2E2E2E2E2E2E2E2F5
  0
XRECORD
  5
5A08D
102
{ACAD_REACTORS
330
5A08C
102
}
330
5A08C
100
AcDbXrecord
280
     1
102
SHADEPLOT
 70
     0
102
SHADEPLOTRESLEVEL
 70
     2
102
SHADEPLOTCUSTOMDPI
 70
   300
  0
ENDSEC
  0
EOF
