  0
SECTION
  2
HEADER
  9
$ACADVER
  1
AC1015
  9
$ACADMAINTVER
 70
    20
  9
$DWGCODEPAGE
  3
ANSI_936
  9
$INSBASE
 10
0.0
 20
0.0
 30
0.0
  9
$EXTMIN
 10
-125.4402168300005
 20
-270.7374972031913
 30
0.0
  9
$EXTMAX
 10
1057.567855894588
 20
192.5086052310657
 30
0.0
  9
$LIMMIN
 10
0.0
 20
0.0
  9
$LIMMAX
 10
420.0
 20
297.0
  9
$ORTHOMODE
 70
     0
  9
$REGENMODE
 70
     1
  9
$FILLMODE
 70
     1
  9
$QTEXTMODE
 70
     0
  9
$MIRRTEXT
 70
     1
  9
$LTSCALE
 40
1.0
  9
$ATTMODE
 70
     1
  9
$TEXTSIZE
 40
3.5
  9
$TRACEWID
 40
1.0
  9
$TEXTSTYLE
  7
simplex
  9
$CLAYER
  8
0
  9
$CELTYPE
  6
ByLayer
  9
$CECOLOR
 62
   256
  9
$CELTSCALE
 40
1.0
  9
$DISPSILH
 70
     0
  9
$DIMSCALE
 40
0.0
  9
$DIMASZ
 40
3.5
  9
$DIMEXO
 40
0.0
  9
$DIMDLI
 40
0.38
  9
$DIMRND
 40
0.0
  9
$DIMDLE
 40
0.0
  9
$DIMEXE
 40
1.5
  9
$DIMTP
 40
0.0
  9
$DIMTM
 40
0.0
  9
$DIMTXT
 40
3.5
  9
$DIMCEN
 40
0.09
  9
$DIMTSZ
 40
0.0
  9
$DIMTOL
 70
     0
  9
$DIMLIM
 70
     0
  9
$DIMTIH
 70
     0
  9
$DIMTOH
 70
     0
  9
$DIMSE1
 70
     0
  9
$DIMSE2
 70
     0
  9
$DIMTAD
 70
     1
  9
$DIMZIN
 70
     8
  9
$DIMBLK
  1

  9
$DIMASO
 70
     1
  9
$DIMSHO
 70
     1
  9
$DIMPOST
  1

  9
$DIMAPOST
  1

  9
$DIMALT
 70
     0
  9
$DIMALTD
 70
     2
  9
$DIMALTF
 40
25.4
  9
$DIMLFAC
 40
1.0
  9
$DIMTOFL
 70
     0
  9
$DIMTVP
 40
0.0
  9
$DIMTIX
 70
     0
  9
$DIMSOXD
 70
     0
  9
$DIMSAH
 70
     0
  9
$DIMBLK1
  1

  9
$DIMBLK2
  1

  9
$DIMSTYLE
  2
\M+18352\M+18373\M+1815B - ISO-25
  9
$DIMCLRD
 70
   256
  9
$DIMCLRE
 70
   256
  9
$DIMCLRT
 70
   256
  9
$DIMTFAC
 40
1.0
  9
$DIMGAP
 40
2.299999999999998
  9
$DIMJUST
 70
     0
  9
$DIMSD1
 70
     0
  9
$DIMSD2
 70
     0
  9
$DIMTOLJ
 70
     1
  9
$DIMTZIN
 70
     8
  9
$DIMALTZ
 70
     0
  9
$DIMALTTZ
 70
     0
  9
$DIMUPT
 70
     0
  9
$DIMDEC
 70
     2
  9
$DIMTDEC
 70
     2
  9
$DIMALTU
 70
     2
  9
$DIMALTTD
 70
     2
  9
$DIMTXSTY
  7
simplex
  9
$DIMAUNIT
 70
     0
  9
$DIMADEC
 70
     0
  9
$DIMALTRND
 40
0.0
  9
$DIMAZIN
 70
     0
  9
$DIMDSEP
 70
    46
  9
$DIMATFIT
 70
     3
  9
$DIMFRAC
 70
     0
  9
$DIMLDRBLK
  1

  9
$DIMLUNIT
 70
     2
  9
$DIMLWD
 70
    -1
  9
$DIMLWE
 70
    -1
  9
$DIMTMOVE
 70
     0
  9
$LUNITS
 70
     2
  9
$LUPREC
 70
     4
  9
$SKETCHINC
 40
1.0
  9
$FILLETRAD
 40
0.5
  9
$AUNITS
 70
     0
  9
$AUPREC
 70
     0
  9
$MENU
  1
.
  9
$ELEVATION
 40
0.0
  9
$PELEVATION
 40
0.0
  9
$THICKNESS
 40
0.0
  9
$LIMCHECK
 70
     0
  9
$CHAMFERA
 40
10.0
  9
$CHAMFERB
 40
10.0
  9
$CHAMFERC
 40
20.0
  9
$CHAMFERD
 40
0.0
  9
$SKPOLY
 70
     0
  9
$TDCREATE
 40
2455489.391063368
  9
$TDUCREATE
 40
2455489.057730035
  9
$TDUPDATE
 40
2458572.966397581
  9
$TDUUPDATE
 40
2458572.633064248
  9
$TDINDWG
 40
2.8554996528
  9
$TDUSRTIMER
 40
2.8554422917
  9
$USRTIMER
 70
     1
  9
$ANGBASE
 50
0.0
  9
$ANGDIR
 70
     0
  9
$PDMODE
 70
     0
  9
$PDSIZE
 40
0.0
  9
$PLINEWID
 40
0.0
  9
$SPLFRAME
 70
     0
  9
$SPLINETYPE
 70
     6
  9
$SPLINESEGS
 70
     8
  9
$HANDSEED
  5
5843C
  9
$SURFTAB1
 70
     6
  9
$SURFTAB2
 70
     6
  9
$SURFTYPE
 70
     6
  9
$SURFU
 70
     6
  9
$SURFV
 70
     6
  9
$UCSBASE
  2

  9
$UCSNAME
  2

  9
$UCSORG
 10
0.0
 20
0.0
 30
0.0
  9
$UCSXDIR
 10
1.0
 20
0.0
 30
0.0
  9
$UCSYDIR
 10
0.0
 20
1.0
 30
0.0
  9
$UCSORTHOREF
  2

  9
$UCSORTHOVIEW
 70
     0
  9
$UCSORGTOP
 10
0.0
 20
0.0
 30
0.0
  9
$UCSORGBOTTOM
 10
0.0
 20
0.0
 30
0.0
  9
$UCSORGLEFT
 10
0.0
 20
0.0
 30
0.0
  9
$UCSORGRIGHT
 10
0.0
 20
0.0
 30
0.0
  9
$UCSORGFRONT
 10
0.0
 20
0.0
 30
0.0
  9
$UCSORGBACK
 10
0.0
 20
0.0
 30
0.0
  9
$PUCSBASE
  2

  9
$PUCSNAME
  2

  9
$PUCSORG
 10
0.0
 20
0.0
 30
0.0
  9
$PUCSXDIR
 10
1.0
 20
0.0
 30
0.0
  9
$PUCSYDIR
 10
0.0
 20
1.0
 30
0.0
  9
$PUCSORTHOREF
  2

  9
$PUCSORTHOVIEW
 70
     0
  9
$PUCSORGTOP
 10
0.0
 20
0.0
 30
0.0
  9
$PUCSORGBOTTOM
 10
0.0
 20
0.0
 30
0.0
  9
$PUCSORGLEFT
 10
0.0
 20
0.0
 30
0.0
  9
$PUCSORGRIGHT
 10
0.0
 20
0.0
 30
0.0
  9
$PUCSORGFRONT
 10
0.0
 20
0.0
 30
0.0
  9
$PUCSORGBACK
 10
0.0
 20
0.0
 30
0.0
  9
$USERI1
 70
     0
  9
$USERI2
 70
     0
  9
$USERI3
 70
     0
  9
$USERI4
 70
     0
  9
$USERI5
 70
     0
  9
$USERR1
 40
0.0
  9
$USERR2
 40
0.0
  9
$USERR3
 40
0.0
  9
$USERR4
 40
0.0
  9
$USERR5
 40
0.0
  9
$WORLDVIEW
 70
     1
  9
$SHADEDGE
 70
     3
  9
$SHADEDIF
 70
    70
  9
$TILEMODE
 70
     1
  9
$MAXACTVP
 70
    64
  9
$PINSBASE
 10
0.0
 20
0.0
 30
0.0
  9
$PLIMCHECK
 70
     0
  9
$PEXTMIN
 10
26.66999878883364
 20
20.31999878883365
 30
0.0
  9
$PEXTMAX
 10
240.0299890995025
 20
182.8799890995025
 30
0.0
  9
$PLIMMIN
 10
-6.350006103515625
 20
-6.349999904632567
  9
$PLIMMAX
 10
273.0499877929688
 20
209.5499939918518
  9
$UNITMODE
 70
     0
  9
$VISRETAIN
 70
     1
  9
$PLINEGEN
 70
     0
  9
$PSLTSCALE
 70
     1
  9
$TREEDEPTH
 70
  3020
  9
$CMLSTYLE
  2
Standard
  9
$CMLJUST
 70
     0
  9
$CMLSCALE
 40
20.0
  9
$PROXYGRAPHICS
 70
     1
  9
$MEASUREMENT
 70
     1
  9
$CELWEIGHT
370
    -1
  9
$ENDCAPS
280
     0
  9
$JOINSTYLE
280
     0
  9
$LWDISPLAY
290
     0
  9
$INSUNITS
 70
     4
  9
$HYPERLINKBASE
  1

  9
$STYLESHEET
  1

  9
$XEDIT
290
     1
  9
$CEPSNTYPE
380
     0
  9
$PSTYLEMODE
290
     1
  9
$FINGERPRINTGUID
  2
{601DDA01-5B13-4A4C-8F56-1333B78D855B}
  9
$VERSIONGUID
  2
{2C76343B-21C4-4C4F-97D6-71AAAEA889DC}
  9
$EXTNAMES
290
     1
  9
$PSVPSCALE
 40
0.0
  9
$OLESTARTUP
290
     0
  0
ENDSEC
  0
SECTION
  2
CLASSES
  0
CLASS
  1
ACDBDICTIONARYWDFLT
  2
AcDbDictionaryWithDefault
  3
ObjectDBX Classes
 90
        0
280
     0
281
     0
  0
CLASS
  1
ACDBPLACEHOLDER
  2
AcDbPlaceHolder
  3
ObjectDBX Classes
 90
        0
280
     0
281
     0
  0
CLASS
  1
LAYOUT
  2
AcDbLayout
  3
ObjectDBX Classes
 90
        0
280
     0
281
     0
  0
CLASS
  1
DICTIONARYVAR
  2
AcDbDictionaryVar
  3
ObjectDBX Classes
 90
        0
280
     0
281
     0
  0
CLASS
  1
TABLESTYLE
  2
AcDbTableStyle
  3
ObjectDBX Classes
 90
     2047
280
     0
281
     0
  0
CLASS
  1
SORTENTSTABLE
  2
AcDbSortentsTable
  3
ObjectDBX Classes
 90
        0
280
     0
281
     0
  0
CLASS
  1
DIMASSOC
  2
AcDbDimAssoc
  3
"AcDbDimAssoc|Product Desc:     AcDim ARX App For Dimension|Company:          Autodesk, Inc.|WEB Address:      www.autodesk.com"
 90
        0
280
     0
281
     0
  0
CLASS
  1
ACAD_EVALUATION_GRAPH
  2
AcDbEvalGraph
  3
ObjectDBX Classes
 90
    33921
280
     0
281
     0
  0
CLASS
  1
ACAECUSTOBJ
  2
AcAeEditorObj
  3
AcAeEditorObj
 90
    33792
280
     0
281
     0
  0
CLASS
  1
ACDB_DYNAMICBLOCKPURGEPREVENTER_VERSION
  2
AcDbDynamicBlockPurgePreventer
  3
ObjectDBX Classes
 90
    33921
280
     0
281
     0
  0
ENDSEC
  0
SECTION
  2
TABLES
  0
TABLE
  2
VPORT
  5
8
330
0
100
AcDbSymbolTable
 70
     5
  0
VPORT
  5
5842D
330
8
100
AcDbSymbolTableRecord
100
AcDbViewportTableRecord
  2
*Active
 70
     0
 10
0.0
 20
0.0
 11
1.0
 21
1.0
 12
35.16406844429957
 22
31.92080070662712
 13
0.0
 23
0.0
 14
10.0
 24
10.0
 15
10.0
 25
10.0
 16
0.0
 26
0.0
 36
1.0
 17
0.0
 27
0.0
 37
0.0
 40
334.3742794753337
 41
1.508350730688935
 42
50.0
 43
0.0
 44
0.0
 50
0.0
 51
0.0
 71
     0
 72
  1000
 73
     1
 74
     1
 75
     0
 76
     0
 77
     0
 78
     0
281
     0
 65
     1
110
0.0
120
0.0
130
0.0
111
1.0
121
0.0
131
0.0
112
0.0
122
1.0
132
0.0
 79
     0
146
0.0
  0
ENDTAB
  0
TABLE
  2
LTYPE
  5
5
330
0
100
AcDbSymbolTable
 70
     4
  0
LTYPE
  5
14
330
5
100
AcDbSymbolTableRecord
100
AcDbLinetypeTableRecord
  2
ByBlock
 70
     0
  3

 72
    65
 73
     0
 40
0.0
  0
LTYPE
  5
15
330
5
100
AcDbSymbolTableRecord
100
AcDbLinetypeTableRecord
  2
ByLayer
 70
     0
  3

 72
    65
 73
     0
 40
0.0
  0
LTYPE
  5
16
330
5
100
AcDbSymbolTableRecord
100
AcDbLinetypeTableRecord
  2
Continuous
 70
     0
  3
Solid line
 72
    65
 73
     0
 40
0.0
  0
LTYPE
  5
D7
330
5
100
AcDbSymbolTableRecord
100
AcDbLinetypeTableRecord
  2
HIDDEN
 70
     0
  3
Hidden __ __ __ __ __ __ __ __ __ __ __ __ __ _
 72
    65
 73
     2
 40
9.524999999999996
 49
6.349999999999997
 74
     0
 49
-3.174999999999998
 74
     0
  0
LTYPE
  5
D9
330
5
100
AcDbSymbolTableRecord
100
AcDbLinetypeTableRecord
  2
CENTER
 70
     0
  3
Center ____ _ ____ _ ____ _ ____ _ ____ _ ____
 72
    65
 73
     4
 40
50.8
 49
31.75
 74
     0
 49
-6.349999999999997
 74
     0
 49
6.349999999999997
 74
     0
 49
-6.349999999999997
 74
     0
  0
LTYPE
  5
35815
330
5
100
AcDbSymbolTableRecord
100
AcDbLinetypeTableRecord
  2
PHANTOM
 70
     0
  3
_____ _ _ _____ _ _ _____ _ _ _____
 72
    65
 73
     6
 40
0.8
 49
0.45
 74
     0
 49
-0.05
 74
     0
 49
0.1
 74
     0
 49
-0.05
 74
     0
 49
0.1
 74
     0
 49
-0.05
 74
     0
  0
ENDTAB
  0
TABLE
  2
LAYER
  5
2
102
{ACAD_XDICTIONARY
360
E2
102
}
330
0
100
AcDbSymbolTable
 70
    14
  0
LAYER
  5
10
330
2
100
AcDbSymbolTableRecord
100
AcDbLayerTableRecord
  2
0
 70
     0
 62
     7
  6
Continuous
370
    -3
390
F
  0
LAYER
  5
D1
330
2
100
AcDbSymbolTableRecord
100
AcDbLayerTableRecord
  2
1
 70
     0
 62
     4
  6
Continuous
370
    50
390
F
1001
AcAecLayerStandard
1000

1000

  0
LAYER
  5
D3
330
2
100
AcDbSymbolTableRecord
100
AcDbLayerTableRecord
  2
2
 70
     0
 62
     7
  6
Continuous
370
    25
390
F
1001
AcAecLayerStandard
1000

1000

  0
LAYER
  5
D4
330
2
100
AcDbSymbolTableRecord
100
AcDbLayerTableRecord
  2
3
 70
     0
 62
     1
  6
HIDDEN
370
    35
390
F
1001
AcAecLayerStandard
1000

1000

  0
LAYER
  5
D8
330
2
100
AcDbSymbolTableRecord
100
AcDbLayerTableRecord
  2
4
 70
     0
 62
     2
  6
CENTER
370
    25
390
F
1001
AcAecLayerStandard
1000

1000

  0
LAYER
  5
DA
330
2
100
AcDbSymbolTableRecord
100
AcDbLayerTableRecord
  2
6
 70
     0
 62
     5
  6
Continuous
370
    35
390
F
1001
AcAecLayerStandard
1000

1000

  0
LAYER
  5
DB
330
2
100
AcDbSymbolTableRecord
100
AcDbLayerTableRecord
  2
cut
 70
     0
 62
     1
  6
Continuous
370
    25
390
F
1001
AcAecLayerStandard
1000

1000

  0
LAYER
  5
DC
330
2
100
AcDbSymbolTableRecord
100
AcDbLayerTableRecord
  2
nocut
 70
     0
 62
     7
  6
Continuous
370
    25
390
F
1001
AcAecLayerStandard
1000

1000

  0
LAYER
  5
DD
330
2
100
AcDbSymbolTableRecord
100
AcDbLayerTableRecord
  2
sk1
 70
     0
 62
     4
  6
Continuous
370
    50
390
F
1001
AcAecLayerStandard
1000

1000

  0
LAYER
  5
DE
330
2
100
AcDbSymbolTableRecord
100
AcDbLayerTableRecord
  2
sk2
 70
     0
 62
     7
  6
Continuous
370
    25
390
F
1001
AcAecLayerStandard
1000

1000

  0
LAYER
  5
DF
330
2
100
AcDbSymbolTableRecord
100
AcDbLayerTableRecord
  2
sk3
 70
     0
 62
     1
  6
HIDDEN
370
    35
390
F
1001
AcAecLayerStandard
1000

1000

  0
LAYER
  5
E0
330
2
100
AcDbSymbolTableRecord
100
AcDbLayerTableRecord
  2
sk4
 70
     0
 62
     2
  6
CENTER
370
    25
390
F
1001
AcAecLayerStandard
1000

1000

  0
LAYER
  5
E1
330
2
100
AcDbSymbolTableRecord
100
AcDbLayerTableRecord
  2
sk6
 70
     0
 62
     5
  6
Continuous
370
    35
390
F
1001
AcAecLayerStandard
1000

1000

  0
LAYER
  5
31B6
330
2
100
AcDbSymbolTableRecord
100
AcDbLayerTableRecord
  2
Defpoints
 70
     0
 62
     7
  6
Continuous
290
     0
370
    -3
390
F
  0
ENDTAB
  0
TABLE
  2
STYLE
  5
3
330
0
100
AcDbSymbolTable
 70
    12
  0
STYLE
  5
11
330
3
100
AcDbSymbolTableRecord
100
AcDbTextStyleTableRecord
  2
Standard
 70
     0
 40
0.0
 41
1.0
 50
0.0
 71
     0
 42
2.5
  3
txt.shx
  4
@extfont2.shx
  0
STYLE
  5
D6
330
3
100
AcDbSymbolTableRecord
100
AcDbTextStyleTableRecord
  2

 70
     1
 40
0.0
 41
1.0
 50
0.0
 71
     0
 42
2.5
  3
ltypeshp.shx
  4

  0
STYLE
  5
24A
330
3
100
AcDbSymbolTableRecord
100
AcDbTextStyleTableRecord
  2
simplex
 70
     0
 40
3.5
 41
1.0
 50
0.0
 71
     0
 42
3.5
  3
txt.shx
  4

  0
STYLE
  5
69E
330
3
100
AcDbSymbolTableRecord
100
AcDbTextStyleTableRecord
  2
MX_NOTE_STANDARD
 70
     0
 40
0.0
 41
1.0
 50
0.0
 71
     0
 42
4.2
  3
txt.shx
  4
extfont.shx
  0
STYLE
  5
3524
330
3
100
AcDbSymbolTableRecord
100
AcDbTextStyleTableRecord
  2
TEXTSTYLE_2
 70
     0
 40
0.0
 41
0.775
 50
0.0
 71
     0
 42
0.2
  3
gdt
  4

  0
STYLE
  5
3525
330
3
100
AcDbSymbolTableRecord
100
AcDbTextStyleTableRecord
  2
TEXTSTYLE_3
 70
     0
 40
0.0
 41
0.75
 50
0.0
 71
     0
 42
0.2
  3
txt
  4

  0
STYLE
  5
3526
330
3
100
AcDbSymbolTableRecord
100
AcDbTextStyleTableRecord
  2
TEXTSTYLE_13
 70
     0
 40
0.0
 41
1.0
 50
0.0
 71
     0
 42
0.2
  3
txt
  4

  0
STYLE
  5
519A
330
3
100
AcDbSymbolTableRecord
100
AcDbTextStyleTableRecord
  2
TEXTSTYLE_14
 70
     0
 40
0.0
 41
1.0
 50
0.0
 71
     0
 42
0.2
  3
txt
  4

  0
STYLE
  5
6F72
330
3
100
AcDbSymbolTableRecord
100
AcDbTextStyleTableRecord
  2
TEXTSTYLE_4
 70
     0
 40
0.0
 41
0.75
 50
0.0
 71
     0
 42
0.2
  3
txt
  4

  0
STYLE
  5
6F73
330
3
100
AcDbSymbolTableRecord
100
AcDbTextStyleTableRecord
  2
TEXTSTYLE_17
 70
     0
 40
0.0
 41
1.0
 50
0.0
 71
     0
 42
0.2
  3
txt
  4

  0
STYLE
  5
FE12
330
3
100
AcDbSymbolTableRecord
100
AcDbTextStyleTableRecord
  2
TEXTSTYLE_12
 70
     0
 40
0.0
 41
1.0
 50
0.0
 71
     0
 42
0.2
  3
txt
  4

  0
STYLE
  5
3AAB8
330
3
100
AcDbSymbolTableRecord
100
AcDbTextStyleTableRecord
  2
TEXTSTYLE_20
 70
     0
 40
0.0
 41
0.6
 50
0.0
 71
     0
 42
0.2
  3
txt
  4

  0
ENDTAB
  0
TABLE
  2
VIEW
  5
6
330
0
100
AcDbSymbolTable
 70
     0
  0
ENDTAB
  0
TABLE
  2
UCS
  5
7
330
0
100
AcDbSymbolTable
 70
     0
  0
ENDTAB
  0
TABLE
  2
APPID
  5
9
330
0
100
AcDbSymbolTable
 70
    11
  0
APPID
  5
12
330
9
100
AcDbSymbolTableRecord
100
AcDbRegAppTableRecord
  2
ACAD
 70
     0
  0
APPID
  5
D2
330
9
100
AcDbSymbolTableRecord
100
AcDbRegAppTableRecord
  2
AcAecLayerStandard
 70
     0
  0
APPID
  5
E6
330
9
100
AcDbSymbolTableRecord
100
AcDbRegAppTableRecord
  2
ACAD_DSTYLE_DIMTEXT_FILL
 70
     0
  0
APPID
  5
4C84
330
9
100
AcDbSymbolTableRecord
100
AcDbRegAppTableRecord
  2
ACAD_EXEMPT_FROM_CAD_STANDARDS
 70
     0
  0
APPID
  5
3493E
330
9
100
AcDbSymbolTableRecord
100
AcDbRegAppTableRecord
  2
DCO15
 70
     0
  0
APPID
  5
3BAB0
330
9
100
AcDbSymbolTableRecord
100
AcDbRegAppTableRecord
  2
ACAD_DSTYLE_DIMEXT_ENABLED
 70
     0
  0
APPID
  5
3BAB1
330
9
100
AcDbSymbolTableRecord
100
AcDbRegAppTableRecord
  2
ACAD_DSTYLE_DIMEXT_LENGTH
 70
     0
  0
APPID
  5
3BEB4
330
9
100
AcDbSymbolTableRecord
100
AcDbRegAppTableRecord
  2
ACAUTHENVIRON
 70
     0
  0
APPID
  5
3BEB7
330
9
100
AcDbSymbolTableRecord
100
AcDbRegAppTableRecord
  2
AcDbDynamicBlockTrueName
 70
     0
  0
APPID
  5
3BEB8
330
9
100
AcDbSymbolTableRecord
100
AcDbRegAppTableRecord
  2
AcDbDynamicBlockGUID
 70
     0
  0
APPID
  5
3BEBA
330
9
100
AcDbSymbolTableRecord
100
AcDbRegAppTableRecord
  2
AcDbBlockRepETag
 70
     0
  0
ENDTAB
  0
TABLE
  2
DIMSTYLE
  5
A
330
0
100
AcDbSymbolTable
 70
    11
100
AcDbDimStyleTable
 71
     5
340
1BF
340
27
340
352A
340
3527
340
69F
  0
DIMSTYLE
105
27
330
A
100
AcDbSymbolTableRecord
100
AcDbDimStyleTableRecord
  2
ISO-25
 70
     0
 41
2.5
 42
0.625
 43
3.75
 44
1.25
 73
     0
 74
     0
 77
     1
 78
     8
140
2.5
141
2.5
143
0.03937007874016
147
0.625
171
     3
172
     1
271
     2
272
     2
274
     3
278
    44
283
     0
284
     8
340
11
  0
DIMSTYLE
105
1BF
102
{ACAD_REACTORS
330
5806A
330
5806B
330
580AA
330
580AB
330
580AC
330
580C7
330
58112
102
}
330
A
100
AcDbSymbolTableRecord
100
AcDbDimStyleTableRecord
  2
\M+18352\M+18373\M+1815B - ISO-25
 70
     0
 40
0.0
 41
3.5
 42
0.0
 44
1.5
 73
     0
 74
     0
 77
     1
 78
     8
140
3.5
147
2.299999999999998
176
   256
177
   256
178
   256
271
     2
272
     2
284
     8
340
24A
371
    -1
372
    -1
  0
DIMSTYLE
105
69F
330
A
100
AcDbSymbolTableRecord
100
AcDbDimStyleTableRecord
  2
MXDIMSTYLE
 70
     0
 41
2.5
 42
0.5
 43
3.75
 44
1.5
 73
     0
 74
     0
 77
     1
 78
     8
140
4.2
141
2.5
143
0.03937
147
1.0
171
     4
172
     1
173
     1
271
     2
272
     2
274
     4
283
     0
288
     1
340
69E
341
697
343
697
344
697
  0
DIMSTYLE
105
3527
330
A
100
AcDbSymbolTableRecord
100
AcDbDimStyleTableRecord
  2
STANDARD
 70
     0
 41
3.0
 47
0.001
 48
0.001
 71
     1
 73
     0
 74
     0
 77
     1
 78
     8
140
4.0
271
     3
272
     3
284
     8
340
11
341
34B1
342
34B1
343
34B1
344
34B1
  0
DIMSTYLE
105
3528
330
A
100
AcDbSymbolTableRecord
100
AcDbDimStyleTableRecord
  2
DIMSTYLE_1
 70
     0
 41
3.0
 73
     0
 74
     0
 77
     1
 78
     8
140
4.0
271
     3
272
     3
284
     8
340
11
341
34B1
342
34B1
343
34B1
344
34B1
  0
DIMSTYLE
105
3529
330
A
100
AcDbSymbolTableRecord
100
AcDbDimStyleTableRecord
  2
DIMSTYLE_2
 70
     0
 41
3.0
 47
0.001
 48
0.001
 73
     0
 74
     0
 77
     1
 78
     8
140
4.0
271
     3
272
     3
284
     8
340
11
341
34B1
342
34B1
343
34B1
344
34B1
  0
DIMSTYLE
105
352A
330
A
100
AcDbSymbolTableRecord
100
AcDbDimStyleTableRecord
  2
DIMSTYLE_3
 70
     0
 41
3.0
 47
-0.1
 48
0.3
 71
     1
 73
     0
 74
     0
 77
     1
 78
     8
140
4.0
146
0.5
271
     3
272
     3
284
     8
340
11
341
34B1
342
34B1
343
34B1
344
34B1
  0
DIMSTYLE
105
352B
330
A
100
AcDbSymbolTableRecord
100
AcDbDimStyleTableRecord
  2
DIMSTYLE_4
 70
     0
 41
3.0
 47
0.1
 48
0.1
 71
     1
 73
     0
 74
     0
 77
     1
 78
     8
140
4.0
271
     3
272
     3
284
     8
340
11
341
34B1
342
34B1
343
34B1
344
34B1
  0
DIMSTYLE
105
27245
330
A
100
AcDbSymbolTableRecord
100
AcDbDimStyleTableRecord
  2
DIMSTYLE_5
 70
     0
 41
3.0
 47
0.001
 48
0.001
 73
     0
 74
     0
 77
     1
 78
     8
140
4.0
271
     3
272
     3
284
     8
340
11
341
34B1
342
34B1
343
34B1
344
34B1
  0
DIMSTYLE
105
3AAB9
330
A
100
AcDbSymbolTableRecord
100
AcDbDimStyleTableRecord
  2
DIMSTYLE_6
 70
     0
 41
3.0
 42
0.0
 44
1.0
 47
0.05
 48
0.05
 71
     1
 73
     0
 74
     0
 77
     1
 78
     8
140
4.0
147
1.0
271
     3
272
     3
284
     8
340
11
341
34B1
342
34B1
343
34B1
344
34B1
  0
DIMSTYLE
105
532EA
330
A
100
AcDbSymbolTableRecord
100
AcDbDimStyleTableRecord
  2
NEW-DIMSTYLE
 70
     0
 40
0.0
 41
4.57
 42
0.0
 44
5.0
 73
     0
 74
     0
 77
     1
 78
     8
140
4.57
147
2.299999999999998
271
     2
340
24A
  0
ENDTAB
  0
TABLE
  2
BLOCK_RECORD
  5
1
330
0
100
AcDbSymbolTable
 70
   137
  0
BLOCK_RECORD
  5
1F
102
{ACAD_XDICTIONARY
360
31EE
102
}
330
1
100
AcDbSymbolTableRecord
100
AcDbBlockTableRecord
  2
*Model_Space
340
22
  0
BLOCK_RECORD
  5
50
330
1
100
AcDbSymbolTableRecord
100
AcDbBlockTableRecord
  2
*Paper_Space
340
51
  0
BLOCK_RECORD
  5
55
330
1
100
AcDbSymbolTableRecord
100
AcDbBlockTableRecord
  2
*Paper_Space0
340
56
  0
BLOCK_RECORD
  5
680
102
{ACAD_XDICTIONARY
360
3BEB2
102
}
330
1
100
AcDbSymbolTableRecord
100
AcDbBlockTableRecord
  2
zero block
340
0
102
{BLKREFS
331
68C
102
}
1001
ACAD
1000
DesignCenter Data
1002
{
1070
     1
1070
     4
1002
}
1001
AcDbDynamicBlockGUID
1000
{C2E8894D-A8DA-456D-ABB6-198B00672C1A}
1001
AcDbBlockRepETag
1070
     1
1071
        7
  0
BLOCK_RECORD
  5
697
330
1
100
AcDbSymbolTableRecord
100
AcDbBlockTableRecord
  2
_OPEN30
340
0
  0
BLOCK_RECORD
  5
34B1
330
1
100
AcDbSymbolTableRecord
100
AcDbBlockTableRecord
  2
_OPEN
340
0
  0
BLOCK_RECORD
  5
50E6F
330
1
100
AcDbSymbolTableRecord
100
AcDbBlockTableRecord
  2
_None
340
0
  0
BLOCK_RECORD
  5
5647A
330
1
100
AcDbSymbolTableRecord
100
AcDbBlockTableRecord
  2
*D10
340
0
  0
BLOCK_RECORD
  5
5829F
330
1
100
AcDbSymbolTableRecord
100
AcDbBlockTableRecord
  2
*D122
340
0
  0
BLOCK_RECORD
  5
582AB
330
1
100
AcDbSymbolTableRecord
100
AcDbBlockTableRecord
  2
*D123
340
0
  0
BLOCK_RECORD
  5
582B7
330
1
100
AcDbSymbolTableRecord
100
AcDbBlockTableRecord
  2
*D124
340
0
  0
BLOCK_RECORD
  5
582C4
330
1
100
AcDbSymbolTableRecord
100
AcDbBlockTableRecord
  2
*D125
340
0
  0
BLOCK_RECORD
  5
582D1
330
1
100
AcDbSymbolTableRecord
100
AcDbBlockTableRecord
  2
*D126
340
0
  0
BLOCK_RECORD
  5
582DE
330
1
100
AcDbSymbolTableRecord
100
AcDbBlockTableRecord
  2
*D127
340
0
  0
BLOCK_RECORD
  5
5834D
330
1
100
AcDbSymbolTableRecord
100
AcDbBlockTableRecord
  2
*D132
340
0
  0
ENDTAB
  0
ENDSEC
  0
SECTION
  2
BLOCKS
  0
BLOCK
  5
20
330
1F
100
AcDbEntity
  8
0
100
AcDbBlockBegin
  2
*Model_Space
 70
     0
 10
0.0
 20
0.0
 30
0.0
  3
*Model_Space
  1

  0
ENDBLK
  5
21
330
1F
100
AcDbEntity
  8
0
100
AcDbBlockEnd
  0
BLOCK
  5
52
330
50
100
AcDbEntity
 67
     1
  8
0
100
AcDbBlockBegin
  2
*Paper_Space
 70
     0
 10
0.0
 20
0.0
 30
0.0
  3
*Paper_Space
  1

  0
ENDBLK
  5
53
330
50
100
AcDbEntity
 67
     1
  8
0
100
AcDbBlockEnd
  0
BLOCK
  5
57
330
55
100
AcDbEntity
 67
     1
  8
0
100
AcDbBlockBegin
  2
*Paper_Space0
 70
     0
 10
0.0
 20
0.0
 30
0.0
  3
*Paper_Space0
  1

  0
VIEWPORT
  5
71
102
{ACAD_XDICTIONARY
360
58438
102
}
330
55
100
AcDbEntity
 67
     1
  8
0
100
AcDbViewport
 10
150.1652135264906
 20
101.599997546291
 30
0.0
 40
339.1973820494347
 41
164.5360435314421
 68
     0
 69
     0
 12
150.1652135264906
 22
101.599997546291
 13
0.0
 23
0.0
 14
10.0
 24
10.0
 15
10.0
 25
10.0
 16
0.0
 26
0.0
 36
1.0
 17
0.0
 27
0.0
 37
0.0
 42
50.0
 43
0.0
 44
0.0
 45
164.5360435314421
 50
0.0
 51
0.0
 72
  1000
 90
    32864
  1

281
     0
 71
     1
 74
     0
110
0.0
120
0.0
130
0.0
111
1.0
121
0.0
131
0.0
112
0.0
122
1.0
132
0.0
 79
     0
146
0.0
  0
VIEWPORT
  5
73
102
{ACAD_XDICTIONARY
360
5843A
102
}
330
55
100
AcDbEntity
 67
     1
  8
0
100
AcDbViewport
 10
133.3499939441681
 20
101.5999939441681
 30
0.0
 40
213.3599903106689
 41
162.5599903106689
 68
     0
 69
     0
 12
210.0
 22
148.5
 13
0.0
 23
0.0
 14
10.0
 24
10.0
 15
10.0
 25
10.0
 16
0.0
 26
0.0
 36
1.0
 17
0.0
 27
0.0
 37
0.0
 42
50.0
 43
0.0
 44
0.0
 45
324.0677920111345
 50
0.0
 51
0.0
 72
   100
 90
    32864
  1

281
     0
 71
     1
 74
     0
110
0.0
120
0.0
130
0.0
111
1.0
121
0.0
131
0.0
112
0.0
122
1.0
132
0.0
 79
     0
146
0.0
  0
ENDBLK
  5
58
330
55
100
AcDbEntity
 67
     1
  8
0
100
AcDbBlockEnd
  0
BLOCK
  5
68A
330
680
100
AcDbEntity
  8
0
100
AcDbBlockBegin
  2
zero block
 70
     0
 10
0.0
 20
0.0
 30
0.0
  3
zero block
  1

  0
HATCH
  5
3BEAB
330
680
100
AcDbEntity
  8
0
 62
     7
100
AcDbHatch
 10
0.0
 20
0.0
 30
0.0
210
0.0
220
0.0
230
1.0
  2
SOLID
 70
     1
 71
     0
 91
        2
 92
        7
 72
     1
 73
     1
 93
        3
 10
0.0
 20
0.9999999999999875
 42
0.4142135623730915
 10
-1.0
 20
0.0
 42
0.0
 10
0.0
 20
0.0
 42
0.0
 97
        0
 92
        7
 72
     1
 73
     1
 93
        3
 10
1.000000000000007
 20
0.0
 42
0.0
 10
0.0
 20
0.0
 42
0.0
 10
0.0
 20
-1.0
 42
0.4142135623730974
 97
        0
 75
     0
 76
     1
 47
0.0090601366782909
 98
        2
 10
-0.380591363650975
 20
0.4885804701532896
 10
0.4350764810977559
 20
-0.4536738423704725
1001
AcDbBlockRepETag
1070
     1
1071
        0
1005
3BEAB
  0
LINE
  5
3BEAC
330
680
100
AcDbEntity
  8
0
 62
     7
 48
0.2
100
AcDbLine
 10
-1.0
 20
0.0
 30
0.0
 11
1.000000000000007
 21
0.0
 31
0.0
1001
AcDbBlockRepETag
1070
     1
1071
        1
1005
3BEAC
  0
LINE
  5
3BEAD
330
680
100
AcDbEntity
  8
0
 62
     7
 48
0.2
100
AcDbLine
 10
0.0
 20
-1.0
 30
0.0
 11
0.0
 21
0.9999999999999875
 31
0.0
1001
AcDbBlockRepETag
1070
     1
1071
        2
1005
3BEAD
  0
ARC
  5
3BEAE
330
680
100
AcDbEntity
  8
0
 62
     7
 48
0.2
100
AcDbCircle
 10
0.0
 20
0.0
 30
0.0
 40
1.0
100
AcDbArc
 50
270.0
 51
0.0
1001
AcDbBlockRepETag
1070
     1
1071
        3
1005
3BEAE
  0
ARC
  5
3BEAF
330
680
100
AcDbEntity
  8
0
 62
     7
 48
0.2
100
AcDbCircle
 10
0.0
 20
0.0
 30
0.0
 40
1.0
100
AcDbArc
 50
0.0
 51
90.0
1001
AcDbBlockRepETag
1070
     1
1071
        4
1005
3BEAF
  0
ARC
  5
3BEB0
330
680
100
AcDbEntity
  8
0
 62
     7
 48
0.2
100
AcDbCircle
 10
0.0
 20
0.0
 30
0.0
 40
1.0
100
AcDbArc
 50
180.0
 51
270.0
1001
AcDbBlockRepETag
1070
     1
1071
        5
1005
3BEB0
  0
ARC
  5
3BEB1
330
680
100
AcDbEntity
  8
0
 62
     7
 48
0.2
100
AcDbCircle
 10
0.0
 20
0.0
 30
0.0
 40
1.0
100
AcDbArc
 50
90.0
 51
180.0
1001
AcDbBlockRepETag
1070
     1
1071
        6
1005
3BEB1
  0
ENDBLK
  5
68B
330
680
100
AcDbEntity
  8
0
100
AcDbBlockEnd
  0
BLOCK
  5
698
330
697
100
AcDbEntity
  8
0
  6
ByBlock
 62
     0
370
    -2
100
AcDbBlockBegin
  2
_OPEN30
 70
     2
 10
0.0
 20
0.0
 30
0.0
  3
_OPEN30
  1

  0
LINE
  5
699
330
697
100
AcDbEntity
  8
0
  6
ByBlock
 62
     0
370
    -2
100
AcDbLine
 10
-1.0
 20
0.267949
 30
0.0
 11
0.0
 21
0.0
 31
0.0
  0
LINE
  5
69A
330
697
100
AcDbEntity
  8
0
  6
ByBlock
 62
     0
370
    -2
100
AcDbLine
 10
0.0
 20
0.0
 30
0.0
 11
-1.0
 21
-0.267949
 31
0.0
  0
LINE
  5
69B
330
697
100
AcDbEntity
  8
0
  6
ByBlock
 62
     0
370
    -2
100
AcDbLine
 10
0.0
 20
0.0
 30
0.0
 11
-1.0
 21
0.0
 31
0.0
  0
ENDBLK
  5
69C
330
697
100
AcDbEntity
  8
0
  6
ByBlock
 62
     0
370
    -2
100
AcDbBlockEnd
  0
BLOCK
  5
34B2
330
34B1
100
AcDbEntity
  8
0
100
AcDbBlockBegin
  2
_OPEN
 70
     0
 10
0.0
 20
0.0
 30
0.0
  3
_OPEN
  1

  0
LINE
  5
34B3
330
34B1
100
AcDbEntity
  8
0
  6
ByBlock
 62
     0
100
AcDbLine
 10
0.0
 20
0.0
 30
0.0
 11
-1.0
 21
0.1766666667
 31
0.0
  0
LINE
  5
34B4
330
34B1
100
AcDbEntity
  8
0
  6
ByBlock
 62
     0
100
AcDbLine
 10
-1.0
 20
-0.1766666667
 30
0.0
 11
0.0
 21
0.0
 31
0.0
  0
LINE
  5
34B5
330
34B1
100
AcDbEntity
  8
0
  6
ByBlock
 62
     0
100
AcDbLine
 10
-1.0
 20
0.0
 30
0.0
 11
0.0
 21
0.0
 31
0.0
  0
ENDBLK
  5
34B6
330
34B1
100
AcDbEntity
  8
0
  6
ByBlock
 62
     0
100
AcDbBlockEnd
  0
BLOCK
  5
50E70
330
50E6F
100
AcDbEntity
  8
0
100
AcDbBlockBegin
  2
_None
 70
     0
 10
0.0
 20
0.0
 30
0.0
  3
_None
  1

  0
ENDBLK
  5
50E71
330
50E6F
100
AcDbEntity
  8
0
100
AcDbBlockEnd
  0
BLOCK
  5
56485
330
5647A
100
AcDbEntity
  8
0
100
AcDbBlockBegin
  2
*D10
 70
     1
 10
0.0
 20
0.0
 30
0.0
  3
*D10
  1

  0
LINE
  5
5772B
330
5647A
100
AcDbEntity
  8
sk2
100
AcDbLine
 10
-97.22499483000063
 20
-12.69999956895903
 30
0.0
 11
-121.1402168300005
 21
-12.69999956895903
 31
0.0
  0
LINE
  5
5772C
330
5647A
100
AcDbEntity
  8
sk2
100
AcDbLine
 10
-97.22499483000063
 20
12.70000043104097
 30
0.0
 11
-121.1402168300005
 21
12.70000043104097
 31
0.0
  0
LINE
  5
5772D
330
5647A
100
AcDbEntity
  8
sk2
100
AcDbLine
 10
-119.6402168300005
 20
9.200000431040976
 30
0.0
 11
-119.6402168300005
 21
-9.199999568959029
 31
0.0
  0
LINE
  5
5772E
330
5647A
100
AcDbEntity
  8
sk2
100
AcDbLine
 10
-119.6402168300005
 20
-12.69999956895903
 30
0.0
 11
-119.6402168300005
 21
-61.04999956895902
 31
0.0
  0
SOLID
  5
5772F
330
5647A
100
AcDbEntity
  8
sk2
100
AcDbTrace
 10
-120.2235501633339
 20
9.200000431040976
 30
0.0
 11
-119.0568834966672
 21
9.200000431040976
 31
0.0
 12
-119.6402168300005
 22
12.70000043104097
 32
0.0
 13
-119.6402168300005
 23
12.70000043104097
 33
0.0
  0
SOLID
  5
57730
330
5647A
100
AcDbEntity
  8
sk2
100
AcDbTrace
 10
-120.2235501633339
 20
-9.199999568959029
 30
0.0
 11
-119.0568834966672
 21
-9.199999568959029
 31
0.0
 12
-119.6402168300005
 22
-12.69999956895903
 32
0.0
 13
-119.6402168300005
 23
-12.69999956895903
 33
0.0
  0
MTEXT
  5
57731
330
5647A
100
AcDbEntity
  8
sk2
100
AcDbMText
 10
-123.6902168300005
 20
-38.62499956895905
 30
0.0
 40
3.5
 41
0.0
 71
     5
 72
     1
  1
\A1;%%C25.4 [%%C1.000"]
  7
simplex
 11
0.0000000000000001
 21
1.0
 31
0.0
 73
     1
 44
0.892857
1001
ACAD
1000
MTEXTBEGIN
1070
    73
1070
     1
1070
    44
1040
0.892857
1070
    74
1070
     0
1000
MTEXTEND
  0
POINT
  5
57732
330
5647A
100
AcDbEntity
  8
Defpoints
 62
     0
100
AcDbPoint
 10
-97.22499483000063
 20
-12.69999956895903
 30
0.0
  0
POINT
  5
57733
330
5647A
100
AcDbEntity
  8
Defpoints
 62
     0
100
AcDbPoint
 10
-97.22499483000063
 20
12.70000043104097
 30
0.0
  0
POINT
  5
57734
330
5647A
100
AcDbEntity
  8
Defpoints
 62
     0
100
AcDbPoint
 10
-119.6402168300005
 20
12.70000043104097
 30
0.0
  0
ENDBLK
  5
56486
330
5647A
100
AcDbEntity
  8
0
100
AcDbBlockEnd
  0
BLOCK
  5
582A9
330
5829F
100
AcDbEntity
  8
0
100
AcDbBlockBegin
  2
*D122
 70
     1
 10
0.0
 20
0.0
 30
0.0
  3
*D122
  1

  0
LINE
  5
583D8
330
5829F
100
AcDbEntity
  8
sk2
100
AcDbLine
 10
-98.42500683000066
 20
12.70000043104096
 30
0.0
 11
-98.42500683000066
 21
68.93572846866618
 31
0.0
  0
LINE
  5
583D9
330
5829F
100
AcDbEntity
  8
sk2
100
AcDbLine
 10
117.474993170019
 20
7.008189773048115
 30
0.0
 11
117.474993170019
 21
68.93572846866618
 31
0.0
  0
LINE
  5
583DA
330
5829F
100
AcDbEntity
  8
sk2
100
AcDbLine
 10
-94.92500683000065
 20
67.43572846866618
 30
0.0
 11
113.974993170019
 21
67.43572846866618
 31
0.0
  0
SOLID
  5
583DB
330
5829F
100
AcDbEntity
  8
sk2
100
AcDbTrace
 10
-94.92500683000065
 20
68.01906180199951
 30
0.0
 11
-94.92500683000065
 21
66.85239513533286
 31
0.0
 12
-98.42500683000066
 22
67.43572846866618
 32
0.0
 13
-98.42500683000066
 23
67.43572846866618
 33
0.0
  0
SOLID
  5
583DC
330
5829F
100
AcDbEntity
  8
sk2
100
AcDbTrace
 10
113.974993170019
 20
68.01906180199951
 30
0.0
 11
113.974993170019
 21
66.85239513533286
 31
0.0
 12
117.474993170019
 22
67.43572846866618
 32
0.0
 13
117.474993170019
 23
67.43572846866618
 33
0.0
  0
MTEXT
  5
583DD
330
5829F
100
AcDbEntity
  8
sk2
100
AcDbMText
 10
14.79357303669985
 20
71.48572846866618
 30
0.0
 40
3.5
 41
0.0
 71
     5
 72
     1
  1
\A1;215.9 [8.500"]
  7
simplex
 73
     1
 44
0.892857
1001
ACAD
1000
MTEXTBEGIN
1070
    73
1070
     1
1070
    44
1040
0.892857
1070
    74
1070
     0
1000
MTEXTEND
  0
POINT
  5
583DE
330
5829F
100
AcDbEntity
  8
Defpoints
 62
     0
100
AcDbPoint
 10
-98.42500683000066
 20
12.70000043104096
 30
0.0
  0
POINT
  5
583DF
330
5829F
100
AcDbEntity
  8
Defpoints
 62
     0
100
AcDbPoint
 10
117.474993170019
 20
7.008189773048115
 30
0.0
  0
POINT
  5
583E0
330
5829F
100
AcDbEntity
  8
Defpoints
 62
     0
100
AcDbPoint
 10
117.474993170019
 20
67.43572846866618
 30
0.0
  0
ENDBLK
  5
582AA
330
5829F
100
AcDbEntity
  8
0
100
AcDbBlockEnd
  0
BLOCK
  5
582B5
330
582AB
100
AcDbEntity
  8
0
100
AcDbBlockBegin
  2
*D123
 70
     1
 10
0.0
 20
0.0
 30
0.0
  3
*D123
  1

  0
LINE
  5
583E1
330
582AB
100
AcDbEntity
  8
2
100
AcDbLine
 10
117.474993170019
 20
7.008189773048115
 30
0.0
 11
117.474993170019
 21
52.77911328933964
 31
0.0
  0
LINE
  5
583E2
330
582AB
100
AcDbEntity
  8
2
100
AcDbLine
 10
-0.0000068300005864
 20
12.70001243104093
 30
0.0
 11
-0.000006830000584
 21
52.77911328933964
 31
0.0
  0
LINE
  5
583E3
330
582AB
100
AcDbEntity
  8
2
100
AcDbLine
 10
113.974993170019
 20
51.27911328933965
 30
0.0
 11
3.499993169999415
 21
51.27911328933965
 31
0.0
  0
SOLID
  5
583E4
330
582AB
100
AcDbEntity
  8
2
100
AcDbTrace
 10
113.974993170019
 20
51.86244662267299
 30
0.0
 11
113.974993170019
 21
50.69577995600631
 31
0.0
 12
117.474993170019
 22
51.27911328933965
 32
0.0
 13
117.474993170019
 23
51.27911328933965
 33
0.0
  0
SOLID
  5
583E5
330
582AB
100
AcDbEntity
  8
2
100
AcDbTrace
 10
3.499993169999415
 20
51.86244662267299
 30
0.0
 11
3.499993169999415
 21
50.69577995600631
 31
0.0
 12
-0.0000068300005841
 22
51.27911328933965
 32
0.0
 13
-0.0000068300005841
 23
51.27911328933965
 33
0.0
  0
MTEXT
  5
583E6
330
582AB
100
AcDbEntity
  8
2
100
AcDbMText
 10
61.86808713645906
 20
55.32911328933964
 30
0.0
 40
3.5
 41
0.0
 71
     5
 72
     1
  1
\A1;117.475 [4.625"]
  7
simplex
 73
     1
 44
0.892857
1001
ACAD
1000
MTEXTBEGIN
1070
    73
1070
     1
1070
    44
1040
0.892857
1070
    74
1070
     0
1000
MTEXTEND
  0
POINT
  5
583E7
330
582AB
100
AcDbEntity
  8
Defpoints
 62
     0
100
AcDbPoint
 10
117.474993170019
 20
7.008189773048115
 30
0.0
  0
POINT
  5
583E8
330
582AB
100
AcDbEntity
  8
Defpoints
 62
     0
100
AcDbPoint
 10
-0.0000068300005864
 20
12.70001243104093
 30
0.0
  0
POINT
  5
583E9
330
582AB
100
AcDbEntity
  8
Defpoints
 62
     0
100
AcDbPoint
 10
-0.0000068300005841
 20
51.27911328933965
 30
0.0
  0
ENDBLK
  5
582B6
330
582AB
100
AcDbEntity
  8
0
100
AcDbBlockEnd
  0
BLOCK
  5
582C2
330
582B7
100
AcDbEntity
  8
0
100
AcDbBlockBegin
  2
*D124
 70
     1
 10
0.0
 20
0.0
 30
0.0
  3
*D124
  1

  0
LINE
  5
583EA
330
582B7
100
AcDbEntity
  8
2
100
AcDbLine
 10
117.474993170019
 20
7.008189773048115
 30
0.0
 11
117.474993170019
 21
37.63581350145887
 31
0.0
  0
LINE
  5
583EB
330
582B7
100
AcDbEntity
  8
2
100
AcDbLine
 10
93.47499317001917
 20
8.002895525810572
 30
0.0
 11
93.47499317001917
 21
37.63581350145887
 31
0.0
  0
LINE
  5
583EC
330
582B7
100
AcDbEntity
  8
2
100
AcDbLine
 10
113.974993170019
 20
36.13581350145887
 30
0.0
 11
96.97499317001916
 21
36.13581350145887
 31
0.0
  0
LINE
  5
583ED
330
582B7
100
AcDbEntity
  8
2
100
AcDbLine
 10
93.47499317001917
 20
36.13581350145887
 30
0.0
 11
57.37499317001916
 21
36.13581350145887
 31
0.0
  0
SOLID
  5
583EE
330
582B7
100
AcDbEntity
  8
2
100
AcDbTrace
 10
113.974993170019
 20
36.71914683479221
 30
0.0
 11
113.974993170019
 21
35.55248016812554
 31
0.0
 12
117.474993170019
 22
36.13581350145887
 32
0.0
 13
117.474993170019
 23
36.13581350145887
 33
0.0
  0
SOLID
  5
583EF
330
582B7
100
AcDbEntity
  8
2
100
AcDbTrace
 10
96.97499317001916
 20
36.71914683479221
 30
0.0
 11
96.97499317001916
 21
35.55248016812554
 31
0.0
 12
93.47499317001917
 22
36.13581350145887
 32
0.0
 13
93.47499317001917
 23
36.13581350145887
 33
0.0
  0
MTEXT
  5
583F0
330
582B7
100
AcDbEntity
  8
2
100
AcDbMText
 10
73.67499317001916
 20
40.18581350145886
 30
0.0
 40
3.5
 41
0.0
 71
     5
 72
     1
  1
\A1;24 [.945"]
  7
simplex
 73
     1
 44
1.0
1001
ACAD
1000
MTEXTBEGIN
1070
    73
1070
     1
1070
    44
1040
1.0
1070
    74
1070
     0
1000
MTEXTEND
  0
POINT
  5
583F1
330
582B7
100
AcDbEntity
  8
Defpoints
 62
     0
100
AcDbPoint
 10
117.474993170019
 20
7.008189773048115
 30
0.0
  0
POINT
  5
583F2
330
582B7
100
AcDbEntity
  8
Defpoints
 62
     0
100
AcDbPoint
 10
93.47499317001917
 20
8.002895525810572
 30
0.0
  0
POINT
  5
583F3
330
582B7
100
AcDbEntity
  8
Defpoints
 62
     0
100
AcDbPoint
 10
93.47499317001917
 20
36.13581350145887
 30
0.0
  0
ENDBLK
  5
582C3
330
582B7
100
AcDbEntity
  8
0
100
AcDbBlockEnd
  0
BLOCK
  5
582CF
330
582C4
100
AcDbEntity
  8
0
100
AcDbBlockBegin
  2
*D125
 70
     1
 10
0.0
 20
0.0
 30
0.0
  3
*D125
  1

  0
LINE
  5
583F4
330
582C4
100
AcDbEntity
  8
2
100
AcDbLine
 10
93.47498717001906
 20
-9.299956318985664
 30
0.0
 11
74.69268785980529
 21
-9.299956318985657
 31
0.0
  0
LINE
  5
583F5
330
582C4
100
AcDbEntity
  8
2
100
AcDbLine
 10
93.47499317001917
 20
9.300043681014358
 30
0.0
 11
74.69268785980529
 21
9.300043681014365
 31
0.0
  0
LINE
  5
583F6
330
582C4
100
AcDbEntity
  8
2
100
AcDbLine
 10
76.19268785980529
 20
5.800043681014364
 30
0.0
 11
76.19268785980529
 21
-5.799956318985658
 31
0.0
  0
LINE
  5
583F7
330
582C4
100
AcDbEntity
  8
2
100
AcDbLine
 10
76.19268785980529
 20
-9.299956318985659
 30
0.0
 11
76.19268785980527
 21
-55.89995631898569
 31
0.0
  0
SOLID
  5
583F8
330
582C4
100
AcDbEntity
  8
2
100
AcDbTrace
 10
75.60935452647196
 20
5.800043681014364
 30
0.0
 11
76.77602119313862
 21
5.800043681014364
 31
0.0
 12
76.19268785980529
 22
9.300043681014363
 32
0.0
 13
76.19268785980529
 23
9.300043681014363
 33
0.0
  0
SOLID
  5
583F9
330
582C4
100
AcDbEntity
  8
2
100
AcDbTrace
 10
75.60935452647196
 20
-5.799956318985658
 30
0.0
 11
76.77602119313862
 21
-5.799956318985658
 31
0.0
 12
76.19268785980529
 22
-9.299956318985659
 32
0.0
 13
76.19268785980529
 23
-9.299956318985659
 33
0.0
  0
MTEXT
  5
583FA
330
582C4
100
AcDbEntity
  8
2
100
AcDbMText
 10
72.14268785980529
 20
-34.34995631898568
 30
0.0
 40
3.5
 41
0.0
 71
     5
 72
     1
  1
\A1;%%c18.6 [%%C.732"]
  7
simplex
 11
0.0000000000000001
 21
1.0
 31
0.0
 73
     1
 44
1.0
1001
ACAD
1000
MTEXTBEGIN
1070
    73
1070
     1
1070
    44
1040
1.0
1070
    74
1070
     0
1000
MTEXTEND
  0
POINT
  5
583FB
330
582C4
100
AcDbEntity
  8
Defpoints
 62
     0
100
AcDbPoint
 10
93.47498717001906
 20
-9.299956318985664
 30
0.0
  0
POINT
  5
583FC
330
582C4
100
AcDbEntity
  8
Defpoints
 62
     0
100
AcDbPoint
 10
93.47499317001917
 20
9.300043681014358
 30
0.0
  0
POINT
  5
583FD
330
582C4
100
AcDbEntity
  8
Defpoints
 62
     0
100
AcDbPoint
 10
76.19268785980529
 20
9.300043681014363
 30
0.0
  0
ENDBLK
  5
582D0
330
582C4
100
AcDbEntity
  8
0
100
AcDbBlockEnd
  0
BLOCK
  5
582DC
330
582D1
100
AcDbEntity
  8
0
100
AcDbBlockBegin
  2
*D126
 70
     1
 10
0.0
 20
0.0
 30
0.0
  3
*D126
  1

  0
LINE
  5
583FE
330
582D1
100
AcDbEntity
  8
sk2
100
AcDbLine
 10
-97.22499483000063
 20
-12.69999956895904
 30
0.0
 11
-121.1402168300005
 21
-12.69999956895903
 31
0.0
  0
LINE
  5
583FF
330
582D1
100
AcDbEntity
  8
sk2
100
AcDbLine
 10
-97.22499483000063
 20
12.70000043104096
 30
0.0
 11
-121.1402168300005
 21
12.70000043104097
 31
0.0
  0
LINE
  5
58400
330
582D1
100
AcDbEntity
  8
sk2
100
AcDbLine
 10
-119.6402168300005
 20
9.200000431040969
 30
0.0
 11
-119.6402168300005
 21
-9.199999568959036
 31
0.0
  0
LINE
  5
58401
330
582D1
100
AcDbEntity
  8
sk2
100
AcDbLine
 10
-119.6402168300005
 20
-12.69999956895903
 30
0.0
 11
-119.6402168300005
 21
-61.04999956895902
 31
0.0
  0
SOLID
  5
58402
330
582D1
100
AcDbEntity
  8
sk2
100
AcDbTrace
 10
-120.2235501633339
 20
9.200000431040969
 30
0.0
 11
-119.0568834966672
 21
9.200000431040969
 31
0.0
 12
-119.6402168300005
 22
12.70000043104097
 32
0.0
 13
-119.6402168300005
 23
12.70000043104097
 33
0.0
  0
SOLID
  5
58403
330
582D1
100
AcDbEntity
  8
sk2
100
AcDbTrace
 10
-120.2235501633339
 20
-9.199999568959036
 30
0.0
 11
-119.0568834966672
 21
-9.199999568959036
 31
0.0
 12
-119.6402168300005
 22
-12.69999956895903
 32
0.0
 13
-119.6402168300005
 23
-12.69999956895903
 33
0.0
  0
MTEXT
  5
58404
330
582D1
100
AcDbEntity
  8
sk2
100
AcDbMText
 10
-123.6902168300005
 20
-38.62499956895906
 30
0.0
 40
3.5
 41
0.0
 71
     5
 72
     1
  1
\A1;%%C25.4 [%%C1.000"]
  7
simplex
 11
0.0000000000000001
 21
1.0
 31
0.0
 73
     1
 44
0.892857
1001
ACAD
1000
MTEXTBEGIN
1070
    73
1070
     1
1070
    44
1040
0.892857
1070
    74
1070
     0
1000
MTEXTEND
  0
POINT
  5
58405
330
582D1
100
AcDbEntity
  8
Defpoints
 62
     0
100
AcDbPoint
 10
-97.22499483000063
 20
-12.69999956895904
 30
0.0
  0
POINT
  5
58406
330
582D1
100
AcDbEntity
  8
Defpoints
 62
     0
100
AcDbPoint
 10
-97.22499483000063
 20
12.70000043104096
 30
0.0
  0
POINT
  5
58407
330
582D1
100
AcDbEntity
  8
Defpoints
 62
     0
100
AcDbPoint
 10
-119.6402168300005
 20
12.70000043104097
 30
0.0
  0
ENDBLK
  5
582DD
330
582D1
100
AcDbEntity
  8
0
100
AcDbBlockEnd
  0
BLOCK
  5
582E7
330
582DE
100
AcDbEntity
  8
0
100
AcDbBlockBegin
  2
*D127
 70
     1
 10
0.0
 20
0.0
 30
0.0
  3
*D127
  1

  0
LINE
  5
58408
330
582DE
100
AcDbEntity
  8
2
100
AcDbLine
 10
115.474972169996
 20
10.00002817991438
 30
0.0
 11
138.974972169996
 21
10.00002817991437
 31
0.0
  0
LINE
  5
58409
330
582DE
100
AcDbEntity
  8
2
100
AcDbLine
 10
137.474972169996
 20
6.500028179914373
 30
0.0
 11
137.474972169996
 21
-9.999971818985622
 31
0.0
  0
LINE
  5
5840A
330
582DE
100
AcDbEntity
  8
2
100
AcDbLine
 10
137.474972169996
 20
-9.999971818985622
 30
0.0
 11
137.474972169996
 21
-52.51663848565228
 31
0.0
  0
SOLID
  5
5840B
330
582DE
100
AcDbEntity
  8
2
100
AcDbTrace
 10
136.8916388366627
 20
6.500028179914373
 30
0.0
 11
138.0583055033293
 21
6.500028179914372
 31
0.0
 12
137.474972169996
 22
10.00002817991437
 32
0.0
 13
137.474972169996
 23
10.00002817991437
 33
0.0
  0
MTEXT
  5
5840C
330
582DE
100
AcDbEntity
  8
2
100
AcDbMText
 10
133.424972169996
 20
-33.00830515231893
 30
0.0
 40
3.5
 41
0.0
 71
     5
 72
     1
  1
\A1;%%c20 [%%c.787"]
  7
simplex
 11
0.0000000000000001
 21
1.0
 31
0.0
 73
     1
 44
1.0
1001
ACAD
1000
MTEXTBEGIN
1070
    73
1070
     1
1070
    44
1040
1.0
1070
    74
1070
     0
1000
MTEXTEND
  0
POINT
  5
5840D
330
582DE
100
AcDbEntity
  8
Defpoints
 62
     0
100
AcDbPoint
 10
115.474972169996
 20
10.00002817991438
 30
0.0
  0
POINT
  5
5840E
330
582DE
100
AcDbEntity
  8
Defpoints
 62
     0
100
AcDbPoint
 10
107.474972169996
 20
-9.999971818985613
 30
0.0
  0
POINT
  5
5840F
330
582DE
100
AcDbEntity
  8
Defpoints
 62
     0
100
AcDbPoint
 10
137.474972169996
 20
-9.999971818985622
 30
0.0
  0
ENDBLK
  5
582E8
330
582DE
100
AcDbEntity
  8
0
100
AcDbBlockEnd
  0
BLOCK
  5
58355
330
5834D
100
AcDbEntity
  8
0
100
AcDbBlockBegin
  2
*D132
 70
     1
 10
0.0
 20
0.0
 30
0.0
  3
*D132
  1

  0
LINE
  5
58417
330
5834D
100
AcDbEntity
  8
2
100
AcDbLine
 10
155.4489097075582
 20
34.39286453292682
 30
0.0
 11
120.0535223294298
 21
10.83796065291338
 31
0.0
  0
MTEXT
  5
58418
330
5834D
100
AcDbEntity
  8
2
100
AcDbMText
 10
136.9643379439586
 20
26.95659018613318
 30
0.0
 40
3.5
 41
0.0
 71
     5
 72
     1
  1
\A1;R2 [R.0787"]
  7
simplex
 11
0.8325061711829501
 21
0.5540157713840867
 31
0.0
 73
     1
 44
1.0
1001
ACAD
1000
MTEXTBEGIN
1070
    73
1070
     1
1070
    44
1040
1.0
1070
    74
1070
     0
1000
MTEXTEND
  0
SOLID
  5
58419
330
5834D
100
AcDbEntity
  8
2
100
AcDbTrace
 10
119.7303464627891
 20
11.3235892527701
 30
0.0
 11
120.3766981960705
 21
10.35233205305666
 31
0.0
 12
117.1397507302895
 22
8.898905453069083
 32
0.0
 13
117.1397507302895
 23
8.898905453069083
 33
0.0
  0
LINE
  5
5841A
330
5834D
100
AcDbEntity
  8
2
100
AcDbLine
 10
115.3847383879239
 20
7.790873910301144
 30
0.0
 11
115.5647383879239
 21
7.790873910301151
 31
0.0
  0
LINE
  5
5841B
330
5834D
100
AcDbEntity
  8
2
100
AcDbLine
 10
115.4747383879239
 20
7.700873910301154
 30
0.0
 11
115.4747383879239
 21
7.880873910301147
 31
0.0
  0
POINT
  5
5841C
330
5834D
100
AcDbEntity
  8
Defpoints
 62
     0
100
AcDbPoint
 10
117.1397507302895
 20
8.898905453069083
 30
0.0
  0
POINT
  5
5841D
330
5834D
100
AcDbEntity
  8
Defpoints
 62
     0
100
AcDbPoint
 10
115.4747383879239
 20
7.790873910301144
 30
0.0
  0
ENDBLK
  5
58356
330
5834D
100
AcDbEntity
  8
0
100
AcDbBlockEnd
  0
ENDSEC
  0
SECTION
  2
ENTITIES
  0
INSERT
  5
68C
330
1F
100
AcDbEntity
  8
0
100
AcDbBlockReference
  2
zero block
 10
0.0
 20
0.0
 30
0.0
  0
MTEXT
  5
55BF4
330
1F
100
AcDbEntity
  8
sk6
100
AcDbMText
 10
-93.17216952213152
 20
95.85346451126588
 30
0.0
 40
5.0
 41
70.03712541027798
 71
     1
 72
     5
  1
SRFU12S16L\PSUFT20R20
  7
simplex
 73
     1
 44
1.0
1001
ACAD
1000
ACAD_MTEXT_DEFINED_HEIGHT_BEGIN
1070
    46
1040
0.0
1000
ACAD_MTEXT_DEFINED_HEIGHT_END
1000
MTEXTBEGIN
1070
    73
1070
     1
1070
    44
1040
1.0
1070
    74
1070
     0
1000
MTEXTEND
  0
DIMENSION
  5
5806A
330
1F
100
AcDbEntity
  8
sk2
100
AcDbDimension
  2
*D122
 10
117.474993170019
 20
67.43572846866618
 30
0.0
 11
14.79357303669985
 21
67.43572846866618
 31
0.0
 70
   160
 71
     5
 41
0.892857
 42
215.9000000000197
  3
\M+18352\M+18373\M+1815B - ISO-25
100
AcDbAlignedDimension
 13
-98.42500683000066
 23
12.70000043104096
 33
0.0
 14
117.474993170019
 24
7.008189773048115
 34
0.0
 50
180.0
100
AcDbRotatedDimension
1001
ACAD
1000
DSTYLE
1002
{
1070
     4
1000
"
1070
    40
1040
1.0
1070
   143
1040
0.03937
1070
   170
1070
     1
1070
   171
1070
     3
1070
   271
1070
     8
1070
   285
1070
     4
1002
}
  0
DIMENSION
  5
5806B
330
1F
100
AcDbEntity
  8
2
100
AcDbDimension
  2
*D123
 10
-0.0000068300005841
 20
51.27911328933965
 30
0.0
 11
61.86808713645906
 21
51.27911328933965
 31
0.0
 70
   160
 71
     5
 41
0.892857
 42
117.4750000000196
  3
\M+18352\M+18373\M+1815B - ISO-25
100
AcDbAlignedDimension
 13
117.474993170019
 23
7.008189773048115
 33
0.0
 14
-0.0000068300005864
 24
12.70001243104093
 34
0.0
 50
359.9999610000006
100
AcDbRotatedDimension
1001
ACAD
1000
DSTYLE
1002
{
1070
     4
1000
"
1070
    40
1040
1.0
1070
   143
1040
0.03937
1070
   170
1070
     1
1070
   171
1070
     3
1070
   271
1070
     8
1070
   285
1070
     4
1002
}
  0
SPLINE
  5
5806C
330
1F
100
AcDbEntity
  8
1
100
AcDbSpline
210
0.0
220
0.0
230
1.0
 70
     8
 71
     3
 72
    10
 73
     6
 74
     4
 42
0.0000000001
 43
0.0000000001
 44
0.000001
 12
0.9959101553832343
 22
-0.0903491140218995
 32
0.0
 13
0.9824277678813343
 23
-0.1866431913992558
 33
0.0
 40
0.0
 40
0.0
 40
0.0
 40
0.0
 40
0.2021055944582428
 40
0.4283389005465649
 40
0.6758636832241262
 40
0.6758636832241262
 40
0.6758636832241262
 40
0.6758636832241262
 10
98.58082250009715
 20
9.074765977889398
 30
0.0
 10
98.64791550475741
 20
9.068679290756676
 30
0.0
 10
98.789925554322
 20
9.053456494279885
 30
0.0
 10
99.01274911987314
 20
9.019950276443182
 30
0.0
 10
99.16835845386835
 20
8.992936579112949
 30
0.0
 10
99.24941686044872
 20
8.977536973983148
 30
0.0
 11
98.58082250009715
 21
9.074765977889398
 31
0.0
 11
98.78175023447216
 21
9.052976427108148
 31
0.0
 11
99.00559667001909
 21
9.020200548201898
 31
0.0
 11
99.24941686044872
 21
8.977536973983148
 31
0.0
  0
SPLINE
  5
5806D
330
1F
100
AcDbEntity
  8
1
100
AcDbSpline
210
0.0
220
0.0
230
1.0
 70
     8
 71
     3
 72
    47
 73
    43
 74
    41
 42
0.0000000001
 43
0.0000000001
 44
0.000001
 12
-0.9999999690484479
 22
-0.0002488033421133
 32
0.0
 13
0.9999999685521048
 23
-0.0002507903296894
 33
0.0
 40
0.0
 40
0.0
 40
0.0
 40
0.0
 40
0.4500639720985335
 40
0.8959485888982669
 40
1.191304801459346
 40
1.486816615524884
 40
1.785831016514374
 40
2.073244113150689
 40
2.368341678515775
 40
2.662228446819074
 40
2.948784443830419
 40
3.232224318899091
 40
3.531077361431592
 40
3.882237252846928
 40
4.229753878224991
 40
4.583087740818454
 40
4.929408382840607
 40
5.277496673287314
 40
5.722068780334563
 40
6.168456027443312
 40
6.613407203131446
 40
7.061345600655683
 40
7.512815786772376
 40
7.959527579216401
 40
8.404985700370568
 40
8.851021064228815
 40
9.141332370285642
 40
9.432527611006474
 40
9.729127591883591
 40
10.01942694871504
 40
10.30917308752304
 40
10.60160863062474
 40
10.95630604829198
 40
11.2985667880147
 40
11.6483794460221
 40
11.99924207410444
 40
12.34505588393604
 40
12.64215686729147
 40
12.93740326680145
 40
13.23397775726086
 40
13.68210193950048
 40
14.13315345404619
 40
14.13315345404619
 40
14.13315345404619
 40
14.13315345404619
 10
107.3249936426753
 20
4.500058946639398
 30
0.0
 10
107.1749723232858
 20
4.500021620832598
 30
0.0
 10
106.876116071517
 20
4.485099142533186
 30
0.0
 10
106.48280527401
 20
4.425774802743944
 30
0.0
 10
106.1462513270534
 20
4.346279859215798
 30
0.0
 10
105.8624616963463
 20
4.259216931039588
 30
0.0
 10
105.5875133727842
 20
4.154547785764663
 30
0.0
 10
105.3201136439409
 20
4.032251033583236
 30
0.0
 10
105.0626729340802
 20
3.893727191781806
 30
0.0
 10
104.8150911881715
 20
3.738810988309637
 30
0.0
 10
104.5811605739595
 20
3.57055549579806
 30
0.0
 10
104.3570856588293
 20
3.386764852122666
 30
0.0
 10
104.1296023632017
 20
3.174148749888132
 30
0.0
 10
103.9034885347297
 20
2.929881796139397
 30
0.0
 10
103.6857116636634
 20
2.654591994830838
 30
0.0
 10
103.4909250699903
 20
2.364503464380959
 30
0.0
 10
103.3191548291612
 20
2.060018043744435
 30
0.0
 10
103.1585106487409
 20
1.715619748912246
 30
0.0
 10
103.0173163683313
 20
1.326745267819092
 30
0.0
 10
102.9072571441652
 20
0.8945089357234792
 30
0.0
 10
102.8403508991052
 20
0.4523870626493647
 30
0.0
 10
102.8174895300815
 20
0.0041090995329682
 30
0.0
 10
102.8395215719969
 20
-0.4448122117825051
 30
0.0
 10
102.9060408997977
 20
-0.8884725456850901
 30
0.0
 10
103.0157450655284
 20
-1.321580507788041
 30
0.0
 10
103.1499826653694
 20
-1.692668848827963
 30
0.0
 10
103.2925434489728
 20
-2.004340890133789
 30
0.0
 10
103.4313133432066
 20
-2.262293840688528
 30
0.0
 10
103.5866392517265
 20
-2.510629523862178
 30
0.0
 10
103.7575328567755
 20
-2.747911957261379
 30
0.0
 10
103.9424688182005
 20
-2.972627566624737
 30
0.0
 10
104.1562296614709
 20
-3.200586160346915
 30
0.0
 10
104.3987857645684
 20
-3.424567926630857
 30
0.0
 10
104.6729464814594
 20
-3.640933558969607
 30
0.0
 10
104.961874763685
 20
-3.834901153224507
 30
0.0
 10
105.2660495362383
 20
-4.006382378052848
 30
0.0
 10
105.5666469378754
 20
-4.146367173927075
 30
0.0
 10
105.8590352655984
 20
-4.257900919578275
 30
0.0
 10
106.1424248077791
 20
-4.345182839848803
 30
0.0
 10
106.4799552792077
 20
-4.42518253192884
 30
0.0
 10
106.8747082957009
 20
-4.484941702051912
 30
0.0
 10
107.1746431425549
 20
-4.499933864486052
 30
0.0
 10
107.3249936426753
 20
-4.499971570938726
 30
0.0
 11
107.3249936426753
 21
4.500058946639398
 31
0.0
 11
106.8754926050776
 21
4.477536973983148
 31
0.0
 11
106.4345898951166
 21
4.411069688826898
 31
0.0
 11
106.1471448267574
 21
4.34316807749883
 31
0.0
 11
105.8646283472651
 21
4.256498155623773
 31
0.0
 11
105.5851788843744
 21
4.150113878279967
 31
0.0
 11
105.3238034571283
 21
4.030576524764398
 31
0.0
 11
105.0639386499994
 21
3.890744981795648
 31
0.0
 11
104.8148007715815
 21
3.734861192733148
 31
0.0
 11
104.5821729029291
 21
3.567533311873773
 31
0.0
 11
104.363018545019
 21
3.387784776717523
 31
0.0
 11
104.1446881617182
 21
3.183713731795648
 31
0.0
 11
103.9061322535151
 21
2.926023302108148
 31
0.0
 11
103.6905331934565
 21
2.653470811873773
 31
0.0
 11
103.4935574854487
 21
2.36013585093633
 31
0.0
 11
103.3233990992182
 21
2.05850010874883
 31
0.0
 11
103.1762585962885
 21
1.743039903670705
 31
0.0
 11
103.024525197851
 21
1.325162706405023
 31
0.0
 11
102.9143872583979
 21
0.8925760364831489
 31
0.0
 11
102.8478055323237
 21
0.452634630233149
 31
0.0
 11
102.8249936426752
 21
0.0052774524988308
 31
0.0
 11
102.8471188868158
 21
-0.4456502818762261
 31
0.0
 11
102.9133649195307
 21
-0.887422742813726
 31
0.0
 11
103.0227322901362
 21
-1.319246473282476
 31
0.0
 11
103.1744656885738
 21
-1.738680067032476
 31
0.0
 11
103.2952161158197
 21
-2.002687635391851
 31
0.0
 11
103.4331784571283
 21
-2.259126844376226
 31
0.0
 11
103.5904584253901
 21
-2.510591688126226
 31
0.0
 11
103.7601132715815
 21
-2.746156873673101
 31
0.0
 11
103.9442334498041
 21
-2.969881238907476
 31
0.0
 11
104.144268545019
 21
-3.183199110001169
 31
0.0
 11
104.4048581446284
 21
-3.423830213516851
 31
0.0
 11
104.6735272730463
 21
-3.635866346329294
 31
0.0
 11
104.9639630640619
 21
-3.830843152970032
 31
0.0
 11
105.2696042383784
 21
-4.003145399063669
 31
0.0
 11
105.5830884302729
 21
-4.149141492813669
 31
0.0
 11
105.8606763208979
 21
-4.255037488907476
 31
0.0
 11
106.1428494776363
 21
-4.341921033829294
 31
0.0
 11
106.4314236963862
 21
-4.410341443985601
 31
0.0
 11
106.874508413183
 21
-4.477358045548101
 31
0.0
 11
107.3249936426753
 21
-4.499971570938726
 31
0.0
  0
SPLINE
  5
5806E
330
1F
100
AcDbEntity
  8
1
100
AcDbSpline
210
0.0
220
0.0
230
1.0
 70
     8
 71
     3
 72
    16
 73
    12
 74
    10
 42
0.0000000001
 43
0.0000000001
 44
0.000001
 12
0.971374906312096
 22
-0.2375516604597128
 32
0.0
 13
0.9474750794729757
 23
-0.3198296011592397
 33
0.0
 40
0.0
 40
0.0
 40
0.0
 40
0.0
 40
0.6162293907559988
 40
1.266641421358274
 40
1.944378000717049
 40
2.643153195263488
 40
3.346129980189943
 40
4.065757165920794
 40
5.218360964633992
 40
6.37652565755968
 40
7.57973159361327
 40
7.57973159361327
 40
7.57973159361327
 40
7.57973159361327
 10
100.2257352198238
 20
8.764158067733148
 30
0.0
 10
100.4252651420612
 20
8.715362629400431
 30
0.0
 10
100.8346762410859
 20
8.612086475143655
 30
0.0
 10
101.4603326478575
 20
8.442820656545279
 30
0.0
 10
102.1104777719571
 20
8.258925251797393
 30
0.0
 10
102.7755603065047
 20
8.06359596070439
 30
0.0
 10
103.4524371359303
 20
7.858964254521993
 30
0.0
 10
104.2723712424695
 20
7.604852825282875
 30
0.0
 10
105.2349480819333
 20
7.298520415078655
 30
0.0
 10
106.3483313362653
 20
6.934654720354615
 30
0.0
 10
107.0949849925314
 20
6.685491995347661
 30
0.0
 10
107.4749875391596
 20
6.557218370467523
 30
0.0
 11
100.2257352198238
 21
8.764158067733148
 31
0.0
 11
100.8231931055659
 21
8.613218126326898
 31
0.0
 11
101.4512143458003
 21
8.444028673201898
 31
0.0
 11
102.1034207666988
 21
8.259763536483148
 31
0.0
 11
102.7739529932613
 21
8.063108263045648
 31
0.0
 11
103.446888479101
 21
7.859800157576898
 31
0.0
 11
104.1343045557611
 21
7.646909532576898
 31
0.0
 11
105.2327237452143
 21
7.297666368514398
 31
0.0
 11
106.3336911524409
 21
6.938199815779967
 31
0.0
 11
107.4749875391596
 21
6.557218370467523
 31
0.0
  0
SPLINE
  5
5806F
330
1F
100
AcDbEntity
  8
1
100
AcDbSpline
210
0.0
220
0.0
230
1.0
 70
     8
 71
     3
 72
    25
 73
    21
 74
    19
 42
0.0000000001
 43
0.0000000001
 44
0.000001
 12
0.9468450350588154
 22
-0.3216900365017087
 32
0.0
 13
0.472672644905016
 23
-0.8812380897115698
 33
0.0
 40
0.0
 40
0.0
 40
0.0
 40
0.0
 40
0.6624445206021421
 40
1.343635475877348
 40
2.037040079011434
 40
2.74419995025894
 40
3.498205810181014
 40
4.256607259798172
 40
5.026797150448682
 40
5.793620200072934
 40
6.519207187701985
 40
7.232933973109561
 40
7.940537143243858
 40
8.625243230554746
 40
9.2313039085323
 40
9.806261301969115
 40
10.35277477793329
 40
10.85315324085364
 40
11.19386818035246
 40
11.49794529668522
 40
11.49794529668522
 40
11.49794529668522
 40
11.49794529668522
 10
107.5502362574213
 20
6.531766710311273
 30
0.0
 10
107.7593136925327
 20
6.460732776306997
 30
0.0
 10
108.1803914832218
 20
6.307660186210512
 30
0.0
 10
108.8081347032366
 20
6.048289628147131
 30
0.0
 10
109.4376679479573
 20
5.755868641155359
 30
0.0
 10
110.0756160539396
 20
5.425511228556501
 30
0.0
 10
110.7171035201335
 20
5.056377444887147
 30
0.0
 10
111.3590176188345
 20
4.647411733467379
 30
0.0
 10
111.9852698442485
 20
4.207359254457855
 30
0.0
 10
112.5824413285861
 20
3.746286910274136
 30
0.0
 10
113.144521750499
 20
3.271767851714002
 30
0.0
 10
113.6716703184629
 20
2.787462389868608
 30
0.0
 10
114.1684467704098
 20
2.291154665422709
 30
0.0
 10
114.6199051266247
 20
1.801091385006742
 30
0.0
 10
115.0228881218017
 20
1.327216188307829
 30
0.0
 10
115.3791619051093
 20
0.8746408036409434
 30
0.0
 10
115.6969878967013
 20
0.437140671685313
 30
0.0
 10
115.9534770849155
 20
0.0520704955885094
 30
0.0
 10
116.1528928197449
 20
-0.2735203628491547
 30
0.0
 10
116.2577282238054
 20
-0.4612177521844956
 30
0.0
 10
116.3056378687494
 20
-0.5505391978918511
 30
0.0
 11
107.5502362574213
 21
6.531766710311273
 31
0.0
 11
108.1728101099604
 21
6.305417833358148
 31
0.0
 11
108.8024258936518
 21
6.045408067733148
 31
0.0
 11
109.4313397730463
 21
5.753385362655023
 31
0.0
 11
110.059322866308
 21
5.428251085311273
 31
0.0
 11
110.7129025782221
 21
5.052274522811217
 31
0.0
 11
111.3525433863276
 21
4.64480381968633
 31
0.0
 11
111.9827542627924
 21
4.20205479624883
 31
0.0
 11
112.5897183741205
 21
3.733426866561273
 31
0.0
 11
113.1441617334955
 21
3.265378770858148
 31
0.0
 11
113.6697125757807
 21
2.782468614608148
 31
0.0
 11
114.1702618921869
 21
2.282316026717523
 31
0.0
 11
114.6340680445307
 21
1.778623399764398
 31
0.0
 11
115.0265698755853
 21
1.316831407576898
 31
0.0
 11
115.3820004786128
 21
0.8648965931237739
 31
0.0
 11
115.7028546656244
 21
0.422483263045649
 31
0.0
 11
115.9798016871089
 21
0.0057352161707058
 31
0.0
 11
116.1571927393549
 21
-0.285158338516851
 31
0.0
 11
116.3056378687494
 21
-0.5505391978918511
 31
0.0
  0
SPLINE
  5
58070
330
1F
100
AcDbEntity
  8
1
100
AcDbSpline
210
0.0
220
0.0
230
1.0
 70
     8
 71
     3
 72
    11
 73
     7
 74
     5
 42
0.0000000001
 43
0.0000000001
 44
0.000001
 12
-0.9469616152808802
 22
0.3213466962404101
 32
0.0
 13
-0.9475844315216047
 23
0.3195054696525196
 33
0.0
 40
0.0
 40
0.0
 40
0.0
 40
0.0
 40
0.0198802755307438
 40
0.0397533242843359
 40
0.0596021423995119
 40
0.0794365036403571
 40
0.0794365036403571
 40
0.0794365036403571
 40
0.0794365036403571
 10
107.5502362574213
 20
6.531766710311273
 30
0.0
 10
107.5439609714784
 20
6.533896197265335
 30
0.0
 10
107.5314084910105
 20
6.538142035814814
 30
0.0
 10
107.5125946989451
 20
6.54452594602742
 30
0.0
 10
107.4937823726502
 20
6.550866417620909
 30
0.0
 10
107.4812524498
 20
6.555105974832997
 30
0.0
 10
107.4749875391596
 20
6.557218370467523
 30
0.0
 11
107.5502362574213
 21
6.531766710311273
 31
0.0
 11
107.5314069117182
 21
6.538144884139398
 31
0.0
 11
107.5125851954096
 21
6.544523057967523
 31
0.0
 11
107.4937787378901
 21
6.550870714217523
 31
0.0
 11
107.4749875391596
 21
6.557218370467523
 31
0.0
  0
SPLINE
  5
58071
330
1F
100
AcDbEntity
  8
1
100
AcDbSpline
210
0.0
220
0.0
230
1.0
 70
     8
 71
     3
 72
    22
 73
    18
 74
    16
 42
0.0000000001
 43
0.0000000001
 44
0.000001
 12
0.9501051262673982
 22
0.3119298784028415
 32
0.0
 13
0.066472848683105
 23
0.9977882342400882
 33
0.0
 40
0.0
 40
0.0
 40
0.0
 40
0.0
 40
0.1773883036541413
 40
0.9247315810939968
 40
1.674737135707942
 40
2.424734059915533
 40
3.172073090282121
 40
3.919103792564672
 40
4.668824607625534
 40
5.418512096781972
 40
6.165520686917317
 40
6.911030509148536
 40
7.65926918584413
 40
8.407427719404264
 40
9.152835591466837
 40
9.788513083387851
 40
10.42416986786295
 40
10.42416986786295
 40
10.42416986786295
 40
10.42416986786295
 10
110.2462125147455
 20
-8.290712537735601
 30
0.0
 10
110.3023916936261
 20
-8.272268300405954
 30
0.0
 10
110.5942786755782
 20
-8.173159940057615
 30
0.0
 10
111.1133229118439
 20
-7.96558858055809
 30
0.0
 10
111.7838235350585
 20
-7.629648407689217
 30
0.0
 10
112.4241382751121
 20
-7.239166288462627
 30
0.0
 10
113.0286704700618
 20
-6.796906266498297
 30
0.0
 10
113.5926647091707
 20
-6.304129308176527
 30
0.0
 10
114.1138249686261
 20
-5.765232384659668
 30
0.0
 10
114.588355133533
 20
-5.184859013418048
 30
0.0
 10
115.0115851120399
 20
-4.567719726180058
 30
0.0
 10
115.3795760437851
 20
-3.916689670599851
 30
0.0
 10
115.6915074305516
 20
-3.236636019859389
 30
0.0
 10
115.945172868551
 20
-2.532796533158972
 30
0.0
 10
116.1279733861506
 20
-1.84603368037807
 30
0.0
 10
116.2476095039129
 20
-1.183922547087036
 30
0.0
 10
116.2915532296665
 20
-0.7619561514132443
 30
0.0
 10
116.3056378687494
 20
-0.5505391978918511
 30
0.0
 11
110.2462125147455
 21
-8.290712537735601
 31
0.0
 11
110.4141812647455
 21
-8.233675184220032
 31
0.0
 11
111.1081815088863
 21
-7.956392469376226
 31
0.0
 11
111.778790029394
 21
-7.620546522110601
 31
0.0
 11
112.4190488184565
 21
-7.229952039688782
 31
0.0
 11
113.0220151270503
 21
-6.788423719376226
 31
0.0
 11
113.5847821558588
 21
-6.297151746720032
 31
0.0
 11
114.1060529078119
 21
-5.758302869766851
 31
0.0
 11
114.5804791773432
 21
-5.177828016251169
 31
0.0
 11
115.0026975000971
 21
-4.561586561173101
 31
0.0
 11
115.3697934473628
 21
-3.912721815079294
 31
0.0
 11
115.6817975367182
 21
-3.232637586563669
 31
0.0
 11
115.9352536524408
 21
-2.528719129532476
 31
0.0
 11
116.1267209375971
 21
-1.808321180313669
 31
0.0
 11
116.239742788183
 21
-1.182771863907476
 31
0.0
 11
116.3056378687494
 21
-0.5505391978918511
 31
0.0
  0
SPLINE
  5
58072
330
1F
100
AcDbEntity
  8
1
100
AcDbSpline
210
0.0
220
0.0
230
1.0
 70
     8
 71
     3
 72
    11
 73
     7
 74
     5
 42
0.0000000001
 43
0.0000000001
 44
0.000001
 12
0.9999996031474408
 22
0.0008909012070156
 32
0.0
 13
0.9508619751644026
 23
0.3096150903726288
 33
0.0
 40
0.0
 40
0.0
 40
0.0
 40
0.0
 40
0.7473246493751899
 40
1.497319414912209
 40
2.247314232719002
 40
2.804700492456469
 40
2.804700492456469
 40
2.804700492456469
 40
2.804700492456469
 10
107.4749875391596
 20
-8.734132947891851
 30
0.0
 10
107.7240956567588
 20
-8.73391101708114
 30
0.0
 10
108.2234535732754
 20
-8.712698970429414
 30
0.0
 10
108.9673143862055
 20
-8.617441891114367
 30
0.0
 10
109.6388317100426
 20
-8.474264508860358
 30
0.0
 10
110.0574999008262
 20
-8.352174371040689
 30
0.0
 10
110.2341657007807
 20
-8.294649305313669
 30
0.0
 11
107.4749875391596
 21
-8.734132947891851
 31
0.0
 11
108.2216306055659
 21
-8.702211561173101
 31
0.0
 11
108.9655881250971
 21
-8.607240858048101
 31
0.0
 11
109.6990475977533
 21
-8.450624647110601
 31
0.0
 11
110.2341657007807
 21
-8.294649305313669
 31
0.0
  0
ARC
  5
58073
330
1F
100
AcDbEntity
  8
1
100
AcDbCircle
 10
107.474987170019
 20
0.0000281810143861
 30
0.0
 40
4.050004
100
AcDbArc
 50
270.0000430000017
 51
0.0000050000005032
  0
ARC
  5
58074
330
1F
100
AcDbEntity
  8
1
100
AcDbCircle
 10
107.474987170019
 20
0.0000281810143861
 30
0.0
 40
4.050004
100
AcDbArc
 50
359.9999949999995
 51
89.9999970000023
  0
ARC
  5
58075
330
1F
100
AcDbEntity
  8
1
100
AcDbCircle
 10
107.474987170019
 20
0.0000281810143861
 30
0.0
 40
4.050004
100
AcDbArc
 50
89.9999970000023
 51
179.9999980000004
  0
ARC
  5
58076
330
1F
100
AcDbEntity
  8
1
100
AcDbCircle
 10
107.474987170019
 20
0.0000281810143861
 30
0.0
 40
4.050004
100
AcDbArc
 50
180.0000889999978
 51
270.0000430000017
  0
ARC
  5
58077
330
1F
100
AcDbEntity
  8
1
100
AcDbCircle
 10
107.474987170019
 20
2.229551181014414
 30
0.0
 40
0.8260009999999999
100
AcDbArc
 50
223.6651810000028
 51
316.3348239999991
  0
ARC
  5
58078
330
1F
100
AcDbEntity
  8
1
100
AcDbCircle
 10
105.815220170019
 20
0.0000281810143861
 30
0.0
 40
0.321227
100
AcDbArc
 50
103.665615
 51
256.3343789999976
  0
ARC
  5
58079
330
1F
100
AcDbEntity
  8
1
100
AcDbCircle
 10
108.304875170019
 20
1.437437181014388
 30
0.0
 40
0.321227
100
AcDbArc
 50
343.6656079999988
 51
136.3343919999977
  0
ARC
  5
5807A
330
1F
100
AcDbEntity
  8
1
100
AcDbCircle
 10
105.5441861700189
 20
1.114805181014389
 30
0.0
 40
0.8260009999999999
100
AcDbArc
 50
283.6651760000001
 51
16.33482600000187
  0
ARC
  5
5807B
330
1F
100
AcDbEntity
  8
1
100
AcDbCircle
 10
109.134762170019
 20
0.0000281810143861
 30
0.0
 40
0.321227
100
AcDbArc
 50
283.6656200000009
 51
76.33437700000128
  0
ARC
  5
5807C
330
1F
100
AcDbEntity
  8
1
100
AcDbCircle
 10
108.304875170019
 20
-1.437349818985637
 30
0.0
 40
0.321227
100
AcDbArc
 50
223.6655969999993
 51
16.33438900000068
  0
ARC
  5
5807D
330
1F
100
AcDbEntity
  8
1
100
AcDbCircle
 10
109.405796170019
 20
-1.114717818985582
 30
0.0
 40
0.8260009999999999
100
AcDbArc
 50
103.665171000002
 51
196.3348260000018
  0
ARC
  5
5807E
330
1F
100
AcDbEntity
  8
1
100
AcDbCircle
 10
109.405796170019
 20
1.114805181014389
 30
0.0
 40
0.8260009999999999
100
AcDbArc
 50
163.6651770000011
 51
256.3348289999979
  0
ARC
  5
5807F
330
1F
100
AcDbEntity
  8
1
100
AcDbCircle
 10
106.645108170019
 20
-1.437349818985637
 30
0.0
 40
0.321227
100
AcDbArc
 50
163.6656079999988
 51
316.3344010000035
  0
ARC
  5
58080
330
1F
100
AcDbEntity
  8
1
100
AcDbCircle
 10
106.645108170019
 20
1.437437181014388
 30
0.0
 40
0.321227
100
AcDbArc
 50
43.66559899999649
 51
196.3343849999986
  0
ARC
  5
58081
330
1F
100
AcDbEntity
  8
1
100
AcDbCircle
 10
107.474987170019
 20
-2.229463818985607
 30
0.0
 40
0.8260009999999999
100
AcDbArc
 50
43.66517600000084
 51
136.3348230000024
  0
ARC
  5
58082
330
1F
100
AcDbEntity
  8
1
100
AcDbCircle
 10
105.5441861700189
 20
-1.114717818985582
 30
0.0
 40
0.8260009999999999
100
AcDbArc
 50
343.66517
 51
76.33484099999974
  0
ARC
  5
58083
330
1F
100
AcDbEntity
  8
1
100
AcDbCircle
 10
107.474987170019
 20
0.0000281810143861
 30
0.0
 40
3.000001999999998
100
AcDbArc
 50
270.0000499999985
 51
89.99997300000119
  0
ARC
  5
58084
330
1F
100
AcDbEntity
  8
1
100
AcDbCircle
 10
107.474995170019
 20
0.0000281810143861
 30
0.0
 40
3.000001999999998
100
AcDbArc
 50
90.000044999998
 51
269.9999619999988
  0
ARC
  5
58085
330
1F
100
AcDbEntity
  8
1
100
AcDbCircle
 10
107.324993170019
 20
0.0000281810143861
 30
0.0
 40
4.300003
100
AcDbArc
 50
89.99992200000127
 51
179.9999470000005
  0
ARC
  5
58086
330
1F
100
AcDbEntity
  8
1
100
AcDbCircle
 10
107.324993170019
 20
0.0000281810143861
 30
0.0
 40
4.300003
100
AcDbArc
 50
0.0000499999985184
 51
89.99993600000136
  0
ARC
  5
58087
330
1F
100
AcDbEntity
  8
1
100
AcDbCircle
 10
107.324993170019
 20
0.0000591810144215
 30
0.0
 40
4.300003
100
AcDbArc
 50
269.9999960000009
 51
359.9999499999983
  0
ARC
  5
58088
330
1F
100
AcDbEntity
  8
1
100
AcDbCircle
 10
107.324993170019
 20
0.0000591810144215
 30
0.0
 40
4.300003
100
AcDbArc
 50
180.0000529999995
 51
270.0000089999996
  0
ARC
  5
58089
330
1F
100
AcDbEntity
  8
1
100
AcDbCircle
 10
107.474987170019
 20
0.0000281810143861
 30
0.0
 40
4.500003999999997
100
AcDbArc
 50
270.0000430000017
 51
90.00000100000141
  0
LINE
  5
5808A
330
1F
100
AcDbEntity
  8
1
100
AcDbLine
 10
93.47499317001917
 20
9.300043681014358
 30
0.0
 11
2.200025325075728
 21
11.66512645611425
 31
0.0
  0
LINE
  5
5808B
330
1F
100
AcDbEntity
  8
1
100
AcDbLine
 10
93.47498717001906
 20
-9.299956318985664
 30
0.0
 11
2.200025325075728
 21
-11.66512559403239
 31
0.0
  0
LINE
  5
5808C
330
1F
100
AcDbEntity
  8
1
100
AcDbLine
 10
102.474987170019
 20
8.841764181014411
 30
0.0
 11
102.474987170019
 21
8.268674181014375
 31
0.0
  0
LINE
  5
5808D
330
1F
100
AcDbEntity
  8
1
100
AcDbLine
 10
102.474987170019
 20
8.150785181014384
 30
0.0
 11
102.474987170019
 21
8.268674181014375
 31
0.0
  0
LINE
  5
5808E
330
1F
100
AcDbEntity
  8
1
100
AcDbLine
 10
107.474987170019
 20
4.040067181014421
 30
0.0
 11
107.474987170019
 21
4.050047181014406
 31
0.0
  0
LINE
  5
5808F
330
1F
100
AcDbEntity
  8
1
100
AcDbLine
 10
102.474987170019
 20
9.07476618101441
 30
0.0
 11
102.474990170019
 21
8.841766181014406
 31
0.0
  0
LINE
  5
58090
330
1F
100
AcDbEntity
  8
1
100
AcDbLine
 10
99.78401617001907
 20
8.764152181014367
 30
0.0
 11
99.24943717001907
 21
8.977544181014422
 31
0.0
  0
LINE
  5
58091
330
1F
100
AcDbEntity
  8
1
100
AcDbLine
 10
102.474987170019
 20
-8.734163818985678
 30
0.0
 11
102.474987170019
 21
-8.977449818985633
 31
0.0
  0
LINE
  5
58092
330
1F
100
AcDbEntity
  8
1
100
AcDbLine
 10
102.474987170019
 20
-8.734132818985585
 30
0.0
 11
107.474987170019
 21
-8.734132818985585
 31
0.0
  0
LINE
  5
58093
330
1F
100
AcDbEntity
  8
1
100
AcDbLine
 10
98.58083817001897
 20
9.07476618101441
 30
0.0
 11
102.474987170019
 21
9.07476618101441
 31
0.0
  0
LINE
  5
58094
330
1F
100
AcDbEntity
  8
1
100
AcDbLine
 10
102.474987170019
 20
9.084989181014407
 30
0.0
 11
102.474987170019
 21
9.07476618101441
 31
0.0
  0
LINE
  5
58095
330
1F
100
AcDbEntity
  8
1
100
AcDbLine
 10
97.47498717001906
 20
9.084989181014407
 30
0.0
 11
102.474987170019
 21
9.084989181014407
 31
0.0
  0
LINE
  5
58096
330
1F
100
AcDbEntity
  8
1
100
AcDbLine
 10
97.47498717001906
 20
-9.084901818985599
 30
0.0
 11
102.474987170019
 21
-9.084901818985599
 31
0.0
  0
LINE
  5
58097
330
1F
100
AcDbEntity
  8
1
100
AcDbLine
 10
102.474987170019
 20
-8.977449818985633
 30
0.0
 11
102.474987170019
 21
-9.084901818985599
 31
0.0
  0
LINE
  5
58098
330
1F
100
AcDbEntity
  8
1
100
AcDbLine
 10
98.97498717001907
 20
-8.977449818985633
 30
0.0
 11
102.474987170019
 21
-8.977449818985633
 31
0.0
  0
LINE
  5
58099
330
1F
100
AcDbEntity
  8
1
100
AcDbLine
 10
98.97498717001907
 20
-8.764070818985601
 30
0.0
 11
98.97498717001907
 21
-8.977449818985633
 31
0.0
  0
LINE
  5
5809A
330
1F
100
AcDbEntity
  8
1
100
AcDbLine
 10
98.97498717001907
 20
-8.764070818985601
 30
0.0
 11
102.474987170019
 21
-8.764070818985601
 31
0.0
  0
LINE
  5
5809B
330
1F
100
AcDbEntity
  8
1
100
AcDbLine
 10
107.324993170019
 20
-4.499971818985613
 30
0.0
 11
107.474987170019
 21
-4.499971818985613
 31
0.0
  0
LINE
  5
5809C
330
1F
100
AcDbEntity
  8
1
100
AcDbLine
 10
107.324993170019
 20
4.500028181014386
 30
0.0
 11
107.474987170019
 21
4.500028181014386
 31
0.0
  0
LINE
  5
5809D
330
1F
100
AcDbEntity
  8
1
100
AcDbLine
 10
98.97498717001907
 20
8.764158181014408
 30
0.0
 11
100.225750170019
 21
8.764158181014408
 31
0.0
  0
LINE
  5
5809E
330
1F
100
AcDbEntity
  8
1
100
AcDbLine
 10
98.97498717001907
 20
8.977537181014383
 30
0.0
 11
98.97498717001907
 21
8.764158181014408
 31
0.0
  0
LINE
  5
5809F
330
1F
100
AcDbEntity
  8
1
100
AcDbLine
 10
98.97498717001907
 20
8.977537181014383
 30
0.0
 11
99.24943217001908
 21
8.977537181014383
 31
0.0
  0
LINE
  5
580A0
330
1F
100
AcDbEntity
  8
1
100
AcDbLine
 10
110.234173170019
 20
-8.294662818985614
 30
0.0
 11
110.2462231700189
 21
-8.290714818985634
 31
0.0
  0
LINE
  5
580A1
330
1F
100
AcDbEntity
  8
1
100
AcDbLine
 10
93.47498717001906
 20
-9.299956318985664
 30
0.0
 11
97.47499517001905
 21
-9.084885818985583
 31
0.0
  0
LINE
  5
580A2
330
1F
100
AcDbEntity
  8
1
100
AcDbLine
 10
97.474972170019
 20
-9.084901818985599
 30
0.0
 11
97.474972170019
 21
9.084989181014407
 31
0.0
  0
LINE
  5
580A3
330
1F
100
AcDbEntity
  8
1
100
AcDbLine
 10
93.47499317001917
 20
9.300043681014358
 30
0.0
 11
97.47499117001906
 21
9.084968181014403
 31
0.0
  0
LINE
  5
580A4
330
1F
100
AcDbEntity
  8
1
100
AcDbLine
 10
93.47498717001906
 20
-9.299956318985664
 30
0.0
 11
93.47498717001906
 21
0.0000591810144215
 31
0.0
  0
LINE
  5
580A5
330
1F
100
AcDbEntity
  8
1
100
AcDbLine
 10
93.47497217001899
 20
0.0000591810144215
 30
0.0
 11
93.47499317001917
 21
9.300043681014358
 31
0.0
  0
LINE
  5
580A6
330
1F
100
AcDbEntity
  8
4
100
AcDbLine
 10
-0.0000038300071878
 20
0.0000281810143861
 30
0.0
 11
125.4071115259401
 21
0.0000281810143861
 31
0.0
  0
SPLINE
  5
580A7
330
1F
100
AcDbEntity
  8
1
100
AcDbSpline
210
0.0
220
0.0
230
1.0
 70
     8
 71
     3
 72
    22
 73
    18
 74
    16
 42
0.0000000001
 43
0.0000000001
 44
0.000001
 12
0.9501051262673982
 22
0.3119298784028415
 32
0.0
 13
0.066472848683105
 23
0.9977882342400882
 33
0.0
 40
0.0
 40
0.0
 40
0.0
 40
0.0
 40
0.1773883036972347
 40
0.9247315811401918
 40
1.674737135758166
 40
2.424753210038109
 40
3.172089162723423
 40
3.919102669921
 40
4.668823485007918
 40
5.418529775974288
 40
6.165540522230608
 40
6.911025661569656
 40
7.659262747671424
 40
8.40742257352177
 40
9.152829466007998
 40
9.788506281139198
 40
10.42416385496055
 40
10.42416385496055
 40
10.42416385496055
 40
10.42416385496055
 10
110.246223062353
 20
-8.290743283829328
 30
0.0
 10
110.3024022412472
 20
-8.27229904649522
 30
0.0
 10
110.5942892922474
 20
-8.173190803024425
 30
0.0
 10
111.113332349732
 20
-7.965617447268016
 30
0.0
 10
111.7838437795379
 20
-7.629683036895528
 30
0.0
 10
112.4241439347195
 20
-7.239165627004126
 30
0.0
 10
113.0286723892373
 20
-6.796904102831575
 30
0.0
 10
113.5926872892478
 20
-6.304161210711811
 30
0.0
 10
114.1138489152896
 20
-5.765262468583671
 30
0.0
 10
114.5883526199459
 20
-5.184858668616698
 30
0.0
 10
115.0115873247662
 20
-4.567726087713481
 30
0.0
 10
115.3796004372287
 20
-3.916716924359548
 30
0.0
 10
115.6915143681755
 20
-3.236664067395025
 30
0.0
 10
115.9451894831961
 20
-2.532829032635874
 30
0.0
 10
116.1279851609612
 20
-1.846064266336924
 30
0.0
 10
116.2476118181055
 20
-1.183952314191941
 30
0.0
 10
116.2915675744813
 20
-0.7619871600404906
 30
0.0
 10
116.3056522310542
 20
-0.5505699439856358
 30
0.0
 11
110.246223062353
 21
-8.290743283829328
 31
0.0
 11
110.4141918123531
 21
-8.233705930313703
 31
0.0
 11
111.1081920564936
 21
-7.956423215470067
 31
0.0
 11
111.7788005770014
 21
-7.620577268204385
 31
0.0
 11
112.4190631807612
 21
-7.229952268204385
 31
0.0
 11
113.0220256746577
 21
-6.788423947891885
 31
0.0
 11
113.5847965181635
 21
-6.297182492813703
 31
0.0
 11
114.1060672701167
 21
-5.758333615860635
 31
0.0
 11
114.5804859102534
 21
-5.177828244766885
 31
0.0
 11
115.0027080477046
 21
-4.56158678968876
 31
0.0
 11
115.3698078096674
 21
-3.912752561173135
 31
0.0
 11
115.6818080843256
 21
-3.23266833265751
 31
0.0
 11
115.9352680147456
 21
-2.52874987562626
 31
0.0
 11
116.1267314852046
 21
-1.80835192640751
 31
0.0
 11
116.2397495210932
 21
-1.182802610001203
 31
0.0
 11
116.3056522310542
 21
-0.5505699439856358
 31
0.0
  0
SPLINE
  5
580A8
330
1F
100
AcDbEntity
  8
1
100
AcDbSpline
210
0.0
220
0.0
230
1.0
 70
     8
 71
     3
 72
    11
 73
     7
 74
     5
 42
0.0000000001
 43
0.0000000001
 44
0.000001
 12
0.9999996031474408
 22
0.0008909012070156
 32
0.0
 13
0.9508619751644026
 23
0.3096150903726288
 33
0.0
 40
0.0
 40
0.0
 40
0.0
 40
0.0
 40
0.7473258919349649
 40
1.497316848433575
 40
2.247307942682613
 40
2.80469420544263
 40
2.80469420544263
 40
2.80469420544263
 40
2.80469420544263
 10
107.4750019014643
 20
-8.734163693985635
 30
0.0
 10
107.7241104332499
 20
-8.733941762805926
 30
0.0
 10
108.2234640667531
 20
-8.712673310130554
 30
0.0
 10
108.9673304431869
 20
-8.617488143290358
 30
0.0
 10
109.6388430682274
 20
-8.474291529799444
 30
0.0
 10
110.0575104474757
 20
-8.352205117446487
 30
0.0
 10
110.2341762483881
 20
-8.29468005140751
 30
0.0
 11
107.4750019014643
 21
-8.734163693985635
 31
0.0
 11
108.2216449678706
 21
-8.70221178968876
 31
0.0
 11
108.9656024874018
 21
-8.607271604141885
 31
0.0
 11
109.6990581453608
 21
-8.450655393204385
 31
0.0
 11
110.2341762483881
 21
-8.29468005140751
 31
0.0
  0
LINE
  5
580A9
330
1F
100
AcDbEntity
  8
1
100
AcDbLine
 10
102.475002170019
 20
-8.734163818985678
 30
0.0
 11
107.475002170019
 21
-8.734163818985678
 31
0.0
  0
DIMENSION
  5
580AA
330
1F
100
AcDbEntity
  8
2
100
AcDbDimension
  2
*D124
 10
93.47499317001917
 20
36.13581350145887
 30
0.0
 11
73.67499317001916
 21
40.18581350145886
 31
0.0
 70
    32
 71
     5
 42
23.99999999999989
  3
\M+18352\M+18373\M+1815B - ISO-25
100
AcDbAlignedDimension
 13
117.474993170019
 23
7.008189773048115
 33
0.0
 14
93.47499317001917
 24
8.002895525810572
 34
0.0
 50
180.0
100
AcDbRotatedDimension
1001
ACAD
1000
DSTYLE
1002
{
1070
     4
1000
"
1070
    40
1040
1.0
1070
   143
1040
0.03937
1070
   170
1070
     1
1070
   171
1070
     3
1070
   271
1070
     8
1070
   285
1070
     4
1002
}
  0
DIMENSION
  5
580AB
330
1F
100
AcDbEntity
  8
2
100
AcDbDimension
  2
*D125
 10
76.19268785980529
 20
9.300043681014363
 30
0.0
 11
76.19268785980529
 21
-34.34995631898568
 31
0.0
 70
   160
  1
%%c<>
 71
     5
 42
18.60000000000002
  3
\M+18352\M+18373\M+1815B - ISO-25
100
AcDbAlignedDimension
 13
93.47498717001906
 23
-9.299956318985664
 33
0.0
 14
93.47499317001917
 24
9.300043681014358
 34
0.0
 50
270.0
100
AcDbRotatedDimension
1001
ACAD
1000
DSTYLE
1002
{
1070
     4
1000
%%C[]"
1070
    40
1040
1.0
1070
   143
1040
0.03937
1070
   170
1070
     1
1070
   171
1070
     3
1070
   271
1070
     8
1070
   285
1070
     4
1002
}
  0
DIMENSION
  5
580AC
330
1F
100
AcDbEntity
  8
sk2
100
AcDbDimension
  2
*D126
 10
-119.6402168300005
 20
12.70000043104097
 30
0.0
 11
-119.6402168300005
 21
-38.62499956895906
 31
0.0
 70
   160
  1
%%C<>
 71
     5
 41
0.892857
 42
25.40000000000001
  3
\M+18352\M+18373\M+1815B - ISO-25
100
AcDbAlignedDimension
 13
-97.22499483000063
 23
-12.69999956895904
 33
0.0
 14
-97.22499483000063
 24
12.70000043104096
 34
0.0
 50
270.0
100
AcDbRotatedDimension
1001
ACAD
1000
DSTYLE
1002
{
1070
     4
1000
%%C[]"
1070
    40
1040
1.0
1070
   143
1040
0.03937
1070
   170
1070
     1
1070
   171
1070
     3
1070
   271
1070
     8
1070
   285
1070
     4
1002
}
  0
ARC
  5
580AD
330
1F
100
AcDbEntity
  8
1
100
AcDbCircle
 10
2.278556169999319
 20
14.66409843104094
 30
0.0
 40
3.0
100
AcDbArc
 50
224.9999900000017
 51
268.5000000000006
  0
ARC
  5
580AE
330
1F
100
AcDbEntity
  8
1
100
AcDbCircle
 10
2.278556169999319
 20
-14.66409756895905
 30
0.0
 40
3.0
100
AcDbArc
 50
91.49999999999947
 51
135.0000099999983
  0
LINE
  5
580AF
330
1F
100
AcDbEntity
  8
1
100
AcDbLine
 10
-0.0000068300005864
 20
12.70001243104093
 30
0.0
 11
0.1572351699993533
 21
12.54277843104091
 31
0.0
  0
LINE
  5
580B0
330
1F
100
AcDbEntity
  8
sk4
100
AcDbLine
 10
-105.0913588300005
 20
0.0000004310409452
 30
0.0
 11
-0.0000038300006509
 21
0.0000004310409452
 31
0.0
  0
LINE
  5
580B1
330
1F
100
AcDbEntity
  8
sk1
100
AcDbLine
 10
-97.22499483000063
 20
12.70000043104096
 30
0.0
 11
-0.0000068300006433
 21
12.70000043104096
 31
0.0
  0
LINE
  5
580B2
330
1F
100
AcDbEntity
  8
sk1
100
AcDbLine
 10
-97.22499483000063
 20
-12.69999956895904
 30
0.0
 11
-0.0000038300006509
 21
-12.69999956895904
 31
0.0
  0
LINE
  5
580B3
330
1F
100
AcDbEntity
  8
1
100
AcDbLine
 10
-0.0000068300005864
 20
12.70001243104093
 30
0.0
 11
-0.0000038300006509
 21
0.0000004310409452
 31
0.0
  0
LINE
  5
580B4
330
1F
100
AcDbEntity
  8
1
100
AcDbLine
 10
0.000004169999329
 20
-12.70000956895907
 30
0.0
 11
0.1572351699993533
 21
-12.54277756895908
 31
0.0
  0
LINE
  5
580B5
330
1F
100
AcDbEntity
  8
sk1
100
AcDbLine
 10
-97.22499483000063
 20
12.70000043104096
 30
0.0
 11
-98.4250048300006
 21
11.49999943104092
 31
0.0
  0
LINE
  5
580B6
330
1F
100
AcDbEntity
  8
sk1
100
AcDbLine
 10
-98.42500683000066
 20
11.50000043104097
 30
0.0
 11
-98.42500683000066
 21
0.0000004310409452
 31
0.0
  0
LINE
  5
580B7
330
1F
100
AcDbEntity
  8
sk1
100
AcDbLine
 10
-98.42500683000066
 20
0.0000004310409452
 30
0.0
 11
-98.42500683000066
 21
-11.49999956895905
 31
0.0
  0
LINE
  5
580B8
330
1F
100
AcDbEntity
  8
1
100
AcDbLine
 10
-0.0000038300006509
 20
0.0000004310409452
 30
0.0
 11
-0.0000068300006433
 21
-12.69999956895904
 31
0.0
  0
LINE
  5
580B9
330
1F
100
AcDbEntity
  8
sk1
100
AcDbLine
 10
-97.22499483000063
 20
-12.69999956895904
 30
0.0
 11
-98.42500183000067
 21
-11.50000756895906
 31
0.0
  0
LINE
  5
580BA
330
1F
100
AcDbEntity
  8
sk1
100
AcDbLine
 10
-97.22499483000063
 20
0.0000004310409452
 30
0.0
 11
-97.22499483000063
 21
12.70000043104096
 31
0.0
  0
LINE
  5
580BB
330
1F
100
AcDbEntity
  8
sk1
100
AcDbLine
 10
-97.22499483000063
 20
0.0000004310409452
 30
0.0
 11
-97.22499483000063
 21
-12.69999956895904
 31
0.0
  0
LINE
  5
580BC
330
1F
100
AcDbEntity
  8
1
100
AcDbLine
 10
2.184993169999358
 20
-11.66555692974287
 30
0.0
 11
2.184993169999358
 21
11.66555779182476
 31
0.0
  0
LINE
  5
580BD
330
1F
100
AcDbEntity
  8
nocut
100
AcDbLine
 10
93.47500000000009
 20
9.300015500000029
 30
0.0
 11
2.200029155076379
 21
11.66512602507339
 31
0.0
  0
LINE
  5
580BE
330
1F
100
AcDbEntity
  8
nocut
100
AcDbLine
 10
93.47500000000009
 20
9.300015500000029
 30
0.0
 11
97.47499800000003
 21
9.084940000000017
 31
0.0
  0
LINE
  5
580BF
330
1F
100
AcDbEntity
  8
nocut
100
AcDbLine
 10
0.0
 20
12.70001200000007
 30
0.0
 11
0.0
 21
0.0000000000000284
 31
0.0
  0
LINE
  5
580C0
330
1F
100
AcDbEntity
  8
nocut
100
AcDbLine
 10
0.0
 20
0.0
 30
0.0
 11
116.5619550000005
 21
0.0000000000000853
 31
0.0
  0
LINE
  5
580C1
330
1F
100
AcDbEntity
  8
nocut
100
AcDbLine
 10
97.47499399999993
 20
9.084961000000078
 30
0.0
 11
107.4769939999999
 21
9.084961000000078
 31
0.0
1001
ACAD
1000
RTMaterial
1005
0
  0
ARC
  5
580C2
330
1F
100
AcDbEntity
  8
nocut
100
AcDbCircle
 10
107.4769939999999
 20
-0.0000000000004832
 30
0.0
 40
9.084961000000561
100
AcDbArc
 50
0.0000000000032569
 51
90.0
  0
ARC
  5
580C3
330
1F
100
AcDbEntity
  8
nocut
100
AcDbCircle
 10
2.27855999999997
 20
14.66409800000002
 30
0.0
 40
3.0
100
AcDbArc
 50
224.9999899999971
 51
268.4999999999973
  0
LINE
  5
580C4
330
1F
100
AcDbEntity
  8
nocut
100
AcDbLine
 10
-0.0000029999999924
 20
12.70001199999996
 30
0.0
 11
0.1572389999998904
 21
12.542778
 31
0.0
  0
DIMENSION
  5
580C7
330
1F
100
AcDbEntity
  8
2
100
AcDbDimension
  2
*D127
 10
137.474972169996
 20
-9.999971818985622
 30
0.0
 11
133.424972169996
 21
-33.00830515231893
 31
0.0
 70
    32
  1
%%c<>
 71
     5
 42
19.99999999889999
  3
\M+18352\M+18373\M+1815B - ISO-25
100
AcDbAlignedDimension
 13
115.474972169996
 23
10.00002817991438
 33
0.0
 14
107.474972169996
 24
-9.999971818985613
 34
0.0
 50
270.0
100
AcDbRotatedDimension
1001
ACAD
1000
DSTYLE
1002
{
1070
    76
1070
     1
1070
   344
1005
50E6F
1070
     4
1000
%%c[]"
1070
    40
1040
1.0
1070
    75
1070
     0
1070
   143
1040
0.03937
1070
   170
1070
     1
1070
   171
1070
     3
1070
   173
1070
     1
1070
   271
1070
     8
1070
   285
1070
     4
1070
   343
1005
0
1002
}
  0
SPLINE
  5
580C8
330
1F
100
AcDbEntity
  8
1
100
AcDbSpline
210
0.0
220
0.0
230
1.0
 70
     8
 71
     3
 72
    14
 73
    10
 74
     8
 42
0.0000000001
 43
0.0000000001
 44
0.000001
 12
0.0506334837042103
 22
-0.9987173025075591
 32
0.0
 13
0.0557805924395193
 23
-0.9984430507079991
 33
0.0
 40
0.0
 40
0.0
 40
0.0
 40
0.0
 40
0.0573501914590793
 40
0.1102663095490891
 40
0.1623615261918185
 40
0.2140997768049177
 40
0.2658390888234648
 40
0.3182982801899726
 40
0.3722868905523342
 40
0.3722868905523342
 40
0.3722868905523342
 40
0.3722868905523342
 10
117.3477356796824
 20
-4.747326914486166
 30
0.0
 10
117.348703626344
 20
-4.76641912399026
 30
0.0
 10
117.3505804024904
 20
-4.803126618277673
 30
0.0
 10
117.3533803291864
 20
-4.857174655298649
 30
0.0
 10
117.356123954314
 20
-4.909352439760738
 30
0.0
 10
117.3588891714045
 20
-4.961136260745291
 30
0.0
 10
117.3617021306242
 20
-5.013039013403499
 30
0.0
 10
117.3645941054809
 20
-5.065688688181268
 30
0.0
 10
117.3665601520921
 20
-5.101116781608283
 30
0.0
 10
117.3675639909824
 20
-5.119084965886173
 30
0.0
 11
117.3477356796824
 21
-4.747326914486166
 31
0.0
 11
117.3506615735823
 21
-4.804602423486187
 31
0.0
 11
117.3534003725823
 21
-4.857447617286197
 31
0.0
 11
117.3561362919823
 21
-4.909470942586153
 31
0.0
 11
117.3588950008824
 21
-4.961135593486176
 31
0.0
 11
117.3616943860823
 21
-5.012799119386158
 31
0.0
 11
117.3645699960824
 21
-5.065179437086129
 31
0.0
 11
117.3675639909824
 21
-5.119084965886173
 31
0.0
  0
SPLINE
  5
580C9
330
1F
100
AcDbEntity
  8
1
100
AcDbSpline
210
0.0
220
0.0
230
1.0
 70
     8
 71
     3
 72
    21
 73
    17
 74
    15
 42
0.0000000001
 43
0.0000000001
 44
0.000001
 12
0.0511078688581111
 22
-0.9986931389274595
 32
0.0
 13
0.0551810176571189
 23
-0.9984763669162756
 33
0.0
 40
0.0
 40
0.0
 40
0.0
 40
0.0
 40
0.0415683516766122
 40
0.0832511107815861
 40
0.1248411935694311
 40
0.1661822997767889
 40
0.207353604335947
 40
0.2488506702005786
 40
0.2906688272927175
 40
0.3313998396280523
 40
0.3713994895712619
 40
0.4141705428455465
 40
0.4610851038639585
 40
0.5130193503344542
 40
0.5708153131043439
 40
0.6353896487833051
 40
0.6353896487833051
 40
0.6353896487833051
 40
0.6353896487833051
 10
117.3675639909824
 20
-5.119084965886173
 30
0.0
 10
117.3682721476044
 20
-5.132922975091503
 30
0.0
 10
117.3696939634155
 20
-5.160636898229341
 30
0.0
 10
117.3718449468089
 20
-5.202195001936701
 30
0.0
 10
117.3740042902073
 20
-5.243676820622908
 30
0.0
 10
117.3761660116919
 20
-5.284987798260658
 30
0.0
 10
117.3783346372114
 20
-5.326267365516969
 30
0.0
 10
117.3805202075015
 20
-5.36770527799598
 30
0.0
 10
117.3827070985559
 20
-5.40899615177301
 30
0.0
 10
117.3848767633377
 20
-5.449788098659212
 30
0.0
 10
117.3870726609531
 20
-5.490896730240905
 30
0.0
 10
117.3893889357524
 20
-5.534063051926068
 30
0.0
 10
117.3919310835789
 20
-5.581201173922778
 30
0.0
 10
117.3947592885798
 20
-5.633339447503914
 30
0.0
 10
117.3979261167493
 20
-5.691354595810793
 30
0.0
 10
117.4001691972966
 20
-5.732082975991232
 30
0.0
 10
117.4013569564823
 20
-5.753574958686158
 30
0.0
 11
117.3675639909824
 21
-5.119084965886173
 31
0.0
 11
117.3696961446823
 21
-5.160598599586165
 31
0.0
 11
117.3718495975823
 21
-5.202225694386186
 31
0.0
 11
117.3740114923823
 21
-5.243759550186155
 31
0.0
 11
117.3761713918824
 21
-5.285044194786166
 31
0.0
 11
117.3783313559823
 21
-5.326158801186153
 31
0.0
 11
117.3805170768823
 21
-5.367598264086126
 31
0.0
 11
117.3827288487823
 21
-5.409357889486159
 31
0.0
 11
117.3848922681824
 21
-5.4500314062862
 31
0.0
 11
117.3870259380823
 21
-5.489974108186174
 31
0.0
 11
117.3893177591823
 21
-5.532683715286168
 31
0.0
 11
117.3918443006823
 21
-5.579530194386165
 31
0.0
 11
117.3946572434823
 21
-5.631388205186169
 31
0.0
 11
117.3978083829821
 21
-5.689098200886178
 31
0.0
 11
117.4013569564823
 21
-5.753574958686158
 31
0.0
  0
SPLINE
  5
580CA
330
1F
100
AcDbEntity
  8
1
100
AcDbSpline
210
0.0
220
0.0
230
1.0
 70
     8
 71
     3
 72
    14
 73
    10
 74
     8
 42
0.0000000001
 43
0.0000000001
 44
0.000001
 12
0.0505181688986341
 22
-0.998723142122545
 32
0.0
 13
0.0534636888484701
 23
-0.9985697942431034
 33
0.0
 40
0.0
 40
0.0
 40
0.0
 40
0.0
 40
0.0881924567879329
 40
0.178550738150115
 40
0.2704015820190334
 40
0.3631240271482043
 40
0.4553680577225921
 40
0.546802542673081
 40
0.6377289465635162
 40
0.6377289465635162
 40
0.6377289465635162
 40
0.6377289465635162
 10
117.4013569564823
 20
-5.753574958686158
 30
0.0
 10
117.4028420636249
 20
-5.782934907871066
 30
0.0
 10
117.4058731525039
 20
-5.842374592839092
 30
0.0
 10
117.4105268798918
 20
-5.932388242897218
 30
0.0
 10
117.4153406780475
 20
-6.023905599656501
 30
0.0
 10
117.4202739722481
 20
-6.11604607591019
 30
0.0
 10
117.4252440261566
 20
-6.208045579679634
 30
0.0
 10
117.4301926797506
 20
-6.29944668678587
 30
0.0
 10
117.4334492586605
 20
-6.360146355911467
 30
0.0
 10
117.4350696789823
 20
-6.390411809386193
 30
0.0
 11
117.4013569564823
 21
-5.753574958686158
 31
0.0
 11
117.4058455960824
 21
-5.841653118586151
 31
0.0
 11
117.4105135758824
 21
-5.931890743586222
 31
0.0
 11
117.4153386980823
 21
-6.023614763186174
 31
0.0
 11
117.4202889293823
 21
-6.116204973986185
 31
0.0
 11
117.4252594223823
 21
-6.208314992386164
 31
0.0
 11
117.4301933597823
 21
-6.299616262686186
 31
0.0
 11
117.4350696789823
 21
-6.390411809386193
 31
0.0
  0
SPLINE
  5
580CB
330
1F
100
AcDbEntity
  8
1
100
AcDbSpline
210
0.0
220
0.0
230
1.0
 70
     8
 71
     3
 72
    16
 73
    12
 74
    10
 42
0.0000000001
 43
0.0000000001
 44
0.000001
 12
0.0482150813204129
 22
-0.9988369766549826
 32
0.0
 13
0.0465816941588105
 23
-0.9989144837118416
 33
0.0
 40
0.0
 40
0.0
 40
0.0
 40
0.0
 40
0.0934047751872732
 40
0.1846952751433144
 40
0.270969547143512
 40
0.3494597662359872
 40
0.4195708436449767
 40
0.4824303558567052
 40
0.5390649160255938
 40
0.5903807594740386
 40
0.6373488984060765
 40
0.6373488984060765
 40
0.6373488984060765
 40
0.6373488984060765
 10
117.4350696789823
 20
-6.390411809386193
 30
0.0
 10
117.4365708519261
 20
-6.421510523803931
 30
0.0
 10
117.4395856080056
 20
-6.483001762901722
 30
0.0
 10
117.4440722314052
 20
-6.573213487643386
 30
0.0
 10
117.448548698571
 20
-6.658447833016367
 30
0.0
 10
117.4529524587282
 20
-6.736616013565708
 30
0.0
 10
117.4572250912
 20
-6.80697342276062
 30
0.0
 10
117.4610865787097
 20
-6.870057055252203
 30
0.0
 10
117.4644394162795
 20
-6.92689496900104
 30
0.0
 10
117.467276495269
 20
-6.978456720001759
 30
0.0
 10
117.4688811699212
 20
-7.011178923668808
 30
0.0
 10
117.4696104550822
 20
-7.026817975086203
 30
0.0
 11
117.4350696789823
 21
-6.390411809386193
 31
0.0
 11
117.4396302117824
 21
-6.483705187786199
 31
0.0
 11
117.4441976940824
 21
-6.574881355186221
 31
0.0
 11
117.4487410160823
 21
-6.66103591568617
 31
0.0
 11
117.4531689256823
 21
-6.739401138286211
 31
0.0
 11
117.4573765506824
 21
-6.809385843186163
 31
0.0
 11
117.4611879903824
 21
-6.872129694886211
 31
0.0
 11
117.4645037261823
 21
-6.928667106686162
 31
0.0
 11
117.4673018946823
 21
-6.97990659828622
 31
0.0
 11
117.4696104550822
 21
-7.026817975086203
 31
0.0
  0
SPLINE
  5
580CC
330
1F
100
AcDbEntity
  8
1
100
AcDbSpline
210
0.0
220
0.0
230
1.0
 70
     8
 71
     3
 72
    32
 73
    28
 74
    26
 42
0.0000000001
 43
0.0000000001
 44
0.000001
 12
0.0416878758996551
 22
-0.9991306826451557
 32
0.0
 13
0.0019987911344949
 23
-0.9999980024150051
 33
0.0
 40
0.0
 40
0.0
 40
0.0
 40
0.0
 40
0.0253133319661682
 40
0.0509427929948145
 40
0.0764004652371324
 40
0.1012401766811069
 40
0.1250533978001619
 40
0.1475424225628598
 40
0.1687766574405523
 40
0.1893683020126136
 40
0.2098316069471283
 40
0.2303177311687326
 40
0.2508257447397931
 40
0.2711925831334399
 40
0.2913544538676647
 40
0.3114780897314772
 40
0.3316522802766579
 40
0.3518362433463217
 40
0.3723443680462191
 40
0.3939907504043459
 40
0.4175913240086527
 40
0.4437149185543369
 40
0.4726668127186144
 40
0.5047461785271612
 40
0.5402520825516736
 40
0.5794833583851297
 40
0.6227389047413725
 40
0.6227389047413725
 40
0.6227389047413725
 40
0.6227389047413725
 10
117.4696104550822
 20
-7.026817975086203
 30
0.0
 10
117.4699622080961
 20
-7.035248417302
 30
0.0
 10
117.4706350834329
 20
-7.052216059439899
 30
0.0
 10
117.4715505159153
 20
-7.077666487303474
 30
0.0
 10
117.4723489813972
 20
-7.102962926735187
 30
0.0
 10
117.4730166548178
 20
-7.127657519039075
 30
0.0
 10
117.4735543755574
 20
-7.151365479065731
 30
0.0
 10
117.4739713094035
 20
-7.173873841202066
 30
0.0
 10
117.4742827907511
 20
-7.195309930655128
 30
0.0
 10
117.4745077507316
 20
-7.216071822639435
 30
0.0
 10
117.4746489096675
 20
-7.236585083377633
 30
0.0
 10
117.4747083602736
 20
-7.257070864068623
 30
0.0
 10
117.4746967114289
 20
-7.277524538693398
 30
0.0
 10
117.474661785386
 20
-7.297870081158407
 30
0.0
 10
117.4746488658076
 20
-7.318087530227643
 30
0.0
 10
117.4746519850089
 20
-7.338240762575139
 30
0.0
 10
117.4746573191165
 20
-7.358401358364858
 30
0.0
 10
117.4746594471979
 20
-7.378690117729888
 30
0.0
 10
117.4746628831036
 20
-7.399469607548013
 30
0.0
 10
117.4746711051367
 20
-7.421387966409128
 30
0.0
 10
117.4746846425706
 20
-7.445178146163016
 30
0.0
 10
117.4747033549176
 20
-7.47140349367936
 30
0.0
 10
117.4747288675049
 20
-7.50045510083197
 30
0.0
 10
117.4747640006115
 20
-7.532634136564297
 30
0.0
 10
117.474810845491
 20
-7.568239621369457
 30
0.0
 10
117.4748730717625
 20
-7.607570481179834
 30
0.0
 10
117.4749225645815
 20
-7.635066044536301
 30
0.0
 10
117.4749513841824
 20
-7.649484531186175
 30
0.0
 11
117.4696104550822
 21
-7.026817975086203
 31
0.0
 11
117.4706164802822
 21
-7.052111402086211
 31
0.0
 11
117.4715347259823
 21
-7.077724410086176
 31
0.0
 11
117.4723370581823
 21
-7.103169450986172
 31
0.0
 11
117.4730084998824
 21
-7.128000112086169
 31
0.0
 11
117.4735484125823
 21
-7.151807255686179
 31
0.0
 11
117.4739646383824
 21
-7.174292523486172
 31
0.0
 11
117.4742734151823
 21
-7.195524888786167
 31
0.0
 11
117.4744937412823
 21
-7.216115227586215
 31
0.0
 11
117.4746343123823
 21
-7.236577735286175
 31
0.0
 11
117.4746954981823
 21
-7.257063684286208
 31
0.0
 11
117.4746917528823
 21
-7.277571661786168
 31
0.0
 11
117.4746643460823
 21
-7.297938464986174
 31
0.0
 11
117.4746505287824
 21
-7.318100323086184
 31
0.0
 11
117.4746513511824
 21
-7.338223954686213
 31
0.0
 11
117.4746557822824
 21
-7.358398141886169
 31
0.0
 11
117.4746586383822
 21
-7.378582102486177
 31
0.0
 11
117.4746625186823
 21
-7.399090224986196
 31
0.0
 11
117.4746705307824
 21
-7.420736604386178
 31
0.0
 11
117.4746837040824
 21
-7.444337173086182
 31
0.0
 11
117.4747023628823
 21
-7.470460759886179
 31
0.0
 11
117.4747279304823
 21
-7.499412641786193
 31
0.0
 11
117.4747628902823
 21
-7.531491987686166
 31
0.0
 11
117.4748097103823
 21
-7.566997860086189
 31
0.0
 11
117.4748713051823
 21
-7.606229086886173
 31
0.0
 11
117.4749513841824
 21
-7.649484531186175
 31
0.0
  0
SPLINE
  5
580CD
330
1F
100
AcDbEntity
  8
1
100
AcDbSpline
210
0.0
220
0.0
230
1.0
 70
     8
 71
     3
 72
    20
 73
    16
 74
    14
 42
0.0000000001
 43
0.0000000001
 44
0.000001
 12
-0.0705500074041531
 22
-0.9975082438031648
 32
0.0
 13
-0.2048092514259854
 23
-0.9788019056634123
 33
0.0
 40
0.0
 40
0.0
 40
0.0
 40
0.0
 40
0.0212122497786451
 40
0.0424244089386453
 40
0.0636342518070118
 40
0.0848414159043881
 40
0.1060437011342844
 40
0.1272402104853254
 40
0.1484307849998278
 40
0.169614868970584
 40
0.1907933407181582
 40
0.2119669497222473
 40
0.2331364766532446
 40
0.2543034182839259
 40
0.2754685412008604
 40
0.2754685412008604
 40
0.2754685412008604
 40
0.2754685412008604
 10
117.4698335558823
 20
-7.839909894486197
 30
0.0
 10
117.4693347144226
 20
-7.846963025827477
 30
0.0
 10
117.4682633893538
 20
-7.8610641610409
 30
0.0
 10
117.4664358589438
 20
-7.882197071396547
 30
0.0
 10
117.4643880033367
 20
-7.903308090027223
 30
0.0
 10
117.462120802509
 20
-7.924393362135788
 30
0.0
 10
117.4596344807115
 20
-7.945449447844794
 30
0.0
 10
117.4569292759642
 20
-7.966472956970108
 30
0.0
 10
117.4540056637595
 20
-7.987461082187849
 30
0.0
 10
117.4508640106065
 20
-8.008411598205924
 30
0.0
 10
117.4475047793265
 20
-8.029322603387214
 30
0.0
 10
117.4439281228365
 20
-8.050192593279462
 30
0.0
 10
117.4401348710736
 20
-8.071020403334102
 30
0.0
 10
117.4361250723271
 20
-8.091804706219392
 30
0.0
 10
117.4333072902426
 20
-8.105631499637979
 30
0.0
 10
117.4318623525823
 20
-8.112536987186217
 30
0.0
 11
117.4698335558823
 21
-7.839909894486197
 31
0.0
 11
117.4682267317822
 21
-7.861061267086199
 31
0.0
 11
117.4663994526824
 21
-7.88219459578616
 31
0.0
 11
117.4643521174823
 21
-7.903305377486191
 31
0.0
 11
117.4620850091822
 21
-7.924390967486175
 31
0.0
 11
117.4595986476823
 21
-7.945446929086187
 31
0.0
 11
117.4568934754824
 21
-7.966470086486197
 31
0.0
 11
117.4539698694824
 21
-7.987457993986168
 31
0.0
 11
117.4508283158824
 21
-8.008407823186189
 31
0.0
 11
117.4474691442823
 21
-8.029318174886157
 31
0.0
 11
117.4438926757824
 21
-8.050187515486157
 31
0.0
 11
117.4400992138824
 21
-8.071014408786197
 31
0.0
 11
117.4360889895823
 21
-8.091798084786205
 31
0.0
 11
117.4318623525823
 21
-8.112536987186217
 31
0.0
  0
SPLINE
  5
580CE
330
1F
100
AcDbEntity
  8
1
100
AcDbSpline
210
0.0
220
0.0
230
1.0
 70
     8
 71
     3
 72
    16
 73
    12
 74
    10
 42
0.0000000001
 43
0.0000000001
 44
0.000001
 12
-0.9996962433583492
 22
0.0246459127484515
 32
0.0
 13
-0.9996000911015123
 23
0.0282782225369379
 33
0.0
 40
0.0
 40
0.0
 40
0.0
 40
0.0
 40
0.1637618602780669
 40
0.3277414180042656
 40
0.4919281962052537
 40
0.6563135297889687
 40
0.8208888962267828
 40
0.9856442955217458
 40
1.150570143171777
 40
1.31565619556667
 40
1.480892119941619
 40
1.480892119941619
 40
1.480892119941619
 40
1.480892119941619
 10
112.0216082658822
 20
-9.798359114486174
 30
0.0
 10
111.9670375603738
 20
-9.797013760979524
 30
0.0
 10
111.8578243559085
 20
-9.794290742961749
 30
0.0
 10
111.6939014221491
 20
-9.790116524431482
 30
0.0
 10
111.5297728693125
 20
-9.785853896748278
 30
0.0
 10
111.3654477710096
 20
-9.781510202622939
 30
0.0
 10
111.2009350126734
 20
-9.777093431024866
 30
0.0
 10
111.0362438828166
 20
-9.772607688582496
 30
0.0
 10
110.8713841802481
 20
-9.768059239655542
 30
0.0
 10
110.7063657549562
 20
-9.763456247742027
 30
0.0
 10
110.5963020778017
 20
-9.760356177366304
 30
0.0
 10
110.5412454627823
 20
-9.758798651286127
 30
0.0
 11
112.0216082658822
 21
-9.798359114486174
 31
0.0
 11
111.8578972252822
 21
-9.794279068586206
 31
0.0
 11
111.6939707749824
 21
-9.790105454186175
 31
0.0
 11
111.5298392797823
 21
-9.785843982586158
 31
0.0
 11
111.3655112465823
 21
-9.781501426486215
 31
0.0
 11
111.2009951746823
 21
-9.777084125886148
 31
0.0
 11
111.0363008926823
 21
-9.772598572986169
 31
0.0
 11
110.8714377883824
 21
-9.768051370186185
 31
0.0
 11
110.7064159181824
 21
-9.763449159586144
 31
0.0
 11
110.5412454627823
 21
-9.758798651286127
 31
0.0
  0
SPLINE
  5
580CF
330
1F
100
AcDbEntity
  8
1
100
AcDbSpline
210
0.0
220
0.0
230
1.0
 70
     8
 71
     3
 72
    17
 73
    13
 74
    11
 42
0.0000000001
 43
0.0000000001
 44
0.000001
 12
-0.9995492550243911
 22
0.0300214386761347
 32
0.0
 13
-0.9994721208135452
 23
0.0324881473228999
 33
0.0
 40
0.0
 40
0.0
 40
0.0
 40
0.0
 40
0.1392979215172725
 40
0.278751503744328
 40
0.4183555683841112
 40
0.5581042733331173
 40
0.6979920413608001
 40
0.8380131354085818
 40
0.9781617522585802
 40
1.118431689016459
 40
1.258816639445009
 40
1.399309822882252
 40
1.399309822882252
 40
1.399309822882252
 40
1.399309822882252
 10
110.5412454627823
 20
-9.758798651286127
 30
0.0
 10
110.4948337515559
 20
-9.757404676616602
 30
0.0
 10
110.4019589986127
 20
-9.754597397818258
 30
0.0
 10
110.2625722785396
 20
-9.750335572827538
 30
0.0
 10
110.1230367965319
 20
-9.746022676351714
 30
0.0
 10
109.9833579533608
 20
-9.741663522373244
 30
0.0
 10
109.8435413643802
 20
-9.737261874087806
 30
0.0
 10
109.7035926318857
 20
-9.732821412978722
 30
0.0
 10
109.5635175574211
 20
-9.72834602940793
 30
0.0
 10
109.4233221399698
 20
-9.723839303690169
 30
0.0
 10
109.283012649494
 20
-9.719306452756512
 30
0.0
 10
109.1894358612857
 20
-9.716269843399999
 30
0.0
 10
109.1426295212824
 20
-9.714748388986208
 30
0.0
 11
110.5412454627823
 21
-9.758798651286127
 31
0.0
 11
110.4020110686823
 21
-9.754591814886168
 31
0.0
 11
110.2626225974824
 21
-9.750330370086146
 31
0.0
 11
110.1230851239824
 21
-9.746018209086173
 31
0.0
 11
109.9834043947824
 21
-9.741659278086189
 31
0.0
 11
109.8435858923823
 21
-9.737257547686141
 31
0.0
 11
109.7036352349822
 21
-9.732817024686198
 31
0.0
 11
109.5635581097823
 21
-9.728341748586188
 31
0.0
 11
109.4233605883824
 21
-9.723835800886206
 31
0.0
 11
109.2830488396823
 21
-9.719303295286181
 31
0.0
 11
109.1426295212824
 21
-9.714748388986208
 31
0.0
  0
SPLINE
  5
580D0
330
1F
100
AcDbEntity
  8
1
100
AcDbSpline
210
0.0
220
0.0
230
1.0
 70
     8
 71
     3
 72
    51
 73
    47
 74
    45
 42
0.0000000001
 43
0.0000000001
 44
0.000001
 12
0.9920984437143754
 22
0.125461858664354
 32
0.0
 13
0.987794970035512
 23
0.1557597418222757
 33
0.0
 40
0.0
 40
0.0
 40
0.0
 40
0.0
 40
0.004337127192218
 40
0.0086255241854078
 40
0.0128669465092453
 40
0.0170639554851467
 40
0.0212194754740538
 40
0.0253357886206
 40
0.029415795111151
 40
0.0334621347430358
 40
0.0374768070110892
 40
0.0414625634164899
 40
0.0454216618659246
 40
0.049355659022059
 40
0.0532669861141934
 40
0.0571580295661141
 40
0.0610311150805936
 40
0.0648890999507279
 40
0.0687347230930659
 40
0.0725704720333575
 40
0.0763970939473931
 40
0.080215287310537
 40
0.0840273043508213
 40
0.0878365205488176
 40
0.0916441470024964
 40
0.0954476132978739
 40
0.0992434393881553
 40
0.103029255259995
 40
0.1068042835058475
 40
0.1105709737721804
 40
0.1143322493864121
 40
0.1180900649977797
 40
0.1218457238554438
 40
0.1256013156500279
 40
0.1293583643273531
 40
0.1331188821547491
 40
0.1368851145538547
 40
0.1406590656352508
 40
0.1444428255175654
 40
0.1482382465000518
 40
0.1520473725220171
 40
0.1558720674826952
 40
0.159714668588863
 40
0.1635772520372853
 40
0.1674619424898176
 40
0.1713703407097385
 40
0.1713703407097385
 40
0.1713703407097385
 40
0.1713703407097385
 10
115.6453426791823
 20
-9.78622898958622
 30
0.0
 10
115.6467769648949
 20
-9.786047608239954
 30
0.0
 10
115.6496292559478
 20
-9.785685574816426
 30
0.0
 10
115.6538836111081
 20
-9.785141667748632
 30
0.0
 10
115.658091157842
 20
-9.78459994671698
 30
0.0
 10
115.6622543059368
 20
-9.784060252377145
 30
0.0
 10
115.6663756380706
 20
-9.783522390981346
 30
0.0
 10
115.6704578476536
 20
-9.782986142512413
 30
0.0
 10
115.6745035328069
 20
-9.782451287980507
 30
0.0
 10
115.6785151970371
 20
-9.781917609913705
 30
0.0
 10
115.6824952936074
 20
-9.781384887476747
 30
0.0
 10
115.6864461485351
 20
-9.780852907290295
 30
0.0
 10
115.6903699405197
 20
-9.780321466770203
 30
0.0
 10
115.6942687415637
 20
-9.779790369807926
 30
0.0
 10
115.6981446652354
 20
-9.779259406964712
 30
0.0
 10
115.7020000781324
 20
-9.77872832613599
 30
0.0
 10
115.7058374865568
 20
-9.778196847761194
 30
0.0
 10
115.7096595121587
 20
-9.77766466785971
 30
0.0
 10
115.7134688289427
 20
-9.77713146659471
 30
0.0
 10
115.7172674133522
 20
-9.776597013992613
 30
0.0
 10
115.721056567654
 20
-9.776061169553344
 30
0.0
 10
115.7248375160271
 20
-9.775523800206997
 30
0.0
 10
115.7286123494706
 20
-9.77498464512945
 30
0.0
 10
115.7323833272638
 20
-9.774443412758046
 30
0.0
 10
115.7361511167527
 20
-9.773900034692104
 30
0.0
 10
115.7399141236334
 20
-9.77335476924324
 30
0.0
 10
115.743669573136
 20
-9.772808051746267
 30
0.0
 10
115.7474152829735
 20
-9.772260238222486
 30
0.0
 10
115.7511510272209
 20
-9.771711402350916
 30
0.0
 10
115.7548783254949
 20
-9.771161359743501
 30
0.0
 10
115.7585995975874
 20
-9.770609787546334
 30
0.0
 10
115.762316884438
 20
-9.770056412816359
 30
0.0
 10
115.766031951466
 20
-9.769500998699129
 30
0.0
 10
115.7697464214986
 20
-9.768943325235909
 30
0.0
 10
115.7734621504814
 20
-9.768383133108784
 30
0.0
 10
115.7771810450518
 20
-9.767820150789674
 30
0.0
 10
115.7809051694121
 20
-9.767254078043777
 30
0.0
 10
115.7846366127072
 20
-9.766684605879561
 30
0.0
 10
115.7883773338519
 20
-9.766111440403733
 30
0.0
 10
115.7921293042269
 20
-9.765534281317059
 30
0.0
 10
115.7958944200401
 20
-9.764952835509006
 30
0.0
 10
115.799674736602
 20
-9.764366780988865
 30
0.0
 10
115.8034723191684
 20
-9.763775789700503
 30
0.0
 10
115.8072893181959
 20
-9.763179515751176
 30
0.0
 10
115.8111276409073
 20
-9.762577646839986
 30
0.0
 10
115.8136937473814
 20
-9.762173760585397
 30
0.0
 10
115.8149806460823
 20
-9.761970836886177
 30
0.0
 11
115.6453426791823
 21
-9.78622898958622
 31
0.0
 11
115.6496452927823
 21
-9.78568288498613
 31
0.0
 11
115.6538990811824
 21
-9.785139061386161
 31
0.0
 11
115.6581058009823
 21
-9.784597455386148
 31
0.0
 11
115.6622680070824
 21
-9.784057889886184
 31
0.0
 11
115.6663886132822
 21
-9.783520128886152
 31
0.0
 11
115.6704698953823
 21
-9.782984007286188
 31
0.0
 11
115.6745147408824
 21
-9.782449268386187
 31
0.0
 11
115.6785257779823
 21
-9.781915678286168
 31
0.0
 11
115.6825049991823
 21
-9.781383077786188
 31
0.0
 11
115.6864551413823
 21
-9.780851198586219
 31
0.0
 11
115.6903784512823
 21
-9.780319828786218
 31
0.0
 11
115.6942764798824
 21
-9.779788842986164
 31
0.0
 11
115.6981516439824
 21
-9.779257990486144
 31
0.0
 11
115.7020063150824
 21
-9.778727018586153
 31
0.0
 11
115.7058428035824
 21
-9.778195674686145
 31
0.0
 11
115.7096639454823
 21
-9.777663625086177
 31
0.0
 11
115.7134724584823
 21
-9.777130543786199
 31
0.0
 11
115.7172708102823
 21
-9.776596131286169
 31
0.0
 11
115.7210597445823
 21
-9.776060325286152
 31
0.0
 11
115.7248399565823
 21
-9.775523067486176
 31
0.0
 11
115.7286136793824
 21
-9.774984077386136
 31
0.0
 11
115.7323842570823
 21
-9.774442908186188
 31
0.0
 11
115.7361528903824
 21
-9.7738994131862
 31
0.0
 11
115.7399170373824
 21
-9.773353986086164
 31
0.0
 11
115.7436732571823
 21
-9.772807158786179
 31
0.0
 11
115.7474192085823
 21
-9.772259311086202
 31
0.0
 11
115.7511541269823
 21
-9.771710596786192
 31
0.0
 11
115.7548804403824
 21
-9.771160698786161
 31
0.0
 11
115.7586010444823
 21
-9.770609224086172
 31
0.0
 11
115.7623178758823
 21
-9.770055915086174
 31
0.0
 11
115.7660322262824
 21
-9.7695006054862
 31
0.0
 11
115.7697461646824
 21
-9.768943008886196
 31
0.0
 11
115.7734611999823
 21
-9.768382918186205
 31
0.0
 11
115.7771793233823
 21
-9.767820049286171
 31
0.0
 11
115.7809027559823
 21
-9.76725407858612
 31
0.0
 11
115.7846334795823
 21
-9.766684713486199
 31
0.0
 11
115.7883735603822
 21
-9.766111643886148
 31
0.0
 11
115.7921248288824
 21
-9.765534591186195
 31
0.0
 11
115.7958893044823
 21
-9.764953243886168
 31
0.0
 11
115.7996688279824
 21
-9.76436731318617
 31
0.0
 11
115.8034657073823
 21
-9.763776433986208
 31
0.0
 11
115.8072819920823
 21
-9.763180276386179
 31
0.0
 11
115.8111197787824
 21
-9.762578498786183
 31
0.0
 11
115.8149806460823
 21
-9.761970836886177
 31
0.0
  0
SPLINE
  5
580D1
330
1F
100
AcDbEntity
  8
1
100
AcDbSpline
210
0.0
220
0.0
230
1.0
 70
     8
 71
     3
 72
    46
 73
    42
 74
    40
 42
0.0000000001
 43
0.0000000001
 44
0.000001
 12
0.9782223854983003
 22
0.2075595444926938
 32
0.0
 13
0.9732252220544843
 23
0.2298535776467269
 33
0.0
 40
0.0
 40
0.0
 40
0.0
 40
0.0
 40
0.0040736484003983
 40
0.0081108059046039
 40
0.0121134571729636
 40
0.0160846197031517
 40
0.0200272021203239
 40
0.023942465802834
 40
0.0278318939417982
 40
0.0316982854989825
 40
0.0355444703349093
 40
0.0393721880243188
 40
0.0431838581217865
 40
0.0469822452948487
 40
0.0507681400121131
 40
0.0545423578273261
 40
0.0583079057903255
 40
0.0620683586735521
 40
0.0658264700916981
 40
0.0695800952633173
 40
0.073326465019127
 40
0.077062822179447
 40
0.0807863067578735
 40
0.0844987187992246
 40
0.088203460518654
 40
0.0919041271414983
 40
0.0956013162920524
 40
0.0992948589234487
 40
0.1029851037894451
 40
0.1066749104892475
 40
0.1103669371564869
 40
0.1140641391027522
 40
0.1177678160976169
 40
0.1214798577511201
 40
0.1252020564035022
 40
0.1289365618103894
 40
0.1326852815623547
 40
0.1364501190322801
 40
0.1402329339066753
 40
0.1440354859918057
 40
0.147860232740483
 40
0.147860232740483
 40
0.147860232740483
 40
0.147860232740483
 10
115.8149806460823
 20
-9.761970836886177
 30
0.0
 10
115.8163089574342
 20
-9.761688995350709
 30
0.0
 10
115.8189534775969
 20
-9.761126875944512
 30
0.0
 10
115.8229024542064
 20
-9.760284516700892
 30
0.0
 10
115.826817429364
 20
-9.759446517679577
 30
0.0
 10
115.8307009984593
 20
-9.758612415302422
 30
0.0
 10
115.8345555194654
 20
-9.757781787889769
 30
0.0
 10
115.8383828489671
 20
-9.756954314312025
 30
0.0
 10
115.8421848066847
 20
-9.756129675353662
 30
0.0
 10
115.8459637220038
 20
-9.755307434555277
 30
0.0
 10
115.8497220063152
 20
-9.754487129920704
 30
0.0
 10
115.8534619460496
 20
-9.753668319581322
 30
0.0
 10
115.8571858051022
 20
-9.75285055996531
 30
0.0
 10
115.8608955370625
 20
-9.752033469088416
 30
0.0
 10
115.8645925723589
 20
-9.751216775074681
 30
0.0
 10
115.86827841958
 20
-9.750400185017326
 30
0.0
 10
115.8719554924352
 20
-9.749583200437598
 30
0.0
 10
115.8756268337794
 20
-9.748765175759132
 30
0.0
 10
115.8792938088925
 20
-9.747945832385084
 30
0.0
 10
115.8829557190012
 20
-9.747125351341992
 30
0.0
 10
115.886610073682
 20
-9.746304318842561
 30
0.0
 10
115.8902541512691
 20
-9.745483379218796
 30
0.0
 10
115.8938867171388
 20
-9.744662847221263
 30
0.0
 10
115.8975085396029
 20
-9.743842586146286
 30
0.0
 10
115.9011224846514
 20
-9.743021979760555
 30
0.0
 10
115.9047310259328
 20
-9.742200493842489
 30
0.0
 10
115.9083354753285
 20
-9.741377853657695
 30
0.0
 10
115.9119360893141
 20
-9.740554023453313
 30
0.0
 10
115.9155338591783
 20
-9.739728798345396
 30
0.0
 10
115.9191306940898
 20
-9.738901759746738
 30
0.0
 10
115.9227293488603
 20
-9.738072289398417
 30
0.0
 10
115.9263320703934
 20
-9.737239880300904
 30
0.0
 10
115.9299408549958
 20
-9.736404078716418
 30
0.0
 10
115.9335573204949
 20
-9.735564514769521
 30
0.0
 10
115.9371833599263
 20
-9.734720751095579
 30
0.0
 10
115.9408208713101
 20
-9.733872345257537
 30
0.0
 10
115.9444717878526
 20
-9.733018842704154
 30
0.0
 10
115.9481379477766
 20
-9.732159807315099
 30
0.0
 10
115.9518211405516
 20
-9.731294810811164
 30
0.0
 10
115.9555233346451
 20
-9.730423379334979
 30
0.0
 10
115.9579978405811
 20
-9.729839610294135
 30
0.0
 10
115.9592386205823
 20
-9.729546566386204
 30
0.0
 11
115.8149806460823
 21
-9.761970836886177
 31
0.0
 11
115.8189652777822
 21
-9.76112387748617
 31
0.0
 11
115.8229136171823
 21
-9.760281674286204
 31
0.0
 11
115.8268276225823
 21
-9.759443907986167
 31
0.0
 11
115.8307102606824
 21
-9.758610034686199
 31
0.0
 11
115.8345643898823
 21
-9.757779523686167
 31
0.0
 11
115.8383912569824
 21
-9.756952184286177
 31
0.0
 11
115.8421923246823
 21
-9.756127773886191
 31
0.0
 11
115.8459703403823
 21
-9.755305764786101
 31
0.0
 11
115.8497280800824
 21
-9.754485614686188
 31
0.0
 11
115.8534672531823
 21
-9.753667006786145
 31
0.0
 11
115.8571902322822
 21
-9.752849473486207
 31
0.0
 11
115.8608997255822
 21
-9.752032465886202
 31
0.0
 11
115.8645965122823
 21
-9.751215854686165
 31
0.0
 11
115.8682813955823
 21
-9.750399502486175
 31
0.0
 11
115.8719573175823
 21
-9.749582794186125
 31
0.0
 11
115.8756277728822
 21
-9.748764983486182
 31
0.0
 11
115.8792954529823
 21
-9.747945495186172
 31
0.0
 11
115.8829582683823
 21
-9.747124819786222
 31
0.0
 11
115.8866135215822
 21
-9.746303589686164
 31
0.0
 11
115.8902585282823
 21
-9.745482440986165
 31
0.0
 11
115.8938905052823
 21
-9.74466203818622
 31
0.0
 11
115.8975112154823
 21
-9.743842021286184
 31
0.0
 11
115.9011239831824
 21
-9.74302167078622
 31
0.0
 11
115.9047323191823
 21
-9.742200216586184
 31
0.0
 11
115.9083368102823
 21
-9.741377548486184
 31
0.0
 11
115.9119372957824
 21
-9.740553726386167
 31
0.0
 11
115.9155341196823
 21
-9.739728694186169
 31
0.0
 11
115.9191300727824
 21
-9.738901832086128
 31
0.0
 11
115.9227277481824
 21
-9.738072559286194
 31
0.0
 11
115.9263300273823
 21
-9.737240222886157
 31
0.0
 11
115.9299381777823
 21
-9.736404537886187
 31
0.0
 11
115.9335540407822
 21
-9.735565083286189
 31
0.0
 11
115.9371793623824
 21
-9.734721457086152
 31
0.0
 11
115.9408162358824
 21
-9.733873172586157
 31
0.0
 11
115.9444665178823
 21
-9.733019794186191
 31
0.0
 11
115.9481320601823
 21
-9.732160884086141
 31
0.0
 11
115.9518146712822
 21
-9.73129601098617
 31
0.0
 11
115.9555160617823
 21
-9.730424763386167
 31
0.0
 11
115.9592386205823
 21
-9.729546566386204
 31
0.0
  0
SPLINE
  5
580D2
330
1F
100
AcDbEntity
  8
1
100
AcDbSpline
210
0.0
220
0.0
230
1.0
 70
     8
 71
     3
 72
    46
 73
    42
 74
    40
 42
0.0000000001
 43
0.0000000001
 44
0.000001
 12
0.9591977425440447
 22
0.2827360795837851
 32
0.0
 13
0.9529761039563
 23
0.3030454508621958
 33
0.0
 40
0.0
 40
0.0
 40
0.0
 40
0.0
 40
0.0041072006853248
 40
0.0081750302865209
 40
0.0122062631024186
 40
0.0162040920298497
 40
0.02017068124724
 40
0.0241078454937832
 40
0.0280184278304326
 40
0.0319051096953416
 40
0.0357690238194864
 40
0.0396116054819521
 40
0.0434351980772328
 40
0.0472423129121194
 40
0.051035264787309
 40
0.0548178075191629
 40
0.0585934984243584
 40
0.0623647590154941
 40
0.0661302983793563
 40
0.0698882907658125
 40
0.073637387314646
 40
0.0773762121794086
 40
0.0811019609982561
 40
0.0848151604236656
 40
0.0885181878864265
 40
0.092213657682486
 40
0.0959027949874089
 40
0.0995878229635337
 40
0.103271223896727
 40
0.1069559283332574
 40
0.1106433715671148
 40
0.1143340717794518
 40
0.1180294151852758
 40
0.1217323982619888
 40
0.1254444915589264
 40
0.1291672756406931
 40
0.1329041677492129
 40
0.1366568597330667
 40
0.1404264361692431
 40
0.1442140856872704
 40
0.1480229930160565
 40
0.1480229930160565
 40
0.1480229930160565
 40
0.1480229930160565
 10
115.9592386205823
 20
-9.729546566386204
 30
0.0
 10
115.9605518264576
 20
-9.729159481779589
 30
0.0
 10
115.9631653905807
 20
-9.728388142737145
 30
0.0
 10
115.967066975597
 20
-9.727233846958597
 30
0.0
 10
115.9709328511661
 20
-9.726087361709801
 30
0.0
 10
115.9747656388322
 20
-9.724947999807113
 30
0.0
 10
115.9785676513495
 20
-9.723815157287447
 30
0.0
 10
115.9823410878043
 20
-9.722688256706931
 30
0.0
 10
115.9860883105915
 20
-9.721566664549641
 30
0.0
 10
115.989811462366
 20
-9.720449805644364
 30
0.0
 10
115.9935122347175
 20
-9.719337234044985
 30
0.0
 10
115.9971922100585
 20
-9.718228531754562
 30
0.0
 10
116.0008534094107
 20
-9.717123143373356
 30
0.0
 10
116.0044981328128
 20
-9.716020423086661
 30
0.0
 10
116.0081291285197
 20
-9.714919582834255
 30
0.0
 10
116.0117494763996
 20
-9.713819726414271
 30
0.0
 10
116.0153622881163
 20
-9.712719939750172
 30
0.0
 10
116.0189690648158
 20
-9.711619792326075
 30
0.0
 10
116.0225695907803
 20
-9.710519375136243
 30
0.0
 10
116.0261624489375
 20
-9.709419148203153
 30
0.0
 10
116.0297461960968
 20
-9.708319582825026
 30
0.0
 10
116.0333190781714
 20
-9.707221248975798
 30
0.0
 10
116.0368799397054
 20
-9.706124536231698
 30
0.0
 10
116.0404288214047
 20
-9.705029467378352
 30
0.0
 10
116.0439674893211
 20
-9.703935530621578
 30
0.0
 10
116.0474979306476
 20
-9.702842141019345
 30
0.0
 10
116.0510220821937
 20
-9.701748724649064
 30
0.0
 10
116.0545418375551
 20
-9.700654716690053
 30
0.0
 10
116.0580596318333
 20
-9.699559379212502
 30
0.0
 10
116.0615776478881
 20
-9.698462047481996
 30
0.0
 10
116.0650974423561
 20
-9.697362247735554
 30
0.0
 10
116.0686200797672
 20
-9.696259657254813
 30
0.0
 10
116.0721471206165
 20
-9.695153795681079
 30
0.0
 10
116.0756804272765
 20
-9.694044084319557
 30
0.0
 10
116.0792219227927
 20
-9.692929921420244
 30
0.0
 10
116.0827736629438
 20
-9.691810659752917
 30
0.0
 10
116.0863377726263
 20
-9.690685625967375
 30
0.0
 10
116.0899162178434
 20
-9.689554192570682
 30
0.0
 10
116.093510255392
 20
-9.688415953172864
 30
0.0
 10
116.0971216157437
 20
-9.687270348886443
 30
0.0
 10
116.0995349079268
 20
-9.686503546832369
 30
0.0
 10
116.1007448404823
 20
-9.68611878948613
 30
0.0
 11
115.9592386205823
 21
-9.729546566386204
 31
0.0
 11
115.9631778530823
 21
-9.728384000186167
 31
0.0
 11
115.9670785635823
 21
-9.727229991586199
 31
0.0
 11
115.9709434360824
 21
-9.726083842086126
 31
0.0
 11
115.9747755534823
 21
-9.72494472528615
 31
0.0
 11
115.9785770103823
 21
-9.723812099786158
 31
0.0
 11
115.9823495648824
 21
-9.722685517986178
 31
0.0
 11
115.9860959585822
 21
-9.721564231386139
 31
0.0
 11
115.9898187762822
 21
-9.720447530786202
 31
0.0
 11
115.9935191176823
 21
-9.719335145886191
 31
0.0
 11
115.9971983713823
 21
-9.718226716086178
 31
0.0
 11
116.0008587941823
 21
-9.717121614086181
 31
0.0
 11
116.0045028020822
 21
-9.716019158586163
 31
0.0
 11
116.0081326211824
 21
-9.714918718886167
 31
0.0
 11
116.0117518528822
 21
-9.713819240486202
 31
0.0
 11
116.0153639080823
 21
-9.712719717586196
 31
0.0
 11
116.0189711090823
 21
-9.711619468286187
 31
0.0
 11
116.0225722266823
 21
-9.710518891686206
 31
0.0
 11
116.0261655210823
 21
-9.709418545886194
 31
0.0
 11
116.0297497096822
 21
-9.708318853086268
 31
0.0
 11
116.0333234848823
 21
-9.707220245786174
 31
0.0
 11
116.0368841748824
 21
-9.706123580086199
 31
0.0
 11
116.0404322922824
 21
-9.705028734486148
 31
0.0
 11
116.0439701173824
 21
-9.703935038986145
 31
0.0
 11
116.0475001552823
 21
-9.702841748586138
 31
0.0
 11
116.0510235828823
 21
-9.701748524986186
 31
0.0
 11
116.0545425292823
 21
-9.700654730886157
 31
0.0
 11
116.0580593696824
 21
-9.69955964758617
 31
0.0
 11
116.0615769057823
 21
-9.698462418186153
 31
0.0
 11
116.0650965105823
 21
-9.697362626786173
 31
0.0
 11
116.0686186811823
 21
-9.696260129186129
 31
0.0
 11
116.0721447426823
 21
-9.695154520486198
 31
0.0
 11
116.0756775555823
 21
-9.694044910386196
 31
0.0
 11
116.0792185232823
 21
-9.692930861586177
 31
0.0
 11
116.0827691533824
 21
-9.6918119012862
 31
0.0
 11
116.0863327040823
 21
-9.690687000886214
 31
0.0
 11
116.0899107867823
 21
-9.689555646486155
 31
0.0
 11
116.0935044331824
 21
-9.688417504986176
 31
0.0
 11
116.0971147736824
 21
-9.687272210186165
 31
0.0
 11
116.1007448404823
 21
-9.68611878948613
 31
0.0
  0
SPLINE
  5
580D3
330
1F
100
AcDbEntity
  8
1
100
AcDbSpline
210
0.0
220
0.0
230
1.0
 70
     8
 71
     3
 72
    46
 73
    42
 74
    40
 42
0.0000000001
 43
0.0000000001
 44
0.000001
 12
0.934654589246212
 22
0.3555570260886354
 32
0.0
 13
0.9270502599381027
 23
0.3749370821200486
 33
0.0
 40
0.0
 40
0.0
 40
0.0
 40
0.0
 40
0.0041489707828624
 40
0.0082565603931789
 40
0.0123250116902178
 40
0.0163580731550204
 40
0.0203579126050656
 40
0.0243260303253977
 40
0.0282643136393785
 40
0.0321762600407963
 40
0.0360641228160973
 40
0.0399300050653113
 40
0.0437770990339963
 40
0.0476067487896223
 40
0.0514199296420906
 40
0.0552194179635506
 40
0.0590082029416575
 40
0.0627890717001582
 40
0.0665617949562703
 40
0.0703261004419877
 40
0.0740815003526494
 40
0.0778261335241505
 40
0.081558030306536
 40
0.0852767775455631
 40
0.0889843882534463
 40
0.0926825609917724
 40
0.0963738986539912
 40
0.1000595777609762
 40
0.1037414501407085
 40
0.1074215742909802
 40
0.1111020975761075
 40
0.11478498873717
 40
0.1184721199178577
 40
0.1221653977690307
 40
0.125866410926024
 40
0.1295774299286456
 40
0.1333003117464787
 40
0.1370373136132909
 40
0.14078950981983
 40
0.1445591218300182
 40
0.1483484900644252
 40
0.1483484900644252
 40
0.1483484900644252
 40
0.1483484900644252
 10
116.1007448404823
 20
-9.68611878948613
 30
0.0
 10
116.1020374586766
 20
-9.685627057581825
 30
0.0
 10
116.1046094828647
 20
-9.684647657245534
 30
0.0
 10
116.1084479354773
 20
-9.68318317148919
 30
0.0
 10
116.1122493657817
 20
-9.681730038873752
 30
0.0
 10
116.1160163434966
 20
-9.680287369502195
 30
0.0
 10
116.1197512043788
 20
-9.678854354264046
 30
0.0
 10
116.1234557026988
 20
-9.677430400084688
 30
0.0
 10
116.1271320044387
 20
-9.676014749377316
 30
0.0
 10
116.1307825074083
 20
-9.674606547850004
 30
0.0
 10
116.1344096740195
 20
-9.673204908604645
 30
0.0
 10
116.1380158694703
 20
-9.671808975244346
 30
0.0
 10
116.1416031740797
 20
-9.670417994795002
 30
0.0
 10
116.1451733157511
 20
-9.669031345086864
 30
0.0
 10
116.1487278917044
 20
-9.667648450210009
 30
0.0
 10
116.1522690085823
 20
-9.666268531079026
 30
0.0
 10
116.1557993336078
 20
-9.664890583694301
 30
0.0
 10
116.159320598548
 20
-9.663513962733219
 30
0.0
 10
116.1628335214651
 20
-9.662138415594256
 30
0.0
 10
116.1663378037025
 20
-9.660764087032333
 30
0.0
 10
116.1698326405293
 20
-9.659391321162758
 30
0.0
 10
116.1733167013876
 20
-9.658020670894018
 30
0.0
 10
116.1767886800115
 20
-9.656652682809493
 30
0.0
 10
116.180248472347
 20
-9.655287431813718
 30
0.0
 10
116.1836971113383
 20
-9.653924542904206
 30
0.0
 10
116.187136563694
 20
-9.652563268387382
 30
0.0
 10
116.1905685352843
 20
-9.651202959112822
 30
0.0
 10
116.1939947780685
 20
-9.649842943479598
 30
0.0
 10
116.1974168740433
 20
-9.648482613490102
 30
0.0
 10
116.2008367045779
 20
-9.647121238137458
 30
0.0
 10
116.2042561857648
 20
-9.645758068219038
 30
0.0
 10
116.2076771745383
 20
-9.644392373829191
 30
0.0
 10
116.2111014519315
 20
-9.643023451317333
 30
0.0
 10
116.2145306800239
 20
-9.641650640764368
 30
0.0
 10
116.2179666429331
 20
-9.640273229756985
 30
0.0
 10
116.2214111080944
 20
-9.638890508753746
 30
0.0
 10
116.2248660484101
 20
-9.63750168179456
 30
0.0
 10
116.2283330654496
 20
-9.63610609826884
 30
0.0
 10
116.2318138723383
 20
-9.634703059321452
 30
0.0
 10
116.235310206711
 20
-9.633291852776352
 30
0.0
 10
116.2376462786134
 20
-9.632347683542519
 30
0.0
 10
116.2388172568822
 20
-9.631874091986219
 30
0.0
 11
116.1007448404823
 21
-9.68611878948613
 31
0.0
 11
116.1046222196823
 21
-9.684642340286188
 31
0.0
 11
116.1084599882823
 21
-9.683178147986126
 31
0.0
 11
116.1122602720824
 21
-9.681725498686176
 31
0.0
 11
116.1160266002823
 21
-9.68028313258614
 31
0.0
 11
116.1197610228823
 21
-9.678850346686203
 31
0.0
 11
116.1234649648823
 21
-9.677426672086198
 31
0.0
 11
116.1271402108823
 21
-9.676011496286179
 31
0.0
 11
116.1307900457824
 21
-9.674603621786218
 31
0.0
 11
116.1344165908823
 21
-9.673202291386161
 31
0.0
 11
116.1380218254822
 21
-9.671806796786199
 31
0.0
 11
116.1416087422823
 21
-9.670416030286219
 31
0.0
 11
116.1451786087823
 21
-9.669029546886179
 31
0.0
 11
116.1487323475822
 21
-9.66764703188619
 31
0.0
 11
116.1522725584824
 21
-9.666267513986213
 31
0.0
 11
116.1558020371823
 21
-9.664889938286137
 31
0.0
 11
116.1593233888824
 21
-9.66351331738619
 31
0.0
 11
116.1628364080824
 21
-9.662137758586169
 31
0.0
 11
116.1663408494823
 21
-9.660763385286202
 31
0.0
 11
116.1698362673823
 21
-9.659390400086181
 31
0.0
 11
116.1733209386824
 21
-9.658019509786129
 31
0.0
 11
116.1767930406823
 21
-9.656651464186211
 31
0.0
 11
116.1802521999824
 21
-9.655286445286179
 31
0.0
 11
116.1837002994823
 21
-9.653923743086181
 31
0.0
 11
116.1871389284823
 21
-9.652562760086141
 31
0.0
 11
116.1905705153823
 21
-9.651202561386185
 31
0.0
 11
116.1939961612823
 21
-9.649842734286153
 31
0.0
 11
116.1974175937823
 21
-9.648482613886187
 31
0.0
 11
116.2008367312824
 21
-9.647121455686203
 31
0.0
 11
116.2042555731824
 21
-9.645758478286211
 31
0.0
 11
116.2076759515823
 21
-9.644392962886115
 31
0.0
 11
116.2110996075823
 21
-9.643024223186188
 31
0.0
 11
116.2145283130824
 21
-9.641651556886188
 31
0.0
 11
116.2179635435823
 21
-9.640274376886196
 31
0.0
 11
116.2214074062823
 21
-9.638891839186129
 31
0.0
 11
116.2248616233823
 21
-9.637503250786124
 31
0.0
 11
116.2283282870824
 21
-9.636107765886208
 31
0.0
 11
116.2318083911824
 21
-9.634704977786185
 31
0.0
 11
116.2353039924822
 21
-9.633294048386176
 31
0.0
 11
116.2388172568822
 21
-9.631874091986219
 31
0.0
  0
SPLINE
  5
580D4
330
1F
100
AcDbEntity
  8
1
100
AcDbSpline
210
0.0
220
0.0
230
1.0
 70
     8
 71
     3
 72
    46
 73
    42
 74
    40
 42
0.0000000001
 43
0.0000000001
 44
0.000001
 12
0.9048663183377422
 22
0.4256958373509188
 32
0.0
 13
0.8954624942028466
 23
0.4451369693431638
 33
0.0
 40
0.0
 40
0.0
 40
0.0
 40
0.0
 40
0.0041898318147985
 40
0.0083356622691775
 40
0.0124407086068523
 40
0.0165080840728316
 40
0.0205393342853316
 40
0.0245362547388145
 40
0.0285016149438541
 40
0.0324382540901617
 40
0.0363487309727849
 40
0.0402357613822865
 40
0.0441017546842465
 40
0.0479498487080815
 40
0.0517823015241722
 40
0.0556009111708921
 40
0.0594082428771084
 40
0.0632062342246502
 40
0.066994092501444
 40
0.0707708004453524
 40
0.0745356841702907
 40
0.0782867511412631
 40
0.0820211458585211
 40
0.0857403735664686
 40
0.0894485139436913
 40
0.0931487961937373
 40
0.0968419744212341
 40
0.1005285228851405
 40
0.1042099377597689
 40
0.1078889159230324
 40
0.1115665657129943
 40
0.1152435094231895
 40
0.1189212070487303
 40
0.122602605100466
 40
0.1262903366172111
 40
0.1299872301998854
 40
0.1336957407495542
 40
0.1374184733912704
 40
0.1411564978285367
 40
0.1449103717262422
 40
0.1486816431750512
 40
0.1486816431750512
 40
0.1486816431750512
 40
0.1486816431750512
 10
116.2388172568822
 20
-9.631874091986219
 30
0.0
 10
116.2400810027785
 20
-9.631279560665291
 30
0.0
 10
116.2425948299713
 20
-9.630095906570915
 30
0.0
 10
116.2463454736404
 20
-9.628326873561746
 30
0.0
 10
116.2500580632162
 20
-9.626572847472232
 30
0.0
 10
116.2537350087108
 20
-9.624832787541805
 30
0.0
 10
116.2573782886562
 20
-9.623105848808876
 30
0.0
 10
116.2609897754479
 20
-9.62139122966036
 30
0.0
 10
116.2645717282588
 20
-9.619687937533626
 30
0.0
 10
116.2681266329392
 20
-9.617994863862548
 30
0.0
 10
116.2716569560489
 20
-9.616310901023155
 30
0.0
 10
116.2751650318439
 20
-9.614634996629632
 30
0.0
 10
116.2786533658592
 20
-9.612966008906767
 30
0.0
 10
116.2821243230687
 20
-9.611302855657754
 30
0.0
 10
116.2855800819517
 20
-9.609644536920939
 30
0.0
 10
116.2890226465455
 20
-9.607990130272241
 30
0.0
 10
116.2924539223614
 20
-9.60633875479516
 30
0.0
 10
116.2958750347973
 20
-9.604689899915911
 30
0.0
 10
116.2992860327016
 20
-9.603043571762754
 30
0.0
 10
116.3026861813108
 20
-9.60140015546861
 30
0.0
 10
116.3060743866095
 20
-9.599760211851616
 30
0.0
 10
116.3094490043173
 20
-9.598124571225724
 30
0.0
 10
116.3128090454231
 20
-9.596493750351555
 30
0.0
 10
116.3161553422052
 20
-9.594867382848349
 30
0.0
 10
116.3194905492731
 20
-9.593244211812987
 30
0.0
 10
116.3228170931926
 20
-9.591623083848134
 30
0.0
 10
116.3261363180887
 20
-9.590003367682982
 30
0.0
 10
116.3294490478613
 20
-9.588384683140134
 30
0.0
 10
116.332756687232
 20
-9.586766363589276
 30
0.0
 10
116.3360608291754
 20
-9.585147646183884
 30
0.0
 10
116.3393628035076
 20
-9.583527892985017
 30
0.0
 10
116.3426635687917
 20
-9.581906645357889
 30
0.0
 10
116.3459646324785
 20
-9.580283172311283
 30
0.0
 10
116.3492681017146
 20
-9.578656443472567
 30
0.0
 10
116.3525764906529
 20
-9.577025222307895
 30
0.0
 10
116.3558921640638
 20
-9.575388339860296
 30
0.0
 10
116.3592174760754
 20
-9.573744626629974
 30
0.0
 10
116.3625542530855
 20
-9.572093168608461
 30
0.0
 10
116.3659037531282
 20
-9.570433329133607
 30
0.0
 10
116.3692669175246
 20
-9.568764626019685
 30
0.0
 10
116.3715133572031
 20
-9.567648611433952
 30
0.0
 10
116.3726390345823
 20
-9.567089033986178
 30
0.0
 11
116.2388172568822
 21
-9.631874091986219
 31
0.0
 11
116.2426079092823
 21
-9.630089251386124
 31
0.0
 11
116.2463575986822
 21
-9.62832070168622
 31
0.0
 11
116.2500692725823
 21
-9.626567155486213
 31
0.0
 11
116.2537457803823
 21
-9.624827360786184
 31
0.0
 11
116.2573885515822
 21
-9.623100729586212
 31
0.0
 11
116.2609992392823
 21
-9.621386561886168
 31
0.0
 11
116.2645803739823
 21
-9.619683734386171
 31
0.0
 11
116.2681345458824
 21
-9.61799108678619
 31
0.0
 11
116.2716640889823
 21
-9.616307572686196
 31
0.0
 11
116.2751714761823
 21
-9.614632071986136
 31
0.0
 11
116.2786589010824
 21
-9.612963590586218
 31
0.0
 11
116.2821292115824
 21
-9.611300813886202
 31
0.0
 11
116.2855844592824
 21
-9.60964280118614
 31
0.0
 11
116.2890262789823
 21
-9.607988806386174
 31
0.0
 11
116.2924569947823
 21
-9.606337746386202
 31
0.0
 11
116.2958783629823
 21
-9.604688805486148
 31
0.0
 11
116.2992896794823
 21
-9.60304235148618
 31
0.0
 11
116.3026900387823
 21
-9.601398851386164
 31
0.0
 11
116.3060788454824
 21
-9.599758624586144
 31
0.0
 11
116.3094543184824
 21
-9.598122567386212
 31
0.0
 11
116.3128139021823
 21
-9.596491956586191
 31
0.0
 11
116.3161589652824
 21
-9.59486616728617
 31
0.0
 11
116.3194931895824
 21
-9.593243444286144
 31
0.0
 11
116.3228194884823
 21
-9.59162239688618
 31
0.0
 11
116.3261385484824
 21
-9.590002714586148
 31
0.0
 11
116.3294508039823
 21
-9.588384208286157
 31
0.0
 11
116.3327576066823
 21
-9.586766238386189
 31
0.0
 11
116.3360613852822
 21
-9.585147634386146
 31
0.0
 11
116.3393631398824
 21
-9.583527920386131
 31
0.0
 11
116.3426634335824
 21
-9.581906833186167
 31
0.0
 11
116.3459635806823
 21
-9.580283738786135
 31
0.0
 11
116.3492662274824
 21
-9.578657343186137
 31
0.0
 11
116.3525737367823
 21
-9.577026486186127
 31
0.0
 11
116.3558886444823
 21
-9.5753899163862
 31
0.0
 11
116.3592131491823
 21
-9.573746543286176
 31
0.0
 11
116.3625495820823
 21
-9.572095205586208
 31
0.0
 11
116.3658988966823
 21
-9.570435419786178
 31
0.0
 11
116.3692615872824
 21
-9.568766928886134
 31
0.0
 11
116.3726390345823
 21
-9.567089033986178
 31
0.0
  0
SPLINE
  5
580D5
330
1F
100
AcDbEntity
  8
1
100
AcDbSpline
210
0.0
220
0.0
230
1.0
 70
     8
 71
     3
 72
    47
 73
    43
 74
    41
 42
0.0000000001
 43
0.0000000001
 44
0.000001
 12
0.8701112419890822
 22
0.4928553809833235
 32
0.0
 13
0.858239587974398
 23
0.5132492665689215
 33
0.0
 40
0.0
 40
0.0
 40
0.0
 40
0.0
 40
0.0041278870644202
 40
0.0082110238743292
 40
0.0122524453580523
 40
0.0162547744086632
 40
0.0202204634869017
 40
0.0241521666702747
 40
0.0280518479829256
 40
0.0319222996937459
 40
0.0357655159383521
 40
0.0395837898671175
 40
0.0433794750146706
 40
0.0471539450763085
 40
0.0509096937319622
 40
0.0546487205145136
 40
0.0583736698610611
 40
0.0620867826256538
 40
0.0657903318620902
 40
0.0694833712088747
 40
0.0731640206796587
 40
0.0768304914915752
 40
0.0804831195609853
 40
0.0841222439032153
 40
0.0877474221351077
 40
0.0913597961744858
 40
0.0949613023578309
 40
0.0985530355968504
 40
0.1021368027996385
 40
0.1057151347606281
 40
0.1092900443261215
 40
0.1128636441847341
 40
0.1164374256000659
 40
0.1200133943547181
 40
0.1235930616648807
 40
0.1271784470450014
 40
0.1307710261824696
 40
0.1343728210198647
 40
0.1379855608129867
 40
0.1416113498166677
 40
0.1452516777035249
 40
0.1489080280146537
 40
0.1489080280146537
 40
0.1489080280146537
 40
0.1489080280146537
 10
116.3726390345823
 20
-9.567089033986178
 30
0.0
 10
116.3738362748958
 20
-9.566410883535581
 30
0.0
 10
116.3762173123213
 20
-9.56506111513346
 30
0.0
 10
116.3797689081024
 20
-9.563044573932728
 30
0.0
 10
116.3832827637776
 20
-9.561046330716919
 30
0.0
 10
116.3867612715312
 20
-9.559065126957989
 30
0.0
 10
116.3902067093205
 20
-9.557099759776974
 30
0.0
 10
116.3936211606294
 20
-9.555149128409539
 30
0.0
 10
116.3970068038649
 20
-9.553212069694808
 30
0.0
 10
116.400365623116
 20
-9.551287523620516
 30
0.0
 10
116.4036996944562
 20
-9.549374369862846
 30
0.0
 10
116.4070109640239
 20
-9.5474715553446
 30
0.0
 10
116.4103011957137
 20
-9.545578124787908
 30
0.0
 10
116.4135722087234
 20
-9.54369308487395
 30
0.0
 10
116.4168257174002
 20
-9.541815496549048
 30
0.0
 10
116.4200638002426
 20
-9.53994420421526
 30
0.0
 10
116.4232884598474
 20
-9.538078089270015
 30
0.0
 10
116.4265017748193
 20
-9.536215982337466
 30
0.0
 10
116.4297047856381
 20
-9.534357309762583
 30
0.0
 10
116.4328973438171
 20
-9.532502185702043
 30
0.0
 10
116.436078131144
 20
-9.530651406095785
 30
0.0
 10
116.4392462005578
 20
-9.528805554798282
 30
0.0
 10
116.4424012450002
 20
-9.526964844770986
 30
0.0
 10
116.4455433450836
 20
-9.525129262775863
 30
0.0
 10
116.4486728131979
 20
-9.523298659631308
 30
0.0
 10
116.451790420694
 20
-9.521472616177646
 30
0.0
 10
116.4548973796812
 20
-9.51965045179628
 30
0.0
 10
116.4579950917356
 20
-9.517831370703163
 30
0.0
 10
116.461085127417
 20
-9.516014473509017
 30
0.0
 10
116.4641693187798
 20
-9.514198701831986
 30
0.0
 10
116.4672495832354
 20
-9.512382941330088
 30
0.0
 10
116.4703275373272
 20
-9.510566249587071
 30
0.0
 10
116.4734047934902
 20
-9.508747681834819
 30
0.0
 10
116.476482789557
 20
-9.506926391908677
 30
0.0
 10
116.4795631129702
 20
-9.505101440698467
 30
0.0
 10
116.4826471971718
 20
-9.503271975813447
 30
0.0
 10
116.4857366200996
 20
-9.501437054770576
 30
0.0
 10
116.4888328745175
 20
-9.499595781149565
 30
0.0
 10
116.4919376312372
 20
-9.4977471480328
 30
0.0
 10
116.4950524065126
 20
-9.495890235732275
 30
0.0
 10
116.4981786442589
 20
-9.494024163232609
 30
0.0
 10
116.5002664199875
 20
-9.492776398491372
 30
0.0
 10
116.5013124281823
 20
-9.492150858786203
 30
0.0
 11
116.3726390345823
 21
-9.567089033986178
 31
0.0
 11
116.3762300616823
 21
-9.565053356386243
 31
0.0
 11
116.3797807918823
 21
-9.563037335586159
 31
0.0
 11
116.3832939082823
 21
-9.561039554786191
 31
0.0
 11
116.3867717316824
 21
-9.559058793286141
 31
0.0
 11
116.3902164308823
 21
-9.557093907586192
 31
0.0
 11
116.3936303464824
 21
-9.555143648186174
 31
0.0
 11
116.3970152162823
 21
-9.553207101286147
 31
0.0
 11
116.4003734940823
 21
-9.551282936486188
 31
0.0
 11
116.4037069376824
 21
-9.549370213886163
 31
0.0
 11
116.4070175614823
 21
-9.54746783978615
 31
0.0
 11
116.4103074292824
 21
-9.545574685086194
 31
0.0
 11
116.4135777528821
 21
-9.543690104486159
 31
0.0
 11
116.4168307124823
 21
-9.541812889886159
 31
0.0
 11
116.4200680570824
 21
-9.539942074486191
 31
0.0
 11
116.4232920916823
 21
-9.538076364586174
 31
0.0
 11
116.4265047688824
 21
-9.536214663186171
 31
0.0
 11
116.4297080663823
 21
-9.534355852286182
 31
0.0
 11
116.4329011760823
 21
-9.532500427486183
 31
0.0
 11
116.4360824842822
 21
-9.53064935618616
 31
0.0
 11
116.4392504581823
 21
-9.52880356338619
 31
0.0
 11
116.4424054019823
 21
-9.52696290638616
 31
0.0
 11
116.4455476221823
 21
-9.525127240186179
 31
0.0
 11
116.4486767504824
 21
-9.523296813686215
 31
0.0
 11
116.4517937858824
 21
-9.521471075386216
 31
0.0
 11
116.4549004112823
 21
-9.519649069486206
 31
0.0
 11
116.4579975817823
 21
-9.517830262386155
 31
0.0
 11
116.4610868649823
 21
-9.51601375738619
 31
0.0
 11
116.4641704501823
 21
-9.51419828688617
 31
0.0
 11
116.4672500776823
 21
-9.512382841486214
 31
0.0
 11
116.4703275715823
 21
-9.510566357286165
 31
0.0
 11
116.4734042186823
 21
-9.50874808258618
 31
0.0
 11
116.4764817470824
 21
-9.506927001086125
 31
0.0
 11
116.4795614572823
 21
-9.505102344986198
 31
0.0
 11
116.4826450853824
 21
-9.503273084486181
 31
0.0
 11
116.4857338977823
 21
-9.501438463886159
 31
0.0
 11
116.4888296286823
 21
-9.4995974453862
 31
0.0
 11
116.4919337588823
 21
-9.497749137686184
 31
0.0
 11
116.4950480892822
 21
-9.495892454086174
 31
0.0
 11
116.4981738909823
 21
-9.494026619386147
 31
0.0
 11
116.5013124281823
 21
-9.492150858786203
 31
0.0
  0
SPLINE
  5
580D6
330
1F
100
AcDbEntity
  8
1
100
AcDbSpline
210
0.0
220
0.0
230
1.0
 70
     8
 71
     3
 72
    21
 73
    17
 74
    15
 42
0.0000000001
 43
0.0000000001
 44
0.000001
 12
0.0529856683051067
 22
-0.9985952728479448
 32
0.0
 13
0.0561841219915477
 23
-0.9984204246889378
 33
0.0
 40
0.0
 40
0.0
 40
0.0
 40
0.0
 40
0.0414828819672477
 40
0.0841943123596496
 40
0.1297373316848002
 40
0.1782820053246831
 40
0.2287344996061459
 40
0.2808102188464743
 40
0.3355674621593601
 40
0.3944642926659687
 40
0.4588516966675562
 40
0.5297385936655409
 40
0.6078072277792881
 40
0.6930985300723175
 40
0.7831805019654742
 40
0.8730019523472149
 40
0.8730019523472149
 40
0.8730019523472149
 40
0.8730019523472149
 10
117.2949770316824
 20
-3.783388796886157
 30
0.0
 10
117.2957096977571
 20
-3.797197000165027
 30
0.0
 10
117.2971991899165
 20
-3.82522221729522
 30
0.0
 10
117.2995089690109
 20
-3.86840626802882
 30
0.0
 10
117.3019586029517
 20
-3.913940131356525
 30
0.0
 10
117.3045618407424
 20
-3.96204981474375
 30
0.0
 10
117.3072960930764
 20
-4.012333159070976
 30
0.0
 10
117.310154256338
 20
-4.064683679984796
 30
0.0
 10
117.313174937663
 20
-4.119844297813642
 30
0.0
 10
117.3164263734593
 20
-4.179102322446794
 30
0.0
 10
117.3199740080836
 20
-4.243728733379953
 30
0.0
 10
117.3238696416543
 20
-4.314736263723659
 30
0.0
 10
117.3281529246022
 20
-4.39270097136486
 30
0.0
 10
117.3328042334034
 20
-4.477053465776435
 30
0.0
 10
117.337700113765
 20
-4.565316028986757
 30
0.0
 10
117.3410563674072
 20
-4.625189845574112
 30
0.0
 10
117.3427385471824
 20
-4.655083035786219
 30
0.0
 11
117.2949770316824
 21
-3.783388796886157
 31
0.0
 11
117.2971807509824
 21
-3.824813102886196
 31
0.0
 11
117.2994616904822
 21
-3.867463584486159
 31
0.0
 11
117.3019081371823
 21
-3.912940847886147
 31
0.0
 11
117.3045305832824
 21
-3.961414635586152
 31
0.0
 11
117.3072695235823
 21
-4.011792729686163
 31
0.0
 11
117.3101079157824
 21
-4.063791037786131
 31
0.0
 11
117.3131014274823
 21
-4.118466393886194
 31
0.0
 11
117.3163273387823
 21
-4.177274812686192
 31
0.0
 11
117.3198559286824
 21
-4.241565456086163
 31
0.0
 11
117.3237403580823
 21
-4.31234584428617
 31
0.0
 11
117.3280243621822
 21
-4.390296847586171
 31
0.0
 11
117.3327218276823
 21
-4.475458693686164
 31
0.0
 11
117.3377146908823
 21
-4.565402192286171
 31
0.0
 11
117.3427385471824
 21
-4.655083035786219
 31
0.0
  0
SPLINE
  5
580D7
330
1F
100
AcDbEntity
  8
1
100
AcDbSpline
210
0.0
220
0.0
230
1.0
 70
     8
 71
     3
 72
    47
 73
    43
 74
    41
 42
0.0000000001
 43
0.0000000001
 44
0.000001
 12
0.7868237050203132
 22
0.6171778165311092
 32
0.0
 13
0.7670990057521833
 23
0.6415287330852859
 33
0.0
 40
0.0
 40
0.0
 40
0.0
 40
0.0
 40
0.0041994556737358
 40
0.0083499187244351
 40
0.0124539277414128
 40
0.0165143870421294
 40
0.0205339163309477
 40
0.0245149557043452
 40
0.0284604663384607
 40
0.0323725308727186
 40
0.0362540181024802
 40
0.0401064639687227
 40
0.0439317242450933
 40
0.0477328718146348
 40
0.0515127761539017
 40
0.055272831874315
 40
0.0590154206931144
 40
0.0627430779611647
 40
0.066457814801766
 40
0.0701592049023907
 40
0.0738461853469896
 40
0.077516249352449
 40
0.0811682533780883
 40
0.0848025195277132
 40
0.0884197923648968
 40
0.0920221411402993
 40
0.0956114417433761
 40
0.0991896483528004
 40
0.1027589564630132
 40
0.1063205026423065
 40
0.1098757595274569
 40
0.1134268479147781
 40
0.116975912402613
 40
0.1205248782999498
 40
0.1240753883627781
 40
0.1276292351172039
 40
0.1311880989038062
 40
0.1347537289075938
 40
0.1383276955463497
 40
0.141911777755285
 40
0.1455081265014854
 40
0.1491187378755515
 40
0.1491187378755515
 40
0.1491187378755515
 40
0.1491187378755515
 10
116.6239766004823
 20
-9.407519361286148
 30
0.0
 10
116.6250780109064
 20
-9.406655424325037
 30
0.0
 10
116.6272672509212
 20
-9.404936696884306
 30
0.0
 10
116.6305303326791
 20
-9.402370440896504
 30
0.0
 10
116.6337548621078
 20
-9.399830115892712
 30
0.0
 10
116.6369430136986
 20
-9.397314143881004
 30
0.0
 10
116.6400969303174
 20
-9.394820959437652
 30
0.0
 10
116.6432187640305
 20
-9.392348977986983
 30
0.0
 10
116.646310520971
 20
-9.389896718798638
 30
0.0
 10
116.6493743139179
 20
-9.387462605435899
 30
0.0
 10
116.6524118785524
 20
-9.385045350344995
 30
0.0
 10
116.655424886966
 20
-9.382643707335091
 30
0.0
 10
116.6584150603697
 20
-9.380256382537368
 30
0.0
 10
116.6613844626505
 20
-9.377881798703953
 30
0.0
 10
116.6643350323703
 20
-9.375518467870818
 30
0.0
 10
116.6672685237157
 20
-9.373165040302126
 30
0.0
 10
116.6701865998726
 20
-9.37082023071116
 30
0.0
 10
116.6730910798416
 20
-9.368482619553333
 30
0.0
 10
116.6759830494295
 20
-9.366151369087276
 30
0.0
 10
116.6788626588547
 20
-9.363826392041886
 30
0.0
 10
116.6817288874775
 20
-9.361508548205051
 30
0.0
 10
116.6845805317107
 20
-9.359198851281433
 30
0.0
 10
116.6874167496922
 20
-9.356898027989274
 30
0.0
 10
116.6902375425176
 20
-9.354606123781763
 30
0.0
 10
116.6930437417091
 20
-9.352322507804956
 30
0.0
 10
116.6958365780767
 20
-9.350046219223997
 30
0.0
 10
116.6986175915809
 20
-9.347776038237611
 30
0.0
 10
116.7013883510202
 20
-9.345510713766259
 30
0.0
 10
116.7041502306483
 20
-9.343249146078278
 30
0.0
 10
116.7069044772873
 20
-9.340990333139501
 30
0.0
 10
116.709652315604
 20
-9.338733285137635
 30
0.0
 10
116.7123952266312
 20
-9.336476794971133
 30
0.0
 10
116.7151348040773
 20
-9.334219554984144
 30
0.0
 10
116.7178725147805
 20
-9.331960354128881
 30
0.0
 10
116.7206097314835
 20
-9.329698051728257
 30
0.0
 10
116.7233477605722
 20
-9.327431555013703
 30
0.0
 10
116.7260879323682
 20
-9.32515974452886
 30
0.0
 10
116.7288315167885
 20
-9.322881543997539
 30
0.0
 10
116.7315798056697
 20
-9.320595852150574
 30
0.0
 10
116.734334190317
 20
-9.318301477917231
 30
0.0
 10
116.7370961671284
 20
-9.315997134823163
 30
0.0
 10
116.7389395898506
 20
-9.314456701233012
 30
0.0
 10
116.7398628219823
 20
-9.313684597586188
 30
0.0
 11
116.6239766004823
 21
-9.407519361286148
 31
0.0
 11
116.6272797249822
 21
-9.404926141386141
 31
0.0
 11
116.6305421370823
 21
-9.402360407586172
 31
0.0
 11
116.6337659003824
 21
-9.399820681486175
 31
0.0
 11
116.6369533599824
 21
-9.397305250786189
 31
0.0
 11
116.6401066314823
 21
-9.394812571586129
 31
0.0
 11
116.6432276839823
 21
-9.392341204086164
 31
0.0
 11
116.6463188896823
 21
-9.389889377986179
 31
0.0
 11
116.6493819267823
 21
-9.387455861586204
 31
0.0
 11
116.6524190840823
 21
-9.385038927786183
 31
0.0
 11
116.6554316026823
 21
-9.382637673286183
 31
0.0
 11
116.6584209701822
 21
-9.38025099078618
 31
0.0
 11
116.6613896207823
 21
-9.377877007786196
 31
0.0
 11
116.6643398238824
 21
-9.375513971286181
 31
0.0
 11
116.6672726930823
 21
-9.373161044386165
 31
0.0
 11
116.6701901083823
 21
-9.370816767986184
 31
0.0
 11
116.6730940648823
 21
-9.368479580886173
 31
0.0
 11
116.6759861446822
 21
-9.366148244786188
 31
0.0
 11
116.6788660300823
 21
-9.363823048386166
 31
0.0
 11
116.6817329093823
 21
-9.361504681886174
 31
0.0
 11
116.6845848512823
 21
-9.359194747186165
 31
0.0
 11
116.6874209877823
 21
-9.356893992986243
 31
0.0
 11
116.6902415900823
 21
-9.354602245786168
 31
0.0
 11
116.6930472565824
 21
-9.352319064786144
 31
0.0
 11
116.6958396107824
 21
-9.350043170086138
 31
0.0
 11
116.6986201223823
 21
-9.347773399086179
 31
0.0
 11
116.7013903181823
 21
-9.345508535286171
 31
0.0
 11
116.7041519077824
 21
-9.343247204486146
 31
0.0
 11
116.7069057780824
 21
-9.340988699186198
 31
0.0
 11
116.7096530734824
 21
-9.3387320958862
 31
0.0
 11
116.7123954358823
 21
-9.336476055586217
 31
0.0
 11
116.7151345213823
 21
-9.334219219086207
 31
0.0
 11
116.7178718130823
 21
-9.331960362086192
 31
0.0
 11
116.7206085723822
 21
-9.32969843558618
 31
0.0
 11
116.7233461728823
 21
-9.327432291286157
 31
0.0
 11
116.7260858983824
 21
-9.325160848386161
 31
0.0
 11
116.7288290821824
 21
-9.322882977986182
 31
0.0
 11
116.7315769165824
 21
-9.320597661286143
 31
0.0
 11
116.7343307510823
 21
-9.318303742486136
 31
0.0
 11
116.7370922168824
 21
-9.315999822786181
 31
0.0
 11
116.7398628219823
 21
-9.313684597586188
 31
0.0
  0
SPLINE
  5
580D8
330
1F
100
AcDbEntity
  8
1
100
AcDbSpline
210
0.0
220
0.0
230
1.0
 70
     8
 71
     3
 72
    19
 73
    15
 74
    13
 42
0.0000000001
 43
0.0000000001
 44
0.000001
 12
0.0539732259751213
 22
-0.9985423831154282
 32
0.0
 13
0.0556055887574215
 23
-0.9984528123546654
 33
0.0
 40
0.0
 40
0.0
 40
0.0
 40
0.0
 40
0.1074676643135343
 40
0.2056032265421363
 40
0.2931078830036871
 40
0.3705032989617901
 40
0.4392331727926214
 40
0.5010157423126601
 40
0.5581652280587033
 40
0.6130978806274006
 40
0.6678713714534734
 40
0.723046911626012
 40
0.7781499500077889
 40
0.8332325007366938
 40
0.8332325007366938
 40
0.8332325007366938
 40
0.8332325007366938
 10
117.2495630546823
 20
-2.951394889786172
 30
0.0
 10
117.2514965135259
 20
-2.987165228996673
 30
0.0
 10
117.2551994721701
 20
-3.055599528875035
 30
0.0
 10
117.2605043609319
 20
-3.153158032820783
 30
0.0
 10
117.2652613092474
 20
-3.240707439790099
 30
0.0
 10
117.2694874098067
 20
-3.31846933598041
 30
0.0
 10
117.2732515900138
 20
-3.38766965433092
 30
0.0
 10
117.276653814098
 20
-3.45013104112013
 30
0.0
 10
117.2798112474917
 20
-3.507999870051833
 30
0.0
 10
117.282847312986
 20
-3.563535486106729
 30
0.0
 10
117.285855362666
 20
-3.618413668983436
 30
0.0
 10
117.2888774174335
 20
-3.673347963673165
 30
0.0
 10
117.2919174408226
 20
-3.728384444746865
 30
0.0
 10
117.2939560657945
 20
-3.765056354323832
 30
0.0
 10
117.2949770316824
 20
-3.783388796886157
 30
0.0
 11
117.2495630546823
 21
-2.951394889786172
 31
0.0
 11
117.2553735174823
 21
-3.058705360986209
 31
0.0
 11
117.2606970417823
 21
-3.156696425186169
 31
0.0
 11
117.2654453198823
 21
-3.244072158286172
 31
0.0
 11
117.2696458211823
 21
-3.321353502586191
 31
0.0
 11
117.2733792563823
 21
-3.389981900486134
 31
0.0
 11
117.2767397951824
 21
-3.451673007286188
 31
0.0
 11
117.2798535379824
 21
-3.508737604986208
 31
0.0
 11
117.2828525256824
 21
-3.56358833308613
 31
0.0
 11
117.2858508276823
 21
-3.618279698586178
 31
0.0
 11
117.2888817983823
 21
-3.673371925086172
 31
0.0
 11
117.2919220562824
 21
-3.728391027386152
 31
0.0
 11
117.2949770316824
 21
-3.783388796886157
 31
0.0
  0
SPLINE
  5
580D9
330
1F
100
AcDbEntity
  8
1
100
AcDbSpline
210
0.0
220
0.0
230
1.0
 70
     8
 71
     3
 72
    47
 73
    43
 74
    41
 42
0.0000000001
 43
0.0000000001
 44
0.000001
 12
0.7388589381848503
 22
0.6738601260383015
 32
0.0
 13
0.7133658030530894
 23
0.7007918599944074
 33
0.0
 40
0.0
 40
0.0
 40
0.0
 40
0.0
 40
0.0042333093801417
 40
0.008414435488851
 40
0.0125463139975533
 40
0.0166323476717992
 40
0.0206751221949067
 40
0.0246777063389331
 40
0.0286422782093545
 40
0.0325714597381049
 40
0.0364675492886227
 40
0.040333004031937
 40
0.0441706071906313
 40
0.0479833853819862
 40
0.0517744075021455
 40
0.0555454679163753
 40
0.0592976822076691
 40
0.0630329850287846
 40
0.0667529984004184
 40
0.070457375645794
 40
0.0741451614180174
 40
0.0778162614093155
 40
0.0814696605463928
 40
0.0851029651677502
 40
0.0887157040208002
 40
0.0923104706135762
 40
0.0958909653755153
 40
0.0994600563608662
 40
0.1030196587864744
 40
0.1065718962138673
 40
0.1101177154520259
 40
0.1136581222451514
 40
0.1171953534125019
 40
0.1207313663251122
 40
0.124267402895604
 40
0.1278055922517827
 40
0.1313479982782583
 40
0.1348953686723293
 40
0.1384492709266019
 40
0.1420121645593992
 40
0.1455856425849546
 40
0.1491720854137074
 40
0.1491720854137074
 40
0.1491720854137074
 40
0.1491720854137074
 10
116.7398628219823
 20
-9.313684597586188
 30
0.0
 10
116.7409054281402
 20
-9.312733711455365
 30
0.0
 10
116.7429768698331
 20
-9.310842653110881
 30
0.0
 10
116.746062746944
 20
-9.308020000622178
 30
0.0
 10
116.7491097114562
 20
-9.30522754523605
 30
0.0
 10
116.7521200340762
 20
-9.302463367572585
 30
0.0
 10
116.7550960104447
 20
-9.299725509404595
 30
0.0
 10
116.7580396283663
 20
-9.297012280578599
 30
0.0
 10
116.7609528778499
 20
-9.294321975238489
 30
0.0
 10
116.7638375539038
 20
-9.291653054656251
 30
0.0
 10
116.7666955137574
 20
-9.289003910164467
 30
0.0
 10
116.7695286479529
 20
-9.286372889752129
 30
0.0
 10
116.7723390184582
 20
-9.283758169092436
 30
0.0
 10
116.7751288294954
 20
-9.281157777247727
 30
0.0
 10
116.7779000370223
 20
-9.278569960224899
 30
0.0
 10
116.7806541254881
 20
-9.275993392329382
 30
0.0
 10
116.7833922989673
 20
-9.273427001491938
 30
0.0
 10
116.7861157158069
 20
-9.270869750773357
 30
0.0
 10
116.7888251754256
 20
-9.268320932973324
 30
0.0
 10
116.7915207739061
 20
-9.26578049910654
 30
0.0
 10
116.794202191681
 20
-9.263248793248237
 30
0.0
 10
116.7968689486627
 20
-9.260726313927563
 30
0.0
 10
116.7995202185325
 20
-9.258213891257355
 30
0.0
 10
116.8021550872452
 20
-9.255712445365645
 30
0.0
 10
116.8047735158083
 20
-9.253222070961754
 30
0.0
 10
116.8073769355153
 20
-9.250741460979753
 30
0.0
 10
116.8099675773195
 20
-9.248268533917268
 30
0.0
 10
116.8125475010814
 20
-9.245801356418382
 30
0.0
 10
116.8151183803937
 20
-9.243338351680421
 30
0.0
 10
116.8176814212938
 20
-9.240878380569739
 30
0.0
 10
116.8202376072629
 20
-9.238420509861583
 30
0.0
 10
116.822787945847
 20
-9.235963776885881
 30
0.0
 10
116.8253336833526
 20
-9.233506981291156
 30
0.0
 10
116.8278761180744
 20
-9.231048863249185
 30
0.0
 10
116.830416518038
 20
-9.228588183298711
 30
0.0
 10
116.8329561722314
 20
-9.226123672631899
 30
0.0
 10
116.8354962466197
 20
-9.223654172276496
 30
0.0
 10
116.8380377688592
 20
-9.221178649635021
 30
0.0
 10
116.8405818572599
 20
-9.218695976262068
 30
0.0
 10
116.8431298270152
 20
-9.216204822089764
 30
0.0
 10
116.8456831815973
 20
-9.213703662206228
 30
0.0
 10
116.8473865319595
 20
-9.212031941099724
 30
0.0
 10
116.8482393471823
 20
-9.211194157786138
 30
0.0
 11
116.7398628219823
 21
-9.313684597586188
 31
0.0
 11
116.7429892390823
 21
-9.310830407586138
 31
0.0
 11
116.7460743642823
 21
-9.308008395686215
 31
0.0
 11
116.7491204509823
 21
-9.305216680086175
 31
0.0
 11
116.7521300881823
 21
-9.302453053686178
 31
0.0
 11
116.7551052548823
 21
-9.299715852986196
 31
0.0
 11
116.7580482779823
 21
-9.297003078986193
 31
0.0
 11
116.7609608222823
 21
-9.294313328386181
 31
0.0
 11
116.7638448724823
 21
-9.291644889986145
 31
0.0
 11
116.7667021691824
 21
-9.28899626508624
 31
0.0
 11
116.7695345634823
 21
-9.286365840486155
 31
0.0
 11
116.7723441386823
 21
-9.28375177378615
 31
0.0
 11
116.7751331491823
 21
-9.281152049086188
 31
0.0
 11
116.7779038723823
 21
-9.278564613086189
 31
0.0
 11
116.7806576478823
 21
-9.275988275586144
 31
0.0
 11
116.7833953156823
 21
-9.273422305886157
 31
0.0
 11
116.7861183097824
 21
-9.270865409286216
 31
0.0
 11
116.7888278318824
 21
-9.268316500386163
 31
0.0
 11
116.7915236474823
 21
-9.265775840286181
 31
0.0
 11
116.7942050806823
 21
-9.26324410918616
 31
0.0
 11
116.7968720833823
 21
-9.260721397986117
 31
0.0
 11
116.7995239396823
 21
-9.258208431486195
 31
0.0
 11
116.8021589367823
 21
-9.255706886686198
 31
0.0
 11
116.8047767601823
 21
-9.253217121286127
 31
0.0
 11
116.8073793146824
 21
-9.250737379286164
 31
0.0
 11
116.8099692988824
 21
-9.248265133086192
 31
0.0
 11
116.8125488006823
 21
-9.245798420786144
 31
0.0
 11
116.8151192132824
 21
-9.243335932686164
 31
0.0
 11
116.8176820749823
 21
-9.240876209386215
 31
0.0
 11
116.8202380711824
 21
-9.238418602286174
 31
0.0
 11
116.8227879270823
 21
-9.235962419186165
 31
0.0
 11
116.8253332507823
 21
-9.233506109986137
 31
0.0
 11
116.8278754437823
 21
-9.231048312986217
 31
0.0
 11
116.8304153887824
 21
-9.228588159286175
 31
0.0
 11
116.8329546015824
 21
-9.226124158486157
 31
0.0
 11
116.8354945455823
 21
-9.223654859986197
 31
0.0
 11
116.8380357361824
 21
-9.221179726386196
 31
0.0
 11
116.8405792732823
 21
-9.218697645586189
 31
0.0
 11
116.8431268896823
 21
-9.216206876986149
 31
0.0
 11
116.8456796928823
 21
-9.213706280086171
 31
0.0
 11
116.8482393471823
 21
-9.211194157786138
 31
0.0
  0
SPLINE
  5
580DA
330
1F
100
AcDbEntity
  8
1
100
AcDbSpline
210
0.0
220
0.0
230
1.0
 70
     8
 71
     3
 72
    19
 73
    15
 74
    13
 42
0.0000000001
 43
0.0000000001
 44
0.000001
 12
0.0538085029810505
 22
-0.9985512730986519
 32
0.0
 13
0.0566763476030875
 23
-0.9983926039501566
 33
0.0
 40
0.0
 40
0.0
 40
0.0
 40
0.0
 40
0.1007597028417825
 40
0.1918198453534249
 40
0.2745202638349158
 40
0.3490695690306138
 40
0.415601567312396
 40
0.4753173843569794
 40
0.5306870848672199
 40
0.5841779500529793
 40
0.6379045465048351
 40
0.6921169631948042
 40
0.7463628107728661
 40
0.800096122581762
 40
0.800096122581762
 40
0.800096122581762
 40
0.800096122581762
 10
117.2055946161823
 20
-2.152508083786159
 30
0.0
 10
117.2074018591059
 20
-2.186045993636071
 30
0.0
 10
117.2108476343471
 20
-2.249893027307848
 30
0.0
 10
117.2157989308789
 20
-2.341265730635939
 30
0.0
 10
117.2202932309127
 20
-2.423913579225228
 30
0.0
 10
117.2243582983624
 20
-2.49839663959031
 30
0.0
 10
117.228017586334
 20
-2.565228909767824
 30
0.0
 10
117.2313452935943
 20
-2.625676554647895
 30
0.0
 10
117.2344432712488
 20
-2.681783218949533
 30
0.0
 10
117.2374459741651
 20
-2.735895694395935
 30
0.0
 10
117.2404420534525
 20
-2.789622180600815
 30
0.0
 10
117.2434690363628
 20
-2.843598993002956
 30
0.0
 10
117.2465141130291
 20
-2.897577029099977
 30
0.0
 10
117.2485479187297
 20
-2.933512576087593
 30
0.0
 10
117.2495630546823
 20
-2.951394889786172
 30
0.0
 11
117.2055946161823
 21
-2.152508083786159
 31
0.0
 11
117.2110267129823
 21
-2.253121249286209
 31
0.0
 11
117.2159537312822
 21
-2.344047998986184
 31
0.0
 11
117.2204446207823
 21
-2.426626391186175
 31
0.0
 11
117.2245072369823
 21
-2.501064912186137
 31
0.0
 11
117.2281462626823
 21
-2.567497284786213
 31
0.0
 11
117.2314256206823
 21
-2.627123009586142
 31
0.0
 11
117.2344793622823
 21
-2.682408450086171
 31
0.0
 11
117.2374430601822
 21
-2.735817152986214
 31
0.0
 11
117.2404348233823
 21
-2.78946038848619
 31
0.0
 11
117.2434704158823
 21
-2.843587751286179
 31
0.0
 11
117.2465243885823
 21
-2.897747563186129
 31
0.0
 11
117.2495630546823
 21
-2.951394889786172
 31
0.0
  0
SPLINE
  5
580DB
330
1F
100
AcDbEntity
  8
1
100
AcDbSpline
210
0.0
220
0.0
230
1.0
 70
     8
 71
     3
 72
    19
 73
    15
 74
    13
 42
0.0000000001
 43
0.0000000001
 44
0.000001
 12
0.0538989856343329
 22
-0.9985463931874122
 32
0.0
 13
0.0566953971756919
 23
-0.9983915223694012
 33
0.0
 40
0.0
 40
0.0
 40
0.0
 40
0.0
 40
0.048159329592193
 40
0.098185270736582
 40
0.1502228643354383
 40
0.2034551794316481
 40
0.2583157413557193
 40
0.3169186162271573
 40
0.3814642349521731
 40
0.4537562252742623
 40
0.534472858569833
 40
0.6238599491699264
 40
0.7227951737312494
 40
0.8331341791522342
 40
0.8331341791522342
 40
0.8331341791522342
 40
0.8331341791522342
 10
117.1592929296823
 20
-1.320661787286212
 30
0.0
 10
117.1601581760202
 20
-1.336691562240417
 30
0.0
 10
117.1619269242464
 20
-1.369372156803052
 30
0.0
 10
117.1646426124819
 20
-1.419372750867978
 30
0.0
 10
117.1674644337412
 20
-1.471061066343111
 30
0.0
 10
117.1703890899433
 20
-1.524357705511619
 30
0.0
 10
117.1734476691598
 20
-1.579838713243532
 30
0.0
 10
117.1767264446072
 20
-1.639084408083988
 30
0.0
 10
117.1803449497627
 20
-1.704130666344553
 30
0.0
 10
117.1843882888905
 20
-1.77653593904489
 30
0.0
 10
117.1889101957266
 20
-1.857207877162039
 30
0.0
 10
117.1939478586438
 20
-1.946745922689558
 30
0.0
 10
117.19956075592
 20
-2.046141341890631
 30
0.0
 10
117.2035093782702
 20
-2.115787574586505
 30
0.0
 10
117.2055946161823
 20
-2.152508083786159
 30
0.0
 11
117.1592929296823
 21
-1.320661787286212
 31
0.0
 11
117.1618940842824
 21
-1.368750822786182
 31
0.0
 11
117.1646075256823
 21
-1.418703121586162
 31
0.0
 11
117.1674441342824
 21
-1.470663347086173
 31
0.0
 11
117.1703605573824
 21
-1.523815718186199
 31
0.0
 11
117.1733804091822
 21
-1.578593132586178
 31
0.0
 11
117.1766206459823
 21
-1.637106337786178
 31
0.0
 11
117.1802046836823
 21
-1.701552362686157
 31
0.0
 11
117.1842350903823
 21
-1.773731911086173
 31
0.0
 11
117.1887521122823
 21
-1.854322054286171
 31
0.0
 11
117.1937729932823
 21
-1.943568020986191
 31
0.0
 11
117.1993509290823
 21
-2.042345878286198
 31
0.0
 11
117.2055946161823
 21
-2.152508083786159
 31
0.0
  0
SPLINE
  5
580DC
330
1F
100
AcDbEntity
  8
1
100
AcDbSpline
210
0.0
220
0.0
230
1.0
 70
     8
 71
     3
 72
    18
 73
    14
 74
    12
 42
0.0000000001
 43
0.0000000001
 44
0.000001
 12
0.0551823759455847
 22
-0.9984762918492357
 32
0.0
 13
0.0569091252315841
 23
-0.9983793624997343
 33
0.0
 40
0.0
 40
0.0
 40
0.0
 40
0.0
 40
0.1034938397612894
 40
0.2006097325419658
 40
0.2891938172656437
 40
0.3692262147892508
 40
0.4413512521560806
 40
0.5068294486225616
 40
0.5668484553409927
 40
0.6221055373332637
 40
0.6728349672627246
 40
0.7192927952926228
 40
0.761717663075711
 40
0.761717663075711
 40
0.761717663075711
 40
0.761717663075711
 10
117.1165491425823
 20
-0.5601444239861735
 30
0.0
 10
117.1184528212403
 20
-0.5945898057708803
 30
0.0
 10
117.1221528632252
 20
-0.6613572749461128
 30
0.0
 10
117.1275262775913
 20
-0.7576053366865097
 30
0.0
 10
117.1324815854893
 20
-0.8460440788016114
 30
0.0
 10
117.1369845054372
 20
-0.9261648162578808
 30
0.0
 10
117.1410637253979
 20
-0.9985952486668452
 30
0.0
 10
117.1447734146576
 20
-1.064364790648141
 30
0.0
 10
117.1481694876571
 20
-1.124520433052197
 30
0.0
 10
117.1512921831806
 20
-1.179767425203579
 30
0.0
 10
117.154165692143
 20
-1.230500893619961
 30
0.0
 10
117.1568026447147
 20
-1.276963500123741
 30
0.0
 10
117.1584881423112
 20
-1.30654308313575
 30
0.0
 10
117.1592929296823
 20
-1.320661787286212
 30
0.0
 11
117.1165491425823
 21
-0.5601444239861735
 31
0.0
 11
117.1222787944823
 21
-0.663479539086211
 31
0.0
 11
117.1276892091823
 21
-0.7604446047861871
 31
0.0
 11
117.1326446893823
 21
-0.8488899734861945
 31
0.0
 11
117.1371350465823
 21
-0.9287963018862228
 31
0.0
 11
117.1411903766824
 21
-1.000807240586198
 31
0.0
 11
117.1448774621823
 21
-1.066181544386154
 31
0.0
 11
117.1482606563823
 21
-1.126105121986171
 31
0.0
 11
117.1513794671824
 21
-1.181274117986163
 31
0.0
 11
117.1542482183823
 21
-1.231922368886216
 31
0.0
 11
117.1568816489823
 21
-1.278305499686211
 31
0.0
 11
117.1592929296823
 21
-1.320661787286212
 31
0.0
  0
SPLINE
  5
580DD
330
1F
100
AcDbEntity
  8
1
100
AcDbSpline
210
0.0
220
0.0
230
1.0
 70
     8
 71
     3
 72
    47
 73
    43
 74
    41
 42
0.0000000001
 43
0.0000000001
 44
0.000001
 12
0.6870671021677919
 22
0.7265939699163165
 32
0.0
 13
0.6543764207597062
 23
0.7561689625696867
 33
0.0
 40
0.0
 40
0.0
 40
0.0
 40
0.0
 40
0.0042667549002776
 40
0.0084791366573292
 40
0.0126405864126524
 40
0.0167538556280911
 40
0.0208219702923229
 40
0.0248475985964764
 40
0.0288333926903852
 40
0.0327821047198931
 40
0.0366958155444248
 40
0.0405774334821986
 40
0.0444293629447732
 40
0.0482542663923102
 40
0.0520544416339799
 40
0.0558310149530064
 40
0.0595861951712204
 40
0.0633231946500521
 40
0.0670448793158557
 40
0.0707509661052491
 40
0.0744397967676904
 40
0.0781088030239787
 40
0.0817560107285326
 40
0.0853820334760176
 40
0.0889891640394384
 40
0.0925794227890889
 40
0.0961543019339796
 40
0.0997158767772747
 40
0.1032656564335675
 40
0.1068054742182024
 40
0.1103372639854297
 40
0.1138630765867101
 40
0.1173847473631792
 40
0.1209040918426733
 40
0.1244227527489425
 40
0.1279423840968249
 40
0.1314650763835459
 40
0.13499330008744
 40
0.1385291852154862
 40
0.14207367387383
 40
0.1456273194670172
 40
0.1491921256909519
 40
0.1491921256909519
 40
0.1491921256909519
 40
0.1491921256909519
 10
116.8482393471823
 20
-9.211194157786138
 30
0.0
 10
116.8492165294907
 20
-9.210160758325599
 30
0.0
 10
116.8511572946614
 20
-9.208106043717037
 30
0.0
 10
116.8540471354512
 20
-9.205039669280722
 30
0.0
 10
116.856898516506
 20
-9.20200735472477
 30
0.0
 10
116.8597136360896
 20
-9.199006956242868
 30
0.0
 10
116.862494506262
 20
-9.196036508163928
 30
0.0
 10
116.865243110932
 20
-9.193094063490775
 30
0.0
 10
116.8679613519817
 20
-9.190177723298262
 30
0.0
 10
116.8706510317647
 20
-9.18728576302135
 30
0.0
 10
116.8733137622699
 20
-9.184416164759227
 30
0.0
 10
116.8759515115073
 20
-9.181567399219119
 30
0.0
 10
116.8785660779368
 20
-9.178737514648105
 30
0.0
 10
116.8811591912932
 20
-9.17592477310302
 30
0.0
 10
116.8837322644908
 20
-9.173127723710024
 30
0.0
 10
116.8862866079956
 20
-9.170345026721633
 30
0.0
 10
116.8888237309775
 20
-9.167575110831478
 30
0.0
 10
116.8913455268249
 20
-9.164815970186452
 30
0.0
 10
116.8938533206144
 20
-9.162066204719138
 30
0.0
 10
116.8963473384302
 20
-9.159325609347973
 30
0.0
 10
116.8988265894707
 20
-9.156595320718452
 30
0.0
 10
116.901289709232
 20
-9.153876897488373
 30
0.0
 10
116.9037358482222
 20
-9.151171342972048
 30
0.0
 10
116.906165246074
 20
-9.148478460654018
 30
0.0
 10
116.908579031535
 20
-9.145797062759896
 30
0.0
 10
116.9109785231577
 20
-9.143125738232072
 30
0.0
 10
116.9133649855688
 20
-9.140463124944858
 30
0.0
 10
116.9157395631817
 20
-9.137807981826654
 30
0.0
 10
116.9181034716108
 20
-9.135158978903916
 30
0.0
 10
116.9204578875219
 20
-9.132514814632884
 30
0.0
 10
116.9228041075781
 20
-9.129874052481568
 30
0.0
 10
116.9251433997643
 20
-9.127235229676756
 30
0.0
 10
116.927477084902
 20
-9.124596982726586
 30
0.0
 10
116.9298060683014
 20
-9.121957762791339
 30
0.0
 10
116.9321317083925
 20
-9.119316502120341
 30
0.0
 10
116.934455114559
 20
-9.116671790497548
 30
0.0
 10
116.9367776467934
 20
-9.114022071132922
 30
0.0
 10
116.9391007421294
 20
-9.111365643731659
 30
0.0
 10
116.9414255834217
 20
-9.108701094440704
 30
0.0
 10
116.94375292614
 20
-9.106027484691509
 30
0.0
 10
116.946083494336
 20
-9.10334390467986
 30
0.0
 10
116.9476372633364
 20
-9.101550565127553
 30
0.0
 10
116.9484148383823
 20
-9.100652033186179
 30
0.0
 11
116.8482393471823
 21
-9.211194157786138
 31
0.0
 11
116.8511691298823
 21
-9.208092300586173
 31
0.0
 11
116.8540581136823
 21
-9.20502671948617
 31
0.0
 11
116.8569087666823
 21
-9.201995016086158
 31
0.0
 11
116.8597230736824
 21
-9.198995284186196
 31
0.0
 11
116.8625031978823
 21
-9.196025408486207
 31
0.0
 11
116.8652510481823
 21
-9.193083525686176
 31
0.0
 11
116.8679685137823
 21
-9.190167775986196
 31
0.0
 11
116.8706575468824
 21
-9.187276214886196
 31
0.0
 11
116.8733196521824
 21
-9.18440736218622
 31
0.0
 11
116.8759568427823
 21
-9.181559174386165
 31
0.0
 11
116.8785708057822
 21
-9.178729943086182
 31
0.0
 11
116.8811633954823
 21
-9.175917762786184
 31
0.0
 11
116.8837362110822
 21
-9.173120988586219
 31
0.0
 11
116.8862900530823
 21
-9.170338832586139
 31
0.0
 11
116.8888264492824
 21
-9.167569704886204
 31
0.0
 11
116.8913475971823
 21
-9.164811267986181
 31
0.0
 11
116.8938554509824
 21
-9.16206143128619
 31
0.0
 11
116.8963498373823
 21
-9.159320425686189
 31
0.0
 11
116.8988296603824
 21
-9.156589501786157
 31
0.0
 11
116.9012932184823
 21
-9.15387058948616
 31
0.0
 11
116.9037392167823
 21
-9.151165185286174
 31
0.0
 11
116.9061680991823
 21
-9.148472869086191
 31
0.0
 11
116.9085814304823
 21
-9.145791970386198
 31
0.0
 11
116.9109805861823
 21
-9.14312101468613
 31
0.0
 11
116.9133665831824
 21
-9.140458915286217
 31
0.0
 11
116.9157408218824
 21
-9.137804146086182
 31
0.0
 11
116.9181043194822
 21
-9.135155597886182
 31
0.0
 11
116.9204583036822
 21
-9.132511914786164
 31
0.0
 11
116.9228040627823
 21
-9.129871660186154
 31
0.0
 11
116.9251429563822
 21
-9.127233304386152
 31
0.0
 11
116.9274761944823
 21
-9.124595473086145
 31
0.0
 11
116.9298049925822
 21
-9.121956773786166
 31
0.0
 11
116.9321303970823
 21
-9.119315993086161
 31
0.0
 11
116.9344534788823
 21
-9.116671878786178
 31
0.0
 11
116.9367755911823
 21
-9.114022844186195
 31
0.0
 11
116.9390983296823
 21
-9.111367010086155
 31
0.0
 11
116.9414230571823
 21
-9.108702746186168
 31
0.0
 11
116.9437503490823
 21
-9.106029311986162
 31
0.0
 11
116.9460805218823
 21
-9.103346257286204
 31
0.0
 11
116.9484148383823
 21
-9.100652033186179
 31
0.0
  0
SPLINE
  5
580DE
330
1F
100
AcDbEntity
  8
1
100
AcDbSpline
210
0.0
220
0.0
230
1.0
 70
     8
 71
     3
 72
    47
 73
    43
 74
    41
 42
0.0000000001
 43
0.0000000001
 44
0.000001
 12
0.6317454721875885
 22
0.7751758886668762
 32
0.0
 13
0.5903292049932213
 23
0.8071625794919333
 33
0.0
 40
0.0
 40
0.0
 40
0.0
 40
0.0
 40
0.0042961580133868
 40
0.0085360334436976
 40
0.0127228725201579
 40
0.0168598422086339
 40
0.0209492861728948
 40
0.0249943025728062
 40
0.0289978492901791
 40
0.0329620038053769
 40
0.0368898165227655
 40
0.0407841523163904
 40
0.0446469237059236
 40
0.0484812533922509
 40
0.0522902374112201
 40
0.0560756382038745
 40
0.0598393650434806
 40
0.0635839766233243
 40
0.0673104535610418
 40
0.0710174897030037
 40
0.0747043389302172
 40
0.0783714292042762
 40
0.0820186034192381
 40
0.0856445293686242
 40
0.0892493235489398
 40
0.0928349404533206
 40
0.0964030932138878
 40
0.0999550207938358
 40
0.1034930839899456
 40
0.1070200535548675
 40
0.1105382467455195
 40
0.1140496803732734
 40
0.1175559833081149
 40
0.1210589458104158
 40
0.1245601719460903
 40
0.1280615549142242
 40
0.1315648456709676
 40
0.1350719854726327
 40
0.1385844238583142
 40
0.142103712493416
 40
0.145631679020843
 40
0.1491698333561723
 40
0.1491698333561723
 40
0.1491698333561723
 40
0.1491698333561723
 10
116.9484148383823
 20
-9.100652033186179
 30
0.0
 10
116.9493195311732
 20
-9.099541940484215
 30
0.0
 10
116.9511156494967
 20
-9.097335144273756
 30
0.0
 10
116.9537885054117
 20
-9.094042490147614
 30
0.0
 10
116.9564237473274
 20
-9.090787651868794
 30
0.0
 10
116.9590232965534
 20
-9.087568438400978
 30
0.0
 10
116.9615891520963
 20
-9.084382783921881
 30
0.0
 10
116.9641228231609
 20
-9.081228317910074
 30
0.0
 10
116.9666263288935
 20
-9.078103194035662
 30
0.0
 10
116.9691014754821
 20
-9.075005413956489
 30
0.0
 10
116.971549997903
 20
-9.071932961894219
 30
0.0
 10
116.9739735973907
 20
-9.068883865201996
 30
0.0
 10
116.9763739774056
 20
-9.065856121957324
 30
0.0
 10
116.9787528800585
 20
-9.062847662324173
 30
0.0
 10
116.9811120047107
 20
-9.059856446246186
 30
0.0
 10
116.983452791428
 20
-9.056880744141949
 30
0.0
 10
116.985776560684
 20
-9.053918960112241
 30
0.0
 10
116.9880844643102
 20
-9.050969697083587
 30
0.0
 10
116.9903769876331
 20
-9.048032397307338
 30
0.0
 10
116.9926539372967
 20
-9.045107370678039
 30
0.0
 10
116.9949150090651
 20
-9.042195074162265
 30
0.0
 10
116.9971601354797
 20
-9.03929566357786
 30
0.0
 10
116.9993891296749
 20
-9.03640944928594
 30
0.0
 10
117.0016017437833
 20
-9.033536825634371
 30
0.0
 10
117.0037981610084
 20
-9.030677630451805
 30
0.0
 10
117.0059791795894
 20
-9.027830893884441
 30
0.0
 10
117.0081458202891
 20
-9.024995345140666
 30
0.0
 10
117.0102991786681
 20
-9.022169600074988
 30
0.0
 10
117.0124405568062
 20
-9.019351988644416
 30
0.0
 10
117.0145714649692
 20
-9.01654054755491
 30
0.0
 10
117.0166933336239
 20
-9.013733396923697
 30
0.0
 10
117.018807354853
 20
-9.010928953847184
 30
0.0
 10
117.0209146042881
 20
-9.008125767724521
 30
0.0
 10
117.0230160760114
 20
-9.005322498802826
 30
0.0
 10
117.0251127776727
 20
-9.00251770771274
 30
0.0
 10
117.0272058163039
 20
-8.999710045370989
 30
0.0
 10
117.0292958552827
 20
-8.996897693010367
 30
0.0
 10
117.0313843300631
 20
-8.994079590918914
 30
0.0
 10
117.0334720574436
 20
-8.991254301636132
 30
0.0
 10
117.0355599775765
 20
-8.988420527035145
 30
0.0
 10
117.0376489935414
 20
-8.985576916741109
 30
0.0
 10
117.0390407953038
 20
-8.983676738546165
 30
0.0
 10
117.0397370205824
 20
-8.982724783286187
 30
0.0
 11
116.9484148383823
 21
-9.100652033186179
 31
0.0
 11
116.9511267197823
 21
-9.097319980686165
 31
0.0
 11
116.9537987635823
 21
-9.094028103686184
 31
0.0
 11
116.9564331488824
 21
-9.090773993586168
 31
0.0
 11
116.9590319914823
 21
-9.087555292686147
 31
0.0
 11
116.9615968784823
 21
-9.084370274686136
 31
0.0
 11
116.9641298936823
 21
-9.081216574286145
 31
0.0
 11
116.9666329656823
 21
-9.078091993986163
 31
0.0
 11
116.9691074701824
 21
-9.074995005586174
 31
0.0
 11
116.9715553920823
 21
-9.071923298886133
 31
0.0
 11
116.9739785891823
 21
-9.068874699286169
 31
0.0
 11
116.9763783170823
 21
-9.065847769786159
 31
0.0
 11
116.9787565740823
 21
-9.062840117586176
 31
0.0
 11
116.9811153295824
 21
-9.059849360786188
 31
0.0
 11
116.9834557173823
 21
-9.056874156786136
 31
0.0
 11
116.9857789547824
 21
-9.0539130416862
 31
0.0
 11
116.9880866515824
 21
-9.05096403398619
 31
0.0
 11
116.9903794373823
 21
-9.048026388886171
 31
0.0
 11
116.9926565343822
 21
-9.045101163886243
 31
0.0
 11
116.9949175132823
 21
-9.042188977986199
 31
0.0
 11
116.9971626662824
 21
-9.039289523886168
 31
0.0
 11
116.9993919264824
 21
-9.036402956086192
 31
0.0
 11
117.0016045114823
 21
-9.033530361186194
 31
0.0
 11
117.0038005262823
 21
-9.030671680586181
 31
0.0
 11
117.0059811921823
 21
-9.027825395386145
 31
0.0
 11
117.0081475765823
 21
-9.024990172786147
 31
0.0
 11
117.0103004524823
 21
-9.022165051686215
 31
0.0
 11
117.0124412662822
 21
-9.019348173686182
 31
0.0
 11
117.0145717022823
 21
-9.016537346286213
 31
0.0
 11
117.0166931599823
 21
-9.013730730186182
 31
0.0
 11
117.0188068482823
 21
-9.010926718686164
 31
0.0
 11
117.0209137343822
 21
-9.008124008786182
 31
0.0
 11
117.0230148751824
 21
-9.005321163186181
 31
0.0
 11
117.0251112077823
 21
-9.002516887586125
 31
0.0
 11
117.0272038369822
 21
-8.999709647786175
 31
0.0
 11
117.0292938042823
 21
-8.996897976386179
 31
0.0
 11
117.0313821851823
 21
-8.994080341386165
 31
0.0
 11
117.0334697909824
 21
-8.991255550586174
 31
0.0
 11
117.0355574857823
 21
-8.988422324286148
 31
0.0
 11
117.0376462883823
 21
-8.985579154486174
 31
0.0
 11
117.0397370205824
 21
-8.982724783286187
 31
0.0
  0
SPLINE
  5
580DF
330
1F
100
AcDbEntity
  8
1
100
AcDbSpline
210
0.0
220
0.0
230
1.0
 70
     8
 71
     3
 72
    48
 73
    44
 74
    42
 42
0.0000000001
 43
0.0000000001
 44
0.000001
 12
0.5731995894183429
 22
0.8194157862102995
 32
0.0
 13
0.5214814048625435
 23
0.8532626467756504
 33
0.0
 40
0.0
 40
0.0
 40
0.0
 40
0.0
 40
0.00422240005766
 40
0.0083888175611477
 40
0.012502709156059
 40
0.016567648057509
 40
0.020585079001799
 40
0.0245569329354686
 40
0.0284858147279674
 40
0.0323751521372641
 40
0.0362273788674865
 40
0.0400455794797219
 40
0.0438315964564008
 40
0.0475880986669112
 40
0.0513169359735865
 40
0.0550200063949293
 40
0.0587003947605809
 40
0.0623603480332755
 40
0.0660023042600074
 40
0.0696258296299779
 40
0.0732301098514818
 40
0.0768142776576692
 40
0.0803758415437423
 40
0.0839148019082674
 40
0.0874321824928771
 40
0.0909300870960763
 40
0.0944100657567036
 40
0.0978742640882466
 40
0.101324571303782
 40
0.1047632495911704
 40
0.1081920636140725
 40
0.1116118823554799
 40
0.1150245652423194
 40
0.1184318269122706
 40
0.1218347651023075
 40
0.1252355133848009
 40
0.1286360599977557
 40
0.1320381014193039
 40
0.1354438824911375
 40
0.138854960216961
 40
0.1422717919807941
 40
0.1456952229976381
 40
0.1491273682498387
 40
0.1491273682498387
 40
0.1491273682498387
 40
0.1491273682498387
 10
117.0397370205824
 20
-8.982724783286187
 30
0.0
 10
117.0405437799088
 20
-8.981571482865206
 30
0.0
 10
117.0421449543876
 20
-8.979279019852924
 30
0.0
 10
117.0445264219072
 20
-8.975858893878864
 30
0.0
 10
117.0468729774211
 20
-8.972478421488716
 30
0.0
 10
117.0491865548389
 20
-8.969135516153755
 30
0.0
 10
117.0514678393834
 20
-8.965827846725176
 30
0.0
 10
117.0537187599378
 20
-8.962554333503703
 30
0.0
 10
117.0559407645072
 20
-8.959312760064818
 30
0.0
 10
117.0581355976842
 20
-8.956100911034837
 30
0.0
 10
117.0603050238739
 20
-8.952916390070413
 30
0.0
 10
117.0624505122997
 20
-8.94975723895746
 30
0.0
 10
117.0645735607132
 20
-8.946621423761911
 30
0.0
 10
117.0666754266308
 20
-8.943507244682052
 30
0.0
 10
117.0687573670611
 20
-8.940412979015917
 30
0.0
 10
117.0708207076635
 20
-8.937336782946545
 30
0.0
 10
117.0728668356696
 20
-8.934276694408737
 30
0.0
 10
117.0748972277696
 20
-8.931230594491324
 30
0.0
 10
117.0769126985816
 20
-8.928197332437434
 30
0.0
 10
117.07891349326
 20
-8.925176604195399
 30
0.0
 10
117.0808992499072
 20
-8.922169025113646
 30
0.0
 10
117.0828692324322
 20
-8.919175785338609
 30
0.0
 10
117.0848228619219
 20
-8.916197853293141
 30
0.0
 10
117.0867599096665
 20
-8.91323567317508
 30
0.0
 10
117.0886809856173
 20
-8.910288407297855
 30
0.0
 10
117.0905869753628
 20
-8.90735478094615
 30
0.0
 10
117.0924789597786
 20
-8.904433200255226
 30
0.0
 10
117.0943579722781
 20
-8.901522125788773
 30
0.0
 10
117.0962251641444
 20
-8.898619811631448
 30
0.0
 10
117.0980816085297
 20
-8.895724612607978
 30
0.0
 10
117.0999281846039
 20
-8.892835163186958
 30
0.0
 10
117.1017656917741
 20
-8.889950206267343
 30
0.0
 10
117.1035949121229
 20
-8.887068493587463
 30
0.0
 10
117.1054166611671
 20
-8.884188707913523
 30
0.0
 10
117.1072317916496
 20
-8.881309447617468
 30
0.0
 10
117.1090412057924
 20
-8.878429234562815
 30
0.0
 10
117.1108458638512
 20
-8.875546391824371
 30
0.0
 10
117.1126468737317
 20
-8.872659290890965
 30
0.0
 10
117.1144447353865
 20
-8.869766094559082
 30
0.0
 10
117.1162404319288
 20
-8.866865753992442
 30
0.0
 10
117.1180344926145
 20
-8.863957486197477
 30
0.0
 10
117.1198274261539
 20
-8.861040277437695
 30
0.0
 10
117.1210207484063
 20
-8.859091408366793
 30
0.0
 10
117.1216173483823
 20
-8.858115234586136
 30
0.0
 11
117.0397370205824
 21
-8.982724783286187
 31
0.0
 11
117.0421547212823
 21
-8.979263103586163
 31
0.0
 11
117.0445353125823
 21
-8.975843836886156
 31
0.0
 11
117.0468809223823
 21
-8.972464255286155
 31
0.0
 11
117.0491937277823
 21
-8.969121523586153
 31
0.0
 11
117.0514747434823
 21
-8.965814458386205
 31
0.0
 11
117.0537251358823
 21
-8.962541640086186
 31
0.0
 11
117.0559464939823
 21
-8.959301012586195
 31
0.0
 11
117.0581408597824
 21
-8.95608983008617
 31
0.0
 11
117.0603097000823
 21
-8.952906157186134
 31
0.0
 11
117.0624548358823
 21
-8.949747511886158
 31
0.0
 11
117.0645773782823
 21
-8.946612431186167
 31
0.0
 11
117.0666788918823
 21
-8.9434987608862
 31
0.0
 11
117.0687604719822
 21
-8.940405017886178
 31
0.0
 11
117.0708232324823
 21
-8.937329673386216
 31
0.0
 11
117.0728689370823
 21
-8.93427020518618
 31
0.0
 11
117.0748988711824
 21
-8.931224779086164
 31
0.0
 11
117.0769144147824
 21
-8.928191394186171
 31
0.0
 11
117.0789153521823
 21
-8.925170437286169
 31
0.0
 11
117.0809012607823
 21
-8.922162614486126
 31
0.0
 11
117.0828716926822
 21
-8.919168678586174
 31
0.0
 11
117.0848253147823
 21
-8.916190744186167
 31
0.0
 11
117.0867621685824
 21
-8.913228847286177
 31
0.0
 11
117.0886828543823
 21
-8.910282166486126
 31
0.0
 11
117.0905885553824
 21
-8.907348970986163
 31
0.0
 11
117.0924801438823
 21
-8.904427988286215
 31
0.0
 11
117.0943588074823
 21
-8.901517440486202
 31
0.0
 11
117.0962255840824
 21
-8.898615758186167
 31
0.0
 11
117.0980817034823
 21
-8.895721051986129
 31
0.0
 11
117.0999281160824
 21
-8.892831844386165
 31
0.0
 11
117.1017652825822
 21
-8.889947407986198
 31
0.0
 11
117.1035941889823
 21
-8.887066175786173
 31
0.0
 11
117.1054157340824
 21
-8.884186697086136
 31
0.0
 11
117.1072304784824
 21
-8.881308037386133
 31
0.0
 11
117.1090395267823
 21
-8.878428380886163
 31
0.0
 11
117.1108438943823
 21
-8.875546027686141
 31
0.0
 11
117.1126444307823
 21
-8.872659518686191
 31
0.0
 11
117.1144422956822
 21
-8.869766871886213
 31
0.0
 11
117.1162382198823
 21
-8.866866767986124
 31
0.0
 11
117.1180323521823
 21
-8.863958810886174
 31
0.0
 11
117.1198250555823
 21
-8.861042246686139
 31
0.0
 11
117.1216173483823
 21
-8.858115234586136
 31
0.0
  0
SPLINE
  5
580E0
330
1F
100
AcDbEntity
  8
1
100
AcDbSpline
210
0.0
220
0.0
230
1.0
 70
     8
 71
     3
 72
    47
 73
    43
 74
    41
 42
0.0000000001
 43
0.0000000001
 44
0.000001
 12
0.5117436941092194
 22
0.859138167898185
 32
0.0
 13
0.448150011366692
 23
0.893958370010614
 33
0.0
 40
0.0
 40
0.0
 40
0.0
 40
0.0
 40
0.0043539141027643
 40
0.0086469475033216
 40
0.0128826881155959
 40
0.0170636183978863
 40
0.0211934785584641
 40
0.0252748998853033
 40
0.0293114492098326
 40
0.0333056917747087
 40
0.0372595669328861
 40
0.0411765268648478
 40
0.045059087051689
 40
0.0489092158611825
 40
0.0527302243619585
 40
0.0565240347218923
 40
0.0602917487986369
 40
0.0640358015316785
 40
0.0677589560531737
 40
0.0714631793179933
 40
0.0751465732734478
 40
0.0788074293234844
 40
0.0824457856740326
 40
0.0860610968770706
 40
0.0896529966443341
 40
0.0932239836028498
 40
0.0967763372798171
 40
0.1003117922119583
 40
0.1038325668519152
 40
0.1073418176065951
 40
0.1108402857175139
 40
0.1143283398882625
 40
0.1178074356506244
 40
0.1212804053581445
 40
0.1247496509617792
 40
0.1282178333026492
 40
0.1316872054866717
 40
0.1351600605115751
 40
0.1386369453386395
 40
0.1421182468659232
 40
0.1456058715294975
 40
0.1491021265564809
 40
0.1491021265564809
 40
0.1491021265564809
 40
0.1491021265564809
 10
117.1216173483823
 20
-8.858115234586136
 30
0.0
 10
117.1223600444112
 20
-8.856868363324338
 30
0.0
 10
117.1238329815932
 20
-8.854390822140175
 30
0.0
 10
117.1260211316803
 20
-8.850695903928311
 30
0.0
 10
117.1281739170193
 20
-8.847047062476434
 30
0.0
 10
117.1302922316592
 20
-8.843441044294308
 30
0.0
 10
117.1323784503921
 20
-8.83987583776485
 30
0.0
 10
117.1344342920466
 20
-8.836348623802621
 30
0.0
 10
117.1364613973752
 20
-8.832856991785149
 30
0.0
 10
117.1384612394942
 20
-8.829398699526251
 30
0.0
 10
117.1404352669857
 20
-8.825971534450587
 30
0.0
 10
117.1423849027159
 20
-8.822573287842857
 30
0.0
 10
117.1443115598413
 20
-8.819201733902332
 30
0.0
 10
117.1462166131114
 20
-8.815854678726452
 30
0.0
 10
117.1481013254473
 20
-8.812530092046614
 30
0.0
 10
117.1499668032168
 20
-8.809226186635186
 30
0.0
 10
117.1518139986516
 20
-8.805941423429885
 30
0.0
 10
117.1536439904345
 20
-8.802674012718625
 30
0.0
 10
117.1554579846073
 20
-8.799421905493716
 30
0.0
 10
117.1572564720039
 20
-8.796184307570001
 30
0.0
 10
117.159039217756
 20
-8.792961726721017
 30
0.0
 10
117.1608056824719
 20
-8.789755236954306
 30
0.0
 10
117.1625555507552
 20
-8.786565520849649
 30
0.0
 10
117.1642887257114
 20
-8.783392870431839
 30
0.0
 10
117.1660055051976
 20
-8.780236858740892
 30
0.0
 10
117.167706631276
 20
-8.777096228391371
 30
0.0
 10
117.1693931683561
 20
-8.773969100130415
 30
0.0
 10
117.1710661235225
 20
-8.770853669871598
 30
0.0
 10
117.172726628011
 20
-8.76774786844868
 30
0.0
 10
117.1743756423478
 20
-8.764649910948435
 30
0.0
 10
117.176013824575
 20
-8.761558550069111
 30
0.0
 10
117.1776415600857
 20
-8.758473035840665
 30
0.0
 10
117.1792595523276
 20
-8.755391998192948
 30
0.0
 10
117.1808688070969
 20
-8.75231346052729
 30
0.0
 10
117.1824704960297
 20
-8.749235079918832
 30
0.0
 10
117.1840656970256
 20
-8.746154682549871
 30
0.0
 10
117.1856554002418
 20
-8.743070090857941
 30
0.0
 10
117.1872404531528
 20
-8.739979846097782
 30
0.0
 10
117.1888206716756
 20
-8.736882661519331
 30
0.0
 10
117.1903968630189
 20
-8.733777903512617
 30
0.0
 10
117.1919697311674
 20
-8.730664225228167
 30
0.0
 10
117.1930151425389
 20
-8.728584196067885
 30
0.0
 10
117.1935374247823
 20
-8.727542360586198
 30
0.0
 11
117.1216173483823
 21
-8.858115234586136
 31
0.0
 11
117.1238421488823
 21
-8.85437270148617
 31
0.0
 11
117.1260294003823
 21
-8.85067874498614
 31
0.0
 11
117.1281811312823
 21
-8.847030397486179
 31
0.0
 11
117.1302988621824
 21
-8.843425508886184
 31
0.0
 11
117.1323846079823
 21
-8.839861047986175
 31
0.0
 11
117.1344398439823
 21
-8.836334862386195
 31
0.0
 11
117.1364665074824
 21
-8.832843967086148
 31
0.0
 11
117.1384660151824
 21
-8.829386232286168
 31
0.0
 11
117.1404394572823
 21
-8.82596006178619
 31
0.0
 11
117.1423886649824
 21
-8.822562539886149
 31
0.0
 11
117.1443149857823
 21
-8.819191552886195
 31
0.0
 11
117.1462194824823
 21
-8.81584545418616
 31
0.0
 11
117.1481038681823
 21
-8.812521422086206
 31
0.0
 11
117.1499691547823
 21
-8.809217833686147
 31
0.0
 11
117.1518159417823
 21
-8.805933775086174
 31
0.0
 11
117.1536454728823
 21
-8.802667165086177
 31
0.0
 11
117.1554591370824
 21
-8.799415627586142
 31
0.0
 11
117.1572579210823
 21
-8.796177473686157
 31
0.0
 11
117.1590409318822
 21
-8.792954391586135
 31
0.0
 11
117.1608073797823
 21
-8.789747910086191
 31
0.0
 11
117.1625573247824
 21
-8.786558031686155
 31
0.0
 11
117.1642905475823
 21
-8.783385271286192
 31
0.0
 11
117.1660069182822
 21
-8.780229988386167
 31
0.0
 11
117.1677076716823
 21
-8.777090023386193
 31
0.0
 11
117.1693939234823
 21
-8.773963401286152
 31
0.0
 11
117.1710665177823
 21
-8.770848619786136
 31
0.0
 11
117.1727265151822
 21
-8.767743743586123
 31
0.0
 11
117.1743754021823
 21
-8.764646001586186
 31
0.0
 11
117.1760135154824
 21
-8.761554746786146
 31
0.0
 11
117.1776410130823
 21
-8.75846965928622
 31
0.0
 11
117.1792585546824
 21
-8.755389455286177
 31
0.0
 11
117.1808674260822
 21
-8.752311624886203
 31
0.0
 11
117.1824686951823
 21
-8.749234030286174
 31
0.0
 11
117.1840635311823
 21
-8.746154294986155
 31
0.0
 11
117.1856528969823
 21
-8.743070395386212
 31
0.0
 11
117.1872377563824
 21
-8.73998026438619
 31
0.0
 11
117.1888183014823
 21
-8.736883305986168
 31
0.0
 11
117.1903945759824
 21
-8.73377920128621
 31
0.0
 11
117.1919673123824
 21
-8.730666252586161
 31
0.0
 11
117.1935374247823
 21
-8.727542360586198
 31
0.0
  0
SPLINE
  5
580E1
330
1F
100
AcDbEntity
  8
1
100
AcDbSpline
210
0.0
220
0.0
230
1.0
 70
     8
 71
     3
 72
    59
 73
    55
 74
    53
 42
0.0000000001
 43
0.0000000001
 44
0.000001
 12
0.9993424176592453
 22
0.0362592369883121
 32
0.0
 13
0.999723953563212
 23
-0.0234950350487293
 33
0.0
 40
0.0
 40
0.0
 40
0.0
 40
0.0
 40
0.0423103895361238
 40
0.1032191964306921
 40
0.1639271086824989
 40
0.2231405518876751
 40
0.251782608287475
 40
0.279565963301013
 40
0.3064562830323069
 40
0.3329296707724421
 40
0.3595895696751794
 40
0.3870394295313735
 40
0.4158827146563553
 40
0.4467229081417439
 40
0.5168080352738543
 40
0.5419709247261877
 40
0.5548278002577522
 40
0.5677047780040397
 40
0.5932126739662151
 40
0.6186097321252775
 40
0.6440790004561427
 40
0.66952296712461
 40
0.6948273752475491
 40
0.7075626348611978
 40
0.7204448969207025
 40
0.7334746440557323
 40
0.7464716859459886
 40
0.7713755130395277
 40
0.8002093809718777
 40
0.8253460575983718
 40
0.8485014653846199
 40
0.8713914866037837
 40
0.8953693789491897
 40
0.9203379561565089
 40
0.9714079517496269
 40
1.021700821039139
 40
1.071425038664165
 40
1.121357438249513
 40
1.171442456677053
 40
1.271460555788109
 40
1.371479467897773
 40
1.471498875817468
 40
1.571518831082918
 40
1.671539360991334
 40
1.771560630279024
 40
1.871582504236534
 40
1.971604975264707
 40
2.071628102566659
 40
2.171651904446498
 40
2.271676436814788
 40
2.37170158967058
 40
2.471727229228792
 40
2.571753819929224
 40
2.67178197177628
 40
2.67178197177628
 40
2.67178197177628
 40
2.67178197177628
 10
112.7086423706822
 20
9.814287566613813
 30
0.0
 10
112.7227365596726
 20
9.814798947427561
 30
0.0
 10
112.757120547063
 20
9.816040614816984
 30
0.0
 10
112.8117279920873
 20
9.817993968268012
 30
0.0
 10
112.8719665265166
 20
9.820139194966031
 30
0.0
 10
112.9214560012596
 20
9.821909801444235
 30
0.0
 10
112.9599771085476
 20
9.823302787944186
 30
0.0
 10
112.9877305197191
 20
9.824316311509647
 30
0.0
 10
113.0147610439227
 20
9.825316471720839
 30
0.0
 10
113.0414171931697
 20
9.82630669480082
 30
0.0
 10
113.0682599547957
 20
9.827297718806647
 30
0.0
 10
113.095892729357
 20
9.828301966269748
 30
0.0
 10
113.1249189122982
 20
9.829331923714164
 30
0.0
 10
113.1681494986509
 20
9.830820617862258
 30
0.0
 10
113.2101565709628
 20
9.832191496016406
 30
0.0
 10
113.246174021816
 20
9.83331564081817
 30
0.0
 10
113.2631326824006
 20
9.833800660974532
 30
0.0
 10
113.2802074458139
 20
9.834247270015566
 30
0.0
 10
113.3014634243926
 20
9.834700005496273
 30
0.0
 10
113.3269185938287
 20
9.835092235982415
 30
0.0
 10
113.3523540823431
 20
9.835357009472829
 30
0.0
 10
113.3777596649981
 20
9.835498006991656
 30
0.0
 10
113.3989209858417
 20
9.835511055029598
 30
0.0
 10
113.4158948619052
 20
9.835446111087691
 30
0.0
 10
113.4287769972662
 20
9.835356591273722
 30
0.0
 10
113.4417460284615
 20
9.835224738228845
 30
0.0
 10
113.4587215736372
 20
9.835011512415718
 30
0.0
 10
113.4809639521917
 20
9.834674334269607
 30
0.0
 10
113.5072518698855
 20
9.834242725951526
 30
0.0
 10
113.5329564497387
 20
9.833784775895878
 30
0.0
 10
113.556679615305
 20
9.833338149688302
 30
0.0
 10
113.580016490925
 20
9.832893702445687
 30
0.0
 10
113.6039579185363
 20
9.832452194691654
 30
0.0
 10
113.6372912721264
 20
9.831848397186263
 30
0.0
 10
113.6793950023392
 20
9.831094378998443
 30
0.0
 10
113.7297488695001
 20
9.830169387203227
 30
0.0
 10
113.7797233414695
 20
9.829237369594949
 30
0.0
 10
113.829628484588
 20
9.828303576506783
 30
0.0
 10
113.8962951620971
 20
9.827047688657842
 30
0.0
 10
113.9796540322332
 20
9.825458802333002
 30
0.0
 10
114.0796540241821
 20
9.823518807898494
 30
0.0
 10
114.1796540538929
 20
9.821549100488084
 30
0.0
 10
114.2796540130882
 20
9.819548662945578
 30
0.0
 10
114.3796539784649
 20
9.817517746653351
 30
0.0
 10
114.4796539578138
 20
9.815456249889024
 30
0.0
 10
114.5796539514052
 20
9.813364276072945
 30
0.0
 10
114.6796539210307
 20
9.811241767099573
 30
0.0
 10
114.7796538807558
 20
9.809088727207949
 30
0.0
 10
114.879653866645
 20
9.806905197324681
 30
0.0
 10
114.9796538586155
 20
9.804691229837771
 30
0.0
 10
115.0796537844597
 20
9.802446807001075
 30
0.0
 10
115.1796536971511
 20
9.800171439077558
 30
0.0
 10
115.2796539324049
 20
9.797866489271882
 30
0.0
 10
115.3463206387383
 20
9.796308220424975
 30
0.0
 10
115.3796541518824
 20
9.795524832113812
 30
0.0
 11
112.7086423706822
 21
9.814287566613813
 31
0.0
 11
112.7509251767823
 21
9.815815919213832
 31
0.0
 11
112.8117949647823
 21
9.817995752213846
 31
0.0
 11
112.8724642999824
 21
9.820159613613782
 31
0.0
 11
112.9316397562823
 21
9.822280258113778
 31
0.0
 11
112.9602630841823
 21
9.823315859713829
 31
0.0
 11
112.9880279075823
 21
9.82433044011384
 31
0.0
 11
113.0148998921823
 21
9.825323272513799
 31
0.0
 11
113.0413550931823
 21
9.826304384613848
 31
0.0
 11
113.0679968964824
 21
9.827286482513841
 31
0.0
 11
113.0954286883823
 21
9.828282272413844
 31
0.0
 11
113.1242538550823
 21
9.829304460613798
 31
0.0
 11
113.1550757824824
 21
9.830365753313799
 31
0.0
 11
113.2251234644823
 21
9.83265647741382
 31
0.0
 11
113.2502744581824
 21
9.833430132013802
 31
0.0
 11
113.2631261202823
 21
9.833796242213793
 31
0.0
 11
113.2759987412823
 21
9.834131194813835
 31
0.0
 11
113.3015008042823
 21
9.834676707613823
 31
0.0
 11
113.3268947910823
 21
9.835071740113789
 31
0.0
 11
113.3523626743823
 21
9.83533745991383
 31
0.0
 11
113.3778062524824
 21
9.835478287613796
 31
0.0
 11
113.4031106591823
 21
9.835489710813817
 31
0.0
 11
113.4158458250823
 21
9.835440708113821
 31
0.0
 11
113.4287277757823
 21
9.835351064613803
 31
0.0
 11
113.4417568684823
 21
9.835220423013822
 31
0.0
 11
113.4547529021823
 21
9.835058501913806
 31
0.0
 11
113.4796540087824
 21
9.834690348313813
 31
0.0
 11
113.5084839809823
 21
9.834216322313807
 31
0.0
 11
113.5336166887823
 21
9.833769606013788
 31
0.0
 11
113.5567680491823
 21
9.833336637813829
 31
0.0
 11
113.5796539796823
 21
9.832903855713823
 31
0.0
 11
113.6036277751824
 21
9.83246056411383
 31
0.0
 11
113.6285922435823
 21
9.832007531813815
 31
0.0
 11
113.6796539422823
 21
9.831086786513822
 31
0.0
 11
113.7299383606823
 21
9.830164546113792
 31
0.0
 11
113.7796539753823
 21
9.829239155013794
 31
0.0
 11
113.8295776424824
 21
9.828304473013844
 31
0.0
 11
113.8796538137823
 21
9.827360942613836
 31
0.0
 11
113.9796538510824
 21
9.825452177013801
 31
0.0
 11
114.0796538226822
 21
9.823512862813799
 31
0.0
 11
114.1796538100824
 21
9.82154298501382
 31
0.0
 11
114.2796537512823
 21
9.819542589613831
 31
0.0
 11
114.3796536554823
 21
9.817511657513819
 31
0.0
 11
114.4796536757823
 21
9.815450177113802
 31
0.0
 11
114.5796536682823
 21
9.813358193513863
 31
0.0
 11
114.6796536152823
 21
9.811235685813812
 31
0.0
 11
114.7796535664823
 21
9.809082653113819
 31
0.0
 11
114.8796535315823
 21
9.806899132413832
 31
0.0
 11
114.9796535579824
 21
9.804685161013821
 31
0.0
 11
115.0796535244823
 21
9.802440655913812
 31
0.0
 11
115.1796532856823
 21
9.80016552001382
 31
0.0
 11
115.2796533045823
 21
9.797860094813813
 31
0.0
 11
115.3796541518824
 21
9.795524832113812
 31
0.0
  0
SPLINE
  5
580E2
330
1F
100
AcDbEntity
  8
1
100
AcDbSpline
210
0.0
220
0.0
230
1.0
 70
     8
 71
     3
 72
    36
 73
    32
 74
     0
 42
0.0000000001
 43
0.0000000001
 40
0.6009475512781837
 40
0.6009475512781837
 40
0.6009475512781837
 40
0.6009475512781837
 40
0.6025607008871142
 40
0.6245638633691149
 40
0.6455120022656839
 40
0.6664536395021453
 40
0.6876655592525417
 40
0.7088958440466378
 40
0.7299774841903504
 40
0.7510167166707486
 40
0.7725510991794109
 40
0.7953389828261355
 40
0.8201280080374594
 40
0.8476477227366999
 40
0.878446672652249
 40
0.912856010572989
 40
0.9511741463463874
 40
0.9936947108028483
 40
1.04069306154564
 40
1.092432569736951
 40
1.149746704230999
 40
1.214699473542321
 40
1.288395308757229
 40
1.367365087796228
 40
1.446108260723369
 40
1.522815633881833
 40
1.599096733834828
 40
1.679619999129544
 40
1.768996195770915
 40
1.867736263267303
 40
1.975382571895489
 40
1.975382571895489
 40
1.975382571895489
 40
1.975382571895489
 10
112.7086423989127
 20
9.814286281466479
 30
0.0
 10
112.7083736054879
 20
9.814280376957981
 30
0.0
 10
112.7044385029988
 20
9.814193925395386
 30
0.0
 10
112.6970128925069
 20
9.814030505974301
 30
0.0
 10
112.6863666629887
 20
9.813795493915392
 30
0.0
 10
112.675852289877
 20
9.81356272560825
 30
0.0
 10
112.6652909183643
 20
9.813328267156862
 30
0.0
 10
112.6547062328149
 20
9.813092659542348
 30
0.0
 10
112.6441503347495
 20
9.812857091227556
 30
0.0
 10
112.6335437792076
 20
9.812619816596338
 30
0.0
 10
112.6226529336244
 20
9.812375612840696
 30
0.0
 10
112.6111372929744
 20
9.812116805010703
 30
0.0
 10
112.5986243634642
 20
9.811834931433793
 30
0.0
 10
112.5847766115179
 20
9.811522250736203
 30
0.0
 10
112.5693259016663
 20
9.811172536340109
 30
0.0
 10
112.5520759369952
 20
9.810781161476256
 30
0.0
 10
112.5328728952503
 20
9.810344473569841
 30
0.0
 10
112.511572250244
 20
9.809859063811984
 30
0.0
 10
112.4880353110579
 20
9.809321787679778
 30
0.0
 10
112.4620334435801
 20
9.808727167691358
 30
0.0
 10
112.4330399883535
 20
9.808062683965601
 30
0.0
 10
112.4003881509176
 20
9.807312395615099
 30
0.0
 10
112.3641280532598
 20
9.806476525921482
 30
0.0
 10
112.3255702439104
 20
9.80558428904851
 30
0.0
 10
112.2865107353282
 20
9.804676583658476
 30
0.0
 10
112.2478993152993
 20
9.803775153581739
 30
0.0
 10
112.2089913907028
 20
9.802862667642727
 30
0.0
 10
112.167972675799
 20
9.8018964285761
 30
0.0
 10
112.1232119482278
 20
9.800837357501507
 30
0.0
 10
112.0739321166005
 20
9.799665527277795
 30
0.0
 10
112.0395441768493
 20
9.798844923231001
 30
0.0
 10
112.0216082658822
 20
9.79841547651381
 30
0.0
  0
SPLINE
  5
580E3
330
1F
100
AcDbEntity
  8
1
100
AcDbSpline
210
0.0
220
0.0
230
1.0
 70
     8
 71
     3
 72
    41
 73
    37
 74
     0
 42
0.0000000001
 43
0.0000000001
 40
0.0
 40
0.0
 40
0.0
 40
0.0
 40
0.0086742543841339
 40
0.017251048394832
 40
0.025733893041621
 40
0.0341279109661479
 40
0.0424389509424542
 40
0.0506715772594268
 40
0.0588315902384174
 40
0.0669242694736539
 40
0.0749536140341751
 40
0.0829251268162632
 40
0.0908433237130376
 40
0.0987113180499454
 40
0.1065339722050548
 40
0.1143160591345143
 40
0.1220622301615951
 40
0.1297781998729032
 40
0.1374694461839589
 40
0.1451409440353203
 40
0.152794187890375
 40
0.1604305745877657
 40
0.1680546086673145
 40
0.1756730410913943
 40
0.1832882939982845
 40
0.1908952265602227
 40
0.1984868787697523
 40
0.206058510484689
 40
0.2136085670058364
 40
0.2211419475388856
 40
0.2286644987387072
 40
0.2361801299622986
 40
0.2436914476783827
 40
0.2512026312685796
 40
0.2587167286542775
 40
0.2588176947272802
 40
0.2588176947272802
 40
0.2588176947272802
 40
0.2588176947272802
 10
115.6453426791823
 20
9.786285351613798
 30
0.0
 10
115.6467769648969
 20
9.786103970284216
 30
0.0
 10
115.6496292559575
 20
9.785741936888996
 30
0.0
 10
115.6538836111252
 20
9.785198029851244
 30
0.0
 10
115.6580911578613
 20
9.784656308838663
 30
0.0
 10
115.6622543059521
 20
9.784116614508036
 30
0.0
 10
115.6663756380851
 20
9.783578753111498
 30
0.0
 10
115.6704578476701
 20
9.783042504632874
 30
0.0
 10
115.6745035328205
 20
9.782507650084255
 30
0.0
 10
115.6785151970463
 20
9.781973971994204
 30
0.0
 10
115.6824952936071
 20
9.781441249528654
 30
0.0
 10
115.6864461485291
 20
9.78090926930804
 30
0.0
 10
115.6903699405076
 20
9.780377828749408
 30
0.0
 10
115.6942687415447
 20
9.779846731744896
 30
0.0
 10
115.6981446652136
 20
9.779315768855838
 30
0.0
 10
115.7020000781031
 20
9.778784687979509
 30
0.0
 10
115.7058374865198
 20
9.778253209555259
 30
0.0
 10
115.7096595121139
 20
9.777721029603071
 30
0.0
 10
115.7134688288855
 20
9.77718782828731
 30
0.0
 10
115.7172674132918
 20
9.776653375633145
 30
0.0
 10
115.721056567581
 20
9.776117531143427
 30
0.0
 10
115.7248375159469
 20
9.775580161747086
 30
0.0
 10
115.7286123493827
 20
9.775041006620881
 30
0.0
 10
115.7323833271738
 20
9.774499774202155
 30
0.0
 10
115.736151116656
 20
9.773956396092103
 30
0.0
 10
115.7399141235308
 20
9.773411130602255
 30
0.0
 10
115.7436695730234
 20
9.772864413068646
 30
0.0
 10
115.7474152828606
 20
9.772316599511157
 30
0.0
 10
115.7511510271043
 20
9.771767763611137
 30
0.0
 10
115.754878325375
 20
9.771217720980729
 30
0.0
 10
115.7585995974605
 20
9.770666148766792
 30
0.0
 10
115.7623168843049
 20
9.770112774026188
 30
0.0
 10
115.7660319513328
 20
9.769557359904524
 30
0.0
 10
115.7697464213712
 20
9.768999686443351
 30
0.0
 10
115.7722392912968
 20
9.768623855459452
 30
0.0
 10
115.7734942277932
 20
9.768434262964831
 30
0.0
 10
115.7735108666476
 20
9.768431749141143
 30
0.0
  0
SPLINE
  5
580E4
330
1F
100
AcDbEntity
  8
1
100
AcDbSpline
210
0.0
220
0.0
230
1.0
 70
     8
 71
     3
 72
    17
 73
    13
 74
    11
 42
0.0000000001
 43
0.0000000001
 44
0.000001
 12
-0.9995492549813393
 22
-0.0300214401095161
 32
0.0
 13
-0.9994721208135317
 23
-0.0324881473233101
 33
0.0
 40
0.0
 40
0.0
 40
0.0
 40
0.0
 40
0.139297921520404
 40
0.2787515037496774
 40
0.418355568396984
 40
0.5581042733365677
 40
0.6979920413611258
 40
0.8380131354088284
 40
0.9781617522606815
 40
1.118431689015235
 40
1.258816639444882
 40
1.399309822881991
 40
1.399309822881991
 40
1.399309822881991
 40
1.399309822881991
 10
110.5412454627823
 20
9.758855013313791
 30
0.0
 10
110.4948337515569
 20
9.757461038577702
 30
0.0
 10
110.4019589986176
 20
9.754653759584527
 30
0.0
 10
110.2625722785312
 20
9.750391934898317
 30
0.0
 10
110.123036796522
 20
9.746079038466973
 30
0.0
 10
109.9833579533675
 20
9.741719884001355
 30
0.0
 10
109.8435413643859
 20
9.737318235890086
 30
0.0
 10
109.7035926318913
 20
9.732877774799874
 30
0.0
 10
109.5635175574237
 20
9.728402391327961
 30
0.0
 10
109.4233221399682
 20
9.723895665755094
 30
0.0
 10
109.2830126494956
 20
9.719362814742339
 30
0.0
 10
109.1894358612857
 20
9.716326205427634
 30
0.0
 10
109.1426295212824
 20
9.714804751013815
 30
0.0
 11
110.5412454627823
 21
9.758855013313791
 31
0.0
 11
110.4020110686823
 21
9.754648176813816
 31
0.0
 11
110.2626225974824
 21
9.750386732113838
 31
0.0
 11
110.1230851239824
 21
9.746074571113808
 31
0.0
 11
109.9834043947824
 21
9.741715640013808
 31
0.0
 11
109.8435858923823
 21
9.737313909713805
 31
0.0
 11
109.7036352349822
 21
9.732873386713805
 31
0.0
 11
109.5635581097823
 21
9.728398110513836
 31
0.0
 11
109.4233605883824
 21
9.723892162913784
 31
0.0
 11
109.2830488396823
 21
9.719359657313816
 31
0.0
 11
109.1426295212824
 21
9.714804751013815
 31
0.0
  0
SPLINE
  5
580E5
330
1F
100
AcDbEntity
  8
1
100
AcDbSpline
210
0.0
220
0.0
230
1.0
 70
     8
 71
     3
 72
    16
 73
    12
 74
    10
 42
0.0000000001
 43
0.0000000001
 44
0.000001
 12
-0.9996962433357856
 22
-0.0246459136636909
 32
0.0
 13
-0.9996000911271801
 23
-0.0282782216296055
 33
0.0
 40
0.0
 40
0.0
 40
0.0
 40
0.0
 40
0.1637618602809003
 40
0.3277414180084643
 40
0.4919281962147167
 40
0.6563135297889157
 40
0.8208888962293475
 40
0.9856442955118957
 40
1.15057014317174
 40
1.315656195568791
 40
1.480892119941153
 40
1.480892119941153
 40
1.480892119941153
 40
1.480892119941153
 10
112.0216082658822
 20
9.79841547651381
 30
0.0
 10
111.967037560374
 20
9.797070122957194
 30
0.0
 10
111.8578243559087
 20
9.794347104885389
 30
0.0
 10
111.6939014221478
 20
9.790172886297654
 30
0.0
 10
111.529772869304
 20
9.785910258925696
 30
0.0
 10
111.3654477710172
 20
9.781566564208588
 30
0.0
 10
111.2009350126859
 20
9.777149792670087
 30
0.0
 10
111.0362438828194
 20
9.772664050583074
 30
0.0
 10
110.8713841802533
 20
9.76811560156932
 30
0.0
 10
110.7063657549584
 20
9.763512609652337
 30
0.0
 10
110.5963020778023
 20
9.760412539343974
 30
0.0
 10
110.5412454627823
 20
9.758855013313791
 30
0.0
 11
112.0216082658822
 21
9.79841547651381
 31
0.0
 11
111.8578972252822
 21
9.794335430513825
 31
0.0
 11
111.6939707749824
 21
9.790161816113823
 31
0.0
 11
111.5298392797823
 21
9.785900344613821
 31
0.0
 11
111.3655112465823
 21
9.781557788513794
 31
0.0
 11
111.2009951746823
 21
9.777140487813824
 31
0.0
 11
111.0363008926823
 21
9.772654934913816
 31
0.0
 11
110.8714377883824
 21
9.768107732113833
 31
0.0
 11
110.7064159181824
 21
9.76350552151382
 31
0.0
 11
110.5412454627823
 21
9.758855013313791
 31
0.0
  0
SPLINE
  5
580E6
330
1F
100
AcDbEntity
  8
1
100
AcDbSpline
210
0.0
220
0.0
230
1.0
 70
     8
 71
     3
 72
    32
 73
    28
 74
    26
 42
0.0000000001
 43
0.0000000001
 44
0.000001
 12
0.0416878756684485
 22
0.9991306826548028
 32
0.0
 13
0.0019987911344967
 23
0.9999980024150051
 33
0.0
 40
0.0
 40
0.0
 40
0.0
 40
0.0
 40
0.0253133237737771
 40
0.0509427840260011
 40
0.0764004519048413
 40
0.1012401531212046
 40
0.1250533484845149
 40
0.1475422696219395
 40
0.1687763512392466
 40
0.1893685203037044
 40
0.2098316533873734
 40
0.230317749752155
 40
0.2508257554714715
 40
0.2711925912183194
 40
0.2913544608748968
 40
0.3114780964012572
 40
0.3316522865852516
 40
0.3518362494561893
 40
0.3723443739989984
 40
0.3939907562334035
 40
0.4175913298325067
 40
0.4437149242710664
 40
0.4726668182013438
 40
0.5047461838967362
 40
0.5402520874222572
 40
0.5794833610640965
 40
0.6400628535945333
 40
0.6400628535945333
 40
0.6400628535945333
 40
0.6400628535945333
 10
117.4696104550822
 20
7.026874337013822
 30
0.0
 10
117.4699622079803
 20
7.035304776501277
 30
0.0
 10
117.470635085293
 20
7.052272415592426
 30
0.0
 10
117.4715505130535
 20
7.077722839088607
 30
0.0
 10
117.4723489938095
 20
7.103019273177778
 30
0.0
 10
117.4730166155133
 20
7.127713852707529
 30
0.0
 10
117.4735545241599
 20
7.151421763620021
 30
0.0
 10
117.473970839769
 20
7.173930039720914
 30
0.0
 10
117.4742846925411
 20
7.195366185750259
 30
0.0
 10
117.4745073950745
 20
7.216128170433307
 30
0.0
 10
117.4746490158678
 20
7.23664153344302
 30
0.0
 10
117.4747083338762
 20
7.257127246578932
 30
0.0
 10
117.4746967190207
 20
7.277580907981359
 30
0.0
 10
117.4746617836043
 20
7.297926446703286
 30
0.0
 10
117.4746488664081
 20
7.318143894387958
 30
0.0
 10
117.4746519849387
 20
7.33829712615136
 30
0.0
 10
117.4746573191977
 20
7.358457721639979
 30
0.0
 10
117.4746594472567
 20
7.378746480766437
 30
0.0
 10
117.4746628830322
 20
7.399525970424718
 30
0.0
 10
117.4746711056071
 20
7.421444329189682
 30
0.0
 10
117.4746846406942
 20
7.445234508868878
 30
0.0
 10
117.4747033632195
 20
7.471459856252266
 30
0.0
 10
117.4747288314019
 20
7.500511463330184
 30
0.0
 10
117.4747641579956
 20
7.532690498445617
 30
0.0
 10
117.4748101611202
 20
7.568295983773111
 30
0.0
 10
117.474885711743
 20
7.613401476978879
 30
0.0
 10
117.4749318080785
 20
7.646671703085132
 30
0.0
 10
117.474972169996
 20
7.666864826924381
 30
0.0
 11
117.4696104550822
 21
7.026874337013822
 31
0.0
 11
117.4706164802822
 21
7.052167764113846
 31
0.0
 11
117.4715347259823
 21
7.077780772113783
 31
0.0
 11
117.4723370581823
 21
7.103225813013864
 31
0.0
 11
117.4730084998824
 21
7.128056474013817
 31
0.0
 11
117.4735484125823
 21
7.151863617713843
 31
0.0
 11
117.4739646383824
 21
7.174348885513836
 31
0.0
 11
117.4742734151823
 21
7.195581250813802
 31
0.0
 11
117.4744937412823
 21
7.216171589513805
 31
0.0
 11
117.4746343123823
 21
7.236634097213823
 31
0.0
 11
117.4746954981823
 21
7.257120046313843
 31
0.0
 11
117.4746917528823
 21
7.277628023813804
 31
0.0
 11
117.4746643460823
 21
7.297994827013781
 31
0.0
 11
117.4746505287824
 21
7.318156685013832
 31
0.0
 11
117.4746513511824
 21
7.338280316713792
 31
0.0
 11
117.4746557822824
 21
7.358454503813845
 31
0.0
 11
117.4746586383822
 21
7.378638464413825
 31
0.0
 11
117.4746625186823
 21
7.399146586913843
 31
0.0
 11
117.4746705307824
 21
7.420792966313825
 31
0.0
 11
117.4746837040824
 21
7.444393535113817
 31
0.0
 11
117.4747023628823
 21
7.470517121913815
 31
0.0
 11
117.4747279304823
 21
7.499469003713784
 31
0.0
 11
117.4747628902823
 21
7.53154834971383
 31
0.0
 11
117.4748097103823
 21
7.567054222113824
 31
0.0
 11
117.4748713051823
 21
7.606285448913808
 31
0.0
 11
117.474972169996
 21
7.666864826924381
 31
0.0
  0
SPLINE
  5
580E7
330
1F
100
AcDbEntity
  8
1
100
AcDbSpline
210
0.0
220
0.0
230
1.0
 70
     8
 71
     3
 72
    16
 73
    12
 74
    10
 42
0.0000000001
 43
0.0000000001
 44
0.000001
 12
0.0482150812919933
 22
0.9988369766563543
 32
0.0
 13
0.0465816943160087
 23
0.9989144837045111
 33
0.0
 40
0.0
 40
0.0
 40
0.0
 40
0.0
 40
0.0934047751872448
 40
0.1846952750434236
 40
0.2709695470436496
 40
0.3494597662359531
 40
0.4195708436449709
 40
0.4824303558566711
 40
0.5390649160255881
 40
0.5903807594739478
 40
0.6373488983061472
 40
0.6373488983061472
 40
0.6373488983061472
 40
0.6373488983061472
 10
117.4350696789823
 20
6.390468171413829
 30
0.0
 10
117.4365708519252
 20
6.421566885831595
 30
0.0
 10
117.4395856080025
 20
6.483058124896189
 30
0.0
 10
117.444072231408
 20
6.573269849604258
 30
0.0
 10
117.4485486985747
 20
6.658504194977041
 30
0.0
 10
117.4529524587242
 20
6.73667237556026
 30
0.0
 10
117.4572250912006
 20
6.807029784788227
 30
0.0
 10
117.4610865787097
 20
6.870113417279924
 30
0.0
 10
117.4644394162798
 20
6.926951331028618
 30
0.0
 10
117.4672764952662
 20
6.978513081996197
 30
0.0
 10
117.4688811699203
 20
7.011235285629766
 30
0.0
 10
117.4696104550822
 20
7.026874337013822
 30
0.0
 11
117.4350696789823
 21
6.390468171413829
 31
0.0
 11
117.4396302117824
 21
6.483761549813806
 31
0.0
 11
117.4441976940824
 21
6.57493771711384
 31
0.0
 11
117.4487410160823
 21
6.661092277613818
 31
0.0
 11
117.4531689256823
 21
6.739457500313847
 31
0.0
 11
117.4573765506824
 21
6.809442205213827
 31
0.0
 11
117.4611879903824
 21
6.872186056913847
 31
0.0
 11
117.4645037261823
 21
6.928723468713826
 31
0.0
 11
117.4673018946823
 21
6.979962960313798
 31
0.0
 11
117.4696104550822
 21
7.026874337013822
 31
0.0
  0
SPLINE
  5
580E8
330
1F
100
AcDbEntity
  8
1
100
AcDbSpline
210
0.0
220
0.0
230
1.0
 70
     8
 71
     3
 72
    14
 73
    10
 74
     8
 42
0.0000000001
 43
0.0000000001
 44
0.000001
 12
0.0505181688986345
 22
0.998723142122545
 32
0.0
 13
0.0534636888779657
 23
0.9985697942415242
 33
0.0
 40
0.0
 40
0.0
 40
0.0
 40
0.0
 40
0.0881924567879613
 40
0.1785507381500866
 40
0.2704015820190618
 40
0.3631240270483309
 40
0.4553680576227755
 40
0.5468025426731062
 40
0.6377289465635131
 40
0.6377289465635131
 40
0.6377289465635131
 40
0.6377289465635131
 10
117.4013569564823
 20
5.753631320713793
 30
0.0
 10
117.4028420636249
 20
5.78299126989873
 30
0.0
 10
117.4058731525036
 20
5.842430954866756
 30
0.0
 10
117.4105268798925
 20
5.932444604924825
 30
0.0
 10
117.415340678044
 20
6.023961961650968
 30
0.0
 10
117.4202739722512
 20
6.116102437871063
 30
0.0
 10
117.4252440261599
 20
6.208101941640506
 30
0.0
 10
117.4301926797473
 20
6.299503048780309
 30
0.0
 10
117.4334492586596
 20
6.360202717939188
 30
0.0
 10
117.4350696789823
 20
6.390468171413829
 30
0.0
 11
117.4013569564823
 21
5.753631320713793
 31
0.0
 11
117.4058455960824
 21
5.841709480613815
 31
0.0
 11
117.4105135758824
 21
5.931947105613829
 31
0.0
 11
117.4153386980823
 21
6.023671125213837
 31
0.0
 11
117.4202889293823
 21
6.116261335913804
 31
0.0
 11
117.4252594223823
 21
6.20837135431384
 31
0.0
 11
117.4301933597823
 21
6.299672624713821
 31
0.0
 11
117.4350696789823
 21
6.390468171413829
 31
0.0
  0
SPLINE
  5
580E9
330
1F
100
AcDbEntity
  8
1
100
AcDbSpline
210
0.0
220
0.0
230
1.0
 70
     8
 71
     3
 72
    21
 73
    17
 74
    15
 42
0.0000000001
 43
0.0000000001
 44
0.000001
 12
0.0511078686737044
 22
0.9986931389368965
 32
0.0
 13
0.0551810174779677
 23
0.9984763669261763
 33
0.0
 40
0.0
 40
0.0
 40
0.0
 40
0.0
 40
0.0415683517764967
 40
0.0832511108814422
 40
0.1248411935694348
 40
0.166182299876672
 40
0.2073536044358585
 40
0.2488506702006412
 40
0.2906688273925994
 40
0.3313998397278774
 40
0.3713994895712986
 40
0.4141705429454272
 40
0.4610851039638392
 40
0.5130193504343348
 40
0.5708153131043573
 40
0.6353896488831833
 40
0.6353896488831833
 40
0.6353896488831833
 40
0.6353896488831833
 10
117.3675639909824
 20
5.119141327813792
 30
0.0
 10
117.3682721476035
 20
5.132979337052489
 30
0.0
 10
117.3696939634134
 20
5.160693260223808
 30
0.0
 10
117.3718449468052
 20
5.202251363931168
 30
0.0
 10
117.3740042902142
 20
5.243733182616864
 30
0.0
 10
117.3761660116887
 20
5.285044160255154
 30
0.0
 10
117.3783346372078
 20
5.32632372751155
 30
0.0
 10
117.3805202075084
 20
5.367761639989907
 30
0.0
 10
117.3827070985525
 20
5.409052513767505
 30
0.0
 10
117.3848767633341
 20
5.44984446065365
 30
0.0
 10
117.3870726609604
 20
5.490953092234832
 30
0.0
 10
117.3893889357477
 20
5.534119413920535
 30
0.0
 10
117.3919310835803
 20
5.581257535950385
 30
0.0
 10
117.3947592885756
 20
5.633395809498381
 30
0.0
 10
117.3979261167561
 20
5.69141095780472
 30
0.0
 10
117.4001691972986
 20
5.732139337985415
 30
0.0
 10
117.4013569564823
 20
5.753631320713793
 30
0.0
 11
117.3675639909824
 21
5.119141327813792
 31
0.0
 11
117.3696961446823
 21
5.160654961613801
 31
0.0
 11
117.3718495975823
 21
5.202282056413821
 31
0.0
 11
117.3740114923823
 21
5.243815912113802
 31
0.0
 11
117.3761713918824
 21
5.285100556813802
 31
0.0
 11
117.3783313559823
 21
5.326215163213817
 31
0.0
 11
117.3805170768823
 21
5.367654626013802
 31
0.0
 11
117.3827288487823
 21
5.409414251513794
 31
0.0
 11
117.3848922681824
 21
5.450087768313778
 31
0.0
 11
117.3870259380823
 21
5.490030470113822
 31
0.0
 11
117.3893177591823
 21
5.532740077313803
 31
0.0
 11
117.3918443006823
 21
5.579586556413801
 31
0.0
 11
117.3946572434823
 21
5.631444567213804
 31
0.0
 11
117.3978083829821
 21
5.689154562813826
 31
0.0
 11
117.4013569564823
 21
5.753631320713793
 31
0.0
  0
SPLINE
  5
580EA
330
1F
100
AcDbEntity
  8
1
100
AcDbSpline
210
0.0
220
0.0
230
1.0
 70
     8
 71
     3
 72
    14
 73
    10
 74
     8
 42
0.0000000001
 43
0.0000000001
 44
0.000001
 12
0.0506334838899357
 22
0.9987173024981432
 32
0.0
 13
0.0557805926463935
 23
0.9984430506964418
 33
0.0
 40
0.0
 40
0.0
 40
0.0
 40
0.0
 40
0.057350191359222
 40
0.1102663095490854
 40
0.1623615261918148
 40
0.2140997768049139
 40
0.26583908872362
 40
0.318298280189965
 40
0.3722868904524645
 40
0.3722868904524645
 40
0.3722868904524645
 40
0.3722868904524645
 10
117.3477356796824
 20
4.747383276513801
 30
0.0
 10
117.3487036263458
 20
4.766475485984472
 30
0.0
 10
117.3505804024968
 20
4.803182980271657
 30
0.0
 10
117.3533803291824
 20
4.857231017293145
 30
0.0
 10
117.3561239543153
 20
4.909408801788288
 30
0.0
 10
117.3588891713999
 20
4.961192622739815
 30
0.0
 10
117.3617021306323
 20
5.013095375397313
 30
0.0
 10
117.3645941054735
 20
5.065745050142623
 30
0.0
 10
117.3665601520902
 20
5.101173143569354
 30
0.0
 10
117.3675639909824
 20
5.119141327813792
 30
0.0
 11
117.3477356796824
 21
4.747383276513801
 31
0.0
 11
117.3506615735823
 21
4.804658785413835
 31
0.0
 11
117.3534003725823
 21
4.857503979313833
 31
0.0
 11
117.3561362919823
 21
4.90952730461376
 31
0.0
 11
117.3588950008824
 21
4.961191955513811
 31
0.0
 11
117.3616943860823
 21
5.012855481313806
 31
0.0
 11
117.3645699960824
 21
5.065235799113793
 31
0.0
 11
117.3675639909824
 21
5.119141327813792
 31
0.0
  0
SPLINE
  5
580EB
330
1F
100
AcDbEntity
  8
1
100
AcDbSpline
210
0.0
220
0.0
230
1.0
 70
     8
 71
     3
 72
    21
 73
    17
 74
    15
 42
0.0000000001
 43
0.0000000001
 44
0.000001
 12
0.0529856682432913
 22
0.9985952728512248
 32
0.0
 13
0.0561841220223891
 23
0.9984204246872023
 33
0.0
 40
0.0
 40
0.0
 40
0.0
 40
0.0
 40
0.0414828819672194
 40
0.0841943122598047
 40
0.1297373316847701
 40
0.1782820053246531
 40
0.2287344995063041
 40
0.2808102187466608
 40
0.3355674620594899
 40
0.3944642926659076
 40
0.458851696567743
 40
0.5297385936654799
 40
0.6078072277792839
 40
0.6930985299724492
 40
0.7831805019654397
 40
0.8730019523471236
 40
0.8730019523471236
 40
0.8730019523471236
 40
0.8730019523471236
 10
117.2949770316824
 20
3.783445158913821
 30
0.0
 10
117.2957096977562
 20
3.797253362192719
 30
0.0
 10
117.2971991899129
 20
3.825278579289715
 30
0.0
 10
117.299508969018
 20
3.868462630022747
 30
0.0
 10
117.3019586029476
 20
3.913996493351078
 30
0.0
 10
117.3045618407396
 20
3.962106176738217
 30
0.0
 10
117.3072960930801
 20
4.012389521031821
 30
0.0
 10
117.3101542563369
 20
4.064740041912472
 30
0.0
 10
117.3131749376674
 20
4.119900659774401
 30
0.0
 10
117.3164263734511
 20
4.179158684408264
 30
0.0
 10
117.3199740080919
 20
4.243785095373766
 30
0.0
 10
117.3238696416497
 20
4.314792625718297
 30
0.0
 10
117.3281529245993
 20
4.39275733335927
 30
0.0
 10
117.3328042334108
 20
4.477109827770391
 30
0.0
 10
117.3377001137607
 20
4.565372390981281
 30
0.0
 10
117.3410563674063
 20
4.625246207601776
 30
0.0
 10
117.3427385471824
 20
4.655139397813798
 30
0.0
 11
117.2949770316824
 21
3.783445158913821
 31
0.0
 11
117.2971807509824
 21
3.824869464913831
 31
0.0
 11
117.2994616904822
 21
3.867519946413835
 31
0.0
 11
117.3019081371823
 21
3.912997209913783
 31
0.0
 11
117.3045305832824
 21
3.961470997613787
 31
0.0
 11
117.3072695235823
 21
4.011849091613839
 31
0.0
 11
117.3101079157824
 21
4.063847399713836
 31
0.0
 11
117.3131014274823
 21
4.118522755813842
 31
0.0
 11
117.3163273387823
 21
4.177331174713799
 31
0.0
 11
117.3198559286824
 21
4.241621818013868
 31
0.0
 11
117.3237403580823
 21
4.312402206313777
 31
0.0
 11
117.3280243621822
 21
4.390353209613834
 31
0.0
 11
117.3327218276823
 21
4.475515055613811
 31
0.0
 11
117.3377146908823
 21
4.565458554313806
 31
0.0
 11
117.3427385471824
 21
4.655139397813798
 31
0.0
  0
SPLINE
  5
580EC
330
1F
100
AcDbEntity
  8
1
100
AcDbSpline
210
0.0
220
0.0
230
1.0
 70
     8
 71
     3
 72
    19
 73
    15
 74
    13
 42
0.0000000001
 43
0.0000000001
 44
0.000001
 12
0.0538085030625013
 22
0.9985512730942629
 32
0.0
 13
0.0566763474465095
 23
0.9983926039590452
 33
0.0
 40
0.0
 40
0.0
 40
0.0
 40
0.0
 40
0.1007597027418551
 40
0.1918198452535826
 40
0.2745202637350736
 40
0.3490695689308283
 40
0.4156015672130394
 40
0.4753173843567466
 40
0.5306870848672142
 40
0.5841779499530544
 40
0.6379045465048278
 40
0.6921169630949377
 40
0.7463628106730279
 40
0.8000961225817516
 40
0.8000961225817516
 40
0.8000961225817516
 40
0.8000961225817516
 10
117.2055946161823
 20
2.152564445813794
 30
0.0
 10
117.2074018591068
 20
2.186102355630282
 30
0.0
 10
117.2108476343502
 20
2.249949389268692
 30
0.0
 10
117.2157989308784
 20
2.341322092563558
 30
0.0
 10
117.2202932309129
 20
2.423969941152904
 30
0.0
 10
117.2243582983616
 20
2.498453001518157
 30
0.0
 10
117.2280175863379
 20
2.565285271728697
 30
0.0
 10
117.2313452935915
 20
2.625732916642391
 30
0.0
 10
117.2344432712444
 20
2.681839580943972
 30
0.0
 10
117.2374459741733
 20
2.73595205638972
 30
0.0
 10
117.2404420534442
 20
2.789678542562228
 30
0.0
 10
117.2434690363671
 20
2.843655354963686
 30
0.0
 10
117.2465141130316
 20
2.89763339106085
 30
0.0
 10
117.2485479187306
 20
2.933568938081833
 30
0.0
 10
117.2495630546823
 20
2.951451251813807
 30
0.0
 11
117.2055946161823
 21
2.152564445813794
 31
0.0
 11
117.2110267129823
 21
2.2531776112138
 31
0.0
 11
117.2159537312822
 21
2.344104360913831
 31
0.0
 11
117.2204446207823
 21
2.426682753113823
 31
0.0
 11
117.2245072369823
 21
2.501121274113813
 31
0.0
 11
117.2281462626823
 21
2.567553646713804
 31
0.0
 11
117.2314256206823
 21
2.627179371613806
 31
0.0
 11
117.2344793622823
 21
2.682464812113835
 31
0.0
 11
117.2374430601822
 21
2.735873514913805
 31
0.0
 11
117.2404348233823
 21
2.789516750513826
 31
0.0
 11
117.2434704158823
 21
2.843644113213827
 31
0.0
 11
117.2465243885823
 21
2.897803925113805
 31
0.0
 11
117.2495630546823
 21
2.951451251813807
 31
0.0
  0
SPLINE
  5
580ED
330
1F
100
AcDbEntity
  8
1
100
AcDbSpline
210
0.0
220
0.0
230
1.0
 70
     8
 71
     3
 72
    19
 73
    15
 74
    13
 42
0.0000000001
 43
0.0000000001
 44
0.000001
 12
0.0538989856337871
 22
0.9985463931874416
 32
0.0
 13
0.0566953971756925
 23
0.9983915223694012
 33
0.0
 40
0.0
 40
0.0
 40
0.0
 40
0.0
 40
0.0481593295921332
 40
0.098185270736582
 40
0.1502228643354384
 40
0.2034551794315913
 40
0.2583157413557162
 40
0.3169186162271574
 40
0.3814642348523682
 40
0.4537562251744007
 40
0.5344728584699997
 40
0.6238599491698946
 40
0.7227951737312459
 40
0.8331341791522309
 40
0.8331341791522309
 40
0.8331341791522309
 40
0.8331341791522309
 10
117.1592929296823
 20
1.320718149313847
 30
0.0
 10
117.1601581760202
 20
1.336747924268024
 30
0.0
 10
117.1619269242464
 20
1.369428518830602
 30
0.0
 10
117.164642612482
 20
1.419429112895613
 30
0.0
 10
117.1674644337409
 20
1.471117428370689
 30
0.0
 10
117.1703890899431
 20
1.524414067539282
 30
0.0
 10
117.1734476691603
 20
1.579895075271053
 30
0.0
 10
117.1767264446033
 20
1.63914077007854
 30
0.0
 10
117.180344949767
 20
1.704187028305284
 30
0.0
 10
117.1843882888896
 20
1.776592300972566
 30
0.0
 10
117.1889101957305
 20
1.857264239122798
 30
0.0
 10
117.1939478586396
 20
1.946802284684054
 30
0.0
 10
117.1995607559207
 20
2.046197703918238
 30
0.0
 10
117.2035093782702
 20
2.11584393661414
 30
0.0
 10
117.2055946161823
 20
2.152564445813794
 30
0.0
 11
117.1592929296823
 21
1.320718149313847
 31
0.0
 11
117.1618940842824
 21
1.368807184813789
 31
0.0
 11
117.1646075256823
 21
1.418759483613825
 31
0.0
 11
117.1674441342824
 21
1.470719709113808
 31
0.0
 11
117.1703605573824
 21
1.523872080213777
 31
0.0
 11
117.1733804091822
 21
1.578649494613841
 31
0.0
 11
117.1766206459823
 21
1.637162699813814
 31
0.0
 11
117.1802046836823
 21
1.701608724613834
 31
0.0
 11
117.1842350903823
 21
1.773788273013792
 31
0.0
 11
117.1887521122823
 21
1.854378416213819
 31
0.0
 11
117.1937729932823
 21
1.943624383013798
 31
0.0
 11
117.1993509290823
 21
2.042402240313833
 31
0.0
 11
117.2055946161823
 21
2.152564445813794
 31
0.0
  0
SPLINE
  5
580EE
330
1F
100
AcDbEntity
  8
1
100
AcDbSpline
210
0.0
220
0.0
230
1.0
 70
     8
 71
     3
 72
    18
 73
    14
 74
    12
 42
0.0000000001
 43
0.0000000001
 44
0.000001
 12
0.0551823759458681
 22
0.9984762918492201
 32
0.0
 13
0.0569091249763605
 23
0.9983793625142823
 33
0.0
 40
0.0
 40
0.0
 40
0.0
 40
0.0
 40
0.1034938397612894
 40
0.2006097325419658
 40
0.2891938172656154
 40
0.3692262147891941
 40
0.4413512520562512
 40
0.5068294485227323
 40
0.5668484553409634
 40
0.6221055373332628
 40
0.6728349672626671
 40
0.7192927951927669
 40
0.7617176630757091
 40
0.7617176630757091
 40
0.7617176630757091
 40
0.7617176630757091
 10
117.1165491425823
 20
0.5602007860138088
 30
0.0
 10
117.1184528212403
 20
0.5946461677985156
 30
0.0
 10
117.1221528632252
 20
0.6614136369736912
 30
0.0
 10
117.127526277591
 20
0.7576616987142018
 30
0.0
 10
117.1324815854898
 20
0.8461004408291614
 30
0.0
 10
117.1369845054333
 20
0.9262211782524332
 30
0.0
 10
117.1410637254007
 20
0.9986516106276326
 30
0.0
 10
117.1447734146613
 20
1.064421152608929
 30
0.0
 10
117.1481694876532
 20
1.124576795046692
 30
0.0
 10
117.1512921831819
 20
1.1798237872311
 30
0.0
 10
117.1541656921383
 20
1.230557255614542
 30
0.0
 10
117.1568026447216
 20
1.277019862117583
 30
0.0
 10
117.1584881423129
 20
1.306599445129933
 30
0.0
 10
117.1592929296823
 20
1.320718149313847
 30
0.0
 11
117.1165491425823
 21
0.5602007860138088
 31
0.0
 11
117.1222787944823
 21
0.6635359011138462
 31
0.0
 11
117.1276892091823
 21
0.7605009668138223
 31
0.0
 11
117.1326446893823
 21
0.8489463355138013
 31
0.0
 11
117.1371350465823
 21
0.9288526639138012
 31
0.0
 11
117.1411903766824
 21
1.000863602513845
 31
0.0
 11
117.1448774621823
 21
1.066237906313801
 31
0.0
 11
117.1482606563823
 21
1.126161484013778
 31
0.0
 11
117.1513794671824
 21
1.181330480013798
 31
0.0
 11
117.1542482183823
 21
1.231978730913795
 31
0.0
 11
117.1568816489823
 21
1.278361861613802
 31
0.0
 11
117.1592929296823
 21
1.320718149313847
 31
0.0
  0
SPLINE
  5
580EF
330
1F
100
AcDbEntity
  8
1
100
AcDbSpline
210
0.0
220
0.0
230
1.0
 70
     8
 71
     3
 72
    35
 73
    31
 74
    29
 42
0.0000000001
 43
0.0000000001
 44
0.000001
 12
-0.9997588000473873
 22
0.0219622796587335
 32
0.0
 13
-0.9997134798575704
 23
0.0239365450946275
 33
0.0
 40
0.0
 40
0.0
 40
0.0
 40
0.0
 40
0.0118081673492176
 40
0.0222822366242736
 40
0.0327530550382619
 40
0.0433590149631518
 40
0.0539741574023054
 40
0.0645149775181756
 40
0.0750345937982198
 40
0.0858017850913135
 40
0.0971957269534614
 40
0.1095902395986828
 40
0.1233500969867721
 40
0.1387495719860577
 40
0.1559542409894859
 40
0.1751133089143439
 40
0.1963735911748492
 40
0.2198727665677798
 40
0.2457425206713473
 40
0.2743995879173826
 40
0.3068759725577284
 40
0.3437238901288031
 40
0.3832087795824758
 40
0.4225803659508803
 40
0.4609340524124818
 40
0.4990746022746159
 40
0.5393362348066982
 40
0.5840243330373287
 40
0.6333943674371425
 40
0.6872175244037897
 40
0.6872175244037897
 40
0.6872175244037897
 40
0.6872175244037897
 10
112.7086423992823
 20
-9.814230419586181
 30
0.0
 10
112.7047072928757
 20
-9.814143974828311
 30
0.0
 10
112.697281676077
 20
-9.813980673442131
 30
0.0
 10
112.6863666415554
 20
-9.813740117051565
 30
0.0
 10
112.6758522540707
 20
-9.813508003211694
 30
0.0
 10
112.6652908865297
 20
-9.813273366972282
 30
0.0
 10
112.6547061998726
 20
-9.813037807372182
 30
0.0
 10
112.6441503020514
 20
-9.812802226121846
 30
0.0
 10
112.633543746392
 20
-9.812564954956314
 30
0.0
 10
112.6226529007909
 20
-9.812320750237489
 30
0.0
 10
112.6111372600953
 20
-9.812061942694384
 30
0.0
 10
112.5986243305493
 20
-9.811780068994295
 30
0.0
 10
112.5847765785586
 20
-9.811467388487329
 30
0.0
 10
112.5693258686666
 20
-9.811117674066167
 30
0.0
 10
112.5520759039581
 20
-9.810726299048383
 30
0.0
 10
112.5328728621742
 20
-9.810289611187272
 30
0.0
 10
112.5115722171377
 20
-9.809804201422878
 30
0.0
 10
112.4880352779317
 20
-9.809266925254689
 30
0.0
 10
112.4620334104405
 20
-9.808672305438733
 30
0.0
 10
112.4330399552179
 20
-9.808007821657696
 30
0.0
 10
112.400388117799
 20
-9.807257533331238
 30
0.0
 10
112.364128020181
 20
-9.80642166360451
 30
0.0
 10
112.3255702108946
 20
-9.805529426850995
 30
0.0
 10
112.2865107024158
 20
-9.804621721028183
 30
0.0
 10
112.247899282472
 20
-9.803720291948422
 30
0.0
 10
112.2089913580631
 20
-9.802807803036955
 30
0.0
 10
112.1679726429944
 20
-9.801841575216599
 30
0.0
 10
112.1232119164422
 20
-9.800782455745149
 30
0.0
 10
112.0739320786964
 20
-9.799610834689048
 30
0.0
 10
112.0395441777316
 20
-9.798788561294117
 30
0.0
 10
112.0216082658822
 20
-9.798359114486174
 30
0.0
 11
112.7086423992823
 21
-9.814230419586181
 31
0.0
 11
112.6968370895823
 21
-9.813970648986185
 31
0.0
 11
112.6863655710823
 21
-9.813739497186134
 31
0.0
 11
112.6758973172824
 21
-9.813507753986158
 31
0.0
 11
112.6652939697823
 21
-9.813272367586165
 31
0.0
 11
112.6546814560823
 21
-9.813036145086158
 31
0.0
 11
112.6441432596824
 21
-9.812800975986164
 31
0.0
 11
112.6336262745823
 21
-9.812565709586181
 31
0.0
 11
112.6228617889823
 21
-9.812324344086164
 31
0.0
 11
112.6114707234822
 21
-9.812068341986218
 31
0.0
 11
112.5990793542823
 21
-9.811789214586156
 31
0.0
 11
112.5853230030824
 21
-9.811478608886204
 31
0.0
 11
112.5699274708823
 21
-9.811130159086161
 31
0.0
 11
112.5527272278824
 21
-9.810739934986173
 31
0.0
 11
112.5335731112824
 21
-9.810304389886198
 31
0.0
 11
112.5123183461822
 21
-9.809820074986163
 31
0.0
 11
112.4888252906824
 21
-9.809283804186179
 31
0.0
 11
112.4629622987823
 21
-9.808692342586198
 31
0.0
 11
112.4343127550822
 21
-9.808035723186208
 31
0.0
 11
112.4018449415823
 21
-9.807289635386155
 31
0.0
 11
112.3650068114823
 21
-9.806440398586147
 31
0.0
 11
112.3255324903823
 21
-9.80552690268621
 31
0.0
 11
112.2861715324824
 21
-9.804612126786196
 31
0.0
 11
112.2478282939823
 21
-9.80371695288619
 31
0.0
 11
112.2096982278823
 21
-9.802822742186151
 31
0.0
 11
112.1694477597823
 21
-9.801874648286172
 31
0.0
 11
112.1247721654823
 21
-9.800817573886206
 31
0.0
 11
112.0754160752822
 21
-9.799644291286199
 31
0.0
 11
112.0216082658822
 21
-9.798359114486174
 31
0.0
  0
SPLINE
  5
580F0
330
1F
100
AcDbEntity
  8
1
100
AcDbSpline
210
0.0
220
0.0
230
1.0
 70
     8
 71
     3
 72
    59
 73
    55
 74
     0
 42
0.0000000001
 43
0.0000000001
 40
0.5997190317629693
 40
0.5997190317629693
 40
0.5997190317629693
 40
0.5997190317629693
 40
0.684339842132693
 40
0.8061574557202135
 40
0.9275732787535487
 40
1.046000163577517
 40
1.1032842756125
 40
1.158850984892509
 40
1.212631623664287
 40
1.265578398615363
 40
1.318898196141071
 40
1.373797915828377
 40
1.431484486291829
 40
1.493164873692021
 40
1.633335129267376
 40
1.683660908733054
 40
1.709374660182733
 40
1.735128616146675
 40
1.786144409303761
 40
1.836938527085473
 40
1.887877065326837
 40
1.938765000307538
 40
1.989373818213739
 40
2.014844338266077
 40
2.040608863195588
 40
2.066668358253504
 40
2.092662442786032
 40
2.142470098372601
 40
2.200137835925038
 40
2.250411190733589
 40
2.296722007862324
 40
2.34250205203934
 40
2.39045783888483
 40
2.440394995965394
 40
2.542534994332423
 40
2.643120743439355
 40
2.742569195665789
 40
2.842434026966662
 40
2.942604145139917
 40
3.142640648521602
 40
3.342678195444423
 40
3.542716967983567
 40
3.742756858739761
 40
3.942797905110756
 40
4.142840431616568
 40
4.342884165788308
 40
4.54292908818257
 40
4.742975305853113
 40
4.943022796709585
 40
5.143071158495579
 40
5.343122129372068
 40
5.543173486775771
 40
5.743226697041677
 40
5.94328301938217
 40
5.94328301938217
 40
5.94328301938217
 40
5.94328301938217
 10
112.7086423890388
 20
-9.814230701803268
 30
0.0
 10
112.7227365765062
 20
-9.814742272441321
 30
0.0
 10
112.7571205197867
 20
-9.815985303652269
 30
0.0
 10
112.8117279957868
 20
-9.817937936823284
 30
0.0
 10
112.8719665219122
 20
-9.82008337822603
 30
0.0
 10
112.9214559978494
 20
-9.821853934028865
 30
0.0
 10
112.9599771043916
 20
-9.823246926870979
 30
0.0
 10
112.9877305152416
 20
-9.824260449169344
 30
0.0
 10
113.0147610390979
 20
-9.825260609907331
 30
0.0
 10
113.041417188106
 20
-9.826250832686611
 30
0.0
 10
113.0682599495898
 20
-9.827241856769376
 30
0.0
 10
113.0958927241366
 20
-9.828246104219289
 30
0.0
 10
113.1249189071817
 20
-9.829276061631844
 30
0.0
 10
113.1681494938526
 20
-9.830764756005976
 30
0.0
 10
113.2101565665531
 20
-9.832135634038564
 30
0.0
 10
113.2461740177868
 20
-9.833259778686198
 30
0.0
 10
113.2631326786009
 20
-9.833744799096507
 30
0.0
 10
113.2802074423696
 20
-9.834191407889022
 30
0.0
 10
113.3014634214735
 20
-9.834644143446723
 30
0.0
 10
113.3269185916203
 20
-9.8350363741107
 30
0.0
 10
113.3523540809179
 20
-9.835301147420636
 30
0.0
 10
113.3777596643862
 20
-9.835442144903595
 30
0.0
 10
113.3989209859189
 20
-9.835455193222912
 30
0.0
 10
113.4158948625302
 20
-9.83539024898306
 30
0.0
 10
113.428776998297
 20
-9.835300729431878
 30
0.0
 10
113.441746029882
 20
-9.835168876161844
 30
0.0
 10
113.4587215755479
 20
-9.834955650394817
 30
0.0
 10
113.4809639547454
 20
-9.834618472427337
 30
0.0
 10
113.5072518732081
 20
-9.834186863827341
 30
0.0
 10
113.5329564538666
 20
-9.833728914049345
 30
0.0
 10
113.5566796202368
 20
-9.833282287608824
 30
0.0
 10
113.5800164967667
 20
-9.832837840423536
 30
0.0
 10
113.6039579254707
 20
-9.832396332636989
 30
0.0
 10
113.6372912810618
 20
-9.831792535171445
 30
0.0
 10
113.6793950146924
 20
-9.831038518089599
 30
0.0
 10
113.7297488875255
 20
-9.830113520565561
 30
0.0
 10
113.7797233698437
 20
-9.829181524320659
 30
0.0
 10
113.8296285331497
 20
-9.828247649794917
 30
0.0
 10
113.8962952880985
 20
-9.826992163364025
 30
0.0
 10
113.9796541174147
 20
-9.825400183276087
 30
0.0
 10
114.0796541251292
 20
-9.823461150683499
 30
0.0
 10
114.1796540931634
 20
-9.821491184359558
 30
0.0
 10
114.2796540409234
 20
-9.819490816114381
 30
0.0
 10
114.3796539984038
 20
-9.817459881578997
 30
0.0
 10
114.4796539712653
 20
-9.815398388073845
 30
0.0
 10
114.5796539573829
 20
-9.813306418913327
 30
0.0
 10
114.6796539148128
 20
-9.811183888765413
 30
0.0
 10
114.7796538481046
 20
-9.809030931323036
 30
0.0
 10
114.8796536852409
 20
-9.806847103679018
 30
0.0
 10
114.9796536777669
 20
-9.804634297360792
 30
0.0
 10
115.0796536118736
 20
-9.802389938073758
 30
0.0
 10
115.1796536547919
 20
-9.800114633743788
 30
0.0
 10
115.27965390426
 20
-9.797809394532038
 30
0.0
 10
115.3463206356315
 20
-9.796251858470384
 30
0.0
 10
115.3796541518824
 20
-9.795468470086149
 30
0.0
  0
ARC
  5
580F1
330
1F
100
AcDbEntity
  8
1
100
AcDbCircle
 10
107.4846540087823
 20
12.21502818101385
 30
0.0
 40
3.0
100
AcDbArc
 50
270.0
 51
303.5495889999986
  0
ARC
  5
580F2
330
1F
100
AcDbEntity
  8
1
100
AcDbCircle
 10
115.4379410087823
 20
-7.693445318986164
 30
0.0
 40
2.037488499999998
100
AcDbArc
 50
340.4821559999991
 51
348.1300820000011
  0
ARC
  5
580F3
330
1F
100
AcDbEntity
  8
1
100
AcDbCircle
 10
115.4268320087823
 20
-7.688374818986176
 30
0.0
 40
2.049654
100
AcDbArc
 50
332.9637470000022
 51
340.4523199999968
  0
ARC
  5
580F4
330
1F
100
AcDbEntity
  8
1
100
AcDbCircle
 10
115.4177330087824
 20
-7.683364318986178
 30
0.0
 40
2.060036
100
AcDbArc
 50
329.5494119999998
 51
332.9546519999998
  0
ARC
  5
580F5
330
1F
100
AcDbEntity
  8
1
100
AcDbCircle
 10
115.2310690087823
 20
-7.744994318986158
 30
0.0
 40
2.194693999999999
100
AcDbArc
 50
333.4042630000009
 51
333.4080050525543
  0
ARC
  5
580F6
330
1F
100
AcDbEntity
  8
1
100
AcDbCircle
 10
115.4398340087823
 20
-6.891573318986161
 30
0.0
 40
2.901941499999998
100
AcDbArc
 50
273.3418310000049
 51
274.0609489999987
  0
ARC
  5
580F7
330
1F
100
AcDbEntity
  8
1
100
AcDbCircle
 10
115.4398340087823
 20
6.891629681013824
 30
0.0
 40
2.901941499999998
100
AcDbArc
 50
85.9390510000013
 51
86.65816900000173
  0
ARC
  5
580F8
330
1F
100
AcDbEntity
  8
1
100
AcDbCircle
 10
113.4130845087824
 20
-4.884955818986156
 30
0.0
 40
5.546476999999997
100
AcDbArc
 50
303.8341630000055
 51
305.3736739999941
  0
ARC
  5
580F9
330
1F
100
AcDbEntity
  8
1
100
AcDbCircle
 10
107.4846540087823
 20
-12.21497181898616
 30
0.0
 40
3.0
100
AcDbArc
 50
56.45041099999363
 51
90.0
  0
LINE
  5
580FA
330
1F
100
AcDbEntity
  8
1
100
AcDbLine
 10
117.4749515087823
 20
-7.649484318986168
 30
0.0
 11
117.4749795087823
 21
-7.662857318986169
 31
0.0
  0
LINE
  5
580FB
330
1F
100
AcDbEntity
  8
1
100
AcDbLine
 10
117.4748240087823
 20
-7.746577318986169
 30
0.0
 11
117.4698335087823
 21
-7.839909818986143
 31
0.0
  0
LINE
  5
580FC
330
1F
100
AcDbEntity
  8
1
100
AcDbLine
 10
117.4749795087823
 20
-7.662857318986169
 30
0.0
 11
117.4748240087823
 21
-7.746577318986169
 31
0.0
  0
LINE
  5
580FD
330
1F
100
AcDbEntity
  8
1
100
AcDbLine
 10
117.3427385087824
 20
-4.655082818986159
 30
0.0
 11
117.3477355087824
 21
-4.747326818986152
 31
0.0
  0
LINE
  5
580FE
330
1F
100
AcDbEntity
  8
1
100
AcDbLine
 10
117.0841060087823
 20
-0.2281843189861661
 30
0.0
 11
117.0990700087824
 21
-0.256088818986143
 31
0.0
  0
LINE
  5
580FF
330
1F
100
AcDbEntity
  8
1
100
AcDbLine
 10
117.0990700087824
 20
-0.256088818986143
 30
0.0
 11
117.1165490087824
 21
-0.5601443189861755
 31
0.0
  0
LINE
  5
58100
330
1F
100
AcDbEntity
  8
1
100
AcDbLine
 10
115.5467630087822
 20
9.791551681013856
 30
0.0
 11
115.6089965087823
 21
9.788636681013827
 31
0.0
  0
LINE
  5
58101
330
1F
100
AcDbEntity
  8
1
100
AcDbLine
 10
115.3796540087822
 20
9.79552468101383
 30
0.0
 11
115.5467630087822
 21
9.791551681013856
 31
0.0
  0
LINE
  5
58102
330
1F
100
AcDbEntity
  8
1
100
AcDbLine
 10
115.5467630087822
 20
-9.791495318986164
 30
0.0
 11
115.6089965087823
 21
-9.788580318986163
 31
0.0
  0
LINE
  5
58103
330
1F
100
AcDbEntity
  8
1
100
AcDbLine
 10
117.0841060087823
 20
0.2282406810138298
 30
0.0
 11
117.0839980087823
 21
0.0795006810138261
 31
0.0
  0
LINE
  5
58104
330
1F
100
AcDbEntity
  8
1
100
AcDbLine
 10
117.0839980087823
 20
-0.0794443189861909
 30
0.0
 11
117.0841108307617
 21
-0.2281933108951648
 31
0.0
  0
LINE
  5
58105
330
1F
100
AcDbEntity
  8
1
100
AcDbLine
 10
117.0839980087823
 20
0.0795006810138261
 30
0.0
 11
117.0839980087823
 21
-0.0794443189861909
 31
0.0
  0
LINE
  5
58106
330
1F
100
AcDbEntity
  8
1
100
AcDbLine
 10
117.474972169996
 20
7.666864826924381
 30
0.0
 11
117.4747349380658
 21
7.794588667390939
 31
0.0
  0
LINE
  5
58107
330
1F
100
AcDbEntity
  8
1
100
AcDbLine
 10
115.3796540087822
 20
-9.795468318986195
 30
0.0
 11
115.5467630087822
 21
-9.791495318986164
 31
0.0
  0
LINE
  5
58108
330
1F
100
AcDbEntity
  8
1
100
AcDbLine
 10
117.0841060083515
 20
0.2282400877465989
 30
0.0
 11
117.0990700087824
 21
0.2561451810138351
 31
0.0
  0
LINE
  5
58109
330
1F
100
AcDbEntity
  8
1
100
AcDbLine
 10
117.0990700087824
 20
0.2561451810138351
 30
0.0
 11
117.1165490087824
 21
0.5602006810138392
 31
0.0
  0
LINE
  5
5810A
330
1F
100
AcDbEntity
  8
1
100
AcDbLine
 10
102.4846540087823
 20
-9.214971818986157
 30
0.0
 11
102.4846540087823
 21
-8.734132818985585
 31
0.0
  0
LINE
  5
5810B
330
1F
100
AcDbEntity
  8
1
100
AcDbLine
 10
102.4846540087823
 20
8.148757589931861
 30
0.0
 11
102.4846540087823
 21
9.215028181013849
 31
0.0
  0
LINE
  5
5810C
330
1F
100
AcDbEntity
  8
1
100
AcDbLine
 10
107.4846540087823
 20
9.215028181013849
 30
0.0
 11
102.4846540087823
 21
9.215028181013849
 31
0.0
  0
LINE
  5
5810D
330
1F
100
AcDbEntity
  8
1
100
AcDbLine
 10
103.2623780087823
 20
-9.214971818986157
 30
0.0
 11
103.2623780087823
 21
-8.734132818985585
 31
0.0
  0
LINE
  5
5810E
330
1F
100
AcDbEntity
  8
1
100
AcDbLine
 10
103.2623780087823
 20
7.91608127192973
 30
0.0
 11
103.2623780087823
 21
9.215028181013821
 31
0.0
  0
LINE
  5
5810F
330
1F
100
AcDbEntity
  8
1
100
AcDbLine
 10
107.4440765087823
 20
-9.214971818986157
 30
0.0
 11
107.4846540087823
 21
-9.214971818986157
 31
0.0
  0
LINE
  5
58110
330
1F
100
AcDbEntity
  8
1
100
AcDbLine
 10
102.4846540087823
 20
-9.214971818986157
 30
0.0
 11
107.4440765087823
 21
-9.214971818986157
 31
0.0
  0
ARC
  5
58111
102
{ACAD_REACTORS
330
58114
102
}
330
1F
100
AcDbEntity
  8
1
100
AcDbCircle
 10
115.4747383879239
 20
7.790873910301144
 30
0.0
 40
2.0
100
AcDbArc
 50
0.1064200127673506
 51
81.40864008301477
  0
DIMENSION
  5
58112
102
{ACAD_XDICTIONARY
360
58113
102
}
102
{ACAD_REACTORS
330
58114
102
}
330
1F
100
AcDbEntity
  8
2
100
AcDbDimension
  2
*D132
 10
115.4747383879239
 20
7.790873910301144
 30
0.0
 11
136.9643379439586
 21
26.95659018613318
 31
0.0
 70
    36
 71
     5
 42
1.999999999999587
  3
\M+18352\M+18373\M+1815B - ISO-25
100
AcDbRadialDimension
 15
117.1397507302895
 25
8.898905453069083
 35
0.0
 40
0.0
1001
ACAD
1000
DSTYLE
1002
{
1070
     4
1000
"
1070
    40
1040
1.0
1070
   143
1040
0.03937
1070
   170
1070
     1
1070
   171
1070
     4
1070
   271
1070
     8
1070
   285
1070
     4
1002
}
  0
LINE
  5
58115
330
1F
100
AcDbEntity
  8
1
100
AcDbLine
 10
117.3427385471824
 20
4.655139397813798
 30
0.0
 11
117.3477356796824
 21
4.747383276513801
 31
0.0
  0
SPLINE
  5
58116
330
1F
100
AcDbEntity
  8
1
100
AcDbSpline
210
0.0
220
0.0
230
1.0
 70
     8
 71
     3
 72
    19
 73
    15
 74
    13
 42
0.0000000001
 43
0.0000000001
 44
0.000001
 12
0.053973225975107
 22
0.9985423831154289
 32
0.0
 13
0.0556055887574507
 23
0.9984528123546636
 33
0.0
 40
0.0
 40
0.0
 40
0.0
 40
0.0
 40
0.1074676643135343
 40
0.2056032265421363
 40
0.2931078829038185
 40
0.3705032989617901
 40
0.4392331727926783
 40
0.5010157422127923
 40
0.5581652280587029
 40
0.6130978806274286
 40
0.6678713714535015
 40
0.7230469116259832
 40
0.7781499500078169
 40
0.8332325007367217
 40
0.8332325007367217
 40
0.8332325007367217
 40
0.8332325007367217
 10
117.2495630546823
 20
2.951451251813807
 30
0.0
 10
117.2514965135259
 20
2.987221591024308
 30
0.0
 10
117.255199472171
 20
3.055655890902528
 30
0.0
 10
117.260504360927
 20
3.153214394815393
 30
0.0
 10
117.2652613092548
 20
3.240763801783941
 30
0.0
 10
117.2694874098035
 20
3.318525697974962
 30
0.0
 10
117.2732515900096
 20
3.387726016325416
 30
0.0
 10
117.2766538141054
 20
3.450187403114057
 30
0.0
 10
117.2798112474874
 20
3.508056232046385
 30
0.0
 10
117.2828473129869
 20
3.563591848134365
 30
0.0
 10
117.2858553626657
 20
3.618470031011156
 30
0.0
 10
117.2888774174337
 20
3.673404325700801
 30
0.0
 10
117.2919174408226
 20
3.728440806774443
 30
0.0
 10
117.2939560657945
 20
3.765112716351495
 30
0.0
 10
117.2949770316824
 20
3.783445158913821
 30
0.0
 11
117.2495630546823
 21
2.951451251813807
 31
0.0
 11
117.2553735174823
 21
3.058761723013844
 31
0.0
 11
117.2606970417823
 21
3.156752787213804
 31
0.0
 11
117.2654453198823
 21
3.244128520213791
 31
0.0
 11
117.2696458211823
 21
3.321409864613826
 31
0.0
 11
117.2733792563823
 21
3.390038262513826
 31
0.0
 11
117.2767397951824
 21
3.451729369213808
 31
0.0
 11
117.2798535379824
 21
3.508793967013843
 31
0.0
 11
117.2828525256824
 21
3.563644695113794
 31
0.0
 11
117.2858508276823
 21
3.618336060613842
 31
0.0
 11
117.2888817983823
 21
3.673428287113779
 31
0.0
 11
117.2919220562824
 21
3.728447389413815
 31
0.0
 11
117.2949770316824
 21
3.783445158913821
 31
0.0
  0
LINE
  5
58117
330
1F
100
AcDbEntity
  8
cut
100
AcDbLine
 10
109.474972169996
 20
9.790397062814406
 30
0.0
 11
113.474972169996
 21
10.00002817991438
 31
0.0
1001
ACAD
1000
RTMaterial
1005
0
  0
LINE
  5
58118
330
1F
100
AcDbEntity
  8
cut
100
AcDbLine
 10
102.474972169996
 20
9.215028179914412
 30
0.0
 11
107.708290550196
 21
9.215028179914384
 31
0.0
1001
ACAD
1000
RTMaterial
1005
0
  0
LINE
  5
58119
330
1F
100
AcDbEntity
  8
cut
100
AcDbLine
 10
113.474972169996
 20
10.00002817991438
 30
0.0
 11
115.474972169996
 21
10.00002817991438
 31
0.0
1001
ACAD
1000
RTMaterial
1005
0
  0
LINE
  5
5811A
330
1F
100
AcDbEntity
  8
cut
100
AcDbLine
 10
117.474972169996
 20
7.5000281799133
 30
0.0
 11
117.474972169996
 21
8.00002817991438
 31
0.0
1001
ACAD
1000
RTMaterial
1005
0
  0
LINE
  5
5811B
330
1F
100
AcDbEntity
  8
cut
100
AcDbLine
 10
102.474972169996
 20
-9.21497181788564
 30
0.0
 11
102.474972169996
 21
9.215028179914412
 31
0.0
1001
ACAD
1000
RTMaterial
1005
0
  0
LINE
  5
5811C
330
1F
100
AcDbEntity
  8
cut
100
AcDbLine
 10
117.081913825396
 20
0.0000281799143806
 30
0.0
 11
117.474972169996
 21
7.50002817991438
 31
0.0
1001
ACAD
1000
RTMaterial
1005
0
  0
ARC
  5
5811D
330
1F
100
AcDbEntity
  8
cut
100
AcDbCircle
 10
107.708290550196
 20
12.21502817991438
 30
0.0
 40
3.0
100
AcDbArc
 50
270.0
 51
306.0785533250037
1001
ACAD
1000
RTMaterial
1005
0
  0
ARC
  5
5811E
330
1F
100
AcDbEntity
  8
cut
100
AcDbCircle
 10
115.474972169996
 20
8.00002817991438
 30
0.0
 40
2.0
100
AcDbArc
 50
0.0
 51
90.0
1001
ACAD
1000
RTMaterial
1005
0
  0
LINE
  5
5811F
330
1F
100
AcDbEntity
  8
cut
100
AcDbLine
 10
109.4749721685215
 20
-9.790340701839937
 30
0.0
 11
113.4749721684899
 21
-9.999971819542366
 31
0.0
1001
ACAD
1000
RTMaterial
1005
0
  0
LINE
  5
58120
330
1F
100
AcDbEntity
  8
cut
100
AcDbLine
 10
102.4749721686081
 20
-9.21497181788564
 30
0.0
 11
107.7082905488081
 21
-9.214971818673831
 31
0.0
1001
ACAD
1000
RTMaterial
1005
0
  0
LINE
  5
58121
330
1F
100
AcDbEntity
  8
cut
100
AcDbLine
 10
113.4749721684899
 20
-9.999971819542366
 30
0.0
 11
115.4749721684899
 21
-9.999971819843608
 31
0.0
1001
ACAD
1000
RTMaterial
1005
0
  0
LINE
  5
58122
330
1F
100
AcDbEntity
  8
cut
100
AcDbLine
 10
117.4749721688664
 20
-7.499971820143741
 30
0.0
 11
117.4749721687911
 21
-7.999971820144821
 31
0.0
1001
ACAD
1000
RTMaterial
1005
0
  0
LINE
  5
58123
330
1F
100
AcDbEntity
  8
cut
100
AcDbLine
 10
117.081913825396
 20
0.0000281799143806
 30
0.0
 11
117.4749721688664
 21
-7.499971820144821
 31
0.0
1001
ACAD
1000
RTMaterial
1005
0
  0
ARC
  5
58124
330
1F
100
AcDbEntity
  8
cut
100
AcDbCircle
 10
107.7082905483563
 20
-12.21497181867383
 30
0.0
 40
3.0
100
AcDbArc
 50
53.92144666637268
 51
89.99999999136925
1001
ACAD
1000
RTMaterial
1005
0
  0
ARC
  5
58125
330
1F
100
AcDbEntity
  8
cut
100
AcDbCircle
 10
115.4749721687911
 20
-7.999971819843608
 30
0.0
 40
2.0
100
AcDbArc
 50
269.9999999913692
 51
359.9999999913692
1001
ACAD
1000
RTMaterial
1005
0
  0
VIEWPORT
  5
6B
102
{ACAD_XDICTIONARY
360
58434
102
}
330
50
100
AcDbEntity
 67
     1
  8
0
100
AcDbViewport
 10
150.1652135264906
 20
160.4455827878762
 30
0.0
 40
339.1973820494346
 41
282.2272140146125
 68
     1
 69
     1
 12
150.1652135264906
 22
160.4455827878762
 13
0.0
 23
0.0
 14
10.0
 24
10.0
 15
10.0
 25
10.0
 16
0.0
 26
0.0
 36
1.0
 17
0.0
 27
0.0
 37
0.0
 42
50.0
 43
0.0
 44
0.0
 45
282.2272140146125
 50
0.0
 51
0.0
 72
  1000
 90
    32864
  1

281
     0
 71
     1
 74
     0
110
0.0
120
0.0
130
0.0
111
1.0
121
0.0
131
0.0
112
0.0
122
1.0
132
0.0
 79
     0
146
0.0
  0
VIEWPORT
  5
6D
102
{ACAD_XDICTIONARY
360
58436
102
}
330
50
100
AcDbEntity
 67
     1
  8
0
100
AcDbViewport
 10
133.3499939441681
 20
101.5999939441681
 30
0.0
 40
213.3599903106689
 41
162.5599903106689
 68
     2
 69
     2
 12
210.0
 22
148.5
 13
0.0
 23
0.0
 14
10.0
 24
10.0
 15
10.0
 25
10.0
 16
0.0
 26
0.0
 36
1.0
 17
0.0
 27
0.0
 37
0.0
 42
50.0
 43
0.0
 44
0.0
 45
324.0677920111345
 50
0.0
 51
0.0
 72
   100
 90
    32864
  1

281
     0
 71
     1
 74
     0
110
0.0
120
0.0
130
0.0
111
1.0
121
0.0
131
0.0
112
0.0
122
1.0
132
0.0
 79
     0
146
0.0
  0
ENDSEC
  0
SECTION
  2
OBJECTS
  0
DICTIONARY
  5
C
330
0
100
AcDbDictionary
281
     1
  3
ACAD_COLOR
350
85
  3
ACAD_GROUP
350
D
  3
ACAD_LAYOUT
350
1A
  3
ACAD_MATERIAL
350
84
  3
ACAD_MLINESTYLE
350
17
  3
ACAD_PLOTSETTINGS
350
19
  3
ACAD_PLOTSTYLENAME
350
E
  3
ACAD_TABLESTYLE
350
A1
  3
ACDBHEADERROUNDTRIPXREC
350
5842F
  3
AcDbVariableDictionary
350
5E
  3
ASE_INDEX_DICTIONARY
350
349E9
  3
DWGPROPS
350
5842E
  0
DICTIONARY
  5
E2
330
2
100
AcDbDictionary
280
     1
281
     1
  3
ACAD_LAYERFILTERS
360
57051
  3
ACAD_LAYERSTATES
360
3759A
  3
ACLYDICTIONARY
360
57050
  0
DICTIONARY
  5
31EE
330
1F
100
AcDbDictionary
280
     1
281
     1
  3
ACAD_SORTENTS
360
31EF
  0
DICTIONARY
  5
3BEB2
330
680
100
AcDbDictionary
280
     1
281
     1
  3
ACAD_SORTENTS
360
56640
  0
DICTIONARY
  5
58438
330
71
100
AcDbDictionary
280
     1
281
     1
  3
ACAD_XREC_ROUNDTRIP
360
58439
  0
DICTIONARY
  5
5843A
330
73
100
AcDbDictionary
280
     1
281
     1
  3
ACAD_XREC_ROUNDTRIP
360
5843B
  0
DICTIONARY
  5
58113
330
58112
100
AcDbDictionary
280
     1
281
     1
  3
ACAD_DIMASSOC
360
58114
  0
DICTIONARY
  5
58434
330
6B
100
AcDbDictionary
280
     1
281
     1
  3
ACAD_XREC_ROUNDTRIP
360
58435
  0
DICTIONARY
  5
58436
330
6D
100
AcDbDictionary
280
     1
281
     1
  3
ACAD_XREC_ROUNDTRIP
360
58437
  0
DICTIONARY
  5
85
102
{ACAD_REACTORS
330
C
102
}
330
C
100
AcDbDictionary
281
     1
  0
DICTIONARY
  5
D
102
{ACAD_REACTORS
330
C
102
}
330
C
100
AcDbDictionary
281
     1
  0
DICTIONARY
  5
1A
102
{ACAD_REACTORS
330
C
102
}
330
C
100
AcDbDictionary
281
     1
  3
\M+1838C\M+18343\M+18341\M+18345\M+183671
350
51
  3
\M+1838C\M+18343\M+18341\M+18345\M+183672
350
56
  3
Model
350
22
  0
DICTIONARY
  5
84
102
{ACAD_REACTORS
330
C
102
}
330
C
100
AcDbDictionary
281
     1
  0
DICTIONARY
  5
17
102
{ACAD_REACTORS
330
C
102
}
330
C
100
AcDbDictionary
281
     1
  3
Standard
350
18
  0
DICTIONARY
  5
19
102
{ACAD_REACTORS
330
C
102
}
330
C
100
AcDbDictionary
281
     1
  0
ACDBDICTIONARYWDFLT
  5
E
102
{ACAD_REACTORS
330
C
102
}
330
C
100
AcDbDictionary
281
     1
  3
Normal
350
F
100
AcDbDictionaryWithDefault
340
F
  0
DICTIONARY
  5
A1
102
{ACAD_REACTORS
330
C
102
}
330
C
100
AcDbDictionary
281
     1
  3
Standard
350
A2
  0
DICTIONARY
  5
5842F
102
{ACAD_REACTORS
330
C
102
}
330
C
100
AcDbDictionary
281
     1
  0
DICTIONARY
  5
5E
102
{ACAD_REACTORS
330
C
102
}
330
C
100
AcDbDictionary
281
     1
  3
CTABLESTYLE
350
B8
  3
DIMASSOC
350
5F
  3
HIDETEXT
350
63
  3
PROJECTNAME
350
31CE
  0
DICTIONARY
  5
349E9
102
{ACAD_REACTORS
330
C
102
}
330
C
100
AcDbDictionary
281
     1
  3
ASEBlockHierarchyIndexRecord
350
349EA
1001
DCO15
1040
1842496176.844
  0
XRECORD
  5
5842E
102
{ACAD_REACTORS
330
C
102
}
330
C
100
AcDbXrecord
280
     1
  1
DWGPROPS COOKIE
  2

  3

  4

  6

  7

  8

  9

300
=
301
=
302
=
303
=
304
=
305
=
306
=
307
=
308
=
309
=
 40
2.855499097222222
 41
2455489.391063368
 42
2458572.966397581
  1

 90
        0
  0
DICTIONARY
  5
57051
102
{ACAD_REACTORS
330
E2
102
}
330
E2
100
AcDbDictionary
281
     1
  0
DICTIONARY
  5
3759A
102
{ACAD_REACTORS
330
E2
102
}
330
E2
100
AcDbDictionary
281
     1
  0
DICTIONARY
  5
57050
102
{ACAD_REACTORS
330
E2
102
}
330
E2
100
AcDbDictionary
281
     1
1001
ACAD
1000
<All
  0
SORTENTSTABLE
  5
31EF
102
{ACAD_REACTORS
330
31EE
102
}
330
31EE
100
AcDbSortentsTable
330
1F
331
68C
  5
3C6B0
331
55BF4
  5
55D48
  0
SORTENTSTABLE
  5
56640
102
{ACAD_REACTORS
330
3BEB2
102
}
330
3BEB2
100
AcDbSortentsTable
330
680
  0
XRECORD
  5
58439
102
{ACAD_REACTORS
330
58438
102
}
330
58438
100
AcDbXrecord
280
     1
102
SHADEPLOT
 70
     0
  0
XRECORD
  5
5843B
102
{ACAD_REACTORS
330
5843A
102
}
330
5843A
100
AcDbXrecord
280
     1
102
SHADEPLOT
 70
     0
  0
DIMASSOC
  5
58114
102
{ACAD_REACTORS
330
58113
102
}
330
58113
100
AcDbDimAssoc
330
58112
 90
        2
 70
     0
 71
     0
  1
AcDbOsnapPointRef
 72
     3
331
58111
 73
     2
 91
        0
 40
0.0
 10
0.0
 20
0.0
 30
0.0
 75
     0
  0
XRECORD
  5
58435
102
{ACAD_REACTORS
330
58434
102
}
330
58434
100
AcDbXrecord
280
     1
102
SHADEPLOT
 70
     0
  0
XRECORD
  5
58437
102
{ACAD_REACTORS
330
58436
102
}
330
58436
100
AcDbXrecord
280
     1
102
SHADEPLOT
 70
     0
  0
LAYOUT
  5
51
102
{ACAD_XDICTIONARY
360
B2
102
}
102
{ACAD_REACTORS
330
1A
102
}
330
1A
100
AcDbPlotSettings
  1

  2
none_device
  4
Letter_(8.50_x_11.00_Inches)
  6

 40
6.349999904632567
 41
6.349999904632567
 42
6.350006103515625
 43
6.350006103515625
 44
215.8999938964844
 45
279.3999938964844
 46
0.0
 47
0.0
 48
0.0
 49
0.0
140
0.0
141
0.0
142
1.0
143
1.0
 70
   688
 72
     1
 73
     1
 74
     5
  7

 75
    16
147
1.0
148
0.0
149
0.0
100
AcDbLayout
  1
\M+1838C\M+18343\M+18341\M+18345\M+183671
 70
     1
 71
     1
 10
-6.350006103515625
 20
-6.349999904632567
 11
273.0499877929688
 21
209.5499939918518
 12
0.0
 22
0.0
 32
0.0
 14
26.66999878883364
 24
20.31999878883365
 34
0.0
 15
240.0299890995025
 25
182.8799890995025
 35
0.0
146
0.0
 13
0.0
 23
0.0
 33
0.0
 16
1.0
 26
0.0
 36
0.0
 17
0.0
 27
1.0
 37
0.0
 76
     0
330
50
331
6B
  0
LAYOUT
  5
56
102
{ACAD_XDICTIONARY
360
B5
102
}
102
{ACAD_REACTORS
330
1A
102
}
330
1A
100
AcDbPlotSettings
  1

  2
none_device
  4
Letter_(8.50_x_11.00_Inches)
  6

 40
6.349999904632567
 41
6.349999904632567
 42
6.350006103515625
 43
6.350006103515625
 44
215.8999938964844
 45
279.3999938964844
 46
0.0
 47
0.0
 48
0.0
 49
0.0
140
0.0
141
0.0
142
1.0
143
1.0
 70
   688
 72
     1
 73
     1
 74
     5
  7

 75
    16
147
1.0
148
0.0
149
0.0
100
AcDbLayout
  1
\M+1838C\M+18343\M+18341\M+18345\M+183672
 70
     1
 71
     2
 10
-6.350006103515625
 20
-6.349999904632567
 11
273.0499877929688
 21
209.5499939918518
 12
0.0
 22
0.0
 32
0.0
 14
26.66999878883363
 24
20.31999878883363
 34
0.0
 15
240.0299890995026
 25
182.8799890995025
 35
0.0
146
0.0
 13
0.0
 23
0.0
 33
0.0
 16
1.0
 26
0.0
 36
0.0
 17
0.0
 27
1.0
 37
0.0
 76
     0
330
55
331
71
  0
LAYOUT
  5
22
102
{ACAD_XDICTIONARY
360
58430
102
}
102
{ACAD_REACTORS
330
1A
102
}
330
1A
100
AcDbPlotSettings
  1

  2
none_device
  4
ANSI_A_(8.50_x_11.00_Inches)
  6

 40
6.349999904632567
 41
19.04999923706055
 42
6.350006103515625
 43
19.04998779296875
 44
215.8999938964844
 45
279.3999938964844
 46
0.0
 47
0.0
 48
0.0
 49
0.0
140
0.0
141
0.0
142
1.0
143
78.436453180766
 70
 11952
 72
     0
 73
     1
 74
     0
  7

 75
     0
147
0.0127491741332998
148
0.0
149
0.0
100
AcDbLayout
  1
Model
 70
     1
 71
     0
 10
0.0
 20
0.0
 11
12.0
 21
9.0
 12
0.0
 22
0.0
 32
0.0
 14
0.0
 24
0.0
 34
0.0
 15
0.0
 25
0.0
 35
0.0
146
0.0
 13
0.0
 23
0.0
 33
0.0
 16
1.0
 26
0.0
 36
0.0
 17
0.0
 27
1.0
 37
0.0
 76
     0
330
1F
  0
MLINESTYLE
  5
18
102
{ACAD_REACTORS
330
17
102
}
330
17
100
AcDbMlineStyle
  2
STANDARD
 70
     0
  3

 62
   256
 51
90.0
 52
90.0
 71
     2
 49
0.5
 62
   256
  6
BYLAYER
 49
-0.5
 62
   256
  6
BYLAYER
  0
ACDBPLACEHOLDER
  5
F
102
{ACAD_REACTORS
330
E
102
}
330
E
  0
TABLESTYLE
  5
A2
102
{ACAD_REACTORS
330
A1
102
}
330
A1
100
AcDbTableStyle
  3
Standard
 70
     0
 71
     0
 40
1.5
 41
1.5
280
     0
281
     0
  7
Standard
140
4.5
170
     2
 62
     0
 63
     7
283
     0
274
    -2
284
     1
 64
     0
275
    -2
285
     1
 65
     0
276
    -2
286
     1
 66
     0
277
    -2
287
     1
 67
     0
278
    -2
288
     1
 68
     0
279
    -2
289
     1
 69
     0
  7
Standard
140
6.0
170
     5
 62
     0
 63
     7
283
     0
274
    -2
284
     1
 64
     0
275
    -2
285
     1
 65
     0
276
    -2
286
     1
 66
     0
277
    -2
287
     1
 67
     0
278
    -2
288
     1
 68
     0
279
    -2
289
     1
 69
     0
  7
Standard
140
4.5
170
     5
 62
     0
 63
     7
283
     0
274
    -2
284
     1
 64
     0
275
    -2
285
     1
 65
     0
276
    -2
286
     1
 66
     0
277
    -2
287
     1
 67
     0
278
    -2
288
     1
 68
     0
279
    -2
289
     1
 69
     0
  0
DICTIONARYVAR
  5
B8
102
{ACAD_REACTORS
330
5E
102
}
330
5E
100
DictionaryVariables
280
     0
  1
STANDARD
  0
DICTIONARYVAR
  5
5F
102
{ACAD_REACTORS
330
5E
102
}
330
5E
100
DictionaryVariables
280
     0
  1
2
  0
DICTIONARYVAR
  5
63
102
{ACAD_REACTORS
330
5E
102
}
330
5E
100
DictionaryVariables
280
     0
  1
1
  0
DICTIONARYVAR
  5
31CE
102
{ACAD_REACTORS
330
5E
102
}
330
5E
100
DictionaryVariables
280
     0
  1

  0
XRECORD
  5
349EA
102
{ACAD_REACTORS
330
349E9
102
}
330
349E9
100
AcDbXrecord
280
     1
330
68C
330
0
330
0
330
0
330
0
330
0
330
0
330
0
330
0
330
0
330
0
330
0
330
0
330
0
330
0
330
0
330
0
330
0
330
0
330
0
330
0
330
0
330
0
330
0
330
0
330
0
330
0
330
0
330
0
330
0
330
0
330
0
330
0
330
0
330
0
330
0
330
0
330
0
330
0
330
0
330
0
330
0
330
0
330
0
330
0
330
0
330
0
330
0
330
0
330
0
330
0
330
0
330
0
330
0
330
0
330
0
330
0
330
0
330
0
330
0
330
0
330
0
330
0
330
0
330
0
330
0
330
0
330
0
330
0
330
0
330
0
330
0
330
0
330
0
330
0
330
0
330
0
330
0
330
0
330
0
330
0
330
0
330
0
330
0
330
0
330
0
330
0
330
0
330
0
330
0
330
0
330
0
330
0
330
0
330
0
330
0
330
0
330
0
330
0
330
0
330
0
330
0
330
0
330
0
330
0
330
0
330
0
330
0
330
0
330
0
  0
DICTIONARY
  5
B2
330
51
100
AcDbDictionary
280
     1
281
     1
  3
ACAD_XREC_ROUNDTRIP
360
58432
  3
ADSK_XREC_LAYOUTTHUMBNAIL
360
B3
  0
DICTIONARY
  5
B5
330
56
100
AcDbDictionary
280
     1
281
     1
  3
ACAD_XREC_ROUNDTRIP
360
58433
  3
ADSK_XREC_LAYOUTTHUMBNAIL
360
B6
  0
DICTIONARY
  5
58430
330
22
100
AcDbDictionary
280
     1
281
     1
  3
ACAD_XREC_ROUNDTRIP
360
58431
  0
XRECORD
  5
58432
102
{ACAD_REACTORS
330
B2
102
}
330
B2
100
AcDbXrecord
280
     1
102
SHADEPLOT
 70
     0
102
SHADEPLOTRESLEVEL
 70
     2
102
SHADEPLOTCUSTOMDPI
 70
   300
  0
XRECORD
  5
B3
102
{ACAD_REACTORS
330
B2
102
}
330
B2
100
AcDbXrecord
280
     1
310
28000000B40000008B0000000100080000000000BC61000000000000000000000001000000000000FFFFFF0000000000FFFFFF000000000000000000000000000000000000000000000000000000000000000000330000006600000099000000CC000000FF00000000330000333300006633000099330000CC330000FF3300
310
0000660000336600006666000099660000CC660000FF66000000990000339900006699000099990000CC990000FF99000000CC000033CC000066CC000099CC0000CCCC0000FFCC000000FF000033FF000066FF000099FF0000CCFF0000FFFF000000003300330033006600330099003300CC003300FF003300003333003333
310
33006633330099333300CC333300FF33330000663300336633006666330099663300CC663300FF66330000993300339933006699330099993300CC993300FF99330000CC330033CC330066CC330099CC3300CCCC3300FFCC330000FF330033FF330066FF330099FF3300CCFF3300FFFF330000006600330066006600660099
310
006600CC006600FF00660000336600333366006633660099336600CC336600FF33660000666600336666006666660099666600CC666600FF66660000996600339966006699660099996600CC996600FF99660000CC660033CC660066CC660099CC6600CCCC6600FFCC660000FF660033FF660066FF660099FF6600CCFF6600
310
FFFF660000009900330099006600990099009900CC009900FF00990000339900333399006633990099339900CC339900FF33990000669900336699006666990099669900CC669900FF66990000999900339999006699990099999900CC999900FF99990000CC990033CC990066CC990099CC9900CCCC9900FFCC990000FF99
310
0033FF990066FF990099FF9900CCFF9900FFFF99000000CC003300CC006600CC009900CC00CC00CC00FF00CC000033CC003333CC006633CC009933CC00CC33CC00FF33CC000066CC003366CC006666CC009966CC00CC66CC00FF66CC000099CC003399CC006699CC009999CC00CC99CC00FF99CC0000CCCC0033CCCC0066CC
310
CC0099CCCC00CCCCCC00FFCCCC0000FFCC0033FFCC0066FFCC0099FFCC00CCFFCC00FFFFCC000000FF003300FF006600FF009900FF00CC00FF00FF00FF000033FF003333FF006633FF009933FF00CC33FF00FF33FF000066FF003366FF006666FF009966FF00CC66FF00FF66FF000099FF003399FF006699FF009999FF00CC
310
99FF00FF99FF0000CCFF0033CCFF0066CCFF0099CCFF00CCCCFF00FFCCFF0000FFFF0033FFFF0066FFFF0099FFFF00CCFFFF00FFFFFF00000000000D0D0D001A1A1A00282828003535350043434300505050005D5D5D006B6B6B00787878008686860093939300A1A1A100AEAEAE00BBBBBB00C9C9C900D6D6D600E4E4E400
310
F1F1F100FFFFFF0000000000000000000000000000000000000000000000000000000000000000000000000000000000E2E2E2E2E2E2E2E2E2E2E2E2E2E2E2E2E2E2E2E2E2E2E2E2E2E2E2E2E2E2E2E2E2E2E2E2E2E2E2E2E2E2E2E2E2E2E2E2E2E2E2E2E2E2E2E2E2E2E2E2E2E2E2E2E2E2E2E2E2E2E2E2E2E2E2E2E2E2E2
310
E2E2E2E2E2E2E2E2E2E2E2E2E2E2E2E2E2E2E2E2E2E2E2E2E2E2E2E2E2E2E2E2E2E2E2E2E2E2E2E2E2E2E2E2E2E2E2E2E2E2E2E2E2E2E2E2E2E2E2E2E2E2E2E2E2E2E2E2E2E2E2E2E2E2E2E2E2E2E2E2E2E2E2E2E2E2E2E2E2E2E2E2E2E2E2E2E2E2E2E2E2E2F5F5F5F5F5F5F5F5F5F5F5F5F5F5F5F5F5F5F5F5F5F5F5F5F5
310
F5F5F5F5F5F5F5F5F5F5F5F5F5F5F5F5F5F5F5F5F5F5F5F5F5F5F5F5F5F5F5F5F5F5F5F5F5F5F5F5F5F5F5F5F5F5F5F5F5F5F5F5F5F5F5F5F5F5F5F5F5F5F5F5F5F5F5F5F5F5F5F5F5F5F5F5F5F5F5F5F5F5F5F5F5F5F5F5F5F5F5F5F5F5F5F5F5F5F5F5F5F5F5F5F5F5F5F5F5F5F5F5F5F5F5F5F5F5F5F5F5F5F5F5F5F5F5
310
F5F5F5F5F5F5F5F5F5F5F5F5F5F5F5F5F5F5F5F5F5F5F5F5F5F5E2E2F5F5F5F5F5F5F5F5F5F5F5F5F5F5F5F5F5F5F5F5F5F5F5F5F5F5F5F5F5F5F5F5F5F5F5F5F5F5F5F5F5F5F5F5F5F5F5F5F5F5F5F5F5F5F5F5F5F5F5F5F5F5F5F5F5F5F5F5F5F5F5F5F5F5F5F5F5F5F5F5F5F5F5F5F5F5F5F5F5F5F5F5F5F5F5F5F5F5F5
310
F5F5F5F5F5F5F5F5F5F5F5F5F5F5F5F5F5F5F5F5F5F5F5F5F5F5F5F5F5F5F5F5F5F5F5F5F5F5F5F5F5F5F5F5F5F5F5F5F5F5F5F5F5F5F5F5F5F5F5F5F5F5F5F5F5F5F5F5F5F5F5F5F5F5F5F5F5F5F5E2E2F5F5F5F5F5F5F5F5F5F5F5F5F5F5F5F5F5F5F5F5F5F5F5F5F5F5F5F5F5F5F5F5F5F5F5F5F5F5F5F5F5F5F5F5F5F5
310
F5F5F5F5F5F5F5F5F5F5F5F5F5F5F5F5F5F5F5F5F5F5F5F5F5F5F5F5F5F5F5F5F5F5F5F5F5F5F5F5F5F5F5F5F5F5F5F5F5F5F5F5F5F5F5F5F5F5F5F5F5F5F5F5F5F5F5F5F5F5F5F5F5F5F5F5F5F5F5F5F5F5F5F5F5F5F5F5F5F5F5F5F5F5F5F5F5F5F5F5F5F5F5F5F5F5F5F5F5F5F5F5F5F5F5F5F5F5F5F5F5F5F5F5F5F5F5
310
F5F5F5F5F5E2E2F5F5F5F5E2E2E2E2E2E2E2E2F5F5F5F5F5F5F5F5F5E2E2E2E2E2E2E2E2E2E2E2E2E2E2E2F5F5F5F5F5F5F5F5F5E2E2E2E2E2E2E2E2E2E2E2E2E2E2E2E2F5F5F5F5F5F5F5F5E2E2E2E2E2E2E2E2E2E2E2E2E2E2E2E2F5F5F5F5F5F5F5F5E2E2E2E2E2E2E2E2E2E2E2E2E2E2E2E2F5F5F5F5F5F5F5F5E2E2E2
310
E2E2E2E2E2E2E2E2E2E2E2E2E2F5F5F5F5F5F5F5F5F5E2E2E2E2E2E2E2E2E2E2E2E2E2E2E2F5F5F5F5F5F5F5F5F5E2E2E2E2E2E2E2E2F5F5F5F5E2E2F5F5F5F5E2F5F5F5F5F5F5F5F5F5F5F5F5F5F5F5F5F5F5F5F5F5F5F5F5F5F5F5F5F5F5F5F5F5F5F5F5F5F5F5F5F5F5F5F5F5F5F5F5F5F5F5F5F5F5F5F5F5F5F5F5F5F5
310
F5F5F5F5F5F5F5F5F5F5F5F5F5F5F5F5F5F5F5F5F5F5F5F5F5F5F5F5F5F5F5F5F5F5F5F5F5F5F5F5F5F5F5F5F5F5F5F5F5F5F5F5F5F5F5F5F5F5F5F5F5F5F5F5F5F5F5F5F5F5F5F5F5F5F5F5F5F5F5F5F5F5F5F5F5F5F5F5F5F5F5F5F5F5F5F5F5F5F5F5F5F5F5F5F5F5E2F5F5F5F5E2E2F5F5F5F5E2F5F5F5F5F5F5F5F5F5
310
F5F5F5F5F5F5F5F5F5F5F5F5F5F5F5F5F5F5F5F5F5F5F5F5F5F5F5F5F5F5F5F5F5F5F5F5F5F5F5F5F5F5F5F5F5F5F5F5F5F5F5F5F5F5F5F5F5F5F5F5F5F5F5F5F5F5F5F5F5F5F5F5F5F5F5F5F5F5F5F5F5F5F5F5F5F5F5F5F5F5F5F5F5F5F5F5F5F5F5F5F5F5F5F5F5F5F5F5F5F5F5F5F5F5F5F5F5F5F5F5F5F5F5F5F5F5F5
310
F5F5F5F5F5F5F5F5F5F5F5F5F5F5F5F5F5F5F5F5F5F5F5F5F5F5F5F5F5F5F5F5E2F5F5F5F5E2E2F5F5F5F5E2F5F5F5F5F5F5F5F5F5F5F5F5F5F5F5F5F5F5F5F5F5F5F5F5F5F5F5F5F5F5F5F5F5F5F5F5F5F5F5F5F5F5F5F5F5F5F5F5F5F5F5F5F5F5F5F5F5F5F5F5F5F5F5F5F5F5F5F5F5F5F5F5F5F5F5F5F5F5F5F5F5F5F5
310
F5F5F5F5F5F5F5F5F5F5F5F5F5F5F5F5F5F5F5F5F5F5F5F5F5F5F5F5F5F5F5F5F5F5F5F5F5F5F5F5F5F5F5F5F5F5F5F5F5F5F5F5F5F5F5F5F5F5F5F5F5F5F5F5F5F5F5F5F5F5F5F5F5F5F5F5F5F5F5F5F5F5F5F5F5E2F5F5F5F5E2E2F5F5F5F5E2F5F5F5F5F5F5F5F5F5F5F5F5F5F5F5F5F5F5F5F5F5F5F5F5F5F5F5F5F5F5
310
F5F5F5F5F5F5F5F5F5F5F5F5F5F5F5F5F5F5F5F5F5F5F5F5F5F5F5F5F5F5F5F5F5F5F5F5F5F5F5F5F5F5F5F5F5F5F5F5F5F5F5F5F5F5F5F5F5F5F5F5F5F5F5F5F5F5F5F5F5F5F5F5F5F5F5F5F5F5F5F5F5F5F5F5F5F5F5F5F5F5F5F5F5F5F5F5F5F5F5F5F5F5F5F5F5F5F5F5F5F5F5F5F5F5F5F5F5F5F5F5F5F5F5F5F5F5F5
310
F5F5F5F5F5F5F5F5F5F5F5E2F5F5F5F5E2E2F5F5F5F5E2F5F5F5F5F5F5F5F5F5F5F5F5F5F5F5F5F5F5F5F5F5F5F5F5F5F5F5F5F5F5F5F5F5F5F5F5F5F5F5F5F5F5F5F5F5F5F5F5F5F5F5F5F5F5F5F5F5F5F5F5F5F5F5F5F5F5F5F5F5F5F5F5F5F5F5F5F5F5F5F5F5F5F5F5F5F5F5F5F5F5F5F5F5F5F5F5F5F5F5F5F5F5F5F5
310
F5F5F5F5F5F5F5F5F5F5F5F5F5F5F5F5F5F5F5F5F5F5F5F5F5F5F5F5F5F5F5F5F5F5F5F5F5F5F5F5F5F5F5F5F5F5F5F5F5F5F5F5F5F5F5F5F5F5F5F5F5F5F5F5E2F5F5F5F5E2E2F5F5F5F5E2F5F5F5F5F5F5F5F5F5F5F5F5F5F5F5F5F5F5F5F5F5F5F5F5F5F5F5F5F5F5F5F5F5F5F5F5F5F5F5F5F5F5F5F5F5F5F5F5F5F5F5
310
F5F5F5F5F5F5F5F5F5F5F5F5F5F5F5F5F5F5F5F5F5F5F5F5F5F5F5F5F5F5F5F5F5F5F5F5F5F5F5F5F5F5F5F5F5F5F5F5F5F5F5F5F5F5F5F5F5F5F5F5F5F5F5F5F5F5F5F5F5F5F5F5F5F5F5F5F5F5F5F5F5F5F5F5F5F5F5F5F5F5F5F5F5F5F5F5F5F5F5F5F5F5F5F5F5F5F5F5F5F5F5F5F5F5F5F5F5E2F5F5F5F5E2E2F5F5F5
310
F5E2F5F5F5F5F5F5F5F5F5F5F5F5F5F5F5F5F5F5F5F5F5F5F5F5F5F5F5F5F5F5F5F5F5F5F5F5F5F5F5F5F5F5F5F5F5F5F5F5F5F5F5F5F5F5F5F5F5F5F5F5F5F5F5F5F5F5F5F5F5F5F5F5F5F5F5F5F5F5F5F5F5F5F5F5F5F5F5F5F5F5F5F5F5F5F5F5F5F5F5F5F5F5F5F5F5F5F5F5F5F5F5F5F5F5F5F5F5F5F5F5F5F5F5F5F5
310
F5F5F5F5F5F5F5F5F5F5F5F5F5F5F5F5F5F5F5F5F5F5F5F5F5F5F5F5F5F5F5F5F5F5F5F5F5F5F5F5F5F5F5E2F5F5F5F5E2E2F5F5F5F5E2F5F5F5F5F5F5F5F5F5F5F5F5F5F5F5F5F5F5F5F5F5F5F5F5F5F5F5F5F5F5F5F5F5F5F5F5F5F5F5F5F5F5F5F5F5F5F5F5F5F5F5F5F5F5F5F5F5F5F5F5F5F5F5F5F5F5F5F5F5F5F5F5
310
F5F5F5F5F5F5F5F5F5F5F5F5F5F5F5F5F5F5F5F5F5F5F5F5F5F5F5F5F5F5F5F5F5F5F5F5F5F5F5F5F5F5F5F5F5F5F5F5F5F5F5F5F5F5F5F5F5F5F5F5F5F5F5F5F5F5F5F5F5F5F5F5F5F5F5F5F5F5F5F5F5F5F5F5F5F5F5F5F5F5F5F5F5F5F5F5E2F5F5F5F5E2E2F5F5F5F5F5F5F5F5F5F5F5F5F5F5F5F5F5F5F5F5F5F5F5F5
310
F5F5F5F5F5F5F5F5F5F5F5F5F5F5F5F5F5F5F5F5F5F5F5F5F5F5F5F5F5F5F5F5F5F5F5F5F5F5F5F5F5F5F5F5F5F5F5F5F5F5F5F5F5F5F5F5F5F5F5F5F5F5F5F5F5F5F5F5F5F5F5F5F5F5F5F5F5F5F5F5F5F5F5F5F5F5F5F5F5F5F5F5F5F5F5F5F5F5F5F5F5F5F5F5F5F5F5F5F5F5F5F5F5F5F5F5F5F5F5F5F5F5F5F5F5F5F5
310
F5F5F5F5F5F5F5F5F5F5F5F5F5F5F5F5F5F5F5F5F5F5F5F5F5F5F5E2E2F5F5F5F5F5F5F5F5F5F5F5F5F5F5F5F5F5F5F5F5F5F5F5F5F5F5F5F5F5F5F5F5F5F5F5F5F5F5F5F5F5F5F5F5F5F5F5F5F5F5F5F5F5F5F5F5F5F5F5F5F5F5F5F5F5F5F5F5F5F5F5F5F5F5F5F5F5F5F5F5F5F5F5F5F5F5F5F5F5F5F5F5F5F5F5F5F5F5
310
F5F5F5F5F5F5F5F5F5F5F5F5F5F5F5F5F5F5F5F5F5F5F5F5F5F5F5F5F5F5F5F5F5F5F5F5F5F5F5F5F5F5F5F5F5F5F5F5F5F5F5F5F5F5F5F5F5F5F5F5F5F5F5F5F5F5F5F5F5F5F5F5F5F5F5F5F5F5F5F5E2E2F5F5F5F5F5F5F5F5F5F5F5F5F5F5F5F5F5F5F5F5F5F5F5F5F5F5F5F5F5F5F5F5F5F5F5F5F5F5F5F5F5F5F5F5F5
310
F5F5F5F5F5F5F5F5F5F5F5F5F5F5F5F5F5F5F5F5F5F5F5F5F5F5F5F5F5F5F5F5F5F5F5F5F5F5F5F5F5F5F5F5F5F5F5F5F5F5F5F5F5F5F5F5F5F5F5F5F5F5F5F5F5F5F5F5F5F5F5F5F5F5F5F5F5F5F5F5F5F5F5F5F5F5F5F5F5F5F5F5F5F5F5F5F5F5F5F5F5F5F5F5F5F5F5F5F5F5F5F5F5F5F5F5F5F5F5F5F5F5F5F5F5F5F5
310
F5F5F5F5F5F5E2E2F5F5F5F5F5F5F5F5F5F5F5F5F5F5F5F5F5F5F5F5F5F5F5F5F5F5F5F5F5F5F5F5F5F5F5F5F5F5F5F5F5F5F5F5F5F5F5F5F5F5F5F5F5F5F5F5F5F5F5F5F5F5F5F5F5F5F5F5F5F5F5F5F5F5F5F5F5F5F5F5F5F5F5F5F5F5F5F5F5F5F5F5F5F5F5F5F5F5F5F5F5F5F5F5F5F5F5F5F5F5F5F5F5F5F5F5F5F5F5
310
F5F5F5F5F5F5F5F5F5F5F5F5F5F5F5F5F5F5F5F5F5F5F5F5F5F5F5F5F5F5F5F5F5F5F5F5F5F5F5F5F5F5F5F5F5F5F5F5F5F5F5F5F5F5F5F5F5F5F5E2E2F5F5F5F5F5F5F5F5F5F5F5F5F5F5F5F5F5F5F5F5F5E2E2E2E2E2E2E2E2E2E2E2E2E2E2E2E2E2E2E2E2E2E2E2E2E2E2E2E2E2E2E2E2E2E2E2E2E2E2E2E2E2E2E2E2E2
310
E2E2E2E2E2E2E2E2E2E2E2E2E2E2E2E2E2E2E2E2E2E2E2E2E2E2E2E2E2E2E2E2E2E2E2E2E2E2E2E2E2E2E2E2E2E2E2E2E2E2E2E2E2E2E2E2E2E2E2E2E2E2E2E2E2E2E2E2E2E2E2E2E2E2E2E2E2E2E2E2E2E2E2E2E2E2E2E2E2E2E2F5F5F5F5F5F5F5F5F5F5F5F5F5F5F5F5F5F5F5F5F5E2E2F5F5F5F5F5F5F5F5F5F5F5F5F5
310
F5F5F5F5F5F5F5F5E22D2D2D2D2D2D2D2D2D2D2D2DF5F5F5F5F5F5F5F5F5F5F5F5F5F5F5E2F5F5F5F5F5F5F5F5F5F5F5F5F5F5F5F5F5F5F5F5F5F5F5F5F5F5F5F5F5F5F5F5F5F5F5F5F5F5F5F5F5F5F5F5F5F5F5F5F5F5F5F5F5F5F5F5F5F5F5F5F5F5F5F5F5F5F5F5F5F5F5F5F5F5F5F5F5F5F5F5F5F5F5F5F5F5F5F5F5F5
310
F5F5F5F5F5F5F5F5F5F5F5F5F5F5F5F5E2F5F5F5F5F5F5F5F5F5F5F5F5F5F5F5F5F5F5F5F5F5E2E2F5F5F5F5F5F5F5F5F5F5F5F5F5F5F5F5F5F5F5F5F5E22D2D2DF5F5E2F5F5F5F5F52DF5F5F5F5F5F5F5F5F5F5F5F5F5F5F5E2F5F5F5F5F5F5F5F5F5F5F5F5F5F5F5F5F5F5F5F5F5F5F5F5F5F5F5F5F5F5F5F5F5F5F5F5F5
310
F5F5F5F5F5F5F5F5F5F5F5F5F5F5F5F5F5F5F5F5F5F5F5F5F5F5F5F5F5F5F5F5F5F5F5F5F5F5F5F5F5F5F5F5F5F5F5F5F5F5F5F5F5F5F5F5F5F5F5F5F5F5F5F5F5F5F5F5F5E2F5F5F5F5F5F5F5F5F5F5F5F5F5F5F5F5F5F5F5F5F5E2E2F5F5F5F5F5F5F5F5F5F5F5F5F5F5F5F5F5F5F5F5F5E2DCF52DF5F5E2F5F5F5F5F52D
310
F5F5F5F5F5F5F5F5F5F5F5F5F5F5F5E2F5F5F5F5F5F5F5F5F5F5F5F5F5F5F5F5F5F5F5F5F5F5F5F5F5F5F5F5F5F5F5F5F5F5F5F5F5F5F5F5F5F5F5F5F5F5F5F5F5F5F5F5F5F5F5F5F5F5F5F5F5F5F5F5F5F5F5F5F5F5F5F5F5F5F5F5F5F5F5F5F5F5F5F5F5F5F5F5F5F5F5F5F5F5F5F5F5F5F5F5F5F5F5F5F5F5E2F5F5F5F5
310
F5F5F5F5F5F5F5F5F5F5F5F5F5F5F5F5F5E2E2F5F5F5F5F5F5F5F5F5F5F5F5F5F5F5F5F5F5F5F5F5E2BEF52D2D2D2D2D2D2D2DE2E2E2E2E2E2E2E2E2E2E2E2E2E2E2E2E2E2F5F5F5F5F5F5F5F5F5F5F5F5F5F5F5F5F5F5F5F5F5F5F5F5F5F5F5F5F5F5F5F5F5F5F5F5F5F5F5F5F5F5F5F5F5F5F5F5F5F5F5F5F5F5F5F5F5F5
310
F5F5F5F5F5F5F5F5F5F5F5F5F5F5F5F5F5F5F5F5F5F5F5F5F5F5F5F5F5F5F5F5F5F5F5F5F5F5F5F5F5F5F5F5F5F5F5F5E2F5F5F5F5F5F5F5F5F5F5F5F5F5F5F5F5F5F5F5F5F5E2E2F5F5F5F5E2F5F5F5F5F5F5F5F5F5F5F5F5F5F5F5F5E2DCF5F5F5F5E2F5F5F5F5F5E2F5F5F5F5F5F5F5F5F5F5F5F5F5F5F5F5F5F5F5F5F5
310
F5F5F5F5F5F5F5F5F5F5F5F5F5F5F5F5F5F5F5F5F5F5F5F5F5F5F5F5F5F5F5F5F5F5F5F5F5F5F5F5F5F5F5F5F5F5F5F5F5F5F5F5F5F5F5F5F5F5F5F5F5F5F5F5F5F5F5F5F5F5F5F5F5F5F5F5F5F5F5F5F5F5F5F5F5F5F5F5F5F5F5F5F5F5F5F5F5F5F5F5F5E2F5F5F5F5F5F5F5F5F5F5F5F5F5F5F5F5E2F5F5F5F5E2E2F5F5
310
F5F5E2F5F5F5F5F5F5F5F5F5F5F5F5F5F5F5F5E2F5F5F5F5F5E2F5F5F5F5F5E2F5F5F5F5F5F5F5F5F5F5F5F5F5F5F5F5F5F5F5F5F5F5F5F5F5F5F5F5F5F5F5F5F5F5F5F5F5F5F5F5F5F5F5F5F5F5F5F5F5F5F5F5F5F5F5F5F5F5F5F5F5F5F5F5F5F5F5F5F5F5F5F5F5F5F5F5F5F5F5F5F5F5F5F5F5F5F5F5F5F5F5F5F5F5F5
310
F5F5F5F5F5F5F5F5F5F5F5F5F5F5F5F5F5F5F5F5F5F5F5F5F5F5F5E2F5F5F5F5F5F5F5F5F5F5F5F5F5F5F5F5E2F5F5F5F5E2E2F5F5F5F5E2F5F5F5F5F5F5F5F5F5F5F5F5F5F5F5F5E2F5F5F5F5F5E2F5F5F5F5F5E2F5F5F5F5F5F5F5F5F5F5F5F5F5F5F5F5F5F5F5F5F5F5F5F5F5F5F5F5F5F5F5F5F5F5F5F5F5F5F5F5F5F5
310
F5F5F5F5F5F5F5F5F5F5F5F5F5F5F5F5F5F5F5F5F5F5F5F5F5F5F5F5F5F5F5F5F5F5F5F5F5F5F5F5F5F5F5F5F5F5F5F5F5F5F5F5F5F5F5F5F5F5F5F5F5F5F5F5F5F5F5F5F5F5F5F5F5F5F5F5F5F5F5F5E2F5F5F5F5F5F5F5F5F5F5F5F5F5F5F5F5E2F5F5F5F5E2E2F5F5F5F5E2F5F5F5F5F5F5F5F5F5F5F5F5F5F5F5F5E2F5
310
F5F5F5F5E2F5F5F5F5F5E2F5F5F5F5F5F5F5F5F5F5F5F5F5F5F5F5F5F5F5F5F5F5F5F5F5F5F5F5F5F5F5F5F5F5F5F5F5F5F5F5F5F5F5F5F5F5F5F5F5F5F5F5F5F5F5F5F5F5F5F5F5F5F5F5F5F5F5F5F5F5F5F5F5F5F5F5F5F5F5F5F5F5F5F5F5F5F5F5F5F5F5F5F5F5F5F5F5F5F5F5F5F5F5F5F5F5F5F5F5F5F5F5F5F5F5F5
310
F5F5F5F5F5F5E2F5F5F5F5F5F5F5F5F5F5F5F5F5F5F5F5E2F5F5F5F5E2E2F5F5F5F5E2F5F5F5F5F5F5F5F5F5F5F5F5F5F5F5F5E2E2E2E2E2E2E2F5F5F5F5F5E2F5F5F5F5F5F5F5F5F5F5F5F5F5F5F5F5F5F5F5F5F5F5F5F5F5F5F5F5F5F5F5F5F5F5F5F5F5F5F5F5F5F5F5F5F5F5F5F5F5F5F5F5F5F5F5F5F5F5F5F5F5F5F5
310
F5F5F5F5F5F5F5F5F5F5F5F5F5F5F5F5F5F5F5F5F5F5F5F5F5F5F5F5F5F5F5F5F5F5F5F5F5F5F5F5F5F5F5F5F5F5F5F5F5F5F5F5F5F5F5F5F5F5F5E2F5F5F5F5F5F5F5F5F5F5F5F5F5F5F5F5E2F5F5F5F5E2E2F5F5F5F5E2F5F5F5F5F5F5F5F5F5F5F5F5F5F5F5F5E2E2E2E2F5E2E2F5F5F5F5F5E2F5F5F5F5F5F5F5F5F5F5
310
F5F5F5F5F5F5F5F5F5F5F5F5F5F5F5F5F5F5F5F5F5F5F5F5F5F5F5F5F5F5F5F5F5F5F5F5F5F5F5F5F5F5F5F5F5F5F5F5F5F5F5F5F5F5F5F5F5F5F5F5F5F5F5F5F5F5F5F5F5F5F5F5F5F5F5F5F5F5F5F5F5F5F5F5F5F5F5F5F5F5F5F5F5F5F5F5F5F5F5F5F5F5F5F5F5F5F5F5F5F5F5F5E2F5F5F5F5F5F5F5F5F5F5F5F5F5F5
310
F5F5E2F5F5F5F5E2E2F5F5F5F5E2F5F5F5F5F5F5F5F5F5F5F5F5F5F5F5F5E2E2E2E2F5F5F5F5F5F5F5F5E2F5F5F5F5F5F5F5F5F5F5F5F5F5F5F5F5F5F5F5F5F5F5F5F5F5F5F5F5F5F5F5F5F5F5F5F5F5F5F5F5F5F5F5F5F5F5F5F5F5F5F5F5F5F5F5F5F5F5F5F5F5F5F5F5F5F5F5F5F5F5F5F5F5F5F5F5F5F5F5F5F5F5F5F5
310
F5F5F5F5F5F5F5F5F5F5F5F5F5F5F5F5F5F5F5F5F5F5F5F5F5F5F5F5F5F5F5F5F5F5F5F5F5F5E2F5F5F5F5F5F5F5F5F5F5F5F5F5F5F5F5E2F5F5F5F5E2E2F5F5F5F5E2F5F5F5F5F5F5F5F5F5F5F5F5F5F5F5F5E2F5F5F5F5F5F5F5F5F5F5F5E2F5F5F5F5F5F5F5F5F5F5F5F5F5F5F5F5F5F5F5F5F5F5F5F5F5F5F5F5F5F5F5
310
F5F5F5F5F5F5F5F5F5F5F5F5F5F5F5F5F5F5F5F5F5F5F5F5F5F5F5F5F5F5F5F5F5F5F5F5F5F5F5F5F5F5F5F5F5F5F5F5F5F5F5F5F5F5F5F5F5F5F5F5F5F5F5F5F5F5F5F5F5F5F5F5F5F5F5F5F5F5F5F5F5F5F5F5F5F5F5F5F5F5F5E2F5F5F5F5F5F5F5F5F5F5F5F5F5F5F5F5E2F5F5F5F5E2E2F5F5F5F5E2F5F5F5F5F5F5F5
310
F5F5F5F5F5F5F5F5F5E2E2E2E2E2E2E2E2E2E2E2E2E2F5F5F5F5F5F5F5F5F5F5F5F5F5F5F5F5F5F5F5F5F5F5F5F5F5F5F5F5F5F5F5F5F5F5F5F5F5F5F5F5F5F5F5F5F5F5F5F5F5F5F5F5F5F5F5F5F5F5F5F5F5F5F5F5F5F5F5F5F5F5F5F5F5F5F5F5F5F5F5F5F5F5F5F5F5F5F5F5F5F5F5F5F5F5F5F5F5F5F5F5F5F5F5F5F5
310
F5F5F5F5F5F5F5F5F5F5F5F5F5F5F5F5F5E2F5F5F5F5F5F5F5F5F5F5F5F5F5F5F5F5E2F5F5F5F5E2E2F5F5F5F5E2F5F5F5F5F5F5F5F5F5F5F5F5F5F5F5F5E2E2E2F5F5F5F5F5F5F5F5F5F5F5F5F5F5F5F5F5F5F5F5F5F5F5F5F5F5F5F5F5F5F5F5F5F5F5F5F5F5F5F5F5F5F5F5F5F5F5F5F5F5F5F5F5F5F5F5F5F5F5F5F5F5
310
F5F5F5F5F5F5F5F5F5F5F5F5F5F5F5F5F5F5F5F5F5F5F5F5F5F5F5F5F5F5F5F5F5F5F5F5F5F5F5F5F5F5F5F5F5F5F5F5F5F5F5F5F5F5F5F5F5F5F5F5F5F5F5F5F5F5F5F5F5F5E2F5F5F5F5F5F5F5F5F5F5F5F5F5F5F5F5E2F5F5F5F5E2E2F5F5F5F5E2F5F5F5F5F5F5F5F5F5F5F5F5F5F5F5F5E2E2E2F5F5F5F5F5F5F5F5F5
310
F5F5F5F5F5F5F5F5F5F5F5F5F5F5F5F5F5F5F5F5F5F5F5F5F5F5F5F5F5F5F5F5F5F5F5F5F5F5F5F5F5F5F5F5F5F5F5F5F5F5F5F5F5F5F5F5F5F5F5F5F5F5F5F5F5F5F5F5F5F5F5F5F5F5F5F5F5F5F5F5F5F5F5F5F5F5F5F5F5F5F5F5F5F5F5F5F5F5F5F5F5F5F5F5F5F5F5F5F5F5F5F5F5F5F5F5F5F5F5F5F5F5F5E2F5F5F5
310
F5F5F5F5F5F5F5F5F5F5F5F5F5E2F5F5F5F5E2E2F5F5F5F5E2F5F5F5F5F5F5F5F5F5F5F5F5F5F5F5F5E2F5F5F5F5F5F5F5F5F5F5F5F5F5F5F5F5F5F5F5F5F5F5F5F5F5F5F5F5F5F5F5F5F5F5F5F5F5F5F5F5F5F5F5F5F5F5F5F5F5F5F5F5F5F5F5F5F5F5F5F5F5F5F5F5F5F5F5F5F5F5F5F5F5F5F5F5F5F5F5F5F5F5F5F5F5
310
F5F5F5F5F5F5F5F5F5F5F5F5F5F5F5F5F5F5F5F5F5F5F5F5F5F5F5F5F5F5F5F5F5F5F5F5F5F5F5F5F5F5F5F5F5F5F5F5F5E2F5F5F5F5F5F5F5F5F5F5F5F5F5F5F5F5E2F5F5F5F5E2E2F5F5F5F5E2F5F5F5F5F5F5F5F5F5F5F5F5F5F5F5F5E2F5F5F5F5F5F5F5F5F5F5F5F5F5F5F5F5F5F5F5F5F5F5F5F5F5F5F5F5F5F5F5F5
310
F5F5F5F5F5F5F5F5F5F5F5F5F5F5F5F5F5F5F5F5F5F5F5F5F5F5F5F5F5F5F5F5F5F5F5F5F5F5F5F5F5F5F5F5F5F5F5F5F5F5F5F5F5F5F5F5F5F5F5F5F5F5F5F5F5F5F5F5F5F5F5F5F5F5F5F5F5F5F5F5F5F5F5F5F5F5F5F5F5F5F5F5F5F5F5F5F5F5F5F5F5F5E2F5F5F5F5F5F5F5F5F5F5F5F5F5F5F5F5E2F5F5F5F5E2E2F5
310
F5F5F5E2F5F5F5F5F5F5F5F5F5F5F5F5F5F5F5F5E20F0F0F0F0F0F0F0F0F0F0FF5F5F5F5F5F5F5F5F5F5F5F5F5F5F5F5F5F5F5F5F5F5F5F5F5F5F5F5F5F5F5F5F5F5F5F5F5F5F5F5F5F5F5F5F5F5F5F5F5F5F5F5F5F5F5F5F5F5F5F5F5F5F5F5F5F5F5F5F5F5F5F5F5F5F5F5F5F5F5F5F5F5F5F5F5F5F5F5F5F5F5F5F5F5F5
310
F5F5F5F5F5F5F5F5F5F5F5F5F5F5F5F5F5F5F5F5F5F5F5F5F5F5F5F5E2F5F5F5F5F5F5F5F5F5F5F5F5F5F5F5F5E2F5F5F5F5E2E2F5F5F5F5E2F5F5F5F5F5F5F5F5F5F5F5F5F5F5F5F5E20F0F0F0F0F0F0F0F0F0F0FF5F5F5F5F5F5F5F5F5F5F5F5F5F5F5F5F5F5F5F5F5F5F5F5F5F5F5F5F5F5F5F5F5F5F5F5F5F5F5F5F5F5
310
F5F5F5F5F5F5F5F5F5F5F5F5F5F5F5F5F5F5F5F5F5F5F5F5F5F5F5F5F5F5F5F5F5F5F5F5F5F5F5F5F5F5F5F5F5F5F5F5F5F5F5F5F5F5F5F5F5F5F5F5F5F5F5F5F5F5F5F5F5F5F5F5F5F5F5F5F5F5F5F5F5E2F5F5F5F5F5F5F5F5F5F5F5F5F5F5F5F5E2F5F5F5F5E2E2F5F5F5F5E2F5F5F5F5F5F5F5F5F5F5F5F5F5F5F5F5E2
310
0F0F0F0F0F0F0F0F0F0FF5F5F5F5F5F5F5F5F5F5F5F5F5F5F5F5F5F5F5F5F5F5F5F5F5F5F5F5F5F5F5F5F5F5F5F5F5F5F5F5F5F5F5F5F5F5F5F5F5F5F5F5F5F5F5F5F5F5F5F5F5F5F5F5F5F5F5F5F5F5F5F5F5F5F5F5F5F5F5F5F5F5F5F5F5F5F5F5F5F5F5F5F5F5F5F5F5F5F5F5F5F5F5F5F5F5F5F5F5F5F5F5F5F5F5F5F5
310
F5F5F5F5F5F5F5E2F5F5F5F5F5F5F5F5F5F5F5F5F5F5F5F5E2F5F5F5F5E2E2F5F5F5F5E2F5F5F5F5F5F5F5F5F5F5F5F5F5F5F5F5E2F5F5F5F5F5F5F5F5F5F5F5F5F5F5F5F5F5F5F5F5F5F5F5F5F5F5F5F5F5F5F5F5F5F5F5F5F5F5F5F5F5F5F5F5F5F5F5F5F5F5F5F5F5F5F5F5F5F5F5F5F5F5F5F5F5F5F5F5F5F5F5F5F5F5
310
F5F5F5F5F5F5F5F5F5F5F5F5F5F5F5F5F5F5F5F5F5F5F5F5F5F5F5F5F5F5F5F5F5F5F5F5F5F5F5F5F5F5F5F5F5F5F5F5F5F5F5F5F5F5F5F5F5F5F5F5E2F5F5F5F5F5F5F5F5F5F5F5F5F5F5F5F5E2F5F5F5F5E2E2F5F5F5F5F5F5F5F5F5F5F5F5F5F5F5F5F5F5F5F5F5E2F5F5F5F5F5F5F5F5F5F5F5F5F5F5F5F5F5F5F5F5F5
310
F5F5F5F5F5F5F5F5F5F5F5F5F5F5F5F5F5F5F5F5F5F5F5F5F5F5F5F5F5F5F5F5F5F5F5F5F5F5F5F5F5F5F5F5F5F5F5F5F5F5F5F5F5F5F5F5F5F5F5F5F5F5F5F5F5F5F5F5F5F5F5F5F5F5F5F5F5F5F5F5F5F5F5F5F5F5F5F5F5F5F5F5F5F5F5F5F5F5F5F5F5F5F5F5F5F5F5F5F5F5F5F5F5E2F5F5F5F5F5F5F5F5F5F5F5F5F5
310
F5F5F5F5F5F5F5F5E2E2F5F5F5F5F5F5F5F5F5F5F5F5F5F5F5F5F5F5F5F5F5E2F5F5F5F5F5F5F5F5F5F5F5F5F5F5F5F5F5F5F5F5F5F5F5F5F5F5F5F5F5F5F5F5F5F5F5F5F5F5F5F5F5F5F5F5F5F5F5F5F5F5F5F5F5F5F5F5F5F5F5F5F5F5F5F5F5F5F5F5F5F5F5F5F5F5F5F5F5F5F5F5F5F5F5F5F5F5F5F5F5F5F5F5F5F5F5
310
F5F5F5F5F5F5F5F5F5F5F5F5F5F5F5F5F5F5F5F5F5F5F5F5F5F5F5F5F5F5F5F5F5F5F5F5F5F5F5E2F5F5F5F5F5F5F5F5F5F5F5F5F5F5F5F5F5F5F5F5F5E2E2F5F5F5F5F5F5F5F5F5F5F5F5F5F5F5F5F5F5F5F5F5E2F5F5F5F5F5F5F5F5F5F5F5F5F5F5F5F5F5F5F5F5F5F5F5F5F5F5F5F5F5F5F5F5F5F5F5F5F5F5F5F5F5F5
310
F5F5F5F5F5F5F5F5F5F5F5F5F5F5F5F5F5F5F5F5F5F5F5F5F5F5F5F5F5F5F5F5F5F5F5F5F5F5F5F5F5F5F5F5F5F5F5F5F5F5F5F5F5F5F5F5F5F5F5F5F5F5F5F5F5F5F5F5F5F5F5F5F5F5F5F5F5F5F5F5F5F5F5F5F5F5F5F5F5F5F5F5E2F5F5F5F5F5F5F5F5F5F5F5F5F5F5F5F5F5F5F5F5F5E2E2F5F5F5F5F5F5F5F5F5F5F5
310
F5F5F5F5F5F5F5F5F5F5E2F5F5F5F5F5F5F5F5F5F5F5F5F5F5F5F5F5F5F5F5F5F5F5F5F5F5F5F5F5F5F5F5F5F5F5F5F5F5F5F5F5F5F5F5F5F5F5F5F5F5F5F5F5F5F5F5F5F5F5F5F5F5F5F5F5F5F5F5F5F5F5F5F5F5F5F5F5F5F5F5F5F5F5F5F5F5F5F5F5F5F5F5F5F5F5F5F5F5F5F5F5F5F5F5F5F5F5F5F5F5F5F5F5F5F5F5
310
F5F5F5F5F5F5F5F5F5F5F5F5F5F5F5F5F5F5E2F5F5F5F5F5F5F5F5F5F5F5F5F5F5F5F5F5F5F5F5F5E2E2F5F5F5F5F5F5F5F5F5F5F5F5F5F5F5F5F5F5F5F5F5E2F5F5F5F5F5F5F5F5F5F5F5F5F5F5F5F5F5F5F5F5F5F5F5F5F5F5F5F5F5F5F5F5F5F5F5F5F5F5F5F5F5F5F5F5F5F5F5F5F5F5F5F5F5F5F5F5F5F5F5F5F5F5F5
310
F5F5F5F5F5F5F5F5F5F5F5F5F5F5F5F5F5F5F5F5F5F5F5F5F5F5F5F5F5F5F5F5F5F5F5F5F5F5F5F5F5F5F5F5F5F5F5F5F5F5F5F5F5F5F5F5F5F5F5F5F5F5F5F5F5F5F5F5F5F5F5E2F5F5F5F5F5F5F5F5F5F5F5F5F5F5F5F5F5F5F5F5F5E2E2F5F5F5F5F5F5F5F5F5F5F5F5F5F5F5F5F5F5F5F5F5E2F5F5F5F5F5F5F5F5F5F5
310
F5F5F5F5F5F5F5F5F5F5F5F5F5F5F5F5F5F5F5F5F5F5F5F5F5F5F5F5F5F5F5F5F5F5F5F5F5F5F5F5F5F5F5F5F5F5F5F5F5F5F5F5F5F5F5F5F5F5F5F5F5F5F5F5F5F5F5F5F5F5F5F5F5F5F5F5F5F5F5F5F5F5F5F5F5F5F5F5F5F5F5F5F5F5F5F5F5F5F5F5F5F5F5F5F5F5F5F5F5F5F5F5F5F5F5F5F5F5F5F5F5F5F5F5E2F5F5
310
F5F5F5F5F5F5F5F5F5F5F5F5F5F5F5F5F5F5F5E2E2F5F5F5F5F5F5F5F5F5F5F5F5F5F5F5F5F5F5F5F5F5E2F5F5F5F5F5F5F5F5F5F5F5F5F5F5F5F5F5F5F5F5F5F5F5F5F5F5F5F5F5F5F5F5F5F5F5F5F5F5F5F5F5F5F5F5F5F5F5F5F5F5F5F5F5F5F5F5F5F5F5F5F5F5F5F5F5F5F5F5F5F5F5F5F5F5F5F5F5F5F5F5F5F5F5F5
310
F5F5F5F5F5F5F5F5F5F5F5F5F5F5F5F5F5F5F5F5F5F5F5F5F5F5F5F5F5F5F5F5F5F5F5F5F5F5F5F5F5F5F5F5F5F5F5F5F5F5E2F5F5F5F5F5F5F5F5F5F5F5F5F5F5F5F5F5F5F5F5F5E2E2F5F5F5F5F5F5F5F5F5F5F5F5F5F5F5F5F5F5F5F5F5E2F5F5F5F5F5F5F5F5F5F5F5F5F5F5F5F5F5F5F5F5F5F5F5F5F5F5F5F5F5F5F5
310
F5F5F5F5F5F5F5F5F5F5F5F5F5F5F5F5F5F5F5F5F5F5F5F5F5F5F5F5F5F5F5F5F5F5F5F5F5F5F5F5F5F5F5F5F5F5F5F5F5F5F5F5F5F5F5F5F5F5F5F5F5F5F5F5F5F5F5F5F5F5F5F5F5F5F5F5F5F5F5F5F5F5F5F5F5F5F5F5F5F5F5F5F5F5F5F5F5F5F5F5F5F5F5E2F5F5F5F5F5F5F5F5F5F5F5F5F5F5F5F5F5F5F5F5F5E2E2
310
F5F5F5F5F5F5F5F5F5F5F5F5F5F5F5F5F5F5F5F5F5E2F5F5F5F5F5F5F5F5F5F5F5F5F5F5F5F5F5F5F5F5F5F5F5F5F5F5F5F5F5F5F5F5F5F5F5F5F5F5F5F5F5F5F5F5F5F5F5F5F5F5F5F5F5F5F5F5F5F5F5F5F5F5F5F5F5F5F5F5F5F5F5F5F5F5F5F5F5F5F5F5F5F5F5F5F5F5F5F5F5F5F5F5F5F5F5F5F5F5F5F5F5F5F5F5F5
310
F5F5F5F5F5F5F5F5F5F5F5F5F5F5F5F5F5F5F5F5F5F5F5F5F5F5F5F5F5E2F5F5F5F5F5F5F5F5F5F5F5F5F5F5F5F5F5F5F5F5F5E2E2F5F5F5F5E2F5F5F5F5F5F5F5F5F5F5F5F5F5F5F5F5E2F5F5F5F5F5F5F5F5F5F5F5F5F5F5F5F5F5F5F5F5F5F5F5F5F5F5F5F5F5F5F5F5F5F5F5F5F5F5F5F5F5F5F5F5F5F5F5F5F5F5F5F5
310
F5F5F5F5F5F5F5F5F5F5F5F5F5F5F5F5F5F5F5F5F5F5F5F5F5F5F5F5F5F5F5F5F5F5F5F5F5F5F5F5F5F5F5F5F5F5F5F5F5E2F0E2E2F5F5F5F5F5F5E2F0E2E2F5DCF5F5F5F5F5F5F0F0E2F5F5F5F5F5F5F5F5E2F5F5F5F5F5F5F5F5F5F5F5F5F5F5F5F5E2F5F5F5F5E2E2F5F5F5F5E2F5F5F5F5F5F5F5F5F5F5F5F5F5F5F5F5
310
E2F5F5F5F5F5F5F5F5F5F5F5F5F5F5F5F5F5F5F5F5F5F5F5F5F5F5F5F5F5F5F5F5F5F5F5F5F5F5F5F5F5F5F5F5F5F5F5F5F5F5F5F5F5F5F5F5F5F5F5F5F5F5F5F5F5F5F5F5F5F5F5F5F5F5F5F5F5F5F5F5F5F5F5F5F5F5F5F5F5F5F5F5F5F5F5F5F5F5F5F5E2DCDCF0F5E2F5F5F5F5F5E2F5F0E2E2DCF5F5F5F5F5E2F0F0F5
310
E2F5F5F5E2E2E2F5E2F5F5F5F5F5F5F5F5F5F5F5F5F5F5F5F5E2F5F5F5F5E2E2F5F5F5F5E2F5F5F5F5F5F5F5F5F5F5F5F5F5F5F5F5E2F5F5F5F5F5F5F5F5F5F5F5F5F5F5F5F5F5F5F5F5F5F5F5F5F5F5F5F5F5F5F5F5F5F5F5F5F5F5F5F5F5F5F5F5F5F5F5F5F5F5F5F5F5F5F5F5F5F5F5F5F5F5F5F5F5F5F5F5F5F5F5F5F5
310
F5F5F5F5F5F5F5F5F5F5F5F5F5F5F5F5F5F5F5F5F5F5F5F5F5F5E2F0DCF0DCE2E2E2F5F5F5E2E2F0F0F0E2DCF5F5F5F5E2F0F0F0E2E2F0E2E2E2E2E2E2E2F5F5F5F5F5F5F5F5F5F5F5F5F5F5F5F5E2F5F5F5F5E2E2F5F5F5F5E2F5F5F5F5F5F5F5F5F5F5F5F5F5F5F5F5E2F5F5F5F5F5F5F5F5F5F5F5F5F5F5F5F5F5F5F5F5
310
F5F5F5F5F5F5F5F5F5F5F5F5F5F5F5F5F5F5F5F5F5F5F5F5F5F5F5F5F5F5F5F5F5F5F5F5F5F5F5F5F5F5F5F5F5F5F5F5F5F5F5F5F5F5F5F5F5F5F5F5F5F5F5F5F5F5F5F5F5F5F5F5F5F5F5F5F5F5F5E2F0DCF0DCF0F0E2F5F5F5E2F0DCE2E2E2DCF5F5F5F5F0F0F0F0E2E2F0E2F5E2E2E2E2E2F5F5F5F5F5F5F5F5F5F5F5F5
310
F5F5F5F5E2F5F5F5F5E2E2F5F5F5F5E2F5F5F5F5F5F5F5F5F5F5F5F5F5F5F5F5E2F5F5F5F5F5F5F5F5F5F5F5F5F5F5F5F5F5F5F5F5F5F5F5F5F5F5F5F5F5F5F5F5F5F5F5F5F5F5F5F5F5F5F5F5F5F5F5F5F5F5F5F5F5F5F5F5F5F5F5F5F5F5F5F5F5F5F5F5F5F5F5F5F5F5F5F5F5F5F5F5F5F5F5F5F5F5F5F5F5F5F5F5F5F5
310
F5F5F5F5F5F5E2DCDCDCF0E2F5F5F5F5F5F0DCDCE2E2DCF5F5F5F5F5F0F0F0DCE2F0F5E2E2E2E2F5E2F5F5F5F5F5F5F5F5F5F5F5F5F5F5F5F5E2F5F5F5F5E2E2F5F5F5F5E2F5F5F5F5F5F5F5F5F5F5F5F5F5F5F5F5E2F5F5F5F5F5F5F5F5F5F5F5F5F5F5F5F5F5F5F5F5F5F5F5F5F5F5F5F5F5F5F5F5F5F5F5F5F5F5F5F5F5
310
F5F5F5F5F5F5F5F5F5F5F5F5F5F5F5F5F5F5F5F5F5F5F5F5F5F5F5F5F5F5F5F5F5F5F5F5F5F5F5F5F5F5F5F5F5F5F5F5F5F5F5F5F5F5F5F5F5F5F5E2F0F0F0E2F5F5F5F5F5E2F0E2E2E2E2DCF5F5F5F5F5F0F0E2E2F5F5F5F5E2E2E2F5E2F5F5F5F5F5F5F5F5F5F5F5F5F5F5F5F5E2F5F5F5F5E2E2F5F5F5F5E2F5F5F5F5F5
310
F5F5F5F5F5F5F5F5F5F5F5E2F5F5F5F5F5F5F5F5F5F5F5F5F5F5F5F5F5F5F5F5F5F5F5F5F5F5F5F5F5F5F5F5F5F5F5F5F5F5F5F5F5F5F5F5F5F5F5F5F5F5F5F5F5F5F5F5F5F5F5F5F5F5F5F5F5F5F5F5F5F5F5F5F5F5F5F5F5F5F5F5F5F5F5F5F5F5F5F5F5F5F5F5F5F5F5F5F5F5F5F5F5F5E2E2F5F5F5F5F5F5F5F5E2E2F5
310
F5DCF5F5F5F5F5F5F5F0E2F5F5F5F5F5E2F5F5E2F5F5F5F5F5F5F5F5F5F5F5F5F5F5F5F5E2F5F5F5F5E2E2F5F5F5F5E2F5F5F5F5F5F5F5F5F5F5F5F5F5F5F5F5E2F5F5F5F5F5F5F5F5F5F5F5F5F5F5F5F5F5F5F5F5F5F5F5F5F5F5F5F5F5F5F5F5F5F5F5F5F5F5F5F5F5F5F5F5F5F5F5F5F5F5F5F5F5F5F5F5F5F5F5F5F5F5
310
F5F5F5F5F5F5F5F5F5F5F5F5F5F5F5F5F5F5F5F5F5F5F5F5F5F5F5F5F5F5F5F5F5F5F5F5F5F5F5F5F5F5F5F5F5F5F5F5F5F5F5F5F5F5DCF5F5F5F5F5F5F5F5F5F5F5F5F5F5F5F5F5E2F5F5F5F5F5F5F5F5F5F5F5F5F5F5F5F5E2F5F5F5F5E2E2F5F5F5F5E2F5F5F5F5F5F5F5F5F5F5F5F5F5F5F5F5E2F5F5F5F5F5F5F5F5F5
310
F5F5F5F5F5F5F5F5F5F5F5F5F5F5F5F5F5F5F5F5F5F5F5F5F5F5F5F5F5F5F5F5F5F5F5F5F5F5F5F5F5F5F5F5F5F5F5F5F5F5F5F5F5F5F5F5F5F5F5F5F5F5F5F5F5F5F5F5F5F5F5F5F5F5F5F5F5F5F5F5F5F5F5F5F5F5F5F5F5F5F5F5F5F5F5F5F5F5F5F5F5F5F5F5F5F5F5DCF5F5F5F5F5F5F5F5F5F5F5F5F5F5F5F5F5E2F5
310
F5F5F5F5F5F5F5F5F5F5F5F5F5F5F5E2F5F5F5F5E2E2F5F5F5F5E2F5F5F5F5F5F5F5F5F5F5F5F5F5F5F5F5E2F5F5F5F5F5F5F5F5F5F5F5F5F5F5F5F5F5F5F5F5F5F5F5F5F5F5F5F5F5F5F5F5F5F5F5F5F5F5F5F5F5F5F5F5F5F5F5F5F5F5F5F5F5F5F5F5F5F5F5F5F5F5F5F5F5F5F5F5F5F5F5F5F5F5F5F5F5F5F5F5F5F5F5
310
F5F5F5F5F5F5F5F5F5F5F5F5F5F5F5F5F5F5F5F5F5F5F5F5F5F5F5F5F5F5F5F5F5DCF5F5F5F5F5F5F5F5F5F5F5F5F5F5F5F5F5E2F5F5F5F5F5F5F5F5F5F5F5F5F5F5F5F5E2F5F5F5F5E2E2F5F5F5F5E2F5F5F5F5F5F5F5F5F5F5F5F5F5F5F5F5E2F5F5F5F5F5F5F5F5F5F5F5F5F5F5F5F5F5F5F5F5F5F5F5F5F5F5F5F5F5F5
310
F5F5F5F5F5F5F5F5F5F5F5F5F5F5F5F5F5F5F5F5F5F5F5F5F5F5F5F5F5F5F5F5F5F5F5F5F5F5F5F5F5F5F5F5F5F5F5F5F5F5F5F5F5F5F5F5F5F5F5F5F5F5F5F5F5F5F5F5F5F5F5F5F5F5F5F5F5F5F5F5F5F5F5F5F5F5DCF5F5F5F5F5F5F5F5F5F5F5F5F5F5F5F5F5E2F5F5F5F5F5F5F5F5F5F5F5F5F5F5F5F5E2F5F5F5F5E2
310
E2F5F5F5F5E2F5F5F5F5F5F5F5F5F5F5F5F5F5F5F5F5E2F5F5F5F5F5F5F5F5F5F5F5F5F5F5F5F5F5F5F5F5F5F5F5F5F5F5F5F5F5F5F5F5F5F5F5F5F5F5F5F5F5F5F5F5F5F5F5F5F5F5F5F5F5F5F5F5F5F5F5F5F5F5F5F5F5F5F5F5F5F5F5F5F5F5F5F5F5F5F5F5F5F5F5F5F5F5F5F5F5F5F5F5F5F5F5F5F5F5F5F5F5F5F5F5
310
F5F5F5F5F5F5F5F5F5F5F5F5DCF5F5F5F5F5F5F5F5F5F5F5F5F5F5F5F5F5E2F5F5F5F5F5F5F5F5F5F5F5F5F5F5F5F5E2F5F5F5F5E2E2F5F5F5F5E2F5F5F5F5F5F5F5F5F5F5F5F5F5F5F5F5E2F5F5F5F5F5F5F5F5F5F5F5F5F5F5F5F5F5F5F5F5F5F5F5F5F5F5F5F5F5F5F5F5F5F5F5F5F5F5F5F5F5F5F5F5F5F5F5F5F5F5F5
310
F5F5F5F5F5F5F5F5F5F5F5F5F5F5F5F5F5F5F5F5F5F5F5F5F5F5F5F5F5F5F5F5F5F5F5F5F5F5F5F5F5F5F5F5F5F5F5F5F5F5F5F5F5F5F5F5F5F5F5F5F5F5F5F5F5DCF5F5F5F5F5F5F5F5F5F5F5F5F5F5F5F5F5E2F5F5F5F5F5F5F5F5F5F5F5F5F5F5F5F5E2F5F5F5F5E2E2F5F5F5F5E2F5F5F5F5F5F5F5F5F5F5F5F5F5F5F5
310
F5E2F5F5F5F5F5F5F5F5F5F5F5F5F5F5F5F5F5F5F5F5F5F5F5F5F5F5F5F5F5F5F5F5F5F5F5F5F5F5F5F5F5F5F5F5F5F5F5F5F5F5F5F5F5F5F5F5F5F5F5F5F5F5F5F5F5F5F5F5F5F5F5F5F5F5F5F5F5F5F5F5F5F5F5F5F5F5F5F5F5F5F5F5F5F5F5F5F5F5F5F5F5F5F5F5F5F5F5F5F5F5F5F5F5F5F5F5DCF5F5F5F5F5F5F5F5
310
F5F5F5F5F5F5F5F5F5E2F5F5F5F5F5F5F5F5F5F5F5F5F5F5F5F5E2F5F5F5F5E2E2F5F5F5F5E2F5F5F5F5F5F5F5F5F5F5F5F5F5F5F5F5E2F5F5F5F5F5F5F5F5F5F5F5F5F5F5F5F5F5F5F5F5F5F5F5F5F5F5F5F5F5F5F5F5F5F5F5F5F5F5F5F5F5F5F5F5F5F5F5F5F5F5F5F5F5F5F5F5F5F5F5F5F5F5F5F5F5F5F5F5F5F5F5F5
310
F5F5F5F5F5F5F5F5F5F5F5F5F5F5F5F5F5F5F5F5F5F5F5F5F5F5F5F5F5F5F5F5F5F5F5F5F5F5F5F5F5F5E2E2DCE2F5F5F5F5F5F5F5F5F5F5F5F5F5F5F5F5E2F5F5F5F5F5F5F5F5F5F5F5F5F5F5F5F5E2F5F5F5F5E2E2F5F5F5F5E2F5F5F5F5F5F5F5F5F5F5F5F5F5F5F5F5E2F5F5F5F5F5F5F5F5F5F5F5F5F5F5F5F5F5F5F5
310
F5F5F5F5F5F5F5F5F5F5F5F5F5F5F5F5F5F5F5F5F5F5F5F5F5F5F5F5F5F5F5F5F5F5F5F5F5F5F5F5F5F5F5F5F5F5F5F5F5F5F5F5F5F5F5F5F5F5F5F5F5F5F5F5F5F5F5F5F5F5F5F5F5F5F5F5F5F5F5F5F5F5F5F5F5F5F5F5F5F5F5F5F5F5F5F5F5DCF5F5F5F5F5F5F5F5F5F5F5F5F5F5F5F5F5E2F5F5F5F5F5F5F5F5F5F5F5
310
F5F5F5F5F5E2F5F5F5F5E2E2F5F5F5F5E2F5F5F5F5F5F5F5F5F5F5F5F5F5F5F5F5E2F5F5F5F5F5F5F5F5F5F5F5F5F5F5F5F5F5F5F5F5F5F5F5F5F5F5F5F5F5F5F5F5F5F5F5F5F5F5F5F5F5F5F5F5F5F5F5F5F5F5F5F5F5F5F5F5F5F5F5F5F5F5F5F5F5F5F5F5F5F5F5F5F5F5F5F5F5F5F5F5F5F5F5F5F5F5F5F5F5F5F5F5F5
310
F5F5F5F5F5F5F5F5F5F5F5F5F5F5F5F5F5F5F5F5F5F5F5DCF5F5F5F5F5F5F5F5F5F5F5F5F5F5F5F5F5E2F5F5F5F5F5F5F5F5F5F5F5F5F5F5F5F5E2F5F5F5F5E2E2F5F5F5F5F5F5F5F5F5F5F5F5F5F5F5F5F5F5F5F5F5E2F5F5F5F5F5F5F5F5F5F5F5F5F5F5F5F5F5F5F5F5F5F5F5F5F5F5F5F5F5F5F5F5F5F5F5F5F5F5F5F5
310
F5F5F5F5F5F5F5F5F5F5F5F5F5F5F5F5F5F5F5F5F5F5F5F5F5F5F5F5F5F5F5F5F5F5F5F5F5F5F5F5F5F5F5F5F5F5F5F5F5F5F5F5F5F5F5F5F5F5F5F5F5F5F5F5F5F5F5F5F5F5F5F5F5F5F5F5DCF5F5F5F5F5F5F5F5F5F5F5F5F5F5F5F5F5E2F5F5F5F5F5F5F5F5F5F5F5F5F5F5F5F5F5F5F5F5F5E2E2F5F5F5F5F5F5F5F5F5
310
F5F5F5F5F5F5F5F5F5F5F5F5E2F5F5F5F5F5F5F5F5F5F5F5F5F5F5F5F5F5F5F5F5F5F5F5F5F5F5F5F5F5F5F5F5F5F5F5F5F5F5F5F5F5F5F5F5F5F5F5F5F5F5F5F5F5F5F5F5F5F5F5F5F5F5F5F5F5F5F5F5F5F5F5F5F5F5F5F5F5F5F5F5F5F5F5F5F5F5F5F5F5F5F5F5F5F5F5F5F5F5F5F5F5F5F5F5F5F5F5F5F5F5F5F5F5F5
310
F5F5F5F5F5F5F5F5F5F5F5F5F5F5F5F5F5F5F5F5E2F5F5F5F5F5F5F5F5F5F5F5F5F5F5F5F5F5F5F5F5F5E2E2F5F5F5F5F5F5F5F5F5F5F5F5F5F5F5F5F5F5F5F5F5E2F5F5F5F5F5F5F5F5F5F5F5F5F5F5F5F5F5F5F5F5F5F5F5F5F5F5F5F5F5F5F5F5F5F5F5F5F5F5F5F5F5F5F5F5F5F5F5F5F5F5F5F5F5F5F5F5F5F5F5F5F5
310
F5F5F5F5F5F5F5F5F5F5F5F5F5F5F5F5F5F5F5F5F5F5F5F5F5F5F5F5F5F5F5F5F5F5F5F5F5F5F5F5F5F5F5F5F5F5F5F5F5F5F5F5F5F5F5F5F5F5F5F5F5F5F5F5F5F5F5F5F5F5F5F5F5E2F5F5F5F5F5F5F5F5F5F5F5F5F5F5F5F5F5F5F5F5F5E2E2F5F5F5F5F5F5F5F5F5F5F5F5F5F5F5F5F5F5F5F5F5E2F5F5F5F5F5F5F5F5
310
F5F5F5F5F5F5F5F5F5F5F5F5F5F5F5F5F5F5F5F5F5F5F5F5F5F5F5F5F5F5F5F5F5F5F5F5F5F5F5F5F5F5F5F5F5F5F5F5F5F5F5F5F5F5F5F5F5F5F5F5F5F5F5F5F5F5F5F5F5F5F5F5F5F5F5F5F5F5F5F5F5F5F5F5F5F5F5F5F5F5F5F5F5F5F5F5F5F5F5F5F5F5F5F5F5F5F5F5F5F5F5F5F5F5F5F5F5F5F5F5F5F5F5F5F5F5E2
310
F5F5F5F5F5F5F5F5F5F5F5F5F5F5F5F5F5F5F5F5F5E2E2F5F5F5F5F5F5F5F5F5F5F5F5F5F5F5F5F5F5F5F5F5E2F5F5F5F5F5F5F5F5F5F5F5F5F5F5F5F5F5F5F5F5F5F5F5F5F5F5F5F5F5F5F5F5F5F5F5F5F5F5F5F5F5F5F5F5F5F5F5F5F5F5F5F5F5F5F5F5F5F5F5F5F5F5F5F5F5F5F5F5F5F5F5F5F5F5F5F5F5F5F5F5F5F5
310
F5F5F5F5F5F5F5F5F5F5F5F5F5F5F5F5F5F5F5F5F5F5F5F5F5F5F5F5F5F5F5F5F5F5F5F5F5F5F5F5F5F5F5F5F5F5F5F5F5F5F5F5E2F5F5F5F5F5F5F5F5F5F5F5F5F5F5F5F5F5F5F5F5F5E2E2F5F5F5F5F5F5F5F5F5F5F5F5F5F5F5F5F5F5F5F5F5E2F5F5F5F5F5F5F5F5F5F5F5F5F5F5F5F5F5F5F5F5F5F5F5F5F5F5F5F5F5
310
F5F5F5F5F5F5F5F5F5F5F5F5F5F5F5F5F5F5F5F5F5F5F5F5F5F5F5F5F5F5F5F5F5F5F5F5F5F5F5F5F5F5F5F5F5F5F5F5F5F5F5F5F5F5F5F5F5F5F5F5F5F5F5F5F5F5F5F5F5F5F5F5F5F5F5F5F5F5F5F5F5F5F5F5F5F5F5F5F5F5F5F5F5F5F5F5F5F5F5F5F5F5F5F5F5E2F5F5F5F5F5F5F5F5F5F5F5F5F5F5F5F5F5F5F5F5F5
310
E2E2F5F5F5F5F5F5F5F5F5F5F5F5F5F5F5F5F5F5F5F5F5E2F5F5F5F5F5F5F5F5F5F5F5F5F5F5F5F5F5F5F5F5F5F5F5F5F5F5F5F5F5F5F5F5F5F5F5F5F5F5F5F5F5F5F5F5F5F5F5F5F5F5F5F5F5F5F5F5F5F5F5F5F5F5F5F5F5F5F5F5F5F5F5F5F5F5F5F5F5F5F5F5F5F5F5F5F5F5F5F5F5F5F5F5F5F5F5F5F5F5F5F5F5F5F5
310
F5F5F5F5F5F5F5F5F5F5F5F5F5F5F5F5F5F5F5F5F5F5F5F5F5F5F5F5F5F5F5E2F5F5F5F5F5F5F5F5F5F5F5F5F5F5F5F5F5F5F5F5F5E2E2F5F5F5F5F5F5F5F5F5F5F5F5F5F5F5F5F5F5F5F5F5E2F5F5F5F5F5F5F5F5F5F5F5F5F5F5F5F5F5F5F5F5F5F5F5F5F5F5F5F5F5F5F5F5F5F5F5F5F5F5F5F5F5F5F5F5F5F5F5F5F5F5
310
F5F5F5F5F5F5F5F5F5F5F5F5F5F5F5F5F5F5F5F5F5F5F5F5F5F5F5F5F5F5F5F5F5F5F5F5F5F5F5F5F5F5F5F5F5F5F5F5F5F5F5F5F5F5F5F5F5F5F5F5F5F5F5F5F5F5F5F5F5F5F5F5F5F5F5F5F5F5F5F5F5F5F5F5E2F5F5F5F5F5F5F5F5F5F5F5F5F5F5F5F5F5F5F5F5F5E2E2F5F5F5F5F5F5F5F5F5F5F5F5F5F5F5F5F5F5F5
310
F5F5E2F5F5F5F5F5F5F5F5F5F5F5F5F5F5F5F5F5F5F5F5F5F5F5F5F5F5F5F5F5F5F5F5F5F5F5F5F5F5F5F5F5F5F5F5F5F5F5F5F5F5F5F5F5F5F5F5F5F5F5F5F5F5F5F5F5F5F5F5F5F5F5F5F5F5F5F5F5F5F5F5F5F5F5F5F5F5F5F5F5F5F5F5F5F5F5F5F5F5F5F5F5F5F5F5F5F5F5F5F5F5F5F5F5F5F5F5F5F5F5F5F5F5F5F5
310
F5F5F5F5F5F5F5F5F5F5E2F5F5F5F5F5F5F5F5F5F5F5F5F5F5F5F5F5F5F5F5F5E2E2F5F5F5F5E2F5F5F5F5F5F5F5F5F5F5F5F5F5F5F5F5E2F5F5F5F5F5F5F5F5F5F5F5F5F5F5F5F5F5F5F5F5F5F5F5F5F5F5F5F5F5F5F5F5F5F5F5F5F5F5F5F5F5F5F5F5F5F5F5F5F5F5F5F5F5F5F5F5F5F5F5F5F5F5F5F5F5F5F5F5F5F5F5
310
F5F5F5F5F5F5F5F5F5F5F5F5F5F5F5F5F5F5F5F5F5F5F5F5F5F5F5F5F5F5F5F5F5F5F5F5F5F5F5F5F5F5F5F5F5F5F5F5F5F5F5F5F5F5F5F5F5F5F5F5F5F5F5E2F5F5F5F5F5F5F5F5F5F5F5F5F5F5F5F5E2F5F5F5F5E2E2F5F5F5F5E2F5F5F5F5F5F5F5F5F5F5F5F5F5F5F5F5E2F5F5F5F5F5F5F5F5F5F5F5F5F5F5F5F5F5F5
310
F5F5F5F5F5F5F5F5F5F5F5F5F5F5F5F5F5F5F5F5F5F5F5F5F5F5F5F5F5F5F5F5F5F5F5F5F5F5F5F5F5F5F5F5F5F5F5F5F5F5F5F5F5F5F5F5F5F5F5F5F5F5F5F5F5F5F5F5F5F5F5F5F5F5F5F5F5F5F5F5F5F5F5F5F5F5F5F5F5F5F5F5F5F5F5F5F5F5F5F5F5F5F5F5F5F5F5F5F5F5F5F5F5F5F5F5E2F5F5F5F5F5F5F5F5F5F5
310
F5F5F5F5F5F5E2F5F5F5F5E2E2F5F5F5F5E2F5F5F5F5F5F5F5F5F5F5F5F5F5F5F5F5E2F5F5F5F5F5F5F5F5F5F5F5F5F5F5F5F5F5F5F5F5F5F5F5F5F5F5F5F5F5F5F5F5F5F5F5F5F5F5F5F5F5F5F5F5F5F5F5F5F5F5F5F5F5F5F5F5F5F5F5F5F5F5F5F5F5F5F5F5F5F5F5F5F5F5F5F5F5F5F5F5F5F5F5F5F5F5F5F5F5F5F5F5
310
F5F5F5F5F5F5F5F5F5F5F5F5F5F5F5F5F5F5F5F5F5F5F5F5F5F5F5F5F5F5F5F5F5F5F5F5F5F5F5F5F5F5E2F5F5F5F5F5F5F5F5F5F5F5F5F5F5F5F5E2F5F5F5F5E2E2F5F5F5F5E2F5F5F5F5F5F5F5F5F5F5F5F5F5F5F5F5E2F5F5F5F5F5F5F5F5F5F5F5F5F5F5F5F5F5F5F5F5F5F5F5F5F5F5F5F5F5F5F5F5F5F5F5F5F5F5F5
310
F5F5F5F5F5F5F5F5F5F5F5F5F5F5F5F5F5F5F5F5F5F5F5F5F5F5F5F5F5F5F5F5F5F5F5F5F5F5F5F5F5F5F5F5F5F5F5F5F5F5F5F5F5F5F5F5F5F5F5F5F5F5F5F5F5F5F5F5F5F5F5F5F5F5F5F5F5F5F5F5F5F5F5F5F5F5F5F5F5F5F5F5F5F5F5E2F5F5F5F5F5F5F5F5F5F5F5F5F5F5F5F5E2F5F5F5F5E2E2F5F5F5F5E2F5F5F5
310
F5F5F5F5F5F5F5F5F5F5F5F5F5E2F5F5F5F5F5F5F5F5F5F5F5F5F5F5F5F5F5F5F5F5F5F5F5F5F5F5F5F5F5F5F5F5F5F5F5F5F5F5F5F5F5F5F5F5F5F5F5F5F5F5F5F5F5F5F5F5F5F5F5F5F5F5F5F5F5F5F5F5F5F5F5F5F5F5F5F5F5F5F5F5F5F5F5F5F5F5F5F5F5F5F5F5F5F5F5F5F5F5F5F5F5F5F5F5F5F5F5F5F5F5F5F5F5
310
F5F5F5F5F5F5F5F5F5F5F5F5F5F5F5F5F5F5F5F5F5E2F5F5F5F5F5F5F5F5F5F5F5F5F5F5F5F5E2F5F5F5F5E2E2F5F5F5F5E2F5F5F5F5F5F5F5F5F5F5F5F5F5F5F5F5E2F5F5F5F5F5F5F5F5F5F5F5F5F5F5F5F5F5F5F5F5F5F5F5F5F5F5F5F5F5F5F5F5F5F5F5F5F5F5F5F5F5F5F5F5F5F5F5F5F5F5F5F5F5F5F5F5F5F5F5F5
310
F5F5F5F5F5F5F5F5F5F5F5F5F5F5F5F5F5F5F5F5F5F5F5F5F5F5F5F5F5F5F5F5F5F5F5F5F5F5F5F5F5F5F5F5F5F5F5F5F5F5F5F5F5F5F5F5F5F5F5F5F5F5F5F5F5F5F5F5F5F5F5F5F5F5E2F5F5F5F5F5F5F5F5F5F5F5F5F5F5F5F5E2F5F5F5F5E2E2F5F5F5F5E2F5F5F5F5F5F5F5F5F5F5F5F5F5F5F5F5E2F5F5F5F5F5F5F5
310
F5F5F5F5F5F5F5F5F5F5F5F5F5F5F5F5F5F5F5F5F5F5F5F5F5F5F5F5F5F5F5F5F5F5F5F5F5F5F5F5F5F5F5F5F5F5F5F5F5F5F5F5F5F5F5F5F5F5F5F5F5F5F5F5F5F5F5F5F5F5F5F5F5F5F5F5F5F5F5F5F5F5F5F5F5F5F5F5F5F5F5F5F5F5F5F5F5F5F5F5F5F5F5F5F5F5F5F5F5F5F5F5F5F5F5F5F5F5F5F5F5F5F5F5F5F5F5
310
E2F5F5F5F5F5F5F5F5F5F5F5F5F5F5F5F5E2F5F5F5F5E2E2F5F5F5F5E2F5F5F5F5F5F5F5F5F5F5F5F5F5F5F5F5E2F5F5F5F5F5F5F5F5F5F5F5F5F5F5F5F5F5F5F5F5F5F5F5F5F5F5F5F5F5F5F5F5F5F5F5F5F5F5F5F5F5F5F5F5F5F5F5F5F5F5F5F5F5F5F5F5F5F5F5F5F5F5F5F5F5F5F5F5F5F5F5F5F5F5F5F5F5F5F5F5F5
310
F5F5F5F5F5F5F5F5F5F5F5F5F5F5F5F5F5F5F5F5F5F5F5F5F5F5F5F5F5F5F5F5F5F5F5F5F5F5F5F5F5F5F5F5F5F5F5F5F5F5F5F5F5E2F5F5F5F5F5F5F5F5F5F5F5F5F5F5F5F5E2F5F5F5F5E2E2F5F5F5F5E2F5F5F5F5F5F5F5F5F5F5F5F5F5F5F5F5E2F5F5F5F5F5F5F5F5F5F5F5F5F5F5F5F5F5F5F5F5F5F5F5F5F5F5F5F5
310
F5F5F5F5F5F5F5F5F5F5F5F5F5F5F5F5F5F5F5F5F5F5F5F5F5F5F5F5F5F5F5F5F5F5F5F5F5F5F5F5F5F5F5F5F5F5F5F5F5F5F5F5F5F5F5F5F5F5F5F5F5F5F5F5F5F5F5F5F5F5F5F5F5F5F5F5F5F5F5F5F5F5F5F5F5F5F5F5F5F5F5F5F5F5F5F5F5F5F5F5F5F5F5F5F5F5E2F5F5F5F5F5F5F5F5F5F5F5F5F5F5F5F5E2F5F5F5
310
F5E2E2F5F5F5F5E2F5F5F5F5F5F5F5F5F5F5F5F5F5F5F5F5E2F5F5F5F5F5F5F5F5F5F5F5F5F5F5F5F5F5F5F5F5F5F5F5F5F5F5F5F5F5F5F5F5F5F5F5F5F5F5F5F5F5F5F5F5F5F5F5F5F5F5F5F5F5F5F5F5F5F5F5F5F5F5F5F5F5F5F5F5F5F5F5F5F5F5F5F5F5F5F5F5F5F5F5F5F5F5F5F5F5F5F5F5F5F5F5F5F5F5F5F5F5F5
310
F5F5F5F5F5F5F5F5F5F5F5F5F5F5F5F5F5F5F5F5F5F5F5F5F5F5F5F5F5F5F5F5E2F5F5F5F5F5F5F5F5F5F5F5F5F5F5F5F5E2F5F5F5F5E2E2F5F5F5F5E2F5F5F5F5F5F5F5F5F5F5F5F5F5F5F5F5E2F5F5F5F5F5F5F5F5F5F5F5F5F5F5F5F5F5F5F5F5F5F5F5F5F5F5F5F5F5F5F5F5F5F5F5F5F5F5F5F5F5F5F5F5F5F5F5F5F5
310
F5F5F5F5F5F5F5F5F5F5F5F5F5F5F5F5F5F5F5F5F5F5F5F5F5F5F5F5F5F5F5F5F5F5F5F5F5F5F5F5F5F5F5F5F5F5F5F5F5F5F5F5F5F5F5F5F5F5F5F5F5F5F5F5F5F5F5F5F5F5F5F5F5F5F5F5F5F5F5F5F5F5F5F5F5E2F5F5F5F5F5F5F5F5F5F5F5F5F5F5F5F5E2F5F5F5F5E2E2F5F5F5F5E2F5F5F5F5F5F5F5F5F5F5F5F5F5
310
F5F5F5E2F5F5F5F5F5F5F5F5F5F5F5F5F5F5F5F5F5F5F5F5F5F5F5F5F5F5F5F5F5F5F5F5F5F5F5F5F5F5F5F5F5F5F5F5F5F5F5F5F5F5F5F5F5F5F5F5F5F5F5F5F5F5F5F5F5F5F5F5F5F5F5F5F5F5F5F5F5F5F5F5F5F5F5F5F5F5F5F5F5F5F5F5F5F5F5F5F5F5F5F5F5F5F5F5F5F5F5F5F5F5F5F5F5F5F5F5F5F5F5F5F5F5F5
310
F5F5F5F5F5F5F5F5F5F5F5E2F5F5F5F5F5F5F5F5F5F5F5F5F5F5F5F5E2F5F5F5F5E2E2F5F5F5F5E2F5F5F5F5F5F5F5F5F5F5F5F5F5F5F5F5E2F5F5F5F5F5F5F5F5F5F5F5F5F5F5F5F5F5F5F5F5F5F5F5F5F5F5F5F5F5F5F5F5F5F5F5F5F5F5F5F5F5F5F5F5F5F5F5F5F5F5F5F5F5F5F5F5F5F5F5F5F5F5F5F5F5F5F5F5F5F5
310
F5F5F5F5F5F5F5F5F5F5F5F5F5F5F5F5F5F5F5F5F5F5F5F5F5F5F5F5F5F5F5F5F5F5F5F5F5F5F5F5F5F5F5F5F5F5F5F5F5F5F5F5F5F5F5F5F5F5F5F5F5F5F5F5E2F5F5F5F5F5F5F5F5F5F5F5F5F5F5F5F5E2F5F5F5F5E2E2F5F5F5F5E2F5F5F5F5F5F5F5F5F5F5F5F5F5F5F5F5E2F5F5F5F5F5F5F5F5F5F5F5F5F5F5F5F5F5
310
F5F5F5F5F5F5F5F5F5F5F5F5F5F5F5F5F5F5F5F5F5F5F5F5F5F5F5F5F5F5F5F5F5F5F5F5F5F5F5F5F5F5F5F5F5F5F5F5F5F5F5F5F5F5F5F5F5F5F5F5F5F5F5F5F5F5F5F5F5F5F5F5F5F5F5F5F5F5F5F5F5F5F5F5F5F5F5F5F5F5F5F5F5F5F5F5F5F5F5F5F5F5F5F5F5F5F5F5F5F5F5F5F5F5F5F5F5E2F5F5F5F5F5F5F5F5F5
310
F5F5F5F5F5F5F5E2F5F5F5F5E2E2F5F5F5F5E2F5F5F5F5F5F5F5F5F5F5F5F5F5F5F5F5E2F5F5F5F5F5F5F5F5F5F5F5F5F5F5F5F5F5F5F5F5F5F5F5F5F5F5F5F5F5F5F5F5F5F5F5F5F5F5F5F5F5F5F5F5F5F5F5F5F5F5F5F5F5F5F5F5F5F5F5F5F5F5F5F5F5F5F5F5F5F5F5F5F5F5F5F5F5F5F5F5F5F5F5F5F5F5F5F5F5F5F5
310
F5F5F5F5F5F5F5F5F5F5F5F5F5F5F5F5F5F5F5F5F5F5F5F5F5F5F5F5F5F5F5F5F5F5F5F5F5F5F5F5F5F5F5E2F5F5F5F5F5F5F5F5F5F5F5F5F5F5F5F5E2F5F5F5F5E2E2F5F5F5F5E2F5F5F5F5F5F5F5F5F5F5F5F5F5F5F5F5E2F5F5F5F5F5F5F5F5F5F5F5F5F5F5F5F5F5F5F5F5F5F5F5F5F5F5F5F5F5F5F5F5F5F5F5F5F5F5
310
F5F5F5F5F5F5F5F5F5F5F5F5F5F5F5F5F5F5F5F5F5F5F5F5F5F5F5F5F5F5F5F5F5F5F5F5F5F5F5F5F5F5F5F5F5F5F5F5F5F5F5F5F5F5F5F5F5F5F5F5F5F5F5F5F5F5F5F5F5F5F5F5F5F5F5F5F5F5F5F5F5F5F5F5F5F5F5F5F5F5F5F5F5F5F5F5E2F5F5F5F5F5F5F5F5F5F5F5F5F5F5F5F5E2F5F5F5F5E2E2F5F5F5F5E2F5F5
310
F5F5F5F5F5F5F5F5F5F5F5F5F5F5E2F5F5F5F5F5F5F5F5F5F5F5F5F5F5F5F5F5F5F5F5F5F5F5F5F5F5F5F5F5F5F5F5F5F5F5F5F5F5F5F5F5F5F5F5F5F5F5F5F5F5F5F5F5F5F5F5F5F5F5F5F5F5F5F5F5F5F5F5F5F5F5F5F5F5F5F5F5F5F5F5F5F5F5F5F5F5F5F5F5F5F5F5F5F5F5F5F5F5F5F5F5F5F5F5F5F5F5F5F5F5F5F5
310
F5F5F5F5F5F5F5F5F5F5F5F5F5F5F5F5F5F5F5F5F5F5E2F5F5F5F5F5F5F5F5F5F5F5F5F5F5F5F5E2F5F5F5F5E2E2F5F5F5F5F5F5F5F5F5F5F5F5F5F5F5F5F5F5F5F5F5E2F5F5F5F5F5F5F5F5F5F5F5F5F5F5F5F5F5F5F5F5F5F5F5F5F5F5F5F5F5F5F5F5F5F5F5F5F5F5F5F5F5F5F5F5F5F5F5F5F5F5F5F5F5F5F5F5F5F5F5
310
F5F5F5F5F5F5F5F5F5F5F5F5F5F5F5F5F5F5F5F5F5F5F5F5F5F5F5F5F5F5F5F5F5F5F5F5F5F5F5F5F5F5F5F5F5F5F5F5F5F5F5F5F5F5F5F5F5F5F5F5F5F5F5F5F5F5F5F5F5F5F5F5F5F5F5E2F5F5F5F5F5F5F5F5F5F5F5F5F5F5F5F5F5F5F5F5F5E2E2F5F5F5F5F5F5F5F5F5F5F5F5F5F5F5F5F5F5F5F5F5E2F5F5F5F5F5F5
310
F5F5F5F5F5F5F5F5F5F5F5F5F5F5F5F5F5F5F5F5F5F5F5F5F5F5F5F5F5F5F5F5F5F5F5F5F5F5F5F5F5F5F5F5F5F5F5F5F5F5F5F5F5F5F5F5F5F5F5F5F5F5F5F5F5F5F5F5F5F5F5F5F5F5F5F5F5F5F5F5F5F5F5F5F5F5F5F5F5F5F5F5F5F5F5F5F5F5F5F5F5F5F5F5F5F5F5F5F5F5F5F5F5F5F5F5F5F5F5F5F5F5F5F5F5F5F5
310
F5E2F5F5F5F5F5F5F5F5F5F5F5F5F5F5F5F5F5F5F5F5F5E2E2F5F5F5F5F5F5F5F5F5F5F5F5F5F5F5F5F5F5F5F5F5E2F5F5F5F5F5F5F5F5F5F5F5F5F5F5F5F5F5F5F5F5F5F5F5F5F5F5F5F5F5F5F5F5F5F5F5F5F5F5F5F5F5F5F5F5F5F5F5F5F5F5F5F5F5F5F5F5F5F5F5F5F5F5F5F5F5F5F5F5F5F5F5F5F5F5F5F5F5F5F5F5
310
F5F5F5F5F5F5F5F5F5F5F5F5F5F5F5F5F5F5F5F5F5F5F5F5F5F5F5F5F5F5F5F5F5F5F5F5F5F5F5F5F5F5F5F5F5F5F5F5F5F5F5F5F5F5E2F5F5F5F5F5F5F5F5F5F5F5F5F5F5F5F5F5F5F5F5F5E2E2F5F5F5F5F5F5F5F5F5F5F5F5F5F5F5F5F5F5F5F5F5E2F5F5F5F5F5F5F5F5F5F5F5F5F5F5F5F5F5F5F5F5F5F5F5F5F5F5F5
310
F5F5F5F5F5F5F5F5F5F5F5F5F5F5F5F5F5F5F5F5F5F5F5F5F5F5F5F5F5F5F5F5F5F5F5F5F5F5F5F5F5F5F5F5F5F5F5F5F5F5F5F5F5F5F5F5F5F5F5F5F5F5F5F5F5F5F5F5F5F5F5F5F5F5F5F5F5F5F5F5F5F5F5F5F5F5F5F5F5F5F5F5F5F5F5F5F5F5F5F5F5F5F5F5F5F5F5E2F5F5F5F5F5F5F5F5F5F5F5F5F5F5F5F5F5F5F5
310
F5F5E2E2F5F5F5F5F5F5F5F5F5F5F5F5F5F5F5F5F5F5F5F5F5E2F5F5F5F5F5F5F5F5F5F5F5F5F5F5F5F5F5F5F5F5F5F5F5F5F5F5F5F5F5F5F5F5F5F5F5F5F5F5F5F5F5F5F5F5F5F5F5F5F5F5F5F5F5F5F5F5F5F5F5F5F5F5F5F5F5F5F5F5F5F5F5F5F5F5F5F5F5F5F5F5F5F5F5F5F5F5F5F5F5F5F5F5F5F5F5F5F5F5F5F5F5
310
F5F5F5F5F5F5F5F5F5F5F5F5F5F5F5F5F5F5F5F5F5F5F5F5F5F5F5F5F5F5F5F5F5E2F5F5F5F5F5F5F5F5F5F5F5F5F5F5F5F5F5F5F5F5F5E2E2F5F5F5F5F5F5F5F5F5F5F5F5F5F5F5F5F5F5F5F5F5E2F5F5F5F5F5F5F5F5F5F5F5F5F5F5F5F5F5F5F5F5F5F5F5F5F5F5F5F5F5F5F5F5F5F5F5F5F5F5F5F5F5F5F5F5F5F5F5F5
310
F5F5F5F5F5F5F5F5F5F5F5F5F5F5F5F5F5F5F5F5F5F5F5F5F5F5F5F5F5F5F5F5F5F5F5F5F5F5F5F5F5F5F5F5F5F5F5F5F5F5F5F5F5F5F5F5F5F5F5F5F5F5F5F5F5F5F5F5F5F5F5F5F5F5F5F5F5F5F5F5F5F5F5F5F5F5E2F5F5F5F5F5F5F5F5F5F5F5F5F5F5F5F5F5F5F5F5F5E2E2F5F5F5F5F5F5F5F5F5F5F5F5F5F5F5F5F5
310
F5F5F5F5E2F5F5F5F5F5F5F5F5F5F5F5F5F5F5F5F5F5F5F5F5F5F5F5F5F5F5F5F5F5F5F5F5F5F5F5F5F5F5F5F5F5F5F5F5F5F5F5F5F5F5F5F5F5F5F5F5F5F5F5F5F5F5F5F5F5F5F5F5F5F5F5F5F5F5F5F5F5F5F5F5F5F5F5F5F5F5F5F5F5F5F5F5F5F5F5F5F5F5F5F5F5F5F5F5F5F5F5F5F5F5F5F5F5F5F5F5F5F5F5F5F5F5
310
F5F5F5F5F5F5F5F5F5F5F5F5E2F5F5F5F5F5F5F5F5F5F5F5F5F5F5F5F5F5F5F5F5F5E2E2F5F5F5F5F5F5F5F5F5F5F5F5F5F5F5F5F5F5F5F5F5E2F5F5F5F5F5F5F5F5F5F5F5F5F5F5F5F5F5F5F5F5F5F5F5F5F5F5F5F5F5F5F5F5F5F5F5F5F5F5F5F5F5F5F5F5F5F5F5F5F5F5F5F5F5F5F5F5F5F5F5F5F5F5F5F5F5F5F5F5F5
310
F5F5F5F5F5F5F5F5F5F5F5F5F5F5F5F5F5F5F5F5F5F5F5F5F5F5F5F5F5F5F5F5F5F5F5F5F5F5F5F5F5F5F5F5F5F5F5F5F5F5F5F5F5F5F5F5F5F5F5F5F5F5F5F5F5E2F5F5F5F5F5F5F5F5F5F5F5F5F5F5F5F5F5F5F5F5F5E2E2F5F5F5F5F5F5F5F5F5F5F5F5F5F5F5F5F5F5F5F5F5E2F5F5F5F5F5F5F5F5F5F5F5F5F5F5F5F5
310
F5F5F5F5F5F5F5F5F5F5F5F5F5F5F5F5F5F5F5F5F5F5F5F5F5F5F5F5F5F5F5F5F5F5F5F5F5F5F5F5F5F5F5F5F5F5F5F5F5F5F5F5F5F5F5F5F5F5F5F5F5F5F5F5F5F5F5F5F5F5F5F5F5F5F5F5F5F5F5F5F5F5F5F5F5F5F5F5F5F5F5F5F5F5F5F5F5F5F5F5F5F5F5F5F5F5F5F5F5F5F5F5F5F5F5F5F5F5E2F5F5F5F5F5F5F5F5
310
F5F5F5F5F5F5F5F5F5F5F5F5F5E2E2F5F5F5F5E2F5F5F5F5F5F5F5F5F5F5F5F5F5F5F5F5E2F5F5F5F5F5F5F5F5F5F5F5F5F5F5F5F5F5F5F5F5F5F5F5F5F5F5F5F5F5F5F5F5F5F5F5F5F5F5F5F5F5F5F5F5F5F5F5F5F5F5F5F5F5F5F5F5F5F5F5F5F5F5F5F5F5F5F5F5F5F5F5F5F5F5F5F5F5F5F5F5F5F5F5F5F5F5F5F5F5F5
310
F5F5F5F5F5F5F5F5F5F5F5F5F5F5F5F5F5F5F5F5F5F5F5F5F5F5F5F5F5F5F5F5F5F5F5F5F5F5F5F5F5F5F5F5E2F5F5F5F5F5F5F5F5F5F5F5F5F5F5F5F5E2F5F5F5F5E2E2F5F5F5F5E2F5F5F5F5F5F5F5F5F5F5F5F5F5F5F5F5E2F5F5F5F5F5F5F5F5F5F5F5F5F5F5F5F5F5F5F5F5F5F5F5F5F5F5F5F5F5F5F5F5F5F5F5F5F5
310
F5F5F5F5F5F5F5F5F5F5F5F5F5F5F5F5F5F5F5F5F5F5F5F5F5F5F5F5F5F5F5F5F5F5F5F5F5F5F5F5F5F5F5F5F5F5F5F5F5F5F5F5F5F5F5F5F5F5F5F5F5F5F5F5F5F5F5F5F5F5F5F5F5F5F5F5F5F5F5F5F5F5F5F5F5F5F5F5F5F5F5F5F5F5F5F5F5E2F5F5F5F5F5F5F5F5F5F5F5F5F5F5F5F5E2F5F5F5F5E2E2F5F5F5F5E2F5
310
F5F5F5F5F5F5F5F5F5F5F5F5F5F5F5E2F5F5F5F5F5F5F5F5F5F5F5F5F5F5F5F5F5F5F5F5F5F5F5F5F5F5F5F5F5F5F5F5F5F5F5F5F5F5F5F5F5F5F5F5F5F5F5F5F5F5F5F5F5F5F5F5F5F5F5F5F5F5F5F5F5F5F5F5F5F5F5F5F5F5F5F5F5F5F5F5F5F5F5F5F5F5F5F5F5F5F5F5F5F5F5F5F5F5F5F5F5F5F5F5F5F5F5F5F5F5F5
310
F5F5F5F5F5F5F5F5F5F5F5F5F5F5F5F5F5F5F5F5F5F5F5E2F5F5F5F5F5F5F5F5F5F5F5F5F5F5F5F5E2F5F5F5F5E2E2F5F5F5F5E2F5F5F5F5F5F5F5F5F5F5F5F5F5F5F5F5E2F5F5F5F5F5F5F5F5F5F5F5F5F5F5F5F5F5F5F5F5F5F5F5F5F5F5F5F5F5F5F5F5F5F5F5F5F5F5F5F5F5F5F5F5F5F5F5F5F5F5F5F5F5F5F5F5F5F5
310
F5F5F5F5F5F5F5F5F5F5F5F5F5F5F5F5F5F5F5F5F5F5F5F5F5F5F5F5F5F5F5F5F5F5F5F5F5F5F5F5F5F5F5F5F5F5F5F5F5F5F5F5F5F5F5F5F5F5F5F5F5F5F5F5F5F5F5F5F5F5F5F5F5F5F5F5E2F5F5F5F5F5F5F5F5F5F5F5F5F5F5F5F5E2F5F5F5F5E2E2F5F5F5F5E2F5F5F5F5F5F5F5F5F5F5F5F5F5F5F5F5E2F5F5F5F5F5
310
F5F5F5F5F5F5F5F5F5F5F5F5F5F5F5F5F5F5F5F5F5F5F5F5F5F5F5F5F5F5F5F5F5F5F5F5F5F5F5F5F5F5F5F5F5F5F5F5F5F5F5F5F5F5F5F5F5F5F5F5F5F5F5F5F5F5F5F5F5F5F5F5F5F5F5F5F5F5F5F5F5F5F5F5F5F5F5F5F5F5F5F5F5F5F5F5F5F5F5F5F5F5F5F5F5F5F5F5F5F5F5F5F5F5F5F5F5F5F5F5F5F5F5F5F5F5F5
310
F5F5E2F5F5F5F5F5F5F5F5F5F5F5F5F5F5F5F5E2F5F5F5F5E2E2F5F5F5F5E2F5F5F5F5F5F5F5F5F5F5F5F5F5F5F5F5E2F5F5F5F5F5F5F5F5F5F5F5F5F5F5F5F5F5F5F5F5F5F5F5F5F5F5F5F5F5F5F5F5F5F5F5F5F5F5F5F5F5F5F5F5F5F5F5F5F5F5F5F5F5F5F5F5F5F5F5F5F5F5F5F5F5F5F5F5F5F5F5F5F5F5F5F5F5F5F5
310
F5F5F5F5F5F5F5F5F5F5F5F5F5F5F5F5F5F5F5F5F5F5F5F5F5F5F5F5F5F5F5F5F5F5F5F5F5F5F5F5F5F5F5F5F5F5F5F5F5F5F5F5F5F5F5E2F5F5F5F5F5F5F5F5F5F5F5F5F5F5F5F5E2F5F5F5F5E2E2F5F5F5F5E2F5F5F5F5F5F5F5F5F5F5F5F5F5F5F5F5E2F5F5F5F5F5F5F5F5F5F5F5F5F5F5F5F5F5F5F5F5F5F5F5F5F5F5
310
F5F5F5F5F5F5F5F5F5F5F5F5F5F5F5F5F5F5F5F5F5F5F5F5F5F5F5F5F5F5F5F5F5F5F5F5F5F5F5F5F5F5F5F5F5F5F5F5F5F5F5F5F5F5F5F5F5F5F5F5F5F5F5F5F5F5F5F5F5F5F5F5F5F5F5F5F5F5F5F5F5F5F5F5F5F5F5F5F5F5F5F5F5F5F5F5F5F5F5F5F5F5F5F5F5F5F5F5E2F5F5F5F5F5F5F5F5F5F5F5F5F5F5F5F5E2F5
310
F5F5F5E2E2F5F5F5F5E2F5F5F5F5F5F5F5F5F5F5F5F5F5F5F5F5E2F5F5F5F5F5F5F5F5F5F5F5F5F5F5F5F5F5F5F5F5F5F5F5F5F5F5F5F5F5F5F5F5F5F5F5F5F5F5F5F5F5F5F5F5F5F5F5F5F5F5F5F5F5F5F5F5F5F5F5F5F5F5F5F5F5F5F5F5F5F5F5F5F5F5F5F5F5F5F5F5F5F5F5F5F5F5F5F5F5F5F5F5F5F5F5F5F5F5F5F5
310
F5F5F5F5F5F5F5F5F5F5F5F5F5F5F5F5F5F5F5F5F5F5F5F5F5F5F5F5F5F5F5F5F5F5E2F5F5F5F5F5F5F5F5F5F5F5F5F5F5F5F5E2F5F5F5F5E2E2F5F5F5F5E2F5F5F5F5F5F5F5F5F5F5F5F5F5F5F5F5E2F5F5F5F5F5F5F5F5F5F5F5F5F5F5F5F5F5F5F5F5F5F5F5F5F5F5F5F5F5F5F5F5F5F5F5F5F5F5F5F5F5F5F5F5F5F5F5
310
F5F5F5F5F5F5F5F5F5F5F5F5F5F5F5F5F5F5F5F5F5F5F5F5F5F5F5F5F5F5F5F5F5F5F5F5F5F5F5F5F5F5F5F5F5F5F5F5F5F5F5F5F5F5F5F5F5F5F5F5F5F5F5F5F5F5F5F5F5F5F5F5F5F5F5F5F5F5F5F5F5F5F5F5F5F5F5E2F5F5F5F5F5F5F5F5F5F5F5F5F5F5F5F5E2F5F5F5F5E2E2F5F5F5F5E2F5F5F5F5F5F5F5F5F5F5F5
310
F5F5F5F5F5E2F5F5F5F5F5F5F5F5F5F5F5F5F5F5F5F5F5F5F5F5F5F5F5F5F5F5F5F5F5F5F5F5F5F5F5F5F5F5F5F5F5F5F5F5F5F5F5F5F5F5F5F5F5F5F5F5F5F5F5F5F5F5F5F5F5F5F5F5F5F5F5F5F5F5F5F5F5F5F5F5F5F5F5F5F5F5F5F5F5F5F5F5F5F5F5F5F5F5F5F5F5F5F5F5F5F5F5F5F5F5F5F5F5F5F5F5F5F5F5F5F5
310
F5F5F5F5F5F5F5F5F5F5F5F5F5E2F5F5F5F5F5F5F5F5F5F5F5F5F5F5F5F5E2F5F5F5F5E2E2F5F5F5F5E2F5F5F5F5F5F5F5F5F5F5F5F5F5F5F5F5E2F5F5F5F5F5F5F5F5F5F5F5F5F5F5F5F5F5F5F5F5F5F5F5F5F5F5F5F5F5F5F5F5F5F5F5F5F5F5F5F5F5F5F5F5F5F5F5F5F5F5F5F5F5F5F5F5F5F5F5F5F5F5F5F5F5F5F5F5
310
F5F5F5F5F5F5F5F5F5F5F5F5F5F5F5F5F5F5F5F5F5F5F5F5F5F5F5F5F5F5F5F5F5F5F5F5F5F5F5F5F5F5F5F5F5F5F5F5F5F5F5F5F5F5F5F5F5F5F5F5F5F5F5F5F5F5E2F5F5F5F5F5F5F5F5F5F5F5F5F5F5F5F5E2F5F5F5F5E2E2F5F5F5F5E2F5F5F5F5F5F5F5F5F5F5F5F5F5F5F5F5E2F5F5F5F5F5F5F5F5F5F5F5F5F5F5F5
310
F5F5F5F5F5F5F5F5F5F5F5F5F5F5F5F5F5F5F5F5F5F5F5F5F5F5F5F5F5F5F5F5F5F5F5F5F5F5F5F5F5F5F5F5F5F5F5F5F5F5F5F5F5F5F5F5F5F5F5F5F5F5F5F5F5F5F5F5F5F5F5F5F5F5F5F5F5F5F5F5F5F5F5F5F5F5F5F5F5F5F5F5F5F5F5F5F5F5F5F5F5F5F5F5F5F5F5F5F5F5F5F5F5F5F5F5F5F5F5E2F5F5F5F5F5F5F5
310
F5F5F5F5F5F5F5F5F5E2F5F5F5F5E2E2F5F5F5F5E2F5F5F5F5F5F5F5F5F5F5F5F5F5F5F5F5E2F5F5F5F5F5F5F5F5F5F5F5F5F5F5F5F5F5F5F5F5F5F5F5F5F5F5F5F5F5F5F5F5F5F5F5F5F5F5F5F5F5F5F5F5F5F5F5F5F5F5F5F5F5F5F5F5F5F5F5F5F5F5F5F5F5F5F5F5F5F5F5F5F5F5F5F5F5F5F5F5F5F5F5F5F5F5F5F5F5
310
F5F5F5F5F5F5F5F5F5F5F5F5F5F5F5F5F5F5F5F5F5F5F5F5F5F5F5F5F5F5F5F5F5F5F5F5F5F5F5F5F5F5F5F5F5E2F5F5F5F5F5F5F5F5F5F5F5F5F5F5F5F5E2F5F5F5F5E2E2F5F5F5F5E2F5F5F5F5F5F5F5F5F5F5F5F5F5F5F5F5E2F5F5F5F5F5F5F5F5F5F5F5F5F5F5F5F5F5F5F5F5F5F5F5F5F5F5F5F5F5F5F5F5F5F5F5F5
310
F5F5F5F5F5F5F5F5F5F5F5F5F5F5F5F5F5F5F5F5F5F5F5F5F5F5F5F5F5F5F5F5F5F5F5F5F5F5F5F5F5F5F5F5F5F5F5F5F5F5F5F5F5F5F5F5F5F5F5F5F5F5F5F5F5F5F5F5F5F5F5F5F5F5F5F5F5F5F5F5F5F5F5F5F5F5F5F5F5F5F5F5F5F5F5F5F5F5E2F5F5F5F5F5F5F5F5F5F5F5F5F5F5F5F5E2F5F5F5F5E2E2F5F5F5F5E2
310
F5F5F5F5F5F5F5F5F5F5F5F5F5F5F5F5E2F5F5F5F5F5F5F5F5F5F5F5F5F5F5F5F5F5F5F5F5F5F5F5F5F5F5F5F5F5F5F5F5F5F5F5F5F5F5F5F5F5F5F5F5F5F5F5F5F5F5F5F5F5F5F5F5F5F5F5F5F5F5F5F5F5F5F5F5F5F5F5F5F5F5F5F5F5F5F5F5F5F5F5F5F5F5F5F5F5F5F5F5F5F5F5F5F5F5F5F5F5F5F5F5F5F5F5F5F5F5
310
F5F5F5F5F5F5F5F5F5F5F5F5F5F5F5F5F5F5F5F5F5F5F5F5E2F5F5F5F5F5F5F5F5F5F5F5F5F5F5F5F5E2F5F5F5F5E2E2F5F5F5F5E2F5F5F5F5F5F5F5F5F5F5F5F5F5F5F5F5E2F5F5F5F5F5F5F5F5F5F5F5F5F5F5F5F5F5F5F5F5F5F5F5F5F5F5F5F5F5F5F5F5F5F5F5F5F5F5F5F5F5F5F5F5F5F5F5F5F5F5F5F5F5F5F5F5F5
310
F5F5F5F5F5F5F5F5F5F5F5F5F5F5F5F5F5F5F5F5F5F5F5F5F5F5F5F5F5F5F5F5F5F5F5F5F5F5F5F5F5F5F5F5F5F5F5F5F5F5F5F5F5F5F5F5F5F5F5F5F5F5F5F5F5F5F5F5F5F5F5F5F5F5F5F5F5E2F5F5F5F5F5F5F5F5F5F5F5F5F5F5F5F5E2F5F5F5F5E2E2F5F5F5F5E2F5F5F5F5F5F5F5F5F5F5F5F5F5F5F5F5E2F5F5F5F5
310
F5F5F5F5F5F5F5F5F5F5F5F5F5F5F5F5F5F5F5F5F5F5F5F5F5F5F5F5F5F5F5F5F5F5F5F5F5F5F5F5F5F5F5F5F5F5F5F5F5F5F5F5F5F5F5F5F5F5F5F5F5F5F5F5F5F5F5F5F5F5F5F5F5F5F5F5F5F5F5F5F5F5F5F5F5F5F5F5F5F5F5F5F5F5F5F5F5F5F5F5F5F5F5F5F5F5F5F5F5F5F5F5F5F5F5F5F5F5F5F5F5F5F5F5F5F5F5
310
F5F5F5E2F5F5F5F5F5F5F5F5F5F5F5F5F5F5F5F5E2F5F5F5F5E2E2F5F5F5F5F5F5F5F5F5F5F5F5F5F5F5F5F5F5F5F5F5E2F5F5F5F5F5F5F5F5F5F5F5F5F5F5F5F5F5F5F5F5F5F5F5F5F5F5F5F5F5F5F5F5F5F5F5F5F5F5F5F5F5F5F5F5F5F5F5F5F5F5F5F5F5F5F5F5F5F5F5F5F5F5F5F5F5F5F5F5F5F5F5F5F5F5F5F5F5F5
310
F5F5F5F5F5F5F5F5F5F5F5F5F5F5F5F5F5F5F5F5F5F5F5F5F5F5F5F5F5F5F5F5F5F5F5F5F5F5F5F5F5F5F5F5F5F5F5F5F5F5F5F5F5F5F5F5E2F5F5F5F5F5F5F5F5F5F5F5F5F5F5F5F5F5F5F5F5F5E2E2F5F5F5F5F5F5F5F5F5F5F5F5F5F5F5F5F5F5F5F5F5E2F5F5F5F5F5F5F5F5F5F5F5F5F5F5F5F5F5F5F5F5F5F5F5F5F5
310
F5F5F5F5F5F5F5F5F5F5F5F5F5F5F5F5F5F5F5F5F5F5F5F5F5F5F5F5F5F5F5F5F5F5F5F5F5F5F5F5F5F5F5F5F5F5F5F5F5F5F5F5F5F5F5F5F5F5F5F5F5F5F5F5F5F5F5F5F5F5F5F5F5F5F5F5F5F5F5F5F5F5F5F5F5F5F5F5F5F5F5F5F5F5F5F5F5F5F5F5F5F5F5F5F5F5F5F5F5E2F5F5F5F5F5F5F5F5F5F5F5F5F5F5F5F5F5
310
F5F5F5F5E2E2F5F5F5F5F5F5F5F5F5F5F5F5F5F5F5F5F5F5F5F5F5E2F5F5F5F5F5F5F5F5F5F5F5F5F5F5F5F5F5F5F5F5F5F5F5F5F5F5F5F5F5F5F5F5F5F5F5F5F5F5F5F5F5F5F5F5F5F5F5F5F5F5F5F5F5F5F5F5F5F5F5F5F5F5F5F5F5F5F5F5F5F5F5F5F5F5F5F5F5F5F5F5F5F5F5F5F5F5F5F5F5F5F5F5F5F5F5F5F5F5F5
310
F5F5F5F5F5F5F5F5F5F5F5F5F5F5F5F5F5F5F5F5F5F5F5F5F5F5F5F5F5F5F5F5F5F5F5E2F5F5F5F5F5F5F5F5F5F5F5F5F5F5F5F5F5F5F5F5F5E2E2F5F5F5F5F5F5F5F5F5F5F5F5F5F5F5F5F5F5F5F5F5E2F5F5F5F5F5F5F5F5F5F5F5F5F5F5F5F5F5F5F5F5F5F5F5F5F5F5F5F5F5F5F5F5F5F5F5F5F5F5F5F5F5F5F5F5F5F5
310
F5F5F5F5F5F5F5F5F5F5F5F5F5F5F5F5F5F5F5F5F5F5F5F5F5F5F5F5F5F5F5F5F5F5F5F5F5F5F5F5F5F5F5F5F5F5F5F5F5F5F5F5F5F5F5F5F5F5F5F5F5F5F5F5F5F5F5F5F5F5F5F5F5F5F5F5F5F5F5F5F5F5F5F5F5F5F5F5E2F5F5F5F5F5F5F5F5F5F5F5F5F5F5F5F5F5F5F5F5F5E2E2F5F5F5F5F5F5F5F5F5F5F5F5F5F5F5
310
F5F5F5F5F5F5E2E2E2E2E2E2E2E2E2E2E2E2E2E2E2E2E2E2E2E2E2E2E2E2E2E2E2E2E2E2E2E2E2E2E2E2E2E2E2E2E2E2E2E2E2E2E2E2E2E2E2E2E2E2E2E2E2E2E2E2E2E2E2E2E2E2E2E2E2E2E2E2E2E2E2E2E2E2E2E2E2E2E2E2E2E2E2E2E2E2E2E2E2E2E2E2E2E2E2E2E2E2E2E2E2E2E2E2E2E2E2E2E2E2E2E2E2E2E2E2E2
310
E2E2E2E2E2E2E2E2E2E2E2E2E2E2E2F5F5F5F5F5F5F5F5F5F5F5F5F5F5F5F5F5F5F5F5F5E2E2F5F5F5F5F5F5F5F5F5F5F5F5F5F5F5F5F5F5F5F5F5F5F5F5F5F5F5F5F5F5F5F5F5F5F5F5F5F5F5F5F5F5F5F5F5F5F5F5F5F5F5F5F5F5F5F5F5F5F5F5F5F5F5F5F5F5F5F5F5F5F5F5F5F5F5F5F5F5F5F5F5F5F5F5F5F5F5F5F5
310
F5F5F5F5F5F5F5F5F5F5F5F5F5F5F5F5F5F5F5F5F5F5F5F5F5F5F5F5F5F5F5F5F5F5F5F5F5F5F5F5F5F5F5F5F5F5F5F5F5F5F5F5F5F5F5F5F5F5F5F5F5F5F5F5F5F5F5F5F5F5F5F5F5F5F5F5F5F5F5F5F5F5F5F5F5F5F5F5F5E2E2F5F5F5F5F5F5F5F5F5F5F5F5F5F5F5F5F5F5F5F5F5F5F5F5F5F5F5F5F5F5F5F5F5F5F5F5
310
F5F5F5F5F5F5F5F5F5F5F5F5F5F5F5F5F5F5F5F5F5F5F5F5F5F5F5F5F5F5F5F5F5F5F5F5F5F5F5F5F5F5F5F5F5F5F5F5F5F5F5F5F5F5F5F5F5F5F5F5F5F5F5F5F5F5F5F5F5F5F5F5F5F5F5F5F5F5F5F5F5F5F5F5F5F5F5F5F5F5F5F5F5F5F5F5F5F5F5F5F5F5F5F5F5F5F5F5F5F5F5F5F5F5F5F5F5F5F5F5F5F5F5F5F5F5F5
310
F5F5F5F5F5F5F5F5F5F5F5F5F5F5F5E2E2F5F5F5F5F5F5F5F5F5F5F5F5F5F5F5F5F5F5F5F5F5F5F5F5F5F5F5F5F5F5F5F5F5F5F5F5F5F5F5F5F5F5F5F5F5F5F5F5F5F5F5F5F5F5F5F5F5F5F5F5F5F5F5F5F5F5F5F5F5F5F5F5F5F5F5F5F5F5F5F5F5F5F5F5F5F5F5F5F5F5F5F5F5F5F5F5F5F5F5F5F5F5F5F5F5F5F5F5F5F5
310
F5F5F5F5F5F5F5F5F5F5F5F5F5F5F5F5F5F5F5F5F5F5F5F5F5F5F5F5F5F5F5F5F5F5F5F5F5F5F5F5F5F5F5F5F5F5F5F5F5F5F5F5F5F5F5F5F5F5F5F5F5F5F5F5F5F5F5F5E2E2F5F5F5F5F5F5F5F5F5F5F5F5F5F5F5F5F5F5F5F5F5F5F5F5F5F5F5F5F5F5F5F5F5F5F5F5F5F5F5F5F5F5F5F5F5F5F5F5F5F5F5F5F5F5F5F5F5
310
F5F5F5F5F5F5F5F5F5F5F5F5F5F5F5F5F5F5F5F5F5F5F5F5F5F5F5F5F5F5F5F5F5F5F5F5F5F5F5F5F5F5F5F5F5F5F5F5F5F5F5F5F5F5F5F5F5F5F5F5F5F5F5F5F5F5F5F5F5F5F5F5F5F5F5F5F5F5F5F5F5F5F5F5F5F5F5F5F5F5F5F5F5F5F5F5F5F5F5F5F5F5F5F5F5F5F5F5F5F5F5F5F5F5F5F5F5F5F5F5F5E2E2F5F5F5F5
310
E2F5F5F5F5F5F5F5F5F5F5F5F5F5F5F5F5F5F5F5F5F5F5F5F5F5F5F5F5F5F5F5F5F5F5F5F5F5F5F5F5F5F5F5F5F5F5F5F5F5F5F5F5F5F5F5F5F5F5F5F5F5F5F5F5F5F5F5F5F5F5F5F5F5F5F5F5F5F5F5F5F5F5F5F5F5F5F5F5F5F5F5F5F5F5F5F5F5F5F5F5F5F5F5F5F5F5F5F5F5F5F5F5F5F5F5F5F5F5F5F5F5F5F5F5F5F5
310
F5F5F5F5F5F5F5F5F5F5F5F5F5F5F5F5F5F5F5F5F5F5F5F5F5F5F5F5F5F5F5F5F5F5F5F5F5F5F5F5F5F5E2F5F5F5F5E2E2F5F5F5F5E2F5F5F5F5F5F5F5F5F5F5F5F5F5F5F5F5F5F5F5F5F5F5F5F5F5F5F5F5F5F5F5F5F5F5F5F5F5F5F5F5F5F5F5F5F5F5F5F5F5F5F5F5F5F5F5F5F5F5F5F5F5F5F5F5F5F5F5F5F5F5F5F5F5
310
F5F5F5F5F5F5F5F5F5F5F5F5F5F5F5F5F5F5F5F5F5F5F5F5F5F5F5F5F5F5F5F5F5F5F5F5F5F5F5F5F5F5F5F5F5F5F5F5F5F5F5F5F5F5F5F5F5F5F5F5F5F5F5F5F5F5F5F5F5F5F5F5F5F5F5F5F5F5F5F5F5F5F5F5F5F5F5F5F5F5F5F5F5F5F5E2F5F5F5F5E2E2F5F5F5F5E2F5F5F5F5F5F5F5F5F5F5F5F5F5F5F5F5F5F5F5F5
310
F5F5F5F5F5F5F5F5F5F5F5F5F5F5F5F5F5F5F5F5F5F5F5F5F5F5F5F5F5F5F5F5F5F5F5F5F5F5F5F5F5F5F5F5F5F5F5F5F5F5F5F5F5F5F5F5F5F5F5F5F5F5F5F5F5F5F5F5F5F5F5F5F5F5F5F5F5F5F5F5F5F5F5F5F5F5F5F5F5F5F5F5F5F5F5F5F5F5F5F5F5F5F5F5F5F5F5F5F5F5F5F5F5F5F5F5F5F5F5F5F5F5F5F5F5F5F5
310
F5F5F5F5F5F5F5F5F5F5F5F5F5F5F5F5F5F5F5F5F5E2F5F5F5F5E2E2F5F5F5F5E2F5F5F5F5F5F5F5F5F5F5F5F5F5F5F5F5F5F5F5F5F5F5F5F5F5F5F5F5F5F5F5F5F5F5F5F5F5F5F5F5F5F5F5F5F5F5F5F5F5F5F5F5F5F5F5F5F5F5F5F5F5F5F5F5F5F5F5F5F5F5F5F5F5F5F5F5F5F5F5F5F5F5F5F5F5F5F5F5F5F5F5F5F5F5
310
F5F5F5F5F5F5F5F5F5F5F5F5F5F5F5F5F5F5F5F5F5F5F5F5F5F5F5F5F5F5F5F5F5F5F5F5F5F5F5F5F5F5F5F5F5F5F5F5F5F5F5F5F5F5F5F5F5F5F5F5F5F5F5F5F5F5F5F5F5F5F5F5F5F5E2F5F5F5F5E2E2F5F5F5F5E2F5F5F5F5F5F5F5F5F5F5F5F5F5F5F5F5F5F5F5F5F5F5F5F5F5F5F5F5F5F5F5F5F5F5F5F5F5F5F5F5F5
310
F5F5F5F5F5F5F5F5F5F5F5F5F5F5F5F5F5F5F5F5F5F5F5F5F5F5F5F5F5F5F5F5F5F5F5F5F5F5F5F5F5F5F5F5F5F5F5F5F5F5F5F5F5F5F5F5F5F5F5F5F5F5F5F5F5F5F5F5F5F5F5F5F5F5F5F5F5F5F5F5F5F5F5F5F5F5F5F5F5F5F5F5F5F5F5F5F5F5F5F5F5F5F5F5F5F5F5F5F5F5F5F5F5F5F5F5F5F5F5F5F5F5F5F5F5F5F5
310
E2F5F5F5F5E2E2F5F5F5F5E2F5F5F5F5F5F5F5F5F5F5F5F5F5F5F5F5F5F5F5F5F5F5F5F5F5F5F5F5F5F5F5F5F5F5F5F5F5F5F5F5F5F5F5F5F5F5F5F5F5F5F5F5F5F5F5F5F5F5F5F5F5F5F5F5F5F5F5F5F5F5F5F5F5F5F5F5F5F5F5F5F5F5F5F5F5F5F5F5F5F5F5F5F5F5F5F5F5F5F5F5F5F5F5F5F5F5F5F5F5F5F5F5F5F5F5
310
F5F5F5F5F5F5F5F5F5F5F5F5F5F5F5F5F5F5F5F5F5F5F5F5F5F5F5F5F5F5F5F5F5F5F5F5F5F5F5F5F5F5F5F5F5F5F5F5F5F5F5F5F5E2F5F5F5F5E2E2F5F5F5F5E2F5F5F5F5F5F5F5F5F5F5F5F5F5F5F5F5F5F5F5F5F5F5F5F5F5F5F5F5F5F5F5F5F5F5F5F5F5F5F5F5F5F5F5F5F5F5F5F5F5F5F5F5F5F5F5F5F5F5F5F5F5F5
310
F5F5F5F5F5F5F5F5F5F5F5F5F5F5F5F5F5F5F5F5F5F5F5F5F5F5F5F5F5F5F5F5F5F5F5F5F5F5F5F5F5F5F5F5F5F5F5F5F5F5F5F5F5F5F5F5F5F5F5F5F5F5F5F5F5F5F5F5F5F5F5F5F5F5F5F5F5F5F5F5F5F5F5F5F5F5F5F5F5F5F5F5F5F5F5F5F5F5F5F5F5F5F5F5F5F5E2F5F5F5F5E2E2F5F5F5F5E2F5F5F5F5F5F5F5F5F5
310
F5F5F5F5F5F5F5F5F5F5F5F5F5F5F5F5F5F5F5F5F5F5F5F5F5F5F5F5F5F5F5F5F5F5F5F5F5F5F5F5F5F5F5F5F5F5F5F5F5F5F5F5F5F5F5F5F5F5F5F5F5F5F5F5F5F5F5F5F5F5F5F5F5F5F5F5F5F5F5F5F5F5F5F5F5F5F5F5F5F5F5F5F5F5F5F5F5F5F5F5F5F5F5F5F5F5F5F5F5F5F5F5F5F5F5F5F5F5F5F5F5F5F5F5F5F5F5
310
F5F5F5F5F5F5F5F5F5F5F5F5F5F5F5F5F5F5F5F5F5F5F5F5F5F5F5F5F5F5F5F5E2F5F5F5F5E2E2F5F5F5F5E2E2E2E2E2E2E2E2F5F5F5F5F5F5F5F5F5E2E2E2E2E2E2E2E2E2E2E2E2E2E2E2F5F5F5F5F5F5F5F5F5E2E2E2E2E2E2E2E2E2E2E2E2E2E2E2E2F5F5F5F5F5F5F5F5E2E2E2E2E2E2E2E2E2E2E2E2E2E2E2E2F5F5F5
310
F5F5F5F5F5E2E2E2E2E2E2E2E2E2E2E2E2E2E2E2E2F5F5F5F5F5F5F5F5E2E2E2E2E2E2E2E2E2E2E2E2E2E2E2E2F5F5F5F5F5F5F5F5F5E2E2E2E2E2E2E2E2E2E2E2E2E2E2E2F5F5F5F5F5F5F5F5F5E2E2E2E2E2E2E2E2F5F5F5F5E2E2F5F5F5F5F5F5F5F5F5F5F5F5F5F5F5F5F5F5F5F5F5F5F5F5F5F5F5F5F5F5F5F5F5F5F5
310
F5F5F5F5F5F5F5F5F5F5F5F5F5F5F5F5F5F5F5F5F5F5F5F5F5F5F5F5F5F5F5F5F5F5F5F5F5F5F5F5F5F5F5F5F5F5F5F5F5F5F5F5F5F5F5F5F5F5F5F5F5F5F5F5F5F5F5F5F5F5F5F5F5F5F5F5F5F5F5F5F5F5F5F5F5F5F5F5F5F5F5F5F5F5F5F5F5F5F5F5F5F5F5F5F5F5F5F5F5F5F5F5F5F5F5F5F5F5F5F5F5F5F5F5F5F5F5
310
F5F5F5F5F5F5F5F5F5F5F5F5F5F5F5F5E2E2F5F5F5F5F5F5F5F5F5F5F5F5F5F5F5F5F5F5F5F5F5F5F5F5F5F5F5F5F5F5F5F5F5F5F5F5F5F5F5F5F5F5F5F5F5F5F5F5F5F5F5F5F5F5F5F5F5F5F5F5F5F5F5F5F5F5F5F5F5F5F5F5F5F5F5F5F5F5F5F5F5F5F5F5F5F5F5F5F5F5F5F5F5F5F5F5F5F5F5F5F5F5F5F5F5F5F5F5F5
310
F5F5F5F5F5F5F5F5F5F5F5F5F5F5F5F5F5F5F5F5F5F5F5F5F5F5F5F5F5F5F5F5F5F5F5F5F5F5F5F5F5F5F5F5F5F5F5F5F5F5F5F5F5F5F5F5F5F5F5F5F5F5F5F5F5F5F5F5F5E2E2F5F5F5F5F5F5F5F5F5F5F5F5F5F5F5F5F5F5F5F5F5F5F5F5F5F5F5F5F5F5F5F5F5F5F5F5F5F5F5F5F5F5F5F5F5F5F5F5F5F5F5F5F5F5F5F5
310
F5F5F5F5F5F5F5F5F5F5F5F5F5F5F5F5F5F5F5F5F5F5F5F5F5F5F5F5F5F5F5F5F5F5F5F5F5F5F5F5F5F5F5F5F5F5F5F5F5F5F5F5F5F5F5F5F5F5F5F5F5F5F5F5F5F5F5F5F5F5F5F5F5F5F5F5F5F5F5F5F5F5F5F5F5F5F5F5F5F5F5F5F5F5F5F5F5F5F5F5F5F5F5F5F5F5F5F5F5F5F5F5F5F5F5F5F5F5F5F5F5F5E2E2E2E2E2
310
E2E2E2E2E2E2E2E2E2E2E2E2E2E2E2E2E2E2E2E2E2E2E2E2E2E2E2E2E2E2E2E2E2E2E2E2E2E2E2E2E2E2E2E2E2E2E2E2E2E2E2E2E2E2E2E2E2E2E2E2E2E2E2E2E2E2E2E2E2E2E2E2E2E2E2E2E2E2E2E2E2E2E2E2E2E2E2E2E2E2E2E2E2E2E2E2E2E2E2E2E2E2E2E2E2E2E2E2E2E2E2E2E2E2E2E2E2E2E2E2E2E2E2E2E2E2E2
310
E2E2E2E2E2E2E2E2E2E2E2E2E2E2E2E2E2E2E2E2E2E2E2E2E2E2E2E2E2E2E2E2E2E2E2E2E2E2E2E2E2E2E2E2E2E2E2E2E2
  0
XRECORD
  5
58433
102
{ACAD_REACTORS
330
B5
102
}
330
B5
100
AcDbXrecord
280
     1
102
SHADEPLOT
 70
     0
102
SHADEPLOTRESLEVEL
 70
     2
102
SHADEPLOTCUSTOMDPI
 70
   300
  0
XRECORD
  5
B6
102
{ACAD_REACTORS
330
B5
102
}
330
B5
100
AcDbXrecord
280
     1
310
28000000B40000008B0000000100080000000000BC610000000000000000000000010000000000000000000000000000FFFFFF000000000000000000000000000000000000000000000000000000000000000000330000006600000099000000CC000000FF00000000330000333300006633000099330000CC330000FF3300
310
0000660000336600006666000099660000CC660000FF66000000990000339900006699000099990000CC990000FF99000000CC000033CC000066CC000099CC0000CCCC0000FFCC000000FF000033FF000066FF000099FF0000CCFF0000FFFF000000003300330033006600330099003300CC003300FF003300003333003333
310
33006633330099333300CC333300FF33330000663300336633006666330099663300CC663300FF66330000993300339933006699330099993300CC993300FF99330000CC330033CC330066CC330099CC3300CCCC3300FFCC330000FF330033FF330066FF330099FF3300CCFF3300FFFF330000006600330066006600660099
310
006600CC006600FF00660000336600333366006633660099336600CC336600FF33660000666600336666006666660099666600CC666600FF66660000996600339966006699660099996600CC996600FF99660000CC660033CC660066CC660099CC6600CCCC6600FFCC660000FF660033FF660066FF660099FF6600CCFF6600
310
FFFF660000009900330099006600990099009900CC009900FF00990000339900333399006633990099339900CC339900FF33990000669900336699006666990099669900CC669900FF66990000999900339999006699990099999900CC999900FF99990000CC990033CC990066CC990099CC9900CCCC9900FFCC990000FF99
310
0033FF990066FF990099FF9900CCFF9900FFFF99000000CC003300CC006600CC009900CC00CC00CC00FF00CC000033CC003333CC006633CC009933CC00CC33CC00FF33CC000066CC003366CC006666CC009966CC00CC66CC00FF66CC000099CC003399CC006699CC009999CC00CC99CC00FF99CC0000CCCC0033CCCC0066CC
310
CC0099CCCC00CCCCCC00FFCCCC0000FFCC0033FFCC0066FFCC0099FFCC00CCFFCC00FFFFCC000000FF003300FF006600FF009900FF00CC00FF00FF00FF000033FF003333FF006633FF009933FF00CC33FF00FF33FF000066FF003366FF006666FF009966FF00CC66FF00FF66FF000099FF003399FF006699FF009999FF00CC
310
99FF00FF99FF0000CCFF0033CCFF0066CCFF0099CCFF00CCCCFF00FFCCFF0000FFFF0033FFFF0066FFFF0099FFFF00CCFFFF00FFFFFF00000000000D0D0D001A1A1A00282828003535350043434300505050005D5D5D006B6B6B00787878008686860093939300A1A1A100AEAEAE00BBBBBB00C9C9C900D6D6D600E4E4E400
310
F1F1F100FFFFFF0000000000000000000000000000000000000000000000000000000000000000000000000000000000F5F5F5F5F5F5F5F5F5F5F5F5F5F5F5F5F5F5F5F5F5F5F5F5F5F5F5F5F5F5F5F5F5F5F5F5F5F5F5F5F5F5F5F5F5F5F5F5F5F5F5F5F5F5F5F5F5F5F5F5F5F5F5F5F5F5F5F5F5F5F5F5F5F5F5F5F5F5F5
310
F5F5F5F5F5F5F5F5F5F5F5F5F5F5F5F5F5F5F5F5F5F5F5F5F5F5F5F5F5F5F5F5F5F5F5F5F5F5F5F5F5F5F5F5F5F5F5F5F5F5F5F5F5F5F5F5F5F5F5F5F5F5F5F5F5F5F5F5F5F5F5F5F5F5F5F5F5F5F5F5F5F5F5F5F5F5F5F5F5F5F5F5F5F5F5F5F5F5F5F5F5F5E2E2E2E2E2E2E2E2E2E2E2E2E2E2E2E2E2E2E2E2E2E2E2E2E2
310
E2E2E2E2E2E2E2E2E2E2E2E2E2E2E2E2E2E2E2E2E2E2E2E2E2E2E2E2E2E2E2E2E2E2E2E2E2E2E2E2E2E2E2E2E2E2E2E2E2E2E2E2E2E2E2E2E2E2E2E2E2E2E2E2E2E2E2E2E2E2E2E2E2E2E2E2E2E2E2E2E2E2E2E2E2E2E2E2E2E2E2E2E2E2E2E2E2E2E2E2E2E2E2E2E2E2E2E2E2E2E2E2E2E2E2E2E2E2E2E2E2E2E2E2E2E2E2
310
E2E2E2E2E2E2E2E2E2E2E2E2E2E2E2E2E2E2E2E2E2E2E2E2E2E2F5F5E2E2E2E2E2E2E2E2E2E2E2E2E2E2E2E2E2E2E2E2E2E2E2E2E2E2E2E2E2E2E2E2E2E2E2E2E2E2E2E2E2E2E2E2E2E2E2E2E2E2E2E2E2E2E2E2E2E2E2E2E2E2E2E2E2E2E2E2E2E2E2E2E2E2E2E2E2E2E2E2E2E2E2E2E2E2E2E2E2E2E2E2E2E2E2E2E2E2E2
310
E2E2E2E2E2E2E2E2E2E2E2E2E2E2E2E2E2E2E2E2E2E2E2E2E2E2E2E2E2E2E2E2E2E2E2E2E2E2E2E2E2E2E2E2E2E2E2E2E2E2E2E2E2E2E2E2E2E2E2E2E2E2E2E2E2E2E2E2E2E2E2E2E2E2E2E2E2E2E2F5F5E2E2E2E2E2E2E2E2E2E2E2E2E2E2E2E2E2E2E2E2E2E2E2E2E2E2E2E2E2E2E2E2E2E2E2E2E2E2E2E2E2E2E2E2E2E2
310
E2E2E2E2E2E2E2E2E2E2E2E2E2E2E2E2E2E2E2E2E2E2E2E2E2E2E2E2E2E2E2E2E2E2E2E2E2E2E2E2E2E2E2E2E2E2E2E2E2E2E2E2E2E2E2E2E2E2E2E2E2E2E2E2E2E2E2E2E2E2E2E2E2E2E2E2E2E2E2E2E2E2E2E2E2E2E2E2E2E2E2E2E2E2E2E2E2E2E2E2E2E2E2E2E2E2E2E2E2E2E2E2E2E2E2E2E2E2E2E2E2E2E2E2E2E2E2
310
E2E2E2E2E2F5F5E2E2E2E2E2E2E2E2E2E2E2E2E2E2E2E2E2E2E2E2E2E2E2E2E2E2E2E2E2E2E2E2E2E2E2E2E2E2E2E2E2E2E2E2E2E2E2E2E2E2E2E2E2E2E2E2E2E2E2E2E2E2E2E2E2E2E2E2E2E2E2E2E2E2E2E2E2E2E2E2E2E2E2E2E2E2E2E2E2E2E2E2E2E2E2E2E2E2E2E2E2E2E2E2E2E2E2E2E2E2E2E2E2E2E2E2E2E2E2E2
310
E2E2E2E2E2E2E2E2E2E2E2E2E2E2E2E2E2E2E2E2E2E2E2E2E2E2E2E2E2E2E2E2E2E2E2E2E2E2E2E2E2E2E2E2E2E2E2E2E2E2E2E2E2E2E2E2E2E2F5F5E2E2E2F5F5F5F5F5F5F5F5E2E2E2E2E2E2E2E2E2F5F5F5F5F5F5F5F5F5F5F5F5F5F5F5F5E2E2E2E2E2E2E2E2E2F5F5F5F5F5F5F5F5F5F5F5F5F5F5F5E2E2E2E2E2E2E2
310
E2E2F5F5F5F5F5F5F5F5F5F5F5F5F5F5F5F5E2E2E2E2E2E2E2E2F5F5F5F5F5F5F5F5F5F5F5F5F5F5F5F5E2E2E2E2E2E2E2E2E2F5F5F5F5F5F5F5F5F5F5F5F5F5F5F5E2E2E2E2E2E2E2E2E2F5F5F5F5F5F5F5F5F5F5F5F5F5F5F5F5E2E2E2E2E2E2E2E2E2F5F5F5F5F5F5F5F5E2E2E2F5F5E2E2E2F5E2E2E2E2E2E2E2E2E2E2
310
E2E2E2E2E2E2E2E2E2E2E2E2E2E2E2E2E2E2E2E2E2E2E2E2E2E2E2E2E2E2E2E2E2E2E2E2E2E2E2E2E2E2E2E2E2E2E2E2E2E2E2E2E2E2E2E2E2E2E2E2E2E2E2E2E2E2E2E2E2E2E2E2E2E2E2E2E2E2E2E2E2E2E2E2E2E2E2E2E2E2E2E2E2E2E2E2E2E2E2E2E2E2E2E2E2E2E2E2E2E2E2E2E2E2E2E2E2E2E2E2E2E2E2E2E2E2E2
310
E2E2E2E2E2E2E2E2E2E2E2E2E2E2E2E2E2E2E2E2E2E2E2E2E2E2E2E2E2E2E2E2E2F5E2E2E2F5F5E2E2E2F5E2E2E2E2E2E2E2E2E2E2E2E2E2E2E2E2E2E2E2E2E2E2E2E2E2E2E2E2E2E2E2E2E2E2E2E2E2E2E2E2E2E2E2E2E2E2E2E2E2E2E2E2E2E2E2E2E2E2E2E2E2E2E2E2E2E2E2E2E2E2E2E2E2E2E2E2E2E2E2E2E2E2E2E2
310
E2E2E2E2E2E2E2E2E2E2E2E2E2E2E2E2E2E2E2E2E2E2E2E2E2E2E2E2E2E2E2E2E2E2E2E2E2E2E2E2E2E2E2E2E2E2E2E2E2E2E2E2E2E2E2E2E2E2E2E2E2E2E2E2E2E2E2E2E2E2E2E2E2E2E2E2E2E2E2E2E2E2E2E2E2E2F5E2E2E2F5F5E2E2E2F5E2E2E2E2E2E2E2E2E2E2E2E2E2E2E2E2E2E2E2E2E2E2E2E2E2E2E2E2E2E2E2
310
E2E2E2E2E2E2E2E2E2E2E2E2E2E2E2E2E2E2E2E2E2E2E2E2E2E2E2E2E2E2E2E2E2E2E2E2E2E2E2E2E2E2E2E2E2E2E2E2E2E2E2E2E2E2E2E2E2E2E2E2E2E2E2E2E2E2E2E2E2E2E2E2E2E2E2E2E2E2E2E2E2E2E2E2E2E2E2E2E2E2E2E2E2E2E2E2E2E2E2E2E2E2E2E2E2E2E2E2E2E2E2E2E2E2E2E2E2E2E2E2E2E2E2E2E2E2E2
310
E2E2E2E2E2E2E2E2E2E2E2E2F5E2E2E2F5F5E2E2E2F5E2E2E2E2E2E2E2E2E2E2E2E2E2E2E2E2E2E2E2E2E2E2E2E2E2E2E2E2E2E2E2E2E2E2E2E2E2E2E2E2E2E2E2E2E2E2E2E2E2E2E2E2E2E2E2E2E2E2E2E2E2E2E2E2E2E2E2E2E2E2E2E2E2E2E2E2E2E2E2E2E2E2E2E2E2E2E2E2E2E2E2E2E2E2E2E2E2E2E2E2E2E2E2E2E2
310
E2E2E2E2E2E2E2E2E2E2E2E2E2E2E2E2E2E2E2E2E2E2E2E2E2E2E2E2E2E2E2E2E2E2E2E2E2E2E2E2E2E2E2E2E2E2E2E2E2E2E2E2E2E2E2E2E2E2E2E2E2E2E2E2E2F5E2E2E2F5F5E2E2E2F5E2E2E2E2E2E2E2E2E2E2E2E2E2E2E2E2E2E2E2E2E2E2E2E2E2E2E2E2E2E2E2E2E2E2E2E2E2E2E2E2E2E2E2E2E2E2E2E2E2E2E2E2
310
E2E2E2E2E2E2E2E2E2E2E2E2E2E2E2E2E2E2E2E2E2E2E2E2E2E2E2E2E2E2E2E2E2E2E2E2E2E2E2E2E2E2E2E2E2E2E2E2E2E2E2E2E2E2E2E2E2E2E2E2E2E2E2E2E2E2E2E2E2E2E2E2E2E2E2E2E2E2E2E2E2E2E2E2E2E2E2E2E2E2E2E2E2E2E2E2E2E2E2E2E2E2E2E2E2E2E2E2E2E2E2E2E2E2E2E2E2E2F5E2E2E2F5F5E2E2E2
310
F5E2E2E2E2E2E2E2E2E2E2E2E2E2E2E2E2E2E2E2E2E2E2E2E2E2E2E2E2E2E2E2E2E2E2E2E2E2E2E2E2E2E2E2E2E2E2E2E2E2E2E2E2E2E2E2E2E2E2E2E2E2E2E2E2E2E2E2E2E2E2E2E2E2E2E2E2E2E2E2E2E2E2E2E2E2E2E2E2E2E2E2E2E2E2E2E2E2E2E2E2E2E2E2E2E2E2E2E2E2E2E2E2E2E2E2E2E2E2E2E2E2E2E2E2E2E2
310
E2E2E2E2E2E2E2E2E2E2E2E2E2E2E2E2E2E2E2E2E2E2E2E2E2E2E2E2E2E2E2E2E2E2E2E2E2E2E2E2E2E2E2E2F5E2E2E2F5F5E2E2E2F5E2E2E2E2E2E2E2E2E2E2E2E2E2E2E2E2E2E2E2E2E2E2E2E2E2E2E2E2E2E2E2E2E2E2E2E2E2E2E2E2E2E2E2E2E2E2E2E2E2E2E2E2E2E2E2E2E2E2E2E2E2E2E2E2E2E2E2E2E2E2E2E2E2
310
E2E2E2E2E2E2E2E2E2E2E2E2E2E2E2E2E2E2E2E2E2E2E2E2E2E2E2E2E2E2E2E2E2E2E2E2E2E2E2E2E2E2E2E2E2E2E2E2E2E2E2E2E2E2E2E2E2E2E2E2E2E2E2E2E2E2E2E2E2E2E2E2E2E2E2E2E2E2E2E2E2E2E2E2E2E2E2E2E2E2E2E2E2E2E2E2E2F5E2E2E2F5F5E2E2E2F5E2E2E2E2E2E2E2E2E2E2E2E2E2E2E2E2E2E2E2E2
310
E2E2E2E2E2E2E2E2E2E2E2E2E2E2E2E2E2E2E2E2E2E2E2E2E2E2E2E2E2E2E2E2E2E2E2E2E2E2E2E2E2E2E2E2E2E2E2E2E2E2E2E2E2E2E2E2E2E2E2E2E2E2E2E2E2E2E2E2E2E2E2E2E2E2E2E2E2E2E2E2E2E2E2E2E2E2E2E2E2E2E2E2E2E2E2E2E2E2E2E2E2E2E2E2E2E2E2E2E2E2E2E2E2E2E2E2E2E2E2E2E2E2E2E2E2E2E2
310
E2E2E2E2E2E2E2E2E2E2E2E2E2E2E2E2E2E2E2E2E2E2E2F5E2E2E2F5F5E2E2E2E2E2E2E2E2E2E2E2E2E2E2E2E2E2E2E2E2E2E2E2E2E2E2E2E2E2E2E2E2E2E2E2E2E2E2E2E2E2E2E2E2E2E2E2E2E2E2E2E2E2E2E2E2E2E2E2E2E2E2E2E2E2E2E2E2E2E2E2E2E2E2E2E2E2E2E2E2E2E2E2E2E2E2E2E2E2E2E2E2E2E2E2E2E2E2
310
E2E2E2E2E2E2E2E2E2E2E2E2E2E2E2E2E2E2E2E2E2E2E2E2E2E2E2E2E2E2E2E2E2E2E2E2E2E2E2E2E2E2E2E2E2E2E2E2E2E2E2E2E2E2E2E2E2E2E2E2E2E2E2E2E2E2E2E2E2E2E2E2E2E2E2E2E2E2E2E2F5F5E2E2E2E2E2E2E2E2E2E2E2E2E2E2E2E2E2E2E2E2E2E2E2E2E2E2E2E2E2E2E2E2E2E2E2E2E2E2E2E2E2E2E2E2E2
310
E2E2E2E2E2E2E2E2E2E2E2E2E2E2E2E2E2E2E2E2E2E2E2E2E2E2E2E2E2E2E2E2E2E2E2E2E2E2E2E2E2E2E2E2E2E2E2E2E2E2E2E2E2E2E2E2E2E2E2E2E2E2E2E2E2E2E2E2E2E2E2E2E2E2E2E2E2E2E2E2E2E2E2E2E2E2E2E2E2E2E2E2E2E2E2E2E2E2E2E2E2E2E2E2E2E2E2E2E2E2E2E2E2E2E2E2E2E2E2E2E2E2E2E2E2E2E2
310
E2E2E2E2E2E2F5F5E2E2E2E2E2E2E2E2E2E2E2E2E2E2E2E2E2E2E2E2E2E2E2E2E2E2E2E2E2E2E2E2E2E2E2E2E2E2E2E2E2E2E2E2E2E2E2E2E2E2E2E2E2E2E2E2E2E2E2E2E2E2E2E2E2E2E2E2E2E2E2E2E2E2E2E2E2E2E2E2E2E2E2E2E2E2E2E2E2E2E2E2E2E2E2E2E2E2E2E2E2E2E2E2E2E2E2E2E2E2E2E2E2E2E2E2E2E2E2
310
E2E2E2E2E2E2E2E2E2E2E2E2E2E2E2E2E2E2E2E2E2E2E2E2E2E2E2E2E2E2E2E2E2E2E2E2E2E2E2E2E2E2E2E2E2E2E2E2E2E2E2E2E2E2E2E2E2E2E2F5F5E2E2E2E2E2E2E2E2E2E2E2E2E2E2E2E2E2E2E2E2E2E2E2E2E2E2E2E2E2E2E2E2E2E2E2E2E2E2E2E2E2E2E2E2E2E2E2E2E2E2E2E2E2E2E2E2E2E2E2E2E2E2E2E2E2E2
310
E2E2E2E2E2E2E2E2E2E2E2E2E2E2E2E2E2E2E2E2E2E2E2E2E2E2E2E2E2E2E2E2E2E2E2E2E2E2E2E2E2E2E2E2E2E2E2E2E2E2E2E2E2E2E2E2E2E2E2E2E2E2E2E2E2E2E2E2E2E2E2E2E2E2E2E2E2E2E2E2E2E2E2E2E2E2E2E2E2E2E2E2E2E2E2E2E2E2E2E2E2E2E2E2E2E2E2E2E2E2E2E2F5F5E2E2E2E2E2E2E2E2E2E2E2E2E2
310
E2E2E2E2E2E2E2F5F5F5F5F5F5F5F5F5F5F5F5F5F5F5F5F5F5F5F5F5F5F5F5F5F5F5F5F5F5F5F5F5F5F5F5F5F5F5F5F5F5F5F5F5F5F5F5F5F5F5F5F5F5F5F5F5F5F5F5F5F5F5F5F5F5F5F5F5F5F5F5F5F5F5F5F5F5F5F5F5F5F5F5F5F5F5F5F5F5F5F5F5F5F5F5F5F5F5F5F5F5F5F5F5F5F5F5F5F5F5F5F5F5F5F5F5F5F5F5
310
F5F5F5F5F5F5F5F5F5F5F5F5F5F5F5F5F5F5E2E2E2E2E2E2E2E2E2E2E2E2E2E2E2E2E2E2E2E2F5F5E2E2E2E2E2E2E2E2E2E2E2E2E2E2E2E2E2E2E2E2F5E2E2E2E2E2E2E2E2E2E2E2E2E2E2E2E2E2E2E2E2E2E2E2E2E2E2E2E2E2E2E2E2E2E2E2E2E2E2E2E2E2E2E2E2E2E2E2E2E2E2E2E2E2E2E2E2E2E2E2E2E2E2E2E2E2E2
310
E2E2E2E2E2E2E2E2E2E2E2E2E2E2E2E2E2E2E2E2E2E2E2E2E2E2E2E2E2E2E2E2E2E2E2E2E2E2E2E2E2E2E2E2E2E2E2E2E2E2E2E2E2E2E2E2E2E2E2E2E2E2E2E2E2E2E2E2E2E2F5E2E2E2E2E2E2E2E2E2E2E2E2E2E2E2E2E2E2E2E2F5F5E2E2E2E2E2E2E2E2E2E2E2E2E2E2E2E2E2E2E2E2F5E2E2E2E2E2E2E2E2E2E2E2E2E2
310
E2E2E2E2E2E2E2E2E2E2E2E2E2E2E2E2E2E2E2E2E2E2E2E2E2E2E2E2E2E2E2E2E2E2E2E2E2E2E2E2E2E2E2E2E2E2E2E2E2E2E2E2E2E2E2E2E2E2E2E2E2E2E2E2E2E2E2E2E2E2E2E2E2E2E2E2E2E2E2E2E2E2E2E2E2E2E2E2E2E2E2E2E2E2E2E2E2E2E2E2E2E2E2E2E2E2E2E2E2E2E2E2E2E2E2E2E2E2E2E2E2E2E2F5E2E2E2
310
E2E2E2E2E2E2E2E2E2E2E2E2E2E2E2E2E2F5F5E2E2E2E2E2E2E2E2E2E2E2E2E2E2E2E2E2E2E2E2F5E2E2E2E2E2E2E2E2E2E2E2E2E2E2E2E2E2E2E2E2E2E2E2E2E2E2E2E2E2E2E2E2E2E2E2E2E2E2E2E2E2E2E2E2E2E2E2E2E2E2E2E2E2E2E2E2E2E2E2E2E2E2E2E2E2E2E2E2E2E2E2E2E2E2E2E2E2E2E2E2E2E2E2E2E2E2E2
310
E2E2E2E2E2E2E2E2E2E2E2E2E2E2E2E2E2E2E2E2E2E2E2E2E2E2E2E2E2E2E2E2E2E2E2E2E2E2E2E2E2E2E2E2E2E2E2E2E2F5E2E2E2E2E2E2E2E2E2E2E2E2E2E2E2E2E2E2E2E2F5F5E2E2E2E2E2E2E2E2E2E2E2E2E2E2E2E2E2E2E2E2F5E2E2E2E2E2E2E2E2E2E2E2E2E2E2E2E2E2E2E2E2E2E2E2E2E2E2E2E2E2E2E2E2E2E2
310
E2E2E2E2E2E2E2E2E2E2E2E2E2E2E2E2E2E2E2E2E2E2E2E2E2E2E2E2E2E2E2E2E2E2E2E2E2E2E2E2E2E2E2E2E2E2E2E2E2E2E2E2E2E2E2E2E2E2E2E2E2E2E2E2E2E2E2E2E2E2E2E2E2E2E2E2E2E2E2E2E2E2E2E2E2E2E2E2E2E2E2E2E2E2E2E2E2E2E2E2E2E2F5E2E2E2E2E2E2E2E2E2E2E2E2E2E2E2E2E2E2E2E2F5F5E2E2
310
E2F5E2E2E2E2E2E2E2E2E2E2E2E2E2E2E2E2F5E2E2E2E2E2E2E2E2E2E2E2E2E2E2E2E2E2E2E2E2E2E2E2E2E2E2E2E2E2E2E2E2E2E2E2E2E2E2E2E2E2E2E2E2E2E2E2E2E2E2E2E2E2E2E2E2E2E2E2E2E2E2E2E2E2E2E2E2E2E2E2E2E2E2E2E2E2E2E2E2E2E2E2E2E2E2E2E2E2E2E2E2E2E2E2E2E2E2E2E2E2E2E2E2E2E2E2E2
310
E2E2E2E2E2E2E2E2E2E2E2E2E2E2E2E2E2E2E2E2E2E2E2E2E2E2E2E2F5E2E2E2E2E2E2E2E2E2E2E2E2E2E2E2E2F5E2E2E2F5F5E2E2E2F5E2E2E2E2E2E2E2E2E2E2E2E2E2E2E2E2F5E2E2E2E2E2E2E2E2E2E2E2E2E2E2E2E2E2E2E2E2E2E2E2E2E2E2E2E2E2E2E2E2E2E2E2E2E2E2E2E2E2E2E2E2E2E2E2E2E2E2E2E2E2E2E2
310
E2E2E2E2E2E2E2E2E2E2E2E2E2E2E2E2E2E2E2E2E2E2E2E2E2E2E2E2E2E2E2E2E2E2E2E2E2E2E2E2E2E2E2E2E2E2E2E2E2E2E2E2E2E2E2E2E2E2E2E2E2E2E2E2E2E2E2E2E2E2E2E2E2E2E2E2E2E2E2E2E2F5E2E2E2E2E2E2E2E2E2E2E2E2E2E2E2E2F5E2E2E2F5F5E2E2E2F5E2E2E2E2E2E2E2E2E2E2E2E2E2E2E2E2F5E2E2
310
E2E2E2E2E2E2E2E2E2E2E2E2E2E2E2E2E2E2E2E2E2E2E2E2E2E2E2E2E2E2E2E2E2E2E2E2E2E2E2E2E2E2E2E2E2E2E2E2E2E2E2E2E2E2E2E2E2E2E2E2E2E2E2E2E2E2E2E2E2E2E2E2E2E2E2E2E2E2E2E2E2E2E2E2E2E2E2E2E2E2E2E2E2E2E2E2E2E2E2E2E2E2E2E2E2E2E2E2E2E2E2E2E2E2E2E2E2E2E2E2E2E2E2E2E2E2E2
310
E2E2E2E2E2E2E2F5E2E2E2E2E2E2E2E2E2E2E2E2E2E2E2E2F5E2E2E2F5F5E2E2E2F5E2E2E2E2E2E2E2E2E2E2E2E2E2E2E2E2F5E2E2E2E2E2E2E2E2E2E2E2E2E2E2E2E2E2E2E2E2E2E2E2E2E2E2E2E2E2E2E2E2E2E2E2E2E2E2E2E2E2E2E2E2E2E2E2E2E2E2E2E2E2E2E2E2E2E2E2E2E2E2E2E2E2E2E2E2E2E2E2E2E2E2E2E2
310
E2E2E2E2E2E2E2E2E2E2E2E2E2E2E2E2E2E2E2E2E2E2E2E2E2E2E2E2E2E2E2E2E2E2E2E2E2E2E2E2E2E2E2E2E2E2E2E2E2E2E2E2E2E2E2E2E2E2E2E2F5E2E2E2E2E2E2E2E2E2E2E2E2E2E2E2E2F5E2E2E2F5F5E2E2E2F5E2E2E2E2E2E2E2E2E2E2E2E2E2E2E2E2F5E2E2E2E2E2E2E2E2E2E2E2E2E2E2E2E2E2E2E2E2E2E2E2
310
E2E2E2E2E2E2E2E2E2E2E2E2E2E2E2E2E2E2E2E2E2E2E2E2E2E2E2E2E2E2E2E2E2E2E2E2E2E2E2E2E2E2E2E2E2E2E2E2E2E2E2E2E2E2E2E2E2E2E2E2E2E2E2E2E2E2E2E2E2E2E2E2E2E2E2E2E2E2E2E2E2E2E2E2E2E2E2E2E2E2E2E2E2E2E2E2E2E2E2E2E2E2E2E2E2E2E2E2E2E2E2E2E2F5E2E2E2E2E2E2E2E2E2E2E2E2E2
310
E2E2E2F5E2E2E2F5F5E2E2E2F5E2E2E2E2E2E2E2E2E2E2E2E2E2E2E2E2F5E2E2E2E2E2E2E2E2E2E2E2E2E2E2E2E2E2E2E2E2E2E2E2E2E2E2E2E2E2E2E2E2E2E2E2E2E2E2E2E2E2E2E2E2E2E2E2E2E2E2E2E2E2E2E2E2E2E2E2E2E2E2E2E2E2E2E2E2E2E2E2E2E2E2E2E2E2E2E2E2E2E2E2E2E2E2E2E2E2E2E2E2E2E2E2E2E2
310
E2E2E2E2E2E2E2E2E2E2E2E2E2E2E2E2E2E2E2E2E2E2E2E2E2E2E2E2E2E2E2E2E2E2E2E2E2E2E2F5E2E2E2E2E2E2E2E2E2E2E2E2E2E2E2E2F5E2E2E2F5F5E2E2E2F5E2E2E2E2E2E2E2E2E2E2E2E2E2E2E2E2F5E2E2E2E2E2E2E2E2E2E2E2E2E2E2E2E2E2E2E2E2E2E2E2E2E2E2E2E2E2E2E2E2E2E2E2E2E2E2E2E2E2E2E2E2
310
E2E2E2E2E2E2E2E2E2E2E2E2E2E2E2E2E2E2E2E2E2E2E2E2E2E2E2E2E2E2E2E2E2E2E2E2E2E2E2E2E2E2E2E2E2E2E2E2E2E2E2E2E2E2E2E2E2E2E2E2E2E2E2E2E2E2E2E2E2E2E2E2E2E2E2E2E2E2E2E2E2E2E2E2E2E2E2E2E2E2E2E2F5E2E2E2E2E2E2E2E2E2E2E2E2E2E2E2E2F5E2E2E2F5F5E2E2E2F5E2E2E2E2E2E2E2E2
310
E2E2E2E2E2E2E2E2F5E2E2E2E2E2E2E2E2E2E2E2E2E2E2E2E2E2E2E2E2E2E2E2E2E2E2E2E2E2E2E2E2E2E2E2E2E2E2E2E2E2E2E2E2E2E2E2E2E2E2E2E2E2E2E2E2E2E2E2E2E2E2E2E2E2E2E2E2E2E2E2E2E2E2E2E2E2E2E2E2E2E2E2E2E2E2E2E2E2E2E2E2E2E2E2E2E2E2E2E2E2E2E2E2E2E2E2E2E2E2E2E2E2E2E2E2E2E2
310
E2E2E2E2E2E2E2E2E2E2E2E2E2E2E2E2E2E2F5E2E2E2E2E2E2E2E2E2E2E2E2E2E2E2E2F5E2E2E2F5F5E2E2E2F5E2E2E2E2E2E2E2E2E2E2E2E2E2E2E2E2F5E2E2E2E2E2E2E2E2E2E2E2E2E2E2E2E2E2E2E2E2E2E2E2E2E2E2E2E2E2E2E2E2E2E2E2E2E2E2E2E2E2E2E2E2E2E2E2E2E2E2E2E2E2E2E2E2E2E2E2E2E2E2E2E2E2
310
E2E2E2E2E2E2E2E2E2E2E2E2E2E2E2E2E2E2E2E2E2E2E2E2E2E2E2E2E2E2E2E2E2E2E2E2E2E2E2E2E2E2E2E2E2E2E2E2E2E2E2E2E2E2E2E2E2E2E2E2E2E2E2E2E2E2E2E2E2E2E2F5E2E2E2E2E2E2E2E2E2E2E2E2E2E2E2E2F5E2E2E2F5F5E2E2E2F5E2E2E2E2E2E2E2E2E2E2E2E2E2E2E2E2F5E2E2E2E2E2E2E2E2E2E2E2E2
310
E2E2E2E2E2E2E2E2E2E2E2E2E2E2E2E2E2E2E2E2E2E2E2E2E2E2E2E2E2E2E2E2E2E2E2E2E2E2E2E2E2E2E2E2E2E2E2E2E2E2E2E2E2E2E2E2E2E2E2E2E2E2E2E2E2E2E2E2E2E2E2E2E2E2E2E2E2E2E2E2E2E2E2E2E2E2E2E2E2E2E2E2E2E2E2E2E2E2E2E2E2E2E2E2E2E2E2E2E2E2E2E2E2E2E2E2E2E2E2E2E2E2E2E2F5E2E2
310
E2E2E2E2E2E2E2E2E2E2E2E2E2E2F5E2E2E2F5F5E2E2E2F5E2E2E2E2E2E2E2E2E2E2E2E2E2E2E2E2F5E2E2E2E2E2E2E2E2E2E2E2E2E2E2E2E2E2E2E2E2E2E2E2E2E2E2E2E2E2E2E2E2E2E2E2E2E2E2E2E2E2E2E2E2E2E2E2E2E2E2E2E2E2E2E2E2E2E2E2E2E2E2E2E2E2E2E2E2E2E2E2E2E2E2E2E2E2E2E2E2E2E2E2E2E2E2
310
E2E2E2E2E2E2E2E2E2E2E2E2E2E2E2E2E2E2E2E2E2E2E2E2E2E2E2E2E2E2E2E2E2E2E2E2E2E2E2E2E2E2E2E2E2E2E2E2E2E2F5E2E2E2E2E2E2E2E2E2E2E2E2E2E2E2E2F5E2E2E2F5F5E2E2E2F5E2E2E2E2E2E2E2E2E2E2E2E2E2E2E2E2F5E2E2E2E2E2E2E2E2E2E2E2E2E2E2E2E2E2E2E2E2E2E2E2E2E2E2E2E2E2E2E2E2E2
310
E2E2E2E2E2E2E2E2E2E2E2E2E2E2E2E2E2E2E2E2E2E2E2E2E2E2E2E2E2E2E2E2E2E2E2E2E2E2E2E2E2E2E2E2E2E2E2E2E2E2E2E2E2E2E2E2E2E2E2E2E2E2E2E2E2E2E2E2E2E2E2E2E2E2E2E2E2E2E2E2E2E2E2E2E2E2E2E2E2E2E2E2E2E2E2E2E2E2E2E2E2E2E2F5E2E2E2E2E2E2E2E2E2E2E2E2E2E2E2E2F5E2E2E2F5F5E2
310
E2E2F5E2E2E2E2E2E2E2E2E2E2E2E2E2E2E2E2F5E2E2E2E2E2E2E2E2E2E2E2E2E2E2E2E2E2E2E2E2E2E2E2E2E2E2E2E2E2E2E2E2E2E2E2E2E2E2E2E2E2E2E2E2E2E2E2E2E2E2E2E2E2E2E2E2E2E2E2E2E2E2E2E2E2E2E2E2E2E2E2E2E2E2E2E2E2E2E2E2E2E2E2E2E2E2E2E2E2E2E2E2E2E2E2E2E2E2E2E2E2E2E2E2E2E2E2
310
E2E2E2E2E2E2E2E2E2E2E2E2E2E2E2E2E2E2E2E2E2E2E2E2E2E2E2E2E2F5E2E2E2E2E2E2E2E2E2E2E2E2E2E2E2E2F5E2E2E2F5F5E2E2E2F5E2E2E2E2E2E2E2E2E2E2E2E2E2E2E2E2F5E2E2E2E2E2E2E2E2E2E2E2E2E2E2E2E2E2E2E2E2E2E2E2E2E2E2E2E2E2E2E2E2E2E2E2E2E2E2E2E2E2E2E2E2E2E2E2E2E2E2E2E2E2E2
310
E2E2E2E2E2E2E2E2E2E2E2E2E2E2E2E2E2E2E2E2E2E2E2E2E2E2E2E2E2E2E2E2E2E2E2E2E2E2E2E2E2E2E2E2E2E2E2E2E2E2E2E2E2E2E2E2E2E2E2E2E2E2E2E2E2E2E2E2E2E2E2E2E2E2E2E2E2E2E2E2E2E2F5E2E2E2E2E2E2E2E2E2E2E2E2E2E2E2E2F5E2E2E2F5F5E2E2E2F5E2E2E2E2E2E2E2E2E2E2E2E2E2E2E2E2F5E2
310
E2E2E2E2E2E2E2E2E2E2E2E2E2E2E2E2E2E2E2E2E2E2E2E2E2E2E2E2E2E2E2E2E2E2E2E2E2E2E2E2E2E2E2E2E2E2E2E2E2E2E2E2E2E2E2E2E2E2E2E2E2E2E2E2E2E2E2E2E2E2E2E2E2E2E2E2E2E2E2E2E2E2E2E2E2E2E2E2E2E2E2E2E2E2E2E2E2E2E2E2E2E2E2E2E2E2E2E2E2E2E2E2E2E2E2E2E2E2E2E2E2E2E2E2E2E2E2
310
E2E2E2E2E2E2E2E2F5E2E2E2E2E2E2E2E2E2E2E2E2E2E2E2E2F5E2E2E2F5F5E2E2E2F5E2E2E2E2E2E2E2E2E2E2E2E2E2E2E2E2F5E2E2E2E2E2E2E2E2E2E2E2E2E2E2E2E2E2E2E2E2E2E2E2E2E2E2E2E2E2E2E2E2E2E2E2E2E2E2E2E2E2E2E2E2E2E2E2E2E2E2E2E2E2E2E2E2E2E2E2E2E2E2E2E2E2E2E2E2E2E2E2E2E2E2E2
310
E2E2E2E2E2E2E2E2E2E2E2E2E2E2E2E2E2E2E2E2E2E2E2E2E2E2E2E2E2E2E2E2E2E2E2E2E2E2E2E2E2E2E2E2E2E2E2E2E2E2E2E2E2E2E2E2E2E2E2E2E2F5E2E2E2E2E2E2E2E2E2E2E2E2E2E2E2E2F5E2E2E2F5F5E2E2E2F5E2E2E2E2E2E2E2E2E2E2E2E2E2E2E2E2F5E2E2E2E2E2E2E2E2E2E2E2E2E2E2E2E2E2E2E2E2E2E2
310
E2E2E2E2E2E2E2E2E2E2E2E2E2E2E2E2E2E2E2E2E2E2E2E2E2E2E2E2E2E2E2E2E2E2E2E2E2E2E2E2E2E2E2E2E2E2E2E2E2E2E2E2E2E2E2E2E2E2E2E2E2E2E2E2E2E2E2E2E2E2E2E2E2E2E2E2E2E2E2E2E2E2E2E2E2E2E2E2E2E2E2E2E2E2E2E2E2E2E2E2E2E2E2E2E2E2E2E2E2E2E2E2E2E2F5E2E2E2E2E2E2E2E2E2E2E2E2
310
E2E2E2E2F5E2E2E2F5F5E2E2E2E2E2E2E2E2E2E2E2E2E2E2E2E2E2E2E2E2F5E2E2E2E2E2E2E2E2E2E2E2E2E2E2E2E2E2E2E2E2E2E2E2E2E2E2E2E2E2E2E2E2E2E2E2E2E2E2E2E2E2E2E2E2E2E2E2E2E2E2E2E2E2E2E2E2E2E2E2E2E2E2E2E2E2E2E2E2E2E2E2E2E2E2E2E2E2E2E2E2E2E2E2E2E2E2E2E2E2E2E2E2E2E2E2E2
310
E2E2E2E2E2E2E2E2E2E2E2E2E2E2E2E2E2E2E2E2E2E2E2E2E2E2E2E2E2E2E2E2E2E2E2E2E2E2E2E2F5E2E2E2E2E2E2E2E2E2E2E2E2E2E2E2E2E2E2E2E2F5F5E2E2E2E2E2E2E2E2E2E2E2E2E2E2E2E2E2E2E2E2F5E2E2E2E2E2E2E2E2E2E2E2E2E2E2E2E2E2E2E2E2E2E2E2E2E2E2E2E2E2E2E2E2E2E2E2E2E2E2E2E2E2E2E2
310
E2E2E2E2E2E2E2E2E2E2E2E2E2E2E2E2E2E2E2E2E2E2E2E2E2E2E2E2E2E2E2E2E2E2E2E2E2E2E2E2E2E2E2E2E2E2E2E2E2E2E2E2E2E2E2E2E2E2E2E2E2E2E2E2E2E2E2E2E2E2E2E2E2E2E2E2E2E2E2E2E2E2E2E2E2E2E2E2E2E2E2E2E2F5E2E2E2E2E2E2E2E2E2E2E2E2E2E2E2E2E2E2E2E2F5F5E2E2E2E2E2E2E2E2E2E2E2
310
E2E2E2E2E2E2E2E2E2F5E2E2E2E2E2E2E2E2E2E2E2E2E2E2E2E2E2E2E2E2E2E2E2E2E2E2E2E2E2E2E2E2E2E2E2E2E2E2E2E2E2E2E2E2E2E2E2E2E2E2E2E2E2E2E2E2E2E2E2E2E2E2E2E2E2E2E2E2E2E2E2E2E2E2E2E2E2E2E2E2E2E2E2E2E2E2E2E2E2E2E2E2E2E2E2E2E2E2E2E2E2E2E2E2E2E2E2E2E2E2E2E2E2E2E2E2E2
310
E2E2E2E2E2E2E2E2E2E2E2E2E2E2E2E2E2E2E2F5E2E2E2E2E2E2E2E2E2E2E2E2E2E2E2E2E2E2E2E2F5F5E2E2E2E2E2E2E2E2E2E2E2E2E2E2E2E2E2E2E2E2F5E2E2E2E2E2E2E2E2E2E2E2E2E2E2E2E2E2E2E2E2E2E2E2E2E2E2E2E2E2E2E2E2E2E2E2E2E2E2E2E2E2E2E2E2E2E2E2E2E2E2E2E2E2E2E2E2E2E2E2E2E2E2E2E2
310
E2E2E2E2E2E2E2E2E2E2E2E2E2E2E2E2E2E2E2E2E2E2E2E2E2E2E2E2E2E2E2E2E2E2E2E2E2E2E2E2E2E2E2E2E2E2E2E2E2E2E2E2E2E2E2E2E2E2E2E2E2E2E2E2E2E2E2E2E2E2E2E2F5E2E2E2E2E2E2E2E2E2E2E2E2E2E2E2E2E2E2E2E2F5F5E2E2E2E2E2E2E2E2E2E2E2E2E2E2E2E2E2E2E2E2F5E2E2E2E2E2E2E2E2E2E2E2
310
E2E2E2E2E2E2E2E2E2E2E2E2E2E2E2E2E2E2E2E2E2E2E2E2E2E2E2E2E2E2E2E2E2E2E2E2E2E2E2E2E2E2E2E2E2E2E2E2E2E2E2E2E2E2E2E2E2E2E2E2E2E2E2E2E2E2E2E2E2E2E2E2E2E2E2E2E2E2E2E2E2E2E2E2E2E2E2E2E2E2E2E2E2E2E2E2E2E2E2E2E2E2E2E2E2E2E2E2E2E2E2E2E2E2E2E2E2E2E2E2E2E2E2E2E2F5E2
310
E2E2E2E2E2E2E2E2E2E2E2E2E2E2E2E2E2E2E2F5F5E2E2E2E2E2E2E2E2E2E2E2E2E2E2E2E2E2E2E2E2F5E2E2E2E2E2E2E2E2E2E2E2E2E2E2E2E2E2E2E2E2E2E2E2E2E2E2E2E2E2E2E2E2E2E2E2E2E2E2E2E2E2E2E2E2E2E2E2E2E2E2E2E2E2E2E2E2E2E2E2E2E2E2E2E2E2E2E2E2E2E2E2E2E2E2E2E2E2E2E2E2E2E2E2E2E2
310
E2E2E2E2E2E2E2E2E2E2E2E2E2E2E2E2E2E2E2E2E2E2E2E2E2E2E2E2E2E2E2E2E2E2E2E2E2E2E2E2E2E2E2E2E2E2E2E2E2E2E2F5E2E2E2E2E2E2E2E2E2E2E2E2E2E2E2E2E2E2E2E2F5F5E2E2E2E2E2E2E2E2E2E2E2E2E2E2E2E2E2E2E2E2F5E2E2E2E2E2E2E2E2E2E2E2E2E2E2E2E2E2E2E2E2E2E2E2E2E2E2E2E2E2E2E2E2
310
E2E2E2E2E2E2E2E2E2E2E2E2E2E2E2E2E2E2E2E2E2E2E2E2E2E2E2E2E2E2E2E2E2E2E2E2E2E2E2E2E2E2E2E2E2E2E2E2E2E2E2E2E2E2E2E2E2E2E2E2E2E2E2E2E2E2E2E2E2E2E2E2E2E2E2E2E2E2E2E2E2E2E2E2E2E2E2E2E2E2E2E2E2E2E2E2E2E2E2E2E2E2E2E2F5E2E2E2E2E2E2E2E2E2E2E2E2E2E2E2E2E2E2E2E2F5F5
310
E2E2E2E2E2E2E2E2E2E2E2E2E2E2E2E2E2E2E2E2F5E2E2E2E2E2E2E2E2E2E2E2E2E2E2E2E2E2E2E2E2E2E2E2E2E2E2E2E2E2E2E2E2E2E2E2E2E2E2E2E2E2E2E2E2E2E2E2E2E2E2E2E2E2E2E2E2E2E2E2E2E2E2E2E2E2E2E2E2E2E2E2E2E2E2E2E2E2E2E2E2E2E2E2E2E2E2E2E2E2E2E2E2E2E2E2E2E2E2E2E2E2E2E2E2E2E2
310
E2E2E2E2E2E2E2E2E2E2E2E2E2E2E2E2E2E2E2E2E2E2E2E2E2E2E2E2E2E2F5E2E2E2E2E2E2E2E2E2E2E2E2E2E2E2E2E2E2E2E2F5F5E2E2E2E2E2E2E2E2E2E2E2E2E2E2E2E2E2E2E2E2F5E2E2E2E2E2E2E2E2E2E2E2E2E2E2E2E2E2E2E2E2E2E2E2E2E2E2E2E2E2E2E2E2E2E2E2E2E2E2E2E2E2E2E2E2E2E2E2E2E2E2E2E2E2
310
E2E2E2E2E2E2E2E2E2E2E2E2E2E2E2E2E2E2E2E2E2E2E2E2E2E2E2E2E2E2E2E2E2E2E2E2E2E2E2E2E2E2E2E2E2E2E2E2E2E2E2E2E2E2E2E2E2E2E2E2E2E2E2E2E2E2E2E2E2E2E2E2E2E2E2E2E2E2E2E2E2E2E2F5E2E2E2E2E2E2E2E2E2E2E2E2E2E2E2E2E2E2E2E2F5F5E2E2E2F5E2E2E2E2E2E2E2E2E2E2E2E2E2E2E2E2F5
310
E2E2E2E2E2E2E2E2E2E2E2E2E2E2E2E2E2E2E2E2E2E2E2E2E2E2E2E2E2E2E2E2E2E2E2E2E2E2E2E2E2E2E2E2E2E2E2E2E2E2E2E2E2E2E2E2E2E2E2E2E2E2E2E2E2E2E2E2E2E2E2E2E2E2E2E2E2E2E2E2E2E2E2E2E2E2E2E2E2E2E2E2E2E2E2E2E2E2E2E2E2E2E2E2E2E2E2E2E2E2E2E2E2E2E2E2E2E2E2E2E2E2E2E2E2E2E2
310
E2E2E2E2E2E2E2E2E2F5E2E2E2E2E2E2E2E2E2E2E2E2E2E2E2E2F5E2E2E2F5F5E2E2E2F5E2E2E2E2E2E2E2E2E2E2E2E2E2E2E2E2F5E2E2E2E2E2E2E2E2E2E2E2E2E2E2E2E2E2E2E2E2E2E2E2E2E2E2E2E2E2E2E2E2E2E2E2E2E2E2E2E2E2E2E2E2E2E2E2E2E2E2E2E2E2E2E2E2E2E2E2E2E2E2E2E2E2E2E2E2E2E2E2E2E2E2
310
E2E2E2E2E2E2E2E2E2E2E2E2E2E2E2E2E2E2E2E2E2E2E2E2E2E2E2E2E2E2E2E2E2E2E2E2E2E2E2E2E2E2E2E2E2E2E2E2E2E2E2E2E2E2E2E2E2E2E2E2E2E2F5E2E2E2E2E2E2E2E2E2E2E2E2E2E2E2E2F5E2E2E2F5F5E2E2E2F5E2E2E2E2E2E2E2E2E2E2E2E2E2E2E2E2F5E2E2E2E2E2E2E2E2E2E2E2E2E2E2E2E2E2E2E2E2E2
310
E2E2E2E2E2E2E2E2E2E2E2E2E2E2E2E2E2E2E2E2E2E2E2E2E2E2E2E2E2E2E2E2E2E2E2E2E2E2E2E2E2E2E2E2E2E2E2E2E2E2E2E2E2E2E2E2E2E2E2E2E2E2E2E2E2E2E2E2E2E2E2E2E2E2E2E2E2E2E2E2E2E2E2E2E2E2E2E2E2E2E2E2E2E2E2E2E2E2E2E2E2E2E2E2E2E2E2E2E2E2E2E2E2E2E2F5E2E2E2E2E2E2E2E2E2E2E2
310
E2E2E2E2E2F5E2E2E2F5F5E2E2E2F5E2E2E2E2E2E2E2E2E2E2E2E2E2E2E2E2F5E2E2E2E2E2E2E2E2E2E2E2E2E2E2E2E2E2E2E2E2E2E2E2E2E2E2E2E2E2E2E2E2E2E2E2E2E2E2E2E2E2E2E2E2E2E2E2E2E2E2E2E2E2E2E2E2E2E2E2E2E2E2E2E2E2E2E2E2E2E2E2E2E2E2E2E2E2E2E2E2E2E2E2E2E2E2E2E2E2E2E2E2E2E2E2
310
E2E2E2E2E2E2E2E2E2E2E2E2E2E2E2E2E2E2E2E2E2E2E2E2E2E2E2E2E2E2E2E2E2E2E2E2E2E2E2E2E2F5E2E2E2E2E2E2E2E2E2E2E2E2E2E2E2E2F5E2E2E2F5F5E2E2E2F5E2E2E2E2E2E2E2E2E2E2E2E2E2E2E2E2F5E2E2E2E2E2E2E2E2E2E2E2E2E2E2E2E2E2E2E2E2E2E2E2E2E2E2E2E2E2E2E2E2E2E2E2E2E2E2E2E2E2E2
310
E2E2E2E2E2E2E2E2E2E2E2E2E2E2E2E2E2E2E2E2E2E2E2E2E2E2E2E2E2E2E2E2E2E2E2E2E2E2E2E2E2E2E2E2E2E2E2E2E2E2E2E2E2E2E2E2E2E2E2E2E2E2E2E2E2E2E2E2E2E2E2E2E2E2E2E2E2E2E2E2E2E2E2E2E2E2E2E2E2E2E2E2E2E2F5E2E2E2E2E2E2E2E2E2E2E2E2E2E2E2E2F5E2E2E2F5F5E2E2E2F5E2E2E2E2E2E2
310
E2E2E2E2E2E2E2E2E2E2F5E2E2E2E2E2E2E2E2E2E2E2E2E2E2E2E2E2E2E2E2E2E2E2E2E2E2E2E2E2E2E2E2E2E2E2E2E2E2E2E2E2E2E2E2E2E2E2E2E2E2E2E2E2E2E2E2E2E2E2E2E2E2E2E2E2E2E2E2E2E2E2E2E2E2E2E2E2E2E2E2E2E2E2E2E2E2E2E2E2E2E2E2E2E2E2E2E2E2E2E2E2E2E2E2E2E2E2E2E2E2E2E2E2E2E2E2
310
E2E2E2E2E2E2E2E2E2E2E2E2E2E2E2E2E2E2E2E2F5E2E2E2E2E2E2E2E2E2E2E2E2E2E2E2E2F5E2E2E2F5F5E2E2E2F5E2E2E2E2E2E2E2E2E2E2E2E2E2E2E2E2F5E2E2E2E2E2E2E2E2E2E2E2E2E2E2E2E2E2E2E2E2E2E2E2E2E2E2E2E2E2E2E2E2E2E2E2E2E2E2E2E2E2E2E2E2E2E2E2E2E2E2E2E2E2E2E2E2E2E2E2E2E2E2E2
310
E2E2E2E2E2E2E2E2E2E2E2E2E2E2E2E2E2E2E2E2E2E2E2E2E2E2E2E2E2E2E2E2E2E2E2E2E2E2E2E2E2E2E2E2E2E2E2E2E2E2E2E2E2E2E2E2E2E2E2E2E2E2E2E2E2E2E2E2E2E2E2E2E2F5E2E2E2E2E2E2E2E2E2E2E2E2E2E2E2E2F5E2E2E2F5F5E2E2E2F5E2E2E2E2E2E2E2E2E2E2E2E2E2E2E2E2F5E2E2E2E2E2E2E2E2E2E2
310
E2E2E2E2E2E2E2E2E2E2E2E2E2E2E2E2E2E2E2E2E2E2E2E2E2E2E2E2E2E2E2E2E2E2E2E2E2E2E2E2E2E2E2E2E2E2E2E2E2E2E2E2E2E2E2E2E2E2E2E2E2E2E2E2E2E2E2E2E2E2E2E2E2E2E2E2E2E2E2E2E2E2E2E2E2E2E2E2E2E2E2E2E2E2E2E2E2E2E2E2E2E2E2E2E2E2E2E2E2E2E2E2E2E2E2E2E2E2E2E2E2E2E2E2E2E2F5
310
E2E2E2E2E2E2E2E2E2E2E2E2E2E2E2E2F5E2E2E2F5F5E2E2E2F5E2E2E2E2E2E2E2E2E2E2E2E2E2E2E2E2F5E2E2E2E2E2E2E2E2E2E2E2E2E2E2E2E2E2E2E2E2E2E2E2E2E2E2E2E2E2E2E2E2E2E2E2E2E2E2E2E2E2E2E2E2E2E2E2E2E2E2E2E2E2E2E2E2E2E2E2E2E2E2E2E2E2E2E2E2E2E2E2E2E2E2E2E2E2E2E2E2E2E2E2E2
310
E2E2E2E2E2E2E2E2E2E2E2E2E2E2E2E2E2E2E2E2E2E2E2E2E2E2E2E2E2E2E2E2E2E2E2E2E2E2E2E2E2E2E2E2E2E2E2E2E2E2E2E2F5E2E2E2E2E2E2E2E2E2E2E2E2E2E2E2E2F5E2E2E2F5F5E2E2E2F5E2E2E2E2E2E2E2E2E2E2E2E2E2E2E2E2F5E2E2E2E2E2E2E2E2E2E2E2E2E2E2E2E2E2E2E2E2E2E2E2E2E2E2E2E2E2E2E2
310
E2E2E2E2E2E2E2E2E2E2E2E2E2E2E2E2E2E2E2E2E2E2E2E2E2E2E2E2E2E2E2E2E2E2E2E2E2E2E2E2E2E2E2E2E2E2E2E2E2E2E2E2E2E2E2E2E2E2E2E2E2E2E2E2E2E2E2E2E2E2E2E2E2E2E2E2E2E2E2E2E2E2E2E2E2E2E2E2E2E2E2E2E2E2E2E2E2E2E2E2E2E2E2E2E2F5E2E2E2E2E2E2E2E2E2E2E2E2E2E2E2E2F5E2E2E2F5
310
F5E2E2E2F5E2E2E2E2E2E2E2E2E2E2E2E2E2E2E2E2F5E2E2E2E2E2E2E2E2E2E2E2E2E2E2E2E2E2E2E2E2E2E2E2E2E2E2E2E2E2E2E2E2E2E2E2E2E2E2E2E2E2E2E2E2E2E2E2E2E2E2E2E2E2E2E2E2E2E2E2E2E2E2E2E2E2E2E2E2E2E2E2E2E2E2E2E2E2E2E2E2E2E2E2E2E2E2E2E2E2E2E2E2E2E2E2E2E2E2E2E2E2E2E2E2E2
310
E2E2E2E2E2E2E2E2E2E2E2E2E2E2E2E2E2E2E2E2E2E2E2E2E2E2E2E2E2E2E2F5E2E2E2E2E2E2E2E2E2E2E2E2E2E2E2E2F5E2E2E2F5F5E2E2E2F5E2E2E2E2E2E2E2E2E2E2E2E2E2E2E2E2F5E2E2E2E2E2E2E2E2E2E2E2E2E2E2E2E2E2E2E2E2E2E2E2E2E2E2E2E2E2E2E2E2E2E2E2E2E2E2E2E2E2E2E2E2E2E2E2E2E2E2E2E2
310
E2E2E2E2E2E2E2E2E2E2E2E2E2E2E2E2E2E2E2E2E2E2E2E2E2E2E2E2E2E2E2E2E2E2E2E2E2E2E2E2E2E2E2E2E2E2E2E2E2E2E2E2E2E2E2E2E2E2E2E2E2E2E2E2E2E2E2E2E2E2E2E2E2E2E2E2E2E2E2E2E2E2E2E2F5E2E2E2E2E2E2E2E2E2E2E2E2E2E2E2E2F5E2E2E2F5F5E2E2E2F5E2E2E2E2E2E2E2E2E2E2E2E2E2E2E2E2
310
F5E2E2E2E2E2E2E2E2E2E2E2E2E2E2E2E2E2E2E2E2E2E2E2E2E2E2E2E2E2E2E2E2E2E2E2E2E2E2E2E2E2E2E2E2E2E2E2E2E2E2E2E2E2E2E2E2E2E2E2E2E2E2E2E2E2E2E2E2E2E2E2E2E2E2E2E2E2E2E2E2E2E2E2E2E2E2E2E2E2E2E2E2E2E2E2E2E2E2E2E2E2E2E2E2E2E2E2E2E2E2E2E2E2E2E2E2E2E2E2E2E2E2E2E2E2E2
310
E2E2E2E2E2E2E2E2E2E2F5E2E2E2E2E2E2E2E2E2E2E2E2E2E2E2E2F5E2E2E2F5F5E2E2E2F5E2E2E2E2E2E2E2E2E2E2E2E2E2E2E2E2F5E2E2E2E2E2E2E2E2E2E2E2E2E2E2E2E2E2E2E2E2E2E2E2E2E2E2E2E2E2E2E2E2E2E2E2E2E2E2E2E2E2E2E2E2E2E2E2E2E2E2E2E2E2E2E2E2E2E2E2E2E2E2E2E2E2E2E2E2E2E2E2E2E2
310
E2E2E2E2E2E2E2E2E2E2E2E2E2E2E2E2E2E2E2E2E2E2E2E2E2E2E2E2E2E2E2E2E2E2E2E2E2E2E2E2E2E2E2E2E2E2E2E2E2E2E2E2E2E2E2E2E2E2E2E2E2E2E2F5E2E2E2E2E2E2E2E2E2E2E2E2E2E2E2E2F5E2E2E2F5F5E2E2E2F5E2E2E2E2E2E2E2E2E2E2E2E2E2E2E2E2F5E2E2E2E2E2E2E2E2E2E2E2E2E2E2E2E2E2E2E2E2
310
E2E2E2E2E2E2E2E2E2E2E2E2E2E2E2E2E2E2E2E2E2E2E2E2E2E2E2E2E2E2E2E2E2E2E2E2E2E2E2E2E2E2E2E2E2E2E2E2E2E2E2E2E2E2E2E2E2E2E2E2E2E2E2E2E2E2E2E2E2E2E2E2E2E2E2E2E2E2E2E2E2E2E2E2E2E2E2E2E2E2E2E2E2E2E2E2E2E2E2E2E2E2E2E2E2E2E2E2E2E2E2E2E2E2E2E2F5E2E2E2E2E2E2E2E2E2E2
310
E2E2E2E2E2E2F5E2E2E2F5F5E2E2E2F5E2E2E2E2E2E2E2E2E2E2E2E2E2E2E2E2F5E2E2E2E2E2E2E2E2E2E2E2E2E2E2E2E2E2E2E2E2E2E2E2E2E2E2E2E2E2E2E2E2E2E2E2E2E2E2E2E2E2E2E2E2E2E2E2E2E2E2E2E2E2E2E2E2E2E2E2E2E2E2E2E2E2E2E2E2E2E2E2E2E2E2E2E2E2E2E2E2E2E2E2E2E2E2E2E2E2E2E2E2E2E2
310
E2E2E2E2E2E2E2E2E2E2E2E2E2E2E2E2E2E2E2E2E2E2E2E2E2E2E2E2E2E2E2E2E2E2E2E2E2E2E2E2E2E2F5E2E2E2E2E2E2E2E2E2E2E2E2E2E2E2E2F5E2E2E2F5F5E2E2E2E2E2E2E2E2E2E2E2E2E2E2E2E2E2E2E2E2F5E2E2E2E2E2E2E2E2E2E2E2E2E2E2E2E2E2E2E2E2E2E2E2E2E2E2E2E2E2E2E2E2E2E2E2E2E2E2E2E2E2
310
E2E2E2E2E2E2E2E2E2E2E2E2E2E2E2E2E2E2E2E2E2E2E2E2E2E2E2E2E2E2E2E2E2E2E2E2E2E2E2E2E2E2E2E2E2E2E2E2E2E2E2E2E2E2E2E2E2E2E2E2E2E2E2E2E2E2E2E2E2E2E2E2E2E2E2E2E2E2E2E2E2E2E2E2E2E2E2E2E2E2E2E2E2E2E2F5E2E2E2E2E2E2E2E2E2E2E2E2E2E2E2E2E2E2E2E2F5F5E2E2E2E2E2E2E2E2E2
310
E2E2E2E2E2E2E2E2E2E2E2F5E2E2E2E2E2E2E2E2E2E2E2E2E2E2E2E2E2E2E2E2E2E2E2E2E2E2E2E2E2E2E2E2E2E2E2E2E2E2E2E2E2E2E2E2E2E2E2E2E2E2E2E2E2E2E2E2E2E2E2E2E2E2E2E2E2E2E2E2E2E2E2E2E2E2E2E2E2E2E2E2E2E2E2E2E2E2E2E2E2E2E2E2E2E2E2E2E2E2E2E2E2E2E2E2E2E2E2E2E2E2E2E2E2E2E2
310
E2E2E2E2E2E2E2E2E2E2E2E2E2E2E2E2E2E2E2E2E2F5E2E2E2E2E2E2E2E2E2E2E2E2E2E2E2E2E2E2E2E2F5F5E2E2E2E2E2E2E2E2E2E2E2E2E2E2E2E2E2E2E2E2F5E2E2E2E2E2E2E2E2E2E2E2E2E2E2E2E2E2E2E2E2E2E2E2E2E2E2E2E2E2E2E2E2E2E2E2E2E2E2E2E2E2E2E2E2E2E2E2E2E2E2E2E2E2E2E2E2E2E2E2E2E2E2
310
E2E2E2E2E2E2E2E2E2E2E2E2E2E2E2E2E2E2E2E2E2E2E2E2E2E2E2E2E2E2E2E2E2E2E2E2E2E2E2E2E2E2E2E2E2E2E2E2E2E2E2E2E2E2E2E2E2E2E2E2E2E2E2E2E2E2E2E2E2E2E2E2E2E2F5E2E2E2E2E2E2E2E2E2E2E2E2E2E2E2E2E2E2E2E2F5F5E2E2E2E2E2E2E2E2E2E2E2E2E2E2E2E2E2E2E2E2F5E2E2E2E2E2E2E2E2E2
310
E2E2E2E2E2E2E2E2E2E2E2E2E2E2E2E2E2E2E2E2E2E2E2E2E2E2E2E2E2E2E2E2E2E2E2E2E2E2E2E2E2E2E2E2E2E2E2E2E2E2E2E2E2E2E2E2E2E2E2E2E2E2E2E2E2E2E2E2E2E2E2E2E2E2E2E2E2E2E2E2E2E2E2E2E2E2E2E2E2E2E2E2E2E2E2E2E2E2E2E2E2E2E2E2E2E2E2E2E2E2E2E2E2E2E2E2E2E2E2E2E2E2E2E2E2E2E2
310
F5E2E2E2E2E2E2E2E2E2E2E2E2E2E2E2E2E2E2E2E2F5F5E2E2E2E2E2E2E2E2E2E2E2E2E2E2E2E2E2E2E2E2F5E2E2E2E2E2E2E2E2E2E2E2E2E2E2E2E2E2E2E2E2E2E2E2E2E2E2E2E2E2E2E2E2E2E2E2E2E2E2E2E2E2E2E2E2E2E2E2E2E2E2E2E2E2E2E2E2E2E2E2E2E2E2E2E2E2E2E2E2E2E2E2E2E2E2E2E2E2E2E2E2E2E2E2
310
E2E2E2E2E2E2E2E2E2E2E2E2E2E2E2E2E2E2E2E2E2E2E2E2E2E2E2E2E2E2E2E2E2E2E2E2E2E2E2E2E2E2E2E2E2E2E2E2E2E2E2E2E2F5E2E2E2E2E2E2E2E2E2E2E2E2E2E2E2E2E2E2E2E2F5F5E2E2E2E2E2E2E2E2E2E2E2E2E2E2E2E2E2E2E2E2F5E2E2E2E2E2E2E2E2E2E2E2E2E2E2E2E2E2E2E2E2E2E2E2E2E2E2E2E2E2E2
310
E2E2E2E2E2E2E2E2E2E2E2E2E2E2E2E2E2E2E2E2E2E2E2E2E2E2E2E2E2E2E2E2E2E2E2E2E2E2E2E2E2E2E2E2E2E2E2E2E2E2E2E2E2E2E2E2E2E2E2E2E2E2E2E2E2E2E2E2E2E2E2E2E2E2E2E2E2E2E2E2E2E2E2E2E2E2E2E2E2E2E2E2E2E2E2E2E2E2E2E2E2E2E2E2E2E2F5E2E2E2E2E2E2E2E2E2E2E2E2E2E2E2E2E2E2E2E2
310
F5F5E2E2E2E2E2E2E2E2E2E2E2E2E2E2E2E2E2E2E2E2F5E2E2E2E2E2E2E2E2E2E2E2E2E2E2E2E2E2E2E2E2E2E2E2E2E2E2E2E2E2E2E2E2E2E2E2E2E2E2E2E2E2E2E2E2E2E2E2E2E2E2E2E2E2E2E2E2E2E2E2E2E2E2E2E2E2E2E2E2E2E2E2E2E2E2E2E2E2E2E2E2E2E2E2E2E2E2E2E2E2E2E2E2E2E2E2E2E2E2E2E2E2E2E2E2
310
E2E2E2E2E2E2E2E2E2E2E2E2E2E2E2E2E2E2E2E2E2E2E2E2E2E2E2E2E2E2E2E2F5E2E2E2E2E2E2E2E2E2E2E2E2E2E2E2E2E2E2E2E2F5F5E2E2E2E2E2E2E2E2E2E2E2E2E2E2E2E2E2E2E2E2F5E2E2E2E2E2E2E2E2E2E2E2E2E2E2E2E2E2E2E2E2E2E2E2E2E2E2E2E2E2E2E2E2E2E2E2E2E2E2E2E2E2E2E2E2E2E2E2E2E2E2E2
310
E2E2E2E2E2E2E2E2E2E2E2E2E2E2E2E2E2E2E2E2E2E2E2E2E2E2E2E2E2E2E2E2E2E2E2E2E2E2E2E2E2E2E2E2E2E2E2E2E2E2E2E2E2E2E2E2E2E2E2E2E2E2E2E2E2E2E2E2E2E2E2E2E2E2E2E2E2E2E2E2E2E2E2E2E2F5E2E2E2E2E2E2E2E2E2E2E2E2E2E2E2E2E2E2E2E2F5F5E2E2E2E2E2E2E2E2E2E2E2E2E2E2E2E2E2E2E2
310
E2F5E2E2E2E2E2E2E2E2E2E2E2E2E2E2E2E2E2E2E2E2E2E2E2E2E2E2E2E2E2E2E2E2E2E2E2E2E2E2E2E2E2E2E2E2E2E2E2E2E2E2E2E2E2E2E2E2E2E2E2E2E2E2E2E2E2E2E2E2E2E2E2E2E2E2E2E2E2E2E2E2E2E2E2E2E2E2E2E2E2E2E2E2E2E2E2E2E2E2E2E2E2E2E2E2E2E2E2E2E2E2E2E2E2E2E2E2E2E2E2E2E2E2E2E2E2
310
E2E2E2E2E2E2E2E2E2E2E2F5E2E2E2E2E2E2E2E2E2E2E2E2E2E2E2E2E2E2E2E2F5F5E2E2E2E2E2E2E2E2E2E2E2E2E2E2E2E2E2E2E2E2F5E2E2E2E2E2E2E2E2E2E2E2E2E2E2E2E2E2E2E2E2E2E2E2E2E2E2E2E2E2E2E2E2E2E2E2E2E2E2E2E2E2E2E2E2E2E2E2E2E2E2E2E2E2E2E2E2E2E2E2E2E2E2E2E2E2E2E2E2E2E2E2E2
310
E2E2E2E2E2E2E2E2E2E2E2E2E2E2E2E2E2E2E2E2E2E2E2E2E2E2E2E2E2E2E2E2E2E2E2E2E2E2E2E2E2E2E2E2E2E2E2E2E2E2E2E2E2E2E2E2E2E2E2E2E2E2E2E2F5E2E2E2E2E2E2E2E2E2E2E2E2E2E2E2E2E2E2E2E2F5F5E2E2E2F5E2E2E2E2E2E2E2E2E2E2E2E2E2E2E2E2F5E2E2E2E2E2E2E2E2E2E2E2E2E2E2E2E2E2E2E2
310
E2E2E2E2E2E2E2E2E2E2E2E2E2E2E2E2E2E2E2E2E2E2E2E2E2E2E2E2E2E2E2E2E2E2E2E2E2E2E2E2E2E2E2E2E2E2E2E2E2E2E2E2E2E2E2E2E2E2E2E2E2E2E2E2E2E2E2E2E2E2E2E2E2E2E2E2E2E2E2E2E2E2E2E2E2E2E2E2E2E2E2E2E2E2E2E2E2E2E2E2E2E2E2E2E2E2E2E2E2E2E2E2E2E2E2E2E2F5E2E2E2E2E2E2E2E2E2
310
E2E2E2E2E2E2E2F5E2E2E2F5F5E2E2E2F5E2E2E2E2E2E2E2E2E2E2E2E2E2E2E2E2F5E2E2E2E2E2E2E2E2E2E2E2E2E2E2E2E2E2E2E2E2E2E2E2E2E2E2E2E2E2E2E2E2E2E2E2E2E2E2E2E2E2E2E2E2E2E2E2E2E2E2E2E2E2E2E2E2E2E2E2E2E2E2E2E2E2E2E2E2E2E2E2E2E2E2E2E2E2E2E2E2E2E2E2E2E2E2E2E2E2E2E2E2E2
310
E2E2E2E2E2E2E2E2E2E2E2E2E2E2E2E2E2E2E2E2E2E2E2E2E2E2E2E2E2E2E2E2E2E2E2E2E2E2E2E2E2E2E2F5E2E2E2E2E2E2E2E2E2E2E2E2E2E2E2E2F5E2E2E2F5F5E2E2E2F5E2E2E2E2E2E2E2E2E2E2E2E2E2E2E2E2F5E2E2E2E2E2E2E2E2E2E2E2E2E2E2E2E2E2E2E2E2E2E2E2E2E2E2E2E2E2E2E2E2E2E2E2E2E2E2E2E2
310
E2E2E2E2E2E2E2E2E2E2E2E2E2E2E2E2E2E2E2E2E2E2E2E2E2E2E2E2E2E2E2E2E2E2E2E2E2E2E2E2E2E2E2E2E2E2E2E2E2E2E2E2E2E2E2E2E2E2E2E2E2E2E2E2E2E2E2E2E2E2E2E2E2E2E2E2E2E2E2E2E2E2E2E2E2E2E2E2E2E2E2E2E2E2E2E2F5E2E2E2E2E2E2E2E2E2E2E2E2E2E2E2E2F5E2E2E2F5F5E2E2E2F5E2E2E2E2
310
E2E2E2E2E2E2E2E2E2E2E2E2F5E2E2E2E2E2E2E2E2E2E2E2E2E2E2E2E2E2E2E2E2E2E2E2E2E2E2E2E2E2E2E2E2E2E2E2E2E2E2E2E2E2E2E2E2E2E2E2E2E2E2E2E2E2E2E2E2E2E2E2E2E2E2E2E2E2E2E2E2E2E2E2E2E2E2E2E2E2E2E2E2E2E2E2E2E2E2E2E2E2E2E2E2E2E2E2E2E2E2E2E2E2E2E2E2E2E2E2E2E2E2E2E2E2E2
310
E2E2E2E2E2E2E2E2E2E2E2E2E2E2E2E2E2E2E2E2E2E2F5E2E2E2E2E2E2E2E2E2E2E2E2E2E2E2E2F5E2E2E2F5F5E2E2E2F5E2E2E2E2E2E2E2E2E2E2E2E2E2E2E2E2F5E2E2E2E2E2E2E2E2E2E2E2E2E2E2E2E2E2E2E2E2E2E2E2E2E2E2E2E2E2E2E2E2E2E2E2E2E2E2E2E2E2E2E2E2E2E2E2E2E2E2E2E2E2E2E2E2E2E2E2E2E2
310
E2E2E2E2E2E2E2E2E2E2E2E2E2E2E2E2E2E2E2E2E2E2E2E2E2E2E2E2E2E2E2E2E2E2E2E2E2E2E2E2E2E2E2E2E2E2E2E2E2E2E2E2E2E2E2E2E2E2E2E2E2E2E2E2E2E2E2E2E2E2E2E2E2E2E2F5E2E2E2E2E2E2E2E2E2E2E2E2E2E2E2E2F5E2E2E2F5F5E2E2E2F5E2E2E2E2E2E2E2E2E2E2E2E2E2E2E2E2F5E2E2E2E2E2E2E2E2
310
E2E2E2E2E2E2E2E2E2E2E2E2E2E2E2E2E2E2E2E2E2E2E2E2E2E2E2E2E2E2E2E2E2E2E2E2E2E2E2E2E2E2E2E2E2E2E2E2E2E2E2E2E2E2E2E2E2E2E2E2E2E2E2E2E2E2E2E2E2E2E2E2E2E2E2E2E2E2E2E2E2E2E2E2E2E2E2E2E2E2E2E2E2E2E2E2E2E2E2E2E2E2E2E2E2E2E2E2E2E2E2E2E2E2E2E2E2E2E2E2E2E2E2E2E2E2E2
310
E2F5E2E2E2E2E2E2E2E2E2E2E2E2E2E2E2E2F5E2E2E2F5F5E2E2E2F5E2E2E2E2E2E2E2E2E2E2E2E2E2E2E2E2F5E2E2E2E2E2E2E2E2E2E2E2E2E2E2E2E2E2E2E2E2E2E2E2E2E2E2E2E2E2E2E2E2E2E2E2E2E2E2E2E2E2E2E2E2E2E2E2E2E2E2E2E2E2E2E2E2E2E2E2E2E2E2E2E2E2E2E2E2E2E2E2E2E2E2E2E2E2E2E2E2E2E2
310
E2E2E2E2E2E2E2E2E2E2E2E2E2E2E2E2E2E2E2E2E2E2E2E2E2E2E2E2E2E2E2E2E2E2E2E2E2E2E2E2E2E2E2E2E2E2E2E2E2E2E2E2E2E2F5E2E2E2E2E2E2E2E2E2E2E2E2E2E2E2E2F5E2E2E2F5F5E2E2E2F5E2E2E2E2E2E2E2E2E2E2E2E2E2E2E2E2F5E2E2E2E2E2E2E2E2E2E2E2E2E2E2E2E2E2E2E2E2E2E2E2E2E2E2E2E2E2
310
E2E2E2E2E2E2E2E2E2E2E2E2E2E2E2E2E2E2E2E2E2E2E2E2E2E2E2E2E2E2E2E2E2E2E2E2E2E2E2E2E2E2E2E2E2E2E2E2E2E2E2E2E2E2E2E2E2E2E2E2E2E2E2E2E2E2E2E2E2E2E2E2E2E2E2E2E2E2E2E2E2E2E2E2E2E2E2E2E2E2E2E2E2E2E2E2E2E2E2E2E2E2E2E2E2E2E2F5E2E2E2E2E2E2E2E2E2E2E2E2E2E2E2E2F5E2E2
310
E2F5F5E2E2E2F5E2E2E2E2E2E2E2E2E2E2E2E2E2E2E2E2F5E2E2E2E2E2E2E2E2E2E2E2E2E2E2E2E2E2E2E2E2E2E2E2E2E2E2E2E2E2E2E2E2E2E2E2E2E2E2E2E2E2E2E2E2E2E2E2E2E2E2E2E2E2E2E2E2E2E2E2E2E2E2E2E2E2E2E2E2E2E2E2E2E2E2E2E2E2E2E2E2E2E2E2E2E2E2E2E2E2E2E2E2E2E2E2E2E2E2E2E2E2E2E2
310
E2E2E2E2E2E2E2E2E2E2E2E2E2E2E2E2E2E2E2E2E2E2E2E2E2E2E2E2E2E2E2E2E2F5E2E2E2E2E2E2E2E2E2E2E2E2E2E2E2E2F5E2E2E2F5F5E2E2E2F5E2E2E2E2E2E2E2E2E2E2E2E2E2E2E2E2F5E2E2E2E2E2E2E2E2E2E2E2E2E2E2E2E2E2E2E2E2E2E2E2E2E2E2E2E2E2E2E2E2E2E2E2E2E2E2E2E2E2E2E2E2E2E2E2E2E2E2
310
E2E2E2E2E2E2E2E2E2E2E2E2E2E2E2E2E2E2E2E2E2E2E2E2E2E2E2E2E2E2E2E2E2E2E2E2E2E2E2E2E2E2E2E2E2E2E2E2E2E2E2E2E2E2E2E2E2E2E2E2E2E2E2E2E2E2E2E2E2E2E2E2E2E2E2E2E2E2E2E2E2E2E2E2E2E2F5E2E2E2E2E2E2E2E2E2E2E2E2E2E2E2E2F5E2E2E2F5F5E2E2E2F5E2E2E2E2E2E2E2E2E2E2E2E2E2E2
310
E2E2F5E2E2E2E2E2E2E2E2E2E2E2E2E2E2E2E2E2E2E2E2E2E2E2E2E2E2E2E2E2E2E2E2E2E2E2E2E2E2E2E2E2E2E2E2E2E2E2E2E2E2E2E2E2E2E2E2E2E2E2E2E2E2E2E2E2E2E2E2E2E2E2E2E2E2E2E2E2E2E2E2E2E2E2E2E2E2E2E2E2E2E2E2E2E2E2E2E2E2E2E2E2E2E2E2E2E2E2E2E2E2E2E2E2E2E2E2E2E2E2E2E2E2E2E2
310
E2E2E2E2E2E2E2E2E2E2E2E2F5E2E2E2E2E2E2E2E2E2E2E2E2E2E2E2E2F5E2E2E2F5F5E2E2E2F5E2E2E2E2E2E2E2E2E2E2E2E2E2E2E2E2F5E2E2E2E2E2E2E2E2E2E2E2E2E2E2E2E2E2E2E2E2E2E2E2E2E2E2E2E2E2E2E2E2E2E2E2E2E2E2E2E2E2E2E2E2E2E2E2E2E2E2E2E2E2E2E2E2E2E2E2E2E2E2E2E2E2E2E2E2E2E2E2
310
E2E2E2E2E2E2E2E2E2E2E2E2E2E2E2E2E2E2E2E2E2E2E2E2E2E2E2E2E2E2E2E2E2E2E2E2E2E2E2E2E2E2E2E2E2E2E2E2E2E2E2E2E2E2E2E2E2E2E2E2E2E2E2E2E2F5E2E2E2E2E2E2E2E2E2E2E2E2E2E2E2E2F5E2E2E2F5F5E2E2E2F5E2E2E2E2E2E2E2E2E2E2E2E2E2E2E2E2F5E2E2E2E2E2E2E2E2E2E2E2E2E2E2E2E2E2E2
310
E2E2E2E2E2E2E2E2E2E2E2E2E2E2E2E2E2E2E2E2E2E2E2E2E2E2E2E2E2E2E2E2E2E2E2E2E2E2E2E2E2E2E2E2E2E2E2E2E2E2E2E2E2E2E2E2E2E2E2E2E2E2E2E2E2E2E2E2E2E2E2E2E2E2E2E2E2E2E2E2E2E2E2E2E2E2E2E2E2E2E2E2E2E2E2E2E2E2E2E2E2E2E2E2E2E2E2E2E2E2E2E2E2E2E2E2E2E2F5E2E2E2E2E2E2E2E2
310
E2E2E2E2E2E2E2E2F5E2E2E2F5F5E2E2E2F5E2E2E2E2E2E2E2E2E2E2E2E2E2E2E2E2F5E2E2E2E2E2E2E2E2E2E2E2E2E2E2E2E2E2E2E2E2E2E2E2E2E2E2E2E2E2E2E2E2E2E2E2E2E2E2E2E2E2E2E2E2E2E2E2E2E2E2E2E2E2E2E2E2E2E2E2E2E2E2E2E2E2E2E2E2E2E2E2E2E2E2E2E2E2E2E2E2E2E2E2E2E2E2E2E2E2E2E2E2
310
E2E2E2E2E2E2E2E2E2E2E2E2E2E2E2E2E2E2E2E2E2E2E2E2E2E2E2E2E2E2E2E2E2E2E2E2E2E2E2E2E2E2E2E2F5E2E2E2E2E2E2E2E2E2E2E2E2E2E2E2E2F5E2E2E2F5F5E2E2E2F5E2E2E2E2E2E2E2E2E2E2E2E2E2E2E2E2F5E2E2E2E2E2E2E2E2E2E2E2E2E2E2E2E2E2E2E2E2E2E2E2E2E2E2E2E2E2E2E2E2E2E2E2E2E2E2E2
310
E2E2E2E2E2E2E2E2E2E2E2E2E2E2E2E2E2E2E2E2E2E2E2E2E2E2E2E2E2E2E2E2E2E2E2E2E2E2E2E2E2E2E2E2E2E2E2E2E2E2E2E2E2E2E2E2E2E2E2E2E2E2E2E2E2E2E2E2E2E2E2E2E2E2E2E2E2E2E2E2E2E2E2E2E2E2E2E2E2E2E2E2E2E2E2E2E2F5E2E2E2E2E2E2E2E2E2E2E2E2E2E2E2E2F5E2E2E2F5F5E2E2E2F5E2E2E2
310
E2E2E2E2E2E2E2E2E2E2E2E2E2F5E2E2E2E2E2E2E2E2E2E2E2E2E2E2E2E2E2E2E2E2E2E2E2E2E2E2E2E2E2E2E2E2E2E2E2E2E2E2E2E2E2E2E2E2E2E2E2E2E2E2E2E2E2E2E2E2E2E2E2E2E2E2E2E2E2E2E2E2E2E2E2E2E2E2E2E2E2E2E2E2E2E2E2E2E2E2E2E2E2E2E2E2E2E2E2E2E2E2E2E2E2E2E2E2E2E2E2E2E2E2E2E2E2
310
E2E2E2E2E2E2E2E2E2E2E2E2E2E2E2E2E2E2E2E2E2E2E2F5E2E2E2E2E2E2E2E2E2E2E2E2E2E2E2E2F5E2E2E2F5F5E2E2E2E2E2E2E2E2E2E2E2E2E2E2E2E2E2E2E2E2F5E2E2E2E2E2E2E2E2E2E2E2E2E2E2E2E2E2E2E2E2E2E2E2E2E2E2E2E2E2E2E2E2E2E2E2E2E2E2E2E2E2E2E2E2E2E2E2E2E2E2E2E2E2E2E2E2E2E2E2E2
310
E2E2E2E2E2E2E2E2E2E2E2E2E2E2E2E2E2E2E2E2E2E2E2E2E2E2E2E2E2E2E2E2E2E2E2E2E2E2E2E2E2E2E2E2E2E2E2E2E2E2E2E2E2E2E2E2E2E2E2E2E2E2E2E2E2E2E2E2E2E2E2E2E2E2E2E2F5E2E2E2E2E2E2E2E2E2E2E2E2E2E2E2E2E2E2E2E2F5F5E2E2E2E2E2E2E2E2E2E2E2E2E2E2E2E2E2E2E2E2F5E2E2E2E2E2E2E2
310
E2E2E2E2E2E2E2E2E2E2E2E2E2E2E2E2E2E2E2E2E2E2E2E2E2E2E2E2E2E2E2E2E2E2E2E2E2E2E2E2E2E2E2E2E2E2E2E2E2E2E2E2E2E2E2E2E2E2E2E2E2E2E2E2E2E2E2E2E2E2E2E2E2E2E2E2E2E2E2E2E2E2E2E2E2E2E2E2E2E2E2E2E2E2E2E2E2E2E2E2E2E2E2E2E2E2E2E2E2E2E2E2E2E2E2E2E2E2E2E2E2E2E2E2E2E2E2
310
E2E2F5E2E2E2E2E2E2E2E2E2E2E2E2E2E2E2E2E2E2E2E2F5F5E2E2E2E2E2E2E2E2E2E2E2E2E2E2E2E2E2E2E2E2F5E2E2E2E2E2E2E2E2E2E2E2E2E2E2E2E2E2E2E2E2E2E2E2E2E2E2E2E2E2E2E2E2E2E2E2E2E2E2E2E2E2E2E2E2E2E2E2E2E2E2E2E2E2E2E2E2E2E2E2E2E2E2E2E2E2E2E2E2E2E2E2E2E2E2E2E2E2E2E2E2E2
310
E2E2E2E2E2E2E2E2E2E2E2E2E2E2E2E2E2E2E2E2E2E2E2E2E2E2E2E2E2E2E2E2E2E2E2E2E2E2E2E2E2E2E2E2E2E2E2E2E2E2E2E2E2E2E2F5E2E2E2E2E2E2E2E2E2E2E2E2E2E2E2E2E2E2E2E2F5F5E2E2E2E2E2E2E2E2E2E2E2E2E2E2E2E2E2E2E2E2F5E2E2E2E2E2E2E2E2E2E2E2E2E2E2E2E2E2E2E2E2E2E2E2E2E2E2E2E2
310
E2E2E2E2E2E2E2E2E2E2E2E2E2E2E2E2E2E2E2E2E2E2E2E2E2E2E2E2E2E2E2E2E2E2E2E2E2E2E2E2E2E2E2E2E2E2E2E2E2E2E2E2E2E2E2E2E2E2E2E2E2E2E2E2E2E2E2E2E2E2E2E2E2E2E2E2E2E2E2E2E2E2E2E2E2E2E2E2E2E2E2E2E2E2E2E2E2E2E2E2E2E2E2E2E2E2E2E2F5E2E2E2E2E2E2E2E2E2E2E2E2E2E2E2E2E2E2
310
E2E2F5F5E2E2E2E2E2E2E2E2E2E2E2E2E2E2E2E2E2E2E2E2F5E2E2E2E2E2E2E2E2E2E2E2E2E2E2E2E2E2E2E2E2E2E2E2E2E2E2E2E2E2E2E2E2E2E2E2E2E2E2E2E2E2E2E2E2E2E2E2E2E2E2E2E2E2E2E2E2E2E2E2E2E2E2E2E2E2E2E2E2E2E2E2E2E2E2E2E2E2E2E2E2E2E2E2E2E2E2E2E2E2E2E2E2E2E2E2E2E2E2E2E2E2E2
310
E2E2E2E2E2E2E2E2E2E2E2E2E2E2E2E2E2E2E2E2E2E2E2E2E2E2E2E2E2E2E2E2E2E2F5E2E2E2E2E2E2E2E2E2E2E2E2E2E2E2E2E2E2E2E2F5F5E2E2E2E2E2E2E2E2E2E2E2E2E2E2E2E2E2E2E2E2F5E2E2E2E2E2E2E2E2E2E2E2E2E2E2E2E2E2E2E2E2E2E2E2E2E2E2E2E2E2E2E2E2E2E2E2E2E2E2E2E2E2E2E2E2E2E2E2E2E2
310
E2E2E2E2E2E2E2E2E2E2E2E2E2E2E2E2E2E2E2E2E2E2E2E2E2E2E2E2E2E2E2E2E2E2E2E2E2E2E2E2E2E2E2E2E2E2E2E2E2E2E2E2E2E2E2E2E2E2E2E2E2E2E2E2E2E2E2E2E2E2E2E2E2E2E2E2E2E2E2E2E2E2E2E2E2E2E2F5E2E2E2E2E2E2E2E2E2E2E2E2E2E2E2E2E2E2E2E2F5F5E2E2E2E2E2E2E2E2E2E2E2E2E2E2E2E2E2
310
E2E2E2F5E2E2E2E2E2E2E2E2E2E2E2E2E2E2E2E2E2E2E2E2E2E2E2E2E2E2E2E2E2E2E2E2E2E2E2E2E2E2E2E2E2E2E2E2E2E2E2E2E2E2E2E2E2E2E2E2E2E2E2E2E2E2E2E2E2E2E2E2E2E2E2E2E2E2E2E2E2E2E2E2E2E2E2E2E2E2E2E2E2E2E2E2E2E2E2E2E2E2E2E2E2E2E2E2E2E2E2E2E2E2E2E2E2E2E2E2E2E2E2E2E2E2E2
310
E2E2E2E2E2E2E2E2E2E2E2E2E2F5E2E2E2E2E2E2E2E2E2E2E2E2E2E2E2E2E2E2E2E2F5F5E2E2E2E2E2E2E2E2E2E2E2E2E2E2E2E2E2E2E2E2F5E2E2E2E2E2E2E2E2E2E2E2E2E2E2E2E2E2E2E2E2E2E2E2E2E2E2E2E2E2E2E2E2E2E2E2E2E2E2E2E2E2E2E2E2E2E2E2E2E2E2E2E2E2E2E2E2E2E2E2E2E2E2E2E2E2E2E2E2E2E2
310
E2E2E2E2E2E2E2E2E2E2E2E2E2E2E2E2E2E2E2E2E2E2E2E2E2E2E2E2E2E2E2E2E2E2E2E2E2E2E2E2E2E2E2E2E2E2E2E2E2E2E2E2E2E2E2E2E2E2E2E2E2E2E2E2E2E2F5E2E2E2E2E2E2E2E2E2E2E2E2E2E2E2E2E2E2E2E2F5F5E2E2E2E2E2E2E2E2E2E2E2E2E2E2E2E2E2E2E2E2F5E2E2E2E2E2E2E2E2E2E2E2E2E2E2E2E2E2
310
E2E2E2E2E2E2E2E2E2E2E2E2E2E2E2E2E2E2E2E2E2E2E2E2E2E2E2E2E2E2E2E2E2E2E2E2E2E2E2E2E2E2E2E2E2E2E2E2E2E2E2E2E2E2E2E2E2E2E2E2E2E2E2E2E2E2E2E2E2E2E2E2E2E2E2E2E2E2E2E2E2E2E2E2E2E2E2E2E2E2E2E2E2E2E2E2E2E2E2E2E2E2E2E2E2E2E2E2E2E2E2E2E2E2E2E2E2E2E2F5E2E2E2E2E2E2E2
310
E2E2E2E2E2E2E2E2E2E2E2E2E2F5F5E2E2E2F5E2E2E2E2E2E2E2E2E2E2E2E2E2E2E2E2F5E2E2E2E2E2E2E2E2E2E2E2E2E2E2E2E2E2E2E2E2E2E2E2E2E2E2E2E2E2E2E2E2E2E2E2E2E2E2E2E2E2E2E2E2E2E2E2E2E2E2E2E2E2E2E2E2E2E2E2E2E2E2E2E2E2E2E2E2E2E2E2E2E2E2E2E2E2E2E2E2E2E2E2E2E2E2E2E2E2E2E2
310
E2E2E2E2E2E2E2E2E2E2E2E2E2E2E2E2E2E2E2E2E2E2E2E2E2E2E2E2E2E2E2E2E2E2E2E2E2E2E2E2E2E2E2E2E2F5E2E2E2E2E2E2E2E2E2E2E2E2E2E2E2E2F5E2E2E2F5F5E2E2E2F5E2E2E2E2E2E2E2E2E2E2E2E2E2E2E2E2F5E2E2E2E2E2E2E2E2E2E2E2E2E2E2E2E2E2E2E2E2E2E2E2E2E2E2E2E2E2E2E2E2E2E2E2E2E2E2
310
E2E2E2E2E2E2E2E2E2E2E2E2E2E2E2E2E2E2E2E2E2E2E2E2E2E2E2E2E2E2E2E2E2E2E2E2E2E2E2E2E2E2E2E2E2E2E2E2E2E2E2E2E2E2E2E2E2E2E2E2E2E2E2E2E2E2E2E2E2E2E2E2E2E2E2E2E2E2E2E2E2E2E2E2E2E2E2E2E2E2E2E2E2E2E2E2E2E2F5E2E2E2E2E2E2E2E2E2E2E2E2E2E2E2E2F5E2E2E2F5F5E2E2E2F5E2E2
310
E2E2E2E2E2E2E2E2E2E2E2E2E2E2F5E2E2E2E2E2E2E2E2E2E2E2E2E2E2E2E2E2E2E2E2E2E2E2E2E2E2E2E2E2E2E2E2E2E2E2E2E2E2E2E2E2E2E2E2E2E2E2E2E2E2E2E2E2E2E2E2E2E2E2E2E2E2E2E2E2E2E2E2E2E2E2E2E2E2E2E2E2E2E2E2E2E2E2E2E2E2E2E2E2E2E2E2E2E2E2E2E2E2E2E2E2E2E2E2E2E2E2E2E2E2E2E2
310
E2E2E2E2E2E2E2E2E2E2E2E2E2E2E2E2E2E2E2E2E2E2E2E2F5E2E2E2E2E2E2E2E2E2E2E2E2E2E2E2E2F5E2E2E2F5F5E2E2E2F5E2E2E2E2E2E2E2E2E2E2E2E2E2E2E2E2F5E2E2E2E2E2E2E2E2E2E2E2E2E2E2E2E2E2E2E2E2E2E2E2E2E2E2E2E2E2E2E2E2E2E2E2E2E2E2E2E2E2E2E2E2E2E2E2E2E2E2E2E2E2E2E2E2E2E2E2
310
E2E2E2E2E2E2E2E2E2E2E2E2E2E2E2E2E2E2E2E2E2E2E2E2E2E2E2E2E2E2E2E2E2E2E2E2E2E2E2E2E2E2E2E2E2E2E2E2E2E2E2E2E2E2E2E2E2E2E2E2E2E2E2E2E2E2E2E2E2E2E2E2E2E2E2E2E2F5E2E2E2E2E2E2E2E2E2E2E2E2E2E2E2E2F5E2E2E2F5F5E2E2E2F5E2E2E2E2E2E2E2E2E2E2E2E2E2E2E2E2F5E2E2E2E2E2E2
310
E2E2E2E2E2E2E2E2E2E2E2E2E2E2E2E2E2E2E2E2E2E2E2E2E2E2E2E2E2E2E2E2E2E2E2E2E2E2E2E2E2E2E2E2E2E2E2E2E2E2E2E2E2E2E2E2E2E2E2E2E2E2E2E2E2E2E2E2E2E2E2E2E2E2E2E2E2E2E2E2E2E2E2E2E2E2E2E2E2E2E2E2E2E2E2E2E2E2E2E2E2E2E2E2E2E2E2E2E2E2E2E2E2E2E2E2E2E2E2E2E2E2E2E2E2E2E2
310
E2E2E2F5E2E2E2E2E2E2E2E2E2E2E2E2E2E2E2E2F5E2E2E2F5F5E2E2E2F5E2E2E2E2E2E2E2E2E2E2E2E2E2E2E2E2F5E2E2E2E2E2E2E2E2E2E2E2E2E2E2E2E2E2E2E2E2E2E2E2E2E2E2E2E2E2E2E2E2E2E2E2E2E2E2E2E2E2E2E2E2E2E2E2E2E2E2E2E2E2E2E2E2E2E2E2E2E2E2E2E2E2E2E2E2E2E2E2E2E2E2E2E2E2E2E2E2
310
E2E2E2E2E2E2E2E2E2E2E2E2E2E2E2E2E2E2E2E2E2E2E2E2E2E2E2E2E2E2E2E2E2E2E2E2E2E2E2E2E2E2E2E2E2E2E2E2E2E2E2E2E2E2E2E2F5E2E2E2E2E2E2E2E2E2E2E2E2E2E2E2E2F5E2E2E2F5F5E2E2E2F5E2E2E2E2E2E2E2E2E2E2E2E2E2E2E2E2F5E2E2E2E2E2E2E2E2E2E2E2E2E2E2E2E2E2E2E2E2E2E2E2E2E2E2E2
310
E2E2E2E2E2E2E2E2E2E2E2E2E2E2E2E2E2E2E2E2E2E2E2E2E2E2E2E2E2E2E2E2E2E2E2E2E2E2E2E2E2E2E2E2E2E2E2E2E2E2E2E2E2E2E2E2E2E2E2E2E2E2E2E2E2E2E2E2E2E2E2E2E2E2E2E2E2E2E2E2E2E2E2E2E2E2E2E2E2E2E2E2E2E2E2E2E2E2E2E2E2E2E2E2E2E2E2E2E2F5E2E2E2E2E2E2E2E2E2E2E2E2E2E2E2E2F5
310
E2E2E2F5F5E2E2E2F5E2E2E2E2E2E2E2E2E2E2E2E2E2E2E2E2F5E2E2E2E2E2E2E2E2E2E2E2E2E2E2E2E2E2E2E2E2E2E2E2E2E2E2E2E2E2E2E2E2E2E2E2E2E2E2E2E2E2E2E2E2E2E2E2E2E2E2E2E2E2E2E2E2E2E2E2E2E2E2E2E2E2E2E2E2E2E2E2E2E2E2E2E2E2E2E2E2E2E2E2E2E2E2E2E2E2E2E2E2E2E2E2E2E2E2E2E2E2
310
E2E2E2E2E2E2E2E2E2E2E2E2E2E2E2E2E2E2E2E2E2E2E2E2E2E2E2E2E2E2E2E2E2E2E2F5E2E2E2E2E2E2E2E2E2E2E2E2E2E2E2E2F5E2E2E2F5F5E2E2E2F5E2E2E2E2E2E2E2E2E2E2E2E2E2E2E2E2F5E2E2E2E2E2E2E2E2E2E2E2E2E2E2E2E2E2E2E2E2E2E2E2E2E2E2E2E2E2E2E2E2E2E2E2E2E2E2E2E2E2E2E2E2E2E2E2E2
310
E2E2E2E2E2E2E2E2E2E2E2E2E2E2E2E2E2E2E2E2E2E2E2E2E2E2E2E2E2E2E2E2E2E2E2E2E2E2E2E2E2E2E2E2E2E2E2E2E2E2E2E2E2E2E2E2E2E2E2E2E2E2E2E2E2E2E2E2E2E2E2E2E2E2E2E2E2E2E2E2E2E2E2E2E2E2E2E2F5E2E2E2E2E2E2E2E2E2E2E2E2E2E2E2E2F5E2E2E2F5F5E2E2E2F5E2E2E2E2E2E2E2E2E2E2E2E2
310
E2E2E2E2F5E2E2E2E2E2E2E2E2E2E2E2E2E2E2E2E2E2E2E2E2E2E2E2E2E2E2E2E2E2E2E2E2E2E2E2E2E2E2E2E2E2E2E2E2E2E2E2E2E2E2E2E2E2E2E2E2E2E2E2E2E2E2E2E2E2E2E2E2E2E2E2E2E2E2E2E2E2E2E2E2E2E2E2E2E2E2E2E2E2E2E2E2E2E2E2E2E2E2E2E2E2E2E2E2E2E2E2E2E2E2E2E2E2E2E2E2E2E2E2E2E2E2
310
E2E2E2E2E2E2E2E2E2E2E2E2E2E2F5E2E2E2E2E2E2E2E2E2E2E2E2E2E2E2E2F5E2E2E2F5F5E2E2E2F5E2E2E2E2E2E2E2E2E2E2E2E2E2E2E2E2F5E2E2E2E2E2E2E2E2E2E2E2E2E2E2E2E2E2E2E2E2E2E2E2E2E2E2E2E2E2E2E2E2E2E2E2E2E2E2E2E2E2E2E2E2E2E2E2E2E2E2E2E2E2E2E2E2E2E2E2E2E2E2E2E2E2E2E2E2E2
310
E2E2E2E2E2E2E2E2E2E2E2E2E2E2E2E2E2E2E2E2E2E2E2E2E2E2E2E2E2E2E2E2E2E2E2E2E2E2E2E2E2E2E2E2E2E2E2E2E2E2E2E2E2E2E2E2E2E2E2E2E2E2E2E2E2E2E2F5E2E2E2E2E2E2E2E2E2E2E2E2E2E2E2E2F5E2E2E2F5F5E2E2E2F5E2E2E2E2E2E2E2E2E2E2E2E2E2E2E2E2F5E2E2E2E2E2E2E2E2E2E2E2E2E2E2E2E2
310
E2E2E2E2E2E2E2E2E2E2E2E2E2E2E2E2E2E2E2E2E2E2E2E2E2E2E2E2E2E2E2E2E2E2E2E2E2E2E2E2E2E2E2E2E2E2E2E2E2E2E2E2E2E2E2E2E2E2E2E2E2E2E2E2E2E2E2E2E2E2E2E2E2E2E2E2E2E2E2E2E2E2E2E2E2E2E2E2E2E2E2E2E2E2E2E2E2E2E2E2E2E2E2E2E2E2E2E2E2E2E2E2E2E2E2E2E2E2E2E2F5E2E2E2E2E2E2
310
E2E2E2E2E2E2E2E2E2E2F5E2E2E2F5F5E2E2E2F5E2E2E2E2E2E2E2E2E2E2E2E2E2E2E2E2F5E2E2E2E2E2E2E2E2E2E2E2E2E2E2E2E2E2E2E2E2E2E2E2E2E2E2E2E2E2E2E2E2E2E2E2E2E2E2E2E2E2E2E2E2E2E2E2E2E2E2E2E2E2E2E2E2E2E2E2E2E2E2E2E2E2E2E2E2E2E2E2E2E2E2E2E2E2E2E2E2E2E2E2E2E2E2E2E2E2E2
310
E2E2E2E2E2E2E2E2E2E2E2E2E2E2E2E2E2E2E2E2E2E2E2E2E2E2E2E2E2E2E2E2E2E2E2E2E2E2E2E2E2E2E2E2E2E2F5E2E2E2E2E2E2E2E2E2E2E2E2E2E2E2E2F5E2E2E2F5F5E2E2E2F5E2E2E2E2E2E2E2E2E2E2E2E2E2E2E2E2F5E2E2E2E2E2E2E2E2E2E2E2E2E2E2E2E2E2E2E2E2E2E2E2E2E2E2E2E2E2E2E2E2E2E2E2E2E2
310
E2E2E2E2E2E2E2E2E2E2E2E2E2E2E2E2E2E2E2E2E2E2E2E2E2E2E2E2E2E2E2E2E2E2E2E2E2E2E2E2E2E2E2E2E2E2E2E2E2E2E2E2E2E2E2E2E2E2E2E2E2E2E2E2E2E2E2E2E2E2E2E2E2E2E2E2E2E2E2E2E2E2E2E2E2E2E2E2E2E2E2E2E2E2E2E2E2E2E2F5E2E2E2E2E2E2E2E2E2E2E2E2E2E2E2E2F5E2E2E2F5F5E2E2E2F5E2
310
E2E2E2E2E2E2E2E2E2E2E2E2E2E2E2F5E2E2E2E2E2E2E2E2E2E2E2E2E2E2E2E2E2E2E2E2E2E2E2E2E2E2E2E2E2E2E2E2E2E2E2E2E2E2E2E2E2E2E2E2E2E2E2E2E2E2E2E2E2E2E2E2E2E2E2E2E2E2E2E2E2E2E2E2E2E2E2E2E2E2E2E2E2E2E2E2E2E2E2E2E2E2E2E2E2E2E2E2E2E2E2E2E2E2E2E2E2E2E2E2E2E2E2E2E2E2E2
310
E2E2E2E2E2E2E2E2E2E2E2E2E2E2E2E2E2E2E2E2E2E2E2E2E2F5E2E2E2E2E2E2E2E2E2E2E2E2E2E2E2E2F5E2E2E2F5F5E2E2E2F5E2E2E2E2E2E2E2E2E2E2E2E2E2E2E2E2F5E2E2E2E2E2E2E2E2E2E2E2E2E2E2E2E2E2E2E2E2E2E2E2E2E2E2E2E2E2E2E2E2E2E2E2E2E2E2E2E2E2E2E2E2E2E2E2E2E2E2E2E2E2E2E2E2E2E2
310
E2E2E2E2E2E2E2E2E2E2E2E2E2E2E2E2E2E2E2E2E2E2E2E2E2E2E2E2E2E2E2E2E2E2E2E2E2E2E2E2E2E2E2E2E2E2E2E2E2E2E2E2E2E2E2E2E2E2E2E2E2E2E2E2E2E2E2E2E2E2E2E2E2E2E2E2E2E2F5E2E2E2E2E2E2E2E2E2E2E2E2E2E2E2E2F5E2E2E2F5F5E2E2E2F5E2E2E2E2E2E2E2E2E2E2E2E2E2E2E2E2F5E2E2E2E2E2
310
E2E2E2E2E2E2E2E2E2E2E2E2E2E2E2E2E2E2E2E2E2E2E2E2E2E2E2E2E2E2E2E2E2E2E2E2E2E2E2E2E2E2E2E2E2E2E2E2E2E2E2E2E2E2E2E2E2E2E2E2E2E2E2E2E2E2E2E2E2E2E2E2E2E2E2E2E2E2E2E2E2E2E2E2E2E2E2E2E2E2E2E2E2E2E2E2E2E2E2E2E2E2E2E2E2E2E2E2E2E2E2E2E2E2E2E2E2E2E2E2E2E2E2E2E2E2E2
310
E2E2E2E2F5E2E2E2E2E2E2E2E2E2E2E2E2E2E2E2E2F5E2E2E2F5F5E2E2E2E2E2E2E2E2E2E2E2E2E2E2E2E2E2E2E2E2F5E2E2E2E2E2E2E2E2E2E2E2E2E2E2E2E2E2E2E2E2E2E2E2E2E2E2E2E2E2E2E2E2E2E2E2E2E2E2E2E2E2E2E2E2E2E2E2E2E2E2E2E2E2E2E2E2E2E2E2E2E2E2E2E2E2E2E2E2E2E2E2E2E2E2E2E2E2E2E2
310
E2E2E2E2E2E2E2E2E2E2E2E2E2E2E2E2E2E2E2E2E2E2E2E2E2E2E2E2E2E2E2E2E2E2E2E2E2E2E2E2E2E2E2E2E2E2E2E2E2E2E2E2E2E2E2E2E2F5E2E2E2E2E2E2E2E2E2E2E2E2E2E2E2E2E2E2E2E2F5F5E2E2E2E2E2E2E2E2E2E2E2E2E2E2E2E2E2E2E2E2F5E2E2E2E2E2E2E2E2E2E2E2E2E2E2E2E2E2E2E2E2E2E2E2E2E2E2
310
E2E2E2E2E2E2E2E2E2E2E2E2E2E2E2E2E2E2E2E2E2E2E2E2E2E2E2E2E2E2E2E2E2E2E2E2E2E2E2E2E2E2E2E2E2E2E2E2E2E2E2E2E2E2E2E2E2E2E2E2E2E2E2E2E2E2E2E2E2E2E2E2E2E2E2E2E2E2E2E2E2E2E2E2E2E2E2E2E2E2E2E2E2E2E2E2E2E2E2E2E2E2E2E2E2E2E2E2E2E2F5E2E2E2E2E2E2E2E2E2E2E2E2E2E2E2E2
310
E2E2E2E2F5F5E2E2E2E2E2E2E2E2E2E2E2E2E2E2E2E2E2E2E2E2F5E2E2E2E2E2E2E2E2E2E2E2E2E2E2E2E2E2E2E2E2E2E2E2E2E2E2E2E2E2E2E2E2E2E2E2E2E2E2E2E2E2E2E2E2E2E2E2E2E2E2E2E2E2E2E2E2E2E2E2E2E2E2E2E2E2E2E2E2E2E2E2E2E2E2E2E2E2E2E2E2E2E2E2E2E2E2E2E2E2E2E2E2E2E2E2E2E2E2E2E2
310
E2E2E2E2E2E2E2E2E2E2E2E2E2E2E2E2E2E2E2E2E2E2E2E2E2E2E2E2E2E2E2E2E2E2E2E2F5E2E2E2E2E2E2E2E2E2E2E2E2E2E2E2E2E2E2E2E2F5F5E2E2E2E2E2E2E2E2E2E2E2E2E2E2E2E2E2E2E2E2F5E2E2E2E2E2E2E2E2E2E2E2E2E2E2E2E2E2E2E2E2E2E2E2E2E2E2E2E2E2E2E2E2E2E2E2E2E2E2E2E2E2E2E2E2E2E2E2
310
E2E2E2E2E2E2E2E2E2E2E2E2E2E2E2E2E2E2E2E2E2E2E2E2E2E2E2E2E2E2E2E2E2E2E2E2E2E2E2E2E2E2E2E2E2E2E2E2E2E2E2E2E2E2E2E2E2E2E2E2E2E2E2E2E2E2E2E2E2E2E2E2E2E2E2E2E2E2E2E2E2E2E2E2E2E2E2E2E2F5E2E2E2E2E2E2E2E2E2E2E2E2E2E2E2E2E2E2E2E2F5F5E2E2E2E2E2E2E2E2E2E2E2E2E2E2E2
310
E2E2E2E2E2F5F5F5F5F5F5F5F5F5F5F5F5F5F5F5F5F5F5F5F5F5F5F5F5F5F5F5F5F5F5F5F5F5F5F5F5F5F5F5F5F5F5F5F5F5F5F5F5F5F5F5F5F5F5F5F5F5F5F5F5F5F5F5F5F5F5F5F5F5F5F5F5F5F5F5F5F5F5F5F5F5F5F5F5F5F5F5F5F5F5F5F5F5F5F5F5F5F5F5F5F5F5F5F5F5F5F5F5F5F5F5F5F5F5F5F5F5F5F5F5F5F5
310
F5F5F5F5F5F5F5F5F5F5F5F5F5F5F5F5E2E2E2E2E2E2E2E2E2E2E2E2E2E2E2E2E2E2E2E2F5F5E2E2E2E2E2E2E2E2E2E2E2E2E2E2E2E2E2E2E2E2E2E2E2E2E2E2E2E2E2E2E2E2E2E2E2E2E2E2E2E2E2E2E2E2E2E2E2E2E2E2E2E2E2E2E2E2E2E2E2E2E2E2E2E2E2E2E2E2E2E2E2E2E2E2E2E2E2E2E2E2E2E2E2E2E2E2E2E2E2
310
E2E2E2E2E2E2E2E2E2E2E2E2E2E2E2E2E2E2E2E2E2E2E2E2E2E2E2E2E2E2E2E2E2E2E2E2E2E2E2E2E2E2E2E2E2E2E2E2E2E2E2E2E2E2E2E2E2E2E2E2E2E2E2E2E2E2E2E2E2E2E2E2E2E2E2E2E2E2E2E2E2E2E2E2E2E2E2E2E2F5F5E2E2E2E2E2E2E2E2E2E2E2E2E2E2E2E2E2E2E2E2E2E2E2E2E2E2E2E2E2E2E2E2E2E2E2E2
310
E2E2E2E2E2E2E2E2E2E2E2E2E2E2E2E2E2E2E2E2E2E2E2E2E2E2E2E2E2E2E2E2E2E2E2E2E2E2E2E2E2E2E2E2E2E2E2E2E2E2E2E2E2E2E2E2E2E2E2E2E2E2E2E2E2E2E2E2E2E2E2E2E2E2E2E2E2E2E2E2E2E2E2E2E2E2E2E2E2E2E2E2E2E2E2E2E2E2E2E2E2E2E2E2E2E2E2E2E2E2E2E2E2E2E2E2E2E2E2E2E2E2E2E2E2E2E2
310
E2E2E2E2E2E2E2E2E2E2E2E2E2E2E2F5F5E2E2E2E2E2E2E2E2E2E2E2E2E2E2E2E2E2E2E2E2E2E2E2E2E2E2E2E2E2E2E2E2E2E2E2E2E2E2E2E2E2E2E2E2E2E2E2E2E2E2E2E2E2E2E2E2E2E2E2E2E2E2E2E2E2E2E2E2E2E2E2E2E2E2E2E2E2E2E2E2E2E2E2E2E2E2E2E2E2E2E2E2E2E2E2E2E2E2E2E2E2E2E2E2E2E2E2E2E2E2
310
E2E2E2E2E2E2E2E2E2E2E2E2E2E2E2E2E2E2E2E2E2E2E2E2E2E2E2E2E2E2E2E2E2E2E2E2E2E2E2E2E2E2E2E2E2E2E2E2E2E2E2E2E2E2E2E2E2E2E2E2E2E2E2E2E2E2E2E2F5F5E2E2E2E2E2E2E2E2E2E2E2E2E2E2E2E2E2E2E2E2E2E2E2E2E2E2E2E2E2E2E2E2E2E2E2E2E2E2E2E2E2E2E2E2E2E2E2E2E2E2E2E2E2E2E2E2E2
310
E2E2E2E2E2E2E2E2E2E2E2E2E2E2E2E2E2E2E2E2E2E2E2E2E2E2E2E2E2E2E2E2E2E2E2E2E2E2E2E2E2E2E2E2E2E2E2E2E2E2E2E2E2E2E2E2E2E2E2E2E2E2E2E2E2E2E2E2E2E2E2E2E2E2E2E2E2E2E2E2E2E2E2E2E2E2E2E2E2E2E2E2E2E2E2E2E2E2E2E2E2E2E2E2E2E2E2E2E2E2E2E2E2E2E2E2E2E2E2E2E2F5F5E2E2E2F5
310
E2E2E2E2E2E2E2E2E2E2E2E2E2E2E2E2E2E2E2E2E2E2E2E2E2E2E2E2E2E2E2E2E2E2E2E2E2E2E2E2E2E2E2E2E2E2E2E2E2E2E2E2E2E2E2E2E2E2E2E2E2E2E2E2E2E2E2E2E2E2E2E2E2E2E2E2E2E2E2E2E2E2E2E2E2E2E2E2E2E2E2E2E2E2E2E2E2E2E2E2E2E2E2E2E2E2E2E2E2E2E2E2E2E2E2E2E2E2E2E2E2E2E2E2E2E2E2
310
E2E2E2E2E2E2E2E2E2E2E2E2E2E2E2E2E2E2E2E2E2E2E2E2E2E2E2E2E2E2E2E2E2E2E2E2E2E2E2E2E2E2E2F5E2E2E2F5F5E2E2E2F5E2E2E2E2E2E2E2E2E2E2E2E2E2E2E2E2E2E2E2E2E2E2E2E2E2E2E2E2E2E2E2E2E2E2E2E2E2E2E2E2E2E2E2E2E2E2E2E2E2E2E2E2E2E2E2E2E2E2E2E2E2E2E2E2E2E2E2E2E2E2E2E2E2E2
310
E2E2E2E2E2E2E2E2E2E2E2E2E2E2E2E2E2E2E2E2E2E2E2E2E2E2E2E2E2E2E2E2E2E2E2E2E2E2E2E2E2E2E2E2E2E2E2E2E2E2E2E2E2E2E2E2E2E2E2E2E2E2E2E2E2E2E2E2E2E2E2E2E2E2E2E2E2E2E2E2E2E2E2E2E2E2E2E2E2E2E2E2E2E2E2E2F5E2E2E2F5F5E2E2E2F5E2E2E2E2E2E2E2E2E2E2E2E2E2E2E2E2E2E2E2E2E2
310
E2E2E2E2E2E2E2E2E2E2E2E2E2E2E2E2E2E2E2E2E2E2E2E2E2E2E2E2E2E2E2E2E2E2E2E2E2E2E2E2E2E2E2E2E2E2E2E2E2E2E2E2E2E2E2E2E2E2E2E2E2E2E2E2E2E2E2E2E2E2E2E2E2E2E2E2E2E2E2E2E2E2E2E2E2E2E2E2E2E2E2E2E2E2E2E2E2E2E2E2E2E2E2E2E2E2E2E2E2E2E2E2E2E2E2E2E2E2E2E2E2E2E2E2E2E2E2
310
E2E2E2E2E2E2E2E2E2E2E2E2E2E2E2E2E2E2E2E2E2E2F5E2E2E2F5F5E2E2E2F5E2E2E2E2E2E2E2E2E2E2E2E2E2E2E2E2E2E2E2E2E2E2E2E2E2E2E2E2E2E2E2E2E2E2E2E2E2E2E2E2E2E2E2E2E2E2E2E2E2E2E2E2E2E2E2E2E2E2E2E2E2E2E2E2E2E2E2E2E2E2E2E2E2E2E2E2E2E2E2E2E2E2E2E2E2E2E2E2E2E2E2E2E2E2E2
310
E2E2E2E2E2E2E2E2E2E2E2E2E2E2E2E2E2E2E2E2E2E2E2E2E2E2E2E2E2E2E2E2E2E2E2E2E2E2E2E2E2E2E2E2E2E2E2E2E2E2E2E2E2E2E2E2E2E2E2E2E2E2E2E2E2E2E2E2E2E2E2E2E2E2E2F5E2E2E2F5F5E2E2E2F5E2E2E2E2E2E2E2E2E2E2E2E2E2E2E2E2E2E2E2E2E2E2E2E2E2E2E2E2E2E2E2E2E2E2E2E2E2E2E2E2E2E2
310
E2E2E2E2E2E2E2E2E2E2E2E2E2E2E2E2E2E2E2E2E2E2E2E2E2E2E2E2E2E2E2E2E2E2E2E2E2E2E2E2E2E2E2E2E2E2E2E2E2E2E2E2E2E2E2E2E2E2E2E2E2E2E2E2E2E2E2E2E2E2E2E2E2E2E2E2E2E2E2E2E2E2E2E2E2E2E2E2E2E2E2E2E2E2E2E2E2E2E2E2E2E2E2E2E2E2E2E2E2E2E2E2E2E2E2E2E2E2E2E2E2E2E2E2E2E2E2
310
E2F5E2E2E2F5F5E2E2E2F5E2E2E2E2E2E2E2E2E2E2E2E2E2E2E2E2E2E2E2E2E2E2E2E2E2E2E2E2E2E2E2E2E2E2E2E2E2E2E2E2E2E2E2E2E2E2E2E2E2E2E2E2E2E2E2E2E2E2E2E2E2E2E2E2E2E2E2E2E2E2E2E2E2E2E2E2E2E2E2E2E2E2E2E2E2E2E2E2E2E2E2E2E2E2E2E2E2E2E2E2E2E2E2E2E2E2E2E2E2E2E2E2E2E2E2E2
310
E2E2E2E2E2E2E2E2E2E2E2E2E2E2E2E2E2E2E2E2E2E2E2E2E2E2E2E2E2E2E2E2E2E2E2E2E2E2E2E2E2E2E2E2E2E2E2E2E2E2E2E2E2E2F5E2E2E2F5F5E2E2E2F5E2E2E2E2E2E2E2E2E2E2E2E2E2E2E2E2E2E2E2E2E2E2E2E2E2E2E2E2E2E2E2E2E2E2E2E2E2E2E2E2E2E2E2E2E2E2E2E2E2E2E2E2E2E2E2E2E2E2E2E2E2E2E2
310
E2E2E2E2E2E2E2E2E2E2E2E2E2E2E2E2E2E2E2E2E2E2E2E2E2E2E2E2E2E2E2E2E2E2E2E2E2E2E2E2E2E2E2E2E2E2E2E2E2E2E2E2E2E2E2E2E2E2E2E2E2E2E2E2E2E2E2E2E2E2E2E2E2E2E2E2E2E2E2E2E2E2E2E2E2E2E2E2E2E2E2E2E2E2E2E2E2E2E2E2E2E2E2E2E2E2E2F5E2E2E2F5F5E2E2E2F5E2E2E2E2E2E2E2E2E2E2
310
E2E2E2E2E2E2E2E2E2E2E2E2E2E2E2E2E2E2E2E2E2E2E2E2E2E2E2E2E2E2E2E2E2E2E2E2E2E2E2E2E2E2E2E2E2E2E2E2E2E2E2E2E2E2E2E2E2E2E2E2E2E2E2E2E2E2E2E2E2E2E2E2E2E2E2E2E2E2E2E2E2E2E2E2E2E2E2E2E2E2E2E2E2E2E2E2E2E2E2E2E2E2E2E2E2E2E2E2E2E2E2E2E2E2E2E2E2E2E2E2E2E2E2E2E2E2E2
310
E2E2E2E2E2E2E2E2E2E2E2E2E2E2E2E2E2E2E2E2E2E2E2E2E2E2E2E2E2E2E2E2E2F5E2E2E2F5F5E2E2E2F5F5F5F5F5F5F5F5E2E2E2E2E2E2E2E2E2F5F5F5F5F5F5F5F5F5F5F5F5F5F5F5F5E2E2E2E2E2E2E2E2E2F5F5F5F5F5F5F5F5F5F5F5F5F5F5F5E2E2E2E2E2E2E2E2E2F5F5F5F5F5F5F5F5F5F5F5F5F5F5F5F5E2E2E2
310
E2E2E2E2E2F5F5F5F5F5F5F5F5F5F5F5F5F5F5F5F5E2E2E2E2E2E2E2E2E2F5F5F5F5F5F5F5F5F5F5F5F5F5F5F5E2E2E2E2E2E2E2E2E2F5F5F5F5F5F5F5F5F5F5F5F5F5F5F5F5E2E2E2E2E2E2E2E2E2F5F5F5F5F5F5F5F5E2E2E2F5F5E2E2E2E2E2E2E2E2E2E2E2E2E2E2E2E2E2E2E2E2E2E2E2E2E2E2E2E2E2E2E2E2E2E2E2
310
E2E2E2E2E2E2E2E2E2E2E2E2E2E2E2E2E2E2E2E2E2E2E2E2E2E2E2E2E2E2E2E2E2E2E2E2E2E2E2E2E2E2E2E2E2E2E2E2E2E2E2E2E2E2E2E2E2E2E2E2E2E2E2E2E2E2E2E2E2E2E2E2E2E2E2E2E2E2E2E2E2E2E2E2E2E2E2E2E2E2E2E2E2E2E2E2E2E2E2E2E2E2E2E2E2E2E2E2E2E2E2E2E2E2E2E2E2E2E2E2E2E2E2E2E2E2E2
310
E2E2E2E2E2E2E2E2E2E2E2E2E2E2E2E2F5F5E2E2E2E2E2E2E2E2E2E2E2E2E2E2E2E2E2E2E2E2E2E2E2E2E2E2E2E2E2E2E2E2E2E2E2E2E2E2E2E2E2E2E2E2E2E2E2E2E2E2E2E2E2E2E2E2E2E2E2E2E2E2E2E2E2E2E2E2E2E2E2E2E2E2E2E2E2E2E2E2E2E2E2E2E2E2E2E2E2E2E2E2E2E2E2E2E2E2E2E2E2E2E2E2E2E2E2E2E2
310
E2E2E2E2E2E2E2E2E2E2E2E2E2E2E2E2E2E2E2E2E2E2E2E2E2E2E2E2E2E2E2E2E2E2E2E2E2E2E2E2E2E2E2E2E2E2E2E2E2E2E2E2E2E2E2E2E2E2E2E2E2E2E2E2E2E2E2E2E2F5F5E2E2E2E2E2E2E2E2E2E2E2E2E2E2E2E2E2E2E2E2E2E2E2E2E2E2E2E2E2E2E2E2E2E2E2E2E2E2E2E2E2E2E2E2E2E2E2E2E2E2E2E2E2E2E2E2
310
E2E2E2E2E2E2E2E2E2E2E2E2E2E2E2E2E2E2E2E2E2E2E2E2E2E2E2E2E2E2E2E2E2E2E2E2E2E2E2E2E2E2E2E2E2E2E2E2E2E2E2E2E2E2E2E2E2E2E2E2E2E2E2E2E2E2E2E2E2E2E2E2E2E2E2E2E2E2E2E2E2E2E2E2E2E2E2E2E2E2E2E2E2E2E2E2E2E2E2E2E2E2E2E2E2E2E2E2E2E2E2E2E2E2E2E2E2E2E2E2E2E2F5F5E2E2E2
310
E2E2E2E2E2E2E2E2E2E2E2E2E2E2E2E2E2E2E2E2E2E2E2E2E2E2E2E2E2E2E2E2E2E2E2E2E2E2E2E2E2E2E2E2E2E2E2E2E2E2E2E2E2E2E2E2E2E2E2E2E2E2E2E2E2E2E2E2E2E2E2E2E2E2E2E2E2E2E2E2E2E2E2E2E2E2E2E2E2E2E2E2E2E2E2E2E2E2E2E2E2E2E2E2E2E2E2E2E2E2E2E2E2E2E2E2E2E2E2E2E2E2E2E2E2E2E2
310
E2E2E2E2E2E2E2E2E2E2E2E2E2E2E2E2E2E2E2E2E2E2E2E2E2E2E2E2E2E2E2E2E2E2E2E2E2E2E2E2E2E2E2E2E2E2E2E2F5
  0
XRECORD
  5
58431
102
{ACAD_REACTORS
330
58430
102
}
330
58430
100
AcDbXrecord
280
     1
102
SHADEPLOT
 70
     0
102
SHADEPLOTRESLEVEL
 70
     2
102
SHADEPLOTCUSTOMDPI
 70
   300
  0
ENDSEC
  0
EOF
