  0
SECTION
  2
HEADER
  9
$ACADVER
  1
AC1015
  9
$ACADMAINTVER
 70
    20
  9
$DWGCODEPAGE
  3
ANSI_936
  9
$INSBASE
 10
0.0
 20
0.0
 30
0.0
  9
$EXTMIN
 10
-130.0520312063884
 20
-73.35898760052365
 30
0.0
  9
$EXTMAX
 10
180.392119499525
 20
91.33923152733041
 30
0.0
  9
$LIMMIN
 10
0.0
 20
0.0
  9
$LIMMAX
 10
420.0
 20
297.0
  9
$ORTHOMODE
 70
     0
  9
$REGENMODE
 70
     1
  9
$FILLMODE
 70
     1
  9
$QTEXTMODE
 70
     0
  9
$MIRRTEXT
 70
     1
  9
$LTSCALE
 40
1.0
  9
$ATTMODE
 70
     1
  9
$TEXTSIZE
 40
3.5
  9
$TRACEWID
 40
1.0
  9
$TEXTSTYLE
  7
simplex
  9
$CLAYER
  8
0
  9
$CELTYPE
  6
ByLayer
  9
$CECOLOR
 62
   256
  9
$CELTSCALE
 40
1.0
  9
$DISPSILH
 70
     0
  9
$DIMSCALE
 40
0.0
  9
$DIMASZ
 40
3.5
  9
$DIMEXO
 40
0.0
  9
$DIMDLI
 40
0.38
  9
$DIMRND
 40
0.0
  9
$DIMDLE
 40
0.0
  9
$DIMEXE
 40
1.5
  9
$DIMTP
 40
0.0
  9
$DIMTM
 40
0.0
  9
$DIMTXT
 40
3.5
  9
$DIMCEN
 40
0.09
  9
$DIMTSZ
 40
0.0
  9
$DIMTOL
 70
     0
  9
$DIMLIM
 70
     0
  9
$DIMTIH
 70
     0
  9
$DIMTOH
 70
     0
  9
$DIMSE1
 70
     0
  9
$DIMSE2
 70
     0
  9
$DIMTAD
 70
     1
  9
$DIMZIN
 70
     8
  9
$DIMBLK
  1

  9
$DIMASO
 70
     1
  9
$DIMSHO
 70
     1
  9
$DIMPOST
  1

  9
$DIMAPOST
  1

  9
$DIMALT
 70
     0
  9
$DIMALTD
 70
     2
  9
$DIMALTF
 40
25.4
  9
$DIMLFAC
 40
1.0
  9
$DIMTOFL
 70
     0
  9
$DIMTVP
 40
0.0
  9
$DIMTIX
 70
     0
  9
$DIMSOXD
 70
     0
  9
$DIMSAH
 70
     0
  9
$DIMBLK1
  1

  9
$DIMBLK2
  1

  9
$DIMSTYLE
  2
\M+18352\M+18373\M+1815B - ISO-25
  9
$DIMCLRD
 70
   256
  9
$DIMCLRE
 70
   256
  9
$DIMCLRT
 70
   256
  9
$DIMTFAC
 40
1.0
  9
$DIMGAP
 40
2.299999999999998
  9
$DIMJUST
 70
     0
  9
$DIMSD1
 70
     0
  9
$DIMSD2
 70
     0
  9
$DIMTOLJ
 70
     1
  9
$DIMTZIN
 70
     8
  9
$DIMALTZ
 70
     0
  9
$DIMALTTZ
 70
     0
  9
$DIMUPT
 70
     0
  9
$DIMDEC
 70
     2
  9
$DIMTDEC
 70
     2
  9
$DIMALTU
 70
     2
  9
$DIMALTTD
 70
     2
  9
$DIMTXSTY
  7
simplex
  9
$DIMAUNIT
 70
     0
  9
$DIMADEC
 70
     0
  9
$DIMALTRND
 40
0.0
  9
$DIMAZIN
 70
     0
  9
$DIMDSEP
 70
    46
  9
$DIMATFIT
 70
     3
  9
$DIMFRAC
 70
     0
  9
$DIMLDRBLK
  1

  9
$DIMLUNIT
 70
     2
  9
$DIMLWD
 70
    -1
  9
$DIMLWE
 70
    -1
  9
$DIMTMOVE
 70
     0
  9
$LUNITS
 70
     2
  9
$LUPREC
 70
     4
  9
$SKETCHINC
 40
1.0
  9
$FILLETRAD
 40
0.5
  9
$AUNITS
 70
     0
  9
$AUPREC
 70
     0
  9
$MENU
  1
.
  9
$ELEVATION
 40
0.0
  9
$PELEVATION
 40
0.0
  9
$THICKNESS
 40
0.0
  9
$LIMCHECK
 70
     0
  9
$CHAMFERA
 40
10.0
  9
$CHAMFERB
 40
10.0
  9
$CHAMFERC
 40
20.0
  9
$CHAMFERD
 40
0.0
  9
$SKPOLY
 70
     0
  9
$TDCREATE
 40
2455489.391063368
  9
$TDUCREATE
 40
2455489.057730035
  9
$TDUPDATE
 40
2458572.935490382
  9
$TDUUPDATE
 40
2458572.602157048
  9
$TDINDWG
 40
2.7777019097
  9
$TDUSRTIMER
 40
2.7776447338
  9
$USRTIMER
 70
     1
  9
$ANGBASE
 50
0.0
  9
$ANGDIR
 70
     0
  9
$PDMODE
 70
     0
  9
$PDSIZE
 40
0.0
  9
$PLINEWID
 40
0.0
  9
$SPLFRAME
 70
     0
  9
$SPLINETYPE
 70
     6
  9
$SPLINESEGS
 70
     8
  9
$HANDSEED
  5
5697A
  9
$SURFTAB1
 70
     6
  9
$SURFTAB2
 70
     6
  9
$SURFTYPE
 70
     6
  9
$SURFU
 70
     6
  9
$SURFV
 70
     6
  9
$UCSBASE
  2

  9
$UCSNAME
  2

  9
$UCSORG
 10
0.0
 20
0.0
 30
0.0
  9
$UCSXDIR
 10
1.0
 20
0.0
 30
0.0
  9
$UCSYDIR
 10
0.0
 20
1.0
 30
0.0
  9
$UCSORTHOREF
  2

  9
$UCSORTHOVIEW
 70
     0
  9
$UCSORGTOP
 10
0.0
 20
0.0
 30
0.0
  9
$UCSORGBOTTOM
 10
0.0
 20
0.0
 30
0.0
  9
$UCSORGLEFT
 10
0.0
 20
0.0
 30
0.0
  9
$UCSORGRIGHT
 10
0.0
 20
0.0
 30
0.0
  9
$UCSORGFRONT
 10
0.0
 20
0.0
 30
0.0
  9
$UCSORGBACK
 10
0.0
 20
0.0
 30
0.0
  9
$PUCSBASE
  2

  9
$PUCSNAME
  2

  9
$PUCSORG
 10
0.0
 20
0.0
 30
0.0
  9
$PUCSXDIR
 10
1.0
 20
0.0
 30
0.0
  9
$PUCSYDIR
 10
0.0
 20
1.0
 30
0.0
  9
$PUCSORTHOREF
  2

  9
$PUCSORTHOVIEW
 70
     0
  9
$PUCSORGTOP
 10
0.0
 20
0.0
 30
0.0
  9
$PUCSORGBOTTOM
 10
0.0
 20
0.0
 30
0.0
  9
$PUCSORGLEFT
 10
0.0
 20
0.0
 30
0.0
  9
$PUCSORGRIGHT
 10
0.0
 20
0.0
 30
0.0
  9
$PUCSORGFRONT
 10
0.0
 20
0.0
 30
0.0
  9
$PUCSORGBACK
 10
0.0
 20
0.0
 30
0.0
  9
$USERI1
 70
     0
  9
$USERI2
 70
     0
  9
$USERI3
 70
     0
  9
$USERI4
 70
     0
  9
$USERI5
 70
     0
  9
$USERR1
 40
0.0
  9
$USERR2
 40
0.0
  9
$USERR3
 40
0.0
  9
$USERR4
 40
0.0
  9
$USERR5
 40
0.0
  9
$WORLDVIEW
 70
     1
  9
$SHADEDGE
 70
     3
  9
$SHADEDIF
 70
    70
  9
$TILEMODE
 70
     1
  9
$MAXACTVP
 70
    64
  9
$PINSBASE
 10
0.0
 20
0.0
 30
0.0
  9
$PLIMCHECK
 70
     0
  9
$PEXTMIN
 10
26.66999878883364
 20
20.31999878883365
 30
0.0
  9
$PEXTMAX
 10
240.0299890995025
 20
182.8799890995025
 30
0.0
  9
$PLIMMIN
 10
-6.350006103515625
 20
-6.349999904632567
  9
$PLIMMAX
 10
273.0499877929688
 20
209.5499939918518
  9
$UNITMODE
 70
     0
  9
$VISRETAIN
 70
     1
  9
$PLINEGEN
 70
     0
  9
$PSLTSCALE
 70
     1
  9
$TREEDEPTH
 70
  3020
  9
$CMLSTYLE
  2
Standard
  9
$CMLJUST
 70
     0
  9
$CMLSCALE
 40
20.0
  9
$PROXYGRAPHICS
 70
     1
  9
$MEASUREMENT
 70
     1
  9
$CELWEIGHT
370
    -1
  9
$ENDCAPS
280
     0
  9
$JOINSTYLE
280
     0
  9
$LWDISPLAY
290
     0
  9
$INSUNITS
 70
     4
  9
$HYPERLINKBASE
  1

  9
$STYLESHEET
  1

  9
$XEDIT
290
     1
  9
$CEPSNTYPE
380
     0
  9
$PSTYLEMODE
290
     1
  9
$FINGERPRINTGUID
  2
{601DDA01-5B13-4A4C-8F56-1333B78D855B}
  9
$VERSIONGUID
  2
{49E47136-518A-4D2B-8809-49E131243C35}
  9
$EXTNAMES
290
     1
  9
$PSVPSCALE
 40
0.0
  9
$OLESTARTUP
290
     0
  0
ENDSEC
  0
SECTION
  2
CLASSES
  0
CLASS
  1
ACDBDICTIONARYWDFLT
  2
AcDbDictionaryWithDefault
  3
ObjectDBX Classes
 90
        0
280
     0
281
     0
  0
CLASS
  1
ACDBPLACEHOLDER
  2
AcDbPlaceHolder
  3
ObjectDBX Classes
 90
        0
280
     0
281
     0
  0
CLASS
  1
LAYOUT
  2
AcDbLayout
  3
ObjectDBX Classes
 90
        0
280
     0
281
     0
  0
CLASS
  1
DICTIONARYVAR
  2
AcDbDictionaryVar
  3
ObjectDBX Classes
 90
        0
280
     0
281
     0
  0
CLASS
  1
TABLESTYLE
  2
AcDbTableStyle
  3
ObjectDBX Classes
 90
     2047
280
     0
281
     0
  0
CLASS
  1
SORTENTSTABLE
  2
AcDbSortentsTable
  3
ObjectDBX Classes
 90
        0
280
     0
281
     0
  0
CLASS
  1
DIMASSOC
  2
AcDbDimAssoc
  3
"AcDbDimAssoc|Product Desc:     AcDim ARX App For Dimension|Company:          Autodesk, Inc.|WEB Address:      www.autodesk.com"
 90
        0
280
     0
281
     0
  0
CLASS
  1
ACAD_EVALUATION_GRAPH
  2
AcDbEvalGraph
  3
ObjectDBX Classes
 90
    33921
280
     0
281
     0
  0
CLASS
  1
ACAECUSTOBJ
  2
AcAeEditorObj
  3
AcAeEditorObj
 90
    33792
280
     0
281
     0
  0
CLASS
  1
ACDB_DYNAMICBLOCKPURGEPREVENTER_VERSION
  2
AcDbDynamicBlockPurgePreventer
  3
ObjectDBX Classes
 90
    33921
280
     0
281
     0
  0
ENDSEC
  0
SECTION
  2
TABLES
  0
TABLE
  2
VPORT
  5
8
330
0
100
AcDbSymbolTable
 70
     8
  0
VPORT
  5
5696B
330
8
100
AcDbSymbolTableRecord
100
AcDbViewportTableRecord
  2
*Active
 70
     0
 10
0.0
 20
0.0
 11
1.0
 21
1.0
 12
3.384476087180814
 22
16.17140099182336
 13
0.0
 23
0.0
 14
10.0
 24
10.0
 15
10.0
 25
10.0
 16
0.0
 26
0.0
 36
1.0
 17
0.0
 27
0.0
 37
0.0
 40
472.4169955127929
 41
1.508350730688935
 42
50.0
 43
0.0
 44
0.0
 50
0.0
 51
0.0
 71
     0
 72
  1000
 73
     1
 74
     1
 75
     0
 76
     0
 77
     0
 78
     0
281
     0
 65
     1
110
0.0
120
0.0
130
0.0
111
1.0
121
0.0
131
0.0
112
0.0
122
1.0
132
0.0
 79
     0
146
0.0
  0
ENDTAB
  0
TABLE
  2
LTYPE
  5
5
330
0
100
AcDbSymbolTable
 70
     4
  0
LTYPE
  5
14
330
5
100
AcDbSymbolTableRecord
100
AcDbLinetypeTableRecord
  2
ByBlock
 70
     0
  3

 72
    65
 73
     0
 40
0.0
  0
LTYPE
  5
15
330
5
100
AcDbSymbolTableRecord
100
AcDbLinetypeTableRecord
  2
ByLayer
 70
     0
  3

 72
    65
 73
     0
 40
0.0
  0
LTYPE
  5
16
330
5
100
AcDbSymbolTableRecord
100
AcDbLinetypeTableRecord
  2
Continuous
 70
     0
  3
Solid line
 72
    65
 73
     0
 40
0.0
  0
LTYPE
  5
D7
330
5
100
AcDbSymbolTableRecord
100
AcDbLinetypeTableRecord
  2
HIDDEN
 70
     0
  3
Hidden __ __ __ __ __ __ __ __ __ __ __ __ __ _
 72
    65
 73
     2
 40
9.524999999999996
 49
6.349999999999997
 74
     0
 49
-3.174999999999998
 74
     0
  0
LTYPE
  5
D9
330
5
100
AcDbSymbolTableRecord
100
AcDbLinetypeTableRecord
  2
CENTER
 70
     0
  3
Center ____ _ ____ _ ____ _ ____ _ ____ _ ____
 72
    65
 73
     4
 40
50.8
 49
31.75
 74
     0
 49
-6.349999999999997
 74
     0
 49
6.349999999999997
 74
     0
 49
-6.349999999999997
 74
     0
  0
LTYPE
  5
35815
330
5
100
AcDbSymbolTableRecord
100
AcDbLinetypeTableRecord
  2
PHANTOM
 70
     0
  3
_____ _ _ _____ _ _ _____ _ _ _____
 72
    65
 73
     6
 40
0.8
 49
0.45
 74
     0
 49
-0.05
 74
     0
 49
0.1
 74
     0
 49
-0.05
 74
     0
 49
0.1
 74
     0
 49
-0.05
 74
     0
  0
ENDTAB
  0
TABLE
  2
LAYER
  5
2
102
{ACAD_XDICTIONARY
360
E2
102
}
330
0
100
AcDbSymbolTable
 70
    14
  0
LAYER
  5
10
330
2
100
AcDbSymbolTableRecord
100
AcDbLayerTableRecord
  2
0
 70
     0
 62
     7
  6
Continuous
370
    -3
390
F
  0
LAYER
  5
D1
330
2
100
AcDbSymbolTableRecord
100
AcDbLayerTableRecord
  2
1
 70
     0
 62
     4
  6
Continuous
370
    50
390
F
1001
AcAecLayerStandard
1000

1000

  0
LAYER
  5
D3
330
2
100
AcDbSymbolTableRecord
100
AcDbLayerTableRecord
  2
2
 70
     0
 62
     7
  6
Continuous
370
    25
390
F
1001
AcAecLayerStandard
1000

1000

  0
LAYER
  5
D4
330
2
100
AcDbSymbolTableRecord
100
AcDbLayerTableRecord
  2
3
 70
     0
 62
     1
  6
HIDDEN
370
    35
390
F
1001
AcAecLayerStandard
1000

1000

  0
LAYER
  5
D8
330
2
100
AcDbSymbolTableRecord
100
AcDbLayerTableRecord
  2
4
 70
     0
 62
     2
  6
CENTER
370
    25
390
F
1001
AcAecLayerStandard
1000

1000

  0
LAYER
  5
DA
330
2
100
AcDbSymbolTableRecord
100
AcDbLayerTableRecord
  2
6
 70
     0
 62
     5
  6
Continuous
370
    35
390
F
1001
AcAecLayerStandard
1000

1000

  0
LAYER
  5
DB
330
2
100
AcDbSymbolTableRecord
100
AcDbLayerTableRecord
  2
cut
 70
     0
 62
     1
  6
Continuous
370
    25
390
F
1001
AcAecLayerStandard
1000

1000

  0
LAYER
  5
DC
330
2
100
AcDbSymbolTableRecord
100
AcDbLayerTableRecord
  2
nocut
 70
     0
 62
     7
  6
Continuous
370
    25
390
F
1001
AcAecLayerStandard
1000

1000

  0
LAYER
  5
DD
330
2
100
AcDbSymbolTableRecord
100
AcDbLayerTableRecord
  2
sk1
 70
     0
 62
     4
  6
Continuous
370
    50
390
F
1001
AcAecLayerStandard
1000

1000

  0
LAYER
  5
DE
330
2
100
AcDbSymbolTableRecord
100
AcDbLayerTableRecord
  2
sk2
 70
     0
 62
     7
  6
Continuous
370
    25
390
F
1001
AcAecLayerStandard
1000

1000

  0
LAYER
  5
DF
330
2
100
AcDbSymbolTableRecord
100
AcDbLayerTableRecord
  2
sk3
 70
     0
 62
     1
  6
HIDDEN
370
    35
390
F
1001
AcAecLayerStandard
1000

1000

  0
LAYER
  5
E0
330
2
100
AcDbSymbolTableRecord
100
AcDbLayerTableRecord
  2
sk4
 70
     0
 62
     2
  6
CENTER
370
    25
390
F
1001
AcAecLayerStandard
1000

1000

  0
LAYER
  5
E1
330
2
100
AcDbSymbolTableRecord
100
AcDbLayerTableRecord
  2
sk6
 70
     0
 62
     5
  6
Continuous
370
    35
390
F
1001
AcAecLayerStandard
1000

1000

  0
LAYER
  5
31B6
330
2
100
AcDbSymbolTableRecord
100
AcDbLayerTableRecord
  2
Defpoints
 70
     0
 62
     7
  6
Continuous
290
     0
370
    -3
390
F
  0
ENDTAB
  0
TABLE
  2
STYLE
  5
3
330
0
100
AcDbSymbolTable
 70
    12
  0
STYLE
  5
11
330
3
100
AcDbSymbolTableRecord
100
AcDbTextStyleTableRecord
  2
Standard
 70
     0
 40
0.0
 41
1.0
 50
0.0
 71
     0
 42
2.5
  3
txt.shx
  4
@extfont2.shx
  0
STYLE
  5
D6
330
3
100
AcDbSymbolTableRecord
100
AcDbTextStyleTableRecord
  2

 70
     1
 40
0.0
 41
1.0
 50
0.0
 71
     0
 42
2.5
  3
ltypeshp.shx
  4

  0
STYLE
  5
24A
330
3
100
AcDbSymbolTableRecord
100
AcDbTextStyleTableRecord
  2
simplex
 70
     0
 40
3.5
 41
1.0
 50
0.0
 71
     0
 42
3.5
  3
txt.shx
  4

  0
STYLE
  5
69E
330
3
100
AcDbSymbolTableRecord
100
AcDbTextStyleTableRecord
  2
MX_NOTE_STANDARD
 70
     0
 40
0.0
 41
1.0
 50
0.0
 71
     0
 42
4.2
  3
txt.shx
  4
extfont.shx
  0
STYLE
  5
3524
330
3
100
AcDbSymbolTableRecord
100
AcDbTextStyleTableRecord
  2
TEXTSTYLE_2
 70
     0
 40
0.0
 41
0.775
 50
0.0
 71
     0
 42
0.2
  3
gdt
  4

  0
STYLE
  5
3525
330
3
100
AcDbSymbolTableRecord
100
AcDbTextStyleTableRecord
  2
TEXTSTYLE_3
 70
     0
 40
0.0
 41
0.75
 50
0.0
 71
     0
 42
0.2
  3
txt
  4

  0
STYLE
  5
3526
330
3
100
AcDbSymbolTableRecord
100
AcDbTextStyleTableRecord
  2
TEXTSTYLE_13
 70
     0
 40
0.0
 41
1.0
 50
0.0
 71
     0
 42
0.2
  3
txt
  4

  0
STYLE
  5
519A
330
3
100
AcDbSymbolTableRecord
100
AcDbTextStyleTableRecord
  2
TEXTSTYLE_14
 70
     0
 40
0.0
 41
1.0
 50
0.0
 71
     0
 42
0.2
  3
txt
  4

  0
STYLE
  5
6F72
330
3
100
AcDbSymbolTableRecord
100
AcDbTextStyleTableRecord
  2
TEXTSTYLE_4
 70
     0
 40
0.0
 41
0.75
 50
0.0
 71
     0
 42
0.2
  3
txt
  4

  0
STYLE
  5
6F73
330
3
100
AcDbSymbolTableRecord
100
AcDbTextStyleTableRecord
  2
TEXTSTYLE_17
 70
     0
 40
0.0
 41
1.0
 50
0.0
 71
     0
 42
0.2
  3
txt
  4

  0
STYLE
  5
FE12
330
3
100
AcDbSymbolTableRecord
100
AcDbTextStyleTableRecord
  2
TEXTSTYLE_12
 70
     0
 40
0.0
 41
1.0
 50
0.0
 71
     0
 42
0.2
  3
txt
  4

  0
STYLE
  5
3AAB8
330
3
100
AcDbSymbolTableRecord
100
AcDbTextStyleTableRecord
  2
TEXTSTYLE_20
 70
     0
 40
0.0
 41
0.6
 50
0.0
 71
     0
 42
0.2
  3
txt
  4

  0
ENDTAB
  0
TABLE
  2
VIEW
  5
6
330
0
100
AcDbSymbolTable
 70
     0
  0
ENDTAB
  0
TABLE
  2
UCS
  5
7
330
0
100
AcDbSymbolTable
 70
     0
  0
ENDTAB
  0
TABLE
  2
APPID
  5
9
330
0
100
AcDbSymbolTable
 70
    11
  0
APPID
  5
12
330
9
100
AcDbSymbolTableRecord
100
AcDbRegAppTableRecord
  2
ACAD
 70
     0
  0
APPID
  5
D2
330
9
100
AcDbSymbolTableRecord
100
AcDbRegAppTableRecord
  2
AcAecLayerStandard
 70
     0
  0
APPID
  5
E6
330
9
100
AcDbSymbolTableRecord
100
AcDbRegAppTableRecord
  2
ACAD_DSTYLE_DIMTEXT_FILL
 70
     0
  0
APPID
  5
4C84
330
9
100
AcDbSymbolTableRecord
100
AcDbRegAppTableRecord
  2
ACAD_EXEMPT_FROM_CAD_STANDARDS
 70
     0
  0
APPID
  5
3493E
330
9
100
AcDbSymbolTableRecord
100
AcDbRegAppTableRecord
  2
DCO15
 70
     0
  0
APPID
  5
3BAB0
330
9
100
AcDbSymbolTableRecord
100
AcDbRegAppTableRecord
  2
ACAD_DSTYLE_DIMEXT_ENABLED
 70
     0
  0
APPID
  5
3BAB1
330
9
100
AcDbSymbolTableRecord
100
AcDbRegAppTableRecord
  2
ACAD_DSTYLE_DIMEXT_LENGTH
 70
     0
  0
APPID
  5
3BEB4
330
9
100
AcDbSymbolTableRecord
100
AcDbRegAppTableRecord
  2
ACAUTHENVIRON
 70
     0
  0
APPID
  5
3BEB7
330
9
100
AcDbSymbolTableRecord
100
AcDbRegAppTableRecord
  2
AcDbDynamicBlockTrueName
 70
     0
  0
APPID
  5
3BEB8
330
9
100
AcDbSymbolTableRecord
100
AcDbRegAppTableRecord
  2
AcDbDynamicBlockGUID
 70
     0
  0
APPID
  5
3BEBA
330
9
100
AcDbSymbolTableRecord
100
AcDbRegAppTableRecord
  2
AcDbBlockRepETag
 70
     0
  0
ENDTAB
  0
TABLE
  2
DIMSTYLE
  5
A
330
0
100
AcDbSymbolTable
 70
    11
100
AcDbDimStyleTable
 71
     5
340
1BF
340
27
340
352A
340
3527
340
69F
  0
DIMSTYLE
105
27
330
A
100
AcDbSymbolTableRecord
100
AcDbDimStyleTableRecord
  2
ISO-25
 70
     0
 41
2.5
 42
0.625
 43
3.75
 44
1.25
 73
     0
 74
     0
 77
     1
 78
     8
140
2.5
141
2.5
143
0.03937007874016
147
0.625
171
     3
172
     1
271
     2
272
     2
274
     3
278
    44
283
     0
284
     8
340
11
  0
DIMSTYLE
105
1BF
102
{ACAD_REACTORS
330
56684
330
56687
330
56688
330
56696
330
56697
330
56706
330
5674E
102
}
330
A
100
AcDbSymbolTableRecord
100
AcDbDimStyleTableRecord
  2
\M+18352\M+18373\M+1815B - ISO-25
 70
     0
 40
0.0
 41
3.5
 42
0.0
 44
1.5
 73
     0
 74
     0
 77
     1
 78
     8
140
3.5
147
2.299999999999998
176
   256
177
   256
178
   256
271
     2
272
     2
284
     8
340
24A
371
    -1
372
    -1
  0
DIMSTYLE
105
69F
330
A
100
AcDbSymbolTableRecord
100
AcDbDimStyleTableRecord
  2
MXDIMSTYLE
 70
     0
 41
2.5
 42
0.5
 43
3.75
 44
1.5
 73
     0
 74
     0
 77
     1
 78
     8
140
4.2
141
2.5
143
0.03937
147
1.0
171
     4
172
     1
173
     1
271
     2
272
     2
274
     4
283
     0
288
     1
340
69E
341
697
343
697
344
697
  0
DIMSTYLE
105
3527
330
A
100
AcDbSymbolTableRecord
100
AcDbDimStyleTableRecord
  2
STANDARD
 70
     0
 41
3.0
 47
0.001
 48
0.001
 71
     1
 73
     0
 74
     0
 77
     1
 78
     8
140
4.0
271
     3
272
     3
284
     8
340
11
341
34B1
342
34B1
343
34B1
344
34B1
  0
DIMSTYLE
105
3528
330
A
100
AcDbSymbolTableRecord
100
AcDbDimStyleTableRecord
  2
DIMSTYLE_1
 70
     0
 41
3.0
 73
     0
 74
     0
 77
     1
 78
     8
140
4.0
271
     3
272
     3
284
     8
340
11
341
34B1
342
34B1
343
34B1
344
34B1
  0
DIMSTYLE
105
3529
330
A
100
AcDbSymbolTableRecord
100
AcDbDimStyleTableRecord
  2
DIMSTYLE_2
 70
     0
 41
3.0
 47
0.001
 48
0.001
 73
     0
 74
     0
 77
     1
 78
     8
140
4.0
271
     3
272
     3
284
     8
340
11
341
34B1
342
34B1
343
34B1
344
34B1
  0
DIMSTYLE
105
352A
330
A
100
AcDbSymbolTableRecord
100
AcDbDimStyleTableRecord
  2
DIMSTYLE_3
 70
     0
 41
3.0
 47
-0.1
 48
0.3
 71
     1
 73
     0
 74
     0
 77
     1
 78
     8
140
4.0
146
0.5
271
     3
272
     3
284
     8
340
11
341
34B1
342
34B1
343
34B1
344
34B1
  0
DIMSTYLE
105
352B
330
A
100
AcDbSymbolTableRecord
100
AcDbDimStyleTableRecord
  2
DIMSTYLE_4
 70
     0
 41
3.0
 47
0.1
 48
0.1
 71
     1
 73
     0
 74
     0
 77
     1
 78
     8
140
4.0
271
     3
272
     3
284
     8
340
11
341
34B1
342
34B1
343
34B1
344
34B1
  0
DIMSTYLE
105
27245
330
A
100
AcDbSymbolTableRecord
100
AcDbDimStyleTableRecord
  2
DIMSTYLE_5
 70
     0
 41
3.0
 47
0.001
 48
0.001
 73
     0
 74
     0
 77
     1
 78
     8
140
4.0
271
     3
272
     3
284
     8
340
11
341
34B1
342
34B1
343
34B1
344
34B1
  0
DIMSTYLE
105
3AAB9
330
A
100
AcDbSymbolTableRecord
100
AcDbDimStyleTableRecord
  2
DIMSTYLE_6
 70
     0
 41
3.0
 42
0.0
 44
1.0
 47
0.05
 48
0.05
 71
     1
 73
     0
 74
     0
 77
     1
 78
     8
140
4.0
147
1.0
271
     3
272
     3
284
     8
340
11
341
34B1
342
34B1
343
34B1
344
34B1
  0
DIMSTYLE
105
532EA
330
A
100
AcDbSymbolTableRecord
100
AcDbDimStyleTableRecord
  2
NEW-DIMSTYLE
 70
     0
 40
0.0
 41
4.57
 42
0.0
 44
5.0
 73
     0
 74
     0
 77
     1
 78
     8
140
4.57
147
2.299999999999998
271
     2
340
24A
  0
ENDTAB
  0
TABLE
  2
BLOCK_RECORD
  5
1
330
0
100
AcDbSymbolTable
 70
   130
  0
BLOCK_RECORD
  5
1F
102
{ACAD_XDICTIONARY
360
31EE
102
}
330
1
100
AcDbSymbolTableRecord
100
AcDbBlockTableRecord
  2
*Model_Space
340
22
  0
BLOCK_RECORD
  5
50
330
1
100
AcDbSymbolTableRecord
100
AcDbBlockTableRecord
  2
*Paper_Space
340
51
  0
BLOCK_RECORD
  5
55
330
1
100
AcDbSymbolTableRecord
100
AcDbBlockTableRecord
  2
*Paper_Space0
340
56
  0
BLOCK_RECORD
  5
680
102
{ACAD_XDICTIONARY
360
3BEB2
102
}
330
1
100
AcDbSymbolTableRecord
100
AcDbBlockTableRecord
  2
zero block
340
0
102
{BLKREFS
331
68C
102
}
1001
ACAD
1000
DesignCenter Data
1002
{
1070
     1
1070
     4
1002
}
1001
AcDbDynamicBlockGUID
1000
{C2E8894D-A8DA-456D-ABB6-198B00672C1A}
1001
AcDbBlockRepETag
1070
     1
1071
        7
  0
BLOCK_RECORD
  5
697
330
1
100
AcDbSymbolTableRecord
100
AcDbBlockTableRecord
  2
_OPEN30
340
0
  0
BLOCK_RECORD
  5
34B1
330
1
100
AcDbSymbolTableRecord
100
AcDbBlockTableRecord
  2
_OPEN
340
0
  0
BLOCK_RECORD
  5
50E6F
330
1
100
AcDbSymbolTableRecord
100
AcDbBlockTableRecord
  2
_None
340
0
  0
BLOCK_RECORD
  5
550F9
330
1
100
AcDbSymbolTableRecord
100
AcDbBlockTableRecord
  2
*D10
340
0
  0
BLOCK_RECORD
  5
5681B
330
1
100
AcDbSymbolTableRecord
100
AcDbBlockTableRecord
  2
*D116
340
0
  0
BLOCK_RECORD
  5
56827
330
1
100
AcDbSymbolTableRecord
100
AcDbBlockTableRecord
  2
*D117
340
0
  0
BLOCK_RECORD
  5
56833
330
1
100
AcDbSymbolTableRecord
100
AcDbBlockTableRecord
  2
*D118
340
0
  0
BLOCK_RECORD
  5
5684A
330
1
100
AcDbSymbolTableRecord
100
AcDbBlockTableRecord
  2
*D120
340
0
  0
BLOCK_RECORD
  5
56872
330
1
100
AcDbSymbolTableRecord
100
AcDbBlockTableRecord
  2
*D124
340
0
  0
BLOCK_RECORD
  5
5689A
330
1
100
AcDbSymbolTableRecord
100
AcDbBlockTableRecord
  2
*D125
340
0
  0
BLOCK_RECORD
  5
568BF
330
1
100
AcDbSymbolTableRecord
100
AcDbBlockTableRecord
  2
*D127
340
0
  0
ENDTAB
  0
ENDSEC
  0
SECTION
  2
BLOCKS
  0
BLOCK
  5
20
330
1F
100
AcDbEntity
  8
0
100
AcDbBlockBegin
  2
*Model_Space
 70
     0
 10
0.0
 20
0.0
 30
0.0
  3
*Model_Space
  1

  0
ENDBLK
  5
21
330
1F
100
AcDbEntity
  8
0
100
AcDbBlockEnd
  0
BLOCK
  5
52
330
50
100
AcDbEntity
 67
     1
  8
0
100
AcDbBlockBegin
  2
*Paper_Space
 70
     0
 10
0.0
 20
0.0
 30
0.0
  3
*Paper_Space
  1

  0
ENDBLK
  5
53
330
50
100
AcDbEntity
 67
     1
  8
0
100
AcDbBlockEnd
  0
BLOCK
  5
57
330
55
100
AcDbEntity
 67
     1
  8
0
100
AcDbBlockBegin
  2
*Paper_Space0
 70
     0
 10
0.0
 20
0.0
 30
0.0
  3
*Paper_Space0
  1

  0
VIEWPORT
  5
71
102
{ACAD_XDICTIONARY
360
56976
102
}
330
55
100
AcDbEntity
 67
     1
  8
0
100
AcDbViewport
 10
150.1652135264906
 20
101.599997546291
 30
0.0
 40
339.1973820494347
 41
164.5360435314421
 68
     0
 69
     0
 12
150.1652135264906
 22
101.599997546291
 13
0.0
 23
0.0
 14
10.0
 24
10.0
 15
10.0
 25
10.0
 16
0.0
 26
0.0
 36
1.0
 17
0.0
 27
0.0
 37
0.0
 42
50.0
 43
0.0
 44
0.0
 45
164.5360435314421
 50
0.0
 51
0.0
 72
  1000
 90
    32864
  1

281
     0
 71
     1
 74
     0
110
0.0
120
0.0
130
0.0
111
1.0
121
0.0
131
0.0
112
0.0
122
1.0
132
0.0
 79
     0
146
0.0
  0
VIEWPORT
  5
73
102
{ACAD_XDICTIONARY
360
56978
102
}
330
55
100
AcDbEntity
 67
     1
  8
0
100
AcDbViewport
 10
133.3499939441681
 20
101.5999939441681
 30
0.0
 40
213.3599903106689
 41
162.5599903106689
 68
     0
 69
     0
 12
210.0
 22
148.5
 13
0.0
 23
0.0
 14
10.0
 24
10.0
 15
10.0
 25
10.0
 16
0.0
 26
0.0
 36
1.0
 17
0.0
 27
0.0
 37
0.0
 42
50.0
 43
0.0
 44
0.0
 45
324.0677920111345
 50
0.0
 51
0.0
 72
   100
 90
    32864
  1

281
     0
 71
     1
 74
     0
110
0.0
120
0.0
130
0.0
111
1.0
121
0.0
131
0.0
112
0.0
122
1.0
132
0.0
 79
     0
146
0.0
  0
ENDBLK
  5
58
330
55
100
AcDbEntity
 67
     1
  8
0
100
AcDbBlockEnd
  0
BLOCK
  5
68A
330
680
100
AcDbEntity
  8
0
100
AcDbBlockBegin
  2
zero block
 70
     0
 10
0.0
 20
0.0
 30
0.0
  3
zero block
  1

  0
HATCH
  5
3BEAB
330
680
100
AcDbEntity
  8
0
 62
     7
100
AcDbHatch
 10
0.0
 20
0.0
 30
0.0
210
0.0
220
0.0
230
1.0
  2
SOLID
 70
     1
 71
     0
 91
        2
 92
        7
 72
     1
 73
     1
 93
        3
 10
0.0
 20
0.9999999999999875
 42
0.4142135623730915
 10
-1.0
 20
0.0
 42
0.0
 10
0.0
 20
0.0
 42
0.0
 97
        0
 92
        7
 72
     1
 73
     1
 93
        3
 10
1.000000000000007
 20
0.0
 42
0.0
 10
0.0
 20
0.0
 42
0.0
 10
0.0
 20
-1.0
 42
0.4142135623730974
 97
        0
 75
     0
 76
     1
 47
0.0090601366782909
 98
        2
 10
-0.380591363650975
 20
0.4885804701532896
 10
0.4350764810977559
 20
-0.4536738423704725
1001
AcDbBlockRepETag
1070
     1
1071
        0
1005
3BEAB
  0
LINE
  5
3BEAC
330
680
100
AcDbEntity
  8
0
 62
     7
 48
0.2
100
AcDbLine
 10
-1.0
 20
0.0
 30
0.0
 11
1.000000000000007
 21
0.0
 31
0.0
1001
AcDbBlockRepETag
1070
     1
1071
        1
1005
3BEAC
  0
LINE
  5
3BEAD
330
680
100
AcDbEntity
  8
0
 62
     7
 48
0.2
100
AcDbLine
 10
0.0
 20
-1.0
 30
0.0
 11
0.0
 21
0.9999999999999875
 31
0.0
1001
AcDbBlockRepETag
1070
     1
1071
        2
1005
3BEAD
  0
ARC
  5
3BEAE
330
680
100
AcDbEntity
  8
0
 62
     7
 48
0.2
100
AcDbCircle
 10
0.0
 20
0.0
 30
0.0
 40
1.0
100
AcDbArc
 50
270.0
 51
0.0
1001
AcDbBlockRepETag
1070
     1
1071
        3
1005
3BEAE
  0
ARC
  5
3BEAF
330
680
100
AcDbEntity
  8
0
 62
     7
 48
0.2
100
AcDbCircle
 10
0.0
 20
0.0
 30
0.0
 40
1.0
100
AcDbArc
 50
0.0
 51
90.0
1001
AcDbBlockRepETag
1070
     1
1071
        4
1005
3BEAF
  0
ARC
  5
3BEB0
330
680
100
AcDbEntity
  8
0
 62
     7
 48
0.2
100
AcDbCircle
 10
0.0
 20
0.0
 30
0.0
 40
1.0
100
AcDbArc
 50
180.0
 51
270.0
1001
AcDbBlockRepETag
1070
     1
1071
        5
1005
3BEB0
  0
ARC
  5
3BEB1
330
680
100
AcDbEntity
  8
0
 62
     7
 48
0.2
100
AcDbCircle
 10
0.0
 20
0.0
 30
0.0
 40
1.0
100
AcDbArc
 50
90.0
 51
180.0
1001
AcDbBlockRepETag
1070
     1
1071
        6
1005
3BEB1
  0
ENDBLK
  5
68B
330
680
100
AcDbEntity
  8
0
100
AcDbBlockEnd
  0
BLOCK
  5
698
330
697
100
AcDbEntity
  8
0
  6
ByBlock
 62
     0
370
    -2
100
AcDbBlockBegin
  2
_OPEN30
 70
     2
 10
0.0
 20
0.0
 30
0.0
  3
_OPEN30
  1

  0
LINE
  5
699
330
697
100
AcDbEntity
  8
0
  6
ByBlock
 62
     0
370
    -2
100
AcDbLine
 10
-1.0
 20
0.267949
 30
0.0
 11
0.0
 21
0.0
 31
0.0
  0
LINE
  5
69A
330
697
100
AcDbEntity
  8
0
  6
ByBlock
 62
     0
370
    -2
100
AcDbLine
 10
0.0
 20
0.0
 30
0.0
 11
-1.0
 21
-0.267949
 31
0.0
  0
LINE
  5
69B
330
697
100
AcDbEntity
  8
0
  6
ByBlock
 62
     0
370
    -2
100
AcDbLine
 10
0.0
 20
0.0
 30
0.0
 11
-1.0
 21
0.0
 31
0.0
  0
ENDBLK
  5
69C
330
697
100
AcDbEntity
  8
0
  6
ByBlock
 62
     0
370
    -2
100
AcDbBlockEnd
  0
BLOCK
  5
34B2
330
34B1
100
AcDbEntity
  8
0
100
AcDbBlockBegin
  2
_OPEN
 70
     0
 10
0.0
 20
0.0
 30
0.0
  3
_OPEN
  1

  0
LINE
  5
34B3
330
34B1
100
AcDbEntity
  8
0
  6
ByBlock
 62
     0
100
AcDbLine
 10
0.0
 20
0.0
 30
0.0
 11
-1.0
 21
0.1766666667
 31
0.0
  0
LINE
  5
34B4
330
34B1
100
AcDbEntity
  8
0
  6
ByBlock
 62
     0
100
AcDbLine
 10
-1.0
 20
-0.1766666667
 30
0.0
 11
0.0
 21
0.0
 31
0.0
  0
LINE
  5
34B5
330
34B1
100
AcDbEntity
  8
0
  6
ByBlock
 62
     0
100
AcDbLine
 10
-1.0
 20
0.0
 30
0.0
 11
0.0
 21
0.0
 31
0.0
  0
ENDBLK
  5
34B6
330
34B1
100
AcDbEntity
  8
0
  6
ByBlock
 62
     0
100
AcDbBlockEnd
  0
BLOCK
  5
50E70
330
50E6F
100
AcDbEntity
  8
0
100
AcDbBlockBegin
  2
_None
 70
     0
 10
0.0
 20
0.0
 30
0.0
  3
_None
  1

  0
ENDBLK
  5
50E71
330
50E6F
100
AcDbEntity
  8
0
100
AcDbBlockEnd
  0
BLOCK
  5
55103
330
550F9
100
AcDbEntity
  8
0
100
AcDbBlockBegin
  2
*D10
 70
     1
 10
0.0
 20
0.0
 30
0.0
  3
*D10
  1

  0
LINE
  5
552C8
330
550F9
100
AcDbEntity
  8
2
100
AcDbLine
 10
146.05
 20
0.0000005000001693
 30
0.0
 11
146.05
 21
51.29075440020824
 31
0.0
  0
LINE
  5
552C9
330
550F9
100
AcDbEntity
  8
2
100
AcDbLine
 10
0.0
 20
15.87501550000002
 30
0.0
 11
0.0000000000000022
 21
51.29075440020824
 31
0.0
  0
LINE
  5
552CA
330
550F9
100
AcDbEntity
  8
2
100
AcDbLine
 10
142.55
 20
49.79075440020825
 30
0.0
 11
3.500000000000001
 21
49.79075440020825
 31
0.0
  0
SOLID
  5
552CB
330
550F9
100
AcDbEntity
  8
2
100
AcDbTrace
 10
142.55
 20
50.37408773354157
 30
0.0
 11
142.55
 21
49.20742106687491
 31
0.0
 12
146.05
 22
49.79075440020825
 32
0.0
 13
146.05
 23
49.79075440020825
 33
0.0
  0
SOLID
  5
552CC
330
550F9
100
AcDbEntity
  8
2
100
AcDbTrace
 10
3.500000000000001
 20
50.37408773354157
 30
0.0
 11
3.500000000000001
 21
49.20742106687491
 31
0.0
 12
0.0000000000000021
 22
49.79075440020825
 32
0.0
 13
0.0000000000000021
 23
49.79075440020825
 33
0.0
  0
MTEXT
  5
552CD
330
550F9
100
AcDbEntity
  8
2
100
AcDbMText
 10
74.77084497553676
 20
53.84075440020825
 30
0.0
 40
3.5
 41
0.0
 71
     5
 72
     1
  1
\A1;146.05 [5.750"]
  7
simplex
 73
     1
 44
0.892857
1001
ACAD
1000
MTEXTBEGIN
1070
    73
1070
     1
1070
    44
1040
0.892857
1070
    74
1070
     0
1000
MTEXTEND
  0
POINT
  5
552CE
330
550F9
100
AcDbEntity
  8
Defpoints
 62
     0
100
AcDbPoint
 10
146.05
 20
0.0000005000001693
 30
0.0
  0
POINT
  5
552CF
330
550F9
100
AcDbEntity
  8
Defpoints
 62
     0
100
AcDbPoint
 10
0.0
 20
15.87501550000002
 30
0.0
  0
POINT
  5
552D0
330
550F9
100
AcDbEntity
  8
Defpoints
 62
     0
100
AcDbPoint
 10
0.0000000000000021
 20
49.79075440020825
 30
0.0
  0
ENDBLK
  5
55104
330
550F9
100
AcDbEntity
  8
0
100
AcDbBlockEnd
  0
BLOCK
  5
56825
330
5681B
100
AcDbEntity
  8
0
100
AcDbBlockBegin
  2
*D116
 70
     1
 10
0.0
 20
0.0
 30
0.0
  3
*D116
  1

  0
LINE
  5
56930
330
5681B
100
AcDbEntity
  8
sk2
100
AcDbLine
 10
-98.42500000000001
 20
14.17499950000001
 30
0.0
 11
-98.42500000000001
 21
66.946643845597
 31
0.0
  0
LINE
  5
56931
330
5681B
100
AcDbEntity
  8
sk2
100
AcDbLine
 10
146.0499999999999
 20
9.511419259498808
 30
0.0
 11
146.0499999999999
 21
66.946643845597
 31
0.0
  0
LINE
  5
56932
330
5681B
100
AcDbEntity
  8
sk2
100
AcDbLine
 10
-94.92500000000001
 20
65.44664384559701
 30
0.0
 11
142.5499999999999
 21
65.44664384559701
 31
0.0
  0
SOLID
  5
56933
330
5681B
100
AcDbEntity
  8
sk2
100
AcDbTrace
 10
-94.92500000000001
 20
66.02997717893034
 30
0.0
 11
-94.92500000000001
 21
64.86331051226368
 31
0.0
 12
-98.42500000000001
 22
65.44664384559701
 32
0.0
 13
-98.42500000000001
 23
65.44664384559701
 33
0.0
  0
SOLID
  5
56934
330
5681B
100
AcDbEntity
  8
sk2
100
AcDbTrace
 10
142.5499999999999
 20
66.02997717893034
 30
0.0
 11
142.5499999999999
 21
64.86331051226368
 31
0.0
 12
146.0499999999999
 22
65.44664384559701
 32
0.0
 13
146.0499999999999
 23
65.44664384559701
 33
0.0
  0
MTEXT
  5
56935
330
5681B
100
AcDbEntity
  8
sk2
100
AcDbMText
 10
12.83096311160682
 20
69.496643845597
 30
0.0
 40
3.5
 41
0.0
 71
     5
 72
     1
  1
\A1;244.475 [9.625"]
  7
simplex
 73
     1
 44
0.892857
1001
ACAD
1000
MTEXTBEGIN
1070
    73
1070
     1
1070
    44
1040
0.892857
1070
    74
1070
     0
1000
MTEXTEND
  0
POINT
  5
56936
330
5681B
100
AcDbEntity
  8
Defpoints
 62
     0
100
AcDbPoint
 10
-98.42500000000001
 20
14.17499950000001
 30
0.0
  0
POINT
  5
56937
330
5681B
100
AcDbEntity
  8
Defpoints
 62
     0
100
AcDbPoint
 10
146.0499999999999
 20
9.511419259498808
 30
0.0
  0
POINT
  5
56938
330
5681B
100
AcDbEntity
  8
Defpoints
 62
     0
100
AcDbPoint
 10
146.0499999999999
 20
65.44664384559701
 30
0.0
  0
ENDBLK
  5
56826
330
5681B
100
AcDbEntity
  8
0
100
AcDbBlockEnd
  0
BLOCK
  5
56831
330
56827
100
AcDbEntity
  8
0
100
AcDbBlockBegin
  2
*D117
 70
     1
 10
0.0
 20
0.0
 30
0.0
  3
*D117
  1

  0
LINE
  5
56939
330
56827
100
AcDbEntity
  8
2
100
AcDbLine
 10
146.0499999999999
 20
9.511419383807833
 30
0.0
 11
146.0499999999999
 21
51.29075440020824
 31
0.0
  0
LINE
  5
5693A
330
56827
100
AcDbEntity
  8
2
100
AcDbLine
 10
0.0
 20
15.87501550000002
 30
0.0
 11
0.0000000000000022
 21
51.29075440020824
 31
0.0
  0
LINE
  5
5693B
330
56827
100
AcDbEntity
  8
2
100
AcDbLine
 10
142.5499999999999
 20
49.79075440020825
 30
0.0
 11
3.500000000000002
 21
49.79075440020825
 31
0.0
  0
SOLID
  5
5693C
330
56827
100
AcDbEntity
  8
2
100
AcDbTrace
 10
142.5499999999999
 20
50.37408773354158
 30
0.0
 11
142.5499999999999
 21
49.20742106687491
 31
0.0
 12
146.0499999999999
 22
49.79075440020825
 32
0.0
 13
146.0499999999999
 23
49.79075440020825
 33
0.0
  0
SOLID
  5
5693D
330
56827
100
AcDbEntity
  8
2
100
AcDbTrace
 10
3.500000000000002
 20
50.37408773354158
 30
0.0
 11
3.500000000000002
 21
49.20742106687491
 31
0.0
 12
0.0000000000000021
 22
49.79075440020825
 32
0.0
 13
0.0000000000000021
 23
49.79075440020825
 33
0.0
  0
MTEXT
  5
5693E
330
56827
100
AcDbEntity
  8
2
100
AcDbMText
 10
74.77084497553676
 20
53.84075440020824
 30
0.0
 40
3.5
 41
0.0
 71
     5
 72
     1
  1
\A1;146.05 [5.750"]
  7
simplex
 73
     1
 44
0.892857
1001
ACAD
1000
MTEXTBEGIN
1070
    73
1070
     1
1070
    44
1040
0.892857
1070
    74
1070
     0
1000
MTEXTEND
  0
POINT
  5
5693F
330
56827
100
AcDbEntity
  8
Defpoints
 62
     0
100
AcDbPoint
 10
146.0499999999999
 20
9.511419383807833
 30
0.0
  0
POINT
  5
56940
330
56827
100
AcDbEntity
  8
Defpoints
 62
     0
100
AcDbPoint
 10
0.0
 20
15.87501550000002
 30
0.0
  0
POINT
  5
56941
330
56827
100
AcDbEntity
  8
Defpoints
 62
     0
100
AcDbPoint
 10
0.0000000000000021
 20
49.79075440020825
 30
0.0
  0
ENDBLK
  5
56832
330
56827
100
AcDbEntity
  8
0
100
AcDbBlockEnd
  0
BLOCK
  5
5683E
330
56833
100
AcDbEntity
  8
0
100
AcDbBlockBegin
  2
*D118
 70
     1
 10
0.0
 20
0.0
 30
0.0
  3
*D118
  1

  0
LINE
  5
56942
330
56833
100
AcDbEntity
  8
2
100
AcDbLine
 10
116.0500140000001
 20
-12.24999950000006
 30
0.0
 11
81.84697874310097
 21
-12.24999950000005
 31
0.0
  0
LINE
  5
56943
330
56833
100
AcDbEntity
  8
2
100
AcDbLine
 10
116.0500140000001
 20
12.25000049999994
 30
0.0
 11
81.84697874310097
 21
12.25000049999995
 31
0.0
  0
LINE
  5
56944
330
56833
100
AcDbEntity
  8
2
100
AcDbLine
 10
83.34697874310098
 20
8.750000499999952
 30
0.0
 11
83.34697874310098
 21
-8.749999500000047
 31
0.0
  0
LINE
  5
56945
330
56833
100
AcDbEntity
  8
2
100
AcDbLine
 10
83.34697874310098
 20
-12.24999950000005
 30
0.0
 11
83.34697874310096
 21
-60.01666616666676
 31
0.0
  0
SOLID
  5
56946
330
56833
100
AcDbEntity
  8
2
100
AcDbTrace
 10
82.76364540976764
 20
8.750000499999952
 30
0.0
 11
83.9303120764343
 21
8.750000499999952
 31
0.0
 12
83.34697874310098
 22
12.25000049999995
 32
0.0
 13
83.34697874310098
 23
12.25000049999995
 33
0.0
  0
SOLID
  5
56947
330
56833
100
AcDbEntity
  8
2
100
AcDbTrace
 10
82.76364540976764
 20
-8.749999500000047
 30
0.0
 11
83.9303120764343
 21
-8.749999500000047
 31
0.0
 12
83.34697874310098
 22
-12.24999950000005
 32
0.0
 13
83.34697874310098
 23
-12.24999950000005
 33
0.0
  0
MTEXT
  5
56948
330
56833
100
AcDbEntity
  8
2
100
AcDbMText
 10
79.29697874310098
 20
-37.88333283333341
 30
0.0
 40
3.5
 41
0.0
 71
     5
 72
     1
  1
\A1;%%c24.5 [%%C.965"]
  7
simplex
 11
0.0000000000000001
 21
1.0
 31
0.0
 73
     1
 44
1.0
1001
ACAD
1000
MTEXTBEGIN
1070
    73
1070
     1
1070
    44
1040
1.0
1070
    74
1070
     0
1000
MTEXTEND
  0
POINT
  5
56949
330
56833
100
AcDbEntity
  8
Defpoints
 62
     0
100
AcDbPoint
 10
116.0500140000001
 20
-12.24999950000006
 30
0.0
  0
POINT
  5
5694A
330
56833
100
AcDbEntity
  8
Defpoints
 62
     0
100
AcDbPoint
 10
116.0500140000001
 20
12.25000049999994
 30
0.0
  0
POINT
  5
5694B
330
56833
100
AcDbEntity
  8
Defpoints
 62
     0
100
AcDbPoint
 10
83.34697874310098
 20
12.25000049999995
 30
0.0
  0
ENDBLK
  5
5683F
330
56833
100
AcDbEntity
  8
0
100
AcDbBlockEnd
  0
BLOCK
  5
56852
330
5684A
100
AcDbEntity
  8
0
100
AcDbBlockBegin
  2
*D120
 70
     1
 10
0.0
 20
0.0
 30
0.0
  3
*D120
  1

  0
LINE
  5
56956
330
5684A
100
AcDbEntity
  8
2
100
AcDbLine
 10
143.0500000000001
 20
12.49999999889988
 30
0.0
 11
166.6092836183016
 21
12.49999999889987
 31
0.0
  0
LINE
  5
56957
330
5684A
100
AcDbEntity
  8
2
100
AcDbLine
 10
165.1092836183017
 20
-12.50000000000001
 30
0.0
 11
165.1092836183017
 21
8.999999998899873
 31
0.0
  0
SOLID
  5
56958
330
5684A
100
AcDbEntity
  8
2
100
AcDbTrace
 10
164.5259502849683
 20
8.999999998899873
 30
0.0
 11
165.692616951635
 21
8.999999998899873
 31
0.0
 12
165.1092836183017
 22
12.49999999889987
 32
0.0
 13
165.1092836183017
 23
12.49999999889987
 33
0.0
  0
MTEXT
  5
56959
330
5684A
100
AcDbEntity
  8
2
100
AcDbMText
 10
161.0592836183016
 20
-7.579389114783481
 30
0.0
 40
3.5
 41
0.0
 71
     5
 72
     1
  1
\A1;%%c25 [%%c.984"]
  7
simplex
 11
0.0000000000000001
 21
1.0
 31
0.0
 73
     1
 44
1.0
1001
ACAD
1000
MTEXTBEGIN
1070
    73
1070
     1
1070
    44
1040
1.0
1070
    74
1070
     0
1000
MTEXTEND
  0
POINT
  5
5695A
330
5684A
100
AcDbEntity
  8
Defpoints
 62
     0
100
AcDbPoint
 10
133.4186158523263
 20
-12.5
 30
0.0
  0
POINT
  5
5695B
330
5684A
100
AcDbEntity
  8
Defpoints
 62
     0
100
AcDbPoint
 10
143.0500000000001
 20
12.49999999889988
 30
0.0
  0
POINT
  5
5695C
330
5684A
100
AcDbEntity
  8
Defpoints
 62
     0
100
AcDbPoint
 10
165.1092836183017
 20
12.49999999889987
 30
0.0
  0
ENDBLK
  5
56853
330
5684A
100
AcDbEntity
  8
0
100
AcDbBlockEnd
  0
BLOCK
  5
5687C
330
56872
100
AcDbEntity
  8
0
100
AcDbBlockBegin
  2
*D124
 70
     1
 10
0.0
 20
0.0
 30
0.0
  3
*D124
  1

  0
LINE
  5
56927
330
56872
100
AcDbEntity
  8
2
100
AcDbLine
 10
116.0499940000001
 20
12.2500115278672
 30
0.0
 11
116.0499940000001
 21
36.13829084411441
 31
0.0
  0
LINE
  5
56928
330
56872
100
AcDbEntity
  8
2
100
AcDbLine
 10
146.049994
 20
9.511419259498808
 30
0.0
 11
146.049994
 21
36.13829084411441
 31
0.0
  0
LINE
  5
56929
330
56872
100
AcDbEntity
  8
2
100
AcDbLine
 10
119.5499940000001
 20
34.63829084411441
 30
0.0
 11
142.5499939999999
 21
34.63829084411441
 31
0.0
  0
SOLID
  5
5692A
330
56872
100
AcDbEntity
  8
2
100
AcDbTrace
 10
119.5499940000001
 20
35.22162417744775
 30
0.0
 11
119.5499940000001
 21
34.05495751078107
 31
0.0
 12
116.0499940000001
 22
34.63829084411441
 32
0.0
 13
116.0499940000001
 23
34.63829084411441
 33
0.0
  0
SOLID
  5
5692B
330
56872
100
AcDbEntity
  8
2
100
AcDbTrace
 10
142.5499939999999
 20
35.22162417744775
 30
0.0
 11
142.5499939999999
 21
34.05495751078107
 31
0.0
 12
146.049994
 22
34.63829084411441
 32
0.0
 13
146.049994
 23
34.63829084411441
 33
0.0
  0
MTEXT
  5
5692C
330
56872
100
AcDbEntity
  8
2
100
AcDbMText
 10
131.049994
 20
38.68829084411441
 30
0.0
 40
3.5
 41
0.0
 71
     5
 72
     1
  1
\A1;30 [1.181"]
  7
simplex
 73
     1
 44
1.0
1001
ACAD
1000
MTEXTBEGIN
1070
    73
1070
     1
1070
    44
1040
1.0
1070
    74
1070
     0
1000
MTEXTEND
  0
POINT
  5
5692D
330
56872
100
AcDbEntity
  8
Defpoints
 62
     0
100
AcDbPoint
 10
116.0499940000001
 20
12.2500115278672
 30
0.0
  0
POINT
  5
5692E
330
56872
100
AcDbEntity
  8
Defpoints
 62
     0
100
AcDbPoint
 10
146.049994
 20
9.511419259498808
 30
0.0
  0
POINT
  5
5692F
330
56872
100
AcDbEntity
  8
Defpoints
 62
     0
100
AcDbPoint
 10
146.049994
 20
34.63829084411441
 30
0.0
  0
ENDBLK
  5
5687D
330
56872
100
AcDbEntity
  8
0
100
AcDbBlockEnd
  0
BLOCK
  5
568A5
330
5689A
100
AcDbEntity
  8
0
100
AcDbBlockBegin
  2
*D125
 70
     1
 10
0.0
 20
0.0
 30
0.0
  3
*D125
  1

  0
LINE
  5
5694C
330
5689A
100
AcDbEntity
  8
sk2
100
AcDbLine
 10
-93.42500000000001
 20
-15.87501550000002
 30
0.0
 11
-125.7520312063884
 21
-15.87501550000001
 31
0.0
  0
LINE
  5
5694D
330
5689A
100
AcDbEntity
  8
sk2
100
AcDbLine
 10
-93.42500000000001
 20
15.87498449999998
 30
0.0
 11
-125.7520312063884
 21
15.87498449999999
 31
0.0
  0
LINE
  5
5694E
330
5689A
100
AcDbEntity
  8
sk2
100
AcDbLine
 10
-124.2520312063884
 20
12.37498449999999
 30
0.0
 11
-124.2520312063884
 21
-12.37501550000001
 31
0.0
  0
LINE
  5
5694F
330
5689A
100
AcDbEntity
  8
sk2
100
AcDbLine
 10
-124.2520312063884
 20
-15.87501550000001
 30
0.0
 11
-124.2520312063884
 21
-73.35898760052365
 31
0.0
  0
SOLID
  5
56950
330
5689A
100
AcDbEntity
  8
sk2
100
AcDbTrace
 10
-124.8353645397217
 20
12.37498449999999
 30
0.0
 11
-123.668697873055
 21
12.37498449999999
 31
0.0
 12
-124.2520312063884
 22
15.87498449999999
 32
0.0
 13
-124.2520312063884
 23
15.87498449999999
 33
0.0
  0
SOLID
  5
56951
330
5689A
100
AcDbEntity
  8
sk2
100
AcDbTrace
 10
-124.8353645397217
 20
-12.37501550000001
 30
0.0
 11
-123.668697873055
 21
-12.37501550000001
 31
0.0
 12
-124.2520312063884
 22
-15.87501550000001
 32
0.0
 13
-124.2520312063884
 23
-15.87501550000001
 33
0.0
  0
MTEXT
  5
56952
330
5689A
100
AcDbEntity
  8
sk2
100
AcDbMText
 10
-128.3020312063884
 20
-49.18398760052366
 30
0.0
 40
3.5
 41
0.0
 71
     5
 72
     1
  1
\A1;%%c31.75 [%%C1.250"]
  7
simplex
 11
0.0000000000000001
 21
1.0
 31
0.0
 73
     1
 44
1.0
1001
ACAD
1000
MTEXTBEGIN
1070
    73
1070
     1
1070
    44
1040
1.0
1070
    74
1070
     0
1000
MTEXTEND
  0
POINT
  5
56953
330
5689A
100
AcDbEntity
  8
Defpoints
 62
     0
100
AcDbPoint
 10
-93.42500000000001
 20
-15.87501550000002
 30
0.0
  0
POINT
  5
56954
330
5689A
100
AcDbEntity
  8
Defpoints
 62
     0
100
AcDbPoint
 10
-93.42500000000001
 20
15.87498449999998
 30
0.0
  0
POINT
  5
56955
330
5689A
100
AcDbEntity
  8
Defpoints
 62
     0
100
AcDbPoint
 10
-124.2520312063884
 20
15.87498449999999
 30
0.0
  0
ENDBLK
  5
568A6
330
5689A
100
AcDbEntity
  8
0
100
AcDbBlockEnd
  0
BLOCK
  5
568C7
330
568BF
100
AcDbEntity
  8
0
100
AcDbBlockBegin
  2
*D127
 70
     1
 10
0.0
 20
0.0
 30
0.0
  3
*D127
  1

  0
LINE
  5
56964
330
568BF
100
AcDbEntity
  8
2
100
AcDbLine
 10
180.392119499525
 20
34.57314916570328
 30
0.0
 11
148.8053007524548
 21
13.71900373991966
 31
0.0
  0
MTEXT
  5
56965
330
568BF
100
AcDbEntity
  8
2
100
AcDbMText
 10
163.8277099630559
 20
28.49010209140475
 30
0.0
 40
3.5
 41
0.0
 71
     5
 72
     1
  1
\A1;R1 [R.039"]
  7
simplex
 11
0.8345262548763605
 21
0.5509681750537283
 31
0.0
 73
     1
 44
1.0
1001
ACAD
1000
MTEXTBEGIN
1070
    73
1070
     1
1070
    44
1040
1.0
1070
    74
1070
     0
1000
MTEXTEND
  0
SOLID
  5
56966
330
568BF
100
AcDbEntity
  8
2
100
AcDbTrace
 10
148.4839026503401
 20
14.20581072193086
 30
0.0
 11
149.1266988545694
 21
13.23219675790845
 31
0.0
 12
145.8844588603875
 22
11.79061512723161
 32
0.0
 13
145.8844588603875
 23
11.79061512723161
 33
0.0
  0
LINE
  5
56967
330
568BF
100
AcDbEntity
  8
2
100
AcDbLine
 10
144.9599326055109
 20
11.23964695217772
 30
0.0
 11
145.1399326055109
 21
11.2396469521777
 31
0.0
  0
LINE
  5
56968
330
568BF
100
AcDbEntity
  8
2
100
AcDbLine
 10
145.0499326055109
 20
11.14964695217771
 30
0.0
 11
145.0499326055109
 21
11.32964695217771
 31
0.0
  0
POINT
  5
56969
330
568BF
100
AcDbEntity
  8
Defpoints
 62
     0
100
AcDbPoint
 10
145.8844588603875
 20
11.79061512723161
 30
0.0
  0
POINT
  5
5696A
330
568BF
100
AcDbEntity
  8
Defpoints
 62
     0
100
AcDbPoint
 10
145.0499326055109
 20
11.23964695217771
 30
0.0
  0
ENDBLK
  5
568C8
330
568BF
100
AcDbEntity
  8
0
100
AcDbBlockEnd
  0
ENDSEC
  0
SECTION
  2
ENTITIES
  0
INSERT
  5
68C
330
1F
100
AcDbEntity
  8
0
100
AcDbBlockReference
  2
zero block
 10
0.0
 20
0.0
 30
0.0
  0
MTEXT
  5
53DFB
330
1F
100
AcDbEntity
  8
sk6
100
AcDbMText
 10
-88.34009873463058
 20
91.33923152733039
 30
0.0
 40
5.0
 41
70.03712541027798
 71
     1
 72
     5
  1
SRFU16S20L\PSUFT25R10
  7
simplex
 73
     1
 44
1.0
1001
ACAD
1000
ACAD_MTEXT_COLUMN_INFO_BEGIN
1070
    75
1070
     2
1070
    79
1070
     0
1070
    76
1070
     1
1070
    78
1070
     0
1070
    48
1040
59.04341590052445
1070
    49
1040
17.5
1070
    50
1070
     1
1040
0.0
1000
ACAD_MTEXT_COLUMN_INFO_END
1000
ACAD_MTEXT_DEFINED_HEIGHT_BEGIN
1070
    46
1040
0.0
1000
ACAD_MTEXT_DEFINED_HEIGHT_END
1000
MTEXTBEGIN
1070
    73
1070
     1
1070
    44
1040
1.0
1070
    74
1070
     0
1000
MTEXTEND
  0
SPLINE
  5
5664F
330
1F
100
AcDbEntity
  8
1
100
AcDbSpline
210
0.0
220
0.0
230
1.0
 70
     8
 71
     3
 72
    10
 73
     6
 74
     4
 42
0.0000000001
 43
0.0000000001
 44
0.000001
 12
0.9939981913532239
 22
-0.1093965062811404
 32
0.0
 13
0.9846601879733476
 23
-0.1744829912062825
 33
0.0
 40
0.0
 40
0.0
 40
0.0
 40
0.0
 40
0.2729697609933898
 40
0.5696278389164875
 40
0.8867687606914943
 40
0.8867687606914943
 40
0.8867687606914943
 40
0.8867687606914943
 10
122.6540561572267
 20
11.29786302896727
 30
0.0
 10
122.7444999734672
 20
11.28790904957625
 30
0.0
 10
122.9330134167974
 20
11.26499379057463
 30
0.0
 10
123.2253964312982
 20
11.22141784171032
 30
0.0
 10
123.4272377035805
 20
11.18785977486095
 30
0.0
 10
123.5313297167969
 20
11.1694145426392
 30
0.0
 11
122.6540561572267
 21
11.29786302896727
 31
0.0
 11
122.925014104004
 21
11.26478197427977
 31
0.0
 11
123.2185169116212
 21
11.22163011881102
 31
0.0
 11
123.5313297167969
 21
11.1694145426392
 31
0.0
  0
SPLINE
  5
56650
330
1F
100
AcDbEntity
  8
1
100
AcDbSpline
210
0.0
220
0.0
230
1.0
 70
     8
 71
     3
 72
    56
 73
    52
 74
    50
 42
0.0000000001
 43
0.0000000001
 44
0.000001
 12
-0.9999999973384662
 22
-0.0000729593564862
 32
0.0
 13
0.9999999688642722
 23
-0.0002495424907634
 33
0.0
 40
0.0
 40
0.0
 40
0.0
 40
0.0
 40
0.3454426790744767
 40
0.6888896339248645
 40
1.033155236005416
 40
1.287867330899129
 40
1.548111536117446
 40
1.800358867127944
 40
2.060957197459898
 40
2.393530606407205
 40
2.734671295356919
 40
3.074454177494012
 40
3.407139508863267
 40
3.736957054307858
 40
4.081619005168104
 40
4.420707103818472
 40
4.756233735105806
 40
5.091598916829668
 40
5.434016585142057
 40
5.769121316671249
 40
6.102741471089015
 40
6.615314631995175
 40
7.131163564364368
 40
7.644478160687501
 40
8.160279889619481
 40
8.680738616401097
 40
9.196026435569169
 40
9.536635767940749
 40
9.878551174166958
 40
10.22461154121127
 40
10.60145228066303
 40
10.97676858055223
 40
11.35889573095377
 40
11.50918079326281
 40
11.65604052546486
 40
11.80406806210343
 40
11.95290699754596
 40
12.09417303029821
 40
12.25060695890116
 40
12.54280924015622
 40
12.82845866301485
 40
13.11574013593817
 40
13.40469365475332
 40
13.69337892231559
 40
13.98638816610835
 40
14.26925018304894
 40
14.61197023292296
 40
14.95259428508406
 40
15.29467796946481
 40
15.81250869270004
 40
16.33267399543921
 40
16.33267399543921
 40
16.33267399543921
 40
16.33267399543921
 10
133.4000202075195
 20
5.199993155920395
 30
0.0
 10
133.2848726481345
 20
5.199984754828534
 30
0.0
 10
133.0551694631281
 20
5.192354671476437
 30
0.0
 10
132.7122499781482
 20
5.158161531818876
 30
0.0
 10
132.4021671852839
 20
5.106319775394808
 30
0.0
 10
132.1227672423675
 20
5.042874734809515
 30
0.0
 10
131.8763762963008
 20
4.973970625738957
 30
0.0
 10
131.6318353100162
 20
4.892368038559425
 30
0.0
 10
131.3691162636341
 20
4.790106439179567
 30
0.0
 10
131.0856294575644
 20
4.66062519393472
 30
0.0
 10
130.7878301652356
 20
4.50059515146728
 30
0.0
 10
130.5011466655978
 20
4.321343078223435
 30
0.0
 10
130.2296647911244
 20
4.126229064739931
 30
0.0
 10
129.9699592510246
 20
3.913126631000238
 30
0.0
 10
129.7230045334984
 20
3.682197891676139
 30
0.0
 10
129.4904561317798
 20
3.434163193337582
 30
0.0
 10
129.2764858596738
 20
3.173943536965822
 30
0.0
 10
129.0790642342171
 20
2.899588723458009
 30
0.0
 10
128.8999977027006
 20
2.613068362684998
 30
0.0
 10
128.740253461694
 20
2.316010239643617
 30
0.0
 10
128.5763203094293
 20
1.957722436235826
 30
0.0
 10
128.421361734273
 20
1.530139293011615
 30
0.0
 10
128.2946267689426
 20
1.031240522255075
 30
0.0
 10
128.217661959678
 20
0.5211870895315656
 30
0.0
 10
128.1913954713926
 20
0.0044791831640509
 30
0.0
 10
128.2167180698617
 20
-0.5129388860772224
 30
0.0
 10
128.2847471891674
 20
-0.9674578515777056
 30
0.0
 10
128.3761648424944
 20
-1.356387981550881
 30
0.0
 10
128.4764102834048
 20
-1.684533859169562
 30
0.0
 10
128.6024404623022
 20
-2.016617406393891
 30
0.0
 10
128.7558923960271
 20
-2.349337520633099
 30
0.0
 10
128.9388295576773
 20
-2.680589694792502
 30
0.0
 10
129.1041188847783
 20
-2.934393418252284
 30
0.0
 10
129.2372962901615
 20
-3.117537970531202
 30
0.0
 10
129.3279569633019
 20
-3.23503987183227
 30
0.0
 10
129.4215991004921
 20
-3.349555705149242
 30
0.0
 10
129.5172392211429
 20
-3.459954170403193
 30
0.0
 10
129.617851853839
 20
-3.569671516559964
 30
0.0
 10
129.7548250872521
 20
-3.710785616800507
 30
0.0
 10
129.9328395665805
 20
-3.878975655975438
 30
0.0
 10
130.1532165144467
 20
-4.065193718021589
 30
0.0
 10
130.3826777180175
 20
-4.238312952974467
 30
0.0
 10
130.6221890397812
 20
-4.399064749990657
 30
0.0
 10
130.8719388240748
 20
-4.547173621370831
 30
0.0
 10
131.1277396816604
 20
-4.680238281566204
 30
0.0
 10
131.4069535995141
 20
-4.806274559618941
 30
0.0
 10
131.7081404667071
 20
-4.921029996849085
 30
0.0
 10
132.0350954285377
 20
-5.021544949869593
 30
0.0
 10
132.4247581842298
 20
-5.113854867596103
 30
0.0
 10
132.8803847588485
 20
-5.182713966739356
 30
0.0
 10
133.2266241492773
 20
-5.199957472782188
 30
0.0
 10
133.4000125781251
 20
-5.20000074056395
 30
0.0
 11
133.4000202075195
 21
5.199993155920395
 31
0.0
 11
133.054767216797
 21
5.188518546545395
 31
0.0
 11
132.7130161181642
 21
5.15443041177977
 31
0.0
 11
132.3734622851564
 21
5.09766771646727
 31
0.0
 11
132.1250720874024
 21
5.04127123209227
 31
0.0
 11
131.8744464770509
 21
4.971172355139202
 31
0.0
 11
131.6351657763673
 21
4.891338370764145
 31
0.0
 11
131.3923221484376
 21
4.796794913732838
 31
0.0
 11
131.0898013964845
 21
4.65864183756102
 31
0.0
 11
130.7893100634766
 21
4.497142814123577
 31
0.0
 11
130.5011936083984
 21
4.31702806802977
 31
0.0
 11
130.2310596362305
 21
4.122844718420395
 31
0.0
 11
129.9760776416017
 21
3.913646720373577
 31
0.0
 11
129.7243381396484
 21
3.67823412271727
 31
0.0
 11
129.4924198046876
 21
3.43085863443602
 31
0.0
 11
129.2793079272462
 21
3.17170336099852
 31
0.0
 11
129.0834308520509
 21
2.899486564123577
 31
0.0
 11
128.9019580737306
 21
2.609111808264145
 31
0.0
 11
128.743243779297
 21
2.31397631021727
 31
0.0
 11
128.6044422045899
 21
2.010601066076645
 31
0.0
 11
128.4297977343751
 21
1.52869798990477
 31
0.0
 11
128.3027912036134
 21
1.028728507482838
 31
0.0
 11
128.2261997119142
 21
0.5211601481078958
 31
0.0
 11
128.2000156298829
 21
0.0060234293579242
 31
0.0
 11
128.2254596606445
 21
-0.5138129964233542
 31
0.0
 11
128.301723088379
 21
-1.0234260335327
 31
0.0
 11
128.3796573535157
 21
-1.354999519860768
 31
0.0
 11
128.4795566455079
 21
-1.6819953694702
 31
0.0
 11
128.6023364916993
 21
-2.00554273275145
 31
0.0
 11
128.7601734057618
 21
-2.347736336267132
 31
0.0
 11
128.9416004077148
 21
-2.676288582360768
 31
0.0
 11
129.1501651660157
 21
-2.996479012048268
 31
0.0
 11
129.2385440722657
 21
-3.1180305257202
 31
0.0
 11
129.3282581225586
 21
-3.234302498376393
 31
0.0
 11
129.4219623461915
 21
-3.348896004235825
 31
0.0
 11
129.5194278613282
 21
-3.461383797204575
 31
0.0
 11
129.6148944750977
 21
-3.565509773767132
 31
0.0
 11
129.723857487793
 21
-3.677753426110768
 31
0.0
 11
129.936244572754
 21
-3.878437019860768
 31
0.0
 11
130.1544376269532
 21
-4.06279370931395
 31
0.0
 11
130.3837619677734
 21
-4.2358283772827
 31
0.0
 11
130.6236987963868
 21
-4.3968391194702
 31
0.0
 11
130.8719898120118
 21
-4.54411695150145
 31
0.0
 11
131.1319461718751
 21
-4.6793098225952
 31
0.0
 11
131.3897510424806
 21
-4.79570386556395
 31
0.0
 11
131.7100177661134
 21
-4.9177131429077
 31
0.0
 11
132.0356021777344
 21
-5.0178107991577
 31
0.0
 11
132.3684726611329
 21
-5.0966682210327
 31
0.0
 11
132.8804965869142
 21
-5.17399976400145
 31
0.0
 11
133.4000125781251
 21
-5.20000074056395
 31
0.0
  0
SPLINE
  5
56651
330
1F
100
AcDbEntity
  8
1
100
AcDbSpline
210
0.0
220
0.0
230
1.0
 70
     8
 71
     3
 72
     9
 73
     5
 74
     3
 42
0.0000000001
 43
0.0000000001
 44
0.000001
 12
0.9603132869219136
 22
-0.278923629262977
 32
0.0
 13
0.9442995354099645
 23
-0.3290872033740075
 33
0.0
 40
0.0
 40
0.0
 40
0.0
 40
0.0
 40
0.7348450070664981
 40
1.479601022990584
 40
1.479601022990584
 40
1.479601022990584
 40
1.479601022990584
 10
132.1406131640626
 20
8.977520011389202
 30
0.0
 10
132.375840305434
 20
8.90919813261695
 30
0.0
 10
132.8476894943837
 20
8.765437734237877
 30
0.0
 10
133.315589850727
 20
8.609295915251067
 30
0.0
 10
133.550014104004
 20
8.52759935709227
 30
0.0
 11
132.1406131640626
 21
8.977520011389202
 31
0.0
 11
132.8435550585939
 21
8.763347648107895
 31
0.0
 11
133.550014104004
 21
8.52759935709227
 31
0.0
  0
SPLINE
  5
56652
330
1F
100
AcDbEntity
  8
1
100
AcDbSpline
210
0.0
220
0.0
230
1.0
 70
     8
 71
     3
 72
    18
 73
    14
 74
    12
 42
0.0000000001
 43
0.0000000001
 44
0.000001
 12
0.9775947559519689
 22
-0.210495826883124
 32
0.0
 13
0.9602144660513591
 23
-0.2792636374211717
 33
0.0
 40
0.0
 40
0.0
 40
0.0
 40
0.0
 40
0.5333439082108037
 40
1.107779624537654
 40
1.723354797019663
 40
2.308162769073129
 40
2.916598674837209
 40
3.560113329748841
 40
4.183693023625604
 40
5.057589400325915
 40
5.956706750495189
 40
6.843108628109401
 40
7.765135339238881
 40
7.765135339238881
 40
7.765135339238881
 40
7.765135339238881
 10
124.632304753418
 20
10.95243456217039
 30
0.0
 10
124.8061028226799
 20
10.91501233984641
 30
0.0
 10
125.1667143445174
 20
10.83552468000317
 30
0.0
 10
125.726286470838
 20
10.70558305945823
 30
0.0
 10
126.3013726770561
 20
10.56672505531793
 30
0.0
 10
126.8863937534981
 20
10.4208072108583
 30
0.0
 10
127.4795080781823
 20
10.26890773907601
 30
0.0
 10
128.0842274505532
 20
10.1102748888926
 30
0.0
 10
128.7736455067451
 20
9.92582479813052
 30
0.0
 10
129.5442546851556
 20
9.715222706323686
 30
0.0
 10
130.3981417716061
 20
9.477071881053859
 30
0.0
 10
131.2663012829646
 20
9.230418733005365
 30
0.0
 10
131.8454987020252
 20
9.06334952243904
 30
0.0
 10
132.1406131640626
 20
8.977520011389202
 30
0.0
 11
124.632304753418
 21
10.95243456217039
 31
0.0
 11
125.1531253710937
 21
10.83753588052977
 31
0.0
 11
125.7127414599609
 21
10.70789720865477
 31
0.0
 11
126.3111530200195
 21
10.56354906412358
 31
0.0
 11
126.8786044970704
 21
10.42213060709227
 31
0.0
 11
127.4680362597657
 21
10.27125170084227
 31
0.0
 11
128.0905185595704
 21
10.10807421060789
 31
0.0
 11
128.6929202929689
 21
9.946941398107895
 31
0.0
 11
129.5359455004883
 21
9.716716788732895
 31
0.0
 11
130.4020267382814
 21
9.47523119302977
 31
0.0
 11
131.2547183886719
 21
9.23310472818602
 31
0.0
 11
132.1406131640626
 21
8.977520011389202
 31
0.0
  0
SPLINE
  5
56653
330
1F
100
AcDbEntity
  8
1
100
AcDbSpline
210
0.0
220
0.0
230
1.0
 70
     8
 71
     3
 72
    37
 73
    33
 74
    31
 42
0.0000000001
 43
0.0000000001
 44
0.000001
 12
0.9441111917890602
 22
-0.3296271492742075
 32
0.0
 13
0.4601198425223931
 23
-0.8878568187028628
 33
0.0
 40
0.0
 40
0.0
 40
0.0
 40
0.0
 40
0.8083824956880546
 40
1.644479507183126
 40
2.493266844780012
 40
3.363734089813611
 40
4.312698579940748
 40
5.270568765785228
 40
5.759274703376266
 40
6.246744268859055
 40
6.735870884293044
 40
7.222377311771939
 40
7.690001998303114
 40
8.153851389677383
 40
8.616568337460041
 40
9.074054180044278
 40
9.535893699124091
 40
9.990685472413694
 40
10.44111490690928
 40
10.88260187309943
 40
11.28568693886661
 40
11.67935634278466
 40
12.06564315798045
 40
12.4405419697564
 40
12.81236820244358
 40
13.17015040462175
 40
13.51600763302896
 40
13.84532011729099
 40
14.14943727039554
 40
14.43553863186613
 40
14.70526531249978
 40
14.95418097071378
 40
14.95418097071378
 40
14.95418097071378
 40
14.95418097071378
 10
133.550014104004
 20
8.52759935709227
 30
0.0
 10
133.8044150911458
 20
8.438777751233317
 30
0.0
 10
134.3183218383118
 20
8.247517860269624
 30
0.0
 10
135.0845378624053
 20
7.925010590396937
 30
0.0
 10
135.855509840833
 20
7.562305795406444
 30
0.0
 10
136.6440426317889
 20
7.150337661812045
 30
0.0
 10
137.4455911416509
 20
6.686519789810688
 30
0.0
 10
138.1184978742715
 20
6.256082566440312
 30
0.0
 10
138.6497216913781
 20
5.890742769015787
 30
0.0
 10
139.0459232842793
 20
5.605026833631939
 30
0.0
 10
139.435062906684
 20
5.310984295765251
 30
0.0
 10
139.8124426446554
 20
5.012544858386235
 30
0.0
 10
140.176756583957
 20
4.711353820047179
 30
0.0
 10
140.5286869308614
 20
4.407790210207309
 30
0.0
 10
140.8716478626272
 20
4.099158860446777
 30
0.0
 10
141.2076771101318
 20
3.783974852847478
 30
0.0
 10
141.5351783512057
 20
3.463703604688788
 30
0.0
 10
141.8542968891342
 20
3.138367880617209
 30
0.0
 10
142.161995281531
 20
2.81146732774215
 30
0.0
 10
142.4513519964303
 20
2.491099849165493
 30
0.0
 10
142.7219793245735
 20
2.179425202625765
 30
0.0
 10
142.9748573844142
 20
1.876802057415972
 30
0.0
 10
143.2161330650658
 20
1.576816874835344
 30
0.0
 10
143.4472989831421
 20
1.278129341572991
 30
0.0
 10
143.6670315751831
 20
0.982692477145548
 30
0.0
 10
143.8754308559024
 20
0.6909738862299833
 30
0.0
 10
144.0700347591398
 20
0.4068971253503833
 30
0.0
 10
144.2490639534735
 20
0.1339153714663723
 30
0.0
 10
144.411904297935
 20
-0.1257868896554442
 30
0.0
 10
144.5589702821421
 20
-0.3718584666450795
 30
0.0
 10
144.6914538174674
 20
-0.6051385562812186
 30
0.0
 10
144.7727967180951
 20
-0.7577117595830316
 30
0.0
 10
144.810973729248
 20
-0.8313789143921042
 30
0.0
 11
133.550014104004
 21
8.52759935709227
 31
0.0
 11
134.307597722168
 21
8.24555590006102
 31
0.0
 11
135.0783115283204
 21
7.921428702795395
 31
0.0
 11
135.8463779345704
 21
7.560161612951702
 31
0.0
 11
136.6179614916993
 21
7.157207511389202
 31
0.0
 11
137.4393802539064
 21
6.68201830240477
 31
0.0
 11
138.246333684082
 21
6.165935538732838
 31
0.0
 11
138.6490131274415
 21
5.889019034826645
 31
0.0
 11
139.044398869629
 21
5.60389330240477
 31
0.0
 11
139.4346576586915
 21
5.30903246256102
 31
0.0
 11
139.8162494555665
 21
5.007244132482838
 31
0.0
 11
140.1766696826173
 21
4.70930101724852
 31
0.0
 11
140.5278964892579
 21
4.406322501623577
 31
0.0
 11
140.8718601123048
 21
4.09681322427977
 31
0.0
 11
141.2055240527345
 21
3.78382494302977
 31
0.0
 11
141.5357166186524
 21
3.460918448889145
 31
0.0
 11
141.8541828051759
 21
3.13624193521727
 31
0.0
 11
142.1628909960938
 21
2.80823900552977
 31
0.0
 11
142.4588046923829
 21
2.48060228677977
 31
0.0
 11
142.7230564013673
 21
2.17621996256102
 31
0.0
 11
142.9754749194337
 21
1.874126456701702
 31
0.0
 11
143.217551793213
 21
1.573101066076645
 31
0.0
 11
143.4469676867677
 21
1.276592277014145
 31
0.0
 11
143.6688457385255
 21
0.9782219156860207
 31
0.0
 11
143.8767619982911
 21
0.6870537027953958
 31
0.0
 11
144.0721622363281
 21
0.4016838297485208
 31
0.0
 11
144.2526889697266
 21
0.1262626871703958
 31
0.0
 11
144.414142216797
 21
-0.1314582600952292
 31
0.0
 11
144.560828770752
 21
-0.3770942464233542
 31
0.0
 11
144.6937862292481
 21
-0.6117744222046042
 31
0.0
 11
144.810973729248
 21
-0.8313789143921042
 31
0.0
  0
SPLINE
  5
56654
330
1F
100
AcDbEntity
  8
1
100
AcDbSpline
210
0.0
220
0.0
230
1.0
 70
     8
 71
     3
 72
    64
 73
    60
 74
    58
 42
0.0000000001
 43
0.0000000001
 44
0.000001
 12
0.9999999976027297
 22
0.0000692426238353
 32
0.0
 13
-0.9999999719526073
 23
0.0002368433759521
 33
0.0
 40
0.0
 40
0.0
 40
0.0
 40
0.0
 40
0.3374190964438252
 40
0.6773914010439209
 40
1.019911651532953
 40
1.352142635755091
 40
1.693066038515864
 40
2.042667927938168
 40
2.310164618892707
 40
2.59120325127418
 40
2.885763865020355
 40
3.174760143389387
 40
3.284467825271852
 40
3.398621910127489
 40
3.517229077803911
 40
3.622135851970895
 40
3.721280166375263
 40
3.831251186482935
 40
3.952046973523767
 40
4.083636686280844
 40
4.275330389386175
 40
4.42401713958447
 40
4.529678794418983
 40
4.593807665578299
 40
4.734420365890406
 40
4.985745701574226
 40
5.236696413602989
 40
5.475218035428465
 40
5.702583326615216
 40
5.918743282244566
 40
6.123702580472964
 40
6.64746534693523
 40
7.14494728930677
 40
7.657727828884137
 40
8.163132935634632
 40
8.500766745983215
 40
8.841850067950142
 40
9.186445028031247
 40
9.514333228165229
 40
9.853441834433278
 40
10.20385901110012
 40
10.47236430950703
 40
10.75988189842907
 40
11.06640438449329
 40
11.35795789144737
 40
11.65393283904726
 40
11.86469131291767
 40
12.24627859719346
 40
12.56578312315864
 40
12.83643926831472
 40
13.13054947344807
 40
13.42336127629143
 40
13.72624593097753
 40
14.01483804142036
 40
14.28916038932702
 40
14.80751342159217
 40
15.3064997384898
 40
15.82270679006092
 40
16.33305485315841
 40
16.33305485315841
 40
16.33305485315841
 40
16.33305485315841
 10
133.550014104004
 20
-5.20000074056395
 30
0.0
 10
133.6624871358824
 20
-5.19999295263608
 30
0.0
 10
133.8883516865127
 20
-5.192654306969217
 30
0.0
 10
134.2269365138862
 20
-5.159532611318013
 30
0.0
 10
134.5609267396287
 20
-5.104515764467066
 30
0.0
 10
134.8909354330476
 20
-5.027898670990282
 30
0.0
 10
135.2175735592335
 20
-4.92941761086746
 30
0.0
 10
135.5167548885933
 20
-4.81703436399232
 30
0.0
 10
135.790400054245
 20
-4.695296579983363
 30
0.0
 10
136.0409045651547
 20
-4.567605329818576
 30
0.0
 10
136.29017712775
 20
-4.422662688121874
 30
0.0
 10
136.483221243248
 20
-4.295396561533067
 30
0.0
 10
136.6222548306705
 20
-4.195910424847596
 30
0.0
 10
136.7136450131013
 20
-4.127486768462006
 30
0.0
 10
136.802198627771
 20
-4.057993514136398
 30
0.0
 10
136.8853925444334
 20
-3.989818147976905
 30
0.0
 10
136.9650450166746
 20
-3.921895844875564
 30
0.0
 10
137.0472762070124
 20
-3.848866002316128
 30
0.0
 10
137.1357681007188
 20
-3.766640712987765
 30
0.0
 10
137.2417815875608
 20
-3.663310375682101
 30
0.0
 10
137.3509709452992
 20
-3.549993178071702
 30
0.0
 10
137.4505918661355
 20
-3.439597078721249
 30
0.0
 10
137.5197879653822
 20
-3.35907845595122
 30
0.0
 10
137.5859292786845
 20
-3.279508590404731
 30
0.0
 10
137.6807735915101
 20
-3.160678158865948
 30
0.0
 10
137.8081262872417
 20
-2.988219048424639
 30
0.0
 10
137.9451154625219
 20
-2.782655180026836
 30
0.0
 10
138.0681475709982
 20
-2.577719360135859
 30
0.0
 10
138.1763497452862
 20
-2.377688900081864
 30
0.0
 10
138.2710266533186
 20
-2.183290126181333
 30
0.0
 10
138.3974102351305
 20
-1.894735990853178
 30
0.0
 10
138.5349887997952
 20
-1.509025187479778
 30
0.0
 10
138.6589068781816
 20
-1.012156535240308
 30
0.0
 10
138.7331499745789
 20
-0.5115866078572822
 30
0.0
 10
138.7554438553293
 20
-0.0594461127388968
 30
0.0
 10
138.7428975099776
 20
0.3353151883009104
 30
0.0
 10
138.7098112129127
 20
0.6750620369295178
 30
0.0
 10
138.6549381262721
 20
1.008682961701623
 30
0.0
 10
138.5787909545149
 20
1.337397788494939
 30
0.0
 10
138.4811283690297
 20
1.66241773033721
 30
0.0
 10
138.3691185747183
 20
1.961743796369404
 30
0.0
 10
138.2464950773972
 20
2.238026618277899
 30
0.0
 10
138.1159338678069
 20
2.494353846578292
 30
0.0
 10
137.9670548571121
 20
2.749461428232706
 30
0.0
 10
137.8022234298829
 20
2.997925998756016
 30
0.0
 10
137.6427320891743
 20
3.211121340287888
 30
0.0
 10
137.4539899798585
 20
3.43936025486127
 30
0.0
 10
137.2470321752066
 20
3.662383123740454
 30
0.0
 10
137.0111014900395
 20
3.884611817013478
 30
0.0
 10
136.7852829755799
 20
4.074253959659415
 30
0.0
 10
136.5566289193434
 20
4.246073146700098
 30
0.0
 10
136.3096733058412
 20
4.410626567918825
 30
0.0
 10
136.0553147826772
 20
4.559909327232332
 30
0.0
 10
135.7983513233414
 20
4.691624171036551
 30
0.0
 10
135.4690708096693
 20
4.838519863184501
 30
0.0
 10
135.0629131131977
 20
4.983729659294652
 30
0.0
 10
134.5663149436889
 20
5.108141580403923
 30
0.0
 10
134.0625507522291
 20
5.18322665235766
 30
0.0
 10
133.7201301202652
 20
5.199952865067672
 30
0.0
 10
133.550014104004
 20
5.199993155920395
 30
0.0
 11
133.550014104004
 21
-5.20000074056395
 31
0.0
 11
133.8872562304689
 21
-5.189044930017132
 31
0.0
 11
134.2256122485352
 21
-5.15593335775145
 31
0.0
 11
134.5635791674806
 21
-5.10026929525145
 31
0.0
 11
134.8872028247072
 21
-5.0251350179077
 31
0.0
 11
135.2136112109376
 21
-4.926715828454575
 31
0.0
 11
135.5408893481445
 21
-4.803791023767132
 31
0.0
 11
135.7852893725587
 21
-4.6950568929077
 31
0.0
 11
136.0356784716798
 21
-4.56743238118895
 31
0.0
 11
136.2903171435548
 21
-4.419361092126393
 31
0.0
 11
136.5316043750001
 21
-4.26030347493895
 31
0.0
 11
136.6208225146484
 21
-4.19646070150145
 31
0.0
 11
136.7121997729493
 21
-4.1280402913452
 31
0.0
 11
136.805514897461
 21
-4.054828621423325
 31
0.0
 11
136.8866535083009
 21
-3.98833081868895
 31
0.0
 11
136.9620929614258
 21
-3.92399976400145
 31
0.0
 11
137.0443149462891
 21
-3.850971199548297
 31
0.0
 11
137.1328159228516
 21
-3.768756844079575
 31
0.0
 11
137.2270389453126
 21
-3.676898933923325
 31
0.0
 11
137.360057438965
 21
-3.53886792806395
 31
0.0
 11
137.4596744433595
 21
-3.428485847985825
 31
0.0
 11
137.5285373583984
 21
-3.348346687829575
 31
0.0
 11
137.5695300952148
 21
-3.299030281579575
 31
0.0
 11
137.6572528735352
 21
-3.18913648275145
 31
0.0
 11
137.8065448657228
 21
-2.986957527673325
 31
0.0
 11
137.9457050219728
 21
-2.77812574056395
 31
0.0
 11
138.0684772387695
 21
-2.573627449548297
 31
0.0
 11
138.1766544238282
 21
-2.3736457600952
 31
0.0
 11
138.2713046923829
 21
-2.1793098225952
 31
0.0
 11
138.3535266772462
 21
-1.9915656819702
 31
0.0
 11
138.5294986621094
 21
-1.498249031579575
 31
0.0
 11
138.6498828784181
 21
-1.015552498376422
 31
0.0
 11
138.7251087084962
 21
-0.5083198323607974
 31
0.0
 11
138.7500110522462
 21
-0.0035285725952292
 31
0.0
 11
138.7392841235351
 21
0.3339348063110208
 31
0.0
 11
138.7062259570314
 21
0.6734123453735777
 31
0.0
 11
138.6503024951173
 21
1.01343920084227
 31
0.0
 11
138.5762973681642
 21
1.332866691076645
 31
0.0
 11
138.478725041504
 21
1.657634757482838
 31
0.0
 11
138.3558994189454
 21
1.985820792639202
 31
0.0
 11
138.2469821826173
 21
2.231243155920395
 31
0.0
 11
138.1164813891603
 21
2.48743822427977
 31
0.0
 11
137.9619861499025
 21
2.752178214514145
 31
0.0
 11
137.8008075610352
 21
2.99512865396727
 31
0.0
 11
137.6235156909181
 21
3.23212816568602
 31
0.0
 11
137.4892002001954
 21
3.39454271646727
 31
0.0
 11
137.2296558276368
 21
3.67426683756102
 31
0.0
 11
136.997066105957
 21
3.89332201334227
 31
0.0
 11
136.7898136035157
 21
4.06739427896727
 31
0.0
 11
136.5546756640626
 21
4.244060538732838
 31
0.0
 11
136.311015690918
 21
4.40644457193602
 31
0.0
 11
136.049785222168
 21
4.559734366857895
 31
0.0
 11
135.7929721728517
 21
4.691387198889202
 31
0.0
 11
135.542445744629
 21
4.803142569982838
 31
0.0
 11
135.0543476000977
 21
4.977642081701702
 31
0.0
 11
134.5703235522462
 21
5.098918937170395
 31
0.0
 11
134.0597492114259
 21
5.174968741857895
 31
0.0
 11
133.550014104004
 21
5.199993155920395
 31
0.0
  0
SPLINE
  5
56655
330
1F
100
AcDbEntity
  8
1
100
AcDbSpline
210
0.0
220
0.0
230
1.0
 70
     8
 71
     3
 72
    29
 73
    25
 74
    23
 42
0.0000000001
 43
0.0000000001
 44
0.000001
 12
0.9999998154086332
 22
0.0006076040649003
 32
0.0
 13
0.0859107384651211
 23
0.9963028380047793
 33
0.0
 40
0.0
 40
0.0
 40
0.0
 40
0.0
 40
0.7671199296735529
 40
1.536854420461743
 40
2.307476727085541
 40
3.077218851214565
 40
3.84433939060697
 40
4.611477114665396
 40
5.381269819471588
 40
6.151928265694308
 40
6.921700066999238
 40
7.688847781081296
 40
8.455184083126585
 40
9.224178949643603
 40
9.99404766820381
 40
10.76300917794188
 40
11.52930339426543
 40
12.29171394284819
 40
13.05694882906447
 40
13.82298959172489
 40
14.58794791634943
 40
15.35012882298947
 40
15.96307553540751
 40
16.57600564145741
 40
16.57600564145741
 40
16.57600564145741
 40
16.57600564145741
 10
133.550014104004
 20
-10.92546460775145
 30
0.0
 10
133.8057207000273
 20
-10.92530923935561
 30
0.0
 10
134.3181707272967
 20
-10.9078240669495
 30
0.0
 10
135.0838712566241
 20
-10.82934992498471
 30
0.0
 10
135.8435610667727
 20
-10.70010312569863
 30
0.0
 10
136.5920810843753
 20
-10.52063197313595
 30
0.0
 10
137.3257317225323
 20
-10.2914976592117
 30
0.0
 10
138.0418361673501
 20
-10.01226457900227
 30
0.0
 10
138.7384875389221
 20
-9.684815472635818
 30
0.0
 10
139.4125484724588
 20
-9.311272018891003
 30
0.0
 10
140.0594410478439
 20
-8.89405152038077
 30
0.0
 10
140.6755374992274
 20
-8.434925880603657
 30
0.0
 10
141.2581899480171
 20
-7.934438167942801
 30
0.0
 10
141.8063151779277
 20
-7.395102265750523
 30
0.0
 10
142.317689039879
 20
-6.819630438400565
 30
0.0
 10
142.7887352559182
 20
-6.211839090157695
 30
0.0
 10
143.2159672633293
 20
-5.575446250220238
 30
0.0
 10
143.5972620092384
 20
-4.911950018677828
 30
0.0
 10
143.9323445908476
 20
-4.224068965969451
 30
0.0
 10
144.2198606522117
 20
-3.514054465765724
 30
0.0
 10
144.4570377523618
 20
-2.786730553173583
 30
0.0
 10
144.6292668006721
 20
-2.093794600460455
 30
0.0
 10
144.7460488673472
 20
-1.44110682379312
 30
0.0
 10
144.7934213032354
 20
-1.034933582444125
 30
0.0
 10
144.810973729248
 20
-0.8313789143921042
 30
0.0
 11
133.550014104004
 21
-10.92546460775145
 31
0.0
 11
134.3166843310548
 21
-10.89918897298585
 31
0.0
 11
135.0824314013673
 21
-10.82094190267335
 31
0.0
 11
135.8421283618165
 21
-10.69163892415773
 31
0.0
 11
136.5906330004884
 21
-10.51207349447023
 31
0.0
 11
137.3228031054689
 21
-10.28316114095457
 31
0.0
 11
138.0376010791017
 21
-10.00465772298582
 31
0.0
 11
138.7343326464845
 21
-9.677326180017161
 31
0.0
 11
139.408397282715
 21
-9.303760506188979
 31
0.0
 11
140.0552249804689
 21
-8.886432625329604
 31
0.0
 11
140.6702152148439
 21
-8.427844978845229
 31
0.0
 11
141.251674260254
 21
-7.928668953454604
 31
0.0
 11
141.799884404297
 21
-7.389392830407729
 31
0.0
 11
142.3112522021484
 21
-6.813892342126393
 31
0.0
 11
142.782191838379
 21
-6.206012703454604
 31
0.0
 11
143.2091136828612
 21
-5.569660164392104
 31
0.0
 11
143.589133824463
 21
-4.908710457360797
 31
0.0
 11
143.9242435351562
 21
-4.22075269368895
 31
0.0
 11
144.2116466418458
 21
-3.510669685876422
 31
0.0
 11
144.4485317126466
 21
-2.7833137288452
 31
0.0
 11
144.6320949450684
 21
-2.0435676350952
 31
0.0
 11
144.7398906604005
 21
-1.4401740804077
 31
0.0
 11
144.810973729248
 21
-0.8313789143921042
 31
0.0
  0
ARC
  5
56656
330
1F
100
AcDbEntity
  8
1
100
AcDbCircle
 10
133.400013
 20
0.0000115289672351
 30
0.0
 40
5.000002999999998
100
AcDbArc
 50
269.9999959999976
 51
359.9999499999982
  0
ARC
  5
56657
330
1F
100
AcDbEntity
  8
1
100
AcDbCircle
 10
133.400013
 20
0.0000115289672351
 30
0.0
 40
5.000002999999998
100
AcDbArc
 50
180.0000529999995
 51
270.0000089999996
  0
ARC
  5
56658
330
1F
100
AcDbEntity
  8
1
100
AcDbCircle
 10
133.400013
 20
-0.0000194710327435
 30
0.0
 40
5.000002999999998
100
AcDbArc
 50
89.999921999998
 51
179.9999470000005
  0
ARC
  5
56659
330
1F
100
AcDbEntity
  8
1
100
AcDbCircle
 10
133.400013
 20
-0.0000194710327435
 30
0.0
 40
5.000002999999998
100
AcDbArc
 50
0.0000499999985184
 51
89.99993599999811
  0
ARC
  5
5665A
330
1F
100
AcDbEntity
  8
1
100
AcDbCircle
 10
133.5500140000001
 20
0.0000115289672351
 30
0.0
 40
4.750003999999997
100
AcDbArc
 50
270.0000429999985
 51
0.0000729999982277
  0
ARC
  5
5665B
330
1F
100
AcDbEntity
  8
1
100
AcDbCircle
 10
133.5500140000001
 20
0.0000115289672351
 30
0.0
 40
4.750003999999997
100
AcDbArc
 50
0.0000630000004781
 51
89.99995699999827
  0
ARC
  5
5665C
330
1F
100
AcDbEntity
  8
1
100
AcDbCircle
 10
133.5500140000001
 20
0.0000115289672351
 30
0.0
 40
4.750003999999997
100
AcDbArc
 50
89.99999699999904
 51
179.9999299999995
  0
ARC
  5
5665D
330
1F
100
AcDbEntity
  8
1
100
AcDbCircle
 10
133.5500140000001
 20
0.0000115289672351
 30
0.0
 40
4.750003999999997
100
AcDbArc
 50
180.0000210000001
 51
270.0000429999985
  0
ARC
  5
5665E
330
1F
100
AcDbEntity
  8
1
100
AcDbCircle
 10
131.7114060000001
 20
0.0000115289672351
 30
0.0
 40
0.440895
100
AcDbArc
 50
103.4785080000009
 51
256.5214850000022
  0
ARC
  5
5665F
330
1F
100
AcDbEntity
  8
1
100
AcDbCircle
 10
131.416126
 20
1.232006528967275
 30
0.0
 40
0.8260009999999999
100
AcDbArc
 50
283.4780969999994
 51
16.52191800000012
  0
ARC
  5
56660
330
1F
100
AcDbEntity
  8
1
100
AcDbCircle
 10
132.6307100000001
 20
1.592266528967257
 30
0.0
 40
0.440895
100
AcDbArc
 50
43.47854800000044
 51
196.5214590000005
  0
ARC
  5
56661
330
1F
100
AcDbEntity
  8
1
100
AcDbCircle
 10
135.388622
 20
0.0000115289672351
 30
0.0
 40
0.440895
100
AcDbArc
 50
283.4785130000001
 51
76.52149699999816
  0
ARC
  5
56662
330
1F
100
AcDbEntity
  8
1
100
AcDbCircle
 10
132.6307100000001
 20
-1.59227347103274
 30
0.0
 40
0.440895
100
AcDbArc
 50
163.4785359999997
 51
316.5214519999996
  0
ARC
  5
56663
330
1F
100
AcDbEntity
  8
1
100
AcDbCircle
 10
135.6839020000001
 20
-1.232013471032701
 30
0.0
 40
0.8260009999999999
100
AcDbArc
 50
103.4780990000003
 51
196.5219170000007
  0
ARC
  5
56664
330
1F
100
AcDbEntity
  8
1
100
AcDbCircle
 10
133.5500140000001
 20
2.464000528967261
 30
0.0
 40
0.8260009999999999
100
AcDbArc
 50
223.4780779999984
 51
316.5219300000022
  0
ARC
  5
56665
330
1F
100
AcDbEntity
  8
1
100
AcDbCircle
 10
134.4693180000001
 20
1.592266528967257
 30
0.0
 40
0.440895
100
AcDbArc
 50
343.4785419999986
 51
136.5214569999985
  0
ARC
  5
56666
330
1F
100
AcDbEntity
  8
1
100
AcDbCircle
 10
133.5500140000001
 20
-2.464008471032713
 30
0.0
 40
0.8260009999999999
100
AcDbArc
 50
43.47808299999743
 51
136.5219249999988
  0
ARC
  5
56667
330
1F
100
AcDbEntity
  8
1
100
AcDbCircle
 10
134.4693180000001
 20
-1.59227347103274
 30
0.0
 40
0.440895
100
AcDbArc
 50
223.478549
 51
16.52145399999785
  0
ARC
  5
56668
330
1F
100
AcDbEntity
  8
1
100
AcDbCircle
 10
135.6839020000001
 20
1.232006528967275
 30
0.0
 40
0.8260009999999999
100
AcDbArc
 50
163.478084999998
 51
256.5219009999996
  0
ARC
  5
56669
330
1F
100
AcDbEntity
  8
1
100
AcDbCircle
 10
133.5500140000001
 20
0.0000115289672351
 30
0.0
 40
3.000002999999998
100
AcDbArc
 50
270.0000499999985
 51
89.99997299999794
  0
ARC
  5
5666A
330
1F
100
AcDbEntity
  8
1
100
AcDbCircle
 10
133.5500140000001
 20
0.0000115289672351
 30
0.0
 40
3.000002999999998
100
AcDbArc
 50
90.000044999998
 51
269.9999619999988
  0
ARC
  5
5666B
330
1F
100
AcDbEntity
  8
1
100
AcDbCircle
 10
131.416126
 20
-1.232013471032701
 30
0.0
 40
0.8260009999999999
100
AcDbArc
 50
343.4780919999986
 51
76.5219060000002
  0
LINE
  5
5666C
330
1F
100
AcDbEntity
  8
1
100
AcDbLine
 10
138.40002
 20
0.0000115289672351
 30
0.0
 11
138.3000140000001
 21
0.0000115289672351
 31
0.0
  0
LINE
  5
5666D
330
1F
100
AcDbEntity
  8
1
100
AcDbLine
 10
128.400013
 20
0.0000115289672635
 30
0.0
 11
128.8050190000001
 21
0.0000115289672351
 31
0.0
  0
LINE
  5
5666E
330
1F
100
AcDbEntity
  8
1
100
AcDbLine
 10
124.1387040000001
 20
10.95244052896728
 30
0.0
 11
123.5313370000001
 21
11.16941352896728
 31
0.0
  0
LINE
  5
5666F
330
1F
100
AcDbEntity
  8
1
100
AcDbLine
 10
127.5500140000001
 20
-10.92546447103268
 30
0.0
 11
127.5500140000001
 21
-10.95244247103275
 31
0.0
  0
LINE
  5
56670
330
1F
100
AcDbEntity
  8
1
100
AcDbLine
 10
128.6727710000001
 20
-10.92546447103268
 30
0.0
 11
133.5500140000001
 21
-10.92546447103268
 31
0.0
  0
LINE
  5
56671
330
1F
100
AcDbEntity
  8
1
100
AcDbLine
 10
127.5500140000001
 20
-10.92546447103268
 30
0.0
 11
128.6727710000001
 21
-10.92546447103268
 31
0.0
  0
LINE
  5
56672
330
1F
100
AcDbEntity
  8
1
100
AcDbLine
 10
122.6540709999999
 20
11.29786252896727
 30
0.0
 11
127.5500140000001
 21
11.29786252896727
 31
0.0
  0
LINE
  5
56673
330
1F
100
AcDbEntity
  8
1
100
AcDbLine
 10
122.5500140000001
 20
-11.1694224710327
 30
0.0
 11
127.5500140000001
 21
-11.1694224710327
 31
0.0
  0
LINE
  5
56674
330
1F
100
AcDbEntity
  8
1
100
AcDbLine
 10
122.5500140000001
 20
-10.95244247103275
 30
0.0
 11
122.5500140000001
 21
-11.1694224710327
 31
0.0
  0
LINE
  5
56675
330
1F
100
AcDbEntity
  8
1
100
AcDbLine
 10
122.5500140000001
 20
-10.95244247103275
 30
0.0
 11
127.5500140000001
 21
-10.95244247103275
 31
0.0
  0
LINE
  5
56676
330
1F
100
AcDbEntity
  8
1
100
AcDbLine
 10
133.400013
 20
-5.200000471032694
 30
0.0
 11
133.5500140000001
 21
-5.200000471032694
 31
0.0
  0
LINE
  5
56677
330
1F
100
AcDbEntity
  8
1
100
AcDbLine
 10
133.400013
 20
5.199993528967269
 30
0.0
 11
133.5500140000001
 21
5.199993528967269
 31
0.0
  0
LINE
  5
56678
330
1F
100
AcDbEntity
  8
1
100
AcDbLine
 10
122.5500140000001
 20
10.95243452896724
 30
0.0
 11
124.632312
 21
10.95243452896724
 31
0.0
  0
LINE
  5
56679
330
1F
100
AcDbEntity
  8
1
100
AcDbLine
 10
122.5500140000001
 20
11.16941452896728
 30
0.0
 11
122.5500140000001
 21
10.95243452896724
 31
0.0
  0
LINE
  5
5667A
330
1F
100
AcDbEntity
  8
1
100
AcDbLine
 10
122.5500140000001
 20
11.16941452896728
 30
0.0
 11
123.5313370000001
 21
11.16941452896728
 31
0.0
  0
LINE
  5
5667B
330
1F
100
AcDbEntity
  8
1
100
AcDbLine
 10
121.0500140000001
 20
0.0000115289672635
 30
0.0
 11
121.0500140000001
 21
-11.32985347103272
 31
0.0
  0
LINE
  5
5667C
330
1F
100
AcDbEntity
  8
1
100
AcDbLine
 10
121.0500140000001
 20
0.0000115289672635
 30
0.0
 11
121.0500140000001
 21
11.32987552896728
 31
0.0
  0
LINE
  5
5667D
330
1F
100
AcDbEntity
  8
1
100
AcDbLine
 10
116.0500140000001
 20
-12.24998847103274
 30
0.0
 11
116.0500140000001
 21
0.0000115289672635
 31
0.0
  0
LINE
  5
5667E
330
1F
100
AcDbEntity
  8
1
100
AcDbLine
 10
116.0499939940216
 20
0.0000115289672635
 30
0.0
 11
116.0499939940216
 21
12.25001152896729
 31
0.0
  0
LINE
  5
5667F
330
1F
100
AcDbEntity
  8
1
100
AcDbLine
 10
133.5500140000001
 20
4.740032528967248
 30
0.0
 11
133.5500140000001
 21
4.750011528967235
 31
0.0
  0
LINE
  5
56680
330
1F
100
AcDbEntity
  8
1
100
AcDbLine
 10
121.0499940000001
 20
11.33001152786724
 30
0.0
 11
127.5499940000001
 21
11.33001152786727
 31
0.0
1001
ACAD
1000
RTMaterial
1005
0
  0
LINE
  5
56681
102
{ACAD_REACTORS
330
56686
102
}
330
1F
100
AcDbEntity
  8
1
100
AcDbLine
 10
121.0499940000001
 20
11.33001152786724
 30
0.0
 11
116.0499940000001
 21
12.2500115278672
 31
0.0
1001
ACAD
1000
RTMaterial
1005
0
  0
LINE
  5
56682
330
1F
100
AcDbEntity
  8
1
100
AcDbLine
 10
121.0499940000001
 20
-11.32998846993283
 30
0.0
 11
127.5499940000001
 21
-11.32998846993285
 31
0.0
1001
ACAD
1000
RTMaterial
1005
0
  0
LINE
  5
56683
330
1F
100
AcDbEntity
  8
1
100
AcDbLine
 10
121.0499940000001
 20
-11.32998846993283
 30
0.0
 11
116.0500140000001
 21
-12.24998847103274
 31
0.0
1001
ACAD
1000
RTMaterial
1005
0
  0
DIMENSION
  5
56684
102
{ACAD_XDICTIONARY
360
56685
102
}
102
{ACAD_REACTORS
330
56686
102
}
330
1F
100
AcDbEntity
  8
2
100
AcDbDimension
  2
*D124
 10
146.049994
 20
34.63829084411441
 30
0.0
 11
131.049994
 21
34.63829084411441
 31
0.0
 70
   160
 71
     5
 42
29.99999999999989
  3
\M+18352\M+18373\M+1815B - ISO-25
100
AcDbAlignedDimension
 13
116.0499940000001
 23
12.2500115278672
 33
0.0
 14
146.049994
 24
9.511419259498808
 34
0.0
100
AcDbRotatedDimension
1001
ACAD
1000
DSTYLE
1002
{
1070
     4
1000
"
1070
    40
1040
1.0
1070
   143
1040
0.03937
1070
   170
1070
     1
1070
   171
1070
     3
1070
   271
1070
     8
1070
   285
1070
     4
1002
}
  0
DIMENSION
  5
56687
330
1F
100
AcDbEntity
  8
sk2
100
AcDbDimension
  2
*D116
 10
146.0499999999999
 20
65.44664384559701
 30
0.0
 11
12.83096311160682
 21
65.44664384559701
 31
0.0
 70
   160
 71
     5
 41
0.892857
 42
244.4749999999999
  3
\M+18352\M+18373\M+1815B - ISO-25
100
AcDbAlignedDimension
 13
-98.42500000000001
 23
14.17499950000001
 33
0.0
 14
146.0499999999999
 24
9.511419259498808
 34
0.0
 50
180.0
100
AcDbRotatedDimension
1001
ACAD
1000
DSTYLE
1002
{
1070
     4
1000
"
1070
    40
1040
1.0
1070
   143
1040
0.03937
1070
   170
1070
     1
1070
   171
1070
     3
1070
   271
1070
     8
1070
   285
1070
     4
1002
}
  0
DIMENSION
  5
56688
330
1F
100
AcDbEntity
  8
2
100
AcDbDimension
  2
*D117
 10
0.0000000000000021
 20
49.79075440020825
 30
0.0
 11
74.77084497553676
 21
49.79075440020825
 31
0.0
 70
   160
 71
     5
 41
0.892857
 42
146.0499999999999
  3
\M+18352\M+18373\M+1815B - ISO-25
100
AcDbAlignedDimension
 13
146.0499999999999
 23
9.511419383807833
 33
0.0
 14
0.0
 24
15.87501550000002
 34
0.0
 50
180.0
100
AcDbRotatedDimension
1001
ACAD
1000
DSTYLE
1002
{
1070
     4
1000
"
1070
    40
1040
1.0
1070
   143
1040
0.03937
1070
   170
1070
     1
1070
   171
1070
     3
1070
   271
1070
     8
1070
   285
1070
     4
1002
}
  0
LINE
  5
56689
330
1F
100
AcDbEntity
  8
sk1
100
AcDbLine
 10
-93.42500000000001
 20
15.87498449999998
 30
0.0
 11
0.0000190000001794
 21
15.87498449999998
 31
0.0
  0
LINE
  5
5668A
330
1F
100
AcDbEntity
  8
sk1
100
AcDbLine
 10
-93.42500000000001
 20
-15.87501550000002
 30
0.0
 11
0.0000190000001794
 21
-15.87501550000002
 31
0.0
  0
LINE
  5
5668B
330
1F
100
AcDbEntity
  8
sk4
100
AcDbLine
 10
-104.7880979999999
 20
0.0000154999999609
 30
0.0
 11
0.0
 21
0.0
 31
0.0
  0
LINE
  5
5668C
330
1F
100
AcDbEntity
  8
4
100
AcDbLine
 10
0.0
 20
0.0
 30
0.0
 11
156.022232
 21
0.0000154999999324
 31
0.0
  0
LINE
  5
5668D
330
1F
100
AcDbEntity
  8
sk1
100
AcDbLine
 10
-93.42500000000001
 20
-15.37498450000001
 30
0.0
 11
-97.22498699999988
 21
-15.37498450000001
 31
0.0
  0
LINE
  5
5668E
330
1F
100
AcDbEntity
  8
sk1
100
AcDbLine
 10
-97.22498699999988
 20
15.37501550000001
 30
0.0
 11
-97.22498699999988
 21
-15.37498450000001
 31
0.0
  0
LINE
  5
5668F
330
1F
100
AcDbEntity
  8
sk1
100
AcDbLine
 10
-98.42500000000001
 20
-14.1750025
 30
0.0
 11
-98.42500000000001
 21
14.1750035
 31
0.0
  0
LINE
  5
56690
330
1F
100
AcDbEntity
  8
1
100
AcDbLine
 10
0.9454643023025823
 20
-14.92953569659747
 30
0.0
 11
0.9454643023025823
 21
14.92953569659747
 31
0.0
  0
LINE
  5
56691
330
1F
100
AcDbEntity
  8
1
100
AcDbLine
 10
0.0
 20
-15.87501550000002
 30
0.0
 11
0.0
 21
15.87501550000002
 31
0.0
  0
LINE
  5
56692
330
1F
100
AcDbEntity
  8
sk1
100
AcDbLine
 10
-98.42499899999985
 20
-14.1750025
 30
0.0
 11
-97.22499899999981
 21
-15.37500249999999
 31
0.0
  0
LINE
  5
56693
330
1F
100
AcDbEntity
  8
sk1
100
AcDbLine
 10
-98.42499799999984
 20
14.17499850000001
 30
0.0
 11
-97.22500199999991
 21
15.37499550000001
 31
0.0
  0
LINE
  5
56694
330
1F
100
AcDbEntity
  8
sk1
100
AcDbLine
 10
-97.22498699999988
 20
15.37501550000001
 30
0.0
 11
-93.42500000000001
 21
15.37501550000001
 31
0.0
  0
LINE
  5
56695
102
{ACAD_REACTORS
330
56699
102
}
330
1F
100
AcDbEntity
  8
sk1
100
AcDbLine
 10
-93.42500000000001
 20
-15.87501550000002
 30
0.0
 11
-93.42500000000001
 21
15.87498449999998
 31
0.0
  0
DIMENSION
  5
56696
330
1F
100
AcDbEntity
  8
2
100
AcDbDimension
  2
*D118
 10
83.34697874310098
 20
12.25000049999995
 30
0.0
 11
83.34697874310098
 21
-37.88333283333341
 31
0.0
 70
   160
  1
%%c<>
 71
     5
 42
24.5
  3
\M+18352\M+18373\M+1815B - ISO-25
100
AcDbAlignedDimension
 13
116.0500140000001
 23
-12.24999950000006
 33
0.0
 14
116.0500140000001
 24
12.25000049999994
 34
0.0
 50
270.0
100
AcDbRotatedDimension
1001
ACAD
1000
DSTYLE
1002
{
1070
     4
1000
%%C[]"
1070
    40
1040
1.0
1070
   143
1040
0.03937
1070
   170
1070
     1
1070
   171
1070
     3
1070
   271
1070
     8
1070
   285
1070
     4
1002
}
  0
DIMENSION
  5
56697
102
{ACAD_XDICTIONARY
360
56698
102
}
102
{ACAD_REACTORS
330
56699
102
}
330
1F
100
AcDbEntity
  8
sk2
100
AcDbDimension
  2
*D125
 10
-124.2520312063884
 20
15.87498449999999
 30
0.0
 11
-124.2520312063884
 21
-49.18398760052366
 31
0.0
 70
   160
  1
%%c<>
 71
     5
 42
31.75
  3
\M+18352\M+18373\M+1815B - ISO-25
100
AcDbAlignedDimension
 13
-93.42500000000001
 23
-15.87501550000002
 33
0.0
 14
-93.42500000000001
 24
15.87498449999998
 34
0.0
 50
270.0
100
AcDbRotatedDimension
1001
ACAD
1000
DSTYLE
1002
{
1070
     4
1000
%%C[]"
1070
    40
1040
1.0
1070
   143
1040
0.03937
1070
   170
1070
     1
1070
   171
1070
     3
1070
   271
1070
     8
1070
   285
1070
     4
1002
}
  0
LINE
  5
5669A
330
1F
100
AcDbEntity
  8
1
100
AcDbLine
 10
0.6621660632500266
 20
15.21283393565005
 30
0.0
 11
0.0
 21
15.87499999890002
 31
0.0
1001
ACAD
1000
RTMaterial
1005
0
  0
LINE
  5
5669B
330
1F
100
AcDbEntity
  8
1
100
AcDbLine
 10
116.0499999999
 20
12.24999999890002
 30
0.0
 11
1.346000000000003
 21
14.92021156620001
 31
0.0
1001
ACAD
1000
RTMaterial
1005
0
  0
ARC
  5
5669C
330
1F
100
AcDbEntity
  8
1
100
AcDbCircle
 10
1.369272844400029
 20
15.91994071680005
 30
0.0
 40
1.0
100
AcDbArc
 50
224.9999999999998
 51
268.6664438396988
1001
ACAD
1000
RTMaterial
1005
0
  0
ARC
  5
5669D
330
1F
100
AcDbEntity
  8
nocut
100
AcDbCircle
 10
133.5534799998999
 20
0.0
 30
0.0
 40
11.32999999889999
100
AcDbArc
 50
0.0
 51
90.0
  0
LINE
  5
5669E
330
1F
100
AcDbEntity
  8
nocut
100
AcDbLine
 10
121.0499799998999
 20
11.3299999989
 30
0.0
 11
133.5534799998999
 21
11.32999999890006
 31
0.0
1001
ACAD
1000
RTMaterial
1005
0
  0
LINE
  5
5669F
330
1F
100
AcDbEntity
  8
nocut
100
AcDbLine
 10
144.8834799987999
 20
0.0
 30
0.0
 11
0.0
 21
0.0
 31
0.0
1001
ACAD
1000
RTMaterial
1005
0
  0
LINE
  5
566A0
330
1F
100
AcDbEntity
  8
nocut
100
AcDbLine
 10
0.6621660632000044
 20
15.21283393570002
 30
0.0
 11
0.0
 21
15.87499999890002
 31
0.0
1001
ACAD
1000
RTMaterial
1005
0
  0
LINE
  5
566A1
330
1F
100
AcDbEntity
  8
nocut
100
AcDbLine
 10
116.0499999999
 20
12.24999999890002
 30
0.0
 11
1.346000000000003
 21
14.92021156620001
 31
0.0
1001
ACAD
1000
RTMaterial
1005
0
  0
LINE
  5
566A2
330
1F
100
AcDbEntity
  8
nocut
100
AcDbLine
 10
121.0500000000001
 20
11.3299999989
 30
0.0
 11
116.0499999999
 21
12.24999999890002
 31
0.0
1001
ACAD
1000
RTMaterial
1005
0
  0
ARC
  5
566A3
330
1F
100
AcDbEntity
  8
nocut
100
AcDbCircle
 10
1.369272844400029
 20
15.91994071680005
 30
0.0
 40
1.0
100
AcDbArc
 50
224.9999999999998
 51
268.6664438396988
1001
ACAD
1000
RTMaterial
1005
0
  0
LINE
  5
566A4
330
1F
100
AcDbEntity
  8
nocut
100
AcDbLine
 10
0.0
 20
15.87499999890002
 30
0.0
 11
0.0
 21
0.0
 31
0.0
  0
LINE
  5
566A5
330
1F
100
AcDbEntity
  8
1
100
AcDbLine
 10
0.6621660632000044
 20
-15.21283393570002
 30
0.0
 11
0.0
 21
-15.87499999890002
 31
0.0
1001
ACAD
1000
RTMaterial
1005
0
  0
LINE
  5
566A6
330
1F
100
AcDbEntity
  8
1
100
AcDbLine
 10
116.0499999999
 20
-12.24999999890002
 30
0.0
 11
1.346000000000003
 21
-14.92021156620001
 31
0.0
1001
ACAD
1000
RTMaterial
1005
0
  0
ARC
  5
566A7
330
1F
100
AcDbEntity
  8
1
100
AcDbCircle
 10
1.369272844400029
 20
-15.91994071680005
 30
0.0
 40
1.0
100
AcDbArc
 50
91.33355616029788
 51
135.0000000000002
1001
ACAD
1000
RTMaterial
1005
0
  0
DIMENSION
  5
56706
330
1F
100
AcDbEntity
  8
2
100
AcDbDimension
  2
*D120
 10
165.1092836183017
 20
12.49999999889987
 30
0.0
 11
165.1092836183017
 21
-7.579389114783481
 31
0.0
 70
   160
  1
%%c<>
 71
     5
 42
24.99999999889988
  3
\M+18352\M+18373\M+1815B - ISO-25
100
AcDbAlignedDimension
 13
133.4186158523263
 23
-12.5
 33
0.0
 14
143.0500000000001
 24
12.49999999889988
 34
0.0
 50
270.0
100
AcDbRotatedDimension
1001
ACAD
1000
DSTYLE
1002
{
1070
    75
1070
     1
1070
   343
1005
50E6F
1070
     4
1000
%%c[]"
1070
    40
1040
1.0
1070
    76
1070
     0
1070
   143
1040
0.03937
1070
   170
1070
     1
1070
   171
1070
     3
1070
   173
1070
     1
1070
   271
1070
     8
1070
   285
1070
     4
1070
   344
1005
0
1002
}
  0
SPLINE
  5
56707
330
1F
100
AcDbEntity
  8
1
100
AcDbSpline
210
0.0
220
0.0
230
1.0
 70
     8
 71
     3
 72
    12
 73
     8
 74
     6
 42
0.0000000001
 43
0.0000000001
 44
0.000001
 12
0.0537566380759423
 22
0.9985540665696436
 32
0.0
 13
0.0552813878764437
 23
0.9984708148736517
 33
0.0
 40
0.0
 40
0.0
 40
0.0
 40
0.0
 40
0.2209122770196051
 40
0.4175401307254177
 40
0.5973613852576813
 40
0.7637312137249407
 40
0.9175676701088244
 40
0.9175676701088244
 40
0.9175676701088244
 40
0.9175676701088244
 10
145.753809042263
 20
5.14419070619985
 30
0.0
 10
145.7577675427038
 20
5.217721657057552
 30
0.0
 10
145.7652679827309
 20
5.35669945545635
 30
0.0
 10
145.776048837747
 20
5.555527854763255
 30
0.0
 10
145.785900183395
 20
5.736199123905151
 30
0.0
 10
145.7950298239299
 20
5.902624748179732
 30
0.0
 10
145.8009114702912
 20
6.009198001812251
 30
0.0
 10
145.8037462345629
 20
6.060398405799872
 30
0.0
 11
145.753809042263
 21
5.14419070619985
 31
0.0
 11
145.765715036863
 21
5.364781912699839
 31
0.0
 11
145.776363528863
 21
5.561121213199811
 31
0.0
 11
145.7861550820631
 21
5.740675682099862
 31
0.0
 11
145.7952673989631
 21
5.906795781999875
 31
0.0
 11
145.8037462345629
 21
6.060398405799872
 31
0.0
  0
SPLINE
  5
56708
330
1F
100
AcDbEntity
  8
1
100
AcDbSpline
210
0.0
220
0.0
230
1.0
 70
     8
 71
     3
 72
    16
 73
    12
 74
    10
 42
0.0000000001
 43
0.0000000001
 44
0.000001
 12
0.0523642815861722
 22
0.9986280498834208
 32
0.0
 13
0.0569679970418169
 23
0.998376004976604
 33
0.0
 40
0.0
 40
0.0
 40
0.0
 40
0.0
 40
0.0854285124863477
 40
0.1685700608950766
 40
0.2492343870075947
 40
0.3282451804660274
 40
0.4084813185550421
 40
0.4933911897960887
 40
0.5851106058513818
 40
0.6853132240075796
 40
0.7972341521209132
 40
0.7972341521209132
 40
0.7972341521209132
 40
0.7972341521209132
 10
145.8037462345629
 20
6.060398405799872
 30
0.0
 10
145.8052373687907
 20
6.088835508742761
 30
0.0
 10
145.8081957899475
 20
6.144947597069318
 30
0.0
 10
145.8126091243549
 20
6.227908422270218
 30
0.0
 10
145.8169512389547
 20
6.308730761133602
 30
0.0
 10
145.8212825729575
 20
6.388583801598628
 30
0.0
 10
145.8257340428641
 20
6.469847576276976
 30
0.0
 10
145.8304615357238
 20
6.555338777664474
 30
0.0
 10
145.8356032493142
 20
6.647472723610263
 30
0.0
 10
145.841298794453
 20
6.748593442954586
 30
0.0
 10
145.8453067488625
 20
6.819187611905448
 30
0.0
 10
145.847432052563
 20
6.856434001599808
 30
0.0
 11
145.8037462345629
 21
6.060398405799872
 31
0.0
 11
145.808241745363
 21
6.145708556399853
 31
0.0
 11
145.8126593641629
 21
6.22873265939981
 31
0.0
 11
145.8169868031629
 21
6.309280823899854
 31
0.0
 11
145.8212664345629
 21
6.38817562909989
 31
0.0
 11
145.825654558963
 21
6.468291684299771
 31
0.0
 11
145.830342103463
 21
6.553072066899773
 31
0.0
 11
145.835452211363
 21
6.644649019499837
 31
0.0
 11
145.841085208163
 21
6.744693182399856
 31
0.0
 11
145.847432052563
 21
6.856434001599808
 31
0.0
  0
SPLINE
  5
56709
330
1F
100
AcDbEntity
  8
1
100
AcDbSpline
210
0.0
220
0.0
230
1.0
 70
     8
 71
     3
 72
    20
 73
    16
 74
    14
 42
0.0000000001
 43
0.0000000001
 44
0.000001
 12
0.0504646768136971
 22
0.9987258464634273
 32
0.0
 13
0.0566339771029373
 23
0.9983950083196049
 33
0.0
 40
0.0
 40
0.0
 40
0.0
 40
0.0
 40
0.1299695316086983
 40
0.2634842210378501
 40
0.3944523656994926
 40
0.5221927303531916
 40
0.6478471449832548
 40
0.7733154705046026
 40
0.8993462909829316
 40
1.025951314724631
 40
1.153060762889081
 40
1.27968726531154
 40
1.405383091946248
 40
1.530137234819413
 40
1.653965431159819
 40
1.653965431159819
 40
1.653965431159819
 40
1.653965431159819
 10
145.847432052563
 20
6.856434001599808
 30
0.0
 10
145.849618342699
 20
6.899701978423252
 30
0.0
 10
145.8540724107603
 20
6.987417042399613
 30
0.0
 10
145.8607989778253
 20
7.118728994626138
 30
0.0
 10
145.8675509599005
 20
7.249295600285762
 30
0.0
 10
145.8742287861336
 20
7.377242433052401
 30
0.0
 10
145.8808716059754
 20
7.503355310079257
 30
0.0
 10
145.8875452718704
 20
7.628895909639936
 30
0.0
 10
145.8942979216613
 20
7.754749612424774
 30
0.0
 10
145.9011436520176
 20
7.881146132848016
 30
0.0
 10
145.9080656340212
 20
8.007737358458996
 30
0.0
 10
145.9150367186354
 20
8.134022362963918
 30
0.0
 10
145.9220242150109
 20
8.259520149675665
 30
0.0
 10
145.9290159433016
 20
8.384083473247017
 30
0.0
 10
145.9336903329177
 20
8.466812303294659
 30
0.0
 10
145.9360279606632
 20
8.508022120999811
 30
0.0
 11
145.847432052563
 21
6.856434001599808
 31
0.0
 11
145.8540209989629
 21
6.986236411399858
 31
0.0
 11
145.860852304963
 21
7.119576223599864
 31
0.0
 11
145.8676160755632
 21
7.250369596399849
 31
0.0
 11
145.8742743194631
 21
7.377936318599807
 31
0.0
 11
145.880884009363
 21
7.50341677119988
 31
0.0
 11
145.8875446109629
 21
7.628708180199822
 31
0.0
 11
145.894297226563
 21
7.754557971499906
 31
0.0
 11
145.901144442263
 21
7.880977699999874
 31
0.0
 11
145.9080844420629
 21
8.007897549899865
 31
0.0
 11
145.915062877263
 21
8.134331614299838
 31
0.0
 11
145.922050119963
 21
8.25983308579984
 31
0.0
 11
145.929039982063
 21
8.384391257099849
 31
0.0
 11
145.9360279606632
 21
8.508022120999811
 31
0.0
  0
SPLINE
  5
5670A
330
1F
100
AcDbEntity
  8
1
100
AcDbSpline
210
0.0
220
0.0
230
1.0
 70
     8
 71
     3
 72
    30
 73
    26
 74
    24
 42
0.0000000001
 43
0.0000000001
 44
0.000001
 12
0.0501108550457699
 22
0.9987436619105935
 32
0.0
 13
0.0685508447169234
 23
0.9976476240078939
 33
0.0
 40
0.0
 40
0.0
 40
0.0
 40
0.0
 40
0.1293520783930464
 40
0.2603192429101879
 40
0.3930945670089732
 40
0.5277045224369362
 40
0.659568533759785
 40
0.7806610712026744
 40
0.8876429477450827
 40
0.9818894022043988
 40
1.065234832682697
 40
1.139357155344317
 40
1.20578968228768
 40
1.265838053149865
 40
1.320505457373278
 40
1.369133043826469
 40
1.413180334557013
 40
1.454877083267379
 40
1.49578016481331
 40
1.535065932231218
 40
1.571692658061884
 40
1.606311803942294
 40
1.640121211670024
 40
1.67371329612085
 40
1.707260265385096
 40
1.707260265385096
 40
1.707260265385096
 40
1.707260265385096
 10
145.9360279606632
 20
8.508022120999811
 30
0.0
 10
145.9381886084132
 20
8.551085310483159
 30
0.0
 10
145.9425586504037
 20
8.637748283904699
 30
0.0
 10
145.9492220368342
 20
8.76861027607606
 30
0.0
 10
145.9560646729829
 20
8.901218011163024
 30
0.0
 10
145.963032943873
 20
9.034118574651671
 30
0.0
 10
145.9699274704217
 20
9.16312331905604
 30
0.0
 10
145.976382152627
 20
9.28292904180941
 30
0.0
 10
145.9821539552662
 20
9.390214187095153
 30
0.0
 10
145.9872094951042
 20
9.484937296027595
 30
0.0
 10
145.9916266893524
 20
9.568725688338133
 30
0.0
 10
145.995495864642
 20
9.643258757040968
 30
0.0
 10
145.9989579585819
 20
9.710036811226359
 30
0.0
 10
146.0021129476603
 20
9.770337103072535
 30
0.0
 10
146.00500510319
 20
9.824708032848377
 30
0.0
 10
146.007670136002
 20
9.873749780787335
 30
0.0
 10
146.010159596395
 20
9.918471101465314
 30
0.0
 10
146.0125679163208
 20
9.960618074103166
 30
0.0
 10
146.0149522409892
 20
10.00117660435711
 30
0.0
 10
146.0173085171594
 20
10.0400437932976
 30
0.0
 10
146.0196071164114
 20
10.07681592725691
 30
0.0
 10
146.0218671512786
 20
10.1117613720221
 30
0.0
 10
146.0241223412243
 20
10.14569340604376
 30
0.0
 10
146.0263992871926
 20
10.17926577211119
 30
0.0
 10
146.0279232287695
 20
10.20159351134009
 30
0.0
 10
146.0286897864631
 20
10.21274952939981
 30
0.0
 11
145.9360279606632
 21
8.508022120999811
 31
0.0
 11
145.942543067763
 21
8.637210009099902
 31
0.0
 11
145.949207097963
 21
8.768007520099871
 31
0.0
 11
145.956052360263
 21
8.900606272599901
 31
0.0
 11
145.9631047047629
 21
9.035031361999898
 31
0.0
 11
145.9701299470631
 21
9.166708100899853
 31
0.0
 11
145.976634539263
 21
9.287625812399852
 31
0.0
 11
145.982374947163
 21
9.394453569199839
 31
0.0
 11
145.9873933070631
 21
9.488566321799879
 31
0.0
 11
145.991777731563
 21
9.57179634959985
 31
0.0
 11
145.9956288736631
 21
9.645818557799856
 31
0.0
 11
145.9990746567629
 21
9.71216165899986
 31
0.0
 11
146.0022167596631
 21
9.772127765099838
 31
0.0
 11
146.0051240757631
 21
9.826717804799812
 31
0.0
 11
146.007765188663
 21
9.875273613099892
 31
0.0
 11
146.010215213363
 21
9.919252710599863
 31
0.0
 11
146.012595498663
 21
9.960881460999843
 31
0.0
 11
146.014997580363
 21
10.00171394439982
 31
0.0
 11
146.0173758541628
 21
10.04092764709983
 31
0.0
 11
146.019663351463
 21
10.07748279009988
 31
0.0
 11
146.0218939470629
 21
10.11203006069982
 31
0.0
 11
146.024133782863
 21
10.14576521759986
 31
0.0
 11
146.026401705163
 21
10.17928065669988
 31
0.0
 11
146.0286897864631
 21
10.21274952939981
 31
0.0
  0
SPLINE
  5
5670B
330
1F
100
AcDbEntity
  8
1
100
AcDbSpline
210
0.0
220
0.0
230
1.0
 70
     8
 71
     3
 72
    60
 73
    56
 74
    54
 42
0.0000000001
 43
0.0000000001
 44
0.000001
 12
0.0617078449968049
 22
0.9980942550009244
 32
0.0
 13
0.0007198759664901
 23
0.9999997408892628
 33
0.0
 40
0.0
 40
0.0
 40
0.0
 40
0.0
 40
0.0432744837885932
 40
0.0823935686413708
 40
0.117753275128666
 40
0.1497220396493156
 40
0.178667736125607
 40
0.2049579182663405
 40
0.2289612973591754
 40
0.2510367030538518
 40
0.2714400706075915
 40
0.2902279561845108
 40
0.3074326456797626
 40
0.323088814384723
 40
0.3372401682802951
 40
0.349991265494681
 40
0.3615097087537369
 40
0.3719613084208726
 40
0.3814767611587875
 40
0.3900733407339416
 40
0.3977667556746879
 40
0.4047613026780376
 40
0.4113991159087026
 40
0.4179911797457342
 40
0.4246423719515261
 40
0.4312995505542793
 40
0.4379259624950536
 40
0.4445326626112591
 40
0.4513306213811464
 40
0.4586060647179321
 40
0.4666431659472768
 40
0.4757432275953821
 40
0.4862224114175458
 40
0.4982100138526698
 40
0.5109769144586024
 40
0.5237251080617603
 40
0.536408589982857
 40
0.5491335174157696
 40
0.5618998155987982
 40
0.5746609883569415
 40
0.587316263397412
 40
0.600032276931248
 40
0.6133728508367442
 40
0.6279311261331618
 40
0.6442952238062852
 40
0.6630490617362462
 40
0.6845048964668745
 40
0.7072608473498607
 40
0.7296861738991275
 40
0.7517301393963764
 40
0.7738938224330393
 40
0.7970569753997036
 40
0.8221667547043782
 40
0.8501715043166797
 40
0.8820608283995865
 40
0.8820608283995865
 40
0.8820608283995865
 40
0.8820608283995865
 10
146.0286897864631
 20
10.21274952939981
 30
0.0
 10
146.0295799115091
 20
10.22714686728565
 30
0.0
 10
146.0312614010585
 20
10.25455986944641
 30
0.0
 10
146.033648996285
 20
10.29373828187968
 30
0.0
 10
146.0357558531616
 20
10.3291582121511
 30
0.0
 10
146.03760410946
 20
10.36119635352963
 30
0.0
 10
146.0392172363186
 20
10.39021979717242
 30
0.0
 10
146.0406231040276
 20
10.41659546592458
 30
0.0
 10
146.0418499396621
 20
10.44068726097541
 30
0.0
 10
146.0429234104326
 20
10.46282198540092
 30
0.0
 10
146.0438629541696
 20
10.48322260147765
 30
0.0
 10
146.044682351396
 20
10.50200340060647
 30
0.0
 10
146.0453920918152
 20
10.51920502831893
 30
0.0
 10
146.0460024796094
 20
10.5348638865324
 30
0.0
 10
146.046524437017
 20
10.54904049797719
 30
0.0
 10
146.0469697402916
 20
10.56183972687839
 30
0.0
 10
146.0473503418048
 20
10.5734071868994
 30
0.0
 10
146.0476770522092
 20
10.58389727071565
 30
0.0
 10
146.0479578785408
 20
10.59341434296348
 30
0.0
 10
146.0481985549432
 20
10.6020127940574
 30
0.0
 10
146.0484049443199
 20
10.609771565584
 30
0.0
 10
146.0485849267503
 20
10.61687788021706
 30
0.0
 10
146.0487475376908
 20
10.62361739499943
 30
0.0
 10
146.0488995807355
 20
10.63024267524983
 30
0.0
 10
146.0490438437181
 20
10.6368745862018
 30
0.0
 10
146.0491802876769
 20
10.64351811444163
 30
0.0
 10
146.0493083573691
 20
10.65014697592946
 30
0.0
 10
146.0494291855133
 20
10.65682290784877
 30
0.0
 10
146.0495453455358
 20
10.66371529832227
 30
0.0
 10
146.0496598226981
 20
10.6710845792866
 30
0.0
 10
146.0497744225312
 20
10.67922131087047
 30
0.0
 10
146.0498889318024
 20
10.68842605226723
 30
0.0
 10
146.0499997327841
 20
10.69894775893306
 30
0.0
 10
146.0500971112998
 20
10.71069192909752
 30
0.0
 10
146.0501690630905
 20
10.7231926354323
 30
0.0
 10
146.0502078800904
 20
10.73592545222354
 30
0.0
 10
146.050211195395
 20
10.74864433187585
 30
0.0
 10
146.0501907449319
 20
10.76136922155837
 30
0.0
 10
146.0501582529037
 20
10.77411997968525
 30
0.0
 10
146.0501267814032
 20
10.78684752347155
 30
0.0
 10
146.0501065055543
 20
10.79955832913143
 30
0.0
 10
146.050092635208
 20
10.81246227603978
 30
0.0
 10
146.0500822743538
 20
10.82600055973378
 30
0.0
 10
146.0500708586233
 20
10.84075487094944
 30
0.0
 10
146.050055340626
 20
10.85731360069383
 30
0.0
 10
146.0500373284071
 20
10.8761715155326
 30
0.0
 10
146.0500205758892
 20
10.89716005018471
 30
0.0
 10
146.0500075565823
 20
10.91937241721578
 30
0.0
 10
146.0499974969087
 20
10.94178082931199
 30
0.0
 10
146.0499901874656
 20
10.96399181987024
 30
0.0
 10
146.0499861028532
 20
10.98644875341975
 30
0.0
 10
146.0499856982713
 20
11.00992762531618
 30
0.0
 10
146.049989910521
 20
11.03535351902317
 30
0.0
 10
146.0499995708593
 20
11.06368813537699
 30
0.0
 10
146.0500128768434
 20
11.08365282245984
 30
0.0
 10
146.0500205289628
 20
11.09428259439986
 30
0.0
 11
146.0286897864631
 21
10.21274952939981
 31
0.0
 11
146.0313442090629
 21
10.25594255279983
 31
0.0
 11
146.0337162809629
 21
10.29498965369984
 31
0.0
 11
146.035812925763
 21
10.33028714659983
 31
0.0
 11
146.037651406563
 21
10.3622030043999
 31
0.0
 11
146.039255888763
 21
10.39110419919981
 31
0.0
 11
146.040653825563
 21
10.41735718989989
 31
0.0
 11
146.0418735481631
 21
10.44132956039985
 31
0.0
 11
146.042942099163
 21
10.46337909079986
 31
0.0
 11
146.0438801667629
 21
10.48376088379981
 31
0.0
 11
146.0446986289631
 21
10.50253093459983
 31
0.0
 11
146.0454075422632
 21
10.5197210136998
 31
0.0
 11
146.0460171033629
 21
10.53536531249986
 31
0.0
 11
146.0465375906629
 21
10.54950709229982
 31
0.0
 11
146.0469808163631
 21
10.56225048479982
 31
0.0
 11
146.0473595024629
 21
10.5737627021999
 31
0.0
 11
146.0476847847632
 21
10.58420923949981
 31
0.0
 11
146.0479653876629
 21
10.59372055459985
 31
0.0
 11
146.048205878763
 21
10.60231377019985
 31
0.0
 11
146.048410429663
 21
10.61000446589989
 31
0.0
 11
146.048587504163
 21
10.6169967715999
 31
0.0
 11
146.0487475975629
 21
10.62363265439987
 31
0.0
 11
146.0488988211628
 21
10.63022298389987
 31
0.0
 11
146.0490434548629
 21
10.6368726037999
 31
0.0
 11
146.0491801445629
 21
10.64352837939984
 31
0.0
 11
146.0493081344631
 21
10.65015355559987
 31
0.0
 11
146.0494276802629
 21
10.65675917449985
 31
0.0
 11
146.0495422202631
 21
10.66355616869984
 31
0.0
 11
146.049655208763
 21
10.67083073509988
 31
0.0
 11
146.0497683675631
 21
10.67886704019983
 31
0.0
 11
146.049881521663
 21
10.68796639889981
 31
0.0
 11
146.049991790563
 21
10.69844500319985
 31
0.0
 11
146.0500910508632
 21
10.71043219539987
 31
0.0
 11
146.0501643343631
 21
10.7231988863999
 31
0.0
 11
146.0502030072631
 21
10.73594702199986
 31
0.0
 11
146.050208249863
 21
10.74863050339988
 31
0.0
 11
146.050189774363
 21
10.76135541789986
 31
0.0
 11
146.050159409263
 21
10.77412168039981
 31
0.0
 11
146.050129568263
 21
10.78688281869981
 31
0.0
 11
146.0501086325631
 21
10.79953807689989
 31
0.0
 11
146.0500944993629
 21
10.81225408309987
 31
0.0
 11
146.0500835670631
 21
10.82559465309984
 31
0.0
 11
146.0500719509629
 21
10.84015292439986
 31
0.0
 11
146.0500570413629
 21
10.85651701599985
 31
0.0
 11
146.0500396463629
 21
10.87527084669986
 31
0.0
 11
146.0500226577629
 21
10.89672667569985
 31
0.0
 11
146.0500090161628
 21
10.91948262359986
 31
0.0
 11
146.0499988915632
 21
10.94190794899984
 31
0.0
 11
146.049991739963
 21
10.96395191449986
 31
0.0
 11
146.049987758263
 21
10.98611559839989
 31
0.0
 11
146.0499873870632
 21
11.00927875269977
 31
0.0
 11
146.0499914441631
 21
11.03438853319986
 31
0.0
 11
146.0500015502631
 21
11.06239328279983
 31
0.0
 11
146.0500205289628
 21
11.09428259439986
 31
0.0
  0
SPLINE
  5
5670C
330
1F
100
AcDbEntity
  8
1
100
AcDbSpline
210
0.0
220
0.0
230
1.0
 70
     8
 71
     3
 72
    24
 73
    20
 74
     0
 42
0.0000000001
 43
0.0000000001
 40
0.487899064237684
 40
0.487899064237684
 40
0.487899064237684
 40
0.487899064237684
 40
0.5236648418388775
 40
0.5835404063895357
 40
0.6444439463131654
 40
0.7040897320836934
 40
0.7608884892163328
 40
0.8216121935209883
 40
0.8882564964476815
 40
0.9612742288492087
 40
1.041211352954175
 40
1.128859641138297
 40
1.225085230503133
 40
1.330891753639384
 40
1.447414246610523
 40
1.576366815720263
 40
1.719812078603109
 40
1.879584516116304
 40
2.058034587852425
 40
2.058034587852425
 40
2.058034587852425
 40
2.058034587852425
 10
141.2753134323312
 20
12.25507676184762
 30
0.0
 10
141.2693539829589
 20
12.25494244024676
 30
0.0
 10
141.2534178152433
 20
12.25458287083952
 30
0.0
 10
141.2273336747081
 20
12.25399280983643
 30
0.0
 10
141.1972705921663
 20
12.25331091084516
 30
0.0
 10
141.1677202143643
 20
12.25263908300954
 30
0.0
 10
141.1381998375683
 20
12.2519663484176
 30
0.0
 10
141.1075133827395
 20
12.25126534169536
 30
0.0
 10
141.0741245175655
 20
12.25050053831839
 30
0.0
 10
141.0375343140173
 20
12.24965985297567
 30
0.0
 10
140.9974444426417
 20
12.24873559589034
 30
0.0
 10
140.9534877135439
 20
12.24771825159828
 30
0.0
 10
140.9052206866782
 20
12.24659621103998
 30
0.0
 10
140.8521427367915
 20
12.24535612026037
 30
0.0
 10
140.7936119652182
 20
12.24398065084315
 30
0.0
 10
140.7288100222043
 20
12.24244845188306
 30
0.0
 10
140.6568020266883
 20
12.24073500664158
 30
0.0
 10
140.5765470738384
 20
12.23881308500219
 30
0.0
 10
140.5201930391632
 20
12.23745409343573
 30
0.0
 10
140.4904600560632
 20
12.23673495279988
 30
0.0
  0
SPLINE
  5
5670D
330
1F
100
AcDbEntity
  8
1
100
AcDbSpline
210
0.0
220
0.0
230
1.0
 70
     8
 71
     3
 72
    15
 73
    11
 74
     9
 42
0.0000000001
 43
0.0000000001
 44
0.000001
 12
-0.9996952981782623
 22
-0.0246842216866443
 32
0.0
 13
-0.9996437941717914
 23
-0.0266886637699441
 33
0.0
 40
0.0
 40
0.0
 40
0.0
 40
0.0
 40
0.1282896066431957
 40
0.2566918152153812
 40
0.3852058623263814
 40
0.51381866076574
 40
0.6425190924699951
 40
0.7713050421614153
 40
0.900181115469423
 40
1.029150374371223
 40
1.029150374371223
 40
1.029150374371223
 40
1.029150374371223
 10
140.4904600560632
 20
12.23673495279988
 30
0.0
 10
140.4477098838744
 20
12.23567937643639
 30
0.0
 10
140.3621723649486
 20
12.23355318673717
 30
0.0
 10
140.2338109816492
 20
12.23032556823406
 30
0.0
 10
140.1053428571874
 20
12.22705745817231
 30
0.0
 10
139.9767762850169
 20
12.22375056238692
 30
0.0
 10
139.8481199332481
 20
12.22040944305541
 30
0.0
 10
139.7193766087613
 20
12.21703706402871
 30
0.0
 10
139.5905444417797
 20
12.21363436933663
 30
0.0
 10
139.5046264071295
 20
12.21134822406236
 30
0.0
 10
139.4616519673628
 20
12.21020088499986
 30
0.0
 11
140.4904600560632
 21
12.23673495279988
 31
0.0
 11
140.362210014763
 21
12.23354886569981
 31
0.0
 11
140.2338483777631
 21
12.2303212155999
 31
0.0
 11
140.1053758859631
 21
12.22705325859985
 31
0.0
 11
139.9768055871628
 21
12.22374700269981
 31
0.0
 11
139.848148530763
 21
12.2204057097999
 31
0.0
 11
139.7194067665629
 21
12.21703265639982
 31
0.0
 11
139.590575615263
 21
12.21363044919982
 31
0.0
 11
139.4616519673628
 21
12.21020088499986
 31
0.0
  0
SPLINE
  5
5670E
330
1F
100
AcDbEntity
  8
1
100
AcDbSpline
210
0.0
220
0.0
230
1.0
 70
     8
 71
     3
 72
    15
 73
    11
 74
     9
 42
0.0000000001
 43
0.0000000001
 44
0.000001
 12
-0.9996187572485514
 22
-0.0276105080877133
 32
0.0
 13
-0.9995738757846492
 23
-0.0291901841182039
 33
0.0
 40
0.0
 40
0.0
 40
0.0
 40
0.0
 40
0.1283354155426486
 40
0.2567728937128316
 40
0.3853058315790946
 40
0.5139331379644128
 40
0.6426564717716863
 40
0.7714747182649058
 40
0.9003824744936189
 40
1.029374071479053
 40
1.029374071479053
 40
1.029374071479053
 40
1.029374071479053
 10
139.4616519673628
 20
12.21020088499986
 30
0.0
 10
139.4188898044975
 20
12.20901974965693
 30
0.0
 10
139.3333317916111
 20
12.20664491355927
 30
0.0
 10
139.2049468634344
 20
12.20304895013098
 30
0.0
 10
139.0764655353215
 20
12.19941973002596
 30
0.0
 10
138.9478897590047
 20
12.19575965149286
 30
0.0
 10
138.8192196196263
 20
12.19207231919165
 30
0.0
 10
138.6904566888312
 20
12.18835957790466
 30
0.0
 10
138.5616049793897
 20
12.18462333141863
 30
0.0
 10
138.4756750077105
 20
12.1821191892551
 30
0.0
 10
138.432696130863
 20
12.18086409309987
 30
0.0
 11
139.4616519673628
 21
12.21020088499986
 31
0.0
 11
139.3333659379628
 21
12.20664077439986
 31
0.0
 11
139.204978815363
 21
12.20304438379983
 31
0.0
 11
139.076497129863
 21
12.19941492889981
 31
0.0
 11
138.9479218919629
 21
12.19575547579981
 31
0.0
 11
138.8192513739628
 21
12.19206844129982
 31
0.0
 11
138.6904866361629
 21
12.18835595369987
 31
0.0
 11
138.5616330232629
 21
12.18462030839984
 31
0.0
 11
138.432696130863
 21
12.18086409309987
 31
0.0
  0
SPLINE
  5
5670F
330
1F
100
AcDbEntity
  8
1
100
AcDbSpline
210
0.0
220
0.0
230
1.0
 70
     8
 71
     3
 72
    15
 73
    11
 74
     9
 42
0.0000000001
 43
0.0000000001
 44
0.000001
 12
-0.9995341523545667
 22
-0.0305201290435991
 32
0.0
 13
-0.9994985880247446
 23
-0.0316634258497375
 33
0.0
 40
0.0
 40
0.0
 40
0.0
 40
0.0
 40
0.1283545482250002
 40
0.2568116738954782
 40
0.3853670982437238
 40
0.5140174891475491
 40
0.6427625600596603
 40
0.7716018809101745
 40
0.9005310218899616
 40
1.029539878204208
 40
1.029539878204208
 40
1.029539878204208
 40
1.029539878204208
 10
138.432696130863
 20
12.18086409309987
 30
0.0
 10
138.389931212676
 20
12.17955829397482
 30
0.0
 10
138.3043674784277
 20
12.17693651796986
 30
0.0
 10
138.1759728113784
 20
12.17297717890943
 30
0.0
 10
138.0474802861413
 20
12.1689918716057
 30
0.0
 10
137.9188924665592
 20
12.16498297069685
 30
0.0
 10
137.7902106421703
 20
12.1609525188982
 30
0.0
 10
137.6614364441766
 20
12.15690330717822
 30
0.0
 10
137.5325748042975
 20
12.15283726591161
 30
0.0
 10
137.4466384844726
 20
12.15011797218517
 30
0.0
 10
137.4036570945631
 20
12.14875635139989
 30
0.0
 11
138.432696130863
 21
12.18086409309987
 31
0.0
 11
138.3044017688631
 21
12.17693378499982
 31
0.0
 11
138.176005670363
 21
12.1729744836999
 31
0.0
 11
138.0475120388629
 21
12.16898893309982
 31
0.0
 11
137.918924127663
 21
12.1649798917999
 31
0.0
 11
137.7902421491632
 21
12.16094986369987
 31
0.0
 11
137.6614664659629
 21
12.15690100499986
 31
0.0
 11
137.532601440963
 21
12.15283557349986
 31
0.0
 11
137.4036570945631
 21
12.14875635139989
 31
0.0
  0
SPLINE
  5
56710
330
1F
100
AcDbEntity
  8
1
100
AcDbSpline
210
0.0
220
0.0
230
1.0
 70
     8
 71
     3
 72
    65
 73
    61
 74
     0
 42
0.0000000001
 43
0.0000000001
 40
0.9419477497939141
 40
0.9419477497939141
 40
0.9419477497939141
 40
0.9419477497939141
 40
1.18325501640758
 40
1.36448006477373
 40
1.547973306492441
 40
1.733955933042738
 40
1.91932492568833
 40
2.100146633509103
 40
2.187622997150551
 40
2.272487439531325
 40
2.354634843873518
 40
2.435514156910338
 40
2.516960783854464
 40
2.600810153758548
 40
2.68889774845452
 40
2.783059119494629
 40
2.885129886638043
 40
2.996945727104926
 40
3.047118671259485
 40
3.072569920303745
 40
3.098048858233416
 40
3.148676789993535
 40
3.199169925868345
 40
3.249766715896661
 40
3.300310614597601
 40
3.350632794626609
 40
3.375931600850294
 40
3.401469416971781
 40
3.427247291820325
 40
3.452971419375818
 40
3.478239089882622
 40
3.502647499567276
 40
3.574757492423596
 40
3.637601219467498
 40
3.695479133018868
 40
3.752691587595001
 40
3.812631083798102
 40
3.87505336605219
 40
3.938806233820863
 40
4.002737481348662
 40
4.128473863578824
 40
4.252784712384696
 40
4.377617852860025
 40
4.502833392692362
 40
4.627909176444532
 40
4.752883442657235
 40
5.002934766993358
 40
5.252988149918849
 40
5.503042812872905
 40
5.753098964661754
 40
6.00315669723973
 40
6.253215100372284
 40
6.503276845562252
 40
6.753342553412742
 40
7.00340989561648
 40
7.253471114100201
 40
7.50352521845234
 40
7.753585627883567
 40
8.003668049512281
 40
8.25375722195819
 40
8.25375722195819
 40
8.25375722195819
 40
8.25375722195819
 10
141.2753134510763
 20
-12.25507626998606
 30
0.0
 10
141.315504062694
 20
-12.25655697579472
 30
0.0
 10
141.3858787593991
 20
-12.25913917191499
 30
0.0
 10
141.4868166632942
 20
-12.2627998485539
 30
0.0
 10
141.5785413538266
 20
-12.2660847014221
 30
0.0
 10
141.6709579984582
 20
-12.26934529577747
 30
0.0
 10
141.7629302480478
 20
-12.27257350815503
 30
0.0
 10
141.8384945032984
 20
-12.2752369190284
 30
0.0
 10
141.8973175694697
 20
-12.27733356139694
 30
0.0
 10
141.9397047916878
 20
-12.2788601450454
 30
0.0
 10
141.9809924597481
 20
-12.28036803823195
 30
0.0
 10
142.0217106585474
 20
-12.28186092590371
 30
0.0
 10
142.0627127235626
 20
-12.28335341634837
 30
0.0
 10
142.1049163493149
 20
-12.28486265478042
 30
0.0
 10
142.1492392219132
 20
-12.28640589963007
 30
0.0
 10
142.1965990126469
 20
-12.2880006413703
 30
0.0
 10
142.2479133940638
 20
-12.28966441597313
 30
0.0
 10
142.2919019646687
 20
-12.29103525496671
 30
0.0
 10
142.3231276565853
 20
-12.29198155686723
 30
0.0
 10
142.3399717174296
 20
-12.29244863441684
 30
0.0
 10
142.3568926843574
 20
-12.29287641293527
 30
0.0
 10
142.377988442112
 20
-12.29330711495507
 30
0.0
 10
142.4032721772543
 20
-12.29367583070964
 30
0.0
 10
142.4285434168863
 20
-12.29391859544765
 30
0.0
 10
142.4537870369719
 20
-12.29403827052297
 30
0.0
 10
142.4748146285995
 20
-12.29403461756939
 30
0.0
 10
142.4916742755355
 20
-12.29395745238727
 30
0.0
 10
142.5044430046629
 20
-12.2938593502864
 30
0.0
 10
142.5172822291193
 20
-12.29371935660359
 30
0.0
 10
142.5300760503424
 20
-12.29354911278997
 30
0.0
 10
142.5426413364036
 20
-12.29336023703573
 30
0.0
 10
142.5629363792428
 20
-12.29303306069712
 30
0.0
 10
142.5894929097613
 20
-12.29258178801083
 30
0.0
 10
142.6216261036321
 20
-12.29199159132682
 30
0.0
 10
142.6512762326023
 20
-12.29141761715411
 30
0.0
 10
142.6804422893216
 20
-12.2908466801849
 30
0.0
 10
142.7103659364339
 20
-12.29027852266765
 30
0.0
 10
142.741379640495
 20
-12.28969955397409
 30
0.0
 10
142.7730585980004
 20
-12.28911233166124
 30
0.0
 10
142.8152880576523
 20
-12.28832762322267
 30
0.0
 10
142.8676084410932
 20
-12.2873376766648
 30
0.0
 10
142.9300769939601
 20
-12.28613848772156
 30
0.0
 10
142.992458675205
 20
-12.28493677946139
 30
0.0
 10
143.0549676758738
 20
-12.283725045517
 30
0.0
 10
143.1174999776657
 20
-12.28250178950284
 30
0.0
 10
143.2008339999821
 20
-12.28085818196987
 30
0.0
 10
143.3049931277934
 20
-12.27878135615376
 30
0.0
 10
143.4299940587303
 20
-12.27624977854262
 30
0.0
 10
143.5549950264013
 20
-12.27368056157471
 30
0.0
 10
143.6799959250808
 20
-12.27107299252518
 30
0.0
 10
143.8049966415238
 20
-12.26842708024074
 30
0.0
 10
143.9299974699851
 20
-12.26574268970282
 30
0.0
 10
144.054998814283
 20
-12.2630206776715
 30
0.0
 10
144.1800008401243
 20
-12.2602617813466
 30
0.0
 10
144.305001940911
 20
-12.25746519584155
 30
0.0
 10
144.4300001755449
 20
-12.25462725269719
 30
0.0
 10
144.554996276058
 20
-12.25174654615196
 30
0.0
 10
144.6799950416826
 20
-12.24882839423517
 30
0.0
 10
144.8049990335427
 20
-12.2458838022504
 30
0.0
 10
144.8883372577437
 20
-12.24389573407066
 30
0.0
 10
144.930006785063
 20
-12.24289556850019
 30
0.0
  0
SPLINE
  5
56711
330
1F
100
AcDbEntity
  8
1
100
AcDbSpline
210
0.0
220
0.0
230
1.0
 70
     8
 71
     3
 72
    65
 73
    61
 74
    59
 42
0.0000000001
 43
0.0000000001
 44
0.000001
 12
0.9993200971720089
 22
0.0368692743097341
 32
0.0
 13
0.9997120686114714
 23
-0.0239954135736991
 33
0.0
 40
0.0
 40
0.0
 40
0.0
 40
0.0
 40
0.1206536181303887
 40
0.2112661423199734
 40
0.3030127630153132
 40
0.3960040761773749
 40
0.4886885726174382
 40
0.579099426825871
 40
0.6228376088411531
 40
0.6652698302473056
 40
0.7063435326433904
 40
0.746783189356129
 40
0.7875065029627408
 40
0.8294311879762968
 40
0.8734749853094706
 40
0.9205556707415288
 40
0.9715910541598766
 40
1.027498974185738
 40
1.052585446149964
 40
1.06531107059223
 40
1.078050539454041
 40
1.103364505060528
 40
1.128611072669644
 40
1.153909467330306
 40
1.179181416322598
 40
1.204342505992045
 40
1.216991908943296
 40
1.229760816855589
 40
1.242649754148547
 40
1.255511817813218
 40
1.268145652969087
 40
1.280349857725569
 40
1.316404853918898
 40
1.347826717266513
 40
1.376765673898575
 40
1.405371901044402
 40
1.435341648974622
 40
1.466552789899927
 40
1.498429223560101
 40
1.530394847086565
 40
1.593263037713248
 40
1.655418461594108
 40
1.717835031247625
 40
1.780442800508818
 40
1.842980691656311
 40
1.905467823945029
 40
2.030493484152749
 40
2.155520173061035
 40
2.280547501109039
 40
2.405575572211329
 40
2.530604431420715
 40
2.655633621642765
 40
2.78066447360189
 40
2.905697280513155
 40
3.030730762208337
 40
3.155761157879
 40
3.28078852843516
 40
3.405818797500218
 40
3.530860026909937
 40
3.655904708460957
 40
3.655904708460957
 40
3.655904708460957
 40
3.655904708460957
 10
141.275313431663
 20
12.25507679149982
 30
0.0
 10
141.3155039601278
 20
12.25655959528092
 30
0.0
 10
141.3858788070048
 20
12.25913759841523
 30
0.0
 10
141.4868166565769
 20
12.26279960421999
 30
0.0
 10
141.5785413590775
 20
12.26608413137589
 30
0.0
 10
141.6709580003688
 20
12.26934481451425
 30
0.0
 10
141.7629302509421
 20
12.27257300304737
 30
0.0
 10
141.8384945061883
 20
12.27523641953141
 30
0.0
 10
141.8973175726216
 20
12.27733306120021
 30
0.0
 10
141.9397047950468
 20
12.27885964498344
 30
0.0
 10
141.9809924633204
 20
12.28036753813668
 30
0.0
 10
142.0217106623039
 20
12.28186042581822
 30
0.0
 10
142.0627127274493
 20
12.28335291626158
 30
0.0
 10
142.1049163532619
 20
12.28486215469459
 30
0.0
 10
142.1492392258466
 20
12.28640539954435
 30
0.0
 10
142.1965990164948
 20
12.2880001412841
 30
0.0
 10
142.2479133977622
 20
12.28966391588594
 30
0.0
 10
142.2919019682089
 20
12.29103475487846
 30
0.0
 10
142.3231276599921
 20
12.29198105677793
 30
0.0
 10
142.3399717207377
 20
12.29244813432703
 30
0.0
 10
142.3568926875131
 20
12.29287591284409
 30
0.0
 10
142.3779884450332
 20
12.29330661486276
 30
0.0
 10
142.4032721798566
 20
12.29367533061557
 30
0.0
 10
142.4285434191421
 20
12.29391809535175
 30
0.0
 10
142.4537870388756
 20
12.2940377704254
 30
0.0
 10
142.4748146302152
 20
12.29403411747069
 30
0.0
 10
142.491674276933
 20
12.29395695228771
 30
0.0
 10
142.5044430059138
 20
12.29385885018632
 30
0.0
 10
142.517282230239
 20
12.29371885650329
 30
0.0
 10
142.5300760513482
 20
12.2935486126884
 30
0.0
 10
142.5426413373103
 20
12.29335973693696
 30
0.0
 10
142.5629363800101
 20
12.29303256058003
 30
0.0
 10
142.5894929103668
 20
12.29258128808882
 30
0.0
 10
142.6216261040492
 20
12.29199109118286
 30
0.0
 10
142.651276232867
 20
12.29141711706197
 30
0.0
 10
142.6804422894338
 20
12.29084618007903
 30
0.0
 10
142.7103659363742
 20
12.29027802256544
 30
0.0
 10
142.7413796402363
 20
12.28969905387032
 30
0.0
 10
142.7730585975205
 20
12.28911183155728
 30
0.0
 10
142.8152880568558
 20
12.28832712311828
 30
0.0
 10
142.8676084398805
 20
12.28733717656044
 30
0.0
 10
142.9300769922157
 20
12.28613798761836
 30
0.0
 10
142.9924586728738
 20
12.28493627935515
 30
0.0
 10
143.0549676728866
 20
12.28372454542437
 30
0.0
 10
143.1174999739436
 20
12.2825012893652
 30
0.0
 10
143.2008339950956
 20
12.28085768207063
 30
0.0
 10
143.3049931211235
 20
12.27878085598601
 30
0.0
 10
143.4299940494162
 20
12.2762492785578
 30
0.0
 10
143.5549950134883
 20
12.27368006131496
 30
0.0
 10
143.6799959070925
 20
12.27107249343407
 30
0.0
 10
143.8049966157065
 20
12.26842657724782
 30
0.0
 10
143.9299974314961
 20
12.26574220219555
 30
0.0
 10
144.0549987481943
 20
12.2630201346131
 30
0.0
 10
144.180000693192
 20
12.26026145260511
 30
0.0
 10
144.3050016263904
 20
12.25746409417726
 30
0.0
 10
144.4299999031079
 20
12.25462924914015
 30
0.0
 10
144.5549960466119
 20
12.25174794583844
 30
0.0
 10
144.6799949446559
 20
12.2488297451151
 30
0.0
 10
144.8049990158163
 20
12.24588598284089
 30
0.0
 10
144.8883372259755
 20
12.24389573478285
 30
0.0
 10
144.930006785063
 20
12.24289556849984
 30
0.0
 11
141.275313431663
 21
12.25507679149982
 31
0.0
 11
141.3958860800631
 21
12.2594970952999
 31
0.0
 11
141.486439120563
 21
12.26277983909986
 31
0.0
 11
141.5781270033632
 21
12.26606230849981
 31
0.0
 11
141.6710603013631
 21
12.26934658759987
 31
0.0
 11
141.7636875779632
 21
12.27260288969987
 31
0.0
 11
141.8540421169629
 21
12.27579346809986
 31
0.0
 11
141.8977525109632
 21
12.27735231509982
 31
0.0
 11
141.9401572018629
 21
12.27888057619984
 31
0.0
 11
141.9812036271629
 21
12.28037723119982
 31
0.0
 11
142.0216162301632
 21
12.28185619509983
 31
0.0
 11
142.0623126815632
 21
12.28333508009981
 31
0.0
 11
142.104210652163
 21
12.28483149819985
 31
0.0
 11
142.148227812463
 21
12.28636306139989
 31
0.0
 11
142.1952818333631
 21
12.28794738189989
 31
0.0
 11
142.2462903854631
 21
12.28960207169982
 31
0.0
 11
142.3021711393631
 21
12.29134474279985
 31
0.0
 11
142.327246461963
 21
12.29209259389981
 31
0.0
 11
142.339967238663
 21
12.29244382149986
 31
0.0
 11
142.3527026817629
 21
12.29276407149981
 31
0.0
 11
142.378011319263
 21
12.29328344059982
 31
0.0
 11
142.403255150663
 21
12.29365516369987
 31
0.0
 11
142.4285523740628
 21
12.29389865569985
 31
0.0
 11
142.4538240408629
 21
12.29401820029986
 31
0.0
 11
142.4789851296629
 21
12.2940098181999
 31
0.0
 11
142.4916343989631
 21
12.29395161739987
 31
0.0
 11
142.504402928863
 21
12.29385333659988
 31
0.0
 11
142.5172911195628
 21
12.29371459229989
 31
0.0
 11
142.5301520635631
 21
12.29354487099985
 31
0.0
 11
142.5427844907632
 21
12.29335625169986
 31
0.0
 11
142.5549871306631
 21
12.29316081349984
 31
0.0
 11
142.5910369057629
 21
12.2925472270999
 31
0.0
 11
142.6224534943631
 21
12.2919714917999
 31
0.0
 11
142.651387098463
 21
12.29141491759989
 31
0.0
 11
142.6799879199631
 21
12.29085881439985
 31
0.0
 11
142.7099522399631
 21
12.29028843689988
 31
0.0
 11
142.741157925063
 21
12.2897048694999
 31
0.0
 11
142.773028866363
 21
12.28911314209981
 31
0.0
 11
142.8049889547629
 21
12.28851828439977
 31
0.0
 11
142.8678459296631
 21
12.28733077699982
 31
0.0
 11
142.929989945963
 21
12.28613996489989
 31
0.0
 11
142.9923949275631
 21
12.28493724919983
 31
0.0
 11
143.054990926363
 21
12.28372324669985
 31
0.0
 11
143.1175168592632
 21
12.28250027919986
 31
0.0
 11
143.1799918457628
 21
12.28126825649983
 31
0.0
 11
143.3049926521631
 21
12.27877533429986
 31
0.0
 11
143.4299937163629
 21
12.27624401229988
 31
0.0
 11
143.554994645163
 21
12.27367467709982
 31
0.0
 11
143.6799955268631
 21
12.2710671095999
 31
0.0
 11
143.804996392863
 21
12.26842117279986
 31
0.0
 11
143.9299967776629
 21
12.26573693619988
 31
0.0
 11
144.054998019763
 21
12.26301505009982
 31
0.0
 11
144.1800004290632
 21
12.26025600549982
 31
0.0
 11
144.305002807063
 21
12.25745877249986
 31
0.0
 11
144.4300011994629
 21
12.25462059389983
 31
0.0
 11
144.554995082963
 21
12.25174084329987
 31
0.0
 11
144.6799912735629
 21
12.24882459629984
 31
0.0
 11
144.8049977639631
 21
12.24587809369981
 31
0.0
 11
144.930006785063
 21
12.24289556849984
 31
0.0
  0
SPLINE
  5
56712
330
1F
100
AcDbEntity
  8
1
100
AcDbSpline
210
0.0
220
0.0
230
1.0
 70
     8
 71
     3
 72
    30
 73
    26
 74
    24
 42
0.0000000001
 43
0.0000000001
 44
0.000001
 12
0.5215181867291584
 22
0.8532401660205238
 32
0.0
 13
0.4780875323105111
 23
0.8783121947515281
 33
0.0
 40
0.0
 40
0.0
 40
0.0
 40
0.0
 40
0.0022065053235961
 40
0.0043931567899198
 40
0.0065602879747212
 40
0.0087081556901401
 40
0.0108374657359334
 40
0.0129483876021594
 40
0.0150412107360573
 40
0.0171166279682062
 40
0.0191756102856036
 40
0.021219158144872
 40
0.0232479414647023
 40
0.0252629323674541
 40
0.0272649230446178
 40
0.0292544591247416
 40
0.0312324827989804
 40
0.0331999036153405
 40
0.0351576626761321
 40
0.0371065129093317
 40
0.0390472471695012
 40
0.040980591555978
 40
0.0429073498683344
 40
0.0448283705386163
 40
0.0466620072689272
 40
0.0466620072689272
 40
0.0466620072689272
 40
0.0466620072689272
 10
145.824093791463
 20
-11.82037614800018
 30
0.0
 10
145.8244773690148
 20
-11.81974858834397
 30
0.0
 10
145.8252397289482
 20
-11.81849829379459
 30
0.0
 10
145.8263741187209
 20
-11.81662877571261
 30
0.0
 10
145.8274943584328
 20
-11.81477354014208
 30
0.0
 10
145.8286007364848
 20
-11.81293226851488
 30
0.0
 10
145.8296935111313
 20
-11.81110468745396
 30
0.0
 10
145.8307729443323
 20
-11.80929051287711
 30
0.0
 10
145.8318392943066
 20
-11.80748946319662
 30
0.0
 10
145.8328929528386
 20
-11.80570102513601
 30
0.0
 10
145.8339344273516
 20
-11.80392447818943
 30
0.0
 10
145.8349642155293
 20
-11.80215910473464
 30
0.0
 10
145.8359828096233
 20
-11.80040418330631
 30
0.0
 10
145.8369906615176
 20
-11.7986590490606
 30
0.0
 10
145.8379881970244
 20
-11.79692306974712
 30
0.0
 10
145.8389758321579
 20
-11.7951956188181
 30
0.0
 10
145.8399539972922
 20
-11.79347603272023
 30
0.0
 10
145.8409231821239
 20
-11.79176352985018
 30
0.0
 10
145.8418838389711
 20
-11.79005737983212
 30
0.0
 10
145.8428363951609
 20
-11.78835688277314
 30
0.0
 10
145.8437812374465
 20
-11.78666139813526
 30
0.0
 10
145.8447187554846
 20
-11.78497026755599
 30
0.0
 10
145.8456493424011
 20
-11.78328281335757
 30
0.0
 10
145.846560179628
 20
-11.78162242799121
 30
0.0
 10
145.8471597157098
 20
-11.78052381846711
 30
0.0
 10
145.8474519286629
 20
-11.77998698330012
 30
0.0
 11
145.824093791463
 21
-11.82037614800018
 31
0.0
 11
145.825242468063
 21
-11.81849221990015
 31
0.0
 11
145.826376748863
 21
-11.81662278410013
 31
0.0
 11
145.827496880063
 21
-11.81476760830017
 31
0.0
 11
145.8286030662631
 21
-11.81292652490018
 31
0.0
 11
145.829695740363
 21
-11.81109897980016
 31
0.0
 11
145.830775056363
 21
-11.80928487710017
 31
0.0
 11
145.831841228263
 21
-11.80748401710016
 31
0.0
 11
145.832894672263
 21
-11.80569585110018
 31
0.0
 11
145.8339359401631
 21
-11.80391958750013
 31
0.0
 11
145.8349655914632
 21
-11.80215440510014
 31
0.0
 11
145.8359840126628
 21
-11.8003997645001
 31
0.0
 11
145.8369917364631
 21
-11.79865486180014
 31
0.0
 11
145.837989198863
 21
-11.79691904510017
 31
0.0
 11
145.838976707863
 21
-11.79519187340011
 31
0.0
 11
145.8399547633631
 21
-11.79347255870019
 31
0.0
 11
145.8409238419632
 21
-11.79176033740017
 31
0.0
 11
145.8418844291628
 21
-11.79005441480009
 31
0.0
 11
145.8428369113631
 21
-11.7883541565001
 31
0.0
 11
145.8437816890629
 21
-11.7866588904001
 31
0.0
 11
145.8447191241631
 21
-11.78496799950014
 31
0.0
 11
145.845649610363
 21
-11.78328079580015
 31
0.0
 11
145.8465735564629
 21
-11.78159654890012
 31
0.0
 11
145.8474519286629
 21
-11.77998698330012
 31
0.0
  0
SPLINE
  5
56713
330
1F
100
AcDbEntity
  8
1
100
AcDbSpline
210
0.0
220
0.0
230
1.0
 70
     8
 71
     3
 72
    42
 73
    38
 74
    36
 42
0.0000000001
 43
0.0000000001
 44
0.000001
 12
0.5847748923758402
 22
0.8111956146619784
 32
0.0
 13
0.5258557844892641
 23
0.850573743962968
 33
0.0
 40
0.0
 40
0.0
 40
0.0
 40
0.0
 40
0.0021928550738477
 40
0.0043661293286399
 40
0.0065210020731628
 40
0.0086587748219288
 40
0.0107801086307924
 40
0.0128851471182262
 40
0.0149737827751414
 40
0.0170460978889737
 40
0.0191023592704582
 40
0.0211430987867583
 40
0.023169453863033
 40
0.0251821522452353
 40
0.0271815897551164
 40
0.0291683990125763
 40
0.0311437519787511
 40
0.0331086234329914
 40
0.035063977993757
 40
0.0370106733570523
 40
0.0389491418966829
 40
0.0408801039435922
 40
0.0428044458481286
 40
0.0447230198793953
 40
0.0466366347535354
 40
0.048545973650938
 40
0.0504517104033562
 40
0.0523544409699527
 40
0.0542551279530947
 40
0.0561547416349267
 40
0.0580543282037193
 40
0.0599541944347982
 40
0.061854456525287
 40
0.0637555745295734
 40
0.0656586374506318
 40
0.0675642256659292
 40
0.0694727771563255
 40
0.0694727771563255
 40
0.0694727771563255
 40
0.0694727771563255
 10
145.7854070660629
 20
-11.87806312070015
 30
0.0
 10
145.7858345082595
 20
-11.87747017589365
 30
0.0
 10
145.7866844314742
 20
-11.87628875543859
 30
0.0
 10
145.7879503866921
 20
-11.87452178264354
 30
0.0
 10
145.7892022293652
 20
-11.87276729058968
 30
0.0
 10
145.7904406149717
 20
-11.87102447064598
 30
0.0
 10
145.7916659994431
 20
-11.8692927954591
 30
0.0
 10
145.7928785450315
 20
-11.86757210523305
 30
0.0
 10
145.7940783766635
 20
-11.86586244930751
 30
0.0
 10
145.7952653713469
 20
-11.8641636532345
 30
0.0
 10
145.7964398993729
 20
-11.86247562798112
 30
0.0
 10
145.797602396932
 20
-11.86079790030922
 30
0.0
 10
145.7987533575275
 20
-11.85912984964122
 30
0.0
 10
145.799893250096
 20
-11.85747089333347
 30
0.0
 10
145.8010224431572
 20
-11.85582058372063
 30
0.0
 10
145.8021413847724
 20
-11.85417834798036
 30
0.0
 10
145.8032506271651
 20
-11.8525434505876
 30
0.0
 10
145.8043507776865
 20
-11.85091505956032
 30
0.0
 10
145.8054423795622
 20
-11.8492924259198
 30
0.0
 10
145.8065258684902
 20
-11.84767494618154
 30
0.0
 10
145.8076016308577
 20
-11.84606208179892
 30
0.0
 10
145.8086700541705
 20
-11.84445328345785
 30
0.0
 10
145.8097315978962
 20
-11.84284788160676
 30
0.0
 10
145.8107867325114
 20
-11.84124517867209
 30
0.0
 10
145.8118358862094
 20
-11.8396445303544
 30
0.0
 10
145.8128794474674
 20
-11.83804533752564
 30
0.0
 10
145.8139177672725
 20
-11.83644706129252
 30
0.0
 10
145.8149512205167
 20
-11.8348490675273
 30
0.0
 10
145.8159803123299
 20
-11.83325068828174
 30
0.0
 10
145.8170052739967
 20
-11.8316509019283
 30
0.0
 10
145.8180267914404
 20
-11.83004923877311
 30
0.0
 10
145.8190450222815
 20
-11.82844522807394
 30
0.0
 10
145.8200601158758
 20
-11.82683862628661
 30
0.0
 10
145.8210723315733
 20
-11.82522895086714
 30
0.0
 10
145.8220820133627
 20
-11.82361559000466
 30
0.0
 10
145.8230894936884
 20
-11.82199793375215
 30
0.0
 10
145.823759250516
 20
-11.82091726926242
 30
0.0
 10
145.824093791463
 20
-11.82037614800018
 30
0.0
 11
145.7854070660629
 21
-11.87806312070015
 31
0.0
 11
145.7866876259628
 21
-11.87628302700014
 31
0.0
 11
145.787953262563
 21
-11.87451634710012
 31
0.0
 11
145.7892047263632
 21
-11.87276217320018
 31
0.0
 11
145.790442830763
 21
-11.87101949250009
 31
0.0
 11
145.791668011463
 21
-11.86928780970018
 31
0.0
 11
145.792880402363
 21
-11.86756705000019
 31
0.0
 11
145.7940799923632
 21
-11.86585734380023
 31
0.0
 11
145.795266907763
 21
-11.8641586268001
 31
0.0
 11
145.7964413325631
 21
-11.86247075000014
 31
0.0
 11
145.797603608063
 21
-11.86079333370023
 31
0.0
 11
145.7987544258632
 21
-11.8591254830001
 31
0.0
 11
145.799894238563
 21
-11.85746663550023
 31
0.0
 11
145.8010233073629
 21
-11.85581649990016
 31
0.0
 11
145.802142023963
 21
-11.85417458700013
 31
0.0
 11
145.8032510787631
 21
-11.85253995840017
 31
0.0
 11
145.8043510442631
 21
-11.85091183380009
 31
0.0
 11
145.805442481363
 21
-11.84928943730014
 31
0.0
 11
145.806525884963
 21
-11.84767207730013
 31
0.0
 11
145.8076015089629
 21
-11.84605941270016
 31
0.0
 11
145.8086697635632
 21
-11.84445086050019
 31
0.0
 11
145.8097311453631
 21
-11.84284569570016
 31
0.0
 11
145.8107861265631
 21
-11.84124321810012
 31
0.0
 11
145.811835149863
 21
-11.83964276030016
 31
0.0
 11
145.8128785837631
 21
-11.83804375640014
 31
0.0
 11
145.8139167869632
 21
-11.83644564540012
 31
0.0
 11
145.814950071163
 21
-11.83484792880014
 31
0.0
 11
145.8159789433631
 21
-11.83324979430014
 31
0.0
 11
145.8170039366629
 21
-11.83165037300014
 31
0.0
 11
145.8180255543631
 21
-11.83004882660012
 31
0.0
 11
145.8190439277629
 21
-11.82844488720016
 31
0.0
 11
145.820059083563
 21
-11.82683844670018
 31
0.0
 11
145.8210712299629
 21
-11.82522910540015
 31
0.0
 11
145.822080903663
 21
-11.8236159277001
 31
0.0
 11
145.8230883644629
 21
-11.82199840530015
 31
0.0
 11
145.824093791463
 21
-11.82037614800018
 31
0.0
  0
SPLINE
  5
56714
330
1F
100
AcDbEntity
  8
1
100
AcDbSpline
210
0.0
220
0.0
230
1.0
 70
     8
 71
     3
 72
    42
 73
    38
 74
    36
 42
0.0000000001
 43
0.0000000001
 44
0.000001
 12
0.644572482870125
 22
0.7645432063177611
 32
0.0
 13
0.5945634191335855
 23
0.8040487178201209
 33
0.0
 40
0.0
 40
0.0
 40
0.0
 40
0.0
 40
0.0021802120418722
 40
0.0043420457869978
 40
0.0064867418036827
 40
0.0086146198478403
 40
0.0107260173558746
 40
0.0128219022324992
 40
0.014902650978167
 40
0.016968107629224
 40
0.0190180906454873
 40
0.0210532072109718
 40
0.0230742823537629
 40
0.0250819089282248
 40
0.0270771423433464
 40
0.0290606434221548
 40
0.0310328680173682
 40
0.0329947531244708
 40
0.0349471546127629
 40
0.0368910035162082
 40
0.0388270179025315
 40
0.0407559342120843
 40
0.0426783857137447
 40
0.0445950624551545
 40
0.046506911503133
 40
0.048415007961889
 40
0.0503203118433994
 40
0.0522231497687394
 40
0.0541237020394702
 40
0.0560225510222637
 40
0.0579207493763968
 40
0.0598188052085778
 40
0.0617171564958503
 40
0.0636166099446403
 40
0.0655182834909762
 40
0.0674225995417353
 40
0.0693300290516845
 40
0.0693300290516845
 40
0.0693300290516845
 40
0.0693300290516845
 10
145.742368975663
 20
-11.93240233360009
 30
0.0
 10
145.7428374105593
 20
-11.93184671149845
 30
0.0
 10
145.7437693545979
 20
-11.93073932680195
 30
0.0
 10
145.7451586834392
 20
-11.92908249751681
 30
0.0
 10
145.7465338862632
 20
-11.92743659342409
 30
0.0
 10
145.7478954102829
 20
-11.92580117276165
 30
0.0
 10
145.7492436425285
 20
-11.92417586157202
 30
0.0
 10
145.750578979026
 20
-11.92256026863472
 30
0.0
 10
145.7519017107066
 20
-11.92095412901077
 30
0.0
 10
145.7532118766288
 20
-11.91935746660471
 30
0.0
 10
145.7545095934388
 20
-11.91777026907471
 30
0.0
 10
145.7557950038971
 20
-11.9161921235262
 30
0.0
 10
145.7570687573261
 20
-11.91462269690518
 30
0.0
 10
145.7583313587833
 20
-11.91306134524848
 30
0.0
 10
145.7595833365924
 20
-11.91150751413141
 30
0.0
 10
145.7608251699114
 20
-11.90996066782992
 30
0.0
 10
145.7620573137538
 20
-11.90842030178149
 30
0.0
 10
145.7632802589561
 20
-11.90688585668556
 30
0.0
 10
145.7644945909168
 20
-11.90535664596777
 30
0.0
 10
145.7657008444494
 20
-11.90383203598893
 30
0.0
 10
145.7668995255546
 20
-11.90231142102144
 30
0.0
 10
145.7680910741411
 20
-11.90079426958462
 30
0.0
 10
145.7692759209459
 20
-11.89928005484742
 30
0.0
 10
145.7704545348579
 20
-11.89776819069573
 30
0.0
 10
145.7716274743192
 20
-11.89625797406077
 30
0.0
 10
145.772795334023
 20
-11.89474861623273
 30
0.0
 10
145.7739586266741
 20
-11.89323952637366
 30
0.0
 10
145.7751174913088
 20
-11.89173020267176
 30
0.0
 10
145.77627223707
 20
-11.89022043342095
 30
0.0
 10
145.7774232331832
 20
-11.88870974738651
 30
0.0
 10
145.7785708926656
 20
-11.88719756949803
 30
0.0
 10
145.7797156000567
 20
-11.8856833636182
 30
0.0
 10
145.7808576854941
 20
-11.88416665539659
 30
0.0
 10
145.781997597743
 20
-11.88264680552032
 30
0.0
 10
145.7831357771664
 20
-11.8811231749998
 30
0.0
 10
145.7842725922622
 20
-11.87959521121902
 30
0.0
 10
145.7850290367925
 20
-11.87857434278408
 30
0.0
 10
145.7854070660629
 20
-11.87806312070015
 30
0.0
 11
145.742368975663
 21
-11.93240233360009
 31
0.0
 11
145.7437727767629
 21
-11.93073421060015
 31
0.0
 11
145.745161772663
 21
-11.92907767050011
 31
0.0
 11
145.7465368122631
 21
-11.92743181130018
 31
0.0
 11
145.7478981488631
 21
-11.92579643340016
 31
0.0
 11
145.7492460453628
 21
-11.92417132230016
 31
0.0
 11
145.7505811639631
 21
-11.92255577570014
 31
0.0
 11
145.751903786063
 21
-11.92094954390009
 31
0.0
 11
145.753213853363
 21
-11.91935278730014
 31
0.0
 11
145.754511296063
 21
-11.91776568260016
 31
0.0
 11
145.755796559163
 21
-11.91618777570013
 31
0.0
 11
145.7570701756632
 21
-11.9146184959001
 31
0.0
 11
145.7583325538631
 21
-11.91305741940019
 31
0.0
 11
145.7595843887631
 21
-11.91150375910015
 31
0.0
 11
145.760826122963
 21
-11.9099570311001
 31
0.0
 11
145.7620580675631
 21
-11.90841690860011
 31
0.0
 11
145.7632808308632
 21
-11.90688268630018
 31
0.0
 11
145.7644949656629
 21
-11.90535371830018
 31
0.0
 11
145.7657010665631
 21
-11.90382929580013
 31
0.0
 11
145.7668995914629
 21
-11.90230887340013
 31
0.0
 11
145.7680910054629
 21
-11.90079188790011
 31
0.0
 11
145.769275706063
 21
-11.89927785420016
 31
0.0
 11
145.7704541219631
 21
-11.89776623950016
 31
0.0
 11
145.771626835363
 21
-11.89625630480012
 31
0.0
 11
145.7727945012631
 21
-11.89474720560011
 31
0.0
 11
145.7739576980631
 21
-11.8932381837001
 31
0.0
 11
145.7751166328631
 21
-11.89172895340019
 31
0.0
 11
145.7762713899629
 21
-11.89021938500016
 31
0.0
 11
145.7774223009629
 21
-11.88870902240015
 31
0.0
 11
145.7785699839629
 21
-11.88719702300014
 31
0.0
 11
145.7797147224629
 21
-11.88568297420014
 31
0.0
 11
145.780856754263
 21
-11.88416651710017
 31
0.0
 11
145.7819965348632
 21
-11.88264699550009
 31
0.0
 11
145.7831347003631
 21
-11.88112350000014
 31
0.0
 11
145.784271464363
 21
-11.87959567420014
 31
0.0
 11
145.7854070660629
 21
-11.87806312070015
 31
0.0
  0
SPLINE
  5
56715
330
1F
100
AcDbEntity
  8
1
100
AcDbSpline
210
0.0
220
0.0
230
1.0
 70
     8
 71
     3
 72
    42
 73
    38
 74
    36
 42
0.0000000001
 43
0.0000000001
 44
0.000001
 12
0.7006062732084163
 22
0.7135480712194618
 32
0.0
 13
0.6585192966998246
 23
0.7525638417263805
 33
0.0
 40
0.0
 40
0.0
 40
0.0
 40
0.0
 40
0.002165766427775
 40
0.0043137475547612
 40
0.0064449748026003
 40
0.008560637855278
 40
0.010661853207409
 40
0.0127494211619894
 40
0.0148232541185084
 40
0.0168830262700509
 40
0.0189288622876706
 40
0.0209606482069448
 40
0.0229781140164622
 40
0.0249817917115761
 40
0.0269729260067144
 40
0.0289527104502031
 40
0.0309218338844551
 40
0.0328809803074946
 40
0.0348309355428806
 40
0.0367724862596923
 40
0.038706461687263
 40
0.040633645696962
 40
0.0425548119801749
 40
0.0444703668780654
 40
0.0463812198495724
 40
0.0482878134305145
 40
0.050190787114638
 40
0.0520909662082065
 40
0.0539890587319644
 40
0.055885826566169
 40
0.0577818737587203
 40
0.0596779161510975
 40
0.0615745129904953
 40
0.0634724961069145
 40
0.0653726533779751
 40
0.0672758471266773
 40
0.0691825197816197
 40
0.0691825197816197
 40
0.0691825197816197
 40
0.0691825197816197
 10
145.6952919891629
 20
-11.98308433440016
 30
0.0
 10
145.6957977723448
 20
-11.98256920824775
 30
0.0
 10
145.6968043587154
 20
-11.98154237427471
 30
0.0
 10
145.6983057720491
 20
-11.98000579956417
 30
0.0
 10
145.6997930496988
 20
-11.97847876673731
 30
0.0
 10
145.7012670029229
 20
-11.97696052077424
 30
0.0
 10
145.7027283847179
 20
-11.97545035714611
 30
0.0
 10
145.7041776481434
 20
-11.97394787341761
 30
0.0
 10
145.705614911045
 20
-11.97245301162343
 30
0.0
 10
145.707040135122
 20
-11.97096587594848
 30
0.0
 10
145.7084532786681
 20
-11.96948657930991
 30
0.0
 10
145.7098543067778
 20
-11.968015215299
 30
0.0
 10
145.7112433038669
 20
-11.9665518033523
 30
0.0
 10
145.7126205734431
 20
-11.96509594646986
 30
0.0
 10
145.7139868763206
 20
-11.96364700888986
 30
0.0
 10
145.7153429696556
 20
-11.96220427887655
 30
0.0
 10
145.7166894569726
 20
-11.96076715664782
 30
0.0
 10
145.7180268506924
 20
-11.95933514321544
 30
0.0
 10
145.7193556811944
 20
-11.95790771163965
 30
0.0
 10
145.7206765081923
 20
-11.95648429607013
 30
0.0
 10
145.7219898874515
 20
-11.95506432781602
 30
0.0
 10
145.7232963678266
 20
-11.95364723764086
 30
0.0
 10
145.7245963990621
 20
-11.95223255662981
 30
0.0
 10
145.7258904569477
 20
-11.95081978295476
 30
0.0
 10
145.7271789348695
 20
-11.94940848891133
 30
0.0
 10
145.7284622086289
 20
-11.94799812591625
 30
0.0
 10
145.7297407881956
 20
-11.94658830555252
 30
0.0
 10
145.7310151331812
 20
-11.94517847374308
 30
0.0
 10
145.7322857554524
 20
-11.94376806893453
 30
0.0
 10
145.733553106307
 20
-11.94235657425113
 30
0.0
 10
145.7348176374132
 20
-11.94094346975609
 30
0.0
 10
145.7360797515039
 20
-11.93952828244528
 30
0.0
 10
145.7373398986907
 20
-11.93811047994361
 30
0.0
 10
145.7385985413381
 20
-11.93668950877256
 30
0.0
 10
145.7398562047625
 20
-11.93526473636493
 30
0.0
 10
145.7411133240656
 20
-11.93383562394618
 30
0.0
 10
145.741950448751
 20
-11.93288063123279
 30
0.0
 10
145.742368975663
 20
-11.93240233360009
 30
0.0
 11
145.6952919891629
 21
-11.98308433440016
 31
0.0
 11
145.6968080705629
 21
-11.98153771910014
 31
0.0
 11
145.6983091943631
 21
-11.98000136380014
 31
0.0
 11
145.6997961257631
 21
-11.97847457920014
 31
0.0
 11
145.7012697349629
 21
-11.97695655740014
 31
0.0
 11
145.702730835963
 21
-11.97544653800022
 31
0.0
 11
145.7041800181629
 21
-11.97394398330019
 31
0.0
 11
145.705617252063
 21
-11.97244899230011
 31
0.0
 11
145.7070423442629
 21
-11.9709618369001
 31
0.0
 11
145.7084554133631
 21
-11.96948246410014
 31
0.0
 11
145.7098564132631
 21
-11.96801099360019
 31
0.0
 11
145.7112451907629
 21
-11.96654765860015
 31
0.0
 11
145.712622155563
 21
-11.96509209930016
 31
0.0
 11
145.713988184763
 21
-11.96364345380019
 31
0.0
 11
145.715344116663
 21
-11.96220089030012
 31
0.0
 11
145.716690444863
 21
-11.96076393440015
 31
0.0
 11
145.718027656463
 21
-11.95933211210015
 31
0.0
 11
145.719356304963
 21
-11.95790487210016
 31
0.0
 11
145.7206769406631
 21
-11.95648165880018
 31
0.0
 11
145.721990139163
 21
-11.95506188200013
 31
0.0
 11
145.723296441363
 21
-11.95364498110009
 31
0.0
 11
145.724596377663
 21
-11.95223039970014
 31
0.0
 11
145.7258902266632
 21
-11.95081784880014
 31
0.0
 11
145.7271786081629
 21
-11.94940666160013
 31
0.0
 11
145.7284618286631
 21
-11.94799650660016
 31
0.0
 11
145.7297403036629
 21
-11.94658692770016
 31
0.0
 11
145.7310145811631
 21
-11.94517731550016
 31
0.0
 11
145.7322851265631
 21
-11.94376714420016
 31
0.0
 11
145.7335524374631
 21
-11.94235584470018
 31
0.0
 11
145.734816902063
 21
-11.94094296200015
 31
0.0
 11
145.736078979963
 21
-11.93952795520013
 31
0.0
 11
145.737339022363
 21
-11.93811039680011
 31
0.0
 11
145.738597558363
 21
-11.93668965300023
 31
0.0
 11
145.7398550830632
 21
-11.93526511890016
 31
0.0
 11
145.741112136163
 21
-11.93383613000017
 31
0.0
 11
145.742368975663
 21
-11.93240233360009
 31
0.0
  0
SPLINE
  5
56716
330
1F
100
AcDbEntity
  8
1
100
AcDbSpline
210
0.0
220
0.0
230
1.0
 70
     8
 71
     3
 72
    12
 73
     8
 74
     6
 42
0.0000000001
 43
0.0000000001
 44
0.000001
 12
0.0537566380759419
 22
-0.9985540665696436
 32
0.0
 13
0.0552813878764529
 23
-0.9984708148736512
 33
0.0
 40
0.0
 40
0.0
 40
0.0
 40
0.0
 40
0.2209122770195928
 40
0.4175401307254178
 40
0.5973613852576532
 40
0.7637312137248557
 40
0.9175676701087679
 40
0.9175676701087679
 40
0.9175676701087679
 40
0.9175676701087679
 10
145.753809042263
 20
-5.144190706300179
 30
0.0
 10
145.7577675427038
 20
-5.217721657157881
 30
0.0
 10
145.7652679827305
 20
-5.356699455556736
 30
0.0
 10
145.7760488377471
 20
-5.555527854863527
 30
0.0
 10
145.785900183395
 20
-5.736199124005452
 30
0.0
 10
145.7950298239298
 20
-5.902624748280004
 30
0.0
 10
145.8009114702912
 20
-6.009198001912494
 30
0.0
 10
145.8037462345629
 20
-6.060398405900144
 30
0.0
 11
145.753809042263
 21
-5.144190706300179
 31
0.0
 11
145.7657150368628
 21
-5.364781912800168
 31
0.0
 11
145.776363528863
 21
-5.56112121330014
 31
0.0
 11
145.7861550820631
 21
-5.74067568220019
 31
0.0
 11
145.7952673989631
 21
-5.906795782100147
 31
0.0
 11
145.8037462345629
 21
-6.060398405900144
 31
0.0
  0
SPLINE
  5
56717
330
1F
100
AcDbEntity
  8
1
100
AcDbSpline
210
0.0
220
0.0
230
1.0
 70
     8
 71
     3
 72
    41
 73
    37
 74
    35
 42
0.0000000001
 43
0.0000000001
 44
0.000001
 12
0.7525912243647494
 22
0.6584880021755656
 32
0.0
 13
0.7174378700658707
 23
0.6966224964752051
 33
0.0
 40
0.0
 40
0.0
 40
0.0
 40
0.0
 40
0.0022131464720106
 40
0.0044084539595333
 40
0.006586548009865
 40
0.0087490930482861
 40
0.0108982063003758
 40
0.0130344040865204
 40
0.0151572223635205
 40
0.0172660959737814
 40
0.0193612743299418
 40
0.0214430248760099
 40
0.0235112455808439
 40
0.0255659069852016
 40
0.0276080055656237
 40
0.0296384899781409
 40
0.031658067242272
 40
0.0336677690241535
 40
0.035668777398808
 40
0.0376615391708702
 40
0.0396461675698843
 40
0.0416232845536294
 40
0.0435940300390701
 40
0.0455595795148155
 40
0.0475208603184234
 40
0.0494784649021435
 40
0.0514331229201115
 40
0.0533854837567468
 40
0.0553364071442507
 40
0.0572867288695352
 40
0.0592373490081077
 40
0.0611887739120292
 40
0.0631413646081826
 40
0.065096049642191
 40
0.0670536530330611
 40
0.0690151083873427
 40
0.0690151083873427
 40
0.0690151083873427
 40
0.0690151083873427
 10
145.6445184444629
 20
-12.02981831520017
 30
0.0
 10
145.6450736426674
 20
-12.02933253840055
 30
0.0
 10
145.6461788289243
 20
-12.02836405997416
 30
0.0
 10
145.6478278517078
 20
-12.0269145711284
 30
0.0
 10
145.6494620184768
 20
-12.02547373334624
 30
0.0
 10
145.6510824633691
 20
-12.02404061930301
 30
0.0
 10
145.6526902873257
 20
-12.02261431876792
 30
0.0
 10
145.6542860558751
 20
-12.02119438694876
 30
0.0
 10
145.6558696655437
 20
-12.01978097210724
 30
0.0
 10
145.6574409478772
 20
-12.01837428316429
 30
0.0
 10
145.6589999170584
 20
-12.01697436732925
 30
0.0
 10
145.6605467020274
 20
-12.01558116839018
 30
0.0
 10
145.6620813625034
 20
-12.0141946920186
 30
0.0
 10
145.6636041384594
 20
-12.01281478074526
 30
0.0
 10
145.6651155279245
 20
-12.01144104014321
 30
0.0
 10
145.6666162076603
 20
-12.01007290728998
 30
0.0
 10
145.6681068597896
 20
-12.00870980760004
 30
0.0
 10
145.6695882203898
 20
-12.00735111007341
 30
0.0
 10
145.6710609578197
 20
-12.00599623810106
 30
0.0
 10
145.6725255120997
 20
-12.00464481896918
 30
0.0
 10
145.6739821843465
 20
-12.00329660467784
 30
0.0
 10
145.6754314435916
 20
-12.00195118845241
 30
0.0
 10
145.6768740153418
 20
-12.00060791929934
 30
0.0
 10
145.6783106954306
 20
-11.99926607233854
 30
0.0
 10
145.6797421422039
 20
-11.99792504282132
 30
0.0
 10
145.6811689022254
 20
-11.99658432405169
 30
0.0
 10
145.682591451688
 20
-11.99524346976037
 30
0.0
 10
145.6840103287999
 20
-11.99390196961011
 30
0.0
 10
145.68542609433
 20
-11.99255928567495
 30
0.0
 10
145.6868393662282
 20
-11.99121481894494
 30
0.0
 10
145.6882506735229
 20
-11.98986804791687
 30
0.0
 10
145.6896604277232
 20
-11.98851855725692
 30
0.0
 10
145.6910690447338
 20
-11.98716592261544
 30
0.0
 10
145.6924770139923
 20
-11.98580964342554
 30
0.0
 10
145.6938849587252
 20
-11.98444908315667
 30
0.0
 10
145.6948229150457
 20
-11.98353979904203
 30
0.0
 10
145.6952919891629
 20
-11.98308433440016
 30
0.0
 11
145.6445184444629
 21
-12.02981831520017
 31
0.0
 11
145.646182914663
 21
-12.02835970630016
 31
0.0
 11
145.647831744263
 21
-12.0269103305001
 31
0.0
 11
145.649465443363
 21
-12.02546982610013
 31
0.0
 11
145.651085296863
 21
-12.02403713930019
 31
0.0
 11
145.652692921563
 21
-12.02261090810012
 31
0.0
 11
145.6542887306628
 21
-12.02119082610014
 31
0.0
 11
145.655872404263
 21
-12.01977723780018
 31
0.0
 11
145.657443548963
 21
-12.01837055720014
 31
0.0
 11
145.6590023792629
 21
-12.01697065610014
 31
0.0
 11
145.6605491220631
 21
-12.01557739310013
 31
0.0
 11
145.662083729063
 21
-12.01419087330012
 31
0.0
 11
145.663606206063
 21
-12.01281115340012
 31
0.0
 11
145.665117317763
 21
-12.01143759970014
 31
0.0
 11
145.6666177893631
 21
-12.01006960610019
 31
0.0
 11
145.668108164063
 21
-12.00870672550016
 31
0.0
 11
145.6695892211629
 21
-12.0073482879001
 31
0.0
 11
145.671061846563
 21
-12.00599351700018
 31
0.0
 11
145.672526381163
 21
-12.00464213010016
 31
0.0
 11
145.6739829195631
 21
-12.00329406950018
 31
0.0
 11
145.675431928263
 21
-12.00194893040012
 31
0.0
 11
145.6768742503628
 21
-12.00060595240009
 31
0.0
 11
145.6783107499628
 21
-11.99926434550016
 31
0.0
 11
145.6797421054631
 21
-11.99792348450015
 31
0.0
 11
145.6811687472628
 21
-11.99658296940018
 31
0.0
 11
145.682591203063
 21
-11.99524230350019
 31
0.0
 11
145.6840099389629
 21
-11.99390104190016
 31
0.0
 11
145.6854255707632
 21
-11.99255859200011
 31
0.0
 11
145.6868386929628
 21
-11.99121437370016
 31
0.0
 11
145.688249942763
 21
-11.98986775870023
 31
0.0
 11
145.6896596689631
 21
-11.98851838700014
 31
0.0
 11
145.6910681130631
 21
-11.98716599690013
 31
0.0
 11
145.692475923163
 21
-11.98580993100015
 31
0.0
 11
145.693883667563
 21
-11.98444960000014
 31
0.0
 11
145.6952919891629
 21
-11.98308433440016
 31
0.0
  0
SPLINE
  5
56718
330
1F
100
AcDbEntity
  8
1
100
AcDbSpline
210
0.0
220
0.0
230
1.0
 70
     8
 71
     3
 72
    41
 73
    37
 74
    35
 42
0.0000000001
 43
0.0000000001
 44
0.000001
 12
0.800265348110911
 22
0.599646039437369
 32
0.0
 13
0.771091088120963
 23
0.6367248493819205
 33
0.0
 40
0.0
 40
0.0
 40
0.0
 40
0.0
 40
0.0021967030596154
 40
0.0043767393203203
 40
0.0065412445039835
 40
0.0086912826736584
 40
0.0108282574953528
 40
0.0129523468078926
 40
0.0150634411796084
 40
0.0171616651001955
 40
0.0192477565458635
 40
0.0213216058639687
 40
0.0233829993360802
 40
0.0254320918441908
 40
0.027469774584922
 40
0.0294962891478462
 40
0.0315117982814013
 40
0.0335167929394464
 40
0.0355125521576582
 40
0.0375001959782134
 40
0.0394807500872503
 40
0.041454730492325
 40
0.0434229657324253
 40
0.0453860894752427
 40
0.0473450310562928
 40
0.0493005086178789
 40
0.0512534206975691
 40
0.0532042253621373
 40
0.0551536696267483
 40
0.0571026535419523
 40
0.0590521683900669
 40
0.0610032645711943
 40
0.0629564409717369
 40
0.0649119100217667
 40
0.066870205532958
 40
0.0688322683782376
 40
0.0688322683782376
 40
0.0688322683782376
 40
0.0688322683782376
 10
145.5904052127631
 20
-12.07234784500011
 30
0.0
 10
145.5909911945426
 20
-12.07190876357026
 30
0.0
 10
145.5921580991294
 20
-12.07103311364202
 30
0.0
 10
145.5939002553025
 20
-12.06972196770164
 30
0.0
 10
145.5956281598385
 20
-12.06841775634299
 30
0.0
 10
145.5973427974758
 20
-12.06711979753518
 30
0.0
 10
145.5990448948021
 20
-12.06582759693342
 30
0.0
 10
145.6007348644431
 20
-12.06454089340678
 30
0.0
 10
145.6024127790332
 20
-12.0632596829856
 30
0.0
 10
145.6040788594423
 20
-12.06198384801917
 30
0.0
 10
145.6057333256457
 20
-12.06071326965409
 30
0.0
 10
145.607376307558
 20
-12.0594478967092
 30
0.0
 10
145.6090077812099
 20
-12.05818779658872
 30
0.0
 10
145.6106279866998
 20
-12.05693283266626
 30
0.0
 10
145.6122372829899
 20
-12.05568277378285
 30
0.0
 10
145.6138360296905
 20
-12.05443738520213
 30
0.0
 10
145.6154244801529
 20
-12.05319651274743
 30
0.0
 10
145.6170031590621
 20
-12.05195978771175
 30
0.0
 10
145.6185728397861
 20
-12.05072664127638
 30
0.0
 10
145.620134432377
 20
-12.04949638997996
 30
0.0
 10
145.6216886436249
 20
-12.04826850326859
 30
0.0
 10
145.6232361013561
 20
-12.04704250731853
 30
0.0
 10
145.6247773285989
 20
-12.04581800640426
 30
0.0
 10
145.6263129539214
 20
-12.04459451611686
 30
0.0
 10
145.6278435745096
 20
-12.04337157168828
 30
0.0
 10
145.6293698538557
 20
-12.04214864988287
 30
0.0
 10
145.6308923301609
 20
-12.04092532232369
 30
0.0
 10
145.6324115467778
 20
-12.03970115169534
 30
0.0
 10
145.6339280451258
 20
-12.03847569750616
 30
0.0
 10
145.635442502164
 20
-12.03724840424493
 30
0.0
 10
145.6369556701728
 20
-12.03601864877868
 30
0.0
 10
145.6384681942412
 20
-12.03478588817427
 30
0.0
 10
145.6399805154302
 20
-12.03354974019825
 30
0.0
 10
145.6414929396593
 20
-12.03230992944853
 30
0.0
 10
145.6430058850416
 20
-12.03106608520872
 30
0.0
 10
145.6440141347382
 20
-12.03023474659005
 30
0.0
 10
145.6445184444629
 20
-12.02981831520017
 30
0.0
 11
145.5904052127631
 21
-12.07234784500011
 31
0.0
 11
145.592162223263
 21
-12.07102935800017
 31
0.0
 11
145.5939040521631
 21
-12.06971841920014
 31
0.0
 11
145.5956316386629
 21
-12.06841439340005
 31
0.0
 11
145.5973458607628
 21
-12.06711668320011
 31
0.0
 11
145.599047863163
 21
-12.0658244808001
 31
0.0
 11
145.6007378110631
 21
-12.06453771540012
 31
0.0
 11
145.602415640663
 21
-12.06325648960015
 31
0.0
 11
145.6040814741628
 21
-12.06198076410013
 31
0.0
 11
145.605735919563
 21
-12.06071012490011
 31
0.0
 11
145.6073789113631
 21
-12.05944467260016
 31
0.0
 11
145.6090103019629
 21
-12.05818457170014
 31
0.0
 11
145.6106302357631
 21
-12.0569297617001
 31
0.0
 11
145.6122394377631
 21
-12.05567972920013
 31
0.0
 11
145.613838117663
 21
-12.05443435630016
 31
0.0
 11
145.6154264222629
 21
-12.05319357260012
 31
0.0
 11
145.617004756063
 21
-12.05195710440014
 31
0.0
 11
145.6185741411628
 21
-12.05072418840009
 31
0.0
 11
145.620135470563
 21
-12.04949415430016
 31
0.0
 11
145.6216895594631
 21
-12.04826638550023
 31
0.0
 11
145.623236820163
 21
-12.04704057760014
 31
0.0
 11
145.6247779077631
 21
-12.04581622940011
 31
0.0
 11
145.626313322363
 21
-12.04459295790016
 31
0.0
 11
145.627843792363
 21
-12.04337019220011
 31
0.0
 11
145.6293698784631
 21
-12.04214748990014
 31
0.0
 11
145.6308922793629
 21
-12.04092429240015
 31
0.0
 11
145.6324113477629
 21
-12.03970031380018
 31
0.0
 11
145.6339276592631
 21
-12.03847508440017
 31
0.0
 11
145.6354419055629
 21
-12.03724803480011
 31
0.0
 11
145.6369548457629
 21
-12.03601853400019
 31
0.0
 11
145.638467280963
 21
-12.03478590910018
 31
0.0
 11
145.6399795815629
 21
-12.03354983190016
 31
0.0
 11
145.641491894463
 21
-12.03231015360009
 31
0.0
 11
145.643004613663
 21
-12.03106652010015
 31
0.0
 11
145.6445184444629
 21
-12.02981831520017
 31
0.0
  0
SPLINE
  5
56719
330
1F
100
AcDbEntity
  8
1
100
AcDbSpline
210
0.0
220
0.0
230
1.0
 70
     8
 71
     3
 72
    41
 73
    37
 74
    35
 42
0.0000000001
 43
0.0000000001
 44
0.000001
 12
0.843390315682342
 22
0.5373013822923216
 32
0.0
 13
0.8193082197580736
 23
0.5733533300128783
 33
0.0
 40
0.0
 40
0.0
 40
0.0
 40
0.0
 40
0.0021816768942865
 40
0.0043470923843446
 40
0.0064974802810833
 40
0.0086339172923161
 40
0.010757470431142
 40
0.0128689863916122
 40
0.0149689940869029
 40
0.0170579403889208
 40
0.0191360175407774
 40
0.0212028933592348
 40
0.0232582328325045
 40
0.0253020331568583
 40
0.0273350897624726
 40
0.0293575183345318
 40
0.0313693897797864
 40
0.0333710309827818
 40
0.035363726392867
 40
0.0373484893153031
 40
0.0393265183654595
 40
0.0412982975625927
 40
0.0432644134671281
 40
0.0452257134506409
 40
0.0471829381928534
 40
0.0491369190002904
 40
0.0510882688720939
 40
0.053037775968486
 40
0.0549859536322613
 40
0.0569338151740182
 40
0.0588822129548966
 40
0.0608322085360196
 40
0.0627841766737169
 40
0.0647383148724868
 40
0.066695542880603
 40
0.0686566185808812
 40
0.0686566185808812
 40
0.0686566185808812
 40
0.0686566185808812
 10
145.5333044628629
 20
-12.11045949360019
 30
0.0
 10
145.5339177979177
 20
-12.11006875426318
 30
0.0
 10
145.5351393877575
 20
-12.1092893891828
 30
0.0
 10
145.5369637408547
 20
-12.10812210864228
 30
0.0
 10
145.5387738811915
 20
-12.10696059824954
 30
0.0
 10
145.5405707787253
 20
-12.1058042917308
 30
0.0
 10
145.5423552920109
 20
-12.1046526878392
 30
0.0
 10
145.5441281236204
 20
-12.10350538021998
 30
0.0
 10
145.5458898006303
 20
-12.10236207164013
 30
0.0
 10
145.5476406657513
 20
-12.10122258135809
 30
0.0
 10
145.5493808203729
 20
-12.10008688390195
 30
0.0
 10
145.5511101477309
 20
-12.0989550962644
 30
0.0
 10
145.5528284773567
 20
-12.09782737196642
 30
0.0
 10
145.5545359534318
 20
-12.09670365877315
 30
0.0
 10
145.5562328450113
 20
-12.09558382077486
 30
0.0
 10
145.55791944077
 20
-12.09446770704204
 30
0.0
 10
145.5595958985719
 20
-12.09335525185347
 30
0.0
 10
145.5612627002124
 20
-12.0922461729082
 30
0.0
 10
145.562920587135
 20
-12.09114001094014
 30
0.0
 10
145.5645705397343
 20
-12.09003614115951
 30
0.0
 10
145.5662133136895
 20
-12.08893408262665
 30
0.0
 10
145.5678495442429
 20
-12.08783343013465
 30
0.0
 10
145.5694797676673
 20
-12.08673384105785
 30
0.0
 10
145.571104589311
 20
-12.08563492213389
 30
0.0
 10
145.5727246800046
 20
-12.08453623125936
 30
0.0
 10
145.5743406437554
 20
-12.08343736696494
 30
0.0
 10
145.5759530956262
 20
-12.08233791587727
 30
0.0
 10
145.5775625611264
 20
-12.08123752142424
 30
0.0
 10
145.5791696740107
 20
-12.08013574894127
 30
0.0
 10
145.5807750834691
 20
-12.07903214845549
 30
0.0
 10
145.5823795867585
 20
-12.07792616283998
 30
0.0
 10
145.5839838032041
 20
-12.07681735192992
 30
0.0
 10
145.5855881704873
 20
-12.07570539674392
 30
0.0
 10
145.5871930860193
 20
-12.07459000323396
 30
0.0
 10
145.5887990503618
 20
-12.07347080217829
 30
0.0
 10
145.5898696376161
 20
-12.07272264142781
 30
0.0
 10
145.5904052127631
 20
-12.07234784500011
 30
0.0
 11
145.5333044628629
 21
-12.11045949360019
 31
0.0
 11
145.5351436942629
 21
-12.10928606460018
 31
0.0
 11
145.5369676841629
 21
-12.10811898840009
 31
0.0
 11
145.5387774986631
 21
-12.10695764770022
 31
0.0
 11
145.5405740681632
 21
-12.10580150450019
 31
0.0
 11
145.542358311863
 21
-12.10465002120011
 31
0.0
 11
145.5441309609629
 21
-12.10350277510017
 31
0.0
 11
145.545892477763
 21
-12.10235951280018
 31
0.0
 11
145.5476432542629
 21
-12.10122002320011
 31
0.0
 11
145.5493834680629
 21
-12.10008423250016
 31
0.0
 11
145.551112857563
 21
-12.09895235340016
 31
0.0
 11
145.552831159663
 21
-12.09782460140016
 31
0.0
 11
145.5545383893628
 21
-12.09670101020018
 31
0.0
 11
145.5562352278631
 21
-12.09558117370014
 31
0.0
 11
145.5579217873629
 21
-12.09446505760016
 31
0.0
 11
145.559598142563
 21
-12.09335265200016
 31
0.0
 11
145.5612645808629
 21
-12.0922438045001
 31
0.0
 11
145.5629221849632
 21
-12.09113782930015
 31
0.0
 11
145.5645718086631
 21
-12.09003418600017
 31
0.0
 11
145.5662144567628
 21
-12.08893222660023
 31
0.0
 11
145.5678505379629
 21
-12.08783169720016
 31
0.0
 11
145.5694805444628
 21
-12.0867322843001
 31
0.0
 11
145.5711051829631
 21
-12.08563352600018
 31
0.0
 11
145.5727250691631
 21
-12.08453501630018
 31
0.0
 11
145.5743408917629
 21
-12.08343629540016
 31
0.0
 11
145.575953156563
 21
-12.08233702280014
 31
0.0
 11
145.5775625122629
 21
-12.08123675670018
 31
0.0
 11
145.579169378463
 21
-12.08013520720013
 31
0.0
 11
145.5807745851631
 21
-12.07903179890016
 31
0.0
 11
145.5823788268632
 21
-12.07792604350018
 31
0.0
 11
145.583982967563
 21
-12.07681733010011
 31
0.0
 11
145.5855873037632
 21
-12.07570543480014
 31
0.0
 11
145.587191985163
 21
-12.0745902332001
 31
0.0
 11
145.5887977529629
 21
-12.07347118660019
 31
0.0
 11
145.5904052127631
 21
-12.07234784500011
 31
0.0
  0
SPLINE
  5
5671A
330
1F
100
AcDbEntity
  8
1
100
AcDbSpline
210
0.0
220
0.0
230
1.0
 70
     8
 71
     3
 72
    41
 73
    37
 74
    35
 42
0.0000000001
 43
0.0000000001
 44
0.000001
 12
0.8817317765672518
 22
0.4717510722738825
 32
0.0
 13
0.8619662190229442
 23
0.5069657160630193
 33
0.0
 40
0.0
 40
0.0
 40
0.0
 40
0.0
 40
0.0021649091964279
 40
0.004315187689422
 40
0.0064512015390078
 40
0.0085736064647485
 40
0.0106836565739275
 40
0.0127824776811783
 40
0.014871248772539
 40
0.0169508710683117
 40
0.0190213711920181
 40
0.0210817208907521
 40
0.0231312002082588
 40
0.0251691497050238
 40
0.0271957493410707
 40
0.029211654060273
 40
0.0312176957877801
 40
0.0332149285465403
 40
0.0352040150521754
 40
0.0371856372948056
 40
0.0391606535127484
 40
0.0411295512282731
 40
0.0430929335807445
 40
0.0450516693162237
 40
0.047006590148814
 40
0.0489584927334556
 40
0.0509080079072001
 40
0.0528558235152739
 40
0.0548026567625283
 40
0.0567492004026812
 40
0.0586962103225473
 40
0.0606443291449588
 40
0.0625942497590288
 40
0.0645465660484077
 40
0.0665023305301217
 40
0.0684624984207554
 40
0.0684624984207554
 40
0.0684624984207554
 40
0.0684624984207554
 10
145.473599913263
 20
-12.14395343300012
 30
0.0
 10
145.4742362030069
 20
-12.14361300025518
 30
0.0
 10
145.4755040635282
 20
-12.14293365225768
 30
0.0
 10
145.477398259601
 20
-12.14191569065625
 30
0.0
 10
145.4792787326731
 20
-12.14090212649816
 30
0.0
 10
145.4811461692059
 20
-12.13989264130873
 30
0.0
 10
145.48300147651
 20
-12.13888679226934
 30
0.0
 10
145.4848457127109
 20
-12.13788404861463
 30
0.0
 10
145.4866798299846
 20
-12.13688393078522
 30
0.0
 10
145.4885044566277
 20
-12.13588613044905
 30
0.0
 10
145.4903195743949
 20
-12.13489069029322
 30
0.0
 10
145.4921246919301
 20
-12.13389791401064
 30
0.0
 10
145.4939191191737
 20
-12.13290821840994
 30
0.0
 10
145.4957025203192
 20
-12.13192182854234
 30
0.0
 10
145.49747496121
 20
-12.13093874857648
 30
0.0
 10
145.4992369418314
 20
-12.12995874033547
 30
0.0
 10
145.5009892152733
 20
-12.12898142114838
 30
0.0
 10
145.5027325349277
 20
-12.12800640342465
 30
0.0
 10
145.50446760868
 20
-12.12703332047519
 30
0.0
 10
145.5061950858116
 20
-12.12606183442156
 30
0.0
 10
145.5079155630713
 20
-12.12509163301246
 30
0.0
 10
145.5096296128168
 20
-12.12412241416834
 30
0.0
 10
145.5113378090568
 20
-12.12315387154063
 30
0.0
 10
145.5130408240233
 20
-12.12218563933976
 30
0.0
 10
145.5147393842006
 20
-12.12121731663811
 30
0.0
 10
145.5164341453402
 20
-12.1202485385204
 30
0.0
 10
145.5181257198879
 20
-12.11927896092305
 30
0.0
 10
145.5198146957352
 20
-12.11830825018447
 30
0.0
 10
145.521501677069
 20
-12.11733605957957
 30
0.0
 10
145.5231872860808
 20
-12.11636202820762
 30
0.0
 10
145.5248721217489
 20
-12.11538580470989
 30
0.0
 10
145.5265567814332
 20
-12.11440703487437
 30
0.0
 10
145.528241814172
 20
-12.11342538886492
 30
0.0
 10
145.5299278854262
 20
-12.1124404652906
 30
0.0
 10
145.5316157341294
 20
-12.11145181533791
 30
0.0
 10
145.5327412633611
 20
-12.11079073957296
 30
0.0
 10
145.5333044628629
 20
-12.11045949360019
 30
0.0
 11
145.473599913263
 21
-12.14395343300012
 31
0.0
 11
145.4755081470631
 21
-12.14293094960013
 31
0.0
 11
145.4774022245629
 21
-12.14191303110019
 31
0.0
 11
145.479282489263
 21
-12.14089954960016
 31
0.0
 11
145.481149538463
 21
-12.13989023740012
 31
0.0
 11
145.4830044937631
 21
-12.13888453820018
 31
0.0
 11
145.484848361163
 21
-12.13788195150019
 31
0.0
 11
145.4866821905631
 21
-12.13688194610014
 31
0.0
 11
145.4885067855631
 21
-12.13588411920014
 31
0.0
 11
145.490322180863
 21
-12.13488848470015
 31
0.0
 11
145.4921274872632
 21
-12.13389556550012
 31
0.0
 11
145.493922087663
 21
-12.13290573940017
 31
0.0
 11
145.4957054194629
 21
-12.13191935760014
 31
0.0
 11
145.4974776553632
 21
-12.13093636630018
 31
0.0
 11
145.4992393826629
 21
-12.12995647980014
 31
0.0
 11
145.5009913414629
 21
-12.12897932290016
 31
0.0
 11
145.502734463763
 21
-12.12800440840013
 31
0.0
 11
145.5044693379628
 21
-12.12703143630014
 31
0.0
 11
145.5061965677629
 21
-12.12606009440017
 31
0.0
 11
145.5079169086631
 21
-12.12508998080014
 31
0.0
 11
145.509630791763
 21
-12.12412087300018
 31
0.0
 11
145.5113387473631
 21
-12.12315248900015
 31
0.0
 11
145.5130415353629
 21
-12.12218441320013
 31
0.0
 11
145.5147398812629
 21
-12.12121624440013
 31
0.0
 11
145.516434478363
 21
-12.12024759570013
 31
0.0
 11
145.518125874063
 21
-12.1192781591001
 31
0.0
 11
145.519814663863
 21
-12.11830759590012
 31
0.0
 11
145.5215014667629
 21
-12.11733554940011
 31
0.0
 11
145.523186879163
 21
-12.11636167270015
 31
0.0
 11
145.524871550063
 21
-12.11538558380019
 31
0.0
 11
145.5265560288629
 21
-12.1144069548001
 31
0.0
 11
145.5282409066632
 21
-12.11342542960014
 31
0.0
 11
145.5299266873631
 21
-12.11244069920011
 31
0.0
 11
145.5316142689631
 21
-12.11145222010012
 31
0.0
 11
145.5333044628629
 21
-12.11045949360019
 31
0.0
  0
SPLINE
  5
5671B
330
1F
100
AcDbEntity
  8
1
100
AcDbSpline
210
0.0
220
0.0
230
1.0
 70
     8
 71
     3
 72
    40
 73
    36
 74
    34
 42
0.0000000001
 43
0.0000000001
 44
0.000001
 12
0.9829897778219701
 22
0.1836602752298757
 32
0.0
 13
0.9755011572322501
 23
0.2199943004683095
 33
0.0
 40
0.0
 40
0.0
 40
0.0
 40
0.0
 40
0.0021557349551251
 40
0.0042994647909523
 40
0.0064323604603613
 40
0.0085556510871188
 40
0.0106701178927658
 40
0.0127767774775752
 40
0.0148765180154903
 40
0.0169692147624612
 40
0.0190548468340264
 40
0.0211338300904913
 40
0.023205682767666
 40
0.0252695835675879
 40
0.0273248589978503
 40
0.0293718896264264
 40
0.0314110862472385
 40
0.0334426628597278
 40
0.0354673152098408
 40
0.0374859476565843
 40
0.0394988570754857
 40
0.0415064551757081
 40
0.0435098718650207
 40
0.045509921113016
 40
0.0475076742916899
 40
0.0495037551839697
 40
0.0514991038895984
 40
0.0534942838975776
 40
0.0554897628785785
 40
0.057486496002584
 40
0.0594849522524742
 40
0.0614858191937991
 40
0.0634899050447033
 40
0.0654978452310393
 40
0.0675106811010354
 40
0.0675106811010354
 40
0.0675106811010354
 40
0.0675106811010354
 10
145.217266576663
 20
-12.2286493065001
 30
0.0
 10
145.2179729318046
 20
-12.22851733220838
 30
0.0
 10
145.2193815471047
 20
-12.22825325417219
 30
0.0
 10
145.2214884698122
 20
-12.22785559842938
 30
0.0
 10
145.223584284393
 20
-12.22745740837683
 30
0.0
 10
145.2256700375477
 20
-12.22705852879068
 30
0.0
 10
145.2277467246084
 20
-12.22665880888323
 30
0.0
 10
145.2298152284743
 20
-12.22625811459338
 30
0.0
 10
145.2318761348618
 20
-12.22585636515743
 30
0.0
 10
145.233929689679
 20
-12.22545354366284
 30
0.0
 10
145.2359759842624
 20
-12.22504966270944
 30
0.0
 10
145.2380149931554
 20
-12.22464475734247
 30
0.0
 10
145.2400464293298
 20
-12.22423891481875
 30
0.0
 10
145.2420696501427
 20
-12.22383229547938
 30
0.0
 10
145.2440842953446
 20
-12.2234250055418
 30
0.0
 10
145.2460904074663
 20
-12.22301707054464
 30
0.0
 10
145.2480883187858
 20
-12.22260845593465
 30
0.0
 10
145.2500784642221
 20
-12.22219910430547
 30
0.0
 10
145.2520614394354
 20
-12.2217889227638
 30
0.0
 10
145.2540378665749
 20
-12.22137780974901
 30
0.0
 10
145.2560082745824
 20
-12.22096568021101
 30
0.0
 10
145.2579732655595
 20
-12.22055243135938
 30
0.0
 10
145.2599336096833
 20
-12.22013792181783
 30
0.0
 10
145.2618902914878
 20
-12.21972196083072
 30
0.0
 10
145.2638441296564
 20
-12.21930438861545
 30
0.0
 10
145.2657959832393
 20
-12.21888503294749
 30
0.0
 10
145.2677465450547
 20
-12.21846375369654
 30
0.0
 10
145.2696964564313
 20
-12.21804041871979
 30
0.0
 10
145.2716463630546
 20
-12.2176148921819
 30
0.0
 10
145.2735968792357
 20
-12.21718704216872
 30
0.0
 10
145.2755486902786
 20
-12.21675671826943
 30
0.0
 10
145.2775024330498
 20
-12.21632377787696
 30
0.0
 10
145.2794587979563
 20
-12.21588806351255
 30
0.0
 10
145.2814185897863
 20
-12.21544938899902
 30
0.0
 10
145.2827261710562
 20
-12.21515523703985
 30
0.0
 10
145.283380678963
 20
-12.21500763290012
 30
0.0
 11
145.217266576663
 21
-12.2286493065001
 31
0.0
 11
145.2193853993632
 21
-12.22825208180009
 31
0.0
 11
145.221491938263
 21
-12.2278544878001
 31
0.0
 11
145.223587349663
 21
-12.22745635620018
 31
0.0
 11
145.225672846063
 21
-12.22705750200018
 31
0.0
 11
145.2277491990631
 21
-12.22665781850017
 31
0.0
 11
145.229817410663
 21
-12.22625715000018
 31
0.0
 11
145.231878356063
 21
-12.22585536090017
 31
0.0
 11
145.233931915763
 21
-12.22545250630023
 31
0.0
 11
145.2359780723628
 21
-12.22504862170015
 31
0.0
 11
145.2380172367631
 21
-12.22464365660014
 31
0.0
 11
145.240048939463
 21
-12.22423773500011
 31
0.0
 11
145.2420723785632
 21
-12.22383104970018
 31
0.0
 11
145.2440868977629
 21
-12.22342376730015
 31
0.0
 11
145.2460928742631
 21
-12.22301584670018
 31
0.0
 11
145.248090714463
 21
-12.22260723820014
 31
0.0
 11
145.2500806317631
 21
-12.22219793010018
 31
0.0
 11
145.2520633110631
 21
-12.2217878114001
 31
0.0
 11
145.2540396408632
 21
-12.2213767251001
 31
0.0
 11
145.256009914363
 21
-12.22096463490018
 31
0.0
 11
145.2579745368631
 21
-12.22055147920017
 31
0.0
 11
145.259934615863
 21
-12.22013704530016
 31
0.0
 11
145.261890948963
 21
-12.21972118180017
 31
0.0
 11
145.2638445846629
 21
-12.21930367940015
 31
0.0
 11
145.2657961329629
 21
-12.21888441840011
 31
0.0
 11
145.267746512463
 21
-12.21846320940014
 31
0.0
 11
145.2696962729629
 21
-12.21803993920017
 31
0.0
 11
145.271645870063
 21
-12.21761451220018
 31
0.0
 11
145.2735962351631
 21
-12.21718672650016
 31
0.0
 11
145.2755478239629
 21
-12.21675648060014
 31
0.0
 11
145.2775013051629
 21
-12.21632362380009
 31
0.0
 11
145.279457464563
 21
-12.2158879761001
 31
0.0
 11
145.2814169185632
 21
-12.2154493917001
 31
0.0
 11
145.283380678963
 21
-12.21500763290012
 31
0.0
  0
SPLINE
  5
5671C
330
1F
100
AcDbEntity
  8
1
100
AcDbSpline
210
0.0
220
0.0
230
1.0
 70
     8
 71
     3
 72
    41
 73
    37
 74
    35
 42
0.0000000001
 43
0.0000000001
 44
0.000001
 12
0.9943769463696765
 22
0.1058984821823119
 32
0.0
 13
0.9894598742051009
 23
0.1448073110655193
 33
0.0
 40
0.0
 40
0.0
 40
0.0
 40
0.0
 40
0.0020994898589587
 40
0.0041893106132882
 40
0.0062704561142251
 40
0.0083437188367814
 40
0.0104096062837312
 40
0.012468730303947
 40
0.0145222849571545
 40
0.0165707940506154
 40
0.0186144539774981
 40
0.0206535731643919
 40
0.0226888074982121
 40
0.0247196080196316
 40
0.0267451388280024
 40
0.0287646475284326
 40
0.0307782899665846
 40
0.0327858028697539
 40
0.0347867076592769
 40
0.0367805351868503
 40
0.0387679332500601
 40
0.0407500782052736
 40
0.042728349300022
 40
0.0447035658327664
 40
0.0466765343466318
 40
0.0486480137844756
 40
0.0506183812852578
 40
0.0525879881675562
 40
0.0545576898220793
 40
0.0565281245486313
 40
0.0584994833228418
 40
0.0604723394153176
 40
0.0624476152144629
 40
0.0644262339118042
 40
0.0664090661657608
 40
0.0683968396015477
 40
0.0683968396015477
 40
0.0683968396015477
 40
0.0683968396015477
 10
145.149416926463
 20
-12.23724892320015
 30
0.0
 10
145.1501128212346
 20
-12.23717481227035
 30
0.0
 10
145.1515013120272
 20
-12.23702604905574
 30
0.0
 10
145.1535792872728
 20
-12.23680075676819
 30
0.0
 10
145.1556482880015
 20
-12.23657381087119
 30
0.0
 10
145.1577090753211
 20
-12.23634516785824
 30
0.0
 10
145.1597622835223
 20
-12.23611479445506
 30
0.0
 10
145.1618086796201
 20
-12.23588263897838
 30
0.0
 10
145.1638490356516
 20
-12.23564864495466
 30
0.0
 10
145.1658839857074
 20
-12.23541276778439
 30
0.0
 10
145.1679138704098
 20
-12.23517499429522
 30
0.0
 10
145.1699390739769
 20
-12.23493530444361
 30
0.0
 10
145.1719597337536
 20
-12.2346937055776
 30
0.0
 10
145.173975608375
 20
-12.23445025008831
 30
0.0
 10
145.1759859907538
 20
-12.23420504872965
 30
0.0
 10
145.1779904074427
 20
-12.23395818679796
 30
0.0
 10
145.1799885747114
 20
-12.2337097278544
 30
0.0
 10
145.1819802995714
 20
-12.23345972494459
 30
0.0
 10
145.1839651825439
 20
-12.2332082581839
 30
0.0
 10
145.1859431256798
 20
-12.23295537086696
 30
0.0
 10
145.1879145782215
 20
-12.23270103570556
 30
0.0
 10
145.1898806001079
 20
-12.23244514311656
 30
0.0
 10
145.1918423073523
 20
-12.23218757088506
 30
0.0
 10
145.1938006931501
 20
-12.23192820787378
 30
0.0
 10
145.1957565452281
 20
-12.23166696599969
 30
0.0
 10
145.1977105048121
 20
-12.23140377329798
 30
0.0
 10
145.1996630624281
 20
-12.23113857542455
 30
0.0
 10
145.201614740208
 20
-12.23087131161733
 30
0.0
 10
145.2035661462196
 20
-12.23060190680758
 30
0.0
 10
145.2055178352301
 20
-12.23033029047676
 30
0.0
 10
145.2074702685835
 20
-12.23005640290873
 30
0.0
 10
145.2094240011379
 20
-12.22978016922172
 30
0.0
 10
145.2113798290272
 20
-12.22950147751265
 30
0.0
 10
145.2133386460215
 20
-12.22922019824162
 30
0.0
 10
145.2153012810546
 20
-12.2289362073559
 30
0.0
 10
145.2166109693117
 20
-12.22874525454219
 30
0.0
 10
145.217266576663
 20
-12.2286493065001
 30
0.0
 11
145.149416926463
 21
-12.23724892320015
 31
0.0
 11
145.1515044702629
 21
-12.23702526160016
 31
0.0
 11
145.153582117763
 21
-12.23679999110018
 31
0.0
 11
145.1556508581631
 21
-12.23657305060013
 31
0.0
 11
145.1577114800631
 21
-12.23634439550014
 31
0.0
 11
145.1597644885629
 21
-12.23611400880011
 31
0.0
 11
145.161810492263
 21
-12.23588185880013
 31
0.0
 11
145.163850677863
 21
-12.23564784340013
 31
0.0
 11
145.165885565763
 21
-12.23541193220009
 31
0.0
 11
145.1679153509632
 21
-12.23517413010015
 31
0.0
 11
145.1699403396629
 21
-12.23493442740019
 31
0.0
 11
145.1719611829632
 21
-12.23469277140017
 31
0.0
 11
145.1739773355631
 21
-12.23444925100014
 31
0.0
 11
145.175987967763
 21
-12.23420399260013
 31
0.0
 11
145.177992333263
 21
-12.23395711580011
 31
0.0
 11
145.1799905874628
 21
-12.23370863050016
 31
0.0
 11
145.1819824699629
 21
-12.23345859840017
 31
0.0
 11
145.1839675069628
 21
-12.23320710900012
 31
0.0
 11
145.1859452343629
 21
-12.23295425250015
 31
0.0
 11
145.187916296063
 21
-12.23269997720015
 31
0.0
 11
145.189881859763
 21
-12.23244415980017
 31
0.0
 11
145.1918432936628
 21
-12.23218664480012
 31
0.0
 11
145.193801410163
 21
-12.23192734430014
 31
0.0
 11
145.1957570085629
 21
-12.23166616810013
 31
0.0
 11
145.197710840563
 21
-12.23140302870016
 31
0.0
 11
145.199663279163
 21
-12.23113788680007
 31
0.0
 11
145.2016146715628
 21
-12.23087070460016
 31
0.0
 11
145.2035658640631
 21
-12.23060137330017
 31
0.0
 11
145.205517487463
 21
-12.23032981020017
 31
0.0
 11
145.2074697292629
 21
-12.23005599220019
 31
0.0
 11
145.209423155363
 21
-12.22977984150012
 31
0.0
 11
145.2113786769629
 21
-12.22950122850014
 31
0.0
 11
145.213337205463
 21
-12.22922001910015
 31
0.0
 11
145.2152995997631
 21
-12.22893608300015
 31
0.0
 11
145.217266576663
 21
-12.2286493065001
 31
0.0
  0
SPLINE
  5
5671D
330
1F
100
AcDbEntity
  8
1
100
AcDbSpline
210
0.0
220
0.0
230
1.0
 70
     8
 71
     3
 72
    15
 73
    11
 74
     9
 42
0.0000000001
 43
0.0000000001
 44
0.000001
 12
-0.9995341523545736
 22
0.0305201290433787
 32
0.0
 13
-0.9994985880247446
 23
0.0316634258497379
 33
0.0
 40
0.0
 40
0.0
 40
0.0
 40
0.0
 40
0.1283545482249993
 40
0.2568116738954773
 40
0.3853670982437229
 40
0.5140174891475482
 40
0.6427625600596603
 40
0.7716018809101755
 40
0.9005310218899635
 40
1.02953987820421
 40
1.02953987820421
 40
1.02953987820421
 40
1.02953987820421
 10
138.432696130863
 20
-12.18086409320014
 30
0.0
 10
138.389931212676
 20
-12.17955829407509
 30
0.0
 10
138.3043674784277
 20
-12.1769365180701
 30
0.0
 10
138.1759728113785
 20
-12.17297717900982
 30
0.0
 10
138.0474802861413
 20
-12.16899187170594
 30
0.0
 10
137.9188924665593
 20
-12.16498297079724
 30
0.0
 10
137.7902106421703
 20
-12.16095251899844
 30
0.0
 10
137.6614364441767
 20
-12.1569033072785
 30
0.0
 10
137.5325748042975
 20
-12.15283726601185
 30
0.0
 10
137.4466384844726
 20
-12.15011797228539
 30
0.0
 10
137.4036570945631
 20
-12.14875635150011
 30
0.0
 11
138.432696130863
 21
-12.18086409320014
 31
0.0
 11
138.3044017688631
 21
-12.17693378510015
 31
0.0
 11
138.176005670363
 21
-12.17297448380017
 31
0.0
 11
138.0475120388629
 21
-12.16898893320015
 31
0.0
 11
137.918924127663
 21
-12.16497989190012
 31
0.0
 11
137.7902421491632
 21
-12.16094986380014
 31
0.0
 11
137.6614664659629
 21
-12.15690100510014
 31
0.0
 11
137.532601440963
 21
-12.15283557360018
 31
0.0
 11
137.4036570945631
 21
-12.14875635150011
 31
0.0
  0
SPLINE
  5
5671E
330
1F
100
AcDbEntity
  8
1
100
AcDbSpline
210
0.0
220
0.0
230
1.0
 70
     8
 71
     3
 72
    15
 73
    11
 74
     9
 42
0.0000000001
 43
0.0000000001
 44
0.000001
 12
-0.9996187572485576
 22
0.0276105080874927
 32
0.0
 13
-0.9995738757846492
 23
0.0291901841182045
 33
0.0
 40
0.0
 40
0.0
 40
0.0
 40
0.0
 40
0.1283354155426486
 40
0.2567728937128316
 40
0.385305831579093
 40
0.5139331379644112
 40
0.6426564717716863
 40
0.7714747182649058
 40
0.9003824744936197
 40
1.029374071479053
 40
1.029374071479053
 40
1.029374071479053
 40
1.029374071479053
 10
139.4616519673628
 20
-12.21020088510013
 30
0.0
 10
139.4188898044975
 20
-12.20901974975723
 30
0.0
 10
139.3333317916112
 20
-12.20664491365951
 30
0.0
 10
139.2049468634342
 20
-12.20304895023119
 30
0.0
 10
139.0764655353217
 20
-12.19941973012632
 30
0.0
 10
138.9478897590045
 20
-12.19575965159322
 30
0.0
 10
138.8192196196264
 20
-12.19207231929181
 30
0.0
 10
138.6904566888309
 20
-12.18835957800493
 30
0.0
 10
138.5616049793897
 20
-12.18462333151879
 30
0.0
 10
138.4756750077105
 20
-12.18211918935537
 30
0.0
 10
138.432696130863
 20
-12.18086409320014
 30
0.0
 11
139.4616519673628
 21
-12.21020088510013
 31
0.0
 11
139.3333659379628
 21
-12.20664077450013
 31
0.0
 11
139.204978815363
 21
-12.20304438390011
 31
0.0
 11
139.076497129863
 21
-12.19941492900014
 31
0.0
 11
138.9479218919629
 21
-12.19575547590014
 31
0.0
 11
138.8192513739628
 21
-12.19206844140009
 31
0.0
 11
138.6904866361629
 21
-12.18835595380014
 31
0.0
 11
138.5616330232629
 21
-12.18462030850017
 31
0.0
 11
138.432696130863
 21
-12.18086409320014
 31
0.0
  0
SPLINE
  5
5671F
330
1F
100
AcDbEntity
  8
1
100
AcDbSpline
210
0.0
220
0.0
230
1.0
 70
     8
 71
     3
 72
    15
 73
    11
 74
     9
 42
0.0000000001
 43
0.0000000001
 44
0.000001
 12
-0.9996952981782733
 22
0.0246842216861969
 32
0.0
 13
-0.9996437941717855
 23
0.0266886637701593
 33
0.0
 40
0.0
 40
0.0
 40
0.0
 40
0.0
 40
0.1282896066431936
 40
0.2566918152153812
 40
0.3852058623263785
 40
0.5138186607657371
 40
0.6425190924699916
 40
0.7713050421614125
 40
0.9001811154694204
 40
1.029150374371222
 40
1.029150374371222
 40
1.029150374371222
 40
1.029150374371222
 10
140.4904600560632
 20
-12.23673495290009
 30
0.0
 10
140.4477098838744
 20
-12.23567937653661
 30
0.0
 10
140.3621723649484
 20
-12.23355318683761
 30
0.0
 10
140.2338109816493
 20
-12.23032556833419
 30
0.0
 10
140.1053428571872
 20
-12.22705745827269
 30
0.0
 10
139.9767762850169
 20
-12.22375056248722
 30
0.0
 10
139.8481199332481
 20
-12.22040944315577
 30
0.0
 10
139.7193766087613
 20
-12.21703706412907
 30
0.0
 10
139.5905444417798
 20
-12.21363436943696
 30
0.0
 10
139.5046264071295
 20
-12.21134822416263
 30
0.0
 10
139.4616519673628
 20
-12.21020088510013
 30
0.0
 11
140.4904600560632
 21
-12.23673495290009
 31
0.0
 11
140.362210014763
 21
-12.23354886580014
 31
0.0
 11
140.2338483777631
 21
-12.23032121570011
 31
0.0
 11
140.1053758859631
 21
-12.22705325870018
 31
0.0
 11
139.9768055871628
 21
-12.22374700280014
 31
0.0
 11
139.848148530763
 21
-12.22040570990017
 31
0.0
 11
139.7194067665629
 21
-12.21703265650015
 31
0.0
 11
139.590575615263
 21
-12.21363044930015
 31
0.0
 11
139.4616519673628
 21
-12.21020088510013
 31
0.0
  0
SPLINE
  5
56720
330
1F
100
AcDbEntity
  8
1
100
AcDbSpline
210
0.0
220
0.0
230
1.0
 70
     8
 71
     3
 72
    24
 73
    20
 74
    18
 42
0.0000000001
 43
0.0000000001
 44
0.000001
 12
-0.9997460450447274
 22
0.0225354258319229
 32
0.0
 13
-0.9997076317538615
 23
0.0241795577520699
 33
0.0
 40
0.0
 40
0.0
 40
0.0
 40
0.0
 40
0.0178828971112327
 40
0.047820679290279
 40
0.0782724491080666
 40
0.1080953418156907
 40
0.1364947201858861
 40
0.1668565721046417
 40
0.2001787236499668
 40
0.236687590032044
 40
0.2766561521658919
 40
0.3204802963058166
 40
0.3685930910292219
 40
0.4214963526450452
 40
0.4797575991773265
 40
0.5442338837685066
 40
0.6159565152091034
 40
0.6958427337994464
 40
0.7850677676584418
 40
0.7850677676584418
 40
0.7850677676584418
 40
0.7850677676584418
 10
141.2753134513629
 20
-12.2550762622001
 30
0.0
 10
141.2693539994759
 20
-12.2549419292996
 30
0.0
 10
141.2534178279991
 20
-12.254582405408
 30
0.0
 10
141.2273336787863
 20
-12.25399260914241
 30
0.0
 10
141.1972705917929
 20
-12.2533109123286
 30
0.0
 10
141.1677202175122
 20
-12.2526389369988
 30
0.0
 10
141.1381998488821
 20
-12.25196585278911
 30
0.0
 10
141.1075134105594
 20
-12.25126412888622
 30
0.0
 10
141.0741245539742
 20
-12.25049895075989
 30
0.0
 10
141.0375343476712
 20
-12.24965838046708
 30
0.0
 10
140.9974444770018
 20
-12.24873408809944
 30
0.0
 10
140.9534877475997
 20
-12.2477167545955
 30
0.0
 10
140.9052207207595
 20
-12.24659471092596
 30
0.0
 10
140.8521427708279
 20
-12.24535462019636
 30
0.0
 10
140.7936119991158
 20
-12.24397915469319
 30
0.0
 10
140.7288100565193
 20
-12.24244693739186
 30
0.0
 10
140.6568020590872
 20
-12.24073357296643
 30
0.0
 10
140.5765471155827
 20
-12.23881129578223
 30
0.0
 10
140.5201930384939
 20
-12.2374540935198
 30
0.0
 10
140.4904600560632
 20
-12.23673495290009
 30
0.0
 11
141.2753134513629
 21
-12.2550762622001
 31
0.0
 11
141.2574351042632
 21
-12.25467288330017
 31
0.0
 11
141.2275049776632
 21
-12.25399588410019
 31
0.0
 11
141.1970610372629
 21
-12.25330538730011
 31
0.0
 11
141.1672458491631
 21
-12.25262752430015
 31
0.0
 11
141.138853842163
 21
-12.25198049920019
 31
0.0
 11
141.1084999093628
 21
-12.25128708010018
 31
0.0
 11
141.0751864964628
 21
-12.25052399430015
 31
0.0
 11
141.0386872629629
 21
-12.24968538430013
 31
0.0
 11
140.998729319063
 21
-12.24876414900009
 31
0.0
 11
140.954916908163
 21
-12.24775011700015
 31
0.0
 11
140.9068171090631
 21
-12.24663192840015
 31
0.0
 11
140.8539282817629
 21
-12.24539619290013
 31
0.0
 11
140.795683114463
 21
-12.24402749190014
 31
0.0
 11
140.731224842863
 21
-12.24250351410015
 31
0.0
 11
140.6595225036632
 21
-12.24079751670015
 31
0.0
 11
140.5796591814629
 21
-12.23888500580014
 31
0.0
 11
140.4904600560632
 21
-12.23673495290009
 31
0.0
  0
SPLINE
  5
56721
330
1F
100
AcDbEntity
  8
1
100
AcDbSpline
210
0.0
220
0.0
230
1.0
 70
     8
 71
     3
 72
    22
 73
    18
 74
    16
 42
0.0000000001
 43
0.0000000001
 44
0.000001
 12
-0.3921572058543344
 22
-0.9198982149653955
 32
0.0
 13
-0.528623876631518
 23
-0.8488561698280019
 33
0.0
 40
0.0
 40
0.0
 40
0.0
 40
0.0
 40
0.010305976362537
 40
0.0206147535927305
 40
0.0309265464299851
 40
0.041241105256992
 40
0.0515584470867853
 40
0.0618783234157784
 40
0.0722006225105462
 40
0.0825255085979962
 40
0.092852989075454
 40
0.1031833106961832
 40
0.1135163837619889
 40
0.1238521793700572
 40
0.134190448331392
 40
0.1445308122887018
 40
0.1548734196145533
 40
0.1548734196145533
 40
0.1548734196145533
 40
0.1548734196145533
 10
145.9715143953632
 20
-11.55960268150014
 30
0.0
 10
145.9701672077318
 20
-11.56276283125325
 30
0.0
 10
145.967439877806
 20
-11.56907015408833
 30
0.0
 10
145.9632511231462
 20
-11.57848982819203
 30
0.0
 10
145.9589645415091
 20
-11.5878685476701
 30
0.0
 10
145.9545804774068
 20
-11.59720524610773
 30
0.0
 10
145.9500999633318
 20
-11.6064990374665
 30
0.0
 10
145.9455229826208
 20
-11.61574858234144
 30
0.0
 10
145.9408501259275
 20
-11.62495288250173
 30
0.0
 10
145.9360818348798
 20
-11.6341109647557
 30
0.0
 10
145.9312185254922
 20
-11.64322197566056
 30
0.0
 10
145.9262606357188
 20
-11.65228497765582
 30
0.0
 10
145.9212086921923
 20
-11.66129906649487
 30
0.0
 10
145.9160635305536
 20
-11.67026332820867
 30
0.0
 10
145.9108253811174
 20
-11.67917639689906
 30
0.0
 10
145.9054949115069
 20
-11.68803719876772
 30
0.0
 10
145.9018804257895
 20
-11.69390824378661
 30
0.0
 10
145.900057976063
 20
-11.69683470580017
 30
0.0
 11
145.9715143953632
 21
-11.55960268150014
 31
0.0
 11
145.9674241379631
 21
-11.56906228360017
 31
0.0
 11
145.9632357000629
 21
-11.57848190070015
 31
0.0
 11
145.958949398063
 21
-11.58786070340014
 31
0.0
 11
145.9545657629629
 21
-11.5971974531001
 31
0.0
 11
145.9500852444631
 21
-11.60649111820012
 31
0.0
 11
145.945508360763
 21
-11.61574053440014
 31
0.0
 11
145.9408356223631
 21
-11.62494461690013
 31
0.0
 11
145.936067431163
 21
-11.63410253060013
 31
0.0
 11
145.931204257363
 21
-11.64321330050009
 31
0.0
 11
145.9262464655632
 21
-11.65227616550012
 31
0.0
 11
145.9211946016631
 21
-11.66129007320015
 31
0.0
 11
145.9160491810631
 21
-11.67025403640016
 31
0.0
 11
145.9108108276629
 21
-11.67916689550017
 31
0.0
 11
145.9054802692632
 21
-11.68802738670015
 31
0.0
 11
145.900057976063
 21
-11.69683470580017
 31
0.0
  0
SPLINE
  5
56722
330
1F
100
AcDbEntity
  8
1
100
AcDbSpline
210
0.0
220
0.0
230
1.0
 70
     8
 71
     3
 72
    23
 73
    19
 74
    17
 42
0.0000000001
 43
0.0000000001
 44
0.000001
 12
-0.2422901253804503
 22
-0.9702038420574956
 32
0.0
 13
-0.3915625629086832
 23
-0.9201514871630559
 33
0.0
 40
0.0
 40
0.0
 40
0.0
 40
0.0
 40
0.0097666588534999
 40
0.0195346417021375
 40
0.0293037923556152
 40
0.0390743558338641
 40
0.0488462221313498
 40
0.058619317521529
 40
0.0683938304785831
 40
0.0781697694612519
 40
0.0879475174113195
 40
0.0977272048080268
 40
0.1075089590888032
 40
0.1172929349245162
 40
0.1270786982148538
 40
0.1368665641552266
 40
0.1466563722882838
 40
0.1564483300269383
 40
0.1564483300269383
 40
0.1564483300269383
 40
0.1564483300269383
 10
146.0212099409631
 20
-11.41142698450014
 30
0.0
 10
146.0204211526303
 20
-11.41458553448137
 30
0.0
 10
146.0188122369908
 20
-11.42089531024101
 30
0.0
 10
146.0163053755874
 20
-11.43033623507875
 30
0.0
 10
146.0137051494351
 20
-11.43975323384879
 30
0.0
 10
146.0110118207127
 20
-11.44914537077258
 30
0.0
 10
146.0082261355232
 20
-11.45851190316986
 30
0.0
 10
146.0053477733503
 20
-11.46785175070926
 30
0.0
 10
146.002377151127
 20
-11.47716408931296
 30
0.0
 10
145.9993144306295
 20
-11.48644817865258
 30
0.0
 10
145.9961598500405
 20
-11.49570328102075
 30
0.0
 10
145.9929136197233
 20
-11.50492869119569
 30
0.0
 10
145.9895760274822
 20
-11.51412365213585
 30
0.0
 10
145.9861471980163
 20
-11.52328714272343
 30
0.0
 10
145.9826281096359
 20
-11.53241853354734
 30
0.0
 10
145.9790184931829
 20
-11.54151661510482
 30
0.0
 10
145.9753186879344
 20
-11.55058061439601
 30
0.0
 10
145.9727924500525
 20
-11.55659932000833
 30
0.0
 10
145.9715143953632
 20
-11.55960268150014
 30
0.0
 11
146.0212099409631
 21
-11.41142698450014
 31
0.0
 11
146.018796884363
 21
-11.42089089960009
 31
0.0
 11
146.0162902918629
 21
-11.43033184820015
 31
0.0
 11
146.0136904423631
 21
-11.43974875160015
 31
0.0
 11
146.0109975113629
 21
-11.44914091150011
 31
0.0
 11
146.0082117786629
 21
-11.45850727480015
 31
0.0
 11
146.0053335174631
 21
-11.46784691010018
 31
0.0
 11
146.0023629433632
 21
-11.47715908570015
 31
0.0
 11
145.999300322463
 21
-11.48644289850014
 31
0.0
 11
145.996145814163
 21
-11.49569780410016
 31
0.0
 11
145.9928996663631
 21
-11.50492302120014
 31
0.0
 11
145.9895621236629
 21
-11.51411776400019
 31
0.0
 11
145.9861334226631
 21
-11.52328127100011
 31
0.0
 11
145.982614032163
 21
-11.53241224700011
 31
0.0
 11
145.9790041624629
 21
-11.54151010740011
 31
0.0
 11
145.975304196963
 21
-11.55057381570012
 31
0.0
 11
145.9715143953632
 21
-11.55960268150014
 31
0.0
  0
SPLINE
  5
56723
330
1F
100
AcDbEntity
  8
1
100
AcDbSpline
210
0.0
220
0.0
230
1.0
 70
     8
 71
     3
 72
    22
 73
    18
 74
    16
 42
0.0000000001
 43
0.0000000001
 44
0.000001
 12
-0.0924202070271411
 22
-0.9957200938682822
 32
0.0
 13
-0.2410830776333412
 23
-0.9705044820498441
 33
0.0
 40
0.0
 40
0.0
 40
0.0
 40
0.0
 40
0.0098508584371792
 40
0.0197066562732318
 40
0.0295663272909289
 40
0.0394298579702018
 40
0.0492970912289744
 40
0.059167842022875
 40
0.0690423245901177
 40
0.0789201446525809
 40
0.0888012456117369
 40
0.0986844926302199
 40
0.1085690857391849
 40
0.1184548278173522
 40
0.1283414807632657
 40
0.1382295073426493
 40
0.1481187325325329
 40
0.1481187325325329
 40
0.1481187325325329
 40
0.1481187325325329
 10
146.0459661100632
 20
-11.26553355790011
 30
0.0
 10
146.0456626372712
 20
-11.26880312379603
 30
0.0
 10
146.045022555543
 20
-11.27534088179982
 30
0.0
 10
146.0439634485243
 20
-11.28513941036018
 30
0.0
 10
146.0428052210836
 20
-11.29493098127636
 30
0.0
 10
146.041548006932
 20
-11.30471417554398
 30
0.0
 10
146.0401919113777
 20
-11.31448788352287
 30
0.0
 10
146.038737034415
 20
-11.32425106684837
 30
0.0
 10
146.0371834896343
 20
-11.33400261012113
 30
0.0
 10
146.0355313881201
 20
-11.34374143990496
 30
0.0
 10
146.0337809252537
 20
-11.35346604022609
 30
0.0
 10
146.0319323433599
 20
-11.36317476502543
 30
0.0
 10
146.0299859231092
 20
-11.37286592732445
 30
0.0
 10
146.0279419095123
 20
-11.382538135912
 30
0.0
 10
146.0258004695548
 20
-11.39219041708432
 30
0.0
 10
146.0235617711763
 20
-11.4018217868404
 30
0.0
 10
146.0220046492444
 20
-11.40822780537655
 30
0.0
 10
146.0212099409631
 20
-11.41142698450014
 30
0.0
 11
146.0459661100632
 21
-11.26553355790011
 31
0.0
 11
146.0450063339632
 21
-11.27533759600018
 31
0.0
 11
146.0439473644629
 21
-11.28513638760014
 31
0.0
 11
146.042789350363
 21
-11.29492786320011
 31
0.0
 11
146.041532344563
 21
-11.30471100370019
 31
0.0
 11
146.0401764215631
 21
-11.31448464950014
 31
0.0
 11
146.0387216746632
 21
-11.32424761640018
 31
0.0
 11
146.037168168663
 21
-11.33399912060011
 31
0.0
 11
146.0355160720629
 21
-11.34373777970015
 31
0.0
 11
146.0337655076629
 21
-11.35346254670017
 31
0.0
 11
146.0319168065631
 21
-11.36317131680019
 31
0.0
 11
146.0299702759631
 21
-11.37286232150009
 31
0.0
 11
146.0279261267629
 21
-11.38253438770019
 31
0.0
 11
146.025784593863
 21
-11.39218630510018
 31
0.0
 11
146.0235457829632
 21
-11.40181755210014
 31
0.0
 11
146.0212099409631
 21
-11.41142698450014
 31
0.0
  0
SPLINE
  5
56724
330
1F
100
AcDbEntity
  8
1
100
AcDbSpline
210
0.0
220
0.0
230
1.0
 70
     8
 71
     3
 72
    60
 73
    56
 74
    54
 42
0.0000000001
 43
0.0000000001
 44
0.000001
 12
0.0617078449968043
 22
-0.9980942550009244
 32
0.0
 13
0.0007198759664897
 23
-0.9999997408892628
 33
0.0
 40
0.0
 40
0.0
 40
0.0
 40
0.0
 40
0.0432744837885932
 40
0.0823935686413708
 40
0.117753275128666
 40
0.1497220396492021
 40
0.1786677361256071
 40
0.2049579182662269
 40
0.2289612973591186
 40
0.2510367030538518
 40
0.2714400706075915
 40
0.290227956184454
 40
0.3074326456797626
 40
0.3230888143846662
 40
0.3372401682802951
 40
0.349991265494681
 40
0.3615097087536232
 40
0.3719613084208726
 40
0.3814767611587308
 40
0.3900733407339416
 40
0.3977667556745743
 40
0.4047613026779239
 40
0.4113991159086458
 40
0.4179911796457161
 40
0.4246423719514152
 40
0.4312995505542819
 40
0.4379259624949995
 40
0.4445326626112049
 40
0.4513306213811492
 40
0.4586060647178212
 40
0.4666431659472795
 40
0.4757432275953848
 40
0.4862224114174917
 40
0.4982100138526157
 40
0.5109769144584914
 40
0.5237251080617631
 40
0.5364085899827461
 40
0.5491335174157155
 40
0.5618998155988009
 40
0.5746609883569443
 40
0.587316263397301
 40
0.600032276931194
 40
0.6133728508368038
 40
0.6279311261331077
 40
0.6442952238062879
 40
0.663049061736249
 40
0.6845048963668328
 40
0.7072608473498066
 40
0.7296861738991871
 40
0.7517301393963223
 40
0.7738938224329284
 40
0.7970569753997632
 40
0.8221667547043242
 40
0.8501715043166257
 40
0.8820608283995325
 40
0.8820608283995325
 40
0.8820608283995325
 40
0.8820608283995325
 10
146.0286897864631
 20
-10.21274952950014
 30
0.0
 10
146.0295799115091
 20
-10.22714686738598
 30
0.0
 10
146.0312614010585
 20
-10.25455986954674
 30
0.0
 10
146.0336489962849
 20
-10.29373828198004
 30
0.0
 10
146.0357558531616
 20
-10.3291582122514
 30
0.0
 10
146.03760410946
 20
-10.3611963536299
 30
0.0
 10
146.0392172363186
 20
-10.39021979727266
 30
0.0
 10
146.0406231040275
 20
-10.41659546602486
 30
0.0
 10
146.0418499396622
 20
-10.44068726107568
 30
0.0
 10
146.0429234104325
 20
-10.46282198550122
 30
0.0
 10
146.0438629541696
 20
-10.48322260157803
 30
0.0
 10
146.044682351396
 20
-10.50200340070674
 30
0.0
 10
146.0453920918152
 20
-10.51920502841926
 30
0.0
 10
146.0460024796094
 20
-10.5348638866327
 30
0.0
 10
146.046524437017
 20
-10.54904049807746
 30
0.0
 10
146.0469697402917
 20
-10.56183972697872
 30
0.0
 10
146.0473503418048
 20
-10.5734071869997
 30
0.0
 10
146.0476770522092
 20
-10.58389727081592
 30
0.0
 10
146.0479578785408
 20
-10.59341434306375
 30
0.0
 10
146.0481985549433
 20
-10.60201279415761
 30
0.0
 10
146.0484049443197
 20
-10.60977156568427
 30
0.0
 10
146.0485849267505
 20
-10.61687788031727
 30
0.0
 10
146.048747537689
 20
-10.62361739506639
 30
0.0
 10
146.0488995807387
 20
-10.63024267531679
 30
0.0
 10
146.0490438437163
 20
-10.63687458626867
 30
0.0
 10
146.0491802876771
 20
-10.64351811454193
 30
0.0
 10
146.0493083573691
 20
-10.6501469760297
 30
0.0
 10
146.0494291855133
 20
-10.6568229079491
 30
0.0
 10
146.0495453455358
 20
-10.66371529842249
 30
0.0
 10
146.0496598226979
 20
-10.67108457938693
 30
0.0
 10
146.0497744225312
 20
-10.67922131097069
 30
0.0
 10
146.0498889318024
 20
-10.68842605236756
 30
0.0
 10
146.0499997327841
 20
-10.69894775903341
 30
0.0
 10
146.0500971112999
 20
-10.71069192919773
 30
0.0
 10
146.0501690630905
 20
-10.72319263553263
 30
0.0
 10
146.0502078800904
 20
-10.73592545232375
 30
0.0
 10
146.0502111953951
 20
-10.74864433197615
 30
0.0
 10
146.0501907449317
 20
-10.76136922165861
 30
0.0
 10
146.050158252904
 20
-10.77411997978555
 30
0.0
 10
146.0501267814032
 20
-10.7868475235719
 30
0.0
 10
146.0501065055544
 20
-10.7995583292317
 30
0.0
 10
146.0500926352078
 20
-10.81246227614008
 30
0.0
 10
146.0500822743538
 20
-10.82600055983408
 30
0.0
 10
146.0500708586233
 20
-10.84075487104974
 30
0.0
 10
146.0500553406262
 20
-10.85731360079418
 30
0.0
 10
146.0500373284072
 20
-10.87617151559965
 30
0.0
 10
146.0500205758891
 20
-10.89716005025164
 30
0.0
 10
146.0500075565824
 20
-10.91937241728274
 30
0.0
 10
146.0499974969087
 20
-10.94178082941235
 30
0.0
 10
146.0499901874656
 20
-10.96399181997046
 30
0.0
 10
146.0499861028532
 20
-10.98644875352008
 30
0.0
 10
146.0499856982713
 20
-11.00992762541645
 30
0.0
 10
146.049989910521
 20
-11.03535351912344
 30
0.0
 10
146.0499995708593
 20
-11.0636881354772
 30
0.0
 10
146.0500128768434
 20
-11.08365282256011
 30
0.0
 10
146.0500205289628
 20
-11.09428259450013
 30
0.0
 11
146.0286897864631
 21
-10.21274952950014
 31
0.0
 11
146.0313442090629
 21
-10.25594255290016
 31
0.0
 11
146.0337162809629
 21
-10.29498965380017
 31
0.0
 11
146.035812925763
 21
-10.33028714670016
 31
0.0
 11
146.037651406563
 21
-10.36220300450011
 31
0.0
 11
146.039255888763
 21
-10.39110419930014
 31
0.0
 11
146.040653825563
 21
-10.4173571900001
 31
0.0
 11
146.0418735481631
 21
-10.44132956050012
 31
0.0
 11
146.042942099163
 21
-10.46337909090019
 31
0.0
 11
146.0438801667629
 21
-10.48376088390014
 31
0.0
 11
146.0446986289631
 21
-10.5025309347001
 31
0.0
 11
146.0454075422632
 21
-10.51972101380013
 31
0.0
 11
146.0460171033629
 21
-10.53536531260013
 31
0.0
 11
146.0465375906629
 21
-10.54950709240014
 31
0.0
 11
146.0469808163631
 21
-10.56225048490015
 31
0.0
 11
146.0473595024629
 21
-10.57376270230011
 31
0.0
 11
146.0476847847632
 21
-10.58420923960014
 31
0.0
 11
146.0479653876629
 21
-10.59372055470013
 31
0.0
 11
146.048205878763
 21
-10.60231377030018
 31
0.0
 11
146.048410429663
 21
-10.6100044660001
 31
0.0
 11
146.048587504163
 21
-10.61699677170011
 31
0.0
 11
146.0487475975629
 21
-10.62363265450014
 31
0.0
 11
146.0488988211628
 21
-10.63022298390015
 31
0.0
 11
146.0490434548629
 21
-10.63687260390011
 31
0.0
 11
146.0491801445629
 21
-10.64352837950017
 31
0.0
 11
146.0493081344631
 21
-10.65015355570014
 31
0.0
 11
146.0494276802629
 21
-10.65675917460012
 31
0.0
 11
146.0495422202631
 21
-10.66355616880017
 31
0.0
 11
146.049655208763
 21
-10.6708307352001
 31
0.0
 11
146.0497683675631
 21
-10.67886704030016
 31
0.0
 11
146.049881521663
 21
-10.68796639900014
 31
0.0
 11
146.049991790563
 21
-10.69844500330012
 31
0.0
 11
146.0500910508632
 21
-10.71043219550015
 31
0.0
 11
146.0501643343631
 21
-10.72319888650011
 31
0.0
 11
146.0502030072631
 21
-10.73594702210019
 31
0.0
 11
146.050208249863
 21
-10.74863050350009
 31
0.0
 11
146.050189774363
 21
-10.76135541800013
 31
0.0
 11
146.050159409263
 21
-10.77412168050014
 31
0.0
 11
146.050129568263
 21
-10.78688281880014
 31
0.0
 11
146.0501086325631
 21
-10.79953807700011
 31
0.0
 11
146.0500944993629
 21
-10.81225408320014
 31
0.0
 11
146.0500835670631
 21
-10.82559465320023
 31
0.0
 11
146.0500719509629
 21
-10.84015292450013
 31
0.0
 11
146.0500570413629
 21
-10.85651701610018
 31
0.0
 11
146.0500396463629
 21
-10.87527084680019
 31
0.0
 11
146.0500226577629
 21
-10.89672667570013
 31
0.0
 11
146.0500090161628
 21
-10.91948262370013
 31
0.0
 11
146.0499988915632
 21
-10.94190794910022
 31
0.0
 11
146.049991739963
 21
-10.96395191460013
 31
0.0
 11
146.049987758263
 21
-10.9861155985001
 31
0.0
 11
146.0499873870632
 21
-11.00927875280016
 31
0.0
 11
146.0499914441631
 21
-11.03438853330013
 31
0.0
 11
146.0500015502631
 21
-11.0623932829001
 31
0.0
 11
146.0500205289628
 21
-11.09428259450013
 31
0.0
  0
SPLINE
  5
56725
330
1F
100
AcDbEntity
  8
1
100
AcDbSpline
210
0.0
220
0.0
230
1.0
 70
     8
 71
     3
 72
    30
 73
    26
 74
    24
 42
0.0000000001
 43
0.0000000001
 44
0.000001
 12
0.0501108550457803
 22
-0.9987436619105929
 32
0.0
 13
0.0685508443136677
 23
-0.9976476240356028
 33
0.0
 40
0.0
 40
0.0
 40
0.0
 40
0.0
 40
0.1293520783929329
 40
0.2603192429101311
 40
0.3930945670088597
 40
0.5277045224368225
 40
0.6595685337597848
 40
0.7806610712026174
 40
0.8876429477450827
 40
0.9818894022042851
 40
1.06523483268264
 40
1.139357155344317
 40
1.20578968228768
 40
1.265838053149865
 40
1.320505457373278
 40
1.369133043826355
 40
1.413180334556956
 40
1.454877083267379
 40
1.49578016481331
 40
1.535065932231161
 40
1.571692658062114
 40
1.606311803942124
 40
1.640121211669995
 40
1.673713296021006
 40
1.707260265385091
 40
1.707260265385091
 40
1.707260265385091
 40
1.707260265385091
 10
145.9360279606632
 20
-8.50802212110014
 30
0.0
 10
145.9381886084132
 20
-8.551085310583431
 30
0.0
 10
145.9425586504038
 20
-8.637748284004885
 30
0.0
 10
145.9492220368342
 20
-8.76861027617636
 30
0.0
 10
145.9560646729831
 20
-8.901218011263296
 30
0.0
 10
145.9630329438729
 20
-9.034118574751886
 30
0.0
 10
145.9699274704217
 20
-9.163123319156312
 30
0.0
 10
145.9763821526269
 20
-9.282929041909625
 30
0.0
 10
145.9821539552664
 20
-9.390214187195482
 30
0.0
 10
145.9872094951042
 20
-9.484937296127839
 30
0.0
 10
145.9916266893525
 20
-9.568725688438433
 30
0.0
 10
145.9954958646418
 20
-9.643258757141211
 30
0.0
 10
145.9989579585822
 20
-9.710036811326716
 30
0.0
 10
146.0021129476602
 20
-9.770337103172863
 30
0.0
 10
146.0050051031901
 20
-9.824708032948677
 30
0.0
 10
146.007670136002
 20
-9.873749780887607
 30
0.0
 10
146.010159596395
 20
-9.918471101565529
 30
0.0
 10
146.0125679163208
 20
-9.960618074203495
 30
0.0
 10
146.0149522409891
 20
-10.00117660445741
 30
0.0
 10
146.0173085171594
 20
-10.04004379339798
 30
0.0
 10
146.0196071164113
 20
-10.07681592735727
 30
0.0
 10
146.0218671512793
 20
-10.1117613721224
 30
0.0
 10
146.0241223412193
 20
-10.145693406111
 30
0.0
 10
146.0263992872009
 20
-10.17926577217764
 30
0.0
 10
146.0279232287718
 20
-10.20159351140691
 30
0.0
 10
146.0286897864631
 20
-10.21274952950014
 30
0.0
 11
145.9360279606632
 21
-8.50802212110014
 31
0.0
 11
145.942543067763
 21
-8.637210009200117
 31
0.0
 11
145.949207097963
 21
-8.768007520200143
 31
0.0
 11
145.956052360263
 21
-8.900606272700116
 31
0.0
 11
145.9631047047629
 21
-9.035031362100113
 31
0.0
 11
145.9701299470631
 21
-9.166708101000182
 31
0.0
 11
145.976634539263
 21
-9.287625812500124
 31
0.0
 11
145.982374947163
 21
-9.394453569300168
 31
0.0
 11
145.9873933070631
 21
-9.488566321900094
 31
0.0
 11
145.991777731563
 21
-9.571796349700122
 31
0.0
 11
145.9956288736631
 21
-9.645818557900184
 31
0.0
 11
145.9990746567629
 21
-9.712161659100189
 31
0.0
 11
146.0022167596631
 21
-9.772127765200167
 31
0.0
 11
146.0051240757631
 21
-9.826717804900141
 31
0.0
 11
146.007765188663
 21
-9.875273613200107
 31
0.0
 11
146.010215213363
 21
-9.919252710700135
 31
0.0
 11
146.012595498663
 21
-9.960881461100171
 31
0.0
 11
146.014997580363
 21
-10.00171394450015
 31
0.0
 11
146.0173758541628
 21
-10.0409276472001
 31
0.0
 11
146.019663351463
 21
-10.07748279020009
 31
0.0
 11
146.0218939470629
 21
-10.11203006080009
 31
0.0
 11
146.024133782863
 21
-10.14576521770019
 31
0.0
 11
146.026401705163
 21
-10.17928065670017
 31
0.0
 11
146.0286897864631
 21
-10.21274952950014
 31
0.0
  0
SPLINE
  5
56726
330
1F
100
AcDbEntity
  8
1
100
AcDbSpline
210
0.0
220
0.0
230
1.0
 70
     8
 71
     3
 72
    20
 73
    16
 74
    14
 42
0.0000000001
 43
0.0000000001
 44
0.000001
 12
0.0504646768136967
 22
-0.9987258464634273
 32
0.0
 13
0.0566339771029237
 23
-0.9983950083196058
 33
0.0
 40
0.0
 40
0.0
 40
0.0
 40
0.0
 40
0.1299695316086983
 40
0.2634842210377934
 40
0.3944523656994926
 40
0.5221927303531916
 40
0.6478471449831414
 40
0.7733154705046027
 40
0.8993462909828181
 40
1.025951314724574
 40
1.153060762889024
 40
1.27968726531154
 40
1.405383091946248
 40
1.530137234819413
 40
1.653965431159819
 40
1.653965431159819
 40
1.653965431159819
 40
1.653965431159819
 10
145.847432052563
 20
-6.856434001700137
 30
0.0
 10
145.849618342699
 20
-6.89970197852358
 30
0.0
 10
145.8540724107605
 20
-6.987417042499998
 30
0.0
 10
145.860798977825
 20
-7.11872899472641
 30
0.0
 10
145.8675509599007
 20
-7.249295600386091
 30
0.0
 10
145.8742287861337
 20
-7.377242433152702
 30
0.0
 10
145.8808716059753
 20
-7.503355310179529
 30
0.0
 10
145.8875452718704
 20
-7.628895909740208
 30
0.0
 10
145.8942979216613
 20
-7.754749612525017
 30
0.0
 10
145.9011436520176
 20
-7.881146132948259
 30
0.0
 10
145.9080656340212
 20
-8.007737358559325
 30
0.0
 10
145.9150367186354
 20
-8.13402236306419
 30
0.0
 10
145.9220242150107
 20
-8.259520149775966
 30
0.0
 10
145.9290159433016
 20
-8.384083473347402
 30
0.0
 10
145.9336903329177
 20
-8.466812303394988
 30
0.0
 10
145.9360279606632
 20
-8.50802212110014
 30
0.0
 11
145.847432052563
 21
-6.856434001700137
 31
0.0
 11
145.8540209989629
 21
-6.986236411500186
 31
0.0
 11
145.860852304963
 21
-7.119576223700136
 31
0.0
 11
145.8676160755632
 21
-7.250369596500178
 31
0.0
 11
145.8742743194631
 21
-7.377936318700136
 31
0.0
 11
145.880884009363
 21
-7.503416771300095
 31
0.0
 11
145.8875446109629
 21
-7.628708180300151
 31
0.0
 11
145.894297226563
 21
-7.754557971600121
 31
0.0
 11
145.901144442263
 21
-7.880977700100146
 31
0.0
 11
145.9080844420629
 21
-8.007897550000137
 31
0.0
 11
145.915062877263
 21
-8.134331614400167
 31
0.0
 11
145.922050119963
 21
-8.259833085900169
 31
0.0
 11
145.929039982063
 21
-8.384391257200178
 31
0.0
 11
145.9360279606632
 21
-8.50802212110014
 31
0.0
  0
SPLINE
  5
56727
330
1F
100
AcDbEntity
  8
1
100
AcDbSpline
210
0.0
220
0.0
230
1.0
 70
     8
 71
     3
 72
    16
 73
    12
 74
    10
 42
0.0000000001
 43
0.0000000001
 44
0.000001
 12
0.0523642815861715
 22
-0.998628049883421
 32
0.0
 13
0.0569679970418007
 23
-0.9983760049766047
 33
0.0
 40
0.0
 40
0.0
 40
0.0
 40
0.0
 40
0.0854285124864044
 40
0.1685700608951334
 40
0.2492343870075947
 40
0.3282451804659707
 40
0.4084813185551556
 40
0.4933911897962022
 40
0.585110605851426
 40
0.6853132240076081
 40
0.7972341521209701
 40
0.7972341521209701
 40
0.7972341521209701
 40
0.7972341521209701
 10
145.8037462345629
 20
-6.060398405900144
 30
0.0
 10
145.8052373687907
 20
-6.088835508843061
 30
0.0
 10
145.8081957899475
 20
-6.144947597169618
 30
0.0
 10
145.8126091243547
 20
-6.227908422370546
 30
0.0
 10
145.8169512389548
 20
-6.308730761233903
 30
0.0
 10
145.8212825729575
 20
-6.388583801698956
 30
0.0
 10
145.8257340428641
 20
-6.469847576377361
 30
0.0
 10
145.8304615357238
 20
-6.555338777764831
 30
0.0
 10
145.8356032493137
 20
-6.647472723710677
 30
0.0
 10
145.8412987944532
 20
-6.748593443054858
 30
0.0
 10
145.8453067488625
 20
-6.819187612005777
 30
0.0
 10
145.847432052563
 20
-6.856434001700137
 30
0.0
 11
145.8037462345629
 21
-6.060398405900144
 31
0.0
 11
145.808241745363
 21
-6.145708556500181
 31
0.0
 11
145.8126593641629
 21
-6.228732659500138
 31
0.0
 11
145.8169868031629
 21
-6.309280824000126
 31
0.0
 11
145.8212664345629
 21
-6.388175629200105
 31
0.0
 11
145.825654558963
 21
-6.468291684400156
 31
0.0
 11
145.830342103463
 21
-6.553072067000158
 31
0.0
 11
145.8354522113628
 21
-6.644649019600166
 31
0.0
 11
145.841085208163
 21
-6.744693182500128
 31
0.0
 11
145.847432052563
 21
-6.856434001700137
 31
0.0
  0
ARC
  5
56728
330
1F
100
AcDbEntity
  8
1
100
AcDbCircle
 10
144.8040611306629
 20
-10.42866700000016
 30
0.0
 40
1.8495305
100
AcDbArc
 50
285.0200780000069
 51
287.113774
  0
ARC
  5
56729
330
1F
100
AcDbEntity
  8
1
100
AcDbCircle
 10
144.7382981306629
 20
-10.46526500000013
 30
0.0
 40
1.835383
100
AcDbArc
 50
289.4126370000055
 51
291.5276320000017
  0
ARC
  5
5672A
330
1F
100
AcDbEntity
  8
1
100
AcDbCircle
 10
144.6927141306629
 20
-10.54077700000013
 30
0.0
 40
1.783243999999999
100
AcDbArc
 50
293.7809529999921
 51
295.9700880000097
  0
ARC
  5
5672B
330
1F
100
AcDbEntity
  8
1
100
AcDbCircle
 10
145.0642096306629
 20
-10.91833650000015
 30
0.0
 40
1.321662
100
AcDbArc
 50
273.4000250000002
 51
273.6964119999963
  0
ARC
  5
5672C
330
1F
100
AcDbEntity
  8
1
100
AcDbCircle
 10
145.0371406306632
 20
-11.15926200000015
 30
0.0
 40
1.0166665
100
AcDbArc
 50
325.2284509999981
 51
328.0782749999971
  0
ARC
  5
5672D
330
1F
100
AcDbEntity
  8
1
100
AcDbCircle
 10
145.0784206306631
 20
-11.17720800000015
 30
0.0
 40
0.9715684999999998
100
AcDbArc
 50
354.7840119999991
 51
355.9414410000014
  0
ARC
  5
5672E
330
1F
100
AcDbEntity
  8
1
100
AcDbCircle
 10
146.1499169662089
 20
-11.93543405837076
 30
0.0
 40
0.3400723319673814
100
AcDbArc
 50
144.7313882016997
 51
152.7998538176563
  0
ARC
  5
5672F
330
1F
100
AcDbEntity
  8
1
100
AcDbCircle
 10
134.259987130663
 20
-14.76500000000013
 30
0.0
 40
3.0
100
AcDbArc
 50
63.25191099999805
 51
90.0
  0
ARC
  5
56730
330
1F
100
AcDbEntity
  8
1
100
AcDbCircle
 10
134.259987130663
 20
14.76499999999984
 30
0.0
 40
3.0
100
AcDbArc
 50
270.0
 51
296.7480890000019
  0
LINE
  5
56731
330
1F
100
AcDbEntity
  8
1
100
AcDbLine
 10
127.559987130663
 20
-11.76500000000013
 30
0.0
 11
134.205158630663
 21
-11.76500000000013
 31
0.0
  0
LINE
  5
56732
330
1F
100
AcDbEntity
  8
1
100
AcDbLine
 10
134.205158630663
 20
-11.76500000000013
 30
0.0
 11
134.259987130663
 21
-11.76500000000013
 31
0.0
  0
LINE
  5
56733
330
1F
100
AcDbEntity
  8
1
100
AcDbLine
 10
134.259987130663
 20
11.76499999999984
 30
0.0
 11
127.5599871306632
 21
11.76499999999984
 31
0.0
  0
LINE
  5
56734
330
1F
100
AcDbEntity
  8
1
100
AcDbLine
 10
128.684121630663
 20
-11.76500000000013
 30
0.0
 11
128.684121630663
 21
-10.92546447103268
 31
0.0
  0
LINE
  5
56735
330
1F
100
AcDbEntity
  8
1
100
AcDbLine
 10
128.684121630663
 20
9.949317201348735
 30
0.0
 11
128.684121630663
 21
11.76499999999984
 31
0.0
  0
LINE
  5
56736
330
1F
100
AcDbEntity
  8
1
100
AcDbLine
 10
127.559987130663
 20
-11.76500000000013
 30
0.0
 11
127.559987130663
 21
-10.92546447103268
 31
0.0
  0
LINE
  5
56737
330
1F
100
AcDbEntity
  8
1
100
AcDbLine
 10
127.5599871306632
 20
10.24738290115841
 30
0.0
 11
127.5599871306632
 21
11.76499999999984
 31
0.0
  0
LINE
  5
56738
330
1F
100
AcDbEntity
  8
1
100
AcDbLine
 10
145.4951691306629
 20
0.3698299999998369
 30
0.0
 11
145.525221130663
 21
0.9227554999998517
 31
0.0
  0
LINE
  5
56739
330
1F
100
AcDbEntity
  8
1
100
AcDbLine
 10
145.4752846303676
 20
0.3319590366421892
 30
0.0
 11
145.4951691306629
 21
0.3698299999998369
 31
0.0
  0
LINE
  5
5673A
330
1F
100
AcDbEntity
  8
1
100
AcDbLine
 10
145.525221130663
 20
0.9227554999998517
 30
0.0
 11
145.642110630663
 21
3.080857499999837
 31
0.0
  0
LINE
  5
5673B
330
1F
100
AcDbEntity
  8
1
100
AcDbLine
 10
145.642110630663
 20
3.080857499999837
 30
0.0
 11
145.7538091306629
 21
5.144190499999837
 31
0.0
  0
LINE
  5
5673C
330
1F
100
AcDbEntity
  8
1
100
AcDbLine
 10
146.0500206306629
 20
11.09428249999982
 30
0.0
 11
146.0499324229264
 21
11.24025124401405
 31
0.0
  0
ARC
  5
5673D
102
{ACAD_REACTORS
330
56750
102
}
330
1F
100
AcDbEntity
  8
1
100
AcDbCircle
 10
145.0499326055109
 20
11.23964695217771
 30
0.0
 40
1.0
100
AcDbArc
 50
0.0346233739236708
 51
88.59245861885588
  0
LINE
  5
5673E
330
1F
100
AcDbEntity
  8
1
100
AcDbLine
 10
137.4036571306629
 20
12.14875649999985
 30
0.0
 11
136.374470630663
 21
12.11390049999986
 31
0.0
  0
LINE
  5
5673F
330
1F
100
AcDbEntity
  8
1
100
AcDbLine
 10
136.374470630663
 20
12.11390049999986
 30
0.0
 11
135.6101931306631
 21
12.08601799999982
 31
0.0
  0
LINE
  5
56740
330
1F
100
AcDbEntity
  8
1
100
AcDbLine
 10
145.4751341306629
 20
0.0959244999998816
 30
0.0
 11
145.4751341306629
 21
-0.0959245000001659
 31
0.0
  0
LINE
  5
56741
330
1F
100
AcDbEntity
  8
1
100
AcDbLine
 10
145.4751341306629
 20
-0.0959245000001659
 30
0.0
 11
145.4752867779995
 21
-0.3319626374702409
 31
0.0
  0
LINE
  5
56742
330
1F
100
AcDbEntity
  8
1
100
AcDbLine
 10
145.4752846306629
 20
0.3319594999998401
 30
0.0
 11
145.4751341306629
 21
0.0959244999998816
 31
0.0
  0
LINE
  5
56743
330
1F
100
AcDbEntity
  8
1
100
AcDbLine
 10
144.9300066306629
 20
-12.24289550000017
 30
0.0
 11
145.1425931306631
 21
-12.23767200000017
 31
0.0
  0
LINE
  5
56744
330
1F
100
AcDbEntity
  8
1
100
AcDbLine
 10
144.9300066306629
 20
12.24289549999983
 30
0.0
 11
145.0744963660923
 21
12.23934521748887
 31
0.0
  0
LINE
  5
56745
330
1F
100
AcDbEntity
  8
1
100
AcDbLine
 10
145.4951691306629
 20
-0.369830000000178
 30
0.0
 11
145.525221130663
 21
-0.9227555000001359
 31
0.0
  0
LINE
  5
56746
330
1F
100
AcDbEntity
  8
1
100
AcDbLine
 10
145.4752851306631
 20
-0.3319595000001243
 30
0.0
 11
145.4951691306629
 21
-0.369830000000178
 31
0.0
  0
LINE
  5
56747
330
1F
100
AcDbEntity
  8
1
100
AcDbLine
 10
145.525221130663
 20
-0.9227555000001359
 30
0.0
 11
145.642110630663
 21
-3.080857500000121
 31
0.0
  0
LINE
  5
56748
330
1F
100
AcDbEntity
  8
1
100
AcDbLine
 10
145.642110630663
 20
-3.080857500000121
 30
0.0
 11
145.7538091306629
 21
-5.144190500000178
 31
0.0
  0
LINE
  5
56749
330
1F
100
AcDbEntity
  8
1
100
AcDbLine
 10
136.374470630663
 20
-12.11390050000014
 30
0.0
 11
135.6101931306631
 21
-12.08601800000011
 31
0.0
  0
LINE
  5
5674A
330
1F
100
AcDbEntity
  8
1
100
AcDbLine
 10
137.4036571306629
 20
-12.14875650000013
 30
0.0
 11
136.374470630663
 21
-12.11390050000014
 31
0.0
  0
LINE
  5
5674B
330
1F
100
AcDbEntity
  8
1
100
AcDbLine
 10
146.0500206306629
 20
-11.0942825000001
 30
0.0
 11
146.0500001306628
 21
-11.12820650000017
 31
0.0
  0
LINE
  5
5674C
330
1F
100
AcDbEntity
  8
1
100
AcDbLine
 10
146.0500001306628
 20
-11.12820650000017
 30
0.0
 11
146.0499836306631
 21
-11.20030200000011
 31
0.0
  0
LINE
  5
5674D
330
1F
100
AcDbEntity
  8
1
100
AcDbLine
 10
146.0499836306631
 20
-11.20030200000011
 30
0.0
 11
146.047552630663
 21
-11.24597150000014
 31
0.0
  0
DIMENSION
  5
5674E
102
{ACAD_XDICTIONARY
360
5674F
102
}
102
{ACAD_REACTORS
330
56750
102
}
330
1F
100
AcDbEntity
  8
2
100
AcDbDimension
  2
*D127
 10
145.0499326055109
 20
11.23964695217771
 30
0.0
 11
163.8277099630559
 21
28.49010209140475
 31
0.0
 70
    36
 71
     5
 42
1.000000000000326
  3
\M+18352\M+18373\M+1815B - ISO-25
100
AcDbRadialDimension
 15
145.8844588603875
 25
11.79061512723161
 35
0.0
 40
0.0
1001
ACAD
1000
DSTYLE
1002
{
1070
     4
1000
"
1070
    40
1040
1.0
1070
   143
1040
0.03937
1070
   170
1070
     1
1070
   171
1070
     3
1070
   271
1070
     8
1070
   285
1070
     4
1002
}
  0
LINE
  5
56751
330
1F
100
AcDbEntity
  8
cut
100
AcDbLine
 10
136.05
 20
12.15934943349984
 30
0.0
 11
142.55
 21
12.49999999889982
 31
0.0
1001
ACAD
1000
RTMaterial
1005
0
  0
LINE
  5
56752
330
1F
100
AcDbEntity
  8
cut
100
AcDbLine
 10
127.55
 20
11.76499999889981
 30
0.0
 11
134.5631963373999
 21
11.76499999889981
 31
0.0
1001
ACAD
1000
RTMaterial
1005
0
  0
LINE
  5
56753
330
1F
100
AcDbEntity
  8
cut
100
AcDbLine
 10
142.55
 20
12.49999999889982
 30
0.0
 11
145.05
 21
12.49999999889982
 31
0.0
1001
ACAD
1000
RTMaterial
1005
0
  0
LINE
  5
56754
330
1F
100
AcDbEntity
  8
cut
100
AcDbLine
 10
146.0499999999998
 20
10.999999998898
 30
0.0
 11
146.0500000000001
 21
11.49999999889982
 31
0.0
1001
ACAD
1000
RTMaterial
1005
0
  0
LINE
  5
56755
330
1F
100
AcDbEntity
  8
cut
100
AcDbLine
 10
127.55
 20
-11.76500000110016
 30
0.0
 11
127.55
 21
11.76499999889975
 31
0.0
1001
ACAD
1000
RTMaterial
1005
0
  0
LINE
  5
56756
330
1F
100
AcDbEntity
  8
cut
100
AcDbLine
 10
145.4735144279001
 20
-0.000000001100176
 30
0.0
 11
146.0500000000001
 21
10.99999999889982
 31
0.0
1001
ACAD
1000
RTMaterial
1005
0
  0
ARC
  5
56757
330
1F
100
AcDbEntity
  8
cut
100
AcDbCircle
 10
134.5631963373999
 20
14.76499999889981
 30
0.0
 40
3.0
100
AcDbArc
 50
270.0
 51
299.709403338995
1001
ACAD
1000
RTMaterial
1005
0
  0
ARC
  5
56758
330
1F
100
AcDbEntity
  8
cut
100
AcDbCircle
 10
145.05
 20
11.49999999889982
 30
0.0
 40
1.0
100
AcDbArc
 50
0.0
 51
90.0
1001
ACAD
1000
RTMaterial
1005
0
  0
LINE
  5
56759
330
1F
100
AcDbEntity
  8
cut
100
AcDbLine
 10
136.05
 20
-12.15934943570019
 30
0.0
 11
142.55
 21
-12.50000000110017
 31
0.0
1001
ACAD
1000
RTMaterial
1005
0
  0
LINE
  5
5675A
330
1F
100
AcDbEntity
  8
cut
100
AcDbLine
 10
127.55
 20
-11.76500000110016
 30
0.0
 11
134.5631963373999
 21
-11.76500000110016
 31
0.0
1001
ACAD
1000
RTMaterial
1005
0
  0
LINE
  5
5675B
330
1F
100
AcDbEntity
  8
cut
100
AcDbLine
 10
142.55
 20
-12.50000000110017
 30
0.0
 11
145.05
 21
-12.50000000110017
 31
0.0
1001
ACAD
1000
RTMaterial
1005
0
  0
LINE
  5
5675C
330
1F
100
AcDbEntity
  8
cut
100
AcDbLine
 10
146.0499999999998
 20
-11.00000000109836
 30
0.0
 11
146.0500000000001
 21
-11.50000000110017
 31
0.0
1001
ACAD
1000
RTMaterial
1005
0
  0
LINE
  5
5675D
330
1F
100
AcDbEntity
  8
cut
100
AcDbLine
 10
145.4735144279001
 20
-0.000000001100176
 30
0.0
 11
146.0500000000001
 21
-11.00000000110017
 31
0.0
1001
ACAD
1000
RTMaterial
1005
0
  0
ARC
  5
5675E
330
1F
100
AcDbEntity
  8
cut
100
AcDbCircle
 10
134.5631963373999
 20
-14.76500000110013
 30
0.0
 40
3.0
100
AcDbArc
 50
60.29059666100491
 51
90.0
1001
ACAD
1000
RTMaterial
1005
0
  0
ARC
  5
5675F
330
1F
100
AcDbEntity
  8
cut
100
AcDbCircle
 10
145.05
 20
-11.50000000110017
 30
0.0
 40
1.0
100
AcDbArc
 50
270.0
 51
0.0
1001
ACAD
1000
RTMaterial
1005
0
  0
VIEWPORT
  5
6B
102
{ACAD_XDICTIONARY
360
56972
102
}
330
50
100
AcDbEntity
 67
     1
  8
0
100
AcDbViewport
 10
150.1652135264906
 20
160.4455827878762
 30
0.0
 40
339.1973820494346
 41
282.2272140146125
 68
     1
 69
     1
 12
150.1652135264906
 22
160.4455827878762
 13
0.0
 23
0.0
 14
10.0
 24
10.0
 15
10.0
 25
10.0
 16
0.0
 26
0.0
 36
1.0
 17
0.0
 27
0.0
 37
0.0
 42
50.0
 43
0.0
 44
0.0
 45
282.2272140146125
 50
0.0
 51
0.0
 72
  1000
 90
    32864
  1

281
     0
 71
     1
 74
     0
110
0.0
120
0.0
130
0.0
111
1.0
121
0.0
131
0.0
112
0.0
122
1.0
132
0.0
 79
     0
146
0.0
  0
VIEWPORT
  5
6D
102
{ACAD_XDICTIONARY
360
56974
102
}
330
50
100
AcDbEntity
 67
     1
  8
0
100
AcDbViewport
 10
133.3499939441681
 20
101.5999939441681
 30
0.0
 40
213.3599903106689
 41
162.5599903106689
 68
     2
 69
     2
 12
210.0
 22
148.5
 13
0.0
 23
0.0
 14
10.0
 24
10.0
 15
10.0
 25
10.0
 16
0.0
 26
0.0
 36
1.0
 17
0.0
 27
0.0
 37
0.0
 42
50.0
 43
0.0
 44
0.0
 45
324.0677920111345
 50
0.0
 51
0.0
 72
   100
 90
    32864
  1

281
     0
 71
     1
 74
     0
110
0.0
120
0.0
130
0.0
111
1.0
121
0.0
131
0.0
112
0.0
122
1.0
132
0.0
 79
     0
146
0.0
  0
ENDSEC
  0
SECTION
  2
OBJECTS
  0
DICTIONARY
  5
C
330
0
100
AcDbDictionary
281
     1
  3
ACAD_COLOR
350
85
  3
ACAD_GROUP
350
D
  3
ACAD_LAYOUT
350
1A
  3
ACAD_MATERIAL
350
84
  3
ACAD_MLINESTYLE
350
17
  3
ACAD_PLOTSETTINGS
350
19
  3
ACAD_PLOTSTYLENAME
350
E
  3
ACAD_TABLESTYLE
350
A1
  3
ACDBHEADERROUNDTRIPXREC
350
5696D
  3
AcDbVariableDictionary
350
5E
  3
ASE_INDEX_DICTIONARY
350
349E9
  3
DWGPROPS
350
5696C
  0
DICTIONARY
  5
E2
330
2
100
AcDbDictionary
280
     1
281
     1
  3
ACAD_LAYERFILTERS
360
56926
  3
ACAD_LAYERSTATES
360
3759A
  3
ACLYDICTIONARY
360
56925
  0
DICTIONARY
  5
31EE
330
1F
100
AcDbDictionary
280
     1
281
     1
  3
ACAD_SORTENTS
360
31EF
  0
DICTIONARY
  5
3BEB2
330
680
100
AcDbDictionary
280
     1
281
     1
  3
ACAD_SORTENTS
360
55084
  0
DICTIONARY
  5
56976
330
71
100
AcDbDictionary
280
     1
281
     1
  3
ACAD_XREC_ROUNDTRIP
360
56977
  0
DICTIONARY
  5
56978
330
73
100
AcDbDictionary
280
     1
281
     1
  3
ACAD_XREC_ROUNDTRIP
360
56979
  0
DICTIONARY
  5
56685
330
56684
100
AcDbDictionary
280
     1
281
     1
  3
ACAD_DIMASSOC
360
56686
  0
DICTIONARY
  5
56698
330
56697
100
AcDbDictionary
280
     1
281
     1
  3
ACAD_DIMASSOC
360
56699
  0
DICTIONARY
  5
5674F
330
5674E
100
AcDbDictionary
280
     1
281
     1
  3
ACAD_DIMASSOC
360
56750
  0
DICTIONARY
  5
56972
330
6B
100
AcDbDictionary
280
     1
281
     1
  3
ACAD_XREC_ROUNDTRIP
360
56973
  0
DICTIONARY
  5
56974
330
6D
100
AcDbDictionary
280
     1
281
     1
  3
ACAD_XREC_ROUNDTRIP
360
56975
  0
DICTIONARY
  5
85
102
{ACAD_REACTORS
330
C
102
}
330
C
100
AcDbDictionary
281
     1
  0
DICTIONARY
  5
D
102
{ACAD_REACTORS
330
C
102
}
330
C
100
AcDbDictionary
281
     1
  0
DICTIONARY
  5
1A
102
{ACAD_REACTORS
330
C
102
}
330
C
100
AcDbDictionary
281
     1
  3
\M+1838C\M+18343\M+18341\M+18345\M+183671
350
51
  3
\M+1838C\M+18343\M+18341\M+18345\M+183672
350
56
  3
Model
350
22
  0
DICTIONARY
  5
84
102
{ACAD_REACTORS
330
C
102
}
330
C
100
AcDbDictionary
281
     1
  0
DICTIONARY
  5
17
102
{ACAD_REACTORS
330
C
102
}
330
C
100
AcDbDictionary
281
     1
  3
Standard
350
18
  0
DICTIONARY
  5
19
102
{ACAD_REACTORS
330
C
102
}
330
C
100
AcDbDictionary
281
     1
  0
ACDBDICTIONARYWDFLT
  5
E
102
{ACAD_REACTORS
330
C
102
}
330
C
100
AcDbDictionary
281
     1
  3
Normal
350
F
100
AcDbDictionaryWithDefault
340
F
  0
DICTIONARY
  5
A1
102
{ACAD_REACTORS
330
C
102
}
330
C
100
AcDbDictionary
281
     1
  3
Standard
350
A2
  0
DICTIONARY
  5
5696D
102
{ACAD_REACTORS
330
C
102
}
330
C
100
AcDbDictionary
281
     1
  0
DICTIONARY
  5
5E
102
{ACAD_REACTORS
330
C
102
}
330
C
100
AcDbDictionary
281
     1
  3
CTABLESTYLE
350
B8
  3
DIMASSOC
350
5F
  3
HIDETEXT
350
63
  3
PROJECTNAME
350
31CE
  0
DICTIONARY
  5
349E9
102
{ACAD_REACTORS
330
C
102
}
330
C
100
AcDbDictionary
281
     1
  3
ASEBlockHierarchyIndexRecord
350
349EA
1001
DCO15
1040
1842496176.844
  0
XRECORD
  5
5696C
102
{ACAD_REACTORS
330
C
102
}
330
C
100
AcDbXrecord
280
     1
  1
DWGPROPS COOKIE
  2

  3

  4

  6

  7

  8

  9

300
=
301
=
302
=
303
=
304
=
305
=
306
=
307
=
308
=
309
=
 40
2.77770136574074
 41
2455489.391063368
 42
2458572.935490382
  1

 90
        0
  0
DICTIONARY
  5
56926
102
{ACAD_REACTORS
330
E2
102
}
330
E2
100
AcDbDictionary
281
     1
  0
DICTIONARY
  5
3759A
102
{ACAD_REACTORS
330
E2
102
}
330
E2
100
AcDbDictionary
281
     1
  0
DICTIONARY
  5
56925
102
{ACAD_REACTORS
330
E2
102
}
330
E2
100
AcDbDictionary
281
     1
1001
ACAD
1000
<All
  0
SORTENTSTABLE
  5
31EF
102
{ACAD_REACTORS
330
31EE
102
}
330
31EE
100
AcDbSortentsTable
330
1F
331
53DFB
  5
53DFB
331
68C
  5
3C6B0
  0
SORTENTSTABLE
  5
55084
102
{ACAD_REACTORS
330
3BEB2
102
}
330
3BEB2
100
AcDbSortentsTable
330
680
  0
XRECORD
  5
56977
102
{ACAD_REACTORS
330
56976
102
}
330
56976
100
AcDbXrecord
280
     1
102
SHADEPLOT
 70
     0
  0
XRECORD
  5
56979
102
{ACAD_REACTORS
330
56978
102
}
330
56978
100
AcDbXrecord
280
     1
102
SHADEPLOT
 70
     0
  0
DIMASSOC
  5
56686
102
{ACAD_REACTORS
330
56685
102
}
330
56685
100
AcDbDimAssoc
330
56684
 90
        1
 70
     0
 71
     0
  1
AcDbOsnapPointRef
 72
     1
331
56681
 73
     2
 91
        0
 40
1.0
 10
0.0
 20
0.0
 30
2.000000000000000E+50
 75
     0
  0
DIMASSOC
  5
56699
102
{ACAD_REACTORS
330
56698
102
}
330
56698
100
AcDbDimAssoc
330
56697
 90
        3
 70
     0
 71
     0
  1
AcDbOsnapPointRef
 72
    13
331
56695
 73
     2
 91
        0
 40
0.0
 10
0.0
 20
0.0
 30
2.000000000000000E+50
 75
     0
  1
AcDbOsnapPointRef
 72
     1
331
56695
 73
     2
 91
        0
 40
1.0
 10
0.0
 20
0.0
 30
2.000000000000000E+50
 75
     0
  0
DIMASSOC
  5
56750
102
{ACAD_REACTORS
330
5674F
102
}
330
5674F
100
AcDbDimAssoc
330
5674E
 90
        2
 70
     0
 71
     0
  1
AcDbOsnapPointRef
 72
     3
331
5673D
 73
     2
 91
        0
 40
0.0
 10
0.0
 20
0.0
 30
0.0
 75
     0
  0
XRECORD
  5
56973
102
{ACAD_REACTORS
330
56972
102
}
330
56972
100
AcDbXrecord
280
     1
102
SHADEPLOT
 70
     0
  0
XRECORD
  5
56975
102
{ACAD_REACTORS
330
56974
102
}
330
56974
100
AcDbXrecord
280
     1
102
SHADEPLOT
 70
     0
  0
LAYOUT
  5
51
102
{ACAD_XDICTIONARY
360
B2
102
}
102
{ACAD_REACTORS
330
1A
102
}
330
1A
100
AcDbPlotSettings
  1

  2
none_device
  4
Letter_(8.50_x_11.00_Inches)
  6

 40
6.349999904632567
 41
6.349999904632567
 42
6.350006103515625
 43
6.350006103515625
 44
215.8999938964844
 45
279.3999938964844
 46
0.0
 47
0.0
 48
0.0
 49
0.0
140
0.0
141
0.0
142
1.0
143
1.0
 70
   688
 72
     1
 73
     1
 74
     5
  7

 75
    16
147
1.0
148
0.0
149
0.0
100
AcDbLayout
  1
\M+1838C\M+18343\M+18341\M+18345\M+183671
 70
     1
 71
     1
 10
-6.350006103515625
 20
-6.349999904632567
 11
273.0499877929688
 21
209.5499939918518
 12
0.0
 22
0.0
 32
0.0
 14
26.66999878883364
 24
20.31999878883365
 34
0.0
 15
240.0299890995025
 25
182.8799890995025
 35
0.0
146
0.0
 13
0.0
 23
0.0
 33
0.0
 16
1.0
 26
0.0
 36
0.0
 17
0.0
 27
1.0
 37
0.0
 76
     0
330
50
331
6B
  0
LAYOUT
  5
56
102
{ACAD_XDICTIONARY
360
B5
102
}
102
{ACAD_REACTORS
330
1A
102
}
330
1A
100
AcDbPlotSettings
  1

  2
none_device
  4
Letter_(8.50_x_11.00_Inches)
  6

 40
6.349999904632567
 41
6.349999904632567
 42
6.350006103515625
 43
6.350006103515625
 44
215.8999938964844
 45
279.3999938964844
 46
0.0
 47
0.0
 48
0.0
 49
0.0
140
0.0
141
0.0
142
1.0
143
1.0
 70
   688
 72
     1
 73
     1
 74
     5
  7

 75
    16
147
1.0
148
0.0
149
0.0
100
AcDbLayout
  1
\M+1838C\M+18343\M+18341\M+18345\M+183672
 70
     1
 71
     2
 10
-6.350006103515625
 20
-6.349999904632567
 11
273.0499877929688
 21
209.5499939918518
 12
0.0
 22
0.0
 32
0.0
 14
26.66999878883363
 24
20.31999878883363
 34
0.0
 15
240.0299890995026
 25
182.8799890995025
 35
0.0
146
0.0
 13
0.0
 23
0.0
 33
0.0
 16
1.0
 26
0.0
 36
0.0
 17
0.0
 27
1.0
 37
0.0
 76
     0
330
55
331
71
  0
LAYOUT
  5
22
102
{ACAD_XDICTIONARY
360
5696E
102
}
102
{ACAD_REACTORS
330
1A
102
}
330
1A
100
AcDbPlotSettings
  1

  2
none_device
  4
ANSI_A_(8.50_x_11.00_Inches)
  6

 40
6.349999904632567
 41
19.04999923706055
 42
6.350006103515625
 43
19.04998779296875
 44
215.8999938964844
 45
279.3999938964844
 46
0.0
 47
0.0
 48
0.0
 49
0.0
140
0.0
141
0.0
142
1.0
143
78.436453180766
 70
 11952
 72
     0
 73
     1
 74
     0
  7

 75
     0
147
0.0127491741332998
148
0.0
149
0.0
100
AcDbLayout
  1
Model
 70
     1
 71
     0
 10
0.0
 20
0.0
 11
12.0
 21
9.0
 12
0.0
 22
0.0
 32
0.0
 14
0.0
 24
0.0
 34
0.0
 15
0.0
 25
0.0
 35
0.0
146
0.0
 13
0.0
 23
0.0
 33
0.0
 16
1.0
 26
0.0
 36
0.0
 17
0.0
 27
1.0
 37
0.0
 76
     0
330
1F
  0
MLINESTYLE
  5
18
102
{ACAD_REACTORS
330
17
102
}
330
17
100
AcDbMlineStyle
  2
STANDARD
 70
     0
  3

 62
   256
 51
90.0
 52
90.0
 71
     2
 49
0.5
 62
   256
  6
BYLAYER
 49
-0.5
 62
   256
  6
BYLAYER
  0
ACDBPLACEHOLDER
  5
F
102
{ACAD_REACTORS
330
E
102
}
330
E
  0
TABLESTYLE
  5
A2
102
{ACAD_REACTORS
330
A1
102
}
330
A1
100
AcDbTableStyle
  3
Standard
 70
     0
 71
     0
 40
1.5
 41
1.5
280
     0
281
     0
  7
Standard
140
4.5
170
     2
 62
     0
 63
     7
283
     0
274
    -2
284
     1
 64
     0
275
    -2
285
     1
 65
     0
276
    -2
286
     1
 66
     0
277
    -2
287
     1
 67
     0
278
    -2
288
     1
 68
     0
279
    -2
289
     1
 69
     0
  7
Standard
140
6.0
170
     5
 62
     0
 63
     7
283
     0
274
    -2
284
     1
 64
     0
275
    -2
285
     1
 65
     0
276
    -2
286
     1
 66
     0
277
    -2
287
     1
 67
     0
278
    -2
288
     1
 68
     0
279
    -2
289
     1
 69
     0
  7
Standard
140
4.5
170
     5
 62
     0
 63
     7
283
     0
274
    -2
284
     1
 64
     0
275
    -2
285
     1
 65
     0
276
    -2
286
     1
 66
     0
277
    -2
287
     1
 67
     0
278
    -2
288
     1
 68
     0
279
    -2
289
     1
 69
     0
  0
DICTIONARYVAR
  5
B8
102
{ACAD_REACTORS
330
5E
102
}
330
5E
100
DictionaryVariables
280
     0
  1
STANDARD
  0
DICTIONARYVAR
  5
5F
102
{ACAD_REACTORS
330
5E
102
}
330
5E
100
DictionaryVariables
280
     0
  1
2
  0
DICTIONARYVAR
  5
63
102
{ACAD_REACTORS
330
5E
102
}
330
5E
100
DictionaryVariables
280
     0
  1
1
  0
DICTIONARYVAR
  5
31CE
102
{ACAD_REACTORS
330
5E
102
}
330
5E
100
DictionaryVariables
280
     0
  1

  0
XRECORD
  5
349EA
102
{ACAD_REACTORS
330
349E9
102
}
330
349E9
100
AcDbXrecord
280
     1
330
68C
330
0
330
0
330
0
330
0
330
0
330
0
330
0
330
0
330
0
330
0
330
0
330
0
330
0
330
0
330
0
330
0
330
0
330
0
330
0
330
0
330
0
330
0
330
0
330
0
330
0
330
0
330
0
330
0
330
0
330
0
330
0
330
0
330
0
330
0
330
0
330
0
330
0
330
0
330
0
330
0
330
0
330
0
330
0
330
0
330
0
330
0
330
0
330
0
330
0
330
0
330
0
330
0
330
0
330
0
330
0
330
0
330
0
330
0
330
0
330
0
330
0
330
0
330
0
330
0
330
0
330
0
330
0
330
0
330
0
330
0
330
0
330
0
330
0
330
0
330
0
330
0
330
0
330
0
330
0
330
0
330
0
330
0
330
0
330
0
330
0
330
0
330
0
330
0
330
0
330
0
330
0
330
0
330
0
330
0
330
0
330
0
330
0
330
0
330
0
330
0
330
0
330
0
330
0
330
0
330
0
330
0
330
0
330
0
330
0
  0
DICTIONARY
  5
B2
330
51
100
AcDbDictionary
280
     1
281
     1
  3
ACAD_XREC_ROUNDTRIP
360
56970
  3
ADSK_XREC_LAYOUTTHUMBNAIL
360
B3
  0
DICTIONARY
  5
B5
330
56
100
AcDbDictionary
280
     1
281
     1
  3
ACAD_XREC_ROUNDTRIP
360
56971
  3
ADSK_XREC_LAYOUTTHUMBNAIL
360
B6
  0
DICTIONARY
  5
5696E
330
22
100
AcDbDictionary
280
     1
281
     1
  3
ACAD_XREC_ROUNDTRIP
360
5696F
  0
XRECORD
  5
56970
102
{ACAD_REACTORS
330
B2
102
}
330
B2
100
AcDbXrecord
280
     1
102
SHADEPLOT
 70
     0
102
SHADEPLOTRESLEVEL
 70
     2
102
SHADEPLOTCUSTOMDPI
 70
   300
  0
XRECORD
  5
B3
102
{ACAD_REACTORS
330
B2
102
}
330
B2
100
AcDbXrecord
280
     1
310
28000000B40000008B0000000100080000000000BC61000000000000000000000001000000000000FFFFFF0000000000FFFFFF000000000000000000000000000000000000000000000000000000000000000000330000006600000099000000CC000000FF00000000330000333300006633000099330000CC330000FF3300
310
0000660000336600006666000099660000CC660000FF66000000990000339900006699000099990000CC990000FF99000000CC000033CC000066CC000099CC0000CCCC0000FFCC000000FF000033FF000066FF000099FF0000CCFF0000FFFF000000003300330033006600330099003300CC003300FF003300003333003333
310
33006633330099333300CC333300FF33330000663300336633006666330099663300CC663300FF66330000993300339933006699330099993300CC993300FF99330000CC330033CC330066CC330099CC3300CCCC3300FFCC330000FF330033FF330066FF330099FF3300CCFF3300FFFF330000006600330066006600660099
310
006600CC006600FF00660000336600333366006633660099336600CC336600FF33660000666600336666006666660099666600CC666600FF66660000996600339966006699660099996600CC996600FF99660000CC660033CC660066CC660099CC6600CCCC6600FFCC660000FF660033FF660066FF660099FF6600CCFF6600
310
FFFF660000009900330099006600990099009900CC009900FF00990000339900333399006633990099339900CC339900FF33990000669900336699006666990099669900CC669900FF66990000999900339999006699990099999900CC999900FF99990000CC990033CC990066CC990099CC9900CCCC9900FFCC990000FF99
310
0033FF990066FF990099FF9900CCFF9900FFFF99000000CC003300CC006600CC009900CC00CC00CC00FF00CC000033CC003333CC006633CC009933CC00CC33CC00FF33CC000066CC003366CC006666CC009966CC00CC66CC00FF66CC000099CC003399CC006699CC009999CC00CC99CC00FF99CC0000CCCC0033CCCC0066CC
310
CC0099CCCC00CCCCCC00FFCCCC0000FFCC0033FFCC0066FFCC0099FFCC00CCFFCC00FFFFCC000000FF003300FF006600FF009900FF00CC00FF00FF00FF000033FF003333FF006633FF009933FF00CC33FF00FF33FF000066FF003366FF006666FF009966FF00CC66FF00FF66FF000099FF003399FF006699FF009999FF00CC
310
99FF00FF99FF0000CCFF0033CCFF0066CCFF0099CCFF00CCCCFF00FFCCFF0000FFFF0033FFFF0066FFFF0099FFFF00CCFFFF00FFFFFF00000000000D0D0D001A1A1A00282828003535350043434300505050005D5D5D006B6B6B00787878008686860093939300A1A1A100AEAEAE00BBBBBB00C9C9C900D6D6D600E4E4E400
310
F1F1F100FFFFFF0000000000000000000000000000000000000000000000000000000000000000000000000000000000E2E2E2E2E2E2E2E2E2E2E2E2E2E2E2E2E2E2E2E2E2E2E2E2E2E2E2E2E2E2E2E2E2E2E2E2E2E2E2E2E2E2E2E2E2E2E2E2E2E2E2E2E2E2E2E2E2E2E2E2E2E2E2E2E2E2E2E2E2E2E2E2E2E2E2E2E2E2E2
310
E2E2E2E2E2E2E2E2E2E2E2E2E2E2E2E2E2E2E2E2E2E2E2E2E2E2E2E2E2E2E2E2E2E2E2E2E2E2E2E2E2E2E2E2E2E2E2E2E2E2E2E2E2E2E2E2E2E2E2E2E2E2E2E2E2E2E2E2E2E2E2E2E2E2E2E2E2E2E2E2E2E2E2E2E2E2E2E2E2E2E2E2E2E2E2E2E2E2E2E2E2E2F5F5F5F5F5F5F5F5F5F5F5F5F5F5F5F5F5F5F5F5F5F5F5F5F5
310
F5F5F5F5F5F5F5F5F5F5F5F5F5F5F5F5F5F5F5F5F5F5F5F5F5F5F5F5F5F5F5F5F5F5F5F5F5F5F5F5F5F5F5F5F5F5F5F5F5F5F5F5F5F5F5F5F5F5F5F5F5F5F5F5F5F5F5F5F5F5F5F5F5F5F5F5F5F5F5F5F5F5F5F5F5F5F5F5F5F5F5F5F5F5F5F5F5F5F5F5F5F5F5F5F5F5F5F5F5F5F5F5F5F5F5F5F5F5F5F5F5F5F5F5F5F5F5
310
F5F5F5F5F5F5F5F5F5F5F5F5F5F5F5F5F5F5F5F5F5F5F5F5F5F5E2E2F5F5F5F5F5F5F5F5F5F5F5F5F5F5F5F5F5F5F5F5F5F5F5F5F5F5F5F5F5F5F5F5F5F5F5F5F5F5F5F5F5F5F5F5F5F5F5F5F5F5F5F5F5F5F5F5F5F5F5F5F5F5F5F5F5F5F5F5F5F5F5F5F5F5F5F5F5F5F5F5F5F5F5F5F5F5F5F5F5F5F5F5F5F5F5F5F5F5F5
310
F5F5F5F5F5F5F5F5F5F5F5F5F5F5F5F5F5F5F5F5F5F5F5F5F5F5F5F5F5F5F5F5F5F5F5F5F5F5F5F5F5F5F5F5F5F5F5F5F5F5F5F5F5F5F5F5F5F5F5F5F5F5F5F5F5F5F5F5F5F5F5F5F5F5F5F5F5F5F5E2E2F5F5F5F5F5F5F5F5F5F5F5F5F5F5F5F5F5F5F5F5F5F5F5F5F5F5F5F5F5F5F5F5F5F5F5F5F5F5F5F5F5F5F5F5F5F5
310
F5F5F5F5F5F5F5F5F5F5F5F5F5F5F5F5F5F5F5F5F5F5F5F5F5F5F5F5F5F5F5F5F5F5F5F5F5F5F5F5F5F5F5F5F5F5F5F5F5F5F5F5F5F5F5F5F5F5F5F5F5F5F5F5F5F5F5F5F5F5F5F5F5F5F5F5F5F5F5F5F5F5F5F5F5F5F5F5F5F5F5F5F5F5F5F5F5F5F5F5F5F5F5F5F5F5F5F5F5F5F5F5F5F5F5F5F5F5F5F5F5F5F5F5F5F5F5
310
F5F5F5F5F5E2E2F5F5F5F5E2E2E2E2E2E2E2E2F5F5F5F5F5F5F5F5F5E2E2E2E2E2E2E2E2E2E2E2E2E2E2E2F5F5F5F5F5F5F5F5F5E2E2E2E2E2E2E2E2E2E2E2E2E2E2E2E2F5F5F5F5F5F5F5F5E2E2E2E2E2E2E2E2E2E2E2E2E2E2E2E2F5F5F5F5F5F5F5F5E2E2E2E2E2E2E2E2E2E2E2E2E2E2E2E2F5F5F5F5F5F5F5F5E2E2E2
310
E2E2E2E2E2E2E2E2E2E2E2E2E2F5F5F5F5F5F5F5F5F5E2E2E2E2E2E2E2E2E2E2E2E2E2E2E2F5F5F5F5F5F5F5F5F5E2E2E2E2E2E2E2E2F5F5F5F5E2E2F5F5F5F5E2F5F5F5F5F5F5F5F5F5F5F5F5F5F5F5F5F5F5F5F5F5F5F5F5F5F5F5F5F5F5F5F5F5F5F5F5F5F5F5F5F5F5F5F5F5F5F5F5F5F5F5F5F5F5F5F5F5F5F5F5F5F5
310
F5F5F5F5F5F5F5F5F5F5F5F5F5F5F5F5F5F5F5F5F5F5F5F5F5F5F5F5F5F5F5F5F5F5F5F5F5F5F5F5F5F5F5F5F5F5F5F5F5F5F5F5F5F5F5F5F5F5F5F5F5F5F5F5F5F5F5F5F5F5F5F5F5F5F5F5F5F5F5F5F5F5F5F5F5F5F5F5F5F5F5F5F5F5F5F5F5F5F5F5F5F5F5F5F5F5E2F5F5F5F5E2E2F5F5F5F5E2F5F5F5F5F5F5F5F5F5
310
F5F5F5F5F5F5F5F5F5F5F5F5F5F5F5F5F5F5F5F5F5F5F5F5F5F5F5F5F5F5F5F5F5F5F5F5F5F5F5F5F5F5F5F5F5F5F5F5F5F5F5F5F5F5F5F5F5F5F5F5F5F5F5F5F5F5F5F5F5F5F5F5F5F5F5F5F5F5F5F5F5F5F5F5F5F5F5F5F5F5F5F5F5F5F5F5F5F5F5F5F5F5F5F5F5F5F5F5F5F5F5F5F5F5F5F5F5F5F5F5F5F5F5F5F5F5F5
310
F5F5F5F5F5F5F5F5F5F5F5F5F5F5F5F5F5F5F5F5F5F5F5F5F5F5F5F5F5F5F5F5E2F5F5F5F5E2E2F5F5F5F5E2F5F5F5F5F5F5F5F5F5F5F5F5F5F5F5F5F5F5F5F5F5F5F5F5F5F5F5F5F5F5F5F5F5F5F5F5F5F5F5F5F5F5F5F5F5F5F5F5F5F5F5F5F5F5F5F5F5F5F5F5F5F5F5F5F5F5F5F5F5F5F5F5F5F5F5F5F5F5F5F5F5F5F5
310
F5F5F5F5F5F5F5F5F5F5F5F5F5F5F5F5F5F5F5F5F5F5F5F5F5F5F5F5F5F5F5F5F5F5F5F5F5F5F5F5F5F5F5F5F5F5F5F5F5F5F5F5F5F5F5F5F5F5F5F5F5F5F5F5F5F5F5F5F5F5F5F5F5F5F5F5F5F5F5F5F5F5F5F5F5E2F5F5F5F5E2E2F5F5F5F5E2F5F5F5F5F5F5F5F5F5F5F5F5F5F5F5F5F5F5F5F5F5F5F5F5F5F5F5F5F5F5
310
F5F5F5F5F5F5F5F5F5F5F5F5F5F5F5F5F5F5F5F5F5F5F5F5F5F5F5F5F5F5F5F5F5F5F5F5F5F5F5F5F5F5F5F5F5F5F5F5F5F5F5F5F5F5F5F5F5F5F5F5F5F5F5F5F5F5F5F5F5F5F5F5F5F5F5F5F5F5F5F5F5F5F5F5F5F5F5F5F5F5F5F5F5F5F5F5F5F5F5F5F5F5F5F5F5F5F5F5F5F5F5F5F5F5F5F5F5F5F5F5F5F5F5F5F5F5F5
310
F5F5F5F5F5F5F5F5F5F5F5E2F5F5F5F5E2E2F5F5F5F5E2F5F5F5F5F5F5F5F5F5F5F5F5F5F5F5F5F5F5F5F5F5F5F5F5F5F5F5F5F5F5F5F5F5F5F5F5F5F5F5F5F5F5F5F5F5F5F5F5F5F5F5F5F5F5F5F5F5F5F5F5F5F5F5F5F5F5F5F5F5F5F5F5F5F5F5F5F5F5F5F5F5F5F5F5F5F5F5F5F5F5F5F5F5F5F5F5F5F5F5F5F5F5F5F5
310
F5F5F5F5F5F5F5F5F5F5F5F5F5F5F5F5F5F5F5F5F5F5F5F5F5F5F5F5F5F5F5F5F5F5F5F5F5F5F5F5F5F5F5F5F5F5F5F5F5F5F5F5F5F5F5F5F5F5F5F5F5F5F5F5E2F5F5F5F5E2E2F5F5F5F5E2F5F5F5F5F5F5F5F5F5F5F5F5F5F5F5F5F5F5F5F5F5F5F5F5F5F5F5F5F5F5F5F5F5F5F5F5F5F5F5F5F5F5F5F5F5F5F5F5F5F5F5
310
F5F5F5F5F5F5F5F5F5F5F5F5F5F5F5F5F5F5F5F5F5F5F5F5F5F5F5F5F5F5F5F5F5F5F5F5F5F5F5F5F5F5F5F5F5F5F5F5F5F5F5F5F5F5F5F5F5F5F5F5F5F5F5F5F5F5F5F5F5F5F5F5F5F5F5F5F5F5F5F5F5F5F5F5F5F5F5F5F5F5F5F5F5F5F5F5F5F5F5F5F5F5F5F5F5F5F5F5F5F5F5F5F5F5F5F5F5E2F5F5F5F5E2E2F5F5F5
310
F5E2F5F5F5F5F5F5F5F5F5F5F5F5F5F5F5F5F5F5F5F5F5F5F5F5F5F5F5F5F5F5F5F5F5F5F5F5F5F5F5F5F5F5F5F5F5F5F5F5F5F5F5F5F5F5F5F5F5F5F5F5F5F5F5F5F5F5F5F5F5F5F5F5F5F5F5F5F5F5F5F5F5F5F5F5F5F5F5F5F5F5F5F5F5F5F5F5F5F5F5F5F5F5F5F5F5F5F5F5F5F5F5F5F5F5F5F5F5F5F5F5F5F5F5F5F5
310
F5F5F5F5F5F5F5F5F5F5F5F5F5F5F5F5F5F5F5F5F5F5F5F5F5F5F5F5F5F5F5F5F5F5F5F5F5F5F5F5F5F5F5E2F5F5F5F5E2E2F5F5F5F5E2F5F5F5F5F5F5F5F5F5F5F5F5F5F5F5F5F5F5F5F5F5F5F5F5F5F5F5F5F5F5F5F5F5F5F5F5F5F5F5F5F5F5F5F5F5F5F5F5F5F5F5F5F5F5F5F5F5F5F5F5F5F5F5F5F5F5F5F5F5F5F5F5
310
F5F5F5F5F5F5F5F5F5F5F5F5F5F5F5F5F5F5F5F5F5F5F5F5F5F5F5F5F5F5F5F5F5F5F5F5F5F5F5F5F5F5F5F5F5F5F5F5F5F5F5F5F5F5F5F5F5F5F5F5F5F5F5F5F5F5F5F5F5F5F5F5F5F5F5F5F5F5F5F5F5F5F5F5F5F5F5F5F5F5F5F5F5F5F5F5E2F5F5F5F5E2E2F5F5F5F5F5F5F5F5F5F5F5F5F5F5F5F5F5F5F5F5F5F5F5F5
310
F5F5F5F5F5F5F5F5F5F5F5F5F5F5F5F5F5F5F5F5F5F5F5F5F5F5F5F5F5F5F5F5F5F5F5F5F5F5F5F5F5F5F5F5F5F5F5F5F5F5F5F5F5F5F5F5F5F5F5F5F5F5F5F5F5F5F5F5F5F5F5F5F5F5F5F5F5F5F5F5F5F5F5F5F5F5F5F5F5F5F5F5F5F5F5F5F5F5F5F5F5F5F5F5F5F5F5F5F5F5F5F5F5F5F5F5F5F5F5F5F5F5F5F5F5F5F5
310
F5F5F5F5F5F5F5F5F5F5F5F5F5F5F5F5F5F5F5F5F5F5F5F5F5F5F5E2E2F5F5F5F5F5F5F5F5F5F5F5F5F5F5F5F5F5F5F5F5F5F5F5F5F5F5F5F5F5F5F5F5F5F5F5F5F5F5F5F5F5F5F5F5F5F5F5F5F5F5F5F5F5F5F5F5F5F5F5F5F5F5F5F5F5F5F5F5F5F5F5F5F5F5F5F5F5F5F5F5F5F5F5F5F5F5F5F5F5F5F5F5F5F5F5F5F5F5
310
F5F5F5F5F5F5F5F5F5F5F5F5F5F5F5F5F5F5F5F5F5F5F5F5F5F5F5F5F5F5F5F5F5F5F5F5F5F5F5F5F5F5F5F5F5F5F5F5F5F5F5F5F5F5F5F5F5F5F5F5F5F5F5F5F5F5F5F5F5F5F5F5F5F5F5F5F5F5F5F5E2E2F5F5F5F5F5F5F5F5F5F5F5F5F5F5F5F5F5F5F5F5F5F5F5F5F5F5F5F5F5F5F5F5F5F5F5F5F5F5F5F5F5F5F5F5F5
310
F5F5F5F5F5F5F5F5F5F5F5F5F5F5F5F5F5F5F5F5F5F5F5F5F5F5F5F5F5F5F5F5F5F5F5F5F5F5F5F5F5F5F5F5F5F5F5F5F5F5F5F5F5F5F5F5F5F5F5F5F5F5F5F5F5F5F5F5F5F5F5F5F5F5F5F5F5F5F5F5F5F5F5F5F5F5F5F5F5F5F5F5F5F5F5F5F5F5F5F5F5F5F5F5F5F5F5F5F5F5F5F5F5F5F5F5F5F5F5F5F5F5F5F5F5F5F5
310
F5F5F5F5F5F5E2E2F5F5F5F5F5F5F5F5F5F5F5F5F5F5F5F5F5F5F5F5F5F5F5F5F5F5F5F5F5F5F5F5F5F5F5F5F5F5F5F5F5F5F5F5F5F5F5F5F5F5F5F5F5F5F5F5F5F5F5F5F5F5F5F5F5F5F5F5F5F5F5F5F5F5F5F5F5F5F5F5F5F5F5F5F5F5F5F5F5F5F5F5F5F5F5F5F5F5F5F5F5F5F5F5F5F5F5F5F5F5F5F5F5F5F5F5F5F5F5
310
F5F5F5F5F5F5F5F5F5F5F5F5F5F5F5F5F5F5F5F5F5F5F5F5F5F5F5F5F5F5F5F5F5F5F5F5F5F5F5F5F5F5F5F5F5F5F5F5F5F5F5F5F5F5F5F5F5F5F5E2E2F5F5F5F5F5F5F5F5F5F5F5F5F5F5F5F5F5F5F5F5F5E2E2E2E2E2E2E2E2E2E2E2E2E2E2E2E2E2E2E2E2E2E2E2E2E2E2E2E2E2E2E2E2E2E2E2E2E2E2E2E2E2E2E2E2E2
310
E2E2E2E2E2E2E2E2E2E2E2E2E2E2E2E2E2E2E2E2E2E2E2E2E2E2E2E2E2E2E2E2E2E2E2E2E2E2E2E2E2E2E2E2E2E2E2E2E2E2E2E2E2E2E2E2E2E2E2E2E2E2E2E2E2E2E2E2E2E2E2E2E2E2E2E2E2E2E2E2E2E2E2E2E2E2E2E2E2E2E2F5F5F5F5F5F5F5F5F5F5F5F5F5F5F5F5F5F5F5F5F5E2E2F5F5F5F5F5F5F5F5F5F5F5F5F5
310
F5F5F5F5F5F5F5F5E22D2D2D2D2D2D2D2D2D2D2D2DF5F5F5F5F5F5F5F5F5F5F5F5F5F5F5E2F5F5F5F5F5F5F5F5F5F5F5F5F5F5F5F5F5F5F5F5F5F5F5F5F5F5F5F5F5F5F5F5F5F5F5F5F5F5F5F5F5F5F5F5F5F5F5F5F5F5F5F5F5F5F5F5F5F5F5F5F5F5F5F5F5F5F5F5F5F5F5F5F5F5F5F5F5F5F5F5F5F5F5F5F5F5F5F5F5F5
310
F5F5F5F5F5F5F5F5F5F5F5F5F5F5F5F5E2F5F5F5F5F5F5F5F5F5F5F5F5F5F5F5F5F5F5F5F5F5E2E2F5F5F5F5F5F5F5F5F5F5F5F5F5F5F5F5F5F5F5F5F5E22D2D2DF5F5E2F5F5F5F5F52DF5F5F5F5F5F5F5F5F5F5F5F5F5F5F5E2F5F5F5F5F5F5F5F5F5F5F5F5F5F5F5F5F5F5F5F5F5F5F5F5F5F5F5F5F5F5F5F5F5F5F5F5F5
310
F5F5F5F5F5F5F5F5F5F5F5F5F5F5F5F5F5F5F5F5F5F5F5F5F5F5F5F5F5F5F5F5F5F5F5F5F5F5F5F5F5F5F5F5F5F5F5F5F5F5F5F5F5F5F5F5F5F5F5F5F5F5F5F5F5F5F5F5F5E2F5F5F5F5F5F5F5F5F5F5F5F5F5F5F5F5F5F5F5F5F5E2E2F5F5F5F5F5F5F5F5F5F5F5F5F5F5F5F5F5F5F5F5F5E2DCF52DF5F5E2F5F5F5F5F52D
310
F5F5F5F5F5F5F5F5F5F5F5F5F5F5F5E2F5F5F5F5F5F5F5F5F5F5F5F5F5F5F5F5F5F5F5F5F5F5F5F5F5F5F5F5F5F5F5F5F5F5F5F5F5F5F5F5F5F5F5F5F5F5F5F5F5F5F5F5F5F5F5F5F5F5F5F5F5F5F5F5F5F5F5F5F5F5F5F5F5F5F5F5F5F5F5F5F5F5F5F5F5F5F5F5F5F5F5F5F5F5F5F5F5F5F5F5F5F5F5F5F5F5E2F5F5F5F5
310
F5F5F5F5F5F5F5F5F5F5F5F5F5F5F5F5F5E2E2F5F5F5F5F5F5F5F5F5F5F5F5F5F5F5F5F5F5F5F5F5E2BEF52D2D2D2D2D2D2D2DE2E2E2E2E2E2E2E2E2E2E2E2E2E2E2E2E2E2F5F5F5F5F5F5F5F5F5F5F5F5F5F5F5F5F5F5F5F5F5F5F5F5F5F5F5F5F5F5F5F5F5F5F5F5F5F5F5F5F5F5F5F5F5F5F5F5F5F5F5F5F5F5F5F5F5F5
310
F5F5F5F5F5F5F5F5F5F5F5F5F5F5F5F5F5F5F5F5F5F5F5F5F5F5F5F5F5F5F5F5F5F5F5F5F5F5F5F5F5F5F5F5F5F5F5F5E2F5F5F5F5F5F5F5F5F5F5F5F5F5F5F5F5F5F5F5F5F5E2E2F5F5F5F5E2F5F5F5F5F5F5F5F5F5F5F5F5F5F5F5F5E2DCF5F5F5F5E2F5F5F5F5F5E2F5F5F5F5F5F5F5F5F5F5F5F5F5F5F5F5F5F5F5F5F5
310
F5F5F5F5F5F5F5F5F5F5F5F5F5F5F5F5F5F5F5F5F5F5F5F5F5F5F5F5F5F5F5F5F5F5F5F5F5F5F5F5F5F5F5F5F5F5F5F5F5F5F5F5F5F5F5F5F5F5F5F5F5F5F5F5F5F5F5F5F5F5F5F5F5F5F5F5F5F5F5F5F5F5F5F5F5F5F5F5F5F5F5F5F5F5F5F5F5F5F5F5F5E2F5F5F5F5F5F5F5F5F5F5F5F5F5F5F5F5E2F5F5F5F5E2E2F5F5
310
F5F5E2F5F5F5F5F5F5F5F5F5F5F5F5F5F5F5F5E2F5F5F5F5F5E2F5F5F5F5F5E2F5F5F5F5F5F5F5F5F5F5F5F5F5F5F5F5F5F5F5F5F5F5F5F5F5F5F5F5F5F5F5F5F5F5F5F5F5F5F5F5F5F5F5F5F5F5F5F5F5F5F5F5F5F5F5F5F5F5F5F5F5F5F5F5F5F5F5F5F5F5F5F5F5F5F5F5F5F5F5F5F5F5F5F5F5F5F5F5F5F5F5F5F5F5F5
310
F5F5F5F5F5F5F5F5F5F5F5F5F5F5F5F5F5F5F5F5F5F5F5F5F5F5F5E2F5F5F5F5F5F5F5F5F5F5F5F5F5F5F5F5E2F5F5F5F5E2E2F5F5F5F5E2F5F5F5F5F5F5F5F5F5F5F5F5F5F5F5F5E2F5F5F5F5F5E2F5F5F5F5F5E2F5F5F5F5F5F5F5F5F5F5F5F5F5F5F5F5F5F5F5F5F5F5F5F5F5F5F5F5F5F5F5F5F5F5F5F5F5F5F5F5F5F5
310
F5F5F5F5F5F5F5F5F5F5F5F5F5F5F5F5F5F5F5F5F5F5F5F5F5F5F5F5F5F5F5F5F5F5F5F5F5F5F5F5F5F5F5F5F5F5F5F5F5F5F5F5F5F5F5F5F5F5F5F5F5F5F5F5F5F5F5F5F5F5F5F5F5F5F5F5F5F5F5F5E2F5F5F5F5F5F5F5F5F5F5F5F5F5F5F5F5E2F5F5F5F5E2E2F5F5F5F5E2F5F5F5F5F5F5F5F5F5F5F5F5F5F5F5F5E2F5
310
F5F5F5F5E2F5F5F5F5F5E2F5F5F5F5F5F5F5F5F5F5F5F5F5F5F5F5F5F5F5F5F5F5F5F5F5F5F5F5F5F5F5F5F5F5F5F5F5F5F5F5F5F5F5F5F5F5F5F5F5F5F5F5F5F5F5F5F5F5F5F5F5F5F5F5F5F5F5F5F5F5F5F5F5F5F5F5F5F5F5F5F5F5F5F5F5F5F5F5F5F5F5F5F5F5F5F5F5F5F5F5F5F5F5F5F5F5F5F5F5F5F5F5F5F5F5F5
310
F5F5F5F5F5F5E2F5F5F5F5F5F5F5F5F5F5F5F5F5F5F5F5E2F5F5F5F5E2E2F5F5F5F5E2F5F5F5F5F5F5F5F5F5F5F5F5F5F5F5F5E2E2E2E2E2E2E2F5F5F5F5F5E2F5F5F5F5F5F5F5F5F5F5F5F5F5F5F5F5F5F5F5F5F5F5F5F5F5F5F5F5F5F5F5F5F5F5F5F5F5F5F5F5F5F5F5F5F5F5F5F5F5F5F5F5F5F5F5F5F5F5F5F5F5F5F5
310
F5F5F5F5F5F5F5F5F5F5F5F5F5F5F5F5F5F5F5F5F5F5F5F5F5F5F5F5F5F5F5F5F5F5F5F5F5F5F5F5F5F5F5F5F5F5F5F5F5F5F5F5F5F5F5F5F5F5F5E2F5F5F5F5F5F5F5F5F5F5F5F5F5F5F5F5E2F5F5F5F5E2E2F5F5F5F5E2F5F5F5F5F5F5F5F5F5F5F5F5F5F5F5F5E2E2E2E2F5E2E2F5F5F5F5F5E2F5F5F5F5F5F5F5F5F5F5
310
F5F5F5F5F5F5F5F5F5F5F5F5F5F5F5F5F5F5F5F5F5F5F5F5F5F5F5F5F5F5F5F5F5F5F5F5F5F5F5F5F5F5F5F5F5F5F5F5F5F5F5F5F5F5F5F5F5F5F5F5F5F5F5F5F5F5F5F5F5F5F5F5F5F5F5F5F5F5F5F5F5F5F5F5F5F5F5F5F5F5F5F5F5F5F5F5F5F5F5F5F5F5F5F5F5F5F5F5F5F5F5F5E2F5F5F5F5F5F5F5F5F5F5F5F5F5F5
310
F5F5E2F5F5F5F5E2E2F5F5F5F5E2F5F5F5F5F5F5F5F5F5F5F5F5F5F5F5F5E2E2E2E2F5F5F5F5F5F5F5F5E2F5F5F5F5F5F5F5F5F5F5F5F5F5F5F5F5F5F5F5F5F5F5F5F5F5F5F5F5F5F5F5F5F5F5F5F5F5F5F5F5F5F5F5F5F5F5F5F5F5F5F5F5F5F5F5F5F5F5F5F5F5F5F5F5F5F5F5F5F5F5F5F5F5F5F5F5F5F5F5F5F5F5F5F5
310
F5F5F5F5F5F5F5F5F5F5F5F5F5F5F5F5F5F5F5F5F5F5F5F5F5F5F5F5F5F5F5F5F5F5F5F5F5F5E2F5F5F5F5F5F5F5F5F5F5F5F5F5F5F5F5E2F5F5F5F5E2E2F5F5F5F5E2F5F5F5F5F5F5F5F5F5F5F5F5F5F5F5F5E2F5F5F5F5F5F5F5F5F5F5F5E2F5F5F5F5F5F5F5F5F5F5F5F5F5F5F5F5F5F5F5F5F5F5F5F5F5F5F5F5F5F5F5
310
F5F5F5F5F5F5F5F5F5F5F5F5F5F5F5F5F5F5F5F5F5F5F5F5F5F5F5F5F5F5F5F5F5F5F5F5F5F5F5F5F5F5F5F5F5F5F5F5F5F5F5F5F5F5F5F5F5F5F5F5F5F5F5F5F5F5F5F5F5F5F5F5F5F5F5F5F5F5F5F5F5F5F5F5F5F5F5F5F5F5F5E2F5F5F5F5F5F5F5F5F5F5F5F5F5F5F5F5E2F5F5F5F5E2E2F5F5F5F5E2F5F5F5F5F5F5F5
310
F5F5F5F5F5F5F5F5F5E2E2E2E2E2E2E2E2E2E2E2E2E2F5F5F5F5F5F5F5F5F5F5F5F5F5F5F5F5F5F5F5F5F5F5F5F5F5F5F5F5F5F5F5F5F5F5F5F5F5F5F5F5F5F5F5F5F5F5F5F5F5F5F5F5F5F5F5F5F5F5F5F5F5F5F5F5F5F5F5F5F5F5F5F5F5F5F5F5F5F5F5F5F5F5F5F5F5F5F5F5F5F5F5F5F5F5F5F5F5F5F5F5F5F5F5F5F5
310
F5F5F5F5F5F5F5F5F5F5F5F5F5F5F5F5F5E2F5F5F5F5F5F5F5F5F5F5F5F5F5F5F5F5E2F5F5F5F5E2E2F5F5F5F5E2F5F5F5F5F5F5F5F5F5F5F5F5F5F5F5F5E2E2E2F5F5F5F5F5F5F5F5F5F5F5F5F5F5F5F5F5F5F5F5F5F5F5F5F5F5F5F5F5F5F5F5F5F5F5F5F5F5F5F5F5F5F5F5F5F5F5F5F5F5F5F5F5F5F5F5F5F5F5F5F5F5
310
F5F5F5F5F5F5F5F5F5F5F5F5F5F5F5F5F5F5F5F5F5F5F5F5F5F5F5F5F5F5F5F5F5F5F5F5F5F5F5F5F5F5F5F5F5F5F5F5F5F5F5F5F5F5F5F5F5F5F5F5F5F5F5F5F5F5F5F5F5F5E2F5F5F5F5F5F5F5F5F5F5F5F5F5F5F5F5E2F5F5F5F5E2E2F5F5F5F5E2F5F5F5F5F5F5F5F5F5F5F5F5F5F5F5F5E2E2E2F5F5F5F5F5F5F5F5F5
310
F5F5F5F5F5F5F5F5F5F5F5F5F5F5F5F5F5F5F5F5F5F5F5F5F5F5F5F5F5F5F5F5F5F5F5F5F5F5F5F5F5F5F5F5F5F5F5F5F5F5F5F5F5F5F5F5F5F5F5F5F5F5F5F5F5F5F5F5F5F5F5F5F5F5F5F5F5F5F5F5F5F5F5F5F5F5F5F5F5F5F5F5F5F5F5F5F5F5F5F5F5F5F5F5F5F5F5F5F5F5F5F5F5F5F5F5F5F5F5F5F5F5F5E2F5F5F5
310
F5F5F5F5F5F5F5F5F5F5F5F5F5E2F5F5F5F5E2E2F5F5F5F5E2F5F5F5F5F5F5F5F5F5F5F5F5F5F5F5F5E2F5F5F5F5F5F5F5F5F5F5F5F5F5F5F5F5F5F5F5F5F5F5F5F5F5F5F5F5F5F5F5F5F5F5F5F5F5F5F5F5F5F5F5F5F5F5F5F5F5F5F5F5F5F5F5F5F5F5F5F5F5F5F5F5F5F5F5F5F5F5F5F5F5F5F5F5F5F5F5F5F5F5F5F5F5
310
F5F5F5F5F5F5F5F5F5F5F5F5F5F5F5F5F5F5F5F5F5F5F5F5F5F5F5F5F5F5F5F5F5F5F5F5F5F5F5F5F5F5F5F5F5F5F5F5F5E2F5F5F5F5F5F5F5F5F5F5F5F5F5F5F5F5E2F5F5F5F5E2E2F5F5F5F5E2F5F5F5F5F5F5F5F5F5F5F5F5F5F5F5F5E2F5F5F5F5F5F5F5F5F5F5F5F5F5F5F5F5F5F5F5F5F5F5F5F5F5F5F5F5F5F5F5F5
310
F5F5F5F5F5F5F5F5F5F5F5F5F5F5F5F5F5F5F5F5F5F5F5F5F5F5F5F5F5F5F5F5F5F5F5F5F5F5F5F5F5F5F5F5F5F5F5F5F5F5F5F5F5F5F5F5F5F5F5F5F5F5F5F5F5F5F5F5F5F5F5F5F5F5F5F5F5F5F5F5F5F5F5F5F5F5F5F5F5F5F5F5F5F5F5F5F5F5F5F5F5F5E2F5F5F5F5F5F5F5F5F5F5F5F5F5F5F5F5E2F5F5F5F5E2E2F5
310
F5F5F5E2F5F5F5F5F5F5F5F5F5F5F5F5F5F5F5F5E20F0F0F0F0F0F0F0F0F0F0FF5F5F5F5F5F5F5F5F5F5F5F5F5F5F5F5F5F5F5F5F5F5F5F5F5F5F5F5F5F5F5F5F5F5F5F5F5F5F5F5F5F5F5F5F5F5F5F5F5F5F5F5F5F5F5F5F5F5F5F5F5F5F5F5F5F5F5F5F5F5F5F5F5F5F5F5F5F5F5F5F5F5F5F5F5F5F5F5F5F5F5F5F5F5F5
310
F5F5F5F5F5F5F5F5F5F5F5F5F5F5F5F5F5F5F5F5F5F5F5F5F5F5F5F5E2F5F5F5F5F5F5F5F5F5F5F5F5F5F5F5F5E2F5F5F5F5E2E2F5F5F5F5E2F5F5F5F5F5F5F5F5F5F5F5F5F5F5F5F5E20F0F0F0F0F0F0F0F0F0F0FF5F5F5F5F5F5F5F5F5F5F5F5F5F5F5F5F5F5F5F5F5F5F5F5F5F5F5F5F5F5F5F5F5F5F5F5F5F5F5F5F5F5
310
F5F5F5F5F5F5F5F5F5F5F5F5F5F5F5F5F5F5F5F5F5F5F5F5F5F5F5F5F5F5F5F5F5F5F5F5F5F5F5F5F5F5F5F5F5F5F5F5F5F5F5F5F5F5F5F5F5F5F5F5F5F5F5F5F5F5F5F5F5F5F5F5F5F5F5F5F5F5F5F5F5E2F5F5F5F5F5F5F5F5F5F5F5F5F5F5F5F5E2F5F5F5F5E2E2F5F5F5F5E2F5F5F5F5F5F5F5F5F5F5F5F5F5F5F5F5E2
310
0F0F0F0F0F0F0F0F0F0FF5F5F5F5F5F5F5F5F5F5F5F5F5F5F5F5F5F5F5F5F5F5F5F5F5F5F5F5F5F5F5F5F5F5F5F5F5F5F5F5F5F5F5F5F5F5F5F5F5F5F5F5F5F5F5F5F5F5F5F5F5F5F5F5F5F5F5F5F5F5F5F5F5F5F5F5F5F5F5F5F5F5F5F5F5F5F5F5F5F5F5F5F5F5F5F5F5F5F5F5F5F5F5F5F5F5F5F5F5F5F5F5F5F5F5F5F5
310
F5F5F5F5F5F5F5E2F5F5F5F5F5F5F5F5F5F5F5F5F5F5F5F5E2F5F5F5F5E2E2F5F5F5F5E2F5F5F5F5F5F5F5F5F5F5F5F5F5F5F5F5E2F5F5F5F5F5F5F5F5F5F5F5F5F5F5F5F5F5F5F5F5F5F5F5F5F5F5F5F5F5F5F5F5F5F5F5F5F5F5F5F5F5F5F5F5F5F5F5F5F5F5F5F5F5F5F5F5F5F5F5F5F5F5F5F5F5F5F5F5F5F5F5F5F5F5
310
F5F5F5F5F5F5F5F5F5F5F5F5F5F5F5F5F5F5F5F5F5F5F5F5F5F5F5F5F5F5F5F5F5F5F5F5F5F5F5F5F5F5F5F5F5F5F5F5F5F5F5F5F5F5F5F5F5F5F5F5E2F5F5F5F5F5F5F5F5F5F5F5F5F5F5F5F5E2F5F5F5F5E2E2F5F5F5F5F5F5F5F5F5F5F5F5F5F5F5F5F5F5F5F5F5E2F5F5F5F5F5F5F5F5F5F5F5F5F5F5F5F5F5F5F5F5F5
310
F5F5F5F5F5F5F5F5F5F5F5F5F5F5F5F5F5F5F5F5F5F5F5F5F5F5F5F5F5F5F5F5F5F5F5F5F5F5F5F5F5F5F5F5F5F5F5F5F5F5F5F5F5F5F5F5F5F5F5F5F5F5F5F5F5F5F5F5F5F5F5F5F5F5F5F5F5F5F5F5F5F5F5F5F5F5F5F5F5F5F5F5F5F5F5F5F5F5F5F5F5F5F5F5F5F5F5F5F5F5F5F5F5E2F5F5F5F5F5F5F5F5F5F5F5F5F5
310
F5F5F5F5F5F5F5F5E2E2F5F5F5F5F5F5F5F5F5F5F5F5F5F5F5F5F5F5F5F5F5E2F5F5F5F5F5F5F5F5F5F5F5F5F5F5F5F5F5F5F5F5F5F5F5F5F5F5F5F5F5F5F5F5F5F5F5F5F5F5F5F5F5F5F5F5F5F5F5F5F5F5F5F5F5F5F5F5F5F5F5F5F5F5F5F5F5F5F5F5F5F5F5F5F5F5F5F5F5F5F5F5F5F5F5F5F5F5F5F5F5F5F5F5F5F5F5
310
F5F5F5F5F5F5F5F5F5F5F5F5F5F5F5F5F5F5F5F5F5F5F5F5F5F5F5F5F5F5F5F5F5F5F5F5F5F5F5E2F5F5F5F5F5F5F5F5F5F5F5F5F5F5F5F5F5F5F5F5F5E2E2F5F5F5F5F5F5F5F5F5F5F5F5F5F5F5F5F5F5F5F5F5E2F5F5F5F5F5F5F5F5F5F5F5F5F5F5F5F5F5F5F5F5F5F5F5F5F5F5F5F5F5F5F5F5F5F5F5F5F5F5F5F5F5F5
310
F5F5F5F5F5F5F5F5F5F5F5F5F5F5F5F5F5F5F5F5F5F5F5F5F5F5F5F5F5F5F5F5F5F5F5F5F5F5F5F5F5F5F5F5F5F5F5F5F5F5F5F5F5F5F5F5F5F5F5F5F5F5F5F5F5F5F5F5F5F5F5F5F5F5F5F5F5F5F5F5F5F5F5F5F5F5F5F5F5F5F5F5E2F5F5F5F5F5F5F5F5F5F5F5F5F5F5F5F5F5F5F5F5F5E2E2F5F5F5F5F5F5F5F5F5F5F5
310
F5F5F5F5F5F5F5F5F5F5E2F5F5F5F5F5F5F5F5F5F5F5F5F5F5F5F5F5F5F5F5F5F5F5F5F5F5F5F5F5F5F5F5F5F5F5F5F5F5F5F5F5F5F5F5F5F5F5F5F5F5F5F5F5F5F5F5F5F5F5F5F5F5F5F5F5F5F5F5F5F5F5F5F5F5F5F5F5F5F5F5F5F5F5F5F5F5F5F5F5F5F5F5F5F5F5F5F5F5F5F5F5F5F5F5F5F5F5F5F5F5F5F5F5F5F5F5
310
F5F5F5F5F5F5F5F5F5F5F5F5F5F5F5F5F5F5E2F5F5F5F5F5F5F5F5F5F5F5F5F5F5F5F5F5F5F5F5F5E2E2F5F5F5F5F5F5F5F5F5F5F5F5F5F5F5F5F5F5F5F5F5E2F5F5F5F5F5F5F5F5F5F5F5F5F5F5F5F5F5F5F5F5F5F5F5F5F5F5F5F5F5F5F5F5F5F5F5F5F5F5F5F5F5F5F5F5F5F5F5F5F5F5F5F5F5F5F5F5F5F5F5F5F5F5F5
310
F5F5F5F5F5F5F5F5F5F5F5F5F5F5F5F5F5F5F5F5F5F5F5F5F5F5F5F5F5F5F5F5F5F5F5F5F5F5F5F5F5F5F5F5F5F5F5F5F5F5F5F5F5F5F5F5F5F5F5F5F5F5F5F5F5F5F5F5F5F5F5E2F5F5F5F5F5F5F5F5F5F5F5F5F5F5F5F5F5F5F5F5F5E2E2F5F5F5F5F5F5F5F5F5F5F5F5F5F5F5F5F5F5F5F5F5E2F5F5F5F5F5F5F5F5F5F5
310
F5F5F5F5F5F5F5F5F5F5F5F5F5F5F5F5F5F5F5F5F5F5F5F5F5F5F5F5F5F5F5F5F5F5F5F5F5F5F5F5F5F5F5F5F5F5F5F5F5F5F5F5F5F5F5F5F5F5F5F5F5F5F5F5F5F5F5F5F5F5F5F5F5F5F5F5F5F5F5F5F5F5F5F5F5F5F5F5F5F5F5F5F5F5F5F5F5F5F5F5F5F5F5F5F5F5F5F5F5F5F5F5F5F5F5F5F5F5F5F5F5F5F5F5E2F5F5
310
F5F5F5F5F5F5F5F5F5F5F5F5F5F5F5F5F5F5F5E2E2F5F5F5F5F5F5F5F5F5F5F5F5F5F5F5F5F5F5F5F5F5E2F5F5F5F5F5F5F5F5F5F5F5F5F5F5F5F5F5F5F5F5F5F5F5F5F5F5F5F5F5F5F5F5F5F5F5F5F5F5F5F5F5F5F5F5F5F5F5F5F5F5F5F5F5F5F5F5F5F5F5F5F5F5F5F5F5F5F5F5F5F5F5F5F5F5F5F5F5F5F5F5F5F5F5F5
310
F5F5F5F5F5F5F5F5F5F5F5F5F5F5F5F5F5F5F5F5F5F5F5F5F5F5F5F5F5F5F5F5F5F5F5F5F5F5F5F5F5F5F5F5F5F5F5F5F5F5E2F5F5F5F5F5F5F5F5F5F5F5F5F5F5F5F5F5F5F5F5F5E2E2F5F5F5F5F5F5F5F5F5F5F5F5F5F5F5F5F5F5F5F5F5E2F5F5F5F5F5F5F5F5F5F5F5F5F5F5F5F5F5F5F5F5F5F5F5F5F5F5F5F5F5F5F5
310
F5F5F5F5F5F5F5F5F5F5F5F5F5F5F5F5F5F5F5F5F5F5F5F5F5F5F5F5F5F5F5F5F5F5F5F5F5F5F5F5F5F5F5F5F5F5F5F5F5F5F5F5F5F5F5F5F5F5F5F5F5F5F5F5F5F5F5F5F5F5F5F5F5F5F5F5F5F5F5F5F5F5F5F5F5F5F5F5F5F5F5F5F5F5F5F5F5F5F5F5F5F5F5E2F5F5F5F5F5F5F5F5F5F5F5F5F5F5F5F5F5F5F5F5F5E2E2
310
F5F5F5F5F5F5F5F5F5F5F5F5F5F5F5F5F5F5F5F5F5E2F5F5F5F5F5F5F5F5F5F5F5F5F5F5F5F5F5F5F5F5F5F5F5F5F5F5F5F5F5F5F5F5F5F5F5F5F5F5F5F5F5F5F5F5F5F5F5F5F5F5F5F5F5F5F5F5F5F5F5F5F5F5F5F5F5F5F5F5F5F5F5F5F5F5F5F5F5F5F5F5F5F5F5F5F5F5F5F5F5F5F5F5F5F5F5F5F5F5F5F5F5F5F5F5F5
310
F5F5F5F5F5F5F5F5F5F5F5F5F5F5F5F5F5F5F5F5F5F5F5F5F5F5F5F5F5E2F5F5F5F5F5F5F5F5F5F5F5F5F5F5F5F5F5F5F5F5F5E2E2F5F5F5F5E2F5F5F5F5F5F5F5F5F5F5F5F5F5F5F5F5E2F5F5F5F5F5F5F5F5F5F5F5F5F5F5F5F5F5F5F5F5F5F5F5F5F5F5F5F5F5F5F5F5F5F5F5F5F5F5F5F5F5F5F5F5F5F5F5F5F5F5F5F5
310
F5F5F5F5F5F5F5F5F5F5F5F5F5F5F5F5F5F5F5F5F5F5F5F5F5F5F5F5F5F5F5F5F5F5F5F5F5F5F5F5F5F5F5F5F5F5F5F5F5E2F0E2E2F5F5F5F5F5F5E2F0E2E2F5DCF5F5F5F5F5F5F0F0E2F5F5F5F5F5F5F5F5E2F5F5F5F5F5F5F5F5F5F5F5F5F5F5F5F5E2F5F5F5F5E2E2F5F5F5F5E2F5F5F5F5F5F5F5F5F5F5F5F5F5F5F5F5
310
E2F5F5F5F5F5F5F5F5F5F5F5F5F5F5F5F5F5F5F5F5F5F5F5F5F5F5F5F5F5F5F5F5F5F5F5F5F5F5F5F5F5F5F5F5F5F5F5F5F5F5F5F5F5F5F5F5F5F5F5F5F5F5F5F5F5F5F5F5F5F5F5F5F5F5F5F5F5F5F5F5F5F5F5F5F5F5F5F5F5F5F5F5F5F5F5F5F5F5F5F5E2DCDCF0F5E2F5F5F5F5F5E2F5F0E2E2DCF5F5F5F5F5E2F0F0F5
310
E2F5F5F5E2E2E2F5E2F5F5F5F5F5F5F5F5F5F5F5F5F5F5F5F5E2F5F5F5F5E2E2F5F5F5F5E2F5F5F5F5F5F5F5F5F5F5F5F5F5F5F5F5E2F5F5F5F5F5F5F5F5F5F5F5F5F5F5F5F5F5F5F5F5F5F5F5F5F5F5F5F5F5F5F5F5F5F5F5F5F5F5F5F5F5F5F5F5F5F5F5F5F5F5F5F5F5F5F5F5F5F5F5F5F5F5F5F5F5F5F5F5F5F5F5F5F5
310
F5F5F5F5F5F5F5F5F5F5F5F5F5F5F5F5F5F5F5F5F5F5F5F5F5F5E2F0DCF0DCE2E2E2F5F5F5E2E2F0F0F0E2DCF5F5F5F5E2F0F0F0E2E2F0E2E2E2E2E2E2E2F5F5F5F5F5F5F5F5F5F5F5F5F5F5F5F5E2F5F5F5F5E2E2F5F5F5F5E2F5F5F5F5F5F5F5F5F5F5F5F5F5F5F5F5E2F5F5F5F5F5F5F5F5F5F5F5F5F5F5F5F5F5F5F5F5
310
F5F5F5F5F5F5F5F5F5F5F5F5F5F5F5F5F5F5F5F5F5F5F5F5F5F5F5F5F5F5F5F5F5F5F5F5F5F5F5F5F5F5F5F5F5F5F5F5F5F5F5F5F5F5F5F5F5F5F5F5F5F5F5F5F5F5F5F5F5F5F5F5F5F5F5F5F5F5F5E2F0DCF0DCF0F0E2F5F5F5E2F0DCE2E2E2DCF5F5F5F5F0F0F0F0E2E2F0E2F5E2E2E2E2E2F5F5F5F5F5F5F5F5F5F5F5F5
310
F5F5F5F5E2F5F5F5F5E2E2F5F5F5F5E2F5F5F5F5F5F5F5F5F5F5F5F5F5F5F5F5E2F5F5F5F5F5F5F5F5F5F5F5F5F5F5F5F5F5F5F5F5F5F5F5F5F5F5F5F5F5F5F5F5F5F5F5F5F5F5F5F5F5F5F5F5F5F5F5F5F5F5F5F5F5F5F5F5F5F5F5F5F5F5F5F5F5F5F5F5F5F5F5F5F5F5F5F5F5F5F5F5F5F5F5F5F5F5F5F5F5F5F5F5F5F5
310
F5F5F5F5F5F5E2DCDCDCF0E2F5F5F5F5F5F0DCDCE2E2DCF5F5F5F5F5F0F0F0DCE2F0F5E2E2E2E2F5E2F5F5F5F5F5F5F5F5F5F5F5F5F5F5F5F5E2F5F5F5F5E2E2F5F5F5F5E2F5F5F5F5F5F5F5F5F5F5F5F5F5F5F5F5E2F5F5F5F5F5F5F5F5F5F5F5F5F5F5F5F5F5F5F5F5F5F5F5F5F5F5F5F5F5F5F5F5F5F5F5F5F5F5F5F5F5
310
F5F5F5F5F5F5F5F5F5F5F5F5F5F5F5F5F5F5F5F5F5F5F5F5F5F5F5F5F5F5F5F5F5F5F5F5F5F5F5F5F5F5F5F5F5F5F5F5F5F5F5F5F5F5F5F5F5F5F5E2F0F0F0E2F5F5F5F5F5E2F0E2E2E2E2DCF5F5F5F5F5F0F0E2E2F5F5F5F5E2E2E2F5E2F5F5F5F5F5F5F5F5F5F5F5F5F5F5F5F5E2F5F5F5F5E2E2F5F5F5F5E2F5F5F5F5F5
310
F5F5F5F5F5F5F5F5F5F5F5E2F5F5F5F5F5F5F5F5F5F5F5F5F5F5F5F5F5F5F5F5F5F5F5F5F5F5F5F5F5F5F5F5F5F5F5F5F5F5F5F5F5F5F5F5F5F5F5F5F5F5F5F5F5F5F5F5F5F5F5F5F5F5F5F5F5F5F5F5F5F5F5F5F5F5F5F5F5F5F5F5F5F5F5F5F5F5F5F5F5F5F5F5F5F5F5F5F5F5F5F5F5F5E2E2F5F5F5F5F5F5F5F5E2E2F5
310
F5DCF5F5F5F5F5F5F5F0E2F5F5F5F5F5E2F5F5E2F5F5F5F5F5F5F5F5F5F5F5F5F5F5F5F5E2F5F5F5F5E2E2F5F5F5F5E2F5F5F5F5F5F5F5F5F5F5F5F5F5F5F5F5E2F5F5F5F5F5F5F5F5F5F5F5F5F5F5F5F5F5F5F5F5F5F5F5F5F5F5F5F5F5F5F5F5F5F5F5F5F5F5F5F5F5F5F5F5F5F5F5F5F5F5F5F5F5F5F5F5F5F5F5F5F5F5
310
F5F5F5F5F5F5F5F5F5F5F5F5F5F5F5F5F5F5F5F5F5F5F5F5F5F5F5F5F5F5F5F5F5F5F5F5F5F5F5F5F5F5F5F5F5F5F5F5F5F5F5F5F5F5DCF5F5F5F5F5F5F5F5F5F5F5F5F5F5F5F5F5E2F5F5F5F5F5F5F5F5F5F5F5F5F5F5F5F5E2F5F5F5F5E2E2F5F5F5F5E2F5F5F5F5F5F5F5F5F5F5F5F5F5F5F5F5E2F5F5F5F5F5F5F5F5F5
310
F5F5F5F5F5F5F5F5F5F5F5F5F5F5F5F5F5F5F5F5F5F5F5F5F5F5F5F5F5F5F5F5F5F5F5F5F5F5F5F5F5F5F5F5F5F5F5F5F5F5F5F5F5F5F5F5F5F5F5F5F5F5F5F5F5F5F5F5F5F5F5F5F5F5F5F5F5F5F5F5F5F5F5F5F5F5F5F5F5F5F5F5F5F5F5F5F5F5F5F5F5F5F5F5F5F5F5DCF5F5F5F5F5F5F5F5F5F5F5F5F5F5F5F5F5E2F5
310
F5F5F5F5F5F5F5F5F5F5F5F5F5F5F5E2F5F5F5F5E2E2F5F5F5F5E2F5F5F5F5F5F5F5F5F5F5F5F5F5F5F5F5E2F5F5F5F5F5F5F5F5F5F5F5F5F5F5F5F5F5F5F5F5F5F5F5F5F5F5F5F5F5F5F5F5F5F5F5F5F5F5F5F5F5F5F5F5F5F5F5F5F5F5F5F5F5F5F5F5F5F5F5F5F5F5F5F5F5F5F5F5F5F5F5F5F5F5F5F5F5F5F5F5F5F5F5
310
F5F5F5F5F5F5F5F5F5F5F5F5F5F5F5F5F5F5F5F5F5F5F5F5F5F5F5F5F5F5F5F5F5DCF5F5F5F5F5F5F5F5F5F5F5F5F5F5F5F5F5E2F5F5F5F5F5F5F5F5F5F5F5F5F5F5F5F5E2F5F5F5F5E2E2F5F5F5F5E2F5F5F5F5F5F5F5F5F5F5F5F5F5F5F5F5E2F5F5F5F5F5F5F5F5F5F5F5F5F5F5F5F5F5F5F5F5F5F5F5F5F5F5F5F5F5F5
310
F5F5F5F5F5F5F5F5F5F5F5F5F5F5F5F5F5F5F5F5F5F5F5F5F5F5F5F5F5F5F5F5F5F5F5F5F5F5F5F5F5F5F5F5F5F5F5F5F5F5F5F5F5F5F5F5F5F5F5F5F5F5F5F5F5F5F5F5F5F5F5F5F5F5F5F5F5F5F5F5F5F5F5F5F5F5DCF5F5F5F5F5F5F5F5F5F5F5F5F5F5F5F5F5E2F5F5F5F5F5F5F5F5F5F5F5F5F5F5F5F5E2F5F5F5F5E2
310
E2F5F5F5F5E2F5F5F5F5F5F5F5F5F5F5F5F5F5F5F5F5E2F5F5F5F5F5F5F5F5F5F5F5F5F5F5F5F5F5F5F5F5F5F5F5F5F5F5F5F5F5F5F5F5F5F5F5F5F5F5F5F5F5F5F5F5F5F5F5F5F5F5F5F5F5F5F5F5F5F5F5F5F5F5F5F5F5F5F5F5F5F5F5F5F5F5F5F5F5F5F5F5F5F5F5F5F5F5F5F5F5F5F5F5F5F5F5F5F5F5F5F5F5F5F5F5
310
F5F5F5F5F5F5F5F5F5F5F5F5DCF5F5F5F5F5F5F5F5F5F5F5F5F5F5F5F5F5E2F5F5F5F5F5F5F5F5F5F5F5F5F5F5F5F5E2F5F5F5F5E2E2F5F5F5F5E2F5F5F5F5F5F5F5F5F5F5F5F5F5F5F5F5E2F5F5F5F5F5F5F5F5F5F5F5F5F5F5F5F5F5F5F5F5F5F5F5F5F5F5F5F5F5F5F5F5F5F5F5F5F5F5F5F5F5F5F5F5F5F5F5F5F5F5F5
310
F5F5F5F5F5F5F5F5F5F5F5F5F5F5F5F5F5F5F5F5F5F5F5F5F5F5F5F5F5F5F5F5F5F5F5F5F5F5F5F5F5F5F5F5F5F5F5F5F5F5F5F5F5F5F5F5F5F5F5F5F5F5F5F5F5DCF5F5F5F5F5F5F5F5F5F5F5F5F5F5F5F5F5E2F5F5F5F5F5F5F5F5F5F5F5F5F5F5F5F5E2F5F5F5F5E2E2F5F5F5F5E2F5F5F5F5F5F5F5F5F5F5F5F5F5F5F5
310
F5E2F5F5F5F5F5F5F5F5F5F5F5F5F5F5F5F5F5F5F5F5F5F5F5F5F5F5F5F5F5F5F5F5F5F5F5F5F5F5F5F5F5F5F5F5F5F5F5F5F5F5F5F5F5F5F5F5F5F5F5F5F5F5F5F5F5F5F5F5F5F5F5F5F5F5F5F5F5F5F5F5F5F5F5F5F5F5F5F5F5F5F5F5F5F5F5F5F5F5F5F5F5F5F5F5F5F5F5F5F5F5F5F5F5F5F5F5DCF5F5F5F5F5F5F5F5
310
F5F5F5F5F5F5F5F5F5E2F5F5F5F5F5F5F5F5F5F5F5F5F5F5F5F5E2F5F5F5F5E2E2F5F5F5F5E2F5F5F5F5F5F5F5F5F5F5F5F5F5F5F5F5E2F5F5F5F5F5F5F5F5F5F5F5F5F5F5F5F5F5F5F5F5F5F5F5F5F5F5F5F5F5F5F5F5F5F5F5F5F5F5F5F5F5F5F5F5F5F5F5F5F5F5F5F5F5F5F5F5F5F5F5F5F5F5F5F5F5F5F5F5F5F5F5F5
310
F5F5F5F5F5F5F5F5F5F5F5F5F5F5F5F5F5F5F5F5F5F5F5F5F5F5F5F5F5F5F5F5F5F5F5F5F5F5F5F5F5F5E2E2DCE2F5F5F5F5F5F5F5F5F5F5F5F5F5F5F5F5E2F5F5F5F5F5F5F5F5F5F5F5F5F5F5F5F5E2F5F5F5F5E2E2F5F5F5F5E2F5F5F5F5F5F5F5F5F5F5F5F5F5F5F5F5E2F5F5F5F5F5F5F5F5F5F5F5F5F5F5F5F5F5F5F5
310
F5F5F5F5F5F5F5F5F5F5F5F5F5F5F5F5F5F5F5F5F5F5F5F5F5F5F5F5F5F5F5F5F5F5F5F5F5F5F5F5F5F5F5F5F5F5F5F5F5F5F5F5F5F5F5F5F5F5F5F5F5F5F5F5F5F5F5F5F5F5F5F5F5F5F5F5F5F5F5F5F5F5F5F5F5F5F5F5F5F5F5F5F5F5F5F5F5DCF5F5F5F5F5F5F5F5F5F5F5F5F5F5F5F5F5E2F5F5F5F5F5F5F5F5F5F5F5
310
F5F5F5F5F5E2F5F5F5F5E2E2F5F5F5F5E2F5F5F5F5F5F5F5F5F5F5F5F5F5F5F5F5E2F5F5F5F5F5F5F5F5F5F5F5F5F5F5F5F5F5F5F5F5F5F5F5F5F5F5F5F5F5F5F5F5F5F5F5F5F5F5F5F5F5F5F5F5F5F5F5F5F5F5F5F5F5F5F5F5F5F5F5F5F5F5F5F5F5F5F5F5F5F5F5F5F5F5F5F5F5F5F5F5F5F5F5F5F5F5F5F5F5F5F5F5F5
310
F5F5F5F5F5F5F5F5F5F5F5F5F5F5F5F5F5F5F5F5F5F5F5DCF5F5F5F5F5F5F5F5F5F5F5F5F5F5F5F5F5E2F5F5F5F5F5F5F5F5F5F5F5F5F5F5F5F5E2F5F5F5F5E2E2F5F5F5F5F5F5F5F5F5F5F5F5F5F5F5F5F5F5F5F5F5E2F5F5F5F5F5F5F5F5F5F5F5F5F5F5F5F5F5F5F5F5F5F5F5F5F5F5F5F5F5F5F5F5F5F5F5F5F5F5F5F5
310
F5F5F5F5F5F5F5F5F5F5F5F5F5F5F5F5F5F5F5F5F5F5F5F5F5F5F5F5F5F5F5F5F5F5F5F5F5F5F5F5F5F5F5F5F5F5F5F5F5F5F5F5F5F5F5F5F5F5F5F5F5F5F5F5F5F5F5F5F5F5F5F5F5F5F5F5DCF5F5F5F5F5F5F5F5F5F5F5F5F5F5F5F5F5E2F5F5F5F5F5F5F5F5F5F5F5F5F5F5F5F5F5F5F5F5F5E2E2F5F5F5F5F5F5F5F5F5
310
F5F5F5F5F5F5F5F5F5F5F5F5E2F5F5F5F5F5F5F5F5F5F5F5F5F5F5F5F5F5F5F5F5F5F5F5F5F5F5F5F5F5F5F5F5F5F5F5F5F5F5F5F5F5F5F5F5F5F5F5F5F5F5F5F5F5F5F5F5F5F5F5F5F5F5F5F5F5F5F5F5F5F5F5F5F5F5F5F5F5F5F5F5F5F5F5F5F5F5F5F5F5F5F5F5F5F5F5F5F5F5F5F5F5F5F5F5F5F5F5F5F5F5F5F5F5F5
310
F5F5F5F5F5F5F5F5F5F5F5F5F5F5F5F5F5F5F5F5E2F5F5F5F5F5F5F5F5F5F5F5F5F5F5F5F5F5F5F5F5F5E2E2F5F5F5F5F5F5F5F5F5F5F5F5F5F5F5F5F5F5F5F5F5E2F5F5F5F5F5F5F5F5F5F5F5F5F5F5F5F5F5F5F5F5F5F5F5F5F5F5F5F5F5F5F5F5F5F5F5F5F5F5F5F5F5F5F5F5F5F5F5F5F5F5F5F5F5F5F5F5F5F5F5F5F5
310
F5F5F5F5F5F5F5F5F5F5F5F5F5F5F5F5F5F5F5F5F5F5F5F5F5F5F5F5F5F5F5F5F5F5F5F5F5F5F5F5F5F5F5F5F5F5F5F5F5F5F5F5F5F5F5F5F5F5F5F5F5F5F5F5F5F5F5F5F5F5F5F5F5E2F5F5F5F5F5F5F5F5F5F5F5F5F5F5F5F5F5F5F5F5F5E2E2F5F5F5F5F5F5F5F5F5F5F5F5F5F5F5F5F5F5F5F5F5E2F5F5F5F5F5F5F5F5
310
F5F5F5F5F5F5F5F5F5F5F5F5F5F5F5F5F5F5F5F5F5F5F5F5F5F5F5F5F5F5F5F5F5F5F5F5F5F5F5F5F5F5F5F5F5F5F5F5F5F5F5F5F5F5F5F5F5F5F5F5F5F5F5F5F5F5F5F5F5F5F5F5F5F5F5F5F5F5F5F5F5F5F5F5F5F5F5F5F5F5F5F5F5F5F5F5F5F5F5F5F5F5F5F5F5F5F5F5F5F5F5F5F5F5F5F5F5F5F5F5F5F5F5F5F5F5E2
310
F5F5F5F5F5F5F5F5F5F5F5F5F5F5F5F5F5F5F5F5F5E2E2F5F5F5F5F5F5F5F5F5F5F5F5F5F5F5F5F5F5F5F5F5E2F5F5F5F5F5F5F5F5F5F5F5F5F5F5F5F5F5F5F5F5F5F5F5F5F5F5F5F5F5F5F5F5F5F5F5F5F5F5F5F5F5F5F5F5F5F5F5F5F5F5F5F5F5F5F5F5F5F5F5F5F5F5F5F5F5F5F5F5F5F5F5F5F5F5F5F5F5F5F5F5F5F5
310
F5F5F5F5F5F5F5F5F5F5F5F5F5F5F5F5F5F5F5F5F5F5F5F5F5F5F5F5F5F5F5F5F5F5F5F5F5F5F5F5F5F5F5F5F5F5F5F5F5F5F5F5E2F5F5F5F5F5F5F5F5F5F5F5F5F5F5F5F5F5F5F5F5F5E2E2F5F5F5F5F5F5F5F5F5F5F5F5F5F5F5F5F5F5F5F5F5E2F5F5F5F5F5F5F5F5F5F5F5F5F5F5F5F5F5F5F5F5F5F5F5F5F5F5F5F5F5
310
F5F5F5F5F5F5F5F5F5F5F5F5F5F5F5F5F5F5F5F5F5F5F5F5F5F5F5F5F5F5F5F5F5F5F5F5F5F5F5F5F5F5F5F5F5F5F5F5F5F5F5F5F5F5F5F5F5F5F5F5F5F5F5F5F5F5F5F5F5F5F5F5F5F5F5F5F5F5F5F5F5F5F5F5F5F5F5F5F5F5F5F5F5F5F5F5F5F5F5F5F5F5F5F5F5E2F5F5F5F5F5F5F5F5F5F5F5F5F5F5F5F5F5F5F5F5F5
310
E2E2F5F5F5F5F5F5F5F5F5F5F5F5F5F5F5F5F5F5F5F5F5E2F5F5F5F5F5F5F5F5F5F5F5F5F5F5F5F5F5F5F5F5F5F5F5F5F5F5F5F5F5F5F5F5F5F5F5F5F5F5F5F5F5F5F5F5F5F5F5F5F5F5F5F5F5F5F5F5F5F5F5F5F5F5F5F5F5F5F5F5F5F5F5F5F5F5F5F5F5F5F5F5F5F5F5F5F5F5F5F5F5F5F5F5F5F5F5F5F5F5F5F5F5F5F5
310
F5F5F5F5F5F5F5F5F5F5F5F5F5F5F5F5F5F5F5F5F5F5F5F5F5F5F5F5F5F5F5E2F5F5F5F5F5F5F5F5F5F5F5F5F5F5F5F5F5F5F5F5F5E2E2F5F5F5F5F5F5F5F5F5F5F5F5F5F5F5F5F5F5F5F5F5E2F5F5F5F5F5F5F5F5F5F5F5F5F5F5F5F5F5F5F5F5F5F5F5F5F5F5F5F5F5F5F5F5F5F5F5F5F5F5F5F5F5F5F5F5F5F5F5F5F5F5
310
F5F5F5F5F5F5F5F5F5F5F5F5F5F5F5F5F5F5F5F5F5F5F5F5F5F5F5F5F5F5F5F5F5F5F5F5F5F5F5F5F5F5F5F5F5F5F5F5F5F5F5F5F5F5F5F5F5F5F5F5F5F5F5F5F5F5F5F5F5F5F5F5F5F5F5F5F5F5F5F5F5F5F5F5E2F5F5F5F5F5F5F5F5F5F5F5F5F5F5F5F5F5F5F5F5F5E2E2F5F5F5F5F5F5F5F5F5F5F5F5F5F5F5F5F5F5F5
310
F5F5E2F5F5F5F5F5F5F5F5F5F5F5F5F5F5F5F5F5F5F5F5F5F5F5F5F5F5F5F5F5F5F5F5F5F5F5F5F5F5F5F5F5F5F5F5F5F5F5F5F5F5F5F5F5F5F5F5F5F5F5F5F5F5F5F5F5F5F5F5F5F5F5F5F5F5F5F5F5F5F5F5F5F5F5F5F5F5F5F5F5F5F5F5F5F5F5F5F5F5F5F5F5F5F5F5F5F5F5F5F5F5F5F5F5F5F5F5F5F5F5F5F5F5F5F5
310
F5F5F5F5F5F5F5F5F5F5E2F5F5F5F5F5F5F5F5F5F5F5F5F5F5F5F5F5F5F5F5F5E2E2F5F5F5F5E2F5F5F5F5F5F5F5F5F5F5F5F5F5F5F5F5E2F5F5F5F5F5F5F5F5F5F5F5F5F5F5F5F5F5F5F5F5F5F5F5F5F5F5F5F5F5F5F5F5F5F5F5F5F5F5F5F5F5F5F5F5F5F5F5F5F5F5F5F5F5F5F5F5F5F5F5F5F5F5F5F5F5F5F5F5F5F5F5
310
F5F5F5F5F5F5F5F5F5F5F5F5F5F5F5F5F5F5F5F5F5F5F5F5F5F5F5F5F5F5F5F5F5F5F5F5F5F5F5F5F5F5F5F5F5F5F5F5F5F5F5F5F5F5F5F5F5F5F5F5F5F5F5E2F5F5F5F5F5F5F5F5F5F5F5F5F5F5F5F5E2F5F5F5F5E2E2F5F5F5F5E2F5F5F5F5F5F5F5F5F5F5F5F5F5F5F5F5E2F5F5F5F5F5F5F5F5F5F5F5F5F5F5F5F5F5F5
310
F5F5F5F5F5F5F5F5F5F5F5F5F5F5F5F5F5F5F5F5F5F5F5F5F5F5F5F5F5F5F5F5F5F5F5F5F5F5F5F5F5F5F5F5F5F5F5F5F5F5F5F5F5F5F5F5F5F5F5F5F5F5F5F5F5F5F5F5F5F5F5F5F5F5F5F5F5F5F5F5F5F5F5F5F5F5F5F5F5F5F5F5F5F5F5F5F5F5F5F5F5F5F5F5F5F5F5F5F5F5F5F5F5F5F5F5E2F5F5F5F5F5F5F5F5F5F5
310
F5F5F5F5F5F5E2F5F5F5F5E2E2F5F5F5F5E2F5F5F5F5F5F5F5F5F5F5F5F5F5F5F5F5E2F5F5F5F5F5F5F5F5F5F5F5F5F5F5F5F5F5F5F5F5F5F5F5F5F5F5F5F5F5F5F5F5F5F5F5F5F5F5F5F5F5F5F5F5F5F5F5F5F5F5F5F5F5F5F5F5F5F5F5F5F5F5F5F5F5F5F5F5F5F5F5F5F5F5F5F5F5F5F5F5F5F5F5F5F5F5F5F5F5F5F5F5
310
F5F5F5F5F5F5F5F5F5F5F5F5F5F5F5F5F5F5F5F5F5F5F5F5F5F5F5F5F5F5F5F5F5F5F5F5F5F5F5F5F5F5E2F5F5F5F5F5F5F5F5F5F5F5F5F5F5F5F5E2F5F5F5F5E2E2F5F5F5F5E2F5F5F5F5F5F5F5F5F5F5F5F5F5F5F5F5E2F5F5F5F5F5F5F5F5F5F5F5F5F5F5F5F5F5F5F5F5F5F5F5F5F5F5F5F5F5F5F5F5F5F5F5F5F5F5F5
310
F5F5F5F5F5F5F5F5F5F5F5F5F5F5F5F5F5F5F5F5F5F5F5F5F5F5F5F5F5F5F5F5F5F5F5F5F5F5F5F5F5F5F5F5F5F5F5F5F5F5F5F5F5F5F5F5F5F5F5F5F5F5F5F5F5F5F5F5F5F5F5F5F5F5F5F5F5F5F5F5F5F5F5F5F5F5F5F5F5F5F5F5F5F5F5E2F5F5F5F5F5F5F5F5F5F5F5F5F5F5F5F5E2F5F5F5F5E2E2F5F5F5F5E2F5F5F5
310
F5F5F5F5F5F5F5F5F5F5F5F5F5E2F5F5F5F5F5F5F5F5F5F5F5F5F5F5F5F5F5F5F5F5F5F5F5F5F5F5F5F5F5F5F5F5F5F5F5F5F5F5F5F5F5F5F5F5F5F5F5F5F5F5F5F5F5F5F5F5F5F5F5F5F5F5F5F5F5F5F5F5F5F5F5F5F5F5F5F5F5F5F5F5F5F5F5F5F5F5F5F5F5F5F5F5F5F5F5F5F5F5F5F5F5F5F5F5F5F5F5F5F5F5F5F5F5
310
F5F5F5F5F5F5F5F5F5F5F5F5F5F5F5F5F5F5F5F5F5E2F5F5F5F5F5F5F5F5F5F5F5F5F5F5F5F5E2F5F5F5F5E2E2F5F5F5F5E2F5F5F5F5F5F5F5F5F5F5F5F5F5F5F5F5E2F5F5F5F5F5F5F5F5F5F5F5F5F5F5F5F5F5F5F5F5F5F5F5F5F5F5F5F5F5F5F5F5F5F5F5F5F5F5F5F5F5F5F5F5F5F5F5F5F5F5F5F5F5F5F5F5F5F5F5F5
310
F5F5F5F5F5F5F5F5F5F5F5F5F5F5F5F5F5F5F5F5F5F5F5F5F5F5F5F5F5F5F5F5F5F5F5F5F5F5F5F5F5F5F5F5F5F5F5F5F5F5F5F5F5F5F5F5F5F5F5F5F5F5F5F5F5F5F5F5F5F5F5F5F5F5E2F5F5F5F5F5F5F5F5F5F5F5F5F5F5F5F5E2F5F5F5F5E2E2F5F5F5F5E2F5F5F5F5F5F5F5F5F5F5F5F5F5F5F5F5E2F5F5F5F5F5F5F5
310
F5F5F5F5F5F5F5F5F5F5F5F5F5F5F5F5F5F5F5F5F5F5F5F5F5F5F5F5F5F5F5F5F5F5F5F5F5F5F5F5F5F5F5F5F5F5F5F5F5F5F5F5F5F5F5F5F5F5F5F5F5F5F5F5F5F5F5F5F5F5F5F5F5F5F5F5F5F5F5F5F5F5F5F5F5F5F5F5F5F5F5F5F5F5F5F5F5F5F5F5F5F5F5F5F5F5F5F5F5F5F5F5F5F5F5F5F5F5F5F5F5F5F5F5F5F5F5
310
E2F5F5F5F5F5F5F5F5F5F5F5F5F5F5F5F5E2F5F5F5F5E2E2F5F5F5F5E2F5F5F5F5F5F5F5F5F5F5F5F5F5F5F5F5E2F5F5F5F5F5F5F5F5F5F5F5F5F5F5F5F5F5F5F5F5F5F5F5F5F5F5F5F5F5F5F5F5F5F5F5F5F5F5F5F5F5F5F5F5F5F5F5F5F5F5F5F5F5F5F5F5F5F5F5F5F5F5F5F5F5F5F5F5F5F5F5F5F5F5F5F5F5F5F5F5F5
310
F5F5F5F5F5F5F5F5F5F5F5F5F5F5F5F5F5F5F5F5F5F5F5F5F5F5F5F5F5F5F5F5F5F5F5F5F5F5F5F5F5F5F5F5F5F5F5F5F5F5F5F5F5E2F5F5F5F5F5F5F5F5F5F5F5F5F5F5F5F5E2F5F5F5F5E2E2F5F5F5F5E2F5F5F5F5F5F5F5F5F5F5F5F5F5F5F5F5E2F5F5F5F5F5F5F5F5F5F5F5F5F5F5F5F5F5F5F5F5F5F5F5F5F5F5F5F5
310
F5F5F5F5F5F5F5F5F5F5F5F5F5F5F5F5F5F5F5F5F5F5F5F5F5F5F5F5F5F5F5F5F5F5F5F5F5F5F5F5F5F5F5F5F5F5F5F5F5F5F5F5F5F5F5F5F5F5F5F5F5F5F5F5F5F5F5F5F5F5F5F5F5F5F5F5F5F5F5F5F5F5F5F5F5F5F5F5F5F5F5F5F5F5F5F5F5F5F5F5F5F5F5F5F5F5E2F5F5F5F5F5F5F5F5F5F5F5F5F5F5F5F5E2F5F5F5
310
F5E2E2F5F5F5F5E2F5F5F5F5F5F5F5F5F5F5F5F5F5F5F5F5E2F5F5F5F5F5F5F5F5F5F5F5F5F5F5F5F5F5F5F5F5F5F5F5F5F5F5F5F5F5F5F5F5F5F5F5F5F5F5F5F5F5F5F5F5F5F5F5F5F5F5F5F5F5F5F5F5F5F5F5F5F5F5F5F5F5F5F5F5F5F5F5F5F5F5F5F5F5F5F5F5F5F5F5F5F5F5F5F5F5F5F5F5F5F5F5F5F5F5F5F5F5F5
310
F5F5F5F5F5F5F5F5F5F5F5F5F5F5F5F5F5F5F5F5F5F5F5F5F5F5F5F5F5F5F5F5E2F5F5F5F5F5F5F5F5F5F5F5F5F5F5F5F5E2F5F5F5F5E2E2F5F5F5F5E2F5F5F5F5F5F5F5F5F5F5F5F5F5F5F5F5E2F5F5F5F5F5F5F5F5F5F5F5F5F5F5F5F5F5F5F5F5F5F5F5F5F5F5F5F5F5F5F5F5F5F5F5F5F5F5F5F5F5F5F5F5F5F5F5F5F5
310
F5F5F5F5F5F5F5F5F5F5F5F5F5F5F5F5F5F5F5F5F5F5F5F5F5F5F5F5F5F5F5F5F5F5F5F5F5F5F5F5F5F5F5F5F5F5F5F5F5F5F5F5F5F5F5F5F5F5F5F5F5F5F5F5F5F5F5F5F5F5F5F5F5F5F5F5F5F5F5F5F5F5F5F5F5E2F5F5F5F5F5F5F5F5F5F5F5F5F5F5F5F5E2F5F5F5F5E2E2F5F5F5F5E2F5F5F5F5F5F5F5F5F5F5F5F5F5
310
F5F5F5E2F5F5F5F5F5F5F5F5F5F5F5F5F5F5F5F5F5F5F5F5F5F5F5F5F5F5F5F5F5F5F5F5F5F5F5F5F5F5F5F5F5F5F5F5F5F5F5F5F5F5F5F5F5F5F5F5F5F5F5F5F5F5F5F5F5F5F5F5F5F5F5F5F5F5F5F5F5F5F5F5F5F5F5F5F5F5F5F5F5F5F5F5F5F5F5F5F5F5F5F5F5F5F5F5F5F5F5F5F5F5F5F5F5F5F5F5F5F5F5F5F5F5F5
310
F5F5F5F5F5F5F5F5F5F5F5E2F5F5F5F5F5F5F5F5F5F5F5F5F5F5F5F5E2F5F5F5F5E2E2F5F5F5F5E2F5F5F5F5F5F5F5F5F5F5F5F5F5F5F5F5E2F5F5F5F5F5F5F5F5F5F5F5F5F5F5F5F5F5F5F5F5F5F5F5F5F5F5F5F5F5F5F5F5F5F5F5F5F5F5F5F5F5F5F5F5F5F5F5F5F5F5F5F5F5F5F5F5F5F5F5F5F5F5F5F5F5F5F5F5F5F5
310
F5F5F5F5F5F5F5F5F5F5F5F5F5F5F5F5F5F5F5F5F5F5F5F5F5F5F5F5F5F5F5F5F5F5F5F5F5F5F5F5F5F5F5F5F5F5F5F5F5F5F5F5F5F5F5F5F5F5F5F5F5F5F5F5E2F5F5F5F5F5F5F5F5F5F5F5F5F5F5F5F5E2F5F5F5F5E2E2F5F5F5F5E2F5F5F5F5F5F5F5F5F5F5F5F5F5F5F5F5E2F5F5F5F5F5F5F5F5F5F5F5F5F5F5F5F5F5
310
F5F5F5F5F5F5F5F5F5F5F5F5F5F5F5F5F5F5F5F5F5F5F5F5F5F5F5F5F5F5F5F5F5F5F5F5F5F5F5F5F5F5F5F5F5F5F5F5F5F5F5F5F5F5F5F5F5F5F5F5F5F5F5F5F5F5F5F5F5F5F5F5F5F5F5F5F5F5F5F5F5F5F5F5F5F5F5F5F5F5F5F5F5F5F5F5F5F5F5F5F5F5F5F5F5F5F5F5F5F5F5F5F5F5F5F5F5E2F5F5F5F5F5F5F5F5F5
310
F5F5F5F5F5F5F5E2F5F5F5F5E2E2F5F5F5F5E2F5F5F5F5F5F5F5F5F5F5F5F5F5F5F5F5E2F5F5F5F5F5F5F5F5F5F5F5F5F5F5F5F5F5F5F5F5F5F5F5F5F5F5F5F5F5F5F5F5F5F5F5F5F5F5F5F5F5F5F5F5F5F5F5F5F5F5F5F5F5F5F5F5F5F5F5F5F5F5F5F5F5F5F5F5F5F5F5F5F5F5F5F5F5F5F5F5F5F5F5F5F5F5F5F5F5F5F5
310
F5F5F5F5F5F5F5F5F5F5F5F5F5F5F5F5F5F5F5F5F5F5F5F5F5F5F5F5F5F5F5F5F5F5F5F5F5F5F5F5F5F5F5E2F5F5F5F5F5F5F5F5F5F5F5F5F5F5F5F5E2F5F5F5F5E2E2F5F5F5F5E2F5F5F5F5F5F5F5F5F5F5F5F5F5F5F5F5E2F5F5F5F5F5F5F5F5F5F5F5F5F5F5F5F5F5F5F5F5F5F5F5F5F5F5F5F5F5F5F5F5F5F5F5F5F5F5
310
F5F5F5F5F5F5F5F5F5F5F5F5F5F5F5F5F5F5F5F5F5F5F5F5F5F5F5F5F5F5F5F5F5F5F5F5F5F5F5F5F5F5F5F5F5F5F5F5F5F5F5F5F5F5F5F5F5F5F5F5F5F5F5F5F5F5F5F5F5F5F5F5F5F5F5F5F5F5F5F5F5F5F5F5F5F5F5F5F5F5F5F5F5F5F5F5E2F5F5F5F5F5F5F5F5F5F5F5F5F5F5F5F5E2F5F5F5F5E2E2F5F5F5F5E2F5F5
310
F5F5F5F5F5F5F5F5F5F5F5F5F5F5E2F5F5F5F5F5F5F5F5F5F5F5F5F5F5F5F5F5F5F5F5F5F5F5F5F5F5F5F5F5F5F5F5F5F5F5F5F5F5F5F5F5F5F5F5F5F5F5F5F5F5F5F5F5F5F5F5F5F5F5F5F5F5F5F5F5F5F5F5F5F5F5F5F5F5F5F5F5F5F5F5F5F5F5F5F5F5F5F5F5F5F5F5F5F5F5F5F5F5F5F5F5F5F5F5F5F5F5F5F5F5F5F5
310
F5F5F5F5F5F5F5F5F5F5F5F5F5F5F5F5F5F5F5F5F5F5E2F5F5F5F5F5F5F5F5F5F5F5F5F5F5F5F5E2F5F5F5F5E2E2F5F5F5F5F5F5F5F5F5F5F5F5F5F5F5F5F5F5F5F5F5E2F5F5F5F5F5F5F5F5F5F5F5F5F5F5F5F5F5F5F5F5F5F5F5F5F5F5F5F5F5F5F5F5F5F5F5F5F5F5F5F5F5F5F5F5F5F5F5F5F5F5F5F5F5F5F5F5F5F5F5
310
F5F5F5F5F5F5F5F5F5F5F5F5F5F5F5F5F5F5F5F5F5F5F5F5F5F5F5F5F5F5F5F5F5F5F5F5F5F5F5F5F5F5F5F5F5F5F5F5F5F5F5F5F5F5F5F5F5F5F5F5F5F5F5F5F5F5F5F5F5F5F5F5F5F5F5E2F5F5F5F5F5F5F5F5F5F5F5F5F5F5F5F5F5F5F5F5F5E2E2F5F5F5F5F5F5F5F5F5F5F5F5F5F5F5F5F5F5F5F5F5E2F5F5F5F5F5F5
310
F5F5F5F5F5F5F5F5F5F5F5F5F5F5F5F5F5F5F5F5F5F5F5F5F5F5F5F5F5F5F5F5F5F5F5F5F5F5F5F5F5F5F5F5F5F5F5F5F5F5F5F5F5F5F5F5F5F5F5F5F5F5F5F5F5F5F5F5F5F5F5F5F5F5F5F5F5F5F5F5F5F5F5F5F5F5F5F5F5F5F5F5F5F5F5F5F5F5F5F5F5F5F5F5F5F5F5F5F5F5F5F5F5F5F5F5F5F5F5F5F5F5F5F5F5F5F5
310
F5E2F5F5F5F5F5F5F5F5F5F5F5F5F5F5F5F5F5F5F5F5F5E2E2F5F5F5F5F5F5F5F5F5F5F5F5F5F5F5F5F5F5F5F5F5E2F5F5F5F5F5F5F5F5F5F5F5F5F5F5F5F5F5F5F5F5F5F5F5F5F5F5F5F5F5F5F5F5F5F5F5F5F5F5F5F5F5F5F5F5F5F5F5F5F5F5F5F5F5F5F5F5F5F5F5F5F5F5F5F5F5F5F5F5F5F5F5F5F5F5F5F5F5F5F5F5
310
F5F5F5F5F5F5F5F5F5F5F5F5F5F5F5F5F5F5F5F5F5F5F5F5F5F5F5F5F5F5F5F5F5F5F5F5F5F5F5F5F5F5F5F5F5F5F5F5F5F5F5F5F5F5E2F5F5F5F5F5F5F5F5F5F5F5F5F5F5F5F5F5F5F5F5F5E2E2F5F5F5F5F5F5F5F5F5F5F5F5F5F5F5F5F5F5F5F5F5E2F5F5F5F5F5F5F5F5F5F5F5F5F5F5F5F5F5F5F5F5F5F5F5F5F5F5F5
310
F5F5F5F5F5F5F5F5F5F5F5F5F5F5F5F5F5F5F5F5F5F5F5F5F5F5F5F5F5F5F5F5F5F5F5F5F5F5F5F5F5F5F5F5F5F5F5F5F5F5F5F5F5F5F5F5F5F5F5F5F5F5F5F5F5F5F5F5F5F5F5F5F5F5F5F5F5F5F5F5F5F5F5F5F5F5F5F5F5F5F5F5F5F5F5F5F5F5F5F5F5F5F5F5F5F5F5E2F5F5F5F5F5F5F5F5F5F5F5F5F5F5F5F5F5F5F5
310
F5F5E2E2F5F5F5F5F5F5F5F5F5F5F5F5F5F5F5F5F5F5F5F5F5E2F5F5F5F5F5F5F5F5F5F5F5F5F5F5F5F5F5F5F5F5F5F5F5F5F5F5F5F5F5F5F5F5F5F5F5F5F5F5F5F5F5F5F5F5F5F5F5F5F5F5F5F5F5F5F5F5F5F5F5F5F5F5F5F5F5F5F5F5F5F5F5F5F5F5F5F5F5F5F5F5F5F5F5F5F5F5F5F5F5F5F5F5F5F5F5F5F5F5F5F5F5
310
F5F5F5F5F5F5F5F5F5F5F5F5F5F5F5F5F5F5F5F5F5F5F5F5F5F5F5F5F5F5F5F5F5E2F5F5F5F5F5F5F5F5F5F5F5F5F5F5F5F5F5F5F5F5F5E2E2F5F5F5F5F5F5F5F5F5F5F5F5F5F5F5F5F5F5F5F5F5E2F5F5F5F5F5F5F5F5F5F5F5F5F5F5F5F5F5F5F5F5F5F5F5F5F5F5F5F5F5F5F5F5F5F5F5F5F5F5F5F5F5F5F5F5F5F5F5F5
310
F5F5F5F5F5F5F5F5F5F5F5F5F5F5F5F5F5F5F5F5F5F5F5F5F5F5F5F5F5F5F5F5F5F5F5F5F5F5F5F5F5F5F5F5F5F5F5F5F5F5F5F5F5F5F5F5F5F5F5F5F5F5F5F5F5F5F5F5F5F5F5F5F5F5F5F5F5F5F5F5F5F5F5F5F5F5E2F5F5F5F5F5F5F5F5F5F5F5F5F5F5F5F5F5F5F5F5F5E2E2F5F5F5F5F5F5F5F5F5F5F5F5F5F5F5F5F5
310
F5F5F5F5E2F5F5F5F5F5F5F5F5F5F5F5F5F5F5F5F5F5F5F5F5F5F5F5F5F5F5F5F5F5F5F5F5F5F5F5F5F5F5F5F5F5F5F5F5F5F5F5F5F5F5F5F5F5F5F5F5F5F5F5F5F5F5F5F5F5F5F5F5F5F5F5F5F5F5F5F5F5F5F5F5F5F5F5F5F5F5F5F5F5F5F5F5F5F5F5F5F5F5F5F5F5F5F5F5F5F5F5F5F5F5F5F5F5F5F5F5F5F5F5F5F5F5
310
F5F5F5F5F5F5F5F5F5F5F5F5E2F5F5F5F5F5F5F5F5F5F5F5F5F5F5F5F5F5F5F5F5F5E2E2F5F5F5F5F5F5F5F5F5F5F5F5F5F5F5F5F5F5F5F5F5E2F5F5F5F5F5F5F5F5F5F5F5F5F5F5F5F5F5F5F5F5F5F5F5F5F5F5F5F5F5F5F5F5F5F5F5F5F5F5F5F5F5F5F5F5F5F5F5F5F5F5F5F5F5F5F5F5F5F5F5F5F5F5F5F5F5F5F5F5F5
310
F5F5F5F5F5F5F5F5F5F5F5F5F5F5F5F5F5F5F5F5F5F5F5F5F5F5F5F5F5F5F5F5F5F5F5F5F5F5F5F5F5F5F5F5F5F5F5F5F5F5F5F5F5F5F5F5F5F5F5F5F5F5F5F5F5E2F5F5F5F5F5F5F5F5F5F5F5F5F5F5F5F5F5F5F5F5F5E2E2F5F5F5F5F5F5F5F5F5F5F5F5F5F5F5F5F5F5F5F5F5E2F5F5F5F5F5F5F5F5F5F5F5F5F5F5F5F5
310
F5F5F5F5F5F5F5F5F5F5F5F5F5F5F5F5F5F5F5F5F5F5F5F5F5F5F5F5F5F5F5F5F5F5F5F5F5F5F5F5F5F5F5F5F5F5F5F5F5F5F5F5F5F5F5F5F5F5F5F5F5F5F5F5F5F5F5F5F5F5F5F5F5F5F5F5F5F5F5F5F5F5F5F5F5F5F5F5F5F5F5F5F5F5F5F5F5F5F5F5F5F5F5F5F5F5F5F5F5F5F5F5F5F5F5F5F5F5E2F5F5F5F5F5F5F5F5
310
F5F5F5F5F5F5F5F5F5F5F5F5F5E2E2F5F5F5F5E2F5F5F5F5F5F5F5F5F5F5F5F5F5F5F5F5E2F5F5F5F5F5F5F5F5F5F5F5F5F5F5F5F5F5F5F5F5F5F5F5F5F5F5F5F5F5F5F5F5F5F5F5F5F5F5F5F5F5F5F5F5F5F5F5F5F5F5F5F5F5F5F5F5F5F5F5F5F5F5F5F5F5F5F5F5F5F5F5F5F5F5F5F5F5F5F5F5F5F5F5F5F5F5F5F5F5F5
310
F5F5F5F5F5F5F5F5F5F5F5F5F5F5F5F5F5F5F5F5F5F5F5F5F5F5F5F5F5F5F5F5F5F5F5F5F5F5F5F5F5F5F5F5E2F5F5F5F5F5F5F5F5F5F5F5F5F5F5F5F5E2F5F5F5F5E2E2F5F5F5F5E2F5F5F5F5F5F5F5F5F5F5F5F5F5F5F5F5E2F5F5F5F5F5F5F5F5F5F5F5F5F5F5F5F5F5F5F5F5F5F5F5F5F5F5F5F5F5F5F5F5F5F5F5F5F5
310
F5F5F5F5F5F5F5F5F5F5F5F5F5F5F5F5F5F5F5F5F5F5F5F5F5F5F5F5F5F5F5F5F5F5F5F5F5F5F5F5F5F5F5F5F5F5F5F5F5F5F5F5F5F5F5F5F5F5F5F5F5F5F5F5F5F5F5F5F5F5F5F5F5F5F5F5F5F5F5F5F5F5F5F5F5F5F5F5F5F5F5F5F5F5F5F5F5E2F5F5F5F5F5F5F5F5F5F5F5F5F5F5F5F5E2F5F5F5F5E2E2F5F5F5F5E2F5
310
F5F5F5F5F5F5F5F5F5F5F5F5F5F5F5E2F5F5F5F5F5F5F5F5F5F5F5F5F5F5F5F5F5F5F5F5F5F5F5F5F5F5F5F5F5F5F5F5F5F5F5F5F5F5F5F5F5F5F5F5F5F5F5F5F5F5F5F5F5F5F5F5F5F5F5F5F5F5F5F5F5F5F5F5F5F5F5F5F5F5F5F5F5F5F5F5F5F5F5F5F5F5F5F5F5F5F5F5F5F5F5F5F5F5F5F5F5F5F5F5F5F5F5F5F5F5F5
310
F5F5F5F5F5F5F5F5F5F5F5F5F5F5F5F5F5F5F5F5F5F5F5E2F5F5F5F5F5F5F5F5F5F5F5F5F5F5F5F5E2F5F5F5F5E2E2F5F5F5F5E2F5F5F5F5F5F5F5F5F5F5F5F5F5F5F5F5E2F5F5F5F5F5F5F5F5F5F5F5F5F5F5F5F5F5F5F5F5F5F5F5F5F5F5F5F5F5F5F5F5F5F5F5F5F5F5F5F5F5F5F5F5F5F5F5F5F5F5F5F5F5F5F5F5F5F5
310
F5F5F5F5F5F5F5F5F5F5F5F5F5F5F5F5F5F5F5F5F5F5F5F5F5F5F5F5F5F5F5F5F5F5F5F5F5F5F5F5F5F5F5F5F5F5F5F5F5F5F5F5F5F5F5F5F5F5F5F5F5F5F5F5F5F5F5F5F5F5F5F5F5F5F5F5E2F5F5F5F5F5F5F5F5F5F5F5F5F5F5F5F5E2F5F5F5F5E2E2F5F5F5F5E2F5F5F5F5F5F5F5F5F5F5F5F5F5F5F5F5E2F5F5F5F5F5
310
F5F5F5F5F5F5F5F5F5F5F5F5F5F5F5F5F5F5F5F5F5F5F5F5F5F5F5F5F5F5F5F5F5F5F5F5F5F5F5F5F5F5F5F5F5F5F5F5F5F5F5F5F5F5F5F5F5F5F5F5F5F5F5F5F5F5F5F5F5F5F5F5F5F5F5F5F5F5F5F5F5F5F5F5F5F5F5F5F5F5F5F5F5F5F5F5F5F5F5F5F5F5F5F5F5F5F5F5F5F5F5F5F5F5F5F5F5F5F5F5F5F5F5F5F5F5F5
310
F5F5E2F5F5F5F5F5F5F5F5F5F5F5F5F5F5F5F5E2F5F5F5F5E2E2F5F5F5F5E2F5F5F5F5F5F5F5F5F5F5F5F5F5F5F5F5E2F5F5F5F5F5F5F5F5F5F5F5F5F5F5F5F5F5F5F5F5F5F5F5F5F5F5F5F5F5F5F5F5F5F5F5F5F5F5F5F5F5F5F5F5F5F5F5F5F5F5F5F5F5F5F5F5F5F5F5F5F5F5F5F5F5F5F5F5F5F5F5F5F5F5F5F5F5F5F5
310
F5F5F5F5F5F5F5F5F5F5F5F5F5F5F5F5F5F5F5F5F5F5F5F5F5F5F5F5F5F5F5F5F5F5F5F5F5F5F5F5F5F5F5F5F5F5F5F5F5F5F5F5F5F5F5E2F5F5F5F5F5F5F5F5F5F5F5F5F5F5F5F5E2F5F5F5F5E2E2F5F5F5F5E2F5F5F5F5F5F5F5F5F5F5F5F5F5F5F5F5E2F5F5F5F5F5F5F5F5F5F5F5F5F5F5F5F5F5F5F5F5F5F5F5F5F5F5
310
F5F5F5F5F5F5F5F5F5F5F5F5F5F5F5F5F5F5F5F5F5F5F5F5F5F5F5F5F5F5F5F5F5F5F5F5F5F5F5F5F5F5F5F5F5F5F5F5F5F5F5F5F5F5F5F5F5F5F5F5F5F5F5F5F5F5F5F5F5F5F5F5F5F5F5F5F5F5F5F5F5F5F5F5F5F5F5F5F5F5F5F5F5F5F5F5F5F5F5F5F5F5F5F5F5F5F5F5E2F5F5F5F5F5F5F5F5F5F5F5F5F5F5F5F5E2F5
310
F5F5F5E2E2F5F5F5F5E2F5F5F5F5F5F5F5F5F5F5F5F5F5F5F5F5E2F5F5F5F5F5F5F5F5F5F5F5F5F5F5F5F5F5F5F5F5F5F5F5F5F5F5F5F5F5F5F5F5F5F5F5F5F5F5F5F5F5F5F5F5F5F5F5F5F5F5F5F5F5F5F5F5F5F5F5F5F5F5F5F5F5F5F5F5F5F5F5F5F5F5F5F5F5F5F5F5F5F5F5F5F5F5F5F5F5F5F5F5F5F5F5F5F5F5F5F5
310
F5F5F5F5F5F5F5F5F5F5F5F5F5F5F5F5F5F5F5F5F5F5F5F5F5F5F5F5F5F5F5F5F5F5E2F5F5F5F5F5F5F5F5F5F5F5F5F5F5F5F5E2F5F5F5F5E2E2F5F5F5F5E2F5F5F5F5F5F5F5F5F5F5F5F5F5F5F5F5E2F5F5F5F5F5F5F5F5F5F5F5F5F5F5F5F5F5F5F5F5F5F5F5F5F5F5F5F5F5F5F5F5F5F5F5F5F5F5F5F5F5F5F5F5F5F5F5
310
F5F5F5F5F5F5F5F5F5F5F5F5F5F5F5F5F5F5F5F5F5F5F5F5F5F5F5F5F5F5F5F5F5F5F5F5F5F5F5F5F5F5F5F5F5F5F5F5F5F5F5F5F5F5F5F5F5F5F5F5F5F5F5F5F5F5F5F5F5F5F5F5F5F5F5F5F5F5F5F5F5F5F5F5F5F5F5E2F5F5F5F5F5F5F5F5F5F5F5F5F5F5F5F5E2F5F5F5F5E2E2F5F5F5F5E2F5F5F5F5F5F5F5F5F5F5F5
310
F5F5F5F5F5E2F5F5F5F5F5F5F5F5F5F5F5F5F5F5F5F5F5F5F5F5F5F5F5F5F5F5F5F5F5F5F5F5F5F5F5F5F5F5F5F5F5F5F5F5F5F5F5F5F5F5F5F5F5F5F5F5F5F5F5F5F5F5F5F5F5F5F5F5F5F5F5F5F5F5F5F5F5F5F5F5F5F5F5F5F5F5F5F5F5F5F5F5F5F5F5F5F5F5F5F5F5F5F5F5F5F5F5F5F5F5F5F5F5F5F5F5F5F5F5F5F5
310
F5F5F5F5F5F5F5F5F5F5F5F5F5E2F5F5F5F5F5F5F5F5F5F5F5F5F5F5F5F5E2F5F5F5F5E2E2F5F5F5F5E2F5F5F5F5F5F5F5F5F5F5F5F5F5F5F5F5E2F5F5F5F5F5F5F5F5F5F5F5F5F5F5F5F5F5F5F5F5F5F5F5F5F5F5F5F5F5F5F5F5F5F5F5F5F5F5F5F5F5F5F5F5F5F5F5F5F5F5F5F5F5F5F5F5F5F5F5F5F5F5F5F5F5F5F5F5
310
F5F5F5F5F5F5F5F5F5F5F5F5F5F5F5F5F5F5F5F5F5F5F5F5F5F5F5F5F5F5F5F5F5F5F5F5F5F5F5F5F5F5F5F5F5F5F5F5F5F5F5F5F5F5F5F5F5F5F5F5F5F5F5F5F5F5E2F5F5F5F5F5F5F5F5F5F5F5F5F5F5F5F5E2F5F5F5F5E2E2F5F5F5F5E2F5F5F5F5F5F5F5F5F5F5F5F5F5F5F5F5E2F5F5F5F5F5F5F5F5F5F5F5F5F5F5F5
310
F5F5F5F5F5F5F5F5F5F5F5F5F5F5F5F5F5F5F5F5F5F5F5F5F5F5F5F5F5F5F5F5F5F5F5F5F5F5F5F5F5F5F5F5F5F5F5F5F5F5F5F5F5F5F5F5F5F5F5F5F5F5F5F5F5F5F5F5F5F5F5F5F5F5F5F5F5F5F5F5F5F5F5F5F5F5F5F5F5F5F5F5F5F5F5F5F5F5F5F5F5F5F5F5F5F5F5F5F5F5F5F5F5F5F5F5F5F5F5E2F5F5F5F5F5F5F5
310
F5F5F5F5F5F5F5F5F5E2F5F5F5F5E2E2F5F5F5F5E2F5F5F5F5F5F5F5F5F5F5F5F5F5F5F5F5E2F5F5F5F5F5F5F5F5F5F5F5F5F5F5F5F5F5F5F5F5F5F5F5F5F5F5F5F5F5F5F5F5F5F5F5F5F5F5F5F5F5F5F5F5F5F5F5F5F5F5F5F5F5F5F5F5F5F5F5F5F5F5F5F5F5F5F5F5F5F5F5F5F5F5F5F5F5F5F5F5F5F5F5F5F5F5F5F5F5
310
F5F5F5F5F5F5F5F5F5F5F5F5F5F5F5F5F5F5F5F5F5F5F5F5F5F5F5F5F5F5F5F5F5F5F5F5F5F5F5F5F5F5F5F5F5E2F5F5F5F5F5F5F5F5F5F5F5F5F5F5F5F5E2F5F5F5F5E2E2F5F5F5F5E2F5F5F5F5F5F5F5F5F5F5F5F5F5F5F5F5E2F5F5F5F5F5F5F5F5F5F5F5F5F5F5F5F5F5F5F5F5F5F5F5F5F5F5F5F5F5F5F5F5F5F5F5F5
310
F5F5F5F5F5F5F5F5F5F5F5F5F5F5F5F5F5F5F5F5F5F5F5F5F5F5F5F5F5F5F5F5F5F5F5F5F5F5F5F5F5F5F5F5F5F5F5F5F5F5F5F5F5F5F5F5F5F5F5F5F5F5F5F5F5F5F5F5F5F5F5F5F5F5F5F5F5F5F5F5F5F5F5F5F5F5F5F5F5F5F5F5F5F5F5F5F5F5E2F5F5F5F5F5F5F5F5F5F5F5F5F5F5F5F5E2F5F5F5F5E2E2F5F5F5F5E2
310
F5F5F5F5F5F5F5F5F5F5F5F5F5F5F5F5E2F5F5F5F5F5F5F5F5F5F5F5F5F5F5F5F5F5F5F5F5F5F5F5F5F5F5F5F5F5F5F5F5F5F5F5F5F5F5F5F5F5F5F5F5F5F5F5F5F5F5F5F5F5F5F5F5F5F5F5F5F5F5F5F5F5F5F5F5F5F5F5F5F5F5F5F5F5F5F5F5F5F5F5F5F5F5F5F5F5F5F5F5F5F5F5F5F5F5F5F5F5F5F5F5F5F5F5F5F5F5
310
F5F5F5F5F5F5F5F5F5F5F5F5F5F5F5F5F5F5F5F5F5F5F5F5E2F5F5F5F5F5F5F5F5F5F5F5F5F5F5F5F5E2F5F5F5F5E2E2F5F5F5F5E2F5F5F5F5F5F5F5F5F5F5F5F5F5F5F5F5E2F5F5F5F5F5F5F5F5F5F5F5F5F5F5F5F5F5F5F5F5F5F5F5F5F5F5F5F5F5F5F5F5F5F5F5F5F5F5F5F5F5F5F5F5F5F5F5F5F5F5F5F5F5F5F5F5F5
310
F5F5F5F5F5F5F5F5F5F5F5F5F5F5F5F5F5F5F5F5F5F5F5F5F5F5F5F5F5F5F5F5F5F5F5F5F5F5F5F5F5F5F5F5F5F5F5F5F5F5F5F5F5F5F5F5F5F5F5F5F5F5F5F5F5F5F5F5F5F5F5F5F5F5F5F5F5E2F5F5F5F5F5F5F5F5F5F5F5F5F5F5F5F5E2F5F5F5F5E2E2F5F5F5F5E2F5F5F5F5F5F5F5F5F5F5F5F5F5F5F5F5E2F5F5F5F5
310
F5F5F5F5F5F5F5F5F5F5F5F5F5F5F5F5F5F5F5F5F5F5F5F5F5F5F5F5F5F5F5F5F5F5F5F5F5F5F5F5F5F5F5F5F5F5F5F5F5F5F5F5F5F5F5F5F5F5F5F5F5F5F5F5F5F5F5F5F5F5F5F5F5F5F5F5F5F5F5F5F5F5F5F5F5F5F5F5F5F5F5F5F5F5F5F5F5F5F5F5F5F5F5F5F5F5F5F5F5F5F5F5F5F5F5F5F5F5F5F5F5F5F5F5F5F5F5
310
F5F5F5E2F5F5F5F5F5F5F5F5F5F5F5F5F5F5F5F5E2F5F5F5F5E2E2F5F5F5F5F5F5F5F5F5F5F5F5F5F5F5F5F5F5F5F5F5E2F5F5F5F5F5F5F5F5F5F5F5F5F5F5F5F5F5F5F5F5F5F5F5F5F5F5F5F5F5F5F5F5F5F5F5F5F5F5F5F5F5F5F5F5F5F5F5F5F5F5F5F5F5F5F5F5F5F5F5F5F5F5F5F5F5F5F5F5F5F5F5F5F5F5F5F5F5F5
310
F5F5F5F5F5F5F5F5F5F5F5F5F5F5F5F5F5F5F5F5F5F5F5F5F5F5F5F5F5F5F5F5F5F5F5F5F5F5F5F5F5F5F5F5F5F5F5F5F5F5F5F5F5F5F5F5E2F5F5F5F5F5F5F5F5F5F5F5F5F5F5F5F5F5F5F5F5F5E2E2F5F5F5F5F5F5F5F5F5F5F5F5F5F5F5F5F5F5F5F5F5E2F5F5F5F5F5F5F5F5F5F5F5F5F5F5F5F5F5F5F5F5F5F5F5F5F5
310
F5F5F5F5F5F5F5F5F5F5F5F5F5F5F5F5F5F5F5F5F5F5F5F5F5F5F5F5F5F5F5F5F5F5F5F5F5F5F5F5F5F5F5F5F5F5F5F5F5F5F5F5F5F5F5F5F5F5F5F5F5F5F5F5F5F5F5F5F5F5F5F5F5F5F5F5F5F5F5F5F5F5F5F5F5F5F5F5F5F5F5F5F5F5F5F5F5F5F5F5F5F5F5F5F5F5F5F5F5E2F5F5F5F5F5F5F5F5F5F5F5F5F5F5F5F5F5
310
F5F5F5F5E2E2F5F5F5F5F5F5F5F5F5F5F5F5F5F5F5F5F5F5F5F5F5E2F5F5F5F5F5F5F5F5F5F5F5F5F5F5F5F5F5F5F5F5F5F5F5F5F5F5F5F5F5F5F5F5F5F5F5F5F5F5F5F5F5F5F5F5F5F5F5F5F5F5F5F5F5F5F5F5F5F5F5F5F5F5F5F5F5F5F5F5F5F5F5F5F5F5F5F5F5F5F5F5F5F5F5F5F5F5F5F5F5F5F5F5F5F5F5F5F5F5F5
310
F5F5F5F5F5F5F5F5F5F5F5F5F5F5F5F5F5F5F5F5F5F5F5F5F5F5F5F5F5F5F5F5F5F5F5E2F5F5F5F5F5F5F5F5F5F5F5F5F5F5F5F5F5F5F5F5F5E2E2F5F5F5F5F5F5F5F5F5F5F5F5F5F5F5F5F5F5F5F5F5E2F5F5F5F5F5F5F5F5F5F5F5F5F5F5F5F5F5F5F5F5F5F5F5F5F5F5F5F5F5F5F5F5F5F5F5F5F5F5F5F5F5F5F5F5F5F5
310
F5F5F5F5F5F5F5F5F5F5F5F5F5F5F5F5F5F5F5F5F5F5F5F5F5F5F5F5F5F5F5F5F5F5F5F5F5F5F5F5F5F5F5F5F5F5F5F5F5F5F5F5F5F5F5F5F5F5F5F5F5F5F5F5F5F5F5F5F5F5F5F5F5F5F5F5F5F5F5F5F5F5F5F5F5F5F5F5E2F5F5F5F5F5F5F5F5F5F5F5F5F5F5F5F5F5F5F5F5F5E2E2F5F5F5F5F5F5F5F5F5F5F5F5F5F5F5
310
F5F5F5F5F5F5E2E2E2E2E2E2E2E2E2E2E2E2E2E2E2E2E2E2E2E2E2E2E2E2E2E2E2E2E2E2E2E2E2E2E2E2E2E2E2E2E2E2E2E2E2E2E2E2E2E2E2E2E2E2E2E2E2E2E2E2E2E2E2E2E2E2E2E2E2E2E2E2E2E2E2E2E2E2E2E2E2E2E2E2E2E2E2E2E2E2E2E2E2E2E2E2E2E2E2E2E2E2E2E2E2E2E2E2E2E2E2E2E2E2E2E2E2E2E2E2E2
310
E2E2E2E2E2E2E2E2E2E2E2E2E2E2E2F5F5F5F5F5F5F5F5F5F5F5F5F5F5F5F5F5F5F5F5F5E2E2F5F5F5F5F5F5F5F5F5F5F5F5F5F5F5F5F5F5F5F5F5F5F5F5F5F5F5F5F5F5F5F5F5F5F5F5F5F5F5F5F5F5F5F5F5F5F5F5F5F5F5F5F5F5F5F5F5F5F5F5F5F5F5F5F5F5F5F5F5F5F5F5F5F5F5F5F5F5F5F5F5F5F5F5F5F5F5F5F5
310
F5F5F5F5F5F5F5F5F5F5F5F5F5F5F5F5F5F5F5F5F5F5F5F5F5F5F5F5F5F5F5F5F5F5F5F5F5F5F5F5F5F5F5F5F5F5F5F5F5F5F5F5F5F5F5F5F5F5F5F5F5F5F5F5F5F5F5F5F5F5F5F5F5F5F5F5F5F5F5F5F5F5F5F5F5F5F5F5F5E2E2F5F5F5F5F5F5F5F5F5F5F5F5F5F5F5F5F5F5F5F5F5F5F5F5F5F5F5F5F5F5F5F5F5F5F5F5
310
F5F5F5F5F5F5F5F5F5F5F5F5F5F5F5F5F5F5F5F5F5F5F5F5F5F5F5F5F5F5F5F5F5F5F5F5F5F5F5F5F5F5F5F5F5F5F5F5F5F5F5F5F5F5F5F5F5F5F5F5F5F5F5F5F5F5F5F5F5F5F5F5F5F5F5F5F5F5F5F5F5F5F5F5F5F5F5F5F5F5F5F5F5F5F5F5F5F5F5F5F5F5F5F5F5F5F5F5F5F5F5F5F5F5F5F5F5F5F5F5F5F5F5F5F5F5F5
310
F5F5F5F5F5F5F5F5F5F5F5F5F5F5F5E2E2F5F5F5F5F5F5F5F5F5F5F5F5F5F5F5F5F5F5F5F5F5F5F5F5F5F5F5F5F5F5F5F5F5F5F5F5F5F5F5F5F5F5F5F5F5F5F5F5F5F5F5F5F5F5F5F5F5F5F5F5F5F5F5F5F5F5F5F5F5F5F5F5F5F5F5F5F5F5F5F5F5F5F5F5F5F5F5F5F5F5F5F5F5F5F5F5F5F5F5F5F5F5F5F5F5F5F5F5F5F5
310
F5F5F5F5F5F5F5F5F5F5F5F5F5F5F5F5F5F5F5F5F5F5F5F5F5F5F5F5F5F5F5F5F5F5F5F5F5F5F5F5F5F5F5F5F5F5F5F5F5F5F5F5F5F5F5F5F5F5F5F5F5F5F5F5F5F5F5F5E2E2F5F5F5F5F5F5F5F5F5F5F5F5F5F5F5F5F5F5F5F5F5F5F5F5F5F5F5F5F5F5F5F5F5F5F5F5F5F5F5F5F5F5F5F5F5F5F5F5F5F5F5F5F5F5F5F5F5
310
F5F5F5F5F5F5F5F5F5F5F5F5F5F5F5F5F5F5F5F5F5F5F5F5F5F5F5F5F5F5F5F5F5F5F5F5F5F5F5F5F5F5F5F5F5F5F5F5F5F5F5F5F5F5F5F5F5F5F5F5F5F5F5F5F5F5F5F5F5F5F5F5F5F5F5F5F5F5F5F5F5F5F5F5F5F5F5F5F5F5F5F5F5F5F5F5F5F5F5F5F5F5F5F5F5F5F5F5F5F5F5F5F5F5F5F5F5F5F5F5F5E2E2F5F5F5F5
310
E2F5F5F5F5F5F5F5F5F5F5F5F5F5F5F5F5F5F5F5F5F5F5F5F5F5F5F5F5F5F5F5F5F5F5F5F5F5F5F5F5F5F5F5F5F5F5F5F5F5F5F5F5F5F5F5F5F5F5F5F5F5F5F5F5F5F5F5F5F5F5F5F5F5F5F5F5F5F5F5F5F5F5F5F5F5F5F5F5F5F5F5F5F5F5F5F5F5F5F5F5F5F5F5F5F5F5F5F5F5F5F5F5F5F5F5F5F5F5F5F5F5F5F5F5F5F5
310
F5F5F5F5F5F5F5F5F5F5F5F5F5F5F5F5F5F5F5F5F5F5F5F5F5F5F5F5F5F5F5F5F5F5F5F5F5F5F5F5F5F5E2F5F5F5F5E2E2F5F5F5F5E2F5F5F5F5F5F5F5F5F5F5F5F5F5F5F5F5F5F5F5F5F5F5F5F5F5F5F5F5F5F5F5F5F5F5F5F5F5F5F5F5F5F5F5F5F5F5F5F5F5F5F5F5F5F5F5F5F5F5F5F5F5F5F5F5F5F5F5F5F5F5F5F5F5
310
F5F5F5F5F5F5F5F5F5F5F5F5F5F5F5F5F5F5F5F5F5F5F5F5F5F5F5F5F5F5F5F5F5F5F5F5F5F5F5F5F5F5F5F5F5F5F5F5F5F5F5F5F5F5F5F5F5F5F5F5F5F5F5F5F5F5F5F5F5F5F5F5F5F5F5F5F5F5F5F5F5F5F5F5F5F5F5F5F5F5F5F5F5F5F5E2F5F5F5F5E2E2F5F5F5F5E2F5F5F5F5F5F5F5F5F5F5F5F5F5F5F5F5F5F5F5F5
310
F5F5F5F5F5F5F5F5F5F5F5F5F5F5F5F5F5F5F5F5F5F5F5F5F5F5F5F5F5F5F5F5F5F5F5F5F5F5F5F5F5F5F5F5F5F5F5F5F5F5F5F5F5F5F5F5F5F5F5F5F5F5F5F5F5F5F5F5F5F5F5F5F5F5F5F5F5F5F5F5F5F5F5F5F5F5F5F5F5F5F5F5F5F5F5F5F5F5F5F5F5F5F5F5F5F5F5F5F5F5F5F5F5F5F5F5F5F5F5F5F5F5F5F5F5F5F5
310
F5F5F5F5F5F5F5F5F5F5F5F5F5F5F5F5F5F5F5F5F5E2F5F5F5F5E2E2F5F5F5F5E2F5F5F5F5F5F5F5F5F5F5F5F5F5F5F5F5F5F5F5F5F5F5F5F5F5F5F5F5F5F5F5F5F5F5F5F5F5F5F5F5F5F5F5F5F5F5F5F5F5F5F5F5F5F5F5F5F5F5F5F5F5F5F5F5F5F5F5F5F5F5F5F5F5F5F5F5F5F5F5F5F5F5F5F5F5F5F5F5F5F5F5F5F5F5
310
F5F5F5F5F5F5F5F5F5F5F5F5F5F5F5F5F5F5F5F5F5F5F5F5F5F5F5F5F5F5F5F5F5F5F5F5F5F5F5F5F5F5F5F5F5F5F5F5F5F5F5F5F5F5F5F5F5F5F5F5F5F5F5F5F5F5F5F5F5F5F5F5F5F5E2F5F5F5F5E2E2F5F5F5F5E2F5F5F5F5F5F5F5F5F5F5F5F5F5F5F5F5F5F5F5F5F5F5F5F5F5F5F5F5F5F5F5F5F5F5F5F5F5F5F5F5F5
310
F5F5F5F5F5F5F5F5F5F5F5F5F5F5F5F5F5F5F5F5F5F5F5F5F5F5F5F5F5F5F5F5F5F5F5F5F5F5F5F5F5F5F5F5F5F5F5F5F5F5F5F5F5F5F5F5F5F5F5F5F5F5F5F5F5F5F5F5F5F5F5F5F5F5F5F5F5F5F5F5F5F5F5F5F5F5F5F5F5F5F5F5F5F5F5F5F5F5F5F5F5F5F5F5F5F5F5F5F5F5F5F5F5F5F5F5F5F5F5F5F5F5F5F5F5F5F5
310
E2F5F5F5F5E2E2F5F5F5F5E2F5F5F5F5F5F5F5F5F5F5F5F5F5F5F5F5F5F5F5F5F5F5F5F5F5F5F5F5F5F5F5F5F5F5F5F5F5F5F5F5F5F5F5F5F5F5F5F5F5F5F5F5F5F5F5F5F5F5F5F5F5F5F5F5F5F5F5F5F5F5F5F5F5F5F5F5F5F5F5F5F5F5F5F5F5F5F5F5F5F5F5F5F5F5F5F5F5F5F5F5F5F5F5F5F5F5F5F5F5F5F5F5F5F5F5
310
F5F5F5F5F5F5F5F5F5F5F5F5F5F5F5F5F5F5F5F5F5F5F5F5F5F5F5F5F5F5F5F5F5F5F5F5F5F5F5F5F5F5F5F5F5F5F5F5F5F5F5F5F5E2F5F5F5F5E2E2F5F5F5F5E2F5F5F5F5F5F5F5F5F5F5F5F5F5F5F5F5F5F5F5F5F5F5F5F5F5F5F5F5F5F5F5F5F5F5F5F5F5F5F5F5F5F5F5F5F5F5F5F5F5F5F5F5F5F5F5F5F5F5F5F5F5F5
310
F5F5F5F5F5F5F5F5F5F5F5F5F5F5F5F5F5F5F5F5F5F5F5F5F5F5F5F5F5F5F5F5F5F5F5F5F5F5F5F5F5F5F5F5F5F5F5F5F5F5F5F5F5F5F5F5F5F5F5F5F5F5F5F5F5F5F5F5F5F5F5F5F5F5F5F5F5F5F5F5F5F5F5F5F5F5F5F5F5F5F5F5F5F5F5F5F5F5F5F5F5F5F5F5F5F5E2F5F5F5F5E2E2F5F5F5F5E2F5F5F5F5F5F5F5F5F5
310
F5F5F5F5F5F5F5F5F5F5F5F5F5F5F5F5F5F5F5F5F5F5F5F5F5F5F5F5F5F5F5F5F5F5F5F5F5F5F5F5F5F5F5F5F5F5F5F5F5F5F5F5F5F5F5F5F5F5F5F5F5F5F5F5F5F5F5F5F5F5F5F5F5F5F5F5F5F5F5F5F5F5F5F5F5F5F5F5F5F5F5F5F5F5F5F5F5F5F5F5F5F5F5F5F5F5F5F5F5F5F5F5F5F5F5F5F5F5F5F5F5F5F5F5F5F5F5
310
F5F5F5F5F5F5F5F5F5F5F5F5F5F5F5F5F5F5F5F5F5F5F5F5F5F5F5F5F5F5F5F5E2F5F5F5F5E2E2F5F5F5F5E2E2E2E2E2E2E2E2F5F5F5F5F5F5F5F5F5E2E2E2E2E2E2E2E2E2E2E2E2E2E2E2F5F5F5F5F5F5F5F5F5E2E2E2E2E2E2E2E2E2E2E2E2E2E2E2E2F5F5F5F5F5F5F5F5E2E2E2E2E2E2E2E2E2E2E2E2E2E2E2E2F5F5F5
310
F5F5F5F5F5E2E2E2E2E2E2E2E2E2E2E2E2E2E2E2E2F5F5F5F5F5F5F5F5E2E2E2E2E2E2E2E2E2E2E2E2E2E2E2E2F5F5F5F5F5F5F5F5F5E2E2E2E2E2E2E2E2E2E2E2E2E2E2E2F5F5F5F5F5F5F5F5F5E2E2E2E2E2E2E2E2F5F5F5F5E2E2F5F5F5F5F5F5F5F5F5F5F5F5F5F5F5F5F5F5F5F5F5F5F5F5F5F5F5F5F5F5F5F5F5F5F5
310
F5F5F5F5F5F5F5F5F5F5F5F5F5F5F5F5F5F5F5F5F5F5F5F5F5F5F5F5F5F5F5F5F5F5F5F5F5F5F5F5F5F5F5F5F5F5F5F5F5F5F5F5F5F5F5F5F5F5F5F5F5F5F5F5F5F5F5F5F5F5F5F5F5F5F5F5F5F5F5F5F5F5F5F5F5F5F5F5F5F5F5F5F5F5F5F5F5F5F5F5F5F5F5F5F5F5F5F5F5F5F5F5F5F5F5F5F5F5F5F5F5F5F5F5F5F5F5
310
F5F5F5F5F5F5F5F5F5F5F5F5F5F5F5F5E2E2F5F5F5F5F5F5F5F5F5F5F5F5F5F5F5F5F5F5F5F5F5F5F5F5F5F5F5F5F5F5F5F5F5F5F5F5F5F5F5F5F5F5F5F5F5F5F5F5F5F5F5F5F5F5F5F5F5F5F5F5F5F5F5F5F5F5F5F5F5F5F5F5F5F5F5F5F5F5F5F5F5F5F5F5F5F5F5F5F5F5F5F5F5F5F5F5F5F5F5F5F5F5F5F5F5F5F5F5F5
310
F5F5F5F5F5F5F5F5F5F5F5F5F5F5F5F5F5F5F5F5F5F5F5F5F5F5F5F5F5F5F5F5F5F5F5F5F5F5F5F5F5F5F5F5F5F5F5F5F5F5F5F5F5F5F5F5F5F5F5F5F5F5F5F5F5F5F5F5F5E2E2F5F5F5F5F5F5F5F5F5F5F5F5F5F5F5F5F5F5F5F5F5F5F5F5F5F5F5F5F5F5F5F5F5F5F5F5F5F5F5F5F5F5F5F5F5F5F5F5F5F5F5F5F5F5F5F5
310
F5F5F5F5F5F5F5F5F5F5F5F5F5F5F5F5F5F5F5F5F5F5F5F5F5F5F5F5F5F5F5F5F5F5F5F5F5F5F5F5F5F5F5F5F5F5F5F5F5F5F5F5F5F5F5F5F5F5F5F5F5F5F5F5F5F5F5F5F5F5F5F5F5F5F5F5F5F5F5F5F5F5F5F5F5F5F5F5F5F5F5F5F5F5F5F5F5F5F5F5F5F5F5F5F5F5F5F5F5F5F5F5F5F5F5F5F5F5F5F5F5F5E2E2E2E2E2
310
E2E2E2E2E2E2E2E2E2E2E2E2E2E2E2E2E2E2E2E2E2E2E2E2E2E2E2E2E2E2E2E2E2E2E2E2E2E2E2E2E2E2E2E2E2E2E2E2E2E2E2E2E2E2E2E2E2E2E2E2E2E2E2E2E2E2E2E2E2E2E2E2E2E2E2E2E2E2E2E2E2E2E2E2E2E2E2E2E2E2E2E2E2E2E2E2E2E2E2E2E2E2E2E2E2E2E2E2E2E2E2E2E2E2E2E2E2E2E2E2E2E2E2E2E2E2E2
310
E2E2E2E2E2E2E2E2E2E2E2E2E2E2E2E2E2E2E2E2E2E2E2E2E2E2E2E2E2E2E2E2E2E2E2E2E2E2E2E2E2E2E2E2E2E2E2E2E2
  0
XRECORD
  5
56971
102
{ACAD_REACTORS
330
B5
102
}
330
B5
100
AcDbXrecord
280
     1
102
SHADEPLOT
 70
     0
102
SHADEPLOTRESLEVEL
 70
     2
102
SHADEPLOTCUSTOMDPI
 70
   300
  0
XRECORD
  5
B6
102
{ACAD_REACTORS
330
B5
102
}
330
B5
100
AcDbXrecord
280
     1
310
28000000B40000008B0000000100080000000000BC610000000000000000000000010000000000000000000000000000FFFFFF000000000000000000000000000000000000000000000000000000000000000000330000006600000099000000CC000000FF00000000330000333300006633000099330000CC330000FF3300
310
0000660000336600006666000099660000CC660000FF66000000990000339900006699000099990000CC990000FF99000000CC000033CC000066CC000099CC0000CCCC0000FFCC000000FF000033FF000066FF000099FF0000CCFF0000FFFF000000003300330033006600330099003300CC003300FF003300003333003333
310
33006633330099333300CC333300FF33330000663300336633006666330099663300CC663300FF66330000993300339933006699330099993300CC993300FF99330000CC330033CC330066CC330099CC3300CCCC3300FFCC330000FF330033FF330066FF330099FF3300CCFF3300FFFF330000006600330066006600660099
310
006600CC006600FF00660000336600333366006633660099336600CC336600FF33660000666600336666006666660099666600CC666600FF66660000996600339966006699660099996600CC996600FF99660000CC660033CC660066CC660099CC6600CCCC6600FFCC660000FF660033FF660066FF660099FF6600CCFF6600
310
FFFF660000009900330099006600990099009900CC009900FF00990000339900333399006633990099339900CC339900FF33990000669900336699006666990099669900CC669900FF66990000999900339999006699990099999900CC999900FF99990000CC990033CC990066CC990099CC9900CCCC9900FFCC990000FF99
310
0033FF990066FF990099FF9900CCFF9900FFFF99000000CC003300CC006600CC009900CC00CC00CC00FF00CC000033CC003333CC006633CC009933CC00CC33CC00FF33CC000066CC003366CC006666CC009966CC00CC66CC00FF66CC000099CC003399CC006699CC009999CC00CC99CC00FF99CC0000CCCC0033CCCC0066CC
310
CC0099CCCC00CCCCCC00FFCCCC0000FFCC0033FFCC0066FFCC0099FFCC00CCFFCC00FFFFCC000000FF003300FF006600FF009900FF00CC00FF00FF00FF000033FF003333FF006633FF009933FF00CC33FF00FF33FF000066FF003366FF006666FF009966FF00CC66FF00FF66FF000099FF003399FF006699FF009999FF00CC
310
99FF00FF99FF0000CCFF0033CCFF0066CCFF0099CCFF00CCCCFF00FFCCFF0000FFFF0033FFFF0066FFFF0099FFFF00CCFFFF00FFFFFF00000000000D0D0D001A1A1A00282828003535350043434300505050005D5D5D006B6B6B00787878008686860093939300A1A1A100AEAEAE00BBBBBB00C9C9C900D6D6D600E4E4E400
310
F1F1F100FFFFFF0000000000000000000000000000000000000000000000000000000000000000000000000000000000F5F5F5F5F5F5F5F5F5F5F5F5F5F5F5F5F5F5F5F5F5F5F5F5F5F5F5F5F5F5F5F5F5F5F5F5F5F5F5F5F5F5F5F5F5F5F5F5F5F5F5F5F5F5F5F5F5F5F5F5F5F5F5F5F5F5F5F5F5F5F5F5F5F5F5F5F5F5F5
310
F5F5F5F5F5F5F5F5F5F5F5F5F5F5F5F5F5F5F5F5F5F5F5F5F5F5F5F5F5F5F5F5F5F5F5F5F5F5F5F5F5F5F5F5F5F5F5F5F5F5F5F5F5F5F5F5F5F5F5F5F5F5F5F5F5F5F5F5F5F5F5F5F5F5F5F5F5F5F5F5F5F5F5F5F5F5F5F5F5F5F5F5F5F5F5F5F5F5F5F5F5F5E2E2E2E2E2E2E2E2E2E2E2E2E2E2E2E2E2E2E2E2E2E2E2E2E2
310
E2E2E2E2E2E2E2E2E2E2E2E2E2E2E2E2E2E2E2E2E2E2E2E2E2E2E2E2E2E2E2E2E2E2E2E2E2E2E2E2E2E2E2E2E2E2E2E2E2E2E2E2E2E2E2E2E2E2E2E2E2E2E2E2E2E2E2E2E2E2E2E2E2E2E2E2E2E2E2E2E2E2E2E2E2E2E2E2E2E2E2E2E2E2E2E2E2E2E2E2E2E2E2E2E2E2E2E2E2E2E2E2E2E2E2E2E2E2E2E2E2E2E2E2E2E2E2
310
E2E2E2E2E2E2E2E2E2E2E2E2E2E2E2E2E2E2E2E2E2E2E2E2E2E2F5F5E2E2E2E2E2E2E2E2E2E2E2E2E2E2E2E2E2E2E2E2E2E2E2E2E2E2E2E2E2E2E2E2E2E2E2E2E2E2E2E2E2E2E2E2E2E2E2E2E2E2E2E2E2E2E2E2E2E2E2E2E2E2E2E2E2E2E2E2E2E2E2E2E2E2E2E2E2E2E2E2E2E2E2E2E2E2E2E2E2E2E2E2E2E2E2E2E2E2E2
310
E2E2E2E2E2E2E2E2E2E2E2E2E2E2E2E2E2E2E2E2E2E2E2E2E2E2E2E2E2E2E2E2E2E2E2E2E2E2E2E2E2E2E2E2E2E2E2E2E2E2E2E2E2E2E2E2E2E2E2E2E2E2E2E2E2E2E2E2E2E2E2E2E2E2E2E2E2E2E2F5F5E2E2E2E2E2E2E2E2E2E2E2E2E2E2E2E2E2E2E2E2E2E2E2E2E2E2E2E2E2E2E2E2E2E2E2E2E2E2E2E2E2E2E2E2E2E2
310
E2E2E2E2E2E2E2E2E2E2E2E2E2E2E2E2E2E2E2E2E2E2E2E2E2E2E2E2E2E2E2E2E2E2E2E2E2E2E2E2E2E2E2E2E2E2E2E2E2E2E2E2E2E2E2E2E2E2E2E2E2E2E2E2E2E2E2E2E2E2E2E2E2E2E2E2E2E2E2E2E2E2E2E2E2E2E2E2E2E2E2E2E2E2E2E2E2E2E2E2E2E2E2E2E2E2E2E2E2E2E2E2E2E2E2E2E2E2E2E2E2E2E2E2E2E2E2
310
E2E2E2E2E2F5F5E2E2E2E2E2E2E2E2E2E2E2E2E2E2E2E2E2E2E2E2E2E2E2E2E2E2E2E2E2E2E2E2E2E2E2E2E2E2E2E2E2E2E2E2E2E2E2E2E2E2E2E2E2E2E2E2E2E2E2E2E2E2E2E2E2E2E2E2E2E2E2E2E2E2E2E2E2E2E2E2E2E2E2E2E2E2E2E2E2E2E2E2E2E2E2E2E2E2E2E2E2E2E2E2E2E2E2E2E2E2E2E2E2E2E2E2E2E2E2E2
310
E2E2E2E2E2E2E2E2E2E2E2E2E2E2E2E2E2E2E2E2E2E2E2E2E2E2E2E2E2E2E2E2E2E2E2E2E2E2E2E2E2E2E2E2E2E2E2E2E2E2E2E2E2E2E2E2E2E2F5F5E2E2E2F5F5F5F5F5F5F5F5E2E2E2E2E2E2E2E2E2F5F5F5F5F5F5F5F5F5F5F5F5F5F5F5F5E2E2E2E2E2E2E2E2E2F5F5F5F5F5F5F5F5F5F5F5F5F5F5F5E2E2E2E2E2E2E2
310
E2E2F5F5F5F5F5F5F5F5F5F5F5F5F5F5F5F5E2E2E2E2E2E2E2E2F5F5F5F5F5F5F5F5F5F5F5F5F5F5F5F5E2E2E2E2E2E2E2E2E2F5F5F5F5F5F5F5F5F5F5F5F5F5F5F5E2E2E2E2E2E2E2E2E2F5F5F5F5F5F5F5F5F5F5F5F5F5F5F5F5E2E2E2E2E2E2E2E2E2F5F5F5F5F5F5F5F5E2E2E2F5F5E2E2E2F5E2E2E2E2E2E2E2E2E2E2
310
E2E2E2E2E2E2E2E2E2E2E2E2E2E2E2E2E2E2E2E2E2E2E2E2E2E2E2E2E2E2E2E2E2E2E2E2E2E2E2E2E2E2E2E2E2E2E2E2E2E2E2E2E2E2E2E2E2E2E2E2E2E2E2E2E2E2E2E2E2E2E2E2E2E2E2E2E2E2E2E2E2E2E2E2E2E2E2E2E2E2E2E2E2E2E2E2E2E2E2E2E2E2E2E2E2E2E2E2E2E2E2E2E2E2E2E2E2E2E2E2E2E2E2E2E2E2E2
310
E2E2E2E2E2E2E2E2E2E2E2E2E2E2E2E2E2E2E2E2E2E2E2E2E2E2E2E2E2E2E2E2E2F5E2E2E2F5F5E2E2E2F5E2E2E2E2E2E2E2E2E2E2E2E2E2E2E2E2E2E2E2E2E2E2E2E2E2E2E2E2E2E2E2E2E2E2E2E2E2E2E2E2E2E2E2E2E2E2E2E2E2E2E2E2E2E2E2E2E2E2E2E2E2E2E2E2E2E2E2E2E2E2E2E2E2E2E2E2E2E2E2E2E2E2E2E2
310
E2E2E2E2E2E2E2E2E2E2E2E2E2E2E2E2E2E2E2E2E2E2E2E2E2E2E2E2E2E2E2E2E2E2E2E2E2E2E2E2E2E2E2E2E2E2E2E2E2E2E2E2E2E2E2E2E2E2E2E2E2E2E2E2E2E2E2E2E2E2E2E2E2E2E2E2E2E2E2E2E2E2E2E2E2E2F5E2E2E2F5F5E2E2E2F5E2E2E2E2E2E2E2E2E2E2E2E2E2E2E2E2E2E2E2E2E2E2E2E2E2E2E2E2E2E2E2
310
E2E2E2E2E2E2E2E2E2E2E2E2E2E2E2E2E2E2E2E2E2E2E2E2E2E2E2E2E2E2E2E2E2E2E2E2E2E2E2E2E2E2E2E2E2E2E2E2E2E2E2E2E2E2E2E2E2E2E2E2E2E2E2E2E2E2E2E2E2E2E2E2E2E2E2E2E2E2E2E2E2E2E2E2E2E2E2E2E2E2E2E2E2E2E2E2E2E2E2E2E2E2E2E2E2E2E2E2E2E2E2E2E2E2E2E2E2E2E2E2E2E2E2E2E2E2E2
310
E2E2E2E2E2E2E2E2E2E2E2E2F5E2E2E2F5F5E2E2E2F5E2E2E2E2E2E2E2E2E2E2E2E2E2E2E2E2E2E2E2E2E2E2E2E2E2E2E2E2E2E2E2E2E2E2E2E2E2E2E2E2E2E2E2E2E2E2E2E2E2E2E2E2E2E2E2E2E2E2E2E2E2E2E2E2E2E2E2E2E2E2E2E2E2E2E2E2E2E2E2E2E2E2E2E2E2E2E2E2E2E2E2E2E2E2E2E2E2E2E2E2E2E2E2E2E2
310
E2E2E2E2E2E2E2E2E2E2E2E2E2E2E2E2E2E2E2E2E2E2E2E2E2E2E2E2E2E2E2E2E2E2E2E2E2E2E2E2E2E2E2E2E2E2E2E2E2E2E2E2E2E2E2E2E2E2E2E2E2E2E2E2E2F5E2E2E2F5F5E2E2E2F5E2E2E2E2E2E2E2E2E2E2E2E2E2E2E2E2E2E2E2E2E2E2E2E2E2E2E2E2E2E2E2E2E2E2E2E2E2E2E2E2E2E2E2E2E2E2E2E2E2E2E2E2
310
E2E2E2E2E2E2E2E2E2E2E2E2E2E2E2E2E2E2E2E2E2E2E2E2E2E2E2E2E2E2E2E2E2E2E2E2E2E2E2E2E2E2E2E2E2E2E2E2E2E2E2E2E2E2E2E2E2E2E2E2E2E2E2E2E2E2E2E2E2E2E2E2E2E2E2E2E2E2E2E2E2E2E2E2E2E2E2E2E2E2E2E2E2E2E2E2E2E2E2E2E2E2E2E2E2E2E2E2E2E2E2E2E2E2E2E2E2E2F5E2E2E2F5F5E2E2E2
310
F5E2E2E2E2E2E2E2E2E2E2E2E2E2E2E2E2E2E2E2E2E2E2E2E2E2E2E2E2E2E2E2E2E2E2E2E2E2E2E2E2E2E2E2E2E2E2E2E2E2E2E2E2E2E2E2E2E2E2E2E2E2E2E2E2E2E2E2E2E2E2E2E2E2E2E2E2E2E2E2E2E2E2E2E2E2E2E2E2E2E2E2E2E2E2E2E2E2E2E2E2E2E2E2E2E2E2E2E2E2E2E2E2E2E2E2E2E2E2E2E2E2E2E2E2E2E2
310
E2E2E2E2E2E2E2E2E2E2E2E2E2E2E2E2E2E2E2E2E2E2E2E2E2E2E2E2E2E2E2E2E2E2E2E2E2E2E2E2E2E2E2E2F5E2E2E2F5F5E2E2E2F5E2E2E2E2E2E2E2E2E2E2E2E2E2E2E2E2E2E2E2E2E2E2E2E2E2E2E2E2E2E2E2E2E2E2E2E2E2E2E2E2E2E2E2E2E2E2E2E2E2E2E2E2E2E2E2E2E2E2E2E2E2E2E2E2E2E2E2E2E2E2E2E2E2
310
E2E2E2E2E2E2E2E2E2E2E2E2E2E2E2E2E2E2E2E2E2E2E2E2E2E2E2E2E2E2E2E2E2E2E2E2E2E2E2E2E2E2E2E2E2E2E2E2E2E2E2E2E2E2E2E2E2E2E2E2E2E2E2E2E2E2E2E2E2E2E2E2E2E2E2E2E2E2E2E2E2E2E2E2E2E2E2E2E2E2E2E2E2E2E2E2E2F5E2E2E2F5F5E2E2E2F5E2E2E2E2E2E2E2E2E2E2E2E2E2E2E2E2E2E2E2E2
310
E2E2E2E2E2E2E2E2E2E2E2E2E2E2E2E2E2E2E2E2E2E2E2E2E2E2E2E2E2E2E2E2E2E2E2E2E2E2E2E2E2E2E2E2E2E2E2E2E2E2E2E2E2E2E2E2E2E2E2E2E2E2E2E2E2E2E2E2E2E2E2E2E2E2E2E2E2E2E2E2E2E2E2E2E2E2E2E2E2E2E2E2E2E2E2E2E2E2E2E2E2E2E2E2E2E2E2E2E2E2E2E2E2E2E2E2E2E2E2E2E2E2E2E2E2E2E2
310
E2E2E2E2E2E2E2E2E2E2E2E2E2E2E2E2E2E2E2E2E2E2E2F5E2E2E2F5F5E2E2E2E2E2E2E2E2E2E2E2E2E2E2E2E2E2E2E2E2E2E2E2E2E2E2E2E2E2E2E2E2E2E2E2E2E2E2E2E2E2E2E2E2E2E2E2E2E2E2E2E2E2E2E2E2E2E2E2E2E2E2E2E2E2E2E2E2E2E2E2E2E2E2E2E2E2E2E2E2E2E2E2E2E2E2E2E2E2E2E2E2E2E2E2E2E2E2
310
E2E2E2E2E2E2E2E2E2E2E2E2E2E2E2E2E2E2E2E2E2E2E2E2E2E2E2E2E2E2E2E2E2E2E2E2E2E2E2E2E2E2E2E2E2E2E2E2E2E2E2E2E2E2E2E2E2E2E2E2E2E2E2E2E2E2E2E2E2E2E2E2E2E2E2E2E2E2E2E2F5F5E2E2E2E2E2E2E2E2E2E2E2E2E2E2E2E2E2E2E2E2E2E2E2E2E2E2E2E2E2E2E2E2E2E2E2E2E2E2E2E2E2E2E2E2E2
310
E2E2E2E2E2E2E2E2E2E2E2E2E2E2E2E2E2E2E2E2E2E2E2E2E2E2E2E2E2E2E2E2E2E2E2E2E2E2E2E2E2E2E2E2E2E2E2E2E2E2E2E2E2E2E2E2E2E2E2E2E2E2E2E2E2E2E2E2E2E2E2E2E2E2E2E2E2E2E2E2E2E2E2E2E2E2E2E2E2E2E2E2E2E2E2E2E2E2E2E2E2E2E2E2E2E2E2E2E2E2E2E2E2E2E2E2E2E2E2E2E2E2E2E2E2E2E2
310
E2E2E2E2E2E2F5F5E2E2E2E2E2E2E2E2E2E2E2E2E2E2E2E2E2E2E2E2E2E2E2E2E2E2E2E2E2E2E2E2E2E2E2E2E2E2E2E2E2E2E2E2E2E2E2E2E2E2E2E2E2E2E2E2E2E2E2E2E2E2E2E2E2E2E2E2E2E2E2E2E2E2E2E2E2E2E2E2E2E2E2E2E2E2E2E2E2E2E2E2E2E2E2E2E2E2E2E2E2E2E2E2E2E2E2E2E2E2E2E2E2E2E2E2E2E2E2
310
E2E2E2E2E2E2E2E2E2E2E2E2E2E2E2E2E2E2E2E2E2E2E2E2E2E2E2E2E2E2E2E2E2E2E2E2E2E2E2E2E2E2E2E2E2E2E2E2E2E2E2E2E2E2E2E2E2E2E2F5F5E2E2E2E2E2E2E2E2E2E2E2E2E2E2E2E2E2E2E2E2E2E2E2E2E2E2E2E2E2E2E2E2E2E2E2E2E2E2E2E2E2E2E2E2E2E2E2E2E2E2E2E2E2E2E2E2E2E2E2E2E2E2E2E2E2E2
310
E2E2E2E2E2E2E2E2E2E2E2E2E2E2E2E2E2E2E2E2E2E2E2E2E2E2E2E2E2E2E2E2E2E2E2E2E2E2E2E2E2E2E2E2E2E2E2E2E2E2E2E2E2E2E2E2E2E2E2E2E2E2E2E2E2E2E2E2E2E2E2E2E2E2E2E2E2E2E2E2E2E2E2E2E2E2E2E2E2E2E2E2E2E2E2E2E2E2E2E2E2E2E2E2E2E2E2E2E2E2E2E2F5F5E2E2E2E2E2E2E2E2E2E2E2E2E2
310
E2E2E2E2E2E2E2F5F5F5F5F5F5F5F5F5F5F5F5F5F5F5F5F5F5F5F5F5F5F5F5F5F5F5F5F5F5F5F5F5F5F5F5F5F5F5F5F5F5F5F5F5F5F5F5F5F5F5F5F5F5F5F5F5F5F5F5F5F5F5F5F5F5F5F5F5F5F5F5F5F5F5F5F5F5F5F5F5F5F5F5F5F5F5F5F5F5F5F5F5F5F5F5F5F5F5F5F5F5F5F5F5F5F5F5F5F5F5F5F5F5F5F5F5F5F5F5
310
F5F5F5F5F5F5F5F5F5F5F5F5F5F5F5F5F5F5E2E2E2E2E2E2E2E2E2E2E2E2E2E2E2E2E2E2E2E2F5F5E2E2E2E2E2E2E2E2E2E2E2E2E2E2E2E2E2E2E2E2F5E2E2E2E2E2E2E2E2E2E2E2E2E2E2E2E2E2E2E2E2E2E2E2E2E2E2E2E2E2E2E2E2E2E2E2E2E2E2E2E2E2E2E2E2E2E2E2E2E2E2E2E2E2E2E2E2E2E2E2E2E2E2E2E2E2E2
310
E2E2E2E2E2E2E2E2E2E2E2E2E2E2E2E2E2E2E2E2E2E2E2E2E2E2E2E2E2E2E2E2E2E2E2E2E2E2E2E2E2E2E2E2E2E2E2E2E2E2E2E2E2E2E2E2E2E2E2E2E2E2E2E2E2E2E2E2E2E2F5E2E2E2E2E2E2E2E2E2E2E2E2E2E2E2E2E2E2E2E2F5F5E2E2E2E2E2E2E2E2E2E2E2E2E2E2E2E2E2E2E2E2F5E2E2E2E2E2E2E2E2E2E2E2E2E2
310
E2E2E2E2E2E2E2E2E2E2E2E2E2E2E2E2E2E2E2E2E2E2E2E2E2E2E2E2E2E2E2E2E2E2E2E2E2E2E2E2E2E2E2E2E2E2E2E2E2E2E2E2E2E2E2E2E2E2E2E2E2E2E2E2E2E2E2E2E2E2E2E2E2E2E2E2E2E2E2E2E2E2E2E2E2E2E2E2E2E2E2E2E2E2E2E2E2E2E2E2E2E2E2E2E2E2E2E2E2E2E2E2E2E2E2E2E2E2E2E2E2E2E2F5E2E2E2
310
E2E2E2E2E2E2E2E2E2E2E2E2E2E2E2E2E2F5F5E2E2E2E2E2E2E2E2E2E2E2E2E2E2E2E2E2E2E2E2F5E2E2E2E2E2E2E2E2E2E2E2E2E2E2E2E2E2E2E2E2E2E2E2E2E2E2E2E2E2E2E2E2E2E2E2E2E2E2E2E2E2E2E2E2E2E2E2E2E2E2E2E2E2E2E2E2E2E2E2E2E2E2E2E2E2E2E2E2E2E2E2E2E2E2E2E2E2E2E2E2E2E2E2E2E2E2E2
310
E2E2E2E2E2E2E2E2E2E2E2E2E2E2E2E2E2E2E2E2E2E2E2E2E2E2E2E2E2E2E2E2E2E2E2E2E2E2E2E2E2E2E2E2E2E2E2E2E2F5E2E2E2E2E2E2E2E2E2E2E2E2E2E2E2E2E2E2E2E2F5F5E2E2E2E2E2E2E2E2E2E2E2E2E2E2E2E2E2E2E2E2F5E2E2E2E2E2E2E2E2E2E2E2E2E2E2E2E2E2E2E2E2E2E2E2E2E2E2E2E2E2E2E2E2E2E2
310
E2E2E2E2E2E2E2E2E2E2E2E2E2E2E2E2E2E2E2E2E2E2E2E2E2E2E2E2E2E2E2E2E2E2E2E2E2E2E2E2E2E2E2E2E2E2E2E2E2E2E2E2E2E2E2E2E2E2E2E2E2E2E2E2E2E2E2E2E2E2E2E2E2E2E2E2E2E2E2E2E2E2E2E2E2E2E2E2E2E2E2E2E2E2E2E2E2E2E2E2E2E2F5E2E2E2E2E2E2E2E2E2E2E2E2E2E2E2E2E2E2E2E2F5F5E2E2
310
E2F5E2E2E2E2E2E2E2E2E2E2E2E2E2E2E2E2F5E2E2E2E2E2E2E2E2E2E2E2E2E2E2E2E2E2E2E2E2E2E2E2E2E2E2E2E2E2E2E2E2E2E2E2E2E2E2E2E2E2E2E2E2E2E2E2E2E2E2E2E2E2E2E2E2E2E2E2E2E2E2E2E2E2E2E2E2E2E2E2E2E2E2E2E2E2E2E2E2E2E2E2E2E2E2E2E2E2E2E2E2E2E2E2E2E2E2E2E2E2E2E2E2E2E2E2E2
310
E2E2E2E2E2E2E2E2E2E2E2E2E2E2E2E2E2E2E2E2E2E2E2E2E2E2E2E2F5E2E2E2E2E2E2E2E2E2E2E2E2E2E2E2E2F5E2E2E2F5F5E2E2E2F5E2E2E2E2E2E2E2E2E2E2E2E2E2E2E2E2F5E2E2E2E2E2E2E2E2E2E2E2E2E2E2E2E2E2E2E2E2E2E2E2E2E2E2E2E2E2E2E2E2E2E2E2E2E2E2E2E2E2E2E2E2E2E2E2E2E2E2E2E2E2E2E2
310
E2E2E2E2E2E2E2E2E2E2E2E2E2E2E2E2E2E2E2E2E2E2E2E2E2E2E2E2E2E2E2E2E2E2E2E2E2E2E2E2E2E2E2E2E2E2E2E2E2E2E2E2E2E2E2E2E2E2E2E2E2E2E2E2E2E2E2E2E2E2E2E2E2E2E2E2E2E2E2E2E2F5E2E2E2E2E2E2E2E2E2E2E2E2E2E2E2E2F5E2E2E2F5F5E2E2E2F5E2E2E2E2E2E2E2E2E2E2E2E2E2E2E2E2F5E2E2
310
E2E2E2E2E2E2E2E2E2E2E2E2E2E2E2E2E2E2E2E2E2E2E2E2E2E2E2E2E2E2E2E2E2E2E2E2E2E2E2E2E2E2E2E2E2E2E2E2E2E2E2E2E2E2E2E2E2E2E2E2E2E2E2E2E2E2E2E2E2E2E2E2E2E2E2E2E2E2E2E2E2E2E2E2E2E2E2E2E2E2E2E2E2E2E2E2E2E2E2E2E2E2E2E2E2E2E2E2E2E2E2E2E2E2E2E2E2E2E2E2E2E2E2E2E2E2E2
310
E2E2E2E2E2E2E2F5E2E2E2E2E2E2E2E2E2E2E2E2E2E2E2E2F5E2E2E2F5F5E2E2E2F5E2E2E2E2E2E2E2E2E2E2E2E2E2E2E2E2F5E2E2E2E2E2E2E2E2E2E2E2E2E2E2E2E2E2E2E2E2E2E2E2E2E2E2E2E2E2E2E2E2E2E2E2E2E2E2E2E2E2E2E2E2E2E2E2E2E2E2E2E2E2E2E2E2E2E2E2E2E2E2E2E2E2E2E2E2E2E2E2E2E2E2E2E2
310
E2E2E2E2E2E2E2E2E2E2E2E2E2E2E2E2E2E2E2E2E2E2E2E2E2E2E2E2E2E2E2E2E2E2E2E2E2E2E2E2E2E2E2E2E2E2E2E2E2E2E2E2E2E2E2E2E2E2E2E2F5E2E2E2E2E2E2E2E2E2E2E2E2E2E2E2E2F5E2E2E2F5F5E2E2E2F5E2E2E2E2E2E2E2E2E2E2E2E2E2E2E2E2F5E2E2E2E2E2E2E2E2E2E2E2E2E2E2E2E2E2E2E2E2E2E2E2
310
E2E2E2E2E2E2E2E2E2E2E2E2E2E2E2E2E2E2E2E2E2E2E2E2E2E2E2E2E2E2E2E2E2E2E2E2E2E2E2E2E2E2E2E2E2E2E2E2E2E2E2E2E2E2E2E2E2E2E2E2E2E2E2E2E2E2E2E2E2E2E2E2E2E2E2E2E2E2E2E2E2E2E2E2E2E2E2E2E2E2E2E2E2E2E2E2E2E2E2E2E2E2E2E2E2E2E2E2E2E2E2E2E2F5E2E2E2E2E2E2E2E2E2E2E2E2E2
310
E2E2E2F5E2E2E2F5F5E2E2E2F5E2E2E2E2E2E2E2E2E2E2E2E2E2E2E2E2F5E2E2E2E2E2E2E2E2E2E2E2E2E2E2E2E2E2E2E2E2E2E2E2E2E2E2E2E2E2E2E2E2E2E2E2E2E2E2E2E2E2E2E2E2E2E2E2E2E2E2E2E2E2E2E2E2E2E2E2E2E2E2E2E2E2E2E2E2E2E2E2E2E2E2E2E2E2E2E2E2E2E2E2E2E2E2E2E2E2E2E2E2E2E2E2E2E2
310
E2E2E2E2E2E2E2E2E2E2E2E2E2E2E2E2E2E2E2E2E2E2E2E2E2E2E2E2E2E2E2E2E2E2E2E2E2E2E2F5E2E2E2E2E2E2E2E2E2E2E2E2E2E2E2E2F5E2E2E2F5F5E2E2E2F5E2E2E2E2E2E2E2E2E2E2E2E2E2E2E2E2F5E2E2E2E2E2E2E2E2E2E2E2E2E2E2E2E2E2E2E2E2E2E2E2E2E2E2E2E2E2E2E2E2E2E2E2E2E2E2E2E2E2E2E2E2
310
E2E2E2E2E2E2E2E2E2E2E2E2E2E2E2E2E2E2E2E2E2E2E2E2E2E2E2E2E2E2E2E2E2E2E2E2E2E2E2E2E2E2E2E2E2E2E2E2E2E2E2E2E2E2E2E2E2E2E2E2E2E2E2E2E2E2E2E2E2E2E2E2E2E2E2E2E2E2E2E2E2E2E2E2E2E2E2E2E2E2E2E2F5E2E2E2E2E2E2E2E2E2E2E2E2E2E2E2E2F5E2E2E2F5F5E2E2E2F5E2E2E2E2E2E2E2E2
310
E2E2E2E2E2E2E2E2F5E2E2E2E2E2E2E2E2E2E2E2E2E2E2E2E2E2E2E2E2E2E2E2E2E2E2E2E2E2E2E2E2E2E2E2E2E2E2E2E2E2E2E2E2E2E2E2E2E2E2E2E2E2E2E2E2E2E2E2E2E2E2E2E2E2E2E2E2E2E2E2E2E2E2E2E2E2E2E2E2E2E2E2E2E2E2E2E2E2E2E2E2E2E2E2E2E2E2E2E2E2E2E2E2E2E2E2E2E2E2E2E2E2E2E2E2E2E2
310
E2E2E2E2E2E2E2E2E2E2E2E2E2E2E2E2E2E2F5E2E2E2E2E2E2E2E2E2E2E2E2E2E2E2E2F5E2E2E2F5F5E2E2E2F5E2E2E2E2E2E2E2E2E2E2E2E2E2E2E2E2F5E2E2E2E2E2E2E2E2E2E2E2E2E2E2E2E2E2E2E2E2E2E2E2E2E2E2E2E2E2E2E2E2E2E2E2E2E2E2E2E2E2E2E2E2E2E2E2E2E2E2E2E2E2E2E2E2E2E2E2E2E2E2E2E2E2
310
E2E2E2E2E2E2E2E2E2E2E2E2E2E2E2E2E2E2E2E2E2E2E2E2E2E2E2E2E2E2E2E2E2E2E2E2E2E2E2E2E2E2E2E2E2E2E2E2E2E2E2E2E2E2E2E2E2E2E2E2E2E2E2E2E2E2E2E2E2E2E2F5E2E2E2E2E2E2E2E2E2E2E2E2E2E2E2E2F5E2E2E2F5F5E2E2E2F5E2E2E2E2E2E2E2E2E2E2E2E2E2E2E2E2F5E2E2E2E2E2E2E2E2E2E2E2E2
310
E2E2E2E2E2E2E2E2E2E2E2E2E2E2E2E2E2E2E2E2E2E2E2E2E2E2E2E2E2E2E2E2E2E2E2E2E2E2E2E2E2E2E2E2E2E2E2E2E2E2E2E2E2E2E2E2E2E2E2E2E2E2E2E2E2E2E2E2E2E2E2E2E2E2E2E2E2E2E2E2E2E2E2E2E2E2E2E2E2E2E2E2E2E2E2E2E2E2E2E2E2E2E2E2E2E2E2E2E2E2E2E2E2E2E2E2E2E2E2E2E2E2E2E2F5E2E2
310
E2E2E2E2E2E2E2E2E2E2E2E2E2E2F5E2E2E2F5F5E2E2E2F5E2E2E2E2E2E2E2E2E2E2E2E2E2E2E2E2F5E2E2E2E2E2E2E2E2E2E2E2E2E2E2E2E2E2E2E2E2E2E2E2E2E2E2E2E2E2E2E2E2E2E2E2E2E2E2E2E2E2E2E2E2E2E2E2E2E2E2E2E2E2E2E2E2E2E2E2E2E2E2E2E2E2E2E2E2E2E2E2E2E2E2E2E2E2E2E2E2E2E2E2E2E2E2
310
E2E2E2E2E2E2E2E2E2E2E2E2E2E2E2E2E2E2E2E2E2E2E2E2E2E2E2E2E2E2E2E2E2E2E2E2E2E2E2E2E2E2E2E2E2E2E2E2E2E2F5E2E2E2E2E2E2E2E2E2E2E2E2E2E2E2E2F5E2E2E2F5F5E2E2E2F5E2E2E2E2E2E2E2E2E2E2E2E2E2E2E2E2F5E2E2E2E2E2E2E2E2E2E2E2E2E2E2E2E2E2E2E2E2E2E2E2E2E2E2E2E2E2E2E2E2E2
310
E2E2E2E2E2E2E2E2E2E2E2E2E2E2E2E2E2E2E2E2E2E2E2E2E2E2E2E2E2E2E2E2E2E2E2E2E2E2E2E2E2E2E2E2E2E2E2E2E2E2E2E2E2E2E2E2E2E2E2E2E2E2E2E2E2E2E2E2E2E2E2E2E2E2E2E2E2E2E2E2E2E2E2E2E2E2E2E2E2E2E2E2E2E2E2E2E2E2E2E2E2E2E2F5E2E2E2E2E2E2E2E2E2E2E2E2E2E2E2E2F5E2E2E2F5F5E2
310
E2E2F5E2E2E2E2E2E2E2E2E2E2E2E2E2E2E2E2F5E2E2E2E2E2E2E2E2E2E2E2E2E2E2E2E2E2E2E2E2E2E2E2E2E2E2E2E2E2E2E2E2E2E2E2E2E2E2E2E2E2E2E2E2E2E2E2E2E2E2E2E2E2E2E2E2E2E2E2E2E2E2E2E2E2E2E2E2E2E2E2E2E2E2E2E2E2E2E2E2E2E2E2E2E2E2E2E2E2E2E2E2E2E2E2E2E2E2E2E2E2E2E2E2E2E2E2
310
E2E2E2E2E2E2E2E2E2E2E2E2E2E2E2E2E2E2E2E2E2E2E2E2E2E2E2E2E2F5E2E2E2E2E2E2E2E2E2E2E2E2E2E2E2E2F5E2E2E2F5F5E2E2E2F5E2E2E2E2E2E2E2E2E2E2E2E2E2E2E2E2F5E2E2E2E2E2E2E2E2E2E2E2E2E2E2E2E2E2E2E2E2E2E2E2E2E2E2E2E2E2E2E2E2E2E2E2E2E2E2E2E2E2E2E2E2E2E2E2E2E2E2E2E2E2E2
310
E2E2E2E2E2E2E2E2E2E2E2E2E2E2E2E2E2E2E2E2E2E2E2E2E2E2E2E2E2E2E2E2E2E2E2E2E2E2E2E2E2E2E2E2E2E2E2E2E2E2E2E2E2E2E2E2E2E2E2E2E2E2E2E2E2E2E2E2E2E2E2E2E2E2E2E2E2E2E2E2E2E2F5E2E2E2E2E2E2E2E2E2E2E2E2E2E2E2E2F5E2E2E2F5F5E2E2E2F5E2E2E2E2E2E2E2E2E2E2E2E2E2E2E2E2F5E2
310
E2E2E2E2E2E2E2E2E2E2E2E2E2E2E2E2E2E2E2E2E2E2E2E2E2E2E2E2E2E2E2E2E2E2E2E2E2E2E2E2E2E2E2E2E2E2E2E2E2E2E2E2E2E2E2E2E2E2E2E2E2E2E2E2E2E2E2E2E2E2E2E2E2E2E2E2E2E2E2E2E2E2E2E2E2E2E2E2E2E2E2E2E2E2E2E2E2E2E2E2E2E2E2E2E2E2E2E2E2E2E2E2E2E2E2E2E2E2E2E2E2E2E2E2E2E2E2
310
E2E2E2E2E2E2E2E2F5E2E2E2E2E2E2E2E2E2E2E2E2E2E2E2E2F5E2E2E2F5F5E2E2E2F5E2E2E2E2E2E2E2E2E2E2E2E2E2E2E2E2F5E2E2E2E2E2E2E2E2E2E2E2E2E2E2E2E2E2E2E2E2E2E2E2E2E2E2E2E2E2E2E2E2E2E2E2E2E2E2E2E2E2E2E2E2E2E2E2E2E2E2E2E2E2E2E2E2E2E2E2E2E2E2E2E2E2E2E2E2E2E2E2E2E2E2E2
310
E2E2E2E2E2E2E2E2E2E2E2E2E2E2E2E2E2E2E2E2E2E2E2E2E2E2E2E2E2E2E2E2E2E2E2E2E2E2E2E2E2E2E2E2E2E2E2E2E2E2E2E2E2E2E2E2E2E2E2E2E2F5E2E2E2E2E2E2E2E2E2E2E2E2E2E2E2E2F5E2E2E2F5F5E2E2E2F5E2E2E2E2E2E2E2E2E2E2E2E2E2E2E2E2F5E2E2E2E2E2E2E2E2E2E2E2E2E2E2E2E2E2E2E2E2E2E2
310
E2E2E2E2E2E2E2E2E2E2E2E2E2E2E2E2E2E2E2E2E2E2E2E2E2E2E2E2E2E2E2E2E2E2E2E2E2E2E2E2E2E2E2E2E2E2E2E2E2E2E2E2E2E2E2E2E2E2E2E2E2E2E2E2E2E2E2E2E2E2E2E2E2E2E2E2E2E2E2E2E2E2E2E2E2E2E2E2E2E2E2E2E2E2E2E2E2E2E2E2E2E2E2E2E2E2E2E2E2E2E2E2E2E2F5E2E2E2E2E2E2E2E2E2E2E2E2
310
E2E2E2E2F5E2E2E2F5F5E2E2E2E2E2E2E2E2E2E2E2E2E2E2E2E2E2E2E2E2F5E2E2E2E2E2E2E2E2E2E2E2E2E2E2E2E2E2E2E2E2E2E2E2E2E2E2E2E2E2E2E2E2E2E2E2E2E2E2E2E2E2E2E2E2E2E2E2E2E2E2E2E2E2E2E2E2E2E2E2E2E2E2E2E2E2E2E2E2E2E2E2E2E2E2E2E2E2E2E2E2E2E2E2E2E2E2E2E2E2E2E2E2E2E2E2E2
310
E2E2E2E2E2E2E2E2E2E2E2E2E2E2E2E2E2E2E2E2E2E2E2E2E2E2E2E2E2E2E2E2E2E2E2E2E2E2E2E2F5E2E2E2E2E2E2E2E2E2E2E2E2E2E2E2E2E2E2E2E2F5F5E2E2E2E2E2E2E2E2E2E2E2E2E2E2E2E2E2E2E2E2F5E2E2E2E2E2E2E2E2E2E2E2E2E2E2E2E2E2E2E2E2E2E2E2E2E2E2E2E2E2E2E2E2E2E2E2E2E2E2E2E2E2E2E2
310
E2E2E2E2E2E2E2E2E2E2E2E2E2E2E2E2E2E2E2E2E2E2E2E2E2E2E2E2E2E2E2E2E2E2E2E2E2E2E2E2E2E2E2E2E2E2E2E2E2E2E2E2E2E2E2E2E2E2E2E2E2E2E2E2E2E2E2E2E2E2E2E2E2E2E2E2E2E2E2E2E2E2E2E2E2E2E2E2E2E2E2E2E2F5E2E2E2E2E2E2E2E2E2E2E2E2E2E2E2E2E2E2E2E2F5F5E2E2E2E2E2E2E2E2E2E2E2
310
E2E2E2E2E2E2E2E2E2F5E2E2E2E2E2E2E2E2E2E2E2E2E2E2E2E2E2E2E2E2E2E2E2E2E2E2E2E2E2E2E2E2E2E2E2E2E2E2E2E2E2E2E2E2E2E2E2E2E2E2E2E2E2E2E2E2E2E2E2E2E2E2E2E2E2E2E2E2E2E2E2E2E2E2E2E2E2E2E2E2E2E2E2E2E2E2E2E2E2E2E2E2E2E2E2E2E2E2E2E2E2E2E2E2E2E2E2E2E2E2E2E2E2E2E2E2E2
310
E2E2E2E2E2E2E2E2E2E2E2E2E2E2E2E2E2E2E2F5E2E2E2E2E2E2E2E2E2E2E2E2E2E2E2E2E2E2E2E2F5F5E2E2E2E2E2E2E2E2E2E2E2E2E2E2E2E2E2E2E2E2F5E2E2E2E2E2E2E2E2E2E2E2E2E2E2E2E2E2E2E2E2E2E2E2E2E2E2E2E2E2E2E2E2E2E2E2E2E2E2E2E2E2E2E2E2E2E2E2E2E2E2E2E2E2E2E2E2E2E2E2E2E2E2E2E2
310
E2E2E2E2E2E2E2E2E2E2E2E2E2E2E2E2E2E2E2E2E2E2E2E2E2E2E2E2E2E2E2E2E2E2E2E2E2E2E2E2E2E2E2E2E2E2E2E2E2E2E2E2E2E2E2E2E2E2E2E2E2E2E2E2E2E2E2E2E2E2E2E2F5E2E2E2E2E2E2E2E2E2E2E2E2E2E2E2E2E2E2E2E2F5F5E2E2E2E2E2E2E2E2E2E2E2E2E2E2E2E2E2E2E2E2F5E2E2E2E2E2E2E2E2E2E2E2
310
E2E2E2E2E2E2E2E2E2E2E2E2E2E2E2E2E2E2E2E2E2E2E2E2E2E2E2E2E2E2E2E2E2E2E2E2E2E2E2E2E2E2E2E2E2E2E2E2E2E2E2E2E2E2E2E2E2E2E2E2E2E2E2E2E2E2E2E2E2E2E2E2E2E2E2E2E2E2E2E2E2E2E2E2E2E2E2E2E2E2E2E2E2E2E2E2E2E2E2E2E2E2E2E2E2E2E2E2E2E2E2E2E2E2E2E2E2E2E2E2E2E2E2E2E2F5E2
310
E2E2E2E2E2E2E2E2E2E2E2E2E2E2E2E2E2E2E2F5F5E2E2E2E2E2E2E2E2E2E2E2E2E2E2E2E2E2E2E2E2F5E2E2E2E2E2E2E2E2E2E2E2E2E2E2E2E2E2E2E2E2E2E2E2E2E2E2E2E2E2E2E2E2E2E2E2E2E2E2E2E2E2E2E2E2E2E2E2E2E2E2E2E2E2E2E2E2E2E2E2E2E2E2E2E2E2E2E2E2E2E2E2E2E2E2E2E2E2E2E2E2E2E2E2E2E2
310
E2E2E2E2E2E2E2E2E2E2E2E2E2E2E2E2E2E2E2E2E2E2E2E2E2E2E2E2E2E2E2E2E2E2E2E2E2E2E2E2E2E2E2E2E2E2E2E2E2E2E2F5E2E2E2E2E2E2E2E2E2E2E2E2E2E2E2E2E2E2E2E2F5F5E2E2E2E2E2E2E2E2E2E2E2E2E2E2E2E2E2E2E2E2F5E2E2E2E2E2E2E2E2E2E2E2E2E2E2E2E2E2E2E2E2E2E2E2E2E2E2E2E2E2E2E2E2
310
E2E2E2E2E2E2E2E2E2E2E2E2E2E2E2E2E2E2E2E2E2E2E2E2E2E2E2E2E2E2E2E2E2E2E2E2E2E2E2E2E2E2E2E2E2E2E2E2E2E2E2E2E2E2E2E2E2E2E2E2E2E2E2E2E2E2E2E2E2E2E2E2E2E2E2E2E2E2E2E2E2E2E2E2E2E2E2E2E2E2E2E2E2E2E2E2E2E2E2E2E2E2E2E2F5E2E2E2E2E2E2E2E2E2E2E2E2E2E2E2E2E2E2E2E2F5F5
310
E2E2E2E2E2E2E2E2E2E2E2E2E2E2E2E2E2E2E2E2F5E2E2E2E2E2E2E2E2E2E2E2E2E2E2E2E2E2E2E2E2E2E2E2E2E2E2E2E2E2E2E2E2E2E2E2E2E2E2E2E2E2E2E2E2E2E2E2E2E2E2E2E2E2E2E2E2E2E2E2E2E2E2E2E2E2E2E2E2E2E2E2E2E2E2E2E2E2E2E2E2E2E2E2E2E2E2E2E2E2E2E2E2E2E2E2E2E2E2E2E2E2E2E2E2E2E2
310
E2E2E2E2E2E2E2E2E2E2E2E2E2E2E2E2E2E2E2E2E2E2E2E2E2E2E2E2E2E2F5E2E2E2E2E2E2E2E2E2E2E2E2E2E2E2E2E2E2E2E2F5F5E2E2E2E2E2E2E2E2E2E2E2E2E2E2E2E2E2E2E2E2F5E2E2E2E2E2E2E2E2E2E2E2E2E2E2E2E2E2E2E2E2E2E2E2E2E2E2E2E2E2E2E2E2E2E2E2E2E2E2E2E2E2E2E2E2E2E2E2E2E2E2E2E2E2
310
E2E2E2E2E2E2E2E2E2E2E2E2E2E2E2E2E2E2E2E2E2E2E2E2E2E2E2E2E2E2E2E2E2E2E2E2E2E2E2E2E2E2E2E2E2E2E2E2E2E2E2E2E2E2E2E2E2E2E2E2E2E2E2E2E2E2E2E2E2E2E2E2E2E2E2E2E2E2E2E2E2E2E2F5E2E2E2E2E2E2E2E2E2E2E2E2E2E2E2E2E2E2E2E2F5F5E2E2E2F5E2E2E2E2E2E2E2E2E2E2E2E2E2E2E2E2F5
310
E2E2E2E2E2E2E2E2E2E2E2E2E2E2E2E2E2E2E2E2E2E2E2E2E2E2E2E2E2E2E2E2E2E2E2E2E2E2E2E2E2E2E2E2E2E2E2E2E2E2E2E2E2E2E2E2E2E2E2E2E2E2E2E2E2E2E2E2E2E2E2E2E2E2E2E2E2E2E2E2E2E2E2E2E2E2E2E2E2E2E2E2E2E2E2E2E2E2E2E2E2E2E2E2E2E2E2E2E2E2E2E2E2E2E2E2E2E2E2E2E2E2E2E2E2E2E2
310
E2E2E2E2E2E2E2E2E2F5E2E2E2E2E2E2E2E2E2E2E2E2E2E2E2E2F5E2E2E2F5F5E2E2E2F5E2E2E2E2E2E2E2E2E2E2E2E2E2E2E2E2F5E2E2E2E2E2E2E2E2E2E2E2E2E2E2E2E2E2E2E2E2E2E2E2E2E2E2E2E2E2E2E2E2E2E2E2E2E2E2E2E2E2E2E2E2E2E2E2E2E2E2E2E2E2E2E2E2E2E2E2E2E2E2E2E2E2E2E2E2E2E2E2E2E2E2
310
E2E2E2E2E2E2E2E2E2E2E2E2E2E2E2E2E2E2E2E2E2E2E2E2E2E2E2E2E2E2E2E2E2E2E2E2E2E2E2E2E2E2E2E2E2E2E2E2E2E2E2E2E2E2E2E2E2E2E2E2E2E2F5E2E2E2E2E2E2E2E2E2E2E2E2E2E2E2E2F5E2E2E2F5F5E2E2E2F5E2E2E2E2E2E2E2E2E2E2E2E2E2E2E2E2F5E2E2E2E2E2E2E2E2E2E2E2E2E2E2E2E2E2E2E2E2E2
310
E2E2E2E2E2E2E2E2E2E2E2E2E2E2E2E2E2E2E2E2E2E2E2E2E2E2E2E2E2E2E2E2E2E2E2E2E2E2E2E2E2E2E2E2E2E2E2E2E2E2E2E2E2E2E2E2E2E2E2E2E2E2E2E2E2E2E2E2E2E2E2E2E2E2E2E2E2E2E2E2E2E2E2E2E2E2E2E2E2E2E2E2E2E2E2E2E2E2E2E2E2E2E2E2E2E2E2E2E2E2E2E2E2E2E2F5E2E2E2E2E2E2E2E2E2E2E2
310
E2E2E2E2E2F5E2E2E2F5F5E2E2E2F5E2E2E2E2E2E2E2E2E2E2E2E2E2E2E2E2F5E2E2E2E2E2E2E2E2E2E2E2E2E2E2E2E2E2E2E2E2E2E2E2E2E2E2E2E2E2E2E2E2E2E2E2E2E2E2E2E2E2E2E2E2E2E2E2E2E2E2E2E2E2E2E2E2E2E2E2E2E2E2E2E2E2E2E2E2E2E2E2E2E2E2E2E2E2E2E2E2E2E2E2E2E2E2E2E2E2E2E2E2E2E2E2
310
E2E2E2E2E2E2E2E2E2E2E2E2E2E2E2E2E2E2E2E2E2E2E2E2E2E2E2E2E2E2E2E2E2E2E2E2E2E2E2E2E2F5E2E2E2E2E2E2E2E2E2E2E2E2E2E2E2E2F5E2E2E2F5F5E2E2E2F5E2E2E2E2E2E2E2E2E2E2E2E2E2E2E2E2F5E2E2E2E2E2E2E2E2E2E2E2E2E2E2E2E2E2E2E2E2E2E2E2E2E2E2E2E2E2E2E2E2E2E2E2E2E2E2E2E2E2E2
310
E2E2E2E2E2E2E2E2E2E2E2E2E2E2E2E2E2E2E2E2E2E2E2E2E2E2E2E2E2E2E2E2E2E2E2E2E2E2E2E2E2E2E2E2E2E2E2E2E2E2E2E2E2E2E2E2E2E2E2E2E2E2E2E2E2E2E2E2E2E2E2E2E2E2E2E2E2E2E2E2E2E2E2E2E2E2E2E2E2E2E2E2E2E2F5E2E2E2E2E2E2E2E2E2E2E2E2E2E2E2E2F5E2E2E2F5F5E2E2E2F5E2E2E2E2E2E2
310
E2E2E2E2E2E2E2E2E2E2F5E2E2E2E2E2E2E2E2E2E2E2E2E2E2E2E2E2E2E2E2E2E2E2E2E2E2E2E2E2E2E2E2E2E2E2E2E2E2E2E2E2E2E2E2E2E2E2E2E2E2E2E2E2E2E2E2E2E2E2E2E2E2E2E2E2E2E2E2E2E2E2E2E2E2E2E2E2E2E2E2E2E2E2E2E2E2E2E2E2E2E2E2E2E2E2E2E2E2E2E2E2E2E2E2E2E2E2E2E2E2E2E2E2E2E2E2
310
E2E2E2E2E2E2E2E2E2E2E2E2E2E2E2E2E2E2E2E2F5E2E2E2E2E2E2E2E2E2E2E2E2E2E2E2E2F5E2E2E2F5F5E2E2E2F5E2E2E2E2E2E2E2E2E2E2E2E2E2E2E2E2F5E2E2E2E2E2E2E2E2E2E2E2E2E2E2E2E2E2E2E2E2E2E2E2E2E2E2E2E2E2E2E2E2E2E2E2E2E2E2E2E2E2E2E2E2E2E2E2E2E2E2E2E2E2E2E2E2E2E2E2E2E2E2E2
310
E2E2E2E2E2E2E2E2E2E2E2E2E2E2E2E2E2E2E2E2E2E2E2E2E2E2E2E2E2E2E2E2E2E2E2E2E2E2E2E2E2E2E2E2E2E2E2E2E2E2E2E2E2E2E2E2E2E2E2E2E2E2E2E2E2E2E2E2E2E2E2E2E2F5E2E2E2E2E2E2E2E2E2E2E2E2E2E2E2E2F5E2E2E2F5F5E2E2E2F5E2E2E2E2E2E2E2E2E2E2E2E2E2E2E2E2F5E2E2E2E2E2E2E2E2E2E2
310
E2E2E2E2E2E2E2E2E2E2E2E2E2E2E2E2E2E2E2E2E2E2E2E2E2E2E2E2E2E2E2E2E2E2E2E2E2E2E2E2E2E2E2E2E2E2E2E2E2E2E2E2E2E2E2E2E2E2E2E2E2E2E2E2E2E2E2E2E2E2E2E2E2E2E2E2E2E2E2E2E2E2E2E2E2E2E2E2E2E2E2E2E2E2E2E2E2E2E2E2E2E2E2E2E2E2E2E2E2E2E2E2E2E2E2E2E2E2E2E2E2E2E2E2E2E2F5
310
E2E2E2E2E2E2E2E2E2E2E2E2E2E2E2E2F5E2E2E2F5F5E2E2E2F5E2E2E2E2E2E2E2E2E2E2E2E2E2E2E2E2F5E2E2E2E2E2E2E2E2E2E2E2E2E2E2E2E2E2E2E2E2E2E2E2E2E2E2E2E2E2E2E2E2E2E2E2E2E2E2E2E2E2E2E2E2E2E2E2E2E2E2E2E2E2E2E2E2E2E2E2E2E2E2E2E2E2E2E2E2E2E2E2E2E2E2E2E2E2E2E2E2E2E2E2E2
310
E2E2E2E2E2E2E2E2E2E2E2E2E2E2E2E2E2E2E2E2E2E2E2E2E2E2E2E2E2E2E2E2E2E2E2E2E2E2E2E2E2E2E2E2E2E2E2E2E2E2E2E2F5E2E2E2E2E2E2E2E2E2E2E2E2E2E2E2E2F5E2E2E2F5F5E2E2E2F5E2E2E2E2E2E2E2E2E2E2E2E2E2E2E2E2F5E2E2E2E2E2E2E2E2E2E2E2E2E2E2E2E2E2E2E2E2E2E2E2E2E2E2E2E2E2E2E2
310
E2E2E2E2E2E2E2E2E2E2E2E2E2E2E2E2E2E2E2E2E2E2E2E2E2E2E2E2E2E2E2E2E2E2E2E2E2E2E2E2E2E2E2E2E2E2E2E2E2E2E2E2E2E2E2E2E2E2E2E2E2E2E2E2E2E2E2E2E2E2E2E2E2E2E2E2E2E2E2E2E2E2E2E2E2E2E2E2E2E2E2E2E2E2E2E2E2E2E2E2E2E2E2E2E2F5E2E2E2E2E2E2E2E2E2E2E2E2E2E2E2E2F5E2E2E2F5
310
F5E2E2E2F5E2E2E2E2E2E2E2E2E2E2E2E2E2E2E2E2F5E2E2E2E2E2E2E2E2E2E2E2E2E2E2E2E2E2E2E2E2E2E2E2E2E2E2E2E2E2E2E2E2E2E2E2E2E2E2E2E2E2E2E2E2E2E2E2E2E2E2E2E2E2E2E2E2E2E2E2E2E2E2E2E2E2E2E2E2E2E2E2E2E2E2E2E2E2E2E2E2E2E2E2E2E2E2E2E2E2E2E2E2E2E2E2E2E2E2E2E2E2E2E2E2E2
310
E2E2E2E2E2E2E2E2E2E2E2E2E2E2E2E2E2E2E2E2E2E2E2E2E2E2E2E2E2E2E2F5E2E2E2E2E2E2E2E2E2E2E2E2E2E2E2E2F5E2E2E2F5F5E2E2E2F5E2E2E2E2E2E2E2E2E2E2E2E2E2E2E2E2F5E2E2E2E2E2E2E2E2E2E2E2E2E2E2E2E2E2E2E2E2E2E2E2E2E2E2E2E2E2E2E2E2E2E2E2E2E2E2E2E2E2E2E2E2E2E2E2E2E2E2E2E2
310
E2E2E2E2E2E2E2E2E2E2E2E2E2E2E2E2E2E2E2E2E2E2E2E2E2E2E2E2E2E2E2E2E2E2E2E2E2E2E2E2E2E2E2E2E2E2E2E2E2E2E2E2E2E2E2E2E2E2E2E2E2E2E2E2E2E2E2E2E2E2E2E2E2E2E2E2E2E2E2E2E2E2E2E2F5E2E2E2E2E2E2E2E2E2E2E2E2E2E2E2E2F5E2E2E2F5F5E2E2E2F5E2E2E2E2E2E2E2E2E2E2E2E2E2E2E2E2
310
F5E2E2E2E2E2E2E2E2E2E2E2E2E2E2E2E2E2E2E2E2E2E2E2E2E2E2E2E2E2E2E2E2E2E2E2E2E2E2E2E2E2E2E2E2E2E2E2E2E2E2E2E2E2E2E2E2E2E2E2E2E2E2E2E2E2E2E2E2E2E2E2E2E2E2E2E2E2E2E2E2E2E2E2E2E2E2E2E2E2E2E2E2E2E2E2E2E2E2E2E2E2E2E2E2E2E2E2E2E2E2E2E2E2E2E2E2E2E2E2E2E2E2E2E2E2E2
310
E2E2E2E2E2E2E2E2E2E2F5E2E2E2E2E2E2E2E2E2E2E2E2E2E2E2E2F5E2E2E2F5F5E2E2E2F5E2E2E2E2E2E2E2E2E2E2E2E2E2E2E2E2F5E2E2E2E2E2E2E2E2E2E2E2E2E2E2E2E2E2E2E2E2E2E2E2E2E2E2E2E2E2E2E2E2E2E2E2E2E2E2E2E2E2E2E2E2E2E2E2E2E2E2E2E2E2E2E2E2E2E2E2E2E2E2E2E2E2E2E2E2E2E2E2E2E2
310
E2E2E2E2E2E2E2E2E2E2E2E2E2E2E2E2E2E2E2E2E2E2E2E2E2E2E2E2E2E2E2E2E2E2E2E2E2E2E2E2E2E2E2E2E2E2E2E2E2E2E2E2E2E2E2E2E2E2E2E2E2E2E2F5E2E2E2E2E2E2E2E2E2E2E2E2E2E2E2E2F5E2E2E2F5F5E2E2E2F5E2E2E2E2E2E2E2E2E2E2E2E2E2E2E2E2F5E2E2E2E2E2E2E2E2E2E2E2E2E2E2E2E2E2E2E2E2
310
E2E2E2E2E2E2E2E2E2E2E2E2E2E2E2E2E2E2E2E2E2E2E2E2E2E2E2E2E2E2E2E2E2E2E2E2E2E2E2E2E2E2E2E2E2E2E2E2E2E2E2E2E2E2E2E2E2E2E2E2E2E2E2E2E2E2E2E2E2E2E2E2E2E2E2E2E2E2E2E2E2E2E2E2E2E2E2E2E2E2E2E2E2E2E2E2E2E2E2E2E2E2E2E2E2E2E2E2E2E2E2E2E2E2E2E2F5E2E2E2E2E2E2E2E2E2E2
310
E2E2E2E2E2E2F5E2E2E2F5F5E2E2E2F5E2E2E2E2E2E2E2E2E2E2E2E2E2E2E2E2F5E2E2E2E2E2E2E2E2E2E2E2E2E2E2E2E2E2E2E2E2E2E2E2E2E2E2E2E2E2E2E2E2E2E2E2E2E2E2E2E2E2E2E2E2E2E2E2E2E2E2E2E2E2E2E2E2E2E2E2E2E2E2E2E2E2E2E2E2E2E2E2E2E2E2E2E2E2E2E2E2E2E2E2E2E2E2E2E2E2E2E2E2E2E2
310
E2E2E2E2E2E2E2E2E2E2E2E2E2E2E2E2E2E2E2E2E2E2E2E2E2E2E2E2E2E2E2E2E2E2E2E2E2E2E2E2E2E2F5E2E2E2E2E2E2E2E2E2E2E2E2E2E2E2E2F5E2E2E2F5F5E2E2E2E2E2E2E2E2E2E2E2E2E2E2E2E2E2E2E2E2F5E2E2E2E2E2E2E2E2E2E2E2E2E2E2E2E2E2E2E2E2E2E2E2E2E2E2E2E2E2E2E2E2E2E2E2E2E2E2E2E2E2
310
E2E2E2E2E2E2E2E2E2E2E2E2E2E2E2E2E2E2E2E2E2E2E2E2E2E2E2E2E2E2E2E2E2E2E2E2E2E2E2E2E2E2E2E2E2E2E2E2E2E2E2E2E2E2E2E2E2E2E2E2E2E2E2E2E2E2E2E2E2E2E2E2E2E2E2E2E2E2E2E2E2E2E2E2E2E2E2E2E2E2E2E2E2E2E2F5E2E2E2E2E2E2E2E2E2E2E2E2E2E2E2E2E2E2E2E2F5F5E2E2E2E2E2E2E2E2E2
310
E2E2E2E2E2E2E2E2E2E2E2F5E2E2E2E2E2E2E2E2E2E2E2E2E2E2E2E2E2E2E2E2E2E2E2E2E2E2E2E2E2E2E2E2E2E2E2E2E2E2E2E2E2E2E2E2E2E2E2E2E2E2E2E2E2E2E2E2E2E2E2E2E2E2E2E2E2E2E2E2E2E2E2E2E2E2E2E2E2E2E2E2E2E2E2E2E2E2E2E2E2E2E2E2E2E2E2E2E2E2E2E2E2E2E2E2E2E2E2E2E2E2E2E2E2E2E2
310
E2E2E2E2E2E2E2E2E2E2E2E2E2E2E2E2E2E2E2E2E2F5E2E2E2E2E2E2E2E2E2E2E2E2E2E2E2E2E2E2E2E2F5F5E2E2E2E2E2E2E2E2E2E2E2E2E2E2E2E2E2E2E2E2F5E2E2E2E2E2E2E2E2E2E2E2E2E2E2E2E2E2E2E2E2E2E2E2E2E2E2E2E2E2E2E2E2E2E2E2E2E2E2E2E2E2E2E2E2E2E2E2E2E2E2E2E2E2E2E2E2E2E2E2E2E2E2
310
E2E2E2E2E2E2E2E2E2E2E2E2E2E2E2E2E2E2E2E2E2E2E2E2E2E2E2E2E2E2E2E2E2E2E2E2E2E2E2E2E2E2E2E2E2E2E2E2E2E2E2E2E2E2E2E2E2E2E2E2E2E2E2E2E2E2E2E2E2E2E2E2E2E2F5E2E2E2E2E2E2E2E2E2E2E2E2E2E2E2E2E2E2E2E2F5F5E2E2E2E2E2E2E2E2E2E2E2E2E2E2E2E2E2E2E2E2F5E2E2E2E2E2E2E2E2E2
310
E2E2E2E2E2E2E2E2E2E2E2E2E2E2E2E2E2E2E2E2E2E2E2E2E2E2E2E2E2E2E2E2E2E2E2E2E2E2E2E2E2E2E2E2E2E2E2E2E2E2E2E2E2E2E2E2E2E2E2E2E2E2E2E2E2E2E2E2E2E2E2E2E2E2E2E2E2E2E2E2E2E2E2E2E2E2E2E2E2E2E2E2E2E2E2E2E2E2E2E2E2E2E2E2E2E2E2E2E2E2E2E2E2E2E2E2E2E2E2E2E2E2E2E2E2E2E2
310
F5E2E2E2E2E2E2E2E2E2E2E2E2E2E2E2E2E2E2E2E2F5F5E2E2E2E2E2E2E2E2E2E2E2E2E2E2E2E2E2E2E2E2F5E2E2E2E2E2E2E2E2E2E2E2E2E2E2E2E2E2E2E2E2E2E2E2E2E2E2E2E2E2E2E2E2E2E2E2E2E2E2E2E2E2E2E2E2E2E2E2E2E2E2E2E2E2E2E2E2E2E2E2E2E2E2E2E2E2E2E2E2E2E2E2E2E2E2E2E2E2E2E2E2E2E2E2
310
E2E2E2E2E2E2E2E2E2E2E2E2E2E2E2E2E2E2E2E2E2E2E2E2E2E2E2E2E2E2E2E2E2E2E2E2E2E2E2E2E2E2E2E2E2E2E2E2E2E2E2E2E2F5E2E2E2E2E2E2E2E2E2E2E2E2E2E2E2E2E2E2E2E2F5F5E2E2E2E2E2E2E2E2E2E2E2E2E2E2E2E2E2E2E2E2F5E2E2E2E2E2E2E2E2E2E2E2E2E2E2E2E2E2E2E2E2E2E2E2E2E2E2E2E2E2E2
310
E2E2E2E2E2E2E2E2E2E2E2E2E2E2E2E2E2E2E2E2E2E2E2E2E2E2E2E2E2E2E2E2E2E2E2E2E2E2E2E2E2E2E2E2E2E2E2E2E2E2E2E2E2E2E2E2E2E2E2E2E2E2E2E2E2E2E2E2E2E2E2E2E2E2E2E2E2E2E2E2E2E2E2E2E2E2E2E2E2E2E2E2E2E2E2E2E2E2E2E2E2E2E2E2E2E2F5E2E2E2E2E2E2E2E2E2E2E2E2E2E2E2E2E2E2E2E2
310
F5F5E2E2E2E2E2E2E2E2E2E2E2E2E2E2E2E2E2E2E2E2F5E2E2E2E2E2E2E2E2E2E2E2E2E2E2E2E2E2E2E2E2E2E2E2E2E2E2E2E2E2E2E2E2E2E2E2E2E2E2E2E2E2E2E2E2E2E2E2E2E2E2E2E2E2E2E2E2E2E2E2E2E2E2E2E2E2E2E2E2E2E2E2E2E2E2E2E2E2E2E2E2E2E2E2E2E2E2E2E2E2E2E2E2E2E2E2E2E2E2E2E2E2E2E2E2
310
E2E2E2E2E2E2E2E2E2E2E2E2E2E2E2E2E2E2E2E2E2E2E2E2E2E2E2E2E2E2E2E2F5E2E2E2E2E2E2E2E2E2E2E2E2E2E2E2E2E2E2E2E2F5F5E2E2E2E2E2E2E2E2E2E2E2E2E2E2E2E2E2E2E2E2F5E2E2E2E2E2E2E2E2E2E2E2E2E2E2E2E2E2E2E2E2E2E2E2E2E2E2E2E2E2E2E2E2E2E2E2E2E2E2E2E2E2E2E2E2E2E2E2E2E2E2E2
310
E2E2E2E2E2E2E2E2E2E2E2E2E2E2E2E2E2E2E2E2E2E2E2E2E2E2E2E2E2E2E2E2E2E2E2E2E2E2E2E2E2E2E2E2E2E2E2E2E2E2E2E2E2E2E2E2E2E2E2E2E2E2E2E2E2E2E2E2E2E2E2E2E2E2E2E2E2E2E2E2E2E2E2E2E2F5E2E2E2E2E2E2E2E2E2E2E2E2E2E2E2E2E2E2E2E2F5F5E2E2E2E2E2E2E2E2E2E2E2E2E2E2E2E2E2E2E2
310
E2F5E2E2E2E2E2E2E2E2E2E2E2E2E2E2E2E2E2E2E2E2E2E2E2E2E2E2E2E2E2E2E2E2E2E2E2E2E2E2E2E2E2E2E2E2E2E2E2E2E2E2E2E2E2E2E2E2E2E2E2E2E2E2E2E2E2E2E2E2E2E2E2E2E2E2E2E2E2E2E2E2E2E2E2E2E2E2E2E2E2E2E2E2E2E2E2E2E2E2E2E2E2E2E2E2E2E2E2E2E2E2E2E2E2E2E2E2E2E2E2E2E2E2E2E2E2
310
E2E2E2E2E2E2E2E2E2E2E2F5E2E2E2E2E2E2E2E2E2E2E2E2E2E2E2E2E2E2E2E2F5F5E2E2E2E2E2E2E2E2E2E2E2E2E2E2E2E2E2E2E2E2F5E2E2E2E2E2E2E2E2E2E2E2E2E2E2E2E2E2E2E2E2E2E2E2E2E2E2E2E2E2E2E2E2E2E2E2E2E2E2E2E2E2E2E2E2E2E2E2E2E2E2E2E2E2E2E2E2E2E2E2E2E2E2E2E2E2E2E2E2E2E2E2E2
310
E2E2E2E2E2E2E2E2E2E2E2E2E2E2E2E2E2E2E2E2E2E2E2E2E2E2E2E2E2E2E2E2E2E2E2E2E2E2E2E2E2E2E2E2E2E2E2E2E2E2E2E2E2E2E2E2E2E2E2E2E2E2E2E2F5E2E2E2E2E2E2E2E2E2E2E2E2E2E2E2E2E2E2E2E2F5F5E2E2E2F5E2E2E2E2E2E2E2E2E2E2E2E2E2E2E2E2F5E2E2E2E2E2E2E2E2E2E2E2E2E2E2E2E2E2E2E2
310
E2E2E2E2E2E2E2E2E2E2E2E2E2E2E2E2E2E2E2E2E2E2E2E2E2E2E2E2E2E2E2E2E2E2E2E2E2E2E2E2E2E2E2E2E2E2E2E2E2E2E2E2E2E2E2E2E2E2E2E2E2E2E2E2E2E2E2E2E2E2E2E2E2E2E2E2E2E2E2E2E2E2E2E2E2E2E2E2E2E2E2E2E2E2E2E2E2E2E2E2E2E2E2E2E2E2E2E2E2E2E2E2E2E2E2E2E2F5E2E2E2E2E2E2E2E2E2
310
E2E2E2E2E2E2E2F5E2E2E2F5F5E2E2E2F5E2E2E2E2E2E2E2E2E2E2E2E2E2E2E2E2F5E2E2E2E2E2E2E2E2E2E2E2E2E2E2E2E2E2E2E2E2E2E2E2E2E2E2E2E2E2E2E2E2E2E2E2E2E2E2E2E2E2E2E2E2E2E2E2E2E2E2E2E2E2E2E2E2E2E2E2E2E2E2E2E2E2E2E2E2E2E2E2E2E2E2E2E2E2E2E2E2E2E2E2E2E2E2E2E2E2E2E2E2E2
310
E2E2E2E2E2E2E2E2E2E2E2E2E2E2E2E2E2E2E2E2E2E2E2E2E2E2E2E2E2E2E2E2E2E2E2E2E2E2E2E2E2E2E2F5E2E2E2E2E2E2E2E2E2E2E2E2E2E2E2E2F5E2E2E2F5F5E2E2E2F5E2E2E2E2E2E2E2E2E2E2E2E2E2E2E2E2F5E2E2E2E2E2E2E2E2E2E2E2E2E2E2E2E2E2E2E2E2E2E2E2E2E2E2E2E2E2E2E2E2E2E2E2E2E2E2E2E2
310
E2E2E2E2E2E2E2E2E2E2E2E2E2E2E2E2E2E2E2E2E2E2E2E2E2E2E2E2E2E2E2E2E2E2E2E2E2E2E2E2E2E2E2E2E2E2E2E2E2E2E2E2E2E2E2E2E2E2E2E2E2E2E2E2E2E2E2E2E2E2E2E2E2E2E2E2E2E2E2E2E2E2E2E2E2E2E2E2E2E2E2E2E2E2E2E2F5E2E2E2E2E2E2E2E2E2E2E2E2E2E2E2E2F5E2E2E2F5F5E2E2E2F5E2E2E2E2
310
E2E2E2E2E2E2E2E2E2E2E2E2F5E2E2E2E2E2E2E2E2E2E2E2E2E2E2E2E2E2E2E2E2E2E2E2E2E2E2E2E2E2E2E2E2E2E2E2E2E2E2E2E2E2E2E2E2E2E2E2E2E2E2E2E2E2E2E2E2E2E2E2E2E2E2E2E2E2E2E2E2E2E2E2E2E2E2E2E2E2E2E2E2E2E2E2E2E2E2E2E2E2E2E2E2E2E2E2E2E2E2E2E2E2E2E2E2E2E2E2E2E2E2E2E2E2E2
310
E2E2E2E2E2E2E2E2E2E2E2E2E2E2E2E2E2E2E2E2E2E2F5E2E2E2E2E2E2E2E2E2E2E2E2E2E2E2E2F5E2E2E2F5F5E2E2E2F5E2E2E2E2E2E2E2E2E2E2E2E2E2E2E2E2F5E2E2E2E2E2E2E2E2E2E2E2E2E2E2E2E2E2E2E2E2E2E2E2E2E2E2E2E2E2E2E2E2E2E2E2E2E2E2E2E2E2E2E2E2E2E2E2E2E2E2E2E2E2E2E2E2E2E2E2E2E2
310
E2E2E2E2E2E2E2E2E2E2E2E2E2E2E2E2E2E2E2E2E2E2E2E2E2E2E2E2E2E2E2E2E2E2E2E2E2E2E2E2E2E2E2E2E2E2E2E2E2E2E2E2E2E2E2E2E2E2E2E2E2E2E2E2E2E2E2E2E2E2E2E2E2E2E2F5E2E2E2E2E2E2E2E2E2E2E2E2E2E2E2E2F5E2E2E2F5F5E2E2E2F5E2E2E2E2E2E2E2E2E2E2E2E2E2E2E2E2F5E2E2E2E2E2E2E2E2
310
E2E2E2E2E2E2E2E2E2E2E2E2E2E2E2E2E2E2E2E2E2E2E2E2E2E2E2E2E2E2E2E2E2E2E2E2E2E2E2E2E2E2E2E2E2E2E2E2E2E2E2E2E2E2E2E2E2E2E2E2E2E2E2E2E2E2E2E2E2E2E2E2E2E2E2E2E2E2E2E2E2E2E2E2E2E2E2E2E2E2E2E2E2E2E2E2E2E2E2E2E2E2E2E2E2E2E2E2E2E2E2E2E2E2E2E2E2E2E2E2E2E2E2E2E2E2E2
310
E2F5E2E2E2E2E2E2E2E2E2E2E2E2E2E2E2E2F5E2E2E2F5F5E2E2E2F5E2E2E2E2E2E2E2E2E2E2E2E2E2E2E2E2F5E2E2E2E2E2E2E2E2E2E2E2E2E2E2E2E2E2E2E2E2E2E2E2E2E2E2E2E2E2E2E2E2E2E2E2E2E2E2E2E2E2E2E2E2E2E2E2E2E2E2E2E2E2E2E2E2E2E2E2E2E2E2E2E2E2E2E2E2E2E2E2E2E2E2E2E2E2E2E2E2E2E2
310
E2E2E2E2E2E2E2E2E2E2E2E2E2E2E2E2E2E2E2E2E2E2E2E2E2E2E2E2E2E2E2E2E2E2E2E2E2E2E2E2E2E2E2E2E2E2E2E2E2E2E2E2E2E2F5E2E2E2E2E2E2E2E2E2E2E2E2E2E2E2E2F5E2E2E2F5F5E2E2E2F5E2E2E2E2E2E2E2E2E2E2E2E2E2E2E2E2F5E2E2E2E2E2E2E2E2E2E2E2E2E2E2E2E2E2E2E2E2E2E2E2E2E2E2E2E2E2
310
E2E2E2E2E2E2E2E2E2E2E2E2E2E2E2E2E2E2E2E2E2E2E2E2E2E2E2E2E2E2E2E2E2E2E2E2E2E2E2E2E2E2E2E2E2E2E2E2E2E2E2E2E2E2E2E2E2E2E2E2E2E2E2E2E2E2E2E2E2E2E2E2E2E2E2E2E2E2E2E2E2E2E2E2E2E2E2E2E2E2E2E2E2E2E2E2E2E2E2E2E2E2E2E2E2E2E2F5E2E2E2E2E2E2E2E2E2E2E2E2E2E2E2E2F5E2E2
310
E2F5F5E2E2E2F5E2E2E2E2E2E2E2E2E2E2E2E2E2E2E2E2F5E2E2E2E2E2E2E2E2E2E2E2E2E2E2E2E2E2E2E2E2E2E2E2E2E2E2E2E2E2E2E2E2E2E2E2E2E2E2E2E2E2E2E2E2E2E2E2E2E2E2E2E2E2E2E2E2E2E2E2E2E2E2E2E2E2E2E2E2E2E2E2E2E2E2E2E2E2E2E2E2E2E2E2E2E2E2E2E2E2E2E2E2E2E2E2E2E2E2E2E2E2E2E2
310
E2E2E2E2E2E2E2E2E2E2E2E2E2E2E2E2E2E2E2E2E2E2E2E2E2E2E2E2E2E2E2E2E2F5E2E2E2E2E2E2E2E2E2E2E2E2E2E2E2E2F5E2E2E2F5F5E2E2E2F5E2E2E2E2E2E2E2E2E2E2E2E2E2E2E2E2F5E2E2E2E2E2E2E2E2E2E2E2E2E2E2E2E2E2E2E2E2E2E2E2E2E2E2E2E2E2E2E2E2E2E2E2E2E2E2E2E2E2E2E2E2E2E2E2E2E2E2
310
E2E2E2E2E2E2E2E2E2E2E2E2E2E2E2E2E2E2E2E2E2E2E2E2E2E2E2E2E2E2E2E2E2E2E2E2E2E2E2E2E2E2E2E2E2E2E2E2E2E2E2E2E2E2E2E2E2E2E2E2E2E2E2E2E2E2E2E2E2E2E2E2E2E2E2E2E2E2E2E2E2E2E2E2E2E2F5E2E2E2E2E2E2E2E2E2E2E2E2E2E2E2E2F5E2E2E2F5F5E2E2E2F5E2E2E2E2E2E2E2E2E2E2E2E2E2E2
310
E2E2F5E2E2E2E2E2E2E2E2E2E2E2E2E2E2E2E2E2E2E2E2E2E2E2E2E2E2E2E2E2E2E2E2E2E2E2E2E2E2E2E2E2E2E2E2E2E2E2E2E2E2E2E2E2E2E2E2E2E2E2E2E2E2E2E2E2E2E2E2E2E2E2E2E2E2E2E2E2E2E2E2E2E2E2E2E2E2E2E2E2E2E2E2E2E2E2E2E2E2E2E2E2E2E2E2E2E2E2E2E2E2E2E2E2E2E2E2E2E2E2E2E2E2E2E2
310
E2E2E2E2E2E2E2E2E2E2E2E2F5E2E2E2E2E2E2E2E2E2E2E2E2E2E2E2E2F5E2E2E2F5F5E2E2E2F5E2E2E2E2E2E2E2E2E2E2E2E2E2E2E2E2F5E2E2E2E2E2E2E2E2E2E2E2E2E2E2E2E2E2E2E2E2E2E2E2E2E2E2E2E2E2E2E2E2E2E2E2E2E2E2E2E2E2E2E2E2E2E2E2E2E2E2E2E2E2E2E2E2E2E2E2E2E2E2E2E2E2E2E2E2E2E2E2
310
E2E2E2E2E2E2E2E2E2E2E2E2E2E2E2E2E2E2E2E2E2E2E2E2E2E2E2E2E2E2E2E2E2E2E2E2E2E2E2E2E2E2E2E2E2E2E2E2E2E2E2E2E2E2E2E2E2E2E2E2E2E2E2E2E2F5E2E2E2E2E2E2E2E2E2E2E2E2E2E2E2E2F5E2E2E2F5F5E2E2E2F5E2E2E2E2E2E2E2E2E2E2E2E2E2E2E2E2F5E2E2E2E2E2E2E2E2E2E2E2E2E2E2E2E2E2E2
310
E2E2E2E2E2E2E2E2E2E2E2E2E2E2E2E2E2E2E2E2E2E2E2E2E2E2E2E2E2E2E2E2E2E2E2E2E2E2E2E2E2E2E2E2E2E2E2E2E2E2E2E2E2E2E2E2E2E2E2E2E2E2E2E2E2E2E2E2E2E2E2E2E2E2E2E2E2E2E2E2E2E2E2E2E2E2E2E2E2E2E2E2E2E2E2E2E2E2E2E2E2E2E2E2E2E2E2E2E2E2E2E2E2E2E2E2E2E2F5E2E2E2E2E2E2E2E2
310
E2E2E2E2E2E2E2E2F5E2E2E2F5F5E2E2E2F5E2E2E2E2E2E2E2E2E2E2E2E2E2E2E2E2F5E2E2E2E2E2E2E2E2E2E2E2E2E2E2E2E2E2E2E2E2E2E2E2E2E2E2E2E2E2E2E2E2E2E2E2E2E2E2E2E2E2E2E2E2E2E2E2E2E2E2E2E2E2E2E2E2E2E2E2E2E2E2E2E2E2E2E2E2E2E2E2E2E2E2E2E2E2E2E2E2E2E2E2E2E2E2E2E2E2E2E2E2
310
E2E2E2E2E2E2E2E2E2E2E2E2E2E2E2E2E2E2E2E2E2E2E2E2E2E2E2E2E2E2E2E2E2E2E2E2E2E2E2E2E2E2E2E2F5E2E2E2E2E2E2E2E2E2E2E2E2E2E2E2E2F5E2E2E2F5F5E2E2E2F5E2E2E2E2E2E2E2E2E2E2E2E2E2E2E2E2F5E2E2E2E2E2E2E2E2E2E2E2E2E2E2E2E2E2E2E2E2E2E2E2E2E2E2E2E2E2E2E2E2E2E2E2E2E2E2E2
310
E2E2E2E2E2E2E2E2E2E2E2E2E2E2E2E2E2E2E2E2E2E2E2E2E2E2E2E2E2E2E2E2E2E2E2E2E2E2E2E2E2E2E2E2E2E2E2E2E2E2E2E2E2E2E2E2E2E2E2E2E2E2E2E2E2E2E2E2E2E2E2E2E2E2E2E2E2E2E2E2E2E2E2E2E2E2E2E2E2E2E2E2E2E2E2E2E2F5E2E2E2E2E2E2E2E2E2E2E2E2E2E2E2E2F5E2E2E2F5F5E2E2E2F5E2E2E2
310
E2E2E2E2E2E2E2E2E2E2E2E2E2F5E2E2E2E2E2E2E2E2E2E2E2E2E2E2E2E2E2E2E2E2E2E2E2E2E2E2E2E2E2E2E2E2E2E2E2E2E2E2E2E2E2E2E2E2E2E2E2E2E2E2E2E2E2E2E2E2E2E2E2E2E2E2E2E2E2E2E2E2E2E2E2E2E2E2E2E2E2E2E2E2E2E2E2E2E2E2E2E2E2E2E2E2E2E2E2E2E2E2E2E2E2E2E2E2E2E2E2E2E2E2E2E2E2
310
E2E2E2E2E2E2E2E2E2E2E2E2E2E2E2E2E2E2E2E2E2E2E2F5E2E2E2E2E2E2E2E2E2E2E2E2E2E2E2E2F5E2E2E2F5F5E2E2E2E2E2E2E2E2E2E2E2E2E2E2E2E2E2E2E2E2F5E2E2E2E2E2E2E2E2E2E2E2E2E2E2E2E2E2E2E2E2E2E2E2E2E2E2E2E2E2E2E2E2E2E2E2E2E2E2E2E2E2E2E2E2E2E2E2E2E2E2E2E2E2E2E2E2E2E2E2E2
310
E2E2E2E2E2E2E2E2E2E2E2E2E2E2E2E2E2E2E2E2E2E2E2E2E2E2E2E2E2E2E2E2E2E2E2E2E2E2E2E2E2E2E2E2E2E2E2E2E2E2E2E2E2E2E2E2E2E2E2E2E2E2E2E2E2E2E2E2E2E2E2E2E2E2E2E2F5E2E2E2E2E2E2E2E2E2E2E2E2E2E2E2E2E2E2E2E2F5F5E2E2E2E2E2E2E2E2E2E2E2E2E2E2E2E2E2E2E2E2F5E2E2E2E2E2E2E2
310
E2E2E2E2E2E2E2E2E2E2E2E2E2E2E2E2E2E2E2E2E2E2E2E2E2E2E2E2E2E2E2E2E2E2E2E2E2E2E2E2E2E2E2E2E2E2E2E2E2E2E2E2E2E2E2E2E2E2E2E2E2E2E2E2E2E2E2E2E2E2E2E2E2E2E2E2E2E2E2E2E2E2E2E2E2E2E2E2E2E2E2E2E2E2E2E2E2E2E2E2E2E2E2E2E2E2E2E2E2E2E2E2E2E2E2E2E2E2E2E2E2E2E2E2E2E2E2
310
E2E2F5E2E2E2E2E2E2E2E2E2E2E2E2E2E2E2E2E2E2E2E2F5F5E2E2E2E2E2E2E2E2E2E2E2E2E2E2E2E2E2E2E2E2F5E2E2E2E2E2E2E2E2E2E2E2E2E2E2E2E2E2E2E2E2E2E2E2E2E2E2E2E2E2E2E2E2E2E2E2E2E2E2E2E2E2E2E2E2E2E2E2E2E2E2E2E2E2E2E2E2E2E2E2E2E2E2E2E2E2E2E2E2E2E2E2E2E2E2E2E2E2E2E2E2E2
310
E2E2E2E2E2E2E2E2E2E2E2E2E2E2E2E2E2E2E2E2E2E2E2E2E2E2E2E2E2E2E2E2E2E2E2E2E2E2E2E2E2E2E2E2E2E2E2E2E2E2E2E2E2E2E2F5E2E2E2E2E2E2E2E2E2E2E2E2E2E2E2E2E2E2E2E2F5F5E2E2E2E2E2E2E2E2E2E2E2E2E2E2E2E2E2E2E2E2F5E2E2E2E2E2E2E2E2E2E2E2E2E2E2E2E2E2E2E2E2E2E2E2E2E2E2E2E2
310
E2E2E2E2E2E2E2E2E2E2E2E2E2E2E2E2E2E2E2E2E2E2E2E2E2E2E2E2E2E2E2E2E2E2E2E2E2E2E2E2E2E2E2E2E2E2E2E2E2E2E2E2E2E2E2E2E2E2E2E2E2E2E2E2E2E2E2E2E2E2E2E2E2E2E2E2E2E2E2E2E2E2E2E2E2E2E2E2E2E2E2E2E2E2E2E2E2E2E2E2E2E2E2E2E2E2E2E2F5E2E2E2E2E2E2E2E2E2E2E2E2E2E2E2E2E2E2
310
E2E2F5F5E2E2E2E2E2E2E2E2E2E2E2E2E2E2E2E2E2E2E2E2F5E2E2E2E2E2E2E2E2E2E2E2E2E2E2E2E2E2E2E2E2E2E2E2E2E2E2E2E2E2E2E2E2E2E2E2E2E2E2E2E2E2E2E2E2E2E2E2E2E2E2E2E2E2E2E2E2E2E2E2E2E2E2E2E2E2E2E2E2E2E2E2E2E2E2E2E2E2E2E2E2E2E2E2E2E2E2E2E2E2E2E2E2E2E2E2E2E2E2E2E2E2E2
310
E2E2E2E2E2E2E2E2E2E2E2E2E2E2E2E2E2E2E2E2E2E2E2E2E2E2E2E2E2E2E2E2E2E2F5E2E2E2E2E2E2E2E2E2E2E2E2E2E2E2E2E2E2E2E2F5F5E2E2E2E2E2E2E2E2E2E2E2E2E2E2E2E2E2E2E2E2F5E2E2E2E2E2E2E2E2E2E2E2E2E2E2E2E2E2E2E2E2E2E2E2E2E2E2E2E2E2E2E2E2E2E2E2E2E2E2E2E2E2E2E2E2E2E2E2E2E2
310
E2E2E2E2E2E2E2E2E2E2E2E2E2E2E2E2E2E2E2E2E2E2E2E2E2E2E2E2E2E2E2E2E2E2E2E2E2E2E2E2E2E2E2E2E2E2E2E2E2E2E2E2E2E2E2E2E2E2E2E2E2E2E2E2E2E2E2E2E2E2E2E2E2E2E2E2E2E2E2E2E2E2E2E2E2E2E2F5E2E2E2E2E2E2E2E2E2E2E2E2E2E2E2E2E2E2E2E2F5F5E2E2E2E2E2E2E2E2E2E2E2E2E2E2E2E2E2
310
E2E2E2F5E2E2E2E2E2E2E2E2E2E2E2E2E2E2E2E2E2E2E2E2E2E2E2E2E2E2E2E2E2E2E2E2E2E2E2E2E2E2E2E2E2E2E2E2E2E2E2E2E2E2E2E2E2E2E2E2E2E2E2E2E2E2E2E2E2E2E2E2E2E2E2E2E2E2E2E2E2E2E2E2E2E2E2E2E2E2E2E2E2E2E2E2E2E2E2E2E2E2E2E2E2E2E2E2E2E2E2E2E2E2E2E2E2E2E2E2E2E2E2E2E2E2E2
310
E2E2E2E2E2E2E2E2E2E2E2E2E2F5E2E2E2E2E2E2E2E2E2E2E2E2E2E2E2E2E2E2E2E2F5F5E2E2E2E2E2E2E2E2E2E2E2E2E2E2E2E2E2E2E2E2F5E2E2E2E2E2E2E2E2E2E2E2E2E2E2E2E2E2E2E2E2E2E2E2E2E2E2E2E2E2E2E2E2E2E2E2E2E2E2E2E2E2E2E2E2E2E2E2E2E2E2E2E2E2E2E2E2E2E2E2E2E2E2E2E2E2E2E2E2E2E2
310
E2E2E2E2E2E2E2E2E2E2E2E2E2E2E2E2E2E2E2E2E2E2E2E2E2E2E2E2E2E2E2E2E2E2E2E2E2E2E2E2E2E2E2E2E2E2E2E2E2E2E2E2E2E2E2E2E2E2E2E2E2E2E2E2E2E2F5E2E2E2E2E2E2E2E2E2E2E2E2E2E2E2E2E2E2E2E2F5F5E2E2E2E2E2E2E2E2E2E2E2E2E2E2E2E2E2E2E2E2F5E2E2E2E2E2E2E2E2E2E2E2E2E2E2E2E2E2
310
E2E2E2E2E2E2E2E2E2E2E2E2E2E2E2E2E2E2E2E2E2E2E2E2E2E2E2E2E2E2E2E2E2E2E2E2E2E2E2E2E2E2E2E2E2E2E2E2E2E2E2E2E2E2E2E2E2E2E2E2E2E2E2E2E2E2E2E2E2E2E2E2E2E2E2E2E2E2E2E2E2E2E2E2E2E2E2E2E2E2E2E2E2E2E2E2E2E2E2E2E2E2E2E2E2E2E2E2E2E2E2E2E2E2E2E2E2E2E2F5E2E2E2E2E2E2E2
310
E2E2E2E2E2E2E2E2E2E2E2E2E2F5F5E2E2E2F5E2E2E2E2E2E2E2E2E2E2E2E2E2E2E2E2F5E2E2E2E2E2E2E2E2E2E2E2E2E2E2E2E2E2E2E2E2E2E2E2E2E2E2E2E2E2E2E2E2E2E2E2E2E2E2E2E2E2E2E2E2E2E2E2E2E2E2E2E2E2E2E2E2E2E2E2E2E2E2E2E2E2E2E2E2E2E2E2E2E2E2E2E2E2E2E2E2E2E2E2E2E2E2E2E2E2E2E2
310
E2E2E2E2E2E2E2E2E2E2E2E2E2E2E2E2E2E2E2E2E2E2E2E2E2E2E2E2E2E2E2E2E2E2E2E2E2E2E2E2E2E2E2E2E2F5E2E2E2E2E2E2E2E2E2E2E2E2E2E2E2E2F5E2E2E2F5F5E2E2E2F5E2E2E2E2E2E2E2E2E2E2E2E2E2E2E2E2F5E2E2E2E2E2E2E2E2E2E2E2E2E2E2E2E2E2E2E2E2E2E2E2E2E2E2E2E2E2E2E2E2E2E2E2E2E2E2
310
E2E2E2E2E2E2E2E2E2E2E2E2E2E2E2E2E2E2E2E2E2E2E2E2E2E2E2E2E2E2E2E2E2E2E2E2E2E2E2E2E2E2E2E2E2E2E2E2E2E2E2E2E2E2E2E2E2E2E2E2E2E2E2E2E2E2E2E2E2E2E2E2E2E2E2E2E2E2E2E2E2E2E2E2E2E2E2E2E2E2E2E2E2E2E2E2E2E2F5E2E2E2E2E2E2E2E2E2E2E2E2E2E2E2E2F5E2E2E2F5F5E2E2E2F5E2E2
310
E2E2E2E2E2E2E2E2E2E2E2E2E2E2F5E2E2E2E2E2E2E2E2E2E2E2E2E2E2E2E2E2E2E2E2E2E2E2E2E2E2E2E2E2E2E2E2E2E2E2E2E2E2E2E2E2E2E2E2E2E2E2E2E2E2E2E2E2E2E2E2E2E2E2E2E2E2E2E2E2E2E2E2E2E2E2E2E2E2E2E2E2E2E2E2E2E2E2E2E2E2E2E2E2E2E2E2E2E2E2E2E2E2E2E2E2E2E2E2E2E2E2E2E2E2E2E2
310
E2E2E2E2E2E2E2E2E2E2E2E2E2E2E2E2E2E2E2E2E2E2E2E2F5E2E2E2E2E2E2E2E2E2E2E2E2E2E2E2E2F5E2E2E2F5F5E2E2E2F5E2E2E2E2E2E2E2E2E2E2E2E2E2E2E2E2F5E2E2E2E2E2E2E2E2E2E2E2E2E2E2E2E2E2E2E2E2E2E2E2E2E2E2E2E2E2E2E2E2E2E2E2E2E2E2E2E2E2E2E2E2E2E2E2E2E2E2E2E2E2E2E2E2E2E2E2
310
E2E2E2E2E2E2E2E2E2E2E2E2E2E2E2E2E2E2E2E2E2E2E2E2E2E2E2E2E2E2E2E2E2E2E2E2E2E2E2E2E2E2E2E2E2E2E2E2E2E2E2E2E2E2E2E2E2E2E2E2E2E2E2E2E2E2E2E2E2E2E2E2E2E2E2E2E2F5E2E2E2E2E2E2E2E2E2E2E2E2E2E2E2E2F5E2E2E2F5F5E2E2E2F5E2E2E2E2E2E2E2E2E2E2E2E2E2E2E2E2F5E2E2E2E2E2E2
310
E2E2E2E2E2E2E2E2E2E2E2E2E2E2E2E2E2E2E2E2E2E2E2E2E2E2E2E2E2E2E2E2E2E2E2E2E2E2E2E2E2E2E2E2E2E2E2E2E2E2E2E2E2E2E2E2E2E2E2E2E2E2E2E2E2E2E2E2E2E2E2E2E2E2E2E2E2E2E2E2E2E2E2E2E2E2E2E2E2E2E2E2E2E2E2E2E2E2E2E2E2E2E2E2E2E2E2E2E2E2E2E2E2E2E2E2E2E2E2E2E2E2E2E2E2E2E2
310
E2E2E2F5E2E2E2E2E2E2E2E2E2E2E2E2E2E2E2E2F5E2E2E2F5F5E2E2E2F5E2E2E2E2E2E2E2E2E2E2E2E2E2E2E2E2F5E2E2E2E2E2E2E2E2E2E2E2E2E2E2E2E2E2E2E2E2E2E2E2E2E2E2E2E2E2E2E2E2E2E2E2E2E2E2E2E2E2E2E2E2E2E2E2E2E2E2E2E2E2E2E2E2E2E2E2E2E2E2E2E2E2E2E2E2E2E2E2E2E2E2E2E2E2E2E2E2
310
E2E2E2E2E2E2E2E2E2E2E2E2E2E2E2E2E2E2E2E2E2E2E2E2E2E2E2E2E2E2E2E2E2E2E2E2E2E2E2E2E2E2E2E2E2E2E2E2E2E2E2E2E2E2E2E2F5E2E2E2E2E2E2E2E2E2E2E2E2E2E2E2E2F5E2E2E2F5F5E2E2E2F5E2E2E2E2E2E2E2E2E2E2E2E2E2E2E2E2F5E2E2E2E2E2E2E2E2E2E2E2E2E2E2E2E2E2E2E2E2E2E2E2E2E2E2E2
310
E2E2E2E2E2E2E2E2E2E2E2E2E2E2E2E2E2E2E2E2E2E2E2E2E2E2E2E2E2E2E2E2E2E2E2E2E2E2E2E2E2E2E2E2E2E2E2E2E2E2E2E2E2E2E2E2E2E2E2E2E2E2E2E2E2E2E2E2E2E2E2E2E2E2E2E2E2E2E2E2E2E2E2E2E2E2E2E2E2E2E2E2E2E2E2E2E2E2E2E2E2E2E2E2E2E2E2E2E2F5E2E2E2E2E2E2E2E2E2E2E2E2E2E2E2E2F5
310
E2E2E2F5F5E2E2E2F5E2E2E2E2E2E2E2E2E2E2E2E2E2E2E2E2F5E2E2E2E2E2E2E2E2E2E2E2E2E2E2E2E2E2E2E2E2E2E2E2E2E2E2E2E2E2E2E2E2E2E2E2E2E2E2E2E2E2E2E2E2E2E2E2E2E2E2E2E2E2E2E2E2E2E2E2E2E2E2E2E2E2E2E2E2E2E2E2E2E2E2E2E2E2E2E2E2E2E2E2E2E2E2E2E2E2E2E2E2E2E2E2E2E2E2E2E2E2
310
E2E2E2E2E2E2E2E2E2E2E2E2E2E2E2E2E2E2E2E2E2E2E2E2E2E2E2E2E2E2E2E2E2E2E2F5E2E2E2E2E2E2E2E2E2E2E2E2E2E2E2E2F5E2E2E2F5F5E2E2E2F5E2E2E2E2E2E2E2E2E2E2E2E2E2E2E2E2F5E2E2E2E2E2E2E2E2E2E2E2E2E2E2E2E2E2E2E2E2E2E2E2E2E2E2E2E2E2E2E2E2E2E2E2E2E2E2E2E2E2E2E2E2E2E2E2E2
310
E2E2E2E2E2E2E2E2E2E2E2E2E2E2E2E2E2E2E2E2E2E2E2E2E2E2E2E2E2E2E2E2E2E2E2E2E2E2E2E2E2E2E2E2E2E2E2E2E2E2E2E2E2E2E2E2E2E2E2E2E2E2E2E2E2E2E2E2E2E2E2E2E2E2E2E2E2E2E2E2E2E2E2E2E2E2E2E2F5E2E2E2E2E2E2E2E2E2E2E2E2E2E2E2E2F5E2E2E2F5F5E2E2E2F5E2E2E2E2E2E2E2E2E2E2E2E2
310
E2E2E2E2F5E2E2E2E2E2E2E2E2E2E2E2E2E2E2E2E2E2E2E2E2E2E2E2E2E2E2E2E2E2E2E2E2E2E2E2E2E2E2E2E2E2E2E2E2E2E2E2E2E2E2E2E2E2E2E2E2E2E2E2E2E2E2E2E2E2E2E2E2E2E2E2E2E2E2E2E2E2E2E2E2E2E2E2E2E2E2E2E2E2E2E2E2E2E2E2E2E2E2E2E2E2E2E2E2E2E2E2E2E2E2E2E2E2E2E2E2E2E2E2E2E2E2
310
E2E2E2E2E2E2E2E2E2E2E2E2E2E2F5E2E2E2E2E2E2E2E2E2E2E2E2E2E2E2E2F5E2E2E2F5F5E2E2E2F5E2E2E2E2E2E2E2E2E2E2E2E2E2E2E2E2F5E2E2E2E2E2E2E2E2E2E2E2E2E2E2E2E2E2E2E2E2E2E2E2E2E2E2E2E2E2E2E2E2E2E2E2E2E2E2E2E2E2E2E2E2E2E2E2E2E2E2E2E2E2E2E2E2E2E2E2E2E2E2E2E2E2E2E2E2E2
310
E2E2E2E2E2E2E2E2E2E2E2E2E2E2E2E2E2E2E2E2E2E2E2E2E2E2E2E2E2E2E2E2E2E2E2E2E2E2E2E2E2E2E2E2E2E2E2E2E2E2E2E2E2E2E2E2E2E2E2E2E2E2E2E2E2E2E2F5E2E2E2E2E2E2E2E2E2E2E2E2E2E2E2E2F5E2E2E2F5F5E2E2E2F5E2E2E2E2E2E2E2E2E2E2E2E2E2E2E2E2F5E2E2E2E2E2E2E2E2E2E2E2E2E2E2E2E2
310
E2E2E2E2E2E2E2E2E2E2E2E2E2E2E2E2E2E2E2E2E2E2E2E2E2E2E2E2E2E2E2E2E2E2E2E2E2E2E2E2E2E2E2E2E2E2E2E2E2E2E2E2E2E2E2E2E2E2E2E2E2E2E2E2E2E2E2E2E2E2E2E2E2E2E2E2E2E2E2E2E2E2E2E2E2E2E2E2E2E2E2E2E2E2E2E2E2E2E2E2E2E2E2E2E2E2E2E2E2E2E2E2E2E2E2E2E2E2E2E2F5E2E2E2E2E2E2
310
E2E2E2E2E2E2E2E2E2E2F5E2E2E2F5F5E2E2E2F5E2E2E2E2E2E2E2E2E2E2E2E2E2E2E2E2F5E2E2E2E2E2E2E2E2E2E2E2E2E2E2E2E2E2E2E2E2E2E2E2E2E2E2E2E2E2E2E2E2E2E2E2E2E2E2E2E2E2E2E2E2E2E2E2E2E2E2E2E2E2E2E2E2E2E2E2E2E2E2E2E2E2E2E2E2E2E2E2E2E2E2E2E2E2E2E2E2E2E2E2E2E2E2E2E2E2E2
310
E2E2E2E2E2E2E2E2E2E2E2E2E2E2E2E2E2E2E2E2E2E2E2E2E2E2E2E2E2E2E2E2E2E2E2E2E2E2E2E2E2E2E2E2E2E2F5E2E2E2E2E2E2E2E2E2E2E2E2E2E2E2E2F5E2E2E2F5F5E2E2E2F5E2E2E2E2E2E2E2E2E2E2E2E2E2E2E2E2F5E2E2E2E2E2E2E2E2E2E2E2E2E2E2E2E2E2E2E2E2E2E2E2E2E2E2E2E2E2E2E2E2E2E2E2E2E2
310
E2E2E2E2E2E2E2E2E2E2E2E2E2E2E2E2E2E2E2E2E2E2E2E2E2E2E2E2E2E2E2E2E2E2E2E2E2E2E2E2E2E2E2E2E2E2E2E2E2E2E2E2E2E2E2E2E2E2E2E2E2E2E2E2E2E2E2E2E2E2E2E2E2E2E2E2E2E2E2E2E2E2E2E2E2E2E2E2E2E2E2E2E2E2E2E2E2E2E2F5E2E2E2E2E2E2E2E2E2E2E2E2E2E2E2E2F5E2E2E2F5F5E2E2E2F5E2
310
E2E2E2E2E2E2E2E2E2E2E2E2E2E2E2F5E2E2E2E2E2E2E2E2E2E2E2E2E2E2E2E2E2E2E2E2E2E2E2E2E2E2E2E2E2E2E2E2E2E2E2E2E2E2E2E2E2E2E2E2E2E2E2E2E2E2E2E2E2E2E2E2E2E2E2E2E2E2E2E2E2E2E2E2E2E2E2E2E2E2E2E2E2E2E2E2E2E2E2E2E2E2E2E2E2E2E2E2E2E2E2E2E2E2E2E2E2E2E2E2E2E2E2E2E2E2E2
310
E2E2E2E2E2E2E2E2E2E2E2E2E2E2E2E2E2E2E2E2E2E2E2E2E2F5E2E2E2E2E2E2E2E2E2E2E2E2E2E2E2E2F5E2E2E2F5F5E2E2E2F5E2E2E2E2E2E2E2E2E2E2E2E2E2E2E2E2F5E2E2E2E2E2E2E2E2E2E2E2E2E2E2E2E2E2E2E2E2E2E2E2E2E2E2E2E2E2E2E2E2E2E2E2E2E2E2E2E2E2E2E2E2E2E2E2E2E2E2E2E2E2E2E2E2E2E2
310
E2E2E2E2E2E2E2E2E2E2E2E2E2E2E2E2E2E2E2E2E2E2E2E2E2E2E2E2E2E2E2E2E2E2E2E2E2E2E2E2E2E2E2E2E2E2E2E2E2E2E2E2E2E2E2E2E2E2E2E2E2E2E2E2E2E2E2E2E2E2E2E2E2E2E2E2E2E2F5E2E2E2E2E2E2E2E2E2E2E2E2E2E2E2E2F5E2E2E2F5F5E2E2E2F5E2E2E2E2E2E2E2E2E2E2E2E2E2E2E2E2F5E2E2E2E2E2
310
E2E2E2E2E2E2E2E2E2E2E2E2E2E2E2E2E2E2E2E2E2E2E2E2E2E2E2E2E2E2E2E2E2E2E2E2E2E2E2E2E2E2E2E2E2E2E2E2E2E2E2E2E2E2E2E2E2E2E2E2E2E2E2E2E2E2E2E2E2E2E2E2E2E2E2E2E2E2E2E2E2E2E2E2E2E2E2E2E2E2E2E2E2E2E2E2E2E2E2E2E2E2E2E2E2E2E2E2E2E2E2E2E2E2E2E2E2E2E2E2E2E2E2E2E2E2E2
310
E2E2E2E2F5E2E2E2E2E2E2E2E2E2E2E2E2E2E2E2E2F5E2E2E2F5F5E2E2E2E2E2E2E2E2E2E2E2E2E2E2E2E2E2E2E2E2F5E2E2E2E2E2E2E2E2E2E2E2E2E2E2E2E2E2E2E2E2E2E2E2E2E2E2E2E2E2E2E2E2E2E2E2E2E2E2E2E2E2E2E2E2E2E2E2E2E2E2E2E2E2E2E2E2E2E2E2E2E2E2E2E2E2E2E2E2E2E2E2E2E2E2E2E2E2E2E2
310
E2E2E2E2E2E2E2E2E2E2E2E2E2E2E2E2E2E2E2E2E2E2E2E2E2E2E2E2E2E2E2E2E2E2E2E2E2E2E2E2E2E2E2E2E2E2E2E2E2E2E2E2E2E2E2E2E2F5E2E2E2E2E2E2E2E2E2E2E2E2E2E2E2E2E2E2E2E2F5F5E2E2E2E2E2E2E2E2E2E2E2E2E2E2E2E2E2E2E2E2F5E2E2E2E2E2E2E2E2E2E2E2E2E2E2E2E2E2E2E2E2E2E2E2E2E2E2
310
E2E2E2E2E2E2E2E2E2E2E2E2E2E2E2E2E2E2E2E2E2E2E2E2E2E2E2E2E2E2E2E2E2E2E2E2E2E2E2E2E2E2E2E2E2E2E2E2E2E2E2E2E2E2E2E2E2E2E2E2E2E2E2E2E2E2E2E2E2E2E2E2E2E2E2E2E2E2E2E2E2E2E2E2E2E2E2E2E2E2E2E2E2E2E2E2E2E2E2E2E2E2E2E2E2E2E2E2E2E2F5E2E2E2E2E2E2E2E2E2E2E2E2E2E2E2E2
310
E2E2E2E2F5F5E2E2E2E2E2E2E2E2E2E2E2E2E2E2E2E2E2E2E2E2F5E2E2E2E2E2E2E2E2E2E2E2E2E2E2E2E2E2E2E2E2E2E2E2E2E2E2E2E2E2E2E2E2E2E2E2E2E2E2E2E2E2E2E2E2E2E2E2E2E2E2E2E2E2E2E2E2E2E2E2E2E2E2E2E2E2E2E2E2E2E2E2E2E2E2E2E2E2E2E2E2E2E2E2E2E2E2E2E2E2E2E2E2E2E2E2E2E2E2E2E2
310
E2E2E2E2E2E2E2E2E2E2E2E2E2E2E2E2E2E2E2E2E2E2E2E2E2E2E2E2E2E2E2E2E2E2E2E2F5E2E2E2E2E2E2E2E2E2E2E2E2E2E2E2E2E2E2E2E2F5F5E2E2E2E2E2E2E2E2E2E2E2E2E2E2E2E2E2E2E2E2F5E2E2E2E2E2E2E2E2E2E2E2E2E2E2E2E2E2E2E2E2E2E2E2E2E2E2E2E2E2E2E2E2E2E2E2E2E2E2E2E2E2E2E2E2E2E2E2
310
E2E2E2E2E2E2E2E2E2E2E2E2E2E2E2E2E2E2E2E2E2E2E2E2E2E2E2E2E2E2E2E2E2E2E2E2E2E2E2E2E2E2E2E2E2E2E2E2E2E2E2E2E2E2E2E2E2E2E2E2E2E2E2E2E2E2E2E2E2E2E2E2E2E2E2E2E2E2E2E2E2E2E2E2E2E2E2E2E2F5E2E2E2E2E2E2E2E2E2E2E2E2E2E2E2E2E2E2E2E2F5F5E2E2E2E2E2E2E2E2E2E2E2E2E2E2E2
310
E2E2E2E2E2F5F5F5F5F5F5F5F5F5F5F5F5F5F5F5F5F5F5F5F5F5F5F5F5F5F5F5F5F5F5F5F5F5F5F5F5F5F5F5F5F5F5F5F5F5F5F5F5F5F5F5F5F5F5F5F5F5F5F5F5F5F5F5F5F5F5F5F5F5F5F5F5F5F5F5F5F5F5F5F5F5F5F5F5F5F5F5F5F5F5F5F5F5F5F5F5F5F5F5F5F5F5F5F5F5F5F5F5F5F5F5F5F5F5F5F5F5F5F5F5F5F5
310
F5F5F5F5F5F5F5F5F5F5F5F5F5F5F5F5E2E2E2E2E2E2E2E2E2E2E2E2E2E2E2E2E2E2E2E2F5F5E2E2E2E2E2E2E2E2E2E2E2E2E2E2E2E2E2E2E2E2E2E2E2E2E2E2E2E2E2E2E2E2E2E2E2E2E2E2E2E2E2E2E2E2E2E2E2E2E2E2E2E2E2E2E2E2E2E2E2E2E2E2E2E2E2E2E2E2E2E2E2E2E2E2E2E2E2E2E2E2E2E2E2E2E2E2E2E2E2
310
E2E2E2E2E2E2E2E2E2E2E2E2E2E2E2E2E2E2E2E2E2E2E2E2E2E2E2E2E2E2E2E2E2E2E2E2E2E2E2E2E2E2E2E2E2E2E2E2E2E2E2E2E2E2E2E2E2E2E2E2E2E2E2E2E2E2E2E2E2E2E2E2E2E2E2E2E2E2E2E2E2E2E2E2E2E2E2E2E2F5F5E2E2E2E2E2E2E2E2E2E2E2E2E2E2E2E2E2E2E2E2E2E2E2E2E2E2E2E2E2E2E2E2E2E2E2E2
310
E2E2E2E2E2E2E2E2E2E2E2E2E2E2E2E2E2E2E2E2E2E2E2E2E2E2E2E2E2E2E2E2E2E2E2E2E2E2E2E2E2E2E2E2E2E2E2E2E2E2E2E2E2E2E2E2E2E2E2E2E2E2E2E2E2E2E2E2E2E2E2E2E2E2E2E2E2E2E2E2E2E2E2E2E2E2E2E2E2E2E2E2E2E2E2E2E2E2E2E2E2E2E2E2E2E2E2E2E2E2E2E2E2E2E2E2E2E2E2E2E2E2E2E2E2E2E2
310
E2E2E2E2E2E2E2E2E2E2E2E2E2E2E2F5F5E2E2E2E2E2E2E2E2E2E2E2E2E2E2E2E2E2E2E2E2E2E2E2E2E2E2E2E2E2E2E2E2E2E2E2E2E2E2E2E2E2E2E2E2E2E2E2E2E2E2E2E2E2E2E2E2E2E2E2E2E2E2E2E2E2E2E2E2E2E2E2E2E2E2E2E2E2E2E2E2E2E2E2E2E2E2E2E2E2E2E2E2E2E2E2E2E2E2E2E2E2E2E2E2E2E2E2E2E2E2
310
E2E2E2E2E2E2E2E2E2E2E2E2E2E2E2E2E2E2E2E2E2E2E2E2E2E2E2E2E2E2E2E2E2E2E2E2E2E2E2E2E2E2E2E2E2E2E2E2E2E2E2E2E2E2E2E2E2E2E2E2E2E2E2E2E2E2E2E2F5F5E2E2E2E2E2E2E2E2E2E2E2E2E2E2E2E2E2E2E2E2E2E2E2E2E2E2E2E2E2E2E2E2E2E2E2E2E2E2E2E2E2E2E2E2E2E2E2E2E2E2E2E2E2E2E2E2E2
310
E2E2E2E2E2E2E2E2E2E2E2E2E2E2E2E2E2E2E2E2E2E2E2E2E2E2E2E2E2E2E2E2E2E2E2E2E2E2E2E2E2E2E2E2E2E2E2E2E2E2E2E2E2E2E2E2E2E2E2E2E2E2E2E2E2E2E2E2E2E2E2E2E2E2E2E2E2E2E2E2E2E2E2E2E2E2E2E2E2E2E2E2E2E2E2E2E2E2E2E2E2E2E2E2E2E2E2E2E2E2E2E2E2E2E2E2E2E2E2E2E2F5F5E2E2E2F5
310
E2E2E2E2E2E2E2E2E2E2E2E2E2E2E2E2E2E2E2E2E2E2E2E2E2E2E2E2E2E2E2E2E2E2E2E2E2E2E2E2E2E2E2E2E2E2E2E2E2E2E2E2E2E2E2E2E2E2E2E2E2E2E2E2E2E2E2E2E2E2E2E2E2E2E2E2E2E2E2E2E2E2E2E2E2E2E2E2E2E2E2E2E2E2E2E2E2E2E2E2E2E2E2E2E2E2E2E2E2E2E2E2E2E2E2E2E2E2E2E2E2E2E2E2E2E2E2
310
E2E2E2E2E2E2E2E2E2E2E2E2E2E2E2E2E2E2E2E2E2E2E2E2E2E2E2E2E2E2E2E2E2E2E2E2E2E2E2E2E2E2E2F5E2E2E2F5F5E2E2E2F5E2E2E2E2E2E2E2E2E2E2E2E2E2E2E2E2E2E2E2E2E2E2E2E2E2E2E2E2E2E2E2E2E2E2E2E2E2E2E2E2E2E2E2E2E2E2E2E2E2E2E2E2E2E2E2E2E2E2E2E2E2E2E2E2E2E2E2E2E2E2E2E2E2E2
310
E2E2E2E2E2E2E2E2E2E2E2E2E2E2E2E2E2E2E2E2E2E2E2E2E2E2E2E2E2E2E2E2E2E2E2E2E2E2E2E2E2E2E2E2E2E2E2E2E2E2E2E2E2E2E2E2E2E2E2E2E2E2E2E2E2E2E2E2E2E2E2E2E2E2E2E2E2E2E2E2E2E2E2E2E2E2E2E2E2E2E2E2E2E2E2E2F5E2E2E2F5F5E2E2E2F5E2E2E2E2E2E2E2E2E2E2E2E2E2E2E2E2E2E2E2E2E2
310
E2E2E2E2E2E2E2E2E2E2E2E2E2E2E2E2E2E2E2E2E2E2E2E2E2E2E2E2E2E2E2E2E2E2E2E2E2E2E2E2E2E2E2E2E2E2E2E2E2E2E2E2E2E2E2E2E2E2E2E2E2E2E2E2E2E2E2E2E2E2E2E2E2E2E2E2E2E2E2E2E2E2E2E2E2E2E2E2E2E2E2E2E2E2E2E2E2E2E2E2E2E2E2E2E2E2E2E2E2E2E2E2E2E2E2E2E2E2E2E2E2E2E2E2E2E2E2
310
E2E2E2E2E2E2E2E2E2E2E2E2E2E2E2E2E2E2E2E2E2E2F5E2E2E2F5F5E2E2E2F5E2E2E2E2E2E2E2E2E2E2E2E2E2E2E2E2E2E2E2E2E2E2E2E2E2E2E2E2E2E2E2E2E2E2E2E2E2E2E2E2E2E2E2E2E2E2E2E2E2E2E2E2E2E2E2E2E2E2E2E2E2E2E2E2E2E2E2E2E2E2E2E2E2E2E2E2E2E2E2E2E2E2E2E2E2E2E2E2E2E2E2E2E2E2E2
310
E2E2E2E2E2E2E2E2E2E2E2E2E2E2E2E2E2E2E2E2E2E2E2E2E2E2E2E2E2E2E2E2E2E2E2E2E2E2E2E2E2E2E2E2E2E2E2E2E2E2E2E2E2E2E2E2E2E2E2E2E2E2E2E2E2E2E2E2E2E2E2E2E2E2E2F5E2E2E2F5F5E2E2E2F5E2E2E2E2E2E2E2E2E2E2E2E2E2E2E2E2E2E2E2E2E2E2E2E2E2E2E2E2E2E2E2E2E2E2E2E2E2E2E2E2E2E2
310
E2E2E2E2E2E2E2E2E2E2E2E2E2E2E2E2E2E2E2E2E2E2E2E2E2E2E2E2E2E2E2E2E2E2E2E2E2E2E2E2E2E2E2E2E2E2E2E2E2E2E2E2E2E2E2E2E2E2E2E2E2E2E2E2E2E2E2E2E2E2E2E2E2E2E2E2E2E2E2E2E2E2E2E2E2E2E2E2E2E2E2E2E2E2E2E2E2E2E2E2E2E2E2E2E2E2E2E2E2E2E2E2E2E2E2E2E2E2E2E2E2E2E2E2E2E2E2
310
E2F5E2E2E2F5F5E2E2E2F5E2E2E2E2E2E2E2E2E2E2E2E2E2E2E2E2E2E2E2E2E2E2E2E2E2E2E2E2E2E2E2E2E2E2E2E2E2E2E2E2E2E2E2E2E2E2E2E2E2E2E2E2E2E2E2E2E2E2E2E2E2E2E2E2E2E2E2E2E2E2E2E2E2E2E2E2E2E2E2E2E2E2E2E2E2E2E2E2E2E2E2E2E2E2E2E2E2E2E2E2E2E2E2E2E2E2E2E2E2E2E2E2E2E2E2E2
310
E2E2E2E2E2E2E2E2E2E2E2E2E2E2E2E2E2E2E2E2E2E2E2E2E2E2E2E2E2E2E2E2E2E2E2E2E2E2E2E2E2E2E2E2E2E2E2E2E2E2E2E2E2E2F5E2E2E2F5F5E2E2E2F5E2E2E2E2E2E2E2E2E2E2E2E2E2E2E2E2E2E2E2E2E2E2E2E2E2E2E2E2E2E2E2E2E2E2E2E2E2E2E2E2E2E2E2E2E2E2E2E2E2E2E2E2E2E2E2E2E2E2E2E2E2E2E2
310
E2E2E2E2E2E2E2E2E2E2E2E2E2E2E2E2E2E2E2E2E2E2E2E2E2E2E2E2E2E2E2E2E2E2E2E2E2E2E2E2E2E2E2E2E2E2E2E2E2E2E2E2E2E2E2E2E2E2E2E2E2E2E2E2E2E2E2E2E2E2E2E2E2E2E2E2E2E2E2E2E2E2E2E2E2E2E2E2E2E2E2E2E2E2E2E2E2E2E2E2E2E2E2E2E2E2E2F5E2E2E2F5F5E2E2E2F5E2E2E2E2E2E2E2E2E2E2
310
E2E2E2E2E2E2E2E2E2E2E2E2E2E2E2E2E2E2E2E2E2E2E2E2E2E2E2E2E2E2E2E2E2E2E2E2E2E2E2E2E2E2E2E2E2E2E2E2E2E2E2E2E2E2E2E2E2E2E2E2E2E2E2E2E2E2E2E2E2E2E2E2E2E2E2E2E2E2E2E2E2E2E2E2E2E2E2E2E2E2E2E2E2E2E2E2E2E2E2E2E2E2E2E2E2E2E2E2E2E2E2E2E2E2E2E2E2E2E2E2E2E2E2E2E2E2E2
310
E2E2E2E2E2E2E2E2E2E2E2E2E2E2E2E2E2E2E2E2E2E2E2E2E2E2E2E2E2E2E2E2E2F5E2E2E2F5F5E2E2E2F5F5F5F5F5F5F5F5E2E2E2E2E2E2E2E2E2F5F5F5F5F5F5F5F5F5F5F5F5F5F5F5F5E2E2E2E2E2E2E2E2E2F5F5F5F5F5F5F5F5F5F5F5F5F5F5F5E2E2E2E2E2E2E2E2E2F5F5F5F5F5F5F5F5F5F5F5F5F5F5F5F5E2E2E2
310
E2E2E2E2E2F5F5F5F5F5F5F5F5F5F5F5F5F5F5F5F5E2E2E2E2E2E2E2E2E2F5F5F5F5F5F5F5F5F5F5F5F5F5F5F5E2E2E2E2E2E2E2E2E2F5F5F5F5F5F5F5F5F5F5F5F5F5F5F5F5E2E2E2E2E2E2E2E2E2F5F5F5F5F5F5F5F5E2E2E2F5F5E2E2E2E2E2E2E2E2E2E2E2E2E2E2E2E2E2E2E2E2E2E2E2E2E2E2E2E2E2E2E2E2E2E2E2
310
E2E2E2E2E2E2E2E2E2E2E2E2E2E2E2E2E2E2E2E2E2E2E2E2E2E2E2E2E2E2E2E2E2E2E2E2E2E2E2E2E2E2E2E2E2E2E2E2E2E2E2E2E2E2E2E2E2E2E2E2E2E2E2E2E2E2E2E2E2E2E2E2E2E2E2E2E2E2E2E2E2E2E2E2E2E2E2E2E2E2E2E2E2E2E2E2E2E2E2E2E2E2E2E2E2E2E2E2E2E2E2E2E2E2E2E2E2E2E2E2E2E2E2E2E2E2E2
310
E2E2E2E2E2E2E2E2E2E2E2E2E2E2E2E2F5F5E2E2E2E2E2E2E2E2E2E2E2E2E2E2E2E2E2E2E2E2E2E2E2E2E2E2E2E2E2E2E2E2E2E2E2E2E2E2E2E2E2E2E2E2E2E2E2E2E2E2E2E2E2E2E2E2E2E2E2E2E2E2E2E2E2E2E2E2E2E2E2E2E2E2E2E2E2E2E2E2E2E2E2E2E2E2E2E2E2E2E2E2E2E2E2E2E2E2E2E2E2E2E2E2E2E2E2E2E2
310
E2E2E2E2E2E2E2E2E2E2E2E2E2E2E2E2E2E2E2E2E2E2E2E2E2E2E2E2E2E2E2E2E2E2E2E2E2E2E2E2E2E2E2E2E2E2E2E2E2E2E2E2E2E2E2E2E2E2E2E2E2E2E2E2E2E2E2E2E2F5F5E2E2E2E2E2E2E2E2E2E2E2E2E2E2E2E2E2E2E2E2E2E2E2E2E2E2E2E2E2E2E2E2E2E2E2E2E2E2E2E2E2E2E2E2E2E2E2E2E2E2E2E2E2E2E2E2
310
E2E2E2E2E2E2E2E2E2E2E2E2E2E2E2E2E2E2E2E2E2E2E2E2E2E2E2E2E2E2E2E2E2E2E2E2E2E2E2E2E2E2E2E2E2E2E2E2E2E2E2E2E2E2E2E2E2E2E2E2E2E2E2E2E2E2E2E2E2E2E2E2E2E2E2E2E2E2E2E2E2E2E2E2E2E2E2E2E2E2E2E2E2E2E2E2E2E2E2E2E2E2E2E2E2E2E2E2E2E2E2E2E2E2E2E2E2E2E2E2E2E2F5F5E2E2E2
310
E2E2E2E2E2E2E2E2E2E2E2E2E2E2E2E2E2E2E2E2E2E2E2E2E2E2E2E2E2E2E2E2E2E2E2E2E2E2E2E2E2E2E2E2E2E2E2E2E2E2E2E2E2E2E2E2E2E2E2E2E2E2E2E2E2E2E2E2E2E2E2E2E2E2E2E2E2E2E2E2E2E2E2E2E2E2E2E2E2E2E2E2E2E2E2E2E2E2E2E2E2E2E2E2E2E2E2E2E2E2E2E2E2E2E2E2E2E2E2E2E2E2E2E2E2E2E2
310
E2E2E2E2E2E2E2E2E2E2E2E2E2E2E2E2E2E2E2E2E2E2E2E2E2E2E2E2E2E2E2E2E2E2E2E2E2E2E2E2E2E2E2E2E2E2E2E2F5
  0
XRECORD
  5
5696F
102
{ACAD_REACTORS
330
5696E
102
}
330
5696E
100
AcDbXrecord
280
     1
102
SHADEPLOT
 70
     0
102
SHADEPLOTRESLEVEL
 70
     2
102
SHADEPLOTCUSTOMDPI
 70
   300
  0
ENDSEC
  0
EOF
