  0
SECTION
  2
HEADER
  9
$ACADVER
  1
AC1015
  9
$ACADMAINTVER
 70
    20
  9
$DWGCODEPAGE
  3
ANSI_936
  9
$INSBASE
 10
0.0
 20
0.0
 30
0.0
  9
$EXTMIN
 10
-109.4404923998143
 20
-128.2617089097861
 30
0.0
  9
$EXTMAX
 10
600.3743256240676
 20
106.1305306604523
 30
0.0
  9
$LIMMIN
 10
0.0
 20
0.0
  9
$LIMMAX
 10
420.0
 20
297.0
  9
$ORTHOMODE
 70
     0
  9
$REGENMODE
 70
     1
  9
$FILLMODE
 70
     1
  9
$QTEXTMODE
 70
     0
  9
$MIRRTEXT
 70
     1
  9
$LTSCALE
 40
1.0
  9
$ATTMODE
 70
     1
  9
$TEXTSIZE
 40
3.5
  9
$TRACEWID
 40
1.0
  9
$TEXTSTYLE
  7
simplex
  9
$CLAYER
  8
0
  9
$CELTYPE
  6
ByLayer
  9
$CECOLOR
 62
   256
  9
$CELTSCALE
 40
1.0
  9
$DISPSILH
 70
     0
  9
$DIMSCALE
 40
0.0
  9
$DIMASZ
 40
3.5
  9
$DIMEXO
 40
0.0
  9
$DIMDLI
 40
0.38
  9
$DIMRND
 40
0.0
  9
$DIMDLE
 40
0.0
  9
$DIMEXE
 40
1.5
  9
$DIMTP
 40
0.0
  9
$DIMTM
 40
0.0
  9
$DIMTXT
 40
3.5
  9
$DIMCEN
 40
0.09
  9
$DIMTSZ
 40
0.0
  9
$DIMTOL
 70
     0
  9
$DIMLIM
 70
     0
  9
$DIMTIH
 70
     0
  9
$DIMTOH
 70
     0
  9
$DIMSE1
 70
     0
  9
$DIMSE2
 70
     0
  9
$DIMTAD
 70
     1
  9
$DIMZIN
 70
     8
  9
$DIMBLK
  1

  9
$DIMASO
 70
     1
  9
$DIMSHO
 70
     1
  9
$DIMPOST
  1

  9
$DIMAPOST
  1

  9
$DIMALT
 70
     0
  9
$DIMALTD
 70
     2
  9
$DIMALTF
 40
25.4
  9
$DIMLFAC
 40
1.0
  9
$DIMTOFL
 70
     0
  9
$DIMTVP
 40
0.0
  9
$DIMTIX
 70
     0
  9
$DIMSOXD
 70
     0
  9
$DIMSAH
 70
     0
  9
$DIMBLK1
  1

  9
$DIMBLK2
  1

  9
$DIMSTYLE
  2
\M+18352\M+18373\M+1815B - ISO-25
  9
$DIMCLRD
 70
   256
  9
$DIMCLRE
 70
   256
  9
$DIMCLRT
 70
   256
  9
$DIMTFAC
 40
1.0
  9
$DIMGAP
 40
2.299999999999998
  9
$DIMJUST
 70
     0
  9
$DIMSD1
 70
     0
  9
$DIMSD2
 70
     0
  9
$DIMTOLJ
 70
     1
  9
$DIMTZIN
 70
     8
  9
$DIMALTZ
 70
     0
  9
$DIMALTTZ
 70
     0
  9
$DIMUPT
 70
     0
  9
$DIMDEC
 70
     2
  9
$DIMTDEC
 70
     2
  9
$DIMALTU
 70
     2
  9
$DIMALTTD
 70
     2
  9
$DIMTXSTY
  7
simplex
  9
$DIMAUNIT
 70
     0
  9
$DIMADEC
 70
     0
  9
$DIMALTRND
 40
0.0
  9
$DIMAZIN
 70
     0
  9
$DIMDSEP
 70
    46
  9
$DIMATFIT
 70
     3
  9
$DIMFRAC
 70
     0
  9
$DIMLDRBLK
  1

  9
$DIMLUNIT
 70
     2
  9
$DIMLWD
 70
    -1
  9
$DIMLWE
 70
    -1
  9
$DIMTMOVE
 70
     0
  9
$LUNITS
 70
     2
  9
$LUPREC
 70
     4
  9
$SKETCHINC
 40
1.0
  9
$FILLETRAD
 40
0.5
  9
$AUNITS
 70
     0
  9
$AUPREC
 70
     0
  9
$MENU
  1
.
  9
$ELEVATION
 40
0.0
  9
$PELEVATION
 40
0.0
  9
$THICKNESS
 40
0.0
  9
$LIMCHECK
 70
     0
  9
$CHAMFERA
 40
10.0
  9
$CHAMFERB
 40
10.0
  9
$CHAMFERC
 40
20.0
  9
$CHAMFERD
 40
0.0
  9
$SKPOLY
 70
     0
  9
$TDCREATE
 40
2455489.391063368
  9
$TDUCREATE
 40
2455489.057730035
  9
$TDUPDATE
 40
2458573.037680209
  9
$TDUUPDATE
 40
2458572.704346875
  9
$TDINDWG
 40
2.7702120486
  9
$TDUSRTIMER
 40
2.7701567940
  9
$USRTIMER
 70
     1
  9
$ANGBASE
 50
0.0
  9
$ANGDIR
 70
     0
  9
$PDMODE
 70
     0
  9
$PDSIZE
 40
0.0
  9
$PLINEWID
 40
0.0
  9
$SPLFRAME
 70
     0
  9
$SPLINETYPE
 70
     6
  9
$SPLINESEGS
 70
     8
  9
$HANDSEED
  5
55F02
  9
$SURFTAB1
 70
     6
  9
$SURFTAB2
 70
     6
  9
$SURFTYPE
 70
     6
  9
$SURFU
 70
     6
  9
$SURFV
 70
     6
  9
$UCSBASE
  2

  9
$UCSNAME
  2

  9
$UCSORG
 10
0.0
 20
0.0
 30
0.0
  9
$UCSXDIR
 10
1.0
 20
0.0
 30
0.0
  9
$UCSYDIR
 10
0.0
 20
1.0
 30
0.0
  9
$UCSORTHOREF
  2

  9
$UCSORTHOVIEW
 70
     0
  9
$UCSORGTOP
 10
0.0
 20
0.0
 30
0.0
  9
$UCSORGBOTTOM
 10
0.0
 20
0.0
 30
0.0
  9
$UCSORGLEFT
 10
0.0
 20
0.0
 30
0.0
  9
$UCSORGRIGHT
 10
0.0
 20
0.0
 30
0.0
  9
$UCSORGFRONT
 10
0.0
 20
0.0
 30
0.0
  9
$UCSORGBACK
 10
0.0
 20
0.0
 30
0.0
  9
$PUCSBASE
  2

  9
$PUCSNAME
  2

  9
$PUCSORG
 10
0.0
 20
0.0
 30
0.0
  9
$PUCSXDIR
 10
1.0
 20
0.0
 30
0.0
  9
$PUCSYDIR
 10
0.0
 20
1.0
 30
0.0
  9
$PUCSORTHOREF
  2

  9
$PUCSORTHOVIEW
 70
     0
  9
$PUCSORGTOP
 10
0.0
 20
0.0
 30
0.0
  9
$PUCSORGBOTTOM
 10
0.0
 20
0.0
 30
0.0
  9
$PUCSORGLEFT
 10
0.0
 20
0.0
 30
0.0
  9
$PUCSORGRIGHT
 10
0.0
 20
0.0
 30
0.0
  9
$PUCSORGFRONT
 10
0.0
 20
0.0
 30
0.0
  9
$PUCSORGBACK
 10
0.0
 20
0.0
 30
0.0
  9
$USERI1
 70
     0
  9
$USERI2
 70
     0
  9
$USERI3
 70
     0
  9
$USERI4
 70
     0
  9
$USERI5
 70
     0
  9
$USERR1
 40
0.0
  9
$USERR2
 40
0.0
  9
$USERR3
 40
0.0
  9
$USERR4
 40
0.0
  9
$USERR5
 40
0.0
  9
$WORLDVIEW
 70
     1
  9
$SHADEDGE
 70
     3
  9
$SHADEDIF
 70
    70
  9
$TILEMODE
 70
     1
  9
$MAXACTVP
 70
    64
  9
$PINSBASE
 10
0.0
 20
0.0
 30
0.0
  9
$PLIMCHECK
 70
     0
  9
$PEXTMIN
 10
26.66999878883364
 20
20.31999878883365
 30
0.0
  9
$PEXTMAX
 10
240.0299890995025
 20
182.8799890995025
 30
0.0
  9
$PLIMMIN
 10
-6.350006103515625
 20
-6.349999904632567
  9
$PLIMMAX
 10
273.0499877929688
 20
209.5499939918518
  9
$UNITMODE
 70
     0
  9
$VISRETAIN
 70
     1
  9
$PLINEGEN
 70
     0
  9
$PSLTSCALE
 70
     1
  9
$TREEDEPTH
 70
  3020
  9
$CMLSTYLE
  2
Standard
  9
$CMLJUST
 70
     0
  9
$CMLSCALE
 40
20.0
  9
$PROXYGRAPHICS
 70
     1
  9
$MEASUREMENT
 70
     1
  9
$CELWEIGHT
370
    -1
  9
$ENDCAPS
280
     0
  9
$JOINSTYLE
280
     0
  9
$LWDISPLAY
290
     0
  9
$INSUNITS
 70
     4
  9
$HYPERLINKBASE
  1

  9
$STYLESHEET
  1

  9
$XEDIT
290
     1
  9
$CEPSNTYPE
380
     0
  9
$PSTYLEMODE
290
     1
  9
$FINGERPRINTGUID
  2
{601DDA01-5B13-4A4C-8F56-1333B78D855B}
  9
$VERSIONGUID
  2
{9D1B7F5A-8D6A-4A20-8548-52BC3EC6E2FA}
  9
$EXTNAMES
290
     1
  9
$PSVPSCALE
 40
0.0
  9
$OLESTARTUP
290
     0
  0
ENDSEC
  0
SECTION
  2
CLASSES
  0
CLASS
  1
ACDBDICTIONARYWDFLT
  2
AcDbDictionaryWithDefault
  3
ObjectDBX Classes
 90
        0
280
     0
281
     0
  0
CLASS
  1
ACDBPLACEHOLDER
  2
AcDbPlaceHolder
  3
ObjectDBX Classes
 90
        0
280
     0
281
     0
  0
CLASS
  1
LAYOUT
  2
AcDbLayout
  3
ObjectDBX Classes
 90
        0
280
     0
281
     0
  0
CLASS
  1
DICTIONARYVAR
  2
AcDbDictionaryVar
  3
ObjectDBX Classes
 90
        0
280
     0
281
     0
  0
CLASS
  1
TABLESTYLE
  2
AcDbTableStyle
  3
ObjectDBX Classes
 90
     2047
280
     0
281
     0
  0
CLASS
  1
SORTENTSTABLE
  2
AcDbSortentsTable
  3
ObjectDBX Classes
 90
        0
280
     0
281
     0
  0
CLASS
  1
DIMASSOC
  2
AcDbDimAssoc
  3
"AcDbDimAssoc|Product Desc:     AcDim ARX App For Dimension|Company:          Autodesk, Inc.|WEB Address:      www.autodesk.com"
 90
        0
280
     0
281
     0
  0
CLASS
  1
ACAD_EVALUATION_GRAPH
  2
AcDbEvalGraph
  3
ObjectDBX Classes
 90
    33921
280
     0
281
     0
  0
CLASS
  1
ACAECUSTOBJ
  2
AcAeEditorObj
  3
AcAeEditorObj
 90
    33792
280
     0
281
     0
  0
CLASS
  1
ACDB_DYNAMICBLOCKPURGEPREVENTER_VERSION
  2
AcDbDynamicBlockPurgePreventer
  3
ObjectDBX Classes
 90
    33921
280
     0
281
     0
  0
ENDSEC
  0
SECTION
  2
TABLES
  0
TABLE
  2
VPORT
  5
8
330
0
100
AcDbSymbolTable
 70
     4
  0
VPORT
  5
55EF3
330
8
100
AcDbSymbolTableRecord
100
AcDbViewportTableRecord
  2
*Active
 70
     0
 10
0.0
 20
0.0
 11
1.0
 21
1.0
 12
2.379344854043068
 22
-1.065411072129336
 13
0.0
 23
0.0
 14
10.0
 24
10.0
 15
10.0
 25
10.0
 16
0.0
 26
0.0
 36
1.0
 17
0.0
 27
0.0
 37
0.0
 40
310.1834038287625
 41
1.508350730688935
 42
50.0
 43
0.0
 44
0.0
 50
0.0
 51
0.0
 71
     0
 72
  1000
 73
     1
 74
     1
 75
     0
 76
     0
 77
     0
 78
     0
281
     0
 65
     1
110
0.0
120
0.0
130
0.0
111
1.0
121
0.0
131
0.0
112
0.0
122
1.0
132
0.0
 79
     0
146
0.0
  0
ENDTAB
  0
TABLE
  2
LTYPE
  5
5
330
0
100
AcDbSymbolTable
 70
     4
  0
LTYPE
  5
14
330
5
100
AcDbSymbolTableRecord
100
AcDbLinetypeTableRecord
  2
ByBlock
 70
     0
  3

 72
    65
 73
     0
 40
0.0
  0
LTYPE
  5
15
330
5
100
AcDbSymbolTableRecord
100
AcDbLinetypeTableRecord
  2
ByLayer
 70
     0
  3

 72
    65
 73
     0
 40
0.0
  0
LTYPE
  5
16
330
5
100
AcDbSymbolTableRecord
100
AcDbLinetypeTableRecord
  2
Continuous
 70
     0
  3
Solid line
 72
    65
 73
     0
 40
0.0
  0
LTYPE
  5
D7
330
5
100
AcDbSymbolTableRecord
100
AcDbLinetypeTableRecord
  2
HIDDEN
 70
     0
  3
Hidden __ __ __ __ __ __ __ __ __ __ __ __ __ _
 72
    65
 73
     2
 40
9.524999999999996
 49
6.349999999999997
 74
     0
 49
-3.174999999999998
 74
     0
  0
LTYPE
  5
D9
330
5
100
AcDbSymbolTableRecord
100
AcDbLinetypeTableRecord
  2
CENTER
 70
     0
  3
Center ____ _ ____ _ ____ _ ____ _ ____ _ ____
 72
    65
 73
     4
 40
50.8
 49
31.75
 74
     0
 49
-6.349999999999997
 74
     0
 49
6.349999999999997
 74
     0
 49
-6.349999999999997
 74
     0
  0
LTYPE
  5
35815
330
5
100
AcDbSymbolTableRecord
100
AcDbLinetypeTableRecord
  2
PHANTOM
 70
     0
  3
_____ _ _ _____ _ _ _____ _ _ _____
 72
    65
 73
     6
 40
0.8
 49
0.45
 74
     0
 49
-0.05
 74
     0
 49
0.1
 74
     0
 49
-0.05
 74
     0
 49
0.1
 74
     0
 49
-0.05
 74
     0
  0
ENDTAB
  0
TABLE
  2
LAYER
  5
2
102
{ACAD_XDICTIONARY
360
E2
102
}
330
0
100
AcDbSymbolTable
 70
    14
  0
LAYER
  5
10
330
2
100
AcDbSymbolTableRecord
100
AcDbLayerTableRecord
  2
0
 70
     0
 62
     7
  6
Continuous
370
    -3
390
F
  0
LAYER
  5
D1
330
2
100
AcDbSymbolTableRecord
100
AcDbLayerTableRecord
  2
1
 70
     0
 62
     4
  6
Continuous
370
    50
390
F
1001
AcAecLayerStandard
1000

1000

  0
LAYER
  5
D3
330
2
100
AcDbSymbolTableRecord
100
AcDbLayerTableRecord
  2
2
 70
     0
 62
     7
  6
Continuous
370
    25
390
F
1001
AcAecLayerStandard
1000

1000

  0
LAYER
  5
D4
330
2
100
AcDbSymbolTableRecord
100
AcDbLayerTableRecord
  2
3
 70
     0
 62
     1
  6
HIDDEN
370
    35
390
F
1001
AcAecLayerStandard
1000

1000

  0
LAYER
  5
D8
330
2
100
AcDbSymbolTableRecord
100
AcDbLayerTableRecord
  2
4
 70
     0
 62
     2
  6
CENTER
370
    25
390
F
1001
AcAecLayerStandard
1000

1000

  0
LAYER
  5
DA
330
2
100
AcDbSymbolTableRecord
100
AcDbLayerTableRecord
  2
6
 70
     0
 62
     5
  6
Continuous
370
    35
390
F
1001
AcAecLayerStandard
1000

1000

  0
LAYER
  5
DB
330
2
100
AcDbSymbolTableRecord
100
AcDbLayerTableRecord
  2
cut
 70
     0
 62
     1
  6
Continuous
370
    25
390
F
1001
AcAecLayerStandard
1000

1000

  0
LAYER
  5
DC
330
2
100
AcDbSymbolTableRecord
100
AcDbLayerTableRecord
  2
nocut
 70
     0
 62
     7
  6
Continuous
370
    25
390
F
1001
AcAecLayerStandard
1000

1000

  0
LAYER
  5
DD
330
2
100
AcDbSymbolTableRecord
100
AcDbLayerTableRecord
  2
sk1
 70
     0
 62
     4
  6
Continuous
370
    50
390
F
1001
AcAecLayerStandard
1000

1000

  0
LAYER
  5
DE
330
2
100
AcDbSymbolTableRecord
100
AcDbLayerTableRecord
  2
sk2
 70
     0
 62
     7
  6
Continuous
370
    25
390
F
1001
AcAecLayerStandard
1000

1000

  0
LAYER
  5
DF
330
2
100
AcDbSymbolTableRecord
100
AcDbLayerTableRecord
  2
sk3
 70
     0
 62
     1
  6
HIDDEN
370
    35
390
F
1001
AcAecLayerStandard
1000

1000

  0
LAYER
  5
E0
330
2
100
AcDbSymbolTableRecord
100
AcDbLayerTableRecord
  2
sk4
 70
     0
 62
     2
  6
CENTER
370
    25
390
F
1001
AcAecLayerStandard
1000

1000

  0
LAYER
  5
E1
330
2
100
AcDbSymbolTableRecord
100
AcDbLayerTableRecord
  2
sk6
 70
     0
 62
     5
  6
Continuous
370
    35
390
F
1001
AcAecLayerStandard
1000

1000

  0
LAYER
  5
31B6
330
2
100
AcDbSymbolTableRecord
100
AcDbLayerTableRecord
  2
Defpoints
 70
     0
 62
     7
  6
Continuous
290
     0
370
    -3
390
F
  0
ENDTAB
  0
TABLE
  2
STYLE
  5
3
330
0
100
AcDbSymbolTable
 70
    12
  0
STYLE
  5
11
330
3
100
AcDbSymbolTableRecord
100
AcDbTextStyleTableRecord
  2
Standard
 70
     0
 40
0.0
 41
1.0
 50
0.0
 71
     0
 42
2.5
  3
txt.shx
  4
@extfont2.shx
  0
STYLE
  5
D6
330
3
100
AcDbSymbolTableRecord
100
AcDbTextStyleTableRecord
  2

 70
     1
 40
0.0
 41
1.0
 50
0.0
 71
     0
 42
2.5
  3
ltypeshp.shx
  4

  0
STYLE
  5
24A
330
3
100
AcDbSymbolTableRecord
100
AcDbTextStyleTableRecord
  2
simplex
 70
     0
 40
3.5
 41
1.0
 50
0.0
 71
     0
 42
3.5
  3
txt.shx
  4

  0
STYLE
  5
69E
330
3
100
AcDbSymbolTableRecord
100
AcDbTextStyleTableRecord
  2
MX_NOTE_STANDARD
 70
     0
 40
0.0
 41
1.0
 50
0.0
 71
     0
 42
4.2
  3
txt.shx
  4
extfont.shx
  0
STYLE
  5
3524
330
3
100
AcDbSymbolTableRecord
100
AcDbTextStyleTableRecord
  2
TEXTSTYLE_2
 70
     0
 40
0.0
 41
0.775
 50
0.0
 71
     0
 42
0.2
  3
gdt
  4

  0
STYLE
  5
3525
330
3
100
AcDbSymbolTableRecord
100
AcDbTextStyleTableRecord
  2
TEXTSTYLE_3
 70
     0
 40
0.0
 41
0.75
 50
0.0
 71
     0
 42
0.2
  3
txt
  4

  0
STYLE
  5
3526
330
3
100
AcDbSymbolTableRecord
100
AcDbTextStyleTableRecord
  2
TEXTSTYLE_13
 70
     0
 40
0.0
 41
1.0
 50
0.0
 71
     0
 42
0.2
  3
txt
  4

  0
STYLE
  5
519A
330
3
100
AcDbSymbolTableRecord
100
AcDbTextStyleTableRecord
  2
TEXTSTYLE_14
 70
     0
 40
0.0
 41
1.0
 50
0.0
 71
     0
 42
0.2
  3
txt
  4

  0
STYLE
  5
6F72
330
3
100
AcDbSymbolTableRecord
100
AcDbTextStyleTableRecord
  2
TEXTSTYLE_4
 70
     0
 40
0.0
 41
0.75
 50
0.0
 71
     0
 42
0.2
  3
txt
  4

  0
STYLE
  5
6F73
330
3
100
AcDbSymbolTableRecord
100
AcDbTextStyleTableRecord
  2
TEXTSTYLE_17
 70
     0
 40
0.0
 41
1.0
 50
0.0
 71
     0
 42
0.2
  3
txt
  4

  0
STYLE
  5
FE12
330
3
100
AcDbSymbolTableRecord
100
AcDbTextStyleTableRecord
  2
TEXTSTYLE_12
 70
     0
 40
0.0
 41
1.0
 50
0.0
 71
     0
 42
0.2
  3
txt
  4

  0
STYLE
  5
3AAB8
330
3
100
AcDbSymbolTableRecord
100
AcDbTextStyleTableRecord
  2
TEXTSTYLE_20
 70
     0
 40
0.0
 41
0.6
 50
0.0
 71
     0
 42
0.2
  3
txt
  4

  0
ENDTAB
  0
TABLE
  2
VIEW
  5
6
330
0
100
AcDbSymbolTable
 70
     0
  0
ENDTAB
  0
TABLE
  2
UCS
  5
7
330
0
100
AcDbSymbolTable
 70
     0
  0
ENDTAB
  0
TABLE
  2
APPID
  5
9
330
0
100
AcDbSymbolTable
 70
    11
  0
APPID
  5
12
330
9
100
AcDbSymbolTableRecord
100
AcDbRegAppTableRecord
  2
ACAD
 70
     0
  0
APPID
  5
D2
330
9
100
AcDbSymbolTableRecord
100
AcDbRegAppTableRecord
  2
AcAecLayerStandard
 70
     0
  0
APPID
  5
E6
330
9
100
AcDbSymbolTableRecord
100
AcDbRegAppTableRecord
  2
ACAD_DSTYLE_DIMTEXT_FILL
 70
     0
  0
APPID
  5
4C84
330
9
100
AcDbSymbolTableRecord
100
AcDbRegAppTableRecord
  2
ACAD_EXEMPT_FROM_CAD_STANDARDS
 70
     0
  0
APPID
  5
3493E
330
9
100
AcDbSymbolTableRecord
100
AcDbRegAppTableRecord
  2
DCO15
 70
     0
  0
APPID
  5
3BAB0
330
9
100
AcDbSymbolTableRecord
100
AcDbRegAppTableRecord
  2
ACAD_DSTYLE_DIMEXT_ENABLED
 70
     0
  0
APPID
  5
3BAB1
330
9
100
AcDbSymbolTableRecord
100
AcDbRegAppTableRecord
  2
ACAD_DSTYLE_DIMEXT_LENGTH
 70
     0
  0
APPID
  5
3BEB4
330
9
100
AcDbSymbolTableRecord
100
AcDbRegAppTableRecord
  2
ACAUTHENVIRON
 70
     0
  0
APPID
  5
3BEB7
330
9
100
AcDbSymbolTableRecord
100
AcDbRegAppTableRecord
  2
AcDbDynamicBlockTrueName
 70
     0
  0
APPID
  5
3BEB8
330
9
100
AcDbSymbolTableRecord
100
AcDbRegAppTableRecord
  2
AcDbDynamicBlockGUID
 70
     0
  0
APPID
  5
3BEBA
330
9
100
AcDbSymbolTableRecord
100
AcDbRegAppTableRecord
  2
AcDbBlockRepETag
 70
     0
  0
ENDTAB
  0
TABLE
  2
DIMSTYLE
  5
A
330
0
100
AcDbSymbolTable
 70
    11
100
AcDbDimStyleTable
 71
     5
340
1BF
340
27
340
352A
340
3527
340
69F
  0
DIMSTYLE
105
27
330
A
100
AcDbSymbolTableRecord
100
AcDbDimStyleTableRecord
  2
ISO-25
 70
     0
 41
2.5
 42
0.625
 43
3.75
 44
1.25
 73
     0
 74
     0
 77
     1
 78
     8
140
2.5
141
2.5
143
0.03937007874016
147
0.625
171
     3
172
     1
271
     2
272
     2
274
     3
278
    44
283
     0
284
     8
340
11
  0
DIMSTYLE
105
1BF
102
{ACAD_REACTORS
330
54C2A
330
54C2E
330
55154
330
55155
330
551AE
330
55C89
330
55CD6
102
}
330
A
100
AcDbSymbolTableRecord
100
AcDbDimStyleTableRecord
  2
\M+18352\M+18373\M+1815B - ISO-25
 70
     0
 40
0.0
 41
3.5
 42
0.0
 44
1.5
 73
     0
 74
     0
 77
     1
 78
     8
140
3.5
147
2.299999999999998
176
   256
177
   256
178
   256
271
     2
272
     2
284
     8
340
24A
371
    -1
372
    -1
  0
DIMSTYLE
105
69F
330
A
100
AcDbSymbolTableRecord
100
AcDbDimStyleTableRecord
  2
MXDIMSTYLE
 70
     0
 41
2.5
 42
0.5
 43
3.75
 44
1.5
 73
     0
 74
     0
 77
     1
 78
     8
140
4.2
141
2.5
143
0.03937
147
1.0
171
     4
172
     1
173
     1
271
     2
272
     2
274
     4
283
     0
288
     1
340
69E
341
697
343
697
344
697
  0
DIMSTYLE
105
3527
330
A
100
AcDbSymbolTableRecord
100
AcDbDimStyleTableRecord
  2
STANDARD
 70
     0
 41
3.0
 47
0.001
 48
0.001
 71
     1
 73
     0
 74
     0
 77
     1
 78
     8
140
4.0
271
     3
272
     3
284
     8
340
11
341
34B1
342
34B1
343
34B1
344
34B1
  0
DIMSTYLE
105
3528
330
A
100
AcDbSymbolTableRecord
100
AcDbDimStyleTableRecord
  2
DIMSTYLE_1
 70
     0
 41
3.0
 73
     0
 74
     0
 77
     1
 78
     8
140
4.0
271
     3
272
     3
284
     8
340
11
341
34B1
342
34B1
343
34B1
344
34B1
  0
DIMSTYLE
105
3529
330
A
100
AcDbSymbolTableRecord
100
AcDbDimStyleTableRecord
  2
DIMSTYLE_2
 70
     0
 41
3.0
 47
0.001
 48
0.001
 73
     0
 74
     0
 77
     1
 78
     8
140
4.0
271
     3
272
     3
284
     8
340
11
341
34B1
342
34B1
343
34B1
344
34B1
  0
DIMSTYLE
105
352A
330
A
100
AcDbSymbolTableRecord
100
AcDbDimStyleTableRecord
  2
DIMSTYLE_3
 70
     0
 41
3.0
 47
-0.1
 48
0.3
 71
     1
 73
     0
 74
     0
 77
     1
 78
     8
140
4.0
146
0.5
271
     3
272
     3
284
     8
340
11
341
34B1
342
34B1
343
34B1
344
34B1
  0
DIMSTYLE
105
352B
330
A
100
AcDbSymbolTableRecord
100
AcDbDimStyleTableRecord
  2
DIMSTYLE_4
 70
     0
 41
3.0
 47
0.1
 48
0.1
 71
     1
 73
     0
 74
     0
 77
     1
 78
     8
140
4.0
271
     3
272
     3
284
     8
340
11
341
34B1
342
34B1
343
34B1
344
34B1
  0
DIMSTYLE
105
27245
330
A
100
AcDbSymbolTableRecord
100
AcDbDimStyleTableRecord
  2
DIMSTYLE_5
 70
     0
 41
3.0
 47
0.001
 48
0.001
 73
     0
 74
     0
 77
     1
 78
     8
140
4.0
271
     3
272
     3
284
     8
340
11
341
34B1
342
34B1
343
34B1
344
34B1
  0
DIMSTYLE
105
3AAB9
330
A
100
AcDbSymbolTableRecord
100
AcDbDimStyleTableRecord
  2
DIMSTYLE_6
 70
     0
 41
3.0
 42
0.0
 44
1.0
 47
0.05
 48
0.05
 71
     1
 73
     0
 74
     0
 77
     1
 78
     8
140
4.0
147
1.0
271
     3
272
     3
284
     8
340
11
341
34B1
342
34B1
343
34B1
344
34B1
  0
DIMSTYLE
105
532EA
330
A
100
AcDbSymbolTableRecord
100
AcDbDimStyleTableRecord
  2
NEW-DIMSTYLE
 70
     0
 40
0.0
 41
4.57
 42
0.0
 44
5.0
 73
     0
 74
     0
 77
     1
 78
     8
140
4.57
147
2.299999999999998
271
     2
340
24A
  0
ENDTAB
  0
TABLE
  2
BLOCK_RECORD
  5
1
330
0
100
AcDbSymbolTable
 70
    57
  0
BLOCK_RECORD
  5
1F
102
{ACAD_XDICTIONARY
360
31EE
102
}
330
1
100
AcDbSymbolTableRecord
100
AcDbBlockTableRecord
  2
*Model_Space
340
22
  0
BLOCK_RECORD
  5
50
330
1
100
AcDbSymbolTableRecord
100
AcDbBlockTableRecord
  2
*Paper_Space
340
51
  0
BLOCK_RECORD
  5
55
330
1
100
AcDbSymbolTableRecord
100
AcDbBlockTableRecord
  2
*Paper_Space0
340
56
  0
BLOCK_RECORD
  5
680
102
{ACAD_XDICTIONARY
360
3BEB2
102
}
330
1
100
AcDbSymbolTableRecord
100
AcDbBlockTableRecord
  2
zero block
340
0
102
{BLKREFS
331
68C
102
}
1001
ACAD
1000
DesignCenter Data
1002
{
1070
     1
1070
     4
1002
}
1001
AcDbDynamicBlockGUID
1000
{C2E8894D-A8DA-456D-ABB6-198B00672C1A}
1001
AcDbBlockRepETag
1070
     1
1071
        7
  0
BLOCK_RECORD
  5
697
330
1
100
AcDbSymbolTableRecord
100
AcDbBlockTableRecord
  2
_OPEN30
340
0
  0
BLOCK_RECORD
  5
34B1
330
1
100
AcDbSymbolTableRecord
100
AcDbBlockTableRecord
  2
_OPEN
340
0
  0
BLOCK_RECORD
  5
50E6F
330
1
100
AcDbSymbolTableRecord
100
AcDbBlockTableRecord
  2
_None
340
0
  0
BLOCK_RECORD
  5
54C53
330
1
100
AcDbSymbolTableRecord
100
AcDbBlockTableRecord
  2
*D6
340
0
  0
BLOCK_RECORD
  5
54C73
330
1
100
AcDbSymbolTableRecord
100
AcDbBlockTableRecord
  2
*D7
340
0
  0
BLOCK_RECORD
  5
551B5
330
1
100
AcDbSymbolTableRecord
100
AcDbBlockTableRecord
  2
*D8
340
0
  0
BLOCK_RECORD
  5
551C1
330
1
100
AcDbSymbolTableRecord
100
AcDbBlockTableRecord
  2
*D9
340
0
  0
BLOCK_RECORD
  5
5522F
330
1
100
AcDbSymbolTableRecord
100
AcDbBlockTableRecord
  2
*D10
340
0
  0
BLOCK_RECORD
  5
554C9
330
1
100
AcDbSymbolTableRecord
100
AcDbBlockTableRecord
  2
*D11
340
0
  0
BLOCK_RECORD
  5
55E0D
330
1
100
AcDbSymbolTableRecord
100
AcDbBlockTableRecord
  2
*D49
340
0
  0
BLOCK_RECORD
  5
55E4B
330
1
100
AcDbSymbolTableRecord
100
AcDbBlockTableRecord
  2
*D54
340
0
  0
ENDTAB
  0
ENDSEC
  0
SECTION
  2
BLOCKS
  0
BLOCK
  5
20
330
1F
100
AcDbEntity
  8
0
100
AcDbBlockBegin
  2
*Model_Space
 70
     0
 10
0.0
 20
0.0
 30
0.0
  3
*Model_Space
  1

  0
ENDBLK
  5
21
330
1F
100
AcDbEntity
  8
0
100
AcDbBlockEnd
  0
BLOCK
  5
52
330
50
100
AcDbEntity
 67
     1
  8
0
100
AcDbBlockBegin
  2
*Paper_Space
 70
     0
 10
0.0
 20
0.0
 30
0.0
  3
*Paper_Space
  1

  0
ENDBLK
  5
53
330
50
100
AcDbEntity
 67
     1
  8
0
100
AcDbBlockEnd
  0
BLOCK
  5
57
330
55
100
AcDbEntity
 67
     1
  8
0
100
AcDbBlockBegin
  2
*Paper_Space0
 70
     0
 10
0.0
 20
0.0
 30
0.0
  3
*Paper_Space0
  1

  0
VIEWPORT
  5
71
102
{ACAD_XDICTIONARY
360
55EFE
102
}
330
55
100
AcDbEntity
 67
     1
  8
0
100
AcDbViewport
 10
150.1652135264906
 20
101.599997546291
 30
0.0
 40
339.1973820494347
 41
164.5360435314421
 68
     0
 69
     0
 12
150.1652135264906
 22
101.599997546291
 13
0.0
 23
0.0
 14
10.0
 24
10.0
 15
10.0
 25
10.0
 16
0.0
 26
0.0
 36
1.0
 17
0.0
 27
0.0
 37
0.0
 42
50.0
 43
0.0
 44
0.0
 45
164.5360435314421
 50
0.0
 51
0.0
 72
  1000
 90
    32864
  1

281
     0
 71
     1
 74
     0
110
0.0
120
0.0
130
0.0
111
1.0
121
0.0
131
0.0
112
0.0
122
1.0
132
0.0
 79
     0
146
0.0
  0
VIEWPORT
  5
73
102
{ACAD_XDICTIONARY
360
55F00
102
}
330
55
100
AcDbEntity
 67
     1
  8
0
100
AcDbViewport
 10
133.3499939441681
 20
101.5999939441681
 30
0.0
 40
213.3599903106689
 41
162.5599903106689
 68
     0
 69
     0
 12
210.0
 22
148.5
 13
0.0
 23
0.0
 14
10.0
 24
10.0
 15
10.0
 25
10.0
 16
0.0
 26
0.0
 36
1.0
 17
0.0
 27
0.0
 37
0.0
 42
50.0
 43
0.0
 44
0.0
 45
324.0677920111345
 50
0.0
 51
0.0
 72
   100
 90
    32864
  1

281
     0
 71
     1
 74
     0
110
0.0
120
0.0
130
0.0
111
1.0
121
0.0
131
0.0
112
0.0
122
1.0
132
0.0
 79
     0
146
0.0
  0
ENDBLK
  5
58
330
55
100
AcDbEntity
 67
     1
  8
0
100
AcDbBlockEnd
  0
BLOCK
  5
68A
330
680
100
AcDbEntity
  8
0
100
AcDbBlockBegin
  2
zero block
 70
     0
 10
0.0
 20
0.0
 30
0.0
  3
zero block
  1

  0
HATCH
  5
3BEAB
330
680
100
AcDbEntity
  8
0
 62
     7
100
AcDbHatch
 10
0.0
 20
0.0
 30
0.0
210
0.0
220
0.0
230
1.0
  2
SOLID
 70
     1
 71
     0
 91
        2
 92
        7
 72
     1
 73
     1
 93
        3
 10
0.0
 20
0.9999999999999875
 42
0.4142135623730915
 10
-1.0
 20
0.0
 42
0.0
 10
0.0
 20
0.0
 42
0.0
 97
        0
 92
        7
 72
     1
 73
     1
 93
        3
 10
1.000000000000007
 20
0.0
 42
0.0
 10
0.0
 20
0.0
 42
0.0
 10
0.0
 20
-1.0
 42
0.4142135623730974
 97
        0
 75
     0
 76
     1
 47
0.0090601366782909
 98
        2
 10
-0.380591363650975
 20
0.4885804701532896
 10
0.4350764810977559
 20
-0.4536738423704725
1001
AcDbBlockRepETag
1070
     1
1071
        0
1005
3BEAB
  0
LINE
  5
3BEAC
330
680
100
AcDbEntity
  8
0
 62
     7
 48
0.2
100
AcDbLine
 10
-1.0
 20
0.0
 30
0.0
 11
1.000000000000007
 21
0.0
 31
0.0
1001
AcDbBlockRepETag
1070
     1
1071
        1
1005
3BEAC
  0
LINE
  5
3BEAD
330
680
100
AcDbEntity
  8
0
 62
     7
 48
0.2
100
AcDbLine
 10
0.0
 20
-1.0
 30
0.0
 11
0.0
 21
0.9999999999999875
 31
0.0
1001
AcDbBlockRepETag
1070
     1
1071
        2
1005
3BEAD
  0
ARC
  5
3BEAE
330
680
100
AcDbEntity
  8
0
 62
     7
 48
0.2
100
AcDbCircle
 10
0.0
 20
0.0
 30
0.0
 40
1.0
100
AcDbArc
 50
270.0
 51
0.0
1001
AcDbBlockRepETag
1070
     1
1071
        3
1005
3BEAE
  0
ARC
  5
3BEAF
330
680
100
AcDbEntity
  8
0
 62
     7
 48
0.2
100
AcDbCircle
 10
0.0
 20
0.0
 30
0.0
 40
1.0
100
AcDbArc
 50
0.0
 51
90.0
1001
AcDbBlockRepETag
1070
     1
1071
        4
1005
3BEAF
  0
ARC
  5
3BEB0
330
680
100
AcDbEntity
  8
0
 62
     7
 48
0.2
100
AcDbCircle
 10
0.0
 20
0.0
 30
0.0
 40
1.0
100
AcDbArc
 50
180.0
 51
270.0
1001
AcDbBlockRepETag
1070
     1
1071
        5
1005
3BEB0
  0
ARC
  5
3BEB1
330
680
100
AcDbEntity
  8
0
 62
     7
 48
0.2
100
AcDbCircle
 10
0.0
 20
0.0
 30
0.0
 40
1.0
100
AcDbArc
 50
90.0
 51
180.0
1001
AcDbBlockRepETag
1070
     1
1071
        6
1005
3BEB1
  0
ENDBLK
  5
68B
330
680
100
AcDbEntity
  8
0
100
AcDbBlockEnd
  0
BLOCK
  5
698
330
697
100
AcDbEntity
  8
0
  6
ByBlock
 62
     0
370
    -2
100
AcDbBlockBegin
  2
_OPEN30
 70
     2
 10
0.0
 20
0.0
 30
0.0
  3
_OPEN30
  1

  0
LINE
  5
699
330
697
100
AcDbEntity
  8
0
  6
ByBlock
 62
     0
370
    -2
100
AcDbLine
 10
-1.0
 20
0.267949
 30
0.0
 11
0.0
 21
0.0
 31
0.0
  0
LINE
  5
69A
330
697
100
AcDbEntity
  8
0
  6
ByBlock
 62
     0
370
    -2
100
AcDbLine
 10
0.0
 20
0.0
 30
0.0
 11
-1.0
 21
-0.267949
 31
0.0
  0
LINE
  5
69B
330
697
100
AcDbEntity
  8
0
  6
ByBlock
 62
     0
370
    -2
100
AcDbLine
 10
0.0
 20
0.0
 30
0.0
 11
-1.0
 21
0.0
 31
0.0
  0
ENDBLK
  5
69C
330
697
100
AcDbEntity
  8
0
  6
ByBlock
 62
     0
370
    -2
100
AcDbBlockEnd
  0
BLOCK
  5
34B2
330
34B1
100
AcDbEntity
  8
0
100
AcDbBlockBegin
  2
_OPEN
 70
     0
 10
0.0
 20
0.0
 30
0.0
  3
_OPEN
  1

  0
LINE
  5
34B3
330
34B1
100
AcDbEntity
  8
0
  6
ByBlock
 62
     0
100
AcDbLine
 10
0.0
 20
0.0
 30
0.0
 11
-1.0
 21
0.1766666667
 31
0.0
  0
LINE
  5
34B4
330
34B1
100
AcDbEntity
  8
0
  6
ByBlock
 62
     0
100
AcDbLine
 10
-1.0
 20
-0.1766666667
 30
0.0
 11
0.0
 21
0.0
 31
0.0
  0
LINE
  5
34B5
330
34B1
100
AcDbEntity
  8
0
  6
ByBlock
 62
     0
100
AcDbLine
 10
-1.0
 20
0.0
 30
0.0
 11
0.0
 21
0.0
 31
0.0
  0
ENDBLK
  5
34B6
330
34B1
100
AcDbEntity
  8
0
  6
ByBlock
 62
     0
100
AcDbBlockEnd
  0
BLOCK
  5
50E70
330
50E6F
100
AcDbEntity
  8
0
100
AcDbBlockBegin
  2
_None
 70
     0
 10
0.0
 20
0.0
 30
0.0
  3
_None
  1

  0
ENDBLK
  5
50E71
330
50E6F
100
AcDbEntity
  8
0
100
AcDbBlockEnd
  0
BLOCK
  5
54C5E
330
54C53
100
AcDbEntity
  8
0
100
AcDbBlockBegin
  2
*D6
 70
     1
 10
0.0
 20
0.0
 30
0.0
  3
*D6
  1

  0
LINE
  5
55EB7
330
54C53
100
AcDbEntity
  8
2
100
AcDbLine
 10
58.02499500000005
 20
5.749999999999984
 30
0.0
 11
58.02499500000005
 21
27.09157037082822
 31
0.0
  0
LINE
  5
55EB8
330
54C53
100
AcDbEntity
  8
2
100
AcDbLine
 10
73.02499499999993
 20
17.60461399999991
 30
0.0
 11
73.02499499999993
 21
27.09157037082822
 31
0.0
  0
LINE
  5
55EB9
330
54C53
100
AcDbEntity
  8
2
100
AcDbLine
 10
69.52499499999993
 20
25.59157037082822
 30
0.0
 11
61.52499500000004
 21
25.59157037082822
 31
0.0
  0
LINE
  5
55EBA
330
54C53
100
AcDbEntity
  8
2
100
AcDbLine
 10
58.02499500000005
 20
25.59157037082822
 30
0.0
 11
24.25832833333333
 21
25.59157037082822
 31
0.0
  0
SOLID
  5
55EBB
330
54C53
100
AcDbEntity
  8
2
100
AcDbTrace
 10
69.52499499999993
 20
26.17490370416156
 30
0.0
 11
69.52499499999993
 21
25.00823703749489
 31
0.0
 12
73.02499499999993
 22
25.59157037082822
 32
0.0
 13
73.02499499999993
 23
25.59157037082822
 33
0.0
  0
SOLID
  5
55EBC
330
54C53
100
AcDbEntity
  8
2
100
AcDbTrace
 10
61.52499500000004
 20
26.17490370416156
 30
0.0
 11
61.52499500000004
 21
25.00823703749489
 31
0.0
 12
58.02499500000005
 22
25.59157037082822
 32
0.0
 13
58.02499500000005
 23
25.59157037082822
 33
0.0
  0
MTEXT
  5
55EBD
330
54C53
100
AcDbEntity
  8
2
100
AcDbMText
 10
39.39166166666666
 20
29.64157037082822
 30
0.0
 40
3.5
 41
0.0
 71
     5
 72
     1
  1
\A1;15 [.591"]
  7
simplex
 73
     1
 44
0.892857
1001
ACAD
1000
MTEXTBEGIN
1070
    73
1070
     1
1070
    44
1040
0.892857
1070
    74
1070
     0
1000
MTEXTEND
  0
POINT
  5
55EBE
330
54C53
100
AcDbEntity
  8
Defpoints
 62
     0
100
AcDbPoint
 10
58.02499500000005
 20
5.749999999999984
 30
0.0
  0
POINT
  5
55EBF
330
54C53
100
AcDbEntity
  8
Defpoints
 62
     0
100
AcDbPoint
 10
73.02499499999993
 20
17.60461399999991
 30
0.0
  0
POINT
  5
55EC0
330
54C53
100
AcDbEntity
  8
Defpoints
 62
     0
100
AcDbPoint
 10
73.02499499999993
 20
25.59157037082822
 30
0.0
  0
ENDBLK
  5
54C5F
330
54C53
100
AcDbEntity
  8
0
100
AcDbBlockEnd
  0
BLOCK
  5
54C7E
330
54C73
100
AcDbEntity
  8
0
100
AcDbBlockBegin
  2
*D7
 70
     1
 10
0.0
 20
0.0
 30
0.0
  3
*D7
  1

  0
LINE
  5
55EAD
330
54C73
100
AcDbEntity
  8
2
100
AcDbLine
 10
58.02500299999991
 20
-5.749999999999995
 30
0.0
 11
49.64412465103123
 21
-5.749999999999992
 31
0.0
  0
LINE
  5
55EAE
330
54C73
100
AcDbEntity
  8
2
100
AcDbLine
 10
58.02500299999991
 20
5.750000000000012
 30
0.0
 11
49.64412465103123
 21
5.750000000000015
 31
0.0
  0
LINE
  5
55EAF
330
54C73
100
AcDbEntity
  8
2
100
AcDbLine
 10
51.14412465103123
 20
9.250000000000014
 30
0.0
 11
51.14412465103123
 21
12.75000000000001
 31
0.0
  0
LINE
  5
55EB0
330
54C73
100
AcDbEntity
  8
2
100
AcDbLine
 10
51.14412465103123
 20
-9.249999999999992
 30
0.0
 11
51.14412465103121
 21
-58.13416372641142
 31
0.0
  0
SOLID
  5
55EB1
330
54C73
100
AcDbEntity
  8
2
100
AcDbTrace
 10
50.5607913176979
 20
9.250000000000014
 30
0.0
 11
51.72745798436457
 21
9.250000000000014
 31
0.0
 12
51.14412465103123
 22
5.750000000000014
 32
0.0
 13
51.14412465103123
 23
5.750000000000014
 33
0.0
  0
SOLID
  5
55EB2
330
54C73
100
AcDbEntity
  8
2
100
AcDbTrace
 10
50.5607913176979
 20
-9.249999999999992
 30
0.0
 11
51.72745798436457
 21
-9.249999999999992
 31
0.0
 12
51.14412465103123
 22
-5.749999999999993
 32
0.0
 13
51.14412465103123
 23
-5.749999999999993
 33
0.0
  0
MTEXT
  5
55EB3
330
54C73
100
AcDbEntity
  8
2
100
AcDbMText
 10
47.09412465103123
 20
-37.16749705974474
 30
0.0
 40
3.5
 41
0.0
 71
     5
 72
     1
  1
\A1;%%C11.5 [%%C.453"]
  7
simplex
 11
0.0000000000000001
 21
1.0
 31
0.0
 73
     1
 44
1.0
1001
ACAD
1000
MTEXTBEGIN
1070
    73
1070
     1
1070
    44
1040
1.0
1070
    74
1070
     0
1000
MTEXTEND
  0
POINT
  5
55EB4
330
54C73
100
AcDbEntity
  8
Defpoints
 62
     0
100
AcDbPoint
 10
58.02500299999991
 20
-5.749999999999995
 30
0.0
  0
POINT
  5
55EB5
330
54C73
100
AcDbEntity
  8
Defpoints
 62
     0
100
AcDbPoint
 10
58.02500299999991
 20
5.750000000000012
 30
0.0
  0
POINT
  5
55EB6
330
54C73
100
AcDbEntity
  8
Defpoints
 62
     0
100
AcDbPoint
 10
51.14412465103123
 20
5.750000000000014
 30
0.0
  0
ENDBLK
  5
54C7F
330
54C73
100
AcDbEntity
  8
0
100
AcDbBlockEnd
  0
BLOCK
  5
551BF
330
551B5
100
AcDbEntity
  8
0
100
AcDbBlockBegin
  2
*D8
 70
     1
 10
0.0
 20
0.0
 30
0.0
  3
*D8
  1

  0
LINE
  5
55EC1
330
551B5
100
AcDbEntity
  8
sk2
100
AcDbLine
 10
-88.89999000001887
 20
6.737503000044453
 30
0.0
 11
-88.89999000001887
 21
54.81752171091109
 31
0.0
  0
LINE
  5
55EC2
330
551B5
100
AcDbEntity
  8
sk2
100
AcDbLine
 10
73.02501000000006
 20
3.095828189644079
 30
0.0
 11
73.02501000000006
 21
54.81752171091109
 31
0.0
  0
LINE
  5
55EC3
330
551B5
100
AcDbEntity
  8
sk2
100
AcDbLine
 10
-85.39999000001888
 20
53.31752171091109
 30
0.0
 11
69.52501000000006
 21
53.31752171091109
 31
0.0
  0
SOLID
  5
55EC4
330
551B5
100
AcDbEntity
  8
sk2
100
AcDbTrace
 10
-85.39999000001888
 20
53.90085504424442
 30
0.0
 11
-85.39999000001888
 21
52.73418837757775
 31
0.0
 12
-88.89999000001887
 22
53.31752171091109
 32
0.0
 13
-88.89999000001887
 23
53.31752171091109
 33
0.0
  0
SOLID
  5
55EC5
330
551B5
100
AcDbEntity
  8
sk2
100
AcDbTrace
 10
69.52501000000006
 20
53.90085504424442
 30
0.0
 11
69.52501000000006
 21
52.73418837757775
 31
0.0
 12
73.02501000000006
 22
53.31752171091109
 32
0.0
 13
73.02501000000006
 23
53.31752171091109
 33
0.0
  0
MTEXT
  5
55EC6
330
551B5
100
AcDbEntity
  8
sk2
100
AcDbMText
 10
-4.775547765731516
 20
57.36752171091108
 30
0.0
 40
3.5
 41
0.0
 71
     5
 72
     1
  1
\A1;161.925 [6.375"]
  7
simplex
 73
     1
 44
0.75
1001
ACAD
1000
MTEXTBEGIN
1070
    73
1070
     1
1070
    44
1040
0.75
1070
    74
1070
     0
1000
MTEXTEND
  0
POINT
  5
55EC7
330
551B5
100
AcDbEntity
  8
Defpoints
 62
     0
100
AcDbPoint
 10
-88.89999000001887
 20
6.737503000044453
 30
0.0
  0
POINT
  5
55EC8
330
551B5
100
AcDbEntity
  8
Defpoints
 62
     0
100
AcDbPoint
 10
73.02501000000006
 20
3.095828189644079
 30
0.0
  0
POINT
  5
55EC9
330
551B5
100
AcDbEntity
  8
Defpoints
 62
     0
100
AcDbPoint
 10
73.02501000000006
 20
53.31752171091109
 30
0.0
  0
ENDBLK
  5
551C0
330
551B5
100
AcDbEntity
  8
0
100
AcDbBlockEnd
  0
BLOCK
  5
551CB
330
551C1
100
AcDbEntity
  8
0
100
AcDbBlockBegin
  2
*D9
 70
     1
 10
0.0
 20
0.0
 30
0.0
  3
*D9
  1

  0
LINE
  5
55ECA
330
551C1
100
AcDbEntity
  8
2
100
AcDbLine
 10
0.0000099999811596
 20
7.937530802271549
 30
0.0
 11
0.0000099999811616
 21
41.37131568846777
 31
0.0
  0
LINE
  5
55ECB
330
551C1
100
AcDbEntity
  8
2
100
AcDbLine
 10
73.02501000000006
 20
3.095828189644079
 30
0.0
 11
73.02501000000006
 21
41.37131568846776
 31
0.0
  0
LINE
  5
55ECC
330
551C1
100
AcDbEntity
  8
2
100
AcDbLine
 10
3.500009999981161
 20
39.87131568846777
 30
0.0
 11
69.52501000000006
 21
39.87131568846777
 31
0.0
  0
SOLID
  5
55ECD
330
551C1
100
AcDbEntity
  8
2
100
AcDbTrace
 10
3.500009999981161
 20
40.4546490218011
 30
0.0
 11
3.500009999981161
 21
39.28798235513443
 31
0.0
 12
0.0000099999811615
 22
39.87131568846777
 32
0.0
 13
0.0000099999811615
 23
39.87131568846777
 33
0.0
  0
SOLID
  5
55ECE
330
551C1
100
AcDbEntity
  8
2
100
AcDbTrace
 10
69.52501000000006
 20
40.4546490218011
 30
0.0
 11
69.52501000000006
 21
39.28798235513443
 31
0.0
 12
73.02501000000006
 22
39.87131568846777
 32
0.0
 13
73.02501000000006
 23
39.87131568846777
 33
0.0
  0
MTEXT
  5
55ECF
330
551C1
100
AcDbEntity
  8
2
100
AcDbMText
 10
36.77704324481136
 20
43.92131568846776
 30
0.0
 40
3.5
 41
0.0
 71
     5
 72
     1
  1
\A1;73.025 [2.875"]
  7
simplex
 73
     1
 44
0.892857
1001
ACAD
1000
MTEXTBEGIN
1070
    73
1070
     1
1070
    44
1040
0.892857
1070
    74
1070
     0
1000
MTEXTEND
  0
POINT
  5
55ED0
330
551C1
100
AcDbEntity
  8
Defpoints
 62
     0
100
AcDbPoint
 10
0.0000099999811596
 20
7.937530802271549
 30
0.0
  0
POINT
  5
55ED1
330
551C1
100
AcDbEntity
  8
Defpoints
 62
     0
100
AcDbPoint
 10
73.02501000000006
 20
3.095828189644079
 30
0.0
  0
POINT
  5
55ED2
330
551C1
100
AcDbEntity
  8
Defpoints
 62
     0
100
AcDbPoint
 10
73.02501000000006
 20
39.87131568846777
 30
0.0
  0
ENDBLK
  5
551CC
330
551C1
100
AcDbEntity
  8
0
100
AcDbBlockEnd
  0
BLOCK
  5
5523A
330
5522F
100
AcDbEntity
  8
0
100
AcDbBlockBegin
  2
*D10
 70
     1
 10
0.0
 20
0.0
 30
0.0
  3
*D10
  1

  0
LINE
  5
55ED3
330
5522F
100
AcDbEntity
  8
sk2
100
AcDbLine
 10
-87.69997999999999
 20
-7.937499999999973
 30
0.0
 11
-105.1404923998143
 21
-7.937499999999968
 31
0.0
  0
LINE
  5
55ED4
330
5522F
100
AcDbEntity
  8
sk2
100
AcDbLine
 10
-87.69997999999999
 20
7.937500000000025
 30
0.0
 11
-105.1404923998143
 21
7.93750000000003
 31
0.0
  0
LINE
  5
55ED5
330
5522F
100
AcDbEntity
  8
sk2
100
AcDbLine
 10
-103.6404923998143
 20
4.43750000000003
 30
0.0
 11
-103.6404923998143
 21
-4.437499999999968
 31
0.0
  0
LINE
  5
55ED6
330
5522F
100
AcDbEntity
  8
sk2
100
AcDbLine
 10
-103.6404923998143
 20
-7.937499999999968
 30
0.0
 11
-103.6404923998143
 21
-61.5375
 31
0.0
  0
SOLID
  5
55ED7
330
5522F
100
AcDbEntity
  8
sk2
100
AcDbTrace
 10
-104.2238257331476
 20
4.43750000000003
 30
0.0
 11
-103.057159066481
 21
4.43750000000003
 31
0.0
 12
-103.6404923998143
 22
7.93750000000003
 32
0.0
 13
-103.6404923998143
 23
7.93750000000003
 33
0.0
  0
SOLID
  5
55ED8
330
5522F
100
AcDbEntity
  8
sk2
100
AcDbTrace
 10
-104.2238257331476
 20
-4.437499999999968
 30
0.0
 11
-103.057159066481
 21
-4.437499999999968
 31
0.0
 12
-103.6404923998143
 22
-7.937499999999968
 32
0.0
 13
-103.6404923998143
 23
-7.937499999999968
 33
0.0
  0
MTEXT
  5
55ED9
330
5522F
100
AcDbEntity
  8
sk2
100
AcDbMText
 10
-107.6904923998143
 20
-36.48750000000002
 30
0.0
 40
3.5
 41
0.0
 71
     5
 72
     1
  1
\A1;%%C15.875 [%%C.625"]
  7
simplex
 11
0.0000000000000001
 21
1.0
 31
0.0
 73
     1
 44
1.0
1001
ACAD
1000
MTEXTBEGIN
1070
    73
1070
     1
1070
    44
1040
1.0
1070
    74
1070
     0
1000
MTEXTEND
  0
POINT
  5
55EDA
330
5522F
100
AcDbEntity
  8
Defpoints
 62
     0
100
AcDbPoint
 10
-87.69997999999999
 20
-7.937499999999973
 30
0.0
  0
POINT
  5
55EDB
330
5522F
100
AcDbEntity
  8
Defpoints
 62
     0
100
AcDbPoint
 10
-87.69997999999999
 20
7.937500000000025
 30
0.0
  0
POINT
  5
55EDC
330
5522F
100
AcDbEntity
  8
Defpoints
 62
     0
100
AcDbPoint
 10
-103.6404923998143
 20
7.93750000000003
 30
0.0
  0
ENDBLK
  5
5523B
330
5522F
100
AcDbEntity
  8
0
100
AcDbBlockEnd
  0
BLOCK
  5
554D2
330
554C9
100
AcDbEntity
  8
0
100
AcDbBlockBegin
  2
*D11
 70
     1
 10
0.0
 20
0.0
 30
0.0
  3
*D11
  1

  0
LINE
  5
554ED
330
554C9
100
AcDbEntity
  8
2
100
AcDbLine
 10
66.22779234756368
 20
6.349999999999987
 30
0.0
 11
98.92182115527148
 21
6.349999999999977
 31
0.0
  0
LINE
  5
554EE
330
554C9
100
AcDbEntity
  8
2
100
AcDbLine
 10
97.4218211552715
 20
2.849999999999977
 30
0.0
 11
97.4218211552715
 21
-6.350000000000005
 31
0.0
  0
LINE
  5
554EF
330
554C9
100
AcDbEntity
  8
2
100
AcDbLine
 10
97.4218211552715
 20
-6.350000000000005
 30
0.0
 11
97.4218211552715
 21
-51.78333333333333
 31
0.0
  0
SOLID
  5
554F0
330
554C9
100
AcDbEntity
  8
2
100
AcDbTrace
 10
96.83848782193816
 20
2.849999999999978
 30
0.0
 11
98.0051544886048
 21
2.849999999999977
 31
0.0
 12
97.4218211552715
 22
6.349999999999978
 32
0.0
 13
97.4218211552715
 23
6.349999999999978
 33
0.0
  0
MTEXT
  5
554F1
330
554C9
100
AcDbEntity
  8
2
100
AcDbMText
 10
93.37182115527149
 20
-30.81666666666666
 30
0.0
 40
3.5
 41
0.0
 71
     5
 72
     1
  1
\A1;%%C12.7 [%%c.500"]
  7
simplex
 11
0.0000000000000001
 21
1.0
 31
0.0
 73
     1
 44
1.0
1001
ACAD
1000
MTEXTBEGIN
1070
    73
1070
     1
1070
    44
1040
1.0
1070
    74
1070
     0
1000
MTEXTEND
  0
POINT
  5
554F2
330
554C9
100
AcDbEntity
  8
Defpoints
 62
     0
100
AcDbPoint
 10
77.82780600000005
 20
-6.350000000000001
 30
0.0
  0
POINT
  5
554F3
330
554C9
100
AcDbEntity
  8
Defpoints
 62
     0
100
AcDbPoint
 10
66.22779234756368
 20
6.349999999999987
 30
0.0
  0
POINT
  5
554F4
330
554C9
100
AcDbEntity
  8
Defpoints
 62
     0
100
AcDbPoint
 10
97.4218211552715
 20
6.349999999999978
 30
0.0
  0
ENDBLK
  5
554D3
330
554C9
100
AcDbEntity
  8
0
100
AcDbBlockEnd
  0
BLOCK
  5
55E16
330
55E0D
100
AcDbEntity
  8
0
100
AcDbBlockBegin
  2
*D49
 70
     1
 10
0.0
 20
0.0
 30
0.0
  3
*D49
  1

  0
LINE
  5
55EDD
330
55E0D
100
AcDbEntity
  8
2
100
AcDbLine
 10
70.28950791538154
 20
5.999999999999998
 30
0.0
 11
93.44437366103097
 21
5.999999999999992
 31
0.0
  0
LINE
  5
55EDE
330
55E0D
100
AcDbEntity
  8
2
100
AcDbLine
 10
91.94437366103096
 20
2.499999999999992
 30
0.0
 11
91.94437366103096
 21
-5.999999999999994
 31
0.0
  0
LINE
  5
55EDF
330
55E0D
100
AcDbEntity
  8
2
100
AcDbLine
 10
91.94437366103096
 20
-5.999999999999994
 30
0.0
 11
91.94437366103095
 21
-47.93333333333333
 31
0.0
  0
SOLID
  5
55EE0
330
55E0D
100
AcDbEntity
  8
2
100
AcDbTrace
 10
91.36104032769763
 20
2.499999999999992
 30
0.0
 11
92.5277069943643
 21
2.499999999999992
 31
0.0
 12
91.94437366103096
 22
5.999999999999992
 32
0.0
 13
91.94437366103096
 23
5.999999999999992
 33
0.0
  0
MTEXT
  5
55EE1
330
55E0D
100
AcDbEntity
  8
2
100
AcDbMText
 10
87.89437366103097
 20
-28.71666666666666
 30
0.0
 40
3.5
 41
0.0
 71
     5
 72
     1
  1
\A1;%%c12 [%%c.472"]
  7
simplex
 11
0.0000000000000001
 21
1.0
 31
0.0
 73
     1
 44
1.0
1001
ACAD
1000
MTEXTBEGIN
1070
    73
1070
     1
1070
    44
1040
1.0
1070
    74
1070
     0
1000
MTEXTEND
  0
POINT
  5
55EE2
330
55E0D
100
AcDbEntity
  8
Defpoints
 62
     0
100
AcDbPoint
 10
70.28950791538154
 20
5.999999999999998
 30
0.0
  0
POINT
  5
55EE3
330
55E0D
100
AcDbEntity
  8
Defpoints
 62
     0
100
AcDbPoint
 10
67.02500000000004
 20
-5.999999999999987
 30
0.0
  0
POINT
  5
55EE4
330
55E0D
100
AcDbEntity
  8
Defpoints
 62
     0
100
AcDbPoint
 10
91.94437366103096
 20
-5.999999999999994
 30
0.0
  0
ENDBLK
  5
55E17
330
55E0D
100
AcDbEntity
  8
0
100
AcDbBlockEnd
  0
BLOCK
  5
55E53
330
55E4B
100
AcDbEntity
  8
0
100
AcDbBlockBegin
  2
*D54
 70
     1
 10
0.0
 20
0.0
 30
0.0
  3
*D54
  1

  0
LINE
  5
55EEC
330
55E4B
100
AcDbEntity
  8
2
100
AcDbLine
 10
105.6209142195339
 20
28.34992744832419
 30
0.0
 11
75.3115078698232
 21
6.667115564886135
 31
0.0
  0
MTEXT
  5
55EED
330
55E4B
100
AcDbEntity
  8
2
100
AcDbMText
 10
89.53310030185393
 20
21.82063286203479
 30
0.0
 40
3.5
 41
0.0
 71
     5
 72
     1
  1
\A1;R3 [R.118"]
  7
simplex
 11
0.81331144051102
 21
0.5818285836342947
 31
0.0
 73
     1
 44
1.0
1001
ACAD
1000
MTEXTBEGIN
1070
    73
1070
     1
1070
    44
1040
1.0
1070
    74
1070
     0
1000
MTEXTEND
  0
SOLID
  5
55EEE
330
55E4B
100
AcDbEntity
  8
2
100
AcDbTrace
 10
74.97210786270319
 20
7.141547238517564
 30
0.0
 11
75.6509078769432
 21
6.192683891254702
 31
0.0
 12
72.46491782803463
 22
4.630715522166109
 32
0.0
 13
72.46491782803463
 23
4.630715522166109
 33
0.0
  0
LINE
  5
55EEF
330
55E4B
100
AcDbEntity
  8
2
100
AcDbLine
 10
69.93498350650177
 20
2.885229771263364
 30
0.0
 11
70.11498350650177
 21
2.885229771263364
 31
0.0
  0
LINE
  5
55EF0
330
55E4B
100
AcDbEntity
  8
2
100
AcDbLine
 10
70.02498350650177
 20
2.795229771263361
 30
0.0
 11
70.02498350650177
 21
2.975229771263368
 31
0.0
  0
POINT
  5
55EF1
330
55E4B
100
AcDbEntity
  8
Defpoints
 62
     0
100
AcDbPoint
 10
72.46491782803463
 20
4.630715522166109
 30
0.0
  0
POINT
  5
55EF2
330
55E4B
100
AcDbEntity
  8
Defpoints
 62
     0
100
AcDbPoint
 10
70.02498350650177
 20
2.885229771263364
 30
0.0
  0
ENDBLK
  5
55E54
330
55E4B
100
AcDbEntity
  8
0
100
AcDbBlockEnd
  0
ENDSEC
  0
SECTION
  2
ENTITIES
  0
INSERT
  5
68C
330
1F
100
AcDbEntity
  8
0
100
AcDbBlockReference
  2
zero block
 10
0.0
 20
0.0
 30
0.0
  0
MTEXT
  5
53AD9
330
1F
100
AcDbEntity
  8
sk6
100
AcDbMText
 10
-87.24322979331942
 20
84.56961532674586
 30
0.0
 40
5.0
 41
70.03712541027798
 71
     1
 72
     5
  1
SRFU08S10L\PSUFT12R30
  7
simplex
 73
     1
 44
1.0
1001
ACAD
1000
ACAD_MTEXT_DEFINED_HEIGHT_BEGIN
1070
    46
1040
0.0
1000
ACAD_MTEXT_DEFINED_HEIGHT_END
1000
MTEXTBEGIN
1070
    73
1070
     1
1070
    44
1040
1.0
1070
    74
1070
     0
1000
MTEXTEND
  0
SPLINE
  5
54BD9
330
1F
100
AcDbEntity
  8
1
100
AcDbSpline
210
0.0
220
0.0
230
1.0
 70
     8
 71
     3
 72
    10
 73
     6
 74
     4
 42
0.0000000001
 43
0.0000000001
 44
0.000001
 12
0.9650356897166268
 22
-0.2621185181805258
 32
0.0
 13
0.9223637646072724
 23
-0.3863225151858227
 33
0.0
 40
0.0
 40
0.0
 40
0.0
 40
0.0
 40
0.7640390058029486
 40
1.533174933640711
 40
2.300551820622089
 40
2.300551820622089
 40
2.300551820622089
 40
2.300551820622089
 10
64.85068618749989
 20
4.608642103515547
 30
0.0
 10
65.09646115714509
 20
4.54188584617115
 30
0.0
 10
65.58680867125969
 20
4.397213103578993
 30
0.0
 10
66.31256284192381
 20
4.148852424762382
 30
0.0
 10
66.78940474232644
 20
3.961366676540251
 30
0.0
 10
67.02533828710932
 20
3.862548353515547
 30
0.0
 11
64.85068618749989
 21
4.608642103515547
 31
0.0
 11
65.58352004980463
 21
4.392516615234411
 31
0.0
 11
66.31114303564448
 21
4.143249037109353
 31
0.0
 11
67.02533828710932
 21
3.862548353515547
 31
0.0
  0
SPLINE
  5
54BDA
330
1F
100
AcDbEntity
  8
1
100
AcDbSpline
210
0.0
220
0.0
230
1.0
 70
     8
 71
     3
 72
     8
 73
     4
 74
     0
 42
0.0000000001
 43
0.0000000001
 40
0.0
 40
0.0
 40
0.0
 40
0.0
 40
0.5463012196666999
 40
0.5463012196666999
 40
0.5463012196666999
 40
0.5463012196666999
 10
62.4919825742187
 20
5.195189955078103
 30
0.0
 10
62.66999454794711
 20
5.156819454989713
 30
0.0
 10
62.84771118985975
 20
5.117049478877672
 30
0.0
 10
63.02505169149776
 20
5.075677716626371
 30
0.0
  0
SPLINE
  5
54BDB
330
1F
100
AcDbEntity
  8
1
100
AcDbSpline
210
0.0
220
0.0
230
1.0
 70
     8
 71
     3
 72
    11
 73
     7
 74
     0
 42
0.0000000001
 43
0.0000000001
 40
0.5463012196666999
 40
0.5463012196666999
 40
0.5463012196666999
 40
0.5463012196666999
 40
0.572560241578073
 40
1.173774481261014
 40
1.794959738262245
 40
2.430813038627595
 40
2.430813038627595
 40
2.430813038627595
 40
2.430813038627595
 10
63.02505169149776
 20
5.075677716626371
 30
0.0
 10
63.03357590479016
 20
5.073689103069665
 30
0.0
 10
63.23724573804577
 20
5.026081694056142
 30
0.0
 10
63.64154673005851
 20
4.927113300972917
 30
0.0
 10
64.24140066872428
 20
4.772636735664617
 30
0.0
 10
64.64620818450351
 20
4.664427541878991
 30
0.0
 10
64.85068618749989
 20
4.608642103515547
 30
0.0
  0
SPLINE
  5
54BDC
330
1F
100
AcDbEntity
  8
1
100
AcDbSpline
210
0.0
220
0.0
230
1.0
 70
     8
 71
     3
 72
    10
 73
     6
 74
     4
 42
0.0000000001
 43
0.0000000001
 44
0.000001
 12
0.9992380131607138
 22
-0.0390306681294253
 32
0.0
 13
0.9845565048197173
 23
-0.1750670980429567
 33
0.0
 40
0.0
 40
0.0
 40
0.0
 40
0.0
 40
0.1835697298275759
 40
0.3982883990865258
 40
0.6372284438358199
 40
0.6372284438358199
 40
0.6372284438358199
 40
0.6372284438358199
 10
61.29740249609375
 20
5.380095960937478
 30
0.0
 10
61.35854578013016
 20
5.377707677869642
 30
0.0
 10
61.49114465907655
 20
5.369395465275933
 30
0.0
 10
61.70185665855996
 20
5.341915263173646
 30
0.0
 10
61.85129479761474
 20
5.318661056382232
 30
0.0
 10
61.92971145605469
 20
5.304717542968728
 30
0.0
 11
61.29740249609375
 21
5.380095960937478
 31
0.0
 11
61.48058425878907
 21
5.368163587890603
 31
0.0
 11
61.69371902441406
 21
5.342132093749978
 31
0.0
 11
61.92971145605469
 21
5.304717542968728
 31
0.0
  0
SPLINE
  5
54BDD
330
1F
100
AcDbEntity
  8
1
100
AcDbSpline
210
0.0
220
0.0
230
1.0
 70
     8
 71
     3
 72
    21
 73
    17
 74
    15
 42
0.0000000001
 43
0.0000000001
 44
0.000001
 12
0.9216785663988003
 22
-0.3879544048481113
 32
0.0
 13
0.5206995909959633
 23
-0.8537399697429169
 33
0.0
 40
0.0
 40
0.0
 40
0.0
 40
0.0
 40
0.5301214347112438
 40
1.077157433463646
 40
1.63248566536678
 40
2.213835893196923
 40
2.795841884737316
 40
3.368614964653469
 40
3.928005971472937
 40
4.468702204198073
 40
4.980169212353183
 40
5.443678419843729
 40
5.869089330858208
 40
6.246455752011013
 40
6.498424543041666
 40
6.716659330773359
 40
6.716659330773359
 40
6.716659330773359
 40
6.716659330773359
 10
67.02533828710932
 20
3.862548353515547
 30
0.0
 10
67.18820547509665
 20
3.793994038282004
 30
0.0
 10
67.51611336234453
 20
3.647364942207013
 30
0.0
 10
68.00219639696582
 20
3.402360707595438
 30
0.0
 10
68.49203339650614
 20
3.128027071149128
 30
0.0
 10
68.97844972188448
 20
2.824967208251507
 30
0.0
 10
69.45576980845243
 20
2.497436497178084
 30
0.0
 10
69.91260121144808
 20
2.153910547647694
 30
0.0
 10
70.34280219351632
 20
1.798850108915861
 30
0.0
 10
70.74251221259737
 20
1.439737158415952
 30
0.0
 10
71.10397739559556
 20
1.086529225943114
 30
0.0
 10
71.42343957358787
 20
0.7459834787192988
 30
0.0
 10
71.69919957824425
 20
0.4262484475601556
 30
0.0
 10
71.91666302218329
 20
0.1498186977937436
 30
0.0
 10
72.08114286086282
 20
-0.0800134940832155
 30
0.0
 10
72.16560639450972
 20
-0.2121261779490164
 30
0.0
 10
72.20348464941401
 20
-0.2742314316406523
 30
0.0
 11
67.02533828710932
 21
3.862548353515547
 31
0.0
 11
67.50922500585932
 21
3.646026136718715
 31
0.0
 11
67.99787246679682
 21
3.400115492187465
 31
0.0
 11
68.4823161313476
 21
3.128631117187465
 31
0.0
 11
68.97591506933588
 21
2.821502210937465
 31
0.0
 11
69.45583450292963
 21
2.492248060546797
 31
0.0
 11
69.91346084570307
 21
2.147796156249972
 31
0.0
 11
70.34500991796869
 21
1.791869642578097
 31
0.0
 11
70.7471095273437
 21
1.430388929687472
 31
0.0
 11
71.11263381933588
 21
1.072631361328097
 31
0.0
 11
71.42962753271479
 21
0.7344660781249728
 31
0.0
 11
71.7070475766601
 21
0.4119563124999728
 31
0.0
 11
71.93977462744135
 21
0.1148982070312227
 31
0.0
 11
72.08574020361322
 21
-0.0904850937500273
 31
0.0
 11
72.20348464941401
 21
-0.2742314316406523
 31
0.0
  0
SPLINE
  5
54BDE
330
1F
100
AcDbEntity
  8
1
100
AcDbSpline
210
0.0
220
0.0
230
1.0
 70
     8
 71
     3
 72
    21
 73
    17
 74
    15
 42
0.0000000001
 43
0.0000000001
 44
0.000001
 12
0.999999013931181
 22
0.001404327834146
 32
0.0
 13
0.0541299792816777
 23
0.9985338979438632
 33
0.0
 40
0.0
 40
0.0
 40
0.0
 40
0.0
 40
0.5827374161315943
 40
1.167328770258599
 40
1.750052980559751
 40
2.332800278349661
 40
2.91738615252668
 40
3.500121267031748
 40
4.082791390541654
 40
4.667323391609655
 40
5.250003556959741
 40
5.832335799914078
 40
6.41651918688297
 40
6.998857841921562
 40
7.424561447293655
 40
7.850297666896668
 40
7.850297666896668
 40
7.850297666896668
 40
7.850297666896668
 10
67.02533828710932
 20
-5.167236802734451
 30
0.0
 10
67.21958390094681
 20
-5.166964017943294
 30
0.0
 10
67.6090282174423
 20
-5.144900578617471
 30
0.0
 10
68.18519719902764
 20
-5.046600780745063
 30
0.0
 10
68.7471093343716
 20
-4.885255980509718
 30
0.0
 10
69.28669840114395
 20
-4.660277124719064
 30
0.0
 10
69.79798317946336
 20
-4.376968688426744
 30
0.0
 10
70.27471886571266
 20
-4.03863534330318
 30
0.0
 10
70.7094137444082
 20
-3.647785240897687
 30
0.0
 10
71.09798500739157
 20
-3.211184257704773
 30
0.0
 10
71.4356875740167
 20
-2.73418470690648
 30
0.0
 10
71.7162558740481
 20
-2.221623245017064
 30
0.0
 10
71.93810616634045
 20
-1.681268339600072
 30
0.0
 10
72.08390343234464
 20
-1.169687373276385
 30
0.0
 10
72.16871701578345
 20
-0.6988422376393985
 30
0.0
 10
72.19580295183186
 20
-0.4159354472593463
 30
0.0
 10
72.20348464941401
 20
-0.2742314316406523
 30
0.0
 11
67.02533828710932
 21
-5.167236802734451
 31
0.0
 11
67.60713302587885
 21
-5.134094712890644
 31
0.0
 11
68.18342697119135
 21
-5.035950181640644
 31
0.0
 11
68.74338638281244
 21
-4.874664781250019
 31
0.0
 11
69.28142654394526
 21
-4.650818345703144
 31
0.0
 11
69.79274856542963
 21
-4.367462632812519
 31
0.0
 11
70.26773941015619
 21
-4.02987718359372
 31
0.0
 11
70.70128738378901
 21
-3.640594957031269
 31
0.0
 11
71.08989822363276
 21
-3.203949449218769
 31
0.0
 11
71.42624771093744
 21
-2.728149888671894
 31
0.0
 11
71.70620834326166
 21
-2.217529771484451
 31
0.0
 11
71.9280177304687
 21
-1.677093980468769
 31
0.0
 11
72.08734237646479
 21
-1.116974351562526
 31
0.0
 11
72.16289627050776
 21
-0.6980290390625274
 31
0.0
 11
72.20348464941401
 21
-0.2742314316406523
 31
0.0
  0
ARC
  5
54BE2
330
1F
100
AcDbEntity
  8
1
100
AcDbCircle
 10
67.02533800000003
 20
0.0000000000000055
 30
0.0
 40
2.5
100
AcDbArc
 50
89.99999699999904
 51
180.0
  0
ARC
  5
54BE3
330
1F
100
AcDbEntity
  8
1
100
AcDbCircle
 10
67.02533800000003
 20
0.0000000000000055
 30
0.0
 40
2.5
100
AcDbArc
 50
180.0
 51
270.0000029999977
  0
ARC
  5
54BE4
330
1F
100
AcDbEntity
  8
1
100
AcDbCircle
 10
67.02533800000003
 20
0.0000000000000055
 30
0.0
 40
2.5
100
AcDbArc
 50
270.0000029999977
 51
0.000004999999689
  0
ARC
  5
54BE5
330
1F
100
AcDbEntity
  8
1
100
AcDbCircle
 10
67.02533800000003
 20
0.0000000000000055
 30
0.0
 40
2.5
100
AcDbArc
 50
359.9999950000003
 51
89.99999699999904
  0
ARC
  5
54BE6
330
1F
100
AcDbEntity
  8
1
100
AcDbCircle
 10
67.02533800000003
 20
-1.516510000000033
 30
0.0
 40
0.4880010000000001
100
AcDbArc
 50
43.60110900000078
 51
136.3988859999987
  0
ARC
  5
54BE7
330
1F
100
AcDbEntity
  8
1
100
AcDbCircle
 10
67.59027200000002
 20
-0.9785160000000077
 30
0.0
 40
0.29213
100
AcDbArc
 50
223.601547000001
 51
16.39845599999908
  0
ARC
  5
54BE8
330
1F
100
AcDbEntity
  8
1
100
AcDbCircle
 10
68.15520600000002
 20
0.0000000000000055
 30
0.0
 40
0.29213
100
AcDbArc
 50
283.6015319999969
 51
76.39847099999811
  0
ARC
  5
54BE9
330
1F
100
AcDbEntity
  8
1
100
AcDbCircle
 10
65.71200699999997
 20
0.7582389999999518
 30
0.0
 40
0.4880010000000001
100
AcDbArc
 50
283.6011150000006
 51
16.39889300000033
  0
ARC
  5
54BEA
330
1F
100
AcDbEntity
  8
1
100
AcDbCircle
 10
67.59027200000002
 20
0.9784849999999833
 30
0.0
 40
0.29213
100
AcDbArc
 50
343.6015399999998
 51
136.3984589999982
  0
ARC
  5
54BEB
330
1F
100
AcDbEntity
  8
1
100
AcDbCircle
 10
65.71200699999997
 20
-0.7582710000000308
 30
0.0
 40
0.4880010000000001
100
AcDbArc
 50
343.6011170000006
 51
76.39888099999968
  0
ARC
  5
54BEC
330
1F
100
AcDbEntity
  8
1
100
AcDbCircle
 10
65.89547100000004
 20
0.0000000000000055
 30
0.0
 40
0.29213
100
AcDbArc
 50
103.6015340000002
 51
256.398458999998
  0
ARC
  5
54BED
330
1F
100
AcDbEntity
  8
1
100
AcDbCircle
 10
68.338662
 20
-0.7582710000000308
 30
0.0
 40
0.4880010000000001
100
AcDbArc
 50
103.6011170000004
 51
196.3988879999987
  0
ARC
  5
54BEE
330
1F
100
AcDbEntity
  8
1
100
AcDbCircle
 10
68.338662
 20
0.7582389999999518
 30
0.0
 40
0.4880010000000001
100
AcDbArc
 50
163.601115
 51
256.3988829999995
  0
ARC
  5
54BEF
330
1F
100
AcDbEntity
  8
1
100
AcDbCircle
 10
66.46040499999992
 20
-0.9785160000000077
 30
0.0
 40
0.29213
100
AcDbArc
 50
163.6015369999998
 51
316.398468
  0
ARC
  5
54BF0
330
1F
100
AcDbEntity
  8
1
100
AcDbCircle
 10
66.46040499999992
 20
0.9784849999999833
 30
0.0
 40
0.29213
100
AcDbArc
 50
43.60153199999991
 51
196.3984579999991
  0
ARC
  5
54BF1
330
1F
100
AcDbEntity
  8
1
100
AcDbCircle
 10
67.02533800000003
 20
1.516479000000008
 30
0.0
 40
0.4880010000000001
100
AcDbArc
 50
223.6011169999991
 51
316.3988909999992
  0
ARC
  5
54BF2
330
1F
100
AcDbEntity
  8
1
100
AcDbCircle
 10
67.02533800000003
 20
0.0000000000000055
 30
0.0
 40
1.750004
100
AcDbArc
 50
90.00011400000039
 51
269.9998929999996
  0
ARC
  5
54BF3
330
1F
100
AcDbEntity
  8
1
100
AcDbCircle
 10
67.02533099999993
 20
0.0000000000000055
 30
0.0
 40
1.750004
100
AcDbArc
 50
270.0001319999996
 51
89.99989099999686
  0
ARC
  5
54BF4
330
1F
100
AcDbEntity
  8
1
100
AcDbCircle
 10
66.87533699999995
 20
0.0000000000000055
 30
0.0
 40
2.75
100
AcDbArc
 50
89.99992899999806
 51
180.0
  0
ARC
  5
54BF5
330
1F
100
AcDbEntity
  8
1
100
AcDbCircle
 10
66.87533699999995
 20
0.0000000000000055
 30
0.0
 40
2.75
100
AcDbArc
 50
180.0
 51
269.9999339999986
  0
ARC
  5
54BF6
330
1F
100
AcDbEntity
  8
1
100
AcDbCircle
 10
66.87533699999995
 20
0.0000000000000055
 30
0.0
 40
2.75
100
AcDbArc
 50
269.9999339999986
 51
0.000004999999689
  0
ARC
  5
54BF7
330
1F
100
AcDbEntity
  8
1
100
AcDbCircle
 10
66.87533699999995
 20
0.0000000000000055
 30
0.0
 40
2.75
100
AcDbArc
 50
0.000004999999689
 51
89.99991899999706
  0
ARC
  5
54BF8
330
1F
100
AcDbEntity
  8
1
100
AcDbCircle
 10
66.87533699999995
 20
0.0000000000000055
 30
0.0
 40
2.9
100
AcDbArc
 50
89.99999699999904
 51
270.0000029999977
  0
ARC
  5
54BF9
330
1F
100
AcDbEntity
  8
1
100
AcDbCircle
 10
67.02533800000003
 20
0.0000000000000055
 30
0.0
 40
2.9
100
AcDbArc
 50
270.0000029999977
 51
90.00000100000141
  0
LINE
  5
54C08
330
1F
100
AcDbEntity
  8
1
100
AcDbLine
 10
62.24121200000002
 20
5.195188999999968
 30
0.0
 11
61.92970800000001
 21
5.304710999999953
 31
0.0
  0
LINE
  5
54C09
330
1F
100
AcDbEntity
  8
1
100
AcDbLine
 10
61.22533499999997
 20
-5.304749000000009
 30
0.0
 11
63.02533800000003
 21
-5.304749000000009
 31
0.0
  0
LINE
  5
54C0A
330
1F
100
AcDbEntity
  8
1
100
AcDbLine
 10
61.22533499999997
 20
-5.19522099999999
 30
0.0
 11
61.22533499999997
 21
-5.304749000000009
 31
0.0
  0
LINE
  5
54C0B
330
1F
100
AcDbEntity
  8
1
100
AcDbLine
 10
61.22533499999997
 20
-5.19522099999999
 30
0.0
 11
63.02533800000003
 21
-5.19522099999999
 31
0.0
  0
LINE
  5
54C0D
330
1F
100
AcDbEntity
  8
1
100
AcDbLine
 10
63.83606799999995
 20
-5.16723700000005
 30
0.0
 11
67.02533800000003
 21
-5.16723700000005
 31
0.0
  0
LINE
  5
54C0E
330
1F
100
AcDbEntity
  8
1
100
AcDbLine
 10
63.02500000000003
 20
-5.16723700000005
 30
0.0
 11
63.83606799999995
 21
-5.16723700000005
 31
0.0
  0
LINE
  5
54C0F
330
1F
100
AcDbEntity
  8
1
100
AcDbLine
 10
66.87533699999995
 20
-2.900025000000014
 30
0.0
 11
67.02533800000003
 21
-2.900025000000014
 31
0.0
  0
LINE
  5
54C10
330
1F
100
AcDbEntity
  8
1
100
AcDbLine
 10
66.87533699999995
 20
2.89999299999995
 30
0.0
 11
67.02533800000003
 21
2.89999299999995
 31
0.0
  0
LINE
  5
54C11
330
1F
100
AcDbEntity
  8
1
100
AcDbLine
 10
61.22533499999997
 20
5.19518999999998
 30
0.0
 11
62.491983
 21
5.19518999999998
 31
0.0
  0
LINE
  5
54C12
330
1F
100
AcDbEntity
  8
1
100
AcDbLine
 10
61.22533499999997
 20
5.304717999999934
 30
0.0
 11
61.22533499999997
 21
5.19518999999998
 31
0.0
  0
LINE
  5
54C13
330
1F
100
AcDbEntity
  8
1
100
AcDbLine
 10
61.22533499999997
 20
5.304717999999934
 30
0.0
 11
61.929711
 21
5.304717999999934
 31
0.0
  0
LINE
  5
54C14
330
1F
100
AcDbEntity
  8
1
100
AcDbLine
 10
61.29740200000004
 20
5.380095999999993
 30
0.0
 11
63.02500299999991
 21
5.380095999999993
 31
0.0
  0
LINE
  5
54C18
330
1F
100
AcDbEntity
  8
1
100
AcDbLine
 10
61.02500299999997
 20
-5.380555000000065
 30
0.0
 11
61.02500299999997
 21
0.0000000000000055
 31
0.0
  0
LINE
  5
54C19
330
1F
100
AcDbEntity
  8
1
100
AcDbLine
 10
61.02500299999997
 20
0.0000000000000055
 30
0.0
 11
61.02500299999997
 21
5.380522999999993
 31
0.0
  0
LINE
  5
54C1B
102
{ACAD_REACTORS
330
54C2C
102
}
330
1F
100
AcDbEntity
  8
1
100
AcDbLine
 10
58.02500299999991
 20
-5.749999999999995
 30
0.0
 11
58.02500299999991
 21
5.750000000000012
 31
0.0
  0
DIMENSION
  5
54C2A
102
{ACAD_XDICTIONARY
360
54C2B
102
}
102
{ACAD_REACTORS
330
54C2C
102
}
330
1F
100
AcDbEntity
  8
2
100
AcDbDimension
  2
*D7
 10
51.14412465103123
 20
5.750000000000014
 30
0.0
 11
51.14412465103123
 21
-37.16749705974474
 31
0.0
 70
   160
  1
%%C<>
 71
     5
 42
11.50000000000001
  3
\M+18352\M+18373\M+1815B - ISO-25
100
AcDbAlignedDimension
 13
58.02500299999991
 23
-5.749999999999995
 33
0.0
 14
58.02500299999991
 24
5.750000000000012
 34
0.0
 50
270.0
100
AcDbRotatedDimension
1001
ACAD
1000
DSTYLE
1002
{
1070
     4
1000
%%C[]"
1070
    40
1040
1.0
1070
   143
1040
0.03937
1070
   170
1070
     1
1070
   171
1070
     3
1070
   271
1070
     8
1070
   285
1070
     4
1002
}
  0
DIMENSION
  5
54C2E
330
1F
100
AcDbEntity
  8
2
100
AcDbDimension
  2
*D6
 10
73.02499499999993
 20
25.59157037082822
 30
0.0
 11
39.39166166666666
 21
25.59157037082822
 31
0.0
 70
   160
 71
     5
 41
0.892857
 42
14.99999999999988
  3
\M+18352\M+18373\M+1815B - ISO-25
100
AcDbAlignedDimension
 13
58.02499500000005
 23
5.749999999999984
 33
0.0
 14
73.02499499999993
 24
17.60461399999991
 34
0.0
 50
180.0
100
AcDbRotatedDimension
1001
ACAD
1000
DSTYLE
1002
{
1070
     4
1000
"
1070
    40
1040
1.0
1070
   143
1040
0.03937
1070
   170
1070
     1
1070
   171
1070
     3
1070
   271
1070
     8
1070
   285
1070
     4
1002
}
  0
LINE
  5
54CD0
330
1F
100
AcDbEntity
  8
1
100
AcDbLine
 10
61.02499299999999
 20
5.379999998900002
 30
0.0
 11
63.024993
 21
5.379999998900002
 31
0.0
1001
ACAD
1000
RTMaterial
1005
0
  0
LINE
  5
54CD3
330
1F
100
AcDbEntity
  8
1
100
AcDbLine
 10
58.024993
 20
5.749999998900006
 30
0.0
 11
1.483661103384292
 21
7.217100910773218
 31
0.0
1001
ACAD
1000
RTMaterial
1005
0
  0
LINE
  5
54CD4
330
1F
100
AcDbEntity
  8
1
100
AcDbLine
 10
61.02499299999999
 20
5.379999998900002
 30
0.0
 11
58.024993
 21
5.749999998900006
 31
0.0
1001
ACAD
1000
RTMaterial
1005
0
  0
LINE
  5
54EB7
330
1F
100
AcDbEntity
  8
1
100
AcDbLine
 10
58.02499299815543
 20
-5.74999999628807
 30
0.0
 11
1.483661103384292
 21
-7.217100889963044
 31
0.0
1001
ACAD
1000
RTMaterial
1005
0
  0
LINE
  5
54EBA
102
{ACAD_REACTORS
330
54C2C
102
}
330
1F
100
AcDbEntity
  8
1
100
AcDbLine
 10
63.02500299999991
 20
5.075689075822523
 30
0.0
 11
63.02500299999991
 21
5.380095999999993
 31
0.0
  0
LINE
  5
54EC2
330
1F
100
AcDbEntity
  8
1
100
AcDbLine
 10
61.02499299827411
 20
-5.379999997250437
 30
0.0
 11
63.02499299827411
 21
-5.37999999789203
 31
0.0
1001
ACAD
1000
RTMaterial
1005
0
  0
LINE
  5
54EC3
330
1F
100
AcDbEntity
  8
1
100
AcDbLine
 10
61.02499299827411
 20
-5.379999997250437
 30
0.0
 11
58.02499299815543
 21
-5.74999999628807
 31
0.0
1001
ACAD
1000
RTMaterial
1005
0
  0
ARC
  5
54EDA
330
1F
100
AcDbEntity
  8
nocut
100
AcDbCircle
 10
67.02099999999996
 20
-0.0000000023000142
 30
0.0
 40
5.380000001200013
100
AcDbArc
 50
0.0
 51
90.0
  0
LINE
  5
54EDD
330
1F
100
AcDbEntity
  8
nocut
100
AcDbLine
 10
72.40100000120003
 20
0.000000000000041
 30
0.0
 11
0.0
 21
0.0
 31
0.0
1001
ACAD
1000
RTMaterial
1005
0
  0
LINE
  5
54EDE
330
1F
100
AcDbEntity
  8
nocut
100
AcDbLine
 10
61.02500000000003
 20
5.379999998900002
 30
0.0
 11
67.02099999999996
 21
5.379999998900002
 31
0.0
1001
ACAD
1000
RTMaterial
1005
0
  0
LINE
  5
54EE0
330
1F
100
AcDbEntity
  8
nocut
100
AcDbLine
 10
58.02500000000003
 20
5.749999998900006
 30
0.0
 11
1.483661103384292
 21
7.21710109240506
 31
0.0
1001
ACAD
1000
RTMaterial
1005
0
  0
LINE
  5
54EE1
330
1F
100
AcDbEntity
  8
nocut
100
AcDbLine
 10
61.02500000000003
 20
5.379999998900002
 30
0.0
 11
58.02500000000003
 21
5.749999998900006
 31
0.0
1001
ACAD
1000
RTMaterial
1005
0
  0
DIMENSION
  5
55154
330
1F
100
AcDbEntity
  8
sk2
100
AcDbDimension
  2
*D8
 10
73.02501000000006
 20
53.31752171091109
 30
0.0
 11
-4.775547765731516
 21
53.31752171091109
 31
0.0
 70
   160
 71
     5
 41
0.75
 42
161.9250000000189
  3
\M+18352\M+18373\M+1815B - ISO-25
100
AcDbAlignedDimension
 13
-88.89999000001887
 23
6.737503000044453
 33
0.0
 14
73.02501000000006
 24
3.095828189644079
 34
0.0
 50
180.0
100
AcDbRotatedDimension
1001
ACAD
1000
DSTYLE
1002
{
1070
     4
1000
"
1070
    40
1040
1.0
1070
   143
1040
0.03937
1070
   170
1070
     1
1070
   171
1070
     3
1070
   271
1070
     8
1070
   285
1070
     4
1002
}
  0
DIMENSION
  5
55155
330
1F
100
AcDbEntity
  8
2
100
AcDbDimension
  2
*D9
 10
73.02501000000006
 20
39.87131568846777
 30
0.0
 11
36.77704324481136
 21
39.87131568846777
 31
0.0
 70
   160
 71
     5
 41
0.892857
 42
73.02500000001891
  3
\M+18352\M+18373\M+1815B - ISO-25
100
AcDbAlignedDimension
 13
0.0000099999811596
 23
7.937530802271549
 33
0.0
 14
73.02501000000006
 24
3.095828189644079
 34
0.0
 50
180.0
100
AcDbRotatedDimension
1001
ACAD
1000
DSTYLE
1002
{
1070
     4
1000
"
1070
    40
1040
1.0
1070
   143
1040
0.03937
1070
   170
1070
     1
1070
   171
1070
     3
1070
   271
1070
     8
1070
   285
1070
     4
1002
}
  0
ARC
  5
5515E
330
1F
100
AcDbEntity
  8
1
100
AcDbCircle
 10
1.53601500000002
 20
9.229930000000008
 30
0.0
 40
2.0
100
AcDbArc
 50
224.9999779999993
 51
268.5000000000006
  0
ARC
  5
5515F
330
1F
100
AcDbEntity
  8
1
100
AcDbCircle
 10
1.53601500000002
 20
-9.229930999999979
 30
0.0
 40
2.0
100
AcDbArc
 50
91.49999999999947
 51
135.0000220000007
  0
LINE
  5
5517A
330
1F
100
AcDbEntity
  8
1
100
AcDbLine
 10
0.0000050000001011
 20
7.937511999999981
 30
0.0
 11
0.1218010000000049
 21
7.815717000000018
 31
0.0
  0
LINE
  5
5519B
330
1F
100
AcDbEntity
  8
1
100
AcDbLine
 10
0.0000050000001011
 20
-7.93751300000004
 30
0.0
 11
0.1218010000000049
 21
-7.815718000000019
 31
0.0
  0
LINE
  5
5519C
330
1F
100
AcDbEntity
  8
sk1
100
AcDbLine
 10
-87.69999699999994
 20
7.937500000000025
 30
0.0
 11
-88.89999000001887
 21
6.737503000044453
 31
0.0
  0
LINE
  5
5519D
330
1F
100
AcDbEntity
  8
sk1
100
AcDbLine
 10
-88.89999000001887
 20
6.737503000044409
 30
0.0
 11
-88.89999000001887
 21
0.000016000044438
 31
0.0
  0
LINE
  5
5519E
330
1F
100
AcDbEntity
  8
sk1
100
AcDbLine
 10
-88.89999299999999
 20
0.0000000000000268
 30
0.0
 11
-88.89999299999999
 21
-6.737518999999965
 31
0.0
  0
LINE
  5
5519F
330
1F
100
AcDbEntity
  8
sk1
100
AcDbLine
 10
-87.69999699999994
 20
-7.937512999997467
 30
0.0
 11
-88.89999599999999
 21
-6.737512999999979
 31
0.0
  0
LINE
  5
551A0
330
1F
100
AcDbEntity
  8
sk1
100
AcDbLine
 10
-87.69999699999994
 20
0.0000000000000268
 30
0.0
 11
-87.69999699999994
 21
7.937500000000025
 31
0.0
  0
LINE
  5
551A1
330
1F
100
AcDbEntity
  8
sk1
100
AcDbLine
 10
-87.69999699999994
 20
0.0000000000000268
 30
0.0
 11
-87.69999699999994
 21
-7.937512999997467
 31
0.0
  0
LINE
  5
551A2
330
1F
100
AcDbEntity
  8
1
100
AcDbLine
 10
0.0
 20
-7.937530999999993
 30
0.0
 11
0.0
 21
0.0000000000000126
 31
0.0
  0
LINE
  5
551A3
330
1F
100
AcDbEntity
  8
1
100
AcDbLine
 10
0.0
 20
7.937500000000012
 30
0.0
 11
0.0
 21
0.0000000000000126
 31
0.0
  0
LINE
  5
551A4
330
1F
100
AcDbEntity
  8
sk1
100
AcDbLine
 10
-87.69999699999994
 20
7.937500000000025
 30
0.0
 11
0.0
 21
7.937500000000012
 31
0.0
  0
LINE
  5
551A5
330
1F
100
AcDbEntity
  8
sk4
100
AcDbLine
 10
-95.35810799999991
 20
0.0000000000000268
 30
0.0
 11
0.0
 21
0.0000000000000126
 31
0.0
  0
LINE
  5
551A6
330
1F
100
AcDbEntity
  8
4
100
AcDbLine
 10
0.0
 20
0.0000000000000126
 30
0.0
 11
77.82781600000004
 21
0.0000000000000055
 31
0.0
  0
LINE
  5
551A7
330
1F
100
AcDbEntity
  8
1
100
AcDbLine
 10
1.473009999981172
 20
-7.015077951566826
 30
0.0
 11
1.473009999981172
 21
7.115354250763386
 31
0.0
  0
LINE
  5
551AD
102
{ACAD_REACTORS
330
551B0
102
}
330
1F
100
AcDbEntity
  8
sk1
100
AcDbLine
 10
-87.69997999999999
 20
-7.937499999999973
 30
0.0
 11
0.0
 21
-7.937499999999987
 31
0.0
  0
DIMENSION
  5
551AE
102
{ACAD_XDICTIONARY
360
551AF
102
}
102
{ACAD_REACTORS
330
551B0
102
}
330
1F
100
AcDbEntity
  8
sk2
100
AcDbDimension
  2
*D10
 10
-103.6404923998143
 20
7.93750000000003
 30
0.0
 11
-103.6404923998143
 21
-36.48750000000002
 31
0.0
 70
   160
  1
%%C<>
 71
     5
 42
15.875
  3
\M+18352\M+18373\M+1815B - ISO-25
100
AcDbAlignedDimension
 13
-87.69997999999999
 23
-7.937499999999973
 33
0.0
 14
-87.69997999999999
 24
7.937500000000025
 34
0.0
 50
270.0
100
AcDbRotatedDimension
1001
ACAD
1000
DSTYLE
1002
{
1070
     4
1000
%%C[]"
1070
    40
1040
1.0
1070
   143
1040
0.03937
1070
   170
1070
     1
1070
   171
1070
     3
1070
   271
1070
     8
1070
   285
1070
     4
1002
}
  0
ARC
  5
55297
330
1F
100
AcDbEntity
  8
nocut
100
AcDbCircle
 10
1.53601500000002
 20
9.229930000000008
 30
0.0
 40
2.0
100
AcDbArc
 50
224.9999779999993
 51
268.5000000000006
  0
LINE
  5
55298
330
1F
100
AcDbEntity
  8
nocut
100
AcDbLine
 10
0.0000050000001011
 20
7.937511999999981
 30
0.0
 11
0.1218010000000049
 21
7.815717000000018
 31
0.0
  0
LINE
  5
55299
330
1F
100
AcDbEntity
  8
nocut
100
AcDbLine
 10
0.0
 20
7.937500000000012
 30
0.0
 11
0.0
 21
0.0000000000000126
 31
0.0
  0
LINE
  5
554BC
330
1F
100
AcDbEntity
  8
1
100
AcDbLine
 10
63.02500000000003
 20
-5.379999997892032
 30
0.0
 11
63.02500000000003
 21
-5.167237000000023
 31
0.0
1001
ACAD
1000
RTMaterial
1005
0
  0
LINE
  5
554BD
330
1F
100
AcDbEntity
  8
1
100
AcDbLine
 10
63.02500000000003
 20
5.07567771662642
 30
0.0
 11
63.02500000000003
 21
5.379999998900003
 31
0.0
1001
ACAD
1000
RTMaterial
1005
0
  0
DIMENSION
  5
55C89
330
1F
100
AcDbEntity
  8
2
100
AcDbDimension
  2
*D49
 10
91.94437366103096
 20
-5.999999999999994
 30
0.0
 11
91.94437366103096
 21
-28.71666666666666
 31
0.0
 70
   160
  1
%%c<>
 71
     5
 42
11.99999999999998
  3
\M+18352\M+18373\M+1815B - ISO-25
100
AcDbAlignedDimension
 13
70.28950791538154
 23
5.999999999999998
 33
0.0
 14
67.02500000000004
 24
-5.999999999999987
 34
0.0
 50
270.0
100
AcDbRotatedDimension
1001
ACAD
1000
DSTYLE
1002
{
1070
    76
1070
     1
1070
   344
1005
50E6F
1070
     4
1000
%%c[]"
1070
    40
1040
1.0
1070
    75
1070
     0
1070
   143
1040
0.03937
1070
   170
1070
     1
1070
   171
1070
     3
1070
   173
1070
     1
1070
   271
1070
     8
1070
   285
1070
     4
1070
   343
1005
0
1002
}
  0
SPLINE
  5
55C8A
330
1F
100
AcDbEntity
  8
1
100
AcDbSpline
210
0.0
220
0.0
230
1.0
 70
     8
 71
     3
 72
    71
 73
    67
 74
    65
 42
0.0000000001
 43
0.0000000001
 44
0.000001
 12
0.9617884745617532
 22
0.2737935905023637
 32
0.0
 13
0.9362140704887199
 23
0.3514302408998727
 33
0.0
 40
0.0
 40
0.0
 40
0.0
 40
0.0
 40
0.0044800750730354
 40
0.0089325687129791
 40
0.0133385956111341
 40
0.0176999204613928
 40
0.0220188328173469
 40
0.0262971843848902
 40
0.030537317888826
 40
0.0347417649820632
 40
0.0389124845776856
 40
0.0430509383735877
 40
0.0471588154169638
 40
0.051238761701514
 40
0.0552924131147575
 40
0.0593208181043585
 40
0.0633253591931347
 40
0.0673083894065967
 40
0.0712717534627481
 40
0.0752174365831125
 40
0.0791473428284627
 40
0.0830625611290388
 40
0.086964728284333
 40
0.0908556693288537
 40
0.0947373462704649
 40
0.0986113830355461
 40
0.102479319979045
 40
0.1063429832750891
 40
0.1102041766751803
 40
0.1140643432858637
 40
0.1179240960498698
 40
0.1217835571795373
 40
0.1256415104746316
 40
0.1294957117028277
 40
0.1333453969444002
 40
0.1371907515011361
 40
0.141031553926503
 40
0.1448685919698178
 40
0.1487034226775978
 40
0.1525370213603669
 40
0.1563708562649084
 40
0.1602068969564404
 40
0.1640469508393878
 40
0.1678927226911881
 40
0.1717456541108116
 40
0.175607166007016
 40
0.1794785230143531
 40
0.1833616034241476
 40
0.1872589290274964
 40
0.191172715581833
 40
0.1951039375020519
 40
0.1990526140220945
 40
0.2030192285153515
 40
0.2070056634963354
 40
0.2110144248257824
 40
0.2150477044842366
 40
0.2191075065219422
 40
0.2231954082467054
 40
0.2273134799447633
 40
0.2314627455866359
 40
0.2356446783503248
 40
0.239861487019809
 40
0.2441148784632886
 40
0.2484063618579004
 40
0.2527383089125266
 40
0.2571123648800252
 40
0.2571123648800252
 40
0.2571123648800252
 40
0.2571123648800252
 10
70.82125807289997
 20
-5.757428891599987
 30
0.0
 10
70.82269436775681
 20
-5.757020019653326
 30
0.0
 10
70.82555742209667
 20
-5.756202356779427
 30
0.0
 10
70.82983062416719
 20
-5.754974169874744
 30
0.0
 10
70.83406375310341
 20
-5.753749876524823
 30
0.0
 10
70.83825211799404
 20
-5.752531095125464
 30
0.0
 10
70.84239767230719
 20
-5.751317533600571
 30
0.0
 10
70.84650253255261
 20
-5.75010876917179
 30
0.0
 10
70.8505690006786
 20
-5.748904717696193
 30
0.0
 10
70.85459920580814
 20
-5.747704581340245
 30
0.0
 10
70.85859512257224
 20
-5.746508074491346
 30
0.0
 10
70.86255841833821
 20
-5.745314860542167
 30
0.0
 10
70.86649098590993
 20
-5.744124555841596
 30
0.0
 10
70.87039476746719
 20
-5.74293673734026
 30
0.0
 10
70.87427149833041
 20
-5.741751034023794
 30
0.0
 10
70.87812250793064
 20
-5.740567186132411
 30
0.0
 10
70.88194935197583
 20
-5.739384854966774
 30
0.0
 10
70.88575383684172
 20
-5.738203612595855
 30
0.0
 10
70.88953795738581
 20
-5.737022959336671
 30
0.0
 10
70.89330356234137
 20
-5.735842428450668
 30
0.0
 10
70.89705225711901
 20
-5.734661618140551
 30
0.0
 10
70.90078553364998
 20
-5.733480151932939
 30
0.0
 10
70.90450485644947
 20
-5.732297653123255
 30
0.0
 10
70.9082119648005
 20
-5.731113647884003
 30
0.0
 10
70.91190859098907
 20
-5.729927653822175
 30
0.0
 10
70.91559637407789
 20
-5.728739207919788
 30
0.0
 10
70.91927690774679
 20
-5.727547853333776
 30
0.0
 10
70.92295183978336
 20
-5.726353105185468
 30
0.0
 10
70.92662278481469
 20
-5.725154480957742
 30
0.0
 10
70.93029097043126
 20
-5.723951615262949
 30
0.0
 10
70.93395709029806
 20
-5.722744312971743
 30
0.0
 10
70.9376209954392
 20
-5.721532653788459
 30
0.0
 10
70.94128163359295
 20
-5.720317018961269
 30
0.0
 10
70.944937674438
 20
-5.719097889286034
 30
0.0
 10
70.94858823287307
 20
-5.717875603499196
 30
0.0
 10
70.95223306435133
 20
-5.71665028935398
 30
0.0
 10
70.9558724147966
 20
-5.715421909974923
 30
0.0
 10
70.95950696276412
 20
-5.714190280037046
 30
0.0
 10
70.96313776344056
 20
-5.71295508228127
 30
0.0
 10
70.96676608498189
 20
-5.71171592079081
 30
0.0
 10
70.97039332364824
 20
-5.710472348945758
 30
0.0
 10
70.97402113597894
 20
-5.709223823760099
 30
0.0
 10
70.97765125019833
 20
-5.707969767999985
 30
0.0
 10
70.98128522577707
 20
-5.706709654706246
 30
0.0
 10
70.98492449825363
 20
-5.705442992579692
 30
0.0
 10
70.98857036242572
 20
-5.704169332148895
 30
0.0
 10
70.99222424863666
 20
-5.702888170468513
 30
0.0
 10
70.99588793119761
 20
-5.701598876473413
 30
0.0
 10
70.99956348058942
 20
-5.700300705596946
 30
0.0
 10
71.00325268015734
 20
-5.698993005006359
 30
0.0
 10
71.00695652461076
 20
-5.697675393895808
 30
0.0
 10
71.01067546380346
 20
-5.696347682848129
 30
0.0
 10
71.01441023194133
 20
-5.69500957871965
 30
0.0
 10
71.01816234222218
 20
-5.693660505225027
 30
0.0
 10
71.02193384110382
 20
-5.692299686014864
 30
0.0
 10
71.02572680976805
 20
-5.6909263217797
 30
0.0
 10
71.02954303638336
 20
-5.68953971324966
 30
0.0
 10
71.03338426512625
 20
-5.688139159207283
 30
0.0
 10
71.03725194299426
 20
-5.686724096996572
 30
0.0
 10
71.04114743636472
 20
-5.685293845747454
 30
0.0
 10
71.04507234185445
 20
-5.683848216534203
 30
0.0
 10
71.04902814551059
 20
-5.682386060835257
 30
0.0
 10
71.05301655463569
 20
-5.680906798012701
 30
0.0
 10
71.05703926714574
 20
-5.679409664833913
 30
0.0
 10
71.0610979744792
 20
-5.677893940812923
 30
0.0
 10
71.06381544121934
 20
-5.676875614447441
 30
0.0
 10
71.06518045879994
 20
-5.67636322259999
 30
0.0
 11
70.82125807289997
 21
-5.757428891599987
 31
0.0
 11
70.82556594929991
 21
-5.756198644699951
 31
0.0
 11
70.829845293
 21
-5.754968780299963
 31
0.0
 11
70.83407799669993
 21
-5.753744734299987
 31
0.0
 11
70.83826581109992
 21
-5.752526272899972
 31
0.0
 11
70.84241098749993
 21
-5.751312998800004
 31
0.0
 11
70.84651532669994
 21
-5.750104628399968
 31
0.0
 11
70.8505809703999
 21
-5.748900760899987
 31
0.0
 11
70.85461055549996
 21
-5.747700829799969
 31
0.0
 11
70.85860600509994
 21
-5.746504462799963
 31
0.0
 11
70.86256876259989
 21
-5.745311416899982
 31
0.0
 11
70.86650048619998
 21
-5.744121372299973
 31
0.0
 11
70.87040374629992
 21
-5.742933717799973
 31
0.0
 11
70.87428014300002
 21
-5.741748121899989
 31
0.0
 11
70.87813071210002
 21
-5.740564414799978
 31
0.0
 11
70.88195680669986
 21
-5.739382320599974
 31
0.0
 11
70.88576070419998
 21
-5.738201265999963
 31
0.0
 11
70.88954419290002
 21
-5.737020815299972
 31
0.0
 11
70.89330919209993
 21
-5.735840479799934
 31
0.0
 11
70.89705754049993
 21
-5.734659783999989
 31
0.0
 11
70.9007902967
 21
-5.733478487899974
 31
0.0
 11
70.90450903959998
 21
-5.732296178899973
 31
0.0
 11
70.90821552479991
 21
-5.731112378099952
 31
0.0
 11
70.91191163539992
 21
-5.729926554799975
 31
0.0
 11
70.91559892970002
 21
-5.728738271899986
 31
0.0
 11
70.91927888409992
 21
-5.727547110099964
 31
0.0
 11
70.92295324430001
 21
-5.726352553299976
 31
0.0
 11
70.92662373199999
 21
-5.725154083699964
 31
0.0
 11
70.93029172349992
 21
-5.723951287099952
 31
0.0
 11
70.9339578046999
 21
-5.722744002899974
 31
0.0
 11
70.9376220947999
 21
-5.721532221799963
 31
0.0
 11
70.94128344299992
 21
-5.720316356599981
 31
0.0
 11
70.94493972549997
 21
-5.719097151699985
 31
0.0
 11
70.94859022549991
 21
-5.717874890899951
 31
0.0
 11
70.95223512709998
 21
-5.716649558599998
 31
0.0
 11
70.95587422889997
 21
-5.715421268499982
 31
0.0
 11
70.95950828550002
 21
-5.714189810499975
 31
0.0
 11
70.96313877860001
 21
-5.712954722799979
 31
0.0
 11
70.96676663719989
 21
-5.711715724799988
 31
0.0
 11
70.97039325509996
 21
-5.710472371299987
 31
0.0
 11
70.97402049800002
 21
-5.709224047499974
 31
0.0
 11
70.97765007539994
 21
-5.707970182699954
 31
0.0
 11
70.98128359729997
 21
-5.706710232299984
 31
0.0
 11
70.98492242279991
 21
-5.705443731299952
 31
0.0
 11
70.98856788939992
 21
-5.704170215399971
 31
0.0
 11
70.99222118519998
 21
-5.702889266399937
 31
0.0
 11
70.99588407529989
 21
-5.701600256999983
 31
0.0
 11
70.99955892880001
 21
-5.700302337699968
 31
0.0
 11
71.00324782279989
 21
-5.698994751199949
 31
0.0
 11
71.00695166190002
 21
-5.697677147899968
 31
0.0
 11
71.01067045009989
 21
-5.69634949659998
 31
0.0
 11
71.01440462839986
 21
-5.69501160969999
 31
0.0
 11
71.01815595369993
 21
-5.69366282429995
 31
0.0
 11
71.02192676649991
 21
-5.692302258299962
 31
0.0
 11
71.0257191087
 21
-5.690929126900003
 31
0.0
 11
71.02953484259995
 21
-5.689542701499975
 31
0.0
 11
71.03337542689991
 21
-5.688142392399969
 31
0.0
 11
71.03724278110002
 21
-5.686727434599974
 31
0.0
 11
71.04113783399992
 21
-5.685297418499986
 31
0.0
 11
71.04506178179992
 21
-5.683851832499998
 31
0.0
 11
71.04901685069996
 21
-5.682389778399953
 31
0.0
 11
71.05300461329995
 21
-5.680910590899985
 31
0.0
 11
71.05702645499985
 21
-5.679413667799979
 31
0.0
 11
71.06108456729993
 21
-5.677898099299953
 31
0.0
 11
71.06518045879994
 21
-5.67636322259999
 31
0.0
  0
SPLINE
  5
55C8B
330
1F
100
AcDbEntity
  8
1
100
AcDbSpline
210
0.0
220
0.0
230
1.0
 70
     8
 71
     3
 72
    22
 73
    18
 74
    16
 42
0.0000000001
 43
0.0000000001
 44
0.000001
 12
0.0559714537861895
 22
0.9984323694477561
 32
0.0
 13
0.0608291190676251
 23
0.9981481945450067
 33
0.0
 40
0.0
 40
0.0
 40
0.0
 40
0.0
 40
0.0268166277439826
 40
0.0551691670068555
 40
0.0848750831786309
 40
0.1149711447063731
 40
0.144808684835766
 40
0.1745727128649421
 40
0.2043852693574389
 40
0.2341706041839962
 40
0.2639595293724255
 40
0.2938954309220913
 40
0.3240301460957904
 40
0.3543127927122496
 40
0.3843493617749217
 40
0.4137192533091758
 40
0.4428177825256252
 40
0.4428177825256252
 40
0.4428177825256252
 40
0.4428177825256252
 10
72.91836101600001
 20
0.3279712223000486
 30
0.0
 10
72.91886133788017
 20
0.3368960853597242
 30
0.0
 10
72.91989697702735
 20
0.355256626306341
 30
0.0
 10
72.92152148255656
 20
0.3835016468990046
 30
0.0
 10
72.92322749369481
 20
0.4128369215825087
 30
0.0
 10
72.9249740341142
 20
0.4426656729638536
 30
0.0
 10
72.92672220955097
 20
0.4725137320429822
 30
0.0
 10
72.9284630763529
 20
0.5022675556120345
 30
0.0
 10
72.93020122944773
 20
0.5320041063601747
 30
0.0
 10
72.93193740794965
 20
0.5617490856637898
 30
0.0
 10
72.93367400224525
 20
0.5915352255849041
 30
0.0
 10
72.9354183526977
 20
0.6214375712163599
 30
0.0
 10
72.93717599864868
 20
0.6515039946397804
 30
0.0
 10
72.93894178408931
 20
0.6816035552159702
 30
0.0
 10
72.94070525791989
 20
0.711447869586051
 30
0.0
 10
72.9424624228522
 20
0.7408971598498494
 30
0.0
 10
72.94364192586721
 20
0.7603509117662794
 30
0.0
 10
72.94423193849997
 20
0.7700324599000493
 30
0.0
 11
72.91836101600001
 21
0.3279712223000486
 31
0.0
 11
72.91987393869994
 21
0.3547451383000164
 31
0.0
 11
72.92149952029996
 21
0.383051037699998
 31
0.0
 11
72.92322288269992
 21
0.4127069217000197
 31
0.0
 11
72.9249801542
 21
0.4427516367000221
 31
0.0
 11
72.92672434269997
 21
0.4725381537000131
 31
0.0
 11
72.92846284739988
 21
0.5022513654999995
 31
0.0
 11
72.93020234699992
 21
0.5320131304999888
 31
0.0
 11
72.93193800709985
 21
0.561747851700032
 31
0.0
 11
72.93367231069993
 21
0.5914862485000169
 31
0.0
 11
72.93541610439996
 21
0.6213713179000121
 31
0.0
 11
72.93717514629992
 21
0.6514546491000016
 31
0.0
 11
72.93894972509992
 21
0.6816852551000051
 31
0.0
 11
72.94072227689998
 21
0.7116694763000152
 31
0.0
 11
72.94247352199994
 21
0.7409871100000186
 31
0.0
 11
72.94423193849997
 21
0.7700324599000493
 31
0.0
  0
SPLINE
  5
55C8C
330
1F
100
AcDbEntity
  8
1
100
AcDbSpline
210
0.0
220
0.0
230
1.0
 70
     8
 71
     3
 72
    23
 73
    19
 74
    17
 42
0.0000000001
 43
0.0000000001
 44
0.000001
 12
0.0541105523918324
 22
0.9985349508754568
 32
0.0
 13
0.0592824401113983
 23
0.998241249545639
 33
0.0
 40
0.0
 40
0.0
 40
0.0
 40
0.0
 40
0.0230890004884999
 40
0.0486423287925855
 40
0.0766366356535066
 40
0.1063285868174894
 40
0.1361713162147227
 40
0.1655437689494273
 40
0.1947255475075272
 40
0.2238910269434783
 40
0.2531308364542781
 40
0.282307739516624
 40
0.3111751632148008
 40
0.3395781279509046
 40
0.3673625898519279
 40
0.3940344971485948
 40
0.4189706421410829
 40
0.442227452445989
 40
0.442227452445989
 40
0.442227452445989
 40
0.442227452445989
 10
72.94423193849997
 20
0.7700324599000493
 30
0.0
 10
72.94464839135679
 20
0.7777175178895687
 30
0.0
 10
72.94552956539092
 20
0.7939076670478312
 30
0.0
 10
72.9469389735296
 20
0.8194143050686319
 30
0.0
 10
72.94848922189982
 20
0.8471174949125368
 30
0.0
 10
72.95014253591176
 20
0.8762469457712411
 30
0.0
 10
72.95184107124345
 20
0.9058339432119437
 30
0.0
 10
72.95353954188789
 20
0.9352506041557814
 30
0.0
 10
72.95522643796079
 20
0.9644418073857805
 30
0.0
 10
72.95690365986849
 20
0.9935892809798884
 30
0.0
 10
72.95857214160861
 20
1.022735628383342
 30
0.0
 10
72.96022561617331
 20
1.051783319013692
 30
0.0
 10
72.96185205879914
 20
1.080553146418379
 30
0.0
 10
72.96344425154706
 20
1.108860020032621
 30
0.0
 10
72.96500029710393
 20
1.136435931431291
 30
0.0
 10
72.96650594200747
 20
1.162857239323683
 30
0.0
 10
72.96794732465997
 20
1.187770536842292
 30
0.0
 10
72.96889366571196
 20
1.20380695990694
 30
0.0
 10
72.96935323919996
 20
1.211545595700014
 30
0.0
 11
72.94423193849997
 21
0.7700324599000493
 31
0.0
 11
72.94548894009989
 21
0.7930872182000127
 31
0.0
 11
72.94689792349998
 21
0.8186016716000194
 31
0.0
 11
72.94846220129994
 21
0.846552239200035
 31
0.0
 11
72.9501438826
 21
0.8761965285000298
 31
0.0
 11
72.9518527013999
 21
0.9059902932000325
 31
0.0
 11
72.95354444549997
 21
0.9353139860999972
 31
0.0
 11
72.95522656279996
 21
0.964447243199997
 31
0.0
 11
72.95690179699994
 21
0.9935645708999897
 31
0.0
 11
72.95857277409999
 21
1.02275659530005
 31
0.0
 11
72.9602305805999
 21
1.051886362600013
 31
0.0
 11
72.9618604181
 21
1.080707739599999
 31
0.0
 11
72.96345768609995
 21
1.109065756600015
 31
0.0
 11
72.96502481399994
 21
1.136805987600011
 31
0.0
 11
72.96654383589992
 21
1.163434603600022
 31
0.0
 11
72.9679856018999
 21
1.188329033
 31
0.0
 11
72.96935323919996
 21
1.211545595700014
 31
0.0
  0
SPLINE
  5
55C8D
330
1F
100
AcDbEntity
  8
1
100
AcDbSpline
210
0.0
220
0.0
230
1.0
 70
     8
 71
     3
 72
    19
 73
    15
 74
    13
 42
0.0000000001
 43
0.0000000001
 44
0.000001
 12
0.0510398460869759
 22
0.9986966176529376
 32
0.0
 13
0.0565567434658943
 23
0.998399386402322
 33
0.0
 40
0.0
 40
0.0
 40
0.0
 40
0.0
 40
0.0510719787853486
 40
0.1004149413530477
 40
0.1471317357825988
 40
0.190790116902889
 40
0.2309880162080873
 40
0.2669820152249183
 40
0.2990014063170688
 40
0.3279026987514575
 40
0.3544837093717967
 40
0.3789903820457733
 40
0.4011435152572303
 40
0.420900094752141
 40
0.420900094752141
 40
0.420900094752141
 40
0.420900094752141
 10
72.9886195686999
 20
1.55278242219998
 30
0.0
 10
72.98948847067873
 20
1.569784226356573
 30
0.0
 10
72.99121150714592
 20
1.603211499496735
 30
0.0
 10
72.99377203739488
 20
1.65218852869445
 30
0.0
 10
72.99623780271105
 20
1.698695924975537
 30
0.0
 10
72.99856884167121
 20
1.742157819265186
 30
0.0
 10
73.00073426302862
 20
1.782049185879783
 30
0.0
 10
73.00271448420033
 20
1.818065222259589
 30
0.0
 10
73.00451169213346
 20
1.85032008795835
 30
0.0
 10
73.00614726033342
 20
1.879441425988757
 30
0.0
 10
73.00764898447318
 20
1.906062094041628
 30
0.0
 10
73.00902035592213
 20
1.930437152448133
 30
0.0
 10
73.01026374868951
 20
1.952541003572205
 30
0.0
 10
73.01105342986722
 20
1.966488570885003
 30
0.0
 10
73.01142588579995
 20
1.973063556500049
 30
0.0
 11
72.9886195686999
 21
1.55278242219998
 31
0.0
 11
72.99124651049993
 21
1.603786802800014
 31
0.0
 11
72.99382295610001
 21
1.653062454700004
 31
0.0
 11
72.99629571159989
 21
1.699713760500001
 31
0.0
 11
72.99863451599998
 21
1.743309450700051
 31
0.0
 11
73.00081413679999
 21
1.78344821439998
 31
0.0
 11
73.00279087969994
 21
1.819387892500001
 31
0.0
 11
73.0045710007999
 21
1.851357762700017
 31
0.0
 11
73.00619087130002
 21
1.880213624800033
 31
0.0
 11
73.00768623919992
 21
1.906752548900014
 31
0.0
 11
73.00906538429996
 21
1.931220375500002
 31
0.0
 11
73.01031069039999
 21
1.953338478600015
 31
0.0
 11
73.01142588579995
 21
1.973063556500049
 31
0.0
  0
SPLINE
  5
55C8E
330
1F
100
AcDbEntity
  8
1
100
AcDbSpline
210
0.0
220
0.0
230
1.0
 70
     8
 71
     3
 72
    30
 73
    26
 74
    24
 42
0.0000000001
 43
0.0000000001
 44
0.000001
 12
0.0493283031565232
 22
0.99878261824468
 32
0.0
 13
0.0021003305499692
 23
0.9999977943033579
 33
0.0
 40
0.0
 40
0.0
 40
0.0
 40
0.0
 40
0.0173550853095002
 40
0.0338106406379502
 40
0.0499096408002139
 40
0.0659837950686569
 40
0.082105437367569
 40
0.0981479824333366
 40
0.1140500686365509
 40
0.1305372672707215
 40
0.1488027020398019
 40
0.1699186759680883
 40
0.1940815468685564
 40
0.220000933108271
 40
0.2462297063651683
 40
0.2711193331429891
 40
0.2930880645409071
 40
0.3120100555790155
 40
0.3289504541377543
 40
0.3450275060148408
 40
0.36118055476496
 40
0.37744787238801
 40
0.3936480564817785
 40
0.4097492541819417
 40
0.4258086573607922
 40
0.4258086573607922
 40
0.4258086573607922
 40
0.4258086573607922
 10
73.01142588579995
 20
1.973063556500049
 30
0.0
 10
73.01171125143645
 20
1.978841542348474
 30
0.0
 10
73.0122703583184
 20
1.990097880031113
 30
0.0
 10
73.0131096182169
 20
2.006713246749724
 30
0.0
 10
73.01394289533556
 20
2.022901387305834
 30
0.0
 10
73.0147894018092
 20
2.038977386722747
 30
0.0
 10
73.01565947221951
 20
2.055033281855825
 30
0.0
 10
73.01654281276291
 20
2.071031004586954
 30
0.0
 10
73.0174338917713
 20
2.087150337037611
 30
0.0
 10
73.01835268420638
 20
2.104010231280211
 30
0.0
 10
73.01933205828453
 20
2.122607345886775
 30
0.0
 10
73.02037798103305
 20
2.143762996339502
 30
0.0
 10
73.02141934245816
 20
2.167473051416761
 30
0.0
 10
73.02236094550306
 20
2.192892824550609
 30
0.0
 10
73.02315001801588
 20
2.218560114937941
 30
0.0
 10
73.02376040148323
 20
2.242914958372876
 30
0.0
 10
73.02420627317968
 20
2.264837272193359
 30
0.0
 10
73.02452541841791
 20
2.284111706366287
 30
0.0
 10
73.02475906835098
 20
2.301423298945946
 30
0.0
 10
73.02493744175859
 20
2.317812511020234
 30
0.0
 10
73.02507513039762
 20
2.333977744630955
 30
0.0
 10
73.0251777608749
 20
2.35018428187625
 30
0.0
 10
73.02524738504946
 20
2.366373708803193
 30
0.0
 10
73.02529049047513
 20
2.382493914772892
 30
0.0
 10
73.02531821294832
 20
2.393214079414475
 30
0.0
 10
73.02532945629997
 20
2.398567202000036
 30
0.0
 11
73.01142588579995
 21
1.973063556500049
 31
0.0
 11
73.01228871849997
 21
1.990397170199996
 31
0.0
 11
73.01311927319995
 21
2.006831753600009
 31
0.0
 11
73.01394748059994
 21
2.022909437900009
 31
0.0
 11
73.01479365279994
 21
2.038961306100018
 31
0.0
 11
73.01566465009995
 21
2.055059403800013
 31
0.0
 11
73.01654656239993
 21
2.071077690600018
 31
0.0
 11
73.01742209299999
 21
2.086955657100018
 31
0.0
 11
73.01831666999993
 21
2.103418569500034
 31
0.0
 11
73.01927402079996
 21
2.121658899400015
 31
0.0
 11
73.02031077309999
 21
2.142749408500007
 31
0.0
 11
73.02136798659995
 21
2.166889142100016
 31
0.0
 11
73.02233112020002
 21
2.19279063020002
 31
0.0
 11
73.02313928169991
 21
2.219006952500022
 31
0.0
 11
73.02376499509995
 21
2.24388871540003
 31
0.0
 11
73.02421305689989
 21
2.265852879300011
 31
0.0
 11
73.02452716929991
 21
2.284772264899997
 31
0.0
 11
73.02475638239997
 21
2.301711114500021
 31
0.0
 11
73.02493184169993
 21
2.31778721070003
 31
0.0
 11
73.02506994459992
 21
2.333939671000051
 31
0.0
 11
73.02517338169997
 21
2.350206661799999
 31
0.0
 11
73.02524412139991
 21
2.366406693200017
 31
0.0
 11
73.02529129099998
 21
2.382507821900018
 31
0.0
 11
73.02532945629997
 21
2.398567202000036
 31
0.0
  0
SPLINE
  5
55C8F
330
1F
100
AcDbEntity
  8
1
100
AcDbSpline
210
0.0
220
0.0
230
1.0
 70
     8
 71
     3
 72
    21
 73
    17
 74
    15
 42
0.0000000001
 43
0.0000000001
 44
0.000001
 12
-0.0037379819220891
 22
0.9999930137211713
 32
0.0
 13
0.0013695431392808
 23
0.9999990621753552
 33
0.0
 40
0.0
 40
0.0
 40
0.0
 40
0.0
 40
0.0149826634197538
 40
0.0299464678038263
 40
0.0449319451001091
 40
0.0601060426138976
 40
0.0758193209703514
 40
0.0925123343930246
 40
0.1106196823586641
 40
0.1305405063960813
 40
0.1526059388519617
 40
0.1771261533973325
 40
0.2044141737212611
 40
0.2347830977845545
 40
0.2684959493446773
 40
0.3056400063750286
 40
0.3056400063750286
 40
0.3056400063750286
 40
0.3056400063750286
 10
73.02532945629997
 20
2.398567202000036
 30
0.0
 10
73.0253107879916
 20
2.403561388248929
 30
0.0
 10
73.02527494227724
 20
2.413543480736519
 30
0.0
 10
73.02523383476949
 20
2.428520740553421
 30
0.0
 10
73.02519841493467
 20
2.443561825327078
 30
0.0
 10
73.0251663775336
 20
2.458852742924788
 30
0.0
 10
73.02513415995367
 20
2.474712839964537
 30
0.0
 10
73.02510242022987
 20
2.491550690059524
 30
0.0
 10
73.02507208920173
 20
2.509791060208995
 30
0.0
 10
73.02504507498174
 20
2.529822243834827
 30
0.0
 10
73.02502222531956
 20
2.551991056104254
 30
0.0
 10
73.02500478008432
 20
2.576615606157131
 30
0.0
 10
73.02499537537579
 20
2.604007991608538
 30
0.0
 10
73.02499825122601
 20
2.634464591119963
 30
0.0
 10
73.02501727185478
 20
2.668206531586092
 30
0.0
 10
73.02504455580384
 20
2.691825486768079
 30
0.0
 10
73.02506151259996
 20
2.7042068275
 30
0.0
 11
73.02532945629997
 21
2.398567202000036
 31
0.0
 11
73.02527803439994
 21
2.413549777799998
 31
0.0
 11
73.02523582599992
 21
2.428513522200004
 31
0.0
 11
73.02520020749994
 21
2.443498956900013
 31
0.0
 11
73.02516791269994
 21
2.458673019900002
 31
0.0
 11
73.0251361949999
 21
2.474386266200012
 31
0.0
 11
73.02510490189996
 21
2.491079250300002
 31
0.0
 11
73.02507499749999
 21
2.509186573600002
 31
0.0
 11
73.02504804059998
 21
2.529107379400015
 31
0.0
 11
73.02502519139995
 21
2.551172800000015
 31
0.0
 11
73.02500784609998
 21
2.575693008400007
 31
0.0
 11
73.02499861249993
 21
2.6029810272
 31
0.0
 11
73.02500139729994
 21
2.633349951200015
 31
0.0
 11
73.02502078949993
 21
2.667062797100014
 31
0.0
 11
73.02506151259996
 21
2.7042068275
 31
0.0
  0
SPLINE
  5
55C90
330
1F
100
AcDbEntity
  8
1
100
AcDbSpline
210
0.0
220
0.0
230
1.0
 70
     8
 71
     3
 72
    36
 73
    32
 74
    30
 42
0.0000000001
 43
0.0000000001
 44
0.000001
 12
-0.9996520991020492
 22
0.0263757608585401
 32
0.0
 13
-0.999947290737543
 23
0.0102672170838913
 33
0.0
 40
0.0
 40
0.0
 40
0.0
 40
0.0
 40
0.0158507411263133
 40
0.0296376430516282
 40
0.0416572971635896
 40
0.0522485689310149
 40
0.061816325679168
 40
0.0707860572642534
 40
0.0795805537046858
 40
0.0883863567414901
 40
0.0971697970852106
 40
0.1059648539047884
 40
0.1148616028972001
 40
0.123848572382709
 40
0.1328519221937859
 40
0.1418118751405034
 40
0.1507366323936528
 40
0.1598430614810476
 40
0.1692974854695665
 40
0.178667118448114
 40
0.1873247388595739
 40
0.1952690497849864
 40
0.2029699660645015
 40
0.2109371909376541
 40
0.2197176171047482
 40
0.2295217488561397
 40
0.2398338238783096
 40
0.2500577229381688
 40
0.2601918417158226
 40
0.2704053234517469
 40
0.2807461282122904
 40
0.2807461282122904
 40
0.2807461282122904
 40
0.2807461282122904
 10
69.03377844929997
 20
5.920851848099998
 30
0.0
 10
69.02849670708684
 20
5.920991206552455
 30
0.0
 10
69.0186209645687
 20
5.921253097747607
 30
0.0
 10
69.00474000843775
 20
5.921618539156368
 30
0.0
 10
68.99261161026453
 20
5.921938172242986
 30
0.0
 10
68.98188908856099
 20
5.922220104496402
 30
0.0
 10
68.97218284071636
 20
5.922474715593251
 30
0.0
 10
68.96307529326799
 20
5.922712905197597
 30
0.0
 10
68.95422162333062
 20
5.922943679448207
 30
0.0
 10
68.9454300046263
 20
5.923171883665345
 30
0.0
 10
68.93663818014118
 20
5.923399357136544
 30
0.0
 10
68.92781604586497
 20
5.923627436119842
 30
0.0
 10
68.91892609904636
 20
5.923857571844392
 30
0.0
 10
68.90996676616992
 20
5.924090341433027
 30
0.0
 10
68.90098640995694
 20
5.924325099308147
 30
0.0
 10
68.89202683629145
 20
5.924561308146833
 30
0.0
 10
68.88303299527757
 20
5.924801454625535
 30
0.0
 10
68.87387442535731
 20
5.925047341724576
 30
0.0
 10
68.86456757521472
 20
5.925295655594664
 30
0.0
 10
68.85541016513236
 20
5.925535849462134
 30
0.0
 10
68.84675581099685
 20
5.925757370689678
 30
0.0
 10
68.83865737446427
 20
5.925959147613367
 30
0.0
 10
68.83078886684228
 20
5.926149837339904
 30
0.0
 10
68.82264160452194
 20
5.926341786253926
 30
0.0
 10
68.81379329039481
 20
5.926542733551981
 30
0.0
 10
68.80416332204942
 20
5.926750697354064
 30
0.0
 10
68.79405200404511
 20
5.926954553532096
 30
0.0
 10
68.78383036813733
 20
5.927142887696019
 30
0.0
 10
68.7736412090407
 20
5.927308717073058
 30
0.0
 10
68.76341271879567
 20
5.927450973065161
 30
0.0
 10
68.75656171683471
 20
5.927528144370922
 30
0.0
 10
68.7531149635999
 20
5.927563534800013
 30
0.0
 11
69.03377844929997
 21
5.920851848099998
 31
0.0
 11
69.01793323009991
 21
5.921269793399998
 31
0.0
 11
69.00415111619992
 21
5.921633109500019
 31
0.0
 11
68.99213562929998
 21
5.92194958690001
 31
0.0
 11
68.98154801639993
 21
5.922227957599998
 31
0.0
 11
68.97198354879998
 21
5.922478813600006
 31
0.0
 11
68.96301688269995
 21
5.922713300300015
 31
0.0
 11
68.95422537140001
 21
5.922942422800032
 31
0.0
 11
68.94542253429989
 21
5.923170954300017
 31
0.0
 11
68.93664203479994
 21
5.923398227499999
 31
0.0
 11
68.92784991779996
 21
5.923625609899998
 31
0.0
 11
68.9189561506999
 21
5.923855931500012
 31
0.0
 11
68.90997221549986
 21
5.924089439800011
 31
0.0
 11
68.90097194309993
 21
5.924324811900019
 31
0.0
 11
68.89201510729998
 21
5.924561121700035
 31
0.0
 11
68.88309352279993
 21
5.924799053900015
 31
0.0
 11
68.87399036199991
 21
5.92504298020003
 31
0.0
 11
68.86453929039993
 21
5.925294695899991
 31
0.0
 11
68.85517287129989
 21
5.92554004620001
 31
0.0
 11
68.84651808279994
 21
5.92576143100001
 31
0.0
 11
68.83857623609987
 21
5.92595925360001
 31
0.0
 11
68.83087758129994
 21
5.926145836300007
 31
0.0
 11
68.82291256379989
 21
5.92633332910003
 31
0.0
 11
68.81413439679994
 21
5.926532445700017
 31
0.0
 11
68.80433254409997
 21
5.926743758799998
 31
0.0
 11
68.79402255679991
 21
5.926951150999995
 31
0.0
 11
68.78380038199992
 21
5.927138761000007
 31
0.0
 11
68.77366760299986
 21
5.927303305200011
 31
0.0
 11
68.76345510749996
 21
5.927444911800021
 31
0.0
 11
68.7531149635999
 21
5.927563534800013
 31
0.0
  0
SPLINE
  5
55C91
330
1F
100
AcDbEntity
  8
1
100
AcDbSpline
210
0.0
220
0.0
230
1.0
 70
     8
 71
     3
 72
    46
 73
    42
 74
    40
 42
0.0000000001
 43
0.0000000001
 44
0.000001
 12
-0.9999537832716139
 22
0.009614120905546
 32
0.0
 13
-0.9996162514440825
 23
-0.0277010802836385
 33
0.0
 40
0.0
 40
0.0
 40
0.0
 40
0.0
 40
0.008042436248513
 40
0.015643866561344
 40
0.0231218226665192
 40
0.0305903094379611
 40
0.0380620753513188
 40
0.0455245770863861
 40
0.0530711943084709
 40
0.0609939155222915
 40
0.0696730198105344
 40
0.079379785450058
 40
0.0897246831293314
 40
0.0998524482314551
 40
0.1091229319200183
 40
0.1175444275046516
 40
0.1254527427789398
 40
0.1331531217853381
 40
0.1407986021061533
 40
0.1484273645429312
 40
0.1560977113915998
 40
0.1638851013551566
 40
0.1718505989220347
 40
0.1798702111432012
 40
0.1874846026016818
 40
0.1943939045568852
 40
0.2008002157798543
 40
0.207066701192359
 40
0.2135138299836234
 40
0.2202087056580665
 40
0.2269437172876385
 40
0.2336123202599239
 40
0.2402506534529416
 40
0.2468926698029162
 40
0.25355448737007
 40
0.2602259068884082
 40
0.2668954704595939
 40
0.2735901450929293
 40
0.2803012098534466
 40
0.2869345556952831
 40
0.2935326589839496
 40
0.2935326589839496
 40
0.2935326589839496
 40
0.2935326589839496
 10
68.7531149635999
 20
5.927563534800013
 30
0.0
 10
68.75043427541545
 20
5.9275893084515
 30
0.0
 10
68.74521983645371
 20
5.927633427464654
 30
0.0
 10
68.73751275225226
 20
5.927687889018313
 30
0.0
 10
68.7299969003555
 20
5.92772841528699
 30
0.0
 10
68.72252421936043
 20
5.927757773897083
 30
0.0
 10
68.71505665547857
 20
5.927776490213785
 30
0.0
 10
68.70756302928356
 20
5.927784730692762
 30
0.0
 10
68.69991908038781
 20
5.927782400461437
 30
0.0
 10
68.69186960887344
 20
5.927768321535422
 30
0.0
 10
68.68310012241972
 20
5.927739364783787
 30
0.0
 10
68.67352331598539
 20
5.92769113550487
 30
0.0
 10
68.66346374257881
 20
5.927621192575982
 30
0.0
 10
68.65354976055693
 20
5.927531248543784
 30
0.0
 10
68.64427708807892
 20
5.927427321154125
 30
0.0
 10
68.63574439825612
 20
5.927314404118062
 30
0.0
 10
68.62773524880839
 20
5.927193107147699
 30
0.0
 10
68.61998497241149
 20
5.927061369058035
 30
0.0
 10
68.61232811479016
 20
5.92691740747132
 30
0.0
 10
68.60468149555305
 20
5.926761963437867
 30
0.0
 10
68.59698779791273
 20
5.926595339643126
 30
0.0
 10
68.58918208417771
 20
5.926417193942752
 30
0.0
 10
68.58126016906652
 20
5.92622825875348
 30
0.0
 10
68.57339607471653
 20
5.926033675998111
 30
0.0
 10
68.56588407286
 20
5.925842437804773
 30
0.0
 10
68.55890976678876
 20
5.92566089164198
 30
0.0
 10
68.55238470350792
 20
5.925487506393947
 30
0.0
 10
68.54601372843792
 20
5.925315051619959
 30
0.0
 10
68.53954668308489
 20
5.92513696778259
 30
0.0
 10
68.53292360045163
 20
5.924951741833039
 30
0.0
 10
68.52622678918937
 20
5.924762065468398
 30
0.0
 10
68.51954886518337
 20
5.924571261765917
 30
0.0
 10
68.51290195045539
 20
5.924380524016454
 30
0.0
 10
68.5062572951312
 20
5.924189902329613
 30
0.0
 10
68.4996015882387
 20
5.923999917387744
 30
0.0
 10
68.49293665634917
 20
5.923811301282027
 30
0.0
 10
68.48626075005933
 20
5.923623310329572
 30
0.0
 10
68.4795715765652
 20
5.923436995794643
 30
0.0
 10
68.47289446040753
 20
5.923251399517267
 30
0.0
 10
68.466249525401
 20
5.923066584417624
 30
0.0
 10
68.46184074025865
 20
5.92294421496298
 30
0.0
 10
68.45964221649996
 20
5.922883290100001
 30
0.0
 11
68.7531149635999
 21
5.927563534800013
 31
0.0
 11
68.74507276089997
 21
5.927633747400021
 31
0.0
 11
68.73747151689991
 21
5.927687039300023
 31
0.0
 11
68.72999367329993
 21
5.927727605500022
 31
0.0
 11
68.72252524779987
 21
5.927756997700013
 31
0.0
 11
68.71505350879994
 21
5.927775743600021
 31
0.0
 11
68.70759101439995
 21
5.92778396140005
 31
0.0
 11
68.70004439979988
 21
5.927781665100011
 31
0.0
 11
68.69212169259999
 21
5.927767804200014
 31
0.0
 11
68.68344263729994
 21
5.92773912670003
 31
0.0
 11
68.67373599629996
 21
5.92769020349999
 31
0.0
 11
68.66339135159996
 21
5.927617995500012
 31
0.0
 11
68.65326400570001
 21
5.9275258918
 31
0.0
 11
68.64399410549999
 21
5.927421869500021
 31
0.0
 11
68.63557334749993
 21
5.927310373400016
 31
0.0
 11
68.62766593869986
 21
5.927190582500029
 31
0.0
 11
68.6199666702999
 21
5.927059734799994
 31
0.0
 11
68.61232253299994
 21
5.926916355000001
 31
0.0
 11
68.60469533939994
 21
5.926761560200018
 31
0.0
 11
68.59702678389993
 21
5.926595705700007
 31
0.0
 11
68.58924141439996
 21
5.926418230000022
 31
0.0
 11
68.58127817429994
 21
5.926228506100015
 31
0.0
 11
68.57326100809991
 21
5.926030354300023
 31
0.0
 11
68.56564907759997
 21
5.925836692800031
 31
0.0
 11
68.55874211389999
 21
5.92565688029998
 31
0.0
 11
68.55233806079997
 21
5.925486730700013
 31
0.0
 11
68.54607386709989
 21
5.925317197100012
 31
0.0
 11
68.5396291772999
 21
5.925139786200018
 31
0.0
 11
68.53293691239986
 21
5.924952716900007
 31
0.0
 11
68.52620459259998
 21
5.924762155300014
 31
0.0
 11
68.51953869940001
 21
5.924571832799982
 31
0.0
 11
68.51290308319988
 21
5.924381563300014
 31
0.0
 11
68.5062637769999
 21
5.924191243600033
 31
0.0
 11
68.49960463889994
 21
5.924001270100005
 31
0.0
 11
68.49293583870002
 21
5.923812420300007
 31
0.0
 11
68.48626879239993
 21
5.923624834600017
 31
0.0
 11
68.47957671529997
 21
5.92343752480002
 31
0.0
 11
68.47286842549994
 21
5.923250525900014
 31
0.0
 11
68.46623774599999
 21
5.923066241300032
 31
0.0
 11
68.45964221649996
 21
5.922883290100001
 31
0.0
  0
SPLINE
  5
55C92
330
1F
100
AcDbEntity
  8
1
100
AcDbSpline
210
0.0
220
0.0
230
1.0
 70
     8
 71
     3
 72
    55
 73
    51
 74
     0
 42
0.0000000001
 43
0.0000000001
 40
0.0
 40
0.0
 40
0.0
 40
0.0
 40
0.0049958518605036
 40
0.0099154836547118
 40
0.0147614039393308
 40
0.0195361765226469
 40
0.0242426065888578
 40
0.0288840354260519
 40
0.0334632092930215
 40
0.0379827811565301
 40
0.0424455579928228
 40
0.0468539322024359
 40
0.0512106949502919
 40
0.0555183005384531
 40
0.0597787170893352
 40
0.0639946116448138
 40
0.0681682903514762
 40
0.0723013437081981
 40
0.0763961805138019
 40
0.0804553167587664
 40
0.0844804913487799
 40
0.0884739998521764
 40
0.0924382164776191
 40
0.0963743259211866
 40
0.1002830910839866
 40
0.1041660431218799
 40
0.1080255685188839
 40
0.1118637800677523
 40
0.1156827853006501
 40
0.1194842128833436
 40
0.1232689704898801
 40
0.1270389989150002
 40
0.130796545351451
 40
0.1345422087032235
 40
0.1382735226435646
 40
0.1419876255486954
 40
0.1456821546001881
 40
0.149355986884438
 40
0.1530116447863856
 40
0.1566521524863095
 40
0.160279425273424
 40
0.163893662741968
 40
0.1674952461642928
 40
0.1710854262347053
 40
0.1746664476601297
 40
0.178239181407441
 40
0.1818045453531805
 40
0.1853641601714313
 40
0.188920363188067
 40
0.1906203458717587
 40
0.1906203458717587
 40
0.1906203458717587
 40
0.1906203458717587
 10
72.47893107409999
 20
-4.550247046099956
 30
0.0
 10
72.47984922906852
 20
-4.548857743361383
 30
0.0
 10
72.48166978426929
 20
-4.546099179157367
 30
0.0
 10
72.48437486133929
 20
-4.541988999676094
 30
0.0
 10
72.48703435525062
 20
-4.537937045660713
 30
0.0
 10
72.48964973086839
 20
-4.533941146827048
 30
0.0
 10
72.49222244832589
 20
-4.529998799026104
 30
0.0
 10
72.49475476140657
 20
-4.526107942906024
 30
0.0
 10
72.49724830934946
 20
-4.522266177356401
 30
0.0
 10
72.49970477330879
 20
-4.51847134096373
 30
0.0
 10
72.50212571839592
 20
-4.514721336923019
 30
0.0
 10
72.50451273436062
 20
-4.511014029101788
 30
0.0
 10
72.50686733337335
 20
-4.507347370749828
 30
0.0
 10
72.50919094128079
 20
-4.503719427342263
 30
0.0
 10
72.5114849522775
 20
-4.500128292816258
 30
0.0
 10
72.51375072421428
 20
-4.496572096122251
 30
0.0
 10
72.51598953754473
 20
-4.493049065807769
 30
0.0
 10
72.51820261878634
 20
-4.489557497818497
 30
0.0
 10
72.5203912230657
 20
-4.486095623119284
 30
0.0
 10
72.52255662301962
 20
-4.482661624945665
 30
0.0
 10
72.52470006304742
 20
-4.479253713096328
 30
0.0
 10
72.52682275346166
 20
-4.475870131530472
 30
0.0
 10
72.52892579840471
 20
-4.472509275473742
 30
0.0
 10
72.53101002434124
 20
-4.469169968873176
 30
0.0
 10
72.53307610380642
 20
-4.465851270688903
 30
0.0
 10
72.53512491646455
 20
-4.462551896783894
 30
0.0
 10
72.53715757249091
 20
-4.459270176350928
 30
0.0
 10
72.53917527509447
 20
-4.456004270080358
 30
0.0
 10
72.54117908660572
 20
-4.452752548440615
 30
0.0
 10
72.5431698519497
 20
-4.449513719686537
 30
0.0
 10
72.54514838065603
 20
-4.446286535477314
 30
0.0
 10
72.54711558495642
 20
-4.443069568532083
 30
0.0
 10
72.54907231569695
 20
-4.439861474621979
 30
0.0
 10
72.55101865499779
 20
-4.436662161346577
 30
0.0
 10
72.55295380163914
 20
-4.433472992200963
 30
0.0
 10
72.55487645066506
 20
-4.430296179753428
 30
0.0
 10
72.55678553899878
 20
-4.427133559469824
 30
0.0
 10
72.55868093699854
 20
-4.423985433896975
 30
0.0
 10
72.56056344004065
 20
-4.420850566410225
 30
0.0
 10
72.56243435704476
 20
-4.417726847381702
 30
0.0
 10
72.56429458962185
 20
-4.414612825684047
 30
0.0
 10
72.56614458304006
 20
-4.411507803729408
 30
0.0
 10
72.56798466665185
 20
-4.40841127270116
 30
0.0
 10
72.56981551440157
 20
-4.405322135539465
 30
0.0
 10
72.57163787825362
 20
-4.402239151658237
 30
0.0
 10
72.57345244763922
 20
-4.399161172372688
 30
0.0
 10
72.57525980120846
 20
-4.396087225164693
 30
0.0
 10
72.57706076109065
 20
-4.393015913677503
 30
0.0
 10
72.57854421140535
 20
-4.390479232745635
 30
0.0
 10
72.57942735582474
 20
-4.388966031687063
 30
0.0
 10
72.579712848121
 20
-4.388476543427872
 30
0.0
  0
SPLINE
  5
55C93
330
1F
100
AcDbEntity
  8
1
100
AcDbSpline
210
0.0
220
0.0
230
1.0
 70
     8
 71
     3
 72
    73
 73
    69
 74
    67
 42
0.0000000001
 43
0.0000000001
 44
0.000001
 12
0.6196704059452171
 22
0.7848621458547293
 32
0.0
 13
0.5628224525657926
 23
0.8265778165955255
 33
0.0
 40
0.0
 40
0.0
 40
0.0
 40
0.0
 40
0.0049988741952255
 40
0.0099221252931372
 40
0.0147738007464664
 40
0.0195564841301144
 40
0.0242727781703741
 40
0.0289260858531153
 40
0.0335191057387567
 40
0.0380541628567895
 40
0.0425341741666965
 40
0.0469613987365262
 40
0.0513391045207165
 40
0.0556695727953095
 40
0.0599546918430374
 40
0.0641968021625423
 40
0.0683990033487185
 40
0.0725627074596918
 40
0.0766891771837595
 40
0.0807801063911496
 40
0.0848382233693526
 40
0.0888656453791691
 40
0.0928650335985139
 40
0.0968385408677659
 40
0.1007887784577883
 40
0.1047168581900012
 40
0.1086236419302474
 40
0.1125110140849815
 40
0.1163814954010146
 40
0.1202365929251576
 40
0.1240778626019139
 40
0.1279074743315361
 40
0.1317249124858322
 40
0.1355287542437351
 40
0.1393177958343779
 40
0.1430910587836396
 40
0.1468458030114102
 40
0.1505820772596808
 40
0.1543019322413888
 40
0.1580077865069487
 40
0.1617005819339331
 40
0.1653819633057011
 40
0.1690535888300415
 40
0.1727175785236354
 40
0.1763749902111156
 40
0.1800263035605068
 40
0.1836733976966701
 40
0.1873178602074261
 40
0.1909609566600514
 40
0.1946051174793875
 40
0.198251499975268
 40
0.2019007502152607
 40
0.2055535639639195
 40
0.2092121383527324
 40
0.2128773368142413
 40
0.2165494592333529
 40
0.2202288818271155
 40
0.2239189731914159
 40
0.2276218481120017
 40
0.2313379181482507
 40
0.2350686997122956
 40
0.2388152625474661
 40
0.242579239763318
 40
0.2463618145970942
 40
0.2501644329838781
 40
0.2539882138227861
 40
0.257834864241071
 40
0.2617058373302792
 40
0.2617058373302792
 40
0.2617058373302792
 40
0.2617058373302792
 10
72.32388371759992
 20
-4.761012056099973
 30
0.0
 10
72.32491626906716
 20
-4.759704247057401
 30
0.0
 10
72.32696417916753
 20
-4.757107171657795
 30
0.0
 10
72.33000879502691
 20
-4.753236511126674
 30
0.0
 10
72.33300429965135
 20
-4.749418910418087
 30
0.0
 10
72.33595276790442
 20
-4.745652094090177
 30
0.0
 10
72.3388561307126
 20
-4.741933946044598
 30
0.0
 10
72.34171633061322
 20
-4.73826231005937
 30
0.0
 10
72.34453524340546
 20
-4.734635094678468
 30
0.0
 10
72.34731462946871
 20
-4.731050323427227
 30
0.0
 10
72.35005616998268
 20
-4.727506143255384
 30
0.0
 10
72.35276165354008
 20
-4.724000386411875
 30
0.0
 10
72.35543276782829
 20
-4.720531074851608
 30
0.0
 10
72.35807122195734
 20
-4.717096402440548
 30
0.0
 10
72.36067842041262
 20
-4.713694718213917
 30
0.0
 10
72.3632559542927
 20
-4.710324170332684
 30
0.0
 10
72.36580530176542
 20
-4.70698302006143
 30
0.0
 10
72.36832771731389
 20
-4.703669809613232
 30
0.0
 10
72.37082416508537
 20
-4.700383448793632
 30
0.0
 10
72.37329586970196
 20
-4.697122494033878
 30
0.0
 10
72.37574422016649
 20
-4.693885268672305
 30
0.0
 10
72.37817079250527
 20
-4.690669832999477
 30
0.0
 10
72.38057703897954
 20
-4.687474394003432
 30
0.0
 10
72.38296450261208
 20
-4.684297020696165
 30
0.0
 10
72.38533440904297
 20
-4.681136189441234
 30
0.0
 10
72.38768771914653
 20
-4.677990715788029
 30
0.0
 10
72.39002524471022
 20
-4.674859606205631
 30
0.0
 10
72.39234807363374
 20
-4.671741487088995
 30
0.0
 10
72.39465741604994
 20
-4.66863480760516
 30
0.0
 10
72.39695441041686
 20
-4.665538099971017
 30
0.0
 10
72.39924011994986
 20
-4.662449986121801
 30
0.0
 10
72.40151520171315
 20
-4.659369626125085
 30
0.0
 10
72.40377971989705
 20
-4.656296976491193
 30
0.0
 10
72.40603307363682
 20
-4.653232900507008
 30
0.0
 10
72.40827457427002
 20
-4.650178388342839
 30
0.0
 10
72.41050327781562
 20
-4.647134787367876
 30
0.0
 10
72.41271849219737
 20
-4.644103111862778
 30
0.0
 10
72.41492012444775
 20
-4.641083563219256
 30
0.0
 10
72.41710909303589
 20
-4.638074952110544
 30
0.0
 10
72.41928648566744
 20
-4.635075844081329
 30
0.0
 10
72.42145330517411
 20
-4.632084910194082
 30
0.0
 10
72.42361040052315
 20
-4.629101022949059
 30
0.0
 10
72.42575884597425
 20
-4.62612273307967
 30
0.0
 10
72.42789959502005
 20
-4.623148745410533
 30
0.0
 10
72.43003336731948
 20
-4.62017808046234
 30
0.0
 10
72.43216083171848
 20
-4.617209821107211
 30
0.0
 10
72.43428275616276
 20
-4.614242903978579
 30
0.0
 10
72.43640005608614
 20
-4.611276049126134
 30
0.0
 10
72.43851374848128
 20
-4.608307823329157
 30
0.0
 10
72.44062476113635
 20
-4.605336905945579
 30
0.0
 10
72.44273389689357
 20
-4.602362140917422
 30
0.0
 10
72.44484162050941
 20
-4.599382841338725
 30
0.0
 10
72.4469485918874
 20
-4.596398033855637
 30
0.0
 10
72.44905551662345
 20
-4.593406688736537
 30
0.0
 10
72.45116298868123
 20
-4.590407859106919
 30
0.0
 10
72.45327124159501
 20
-4.587401086951233
 30
0.0
 10
72.45538108880094
 20
-4.584385301040983
 30
0.0
 10
72.45749359644702
 20
-4.581358868506173
 30
0.0
 10
72.45960985336393
 20
-4.578320158160765
 30
0.0
 10
72.46173058309256
 20
-4.575268036887154
 30
0.0
 10
72.46385630762
 20
-4.572201655868072
 30
0.0
 10
72.46598777583966
 20
-4.569119828289872
 30
0.0
 10
72.46812566821489
 20
-4.566021455222044
 30
0.0
 10
72.47027073094551
 20
-4.562905330930663
 30
0.0
 10
72.4724236075088
 20
-4.559770387272736
 30
0.0
 10
72.47458503478418
 20
-4.556615408599755
 30
0.0
 10
72.47675574492501
 20
-4.553439173474005
 30
0.0
 10
72.47820485057736
 20
-4.55131359959468
 30
0.0
 10
72.47893107409999
 20
-4.550247046099956
 30
0.0
 11
72.32388371759992
 21
-4.761012056099973
 31
0.0
 11
72.32697896869996
 21
-4.757086746799972
 31
0.0
 11
72.33002269399998
 21
-4.753217143799973
 31
0.0
 11
72.33301758579995
 21
-4.749400220299962
 31
0.0
 11
72.33596541809999
 21
-4.745634089399986
 31
0.0
 11
72.33886796539997
 21
-4.741916839999975
 31
0.0
 11
72.34172748279997
 21
-4.738245920699954
 31
0.0
 11
72.34454577999992
 21
-4.734619325799984
 31
0.0
 11
72.34732442709997
 21
-4.731035336199953
 31
0.0
 11
72.350065347
 21
-4.72749175709997
 31
0.0
 11
72.35277007659994
 21
-4.72398687039997
 31
0.0
 11
72.35544073880004
 21
-4.720518177799975
 31
0.0
 11
72.35807880359999
 21
-4.71708400699997
 31
0.0
 11
72.36068552639989
 21
-4.713682947799968
 31
0.0
 11
72.36326243039997
 21
-4.710313225299971
 31
0.0
 11
72.3658114905
 21
-4.706972453999968
 31
0.0
 11
72.36833364919999
 21
-4.703659582999977
 31
0.0
 11
72.37082975369998
 21
-4.700373676299976
 31
0.0
 11
72.37330090719996
 21
-4.697113450699974
 31
0.0
 11
72.37574883029998
 21
-4.693876792599967
 31
0.0
 11
72.37817486669991
 21
-4.690662069299934
 31
0.0
 11
72.38058067989999
 21
-4.68746720779997
 31
0.0
 11
72.38296761919986
 21
-4.684290534599982
 31
0.0
 11
72.38533730180001
 21
-4.681130003999969
 31
0.0
 11
72.38769043839994
 21
-4.677984764499955
 31
0.0
 11
72.39002758679993
 21
-4.674854162299981
 31
0.0
 11
72.3923499124
 21
-4.671736720999989
 31
0.0
 11
72.39465895379993
 21
-4.668630448599985
 31
0.0
 11
72.3969556378999
 21
-4.665534161399977
 31
0.0
 11
72.39924091589995
 21
-4.662446632799985
 31
0.0
 11
72.40151609849994
 21
-4.65936613839999
 31
0.0
 11
72.40378089689994
 21
-4.656293110899968
 31
0.0
 11
72.40603448719998
 21
-4.653228715599981
 31
0.0
 11
72.40827617969995
 21
-4.65017394449997
 31
0.0
 11
72.41050542179999
 21
-4.647129610699936
 31
0.0
 11
72.4127206256
 21
-4.644097952499963
 31
0.0
 11
72.41492185419992
 21
-4.641078960499969
 31
0.0
 11
72.41711034759993
 21
-4.638071005699986
 31
0.0
 11
72.41928755499992
 21
-4.635072156299985
 31
0.0
 11
72.42145405209993
 21
-4.632081671099955
 31
0.0
 11
72.42361082299993
 21
-4.62909823669999
 31
0.0
 11
72.42575885439993
 21
-4.626120524999963
 31
0.0
 11
72.42789939699997
 21
-4.62314682879999
 31
0.0
 11
72.43003307559996
 21
-4.62017629919997
 31
0.0
 11
72.43216017479989
 21
-4.617208554699987
 31
0.0
 11
72.43428179119991
 21
-4.614242073999934
 31
0.0
 11
72.43639884599992
 21
-4.611275568799969
 31
0.0
 11
72.43851206849996
 21
-4.608308009499966
 31
0.0
 11
72.4406228579
 21
-4.605337413499954
 31
0.0
 11
72.44273186949993
 21
-4.602362831499975
 31
0.0
 11
72.44483945939993
 21
-4.599383728699978
 31
0.0
 11
72.44694601019995
 21
-4.596399528299956
 31
0.0
 11
72.44905276599997
 21
-4.593408424000005
 31
0.0
 11
72.45116021619998
 21
-4.590409668099981
 31
0.0
 11
72.45326851919998
 21
-4.587402978799973
 31
0.0
 11
72.45537782639991
 21
-4.584388081999962
 31
0.0
 11
72.45749003379995
 21
-4.581362198899954
 31
0.0
 11
72.45960630909991
 21
-4.578323571599968
 31
0.0
 11
72.46172684139998
 21
-4.575271836499995
 31
0.0
 11
72.46385244639992
 21
-4.57220572019999
 31
0.0
 11
72.46598368049996
 21
-4.569124313299981
 31
0.0
 11
72.46812141519995
 21
-4.566026239599965
 31
0.0
 11
72.4702662606
 21
-4.562910489399984
 31
0.0
 11
72.47241897049997
 21
-4.559775833299953
 31
0.0
 11
72.47458010799999
 21
-4.556621307999977
 31
0.0
 11
72.47675056269992
 21
-4.553445461199986
 31
0.0
 11
72.47893107409999
 21
-4.550247046099956
 31
0.0
  0
SPLINE
  5
55C94
330
1F
100
AcDbEntity
  8
1
100
AcDbSpline
210
0.0
220
0.0
230
1.0
 70
     8
 71
     3
 72
    22
 73
    18
 74
    16
 42
0.0000000001
 43
0.0000000001
 44
0.000001
 12
0.0559714537861892
 22
-0.9984323694477563
 32
0.0
 13
0.0608291190676837
 23
-0.9981481945450031
 33
0.0
 40
0.0
 40
0.0
 40
0.0
 40
0.0
 40
0.0268166277439826
 40
0.0551691670069123
 40
0.0848750831786309
 40
0.1149711447064015
 40
0.1448086848357943
 40
0.1745727128649988
 40
0.2043852693574957
 40
0.2341706041839962
 40
0.2639595293724539
 40
0.2938954309221197
 40
0.3240301460958188
 40
0.354312792712278
 40
0.3843493617749784
 40
0.4137192533092042
 40
0.4428177825256251
 40
0.4428177825256251
 40
0.4428177825256251
 40
0.4428177825256251
 10
72.91836101600001
 20
-0.3279712222999949
 30
0.0
 10
72.91886133788017
 20
-0.3368960853596706
 30
0.0
 10
72.91989697702735
 20
-0.3552566263063158
 30
0.0
 10
72.92152148255656
 20
-0.3835016468989794
 30
0.0
 10
72.92322749369481
 20
-0.4128369215824977
 30
0.0
 10
72.9249740341142
 20
-0.4426656729638142
 30
0.0
 10
72.92672220955097
 20
-0.472513732042957
 30
0.0
 10
72.9284630763529
 20
-0.5022675556120521
 30
0.0
 10
72.93020122944773
 20
-0.5320041063601497
 30
0.0
 10
72.93193740794965
 20
-0.561749085663779
 30
0.0
 10
72.93367400224525
 20
-0.5915352255848649
 30
0.0
 10
72.9354183526977
 20
-0.6214375712163349
 30
0.0
 10
72.93717599864868
 20
-0.6515039946397696
 30
0.0
 10
72.93894178408931
 20
-0.6816035552159735
 30
0.0
 10
72.94070525791989
 20
-0.711447869586026
 30
0.0
 10
72.9424624228522
 20
-0.7408971598498386
 30
0.0
 10
72.94364192586721
 20
-0.7603509117662259
 30
0.0
 10
72.94423193849997
 20
-0.7700324598999959
 30
0.0
 11
72.91836101600001
 21
-0.3279712222999949
 31
0.0
 11
72.91987393869994
 21
-0.3547451382999627
 31
0.0
 11
72.92149952029996
 21
-0.3830510377000012
 31
0.0
 11
72.92322288269992
 21
-0.412706921699966
 31
0.0
 11
72.9249801542
 21
-0.4427516366999969
 31
0.0
 11
72.92672434269997
 21
-0.4725381536999878
 31
0.0
 11
72.92846284739988
 21
-0.5022513655000029
 31
0.0
 11
72.93020234699992
 21
-0.5320131304999922
 31
0.0
 11
72.93193800709985
 21
-0.5617478516999785
 31
0.0
 11
72.93367231069993
 21
-0.5914862484999918
 31
0.0
 11
72.93541610439996
 21
-0.6213713178999871
 31
0.0
 11
72.93717514629992
 21
-0.6514546490999766
 31
0.0
 11
72.93894972509992
 21
-0.6816852550999801
 31
0.0
 11
72.94072227689998
 21
-0.7116694763000186
 31
0.0
 11
72.94247352199994
 21
-0.7409871099999936
 31
0.0
 11
72.94423193849997
 21
-0.7700324598999959
 31
0.0
  0
SPLINE
  5
55C95
330
1F
100
AcDbEntity
  8
1
100
AcDbSpline
210
0.0
220
0.0
230
1.0
 70
     8
 71
     3
 72
    23
 73
    19
 74
    17
 42
0.0000000001
 43
0.0000000001
 44
0.000001
 12
0.0541105523918318
 22
-0.9985349508754568
 32
0.0
 13
0.0592824401090443
 23
-0.9982412495457786
 33
0.0
 40
0.0
 40
0.0
 40
0.0
 40
0.0
 40
0.0230890004885283
 40
0.0486423287926139
 40
0.0766366356535066
 40
0.1063285869173449
 40
0.1361713162147262
 40
0.1655437689494876
 40
0.1947255475075875
 40
0.2238910269435387
 40
0.2531308364542816
 40
0.2823077396164961
 40
0.3111751632148448
 40
0.3395781279509202
 40
0.3673625898519578
 40
0.3940344971485822
 40
0.4189706421411412
 40
0.4422274524460047
 40
0.4422274524460047
 40
0.4422274524460047
 40
0.4422274524460047
 10
72.94423193849997
 20
-0.7700324598999959
 30
0.0
 10
72.94464839135679
 20
-0.7777175178895152
 30
0.0
 10
72.94552956539104
 20
-0.7939076670477778
 30
0.0
 10
72.94693897352903
 20
-0.8194143050686209
 30
0.0
 10
72.94848922190414
 20
-0.8471174949455802
 30
0.0
 10
72.9501425359038
 20
-0.8762469458049666
 30
0.0
 10
72.951841071248
 20
-0.9058339432449871
 30
0.0
 10
72.95353954188709
 20
-0.9352506041557989
 30
0.0
 10
72.95522643796124
 20
-0.964441807385741
 30
0.0
 10
72.95690365986769
 20
-0.9935892809799485
 30
0.0
 10
72.95857214161327
 20
-1.022735628416386
 30
0.0
 10
72.96022561616536
 20
-1.051783319047446
 30
0.0
 10
72.96185205880346
 20
-1.080553146451437
 30
0.0
 10
72.96344425154638
 20
-1.108860020032638
 30
0.0
 10
72.96500029710404
 20
-1.136435931431224
 30
0.0
 10
72.96650594200736
 20
-1.162857239323658
 30
0.0
 10
72.96794732465997
 20
-1.187770536842252
 30
0.0
 10
72.96889366571196
 20
-1.203806959906914
 30
0.0
 10
72.96935323919996
 20
-1.211545595699975
 30
0.0
 11
72.94423193849997
 21
-0.7700324598999959
 31
0.0
 11
72.94548894009989
 21
-0.7930872181999877
 31
0.0
 11
72.94689792349998
 21
-0.8186016715999942
 31
0.0
 11
72.94846220129994
 21
-0.8465522391999813
 31
0.0
 11
72.9501438826
 21
-0.8761965285999922
 31
0.0
 11
72.9518527013999
 21
-0.9059902931999788
 31
0.0
 11
72.95354444549997
 21
-0.9353139861000004
 31
0.0
 11
72.95522656279996
 21
-0.9644472432000002
 31
0.0
 11
72.95690179699994
 21
-0.9935645708999929
 31
0.0
 11
72.95857277409999
 21
-1.022756595299996
 31
0.0
 11
72.9602305805999
 21
-1.05188636269999
 31
0.0
 11
72.9618604181
 21
-1.080707739599988
 31
0.0
 11
72.96345768609995
 21
-1.109065756599976
 31
0.0
 11
72.96502481399994
 21
-1.136805987599986
 31
0.0
 11
72.96654383589992
 21
-1.163434603599954
 31
0.0
 11
72.9679856018999
 21
-1.188329033000003
 31
0.0
 11
72.96935323919996
 21
-1.211545595699975
 31
0.0
  0
SPLINE
  5
55C96
330
1F
100
AcDbEntity
  8
1
100
AcDbSpline
210
0.0
220
0.0
230
1.0
 70
     8
 71
     3
 72
    73
 73
    69
 74
    67
 42
0.0000000001
 43
0.0000000001
 44
0.000001
 12
0.6844004535882524
 22
0.7291063153808191
 32
0.0
 13
0.6367164582721109
 23
0.7710980169637446
 33
0.0
 40
0.0
 40
0.0
 40
0.0
 40
0.0
 40
0.0049259580066838
 40
0.0097813288977872
 40
0.0145686220147176
 40
0.0192901558292665
 40
0.023948842597678
 40
0.028547617306908
 40
0.0330892182738184
 40
0.0375759543607371
 40
0.0420107786982106
 40
0.0463960315881703
 40
0.0507348189252621
 40
0.0550290000241226
 40
0.0592801618130649
 40
0.0634903429889702
 40
0.067662559267891
 40
0.0717986533387829
 40
0.0759005752413947
 40
0.0799710530509382
 40
0.0840114229391481
 40
0.0880228969163107
 40
0.0920077190521494
 40
0.0959679376031709
 40
0.0999057620812672
 40
0.1038231664699813
 40
0.1077220253365922
 40
0.1116042118638079
 40
0.1154706636311501
 40
0.1193234094019596
 40
0.1231644383005228
 40
0.12699520708692
 40
0.1308170006980319
 40
0.1346281277009132
 40
0.1384265083480476
 40
0.1422106976253147
 40
0.1459781490840773
 40
0.1497289225048505
 40
0.1534651071399269
 40
0.1571890672224014
 40
0.1609017529206483
 40
0.1646047410603857
 40
0.1682998786960475
 40
0.1719893602508582
 40
0.175674366823779
 40
0.1793552987233272
 40
0.1830334418466633
 40
0.1867108914481683
 40
0.1903887503631368
 40
0.1940686425396506
 40
0.1977528610128074
 40
0.2014421894761063
 40
0.2051372440110431
 40
0.2088392590979425
 40
0.2125504435086405
 40
0.2162714700165149
 40
0.2200028024126893
 40
0.2237454795662599
 40
0.2275020180906134
 40
0.231274622370451
 40
0.2350644321529497
 40
0.2388723005896694
 40
0.242699977454584
 40
0.2465486374957773
 40
0.2504203318196846
 40
0.2543161206824265
 40
0.2582366185997011
 40
0.2621835423035947
 40
0.2621835423035947
 40
0.2621835423035947
 40
0.2621835423035947
 10
72.15058632009998
 20
-4.95769712139999
 30
0.0
 10
72.15171009606473
 20
-4.956499939035994
 30
0.0
 10
72.15394016043404
 20
-4.954121429639615
 30
0.0
 10
72.15725758622062
 20
-4.950574960165555
 30
0.0
 10
72.16052446640396
 20
-4.947074520296597
 30
0.0
 10
72.16374272148385
 20
-4.943618381849562
 30
0.0
 10
72.16691435139836
 20
-4.940204695979319
 30
0.0
 10
72.17004146646451
 20
-4.936831524612545
 30
0.0
 10
72.17312593549576
 20
-4.933496979862427
 30
0.0
 10
72.1761700464146
 20
-4.930199551971144
 30
0.0
 10
72.17917528255174
 20
-4.926937167857106
 30
0.0
 10
72.18214374252335
 20
-4.923707961096853
 30
0.0
 10
72.18507715244533
 20
-4.920510217042947
 30
0.0
 10
72.18797709186418
 20
-4.917342427209961
 30
0.0
 10
72.19084488504353
 20
-4.914203331257072
 30
0.0
 10
72.19368211228488
 20
-4.911091380327123
 30
0.0
 10
72.19649040351402
 20
-4.908004955110174
 30
0.0
 10
72.19927136148209
 20
-4.904942451231237
 30
0.0
 10
72.20202651808785
 20
-4.90190232921468
 30
0.0
 10
72.20475728534751
 20
-4.898883168542711
 30
0.0
 10
72.20746490395907
 20
-4.895883725220317
 30
0.0
 10
72.21015050214617
 20
-4.892902870851218
 30
0.0
 10
72.2128153618923
 20
-4.889939295875324
 30
0.0
 10
72.21546098132098
 20
-4.886991437742794
 30
0.0
 10
72.21808879293934
 20
-4.884057795813292
 30
0.0
 10
72.22070018401717
 20
-4.881136906496765
 30
0.0
 10
72.22329646194094
 20
-4.878227385030003
 30
0.0
 10
72.22587869890725
 20
-4.875328099668807
 30
0.0
 10
72.22844799687692
 20
-4.872437876239546
 30
0.0
 10
72.2310054791846
 20
-4.869555507759104
 30
0.0
 10
72.23355237909749
 20
-4.866679653335227
 30
0.0
 10
72.23608976049167
 20
-4.863809153182986
 30
0.0
 10
72.23861787157336
 20
-4.860943763896246
 30
0.0
 10
72.24113618103439
 20
-4.85808412632666
 30
0.0
 10
72.24364355964263
 20
-4.855231567251438
 30
0.0
 10
72.24613869516287
 20
-4.852387631975163
 30
0.0
 10
72.24862075131063
 20
-4.849553334543104
 30
0.0
 10
72.25108967004854
 20
-4.846728804465159
 30
0.0
 10
72.25354646960517
 20
-4.843912937833396
 30
0.0
 10
72.25599235820045
 20
-4.841104402530264
 30
0.0
 10
72.25842842747358
 20
-4.838301991334263
 30
0.0
 10
72.26085565151499
 20
-4.835504623193829
 30
0.0
 10
72.26327527240375
 20
-4.832710900413049
 30
0.0
 10
72.26568844034415
 20
-4.829919520179275
 30
0.0
 10
72.2680959860374
 20
-4.827129540908659
 30
0.0
 10
72.27049853971465
 20
-4.824340248007233
 30
0.0
 10
72.2728969276206
 20
-4.821550693521787
 30
0.0
 10
72.27529212516202
 20
-4.818759748900534
 30
0.0
 10
72.27768517658336
 20
-4.815966196172398
 30
0.0
 10
72.28007716519602
 20
-4.813168764027027
 30
0.0
 10
72.28246910033869
 20
-4.810366257883545
 30
0.0
 10
72.28486176934217
 20
-4.807557735386255
 30
0.0
 10
72.28725572807679
 20
-4.80474252056152
 30
0.0
 10
72.28965183710039
 20
-4.801919573013408
 30
0.0
 10
72.29205096567188
 20
-4.79908783499002
 30
0.0
 10
72.29445381310296
 20
-4.796246441508928
 30
0.0
 10
72.29686082441077
 20
-4.793394823322204
 30
0.0
 10
72.29927284008573
 20
-4.790531940752901
 30
0.0
 10
72.30169106309978
 20
-4.787656300966306
 30
0.0
 10
72.30411673924215
 20
-4.78476640316734
 30
0.0
 10
72.30655065098921
 20
-4.781861081974726
 30
0.0
 10
72.30899386407253
 20
-4.778939606676859
 30
0.0
 10
72.31144688539604
 20
-4.77600076354564
 30
0.0
 10
72.31391073162654
 20
-4.773043245421066
 30
0.0
 10
72.31638626386502
 20
-4.770065914661389
 30
0.0
 10
72.31887422014125
 20
-4.767067774359263
 30
0.0
 10
72.32137526322635
 20
-4.764047910238646
 30
0.0
 10
72.32304602717267
 20
-4.76202654444704
 30
0.0
 10
72.32388371759992
 20
-4.761012056099973
 30
0.0
 11
72.15058632009998
 21
-4.95769712139999
 31
0.0
 11
72.15395557159997
 21
-4.954103628699998
 31
0.0
 11
72.15727247559988
 21
-4.95055782509995
 31
0.0
 11
72.16053890849997
 21
-4.947058037599974
 31
0.0
 11
72.16375660700004
 21
-4.943602723299976
 31
0.0
 11
72.16692770269986
 21
-4.940189895099978
 31
0.0
 11
72.170054332
 21
-4.936817538799987
 31
0.0
 11
72.17313848809993
 21
-4.933483773399972
 31
0.0
 11
72.17618187279999
 21
-4.930187013999971
 31
0.0
 11
72.17918659519995
 21
-4.92692521659997
 31
0.0
 11
72.18215435010001
 21
-4.923696767199986
 31
0.0
 11
72.18508734179994
 21
-4.920499479799973
 31
0.0
 11
72.18798692339993
 21
-4.917332078799988
 31
0.0
 11
72.19085425799988
 21
-4.914193483599989
 31
0.0
 11
72.19369080769997
 21
-4.911082274500005
 31
0.0
 11
72.1964986852999
 21
-4.907996302599984
 31
0.0
 11
72.19927920610001
 21
-4.90493427899999
 31
0.0
 11
72.20203375189993
 21
-4.901894829900003
 31
0.0
 11
72.20476422019993
 21
-4.898875998599963
 31
0.0
 11
72.20747156800001
 21
-4.895876854299972
 31
0.0
 11
72.21015666540001
 21
-4.892896554799976
 31
0.0
 11
72.21282106849997
 21
-4.889933486599987
 31
0.0
 11
72.21546619600002
 21
-4.886986175799949
 31
0.0
 11
72.21809356849991
 21
-4.884053023099953
 31
0.0
 11
72.22070454309999
 21
-4.881132598799966
 31
0.0
 11
72.2233004053
 21
-4.878223542399995
 31
0.0
 11
72.22588243439992
 21
-4.875324489599949
 31
0.0
 11
72.2284512830999
 21
-4.872434770799985
 31
0.0
 11
72.23100832539995
 21
-4.869552897499987
 31
0.0
 11
72.23355490339992
 21
-4.866677405799963
 31
0.0
 11
72.23609200119989
 21
-4.863807225799989
 31
0.0
 11
72.23862048539996
 21
-4.860941412999965
 31
0.0
 11
72.24113925310001
 21
-4.858081254399978
 31
0.0
 11
72.24364694979994
 21
-4.855228332799969
 31
0.0
 11
72.24614264529993
 21
-4.852383758799975
 31
0.0
 11
72.24862468839996
 21
-4.849549475599973
 31
0.0
 11
72.25109314899992
 21
-4.846725469199968
 31
0.0
 11
72.25354943060001
 21
-4.843910195699935
 31
0.0
 11
72.25599511139995
 21
-4.841101898600003
 31
0.0
 11
72.25843083599994
 21
-4.838299883399985
 31
0.0
 11
72.26085765679994
 21
-4.835502979699969
 31
0.0
 11
72.26327679899992
 21
-4.832709809199956
 31
0.0
 11
72.26568970969987
 21
-4.829918726199979
 31
0.0
 11
72.26809716849988
 21
-4.827128847399977
 31
0.0
 11
72.27049944269987
 21
-4.824339878700003
 31
0.0
 11
72.27289737559994
 21
-4.821550853299969
 31
0.0
 11
72.27529233399997
 21
-4.818760187099984
 31
0.0
 11
72.27768503359988
 21
-4.815967044999966
 31
0.0
 11
72.28007652579998
 21
-4.813170193299969
 31
0.0
 11
72.28246829170001
 21
-4.810367885399971
 31
0.0
 11
72.28486082789999
 21
-4.80755951879995
 31
0.0
 11
72.28725452039992
 21
-4.80474461699997
 31
0.0
 11
72.28965015339992
 21
-4.801922230399968
 31
0.0
 11
72.29204913739994
 21
-4.799090663099933
 31
0.0
 11
72.29445188539995
 21
-4.796249387299967
 31
0.0
 11
72.29685867400002
 21
-4.793398033599986
 31
0.0
 11
72.29927014869992
 21
-4.790535791499978
 31
0.0
 11
72.30168790279998
 21
-4.787660716799978
 31
0.0
 11
72.3041133218
 21
-4.784771098599934
 31
0.0
 11
72.30654710179994
 21
-4.78186603739998
 31
0.0
 11
72.30898975879989
 21
-4.778944842399981
 31
0.0
 11
72.31144236739993
 21
-4.776006147899964
 31
0.0
 11
72.31390563329995
 21
-4.773049021599989
 31
0.0
 11
72.31638082059993
 21
-4.770071851799956
 31
0.0
 11
72.3188685549
 21
-4.767073784700004
 31
0.0
 11
72.32136917449992
 21
-4.764054307499963
 31
0.0
 11
72.32388371759992
 21
-4.761012056099973
 31
0.0
  0
SPLINE
  5
55C97
330
1F
100
AcDbEntity
  8
1
100
AcDbSpline
210
0.0
220
0.0
230
1.0
 70
     8
 71
     3
 72
    73
 73
    69
 74
    67
 42
0.0000000001
 43
0.0000000001
 44
0.000001
 12
0.7449458148278069
 22
0.6671249755259768
 32
0.0
 13
0.7037731082459007
 23
0.7104248110179599
 33
0.0
 40
0.0
 40
0.0
 40
0.0
 40
0.0
 40
0.0048522093395701
 40
0.0096368486523219
 40
0.0143566311491792
 40
0.0190145962848792
 40
0.0236132206540116
 40
0.0281554450012011
 40
0.0326438378875339
 40
0.0370805699967882
 40
0.0414683539113809
 40
0.0458096405466289
 40
0.0501072858257346
 40
0.0543629317825757
 40
0.0585781353620082
 40
0.062755057104095
 40
0.0668963994948807
 40
0.071003832787074
 40
0.075079492355623
 40
0.0791258444255487
 40
0.0831443391222575
 40
0.0871369270807121
 40
0.0911058153343027
 40
0.0950519963104109
 40
0.0989769226681715
 40
0.1028829462983297
 40
0.1067718494370989
 40
0.1106457988660585
 40
0.1145061664294215
 40
0.1183551276858228
 40
0.1221945685351905
 40
0.1260260679376441
 40
0.1298505803745423
 40
0.1336662395240732
 40
0.137471142326964
 40
0.1412634753012731
 40
0.145040405301707
 40
0.1488024067267977
 40
0.1525517712023833
 40
0.1562907812721915
 40
0.1600202534269917
 40
0.1637419152120685
 40
0.1674575633356295
 40
0.1711693858614631
 40
0.1748783069079832
 40
0.1785847488468357
 40
0.1822903534508516
 40
0.1859970057279642
 40
0.1897058241228801
 40
0.1934187783599934
 40
0.1971378400067544
 40
0.2008636878601911
 40
0.2045969275932745
 40
0.2083391970689437
 40
0.2120924968775416
 40
0.2158575031647904
 40
0.219634759505367
 40
0.2234257843232251
 40
0.2272327932632448
 40
0.2310575512788961
 40
0.2349017158067105
 40
0.2387664758693
 40
0.2426535027019908
 40
0.2465638391377711
 40
0.2504992946895429
 40
0.2544609481003209
 40
0.2584508453589389
 40
0.262470487905805
 40
0.262470487905805
 40
0.262470487905805
 40
0.262470487905805
 10
71.96048340309989
 20
-5.138614211199966
 30
0.0
 10
71.96168828077992
 20
-5.137535201187661
 30
0.0
 10
71.96408002299853
 20
-5.135390828115406
 30
0.0
 10
71.96763950584131
 20
-5.132192153395651
 30
0.0
 10
71.9711472695223
 20
-5.129032799882212
 30
0.0
 10
71.97460553400339
 20
-5.125911142213029
 30
0.0
 10
71.978016384706
 20
-5.122825292654129
 30
0.0
 10
71.98138244288481
 20
-5.119774187954122
 30
0.0
 10
71.98470525204943
 20
-5.116755725828953
 30
0.0
 10
71.98798687197342
 20
-5.11376848739451
 30
0.0
 10
71.99122918287395
 20
-5.110810913295226
 30
0.0
 10
71.99443426351962
 20
-5.107881322775769
 30
0.0
 10
71.99760391121078
 20
-5.104978255513204
 30
0.0
 10
72.00073969972215
 20
-5.102100447957214
 30
0.0
 10
72.00384302575201
 20
-5.099246786027366
 30
0.0
 10
72.00691554065969
 20
-5.096415910000603
 30
0.0
 10
72.00995891707106
 20
-5.093606427159842
 30
0.0
 10
72.01297481566752
 20
-5.090816943905865
 30
0.0
 10
72.01596483322049
 20
-5.088046113236218
 30
0.0
 10
72.0189305071894
 20
-5.085292631828922
 30
0.0
 10
72.02187332408783
 20
-5.08255523175015
 30
0.0
 10
72.02479470277495
 20
-5.07983269895884
 30
0.0
 10
72.02769594497016
 20
-5.077123917286302
 30
0.0
 10
72.03057822722775
 20
-5.074427879544403
 30
0.0
 10
72.03344275723083
 20
-5.071743540958907
 30
0.0
 10
72.03629093065211
 20
-5.06906967217924
 30
0.0
 10
72.03912431139229
 20
-5.066404875110906
 30
0.0
 10
72.04194422085999
 20
-5.063747970526693
 30
0.0
 10
72.04475207114393
 20
-5.061097684134482
 30
0.0
 10
72.04754920179181
 20
-5.05845280108207
 30
0.0
 10
72.05033699806079
 20
-5.055812054278122
 30
0.0
 10
72.0531165455073
 20
-5.053174452024807
 30
0.0
 10
72.05588801971277
 20
-5.050539860640173
 30
0.0
 10
72.05865075593345
 20
-5.047908947013455
 30
0.0
 10
72.06140342458656
 20
-5.045283017730655
 30
0.0
 10
72.06414446786431
 20
-5.042663606949576
 30
0.0
 10
72.06687290575615
 20
-5.040051706300049
 30
0.0
 10
72.06958874882975
 20
-5.037447363272052
 30
0.0
 10
72.07229323729933
 20
-5.034849443814964
 30
0.0
 10
72.07498768829765
 20
-5.032256729245746
 30
0.0
 10
72.07767328050346
 20
-5.029668128085932
 30
0.0
 10
72.08035107172992
 20
-5.027082656737762
 30
0.0
 10
72.08302244554153
 20
-5.02449901070854
 30
0.0
 10
72.08568858820348
 20
-5.021916066671041
 30
0.0
 10
72.08835035415228
 20
-5.019333017119622
 30
0.0
 10
72.09100846423274
 20
-5.016749178323765
 30
0.0
 10
72.09366386728567
 20
-5.014163641544188
 30
0.0
 10
72.09631767431011
 20
-5.011575331959123
 30
0.0
 10
72.09897107174032
 20
-5.008983095507447
 30
0.0
 10
72.10162526254265
 20
-5.006385753750054
 30
0.0
 10
72.10428134143256
 20
-5.003782227159563
 30
0.0
 10
72.106940075164
 20
-5.001171751177013
 30
0.0
 10
72.10960214910739
 20
-4.998553637141798
 30
0.0
 10
72.1122685605996
 20
-4.995926885263076
 30
0.0
 10
72.11494031994011
 20
-4.993290475461408
 30
0.0
 10
72.11761817536029
 20
-4.990643641430994
 30
0.0
 10
72.12030275836179
 20
-4.987985727439168
 30
0.0
 10
72.1229950633471
 20
-4.985315714960707
 30
0.0
 10
72.1256963695111
 20
-4.982632294521168
 30
0.0
 10
72.12840798623751
 20
-4.979934121332293
 30
0.0
 10
72.13113097178001
 20
-4.97722008349301
 30
0.0
 10
72.13386637647278
 20
-4.974489105366574
 30
0.0
 10
72.13661503675831
 20
-4.971740187457287
 30
0.0
 10
72.13937836369172
 20
-4.968972611600138
 30
0.0
 10
72.1421567697401
 20
-4.966184941469338
 30
0.0
 10
72.14495149716248
 20
-4.963376097516986
 30
0.0
 10
72.14776354991982
 20
-4.960544907432621
 30
0.0
 10
72.1496433479902
 20
-4.958649005998895
 30
0.0
 10
72.15058632009998
 20
-4.95769712139999
 30
0.0
 11
71.96048340309989
 21
-5.138614211199966
 31
0.0
 11
71.9640962066
 21
-5.135375133499978
 31
0.0
 11
71.96765511239999
 21
-5.132177155500004
 31
0.0
 11
71.97116228139993
 21
-5.129018632999974
 31
0.0
 11
71.97462010719999
 21
-5.125897691799979
 31
0.0
 11
71.97803055579988
 21
-5.122812823199966
 31
0.0
 11
71.98139590879993
 21
-5.119762215099955
 31
0.0
 11
71.98471820069989
 21
-5.116744260499972
 31
0.0
 11
71.98799914679995
 21
-5.113757625699991
 31
0.0
 11
71.99124085519992
 21
-5.110800603999978
 31
0.0
 11
71.99444523259995
 21
-5.107871655699954
 31
0.0
 11
71.99761447659994
 21
-5.10496895859997
 31
0.0
 11
72.00074988260002
 21
-5.102091502299986
 31
0.0
 11
72.00385267839994
 21
-5.099238328199975
 31
0.0
 11
72.0069245306999
 21
-5.096408062899955
 31
0.0
 11
72.00996749799998
 21
-5.093598958100004
 31
0.0
 11
72.01298287399999
 21
-5.090809958500004
 31
0.0
 11
72.01597228859992
 21
-5.088039686999978
 31
0.0
 11
72.01893760829995
 21
-5.085286534799978
 31
0.0
 11
72.0218799491999
 21
-5.082549577999985
 31
0.0
 11
72.02480078970001
 21
-5.079827547099954
 31
0.0
 11
72.02770179019996
 21
-5.07711899159999
 31
0.0
 11
72.0305837189
 21
-5.074423284999953
 31
0.0
 11
72.03344767699997
 21
-5.071739482899987
 31
0.0
 11
72.03629541739991
 21
-5.069066021099972
 31
0.0
 11
72.0391282722
 21
-5.066401719300005
 31
0.0
 11
72.041947849
 21
-5.063745128699951
 31
0.0
 11
72.04475517209989
 21
-5.061095340499962
 31
0.0
 11
72.04755184619995
 21
-5.058450889799972
 31
0.0
 11
72.05033926059996
 21
-5.055810505399948
 31
0.0
 11
72.0531185774999
 21
-5.053173122599973
 31
0.0
 11
72.0558905028999
 21
-5.050538103099983
 31
0.0
 11
72.05865369880001
 21
-5.047906752499971
 31
0.0
 11
72.06140680519997
 21
-5.045280406499971
 31
0.0
 11
72.06414853159998
 21
-5.042660343799967
 31
0.0
 11
72.0668768555999
 21
-5.04004855299995
 31
0.0
 11
72.06959214779994
 21
-5.037444739299973
 31
0.0
 11
72.07229608789993
 21
-5.034847347399976
 31
0.0
 11
72.07499034329993
 21
-5.032254822199989
 31
0.0
 11
72.07767552130002
 21
-5.029666621199952
 31
0.0
 11
72.08035288219997
 21
-5.027081566499974
 31
0.0
 11
72.08302373219993
 21
-5.02449842809999
 31
0.0
 11
72.08568965419994
 21
-5.021915699099979
 31
0.0
 11
72.0883513195999
 21
-5.019332748199973
 31
0.0
 11
72.09100903789994
 21
-5.016749291599966
 31
0.0
 11
72.09366399129994
 21
-5.014164193799972
 31
0.0
 11
72.09631753209993
 21
-5.01157614529997
 31
0.0
 11
72.09897046049997
 21
-5.008984368399966
 31
0.0
 11
72.10162418229987
 21
-5.006387487099987
 31
0.0
 11
72.10428010029994
 21
-5.003784119699973
 31
0.0
 11
72.10693869069991
 21
-5.001173785999968
 31
0.0
 11
72.10960037619992
 21
-4.99855605569998
 31
0.0
 11
72.11226631339997
 21
-4.995929772699968
 31
0.0
 11
72.11493791319998
 21
-4.99329352219995
 31
0.0
 11
72.11761564059992
 21
-4.990646816499962
 31
0.0
 11
72.12029986490001
 21
-4.987989259699974
 31
0.0
 11
72.12299164639995
 21
-4.985319768299989
 31
0.0
 11
72.12569253639998
 21
-4.982636763799989
 31
0.0
 11
72.128403762
 21
-4.979938980899975
 31
0.0
 11
72.13112647029999
 21
-4.977225226399967
 31
0.0
 11
72.13386147339992
 21
-4.974494634599965
 31
0.0
 11
72.13660992029992
 21
-4.971745997599969
 31
0.0
 11
72.13937250639998
 21
-4.968978554899978
 31
0.0
 11
72.14215048389991
 21
-4.966190982499982
 31
0.0
 11
72.14494457549989
 21
-4.963382481099971
 31
0.0
 11
72.14775618289985
 21
-4.960551562600004
 31
0.0
 11
72.15058632009998
 21
-4.95769712139999
 31
0.0
  0
SPLINE
  5
55C98
330
1F
100
AcDbEntity
  8
1
100
AcDbSpline
210
0.0
220
0.0
230
1.0
 70
     8
 71
     3
 72
    73
 73
    69
 74
    67
 42
0.0000000001
 43
0.0000000001
 44
0.000001
 12
0.8006827351959502
 22
0.5990886057664026
 32
0.0
 13
0.7639670109371917
 23
0.6452553031162883
 33
0.0
 40
0.0
 40
0.0
 40
0.0
 40
0.0
 40
0.0047759563788431
 40
0.0094883197992592
 40
0.0141403303888241
 40
0.0187341700444327
 40
0.0232721398848927
 40
0.027757045025123
 40
0.0321913312473613
 40
0.0365770186699936
 40
0.0409165819237757
 40
0.0452126079285119
 40
0.0494676479529382
 40
0.0536832075901144
 40
0.0578609745626254
 40
0.0620034142359527
 40
0.0661130843164783
 40
0.0701914427179618
 40
0.0742403759912381
 40
0.0782623682616819
 40
0.0822591560479657
 40
0.0862314633688727
 40
0.0901804633657687
 40
0.0941082820054644
 40
0.0980173848970936
 40
0.1019099606175664
 40
0.1057877472737193
 40
0.1096523184359901
 40
0.1135050532029746
 40
0.1173474154906021
 40
0.1211822175021175
 40
0.1250117637496582
 40
0.1288365232698201
 40
0.1326542408298235
 40
0.1364629526894886
 40
0.1402602105548171
 40
0.1440435043088119
 40
0.147814061695823
 40
0.1515739692854121
 40
0.1553250951209682
 40
0.1590683081169318
 40
0.1628055993639633
 40
0.1665386972273155
 40
0.1702696430916952
 40
0.1739990182173312
 40
0.1777274473729706
 40
0.1814570892767351
 40
0.1851894430183329
 40
0.1889258087222921
 40
0.1926686721762877
 40
0.1964191754209661
 40
0.200177926717103
 40
0.2039456023382506
 40
0.2077246082114362
 40
0.2115163907573205
 40
0.2153217968709727
 40
0.219141681062093
 40
0.2229785090631475
 40
0.2268337977846729
 40
0.2307084650109657
 40
0.2346041413841706
 40
0.2385229469864723
 40
0.2424658224183748
 40
0.2464337946005257
 40
0.2504290286142969
 40
0.2544528751431291
 40
0.2585072649616513
 40
0.2625934255979136
 40
0.2625934255979136
 40
0.2625934255979136
 40
0.2625934255979136
 10
71.75514543859998
 20
-5.302234040999978
 30
0.0
 10
71.75642011387214
 20
-5.301280300650576
 30
0.0
 10
71.75895137783055
 20
-5.299384029842075
 30
0.0
 10
71.76272039359031
 20
-5.296553644921376
 30
0.0
 10
71.76643767004605
 20
-5.293755460658077
 30
0.0
 10
71.77010535780033
 20
-5.290988063689782
 30
0.0
 10
71.77372563764669
 20
-5.28825032036393
 30
0.0
 10
71.77730076332733
 20
-5.285541045325219
 30
0.0
 10
71.78083252046969
 20
-5.282858590155045
 30
0.0
 10
71.7843229127024
 20
-5.280201776436671
 30
0.0
 10
71.78777389142959
 20
-5.277569278263472
 30
0.0
 10
71.79118756379449
 20
-5.274959681658502
 30
0.0
 10
71.79456576776596
 20
-5.272371751816011
 30
0.0
 10
71.7979100990778
 20
-5.269804430156584
 30
0.0
 10
71.80122212504596
 20
-5.267256667664215
 30
0.0
 10
71.80450368578608
 20
-5.264727194358998
 30
0.0
 10
71.80775655475184
 20
-5.262214778876044
 30
0.0
 10
71.8109823474503
 20
-5.259718300639166
 30
0.0
 10
71.81418265492408
 20
-5.257236647210762
 30
0.0
 10
71.81735913684173
 20
-5.254768642800415
 30
0.0
 10
71.82051314188806
 20
-5.252313342682144
 30
0.0
 10
71.82364567040628
 20
-5.249870065795436
 30
0.0
 10
71.82675782231678
 20
-5.247438047427623
 30
0.0
 10
71.82985115139349
 20
-5.245016160605347
 30
0.0
 10
71.83292747280069
 20
-5.2426030629413
 30
0.0
 10
71.83598849504545
 20
-5.24019748536334
 30
0.0
 10
71.83903568814952
 20
-5.237798336383052
 30
0.0
 10
71.84207030634155
 20
-5.235404686459803
 30
0.0
 10
71.84509352878291
 20
-5.233015658321805
 30
0.0
 10
71.84810685493579
 20
-5.230630113974656
 30
0.0
 10
71.85111202217609
 20
-5.228246718860534
 30
0.0
 10
71.85411050264787
 20
-5.225864337580718
 30
0.0
 10
71.85710244377474
 20
-5.223482882673737
 30
0.0
 10
71.86008688053192
 20
-5.221103153550446
 30
0.0
 10
71.86306209152888
 20
-5.218726560765263
 30
0.0
 10
71.86602629387988
 20
-5.2163545739203
 30
0.0
 10
71.86897853970714
 20
-5.213988003308033
 30
0.0
 10
71.8719190622076
 20
-5.211626715661184
 30
0.0
 10
71.8748492304523
 20
-5.209269661285363
 30
0.0
 10
71.87777031668321
 20
-5.206915860827807
 30
0.0
 10
71.88068356479863
 20
-5.204564350384062
 30
0.0
 10
71.88359017999999
 20
-5.202214192143587
 30
0.0
 10
71.88649166699367
 20
-5.199864197039504
 30
0.0
 10
71.88938916265607
 20
-5.197513468452926
 30
0.0
 10
71.89228351490664
 20
-5.195161337423131
 30
0.0
 10
71.89517560038661
 20
-5.192807108266878
 30
0.0
 10
71.89806653041779
 20
-5.190449888930261
 30
0.0
 10
71.90095758792421
 20
-5.188088641542593
 30
0.0
 10
71.90385013693202
 20
-5.185722255154546
 30
0.0
 10
71.90674544614154
 20
-5.1833496902361
 30
0.0
 10
71.90964460263609
 20
-5.180970049471556
 30
0.0
 10
71.91254822547211
 20
-5.178582816035502
 30
0.0
 10
71.91545725713439
 20
-5.176187203116898
 30
0.0
 10
71.91837285365335
 20
-5.1737822437281
 30
0.0
 10
71.92129621159285
 20
-5.171366930656391
 30
0.0
 10
71.92422812651369
 20
-5.168940583274705
 30
0.0
 10
71.92716965364735
 20
-5.166502301837399
 30
0.0
 10
71.93012201779078
 20
-5.164051041228789
 30
0.0
 10
71.93308645598944
 20
-5.161585738115791
 30
0.0
 10
71.93606399078936
 20
-5.159105506612378
 30
0.0
 10
71.93905578848074
 20
-5.156609319375506
 30
0.0
 10
71.94206305018742
 20
-5.154096178833968
 30
0.0
 10
71.94508669880855
 20
-5.151565068782447
 30
0.0
 10
71.94812812225626
 20
-5.149015504643701
 30
0.0
 10
71.95118814183712
 20
-5.146446112409224
 30
0.0
 10
71.95426808835242
 20
-5.143855658033745
 30
0.0
 10
71.9573690751385
 20
-5.14124313446196
 30
0.0
 10
71.95944283912405
 20
-5.139493083473285
 30
0.0
 10
71.96048340309989
 20
-5.138614211199966
 30
0.0
 11
71.75514543859998
 21
-5.302234040999978
 31
0.0
 11
71.75896782299986
 21
-5.299370614499979
 31
0.0
 11
71.76273608889999
 21
-5.296540995699972
 31
0.0
 11
71.76645295199995
 21
-5.293743418599989
 31
0.0
 11
71.77012027359996
 21
-5.290976740599989
 31
0.0
 11
71.77373998569994
 21
-5.28823974969997
 31
0.0
 11
71.77731442099997
 21
-5.285530914499974
 31
0.0
 11
71.78084565289992
 21
-5.282848882199987
 31
0.0
 11
71.78433538609994
 21
-5.280192565599962
 31
0.0
 11
71.78778568019999
 21
-5.277560592699972
 31
0.0
 11
71.79119867699995
 21
-5.274951513599988
 31
0.0
 11
71.79457648289991
 21
-5.272363890299986
 31
0.0
 11
71.79792036819998
 21
-5.269796912399998
 31
0.0
 11
71.80123174310001
 21
-5.267249652199966
 31
0.0
 11
71.8045126289
 21
-5.264720700599967
 31
0.0
 11
71.80776511359994
 21
-5.262208583399955
 31
0.0
 11
71.81099040930002
 21
-5.259712491199978
 31
0.0
 11
71.81419006279992
 21
-5.257231346399963
 31
0.0
 11
71.81736608799991
 21
-5.254763698299983
 31
0.0
 11
71.82051990299993
 21
-5.252308547599954
 31
0.0
 11
71.82365212359997
 21
-5.24986551239998
 31
0.0
 11
71.82676371759993
 21
-5.247433931599987
 31
0.0
 11
71.82985639999987
 21
-5.245012552599989
 31
0.0
 11
71.83293214789995
 21
-5.242599906400004
 31
0.0
 11
71.83599271509996
 21
-5.24019468799999
 31
0.0
 11
71.83903949659992
 21
-5.237795864699977
 31
0.0
 11
71.8420737543999
 21
-5.235402500699978
 31
0.0
 11
71.84509659449992
 21
-5.233013776299985
 31
0.0
 11
71.84810918629995
 21
-5.230628815099963
 31
0.0
 11
71.85111375219998
 21
-5.228245898499936
 31
0.0
 11
71.85411211089996
 21
-5.225863615799982
 31
0.0
 11
71.85710464079995
 21
-5.223481693999973
 31
0.0
 11
71.86008958999986
 21
-5.22110155809999
 31
0.0
 11
71.86306543929998
 21
-5.218724457299986
 31
0.0
 11
71.86603029559996
 21
-5.216351948999987
 31
0.0
 11
71.86898222279996
 21
-5.213985635699986
 31
0.0
 11
71.87192220369997
 21
-5.211624784899969
 31
0.0
 11
71.87485188749992
 21
-5.209268122199988
 31
0.0
 11
71.87777274889999
 21
-5.20691450479997
 31
0.0
 11
71.88068548139989
 21
-5.204563412699984
 31
0.0
 11
71.88359164929995
 21
-5.202213617999989
 31
0.0
 11
71.88649260839992
 21
-5.199864052699966
 31
0.0
 11
71.88938995439997
 21
-5.197513447599975
 31
0.0
 11
71.89228414589996
 21
-5.195161449399977
 31
0.0
 11
71.89517567419994
 21
-5.192807675999988
 31
0.0
 11
71.89806621789995
 21
-5.190450773999986
 31
0.0
 11
71.90095694069992
 21
-5.188089802299986
 31
0.0
 11
71.90384884939994
 21
-5.185723942199972
 31
0.0
 11
71.90674386519998
 21
-5.183351620199987
 31
0.0
 11
71.9096428661
 21
-5.180972109799983
 31
0.0
 11
71.91254631589988
 21
-5.178585021199966
 31
0.0
 11
71.9154547297
 21
-5.176189919899956
 31
0.0
 11
71.91836995549994
 21
-5.173785269099981
 31
0.0
 11
71.92129309709997
 21
-5.171370137699954
 31
0.0
 11
71.92422479390001
 21
-5.168943973799985
 31
0.0
 11
71.92716568969996
 21
-5.166506218899984
 31
0.0
 11
71.93011766619992
 21
-5.164055283199973
 31
0.0
 11
71.93308187099995
 21
-5.161590178099986
 31
0.0
 11
71.93605898869993
 21
-5.159110295299955
 31
0.0
 11
71.93905024969996
 21
-5.156614567999968
 31
0.0
 11
71.94205725679996
 21
-5.154101611799989
 31
0.0
 11
71.9450807046
 21
-5.151570794899969
 31
0.0
 11
71.94812133319993
 21
-5.149021444899988
 31
0.0
 11
71.95118078809986
 21
-5.146452124599976
 31
0.0
 11
71.954260079
 21
-5.143861924299971
 31
0.0
 11
71.95736064959993
 21
-5.141249563399968
 31
0.0
 11
71.96048340309989
 21
-5.138614211199966
 31
0.0
  0
SPLINE
  5
55C99
330
1F
100
AcDbEntity
  8
1
100
AcDbSpline
210
0.0
220
0.0
230
1.0
 70
     8
 71
     3
 72
    73
 73
    69
 74
    67
 42
0.0000000001
 43
0.0000000001
 44
0.000001
 12
0.8509642210562907
 22
0.5252236613882323
 32
0.0
 13
0.8172945438745189
 23
0.5762201216140773
 33
0.0
 40
0.0
 40
0.0
 40
0.0
 40
0.0
 40
0.0047019157541242
 40
0.0093443198297584
 40
0.0139291521115051
 40
0.0184590743159903
 40
0.0229364860028318
 40
0.0273636402144134
 40
0.0317432883534599
 40
0.0360776575447244
 40
0.0403685722649878
 40
0.0446186763689376
 40
0.0488302954991643
 40
0.0530049414478333
 40
0.0571446078659586
 40
0.061251843511296
 40
0.0653285306234616
 40
0.0693757270007414
 40
0.0733950964389085
 40
0.0773889949605863
 40
0.0813593842593089
 40
0.0853079917899781
 40
0.0892369943016325
 40
0.0931477912053183
 40
0.0970413344560337
 40
0.1009194123896765
 40
0.1047841775456699
 40
0.108637495853018
 40
0.1124811054472782
 40
0.1163163966085041
 40
0.1201452691690815
 40
0.1239691756265767
 40
0.12778987292394
 40
0.131607230720628
 40
0.1354173090857008
 40
0.1392161785299051
 40
0.1430034453796972
 40
0.1467803631118925
 40
0.1505483122606186
 40
0.1543089726055574
 40
0.1580634924102771
 40
0.1618138625670737
 40
0.1655616668396335
 40
0.1693087547590023
 40
0.1730556855576501
 40
0.176803478743904
 40
0.1805543609490597
 40
0.1843096587385636
 40
0.1880713290615886
 40
0.1918413733792075
 40
0.1956203932669899
 40
0.1994089348405543
 40
0.2032084524709088
 40
0.2070212658497626
 40
0.2108483044200259
 40
0.2146903499365484
 40
0.2185490132658524
 40
0.2224266412699901
 40
0.2263243172392725
 40
0.230243254194998
 40
0.2341858474688433
 40
0.2381533309264905
 40
0.2421466861374219
 40
0.2461682310483333
 40
0.2502194277479273
 40
0.2543013372850273
 40
0.2584163084809336
 40
0.2625659770255446
 40
0.2625659770255446
 40
0.2625659770255446
 40
0.2625659770255446
 10
71.53626339809995
 20
-5.447181919099977
 30
0.0
 10
71.53759711879235
 20
-5.446358733297346
 30
0.0
 10
71.54024666326558
 20
-5.444721133661817
 30
0.0
 10
71.54419321126084
 20
-5.442275180098663
 30
0.0
 10
71.54808811059883
 20
-5.439854727040954
 30
0.0
 10
71.55193342680053
 20
-5.437458689661029
 30
0.0
 10
71.55573144595161
 20
-5.435086138390049
 30
0.0
 10
71.55948447007182
 20
-5.432736109925189
 30
0.0
 10
71.56319442237912
 20
-5.430407143806663
 30
0.0
 10
71.56686336393744
 20
-5.428098268763095
 30
0.0
 10
71.57049324945814
 20
-5.425808410389807
 30
0.0
 10
71.57408607420433
 20
-5.423536496600265
 30
0.0
 10
71.57764373411197
 20
-5.421281492533426
 30
0.0
 10
71.58116793839548
 20
-5.419042473029806
 30
0.0
 10
71.58466045366407
 20
-5.416818464028269
 30
0.0
 10
71.58812314560254
 20
-5.414608416657175
 30
0.0
 10
71.59155761177834
 20
-5.412411441321781
 30
0.0
 10
71.59496519730936
 20
-5.410226800769679
 30
0.0
 10
71.59834737660452
 20
-5.408053666394652
 30
0.0
 10
71.60170587301371
 20
-5.405891039268682
 30
0.0
 10
71.60504242336315
 20
-5.403737901846726
 30
0.0
 10
71.6083587098887
 20
-5.401593261873431
 30
0.0
 10
71.611656253072
 20
-5.399456221817418
 30
0.0
 10
71.6149363528072
 20
-5.397326018814512
 30
0.0
 10
71.61820019743453
 20
-5.395201955688635
 30
0.0
 10
71.62144918264818
 20
-5.393083193399421
 30
0.0
 10
71.62468495549223
 20
-5.390968720383812
 30
0.0
 10
71.6279091450661
 20
-5.388857528011415
 30
0.0
 10
71.63112316418704
 20
-5.386748740995658
 30
0.0
 10
71.63432843179776
 20
-5.384641472627267
 30
0.0
 10
71.6375262839228
 20
-5.382534883250714
 30
0.0
 10
71.64071815559026
 20
-5.38042806120133
 30
0.0
 10
71.64390491404771
 20
-5.37832046295624
 30
0.0
 10
71.64708592620247
 20
-5.376212534795529
 30
0.0
 10
71.65025898246137
 20
-5.374105775290404
 30
0.0
 10
71.65342180570161
 20
-5.372001739877349
 30
0.0
 10
71.65657356476714
 20
-5.369901031966934
 30
0.0
 10
71.65971490170221
 20
-5.367803273687473
 30
0.0
 10
71.66284703142736
 20
-5.365707700344872
 30
0.0
 10
71.66597113674737
 20
-5.363613562172163
 30
0.0
 10
71.66908856697142
 20
-5.361519992273473
 30
0.0
 10
71.67220064164229
 20
-5.359426136720161
 30
0.0
 10
71.67530887120534
 20
-5.357331006472707
 30
0.0
 10
71.6784143672698
 20
-5.35523387450968
 30
0.0
 10
71.68151808357055
 20
-5.353134116029496
 30
0.0
 10
71.68462107560009
 20
-5.351031032246455
 30
0.0
 10
71.68772460842916
 20
-5.348923777639685
 30
0.0
 10
71.69083020273337
 20
-5.346811326813694
 30
0.0
 10
71.69393931357439
 20
-5.344692691324995
 30
0.0
 10
71.69705319372252
 20
-5.3425670149949
 30
0.0
 10
71.70017270494708
 20
-5.340433702973841
 30
0.0
 10
71.70329855725487
 20
-5.338292261544511
 30
0.0
 10
71.70643193114057
 20
-5.336141870421686
 30
0.0
 10
71.70957411018656
 20
-5.333981633721892
 30
0.0
 10
71.71272619039297
 20
-5.331810778480759
 30
0.0
 10
71.71588907128972
 20
-5.329628663043083
 30
0.0
 10
71.71906403937379
 20
-5.327434374674298
 30
0.0
 10
71.7222524610998
 20
-5.325226939577733
 30
0.0
 10
71.72545559069437
 20
-5.323005454882322
 30
0.0
 10
71.72867469522174
 20
-5.320769007905427
 30
0.0
 10
71.73191107269423
 20
-5.318516642670106
 30
0.0
 10
71.73516598398311
 20
-5.316247484770643
 30
0.0
 10
71.73844055883143
 20
-5.313960517339241
 30
0.0
 10
71.74173639167742
 20
-5.311655255438397
 30
0.0
 10
71.74505450226678
 20
-5.309330345432913
 30
0.0
 10
71.74839616639935
 20
-5.306984783122688
 30
0.0
 10
71.75176272663549
 20
-5.304617558719941
 30
0.0
 10
71.75401493811313
 20
-5.303031081837788
 30
0.0
 10
71.75514543859998
 20
-5.302234040999978
 30
0.0
 11
71.53626339809995
 21
-5.447181919099977
 31
0.0
 11
71.54026306709994
 21
-5.444709922900004
 31
0.0
 11
71.54420917679994
 21
-5.442264432899962
 31
0.0
 11
71.54810348639995
 21
-5.439844623399965
 31
0.0
 11
71.55194836159996
 21
-5.437449275499988
 31
0.0
 11
71.55574591129988
 21
-5.435077312799977
 31
0.0
 11
71.55949812409989
 21
-5.432727717699934
 31
0.0
 11
71.56320745739998
 21
-5.430399162999963
 31
0.0
 11
71.56687588239987
 21
-5.428090610099973
 31
0.0
 11
71.57050502379997
 21
-5.42580122509999
 31
0.0
 11
71.57409719369997
 21
-5.423529727399982
 31
0.0
 11
71.57765442859994
 21
-5.421274995299983
 31
0.0
 11
71.5811780725
 21
-5.419036334199988
 31
0.0
 11
71.58466987169987
 21
-5.416812783599981
 31
0.0
 11
71.58813203530002
 21
-5.414603075800004
 31
0.0
 11
71.59156620499988
 21
-5.412406292499968
 31
0.0
 11
71.59497332419988
 21
-5.410221953299968
 31
0.0
 11
71.5983548433
 21
-5.408049245399967
 31
0.0
 11
71.6017127904999
 21
-5.405886974300004
 31
0.0
 11
71.60504885759991
 21
-5.403734151099955
 31
0.0
 11
71.60836453539985
 21
-5.401589907099962
 31
0.0
 11
71.61166168769995
 21
-5.399453122699968
 31
0.0
 11
71.61494152189999
 21
-5.397323094499983
 31
0.0
 11
71.61820486749997
 21
-5.395199358499967
 31
0.0
 11
71.62145325229989
 21
-5.39308099009999
 31
0.0
 11
71.62468850509998
 21
-5.390966859299952
 31
0.0
 11
71.62791221059996
 21
-5.388855986299988
 31
0.0
 11
71.63112584289996
 21
-5.386747455499987
 31
0.0
 11
71.63433058200002
 21
-5.384640536999983
 31
0.0
 11
71.63752803049994
 21
-5.382534215999969
 31
0.0
 11
71.64071941409992
 21
-5.380427718599934
 31
0.0
 11
71.64390620950001
 21
-5.378320098399955
 31
0.0
 11
71.64708831719991
 21
-5.376211446899974
 31
0.0
 11
71.65026246539986
 21
-5.374103964899989
 31
0.0
 11
71.65342539869988
 21
-5.37199985889997
 31
0.0
 11
71.65657681089993
 21
-5.36989938479998
 31
0.0
 11
71.65971776599992
 21
-5.367801884199979
 31
0.0
 11
71.66284943119996
 21
-5.365706624299933
 31
0.0
 11
71.66597321950002
 21
-5.363612701399988
 31
0.0
 11
71.66909009969998
 21
-5.36151950359998
 31
0.0
 11
71.67220173729987
 21
-5.359425944899969
 31
0.0
 11
71.6753094565999
 21
-5.357331161399985
 31
0.0
 11
71.67841479919997
 21
-5.355234135999966
 31
0.0
 11
71.68151823499994
 21
-5.353134570099983
 31
0.0
 11
71.6846206136999
 21
-5.351031904999972
 31
0.0
 11
71.6877237818
 21
-5.348924901099978
 31
0.0
 11
71.69082883779987
 21
-5.346812819399973
 31
0.0
 11
71.69393739849994
 21
-5.344694561999988
 31
0.0
 11
71.69705111419995
 21
-5.34256900109999
 31
0.0
 11
71.70017047639993
 21
-5.340435794299979
 31
0.0
 11
71.70329592999991
 21
-5.338294629299968
 31
0.0
 11
71.70642866769998
 21
-5.336144678299989
 31
0.0
 11
71.70957059279993
 21
-5.333984619699934
 31
0.0
 11
71.71272245979998
 21
-5.331813914899969
 31
0.0
 11
71.71588490020003
 21
-5.329632107099984
 31
0.0
 11
71.71905922629997
 21
-5.327438266299951
 31
0.0
 11
71.72224735269987
 21
-5.325231039499998
 31
0.0
 11
71.72545015199995
 21
-5.323009788499989
 31
0.0
 11
71.72866860159996
 21
-5.320773798599974
 31
0.0
 11
71.7319046472
 21
-5.318521676699974
 31
0.0
 11
71.73515927809996
 21
-5.316252688799965
 31
0.0
 11
71.73843327479989
 21
-5.313966242499974
 31
0.0
 11
71.74172847889991
 21
-5.311661000299965
 31
0.0
 11
71.74504608779995
 21
-5.309336068299971
 31
0.0
 11
71.74838695369993
 21
-5.306990790599956
 31
0.0
 11
71.75175296879996
 21
-5.304623776599969
 31
0.0
 11
71.75514543859998
 21
-5.302234040999978
 31
0.0
  0
SPLINE
  5
55C9A
330
1F
100
AcDbEntity
  8
1
100
AcDbSpline
210
0.0
220
0.0
230
1.0
 70
     8
 71
     3
 72
    73
 73
    69
 74
    67
 42
0.0000000001
 43
0.0000000001
 44
0.000001
 12
0.8951164761837324
 22
0.4458323609434577
 32
0.0
 13
0.8637678588727787
 23
0.5038899542343898
 33
0.0
 40
0.0
 40
0.0
 40
0.0
 40
0.0
 40
0.0046284138717897
 40
0.0092001167807279
 40
0.0137177393213097
 40
0.0181838080545431
 40
0.0226003390753146
 40
0.0269699529426677
 40
0.0312951294742983
 40
0.0355776683627042
 40
0.039819520743098
 40
0.0440233114706003
 40
0.0481910391634779
 40
0.0523241332968428
 40
0.0564247880745214
 40
0.060495407393199
 40
0.0645374900816517
 40
0.0685520844903358
 40
0.072541028463217
 40
0.0765066336416165
 40
0.0804506150733437
 40
0.0843749001544665
 40
0.0882815038270798
 40
0.0921714165557571
 40
0.0960459547862547
 40
0.0999071691715645
 40
0.1037569782046641
 40
0.1075972327322432
 40
0.1114292185399668
 40
0.1152547411355296
 40
0.1190759565295724
 40
0.1228943565961265
 40
0.1267096943699621
 40
0.1305207898078545
 40
0.1343268417515182
 40
0.1381257677068259
 40
0.1419158418816355
 40
0.1456972818862542
 40
0.1494712226964432
 40
0.1532394588493033
 40
0.1570039299934814
 40
0.1607668558318996
 40
0.1645294602557342
 40
0.168292159218597
 40
0.1720557545557601
 40
0.1758225449571297
 40
0.1795936493327733
 40
0.1833699430828687
 40
0.187153287116173
 40
0.1909458946301284
 40
0.1947488288198588
 40
0.1985633122239035
 40
0.2023918091059486
 40
0.2062352393724456
 40
0.2100940931956177
 40
0.2139689557604968
 40
0.2178622049245062
 40
0.221775731247169
 40
0.2257117515499697
 40
0.2296714713622034
 40
0.2336565170799395
 40
0.2376683178642777
 40
0.241708620271991
 40
0.2457790931907665
 40
0.2498817064085011
 40
0.254018323689945
 40
0.2581900854595072
 40
0.2623977851671126
 40
0.2623977851671126
 40
0.2623977851671126
 40
0.2623977851671126
 10
71.30563958409988
 20
-5.572242150799967
 30
0.0
 10
71.30702057393825
 20
-5.571554318572013
 30
0.0
 10
71.30976470760874
 20
-5.570185223845472
 30
0.0
 10
71.31385358349922
 20
-5.568138374699403
 30
0.0
 10
71.31789140236168
 20
-5.566110431418865
 30
0.0
 10
71.32188040524517
 20
-5.564100545758281
 30
0.0
 10
71.32582279828381
 20
-5.562107806621371
 30
0.0
 10
71.32972102994205
 20
-5.560131813503021
 30
0.0
 10
71.33357697017794
 20
-5.558171181892861
 30
0.0
 10
71.33739261430179
 20
-5.556225268525098
 30
0.0
 10
71.34116990827459
 20
-5.554293224544027
 30
0.0
 10
71.34491087478938
 20
-5.552374205085913
 30
0.0
 10
71.34861737056093
 20
-5.550467421679799
 30
0.0
 10
71.35229112147232
 20
-5.548572144599249
 30
0.0
 10
71.35593396883331
 20
-5.546687572447824
 30
0.0
 10
71.3595477695307
 20
-5.54481288294585
 30
0.0
 10
71.36313403740991
 20
-5.542947421358904
 30
0.0
 10
71.36669411523389
 20
-5.541090612337713
 30
0.0
 10
71.37022958268102
 20
-5.53924174833911
 30
0.0
 10
71.37374221242641
 20
-5.53740001079605
 30
0.0
 10
71.37723379935636
 20
-5.535564558743063
 30
0.0
 10
71.38070604670787
 20
-5.533734588981376
 30
0.0
 10
71.3841604406735
 20
-5.531909404115383
 30
0.0
 10
71.38759828369842
 20
-5.530088394541623
 30
0.0
 10
71.39102088651537
 20
-5.528270940530619
 30
0.0
 10
71.39442982954239
 20
-5.526456270310648
 30
0.0
 10
71.39782684717403
 20
-5.524643521981248
 30
0.0
 10
71.40121344518565
 20
-5.522831946501826
 30
0.0
 10
71.40459109318721
 20
-5.52102080683281
 30
0.0
 10
71.40796134717305
 20
-5.519209311566969
 30
0.0
 10
71.41132582043218
 20
-5.517396630602677
 30
0.0
 10
71.41468552081988
 20
-5.515582252365222
 30
0.0
 10
71.41804047662032
 20
-5.513766191469445
 30
0.0
 10
71.42139004459903
 20
-5.511948827471501
 30
0.0
 10
71.42473304558217
 20
-5.510130834965851
 30
0.0
 10
71.42806814319766
 20
-5.508312980105857
 30
0.0
 10
71.43139430256297
 20
-5.506495872427779
 30
0.0
 10
71.4347114309333
 20
-5.504679608813022
 30
0.0
 10
71.43802046455715
 20
-5.50286372190955
 30
0.0
 10
71.44132284060396
 20
-5.50104746383508
 30
0.0
 10
71.44462030979224
 20
-5.499229906343986
 30
0.0
 10
71.44791445286244
 20
-5.497410206710144
 30
0.0
 10
71.45120640322949
 20
-5.495587762690307
 30
0.0
 10
71.45449687898127
 20
-5.49376219751892
 30
0.0
 10
71.45778691015874
 20
-5.491932958125845
 30
0.0
 10
71.46107772948181
 20
-5.490099373680267
 30
0.0
 10
71.46437058837711
 20
-5.488260756467754
 30
0.0
 10
71.46766660915393
 20
-5.486416486795038
 30
0.0
 10
71.47096722980172
 20
-5.484565762083194
 30
0.0
 10
71.47427394031655
 20
-5.48270774447282
 30
0.0
 10
71.47758804241203
 20
-5.480841695383007
 30
0.0
 10
71.48091090846986
 20
-5.478966831155547
 30
0.0
 10
71.48424386661798
 20
-5.477082386896514
 30
0.0
 10
71.48758803052221
 20
-5.475187714417531
 30
0.0
 10
71.49094396691788
 20
-5.473282470854785
 30
0.0
 10
71.49431266475989
 20
-5.471366072722945
 30
0.0
 10
71.49769551601122
 20
-5.469437700956165
 30
0.0
 10
71.50109438299472
 20
-5.467496263427834
 30
0.0
 10
71.50451078447014
 20
-5.465540854474285
 30
0.0
 10
71.50794616249965
 20
-5.463570611727137
 30
0.0
 10
71.51140172064874
 20
-5.461584784904504
 30
0.0
 10
71.51487884886972
 20
-5.459582585894667
 30
0.0
 10
71.51837882527814
 20
-5.45756300482961
 30
0.0
 10
71.52190354065471
 20
-5.455525731985192
 30
0.0
 10
71.52545416310255
 20
-5.453469128436198
 30
0.0
 10
71.52903218767852
 20
-5.451392474358728
 30
0.0
 10
71.53263864531272
 20
-5.449295030486384
 30
0.0
 10
71.53505190617756
 20
-5.447888658304337
 30
0.0
 10
71.53626339809995
 20
-5.447181919099977
 30
0.0
 11
71.30563958409988
 21
-5.572242150799967
 31
0.0
 11
71.30978119619993
 21
-5.570175897199975
 31
0.0
 11
71.31386938899999
 21
-5.568129551899987
 31
0.0
 11
71.31790661129997
 21
-5.566102156299949
 31
0.0
 11
71.32189521209994
 21
-5.564092782599987
 31
0.0
 11
71.32583706149995
 21
-5.562100727100004
 31
0.0
 11
71.32973451380002
 21
-5.560125025399985
 31
0.0
 11
71.33358993149994
 21
-5.558164691199964
 31
0.0
 11
71.33740499389995
 21
-5.556219070399963
 31
0.0
 11
71.34118151029992
 21
-5.55428742949998
 31
0.0
 11
71.34492188439998
 21
-5.552368716799934
 31
0.0
 11
71.34862795699991
 21
-5.550462154499983
 31
0.0
 11
71.35230105839986
 21
-5.548567215799964
 31
0.0
 11
71.35594319449996
 21
-5.546683014799969
 31
0.0
 11
71.35955655219999
 21
-5.544808558399966
 31
0.0
 11
71.36314251049992
 21
-5.542943260999935
 31
0.0
 11
71.36670204559999
 21
-5.541086738199981
 31
0.0
 11
71.37023683069998
 21
-5.539238234199972
 31
0.0
 11
71.37374895459998
 21
-5.53739676499997
 31
0.0
 11
71.37723997329993
 21
-5.535561614699973
 31
0.0
 11
71.38071162699993
 21
-5.533731960999988
 31
0.0
 11
71.38416572949989
 21
-5.531906933099934
 31
0.0
 11
71.38760318529995
 21
-5.530086131799963
 31
0.0
 11
71.39102518489989
 21
-5.528269001099987
 31
0.0
 11
71.39443356399993
 21
-5.526454634199966
 31
0.0
 11
71.39783003789995
 21
-5.524642179099986
 31
0.0
 11
71.40121625859996
 21
-5.522830808599978
 31
0.0
 11
71.40459337679994
 21
-5.521019956099978
 31
0.0
 11
71.40796299840002
 21
-5.519208803899987
 31
0.0
 11
71.41132703449994
 21
-5.517396361599979
 31
0.0
 11
71.41468680799988
 21
-5.51558194709999
 31
0.0
 11
71.41804211039988
 21
-5.513765701799984
 31
0.0
 11
71.42139191379993
 21
-5.511948213299989
 31
0.0
 11
71.42473552529992
 21
-5.510129891999996
 31
0.0
 11
71.4280711287999
 21
-5.508311764799985
 31
0.0
 11
71.43139722519999
 21
-5.506494694699982
 31
0.0
 11
71.43471402249992
 21
-5.504678615699974
 31
0.0
 11
71.43802253249993
 21
-5.502863019499971
 31
0.0
 11
71.44132434279999
 21
-5.501047075899963
 31
0.0
 11
71.44462116479991
 21
-5.499229878499976
 31
0.0
 11
71.44791495160001
 21
-5.497410379100005
 31
0.0
 11
71.45120678149993
 21
-5.495588005199964
 31
0.0
 11
71.45449702439993
 21
-5.493762572699937
 31
0.0
 11
71.45778638679991
 21
-5.491933708699962
 31
0.0
 11
71.46107688119986
 21
-5.490100308799968
 31
0.0
 11
71.46436948629997
 21
-5.488261836999969
 31
0.0
 11
71.46766496669994
 21
-5.486417873299972
 31
0.0
 11
71.4709649449
 21
-5.484567512599982
 31
0.0
 11
71.47427134749995
 21
-5.482709671799954
 31
0.0
 11
71.47758509559998
 21
-5.480843825899954
 31
0.0
 11
71.4809072473999
 21
-5.478969368599978
 31
0.0
 11
71.48423993989997
 21
-5.477085078699973
 31
0.0
 11
71.48758396289991
 21
-5.475190490099963
 31
0.0
 11
71.49093973110002
 21
-5.473285346399977
 31
0.0
 11
71.49430774139995
 21
-5.47136934359999
 31
0.0
 11
71.49769004679995
 21
-5.469441287599964
 31
0.0
 11
71.50108827369996
 21
-5.467500219999964
 31
0.0
 11
71.50450432849988
 21
-5.465545014799987
 31
0.0
 11
71.50793923709994
 21
-5.463575043499973
 31
0.0
 11
71.51139438859996
 21
-5.46158946499999
 31
0.0
 11
71.51487099879995
 21
-5.459587532499982
 31
0.0
 11
71.51837055629989
 21
-5.457568336799953
 31
0.0
 11
71.52189441389992
 21
-5.455531041699986
 31
0.0
 11
71.52544432299993
 21
-5.453474574399978
 31
0.0
 11
71.5290218694999
 21
-5.451397951399984
 31
0.0
 11
71.5326280095
 21
-5.449300549799987
 31
0.0
 11
71.53626339809995
 21
-5.447181919099977
 31
0.0
  0
SPLINE
  5
55C9B
330
1F
100
AcDbEntity
  8
1
100
AcDbSpline
210
0.0
220
0.0
230
1.0
 70
     8
 71
     3
 72
    72
 73
    68
 74
    66
 42
0.0000000001
 43
0.0000000001
 44
0.000001
 12
0.9324485846520691
 22
0.3613026943995201
 32
0.0
 13
0.903401563444131
 23
0.428795540049917
 33
0.0
 40
0.0
 40
0.0
 40
0.0
 40
0.0
 40
0.0046249144192131
 40
0.0091954528950135
 40
0.0137135997965586
 40
0.0181816760718243
 40
0.022601995124019
 40
0.0269775444997415
 40
0.0313100992893929
 40
0.0356013290901633
 40
0.0398538020785541
 40
0.0440700991476225
 40
0.0482518323120861
 40
0.0524005638347831
 40
0.0565190108164381
 40
0.0606090857687734
 40
0.0646719712204592
 40
0.0687089228938153
 40
0.0727223871592924
 40
0.0767143302675299
 40
0.0806865079606092
 40
0.0846412095264596
 40
0.0885796679287757
 40
0.0925030608701908
 40
0.0964134735700982
 40
0.1003127459792081
 40
0.1042028908698733
 40
0.108085171535779
 40
0.1119615501725589
 40
0.1158339123462384
 40
0.1197041275816164
 40
0.1235723072266212
 40
0.1274382665121483
 40
0.1313012533299798
 40
0.1351594316291133
 40
0.1390113844704444
 40
0.1428573450759644
 40
0.1466972482131595
 40
0.1505309673239245
 40
0.1543601311604895
 40
0.1581867207627301
 40
0.162013160370277
 40
0.165841392515045
 40
0.1696736867315243
 40
0.1735112138493035
 40
0.1773543493640595
 40
0.18120388982372
 40
0.1850621051578596
 40
0.1889306896739361
 40
0.1928107226804527
 40
0.196704347352481
 40
0.20061350016818
 40
0.2045390085622302
 40
0.2084812341773894
 40
0.2124417126154752
 40
0.2164226557844387
 40
0.2204262167962735
 40
0.2244544615566697
 40
0.228509060800446
 40
0.2325921017894778
 40
0.2367050031851936
 40
0.2408485918274064
 40
0.2450248878673608
 40
0.2492359334652019
 40
0.2534830100514106
 40
0.2577679480701756
 40
0.2620933233166808
 40
0.2620933233166808
 40
0.2620933233166808
 40
0.2620933233166808
 10
71.06518045879994
 20
-5.67636322259999
 30
0.0
 10
71.06661795710142
 20
-5.675806224586311
 30
0.0
 10
71.06947520444709
 20
-5.67469658648905
 30
0.0
 10
71.07373383610735
 20
-5.67303527971241
 30
0.0
 10
71.07794130877636
 20
-5.67138669501533
 30
0.0
 10
71.08209977826226
 20
-5.669750313870553
 30
0.0
 10
71.08621163549236
 20
-5.668125300607771
 30
0.0
 10
71.09027935385569
 20
-5.666511519491423
 30
0.0
 10
71.09430483917146
 20
-5.66490798154105
 30
0.0
 10
71.09829003507724
 20
-5.663314172936127
 30
0.0
 10
71.10223711074372
 20
-5.661729417870121
 30
0.0
 10
71.10614821745087
 20
-5.660153046361005
 30
0.0
 10
71.11002518919548
 20
-5.658584496740489
 30
0.0
 10
71.11386989864667
 20
-5.657023180662152
 30
0.0
 10
71.1176843066998
 20
-5.655468459650949
 30
0.0
 10
71.12147025291363
 20
-5.6539197318359
 30
0.0
 10
71.12522912216326
 20
-5.652376569451535
 30
0.0
 10
71.12896246138615
 20
-5.650838469998705
 30
0.0
 10
71.13267205508811
 20
-5.64930482094846
 30
0.0
 10
71.13635983820251
 20
-5.647774936591291
 30
0.0
 10
71.14002769337736
 20
-5.646248141096608
 30
0.0
 10
71.14367727376697
 20
-5.644723842686319
 30
0.0
 10
71.14731005173081
 20
-5.643201516048607
 30
0.0
 10
71.15092743393205
 20
-5.641680654534342
 30
0.0
 10
71.15453101094437
 20
-5.640160666359436
 30
0.0
 10
71.15812262621256
 20
-5.638640842534629
 30
0.0
 10
71.16170386759967
 20
-5.637120572689612
 30
0.0
 10
71.1652763575608
 20
-5.635599223271571
 30
0.0
 10
71.1688416764294
 20
-5.634076169687221
 30
0.0
 10
71.17240158726776
 20
-5.632550700385225
 30
0.0
 10
71.17595728323118
 20
-5.631022339937503
 30
0.0
 10
71.17950932151365
 20
-5.62949088068767
 30
0.0
 10
71.18305745662422
 20
-5.627956460239589
 30
0.0
 10
71.18660084825165
 20
-5.626419475912088
 30
0.0
 10
71.19013828133581
 20
-5.624880492966967
 30
0.0
 10
71.1936688443597
 20
-5.623339950823366
 30
0.0
 10
71.19719216816514
 20
-5.621798055642686
 30
0.0
 10
71.20070827815897
 20
-5.620254842047772
 30
0.0
 10
71.20421762548033
 20
-5.618710156918256
 30
0.0
 10
71.20772128432242
 20
-5.61716356926246
 30
0.0
 10
71.21122110446203
 20
-5.615614299332081
 30
0.0
 10
71.21471902775812
 20
-5.614061516773277
 30
0.0
 10
71.21821708047917
 20
-5.612504344179059
 30
0.0
 10
71.22171690409351
 20
-5.610942066914747
 30
0.0
 10
71.22521966002756
 20
-5.609374176281606
 30
0.0
 10
71.22872606056882
 20
-5.607800361864336
 30
0.0
 10
71.23223715071498
 20
-5.606220159715279
 30
0.0
 10
71.23575437427138
 20
-5.604632920795596
 30
0.0
 10
71.23927925851313
 20
-5.603037951828826
 30
0.0
 10
71.24281328953458
 20
-5.601434570981441
 30
0.0
 10
71.24635802471942
 20
-5.599822058152556
 30
0.0
 10
71.24991494210741
 20
-5.598199721585389
 30
0.0
 10
71.25348497739839
 20
-5.59656711150521
 30
0.0
 10
71.25706894355147
 20
-5.594923831081176
 30
0.0
 10
71.2606680716172
 20
-5.593269288118323
 30
0.0
 10
71.26428413277023
 20
-5.591602635730128
 30
0.0
 10
71.26791905548526
 20
-5.589922946096409
 30
0.0
 10
71.2715746019133
 20
-5.588229361595155
 30
0.0
 10
71.27525250958246
 20
-5.586521023819971
 30
0.0
 10
71.27895432348345
 20
-5.584797172081055
 30
0.0
 10
71.28268131082819
 20
-5.583057115802363
 30
0.0
 10
71.28643479146768
 20
-5.581300330201701
 30
0.0
 10
71.29021627373112
 20
-5.579526201637081
 30
0.0
 10
71.2940271776144
 20
-5.577733572212013
 30
0.0
 10
71.29786906437999
 20
-5.575921734862335
 30
0.0
 10
71.30174359871779
 20
-5.574089784505661
 30
0.0
 10
71.3043370671798
 20
-5.572860384671558
 30
0.0
 10
71.30563958409988
 20
-5.572242150799967
 30
0.0
 11
71.06518045879994
 21
-5.67636322259999
 31
0.0
 11
71.06949171119999
 21
-5.674688968099973
 31
0.0
 11
71.07374982329992
 21
-5.673027995799985
 31
0.0
 11
71.07795672689992
 21
-5.671379840199977
 31
0.0
 11
71.0821146621999
 21
-5.669743896599969
 31
0.0
 11
71.08622585719996
 21
-5.668119546499967
 31
0.0
 11
71.09029303829988
 21
-5.666505954499983
 31
0.0
 11
71.09431801039995
 21
-5.664902632399973
 31
0.0
 11
71.09830241179992
 21
-5.663309143799965
 31
0.0
 11
71.10224869009988
 21
-5.661724713699969
 31
0.0
 11
71.1061592989999
 21
-5.660148546899977
 31
0.0
 11
71.11003578859999
 21
-5.658580196699988
 31
0.0
 11
71.11387965939997
 21
-5.657019225399965
 31
0.0
 11
71.11769347759997
 21
-5.655464749099978
 31
0.0
 11
71.12147905939997
 21
-5.65391617449997
 31
0.0
 11
71.12523754189993
 21
-5.65237317519997
 31
0.0
 11
71.12897012749994
 21
-5.650835390300004
 31
0.0
 11
71.13267911589986
 21
-5.649301995699987
 31
0.0
 11
71.13636635879998
 21
-5.647772339599969
 31
0.0
 11
71.14003350979993
 21
-5.646245841299974
 31
0.0
 11
71.14368271129996
 21
-5.644721705299973
 31
0.0
 11
71.14731512749989
 21
-5.643199534299968
 31
0.0
 11
71.15093186929988
 21
-5.641678946199975
 31
0.0
 11
71.15453488149995
 21
-5.640159200299978
 31
0.0
 11
71.15812587919998
 21
-5.638639641899986
 31
0.0
 11
71.16170673329992
 21
-5.637119540599984
 31
0.0
 11
71.16527862179992
 21
-5.635598451399987
 31
0.0
 11
71.16884336299989
 21
-5.634075648699978
 31
0.0
 11
71.17240270139991
 21
-5.632550428899934
 31
0.0
 11
71.17595836360004
 21
-5.631022087099966
 31
0.0
 11
71.17951045879994
 21
-5.62949060749999
 31
0.0
 11
71.18305882439989
 21
-5.627956091599985
 31
0.0
 11
71.18660277789996
 21
-5.626418867799985
 31
0.0
 11
71.19014064449988
 21
-5.62487970049999
 31
0.0
 11
71.19367113669994
 21
-5.623339193499974
 31
0.0
 11
71.19719448089989
 21
-5.621797293699971
 31
0.0
 11
71.20071062999994
 21
-5.620254067199981
 31
0.0
 11
71.20421948090001
 21
-5.618709604799976
 31
0.0
 11
71.20772253619993
 21
-5.617163287899971
 31
0.0
 11
71.21122161800002
 21
-5.615614349099972
 31
0.0
 11
71.21471895009989
 21
-5.614061833299972
 31
0.0
 11
71.21821631239999
 21
-5.612504972499964
 31
0.0
 11
71.22171578029991
 21
-5.610942858299937
 31
0.0
 11
71.22521842279997
 21
-5.609375022999971
 31
0.0
 11
71.22872458189994
 21
-5.607801321399977
 31
0.0
 11
71.23223498289991
 21
-5.606221433899991
 31
0.0
 11
71.23575169259999
 21
-5.604634431500004
 31
0.0
 11
71.23927624999993
 21
-5.603039614999987
 31
0.0
 11
71.24280963149994
 21
-5.601436533599995
 31
0.0
 11
71.24635378019997
 21
-5.599824292299972
 31
0.0
 11
71.24991044779989
 21
-5.598202074499981
 31
0.0
 11
71.25348037470002
 21
-5.596569518899956
 31
0.0
 11
71.25706387689996
 21
-5.594926456199987
 31
0.0
 11
71.26066233649993
 21
-5.593272225599934
 31
0.0
 11
71.26427774739994
 21
-5.591605877999983
 31
0.0
 11
71.26791204679995
 21
-5.589926481799965
 31
0.0
 11
71.27156708959995
 21
-5.588233135299974
 31
0.0
 11
71.27524436919992
 21
-5.586525096499984
 31
0.0
 11
71.27894575429997
 21
-5.584801442899975
 31
0.0
 11
71.28267250469997
 21
-5.583061527899973
 31
0.0
 11
71.28642530109999
 21
-5.581304971899969
 31
0.0
 11
71.29020592229989
 21
-5.579530876999955
 31
0.0
 11
71.29401626629993
 21
-5.577738281699952
 31
0.0
 11
71.29785746299996
 21
-5.575926579599967
 31
0.0
 11
71.30173113699988
 21
-5.57409492579997
 31
0.0
 11
71.30563958409988
 21
-5.572242150799967
 31
0.0
  0
SPLINE
  5
55C9C
330
1F
100
AcDbEntity
  8
1
100
AcDbSpline
210
0.0
220
0.0
230
1.0
 70
     8
 71
     3
 72
    46
 73
    42
 74
    40
 42
0.0000000001
 43
0.0000000001
 44
0.000001
 12
-0.9999537832716145
 22
-0.0096141209054755
 32
0.0
 13
-0.9996162520729974
 23
0.027701057588724
 33
0.0
 40
0.0
 40
0.0
 40
0.0
 40
0.0
 40
0.0080424362486266
 40
0.0156438665614648
 40
0.0231218226666326
 40
0.0305903094380534
 40
0.0380620753514039
 40
0.045524577086457
 40
0.0530711943085347
 40
0.0609939155223481
 40
0.0696730198105841
 40
0.0793797854501074
 40
0.0897246831293739
 40
0.0998524482314974
 40
0.1091229319200681
 40
0.1175444275033921
 40
0.1254527427791802
 40
0.1331531217855856
 40
0.1407986021064151
 40
0.1484273645432071
 40
0.1560977113918971
 40
0.163885101355483
 40
0.1718505989223882
 40
0.179870211143591
 40
0.1874846026021149
 40
0.1943939045573597
 40
0.2008002157803721
 40
0.2070667011929408
 40
0.2135138299842844
 40
0.2202087056588548
 40
0.2269437172858895
 40
0.2336123202612701
 40
0.2402506534549361
 40
0.2468926698039366
 40
0.2535544873770185
 40
0.2602259069058233
 40
0.2668954705198935
 40
0.2735901450932025
 40
0.2803012098537059
 40
0.2869345556955334
 40
0.2935326589814106
 40
0.2935326589814106
 40
0.2935326589814106
 40
0.2935326589814106
 10
68.7531149635999
 20
-5.927563534799974
 30
0.0
 10
68.75043427541545
 20
-5.927589308451461
 30
0.0
 10
68.7452198364536
 20
-5.927633427464586
 30
0.0
 10
68.73751275225214
 20
-5.927687889018288
 30
0.0
 10
68.72999690035539
 20
-5.927728415286894
 30
0.0
 10
68.72252421936031
 20
-5.927757773897058
 30
0.0
 10
68.71505665547847
 20
-5.927776490213704
 30
0.0
 10
68.70756302928356
 20
-5.927784730692694
 30
0.0
 10
68.6999190803877
 20
-5.927782400461369
 30
0.0
 10
68.69186960887333
 20
-5.927768321535497
 30
0.0
 10
68.68310012241972
 20
-5.927739364783407
 30
0.0
 10
68.67352331598539
 20
-5.927691135506067
 30
0.0
 10
68.66346374257893
 20
-5.927621192571296
 30
0.0
 10
68.6535497605567
 20
-5.927531248560017
 30
0.0
 10
68.64427708807994
 20
-5.927427321101321
 30
0.0
 10
68.63574439825407
 20
-5.92731440429087
 30
0.0
 10
68.62773524880953
 20
-5.927193107103905
 30
0.0
 10
68.61998497241126
 20
-5.927061369069479
 30
0.0
 10
68.61232811479016
 20
-5.926917407468197
 30
0.0
 10
68.60468149555294
 20
-5.92676196343868
 30
0.0
 10
68.59698779791262
 20
-5.92659533964286
 30
0.0
 10
68.58918208417759
 20
-5.926417193942699
 30
0.0
 10
68.5812601690663
 20
-5.926228258753512
 30
0.0
 10
68.57339607471629
 20
-5.926033675998029
 30
0.0
 10
68.56588407285977
 20
-5.925842437804734
 30
0.0
 10
68.55890976678853
 20
-5.925660891641728
 30
0.0
 10
68.55238470350759
 20
-5.925487506394675
 30
0.0
 10
68.54601372843768
 20
-5.925315051616964
 30
0.0
 10
68.53954668308398
 20
-5.925136967794104
 30
0.0
 10
68.53292360045322
 20
-5.924951741787554
 30
0.0
 10
68.52622678918459
 20
-5.924762065638093
 30
0.0
 10
68.51954886518405
 20
-5.924571261732227
 30
0.0
 10
68.51290195045516
 20
-5.924380523982849
 30
0.0
 10
68.50625729512325
 20
-5.924189902497049
 30
0.0
 10
68.49960158823154
 20
-5.923999917348071
 30
0.0
 10
68.49293665632155
 20
-5.923811301265958
 30
0.0
 10
68.48626075003114
 20
-5.923623310411828
 30
0.0
 10
68.47957157655702
 20
-5.923436995366403
 30
0.0
 10
68.47289446041151
 20
-5.923251399375049
 30
0.0
 10
68.46624952540338
 20
-5.923066584362077
 30
0.0
 10
68.4618407402591
 20
-5.922944215013005
 30
0.0
 10
68.45964221649996
 20
-5.922883290199978
 30
0.0
 11
68.7531149635999
 21
-5.927563534799974
 31
0.0
 11
68.74507276089997
 21
-5.927633747399982
 31
0.0
 11
68.73747151689991
 21
-5.927687039299984
 31
0.0
 11
68.72999367329993
 21
-5.927727605499955
 31
0.0
 11
68.72252524779987
 21
-5.927756997699974
 31
0.0
 11
68.71505350879994
 21
-5.927775743599953
 31
0.0
 11
68.70759101439995
 21
-5.927783961399983
 31
0.0
 11
68.70004439979988
 21
-5.927781665099972
 31
0.0
 11
68.69212169259999
 21
-5.927767804200003
 31
0.0
 11
68.68344263729994
 21
-5.927739126699963
 31
0.0
 11
68.67373599629996
 21
-5.927690203499979
 31
0.0
 11
68.66339135159996
 21
-5.927617995499973
 31
0.0
 11
68.65326400570001
 21
-5.927525891799989
 31
0.0
 11
68.64399410549999
 21
-5.927421869499982
 31
0.0
 11
68.63557334749993
 21
-5.927310373499937
 31
0.0
 11
68.62766593869986
 21
-5.92719058249999
 31
0.0
 11
68.6199666702999
 21
-5.927059734799955
 31
0.0
 11
68.61232253299994
 21
-5.926916354999962
 31
0.0
 11
68.60469533939994
 21
-5.926761560199979
 31
0.0
 11
68.59702678389993
 21
-5.926595705699968
 31
0.0
 11
68.58924141439996
 21
-5.926418229999955
 31
0.0
 11
68.58127817429994
 21
-5.926228506100004
 31
0.0
 11
68.57326100809991
 21
-5.926030354299983
 31
0.0
 11
68.56564907759997
 21
-5.925836692799963
 31
0.0
 11
68.55874211389999
 21
-5.925656880299969
 31
0.0
 11
68.55233806079997
 21
-5.925486730699974
 31
0.0
 11
68.54607386709989
 21
-5.925317197099973
 31
0.0
 11
68.5396291772999
 21
-5.925139786199951
 31
0.0
 11
68.53293691239986
 21
-5.924952716899968
 31
0.0
 11
68.52620459259998
 21
-5.924762155399962
 31
0.0
 11
68.51953869940001
 21
-5.924571832799971
 31
0.0
 11
68.51290308319988
 21
-5.924381563300004
 31
0.0
 11
68.5062637769999
 21
-5.924191243699953
 31
0.0
 11
68.49960463889994
 21
-5.924001270099937
 31
0.0
 11
68.49293583870002
 21
-5.923812420299968
 31
0.0
 11
68.48626879239993
 21
-5.923624834599978
 31
0.0
 11
68.47957671529997
 21
-5.923437524799952
 31
0.0
 11
68.47286842549994
 21
-5.923250525900003
 31
0.0
 11
68.46623774599999
 21
-5.923066241299965
 31
0.0
 11
68.45964221649996
 21
-5.922883290199978
 31
0.0
  0
SPLINE
  5
55C9D
330
1F
100
AcDbEntity
  8
1
100
AcDbSpline
210
0.0
220
0.0
230
1.0
 70
     8
 71
     3
 72
    36
 73
    32
 74
    30
 42
0.0000000001
 43
0.0000000001
 44
0.000001
 12
-0.9996520991019984
 22
-0.0263757608604654
 32
0.0
 13
-0.999947290737543
 23
-0.0102672170838906
 33
0.0
 40
0.0
 40
0.0
 40
0.0
 40
0.0
 40
0.0158507411261996
 40
0.0296376430515145
 40
0.0416572971634752
 40
0.0522485689309012
 40
0.0618163256791673
 40
0.0707860572641397
 40
0.0795805537045711
 40
0.0883863567413757
 40
0.097169797085097
 40
0.1059648539072598
 40
0.1148616028970822
 40
0.1238485723825911
 40
0.132851922193668
 40
0.1418118751403848
 40
0.1507366323935356
 40
0.1598430614809289
 40
0.1692974854694494
 40
0.1786671184479961
 40
0.187324738859456
 40
0.1952690497848685
 40
0.2029699660643836
 40
0.2109371909375356
 40
0.2197176171046302
 40
0.2295217488560224
 40
0.2398338238781917
 40
0.2500577229380509
 40
0.2601918417157047
 40
0.2704053234516286
 40
0.2807461282121724
 40
0.2807461282121724
 40
0.2807461282121724
 40
0.2807461282121724
 10
69.03377844929986
 20
-5.920851848099987
 30
0.0
 10
69.02849670708684
 20
-5.920991206552459
 30
0.0
 10
69.0186209645687
 20
-5.921253097747582
 30
0.0
 10
69.00474000843775
 20
-5.9216185391564
 30
0.0
 10
68.99261161026453
 20
-5.921938172242876
 30
0.0
 10
68.98188908856099
 20
-5.922220104496505
 30
0.0
 10
68.97218284071624
 20
-5.922474715592942
 30
0.0
 10
68.96307529326787
 20
-5.92271290519851
 30
0.0
 10
68.95422162333051
 20
-5.922943679444829
 30
0.0
 10
68.94543000462665
 20
-5.923171883677683
 30
0.0
 10
68.93663818013914
 20
-5.923399357090518
 30
0.0
 10
68.92781604586861
 20
-5.923627436292877
 30
0.0
 10
68.9189260990442
 20
-5.923857571797258
 30
0.0
 10
68.90996676617027
 20
-5.924090341445706
 30
0.0
 10
68.90098640995683
 20
-5.92432509930474
 30
0.0
 10
68.89202683629145
 20
-5.924561308147632
 30
0.0
 10
68.88303299527757
 20
-5.924801454625326
 30
0.0
 10
68.87387442535731
 20
-5.925047341724551
 30
0.0
 10
68.86456757521472
 20
-5.925295655594668
 30
0.0
 10
68.85541016513236
 20
-5.925535849462095
 30
0.0
 10
68.84675581099685
 20
-5.925757370689639
 30
0.0
 10
68.83865737446427
 20
-5.925959147613328
 30
0.0
 10
68.83078886684228
 20
-5.926149837339879
 30
0.0
 10
68.82264160452194
 20
-5.926341786253845
 30
0.0
 10
68.81379329039481
 20
-5.926542733551942
 30
0.0
 10
68.80416332204942
 20
-5.926750697354068
 30
0.0
 10
68.79405200404511
 20
-5.926954553532072
 30
0.0
 10
68.78383036813733
 20
-5.927142887695952
 30
0.0
 10
68.7736412090407
 20
-5.927308717073048
 30
0.0
 10
68.76341271879567
 20
-5.927450973065065
 30
0.0
 10
68.75656171683471
 20
-5.927528144370869
 30
0.0
 10
68.7531149635999
 20
-5.927563534799974
 30
0.0
 11
69.03377844929986
 21
-5.920851848099987
 31
0.0
 11
69.01793323009991
 21
-5.921269793399988
 31
0.0
 11
69.00415111619992
 21
-5.921633109500008
 31
0.0
 11
68.99213562929998
 21
-5.921949586899971
 31
0.0
 11
68.98154801639993
 21
-5.922227957599988
 31
0.0
 11
68.97198354879987
 21
-5.922478813599967
 31
0.0
 11
68.96301688269995
 21
-5.922713300300005
 31
0.0
 11
68.95422537140001
 21
-5.922942422799978
 31
0.0
 11
68.94542253429989
 21
-5.923170954299978
 31
0.0
 11
68.93664203479994
 21
-5.923398227499989
 31
0.0
 11
68.92784991779996
 21
-5.923625609999975
 31
0.0
 11
68.9189561506999
 21
-5.923855931499973
 31
0.0
 11
68.90997221549986
 21
-5.924089439799972
 31
0.0
 11
68.90097194309993
 21
-5.92432481189998
 31
0.0
 11
68.89201510729998
 21
-5.924561121699968
 31
0.0
 11
68.88309352279993
 21
-5.924799053900004
 31
0.0
 11
68.87399036199991
 21
-5.925042980199963
 31
0.0
 11
68.86453929039993
 21
-5.92529469589998
 31
0.0
 11
68.85517287129989
 21
-5.925540046199971
 31
0.0
 11
68.84651808279994
 21
-5.925761430999971
 31
0.0
 11
68.83857623609987
 21
-5.925959253599971
 31
0.0
 11
68.83087758129994
 21
-5.926145836299967
 31
0.0
 11
68.82291256379989
 21
-5.926333329099962
 31
0.0
 11
68.81413439679994
 21
-5.926532445699978
 31
0.0
 11
68.80433254409997
 21
-5.926743758799988
 31
0.0
 11
68.79402255679991
 21
-5.926951150999956
 31
0.0
 11
68.78380038199992
 21
-5.927138760999968
 31
0.0
 11
68.77366760299986
 21
-5.927303305199972
 31
0.0
 11
68.76345510749996
 21
-5.927444911799954
 31
0.0
 11
68.7531149635999
 21
-5.927563534799974
 31
0.0
  0
SPLINE
  5
55C9E
330
1F
100
AcDbEntity
  8
1
100
AcDbSpline
210
0.0
220
0.0
230
1.0
 70
     8
 71
     3
 72
    26
 73
    22
 74
    20
 42
0.0000000001
 43
0.0000000001
 44
0.000001
 12
-0.9643344450809337
 22
-0.264686754542889
 32
0.0
 13
-0.994374717450565
 23
-0.1059194094352339
 33
0.0
 40
0.0
 40
0.0
 40
0.0
 40
0.0
 40
0.0260324445661012
 40
0.052060075724122
 40
0.0780827598932655
 40
0.104099681670085
 40
0.1301087847325738
 40
0.1561107395782992
 40
0.1821061494036394
 40
0.2080965875526855
 40
0.2340836903607284
 40
0.2600682754240966
 40
0.2860502461974023
 40
0.3120288284991025
 40
0.3380029586824675
 40
0.3639710102057208
 40
0.3899319523095911
 40
0.4158852529483485
 40
0.4418287584134823
 40
0.4677608207876105
 40
0.4936795178378101
 40
0.4936795178378101
 40
0.4936795178378101
 40
0.4936795178378101
 10
70.73707094790001
 20
-5.784674799900004
 30
0.0
 10
70.72870295357171
 20
-5.786971614321673
 30
0.0
 10
70.71194888910572
 20
-5.791493672241232
 30
0.0
 10
70.68676334438823
 20
-5.798061706360345
 30
0.0
 10
70.66152811969272
 20
-5.804415114821695
 30
0.0
 10
70.63624580700599
 20
-5.810552336889431
 30
0.0
 10
70.61091895316855
 20
-5.816472797795016
 30
0.0
 10
70.5855496608853
 20
-5.822176079635285
 30
0.0
 10
70.56013884841724
 20
-5.827662018140417
 30
0.0
 10
70.53468710972044
 20
-5.832930466161757
 30
0.0
 10
70.5091949805605
 20
-5.837981341792884
 30
0.0
 10
70.48366354685976
 20
-5.842814477195689
 30
0.0
 10
70.45809467826763
 20
-5.847429525980361
 30
0.0
 10
70.43249086397356
 20
-5.851826039747452
 30
0.0
 10
70.40685510441671
 20
-5.85600353089511
 30
0.0
 10
70.38119049248002
 20
-5.859961543165924
 30
0.0
 10
70.35549995616787
 20
-5.863699724219275
 30
0.0
 10
70.32978658541771
 20
-5.867217587345892
 30
0.0
 10
70.30405374417745
 20
-5.870515210034982
 30
0.0
 10
70.27830522028029
 20
-5.873592166782559
 30
0.0
 10
70.26112658948528
 20
-5.875496270805017
 30
0.0
 10
70.25253562379993
 20
-5.876411368499974
 30
0.0
 11
70.73707094790001
 21
-5.784674799900004
 31
0.0
 11
70.71193788189993
 21
-5.791458569699971
 31
0.0
 11
70.68675281539999
 21
-5.798027386099976
 31
0.0
 11
70.6615176709999
 21
-5.804380755899972
 31
0.0
 11
70.63623501310002
 21
-5.81051803909999
 31
0.0
 11
70.61090869089998
 21
-5.816438355699988
 31
0.0
 11
70.5855399045999
 21
-5.822141500599956
 31
0.0
 11
70.56012991289998
 21
-5.827627233399981
 31
0.0
 11
70.53467902049994
 21
-5.832895491699973
 31
0.0
 11
70.50918747399993
 21
-5.837946244999971
 31
0.0
 11
70.48365632459996
 21
-5.842779314399978
 31
0.0
 11
70.45808751929991
 21
-5.84739433649999
 31
0.0
 11
70.43248367519999
 21
-5.851790840099953
 31
0.0
 11
70.40684770279989
 21
-5.855968347799988
 31
0.0
 11
70.38118307739996
 21
-5.859926346199971
 31
0.0
 11
70.35549269350003
 21
-5.86366446009997
 31
0.0
 11
70.32977895779999
 21
-5.867182414799986
 31
0.0
 11
70.30404579049985
 21
-5.870479766399954
 31
0.0
 11
70.27829669399995
 21
-5.873556189999975
 31
0.0
 11
70.25253562379993
 21
-5.876411368499974
 31
0.0
  0
SPLINE
  5
55C9F
330
1F
100
AcDbEntity
  8
1
100
AcDbSpline
210
0.0
220
0.0
230
1.0
 70
     8
 71
     3
 72
    25
 73
    21
 74
    19
 42
0.0000000001
 43
0.0000000001
 44
0.000001
 12
-0.3785758841779842
 22
-0.925570256608788
 32
0.0
 13
-0.5147983708628665
 23
-0.8573112838152422
 33
0.0
 40
0.0
 40
0.0
 40
0.0
 40
0.0
 40
0.0264572324585
 40
0.052908487578632
 40
0.0793535665979813
 40
0.1057936377364969
 40
0.1322289042863357
 40
0.1586590777633193
 40
0.1850848144396799
 40
0.2115055466312882
 40
0.237921601439165
 40
0.2643331401238957
 40
0.2907406538249505
 40
0.317144465292552
 40
0.3435440807423924
 40
0.3699396073455043
 40
0.3963314874247948
 40
0.4227198095643212
 40
0.4491053593068966
 40
0.4754882762245427
 40
0.4754882762245427
 40
0.4754882762245427
 40
0.4754882762245427
 10
72.79796426989998
 20
-3.95471286409999
 30
0.0
 10
72.79462557984306
 20
-3.962875539911907
 30
0.0
 10
72.78787968980822
 20
-3.979170817051953
 30
0.0
 10
72.77755478868056
 20
-4.0035240034198
 30
0.0
 10
72.76702706950612
 20
-4.027783986519567
 30
0.0
 10
72.756296366394
 20
-4.051949036677642
 30
0.0
 10
72.74536338233389
 20
-4.076017788637587
 30
0.0
 10
72.73422889101806
 20
-4.099988717893042
 30
0.0
 10
72.722893773664
 20
-4.123860068671563
 30
0.0
 10
72.71135882417792
 20
-4.147630270643775
 30
0.0
 10
72.69962496477166
 20
-4.171297632929894
 30
0.0
 10
72.68769296439671
 20
-4.194860783991332
 30
0.0
 10
72.67556358578264
 20
-4.218318348518325
 30
0.0
 10
72.66323768122965
 20
-4.241668751902993
 30
0.0
 10
72.65071622812405
 20
-4.264910341315657
 30
0.0
 10
72.63800018044475
 20
-4.288041498210832
 30
0.0
 10
72.62509044555674
 20
-4.311060800815029
 30
0.0
 10
72.61198763346005
 20
-4.333966923807439
 30
0.0
 10
72.59869359313194
 20
-4.356759115031495
 30
0.0
 10
72.58970249491579
 20
-4.371877286142153
 30
0.0
 10
72.5851752006999
 20
-4.379416743599977
 30
0.0
 11
72.79796426989998
 21
-3.95471286409999
 31
0.0
 11
72.78784456359989
 21
-3.979158316699953
 31
0.0
 11
72.77752054069998
 21
-4.003511662099983
 31
0.0
 11
72.76699310199996
 21
-4.027770960499994
 31
0.0
 11
72.75626255849994
 21
-4.051935636999987
 31
0.0
 11
72.74532966359998
 21
-4.076004172799985
 31
0.0
 11
72.73419539189996
 21
-4.09997460449995
 31
0.0
 11
72.72286031999994
 21
-4.12384582919998
 31
0.0
 11
72.71132555379989
 21
-4.147615641800003
 31
0.0
 11
72.69959185499994
 21
-4.171282665899967
 31
0.0
 11
72.68766006579989
 21
-4.194845381299986
 31
0.0
 11
72.67553087369998
 21
-4.218302559999985
 31
0.0
 11
72.66320504100002
 21
-4.241652823199986
 31
0.0
 11
72.65068375339996
 21
-4.264894092899952
 31
0.0
 11
72.63796793519992
 21
-4.288024833399989
 31
0.0
 11
72.62505834619997
 21
-4.311043799399984
 31
0.0
 11
72.61195591569998
 21
-4.333949446499987
 31
0.0
 11
72.59866119630004
 21
-4.35674096219998
 31
0.0
 11
72.5851752006999
 21
-4.379416743599977
 31
0.0
  0
SPLINE
  5
55CA0
330
1F
100
AcDbEntity
  8
1
100
AcDbSpline
210
0.0
220
0.0
230
1.0
 70
     8
 71
     3
 72
    24
 73
    20
 74
    18
 42
0.0000000001
 43
0.0000000001
 44
0.000001
 12
-0.2333286664263413
 22
-0.9723979295657231
 32
0.0
 13
-0.3778117407848009
 23
-0.9258824377452887
 33
0.0
 40
0.0
 40
0.0
 40
0.0
 40
0.0
 40
0.0277529765306271
 40
0.0554988383530697
 40
0.0832382896554903
 40
0.1109707634841879
 40
0.1386969393654166
 40
0.1664175964529456
 40
0.1941334415404934
 40
0.2218448376701208
 40
0.2495528594228978
 40
0.2772579826401271
 40
0.3049606004250256
 40
0.3326607876236007
 40
0.3603577681842148
 40
0.3880516154869989
 40
0.4157419670005381
 40
0.4434287770242841
 40
0.4711121659218672
 40
0.4711121659218672
 40
0.4711121659218672
 40
0.4711121659218672
 10
72.94217142269991
 20
-3.506688469299989
 30
0.0
 10
72.94001290103216
 20
-3.515684114939221
 30
0.0
 10
72.93561599825006
 20
-3.533653916122988
 30
0.0
 10
72.92878035194218
 20
-3.560545163642943
 30
0.0
 10
72.92170783742204
 20
-3.587368042021227
 30
0.0
 10
72.91439762511192
 20
-3.614120310926638
 30
0.0
 10
72.90685053873557
 20
-3.640800212797346
 30
0.0
 10
72.89906694468465
 20
-3.667406302388359
 30
0.0
 10
72.89104738317229
 20
-3.693937074171886
 30
0.0
 10
72.88279231747782
 20
-3.72039110346053
 30
0.0
 10
72.8743022138587
 20
-3.746766885011213
 30
0.0
 10
72.86557757010593
 20
-3.773062933293049
 30
0.0
 10
72.85661903129692
 20
-3.799277460630451
 30
0.0
 10
72.84742737241362
 20
-3.825408283392023
 30
0.0
 10
72.83800339276325
 20
-3.851453112925655
 30
0.0
 10
72.82834806551005
 20
-3.877409568111248
 30
0.0
 10
72.81846201048103
 20
-3.903275399736019
 30
0.0
 10
72.80834728659312
 20
-3.929048901994947
 30
0.0
 10
72.80145063968342
 20
-3.946169009567471
 30
0.0
 10
72.79796426989998
 20
-3.95471286409999
 30
0.0
 11
72.94217142269991
 21
-3.506688469299989
 31
0.0
 11
72.93557546619997
 21
-3.533646304499983
 31
0.0
 11
72.92874093999995
 21
-3.560537259999977
 31
0.0
 11
72.92166829109993
 21
-3.587359867899964
 31
0.0
 11
72.91435826749995
 21
-3.614111547299986
 31
0.0
 11
72.9068113237999
 21
-3.640790822399994
 31
0.0
 11
72.89902789469994
 21
-3.667396321100001
 31
0.0
 11
72.89100846189995
 21
-3.693926613099991
 31
0.0
 11
72.88275359699986
 21
-3.72037993739997
 31
0.0
 11
72.87426364569995
 21
-3.746755207600019
 31
0.0
 11
72.86553915709993
 21
-3.773050773400003
 31
0.0
 11
72.85658074079998
 21
-3.7992649176
 31
0.0
 11
72.8473891081
 21
-3.825395621100001
 31
0.0
 11
72.8379652687999
 21
-3.851440066199986
 31
0.0
 11
72.82830998679997
 21
-3.877396246799934
 31
0.0
 11
72.81842419729997
 21
-3.903261763099964
 31
0.0
 11
72.80830867359992
 21
-3.929034673299982
 31
0.0
 11
72.79796426989998
 21
-3.95471286409999
 31
0.0
  0
SPLINE
  5
55CA1
330
1F
100
AcDbEntity
  8
1
100
AcDbSpline
210
0.0
220
0.0
230
1.0
 70
     8
 71
     3
 72
    25
 73
    21
 74
    19
 42
0.0000000001
 43
0.0000000001
 44
0.000001
 12
-0.0799998420317446
 22
-0.9967948762282517
 32
0.0
 13
-0.2315011230781479
 23
-0.9728346365202858
 33
0.0
 40
0.0
 40
0.0
 40
0.0
 40
0.0
 40
0.0264489060131312
 40
0.0528830728039996
 40
0.0793012415727013
 40
0.1057024203043389
 40
0.1320874674275923
 40
0.1584566412982833
 40
0.1848095959594348
 40
0.211147509297392
 40
0.2374706466816975
 40
0.2637811222481006
 40
0.290082784513933
 40
0.3163774190685239
 40
0.3426651356942978
 40
0.3689462632067832
 40
0.3952221883202062
 40
0.4214940040506851
 40
0.4477617127444598
 40
0.4740264117110047
 40
0.4740264117110047
 40
0.4740264117110047
 40
0.4740264117110047
 10
73.01605609509994
 20
-3.038925470399975
 30
0.0
 10
73.0153507923323
 20
-3.047713515065213
 30
0.0
 10
73.01386580197714
 20
-3.06527879982798
 30
0.0
 10
73.01141425317013
 20
-3.091598921912067
 30
0.0
 10
73.00874208426825
 20
-3.117881589389186
 30
0.0
 10
73.00584786304802
 20
-3.144124258058711
 30
0.0
 10
73.00273245407146
 20
-3.170325141362484
 30
0.0
 10
72.99939607176924
 20
-3.19648259960873
 30
0.0
 10
72.99583908386575
 20
-3.222595116987834
 30
0.0
 10
72.99206180888797
 20
-3.248661174338794
 30
0.0
 10
72.98806453132107
 20
-3.274680075915087
 30
0.0
 10
72.98384735601286
 20
-3.300652000517375
 30
0.0
 10
72.97941023252969
 20
-3.32657761527979
 30
0.0
 10
72.97475314846855
 20
-3.352456914349902
 30
0.0
 10
72.96987640854633
 20
-3.378288755841056
 30
0.0
 10
72.96478029611018
 20
-3.404071859094175
 30
0.0
 10
72.95946512143308
 20
-3.429805283095463
 30
0.0
 10
72.95393078737453
 20
-3.455487893389276
 30
0.0
 10
72.94817878236682
 20
-3.481118774662506
 30
0.0
 10
72.94419819180262
 20
-3.498171399675841
 30
0.0
 10
72.94217142269991
 20
-3.506688469299989
 30
0.0
 11
73.01605609509994
 21
-3.038925470399975
 31
0.0
 11
73.01382815509993
 21
-3.065280396199968
 31
0.0
 11
73.01137770759993
 21
-3.0916006704
 31
0.0
 11
73.00870519099993
 21
-3.117883281399985
 31
0.0
 11
73.00581107659997
 21
-3.144125342299988
 31
0.0
 11
73.00269565039997
 21
-3.170325812599985
 31
0.0
 11
72.99935925509993
 21
-3.196483063699973
 31
0.0
 11
72.99580231579994
 21
-3.22259487069998
 31
0.0
 11
72.99202506679995
 21
-3.248660521500001
 31
0.0
 11
72.98802791010001
 21
-3.274678407599994
 31
0.0
 11
72.98381095559995
 21
-3.30064874679998
 31
0.0
 11
72.9793739491999
 21
-3.326573454599982
 31
0.0
 11
72.9747169142999
 21
-3.352452399699986
 31
0.0
 11
72.96984023299995
 21
-3.378283812499988
 31
0.0
 11
72.96474426779997
 21
-3.404066142299983
 31
0.0
 11
72.9594291583
 21
-3.429798870899988
 31
0.0
 11
72.95389508039995
 21
-3.455481181300003
 31
0.0
 11
72.94814242989997
 21
-3.481111353899992
 31
0.0
 11
72.94217142269991
 21
-3.506688469299989
 31
0.0
  0
SPLINE
  5
55CA2
330
1F
100
AcDbEntity
  8
1
100
AcDbSpline
210
0.0
220
0.0
230
1.0
 70
     8
 71
     3
 72
    21
 73
    17
 74
    15
 42
0.0000000001
 43
0.0000000001
 44
0.000001
 12
-0.0037379819220824
 22
-0.9999930137211713
 32
0.0
 13
0.0013695431398007
 23
-0.9999990621753543
 33
0.0
 40
0.0
 40
0.0
 40
0.0
 40
0.0
 40
0.0149826634198107
 40
0.0299464678038548
 40
0.0449319451001517
 40
0.060106042613926
 40
0.075819320970394
 40
0.0925123343930672
 40
0.1106196823586783
 40
0.1305405063961239
 40
0.1526059389519634
 40
0.177126153397375
 40
0.2044141737213179
 40
0.2347830978845847
 40
0.2684959493447199
 40
0.3056400063750853
 40
0.3056400063750853
 40
0.3056400063750853
 40
0.3056400063750853
 10
73.02532945629997
 20
-2.398567201999968
 30
0.0
 10
73.0253107879916
 20
-2.40356138824889
 30
0.0
 10
73.02527494227724
 20
-2.413543480736466
 30
0.0
 10
73.02523383476949
 20
-2.428520740553397
 30
0.0
 10
73.02519841493467
 20
-2.443561825327025
 30
0.0
 10
73.0251663775337
 20
-2.458852742924749
 30
0.0
 10
73.02513415995367
 20
-2.474712839964512
 30
0.0
 10
73.02510242022975
 20
-2.491550690059471
 30
0.0
 10
73.02507208920173
 20
-2.509791060208955
 30
0.0
 10
73.02504507498162
 20
-2.529822243868084
 30
0.0
 10
73.02502222531967
 20
-2.55199105613754
 30
0.0
 10
73.02500478008432
 20
-2.576615606190431
 30
0.0
 10
73.02499537537579
 20
-2.604007991641852
 30
0.0
 10
73.02499825122589
 20
-2.634464591153276
 30
0.0
 10
73.02501727185478
 20
-2.668206531619405
 30
0.0
 10
73.02504455580384
 20
-2.691825486768069
 30
0.0
 10
73.02506151259996
 20
-2.704206827499989
 30
0.0
 11
73.02532945629997
 21
-2.398567201999968
 31
0.0
 11
73.02527803439994
 21
-2.413549777799987
 31
0.0
 11
73.02523582599992
 21
-2.428513522199965
 31
0.0
 11
73.02520020749994
 21
-2.443498956899988
 31
0.0
 11
73.02516791269994
 21
-2.458673019899963
 31
0.0
 11
73.0251361949999
 21
-2.474386266199987
 31
0.0
 11
73.02510490189996
 21
-2.491079250299977
 31
0.0
 11
73.02507499749999
 21
-2.509186573599949
 31
0.0
 11
73.02504804059998
 21
-2.52910737939999
 31
0.0
 11
73.02502519139995
 21
-2.55117280009995
 31
0.0
 11
73.02500784609998
 21
-2.575693008399982
 31
0.0
 11
73.02499861249993
 21
-2.602981027199989
 31
0.0
 11
73.02500139729994
 21
-2.633349951299978
 31
0.0
 11
73.02502078949993
 21
-2.667062797099989
 31
0.0
 11
73.02506151259996
 21
-2.704206827499989
 31
0.0
  0
SPLINE
  5
55CA3
330
1F
100
AcDbEntity
  8
1
100
AcDbSpline
210
0.0
220
0.0
230
1.0
 70
     8
 71
     3
 72
    30
 73
    26
 74
    24
 42
0.0000000001
 43
0.0000000001
 44
0.000001
 12
0.0493283031532489
 22
-0.9987826182448419
 32
0.0
 13
0.0021003305499688
 23
-0.9999977943033579
 33
0.0
 40
0.0
 40
0.0
 40
0.0
 40
0.0
 40
0.0173550853095569
 40
0.0338106406379928
 40
0.0499096408002565
 40
0.0659837950686853
 40
0.0821054373675974
 40
0.0981479825332297
 40
0.1140500686365513
 40
0.1305372672707219
 40
0.1488027020398307
 40
0.1699186759681313
 40
0.1940815468685853
 40
0.2200009332082326
 40
0.2462297063651614
 40
0.2711193331429821
 40
0.2930880645409144
 40
0.3120100555790511
 40
0.3289504541377758
 40
0.3450275060148338
 40
0.3611805547649389
 40
0.3774478723880599
 40
0.3936480564817857
 40
0.4097492541819632
 40
0.4258086573607711
 40
0.4258086573607711
 40
0.4258086573607711
 40
0.4258086573607711
 10
73.01142588579995
 20
-1.973063556499981
 30
0.0
 10
73.01171125143645
 20
-1.978841542348435
 30
0.0
 10
73.0122703583184
 20
-1.990097880031088
 30
0.0
 10
73.01310961821679
 20
-2.006713246749713
 30
0.0
 10
73.01394289533579
 20
-2.022901387305795
 30
0.0
 10
73.01478940180851
 20
-2.03897738672275
 30
0.0
 10
73.01565947222394
 20
-2.055033281888869
 30
0.0
 10
73.01654281275517
 20
-2.071031004620666
 30
0.0
 10
73.01743389177573
 20
-2.087150337070641
 30
0.0
 10
73.01835268420558
 20
-2.104010231280215
 30
0.0
 10
73.01933205828487
 20
-2.122607345886708
 30
0.0
 10
73.0203779810326
 20
-2.143762996339505
 30
0.0
 10
73.02141934246112
 20
-2.167473051449919
 30
0.0
 10
73.02236094549829
 20
-2.192892824584065
 30
0.0
 10
73.02315001801827
 20
-2.218560114971142
 30
0.0
 10
73.02376040148288
 20
-2.242914958372837
 30
0.0
 10
73.0242062731798
 20
-2.26483727219332
 30
0.0
 10
73.02452541841791
 20
-2.284111706366248
 30
0.0
 10
73.02475906835098
 20
-2.301423298945922
 30
0.0
 10
73.02493744175848
 20
-2.317812511020166
 30
0.0
 10
73.02507513039762
 20
-2.33397774463093
 30
0.0
 10
73.0251777608749
 20
-2.350184281876225
 30
0.0
 10
73.02524738504946
 20
-2.366373708803182
 30
0.0
 10
73.02529049047513
 20
-2.382493914772853
 30
0.0
 10
73.02531821294832
 20
-2.393214079414422
 30
0.0
 10
73.02532945629997
 20
-2.398567201999968
 30
0.0
 11
73.01142588579995
 21
-1.973063556499981
 31
0.0
 11
73.01228871849997
 21
-1.990397170199985
 31
0.0
 11
73.01311927319995
 21
-2.006831753599984
 31
0.0
 11
73.01394748059994
 21
-2.022909437899985
 31
0.0
 11
73.01479365279994
 21
-2.038961306099979
 31
0.0
 11
73.01566465009995
 21
-2.055059403799974
 31
0.0
 11
73.01654656239993
 21
-2.071077690699995
 31
0.0
 11
73.01742209299999
 21
-2.086955657099951
 31
0.0
 11
73.01831666999993
 21
-2.103418569499966
 31
0.0
 11
73.01927402079996
 21
-2.121658899399976
 31
0.0
 11
73.02031077309999
 21
-2.142749408499982
 31
0.0
 11
73.02136798659995
 21
-2.166889142099977
 31
0.0
 11
73.02233112020002
 21
-2.192790630299983
 31
0.0
 11
73.02313928169991
 21
-2.219006952499968
 31
0.0
 11
73.02376499509995
 21
-2.243888715399977
 31
0.0
 11
73.02421305689989
 21
-2.265852879299972
 31
0.0
 11
73.02452716929991
 21
-2.284772264899986
 31
0.0
 11
73.02475638239997
 21
-2.301711114499996
 31
0.0
 11
73.02493184169993
 21
-2.317787210699977
 31
0.0
 11
73.02506994459992
 21
-2.333939670999983
 31
0.0
 11
73.02517338169997
 21
-2.350206661800003
 31
0.0
 11
73.02524412139991
 21
-2.366406693199978
 31
0.0
 11
73.02529129099998
 21
-2.382507821899993
 31
0.0
 11
73.02532945629997
 21
-2.398567201999968
 31
0.0
  0
SPLINE
  5
55CA4
330
1F
100
AcDbEntity
  8
1
100
AcDbSpline
210
0.0
220
0.0
230
1.0
 70
     8
 71
     3
 72
    19
 73
    15
 74
    13
 42
0.0000000001
 43
0.0000000001
 44
0.000001
 12
0.0510398460869754
 22
-0.9986966176529376
 32
0.0
 13
0.056556743463181
 23
-0.9983993864024757
 33
0.0
 40
0.0
 40
0.0
 40
0.0
 40
0.0
 40
0.0510719787853273
 40
0.1004149413530193
 40
0.1471317357825491
 40
0.1907901170026762
 40
0.2309880162080766
 40
0.2669820152248792
 40
0.299001406317044
 40
0.327902698851263
 40
0.3544837094716307
 40
0.3789903820457494
 40
0.401143515257223
 40
0.4209000947520745
 40
0.4209000947520745
 40
0.4209000947520745
 40
0.4209000947520745
 10
72.9886195686999
 20
-1.552782422199983
 30
0.0
 10
72.98948847067873
 20
-1.569784226356562
 30
0.0
 10
72.99121150714615
 20
-1.60321149949671
 30
0.0
 10
72.99377203739408
 20
-1.652188528694454
 30
0.0
 10
72.99623780271571
 20
-1.69869592500858
 30
0.0
 10
72.99856884166359
 20
-1.742157819298897
 30
0.0
 10
73.00073426303282
 20
-1.782049185912869
 30
0.0
 10
73.0027144841992
 20
-1.818065222259621
 30
0.0
 10
73.00451169213744
 20
-1.850320087991407
 30
0.0
 10
73.00614726033035
 20
-1.879441426055579
 30
0.0
 10
73.00764898446954
 20
-1.906062094108465
 30
0.0
 10
73.00902035592577
 20
-1.930437152481262
 30
0.0
 10
73.01026374868917
 20
-1.952541003572166
 30
0.0
 10
73.01105342986722
 20
-1.966488570884949
 30
0.0
 10
73.01142588579995
 20
-1.973063556499981
 30
0.0
 11
72.9886195686999
 21
-1.552782422199983
 31
0.0
 11
72.99124651049993
 21
-1.603786802800003
 31
0.0
 11
72.99382295610001
 21
-1.653062454699979
 31
0.0
 11
72.99629571159989
 21
-1.699713760499962
 31
0.0
 11
72.99863451599998
 21
-1.743309450799985
 31
0.0
 11
73.00081413679999
 21
-1.783448214399969
 31
0.0
 11
73.00279087969994
 21
-1.819387892499962
 31
0.0
 11
73.0045710007999
 21
-1.851357762699992
 31
0.0
 11
73.00619087130002
 21
-1.880213624899995
 31
0.0
 11
73.00768623919992
 21
-1.906752548999962
 31
0.0
 11
73.00906538429996
 21
-1.931220375499977
 31
0.0
 11
73.01031069039999
 21
-1.953338478600018
 31
0.0
 11
73.01142588579995
 21
-1.973063556499981
 31
0.0
  0
ARC
  5
55CA5
330
1F
100
AcDbEntity
  8
1
100
AcDbCircle
 10
69.8997349999999
 20
-2.766363
 30
0.0
 40
3.132656
100
AcDbArc
 50
328.8160769999977
 51
329.0081769999996
  0
ARC
  5
55CA6
330
1F
100
AcDbEntity
  8
1
100
AcDbCircle
 10
70.59875722860209
 20
-5.213620598199485
 30
0.0
 40
0.587566239401482
100
AcDbArc
 50
283.6152900662177
 51
292.25207559693
  0
ARC
  5
55CA7
330
1F
100
AcDbEntity
  8
1
100
AcDbCircle
 10
69.97500299999996
 20
-2.805882999999967
 30
0.0
 40
3.04997
100
AcDbArc
 50
355.6178610000002
 51
356.1018129999999
  0
ARC
  5
55CA8
330
1F
100
AcDbEntity
  8
1
100
AcDbCircle
 10
69.93384699999996
 20
-2.86984699999998
 30
0.0
 40
3.023407
100
AcDbArc
 50
275.7917990000011
 51
276.0506170000009
  0
ARC
  5
55CA9
330
1F
100
AcDbEntity
  8
1
100
AcDbCircle
 10
66.03499800000003
 20
-8.384999999999978
 30
0.0
 40
3.0
100
AcDbArc
 50
55.91635299999816
 51
90.0
  0
ARC
  5
55CAA
330
1F
100
AcDbEntity
  8
1
100
AcDbCircle
 10
66.03499800000003
 20
8.385000000000017
 30
0.0
 40
3.0
100
AcDbArc
 50
270.0
 51
304.0836470000018
  0
LINE
  5
55CAB
330
1F
100
AcDbEntity
  8
1
100
AcDbLine
 10
63.03499799999991
 20
-5.230000000000005
 30
0.0
 11
63.189998
 21
-5.384999999999978
 31
0.0
  0
LINE
  5
55CAC
330
1F
100
AcDbEntity
  8
1
100
AcDbLine
 10
63.189998
 20
-5.384999999999978
 30
0.0
 11
66.03499799999991
 21
-5.384999999999978
 31
0.0
  0
LINE
  5
55CAD
330
1F
100
AcDbEntity
  8
1
100
AcDbLine
 10
66.03499799999991
 20
5.384999999999989
 30
0.0
 11
63.189998
 21
5.384999999999989
 31
0.0
  0
LINE
  5
55CAE
330
1F
100
AcDbEntity
  8
1
100
AcDbLine
 10
63.89932499999992
 20
-5.384999999999978
 30
0.0
 11
63.89932499999992
 21
-5.170538401699973
 31
0.0
  0
LINE
  5
55CAF
330
1F
100
AcDbEntity
  8
1
100
AcDbLine
 10
63.89932500000004
 20
4.860417880459431
 30
0.0
 11
63.89932500000004
 21
5.384999999999989
 31
0.0
  0
LINE
  5
55CB0
330
1F
100
AcDbEntity
  8
1
100
AcDbLine
 10
63.03499800000003
 20
5.230000000000016
 30
0.0
 11
63.03499800000003
 21
5.073355569366206
 31
0.0
  0
LINE
  5
55CB1
330
1F
100
AcDbEntity
  8
1
100
AcDbLine
 10
63.03499799999991
 20
-5.170538401699973
 30
0.0
 11
63.03499799999991
 21
-5.230000000000005
 31
0.0
  0
LINE
  5
55CB2
330
1F
100
AcDbEntity
  8
1
100
AcDbLine
 10
63.03499800000003
 20
5.230000000000016
 30
0.0
 11
63.189998
 21
5.384999999999989
 31
0.0
  0
LINE
  5
55CB3
330
1F
100
AcDbEntity
  8
1
100
AcDbLine
 10
72.911043
 20
0.208214999999994
 30
0.0
 11
72.91836099999994
 21
0.3279709999999893
 31
0.0
  0
LINE
  5
55CB4
330
1F
100
AcDbEntity
  8
1
100
AcDbLine
 10
72.89751200028177
 20
0.1844481801189756
 30
0.0
 11
72.911043
 21
0.208214999999994
 31
0.0
  0
LINE
  5
55CB5
330
1F
100
AcDbEntity
  8
1
100
AcDbLine
 10
72.9693529999999
 20
1.211545999999996
 30
0.0
 11
72.97703199999995
 21
1.349064999999994
 31
0.0
  0
LINE
  5
55CB6
330
1F
100
AcDbEntity
  8
1
100
AcDbLine
 10
72.97703199999995
 20
1.349064999999994
 30
0.0
 11
72.98861999999991
 21
1.552781999999977
 31
0.0
  0
LINE
  5
55CB7
330
1F
100
AcDbEntity
  8
1
100
AcDbLine
 10
73.025014
 20
2.755185999999978
 30
0.0
 11
73.02498342446909
 21
2.88593133807643
 31
0.0
  0
LINE
  5
55CB8
330
1F
100
AcDbEntity
  8
1
100
AcDbLine
 10
73.02506199999999
 20
2.704206999999994
 30
0.0
 11
73.025014
 21
2.755185999999978
 31
0.0
  0
LINE
  5
55CB9
330
1F
100
AcDbEntity
  8
1
100
AcDbLine
 10
69.96999799999997
 20
5.893615000000009
 30
0.0
 11
69.87541800000002
 21
5.896581000000024
 31
0.0
  0
LINE
  5
55CBA
330
1F
100
AcDbEntity
  8
1
100
AcDbLine
 10
70.09990199999998
 20
5.889493000000014
 30
0.0
 11
69.96999799999997
 21
5.893615000000009
 31
0.0
  0
LINE
  5
55CBB
330
1F
100
AcDbEntity
  8
1
100
AcDbLine
 10
70.27594720903886
 20
5.874714211766258
 30
0.0
 11
70.09990199999998
 21
5.889493000000014
 31
0.0
  0
ARC
  5
55CBC
102
{ACAD_REACTORS
330
55CD8
102
}
330
1F
100
AcDbEntity
  8
1
100
AcDbCircle
 10
70.02498350650177
 20
2.885229771263366
 30
0.0
 40
3.0
100
AcDbArc
 50
0.0133989392660352
 51
85.20133829853717
  0
LINE
  5
55CBD
330
1F
100
AcDbEntity
  8
1
100
AcDbLine
 10
69.87541800000002
 20
5.896581000000024
 30
0.0
 11
69.59375099999994
 21
5.905105999999987
 31
0.0
  0
LINE
  5
55CBE
330
1F
100
AcDbEntity
  8
1
100
AcDbLine
 10
69.59375099999994
 20
5.905105999999987
 30
0.0
 11
69.31378999999998
 21
5.913179000000011
 31
0.0
  0
LINE
  5
55CBF
330
1F
100
AcDbEntity
  8
1
100
AcDbLine
 10
69.31378999999998
 20
5.913179000000011
 30
0.0
 11
69.03377799999993
 21
5.920851999999994
 31
0.0
  0
LINE
  5
55CC0
330
1F
100
AcDbEntity
  8
1
100
AcDbLine
 10
68.45964199999997
 20
5.922883000000011
 30
0.0
 11
68.16205699999994
 21
5.914237000000012
 31
0.0
  0
LINE
  5
55CC1
330
1F
100
AcDbEntity
  8
1
100
AcDbLine
 10
68.16205699999994
 20
5.914237000000012
 30
0.0
 11
67.86441399999995
 21
5.905100000000002
 31
0.0
  0
LINE
  5
55CC2
330
1F
100
AcDbEntity
  8
1
100
AcDbLine
 10
67.86441399999995
 20
5.905100000000002
 30
0.0
 11
67.716206
 21
5.900339
 31
0.0
  0
LINE
  5
55CC3
330
1F
100
AcDbEntity
  8
1
100
AcDbLine
 10
72.89755399999996
 20
0.0622759999999955
 30
0.0
 11
72.89755399999996
 21
-0.0622740000000038
 31
0.0
  0
LINE
  5
55CC4
330
1F
100
AcDbEntity
  8
1
100
AcDbLine
 10
72.89755399999996
 20
-0.0622740000000038
 30
0.0
 11
72.89750643118208
 21
-0.184439218865778
 31
0.0
  0
LINE
  5
55CC5
330
1F
100
AcDbEntity
  8
1
100
AcDbLine
 10
72.89751199999995
 20
0.1844489999999991
 30
0.0
 11
72.89755399999996
 21
0.0622759999999955
 31
0.0
  0
LINE
  5
55CC6
330
1F
100
AcDbEntity
  8
1
100
AcDbLine
 10
72.911043
 20
-0.2082149999999972
 30
0.0
 11
72.91836099999994
 21
-0.3279709999999925
 31
0.0
  0
LINE
  5
55CC7
330
1F
100
AcDbEntity
  8
1
100
AcDbLine
 10
72.89751199999995
 20
-0.1844490000000023
 30
0.0
 11
72.911043
 21
-0.2082149999999972
 31
0.0
  0
LINE
  5
55CC8
330
1F
100
AcDbEntity
  8
1
100
AcDbLine
 10
72.9693529999999
 20
-1.211546
 30
0.0
 11
72.97703199999995
 21
-1.349064999999997
 31
0.0
  0
LINE
  5
55CC9
330
1F
100
AcDbEntity
  8
1
100
AcDbLine
 10
67.86441399999995
 20
-5.905099999999992
 30
0.0
 11
67.716206
 21
-5.90033899999999
 31
0.0
  0
LINE
  5
55CCA
330
1F
100
AcDbEntity
  8
1
100
AcDbLine
 10
68.16205699999994
 20
-5.914237000000001
 30
0.0
 11
67.86441399999995
 21
-5.905099999999992
 31
0.0
  0
LINE
  5
55CCB
330
1F
100
AcDbEntity
  8
1
100
AcDbLine
 10
68.45964199999997
 20
-5.922883
 30
0.0
 11
68.16205699999994
 21
-5.914237000000001
 31
0.0
  0
LINE
  5
55CCC
330
1F
100
AcDbEntity
  8
1
100
AcDbLine
 10
69.31378999999998
 20
-5.913179000000001
 30
0.0
 11
69.03377799999993
 21
-5.920851999999984
 31
0.0
  0
LINE
  5
55CCD
330
1F
100
AcDbEntity
  8
1
100
AcDbLine
 10
69.59375099999994
 20
-5.905105999999976
 30
0.0
 11
69.31378999999998
 21
-5.913179000000001
 31
0.0
  0
LINE
  5
55CCE
330
1F
100
AcDbEntity
  8
1
100
AcDbLine
 10
69.87541800000002
 20
-5.896581000000013
 30
0.0
 11
69.59375099999994
 21
-5.905105999999976
 31
0.0
  0
LINE
  5
55CCF
330
1F
100
AcDbEntity
  8
1
100
AcDbLine
 10
70.23895099999998
 20
-5.877819999999973
 30
0.0
 11
70.09990199999998
 21
-5.889493000000003
 31
0.0
  0
LINE
  5
55CD0
330
1F
100
AcDbEntity
  8
1
100
AcDbLine
 10
70.09990199999998
 20
-5.889493000000003
 30
0.0
 11
69.96999799999997
 21
-5.893614999999998
 31
0.0
  0
LINE
  5
55CD1
330
1F
100
AcDbEntity
  8
1
100
AcDbLine
 10
69.96999799999997
 20
-5.893614999999998
 30
0.0
 11
69.87541800000002
 21
-5.896581000000013
 31
0.0
  0
LINE
  5
55CD2
330
1F
100
AcDbEntity
  8
1
100
AcDbLine
 10
73.02506199999999
 20
-2.704206999999984
 30
0.0
 11
73.025014
 21
-2.755185999999968
 31
0.0
  0
LINE
  5
55CD3
330
1F
100
AcDbEntity
  8
1
100
AcDbLine
 10
73.025014
 20
-2.755185999999968
 30
0.0
 11
73.02498599999996
 21
-2.874917999999995
 31
0.0
  0
LINE
  5
55CD4
330
1F
100
AcDbEntity
  8
1
100
AcDbLine
 10
73.02498599999996
 20
-2.874917999999995
 30
0.0
 11
73.01791599999996
 21
-3.01323100000002
 31
0.0
  0
LINE
  5
55CD5
330
1F
100
AcDbEntity
  8
1
100
AcDbLine
 10
72.97703199999995
 20
-1.349064999999997
 30
0.0
 11
72.98861999999991
 21
-1.552781999999966
 31
0.0
  0
DIMENSION
  5
55CD6
102
{ACAD_XDICTIONARY
360
55CD7
102
}
102
{ACAD_REACTORS
330
55CD8
102
}
330
1F
100
AcDbEntity
  8
2
100
AcDbDimension
  2
*D54
 10
70.02498350650177
 20
2.885229771263364
 30
0.0
 11
89.53310030185393
 21
21.82063286203479
 31
0.0
 70
    36
 71
     5
 42
2.999999999999758
  3
\M+18352\M+18373\M+1815B - ISO-25
100
AcDbRadialDimension
 15
72.46491782803463
 25
4.630715522166109
 35
0.0
 40
0.0
1001
ACAD
1000
DSTYLE
1002
{
1070
     4
1000
"
1070
    40
1040
1.0
1070
   143
1040
0.03937
1070
   170
1070
     1
1070
   171
1070
     3
1070
   271
1070
     8
1070
   285
1070
     4
1002
}
  0
LINE
  5
55CD9
330
1F
100
AcDbEntity
  8
cut
100
AcDbLine
 10
68.22500000000008
 20
5.968555331400038
 30
0.0
 11
68.82499999999999
 21
5.999999998900021
 31
0.0
1001
ACAD
1000
RTMaterial
1005
0
  0
LINE
  5
55CDA
330
1F
100
AcDbEntity
  8
cut
100
AcDbLine
 10
63.02500000000003
 20
5.38499999890004
 30
0.0
 11
66.44713747200007
 21
5.38499999890004
 31
0.0
1001
ACAD
1000
RTMaterial
1005
0
  0
LINE
  5
55CDB
330
1F
100
AcDbEntity
  8
cut
100
AcDbLine
 10
68.82499999999999
 20
5.999999998900021
 30
0.0
 11
70.02500000000003
 21
5.999999998900021
 31
0.0
1001
ACAD
1000
RTMaterial
1005
0
  0
LINE
  5
55CDC
330
1F
100
AcDbEntity
  8
cut
100
AcDbLine
 10
73.02500000000003
 20
2.499999998899793
 30
0.0
 11
73.02500000000003
 21
2.999999998900021
 31
0.0
1001
ACAD
1000
RTMaterial
1005
0
  0
LINE
  5
55CDD
330
1F
100
AcDbEntity
  8
cut
100
AcDbLine
 10
63.02500000000003
 20
-5.385000001100012
 30
0.0
 11
63.02500000000003
 21
5.38499999890004
 31
0.0
1001
ACAD
1000
RTMaterial
1005
0
  0
LINE
  5
55CDE
330
1F
100
AcDbEntity
  8
cut
100
AcDbLine
 10
72.89398055179998
 20
-0.0000000010999786
 30
0.0
 11
73.02500000000003
 21
2.499999998900021
 31
0.0
1001
ACAD
1000
RTMaterial
1005
0
  0
ARC
  5
55CDF
330
1F
100
AcDbEntity
  8
cut
100
AcDbCircle
 10
70.02500000000003
 20
2.999999998900021
 30
0.0
 40
3.0
100
AcDbArc
 50
0.0
 51
90.0
1001
ACAD
1000
RTMaterial
1005
0
  0
ARC
  5
55CE0
330
1F
100
AcDbEntity
  8
cut
100
AcDbCircle
 10
66.44713747200007
 20
8.38499999890004
 30
0.0
 40
3.0
100
AcDbArc
 50
270.0
 51
306.3432125621004
1001
ACAD
1000
RTMaterial
1005
0
  0
LINE
  5
55CE1
330
1F
100
AcDbEntity
  8
cut
100
AcDbLine
 10
68.22500000000008
 20
-5.968555333599981
 30
0.0
 11
68.82499999999999
 21
-6.000000001099964
 31
0.0
1001
ACAD
1000
RTMaterial
1005
0
  0
LINE
  5
55CE2
330
1F
100
AcDbEntity
  8
cut
100
AcDbLine
 10
63.02500000000003
 20
-5.385000001100012
 30
0.0
 11
66.44713747200007
 21
-5.385000001100012
 31
0.0
1001
ACAD
1000
RTMaterial
1005
0
  0
LINE
  5
55CE3
330
1F
100
AcDbEntity
  8
cut
100
AcDbLine
 10
68.82499999999999
 20
-6.000000001099964
 30
0.0
 11
70.02500000000003
 21
-6.000000001099964
 31
0.0
1001
ACAD
1000
RTMaterial
1005
0
  0
LINE
  5
55CE4
330
1F
100
AcDbEntity
  8
cut
100
AcDbLine
 10
73.02500000000003
 20
-2.500000001099751
 30
0.0
 11
73.02500000000003
 21
-3.000000001099978
 31
0.0
1001
ACAD
1000
RTMaterial
1005
0
  0
LINE
  5
55CE5
330
1F
100
AcDbEntity
  8
cut
100
AcDbLine
 10
72.89398055179998
 20
-0.0000000010999786
 30
0.0
 11
73.02500000000003
 21
-2.500000001099978
 31
0.0
1001
ACAD
1000
RTMaterial
1005
0
  0
ARC
  5
55CE6
330
1F
100
AcDbEntity
  8
cut
100
AcDbCircle
 10
70.02500000000003
 20
-3.000000001099978
 30
0.0
 40
3.0
100
AcDbArc
 50
270.0
 51
0.0
1001
ACAD
1000
RTMaterial
1005
0
  0
ARC
  5
55CE7
330
1F
100
AcDbEntity
  8
cut
100
AcDbCircle
 10
66.44713747200007
 20
-8.385000001100012
 30
0.0
 40
3.0
100
AcDbArc
 50
53.6567874378996
 51
90.0
1001
ACAD
1000
RTMaterial
1005
0
  0
VIEWPORT
  5
6B
102
{ACAD_XDICTIONARY
360
55EFA
102
}
330
50
100
AcDbEntity
 67
     1
  8
0
100
AcDbViewport
 10
150.1652135264906
 20
160.4455827878762
 30
0.0
 40
339.1973820494346
 41
282.2272140146125
 68
     1
 69
     1
 12
150.1652135264906
 22
160.4455827878762
 13
0.0
 23
0.0
 14
10.0
 24
10.0
 15
10.0
 25
10.0
 16
0.0
 26
0.0
 36
1.0
 17
0.0
 27
0.0
 37
0.0
 42
50.0
 43
0.0
 44
0.0
 45
282.2272140146125
 50
0.0
 51
0.0
 72
  1000
 90
    32864
  1

281
     0
 71
     1
 74
     0
110
0.0
120
0.0
130
0.0
111
1.0
121
0.0
131
0.0
112
0.0
122
1.0
132
0.0
 79
     0
146
0.0
  0
VIEWPORT
  5
6D
102
{ACAD_XDICTIONARY
360
55EFC
102
}
330
50
100
AcDbEntity
 67
     1
  8
0
100
AcDbViewport
 10
133.3499939441681
 20
101.5999939441681
 30
0.0
 40
213.3599903106689
 41
162.5599903106689
 68
     2
 69
     2
 12
210.0
 22
148.5
 13
0.0
 23
0.0
 14
10.0
 24
10.0
 15
10.0
 25
10.0
 16
0.0
 26
0.0
 36
1.0
 17
0.0
 27
0.0
 37
0.0
 42
50.0
 43
0.0
 44
0.0
 45
324.0677920111345
 50
0.0
 51
0.0
 72
   100
 90
    32864
  1

281
     0
 71
     1
 74
     0
110
0.0
120
0.0
130
0.0
111
1.0
121
0.0
131
0.0
112
0.0
122
1.0
132
0.0
 79
     0
146
0.0
  0
ENDSEC
  0
SECTION
  2
OBJECTS
  0
DICTIONARY
  5
C
330
0
100
AcDbDictionary
281
     1
  3
ACAD_COLOR
350
85
  3
ACAD_GROUP
350
D
  3
ACAD_LAYOUT
350
1A
  3
ACAD_MATERIAL
350
84
  3
ACAD_MLINESTYLE
350
17
  3
ACAD_PLOTSETTINGS
350
19
  3
ACAD_PLOTSTYLENAME
350
E
  3
ACAD_TABLESTYLE
350
A1
  3
ACDBHEADERROUNDTRIPXREC
350
55EF5
  3
AcDbVariableDictionary
350
5E
  3
ASE_INDEX_DICTIONARY
350
349E9
  3
DWGPROPS
350
55EF4
  0
DICTIONARY
  5
E2
330
2
100
AcDbDictionary
280
     1
281
     1
  3
ACAD_LAYERFILTERS
360
55AA8
  3
ACAD_LAYERSTATES
360
3759A
  3
ACLYDICTIONARY
360
55AA7
  0
DICTIONARY
  5
31EE
330
1F
100
AcDbDictionary
280
     1
281
     1
  3
ACAD_SORTENTS
360
31EF
  0
DICTIONARY
  5
3BEB2
330
680
100
AcDbDictionary
280
     1
281
     1
  3
ACAD_SORTENTS
360
55352
  0
DICTIONARY
  5
55EFE
330
71
100
AcDbDictionary
280
     1
281
     1
  3
ACAD_XREC_ROUNDTRIP
360
55EFF
  0
DICTIONARY
  5
55F00
330
73
100
AcDbDictionary
280
     1
281
     1
  3
ACAD_XREC_ROUNDTRIP
360
55F01
  0
DICTIONARY
  5
54C2B
330
54C2A
100
AcDbDictionary
280
     1
281
     1
  3
ACAD_DIMASSOC
360
54C2C
  0
DICTIONARY
  5
551AF
330
551AE
100
AcDbDictionary
280
     1
281
     1
  3
ACAD_DIMASSOC
360
551B0
  0
DICTIONARY
  5
55CD7
330
55CD6
100
AcDbDictionary
280
     1
281
     1
  3
ACAD_DIMASSOC
360
55CD8
  0
DICTIONARY
  5
55EFA
330
6B
100
AcDbDictionary
280
     1
281
     1
  3
ACAD_XREC_ROUNDTRIP
360
55EFB
  0
DICTIONARY
  5
55EFC
330
6D
100
AcDbDictionary
280
     1
281
     1
  3
ACAD_XREC_ROUNDTRIP
360
55EFD
  0
DICTIONARY
  5
85
102
{ACAD_REACTORS
330
C
102
}
330
C
100
AcDbDictionary
281
     1
  0
DICTIONARY
  5
D
102
{ACAD_REACTORS
330
C
102
}
330
C
100
AcDbDictionary
281
     1
  0
DICTIONARY
  5
1A
102
{ACAD_REACTORS
330
C
102
}
330
C
100
AcDbDictionary
281
     1
  3
\M+1838C\M+18343\M+18341\M+18345\M+183671
350
51
  3
\M+1838C\M+18343\M+18341\M+18345\M+183672
350
56
  3
Model
350
22
  0
DICTIONARY
  5
84
102
{ACAD_REACTORS
330
C
102
}
330
C
100
AcDbDictionary
281
     1
  0
DICTIONARY
  5
17
102
{ACAD_REACTORS
330
C
102
}
330
C
100
AcDbDictionary
281
     1
  3
Standard
350
18
  0
DICTIONARY
  5
19
102
{ACAD_REACTORS
330
C
102
}
330
C
100
AcDbDictionary
281
     1
  0
ACDBDICTIONARYWDFLT
  5
E
102
{ACAD_REACTORS
330
C
102
}
330
C
100
AcDbDictionary
281
     1
  3
Normal
350
F
100
AcDbDictionaryWithDefault
340
F
  0
DICTIONARY
  5
A1
102
{ACAD_REACTORS
330
C
102
}
330
C
100
AcDbDictionary
281
     1
  3
Standard
350
A2
  0
DICTIONARY
  5
55EF5
102
{ACAD_REACTORS
330
C
102
}
330
C
100
AcDbDictionary
281
     1
  0
DICTIONARY
  5
5E
102
{ACAD_REACTORS
330
C
102
}
330
C
100
AcDbDictionary
281
     1
  3
CTABLESTYLE
350
B8
  3
DIMASSOC
350
5F
  3
HIDETEXT
350
63
  3
PROJECTNAME
350
31CE
  0
DICTIONARY
  5
349E9
102
{ACAD_REACTORS
330
C
102
}
330
C
100
AcDbDictionary
281
     1
  3
ASEBlockHierarchyIndexRecord
350
349EA
1001
DCO15
1040
1842496176.844
  0
XRECORD
  5
55EF4
102
{ACAD_REACTORS
330
C
102
}
330
C
100
AcDbXrecord
280
     1
  1
DWGPROPS COOKIE
  2

  3

  4

  6

  7

  8

  9

300
=
301
=
302
=
303
=
304
=
305
=
306
=
307
=
308
=
309
=
 40
2.770211655092592
 41
2455489.391063368
 42
2458573.037680209
  1

 90
        0
  0
DICTIONARY
  5
55AA8
102
{ACAD_REACTORS
330
E2
102
}
330
E2
100
AcDbDictionary
281
     1
  0
DICTIONARY
  5
3759A
102
{ACAD_REACTORS
330
E2
102
}
330
E2
100
AcDbDictionary
281
     1
  0
DICTIONARY
  5
55AA7
102
{ACAD_REACTORS
330
E2
102
}
330
E2
100
AcDbDictionary
281
     1
1001
ACAD
1000
<All
  0
SORTENTSTABLE
  5
31EF
102
{ACAD_REACTORS
330
31EE
102
}
330
31EE
100
AcDbSortentsTable
330
1F
331
54C10
  5
54C10
331
54BF0
  5
54BF0
331
54C2A
  5
54C2D
331
54C12
  5
54C12
331
54BF2
  5
54BF2
331
54EE1
  5
54EE1
331
54C11
  5
54C11
331
54BF1
  5
54BF1
331
53AD9
  5
53ADC
331
54C14
  5
54C14
331
54BF4
  5
54BF4
331
54C13
  5
54C13
331
54BF3
  5
54BF3
331
54EE0
  5
54EE0
331
54C2E
  5
54C2F
331
54BF6
  5
54BF6
331
54BF5
  5
54BF5
331
54C18
  5
54C18
331
54BF8
  5
54BF8
331
54EB7
  5
54EB8
331
54BF7
  5
54BF7
331
54BDB
  5
54BDB
331
54EBA
  5
54C1C
331
54BDA
  5
54BDA
331
54C19
  5
54C19
331
54BDD
  5
54BDD
331
54BDC
  5
54BDC
331
54BDE
  5
54BDE
331
54EC3
  5
54EC3
331
54BE3
  5
54BE3
331
54EC2
  5
54EC2
331
54BE2
  5
54BE2
331
54BE5
  5
54BE5
331
54BE4
  5
54BE4
331
54BE7
  5
54BE7
331
54BE6
  5
54BE6
331
54C09
  5
54C09
331
54BE9
  5
54BE9
331
54CD0
  5
54CD1
331
54C08
  5
54C08
331
54BE8
  5
54BE8
331
54C1B
  5
54C1B
331
54BF9
  5
54BF9
331
54BEC
  5
54BEC
331
54CD3
  5
54CD4
331
54C0B
  5
54C0B
331
54BEB
  5
54BEB
331
54EDA
  5
54EDA
331
68C
  5
3C6B0
331
54C0E
  5
54C0E
331
54BEE
  5
54BEE
331
54EDD
  5
54EDD
331
54C0D
  5
54C0D
331
54BED
  5
54BED
331
54C0F
  5
54C0F
331
54BEF
  5
54BEF
331
54EDE
  5
54EDE
331
54CD4
  5
54CD5
331
54C0A
  5
54C0A
331
54BEA
  5
54BEA
331
54BD9
  5
54BD9
  0
SORTENTSTABLE
  5
55352
102
{ACAD_REACTORS
330
3BEB2
102
}
330
3BEB2
100
AcDbSortentsTable
330
680
  0
XRECORD
  5
55EFF
102
{ACAD_REACTORS
330
55EFE
102
}
330
55EFE
100
AcDbXrecord
280
     1
102
SHADEPLOT
 70
     0
  0
XRECORD
  5
55F01
102
{ACAD_REACTORS
330
55F00
102
}
330
55F00
100
AcDbXrecord
280
     1
102
SHADEPLOT
 70
     0
  0
DIMASSOC
  5
54C2C
102
{ACAD_REACTORS
330
54C2B
102
}
330
54C2B
100
AcDbDimAssoc
330
54C2A
 90
        3
 70
     0
 71
     0
  1
AcDbOsnapPointRef
 72
    13
331
54C1B
 73
     2
 91
        0
 40
0.0
 10
0.0
 20
0.0
 30
2.000000000000000E+50
 75
     0
  1
AcDbOsnapPointRef
 72
     1
331
54C1B
 73
     2
 91
        0
 40
1.0
 10
0.0
 20
0.0
 30
2.000000000000000E+50
 75
     0
  0
DIMASSOC
  5
551B0
102
{ACAD_REACTORS
330
551AF
102
}
330
551AF
100
AcDbDimAssoc
330
551AE
 90
        1
 70
     0
 71
     0
  1
AcDbOsnapPointRef
 72
    13
331
551AD
 73
     2
 91
        0
 40
0.0
 10
0.0
 20
0.0
 30
2.000000000000000E+50
 75
     0
  0
DIMASSOC
  5
55CD8
102
{ACAD_REACTORS
330
55CD7
102
}
330
55CD7
100
AcDbDimAssoc
330
55CD6
 90
        2
 70
     0
 71
     0
  1
AcDbOsnapPointRef
 72
     3
331
55CBC
 73
     2
 91
        0
 40
0.0
 10
0.0
 20
0.0
 30
0.0
 75
     0
  0
XRECORD
  5
55EFB
102
{ACAD_REACTORS
330
55EFA
102
}
330
55EFA
100
AcDbXrecord
280
     1
102
SHADEPLOT
 70
     0
  0
XRECORD
  5
55EFD
102
{ACAD_REACTORS
330
55EFC
102
}
330
55EFC
100
AcDbXrecord
280
     1
102
SHADEPLOT
 70
     0
  0
LAYOUT
  5
51
102
{ACAD_XDICTIONARY
360
B2
102
}
102
{ACAD_REACTORS
330
1A
102
}
330
1A
100
AcDbPlotSettings
  1

  2
none_device
  4
Letter_(8.50_x_11.00_Inches)
  6

 40
6.349999904632567
 41
6.349999904632567
 42
6.350006103515625
 43
6.350006103515625
 44
215.8999938964844
 45
279.3999938964844
 46
0.0
 47
0.0
 48
0.0
 49
0.0
140
0.0
141
0.0
142
1.0
143
1.0
 70
   688
 72
     1
 73
     1
 74
     5
  7

 75
    16
147
1.0
148
0.0
149
0.0
100
AcDbLayout
  1
\M+1838C\M+18343\M+18341\M+18345\M+183671
 70
     1
 71
     1
 10
-6.350006103515625
 20
-6.349999904632567
 11
273.0499877929688
 21
209.5499939918518
 12
0.0
 22
0.0
 32
0.0
 14
26.66999878883364
 24
20.31999878883365
 34
0.0
 15
240.0299890995025
 25
182.8799890995025
 35
0.0
146
0.0
 13
0.0
 23
0.0
 33
0.0
 16
1.0
 26
0.0
 36
0.0
 17
0.0
 27
1.0
 37
0.0
 76
     0
330
50
331
6B
  0
LAYOUT
  5
56
102
{ACAD_XDICTIONARY
360
B5
102
}
102
{ACAD_REACTORS
330
1A
102
}
330
1A
100
AcDbPlotSettings
  1

  2
none_device
  4
Letter_(8.50_x_11.00_Inches)
  6

 40
6.349999904632567
 41
6.349999904632567
 42
6.350006103515625
 43
6.350006103515625
 44
215.8999938964844
 45
279.3999938964844
 46
0.0
 47
0.0
 48
0.0
 49
0.0
140
0.0
141
0.0
142
1.0
143
1.0
 70
   688
 72
     1
 73
     1
 74
     5
  7

 75
    16
147
1.0
148
0.0
149
0.0
100
AcDbLayout
  1
\M+1838C\M+18343\M+18341\M+18345\M+183672
 70
     1
 71
     2
 10
-6.350006103515625
 20
-6.349999904632567
 11
273.0499877929688
 21
209.5499939918518
 12
0.0
 22
0.0
 32
0.0
 14
26.66999878883363
 24
20.31999878883363
 34
0.0
 15
240.0299890995026
 25
182.8799890995025
 35
0.0
146
0.0
 13
0.0
 23
0.0
 33
0.0
 16
1.0
 26
0.0
 36
0.0
 17
0.0
 27
1.0
 37
0.0
 76
     0
330
55
331
71
  0
LAYOUT
  5
22
102
{ACAD_XDICTIONARY
360
55EF6
102
}
102
{ACAD_REACTORS
330
1A
102
}
330
1A
100
AcDbPlotSettings
  1

  2
none_device
  4
ANSI_A_(8.50_x_11.00_Inches)
  6

 40
6.349999904632567
 41
19.04999923706055
 42
6.350006103515625
 43
19.04998779296875
 44
215.8999938964844
 45
279.3999938964844
 46
0.0
 47
0.0
 48
0.0
 49
0.0
140
0.0
141
0.0
142
1.0
143
78.436453180766
 70
 11952
 72
     0
 73
     1
 74
     0
  7

 75
     0
147
0.0127491741332998
148
0.0
149
0.0
100
AcDbLayout
  1
Model
 70
     1
 71
     0
 10
0.0
 20
0.0
 11
12.0
 21
9.0
 12
0.0
 22
0.0
 32
0.0
 14
0.0
 24
0.0
 34
0.0
 15
0.0
 25
0.0
 35
0.0
146
0.0
 13
0.0
 23
0.0
 33
0.0
 16
1.0
 26
0.0
 36
0.0
 17
0.0
 27
1.0
 37
0.0
 76
     0
330
1F
  0
MLINESTYLE
  5
18
102
{ACAD_REACTORS
330
17
102
}
330
17
100
AcDbMlineStyle
  2
STANDARD
 70
     0
  3

 62
   256
 51
90.0
 52
90.0
 71
     2
 49
0.5
 62
   256
  6
BYLAYER
 49
-0.5
 62
   256
  6
BYLAYER
  0
ACDBPLACEHOLDER
  5
F
102
{ACAD_REACTORS
330
E
102
}
330
E
  0
TABLESTYLE
  5
A2
102
{ACAD_REACTORS
330
A1
102
}
330
A1
100
AcDbTableStyle
  3
Standard
 70
     0
 71
     0
 40
1.5
 41
1.5
280
     0
281
     0
  7
Standard
140
4.5
170
     2
 62
     0
 63
     7
283
     0
274
    -2
284
     1
 64
     0
275
    -2
285
     1
 65
     0
276
    -2
286
     1
 66
     0
277
    -2
287
     1
 67
     0
278
    -2
288
     1
 68
     0
279
    -2
289
     1
 69
     0
  7
Standard
140
6.0
170
     5
 62
     0
 63
     7
283
     0
274
    -2
284
     1
 64
     0
275
    -2
285
     1
 65
     0
276
    -2
286
     1
 66
     0
277
    -2
287
     1
 67
     0
278
    -2
288
     1
 68
     0
279
    -2
289
     1
 69
     0
  7
Standard
140
4.5
170
     5
 62
     0
 63
     7
283
     0
274
    -2
284
     1
 64
     0
275
    -2
285
     1
 65
     0
276
    -2
286
     1
 66
     0
277
    -2
287
     1
 67
     0
278
    -2
288
     1
 68
     0
279
    -2
289
     1
 69
     0
  0
DICTIONARYVAR
  5
B8
102
{ACAD_REACTORS
330
5E
102
}
330
5E
100
DictionaryVariables
280
     0
  1
STANDARD
  0
DICTIONARYVAR
  5
5F
102
{ACAD_REACTORS
330
5E
102
}
330
5E
100
DictionaryVariables
280
     0
  1
2
  0
DICTIONARYVAR
  5
63
102
{ACAD_REACTORS
330
5E
102
}
330
5E
100
DictionaryVariables
280
     0
  1
1
  0
DICTIONARYVAR
  5
31CE
102
{ACAD_REACTORS
330
5E
102
}
330
5E
100
DictionaryVariables
280
     0
  1

  0
XRECORD
  5
349EA
102
{ACAD_REACTORS
330
349E9
102
}
330
349E9
100
AcDbXrecord
280
     1
330
68C
330
0
330
0
330
0
330
0
330
0
330
0
330
0
330
0
330
0
330
0
330
0
330
0
330
0
330
0
330
0
330
0
330
0
330
0
330
0
330
0
330
0
330
0
330
0
330
0
330
0
330
0
330
0
330
0
330
0
330
0
330
0
330
0
330
0
330
0
330
0
330
0
330
0
330
0
330
0
330
0
330
0
330
0
330
0
330
0
330
0
330
0
330
0
330
0
330
0
330
0
330
0
330
0
330
0
330
0
330
0
330
0
330
0
330
0
330
0
330
0
330
0
330
0
330
0
330
0
330
0
330
0
330
0
330
0
330
0
330
0
330
0
330
0
330
0
330
0
330
0
330
0
330
0
330
0
330
0
330
0
330
0
330
0
330
0
330
0
330
0
330
0
330
0
330
0
330
0
330
0
330
0
330
0
330
0
330
0
330
0
330
0
330
0
330
0
330
0
330
0
330
0
330
0
330
0
330
0
330
0
330
0
330
0
330
0
330
0
  0
DICTIONARY
  5
B2
330
51
100
AcDbDictionary
280
     1
281
     1
  3
ACAD_XREC_ROUNDTRIP
360
55EF8
  3
ADSK_XREC_LAYOUTTHUMBNAIL
360
B3
  0
DICTIONARY
  5
B5
330
56
100
AcDbDictionary
280
     1
281
     1
  3
ACAD_XREC_ROUNDTRIP
360
55EF9
  3
ADSK_XREC_LAYOUTTHUMBNAIL
360
B6
  0
DICTIONARY
  5
55EF6
330
22
100
AcDbDictionary
280
     1
281
     1
  3
ACAD_XREC_ROUNDTRIP
360
55EF7
  0
XRECORD
  5
55EF8
102
{ACAD_REACTORS
330
B2
102
}
330
B2
100
AcDbXrecord
280
     1
102
SHADEPLOT
 70
     0
102
SHADEPLOTRESLEVEL
 70
     2
102
SHADEPLOTCUSTOMDPI
 70
   300
  0
XRECORD
  5
B3
102
{ACAD_REACTORS
330
B2
102
}
330
B2
100
AcDbXrecord
280
     1
310
28000000B40000008B0000000100080000000000BC61000000000000000000000001000000000000FFFFFF0000000000FFFFFF000000000000000000000000000000000000000000000000000000000000000000330000006600000099000000CC000000FF00000000330000333300006633000099330000CC330000FF3300
310
0000660000336600006666000099660000CC660000FF66000000990000339900006699000099990000CC990000FF99000000CC000033CC000066CC000099CC0000CCCC0000FFCC000000FF000033FF000066FF000099FF0000CCFF0000FFFF000000003300330033006600330099003300CC003300FF003300003333003333
310
33006633330099333300CC333300FF33330000663300336633006666330099663300CC663300FF66330000993300339933006699330099993300CC993300FF99330000CC330033CC330066CC330099CC3300CCCC3300FFCC330000FF330033FF330066FF330099FF3300CCFF3300FFFF330000006600330066006600660099
310
006600CC006600FF00660000336600333366006633660099336600CC336600FF33660000666600336666006666660099666600CC666600FF66660000996600339966006699660099996600CC996600FF99660000CC660033CC660066CC660099CC6600CCCC6600FFCC660000FF660033FF660066FF660099FF6600CCFF6600
310
FFFF660000009900330099006600990099009900CC009900FF00990000339900333399006633990099339900CC339900FF33990000669900336699006666990099669900CC669900FF66990000999900339999006699990099999900CC999900FF99990000CC990033CC990066CC990099CC9900CCCC9900FFCC990000FF99
310
0033FF990066FF990099FF9900CCFF9900FFFF99000000CC003300CC006600CC009900CC00CC00CC00FF00CC000033CC003333CC006633CC009933CC00CC33CC00FF33CC000066CC003366CC006666CC009966CC00CC66CC00FF66CC000099CC003399CC006699CC009999CC00CC99CC00FF99CC0000CCCC0033CCCC0066CC
310
CC0099CCCC00CCCCCC00FFCCCC0000FFCC0033FFCC0066FFCC0099FFCC00CCFFCC00FFFFCC000000FF003300FF006600FF009900FF00CC00FF00FF00FF000033FF003333FF006633FF009933FF00CC33FF00FF33FF000066FF003366FF006666FF009966FF00CC66FF00FF66FF000099FF003399FF006699FF009999FF00CC
310
99FF00FF99FF0000CCFF0033CCFF0066CCFF0099CCFF00CCCCFF00FFCCFF0000FFFF0033FFFF0066FFFF0099FFFF00CCFFFF00FFFFFF00000000000D0D0D001A1A1A00282828003535350043434300505050005D5D5D006B6B6B00787878008686860093939300A1A1A100AEAEAE00BBBBBB00C9C9C900D6D6D600E4E4E400
310
F1F1F100FFFFFF0000000000000000000000000000000000000000000000000000000000000000000000000000000000E2E2E2E2E2E2E2E2E2E2E2E2E2E2E2E2E2E2E2E2E2E2E2E2E2E2E2E2E2E2E2E2E2E2E2E2E2E2E2E2E2E2E2E2E2E2E2E2E2E2E2E2E2E2E2E2E2E2E2E2E2E2E2E2E2E2E2E2E2E2E2E2E2E2E2E2E2E2E2
310
E2E2E2E2E2E2E2E2E2E2E2E2E2E2E2E2E2E2E2E2E2E2E2E2E2E2E2E2E2E2E2E2E2E2E2E2E2E2E2E2E2E2E2E2E2E2E2E2E2E2E2E2E2E2E2E2E2E2E2E2E2E2E2E2E2E2E2E2E2E2E2E2E2E2E2E2E2E2E2E2E2E2E2E2E2E2E2E2E2E2E2E2E2E2E2E2E2E2E2E2E2E2F5F5F5F5F5F5F5F5F5F5F5F5F5F5F5F5F5F5F5F5F5F5F5F5F5
310
F5F5F5F5F5F5F5F5F5F5F5F5F5F5F5F5F5F5F5F5F5F5F5F5F5F5F5F5F5F5F5F5F5F5F5F5F5F5F5F5F5F5F5F5F5F5F5F5F5F5F5F5F5F5F5F5F5F5F5F5F5F5F5F5F5F5F5F5F5F5F5F5F5F5F5F5F5F5F5F5F5F5F5F5F5F5F5F5F5F5F5F5F5F5F5F5F5F5F5F5F5F5F5F5F5F5F5F5F5F5F5F5F5F5F5F5F5F5F5F5F5F5F5F5F5F5F5
310
F5F5F5F5F5F5F5F5F5F5F5F5F5F5F5F5F5F5F5F5F5F5F5F5F5F5E2E2F5F5F5F5F5F5F5F5F5F5F5F5F5F5F5F5F5F5F5F5F5F5F5F5F5F5F5F5F5F5F5F5F5F5F5F5F5F5F5F5F5F5F5F5F5F5F5F5F5F5F5F5F5F5F5F5F5F5F5F5F5F5F5F5F5F5F5F5F5F5F5F5F5F5F5F5F5F5F5F5F5F5F5F5F5F5F5F5F5F5F5F5F5F5F5F5F5F5F5
310
F5F5F5F5F5F5F5F5F5F5F5F5F5F5F5F5F5F5F5F5F5F5F5F5F5F5F5F5F5F5F5F5F5F5F5F5F5F5F5F5F5F5F5F5F5F5F5F5F5F5F5F5F5F5F5F5F5F5F5F5F5F5F5F5F5F5F5F5F5F5F5F5F5F5F5F5F5F5F5E2E2F5F5F5F5F5F5F5F5F5F5F5F5F5F5F5F5F5F5F5F5F5F5F5F5F5F5F5F5F5F5F5F5F5F5F5F5F5F5F5F5F5F5F5F5F5F5
310
F5F5F5F5F5F5F5F5F5F5F5F5F5F5F5F5F5F5F5F5F5F5F5F5F5F5F5F5F5F5F5F5F5F5F5F5F5F5F5F5F5F5F5F5F5F5F5F5F5F5F5F5F5F5F5F5F5F5F5F5F5F5F5F5F5F5F5F5F5F5F5F5F5F5F5F5F5F5F5F5F5F5F5F5F5F5F5F5F5F5F5F5F5F5F5F5F5F5F5F5F5F5F5F5F5F5F5F5F5F5F5F5F5F5F5F5F5F5F5F5F5F5F5F5F5F5F5
310
F5F5F5F5F5E2E2F5F5F5F5E2E2E2E2E2E2E2E2F5F5F5F5F5F5F5F5F5E2E2E2E2E2E2E2E2E2E2E2E2E2E2E2F5F5F5F5F5F5F5F5F5E2E2E2E2E2E2E2E2E2E2E2E2E2E2E2E2F5F5F5F5F5F5F5F5E2E2E2E2E2E2E2E2E2E2E2E2E2E2E2E2F5F5F5F5F5F5F5F5E2E2E2E2E2E2E2E2E2E2E2E2E2E2E2E2F5F5F5F5F5F5F5F5E2E2E2
310
E2E2E2E2E2E2E2E2E2E2E2E2E2F5F5F5F5F5F5F5F5F5E2E2E2E2E2E2E2E2E2E2E2E2E2E2E2F5F5F5F5F5F5F5F5F5E2E2E2E2E2E2E2E2F5F5F5F5E2E2F5F5F5F5E2F5F5F5F5F5F5F5F5F5F5F5F5F5F5F5F5F5F5F5F5F5F5F5F5F5F5F5F5F5F5F5F5F5F5F5F5F5F5F5F5F5F5F5F5F5F5F5F5F5F5F5F5F5F5F5F5F5F5F5F5F5F5
310
F5F5F5F5F5F5F5F5F5F5F5F5F5F5F5F5F5F5F5F5F5F5F5F5F5F5F5F5F5F5F5F5F5F5F5F5F5F5F5F5F5F5F5F5F5F5F5F5F5F5F5F5F5F5F5F5F5F5F5F5F5F5F5F5F5F5F5F5F5F5F5F5F5F5F5F5F5F5F5F5F5F5F5F5F5F5F5F5F5F5F5F5F5F5F5F5F5F5F5F5F5F5F5F5F5F5E2F5F5F5F5E2E2F5F5F5F5E2F5F5F5F5F5F5F5F5F5
310
F5F5F5F5F5F5F5F5F5F5F5F5F5F5F5F5F5F5F5F5F5F5F5F5F5F5F5F5F5F5F5F5F5F5F5F5F5F5F5F5F5F5F5F5F5F5F5F5F5F5F5F5F5F5F5F5F5F5F5F5F5F5F5F5F5F5F5F5F5F5F5F5F5F5F5F5F5F5F5F5F5F5F5F5F5F5F5F5F5F5F5F5F5F5F5F5F5F5F5F5F5F5F5F5F5F5F5F5F5F5F5F5F5F5F5F5F5F5F5F5F5F5F5F5F5F5F5
310
F5F5F5F5F5F5F5F5F5F5F5F5F5F5F5F5F5F5F5F5F5F5F5F5F5F5F5F5F5F5F5F5E2F5F5F5F5E2E2F5F5F5F5E2F5F5F5F5F5F5F5F5F5F5F5F5F5F5F5F5F5F5F5F5F5F5F5F5F5F5F5F5F5F5F5F5F5F5F5F5F5F5F5F5F5F5F5F5F5F5F5F5F5F5F5F5F5F5F5F5F5F5F5F5F5F5F5F5F5F5F5F5F5F5F5F5F5F5F5F5F5F5F5F5F5F5F5
310
F5F5F5F5F5F5F5F5F5F5F5F5F5F5F5F5F5F5F5F5F5F5F5F5F5F5F5F5F5F5F5F5F5F5F5F5F5F5F5F5F5F5F5F5F5F5F5F5F5F5F5F5F5F5F5F5F5F5F5F5F5F5F5F5F5F5F5F5F5F5F5F5F5F5F5F5F5F5F5F5F5F5F5F5F5E2F5F5F5F5E2E2F5F5F5F5E2F5F5F5F5F5F5F5F5F5F5F5F5F5F5F5F5F5F5F5F5F5F5F5F5F5F5F5F5F5F5
310
F5F5F5F5F5F5F5F5F5F5F5F5F5F5F5F5F5F5F5F5F5F5F5F5F5F5F5F5F5F5F5F5F5F5F5F5F5F5F5F5F5F5F5F5F5F5F5F5F5F5F5F5F5F5F5F5F5F5F5F5F5F5F5F5F5F5F5F5F5F5F5F5F5F5F5F5F5F5F5F5F5F5F5F5F5F5F5F5F5F5F5F5F5F5F5F5F5F5F5F5F5F5F5F5F5F5F5F5F5F5F5F5F5F5F5F5F5F5F5F5F5F5F5F5F5F5F5
310
F5F5F5F5F5F5F5F5F5F5F5E2F5F5F5F5E2E2F5F5F5F5E2F5F5F5F5F5F5F5F5F5F5F5F5F5F5F5F5F5F5F5F5F5F5F5F5F5F5F5F5F5F5F5F5F5F5F5F5F5F5F5F5F5F5F5F5F5F5F5F5F5F5F5F5F5F5F5F5F5F5F5F5F5F5F5F5F5F5F5F5F5F5F5F5F5F5F5F5F5F5F5F5F5F5F5F5F5F5F5F5F5F5F5F5F5F5F5F5F5F5F5F5F5F5F5F5
310
F5F5F5F5F5F5F5F5F5F5F5F5F5F5F5F5F5F5F5F5F5F5F5F5F5F5F5F5F5F5F5F5F5F5F5F5F5F5F5F5F5F5F5F5F5F5F5F5F5F5F5F5F5F5F5F5F5F5F5F5F5F5F5F5E2F5F5F5F5E2E2F5F5F5F5E2F5F5F5F5F5F5F5F5F5F5F5F5F5F5F5F5F5F5F5F5F5F5F5F5F5F5F5F5F5F5F5F5F5F5F5F5F5F5F5F5F5F5F5F5F5F5F5F5F5F5F5
310
F5F5F5F5F5F5F5F5F5F5F5F5F5F5F5F5F5F5F5F5F5F5F5F5F5F5F5F5F5F5F5F5F5F5F5F5F5F5F5F5F5F5F5F5F5F5F5F5F5F5F5F5F5F5F5F5F5F5F5F5F5F5F5F5F5F5F5F5F5F5F5F5F5F5F5F5F5F5F5F5F5F5F5F5F5F5F5F5F5F5F5F5F5F5F5F5F5F5F5F5F5F5F5F5F5F5F5F5F5F5F5F5F5F5F5F5F5E2F5F5F5F5E2E2F5F5F5
310
F5E2F5F5F5F5F5F5F5F5F5F5F5F5F5F5F5F5F5F5F5F5F5F5F5F5F5F5F5F5F5F5F5F5F5F5F5F5F5F5F5F5F5F5F5F5F5F5F5F5F5F5F5F5F5F5F5F5F5F5F5F5F5F5F5F5F5F5F5F5F5F5F5F5F5F5F5F5F5F5F5F5F5F5F5F5F5F5F5F5F5F5F5F5F5F5F5F5F5F5F5F5F5F5F5F5F5F5F5F5F5F5F5F5F5F5F5F5F5F5F5F5F5F5F5F5F5
310
F5F5F5F5F5F5F5F5F5F5F5F5F5F5F5F5F5F5F5F5F5F5F5F5F5F5F5F5F5F5F5F5F5F5F5F5F5F5F5F5F5F5F5E2F5F5F5F5E2E2F5F5F5F5E2F5F5F5F5F5F5F5F5F5F5F5F5F5F5F5F5F5F5F5F5F5F5F5F5F5F5F5F5F5F5F5F5F5F5F5F5F5F5F5F5F5F5F5F5F5F5F5F5F5F5F5F5F5F5F5F5F5F5F5F5F5F5F5F5F5F5F5F5F5F5F5F5
310
F5F5F5F5F5F5F5F5F5F5F5F5F5F5F5F5F5F5F5F5F5F5F5F5F5F5F5F5F5F5F5F5F5F5F5F5F5F5F5F5F5F5F5F5F5F5F5F5F5F5F5F5F5F5F5F5F5F5F5F5F5F5F5F5F5F5F5F5F5F5F5F5F5F5F5F5F5F5F5F5F5F5F5F5F5F5F5F5F5F5F5F5F5F5F5F5E2F5F5F5F5E2E2F5F5F5F5F5F5F5F5F5F5F5F5F5F5F5F5F5F5F5F5F5F5F5F5
310
F5F5F5F5F5F5F5F5F5F5F5F5F5F5F5F5F5F5F5F5F5F5F5F5F5F5F5F5F5F5F5F5F5F5F5F5F5F5F5F5F5F5F5F5F5F5F5F5F5F5F5F5F5F5F5F5F5F5F5F5F5F5F5F5F5F5F5F5F5F5F5F5F5F5F5F5F5F5F5F5F5F5F5F5F5F5F5F5F5F5F5F5F5F5F5F5F5F5F5F5F5F5F5F5F5F5F5F5F5F5F5F5F5F5F5F5F5F5F5F5F5F5F5F5F5F5F5
310
F5F5F5F5F5F5F5F5F5F5F5F5F5F5F5F5F5F5F5F5F5F5F5F5F5F5F5E2E2F5F5F5F5F5F5F5F5F5F5F5F5F5F5F5F5F5F5F5F5F5F5F5F5F5F5F5F5F5F5F5F5F5F5F5F5F5F5F5F5F5F5F5F5F5F5F5F5F5F5F5F5F5F5F5F5F5F5F5F5F5F5F5F5F5F5F5F5F5F5F5F5F5F5F5F5F5F5F5F5F5F5F5F5F5F5F5F5F5F5F5F5F5F5F5F5F5F5
310
F5F5F5F5F5F5F5F5F5F5F5F5F5F5F5F5F5F5F5F5F5F5F5F5F5F5F5F5F5F5F5F5F5F5F5F5F5F5F5F5F5F5F5F5F5F5F5F5F5F5F5F5F5F5F5F5F5F5F5F5F5F5F5F5F5F5F5F5F5F5F5F5F5F5F5F5F5F5F5F5E2E2F5F5F5F5F5F5F5F5F5F5F5F5F5F5F5F5F5F5F5F5F5F5F5F5F5F5F5F5F5F5F5F5F5F5F5F5F5F5F5F5F5F5F5F5F5
310
F5F5F5F5F5F5F5F5F5F5F5F5F5F5F5F5F5F5F5F5F5F5F5F5F5F5F5F5F5F5F5F5F5F5F5F5F5F5F5F5F5F5F5F5F5F5F5F5F5F5F5F5F5F5F5F5F5F5F5F5F5F5F5F5F5F5F5F5F5F5F5F5F5F5F5F5F5F5F5F5F5F5F5F5F5F5F5F5F5F5F5F5F5F5F5F5F5F5F5F5F5F5F5F5F5F5F5F5F5F5F5F5F5F5F5F5F5F5F5F5F5F5F5F5F5F5F5
310
F5F5F5F5F5F5E2E2F5F5F5F5F5F5F5F5F5F5F5F5F5F5F5F5F5F5F5F5F5F5F5F5F5F5F5F5F5F5F5F5F5F5F5F5F5F5F5F5F5F5F5F5F5F5F5F5F5F5F5F5F5F5F5F5F5F5F5F5F5F5F5F5F5F5F5F5F5F5F5F5F5F5F5F5F5F5F5F5F5F5F5F5F5F5F5F5F5F5F5F5F5F5F5F5F5F5F5F5F5F5F5F5F5F5F5F5F5F5F5F5F5F5F5F5F5F5F5
310
F5F5F5F5F5F5F5F5F5F5F5F5F5F5F5F5F5F5F5F5F5F5F5F5F5F5F5F5F5F5F5F5F5F5F5F5F5F5F5F5F5F5F5F5F5F5F5F5F5F5F5F5F5F5F5F5F5F5F5E2E2F5F5F5F5F5F5F5F5F5F5F5F5F5F5F5F5F5F5F5F5F5E2E2E2E2E2E2E2E2E2E2E2E2E2E2E2E2E2E2E2E2E2E2E2E2E2E2E2E2E2E2E2E2E2E2E2E2E2E2E2E2E2E2E2E2E2
310
E2E2E2E2E2E2E2E2E2E2E2E2E2E2E2E2E2E2E2E2E2E2E2E2E2E2E2E2E2E2E2E2E2E2E2E2E2E2E2E2E2E2E2E2E2E2E2E2E2E2E2E2E2E2E2E2E2E2E2E2E2E2E2E2E2E2E2E2E2E2E2E2E2E2E2E2E2E2E2E2E2E2E2E2E2E2E2E2E2E2E2F5F5F5F5F5F5F5F5F5F5F5F5F5F5F5F5F5F5F5F5F5E2E2F5F5F5F5F5F5F5F5F5F5F5F5F5
310
F5F5F5F5F5F5F5F5E22D2D2D2D2D2D2D2D2D2D2D2DF5F5F5F5F5F5F5F5F5F5F5F5F5F5F5E2F5F5F5F5F5F5F5F5F5F5F5F5F5F5F5F5F5F5F5F5F5F5F5F5F5F5F5F5F5F5F5F5F5F5F5F5F5F5F5F5F5F5F5F5F5F5F5F5F5F5F5F5F5F5F5F5F5F5F5F5F5F5F5F5F5F5F5F5F5F5F5F5F5F5F5F5F5F5F5F5F5F5F5F5F5F5F5F5F5F5
310
F5F5F5F5F5F5F5F5F5F5F5F5F5F5F5F5E2F5F5F5F5F5F5F5F5F5F5F5F5F5F5F5F5F5F5F5F5F5E2E2F5F5F5F5F5F5F5F5F5F5F5F5F5F5F5F5F5F5F5F5F5E22D2D2DF5F5E2F5F5F5F5F52DF5F5F5F5F5F5F5F5F5F5F5F5F5F5F5E2F5F5F5F5F5F5F5F5F5F5F5F5F5F5F5F5F5F5F5F5F5F5F5F5F5F5F5F5F5F5F5F5F5F5F5F5F5
310
F5F5F5F5F5F5F5F5F5F5F5F5F5F5F5F5F5F5F5F5F5F5F5F5F5F5F5F5F5F5F5F5F5F5F5F5F5F5F5F5F5F5F5F5F5F5F5F5F5F5F5F5F5F5F5F5F5F5F5F5F5F5F5F5F5F5F5F5F5E2F5F5F5F5F5F5F5F5F5F5F5F5F5F5F5F5F5F5F5F5F5E2E2F5F5F5F5F5F5F5F5F5F5F5F5F5F5F5F5F5F5F5F5F5E2DCF52DF5F5E2F5F5F5F5F52D
310
F5F5F5F5F5F5F5F5F5F5F5F5F5F5F5E2F5F5F5F5F5F5F5F5F5F5F5F5F5F5F5F5F5F5F5F5F5F5F5F5F5F5F5F5F5F5F5F5F5F5F5F5F5F5F5F5F5F5F5F5F5F5F5F5F5F5F5F5F5F5F5F5F5F5F5F5F5F5F5F5F5F5F5F5F5F5F5F5F5F5F5F5F5F5F5F5F5F5F5F5F5F5F5F5F5F5F5F5F5F5F5F5F5F5F5F5F5F5F5F5F5F5E2F5F5F5F5
310
F5F5F5F5F5F5F5F5F5F5F5F5F5F5F5F5F5E2E2F5F5F5F5F5F5F5F5F5F5F5F5F5F5F5F5F5F5F5F5F5E2BEF52D2D2D2D2D2D2D2DE2E2E2E2E2E2E2E2E2E2E2E2E2E2E2E2E2E2F5F5F5F5F5F5F5F5F5F5F5F5F5F5F5F5F5F5F5F5F5F5F5F5F5F5F5F5F5F5F5F5F5F5F5F5F5F5F5F5F5F5F5F5F5F5F5F5F5F5F5F5F5F5F5F5F5F5
310
F5F5F5F5F5F5F5F5F5F5F5F5F5F5F5F5F5F5F5F5F5F5F5F5F5F5F5F5F5F5F5F5F5F5F5F5F5F5F5F5F5F5F5F5F5F5F5F5E2F5F5F5F5F5F5F5F5F5F5F5F5F5F5F5F5F5F5F5F5F5E2E2F5F5F5F5E2F5F5F5F5F5F5F5F5F5F5F5F5F5F5F5F5E2DCF5F5F5F5E2F5F5F5F5F5E2F5F5F5F5F5F5F5F5F5F5F5F5F5F5F5F5F5F5F5F5F5
310
F5F5F5F5F5F5F5F5F5F5F5F5F5F5F5F5F5F5F5F5F5F5F5F5F5F5F5F5F5F5F5F5F5F5F5F5F5F5F5F5F5F5F5F5F5F5F5F5F5F5F5F5F5F5F5F5F5F5F5F5F5F5F5F5F5F5F5F5F5F5F5F5F5F5F5F5F5F5F5F5F5F5F5F5F5F5F5F5F5F5F5F5F5F5F5F5F5F5F5F5F5E2F5F5F5F5F5F5F5F5F5F5F5F5F5F5F5F5E2F5F5F5F5E2E2F5F5
310
F5F5E2F5F5F5F5F5F5F5F5F5F5F5F5F5F5F5F5E2F5F5F5F5F5E2F5F5F5F5F5E2F5F5F5F5F5F5F5F5F5F5F5F5F5F5F5F5F5F5F5F5F5F5F5F5F5F5F5F5F5F5F5F5F5F5F5F5F5F5F5F5F5F5F5F5F5F5F5F5F5F5F5F5F5F5F5F5F5F5F5F5F5F5F5F5F5F5F5F5F5F5F5F5F5F5F5F5F5F5F5F5F5F5F5F5F5F5F5F5F5F5F5F5F5F5F5
310
F5F5F5F5F5F5F5F5F5F5F5F5F5F5F5F5F5F5F5F5F5F5F5F5F5F5F5E2F5F5F5F5F5F5F5F5F5F5F5F5F5F5F5F5E2F5F5F5F5E2E2F5F5F5F5E2F5F5F5F5F5F5F5F5F5F5F5F5F5F5F5F5E2F5F5F5F5F5E2F5F5F5F5F5E2F5F5F5F5F5F5F5F5F5F5F5F5F5F5F5F5F5F5F5F5F5F5F5F5F5F5F5F5F5F5F5F5F5F5F5F5F5F5F5F5F5F5
310
F5F5F5F5F5F5F5F5F5F5F5F5F5F5F5F5F5F5F5F5F5F5F5F5F5F5F5F5F5F5F5F5F5F5F5F5F5F5F5F5F5F5F5F5F5F5F5F5F5F5F5F5F5F5F5F5F5F5F5F5F5F5F5F5F5F5F5F5F5F5F5F5F5F5F5F5F5F5F5F5E2F5F5F5F5F5F5F5F5F5F5F5F5F5F5F5F5E2F5F5F5F5E2E2F5F5F5F5E2F5F5F5F5F5F5F5F5F5F5F5F5F5F5F5F5E2F5
310
F5F5F5F5E2F5F5F5F5F5E2F5F5F5F5F5F5F5F5F5F5F5F5F5F5F5F5F5F5F5F5F5F5F5F5F5F5F5F5F5F5F5F5F5F5F5F5F5F5F5F5F5F5F5F5F5F5F5F5F5F5F5F5F5F5F5F5F5F5F5F5F5F5F5F5F5F5F5F5F5F5F5F5F5F5F5F5F5F5F5F5F5F5F5F5F5F5F5F5F5F5F5F5F5F5F5F5F5F5F5F5F5F5F5F5F5F5F5F5F5F5F5F5F5F5F5F5
310
F5F5F5F5F5F5E2F5F5F5F5F5F5F5F5F5F5F5F5F5F5F5F5E2F5F5F5F5E2E2F5F5F5F5E2F5F5F5F5F5F5F5F5F5F5F5F5F5F5F5F5E2E2E2E2E2E2E2F5F5F5F5F5E2F5F5F5F5F5F5F5F5F5F5F5F5F5F5F5F5F5F5F5F5F5F5F5F5F5F5F5F5F5F5F5F5F5F5F5F5F5F5F5F5F5F5F5F5F5F5F5F5F5F5F5F5F5F5F5F5F5F5F5F5F5F5F5
310
F5F5F5F5F5F5F5F5F5F5F5F5F5F5F5F5F5F5F5F5F5F5F5F5F5F5F5F5F5F5F5F5F5F5F5F5F5F5F5F5F5F5F5F5F5F5F5F5F5F5F5F5F5F5F5F5F5F5F5E2F5F5F5F5F5F5F5F5F5F5F5F5F5F5F5F5E2F5F5F5F5E2E2F5F5F5F5E2F5F5F5F5F5F5F5F5F5F5F5F5F5F5F5F5E2E2E2E2F5E2E2F5F5F5F5F5E2F5F5F5F5F5F5F5F5F5F5
310
F5F5F5F5F5F5F5F5F5F5F5F5F5F5F5F5F5F5F5F5F5F5F5F5F5F5F5F5F5F5F5F5F5F5F5F5F5F5F5F5F5F5F5F5F5F5F5F5F5F5F5F5F5F5F5F5F5F5F5F5F5F5F5F5F5F5F5F5F5F5F5F5F5F5F5F5F5F5F5F5F5F5F5F5F5F5F5F5F5F5F5F5F5F5F5F5F5F5F5F5F5F5F5F5F5F5F5F5F5F5F5F5E2F5F5F5F5F5F5F5F5F5F5F5F5F5F5
310
F5F5E2F5F5F5F5E2E2F5F5F5F5E2F5F5F5F5F5F5F5F5F5F5F5F5F5F5F5F5E2E2E2E2F5F5F5F5F5F5F5F5E2F5F5F5F5F5F5F5F5F5F5F5F5F5F5F5F5F5F5F5F5F5F5F5F5F5F5F5F5F5F5F5F5F5F5F5F5F5F5F5F5F5F5F5F5F5F5F5F5F5F5F5F5F5F5F5F5F5F5F5F5F5F5F5F5F5F5F5F5F5F5F5F5F5F5F5F5F5F5F5F5F5F5F5F5
310
F5F5F5F5F5F5F5F5F5F5F5F5F5F5F5F5F5F5F5F5F5F5F5F5F5F5F5F5F5F5F5F5F5F5F5F5F5F5E2F5F5F5F5F5F5F5F5F5F5F5F5F5F5F5F5E2F5F5F5F5E2E2F5F5F5F5E2F5F5F5F5F5F5F5F5F5F5F5F5F5F5F5F5E2F5F5F5F5F5F5F5F5F5F5F5E2F5F5F5F5F5F5F5F5F5F5F5F5F5F5F5F5F5F5F5F5F5F5F5F5F5F5F5F5F5F5F5
310
F5F5F5F5F5F5F5F5F5F5F5F5F5F5F5F5F5F5F5F5F5F5F5F5F5F5F5F5F5F5F5F5F5F5F5F5F5F5F5F5F5F5F5F5F5F5F5F5F5F5F5F5F5F5F5F5F5F5F5F5F5F5F5F5F5F5F5F5F5F5F5F5F5F5F5F5F5F5F5F5F5F5F5F5F5F5F5F5F5F5F5E2F5F5F5F5F5F5F5F5F5F5F5F5F5F5F5F5E2F5F5F5F5E2E2F5F5F5F5E2F5F5F5F5F5F5F5
310
F5F5F5F5F5F5F5F5F5E2E2E2E2E2E2E2E2E2E2E2E2E2F5F5F5F5F5F5F5F5F5F5F5F5F5F5F5F5F5F5F5F5F5F5F5F5F5F5F5F5F5F5F5F5F5F5F5F5F5F5F5F5F5F5F5F5F5F5F5F5F5F5F5F5F5F5F5F5F5F5F5F5F5F5F5F5F5F5F5F5F5F5F5F5F5F5F5F5F5F5F5F5F5F5F5F5F5F5F5F5F5F5F5F5F5F5F5F5F5F5F5F5F5F5F5F5F5
310
F5F5F5F5F5F5F5F5F5F5F5F5F5F5F5F5F5E2F5F5F5F5F5F5F5F5F5F5F5F5F5F5F5F5E2F5F5F5F5E2E2F5F5F5F5E2F5F5F5F5F5F5F5F5F5F5F5F5F5F5F5F5E2E2E2F5F5F5F5F5F5F5F5F5F5F5F5F5F5F5F5F5F5F5F5F5F5F5F5F5F5F5F5F5F5F5F5F5F5F5F5F5F5F5F5F5F5F5F5F5F5F5F5F5F5F5F5F5F5F5F5F5F5F5F5F5F5
310
F5F5F5F5F5F5F5F5F5F5F5F5F5F5F5F5F5F5F5F5F5F5F5F5F5F5F5F5F5F5F5F5F5F5F5F5F5F5F5F5F5F5F5F5F5F5F5F5F5F5F5F5F5F5F5F5F5F5F5F5F5F5F5F5F5F5F5F5F5F5E2F5F5F5F5F5F5F5F5F5F5F5F5F5F5F5F5E2F5F5F5F5E2E2F5F5F5F5E2F5F5F5F5F5F5F5F5F5F5F5F5F5F5F5F5E2E2E2F5F5F5F5F5F5F5F5F5
310
F5F5F5F5F5F5F5F5F5F5F5F5F5F5F5F5F5F5F5F5F5F5F5F5F5F5F5F5F5F5F5F5F5F5F5F5F5F5F5F5F5F5F5F5F5F5F5F5F5F5F5F5F5F5F5F5F5F5F5F5F5F5F5F5F5F5F5F5F5F5F5F5F5F5F5F5F5F5F5F5F5F5F5F5F5F5F5F5F5F5F5F5F5F5F5F5F5F5F5F5F5F5F5F5F5F5F5F5F5F5F5F5F5F5F5F5F5F5F5F5F5F5F5E2F5F5F5
310
F5F5F5F5F5F5F5F5F5F5F5F5F5E2F5F5F5F5E2E2F5F5F5F5E2F5F5F5F5F5F5F5F5F5F5F5F5F5F5F5F5E2F5F5F5F5F5F5F5F5F5F5F5F5F5F5F5F5F5F5F5F5F5F5F5F5F5F5F5F5F5F5F5F5F5F5F5F5F5F5F5F5F5F5F5F5F5F5F5F5F5F5F5F5F5F5F5F5F5F5F5F5F5F5F5F5F5F5F5F5F5F5F5F5F5F5F5F5F5F5F5F5F5F5F5F5F5
310
F5F5F5F5F5F5F5F5F5F5F5F5F5F5F5F5F5F5F5F5F5F5F5F5F5F5F5F5F5F5F5F5F5F5F5F5F5F5F5F5F5F5F5F5F5F5F5F5F5E2F5F5F5F5F5F5F5F5F5F5F5F5F5F5F5F5E2F5F5F5F5E2E2F5F5F5F5E2F5F5F5F5F5F5F5F5F5F5F5F5F5F5F5F5E2F5F5F5F5F5F5F5F5F5F5F5F5F5F5F5F5F5F5F5F5F5F5F5F5F5F5F5F5F5F5F5F5
310
F5F5F5F5F5F5F5F5F5F5F5F5F5F5F5F5F5F5F5F5F5F5F5F5F5F5F5F5F5F5F5F5F5F5F5F5F5F5F5F5F5F5F5F5F5F5F5F5F5F5F5F5F5F5F5F5F5F5F5F5F5F5F5F5F5F5F5F5F5F5F5F5F5F5F5F5F5F5F5F5F5F5F5F5F5F5F5F5F5F5F5F5F5F5F5F5F5F5F5F5F5F5E2F5F5F5F5F5F5F5F5F5F5F5F5F5F5F5F5E2F5F5F5F5E2E2F5
310
F5F5F5E2F5F5F5F5F5F5F5F5F5F5F5F5F5F5F5F5E20F0F0F0F0F0F0F0F0F0F0FF5F5F5F5F5F5F5F5F5F5F5F5F5F5F5F5F5F5F5F5F5F5F5F5F5F5F5F5F5F5F5F5F5F5F5F5F5F5F5F5F5F5F5F5F5F5F5F5F5F5F5F5F5F5F5F5F5F5F5F5F5F5F5F5F5F5F5F5F5F5F5F5F5F5F5F5F5F5F5F5F5F5F5F5F5F5F5F5F5F5F5F5F5F5F5
310
F5F5F5F5F5F5F5F5F5F5F5F5F5F5F5F5F5F5F5F5F5F5F5F5F5F5F5F5E2F5F5F5F5F5F5F5F5F5F5F5F5F5F5F5F5E2F5F5F5F5E2E2F5F5F5F5E2F5F5F5F5F5F5F5F5F5F5F5F5F5F5F5F5E20F0F0F0F0F0F0F0F0F0F0FF5F5F5F5F5F5F5F5F5F5F5F5F5F5F5F5F5F5F5F5F5F5F5F5F5F5F5F5F5F5F5F5F5F5F5F5F5F5F5F5F5F5
310
F5F5F5F5F5F5F5F5F5F5F5F5F5F5F5F5F5F5F5F5F5F5F5F5F5F5F5F5F5F5F5F5F5F5F5F5F5F5F5F5F5F5F5F5F5F5F5F5F5F5F5F5F5F5F5F5F5F5F5F5F5F5F5F5F5F5F5F5F5F5F5F5F5F5F5F5F5F5F5F5F5E2F5F5F5F5F5F5F5F5F5F5F5F5F5F5F5F5E2F5F5F5F5E2E2F5F5F5F5E2F5F5F5F5F5F5F5F5F5F5F5F5F5F5F5F5E2
310
0F0F0F0F0F0F0F0F0F0FF5F5F5F5F5F5F5F5F5F5F5F5F5F5F5F5F5F5F5F5F5F5F5F5F5F5F5F5F5F5F5F5F5F5F5F5F5F5F5F5F5F5F5F5F5F5F5F5F5F5F5F5F5F5F5F5F5F5F5F5F5F5F5F5F5F5F5F5F5F5F5F5F5F5F5F5F5F5F5F5F5F5F5F5F5F5F5F5F5F5F5F5F5F5F5F5F5F5F5F5F5F5F5F5F5F5F5F5F5F5F5F5F5F5F5F5F5
310
F5F5F5F5F5F5F5E2F5F5F5F5F5F5F5F5F5F5F5F5F5F5F5F5E2F5F5F5F5E2E2F5F5F5F5E2F5F5F5F5F5F5F5F5F5F5F5F5F5F5F5F5E2F5F5F5F5F5F5F5F5F5F5F5F5F5F5F5F5F5F5F5F5F5F5F5F5F5F5F5F5F5F5F5F5F5F5F5F5F5F5F5F5F5F5F5F5F5F5F5F5F5F5F5F5F5F5F5F5F5F5F5F5F5F5F5F5F5F5F5F5F5F5F5F5F5F5
310
F5F5F5F5F5F5F5F5F5F5F5F5F5F5F5F5F5F5F5F5F5F5F5F5F5F5F5F5F5F5F5F5F5F5F5F5F5F5F5F5F5F5F5F5F5F5F5F5F5F5F5F5F5F5F5F5F5F5F5F5E2F5F5F5F5F5F5F5F5F5F5F5F5F5F5F5F5E2F5F5F5F5E2E2F5F5F5F5F5F5F5F5F5F5F5F5F5F5F5F5F5F5F5F5F5E2F5F5F5F5F5F5F5F5F5F5F5F5F5F5F5F5F5F5F5F5F5
310
F5F5F5F5F5F5F5F5F5F5F5F5F5F5F5F5F5F5F5F5F5F5F5F5F5F5F5F5F5F5F5F5F5F5F5F5F5F5F5F5F5F5F5F5F5F5F5F5F5F5F5F5F5F5F5F5F5F5F5F5F5F5F5F5F5F5F5F5F5F5F5F5F5F5F5F5F5F5F5F5F5F5F5F5F5F5F5F5F5F5F5F5F5F5F5F5F5F5F5F5F5F5F5F5F5F5F5F5F5F5F5F5F5E2F5F5F5F5F5F5F5F5F5F5F5F5F5
310
F5F5F5F5F5F5F5F5E2E2F5F5F5F5F5F5F5F5F5F5F5F5F5F5F5F5F5F5F5F5F5E2F5F5F5F5F5F5F5F5F5F5F5F5F5F5F5F5F5F5F5F5F5F5F5F5F5F5F5F5F5F5F5F5F5F5F5F5F5F5F5F5F5F5F5F5F5F5F5F5F5F5F5F5F5F5F5F5F5F5F5F5F5F5F5F5F5F5F5F5F5F5F5F5F5F5F5F5F5F5F5F5F5F5F5F5F5F5F5F5F5F5F5F5F5F5F5
310
F5F5F5F5F5F5F5F5F5F5F5F5F5F5F5F5F5F5F5F5F5F5F5F5F5F5F5F5F5F5F5F5F5F5F5F5F5F5F5E2F5F5F5F5F5F5F5F5F5F5F5F5F5F5F5F5F5F5F5F5F5E2E2F5F5F5F5F5F5F5F5F5F5F5F5F5F5F5F5F5F5F5F5F5E2F5F5F5F5F5F5F5F5F5F5F5F5F5F5F5F5F5F5F5F5F5F5F5F5F5F5F5F5F5F5F5F5F5F5F5F5F5F5F5F5F5F5
310
F5F5F5F5F5F5F5F5F5F5F5F5F5F5F5F5F5F5F5F5F5F5F5F5F5F5F5F5F5F5F5F5F5F5F5F5F5F5F5F5F5F5F5F5F5F5F5F5F5F5F5F5F5F5F5F5F5F5F5F5F5F5F5F5F5F5F5F5F5F5F5F5F5F5F5F5F5F5F5F5F5F5F5F5F5F5F5F5F5F5F5F5E2F5F5F5F5F5F5F5F5F5F5F5F5F5F5F5F5F5F5F5F5F5E2E2F5F5F5F5F5F5F5F5F5F5F5
310
F5F5F5F5F5F5F5F5F5F5E2F5F5F5F5F5F5F5F5F5F5F5F5F5F5F5F5F5F5F5F5F5F5F5F5F5F5F5F5F5F5F5F5F5F5F5F5F5F5F5F5F5F5F5F5F5F5F5F5F5F5F5F5F5F5F5F5F5F5F5F5F5F5F5F5F5F5F5F5F5F5F5F5F5F5F5F5F5F5F5F5F5F5F5F5F5F5F5F5F5F5F5F5F5F5F5F5F5F5F5F5F5F5F5F5F5F5F5F5F5F5F5F5F5F5F5F5
310
F5F5F5F5F5F5F5F5F5F5F5F5F5F5F5F5F5F5E2F5F5F5F5F5F5F5F5F5F5F5F5F5F5F5F5F5F5F5F5F5E2E2F5F5F5F5F5F5F5F5F5F5F5F5F5F5F5F5F5F5F5F5F5E2F5F5F5F5F5F5F5F5F5F5F5F5F5F5F5F5F5F5F5F5F5F5F5F5F5F5F5F5F5F5F5F5F5F5F5F5F5F5F5F5F5F5F5F5F5F5F5F5F5F5F5F5F5F5F5F5F5F5F5F5F5F5F5
310
F5F5F5F5F5F5F5F5F5F5F5F5F5F5F5F5F5F5F5F5F5F5F5F5F5F5F5F5F5F5F5F5F5F5F5F5F5F5F5F5F5F5F5F5F5F5F5F5F5F5F5F5F5F5F5F5F5F5F5F5F5F5F5F5F5F5F5F5F5F5F5E2F5F5F5F5F5F5F5F5F5F5F5F5F5F5F5F5F5F5F5F5F5E2E2F5F5F5F5F5F5F5F5F5F5F5F5F5F5F5F5F5F5F5F5F5E2F5F5F5F5F5F5F5F5F5F5
310
F5F5F5F5F5F5F5F5F5F5F5F5F5F5F5F5F5F5F5F5F5F5F5F5F5F5F5F5F5F5F5F5F5F5F5F5F5F5F5F5F5F5F5F5F5F5F5F5F5F5F5F5F5F5F5F5F5F5F5F5F5F5F5F5F5F5F5F5F5F5F5F5F5F5F5F5F5F5F5F5F5F5F5F5F5F5F5F5F5F5F5F5F5F5F5F5F5F5F5F5F5F5F5F5F5F5F5F5F5F5F5F5F5F5F5F5F5F5F5F5F5F5F5F5E2F5F5
310
F5F5F5F5F5F5F5F5F5F5F5F5F5F5F5F5F5F5F5E2E2F5F5F5F5F5F5F5F5F5F5F5F5F5F5F5F5F5F5F5F5F5E2F5F5F5F5F5F5F5F5F5F5F5F5F5F5F5F5F5F5F5F5F5F5F5F5F5F5F5F5F5F5F5F5F5F5F5F5F5F5F5F5F5F5F5F5F5F5F5F5F5F5F5F5F5F5F5F5F5F5F5F5F5F5F5F5F5F5F5F5F5F5F5F5F5F5F5F5F5F5F5F5F5F5F5F5
310
F5F5F5F5F5F5F5F5F5F5F5F5F5F5F5F5F5F5F5F5F5F5F5F5F5F5F5F5F5F5F5F5F5F5F5F5F5F5F5F5F5F5F5F5F5F5F5F5F5F5E2F5F5F5F5F5F5F5F5F5F5F5F5F5F5F5F5F5F5F5F5F5E2E2F5F5F5F5F5F5F5F5F5F5F5F5F5F5F5F5F5F5F5F5F5E2F5F5F5F5F5F5F5F5F5F5F5F5F5F5F5F5F5F5F5F5F5F5F5F5F5F5F5F5F5F5F5
310
F5F5F5F5F5F5F5F5F5F5F5F5F5F5F5F5F5F5F5F5F5F5F5F5F5F5F5F5F5F5F5F5F5F5F5F5F5F5F5F5F5F5F5F5F5F5F5F5F5F5F5F5F5F5F5F5F5F5F5F5F5F5F5F5F5F5F5F5F5F5F5F5F5F5F5F5F5F5F5F5F5F5F5F5F5F5F5F5F5F5F5F5F5F5F5F5F5F5F5F5F5F5F5E2F5F5F5F5F5F5F5F5F5F5F5F5F5F5F5F5F5F5F5F5F5E2E2
310
F5F5F5F5F5F5F5F5F5F5F5F5F5F5F5F5F5F5F5F5F5E2F5F5F5F5F5F5F5F5F5F5F5F5F5F5F5F5F5F5F5F5F5F5F5F5F5F5F5F5F5F5F5F5F5F5F5F5F5F5F5F5F5F5F5F5F5F5F5F5F5F5F5F5F5F5F5F5F5F5F5F5F5F5F5F5F5F5F5F5F5F5F5F5F5F5F5F5F5F5F5F5F5F5F5F5F5F5F5F5F5F5F5F5F5F5F5F5F5F5F5F5F5F5F5F5F5
310
F5F5F5F5F5F5F5F5F5F5F5F5F5F5F5F5F5F5F5F5F5F5F5F5F5F5F5F5F5E2F5F5F5F5F5F5F5F5F5F5F5F5F5F5F5F5F5F5F5F5F5E2E2F5F5F5F5E2F5F5F5F5F5F5F5F5F5F5F5F5F5F5F5F5E2F5F5F5F5F5F5F5F5F5F5F5F5F5F5F5F5F5F5F5F5F5F5F5F5F5F5F5F5F5F5F5F5F5F5F5F5F5F5F5F5F5F5F5F5F5F5F5F5F5F5F5F5
310
F5F5F5F5F5F5F5F5F5F5F5F5F5F5F5F5F5F5F5F5F5F5F5F5F5F5F5F5F5F5F5F5F5F5F5F5F5F5F5F5F5F5F5F5F5F5F5F5F5E2F0E2E2F5F5F5F5F5F5E2F0E2E2F5DCF5F5F5F5F5F5F0F0E2F5F5F5F5F5F5F5F5E2F5F5F5F5F5F5F5F5F5F5F5F5F5F5F5F5E2F5F5F5F5E2E2F5F5F5F5E2F5F5F5F5F5F5F5F5F5F5F5F5F5F5F5F5
310
E2F5F5F5F5F5F5F5F5F5F5F5F5F5F5F5F5F5F5F5F5F5F5F5F5F5F5F5F5F5F5F5F5F5F5F5F5F5F5F5F5F5F5F5F5F5F5F5F5F5F5F5F5F5F5F5F5F5F5F5F5F5F5F5F5F5F5F5F5F5F5F5F5F5F5F5F5F5F5F5F5F5F5F5F5F5F5F5F5F5F5F5F5F5F5F5F5F5F5F5F5E2DCDCF0F5E2F5F5F5F5F5E2F5F0E2E2DCF5F5F5F5F5E2F0F0F5
310
E2F5F5F5E2E2E2F5E2F5F5F5F5F5F5F5F5F5F5F5F5F5F5F5F5E2F5F5F5F5E2E2F5F5F5F5E2F5F5F5F5F5F5F5F5F5F5F5F5F5F5F5F5E2F5F5F5F5F5F5F5F5F5F5F5F5F5F5F5F5F5F5F5F5F5F5F5F5F5F5F5F5F5F5F5F5F5F5F5F5F5F5F5F5F5F5F5F5F5F5F5F5F5F5F5F5F5F5F5F5F5F5F5F5F5F5F5F5F5F5F5F5F5F5F5F5F5
310
F5F5F5F5F5F5F5F5F5F5F5F5F5F5F5F5F5F5F5F5F5F5F5F5F5F5E2F0DCF0DCE2E2E2F5F5F5E2E2F0F0F0E2DCF5F5F5F5E2F0F0F0E2E2F0E2E2E2E2E2E2E2F5F5F5F5F5F5F5F5F5F5F5F5F5F5F5F5E2F5F5F5F5E2E2F5F5F5F5E2F5F5F5F5F5F5F5F5F5F5F5F5F5F5F5F5E2F5F5F5F5F5F5F5F5F5F5F5F5F5F5F5F5F5F5F5F5
310
F5F5F5F5F5F5F5F5F5F5F5F5F5F5F5F5F5F5F5F5F5F5F5F5F5F5F5F5F5F5F5F5F5F5F5F5F5F5F5F5F5F5F5F5F5F5F5F5F5F5F5F5F5F5F5F5F5F5F5F5F5F5F5F5F5F5F5F5F5F5F5F5F5F5F5F5F5F5F5E2F0DCF0DCF0F0E2F5F5F5E2F0DCE2E2E2DCF5F5F5F5F0F0F0F0E2E2F0E2F5E2E2E2E2E2F5F5F5F5F5F5F5F5F5F5F5F5
310
F5F5F5F5E2F5F5F5F5E2E2F5F5F5F5E2F5F5F5F5F5F5F5F5F5F5F5F5F5F5F5F5E2F5F5F5F5F5F5F5F5F5F5F5F5F5F5F5F5F5F5F5F5F5F5F5F5F5F5F5F5F5F5F5F5F5F5F5F5F5F5F5F5F5F5F5F5F5F5F5F5F5F5F5F5F5F5F5F5F5F5F5F5F5F5F5F5F5F5F5F5F5F5F5F5F5F5F5F5F5F5F5F5F5F5F5F5F5F5F5F5F5F5F5F5F5F5
310
F5F5F5F5F5F5E2DCDCDCF0E2F5F5F5F5F5F0DCDCE2E2DCF5F5F5F5F5F0F0F0DCE2F0F5E2E2E2E2F5E2F5F5F5F5F5F5F5F5F5F5F5F5F5F5F5F5E2F5F5F5F5E2E2F5F5F5F5E2F5F5F5F5F5F5F5F5F5F5F5F5F5F5F5F5E2F5F5F5F5F5F5F5F5F5F5F5F5F5F5F5F5F5F5F5F5F5F5F5F5F5F5F5F5F5F5F5F5F5F5F5F5F5F5F5F5F5
310
F5F5F5F5F5F5F5F5F5F5F5F5F5F5F5F5F5F5F5F5F5F5F5F5F5F5F5F5F5F5F5F5F5F5F5F5F5F5F5F5F5F5F5F5F5F5F5F5F5F5F5F5F5F5F5F5F5F5F5E2F0F0F0E2F5F5F5F5F5E2F0E2E2E2E2DCF5F5F5F5F5F0F0E2E2F5F5F5F5E2E2E2F5E2F5F5F5F5F5F5F5F5F5F5F5F5F5F5F5F5E2F5F5F5F5E2E2F5F5F5F5E2F5F5F5F5F5
310
F5F5F5F5F5F5F5F5F5F5F5E2F5F5F5F5F5F5F5F5F5F5F5F5F5F5F5F5F5F5F5F5F5F5F5F5F5F5F5F5F5F5F5F5F5F5F5F5F5F5F5F5F5F5F5F5F5F5F5F5F5F5F5F5F5F5F5F5F5F5F5F5F5F5F5F5F5F5F5F5F5F5F5F5F5F5F5F5F5F5F5F5F5F5F5F5F5F5F5F5F5F5F5F5F5F5F5F5F5F5F5F5F5F5E2E2F5F5F5F5F5F5F5F5E2E2F5
310
F5DCF5F5F5F5F5F5F5F0E2F5F5F5F5F5E2F5F5E2F5F5F5F5F5F5F5F5F5F5F5F5F5F5F5F5E2F5F5F5F5E2E2F5F5F5F5E2F5F5F5F5F5F5F5F5F5F5F5F5F5F5F5F5E2F5F5F5F5F5F5F5F5F5F5F5F5F5F5F5F5F5F5F5F5F5F5F5F5F5F5F5F5F5F5F5F5F5F5F5F5F5F5F5F5F5F5F5F5F5F5F5F5F5F5F5F5F5F5F5F5F5F5F5F5F5F5
310
F5F5F5F5F5F5F5F5F5F5F5F5F5F5F5F5F5F5F5F5F5F5F5F5F5F5F5F5F5F5F5F5F5F5F5F5F5F5F5F5F5F5F5F5F5F5F5F5F5F5F5F5F5F5DCF5F5F5F5F5F5F5F5F5F5F5F5F5F5F5F5F5E2F5F5F5F5F5F5F5F5F5F5F5F5F5F5F5F5E2F5F5F5F5E2E2F5F5F5F5E2F5F5F5F5F5F5F5F5F5F5F5F5F5F5F5F5E2F5F5F5F5F5F5F5F5F5
310
F5F5F5F5F5F5F5F5F5F5F5F5F5F5F5F5F5F5F5F5F5F5F5F5F5F5F5F5F5F5F5F5F5F5F5F5F5F5F5F5F5F5F5F5F5F5F5F5F5F5F5F5F5F5F5F5F5F5F5F5F5F5F5F5F5F5F5F5F5F5F5F5F5F5F5F5F5F5F5F5F5F5F5F5F5F5F5F5F5F5F5F5F5F5F5F5F5F5F5F5F5F5F5F5F5F5F5DCF5F5F5F5F5F5F5F5F5F5F5F5F5F5F5F5F5E2F5
310
F5F5F5F5F5F5F5F5F5F5F5F5F5F5F5E2F5F5F5F5E2E2F5F5F5F5E2F5F5F5F5F5F5F5F5F5F5F5F5F5F5F5F5E2F5F5F5F5F5F5F5F5F5F5F5F5F5F5F5F5F5F5F5F5F5F5F5F5F5F5F5F5F5F5F5F5F5F5F5F5F5F5F5F5F5F5F5F5F5F5F5F5F5F5F5F5F5F5F5F5F5F5F5F5F5F5F5F5F5F5F5F5F5F5F5F5F5F5F5F5F5F5F5F5F5F5F5
310
F5F5F5F5F5F5F5F5F5F5F5F5F5F5F5F5F5F5F5F5F5F5F5F5F5F5F5F5F5F5F5F5F5DCF5F5F5F5F5F5F5F5F5F5F5F5F5F5F5F5F5E2F5F5F5F5F5F5F5F5F5F5F5F5F5F5F5F5E2F5F5F5F5E2E2F5F5F5F5E2F5F5F5F5F5F5F5F5F5F5F5F5F5F5F5F5E2F5F5F5F5F5F5F5F5F5F5F5F5F5F5F5F5F5F5F5F5F5F5F5F5F5F5F5F5F5F5
310
F5F5F5F5F5F5F5F5F5F5F5F5F5F5F5F5F5F5F5F5F5F5F5F5F5F5F5F5F5F5F5F5F5F5F5F5F5F5F5F5F5F5F5F5F5F5F5F5F5F5F5F5F5F5F5F5F5F5F5F5F5F5F5F5F5F5F5F5F5F5F5F5F5F5F5F5F5F5F5F5F5F5F5F5F5F5DCF5F5F5F5F5F5F5F5F5F5F5F5F5F5F5F5F5E2F5F5F5F5F5F5F5F5F5F5F5F5F5F5F5F5E2F5F5F5F5E2
310
E2F5F5F5F5E2F5F5F5F5F5F5F5F5F5F5F5F5F5F5F5F5E2F5F5F5F5F5F5F5F5F5F5F5F5F5F5F5F5F5F5F5F5F5F5F5F5F5F5F5F5F5F5F5F5F5F5F5F5F5F5F5F5F5F5F5F5F5F5F5F5F5F5F5F5F5F5F5F5F5F5F5F5F5F5F5F5F5F5F5F5F5F5F5F5F5F5F5F5F5F5F5F5F5F5F5F5F5F5F5F5F5F5F5F5F5F5F5F5F5F5F5F5F5F5F5F5
310
F5F5F5F5F5F5F5F5F5F5F5F5DCF5F5F5F5F5F5F5F5F5F5F5F5F5F5F5F5F5E2F5F5F5F5F5F5F5F5F5F5F5F5F5F5F5F5E2F5F5F5F5E2E2F5F5F5F5E2F5F5F5F5F5F5F5F5F5F5F5F5F5F5F5F5E2F5F5F5F5F5F5F5F5F5F5F5F5F5F5F5F5F5F5F5F5F5F5F5F5F5F5F5F5F5F5F5F5F5F5F5F5F5F5F5F5F5F5F5F5F5F5F5F5F5F5F5
310
F5F5F5F5F5F5F5F5F5F5F5F5F5F5F5F5F5F5F5F5F5F5F5F5F5F5F5F5F5F5F5F5F5F5F5F5F5F5F5F5F5F5F5F5F5F5F5F5F5F5F5F5F5F5F5F5F5F5F5F5F5F5F5F5F5DCF5F5F5F5F5F5F5F5F5F5F5F5F5F5F5F5F5E2F5F5F5F5F5F5F5F5F5F5F5F5F5F5F5F5E2F5F5F5F5E2E2F5F5F5F5E2F5F5F5F5F5F5F5F5F5F5F5F5F5F5F5
310
F5E2F5F5F5F5F5F5F5F5F5F5F5F5F5F5F5F5F5F5F5F5F5F5F5F5F5F5F5F5F5F5F5F5F5F5F5F5F5F5F5F5F5F5F5F5F5F5F5F5F5F5F5F5F5F5F5F5F5F5F5F5F5F5F5F5F5F5F5F5F5F5F5F5F5F5F5F5F5F5F5F5F5F5F5F5F5F5F5F5F5F5F5F5F5F5F5F5F5F5F5F5F5F5F5F5F5F5F5F5F5F5F5F5F5F5F5F5DCF5F5F5F5F5F5F5F5
310
F5F5F5F5F5F5F5F5F5E2F5F5F5F5F5F5F5F5F5F5F5F5F5F5F5F5E2F5F5F5F5E2E2F5F5F5F5E2F5F5F5F5F5F5F5F5F5F5F5F5F5F5F5F5E2F5F5F5F5F5F5F5F5F5F5F5F5F5F5F5F5F5F5F5F5F5F5F5F5F5F5F5F5F5F5F5F5F5F5F5F5F5F5F5F5F5F5F5F5F5F5F5F5F5F5F5F5F5F5F5F5F5F5F5F5F5F5F5F5F5F5F5F5F5F5F5F5
310
F5F5F5F5F5F5F5F5F5F5F5F5F5F5F5F5F5F5F5F5F5F5F5F5F5F5F5F5F5F5F5F5F5F5F5F5F5F5F5F5F5F5E2E2DCE2F5F5F5F5F5F5F5F5F5F5F5F5F5F5F5F5E2F5F5F5F5F5F5F5F5F5F5F5F5F5F5F5F5E2F5F5F5F5E2E2F5F5F5F5E2F5F5F5F5F5F5F5F5F5F5F5F5F5F5F5F5E2F5F5F5F5F5F5F5F5F5F5F5F5F5F5F5F5F5F5F5
310
F5F5F5F5F5F5F5F5F5F5F5F5F5F5F5F5F5F5F5F5F5F5F5F5F5F5F5F5F5F5F5F5F5F5F5F5F5F5F5F5F5F5F5F5F5F5F5F5F5F5F5F5F5F5F5F5F5F5F5F5F5F5F5F5F5F5F5F5F5F5F5F5F5F5F5F5F5F5F5F5F5F5F5F5F5F5F5F5F5F5F5F5F5F5F5F5F5DCF5F5F5F5F5F5F5F5F5F5F5F5F5F5F5F5F5E2F5F5F5F5F5F5F5F5F5F5F5
310
F5F5F5F5F5E2F5F5F5F5E2E2F5F5F5F5E2F5F5F5F5F5F5F5F5F5F5F5F5F5F5F5F5E2F5F5F5F5F5F5F5F5F5F5F5F5F5F5F5F5F5F5F5F5F5F5F5F5F5F5F5F5F5F5F5F5F5F5F5F5F5F5F5F5F5F5F5F5F5F5F5F5F5F5F5F5F5F5F5F5F5F5F5F5F5F5F5F5F5F5F5F5F5F5F5F5F5F5F5F5F5F5F5F5F5F5F5F5F5F5F5F5F5F5F5F5F5
310
F5F5F5F5F5F5F5F5F5F5F5F5F5F5F5F5F5F5F5F5F5F5F5DCF5F5F5F5F5F5F5F5F5F5F5F5F5F5F5F5F5E2F5F5F5F5F5F5F5F5F5F5F5F5F5F5F5F5E2F5F5F5F5E2E2F5F5F5F5F5F5F5F5F5F5F5F5F5F5F5F5F5F5F5F5F5E2F5F5F5F5F5F5F5F5F5F5F5F5F5F5F5F5F5F5F5F5F5F5F5F5F5F5F5F5F5F5F5F5F5F5F5F5F5F5F5F5
310
F5F5F5F5F5F5F5F5F5F5F5F5F5F5F5F5F5F5F5F5F5F5F5F5F5F5F5F5F5F5F5F5F5F5F5F5F5F5F5F5F5F5F5F5F5F5F5F5F5F5F5F5F5F5F5F5F5F5F5F5F5F5F5F5F5F5F5F5F5F5F5F5F5F5F5F5DCF5F5F5F5F5F5F5F5F5F5F5F5F5F5F5F5F5E2F5F5F5F5F5F5F5F5F5F5F5F5F5F5F5F5F5F5F5F5F5E2E2F5F5F5F5F5F5F5F5F5
310
F5F5F5F5F5F5F5F5F5F5F5F5E2F5F5F5F5F5F5F5F5F5F5F5F5F5F5F5F5F5F5F5F5F5F5F5F5F5F5F5F5F5F5F5F5F5F5F5F5F5F5F5F5F5F5F5F5F5F5F5F5F5F5F5F5F5F5F5F5F5F5F5F5F5F5F5F5F5F5F5F5F5F5F5F5F5F5F5F5F5F5F5F5F5F5F5F5F5F5F5F5F5F5F5F5F5F5F5F5F5F5F5F5F5F5F5F5F5F5F5F5F5F5F5F5F5F5
310
F5F5F5F5F5F5F5F5F5F5F5F5F5F5F5F5F5F5F5F5E2F5F5F5F5F5F5F5F5F5F5F5F5F5F5F5F5F5F5F5F5F5E2E2F5F5F5F5F5F5F5F5F5F5F5F5F5F5F5F5F5F5F5F5F5E2F5F5F5F5F5F5F5F5F5F5F5F5F5F5F5F5F5F5F5F5F5F5F5F5F5F5F5F5F5F5F5F5F5F5F5F5F5F5F5F5F5F5F5F5F5F5F5F5F5F5F5F5F5F5F5F5F5F5F5F5F5
310
F5F5F5F5F5F5F5F5F5F5F5F5F5F5F5F5F5F5F5F5F5F5F5F5F5F5F5F5F5F5F5F5F5F5F5F5F5F5F5F5F5F5F5F5F5F5F5F5F5F5F5F5F5F5F5F5F5F5F5F5F5F5F5F5F5F5F5F5F5F5F5F5F5E2F5F5F5F5F5F5F5F5F5F5F5F5F5F5F5F5F5F5F5F5F5E2E2F5F5F5F5F5F5F5F5F5F5F5F5F5F5F5F5F5F5F5F5F5E2F5F5F5F5F5F5F5F5
310
F5F5F5F5F5F5F5F5F5F5F5F5F5F5F5F5F5F5F5F5F5F5F5F5F5F5F5F5F5F5F5F5F5F5F5F5F5F5F5F5F5F5F5F5F5F5F5F5F5F5F5F5F5F5F5F5F5F5F5F5F5F5F5F5F5F5F5F5F5F5F5F5F5F5F5F5F5F5F5F5F5F5F5F5F5F5F5F5F5F5F5F5F5F5F5F5F5F5F5F5F5F5F5F5F5F5F5F5F5F5F5F5F5F5F5F5F5F5F5F5F5F5F5F5F5F5E2
310
F5F5F5F5F5F5F5F5F5F5F5F5F5F5F5F5F5F5F5F5F5E2E2F5F5F5F5F5F5F5F5F5F5F5F5F5F5F5F5F5F5F5F5F5E2F5F5F5F5F5F5F5F5F5F5F5F5F5F5F5F5F5F5F5F5F5F5F5F5F5F5F5F5F5F5F5F5F5F5F5F5F5F5F5F5F5F5F5F5F5F5F5F5F5F5F5F5F5F5F5F5F5F5F5F5F5F5F5F5F5F5F5F5F5F5F5F5F5F5F5F5F5F5F5F5F5F5
310
F5F5F5F5F5F5F5F5F5F5F5F5F5F5F5F5F5F5F5F5F5F5F5F5F5F5F5F5F5F5F5F5F5F5F5F5F5F5F5F5F5F5F5F5F5F5F5F5F5F5F5F5E2F5F5F5F5F5F5F5F5F5F5F5F5F5F5F5F5F5F5F5F5F5E2E2F5F5F5F5F5F5F5F5F5F5F5F5F5F5F5F5F5F5F5F5F5E2F5F5F5F5F5F5F5F5F5F5F5F5F5F5F5F5F5F5F5F5F5F5F5F5F5F5F5F5F5
310
F5F5F5F5F5F5F5F5F5F5F5F5F5F5F5F5F5F5F5F5F5F5F5F5F5F5F5F5F5F5F5F5F5F5F5F5F5F5F5F5F5F5F5F5F5F5F5F5F5F5F5F5F5F5F5F5F5F5F5F5F5F5F5F5F5F5F5F5F5F5F5F5F5F5F5F5F5F5F5F5F5F5F5F5F5F5F5F5F5F5F5F5F5F5F5F5F5F5F5F5F5F5F5F5F5E2F5F5F5F5F5F5F5F5F5F5F5F5F5F5F5F5F5F5F5F5F5
310
E2E2F5F5F5F5F5F5F5F5F5F5F5F5F5F5F5F5F5F5F5F5F5E2F5F5F5F5F5F5F5F5F5F5F5F5F5F5F5F5F5F5F5F5F5F5F5F5F5F5F5F5F5F5F5F5F5F5F5F5F5F5F5F5F5F5F5F5F5F5F5F5F5F5F5F5F5F5F5F5F5F5F5F5F5F5F5F5F5F5F5F5F5F5F5F5F5F5F5F5F5F5F5F5F5F5F5F5F5F5F5F5F5F5F5F5F5F5F5F5F5F5F5F5F5F5F5
310
F5F5F5F5F5F5F5F5F5F5F5F5F5F5F5F5F5F5F5F5F5F5F5F5F5F5F5F5F5F5F5E2F5F5F5F5F5F5F5F5F5F5F5F5F5F5F5F5F5F5F5F5F5E2E2F5F5F5F5F5F5F5F5F5F5F5F5F5F5F5F5F5F5F5F5F5E2F5F5F5F5F5F5F5F5F5F5F5F5F5F5F5F5F5F5F5F5F5F5F5F5F5F5F5F5F5F5F5F5F5F5F5F5F5F5F5F5F5F5F5F5F5F5F5F5F5F5
310
F5F5F5F5F5F5F5F5F5F5F5F5F5F5F5F5F5F5F5F5F5F5F5F5F5F5F5F5F5F5F5F5F5F5F5F5F5F5F5F5F5F5F5F5F5F5F5F5F5F5F5F5F5F5F5F5F5F5F5F5F5F5F5F5F5F5F5F5F5F5F5F5F5F5F5F5F5F5F5F5F5F5F5F5E2F5F5F5F5F5F5F5F5F5F5F5F5F5F5F5F5F5F5F5F5F5E2E2F5F5F5F5F5F5F5F5F5F5F5F5F5F5F5F5F5F5F5
310
F5F5E2F5F5F5F5F5F5F5F5F5F5F5F5F5F5F5F5F5F5F5F5F5F5F5F5F5F5F5F5F5F5F5F5F5F5F5F5F5F5F5F5F5F5F5F5F5F5F5F5F5F5F5F5F5F5F5F5F5F5F5F5F5F5F5F5F5F5F5F5F5F5F5F5F5F5F5F5F5F5F5F5F5F5F5F5F5F5F5F5F5F5F5F5F5F5F5F5F5F5F5F5F5F5F5F5F5F5F5F5F5F5F5F5F5F5F5F5F5F5F5F5F5F5F5F5
310
F5F5F5F5F5F5F5F5F5F5E2F5F5F5F5F5F5F5F5F5F5F5F5F5F5F5F5F5F5F5F5F5E2E2F5F5F5F5E2F5F5F5F5F5F5F5F5F5F5F5F5F5F5F5F5E2F5F5F5F5F5F5F5F5F5F5F5F5F5F5F5F5F5F5F5F5F5F5F5F5F5F5F5F5F5F5F5F5F5F5F5F5F5F5F5F5F5F5F5F5F5F5F5F5F5F5F5F5F5F5F5F5F5F5F5F5F5F5F5F5F5F5F5F5F5F5F5
310
F5F5F5F5F5F5F5F5F5F5F5F5F5F5F5F5F5F5F5F5F5F5F5F5F5F5F5F5F5F5F5F5F5F5F5F5F5F5F5F5F5F5F5F5F5F5F5F5F5F5F5F5F5F5F5F5F5F5F5F5F5F5F5E2F5F5F5F5F5F5F5F5F5F5F5F5F5F5F5F5E2F5F5F5F5E2E2F5F5F5F5E2F5F5F5F5F5F5F5F5F5F5F5F5F5F5F5F5E2F5F5F5F5F5F5F5F5F5F5F5F5F5F5F5F5F5F5
310
F5F5F5F5F5F5F5F5F5F5F5F5F5F5F5F5F5F5F5F5F5F5F5F5F5F5F5F5F5F5F5F5F5F5F5F5F5F5F5F5F5F5F5F5F5F5F5F5F5F5F5F5F5F5F5F5F5F5F5F5F5F5F5F5F5F5F5F5F5F5F5F5F5F5F5F5F5F5F5F5F5F5F5F5F5F5F5F5F5F5F5F5F5F5F5F5F5F5F5F5F5F5F5F5F5F5F5F5F5F5F5F5F5F5F5F5E2F5F5F5F5F5F5F5F5F5F5
310
F5F5F5F5F5F5E2F5F5F5F5E2E2F5F5F5F5E2F5F5F5F5F5F5F5F5F5F5F5F5F5F5F5F5E2F5F5F5F5F5F5F5F5F5F5F5F5F5F5F5F5F5F5F5F5F5F5F5F5F5F5F5F5F5F5F5F5F5F5F5F5F5F5F5F5F5F5F5F5F5F5F5F5F5F5F5F5F5F5F5F5F5F5F5F5F5F5F5F5F5F5F5F5F5F5F5F5F5F5F5F5F5F5F5F5F5F5F5F5F5F5F5F5F5F5F5F5
310
F5F5F5F5F5F5F5F5F5F5F5F5F5F5F5F5F5F5F5F5F5F5F5F5F5F5F5F5F5F5F5F5F5F5F5F5F5F5F5F5F5F5E2F5F5F5F5F5F5F5F5F5F5F5F5F5F5F5F5E2F5F5F5F5E2E2F5F5F5F5E2F5F5F5F5F5F5F5F5F5F5F5F5F5F5F5F5E2F5F5F5F5F5F5F5F5F5F5F5F5F5F5F5F5F5F5F5F5F5F5F5F5F5F5F5F5F5F5F5F5F5F5F5F5F5F5F5
310
F5F5F5F5F5F5F5F5F5F5F5F5F5F5F5F5F5F5F5F5F5F5F5F5F5F5F5F5F5F5F5F5F5F5F5F5F5F5F5F5F5F5F5F5F5F5F5F5F5F5F5F5F5F5F5F5F5F5F5F5F5F5F5F5F5F5F5F5F5F5F5F5F5F5F5F5F5F5F5F5F5F5F5F5F5F5F5F5F5F5F5F5F5F5F5E2F5F5F5F5F5F5F5F5F5F5F5F5F5F5F5F5E2F5F5F5F5E2E2F5F5F5F5E2F5F5F5
310
F5F5F5F5F5F5F5F5F5F5F5F5F5E2F5F5F5F5F5F5F5F5F5F5F5F5F5F5F5F5F5F5F5F5F5F5F5F5F5F5F5F5F5F5F5F5F5F5F5F5F5F5F5F5F5F5F5F5F5F5F5F5F5F5F5F5F5F5F5F5F5F5F5F5F5F5F5F5F5F5F5F5F5F5F5F5F5F5F5F5F5F5F5F5F5F5F5F5F5F5F5F5F5F5F5F5F5F5F5F5F5F5F5F5F5F5F5F5F5F5F5F5F5F5F5F5F5
310
F5F5F5F5F5F5F5F5F5F5F5F5F5F5F5F5F5F5F5F5F5E2F5F5F5F5F5F5F5F5F5F5F5F5F5F5F5F5E2F5F5F5F5E2E2F5F5F5F5E2F5F5F5F5F5F5F5F5F5F5F5F5F5F5F5F5E2F5F5F5F5F5F5F5F5F5F5F5F5F5F5F5F5F5F5F5F5F5F5F5F5F5F5F5F5F5F5F5F5F5F5F5F5F5F5F5F5F5F5F5F5F5F5F5F5F5F5F5F5F5F5F5F5F5F5F5F5
310
F5F5F5F5F5F5F5F5F5F5F5F5F5F5F5F5F5F5F5F5F5F5F5F5F5F5F5F5F5F5F5F5F5F5F5F5F5F5F5F5F5F5F5F5F5F5F5F5F5F5F5F5F5F5F5F5F5F5F5F5F5F5F5F5F5F5F5F5F5F5F5F5F5F5E2F5F5F5F5F5F5F5F5F5F5F5F5F5F5F5F5E2F5F5F5F5E2E2F5F5F5F5E2F5F5F5F5F5F5F5F5F5F5F5F5F5F5F5F5E2F5F5F5F5F5F5F5
310
F5F5F5F5F5F5F5F5F5F5F5F5F5F5F5F5F5F5F5F5F5F5F5F5F5F5F5F5F5F5F5F5F5F5F5F5F5F5F5F5F5F5F5F5F5F5F5F5F5F5F5F5F5F5F5F5F5F5F5F5F5F5F5F5F5F5F5F5F5F5F5F5F5F5F5F5F5F5F5F5F5F5F5F5F5F5F5F5F5F5F5F5F5F5F5F5F5F5F5F5F5F5F5F5F5F5F5F5F5F5F5F5F5F5F5F5F5F5F5F5F5F5F5F5F5F5F5
310
E2F5F5F5F5F5F5F5F5F5F5F5F5F5F5F5F5E2F5F5F5F5E2E2F5F5F5F5E2F5F5F5F5F5F5F5F5F5F5F5F5F5F5F5F5E2F5F5F5F5F5F5F5F5F5F5F5F5F5F5F5F5F5F5F5F5F5F5F5F5F5F5F5F5F5F5F5F5F5F5F5F5F5F5F5F5F5F5F5F5F5F5F5F5F5F5F5F5F5F5F5F5F5F5F5F5F5F5F5F5F5F5F5F5F5F5F5F5F5F5F5F5F5F5F5F5F5
310
F5F5F5F5F5F5F5F5F5F5F5F5F5F5F5F5F5F5F5F5F5F5F5F5F5F5F5F5F5F5F5F5F5F5F5F5F5F5F5F5F5F5F5F5F5F5F5F5F5F5F5F5F5E2F5F5F5F5F5F5F5F5F5F5F5F5F5F5F5F5E2F5F5F5F5E2E2F5F5F5F5E2F5F5F5F5F5F5F5F5F5F5F5F5F5F5F5F5E2F5F5F5F5F5F5F5F5F5F5F5F5F5F5F5F5F5F5F5F5F5F5F5F5F5F5F5F5
310
F5F5F5F5F5F5F5F5F5F5F5F5F5F5F5F5F5F5F5F5F5F5F5F5F5F5F5F5F5F5F5F5F5F5F5F5F5F5F5F5F5F5F5F5F5F5F5F5F5F5F5F5F5F5F5F5F5F5F5F5F5F5F5F5F5F5F5F5F5F5F5F5F5F5F5F5F5F5F5F5F5F5F5F5F5F5F5F5F5F5F5F5F5F5F5F5F5F5F5F5F5F5F5F5F5F5E2F5F5F5F5F5F5F5F5F5F5F5F5F5F5F5F5E2F5F5F5
310
F5E2E2F5F5F5F5E2F5F5F5F5F5F5F5F5F5F5F5F5F5F5F5F5E2F5F5F5F5F5F5F5F5F5F5F5F5F5F5F5F5F5F5F5F5F5F5F5F5F5F5F5F5F5F5F5F5F5F5F5F5F5F5F5F5F5F5F5F5F5F5F5F5F5F5F5F5F5F5F5F5F5F5F5F5F5F5F5F5F5F5F5F5F5F5F5F5F5F5F5F5F5F5F5F5F5F5F5F5F5F5F5F5F5F5F5F5F5F5F5F5F5F5F5F5F5F5
310
F5F5F5F5F5F5F5F5F5F5F5F5F5F5F5F5F5F5F5F5F5F5F5F5F5F5F5F5F5F5F5F5E2F5F5F5F5F5F5F5F5F5F5F5F5F5F5F5F5E2F5F5F5F5E2E2F5F5F5F5E2F5F5F5F5F5F5F5F5F5F5F5F5F5F5F5F5E2F5F5F5F5F5F5F5F5F5F5F5F5F5F5F5F5F5F5F5F5F5F5F5F5F5F5F5F5F5F5F5F5F5F5F5F5F5F5F5F5F5F5F5F5F5F5F5F5F5
310
F5F5F5F5F5F5F5F5F5F5F5F5F5F5F5F5F5F5F5F5F5F5F5F5F5F5F5F5F5F5F5F5F5F5F5F5F5F5F5F5F5F5F5F5F5F5F5F5F5F5F5F5F5F5F5F5F5F5F5F5F5F5F5F5F5F5F5F5F5F5F5F5F5F5F5F5F5F5F5F5F5F5F5F5F5E2F5F5F5F5F5F5F5F5F5F5F5F5F5F5F5F5E2F5F5F5F5E2E2F5F5F5F5E2F5F5F5F5F5F5F5F5F5F5F5F5F5
310
F5F5F5E2F5F5F5F5F5F5F5F5F5F5F5F5F5F5F5F5F5F5F5F5F5F5F5F5F5F5F5F5F5F5F5F5F5F5F5F5F5F5F5F5F5F5F5F5F5F5F5F5F5F5F5F5F5F5F5F5F5F5F5F5F5F5F5F5F5F5F5F5F5F5F5F5F5F5F5F5F5F5F5F5F5F5F5F5F5F5F5F5F5F5F5F5F5F5F5F5F5F5F5F5F5F5F5F5F5F5F5F5F5F5F5F5F5F5F5F5F5F5F5F5F5F5F5
310
F5F5F5F5F5F5F5F5F5F5F5E2F5F5F5F5F5F5F5F5F5F5F5F5F5F5F5F5E2F5F5F5F5E2E2F5F5F5F5E2F5F5F5F5F5F5F5F5F5F5F5F5F5F5F5F5E2F5F5F5F5F5F5F5F5F5F5F5F5F5F5F5F5F5F5F5F5F5F5F5F5F5F5F5F5F5F5F5F5F5F5F5F5F5F5F5F5F5F5F5F5F5F5F5F5F5F5F5F5F5F5F5F5F5F5F5F5F5F5F5F5F5F5F5F5F5F5
310
F5F5F5F5F5F5F5F5F5F5F5F5F5F5F5F5F5F5F5F5F5F5F5F5F5F5F5F5F5F5F5F5F5F5F5F5F5F5F5F5F5F5F5F5F5F5F5F5F5F5F5F5F5F5F5F5F5F5F5F5F5F5F5F5E2F5F5F5F5F5F5F5F5F5F5F5F5F5F5F5F5E2F5F5F5F5E2E2F5F5F5F5E2F5F5F5F5F5F5F5F5F5F5F5F5F5F5F5F5E2F5F5F5F5F5F5F5F5F5F5F5F5F5F5F5F5F5
310
F5F5F5F5F5F5F5F5F5F5F5F5F5F5F5F5F5F5F5F5F5F5F5F5F5F5F5F5F5F5F5F5F5F5F5F5F5F5F5F5F5F5F5F5F5F5F5F5F5F5F5F5F5F5F5F5F5F5F5F5F5F5F5F5F5F5F5F5F5F5F5F5F5F5F5F5F5F5F5F5F5F5F5F5F5F5F5F5F5F5F5F5F5F5F5F5F5F5F5F5F5F5F5F5F5F5F5F5F5F5F5F5F5F5F5F5F5E2F5F5F5F5F5F5F5F5F5
310
F5F5F5F5F5F5F5E2F5F5F5F5E2E2F5F5F5F5E2F5F5F5F5F5F5F5F5F5F5F5F5F5F5F5F5E2F5F5F5F5F5F5F5F5F5F5F5F5F5F5F5F5F5F5F5F5F5F5F5F5F5F5F5F5F5F5F5F5F5F5F5F5F5F5F5F5F5F5F5F5F5F5F5F5F5F5F5F5F5F5F5F5F5F5F5F5F5F5F5F5F5F5F5F5F5F5F5F5F5F5F5F5F5F5F5F5F5F5F5F5F5F5F5F5F5F5F5
310
F5F5F5F5F5F5F5F5F5F5F5F5F5F5F5F5F5F5F5F5F5F5F5F5F5F5F5F5F5F5F5F5F5F5F5F5F5F5F5F5F5F5F5E2F5F5F5F5F5F5F5F5F5F5F5F5F5F5F5F5E2F5F5F5F5E2E2F5F5F5F5E2F5F5F5F5F5F5F5F5F5F5F5F5F5F5F5F5E2F5F5F5F5F5F5F5F5F5F5F5F5F5F5F5F5F5F5F5F5F5F5F5F5F5F5F5F5F5F5F5F5F5F5F5F5F5F5
310
F5F5F5F5F5F5F5F5F5F5F5F5F5F5F5F5F5F5F5F5F5F5F5F5F5F5F5F5F5F5F5F5F5F5F5F5F5F5F5F5F5F5F5F5F5F5F5F5F5F5F5F5F5F5F5F5F5F5F5F5F5F5F5F5F5F5F5F5F5F5F5F5F5F5F5F5F5F5F5F5F5F5F5F5F5F5F5F5F5F5F5F5F5F5F5F5E2F5F5F5F5F5F5F5F5F5F5F5F5F5F5F5F5E2F5F5F5F5E2E2F5F5F5F5E2F5F5
310
F5F5F5F5F5F5F5F5F5F5F5F5F5F5E2F5F5F5F5F5F5F5F5F5F5F5F5F5F5F5F5F5F5F5F5F5F5F5F5F5F5F5F5F5F5F5F5F5F5F5F5F5F5F5F5F5F5F5F5F5F5F5F5F5F5F5F5F5F5F5F5F5F5F5F5F5F5F5F5F5F5F5F5F5F5F5F5F5F5F5F5F5F5F5F5F5F5F5F5F5F5F5F5F5F5F5F5F5F5F5F5F5F5F5F5F5F5F5F5F5F5F5F5F5F5F5F5
310
F5F5F5F5F5F5F5F5F5F5F5F5F5F5F5F5F5F5F5F5F5F5E2F5F5F5F5F5F5F5F5F5F5F5F5F5F5F5F5E2F5F5F5F5E2E2F5F5F5F5F5F5F5F5F5F5F5F5F5F5F5F5F5F5F5F5F5E2F5F5F5F5F5F5F5F5F5F5F5F5F5F5F5F5F5F5F5F5F5F5F5F5F5F5F5F5F5F5F5F5F5F5F5F5F5F5F5F5F5F5F5F5F5F5F5F5F5F5F5F5F5F5F5F5F5F5F5
310
F5F5F5F5F5F5F5F5F5F5F5F5F5F5F5F5F5F5F5F5F5F5F5F5F5F5F5F5F5F5F5F5F5F5F5F5F5F5F5F5F5F5F5F5F5F5F5F5F5F5F5F5F5F5F5F5F5F5F5F5F5F5F5F5F5F5F5F5F5F5F5F5F5F5F5E2F5F5F5F5F5F5F5F5F5F5F5F5F5F5F5F5F5F5F5F5F5E2E2F5F5F5F5F5F5F5F5F5F5F5F5F5F5F5F5F5F5F5F5F5E2F5F5F5F5F5F5
310
F5F5F5F5F5F5F5F5F5F5F5F5F5F5F5F5F5F5F5F5F5F5F5F5F5F5F5F5F5F5F5F5F5F5F5F5F5F5F5F5F5F5F5F5F5F5F5F5F5F5F5F5F5F5F5F5F5F5F5F5F5F5F5F5F5F5F5F5F5F5F5F5F5F5F5F5F5F5F5F5F5F5F5F5F5F5F5F5F5F5F5F5F5F5F5F5F5F5F5F5F5F5F5F5F5F5F5F5F5F5F5F5F5F5F5F5F5F5F5F5F5F5F5F5F5F5F5
310
F5E2F5F5F5F5F5F5F5F5F5F5F5F5F5F5F5F5F5F5F5F5F5E2E2F5F5F5F5F5F5F5F5F5F5F5F5F5F5F5F5F5F5F5F5F5E2F5F5F5F5F5F5F5F5F5F5F5F5F5F5F5F5F5F5F5F5F5F5F5F5F5F5F5F5F5F5F5F5F5F5F5F5F5F5F5F5F5F5F5F5F5F5F5F5F5F5F5F5F5F5F5F5F5F5F5F5F5F5F5F5F5F5F5F5F5F5F5F5F5F5F5F5F5F5F5F5
310
F5F5F5F5F5F5F5F5F5F5F5F5F5F5F5F5F5F5F5F5F5F5F5F5F5F5F5F5F5F5F5F5F5F5F5F5F5F5F5F5F5F5F5F5F5F5F5F5F5F5F5F5F5F5E2F5F5F5F5F5F5F5F5F5F5F5F5F5F5F5F5F5F5F5F5F5E2E2F5F5F5F5F5F5F5F5F5F5F5F5F5F5F5F5F5F5F5F5F5E2F5F5F5F5F5F5F5F5F5F5F5F5F5F5F5F5F5F5F5F5F5F5F5F5F5F5F5
310
F5F5F5F5F5F5F5F5F5F5F5F5F5F5F5F5F5F5F5F5F5F5F5F5F5F5F5F5F5F5F5F5F5F5F5F5F5F5F5F5F5F5F5F5F5F5F5F5F5F5F5F5F5F5F5F5F5F5F5F5F5F5F5F5F5F5F5F5F5F5F5F5F5F5F5F5F5F5F5F5F5F5F5F5F5F5F5F5F5F5F5F5F5F5F5F5F5F5F5F5F5F5F5F5F5F5F5E2F5F5F5F5F5F5F5F5F5F5F5F5F5F5F5F5F5F5F5
310
F5F5E2E2F5F5F5F5F5F5F5F5F5F5F5F5F5F5F5F5F5F5F5F5F5E2F5F5F5F5F5F5F5F5F5F5F5F5F5F5F5F5F5F5F5F5F5F5F5F5F5F5F5F5F5F5F5F5F5F5F5F5F5F5F5F5F5F5F5F5F5F5F5F5F5F5F5F5F5F5F5F5F5F5F5F5F5F5F5F5F5F5F5F5F5F5F5F5F5F5F5F5F5F5F5F5F5F5F5F5F5F5F5F5F5F5F5F5F5F5F5F5F5F5F5F5F5
310
F5F5F5F5F5F5F5F5F5F5F5F5F5F5F5F5F5F5F5F5F5F5F5F5F5F5F5F5F5F5F5F5F5E2F5F5F5F5F5F5F5F5F5F5F5F5F5F5F5F5F5F5F5F5F5E2E2F5F5F5F5F5F5F5F5F5F5F5F5F5F5F5F5F5F5F5F5F5E2F5F5F5F5F5F5F5F5F5F5F5F5F5F5F5F5F5F5F5F5F5F5F5F5F5F5F5F5F5F5F5F5F5F5F5F5F5F5F5F5F5F5F5F5F5F5F5F5
310
F5F5F5F5F5F5F5F5F5F5F5F5F5F5F5F5F5F5F5F5F5F5F5F5F5F5F5F5F5F5F5F5F5F5F5F5F5F5F5F5F5F5F5F5F5F5F5F5F5F5F5F5F5F5F5F5F5F5F5F5F5F5F5F5F5F5F5F5F5F5F5F5F5F5F5F5F5F5F5F5F5F5F5F5F5F5E2F5F5F5F5F5F5F5F5F5F5F5F5F5F5F5F5F5F5F5F5F5E2E2F5F5F5F5F5F5F5F5F5F5F5F5F5F5F5F5F5
310
F5F5F5F5E2F5F5F5F5F5F5F5F5F5F5F5F5F5F5F5F5F5F5F5F5F5F5F5F5F5F5F5F5F5F5F5F5F5F5F5F5F5F5F5F5F5F5F5F5F5F5F5F5F5F5F5F5F5F5F5F5F5F5F5F5F5F5F5F5F5F5F5F5F5F5F5F5F5F5F5F5F5F5F5F5F5F5F5F5F5F5F5F5F5F5F5F5F5F5F5F5F5F5F5F5F5F5F5F5F5F5F5F5F5F5F5F5F5F5F5F5F5F5F5F5F5F5
310
F5F5F5F5F5F5F5F5F5F5F5F5E2F5F5F5F5F5F5F5F5F5F5F5F5F5F5F5F5F5F5F5F5F5E2E2F5F5F5F5F5F5F5F5F5F5F5F5F5F5F5F5F5F5F5F5F5E2F5F5F5F5F5F5F5F5F5F5F5F5F5F5F5F5F5F5F5F5F5F5F5F5F5F5F5F5F5F5F5F5F5F5F5F5F5F5F5F5F5F5F5F5F5F5F5F5F5F5F5F5F5F5F5F5F5F5F5F5F5F5F5F5F5F5F5F5F5
310
F5F5F5F5F5F5F5F5F5F5F5F5F5F5F5F5F5F5F5F5F5F5F5F5F5F5F5F5F5F5F5F5F5F5F5F5F5F5F5F5F5F5F5F5F5F5F5F5F5F5F5F5F5F5F5F5F5F5F5F5F5F5F5F5F5E2F5F5F5F5F5F5F5F5F5F5F5F5F5F5F5F5F5F5F5F5F5E2E2F5F5F5F5F5F5F5F5F5F5F5F5F5F5F5F5F5F5F5F5F5E2F5F5F5F5F5F5F5F5F5F5F5F5F5F5F5F5
310
F5F5F5F5F5F5F5F5F5F5F5F5F5F5F5F5F5F5F5F5F5F5F5F5F5F5F5F5F5F5F5F5F5F5F5F5F5F5F5F5F5F5F5F5F5F5F5F5F5F5F5F5F5F5F5F5F5F5F5F5F5F5F5F5F5F5F5F5F5F5F5F5F5F5F5F5F5F5F5F5F5F5F5F5F5F5F5F5F5F5F5F5F5F5F5F5F5F5F5F5F5F5F5F5F5F5F5F5F5F5F5F5F5F5F5F5F5F5E2F5F5F5F5F5F5F5F5
310
F5F5F5F5F5F5F5F5F5F5F5F5F5E2E2F5F5F5F5E2F5F5F5F5F5F5F5F5F5F5F5F5F5F5F5F5E2F5F5F5F5F5F5F5F5F5F5F5F5F5F5F5F5F5F5F5F5F5F5F5F5F5F5F5F5F5F5F5F5F5F5F5F5F5F5F5F5F5F5F5F5F5F5F5F5F5F5F5F5F5F5F5F5F5F5F5F5F5F5F5F5F5F5F5F5F5F5F5F5F5F5F5F5F5F5F5F5F5F5F5F5F5F5F5F5F5F5
310
F5F5F5F5F5F5F5F5F5F5F5F5F5F5F5F5F5F5F5F5F5F5F5F5F5F5F5F5F5F5F5F5F5F5F5F5F5F5F5F5F5F5F5F5E2F5F5F5F5F5F5F5F5F5F5F5F5F5F5F5F5E2F5F5F5F5E2E2F5F5F5F5E2F5F5F5F5F5F5F5F5F5F5F5F5F5F5F5F5E2F5F5F5F5F5F5F5F5F5F5F5F5F5F5F5F5F5F5F5F5F5F5F5F5F5F5F5F5F5F5F5F5F5F5F5F5F5
310
F5F5F5F5F5F5F5F5F5F5F5F5F5F5F5F5F5F5F5F5F5F5F5F5F5F5F5F5F5F5F5F5F5F5F5F5F5F5F5F5F5F5F5F5F5F5F5F5F5F5F5F5F5F5F5F5F5F5F5F5F5F5F5F5F5F5F5F5F5F5F5F5F5F5F5F5F5F5F5F5F5F5F5F5F5F5F5F5F5F5F5F5F5F5F5F5F5E2F5F5F5F5F5F5F5F5F5F5F5F5F5F5F5F5E2F5F5F5F5E2E2F5F5F5F5E2F5
310
F5F5F5F5F5F5F5F5F5F5F5F5F5F5F5E2F5F5F5F5F5F5F5F5F5F5F5F5F5F5F5F5F5F5F5F5F5F5F5F5F5F5F5F5F5F5F5F5F5F5F5F5F5F5F5F5F5F5F5F5F5F5F5F5F5F5F5F5F5F5F5F5F5F5F5F5F5F5F5F5F5F5F5F5F5F5F5F5F5F5F5F5F5F5F5F5F5F5F5F5F5F5F5F5F5F5F5F5F5F5F5F5F5F5F5F5F5F5F5F5F5F5F5F5F5F5F5
310
F5F5F5F5F5F5F5F5F5F5F5F5F5F5F5F5F5F5F5F5F5F5F5E2F5F5F5F5F5F5F5F5F5F5F5F5F5F5F5F5E2F5F5F5F5E2E2F5F5F5F5E2F5F5F5F5F5F5F5F5F5F5F5F5F5F5F5F5E2F5F5F5F5F5F5F5F5F5F5F5F5F5F5F5F5F5F5F5F5F5F5F5F5F5F5F5F5F5F5F5F5F5F5F5F5F5F5F5F5F5F5F5F5F5F5F5F5F5F5F5F5F5F5F5F5F5F5
310
F5F5F5F5F5F5F5F5F5F5F5F5F5F5F5F5F5F5F5F5F5F5F5F5F5F5F5F5F5F5F5F5F5F5F5F5F5F5F5F5F5F5F5F5F5F5F5F5F5F5F5F5F5F5F5F5F5F5F5F5F5F5F5F5F5F5F5F5F5F5F5F5F5F5F5F5E2F5F5F5F5F5F5F5F5F5F5F5F5F5F5F5F5E2F5F5F5F5E2E2F5F5F5F5E2F5F5F5F5F5F5F5F5F5F5F5F5F5F5F5F5E2F5F5F5F5F5
310
F5F5F5F5F5F5F5F5F5F5F5F5F5F5F5F5F5F5F5F5F5F5F5F5F5F5F5F5F5F5F5F5F5F5F5F5F5F5F5F5F5F5F5F5F5F5F5F5F5F5F5F5F5F5F5F5F5F5F5F5F5F5F5F5F5F5F5F5F5F5F5F5F5F5F5F5F5F5F5F5F5F5F5F5F5F5F5F5F5F5F5F5F5F5F5F5F5F5F5F5F5F5F5F5F5F5F5F5F5F5F5F5F5F5F5F5F5F5F5F5F5F5F5F5F5F5F5
310
F5F5E2F5F5F5F5F5F5F5F5F5F5F5F5F5F5F5F5E2F5F5F5F5E2E2F5F5F5F5E2F5F5F5F5F5F5F5F5F5F5F5F5F5F5F5F5E2F5F5F5F5F5F5F5F5F5F5F5F5F5F5F5F5F5F5F5F5F5F5F5F5F5F5F5F5F5F5F5F5F5F5F5F5F5F5F5F5F5F5F5F5F5F5F5F5F5F5F5F5F5F5F5F5F5F5F5F5F5F5F5F5F5F5F5F5F5F5F5F5F5F5F5F5F5F5F5
310
F5F5F5F5F5F5F5F5F5F5F5F5F5F5F5F5F5F5F5F5F5F5F5F5F5F5F5F5F5F5F5F5F5F5F5F5F5F5F5F5F5F5F5F5F5F5F5F5F5F5F5F5F5F5F5E2F5F5F5F5F5F5F5F5F5F5F5F5F5F5F5F5E2F5F5F5F5E2E2F5F5F5F5E2F5F5F5F5F5F5F5F5F5F5F5F5F5F5F5F5E2F5F5F5F5F5F5F5F5F5F5F5F5F5F5F5F5F5F5F5F5F5F5F5F5F5F5
310
F5F5F5F5F5F5F5F5F5F5F5F5F5F5F5F5F5F5F5F5F5F5F5F5F5F5F5F5F5F5F5F5F5F5F5F5F5F5F5F5F5F5F5F5F5F5F5F5F5F5F5F5F5F5F5F5F5F5F5F5F5F5F5F5F5F5F5F5F5F5F5F5F5F5F5F5F5F5F5F5F5F5F5F5F5F5F5F5F5F5F5F5F5F5F5F5F5F5F5F5F5F5F5F5F5F5F5F5E2F5F5F5F5F5F5F5F5F5F5F5F5F5F5F5F5E2F5
310
F5F5F5E2E2F5F5F5F5E2F5F5F5F5F5F5F5F5F5F5F5F5F5F5F5F5E2F5F5F5F5F5F5F5F5F5F5F5F5F5F5F5F5F5F5F5F5F5F5F5F5F5F5F5F5F5F5F5F5F5F5F5F5F5F5F5F5F5F5F5F5F5F5F5F5F5F5F5F5F5F5F5F5F5F5F5F5F5F5F5F5F5F5F5F5F5F5F5F5F5F5F5F5F5F5F5F5F5F5F5F5F5F5F5F5F5F5F5F5F5F5F5F5F5F5F5F5
310
F5F5F5F5F5F5F5F5F5F5F5F5F5F5F5F5F5F5F5F5F5F5F5F5F5F5F5F5F5F5F5F5F5F5E2F5F5F5F5F5F5F5F5F5F5F5F5F5F5F5F5E2F5F5F5F5E2E2F5F5F5F5E2F5F5F5F5F5F5F5F5F5F5F5F5F5F5F5F5E2F5F5F5F5F5F5F5F5F5F5F5F5F5F5F5F5F5F5F5F5F5F5F5F5F5F5F5F5F5F5F5F5F5F5F5F5F5F5F5F5F5F5F5F5F5F5F5
310
F5F5F5F5F5F5F5F5F5F5F5F5F5F5F5F5F5F5F5F5F5F5F5F5F5F5F5F5F5F5F5F5F5F5F5F5F5F5F5F5F5F5F5F5F5F5F5F5F5F5F5F5F5F5F5F5F5F5F5F5F5F5F5F5F5F5F5F5F5F5F5F5F5F5F5F5F5F5F5F5F5F5F5F5F5F5F5E2F5F5F5F5F5F5F5F5F5F5F5F5F5F5F5F5E2F5F5F5F5E2E2F5F5F5F5E2F5F5F5F5F5F5F5F5F5F5F5
310
F5F5F5F5F5E2F5F5F5F5F5F5F5F5F5F5F5F5F5F5F5F5F5F5F5F5F5F5F5F5F5F5F5F5F5F5F5F5F5F5F5F5F5F5F5F5F5F5F5F5F5F5F5F5F5F5F5F5F5F5F5F5F5F5F5F5F5F5F5F5F5F5F5F5F5F5F5F5F5F5F5F5F5F5F5F5F5F5F5F5F5F5F5F5F5F5F5F5F5F5F5F5F5F5F5F5F5F5F5F5F5F5F5F5F5F5F5F5F5F5F5F5F5F5F5F5F5
310
F5F5F5F5F5F5F5F5F5F5F5F5F5E2F5F5F5F5F5F5F5F5F5F5F5F5F5F5F5F5E2F5F5F5F5E2E2F5F5F5F5E2F5F5F5F5F5F5F5F5F5F5F5F5F5F5F5F5E2F5F5F5F5F5F5F5F5F5F5F5F5F5F5F5F5F5F5F5F5F5F5F5F5F5F5F5F5F5F5F5F5F5F5F5F5F5F5F5F5F5F5F5F5F5F5F5F5F5F5F5F5F5F5F5F5F5F5F5F5F5F5F5F5F5F5F5F5
310
F5F5F5F5F5F5F5F5F5F5F5F5F5F5F5F5F5F5F5F5F5F5F5F5F5F5F5F5F5F5F5F5F5F5F5F5F5F5F5F5F5F5F5F5F5F5F5F5F5F5F5F5F5F5F5F5F5F5F5F5F5F5F5F5F5F5E2F5F5F5F5F5F5F5F5F5F5F5F5F5F5F5F5E2F5F5F5F5E2E2F5F5F5F5E2F5F5F5F5F5F5F5F5F5F5F5F5F5F5F5F5E2F5F5F5F5F5F5F5F5F5F5F5F5F5F5F5
310
F5F5F5F5F5F5F5F5F5F5F5F5F5F5F5F5F5F5F5F5F5F5F5F5F5F5F5F5F5F5F5F5F5F5F5F5F5F5F5F5F5F5F5F5F5F5F5F5F5F5F5F5F5F5F5F5F5F5F5F5F5F5F5F5F5F5F5F5F5F5F5F5F5F5F5F5F5F5F5F5F5F5F5F5F5F5F5F5F5F5F5F5F5F5F5F5F5F5F5F5F5F5F5F5F5F5F5F5F5F5F5F5F5F5F5F5F5F5F5E2F5F5F5F5F5F5F5
310
F5F5F5F5F5F5F5F5F5E2F5F5F5F5E2E2F5F5F5F5E2F5F5F5F5F5F5F5F5F5F5F5F5F5F5F5F5E2F5F5F5F5F5F5F5F5F5F5F5F5F5F5F5F5F5F5F5F5F5F5F5F5F5F5F5F5F5F5F5F5F5F5F5F5F5F5F5F5F5F5F5F5F5F5F5F5F5F5F5F5F5F5F5F5F5F5F5F5F5F5F5F5F5F5F5F5F5F5F5F5F5F5F5F5F5F5F5F5F5F5F5F5F5F5F5F5F5
310
F5F5F5F5F5F5F5F5F5F5F5F5F5F5F5F5F5F5F5F5F5F5F5F5F5F5F5F5F5F5F5F5F5F5F5F5F5F5F5F5F5F5F5F5F5E2F5F5F5F5F5F5F5F5F5F5F5F5F5F5F5F5E2F5F5F5F5E2E2F5F5F5F5E2F5F5F5F5F5F5F5F5F5F5F5F5F5F5F5F5E2F5F5F5F5F5F5F5F5F5F5F5F5F5F5F5F5F5F5F5F5F5F5F5F5F5F5F5F5F5F5F5F5F5F5F5F5
310
F5F5F5F5F5F5F5F5F5F5F5F5F5F5F5F5F5F5F5F5F5F5F5F5F5F5F5F5F5F5F5F5F5F5F5F5F5F5F5F5F5F5F5F5F5F5F5F5F5F5F5F5F5F5F5F5F5F5F5F5F5F5F5F5F5F5F5F5F5F5F5F5F5F5F5F5F5F5F5F5F5F5F5F5F5F5F5F5F5F5F5F5F5F5F5F5F5F5E2F5F5F5F5F5F5F5F5F5F5F5F5F5F5F5F5E2F5F5F5F5E2E2F5F5F5F5E2
310
F5F5F5F5F5F5F5F5F5F5F5F5F5F5F5F5E2F5F5F5F5F5F5F5F5F5F5F5F5F5F5F5F5F5F5F5F5F5F5F5F5F5F5F5F5F5F5F5F5F5F5F5F5F5F5F5F5F5F5F5F5F5F5F5F5F5F5F5F5F5F5F5F5F5F5F5F5F5F5F5F5F5F5F5F5F5F5F5F5F5F5F5F5F5F5F5F5F5F5F5F5F5F5F5F5F5F5F5F5F5F5F5F5F5F5F5F5F5F5F5F5F5F5F5F5F5F5
310
F5F5F5F5F5F5F5F5F5F5F5F5F5F5F5F5F5F5F5F5F5F5F5F5E2F5F5F5F5F5F5F5F5F5F5F5F5F5F5F5F5E2F5F5F5F5E2E2F5F5F5F5E2F5F5F5F5F5F5F5F5F5F5F5F5F5F5F5F5E2F5F5F5F5F5F5F5F5F5F5F5F5F5F5F5F5F5F5F5F5F5F5F5F5F5F5F5F5F5F5F5F5F5F5F5F5F5F5F5F5F5F5F5F5F5F5F5F5F5F5F5F5F5F5F5F5F5
310
F5F5F5F5F5F5F5F5F5F5F5F5F5F5F5F5F5F5F5F5F5F5F5F5F5F5F5F5F5F5F5F5F5F5F5F5F5F5F5F5F5F5F5F5F5F5F5F5F5F5F5F5F5F5F5F5F5F5F5F5F5F5F5F5F5F5F5F5F5F5F5F5F5F5F5F5F5E2F5F5F5F5F5F5F5F5F5F5F5F5F5F5F5F5E2F5F5F5F5E2E2F5F5F5F5E2F5F5F5F5F5F5F5F5F5F5F5F5F5F5F5F5E2F5F5F5F5
310
F5F5F5F5F5F5F5F5F5F5F5F5F5F5F5F5F5F5F5F5F5F5F5F5F5F5F5F5F5F5F5F5F5F5F5F5F5F5F5F5F5F5F5F5F5F5F5F5F5F5F5F5F5F5F5F5F5F5F5F5F5F5F5F5F5F5F5F5F5F5F5F5F5F5F5F5F5F5F5F5F5F5F5F5F5F5F5F5F5F5F5F5F5F5F5F5F5F5F5F5F5F5F5F5F5F5F5F5F5F5F5F5F5F5F5F5F5F5F5F5F5F5F5F5F5F5F5
310
F5F5F5E2F5F5F5F5F5F5F5F5F5F5F5F5F5F5F5F5E2F5F5F5F5E2E2F5F5F5F5F5F5F5F5F5F5F5F5F5F5F5F5F5F5F5F5F5E2F5F5F5F5F5F5F5F5F5F5F5F5F5F5F5F5F5F5F5F5F5F5F5F5F5F5F5F5F5F5F5F5F5F5F5F5F5F5F5F5F5F5F5F5F5F5F5F5F5F5F5F5F5F5F5F5F5F5F5F5F5F5F5F5F5F5F5F5F5F5F5F5F5F5F5F5F5F5
310
F5F5F5F5F5F5F5F5F5F5F5F5F5F5F5F5F5F5F5F5F5F5F5F5F5F5F5F5F5F5F5F5F5F5F5F5F5F5F5F5F5F5F5F5F5F5F5F5F5F5F5F5F5F5F5F5E2F5F5F5F5F5F5F5F5F5F5F5F5F5F5F5F5F5F5F5F5F5E2E2F5F5F5F5F5F5F5F5F5F5F5F5F5F5F5F5F5F5F5F5F5E2F5F5F5F5F5F5F5F5F5F5F5F5F5F5F5F5F5F5F5F5F5F5F5F5F5
310
F5F5F5F5F5F5F5F5F5F5F5F5F5F5F5F5F5F5F5F5F5F5F5F5F5F5F5F5F5F5F5F5F5F5F5F5F5F5F5F5F5F5F5F5F5F5F5F5F5F5F5F5F5F5F5F5F5F5F5F5F5F5F5F5F5F5F5F5F5F5F5F5F5F5F5F5F5F5F5F5F5F5F5F5F5F5F5F5F5F5F5F5F5F5F5F5F5F5F5F5F5F5F5F5F5F5F5F5F5E2F5F5F5F5F5F5F5F5F5F5F5F5F5F5F5F5F5
310
F5F5F5F5E2E2F5F5F5F5F5F5F5F5F5F5F5F5F5F5F5F5F5F5F5F5F5E2F5F5F5F5F5F5F5F5F5F5F5F5F5F5F5F5F5F5F5F5F5F5F5F5F5F5F5F5F5F5F5F5F5F5F5F5F5F5F5F5F5F5F5F5F5F5F5F5F5F5F5F5F5F5F5F5F5F5F5F5F5F5F5F5F5F5F5F5F5F5F5F5F5F5F5F5F5F5F5F5F5F5F5F5F5F5F5F5F5F5F5F5F5F5F5F5F5F5F5
310
F5F5F5F5F5F5F5F5F5F5F5F5F5F5F5F5F5F5F5F5F5F5F5F5F5F5F5F5F5F5F5F5F5F5F5E2F5F5F5F5F5F5F5F5F5F5F5F5F5F5F5F5F5F5F5F5F5E2E2F5F5F5F5F5F5F5F5F5F5F5F5F5F5F5F5F5F5F5F5F5E2F5F5F5F5F5F5F5F5F5F5F5F5F5F5F5F5F5F5F5F5F5F5F5F5F5F5F5F5F5F5F5F5F5F5F5F5F5F5F5F5F5F5F5F5F5F5
310
F5F5F5F5F5F5F5F5F5F5F5F5F5F5F5F5F5F5F5F5F5F5F5F5F5F5F5F5F5F5F5F5F5F5F5F5F5F5F5F5F5F5F5F5F5F5F5F5F5F5F5F5F5F5F5F5F5F5F5F5F5F5F5F5F5F5F5F5F5F5F5F5F5F5F5F5F5F5F5F5F5F5F5F5F5F5F5F5E2F5F5F5F5F5F5F5F5F5F5F5F5F5F5F5F5F5F5F5F5F5E2E2F5F5F5F5F5F5F5F5F5F5F5F5F5F5F5
310
F5F5F5F5F5F5E2E2E2E2E2E2E2E2E2E2E2E2E2E2E2E2E2E2E2E2E2E2E2E2E2E2E2E2E2E2E2E2E2E2E2E2E2E2E2E2E2E2E2E2E2E2E2E2E2E2E2E2E2E2E2E2E2E2E2E2E2E2E2E2E2E2E2E2E2E2E2E2E2E2E2E2E2E2E2E2E2E2E2E2E2E2E2E2E2E2E2E2E2E2E2E2E2E2E2E2E2E2E2E2E2E2E2E2E2E2E2E2E2E2E2E2E2E2E2E2E2
310
E2E2E2E2E2E2E2E2E2E2E2E2E2E2E2F5F5F5F5F5F5F5F5F5F5F5F5F5F5F5F5F5F5F5F5F5E2E2F5F5F5F5F5F5F5F5F5F5F5F5F5F5F5F5F5F5F5F5F5F5F5F5F5F5F5F5F5F5F5F5F5F5F5F5F5F5F5F5F5F5F5F5F5F5F5F5F5F5F5F5F5F5F5F5F5F5F5F5F5F5F5F5F5F5F5F5F5F5F5F5F5F5F5F5F5F5F5F5F5F5F5F5F5F5F5F5F5
310
F5F5F5F5F5F5F5F5F5F5F5F5F5F5F5F5F5F5F5F5F5F5F5F5F5F5F5F5F5F5F5F5F5F5F5F5F5F5F5F5F5F5F5F5F5F5F5F5F5F5F5F5F5F5F5F5F5F5F5F5F5F5F5F5F5F5F5F5F5F5F5F5F5F5F5F5F5F5F5F5F5F5F5F5F5F5F5F5F5E2E2F5F5F5F5F5F5F5F5F5F5F5F5F5F5F5F5F5F5F5F5F5F5F5F5F5F5F5F5F5F5F5F5F5F5F5F5
310
F5F5F5F5F5F5F5F5F5F5F5F5F5F5F5F5F5F5F5F5F5F5F5F5F5F5F5F5F5F5F5F5F5F5F5F5F5F5F5F5F5F5F5F5F5F5F5F5F5F5F5F5F5F5F5F5F5F5F5F5F5F5F5F5F5F5F5F5F5F5F5F5F5F5F5F5F5F5F5F5F5F5F5F5F5F5F5F5F5F5F5F5F5F5F5F5F5F5F5F5F5F5F5F5F5F5F5F5F5F5F5F5F5F5F5F5F5F5F5F5F5F5F5F5F5F5F5
310
F5F5F5F5F5F5F5F5F5F5F5F5F5F5F5E2E2F5F5F5F5F5F5F5F5F5F5F5F5F5F5F5F5F5F5F5F5F5F5F5F5F5F5F5F5F5F5F5F5F5F5F5F5F5F5F5F5F5F5F5F5F5F5F5F5F5F5F5F5F5F5F5F5F5F5F5F5F5F5F5F5F5F5F5F5F5F5F5F5F5F5F5F5F5F5F5F5F5F5F5F5F5F5F5F5F5F5F5F5F5F5F5F5F5F5F5F5F5F5F5F5F5F5F5F5F5F5
310
F5F5F5F5F5F5F5F5F5F5F5F5F5F5F5F5F5F5F5F5F5F5F5F5F5F5F5F5F5F5F5F5F5F5F5F5F5F5F5F5F5F5F5F5F5F5F5F5F5F5F5F5F5F5F5F5F5F5F5F5F5F5F5F5F5F5F5F5E2E2F5F5F5F5F5F5F5F5F5F5F5F5F5F5F5F5F5F5F5F5F5F5F5F5F5F5F5F5F5F5F5F5F5F5F5F5F5F5F5F5F5F5F5F5F5F5F5F5F5F5F5F5F5F5F5F5F5
310
F5F5F5F5F5F5F5F5F5F5F5F5F5F5F5F5F5F5F5F5F5F5F5F5F5F5F5F5F5F5F5F5F5F5F5F5F5F5F5F5F5F5F5F5F5F5F5F5F5F5F5F5F5F5F5F5F5F5F5F5F5F5F5F5F5F5F5F5F5F5F5F5F5F5F5F5F5F5F5F5F5F5F5F5F5F5F5F5F5F5F5F5F5F5F5F5F5F5F5F5F5F5F5F5F5F5F5F5F5F5F5F5F5F5F5F5F5F5F5F5F5E2E2F5F5F5F5
310
E2F5F5F5F5F5F5F5F5F5F5F5F5F5F5F5F5F5F5F5F5F5F5F5F5F5F5F5F5F5F5F5F5F5F5F5F5F5F5F5F5F5F5F5F5F5F5F5F5F5F5F5F5F5F5F5F5F5F5F5F5F5F5F5F5F5F5F5F5F5F5F5F5F5F5F5F5F5F5F5F5F5F5F5F5F5F5F5F5F5F5F5F5F5F5F5F5F5F5F5F5F5F5F5F5F5F5F5F5F5F5F5F5F5F5F5F5F5F5F5F5F5F5F5F5F5F5
310
F5F5F5F5F5F5F5F5F5F5F5F5F5F5F5F5F5F5F5F5F5F5F5F5F5F5F5F5F5F5F5F5F5F5F5F5F5F5F5F5F5F5E2F5F5F5F5E2E2F5F5F5F5E2F5F5F5F5F5F5F5F5F5F5F5F5F5F5F5F5F5F5F5F5F5F5F5F5F5F5F5F5F5F5F5F5F5F5F5F5F5F5F5F5F5F5F5F5F5F5F5F5F5F5F5F5F5F5F5F5F5F5F5F5F5F5F5F5F5F5F5F5F5F5F5F5F5
310
F5F5F5F5F5F5F5F5F5F5F5F5F5F5F5F5F5F5F5F5F5F5F5F5F5F5F5F5F5F5F5F5F5F5F5F5F5F5F5F5F5F5F5F5F5F5F5F5F5F5F5F5F5F5F5F5F5F5F5F5F5F5F5F5F5F5F5F5F5F5F5F5F5F5F5F5F5F5F5F5F5F5F5F5F5F5F5F5F5F5F5F5F5F5F5E2F5F5F5F5E2E2F5F5F5F5E2F5F5F5F5F5F5F5F5F5F5F5F5F5F5F5F5F5F5F5F5
310
F5F5F5F5F5F5F5F5F5F5F5F5F5F5F5F5F5F5F5F5F5F5F5F5F5F5F5F5F5F5F5F5F5F5F5F5F5F5F5F5F5F5F5F5F5F5F5F5F5F5F5F5F5F5F5F5F5F5F5F5F5F5F5F5F5F5F5F5F5F5F5F5F5F5F5F5F5F5F5F5F5F5F5F5F5F5F5F5F5F5F5F5F5F5F5F5F5F5F5F5F5F5F5F5F5F5F5F5F5F5F5F5F5F5F5F5F5F5F5F5F5F5F5F5F5F5F5
310
F5F5F5F5F5F5F5F5F5F5F5F5F5F5F5F5F5F5F5F5F5E2F5F5F5F5E2E2F5F5F5F5E2F5F5F5F5F5F5F5F5F5F5F5F5F5F5F5F5F5F5F5F5F5F5F5F5F5F5F5F5F5F5F5F5F5F5F5F5F5F5F5F5F5F5F5F5F5F5F5F5F5F5F5F5F5F5F5F5F5F5F5F5F5F5F5F5F5F5F5F5F5F5F5F5F5F5F5F5F5F5F5F5F5F5F5F5F5F5F5F5F5F5F5F5F5F5
310
F5F5F5F5F5F5F5F5F5F5F5F5F5F5F5F5F5F5F5F5F5F5F5F5F5F5F5F5F5F5F5F5F5F5F5F5F5F5F5F5F5F5F5F5F5F5F5F5F5F5F5F5F5F5F5F5F5F5F5F5F5F5F5F5F5F5F5F5F5F5F5F5F5F5E2F5F5F5F5E2E2F5F5F5F5E2F5F5F5F5F5F5F5F5F5F5F5F5F5F5F5F5F5F5F5F5F5F5F5F5F5F5F5F5F5F5F5F5F5F5F5F5F5F5F5F5F5
310
F5F5F5F5F5F5F5F5F5F5F5F5F5F5F5F5F5F5F5F5F5F5F5F5F5F5F5F5F5F5F5F5F5F5F5F5F5F5F5F5F5F5F5F5F5F5F5F5F5F5F5F5F5F5F5F5F5F5F5F5F5F5F5F5F5F5F5F5F5F5F5F5F5F5F5F5F5F5F5F5F5F5F5F5F5F5F5F5F5F5F5F5F5F5F5F5F5F5F5F5F5F5F5F5F5F5F5F5F5F5F5F5F5F5F5F5F5F5F5F5F5F5F5F5F5F5F5
310
E2F5F5F5F5E2E2F5F5F5F5E2F5F5F5F5F5F5F5F5F5F5F5F5F5F5F5F5F5F5F5F5F5F5F5F5F5F5F5F5F5F5F5F5F5F5F5F5F5F5F5F5F5F5F5F5F5F5F5F5F5F5F5F5F5F5F5F5F5F5F5F5F5F5F5F5F5F5F5F5F5F5F5F5F5F5F5F5F5F5F5F5F5F5F5F5F5F5F5F5F5F5F5F5F5F5F5F5F5F5F5F5F5F5F5F5F5F5F5F5F5F5F5F5F5F5F5
310
F5F5F5F5F5F5F5F5F5F5F5F5F5F5F5F5F5F5F5F5F5F5F5F5F5F5F5F5F5F5F5F5F5F5F5F5F5F5F5F5F5F5F5F5F5F5F5F5F5F5F5F5F5E2F5F5F5F5E2E2F5F5F5F5E2F5F5F5F5F5F5F5F5F5F5F5F5F5F5F5F5F5F5F5F5F5F5F5F5F5F5F5F5F5F5F5F5F5F5F5F5F5F5F5F5F5F5F5F5F5F5F5F5F5F5F5F5F5F5F5F5F5F5F5F5F5F5
310
F5F5F5F5F5F5F5F5F5F5F5F5F5F5F5F5F5F5F5F5F5F5F5F5F5F5F5F5F5F5F5F5F5F5F5F5F5F5F5F5F5F5F5F5F5F5F5F5F5F5F5F5F5F5F5F5F5F5F5F5F5F5F5F5F5F5F5F5F5F5F5F5F5F5F5F5F5F5F5F5F5F5F5F5F5F5F5F5F5F5F5F5F5F5F5F5F5F5F5F5F5F5F5F5F5F5E2F5F5F5F5E2E2F5F5F5F5E2F5F5F5F5F5F5F5F5F5
310
F5F5F5F5F5F5F5F5F5F5F5F5F5F5F5F5F5F5F5F5F5F5F5F5F5F5F5F5F5F5F5F5F5F5F5F5F5F5F5F5F5F5F5F5F5F5F5F5F5F5F5F5F5F5F5F5F5F5F5F5F5F5F5F5F5F5F5F5F5F5F5F5F5F5F5F5F5F5F5F5F5F5F5F5F5F5F5F5F5F5F5F5F5F5F5F5F5F5F5F5F5F5F5F5F5F5F5F5F5F5F5F5F5F5F5F5F5F5F5F5F5F5F5F5F5F5F5
310
F5F5F5F5F5F5F5F5F5F5F5F5F5F5F5F5F5F5F5F5F5F5F5F5F5F5F5F5F5F5F5F5E2F5F5F5F5E2E2F5F5F5F5E2E2E2E2E2E2E2E2F5F5F5F5F5F5F5F5F5E2E2E2E2E2E2E2E2E2E2E2E2E2E2E2F5F5F5F5F5F5F5F5F5E2E2E2E2E2E2E2E2E2E2E2E2E2E2E2E2F5F5F5F5F5F5F5F5E2E2E2E2E2E2E2E2E2E2E2E2E2E2E2E2F5F5F5
310
F5F5F5F5F5E2E2E2E2E2E2E2E2E2E2E2E2E2E2E2E2F5F5F5F5F5F5F5F5E2E2E2E2E2E2E2E2E2E2E2E2E2E2E2E2F5F5F5F5F5F5F5F5F5E2E2E2E2E2E2E2E2E2E2E2E2E2E2E2F5F5F5F5F5F5F5F5F5E2E2E2E2E2E2E2E2F5F5F5F5E2E2F5F5F5F5F5F5F5F5F5F5F5F5F5F5F5F5F5F5F5F5F5F5F5F5F5F5F5F5F5F5F5F5F5F5F5
310
F5F5F5F5F5F5F5F5F5F5F5F5F5F5F5F5F5F5F5F5F5F5F5F5F5F5F5F5F5F5F5F5F5F5F5F5F5F5F5F5F5F5F5F5F5F5F5F5F5F5F5F5F5F5F5F5F5F5F5F5F5F5F5F5F5F5F5F5F5F5F5F5F5F5F5F5F5F5F5F5F5F5F5F5F5F5F5F5F5F5F5F5F5F5F5F5F5F5F5F5F5F5F5F5F5F5F5F5F5F5F5F5F5F5F5F5F5F5F5F5F5F5F5F5F5F5F5
310
F5F5F5F5F5F5F5F5F5F5F5F5F5F5F5F5E2E2F5F5F5F5F5F5F5F5F5F5F5F5F5F5F5F5F5F5F5F5F5F5F5F5F5F5F5F5F5F5F5F5F5F5F5F5F5F5F5F5F5F5F5F5F5F5F5F5F5F5F5F5F5F5F5F5F5F5F5F5F5F5F5F5F5F5F5F5F5F5F5F5F5F5F5F5F5F5F5F5F5F5F5F5F5F5F5F5F5F5F5F5F5F5F5F5F5F5F5F5F5F5F5F5F5F5F5F5F5
310
F5F5F5F5F5F5F5F5F5F5F5F5F5F5F5F5F5F5F5F5F5F5F5F5F5F5F5F5F5F5F5F5F5F5F5F5F5F5F5F5F5F5F5F5F5F5F5F5F5F5F5F5F5F5F5F5F5F5F5F5F5F5F5F5F5F5F5F5F5E2E2F5F5F5F5F5F5F5F5F5F5F5F5F5F5F5F5F5F5F5F5F5F5F5F5F5F5F5F5F5F5F5F5F5F5F5F5F5F5F5F5F5F5F5F5F5F5F5F5F5F5F5F5F5F5F5F5
310
F5F5F5F5F5F5F5F5F5F5F5F5F5F5F5F5F5F5F5F5F5F5F5F5F5F5F5F5F5F5F5F5F5F5F5F5F5F5F5F5F5F5F5F5F5F5F5F5F5F5F5F5F5F5F5F5F5F5F5F5F5F5F5F5F5F5F5F5F5F5F5F5F5F5F5F5F5F5F5F5F5F5F5F5F5F5F5F5F5F5F5F5F5F5F5F5F5F5F5F5F5F5F5F5F5F5F5F5F5F5F5F5F5F5F5F5F5F5F5F5F5F5E2E2E2E2E2
310
E2E2E2E2E2E2E2E2E2E2E2E2E2E2E2E2E2E2E2E2E2E2E2E2E2E2E2E2E2E2E2E2E2E2E2E2E2E2E2E2E2E2E2E2E2E2E2E2E2E2E2E2E2E2E2E2E2E2E2E2E2E2E2E2E2E2E2E2E2E2E2E2E2E2E2E2E2E2E2E2E2E2E2E2E2E2E2E2E2E2E2E2E2E2E2E2E2E2E2E2E2E2E2E2E2E2E2E2E2E2E2E2E2E2E2E2E2E2E2E2E2E2E2E2E2E2E2
310
E2E2E2E2E2E2E2E2E2E2E2E2E2E2E2E2E2E2E2E2E2E2E2E2E2E2E2E2E2E2E2E2E2E2E2E2E2E2E2E2E2E2E2E2E2E2E2E2E2
  0
XRECORD
  5
55EF9
102
{ACAD_REACTORS
330
B5
102
}
330
B5
100
AcDbXrecord
280
     1
102
SHADEPLOT
 70
     0
102
SHADEPLOTRESLEVEL
 70
     2
102
SHADEPLOTCUSTOMDPI
 70
   300
  0
XRECORD
  5
B6
102
{ACAD_REACTORS
330
B5
102
}
330
B5
100
AcDbXrecord
280
     1
310
28000000B40000008B0000000100080000000000BC610000000000000000000000010000000000000000000000000000FFFFFF000000000000000000000000000000000000000000000000000000000000000000330000006600000099000000CC000000FF00000000330000333300006633000099330000CC330000FF3300
310
0000660000336600006666000099660000CC660000FF66000000990000339900006699000099990000CC990000FF99000000CC000033CC000066CC000099CC0000CCCC0000FFCC000000FF000033FF000066FF000099FF0000CCFF0000FFFF000000003300330033006600330099003300CC003300FF003300003333003333
310
33006633330099333300CC333300FF33330000663300336633006666330099663300CC663300FF66330000993300339933006699330099993300CC993300FF99330000CC330033CC330066CC330099CC3300CCCC3300FFCC330000FF330033FF330066FF330099FF3300CCFF3300FFFF330000006600330066006600660099
310
006600CC006600FF00660000336600333366006633660099336600CC336600FF33660000666600336666006666660099666600CC666600FF66660000996600339966006699660099996600CC996600FF99660000CC660033CC660066CC660099CC6600CCCC6600FFCC660000FF660033FF660066FF660099FF6600CCFF6600
310
FFFF660000009900330099006600990099009900CC009900FF00990000339900333399006633990099339900CC339900FF33990000669900336699006666990099669900CC669900FF66990000999900339999006699990099999900CC999900FF99990000CC990033CC990066CC990099CC9900CCCC9900FFCC990000FF99
310
0033FF990066FF990099FF9900CCFF9900FFFF99000000CC003300CC006600CC009900CC00CC00CC00FF00CC000033CC003333CC006633CC009933CC00CC33CC00FF33CC000066CC003366CC006666CC009966CC00CC66CC00FF66CC000099CC003399CC006699CC009999CC00CC99CC00FF99CC0000CCCC0033CCCC0066CC
310
CC0099CCCC00CCCCCC00FFCCCC0000FFCC0033FFCC0066FFCC0099FFCC00CCFFCC00FFFFCC000000FF003300FF006600FF009900FF00CC00FF00FF00FF000033FF003333FF006633FF009933FF00CC33FF00FF33FF000066FF003366FF006666FF009966FF00CC66FF00FF66FF000099FF003399FF006699FF009999FF00CC
310
99FF00FF99FF0000CCFF0033CCFF0066CCFF0099CCFF00CCCCFF00FFCCFF0000FFFF0033FFFF0066FFFF0099FFFF00CCFFFF00FFFFFF00000000000D0D0D001A1A1A00282828003535350043434300505050005D5D5D006B6B6B00787878008686860093939300A1A1A100AEAEAE00BBBBBB00C9C9C900D6D6D600E4E4E400
310
F1F1F100FFFFFF0000000000000000000000000000000000000000000000000000000000000000000000000000000000F5F5F5F5F5F5F5F5F5F5F5F5F5F5F5F5F5F5F5F5F5F5F5F5F5F5F5F5F5F5F5F5F5F5F5F5F5F5F5F5F5F5F5F5F5F5F5F5F5F5F5F5F5F5F5F5F5F5F5F5F5F5F5F5F5F5F5F5F5F5F5F5F5F5F5F5F5F5F5
310
F5F5F5F5F5F5F5F5F5F5F5F5F5F5F5F5F5F5F5F5F5F5F5F5F5F5F5F5F5F5F5F5F5F5F5F5F5F5F5F5F5F5F5F5F5F5F5F5F5F5F5F5F5F5F5F5F5F5F5F5F5F5F5F5F5F5F5F5F5F5F5F5F5F5F5F5F5F5F5F5F5F5F5F5F5F5F5F5F5F5F5F5F5F5F5F5F5F5F5F5F5F5E2E2E2E2E2E2E2E2E2E2E2E2E2E2E2E2E2E2E2E2E2E2E2E2E2
310
E2E2E2E2E2E2E2E2E2E2E2E2E2E2E2E2E2E2E2E2E2E2E2E2E2E2E2E2E2E2E2E2E2E2E2E2E2E2E2E2E2E2E2E2E2E2E2E2E2E2E2E2E2E2E2E2E2E2E2E2E2E2E2E2E2E2E2E2E2E2E2E2E2E2E2E2E2E2E2E2E2E2E2E2E2E2E2E2E2E2E2E2E2E2E2E2E2E2E2E2E2E2E2E2E2E2E2E2E2E2E2E2E2E2E2E2E2E2E2E2E2E2E2E2E2E2E2
310
E2E2E2E2E2E2E2E2E2E2E2E2E2E2E2E2E2E2E2E2E2E2E2E2E2E2F5F5E2E2E2E2E2E2E2E2E2E2E2E2E2E2E2E2E2E2E2E2E2E2E2E2E2E2E2E2E2E2E2E2E2E2E2E2E2E2E2E2E2E2E2E2E2E2E2E2E2E2E2E2E2E2E2E2E2E2E2E2E2E2E2E2E2E2E2E2E2E2E2E2E2E2E2E2E2E2E2E2E2E2E2E2E2E2E2E2E2E2E2E2E2E2E2E2E2E2E2
310
E2E2E2E2E2E2E2E2E2E2E2E2E2E2E2E2E2E2E2E2E2E2E2E2E2E2E2E2E2E2E2E2E2E2E2E2E2E2E2E2E2E2E2E2E2E2E2E2E2E2E2E2E2E2E2E2E2E2E2E2E2E2E2E2E2E2E2E2E2E2E2E2E2E2E2E2E2E2E2F5F5E2E2E2E2E2E2E2E2E2E2E2E2E2E2E2E2E2E2E2E2E2E2E2E2E2E2E2E2E2E2E2E2E2E2E2E2E2E2E2E2E2E2E2E2E2E2
310
E2E2E2E2E2E2E2E2E2E2E2E2E2E2E2E2E2E2E2E2E2E2E2E2E2E2E2E2E2E2E2E2E2E2E2E2E2E2E2E2E2E2E2E2E2E2E2E2E2E2E2E2E2E2E2E2E2E2E2E2E2E2E2E2E2E2E2E2E2E2E2E2E2E2E2E2E2E2E2E2E2E2E2E2E2E2E2E2E2E2E2E2E2E2E2E2E2E2E2E2E2E2E2E2E2E2E2E2E2E2E2E2E2E2E2E2E2E2E2E2E2E2E2E2E2E2E2
310
E2E2E2E2E2F5F5E2E2E2E2E2E2E2E2E2E2E2E2E2E2E2E2E2E2E2E2E2E2E2E2E2E2E2E2E2E2E2E2E2E2E2E2E2E2E2E2E2E2E2E2E2E2E2E2E2E2E2E2E2E2E2E2E2E2E2E2E2E2E2E2E2E2E2E2E2E2E2E2E2E2E2E2E2E2E2E2E2E2E2E2E2E2E2E2E2E2E2E2E2E2E2E2E2E2E2E2E2E2E2E2E2E2E2E2E2E2E2E2E2E2E2E2E2E2E2E2
310
E2E2E2E2E2E2E2E2E2E2E2E2E2E2E2E2E2E2E2E2E2E2E2E2E2E2E2E2E2E2E2E2E2E2E2E2E2E2E2E2E2E2E2E2E2E2E2E2E2E2E2E2E2E2E2E2E2E2F5F5E2E2E2F5F5F5F5F5F5F5F5E2E2E2E2E2E2E2E2E2F5F5F5F5F5F5F5F5F5F5F5F5F5F5F5F5E2E2E2E2E2E2E2E2E2F5F5F5F5F5F5F5F5F5F5F5F5F5F5F5E2E2E2E2E2E2E2
310
E2E2F5F5F5F5F5F5F5F5F5F5F5F5F5F5F5F5E2E2E2E2E2E2E2E2F5F5F5F5F5F5F5F5F5F5F5F5F5F5F5F5E2E2E2E2E2E2E2E2E2F5F5F5F5F5F5F5F5F5F5F5F5F5F5F5E2E2E2E2E2E2E2E2E2F5F5F5F5F5F5F5F5F5F5F5F5F5F5F5F5E2E2E2E2E2E2E2E2E2F5F5F5F5F5F5F5F5E2E2E2F5F5E2E2E2F5E2E2E2E2E2E2E2E2E2E2
310
E2E2E2E2E2E2E2E2E2E2E2E2E2E2E2E2E2E2E2E2E2E2E2E2E2E2E2E2E2E2E2E2E2E2E2E2E2E2E2E2E2E2E2E2E2E2E2E2E2E2E2E2E2E2E2E2E2E2E2E2E2E2E2E2E2E2E2E2E2E2E2E2E2E2E2E2E2E2E2E2E2E2E2E2E2E2E2E2E2E2E2E2E2E2E2E2E2E2E2E2E2E2E2E2E2E2E2E2E2E2E2E2E2E2E2E2E2E2E2E2E2E2E2E2E2E2E2
310
E2E2E2E2E2E2E2E2E2E2E2E2E2E2E2E2E2E2E2E2E2E2E2E2E2E2E2E2E2E2E2E2E2F5E2E2E2F5F5E2E2E2F5E2E2E2E2E2E2E2E2E2E2E2E2E2E2E2E2E2E2E2E2E2E2E2E2E2E2E2E2E2E2E2E2E2E2E2E2E2E2E2E2E2E2E2E2E2E2E2E2E2E2E2E2E2E2E2E2E2E2E2E2E2E2E2E2E2E2E2E2E2E2E2E2E2E2E2E2E2E2E2E2E2E2E2E2
310
E2E2E2E2E2E2E2E2E2E2E2E2E2E2E2E2E2E2E2E2E2E2E2E2E2E2E2E2E2E2E2E2E2E2E2E2E2E2E2E2E2E2E2E2E2E2E2E2E2E2E2E2E2E2E2E2E2E2E2E2E2E2E2E2E2E2E2E2E2E2E2E2E2E2E2E2E2E2E2E2E2E2E2E2E2E2F5E2E2E2F5F5E2E2E2F5E2E2E2E2E2E2E2E2E2E2E2E2E2E2E2E2E2E2E2E2E2E2E2E2E2E2E2E2E2E2E2
310
E2E2E2E2E2E2E2E2E2E2E2E2E2E2E2E2E2E2E2E2E2E2E2E2E2E2E2E2E2E2E2E2E2E2E2E2E2E2E2E2E2E2E2E2E2E2E2E2E2E2E2E2E2E2E2E2E2E2E2E2E2E2E2E2E2E2E2E2E2E2E2E2E2E2E2E2E2E2E2E2E2E2E2E2E2E2E2E2E2E2E2E2E2E2E2E2E2E2E2E2E2E2E2E2E2E2E2E2E2E2E2E2E2E2E2E2E2E2E2E2E2E2E2E2E2E2E2
310
E2E2E2E2E2E2E2E2E2E2E2E2F5E2E2E2F5F5E2E2E2F5E2E2E2E2E2E2E2E2E2E2E2E2E2E2E2E2E2E2E2E2E2E2E2E2E2E2E2E2E2E2E2E2E2E2E2E2E2E2E2E2E2E2E2E2E2E2E2E2E2E2E2E2E2E2E2E2E2E2E2E2E2E2E2E2E2E2E2E2E2E2E2E2E2E2E2E2E2E2E2E2E2E2E2E2E2E2E2E2E2E2E2E2E2E2E2E2E2E2E2E2E2E2E2E2E2
310
E2E2E2E2E2E2E2E2E2E2E2E2E2E2E2E2E2E2E2E2E2E2E2E2E2E2E2E2E2E2E2E2E2E2E2E2E2E2E2E2E2E2E2E2E2E2E2E2E2E2E2E2E2E2E2E2E2E2E2E2E2E2E2E2E2F5E2E2E2F5F5E2E2E2F5E2E2E2E2E2E2E2E2E2E2E2E2E2E2E2E2E2E2E2E2E2E2E2E2E2E2E2E2E2E2E2E2E2E2E2E2E2E2E2E2E2E2E2E2E2E2E2E2E2E2E2E2
310
E2E2E2E2E2E2E2E2E2E2E2E2E2E2E2E2E2E2E2E2E2E2E2E2E2E2E2E2E2E2E2E2E2E2E2E2E2E2E2E2E2E2E2E2E2E2E2E2E2E2E2E2E2E2E2E2E2E2E2E2E2E2E2E2E2E2E2E2E2E2E2E2E2E2E2E2E2E2E2E2E2E2E2E2E2E2E2E2E2E2E2E2E2E2E2E2E2E2E2E2E2E2E2E2E2E2E2E2E2E2E2E2E2E2E2E2E2E2F5E2E2E2F5F5E2E2E2
310
F5E2E2E2E2E2E2E2E2E2E2E2E2E2E2E2E2E2E2E2E2E2E2E2E2E2E2E2E2E2E2E2E2E2E2E2E2E2E2E2E2E2E2E2E2E2E2E2E2E2E2E2E2E2E2E2E2E2E2E2E2E2E2E2E2E2E2E2E2E2E2E2E2E2E2E2E2E2E2E2E2E2E2E2E2E2E2E2E2E2E2E2E2E2E2E2E2E2E2E2E2E2E2E2E2E2E2E2E2E2E2E2E2E2E2E2E2E2E2E2E2E2E2E2E2E2E2
310
E2E2E2E2E2E2E2E2E2E2E2E2E2E2E2E2E2E2E2E2E2E2E2E2E2E2E2E2E2E2E2E2E2E2E2E2E2E2E2E2E2E2E2E2F5E2E2E2F5F5E2E2E2F5E2E2E2E2E2E2E2E2E2E2E2E2E2E2E2E2E2E2E2E2E2E2E2E2E2E2E2E2E2E2E2E2E2E2E2E2E2E2E2E2E2E2E2E2E2E2E2E2E2E2E2E2E2E2E2E2E2E2E2E2E2E2E2E2E2E2E2E2E2E2E2E2E2
310
E2E2E2E2E2E2E2E2E2E2E2E2E2E2E2E2E2E2E2E2E2E2E2E2E2E2E2E2E2E2E2E2E2E2E2E2E2E2E2E2E2E2E2E2E2E2E2E2E2E2E2E2E2E2E2E2E2E2E2E2E2E2E2E2E2E2E2E2E2E2E2E2E2E2E2E2E2E2E2E2E2E2E2E2E2E2E2E2E2E2E2E2E2E2E2E2E2F5E2E2E2F5F5E2E2E2F5E2E2E2E2E2E2E2E2E2E2E2E2E2E2E2E2E2E2E2E2
310
E2E2E2E2E2E2E2E2E2E2E2E2E2E2E2E2E2E2E2E2E2E2E2E2E2E2E2E2E2E2E2E2E2E2E2E2E2E2E2E2E2E2E2E2E2E2E2E2E2E2E2E2E2E2E2E2E2E2E2E2E2E2E2E2E2E2E2E2E2E2E2E2E2E2E2E2E2E2E2E2E2E2E2E2E2E2E2E2E2E2E2E2E2E2E2E2E2E2E2E2E2E2E2E2E2E2E2E2E2E2E2E2E2E2E2E2E2E2E2E2E2E2E2E2E2E2E2
310
E2E2E2E2E2E2E2E2E2E2E2E2E2E2E2E2E2E2E2E2E2E2E2F5E2E2E2F5F5E2E2E2E2E2E2E2E2E2E2E2E2E2E2E2E2E2E2E2E2E2E2E2E2E2E2E2E2E2E2E2E2E2E2E2E2E2E2E2E2E2E2E2E2E2E2E2E2E2E2E2E2E2E2E2E2E2E2E2E2E2E2E2E2E2E2E2E2E2E2E2E2E2E2E2E2E2E2E2E2E2E2E2E2E2E2E2E2E2E2E2E2E2E2E2E2E2E2
310
E2E2E2E2E2E2E2E2E2E2E2E2E2E2E2E2E2E2E2E2E2E2E2E2E2E2E2E2E2E2E2E2E2E2E2E2E2E2E2E2E2E2E2E2E2E2E2E2E2E2E2E2E2E2E2E2E2E2E2E2E2E2E2E2E2E2E2E2E2E2E2E2E2E2E2E2E2E2E2E2F5F5E2E2E2E2E2E2E2E2E2E2E2E2E2E2E2E2E2E2E2E2E2E2E2E2E2E2E2E2E2E2E2E2E2E2E2E2E2E2E2E2E2E2E2E2E2
310
E2E2E2E2E2E2E2E2E2E2E2E2E2E2E2E2E2E2E2E2E2E2E2E2E2E2E2E2E2E2E2E2E2E2E2E2E2E2E2E2E2E2E2E2E2E2E2E2E2E2E2E2E2E2E2E2E2E2E2E2E2E2E2E2E2E2E2E2E2E2E2E2E2E2E2E2E2E2E2E2E2E2E2E2E2E2E2E2E2E2E2E2E2E2E2E2E2E2E2E2E2E2E2E2E2E2E2E2E2E2E2E2E2E2E2E2E2E2E2E2E2E2E2E2E2E2E2
310
E2E2E2E2E2E2F5F5E2E2E2E2E2E2E2E2E2E2E2E2E2E2E2E2E2E2E2E2E2E2E2E2E2E2E2E2E2E2E2E2E2E2E2E2E2E2E2E2E2E2E2E2E2E2E2E2E2E2E2E2E2E2E2E2E2E2E2E2E2E2E2E2E2E2E2E2E2E2E2E2E2E2E2E2E2E2E2E2E2E2E2E2E2E2E2E2E2E2E2E2E2E2E2E2E2E2E2E2E2E2E2E2E2E2E2E2E2E2E2E2E2E2E2E2E2E2E2
310
E2E2E2E2E2E2E2E2E2E2E2E2E2E2E2E2E2E2E2E2E2E2E2E2E2E2E2E2E2E2E2E2E2E2E2E2E2E2E2E2E2E2E2E2E2E2E2E2E2E2E2E2E2E2E2E2E2E2E2F5F5E2E2E2E2E2E2E2E2E2E2E2E2E2E2E2E2E2E2E2E2E2E2E2E2E2E2E2E2E2E2E2E2E2E2E2E2E2E2E2E2E2E2E2E2E2E2E2E2E2E2E2E2E2E2E2E2E2E2E2E2E2E2E2E2E2E2
310
E2E2E2E2E2E2E2E2E2E2E2E2E2E2E2E2E2E2E2E2E2E2E2E2E2E2E2E2E2E2E2E2E2E2E2E2E2E2E2E2E2E2E2E2E2E2E2E2E2E2E2E2E2E2E2E2E2E2E2E2E2E2E2E2E2E2E2E2E2E2E2E2E2E2E2E2E2E2E2E2E2E2E2E2E2E2E2E2E2E2E2E2E2E2E2E2E2E2E2E2E2E2E2E2E2E2E2E2E2E2E2E2F5F5E2E2E2E2E2E2E2E2E2E2E2E2E2
310
E2E2E2E2E2E2E2F5F5F5F5F5F5F5F5F5F5F5F5F5F5F5F5F5F5F5F5F5F5F5F5F5F5F5F5F5F5F5F5F5F5F5F5F5F5F5F5F5F5F5F5F5F5F5F5F5F5F5F5F5F5F5F5F5F5F5F5F5F5F5F5F5F5F5F5F5F5F5F5F5F5F5F5F5F5F5F5F5F5F5F5F5F5F5F5F5F5F5F5F5F5F5F5F5F5F5F5F5F5F5F5F5F5F5F5F5F5F5F5F5F5F5F5F5F5F5F5
310
F5F5F5F5F5F5F5F5F5F5F5F5F5F5F5F5F5F5E2E2E2E2E2E2E2E2E2E2E2E2E2E2E2E2E2E2E2E2F5F5E2E2E2E2E2E2E2E2E2E2E2E2E2E2E2E2E2E2E2E2F5E2E2E2E2E2E2E2E2E2E2E2E2E2E2E2E2E2E2E2E2E2E2E2E2E2E2E2E2E2E2E2E2E2E2E2E2E2E2E2E2E2E2E2E2E2E2E2E2E2E2E2E2E2E2E2E2E2E2E2E2E2E2E2E2E2E2
310
E2E2E2E2E2E2E2E2E2E2E2E2E2E2E2E2E2E2E2E2E2E2E2E2E2E2E2E2E2E2E2E2E2E2E2E2E2E2E2E2E2E2E2E2E2E2E2E2E2E2E2E2E2E2E2E2E2E2E2E2E2E2E2E2E2E2E2E2E2E2F5E2E2E2E2E2E2E2E2E2E2E2E2E2E2E2E2E2E2E2E2F5F5E2E2E2E2E2E2E2E2E2E2E2E2E2E2E2E2E2E2E2E2F5E2E2E2E2E2E2E2E2E2E2E2E2E2
310
E2E2E2E2E2E2E2E2E2E2E2E2E2E2E2E2E2E2E2E2E2E2E2E2E2E2E2E2E2E2E2E2E2E2E2E2E2E2E2E2E2E2E2E2E2E2E2E2E2E2E2E2E2E2E2E2E2E2E2E2E2E2E2E2E2E2E2E2E2E2E2E2E2E2E2E2E2E2E2E2E2E2E2E2E2E2E2E2E2E2E2E2E2E2E2E2E2E2E2E2E2E2E2E2E2E2E2E2E2E2E2E2E2E2E2E2E2E2E2E2E2E2E2F5E2E2E2
310
E2E2E2E2E2E2E2E2E2E2E2E2E2E2E2E2E2F5F5E2E2E2E2E2E2E2E2E2E2E2E2E2E2E2E2E2E2E2E2F5E2E2E2E2E2E2E2E2E2E2E2E2E2E2E2E2E2E2E2E2E2E2E2E2E2E2E2E2E2E2E2E2E2E2E2E2E2E2E2E2E2E2E2E2E2E2E2E2E2E2E2E2E2E2E2E2E2E2E2E2E2E2E2E2E2E2E2E2E2E2E2E2E2E2E2E2E2E2E2E2E2E2E2E2E2E2E2
310
E2E2E2E2E2E2E2E2E2E2E2E2E2E2E2E2E2E2E2E2E2E2E2E2E2E2E2E2E2E2E2E2E2E2E2E2E2E2E2E2E2E2E2E2E2E2E2E2E2F5E2E2E2E2E2E2E2E2E2E2E2E2E2E2E2E2E2E2E2E2F5F5E2E2E2E2E2E2E2E2E2E2E2E2E2E2E2E2E2E2E2E2F5E2E2E2E2E2E2E2E2E2E2E2E2E2E2E2E2E2E2E2E2E2E2E2E2E2E2E2E2E2E2E2E2E2E2
310
E2E2E2E2E2E2E2E2E2E2E2E2E2E2E2E2E2E2E2E2E2E2E2E2E2E2E2E2E2E2E2E2E2E2E2E2E2E2E2E2E2E2E2E2E2E2E2E2E2E2E2E2E2E2E2E2E2E2E2E2E2E2E2E2E2E2E2E2E2E2E2E2E2E2E2E2E2E2E2E2E2E2E2E2E2E2E2E2E2E2E2E2E2E2E2E2E2E2E2E2E2E2F5E2E2E2E2E2E2E2E2E2E2E2E2E2E2E2E2E2E2E2E2F5F5E2E2
310
E2F5E2E2E2E2E2E2E2E2E2E2E2E2E2E2E2E2F5E2E2E2E2E2E2E2E2E2E2E2E2E2E2E2E2E2E2E2E2E2E2E2E2E2E2E2E2E2E2E2E2E2E2E2E2E2E2E2E2E2E2E2E2E2E2E2E2E2E2E2E2E2E2E2E2E2E2E2E2E2E2E2E2E2E2E2E2E2E2E2E2E2E2E2E2E2E2E2E2E2E2E2E2E2E2E2E2E2E2E2E2E2E2E2E2E2E2E2E2E2E2E2E2E2E2E2E2
310
E2E2E2E2E2E2E2E2E2E2E2E2E2E2E2E2E2E2E2E2E2E2E2E2E2E2E2E2F5E2E2E2E2E2E2E2E2E2E2E2E2E2E2E2E2F5E2E2E2F5F5E2E2E2F5E2E2E2E2E2E2E2E2E2E2E2E2E2E2E2E2F5E2E2E2E2E2E2E2E2E2E2E2E2E2E2E2E2E2E2E2E2E2E2E2E2E2E2E2E2E2E2E2E2E2E2E2E2E2E2E2E2E2E2E2E2E2E2E2E2E2E2E2E2E2E2E2
310
E2E2E2E2E2E2E2E2E2E2E2E2E2E2E2E2E2E2E2E2E2E2E2E2E2E2E2E2E2E2E2E2E2E2E2E2E2E2E2E2E2E2E2E2E2E2E2E2E2E2E2E2E2E2E2E2E2E2E2E2E2E2E2E2E2E2E2E2E2E2E2E2E2E2E2E2E2E2E2E2E2F5E2E2E2E2E2E2E2E2E2E2E2E2E2E2E2E2F5E2E2E2F5F5E2E2E2F5E2E2E2E2E2E2E2E2E2E2E2E2E2E2E2E2F5E2E2
310
E2E2E2E2E2E2E2E2E2E2E2E2E2E2E2E2E2E2E2E2E2E2E2E2E2E2E2E2E2E2E2E2E2E2E2E2E2E2E2E2E2E2E2E2E2E2E2E2E2E2E2E2E2E2E2E2E2E2E2E2E2E2E2E2E2E2E2E2E2E2E2E2E2E2E2E2E2E2E2E2E2E2E2E2E2E2E2E2E2E2E2E2E2E2E2E2E2E2E2E2E2E2E2E2E2E2E2E2E2E2E2E2E2E2E2E2E2E2E2E2E2E2E2E2E2E2E2
310
E2E2E2E2E2E2E2F5E2E2E2E2E2E2E2E2E2E2E2E2E2E2E2E2F5E2E2E2F5F5E2E2E2F5E2E2E2E2E2E2E2E2E2E2E2E2E2E2E2E2F5E2E2E2E2E2E2E2E2E2E2E2E2E2E2E2E2E2E2E2E2E2E2E2E2E2E2E2E2E2E2E2E2E2E2E2E2E2E2E2E2E2E2E2E2E2E2E2E2E2E2E2E2E2E2E2E2E2E2E2E2E2E2E2E2E2E2E2E2E2E2E2E2E2E2E2E2
310
E2E2E2E2E2E2E2E2E2E2E2E2E2E2E2E2E2E2E2E2E2E2E2E2E2E2E2E2E2E2E2E2E2E2E2E2E2E2E2E2E2E2E2E2E2E2E2E2E2E2E2E2E2E2E2E2E2E2E2E2F5E2E2E2E2E2E2E2E2E2E2E2E2E2E2E2E2F5E2E2E2F5F5E2E2E2F5E2E2E2E2E2E2E2E2E2E2E2E2E2E2E2E2F5E2E2E2E2E2E2E2E2E2E2E2E2E2E2E2E2E2E2E2E2E2E2E2
310
E2E2E2E2E2E2E2E2E2E2E2E2E2E2E2E2E2E2E2E2E2E2E2E2E2E2E2E2E2E2E2E2E2E2E2E2E2E2E2E2E2E2E2E2E2E2E2E2E2E2E2E2E2E2E2E2E2E2E2E2E2E2E2E2E2E2E2E2E2E2E2E2E2E2E2E2E2E2E2E2E2E2E2E2E2E2E2E2E2E2E2E2E2E2E2E2E2E2E2E2E2E2E2E2E2E2E2E2E2E2E2E2E2F5E2E2E2E2E2E2E2E2E2E2E2E2E2
310
E2E2E2F5E2E2E2F5F5E2E2E2F5E2E2E2E2E2E2E2E2E2E2E2E2E2E2E2E2F5E2E2E2E2E2E2E2E2E2E2E2E2E2E2E2E2E2E2E2E2E2E2E2E2E2E2E2E2E2E2E2E2E2E2E2E2E2E2E2E2E2E2E2E2E2E2E2E2E2E2E2E2E2E2E2E2E2E2E2E2E2E2E2E2E2E2E2E2E2E2E2E2E2E2E2E2E2E2E2E2E2E2E2E2E2E2E2E2E2E2E2E2E2E2E2E2E2
310
E2E2E2E2E2E2E2E2E2E2E2E2E2E2E2E2E2E2E2E2E2E2E2E2E2E2E2E2E2E2E2E2E2E2E2E2E2E2E2F5E2E2E2E2E2E2E2E2E2E2E2E2E2E2E2E2F5E2E2E2F5F5E2E2E2F5E2E2E2E2E2E2E2E2E2E2E2E2E2E2E2E2F5E2E2E2E2E2E2E2E2E2E2E2E2E2E2E2E2E2E2E2E2E2E2E2E2E2E2E2E2E2E2E2E2E2E2E2E2E2E2E2E2E2E2E2E2
310
E2E2E2E2E2E2E2E2E2E2E2E2E2E2E2E2E2E2E2E2E2E2E2E2E2E2E2E2E2E2E2E2E2E2E2E2E2E2E2E2E2E2E2E2E2E2E2E2E2E2E2E2E2E2E2E2E2E2E2E2E2E2E2E2E2E2E2E2E2E2E2E2E2E2E2E2E2E2E2E2E2E2E2E2E2E2E2E2E2E2E2E2F5E2E2E2E2E2E2E2E2E2E2E2E2E2E2E2E2F5E2E2E2F5F5E2E2E2F5E2E2E2E2E2E2E2E2
310
E2E2E2E2E2E2E2E2F5E2E2E2E2E2E2E2E2E2E2E2E2E2E2E2E2E2E2E2E2E2E2E2E2E2E2E2E2E2E2E2E2E2E2E2E2E2E2E2E2E2E2E2E2E2E2E2E2E2E2E2E2E2E2E2E2E2E2E2E2E2E2E2E2E2E2E2E2E2E2E2E2E2E2E2E2E2E2E2E2E2E2E2E2E2E2E2E2E2E2E2E2E2E2E2E2E2E2E2E2E2E2E2E2E2E2E2E2E2E2E2E2E2E2E2E2E2E2
310
E2E2E2E2E2E2E2E2E2E2E2E2E2E2E2E2E2E2F5E2E2E2E2E2E2E2E2E2E2E2E2E2E2E2E2F5E2E2E2F5F5E2E2E2F5E2E2E2E2E2E2E2E2E2E2E2E2E2E2E2E2F5E2E2E2E2E2E2E2E2E2E2E2E2E2E2E2E2E2E2E2E2E2E2E2E2E2E2E2E2E2E2E2E2E2E2E2E2E2E2E2E2E2E2E2E2E2E2E2E2E2E2E2E2E2E2E2E2E2E2E2E2E2E2E2E2E2
310
E2E2E2E2E2E2E2E2E2E2E2E2E2E2E2E2E2E2E2E2E2E2E2E2E2E2E2E2E2E2E2E2E2E2E2E2E2E2E2E2E2E2E2E2E2E2E2E2E2E2E2E2E2E2E2E2E2E2E2E2E2E2E2E2E2E2E2E2E2E2E2F5E2E2E2E2E2E2E2E2E2E2E2E2E2E2E2E2F5E2E2E2F5F5E2E2E2F5E2E2E2E2E2E2E2E2E2E2E2E2E2E2E2E2F5E2E2E2E2E2E2E2E2E2E2E2E2
310
E2E2E2E2E2E2E2E2E2E2E2E2E2E2E2E2E2E2E2E2E2E2E2E2E2E2E2E2E2E2E2E2E2E2E2E2E2E2E2E2E2E2E2E2E2E2E2E2E2E2E2E2E2E2E2E2E2E2E2E2E2E2E2E2E2E2E2E2E2E2E2E2E2E2E2E2E2E2E2E2E2E2E2E2E2E2E2E2E2E2E2E2E2E2E2E2E2E2E2E2E2E2E2E2E2E2E2E2E2E2E2E2E2E2E2E2E2E2E2E2E2E2E2E2F5E2E2
310
E2E2E2E2E2E2E2E2E2E2E2E2E2E2F5E2E2E2F5F5E2E2E2F5E2E2E2E2E2E2E2E2E2E2E2E2E2E2E2E2F5E2E2E2E2E2E2E2E2E2E2E2E2E2E2E2E2E2E2E2E2E2E2E2E2E2E2E2E2E2E2E2E2E2E2E2E2E2E2E2E2E2E2E2E2E2E2E2E2E2E2E2E2E2E2E2E2E2E2E2E2E2E2E2E2E2E2E2E2E2E2E2E2E2E2E2E2E2E2E2E2E2E2E2E2E2E2
310
E2E2E2E2E2E2E2E2E2E2E2E2E2E2E2E2E2E2E2E2E2E2E2E2E2E2E2E2E2E2E2E2E2E2E2E2E2E2E2E2E2E2E2E2E2E2E2E2E2E2F5E2E2E2E2E2E2E2E2E2E2E2E2E2E2E2E2F5E2E2E2F5F5E2E2E2F5E2E2E2E2E2E2E2E2E2E2E2E2E2E2E2E2F5E2E2E2E2E2E2E2E2E2E2E2E2E2E2E2E2E2E2E2E2E2E2E2E2E2E2E2E2E2E2E2E2E2
310
E2E2E2E2E2E2E2E2E2E2E2E2E2E2E2E2E2E2E2E2E2E2E2E2E2E2E2E2E2E2E2E2E2E2E2E2E2E2E2E2E2E2E2E2E2E2E2E2E2E2E2E2E2E2E2E2E2E2E2E2E2E2E2E2E2E2E2E2E2E2E2E2E2E2E2E2E2E2E2E2E2E2E2E2E2E2E2E2E2E2E2E2E2E2E2E2E2E2E2E2E2E2E2F5E2E2E2E2E2E2E2E2E2E2E2E2E2E2E2E2F5E2E2E2F5F5E2
310
E2E2F5E2E2E2E2E2E2E2E2E2E2E2E2E2E2E2E2F5E2E2E2E2E2E2E2E2E2E2E2E2E2E2E2E2E2E2E2E2E2E2E2E2E2E2E2E2E2E2E2E2E2E2E2E2E2E2E2E2E2E2E2E2E2E2E2E2E2E2E2E2E2E2E2E2E2E2E2E2E2E2E2E2E2E2E2E2E2E2E2E2E2E2E2E2E2E2E2E2E2E2E2E2E2E2E2E2E2E2E2E2E2E2E2E2E2E2E2E2E2E2E2E2E2E2E2
310
E2E2E2E2E2E2E2E2E2E2E2E2E2E2E2E2E2E2E2E2E2E2E2E2E2E2E2E2E2F5E2E2E2E2E2E2E2E2E2E2E2E2E2E2E2E2F5E2E2E2F5F5E2E2E2F5E2E2E2E2E2E2E2E2E2E2E2E2E2E2E2E2F5E2E2E2E2E2E2E2E2E2E2E2E2E2E2E2E2E2E2E2E2E2E2E2E2E2E2E2E2E2E2E2E2E2E2E2E2E2E2E2E2E2E2E2E2E2E2E2E2E2E2E2E2E2E2
310
E2E2E2E2E2E2E2E2E2E2E2E2E2E2E2E2E2E2E2E2E2E2E2E2E2E2E2E2E2E2E2E2E2E2E2E2E2E2E2E2E2E2E2E2E2E2E2E2E2E2E2E2E2E2E2E2E2E2E2E2E2E2E2E2E2E2E2E2E2E2E2E2E2E2E2E2E2E2E2E2E2E2F5E2E2E2E2E2E2E2E2E2E2E2E2E2E2E2E2F5E2E2E2F5F5E2E2E2F5E2E2E2E2E2E2E2E2E2E2E2E2E2E2E2E2F5E2
310
E2E2E2E2E2E2E2E2E2E2E2E2E2E2E2E2E2E2E2E2E2E2E2E2E2E2E2E2E2E2E2E2E2E2E2E2E2E2E2E2E2E2E2E2E2E2E2E2E2E2E2E2E2E2E2E2E2E2E2E2E2E2E2E2E2E2E2E2E2E2E2E2E2E2E2E2E2E2E2E2E2E2E2E2E2E2E2E2E2E2E2E2E2E2E2E2E2E2E2E2E2E2E2E2E2E2E2E2E2E2E2E2E2E2E2E2E2E2E2E2E2E2E2E2E2E2E2
310
E2E2E2E2E2E2E2E2F5E2E2E2E2E2E2E2E2E2E2E2E2E2E2E2E2F5E2E2E2F5F5E2E2E2F5E2E2E2E2E2E2E2E2E2E2E2E2E2E2E2E2F5E2E2E2E2E2E2E2E2E2E2E2E2E2E2E2E2E2E2E2E2E2E2E2E2E2E2E2E2E2E2E2E2E2E2E2E2E2E2E2E2E2E2E2E2E2E2E2E2E2E2E2E2E2E2E2E2E2E2E2E2E2E2E2E2E2E2E2E2E2E2E2E2E2E2E2
310
E2E2E2E2E2E2E2E2E2E2E2E2E2E2E2E2E2E2E2E2E2E2E2E2E2E2E2E2E2E2E2E2E2E2E2E2E2E2E2E2E2E2E2E2E2E2E2E2E2E2E2E2E2E2E2E2E2E2E2E2E2F5E2E2E2E2E2E2E2E2E2E2E2E2E2E2E2E2F5E2E2E2F5F5E2E2E2F5E2E2E2E2E2E2E2E2E2E2E2E2E2E2E2E2F5E2E2E2E2E2E2E2E2E2E2E2E2E2E2E2E2E2E2E2E2E2E2
310
E2E2E2E2E2E2E2E2E2E2E2E2E2E2E2E2E2E2E2E2E2E2E2E2E2E2E2E2E2E2E2E2E2E2E2E2E2E2E2E2E2E2E2E2E2E2E2E2E2E2E2E2E2E2E2E2E2E2E2E2E2E2E2E2E2E2E2E2E2E2E2E2E2E2E2E2E2E2E2E2E2E2E2E2E2E2E2E2E2E2E2E2E2E2E2E2E2E2E2E2E2E2E2E2E2E2E2E2E2E2E2E2E2E2F5E2E2E2E2E2E2E2E2E2E2E2E2
310
E2E2E2E2F5E2E2E2F5F5E2E2E2E2E2E2E2E2E2E2E2E2E2E2E2E2E2E2E2E2F5E2E2E2E2E2E2E2E2E2E2E2E2E2E2E2E2E2E2E2E2E2E2E2E2E2E2E2E2E2E2E2E2E2E2E2E2E2E2E2E2E2E2E2E2E2E2E2E2E2E2E2E2E2E2E2E2E2E2E2E2E2E2E2E2E2E2E2E2E2E2E2E2E2E2E2E2E2E2E2E2E2E2E2E2E2E2E2E2E2E2E2E2E2E2E2E2
310
E2E2E2E2E2E2E2E2E2E2E2E2E2E2E2E2E2E2E2E2E2E2E2E2E2E2E2E2E2E2E2E2E2E2E2E2E2E2E2E2F5E2E2E2E2E2E2E2E2E2E2E2E2E2E2E2E2E2E2E2E2F5F5E2E2E2E2E2E2E2E2E2E2E2E2E2E2E2E2E2E2E2E2F5E2E2E2E2E2E2E2E2E2E2E2E2E2E2E2E2E2E2E2E2E2E2E2E2E2E2E2E2E2E2E2E2E2E2E2E2E2E2E2E2E2E2E2
310
E2E2E2E2E2E2E2E2E2E2E2E2E2E2E2E2E2E2E2E2E2E2E2E2E2E2E2E2E2E2E2E2E2E2E2E2E2E2E2E2E2E2E2E2E2E2E2E2E2E2E2E2E2E2E2E2E2E2E2E2E2E2E2E2E2E2E2E2E2E2E2E2E2E2E2E2E2E2E2E2E2E2E2E2E2E2E2E2E2E2E2E2E2F5E2E2E2E2E2E2E2E2E2E2E2E2E2E2E2E2E2E2E2E2F5F5E2E2E2E2E2E2E2E2E2E2E2
310
E2E2E2E2E2E2E2E2E2F5E2E2E2E2E2E2E2E2E2E2E2E2E2E2E2E2E2E2E2E2E2E2E2E2E2E2E2E2E2E2E2E2E2E2E2E2E2E2E2E2E2E2E2E2E2E2E2E2E2E2E2E2E2E2E2E2E2E2E2E2E2E2E2E2E2E2E2E2E2E2E2E2E2E2E2E2E2E2E2E2E2E2E2E2E2E2E2E2E2E2E2E2E2E2E2E2E2E2E2E2E2E2E2E2E2E2E2E2E2E2E2E2E2E2E2E2E2
310
E2E2E2E2E2E2E2E2E2E2E2E2E2E2E2E2E2E2E2F5E2E2E2E2E2E2E2E2E2E2E2E2E2E2E2E2E2E2E2E2F5F5E2E2E2E2E2E2E2E2E2E2E2E2E2E2E2E2E2E2E2E2F5E2E2E2E2E2E2E2E2E2E2E2E2E2E2E2E2E2E2E2E2E2E2E2E2E2E2E2E2E2E2E2E2E2E2E2E2E2E2E2E2E2E2E2E2E2E2E2E2E2E2E2E2E2E2E2E2E2E2E2E2E2E2E2E2
310
E2E2E2E2E2E2E2E2E2E2E2E2E2E2E2E2E2E2E2E2E2E2E2E2E2E2E2E2E2E2E2E2E2E2E2E2E2E2E2E2E2E2E2E2E2E2E2E2E2E2E2E2E2E2E2E2E2E2E2E2E2E2E2E2E2E2E2E2E2E2E2E2F5E2E2E2E2E2E2E2E2E2E2E2E2E2E2E2E2E2E2E2E2F5F5E2E2E2E2E2E2E2E2E2E2E2E2E2E2E2E2E2E2E2E2F5E2E2E2E2E2E2E2E2E2E2E2
310
E2E2E2E2E2E2E2E2E2E2E2E2E2E2E2E2E2E2E2E2E2E2E2E2E2E2E2E2E2E2E2E2E2E2E2E2E2E2E2E2E2E2E2E2E2E2E2E2E2E2E2E2E2E2E2E2E2E2E2E2E2E2E2E2E2E2E2E2E2E2E2E2E2E2E2E2E2E2E2E2E2E2E2E2E2E2E2E2E2E2E2E2E2E2E2E2E2E2E2E2E2E2E2E2E2E2E2E2E2E2E2E2E2E2E2E2E2E2E2E2E2E2E2E2E2F5E2
310
E2E2E2E2E2E2E2E2E2E2E2E2E2E2E2E2E2E2E2F5F5E2E2E2E2E2E2E2E2E2E2E2E2E2E2E2E2E2E2E2E2F5E2E2E2E2E2E2E2E2E2E2E2E2E2E2E2E2E2E2E2E2E2E2E2E2E2E2E2E2E2E2E2E2E2E2E2E2E2E2E2E2E2E2E2E2E2E2E2E2E2E2E2E2E2E2E2E2E2E2E2E2E2E2E2E2E2E2E2E2E2E2E2E2E2E2E2E2E2E2E2E2E2E2E2E2E2
310
E2E2E2E2E2E2E2E2E2E2E2E2E2E2E2E2E2E2E2E2E2E2E2E2E2E2E2E2E2E2E2E2E2E2E2E2E2E2E2E2E2E2E2E2E2E2E2E2E2E2E2F5E2E2E2E2E2E2E2E2E2E2E2E2E2E2E2E2E2E2E2E2F5F5E2E2E2E2E2E2E2E2E2E2E2E2E2E2E2E2E2E2E2E2F5E2E2E2E2E2E2E2E2E2E2E2E2E2E2E2E2E2E2E2E2E2E2E2E2E2E2E2E2E2E2E2E2
310
E2E2E2E2E2E2E2E2E2E2E2E2E2E2E2E2E2E2E2E2E2E2E2E2E2E2E2E2E2E2E2E2E2E2E2E2E2E2E2E2E2E2E2E2E2E2E2E2E2E2E2E2E2E2E2E2E2E2E2E2E2E2E2E2E2E2E2E2E2E2E2E2E2E2E2E2E2E2E2E2E2E2E2E2E2E2E2E2E2E2E2E2E2E2E2E2E2E2E2E2E2E2E2E2F5E2E2E2E2E2E2E2E2E2E2E2E2E2E2E2E2E2E2E2E2F5F5
310
E2E2E2E2E2E2E2E2E2E2E2E2E2E2E2E2E2E2E2E2F5E2E2E2E2E2E2E2E2E2E2E2E2E2E2E2E2E2E2E2E2E2E2E2E2E2E2E2E2E2E2E2E2E2E2E2E2E2E2E2E2E2E2E2E2E2E2E2E2E2E2E2E2E2E2E2E2E2E2E2E2E2E2E2E2E2E2E2E2E2E2E2E2E2E2E2E2E2E2E2E2E2E2E2E2E2E2E2E2E2E2E2E2E2E2E2E2E2E2E2E2E2E2E2E2E2E2
310
E2E2E2E2E2E2E2E2E2E2E2E2E2E2E2E2E2E2E2E2E2E2E2E2E2E2E2E2E2E2F5E2E2E2E2E2E2E2E2E2E2E2E2E2E2E2E2E2E2E2E2F5F5E2E2E2E2E2E2E2E2E2E2E2E2E2E2E2E2E2E2E2E2F5E2E2E2E2E2E2E2E2E2E2E2E2E2E2E2E2E2E2E2E2E2E2E2E2E2E2E2E2E2E2E2E2E2E2E2E2E2E2E2E2E2E2E2E2E2E2E2E2E2E2E2E2E2
310
E2E2E2E2E2E2E2E2E2E2E2E2E2E2E2E2E2E2E2E2E2E2E2E2E2E2E2E2E2E2E2E2E2E2E2E2E2E2E2E2E2E2E2E2E2E2E2E2E2E2E2E2E2E2E2E2E2E2E2E2E2E2E2E2E2E2E2E2E2E2E2E2E2E2E2E2E2E2E2E2E2E2E2F5E2E2E2E2E2E2E2E2E2E2E2E2E2E2E2E2E2E2E2E2F5F5E2E2E2F5E2E2E2E2E2E2E2E2E2E2E2E2E2E2E2E2F5
310
E2E2E2E2E2E2E2E2E2E2E2E2E2E2E2E2E2E2E2E2E2E2E2E2E2E2E2E2E2E2E2E2E2E2E2E2E2E2E2E2E2E2E2E2E2E2E2E2E2E2E2E2E2E2E2E2E2E2E2E2E2E2E2E2E2E2E2E2E2E2E2E2E2E2E2E2E2E2E2E2E2E2E2E2E2E2E2E2E2E2E2E2E2E2E2E2E2E2E2E2E2E2E2E2E2E2E2E2E2E2E2E2E2E2E2E2E2E2E2E2E2E2E2E2E2E2E2
310
E2E2E2E2E2E2E2E2E2F5E2E2E2E2E2E2E2E2E2E2E2E2E2E2E2E2F5E2E2E2F5F5E2E2E2F5E2E2E2E2E2E2E2E2E2E2E2E2E2E2E2E2F5E2E2E2E2E2E2E2E2E2E2E2E2E2E2E2E2E2E2E2E2E2E2E2E2E2E2E2E2E2E2E2E2E2E2E2E2E2E2E2E2E2E2E2E2E2E2E2E2E2E2E2E2E2E2E2E2E2E2E2E2E2E2E2E2E2E2E2E2E2E2E2E2E2E2
310
E2E2E2E2E2E2E2E2E2E2E2E2E2E2E2E2E2E2E2E2E2E2E2E2E2E2E2E2E2E2E2E2E2E2E2E2E2E2E2E2E2E2E2E2E2E2E2E2E2E2E2E2E2E2E2E2E2E2E2E2E2E2F5E2E2E2E2E2E2E2E2E2E2E2E2E2E2E2E2F5E2E2E2F5F5E2E2E2F5E2E2E2E2E2E2E2E2E2E2E2E2E2E2E2E2F5E2E2E2E2E2E2E2E2E2E2E2E2E2E2E2E2E2E2E2E2E2
310
E2E2E2E2E2E2E2E2E2E2E2E2E2E2E2E2E2E2E2E2E2E2E2E2E2E2E2E2E2E2E2E2E2E2E2E2E2E2E2E2E2E2E2E2E2E2E2E2E2E2E2E2E2E2E2E2E2E2E2E2E2E2E2E2E2E2E2E2E2E2E2E2E2E2E2E2E2E2E2E2E2E2E2E2E2E2E2E2E2E2E2E2E2E2E2E2E2E2E2E2E2E2E2E2E2E2E2E2E2E2E2E2E2E2E2F5E2E2E2E2E2E2E2E2E2E2E2
310
E2E2E2E2E2F5E2E2E2F5F5E2E2E2F5E2E2E2E2E2E2E2E2E2E2E2E2E2E2E2E2F5E2E2E2E2E2E2E2E2E2E2E2E2E2E2E2E2E2E2E2E2E2E2E2E2E2E2E2E2E2E2E2E2E2E2E2E2E2E2E2E2E2E2E2E2E2E2E2E2E2E2E2E2E2E2E2E2E2E2E2E2E2E2E2E2E2E2E2E2E2E2E2E2E2E2E2E2E2E2E2E2E2E2E2E2E2E2E2E2E2E2E2E2E2E2E2
310
E2E2E2E2E2E2E2E2E2E2E2E2E2E2E2E2E2E2E2E2E2E2E2E2E2E2E2E2E2E2E2E2E2E2E2E2E2E2E2E2E2F5E2E2E2E2E2E2E2E2E2E2E2E2E2E2E2E2F5E2E2E2F5F5E2E2E2F5E2E2E2E2E2E2E2E2E2E2E2E2E2E2E2E2F5E2E2E2E2E2E2E2E2E2E2E2E2E2E2E2E2E2E2E2E2E2E2E2E2E2E2E2E2E2E2E2E2E2E2E2E2E2E2E2E2E2E2
310
E2E2E2E2E2E2E2E2E2E2E2E2E2E2E2E2E2E2E2E2E2E2E2E2E2E2E2E2E2E2E2E2E2E2E2E2E2E2E2E2E2E2E2E2E2E2E2E2E2E2E2E2E2E2E2E2E2E2E2E2E2E2E2E2E2E2E2E2E2E2E2E2E2E2E2E2E2E2E2E2E2E2E2E2E2E2E2E2E2E2E2E2E2E2F5E2E2E2E2E2E2E2E2E2E2E2E2E2E2E2E2F5E2E2E2F5F5E2E2E2F5E2E2E2E2E2E2
310
E2E2E2E2E2E2E2E2E2E2F5E2E2E2E2E2E2E2E2E2E2E2E2E2E2E2E2E2E2E2E2E2E2E2E2E2E2E2E2E2E2E2E2E2E2E2E2E2E2E2E2E2E2E2E2E2E2E2E2E2E2E2E2E2E2E2E2E2E2E2E2E2E2E2E2E2E2E2E2E2E2E2E2E2E2E2E2E2E2E2E2E2E2E2E2E2E2E2E2E2E2E2E2E2E2E2E2E2E2E2E2E2E2E2E2E2E2E2E2E2E2E2E2E2E2E2E2
310
E2E2E2E2E2E2E2E2E2E2E2E2E2E2E2E2E2E2E2E2F5E2E2E2E2E2E2E2E2E2E2E2E2E2E2E2E2F5E2E2E2F5F5E2E2E2F5E2E2E2E2E2E2E2E2E2E2E2E2E2E2E2E2F5E2E2E2E2E2E2E2E2E2E2E2E2E2E2E2E2E2E2E2E2E2E2E2E2E2E2E2E2E2E2E2E2E2E2E2E2E2E2E2E2E2E2E2E2E2E2E2E2E2E2E2E2E2E2E2E2E2E2E2E2E2E2E2
310
E2E2E2E2E2E2E2E2E2E2E2E2E2E2E2E2E2E2E2E2E2E2E2E2E2E2E2E2E2E2E2E2E2E2E2E2E2E2E2E2E2E2E2E2E2E2E2E2E2E2E2E2E2E2E2E2E2E2E2E2E2E2E2E2E2E2E2E2E2E2E2E2E2F5E2E2E2E2E2E2E2E2E2E2E2E2E2E2E2E2F5E2E2E2F5F5E2E2E2F5E2E2E2E2E2E2E2E2E2E2E2E2E2E2E2E2F5E2E2E2E2E2E2E2E2E2E2
310
E2E2E2E2E2E2E2E2E2E2E2E2E2E2E2E2E2E2E2E2E2E2E2E2E2E2E2E2E2E2E2E2E2E2E2E2E2E2E2E2E2E2E2E2E2E2E2E2E2E2E2E2E2E2E2E2E2E2E2E2E2E2E2E2E2E2E2E2E2E2E2E2E2E2E2E2E2E2E2E2E2E2E2E2E2E2E2E2E2E2E2E2E2E2E2E2E2E2E2E2E2E2E2E2E2E2E2E2E2E2E2E2E2E2E2E2E2E2E2E2E2E2E2E2E2E2F5
310
E2E2E2E2E2E2E2E2E2E2E2E2E2E2E2E2F5E2E2E2F5F5E2E2E2F5E2E2E2E2E2E2E2E2E2E2E2E2E2E2E2E2F5E2E2E2E2E2E2E2E2E2E2E2E2E2E2E2E2E2E2E2E2E2E2E2E2E2E2E2E2E2E2E2E2E2E2E2E2E2E2E2E2E2E2E2E2E2E2E2E2E2E2E2E2E2E2E2E2E2E2E2E2E2E2E2E2E2E2E2E2E2E2E2E2E2E2E2E2E2E2E2E2E2E2E2E2
310
E2E2E2E2E2E2E2E2E2E2E2E2E2E2E2E2E2E2E2E2E2E2E2E2E2E2E2E2E2E2E2E2E2E2E2E2E2E2E2E2E2E2E2E2E2E2E2E2E2E2E2E2F5E2E2E2E2E2E2E2E2E2E2E2E2E2E2E2E2F5E2E2E2F5F5E2E2E2F5E2E2E2E2E2E2E2E2E2E2E2E2E2E2E2E2F5E2E2E2E2E2E2E2E2E2E2E2E2E2E2E2E2E2E2E2E2E2E2E2E2E2E2E2E2E2E2E2
310
E2E2E2E2E2E2E2E2E2E2E2E2E2E2E2E2E2E2E2E2E2E2E2E2E2E2E2E2E2E2E2E2E2E2E2E2E2E2E2E2E2E2E2E2E2E2E2E2E2E2E2E2E2E2E2E2E2E2E2E2E2E2E2E2E2E2E2E2E2E2E2E2E2E2E2E2E2E2E2E2E2E2E2E2E2E2E2E2E2E2E2E2E2E2E2E2E2E2E2E2E2E2E2E2E2F5E2E2E2E2E2E2E2E2E2E2E2E2E2E2E2E2F5E2E2E2F5
310
F5E2E2E2F5E2E2E2E2E2E2E2E2E2E2E2E2E2E2E2E2F5E2E2E2E2E2E2E2E2E2E2E2E2E2E2E2E2E2E2E2E2E2E2E2E2E2E2E2E2E2E2E2E2E2E2E2E2E2E2E2E2E2E2E2E2E2E2E2E2E2E2E2E2E2E2E2E2E2E2E2E2E2E2E2E2E2E2E2E2E2E2E2E2E2E2E2E2E2E2E2E2E2E2E2E2E2E2E2E2E2E2E2E2E2E2E2E2E2E2E2E2E2E2E2E2E2
310
E2E2E2E2E2E2E2E2E2E2E2E2E2E2E2E2E2E2E2E2E2E2E2E2E2E2E2E2E2E2E2F5E2E2E2E2E2E2E2E2E2E2E2E2E2E2E2E2F5E2E2E2F5F5E2E2E2F5E2E2E2E2E2E2E2E2E2E2E2E2E2E2E2E2F5E2E2E2E2E2E2E2E2E2E2E2E2E2E2E2E2E2E2E2E2E2E2E2E2E2E2E2E2E2E2E2E2E2E2E2E2E2E2E2E2E2E2E2E2E2E2E2E2E2E2E2E2
310
E2E2E2E2E2E2E2E2E2E2E2E2E2E2E2E2E2E2E2E2E2E2E2E2E2E2E2E2E2E2E2E2E2E2E2E2E2E2E2E2E2E2E2E2E2E2E2E2E2E2E2E2E2E2E2E2E2E2E2E2E2E2E2E2E2E2E2E2E2E2E2E2E2E2E2E2E2E2E2E2E2E2E2E2F5E2E2E2E2E2E2E2E2E2E2E2E2E2E2E2E2F5E2E2E2F5F5E2E2E2F5E2E2E2E2E2E2E2E2E2E2E2E2E2E2E2E2
310
F5E2E2E2E2E2E2E2E2E2E2E2E2E2E2E2E2E2E2E2E2E2E2E2E2E2E2E2E2E2E2E2E2E2E2E2E2E2E2E2E2E2E2E2E2E2E2E2E2E2E2E2E2E2E2E2E2E2E2E2E2E2E2E2E2E2E2E2E2E2E2E2E2E2E2E2E2E2E2E2E2E2E2E2E2E2E2E2E2E2E2E2E2E2E2E2E2E2E2E2E2E2E2E2E2E2E2E2E2E2E2E2E2E2E2E2E2E2E2E2E2E2E2E2E2E2E2
310
E2E2E2E2E2E2E2E2E2E2F5E2E2E2E2E2E2E2E2E2E2E2E2E2E2E2E2F5E2E2E2F5F5E2E2E2F5E2E2E2E2E2E2E2E2E2E2E2E2E2E2E2E2F5E2E2E2E2E2E2E2E2E2E2E2E2E2E2E2E2E2E2E2E2E2E2E2E2E2E2E2E2E2E2E2E2E2E2E2E2E2E2E2E2E2E2E2E2E2E2E2E2E2E2E2E2E2E2E2E2E2E2E2E2E2E2E2E2E2E2E2E2E2E2E2E2E2
310
E2E2E2E2E2E2E2E2E2E2E2E2E2E2E2E2E2E2E2E2E2E2E2E2E2E2E2E2E2E2E2E2E2E2E2E2E2E2E2E2E2E2E2E2E2E2E2E2E2E2E2E2E2E2E2E2E2E2E2E2E2E2E2F5E2E2E2E2E2E2E2E2E2E2E2E2E2E2E2E2F5E2E2E2F5F5E2E2E2F5E2E2E2E2E2E2E2E2E2E2E2E2E2E2E2E2F5E2E2E2E2E2E2E2E2E2E2E2E2E2E2E2E2E2E2E2E2
310
E2E2E2E2E2E2E2E2E2E2E2E2E2E2E2E2E2E2E2E2E2E2E2E2E2E2E2E2E2E2E2E2E2E2E2E2E2E2E2E2E2E2E2E2E2E2E2E2E2E2E2E2E2E2E2E2E2E2E2E2E2E2E2E2E2E2E2E2E2E2E2E2E2E2E2E2E2E2E2E2E2E2E2E2E2E2E2E2E2E2E2E2E2E2E2E2E2E2E2E2E2E2E2E2E2E2E2E2E2E2E2E2E2E2E2E2F5E2E2E2E2E2E2E2E2E2E2
310
E2E2E2E2E2E2F5E2E2E2F5F5E2E2E2F5E2E2E2E2E2E2E2E2E2E2E2E2E2E2E2E2F5E2E2E2E2E2E2E2E2E2E2E2E2E2E2E2E2E2E2E2E2E2E2E2E2E2E2E2E2E2E2E2E2E2E2E2E2E2E2E2E2E2E2E2E2E2E2E2E2E2E2E2E2E2E2E2E2E2E2E2E2E2E2E2E2E2E2E2E2E2E2E2E2E2E2E2E2E2E2E2E2E2E2E2E2E2E2E2E2E2E2E2E2E2E2
310
E2E2E2E2E2E2E2E2E2E2E2E2E2E2E2E2E2E2E2E2E2E2E2E2E2E2E2E2E2E2E2E2E2E2E2E2E2E2E2E2E2E2F5E2E2E2E2E2E2E2E2E2E2E2E2E2E2E2E2F5E2E2E2F5F5E2E2E2E2E2E2E2E2E2E2E2E2E2E2E2E2E2E2E2E2F5E2E2E2E2E2E2E2E2E2E2E2E2E2E2E2E2E2E2E2E2E2E2E2E2E2E2E2E2E2E2E2E2E2E2E2E2E2E2E2E2E2
310
E2E2E2E2E2E2E2E2E2E2E2E2E2E2E2E2E2E2E2E2E2E2E2E2E2E2E2E2E2E2E2E2E2E2E2E2E2E2E2E2E2E2E2E2E2E2E2E2E2E2E2E2E2E2E2E2E2E2E2E2E2E2E2E2E2E2E2E2E2E2E2E2E2E2E2E2E2E2E2E2E2E2E2E2E2E2E2E2E2E2E2E2E2E2E2F5E2E2E2E2E2E2E2E2E2E2E2E2E2E2E2E2E2E2E2E2F5F5E2E2E2E2E2E2E2E2E2
310
E2E2E2E2E2E2E2E2E2E2E2F5E2E2E2E2E2E2E2E2E2E2E2E2E2E2E2E2E2E2E2E2E2E2E2E2E2E2E2E2E2E2E2E2E2E2E2E2E2E2E2E2E2E2E2E2E2E2E2E2E2E2E2E2E2E2E2E2E2E2E2E2E2E2E2E2E2E2E2E2E2E2E2E2E2E2E2E2E2E2E2E2E2E2E2E2E2E2E2E2E2E2E2E2E2E2E2E2E2E2E2E2E2E2E2E2E2E2E2E2E2E2E2E2E2E2E2
310
E2E2E2E2E2E2E2E2E2E2E2E2E2E2E2E2E2E2E2E2E2F5E2E2E2E2E2E2E2E2E2E2E2E2E2E2E2E2E2E2E2E2F5F5E2E2E2E2E2E2E2E2E2E2E2E2E2E2E2E2E2E2E2E2F5E2E2E2E2E2E2E2E2E2E2E2E2E2E2E2E2E2E2E2E2E2E2E2E2E2E2E2E2E2E2E2E2E2E2E2E2E2E2E2E2E2E2E2E2E2E2E2E2E2E2E2E2E2E2E2E2E2E2E2E2E2E2
310
E2E2E2E2E2E2E2E2E2E2E2E2E2E2E2E2E2E2E2E2E2E2E2E2E2E2E2E2E2E2E2E2E2E2E2E2E2E2E2E2E2E2E2E2E2E2E2E2E2E2E2E2E2E2E2E2E2E2E2E2E2E2E2E2E2E2E2E2E2E2E2E2E2E2F5E2E2E2E2E2E2E2E2E2E2E2E2E2E2E2E2E2E2E2E2F5F5E2E2E2E2E2E2E2E2E2E2E2E2E2E2E2E2E2E2E2E2F5E2E2E2E2E2E2E2E2E2
310
E2E2E2E2E2E2E2E2E2E2E2E2E2E2E2E2E2E2E2E2E2E2E2E2E2E2E2E2E2E2E2E2E2E2E2E2E2E2E2E2E2E2E2E2E2E2E2E2E2E2E2E2E2E2E2E2E2E2E2E2E2E2E2E2E2E2E2E2E2E2E2E2E2E2E2E2E2E2E2E2E2E2E2E2E2E2E2E2E2E2E2E2E2E2E2E2E2E2E2E2E2E2E2E2E2E2E2E2E2E2E2E2E2E2E2E2E2E2E2E2E2E2E2E2E2E2E2
310
F5E2E2E2E2E2E2E2E2E2E2E2E2E2E2E2E2E2E2E2E2F5F5E2E2E2E2E2E2E2E2E2E2E2E2E2E2E2E2E2E2E2E2F5E2E2E2E2E2E2E2E2E2E2E2E2E2E2E2E2E2E2E2E2E2E2E2E2E2E2E2E2E2E2E2E2E2E2E2E2E2E2E2E2E2E2E2E2E2E2E2E2E2E2E2E2E2E2E2E2E2E2E2E2E2E2E2E2E2E2E2E2E2E2E2E2E2E2E2E2E2E2E2E2E2E2E2
310
E2E2E2E2E2E2E2E2E2E2E2E2E2E2E2E2E2E2E2E2E2E2E2E2E2E2E2E2E2E2E2E2E2E2E2E2E2E2E2E2E2E2E2E2E2E2E2E2E2E2E2E2E2F5E2E2E2E2E2E2E2E2E2E2E2E2E2E2E2E2E2E2E2E2F5F5E2E2E2E2E2E2E2E2E2E2E2E2E2E2E2E2E2E2E2E2F5E2E2E2E2E2E2E2E2E2E2E2E2E2E2E2E2E2E2E2E2E2E2E2E2E2E2E2E2E2E2
310
E2E2E2E2E2E2E2E2E2E2E2E2E2E2E2E2E2E2E2E2E2E2E2E2E2E2E2E2E2E2E2E2E2E2E2E2E2E2E2E2E2E2E2E2E2E2E2E2E2E2E2E2E2E2E2E2E2E2E2E2E2E2E2E2E2E2E2E2E2E2E2E2E2E2E2E2E2E2E2E2E2E2E2E2E2E2E2E2E2E2E2E2E2E2E2E2E2E2E2E2E2E2E2E2E2E2F5E2E2E2E2E2E2E2E2E2E2E2E2E2E2E2E2E2E2E2E2
310
F5F5E2E2E2E2E2E2E2E2E2E2E2E2E2E2E2E2E2E2E2E2F5E2E2E2E2E2E2E2E2E2E2E2E2E2E2E2E2E2E2E2E2E2E2E2E2E2E2E2E2E2E2E2E2E2E2E2E2E2E2E2E2E2E2E2E2E2E2E2E2E2E2E2E2E2E2E2E2E2E2E2E2E2E2E2E2E2E2E2E2E2E2E2E2E2E2E2E2E2E2E2E2E2E2E2E2E2E2E2E2E2E2E2E2E2E2E2E2E2E2E2E2E2E2E2E2
310
E2E2E2E2E2E2E2E2E2E2E2E2E2E2E2E2E2E2E2E2E2E2E2E2E2E2E2E2E2E2E2E2F5E2E2E2E2E2E2E2E2E2E2E2E2E2E2E2E2E2E2E2E2F5F5E2E2E2E2E2E2E2E2E2E2E2E2E2E2E2E2E2E2E2E2F5E2E2E2E2E2E2E2E2E2E2E2E2E2E2E2E2E2E2E2E2E2E2E2E2E2E2E2E2E2E2E2E2E2E2E2E2E2E2E2E2E2E2E2E2E2E2E2E2E2E2E2
310
E2E2E2E2E2E2E2E2E2E2E2E2E2E2E2E2E2E2E2E2E2E2E2E2E2E2E2E2E2E2E2E2E2E2E2E2E2E2E2E2E2E2E2E2E2E2E2E2E2E2E2E2E2E2E2E2E2E2E2E2E2E2E2E2E2E2E2E2E2E2E2E2E2E2E2E2E2E2E2E2E2E2E2E2E2F5E2E2E2E2E2E2E2E2E2E2E2E2E2E2E2E2E2E2E2E2F5F5E2E2E2E2E2E2E2E2E2E2E2E2E2E2E2E2E2E2E2
310
E2F5E2E2E2E2E2E2E2E2E2E2E2E2E2E2E2E2E2E2E2E2E2E2E2E2E2E2E2E2E2E2E2E2E2E2E2E2E2E2E2E2E2E2E2E2E2E2E2E2E2E2E2E2E2E2E2E2E2E2E2E2E2E2E2E2E2E2E2E2E2E2E2E2E2E2E2E2E2E2E2E2E2E2E2E2E2E2E2E2E2E2E2E2E2E2E2E2E2E2E2E2E2E2E2E2E2E2E2E2E2E2E2E2E2E2E2E2E2E2E2E2E2E2E2E2E2
310
E2E2E2E2E2E2E2E2E2E2E2F5E2E2E2E2E2E2E2E2E2E2E2E2E2E2E2E2E2E2E2E2F5F5E2E2E2E2E2E2E2E2E2E2E2E2E2E2E2E2E2E2E2E2F5E2E2E2E2E2E2E2E2E2E2E2E2E2E2E2E2E2E2E2E2E2E2E2E2E2E2E2E2E2E2E2E2E2E2E2E2E2E2E2E2E2E2E2E2E2E2E2E2E2E2E2E2E2E2E2E2E2E2E2E2E2E2E2E2E2E2E2E2E2E2E2E2
310
E2E2E2E2E2E2E2E2E2E2E2E2E2E2E2E2E2E2E2E2E2E2E2E2E2E2E2E2E2E2E2E2E2E2E2E2E2E2E2E2E2E2E2E2E2E2E2E2E2E2E2E2E2E2E2E2E2E2E2E2E2E2E2E2F5E2E2E2E2E2E2E2E2E2E2E2E2E2E2E2E2E2E2E2E2F5F5E2E2E2F5E2E2E2E2E2E2E2E2E2E2E2E2E2E2E2E2F5E2E2E2E2E2E2E2E2E2E2E2E2E2E2E2E2E2E2E2
310
E2E2E2E2E2E2E2E2E2E2E2E2E2E2E2E2E2E2E2E2E2E2E2E2E2E2E2E2E2E2E2E2E2E2E2E2E2E2E2E2E2E2E2E2E2E2E2E2E2E2E2E2E2E2E2E2E2E2E2E2E2E2E2E2E2E2E2E2E2E2E2E2E2E2E2E2E2E2E2E2E2E2E2E2E2E2E2E2E2E2E2E2E2E2E2E2E2E2E2E2E2E2E2E2E2E2E2E2E2E2E2E2E2E2E2E2E2F5E2E2E2E2E2E2E2E2E2
310
E2E2E2E2E2E2E2F5E2E2E2F5F5E2E2E2F5E2E2E2E2E2E2E2E2E2E2E2E2E2E2E2E2F5E2E2E2E2E2E2E2E2E2E2E2E2E2E2E2E2E2E2E2E2E2E2E2E2E2E2E2E2E2E2E2E2E2E2E2E2E2E2E2E2E2E2E2E2E2E2E2E2E2E2E2E2E2E2E2E2E2E2E2E2E2E2E2E2E2E2E2E2E2E2E2E2E2E2E2E2E2E2E2E2E2E2E2E2E2E2E2E2E2E2E2E2E2
310
E2E2E2E2E2E2E2E2E2E2E2E2E2E2E2E2E2E2E2E2E2E2E2E2E2E2E2E2E2E2E2E2E2E2E2E2E2E2E2E2E2E2E2F5E2E2E2E2E2E2E2E2E2E2E2E2E2E2E2E2F5E2E2E2F5F5E2E2E2F5E2E2E2E2E2E2E2E2E2E2E2E2E2E2E2E2F5E2E2E2E2E2E2E2E2E2E2E2E2E2E2E2E2E2E2E2E2E2E2E2E2E2E2E2E2E2E2E2E2E2E2E2E2E2E2E2E2
310
E2E2E2E2E2E2E2E2E2E2E2E2E2E2E2E2E2E2E2E2E2E2E2E2E2E2E2E2E2E2E2E2E2E2E2E2E2E2E2E2E2E2E2E2E2E2E2E2E2E2E2E2E2E2E2E2E2E2E2E2E2E2E2E2E2E2E2E2E2E2E2E2E2E2E2E2E2E2E2E2E2E2E2E2E2E2E2E2E2E2E2E2E2E2E2E2F5E2E2E2E2E2E2E2E2E2E2E2E2E2E2E2E2F5E2E2E2F5F5E2E2E2F5E2E2E2E2
310
E2E2E2E2E2E2E2E2E2E2E2E2F5E2E2E2E2E2E2E2E2E2E2E2E2E2E2E2E2E2E2E2E2E2E2E2E2E2E2E2E2E2E2E2E2E2E2E2E2E2E2E2E2E2E2E2E2E2E2E2E2E2E2E2E2E2E2E2E2E2E2E2E2E2E2E2E2E2E2E2E2E2E2E2E2E2E2E2E2E2E2E2E2E2E2E2E2E2E2E2E2E2E2E2E2E2E2E2E2E2E2E2E2E2E2E2E2E2E2E2E2E2E2E2E2E2E2
310
E2E2E2E2E2E2E2E2E2E2E2E2E2E2E2E2E2E2E2E2E2E2F5E2E2E2E2E2E2E2E2E2E2E2E2E2E2E2E2F5E2E2E2F5F5E2E2E2F5E2E2E2E2E2E2E2E2E2E2E2E2E2E2E2E2F5E2E2E2E2E2E2E2E2E2E2E2E2E2E2E2E2E2E2E2E2E2E2E2E2E2E2E2E2E2E2E2E2E2E2E2E2E2E2E2E2E2E2E2E2E2E2E2E2E2E2E2E2E2E2E2E2E2E2E2E2E2
310
E2E2E2E2E2E2E2E2E2E2E2E2E2E2E2E2E2E2E2E2E2E2E2E2E2E2E2E2E2E2E2E2E2E2E2E2E2E2E2E2E2E2E2E2E2E2E2E2E2E2E2E2E2E2E2E2E2E2E2E2E2E2E2E2E2E2E2E2E2E2E2E2E2E2E2F5E2E2E2E2E2E2E2E2E2E2E2E2E2E2E2E2F5E2E2E2F5F5E2E2E2F5E2E2E2E2E2E2E2E2E2E2E2E2E2E2E2E2F5E2E2E2E2E2E2E2E2
310
E2E2E2E2E2E2E2E2E2E2E2E2E2E2E2E2E2E2E2E2E2E2E2E2E2E2E2E2E2E2E2E2E2E2E2E2E2E2E2E2E2E2E2E2E2E2E2E2E2E2E2E2E2E2E2E2E2E2E2E2E2E2E2E2E2E2E2E2E2E2E2E2E2E2E2E2E2E2E2E2E2E2E2E2E2E2E2E2E2E2E2E2E2E2E2E2E2E2E2E2E2E2E2E2E2E2E2E2E2E2E2E2E2E2E2E2E2E2E2E2E2E2E2E2E2E2E2
310
E2F5E2E2E2E2E2E2E2E2E2E2E2E2E2E2E2E2F5E2E2E2F5F5E2E2E2F5E2E2E2E2E2E2E2E2E2E2E2E2E2E2E2E2F5E2E2E2E2E2E2E2E2E2E2E2E2E2E2E2E2E2E2E2E2E2E2E2E2E2E2E2E2E2E2E2E2E2E2E2E2E2E2E2E2E2E2E2E2E2E2E2E2E2E2E2E2E2E2E2E2E2E2E2E2E2E2E2E2E2E2E2E2E2E2E2E2E2E2E2E2E2E2E2E2E2E2
310
E2E2E2E2E2E2E2E2E2E2E2E2E2E2E2E2E2E2E2E2E2E2E2E2E2E2E2E2E2E2E2E2E2E2E2E2E2E2E2E2E2E2E2E2E2E2E2E2E2E2E2E2E2E2F5E2E2E2E2E2E2E2E2E2E2E2E2E2E2E2E2F5E2E2E2F5F5E2E2E2F5E2E2E2E2E2E2E2E2E2E2E2E2E2E2E2E2F5E2E2E2E2E2E2E2E2E2E2E2E2E2E2E2E2E2E2E2E2E2E2E2E2E2E2E2E2E2
310
E2E2E2E2E2E2E2E2E2E2E2E2E2E2E2E2E2E2E2E2E2E2E2E2E2E2E2E2E2E2E2E2E2E2E2E2E2E2E2E2E2E2E2E2E2E2E2E2E2E2E2E2E2E2E2E2E2E2E2E2E2E2E2E2E2E2E2E2E2E2E2E2E2E2E2E2E2E2E2E2E2E2E2E2E2E2E2E2E2E2E2E2E2E2E2E2E2E2E2E2E2E2E2E2E2E2E2F5E2E2E2E2E2E2E2E2E2E2E2E2E2E2E2E2F5E2E2
310
E2F5F5E2E2E2F5E2E2E2E2E2E2E2E2E2E2E2E2E2E2E2E2F5E2E2E2E2E2E2E2E2E2E2E2E2E2E2E2E2E2E2E2E2E2E2E2E2E2E2E2E2E2E2E2E2E2E2E2E2E2E2E2E2E2E2E2E2E2E2E2E2E2E2E2E2E2E2E2E2E2E2E2E2E2E2E2E2E2E2E2E2E2E2E2E2E2E2E2E2E2E2E2E2E2E2E2E2E2E2E2E2E2E2E2E2E2E2E2E2E2E2E2E2E2E2E2
310
E2E2E2E2E2E2E2E2E2E2E2E2E2E2E2E2E2E2E2E2E2E2E2E2E2E2E2E2E2E2E2E2E2F5E2E2E2E2E2E2E2E2E2E2E2E2E2E2E2E2F5E2E2E2F5F5E2E2E2F5E2E2E2E2E2E2E2E2E2E2E2E2E2E2E2E2F5E2E2E2E2E2E2E2E2E2E2E2E2E2E2E2E2E2E2E2E2E2E2E2E2E2E2E2E2E2E2E2E2E2E2E2E2E2E2E2E2E2E2E2E2E2E2E2E2E2E2
310
E2E2E2E2E2E2E2E2E2E2E2E2E2E2E2E2E2E2E2E2E2E2E2E2E2E2E2E2E2E2E2E2E2E2E2E2E2E2E2E2E2E2E2E2E2E2E2E2E2E2E2E2E2E2E2E2E2E2E2E2E2E2E2E2E2E2E2E2E2E2E2E2E2E2E2E2E2E2E2E2E2E2E2E2E2E2F5E2E2E2E2E2E2E2E2E2E2E2E2E2E2E2E2F5E2E2E2F5F5E2E2E2F5E2E2E2E2E2E2E2E2E2E2E2E2E2E2
310
E2E2F5E2E2E2E2E2E2E2E2E2E2E2E2E2E2E2E2E2E2E2E2E2E2E2E2E2E2E2E2E2E2E2E2E2E2E2E2E2E2E2E2E2E2E2E2E2E2E2E2E2E2E2E2E2E2E2E2E2E2E2E2E2E2E2E2E2E2E2E2E2E2E2E2E2E2E2E2E2E2E2E2E2E2E2E2E2E2E2E2E2E2E2E2E2E2E2E2E2E2E2E2E2E2E2E2E2E2E2E2E2E2E2E2E2E2E2E2E2E2E2E2E2E2E2E2
310
E2E2E2E2E2E2E2E2E2E2E2E2F5E2E2E2E2E2E2E2E2E2E2E2E2E2E2E2E2F5E2E2E2F5F5E2E2E2F5E2E2E2E2E2E2E2E2E2E2E2E2E2E2E2E2F5E2E2E2E2E2E2E2E2E2E2E2E2E2E2E2E2E2E2E2E2E2E2E2E2E2E2E2E2E2E2E2E2E2E2E2E2E2E2E2E2E2E2E2E2E2E2E2E2E2E2E2E2E2E2E2E2E2E2E2E2E2E2E2E2E2E2E2E2E2E2E2
310
E2E2E2E2E2E2E2E2E2E2E2E2E2E2E2E2E2E2E2E2E2E2E2E2E2E2E2E2E2E2E2E2E2E2E2E2E2E2E2E2E2E2E2E2E2E2E2E2E2E2E2E2E2E2E2E2E2E2E2E2E2E2E2E2E2F5E2E2E2E2E2E2E2E2E2E2E2E2E2E2E2E2F5E2E2E2F5F5E2E2E2F5E2E2E2E2E2E2E2E2E2E2E2E2E2E2E2E2F5E2E2E2E2E2E2E2E2E2E2E2E2E2E2E2E2E2E2
310
E2E2E2E2E2E2E2E2E2E2E2E2E2E2E2E2E2E2E2E2E2E2E2E2E2E2E2E2E2E2E2E2E2E2E2E2E2E2E2E2E2E2E2E2E2E2E2E2E2E2E2E2E2E2E2E2E2E2E2E2E2E2E2E2E2E2E2E2E2E2E2E2E2E2E2E2E2E2E2E2E2E2E2E2E2E2E2E2E2E2E2E2E2E2E2E2E2E2E2E2E2E2E2E2E2E2E2E2E2E2E2E2E2E2E2E2E2E2F5E2E2E2E2E2E2E2E2
310
E2E2E2E2E2E2E2E2F5E2E2E2F5F5E2E2E2F5E2E2E2E2E2E2E2E2E2E2E2E2E2E2E2E2F5E2E2E2E2E2E2E2E2E2E2E2E2E2E2E2E2E2E2E2E2E2E2E2E2E2E2E2E2E2E2E2E2E2E2E2E2E2E2E2E2E2E2E2E2E2E2E2E2E2E2E2E2E2E2E2E2E2E2E2E2E2E2E2E2E2E2E2E2E2E2E2E2E2E2E2E2E2E2E2E2E2E2E2E2E2E2E2E2E2E2E2E2
310
E2E2E2E2E2E2E2E2E2E2E2E2E2E2E2E2E2E2E2E2E2E2E2E2E2E2E2E2E2E2E2E2E2E2E2E2E2E2E2E2E2E2E2E2F5E2E2E2E2E2E2E2E2E2E2E2E2E2E2E2E2F5E2E2E2F5F5E2E2E2F5E2E2E2E2E2E2E2E2E2E2E2E2E2E2E2E2F5E2E2E2E2E2E2E2E2E2E2E2E2E2E2E2E2E2E2E2E2E2E2E2E2E2E2E2E2E2E2E2E2E2E2E2E2E2E2E2
310
E2E2E2E2E2E2E2E2E2E2E2E2E2E2E2E2E2E2E2E2E2E2E2E2E2E2E2E2E2E2E2E2E2E2E2E2E2E2E2E2E2E2E2E2E2E2E2E2E2E2E2E2E2E2E2E2E2E2E2E2E2E2E2E2E2E2E2E2E2E2E2E2E2E2E2E2E2E2E2E2E2E2E2E2E2E2E2E2E2E2E2E2E2E2E2E2E2F5E2E2E2E2E2E2E2E2E2E2E2E2E2E2E2E2F5E2E2E2F5F5E2E2E2F5E2E2E2
310
E2E2E2E2E2E2E2E2E2E2E2E2E2F5E2E2E2E2E2E2E2E2E2E2E2E2E2E2E2E2E2E2E2E2E2E2E2E2E2E2E2E2E2E2E2E2E2E2E2E2E2E2E2E2E2E2E2E2E2E2E2E2E2E2E2E2E2E2E2E2E2E2E2E2E2E2E2E2E2E2E2E2E2E2E2E2E2E2E2E2E2E2E2E2E2E2E2E2E2E2E2E2E2E2E2E2E2E2E2E2E2E2E2E2E2E2E2E2E2E2E2E2E2E2E2E2E2
310
E2E2E2E2E2E2E2E2E2E2E2E2E2E2E2E2E2E2E2E2E2E2E2F5E2E2E2E2E2E2E2E2E2E2E2E2E2E2E2E2F5E2E2E2F5F5E2E2E2E2E2E2E2E2E2E2E2E2E2E2E2E2E2E2E2E2F5E2E2E2E2E2E2E2E2E2E2E2E2E2E2E2E2E2E2E2E2E2E2E2E2E2E2E2E2E2E2E2E2E2E2E2E2E2E2E2E2E2E2E2E2E2E2E2E2E2E2E2E2E2E2E2E2E2E2E2E2
310
E2E2E2E2E2E2E2E2E2E2E2E2E2E2E2E2E2E2E2E2E2E2E2E2E2E2E2E2E2E2E2E2E2E2E2E2E2E2E2E2E2E2E2E2E2E2E2E2E2E2E2E2E2E2E2E2E2E2E2E2E2E2E2E2E2E2E2E2E2E2E2E2E2E2E2E2F5E2E2E2E2E2E2E2E2E2E2E2E2E2E2E2E2E2E2E2E2F5F5E2E2E2E2E2E2E2E2E2E2E2E2E2E2E2E2E2E2E2E2F5E2E2E2E2E2E2E2
310
E2E2E2E2E2E2E2E2E2E2E2E2E2E2E2E2E2E2E2E2E2E2E2E2E2E2E2E2E2E2E2E2E2E2E2E2E2E2E2E2E2E2E2E2E2E2E2E2E2E2E2E2E2E2E2E2E2E2E2E2E2E2E2E2E2E2E2E2E2E2E2E2E2E2E2E2E2E2E2E2E2E2E2E2E2E2E2E2E2E2E2E2E2E2E2E2E2E2E2E2E2E2E2E2E2E2E2E2E2E2E2E2E2E2E2E2E2E2E2E2E2E2E2E2E2E2E2
310
E2E2F5E2E2E2E2E2E2E2E2E2E2E2E2E2E2E2E2E2E2E2E2F5F5E2E2E2E2E2E2E2E2E2E2E2E2E2E2E2E2E2E2E2E2F5E2E2E2E2E2E2E2E2E2E2E2E2E2E2E2E2E2E2E2E2E2E2E2E2E2E2E2E2E2E2E2E2E2E2E2E2E2E2E2E2E2E2E2E2E2E2E2E2E2E2E2E2E2E2E2E2E2E2E2E2E2E2E2E2E2E2E2E2E2E2E2E2E2E2E2E2E2E2E2E2E2
310
E2E2E2E2E2E2E2E2E2E2E2E2E2E2E2E2E2E2E2E2E2E2E2E2E2E2E2E2E2E2E2E2E2E2E2E2E2E2E2E2E2E2E2E2E2E2E2E2E2E2E2E2E2E2E2F5E2E2E2E2E2E2E2E2E2E2E2E2E2E2E2E2E2E2E2E2F5F5E2E2E2E2E2E2E2E2E2E2E2E2E2E2E2E2E2E2E2E2F5E2E2E2E2E2E2E2E2E2E2E2E2E2E2E2E2E2E2E2E2E2E2E2E2E2E2E2E2
310
E2E2E2E2E2E2E2E2E2E2E2E2E2E2E2E2E2E2E2E2E2E2E2E2E2E2E2E2E2E2E2E2E2E2E2E2E2E2E2E2E2E2E2E2E2E2E2E2E2E2E2E2E2E2E2E2E2E2E2E2E2E2E2E2E2E2E2E2E2E2E2E2E2E2E2E2E2E2E2E2E2E2E2E2E2E2E2E2E2E2E2E2E2E2E2E2E2E2E2E2E2E2E2E2E2E2E2E2F5E2E2E2E2E2E2E2E2E2E2E2E2E2E2E2E2E2E2
310
E2E2F5F5E2E2E2E2E2E2E2E2E2E2E2E2E2E2E2E2E2E2E2E2F5E2E2E2E2E2E2E2E2E2E2E2E2E2E2E2E2E2E2E2E2E2E2E2E2E2E2E2E2E2E2E2E2E2E2E2E2E2E2E2E2E2E2E2E2E2E2E2E2E2E2E2E2E2E2E2E2E2E2E2E2E2E2E2E2E2E2E2E2E2E2E2E2E2E2E2E2E2E2E2E2E2E2E2E2E2E2E2E2E2E2E2E2E2E2E2E2E2E2E2E2E2E2
310
E2E2E2E2E2E2E2E2E2E2E2E2E2E2E2E2E2E2E2E2E2E2E2E2E2E2E2E2E2E2E2E2E2E2F5E2E2E2E2E2E2E2E2E2E2E2E2E2E2E2E2E2E2E2E2F5F5E2E2E2E2E2E2E2E2E2E2E2E2E2E2E2E2E2E2E2E2F5E2E2E2E2E2E2E2E2E2E2E2E2E2E2E2E2E2E2E2E2E2E2E2E2E2E2E2E2E2E2E2E2E2E2E2E2E2E2E2E2E2E2E2E2E2E2E2E2E2
310
E2E2E2E2E2E2E2E2E2E2E2E2E2E2E2E2E2E2E2E2E2E2E2E2E2E2E2E2E2E2E2E2E2E2E2E2E2E2E2E2E2E2E2E2E2E2E2E2E2E2E2E2E2E2E2E2E2E2E2E2E2E2E2E2E2E2E2E2E2E2E2E2E2E2E2E2E2E2E2E2E2E2E2E2E2E2E2F5E2E2E2E2E2E2E2E2E2E2E2E2E2E2E2E2E2E2E2E2F5F5E2E2E2E2E2E2E2E2E2E2E2E2E2E2E2E2E2
310
E2E2E2F5E2E2E2E2E2E2E2E2E2E2E2E2E2E2E2E2E2E2E2E2E2E2E2E2E2E2E2E2E2E2E2E2E2E2E2E2E2E2E2E2E2E2E2E2E2E2E2E2E2E2E2E2E2E2E2E2E2E2E2E2E2E2E2E2E2E2E2E2E2E2E2E2E2E2E2E2E2E2E2E2E2E2E2E2E2E2E2E2E2E2E2E2E2E2E2E2E2E2E2E2E2E2E2E2E2E2E2E2E2E2E2E2E2E2E2E2E2E2E2E2E2E2E2
310
E2E2E2E2E2E2E2E2E2E2E2E2E2F5E2E2E2E2E2E2E2E2E2E2E2E2E2E2E2E2E2E2E2E2F5F5E2E2E2E2E2E2E2E2E2E2E2E2E2E2E2E2E2E2E2E2F5E2E2E2E2E2E2E2E2E2E2E2E2E2E2E2E2E2E2E2E2E2E2E2E2E2E2E2E2E2E2E2E2E2E2E2E2E2E2E2E2E2E2E2E2E2E2E2E2E2E2E2E2E2E2E2E2E2E2E2E2E2E2E2E2E2E2E2E2E2E2
310
E2E2E2E2E2E2E2E2E2E2E2E2E2E2E2E2E2E2E2E2E2E2E2E2E2E2E2E2E2E2E2E2E2E2E2E2E2E2E2E2E2E2E2E2E2E2E2E2E2E2E2E2E2E2E2E2E2E2E2E2E2E2E2E2E2E2F5E2E2E2E2E2E2E2E2E2E2E2E2E2E2E2E2E2E2E2E2F5F5E2E2E2E2E2E2E2E2E2E2E2E2E2E2E2E2E2E2E2E2F5E2E2E2E2E2E2E2E2E2E2E2E2E2E2E2E2E2
310
E2E2E2E2E2E2E2E2E2E2E2E2E2E2E2E2E2E2E2E2E2E2E2E2E2E2E2E2E2E2E2E2E2E2E2E2E2E2E2E2E2E2E2E2E2E2E2E2E2E2E2E2E2E2E2E2E2E2E2E2E2E2E2E2E2E2E2E2E2E2E2E2E2E2E2E2E2E2E2E2E2E2E2E2E2E2E2E2E2E2E2E2E2E2E2E2E2E2E2E2E2E2E2E2E2E2E2E2E2E2E2E2E2E2E2E2E2E2E2F5E2E2E2E2E2E2E2
310
E2E2E2E2E2E2E2E2E2E2E2E2E2F5F5E2E2E2F5E2E2E2E2E2E2E2E2E2E2E2E2E2E2E2E2F5E2E2E2E2E2E2E2E2E2E2E2E2E2E2E2E2E2E2E2E2E2E2E2E2E2E2E2E2E2E2E2E2E2E2E2E2E2E2E2E2E2E2E2E2E2E2E2E2E2E2E2E2E2E2E2E2E2E2E2E2E2E2E2E2E2E2E2E2E2E2E2E2E2E2E2E2E2E2E2E2E2E2E2E2E2E2E2E2E2E2E2
310
E2E2E2E2E2E2E2E2E2E2E2E2E2E2E2E2E2E2E2E2E2E2E2E2E2E2E2E2E2E2E2E2E2E2E2E2E2E2E2E2E2E2E2E2E2F5E2E2E2E2E2E2E2E2E2E2E2E2E2E2E2E2F5E2E2E2F5F5E2E2E2F5E2E2E2E2E2E2E2E2E2E2E2E2E2E2E2E2F5E2E2E2E2E2E2E2E2E2E2E2E2E2E2E2E2E2E2E2E2E2E2E2E2E2E2E2E2E2E2E2E2E2E2E2E2E2E2
310
E2E2E2E2E2E2E2E2E2E2E2E2E2E2E2E2E2E2E2E2E2E2E2E2E2E2E2E2E2E2E2E2E2E2E2E2E2E2E2E2E2E2E2E2E2E2E2E2E2E2E2E2E2E2E2E2E2E2E2E2E2E2E2E2E2E2E2E2E2E2E2E2E2E2E2E2E2E2E2E2E2E2E2E2E2E2E2E2E2E2E2E2E2E2E2E2E2E2F5E2E2E2E2E2E2E2E2E2E2E2E2E2E2E2E2F5E2E2E2F5F5E2E2E2F5E2E2
310
E2E2E2E2E2E2E2E2E2E2E2E2E2E2F5E2E2E2E2E2E2E2E2E2E2E2E2E2E2E2E2E2E2E2E2E2E2E2E2E2E2E2E2E2E2E2E2E2E2E2E2E2E2E2E2E2E2E2E2E2E2E2E2E2E2E2E2E2E2E2E2E2E2E2E2E2E2E2E2E2E2E2E2E2E2E2E2E2E2E2E2E2E2E2E2E2E2E2E2E2E2E2E2E2E2E2E2E2E2E2E2E2E2E2E2E2E2E2E2E2E2E2E2E2E2E2E2
310
E2E2E2E2E2E2E2E2E2E2E2E2E2E2E2E2E2E2E2E2E2E2E2E2F5E2E2E2E2E2E2E2E2E2E2E2E2E2E2E2E2F5E2E2E2F5F5E2E2E2F5E2E2E2E2E2E2E2E2E2E2E2E2E2E2E2E2F5E2E2E2E2E2E2E2E2E2E2E2E2E2E2E2E2E2E2E2E2E2E2E2E2E2E2E2E2E2E2E2E2E2E2E2E2E2E2E2E2E2E2E2E2E2E2E2E2E2E2E2E2E2E2E2E2E2E2E2
310
E2E2E2E2E2E2E2E2E2E2E2E2E2E2E2E2E2E2E2E2E2E2E2E2E2E2E2E2E2E2E2E2E2E2E2E2E2E2E2E2E2E2E2E2E2E2E2E2E2E2E2E2E2E2E2E2E2E2E2E2E2E2E2E2E2E2E2E2E2E2E2E2E2E2E2E2E2F5E2E2E2E2E2E2E2E2E2E2E2E2E2E2E2E2F5E2E2E2F5F5E2E2E2F5E2E2E2E2E2E2E2E2E2E2E2E2E2E2E2E2F5E2E2E2E2E2E2
310
E2E2E2E2E2E2E2E2E2E2E2E2E2E2E2E2E2E2E2E2E2E2E2E2E2E2E2E2E2E2E2E2E2E2E2E2E2E2E2E2E2E2E2E2E2E2E2E2E2E2E2E2E2E2E2E2E2E2E2E2E2E2E2E2E2E2E2E2E2E2E2E2E2E2E2E2E2E2E2E2E2E2E2E2E2E2E2E2E2E2E2E2E2E2E2E2E2E2E2E2E2E2E2E2E2E2E2E2E2E2E2E2E2E2E2E2E2E2E2E2E2E2E2E2E2E2E2
310
E2E2E2F5E2E2E2E2E2E2E2E2E2E2E2E2E2E2E2E2F5E2E2E2F5F5E2E2E2F5E2E2E2E2E2E2E2E2E2E2E2E2E2E2E2E2F5E2E2E2E2E2E2E2E2E2E2E2E2E2E2E2E2E2E2E2E2E2E2E2E2E2E2E2E2E2E2E2E2E2E2E2E2E2E2E2E2E2E2E2E2E2E2E2E2E2E2E2E2E2E2E2E2E2E2E2E2E2E2E2E2E2E2E2E2E2E2E2E2E2E2E2E2E2E2E2E2
310
E2E2E2E2E2E2E2E2E2E2E2E2E2E2E2E2E2E2E2E2E2E2E2E2E2E2E2E2E2E2E2E2E2E2E2E2E2E2E2E2E2E2E2E2E2E2E2E2E2E2E2E2E2E2E2E2F5E2E2E2E2E2E2E2E2E2E2E2E2E2E2E2E2F5E2E2E2F5F5E2E2E2F5E2E2E2E2E2E2E2E2E2E2E2E2E2E2E2E2F5E2E2E2E2E2E2E2E2E2E2E2E2E2E2E2E2E2E2E2E2E2E2E2E2E2E2E2
310
E2E2E2E2E2E2E2E2E2E2E2E2E2E2E2E2E2E2E2E2E2E2E2E2E2E2E2E2E2E2E2E2E2E2E2E2E2E2E2E2E2E2E2E2E2E2E2E2E2E2E2E2E2E2E2E2E2E2E2E2E2E2E2E2E2E2E2E2E2E2E2E2E2E2E2E2E2E2E2E2E2E2E2E2E2E2E2E2E2E2E2E2E2E2E2E2E2E2E2E2E2E2E2E2E2E2E2E2E2F5E2E2E2E2E2E2E2E2E2E2E2E2E2E2E2E2F5
310
E2E2E2F5F5E2E2E2F5E2E2E2E2E2E2E2E2E2E2E2E2E2E2E2E2F5E2E2E2E2E2E2E2E2E2E2E2E2E2E2E2E2E2E2E2E2E2E2E2E2E2E2E2E2E2E2E2E2E2E2E2E2E2E2E2E2E2E2E2E2E2E2E2E2E2E2E2E2E2E2E2E2E2E2E2E2E2E2E2E2E2E2E2E2E2E2E2E2E2E2E2E2E2E2E2E2E2E2E2E2E2E2E2E2E2E2E2E2E2E2E2E2E2E2E2E2E2
310
E2E2E2E2E2E2E2E2E2E2E2E2E2E2E2E2E2E2E2E2E2E2E2E2E2E2E2E2E2E2E2E2E2E2E2F5E2E2E2E2E2E2E2E2E2E2E2E2E2E2E2E2F5E2E2E2F5F5E2E2E2F5E2E2E2E2E2E2E2E2E2E2E2E2E2E2E2E2F5E2E2E2E2E2E2E2E2E2E2E2E2E2E2E2E2E2E2E2E2E2E2E2E2E2E2E2E2E2E2E2E2E2E2E2E2E2E2E2E2E2E2E2E2E2E2E2E2
310
E2E2E2E2E2E2E2E2E2E2E2E2E2E2E2E2E2E2E2E2E2E2E2E2E2E2E2E2E2E2E2E2E2E2E2E2E2E2E2E2E2E2E2E2E2E2E2E2E2E2E2E2E2E2E2E2E2E2E2E2E2E2E2E2E2E2E2E2E2E2E2E2E2E2E2E2E2E2E2E2E2E2E2E2E2E2E2E2F5E2E2E2E2E2E2E2E2E2E2E2E2E2E2E2E2F5E2E2E2F5F5E2E2E2F5E2E2E2E2E2E2E2E2E2E2E2E2
310
E2E2E2E2F5E2E2E2E2E2E2E2E2E2E2E2E2E2E2E2E2E2E2E2E2E2E2E2E2E2E2E2E2E2E2E2E2E2E2E2E2E2E2E2E2E2E2E2E2E2E2E2E2E2E2E2E2E2E2E2E2E2E2E2E2E2E2E2E2E2E2E2E2E2E2E2E2E2E2E2E2E2E2E2E2E2E2E2E2E2E2E2E2E2E2E2E2E2E2E2E2E2E2E2E2E2E2E2E2E2E2E2E2E2E2E2E2E2E2E2E2E2E2E2E2E2E2
310
E2E2E2E2E2E2E2E2E2E2E2E2E2E2F5E2E2E2E2E2E2E2E2E2E2E2E2E2E2E2E2F5E2E2E2F5F5E2E2E2F5E2E2E2E2E2E2E2E2E2E2E2E2E2E2E2E2F5E2E2E2E2E2E2E2E2E2E2E2E2E2E2E2E2E2E2E2E2E2E2E2E2E2E2E2E2E2E2E2E2E2E2E2E2E2E2E2E2E2E2E2E2E2E2E2E2E2E2E2E2E2E2E2E2E2E2E2E2E2E2E2E2E2E2E2E2E2
310
E2E2E2E2E2E2E2E2E2E2E2E2E2E2E2E2E2E2E2E2E2E2E2E2E2E2E2E2E2E2E2E2E2E2E2E2E2E2E2E2E2E2E2E2E2E2E2E2E2E2E2E2E2E2E2E2E2E2E2E2E2E2E2E2E2E2E2F5E2E2E2E2E2E2E2E2E2E2E2E2E2E2E2E2F5E2E2E2F5F5E2E2E2F5E2E2E2E2E2E2E2E2E2E2E2E2E2E2E2E2F5E2E2E2E2E2E2E2E2E2E2E2E2E2E2E2E2
310
E2E2E2E2E2E2E2E2E2E2E2E2E2E2E2E2E2E2E2E2E2E2E2E2E2E2E2E2E2E2E2E2E2E2E2E2E2E2E2E2E2E2E2E2E2E2E2E2E2E2E2E2E2E2E2E2E2E2E2E2E2E2E2E2E2E2E2E2E2E2E2E2E2E2E2E2E2E2E2E2E2E2E2E2E2E2E2E2E2E2E2E2E2E2E2E2E2E2E2E2E2E2E2E2E2E2E2E2E2E2E2E2E2E2E2E2E2E2E2E2F5E2E2E2E2E2E2
310
E2E2E2E2E2E2E2E2E2E2F5E2E2E2F5F5E2E2E2F5E2E2E2E2E2E2E2E2E2E2E2E2E2E2E2E2F5E2E2E2E2E2E2E2E2E2E2E2E2E2E2E2E2E2E2E2E2E2E2E2E2E2E2E2E2E2E2E2E2E2E2E2E2E2E2E2E2E2E2E2E2E2E2E2E2E2E2E2E2E2E2E2E2E2E2E2E2E2E2E2E2E2E2E2E2E2E2E2E2E2E2E2E2E2E2E2E2E2E2E2E2E2E2E2E2E2E2
310
E2E2E2E2E2E2E2E2E2E2E2E2E2E2E2E2E2E2E2E2E2E2E2E2E2E2E2E2E2E2E2E2E2E2E2E2E2E2E2E2E2E2E2E2E2E2F5E2E2E2E2E2E2E2E2E2E2E2E2E2E2E2E2F5E2E2E2F5F5E2E2E2F5E2E2E2E2E2E2E2E2E2E2E2E2E2E2E2E2F5E2E2E2E2E2E2E2E2E2E2E2E2E2E2E2E2E2E2E2E2E2E2E2E2E2E2E2E2E2E2E2E2E2E2E2E2E2
310
E2E2E2E2E2E2E2E2E2E2E2E2E2E2E2E2E2E2E2E2E2E2E2E2E2E2E2E2E2E2E2E2E2E2E2E2E2E2E2E2E2E2E2E2E2E2E2E2E2E2E2E2E2E2E2E2E2E2E2E2E2E2E2E2E2E2E2E2E2E2E2E2E2E2E2E2E2E2E2E2E2E2E2E2E2E2E2E2E2E2E2E2E2E2E2E2E2E2E2F5E2E2E2E2E2E2E2E2E2E2E2E2E2E2E2E2F5E2E2E2F5F5E2E2E2F5E2
310
E2E2E2E2E2E2E2E2E2E2E2E2E2E2E2F5E2E2E2E2E2E2E2E2E2E2E2E2E2E2E2E2E2E2E2E2E2E2E2E2E2E2E2E2E2E2E2E2E2E2E2E2E2E2E2E2E2E2E2E2E2E2E2E2E2E2E2E2E2E2E2E2E2E2E2E2E2E2E2E2E2E2E2E2E2E2E2E2E2E2E2E2E2E2E2E2E2E2E2E2E2E2E2E2E2E2E2E2E2E2E2E2E2E2E2E2E2E2E2E2E2E2E2E2E2E2E2
310
E2E2E2E2E2E2E2E2E2E2E2E2E2E2E2E2E2E2E2E2E2E2E2E2E2F5E2E2E2E2E2E2E2E2E2E2E2E2E2E2E2E2F5E2E2E2F5F5E2E2E2F5E2E2E2E2E2E2E2E2E2E2E2E2E2E2E2E2F5E2E2E2E2E2E2E2E2E2E2E2E2E2E2E2E2E2E2E2E2E2E2E2E2E2E2E2E2E2E2E2E2E2E2E2E2E2E2E2E2E2E2E2E2E2E2E2E2E2E2E2E2E2E2E2E2E2E2
310
E2E2E2E2E2E2E2E2E2E2E2E2E2E2E2E2E2E2E2E2E2E2E2E2E2E2E2E2E2E2E2E2E2E2E2E2E2E2E2E2E2E2E2E2E2E2E2E2E2E2E2E2E2E2E2E2E2E2E2E2E2E2E2E2E2E2E2E2E2E2E2E2E2E2E2E2E2E2F5E2E2E2E2E2E2E2E2E2E2E2E2E2E2E2E2F5E2E2E2F5F5E2E2E2F5E2E2E2E2E2E2E2E2E2E2E2E2E2E2E2E2F5E2E2E2E2E2
310
E2E2E2E2E2E2E2E2E2E2E2E2E2E2E2E2E2E2E2E2E2E2E2E2E2E2E2E2E2E2E2E2E2E2E2E2E2E2E2E2E2E2E2E2E2E2E2E2E2E2E2E2E2E2E2E2E2E2E2E2E2E2E2E2E2E2E2E2E2E2E2E2E2E2E2E2E2E2E2E2E2E2E2E2E2E2E2E2E2E2E2E2E2E2E2E2E2E2E2E2E2E2E2E2E2E2E2E2E2E2E2E2E2E2E2E2E2E2E2E2E2E2E2E2E2E2E2
310
E2E2E2E2F5E2E2E2E2E2E2E2E2E2E2E2E2E2E2E2E2F5E2E2E2F5F5E2E2E2E2E2E2E2E2E2E2E2E2E2E2E2E2E2E2E2E2F5E2E2E2E2E2E2E2E2E2E2E2E2E2E2E2E2E2E2E2E2E2E2E2E2E2E2E2E2E2E2E2E2E2E2E2E2E2E2E2E2E2E2E2E2E2E2E2E2E2E2E2E2E2E2E2E2E2E2E2E2E2E2E2E2E2E2E2E2E2E2E2E2E2E2E2E2E2E2E2
310
E2E2E2E2E2E2E2E2E2E2E2E2E2E2E2E2E2E2E2E2E2E2E2E2E2E2E2E2E2E2E2E2E2E2E2E2E2E2E2E2E2E2E2E2E2E2E2E2E2E2E2E2E2E2E2E2E2F5E2E2E2E2E2E2E2E2E2E2E2E2E2E2E2E2E2E2E2E2F5F5E2E2E2E2E2E2E2E2E2E2E2E2E2E2E2E2E2E2E2E2F5E2E2E2E2E2E2E2E2E2E2E2E2E2E2E2E2E2E2E2E2E2E2E2E2E2E2
310
E2E2E2E2E2E2E2E2E2E2E2E2E2E2E2E2E2E2E2E2E2E2E2E2E2E2E2E2E2E2E2E2E2E2E2E2E2E2E2E2E2E2E2E2E2E2E2E2E2E2E2E2E2E2E2E2E2E2E2E2E2E2E2E2E2E2E2E2E2E2E2E2E2E2E2E2E2E2E2E2E2E2E2E2E2E2E2E2E2E2E2E2E2E2E2E2E2E2E2E2E2E2E2E2E2E2E2E2E2E2F5E2E2E2E2E2E2E2E2E2E2E2E2E2E2E2E2
310
E2E2E2E2F5F5E2E2E2E2E2E2E2E2E2E2E2E2E2E2E2E2E2E2E2E2F5E2E2E2E2E2E2E2E2E2E2E2E2E2E2E2E2E2E2E2E2E2E2E2E2E2E2E2E2E2E2E2E2E2E2E2E2E2E2E2E2E2E2E2E2E2E2E2E2E2E2E2E2E2E2E2E2E2E2E2E2E2E2E2E2E2E2E2E2E2E2E2E2E2E2E2E2E2E2E2E2E2E2E2E2E2E2E2E2E2E2E2E2E2E2E2E2E2E2E2E2
310
E2E2E2E2E2E2E2E2E2E2E2E2E2E2E2E2E2E2E2E2E2E2E2E2E2E2E2E2E2E2E2E2E2E2E2E2F5E2E2E2E2E2E2E2E2E2E2E2E2E2E2E2E2E2E2E2E2F5F5E2E2E2E2E2E2E2E2E2E2E2E2E2E2E2E2E2E2E2E2F5E2E2E2E2E2E2E2E2E2E2E2E2E2E2E2E2E2E2E2E2E2E2E2E2E2E2E2E2E2E2E2E2E2E2E2E2E2E2E2E2E2E2E2E2E2E2E2
310
E2E2E2E2E2E2E2E2E2E2E2E2E2E2E2E2E2E2E2E2E2E2E2E2E2E2E2E2E2E2E2E2E2E2E2E2E2E2E2E2E2E2E2E2E2E2E2E2E2E2E2E2E2E2E2E2E2E2E2E2E2E2E2E2E2E2E2E2E2E2E2E2E2E2E2E2E2E2E2E2E2E2E2E2E2E2E2E2E2F5E2E2E2E2E2E2E2E2E2E2E2E2E2E2E2E2E2E2E2E2F5F5E2E2E2E2E2E2E2E2E2E2E2E2E2E2E2
310
E2E2E2E2E2F5F5F5F5F5F5F5F5F5F5F5F5F5F5F5F5F5F5F5F5F5F5F5F5F5F5F5F5F5F5F5F5F5F5F5F5F5F5F5F5F5F5F5F5F5F5F5F5F5F5F5F5F5F5F5F5F5F5F5F5F5F5F5F5F5F5F5F5F5F5F5F5F5F5F5F5F5F5F5F5F5F5F5F5F5F5F5F5F5F5F5F5F5F5F5F5F5F5F5F5F5F5F5F5F5F5F5F5F5F5F5F5F5F5F5F5F5F5F5F5F5F5
310
F5F5F5F5F5F5F5F5F5F5F5F5F5F5F5F5E2E2E2E2E2E2E2E2E2E2E2E2E2E2E2E2E2E2E2E2F5F5E2E2E2E2E2E2E2E2E2E2E2E2E2E2E2E2E2E2E2E2E2E2E2E2E2E2E2E2E2E2E2E2E2E2E2E2E2E2E2E2E2E2E2E2E2E2E2E2E2E2E2E2E2E2E2E2E2E2E2E2E2E2E2E2E2E2E2E2E2E2E2E2E2E2E2E2E2E2E2E2E2E2E2E2E2E2E2E2E2
310
E2E2E2E2E2E2E2E2E2E2E2E2E2E2E2E2E2E2E2E2E2E2E2E2E2E2E2E2E2E2E2E2E2E2E2E2E2E2E2E2E2E2E2E2E2E2E2E2E2E2E2E2E2E2E2E2E2E2E2E2E2E2E2E2E2E2E2E2E2E2E2E2E2E2E2E2E2E2E2E2E2E2E2E2E2E2E2E2E2F5F5E2E2E2E2E2E2E2E2E2E2E2E2E2E2E2E2E2E2E2E2E2E2E2E2E2E2E2E2E2E2E2E2E2E2E2E2
310
E2E2E2E2E2E2E2E2E2E2E2E2E2E2E2E2E2E2E2E2E2E2E2E2E2E2E2E2E2E2E2E2E2E2E2E2E2E2E2E2E2E2E2E2E2E2E2E2E2E2E2E2E2E2E2E2E2E2E2E2E2E2E2E2E2E2E2E2E2E2E2E2E2E2E2E2E2E2E2E2E2E2E2E2E2E2E2E2E2E2E2E2E2E2E2E2E2E2E2E2E2E2E2E2E2E2E2E2E2E2E2E2E2E2E2E2E2E2E2E2E2E2E2E2E2E2E2
310
E2E2E2E2E2E2E2E2E2E2E2E2E2E2E2F5F5E2E2E2E2E2E2E2E2E2E2E2E2E2E2E2E2E2E2E2E2E2E2E2E2E2E2E2E2E2E2E2E2E2E2E2E2E2E2E2E2E2E2E2E2E2E2E2E2E2E2E2E2E2E2E2E2E2E2E2E2E2E2E2E2E2E2E2E2E2E2E2E2E2E2E2E2E2E2E2E2E2E2E2E2E2E2E2E2E2E2E2E2E2E2E2E2E2E2E2E2E2E2E2E2E2E2E2E2E2E2
310
E2E2E2E2E2E2E2E2E2E2E2E2E2E2E2E2E2E2E2E2E2E2E2E2E2E2E2E2E2E2E2E2E2E2E2E2E2E2E2E2E2E2E2E2E2E2E2E2E2E2E2E2E2E2E2E2E2E2E2E2E2E2E2E2E2E2E2E2F5F5E2E2E2E2E2E2E2E2E2E2E2E2E2E2E2E2E2E2E2E2E2E2E2E2E2E2E2E2E2E2E2E2E2E2E2E2E2E2E2E2E2E2E2E2E2E2E2E2E2E2E2E2E2E2E2E2E2
310
E2E2E2E2E2E2E2E2E2E2E2E2E2E2E2E2E2E2E2E2E2E2E2E2E2E2E2E2E2E2E2E2E2E2E2E2E2E2E2E2E2E2E2E2E2E2E2E2E2E2E2E2E2E2E2E2E2E2E2E2E2E2E2E2E2E2E2E2E2E2E2E2E2E2E2E2E2E2E2E2E2E2E2E2E2E2E2E2E2E2E2E2E2E2E2E2E2E2E2E2E2E2E2E2E2E2E2E2E2E2E2E2E2E2E2E2E2E2E2E2E2F5F5E2E2E2F5
310
E2E2E2E2E2E2E2E2E2E2E2E2E2E2E2E2E2E2E2E2E2E2E2E2E2E2E2E2E2E2E2E2E2E2E2E2E2E2E2E2E2E2E2E2E2E2E2E2E2E2E2E2E2E2E2E2E2E2E2E2E2E2E2E2E2E2E2E2E2E2E2E2E2E2E2E2E2E2E2E2E2E2E2E2E2E2E2E2E2E2E2E2E2E2E2E2E2E2E2E2E2E2E2E2E2E2E2E2E2E2E2E2E2E2E2E2E2E2E2E2E2E2E2E2E2E2E2
310
E2E2E2E2E2E2E2E2E2E2E2E2E2E2E2E2E2E2E2E2E2E2E2E2E2E2E2E2E2E2E2E2E2E2E2E2E2E2E2E2E2E2E2F5E2E2E2F5F5E2E2E2F5E2E2E2E2E2E2E2E2E2E2E2E2E2E2E2E2E2E2E2E2E2E2E2E2E2E2E2E2E2E2E2E2E2E2E2E2E2E2E2E2E2E2E2E2E2E2E2E2E2E2E2E2E2E2E2E2E2E2E2E2E2E2E2E2E2E2E2E2E2E2E2E2E2E2
310
E2E2E2E2E2E2E2E2E2E2E2E2E2E2E2E2E2E2E2E2E2E2E2E2E2E2E2E2E2E2E2E2E2E2E2E2E2E2E2E2E2E2E2E2E2E2E2E2E2E2E2E2E2E2E2E2E2E2E2E2E2E2E2E2E2E2E2E2E2E2E2E2E2E2E2E2E2E2E2E2E2E2E2E2E2E2E2E2E2E2E2E2E2E2E2E2F5E2E2E2F5F5E2E2E2F5E2E2E2E2E2E2E2E2E2E2E2E2E2E2E2E2E2E2E2E2E2
310
E2E2E2E2E2E2E2E2E2E2E2E2E2E2E2E2E2E2E2E2E2E2E2E2E2E2E2E2E2E2E2E2E2E2E2E2E2E2E2E2E2E2E2E2E2E2E2E2E2E2E2E2E2E2E2E2E2E2E2E2E2E2E2E2E2E2E2E2E2E2E2E2E2E2E2E2E2E2E2E2E2E2E2E2E2E2E2E2E2E2E2E2E2E2E2E2E2E2E2E2E2E2E2E2E2E2E2E2E2E2E2E2E2E2E2E2E2E2E2E2E2E2E2E2E2E2E2
310
E2E2E2E2E2E2E2E2E2E2E2E2E2E2E2E2E2E2E2E2E2E2F5E2E2E2F5F5E2E2E2F5E2E2E2E2E2E2E2E2E2E2E2E2E2E2E2E2E2E2E2E2E2E2E2E2E2E2E2E2E2E2E2E2E2E2E2E2E2E2E2E2E2E2E2E2E2E2E2E2E2E2E2E2E2E2E2E2E2E2E2E2E2E2E2E2E2E2E2E2E2E2E2E2E2E2E2E2E2E2E2E2E2E2E2E2E2E2E2E2E2E2E2E2E2E2E2
310
E2E2E2E2E2E2E2E2E2E2E2E2E2E2E2E2E2E2E2E2E2E2E2E2E2E2E2E2E2E2E2E2E2E2E2E2E2E2E2E2E2E2E2E2E2E2E2E2E2E2E2E2E2E2E2E2E2E2E2E2E2E2E2E2E2E2E2E2E2E2E2E2E2E2E2F5E2E2E2F5F5E2E2E2F5E2E2E2E2E2E2E2E2E2E2E2E2E2E2E2E2E2E2E2E2E2E2E2E2E2E2E2E2E2E2E2E2E2E2E2E2E2E2E2E2E2E2
310
E2E2E2E2E2E2E2E2E2E2E2E2E2E2E2E2E2E2E2E2E2E2E2E2E2E2E2E2E2E2E2E2E2E2E2E2E2E2E2E2E2E2E2E2E2E2E2E2E2E2E2E2E2E2E2E2E2E2E2E2E2E2E2E2E2E2E2E2E2E2E2E2E2E2E2E2E2E2E2E2E2E2E2E2E2E2E2E2E2E2E2E2E2E2E2E2E2E2E2E2E2E2E2E2E2E2E2E2E2E2E2E2E2E2E2E2E2E2E2E2E2E2E2E2E2E2E2
310
E2F5E2E2E2F5F5E2E2E2F5E2E2E2E2E2E2E2E2E2E2E2E2E2E2E2E2E2E2E2E2E2E2E2E2E2E2E2E2E2E2E2E2E2E2E2E2E2E2E2E2E2E2E2E2E2E2E2E2E2E2E2E2E2E2E2E2E2E2E2E2E2E2E2E2E2E2E2E2E2E2E2E2E2E2E2E2E2E2E2E2E2E2E2E2E2E2E2E2E2E2E2E2E2E2E2E2E2E2E2E2E2E2E2E2E2E2E2E2E2E2E2E2E2E2E2E2
310
E2E2E2E2E2E2E2E2E2E2E2E2E2E2E2E2E2E2E2E2E2E2E2E2E2E2E2E2E2E2E2E2E2E2E2E2E2E2E2E2E2E2E2E2E2E2E2E2E2E2E2E2E2E2F5E2E2E2F5F5E2E2E2F5E2E2E2E2E2E2E2E2E2E2E2E2E2E2E2E2E2E2E2E2E2E2E2E2E2E2E2E2E2E2E2E2E2E2E2E2E2E2E2E2E2E2E2E2E2E2E2E2E2E2E2E2E2E2E2E2E2E2E2E2E2E2E2
310
E2E2E2E2E2E2E2E2E2E2E2E2E2E2E2E2E2E2E2E2E2E2E2E2E2E2E2E2E2E2E2E2E2E2E2E2E2E2E2E2E2E2E2E2E2E2E2E2E2E2E2E2E2E2E2E2E2E2E2E2E2E2E2E2E2E2E2E2E2E2E2E2E2E2E2E2E2E2E2E2E2E2E2E2E2E2E2E2E2E2E2E2E2E2E2E2E2E2E2E2E2E2E2E2E2E2E2F5E2E2E2F5F5E2E2E2F5E2E2E2E2E2E2E2E2E2E2
310
E2E2E2E2E2E2E2E2E2E2E2E2E2E2E2E2E2E2E2E2E2E2E2E2E2E2E2E2E2E2E2E2E2E2E2E2E2E2E2E2E2E2E2E2E2E2E2E2E2E2E2E2E2E2E2E2E2E2E2E2E2E2E2E2E2E2E2E2E2E2E2E2E2E2E2E2E2E2E2E2E2E2E2E2E2E2E2E2E2E2E2E2E2E2E2E2E2E2E2E2E2E2E2E2E2E2E2E2E2E2E2E2E2E2E2E2E2E2E2E2E2E2E2E2E2E2E2
310
E2E2E2E2E2E2E2E2E2E2E2E2E2E2E2E2E2E2E2E2E2E2E2E2E2E2E2E2E2E2E2E2E2F5E2E2E2F5F5E2E2E2F5F5F5F5F5F5F5F5E2E2E2E2E2E2E2E2E2F5F5F5F5F5F5F5F5F5F5F5F5F5F5F5F5E2E2E2E2E2E2E2E2E2F5F5F5F5F5F5F5F5F5F5F5F5F5F5F5E2E2E2E2E2E2E2E2E2F5F5F5F5F5F5F5F5F5F5F5F5F5F5F5F5E2E2E2
310
E2E2E2E2E2F5F5F5F5F5F5F5F5F5F5F5F5F5F5F5F5E2E2E2E2E2E2E2E2E2F5F5F5F5F5F5F5F5F5F5F5F5F5F5F5E2E2E2E2E2E2E2E2E2F5F5F5F5F5F5F5F5F5F5F5F5F5F5F5F5E2E2E2E2E2E2E2E2E2F5F5F5F5F5F5F5F5E2E2E2F5F5E2E2E2E2E2E2E2E2E2E2E2E2E2E2E2E2E2E2E2E2E2E2E2E2E2E2E2E2E2E2E2E2E2E2E2
310
E2E2E2E2E2E2E2E2E2E2E2E2E2E2E2E2E2E2E2E2E2E2E2E2E2E2E2E2E2E2E2E2E2E2E2E2E2E2E2E2E2E2E2E2E2E2E2E2E2E2E2E2E2E2E2E2E2E2E2E2E2E2E2E2E2E2E2E2E2E2E2E2E2E2E2E2E2E2E2E2E2E2E2E2E2E2E2E2E2E2E2E2E2E2E2E2E2E2E2E2E2E2E2E2E2E2E2E2E2E2E2E2E2E2E2E2E2E2E2E2E2E2E2E2E2E2E2
310
E2E2E2E2E2E2E2E2E2E2E2E2E2E2E2E2F5F5E2E2E2E2E2E2E2E2E2E2E2E2E2E2E2E2E2E2E2E2E2E2E2E2E2E2E2E2E2E2E2E2E2E2E2E2E2E2E2E2E2E2E2E2E2E2E2E2E2E2E2E2E2E2E2E2E2E2E2E2E2E2E2E2E2E2E2E2E2E2E2E2E2E2E2E2E2E2E2E2E2E2E2E2E2E2E2E2E2E2E2E2E2E2E2E2E2E2E2E2E2E2E2E2E2E2E2E2E2
310
E2E2E2E2E2E2E2E2E2E2E2E2E2E2E2E2E2E2E2E2E2E2E2E2E2E2E2E2E2E2E2E2E2E2E2E2E2E2E2E2E2E2E2E2E2E2E2E2E2E2E2E2E2E2E2E2E2E2E2E2E2E2E2E2E2E2E2E2E2F5F5E2E2E2E2E2E2E2E2E2E2E2E2E2E2E2E2E2E2E2E2E2E2E2E2E2E2E2E2E2E2E2E2E2E2E2E2E2E2E2E2E2E2E2E2E2E2E2E2E2E2E2E2E2E2E2E2
310
E2E2E2E2E2E2E2E2E2E2E2E2E2E2E2E2E2E2E2E2E2E2E2E2E2E2E2E2E2E2E2E2E2E2E2E2E2E2E2E2E2E2E2E2E2E2E2E2E2E2E2E2E2E2E2E2E2E2E2E2E2E2E2E2E2E2E2E2E2E2E2E2E2E2E2E2E2E2E2E2E2E2E2E2E2E2E2E2E2E2E2E2E2E2E2E2E2E2E2E2E2E2E2E2E2E2E2E2E2E2E2E2E2E2E2E2E2E2E2E2E2E2F5F5E2E2E2
310
E2E2E2E2E2E2E2E2E2E2E2E2E2E2E2E2E2E2E2E2E2E2E2E2E2E2E2E2E2E2E2E2E2E2E2E2E2E2E2E2E2E2E2E2E2E2E2E2E2E2E2E2E2E2E2E2E2E2E2E2E2E2E2E2E2E2E2E2E2E2E2E2E2E2E2E2E2E2E2E2E2E2E2E2E2E2E2E2E2E2E2E2E2E2E2E2E2E2E2E2E2E2E2E2E2E2E2E2E2E2E2E2E2E2E2E2E2E2E2E2E2E2E2E2E2E2E2
310
E2E2E2E2E2E2E2E2E2E2E2E2E2E2E2E2E2E2E2E2E2E2E2E2E2E2E2E2E2E2E2E2E2E2E2E2E2E2E2E2E2E2E2E2E2E2E2E2F5
  0
XRECORD
  5
55EF7
102
{ACAD_REACTORS
330
55EF6
102
}
330
55EF6
100
AcDbXrecord
280
     1
102
SHADEPLOT
 70
     0
102
SHADEPLOTRESLEVEL
 70
     2
102
SHADEPLOTCUSTOMDPI
 70
   300
  0
ENDSEC
  0
EOF
