  0
SECTION
  2
HEADER
  9
$ACADVER
  1
AC1015
  9
$ACADMAINTVER
 70
    20
  9
$DWGCODEPAGE
  3
ANSI_936
  9
$INSBASE
 10
0.0
 20
0.0
 30
0.0
  9
$EXTMIN
 10
-135.5234124968347
 20
-166.3184989418733
 30
0.0
  9
$EXTMAX
 10
870.0912428520418
 20
111.3675973155009
 30
0.0
  9
$LIMMIN
 10
0.0
 20
0.0
  9
$LIMMAX
 10
420.0
 20
297.0
  9
$ORTHOMODE
 70
     0
  9
$REGENMODE
 70
     1
  9
$FILLMODE
 70
     1
  9
$QTEXTMODE
 70
     0
  9
$MIRRTEXT
 70
     1
  9
$LTSCALE
 40
1.0
  9
$ATTMODE
 70
     1
  9
$TEXTSIZE
 40
3.5
  9
$TRACEWID
 40
1.0
  9
$TEXTSTYLE
  7
simplex
  9
$CLAYER
  8
0
  9
$CELTYPE
  6
ByLayer
  9
$CECOLOR
 62
   256
  9
$CELTSCALE
 40
1.0
  9
$DISPSILH
 70
     0
  9
$DIMSCALE
 40
0.0
  9
$DIMASZ
 40
3.5
  9
$DIMEXO
 40
0.0
  9
$DIMDLI
 40
0.38
  9
$DIMRND
 40
0.0
  9
$DIMDLE
 40
0.0
  9
$DIMEXE
 40
1.5
  9
$DIMTP
 40
0.0
  9
$DIMTM
 40
0.0
  9
$DIMTXT
 40
3.5
  9
$DIMCEN
 40
0.09
  9
$DIMTSZ
 40
0.0
  9
$DIMTOL
 70
     0
  9
$DIMLIM
 70
     0
  9
$DIMTIH
 70
     0
  9
$DIMTOH
 70
     0
  9
$DIMSE1
 70
     0
  9
$DIMSE2
 70
     0
  9
$DIMTAD
 70
     1
  9
$DIMZIN
 70
     8
  9
$DIMBLK
  1

  9
$DIMASO
 70
     1
  9
$DIMSHO
 70
     1
  9
$DIMPOST
  1

  9
$DIMAPOST
  1

  9
$DIMALT
 70
     0
  9
$DIMALTD
 70
     2
  9
$DIMALTF
 40
25.4
  9
$DIMLFAC
 40
1.0
  9
$DIMTOFL
 70
     0
  9
$DIMTVP
 40
0.0
  9
$DIMTIX
 70
     0
  9
$DIMSOXD
 70
     0
  9
$DIMSAH
 70
     0
  9
$DIMBLK1
  1

  9
$DIMBLK2
  1

  9
$DIMSTYLE
  2
\M+18352\M+18373\M+1815B - ISO-25
  9
$DIMCLRD
 70
   256
  9
$DIMCLRE
 70
   256
  9
$DIMCLRT
 70
   256
  9
$DIMTFAC
 40
1.0
  9
$DIMGAP
 40
2.299999999999998
  9
$DIMJUST
 70
     0
  9
$DIMSD1
 70
     0
  9
$DIMSD2
 70
     0
  9
$DIMTOLJ
 70
     1
  9
$DIMTZIN
 70
     8
  9
$DIMALTZ
 70
     0
  9
$DIMALTTZ
 70
     0
  9
$DIMUPT
 70
     0
  9
$DIMDEC
 70
     2
  9
$DIMTDEC
 70
     2
  9
$DIMALTU
 70
     2
  9
$DIMALTTD
 70
     2
  9
$DIMTXSTY
  7
simplex
  9
$DIMAUNIT
 70
     0
  9
$DIMADEC
 70
     0
  9
$DIMALTRND
 40
0.0
  9
$DIMAZIN
 70
     0
  9
$DIMDSEP
 70
    46
  9
$DIMATFIT
 70
     3
  9
$DIMFRAC
 70
     0
  9
$DIMLDRBLK
  1

  9
$DIMLUNIT
 70
     2
  9
$DIMLWD
 70
    -1
  9
$DIMLWE
 70
    -1
  9
$DIMTMOVE
 70
     0
  9
$LUNITS
 70
     2
  9
$LUPREC
 70
     4
  9
$SKETCHINC
 40
1.0
  9
$FILLETRAD
 40
0.5
  9
$AUNITS
 70
     0
  9
$AUPREC
 70
     0
  9
$MENU
  1
.
  9
$ELEVATION
 40
0.0
  9
$PELEVATION
 40
0.0
  9
$THICKNESS
 40
0.0
  9
$LIMCHECK
 70
     0
  9
$CHAMFERA
 40
10.0
  9
$CHAMFERB
 40
10.0
  9
$CHAMFERC
 40
20.0
  9
$CHAMFERD
 40
0.0
  9
$SKPOLY
 70
     0
  9
$TDCREATE
 40
2455489.391063368
  9
$TDUCREATE
 40
2455489.057730035
  9
$TDUPDATE
 40
2458570.818062534
  9
$TDUUPDATE
 40
2458570.484729202
  9
$TDINDWG
 40
2.6623447685
  9
$TDUSRTIMER
 40
2.6622883681
  9
$USRTIMER
 70
     1
  9
$ANGBASE
 50
0.0
  9
$ANGDIR
 70
     0
  9
$PDMODE
 70
     0
  9
$PDSIZE
 40
0.0
  9
$PLINEWID
 40
0.0
  9
$SPLFRAME
 70
     0
  9
$SPLINETYPE
 70
     6
  9
$SPLINESEGS
 70
     8
  9
$HANDSEED
  5
56827
  9
$SURFTAB1
 70
     6
  9
$SURFTAB2
 70
     6
  9
$SURFTYPE
 70
     6
  9
$SURFU
 70
     6
  9
$SURFV
 70
     6
  9
$UCSBASE
  2

  9
$UCSNAME
  2

  9
$UCSORG
 10
0.0
 20
0.0
 30
0.0
  9
$UCSXDIR
 10
1.0
 20
0.0
 30
0.0
  9
$UCSYDIR
 10
0.0
 20
1.0
 30
0.0
  9
$UCSORTHOREF
  2

  9
$UCSORTHOVIEW
 70
     0
  9
$UCSORGTOP
 10
0.0
 20
0.0
 30
0.0
  9
$UCSORGBOTTOM
 10
0.0
 20
0.0
 30
0.0
  9
$UCSORGLEFT
 10
0.0
 20
0.0
 30
0.0
  9
$UCSORGRIGHT
 10
0.0
 20
0.0
 30
0.0
  9
$UCSORGFRONT
 10
0.0
 20
0.0
 30
0.0
  9
$UCSORGBACK
 10
0.0
 20
0.0
 30
0.0
  9
$PUCSBASE
  2

  9
$PUCSNAME
  2

  9
$PUCSORG
 10
0.0
 20
0.0
 30
0.0
  9
$PUCSXDIR
 10
1.0
 20
0.0
 30
0.0
  9
$PUCSYDIR
 10
0.0
 20
1.0
 30
0.0
  9
$PUCSORTHOREF
  2

  9
$PUCSORTHOVIEW
 70
     0
  9
$PUCSORGTOP
 10
0.0
 20
0.0
 30
0.0
  9
$PUCSORGBOTTOM
 10
0.0
 20
0.0
 30
0.0
  9
$PUCSORGLEFT
 10
0.0
 20
0.0
 30
0.0
  9
$PUCSORGRIGHT
 10
0.0
 20
0.0
 30
0.0
  9
$PUCSORGFRONT
 10
0.0
 20
0.0
 30
0.0
  9
$PUCSORGBACK
 10
0.0
 20
0.0
 30
0.0
  9
$USERI1
 70
     0
  9
$USERI2
 70
     0
  9
$USERI3
 70
     0
  9
$USERI4
 70
     0
  9
$USERI5
 70
     0
  9
$USERR1
 40
0.0
  9
$USERR2
 40
0.0
  9
$USERR3
 40
0.0
  9
$USERR4
 40
0.0
  9
$USERR5
 40
0.0
  9
$WORLDVIEW
 70
     1
  9
$SHADEDGE
 70
     3
  9
$SHADEDIF
 70
    70
  9
$TILEMODE
 70
     1
  9
$MAXACTVP
 70
    64
  9
$PINSBASE
 10
0.0
 20
0.0
 30
0.0
  9
$PLIMCHECK
 70
     0
  9
$PEXTMIN
 10
26.66999878883364
 20
20.31999878883365
 30
0.0
  9
$PEXTMAX
 10
240.0299890995025
 20
182.8799890995025
 30
0.0
  9
$PLIMMIN
 10
-6.350006103515625
 20
-6.349999904632567
  9
$PLIMMAX
 10
273.0499877929688
 20
209.5499939918518
  9
$UNITMODE
 70
     0
  9
$VISRETAIN
 70
     1
  9
$PLINEGEN
 70
     0
  9
$PSLTSCALE
 70
     1
  9
$TREEDEPTH
 70
  3020
  9
$CMLSTYLE
  2
Standard
  9
$CMLJUST
 70
     0
  9
$CMLSCALE
 40
20.0
  9
$PROXYGRAPHICS
 70
     1
  9
$MEASUREMENT
 70
     1
  9
$CELWEIGHT
370
    -1
  9
$ENDCAPS
280
     0
  9
$JOINSTYLE
280
     0
  9
$LWDISPLAY
290
     0
  9
$INSUNITS
 70
     4
  9
$HYPERLINKBASE
  1

  9
$STYLESHEET
  1

  9
$XEDIT
290
     1
  9
$CEPSNTYPE
380
     0
  9
$PSTYLEMODE
290
     1
  9
$FINGERPRINTGUID
  2
{601DDA01-5B13-4A4C-8F56-1333B78D855B}
  9
$VERSIONGUID
  2
{0BB69C11-1824-4829-93D9-B2EADDF46C78}
  9
$EXTNAMES
290
     1
  9
$PSVPSCALE
 40
0.0
  9
$OLESTARTUP
290
     0
  0
ENDSEC
  0
SECTION
  2
CLASSES
  0
CLASS
  1
ACDBDICTIONARYWDFLT
  2
AcDbDictionaryWithDefault
  3
ObjectDBX Classes
 90
        0
280
     0
281
     0
  0
CLASS
  1
ACDBPLACEHOLDER
  2
AcDbPlaceHolder
  3
ObjectDBX Classes
 90
        0
280
     0
281
     0
  0
CLASS
  1
LAYOUT
  2
AcDbLayout
  3
ObjectDBX Classes
 90
        0
280
     0
281
     0
  0
CLASS
  1
DICTIONARYVAR
  2
AcDbDictionaryVar
  3
ObjectDBX Classes
 90
        0
280
     0
281
     0
  0
CLASS
  1
TABLESTYLE
  2
AcDbTableStyle
  3
ObjectDBX Classes
 90
     2047
280
     0
281
     0
  0
CLASS
  1
SORTENTSTABLE
  2
AcDbSortentsTable
  3
ObjectDBX Classes
 90
        0
280
     0
281
     0
  0
CLASS
  1
DIMASSOC
  2
AcDbDimAssoc
  3
"AcDbDimAssoc|Product Desc:     AcDim ARX App For Dimension|Company:          Autodesk, Inc.|WEB Address:      www.autodesk.com"
 90
        0
280
     0
281
     0
  0
CLASS
  1
ACAD_EVALUATION_GRAPH
  2
AcDbEvalGraph
  3
ObjectDBX Classes
 90
    33921
280
     0
281
     0
  0
CLASS
  1
ACAECUSTOBJ
  2
AcAeEditorObj
  3
AcAeEditorObj
 90
    33792
280
     0
281
     0
  0
CLASS
  1
ACDB_DYNAMICBLOCKPURGEPREVENTER_VERSION
  2
AcDbDynamicBlockPurgePreventer
  3
ObjectDBX Classes
 90
    33921
280
     0
281
     0
  0
ENDSEC
  0
SECTION
  2
TABLES
  0
TABLE
  2
VPORT
  5
8
330
0
100
AcDbSymbolTable
 70
     5
  0
VPORT
  5
56818
330
8
100
AcDbSymbolTableRecord
100
AcDbViewportTableRecord
  2
*Active
 70
     0
 10
0.0
 20
0.0
 11
1.0
 21
1.0
 12
21.44500135018512
 22
3.571041056816341
 13
0.0
 23
0.0
 14
10.0
 24
10.0
 15
10.0
 25
10.0
 16
0.0
 26
0.0
 36
1.0
 17
0.0
 27
0.0
 37
0.0
 40
356.9622175425856
 41
1.54384133611691
 42
50.0
 43
0.0
 44
0.0
 50
0.0
 51
0.0
 71
     0
 72
  1000
 73
     1
 74
     1
 75
     0
 76
     0
 77
     0
 78
     0
281
     0
 65
     1
110
0.0
120
0.0
130
0.0
111
1.0
121
0.0
131
0.0
112
0.0
122
1.0
132
0.0
 79
     0
146
0.0
  0
ENDTAB
  0
TABLE
  2
LTYPE
  5
5
330
0
100
AcDbSymbolTable
 70
     4
  0
LTYPE
  5
14
330
5
100
AcDbSymbolTableRecord
100
AcDbLinetypeTableRecord
  2
ByBlock
 70
     0
  3

 72
    65
 73
     0
 40
0.0
  0
LTYPE
  5
15
330
5
100
AcDbSymbolTableRecord
100
AcDbLinetypeTableRecord
  2
ByLayer
 70
     0
  3

 72
    65
 73
     0
 40
0.0
  0
LTYPE
  5
16
330
5
100
AcDbSymbolTableRecord
100
AcDbLinetypeTableRecord
  2
Continuous
 70
     0
  3
Solid line
 72
    65
 73
     0
 40
0.0
  0
LTYPE
  5
D7
330
5
100
AcDbSymbolTableRecord
100
AcDbLinetypeTableRecord
  2
HIDDEN
 70
     0
  3
Hidden __ __ __ __ __ __ __ __ __ __ __ __ __ _
 72
    65
 73
     2
 40
9.524999999999996
 49
6.349999999999997
 74
     0
 49
-3.174999999999998
 74
     0
  0
LTYPE
  5
D9
330
5
100
AcDbSymbolTableRecord
100
AcDbLinetypeTableRecord
  2
CENTER
 70
     0
  3
Center ____ _ ____ _ ____ _ ____ _ ____ _ ____
 72
    65
 73
     4
 40
50.8
 49
31.75
 74
     0
 49
-6.349999999999997
 74
     0
 49
6.349999999999997
 74
     0
 49
-6.349999999999997
 74
     0
  0
LTYPE
  5
35815
330
5
100
AcDbSymbolTableRecord
100
AcDbLinetypeTableRecord
  2
PHANTOM
 70
     0
  3
_____ _ _ _____ _ _ _____ _ _ _____
 72
    65
 73
     6
 40
0.8
 49
0.45
 74
     0
 49
-0.05
 74
     0
 49
0.1
 74
     0
 49
-0.05
 74
     0
 49
0.1
 74
     0
 49
-0.05
 74
     0
  0
ENDTAB
  0
TABLE
  2
LAYER
  5
2
102
{ACAD_XDICTIONARY
360
E2
102
}
330
0
100
AcDbSymbolTable
 70
    14
  0
LAYER
  5
10
330
2
100
AcDbSymbolTableRecord
100
AcDbLayerTableRecord
  2
0
 70
     0
 62
     7
  6
Continuous
370
    -3
390
F
  0
LAYER
  5
D1
330
2
100
AcDbSymbolTableRecord
100
AcDbLayerTableRecord
  2
1
 70
     0
 62
     4
  6
Continuous
370
    50
390
F
1001
AcAecLayerStandard
1000

1000

  0
LAYER
  5
D3
330
2
100
AcDbSymbolTableRecord
100
AcDbLayerTableRecord
  2
2
 70
     0
 62
     7
  6
Continuous
370
    25
390
F
1001
AcAecLayerStandard
1000

1000

  0
LAYER
  5
D4
330
2
100
AcDbSymbolTableRecord
100
AcDbLayerTableRecord
  2
3
 70
     0
 62
     1
  6
HIDDEN
370
    35
390
F
1001
AcAecLayerStandard
1000

1000

  0
LAYER
  5
D8
330
2
100
AcDbSymbolTableRecord
100
AcDbLayerTableRecord
  2
4
 70
     0
 62
     2
  6
CENTER
370
    25
390
F
1001
AcAecLayerStandard
1000

1000

  0
LAYER
  5
DA
330
2
100
AcDbSymbolTableRecord
100
AcDbLayerTableRecord
  2
6
 70
     0
 62
     5
  6
Continuous
370
    35
390
F
1001
AcAecLayerStandard
1000

1000

  0
LAYER
  5
DB
330
2
100
AcDbSymbolTableRecord
100
AcDbLayerTableRecord
  2
cut
 70
     0
 62
     1
  6
Continuous
370
    25
390
F
1001
AcAecLayerStandard
1000

1000

  0
LAYER
  5
DC
330
2
100
AcDbSymbolTableRecord
100
AcDbLayerTableRecord
  2
nocut
 70
     0
 62
     7
  6
Continuous
370
    25
390
F
1001
AcAecLayerStandard
1000

1000

  0
LAYER
  5
DD
330
2
100
AcDbSymbolTableRecord
100
AcDbLayerTableRecord
  2
sk1
 70
     0
 62
     4
  6
Continuous
370
    50
390
F
1001
AcAecLayerStandard
1000

1000

  0
LAYER
  5
DE
330
2
100
AcDbSymbolTableRecord
100
AcDbLayerTableRecord
  2
sk2
 70
     0
 62
     7
  6
Continuous
370
    25
390
F
1001
AcAecLayerStandard
1000

1000

  0
LAYER
  5
DF
330
2
100
AcDbSymbolTableRecord
100
AcDbLayerTableRecord
  2
sk3
 70
     0
 62
     1
  6
HIDDEN
370
    35
390
F
1001
AcAecLayerStandard
1000

1000

  0
LAYER
  5
E0
330
2
100
AcDbSymbolTableRecord
100
AcDbLayerTableRecord
  2
sk4
 70
     0
 62
     2
  6
CENTER
370
    25
390
F
1001
AcAecLayerStandard
1000

1000

  0
LAYER
  5
E1
330
2
100
AcDbSymbolTableRecord
100
AcDbLayerTableRecord
  2
sk6
 70
     0
 62
     5
  6
Continuous
370
    35
390
F
1001
AcAecLayerStandard
1000

1000

  0
LAYER
  5
31B6
330
2
100
AcDbSymbolTableRecord
100
AcDbLayerTableRecord
  2
Defpoints
 70
     0
 62
     7
  6
Continuous
290
     0
370
    -3
390
F
  0
ENDTAB
  0
TABLE
  2
STYLE
  5
3
330
0
100
AcDbSymbolTable
 70
    12
  0
STYLE
  5
11
330
3
100
AcDbSymbolTableRecord
100
AcDbTextStyleTableRecord
  2
Standard
 70
     0
 40
0.0
 41
1.0
 50
0.0
 71
     0
 42
2.5
  3
txt.shx
  4
@extfont2.shx
  0
STYLE
  5
D6
330
3
100
AcDbSymbolTableRecord
100
AcDbTextStyleTableRecord
  2

 70
     1
 40
0.0
 41
1.0
 50
0.0
 71
     0
 42
2.5
  3
ltypeshp.shx
  4

  0
STYLE
  5
24A
330
3
100
AcDbSymbolTableRecord
100
AcDbTextStyleTableRecord
  2
simplex
 70
     0
 40
3.5
 41
1.0
 50
0.0
 71
     0
 42
3.5
  3
txt.shx
  4

  0
STYLE
  5
69E
330
3
100
AcDbSymbolTableRecord
100
AcDbTextStyleTableRecord
  2
MX_NOTE_STANDARD
 70
     0
 40
0.0
 41
1.0
 50
0.0
 71
     0
 42
4.2
  3
txt.shx
  4
extfont.shx
  0
STYLE
  5
3524
330
3
100
AcDbSymbolTableRecord
100
AcDbTextStyleTableRecord
  2
TEXTSTYLE_2
 70
     0
 40
0.0
 41
0.775
 50
0.0
 71
     0
 42
0.2
  3
gdt
  4

  0
STYLE
  5
3525
330
3
100
AcDbSymbolTableRecord
100
AcDbTextStyleTableRecord
  2
TEXTSTYLE_3
 70
     0
 40
0.0
 41
0.75
 50
0.0
 71
     0
 42
0.2
  3
txt
  4

  0
STYLE
  5
3526
330
3
100
AcDbSymbolTableRecord
100
AcDbTextStyleTableRecord
  2
TEXTSTYLE_13
 70
     0
 40
0.0
 41
1.0
 50
0.0
 71
     0
 42
0.2
  3
txt
  4

  0
STYLE
  5
519A
330
3
100
AcDbSymbolTableRecord
100
AcDbTextStyleTableRecord
  2
TEXTSTYLE_14
 70
     0
 40
0.0
 41
1.0
 50
0.0
 71
     0
 42
0.2
  3
txt
  4

  0
STYLE
  5
6F72
330
3
100
AcDbSymbolTableRecord
100
AcDbTextStyleTableRecord
  2
TEXTSTYLE_4
 70
     0
 40
0.0
 41
0.75
 50
0.0
 71
     0
 42
0.2
  3
txt
  4

  0
STYLE
  5
6F73
330
3
100
AcDbSymbolTableRecord
100
AcDbTextStyleTableRecord
  2
TEXTSTYLE_17
 70
     0
 40
0.0
 41
1.0
 50
0.0
 71
     0
 42
0.2
  3
txt
  4

  0
STYLE
  5
FE12
330
3
100
AcDbSymbolTableRecord
100
AcDbTextStyleTableRecord
  2
TEXTSTYLE_12
 70
     0
 40
0.0
 41
1.0
 50
0.0
 71
     0
 42
0.2
  3
txt
  4

  0
STYLE
  5
3AAB8
330
3
100
AcDbSymbolTableRecord
100
AcDbTextStyleTableRecord
  2
TEXTSTYLE_20
 70
     0
 40
0.0
 41
0.6
 50
0.0
 71
     0
 42
0.2
  3
txt
  4

  0
ENDTAB
  0
TABLE
  2
VIEW
  5
6
330
0
100
AcDbSymbolTable
 70
     0
  0
ENDTAB
  0
TABLE
  2
UCS
  5
7
330
0
100
AcDbSymbolTable
 70
     0
  0
ENDTAB
  0
TABLE
  2
APPID
  5
9
330
0
100
AcDbSymbolTable
 70
    12
  0
APPID
  5
12
330
9
100
AcDbSymbolTableRecord
100
AcDbRegAppTableRecord
  2
ACAD
 70
     0
  0
APPID
  5
D2
330
9
100
AcDbSymbolTableRecord
100
AcDbRegAppTableRecord
  2
AcAecLayerStandard
 70
     0
  0
APPID
  5
E6
330
9
100
AcDbSymbolTableRecord
100
AcDbRegAppTableRecord
  2
ACAD_DSTYLE_DIMTEXT_FILL
 70
     0
  0
APPID
  5
4C84
330
9
100
AcDbSymbolTableRecord
100
AcDbRegAppTableRecord
  2
ACAD_EXEMPT_FROM_CAD_STANDARDS
 70
     0
  0
APPID
  5
3493E
330
9
100
AcDbSymbolTableRecord
100
AcDbRegAppTableRecord
  2
DCO15
 70
     0
  0
APPID
  5
3BAB0
330
9
100
AcDbSymbolTableRecord
100
AcDbRegAppTableRecord
  2
ACAD_DSTYLE_DIMEXT_ENABLED
 70
     0
  0
APPID
  5
3BAB1
330
9
100
AcDbSymbolTableRecord
100
AcDbRegAppTableRecord
  2
ACAD_DSTYLE_DIMEXT_LENGTH
 70
     0
  0
APPID
  5
3BEB4
330
9
100
AcDbSymbolTableRecord
100
AcDbRegAppTableRecord
  2
ACAUTHENVIRON
 70
     0
  0
APPID
  5
3BEB7
330
9
100
AcDbSymbolTableRecord
100
AcDbRegAppTableRecord
  2
AcDbDynamicBlockTrueName
 70
     0
  0
APPID
  5
3BEB8
330
9
100
AcDbSymbolTableRecord
100
AcDbRegAppTableRecord
  2
AcDbDynamicBlockGUID
 70
     0
  0
APPID
  5
3BEBA
330
9
100
AcDbSymbolTableRecord
100
AcDbRegAppTableRecord
  2
AcDbBlockRepETag
 70
     0
  0
APPID
  5
547FC
330
9
100
AcDbSymbolTableRecord
100
AcDbRegAppTableRecord
  2
ACAD_DSTYLE_DIMRADIAL_EXTENSION
 70
     0
  0
ENDTAB
  0
TABLE
  2
DIMSTYLE
  5
A
330
0
100
AcDbSymbolTable
 70
    11
100
AcDbDimStyleTable
 71
     5
340
1BF
340
27
340
352A
340
3527
340
69F
  0
DIMSTYLE
105
27
330
A
100
AcDbSymbolTableRecord
100
AcDbDimStyleTableRecord
  2
ISO-25
 70
     0
 41
2.5
 42
0.625
 43
3.75
 44
1.25
 73
     0
 74
     0
 77
     1
 78
     8
140
2.5
141
2.5
143
0.03937007874016
147
0.625
171
     3
172
     1
271
     2
272
     2
274
     3
278
    44
283
     0
284
     8
340
11
  0
DIMSTYLE
105
1BF
102
{ACAD_REACTORS
330
5650C
330
5650D
330
5650E
330
56552
330
56553
330
565BD
330
56605
102
}
330
A
100
AcDbSymbolTableRecord
100
AcDbDimStyleTableRecord
  2
\M+18352\M+18373\M+1815B - ISO-25
 70
     0
 40
0.0
 41
3.5
 42
0.0
 44
1.5
 73
     0
 74
     0
 77
     1
 78
     8
140
3.5
147
2.299999999999998
176
   256
177
   256
178
   256
271
     2
272
     2
284
     8
340
24A
371
    -1
372
    -1
  0
DIMSTYLE
105
69F
330
A
100
AcDbSymbolTableRecord
100
AcDbDimStyleTableRecord
  2
MXDIMSTYLE
 70
     0
 41
2.5
 42
0.5
 43
3.75
 44
1.5
 73
     0
 74
     0
 77
     1
 78
     8
140
4.2
141
2.5
143
0.03937
147
1.0
171
     4
172
     1
173
     1
271
     2
272
     2
274
     4
283
     0
288
     1
340
69E
341
697
343
697
344
697
  0
DIMSTYLE
105
3527
330
A
100
AcDbSymbolTableRecord
100
AcDbDimStyleTableRecord
  2
STANDARD
 70
     0
 41
3.0
 47
0.001
 48
0.001
 71
     1
 73
     0
 74
     0
 77
     1
 78
     8
140
4.0
271
     3
272
     3
284
     8
340
11
341
34B1
342
34B1
343
34B1
344
34B1
  0
DIMSTYLE
105
3528
330
A
100
AcDbSymbolTableRecord
100
AcDbDimStyleTableRecord
  2
DIMSTYLE_1
 70
     0
 41
3.0
 73
     0
 74
     0
 77
     1
 78
     8
140
4.0
271
     3
272
     3
284
     8
340
11
341
34B1
342
34B1
343
34B1
344
34B1
  0
DIMSTYLE
105
3529
330
A
100
AcDbSymbolTableRecord
100
AcDbDimStyleTableRecord
  2
DIMSTYLE_2
 70
     0
 41
3.0
 47
0.001
 48
0.001
 73
     0
 74
     0
 77
     1
 78
     8
140
4.0
271
     3
272
     3
284
     8
340
11
341
34B1
342
34B1
343
34B1
344
34B1
  0
DIMSTYLE
105
352A
330
A
100
AcDbSymbolTableRecord
100
AcDbDimStyleTableRecord
  2
DIMSTYLE_3
 70
     0
 41
3.0
 47
-0.1
 48
0.3
 71
     1
 73
     0
 74
     0
 77
     1
 78
     8
140
4.0
146
0.5
271
     3
272
     3
284
     8
340
11
341
34B1
342
34B1
343
34B1
344
34B1
  0
DIMSTYLE
105
352B
330
A
100
AcDbSymbolTableRecord
100
AcDbDimStyleTableRecord
  2
DIMSTYLE_4
 70
     0
 41
3.0
 47
0.1
 48
0.1
 71
     1
 73
     0
 74
     0
 77
     1
 78
     8
140
4.0
271
     3
272
     3
284
     8
340
11
341
34B1
342
34B1
343
34B1
344
34B1
  0
DIMSTYLE
105
27245
330
A
100
AcDbSymbolTableRecord
100
AcDbDimStyleTableRecord
  2
DIMSTYLE_5
 70
     0
 41
3.0
 47
0.001
 48
0.001
 73
     0
 74
     0
 77
     1
 78
     8
140
4.0
271
     3
272
     3
284
     8
340
11
341
34B1
342
34B1
343
34B1
344
34B1
  0
DIMSTYLE
105
3AAB9
330
A
100
AcDbSymbolTableRecord
100
AcDbDimStyleTableRecord
  2
DIMSTYLE_6
 70
     0
 41
3.0
 42
0.0
 44
1.0
 47
0.05
 48
0.05
 71
     1
 73
     0
 74
     0
 77
     1
 78
     8
140
4.0
147
1.0
271
     3
272
     3
284
     8
340
11
341
34B1
342
34B1
343
34B1
344
34B1
  0
DIMSTYLE
105
532EA
330
A
100
AcDbSymbolTableRecord
100
AcDbDimStyleTableRecord
  2
NEW-DIMSTYLE
 70
     0
 40
0.0
 41
4.57
 42
0.0
 44
5.0
 73
     0
 74
     0
 77
     1
 78
     8
140
4.57
147
2.299999999999998
271
     2
340
24A
  0
ENDTAB
  0
TABLE
  2
BLOCK_RECORD
  5
1
330
0
100
AcDbSymbolTable
 70
    67
  0
BLOCK_RECORD
  5
1F
102
{ACAD_XDICTIONARY
360
31EE
102
}
330
1
100
AcDbSymbolTableRecord
100
AcDbBlockTableRecord
  2
*Model_Space
340
22
  0
BLOCK_RECORD
  5
50
330
1
100
AcDbSymbolTableRecord
100
AcDbBlockTableRecord
  2
*Paper_Space
340
51
  0
BLOCK_RECORD
  5
55
330
1
100
AcDbSymbolTableRecord
100
AcDbBlockTableRecord
  2
*Paper_Space0
340
56
  0
BLOCK_RECORD
  5
680
102
{ACAD_XDICTIONARY
360
3BEB2
102
}
330
1
100
AcDbSymbolTableRecord
100
AcDbBlockTableRecord
  2
zero block
340
0
102
{BLKREFS
331
68C
102
}
1001
ACAD
1000
DesignCenter Data
1002
{
1070
     1
1070
     4
1002
}
1001
AcDbDynamicBlockGUID
1000
{C2E8894D-A8DA-456D-ABB6-198B00672C1A}
1001
AcDbBlockRepETag
1070
     1
1071
        7
  0
BLOCK_RECORD
  5
697
330
1
100
AcDbSymbolTableRecord
100
AcDbBlockTableRecord
  2
_OPEN30
340
0
  0
BLOCK_RECORD
  5
34B1
330
1
100
AcDbSymbolTableRecord
100
AcDbBlockTableRecord
  2
_OPEN
340
0
  0
BLOCK_RECORD
  5
50E6F
330
1
100
AcDbSymbolTableRecord
100
AcDbBlockTableRecord
  2
_None
340
0
  0
BLOCK_RECORD
  5
553EB
330
1
100
AcDbSymbolTableRecord
100
AcDbBlockTableRecord
  2
*D10
340
0
  0
BLOCK_RECORD
  5
566D7
330
1
100
AcDbSymbolTableRecord
100
AcDbBlockTableRecord
  2
*D54
340
0
  0
BLOCK_RECORD
  5
566E4
330
1
100
AcDbSymbolTableRecord
100
AcDbBlockTableRecord
  2
*D55
340
0
  0
BLOCK_RECORD
  5
566F0
330
1
100
AcDbSymbolTableRecord
100
AcDbBlockTableRecord
  2
*D56
340
0
  0
BLOCK_RECORD
  5
566FD
330
1
100
AcDbSymbolTableRecord
100
AcDbBlockTableRecord
  2
*D57
340
0
  0
BLOCK_RECORD
  5
56709
330
1
100
AcDbSymbolTableRecord
100
AcDbBlockTableRecord
  2
*D58
340
0
  0
BLOCK_RECORD
  5
5671F
330
1
100
AcDbSymbolTableRecord
100
AcDbBlockTableRecord
  2
*D60
340
0
  0
BLOCK_RECORD
  5
56784
330
1
100
AcDbSymbolTableRecord
100
AcDbBlockTableRecord
  2
*D64
340
0
  0
ENDTAB
  0
ENDSEC
  0
SECTION
  2
BLOCKS
  0
BLOCK
  5
20
330
1F
100
AcDbEntity
  8
0
100
AcDbBlockBegin
  2
*Model_Space
 70
     0
 10
0.0
 20
0.0
 30
0.0
  3
*Model_Space
  1

  0
ENDBLK
  5
21
330
1F
100
AcDbEntity
  8
0
100
AcDbBlockEnd
  0
BLOCK
  5
52
330
50
100
AcDbEntity
 67
     1
  8
0
100
AcDbBlockBegin
  2
*Paper_Space
 70
     0
 10
0.0
 20
0.0
 30
0.0
  3
*Paper_Space
  1

  0
ENDBLK
  5
53
330
50
100
AcDbEntity
 67
     1
  8
0
100
AcDbBlockEnd
  0
BLOCK
  5
57
330
55
100
AcDbEntity
 67
     1
  8
0
100
AcDbBlockBegin
  2
*Paper_Space0
 70
     0
 10
0.0
 20
0.0
 30
0.0
  3
*Paper_Space0
  1

  0
VIEWPORT
  5
71
102
{ACAD_XDICTIONARY
360
56823
102
}
330
55
100
AcDbEntity
 67
     1
  8
0
100
AcDbViewport
 10
150.1652135264906
 20
101.599997546291
 30
0.0
 40
339.1973820494347
 41
164.5360435314421
 68
     0
 69
     0
 12
150.1652135264906
 22
101.599997546291
 13
0.0
 23
0.0
 14
10.0
 24
10.0
 15
10.0
 25
10.0
 16
0.0
 26
0.0
 36
1.0
 17
0.0
 27
0.0
 37
0.0
 42
50.0
 43
0.0
 44
0.0
 45
164.5360435314421
 50
0.0
 51
0.0
 72
  1000
 90
    32864
  1

281
     0
 71
     1
 74
     0
110
0.0
120
0.0
130
0.0
111
1.0
121
0.0
131
0.0
112
0.0
122
1.0
132
0.0
 79
     0
146
0.0
  0
VIEWPORT
  5
73
102
{ACAD_XDICTIONARY
360
56825
102
}
330
55
100
AcDbEntity
 67
     1
  8
0
100
AcDbViewport
 10
133.3499939441681
 20
101.5999939441681
 30
0.0
 40
213.3599903106689
 41
162.5599903106689
 68
     0
 69
     0
 12
210.0
 22
148.5
 13
0.0
 23
0.0
 14
10.0
 24
10.0
 15
10.0
 25
10.0
 16
0.0
 26
0.0
 36
1.0
 17
0.0
 27
0.0
 37
0.0
 42
50.0
 43
0.0
 44
0.0
 45
324.0677920111345
 50
0.0
 51
0.0
 72
   100
 90
    32864
  1

281
     0
 71
     1
 74
     0
110
0.0
120
0.0
130
0.0
111
1.0
121
0.0
131
0.0
112
0.0
122
1.0
132
0.0
 79
     0
146
0.0
  0
ENDBLK
  5
58
330
55
100
AcDbEntity
 67
     1
  8
0
100
AcDbBlockEnd
  0
BLOCK
  5
68A
330
680
100
AcDbEntity
  8
0
100
AcDbBlockBegin
  2
zero block
 70
     0
 10
0.0
 20
0.0
 30
0.0
  3
zero block
  1

  0
HATCH
  5
3BEAB
330
680
100
AcDbEntity
  8
0
 62
     7
100
AcDbHatch
 10
0.0
 20
0.0
 30
0.0
210
0.0
220
0.0
230
1.0
  2
SOLID
 70
     1
 71
     0
 91
        2
 92
        7
 72
     1
 73
     1
 93
        3
 10
0.0
 20
0.9999999999999875
 42
0.4142135623730915
 10
-1.0
 20
0.0
 42
0.0
 10
0.0
 20
0.0
 42
0.0
 97
        0
 92
        7
 72
     1
 73
     1
 93
        3
 10
1.000000000000007
 20
0.0
 42
0.0
 10
0.0
 20
0.0
 42
0.0
 10
0.0
 20
-1.0
 42
0.4142135623730974
 97
        0
 75
     0
 76
     1
 47
0.0090601366782909
 98
        2
 10
-0.380591363650975
 20
0.4885804701532896
 10
0.4350764810977559
 20
-0.4536738423704725
1001
AcDbBlockRepETag
1070
     1
1071
        0
1005
3BEAB
  0
LINE
  5
3BEAC
330
680
100
AcDbEntity
  8
0
 62
     7
 48
0.2
100
AcDbLine
 10
-1.0
 20
0.0
 30
0.0
 11
1.000000000000007
 21
0.0
 31
0.0
1001
AcDbBlockRepETag
1070
     1
1071
        1
1005
3BEAC
  0
LINE
  5
3BEAD
330
680
100
AcDbEntity
  8
0
 62
     7
 48
0.2
100
AcDbLine
 10
0.0
 20
-1.0
 30
0.0
 11
0.0
 21
0.9999999999999875
 31
0.0
1001
AcDbBlockRepETag
1070
     1
1071
        2
1005
3BEAD
  0
ARC
  5
3BEAE
330
680
100
AcDbEntity
  8
0
 62
     7
 48
0.2
100
AcDbCircle
 10
0.0
 20
0.0
 30
0.0
 40
1.0
100
AcDbArc
 50
270.0
 51
0.0
1001
AcDbBlockRepETag
1070
     1
1071
        3
1005
3BEAE
  0
ARC
  5
3BEAF
330
680
100
AcDbEntity
  8
0
 62
     7
 48
0.2
100
AcDbCircle
 10
0.0
 20
0.0
 30
0.0
 40
1.0
100
AcDbArc
 50
0.0
 51
90.0
1001
AcDbBlockRepETag
1070
     1
1071
        4
1005
3BEAF
  0
ARC
  5
3BEB0
330
680
100
AcDbEntity
  8
0
 62
     7
 48
0.2
100
AcDbCircle
 10
0.0
 20
0.0
 30
0.0
 40
1.0
100
AcDbArc
 50
180.0
 51
270.0
1001
AcDbBlockRepETag
1070
     1
1071
        5
1005
3BEB0
  0
ARC
  5
3BEB1
330
680
100
AcDbEntity
  8
0
 62
     7
 48
0.2
100
AcDbCircle
 10
0.0
 20
0.0
 30
0.0
 40
1.0
100
AcDbArc
 50
90.0
 51
180.0
1001
AcDbBlockRepETag
1070
     1
1071
        6
1005
3BEB1
  0
ENDBLK
  5
68B
330
680
100
AcDbEntity
  8
0
100
AcDbBlockEnd
  0
BLOCK
  5
698
330
697
100
AcDbEntity
  8
0
  6
ByBlock
 62
     0
370
    -2
100
AcDbBlockBegin
  2
_OPEN30
 70
     2
 10
0.0
 20
0.0
 30
0.0
  3
_OPEN30
  1

  0
LINE
  5
699
330
697
100
AcDbEntity
  8
0
  6
ByBlock
 62
     0
370
    -2
100
AcDbLine
 10
-1.0
 20
0.267949
 30
0.0
 11
0.0
 21
0.0
 31
0.0
  0
LINE
  5
69A
330
697
100
AcDbEntity
  8
0
  6
ByBlock
 62
     0
370
    -2
100
AcDbLine
 10
0.0
 20
0.0
 30
0.0
 11
-1.0
 21
-0.267949
 31
0.0
  0
LINE
  5
69B
330
697
100
AcDbEntity
  8
0
  6
ByBlock
 62
     0
370
    -2
100
AcDbLine
 10
0.0
 20
0.0
 30
0.0
 11
-1.0
 21
0.0
 31
0.0
  0
ENDBLK
  5
69C
330
697
100
AcDbEntity
  8
0
  6
ByBlock
 62
     0
370
    -2
100
AcDbBlockEnd
  0
BLOCK
  5
34B2
330
34B1
100
AcDbEntity
  8
0
100
AcDbBlockBegin
  2
_OPEN
 70
     0
 10
0.0
 20
0.0
 30
0.0
  3
_OPEN
  1

  0
LINE
  5
34B3
330
34B1
100
AcDbEntity
  8
0
  6
ByBlock
 62
     0
100
AcDbLine
 10
0.0
 20
0.0
 30
0.0
 11
-1.0
 21
0.1766666667
 31
0.0
  0
LINE
  5
34B4
330
34B1
100
AcDbEntity
  8
0
  6
ByBlock
 62
     0
100
AcDbLine
 10
-1.0
 20
-0.1766666667
 30
0.0
 11
0.0
 21
0.0
 31
0.0
  0
LINE
  5
34B5
330
34B1
100
AcDbEntity
  8
0
  6
ByBlock
 62
     0
100
AcDbLine
 10
-1.0
 20
0.0
 30
0.0
 11
0.0
 21
0.0
 31
0.0
  0
ENDBLK
  5
34B6
330
34B1
100
AcDbEntity
  8
0
  6
ByBlock
 62
     0
100
AcDbBlockEnd
  0
BLOCK
  5
50E70
330
50E6F
100
AcDbEntity
  8
0
100
AcDbBlockBegin
  2
_None
 70
     0
 10
0.0
 20
0.0
 30
0.0
  3
_None
  1

  0
ENDBLK
  5
50E71
330
50E6F
100
AcDbEntity
  8
0
100
AcDbBlockEnd
  0
BLOCK
  5
553F5
330
553EB
100
AcDbEntity
  8
0
100
AcDbBlockBegin
  2
*D10
 70
     1
 10
0.0
 20
0.0
 30
0.0
  3
*D10
  1

  0
LINE
  5
55CBB
330
553EB
100
AcDbEntity
  8
sk2
100
AcDbLine
 10
130.1749999999999
 20
11.99999999880008
 30
0.0
 11
130.1749999999999
 21
78.53310591187363
 31
0.0
  0
LINE
  5
55CBC
330
553EB
100
AcDbEntity
  8
sk2
100
AcDbLine
 10
-98.42500000000001
 20
14.19786561141916
 30
0.0
 11
-98.42500000000001
 21
78.53310591187363
 31
0.0
  0
LINE
  5
55CBD
330
553EB
100
AcDbEntity
  8
sk2
100
AcDbLine
 10
126.6749999999999
 20
77.03310591187364
 30
0.0
 11
-94.92499999999999
 21
77.03310591187364
 31
0.0
  0
SOLID
  5
55CBE
330
553EB
100
AcDbEntity
  8
sk2
100
AcDbTrace
 10
126.6749999999999
 20
77.61643924520696
 30
0.0
 11
126.6749999999999
 21
76.44977257854029
 31
0.0
 12
130.1749999999999
 22
77.03310591187364
 32
0.0
 13
130.1749999999999
 23
77.03310591187364
 33
0.0
  0
SOLID
  5
55CBF
330
553EB
100
AcDbEntity
  8
sk2
100
AcDbTrace
 10
-94.92499999999999
 20
77.61643924520696
 30
0.0
 11
-94.92499999999999
 21
76.44977257854029
 31
0.0
 12
-98.42500000000001
 22
77.03310591187364
 32
0.0
 13
-98.42500000000001
 23
77.03310591187364
 33
0.0
  0
MTEXT
  5
55CC0
330
553EB
100
AcDbEntity
  8
sk2
100
AcDbMText
 10
31.82188233026898
 20
81.08310591187363
 30
0.0
 40
3.5
 41
0.0
 71
     5
 72
     1
  1
\A1;228.6 [9.000"]
  7
simplex
 73
     1
 44
1.0
1001
ACAD
1000
MTEXTBEGIN
1070
    73
1070
     1
1070
    44
1040
1.0
1070
    74
1070
     0
1000
MTEXTEND
  0
POINT
  5
55CC1
330
553EB
100
AcDbEntity
  8
Defpoints
 62
     0
100
AcDbPoint
 10
130.1749999999999
 20
11.99999999880008
 30
0.0
  0
POINT
  5
55CC2
330
553EB
100
AcDbEntity
  8
Defpoints
 62
     0
100
AcDbPoint
 10
-98.42500000000001
 20
14.19786561141916
 30
0.0
  0
POINT
  5
55CC3
330
553EB
100
AcDbEntity
  8
Defpoints
 62
     0
100
AcDbPoint
 10
-98.42500000000001
 20
77.03310591187364
 30
0.0
  0
ENDBLK
  5
553F6
330
553EB
100
AcDbEntity
  8
0
100
AcDbBlockEnd
  0
BLOCK
  5
566E2
330
566D7
100
AcDbEntity
  8
0
100
AcDbBlockBegin
  2
*D54
 70
     1
 10
0.0
 20
0.0
 30
0.0
  3
*D54
  1

  0
LINE
  5
567D4
330
566D7
100
AcDbEntity
  8
2
100
AcDbLine
 10
50.99663672056045
 20
-14.75866210717311
 30
0.0
 11
58.01318878511608
 21
-14.75866210717311
 31
0.0
  0
LINE
  5
567D5
330
566D7
100
AcDbEntity
  8
2
100
AcDbLine
 10
50.99663672056045
 20
14.74133789282689
 30
0.0
 11
58.01318878511608
 21
14.74133789282689
 31
0.0
  0
LINE
  5
567D6
330
566D7
100
AcDbEntity
  8
2
100
AcDbLine
 10
56.51318878511609
 20
11.24133789282689
 30
0.0
 11
56.51318878511609
 21
-11.25866210717311
 31
0.0
  0
LINE
  5
567D7
330
566D7
100
AcDbEntity
  8
2
100
AcDbLine
 10
56.51318878511609
 20
-14.75866210717311
 30
0.0
 11
56.51318878511607
 21
-62.52532877383977
 31
0.0
  0
SOLID
  5
567D8
330
566D7
100
AcDbEntity
  8
2
100
AcDbTrace
 10
55.92985545178275
 20
11.24133789282689
 30
0.0
 11
57.09652211844942
 21
11.24133789282689
 31
0.0
 12
56.51318878511609
 22
14.74133789282689
 32
0.0
 13
56.51318878511609
 23
14.74133789282689
 33
0.0
  0
SOLID
  5
567D9
330
566D7
100
AcDbEntity
  8
2
100
AcDbTrace
 10
55.92985545178275
 20
-11.25866210717311
 30
0.0
 11
57.09652211844942
 21
-11.25866210717311
 31
0.0
 12
56.51318878511609
 22
-14.75866210717311
 32
0.0
 13
56.51318878511609
 23
-14.75866210717311
 33
0.0
  0
MTEXT
  5
567DA
330
566D7
100
AcDbEntity
  8
2
100
AcDbMText
 10
52.46318878511608
 20
-40.39199544050643
 30
0.0
 40
3.5
 41
0.0
 71
     5
 72
     1
  1
\A1;%%C29.5 [%%C1.161"]
  7
simplex
 11
0.0000000000000001
 21
1.0
 31
0.0
 73
     1
 44
1.0
1001
ACAD
1000
MTEXTBEGIN
1070
    73
1070
     1
1070
    44
1040
1.0
1070
    74
1070
     0
1000
MTEXTEND
  0
POINT
  5
567DB
330
566D7
100
AcDbEntity
  8
Defpoints
 62
     0
100
AcDbPoint
 10
50.99663672056045
 20
-14.75866210717311
 30
0.0
  0
POINT
  5
567DC
330
566D7
100
AcDbEntity
  8
Defpoints
 62
     0
100
AcDbPoint
 10
50.99663672056045
 20
14.74133789282689
 30
0.0
  0
POINT
  5
567DD
330
566D7
100
AcDbEntity
  8
Defpoints
 62
     0
100
AcDbPoint
 10
56.51318878511609
 20
14.74133789282689
 30
0.0
  0
ENDBLK
  5
566E3
330
566D7
100
AcDbEntity
  8
0
100
AcDbBlockEnd
  0
BLOCK
  5
566EE
330
566E4
100
AcDbEntity
  8
0
100
AcDbBlockBegin
  2
*D55
 70
     1
 10
0.0
 20
0.0
 30
0.0
  3
*D55
  1

  0
LINE
  5
567DE
330
566E4
100
AcDbEntity
  8
2
100
AcDbLine
 10
69.77499999999975
 20
14.74133789282689
 30
0.0
 11
69.77499999999975
 21
46.90091389282684
 31
0.0
  0
LINE
  5
567DF
330
566E4
100
AcDbEntity
  8
2
100
AcDbLine
 10
104.7749999999999
 20
11.99999999880009
 30
0.0
 11
104.7749999999999
 21
46.90091389282684
 31
0.0
  0
LINE
  5
567E0
330
566E4
100
AcDbEntity
  8
2
100
AcDbLine
 10
73.27499999999975
 20
45.40091389282685
 30
0.0
 11
101.275
 21
45.40091389282685
 31
0.0
  0
SOLID
  5
567E1
330
566E4
100
AcDbEntity
  8
2
100
AcDbTrace
 10
73.27499999999975
 20
45.98424722616019
 30
0.0
 11
73.27499999999975
 21
44.81758055949351
 31
0.0
 12
69.77499999999975
 22
45.40091389282685
 32
0.0
 13
69.77499999999975
 23
45.40091389282685
 33
0.0
  0
SOLID
  5
567E2
330
566E4
100
AcDbEntity
  8
2
100
AcDbTrace
 10
101.275
 20
45.98424722616019
 30
0.0
 11
101.275
 21
44.81758055949351
 31
0.0
 12
104.7749999999999
 22
45.40091389282685
 32
0.0
 13
104.7749999999999
 23
45.40091389282685
 33
0.0
  0
MTEXT
  5
567E3
330
566E4
100
AcDbEntity
  8
2
100
AcDbMText
 10
86.77500250000003
 20
49.45091389282684
 30
0.0
 40
3.5
 41
0.0
 71
     5
 72
     1
  1
\A1;35 [1.378"]
  7
simplex
 73
     1
 44
0.892857
1001
ACAD
1000
MTEXTBEGIN
1070
    73
1070
     1
1070
    44
1040
0.892857
1070
    74
1070
     0
1000
MTEXTEND
  0
POINT
  5
567E4
330
566E4
100
AcDbEntity
  8
Defpoints
 62
     0
100
AcDbPoint
 10
69.77499999999975
 20
14.74133789282689
 30
0.0
  0
POINT
  5
567E5
330
566E4
100
AcDbEntity
  8
Defpoints
 62
     0
100
AcDbPoint
 10
104.7749999999999
 20
11.99999999880009
 30
0.0
  0
POINT
  5
567E6
330
566E4
100
AcDbEntity
  8
Defpoints
 62
     0
100
AcDbPoint
 10
104.7749999999999
 20
45.40091389282685
 30
0.0
  0
ENDBLK
  5
566EF
330
566E4
100
AcDbEntity
  8
0
100
AcDbBlockEnd
  0
BLOCK
  5
566FB
330
566F0
100
AcDbEntity
  8
0
100
AcDbBlockBegin
  2
*D56
 70
     1
 10
0.0
 20
0.0
 30
0.0
  3
*D56
  1

  0
LINE
  5
567E7
330
566F0
100
AcDbEntity
  8
sk2
100
AcDbLine
 10
-93.42500000000001
 20
-15.86000656822733
 30
0.0
 11
-119.9291515922499
 21
-15.86000656822732
 31
0.0
  0
LINE
  5
567E8
330
566F0
100
AcDbEntity
  8
sk2
100
AcDbLine
 10
-92.8842578305697
 20
15.88999343177266
 30
0.0
 11
-119.9291515922499
 21
15.88999343177267
 31
0.0
  0
LINE
  5
567E9
330
566F0
100
AcDbEntity
  8
sk2
100
AcDbLine
 10
-118.4291515922499
 20
12.38999343177267
 30
0.0
 11
-118.4291515922499
 21
-12.36000656822733
 31
0.0
  0
LINE
  5
567EA
330
566F0
100
AcDbEntity
  8
sk2
100
AcDbLine
 10
-118.4291515922499
 20
-15.86000656822732
 30
0.0
 11
-118.4291515922499
 21
-67.71000656822732
 31
0.0
  0
SOLID
  5
567EB
330
566F0
100
AcDbEntity
  8
sk2
100
AcDbTrace
 10
-119.0124849255832
 20
12.38999343177267
 30
0.0
 11
-117.8458182589166
 21
12.38999343177267
 31
0.0
 12
-118.4291515922499
 22
15.88999343177267
 32
0.0
 13
-118.4291515922499
 23
15.88999343177267
 33
0.0
  0
SOLID
  5
567EC
330
566F0
100
AcDbEntity
  8
sk2
100
AcDbTrace
 10
-119.0124849255832
 20
-12.36000656822733
 30
0.0
 11
-117.8458182589166
 21
-12.36000656822733
 31
0.0
 12
-118.4291515922499
 22
-15.86000656822732
 32
0.0
 13
-118.4291515922499
 23
-15.86000656822732
 33
0.0
  0
MTEXT
  5
567ED
330
566F0
100
AcDbEntity
  8
sk2
100
AcDbMText
 10
-122.4791515922499
 20
-43.53500656822734
 30
0.0
 40
3.5
 41
0.0
 71
     5
 72
     1
  1
\A1;%%c31.75 [%%C1.250"]
  7
simplex
 11
0.0000000000000001
 21
1.0
 31
0.0
 73
     1
 44
0.892857
1001
ACAD
1000
MTEXTBEGIN
1070
    73
1070
     1
1070
    44
1040
0.892857
1070
    74
1070
     0
1000
MTEXTEND
  0
POINT
  5
567EE
330
566F0
100
AcDbEntity
  8
Defpoints
 62
     0
100
AcDbPoint
 10
-93.42500000000001
 20
-15.86000656822733
 30
0.0
  0
POINT
  5
567EF
330
566F0
100
AcDbEntity
  8
Defpoints
 62
     0
100
AcDbPoint
 10
-92.8842578305697
 20
15.88999343177266
 30
0.0
  0
POINT
  5
567F0
330
566F0
100
AcDbEntity
  8
Defpoints
 62
     0
100
AcDbPoint
 10
-118.4291515922499
 20
15.88999343177267
 30
0.0
  0
ENDBLK
  5
566FC
330
566F0
100
AcDbEntity
  8
0
100
AcDbBlockEnd
  0
BLOCK
  5
56707
330
566FD
100
AcDbEntity
  8
0
100
AcDbBlockBegin
  2
*D57
 70
     1
 10
0.0
 20
0.0
 30
0.0
  3
*D57
  1

  0
LINE
  5
567F1
330
566FD
100
AcDbEntity
  8
2
100
AcDbLine
 10
104.7749999999999
 20
11.99999999880009
 30
0.0
 11
104.7749999999999
 21
61.90821165016984
 31
0.0
  0
LINE
  5
567F2
330
566FD
100
AcDbEntity
  8
2
100
AcDbLine
 10
0.0
 20
15.88999343177266
 30
0.0
 11
0.0000000000000028
 21
61.90821165016984
 31
0.0
  0
LINE
  5
567F3
330
566FD
100
AcDbEntity
  8
2
100
AcDbLine
 10
101.275
 20
60.40821165016985
 30
0.0
 11
3.500000000000002
 21
60.40821165016985
 31
0.0
  0
SOLID
  5
567F4
330
566FD
100
AcDbEntity
  8
2
100
AcDbTrace
 10
101.275
 20
60.99154498350318
 30
0.0
 11
101.275
 21
59.82487831683651
 31
0.0
 12
104.7749999999999
 22
60.40821165016985
 32
0.0
 13
104.7749999999999
 23
60.40821165016985
 33
0.0
  0
SOLID
  5
567F5
330
566FD
100
AcDbEntity
  8
2
100
AcDbTrace
 10
3.500000000000002
 20
60.99154498350318
 30
0.0
 11
3.500000000000002
 21
59.82487831683651
 31
0.0
 12
0.0000000000000027
 22
60.40821165016985
 32
0.0
 13
0.0000000000000027
 23
60.40821165016985
 33
0.0
  0
MTEXT
  5
567F6
330
566FD
100
AcDbEntity
  8
2
100
AcDbMText
 10
52.52908228648118
 20
64.45821165016984
 30
0.0
 40
3.5
 41
0.0
 71
     5
 72
     1
  1
\A1;104.775 [4.125"]
  7
simplex
 73
     1
 44
1.0
1001
ACAD
1000
MTEXTBEGIN
1070
    73
1070
     1
1070
    44
1040
1.0
1070
    74
1070
     0
1000
MTEXTEND
  0
POINT
  5
567F7
330
566FD
100
AcDbEntity
  8
Defpoints
 62
     0
100
AcDbPoint
 10
104.7749999999999
 20
11.99999999880009
 30
0.0
  0
POINT
  5
567F8
330
566FD
100
AcDbEntity
  8
Defpoints
 62
     0
100
AcDbPoint
 10
0.0
 20
15.88999343177266
 30
0.0
  0
POINT
  5
567F9
330
566FD
100
AcDbEntity
  8
Defpoints
 62
     0
100
AcDbPoint
 10
0.0000000000000027
 20
60.40821165016985
 30
0.0
  0
ENDBLK
  5
56708
330
566FD
100
AcDbEntity
  8
0
100
AcDbBlockEnd
  0
BLOCK
  5
56713
330
56709
100
AcDbEntity
  8
0
100
AcDbBlockBegin
  2
*D58
 70
     1
 10
0.0
 20
0.0
 30
0.0
  3
*D58
  1

  0
LINE
  5
567FA
330
56709
100
AcDbEntity
  8
sk2
100
AcDbLine
 10
104.7749999999999
 20
11.99999999880009
 30
0.0
 11
104.7749999999999
 21
75.69310432029829
 31
0.0
  0
LINE
  5
567FB
330
56709
100
AcDbEntity
  8
sk2
100
AcDbLine
 10
-98.42500000000001
 20
14.19786561141913
 30
0.0
 11
-98.42500000000001
 21
75.69310432029829
 31
0.0
  0
LINE
  5
567FC
330
56709
100
AcDbEntity
  8
sk2
100
AcDbLine
 10
101.275
 20
74.19310432029829
 30
0.0
 11
-94.92500000000001
 21
74.19310432029829
 31
0.0
  0
SOLID
  5
567FD
330
56709
100
AcDbEntity
  8
sk2
100
AcDbTrace
 10
101.275
 20
74.77643765363161
 30
0.0
 11
101.275
 21
73.60977098696496
 31
0.0
 12
104.7749999999999
 22
74.19310432029829
 32
0.0
 13
104.7749999999999
 23
74.19310432029829
 33
0.0
  0
SOLID
  5
567FE
330
56709
100
AcDbEntity
  8
sk2
100
AcDbTrace
 10
-94.92500000000001
 20
74.77643765363161
 30
0.0
 11
-94.92500000000001
 21
73.60977098696496
 31
0.0
 12
-98.42500000000001
 22
74.19310432029829
 32
0.0
 13
-98.42500000000001
 23
74.19310432029829
 33
0.0
  0
MTEXT
  5
567FF
330
56709
100
AcDbEntity
  8
sk2
100
AcDbMText
 10
4.705921100393538
 20
78.24310432029829
 30
0.0
 40
3.5
 41
0.0
 71
     5
 72
     1
  1
\A1;203.2 [8.000"]
  7
simplex
 73
     1
 44
1.0
1001
ACAD
1000
MTEXTBEGIN
1070
    73
1070
     1
1070
    44
1040
1.0
1070
    74
1070
     0
1000
MTEXTEND
  0
POINT
  5
56800
330
56709
100
AcDbEntity
  8
Defpoints
 62
     0
100
AcDbPoint
 10
104.7749999999999
 20
11.99999999880009
 30
0.0
  0
POINT
  5
56801
330
56709
100
AcDbEntity
  8
Defpoints
 62
     0
100
AcDbPoint
 10
-98.42500000000001
 20
14.19786561141913
 30
0.0
  0
POINT
  5
56802
330
56709
100
AcDbEntity
  8
Defpoints
 62
     0
100
AcDbPoint
 10
-98.42500000000001
 20
74.19310432029829
 30
0.0
  0
ENDBLK
  5
56714
330
56709
100
AcDbEntity
  8
0
100
AcDbBlockEnd
  0
BLOCK
  5
56727
330
5671F
100
AcDbEntity
  8
0
100
AcDbBlockBegin
  2
*D60
 70
     1
 10
0.0
 20
0.0
 30
0.0
  3
*D60
  1

  0
LINE
  5
56803
330
5671F
100
AcDbEntity
  8
2
100
AcDbLine
 10
101.7750000000001
 20
14.99999999879989
 30
0.0
 11
125.4956053571632
 21
14.99999999879988
 31
0.0
  0
LINE
  5
56804
330
5671F
100
AcDbEntity
  8
2
100
AcDbLine
 10
123.9956053571632
 20
-15.00000000000006
 30
0.0
 11
123.9956053571632
 21
11.49999999879989
 31
0.0
  0
SOLID
  5
56805
330
5671F
100
AcDbEntity
  8
2
100
AcDbTrace
 10
123.4122720238298
 20
11.49999999879989
 30
0.0
 11
124.5789386904965
 21
11.49999999879988
 31
0.0
 12
123.9956053571632
 22
14.99999999879989
 32
0.0
 13
123.9956053571632
 23
14.99999999879989
 33
0.0
  0
MTEXT
  5
56806
330
5671F
100
AcDbEntity
  8
2
100
AcDbMText
 10
119.9456053571632
 20
-4.622641836083601
 30
0.0
 40
3.5
 41
0.0
 71
     5
 72
     1
  1
\A1;%%c30 [%%c1.181"]
  7
simplex
 11
0.0000000000000001
 21
1.0
 31
0.0
 73
     1
 44
1.0
1001
ACAD
1000
MTEXTBEGIN
1070
    73
1070
     1
1070
    44
1040
1.0
1070
    74
1070
     0
1000
MTEXTEND
  0
POINT
  5
56807
330
5671F
100
AcDbEntity
  8
Defpoints
 62
     0
100
AcDbPoint
 10
89.77499999999997
 20
-15.00000000000006
 30
0.0
  0
POINT
  5
56808
330
5671F
100
AcDbEntity
  8
Defpoints
 62
     0
100
AcDbPoint
 10
101.7750000000001
 20
14.99999999879989
 30
0.0
  0
POINT
  5
56809
330
5671F
100
AcDbEntity
  8
Defpoints
 62
     0
100
AcDbPoint
 10
123.9956053571632
 20
14.99999999879989
 30
0.0
  0
ENDBLK
  5
56728
330
5671F
100
AcDbEntity
  8
0
100
AcDbBlockEnd
  0
BLOCK
  5
5678C
330
56784
100
AcDbEntity
  8
0
100
AcDbBlockBegin
  2
*D64
 70
     1
 10
0.0
 20
0.0
 30
0.0
  3
*D64
  1

  0
LINE
  5
56811
330
56784
100
AcDbEntity
  8
2
100
AcDbLine
 10
133.2873855911189
 20
45.11220249872514
 30
0.0
 11
106.5447519256706
 21
16.70213698642104
 31
0.0
  0
MTEXT
  5
56812
330
56784
100
AcDbEntity
  8
2
100
AcDbMText
 10
118.1665303625734
 20
34.95736916995276
 30
0.0
 40
3.5
 41
0.0
 71
     5
 72
     1
  1
\A1;R2 [R.079"]
  7
simplex
 11
0.6854156428564269
 21
0.7281520421778072
 31
0.0
 73
     1
 44
1.0
1001
ACAD
1000
MTEXTBEGIN
1070
    73
1070
     1
1070
    44
1040
1.0
1070
    74
1070
     0
1000
MTEXTEND
  0
SOLID
  5
56813
330
56784
100
AcDbEntity
  8
2
100
AcDbTrace
 10
106.1199965677336
 20
17.10196277808728
 30
0.0
 11
106.9695072836077
 21
16.30231119475479
 31
0.0
 12
104.1457971756732
 22
14.15360483879871
 32
0.0
 13
104.1457971756732
 23
14.15360483879871
 33
0.0
  0
LINE
  5
56814
330
56784
100
AcDbEntity
  8
2
100
AcDbLine
 10
102.68496588996
 20
12.6973007544427
 30
0.0
 11
102.86496588996
 21
12.6973007544427
 31
0.0
  0
LINE
  5
56815
330
56784
100
AcDbEntity
  8
2
100
AcDbLine
 10
102.77496588996
 20
12.6073007544427
 30
0.0
 11
102.77496588996
 21
12.7873007544427
 31
0.0
  0
POINT
  5
56816
330
56784
100
AcDbEntity
  8
Defpoints
 62
     0
100
AcDbPoint
 10
104.1457971756732
 20
14.15360483879871
 30
0.0
  0
POINT
  5
56817
330
56784
100
AcDbEntity
  8
Defpoints
 62
     0
100
AcDbPoint
 10
102.77496588996
 20
12.6973007544427
 30
0.0
  0
ENDBLK
  5
5678D
330
56784
100
AcDbEntity
  8
0
100
AcDbBlockEnd
  0
ENDSEC
  0
SECTION
  2
ENTITIES
  0
INSERT
  5
68C
330
1F
100
AcDbEntity
  8
0
100
AcDbBlockReference
  2
zero block
 10
0.0
 20
0.0
 30
0.0
  0
MTEXT
  5
55F88
330
1F
100
AcDbEntity
  8
sk6
100
AcDbMText
 10
-96.58286401627391
 20
111.3675973155009
 30
0.0
 40
5.0
 41
70.03712541027798
 71
     1
 72
     5
  1
SRFU20S20M\PSUFT30R20
  7
simplex
 73
     1
 44
1.0
1001
ACAD
1000
ACAD_MTEXT_DEFINED_HEIGHT_BEGIN
1070
    46
1040
0.0
1000
ACAD_MTEXT_DEFINED_HEIGHT_END
1000
MTEXTBEGIN
1070
    73
1070
     1
1070
    44
1040
1.0
1070
    74
1070
     0
1000
MTEXTEND
  0
DIMENSION
  5
5650C
330
1F
100
AcDbEntity
  8
2
100
AcDbDimension
  2
*D54
 10
56.51318878511609
 20
14.74133789282689
 30
0.0
 11
56.51318878511609
 21
-40.39199544050643
 31
0.0
 70
   160
  1
%%C<>
 71
     5
 42
29.5
  3
\M+18352\M+18373\M+1815B - ISO-25
100
AcDbAlignedDimension
 13
50.99663672056045
 23
-14.75866210717311
 33
0.0
 14
50.99663672056045
 24
14.74133789282689
 34
0.0
 50
270.0
100
AcDbRotatedDimension
1001
ACAD
1000
DSTYLE
1002
{
1070
     4
1000
%%C[]"
1070
    40
1040
1.0
1070
   143
1040
0.03937
1070
   170
1070
     1
1070
   171
1070
     3
1070
   271
1070
     8
1070
   285
1070
     4
1002
}
  0
DIMENSION
  5
5650D
330
1F
100
AcDbEntity
  8
2
100
AcDbDimension
  2
*D55
 10
104.7749999999999
 20
45.40091389282685
 30
0.0
 11
86.77500250000003
 21
45.40091389282685
 31
0.0
 70
   160
 71
     5
 41
0.892857
 42
35.00000000000023
  3
\M+18352\M+18373\M+1815B - ISO-25
100
AcDbAlignedDimension
 13
69.77499999999975
 23
14.74133789282689
 33
0.0
 14
104.7749999999999
 24
11.99999999880009
 34
0.0
 50
180.0
100
AcDbRotatedDimension
1001
ACAD
1000
DSTYLE
1002
{
1070
     4
1000
"
1070
    40
1040
1.0
1070
   143
1040
0.03937
1070
   170
1070
     1
1070
   171
1070
     3
1070
   271
1070
     8
1070
   285
1070
     4
1002
}
  0
DIMENSION
  5
5650E
330
1F
100
AcDbEntity
  8
sk2
100
AcDbDimension
  2
*D56
 10
-118.4291515922499
 20
15.88999343177267
 30
0.0
 11
-118.4291515922499
 21
-43.53500656822734
 31
0.0
 70
   160
  1
%%c<>
 71
     5
 41
0.892857
 42
31.75
  3
\M+18352\M+18373\M+1815B - ISO-25
100
AcDbAlignedDimension
 13
-93.42500000000001
 23
-15.86000656822733
 33
0.0
 14
-92.8842578305697
 24
15.88999343177266
 34
0.0
 50
270.0
100
AcDbRotatedDimension
1001
ACAD
1000
DSTYLE
1002
{
1070
     4
1000
%%C[]"
1070
    40
1040
1.0
1070
   143
1040
0.03937
1070
   170
1070
     1
1070
   171
1070
     3
1070
   271
1070
     8
1070
   285
1070
     4
1002
}
  0
SPLINE
  5
5650F
330
1F
100
AcDbEntity
  8
1
100
AcDbSpline
210
0.0
220
0.0
230
1.0
 70
     8
 71
     3
 72
    10
 73
     6
 74
     4
 42
0.0000000001
 43
0.0000000001
 44
0.000001
 12
0.9964403109017972
 22
-0.0843012859328368
 32
0.0
 13
0.9804329779411416
 23
-0.1968531832749092
 33
0.0
 40
0.0
 40
0.0
 40
0.0
 40
0.0
 40
0.3904600840320484
 40
0.8329409188725607
 40
1.318419721001468
 40
1.318419721001468
 40
1.318419721001468
 40
1.318419721001468
 10
76.06626476904295
 20
13.98489826782685
 30
0.0
 10
76.19595482488552
 20
13.97392617209706
 30
0.0
 10
76.47223310907406
 20
13.94514180007098
 30
0.0
 10
76.90648963109936
 20
13.87689551660864
 30
0.0
 10
77.21085813363822
 20
13.82156385400987
 30
0.0
 10
77.36951794287108
 20
13.78970783813935
 30
0.0
 11
76.06626476904295
 21
13.98489826782685
 31
0.0
 11
76.45455517431639
 21
13.94379109009244
 31
0.0
 11
76.89203610083007
 21
13.87746113403781
 31
0.0
 11
77.36951794287108
 21
13.78970783813935
 31
0.0
  0
SPLINE
  5
56510
330
1F
100
AcDbEntity
  8
1
100
AcDbSpline
210
0.0
220
0.0
230
1.0
 70
     8
 71
     3
 72
    64
 73
    60
 74
    58
 42
0.0000000001
 43
0.0000000001
 44
0.000001
 12
-0.9999999973171489
 22
-0.0000732509547234
 32
0.0
 13
0.9999999692115709
 23
-0.0002481468458461
 33
0.0
 40
0.0
 40
0.0
 40
0.0
 40
0.0
 40
0.4289658809743926
 40
0.8559538303388503
 40
1.284491052860161
 40
1.601613560749436
 40
1.925668852646845
 40
2.237368283583092
 40
2.559384035366927
 40
2.911456355457871
 40
3.276246422857157
 40
3.635145995809036
 40
3.993136232622667
 40
4.34871972825105
 40
4.702727009608518
 40
5.065446297871767
 40
5.42530661019504
 40
5.784489584004002
 40
6.142659560215542
 40
6.503722220762877
 40
6.858229191089408
 40
7.218552298721673
 40
7.572965720152752
 40
8.001898735968769
 40
8.425686335389048
 40
8.847874542784762
 40
9.484275499669166
 40
10.127208232425
 40
10.55605880400415
 40
10.98262357088426
 40
11.40933947678365
 40
11.72639251193146
 40
12.04830208145628
 40
12.36369627863017
 40
12.6865215459108
 40
13.15308738689578
 40
13.61900290870646
 40
14.09427750824968
 40
14.28127395607175
 40
14.46263854557987
 40
14.645487647801
 40
14.82941627850408
 40
15.0042620576966
 40
15.1979910610823
 40
15.45300955474754
 40
15.67747938924847
 40
15.90117200214303
 40
16.13058802641432
 40
16.36873581587662
 40
16.60278359773978
 40
16.87728378190169
 40
17.15332335910152
 40
17.43312022972961
 40
17.70142608954092
 40
18.12841281941702
 40
18.55176713121177
 40
18.97602160971076
 40
19.61557017222253
 40
20.25988153604465
 40
20.25988153604465
 40
20.25988153604465
 40
20.25988153604465
 10
88.62097134252929
 20
6.441319166264349
 30
0.0
 10
88.47798271592143
 20
6.441308692210895
 30
0.0
 10
88.192570970009
 20
6.431854621925708
 30
0.0
 10
87.76624327865482
 20
6.389192831477203
 30
0.0
 10
87.38042239216843
 20
6.324616747551885
 30
0.0
 10
87.03261381759739
 20
6.245447622024244
 30
0.0
 10
86.72665823791431
 20
6.159629462271453
 30
0.0
 10
86.4237781209132
 20
6.058305309639933
 30
0.0
 10
86.11750933199829
 20
5.938873954402907
 30
0.0
 10
85.80175017211814
 20
5.796273908927759
 30
0.0
 10
85.48346335774192
 20
5.630694319508478
 30
0.0
 10
85.17329971436117
 20
5.446477423464557
 30
0.0
 10
84.87636471602371
 20
5.247077780637965
 30
0.0
 10
84.59221490604221
 20
5.032543993818535
 30
0.0
 10
84.3191239688781
 20
4.801654778876979
 30
0.0
 10
84.05819337222954
 20
4.555009657600294
 30
0.0
 10
83.81032685165525
 20
4.292863720044607
 30
0.0
 10
83.57841406149281
 20
4.018488393566087
 30
0.0
 10
83.36187850219983
 20
3.731320916919855
 30
0.0
 10
83.16255500875604
 20
3.433820589900562
 30
0.0
 10
82.97964581571211
 20
3.125131856973723
 30
0.0
 10
82.81516726272633
 20
2.808725861511106
 30
0.0
 10
82.65824412904896
 20
2.461096090438246
 30
0.0
 10
82.51515756681659
 20
2.084691908576928
 30
0.0
 10
82.39062617493392
 20
1.678054046745813
 30
0.0
 10
82.27714951373144
 20
1.196801803495901
 30
0.0
 10
82.1925172222849
 20
0.635006593545711
 30
0.0
 10
82.16386502887791
 20
0.06534412258668
 30
0.0
 10
82.1802770756612
 20
-0.4341743453968832
 30
0.0
 10
82.22262154449522
 20
-0.8597647500326388
 30
0.0
 10
82.28686953699071
 20
-1.244849339032469
 30
0.0
 10
82.36544626182126
 20
-1.591413730699912
 30
0.0
 10
82.45112257947818
 20
-1.897917549032513
 30
0.0
 10
82.55240367524402
 20
-2.201648049302349
 30
0.0
 10
82.68612384615693
 20
-2.544926535534187
 30
0.0
 10
82.86170074394807
 20
-2.925171716157421
 30
0.0
 10
83.08888845116474
 20
-3.336204561217897
 30
0.0
 10
83.29451700665822
 20
-3.65152394396739
 30
0.0
 10
83.46003374153434
 20
-3.878900598855921
 30
0.0
 10
83.57237421871792
 20
-4.024325483698277
 30
0.0
 10
83.68814159043324
 20
-4.165715388731825
 30
0.0
 10
83.80644773477127
 20
-4.302125702847774
 30
0.0
 10
83.93096717566351
 20
-4.437849123428208
 30
0.0
 10
84.07579130387137
 20
-4.586999859731378
 30
0.0
 10
84.23770662952302
 20
-4.74246527304902
 30
0.0
 10
84.41271742509121
 20
-4.898455298992274
 30
0.0
 10
84.58648441029589
 20
-5.042809506040526
 30
0.0
 10
84.76881104574159
 20
-5.1837779129593
 30
0.0
 10
84.95895027842193
 20
-5.320041146481941
 30
0.0
 10
85.16644980921899
 20
-5.457594001558163
 30
0.0
 10
85.39006953340299
 20
-5.593367246508989
 30
0.0
 10
85.63260203030381
 20
-5.726896300851052
 30
0.0
 10
85.87883001025302
 20
-5.84891794137286
 30
0.0
 10
86.17602028002698
 20
-5.98073685539299
 30
0.0
 10
86.52477957774022
 20
-6.113492765461131
 30
0.0
 10
86.93124062822375
 20
-6.238230174567547
 30
0.0
 10
87.41399847404085
 20
-6.352305827922947
 30
0.0
 10
87.97794690808848
 20
-6.437313594350257
 30
0.0
 10
88.40619707983705
 20
-6.458621435609131
 30
0.0
 10
88.62096752783202
 20
-6.458674730220025
 30
0.0
 11
88.62097134252929
 21
6.441319166264349
 31
0.0
 11
88.19224133154296
 21
6.427067457279974
 31
0.0
 11
87.76737179418944
 21
6.384586988529974
 31
0.0
 11
87.34471859594725
 21
6.313816724858099
 31
0.0
 11
87.03550305029295
 21
6.243443189701849
 31
0.0
 11
86.72349133154297
 21
6.155918775639349
 31
0.0
 11
86.42789044042968
 21
6.057041822514349
 31
0.0
 11
86.12788357397461
 21
5.940037427983156
 31
0.0
 11
85.80701031347656
 21
5.795139967045599
 31
0.0
 11
85.48339810034178
 21
5.626774488529974
 31
0.0
 11
85.17481197973632
 21
5.443516431889349
 31
0.0
 11
84.87762035986326
 21
5.243931470951849
 31
0.0
 11
84.59384121557617
 21
5.029667554936224
 31
0.0
 11
84.32349362036132
 21
4.801121412358099
 31
0.0
 11
84.05990948339843
 21
4.551945386967474
 31
0.0
 11
83.81266369482409
 21
4.290470777592418
 31
0.0
 11
83.58080258032225
 21
4.016148267826849
 31
0.0
 11
83.36516155859374
 21
3.730168043217474
 31
0.0
 11
83.16418423315429
 21
3.430210767826849
 31
0.0
 11
82.98347820898436
 21
3.125218092045599
 31
0.0
 11
82.81727566381835
 21
2.805515943608099
 31
0.0
 11
82.67146267553711
 21
2.482487379154974
 31
0.0
 11
82.51904644628906
 21
2.081547437748781
 31
0.0
 11
82.39495434423828
 21
1.676335035404974
 31
0.0
 11
82.2980610336914
 21
1.265415845951849
 31
0.0
 11
82.20327725073241
 21
0.6361128674362249
 31
0.0
 11
82.17096676489257
 21
-0.0060074938919001
 31
0.0
 11
82.18504681249999
 21
-0.434626878657582
 31
0.0
 11
82.22727932592773
 21
-0.8590958727981501
 31
0.0
 11
82.29750027319335
 21
-1.27999431029815
 31
0.0
 11
82.36761059423827
 21
-1.58919841186065
 31
0.0
 11
82.45426144262694
 21
-1.899226488032525
 31
0.0
 11
82.5540424790039
 21
-2.198420823970025
 31
0.0
 11
82.67121090551757
 21
-2.49923259154815
 31
0.0
 11
82.86681332250976
 21
-2.92281657592315
 31
0.0
 11
83.09219326635741
 21
-3.3305924548294
 31
0.0
 11
83.35181011816406
 21
-3.728694261470025
 31
0.0
 11
83.46186031958007
 21
-3.879878343501218
 31
0.0
 11
83.5727383103026
 21
-4.02340251342315
 31
0.0
 11
83.68857159277343
 21
-4.16488200561065
 31
0.0
 11
83.80908550878904
 21
-4.303828538813775
 31
0.0
 11
83.92728008886718
 21
-4.432673753657581
 31
0.0
 11
84.06224789282225
 21
-4.571650804438718
 31
0.0
 11
84.24618878027331
 21
-4.748286546626275
 31
0.0
 11
84.4137608017578
 21
-4.897639573970025
 31
0.0
 11
84.58582272192382
 21
-5.040583909907581
 31
0.0
 11
84.76732220312499
 21
-5.180903734126275
 31
0.0
 11
84.96088757177734
 21
-5.319636644282525
 31
0.0
 11
85.15597500463867
 21
-5.44893962279815
 31
0.0
 11
85.39059795996081
 21
-5.591426195063775
 31
0.0
 11
85.63241924902342
 21
-5.724543870845025
 31
0.0
 11
85.8831211533203
 21
-5.8487809313919
 31
0.0
 11
86.12837948461914
 21
-5.957576097407581
 31
0.0
 11
86.52743878027342
 21
-6.10946208373565
 31
0.0
 11
86.93216290136717
 21
-6.2336686267044
 31
0.0
 11
87.34504665991199
 21
-6.331233323970025
 31
0.0
 11
87.97745861669909
 21
-6.426509202876275
 31
0.0
 11
88.62096752783202
 21
-6.458674730220025
 31
0.0
  0
SPLINE
  5
56511
330
1F
100
AcDbEntity
  8
1
100
AcDbSpline
210
0.0
220
0.0
230
1.0
 70
     8
 71
     3
 72
    11
 73
     7
 74
     0
 42
0.0000000001
 43
0.0000000001
 40
0.0
 40
0.0
 40
0.0
 40
0.0
 40
0.7930666274576284
 40
1.617277665925309
 40
2.481404274262184
 40
3.020484110757303
 40
3.020484110757303
 40
3.020484110757303
 40
3.020484110757303
 10
78.3491856064453
 20
13.57790058716276
 30
0.0
 10
78.6065761063561
 20
13.51761805736674
 30
0.0
 10
79.13060679312036
 20
13.39096264100803
 30
0.0
 10
79.93131107045076
 20
13.18343052318045
 30
0.0
 10
80.64787846023717
 20
12.98897005253099
 30
0.0
 10
81.09831355458709
 20
12.86292384014339
 30
0.0
 10
81.2712301211501
 20
12.81403852756176
 30
0.0
  0
SPLINE
  5
56512
330
1F
100
AcDbEntity
  8
1
100
AcDbSpline
210
0.0
220
0.0
230
1.0
 70
     8
 71
     3
 72
    13
 73
     9
 74
     0
 42
0.0000000001
 43
0.0000000001
 40
3.020484110757303
 40
3.020484110757303
 40
3.020484110757303
 40
3.020484110757303
 40
3.373101059755161
 40
4.271813753383002
 40
5.192266625133706
 40
6.668884796836307
 40
8.17051594639247
 40
9.701007097296356
 40
9.701007097296356
 40
9.701007097296356
 40
9.701007097296356
 10
81.2712301211501
 20
12.81403852756176
 30
0.0
 10
81.3843363959628
 20
12.78206220679004
 30
0.0
 10
81.78551811395266
 20
12.66788771213657
 30
0.0
 10
82.48067110504178
 20
12.46579179191838
 30
0.0
 10
83.53344955866566
 20
12.15181210775361
 30
0.0
 10
84.77591866221189
 20
11.77077058375084
 30
0.0
 10
86.20927985979699
 20
11.31882277075411
 30
0.0
 10
87.17127905602922
 20
11.00881639029376
 30
0.0
 10
87.65631069799804
 20
10.85066670044404
 30
0.0
  0
SPLINE
  5
56513
330
1F
100
AcDbEntity
  8
1
100
AcDbSpline
210
0.0
220
0.0
230
1.0
 70
     8
 71
     3
 72
    42
 73
    38
 74
    36
 42
0.0000000001
 43
0.0000000001
 44
0.000001
 12
0.9396724172213344
 22
-0.3420756470627722
 32
0.0
 13
0.4450074971865884
 23
-0.8955268435104157
 33
0.0
 40
0.0
 40
0.0
 40
0.0
 40
0.0
 40
0.5126165463577403
 40
1.031346463841959
 40
1.558895901335882
 40
2.091343862567089
 40
2.638658657616556
 40
3.189745447560069
 40
3.747610955635575
 40
4.307944382075383
 40
4.879036264367536
 40
5.451292272577741
 40
6.027963419202951
 40
6.604367544960797
 40
7.192196919866606
 40
7.778190047544559
 40
8.365835939033873
 40
8.949905291042613
 40
9.510007486560324
 40
10.06515653070496
 40
10.61847782301422
 40
11.16504556331783
 40
11.71632035518872
 40
12.25856732739686
 40
12.79503054108252
 40
13.32012269471084
 40
13.7978698457139
 40
14.26381122998155
 40
14.87690858324536
 40
15.46410191346514
 40
16.02149893846928
 40
16.42743746401781
 40
16.81315782153437
 40
17.21081315254938
 40
17.58093028644402
 40
17.92616327599312
 40
18.23962229676394
 40
18.23962229676394
 40
18.23962229676394
 40
18.23962229676394
 10
88.77500881811522
 20
10.4651839123581
 30
0.0
 10
88.9355726945231
 20
10.40673270009463
 30
0.0
 10
89.25738585530529
 20
10.28572178707742
 30
0.0
 10
89.73975064272655
 20
10.09238013320163
 30
0.0
 10
90.2239738740609
 20
9.886221376551702
 30
0.0
 10
90.71237745975418
 20
9.66586848063622
 30
0.0
 10
91.20302547519413
 20
9.431711849645239
 30
0.0
 10
91.69610079936637
 20
9.183264653339108
 30
0.0
 10
92.18752925130246
 20
8.922192777018267
 30
0.0
 10
92.67910294976161
 20
8.647453414946085
 30
0.0
 10
93.16875266050329
 20
8.359708732838385
 30
0.0
 10
93.65675724194295
 20
8.058676633019842
 30
0.0
 10
94.1396311826171
 20
7.746208966057281
 30
0.0
 10
94.62002613490012
 20
7.420599970704614
 30
0.0
 10
95.09584538028878
 20
7.082938650441292
 30
0.0
 10
95.56730178161798
 20
6.732889416998034
 30
0.0
 10
96.03010530307244
 20
6.373518780504582
 30
0.0
 10
96.4785006492711
 20
6.009876671112067
 30
0.0
 10
96.91090132674077
 20
5.643914631003696
 30
0.0
 10
97.32817882700949
 20
5.276124684973268
 30
0.0
 10
97.73460545151136
 20
4.903018062245621
 30
0.0
 10
98.13261279865656
 20
4.522811895622993
 30
0.0
 10
98.52026957786087
 20
4.137273342607159
 30
0.0
 10
98.89782401406836
 20
3.74650831789944
 30
0.0
 10
99.26154257591282
 20
3.354660520114123
 30
0.0
 10
99.60314611714574
 20
2.971758936968114
 30
0.0
 10
99.92210334875103
 20
2.600282153157763
 30
0.0
 10
100.2529336028101
 20
2.200449638742952
 30
0.0
 10
100.5978244846979
 20
1.765022401311625
 30
0.0
 10
100.95026525419
 20
1.296913018799557
 30
0.0
 10
101.2508911728986
 20
0.8764255175105404
 30
0.0
 10
101.5040690103835
 20
0.5047496208692337
 30
0.0
 10
101.7207470591584
 20
0.1727337012883368
 30
0.0
 10
101.9238935933586
 20
-0.153759233683104
 30
0.0
 10
102.1122745352681
 20
-0.4734171875210223
 30
0.0
 10
102.2787803739029
 20
-0.7732746028270015
 30
0.0
 10
102.3792264876149
 20
-0.9685589975835284
 30
0.0
 10
102.4257236923828
 20
-1.062129320063775
 30
0.0
 11
88.77500881811522
 21
10.4651839123581
 31
0.0
 11
89.254813810791
 21
10.28473347290497
 31
0.0
 11
89.73632397314451
 21
10.09178608520966
 31
0.0
 11
90.22172131201159
 21
9.885151563725258
 31
0.0
 11
90.70706905981444
 21
9.666203199467474
 31
0.0
 11
91.20103039404297
 21
9.430500684819037
 31
0.0
 11
91.69317593237304
 21
9.182530103764349
 31
0.0
 11
92.18585552832029
 21
8.920841871342418
 31
0.0
 11
92.67497601171863
 21
8.647465406498781
 31
0.0
 11
93.16736569067382
 21
8.358158765873724
 31
0.0
 11
93.65440716406249
 21
8.057713209233156
 31
0.0
 11
94.13857235571288
 21
7.744450269779974
 31
0.0
 11
94.61570706030272
 21
7.421055494389349
 31
0.0
 11
95.09510388037108
 21
7.080876051029974
 31
0.0
 11
95.56558575292967
 21
6.731541334233156
 31
0.0
 11
96.02975430151367
 21
6.371159254154974
 31
0.0
 11
96.4833752121582
 21
6.003239332279974
 31
0.0
 11
96.91093029638672
 21
5.641422926029974
 31
0.0
 11
97.327380796875
 21
5.274326978764349
 31
0.0
 11
97.73500408789061
 21
4.900150953373724
 31
0.0
 11
98.13020290991211
 21
4.522587476811281
 31
0.0
 11
98.52108730932616
 21
4.133854566654974
 31
0.0
 11
98.89784207006835
 21
3.743870435795599
 31
0.0
 11
99.26280178686523
 21
3.350681959233156
 31
0.0
 11
99.61234249731445
 21
2.958836256108099
 31
0.0
 11
99.92354168554687
 21
2.596348463139349
 31
0.0
 11
100.2205501999511
 21
2.237339674076849
 31
0.0
 11
100.6011578049316
 21
1.756687818608099
 31
0.0
 11
100.9542423691405
 21
1.287510572514349
 31
0.0
 11
101.278251310791
 21
0.8339583264205998
 31
0.0
 11
101.5067211594238
 21
0.4984175549362249
 31
0.0
 11
101.7174183334961
 21
0.1753279553268499
 31
0.0
 11
101.9273296799316
 21
-0.1624100817825251
 31
0.0
 11
102.1150661911621
 21
-0.4813798083450252
 31
0.0
 11
102.282230040039
 21
-0.7834427966262752
 31
0.0
 11
102.4257236923828
 21
-1.062129320063775
 31
0.0
  0
SPLINE
  5
56514
330
1F
100
AcDbEntity
  8
1
100
AcDbSpline
210
0.0
220
0.0
230
1.0
 70
     8
 71
     3
 72
    29
 73
    25
 74
    23
 42
0.0000000001
 43
0.0000000001
 44
0.000001
 12
0.9999998140644615
 22
0.0006098123011687
 32
0.0
 13
0.0809064511576216
 23
0.9967216994533025
 33
0.0
 40
0.0
 40
0.0
 40
0.0
 40
0.0
 40
0.9238052355773625
 40
1.850765273727766
 40
2.778799003477972
 40
3.705761590230367
 40
4.629571175049443
 40
5.553385807955538
 40
6.480360366061548
 40
7.408411186423961
 40
8.335373179515016
 40
9.259193164994458
 40
10.18277295459144
 40
11.10953656933927
 40
12.03735855512751
 40
12.96409700860869
 40
13.88765509522592
 40
14.81009388561924
 40
15.73572674800784
 40
16.66243536657702
 40
17.58797447159376
 40
18.5103500062295
 40
19.42074852905452
 40
20.3311676701133
 40
20.3311676701133
 40
20.3311676701133
 40
20.3311676701133
 10
88.77500881811522
 20
-13.5698502673294
 30
0.0
 10
89.08294383938494
 20
-13.56966248473054
 30
0.0
 10
89.70006349189601
 20
-13.54859693156001
 30
0.0
 10
90.62216904429863
 20
-13.45411379417209
 30
0.0
 10
91.53701231840415
 20
-13.29834902399665
 30
0.0
 10
92.43841906995726
 20
-13.08220994018993
 30
0.0
 10
93.32189975457685
 20
-12.8062150131513
 30
0.0
 10
94.18421345733515
 20
-12.46986352952353
 30
0.0
 10
95.02314985642204
 20
-12.07557933248191
 30
0.0
 10
95.83484167127227
 20
-11.62572466134949
 30
0.0
 10
96.61389480212296
 20
-11.1233848589745
 30
0.0
 10
97.35611017754605
 20
-10.57049249600223
 30
0.0
 10
98.05831618413931
 20
-9.96770094002025
 30
0.0
 10
98.71916104039588
 20
-9.317976039224987
 30
0.0
 10
99.33592259089579
 20
-8.624859716055482
 30
0.0
 10
99.90438610870791
 20
-7.892957757314547
 30
0.0
 10
100.4211543556544
 20
-7.125803459352198
 30
0.0
 10
100.8833705307144
 20
-6.325025128621689
 30
0.0
 10
101.2908929938602
 20
-5.493940392385439
 30
0.0
 10
101.6421077296249
 20
-4.636420897142443
 30
0.0
 10
101.9345447574441
 20
-3.758250798842652
 30
0.0
 10
102.1647039108575
 20
-2.8673159820774
 30
0.0
 10
102.3318475363239
 20
-1.967628274589856
 30
0.0
 10
102.4016247141011
 20
-1.364149727555542
 30
0.0
 10
102.4261776413574
 20
-1.0616715563919
 30
0.0
 11
88.77500881811522
 21
-13.5698502673294
 31
0.0
 11
89.6982723679199
 21
-13.53820353881377
 31
0.0
 11
90.62042965551757
 21
-13.44396525756377
 31
0.0
 11
91.53529324194336
 21
-13.28817302123565
 31
0.0
 11
92.43667187353514
 21
-13.07189494506377
 31
0.0
 11
93.31837429663085
 21
-12.7961686267044
 31
0.0
 11
94.17913403173827
 21
-12.4607194079544
 31
0.0
 11
95.01813091894531
 21
-12.0665543688919
 31
0.0
 11
95.82986035009765
 21
-11.61669474975122
 31
0.0
 11
96.60882153173828
 21
-11.11422282592315
 31
0.0
 11
97.34952129980468
 21
-10.56212932006377
 31
0.0
 11
98.0504795517578
 21
-9.960749925532525
 31
0.0
 11
98.71144451757812
 21
-9.31112223998565
 31
0.0
 11
99.32821240087889
 21
-8.617976488032525
 31
0.0
 11
99.89656796118163
 21
-7.885981859126275
 31
0.0
 11
100.4123035874023
 21
-7.11983806029815
 31
0.0
 11
100.8736759628906
 21
-6.3210709704544
 31
0.0
 11
101.2812839951171
 21
-5.4900162829544
 31
0.0
 11
101.6325031723632
 21
-4.632441820063775
 31
0.0
 11
101.9247013535155
 21
-3.75423747436065
 31
0.0
 11
102.1552540268554
 21
-2.861140550532525
 31
0.0
 11
102.3215557541504
 21
-1.966059984126275
 31
0.0
 11
102.4261776413574
 21
-1.0616715563919
 31
0.0
  0
SPLINE
  5
56515
330
1F
100
AcDbEntity
  8
1
100
AcDbSpline
210
0.0
220
0.0
230
1.0
 70
     8
 71
     3
 72
    11
 73
     7
 74
     5
 42
0.0000000001
 43
0.0000000001
 44
0.000001
 12
0.9999010176688614
 22
0.0140696433776823
 32
0.0
 13
0.0140688535888031
 23
0.9999010287816973
 33
0.0
 40
0.0
 40
0.0
 40
0.0
 40
0.0
 40
1.560724032831213
 40
3.121450709672982
 40
4.682153064516952
 40
6.242902563367941
 40
6.242902563367941
 40
6.242902563367941
 40
6.242902563367941
 10
88.77096905371093
 20
-4.008693040766843
 30
0.0
 10
89.291158903287
 20
-4.001373430582532
 30
0.0
 10
90.34336314598647
 20
-3.803905726424147
 30
0.0
 10
91.67168682619234
 20
-2.909399371208564
 30
0.0
 10
92.5662271378834
 20
-1.581075274096747
 30
0.0
 10
92.76364973498152
 20
-0.5288608663792616
 30
0.0
 10
92.77096905371093
 20
-0.0086625231887183
 30
0.0
 11
88.77096905371093
 21
-4.008693040766843
 31
0.0
 11
90.30170025488279
 21
-3.70418864623565
 31
0.0
 11
91.59939541479491
 21
-2.837092698970025
 31
0.0
 11
92.46648754736327
 21
-1.539424241938718
 31
0.0
 11
92.77096905371093
 21
-0.0086625231887183
 31
0.0
  0
SPLINE
  5
56516
330
1F
100
AcDbEntity
  8
1
100
AcDbSpline
210
0.0
220
0.0
230
1.0
 70
     8
 71
     3
 72
    11
 73
     7
 74
     5
 42
0.0000000001
 43
0.0000000001
 44
0.000001
 12
-0.0140688535888032
 22
0.9999010287816973
 32
0.0
 13
-0.9999010176688614
 23
0.0140696433776826
 33
0.0
 40
0.0
 40
0.0
 40
0.0
 40
0.0
 40
1.56071956758449
 40
3.121421922455061
 40
4.682148599311121
 40
6.242872632173421
 40
6.242872632173421
 40
6.242872632173421
 40
6.242872632173421
 10
92.77096905371093
 20
-0.0086625231887183
 30
0.0
 10
92.76364987534776
 20
0.5115258439004436
 30
0.0
 10
92.5662195965059
 20
1.563728033266414
 30
0.0
 10
91.67168731704226
 20
2.89204385251736
 30
0.0
 10
90.34336300577683
 20
3.786550149501863
 30
0.0
 10
89.29115890329734
 20
3.984017866626828
 30
0.0
 10
88.77096905371093
 20
3.991337476811281
 30
0.0
 11
92.77096905371093
 21
-0.0086625231887183
 31
0.0
 11
92.46648754736327
 21
1.522068677983156
 31
0.0
 11
91.59939541479491
 21
2.819737135014349
 31
0.0
 11
90.30170025488279
 21
3.686833082279974
 31
0.0
 11
88.77096905371093
 21
3.991337476811281
 31
0.0
  0
ARC
  5
56517
330
1F
100
AcDbEntity
  8
1
100
AcDbCircle
 10
88.77096100000006
 20
-0.0086621071731088
 30
0.0
 40
6.000005
100
AcDbArc
 50
89.99999699999904
 51
179.9999289999981
  0
ARC
  5
56518
330
1F
100
AcDbEntity
  8
1
100
AcDbCircle
 10
88.77096100000006
 20
-0.0086621071731088
 30
0.0
 40
6.000005
100
AcDbArc
 50
180.0000190000006
 51
270.0000429999985
  0
ARC
  5
56519
330
1F
100
AcDbEntity
  8
1
100
AcDbCircle
 10
88.77096100000006
 20
-0.0086621071731088
 30
0.0
 40
6.000005
100
AcDbArc
 50
270.0000429999985
 51
0.0000729999982277
  0
ARC
  5
5651A
330
1F
100
AcDbEntity
  8
1
100
AcDbCircle
 10
88.77096100000006
 20
-0.0086621071731088
 30
0.0
 40
6.000005
100
AcDbArc
 50
0.0000770000005844
 51
89.99999699999904
  0
ARC
  5
5651B
330
1F
100
AcDbEntity
  8
1
100
AcDbCircle
 10
91.52406299999995
 20
-1.598170107173132
 30
0.0
 40
1.156001
100
AcDbArc
 50
104.604553999999
 51
195.3954480000008
  0
ARC
  5
5651C
330
1F
100
AcDbEntity
  8
1
100
AcDbCircle
 10
89.940429
 20
2.016880892826861
 30
0.0
 40
0.4865770000000003
100
AcDbArc
 50
344.6049770000017
 51
135.3949949999993
  0
ARC
  5
5651D
330
1F
100
AcDbEntity
  8
1
100
AcDbCircle
 10
89.940429
 20
-2.034236107173171
 30
0.0
 40
0.4865770000000003
100
AcDbArc
 50
224.6049939999993
 51
15.39500599999802
  0
ARC
  5
5651E
330
1F
100
AcDbEntity
  8
1
100
AcDbCircle
 10
87.60150499999998
 20
-2.034236107173171
 30
0.0
 40
0.4865770000000003
100
AcDbArc
 50
164.6049889999999
 51
315.3950039999983
  0
ARC
  5
5651F
330
1F
100
AcDbEntity
  8
1
100
AcDbCircle
 10
88.77096899999992
 20
3.170322892826845
 30
0.0
 40
1.156001
100
AcDbArc
 50
224.6045499999993
 51
315.3954550000027
  0
ARC
  5
56520
330
1F
100
AcDbEntity
  8
1
100
AcDbCircle
 10
86.01787200000002
 20
-1.598170107173132
 30
0.0
 40
1.156001
100
AcDbArc
 50
344.604554000001
 51
75.395472000001
  0
ARC
  5
56521
330
1F
100
AcDbEntity
  8
1
100
AcDbCircle
 10
88.77096899999992
 20
-3.187679107173153
 30
0.0
 40
1.156001
100
AcDbArc
 50
44.60454499999737
 51
135.3954530000027
  0
ARC
  5
56522
330
1F
100
AcDbEntity
  8
1
100
AcDbCircle
 10
91.10989000000007
 20
-0.0086621071731088
 30
0.0
 40
0.4865770000000003
100
AcDbArc
 50
284.6049759999995
 51
75.39500700000241
  0
ARC
  5
56523
330
1F
100
AcDbEntity
  8
1
100
AcDbCircle
 10
91.52406299999995
 20
1.580814892826822
 30
0.0
 40
1.156001
100
AcDbArc
 50
164.604556000001
 51
255.395446000001
  0
ARC
  5
56524
330
1F
100
AcDbEntity
  8
1
100
AcDbCircle
 10
86.4320449999999
 20
-0.0086621071731088
 30
0.0
 40
0.4865770000000003
100
AcDbArc
 50
104.6050590000009
 51
255.3949339999981
  0
ARC
  5
56525
330
1F
100
AcDbEntity
  8
1
100
AcDbCircle
 10
86.01787200000002
 20
1.580814892826822
 30
0.0
 40
1.156001
100
AcDbArc
 50
284.6045250000006
 51
15.39545599999852
  0
ARC
  5
56526
330
1F
100
AcDbEntity
  8
1
100
AcDbCircle
 10
87.60150499999998
 20
2.016880892826861
 30
0.0
 40
0.4865770000000003
100
AcDbArc
 50
44.60499600000161
 51
195.3950040000006
  0
ARC
  5
56527
330
1F
100
AcDbEntity
  8
1
100
AcDbCircle
 10
88.77094999999997
 20
-0.0086931071731442
 30
0.0
 40
3.499989999999998
100
AcDbArc
 50
270.0002689999997
 51
0.0003740000005146
  0
ARC
  5
56528
330
1F
100
AcDbEntity
  8
1
100
AcDbCircle
 10
88.77094999999997
 20
-0.0086621071731088
 30
0.0
 40
3.499989999999998
100
AcDbArc
 50
359.9999499999983
 51
89.99975499999814
  0
ARC
  5
56529
330
1F
100
AcDbEntity
  8
1
100
AcDbCircle
 10
88.77098399999999
 20
-0.0086621071731088
 30
0.0
 40
3.499989999999998
100
AcDbArc
 50
90.00027099999925
 51
180.0002179999998
  0
ARC
  5
5652A
330
1F
100
AcDbEntity
  8
1
100
AcDbCircle
 10
88.77098399999999
 20
-0.0086931071731442
 30
0.0
 40
3.499989999999998
100
AcDbArc
 50
179.9997820000002
 51
269.9997429999976
  0
ARC
  5
5652B
330
1F
100
AcDbEntity
  8
1
100
AcDbCircle
 10
88.62096799999994
 20
-0.0086621071731088
 30
0.0
 40
6.250003999999997
100
AcDbArc
 50
269.9999959999976
 51
359.9999499999983
  0
ARC
  5
5652C
330
1F
100
AcDbEntity
  8
1
100
AcDbCircle
 10
88.62096799999994
 20
-0.0086621071731088
 30
0.0
 40
6.250003999999997
100
AcDbArc
 50
180.0000529999995
 51
270.0000089999996
  0
ARC
  5
5652D
330
1F
100
AcDbEntity
  8
1
100
AcDbCircle
 10
88.62096799999994
 20
-0.0086931071731442
 30
0.0
 40
6.250003999999997
100
AcDbArc
 50
89.999921999998
 51
179.9999470000005
  0
ARC
  5
5652E
330
1F
100
AcDbEntity
  8
1
100
AcDbCircle
 10
88.62096799999994
 20
-0.0086931071731442
 30
0.0
 40
6.250003999999997
100
AcDbArc
 50
0.0000499999985184
 51
89.99993599999811
  0
ARC
  5
5652F
330
1F
100
AcDbEntity
  8
1
100
AcDbCircle
 10
88.77096100000006
 20
-0.0086621071731088
 30
0.0
 40
6.450006
100
AcDbArc
 50
270.0179930000001
 51
89.98199600000026
  0
ARC
  5
56530
330
1F
100
AcDbEntity
  8
1
100
AcDbCircle
 10
2.367649000000028
 20
17.74132189282659
 30
0.0
 40
3.0
100
AcDbArc
 50
225.0000459999994
 51
270.0000089999996
  0
ARC
  5
56531
330
1F
100
AcDbEntity
  8
1
100
AcDbCircle
 10
2.371186167641326
 20
-17.76398685999931
 30
0.0
 40
3.006244661340151
100
AcDbArc
 50
91.41745363940911
 51
134.9762811368764
  0
ARC
  5
56532
330
1F
100
AcDbEntity
  8
1
100
AcDbCircle
 10
88.77096899999992
 20
-0.0086621071731088
 30
0.0
 40
4.000002999999998
100
AcDbArc
 50
90.000044999998
 51
269.9999549999987
  0
LINE
  5
56533
330
1F
100
AcDbEntity
  8
1
100
AcDbLine
 10
94.87097099999994
 20
-0.0086621071731088
 30
0.0
 11
94.77096900000004
 21
-0.0086621071731088
 31
0.0
  0
LINE
  5
56534
330
1F
100
AcDbEntity
  8
1
100
AcDbLine
 10
82.37096399999996
 20
-0.0086621071731088
 30
0.0
 11
82.77096500000004
 21
-0.0086621071731088
 31
0.0
  0
LINE
  5
56535
330
1F
100
AcDbEntity
  8
1
100
AcDbLine
 10
77.90411099999994
 20
13.57791789282686
 30
0.0
 11
77.36953500000004
 21
13.78970689282687
 31
0.0
  0
LINE
  5
56536
330
1F
100
AcDbEntity
  8
1
100
AcDbLine
 10
75.27500900000006
 20
-13.59527110717317
 30
0.0
 11
75.27500900000006
 21
-13.80706310717318
 31
0.0
  0
LINE
  5
56537
330
1F
100
AcDbEntity
  8
1
100
AcDbLine
 10
75.27500900000006
 20
-13.59527110717317
 30
0.0
 11
81.27096899999992
 21
-13.59527110717317
 31
0.0
  0
LINE
  5
56538
330
1F
100
AcDbEntity
  8
1
100
AcDbLine
 10
82.947944
 20
-13.56985010717318
 30
0.0
 11
88.77500900000006
 21
-13.56985010717318
 31
0.0
  0
LINE
  5
56539
330
1F
100
AcDbEntity
  8
1
100
AcDbLine
 10
81.27096899999992
 20
-13.56985010717315
 30
0.0
 11
82.947944
 21
-13.56985010717318
 31
0.0
  0
LINE
  5
5653A
330
1F
100
AcDbEntity
  8
1
100
AcDbLine
 10
88.62096799999994
 20
-6.458675107173178
 30
0.0
 11
88.77298700000006
 21
-6.458675107173178
 31
0.0
  0
LINE
  5
5653B
330
1F
100
AcDbEntity
  8
1
100
AcDbLine
 10
88.62096799999994
 20
6.441318892826814
 30
0.0
 11
88.77298700000006
 21
6.441318892826814
 31
0.0
  0
LINE
  5
5653C
330
1F
100
AcDbEntity
  8
1
100
AcDbLine
 10
87.65630599999997
 20
10.85066489282678
 30
0.0
 11
88.77500700000007
 21
10.46517989282685
 31
0.0
  0
LINE
  5
5653D
330
1F
100
AcDbEntity
  8
1
100
AcDbLine
 10
75.27500900000006
 20
13.57791589282686
 30
0.0
 11
78.34919300000001
 21
13.57791589282686
 31
0.0
  0
LINE
  5
5653E
330
1F
100
AcDbEntity
  8
1
100
AcDbLine
 10
75.27500900000006
 20
13.78970789282684
 30
0.0
 11
75.27500900000006
 21
13.57791589282686
 31
0.0
  0
LINE
  5
5653F
330
1F
100
AcDbEntity
  8
1
100
AcDbLine
 10
75.27500900000006
 20
13.78970789282684
 30
0.0
 11
77.36952900000005
 21
13.78970789282684
 31
0.0
  0
LINE
  5
56540
330
1F
100
AcDbEntity
  8
1
100
AcDbLine
 10
69.77499999999975
 20
14.74133789282689
 30
0.0
 11
73.77500600000008
 21
13.99686789282685
 31
0.0
  0
LINE
  5
56541
330
1F
100
AcDbEntity
  8
1
100
AcDbLine
 10
69.77500499999996
 20
-14.75869310717314
 30
0.0
 11
73.77501199999994
 21
-14.01422810717315
 31
0.0
  0
LINE
  5
56542
330
1F
100
AcDbEntity
  8
1
100
AcDbLine
 10
73.77500500000008
 20
13.99687689282683
 30
0.0
 11
73.77500500000008
 21
-14.01421710717318
 31
0.0
  0
LINE
  5
56543
330
1F
100
AcDbEntity
  8
1
100
AcDbLine
 10
69.77500499999996
 20
-14.75869310717314
 30
0.0
 11
69.77499999999975
 21
14.74133789282689
 31
0.0
  0
LINE
  5
56544
330
1F
100
AcDbEntity
  8
1
100
AcDbLine
 10
0.0
 20
15.88999343177266
 30
0.0
 11
0.246330999999941
 21
15.62001389282659
 31
0.0
  0
LINE
  5
56545
330
1F
100
AcDbEntity
  8
1
100
AcDbLine
 10
0.0000039977185224
 20
-15.86000656822759
 30
0.0
 11
0.2463350000000446
 21
-15.63735610717342
 31
0.0
  0
LINE
  5
56546
330
1F
100
AcDbEntity
  8
sk1
100
AcDbLine
 10
-93.42499999999995
 20
-15.86000656822733
 30
0.0
 11
0.0000039977188635
 21
-15.86000656822733
 31
0.0
  0
LINE
  5
56547
330
1F
100
AcDbEntity
  8
sk1
100
AcDbLine
 10
-93.42500000000001
 20
15.88999343177266
 30
0.0
 11
0.0
 21
15.88999343177266
 31
0.0
  0
LINE
  5
56548
330
1F
100
AcDbEntity
  8
1
100
AcDbLine
 10
2.29682156661272
 20
-14.75866210717308
 30
0.0
 11
69.77500499999473
 21
-14.75866210717311
 31
0.0
  0
LINE
  5
56549
330
1F
100
AcDbEntity
  8
1
100
AcDbLine
 10
2.357851053997933
 20
14.74133789282689
 30
0.0
 11
69.77499999999975
 21
14.74133789282689
 31
0.0
  0
LINE
  5
5654A
330
1F
100
AcDbEntity
  8
1
100
AcDbLine
 10
1.125002999999992
 20
14.91931625774367
 30
0.0
 11
1.125002999999992
 21
-14.85017799672732
 31
0.0
  0
LINE
  5
5654B
330
1F
100
AcDbEntity
  8
sk1
100
AcDbLine
 10
-97.22498699999988
 20
15.39786261141913
 30
0.0
 11
-93.42500000000001
 21
15.39786261141913
 31
0.0
  0
LINE
  5
5654C
330
1F
100
AcDbEntity
  8
sk1
100
AcDbLine
 10
-93.42500000000001
 20
-15.35212138858083
 30
0.0
 11
-97.22498699999988
 21
-15.35212138858083
 31
0.0
  0
LINE
  5
5654D
330
1F
100
AcDbEntity
  8
sk1
100
AcDbLine
 10
-97.22498699999995
 20
15.39786261141913
 30
0.0
 11
-97.22498699999988
 21
-15.35212138858083
 31
0.0
  0
LINE
  5
5654E
330
1F
100
AcDbEntity
  8
sk1
100
AcDbLine
 10
-98.42500000000001
 20
-14.1521513885875
 30
0.0
 11
-98.42500000000001
 21
14.19786561141913
 31
0.0
  0
LINE
  5
5654F
330
1F
100
AcDbEntity
  8
sk1
100
AcDbLine
 10
-98.42500799999999
 20
-14.15214338858084
 30
0.0
 11
-97.225009
 21
-15.35214338858085
 31
0.0
  0
LINE
  5
56550
330
1F
100
AcDbEntity
  8
sk1
100
AcDbLine
 10
-98.42500000000001
 20
14.19786561141916
 30
0.0
 11
-97.225011
 21
15.39785561141911
 31
0.0
  0
LINE
  5
56551
330
1F
100
AcDbEntity
  8
sk1
100
AcDbLine
 10
-93.42499999999995
 20
-15.8600065682273
 30
0.0
 11
-93.42500000000001
 21
15.88999343177266
 31
0.0
  0
DIMENSION
  5
56552
330
1F
100
AcDbEntity
  8
2
100
AcDbDimension
  2
*D57
 10
0.0000000000000027
 20
60.40821165016985
 30
0.0
 11
52.52908228648118
 21
60.40821165016985
 31
0.0
 70
   160
 71
     5
 42
104.7749999999999
  3
\M+18352\M+18373\M+1815B - ISO-25
100
AcDbAlignedDimension
 13
104.7749999999999
 23
11.99999999880009
 33
0.0
 14
0.0
 24
15.88999343177266
 34
0.0
 50
180.0
100
AcDbRotatedDimension
1001
ACAD
1000
DSTYLE
1002
{
1070
     4
1000
"
1070
    40
1040
1.0
1070
   143
1040
0.03937
1070
   170
1070
     1
1070
   171
1070
     3
1070
   271
1070
     8
1070
   285
1070
     4
1002
}
  0
DIMENSION
  5
56553
330
1F
100
AcDbEntity
  8
sk2
100
AcDbDimension
  2
*D58
 10
-98.42500000000001
 20
74.19310432029829
 30
0.0
 11
4.705921100393538
 21
74.19310432029829
 31
0.0
 70
   160
 71
     5
 42
203.2
  3
\M+18352\M+18373\M+1815B - ISO-25
100
AcDbAlignedDimension
 13
104.7749999999999
 23
11.99999999880009
 33
0.0
 14
-98.42500000000001
 24
14.19786561141913
 34
0.0
 50
180.0
100
AcDbRotatedDimension
1001
ACAD
1000
DSTYLE
1002
{
1070
     4
1000
"
1070
    40
1040
1.0
1070
   143
1040
0.03937
1070
   170
1070
     1
1070
   171
1070
     3
1070
   271
1070
     8
1070
   285
1070
     4
1002
}
  0
LINE
  5
56554
330
1F
100
AcDbEntity
  8
1
100
AcDbLine
 10
0.0
 20
15.85504064391978
 30
0.0
 11
0.0
 21
-15.85504064391975
 31
0.0
  0
LINE
  5
56555
330
1F
100
AcDbEntity
  8
sk4
100
AcDbLine
 10
0.0
 20
0.0
 30
0.0
 11
-107.3751522116019
 21
0.0
 31
0.0
  0
LINE
  5
56556
330
1F
100
AcDbEntity
  8
4
100
AcDbLine
 10
113.0675484156596
 20
-0.0000000000001137
 30
0.0
 11
0.0
 21
0.0
 31
0.0
1001
ACAD
1000
RTMaterial
1005
0
  0
ARC
  5
56557
330
1F
100
AcDbEntity
  8
nocut
100
AcDbCircle
 10
2.367649000000028
 20
17.74132189282659
 30
0.0
 40
3.0
100
AcDbArc
 50
225.0000459999994
 51
270.0000089999996
  0
LINE
  5
56558
330
1F
100
AcDbEntity
  8
nocut
100
AcDbLine
 10
73.77500500000008
 20
13.99687689282683
 30
0.0
 11
90.76589659253352
 21
13.99687689282683
 31
0.0
  0
LINE
  5
56559
330
1F
100
AcDbEntity
  8
nocut
100
AcDbLine
 10
69.77499999999975
 20
14.74133789282689
 30
0.0
 11
73.77500600000008
 21
13.99686789282685
 31
0.0
  0
LINE
  5
5655A
330
1F
100
AcDbEntity
  8
nocut
100
AcDbLine
 10
0.0
 20
15.88999343177266
 30
0.0
 11
0.246330999999941
 21
15.62001389282659
 31
0.0
  0
LINE
  5
5655B
330
1F
100
AcDbEntity
  8
nocut
100
AcDbLine
 10
2.357851053997933
 20
14.74133789282689
 30
0.0
 11
69.77499999999975
 21
14.74133789282689
 31
0.0
  0
LINE
  5
5655C
330
1F
100
AcDbEntity
  8
nocut
100
AcDbLine
 10
0.0
 20
15.85504064391978
 30
0.0
 11
0.0
 21
0.0000000000000568
 31
0.0
  0
ARC
  5
5655E
330
1F
100
AcDbEntity
  8
nocut
100
AcDbCircle
 10
89.75136053658649
 20
-0.0000000000001137
 30
0.0
 40
14.03359705000002
100
AcDbArc
 50
0.0
 51
85.85427836715265
  0
LINE
  5
5655F
330
1F
100
AcDbEntity
  8
nocut
100
AcDbLine
 10
103.7849575865865
 20
-0.0000000000000284
 30
0.0
 11
0.0
 21
0.0000000000000568
 31
0.0
1001
ACAD
1000
RTMaterial
1005
0
  0
DIMENSION
  5
565BD
330
1F
100
AcDbEntity
  8
2
100
AcDbDimension
  2
*D60
 10
123.9956053571632
 20
14.99999999879989
 30
0.0
 11
123.9956053571632
 21
-4.622641836083602
 31
0.0
 70
   160
  1
%%c<>
 71
     5
 42
29.99999999879996
  3
\M+18352\M+18373\M+1815B - ISO-25
100
AcDbAlignedDimension
 13
89.77499999999997
 23
-15.00000000000006
 33
0.0
 14
101.7750000000001
 24
14.99999999879989
 34
0.0
 50
270.0
100
AcDbRotatedDimension
1001
ACAD
1000
DSTYLE
1002
{
1070
    75
1070
     1
1070
   343
1005
50E6F
1070
     4
1000
%%c[]"
1070
    40
1040
1.0
1070
    76
1070
     0
1070
   143
1040
0.03937
1070
   170
1070
     1
1070
   171
1070
     3
1070
   173
1070
     1
1070
   271
1070
     8
1070
   285
1070
     4
1070
   344
1005
0
1002
}
  0
SPLINE
  5
565BE
330
1F
100
AcDbEntity
  8
1
100
AcDbSpline
210
0.0
220
0.0
230
1.0
 70
     8
 71
     3
 72
    64
 73
    60
 74
    58
 42
0.0000000001
 43
0.0000000001
 44
0.000001
 12
0.9993625715275891
 22
-0.0356994485918817
 32
0.0
 13
0.9996880839946935
 23
0.024974681559905
 33
0.0
 40
0.0
 40
0.0
 40
0.0
 40
0.0
 40
0.1579046397818665
 40
0.254772724411204
 40
0.3528629048832917
 40
0.4522947977094457
 40
0.5513973697148683
 40
0.6480513195466929
 40
0.69479778434557
 40
0.7401373674565779
 40
0.784013919902989
 40
0.8272073502636439
 40
0.8707062978197882
 40
0.9154994143613258
 40
0.9625753800774317
 40
1.012922912175234
 40
1.067530765499602
 40
1.127387725991342
 40
1.152485312365571
 40
1.165205587729266
 40
1.177938528931888
 40
1.203251320925379
 40
1.228498758150849
 40
1.253794017866289
 40
1.279068429004879
 40
1.304247311485558
 40
1.316895772305752
 40
1.329647853313117
 40
1.34250451611467
 40
1.355338105616994
 40
1.380236972793922
 40
1.423743037646213
 40
1.461457964060584
 40
1.49606948455912
 40
1.530265270203942
 40
1.566165008271108
 40
1.603616532785231
 40
1.641899705326427
 40
1.680294384652606
 40
1.755754971372766
 40
1.830324373508691
 40
1.90522021747521
 40
1.980355359410711
 40
2.055403148154526
 40
2.130387062826452
 40
2.280419978638361
 40
2.430453630779391
 40
2.580488614512201
 40
2.730524189881606
 40
2.880560754007295
 40
3.03059801863847
 40
3.180637557983565
 40
3.330677360514739
 40
3.480718105878167
 40
3.63075996372119
 40
3.780803095463889
 40
3.930847836308227
 40
4.080894199775912
 40
4.230940319318641
 40
4.230940319318641
 40
4.230940319318641
 40
4.230940319318641
 10
98.40045825174229
 20
-14.72433086399979
 30
0.0
 10
98.45305958069843
 20
-14.7262099001899
 30
0.0
 10
98.53793054098481
 20
-14.72921782521675
 30
0.0
 10
98.65547918160576
 20
-14.73334210150511
 30
0.0
 10
98.75355041223428
 20
-14.73673943135827
 30
0.0
 10
98.85236771566724
 20
-14.74011333425872
 30
0.0
 10
98.95070707154083
 20
-14.74345562991155
 30
0.0
 10
99.03149426927621
 20
-14.74621566508405
 30
0.0
 10
99.09437000770346
 20
-14.748390306096
 30
0.0
 10
99.13966317878204
 20
-14.74997453989501
 30
0.0
 10
99.18377190796707
 20
-14.75154064401434
 30
0.0
 10
99.22726722754532
 20
-14.75309198501026
 30
0.0
 10
99.27106826365752
 20
-14.75464330762398
 30
0.0
 10
99.31616366779326
 20
-14.75621202851101
 30
0.0
 10
99.36354208242494
 20
-14.75781568669987
 30
0.0
 10
99.41419213418487
 20
-14.75947207397466
 30
0.0
 10
99.46910245077686
 20
-14.76119903687289
 30
0.0
 10
99.51560206881026
 20
-14.76260273992747
 30
0.0
 10
99.54814635620984
 20
-14.76355773843591
 30
0.0
 10
99.56499060041574
 20
-14.76400875592442
 30
0.0
 10
99.58190761850699
 20
-14.76442029789547
 30
0.0
 10
99.60300150162765
 20
-14.76483077281824
 30
0.0
 10
99.62828442892373
 20
-14.76517543812305
 30
0.0
 10
99.65355595200913
 20
-14.76539431747268
 30
0.0
 10
99.67880538114105
 20
-14.76548999683894
 30
0.0
 10
99.69983939687176
 20
-14.7654662760485
 30
0.0
 10
99.71669897099367
 20
-14.76537319545295
 30
0.0
 10
99.72945092151759
 20
-14.76526321472566
 30
0.0
 10
99.74226414980648
 20
-14.76511130171886
 30
0.0
 10
99.75912548717644
 20
-14.76487081970839
 30
0.0
 10
99.78620118428739
 20
-14.76441530873086
 30
0.0
 10
99.82156882345634
 20
-14.76378305461067
 30
0.0
 10
99.86017250321721
 20
-14.76303899078996
 30
0.0
 10
99.89567260229478
 20
-14.76231837562811
 30
0.0
 10
99.93056760527759
 20
-14.7616023419996
 30
0.0
 10
99.96640952326277
 20
-14.76088889142005
 30
0.0
 10
100.0036138745731
 20
-14.76016062684113
 30
0.0
 10
100.0416498151559
 20
-14.75942128892265
 30
0.0
 10
100.0923530052193
 20
-14.75843339852881
 30
0.0
 10
100.1551488811352
 20
-14.75718798792815
 30
0.0
 10
100.2301089974908
 20
-14.75568026563157
 30
0.0
 10
100.3049605610222
 20
-14.75417010323315
 30
0.0
 10
100.3799713743352
 20
-14.7526478175084
 30
0.0
 10
100.4550112671027
 20
-14.75111161578127
 30
0.0
 10
100.5550115205568
 20
-14.74904817673624
 30
0.0
 10
100.6800011759706
 20
-14.74644170047482
 30
0.0
 10
100.8300014458755
 20
-14.74326742135638
 30
0.0
 10
100.9800016230869
 20
-14.74004719461061
 30
0.0
 10
101.1300017822786
 20
-14.73678122365099
 30
0.0
 10
101.2800016878389
 20
-14.73346901800315
 30
0.0
 10
101.4300019677836
 20
-14.73011417783661
 30
0.0
 10
101.5800022281022
 20
-14.72671052773373
 30
0.0
 10
101.7300026100431
 20
-14.72326140916905
 30
0.0
 10
101.880002700665
 20
-14.71976630344774
 30
0.0
 10
102.0300028272938
 20
-14.71622540671687
 30
0.0
 10
102.180003205198
 20
-14.71263900928139
 30
0.0
 10
102.3300039864978
 20
-14.70900694895931
 30
0.0
 10
102.4800046933817
 20
-14.70533092656751
 30
0.0
 10
102.5800046718566
 20
-14.70284673941828
 30
0.0
 10
102.6300044444422
 20
-14.70159762139998
 30
0.0
 11
98.40045825174229
 21
-14.72433086399979
 31
0.0
 11
98.55826369534248
 21
-14.72992786719982
 31
0.0
 11
98.6550723091425
 21
-14.73332170329985
 31
0.0
 11
98.75310371444243
 21
-14.73671686579986
 31
0.0
 11
98.85247750684222
 21
-14.74011550379981
 31
0.0
 11
98.95152270214248
 21
-14.74348730789984
 31
0.0
 11
99.04812007714259
 21
-14.74679383359984
 31
0.0
 11
99.09483857464238
 21
-14.74841060319984
 31
0.0
 11
99.14015040834238
 21
-14.74999663649983
 31
0.0
 11
99.18399942274232
 21
-14.75155091039983
 31
0.0
 11
99.22716550994232
 21
-14.75308756959981
 31
0.0
 11
99.2706372955422
 21
-14.75462454079985
 31
0.0
 11
99.31540340554215
 21
-14.75617975079986
 31
0.0
 11
99.36245246584235
 21
-14.75777112619983
 31
0.0
 11
99.41277310214241
 21
-14.75941659399984
 31
0.0
 11
99.46735394044232
 21
-14.76113408079983
 31
0.0
 11
99.52718360654239
 21
-14.76294151339982
 31
0.0
 11
99.55227074824211
 21
-14.76366551029991
 31
0.0
 11
99.56498650704247
 21
-14.76400445929982
 31
0.0
 11
99.57771572394245
 21
-14.76431240829981
 31
0.0
 11
99.60302367234248
 21
-14.76480759139987
 31
0.0
 11
99.62826871524249
 21
-14.76515532599984
 31
0.0
 11
99.65356302304213
 21
-14.76537483169984
 31
0.0
 11
99.67883725414209
 21
-14.76547036549982
 31
0.0
 11
99.70401611634247
 21
-14.7654380231998
 31
0.0
 11
99.71666438284229
 21
-14.76536787049987
 31
0.0
 11
99.72941598794228
 21
-14.76525767679979
 31
0.0
 11
99.74227176854242
 21
-14.76510705089981
 31
0.0
 11
99.75510407324215
 21
-14.76492544829983
 31
0.0
 11
99.77999959784234
 21
-14.76451746109984
 31
0.0
 11
99.82349869254244
 21
-14.76373869889983
 31
0.0
 11
99.86120664334249
 21
-14.76301334329987
 31
0.0
 11
99.89581112394217
 21
-14.76231528319982
 31
0.0
 11
99.92999980824221
 21
-14.76161840759982
 31
0.0
 11
99.9658924000421
 21
-14.7609021217998
 31
0.0
 11
100.0033367270423
 21
-14.76016789649994
 31
0.0
 11
100.0416126468424
 21
-14.75942271889988
 31
0.0
 11
100.0800000173421
 21
-14.75867357609985
 31
0.0
 11
100.1554458133424
 21
-14.75717954489988
 31
0.0
 11
100.2300001913422
 21
-14.75568268829988
 31
0.0
 11
100.3048807835423
 21
-14.7541712326999
 31
0.0
 11
100.3800004440424
 21
-14.75264600299988
 31
0.0
 11
100.4550325167424
 21
-14.75111014739991
 31
0.0
 11
100.5300004790422
 21
-14.74956343779991
 31
0.0
 11
100.6800007786423
 21
-14.74643500179992
 31
0.0
 11
100.8300008547421
 21
-14.74326077589991
 31
0.0
 11
100.9800012869423
 21
-14.74004057799987
 31
0.0
 11
101.1300013301424
 21
-14.73677452679988
 31
0.0
 11
101.2800014099423
 21
-14.7334629158999
 31
0.0
 11
101.4300016941422
 21
-14.73010531939992
 31
0.0
 11
101.5800020779425
 21
-14.72670196219992
 31
0.0
 11
101.7300021832425
 21
-14.72325275699995
 31
0.0
 11
101.8800021990425
 21
-14.71975768579994
 31
0.0
 11
102.0300022620424
 21
-14.71621683939993
 31
0.0
 11
102.1800025198424
 21
-14.71263041829996
 31
0.0
 11
102.3300032975423
 21
-14.70899863959995
 31
0.0
 11
102.4800045958425
 21
-14.70532155059993
 31
0.0
 11
102.6300044444422
 21
-14.70159762139998
 31
0.0
  0
SPLINE
  5
565BF
330
1F
100
AcDbEntity
  8
1
100
AcDbSpline
210
0.0
220
0.0
230
1.0
 70
     8
 71
     3
 72
    11
 73
     7
 74
     5
 42
0.0000000001
 43
0.0000000001
 44
0.000001
 12
0.0560845231132493
 22
0.9984260244340386
 32
0.0
 13
0.0580070876147328
 23
0.9983161712536048
 33
0.0
 40
0.0
 40
0.0
 40
0.0
 40
0.0
 40
0.1192640738723068
 40
0.2486812810486996
 40
0.3902403779697457
 40
0.5473593311797913
 40
0.5473593311797913
 40
0.5473593311797913
 40
0.5473593311797913
 10
104.1430454831427
 20
0.3624888510999966
 30
0.0
 10
104.1452751060453
 20
0.4021809694780388
 30
0.0
 10
104.1499458963019
 20
0.4849430373674153
 30
0.0
 10
104.1573394656928
 20
0.6148128787611427
 30
0.0
 10
104.1655225004806
 20
0.7572764818958007
 30
0.0
 10
104.1712751029479
 20
0.8566695023333039
 30
0.0
 10
104.1743131072428
 20
0.9089542995999835
 30
0.0
 11
104.1430454831427
 21
0.3624888510999966
 31
0.0
 11
104.1497637261429
 21
0.4815635567999692
 31
0.0
 11
104.157120364943
 21
0.6107715064999724
 31
0.0
 11
104.1652358160429
 21
0.7520977808999732
 31
0.0
 11
104.1743131072428
 21
0.9089542995999835
 31
0.0
  0
SPLINE
  5
565C0
330
1F
100
AcDbEntity
  8
1
100
AcDbSpline
210
0.0
220
0.0
230
1.0
 70
     8
 71
     3
 72
    13
 73
     9
 74
     7
 42
0.0000000001
 43
0.0000000001
 44
0.000001
 12
0.0548657962919379
 22
0.9984937377856969
 32
0.0
 13
0.0566918823909723
 23
0.9983917219563513
 33
0.0
 40
0.0
 40
0.0
 40
0.0
 40
0.0
 40
0.1733168964624227
 40
0.3693132973578379
 40
0.5772240127260648
 40
0.7732015541890707
 40
0.9508881523586579
 40
1.112938080124251
 40
1.112938080124251
 40
1.112938080124251
 40
1.112938080124251
 10
104.1743131072428
 20
0.9089542995999835
 30
0.0
 10
104.1774828304212
 20
0.9666395781900405
 30
0.0
 10
104.1842511785677
 20
1.089557808342206
 30
0.0
 10
104.1948951915996
 20
1.281671175816256
 30
0.0
 10
104.2059936963458
 20
1.481324491340146
 30
0.0
 10
104.2168126472257
 20
1.674880649190299
 30
0.0
 10
104.2268359209273
 20
1.853170482140498
 30
0.0
 10
104.2332382693943
 20
1.966234870191698
 30
0.0
 10
104.236300574543
 20
2.020164638999958
 30
0.0
 11
104.1743131072428
 21
0.9089542995999835
 31
0.0
 11
104.1838457370427
 21
1.082008843600007
 31
0.0
 11
104.194682297343
 21
1.277705440699989
 31
0.0
 11
104.206226365143
 21
1.485295420899987
 31
0.0
 11
104.2171649347431
 21
1.680967453199954
 31
0.0
 11
104.227142021743
 21
1.858373722300015
 31
0.0
 11
104.236300574543
 21
2.020164638999958
 31
0.0
  0
SPLINE
  5
565C1
330
1F
100
AcDbEntity
  8
1
100
AcDbSpline
210
0.0
220
0.0
230
1.0
 70
     8
 71
     3
 72
    16
 73
    12
 74
    10
 42
0.0000000001
 43
0.0000000001
 44
0.000001
 12
0.0536804788170368
 22
0.9985581636509582
 32
0.0
 13
0.0567198587979384
 23
0.9983901329730487
 33
0.0
 40
0.0
 40
0.0
 40
0.0
 40
0.0
 40
0.1672259898119675
 40
0.3238072441890647
 40
0.4741136109005961
 40
0.6146784048160605
 40
0.7410891906616469
 40
0.8523864751776779
 40
0.9510235443681997
 40
1.039823359635364
 40
1.120227860033944
 40
1.120227860033944
 40
1.120227860033944
 40
1.120227860033944
 10
104.236300574543
 20
2.020164638999958
 30
0.0
 10
104.239292831611
 20
2.075826264767073
 30
0.0
 10
104.2451160097423
 20
2.183604821889147
 30
0.0
 10
104.2537125909481
 20
2.341408716431061
 30
0.0
 10
104.2619068784245
 20
2.490334263137938
 30
0.0
 10
104.2696149996965
 20
2.629214506150532
 30
0.0
 10
104.2766506667213
 20
2.755109021023031
 30
0.0
 10
104.2829402028804
 20
2.867047511596183
 30
0.0
 10
104.288549488926
 20
2.966467456079598
 30
0.0
 10
104.2935955196253
 20
3.055605205937482
 30
0.0
 10
104.2967895305398
 20
3.111916133718466
 30
0.0
 10
104.2983097078429
 20
3.138674486999988
 30
0.0
 11
104.236300574543
 21
2.020164638999958
 31
0.0
 11
104.2453192593429
 21
2.187147260599985
 31
0.0
 11
104.2538398527429
 21
2.343496512800001
 31
0.0
 11
104.2620966297429
 21
2.493575923899967
 31
0.0
 11
104.269884873743
 21
2.633924791699982
 31
0.0
 11
104.2769375070427
 21
2.760138686599972
 31
0.0
 11
104.2831805012431
 21
2.871260739600003
 31
0.0
 11
104.2887364617429
 21
2.969741208799959
 31
0.0
 11
104.2937545951429
 21
3.058399122199986
 31
0.0
 11
104.2983097078429
 21
3.138674486999988
 31
0.0
  0
SPLINE
  5
565C2
330
1F
100
AcDbEntity
  8
1
100
AcDbSpline
210
0.0
220
0.0
230
1.0
 70
     8
 71
     3
 72
    14
 73
    10
 74
     8
 42
0.0000000001
 43
0.0000000001
 44
0.000001
 12
0.0538658620029742
 22
0.9985481805655032
 32
0.0
 13
0.0562179244528704
 23
0.9984185219486924
 33
0.0
 40
0.0
 40
0.0
 40
0.0
 40
0.0
 40
0.214347851272804
 40
0.4188375344546609
 40
0.6001082600814162
 40
0.7606646151085919
 40
0.9029489812303051
 40
1.031128905131485
 40
1.157370050971998
 40
1.157370050971998
 40
1.157370050971998
 40
1.157370050971998
 10
104.2983097078429
 20
3.138674486999988
 30
0.0
 10
104.3021583851021
 20
3.210020039298854
 30
0.0
 10
104.3096863483544
 20
3.349429448655598
 30
0.0
 10
104.3205136669101
 20
3.549172296656237
 30
0.0
 10
104.3303682226209
 20
3.731011052081072
 30
0.0
 10
104.3391416345157
 20
3.892142863978648
 30
0.0
 10
104.3470134076498
 20
4.035600611440131
 30
0.0
 10
104.3543298598859
 20
4.16763320261883
 30
0.0
 10
104.3590749570096
 20
4.252307379553556
 30
0.0
 10
104.3614406287429
 20
4.294321212299948
 30
0.0
 11
104.2983097078429
 21
3.138674486999988
 31
0.0
 11
104.3098720801429
 21
3.352710259799991
 31
0.0
 11
104.3209331433429
 21
3.556900571399964
 31
0.0
 11
104.3307509969431
 21
3.737905227200016
 31
0.0
 11
104.339485720943
 21
3.898223807799965
 31
0.0
 11
104.3472854651429
 21
4.040294226999989
 31
0.0
 11
104.3543800161431
 21
4.168277651399975
 31
0.0
 11
104.3614406287429
 21
4.294321212299948
 31
0.0
  0
SPLINE
  5
565C3
330
1F
100
AcDbEntity
  8
1
100
AcDbSpline
210
0.0
220
0.0
230
1.0
 70
     8
 71
     3
 72
    13
 73
     9
 74
     7
 42
0.0000000001
 43
0.0000000001
 44
0.000001
 12
0.0534720225315534
 22
0.9985693480206496
 32
0.0
 13
0.0552825702298262
 23
0.9984707494107098
 33
0.0
 40
0.0
 40
0.0
 40
0.0
 40
0.0
 40
0.1470098352426156
 40
0.3166138670728728
 40
0.5090775808797722
 40
0.7276580799870527
 40
0.9695145939401903
 40
1.201232310291126
 40
1.201232310291126
 40
1.201232310291126
 40
1.201232310291126
 10
104.3614406287429
 20
4.294321212299948
 30
0.0
 10
104.3640609331503
 20
4.3432543840769
 30
0.0
 10
104.369724203594
 20
4.448640286616267
 30
0.0
 10
104.3789217846263
 20
4.618083375234846
 30
0.0
 10
104.3894738990511
 20
4.811344932187054
 30
0.0
 10
104.4013841352558
 20
5.028652364736217
 30
0.0
 10
104.4140619978424
 20
5.259022025300822
 30
0.0
 10
104.4227729237005
 20
5.416639577067769
 30
0.0
 10
104.4270429073431
 20
5.493760697699983
 30
0.0
 11
104.3614406287429
 21
4.294321212299948
 31
0.0
 11
104.3693333573428
 21
4.441119022899997
 31
0.0
 11
104.3785181826431
 21
4.610474170599999
 31
0.0
 11
104.3890064995428
 21
4.80265189089998
 31
0.0
 11
104.4009682607432
 21
5.020904842299998
 31
0.0
 11
104.414258274943
 21
5.262395936999993
 31
0.0
 11
104.4270429073431
 21
5.493760697699983
 31
0.0
  0
SPLINE
  5
565C4
330
1F
100
AcDbEntity
  8
1
100
AcDbSpline
210
0.0
220
0.0
230
1.0
 70
     8
 71
     3
 72
    15
 73
    11
 74
     9
 42
0.0000000001
 43
0.0000000001
 44
0.000001
 12
0.0526205313751397
 22
0.9986145801448113
 32
0.0
 13
0.0556854973616708
 23
0.998448358896735
 33
0.0
 40
0.0
 40
0.0
 40
0.0
 40
0.0
 40
0.1771456839598494
 40
0.3340604116076742
 40
0.4795662624454222
 40
0.6234661277612448
 40
0.7734269284288656
 40
0.9341825536484833
 40
1.097265093130239
 40
1.253057771308742
 40
1.253057771308742
 40
1.253057771308742
 40
1.253057771308742
 10
104.4270429073431
 20
5.493760697699983
 30
0.0
 10
104.4301500740166
 20
5.552727451970653
 30
0.0
 10
104.436032465962
 20
5.66392544409345
 30
0.0
 10
104.4445251037779
 20
5.823555114405579
 30
0.0
 10
104.4524923010965
 20
5.972115115793641
 30
0.0
 10
104.4604001936877
 20
6.118356975789012
 30
0.0
 10
104.4686437864914
 20
6.269671354792137
 30
0.0
 10
104.477297178541
 20
6.427367102484211
 30
0.0
 10
104.4861131344312
 20
6.587000802794406
 30
0.0
 10
104.4920118291531
 20
6.693128743581482
 30
0.0
 10
104.494903626743
 20
6.744979058199973
 30
0.0
 11
104.4270429073431
 21
5.493760697699983
 31
0.0
 11
104.4363971249429
 21
5.6706592341
 31
0.0
 11
104.4447376938431
 21
5.82735213979997
 31
0.0
 11
104.4525307650431
 21
5.972649148499996
 31
0.0
 11
104.4602995985431
 21
6.116339149999973
 31
0.0
 11
104.4684565090431
 21
6.266077944599985
 31
0.0
 11
104.477263007343
 21
6.426592170299997
 31
0.0
 11
104.4862559481432
 21
6.589426569899998
 31
0.0
 11
104.494903626743
 21
6.744979058199973
 31
0.0
  0
SPLINE
  5
565C5
330
1F
100
AcDbEntity
  8
1
100
AcDbSpline
210
0.0
220
0.0
230
1.0
 70
     8
 71
     3
 72
    17
 73
    13
 74
    11
 42
0.0000000001
 43
0.0000000001
 44
0.000001
 12
0.0497871495389766
 22
0.9987598508854787
 32
0.0
 13
0.056159391388787
 23
0.9984218160471259
 33
0.0
 40
0.0
 40
0.0
 40
0.0
 40
0.0
 40
0.0923941942801956
 40
0.1884209952034373
 40
0.289013295496254
 40
0.3951574903207932
 40
0.5082433211658984
 40
0.6280817734000057
 40
0.749701946795131
 40
0.8696191932441493
 40
0.9867311056901677
 40
1.100201406538965
 40
1.100201406538965
 40
1.100201406538965
 40
1.100201406538965
 10
104.5473837665429
 20
7.715082757899992
 30
0.0
 10
104.5489171143986
 20
7.745842628467315
 30
0.0
 10
104.5520627724906
 20
7.808570808365601
 30
0.0
 10
104.5569553505022
 20
7.904784264091674
 30
0.0
 10
104.5621453409314
 20
8.005571830466564
 30
0.0
 10
104.5676967045175
 20
8.11203464379767
 30
0.0
 10
104.5736539618077
 20
8.224900369243002
 30
0.0
 10
104.579956735474
 20
8.342913674707034
 30
0.0
 10
104.5864520489363
 20
8.46319706006713
 30
0.0
 10
104.5929731741668
 20
8.582568857800055
 30
0.0
 10
104.5994198040882
 20
8.699224027467082
 30
0.0
 10
104.603713319431
 20
8.775964757919709
 30
0.0
 10
104.6058374604431
 20
8.813728499199996
 30
0.0
 11
104.5473837665429
 21
7.715082757899992
 31
0.0
 11
104.5520137146431
 21
7.80736087909996
 31
0.0
 11
104.5568890756431
 21
7.903263834799972
 31
0.0
 11
104.562061720243
 21
8.00372305239999
 31
0.0
 11
104.5675880992432
 21
8.109723283700006
 31
0.0
 11
104.5735477197433
 21
8.222651968600004
 31
0.0
 11
104.579937761843
 21
8.342319933499979
 31
0.0
 11
104.5864964308432
 21
8.4637631314
 31
0.0
 11
104.593037935643
 21
8.583501824499975
 31
0.0
 11
104.599501321243
 21
8.700435244199965
 31
0.0
 11
104.6058374604431
 21
8.813728499199996
 31
0.0
  0
SPLINE
  5
565C6
330
1F
100
AcDbEntity
  8
1
100
AcDbSpline
210
0.0
220
0.0
230
1.0
 70
     8
 71
     3
 72
    17
 73
    13
 74
    11
 42
0.0000000001
 43
0.0000000001
 44
0.000001
 12
0.0497034067389969
 22
0.9987640218582855
 32
0.0
 13
0.0558862042950858
 23
0.9984371448265976
 33
0.0
 40
0.0
 40
0.0
 40
0.0
 40
0.0
 40
0.1098064247759173
 40
0.2187434806459643
 40
0.3276465117498735
 40
0.4370539146693635
 40
0.5472414005749835
 40
0.6582985178781973
 40
0.7698356931093399
 40
0.8814999519241821
 40
0.9930466762152503
 40
1.10422910309871
 40
1.10422910309871
 40
1.10422910309871
 40
1.10422910309871
 10
104.6058374604431
 20
8.813728499199996
 30
0.0
 10
104.6076567115742
 20
8.850285401345018
 30
0.0
 10
104.6113028134341
 20
8.923108681897417
 30
0.0
 10
104.6168372798265
 20
9.032183874348987
 30
0.0
 10
104.6224331848148
 20
9.141122749082057
 30
0.0
 10
104.6281173687822
 20
9.250474427880618
 30
0.0
 10
104.6339039835322
 20
9.360539760726155
 30
0.0
 10
104.6397917968606
 20
9.471310658758667
 30
0.0
 10
104.6457670822412
 20
9.58256984267281
 30
0.0
 10
104.6518135320417
 20
9.693988625224363
 30
0.0
 10
104.6579230250872
 20
9.805285544035371
 30
0.0
 10
104.6620479963022
 20
9.879413921015853
 30
0.0
 10
104.6641191842432
 20
9.916416809299988
 30
0.0
 11
104.6058374604431
 21
8.813728499199996
 31
0.0
 11
104.6113306054433
 21
8.923397437299954
 31
0.0
 11
104.6168502029432
 21
9.032194569800012
 31
0.0
 11
104.622436621843
 21
9.14095422230001
 31
0.0
 11
104.6281156106431
 21
9.250214136299959
 31
0.0
 11
104.6339003047433
 21
9.360249672699964
 31
0.0
 11
104.6397944706429
 21
9.471150267899972
 31
0.0
 11
104.6457762008433
 21
9.582526927300008
 31
0.0
 11
104.6518282555432
 21
9.694027058299965
 31
0.0
 11
104.6579446314431
 21
9.805405967799956
 31
0.0
 11
104.6641191842432
 21
9.916416809299988
 31
0.0
  0
SPLINE
  5
565C7
330
1F
100
AcDbEntity
  8
1
100
AcDbSpline
210
0.0
220
0.0
230
1.0
 70
     8
 71
     3
 72
    17
 73
    13
 74
    11
 42
0.0000000001
 43
0.0000000001
 44
0.000001
 12
0.0494397150539299
 22
0.9987771095571755
 32
0.0
 13
0.0536597443229419
 23
0.9985592780797725
 33
0.0
 40
0.0
 40
0.0
 40
0.0
 40
0.0
 40
0.1112158671471116
 40
0.2221456327888156
 40
0.3328873315185747
 40
0.4435271274166234
 40
0.5541287957636482
 40
0.6646577342116357
 40
0.7751066789725892
 40
0.8856017900237638
 40
0.996307451980676
 40
1.107407050318666
 40
1.107407050318666
 40
1.107407050318666
 40
1.107407050318666
 10
104.6641191842432
 20
9.916416809299988
 30
0.0
 10
104.6659520111702
 20
9.953443430075353
 30
0.0
 10
104.6696423226395
 20
10.02739997037434
 30
0.0
 10
104.6752629602236
 20
10.13821998416029
 30
0.0
 10
104.680973812316
 20
10.24884310589331
 30
0.0
 10
104.6867572772907
 20
10.35935293253051
 30
0.0
 10
104.6925877288453
 20
10.46978926744823
 30
0.0
 10
104.6984390189966
 20
10.5801607916881
 30
0.0
 10
104.7042874157939
 20
10.69049690144219
 30
0.0
 10
104.7101063275233
 20
10.8008935594365
 30
0.0
 10
104.715899898202
 20
10.91150873968008
 30
0.0
 10
104.7198467089295
 20
10.9853384207962
 30
0.0
 10
104.7218339009432
 20
11.02231826569998
 30
0.0
 11
104.6641191842432
 21
9.916416809299988
 31
0.0
 11
104.6696632403432
 21
10.02749441379994
 31
0.0
 11
104.6752838295431
 21
10.1382816919
 31
0.0
 11
104.6809896197433
 21
10.2488762995
 31
0.0
 11
104.6867673943431
 21
10.3593651291
 31
0.0
 11
104.692594041843
 21
10.46981321209998
 31
0.0
 11
104.6984412603433
 21
10.58018737639994
 31
0.0
 11
104.7042821721431
 21
10.69048176909999
 31
0.0
 11
104.7100975266432
 21
10.80082374279998
 31
0.0
 11
104.7159138813433
 21
10.91137650649997
 31
0.0
 11
104.7218339009432
 21
11.02231826569998
 31
0.0
  0
SPLINE
  5
565C8
330
1F
100
AcDbEntity
  8
1
100
AcDbSpline
210
0.0
220
0.0
230
1.0
 70
     8
 71
     3
 72
    26
 73
    22
 74
    20
 42
0.0000000001
 43
0.0000000001
 44
0.000001
 12
0.0474280304701566
 22
0.9988746577652884
 32
0.0
 13
0.0054010698384836
 23
0.9999854141159259
 33
0.0
 40
0.0
 40
0.0
 40
0.0
 40
0.0
 40
0.0712510218151992
 40
0.1337412363680924
 40
0.1917845120612222
 40
0.2493622582132886
 40
0.3081201732314074
 40
0.3673274028492022
 40
0.4256818205127626
 40
0.4823690349032832
 40
0.5421213185202526
 40
0.6110974069338685
 40
0.6846884965363764
 40
0.7563149620366528
 40
0.8245639840560301
 40
0.8883500863065613
 40
0.9466145256250912
 40
0.9983386708933702
 40
1.044226232707669
 40
1.086827222970742
 40
1.129017547272682
 40
1.129017547272682
 40
1.129017547272682
 40
1.129017547272682
 10
104.7218339009432
 20
11.02231826569998
 30
0.0
 10
104.7229603328211
 20
11.04604187904367
 30
0.0
 10
104.7251081694835
 20
11.09057053636772
 30
0.0
 10
104.7282630233543
 20
11.15442083001223
 30
0.0
 10
104.7312817984732
 20
11.21371447023999
 30
0.0
 10
104.7343326845747
 20
11.27176069039419
 30
0.0
 10
104.7375151864452
 20
11.3301884188989
 30
0.0
 10
104.7408428114552
 20
11.38886738683759
 30
0.0
 10
104.7442665942099
 20
11.44684937790306
 30
0.0
 10
104.747774959658
 20
11.5050082970629
 30
0.0
 10
104.7515210204474
 20
11.5666998610419
 30
0.0
 10
104.7555657192965
 20
11.63401829697075
 30
0.0
 10
104.759700615115
 20
11.70529643938786
 30
0.0
 10
104.7635684809629
 20
11.77634697209669
 30
0.0
 10
104.7669357972692
 20
11.84415091629863
 30
0.0
 10
104.7697248145755
 20
11.90752314523793
 30
0.0
 10
104.7719132071352
 20
11.96540706277755
 30
0.0
 10
104.773553314729
 20
12.0173402383397
 30
0.0
 10
104.7747214476911
 20
12.06406354855298
 30
0.0
 10
104.7755014324651
 20
12.10761662095751
 30
0.0
 10
104.7757645180138
 20
12.13587956469372
 30
0.0
 10
104.7758404756432
 20
12.14994280099998
 30
0.0
 11
104.7218339009432
 21
11.02231826569998
 31
0.0
 11
104.7252626826432
 21
11.09348671859997
 31
0.0
 11
104.7283513367431
 21
11.15590055580002
 31
0.0
 11
104.7313046250431
 21
11.21386864899998
 31
0.0
 11
104.7343290970432
 21
11.27136690339999
 31
0.0
 11
104.7375277924432
 21
11.33003768559994
 31
0.0
 11
104.7408810490433
 21
11.38914987849998
 31
0.0
 11
104.7443108627433
 21
11.44740341010001
 31
0.0
 11
104.7477160864432
 21
11.50398825039995
 31
0.0
 11
104.7513277880432
 21
11.56363127409996
 31
0.0
 11
104.7554495258434
 21
11.6324840951999
 31
0.0
 11
104.7596933422433
 21
11.70595270889997
 31
0.0
 11
104.7635705279433
 21
11.77747415169998
 31
0.0
 11
104.7669423368434
 21
11.8456398242
 31
0.0
 11
104.7697359797431
 21
11.90936471469995
 31
0.0
 11
104.7719306384433
 21
11.96758780179998
 31
0.0
 11
104.7735536832431
 21
12.01928647169998
 31
0.0
 11
104.7746916134433
 21
12.06515991489996
 31
0.0
 11
104.7754415436431
 21
12.10775428539999
 31
0.0
 11
104.7758404756432
 21
12.14994280099998
 31
0.0
  0
SPLINE
  5
565C9
330
1F
100
AcDbEntity
  8
1
100
AcDbSpline
210
0.0
220
0.0
230
1.0
 70
     8
 71
     3
 72
    27
 73
    23
 74
    21
 42
0.0000000001
 43
0.0000000001
 44
0.000001
 12
-0.0012068872247292
 22
0.9999992717113482
 32
0.0
 13
-0.0008370782835973
 23
0.9999996496499122
 33
0.0
 40
0.0
 40
0.0
 40
0.0
 40
0.0
 40
0.0128028250483017
 40
0.0255694319224384
 40
0.0382661630896455
 40
0.0509360186926556
 40
0.0636369178091552
 40
0.0762909126565905
 40
0.0888427493760398
 40
0.1016022169125895
 40
0.1151538403644964
 40
0.1300671393670735
 40
0.1467684584664085
 40
0.1653265984379323
 40
0.185707155478124
 40
0.2079923174058677
 40
0.2324548404674975
 40
0.2593841731324477
 40
0.289067273390086
 40
0.3217907951134502
 40
0.3578414209052636
 40
0.3975061159376295
 40
0.3975061159376295
 40
0.3975061159376295
 40
0.3975061159376295
 10
104.7758404756432
 20
12.14994280099998
 30
0.0
 10
104.7758353251213
 20
12.15421040624136
 30
0.0
 10
104.7758208319549
 20
12.1627335428754
 30
0.0
 10
104.7757741808934
 20
12.17548884945731
 30
0.0
 10
104.7757220312819
 20
12.18819980605332
 30
0.0
 10
104.7756751122895
 20
12.20088888253636
 30
0.0
 10
104.7756385526267
 20
12.21356374729963
 30
0.0
 10
104.7756076433802
 20
12.22619928652263
 30
0.0
 10
104.7755797185145
 20
12.23885435545048
 30
0.0
 10
104.7755506476933
 20
12.25180863207863
 30
0.0
 10
104.7755180081633
 20
12.26555005667383
 30
0.0
 10
104.7754817664788
 20
12.28060542689135
 30
0.0
 10
104.7754423779374
 20
12.29732963324302
 30
0.0
 10
104.7754018966758
 20
12.31587626119778
 30
0.0
 10
104.7753603649954
 20
12.33628417196837
 30
0.0
 10
104.7753172802827
 20
12.35866021120151
 30
0.0
 10
104.7752724985643
 20
12.38321917631373
 30
0.0
 10
104.7752270172169
 20
12.41024412348461
 30
0.0
 10
104.7751817801158
 20
12.44002274079372
 30
0.0
 10
104.7751373430955
 20
12.47284179352176
 30
0.0
 10
104.775095865692
 20
12.50898805070133
 30
0.0
 10
104.7750705170282
 20
12.53422647852139
 30
0.0
 10
104.7750594495433
 20
12.5474480389
 30
0.0
 11
104.7758404756432
 21
12.14994280099998
 31
0.0
 11
104.7758156298434
 21
12.16274560229998
 31
0.0
 11
104.7757721455434
 21
12.17551213449995
 31
0.0
 11
104.7757218527433
 21
12.18820876580001
 31
0.0
 11
104.7756758655434
 21
12.20087853789998
 31
0.0
 11
104.7756384368433
 21
12.21357938189997
 31
0.0
 11
104.7756070674431
 21
12.22623333789995
 31
0.0
 11
104.7755787934431
 21
12.23878514279997
 31
0.0
 11
104.7755499697434
 21
12.25154457780002
 31
0.0
 11
104.7755180175431
 21
12.26509616359998
 31
0.0
 11
104.7754823232433
 21
12.28000941989999
 31
0.0
 11
104.7754432905431
 21
12.29671069339996
 31
0.0
 11
104.7754026577433
 21
12.31526878889996
 31
0.0
 11
104.7753610126433
 21
12.33564930340002
 31
0.0
 11
104.7753180391432
 21
12.35793442389995
 31
0.0
 11
104.7752735432434
 21
12.38239690649997
 31
0.0
 11
104.7752282615431
 21
12.40932620109997
 31
0.0
 11
104.7751830967434
 21
12.43900926699999
 31
0.0
 11
104.7751389165432
 21
12.47173275889994
 31
0.0
 11
104.7750970669431
 21
12.50778336039999
 31
0.0
 11
104.7750594495433
 21
12.5474480389
 31
0.0
  0
SPLINE
  5
565CA
330
1F
100
AcDbEntity
  8
1
100
AcDbSpline
210
0.0
220
0.0
230
1.0
 70
     8
 71
     3
 72
    22
 73
    18
 74
    16
 42
0.0000000001
 43
0.0000000001
 44
0.000001
 12
-0.9996410372925096
 22
-0.0267917256024239
 32
0.0
 13
-0.9995746229449741
 23
-0.0291645875063039
 33
0.0
 40
0.0
 40
0.0
 40
0.0
 40
0.0
 40
1.870283259696184
 40
2.020106451073648
 40
2.170068035286926
 40
2.320164700733306
 40
2.470393165254518
 40
2.620749214409118
 40
2.771228183281094
 40
2.921825417680479
 40
3.07253643148352
 40
3.223356703384931
 40
3.374281541125002
 40
3.525306068731572
 40
3.67642531043552
 40
3.827634260874943
 40
3.978927810012877
 40
3.978927810012877
 40
3.978927810012877
 40
3.978927810012877
 10
98.9700736097434
 20
14.74411982310015
 30
0.0
 10
98.34686964382559
 20
14.72741711780261
 30
0.0
 10
97.67360676564521
 20
14.71468878008218
 30
0.0
 10
96.95052309250559
 20
14.69482910161896
 30
0.0
 10
96.80061925035284
 20
14.6907086013997
 30
0.0
 10
96.65058170034479
 20
14.6865353118649
 30
0.0
 10
96.50041363343916
 20
14.682325677391
 30
0.0
 10
96.35011910924731
 20
14.67807945808239
 30
0.0
 10
96.19970252774965
 20
14.67380097858061
 30
0.0
 10
96.04916840563909
 20
14.66949343922076
 30
0.0
 10
95.89852120127943
 20
14.66516038414122
 30
0.0
 10
95.74776538640071
 20
14.66080527151257
 30
0.0
 10
95.5969055591845
 20
14.65643164123658
 30
0.0
 10
95.44594647102348
 20
14.65204293967161
 30
0.0
 10
95.29489296290398
 20
14.64764309332592
 30
0.0
 10
95.14375000103951
 20
14.643234391136
 30
0.0
 10
95.04295866232132
 20
14.64029582345131
 30
0.0
 10
94.99254893154352
 20
14.63882501880032
 30
0.0
 11
98.9700736097434
 21
14.74411982310015
 31
0.0
 11
97.10033677604338
 21
14.69891307330022
 31
0.0
 11
96.95056921004358
 21
14.69483081060024
 31
0.0
 11
96.80066445624357
 21
14.69070266970019
 31
0.0
 11
96.65062574364334
 21
14.68653209200026
 31
0.0
 11
96.50045627324358
 21
14.68232237340027
 31
0.0
 11
96.35016017604336
 21
14.67807682260027
 31
0.0
 11
96.19974202954336
 21
14.67379882150027
 31
0.0
 11
96.04920639674332
 21
14.6694918176003
 31
0.0
 11
95.89855767014318
 21
14.66515928130025
 31
0.0
 11
95.74780027554345
 21
14.66080469700027
 31
0.0
 11
95.59693880774352
 21
14.65643157530027
 31
0.0
 11
95.4459780433433
 21
14.65204345930024
 31
0.0
 11
95.2949228570435
 21
14.64764392370026
 31
0.0
 11
95.14377815184321
 21
14.64323656840018
 31
0.0
 11
94.99254893154352
 21
14.63882501880032
 31
0.0
  0
SPLINE
  5
565CB
330
1F
100
AcDbEntity
  8
1
100
AcDbSpline
210
0.0
220
0.0
230
1.0
 70
     8
 71
     3
 72
    22
 73
    18
 74
    16
 42
0.0000000001
 43
0.0000000001
 44
0.000001
 12
-0.9994697870193002
 22
-0.0325598654111905
 32
0.0
 13
-0.9994493541994511
 23
-0.0331811451023019
 33
0.0
 40
0.0
 40
0.0
 40
0.0
 40
0.0
 40
0.1496746163751728
 40
0.2994911257918328
 40
0.4494455195662118
 40
0.5995337340187821
 40
0.7497515829511949
 40
0.9000947975758542
 40
1.050559032979749
 40
1.201139817686929
 40
1.351832583326539
 40
1.50263266216191
 40
1.653535338527657
 40
1.804535777460697
 40
1.955629019690564
 40
2.106810045804555
 40
2.25807369621154
 40
2.25807369621154
 40
2.25807369621154
 40
2.25807369621154
 10
94.99254893154352
 20
14.63882501880032
 30
0.0
 10
94.94268384589327
 20
14.63720055701211
 30
0.0
 10
94.84290673893701
 20
14.6339397449812
 30
0.0
 10
94.69317235917117
 20
14.62902020950541
 30
0.0
 10
94.54330099912159
 20
14.62407151382436
 30
0.0
 10
94.39329662869466
 20
14.61909735770823
 30
0.0
 10
94.24316331777788
 20
14.61410099071004
 30
0.0
 10
94.09290522358402
 20
14.60908582522712
 30
0.0
 10
93.94252659801599
 20
14.60405525765186
 30
0.0
 10
93.79203178958892
 20
14.59901276153758
 30
0.0
 10
93.64142523002078
 20
14.59396252334198
 30
0.0
 10
93.49071148706128
 20
14.58890709256168
 30
0.0
 10
93.33989517636883
 20
14.58385023943646
 30
0.0
 10
93.18898103464926
 20
14.57879502741021
 30
0.0
 10
93.03797387298221
 20
14.57374533287534
 30
0.0
 10
92.88687861307051
 20
14.56870498324231
 30
0.0
 10
92.7861194412145
 20
14.56535359241135
 30
0.0
 10
92.73572598864348
 20
14.5636805587004
 30
0.0
 11
94.99254893154352
 21
14.63882501880032
 31
0.0
 11
94.84295411704328
 21
14.63393789380035
 31
0.0
 11
94.69321838674318
 21
14.62901861790033
 31
0.0
 11
94.54334564864348
 21
14.62407048180032
 31
0.0
 11
94.39333986184351
 21
14.61909680630032
 31
0.0
 11
94.24320510584335
 21
14.61410094370035
 31
0.0
 11
94.09294554024313
 21
14.60908627670029
 31
0.0
 11
93.94256539774346
 21
14.60405621660031
 31
0.0
 11
93.79206903874342
 21
14.59901420580034
 31
0.0
 11
93.6414609394435
 21
14.5939637162003
 31
0.0
 11
93.49074563534328
 21
14.58890824680028
 31
0.0
 11
93.33992772494344
 21
14.58385132330038
 31
0.0
 11
93.18901192694353
 21
14.57879649930038
 31
0.0
 11
93.03800307894357
 21
14.57374735570037
 31
0.0
 11
92.88690608494334
 21
14.56870749820041
 31
0.0
 11
92.73572598864348
 21
14.5636805587004
 31
0.0
  0
SPLINE
  5
565CC
330
1F
100
AcDbEntity
  8
1
100
AcDbSpline
210
0.0
220
0.0
230
1.0
 70
     8
 71
     3
 72
    59
 73
    55
 74
    53
 42
0.0000000001
 43
0.0000000001
 44
0.000001
 12
0.9994209363019345
 22
0.0340263439317902
 32
0.0
 13
0.9996880839697254
 23
-0.0249746825593306
 33
0.0
 40
0.0
 40
0.0
 40
0.0
 40
0.0
 40
0.0780922387445701
 40
0.1248387033616201
 40
0.1701782864706217
 40
0.2140548389144808
 40
0.2572482690745073
 40
0.3007472162323502
 40
0.3455403322207584
 40
0.3926162972882215
 40
0.4429638286736095
 40
0.4975716812737694
 40
0.5574286410650032
 40
0.5825262271572181
 40
0.5952465023414911
 40
0.607979443324413
 40
0.6332922347686396
 40
0.6585396713377526
 40
0.6838349303293194
 40
0.7091093406830758
 40
0.7342882223225288
 40
0.7469366827006536
 40
0.7596887632511839
 40
0.7725454255812578
 40
0.7853790146017991
 40
0.8102778807724217
 40
0.853783943410314
 40
0.8914988671458134
 40
0.9261103840710411
 40
0.960306164164905
 40
0.9962058918181357
 40
1.033657391334626
 40
1.071940442895813
 40
1.110335048765704
 40
1.185795797558545
 40
1.260365218410923
 40
1.335261070185603
 40
1.410396216831163
 40
1.485444009082252
 40
1.560427926763626
 40
1.710460848391678
 40
1.860494507598343
 40
2.010529502095103
 40
2.160565098611436
 40
2.310601730262267
 40
2.460639588204158
 40
2.610678576679423
 40
2.760718333663155
 40
2.910759062539859
 40
3.060800911855974
 40
3.210844038343738
 40
3.360888775588495
 40
3.510935136770412
 40
3.660981239552763
 40
3.660981239552763
 40
3.660981239552763
 40
3.660981239552763
 10
98.9700736097434
 20
14.74411982310015
 30
0.0
 10
98.99608928253133
 20
14.74500555422479
 30
0.0
 10
99.03767780596377
 20
14.74642976591961
 30
0.0
 10
99.09437001399329
 20
14.74839025873564
 30
0.0
 10
99.13966318301255
 20
14.7499745519933
 30
0.0
 10
99.18377191263495
 20
14.75154064105256
 30
0.0
 10
99.22726723188077
 20
14.7530919859679
 30
0.0
 10
99.27106826764248
 20
14.75464330757455
 30
0.0
 10
99.31616367124275
 20
14.75621202852565
 30
0.0
 10
99.36354208522994
 20
14.75781568689071
 30
0.0
 10
99.41419213630183
 20
14.75947207393659
 30
0.0
 10
99.46910245217839
 20
14.76119903692682
 30
0.0
 10
99.51560206964622
 20
14.76260273985012
 30
0.0
 10
99.54814635665343
 20
14.76355773853341
 30
0.0
 10
99.5649906006313
 20
14.76400875605958
 30
0.0
 10
99.5819076184116
 20
14.76442029779673
 30
0.0
 10
99.60300150105116
 20
14.76483077302698
 30
0.0
 10
99.62828442770865
 20
14.76517543802708
 30
0.0
 10
99.65355595006952
 20
14.76539431761433
 30
0.0
 10
99.67880537841905
 20
14.76548999692608
 30
0.0
 10
99.69983939346015
 20
14.76546627611805
 30
0.0
 10
99.71669896700213
 20
14.76537319559151
 30
0.0
 10
99.72945091706765
 20
14.76526321464959
 30
0.0
 10
99.74226414488875
 20
14.76511130185906
 30
0.0
 10
99.75912548160488
 20
14.76487081979582
 30
0.0
 10
99.78620117748016
 20
14.7644153087257
 30
0.0
 10
99.82156881467734
 20
14.76378305437058
 30
0.0
 10
99.86017249163751
 20
14.76303899167485
 30
0.0
 10
99.895672586709
 20
14.7623183728801
 30
0.0
 10
99.93056758344472
 20
14.76160235293176
 30
0.0
 10
99.96640948674247
 20
14.7608888494731
 30
0.0
 10
100.0036137900222
 20
14.76016079575376
 30
0.0
 10
100.0416496418106
 20
14.75942065559495
 30
0.0
 10
100.0923529007032
 20
14.75843685043445
 30
0.0
 10
100.1551487746661
 20
14.75718950298069
 30
0.0
 10
100.2301089658766
 20
14.75568239534823
 30
0.0
 10
100.3049605366088
 20
14.75417206806113
 30
0.0
 10
100.37997135613
 20
14.75264982673175
 30
0.0
 10
100.4550112524135
 20
14.75111361335919
 30
0.0
 10
100.5550115100403
 20
14.74905017749752
 30
0.0
 10
100.6800011708012
 20
14.74644370319422
 30
0.0
 10
100.8300014482645
 20
14.74326940960362
 30
0.0
 10
100.9800016396886
 20
14.74004923726724
 30
0.0
 10
101.1300018274495
 20
14.73678306134513
 30
0.0
 10
101.2800019773092
 20
14.73347161191053
 30
0.0
 10
101.4300022298313
 20
14.73011390629615
 30
0.0
 10
101.5800024967825
 20
14.7267106050628
 30
0.0
 10
101.7300026722413
 20
14.72326138987938
 30
0.0
 10
101.8800027399036
 20
14.71976630993885
 30
0.0
 10
102.0300028562778
 20
14.71622540587421
 30
0.0
 10
102.1800032284237
 20
14.71263901014993
 30
0.0
 10
102.3300040059966
 20
14.70900694926396
 30
0.0
 10
102.480004705344
 20
14.70533092746424
 30
0.0
 10
102.5800046774438
 20
14.70284673932875
 30
0.0
 10
102.6300044444431
 20
14.70159762139999
 30
0.0
 11
98.9700736097434
 21
14.74411982310015
 31
0.0
 11
99.04812007714349
 21
14.74679383360018
 31
0.0
 11
99.09483857464351
 21
14.74841060320015
 31
0.0
 11
99.14015040834351
 21
14.74999663650014
 31
0.0
 11
99.18399942274346
 21
14.75155091050014
 31
0.0
 11
99.22716550994323
 21
14.75308756970017
 31
0.0
 11
99.27063729554346
 21
14.75462454090016
 31
0.0
 11
99.31540340554352
 21
14.75617975080017
 31
0.0
 11
99.36245246584348
 21
14.75777112630012
 31
0.0
 11
99.41277310214331
 21
14.75941659400017
 31
0.0
 11
99.46735394044322
 21
14.76113408080015
 31
0.0
 11
99.5271836065433
 21
14.76294151340013
 31
0.0
 11
99.55227074824348
 21
14.76366551040017
 31
0.0
 11
99.5649865070434
 21
14.76400445940013
 31
0.0
 11
99.57771572394335
 21
14.76431240830014
 31
0.0
 11
99.60302367234341
 21
14.76480759150017
 31
0.0
 11
99.62826871524317
 21
14.76515532600015
 31
0.0
 11
99.6535630230435
 21
14.76537483180014
 31
0.0
 11
99.67883725414345
 21
14.76547036560013
 31
0.0
 11
99.70401611634338
 21
14.7654380233001
 31
0.0
 11
99.71666438284342
 21
14.76536787060011
 31
0.0
 11
99.72941598794319
 21
14.76525767680015
 31
0.0
 11
99.74227176854334
 21
14.76510705100013
 31
0.0
 11
99.7551040732435
 21
14.76492544840015
 31
0.0
 11
99.77999959784325
 21
14.76451746110015
 31
0.0
 11
99.82349869254335
 21
14.76373869890015
 31
0.0
 11
99.8612066433434
 21
14.76301334330019
 31
0.0
 11
99.89581112394331
 21
14.76231528320015
 31
0.0
 11
99.92999980824334
 21
14.76161840770014
 31
0.0
 11
99.96589240004347
 21
14.76090212180013
 31
0.0
 11
100.0033367270432
 21
14.76016789650008
 31
0.0
 11
100.0416126468433
 21
14.7594227189001
 31
0.0
 11
100.0800000173435
 21
14.75867357620009
 31
0.0
 11
100.1554458133435
 21
14.75717954500005
 31
0.0
 11
100.2300001913431
 21
14.75568268840008
 31
0.0
 11
100.3048807835434
 21
14.75417123280007
 31
0.0
 11
100.3800004440434
 21
14.75264600310007
 31
0.0
 11
100.4550325167436
 21
14.7511101475001
 31
0.0
 11
100.5300004790435
 21
14.7495634378001
 31
0.0
 11
100.6800007786435
 21
14.74643500190009
 31
0.0
 11
100.8300008547435
 21
14.74326077590011
 31
0.0
 11
100.9800012869434
 21
14.74004057800008
 31
0.0
 11
101.1300013301434
 21
14.73677452690013
 31
0.0
 11
101.2800014099432
 21
14.7334629159001
 31
0.0
 11
101.4300016941436
 21
14.73010531950009
 31
0.0
 11
101.5800020779434
 21
14.7267019623001
 31
0.0
 11
101.7300021832432
 21
14.72325275700007
 31
0.0
 11
101.8800021990434
 21
14.71975768580005
 31
0.0
 11
102.0300022620433
 21
14.71621683940002
 31
0.0
 11
102.1800025198433
 21
14.71263041830006
 31
0.0
 11
102.3300032975435
 21
14.70899863970003
 31
0.0
 11
102.4800045958434
 21
14.7053215507
 31
0.0
 11
102.6300044444431
 21
14.70159762139999
 31
0.0
  0
SPLINE
  5
565CD
330
1F
100
AcDbEntity
  8
1
100
AcDbSpline
210
0.0
220
0.0
230
1.0
 70
     8
 71
     3
 72
    57
 73
    53
 74
    51
 42
0.0000000001
 43
0.0000000001
 44
0.000001
 12
0.5542851417438515
 22
0.8323268478440416
 32
0.0
 13
0.484455734304265
 23
0.8748157757492233
 33
0.0
 40
0.0
 40
0.0
 40
0.0
 40
0.0
 40
0.0040250668638141
 40
0.0079968166836501
 40
0.0119178409979437
 40
0.0157904799134938
 40
0.019617053241713
 40
0.0234001461588415
 40
0.0271415786587005
 40
0.0308435137262522
 40
0.0345083853295912
 40
0.0381379710080083
 40
0.0417345622492315
 40
0.0453005441457107
 40
0.0488374551240437
 40
0.0523465194180528
 40
0.0558299143825492
 40
0.0592897265437754
 40
0.0627269542846108
 40
0.0661422886886096
 40
0.0695373750151246
 40
0.07291471798053
 40
0.0762766291175323
 40
0.0796246788735883
 40
0.0829583131973119
 40
0.0862756764228378
 40
0.0895752849838824
 40
0.0928553735243879
 40
0.0961156813298119
 40
0.0993583129869366
 40
0.1025853587147271
 40
0.1057981531826257
 40
0.1089977917526354
 40
0.1121859122548636
 40
0.1153638284071568
 40
0.118533155809034
 40
0.1216947543496629
 40
0.1248502381222132
 40
0.128000707259233
 40
0.1311474598897655
 40
0.134291980340491
 40
0.1374352425764828
 40
0.1405788853463843
 40
0.1437237597208089
 40
0.1468714389889987
 40
0.1500228591792474
 40
0.1531794952076144
 40
0.1563425788433794
 40
0.1595135784983007
 40
0.162693674958462
 40
0.1658834966731891
 40
0.2054911757643705
 40
0.2054911757643705
 40
0.2054911757643705
 40
0.2054911757643705
 10
104.3517314644423
 20
-13.85741903500003
 30
0.0
 10
104.3524751426946
 20
-13.85630231126166
 30
0.0
 10
104.35395207731
 20
-13.85408327419154
 30
0.0
 10
104.3561456284984
 20
-13.85077117314488
 30
0.0
 10
104.3583065277726
 20
-13.84749839560339
 30
0.0
 10
104.3604354938002
 20
-13.84426252794301
 30
0.0
 10
104.3625341942154
 20
-13.84106178940242
 30
0.0
 10
104.3646039373568
 20
-13.83789436809889
 30
0.0
 10
104.3666460571085
 20
-13.83475853152453
 30
0.0
 10
104.3686618325261
 20
-13.83165257090282
 30
0.0
 10
104.3706525285804
 20
-13.8285747848144
 30
0.0
 10
104.372619421438
 20
-13.82552342764171
 30
0.0
 10
104.3745637680966
 20
-13.82249676043162
 30
0.0
 10
104.3764867715121
 20
-13.81949310391026
 30
0.0
 10
104.3783894329185
 20
-13.81651107177498
 30
0.0
 10
104.3802727086258
 20
-13.8135493309305
 30
0.0
 10
104.3821376438516
 20
-13.81060638806363
 30
0.0
 10
104.3839852346057
 20
-13.80768080759223
 30
0.0
 10
104.3858162042338
 20
-13.80477156750282
 30
0.0
 10
104.3876311922752
 20
-13.8018777666698
 30
0.0
 10
104.3894310986014
 20
-13.79899807440489
 30
0.0
 10
104.3912171000229
 20
-13.79613069601258
 30
0.0
 10
104.3929903484895
 20
-13.79327385060477
 30
0.0
 10
104.3947514491962
 20
-13.79042661790035
 30
0.0
 10
104.3965002727425
 20
-13.78758925653216
 30
0.0
 10
104.3982361603526
 20
-13.78476289466857
 30
0.0
 10
104.3999582501544
 20
-13.78194900953777
 30
0.0
 10
104.4016659661416
 20
-13.77914862993754
 30
0.0
 10
104.4033593600464
 20
-13.77636176647482
 30
0.0
 10
104.4050391482717
 20
-13.77358732967526
 30
0.0
 10
104.4067063142437
 20
-13.77082376997329
 30
0.0
 10
104.4083616579067
 20
-13.76806981993683
 30
0.0
 10
104.410005894168
 20
-13.76532433693018
 30
0.0
 10
104.4116397271696
 20
-13.76258618000159
 30
0.0
 10
104.4132639413634
 20
-13.75985405420084
 30
0.0
 10
104.414879181622
 20
-13.7571268833193
 30
0.0
 10
104.4164861351717
 20
-13.75440349993614
 30
0.0
 10
104.4180853958568
 20
-13.7516828811319
 30
0.0
 10
104.4196776226383
 20
-13.74896387293685
 30
0.0
 10
104.4212634461789
 20
-13.7462453550898
 30
0.0
 10
104.4228434666856
 20
-13.74352623842654
 30
0.0
 10
104.4244183343534
 20
-13.74080533173124
 30
0.0
 10
104.4259885840856
 20
-13.73808162116844
 30
0.0
 10
104.4275548462407
 20
-13.73535391769167
 30
0.0
 10
104.4291176121139
 20
-13.732621222484
 30
0.0
 10
104.4306775189048
 20
-13.72988238232105
 30
0.0
 10
104.4322349478932
 20
-13.72713622406223
 30
0.0
 10
104.4337910722563
 20
-13.72438184253855
 30
0.0
 10
104.43534433225
 20
-13.72161681173639
 30
0.0
 10
104.43690308344
 20
-13.71884487581931
 30
0.0
 10
104.4442771065717
 20
-13.70540558358644
 30
0.0
 10
104.4536062974855
 20
-13.69437812630823
 30
0.0
 10
104.4600023532382
 20
-13.68282831880498
 30
0.0
 11
104.3517314644423
 21
-13.85741903500003
 31
0.0
 11
104.3539597866424
 21
-13.85406710400002
 31
0.0
 11
104.3561533310424
 21
-13.8507560379
 31
0.0
 11
104.3583136670422
 21
-13.84748382449999
 31
0.0
 11
104.3604422333423
 21
-13.84424862150001
 31
0.0
 11
104.3625404451425
 21
-13.8410485947
 31
0.0
 11
104.3646098512424
 21
-13.83788167960001
 31
0.0
 11
104.3666515697423
 21
-13.83474644379998
 31
0.0
 11
104.3686668965422
 21
-13.8316411609
 31
0.0
 11
104.3706572637425
 21
-13.82856386940001
 31
0.0
 11
104.3726237358425
 21
-13.8255131514
 31
0.0
 11
104.3745676459423
 21
-13.8224871503
 31
0.0
 11
104.3764903660424
 21
-13.81948392290003
 31
0.0
 11
104.3783928012424
 21
-13.81650223209999
 31
0.0
 11
104.3802756807424
 21
-13.81354110100001
 31
0.0
 11
104.3821402370424
 21
-13.81059874300001
 31
0.0
 11
104.3839876434422
 21
-13.80767344129998
 31
0.0
 11
104.3858184837424
 21
-13.80476439360002
 31
0.0
 11
104.3876331737422
 21
-13.80187105480003
 31
0.0
 11
104.3894326309425
 21
-13.79899206800003
 31
0.0
 11
104.3912182183424
 21
-13.79612534109998
 31
0.0
 11
104.3929911841424
 21
-13.79326893799998
 31
0.0
 11
104.3947523752422
 21
-13.7904215457
 31
0.0
 11
104.3965015166425
 21
-13.78758365530002
 31
0.0
 11
104.3982376563422
 21
-13.78475686960001
 31
0.0
 11
104.3999600465424
 21
-13.78194248009998
 31
0.0
 11
104.4016678010423
 21
-13.77914202390002
 31
0.0
 11
104.4033608239422
 21
-13.77635575760001
 31
0.0
 11
104.4050402446426
 21
-13.77358191450008
 31
0.0
 11
104.4067071740423
 21
-13.7708187334
 31
0.0
 11
104.4083623228424
 21
-13.76806509400001
 31
0.0
 11
104.4100062718423
 21
-13.76532007710001
 31
0.0
 11
104.4116398735425
 21
-13.76258229389998
 31
0.0
 11
104.4132638057424
 21
-13.75985062880001
 31
0.0
 11
104.4148788928425
 21
-13.75712370219998
 31
0.0
 11
104.4164855660422
 21
-13.75440077999998
 31
0.0
 11
104.4180846336423
 21
-13.75168047500001
 31
0.0
 11
104.4196766346424
 21
-13.74896183800001
 31
0.0
 11
104.4212622014424
 21
-13.7462437452
 31
0.0
 11
104.4228420514421
 21
-13.74352490699999
 31
0.0
 11
104.4244166377423
 21
-13.74080447070002
 31
0.0
 11
104.4259867385424
 21
-13.73808100389999
 31
0.0
 11
104.4275527298423
 21
-13.7353537518
 31
0.0
 11
104.4291153394424
 21
-13.73262132909997
 31
0.0
 11
104.4306749696425
 21
-13.7298828988
 31
0.0
 11
104.4322322813425
 21
-13.72713715140008
 31
0.0
 11
104.4337878052422
 21
-13.72438298349999
 31
0.0
 11
104.4353421788426
 21
-13.72161908070002
 31
0.0
 11
104.4368958883421
 21
-13.71884437400001
 31
0.0
 11
104.4384491417424
 21
-13.71605827220008
 31
0.0
 11
104.4600023532382
 21
-13.68282831880498
 31
0.0
  0
SPLINE
  5
565CE
330
1F
100
AcDbEntity
  8
1
100
AcDbSpline
210
0.0
220
0.0
230
1.0
 70
     8
 71
     3
 72
    11
 73
     7
 74
     5
 42
0.0000000001
 43
0.0000000001
 44
0.000001
 12
0.0560845230918119
 22
-0.9984260244352427
 32
0.0
 13
0.0580070876146744
 23
-0.9983161712536082
 33
0.0
 40
0.0
 40
0.0
 40
0.0
 40
0.0
 40
0.1192640738723123
 40
0.2486812809488691
 40
0.3902403778699368
 40
0.5473593310799683
 40
0.5473593310799683
 40
0.5473593310799683
 40
0.5473593310799683
 10
104.1430454831427
 20
-0.362488851100025
 30
0.0
 10
104.1452751060444
 20
-0.402180969478124
 30
0.0
 10
104.1499458962989
 20
-0.4849430373342898
 30
0.0
 10
104.157339465689
 20
-0.6148128786947638
 30
0.0
 10
104.1655225004825
 20
-0.7572764817956994
 30
0.0
 10
104.1712751029479
 20
-0.856669502233359
 30
0.0
 10
104.1743131072428
 20
-0.9089542995000243
 30
0.0
 11
104.1430454831427
 21
-0.362488851100025
 31
0.0
 11
104.1497637261429
 21
-0.4815635567999977
 31
0.0
 11
104.1571203649428
 21
-0.6107715064000132
 31
0.0
 11
104.1652358160429
 21
-0.752097780800014
 31
0.0
 11
104.1743131072428
 21
-0.9089542995000243
 31
0.0
  0
SPLINE
  5
565CF
330
1F
100
AcDbEntity
  8
1
100
AcDbSpline
210
0.0
220
0.0
230
1.0
 70
     8
 71
     3
 72
    57
 73
    53
 74
    51
 42
0.0000000001
 43
0.0000000001
 44
0.000001
 12
0.6218414946316713
 22
0.7831431258424281
 32
0.0
 13
0.5657844593952174
 23
0.8245531793079582
 33
0.0
 40
0.0
 40
0.0
 40
0.0
 40
0.0
 40
0.0039898783970339
 40
0.0079291150174602
 40
0.0118195822574738
 40
0.0156637041279934
 40
0.0194642610768991
 40
0.023222857858657
 40
0.0269412998097867
 40
0.0306225003321366
 40
0.0342683121979788
 40
0.0378802757274501
 40
0.0414606037212125
 40
0.0450117421969207
 40
0.0485347676851999
 40
0.052030679845991
 40
0.0555012638653815
 40
0.058948750591116
 40
0.0623745126737956
 40
0.0657807323964621
 40
0.0691695308284608
 40
0.0725425464339117
 40
0.0759016972650036
 40
0.0792471281597966
 40
0.0825780379543116
 40
0.0858938014535418
 40
0.0891923167056025
 40
0.0924722021528842
 40
0.0957342536990267
 40
0.0989805221629586
 40
0.1022126173288386
 40
0.1054312015323978
 40
0.108637168846419
 40
0.111832273801909
 40
0.1150179386335892
 40
0.1181951422098629
 40
0.1213655815498064
 40
0.1245306891376735
 40
0.1276908992466375
 40
0.1308473066491728
 40
0.1340016499246071
 40
0.13715543177096
 40
0.1403103146803504
 40
0.1434676424796918
 40
0.1466289025415936
 40
0.1497951214424316
 40
0.1529668763642156
 40
0.1561454795185873
 40
0.1593324327358075
 40
0.1625285240990817
 40
0.165735323038848
 40
0.1689542612074349
 40
0.1689542612074349
 40
0.1689542612074349
 40
0.1689542612074349
 10
104.2510877039422
 20
-13.99308361250003
 30
0.0
 10
104.251914727924
 20
-13.99204206388683
 30
0.0
 10
104.2535568712942
 20
-13.98997106849225
 30
0.0
 10
104.2560005349361
 20
-13.98688059602983
 30
0.0
 10
104.2584098895727
 20
-13.98382493859958
 30
0.0
 10
104.26078660241
 20
-13.98080241564983
 30
0.0
 10
104.2631318176218
 20
-13.97781104889756
 30
0.0
 10
104.2654470549173
 20
-13.97484941779714
 30
0.0
 10
104.2677338388798
 20
-13.97191604751968
 30
0.0
 10
104.2699935756784
 20
-13.96900926536764
 30
0.0
 10
104.2722276505392
 20
-13.9661274940796
 30
0.0
 10
104.2744372861039
 20
-13.96326932544238
 30
0.0
 10
104.2766238211997
 20
-13.960433190836
 30
0.0
 10
104.2787884906972
 20
-13.95761763641656
 30
0.0
 10
104.2809322757937
 20
-13.95482152314577
 30
0.0
 10
104.2830560185798
 20
-13.95204388267474
 30
0.0
 10
104.2851607887335
 20
-13.94928343610067
 30
0.0
 10
104.2872477241106
 20
-13.94653879996764
 30
0.0
 10
104.2893180351339
 20
-13.94380847954849
 30
0.0
 10
104.2913729023075
 20
-13.9410910032112
 30
0.0
 10
104.2934135516061
 20
-13.93838482250548
 30
0.0
 10
104.2954411476057
 20
-13.93568845290287
 30
0.0
 10
104.2974564525608
 20
-13.93300093148215
 30
0.0
 10
104.299459735919
 20
-13.93032194218219
 30
0.0
 10
104.3014507601281
 20
-13.92765184833969
 30
0.0
 10
104.3034288424742
 20
-13.92499161552497
 30
0.0
 10
104.305393190866
 20
-13.92234236901419
 30
0.0
 10
104.3073433009938
 20
-13.91970485768289
 30
0.0
 10
104.3092794938682
 20
-13.91707871900077
 30
0.0
 10
104.3112026775163
 20
-13.91446278431955
 30
0.0
 10
104.3131137275265
 20
-13.91185591633129
 30
0.0
 10
104.3150132857162
 20
-13.90925728439339
 30
0.0
 10
104.3169020179584
 20
-13.90666601564754
 30
0.0
 10
104.3187807344861
 20
-13.90408102898868
 30
0.0
 10
104.3206502551248
 20
-13.90150121533686
 30
0.0
 10
104.3225113829395
 20
-13.89892547716047
 30
0.0
 10
104.324364916848
 20
-13.89635270974918
 30
0.0
 10
104.3262115432262
 20
-13.89378195110443
 30
0.0
 10
104.3280518258815
 20
-13.89121239843469
 30
0.0
 10
104.3298863841507
 20
-13.88864316331079
 30
0.0
 10
104.331716037964
 20
-13.88607306302668
 30
0.0
 10
104.3335417093836
 20
-13.88350075542489
 30
0.0
 10
104.3353642373006
 20
-13.88092500082172
 30
0.0
 10
104.3371844478013
 20
-13.87834455694339
 30
0.0
 10
104.3390030453488
 20
-13.87575835525239
 30
0.0
 10
104.3408205496282
 20
-13.87316551016461
 30
0.0
 10
104.3426375599576
 20
-13.87056526283932
 30
0.0
 10
104.3444541789871
 20
-13.86795631582485
 30
0.0
 10
104.346271607533
 20
-13.86533805190477
 30
0.0
 10
104.3480903664813
 20
-13.86270927491233
 30
0.0
 10
104.3499111507294
 20
-13.86006893919088
 30
0.0
 10
104.3511243893785
 20
-13.85830376356701
 30
0.0
 10
104.3517314644423
 20
-13.85741903500003
 30
0.0
 11
104.2510877039422
 21
-13.99308361250003
 31
0.0
 11
104.2535665779426
 21
-13.98995724640002
 31
0.0
 11
104.2560096743425
 21
-13.98686718900002
 31
0.0
 11
104.2584182863425
 21
-13.98381207790004
 31
0.0
 11
104.2607940391422
 21
-13.9807901103
 31
0.0
 11
104.2631388144425
 21
-13.97779913380003
 31
0.0
 11
104.2654536958423
 21
-13.97483799279996
 31
0.0
 11
104.2677398713424
 21
-13.9719053833
 31
0.0
 11
104.2699992249424
 21
-13.9689990888
 31
0.0
 11
104.2722329793425
 21
-13.96611772170001
 31
0.0
 11
104.2744421585424
 21
-13.9632601353
 31
0.0
 11
104.2766281905421
 21
-13.96042464490001
 31
0.0
 11
104.2787926361423
 21
-13.95760937340003
 31
0.0
 11
104.2809362134423
 21
-13.95481352299998
 31
0.0
 11
104.2830595897423
 21
-13.95203635360002
 31
0.0
 11
104.2851639040425
 21
-13.94927649670002
 31
0.0
 11
104.2872505575424
 21
-13.9465322231
 31
0.0
 11
104.2893204241425
 21
-13.94380248059998
 31
0.0
 11
104.2913748600422
 21
-13.94108556649996
 31
0.0
 11
104.2934151756424
 21
-13.93837982010002
 31
0.0
 11
104.2954423826425
 21
-13.9356839598001
 31
0.0
 11
104.2974576537424
 21
-13.93299647520001
 31
0.0
 11
104.2994610922423
 21
-13.93031727030002
 31
0.0
 11
104.3014522361425
 21
-13.92764700760001
 31
0.0
 11
104.3034307317423
 21
-13.92498621080001
 31
0.0
 11
104.3053953495423
 21
-13.9223365926
 31
0.0
 11
104.3073452971423
 21
-13.91969929290003
 31
0.0
 11
104.3092810794423
 21
-13.91707370270002
 31
0.0
 11
104.3112039404425
 21
-13.9144581987
 31
0.0
 11
104.3131148550423
 21
-13.91185150709998
 31
0.0
 11
104.3150142324423
 21
-13.90925311410001
 31
0.0
 11
104.3169026153425
 21
-13.9066623164
 31
0.0
 11
104.3187810481424
 21
-13.90407771159999
 31
0.0
 11
104.3206503723425
 21
-13.90149816060001
 31
0.0
 11
104.3225111638423
 21
-13.8989228794
 31
0.0
 11
104.3243644135425
 21
-13.89635049790001
 31
0.0
 11
104.3262109502425
 21
-13.89377985530002
 31
0.0
 11
104.3280510152424
 21
-13.8912105979
 31
0.0
 11
104.3298852314421
 21
-13.88864183300001
 31
0.0
 11
104.3317145893425
 21
-13.88607213940004
 31
0.0
 11
104.3335399346422
 21
-13.88350028249999
 31
0.0
 11
104.3353621979424
 21
-13.88092489220008
 31
0.0
 11
104.3371821179423
 21
-13.87834485320003
 31
0.0
 11
104.3390005085423
 21
-13.87575892780001
 31
0.0
 11
104.3408179117426
 21
-13.87316625080001
 31
0.0
 11
104.3426346106424
 21
-13.87056631510001
 31
0.0
 11
104.3444513431425
 21
-13.86795795250003
 31
0.0
 11
104.3462688491424
 21
-13.86533997470003
 31
0.0
 11
104.3480875079424
 21
-13.8627116981
 31
0.0
 11
104.3499081365423
 21
-13.86007179240001
 31
0.0
 11
104.3517314644423
 21
-13.85741903500003
 31
0.0
  0
SPLINE
  5
565D0
330
1F
100
AcDbEntity
  8
1
100
AcDbSpline
210
0.0
220
0.0
230
1.0
 70
     8
 71
     3
 72
    13
 73
     9
 74
     7
 42
0.0000000001
 43
0.0000000001
 44
0.000001
 12
0.0548657962451082
 22
-0.9984937377882699
 32
0.0
 13
0.0566918823395947
 23
-0.9983917219592688
 33
0.0
 40
0.0
 40
0.0
 40
0.0
 40
0.0
 40
0.1733168965622589
 40
0.3693132974576741
 40
0.5772240128258883
 40
0.77320155418905
 40
0.950888152358593
 40
1.112938080224058
 40
1.112938080224058
 40
1.112938080224058
 40
1.112938080224058
 10
104.1743131072428
 20
-0.9089542995000243
 30
0.0
 10
104.1774828304203
 20
-0.9666395781234626
 30
0.0
 10
104.1842511785642
 20
-1.089557808309081
 30
0.0
 10
104.1948951916006
 20
-1.2816711758162
 30
0.0
 10
104.2059936963416
 20
-1.481324491307049
 30
0.0
 10
104.2168126472282
 20
-1.67488064912348
 30
0.0
 10
104.2268359209302
 20
-1.853170482073636
 30
0.0
 10
104.2332382693946
 20
-1.966234870158331
 30
0.0
 10
104.2363005745426
 20
-2.020164638999986
 30
0.0
 11
104.1743131072428
 21
-0.9089542995000243
 31
0.0
 11
104.1838457370427
 21
-1.082008843600036
 31
0.0
 11
104.194682297343
 21
-1.277705440700017
 31
0.0
 11
104.2062263651428
 21
-1.485295420900015
 31
0.0
 11
104.2171649347426
 21
-1.680967453099995
 31
0.0
 11
104.2271420217428
 21
-1.858373722199999
 31
0.0
 11
104.2363005745426
 21
-2.020164638999986
 31
0.0
  0
SPLINE
  5
565D1
330
1F
100
AcDbEntity
  8
1
100
AcDbSpline
210
0.0
220
0.0
230
1.0
 70
     8
 71
     3
 72
    16
 73
    12
 74
    10
 42
0.0000000001
 43
0.0000000001
 44
0.000001
 12
0.0536804787991484
 22
-0.9985581636519198
 32
0.0
 13
0.0567198587675384
 23
-0.9983901329747759
 33
0.0
 40
0.0
 40
0.0
 40
0.0
 40
0.0
 40
0.1672259898119737
 40
0.3238072440891932
 40
0.4741136109005896
 40
0.6146784048160825
 40
0.7410891906616546
 40
0.8523864751776871
 40
0.9510235443682088
 40
1.039823359535538
 40
1.120227859934125
 40
1.120227859934125
 40
1.120227859934125
 40
1.120227859934125
 10
104.2363005745426
 20
-2.020164638999986
 30
0.0
 10
104.2392928316095
 20
-2.075826264767158
 30
0.0
 10
104.2451160097375
 20
-2.183604821856064
 30
0.0
 10
104.2537125909558
 20
-2.341408716397282
 30
0.0
 10
104.2619068784206
 20
-2.490334263104827
 30
0.0
 10
104.2696149996969
 20
-2.629214506150518
 30
0.0
 10
104.2766506667211
 20
-2.755109021023116
 30
0.0
 10
104.2829402028812
 20
-2.867047511596112
 30
0.0
 10
104.2885494889206
 20
-2.966467456046586
 30
0.0
 10
104.2935955196319
 20
-3.055605205870477
 30
0.0
 10
104.2967895305404
 20
-3.111916133618464
 30
0.0
 10
104.2983097078427
 20
-3.138674486900029
 30
0.0
 11
104.2363005745426
 21
-2.020164638999986
 31
0.0
 11
104.2453192593426
 21
-2.187147260600013
 31
0.0
 11
104.2538398527429
 21
-2.343496512699985
 31
0.0
 11
104.2620966297429
 21
-2.493575923899982
 31
0.0
 11
104.269884873743
 21
-2.63392479170001
 31
0.0
 11
104.2769375070427
 21
-2.760138686599987
 31
0.0
 11
104.2831805012429
 21
-2.871260739600032
 31
0.0
 11
104.2887364617427
 21
-2.969741208799987
 31
0.0
 11
104.2937545951429
 21
-3.058399122100013
 31
0.0
 11
104.2983097078427
 21
-3.138674486900029
 31
0.0
  0
SPLINE
  5
565D2
330
1F
100
AcDbEntity
  8
1
100
AcDbSpline
210
0.0
220
0.0
230
1.0
 70
     8
 71
     3
 72
    14
 73
    10
 74
     8
 42
0.0000000001
 43
0.0000000001
 44
0.000001
 12
0.0538658619648496
 22
-0.9985481805675597
 32
0.0
 13
0.0562179245401726
 23
-0.9984185219437765
 33
0.0
 40
0.0
 40
0.0
 40
0.0
 40
0.0
 40
0.214347851372646
 40
0.4188375345545153
 40
0.6001082601812459
 40
0.7606646152084339
 40
0.9029489812303099
 40
1.031128905231269
 40
1.157370050971992
 40
1.157370050971992
 40
1.157370050971992
 40
1.157370050971992
 10
104.2983097078427
 20
-3.138674486900029
 30
0.0
 10
104.3021583851009
 20
-3.210020039232276
 30
0.0
 10
104.309686348351
 20
-3.349429448622473
 30
0.0
 10
104.3205136669104
 20
-3.549172296656223
 30
0.0
 10
104.3303682226212
 20
-3.731011052081072
 30
0.0
 10
104.3391416345106
 20
-3.892142863945593
 30
0.0
 10
104.3470134076577
 20
-4.03560061140638
 30
0.0
 10
104.3543298598781
 20
-4.167633202552636
 30
0.0
 10
104.3590749570076
 20
-4.252307379486992
 30
0.0
 10
104.3614406287427
 20
-4.294321212199974
 30
0.0
 11
104.2983097078427
 21
-3.138674486900029
 31
0.0
 11
104.3098720801426
 21
-3.352710259800019
 31
0.0
 11
104.3209331433429
 21
-3.556900571399992
 31
0.0
 11
104.3307509969427
 21
-3.737905227200045
 31
0.0
 11
104.3394857209428
 21
-3.898223807799993
 31
0.0
 11
104.3472854651427
 21
-4.04029422690003
 31
0.0
 11
104.3543800161426
 21
-4.168277651400003
 31
0.0
 11
104.3614406287427
 21
-4.294321212199974
 31
0.0
  0
SPLINE
  5
565D3
330
1F
100
AcDbEntity
  8
1
100
AcDbSpline
210
0.0
220
0.0
230
1.0
 70
     8
 71
     3
 72
    56
 73
    52
 74
    50
 42
0.0000000001
 43
0.0000000001
 44
0.000001
 12
0.6852968673639857
 22
0.7282638282800458
 32
0.0
 13
0.6409913533104508
 23
0.7675480994577715
 33
0.0
 40
0.0
 40
0.0
 40
0.0
 40
0.0
 40
0.0040340980836195
 40
0.0080176515711364
 40
0.0119527537323851
 40
0.0158421682268349
 40
0.0196877840750624
 40
0.0234915344839751
 40
0.0272558927921017
 40
0.0309828652254293
 40
0.0346747596515881
 40
0.0383338429687421
 40
0.0419625237903611
 40
0.0455630577557473
 40
0.0491366004574407
 40
0.0526846724191363
 40
0.0562096271603214
 40
0.0597131008687638
 40
0.0631956545152095
 40
0.0666581772190768
 40
0.0701027231870742
 40
0.0735321282732838
 40
0.0769484955864552
 40
0.0803520584911082
 40
0.0837420376778723
 40
0.0871163531624002
 40
0.0904729344696083
 40
0.0938120980375498
 40
0.0971348044066027
 40
0.100442653077112
 40
0.1037364959078662
 40
0.107017731618788
 40
0.1102882778851813
 40
0.1135486961185812
 40
0.1167998497879622
 40
0.1200438463728844
 40
0.1232822633678013
 40
0.1265169610260578
 40
0.129748927739745
 40
0.1329797559376269
 40
0.1362104445036854
 40
0.1394426179436794
 40
0.1426774699243365
 40
0.1459165486054662
 40
0.1491607678738697
 40
0.1524113982405088
 40
0.1556703744640635
 40
0.1589394334291556
 40
0.1622202970774354
 40
0.1655132876751347
 40
0.1688185902780244
 40
0.1688185902780244
 40
0.1688185902780244
 40
0.1688185902780244
 10
104.1389287092424
 20
-14.11922548979999
 30
0.0
 10
104.1398502275021
 20
-14.1182461938953
 30
0.0
 10
104.1416805340904
 20
-14.11629875755491
 30
0.0
 10
104.1444056244703
 20
-14.1133921877829
 30
0.0
 10
104.1470942442386
 20
-14.11051753799245
 30
0.0
 10
104.1497480277149
 20
-14.10767326580296
 30
0.0
 10
104.1523685501908
 20
-14.10485784635376
 30
0.0
 10
104.1549573702073
 20
-14.1020698706769
 30
0.0
 10
104.15751570117
 20
-14.09930755666863
 30
0.0
 10
104.1600455046186
 20
-14.09656964522098
 30
0.0
 10
104.1625482511665
 20
-14.09385451526161
 30
0.0
 10
104.1650256099635
 20
-14.09116054672304
 30
0.0
 10
104.1674792002218
 20
-14.08848609674459
 30
0.0
 10
104.1699103907612
 20
-14.08582979530362
 30
0.0
 10
104.1723203426412
 20
-14.08319048328516
 30
0.0
 10
104.174710234109
 20
-14.08056697289643
 30
0.0
 10
104.1770813447346
 20
-14.07795795176065
 30
0.0
 10
104.1794347335294
 20
-14.075362339104
 30
0.0
 10
104.1817711266644
 20
-14.07277941113395
 30
0.0
 10
104.1840913408043
 20
-14.07020833790127
 30
0.0
 10
104.1863966958417
 20
-14.06764772205201
 30
0.0
 10
104.1886887746377
 20
-14.06509585838577
 30
0.0
 10
104.1909687474818
 20
-14.06255148689118
 30
0.0
 10
104.1932369756051
 20
-14.06001424060217
 30
0.0
 10
104.1954928909995
 20
-14.05748479211317
 30
0.0
 10
104.1977354193006
 20
-14.054964391368
 30
0.0
 10
104.1999637343185
 20
-14.05245402016605
 30
0.0
 10
104.2021776864064
 20
-14.04995390556591
 30
0.0
 10
104.2043779359091
 20
-14.04746335778415
 30
0.0
 10
104.206565257674
 20
-14.04498154996858
 30
0.0
 10
104.208740518882
 20
-14.04250754188803
 30
0.0
 10
104.2109046527136
 20
-14.04004031006127
 30
0.0
 10
104.2130585230793
 20
-14.0375788989885
 30
0.0
 10
104.2152028725702
 20
-14.03512248406746
 30
0.0
 10
104.2173384813496
 20
-14.03267018949629
 30
0.0
 10
104.2194663472198
 20
-14.03022087988327
 30
0.0
 10
104.2215876800655
 20
-14.02777316396536
 30
0.0
 10
104.223703438673
 20
-14.02532592652515
 30
0.0
 10
104.2258145799567
 20
-14.02287804420592
 30
0.0
 10
104.2279218680789
 20
-14.02042860663698
 30
0.0
 10
104.2300261994844
 20
-14.01797653765249
 30
0.0
 10
104.2321283843199
 20
-14.01552086224171
 30
0.0
 10
104.2342293235283
 20
-14.01306044236881
 30
0.0
 10
104.2363298460379
 20
-14.01059438980577
 30
0.0
 10
104.2384304637794
 20
-14.00812151334702
 30
0.0
 10
104.2405322179411
 20
-14.00564090334475
 30
0.0
 10
104.2426361688965
 20
-14.00315130575441
 30
0.0
 10
104.2447434216972
 20
-14.00065130753255
 30
0.0
 10
104.2468547402525
 20
-13.99813991125965
 30
0.0
 10
104.2489705474643
 20
-13.99561650898121
 30
0.0
 10
104.2503814804793
 20
-13.99392927207702
 30
0.0
 10
104.2510877039422
 20
-13.99308361250003
 30
0.0
 11
104.1389287092424
 21
-14.11922548979999
 31
0.0
 11
104.1416914316423
 21
-14.11628589399995
 31
0.0
 11
104.1444159407422
 21
-14.11337977940003
 31
0.0
 11
104.1471037795425
 21
-14.11050572659998
 31
0.0
 11
104.1497569400421
 21
-14.10766181830001
 31
0.0
 11
104.1523768087424
 21
-14.10484676850002
 31
0.0
 11
104.1549648025425
 21
-14.10205924419997
 31
0.0
 11
104.1575227315425
 21
-14.0992974733
 31
0.0
 11
104.1600519935423
 21
-14.09656011210002
 31
0.0
 11
104.1625542278423
 21
-14.09384554039998
 31
0.0
 11
104.1650310382422
 21
-14.09115216070002
 31
0.0
 11
104.1674841166425
 21
-14.08847826369998
 31
0.0
 11
104.1699150433423
 21
-14.08582224500003
 31
0.0
 11
104.1723246498425
 21
-14.08318330590005
 31
0.0
 11
104.1747140093423
 21
-14.08056037400001
 31
0.0
 11
104.1770847496425
 21
-14.0779517551
 31
0.0
 11
104.1794380092422
 21
-14.07535627950001
 31
0.0
 11
104.1817742000423
 21
-14.07277356989999
 31
0.0
 11
104.1840939519425
 21
-14.07020300360001
 31
0.0
 11
104.1863986709425
 21
-14.06764308880002
 31
0.0
 11
104.1886902778421
 21
-14.06509174529999
 31
0.0
 11
104.1909701952425
 21
-14.06254743030001
 31
0.0
 11
104.1932385929424
 21
-14.06000998889999
 31
0.0
 11
104.1954949663425
 21
-14.05748002159995
 31
0.0
 11
104.1977379498422
 21
-14.0549591038
 31
0.0
 11
104.1999661913425
 21
-14.05244881010003
 31
0.0
 11
104.2021799276424
 21
-14.04994893379995
 31
0.0
 11
104.2043798206423
 21
-14.0474587842
 31
0.0
 11
104.2065669511423
 21
-14.04497718800002
 31
0.0
 11
104.2087419010424
 21
-14.04250352870002
 31
0.0
 11
104.2109056098425
 21
-14.04003677600002
 31
0.0
 11
104.2130593535423
 21
-14.03757550440002
 31
0.0
 11
104.2152035102424
 21
-14.03511930489998
 31
0.0
 11
104.2173386541421
 21
-14.03266753869998
 31
0.0
 11
104.2194661716423
 21
-14.03021862470003
 31
0.0
 11
104.2215870947425
 21
-14.02777137600003
 31
0.0
 11
104.2237026342425
 21
-14.02532438650001
 31
0.0
 11
104.2258134251422
 21
-14.02287690489998
 31
0.0
 11
104.2279204921422
 21
-14.02042771840001
 31
0.0
 11
104.2300244677424
 21
-14.01797605990005
 31
0.0
 11
104.2321263867425
 21
-14.01552068320001
 31
0.0
 11
104.2342269981425
 21
-14.01306066479999
 31
0.0
 11
104.2363272755421
 21
-14.01059480700002
 31
0.0
 11
104.2384278067425
 21
-14.00812235410002
 31
0.0
 11
104.2405293534423
 21
-14.00564233640001
 31
0.0
 11
104.2426331081421
 21
-14.00315326300001
 31
0.0
 11
104.2447401402423
 21
-14.0006537727
 31
0.0
 11
104.2468515017424
 21
-13.99814250960008
 31
0.0
 11
104.2489673379425
 21
-13.99561918460001
 31
0.0
 11
104.2510877039422
 21
-13.99308361250003
 31
0.0
  0
SPLINE
  5
565D4
330
1F
100
AcDbEntity
  8
1
100
AcDbSpline
210
0.0
220
0.0
230
1.0
 70
     8
 71
     3
 72
    13
 73
     9
 74
     7
 42
0.0000000001
 43
0.0000000001
 44
0.000001
 12
0.0534720225462834
 22
-0.9985693480198607
 32
0.0
 13
0.0552825702653447
 23
-0.998470749408743
 33
0.0
 40
0.0
 40
0.0
 40
0.0
 40
0.0
 40
0.1470098352425852
 40
0.3166138671727012
 40
0.5090775808798006
 40
0.7276580800868939
 40
0.9695145940400315
 40
1.201232310291144
 40
1.201232310291144
 40
1.201232310291144
 40
1.201232310291144
 10
104.3614406287427
 20
-4.294321212199974
 30
0.0
 10
104.3640609331509
 20
-4.343254383976869
 30
0.0
 10
104.3697242035982
 20
-4.448640286549377
 30
0.0
 10
104.3789217846174
 20
-4.618083375168652
 30
0.0
 10
104.38947389906
 20
-4.811344932153275
 30
0.0
 10
104.4013841352505
 20
-5.028652364703177
 30
0.0
 10
104.4140619978395
 20
-5.259022025267668
 30
0.0
 10
104.4227729236994
 20
-5.416639577001177
 30
0.0
 10
104.4270429073428
 20
-5.493760697600023
 30
0.0
 11
104.3614406287427
 21
-4.294321212199974
 31
0.0
 11
104.3693333573428
 21
-4.441119022799981
 31
0.0
 11
104.3785181826426
 21
-4.610474170600014
 31
0.0
 11
104.3890064995428
 21
-4.802651890800021
 31
0.0
 11
104.4009682607427
 21
-5.020904842300026
 31
0.0
 11
104.4142582749425
 21
-5.262395937000022
 31
0.0
 11
104.4270429073428
 21
-5.493760697600023
 31
0.0
  0
SPLINE
  5
565D5
330
1F
100
AcDbEntity
  8
1
100
AcDbSpline
210
0.0
220
0.0
230
1.0
 70
     8
 71
     3
 72
    56
 73
    52
 74
    50
 42
0.0000000001
 43
0.0000000001
 44
0.000001
 12
0.7441893548074693
 22
0.6679687149794088
 32
0.0
 13
0.7096312621496561
 23
0.7045732550841582
 33
0.0
 40
0.0
 40
0.0
 40
0.0
 40
0.0
 40
0.0039943024379802
 40
0.0079401070396864
 40
0.0118402194595661
 40
0.0156967459525988
 40
0.0195112994110757
 40
0.023286193063846
 40
0.0270236714794686
 40
0.0307257042063387
 40
0.0343946031233785
 40
0.0380324813422883
 40
0.0416417136662648
 40
0.0452239710678235
 40
0.0487801926587125
 40
0.0523121257384658
 40
0.0558222845585766
 40
0.0593123477570948
 40
0.0627837890961859
 40
0.0662386815077297
 40
0.0696789723909749
 40
0.0731048199768652
 40
0.0765163739446694
 40
0.0799142913074219
 40
0.0832991827140664
 40
0.0866697838365763
 40
0.0900250277439426
 40
0.0933651729176637
 40
0.0966911360927478
 40
0.1000030297611705
 40
0.1033015362918699
 40
0.1065885599704469
 40
0.1098650113535882
 40
0.1131315860040344
 40
0.1163896688503234
 40
0.1196414658634996
 40
0.1228885752371603
 40
0.1261328714985007
 40
0.129375620738085
 40
0.1326185006897319
 40
0.1358621279660839
 40
0.1391076473683087
 40
0.1423568832057199
 40
0.1456107252714431
 40
0.1488708047236142
 40
0.1521385071275358
 40
0.1554145658176065
 40
0.1587007307401639
 40
0.1619981881837274
 40
0.1653084591326097
 40
0.1686328530415016
 40
0.1686328530415016
 40
0.1686328530415016
 40
0.1686328530415016
 10
104.0162217106424
 20
-14.2348716414
 30
0.0
 10
104.0172125497604
 20
-14.23398228504442
 30
0.0
 10
104.0191812519615
 20
-14.23221331694456
 30
0.0
 10
104.0221141418907
 20
-14.22957231004042
 30
0.0
 10
104.025010130227
 20
-14.22695895757302
 30
0.0
 10
104.027870909152
 20
-14.22437189494064
 30
0.0
 10
104.0306980437369
 20
-14.221809861243
 30
0.0
 10
104.0334931264645
 20
-14.21927155689093
 30
0.0
 10
104.0362578362137
 20
-14.21675560024843
 30
0.0
 10
104.0389938298797
 20
-14.21426058601325
 30
0.0
 10
104.0417027840727
 20
-14.21178519504842
 30
0.0
 10
104.044386255759
 20
-14.20932777715654
 30
0.0
 10
104.0470459472794
 20
-14.20688715749813
 30
0.0
 10
104.0496831185207
 20
-14.20446225683429
 30
0.0
 10
104.0522988828326
 20
-14.20205214558501
 30
0.0
 10
104.0548945534765
 20
-14.19965569607822
 30
0.0
 10
104.0574716199733
 20
-14.19727160801774
 30
0.0
 10
104.0600314998194
 20
-14.19489863737733
 30
0.0
 10
104.0625754974762
 20
-14.19253563445906
 30
0.0
 10
104.0651049785122
 20
-14.19018138361022
 30
0.0
 10
104.0676209826124
 20
-14.18783496258955
 30
0.0
 10
104.0701240775515
 20
-14.18549588302781
 30
0.0
 10
104.0726145155568
 20
-14.18316394879713
 30
0.0
 10
104.0750926579696
 20
-14.18083885959721
 30
0.0
 10
104.0775585215804
 20
-14.17852063669346
 30
0.0
 10
104.0800117050596
 20
-14.17620969549723
 30
0.0
 10
104.0824517237448
 20
-14.17390653409382
 30
0.0
 10
104.0848786229815
 20
-14.17161115284943
 30
0.0
 10
104.0872927330258
 20
-14.1693232811603
 30
0.0
 10
104.0896944854398
 20
-14.16704254983973
 30
0.0
 10
104.0920845486482
 20
-14.16476836102407
 30
0.0
 10
104.0944637810975
 20
-14.162499930581
 30
0.0
 10
104.0968330410767
 20
-14.16023646779303
 30
0.0
 10
104.0991930587092
 20
-14.15797729836467
 30
0.0
 10
104.1015448730524
 20
-14.15572144625464
 30
0.0
 10
104.1038897360123
 20
-14.15346772265687
 30
0.0
 10
104.1062290112629
 20
-14.1512148195464
 30
0.0
 10
104.1085638344399
 20
-14.1489616437515
 30
0.0
 10
104.1108953472406
 20
-14.14670707027434
 30
0.0
 10
104.1132244157489
 20
-14.14445029223589
 30
0.0
 10
104.1155517625167
 20
-14.14219041290683
 30
0.0
 10
104.1178782486153
 20
-14.13992660858929
 30
0.0
 10
104.1202048429605
 20
-14.13765803556899
 30
0.0
 10
104.1225325450808
 20
-14.13538364916167
 30
0.0
 10
104.1248622676532
 20
-14.13310252526314
 30
0.0
 10
104.1271948761189
 20
-14.13081376614258
 30
0.0
 10
104.1295312619693
 20
-14.12851644421805
 30
0.0
 10
104.131872264903
 20
-14.1262096741154
 30
0.0
 10
104.1342189074154
 20
-14.12389238202905
 30
0.0
 10
104.1365721028179
 20
-14.1215635928184
 30
0.0
 10
104.1381423446273
 20
-14.12000624947917
 30
0.0
 10
104.1389287092424
 20
-14.11922548979999
 30
0.0
 11
104.0162217106424
 21
-14.2348716414
 31
0.0
 11
104.0191927778426
 21
-14.23220196610005
 31
0.0
 11
104.0221249213423
 21
-14.22956155299999
 31
0.0
 11
104.0250203134424
 21
-14.2269486257
 31
0.0
 11
104.0278805998421
 21
-14.2243618681
 31
0.0
 11
104.0307070543422
 21
-14.22180028830001
 31
0.0
 11
104.0335014641423
 21
-14.21926241789998
 31
0.0
 11
104.0362655588424
 21
-14.21674682709999
 31
0.0
 11
104.0390008585426
 21
-14.21425226440004
 31
0.0
 11
104.0417091301422
 21
-14.21177724080003
 31
0.0
 11
104.0443920149422
 21
-14.20932036920004
 31
0.0
 11
104.0470512916424
 21
-14.20688012430004
 31
0.0
 11
104.0496882300424
 21
-14.20445543569998
 31
0.0
 11
104.0523035632425
 21
-14.20204571870006
 31
0.0
 11
104.0548986154424
 21
-14.19964983730001
 31
0.0
 11
104.0574752686423
 21
-14.19726612879998
 31
0.0
 11
104.0600347856423
 21
-14.19489349160001
 31
0.0
 11
104.0625782745421
 21
-14.19253095839998
 31
0.0
 11
104.0651072779421
 21
-14.1901771492
 31
0.0
 11
104.0676232410424
 21
-14.18783076350002
 31
0.0
 11
104.0701262971424
 21
-14.18549171729995
 31
0.0
 11
104.0726165729425
 21
-14.18315993200002
 31
0.0
 11
104.0750945646423
 21
-14.18083498130001
 31
0.0
 11
104.0775607330422
 21
-14.17851646890001
 31
0.0
 11
104.0800141731422
 21
-14.17620528300001
 31
0.0
 11
104.0824541269421
 21
-14.17390217990005
 31
0.0
 11
104.0848808019425
 21
-14.1716070078
 31
0.0
 11
104.0872948825425
 21
-14.16931916110003
 31
0.0
 11
104.0896964677425
 21
-14.16703858559998
 31
0.0
 11
104.0920860688422
 21
-14.16476483359997
 31
0.0
 11
104.0944650793424
 21
-14.16249661189999
 31
0.0
 11
104.0968341693424
 21
-14.16023330859998
 31
0.0
 11
104.0991938511422
 21
-14.15797445779999
 31
0.0
 11
104.1015451324422
 21
-14.1557191142
 31
0.0
 11
104.1038896087425
 21
-14.1534657592
 31
0.0
 11
104.1062284317424
 21
-14.15121328950006
 31
0.0
 11
104.1085629475421
 21
-14.14896040540003
 31
0.0
 11
104.1108940595425
 21
-14.14670622459999
 31
0.0
 11
104.1132229630425
 21
-14.1444495746
 31
0.0
 11
104.1155501036423
 21
-14.14219000149997
 31
0.0
 11
104.1178762844424
 21
-14.13992669949999
 31
0.0
 11
104.1202027803422
 21
-14.13765839580003
 31
0.0
 11
104.1225302060425
 21
-14.13538445220001
 31
0.0
 11
104.1248597029424
 21
-14.13310370890002
 31
0.0
 11
104.1271922322421
 21
-14.13081517329999
 31
0.0
 11
104.1295282856424
 21
-14.12851830580001
 31
0.0
 11
104.1318690759424
 21
-14.12621185040002
 31
0.0
 11
104.1342154093422
 21
-14.12389494180002
 31
0.0
 11
104.1365683256424
 21
-14.12156647520004
 31
0.0
 11
104.1389287092424
 21
-14.11922548979999
 31
0.0
  0
SPLINE
  5
565D6
330
1F
100
AcDbEntity
  8
1
100
AcDbSpline
210
0.0
220
0.0
230
1.0
 70
     8
 71
     3
 72
    15
 73
    11
 74
     9
 42
0.0000000001
 43
0.0000000001
 44
0.000001
 12
0.0526205313293737
 22
-0.9986145801472229
 32
0.0
 13
0.0556854974309711
 23
-0.99844835889287
 33
0.0
 40
0.0
 40
0.0
 40
0.0
 40
0.0
 40
0.1771456840596975
 40
0.3340604117075101
 40
0.4795662624454141
 40
0.6234661278610786
 40
0.773426928528685
 40
0.9341825536484778
 40
1.097265093230042
 40
1.25305777130874
 40
1.25305777130874
 40
1.25305777130874
 40
1.25305777130874
 10
104.4270429073428
 20
-5.493760697600023
 30
0.0
 10
104.4301500740155
 20
-5.552727451904075
 30
0.0
 10
104.43603246596
 20
-5.663925444060197
 30
0.0
 10
104.4445251037732
 20
-5.823555114372538
 30
0.0
 10
104.4524923011033
 20
-5.972115115759947
 30
0.0
 10
104.4604001936837
 20
-6.118356975755915
 30
0.0
 10
104.4686437864875
 20
-6.269671354759012
 30
0.0
 10
104.4772971785486
 20
-6.427367102450475
 30
0.0
 10
104.4861131344236
 20
-6.587000802728155
 30
0.0
 10
104.4920118291509
 20
-6.693128743514947
 30
0.0
 10
104.4949036267426
 20
-6.744979058100014
 30
0.0
 11
104.4270429073428
 21
-5.493760697600023
 31
0.0
 11
104.4363971249427
 21
-5.670659234100028
 31
0.0
 11
104.4447376938426
 21
-5.827352139799998
 31
0.0
 11
104.4525307650426
 21
-5.972649148400037
 31
0.0
 11
104.4602995985426
 21
-6.116339150000001
 31
0.0
 11
104.4684565090426
 21
-6.266077944599999
 31
0.0
 11
104.4772630073428
 21
-6.426592170200024
 31
0.0
 11
104.4862559481428
 21
-6.589426569900012
 31
0.0
 11
104.4949036267426
 21
-6.744979058100014
 31
0.0
  0
SPLINE
  5
565D7
330
1F
100
AcDbEntity
  8
1
100
AcDbSpline
210
0.0
220
0.0
230
1.0
 70
     8
 71
     3
 72
    56
 73
    52
 74
    50
 42
0.0000000001
 43
0.0000000001
 44
0.000001
 12
0.7980718052101211
 22
0.6025623567139409
 32
0.0
 13
0.7713620648922249
 23
0.6363965468520421
 33
0.0
 40
0.0
 40
0.0
 40
0.0
 40
0.0
 40
0.0039536601112092
 40
0.0078612608182573
 40
0.0117250942287163
 40
0.0155472824948472
 40
0.0193299750263816
 40
0.02307531619012
 40
0.0267851420189729
 40
0.0304615815314414
 40
0.0341065733045778
 40
0.0377221394169683
 40
0.0413104703310778
 40
0.0448729590194107
 40
0.0484114162034072
 40
0.0519282012311669
 40
0.0554248492834705
 40
0.0589024083038049
 40
0.0623625605096682
 40
0.0658076218471039
 40
0.0692387213558704
 40
0.0726565233640299
 40
0.076062068563746
 40
0.079456499723536
 40
0.0828388673038932
 40
0.0862079694431715
 40
0.0895635986213309
 40
0.0929052164453536
 40
0.0962315775340472
 40
0.0995424931584782
 40
0.1028403775546795
 40
0.1061276881471413
 40
0.1094062775594663
 40
0.1126769340009221
 40
0.1159412955074672
 40
0.1192004763155012
 40
0.1224562378725682
 40
0.1257095765120407
 40
0.1289621679113674
 40
0.1322149975840464
 40
0.1354696854025378
 40
0.1387274004781418
 40
0.1419897359470982
 40
0.1452578488821646
 40
0.1485328726719361
 40
0.1518163548844089
 40
0.1551093216410213
 40
0.1584133627398141
 40
0.1617294663480036
 40
0.1650593168350705
 40
0.1684043977602421
 40
0.1684043977602421
 40
0.1684043977602421
 40
0.1684043977602421
 10
103.8840041511423
 20
-14.3391509165
 30
0.0
 10
103.885055919363
 20
-14.33835680758192
 30
0.0
 10
103.8871464542999
 20
-14.33677684918655
 30
0.0
 10
103.8902622631121
 20
-14.33441738850713
 30
0.0
 10
103.8933409453275
 20
-14.332081495579
 30
0.0
 10
103.896384306936
 20
-14.32976793665182
 30
0.0
 10
103.8993941097116
 20
-14.32747550077538
 30
0.0
 10
103.9023720346513
 20
-14.32520302808217
 30
0.0
 10
103.905319752717
 20
-14.32294935647891
 30
0.0
 10
103.9082388758398
 20
-14.32071335935455
 30
0.0
 10
103.9111310607115
 20
-14.31849386631552
 30
0.0
 10
103.9139979757955
 20
-14.31628968845089
 30
0.0
 10
103.9168411409455
 20
-14.31409974174487
 30
0.0
 10
103.919662016216
 20
-14.31192297981908
 30
0.0
 10
103.9224621024225
 20
-14.30975831680393
 30
0.0
 10
103.9252429337541
 20
-14.30760463234729
 30
0.0
 10
103.9280058394336
 20
-14.30546095655376
 30
0.0
 10
103.9307519671717
 20
-14.30332645366702
 30
0.0
 10
103.933482667056
 20
-14.30120012410671
 30
0.0
 10
103.9361993067725
 20
-14.299080946797
 30
0.0
 10
103.9389029830591
 20
-14.29696810488131
 30
0.0
 10
103.9415944553242
 20
-14.29486104011985
 30
0.0
 10
103.9442744846674
 20
-14.29275918894372
 30
0.0
 10
103.9469434071282
 20
-14.2906623174635
 30
0.0
 10
103.9496009706883
 20
-14.28857065322523
 30
0.0
 10
103.9522465710535
 20
-14.28648470388532
 30
0.0
 10
103.9548797131688
 20
-14.28440489423846
 30
0.0
 10
103.9574998918967
 20
-14.28233165965305
 30
0.0
 10
103.9601066085995
 20
-14.28026543354653
 30
0.0
 10
103.9627001368929
 20
-14.27820603910193
 30
0.0
 10
103.9652817152719
 20
-14.27615252972657
 30
0.0
 10
103.9678531106526
 20
-14.27410353001031
 30
0.0
 10
103.9704156616742
 20
-14.27205799675752
 30
0.0
 10
103.9729704902884
 20
-14.2700150530858
 30
0.0
 10
103.9755185234653
 20
-14.26797397235401
 30
0.0
 10
103.97806093861
 20
-14.26593382163494
 30
0.0
 10
103.9805987432612
 20
-14.26389379807618
 30
0.0
 10
103.9831330879253
 20
-14.26185297797175
 30
0.0
 10
103.9856649187093
 20
-14.25981059617891
 30
0.0
 10
103.988195340689
 20
-14.25776575359936
 30
0.0
 10
103.9907253246615
 20
-14.25571765364775
 30
0.0
 10
103.9932559958986
 20
-14.253665368693
 30
0.0
 10
103.9957883567433
 20
-14.2516080644846
 30
0.0
 10
103.9983233973314
 20
-14.24954491068581
 30
0.0
 10
104.0008620931628
 20
-14.24747508310789
 30
0.0
 10
104.003405382948
 20
-14.24539778159186
 30
0.0
 10
104.0059543202191
 20
-14.24331210614316
 30
0.0
 10
104.0085098110617
 20
-14.2412172711238
 30
0.0
 10
104.0110729281775
 20
-14.23911234813377
 30
0.0
 10
104.0136447134729
 20
-14.23699642726508
 30
0.0
 10
104.0153616211325
 20
-14.23558124071658
 30
0.0
 10
104.0162217106424
 20
-14.2348716414
 30
0.0
 11
103.8840041511423
 21
-14.3391509165
 31
0.0
 11
103.8871583173424
 21
-14.33676708670005
 31
0.0
 11
103.8902734988423
 21
-14.33440807580001
 31
0.0
 11
103.8933515916421
 21
-14.33207259519997
 31
0.0
 11
103.8963943509425
 21
-14.32975945170001
 31
0.0
 11
103.8994035485423
 21
-14.3274674287
 31
0.0
 11
103.9023809468422
 21
-14.32519530540005
 31
0.0
 11
103.9053280586424
 21
-14.32294204199993
 31
0.0
 11
103.9082466248421
 21
-14.32070641449998
 31
0.0
 11
103.9111382304424
 21
-14.31848730839999
 31
0.0
 11
103.9140045221425
 21
-14.31628355230005
 31
0.0
 11
103.9168472756425
 21
-14.31409386620005
 31
0.0
 11
103.9196676304425
 21
-14.31191745090001
 31
0.0
 11
103.9224670535425
 21
-14.30975324769997
 31
0.0
 11
103.9252474415423
 21
-14.30759985650003
 31
0.0
 11
103.9280100351425
 21
-14.30545637619998
 31
0.0
 11
103.9307556871424
 21
-14.30332220050003
 31
0.0
 11
103.9334857483425
 21
-14.30119633020001
 31
0.0
 11
103.9362020654423
 21
-14.29907737140001
 31
0.0
 11
103.9389055453423
 21
-14.29696465510001
 31
0.0
 11
103.9415967267423
 21
-14.29485779580001
 31
0.0
 11
103.9442764428424
 21
-14.29275617360002
 31
0.0
 11
103.9469456051422
 21
-14.29065910299999
 31
0.0
 11
103.9496034789424
 21
-14.28856718989999
 31
0.0
 11
103.9522491334426
 21
-14.28648119899999
 31
0.0
 11
103.9548824205421
 21
-14.28440128170001
 31
0.0
 11
103.9575029332425
 21
-14.28232779540002
 31
0.0
 11
103.9601097117424
 21
-14.28026153819996
 31
0.0
 11
103.9627026261423
 21
-14.27820265410008
 31
0.0
 11
103.9652835834424
 21
-14.2761496664
 31
0.0
 11
103.9678545191425
 21
-14.27410106480001
 31
0.0
 11
103.9704168911423
 21
-14.27205571010002
 31
0.0
 11
103.9729713222425
 21
-14.27001312310001
 31
0.0
 11
103.9755190968424
 21
-14.26797229120002
 31
0.0
 11
103.9780610873424
 21
-14.26593252530001
 31
0.0
 11
103.9805986682424
 21
-14.26389272789998
 31
0.0
 11
103.9831326143423
 21
-14.26185227670005
 31
0.0
 11
103.9856642269421
 21
-14.25981012009998
 31
0.0
 11
103.9881942670424
 21
-14.25776563599999
 31
0.0
 11
103.9907239863425
 21
-14.25571780029997
 31
0.0
 11
103.9932542830424
 21
-14.25366586870001
 31
0.0
 11
103.9957863814425
 21
-14.25160882590001
 31
0.0
 11
103.9983211643423
 21
-14.24954592789999
 31
0.0
 11
104.0008594934425
 21
-14.24747644240001
 31
0.0
 11
104.0034025484422
 21
-14.24539937179998
 31
0.0
 11
104.0059511018423
 21
-14.24331404439999
 31
0.0
 11
104.0085063595425
 21
-14.2412194282
 31
0.0
 11
104.0110690587422
 21
-14.23911486859998
 31
0.0
 11
104.0136404714424
 21
-14.23699926540001
 31
0.0
 11
104.0162217106424
 21
-14.2348716414
 31
0.0
  0
SPLINE
  5
565D8
330
1F
100
AcDbEntity
  8
1
100
AcDbSpline
210
0.0
220
0.0
230
1.0
 70
     8
 71
     3
 72
    55
 73
    51
 74
    49
 42
0.0000000001
 43
0.0000000001
 44
0.000001
 12
0.8465098640842011
 22
0.5323730365149494
 32
0.0
 13
0.8259364124963308
 23
0.5637632858857439
 33
0.0
 40
0.0
 40
0.0
 40
0.0
 40
0.0
 40
0.0039920486870075
 40
0.0079386347551782
 40
0.0118421357748959
 40
0.0157045600611761
 40
0.0195283993092872
 40
0.0233153869161039
 40
0.0270676474319784
 40
0.0307869024681934
 40
0.0344761396232022
 40
0.038138224912944
 40
0.0417743949796486
 40
0.0453856389841351
 40
0.0489739398774807
 40
0.0525414232809761
 40
0.056089143123091
 40
0.0596179652788069
 40
0.0631299585664627
 40
0.0666277447479587
 40
0.0701133850452529
 40
0.0735892749321095
 40
0.0770555712930917
 40
0.0805108631736399
 40
0.0839544630400807
 40
0.0873852480366814
 40
0.0908010766570046
 40
0.0942008862018631
 40
0.0975862671340669
 40
0.100959617056664
 40
0.1043226907658557
 40
0.1076765772006324
 40
0.111022951001631
 40
0.1143632531946504
 40
0.1176989633083258
 40
0.1210304735918271
 40
0.1243601707681894
 40
0.1276903864255628
 40
0.1310216257341141
 40
0.1343551881025798
 40
0.1376923467013859
 40
0.141034817945145
 40
0.1443838405847008
 40
0.1477407618662046
 40
0.1511073513192353
 40
0.1544854755430978
 40
0.157876980983206
 40
0.1612826700884107
 40
0.1647029388910477
 40
0.1681396332654827
 40
0.1681396332654827
 40
0.1681396332654827
 40
0.1681396332654827
 10
103.7433729152424
 20
-14.43129468709997
 30
0.0
 10
103.7444993514395
 20
-14.43058626740617
 30
0.0
 10
103.7467387815673
 20
-14.42917651900257
 30
0.0
 10
103.7500775339432
 20
-14.42707068567705
 30
0.0
 10
103.7533779497145
 20
-14.42498506671268
 30
0.0
 10
103.7566420202838
 20
-14.42291852735451
 30
0.0
 10
103.7598715512856
 20
-14.42087004042658
 30
0.0
 10
103.7630683769851
 20
-14.4188385512795
 30
0.0
 10
103.7662341111493
 20
-14.41682313660078
 30
0.0
 10
103.7693707164635
 20
-14.41482264241948
 30
0.0
 10
103.7724803596384
 20
-14.41283577479383
 30
0.0
 10
103.7755650664708
 20
-14.41086131926411
 30
0.0
 10
103.7786262978828
 20
-14.40889841432971
 30
0.0
 10
103.7816652643411
 20
-14.40694635304055
 30
0.0
 10
103.7846834229619
 20
-14.40500426397
 30
0.0
 10
103.7876822458647
 20
-14.40307125895684
 30
0.0
 10
103.790662889412
 20
-14.40114664712058
 30
0.0
 10
103.7936264918903
 20
-14.39922974436692
 30
0.0
 10
103.7965746278338
 20
-14.39731957867239
 30
0.0
 10
103.7995092026307
 20
-14.39541495578495
 30
0.0
 10
103.8024322091048
 20
-14.39351461607538
 30
0.0
 10
103.805344947653
 20
-14.39161774217085
 30
0.0
 10
103.808247746823
 20
-14.38972414519047
 30
0.0
 10
103.8111400746662
 20
-14.38783419802523
 30
0.0
 10
103.814021043582
 20
-14.38594850906843
 30
0.0
 10
103.816889564063
 20
-14.38406782283115
 30
0.0
 10
103.8197444444192
 20
-14.38219295598053
 30
0.0
 10
103.8225852510531
 20
-14.38032423182558
 30
0.0
 10
103.8254128143521
 20
-14.37846114195101
 30
0.0
 10
103.8282287464828
 20
-14.37660265740509
 30
0.0
 10
103.831034516898
 20
-14.3747478364215
 30
0.0
 10
103.8338313913548
 20
-14.37289586603881
 30
0.0
 10
103.8366205460042
 20
-14.37104598736546
 30
0.0
 10
103.8394032630626
 20
-14.36919736583263
 30
0.0
 10
103.8421804663626
 20
-14.3673493998732
 30
0.0
 10
103.8449533402925
 20
-14.36550131043176
 30
0.0
 10
103.8477233031196
 20
-14.36365215723003
 30
0.0
 10
103.8504918012943
 20
-14.36180097440586
 30
0.0
 10
103.8532599773518
 20
-14.35994699363799
 30
0.0
 10
103.856028678724
 20
-14.35808964000397
 30
0.0
 10
103.8587990861172
 20
-14.35622811066906
 30
0.0
 10
103.8615723610043
 20
-14.35436161045595
 30
0.0
 10
103.8643496828852
 20
-14.35248932678691
 30
0.0
 10
103.8671322435099
 20
-14.35061043362876
 30
0.0
 10
103.8699214054006
 20
-14.34872398392879
 30
0.0
 10
103.8727186658461
 20
-14.34682893294272
 30
0.0
 10
103.8755252521273
 20
-14.34492441219427
 30
0.0
 10
103.8783419834681
 20
-14.34300982493275
 30
0.0
 10
103.8811696771704
 20
-14.34108457207632
 30
0.0
 10
103.8830579874682
 20
-14.33979674387105
 30
0.0
 10
103.8840041511423
 20
-14.3391509165
 30
0.0
 11
103.7433729152424
 21
-14.43129468709997
 31
0.0
 11
103.7467512963424
 21
-14.42916795500002
 31
0.0
 11
103.7500893780425
 21
-14.42706254810002
 31
0.0
 11
103.7533892281424
 21
-14.42497729320001
 31
0.0
 11
103.7566525976424
 21
-14.42291120670001
 31
0.0
 11
103.7598816417421
 21
-14.42086303949998
 31
0.0
 11
103.7630778710424
 21
-14.41883194170003
 31
0.0
 11
103.7662431227424
 21
-14.41681684780003
 31
0.0
 11
103.7693788903423
 21
-14.41481690250003
 31
0.0
 11
103.7724877307425
 21
-14.41283056330003
 31
0.0
 11
103.7755720930424
 21
-14.41085634459996
 31
0.0
 11
103.7786330498425
 21
-14.40889363249999
 31
0.0
 11
103.7816714633425
 21
-14.40694194330001
 31
0.0
 11
103.7846890295425
 21
-14.40500025239998
 31
0.0
 11
103.7876875608424
 21
-14.40306745230005
 31
0.0
 11
103.7906679656423
 21
-14.40114301099999
 31
0.0
 11
103.7936309929424
 21
-14.39922649620001
 31
0.0
 11
103.7965783992424
 21
-14.39731681820002
 31
0.0
 11
103.7995124014421
 21
-14.39541258090003
 31
0.0
 11
103.8024347420423
 21
-14.39351268680002
 31
0.0
 11
103.8053474400421
 21
-14.39161585040001
 31
0.0
 11
103.8082506360422
 21
-14.38972200389999
 31
0.0
 11
103.8111431582422
 21
-14.38783193719996
 31
0.0
 11
103.8140244422423
 21
-14.38594604719999
 31
0.0
 11
103.8168935609424
 21
-14.38406497149998
 31
0.0
 11
103.8197487379423
 21
-14.38218991010002
 31
0.0
 11
103.8225891016425
 21
-14.38032147539997
 31
0.0
 11
103.8254159969422
 21
-14.37845882149999
 31
0.0
 11
103.8282314397422
 21
-14.37660065379998
 31
0.0
 11
103.8310369057421
 21
-14.37474602610001
 31
0.0
 11
103.8338333126423
 21
-14.37289435550002
 31
0.0
 11
103.8366220644423
 21
-14.37104473260001
 31
0.0
 11
103.8394043677424
 21
-14.36919637300002
 31
0.0
 11
103.8421814588425
 21
-14.36734846740001
 31
0.0
 11
103.8449536670421
 21
-14.3655008061
 31
0.0
 11
103.8477229794423
 21
-14.36365207050001
 31
0.0
 11
103.8504913333424
 21
-14.3618009667
 31
0.0
 11
103.8532591449423
 21
-14.35994721179997
 31
0.0
 11
103.8560274890421
 21
-14.35809007900003
 31
0.0
 11
103.8587974165423
 21
-14.356228853
 31
0.0
 11
103.8615703437424
 21
-14.3543625676
 31
0.0
 11
103.8643472879423
 21
-14.35249051929998
 31
0.0
 11
103.8671293544424
 21
-14.35061194110001
 31
0.0
 11
103.8699179956425
 21
-14.34872582550002
 31
0.0
 11
103.8727147414427
 21
-14.34683110640009
 31
0.0
 11
103.8755211017424
 21
-14.34492672419999
 31
0.0
 11
103.8783377200425
 21
-14.34301220190002
 31
0.0
 11
103.8811649022425
 21
-14.34108728889998
 31
0.0
 11
103.8840041511423
 21
-14.3391509165
 31
0.0
  0
SPLINE
  5
565D9
330
1F
100
AcDbEntity
  8
1
100
AcDbSpline
210
0.0
220
0.0
230
1.0
 70
     8
 71
     3
 72
    55
 73
    51
 74
    49
 42
0.0000000001
 43
0.0000000001
 44
0.000001
 12
0.8890761806487537
 22
0.4577592653382613
 32
0.0
 13
0.8731857566968614
 23
0.487387560676029
 33
0.0
 40
0.0
 40
0.0
 40
0.0
 40
0.0
 40
0.0039454587185743
 40
0.0078481860652386
 40
0.0117102451712216
 40
0.0155336256636782
 40
0.0193206088629279
 40
0.023072978912145
 40
0.0267930990559976
 40
0.0304831511265906
 40
0.0341457025217245
 40
0.0377820435222662
 40
0.0413933871334669
 40
0.0449817437285725
 40
0.0485494227560022
 40
0.0520974424807283
 40
0.0556267312631039
 40
0.059139159412915
 40
0.0626371641510377
 40
0.0661223676781651
 40
0.0695969792513117
 40
0.073062349341469
 40
0.0765186597429814
 40
0.0799663337328311
 40
0.0834039595403478
 40
0.0868292822063911
 40
0.090241205398037
 40
0.0936390858081387
 40
0.0970241078008435
 40
0.1003979568513696
 40
0.1037625759615943
 40
0.1071190637354264
 40
0.1104690665813025
 40
0.1138137977089191
 40
0.1171549304251868
 40
0.1204937508237551
 40
0.1238316946173719
 40
0.1271702718846218
 40
0.130510766116862
 40
0.1338547196209756
 40
0.1372032286185
 40
0.1405580525459459
 40
0.1439209501698582
 40
0.1472940204058753
 40
0.1506784646744199
 40
0.1540746629513115
 40
0.1574835792860092
 40
0.1609072158882879
 40
0.1643470423599749
 40
0.1678040238880308
 40
0.1678040238880308
 40
0.1678040238880308
 40
0.1678040238880308
 10
103.5955103806422
 20
-14.51061813870002
 30
0.0
 10
103.596679651765
 20
-14.51001611527188
 30
0.0
 10
103.5990050476321
 20
-14.50881765112171
 30
0.0
 10
103.6024733273453
 20
-14.50702664916869
 30
0.0
 10
103.6059040461961
 20
-14.50525160128896
 30
0.0
 10
103.6092991215536
 20
-14.50349162397845
 30
0.0
 10
103.6126603848844
 20
-14.50174586966719
 30
0.0
 10
103.6159897749137
 20
-14.50001342682051
 30
0.0
 10
103.6192891976703
 20
-14.49829339262308
 30
0.0
 10
103.6225607873393
 20
-14.49658473686838
 30
0.0
 10
103.6258063576937
 20
-14.49488658819127
 30
0.0
 10
103.6290274335398
 20
-14.49319821932684
 30
0.0
 10
103.6322253729661
 20
-14.49151898468677
 30
0.0
 10
103.6354018324934
 20
-14.48984807609318
 30
0.0
 10
103.6385584084895
 20
-14.4881847102762
 30
0.0
 10
103.6416963759031
 20
-14.48652826751478
 30
0.0
 10
103.6448168784438
 20
-14.48487819288834
 30
0.0
 10
103.6479214759774
 20
-14.48323370651644
 30
0.0
 10
103.6510119301591
 20
-14.4815939152509
 30
0.0
 10
103.654090099734
 20
-14.47995786776727
 30
0.0
 10
103.6571575209634
 20
-14.4783247777529
 30
0.0
 10
103.6602153041442
 20
-14.47669408041233
 30
0.0
 10
103.6632640329787
 20
-14.47506548858521
 30
0.0
 10
103.6663034785856
 20
-14.47343914803767
 30
0.0
 10
103.6693326965876
 20
-14.4718155889474
 30
0.0
 10
103.6723502979553
 20
-14.47019558407134
 30
0.0
 10
103.6753551213298
 20
-14.46857978862282
 30
0.0
 10
103.6783470162395
 20
-14.46696831695098
 30
0.0
 10
103.6813266483523
 20
-14.46536084315384
 30
0.0
 10
103.6842954405815
 20
-14.4637566291656
 30
0.0
 10
103.6872547885528
 20
-14.46215494647798
 30
0.0
 10
103.6902060744301
 20
-14.46055506900497
 30
0.0
 10
103.6931504646505
 20
-14.45895638309719
 30
0.0
 10
103.6960892922213
 20
-14.457358180368
 30
0.0
 10
103.6990237827747
 20
-14.45575980634406
 30
0.0
 10
103.7019552252559
 20
-14.45416056770557
 30
0.0
 10
103.7048848590381
 20
-14.45255979385231
 30
0.0
 10
103.707813920923
 20
-14.4509568112739
 30
0.0
 10
103.7107436770845
 20
-14.44935092611062
 30
0.0
 10
103.7136752709391
 20
-14.44774150755474
 30
0.0
 10
103.7166099832499
 20
-14.4461278453204
 30
0.0
 10
103.7195491561151
 20
-14.44450919093643
 30
0.0
 10
103.7224944222459
 20
-14.44288463080229
 30
0.0
 10
103.7254472490982
 20
-14.44125333687042
 30
0.0
 10
103.7284086997963
 20
-14.43961469968484
 30
0.0
 10
103.7313795051063
 20
-14.4379682905286
 30
0.0
 10
103.7343606280897
 20
-14.43631354922963
 30
0.0
 10
103.7373533476343
 20
-14.43464973625771
 30
0.0
 10
103.7403589408504
 20
-14.43297610822951
 30
0.0
 10
103.7423667195652
 20
-14.4318563170314
 30
0.0
 10
103.7433729152424
 20
-14.43129468709997
 30
0.0
 11
103.5955103806422
 21
-14.51061813870002
 31
0.0
 11
103.5990174691421
 21
-14.50881065990001
 31
0.0
 11
103.6024851458423
 21
-14.50701998659997
 31
0.0
 11
103.6059152880423
 21
-14.50524526340001
 31
0.0
 11
103.6093097042424
 21
-14.50348566150001
 31
0.0
 11
103.6126704586424
 21
-14.5017402112
 31
0.0
 11
103.6159991710422
 21
-14.5000081655
 31
0.0
 11
103.6192979718423
 21
-14.49828850379998
 31
0.0
 11
103.6225688270422
 21
-14.4965802823
 31
0.0
 11
103.6258140412421
 21
-14.49488237240001
 31
0.0
 11
103.6290347841425
 21
-14.49319423100003
 31
0.0
 11
103.6322321553423
 21
-14.49151534750001
 31
0.0
 11
103.6354079581422
 21
-14.48984483610003
 31
0.0
 11
103.6385642575421
 21
-14.48818166590001
 31
0.0
 11
103.6417019738421
 21
-14.4865254032
 31
0.0
 11
103.6448219462424
 21
-14.48487565310002
 31
0.0
 11
103.6479258451425
 21
-14.48323157739998
 31
0.0
 11
103.6510158389424
 21
-14.48159206679997
 31
0.0
 11
103.6540933734425
 21
-14.47995638890001
 31
0.0
 11
103.6571604103424
 21
-14.47832353100001
 31
0.0
 11
103.6602181507421
 21
-14.47669287910008
 31
0.0
 11
103.6632667634423
 21
-14.47506436700001
 31
0.0
 11
103.6663066298424
 21
-14.47343781390003
 31
0.0
 11
103.6693365137423
 21
-14.47181390539998
 31
0.0
 11
103.6723544379422
 21
-14.47019372940002
 31
0.0
 11
103.6753594485424
 21
-14.46857783030003
 31
0.0
 11
103.6783509917425
 21
-14.46696653990001
 31
0.0
 11
103.6813301228423
 21
-14.4653593232
 31
0.0
 11
103.6842983363424
 21
-14.46375540380002
 31
0.0
 11
103.6872573510425
 21
-14.46215387860003
 31
0.0
 11
103.6902081409423
 21
-14.46055424229995
 31
0.0
 11
103.6931521602425
 21
-14.45895572590001
 31
0.0
 11
103.6960904802424
 21
-14.457357763
 31
0.0
 11
103.6990245749423
 21
-14.45575956459999
 31
0.0
 11
103.7019555762424
 21
-14.45416052309997
 31
0.0
 11
103.7048847457424
 21
-14.4525599562
 31
0.0
 11
103.7078134085422
 21
-14.45095714270003
 31
0.0
 11
103.7107426892423
 21
-14.44935146699998
 31
0.0
 11
103.7136739375426
 21
-14.44774218570002
 31
0.0
 11
103.7166081106425
 21
-14.44612876740002
 31
0.0
 11
103.7195467449421
 21
-14.44451035759999
 31
0.0
 11
103.7224913741424
 21
-14.44288609829999
 31
0.0
 11
103.7254438273423
 21
-14.44125496280008
 31
0.0
 11
103.7284051459423
 21
-14.43961635459999
 31
0.0
 11
103.7313756512424
 21
-14.43797007250005
 31
0.0
 11
103.7343561748423
 21
-14.4363156312
 31
0.0
 11
103.7373484540424
 21
-14.43465203800002
 31
0.0
 11
103.7403537584423
 21
-14.43297855510003
 31
0.0
 11
103.7433729152424
 21
-14.43129468709997
 31
0.0
  0
SPLINE
  5
565DA
330
1F
100
AcDbEntity
  8
1
100
AcDbSpline
210
0.0
220
0.0
230
1.0
 70
     8
 71
     3
 72
    55
 73
    51
 74
    49
 42
0.0000000001
 43
0.0000000001
 44
0.000001
 12
0.925353507878524
 22
0.3791053751358722
 32
0.0
 13
0.9130035552679538
 23
0.4079516001538376
 33
0.0
 40
0.0
 40
0.0
 40
0.0
 40
0.0
 40
0.0038958410575287
 40
0.0077512005884513
 40
0.0115678800262427
 40
0.0153484375678339
 40
0.0190948892708894
 40
0.0228088501474127
 40
0.0264927485505869
 40
0.0301481479691136
 40
0.0337769040953731
 40
0.0373811954995891
 40
0.0409621318384671
 40
0.0445214149925481
 40
0.0480610921726267
 40
0.0515827806919121
 40
0.05508853217762
 40
0.058579684053274
 40
0.0620586134684732
 40
0.065526908139219
 40
0.0689861137891686
 40
0.0724380891062336
 40
0.0758824161238679
 40
0.0793182194835248
 40
0.0827455238004369
 40
0.0861629407655972
 40
0.089568338276806
 40
0.0929609447010084
 40
0.0963419177487018
 40
0.0997130164662972
 40
0.1030760313704319
 40
0.106432803207771
 40
0.1097849115925576
 40
0.1131329480950924
 40
0.116478060293962
 40
0.1198221327498995
 40
0.12316626179025
 40
0.1265118812076006
 40
0.1298607801517224
 40
0.1332137252756599
 40
0.1365716424293792
 40
0.1399362987875236
 40
0.1433093707302243
 40
0.1466926501394989
 40
0.150087817928425
 40
0.1534965796274846
 40
0.1569198497181505
 40
0.1603584984687925
 40
0.1638143635559079
 40
0.1672888589303796
 40
0.1672888589303796
 40
0.1672888589303796
 40
0.1672888589303796
 10
103.4417490635423
 20
-14.5765023089
 30
0.0
 10
103.4429507402719
 20
-14.57600999747147
 30
0.0
 10
103.445341228933
 20
-14.57502956670711
 30
0.0
 10
103.448907667864
 20
-14.57356363912768
 30
0.0
 10
103.4524374649048
 20
-14.57210964892617
 30
0.0
 10
103.4559326179211
 20
-14.57066687208781
 30
0.0
 10
103.4593950646011
 20
-14.56923460120572
 30
0.0
 10
103.4628267000936
 20
-14.56781213895361
 30
0.0
 10
103.4662292777188
 20
-14.56639883948686
 30
0.0
 10
103.469604622529
 20
-14.56499402022585
 30
0.0
 10
103.4729544804554
 20
-14.56359702490094
 30
0.0
 10
103.4762804555967
 20
-14.56220724992434
 30
0.0
 10
103.47958410277
 20
-14.56082410652185
 30
0.0
 10
103.4828669345629
 20
-14.55944701822432
 30
0.0
 10
103.4861306176534
 20
-14.55807533824601
 30
0.0
 10
103.4893769241591
 20
-14.55670836961107
 30
0.0
 10
103.4926074061395
 20
-14.55534550223619
 30
0.0
 10
103.49582384713
 20
-14.55398602297249
 30
0.0
 10
103.4990278862329
 20
-14.55262927401826
 30
0.0
 10
103.5022212245427
 20
-14.5512745657886
 30
0.0
 10
103.5054054022484
 20
-14.54992127182214
 30
0.0
 10
103.5085813426727
 20
-14.54856902337956
 30
0.0
 10
103.511749225858
 20
-14.54721776601259
 30
0.0
 10
103.5149086696715
 20
-14.54586768544277
 30
0.0
 10
103.518058995048
 20
-14.54451909557363
 30
0.0
 10
103.5211991386385
 20
-14.54317247702102
 30
0.0
 10
103.5243277945312
 20
-14.54182841811728
 30
0.0
 10
103.5274444377773
 20
-14.54048717490667
 30
0.0
 10
103.5305497348622
 20
-14.53914849067331
 30
0.0
 10
103.5336451354005
 20
-14.53781176784561
 30
0.0
 10
103.5367322963342
 20
-14.53647631457811
 30
0.0
 10
103.5398128179216
 20
-14.53514145856465
 30
0.0
 10
103.5428879321002
 20
-14.5338066825953
 30
0.0
 10
103.5459586576523
 20
-14.53247155863315
 30
0.0
 10
103.5490261055238
 20
-14.53113561563592
 30
0.0
 10
103.5520915396181
 20
-14.52979831235329
 30
0.0
 10
103.5551563098888
 20
-14.5284590661581
 30
0.0
 10
103.5582217357731
 20
-14.5271173039882
 30
0.0
 10
103.5612890346227
 20
-14.5257724935978
 30
0.0
 10
103.5643592674878
 20
-14.52442416789839
 30
0.0
 10
103.5674334876638
 20
-14.52307186036171
 30
0.0
 10
103.5705130247801
 20
-14.5217149795418
 30
0.0
 10
103.5735994710816
 20
-14.52035281407919
 30
0.0
 10
103.5766943908104
 20
-14.51898466039959
 30
0.0
 10
103.5797993554023
 20
-14.51760980720013
 30
0.0
 10
103.5829156672457
 20
-14.51622765796199
 30
0.0
 10
103.5860443803892
 20
-14.51483772277439
 30
0.0
 10
103.5891865880308
 20
-14.51343949139567
 30
0.0
 10
103.592343534161
 20
-14.51203238305068
 30
0.0
 10
103.5944529717658
 20
-14.51109061401594
 30
0.0
 10
103.5955103806422
 20
-14.51061813870002
 30
0.0
 11
103.4417490635423
 21
-14.5765023089
 31
0.0
 11
103.4453535279424
 21
-14.5750239908
 31
0.0
 11
103.4489194225423
 21
-14.57355831000002
 31
0.0
 11
103.4524484475425
 21
-14.57210467129999
 31
0.0
 11
103.4559430002423
 21
-14.57066218440003
 31
0.0
 11
103.4594049738423
 21
-14.56923015820001
 31
0.0
 11
103.4628358886423
 21
-14.56780804890003
 31
0.0
 11
103.4662380139423
 21
-14.56639499520005
 31
0.0
 11
103.4696128178423
 21
-14.56499046120001
 31
0.0
 11
103.4729620363423
 21
-14.5635937939
 31
0.0
 11
103.4762877011424
 21
-14.56220421020005
 31
0.0
 11
103.4795908556423
 21
-14.56082133400002
 31
0.0
 11
103.4828730880422
 21
-14.55944455669999
 31
0.0
 11
103.4861363029422
 21
-14.55807313100001
 31
0.0
 11
103.4893820065424
 21
-14.55670647100004
 31
0.0
 11
103.4926121034423
 21
-14.55534381760003
 31
0.0
 11
103.4958278382426
 21
-14.55398468449999
 31
0.0
 11
103.4990314114425
 21
-14.55262817620002
 31
0.0
 11
103.5022242944424
 21
-14.5512736998
 31
0.0
 11
103.5054079183423
 21
-14.54992067480003
 31
0.0
 11
103.5085840005422
 21
-14.54856839409998
 31
0.0
 11
103.5117521627423
 21
-14.54721704000003
 31
0.0
 11
103.5149116065424
 21
-14.5458669756
 31
0.0
 11
103.5180623617423
 21
-14.54451821169999
 31
0.0
 11
103.5212031596425
 21
-14.54317131600004
 31
0.0
 11
103.5243320497422
 21
-14.54182715339999
 31
0.0
 11
103.5274483331425
 21
-14.54048605539998
 31
0.0
 11
103.5305530831422
 21
-14.5391475907
 31
0.0
 11
103.5336479239422
 21
-14.5378110868
 31
0.0
 11
103.5367345069423
 21
-14.53647585470008
 31
0.0
 11
103.5398145278423
 21
-14.5351411812
 31
0.0
 11
103.5428894409422
 21
-14.5338064527
 31
0.0
 11
103.5459597931424
 21
-14.53247144649998
 31
0.0
 11
103.5490266404422
 21
-14.53113571630001
 31
0.0
 11
103.5520917131423
 21
-14.52979851830002
 31
0.0
 11
103.5551560174424
 21
-14.52845942009999
 31
0.0
 11
103.5582208678424
 21
-14.527117852
 31
0.0
 11
103.5612879026424
 21
-14.52577309780003
 31
0.0
 11
103.5643578225425
 21
-14.52442484919999
 31
0.0
 11
103.5674314731425
 21
-14.52307273190001
 31
0.0
 11
103.5705104690425
 21
-14.52171603030001
 31
0.0
 11
103.5735963400425
 21
-14.52035406150008
 31
0.0
 11
103.5766907200425
 21
-14.51898609239998
 31
0.0
 11
103.5797951397424
 21
-14.5176114309
 31
0.0
 11
103.5829111507426
 21
-14.5162293713001
 31
0.0
 11
103.5860395801423
 21
-14.51483952550002
 31
0.0
 11
103.5891812139423
 21
-14.51344152180003
 31
0.0
 11
103.5923377207423
 21
-14.51203459240008
 31
0.0
 11
103.5955103806422
 21
-14.51061813870002
 31
0.0
  0
SPLINE
  5
565DB
330
1F
100
AcDbEntity
  8
1
100
AcDbSpline
210
0.0
220
0.0
230
1.0
 70
     8
 71
     3
 72
    55
 73
    51
 74
    49
 42
0.0000000001
 43
0.0000000001
 44
0.000001
 12
0.9549284082720459
 22
0.2968362091710118
 32
0.0
 13
0.9453394986909032
 23
0.3260877676559362
 33
0.0
 40
0.0
 40
0.0
 40
0.0
 40
0.0
 40
0.0038473426047913
 40
0.0076563243535782
 40
0.0114291428174189
 40
0.0151683867899017
 40
0.0188755203806814
 40
0.0225524831320347
 40
0.0262013591069891
 40
0.0298233546207487
 40
0.0334201335766459
 40
0.0369937402803651
 40
0.0405458874773974
 40
0.0440785353899187
 40
0.0475930904211658
 40
0.0510914540792495
 40
0.0545749663365434
 40
0.0580454148800752
 40
0.0615044008593977
 40
0.0649535165648933
 40
0.0683947847487369
 40
0.0718296558813829
 40
0.0752595749864177
 40
0.0786844629449022
 40
0.082102783530345
 40
0.0855121392337578
 40
0.0889098186306783
 40
0.0922955058554349
 40
0.0956709434467122
 40
0.0990378865966243
 40
0.102397675743275
 40
0.1057517006729236
 40
0.1091012955713719
 40
0.1124478809188402
 40
0.1157928120550707
 40
0.1191374049863767
 40
0.1224831457675644
 40
0.1258313947350102
 40
0.1291836774744104
 40
0.1325413202755449
 40
0.135905786035342
 40
0.1392783219441167
 40
0.1426606775024139
 40
0.1460544688618633
 40
0.1494614205283371
 40
0.1528822929402394
 40
0.1563181892775754
 40
0.1597709855985288
 40
0.163241718609632
 40
0.1667317735385319
 40
0.1667317735385319
 40
0.1667317735385319
 40
0.1667317735385319
 10
103.2833423441423
 20
-14.62850807910001
 30
0.0
 10
103.2845669897256
 20
-14.62812740223528
 30
0.0
 10
103.2870037777667
 20
-14.62736890278356
 30
0.0
 10
103.2906404772752
 20
-14.62623385116458
 30
0.0
 10
103.2942419298317
 20
-14.62510681369152
 30
0.0
 10
103.2978101484028
 20
-14.62398725383193
 30
0.0
 10
103.3013470618582
 20
-14.62287465373586
 30
0.0
 10
103.3048544366899
 20
-14.62176853964212
 30
0.0
 10
103.3083339556252
 20
-14.62066845748364
 30
0.0
 10
103.311787212144
 20
-14.61957397533098
 30
0.0
 10
103.3152157855689
 20
-14.61848466011032
 30
0.0
 10
103.3186214144943
 20
-14.6174000222359
 30
0.0
 10
103.322005929949
 20
-14.61631953657833
 30
0.0
 10
103.3253709587582
 20
-14.61524273727059
 30
0.0
 10
103.32871818617
 20
-14.61416913431725
 30
0.0
 10
103.3320490990991
 20
-14.6130982960904
 30
0.0
 10
103.3353653040835
 20
-14.6120297475866
 30
0.0
 10
103.3386683109917
 20
-14.61096304005464
 30
0.0
 10
103.3419597083674
 20
-14.60989769451589
 30
0.0
 10
103.3452411579287
 20
-14.60883320346581
 30
0.0
 10
103.3485142721957
 20
-14.60776907037728
 30
0.0
 10
103.3517806156412
 20
-14.60670480958533
 30
0.0
 10
103.3550410854463
 20
-14.60564014888446
 30
0.0
 10
103.3582956319046
 20
-14.60457512347571
 30
0.0
 10
103.3615429884341
 20
-14.60351016819052
 30
0.0
 10
103.3647810560526
 20
-14.60244599529453
 30
0.0
 10
103.3680081239445
 20
-14.60138319514992
 30
0.0
 10
103.3712237931138
 20
-14.60032192953233
 30
0.0
 10
103.3744290782211
 20
-14.59926189283807
 30
0.0
 10
103.3776255170165
 20
-14.59820260269629
 30
0.0
 10
103.380814534409
 20
-14.59714360991117
 30
0.0
 10
103.3839974210127
 20
-14.5960845060778
 30
0.0
 10
103.3871754917109
 20
-14.59502487112665
 30
0.0
 10
103.3903500494385
 20
-14.59396428538821
 30
0.0
 10
103.3935223903447
 20
-14.592902327931
 30
0.0
 10
103.3966938302771
 20
-14.59183856776185
 30
0.0
 10
103.3998656856212
 20
-14.59077257020442
 30
0.0
 10
103.4030393379264
 20
-14.58970387514905
 30
0.0
 10
103.4062161171995
 20
-14.58863203627021
 30
0.0
 10
103.4093973847868
 20
-14.58755659317509
 30
0.0
 10
103.4125844130828
 20
-14.58647711210281
 30
0.0
 10
103.4157786070724
 20
-14.58539311101226
 30
0.0
 10
103.4189814189999
 20
-14.58430408817028
 30
0.0
 10
103.422194450545
 20
-14.58320948711335
 30
0.0
 10
103.4254189901151
 20
-14.58210885420441
 30
0.0
 10
103.4286561633288
 20
-14.5810017882561
 30
0.0
 10
103.4319071427509
 20
-14.57988786928467
 30
0.0
 10
103.4351731870679
 20
-14.57876664458774
 30
0.0
 10
103.4384556428171
 20
-14.57763762793887
 30
0.0
 10
103.4406493012834
 20
-14.57688166364026
 30
0.0
 10
103.4417490635423
 20
-14.5765023089
 30
0.0
 11
103.2833423441423
 21
-14.62850807910001
 31
0.0
 11
103.2870158444423
 21
-14.627364639
 31
0.0
 11
103.2906518552422
 21
-14.62622982350001
 31
0.0
 11
103.2942524998425
 21
-14.6251030689
 31
0.0
 11
103.2978202725423
 21
-14.62398368639998
 31
0.0
 11
103.3013565924423
 21
-14.62287131660002
 31
0.0
 11
103.3048633305425
 21
-14.62176545170001
 31
0.0
 11
103.3083424938425
 21
-14.62066553410001
 31
0.0
 11
103.3117952507423
 21
-14.619571265
 31
0.0
 11
103.3152232046425
 21
-14.61848220310008
 31
0.0
 11
103.3186283197421
 21
-14.61739778600002
 31
0.0
 11
103.3220122427422
 21
-14.61631754659999
 31
0.0
 11
103.3253768544423
 21
-14.61524093700002
 31
0.0
 11
103.3287235066423
 21
-14.6141675730001
 31
0.0
 11
103.3320540213424
 21
-14.61309691500005
 31
0.0
 11
103.3353696844422
 21
-14.61202859029998
 31
0.0
 11
103.3386722067423
 21
-14.6109620848
 31
0.0
 11
103.3419631201422
 21
-14.6098969372
 31
0.0
 11
103.3452439468421
 21
-14.60883268480001
 31
0.0
 11
103.3485166170424
 21
-14.60776872740001
 31
0.0
 11
103.3517825153424
 21
-14.60670463740001
 31
0.0
 11
103.3550430200423
 21
-14.60563998530001
 31
0.0
 11
103.3582980599424
 21
-14.6045748126
 31
0.0
 11
103.3615461795423
 21
-14.60350961550001
 31
0.0
 11
103.3647851063422
 21
-14.60244516270002
 31
0.0
 11
103.368012271742
 21
-14.60138232719998
 31
0.0
 11
103.3712273838423
 21
-14.60032123659999
 31
0.0
 11
103.3744321050424
 21
-14.59926137200001
 31
0.0
 11
103.3776281084422
 21
-14.5982022064
 31
0.0
 11
103.3808166722422
 21
-14.59714333950002
 31
0.0
 11
103.3839991203422
 21
-14.5960843519
 31
0.0
 11
103.3871767229425
 21
-14.59502483879998
 31
0.0
 11
103.3903508310425
 21
-14.59396436480001
 31
0.0
 11
103.3935227328425
 21
-14.59290251199997
 31
0.0
 11
103.3966936782422
 21
-14.59183887189999
 31
0.0
 11
103.3998650773421
 21
-14.5907729788001
 31
0.0
 11
103.4030382200424
 21
-14.58970440389999
 31
0.0
 11
103.4062145518424
 21
-14.5886326626
 31
0.0
 11
103.4093953283425
 21
-14.58755733079999
 31
0.0
 11
103.4125819335425
 21
-14.58647793760002
 31
0.0
 11
103.4157755463422
 21
-14.58539407889998
 31
0.0
 11
103.4189778201424
 21
-14.5843051857001
 31
0.0
 11
103.4221902809424
 21
-14.58321072849997
 31
0.0
 11
103.4254145561424
 21
-14.58211013940001
 31
0.0
 11
103.4286513597424
 21
-14.5810031589
 31
0.0
 11
103.4319017295422
 21
-14.57988941510001
 31
0.0
 11
103.4351674333425
 21
-14.57876828220008
 31
0.0
 11
103.4384494441421
 21
-14.57763940420001
 31
0.0
 11
103.4417490635423
 21
-14.5765023089
 31
0.0
  0
SPLINE
  5
565DC
330
1F
100
AcDbEntity
  8
1
100
AcDbSpline
210
0.0
220
0.0
230
1.0
 70
     8
 71
     3
 72
    54
 73
    50
 74
    48
 42
0.0000000001
 43
0.0000000001
 44
0.000001
 12
0.9773946771351324
 22
0.2114229058260022
 32
0.0
 13
0.970173958123421
 23
0.2424097584239027
 33
0.0
 40
0.0
 40
0.0
 40
0.0
 40
0.0
 40
0.0038832070872715
 40
0.0077288847459458
 40
0.0115396138399324
 40
0.0153171721370025
 40
0.0190633078172635
 40
0.0227806644912379
 40
0.0264708017055758
 40
0.0301352381098573
 40
0.0337764598661734
 40
0.0373958126489926
 40
0.0409943580831757
 40
0.044574133209692
 40
0.0481370899422482
 40
0.0516851666504317
 40
0.055220253600324
 40
0.0587437982478881
 40
0.0622582392776549
 40
0.0657651359960093
 40
0.0692662001833472
 40
0.0727630923884589
 40
0.0762549854133125
 40
0.0797407794894951
 40
0.0832195078076475
 40
0.0866877959385154
 40
0.090144355472523
 40
0.0935912189124279
 40
0.0970313370375144
 40
0.1004658656020911
 40
0.1038951709322896
 40
0.1073196813163037
 40
0.110741699854491
 40
0.1141628947755059
 40
0.1175843686856319
 40
0.121007328588057
 40
0.1244343388961857
 40
0.1278663916362749
 40
0.1313038911337668
 40
0.1347473942114678
 40
0.1381992657933842
 40
0.1416615606562477
 40
0.1451365081101934
 40
0.148625293438211
 40
0.1521297169195928
 40
0.155650844252418
 40
0.159190368016148
 40
0.1627498681533425
 40
0.1663308605499319
 40
0.1663308605499319
 40
0.1663308605499319
 40
0.1663308605499319
 10
103.1213805362424
 20
-14.66634976459994
 30
0.0
 10
103.1226456782215
 20
-14.66607609829117
 30
0.0
 10
103.1251635105113
 20
-14.66553037140909
 30
0.0
 10
103.1289220933556
 20
-14.66471250084467
 30
0.0
 10
103.132645610777
 20
-14.66389911647499
 30
0.0
 10
103.1363360695904
 20
-14.66308987837732
 30
0.0
 10
103.1399954955936
 20
-14.66228443458536
 30
0.0
 10
103.143625842005
 20
-14.66148244112772
 30
0.0
 10
103.1472289858902
 20
-14.66068356334965
 30
0.0
 10
103.1508067517841
 20
-14.65988747153314
 30
0.0
 10
103.1543608933143
 20
-14.65909384497709
 30
0.0
 10
103.1578930141964
 20
-14.65830239015855
 30
0.0
 10
103.1614045710362
 20
-14.657512841249
 30
0.0
 10
103.1648972165471
 20
-14.65672488299258
 30
0.0
 10
103.1683728873122
 20
-14.65593813003795
 30
0.0
 10
103.1718334709219
 20
-14.65515220184821
 30
0.0
 10
103.17528068978
 20
-14.6543667494727
 30
0.0
 10
103.1787164277641
 20
-14.65358138165658
 30
0.0
 10
103.1821424600102
 20
-14.65279572623592
 30
0.0
 10
103.1855606463627
 20
-14.65200938601497
 30
0.0
 10
103.1889725927991
 20
-14.65122201699853
 30
0.0
 10
103.1923791292784
 20
-14.65043345003657
 30
0.0
 10
103.1957801724209
 20
-14.64964372587728
 30
0.0
 10
103.1991747860887
 20
-14.64885308462837
 30
0.0
 10
103.202561207936
 20
-14.64806196199122
 30
0.0
 10
103.2059376155521
 20
-14.64727081278963
 30
0.0
 10
103.2093031609779
 20
-14.64647986802626
 30
0.0
 10
103.2126590487512
 20
-14.64568887618078
 30
0.0
 10
103.216007275344
 20
-14.6448973941397
 30
0.0
 10
103.2193492955925
 20
-14.64410510156017
 30
0.0
 10
103.2226857455318
 20
-14.64331186916783
 30
0.0
 10
103.2260176328755
 20
-14.64251747741177
 30
0.0
 10
103.229346386759
 20
-14.64172160296684
 30
0.0
 10
103.2326736539701
 20
-14.640923866109
 30
0.0
 10
103.2360007251203
 20
-14.64012396853847
 30
0.0
 10
103.2393291804975
 20
-14.63932153881242
 30
0.0
 10
103.2426605635953
 20
-14.63851621006927
 30
0.0
 10
103.2459961569454
 20
-14.63770767457532
 30
0.0
 10
103.2493365921612
 20
-14.63689577990749
 30
0.0
 10
103.2526829451451
 20
-14.63608026390449
 30
0.0
 10
103.2560368255569
 20
-14.63526073104046
 30
0.0
 10
103.2594003835177
 20
-14.63443664894656
 30
0.0
 10
103.2627753860348
 20
-14.63360757395446
 30
0.0
 10
103.2661635167249
 20
-14.63277307856342
 30
0.0
 10
103.2695660816928
 20
-14.63193282443564
 30
0.0
 10
103.2729845504082
 20
-14.63108642950372
 30
0.0
 10
103.2764203202166
 20
-14.63023352604429
 30
0.0
 10
103.2798749332088
 20
-14.62937370673136
 30
0.0
 10
103.2821842822865
 20
-14.62879743493394
 30
0.0
 10
103.2833423441423
 20
-14.62850807910001
 30
0.0
 11
103.1213805362424
 21
-14.66634976459994
 31
0.0
 11
103.1251756278423
 21
-14.66552720929996
 31
0.0
 11
103.1289333800421
 21
-14.66470953639992
 31
0.0
 11
103.1326563331424
 21
-14.66389629749994
 31
0.0
 11
103.1363462411423
 21
-14.66308720659994
 31
0.0
 11
103.1400048279422
 21
-14.66228197749997
 31
0.0
 11
103.1436346904424
 21
-14.66148012369997
 31
0.0
 11
103.1472373654421
 21
-14.66068138459992
 31
0.0
 11
103.1508143487424
 21
-14.65988550279996
 31
0.0
 11
103.1543680793425
 21
-14.65909200449995
 31
0.0
 11
103.1578998817424
 21
-14.65830065739993
 31
0.0
 11
103.1614108024422
 21
-14.65751128699993
 31
0.0
 11
103.1649028387423
 21
-14.65672350039995
 31
0.0
 11
103.1683779036423
 21
-14.65593691729994
 31
0.0
 11
103.1718378956423
 21
-14.65515115419998
 31
0.0
 11
103.1752846652423
 21
-14.65436583299994
 31
0.0
 11
103.1787196300422
 21
-14.65358066849995
 31
0.0
 11
103.1821451728422
 21
-14.65279514939995
 31
0.0
 11
103.1855628180421
 21
-14.65200895509991
 31
0.0
 11
103.1889742376424
 21
-14.65122172619999
 31
0.0
 11
103.1923810527423
 21
-14.65043311029996
 31
0.0
 11
103.1957824603422
 21
-14.64964331389996
 31
0.0
 11
103.1991773925422
 21
-14.64885260749993
 31
0.0
 11
103.2025649116422
 21
-14.64806123419998
 31
0.0
 11
103.2059417365424
 21
-14.64726998919998
 31
0.0
 11
103.2093066188424
 21
-14.64647919869993
 31
0.0
 11
103.2126615429422
 21
-14.64568842869995
 31
0.0
 11
103.2160093856424
 21
-14.64489702839995
 31
0.0
 11
103.2193512755423
 21
-14.64410475409994
 31
0.0
 11
103.2226875725423
 21
-14.64331154159992
 31
0.0
 11
103.2260186967423
 21
-14.64251731179996
 31
0.0
 11
103.2293468912423
 21
-14.64172154769994
 31
0.0
 11
103.2326737805422
 21
-14.64092387499994
 31
0.0
 11
103.2360004383424
 21
-14.64012404790003
 31
0.0
 11
103.2393280391425
 21
-14.63932179309995
 31
0.0
 11
103.2426590761422
 21
-14.63851651529995
 31
0.0
 11
103.2459945130424
 21
-14.63770798379994
 31
0.0
 11
103.2493347420425
 21
-14.63689610480004
 31
0.0
 11
103.2526803032422
 21
-14.63608074719998
 31
0.0
 11
103.2560334928423
 21
-14.63526134929998
 31
0.0
 11
103.2593963044421
 21
-14.63443741749995
 31
0.0
 11
103.2627709000423
 21
-14.63360841199994
 31
0.0
 11
103.2661584267423
 21
-14.63277403779996
 31
0.0
 11
103.2695606280422
 21
-14.63193384970003
 31
0.0
 11
103.2729785334425
 21
-14.63108757510002
 31
0.0
 11
103.2764137803422
 21
-14.63023478820008
 31
0.0
 11
103.2798678958422
 21
-14.6293750863
 31
0.0
 11
103.2833423441423
 21
-14.62850807910001
 31
0.0
  0
SPLINE
  5
565DD
330
1F
100
AcDbEntity
  8
1
100
AcDbSpline
210
0.0
220
0.0
230
1.0
 70
     8
 71
     3
 72
    57
 73
    53
 74
    51
 42
0.0000000001
 43
0.0000000001
 44
0.000001
 12
0.9926442983151567
 22
0.1210673243381963
 32
0.0
 13
0.9875148019949907
 23
0.1575262385788291
 33
0.0
 40
0.0
 40
0.0
 40
0.0
 40
0.0
 40
0.0038850967491884
 40
0.007732292576715
 40
0.0115428835525872
 40
0.0153186304446548
 40
0.019061796912997
 40
0.0227740558610079
 40
0.0264573476449382
 40
0.030113755872775
 40
0.0337444646674425
 40
0.0373510925554079
 40
0.0409356625902214
 40
0.0444997548363376
 40
0.0480453823959186
 40
0.0515740974555359
 40
0.0550877849652446
 40
0.0585875368531056
 40
0.0620746092049999
 40
0.0655514898261394
 40
0.0690202682313091
 40
0.0724833252251842
 40
0.0759416502818264
 40
0.0793946843771313
 40
0.0828420737710452
 40
0.0862843243328313
 40
0.0897216669320462
 40
0.0931529019703439
 40
0.0965769584370932
 40
0.0999940358720369
 40
0.1034048368658714
 40
0.1068089751991919
 40
0.1102061195621734
 40
0.1135971648552942
 40
0.1169847823094488
 40
0.12037148480944
 40
0.1237587347602637
 40
0.1271475512013324
 40
0.1305395611078384
 40
0.1339361976439717
 40
0.1373386530000112
 40
0.1407475239572199
 40
0.1441659609576607
 40
0.1475951651765752
 40
0.151035715417738
 40
0.1544894620329135
 40
0.15795827144592
 40
0.1614443625039154
 40
0.1649486914684818
 40
0.1684717007480347
 40
0.1720150699029063
 40
0.1755807400986105
 40
0.1755807400986105
 40
0.1755807400986105
 40
0.1755807400986105
 10
102.9475427587424
 20
-14.69095744279991
 30
0.0
 10
102.9488282651213
 20
-14.6908006567105
 30
0.0
 10
102.951386592676
 20
-14.69048742803902
 30
0.0
 10
102.9552052719918
 20
-14.69001633118739
 30
0.0
 10
102.95898735226
 20
-14.68954627824144
 30
0.0
 10
102.9627346044281
 20
-14.68907716412076
 30
0.0
 10
102.9664489233
 20
-14.68860885969721
 30
0.0
 10
102.9701322621996
 20
-14.68814121994876
 30
0.0
 10
102.9737865140798
 20
-14.6876740993402
 30
0.0
 10
102.9774134094612
 20
-14.68720736522375
 30
0.0
 10
102.9810145717415
 20
-14.68674089176697
 30
0.0
 10
102.9845916036348
 20
-14.68627454942127
 30
0.0
 10
102.9881462380133
 20
-14.6858081850215
 30
0.0
 10
102.9916803374094
 20
-14.68534162161188
 30
0.0
 10
102.9951956079992
 20
-14.68487469618628
 30
0.0
 10
102.9986938559809
 20
-14.68440722610508
 30
0.0
 10
103.0021765825038
 20
-14.68393906342354
 30
0.0
 10
103.0056451902993
 20
-14.68347006823258
 30
0.0
 10
103.0091012806813
 20
-14.68300006892936
 30
0.0
 10
103.0125467837549
 20
-14.68252884335425
 30
0.0
 10
103.0159840002274
 20
-14.68205611182945
 30
0.0
 10
103.0194147351539
 20
-14.68158165599226
 30
0.0
 10
103.0228399184549
 20
-14.68110537360232
 30
0.0
 10
103.0262595770343
 20
-14.68062728625544
 30
0.0
 10
103.0296735782287
 20
-14.68014743811569
 30
0.0
 10
103.0330820501448
 20
-14.67966583659891
 30
0.0
 10
103.0364848416861
 20
-14.6791825280836
 30
0.0
 10
103.0398812815281
 20
-14.67869763376821
 30
0.0
 10
103.0432706883535
 20
-14.67821127842128
 30
0.0
 10
103.0466530086912
 20
-14.67772349788132
 30
0.0
 10
103.0500284149666
 20
-14.67723429485605
 30
0.0
 10
103.0533969044548
 20
-14.67674369690428
 30
0.0
 10
103.056758537918
 20
-14.67625172237515
 30
0.0
 10
103.0601143843969
 20
-14.67575824084568
 30
0.0
 10
103.0634664503377
 20
-14.67526297976002
 30
0.0
 10
103.0668169284638
 20
-14.67476563284431
 30
0.0
 10
103.0701674659594
 20
-14.67426596923475
 30
0.0
 10
103.0735194173726
 20
-14.67376379766882
 30
0.0
 10
103.0768741271001
 20
-14.67325892476616
 30
0.0
 10
103.0802329960788
 20
-14.67275114487978
 30
0.0
 10
103.0835970852154
 20
-14.67224030035099
 30
0.0
 10
103.0869680209168
 20
-14.6717261446246
 30
0.0
 10
103.0903474319026
 20
-14.67120842638324
 30
0.0
 10
103.0937369402888
 20
-14.67068689075663
 30
0.0
 10
103.0971377393605
 20
-14.67016134547177
 30
0.0
 10
103.1005512410713
 20
-14.66963156131147
 30
0.0
 10
103.1039793969469
 20
-14.66909722111259
 30
0.0
 10
103.1074238632932
 20
-14.6685580489042
 30
0.0
 10
103.11088582686
 20
-14.6680138384192
 30
0.0
 10
103.1143662964262
 20
-14.66746440890725
 30
0.0
 10
103.1178666046037
 20
-14.66690952583158
 30
0.0
 10
103.1202068188767
 20
-14.66653699347125
 30
0.0
 10
103.1213805362424
 20
-14.66634976459994
 30
0.0
 11
102.9475427587424
 21
-14.69095744279991
 31
0.0
 11
102.9513990644423
 21
-14.69048530429995
 31
0.0
 11
102.9552173260424
 21
-14.69001426359995
 31
0.0
 11
102.9589988403424
 21
-14.6895442829
 31
0.0
 11
102.9627453647424
 21
-14.68907525979996
 31
0.0
 11
102.9664591548423
 21
-14.68860702039996
 31
0.0
 11
102.9701418793424
 21
-14.68813945609993
 31
0.0
 11
102.9737954715422
 21
-14.68767241669997
 31
0.0
 11
102.9774220060424
 21
-14.68720572559995
 31
0.0
 11
102.9810226646423
 21
-14.6867393139999
 31
0.0
 11
102.9845990594424
 21
-14.68627305169997
 31
0.0
 11
102.9881532029424
 21
-14.68580674899994
 31
0.0
 11
102.9916866677424
 21
-14.68534026729993
 31
0.0
 11
102.9952014550422
 21
-14.6848734045999
 31
0.0
 11
102.9986991084422
 21
-14.68440601320003
 31
0.0
 11
103.0021815007424
 21
-14.68393789549992
 31
0.0
 11
103.0056497181424
 21
-14.68346895379996
 31
0.0
 11
103.0091050091423
 21
-14.68299906469997
 31
0.0
 11
103.0125498420423
 21
-14.68252793290004
 31
0.0
 11
103.0159862896423
 21
-14.68205530989991
 31
0.0
 11
103.0194167124423
 21
-14.68158090049996
 31
0.0
 11
103.0228420920423
 21
-14.68110459459996
 31
0.0
 11
103.0262618761423
 21
-14.68062649369995
 31
0.0
 11
103.0296757160424
 21
-14.68014667239994
 31
0.0
 11
103.0330841143425
 21
-14.67966508549996
 31
0.0
 11
103.0364873012424
 21
-14.67918172499993
 31
0.0
 11
103.0398840908421
 21
-14.67869678459993
 31
0.0
 11
103.0432734251424
 21
-14.67821044349996
 31
0.0
 11
103.0466555040423
 21
-14.67772270149994
 31
0.0
 11
103.0500310252423
 21
-14.67723348539994
 31
0.0
 11
103.0533996088424
 21
-14.67674287729994
 31
0.0
 11
103.0567609294421
 21
-14.67625095199994
 31
0.0
 11
103.0601158749423
 21
-14.67575760639995
 31
0.0
 11
103.0634670900422
 21
-14.67526247429998
 31
0.0
 11
103.0668170618423
 21
-14.67476520579993
 31
0.0
 11
103.0701672375423
 21
-14.67426559939992
 31
0.0
 11
103.0735186253423
 21
-14.67376351539997
 31
0.0
 11
103.0768728342423
 21
-14.67325872089998
 31
0.0
 11
103.0802312810422
 21
-14.67275100789993
 31
0.0
 11
103.0835951437425
 21
-14.67224020059997
 31
0.0
 11
103.0869650114421
 21
-14.67172621069994
 31
0.0
 11
103.0903439970423
 21
-14.67120856040003
 31
0.0
 11
103.0937332858423
 21
-14.67068706140004
 31
0.0
 11
103.0971334476423
 21
-14.67016161739998
 31
0.0
 11
103.1005463085424
 21
-14.66963193559996
 31
0.0
 11
103.1039737098422
 21
-14.66909771609995
 31
0.0
 11
103.1074178403426
 21
-14.66855859989995
 31
0.0
 11
103.1108796408423
 21
-14.66801441909996
 31
0.0
 11
103.1143595442424
 21
-14.66746508359996
 31
0.0
 11
103.1178592052424
 21
-14.66691030879998
 31
0.0
 11
103.1213805362424
 21
-14.66634976459994
 31
0.0
  0
SPLINE
  5
565DE
330
1F
100
AcDbEntity
  8
1
100
AcDbSpline
210
0.0
220
0.0
230
1.0
 70
     8
 71
     3
 72
    22
 73
    18
 74
    16
 42
0.0000000001
 43
0.0000000001
 44
0.000001
 12
-0.9994697870301607
 22
0.0325598650778102
 32
0.0
 13
-0.999449354199455
 23
0.0331811451021839
 33
0.0
 40
0.0
 40
0.0
 40
0.0
 40
0.0
 40
0.1496746163749449
 40
0.2994911257937015
 40
0.4494455195654062
 40
0.5995337340200929
 40
0.7497515829495815
 40
0.900094797574899
 40
1.050559032977312
 40
1.201139817686575
 40
1.351832583326637
 40
1.502632662165122
 40
1.653535338527558
 40
1.804535777460838
 40
1.955629019690763
 40
2.106810045804536
 40
2.258073696211512
 40
2.258073696211512
 40
2.258073696211512
 40
2.258073696211512
 10
94.99254893154239
 20
-14.63882501879965
 30
0.0
 10
94.94268384589167
 20
-14.63720055702806
 30
0.0
 10
94.84290673893111
 20
-14.63393974510687
 30
0.0
 10
94.69317235917641
 20
-14.6290202092982
 30
0.0
 10
94.54330099911635
 20
-14.62407151392416
 30
0.0
 10
94.39329662870022
 20
-14.61909735751237
 30
0.0
 10
94.24316331777459
 20
-14.61410099079103
 30
0.0
 10
94.09290522358867
 20
-14.60908582509536
 30
0.0
 10
93.94252659802146
 20
-14.60405525749547
 30
0.0
 10
93.79203178958324
 20
-14.59901276169364
 30
0.0
 10
93.64142523001692
 20
-14.59396252339621
 30
0.0
 10
93.49071148705707
 20
-14.58890709261926
 30
0.0
 10
93.33989517636496
 20
-14.58385023948327
 30
0.0
 10
93.18898103464858
 20
-14.57879502739715
 30
0.0
 10
93.03797387298073
 20
-14.57374533287644
 30
0.0
 10
92.88687861306925
 20
-14.56870498324638
 30
0.0
 10
92.78611944121337
 20
-14.56535359241053
 30
0.0
 10
92.73572598864234
 20
-14.56368055869958
 30
0.0
 11
94.99254893154239
 21
-14.63882501879965
 31
0.0
 11
94.84295411704238
 21
-14.63393789379968
 31
0.0
 11
94.69321838674227
 21
-14.62901861779967
 31
0.0
 11
94.54334564864234
 21
-14.62407048179966
 31
0.0
 11
94.39333986184237
 21
-14.61909680619972
 31
0.0
 11
94.24320510584243
 21
-14.61410094369967
 31
0.0
 11
94.09294554024269
 21
-14.60908627659968
 31
0.0
 11
93.94256539774232
 21
-14.60405621649966
 31
0.0
 11
93.79206903874251
 21
-14.59901420579967
 31
0.0
 11
93.64146093944214
 21
-14.59396371619965
 31
0.0
 11
93.49074563534214
 21
-14.58890824669964
 31
0.0
 11
93.3399277249423
 21
-14.58385132329961
 31
0.0
 11
93.18901192694239
 21
-14.57879649929964
 31
0.0
 11
93.03800307894221
 21
-14.57374735569959
 31
0.0
 11
92.88690608494221
 21
-14.56870749819961
 31
0.0
 11
92.73572598864234
 21
-14.56368055869958
 31
0.0
  0
SPLINE
  5
565DF
330
1F
100
AcDbEntity
  8
1
100
AcDbSpline
210
0.0
220
0.0
230
1.0
 70
     8
 71
     3
 72
    22
 73
    18
 74
    16
 42
0.0000000001
 43
0.0000000001
 44
0.000001
 12
-0.999641037256743
 22
0.0267917269369339
 32
0.0
 13
-0.9995746229738797
 23
0.0291645865156063
 33
0.0
 40
0.0
 40
0.0
 40
0.0
 40
0.0
 40
1.30036991103644
 40
1.45019310241505
 40
1.600154686636997
 40
1.75025135208794
 40
1.900479816618709
 40
2.050835865782809
 40
2.201314834668207
 40
2.35191206907571
 40
2.502623082892262
 40
2.653443354801819
 40
2.804368192554968
 40
2.955392720171037
 40
3.106511961884083
 40
3.257720912329701
 40
3.409014459012538
 40
3.409014459012538
 40
3.409014459012538
 40
3.409014459012538
 10
98.40045825174229
 20
-14.72433086399979
 30
0.0
 10
97.96715720951363
 20
-14.71271781214196
 30
0.0
 10
97.48369929740148
 20
-14.70982424523987
 30
0.0
 10
96.95052358753413
 20
-14.69480691920554
 30
0.0
 10
96.80061911455574
 20
-14.69071455301885
 30
0.0
 10
96.65058173379225
 20
-14.68653371494412
 30
0.0
 10
96.50041362146863
 20
-14.68232610574807
 30
0.0
 10
96.3501191094474
 20
-14.67807934313262
 30
0.0
 10
96.1997025246776
 20
-14.67380100916918
 30
0.0
 10
96.04916840342424
 20
-14.66949343098396
 30
0.0
 10
95.89852119882754
 20
-14.66516038610389
 30
0.0
 10
95.74776538399238
 20
-14.6608052709424
 30
0.0
 10
95.59690555675581
 20
-14.65643164118503
 30
0.0
 10
95.44594646858696
 20
-14.652042939479
 30
0.0
 10
95.29489296045813
 20
-14.6476430931767
 30
0.0
 10
95.14374999940764
 20
-14.64323439097687
 30
0.0
 10
95.0429586615037
 20
-14.64029582337682
 30
0.0
 10
94.99254893154239
 20
-14.63882501879965
 30
0.0
 11
98.40045825174229
 21
-14.72433086399979
 31
0.0
 11
97.10033677604247
 21
-14.69891307319977
 31
0.0
 11
96.95056921004221
 21
-14.69483081059979
 31
0.0
 11
96.8006644562422
 21
-14.69070266959977
 31
0.0
 11
96.65062574364242
 21
-14.68653209199976
 31
0.0
 11
96.50045627324221
 21
-14.68232237339975
 31
0.0
 11
96.35016017604243
 21
-14.67807682259973
 31
0.0
 11
96.19974202954246
 21
-14.67379882139971
 31
0.0
 11
96.04920639674219
 21
-14.66949181759976
 31
0.0
 11
95.89855767014228
 21
-14.66515928119969
 31
0.0
 11
95.7478002755422
 21
-14.66080469699973
 31
0.0
 11
95.59693880774238
 21
-14.65643157519975
 31
0.0
 11
95.44597804334239
 21
-14.65204345919971
 31
0.0
 11
95.29492285704236
 21
-14.64764392359973
 31
0.0
 11
95.1437781518423
 21
-14.64323656829971
 31
0.0
 11
94.99254893154239
 21
-14.63882501879965
 31
0.0
  0
SPLINE
  5
565E0
330
1F
100
AcDbEntity
  8
1
100
AcDbSpline
210
0.0
220
0.0
230
1.0
 70
     8
 71
     3
 72
    27
 73
    23
 74
    21
 42
0.0000000001
 43
0.0000000001
 44
0.000001
 12
-0.0012068872270195
 22
-0.9999992717113455
 32
0.0
 13
-0.0008370782836669
 23
-0.9999996496499122
 33
0.0
 40
0.0
 40
0.0
 40
0.0
 40
0.0
 40
0.0128028250483021
 40
0.0255694319224814
 40
0.0382661630896317
 40
0.050936018692656
 40
0.0636369177091543
 40
0.0762909126566047
 40
0.088842749376054
 40
0.1016022169125758
 40
0.1151538403644821
 40
0.1300671392670156
 40
0.146768458366407
 40
0.1653265984379897
 40
0.1857071554781103
 40
0.2079923173059373
 40
0.2324548404674981
 40
0.2593841730324605
 40
0.2890672733900865
 40
0.3217907951135215
 40
0.3578414209052212
 40
0.3975061159376868
 40
0.3975061159376868
 40
0.3975061159376868
 40
0.3975061159376868
 10
104.7758404756425
 20
-12.14994280100001
 30
0.0
 10
104.7758353251206
 20
-12.15421040624139
 30
0.0
 10
104.775820831954
 20
-12.16273354287546
 30
0.0
 10
104.7757741808925
 20
-12.17548884945735
 30
0.0
 10
104.7757220312808
 20
-12.18819980605335
 30
0.0
 10
104.7756751122889
 20
-12.20088888250302
 30
0.0
 10
104.7756385526253
 20
-12.21356374726633
 30
0.0
 10
104.7756076433796
 20
-12.22619928648932
 30
0.0
 10
104.775579718514
 20
-12.23885435545055
 30
0.0
 10
104.7755506476921
 20
-12.25180863207863
 30
0.0
 10
104.775518008163
 20
-12.26555005664051
 30
0.0
 10
104.7754817664773
 20
-12.28060542682469
 30
0.0
 10
104.775442377937
 20
-12.29732963317639
 30
0.0
 10
104.775401896675
 20
-12.31587626116448
 30
0.0
 10
104.7753603649943
 20
-12.3362841719351
 30
0.0
 10
104.7753172802821
 20
-12.35866021116817
 30
0.0
 10
104.7752724985633
 20
-12.38321917624714
 30
0.0
 10
104.7752270172163
 20
-12.41024412345135
 30
0.0
 10
104.7751817801148
 20
-12.44002274076043
 30
0.0
 10
104.7751373430948
 20
-12.47284179352185
 30
0.0
 10
104.7750958656916
 20
-12.50898805070133
 30
0.0
 10
104.7750705170273
 20
-12.53422647852145
 30
0.0
 10
104.7750594495423
 20
-12.54744803890008
 30
0.0
 11
104.7758404756425
 21
-12.14994280100001
 31
0.0
 11
104.7758156298425
 21
-12.1627456023
 31
0.0
 11
104.7757721455425
 21
-12.17551213450002
 31
0.0
 11
104.7757218527424
 21
-12.18820876580003
 31
0.0
 11
104.7756758655425
 21
-12.20087853790001
 31
0.0
 11
104.7756384368424
 21
-12.2135793818
 31
0.0
 11
104.7756070674425
 21
-12.2262333379
 31
0.0
 11
104.7755787934425
 21
-12.23878514280001
 31
0.0
 11
104.7755499697425
 21
-12.25154457780003
 31
0.0
 11
104.7755180175425
 21
-12.26509616359999
 31
0.0
 11
104.7754823232424
 21
-12.28000941979997
 31
0.0
 11
104.7754432905424
 21
-12.29671069329998
 31
0.0
 11
104.7754026577424
 21
-12.31526878890004
 31
0.0
 11
104.7753610126424
 21
-12.33564930340003
 31
0.0
 11
104.7753180391425
 21
-12.35793442380004
 31
0.0
 11
104.7752735432425
 21
-12.3823969065
 31
0.0
 11
104.7752282615424
 21
-12.40932620100001
 31
0.0
 11
104.7751830967424
 21
-12.43900926700002
 31
0.0
 11
104.7751389165425
 21
-12.47173275890004
 31
0.0
 11
104.7750970669424
 21
-12.50778336039998
 31
0.0
 11
104.7750594495423
 21
-12.54744803890008
 31
0.0
  0
SPLINE
  5
565E1
330
1F
100
AcDbEntity
  8
1
100
AcDbSpline
210
0.0
220
0.0
230
1.0
 70
     8
 71
     3
 72
    26
 73
    22
 74
    20
 42
0.0000000001
 43
0.0000000001
 44
0.000001
 12
0.047428030470533
 22
-0.9988746577652706
 32
0.0
 13
0.0054010698384173
 23
-0.9999854141159262
 33
0.0
 40
0.0
 40
0.0
 40
0.0
 40
0.0
 40
0.0712510218151882
 40
0.1337412363680501
 40
0.1917845120612367
 40
0.2493622583131265
 40
0.3081201732314751
 40
0.3673274029490544
 40
0.4256818205127443
 40
0.4823690350031705
 40
0.5421213185202785
 40
0.6110974070338032
 40
0.6846884965363894
 40
0.7563149621365088
 40
0.8245639841558862
 40
0.8883500864064892
 40
0.9466145256250271
 40
0.9983386709932585
 40
1.044226232807552
 40
1.086827223070629
 40
1.129017547372568
 40
1.129017547372568
 40
1.129017547372568
 40
1.129017547372568
 10
104.7218339009425
 20
-11.0223182656
 30
0.0
 10
104.7229603328204
 20
-11.04604187894369
 30
0.0
 10
104.7251081694826
 20
-11.09057053626773
 30
0.0
 10
104.728263023353
 20
-11.15442082991231
 30
0.0
 10
104.7312817984768
 20
-11.21371447017307
 30
0.0
 10
104.7343326845655
 20
-11.27176069032808
 30
0.0
 10
104.7375151864535
 20
-11.33018841886505
 30
0.0
 10
104.7408428114449
 20
-11.38886738677151
 30
0.0
 10
104.7442665942186
 20
-11.44684937786924
 30
0.0
 10
104.7477749596477
 20
-11.50500829699679
 30
0.0
 10
104.7515210204567
 20
-11.56669986100804
 30
0.0
 10
104.7555657192855
 20
-11.63401829690474
 30
0.0
 10
104.7597006151235
 20
-11.70529643935407
 30
0.0
 10
104.7635684809574
 20
-11.7763469720636
 30
0.0
 10
104.7669357972693
 20
-11.84415091629866
 30
0.0
 10
104.7697248145717
 20
-11.90752314520472
 30
0.0
 10
104.771913207139
 20
-11.96540706274415
 30
0.0
 10
104.7735533147264
 20
-12.01734023830643
 30
0.0
 10
104.7747214476903
 20
-12.06406354855302
 30
0.0
 10
104.7755014324646
 20
-12.10761662095755
 30
0.0
 10
104.7757645180131
 20
-12.13587956469375
 30
0.0
 10
104.7758404756425
 20
-12.14994280100001
 30
0.0
 11
104.7218339009425
 21
-11.0223182656
 31
0.0
 11
104.7252626826423
 21
-11.0934867185
 31
0.0
 11
104.7283513367424
 21
-11.1559005557
 31
0.0
 11
104.7313046250424
 21
-11.21386864890002
 31
0.0
 11
104.7343290970423
 21
-11.27136690340001
 31
0.0
 11
104.7375277924425
 21
-11.33003768550003
 31
0.0
 11
104.7408810490426
 21
-11.3891498785
 31
0.0
 11
104.7443108627424
 21
-11.44740341
 31
0.0
 11
104.7477160864425
 21
-11.50398825040003
 31
0.0
 11
104.7513277880425
 21
-11.56363127399999
 31
0.0
 11
104.7554495258425
 21
-11.63248409520003
 31
0.0
 11
104.7596933422426
 21
-11.7059527088
 31
0.0
 11
104.7635705279424
 21
-11.7774741517
 31
0.0
 11
104.7669423368424
 21
-11.84563982420003
 31
0.0
 11
104.7697359797425
 21
-11.90936471470003
 31
0.0
 11
104.7719306384426
 21
-11.9675878017
 31
0.0
 11
104.7735536832424
 21
-12.01928647170001
 31
0.0
 11
104.7746916134424
 21
-12.06515991489999
 31
0.0
 11
104.7754415436425
 21
-12.10775428540002
 31
0.0
 11
104.7758404756425
 21
-12.14994280100001
 31
0.0
  0
SPLINE
  5
565E2
330
1F
100
AcDbEntity
  8
1
100
AcDbSpline
210
0.0
220
0.0
230
1.0
 70
     8
 71
     3
 72
    17
 73
    13
 74
    11
 42
0.0000000001
 43
0.0000000001
 44
0.000001
 12
0.0494397151443355
 22
-0.9987771095527003
 32
0.0
 13
0.0536597442991858
 23
-0.9985592780810492
 33
0.0
 40
0.0
 40
0.0
 40
0.0
 40
0.0
 40
0.1112158670472341
 40
0.2221456327887519
 40
0.3328873314186304
 40
0.443527127316736
 40
0.5541287957636355
 40
0.6646577342116677
 40
0.7751066788727736
 40
0.8856017900237404
 40
0.9963074518808054
 40
1.107407050218779
 40
1.107407050218779
 40
1.107407050218779
 40
1.107407050218779
 10
104.6641191842425
 20
-9.916416809300031
 30
0.0
 10
104.6659520111713
 20
-9.953443430041971
 30
0.0
 10
104.6696423226456
 20
-10.02739997034072
 30
0.0
 10
104.675262960216
 20
-10.13821998409395
 30
0.0
 10
104.680973812319
 20
-10.24884310582646
 30
0.0
 10
104.6867572772927
 20
-10.35935293246368
 30
0.0
 10
104.6925877288423
 20
-10.46978926741512
 30
0.0
 10
104.6984390189918
 20
-10.58016079165503
 30
0.0
 10
104.7042874158011
 20
-10.69049690140852
 30
0.0
 10
104.7101063275152
 20
-10.80089355937029
 30
0.0
 10
104.7158998982048
 20
-10.91150873961327
 30
0.0
 10
104.7198467089297
 20
-10.98533842069618
 30
0.0
 10
104.7218339009425
 20
-11.0223182656
 30
0.0
 11
104.6641191842425
 21
-9.916416809300031
 31
0.0
 11
104.6696632403425
 21
-10.02749441369998
 31
0.0
 11
104.6752838295426
 21
-10.13828169189997
 31
0.0
 11
104.6809896197426
 21
-10.24887629939996
 31
0.0
 11
104.6867673943425
 21
-10.35936512900002
 31
0.0
 11
104.6925940418425
 21
-10.4698132121
 31
0.0
 11
104.6984412603426
 21
-10.58018737640003
 31
0.0
 11
104.7042821721425
 21
-10.69048176900008
 31
0.0
 11
104.7100975266425
 21
-10.8008237428
 31
0.0
 11
104.7159138813424
 21
-10.91137650640003
 31
0.0
 11
104.7218339009425
 21
-11.0223182656
 31
0.0
  0
SPLINE
  5
565E3
330
1F
100
AcDbEntity
  8
1
100
AcDbSpline
210
0.0
220
0.0
230
1.0
 70
     8
 71
     3
 72
    17
 73
    13
 74
    11
 42
0.0000000001
 43
0.0000000001
 44
0.000001
 12
0.0497034067628443
 22
-0.9987640218570987
 32
0.0
 13
0.0558862043195374
 23
-0.9984371448252288
 33
0.0
 40
0.0
 40
0.0
 40
0.0
 40
0.0
 40
0.1098064247759514
 40
0.218743480745869
 40
0.3276465117498855
 40
0.4370539147692769
 40
0.5472414005750351
 40
0.658298517878261
 40
0.7698356931093225
 40
0.8814999519242196
 40
0.9930466763151251
 40
1.104229103198613
 40
1.104229103198613
 40
1.104229103198613
 40
1.104229103198613
 10
104.6058374604426
 20
-8.81372849909998
 30
0.0
 10
104.6076567115747
 20
-8.850285401244974
 30
0.0
 10
104.6113028134368
 20
-8.923108681830598
 30
0.0
 10
104.6168372798181
 20
-9.032183874282736
 30
0.0
 10
104.6224331848223
 20
-9.141122749048292
 30
0.0
 10
104.6281173687741
 20
-9.250474427814395
 30
0.0
 10
104.6339039835355
 20
-9.360539760659335
 30
0.0
 10
104.6397917968602
 20
-9.471310658658666
 30
0.0
 10
104.6457670822398
 20
-9.582569842572894
 30
0.0
 10
104.6518135320448
 20
-9.693988625157459
 30
0.0
 10
104.6579230250829
 20
-9.805285544002259
 30
0.0
 10
104.6620479963006
 20
-9.879413921015938
 30
0.0
 10
104.6641191842425
 20
-9.916416809300031
 30
0.0
 11
104.6058374604426
 21
-8.81372849909998
 31
0.0
 11
104.6113306054424
 21
-8.923397437199994
 31
0.0
 11
104.6168502029425
 21
-9.03219456980004
 31
0.0
 11
104.6224366218424
 21
-9.140954222199994
 31
0.0
 11
104.6281156106427
 21
-9.250214136299987
 31
0.0
 11
104.6339003047426
 21
-9.360249672600005
 31
0.0
 11
104.6397944706425
 21
-9.471150267800013
 31
0.0
 11
104.6457762008424
 21
-9.582526927199992
 31
0.0
 11
104.6518282555426
 21
-9.694027058200006
 31
0.0
 11
104.6579446314424
 21
-9.80540596779997
 31
0.0
 11
104.6641191842425
 21
-9.916416809300031
 31
0.0
  0
SPLINE
  5
565E4
330
1F
100
AcDbEntity
  8
1
100
AcDbSpline
210
0.0
220
0.0
230
1.0
 70
     8
 71
     3
 72
    17
 73
    13
 74
    11
 42
0.0000000001
 43
0.0000000001
 44
0.000001
 12
0.0497871496459523
 22
-0.9987598508801461
 32
0.0
 13
0.0561593913656676
 23
-0.9984218160484264
 33
0.0
 40
0.0
 40
0.0
 40
0.0
 40
0.0
 40
0.0923941941802825
 40
0.1884209952034111
 40
0.2890132954962394
 40
0.3951574903207668
 40
0.5082433210660234
 40
0.6280817733001429
 40
0.7497019467951102
 40
0.8696191932441285
 40
0.9867311055903117
 40
1.100201406439053
 40
1.100201406439053
 40
1.100201406439053
 40
1.100201406439053
 10
104.5473837665427
 20
-7.71508275790002
 30
0.0
 10
104.5489171143999
 20
-7.745842628433919
 30
0.0
 10
104.5520627724958
 20
-7.808570808332035
 30
0.0
 10
104.5569553504975
 20
-7.904784264058577
 30
0.0
 10
104.5621453409321
 20
-8.005571830466536
 30
0.0
 10
104.5676967045133
 20
-8.112034643764573
 30
0.0
 10
104.5736539618099
 20
-8.224900369176168
 30
0.0
 10
104.579956735477
 20
-8.342913674640229
 30
0.0
 10
104.5864520489326
 20
-8.463197060033991
 30
0.0
 10
104.5929731741628
 20
-8.582568857766986
 30
0.0
 10
104.5994198040912
 20
-8.699224027400219
 30
0.0
 10
104.6037133194314
 20
-8.775964757819664
 30
0.0
 10
104.6058374604426
 20
-8.81372849909998
 30
0.0
 11
104.5473837665427
 21
-7.71508275790002
 31
0.0
 11
104.5520137146425
 21
-7.807360878999986
 31
0.0
 11
104.5568890756424
 21
-7.9032638348
 31
0.0
 11
104.5620617202426
 21
-8.003723052400019
 31
0.0
 11
104.5675880992426
 21
-8.109723283700034
 31
0.0
 11
104.5735477197427
 21
-8.222651968500045
 31
0.0
 11
104.5799377618425
 21
-8.34231993340002
 31
0.0
 11
104.5864964308427
 21
-8.463763131400028
 31
0.0
 11
104.5930379356425
 21
-8.583501824500004
 31
0.0
 11
104.5995013212425
 21
-8.700435244100006
 31
0.0
 11
104.6058374604426
 21
-8.81372849909998
 31
0.0
  0
ARC
  5
565E5
330
1F
100
AcDbEntity
  8
1
100
AcDbCircle
 10
238.2736185978426
 20
0.1822069999953157
 30
0.0
 40
133.9382325
100
AcDbArc
 50
176.7759029999951
 51
177.0156969999998
  0
ARC
  5
565E6
330
1F
100
AcDbEntity
  8
1
100
AcDbCircle
 10
238.2736185978426
 20
-0.1822070000046949
 30
0.0
 40
133.9382325
100
AcDbArc
 50
182.9843029999904
 51
183.2240969999982
  0
ARC
  5
565E7
330
1F
100
AcDbEntity
  8
1
100
AcDbCircle
 10
107.5844535978428
 20
2.038863499999862
 30
0.0
 40
4.1964015
100
AcDbArc
 50
214.4335379999953
 51
214.9066400000032
  0
ARC
  5
565E8
330
1F
100
AcDbEntity
  8
1
100
AcDbCircle
 10
90.88499959784234
 20
-17.06499999999951
 30
0.0
 40
3.0
100
AcDbArc
 50
56.76283999999499
 51
90.0
  0
ARC
  5
565E9
330
1F
100
AcDbEntity
  8
1
100
AcDbCircle
 10
102.7502025978424
 20
-11.97034749999994
 30
0.0
 40
2.7277575
100
AcDbArc
 50
273.2982669999983
 51
274.1486999999994
  0
ARC
  5
565EA
330
1F
100
AcDbEntity
  8
1
100
AcDbCircle
 10
102.7186600978423
 20
-12.58464349999998
 30
0.0
 40
2.058708999999999
100
AcDbArc
 50
327.7622470000014
 51
336.1692730000025
  0
ARC
  5
565EB
330
1F
100
AcDbEntity
  8
1
100
AcDbCircle
 10
102.7278950978425
 20
-12.58966799999997
 30
0.0
 40
2.048230999999999
100
AcDbArc
 50
336.1934619999969
 51
344.5762729999962
  0
ARC
  5
565EC
330
1F
100
AcDbEntity
  8
1
100
AcDbCircle
 10
102.7361540978424
 20
-12.59366649999992
 30
0.0
 40
2.039206999999999
100
AcDbArc
 50
344.6228689999981
 51
353.2128599999992
  0
ARC
  5
565ED
330
1F
100
AcDbEntity
  8
1
100
AcDbCircle
 10
102.7417055978424
 20
-12.59694499999995
 30
0.0
 40
2.033308499999999
100
AcDbArc
 50
353.2860969999974
 51
356.023226999992
  0
ARC
  5
565EE
330
1F
100
AcDbEntity
  8
1
100
AcDbCircle
 10
90.88499959784348
 20
17.06500000000044
 30
0.0
 40
3.0
100
AcDbArc
 50
270.0
 51
303.237159999997
  0
LINE
  5
565EF
330
1F
100
AcDbEntity
  8
1
100
AcDbLine
 10
82.27499999999997
 20
-14.06499999999924
 30
0.0
 11
90.8362105978424
 21
-14.06499999999954
 31
0.0
  0
LINE
  5
565F0
330
1F
100
AcDbEntity
  8
1
100
AcDbLine
 10
90.8362105978424
 20
-14.06499999999954
 30
0.0
 11
90.88499959784234
 21
-14.06499999999954
 31
0.0
  0
LINE
  5
565F1
330
1F
100
AcDbEntity
  8
1
100
AcDbLine
 10
83.92874909784245
 20
-14.06499999999931
 30
0.0
 11
83.92874909784245
 21
-13.62492130669997
 31
0.0
  0
LINE
  5
565F2
330
1F
100
AcDbEntity
  8
1
100
AcDbLine
 10
83.92874909784314
 20
12.34353622030258
 30
0.0
 11
83.92874909784337
 21
14.06500000000068
 31
0.0
  0
LINE
  5
565F3
330
1F
100
AcDbEntity
  8
1
100
AcDbLine
 10
82.27499999999986
 20
-14.06500000110006
 30
0.0
 11
82.27499999999986
 21
-13.62492130780077
 31
0.0
  0
LINE
  5
565F4
330
1F
100
AcDbEntity
  8
1
100
AcDbLine
 10
82.27499999999986
 20
12.83368785878377
 30
0.0
 11
82.27499999999986
 21
14.06500000000072
 31
0.0
  0
LINE
  5
565F5
330
1F
100
AcDbEntity
  8
1
100
AcDbLine
 10
90.88499959784348
 20
14.06500000000044
 30
0.0
 11
82.27499999999986
 21
14.06500000000072
 31
0.0
  0
LINE
  5
565F6
330
1F
100
AcDbEntity
  8
1
100
AcDbLine
 10
104.1233220969113
 20
0.3252948861678391
 30
0.0
 11
104.1430455978429
 21
0.3624889999999681
 31
0.0
  0
LINE
  5
565F7
330
1F
100
AcDbEntity
  8
1
100
AcDbLine
 10
104.4949035978431
 20
6.744978999999986
 30
0.0
 11
104.517028097843
 21
7.155348499999988
 31
0.0
  0
LINE
  5
565F8
330
1F
100
AcDbEntity
  8
1
100
AcDbLine
 10
104.7750595978434
 20
12.54744799999994
 30
0.0
 11
104.7749655021487
 21
12.69854624444609
 31
0.0
  0
LINE
  5
565F9
330
1F
100
AcDbEntity
  8
1
100
AcDbLine
 10
92.73572609784332
 20
14.56368050000034
 30
0.0
 11
92.5293170978432
 21
14.55577300000037
 31
0.0
  0
LINE
  5
565FA
330
1F
100
AcDbEntity
  8
1
100
AcDbLine
 10
104.1231225978429
 20
0.0867954999999796
 30
0.0
 11
104.1231225978429
 21
-0.086795500000008
 31
0.0
  0
LINE
  5
565FB
330
1F
100
AcDbEntity
  8
1
100
AcDbLine
 10
104.1231225978429
 20
-0.086795500000008
 30
0.0
 11
104.1233345978428
 21
-0.3339910000000401
 31
0.0
  0
LINE
  5
565FC
330
1F
100
AcDbEntity
  8
1
100
AcDbLine
 10
104.1233220978426
 20
0.3252959999999661
 30
0.0
 11
104.1231225978429
 21
0.0867954999999796
 31
0.0
  0
LINE
  5
565FD
330
1F
100
AcDbEntity
  8
1
100
AcDbLine
 10
102.8571985978421
 20
-14.69586199999993
 30
0.0
 11
102.9071410978424
 21
-14.69358649999992
 31
0.0
  0
LINE
  5
565FE
330
1F
100
AcDbEntity
  8
1
100
AcDbLine
 10
102.6300045978425
 20
-14.70159749999993
 30
0.0
 11
102.8571985978421
 21
-14.69586199999993
 31
0.0
  0
LINE
  5
565FF
330
1F
100
AcDbEntity
  8
1
100
AcDbLine
 10
102.6300045978435
 20
14.70159750000002
 30
0.0
 11
102.8254396985579
 21
14.69666375166098
 31
0.0
  0
ARC
  5
56600
102
{ACAD_REACTORS
330
56607
102
}
330
1F
100
AcDbEntity
  8
1
100
AcDbCircle
 10
102.7749658899599
 20
12.69730075444271
 30
0.0
 40
2.0
100
AcDbArc
 50
0.0356806626160605
 51
88.55387836185082
  0
LINE
  5
56601
330
1F
100
AcDbEntity
  8
1
100
AcDbLine
 10
104.4949035978427
 20
-6.744979000000014
 30
0.0
 11
104.5170280978425
 21
-7.155348500000016
 31
0.0
  0
LINE
  5
56602
330
1F
100
AcDbEntity
  8
1
100
AcDbLine
 10
92.73572609784219
 20
-14.56368049999958
 30
0.0
 11
92.52931709784229
 21
-14.5557729999996
 31
0.0
  0
LINE
  5
56603
330
1F
100
AcDbEntity
  8
1
100
AcDbLine
 10
104.7750595978425
 20
-12.54744799999997
 30
0.0
 11
104.7749990978425
 21
-12.64459849999997
 31
0.0
  0
LINE
  5
56604
330
1F
100
AcDbEntity
  8
1
100
AcDbLine
 10
104.7749990978425
 20
-12.64459849999997
 30
0.0
 11
104.7701185978423
 21
-12.737959
 31
0.0
  0
DIMENSION
  5
56605
102
{ACAD_XDICTIONARY
360
56606
102
}
102
{ACAD_REACTORS
330
56607
102
}
330
1F
100
AcDbEntity
  8
2
100
AcDbDimension
  2
*D64
 10
102.77496588996
 20
12.6973007544427
 30
0.0
 11
118.1665303625734
 21
34.95736916995276
 31
0.0
 70
    36
 71
     5
 42
2.000000000000525
  3
\M+18352\M+18373\M+1815B - ISO-25
100
AcDbRadialDimension
 15
104.1457971756732
 25
14.15360483879871
 35
0.0
 40
0.0
1001
ACAD
1000
DSTYLE
1002
{
1070
     4
1000
"
1070
    40
1040
1.0
1070
   143
1040
0.03937
1070
   170
1070
     1
1070
   171
1070
     3
1070
   271
1070
     8
1070
   285
1070
     4
1002
}
  0
LINE
  5
56608
330
1F
100
AcDbEntity
  8
cut
100
AcDbLine
 10
92.77500000000008
 20
14.63314554389998
 30
0.0
 11
99.77500000000009
 21
14.99999999889993
 31
0.0
1001
ACAD
1000
RTMaterial
1005
0
  0
LINE
  5
56609
330
1F
100
AcDbEntity
  8
cut
100
AcDbLine
 10
82.27499999999986
 20
14.06499999889993
 30
0.0
 11
91.01827466290002
 21
14.06499999889993
 31
0.0
1001
ACAD
1000
RTMaterial
1005
0
  0
LINE
  5
5660A
330
1F
100
AcDbEntity
  8
cut
100
AcDbLine
 10
99.77500000000009
 20
14.99999999889993
 30
0.0
 11
102.7750000000001
 21
14.99999999889993
 31
0.0
1001
ACAD
1000
RTMaterial
1005
0
  0
LINE
  5
5660B
330
1F
100
AcDbEntity
  8
cut
100
AcDbLine
 10
104.7750000000001
 20
12.49999999889971
 30
0.0
 11
104.7750000000001
 21
12.99999999889994
 31
0.0
1001
ACAD
1000
RTMaterial
1005
0
  0
LINE
  5
5660C
330
1F
100
AcDbEntity
  8
cut
100
AcDbLine
 10
82.27500000000009
 20
-14.06500000110004
 30
0.0
 11
82.27499999999986
 21
14.06499999889993
 31
0.0
1001
ACAD
1000
RTMaterial
1005
0
  0
LINE
  5
5660D
330
1F
100
AcDbEntity
  8
cut
100
AcDbLine
 10
104.1199027589
 20
-0.0000000011000623
 30
0.0
 11
104.7750000000001
 21
12.49999999889993
 31
0.0
1001
ACAD
1000
RTMaterial
1005
0
  0
ARC
  5
5660E
330
1F
100
AcDbEntity
  8
cut
100
AcDbCircle
 10
91.01827466290002
 20
17.06499999889993
 30
0.0
 40
3.0
100
AcDbArc
 50
270.0
 51
305.8436294584033
1001
ACAD
1000
RTMaterial
1005
0
  0
ARC
  5
5660F
330
1F
100
AcDbEntity
  8
cut
100
AcDbCircle
 10
102.7750000000001
 20
12.99999999889994
 30
0.0
 40
2.0
100
AcDbArc
 50
0.0
 51
90.0
1001
ACAD
1000
RTMaterial
1005
0
  0
LINE
  5
56610
330
1F
100
AcDbEntity
  8
cut
100
AcDbLine
 10
92.77500000000008
 20
-14.63314554610011
 30
0.0
 11
99.77500000000009
 21
-15.00000000110006
 31
0.0
1001
ACAD
1000
RTMaterial
1005
0
  0
LINE
  5
56611
330
1F
100
AcDbEntity
  8
cut
100
AcDbLine
 10
82.27499999999986
 20
-14.06500000110006
 30
0.0
 11
91.01827466290002
 21
-14.06500000110006
 31
0.0
1001
ACAD
1000
RTMaterial
1005
0
  0
LINE
  5
56612
330
1F
100
AcDbEntity
  8
cut
100
AcDbLine
 10
99.77500000000009
 20
-15.00000000110006
 30
0.0
 11
102.7750000000001
 21
-15.00000000110006
 31
0.0
1001
ACAD
1000
RTMaterial
1005
0
  0
LINE
  5
56613
330
1F
100
AcDbEntity
  8
cut
100
AcDbLine
 10
104.7750000000001
 20
-12.50000000109983
 30
0.0
 11
104.7750000000001
 21
-13.00000000110006
 31
0.0
1001
ACAD
1000
RTMaterial
1005
0
  0
LINE
  5
56614
330
1F
100
AcDbEntity
  8
cut
100
AcDbLine
 10
104.1199027589
 20
-0.0000000011000623
 30
0.0
 11
104.7750000000001
 21
-12.50000000110006
 31
0.0
1001
ACAD
1000
RTMaterial
1005
0
  0
ARC
  5
56615
330
1F
100
AcDbEntity
  8
cut
100
AcDbCircle
 10
91.01827466290002
 20
-17.06500000110006
 30
0.0
 40
3.0
100
AcDbArc
 50
54.15637054159663
 51
90.0
1001
ACAD
1000
RTMaterial
1005
0
  0
ARC
  5
56616
330
1F
100
AcDbEntity
  8
cut
100
AcDbCircle
 10
102.7750000000001
 20
-13.00000000110006
 30
0.0
 40
2.0
100
AcDbArc
 50
270.0
 51
0.0
1001
ACAD
1000
RTMaterial
1005
0
  0
LINE
  5
566D0
330
1F
100
AcDbEntity
  8
1
100
AcDbLine
 10
76.0662879977184
 20
13.97994796851901
 30
0.0
 11
81.26097325771842
 21
13.97994796851904
 31
0.0
  0
LINE
  5
566D1
330
1F
100
AcDbEntity
  8
1
100
AcDbLine
 10
73.7750089977186
 20
13.99191096851899
 30
0.0
 11
81.26097325771842
 21
13.99191096851899
 31
0.0
  0
LINE
  5
566D2
330
1F
100
AcDbEntity
  8
1
100
AcDbLine
 10
73.7750089977186
 20
-14.01918303148102
 30
0.0
 11
81.26097325771842
 21
-14.01918303148105
 31
0.0
  0
LINE
  5
566D3
330
1F
100
AcDbEntity
  8
1
100
AcDbLine
 10
75.27501299771859
 20
-13.81202903148102
 30
0.0
 11
81.26097325771842
 21
-13.81202903148099
 31
0.0
  0
LINE
  5
566D4
330
1F
100
AcDbEntity
  8
1
100
AcDbLine
 10
75.27501299771859
 20
-13.60023703148101
 30
0.0
 11
81.26097325771842
 21
-13.60023703148101
 31
0.0
  0
LINE
  5
566D5
330
1F
100
AcDbEntity
  8
1
100
AcDbLine
 10
81.26097325771842
 20
-14.01918303148105
 30
0.0
 11
81.26097325771842
 21
-13.57481603148099
 31
0.0
  0
LINE
  5
566D6
330
1F
100
AcDbEntity
  8
1
100
AcDbLine
 10
81.26097325771842
 20
12.82872193447596
 30
0.0
 11
81.26097325771842
 21
13.99191096851899
 31
0.0
  0
VIEWPORT
  5
6B
102
{ACAD_XDICTIONARY
360
5681F
102
}
330
50
100
AcDbEntity
 67
     1
  8
0
100
AcDbViewport
 10
150.1652135264906
 20
160.4455827878762
 30
0.0
 40
339.1973820494346
 41
282.2272140146125
 68
     1
 69
     1
 12
150.1652135264906
 22
160.4455827878762
 13
0.0
 23
0.0
 14
10.0
 24
10.0
 15
10.0
 25
10.0
 16
0.0
 26
0.0
 36
1.0
 17
0.0
 27
0.0
 37
0.0
 42
50.0
 43
0.0
 44
0.0
 45
282.2272140146125
 50
0.0
 51
0.0
 72
  1000
 90
    32864
  1

281
     0
 71
     1
 74
     0
110
0.0
120
0.0
130
0.0
111
1.0
121
0.0
131
0.0
112
0.0
122
1.0
132
0.0
 79
     0
146
0.0
  0
VIEWPORT
  5
6D
102
{ACAD_XDICTIONARY
360
56821
102
}
330
50
100
AcDbEntity
 67
     1
  8
0
100
AcDbViewport
 10
133.3499939441681
 20
101.5999939441681
 30
0.0
 40
213.3599903106689
 41
162.5599903106689
 68
     2
 69
     2
 12
210.0
 22
148.5
 13
0.0
 23
0.0
 14
10.0
 24
10.0
 15
10.0
 25
10.0
 16
0.0
 26
0.0
 36
1.0
 17
0.0
 27
0.0
 37
0.0
 42
50.0
 43
0.0
 44
0.0
 45
324.0677920111345
 50
0.0
 51
0.0
 72
   100
 90
    32864
  1

281
     0
 71
     1
 74
     0
110
0.0
120
0.0
130
0.0
111
1.0
121
0.0
131
0.0
112
0.0
122
1.0
132
0.0
 79
     0
146
0.0
  0
ENDSEC
  0
SECTION
  2
OBJECTS
  0
DICTIONARY
  5
C
330
0
100
AcDbDictionary
281
     1
  3
ACAD_COLOR
350
85
  3
ACAD_GROUP
350
D
  3
ACAD_LAYOUT
350
1A
  3
ACAD_MATERIAL
350
84
  3
ACAD_MLINESTYLE
350
17
  3
ACAD_PLOTSETTINGS
350
19
  3
ACAD_PLOTSTYLENAME
350
E
  3
ACAD_TABLESTYLE
350
A1
  3
ACDBHEADERROUNDTRIPXREC
350
5681A
  3
AcDbVariableDictionary
350
5E
  3
ASE_INDEX_DICTIONARY
350
349E9
  3
DWGPROPS
350
56819
  0
DICTIONARY
  5
E2
330
2
100
AcDbDictionary
280
     1
281
     1
  3
ACAD_LAYERFILTERS
360
55CFE
  3
ACAD_LAYERSTATES
360
3759A
  3
ACLYDICTIONARY
360
55CFD
  0
DICTIONARY
  5
31EE
330
1F
100
AcDbDictionary
280
     1
281
     1
  3
ACAD_SORTENTS
360
31EF
  0
DICTIONARY
  5
3BEB2
330
680
100
AcDbDictionary
280
     1
281
     1
  3
ACAD_SORTENTS
360
55347
  0
DICTIONARY
  5
56823
330
71
100
AcDbDictionary
280
     1
281
     1
  3
ACAD_XREC_ROUNDTRIP
360
56824
  0
DICTIONARY
  5
56825
330
73
100
AcDbDictionary
280
     1
281
     1
  3
ACAD_XREC_ROUNDTRIP
360
56826
  0
DICTIONARY
  5
56606
330
56605
100
AcDbDictionary
280
     1
281
     1
  3
ACAD_DIMASSOC
360
56607
  0
DICTIONARY
  5
5681F
330
6B
100
AcDbDictionary
280
     1
281
     1
  3
ACAD_XREC_ROUNDTRIP
360
56820
  0
DICTIONARY
  5
56821
330
6D
100
AcDbDictionary
280
     1
281
     1
  3
ACAD_XREC_ROUNDTRIP
360
56822
  0
DICTIONARY
  5
85
102
{ACAD_REACTORS
330
C
102
}
330
C
100
AcDbDictionary
281
     1
  0
DICTIONARY
  5
D
102
{ACAD_REACTORS
330
C
102
}
330
C
100
AcDbDictionary
281
     1
  0
DICTIONARY
  5
1A
102
{ACAD_REACTORS
330
C
102
}
330
C
100
AcDbDictionary
281
     1
  3
\M+1838C\M+18343\M+18341\M+18345\M+183671
350
51
  3
\M+1838C\M+18343\M+18341\M+18345\M+183672
350
56
  3
Model
350
22
  0
DICTIONARY
  5
84
102
{ACAD_REACTORS
330
C
102
}
330
C
100
AcDbDictionary
281
     1
  0
DICTIONARY
  5
17
102
{ACAD_REACTORS
330
C
102
}
330
C
100
AcDbDictionary
281
     1
  3
Standard
350
18
  0
DICTIONARY
  5
19
102
{ACAD_REACTORS
330
C
102
}
330
C
100
AcDbDictionary
281
     1
  0
ACDBDICTIONARYWDFLT
  5
E
102
{ACAD_REACTORS
330
C
102
}
330
C
100
AcDbDictionary
281
     1
  3
Normal
350
F
100
AcDbDictionaryWithDefault
340
F
  0
DICTIONARY
  5
A1
102
{ACAD_REACTORS
330
C
102
}
330
C
100
AcDbDictionary
281
     1
  3
Standard
350
A2
  0
DICTIONARY
  5
5681A
102
{ACAD_REACTORS
330
C
102
}
330
C
100
AcDbDictionary
281
     1
  0
DICTIONARY
  5
5E
102
{ACAD_REACTORS
330
C
102
}
330
C
100
AcDbDictionary
281
     1
  3
CTABLESTYLE
350
B8
  3
DIMASSOC
350
5F
  3
HIDETEXT
350
63
  3
PROJECTNAME
350
31CE
  0
DICTIONARY
  5
349E9
102
{ACAD_REACTORS
330
C
102
}
330
C
100
AcDbDictionary
281
     1
  3
ASEBlockHierarchyIndexRecord
350
349EA
1001
DCO15
1040
1842496176.844
  0
XRECORD
  5
56819
102
{ACAD_REACTORS
330
C
102
}
330
C
100
AcDbXrecord
280
     1
  1
DWGPROPS COOKIE
  2

  3

  4

  6

  7

  8

  9

300
=
301
=
302
=
303
=
304
=
305
=
306
=
307
=
308
=
309
=
 40
2.662344456018518
 41
2455489.391063368
 42
2458570.818062534
  1

 90
        0
  0
DICTIONARY
  5
55CFE
102
{ACAD_REACTORS
330
E2
102
}
330
E2
100
AcDbDictionary
281
     1
  0
DICTIONARY
  5
3759A
102
{ACAD_REACTORS
330
E2
102
}
330
E2
100
AcDbDictionary
281
     1
  0
DICTIONARY
  5
55CFD
102
{ACAD_REACTORS
330
E2
102
}
330
E2
100
AcDbDictionary
281
     1
1001
ACAD
1000
<All
  0
SORTENTSTABLE
  5
31EF
102
{ACAD_REACTORS
330
31EE
102
}
330
31EE
100
AcDbSortentsTable
330
1F
331
68C
  5
3C6B0
  0
SORTENTSTABLE
  5
55347
102
{ACAD_REACTORS
330
3BEB2
102
}
330
3BEB2
100
AcDbSortentsTable
330
680
  0
XRECORD
  5
56824
102
{ACAD_REACTORS
330
56823
102
}
330
56823
100
AcDbXrecord
280
     1
102
SHADEPLOT
 70
     0
  0
XRECORD
  5
56826
102
{ACAD_REACTORS
330
56825
102
}
330
56825
100
AcDbXrecord
280
     1
102
SHADEPLOT
 70
     0
  0
DIMASSOC
  5
56607
102
{ACAD_REACTORS
330
56606
102
}
330
56606
100
AcDbDimAssoc
330
56605
 90
        2
 70
     0
 71
     0
  1
AcDbOsnapPointRef
 72
     3
331
56600
 73
     2
 91
        0
 40
0.0
 10
0.0
 20
0.0
 30
0.0
 75
     0
  0
XRECORD
  5
56820
102
{ACAD_REACTORS
330
5681F
102
}
330
5681F
100
AcDbXrecord
280
     1
102
SHADEPLOT
 70
     0
  0
XRECORD
  5
56822
102
{ACAD_REACTORS
330
56821
102
}
330
56821
100
AcDbXrecord
280
     1
102
SHADEPLOT
 70
     0
  0
LAYOUT
  5
51
102
{ACAD_XDICTIONARY
360
B2
102
}
102
{ACAD_REACTORS
330
1A
102
}
330
1A
100
AcDbPlotSettings
  1

  2
none_device
  4
Letter_(8.50_x_11.00_Inches)
  6

 40
6.349999904632567
 41
6.349999904632567
 42
6.350006103515625
 43
6.350006103515625
 44
215.8999938964844
 45
279.3999938964844
 46
0.0
 47
0.0
 48
0.0
 49
0.0
140
0.0
141
0.0
142
1.0
143
1.0
 70
   688
 72
     1
 73
     1
 74
     5
  7

 75
    16
147
1.0
148
0.0
149
0.0
100
AcDbLayout
  1
\M+1838C\M+18343\M+18341\M+18345\M+183671
 70
     1
 71
     1
 10
-6.350006103515625
 20
-6.349999904632567
 11
273.0499877929688
 21
209.5499939918518
 12
0.0
 22
0.0
 32
0.0
 14
26.66999878883364
 24
20.31999878883365
 34
0.0
 15
240.0299890995025
 25
182.8799890995025
 35
0.0
146
0.0
 13
0.0
 23
0.0
 33
0.0
 16
1.0
 26
0.0
 36
0.0
 17
0.0
 27
1.0
 37
0.0
 76
     0
330
50
331
6B
  0
LAYOUT
  5
56
102
{ACAD_XDICTIONARY
360
B5
102
}
102
{ACAD_REACTORS
330
1A
102
}
330
1A
100
AcDbPlotSettings
  1

  2
none_device
  4
Letter_(8.50_x_11.00_Inches)
  6

 40
6.349999904632567
 41
6.349999904632567
 42
6.350006103515625
 43
6.350006103515625
 44
215.8999938964844
 45
279.3999938964844
 46
0.0
 47
0.0
 48
0.0
 49
0.0
140
0.0
141
0.0
142
1.0
143
1.0
 70
   688
 72
     1
 73
     1
 74
     5
  7

 75
    16
147
1.0
148
0.0
149
0.0
100
AcDbLayout
  1
\M+1838C\M+18343\M+18341\M+18345\M+183672
 70
     1
 71
     2
 10
-6.350006103515625
 20
-6.349999904632567
 11
273.0499877929688
 21
209.5499939918518
 12
0.0
 22
0.0
 32
0.0
 14
26.66999878883363
 24
20.31999878883363
 34
0.0
 15
240.0299890995026
 25
182.8799890995025
 35
0.0
146
0.0
 13
0.0
 23
0.0
 33
0.0
 16
1.0
 26
0.0
 36
0.0
 17
0.0
 27
1.0
 37
0.0
 76
     0
330
55
331
71
  0
LAYOUT
  5
22
102
{ACAD_XDICTIONARY
360
5681B
102
}
102
{ACAD_REACTORS
330
1A
102
}
330
1A
100
AcDbPlotSettings
  1

  2
none_device
  4
ANSI_A_(8.50_x_11.00_Inches)
  6

 40
6.349999904632567
 41
19.04999923706055
 42
6.350006103515625
 43
19.04998779296875
 44
215.8999938964844
 45
279.3999938964844
 46
0.0
 47
0.0
 48
0.0
 49
0.0
140
0.0
141
0.0
142
1.0
143
78.436453180766
 70
 11952
 72
     0
 73
     1
 74
     0
  7

 75
     0
147
0.0127491741332998
148
0.0
149
0.0
100
AcDbLayout
  1
Model
 70
     1
 71
     0
 10
0.0
 20
0.0
 11
12.0
 21
9.0
 12
0.0
 22
0.0
 32
0.0
 14
0.0
 24
0.0
 34
0.0
 15
0.0
 25
0.0
 35
0.0
146
0.0
 13
0.0
 23
0.0
 33
0.0
 16
1.0
 26
0.0
 36
0.0
 17
0.0
 27
1.0
 37
0.0
 76
     0
330
1F
  0
MLINESTYLE
  5
18
102
{ACAD_REACTORS
330
17
102
}
330
17
100
AcDbMlineStyle
  2
STANDARD
 70
     0
  3

 62
   256
 51
90.0
 52
90.0
 71
     2
 49
0.5
 62
   256
  6
BYLAYER
 49
-0.5
 62
   256
  6
BYLAYER
  0
ACDBPLACEHOLDER
  5
F
102
{ACAD_REACTORS
330
E
102
}
330
E
  0
TABLESTYLE
  5
A2
102
{ACAD_REACTORS
330
A1
102
}
330
A1
100
AcDbTableStyle
  3
Standard
 70
     0
 71
     0
 40
1.5
 41
1.5
280
     0
281
     0
  7
Standard
140
4.5
170
     2
 62
     0
 63
     7
283
     0
274
    -2
284
     1
 64
     0
275
    -2
285
     1
 65
     0
276
    -2
286
     1
 66
     0
277
    -2
287
     1
 67
     0
278
    -2
288
     1
 68
     0
279
    -2
289
     1
 69
     0
  7
Standard
140
6.0
170
     5
 62
     0
 63
     7
283
     0
274
    -2
284
     1
 64
     0
275
    -2
285
     1
 65
     0
276
    -2
286
     1
 66
     0
277
    -2
287
     1
 67
     0
278
    -2
288
     1
 68
     0
279
    -2
289
     1
 69
     0
  7
Standard
140
4.5
170
     5
 62
     0
 63
     7
283
     0
274
    -2
284
     1
 64
     0
275
    -2
285
     1
 65
     0
276
    -2
286
     1
 66
     0
277
    -2
287
     1
 67
     0
278
    -2
288
     1
 68
     0
279
    -2
289
     1
 69
     0
  0
DICTIONARYVAR
  5
B8
102
{ACAD_REACTORS
330
5E
102
}
330
5E
100
DictionaryVariables
280
     0
  1
STANDARD
  0
DICTIONARYVAR
  5
5F
102
{ACAD_REACTORS
330
5E
102
}
330
5E
100
DictionaryVariables
280
     0
  1
2
  0
DICTIONARYVAR
  5
63
102
{ACAD_REACTORS
330
5E
102
}
330
5E
100
DictionaryVariables
280
     0
  1
1
  0
DICTIONARYVAR
  5
31CE
102
{ACAD_REACTORS
330
5E
102
}
330
5E
100
DictionaryVariables
280
     0
  1

  0
XRECORD
  5
349EA
102
{ACAD_REACTORS
330
349E9
102
}
330
349E9
100
AcDbXrecord
280
     1
330
68C
330
0
330
0
330
0
330
0
330
0
330
0
330
0
330
0
330
0
330
0
330
0
330
0
330
0
330
0
330
0
330
0
330
0
330
0
330
0
330
0
330
0
330
0
330
0
330
0
330
0
330
0
330
0
330
0
330
0
330
0
330
0
330
0
330
0
330
0
330
0
330
0
330
0
330
0
330
0
330
0
330
0
330
0
330
0
330
0
330
0
330
0
330
0
330
0
330
0
330
0
330
0
330
0
330
0
330
0
330
0
330
0
330
0
330
0
330
0
330
0
330
0
330
0
330
0
330
0
330
0
330
0
330
0
330
0
330
0
330
0
330
0
330
0
330
0
330
0
330
0
330
0
330
0
330
0
330
0
330
0
330
0
330
0
330
0
330
0
330
0
330
0
330
0
330
0
330
0
330
0
330
0
330
0
330
0
330
0
330
0
330
0
330
0
330
0
330
0
330
0
330
0
330
0
330
0
330
0
330
0
330
0
330
0
330
0
330
0
  0
DICTIONARY
  5
B2
330
51
100
AcDbDictionary
280
     1
281
     1
  3
ACAD_XREC_ROUNDTRIP
360
5681D
  3
ADSK_XREC_LAYOUTTHUMBNAIL
360
B3
  0
DICTIONARY
  5
B5
330
56
100
AcDbDictionary
280
     1
281
     1
  3
ACAD_XREC_ROUNDTRIP
360
5681E
  3
ADSK_XREC_LAYOUTTHUMBNAIL
360
B6
  0
DICTIONARY
  5
5681B
330
22
100
AcDbDictionary
280
     1
281
     1
  3
ACAD_XREC_ROUNDTRIP
360
5681C
  0
XRECORD
  5
5681D
102
{ACAD_REACTORS
330
B2
102
}
330
B2
100
AcDbXrecord
280
     1
102
SHADEPLOT
 70
     0
102
SHADEPLOTRESLEVEL
 70
     2
102
SHADEPLOTCUSTOMDPI
 70
   300
  0
XRECORD
  5
B3
102
{ACAD_REACTORS
330
B2
102
}
330
B2
100
AcDbXrecord
280
     1
310
28000000B40000008B0000000100080000000000BC61000000000000000000000001000000000000FFFFFF0000000000FFFFFF000000000000000000000000000000000000000000000000000000000000000000330000006600000099000000CC000000FF00000000330000333300006633000099330000CC330000FF3300
310
0000660000336600006666000099660000CC660000FF66000000990000339900006699000099990000CC990000FF99000000CC000033CC000066CC000099CC0000CCCC0000FFCC000000FF000033FF000066FF000099FF0000CCFF0000FFFF000000003300330033006600330099003300CC003300FF003300003333003333
310
33006633330099333300CC333300FF33330000663300336633006666330099663300CC663300FF66330000993300339933006699330099993300CC993300FF99330000CC330033CC330066CC330099CC3300CCCC3300FFCC330000FF330033FF330066FF330099FF3300CCFF3300FFFF330000006600330066006600660099
310
006600CC006600FF00660000336600333366006633660099336600CC336600FF33660000666600336666006666660099666600CC666600FF66660000996600339966006699660099996600CC996600FF99660000CC660033CC660066CC660099CC6600CCCC6600FFCC660000FF660033FF660066FF660099FF6600CCFF6600
310
FFFF660000009900330099006600990099009900CC009900FF00990000339900333399006633990099339900CC339900FF33990000669900336699006666990099669900CC669900FF66990000999900339999006699990099999900CC999900FF99990000CC990033CC990066CC990099CC9900CCCC9900FFCC990000FF99
310
0033FF990066FF990099FF9900CCFF9900FFFF99000000CC003300CC006600CC009900CC00CC00CC00FF00CC000033CC003333CC006633CC009933CC00CC33CC00FF33CC000066CC003366CC006666CC009966CC00CC66CC00FF66CC000099CC003399CC006699CC009999CC00CC99CC00FF99CC0000CCCC0033CCCC0066CC
310
CC0099CCCC00CCCCCC00FFCCCC0000FFCC0033FFCC0066FFCC0099FFCC00CCFFCC00FFFFCC000000FF003300FF006600FF009900FF00CC00FF00FF00FF000033FF003333FF006633FF009933FF00CC33FF00FF33FF000066FF003366FF006666FF009966FF00CC66FF00FF66FF000099FF003399FF006699FF009999FF00CC
310
99FF00FF99FF0000CCFF0033CCFF0066CCFF0099CCFF00CCCCFF00FFCCFF0000FFFF0033FFFF0066FFFF0099FFFF00CCFFFF00FFFFFF00000000000D0D0D001A1A1A00282828003535350043434300505050005D5D5D006B6B6B00787878008686860093939300A1A1A100AEAEAE00BBBBBB00C9C9C900D6D6D600E4E4E400
310
F1F1F100FFFFFF0000000000000000000000000000000000000000000000000000000000000000000000000000000000E2E2E2E2E2E2E2E2E2E2E2E2E2E2E2E2E2E2E2E2E2E2E2E2E2E2E2E2E2E2E2E2E2E2E2E2E2E2E2E2E2E2E2E2E2E2E2E2E2E2E2E2E2E2E2E2E2E2E2E2E2E2E2E2E2E2E2E2E2E2E2E2E2E2E2E2E2E2E2
310
E2E2E2E2E2E2E2E2E2E2E2E2E2E2E2E2E2E2E2E2E2E2E2E2E2E2E2E2E2E2E2E2E2E2E2E2E2E2E2E2E2E2E2E2E2E2E2E2E2E2E2E2E2E2E2E2E2E2E2E2E2E2E2E2E2E2E2E2E2E2E2E2E2E2E2E2E2E2E2E2E2E2E2E2E2E2E2E2E2E2E2E2E2E2E2E2E2E2E2E2E2E2F5F5F5F5F5F5F5F5F5F5F5F5F5F5F5F5F5F5F5F5F5F5F5F5F5
310
F5F5F5F5F5F5F5F5F5F5F5F5F5F5F5F5F5F5F5F5F5F5F5F5F5F5F5F5F5F5F5F5F5F5F5F5F5F5F5F5F5F5F5F5F5F5F5F5F5F5F5F5F5F5F5F5F5F5F5F5F5F5F5F5F5F5F5F5F5F5F5F5F5F5F5F5F5F5F5F5F5F5F5F5F5F5F5F5F5F5F5F5F5F5F5F5F5F5F5F5F5F5F5F5F5F5F5F5F5F5F5F5F5F5F5F5F5F5F5F5F5F5F5F5F5F5F5
310
F5F5F5F5F5F5F5F5F5F5F5F5F5F5F5F5F5F5F5F5F5F5F5F5F5F5E2E2F5F5F5F5F5F5F5F5F5F5F5F5F5F5F5F5F5F5F5F5F5F5F5F5F5F5F5F5F5F5F5F5F5F5F5F5F5F5F5F5F5F5F5F5F5F5F5F5F5F5F5F5F5F5F5F5F5F5F5F5F5F5F5F5F5F5F5F5F5F5F5F5F5F5F5F5F5F5F5F5F5F5F5F5F5F5F5F5F5F5F5F5F5F5F5F5F5F5F5
310
F5F5F5F5F5F5F5F5F5F5F5F5F5F5F5F5F5F5F5F5F5F5F5F5F5F5F5F5F5F5F5F5F5F5F5F5F5F5F5F5F5F5F5F5F5F5F5F5F5F5F5F5F5F5F5F5F5F5F5F5F5F5F5F5F5F5F5F5F5F5F5F5F5F5F5F5F5F5F5E2E2F5F5F5F5F5F5F5F5F5F5F5F5F5F5F5F5F5F5F5F5F5F5F5F5F5F5F5F5F5F5F5F5F5F5F5F5F5F5F5F5F5F5F5F5F5F5
310
F5F5F5F5F5F5F5F5F5F5F5F5F5F5F5F5F5F5F5F5F5F5F5F5F5F5F5F5F5F5F5F5F5F5F5F5F5F5F5F5F5F5F5F5F5F5F5F5F5F5F5F5F5F5F5F5F5F5F5F5F5F5F5F5F5F5F5F5F5F5F5F5F5F5F5F5F5F5F5F5F5F5F5F5F5F5F5F5F5F5F5F5F5F5F5F5F5F5F5F5F5F5F5F5F5F5F5F5F5F5F5F5F5F5F5F5F5F5F5F5F5F5F5F5F5F5F5
310
F5F5F5F5F5E2E2F5F5F5F5E2E2E2E2E2E2E2E2F5F5F5F5F5F5F5F5F5E2E2E2E2E2E2E2E2E2E2E2E2E2E2E2F5F5F5F5F5F5F5F5F5E2E2E2E2E2E2E2E2E2E2E2E2E2E2E2E2F5F5F5F5F5F5F5F5E2E2E2E2E2E2E2E2E2E2E2E2E2E2E2E2F5F5F5F5F5F5F5F5E2E2E2E2E2E2E2E2E2E2E2E2E2E2E2E2F5F5F5F5F5F5F5F5E2E2E2
310
E2E2E2E2E2E2E2E2E2E2E2E2E2F5F5F5F5F5F5F5F5F5E2E2E2E2E2E2E2E2E2E2E2E2E2E2E2F5F5F5F5F5F5F5F5F5E2E2E2E2E2E2E2E2F5F5F5F5E2E2F5F5F5F5E2F5F5F5F5F5F5F5F5F5F5F5F5F5F5F5F5F5F5F5F5F5F5F5F5F5F5F5F5F5F5F5F5F5F5F5F5F5F5F5F5F5F5F5F5F5F5F5F5F5F5F5F5F5F5F5F5F5F5F5F5F5F5
310
F5F5F5F5F5F5F5F5F5F5F5F5F5F5F5F5F5F5F5F5F5F5F5F5F5F5F5F5F5F5F5F5F5F5F5F5F5F5F5F5F5F5F5F5F5F5F5F5F5F5F5F5F5F5F5F5F5F5F5F5F5F5F5F5F5F5F5F5F5F5F5F5F5F5F5F5F5F5F5F5F5F5F5F5F5F5F5F5F5F5F5F5F5F5F5F5F5F5F5F5F5F5F5F5F5F5E2F5F5F5F5E2E2F5F5F5F5E2F5F5F5F5F5F5F5F5F5
310
F5F5F5F5F5F5F5F5F5F5F5F5F5F5F5F5F5F5F5F5F5F5F5F5F5F5F5F5F5F5F5F5F5F5F5F5F5F5F5F5F5F5F5F5F5F5F5F5F5F5F5F5F5F5F5F5F5F5F5F5F5F5F5F5F5F5F5F5F5F5F5F5F5F5F5F5F5F5F5F5F5F5F5F5F5F5F5F5F5F5F5F5F5F5F5F5F5F5F5F5F5F5F5F5F5F5F5F5F5F5F5F5F5F5F5F5F5F5F5F5F5F5F5F5F5F5F5
310
F5F5F5F5F5F5F5F5F5F5F5F5F5F5F5F5F5F5F5F5F5F5F5F5F5F5F5F5F5F5F5F5E2F5F5F5F5E2E2F5F5F5F5E2F5F5F5F5F5F5F5F5F5F5F5F5F5F5F5F5F5F5F5F5F5F5F5F5F5F5F5F5F5F5F5F5F5F5F5F5F5F5F5F5F5F5F5F5F5F5F5F5F5F5F5F5F5F5F5F5F5F5F5F5F5F5F5F5F5F5F5F5F5F5F5F5F5F5F5F5F5F5F5F5F5F5F5
310
F5F5F5F5F5F5F5F5F5F5F5F5F5F5F5F5F5F5F5F5F5F5F5F5F5F5F5F5F5F5F5F5F5F5F5F5F5F5F5F5F5F5F5F5F5F5F5F5F5F5F5F5F5F5F5F5F5F5F5F5F5F5F5F5F5F5F5F5F5F5F5F5F5F5F5F5F5F5F5F5F5F5F5F5F5E2F5F5F5F5E2E2F5F5F5F5E2F5F5F5F5F5F5F5F5F5F5F5F5F5F5F5F5F5F5F5F5F5F5F5F5F5F5F5F5F5F5
310
F5F5F5F5F5F5F5F5F5F5F5F5F5F5F5F5F5F5F5F5F5F5F5F5F5F5F5F5F5F5F5F5F5F5F5F5F5F5F5F5F5F5F5F5F5F5F5F5F5F5F5F5F5F5F5F5F5F5F5F5F5F5F5F5F5F5F5F5F5F5F5F5F5F5F5F5F5F5F5F5F5F5F5F5F5F5F5F5F5F5F5F5F5F5F5F5F5F5F5F5F5F5F5F5F5F5F5F5F5F5F5F5F5F5F5F5F5F5F5F5F5F5F5F5F5F5F5
310
F5F5F5F5F5F5F5F5F5F5F5E2F5F5F5F5E2E2F5F5F5F5E2F5F5F5F5F5F5F5F5F5F5F5F5F5F5F5F5F5F5F5F5F5F5F5F5F5F5F5F5F5F5F5F5F5F5F5F5F5F5F5F5F5F5F5F5F5F5F5F5F5F5F5F5F5F5F5F5F5F5F5F5F5F5F5F5F5F5F5F5F5F5F5F5F5F5F5F5F5F5F5F5F5F5F5F5F5F5F5F5F5F5F5F5F5F5F5F5F5F5F5F5F5F5F5F5
310
F5F5F5F5F5F5F5F5F5F5F5F5F5F5F5F5F5F5F5F5F5F5F5F5F5F5F5F5F5F5F5F5F5F5F5F5F5F5F5F5F5F5F5F5F5F5F5F5F5F5F5F5F5F5F5F5F5F5F5F5F5F5F5F5E2F5F5F5F5E2E2F5F5F5F5E2F5F5F5F5F5F5F5F5F5F5F5F5F5F5F5F5F5F5F5F5F5F5F5F5F5F5F5F5F5F5F5F5F5F5F5F5F5F5F5F5F5F5F5F5F5F5F5F5F5F5F5
310
F5F5F5F5F5F5F5F5F5F5F5F5F5F5F5F5F5F5F5F5F5F5F5F5F5F5F5F5F5F5F5F5F5F5F5F5F5F5F5F5F5F5F5F5F5F5F5F5F5F5F5F5F5F5F5F5F5F5F5F5F5F5F5F5F5F5F5F5F5F5F5F5F5F5F5F5F5F5F5F5F5F5F5F5F5F5F5F5F5F5F5F5F5F5F5F5F5F5F5F5F5F5F5F5F5F5F5F5F5F5F5F5F5F5F5F5F5E2F5F5F5F5E2E2F5F5F5
310
F5E2F5F5F5F5F5F5F5F5F5F5F5F5F5F5F5F5F5F5F5F5F5F5F5F5F5F5F5F5F5F5F5F5F5F5F5F5F5F5F5F5F5F5F5F5F5F5F5F5F5F5F5F5F5F5F5F5F5F5F5F5F5F5F5F5F5F5F5F5F5F5F5F5F5F5F5F5F5F5F5F5F5F5F5F5F5F5F5F5F5F5F5F5F5F5F5F5F5F5F5F5F5F5F5F5F5F5F5F5F5F5F5F5F5F5F5F5F5F5F5F5F5F5F5F5F5
310
F5F5F5F5F5F5F5F5F5F5F5F5F5F5F5F5F5F5F5F5F5F5F5F5F5F5F5F5F5F5F5F5F5F5F5F5F5F5F5F5F5F5F5E2F5F5F5F5E2E2F5F5F5F5E2F5F5F5F5F5F5F5F5F5F5F5F5F5F5F5F5F5F5F5F5F5F5F5F5F5F5F5F5F5F5F5F5F5F5F5F5F5F5F5F5F5F5F5F5F5F5F5F5F5F5F5F5F5F5F5F5F5F5F5F5F5F5F5F5F5F5F5F5F5F5F5F5
310
F5F5F5F5F5F5F5F5F5F5F5F5F5F5F5F5F5F5F5F5F5F5F5F5F5F5F5F5F5F5F5F5F5F5F5F5F5F5F5F5F5F5F5F5F5F5F5F5F5F5F5F5F5F5F5F5F5F5F5F5F5F5F5F5F5F5F5F5F5F5F5F5F5F5F5F5F5F5F5F5F5F5F5F5F5F5F5F5F5F5F5F5F5F5F5F5E2F5F5F5F5E2E2F5F5F5F5F5F5F5F5F5F5F5F5F5F5F5F5F5F5F5F5F5F5F5F5
310
F5F5F5F5F5F5F5F5F5F5F5F5F5F5F5F5F5F5F5F5F5F5F5F5F5F5F5F5F5F5F5F5F5F5F5F5F5F5F5F5F5F5F5F5F5F5F5F5F5F5F5F5F5F5F5F5F5F5F5F5F5F5F5F5F5F5F5F5F5F5F5F5F5F5F5F5F5F5F5F5F5F5F5F5F5F5F5F5F5F5F5F5F5F5F5F5F5F5F5F5F5F5F5F5F5F5F5F5F5F5F5F5F5F5F5F5F5F5F5F5F5F5F5F5F5F5F5
310
F5F5F5F5F5F5F5F5F5F5F5F5F5F5F5F5F5F5F5F5F5F5F5F5F5F5F5E2E2F5F5F5F5F5F5F5F5F5F5F5F5F5F5F5F5F5F5F5F5F5F5F5F5F5F5F5F5F5F5F5F5F5F5F5F5F5F5F5F5F5F5F5F5F5F5F5F5F5F5F5F5F5F5F5F5F5F5F5F5F5F5F5F5F5F5F5F5F5F5F5F5F5F5F5F5F5F5F5F5F5F5F5F5F5F5F5F5F5F5F5F5F5F5F5F5F5F5
310
F5F5F5F5F5F5F5F5F5F5F5F5F5F5F5F5F5F5F5F5F5F5F5F5F5F5F5F5F5F5F5F5F5F5F5F5F5F5F5F5F5F5F5F5F5F5F5F5F5F5F5F5F5F5F5F5F5F5F5F5F5F5F5F5F5F5F5F5F5F5F5F5F5F5F5F5F5F5F5F5E2E2F5F5F5F5F5F5F5F5F5F5F5F5F5F5F5F5F5F5F5F5F5F5F5F5F5F5F5F5F5F5F5F5F5F5F5F5F5F5F5F5F5F5F5F5F5
310
F5F5F5F5F5F5F5F5F5F5F5F5F5F5F5F5F5F5F5F5F5F5F5F5F5F5F5F5F5F5F5F5F5F5F5F5F5F5F5F5F5F5F5F5F5F5F5F5F5F5F5F5F5F5F5F5F5F5F5F5F5F5F5F5F5F5F5F5F5F5F5F5F5F5F5F5F5F5F5F5F5F5F5F5F5F5F5F5F5F5F5F5F5F5F5F5F5F5F5F5F5F5F5F5F5F5F5F5F5F5F5F5F5F5F5F5F5F5F5F5F5F5F5F5F5F5F5
310
F5F5F5F5F5F5E2E2F5F5F5F5F5F5F5F5F5F5F5F5F5F5F5F5F5F5F5F5F5F5F5F5F5F5F5F5F5F5F5F5F5F5F5F5F5F5F5F5F5F5F5F5F5F5F5F5F5F5F5F5F5F5F5F5F5F5F5F5F5F5F5F5F5F5F5F5F5F5F5F5F5F5F5F5F5F5F5F5F5F5F5F5F5F5F5F5F5F5F5F5F5F5F5F5F5F5F5F5F5F5F5F5F5F5F5F5F5F5F5F5F5F5F5F5F5F5F5
310
F5F5F5F5F5F5F5F5F5F5F5F5F5F5F5F5F5F5F5F5F5F5F5F5F5F5F5F5F5F5F5F5F5F5F5F5F5F5F5F5F5F5F5F5F5F5F5F5F5F5F5F5F5F5F5F5F5F5F5E2E2F5F5F5F5F5F5F5F5F5F5F5F5F5F5F5F5F5F5F5F5F5E2E2E2E2E2E2E2E2E2E2E2E2E2E2E2E2E2E2E2E2E2E2E2E2E2E2E2E2E2E2E2E2E2E2E2E2E2E2E2E2E2E2E2E2E2
310
E2E2E2E2E2E2E2E2E2E2E2E2E2E2E2E2E2E2E2E2E2E2E2E2E2E2E2E2E2E2E2E2E2E2E2E2E2E2E2E2E2E2E2E2E2E2E2E2E2E2E2E2E2E2E2E2E2E2E2E2E2E2E2E2E2E2E2E2E2E2E2E2E2E2E2E2E2E2E2E2E2E2E2E2E2E2E2E2E2E2E2F5F5F5F5F5F5F5F5F5F5F5F5F5F5F5F5F5F5F5F5F5E2E2F5F5F5F5F5F5F5F5F5F5F5F5F5
310
F5F5F5F5F5F5F5F5E22D2D2D2D2D2D2D2D2D2D2D2DF5F5F5F5F5F5F5F5F5F5F5F5F5F5F5E2F5F5F5F5F5F5F5F5F5F5F5F5F5F5F5F5F5F5F5F5F5F5F5F5F5F5F5F5F5F5F5F5F5F5F5F5F5F5F5F5F5F5F5F5F5F5F5F5F5F5F5F5F5F5F5F5F5F5F5F5F5F5F5F5F5F5F5F5F5F5F5F5F5F5F5F5F5F5F5F5F5F5F5F5F5F5F5F5F5F5
310
F5F5F5F5F5F5F5F5F5F5F5F5F5F5F5F5E2F5F5F5F5F5F5F5F5F5F5F5F5F5F5F5F5F5F5F5F5F5E2E2F5F5F5F5F5F5F5F5F5F5F5F5F5F5F5F5F5F5F5F5F5E22D2D2DF5F5E2F5F5F5F5F52DF5F5F5F5F5F5F5F5F5F5F5F5F5F5F5E2F5F5F5F5F5F5F5F5F5F5F5F5F5F5F5F5F5F5F5F5F5F5F5F5F5F5F5F5F5F5F5F5F5F5F5F5F5
310
F5F5F5F5F5F5F5F5F5F5F5F5F5F5F5F5F5F5F5F5F5F5F5F5F5F5F5F5F5F5F5F5F5F5F5F5F5F5F5F5F5F5F5F5F5F5F5F5F5F5F5F5F5F5F5F5F5F5F5F5F5F5F5F5F5F5F5F5F5E2F5F5F5F5F5F5F5F5F5F5F5F5F5F5F5F5F5F5F5F5F5E2E2F5F5F5F5F5F5F5F5F5F5F5F5F5F5F5F5F5F5F5F5F5E2DCF52DF5F5E2F5F5F5F5F52D
310
F5F5F5F5F5F5F5F5F5F5F5F5F5F5F5E2F5F5F5F5F5F5F5F5F5F5F5F5F5F5F5F5F5F5F5F5F5F5F5F5F5F5F5F5F5F5F5F5F5F5F5F5F5F5F5F5F5F5F5F5F5F5F5F5F5F5F5F5F5F5F5F5F5F5F5F5F5F5F5F5F5F5F5F5F5F5F5F5F5F5F5F5F5F5F5F5F5F5F5F5F5F5F5F5F5F5F5F5F5F5F5F5F5F5F5F5F5F5F5F5F5F5E2F5F5F5F5
310
F5F5F5F5F5F5F5F5F5F5F5F5F5F5F5F5F5E2E2F5F5F5F5F5F5F5F5F5F5F5F5F5F5F5F5F5F5F5F5F5E2BEF52D2D2D2D2D2D2D2DE2E2E2E2E2E2E2E2E2E2E2E2E2E2E2E2E2E2F5F5F5F5F5F5F5F5F5F5F5F5F5F5F5F5F5F5F5F5F5F5F5F5F5F5F5F5F5F5F5F5F5F5F5F5F5F5F5F5F5F5F5F5F5F5F5F5F5F5F5F5F5F5F5F5F5F5
310
F5F5F5F5F5F5F5F5F5F5F5F5F5F5F5F5F5F5F5F5F5F5F5F5F5F5F5F5F5F5F5F5F5F5F5F5F5F5F5F5F5F5F5F5F5F5F5F5E2F5F5F5F5F5F5F5F5F5F5F5F5F5F5F5F5F5F5F5F5F5E2E2F5F5F5F5E2F5F5F5F5F5F5F5F5F5F5F5F5F5F5F5F5E2DCF5F5F5F5E2F5F5F5F5F5E2F5F5F5F5F5F5F5F5F5F5F5F5F5F5F5F5F5F5F5F5F5
310
F5F5F5F5F5F5F5F5F5F5F5F5F5F5F5F5F5F5F5F5F5F5F5F5F5F5F5F5F5F5F5F5F5F5F5F5F5F5F5F5F5F5F5F5F5F5F5F5F5F5F5F5F5F5F5F5F5F5F5F5F5F5F5F5F5F5F5F5F5F5F5F5F5F5F5F5F5F5F5F5F5F5F5F5F5F5F5F5F5F5F5F5F5F5F5F5F5F5F5F5F5E2F5F5F5F5F5F5F5F5F5F5F5F5F5F5F5F5E2F5F5F5F5E2E2F5F5
310
F5F5E2F5F5F5F5F5F5F5F5F5F5F5F5F5F5F5F5E2F5F5F5F5F5E2F5F5F5F5F5E2F5F5F5F5F5F5F5F5F5F5F5F5F5F5F5F5F5F5F5F5F5F5F5F5F5F5F5F5F5F5F5F5F5F5F5F5F5F5F5F5F5F5F5F5F5F5F5F5F5F5F5F5F5F5F5F5F5F5F5F5F5F5F5F5F5F5F5F5F5F5F5F5F5F5F5F5F5F5F5F5F5F5F5F5F5F5F5F5F5F5F5F5F5F5F5
310
F5F5F5F5F5F5F5F5F5F5F5F5F5F5F5F5F5F5F5F5F5F5F5F5F5F5F5E2F5F5F5F5F5F5F5F5F5F5F5F5F5F5F5F5E2F5F5F5F5E2E2F5F5F5F5E2F5F5F5F5F5F5F5F5F5F5F5F5F5F5F5F5E2F5F5F5F5F5E2F5F5F5F5F5E2F5F5F5F5F5F5F5F5F5F5F5F5F5F5F5F5F5F5F5F5F5F5F5F5F5F5F5F5F5F5F5F5F5F5F5F5F5F5F5F5F5F5
310
F5F5F5F5F5F5F5F5F5F5F5F5F5F5F5F5F5F5F5F5F5F5F5F5F5F5F5F5F5F5F5F5F5F5F5F5F5F5F5F5F5F5F5F5F5F5F5F5F5F5F5F5F5F5F5F5F5F5F5F5F5F5F5F5F5F5F5F5F5F5F5F5F5F5F5F5F5F5F5F5E2F5F5F5F5F5F5F5F5F5F5F5F5F5F5F5F5E2F5F5F5F5E2E2F5F5F5F5E2F5F5F5F5F5F5F5F5F5F5F5F5F5F5F5F5E2F5
310
F5F5F5F5E2F5F5F5F5F5E2F5F5F5F5F5F5F5F5F5F5F5F5F5F5F5F5F5F5F5F5F5F5F5F5F5F5F5F5F5F5F5F5F5F5F5F5F5F5F5F5F5F5F5F5F5F5F5F5F5F5F5F5F5F5F5F5F5F5F5F5F5F5F5F5F5F5F5F5F5F5F5F5F5F5F5F5F5F5F5F5F5F5F5F5F5F5F5F5F5F5F5F5F5F5F5F5F5F5F5F5F5F5F5F5F5F5F5F5F5F5F5F5F5F5F5F5
310
F5F5F5F5F5F5E2F5F5F5F5F5F5F5F5F5F5F5F5F5F5F5F5E2F5F5F5F5E2E2F5F5F5F5E2F5F5F5F5F5F5F5F5F5F5F5F5F5F5F5F5E2E2E2E2E2E2E2F5F5F5F5F5E2F5F5F5F5F5F5F5F5F5F5F5F5F5F5F5F5F5F5F5F5F5F5F5F5F5F5F5F5F5F5F5F5F5F5F5F5F5F5F5F5F5F5F5F5F5F5F5F5F5F5F5F5F5F5F5F5F5F5F5F5F5F5F5
310
F5F5F5F5F5F5F5F5F5F5F5F5F5F5F5F5F5F5F5F5F5F5F5F5F5F5F5F5F5F5F5F5F5F5F5F5F5F5F5F5F5F5F5F5F5F5F5F5F5F5F5F5F5F5F5F5F5F5F5E2F5F5F5F5F5F5F5F5F5F5F5F5F5F5F5F5E2F5F5F5F5E2E2F5F5F5F5E2F5F5F5F5F5F5F5F5F5F5F5F5F5F5F5F5E2E2E2E2F5E2E2F5F5F5F5F5E2F5F5F5F5F5F5F5F5F5F5
310
F5F5F5F5F5F5F5F5F5F5F5F5F5F5F5F5F5F5F5F5F5F5F5F5F5F5F5F5F5F5F5F5F5F5F5F5F5F5F5F5F5F5F5F5F5F5F5F5F5F5F5F5F5F5F5F5F5F5F5F5F5F5F5F5F5F5F5F5F5F5F5F5F5F5F5F5F5F5F5F5F5F5F5F5F5F5F5F5F5F5F5F5F5F5F5F5F5F5F5F5F5F5F5F5F5F5F5F5F5F5F5F5E2F5F5F5F5F5F5F5F5F5F5F5F5F5F5
310
F5F5E2F5F5F5F5E2E2F5F5F5F5E2F5F5F5F5F5F5F5F5F5F5F5F5F5F5F5F5E2E2E2E2F5F5F5F5F5F5F5F5E2F5F5F5F5F5F5F5F5F5F5F5F5F5F5F5F5F5F5F5F5F5F5F5F5F5F5F5F5F5F5F5F5F5F5F5F5F5F5F5F5F5F5F5F5F5F5F5F5F5F5F5F5F5F5F5F5F5F5F5F5F5F5F5F5F5F5F5F5F5F5F5F5F5F5F5F5F5F5F5F5F5F5F5F5
310
F5F5F5F5F5F5F5F5F5F5F5F5F5F5F5F5F5F5F5F5F5F5F5F5F5F5F5F5F5F5F5F5F5F5F5F5F5F5E2F5F5F5F5F5F5F5F5F5F5F5F5F5F5F5F5E2F5F5F5F5E2E2F5F5F5F5E2F5F5F5F5F5F5F5F5F5F5F5F5F5F5F5F5E2F5F5F5F5F5F5F5F5F5F5F5E2F5F5F5F5F5F5F5F5F5F5F5F5F5F5F5F5F5F5F5F5F5F5F5F5F5F5F5F5F5F5F5
310
F5F5F5F5F5F5F5F5F5F5F5F5F5F5F5F5F5F5F5F5F5F5F5F5F5F5F5F5F5F5F5F5F5F5F5F5F5F5F5F5F5F5F5F5F5F5F5F5F5F5F5F5F5F5F5F5F5F5F5F5F5F5F5F5F5F5F5F5F5F5F5F5F5F5F5F5F5F5F5F5F5F5F5F5F5F5F5F5F5F5F5E2F5F5F5F5F5F5F5F5F5F5F5F5F5F5F5F5E2F5F5F5F5E2E2F5F5F5F5E2F5F5F5F5F5F5F5
310
F5F5F5F5F5F5F5F5F5E2E2E2E2E2E2E2E2E2E2E2E2E2F5F5F5F5F5F5F5F5F5F5F5F5F5F5F5F5F5F5F5F5F5F5F5F5F5F5F5F5F5F5F5F5F5F5F5F5F5F5F5F5F5F5F5F5F5F5F5F5F5F5F5F5F5F5F5F5F5F5F5F5F5F5F5F5F5F5F5F5F5F5F5F5F5F5F5F5F5F5F5F5F5F5F5F5F5F5F5F5F5F5F5F5F5F5F5F5F5F5F5F5F5F5F5F5F5
310
F5F5F5F5F5F5F5F5F5F5F5F5F5F5F5F5F5E2F5F5F5F5F5F5F5F5F5F5F5F5F5F5F5F5E2F5F5F5F5E2E2F5F5F5F5E2F5F5F5F5F5F5F5F5F5F5F5F5F5F5F5F5E2E2E2F5F5F5F5F5F5F5F5F5F5F5F5F5F5F5F5F5F5F5F5F5F5F5F5F5F5F5F5F5F5F5F5F5F5F5F5F5F5F5F5F5F5F5F5F5F5F5F5F5F5F5F5F5F5F5F5F5F5F5F5F5F5
310
F5F5F5F5F5F5F5F5F5F5F5F5F5F5F5F5F5F5F5F5F5F5F5F5F5F5F5F5F5F5F5F5F5F5F5F5F5F5F5F5F5F5F5F5F5F5F5F5F5F5F5F5F5F5F5F5F5F5F5F5F5F5F5F5F5F5F5F5F5F5E2F5F5F5F5F5F5F5F5F5F5F5F5F5F5F5F5E2F5F5F5F5E2E2F5F5F5F5E2F5F5F5F5F5F5F5F5F5F5F5F5F5F5F5F5E2E2E2F5F5F5F5F5F5F5F5F5
310
F5F5F5F5F5F5F5F5F5F5F5F5F5F5F5F5F5F5F5F5F5F5F5F5F5F5F5F5F5F5F5F5F5F5F5F5F5F5F5F5F5F5F5F5F5F5F5F5F5F5F5F5F5F5F5F5F5F5F5F5F5F5F5F5F5F5F5F5F5F5F5F5F5F5F5F5F5F5F5F5F5F5F5F5F5F5F5F5F5F5F5F5F5F5F5F5F5F5F5F5F5F5F5F5F5F5F5F5F5F5F5F5F5F5F5F5F5F5F5F5F5F5F5E2F5F5F5
310
F5F5F5F5F5F5F5F5F5F5F5F5F5E2F5F5F5F5E2E2F5F5F5F5E2F5F5F5F5F5F5F5F5F5F5F5F5F5F5F5F5E2F5F5F5F5F5F5F5F5F5F5F5F5F5F5F5F5F5F5F5F5F5F5F5F5F5F5F5F5F5F5F5F5F5F5F5F5F5F5F5F5F5F5F5F5F5F5F5F5F5F5F5F5F5F5F5F5F5F5F5F5F5F5F5F5F5F5F5F5F5F5F5F5F5F5F5F5F5F5F5F5F5F5F5F5F5
310
F5F5F5F5F5F5F5F5F5F5F5F5F5F5F5F5F5F5F5F5F5F5F5F5F5F5F5F5F5F5F5F5F5F5F5F5F5F5F5F5F5F5F5F5F5F5F5F5F5E2F5F5F5F5F5F5F5F5F5F5F5F5F5F5F5F5E2F5F5F5F5E2E2F5F5F5F5E2F5F5F5F5F5F5F5F5F5F5F5F5F5F5F5F5E2F5F5F5F5F5F5F5F5F5F5F5F5F5F5F5F5F5F5F5F5F5F5F5F5F5F5F5F5F5F5F5F5
310
F5F5F5F5F5F5F5F5F5F5F5F5F5F5F5F5F5F5F5F5F5F5F5F5F5F5F5F5F5F5F5F5F5F5F5F5F5F5F5F5F5F5F5F5F5F5F5F5F5F5F5F5F5F5F5F5F5F5F5F5F5F5F5F5F5F5F5F5F5F5F5F5F5F5F5F5F5F5F5F5F5F5F5F5F5F5F5F5F5F5F5F5F5F5F5F5F5F5F5F5F5F5E2F5F5F5F5F5F5F5F5F5F5F5F5F5F5F5F5E2F5F5F5F5E2E2F5
310
F5F5F5E2F5F5F5F5F5F5F5F5F5F5F5F5F5F5F5F5E20F0F0F0F0F0F0F0F0F0F0FF5F5F5F5F5F5F5F5F5F5F5F5F5F5F5F5F5F5F5F5F5F5F5F5F5F5F5F5F5F5F5F5F5F5F5F5F5F5F5F5F5F5F5F5F5F5F5F5F5F5F5F5F5F5F5F5F5F5F5F5F5F5F5F5F5F5F5F5F5F5F5F5F5F5F5F5F5F5F5F5F5F5F5F5F5F5F5F5F5F5F5F5F5F5F5
310
F5F5F5F5F5F5F5F5F5F5F5F5F5F5F5F5F5F5F5F5F5F5F5F5F5F5F5F5E2F5F5F5F5F5F5F5F5F5F5F5F5F5F5F5F5E2F5F5F5F5E2E2F5F5F5F5E2F5F5F5F5F5F5F5F5F5F5F5F5F5F5F5F5E20F0F0F0F0F0F0F0F0F0F0FF5F5F5F5F5F5F5F5F5F5F5F5F5F5F5F5F5F5F5F5F5F5F5F5F5F5F5F5F5F5F5F5F5F5F5F5F5F5F5F5F5F5
310
F5F5F5F5F5F5F5F5F5F5F5F5F5F5F5F5F5F5F5F5F5F5F5F5F5F5F5F5F5F5F5F5F5F5F5F5F5F5F5F5F5F5F5F5F5F5F5F5F5F5F5F5F5F5F5F5F5F5F5F5F5F5F5F5F5F5F5F5F5F5F5F5F5F5F5F5F5F5F5F5F5E2F5F5F5F5F5F5F5F5F5F5F5F5F5F5F5F5E2F5F5F5F5E2E2F5F5F5F5E2F5F5F5F5F5F5F5F5F5F5F5F5F5F5F5F5E2
310
0F0F0F0F0F0F0F0F0F0FF5F5F5F5F5F5F5F5F5F5F5F5F5F5F5F5F5F5F5F5F5F5F5F5F5F5F5F5F5F5F5F5F5F5F5F5F5F5F5F5F5F5F5F5F5F5F5F5F5F5F5F5F5F5F5F5F5F5F5F5F5F5F5F5F5F5F5F5F5F5F5F5F5F5F5F5F5F5F5F5F5F5F5F5F5F5F5F5F5F5F5F5F5F5F5F5F5F5F5F5F5F5F5F5F5F5F5F5F5F5F5F5F5F5F5F5F5
310
F5F5F5F5F5F5F5E2F5F5F5F5F5F5F5F5F5F5F5F5F5F5F5F5E2F5F5F5F5E2E2F5F5F5F5E2F5F5F5F5F5F5F5F5F5F5F5F5F5F5F5F5E2F5F5F5F5F5F5F5F5F5F5F5F5F5F5F5F5F5F5F5F5F5F5F5F5F5F5F5F5F5F5F5F5F5F5F5F5F5F5F5F5F5F5F5F5F5F5F5F5F5F5F5F5F5F5F5F5F5F5F5F5F5F5F5F5F5F5F5F5F5F5F5F5F5F5
310
F5F5F5F5F5F5F5F5F5F5F5F5F5F5F5F5F5F5F5F5F5F5F5F5F5F5F5F5F5F5F5F5F5F5F5F5F5F5F5F5F5F5F5F5F5F5F5F5F5F5F5F5F5F5F5F5F5F5F5F5E2F5F5F5F5F5F5F5F5F5F5F5F5F5F5F5F5E2F5F5F5F5E2E2F5F5F5F5F5F5F5F5F5F5F5F5F5F5F5F5F5F5F5F5F5E2F5F5F5F5F5F5F5F5F5F5F5F5F5F5F5F5F5F5F5F5F5
310
F5F5F5F5F5F5F5F5F5F5F5F5F5F5F5F5F5F5F5F5F5F5F5F5F5F5F5F5F5F5F5F5F5F5F5F5F5F5F5F5F5F5F5F5F5F5F5F5F5F5F5F5F5F5F5F5F5F5F5F5F5F5F5F5F5F5F5F5F5F5F5F5F5F5F5F5F5F5F5F5F5F5F5F5F5F5F5F5F5F5F5F5F5F5F5F5F5F5F5F5F5F5F5F5F5F5F5F5F5F5F5F5F5E2F5F5F5F5F5F5F5F5F5F5F5F5F5
310
F5F5F5F5F5F5F5F5E2E2F5F5F5F5F5F5F5F5F5F5F5F5F5F5F5F5F5F5F5F5F5E2F5F5F5F5F5F5F5F5F5F5F5F5F5F5F5F5F5F5F5F5F5F5F5F5F5F5F5F5F5F5F5F5F5F5F5F5F5F5F5F5F5F5F5F5F5F5F5F5F5F5F5F5F5F5F5F5F5F5F5F5F5F5F5F5F5F5F5F5F5F5F5F5F5F5F5F5F5F5F5F5F5F5F5F5F5F5F5F5F5F5F5F5F5F5F5
310
F5F5F5F5F5F5F5F5F5F5F5F5F5F5F5F5F5F5F5F5F5F5F5F5F5F5F5F5F5F5F5F5F5F5F5F5F5F5F5E2F5F5F5F5F5F5F5F5F5F5F5F5F5F5F5F5F5F5F5F5F5E2E2F5F5F5F5F5F5F5F5F5F5F5F5F5F5F5F5F5F5F5F5F5E2F5F5F5F5F5F5F5F5F5F5F5F5F5F5F5F5F5F5F5F5F5F5F5F5F5F5F5F5F5F5F5F5F5F5F5F5F5F5F5F5F5F5
310
F5F5F5F5F5F5F5F5F5F5F5F5F5F5F5F5F5F5F5F5F5F5F5F5F5F5F5F5F5F5F5F5F5F5F5F5F5F5F5F5F5F5F5F5F5F5F5F5F5F5F5F5F5F5F5F5F5F5F5F5F5F5F5F5F5F5F5F5F5F5F5F5F5F5F5F5F5F5F5F5F5F5F5F5F5F5F5F5F5F5F5F5E2F5F5F5F5F5F5F5F5F5F5F5F5F5F5F5F5F5F5F5F5F5E2E2F5F5F5F5F5F5F5F5F5F5F5
310
F5F5F5F5F5F5F5F5F5F5E2F5F5F5F5F5F5F5F5F5F5F5F5F5F5F5F5F5F5F5F5F5F5F5F5F5F5F5F5F5F5F5F5F5F5F5F5F5F5F5F5F5F5F5F5F5F5F5F5F5F5F5F5F5F5F5F5F5F5F5F5F5F5F5F5F5F5F5F5F5F5F5F5F5F5F5F5F5F5F5F5F5F5F5F5F5F5F5F5F5F5F5F5F5F5F5F5F5F5F5F5F5F5F5F5F5F5F5F5F5F5F5F5F5F5F5F5
310
F5F5F5F5F5F5F5F5F5F5F5F5F5F5F5F5F5F5E2F5F5F5F5F5F5F5F5F5F5F5F5F5F5F5F5F5F5F5F5F5E2E2F5F5F5F5F5F5F5F5F5F5F5F5F5F5F5F5F5F5F5F5F5E2F5F5F5F5F5F5F5F5F5F5F5F5F5F5F5F5F5F5F5F5F5F5F5F5F5F5F5F5F5F5F5F5F5F5F5F5F5F5F5F5F5F5F5F5F5F5F5F5F5F5F5F5F5F5F5F5F5F5F5F5F5F5F5
310
F5F5F5F5F5F5F5F5F5F5F5F5F5F5F5F5F5F5F5F5F5F5F5F5F5F5F5F5F5F5F5F5F5F5F5F5F5F5F5F5F5F5F5F5F5F5F5F5F5F5F5F5F5F5F5F5F5F5F5F5F5F5F5F5F5F5F5F5F5F5F5E2F5F5F5F5F5F5F5F5F5F5F5F5F5F5F5F5F5F5F5F5F5E2E2F5F5F5F5F5F5F5F5F5F5F5F5F5F5F5F5F5F5F5F5F5E2F5F5F5F5F5F5F5F5F5F5
310
F5F5F5F5F5F5F5F5F5F5F5F5F5F5F5F5F5F5F5F5F5F5F5F5F5F5F5F5F5F5F5F5F5F5F5F5F5F5F5F5F5F5F5F5F5F5F5F5F5F5F5F5F5F5F5F5F5F5F5F5F5F5F5F5F5F5F5F5F5F5F5F5F5F5F5F5F5F5F5F5F5F5F5F5F5F5F5F5F5F5F5F5F5F5F5F5F5F5F5F5F5F5F5F5F5F5F5F5F5F5F5F5F5F5F5F5F5F5F5F5F5F5F5F5E2F5F5
310
F5F5F5F5F5F5F5F5F5F5F5F5F5F5F5F5F5F5F5E2E2F5F5F5F5F5F5F5F5F5F5F5F5F5F5F5F5F5F5F5F5F5E2F5F5F5F5F5F5F5F5F5F5F5F5F5F5F5F5F5F5F5F5F5F5F5F5F5F5F5F5F5F5F5F5F5F5F5F5F5F5F5F5F5F5F5F5F5F5F5F5F5F5F5F5F5F5F5F5F5F5F5F5F5F5F5F5F5F5F5F5F5F5F5F5F5F5F5F5F5F5F5F5F5F5F5F5
310
F5F5F5F5F5F5F5F5F5F5F5F5F5F5F5F5F5F5F5F5F5F5F5F5F5F5F5F5F5F5F5F5F5F5F5F5F5F5F5F5F5F5F5F5F5F5F5F5F5F5E2F5F5F5F5F5F5F5F5F5F5F5F5F5F5F5F5F5F5F5F5F5E2E2F5F5F5F5F5F5F5F5F5F5F5F5F5F5F5F5F5F5F5F5F5E2F5F5F5F5F5F5F5F5F5F5F5F5F5F5F5F5F5F5F5F5F5F5F5F5F5F5F5F5F5F5F5
310
F5F5F5F5F5F5F5F5F5F5F5F5F5F5F5F5F5F5F5F5F5F5F5F5F5F5F5F5F5F5F5F5F5F5F5F5F5F5F5F5F5F5F5F5F5F5F5F5F5F5F5F5F5F5F5F5F5F5F5F5F5F5F5F5F5F5F5F5F5F5F5F5F5F5F5F5F5F5F5F5F5F5F5F5F5F5F5F5F5F5F5F5F5F5F5F5F5F5F5F5F5F5F5E2F5F5F5F5F5F5F5F5F5F5F5F5F5F5F5F5F5F5F5F5F5E2E2
310
F5F5F5F5F5F5F5F5F5F5F5F5F5F5F5F5F5F5F5F5F5E2F5F5F5F5F5F5F5F5F5F5F5F5F5F5F5F5F5F5F5F5F5F5F5F5F5F5F5F5F5F5F5F5F5F5F5F5F5F5F5F5F5F5F5F5F5F5F5F5F5F5F5F5F5F5F5F5F5F5F5F5F5F5F5F5F5F5F5F5F5F5F5F5F5F5F5F5F5F5F5F5F5F5F5F5F5F5F5F5F5F5F5F5F5F5F5F5F5F5F5F5F5F5F5F5F5
310
F5F5F5F5F5F5F5F5F5F5F5F5F5F5F5F5F5F5F5F5F5F5F5F5F5F5F5F5F5E2F5F5F5F5F5F5F5F5F5F5F5F5F5F5F5F5F5F5F5F5F5E2E2F5F5F5F5E2F5F5F5F5F5F5F5F5F5F5F5F5F5F5F5F5E2F5F5F5F5F5F5F5F5F5F5F5F5F5F5F5F5F5F5F5F5F5F5F5F5F5F5F5F5F5F5F5F5F5F5F5F5F5F5F5F5F5F5F5F5F5F5F5F5F5F5F5F5
310
F5F5F5F5F5F5F5F5F5F5F5F5F5F5F5F5F5F5F5F5F5F5F5F5F5F5F5F5F5F5F5F5F5F5F5F5F5F5F5F5F5F5F5F5F5F5F5F5F5E2F0E2E2F5F5F5F5F5F5E2F0E2E2F5DCF5F5F5F5F5F5F0F0E2F5F5F5F5F5F5F5F5E2F5F5F5F5F5F5F5F5F5F5F5F5F5F5F5F5E2F5F5F5F5E2E2F5F5F5F5E2F5F5F5F5F5F5F5F5F5F5F5F5F5F5F5F5
310
E2F5F5F5F5F5F5F5F5F5F5F5F5F5F5F5F5F5F5F5F5F5F5F5F5F5F5F5F5F5F5F5F5F5F5F5F5F5F5F5F5F5F5F5F5F5F5F5F5F5F5F5F5F5F5F5F5F5F5F5F5F5F5F5F5F5F5F5F5F5F5F5F5F5F5F5F5F5F5F5F5F5F5F5F5F5F5F5F5F5F5F5F5F5F5F5F5F5F5F5F5E2DCDCF0F5E2F5F5F5F5F5E2F5F0E2E2DCF5F5F5F5F5E2F0F0F5
310
E2F5F5F5E2E2E2F5E2F5F5F5F5F5F5F5F5F5F5F5F5F5F5F5F5E2F5F5F5F5E2E2F5F5F5F5E2F5F5F5F5F5F5F5F5F5F5F5F5F5F5F5F5E2F5F5F5F5F5F5F5F5F5F5F5F5F5F5F5F5F5F5F5F5F5F5F5F5F5F5F5F5F5F5F5F5F5F5F5F5F5F5F5F5F5F5F5F5F5F5F5F5F5F5F5F5F5F5F5F5F5F5F5F5F5F5F5F5F5F5F5F5F5F5F5F5F5
310
F5F5F5F5F5F5F5F5F5F5F5F5F5F5F5F5F5F5F5F5F5F5F5F5F5F5E2F0DCF0DCE2E2E2F5F5F5E2E2F0F0F0E2DCF5F5F5F5E2F0F0F0E2E2F0E2E2E2E2E2E2E2F5F5F5F5F5F5F5F5F5F5F5F5F5F5F5F5E2F5F5F5F5E2E2F5F5F5F5E2F5F5F5F5F5F5F5F5F5F5F5F5F5F5F5F5E2F5F5F5F5F5F5F5F5F5F5F5F5F5F5F5F5F5F5F5F5
310
F5F5F5F5F5F5F5F5F5F5F5F5F5F5F5F5F5F5F5F5F5F5F5F5F5F5F5F5F5F5F5F5F5F5F5F5F5F5F5F5F5F5F5F5F5F5F5F5F5F5F5F5F5F5F5F5F5F5F5F5F5F5F5F5F5F5F5F5F5F5F5F5F5F5F5F5F5F5F5E2F0DCF0DCF0F0E2F5F5F5E2F0DCE2E2E2DCF5F5F5F5F0F0F0F0E2E2F0E2F5E2E2E2E2E2F5F5F5F5F5F5F5F5F5F5F5F5
310
F5F5F5F5E2F5F5F5F5E2E2F5F5F5F5E2F5F5F5F5F5F5F5F5F5F5F5F5F5F5F5F5E2F5F5F5F5F5F5F5F5F5F5F5F5F5F5F5F5F5F5F5F5F5F5F5F5F5F5F5F5F5F5F5F5F5F5F5F5F5F5F5F5F5F5F5F5F5F5F5F5F5F5F5F5F5F5F5F5F5F5F5F5F5F5F5F5F5F5F5F5F5F5F5F5F5F5F5F5F5F5F5F5F5F5F5F5F5F5F5F5F5F5F5F5F5F5
310
F5F5F5F5F5F5E2DCDCDCF0E2F5F5F5F5F5F0DCDCE2E2DCF5F5F5F5F5F0F0F0DCE2F0F5E2E2E2E2F5E2F5F5F5F5F5F5F5F5F5F5F5F5F5F5F5F5E2F5F5F5F5E2E2F5F5F5F5E2F5F5F5F5F5F5F5F5F5F5F5F5F5F5F5F5E2F5F5F5F5F5F5F5F5F5F5F5F5F5F5F5F5F5F5F5F5F5F5F5F5F5F5F5F5F5F5F5F5F5F5F5F5F5F5F5F5F5
310
F5F5F5F5F5F5F5F5F5F5F5F5F5F5F5F5F5F5F5F5F5F5F5F5F5F5F5F5F5F5F5F5F5F5F5F5F5F5F5F5F5F5F5F5F5F5F5F5F5F5F5F5F5F5F5F5F5F5F5E2F0F0F0E2F5F5F5F5F5E2F0E2E2E2E2DCF5F5F5F5F5F0F0E2E2F5F5F5F5E2E2E2F5E2F5F5F5F5F5F5F5F5F5F5F5F5F5F5F5F5E2F5F5F5F5E2E2F5F5F5F5E2F5F5F5F5F5
310
F5F5F5F5F5F5F5F5F5F5F5E2F5F5F5F5F5F5F5F5F5F5F5F5F5F5F5F5F5F5F5F5F5F5F5F5F5F5F5F5F5F5F5F5F5F5F5F5F5F5F5F5F5F5F5F5F5F5F5F5F5F5F5F5F5F5F5F5F5F5F5F5F5F5F5F5F5F5F5F5F5F5F5F5F5F5F5F5F5F5F5F5F5F5F5F5F5F5F5F5F5F5F5F5F5F5F5F5F5F5F5F5F5F5E2E2F5F5F5F5F5F5F5F5E2E2F5
310
F5DCF5F5F5F5F5F5F5F0E2F5F5F5F5F5E2F5F5E2F5F5F5F5F5F5F5F5F5F5F5F5F5F5F5F5E2F5F5F5F5E2E2F5F5F5F5E2F5F5F5F5F5F5F5F5F5F5F5F5F5F5F5F5E2F5F5F5F5F5F5F5F5F5F5F5F5F5F5F5F5F5F5F5F5F5F5F5F5F5F5F5F5F5F5F5F5F5F5F5F5F5F5F5F5F5F5F5F5F5F5F5F5F5F5F5F5F5F5F5F5F5F5F5F5F5F5
310
F5F5F5F5F5F5F5F5F5F5F5F5F5F5F5F5F5F5F5F5F5F5F5F5F5F5F5F5F5F5F5F5F5F5F5F5F5F5F5F5F5F5F5F5F5F5F5F5F5F5F5F5F5F5DCF5F5F5F5F5F5F5F5F5F5F5F5F5F5F5F5F5E2F5F5F5F5F5F5F5F5F5F5F5F5F5F5F5F5E2F5F5F5F5E2E2F5F5F5F5E2F5F5F5F5F5F5F5F5F5F5F5F5F5F5F5F5E2F5F5F5F5F5F5F5F5F5
310
F5F5F5F5F5F5F5F5F5F5F5F5F5F5F5F5F5F5F5F5F5F5F5F5F5F5F5F5F5F5F5F5F5F5F5F5F5F5F5F5F5F5F5F5F5F5F5F5F5F5F5F5F5F5F5F5F5F5F5F5F5F5F5F5F5F5F5F5F5F5F5F5F5F5F5F5F5F5F5F5F5F5F5F5F5F5F5F5F5F5F5F5F5F5F5F5F5F5F5F5F5F5F5F5F5F5F5DCF5F5F5F5F5F5F5F5F5F5F5F5F5F5F5F5F5E2F5
310
F5F5F5F5F5F5F5F5F5F5F5F5F5F5F5E2F5F5F5F5E2E2F5F5F5F5E2F5F5F5F5F5F5F5F5F5F5F5F5F5F5F5F5E2F5F5F5F5F5F5F5F5F5F5F5F5F5F5F5F5F5F5F5F5F5F5F5F5F5F5F5F5F5F5F5F5F5F5F5F5F5F5F5F5F5F5F5F5F5F5F5F5F5F5F5F5F5F5F5F5F5F5F5F5F5F5F5F5F5F5F5F5F5F5F5F5F5F5F5F5F5F5F5F5F5F5F5
310
F5F5F5F5F5F5F5F5F5F5F5F5F5F5F5F5F5F5F5F5F5F5F5F5F5F5F5F5F5F5F5F5F5DCF5F5F5F5F5F5F5F5F5F5F5F5F5F5F5F5F5E2F5F5F5F5F5F5F5F5F5F5F5F5F5F5F5F5E2F5F5F5F5E2E2F5F5F5F5E2F5F5F5F5F5F5F5F5F5F5F5F5F5F5F5F5E2F5F5F5F5F5F5F5F5F5F5F5F5F5F5F5F5F5F5F5F5F5F5F5F5F5F5F5F5F5F5
310
F5F5F5F5F5F5F5F5F5F5F5F5F5F5F5F5F5F5F5F5F5F5F5F5F5F5F5F5F5F5F5F5F5F5F5F5F5F5F5F5F5F5F5F5F5F5F5F5F5F5F5F5F5F5F5F5F5F5F5F5F5F5F5F5F5F5F5F5F5F5F5F5F5F5F5F5F5F5F5F5F5F5F5F5F5F5DCF5F5F5F5F5F5F5F5F5F5F5F5F5F5F5F5F5E2F5F5F5F5F5F5F5F5F5F5F5F5F5F5F5F5E2F5F5F5F5E2
310
E2F5F5F5F5E2F5F5F5F5F5F5F5F5F5F5F5F5F5F5F5F5E2F5F5F5F5F5F5F5F5F5F5F5F5F5F5F5F5F5F5F5F5F5F5F5F5F5F5F5F5F5F5F5F5F5F5F5F5F5F5F5F5F5F5F5F5F5F5F5F5F5F5F5F5F5F5F5F5F5F5F5F5F5F5F5F5F5F5F5F5F5F5F5F5F5F5F5F5F5F5F5F5F5F5F5F5F5F5F5F5F5F5F5F5F5F5F5F5F5F5F5F5F5F5F5F5
310
F5F5F5F5F5F5F5F5F5F5F5F5DCF5F5F5F5F5F5F5F5F5F5F5F5F5F5F5F5F5E2F5F5F5F5F5F5F5F5F5F5F5F5F5F5F5F5E2F5F5F5F5E2E2F5F5F5F5E2F5F5F5F5F5F5F5F5F5F5F5F5F5F5F5F5E2F5F5F5F5F5F5F5F5F5F5F5F5F5F5F5F5F5F5F5F5F5F5F5F5F5F5F5F5F5F5F5F5F5F5F5F5F5F5F5F5F5F5F5F5F5F5F5F5F5F5F5
310
F5F5F5F5F5F5F5F5F5F5F5F5F5F5F5F5F5F5F5F5F5F5F5F5F5F5F5F5F5F5F5F5F5F5F5F5F5F5F5F5F5F5F5F5F5F5F5F5F5F5F5F5F5F5F5F5F5F5F5F5F5F5F5F5F5DCF5F5F5F5F5F5F5F5F5F5F5F5F5F5F5F5F5E2F5F5F5F5F5F5F5F5F5F5F5F5F5F5F5F5E2F5F5F5F5E2E2F5F5F5F5E2F5F5F5F5F5F5F5F5F5F5F5F5F5F5F5
310
F5E2F5F5F5F5F5F5F5F5F5F5F5F5F5F5F5F5F5F5F5F5F5F5F5F5F5F5F5F5F5F5F5F5F5F5F5F5F5F5F5F5F5F5F5F5F5F5F5F5F5F5F5F5F5F5F5F5F5F5F5F5F5F5F5F5F5F5F5F5F5F5F5F5F5F5F5F5F5F5F5F5F5F5F5F5F5F5F5F5F5F5F5F5F5F5F5F5F5F5F5F5F5F5F5F5F5F5F5F5F5F5F5F5F5F5F5F5DCF5F5F5F5F5F5F5F5
310
F5F5F5F5F5F5F5F5F5E2F5F5F5F5F5F5F5F5F5F5F5F5F5F5F5F5E2F5F5F5F5E2E2F5F5F5F5E2F5F5F5F5F5F5F5F5F5F5F5F5F5F5F5F5E2F5F5F5F5F5F5F5F5F5F5F5F5F5F5F5F5F5F5F5F5F5F5F5F5F5F5F5F5F5F5F5F5F5F5F5F5F5F5F5F5F5F5F5F5F5F5F5F5F5F5F5F5F5F5F5F5F5F5F5F5F5F5F5F5F5F5F5F5F5F5F5F5
310
F5F5F5F5F5F5F5F5F5F5F5F5F5F5F5F5F5F5F5F5F5F5F5F5F5F5F5F5F5F5F5F5F5F5F5F5F5F5F5F5F5F5E2E2DCE2F5F5F5F5F5F5F5F5F5F5F5F5F5F5F5F5E2F5F5F5F5F5F5F5F5F5F5F5F5F5F5F5F5E2F5F5F5F5E2E2F5F5F5F5E2F5F5F5F5F5F5F5F5F5F5F5F5F5F5F5F5E2F5F5F5F5F5F5F5F5F5F5F5F5F5F5F5F5F5F5F5
310
F5F5F5F5F5F5F5F5F5F5F5F5F5F5F5F5F5F5F5F5F5F5F5F5F5F5F5F5F5F5F5F5F5F5F5F5F5F5F5F5F5F5F5F5F5F5F5F5F5F5F5F5F5F5F5F5F5F5F5F5F5F5F5F5F5F5F5F5F5F5F5F5F5F5F5F5F5F5F5F5F5F5F5F5F5F5F5F5F5F5F5F5F5F5F5F5F5DCF5F5F5F5F5F5F5F5F5F5F5F5F5F5F5F5F5E2F5F5F5F5F5F5F5F5F5F5F5
310
F5F5F5F5F5E2F5F5F5F5E2E2F5F5F5F5E2F5F5F5F5F5F5F5F5F5F5F5F5F5F5F5F5E2F5F5F5F5F5F5F5F5F5F5F5F5F5F5F5F5F5F5F5F5F5F5F5F5F5F5F5F5F5F5F5F5F5F5F5F5F5F5F5F5F5F5F5F5F5F5F5F5F5F5F5F5F5F5F5F5F5F5F5F5F5F5F5F5F5F5F5F5F5F5F5F5F5F5F5F5F5F5F5F5F5F5F5F5F5F5F5F5F5F5F5F5F5
310
F5F5F5F5F5F5F5F5F5F5F5F5F5F5F5F5F5F5F5F5F5F5F5DCF5F5F5F5F5F5F5F5F5F5F5F5F5F5F5F5F5E2F5F5F5F5F5F5F5F5F5F5F5F5F5F5F5F5E2F5F5F5F5E2E2F5F5F5F5F5F5F5F5F5F5F5F5F5F5F5F5F5F5F5F5F5E2F5F5F5F5F5F5F5F5F5F5F5F5F5F5F5F5F5F5F5F5F5F5F5F5F5F5F5F5F5F5F5F5F5F5F5F5F5F5F5F5
310
F5F5F5F5F5F5F5F5F5F5F5F5F5F5F5F5F5F5F5F5F5F5F5F5F5F5F5F5F5F5F5F5F5F5F5F5F5F5F5F5F5F5F5F5F5F5F5F5F5F5F5F5F5F5F5F5F5F5F5F5F5F5F5F5F5F5F5F5F5F5F5F5F5F5F5F5DCF5F5F5F5F5F5F5F5F5F5F5F5F5F5F5F5F5E2F5F5F5F5F5F5F5F5F5F5F5F5F5F5F5F5F5F5F5F5F5E2E2F5F5F5F5F5F5F5F5F5
310
F5F5F5F5F5F5F5F5F5F5F5F5E2F5F5F5F5F5F5F5F5F5F5F5F5F5F5F5F5F5F5F5F5F5F5F5F5F5F5F5F5F5F5F5F5F5F5F5F5F5F5F5F5F5F5F5F5F5F5F5F5F5F5F5F5F5F5F5F5F5F5F5F5F5F5F5F5F5F5F5F5F5F5F5F5F5F5F5F5F5F5F5F5F5F5F5F5F5F5F5F5F5F5F5F5F5F5F5F5F5F5F5F5F5F5F5F5F5F5F5F5F5F5F5F5F5F5
310
F5F5F5F5F5F5F5F5F5F5F5F5F5F5F5F5F5F5F5F5E2F5F5F5F5F5F5F5F5F5F5F5F5F5F5F5F5F5F5F5F5F5E2E2F5F5F5F5F5F5F5F5F5F5F5F5F5F5F5F5F5F5F5F5F5E2F5F5F5F5F5F5F5F5F5F5F5F5F5F5F5F5F5F5F5F5F5F5F5F5F5F5F5F5F5F5F5F5F5F5F5F5F5F5F5F5F5F5F5F5F5F5F5F5F5F5F5F5F5F5F5F5F5F5F5F5F5
310
F5F5F5F5F5F5F5F5F5F5F5F5F5F5F5F5F5F5F5F5F5F5F5F5F5F5F5F5F5F5F5F5F5F5F5F5F5F5F5F5F5F5F5F5F5F5F5F5F5F5F5F5F5F5F5F5F5F5F5F5F5F5F5F5F5F5F5F5F5F5F5F5F5E2F5F5F5F5F5F5F5F5F5F5F5F5F5F5F5F5F5F5F5F5F5E2E2F5F5F5F5F5F5F5F5F5F5F5F5F5F5F5F5F5F5F5F5F5E2F5F5F5F5F5F5F5F5
310
F5F5F5F5F5F5F5F5F5F5F5F5F5F5F5F5F5F5F5F5F5F5F5F5F5F5F5F5F5F5F5F5F5F5F5F5F5F5F5F5F5F5F5F5F5F5F5F5F5F5F5F5F5F5F5F5F5F5F5F5F5F5F5F5F5F5F5F5F5F5F5F5F5F5F5F5F5F5F5F5F5F5F5F5F5F5F5F5F5F5F5F5F5F5F5F5F5F5F5F5F5F5F5F5F5F5F5F5F5F5F5F5F5F5F5F5F5F5F5F5F5F5F5F5F5F5E2
310
F5F5F5F5F5F5F5F5F5F5F5F5F5F5F5F5F5F5F5F5F5E2E2F5F5F5F5F5F5F5F5F5F5F5F5F5F5F5F5F5F5F5F5F5E2F5F5F5F5F5F5F5F5F5F5F5F5F5F5F5F5F5F5F5F5F5F5F5F5F5F5F5F5F5F5F5F5F5F5F5F5F5F5F5F5F5F5F5F5F5F5F5F5F5F5F5F5F5F5F5F5F5F5F5F5F5F5F5F5F5F5F5F5F5F5F5F5F5F5F5F5F5F5F5F5F5F5
310
F5F5F5F5F5F5F5F5F5F5F5F5F5F5F5F5F5F5F5F5F5F5F5F5F5F5F5F5F5F5F5F5F5F5F5F5F5F5F5F5F5F5F5F5F5F5F5F5F5F5F5F5E2F5F5F5F5F5F5F5F5F5F5F5F5F5F5F5F5F5F5F5F5F5E2E2F5F5F5F5F5F5F5F5F5F5F5F5F5F5F5F5F5F5F5F5F5E2F5F5F5F5F5F5F5F5F5F5F5F5F5F5F5F5F5F5F5F5F5F5F5F5F5F5F5F5F5
310
F5F5F5F5F5F5F5F5F5F5F5F5F5F5F5F5F5F5F5F5F5F5F5F5F5F5F5F5F5F5F5F5F5F5F5F5F5F5F5F5F5F5F5F5F5F5F5F5F5F5F5F5F5F5F5F5F5F5F5F5F5F5F5F5F5F5F5F5F5F5F5F5F5F5F5F5F5F5F5F5F5F5F5F5F5F5F5F5F5F5F5F5F5F5F5F5F5F5F5F5F5F5F5F5F5E2F5F5F5F5F5F5F5F5F5F5F5F5F5F5F5F5F5F5F5F5F5
310
E2E2F5F5F5F5F5F5F5F5F5F5F5F5F5F5F5F5F5F5F5F5F5E2F5F5F5F5F5F5F5F5F5F5F5F5F5F5F5F5F5F5F5F5F5F5F5F5F5F5F5F5F5F5F5F5F5F5F5F5F5F5F5F5F5F5F5F5F5F5F5F5F5F5F5F5F5F5F5F5F5F5F5F5F5F5F5F5F5F5F5F5F5F5F5F5F5F5F5F5F5F5F5F5F5F5F5F5F5F5F5F5F5F5F5F5F5F5F5F5F5F5F5F5F5F5F5
310
F5F5F5F5F5F5F5F5F5F5F5F5F5F5F5F5F5F5F5F5F5F5F5F5F5F5F5F5F5F5F5E2F5F5F5F5F5F5F5F5F5F5F5F5F5F5F5F5F5F5F5F5F5E2E2F5F5F5F5F5F5F5F5F5F5F5F5F5F5F5F5F5F5F5F5F5E2F5F5F5F5F5F5F5F5F5F5F5F5F5F5F5F5F5F5F5F5F5F5F5F5F5F5F5F5F5F5F5F5F5F5F5F5F5F5F5F5F5F5F5F5F5F5F5F5F5F5
310
F5F5F5F5F5F5F5F5F5F5F5F5F5F5F5F5F5F5F5F5F5F5F5F5F5F5F5F5F5F5F5F5F5F5F5F5F5F5F5F5F5F5F5F5F5F5F5F5F5F5F5F5F5F5F5F5F5F5F5F5F5F5F5F5F5F5F5F5F5F5F5F5F5F5F5F5F5F5F5F5F5F5F5F5E2F5F5F5F5F5F5F5F5F5F5F5F5F5F5F5F5F5F5F5F5F5E2E2F5F5F5F5F5F5F5F5F5F5F5F5F5F5F5F5F5F5F5
310
F5F5E2F5F5F5F5F5F5F5F5F5F5F5F5F5F5F5F5F5F5F5F5F5F5F5F5F5F5F5F5F5F5F5F5F5F5F5F5F5F5F5F5F5F5F5F5F5F5F5F5F5F5F5F5F5F5F5F5F5F5F5F5F5F5F5F5F5F5F5F5F5F5F5F5F5F5F5F5F5F5F5F5F5F5F5F5F5F5F5F5F5F5F5F5F5F5F5F5F5F5F5F5F5F5F5F5F5F5F5F5F5F5F5F5F5F5F5F5F5F5F5F5F5F5F5F5
310
F5F5F5F5F5F5F5F5F5F5E2F5F5F5F5F5F5F5F5F5F5F5F5F5F5F5F5F5F5F5F5F5E2E2F5F5F5F5E2F5F5F5F5F5F5F5F5F5F5F5F5F5F5F5F5E2F5F5F5F5F5F5F5F5F5F5F5F5F5F5F5F5F5F5F5F5F5F5F5F5F5F5F5F5F5F5F5F5F5F5F5F5F5F5F5F5F5F5F5F5F5F5F5F5F5F5F5F5F5F5F5F5F5F5F5F5F5F5F5F5F5F5F5F5F5F5F5
310
F5F5F5F5F5F5F5F5F5F5F5F5F5F5F5F5F5F5F5F5F5F5F5F5F5F5F5F5F5F5F5F5F5F5F5F5F5F5F5F5F5F5F5F5F5F5F5F5F5F5F5F5F5F5F5F5F5F5F5F5F5F5F5E2F5F5F5F5F5F5F5F5F5F5F5F5F5F5F5F5E2F5F5F5F5E2E2F5F5F5F5E2F5F5F5F5F5F5F5F5F5F5F5F5F5F5F5F5E2F5F5F5F5F5F5F5F5F5F5F5F5F5F5F5F5F5F5
310
F5F5F5F5F5F5F5F5F5F5F5F5F5F5F5F5F5F5F5F5F5F5F5F5F5F5F5F5F5F5F5F5F5F5F5F5F5F5F5F5F5F5F5F5F5F5F5F5F5F5F5F5F5F5F5F5F5F5F5F5F5F5F5F5F5F5F5F5F5F5F5F5F5F5F5F5F5F5F5F5F5F5F5F5F5F5F5F5F5F5F5F5F5F5F5F5F5F5F5F5F5F5F5F5F5F5F5F5F5F5F5F5F5F5F5F5E2F5F5F5F5F5F5F5F5F5F5
310
F5F5F5F5F5F5E2F5F5F5F5E2E2F5F5F5F5E2F5F5F5F5F5F5F5F5F5F5F5F5F5F5F5F5E2F5F5F5F5F5F5F5F5F5F5F5F5F5F5F5F5F5F5F5F5F5F5F5F5F5F5F5F5F5F5F5F5F5F5F5F5F5F5F5F5F5F5F5F5F5F5F5F5F5F5F5F5F5F5F5F5F5F5F5F5F5F5F5F5F5F5F5F5F5F5F5F5F5F5F5F5F5F5F5F5F5F5F5F5F5F5F5F5F5F5F5F5
310
F5F5F5F5F5F5F5F5F5F5F5F5F5F5F5F5F5F5F5F5F5F5F5F5F5F5F5F5F5F5F5F5F5F5F5F5F5F5F5F5F5F5E2F5F5F5F5F5F5F5F5F5F5F5F5F5F5F5F5E2F5F5F5F5E2E2F5F5F5F5E2F5F5F5F5F5F5F5F5F5F5F5F5F5F5F5F5E2F5F5F5F5F5F5F5F5F5F5F5F5F5F5F5F5F5F5F5F5F5F5F5F5F5F5F5F5F5F5F5F5F5F5F5F5F5F5F5
310
F5F5F5F5F5F5F5F5F5F5F5F5F5F5F5F5F5F5F5F5F5F5F5F5F5F5F5F5F5F5F5F5F5F5F5F5F5F5F5F5F5F5F5F5F5F5F5F5F5F5F5F5F5F5F5F5F5F5F5F5F5F5F5F5F5F5F5F5F5F5F5F5F5F5F5F5F5F5F5F5F5F5F5F5F5F5F5F5F5F5F5F5F5F5F5E2F5F5F5F5F5F5F5F5F5F5F5F5F5F5F5F5E2F5F5F5F5E2E2F5F5F5F5E2F5F5F5
310
F5F5F5F5F5F5F5F5F5F5F5F5F5E2F5F5F5F5F5F5F5F5F5F5F5F5F5F5F5F5F5F5F5F5F5F5F5F5F5F5F5F5F5F5F5F5F5F5F5F5F5F5F5F5F5F5F5F5F5F5F5F5F5F5F5F5F5F5F5F5F5F5F5F5F5F5F5F5F5F5F5F5F5F5F5F5F5F5F5F5F5F5F5F5F5F5F5F5F5F5F5F5F5F5F5F5F5F5F5F5F5F5F5F5F5F5F5F5F5F5F5F5F5F5F5F5F5
310
F5F5F5F5F5F5F5F5F5F5F5F5F5F5F5F5F5F5F5F5F5E2F5F5F5F5F5F5F5F5F5F5F5F5F5F5F5F5E2F5F5F5F5E2E2F5F5F5F5E2F5F5F5F5F5F5F5F5F5F5F5F5F5F5F5F5E2F5F5F5F5F5F5F5F5F5F5F5F5F5F5F5F5F5F5F5F5F5F5F5F5F5F5F5F5F5F5F5F5F5F5F5F5F5F5F5F5F5F5F5F5F5F5F5F5F5F5F5F5F5F5F5F5F5F5F5F5
310
F5F5F5F5F5F5F5F5F5F5F5F5F5F5F5F5F5F5F5F5F5F5F5F5F5F5F5F5F5F5F5F5F5F5F5F5F5F5F5F5F5F5F5F5F5F5F5F5F5F5F5F5F5F5F5F5F5F5F5F5F5F5F5F5F5F5F5F5F5F5F5F5F5F5E2F5F5F5F5F5F5F5F5F5F5F5F5F5F5F5F5E2F5F5F5F5E2E2F5F5F5F5E2F5F5F5F5F5F5F5F5F5F5F5F5F5F5F5F5E2F5F5F5F5F5F5F5
310
F5F5F5F5F5F5F5F5F5F5F5F5F5F5F5F5F5F5F5F5F5F5F5F5F5F5F5F5F5F5F5F5F5F5F5F5F5F5F5F5F5F5F5F5F5F5F5F5F5F5F5F5F5F5F5F5F5F5F5F5F5F5F5F5F5F5F5F5F5F5F5F5F5F5F5F5F5F5F5F5F5F5F5F5F5F5F5F5F5F5F5F5F5F5F5F5F5F5F5F5F5F5F5F5F5F5F5F5F5F5F5F5F5F5F5F5F5F5F5F5F5F5F5F5F5F5F5
310
E2F5F5F5F5F5F5F5F5F5F5F5F5F5F5F5F5E2F5F5F5F5E2E2F5F5F5F5E2F5F5F5F5F5F5F5F5F5F5F5F5F5F5F5F5E2F5F5F5F5F5F5F5F5F5F5F5F5F5F5F5F5F5F5F5F5F5F5F5F5F5F5F5F5F5F5F5F5F5F5F5F5F5F5F5F5F5F5F5F5F5F5F5F5F5F5F5F5F5F5F5F5F5F5F5F5F5F5F5F5F5F5F5F5F5F5F5F5F5F5F5F5F5F5F5F5F5
310
F5F5F5F5F5F5F5F5F5F5F5F5F5F5F5F5F5F5F5F5F5F5F5F5F5F5F5F5F5F5F5F5F5F5F5F5F5F5F5F5F5F5F5F5F5F5F5F5F5F5F5F5F5E2F5F5F5F5F5F5F5F5F5F5F5F5F5F5F5F5E2F5F5F5F5E2E2F5F5F5F5E2F5F5F5F5F5F5F5F5F5F5F5F5F5F5F5F5E2F5F5F5F5F5F5F5F5F5F5F5F5F5F5F5F5F5F5F5F5F5F5F5F5F5F5F5F5
310
F5F5F5F5F5F5F5F5F5F5F5F5F5F5F5F5F5F5F5F5F5F5F5F5F5F5F5F5F5F5F5F5F5F5F5F5F5F5F5F5F5F5F5F5F5F5F5F5F5F5F5F5F5F5F5F5F5F5F5F5F5F5F5F5F5F5F5F5F5F5F5F5F5F5F5F5F5F5F5F5F5F5F5F5F5F5F5F5F5F5F5F5F5F5F5F5F5F5F5F5F5F5F5F5F5F5E2F5F5F5F5F5F5F5F5F5F5F5F5F5F5F5F5E2F5F5F5
310
F5E2E2F5F5F5F5E2F5F5F5F5F5F5F5F5F5F5F5F5F5F5F5F5E2F5F5F5F5F5F5F5F5F5F5F5F5F5F5F5F5F5F5F5F5F5F5F5F5F5F5F5F5F5F5F5F5F5F5F5F5F5F5F5F5F5F5F5F5F5F5F5F5F5F5F5F5F5F5F5F5F5F5F5F5F5F5F5F5F5F5F5F5F5F5F5F5F5F5F5F5F5F5F5F5F5F5F5F5F5F5F5F5F5F5F5F5F5F5F5F5F5F5F5F5F5F5
310
F5F5F5F5F5F5F5F5F5F5F5F5F5F5F5F5F5F5F5F5F5F5F5F5F5F5F5F5F5F5F5F5E2F5F5F5F5F5F5F5F5F5F5F5F5F5F5F5F5E2F5F5F5F5E2E2F5F5F5F5E2F5F5F5F5F5F5F5F5F5F5F5F5F5F5F5F5E2F5F5F5F5F5F5F5F5F5F5F5F5F5F5F5F5F5F5F5F5F5F5F5F5F5F5F5F5F5F5F5F5F5F5F5F5F5F5F5F5F5F5F5F5F5F5F5F5F5
310
F5F5F5F5F5F5F5F5F5F5F5F5F5F5F5F5F5F5F5F5F5F5F5F5F5F5F5F5F5F5F5F5F5F5F5F5F5F5F5F5F5F5F5F5F5F5F5F5F5F5F5F5F5F5F5F5F5F5F5F5F5F5F5F5F5F5F5F5F5F5F5F5F5F5F5F5F5F5F5F5F5F5F5F5F5E2F5F5F5F5F5F5F5F5F5F5F5F5F5F5F5F5E2F5F5F5F5E2E2F5F5F5F5E2F5F5F5F5F5F5F5F5F5F5F5F5F5
310
F5F5F5E2F5F5F5F5F5F5F5F5F5F5F5F5F5F5F5F5F5F5F5F5F5F5F5F5F5F5F5F5F5F5F5F5F5F5F5F5F5F5F5F5F5F5F5F5F5F5F5F5F5F5F5F5F5F5F5F5F5F5F5F5F5F5F5F5F5F5F5F5F5F5F5F5F5F5F5F5F5F5F5F5F5F5F5F5F5F5F5F5F5F5F5F5F5F5F5F5F5F5F5F5F5F5F5F5F5F5F5F5F5F5F5F5F5F5F5F5F5F5F5F5F5F5F5
310
F5F5F5F5F5F5F5F5F5F5F5E2F5F5F5F5F5F5F5F5F5F5F5F5F5F5F5F5E2F5F5F5F5E2E2F5F5F5F5E2F5F5F5F5F5F5F5F5F5F5F5F5F5F5F5F5E2F5F5F5F5F5F5F5F5F5F5F5F5F5F5F5F5F5F5F5F5F5F5F5F5F5F5F5F5F5F5F5F5F5F5F5F5F5F5F5F5F5F5F5F5F5F5F5F5F5F5F5F5F5F5F5F5F5F5F5F5F5F5F5F5F5F5F5F5F5F5
310
F5F5F5F5F5F5F5F5F5F5F5F5F5F5F5F5F5F5F5F5F5F5F5F5F5F5F5F5F5F5F5F5F5F5F5F5F5F5F5F5F5F5F5F5F5F5F5F5F5F5F5F5F5F5F5F5F5F5F5F5F5F5F5F5E2F5F5F5F5F5F5F5F5F5F5F5F5F5F5F5F5E2F5F5F5F5E2E2F5F5F5F5E2F5F5F5F5F5F5F5F5F5F5F5F5F5F5F5F5E2F5F5F5F5F5F5F5F5F5F5F5F5F5F5F5F5F5
310
F5F5F5F5F5F5F5F5F5F5F5F5F5F5F5F5F5F5F5F5F5F5F5F5F5F5F5F5F5F5F5F5F5F5F5F5F5F5F5F5F5F5F5F5F5F5F5F5F5F5F5F5F5F5F5F5F5F5F5F5F5F5F5F5F5F5F5F5F5F5F5F5F5F5F5F5F5F5F5F5F5F5F5F5F5F5F5F5F5F5F5F5F5F5F5F5F5F5F5F5F5F5F5F5F5F5F5F5F5F5F5F5F5F5F5F5F5E2F5F5F5F5F5F5F5F5F5
310
F5F5F5F5F5F5F5E2F5F5F5F5E2E2F5F5F5F5E2F5F5F5F5F5F5F5F5F5F5F5F5F5F5F5F5E2F5F5F5F5F5F5F5F5F5F5F5F5F5F5F5F5F5F5F5F5F5F5F5F5F5F5F5F5F5F5F5F5F5F5F5F5F5F5F5F5F5F5F5F5F5F5F5F5F5F5F5F5F5F5F5F5F5F5F5F5F5F5F5F5F5F5F5F5F5F5F5F5F5F5F5F5F5F5F5F5F5F5F5F5F5F5F5F5F5F5F5
310
F5F5F5F5F5F5F5F5F5F5F5F5F5F5F5F5F5F5F5F5F5F5F5F5F5F5F5F5F5F5F5F5F5F5F5F5F5F5F5F5F5F5F5E2F5F5F5F5F5F5F5F5F5F5F5F5F5F5F5F5E2F5F5F5F5E2E2F5F5F5F5E2F5F5F5F5F5F5F5F5F5F5F5F5F5F5F5F5E2F5F5F5F5F5F5F5F5F5F5F5F5F5F5F5F5F5F5F5F5F5F5F5F5F5F5F5F5F5F5F5F5F5F5F5F5F5F5
310
F5F5F5F5F5F5F5F5F5F5F5F5F5F5F5F5F5F5F5F5F5F5F5F5F5F5F5F5F5F5F5F5F5F5F5F5F5F5F5F5F5F5F5F5F5F5F5F5F5F5F5F5F5F5F5F5F5F5F5F5F5F5F5F5F5F5F5F5F5F5F5F5F5F5F5F5F5F5F5F5F5F5F5F5F5F5F5F5F5F5F5F5F5F5F5F5E2F5F5F5F5F5F5F5F5F5F5F5F5F5F5F5F5E2F5F5F5F5E2E2F5F5F5F5E2F5F5
310
F5F5F5F5F5F5F5F5F5F5F5F5F5F5E2F5F5F5F5F5F5F5F5F5F5F5F5F5F5F5F5F5F5F5F5F5F5F5F5F5F5F5F5F5F5F5F5F5F5F5F5F5F5F5F5F5F5F5F5F5F5F5F5F5F5F5F5F5F5F5F5F5F5F5F5F5F5F5F5F5F5F5F5F5F5F5F5F5F5F5F5F5F5F5F5F5F5F5F5F5F5F5F5F5F5F5F5F5F5F5F5F5F5F5F5F5F5F5F5F5F5F5F5F5F5F5F5
310
F5F5F5F5F5F5F5F5F5F5F5F5F5F5F5F5F5F5F5F5F5F5E2F5F5F5F5F5F5F5F5F5F5F5F5F5F5F5F5E2F5F5F5F5E2E2F5F5F5F5F5F5F5F5F5F5F5F5F5F5F5F5F5F5F5F5F5E2F5F5F5F5F5F5F5F5F5F5F5F5F5F5F5F5F5F5F5F5F5F5F5F5F5F5F5F5F5F5F5F5F5F5F5F5F5F5F5F5F5F5F5F5F5F5F5F5F5F5F5F5F5F5F5F5F5F5F5
310
F5F5F5F5F5F5F5F5F5F5F5F5F5F5F5F5F5F5F5F5F5F5F5F5F5F5F5F5F5F5F5F5F5F5F5F5F5F5F5F5F5F5F5F5F5F5F5F5F5F5F5F5F5F5F5F5F5F5F5F5F5F5F5F5F5F5F5F5F5F5F5F5F5F5F5E2F5F5F5F5F5F5F5F5F5F5F5F5F5F5F5F5F5F5F5F5F5E2E2F5F5F5F5F5F5F5F5F5F5F5F5F5F5F5F5F5F5F5F5F5E2F5F5F5F5F5F5
310
F5F5F5F5F5F5F5F5F5F5F5F5F5F5F5F5F5F5F5F5F5F5F5F5F5F5F5F5F5F5F5F5F5F5F5F5F5F5F5F5F5F5F5F5F5F5F5F5F5F5F5F5F5F5F5F5F5F5F5F5F5F5F5F5F5F5F5F5F5F5F5F5F5F5F5F5F5F5F5F5F5F5F5F5F5F5F5F5F5F5F5F5F5F5F5F5F5F5F5F5F5F5F5F5F5F5F5F5F5F5F5F5F5F5F5F5F5F5F5F5F5F5F5F5F5F5F5
310
F5E2F5F5F5F5F5F5F5F5F5F5F5F5F5F5F5F5F5F5F5F5F5E2E2F5F5F5F5F5F5F5F5F5F5F5F5F5F5F5F5F5F5F5F5F5E2F5F5F5F5F5F5F5F5F5F5F5F5F5F5F5F5F5F5F5F5F5F5F5F5F5F5F5F5F5F5F5F5F5F5F5F5F5F5F5F5F5F5F5F5F5F5F5F5F5F5F5F5F5F5F5F5F5F5F5F5F5F5F5F5F5F5F5F5F5F5F5F5F5F5F5F5F5F5F5F5
310
F5F5F5F5F5F5F5F5F5F5F5F5F5F5F5F5F5F5F5F5F5F5F5F5F5F5F5F5F5F5F5F5F5F5F5F5F5F5F5F5F5F5F5F5F5F5F5F5F5F5F5F5F5F5E2F5F5F5F5F5F5F5F5F5F5F5F5F5F5F5F5F5F5F5F5F5E2E2F5F5F5F5F5F5F5F5F5F5F5F5F5F5F5F5F5F5F5F5F5E2F5F5F5F5F5F5F5F5F5F5F5F5F5F5F5F5F5F5F5F5F5F5F5F5F5F5F5
310
F5F5F5F5F5F5F5F5F5F5F5F5F5F5F5F5F5F5F5F5F5F5F5F5F5F5F5F5F5F5F5F5F5F5F5F5F5F5F5F5F5F5F5F5F5F5F5F5F5F5F5F5F5F5F5F5F5F5F5F5F5F5F5F5F5F5F5F5F5F5F5F5F5F5F5F5F5F5F5F5F5F5F5F5F5F5F5F5F5F5F5F5F5F5F5F5F5F5F5F5F5F5F5F5F5F5F5E2F5F5F5F5F5F5F5F5F5F5F5F5F5F5F5F5F5F5F5
310
F5F5E2E2F5F5F5F5F5F5F5F5F5F5F5F5F5F5F5F5F5F5F5F5F5E2F5F5F5F5F5F5F5F5F5F5F5F5F5F5F5F5F5F5F5F5F5F5F5F5F5F5F5F5F5F5F5F5F5F5F5F5F5F5F5F5F5F5F5F5F5F5F5F5F5F5F5F5F5F5F5F5F5F5F5F5F5F5F5F5F5F5F5F5F5F5F5F5F5F5F5F5F5F5F5F5F5F5F5F5F5F5F5F5F5F5F5F5F5F5F5F5F5F5F5F5F5
310
F5F5F5F5F5F5F5F5F5F5F5F5F5F5F5F5F5F5F5F5F5F5F5F5F5F5F5F5F5F5F5F5F5E2F5F5F5F5F5F5F5F5F5F5F5F5F5F5F5F5F5F5F5F5F5E2E2F5F5F5F5F5F5F5F5F5F5F5F5F5F5F5F5F5F5F5F5F5E2F5F5F5F5F5F5F5F5F5F5F5F5F5F5F5F5F5F5F5F5F5F5F5F5F5F5F5F5F5F5F5F5F5F5F5F5F5F5F5F5F5F5F5F5F5F5F5F5
310
F5F5F5F5F5F5F5F5F5F5F5F5F5F5F5F5F5F5F5F5F5F5F5F5F5F5F5F5F5F5F5F5F5F5F5F5F5F5F5F5F5F5F5F5F5F5F5F5F5F5F5F5F5F5F5F5F5F5F5F5F5F5F5F5F5F5F5F5F5F5F5F5F5F5F5F5F5F5F5F5F5F5F5F5F5F5E2F5F5F5F5F5F5F5F5F5F5F5F5F5F5F5F5F5F5F5F5F5E2E2F5F5F5F5F5F5F5F5F5F5F5F5F5F5F5F5F5
310
F5F5F5F5E2F5F5F5F5F5F5F5F5F5F5F5F5F5F5F5F5F5F5F5F5F5F5F5F5F5F5F5F5F5F5F5F5F5F5F5F5F5F5F5F5F5F5F5F5F5F5F5F5F5F5F5F5F5F5F5F5F5F5F5F5F5F5F5F5F5F5F5F5F5F5F5F5F5F5F5F5F5F5F5F5F5F5F5F5F5F5F5F5F5F5F5F5F5F5F5F5F5F5F5F5F5F5F5F5F5F5F5F5F5F5F5F5F5F5F5F5F5F5F5F5F5F5
310
F5F5F5F5F5F5F5F5F5F5F5F5E2F5F5F5F5F5F5F5F5F5F5F5F5F5F5F5F5F5F5F5F5F5E2E2F5F5F5F5F5F5F5F5F5F5F5F5F5F5F5F5F5F5F5F5F5E2F5F5F5F5F5F5F5F5F5F5F5F5F5F5F5F5F5F5F5F5F5F5F5F5F5F5F5F5F5F5F5F5F5F5F5F5F5F5F5F5F5F5F5F5F5F5F5F5F5F5F5F5F5F5F5F5F5F5F5F5F5F5F5F5F5F5F5F5F5
310
F5F5F5F5F5F5F5F5F5F5F5F5F5F5F5F5F5F5F5F5F5F5F5F5F5F5F5F5F5F5F5F5F5F5F5F5F5F5F5F5F5F5F5F5F5F5F5F5F5F5F5F5F5F5F5F5F5F5F5F5F5F5F5F5F5E2F5F5F5F5F5F5F5F5F5F5F5F5F5F5F5F5F5F5F5F5F5E2E2F5F5F5F5F5F5F5F5F5F5F5F5F5F5F5F5F5F5F5F5F5E2F5F5F5F5F5F5F5F5F5F5F5F5F5F5F5F5
310
F5F5F5F5F5F5F5F5F5F5F5F5F5F5F5F5F5F5F5F5F5F5F5F5F5F5F5F5F5F5F5F5F5F5F5F5F5F5F5F5F5F5F5F5F5F5F5F5F5F5F5F5F5F5F5F5F5F5F5F5F5F5F5F5F5F5F5F5F5F5F5F5F5F5F5F5F5F5F5F5F5F5F5F5F5F5F5F5F5F5F5F5F5F5F5F5F5F5F5F5F5F5F5F5F5F5F5F5F5F5F5F5F5F5F5F5F5F5E2F5F5F5F5F5F5F5F5
310
F5F5F5F5F5F5F5F5F5F5F5F5F5E2E2F5F5F5F5E2F5F5F5F5F5F5F5F5F5F5F5F5F5F5F5F5E2F5F5F5F5F5F5F5F5F5F5F5F5F5F5F5F5F5F5F5F5F5F5F5F5F5F5F5F5F5F5F5F5F5F5F5F5F5F5F5F5F5F5F5F5F5F5F5F5F5F5F5F5F5F5F5F5F5F5F5F5F5F5F5F5F5F5F5F5F5F5F5F5F5F5F5F5F5F5F5F5F5F5F5F5F5F5F5F5F5F5
310
F5F5F5F5F5F5F5F5F5F5F5F5F5F5F5F5F5F5F5F5F5F5F5F5F5F5F5F5F5F5F5F5F5F5F5F5F5F5F5F5F5F5F5F5E2F5F5F5F5F5F5F5F5F5F5F5F5F5F5F5F5E2F5F5F5F5E2E2F5F5F5F5E2F5F5F5F5F5F5F5F5F5F5F5F5F5F5F5F5E2F5F5F5F5F5F5F5F5F5F5F5F5F5F5F5F5F5F5F5F5F5F5F5F5F5F5F5F5F5F5F5F5F5F5F5F5F5
310
F5F5F5F5F5F5F5F5F5F5F5F5F5F5F5F5F5F5F5F5F5F5F5F5F5F5F5F5F5F5F5F5F5F5F5F5F5F5F5F5F5F5F5F5F5F5F5F5F5F5F5F5F5F5F5F5F5F5F5F5F5F5F5F5F5F5F5F5F5F5F5F5F5F5F5F5F5F5F5F5F5F5F5F5F5F5F5F5F5F5F5F5F5F5F5F5F5E2F5F5F5F5F5F5F5F5F5F5F5F5F5F5F5F5E2F5F5F5F5E2E2F5F5F5F5E2F5
310
F5F5F5F5F5F5F5F5F5F5F5F5F5F5F5E2F5F5F5F5F5F5F5F5F5F5F5F5F5F5F5F5F5F5F5F5F5F5F5F5F5F5F5F5F5F5F5F5F5F5F5F5F5F5F5F5F5F5F5F5F5F5F5F5F5F5F5F5F5F5F5F5F5F5F5F5F5F5F5F5F5F5F5F5F5F5F5F5F5F5F5F5F5F5F5F5F5F5F5F5F5F5F5F5F5F5F5F5F5F5F5F5F5F5F5F5F5F5F5F5F5F5F5F5F5F5F5
310
F5F5F5F5F5F5F5F5F5F5F5F5F5F5F5F5F5F5F5F5F5F5F5E2F5F5F5F5F5F5F5F5F5F5F5F5F5F5F5F5E2F5F5F5F5E2E2F5F5F5F5E2F5F5F5F5F5F5F5F5F5F5F5F5F5F5F5F5E2F5F5F5F5F5F5F5F5F5F5F5F5F5F5F5F5F5F5F5F5F5F5F5F5F5F5F5F5F5F5F5F5F5F5F5F5F5F5F5F5F5F5F5F5F5F5F5F5F5F5F5F5F5F5F5F5F5F5
310
F5F5F5F5F5F5F5F5F5F5F5F5F5F5F5F5F5F5F5F5F5F5F5F5F5F5F5F5F5F5F5F5F5F5F5F5F5F5F5F5F5F5F5F5F5F5F5F5F5F5F5F5F5F5F5F5F5F5F5F5F5F5F5F5F5F5F5F5F5F5F5F5F5F5F5F5E2F5F5F5F5F5F5F5F5F5F5F5F5F5F5F5F5E2F5F5F5F5E2E2F5F5F5F5E2F5F5F5F5F5F5F5F5F5F5F5F5F5F5F5F5E2F5F5F5F5F5
310
F5F5F5F5F5F5F5F5F5F5F5F5F5F5F5F5F5F5F5F5F5F5F5F5F5F5F5F5F5F5F5F5F5F5F5F5F5F5F5F5F5F5F5F5F5F5F5F5F5F5F5F5F5F5F5F5F5F5F5F5F5F5F5F5F5F5F5F5F5F5F5F5F5F5F5F5F5F5F5F5F5F5F5F5F5F5F5F5F5F5F5F5F5F5F5F5F5F5F5F5F5F5F5F5F5F5F5F5F5F5F5F5F5F5F5F5F5F5F5F5F5F5F5F5F5F5F5
310
F5F5E2F5F5F5F5F5F5F5F5F5F5F5F5F5F5F5F5E2F5F5F5F5E2E2F5F5F5F5E2F5F5F5F5F5F5F5F5F5F5F5F5F5F5F5F5E2F5F5F5F5F5F5F5F5F5F5F5F5F5F5F5F5F5F5F5F5F5F5F5F5F5F5F5F5F5F5F5F5F5F5F5F5F5F5F5F5F5F5F5F5F5F5F5F5F5F5F5F5F5F5F5F5F5F5F5F5F5F5F5F5F5F5F5F5F5F5F5F5F5F5F5F5F5F5F5
310
F5F5F5F5F5F5F5F5F5F5F5F5F5F5F5F5F5F5F5F5F5F5F5F5F5F5F5F5F5F5F5F5F5F5F5F5F5F5F5F5F5F5F5F5F5F5F5F5F5F5F5F5F5F5F5E2F5F5F5F5F5F5F5F5F5F5F5F5F5F5F5F5E2F5F5F5F5E2E2F5F5F5F5E2F5F5F5F5F5F5F5F5F5F5F5F5F5F5F5F5E2F5F5F5F5F5F5F5F5F5F5F5F5F5F5F5F5F5F5F5F5F5F5F5F5F5F5
310
F5F5F5F5F5F5F5F5F5F5F5F5F5F5F5F5F5F5F5F5F5F5F5F5F5F5F5F5F5F5F5F5F5F5F5F5F5F5F5F5F5F5F5F5F5F5F5F5F5F5F5F5F5F5F5F5F5F5F5F5F5F5F5F5F5F5F5F5F5F5F5F5F5F5F5F5F5F5F5F5F5F5F5F5F5F5F5F5F5F5F5F5F5F5F5F5F5F5F5F5F5F5F5F5F5F5F5F5E2F5F5F5F5F5F5F5F5F5F5F5F5F5F5F5F5E2F5
310
F5F5F5E2E2F5F5F5F5E2F5F5F5F5F5F5F5F5F5F5F5F5F5F5F5F5E2F5F5F5F5F5F5F5F5F5F5F5F5F5F5F5F5F5F5F5F5F5F5F5F5F5F5F5F5F5F5F5F5F5F5F5F5F5F5F5F5F5F5F5F5F5F5F5F5F5F5F5F5F5F5F5F5F5F5F5F5F5F5F5F5F5F5F5F5F5F5F5F5F5F5F5F5F5F5F5F5F5F5F5F5F5F5F5F5F5F5F5F5F5F5F5F5F5F5F5F5
310
F5F5F5F5F5F5F5F5F5F5F5F5F5F5F5F5F5F5F5F5F5F5F5F5F5F5F5F5F5F5F5F5F5F5E2F5F5F5F5F5F5F5F5F5F5F5F5F5F5F5F5E2F5F5F5F5E2E2F5F5F5F5E2F5F5F5F5F5F5F5F5F5F5F5F5F5F5F5F5E2F5F5F5F5F5F5F5F5F5F5F5F5F5F5F5F5F5F5F5F5F5F5F5F5F5F5F5F5F5F5F5F5F5F5F5F5F5F5F5F5F5F5F5F5F5F5F5
310
F5F5F5F5F5F5F5F5F5F5F5F5F5F5F5F5F5F5F5F5F5F5F5F5F5F5F5F5F5F5F5F5F5F5F5F5F5F5F5F5F5F5F5F5F5F5F5F5F5F5F5F5F5F5F5F5F5F5F5F5F5F5F5F5F5F5F5F5F5F5F5F5F5F5F5F5F5F5F5F5F5F5F5F5F5F5F5E2F5F5F5F5F5F5F5F5F5F5F5F5F5F5F5F5E2F5F5F5F5E2E2F5F5F5F5E2F5F5F5F5F5F5F5F5F5F5F5
310
F5F5F5F5F5E2F5F5F5F5F5F5F5F5F5F5F5F5F5F5F5F5F5F5F5F5F5F5F5F5F5F5F5F5F5F5F5F5F5F5F5F5F5F5F5F5F5F5F5F5F5F5F5F5F5F5F5F5F5F5F5F5F5F5F5F5F5F5F5F5F5F5F5F5F5F5F5F5F5F5F5F5F5F5F5F5F5F5F5F5F5F5F5F5F5F5F5F5F5F5F5F5F5F5F5F5F5F5F5F5F5F5F5F5F5F5F5F5F5F5F5F5F5F5F5F5F5
310
F5F5F5F5F5F5F5F5F5F5F5F5F5E2F5F5F5F5F5F5F5F5F5F5F5F5F5F5F5F5E2F5F5F5F5E2E2F5F5F5F5E2F5F5F5F5F5F5F5F5F5F5F5F5F5F5F5F5E2F5F5F5F5F5F5F5F5F5F5F5F5F5F5F5F5F5F5F5F5F5F5F5F5F5F5F5F5F5F5F5F5F5F5F5F5F5F5F5F5F5F5F5F5F5F5F5F5F5F5F5F5F5F5F5F5F5F5F5F5F5F5F5F5F5F5F5F5
310
F5F5F5F5F5F5F5F5F5F5F5F5F5F5F5F5F5F5F5F5F5F5F5F5F5F5F5F5F5F5F5F5F5F5F5F5F5F5F5F5F5F5F5F5F5F5F5F5F5F5F5F5F5F5F5F5F5F5F5F5F5F5F5F5F5F5E2F5F5F5F5F5F5F5F5F5F5F5F5F5F5F5F5E2F5F5F5F5E2E2F5F5F5F5E2F5F5F5F5F5F5F5F5F5F5F5F5F5F5F5F5E2F5F5F5F5F5F5F5F5F5F5F5F5F5F5F5
310
F5F5F5F5F5F5F5F5F5F5F5F5F5F5F5F5F5F5F5F5F5F5F5F5F5F5F5F5F5F5F5F5F5F5F5F5F5F5F5F5F5F5F5F5F5F5F5F5F5F5F5F5F5F5F5F5F5F5F5F5F5F5F5F5F5F5F5F5F5F5F5F5F5F5F5F5F5F5F5F5F5F5F5F5F5F5F5F5F5F5F5F5F5F5F5F5F5F5F5F5F5F5F5F5F5F5F5F5F5F5F5F5F5F5F5F5F5F5F5E2F5F5F5F5F5F5F5
310
F5F5F5F5F5F5F5F5F5E2F5F5F5F5E2E2F5F5F5F5E2F5F5F5F5F5F5F5F5F5F5F5F5F5F5F5F5E2F5F5F5F5F5F5F5F5F5F5F5F5F5F5F5F5F5F5F5F5F5F5F5F5F5F5F5F5F5F5F5F5F5F5F5F5F5F5F5F5F5F5F5F5F5F5F5F5F5F5F5F5F5F5F5F5F5F5F5F5F5F5F5F5F5F5F5F5F5F5F5F5F5F5F5F5F5F5F5F5F5F5F5F5F5F5F5F5F5
310
F5F5F5F5F5F5F5F5F5F5F5F5F5F5F5F5F5F5F5F5F5F5F5F5F5F5F5F5F5F5F5F5F5F5F5F5F5F5F5F5F5F5F5F5F5E2F5F5F5F5F5F5F5F5F5F5F5F5F5F5F5F5E2F5F5F5F5E2E2F5F5F5F5E2F5F5F5F5F5F5F5F5F5F5F5F5F5F5F5F5E2F5F5F5F5F5F5F5F5F5F5F5F5F5F5F5F5F5F5F5F5F5F5F5F5F5F5F5F5F5F5F5F5F5F5F5F5
310
F5F5F5F5F5F5F5F5F5F5F5F5F5F5F5F5F5F5F5F5F5F5F5F5F5F5F5F5F5F5F5F5F5F5F5F5F5F5F5F5F5F5F5F5F5F5F5F5F5F5F5F5F5F5F5F5F5F5F5F5F5F5F5F5F5F5F5F5F5F5F5F5F5F5F5F5F5F5F5F5F5F5F5F5F5F5F5F5F5F5F5F5F5F5F5F5F5F5E2F5F5F5F5F5F5F5F5F5F5F5F5F5F5F5F5E2F5F5F5F5E2E2F5F5F5F5E2
310
F5F5F5F5F5F5F5F5F5F5F5F5F5F5F5F5E2F5F5F5F5F5F5F5F5F5F5F5F5F5F5F5F5F5F5F5F5F5F5F5F5F5F5F5F5F5F5F5F5F5F5F5F5F5F5F5F5F5F5F5F5F5F5F5F5F5F5F5F5F5F5F5F5F5F5F5F5F5F5F5F5F5F5F5F5F5F5F5F5F5F5F5F5F5F5F5F5F5F5F5F5F5F5F5F5F5F5F5F5F5F5F5F5F5F5F5F5F5F5F5F5F5F5F5F5F5F5
310
F5F5F5F5F5F5F5F5F5F5F5F5F5F5F5F5F5F5F5F5F5F5F5F5E2F5F5F5F5F5F5F5F5F5F5F5F5F5F5F5F5E2F5F5F5F5E2E2F5F5F5F5E2F5F5F5F5F5F5F5F5F5F5F5F5F5F5F5F5E2F5F5F5F5F5F5F5F5F5F5F5F5F5F5F5F5F5F5F5F5F5F5F5F5F5F5F5F5F5F5F5F5F5F5F5F5F5F5F5F5F5F5F5F5F5F5F5F5F5F5F5F5F5F5F5F5F5
310
F5F5F5F5F5F5F5F5F5F5F5F5F5F5F5F5F5F5F5F5F5F5F5F5F5F5F5F5F5F5F5F5F5F5F5F5F5F5F5F5F5F5F5F5F5F5F5F5F5F5F5F5F5F5F5F5F5F5F5F5F5F5F5F5F5F5F5F5F5F5F5F5F5F5F5F5F5E2F5F5F5F5F5F5F5F5F5F5F5F5F5F5F5F5E2F5F5F5F5E2E2F5F5F5F5E2F5F5F5F5F5F5F5F5F5F5F5F5F5F5F5F5E2F5F5F5F5
310
F5F5F5F5F5F5F5F5F5F5F5F5F5F5F5F5F5F5F5F5F5F5F5F5F5F5F5F5F5F5F5F5F5F5F5F5F5F5F5F5F5F5F5F5F5F5F5F5F5F5F5F5F5F5F5F5F5F5F5F5F5F5F5F5F5F5F5F5F5F5F5F5F5F5F5F5F5F5F5F5F5F5F5F5F5F5F5F5F5F5F5F5F5F5F5F5F5F5F5F5F5F5F5F5F5F5F5F5F5F5F5F5F5F5F5F5F5F5F5F5F5F5F5F5F5F5F5
310
F5F5F5E2F5F5F5F5F5F5F5F5F5F5F5F5F5F5F5F5E2F5F5F5F5E2E2F5F5F5F5F5F5F5F5F5F5F5F5F5F5F5F5F5F5F5F5F5E2F5F5F5F5F5F5F5F5F5F5F5F5F5F5F5F5F5F5F5F5F5F5F5F5F5F5F5F5F5F5F5F5F5F5F5F5F5F5F5F5F5F5F5F5F5F5F5F5F5F5F5F5F5F5F5F5F5F5F5F5F5F5F5F5F5F5F5F5F5F5F5F5F5F5F5F5F5F5
310
F5F5F5F5F5F5F5F5F5F5F5F5F5F5F5F5F5F5F5F5F5F5F5F5F5F5F5F5F5F5F5F5F5F5F5F5F5F5F5F5F5F5F5F5F5F5F5F5F5F5F5F5F5F5F5F5E2F5F5F5F5F5F5F5F5F5F5F5F5F5F5F5F5F5F5F5F5F5E2E2F5F5F5F5F5F5F5F5F5F5F5F5F5F5F5F5F5F5F5F5F5E2F5F5F5F5F5F5F5F5F5F5F5F5F5F5F5F5F5F5F5F5F5F5F5F5F5
310
F5F5F5F5F5F5F5F5F5F5F5F5F5F5F5F5F5F5F5F5F5F5F5F5F5F5F5F5F5F5F5F5F5F5F5F5F5F5F5F5F5F5F5F5F5F5F5F5F5F5F5F5F5F5F5F5F5F5F5F5F5F5F5F5F5F5F5F5F5F5F5F5F5F5F5F5F5F5F5F5F5F5F5F5F5F5F5F5F5F5F5F5F5F5F5F5F5F5F5F5F5F5F5F5F5F5F5F5F5E2F5F5F5F5F5F5F5F5F5F5F5F5F5F5F5F5F5
310
F5F5F5F5E2E2F5F5F5F5F5F5F5F5F5F5F5F5F5F5F5F5F5F5F5F5F5E2F5F5F5F5F5F5F5F5F5F5F5F5F5F5F5F5F5F5F5F5F5F5F5F5F5F5F5F5F5F5F5F5F5F5F5F5F5F5F5F5F5F5F5F5F5F5F5F5F5F5F5F5F5F5F5F5F5F5F5F5F5F5F5F5F5F5F5F5F5F5F5F5F5F5F5F5F5F5F5F5F5F5F5F5F5F5F5F5F5F5F5F5F5F5F5F5F5F5F5
310
F5F5F5F5F5F5F5F5F5F5F5F5F5F5F5F5F5F5F5F5F5F5F5F5F5F5F5F5F5F5F5F5F5F5F5E2F5F5F5F5F5F5F5F5F5F5F5F5F5F5F5F5F5F5F5F5F5E2E2F5F5F5F5F5F5F5F5F5F5F5F5F5F5F5F5F5F5F5F5F5E2F5F5F5F5F5F5F5F5F5F5F5F5F5F5F5F5F5F5F5F5F5F5F5F5F5F5F5F5F5F5F5F5F5F5F5F5F5F5F5F5F5F5F5F5F5F5
310
F5F5F5F5F5F5F5F5F5F5F5F5F5F5F5F5F5F5F5F5F5F5F5F5F5F5F5F5F5F5F5F5F5F5F5F5F5F5F5F5F5F5F5F5F5F5F5F5F5F5F5F5F5F5F5F5F5F5F5F5F5F5F5F5F5F5F5F5F5F5F5F5F5F5F5F5F5F5F5F5F5F5F5F5F5F5F5F5E2F5F5F5F5F5F5F5F5F5F5F5F5F5F5F5F5F5F5F5F5F5E2E2F5F5F5F5F5F5F5F5F5F5F5F5F5F5F5
310
F5F5F5F5F5F5E2E2E2E2E2E2E2E2E2E2E2E2E2E2E2E2E2E2E2E2E2E2E2E2E2E2E2E2E2E2E2E2E2E2E2E2E2E2E2E2E2E2E2E2E2E2E2E2E2E2E2E2E2E2E2E2E2E2E2E2E2E2E2E2E2E2E2E2E2E2E2E2E2E2E2E2E2E2E2E2E2E2E2E2E2E2E2E2E2E2E2E2E2E2E2E2E2E2E2E2E2E2E2E2E2E2E2E2E2E2E2E2E2E2E2E2E2E2E2E2E2
310
E2E2E2E2E2E2E2E2E2E2E2E2E2E2E2F5F5F5F5F5F5F5F5F5F5F5F5F5F5F5F5F5F5F5F5F5E2E2F5F5F5F5F5F5F5F5F5F5F5F5F5F5F5F5F5F5F5F5F5F5F5F5F5F5F5F5F5F5F5F5F5F5F5F5F5F5F5F5F5F5F5F5F5F5F5F5F5F5F5F5F5F5F5F5F5F5F5F5F5F5F5F5F5F5F5F5F5F5F5F5F5F5F5F5F5F5F5F5F5F5F5F5F5F5F5F5F5
310
F5F5F5F5F5F5F5F5F5F5F5F5F5F5F5F5F5F5F5F5F5F5F5F5F5F5F5F5F5F5F5F5F5F5F5F5F5F5F5F5F5F5F5F5F5F5F5F5F5F5F5F5F5F5F5F5F5F5F5F5F5F5F5F5F5F5F5F5F5F5F5F5F5F5F5F5F5F5F5F5F5F5F5F5F5F5F5F5F5E2E2F5F5F5F5F5F5F5F5F5F5F5F5F5F5F5F5F5F5F5F5F5F5F5F5F5F5F5F5F5F5F5F5F5F5F5F5
310
F5F5F5F5F5F5F5F5F5F5F5F5F5F5F5F5F5F5F5F5F5F5F5F5F5F5F5F5F5F5F5F5F5F5F5F5F5F5F5F5F5F5F5F5F5F5F5F5F5F5F5F5F5F5F5F5F5F5F5F5F5F5F5F5F5F5F5F5F5F5F5F5F5F5F5F5F5F5F5F5F5F5F5F5F5F5F5F5F5F5F5F5F5F5F5F5F5F5F5F5F5F5F5F5F5F5F5F5F5F5F5F5F5F5F5F5F5F5F5F5F5F5F5F5F5F5F5
310
F5F5F5F5F5F5F5F5F5F5F5F5F5F5F5E2E2F5F5F5F5F5F5F5F5F5F5F5F5F5F5F5F5F5F5F5F5F5F5F5F5F5F5F5F5F5F5F5F5F5F5F5F5F5F5F5F5F5F5F5F5F5F5F5F5F5F5F5F5F5F5F5F5F5F5F5F5F5F5F5F5F5F5F5F5F5F5F5F5F5F5F5F5F5F5F5F5F5F5F5F5F5F5F5F5F5F5F5F5F5F5F5F5F5F5F5F5F5F5F5F5F5F5F5F5F5F5
310
F5F5F5F5F5F5F5F5F5F5F5F5F5F5F5F5F5F5F5F5F5F5F5F5F5F5F5F5F5F5F5F5F5F5F5F5F5F5F5F5F5F5F5F5F5F5F5F5F5F5F5F5F5F5F5F5F5F5F5F5F5F5F5F5F5F5F5F5E2E2F5F5F5F5F5F5F5F5F5F5F5F5F5F5F5F5F5F5F5F5F5F5F5F5F5F5F5F5F5F5F5F5F5F5F5F5F5F5F5F5F5F5F5F5F5F5F5F5F5F5F5F5F5F5F5F5F5
310
F5F5F5F5F5F5F5F5F5F5F5F5F5F5F5F5F5F5F5F5F5F5F5F5F5F5F5F5F5F5F5F5F5F5F5F5F5F5F5F5F5F5F5F5F5F5F5F5F5F5F5F5F5F5F5F5F5F5F5F5F5F5F5F5F5F5F5F5F5F5F5F5F5F5F5F5F5F5F5F5F5F5F5F5F5F5F5F5F5F5F5F5F5F5F5F5F5F5F5F5F5F5F5F5F5F5F5F5F5F5F5F5F5F5F5F5F5F5F5F5F5E2E2F5F5F5F5
310
E2F5F5F5F5F5F5F5F5F5F5F5F5F5F5F5F5F5F5F5F5F5F5F5F5F5F5F5F5F5F5F5F5F5F5F5F5F5F5F5F5F5F5F5F5F5F5F5F5F5F5F5F5F5F5F5F5F5F5F5F5F5F5F5F5F5F5F5F5F5F5F5F5F5F5F5F5F5F5F5F5F5F5F5F5F5F5F5F5F5F5F5F5F5F5F5F5F5F5F5F5F5F5F5F5F5F5F5F5F5F5F5F5F5F5F5F5F5F5F5F5F5F5F5F5F5F5
310
F5F5F5F5F5F5F5F5F5F5F5F5F5F5F5F5F5F5F5F5F5F5F5F5F5F5F5F5F5F5F5F5F5F5F5F5F5F5F5F5F5F5E2F5F5F5F5E2E2F5F5F5F5E2F5F5F5F5F5F5F5F5F5F5F5F5F5F5F5F5F5F5F5F5F5F5F5F5F5F5F5F5F5F5F5F5F5F5F5F5F5F5F5F5F5F5F5F5F5F5F5F5F5F5F5F5F5F5F5F5F5F5F5F5F5F5F5F5F5F5F5F5F5F5F5F5F5
310
F5F5F5F5F5F5F5F5F5F5F5F5F5F5F5F5F5F5F5F5F5F5F5F5F5F5F5F5F5F5F5F5F5F5F5F5F5F5F5F5F5F5F5F5F5F5F5F5F5F5F5F5F5F5F5F5F5F5F5F5F5F5F5F5F5F5F5F5F5F5F5F5F5F5F5F5F5F5F5F5F5F5F5F5F5F5F5F5F5F5F5F5F5F5F5E2F5F5F5F5E2E2F5F5F5F5E2F5F5F5F5F5F5F5F5F5F5F5F5F5F5F5F5F5F5F5F5
310
F5F5F5F5F5F5F5F5F5F5F5F5F5F5F5F5F5F5F5F5F5F5F5F5F5F5F5F5F5F5F5F5F5F5F5F5F5F5F5F5F5F5F5F5F5F5F5F5F5F5F5F5F5F5F5F5F5F5F5F5F5F5F5F5F5F5F5F5F5F5F5F5F5F5F5F5F5F5F5F5F5F5F5F5F5F5F5F5F5F5F5F5F5F5F5F5F5F5F5F5F5F5F5F5F5F5F5F5F5F5F5F5F5F5F5F5F5F5F5F5F5F5F5F5F5F5F5
310
F5F5F5F5F5F5F5F5F5F5F5F5F5F5F5F5F5F5F5F5F5E2F5F5F5F5E2E2F5F5F5F5E2F5F5F5F5F5F5F5F5F5F5F5F5F5F5F5F5F5F5F5F5F5F5F5F5F5F5F5F5F5F5F5F5F5F5F5F5F5F5F5F5F5F5F5F5F5F5F5F5F5F5F5F5F5F5F5F5F5F5F5F5F5F5F5F5F5F5F5F5F5F5F5F5F5F5F5F5F5F5F5F5F5F5F5F5F5F5F5F5F5F5F5F5F5F5
310
F5F5F5F5F5F5F5F5F5F5F5F5F5F5F5F5F5F5F5F5F5F5F5F5F5F5F5F5F5F5F5F5F5F5F5F5F5F5F5F5F5F5F5F5F5F5F5F5F5F5F5F5F5F5F5F5F5F5F5F5F5F5F5F5F5F5F5F5F5F5F5F5F5F5E2F5F5F5F5E2E2F5F5F5F5E2F5F5F5F5F5F5F5F5F5F5F5F5F5F5F5F5F5F5F5F5F5F5F5F5F5F5F5F5F5F5F5F5F5F5F5F5F5F5F5F5F5
310
F5F5F5F5F5F5F5F5F5F5F5F5F5F5F5F5F5F5F5F5F5F5F5F5F5F5F5F5F5F5F5F5F5F5F5F5F5F5F5F5F5F5F5F5F5F5F5F5F5F5F5F5F5F5F5F5F5F5F5F5F5F5F5F5F5F5F5F5F5F5F5F5F5F5F5F5F5F5F5F5F5F5F5F5F5F5F5F5F5F5F5F5F5F5F5F5F5F5F5F5F5F5F5F5F5F5F5F5F5F5F5F5F5F5F5F5F5F5F5F5F5F5F5F5F5F5F5
310
E2F5F5F5F5E2E2F5F5F5F5E2F5F5F5F5F5F5F5F5F5F5F5F5F5F5F5F5F5F5F5F5F5F5F5F5F5F5F5F5F5F5F5F5F5F5F5F5F5F5F5F5F5F5F5F5F5F5F5F5F5F5F5F5F5F5F5F5F5F5F5F5F5F5F5F5F5F5F5F5F5F5F5F5F5F5F5F5F5F5F5F5F5F5F5F5F5F5F5F5F5F5F5F5F5F5F5F5F5F5F5F5F5F5F5F5F5F5F5F5F5F5F5F5F5F5F5
310
F5F5F5F5F5F5F5F5F5F5F5F5F5F5F5F5F5F5F5F5F5F5F5F5F5F5F5F5F5F5F5F5F5F5F5F5F5F5F5F5F5F5F5F5F5F5F5F5F5F5F5F5F5E2F5F5F5F5E2E2F5F5F5F5E2F5F5F5F5F5F5F5F5F5F5F5F5F5F5F5F5F5F5F5F5F5F5F5F5F5F5F5F5F5F5F5F5F5F5F5F5F5F5F5F5F5F5F5F5F5F5F5F5F5F5F5F5F5F5F5F5F5F5F5F5F5F5
310
F5F5F5F5F5F5F5F5F5F5F5F5F5F5F5F5F5F5F5F5F5F5F5F5F5F5F5F5F5F5F5F5F5F5F5F5F5F5F5F5F5F5F5F5F5F5F5F5F5F5F5F5F5F5F5F5F5F5F5F5F5F5F5F5F5F5F5F5F5F5F5F5F5F5F5F5F5F5F5F5F5F5F5F5F5F5F5F5F5F5F5F5F5F5F5F5F5F5F5F5F5F5F5F5F5F5E2F5F5F5F5E2E2F5F5F5F5E2F5F5F5F5F5F5F5F5F5
310
F5F5F5F5F5F5F5F5F5F5F5F5F5F5F5F5F5F5F5F5F5F5F5F5F5F5F5F5F5F5F5F5F5F5F5F5F5F5F5F5F5F5F5F5F5F5F5F5F5F5F5F5F5F5F5F5F5F5F5F5F5F5F5F5F5F5F5F5F5F5F5F5F5F5F5F5F5F5F5F5F5F5F5F5F5F5F5F5F5F5F5F5F5F5F5F5F5F5F5F5F5F5F5F5F5F5F5F5F5F5F5F5F5F5F5F5F5F5F5F5F5F5F5F5F5F5F5
310
F5F5F5F5F5F5F5F5F5F5F5F5F5F5F5F5F5F5F5F5F5F5F5F5F5F5F5F5F5F5F5F5E2F5F5F5F5E2E2F5F5F5F5E2E2E2E2E2E2E2E2F5F5F5F5F5F5F5F5F5E2E2E2E2E2E2E2E2E2E2E2E2E2E2E2F5F5F5F5F5F5F5F5F5E2E2E2E2E2E2E2E2E2E2E2E2E2E2E2E2F5F5F5F5F5F5F5F5E2E2E2E2E2E2E2E2E2E2E2E2E2E2E2E2F5F5F5
310
F5F5F5F5F5E2E2E2E2E2E2E2E2E2E2E2E2E2E2E2E2F5F5F5F5F5F5F5F5E2E2E2E2E2E2E2E2E2E2E2E2E2E2E2E2F5F5F5F5F5F5F5F5F5E2E2E2E2E2E2E2E2E2E2E2E2E2E2E2F5F5F5F5F5F5F5F5F5E2E2E2E2E2E2E2E2F5F5F5F5E2E2F5F5F5F5F5F5F5F5F5F5F5F5F5F5F5F5F5F5F5F5F5F5F5F5F5F5F5F5F5F5F5F5F5F5F5
310
F5F5F5F5F5F5F5F5F5F5F5F5F5F5F5F5F5F5F5F5F5F5F5F5F5F5F5F5F5F5F5F5F5F5F5F5F5F5F5F5F5F5F5F5F5F5F5F5F5F5F5F5F5F5F5F5F5F5F5F5F5F5F5F5F5F5F5F5F5F5F5F5F5F5F5F5F5F5F5F5F5F5F5F5F5F5F5F5F5F5F5F5F5F5F5F5F5F5F5F5F5F5F5F5F5F5F5F5F5F5F5F5F5F5F5F5F5F5F5F5F5F5F5F5F5F5F5
310
F5F5F5F5F5F5F5F5F5F5F5F5F5F5F5F5E2E2F5F5F5F5F5F5F5F5F5F5F5F5F5F5F5F5F5F5F5F5F5F5F5F5F5F5F5F5F5F5F5F5F5F5F5F5F5F5F5F5F5F5F5F5F5F5F5F5F5F5F5F5F5F5F5F5F5F5F5F5F5F5F5F5F5F5F5F5F5F5F5F5F5F5F5F5F5F5F5F5F5F5F5F5F5F5F5F5F5F5F5F5F5F5F5F5F5F5F5F5F5F5F5F5F5F5F5F5F5
310
F5F5F5F5F5F5F5F5F5F5F5F5F5F5F5F5F5F5F5F5F5F5F5F5F5F5F5F5F5F5F5F5F5F5F5F5F5F5F5F5F5F5F5F5F5F5F5F5F5F5F5F5F5F5F5F5F5F5F5F5F5F5F5F5F5F5F5F5F5E2E2F5F5F5F5F5F5F5F5F5F5F5F5F5F5F5F5F5F5F5F5F5F5F5F5F5F5F5F5F5F5F5F5F5F5F5F5F5F5F5F5F5F5F5F5F5F5F5F5F5F5F5F5F5F5F5F5
310
F5F5F5F5F5F5F5F5F5F5F5F5F5F5F5F5F5F5F5F5F5F5F5F5F5F5F5F5F5F5F5F5F5F5F5F5F5F5F5F5F5F5F5F5F5F5F5F5F5F5F5F5F5F5F5F5F5F5F5F5F5F5F5F5F5F5F5F5F5F5F5F5F5F5F5F5F5F5F5F5F5F5F5F5F5F5F5F5F5F5F5F5F5F5F5F5F5F5F5F5F5F5F5F5F5F5F5F5F5F5F5F5F5F5F5F5F5F5F5F5F5F5E2E2E2E2E2
310
E2E2E2E2E2E2E2E2E2E2E2E2E2E2E2E2E2E2E2E2E2E2E2E2E2E2E2E2E2E2E2E2E2E2E2E2E2E2E2E2E2E2E2E2E2E2E2E2E2E2E2E2E2E2E2E2E2E2E2E2E2E2E2E2E2E2E2E2E2E2E2E2E2E2E2E2E2E2E2E2E2E2E2E2E2E2E2E2E2E2E2E2E2E2E2E2E2E2E2E2E2E2E2E2E2E2E2E2E2E2E2E2E2E2E2E2E2E2E2E2E2E2E2E2E2E2E2
310
E2E2E2E2E2E2E2E2E2E2E2E2E2E2E2E2E2E2E2E2E2E2E2E2E2E2E2E2E2E2E2E2E2E2E2E2E2E2E2E2E2E2E2E2E2E2E2E2E2
  0
XRECORD
  5
5681E
102
{ACAD_REACTORS
330
B5
102
}
330
B5
100
AcDbXrecord
280
     1
102
SHADEPLOT
 70
     0
102
SHADEPLOTRESLEVEL
 70
     2
102
SHADEPLOTCUSTOMDPI
 70
   300
  0
XRECORD
  5
B6
102
{ACAD_REACTORS
330
B5
102
}
330
B5
100
AcDbXrecord
280
     1
310
28000000B40000008B0000000100080000000000BC610000000000000000000000010000000000000000000000000000FFFFFF000000000000000000000000000000000000000000000000000000000000000000330000006600000099000000CC000000FF00000000330000333300006633000099330000CC330000FF3300
310
0000660000336600006666000099660000CC660000FF66000000990000339900006699000099990000CC990000FF99000000CC000033CC000066CC000099CC0000CCCC0000FFCC000000FF000033FF000066FF000099FF0000CCFF0000FFFF000000003300330033006600330099003300CC003300FF003300003333003333
310
33006633330099333300CC333300FF33330000663300336633006666330099663300CC663300FF66330000993300339933006699330099993300CC993300FF99330000CC330033CC330066CC330099CC3300CCCC3300FFCC330000FF330033FF330066FF330099FF3300CCFF3300FFFF330000006600330066006600660099
310
006600CC006600FF00660000336600333366006633660099336600CC336600FF33660000666600336666006666660099666600CC666600FF66660000996600339966006699660099996600CC996600FF99660000CC660033CC660066CC660099CC6600CCCC6600FFCC660000FF660033FF660066FF660099FF6600CCFF6600
310
FFFF660000009900330099006600990099009900CC009900FF00990000339900333399006633990099339900CC339900FF33990000669900336699006666990099669900CC669900FF66990000999900339999006699990099999900CC999900FF99990000CC990033CC990066CC990099CC9900CCCC9900FFCC990000FF99
310
0033FF990066FF990099FF9900CCFF9900FFFF99000000CC003300CC006600CC009900CC00CC00CC00FF00CC000033CC003333CC006633CC009933CC00CC33CC00FF33CC000066CC003366CC006666CC009966CC00CC66CC00FF66CC000099CC003399CC006699CC009999CC00CC99CC00FF99CC0000CCCC0033CCCC0066CC
310
CC0099CCCC00CCCCCC00FFCCCC0000FFCC0033FFCC0066FFCC0099FFCC00CCFFCC00FFFFCC000000FF003300FF006600FF009900FF00CC00FF00FF00FF000033FF003333FF006633FF009933FF00CC33FF00FF33FF000066FF003366FF006666FF009966FF00CC66FF00FF66FF000099FF003399FF006699FF009999FF00CC
310
99FF00FF99FF0000CCFF0033CCFF0066CCFF0099CCFF00CCCCFF00FFCCFF0000FFFF0033FFFF0066FFFF0099FFFF00CCFFFF00FFFFFF00000000000D0D0D001A1A1A00282828003535350043434300505050005D5D5D006B6B6B00787878008686860093939300A1A1A100AEAEAE00BBBBBB00C9C9C900D6D6D600E4E4E400
310
F1F1F100FFFFFF0000000000000000000000000000000000000000000000000000000000000000000000000000000000F5F5F5F5F5F5F5F5F5F5F5F5F5F5F5F5F5F5F5F5F5F5F5F5F5F5F5F5F5F5F5F5F5F5F5F5F5F5F5F5F5F5F5F5F5F5F5F5F5F5F5F5F5F5F5F5F5F5F5F5F5F5F5F5F5F5F5F5F5F5F5F5F5F5F5F5F5F5F5
310
F5F5F5F5F5F5F5F5F5F5F5F5F5F5F5F5F5F5F5F5F5F5F5F5F5F5F5F5F5F5F5F5F5F5F5F5F5F5F5F5F5F5F5F5F5F5F5F5F5F5F5F5F5F5F5F5F5F5F5F5F5F5F5F5F5F5F5F5F5F5F5F5F5F5F5F5F5F5F5F5F5F5F5F5F5F5F5F5F5F5F5F5F5F5F5F5F5F5F5F5F5F5E2E2E2E2E2E2E2E2E2E2E2E2E2E2E2E2E2E2E2E2E2E2E2E2E2
310
E2E2E2E2E2E2E2E2E2E2E2E2E2E2E2E2E2E2E2E2E2E2E2E2E2E2E2E2E2E2E2E2E2E2E2E2E2E2E2E2E2E2E2E2E2E2E2E2E2E2E2E2E2E2E2E2E2E2E2E2E2E2E2E2E2E2E2E2E2E2E2E2E2E2E2E2E2E2E2E2E2E2E2E2E2E2E2E2E2E2E2E2E2E2E2E2E2E2E2E2E2E2E2E2E2E2E2E2E2E2E2E2E2E2E2E2E2E2E2E2E2E2E2E2E2E2E2
310
E2E2E2E2E2E2E2E2E2E2E2E2E2E2E2E2E2E2E2E2E2E2E2E2E2E2F5F5E2E2E2E2E2E2E2E2E2E2E2E2E2E2E2E2E2E2E2E2E2E2E2E2E2E2E2E2E2E2E2E2E2E2E2E2E2E2E2E2E2E2E2E2E2E2E2E2E2E2E2E2E2E2E2E2E2E2E2E2E2E2E2E2E2E2E2E2E2E2E2E2E2E2E2E2E2E2E2E2E2E2E2E2E2E2E2E2E2E2E2E2E2E2E2E2E2E2E2
310
E2E2E2E2E2E2E2E2E2E2E2E2E2E2E2E2E2E2E2E2E2E2E2E2E2E2E2E2E2E2E2E2E2E2E2E2E2E2E2E2E2E2E2E2E2E2E2E2E2E2E2E2E2E2E2E2E2E2E2E2E2E2E2E2E2E2E2E2E2E2E2E2E2E2E2E2E2E2E2F5F5E2E2E2E2E2E2E2E2E2E2E2E2E2E2E2E2E2E2E2E2E2E2E2E2E2E2E2E2E2E2E2E2E2E2E2E2E2E2E2E2E2E2E2E2E2E2
310
E2E2E2E2E2E2E2E2E2E2E2E2E2E2E2E2E2E2E2E2E2E2E2E2E2E2E2E2E2E2E2E2E2E2E2E2E2E2E2E2E2E2E2E2E2E2E2E2E2E2E2E2E2E2E2E2E2E2E2E2E2E2E2E2E2E2E2E2E2E2E2E2E2E2E2E2E2E2E2E2E2E2E2E2E2E2E2E2E2E2E2E2E2E2E2E2E2E2E2E2E2E2E2E2E2E2E2E2E2E2E2E2E2E2E2E2E2E2E2E2E2E2E2E2E2E2E2
310
E2E2E2E2E2F5F5E2E2E2E2E2E2E2E2E2E2E2E2E2E2E2E2E2E2E2E2E2E2E2E2E2E2E2E2E2E2E2E2E2E2E2E2E2E2E2E2E2E2E2E2E2E2E2E2E2E2E2E2E2E2E2E2E2E2E2E2E2E2E2E2E2E2E2E2E2E2E2E2E2E2E2E2E2E2E2E2E2E2E2E2E2E2E2E2E2E2E2E2E2E2E2E2E2E2E2E2E2E2E2E2E2E2E2E2E2E2E2E2E2E2E2E2E2E2E2E2
310
E2E2E2E2E2E2E2E2E2E2E2E2E2E2E2E2E2E2E2E2E2E2E2E2E2E2E2E2E2E2E2E2E2E2E2E2E2E2E2E2E2E2E2E2E2E2E2E2E2E2E2E2E2E2E2E2E2E2F5F5E2E2E2F5F5F5F5F5F5F5F5E2E2E2E2E2E2E2E2E2F5F5F5F5F5F5F5F5F5F5F5F5F5F5F5F5E2E2E2E2E2E2E2E2E2F5F5F5F5F5F5F5F5F5F5F5F5F5F5F5E2E2E2E2E2E2E2
310
E2E2F5F5F5F5F5F5F5F5F5F5F5F5F5F5F5F5E2E2E2E2E2E2E2E2F5F5F5F5F5F5F5F5F5F5F5F5F5F5F5F5E2E2E2E2E2E2E2E2E2F5F5F5F5F5F5F5F5F5F5F5F5F5F5F5E2E2E2E2E2E2E2E2E2F5F5F5F5F5F5F5F5F5F5F5F5F5F5F5F5E2E2E2E2E2E2E2E2E2F5F5F5F5F5F5F5F5E2E2E2F5F5E2E2E2F5E2E2E2E2E2E2E2E2E2E2
310
E2E2E2E2E2E2E2E2E2E2E2E2E2E2E2E2E2E2E2E2E2E2E2E2E2E2E2E2E2E2E2E2E2E2E2E2E2E2E2E2E2E2E2E2E2E2E2E2E2E2E2E2E2E2E2E2E2E2E2E2E2E2E2E2E2E2E2E2E2E2E2E2E2E2E2E2E2E2E2E2E2E2E2E2E2E2E2E2E2E2E2E2E2E2E2E2E2E2E2E2E2E2E2E2E2E2E2E2E2E2E2E2E2E2E2E2E2E2E2E2E2E2E2E2E2E2E2
310
E2E2E2E2E2E2E2E2E2E2E2E2E2E2E2E2E2E2E2E2E2E2E2E2E2E2E2E2E2E2E2E2E2F5E2E2E2F5F5E2E2E2F5E2E2E2E2E2E2E2E2E2E2E2E2E2E2E2E2E2E2E2E2E2E2E2E2E2E2E2E2E2E2E2E2E2E2E2E2E2E2E2E2E2E2E2E2E2E2E2E2E2E2E2E2E2E2E2E2E2E2E2E2E2E2E2E2E2E2E2E2E2E2E2E2E2E2E2E2E2E2E2E2E2E2E2E2
310
E2E2E2E2E2E2E2E2E2E2E2E2E2E2E2E2E2E2E2E2E2E2E2E2E2E2E2E2E2E2E2E2E2E2E2E2E2E2E2E2E2E2E2E2E2E2E2E2E2E2E2E2E2E2E2E2E2E2E2E2E2E2E2E2E2E2E2E2E2E2E2E2E2E2E2E2E2E2E2E2E2E2E2E2E2E2F5E2E2E2F5F5E2E2E2F5E2E2E2E2E2E2E2E2E2E2E2E2E2E2E2E2E2E2E2E2E2E2E2E2E2E2E2E2E2E2E2
310
E2E2E2E2E2E2E2E2E2E2E2E2E2E2E2E2E2E2E2E2E2E2E2E2E2E2E2E2E2E2E2E2E2E2E2E2E2E2E2E2E2E2E2E2E2E2E2E2E2E2E2E2E2E2E2E2E2E2E2E2E2E2E2E2E2E2E2E2E2E2E2E2E2E2E2E2E2E2E2E2E2E2E2E2E2E2E2E2E2E2E2E2E2E2E2E2E2E2E2E2E2E2E2E2E2E2E2E2E2E2E2E2E2E2E2E2E2E2E2E2E2E2E2E2E2E2E2
310
E2E2E2E2E2E2E2E2E2E2E2E2F5E2E2E2F5F5E2E2E2F5E2E2E2E2E2E2E2E2E2E2E2E2E2E2E2E2E2E2E2E2E2E2E2E2E2E2E2E2E2E2E2E2E2E2E2E2E2E2E2E2E2E2E2E2E2E2E2E2E2E2E2E2E2E2E2E2E2E2E2E2E2E2E2E2E2E2E2E2E2E2E2E2E2E2E2E2E2E2E2E2E2E2E2E2E2E2E2E2E2E2E2E2E2E2E2E2E2E2E2E2E2E2E2E2E2
310
E2E2E2E2E2E2E2E2E2E2E2E2E2E2E2E2E2E2E2E2E2E2E2E2E2E2E2E2E2E2E2E2E2E2E2E2E2E2E2E2E2E2E2E2E2E2E2E2E2E2E2E2E2E2E2E2E2E2E2E2E2E2E2E2E2F5E2E2E2F5F5E2E2E2F5E2E2E2E2E2E2E2E2E2E2E2E2E2E2E2E2E2E2E2E2E2E2E2E2E2E2E2E2E2E2E2E2E2E2E2E2E2E2E2E2E2E2E2E2E2E2E2E2E2E2E2E2
310
E2E2E2E2E2E2E2E2E2E2E2E2E2E2E2E2E2E2E2E2E2E2E2E2E2E2E2E2E2E2E2E2E2E2E2E2E2E2E2E2E2E2E2E2E2E2E2E2E2E2E2E2E2E2E2E2E2E2E2E2E2E2E2E2E2E2E2E2E2E2E2E2E2E2E2E2E2E2E2E2E2E2E2E2E2E2E2E2E2E2E2E2E2E2E2E2E2E2E2E2E2E2E2E2E2E2E2E2E2E2E2E2E2E2E2E2E2E2F5E2E2E2F5F5E2E2E2
310
F5E2E2E2E2E2E2E2E2E2E2E2E2E2E2E2E2E2E2E2E2E2E2E2E2E2E2E2E2E2E2E2E2E2E2E2E2E2E2E2E2E2E2E2E2E2E2E2E2E2E2E2E2E2E2E2E2E2E2E2E2E2E2E2E2E2E2E2E2E2E2E2E2E2E2E2E2E2E2E2E2E2E2E2E2E2E2E2E2E2E2E2E2E2E2E2E2E2E2E2E2E2E2E2E2E2E2E2E2E2E2E2E2E2E2E2E2E2E2E2E2E2E2E2E2E2E2
310
E2E2E2E2E2E2E2E2E2E2E2E2E2E2E2E2E2E2E2E2E2E2E2E2E2E2E2E2E2E2E2E2E2E2E2E2E2E2E2E2E2E2E2E2F5E2E2E2F5F5E2E2E2F5E2E2E2E2E2E2E2E2E2E2E2E2E2E2E2E2E2E2E2E2E2E2E2E2E2E2E2E2E2E2E2E2E2E2E2E2E2E2E2E2E2E2E2E2E2E2E2E2E2E2E2E2E2E2E2E2E2E2E2E2E2E2E2E2E2E2E2E2E2E2E2E2E2
310
E2E2E2E2E2E2E2E2E2E2E2E2E2E2E2E2E2E2E2E2E2E2E2E2E2E2E2E2E2E2E2E2E2E2E2E2E2E2E2E2E2E2E2E2E2E2E2E2E2E2E2E2E2E2E2E2E2E2E2E2E2E2E2E2E2E2E2E2E2E2E2E2E2E2E2E2E2E2E2E2E2E2E2E2E2E2E2E2E2E2E2E2E2E2E2E2E2F5E2E2E2F5F5E2E2E2F5E2E2E2E2E2E2E2E2E2E2E2E2E2E2E2E2E2E2E2E2
310
E2E2E2E2E2E2E2E2E2E2E2E2E2E2E2E2E2E2E2E2E2E2E2E2E2E2E2E2E2E2E2E2E2E2E2E2E2E2E2E2E2E2E2E2E2E2E2E2E2E2E2E2E2E2E2E2E2E2E2E2E2E2E2E2E2E2E2E2E2E2E2E2E2E2E2E2E2E2E2E2E2E2E2E2E2E2E2E2E2E2E2E2E2E2E2E2E2E2E2E2E2E2E2E2E2E2E2E2E2E2E2E2E2E2E2E2E2E2E2E2E2E2E2E2E2E2E2
310
E2E2E2E2E2E2E2E2E2E2E2E2E2E2E2E2E2E2E2E2E2E2E2F5E2E2E2F5F5E2E2E2E2E2E2E2E2E2E2E2E2E2E2E2E2E2E2E2E2E2E2E2E2E2E2E2E2E2E2E2E2E2E2E2E2E2E2E2E2E2E2E2E2E2E2E2E2E2E2E2E2E2E2E2E2E2E2E2E2E2E2E2E2E2E2E2E2E2E2E2E2E2E2E2E2E2E2E2E2E2E2E2E2E2E2E2E2E2E2E2E2E2E2E2E2E2E2
310
E2E2E2E2E2E2E2E2E2E2E2E2E2E2E2E2E2E2E2E2E2E2E2E2E2E2E2E2E2E2E2E2E2E2E2E2E2E2E2E2E2E2E2E2E2E2E2E2E2E2E2E2E2E2E2E2E2E2E2E2E2E2E2E2E2E2E2E2E2E2E2E2E2E2E2E2E2E2E2E2F5F5E2E2E2E2E2E2E2E2E2E2E2E2E2E2E2E2E2E2E2E2E2E2E2E2E2E2E2E2E2E2E2E2E2E2E2E2E2E2E2E2E2E2E2E2E2
310
E2E2E2E2E2E2E2E2E2E2E2E2E2E2E2E2E2E2E2E2E2E2E2E2E2E2E2E2E2E2E2E2E2E2E2E2E2E2E2E2E2E2E2E2E2E2E2E2E2E2E2E2E2E2E2E2E2E2E2E2E2E2E2E2E2E2E2E2E2E2E2E2E2E2E2E2E2E2E2E2E2E2E2E2E2E2E2E2E2E2E2E2E2E2E2E2E2E2E2E2E2E2E2E2E2E2E2E2E2E2E2E2E2E2E2E2E2E2E2E2E2E2E2E2E2E2E2
310
E2E2E2E2E2E2F5F5E2E2E2E2E2E2E2E2E2E2E2E2E2E2E2E2E2E2E2E2E2E2E2E2E2E2E2E2E2E2E2E2E2E2E2E2E2E2E2E2E2E2E2E2E2E2E2E2E2E2E2E2E2E2E2E2E2E2E2E2E2E2E2E2E2E2E2E2E2E2E2E2E2E2E2E2E2E2E2E2E2E2E2E2E2E2E2E2E2E2E2E2E2E2E2E2E2E2E2E2E2E2E2E2E2E2E2E2E2E2E2E2E2E2E2E2E2E2E2
310
E2E2E2E2E2E2E2E2E2E2E2E2E2E2E2E2E2E2E2E2E2E2E2E2E2E2E2E2E2E2E2E2E2E2E2E2E2E2E2E2E2E2E2E2E2E2E2E2E2E2E2E2E2E2E2E2E2E2E2F5F5E2E2E2E2E2E2E2E2E2E2E2E2E2E2E2E2E2E2E2E2E2E2E2E2E2E2E2E2E2E2E2E2E2E2E2E2E2E2E2E2E2E2E2E2E2E2E2E2E2E2E2E2E2E2E2E2E2E2E2E2E2E2E2E2E2E2
310
E2E2E2E2E2E2E2E2E2E2E2E2E2E2E2E2E2E2E2E2E2E2E2E2E2E2E2E2E2E2E2E2E2E2E2E2E2E2E2E2E2E2E2E2E2E2E2E2E2E2E2E2E2E2E2E2E2E2E2E2E2E2E2E2E2E2E2E2E2E2E2E2E2E2E2E2E2E2E2E2E2E2E2E2E2E2E2E2E2E2E2E2E2E2E2E2E2E2E2E2E2E2E2E2E2E2E2E2E2E2E2E2F5F5E2E2E2E2E2E2E2E2E2E2E2E2E2
310
E2E2E2E2E2E2E2F5F5F5F5F5F5F5F5F5F5F5F5F5F5F5F5F5F5F5F5F5F5F5F5F5F5F5F5F5F5F5F5F5F5F5F5F5F5F5F5F5F5F5F5F5F5F5F5F5F5F5F5F5F5F5F5F5F5F5F5F5F5F5F5F5F5F5F5F5F5F5F5F5F5F5F5F5F5F5F5F5F5F5F5F5F5F5F5F5F5F5F5F5F5F5F5F5F5F5F5F5F5F5F5F5F5F5F5F5F5F5F5F5F5F5F5F5F5F5F5
310
F5F5F5F5F5F5F5F5F5F5F5F5F5F5F5F5F5F5E2E2E2E2E2E2E2E2E2E2E2E2E2E2E2E2E2E2E2E2F5F5E2E2E2E2E2E2E2E2E2E2E2E2E2E2E2E2E2E2E2E2F5E2E2E2E2E2E2E2E2E2E2E2E2E2E2E2E2E2E2E2E2E2E2E2E2E2E2E2E2E2E2E2E2E2E2E2E2E2E2E2E2E2E2E2E2E2E2E2E2E2E2E2E2E2E2E2E2E2E2E2E2E2E2E2E2E2E2
310
E2E2E2E2E2E2E2E2E2E2E2E2E2E2E2E2E2E2E2E2E2E2E2E2E2E2E2E2E2E2E2E2E2E2E2E2E2E2E2E2E2E2E2E2E2E2E2E2E2E2E2E2E2E2E2E2E2E2E2E2E2E2E2E2E2E2E2E2E2E2F5E2E2E2E2E2E2E2E2E2E2E2E2E2E2E2E2E2E2E2E2F5F5E2E2E2E2E2E2E2E2E2E2E2E2E2E2E2E2E2E2E2E2F5E2E2E2E2E2E2E2E2E2E2E2E2E2
310
E2E2E2E2E2E2E2E2E2E2E2E2E2E2E2E2E2E2E2E2E2E2E2E2E2E2E2E2E2E2E2E2E2E2E2E2E2E2E2E2E2E2E2E2E2E2E2E2E2E2E2E2E2E2E2E2E2E2E2E2E2E2E2E2E2E2E2E2E2E2E2E2E2E2E2E2E2E2E2E2E2E2E2E2E2E2E2E2E2E2E2E2E2E2E2E2E2E2E2E2E2E2E2E2E2E2E2E2E2E2E2E2E2E2E2E2E2E2E2E2E2E2E2F5E2E2E2
310
E2E2E2E2E2E2E2E2E2E2E2E2E2E2E2E2E2F5F5E2E2E2E2E2E2E2E2E2E2E2E2E2E2E2E2E2E2E2E2F5E2E2E2E2E2E2E2E2E2E2E2E2E2E2E2E2E2E2E2E2E2E2E2E2E2E2E2E2E2E2E2E2E2E2E2E2E2E2E2E2E2E2E2E2E2E2E2E2E2E2E2E2E2E2E2E2E2E2E2E2E2E2E2E2E2E2E2E2E2E2E2E2E2E2E2E2E2E2E2E2E2E2E2E2E2E2E2
310
E2E2E2E2E2E2E2E2E2E2E2E2E2E2E2E2E2E2E2E2E2E2E2E2E2E2E2E2E2E2E2E2E2E2E2E2E2E2E2E2E2E2E2E2E2E2E2E2E2F5E2E2E2E2E2E2E2E2E2E2E2E2E2E2E2E2E2E2E2E2F5F5E2E2E2E2E2E2E2E2E2E2E2E2E2E2E2E2E2E2E2E2F5E2E2E2E2E2E2E2E2E2E2E2E2E2E2E2E2E2E2E2E2E2E2E2E2E2E2E2E2E2E2E2E2E2E2
310
E2E2E2E2E2E2E2E2E2E2E2E2E2E2E2E2E2E2E2E2E2E2E2E2E2E2E2E2E2E2E2E2E2E2E2E2E2E2E2E2E2E2E2E2E2E2E2E2E2E2E2E2E2E2E2E2E2E2E2E2E2E2E2E2E2E2E2E2E2E2E2E2E2E2E2E2E2E2E2E2E2E2E2E2E2E2E2E2E2E2E2E2E2E2E2E2E2E2E2E2E2E2F5E2E2E2E2E2E2E2E2E2E2E2E2E2E2E2E2E2E2E2E2F5F5E2E2
310
E2F5E2E2E2E2E2E2E2E2E2E2E2E2E2E2E2E2F5E2E2E2E2E2E2E2E2E2E2E2E2E2E2E2E2E2E2E2E2E2E2E2E2E2E2E2E2E2E2E2E2E2E2E2E2E2E2E2E2E2E2E2E2E2E2E2E2E2E2E2E2E2E2E2E2E2E2E2E2E2E2E2E2E2E2E2E2E2E2E2E2E2E2E2E2E2E2E2E2E2E2E2E2E2E2E2E2E2E2E2E2E2E2E2E2E2E2E2E2E2E2E2E2E2E2E2E2
310
E2E2E2E2E2E2E2E2E2E2E2E2E2E2E2E2E2E2E2E2E2E2E2E2E2E2E2E2F5E2E2E2E2E2E2E2E2E2E2E2E2E2E2E2E2F5E2E2E2F5F5E2E2E2F5E2E2E2E2E2E2E2E2E2E2E2E2E2E2E2E2F5E2E2E2E2E2E2E2E2E2E2E2E2E2E2E2E2E2E2E2E2E2E2E2E2E2E2E2E2E2E2E2E2E2E2E2E2E2E2E2E2E2E2E2E2E2E2E2E2E2E2E2E2E2E2E2
310
E2E2E2E2E2E2E2E2E2E2E2E2E2E2E2E2E2E2E2E2E2E2E2E2E2E2E2E2E2E2E2E2E2E2E2E2E2E2E2E2E2E2E2E2E2E2E2E2E2E2E2E2E2E2E2E2E2E2E2E2E2E2E2E2E2E2E2E2E2E2E2E2E2E2E2E2E2E2E2E2E2F5E2E2E2E2E2E2E2E2E2E2E2E2E2E2E2E2F5E2E2E2F5F5E2E2E2F5E2E2E2E2E2E2E2E2E2E2E2E2E2E2E2E2F5E2E2
310
E2E2E2E2E2E2E2E2E2E2E2E2E2E2E2E2E2E2E2E2E2E2E2E2E2E2E2E2E2E2E2E2E2E2E2E2E2E2E2E2E2E2E2E2E2E2E2E2E2E2E2E2E2E2E2E2E2E2E2E2E2E2E2E2E2E2E2E2E2E2E2E2E2E2E2E2E2E2E2E2E2E2E2E2E2E2E2E2E2E2E2E2E2E2E2E2E2E2E2E2E2E2E2E2E2E2E2E2E2E2E2E2E2E2E2E2E2E2E2E2E2E2E2E2E2E2E2
310
E2E2E2E2E2E2E2F5E2E2E2E2E2E2E2E2E2E2E2E2E2E2E2E2F5E2E2E2F5F5E2E2E2F5E2E2E2E2E2E2E2E2E2E2E2E2E2E2E2E2F5E2E2E2E2E2E2E2E2E2E2E2E2E2E2E2E2E2E2E2E2E2E2E2E2E2E2E2E2E2E2E2E2E2E2E2E2E2E2E2E2E2E2E2E2E2E2E2E2E2E2E2E2E2E2E2E2E2E2E2E2E2E2E2E2E2E2E2E2E2E2E2E2E2E2E2E2
310
E2E2E2E2E2E2E2E2E2E2E2E2E2E2E2E2E2E2E2E2E2E2E2E2E2E2E2E2E2E2E2E2E2E2E2E2E2E2E2E2E2E2E2E2E2E2E2E2E2E2E2E2E2E2E2E2E2E2E2E2F5E2E2E2E2E2E2E2E2E2E2E2E2E2E2E2E2F5E2E2E2F5F5E2E2E2F5E2E2E2E2E2E2E2E2E2E2E2E2E2E2E2E2F5E2E2E2E2E2E2E2E2E2E2E2E2E2E2E2E2E2E2E2E2E2E2E2
310
E2E2E2E2E2E2E2E2E2E2E2E2E2E2E2E2E2E2E2E2E2E2E2E2E2E2E2E2E2E2E2E2E2E2E2E2E2E2E2E2E2E2E2E2E2E2E2E2E2E2E2E2E2E2E2E2E2E2E2E2E2E2E2E2E2E2E2E2E2E2E2E2E2E2E2E2E2E2E2E2E2E2E2E2E2E2E2E2E2E2E2E2E2E2E2E2E2E2E2E2E2E2E2E2E2E2E2E2E2E2E2E2E2F5E2E2E2E2E2E2E2E2E2E2E2E2E2
310
E2E2E2F5E2E2E2F5F5E2E2E2F5E2E2E2E2E2E2E2E2E2E2E2E2E2E2E2E2F5E2E2E2E2E2E2E2E2E2E2E2E2E2E2E2E2E2E2E2E2E2E2E2E2E2E2E2E2E2E2E2E2E2E2E2E2E2E2E2E2E2E2E2E2E2E2E2E2E2E2E2E2E2E2E2E2E2E2E2E2E2E2E2E2E2E2E2E2E2E2E2E2E2E2E2E2E2E2E2E2E2E2E2E2E2E2E2E2E2E2E2E2E2E2E2E2E2
310
E2E2E2E2E2E2E2E2E2E2E2E2E2E2E2E2E2E2E2E2E2E2E2E2E2E2E2E2E2E2E2E2E2E2E2E2E2E2E2F5E2E2E2E2E2E2E2E2E2E2E2E2E2E2E2E2F5E2E2E2F5F5E2E2E2F5E2E2E2E2E2E2E2E2E2E2E2E2E2E2E2E2F5E2E2E2E2E2E2E2E2E2E2E2E2E2E2E2E2E2E2E2E2E2E2E2E2E2E2E2E2E2E2E2E2E2E2E2E2E2E2E2E2E2E2E2E2
310
E2E2E2E2E2E2E2E2E2E2E2E2E2E2E2E2E2E2E2E2E2E2E2E2E2E2E2E2E2E2E2E2E2E2E2E2E2E2E2E2E2E2E2E2E2E2E2E2E2E2E2E2E2E2E2E2E2E2E2E2E2E2E2E2E2E2E2E2E2E2E2E2E2E2E2E2E2E2E2E2E2E2E2E2E2E2E2E2E2E2E2E2F5E2E2E2E2E2E2E2E2E2E2E2E2E2E2E2E2F5E2E2E2F5F5E2E2E2F5E2E2E2E2E2E2E2E2
310
E2E2E2E2E2E2E2E2F5E2E2E2E2E2E2E2E2E2E2E2E2E2E2E2E2E2E2E2E2E2E2E2E2E2E2E2E2E2E2E2E2E2E2E2E2E2E2E2E2E2E2E2E2E2E2E2E2E2E2E2E2E2E2E2E2E2E2E2E2E2E2E2E2E2E2E2E2E2E2E2E2E2E2E2E2E2E2E2E2E2E2E2E2E2E2E2E2E2E2E2E2E2E2E2E2E2E2E2E2E2E2E2E2E2E2E2E2E2E2E2E2E2E2E2E2E2E2
310
E2E2E2E2E2E2E2E2E2E2E2E2E2E2E2E2E2E2F5E2E2E2E2E2E2E2E2E2E2E2E2E2E2E2E2F5E2E2E2F5F5E2E2E2F5E2E2E2E2E2E2E2E2E2E2E2E2E2E2E2E2F5E2E2E2E2E2E2E2E2E2E2E2E2E2E2E2E2E2E2E2E2E2E2E2E2E2E2E2E2E2E2E2E2E2E2E2E2E2E2E2E2E2E2E2E2E2E2E2E2E2E2E2E2E2E2E2E2E2E2E2E2E2E2E2E2E2
310
E2E2E2E2E2E2E2E2E2E2E2E2E2E2E2E2E2E2E2E2E2E2E2E2E2E2E2E2E2E2E2E2E2E2E2E2E2E2E2E2E2E2E2E2E2E2E2E2E2E2E2E2E2E2E2E2E2E2E2E2E2E2E2E2E2E2E2E2E2E2E2F5E2E2E2E2E2E2E2E2E2E2E2E2E2E2E2E2F5E2E2E2F5F5E2E2E2F5E2E2E2E2E2E2E2E2E2E2E2E2E2E2E2E2F5E2E2E2E2E2E2E2E2E2E2E2E2
310
E2E2E2E2E2E2E2E2E2E2E2E2E2E2E2E2E2E2E2E2E2E2E2E2E2E2E2E2E2E2E2E2E2E2E2E2E2E2E2E2E2E2E2E2E2E2E2E2E2E2E2E2E2E2E2E2E2E2E2E2E2E2E2E2E2E2E2E2E2E2E2E2E2E2E2E2E2E2E2E2E2E2E2E2E2E2E2E2E2E2E2E2E2E2E2E2E2E2E2E2E2E2E2E2E2E2E2E2E2E2E2E2E2E2E2E2E2E2E2E2E2E2E2E2F5E2E2
310
E2E2E2E2E2E2E2E2E2E2E2E2E2E2F5E2E2E2F5F5E2E2E2F5E2E2E2E2E2E2E2E2E2E2E2E2E2E2E2E2F5E2E2E2E2E2E2E2E2E2E2E2E2E2E2E2E2E2E2E2E2E2E2E2E2E2E2E2E2E2E2E2E2E2E2E2E2E2E2E2E2E2E2E2E2E2E2E2E2E2E2E2E2E2E2E2E2E2E2E2E2E2E2E2E2E2E2E2E2E2E2E2E2E2E2E2E2E2E2E2E2E2E2E2E2E2E2
310
E2E2E2E2E2E2E2E2E2E2E2E2E2E2E2E2E2E2E2E2E2E2E2E2E2E2E2E2E2E2E2E2E2E2E2E2E2E2E2E2E2E2E2E2E2E2E2E2E2E2F5E2E2E2E2E2E2E2E2E2E2E2E2E2E2E2E2F5E2E2E2F5F5E2E2E2F5E2E2E2E2E2E2E2E2E2E2E2E2E2E2E2E2F5E2E2E2E2E2E2E2E2E2E2E2E2E2E2E2E2E2E2E2E2E2E2E2E2E2E2E2E2E2E2E2E2E2
310
E2E2E2E2E2E2E2E2E2E2E2E2E2E2E2E2E2E2E2E2E2E2E2E2E2E2E2E2E2E2E2E2E2E2E2E2E2E2E2E2E2E2E2E2E2E2E2E2E2E2E2E2E2E2E2E2E2E2E2E2E2E2E2E2E2E2E2E2E2E2E2E2E2E2E2E2E2E2E2E2E2E2E2E2E2E2E2E2E2E2E2E2E2E2E2E2E2E2E2E2E2E2E2F5E2E2E2E2E2E2E2E2E2E2E2E2E2E2E2E2F5E2E2E2F5F5E2
310
E2E2F5E2E2E2E2E2E2E2E2E2E2E2E2E2E2E2E2F5E2E2E2E2E2E2E2E2E2E2E2E2E2E2E2E2E2E2E2E2E2E2E2E2E2E2E2E2E2E2E2E2E2E2E2E2E2E2E2E2E2E2E2E2E2E2E2E2E2E2E2E2E2E2E2E2E2E2E2E2E2E2E2E2E2E2E2E2E2E2E2E2E2E2E2E2E2E2E2E2E2E2E2E2E2E2E2E2E2E2E2E2E2E2E2E2E2E2E2E2E2E2E2E2E2E2E2
310
E2E2E2E2E2E2E2E2E2E2E2E2E2E2E2E2E2E2E2E2E2E2E2E2E2E2E2E2E2F5E2E2E2E2E2E2E2E2E2E2E2E2E2E2E2E2F5E2E2E2F5F5E2E2E2F5E2E2E2E2E2E2E2E2E2E2E2E2E2E2E2E2F5E2E2E2E2E2E2E2E2E2E2E2E2E2E2E2E2E2E2E2E2E2E2E2E2E2E2E2E2E2E2E2E2E2E2E2E2E2E2E2E2E2E2E2E2E2E2E2E2E2E2E2E2E2E2
310
E2E2E2E2E2E2E2E2E2E2E2E2E2E2E2E2E2E2E2E2E2E2E2E2E2E2E2E2E2E2E2E2E2E2E2E2E2E2E2E2E2E2E2E2E2E2E2E2E2E2E2E2E2E2E2E2E2E2E2E2E2E2E2E2E2E2E2E2E2E2E2E2E2E2E2E2E2E2E2E2E2E2F5E2E2E2E2E2E2E2E2E2E2E2E2E2E2E2E2F5E2E2E2F5F5E2E2E2F5E2E2E2E2E2E2E2E2E2E2E2E2E2E2E2E2F5E2
310
E2E2E2E2E2E2E2E2E2E2E2E2E2E2E2E2E2E2E2E2E2E2E2E2E2E2E2E2E2E2E2E2E2E2E2E2E2E2E2E2E2E2E2E2E2E2E2E2E2E2E2E2E2E2E2E2E2E2E2E2E2E2E2E2E2E2E2E2E2E2E2E2E2E2E2E2E2E2E2E2E2E2E2E2E2E2E2E2E2E2E2E2E2E2E2E2E2E2E2E2E2E2E2E2E2E2E2E2E2E2E2E2E2E2E2E2E2E2E2E2E2E2E2E2E2E2E2
310
E2E2E2E2E2E2E2E2F5E2E2E2E2E2E2E2E2E2E2E2E2E2E2E2E2F5E2E2E2F5F5E2E2E2F5E2E2E2E2E2E2E2E2E2E2E2E2E2E2E2E2F5E2E2E2E2E2E2E2E2E2E2E2E2E2E2E2E2E2E2E2E2E2E2E2E2E2E2E2E2E2E2E2E2E2E2E2E2E2E2E2E2E2E2E2E2E2E2E2E2E2E2E2E2E2E2E2E2E2E2E2E2E2E2E2E2E2E2E2E2E2E2E2E2E2E2E2
310
E2E2E2E2E2E2E2E2E2E2E2E2E2E2E2E2E2E2E2E2E2E2E2E2E2E2E2E2E2E2E2E2E2E2E2E2E2E2E2E2E2E2E2E2E2E2E2E2E2E2E2E2E2E2E2E2E2E2E2E2E2F5E2E2E2E2E2E2E2E2E2E2E2E2E2E2E2E2F5E2E2E2F5F5E2E2E2F5E2E2E2E2E2E2E2E2E2E2E2E2E2E2E2E2F5E2E2E2E2E2E2E2E2E2E2E2E2E2E2E2E2E2E2E2E2E2E2
310
E2E2E2E2E2E2E2E2E2E2E2E2E2E2E2E2E2E2E2E2E2E2E2E2E2E2E2E2E2E2E2E2E2E2E2E2E2E2E2E2E2E2E2E2E2E2E2E2E2E2E2E2E2E2E2E2E2E2E2E2E2E2E2E2E2E2E2E2E2E2E2E2E2E2E2E2E2E2E2E2E2E2E2E2E2E2E2E2E2E2E2E2E2E2E2E2E2E2E2E2E2E2E2E2E2E2E2E2E2E2E2E2E2E2F5E2E2E2E2E2E2E2E2E2E2E2E2
310
E2E2E2E2F5E2E2E2F5F5E2E2E2E2E2E2E2E2E2E2E2E2E2E2E2E2E2E2E2E2F5E2E2E2E2E2E2E2E2E2E2E2E2E2E2E2E2E2E2E2E2E2E2E2E2E2E2E2E2E2E2E2E2E2E2E2E2E2E2E2E2E2E2E2E2E2E2E2E2E2E2E2E2E2E2E2E2E2E2E2E2E2E2E2E2E2E2E2E2E2E2E2E2E2E2E2E2E2E2E2E2E2E2E2E2E2E2E2E2E2E2E2E2E2E2E2E2
310
E2E2E2E2E2E2E2E2E2E2E2E2E2E2E2E2E2E2E2E2E2E2E2E2E2E2E2E2E2E2E2E2E2E2E2E2E2E2E2E2F5E2E2E2E2E2E2E2E2E2E2E2E2E2E2E2E2E2E2E2E2F5F5E2E2E2E2E2E2E2E2E2E2E2E2E2E2E2E2E2E2E2E2F5E2E2E2E2E2E2E2E2E2E2E2E2E2E2E2E2E2E2E2E2E2E2E2E2E2E2E2E2E2E2E2E2E2E2E2E2E2E2E2E2E2E2E2
310
E2E2E2E2E2E2E2E2E2E2E2E2E2E2E2E2E2E2E2E2E2E2E2E2E2E2E2E2E2E2E2E2E2E2E2E2E2E2E2E2E2E2E2E2E2E2E2E2E2E2E2E2E2E2E2E2E2E2E2E2E2E2E2E2E2E2E2E2E2E2E2E2E2E2E2E2E2E2E2E2E2E2E2E2E2E2E2E2E2E2E2E2E2F5E2E2E2E2E2E2E2E2E2E2E2E2E2E2E2E2E2E2E2E2F5F5E2E2E2E2E2E2E2E2E2E2E2
310
E2E2E2E2E2E2E2E2E2F5E2E2E2E2E2E2E2E2E2E2E2E2E2E2E2E2E2E2E2E2E2E2E2E2E2E2E2E2E2E2E2E2E2E2E2E2E2E2E2E2E2E2E2E2E2E2E2E2E2E2E2E2E2E2E2E2E2E2E2E2E2E2E2E2E2E2E2E2E2E2E2E2E2E2E2E2E2E2E2E2E2E2E2E2E2E2E2E2E2E2E2E2E2E2E2E2E2E2E2E2E2E2E2E2E2E2E2E2E2E2E2E2E2E2E2E2E2
310
E2E2E2E2E2E2E2E2E2E2E2E2E2E2E2E2E2E2E2F5E2E2E2E2E2E2E2E2E2E2E2E2E2E2E2E2E2E2E2E2F5F5E2E2E2E2E2E2E2E2E2E2E2E2E2E2E2E2E2E2E2E2F5E2E2E2E2E2E2E2E2E2E2E2E2E2E2E2E2E2E2E2E2E2E2E2E2E2E2E2E2E2E2E2E2E2E2E2E2E2E2E2E2E2E2E2E2E2E2E2E2E2E2E2E2E2E2E2E2E2E2E2E2E2E2E2E2
310
E2E2E2E2E2E2E2E2E2E2E2E2E2E2E2E2E2E2E2E2E2E2E2E2E2E2E2E2E2E2E2E2E2E2E2E2E2E2E2E2E2E2E2E2E2E2E2E2E2E2E2E2E2E2E2E2E2E2E2E2E2E2E2E2E2E2E2E2E2E2E2E2F5E2E2E2E2E2E2E2E2E2E2E2E2E2E2E2E2E2E2E2E2F5F5E2E2E2E2E2E2E2E2E2E2E2E2E2E2E2E2E2E2E2E2F5E2E2E2E2E2E2E2E2E2E2E2
310
E2E2E2E2E2E2E2E2E2E2E2E2E2E2E2E2E2E2E2E2E2E2E2E2E2E2E2E2E2E2E2E2E2E2E2E2E2E2E2E2E2E2E2E2E2E2E2E2E2E2E2E2E2E2E2E2E2E2E2E2E2E2E2E2E2E2E2E2E2E2E2E2E2E2E2E2E2E2E2E2E2E2E2E2E2E2E2E2E2E2E2E2E2E2E2E2E2E2E2E2E2E2E2E2E2E2E2E2E2E2E2E2E2E2E2E2E2E2E2E2E2E2E2E2E2F5E2
310
E2E2E2E2E2E2E2E2E2E2E2E2E2E2E2E2E2E2E2F5F5E2E2E2E2E2E2E2E2E2E2E2E2E2E2E2E2E2E2E2E2F5E2E2E2E2E2E2E2E2E2E2E2E2E2E2E2E2E2E2E2E2E2E2E2E2E2E2E2E2E2E2E2E2E2E2E2E2E2E2E2E2E2E2E2E2E2E2E2E2E2E2E2E2E2E2E2E2E2E2E2E2E2E2E2E2E2E2E2E2E2E2E2E2E2E2E2E2E2E2E2E2E2E2E2E2E2
310
E2E2E2E2E2E2E2E2E2E2E2E2E2E2E2E2E2E2E2E2E2E2E2E2E2E2E2E2E2E2E2E2E2E2E2E2E2E2E2E2E2E2E2E2E2E2E2E2E2E2E2F5E2E2E2E2E2E2E2E2E2E2E2E2E2E2E2E2E2E2E2E2F5F5E2E2E2E2E2E2E2E2E2E2E2E2E2E2E2E2E2E2E2E2F5E2E2E2E2E2E2E2E2E2E2E2E2E2E2E2E2E2E2E2E2E2E2E2E2E2E2E2E2E2E2E2E2
310
E2E2E2E2E2E2E2E2E2E2E2E2E2E2E2E2E2E2E2E2E2E2E2E2E2E2E2E2E2E2E2E2E2E2E2E2E2E2E2E2E2E2E2E2E2E2E2E2E2E2E2E2E2E2E2E2E2E2E2E2E2E2E2E2E2E2E2E2E2E2E2E2E2E2E2E2E2E2E2E2E2E2E2E2E2E2E2E2E2E2E2E2E2E2E2E2E2E2E2E2E2E2E2E2F5E2E2E2E2E2E2E2E2E2E2E2E2E2E2E2E2E2E2E2E2F5F5
310
E2E2E2E2E2E2E2E2E2E2E2E2E2E2E2E2E2E2E2E2F5E2E2E2E2E2E2E2E2E2E2E2E2E2E2E2E2E2E2E2E2E2E2E2E2E2E2E2E2E2E2E2E2E2E2E2E2E2E2E2E2E2E2E2E2E2E2E2E2E2E2E2E2E2E2E2E2E2E2E2E2E2E2E2E2E2E2E2E2E2E2E2E2E2E2E2E2E2E2E2E2E2E2E2E2E2E2E2E2E2E2E2E2E2E2E2E2E2E2E2E2E2E2E2E2E2E2
310
E2E2E2E2E2E2E2E2E2E2E2E2E2E2E2E2E2E2E2E2E2E2E2E2E2E2E2E2E2E2F5E2E2E2E2E2E2E2E2E2E2E2E2E2E2E2E2E2E2E2E2F5F5E2E2E2E2E2E2E2E2E2E2E2E2E2E2E2E2E2E2E2E2F5E2E2E2E2E2E2E2E2E2E2E2E2E2E2E2E2E2E2E2E2E2E2E2E2E2E2E2E2E2E2E2E2E2E2E2E2E2E2E2E2E2E2E2E2E2E2E2E2E2E2E2E2E2
310
E2E2E2E2E2E2E2E2E2E2E2E2E2E2E2E2E2E2E2E2E2E2E2E2E2E2E2E2E2E2E2E2E2E2E2E2E2E2E2E2E2E2E2E2E2E2E2E2E2E2E2E2E2E2E2E2E2E2E2E2E2E2E2E2E2E2E2E2E2E2E2E2E2E2E2E2E2E2E2E2E2E2E2F5E2E2E2E2E2E2E2E2E2E2E2E2E2E2E2E2E2E2E2E2F5F5E2E2E2F5E2E2E2E2E2E2E2E2E2E2E2E2E2E2E2E2F5
310
E2E2E2E2E2E2E2E2E2E2E2E2E2E2E2E2E2E2E2E2E2E2E2E2E2E2E2E2E2E2E2E2E2E2E2E2E2E2E2E2E2E2E2E2E2E2E2E2E2E2E2E2E2E2E2E2E2E2E2E2E2E2E2E2E2E2E2E2E2E2E2E2E2E2E2E2E2E2E2E2E2E2E2E2E2E2E2E2E2E2E2E2E2E2E2E2E2E2E2E2E2E2E2E2E2E2E2E2E2E2E2E2E2E2E2E2E2E2E2E2E2E2E2E2E2E2E2
310
E2E2E2E2E2E2E2E2E2F5E2E2E2E2E2E2E2E2E2E2E2E2E2E2E2E2F5E2E2E2F5F5E2E2E2F5E2E2E2E2E2E2E2E2E2E2E2E2E2E2E2E2F5E2E2E2E2E2E2E2E2E2E2E2E2E2E2E2E2E2E2E2E2E2E2E2E2E2E2E2E2E2E2E2E2E2E2E2E2E2E2E2E2E2E2E2E2E2E2E2E2E2E2E2E2E2E2E2E2E2E2E2E2E2E2E2E2E2E2E2E2E2E2E2E2E2E2
310
E2E2E2E2E2E2E2E2E2E2E2E2E2E2E2E2E2E2E2E2E2E2E2E2E2E2E2E2E2E2E2E2E2E2E2E2E2E2E2E2E2E2E2E2E2E2E2E2E2E2E2E2E2E2E2E2E2E2E2E2E2E2F5E2E2E2E2E2E2E2E2E2E2E2E2E2E2E2E2F5E2E2E2F5F5E2E2E2F5E2E2E2E2E2E2E2E2E2E2E2E2E2E2E2E2F5E2E2E2E2E2E2E2E2E2E2E2E2E2E2E2E2E2E2E2E2E2
310
E2E2E2E2E2E2E2E2E2E2E2E2E2E2E2E2E2E2E2E2E2E2E2E2E2E2E2E2E2E2E2E2E2E2E2E2E2E2E2E2E2E2E2E2E2E2E2E2E2E2E2E2E2E2E2E2E2E2E2E2E2E2E2E2E2E2E2E2E2E2E2E2E2E2E2E2E2E2E2E2E2E2E2E2E2E2E2E2E2E2E2E2E2E2E2E2E2E2E2E2E2E2E2E2E2E2E2E2E2E2E2E2E2E2E2F5E2E2E2E2E2E2E2E2E2E2E2
310
E2E2E2E2E2F5E2E2E2F5F5E2E2E2F5E2E2E2E2E2E2E2E2E2E2E2E2E2E2E2E2F5E2E2E2E2E2E2E2E2E2E2E2E2E2E2E2E2E2E2E2E2E2E2E2E2E2E2E2E2E2E2E2E2E2E2E2E2E2E2E2E2E2E2E2E2E2E2E2E2E2E2E2E2E2E2E2E2E2E2E2E2E2E2E2E2E2E2E2E2E2E2E2E2E2E2E2E2E2E2E2E2E2E2E2E2E2E2E2E2E2E2E2E2E2E2E2
310
E2E2E2E2E2E2E2E2E2E2E2E2E2E2E2E2E2E2E2E2E2E2E2E2E2E2E2E2E2E2E2E2E2E2E2E2E2E2E2E2E2F5E2E2E2E2E2E2E2E2E2E2E2E2E2E2E2E2F5E2E2E2F5F5E2E2E2F5E2E2E2E2E2E2E2E2E2E2E2E2E2E2E2E2F5E2E2E2E2E2E2E2E2E2E2E2E2E2E2E2E2E2E2E2E2E2E2E2E2E2E2E2E2E2E2E2E2E2E2E2E2E2E2E2E2E2E2
310
E2E2E2E2E2E2E2E2E2E2E2E2E2E2E2E2E2E2E2E2E2E2E2E2E2E2E2E2E2E2E2E2E2E2E2E2E2E2E2E2E2E2E2E2E2E2E2E2E2E2E2E2E2E2E2E2E2E2E2E2E2E2E2E2E2E2E2E2E2E2E2E2E2E2E2E2E2E2E2E2E2E2E2E2E2E2E2E2E2E2E2E2E2E2F5E2E2E2E2E2E2E2E2E2E2E2E2E2E2E2E2F5E2E2E2F5F5E2E2E2F5E2E2E2E2E2E2
310
E2E2E2E2E2E2E2E2E2E2F5E2E2E2E2E2E2E2E2E2E2E2E2E2E2E2E2E2E2E2E2E2E2E2E2E2E2E2E2E2E2E2E2E2E2E2E2E2E2E2E2E2E2E2E2E2E2E2E2E2E2E2E2E2E2E2E2E2E2E2E2E2E2E2E2E2E2E2E2E2E2E2E2E2E2E2E2E2E2E2E2E2E2E2E2E2E2E2E2E2E2E2E2E2E2E2E2E2E2E2E2E2E2E2E2E2E2E2E2E2E2E2E2E2E2E2E2
310
E2E2E2E2E2E2E2E2E2E2E2E2E2E2E2E2E2E2E2E2F5E2E2E2E2E2E2E2E2E2E2E2E2E2E2E2E2F5E2E2E2F5F5E2E2E2F5E2E2E2E2E2E2E2E2E2E2E2E2E2E2E2E2F5E2E2E2E2E2E2E2E2E2E2E2E2E2E2E2E2E2E2E2E2E2E2E2E2E2E2E2E2E2E2E2E2E2E2E2E2E2E2E2E2E2E2E2E2E2E2E2E2E2E2E2E2E2E2E2E2E2E2E2E2E2E2E2
310
E2E2E2E2E2E2E2E2E2E2E2E2E2E2E2E2E2E2E2E2E2E2E2E2E2E2E2E2E2E2E2E2E2E2E2E2E2E2E2E2E2E2E2E2E2E2E2E2E2E2E2E2E2E2E2E2E2E2E2E2E2E2E2E2E2E2E2E2E2E2E2E2E2F5E2E2E2E2E2E2E2E2E2E2E2E2E2E2E2E2F5E2E2E2F5F5E2E2E2F5E2E2E2E2E2E2E2E2E2E2E2E2E2E2E2E2F5E2E2E2E2E2E2E2E2E2E2
310
E2E2E2E2E2E2E2E2E2E2E2E2E2E2E2E2E2E2E2E2E2E2E2E2E2E2E2E2E2E2E2E2E2E2E2E2E2E2E2E2E2E2E2E2E2E2E2E2E2E2E2E2E2E2E2E2E2E2E2E2E2E2E2E2E2E2E2E2E2E2E2E2E2E2E2E2E2E2E2E2E2E2E2E2E2E2E2E2E2E2E2E2E2E2E2E2E2E2E2E2E2E2E2E2E2E2E2E2E2E2E2E2E2E2E2E2E2E2E2E2E2E2E2E2E2E2F5
310
E2E2E2E2E2E2E2E2E2E2E2E2E2E2E2E2F5E2E2E2F5F5E2E2E2F5E2E2E2E2E2E2E2E2E2E2E2E2E2E2E2E2F5E2E2E2E2E2E2E2E2E2E2E2E2E2E2E2E2E2E2E2E2E2E2E2E2E2E2E2E2E2E2E2E2E2E2E2E2E2E2E2E2E2E2E2E2E2E2E2E2E2E2E2E2E2E2E2E2E2E2E2E2E2E2E2E2E2E2E2E2E2E2E2E2E2E2E2E2E2E2E2E2E2E2E2E2
310
E2E2E2E2E2E2E2E2E2E2E2E2E2E2E2E2E2E2E2E2E2E2E2E2E2E2E2E2E2E2E2E2E2E2E2E2E2E2E2E2E2E2E2E2E2E2E2E2E2E2E2E2F5E2E2E2E2E2E2E2E2E2E2E2E2E2E2E2E2F5E2E2E2F5F5E2E2E2F5E2E2E2E2E2E2E2E2E2E2E2E2E2E2E2E2F5E2E2E2E2E2E2E2E2E2E2E2E2E2E2E2E2E2E2E2E2E2E2E2E2E2E2E2E2E2E2E2
310
E2E2E2E2E2E2E2E2E2E2E2E2E2E2E2E2E2E2E2E2E2E2E2E2E2E2E2E2E2E2E2E2E2E2E2E2E2E2E2E2E2E2E2E2E2E2E2E2E2E2E2E2E2E2E2E2E2E2E2E2E2E2E2E2E2E2E2E2E2E2E2E2E2E2E2E2E2E2E2E2E2E2E2E2E2E2E2E2E2E2E2E2E2E2E2E2E2E2E2E2E2E2E2E2E2F5E2E2E2E2E2E2E2E2E2E2E2E2E2E2E2E2F5E2E2E2F5
310
F5E2E2E2F5E2E2E2E2E2E2E2E2E2E2E2E2E2E2E2E2F5E2E2E2E2E2E2E2E2E2E2E2E2E2E2E2E2E2E2E2E2E2E2E2E2E2E2E2E2E2E2E2E2E2E2E2E2E2E2E2E2E2E2E2E2E2E2E2E2E2E2E2E2E2E2E2E2E2E2E2E2E2E2E2E2E2E2E2E2E2E2E2E2E2E2E2E2E2E2E2E2E2E2E2E2E2E2E2E2E2E2E2E2E2E2E2E2E2E2E2E2E2E2E2E2E2
310
E2E2E2E2E2E2E2E2E2E2E2E2E2E2E2E2E2E2E2E2E2E2E2E2E2E2E2E2E2E2E2F5E2E2E2E2E2E2E2E2E2E2E2E2E2E2E2E2F5E2E2E2F5F5E2E2E2F5E2E2E2E2E2E2E2E2E2E2E2E2E2E2E2E2F5E2E2E2E2E2E2E2E2E2E2E2E2E2E2E2E2E2E2E2E2E2E2E2E2E2E2E2E2E2E2E2E2E2E2E2E2E2E2E2E2E2E2E2E2E2E2E2E2E2E2E2E2
310
E2E2E2E2E2E2E2E2E2E2E2E2E2E2E2E2E2E2E2E2E2E2E2E2E2E2E2E2E2E2E2E2E2E2E2E2E2E2E2E2E2E2E2E2E2E2E2E2E2E2E2E2E2E2E2E2E2E2E2E2E2E2E2E2E2E2E2E2E2E2E2E2E2E2E2E2E2E2E2E2E2E2E2E2F5E2E2E2E2E2E2E2E2E2E2E2E2E2E2E2E2F5E2E2E2F5F5E2E2E2F5E2E2E2E2E2E2E2E2E2E2E2E2E2E2E2E2
310
F5E2E2E2E2E2E2E2E2E2E2E2E2E2E2E2E2E2E2E2E2E2E2E2E2E2E2E2E2E2E2E2E2E2E2E2E2E2E2E2E2E2E2E2E2E2E2E2E2E2E2E2E2E2E2E2E2E2E2E2E2E2E2E2E2E2E2E2E2E2E2E2E2E2E2E2E2E2E2E2E2E2E2E2E2E2E2E2E2E2E2E2E2E2E2E2E2E2E2E2E2E2E2E2E2E2E2E2E2E2E2E2E2E2E2E2E2E2E2E2E2E2E2E2E2E2E2
310
E2E2E2E2E2E2E2E2E2E2F5E2E2E2E2E2E2E2E2E2E2E2E2E2E2E2E2F5E2E2E2F5F5E2E2E2F5E2E2E2E2E2E2E2E2E2E2E2E2E2E2E2E2F5E2E2E2E2E2E2E2E2E2E2E2E2E2E2E2E2E2E2E2E2E2E2E2E2E2E2E2E2E2E2E2E2E2E2E2E2E2E2E2E2E2E2E2E2E2E2E2E2E2E2E2E2E2E2E2E2E2E2E2E2E2E2E2E2E2E2E2E2E2E2E2E2E2
310
E2E2E2E2E2E2E2E2E2E2E2E2E2E2E2E2E2E2E2E2E2E2E2E2E2E2E2E2E2E2E2E2E2E2E2E2E2E2E2E2E2E2E2E2E2E2E2E2E2E2E2E2E2E2E2E2E2E2E2E2E2E2E2F5E2E2E2E2E2E2E2E2E2E2E2E2E2E2E2E2F5E2E2E2F5F5E2E2E2F5E2E2E2E2E2E2E2E2E2E2E2E2E2E2E2E2F5E2E2E2E2E2E2E2E2E2E2E2E2E2E2E2E2E2E2E2E2
310
E2E2E2E2E2E2E2E2E2E2E2E2E2E2E2E2E2E2E2E2E2E2E2E2E2E2E2E2E2E2E2E2E2E2E2E2E2E2E2E2E2E2E2E2E2E2E2E2E2E2E2E2E2E2E2E2E2E2E2E2E2E2E2E2E2E2E2E2E2E2E2E2E2E2E2E2E2E2E2E2E2E2E2E2E2E2E2E2E2E2E2E2E2E2E2E2E2E2E2E2E2E2E2E2E2E2E2E2E2E2E2E2E2E2E2E2F5E2E2E2E2E2E2E2E2E2E2
310
E2E2E2E2E2E2F5E2E2E2F5F5E2E2E2F5E2E2E2E2E2E2E2E2E2E2E2E2E2E2E2E2F5E2E2E2E2E2E2E2E2E2E2E2E2E2E2E2E2E2E2E2E2E2E2E2E2E2E2E2E2E2E2E2E2E2E2E2E2E2E2E2E2E2E2E2E2E2E2E2E2E2E2E2E2E2E2E2E2E2E2E2E2E2E2E2E2E2E2E2E2E2E2E2E2E2E2E2E2E2E2E2E2E2E2E2E2E2E2E2E2E2E2E2E2E2E2
310
E2E2E2E2E2E2E2E2E2E2E2E2E2E2E2E2E2E2E2E2E2E2E2E2E2E2E2E2E2E2E2E2E2E2E2E2E2E2E2E2E2E2F5E2E2E2E2E2E2E2E2E2E2E2E2E2E2E2E2F5E2E2E2F5F5E2E2E2E2E2E2E2E2E2E2E2E2E2E2E2E2E2E2E2E2F5E2E2E2E2E2E2E2E2E2E2E2E2E2E2E2E2E2E2E2E2E2E2E2E2E2E2E2E2E2E2E2E2E2E2E2E2E2E2E2E2E2
310
E2E2E2E2E2E2E2E2E2E2E2E2E2E2E2E2E2E2E2E2E2E2E2E2E2E2E2E2E2E2E2E2E2E2E2E2E2E2E2E2E2E2E2E2E2E2E2E2E2E2E2E2E2E2E2E2E2E2E2E2E2E2E2E2E2E2E2E2E2E2E2E2E2E2E2E2E2E2E2E2E2E2E2E2E2E2E2E2E2E2E2E2E2E2E2F5E2E2E2E2E2E2E2E2E2E2E2E2E2E2E2E2E2E2E2E2F5F5E2E2E2E2E2E2E2E2E2
310
E2E2E2E2E2E2E2E2E2E2E2F5E2E2E2E2E2E2E2E2E2E2E2E2E2E2E2E2E2E2E2E2E2E2E2E2E2E2E2E2E2E2E2E2E2E2E2E2E2E2E2E2E2E2E2E2E2E2E2E2E2E2E2E2E2E2E2E2E2E2E2E2E2E2E2E2E2E2E2E2E2E2E2E2E2E2E2E2E2E2E2E2E2E2E2E2E2E2E2E2E2E2E2E2E2E2E2E2E2E2E2E2E2E2E2E2E2E2E2E2E2E2E2E2E2E2E2
310
E2E2E2E2E2E2E2E2E2E2E2E2E2E2E2E2E2E2E2E2E2F5E2E2E2E2E2E2E2E2E2E2E2E2E2E2E2E2E2E2E2E2F5F5E2E2E2E2E2E2E2E2E2E2E2E2E2E2E2E2E2E2E2E2F5E2E2E2E2E2E2E2E2E2E2E2E2E2E2E2E2E2E2E2E2E2E2E2E2E2E2E2E2E2E2E2E2E2E2E2E2E2E2E2E2E2E2E2E2E2E2E2E2E2E2E2E2E2E2E2E2E2E2E2E2E2E2
310
E2E2E2E2E2E2E2E2E2E2E2E2E2E2E2E2E2E2E2E2E2E2E2E2E2E2E2E2E2E2E2E2E2E2E2E2E2E2E2E2E2E2E2E2E2E2E2E2E2E2E2E2E2E2E2E2E2E2E2E2E2E2E2E2E2E2E2E2E2E2E2E2E2E2F5E2E2E2E2E2E2E2E2E2E2E2E2E2E2E2E2E2E2E2E2F5F5E2E2E2E2E2E2E2E2E2E2E2E2E2E2E2E2E2E2E2E2F5E2E2E2E2E2E2E2E2E2
310
E2E2E2E2E2E2E2E2E2E2E2E2E2E2E2E2E2E2E2E2E2E2E2E2E2E2E2E2E2E2E2E2E2E2E2E2E2E2E2E2E2E2E2E2E2E2E2E2E2E2E2E2E2E2E2E2E2E2E2E2E2E2E2E2E2E2E2E2E2E2E2E2E2E2E2E2E2E2E2E2E2E2E2E2E2E2E2E2E2E2E2E2E2E2E2E2E2E2E2E2E2E2E2E2E2E2E2E2E2E2E2E2E2E2E2E2E2E2E2E2E2E2E2E2E2E2E2
310
F5E2E2E2E2E2E2E2E2E2E2E2E2E2E2E2E2E2E2E2E2F5F5E2E2E2E2E2E2E2E2E2E2E2E2E2E2E2E2E2E2E2E2F5E2E2E2E2E2E2E2E2E2E2E2E2E2E2E2E2E2E2E2E2E2E2E2E2E2E2E2E2E2E2E2E2E2E2E2E2E2E2E2E2E2E2E2E2E2E2E2E2E2E2E2E2E2E2E2E2E2E2E2E2E2E2E2E2E2E2E2E2E2E2E2E2E2E2E2E2E2E2E2E2E2E2E2
310
E2E2E2E2E2E2E2E2E2E2E2E2E2E2E2E2E2E2E2E2E2E2E2E2E2E2E2E2E2E2E2E2E2E2E2E2E2E2E2E2E2E2E2E2E2E2E2E2E2E2E2E2E2F5E2E2E2E2E2E2E2E2E2E2E2E2E2E2E2E2E2E2E2E2F5F5E2E2E2E2E2E2E2E2E2E2E2E2E2E2E2E2E2E2E2E2F5E2E2E2E2E2E2E2E2E2E2E2E2E2E2E2E2E2E2E2E2E2E2E2E2E2E2E2E2E2E2
310
E2E2E2E2E2E2E2E2E2E2E2E2E2E2E2E2E2E2E2E2E2E2E2E2E2E2E2E2E2E2E2E2E2E2E2E2E2E2E2E2E2E2E2E2E2E2E2E2E2E2E2E2E2E2E2E2E2E2E2E2E2E2E2E2E2E2E2E2E2E2E2E2E2E2E2E2E2E2E2E2E2E2E2E2E2E2E2E2E2E2E2E2E2E2E2E2E2E2E2E2E2E2E2E2E2E2F5E2E2E2E2E2E2E2E2E2E2E2E2E2E2E2E2E2E2E2E2
310
F5F5E2E2E2E2E2E2E2E2E2E2E2E2E2E2E2E2E2E2E2E2F5E2E2E2E2E2E2E2E2E2E2E2E2E2E2E2E2E2E2E2E2E2E2E2E2E2E2E2E2E2E2E2E2E2E2E2E2E2E2E2E2E2E2E2E2E2E2E2E2E2E2E2E2E2E2E2E2E2E2E2E2E2E2E2E2E2E2E2E2E2E2E2E2E2E2E2E2E2E2E2E2E2E2E2E2E2E2E2E2E2E2E2E2E2E2E2E2E2E2E2E2E2E2E2E2
310
E2E2E2E2E2E2E2E2E2E2E2E2E2E2E2E2E2E2E2E2E2E2E2E2E2E2E2E2E2E2E2E2F5E2E2E2E2E2E2E2E2E2E2E2E2E2E2E2E2E2E2E2E2F5F5E2E2E2E2E2E2E2E2E2E2E2E2E2E2E2E2E2E2E2E2F5E2E2E2E2E2E2E2E2E2E2E2E2E2E2E2E2E2E2E2E2E2E2E2E2E2E2E2E2E2E2E2E2E2E2E2E2E2E2E2E2E2E2E2E2E2E2E2E2E2E2E2
310
E2E2E2E2E2E2E2E2E2E2E2E2E2E2E2E2E2E2E2E2E2E2E2E2E2E2E2E2E2E2E2E2E2E2E2E2E2E2E2E2E2E2E2E2E2E2E2E2E2E2E2E2E2E2E2E2E2E2E2E2E2E2E2E2E2E2E2E2E2E2E2E2E2E2E2E2E2E2E2E2E2E2E2E2E2F5E2E2E2E2E2E2E2E2E2E2E2E2E2E2E2E2E2E2E2E2F5F5E2E2E2E2E2E2E2E2E2E2E2E2E2E2E2E2E2E2E2
310
E2F5E2E2E2E2E2E2E2E2E2E2E2E2E2E2E2E2E2E2E2E2E2E2E2E2E2E2E2E2E2E2E2E2E2E2E2E2E2E2E2E2E2E2E2E2E2E2E2E2E2E2E2E2E2E2E2E2E2E2E2E2E2E2E2E2E2E2E2E2E2E2E2E2E2E2E2E2E2E2E2E2E2E2E2E2E2E2E2E2E2E2E2E2E2E2E2E2E2E2E2E2E2E2E2E2E2E2E2E2E2E2E2E2E2E2E2E2E2E2E2E2E2E2E2E2E2
310
E2E2E2E2E2E2E2E2E2E2E2F5E2E2E2E2E2E2E2E2E2E2E2E2E2E2E2E2E2E2E2E2F5F5E2E2E2E2E2E2E2E2E2E2E2E2E2E2E2E2E2E2E2E2F5E2E2E2E2E2E2E2E2E2E2E2E2E2E2E2E2E2E2E2E2E2E2E2E2E2E2E2E2E2E2E2E2E2E2E2E2E2E2E2E2E2E2E2E2E2E2E2E2E2E2E2E2E2E2E2E2E2E2E2E2E2E2E2E2E2E2E2E2E2E2E2E2
310
E2E2E2E2E2E2E2E2E2E2E2E2E2E2E2E2E2E2E2E2E2E2E2E2E2E2E2E2E2E2E2E2E2E2E2E2E2E2E2E2E2E2E2E2E2E2E2E2E2E2E2E2E2E2E2E2E2E2E2E2E2E2E2E2F5E2E2E2E2E2E2E2E2E2E2E2E2E2E2E2E2E2E2E2E2F5F5E2E2E2F5E2E2E2E2E2E2E2E2E2E2E2E2E2E2E2E2F5E2E2E2E2E2E2E2E2E2E2E2E2E2E2E2E2E2E2E2
310
E2E2E2E2E2E2E2E2E2E2E2E2E2E2E2E2E2E2E2E2E2E2E2E2E2E2E2E2E2E2E2E2E2E2E2E2E2E2E2E2E2E2E2E2E2E2E2E2E2E2E2E2E2E2E2E2E2E2E2E2E2E2E2E2E2E2E2E2E2E2E2E2E2E2E2E2E2E2E2E2E2E2E2E2E2E2E2E2E2E2E2E2E2E2E2E2E2E2E2E2E2E2E2E2E2E2E2E2E2E2E2E2E2E2E2E2E2F5E2E2E2E2E2E2E2E2E2
310
E2E2E2E2E2E2E2F5E2E2E2F5F5E2E2E2F5E2E2E2E2E2E2E2E2E2E2E2E2E2E2E2E2F5E2E2E2E2E2E2E2E2E2E2E2E2E2E2E2E2E2E2E2E2E2E2E2E2E2E2E2E2E2E2E2E2E2E2E2E2E2E2E2E2E2E2E2E2E2E2E2E2E2E2E2E2E2E2E2E2E2E2E2E2E2E2E2E2E2E2E2E2E2E2E2E2E2E2E2E2E2E2E2E2E2E2E2E2E2E2E2E2E2E2E2E2E2
310
E2E2E2E2E2E2E2E2E2E2E2E2E2E2E2E2E2E2E2E2E2E2E2E2E2E2E2E2E2E2E2E2E2E2E2E2E2E2E2E2E2E2E2F5E2E2E2E2E2E2E2E2E2E2E2E2E2E2E2E2F5E2E2E2F5F5E2E2E2F5E2E2E2E2E2E2E2E2E2E2E2E2E2E2E2E2F5E2E2E2E2E2E2E2E2E2E2E2E2E2E2E2E2E2E2E2E2E2E2E2E2E2E2E2E2E2E2E2E2E2E2E2E2E2E2E2E2
310
E2E2E2E2E2E2E2E2E2E2E2E2E2E2E2E2E2E2E2E2E2E2E2E2E2E2E2E2E2E2E2E2E2E2E2E2E2E2E2E2E2E2E2E2E2E2E2E2E2E2E2E2E2E2E2E2E2E2E2E2E2E2E2E2E2E2E2E2E2E2E2E2E2E2E2E2E2E2E2E2E2E2E2E2E2E2E2E2E2E2E2E2E2E2E2E2F5E2E2E2E2E2E2E2E2E2E2E2E2E2E2E2E2F5E2E2E2F5F5E2E2E2F5E2E2E2E2
310
E2E2E2E2E2E2E2E2E2E2E2E2F5E2E2E2E2E2E2E2E2E2E2E2E2E2E2E2E2E2E2E2E2E2E2E2E2E2E2E2E2E2E2E2E2E2E2E2E2E2E2E2E2E2E2E2E2E2E2E2E2E2E2E2E2E2E2E2E2E2E2E2E2E2E2E2E2E2E2E2E2E2E2E2E2E2E2E2E2E2E2E2E2E2E2E2E2E2E2E2E2E2E2E2E2E2E2E2E2E2E2E2E2E2E2E2E2E2E2E2E2E2E2E2E2E2E2
310
E2E2E2E2E2E2E2E2E2E2E2E2E2E2E2E2E2E2E2E2E2E2F5E2E2E2E2E2E2E2E2E2E2E2E2E2E2E2E2F5E2E2E2F5F5E2E2E2F5E2E2E2E2E2E2E2E2E2E2E2E2E2E2E2E2F5E2E2E2E2E2E2E2E2E2E2E2E2E2E2E2E2E2E2E2E2E2E2E2E2E2E2E2E2E2E2E2E2E2E2E2E2E2E2E2E2E2E2E2E2E2E2E2E2E2E2E2E2E2E2E2E2E2E2E2E2E2
310
E2E2E2E2E2E2E2E2E2E2E2E2E2E2E2E2E2E2E2E2E2E2E2E2E2E2E2E2E2E2E2E2E2E2E2E2E2E2E2E2E2E2E2E2E2E2E2E2E2E2E2E2E2E2E2E2E2E2E2E2E2E2E2E2E2E2E2E2E2E2E2E2E2E2E2F5E2E2E2E2E2E2E2E2E2E2E2E2E2E2E2E2F5E2E2E2F5F5E2E2E2F5E2E2E2E2E2E2E2E2E2E2E2E2E2E2E2E2F5E2E2E2E2E2E2E2E2
310
E2E2E2E2E2E2E2E2E2E2E2E2E2E2E2E2E2E2E2E2E2E2E2E2E2E2E2E2E2E2E2E2E2E2E2E2E2E2E2E2E2E2E2E2E2E2E2E2E2E2E2E2E2E2E2E2E2E2E2E2E2E2E2E2E2E2E2E2E2E2E2E2E2E2E2E2E2E2E2E2E2E2E2E2E2E2E2E2E2E2E2E2E2E2E2E2E2E2E2E2E2E2E2E2E2E2E2E2E2E2E2E2E2E2E2E2E2E2E2E2E2E2E2E2E2E2E2
310
E2F5E2E2E2E2E2E2E2E2E2E2E2E2E2E2E2E2F5E2E2E2F5F5E2E2E2F5E2E2E2E2E2E2E2E2E2E2E2E2E2E2E2E2F5E2E2E2E2E2E2E2E2E2E2E2E2E2E2E2E2E2E2E2E2E2E2E2E2E2E2E2E2E2E2E2E2E2E2E2E2E2E2E2E2E2E2E2E2E2E2E2E2E2E2E2E2E2E2E2E2E2E2E2E2E2E2E2E2E2E2E2E2E2E2E2E2E2E2E2E2E2E2E2E2E2E2
310
E2E2E2E2E2E2E2E2E2E2E2E2E2E2E2E2E2E2E2E2E2E2E2E2E2E2E2E2E2E2E2E2E2E2E2E2E2E2E2E2E2E2E2E2E2E2E2E2E2E2E2E2E2E2F5E2E2E2E2E2E2E2E2E2E2E2E2E2E2E2E2F5E2E2E2F5F5E2E2E2F5E2E2E2E2E2E2E2E2E2E2E2E2E2E2E2E2F5E2E2E2E2E2E2E2E2E2E2E2E2E2E2E2E2E2E2E2E2E2E2E2E2E2E2E2E2E2
310
E2E2E2E2E2E2E2E2E2E2E2E2E2E2E2E2E2E2E2E2E2E2E2E2E2E2E2E2E2E2E2E2E2E2E2E2E2E2E2E2E2E2E2E2E2E2E2E2E2E2E2E2E2E2E2E2E2E2E2E2E2E2E2E2E2E2E2E2E2E2E2E2E2E2E2E2E2E2E2E2E2E2E2E2E2E2E2E2E2E2E2E2E2E2E2E2E2E2E2E2E2E2E2E2E2E2E2F5E2E2E2E2E2E2E2E2E2E2E2E2E2E2E2E2F5E2E2
310
E2F5F5E2E2E2F5E2E2E2E2E2E2E2E2E2E2E2E2E2E2E2E2F5E2E2E2E2E2E2E2E2E2E2E2E2E2E2E2E2E2E2E2E2E2E2E2E2E2E2E2E2E2E2E2E2E2E2E2E2E2E2E2E2E2E2E2E2E2E2E2E2E2E2E2E2E2E2E2E2E2E2E2E2E2E2E2E2E2E2E2E2E2E2E2E2E2E2E2E2E2E2E2E2E2E2E2E2E2E2E2E2E2E2E2E2E2E2E2E2E2E2E2E2E2E2E2
310
E2E2E2E2E2E2E2E2E2E2E2E2E2E2E2E2E2E2E2E2E2E2E2E2E2E2E2E2E2E2E2E2E2F5E2E2E2E2E2E2E2E2E2E2E2E2E2E2E2E2F5E2E2E2F5F5E2E2E2F5E2E2E2E2E2E2E2E2E2E2E2E2E2E2E2E2F5E2E2E2E2E2E2E2E2E2E2E2E2E2E2E2E2E2E2E2E2E2E2E2E2E2E2E2E2E2E2E2E2E2E2E2E2E2E2E2E2E2E2E2E2E2E2E2E2E2E2
310
E2E2E2E2E2E2E2E2E2E2E2E2E2E2E2E2E2E2E2E2E2E2E2E2E2E2E2E2E2E2E2E2E2E2E2E2E2E2E2E2E2E2E2E2E2E2E2E2E2E2E2E2E2E2E2E2E2E2E2E2E2E2E2E2E2E2E2E2E2E2E2E2E2E2E2E2E2E2E2E2E2E2E2E2E2E2F5E2E2E2E2E2E2E2E2E2E2E2E2E2E2E2E2F5E2E2E2F5F5E2E2E2F5E2E2E2E2E2E2E2E2E2E2E2E2E2E2
310
E2E2F5E2E2E2E2E2E2E2E2E2E2E2E2E2E2E2E2E2E2E2E2E2E2E2E2E2E2E2E2E2E2E2E2E2E2E2E2E2E2E2E2E2E2E2E2E2E2E2E2E2E2E2E2E2E2E2E2E2E2E2E2E2E2E2E2E2E2E2E2E2E2E2E2E2E2E2E2E2E2E2E2E2E2E2E2E2E2E2E2E2E2E2E2E2E2E2E2E2E2E2E2E2E2E2E2E2E2E2E2E2E2E2E2E2E2E2E2E2E2E2E2E2E2E2E2
310
E2E2E2E2E2E2E2E2E2E2E2E2F5E2E2E2E2E2E2E2E2E2E2E2E2E2E2E2E2F5E2E2E2F5F5E2E2E2F5E2E2E2E2E2E2E2E2E2E2E2E2E2E2E2E2F5E2E2E2E2E2E2E2E2E2E2E2E2E2E2E2E2E2E2E2E2E2E2E2E2E2E2E2E2E2E2E2E2E2E2E2E2E2E2E2E2E2E2E2E2E2E2E2E2E2E2E2E2E2E2E2E2E2E2E2E2E2E2E2E2E2E2E2E2E2E2E2
310
E2E2E2E2E2E2E2E2E2E2E2E2E2E2E2E2E2E2E2E2E2E2E2E2E2E2E2E2E2E2E2E2E2E2E2E2E2E2E2E2E2E2E2E2E2E2E2E2E2E2E2E2E2E2E2E2E2E2E2E2E2E2E2E2E2F5E2E2E2E2E2E2E2E2E2E2E2E2E2E2E2E2F5E2E2E2F5F5E2E2E2F5E2E2E2E2E2E2E2E2E2E2E2E2E2E2E2E2F5E2E2E2E2E2E2E2E2E2E2E2E2E2E2E2E2E2E2
310
E2E2E2E2E2E2E2E2E2E2E2E2E2E2E2E2E2E2E2E2E2E2E2E2E2E2E2E2E2E2E2E2E2E2E2E2E2E2E2E2E2E2E2E2E2E2E2E2E2E2E2E2E2E2E2E2E2E2E2E2E2E2E2E2E2E2E2E2E2E2E2E2E2E2E2E2E2E2E2E2E2E2E2E2E2E2E2E2E2E2E2E2E2E2E2E2E2E2E2E2E2E2E2E2E2E2E2E2E2E2E2E2E2E2E2E2E2E2F5E2E2E2E2E2E2E2E2
310
E2E2E2E2E2E2E2E2F5E2E2E2F5F5E2E2E2F5E2E2E2E2E2E2E2E2E2E2E2E2E2E2E2E2F5E2E2E2E2E2E2E2E2E2E2E2E2E2E2E2E2E2E2E2E2E2E2E2E2E2E2E2E2E2E2E2E2E2E2E2E2E2E2E2E2E2E2E2E2E2E2E2E2E2E2E2E2E2E2E2E2E2E2E2E2E2E2E2E2E2E2E2E2E2E2E2E2E2E2E2E2E2E2E2E2E2E2E2E2E2E2E2E2E2E2E2E2
310
E2E2E2E2E2E2E2E2E2E2E2E2E2E2E2E2E2E2E2E2E2E2E2E2E2E2E2E2E2E2E2E2E2E2E2E2E2E2E2E2E2E2E2E2F5E2E2E2E2E2E2E2E2E2E2E2E2E2E2E2E2F5E2E2E2F5F5E2E2E2F5E2E2E2E2E2E2E2E2E2E2E2E2E2E2E2E2F5E2E2E2E2E2E2E2E2E2E2E2E2E2E2E2E2E2E2E2E2E2E2E2E2E2E2E2E2E2E2E2E2E2E2E2E2E2E2E2
310
E2E2E2E2E2E2E2E2E2E2E2E2E2E2E2E2E2E2E2E2E2E2E2E2E2E2E2E2E2E2E2E2E2E2E2E2E2E2E2E2E2E2E2E2E2E2E2E2E2E2E2E2E2E2E2E2E2E2E2E2E2E2E2E2E2E2E2E2E2E2E2E2E2E2E2E2E2E2E2E2E2E2E2E2E2E2E2E2E2E2E2E2E2E2E2E2E2F5E2E2E2E2E2E2E2E2E2E2E2E2E2E2E2E2F5E2E2E2F5F5E2E2E2F5E2E2E2
310
E2E2E2E2E2E2E2E2E2E2E2E2E2F5E2E2E2E2E2E2E2E2E2E2E2E2E2E2E2E2E2E2E2E2E2E2E2E2E2E2E2E2E2E2E2E2E2E2E2E2E2E2E2E2E2E2E2E2E2E2E2E2E2E2E2E2E2E2E2E2E2E2E2E2E2E2E2E2E2E2E2E2E2E2E2E2E2E2E2E2E2E2E2E2E2E2E2E2E2E2E2E2E2E2E2E2E2E2E2E2E2E2E2E2E2E2E2E2E2E2E2E2E2E2E2E2E2
310
E2E2E2E2E2E2E2E2E2E2E2E2E2E2E2E2E2E2E2E2E2E2E2F5E2E2E2E2E2E2E2E2E2E2E2E2E2E2E2E2F5E2E2E2F5F5E2E2E2E2E2E2E2E2E2E2E2E2E2E2E2E2E2E2E2E2F5E2E2E2E2E2E2E2E2E2E2E2E2E2E2E2E2E2E2E2E2E2E2E2E2E2E2E2E2E2E2E2E2E2E2E2E2E2E2E2E2E2E2E2E2E2E2E2E2E2E2E2E2E2E2E2E2E2E2E2E2
310
E2E2E2E2E2E2E2E2E2E2E2E2E2E2E2E2E2E2E2E2E2E2E2E2E2E2E2E2E2E2E2E2E2E2E2E2E2E2E2E2E2E2E2E2E2E2E2E2E2E2E2E2E2E2E2E2E2E2E2E2E2E2E2E2E2E2E2E2E2E2E2E2E2E2E2E2F5E2E2E2E2E2E2E2E2E2E2E2E2E2E2E2E2E2E2E2E2F5F5E2E2E2E2E2E2E2E2E2E2E2E2E2E2E2E2E2E2E2E2F5E2E2E2E2E2E2E2
310
E2E2E2E2E2E2E2E2E2E2E2E2E2E2E2E2E2E2E2E2E2E2E2E2E2E2E2E2E2E2E2E2E2E2E2E2E2E2E2E2E2E2E2E2E2E2E2E2E2E2E2E2E2E2E2E2E2E2E2E2E2E2E2E2E2E2E2E2E2E2E2E2E2E2E2E2E2E2E2E2E2E2E2E2E2E2E2E2E2E2E2E2E2E2E2E2E2E2E2E2E2E2E2E2E2E2E2E2E2E2E2E2E2E2E2E2E2E2E2E2E2E2E2E2E2E2E2
310
E2E2F5E2E2E2E2E2E2E2E2E2E2E2E2E2E2E2E2E2E2E2E2F5F5E2E2E2E2E2E2E2E2E2E2E2E2E2E2E2E2E2E2E2E2F5E2E2E2E2E2E2E2E2E2E2E2E2E2E2E2E2E2E2E2E2E2E2E2E2E2E2E2E2E2E2E2E2E2E2E2E2E2E2E2E2E2E2E2E2E2E2E2E2E2E2E2E2E2E2E2E2E2E2E2E2E2E2E2E2E2E2E2E2E2E2E2E2E2E2E2E2E2E2E2E2E2
310
E2E2E2E2E2E2E2E2E2E2E2E2E2E2E2E2E2E2E2E2E2E2E2E2E2E2E2E2E2E2E2E2E2E2E2E2E2E2E2E2E2E2E2E2E2E2E2E2E2E2E2E2E2E2E2F5E2E2E2E2E2E2E2E2E2E2E2E2E2E2E2E2E2E2E2E2F5F5E2E2E2E2E2E2E2E2E2E2E2E2E2E2E2E2E2E2E2E2F5E2E2E2E2E2E2E2E2E2E2E2E2E2E2E2E2E2E2E2E2E2E2E2E2E2E2E2E2
310
E2E2E2E2E2E2E2E2E2E2E2E2E2E2E2E2E2E2E2E2E2E2E2E2E2E2E2E2E2E2E2E2E2E2E2E2E2E2E2E2E2E2E2E2E2E2E2E2E2E2E2E2E2E2E2E2E2E2E2E2E2E2E2E2E2E2E2E2E2E2E2E2E2E2E2E2E2E2E2E2E2E2E2E2E2E2E2E2E2E2E2E2E2E2E2E2E2E2E2E2E2E2E2E2E2E2E2E2F5E2E2E2E2E2E2E2E2E2E2E2E2E2E2E2E2E2E2
310
E2E2F5F5E2E2E2E2E2E2E2E2E2E2E2E2E2E2E2E2E2E2E2E2F5E2E2E2E2E2E2E2E2E2E2E2E2E2E2E2E2E2E2E2E2E2E2E2E2E2E2E2E2E2E2E2E2E2E2E2E2E2E2E2E2E2E2E2E2E2E2E2E2E2E2E2E2E2E2E2E2E2E2E2E2E2E2E2E2E2E2E2E2E2E2E2E2E2E2E2E2E2E2E2E2E2E2E2E2E2E2E2E2E2E2E2E2E2E2E2E2E2E2E2E2E2E2
310
E2E2E2E2E2E2E2E2E2E2E2E2E2E2E2E2E2E2E2E2E2E2E2E2E2E2E2E2E2E2E2E2E2E2F5E2E2E2E2E2E2E2E2E2E2E2E2E2E2E2E2E2E2E2E2F5F5E2E2E2E2E2E2E2E2E2E2E2E2E2E2E2E2E2E2E2E2F5E2E2E2E2E2E2E2E2E2E2E2E2E2E2E2E2E2E2E2E2E2E2E2E2E2E2E2E2E2E2E2E2E2E2E2E2E2E2E2E2E2E2E2E2E2E2E2E2E2
310
E2E2E2E2E2E2E2E2E2E2E2E2E2E2E2E2E2E2E2E2E2E2E2E2E2E2E2E2E2E2E2E2E2E2E2E2E2E2E2E2E2E2E2E2E2E2E2E2E2E2E2E2E2E2E2E2E2E2E2E2E2E2E2E2E2E2E2E2E2E2E2E2E2E2E2E2E2E2E2E2E2E2E2E2E2E2E2F5E2E2E2E2E2E2E2E2E2E2E2E2E2E2E2E2E2E2E2E2F5F5E2E2E2E2E2E2E2E2E2E2E2E2E2E2E2E2E2
310
E2E2E2F5E2E2E2E2E2E2E2E2E2E2E2E2E2E2E2E2E2E2E2E2E2E2E2E2E2E2E2E2E2E2E2E2E2E2E2E2E2E2E2E2E2E2E2E2E2E2E2E2E2E2E2E2E2E2E2E2E2E2E2E2E2E2E2E2E2E2E2E2E2E2E2E2E2E2E2E2E2E2E2E2E2E2E2E2E2E2E2E2E2E2E2E2E2E2E2E2E2E2E2E2E2E2E2E2E2E2E2E2E2E2E2E2E2E2E2E2E2E2E2E2E2E2E2
310
E2E2E2E2E2E2E2E2E2E2E2E2E2F5E2E2E2E2E2E2E2E2E2E2E2E2E2E2E2E2E2E2E2E2F5F5E2E2E2E2E2E2E2E2E2E2E2E2E2E2E2E2E2E2E2E2F5E2E2E2E2E2E2E2E2E2E2E2E2E2E2E2E2E2E2E2E2E2E2E2E2E2E2E2E2E2E2E2E2E2E2E2E2E2E2E2E2E2E2E2E2E2E2E2E2E2E2E2E2E2E2E2E2E2E2E2E2E2E2E2E2E2E2E2E2E2E2
310
E2E2E2E2E2E2E2E2E2E2E2E2E2E2E2E2E2E2E2E2E2E2E2E2E2E2E2E2E2E2E2E2E2E2E2E2E2E2E2E2E2E2E2E2E2E2E2E2E2E2E2E2E2E2E2E2E2E2E2E2E2E2E2E2E2E2F5E2E2E2E2E2E2E2E2E2E2E2E2E2E2E2E2E2E2E2E2F5F5E2E2E2E2E2E2E2E2E2E2E2E2E2E2E2E2E2E2E2E2F5E2E2E2E2E2E2E2E2E2E2E2E2E2E2E2E2E2
310
E2E2E2E2E2E2E2E2E2E2E2E2E2E2E2E2E2E2E2E2E2E2E2E2E2E2E2E2E2E2E2E2E2E2E2E2E2E2E2E2E2E2E2E2E2E2E2E2E2E2E2E2E2E2E2E2E2E2E2E2E2E2E2E2E2E2E2E2E2E2E2E2E2E2E2E2E2E2E2E2E2E2E2E2E2E2E2E2E2E2E2E2E2E2E2E2E2E2E2E2E2E2E2E2E2E2E2E2E2E2E2E2E2E2E2E2E2E2E2F5E2E2E2E2E2E2E2
310
E2E2E2E2E2E2E2E2E2E2E2E2E2F5F5E2E2E2F5E2E2E2E2E2E2E2E2E2E2E2E2E2E2E2E2F5E2E2E2E2E2E2E2E2E2E2E2E2E2E2E2E2E2E2E2E2E2E2E2E2E2E2E2E2E2E2E2E2E2E2E2E2E2E2E2E2E2E2E2E2E2E2E2E2E2E2E2E2E2E2E2E2E2E2E2E2E2E2E2E2E2E2E2E2E2E2E2E2E2E2E2E2E2E2E2E2E2E2E2E2E2E2E2E2E2E2E2
310
E2E2E2E2E2E2E2E2E2E2E2E2E2E2E2E2E2E2E2E2E2E2E2E2E2E2E2E2E2E2E2E2E2E2E2E2E2E2E2E2E2E2E2E2E2F5E2E2E2E2E2E2E2E2E2E2E2E2E2E2E2E2F5E2E2E2F5F5E2E2E2F5E2E2E2E2E2E2E2E2E2E2E2E2E2E2E2E2F5E2E2E2E2E2E2E2E2E2E2E2E2E2E2E2E2E2E2E2E2E2E2E2E2E2E2E2E2E2E2E2E2E2E2E2E2E2E2
310
E2E2E2E2E2E2E2E2E2E2E2E2E2E2E2E2E2E2E2E2E2E2E2E2E2E2E2E2E2E2E2E2E2E2E2E2E2E2E2E2E2E2E2E2E2E2E2E2E2E2E2E2E2E2E2E2E2E2E2E2E2E2E2E2E2E2E2E2E2E2E2E2E2E2E2E2E2E2E2E2E2E2E2E2E2E2E2E2E2E2E2E2E2E2E2E2E2E2F5E2E2E2E2E2E2E2E2E2E2E2E2E2E2E2E2F5E2E2E2F5F5E2E2E2F5E2E2
310
E2E2E2E2E2E2E2E2E2E2E2E2E2E2F5E2E2E2E2E2E2E2E2E2E2E2E2E2E2E2E2E2E2E2E2E2E2E2E2E2E2E2E2E2E2E2E2E2E2E2E2E2E2E2E2E2E2E2E2E2E2E2E2E2E2E2E2E2E2E2E2E2E2E2E2E2E2E2E2E2E2E2E2E2E2E2E2E2E2E2E2E2E2E2E2E2E2E2E2E2E2E2E2E2E2E2E2E2E2E2E2E2E2E2E2E2E2E2E2E2E2E2E2E2E2E2E2
310
E2E2E2E2E2E2E2E2E2E2E2E2E2E2E2E2E2E2E2E2E2E2E2E2F5E2E2E2E2E2E2E2E2E2E2E2E2E2E2E2E2F5E2E2E2F5F5E2E2E2F5E2E2E2E2E2E2E2E2E2E2E2E2E2E2E2E2F5E2E2E2E2E2E2E2E2E2E2E2E2E2E2E2E2E2E2E2E2E2E2E2E2E2E2E2E2E2E2E2E2E2E2E2E2E2E2E2E2E2E2E2E2E2E2E2E2E2E2E2E2E2E2E2E2E2E2E2
310
E2E2E2E2E2E2E2E2E2E2E2E2E2E2E2E2E2E2E2E2E2E2E2E2E2E2E2E2E2E2E2E2E2E2E2E2E2E2E2E2E2E2E2E2E2E2E2E2E2E2E2E2E2E2E2E2E2E2E2E2E2E2E2E2E2E2E2E2E2E2E2E2E2E2E2E2E2F5E2E2E2E2E2E2E2E2E2E2E2E2E2E2E2E2F5E2E2E2F5F5E2E2E2F5E2E2E2E2E2E2E2E2E2E2E2E2E2E2E2E2F5E2E2E2E2E2E2
310
E2E2E2E2E2E2E2E2E2E2E2E2E2E2E2E2E2E2E2E2E2E2E2E2E2E2E2E2E2E2E2E2E2E2E2E2E2E2E2E2E2E2E2E2E2E2E2E2E2E2E2E2E2E2E2E2E2E2E2E2E2E2E2E2E2E2E2E2E2E2E2E2E2E2E2E2E2E2E2E2E2E2E2E2E2E2E2E2E2E2E2E2E2E2E2E2E2E2E2E2E2E2E2E2E2E2E2E2E2E2E2E2E2E2E2E2E2E2E2E2E2E2E2E2E2E2E2
310
E2E2E2F5E2E2E2E2E2E2E2E2E2E2E2E2E2E2E2E2F5E2E2E2F5F5E2E2E2F5E2E2E2E2E2E2E2E2E2E2E2E2E2E2E2E2F5E2E2E2E2E2E2E2E2E2E2E2E2E2E2E2E2E2E2E2E2E2E2E2E2E2E2E2E2E2E2E2E2E2E2E2E2E2E2E2E2E2E2E2E2E2E2E2E2E2E2E2E2E2E2E2E2E2E2E2E2E2E2E2E2E2E2E2E2E2E2E2E2E2E2E2E2E2E2E2E2
310
E2E2E2E2E2E2E2E2E2E2E2E2E2E2E2E2E2E2E2E2E2E2E2E2E2E2E2E2E2E2E2E2E2E2E2E2E2E2E2E2E2E2E2E2E2E2E2E2E2E2E2E2E2E2E2E2F5E2E2E2E2E2E2E2E2E2E2E2E2E2E2E2E2F5E2E2E2F5F5E2E2E2F5E2E2E2E2E2E2E2E2E2E2E2E2E2E2E2E2F5E2E2E2E2E2E2E2E2E2E2E2E2E2E2E2E2E2E2E2E2E2E2E2E2E2E2E2
310
E2E2E2E2E2E2E2E2E2E2E2E2E2E2E2E2E2E2E2E2E2E2E2E2E2E2E2E2E2E2E2E2E2E2E2E2E2E2E2E2E2E2E2E2E2E2E2E2E2E2E2E2E2E2E2E2E2E2E2E2E2E2E2E2E2E2E2E2E2E2E2E2E2E2E2E2E2E2E2E2E2E2E2E2E2E2E2E2E2E2E2E2E2E2E2E2E2E2E2E2E2E2E2E2E2E2E2E2E2F5E2E2E2E2E2E2E2E2E2E2E2E2E2E2E2E2F5
310
E2E2E2F5F5E2E2E2F5E2E2E2E2E2E2E2E2E2E2E2E2E2E2E2E2F5E2E2E2E2E2E2E2E2E2E2E2E2E2E2E2E2E2E2E2E2E2E2E2E2E2E2E2E2E2E2E2E2E2E2E2E2E2E2E2E2E2E2E2E2E2E2E2E2E2E2E2E2E2E2E2E2E2E2E2E2E2E2E2E2E2E2E2E2E2E2E2E2E2E2E2E2E2E2E2E2E2E2E2E2E2E2E2E2E2E2E2E2E2E2E2E2E2E2E2E2E2
310
E2E2E2E2E2E2E2E2E2E2E2E2E2E2E2E2E2E2E2E2E2E2E2E2E2E2E2E2E2E2E2E2E2E2E2F5E2E2E2E2E2E2E2E2E2E2E2E2E2E2E2E2F5E2E2E2F5F5E2E2E2F5E2E2E2E2E2E2E2E2E2E2E2E2E2E2E2E2F5E2E2E2E2E2E2E2E2E2E2E2E2E2E2E2E2E2E2E2E2E2E2E2E2E2E2E2E2E2E2E2E2E2E2E2E2E2E2E2E2E2E2E2E2E2E2E2E2
310
E2E2E2E2E2E2E2E2E2E2E2E2E2E2E2E2E2E2E2E2E2E2E2E2E2E2E2E2E2E2E2E2E2E2E2E2E2E2E2E2E2E2E2E2E2E2E2E2E2E2E2E2E2E2E2E2E2E2E2E2E2E2E2E2E2E2E2E2E2E2E2E2E2E2E2E2E2E2E2E2E2E2E2E2E2E2E2E2F5E2E2E2E2E2E2E2E2E2E2E2E2E2E2E2E2F5E2E2E2F5F5E2E2E2F5E2E2E2E2E2E2E2E2E2E2E2E2
310
E2E2E2E2F5E2E2E2E2E2E2E2E2E2E2E2E2E2E2E2E2E2E2E2E2E2E2E2E2E2E2E2E2E2E2E2E2E2E2E2E2E2E2E2E2E2E2E2E2E2E2E2E2E2E2E2E2E2E2E2E2E2E2E2E2E2E2E2E2E2E2E2E2E2E2E2E2E2E2E2E2E2E2E2E2E2E2E2E2E2E2E2E2E2E2E2E2E2E2E2E2E2E2E2E2E2E2E2E2E2E2E2E2E2E2E2E2E2E2E2E2E2E2E2E2E2E2
310
E2E2E2E2E2E2E2E2E2E2E2E2E2E2F5E2E2E2E2E2E2E2E2E2E2E2E2E2E2E2E2F5E2E2E2F5F5E2E2E2F5E2E2E2E2E2E2E2E2E2E2E2E2E2E2E2E2F5E2E2E2E2E2E2E2E2E2E2E2E2E2E2E2E2E2E2E2E2E2E2E2E2E2E2E2E2E2E2E2E2E2E2E2E2E2E2E2E2E2E2E2E2E2E2E2E2E2E2E2E2E2E2E2E2E2E2E2E2E2E2E2E2E2E2E2E2E2
310
E2E2E2E2E2E2E2E2E2E2E2E2E2E2E2E2E2E2E2E2E2E2E2E2E2E2E2E2E2E2E2E2E2E2E2E2E2E2E2E2E2E2E2E2E2E2E2E2E2E2E2E2E2E2E2E2E2E2E2E2E2E2E2E2E2E2E2F5E2E2E2E2E2E2E2E2E2E2E2E2E2E2E2E2F5E2E2E2F5F5E2E2E2F5E2E2E2E2E2E2E2E2E2E2E2E2E2E2E2E2F5E2E2E2E2E2E2E2E2E2E2E2E2E2E2E2E2
310
E2E2E2E2E2E2E2E2E2E2E2E2E2E2E2E2E2E2E2E2E2E2E2E2E2E2E2E2E2E2E2E2E2E2E2E2E2E2E2E2E2E2E2E2E2E2E2E2E2E2E2E2E2E2E2E2E2E2E2E2E2E2E2E2E2E2E2E2E2E2E2E2E2E2E2E2E2E2E2E2E2E2E2E2E2E2E2E2E2E2E2E2E2E2E2E2E2E2E2E2E2E2E2E2E2E2E2E2E2E2E2E2E2E2E2E2E2E2E2E2F5E2E2E2E2E2E2
310
E2E2E2E2E2E2E2E2E2E2F5E2E2E2F5F5E2E2E2F5E2E2E2E2E2E2E2E2E2E2E2E2E2E2E2E2F5E2E2E2E2E2E2E2E2E2E2E2E2E2E2E2E2E2E2E2E2E2E2E2E2E2E2E2E2E2E2E2E2E2E2E2E2E2E2E2E2E2E2E2E2E2E2E2E2E2E2E2E2E2E2E2E2E2E2E2E2E2E2E2E2E2E2E2E2E2E2E2E2E2E2E2E2E2E2E2E2E2E2E2E2E2E2E2E2E2E2
310
E2E2E2E2E2E2E2E2E2E2E2E2E2E2E2E2E2E2E2E2E2E2E2E2E2E2E2E2E2E2E2E2E2E2E2E2E2E2E2E2E2E2E2E2E2E2F5E2E2E2E2E2E2E2E2E2E2E2E2E2E2E2E2F5E2E2E2F5F5E2E2E2F5E2E2E2E2E2E2E2E2E2E2E2E2E2E2E2E2F5E2E2E2E2E2E2E2E2E2E2E2E2E2E2E2E2E2E2E2E2E2E2E2E2E2E2E2E2E2E2E2E2E2E2E2E2E2
310
E2E2E2E2E2E2E2E2E2E2E2E2E2E2E2E2E2E2E2E2E2E2E2E2E2E2E2E2E2E2E2E2E2E2E2E2E2E2E2E2E2E2E2E2E2E2E2E2E2E2E2E2E2E2E2E2E2E2E2E2E2E2E2E2E2E2E2E2E2E2E2E2E2E2E2E2E2E2E2E2E2E2E2E2E2E2E2E2E2E2E2E2E2E2E2E2E2E2E2F5E2E2E2E2E2E2E2E2E2E2E2E2E2E2E2E2F5E2E2E2F5F5E2E2E2F5E2
310
E2E2E2E2E2E2E2E2E2E2E2E2E2E2E2F5E2E2E2E2E2E2E2E2E2E2E2E2E2E2E2E2E2E2E2E2E2E2E2E2E2E2E2E2E2E2E2E2E2E2E2E2E2E2E2E2E2E2E2E2E2E2E2E2E2E2E2E2E2E2E2E2E2E2E2E2E2E2E2E2E2E2E2E2E2E2E2E2E2E2E2E2E2E2E2E2E2E2E2E2E2E2E2E2E2E2E2E2E2E2E2E2E2E2E2E2E2E2E2E2E2E2E2E2E2E2E2
310
E2E2E2E2E2E2E2E2E2E2E2E2E2E2E2E2E2E2E2E2E2E2E2E2E2F5E2E2E2E2E2E2E2E2E2E2E2E2E2E2E2E2F5E2E2E2F5F5E2E2E2F5E2E2E2E2E2E2E2E2E2E2E2E2E2E2E2E2F5E2E2E2E2E2E2E2E2E2E2E2E2E2E2E2E2E2E2E2E2E2E2E2E2E2E2E2E2E2E2E2E2E2E2E2E2E2E2E2E2E2E2E2E2E2E2E2E2E2E2E2E2E2E2E2E2E2E2
310
E2E2E2E2E2E2E2E2E2E2E2E2E2E2E2E2E2E2E2E2E2E2E2E2E2E2E2E2E2E2E2E2E2E2E2E2E2E2E2E2E2E2E2E2E2E2E2E2E2E2E2E2E2E2E2E2E2E2E2E2E2E2E2E2E2E2E2E2E2E2E2E2E2E2E2E2E2E2F5E2E2E2E2E2E2E2E2E2E2E2E2E2E2E2E2F5E2E2E2F5F5E2E2E2F5E2E2E2E2E2E2E2E2E2E2E2E2E2E2E2E2F5E2E2E2E2E2
310
E2E2E2E2E2E2E2E2E2E2E2E2E2E2E2E2E2E2E2E2E2E2E2E2E2E2E2E2E2E2E2E2E2E2E2E2E2E2E2E2E2E2E2E2E2E2E2E2E2E2E2E2E2E2E2E2E2E2E2E2E2E2E2E2E2E2E2E2E2E2E2E2E2E2E2E2E2E2E2E2E2E2E2E2E2E2E2E2E2E2E2E2E2E2E2E2E2E2E2E2E2E2E2E2E2E2E2E2E2E2E2E2E2E2E2E2E2E2E2E2E2E2E2E2E2E2E2
310
E2E2E2E2F5E2E2E2E2E2E2E2E2E2E2E2E2E2E2E2E2F5E2E2E2F5F5E2E2E2E2E2E2E2E2E2E2E2E2E2E2E2E2E2E2E2E2F5E2E2E2E2E2E2E2E2E2E2E2E2E2E2E2E2E2E2E2E2E2E2E2E2E2E2E2E2E2E2E2E2E2E2E2E2E2E2E2E2E2E2E2E2E2E2E2E2E2E2E2E2E2E2E2E2E2E2E2E2E2E2E2E2E2E2E2E2E2E2E2E2E2E2E2E2E2E2E2
310
E2E2E2E2E2E2E2E2E2E2E2E2E2E2E2E2E2E2E2E2E2E2E2E2E2E2E2E2E2E2E2E2E2E2E2E2E2E2E2E2E2E2E2E2E2E2E2E2E2E2E2E2E2E2E2E2E2F5E2E2E2E2E2E2E2E2E2E2E2E2E2E2E2E2E2E2E2E2F5F5E2E2E2E2E2E2E2E2E2E2E2E2E2E2E2E2E2E2E2E2F5E2E2E2E2E2E2E2E2E2E2E2E2E2E2E2E2E2E2E2E2E2E2E2E2E2E2
310
E2E2E2E2E2E2E2E2E2E2E2E2E2E2E2E2E2E2E2E2E2E2E2E2E2E2E2E2E2E2E2E2E2E2E2E2E2E2E2E2E2E2E2E2E2E2E2E2E2E2E2E2E2E2E2E2E2E2E2E2E2E2E2E2E2E2E2E2E2E2E2E2E2E2E2E2E2E2E2E2E2E2E2E2E2E2E2E2E2E2E2E2E2E2E2E2E2E2E2E2E2E2E2E2E2E2E2E2E2E2F5E2E2E2E2E2E2E2E2E2E2E2E2E2E2E2E2
310
E2E2E2E2F5F5E2E2E2E2E2E2E2E2E2E2E2E2E2E2E2E2E2E2E2E2F5E2E2E2E2E2E2E2E2E2E2E2E2E2E2E2E2E2E2E2E2E2E2E2E2E2E2E2E2E2E2E2E2E2E2E2E2E2E2E2E2E2E2E2E2E2E2E2E2E2E2E2E2E2E2E2E2E2E2E2E2E2E2E2E2E2E2E2E2E2E2E2E2E2E2E2E2E2E2E2E2E2E2E2E2E2E2E2E2E2E2E2E2E2E2E2E2E2E2E2E2
310
E2E2E2E2E2E2E2E2E2E2E2E2E2E2E2E2E2E2E2E2E2E2E2E2E2E2E2E2E2E2E2E2E2E2E2E2F5E2E2E2E2E2E2E2E2E2E2E2E2E2E2E2E2E2E2E2E2F5F5E2E2E2E2E2E2E2E2E2E2E2E2E2E2E2E2E2E2E2E2F5E2E2E2E2E2E2E2E2E2E2E2E2E2E2E2E2E2E2E2E2E2E2E2E2E2E2E2E2E2E2E2E2E2E2E2E2E2E2E2E2E2E2E2E2E2E2E2
310
E2E2E2E2E2E2E2E2E2E2E2E2E2E2E2E2E2E2E2E2E2E2E2E2E2E2E2E2E2E2E2E2E2E2E2E2E2E2E2E2E2E2E2E2E2E2E2E2E2E2E2E2E2E2E2E2E2E2E2E2E2E2E2E2E2E2E2E2E2E2E2E2E2E2E2E2E2E2E2E2E2E2E2E2E2E2E2E2E2F5E2E2E2E2E2E2E2E2E2E2E2E2E2E2E2E2E2E2E2E2F5F5E2E2E2E2E2E2E2E2E2E2E2E2E2E2E2
310
E2E2E2E2E2F5F5F5F5F5F5F5F5F5F5F5F5F5F5F5F5F5F5F5F5F5F5F5F5F5F5F5F5F5F5F5F5F5F5F5F5F5F5F5F5F5F5F5F5F5F5F5F5F5F5F5F5F5F5F5F5F5F5F5F5F5F5F5F5F5F5F5F5F5F5F5F5F5F5F5F5F5F5F5F5F5F5F5F5F5F5F5F5F5F5F5F5F5F5F5F5F5F5F5F5F5F5F5F5F5F5F5F5F5F5F5F5F5F5F5F5F5F5F5F5F5F5
310
F5F5F5F5F5F5F5F5F5F5F5F5F5F5F5F5E2E2E2E2E2E2E2E2E2E2E2E2E2E2E2E2E2E2E2E2F5F5E2E2E2E2E2E2E2E2E2E2E2E2E2E2E2E2E2E2E2E2E2E2E2E2E2E2E2E2E2E2E2E2E2E2E2E2E2E2E2E2E2E2E2E2E2E2E2E2E2E2E2E2E2E2E2E2E2E2E2E2E2E2E2E2E2E2E2E2E2E2E2E2E2E2E2E2E2E2E2E2E2E2E2E2E2E2E2E2E2
310
E2E2E2E2E2E2E2E2E2E2E2E2E2E2E2E2E2E2E2E2E2E2E2E2E2E2E2E2E2E2E2E2E2E2E2E2E2E2E2E2E2E2E2E2E2E2E2E2E2E2E2E2E2E2E2E2E2E2E2E2E2E2E2E2E2E2E2E2E2E2E2E2E2E2E2E2E2E2E2E2E2E2E2E2E2E2E2E2E2F5F5E2E2E2E2E2E2E2E2E2E2E2E2E2E2E2E2E2E2E2E2E2E2E2E2E2E2E2E2E2E2E2E2E2E2E2E2
310
E2E2E2E2E2E2E2E2E2E2E2E2E2E2E2E2E2E2E2E2E2E2E2E2E2E2E2E2E2E2E2E2E2E2E2E2E2E2E2E2E2E2E2E2E2E2E2E2E2E2E2E2E2E2E2E2E2E2E2E2E2E2E2E2E2E2E2E2E2E2E2E2E2E2E2E2E2E2E2E2E2E2E2E2E2E2E2E2E2E2E2E2E2E2E2E2E2E2E2E2E2E2E2E2E2E2E2E2E2E2E2E2E2E2E2E2E2E2E2E2E2E2E2E2E2E2E2
310
E2E2E2E2E2E2E2E2E2E2E2E2E2E2E2F5F5E2E2E2E2E2E2E2E2E2E2E2E2E2E2E2E2E2E2E2E2E2E2E2E2E2E2E2E2E2E2E2E2E2E2E2E2E2E2E2E2E2E2E2E2E2E2E2E2E2E2E2E2E2E2E2E2E2E2E2E2E2E2E2E2E2E2E2E2E2E2E2E2E2E2E2E2E2E2E2E2E2E2E2E2E2E2E2E2E2E2E2E2E2E2E2E2E2E2E2E2E2E2E2E2E2E2E2E2E2E2
310
E2E2E2E2E2E2E2E2E2E2E2E2E2E2E2E2E2E2E2E2E2E2E2E2E2E2E2E2E2E2E2E2E2E2E2E2E2E2E2E2E2E2E2E2E2E2E2E2E2E2E2E2E2E2E2E2E2E2E2E2E2E2E2E2E2E2E2E2F5F5E2E2E2E2E2E2E2E2E2E2E2E2E2E2E2E2E2E2E2E2E2E2E2E2E2E2E2E2E2E2E2E2E2E2E2E2E2E2E2E2E2E2E2E2E2E2E2E2E2E2E2E2E2E2E2E2E2
310
E2E2E2E2E2E2E2E2E2E2E2E2E2E2E2E2E2E2E2E2E2E2E2E2E2E2E2E2E2E2E2E2E2E2E2E2E2E2E2E2E2E2E2E2E2E2E2E2E2E2E2E2E2E2E2E2E2E2E2E2E2E2E2E2E2E2E2E2E2E2E2E2E2E2E2E2E2E2E2E2E2E2E2E2E2E2E2E2E2E2E2E2E2E2E2E2E2E2E2E2E2E2E2E2E2E2E2E2E2E2E2E2E2E2E2E2E2E2E2E2E2F5F5E2E2E2F5
310
E2E2E2E2E2E2E2E2E2E2E2E2E2E2E2E2E2E2E2E2E2E2E2E2E2E2E2E2E2E2E2E2E2E2E2E2E2E2E2E2E2E2E2E2E2E2E2E2E2E2E2E2E2E2E2E2E2E2E2E2E2E2E2E2E2E2E2E2E2E2E2E2E2E2E2E2E2E2E2E2E2E2E2E2E2E2E2E2E2E2E2E2E2E2E2E2E2E2E2E2E2E2E2E2E2E2E2E2E2E2E2E2E2E2E2E2E2E2E2E2E2E2E2E2E2E2E2
310
E2E2E2E2E2E2E2E2E2E2E2E2E2E2E2E2E2E2E2E2E2E2E2E2E2E2E2E2E2E2E2E2E2E2E2E2E2E2E2E2E2E2E2F5E2E2E2F5F5E2E2E2F5E2E2E2E2E2E2E2E2E2E2E2E2E2E2E2E2E2E2E2E2E2E2E2E2E2E2E2E2E2E2E2E2E2E2E2E2E2E2E2E2E2E2E2E2E2E2E2E2E2E2E2E2E2E2E2E2E2E2E2E2E2E2E2E2E2E2E2E2E2E2E2E2E2E2
310
E2E2E2E2E2E2E2E2E2E2E2E2E2E2E2E2E2E2E2E2E2E2E2E2E2E2E2E2E2E2E2E2E2E2E2E2E2E2E2E2E2E2E2E2E2E2E2E2E2E2E2E2E2E2E2E2E2E2E2E2E2E2E2E2E2E2E2E2E2E2E2E2E2E2E2E2E2E2E2E2E2E2E2E2E2E2E2E2E2E2E2E2E2E2E2E2F5E2E2E2F5F5E2E2E2F5E2E2E2E2E2E2E2E2E2E2E2E2E2E2E2E2E2E2E2E2E2
310
E2E2E2E2E2E2E2E2E2E2E2E2E2E2E2E2E2E2E2E2E2E2E2E2E2E2E2E2E2E2E2E2E2E2E2E2E2E2E2E2E2E2E2E2E2E2E2E2E2E2E2E2E2E2E2E2E2E2E2E2E2E2E2E2E2E2E2E2E2E2E2E2E2E2E2E2E2E2E2E2E2E2E2E2E2E2E2E2E2E2E2E2E2E2E2E2E2E2E2E2E2E2E2E2E2E2E2E2E2E2E2E2E2E2E2E2E2E2E2E2E2E2E2E2E2E2E2
310
E2E2E2E2E2E2E2E2E2E2E2E2E2E2E2E2E2E2E2E2E2E2F5E2E2E2F5F5E2E2E2F5E2E2E2E2E2E2E2E2E2E2E2E2E2E2E2E2E2E2E2E2E2E2E2E2E2E2E2E2E2E2E2E2E2E2E2E2E2E2E2E2E2E2E2E2E2E2E2E2E2E2E2E2E2E2E2E2E2E2E2E2E2E2E2E2E2E2E2E2E2E2E2E2E2E2E2E2E2E2E2E2E2E2E2E2E2E2E2E2E2E2E2E2E2E2E2
310
E2E2E2E2E2E2E2E2E2E2E2E2E2E2E2E2E2E2E2E2E2E2E2E2E2E2E2E2E2E2E2E2E2E2E2E2E2E2E2E2E2E2E2E2E2E2E2E2E2E2E2E2E2E2E2E2E2E2E2E2E2E2E2E2E2E2E2E2E2E2E2E2E2E2E2F5E2E2E2F5F5E2E2E2F5E2E2E2E2E2E2E2E2E2E2E2E2E2E2E2E2E2E2E2E2E2E2E2E2E2E2E2E2E2E2E2E2E2E2E2E2E2E2E2E2E2E2
310
E2E2E2E2E2E2E2E2E2E2E2E2E2E2E2E2E2E2E2E2E2E2E2E2E2E2E2E2E2E2E2E2E2E2E2E2E2E2E2E2E2E2E2E2E2E2E2E2E2E2E2E2E2E2E2E2E2E2E2E2E2E2E2E2E2E2E2E2E2E2E2E2E2E2E2E2E2E2E2E2E2E2E2E2E2E2E2E2E2E2E2E2E2E2E2E2E2E2E2E2E2E2E2E2E2E2E2E2E2E2E2E2E2E2E2E2E2E2E2E2E2E2E2E2E2E2E2
310
E2F5E2E2E2F5F5E2E2E2F5E2E2E2E2E2E2E2E2E2E2E2E2E2E2E2E2E2E2E2E2E2E2E2E2E2E2E2E2E2E2E2E2E2E2E2E2E2E2E2E2E2E2E2E2E2E2E2E2E2E2E2E2E2E2E2E2E2E2E2E2E2E2E2E2E2E2E2E2E2E2E2E2E2E2E2E2E2E2E2E2E2E2E2E2E2E2E2E2E2E2E2E2E2E2E2E2E2E2E2E2E2E2E2E2E2E2E2E2E2E2E2E2E2E2E2E2
310
E2E2E2E2E2E2E2E2E2E2E2E2E2E2E2E2E2E2E2E2E2E2E2E2E2E2E2E2E2E2E2E2E2E2E2E2E2E2E2E2E2E2E2E2E2E2E2E2E2E2E2E2E2E2F5E2E2E2F5F5E2E2E2F5E2E2E2E2E2E2E2E2E2E2E2E2E2E2E2E2E2E2E2E2E2E2E2E2E2E2E2E2E2E2E2E2E2E2E2E2E2E2E2E2E2E2E2E2E2E2E2E2E2E2E2E2E2E2E2E2E2E2E2E2E2E2E2
310
E2E2E2E2E2E2E2E2E2E2E2E2E2E2E2E2E2E2E2E2E2E2E2E2E2E2E2E2E2E2E2E2E2E2E2E2E2E2E2E2E2E2E2E2E2E2E2E2E2E2E2E2E2E2E2E2E2E2E2E2E2E2E2E2E2E2E2E2E2E2E2E2E2E2E2E2E2E2E2E2E2E2E2E2E2E2E2E2E2E2E2E2E2E2E2E2E2E2E2E2E2E2E2E2E2E2E2F5E2E2E2F5F5E2E2E2F5E2E2E2E2E2E2E2E2E2E2
310
E2E2E2E2E2E2E2E2E2E2E2E2E2E2E2E2E2E2E2E2E2E2E2E2E2E2E2E2E2E2E2E2E2E2E2E2E2E2E2E2E2E2E2E2E2E2E2E2E2E2E2E2E2E2E2E2E2E2E2E2E2E2E2E2E2E2E2E2E2E2E2E2E2E2E2E2E2E2E2E2E2E2E2E2E2E2E2E2E2E2E2E2E2E2E2E2E2E2E2E2E2E2E2E2E2E2E2E2E2E2E2E2E2E2E2E2E2E2E2E2E2E2E2E2E2E2E2
310
E2E2E2E2E2E2E2E2E2E2E2E2E2E2E2E2E2E2E2E2E2E2E2E2E2E2E2E2E2E2E2E2E2F5E2E2E2F5F5E2E2E2F5F5F5F5F5F5F5F5E2E2E2E2E2E2E2E2E2F5F5F5F5F5F5F5F5F5F5F5F5F5F5F5F5E2E2E2E2E2E2E2E2E2F5F5F5F5F5F5F5F5F5F5F5F5F5F5F5E2E2E2E2E2E2E2E2E2F5F5F5F5F5F5F5F5F5F5F5F5F5F5F5F5E2E2E2
310
E2E2E2E2E2F5F5F5F5F5F5F5F5F5F5F5F5F5F5F5F5E2E2E2E2E2E2E2E2E2F5F5F5F5F5F5F5F5F5F5F5F5F5F5F5E2E2E2E2E2E2E2E2E2F5F5F5F5F5F5F5F5F5F5F5F5F5F5F5F5E2E2E2E2E2E2E2E2E2F5F5F5F5F5F5F5F5E2E2E2F5F5E2E2E2E2E2E2E2E2E2E2E2E2E2E2E2E2E2E2E2E2E2E2E2E2E2E2E2E2E2E2E2E2E2E2E2
310
E2E2E2E2E2E2E2E2E2E2E2E2E2E2E2E2E2E2E2E2E2E2E2E2E2E2E2E2E2E2E2E2E2E2E2E2E2E2E2E2E2E2E2E2E2E2E2E2E2E2E2E2E2E2E2E2E2E2E2E2E2E2E2E2E2E2E2E2E2E2E2E2E2E2E2E2E2E2E2E2E2E2E2E2E2E2E2E2E2E2E2E2E2E2E2E2E2E2E2E2E2E2E2E2E2E2E2E2E2E2E2E2E2E2E2E2E2E2E2E2E2E2E2E2E2E2E2
310
E2E2E2E2E2E2E2E2E2E2E2E2E2E2E2E2F5F5E2E2E2E2E2E2E2E2E2E2E2E2E2E2E2E2E2E2E2E2E2E2E2E2E2E2E2E2E2E2E2E2E2E2E2E2E2E2E2E2E2E2E2E2E2E2E2E2E2E2E2E2E2E2E2E2E2E2E2E2E2E2E2E2E2E2E2E2E2E2E2E2E2E2E2E2E2E2E2E2E2E2E2E2E2E2E2E2E2E2E2E2E2E2E2E2E2E2E2E2E2E2E2E2E2E2E2E2E2
310
E2E2E2E2E2E2E2E2E2E2E2E2E2E2E2E2E2E2E2E2E2E2E2E2E2E2E2E2E2E2E2E2E2E2E2E2E2E2E2E2E2E2E2E2E2E2E2E2E2E2E2E2E2E2E2E2E2E2E2E2E2E2E2E2E2E2E2E2E2F5F5E2E2E2E2E2E2E2E2E2E2E2E2E2E2E2E2E2E2E2E2E2E2E2E2E2E2E2E2E2E2E2E2E2E2E2E2E2E2E2E2E2E2E2E2E2E2E2E2E2E2E2E2E2E2E2E2
310
E2E2E2E2E2E2E2E2E2E2E2E2E2E2E2E2E2E2E2E2E2E2E2E2E2E2E2E2E2E2E2E2E2E2E2E2E2E2E2E2E2E2E2E2E2E2E2E2E2E2E2E2E2E2E2E2E2E2E2E2E2E2E2E2E2E2E2E2E2E2E2E2E2E2E2E2E2E2E2E2E2E2E2E2E2E2E2E2E2E2E2E2E2E2E2E2E2E2E2E2E2E2E2E2E2E2E2E2E2E2E2E2E2E2E2E2E2E2E2E2E2E2F5F5E2E2E2
310
E2E2E2E2E2E2E2E2E2E2E2E2E2E2E2E2E2E2E2E2E2E2E2E2E2E2E2E2E2E2E2E2E2E2E2E2E2E2E2E2E2E2E2E2E2E2E2E2E2E2E2E2E2E2E2E2E2E2E2E2E2E2E2E2E2E2E2E2E2E2E2E2E2E2E2E2E2E2E2E2E2E2E2E2E2E2E2E2E2E2E2E2E2E2E2E2E2E2E2E2E2E2E2E2E2E2E2E2E2E2E2E2E2E2E2E2E2E2E2E2E2E2E2E2E2E2E2
310
E2E2E2E2E2E2E2E2E2E2E2E2E2E2E2E2E2E2E2E2E2E2E2E2E2E2E2E2E2E2E2E2E2E2E2E2E2E2E2E2E2E2E2E2E2E2E2E2F5
  0
XRECORD
  5
5681C
102
{ACAD_REACTORS
330
5681B
102
}
330
5681B
100
AcDbXrecord
280
     1
102
SHADEPLOT
 70
     0
102
SHADEPLOTRESLEVEL
 70
     2
102
SHADEPLOTCUSTOMDPI
 70
   300
  0
ENDSEC
  0
EOF
